<?xml version="1.0" standalone="no"?>
<!DOCTYPE svg PUBLIC "-//W3C//DTD SVG 1.1//EN" "http://www.w3.org/Graphics/SVG/1.1/DTD/svg11.dtd" >
<svg xmlns="http://www.w3.org/2000/svg" xmlns:xlink="http://www.w3.org/1999/xlink" version="1.1">
<metadata>
Created by FontForge 20161013 at Tue Mar 28 18:42:27 2017
 By ,,,
(c) 2007 Typodermic Do not distribute. Report piracy to piracy@typodermic.com. Visit www.typodermic.com and www.larabiefonts.com
</metadata>
<defs>
<font id="OctinCollegeLt-Regular" horiz-adv-x="1095" >
  <font-face 
    font-family="Octin College Lt"
    font-weight="300"
    font-stretch="normal"
    units-per-em="2048"
    panose-1="2 0 5 6 2 0 0 2 0 4"
    ascent="1638"
    descent="-410"
    x-height="1434"
    cap-height="1434"
    bbox="-131 -303 2007 1884"
    underline-thickness="102"
    underline-position="-816"
    unicode-range="U+0020-25FC"
  />
<missing-glyph horiz-adv-x="748" 
d="M68 0v1365h544v-1365h-544zM136 68h408v1229h-408v-1229z" />
    <glyph glyph-name="copyright" unicode="&#x28;C&#x29;" horiz-adv-x="1300" 
d="M102 215v1016l203 203h690l203 -203v-1016l-215 -215h-666zM164 236l174 -175h625l174 175v972l-164 164h-645l-164 -164v-972zM393 440v566l121 120h281l120 -120v-154h-61v131l-82 82h-235l-82 -82v-522l92 -92h215l92 92v139h61v-160l-133 -133h-256z" />
    <glyph glyph-name="registered" unicode="&#x28;R&#x29;" horiz-adv-x="1177" 
d="M102 522v709l203 203h567l203 -203v-709l-215 -215h-543zM164 543l174 -174h502l174 174v665l-164 164h-522l-164 -164v-665zM430 565v637h283l84 -86v-190l-86 -86h-70l141 -275h-65l-146 275h-82v-275h-59zM489 901h201l47 47v144l-47 49h-201v-240z" />
    <glyph glyph-name=".notdef" horiz-adv-x="748" 
d="M68 0v1365h544v-1365h-544zM136 68h408v1229h-408v-1229z" />
    <glyph glyph-name="glyph1" horiz-adv-x="0" 
 />
    <glyph glyph-name="glyph2" horiz-adv-x="682" 
 />
    <glyph glyph-name="space" unicode=" " horiz-adv-x="655" 
 />
    <glyph glyph-name="exclam" unicode="!" horiz-adv-x="389" 
d="M150 0v137h90v-137h-90zM164 430v1004h61v-1004h-61z" />
    <glyph glyph-name="quotedbl" unicode="&#x22;" horiz-adv-x="450" 
d="M102 1126v369h62v-369h-62zM287 1126v369h61v-369h-61z" />
    <glyph glyph-name="numbersign" unicode="#" horiz-adv-x="925" 
d="M74 496v61h121l36 348h-116v62h123l51 467h63l-51 -467h367l51 467h63l-51 -467h119v-62h-125l-37 -348h121v-61h-127l-53 -496h-64l53 496h-366l-53 -496h-64l53 496h-114zM258 557h367l37 348h-367z" />
    <glyph glyph-name="dollar" unicode="$" horiz-adv-x="1013" 
d="M102 344v201h62v-180l153 -154h420l113 113v323l-82 82h-535l-120 121v326l141 141h223v117h62v-117h176l182 -182v-134h-61v111l-144 143h-416l-102 -102v-281l82 -81h535l120 -121v-367l-153 -153h-219v-150h-62v150h-180z" />
    <glyph glyph-name="percent" unicode="%" horiz-adv-x="1396" 
d="M102 932v401l101 101h301l100 -101v-401l-112 -113h-277zM164 952l72 -71h235l72 71v359l-62 61h-256l-61 -61v-359zM197 0l911 1434h78l-914 -1434h-75zM793 113v401l100 100h301l100 -100v-401l-112 -113h-277zM854 133l72 -72h235l72 72v359l-62 61h-256l-61 -61v-359
z" />
    <glyph glyph-name="ampersand" unicode="&#x26;" horiz-adv-x="1077" 
d="M82 170v348l250 250l-185 238v305l123 123h246l123 -123v-326l-223 -223l309 -397l162 280h69l-190 -332l246 -313h-78l-201 256l-147 -256h-334zM141 199l140 -138h270l141 246l-321 410l-230 -228v-290zM209 1026l166 -215l203 203v268l-91 90h-188l-90 -90v-256z" />
    <glyph glyph-name="quotesingle" unicode="'" horiz-adv-x="266" 
d="M102 1126v369h62v-369h-62z" />
    <glyph glyph-name="parenleft" unicode="(" horiz-adv-x="436" 
d="M102 111v1212l164 315h68l-170 -329v-1184l170 -330h-68z" />
    <glyph glyph-name="parenright" unicode=")" horiz-adv-x="436" 
d="M102 -205l170 330v1184l-170 329h68l164 -315v-1212l-164 -316h-68z" />
    <glyph glyph-name="asterisk" unicode="*" horiz-adv-x="788" 
d="M102 1174l256 75l-161 209l47 37l151 -219l150 219l49 -35l-160 -213l252 -71l-16 -60l-250 88l6 -264h-61l8 266l-250 -90z" />
    <glyph glyph-name="plus" unicode="+" horiz-adv-x="778" 
d="M102 700v62h256v256h62v-256h256v-62h-256v-256h-62v256h-256z" />
    <glyph glyph-name="comma" unicode="," horiz-adv-x="321" 
d="M68 -260l61 260v82h90v-105l-108 -256z" />
    <glyph glyph-name="hyphen" unicode="-" horiz-adv-x="466" 
d="M31 707v61h409v-61h-409z" />
    <glyph glyph-name="period" unicode="." horiz-adv-x="294" 
d="M102 0v137h91v-137h-91z" />
    <glyph glyph-name="slash" unicode="/" horiz-adv-x="509" 
d="M-20 -213l456 1708h62l-457 -1708h-61z" />
    <glyph glyph-name="zero" unicode="0" 
d="M102 215v1016l203 203h486l202 -203v-1016l-215 -215h-461zM164 236l174 -175h420l174 175v972l-164 164h-440l-164 -164v-972z" />
    <glyph glyph-name="one" unicode="1" horiz-adv-x="616" 
d="M102 1276l158 158h90v-1373h164v-61h-389v61h164v1315l-144 -143z" />
    <glyph glyph-name="two" unicode="2" horiz-adv-x="1054" 
d="M102 0v612l142 142h534l103 102v373l-144 143h-415l-144 -143v-152h-61v174l182 183h461l182 -183v-417l-141 -142h-535l-102 -102v-529h788v-61h-850z" />
    <glyph glyph-name="three" unicode="3" horiz-adv-x="1054" 
d="M102 195v262h62v-242l153 -154h420l154 154v383l-143 143h-365v62h354l144 143v283l-144 143h-420l-143 -143v-152h-61v174l182 183h465l182 -183v-327l-145 -146l155 -155v-428l-194 -195h-461z" />
    <glyph glyph-name="four" unicode="4" horiz-adv-x="1024" 
d="M61 426v51l648 957h77v-947h164v-61h-164v-426h-61v426h-664zM141 487h584v863z" />
    <glyph glyph-name="five" unicode="5" horiz-adv-x="1054" 
d="M102 195v262h62v-242l153 -154h420l154 154v463l-103 102h-665v654h803v-62h-742v-530h627l141 -142v-505l-194 -195h-461z" />
    <glyph glyph-name="six" unicode="6" horiz-adv-x="1054" 
d="M102 195v1056l183 183h471l182 -183v-174h-61v152l-144 143h-426l-143 -143v-383h647l141 -141v-510l-194 -195h-461zM164 215l153 -154h420l154 154v467l-103 102h-624v-569z" />
    <glyph glyph-name="seven" unicode="7" horiz-adv-x="942" 
d="M68 1372v62h794v-232l-510 -1202h-67l516 1214v158h-733z" />
    <glyph glyph-name="eight" unicode="8" horiz-adv-x="1054" 
d="M102 195v428l156 155l-145 146v327l182 183h465l182 -183v-327l-145 -146l155 -155v-428l-194 -195h-461zM164 215l153 -154h420l154 154v383l-143 143h-441l-143 -143v-383zM174 946l143 -143h420l144 143v283l-144 143h-420l-143 -143v-283z" />
    <glyph glyph-name="nine" unicode="9" horiz-adv-x="1050" 
d="M102 842v397l195 195h457l194 -195v-1057l-182 -182h-471l-182 182v275h61v-252l143 -144h426l144 144v495h-643zM164 864l102 -102h621v457l-154 153h-416l-153 -153v-355z" />
    <glyph glyph-name="colon" unicode=":" horiz-adv-x="294" 
d="M102 332v137h91v-137h-91zM102 911v138h91v-138h-91z" />
    <glyph glyph-name="semicolon" unicode=";" horiz-adv-x="311" 
d="M57 -260l62 260v82h90v-105l-109 -256zM113 784v138h90v-138h-90z" />
    <glyph glyph-name="less" unicode="&#x3c;" horiz-adv-x="817" 
d="M102 709v53l613 317v-67l-533 -277l533 -278v-68z" />
    <glyph glyph-name="equal" unicode="=" horiz-adv-x="778" 
d="M102 578v61h574v-61h-574zM102 823v62h574v-62h-574z" />
    <glyph glyph-name="greater" unicode="&#x3e;" horiz-adv-x="817" 
d="M102 389v68l533 278l-533 277v67l613 -317v-53z" />
    <glyph glyph-name="question" unicode="?" horiz-adv-x="937" 
d="M90 1077v174l182 183h400l182 -183v-262l-397 -399v-160h-62v182l398 400v217l-144 143h-354l-143 -143v-152h-62zM381 0v137h90v-137h-90z" />
    <glyph glyph-name="at" unicode="@" 
d="M102 223v975l236 236h522l133 -134v-768l-112 -112h-277l-112 112v402l100 100h340v246l-92 92h-482l-194 -194v-932l184 -185h600v-61h-622zM553 553l72 -72h235l72 72v420h-318l-61 -62v-358z" />
    <glyph glyph-name="A" unicode="A" horiz-adv-x="993" 
d="M41 0l410 1434h94l407 -1434h-65l-117 408h-547l-117 -408h-65zM240 469h505l-249 903z" />
    <glyph glyph-name="B" unicode="B" horiz-adv-x="1003" 
d="M123 0v1434h586l182 -183v-336l-146 -145l156 -156v-419l-194 -195h-584zM184 61h502l154 154v375l-144 143h-512v-672zM184 795h502l143 143v291l-143 143h-502v-577z" />
    <glyph glyph-name="C" unicode="C" horiz-adv-x="1075" 
d="M102 236v974l224 224h465l182 -183v-235h-62v213l-143 143h-420l-184 -184v-932l194 -195h400l153 154v242h62v-262l-195 -195h-440z" />
    <glyph glyph-name="D" unicode="D" horiz-adv-x="1073" 
d="M123 0v1434h584l264 -265v-893l-277 -276h-571zM184 61h490l235 236v850l-225 225h-500v-1311z" />
    <glyph glyph-name="E" unicode="E" horiz-adv-x="1021" 
d="M123 0v1434h815v-62h-754v-569h557v-62h-557v-680h758v-61h-819z" />
    <glyph glyph-name="F" unicode="F" horiz-adv-x="968" 
d="M123 0v1434h815v-62h-754v-610h639v-62h-639v-700h-61z" />
    <glyph glyph-name="G" unicode="G" 
d="M102 236v974l224 224h485l182 -183v-237h-61v215l-144 143h-440l-184 -184v-932l194 -195h359l215 215v394h-336v61h397v-731h-61v195l-195 -195h-399z" />
    <glyph glyph-name="H" unicode="H" horiz-adv-x="1081" 
d="M123 0v1434h61v-631h713v631h61v-1434h-61v741h-713v-741h-61z" />
    <glyph glyph-name="I" unicode="I" horiz-adv-x="348" 
d="M143 0v1434h62v-1434h-62z" />
    <glyph glyph-name="J" unicode="J" horiz-adv-x="915" 
d="M68 195v262h61v-242l154 -154h274l195 195v1178h61v-1198l-235 -236h-316z" />
    <glyph glyph-name="K" unicode="K" horiz-adv-x="962" 
d="M123 0v1434h61v-746l633 746h78l-430 -508l428 -926h-72l-401 870l-236 -278v-592h-61z" />
    <glyph glyph-name="L" unicode="L" horiz-adv-x="972" 
d="M123 0v1434h61v-1373h738v-61h-799z" />
    <glyph glyph-name="M" unicode="M" horiz-adv-x="1142" 
d="M123 0v1434h70l378 -652l379 652h70v-1434h-62v1323l-354 -608h-65l-355 608v-1323h-61z" />
    <glyph glyph-name="N" unicode="N" horiz-adv-x="1105" 
d="M123 -2v1436h135l664 -1307v1307h61v-1434h-63l-699 1372h-37v-1374h-61z" />
    <glyph glyph-name="O" unicode="O" 
d="M102 215v1016l203 203h486l202 -203v-1016l-215 -215h-461zM164 236l174 -175h420l174 175v972l-164 164h-440l-164 -164v-972z" />
    <glyph glyph-name="P" unicode="P" horiz-adv-x="1017" 
d="M123 0v1434h627l202 -203v-479l-202 -203h-566v-549h-61zM184 610h543l164 164v434l-164 164h-543v-762z" />
    <glyph glyph-name="Q" unicode="Q" 
d="M102 215v1016l203 203h486l202 -203v-1016l-215 -215h-192v-201h-62v201h-207zM164 236l174 -175h186v330h62v-330h172l174 175v972l-164 164h-440l-164 -164v-972z" />
    <glyph glyph-name="R" unicode="R" horiz-adv-x="1003" 
d="M123 0v1434h614l183 -183v-417l-183 -183h-217l340 -651h-72l-342 651h-262v-651h-61zM184 713h531l143 143v373l-143 143h-531v-659z" />
    <glyph glyph-name="S" unicode="S" horiz-adv-x="1054" 
d="M102 195v262h62v-242l153 -154h420l154 154v406l-103 102h-544l-142 141v387l183 183h471l182 -183v-174h-61v152l-144 143h-426l-143 -143v-342l102 -103h545l141 -141v-448l-194 -195h-461z" />
    <glyph glyph-name="T" unicode="T" horiz-adv-x="997" 
d="M29 1372v62h942v-62h-441v-1372h-61v1372h-440z" />
    <glyph glyph-name="U" unicode="U" horiz-adv-x="1081" 
d="M123 215v1219h61v-1198l174 -175h365l174 175v1198h61v-1219l-215 -215h-405z" />
    <glyph glyph-name="V" unicode="V" horiz-adv-x="993" 
d="M41 1434h65l392 -1373l389 1373h65l-411 -1434h-90z" />
    <glyph glyph-name="W" unicode="W" horiz-adv-x="1703" 
d="M41 1434h63l328 -1373l371 1373h96l373 -1373l325 1373h66l-342 -1434h-96l-373 1372l-375 -1372h-96z" />
    <glyph glyph-name="X" unicode="X" horiz-adv-x="980" 
d="M41 0l414 750l-379 684h71l342 -621l345 621h69l-379 -684l416 -750h-70l-381 686l-376 -686h-72z" />
    <glyph glyph-name="Y" unicode="Y" horiz-adv-x="890" 
d="M41 1434h68l337 -795l338 795h66l-373 -877v-557h-61v557z" />
    <glyph glyph-name="Z" unicode="Z" horiz-adv-x="1064" 
d="M74 0v51l827 1321h-821v62h899v-54l-827 -1319h835v-61h-913z" />
    <glyph glyph-name="bracketleft" unicode="[" horiz-adv-x="512" 
d="M102 -205v1843h308v-61h-246v-1720h246v-62h-308z" />
    <glyph glyph-name="backslash" unicode="\" horiz-adv-x="509" 
d="M14 1495h62l456 -1708h-61z" />
    <glyph glyph-name="bracketright" unicode="]" horiz-adv-x="512" 
d="M102 -143h246v1720h-246v61h308v-1843h-308v62z" />
    <glyph glyph-name="asciicircum" unicode="^" horiz-adv-x="694" 
d="M102 1014l220 420h53l217 -420h-68l-176 340l-178 -340h-68z" />
    <glyph glyph-name="underscore" unicode="_" horiz-adv-x="876" 
d="M0 -82h881v-61h-881v61z" />
    <glyph glyph-name="grave" unicode="`" horiz-adv-x="692" 
d="M102 1751v61l488 -104v-61z" />
    <glyph glyph-name="a" unicode="a" horiz-adv-x="993" 
d="M41 0l410 1434h94l407 -1434h-65l-117 408h-547l-117 -408h-65zM240 469h505l-249 903z" />
    <glyph glyph-name="b" unicode="b" horiz-adv-x="1003" 
d="M123 0v1434h586l182 -183v-336l-146 -145l156 -156v-419l-194 -195h-584zM184 61h502l154 154v375l-144 143h-512v-672zM184 795h502l143 143v291l-143 143h-502v-577z" />
    <glyph glyph-name="c" unicode="c" horiz-adv-x="1075" 
d="M102 236v974l224 224h465l182 -183v-235h-62v213l-143 143h-420l-184 -184v-932l194 -195h400l153 154v242h62v-262l-195 -195h-440z" />
    <glyph glyph-name="d" unicode="d" horiz-adv-x="1073" 
d="M123 0v1434h584l264 -265v-893l-277 -276h-571zM184 61h490l235 236v850l-225 225h-500v-1311z" />
    <glyph glyph-name="e" unicode="e" horiz-adv-x="1021" 
d="M123 0v1434h815v-62h-754v-569h557v-62h-557v-680h758v-61h-819z" />
    <glyph glyph-name="f" unicode="f" horiz-adv-x="968" 
d="M123 0v1434h815v-62h-754v-610h639v-62h-639v-700h-61z" />
    <glyph glyph-name="g" unicode="g" 
d="M102 236v974l224 224h485l182 -183v-237h-61v215l-144 143h-440l-184 -184v-932l194 -195h359l215 215v394h-336v61h397v-731h-61v195l-195 -195h-399z" />
    <glyph glyph-name="h" unicode="h" horiz-adv-x="1081" 
d="M123 0v1434h61v-631h713v631h61v-1434h-61v741h-713v-741h-61z" />
    <glyph glyph-name="i" unicode="i" horiz-adv-x="348" 
d="M143 0v1434h62v-1434h-62z" />
    <glyph glyph-name="j" unicode="j" horiz-adv-x="915" 
d="M68 195v262h61v-242l154 -154h274l195 195v1178h61v-1198l-235 -236h-316z" />
    <glyph glyph-name="k" unicode="k" horiz-adv-x="962" 
d="M123 0v1434h61v-746l633 746h78l-430 -508l428 -926h-72l-401 870l-236 -278v-592h-61z" />
    <glyph glyph-name="l" unicode="l" horiz-adv-x="972" 
d="M123 0v1434h61v-1373h738v-61h-799z" />
    <glyph glyph-name="m" unicode="m" horiz-adv-x="1142" 
d="M123 0v1434h70l378 -652l379 652h70v-1434h-62v1323l-354 -608h-65l-355 608v-1323h-61z" />
    <glyph glyph-name="n" unicode="n" horiz-adv-x="1105" 
d="M123 -2v1436h135l664 -1307v1307h61v-1434h-63l-699 1372h-37v-1374h-61z" />
    <glyph glyph-name="o" unicode="o" 
d="M102 215v1016l203 203h486l202 -203v-1016l-215 -215h-461zM164 236l174 -175h420l174 175v972l-164 164h-440l-164 -164v-972z" />
    <glyph glyph-name="p" unicode="p" horiz-adv-x="1017" 
d="M123 0v1434h627l202 -203v-479l-202 -203h-566v-549h-61zM184 610h543l164 164v434l-164 164h-543v-762z" />
    <glyph glyph-name="q" unicode="q" 
d="M102 215v1016l203 203h486l202 -203v-1016l-215 -215h-192v-201h-62v201h-207zM164 236l174 -175h186v330h62v-330h172l174 175v972l-164 164h-440l-164 -164v-972z" />
    <glyph glyph-name="r" unicode="r" horiz-adv-x="1003" 
d="M123 0v1434h614l183 -183v-417l-183 -183h-217l340 -651h-72l-342 651h-262v-651h-61zM184 713h531l143 143v373l-143 143h-531v-659z" />
    <glyph glyph-name="s" unicode="s" horiz-adv-x="1054" 
d="M102 195v262h62v-242l153 -154h420l154 154v406l-103 102h-544l-142 141v387l183 183h471l182 -183v-174h-61v152l-144 143h-426l-143 -143v-342l102 -103h545l141 -141v-448l-194 -195h-461z" />
    <glyph glyph-name="t" unicode="t" horiz-adv-x="997" 
d="M29 1372v62h942v-62h-441v-1372h-61v1372h-440z" />
    <glyph glyph-name="u" unicode="u" horiz-adv-x="1081" 
d="M123 215v1219h61v-1198l174 -175h365l174 175v1198h61v-1219l-215 -215h-405z" />
    <glyph glyph-name="v" unicode="v" horiz-adv-x="993" 
d="M41 1434h65l392 -1373l389 1373h65l-411 -1434h-90z" />
    <glyph glyph-name="w" unicode="w" horiz-adv-x="1703" 
d="M41 1434h63l328 -1373l371 1373h96l373 -1373l325 1373h66l-342 -1434h-96l-373 1372l-375 -1372h-96z" />
    <glyph glyph-name="x" unicode="x" horiz-adv-x="980" 
d="M41 0l414 750l-379 684h71l342 -621l345 621h69l-379 -684l416 -750h-70l-381 686l-376 -686h-72z" />
    <glyph glyph-name="y" unicode="y" horiz-adv-x="890" 
d="M41 1434h68l337 -795l338 795h66l-373 -877v-557h-61v557z" />
    <glyph glyph-name="z" unicode="z" horiz-adv-x="1064" 
d="M74 0v51l827 1321h-821v62h899v-54l-827 -1319h835v-61h-913z" />
    <glyph glyph-name="braceleft" unicode="{" horiz-adv-x="753" 
d="M102 690v58h88l107 188v561l141 141h213v-61h-190l-103 -102v-543l-116 -213l116 -213v-547l103 -102h190v-62h-213l-141 142v565l-107 188h-88z" />
    <glyph glyph-name="bar" unicode="|" horiz-adv-x="266" 
d="M102 -246v1741h62v-1741h-62z" />
    <glyph glyph-name="braceright" unicode="}" horiz-adv-x="753" 
d="M102 -143h191l102 102v547l117 213l-117 213v543l-102 102h-191v61h213l142 -141v-561l106 -188h88v-58h-88l-106 -188v-565l-142 -142h-213v62z" />
    <glyph glyph-name="asciitilde" unicode="~" horiz-adv-x="774" 
d="M102 666v63q46 37 134 37q52 0 154 -30.5t161 -30.5q72 0 121 38v-59q-51 -39 -135 -39q-42 0 -155 31t-155 31q-72 0 -125 -41z" />
    <glyph glyph-name="uni00A0" unicode="&#xa0;" horiz-adv-x="655" 
 />
    <glyph glyph-name="exclamdown" unicode="&#xa1;" horiz-adv-x="294" 
d="M102 1296v138h91v-138h-91zM117 0v1004h61v-1004h-61z" />
    <glyph glyph-name="cent" unicode="&#xa2;" horiz-adv-x="993" 
d="M102 303v873l142 141h223v117h61v-117h217l142 -141v-175h-62v152l-102 102h-457l-102 -102v-829l112 -113h441l112 113v221h62v-242l-154 -153h-209v-150h-61v150h-211z" />
    <glyph glyph-name="sterling" unicode="&#xa3;" horiz-adv-x="1136" 
d="M102 0v61h164v590h-164v62h164v579l142 142h399l141 -142v-315h-61v293l-103 102h-354l-102 -102v-557h477v-62h-477v-590h645v246h61v-307h-932z" />
    <glyph glyph-name="yen" unicode="&#xa5;" horiz-adv-x="1155" 
d="M102 1434h72l404 -629l405 629h70l-447 -693v-147h416v-62h-416v-204h416v-62h-416v-266h-61v266h-402v62h402v204h-402v62h402v147z" />
    <glyph glyph-name="brokenbar" unicode="&#xa6;" horiz-adv-x="661" 
d="M102 1434h62l166 -555l168 555h61l-197 -643h-67zM121 96v125h59v-98l62 -64h174l63 64v147l-39 37h-245l-74 78v170l88 88h231l92 -90v-82h-59v55l-59 58h-181l-53 -56v-122q3 -4 16 -17t19 -22h252l72 -70v-201l-97 -96h-227z" />
    <glyph glyph-name="dieresis" unicode="&#xa8;" horiz-adv-x="643" 
d="M102 1663v137h91v-137h-91zM451 1663v137h90v-137h-90z" />
    <glyph glyph-name="ordfeminine" unicode="&#xaa;" horiz-adv-x="686" 
d="M102 788v224l80 80h340v219l-61 61h-221l-62 -61v-111h-61v133l100 101h266l101 -101v-545l-113 -112h-256zM164 809l72 -72h215l71 72v221h-317l-41 -41v-180z" />
    <glyph glyph-name="guillemotleft" unicode="&#xab;" horiz-adv-x="641" 
d="M31 764l211 250h86l-219 -250l219 -250h-86zM317 764l211 250h86l-219 -250l219 -250h-86z" />
    <glyph glyph-name="uni00AD" unicode="&#xad;" horiz-adv-x="466" 
d="M31 707v61h409v-61h-409z" />
    <glyph glyph-name="macron" unicode="&#xaf;" horiz-adv-x="614" 
d="M102 1704v61h410v-61h-410z" />
    <glyph glyph-name="degree" unicode="&#xb0;" horiz-adv-x="659" 
d="M102 1137v196l101 101h254l100 -101v-196l-113 -113h-229zM164 1157l72 -72h188l72 72v154l-62 61h-209l-61 -61v-154z" />
    <glyph glyph-name="plusminus" unicode="&#xb1;" horiz-adv-x="778" 
d="M102 207v61h574v-61h-574zM102 700v62h256v256h62v-256h256v-62h-256v-256h-62v256h-256z" />
    <glyph glyph-name="acute" unicode="&#xb4;" horiz-adv-x="692" 
d="M102 1647v61l488 104v-61z" />
    <glyph glyph-name="periodcentered" unicode="&#xb7;" horiz-adv-x="380" 
d="M147 670v137h91v-137h-91z" />
    <glyph glyph-name="cedilla" unicode="&#xb8;" horiz-adv-x="309" 
d="M102 -303l39 262h66l-53 -262h-52z" />
    <glyph glyph-name="ordmasculine" unicode="&#xba;" horiz-adv-x="659" 
d="M102 788v545l101 101h254l100 -101v-545l-113 -112h-229zM164 809l72 -72h188l72 72v502l-62 61h-207l-63 -61v-502z" />
    <glyph glyph-name="guillemotright" unicode="&#xbb;" horiz-adv-x="641" 
d="M31 514l219 250l-219 250h86l211 -250l-211 -250h-86zM317 514l220 250l-220 250h86l211 -250l-211 -250h-86z" />
    <glyph glyph-name="questiondown" unicode="&#xbf;" horiz-adv-x="968" 
d="M102 182v262l398 400v160h61v-183l-397 -399v-217l143 -144h355l143 144v151h61v-174l-182 -182h-399zM485 1296v138h90v-138h-90z" />
    <glyph glyph-name="Agrave" unicode="&#xc0;" horiz-adv-x="993" 
d="M41 0l410 1434h94l407 -1434h-65l-117 408h-547l-117 -408h-65zM190 1751v61l488 -104v-61zM240 469h505l-249 903z" />
    <glyph glyph-name="Aacute" unicode="&#xc1;" horiz-adv-x="993" 
d="M41 0l410 1434h94l407 -1434h-65l-117 408h-547l-117 -408h-65zM240 469h505l-249 903zM313 1647v61l488 104v-61z" />
    <glyph glyph-name="Acircumflex" unicode="&#xc2;" horiz-adv-x="993" 
d="M41 0l410 1434h94l407 -1434h-65l-117 408h-547l-117 -408h-65zM207 1577l264 307h53l260 -307h-82l-204 238l-209 -238h-82zM240 469h505l-249 903z" />
    <glyph glyph-name="Atilde" unicode="&#xc3;" horiz-adv-x="993" 
d="M41 0l410 1434h94l407 -1434h-65l-117 408h-547l-117 -408h-65zM240 469h505l-249 903zM264 1690v71q39 39 111 39q53 0 128.5 -37t123.5 -37q56 0 102 52v-72q-45 -39 -113 -39q-50 0 -129 37t-120 37q-52 0 -103 -51z" />
    <glyph glyph-name="Adieresis" unicode="&#xc4;" horiz-adv-x="993" 
d="M41 0l410 1434h94l407 -1434h-65l-117 408h-547l-117 -408h-65zM240 469h505l-249 903zM276 1663v137h91v-137h-91zM625 1663v137h90v-137h-90z" />
    <glyph glyph-name="Aring" unicode="&#xc5;" horiz-adv-x="993" 
d="M41 0l410 1434h94l407 -1434h-65l-117 408h-547l-117 -408h-65zM240 469h505l-249 903zM326 1649v176l59 59h221l60 -59v-176l-72 -72h-197zM387 1669l31 -31h155l31 31v133l-20 21h-176l-21 -21v-133z" />
    <glyph glyph-name="AE" unicode="&#xc6;" horiz-adv-x="1583" 
d="M53 0l289 1434h1157v-62h-713v-569h517v-62h-517v-680h717v-61h-778v408h-535l-79 -408h-58zM203 469h522v903h-342z" />
    <glyph glyph-name="Ccedilla" unicode="&#xc7;" horiz-adv-x="1075" 
d="M102 236v974l224 224h465l182 -183v-235h-62v213l-143 143h-420l-184 -184v-932l194 -195h400l153 154v242h62v-262l-195 -195h-440zM485 -303l39 262h66l-53 -262h-52z" />
    <glyph glyph-name="Egrave" unicode="&#xc8;" horiz-adv-x="1021" 
d="M123 0v1434h815v-62h-754v-569h557v-62h-557v-680h758v-61h-819zM205 1751v61l487 -104v-61z" />
    <glyph glyph-name="Eacute" unicode="&#xc9;" horiz-adv-x="1021" 
d="M123 0v1434h815v-62h-754v-569h557v-62h-557v-680h758v-61h-819zM328 1647v61l487 104v-61z" />
    <glyph glyph-name="Ecircumflex" unicode="&#xca;" horiz-adv-x="1021" 
d="M123 0v1434h815v-62h-754v-569h557v-62h-557v-680h758v-61h-819zM221 1577l264 307h54l260 -307h-82l-205 238l-209 -238h-82z" />
    <glyph glyph-name="Edieresis" unicode="&#xcb;" horiz-adv-x="1021" 
d="M123 0v1434h815v-62h-754v-569h557v-62h-557v-680h758v-61h-819zM291 1663v137h90v-137h-90zM639 1663v137h90v-137h-90z" />
    <glyph glyph-name="Igrave" unicode="&#xcc;" horiz-adv-x="348" 
d="M-131 1751v61l487 -104v-61zM143 0v1434h62v-1434h-62z" />
    <glyph glyph-name="Iacute" unicode="&#xcd;" horiz-adv-x="348" 
d="M-8 1647v61l487 104v-61zM143 0v1434h62v-1434h-62z" />
    <glyph glyph-name="Icircumflex" unicode="&#xce;" horiz-adv-x="348" 
d="M-115 1577l265 307h53l260 -307h-82l-205 238l-209 -238h-82zM143 0v1434h62v-1434h-62z" />
    <glyph glyph-name="Idieresis" unicode="&#xcf;" horiz-adv-x="348" 
d="M-45 1663v137h90v-137h-90zM143 0v1434h62v-1434h-62zM303 1663v137h90v-137h-90z" />
    <glyph glyph-name="Eth" unicode="&#xd0;" horiz-adv-x="1073" 
d="M55 741v62h68v631h584l264 -265v-893l-277 -276h-571v741h-68zM184 61h490l235 236v850l-225 225h-500v-569h369v-62h-369v-680z" />
    <glyph glyph-name="Ntilde" unicode="&#xd1;" horiz-adv-x="1105" 
d="M123 -2v1436h135l664 -1307v1307h61v-1434h-63l-699 1372h-37v-1374h-61zM319 1690v71q39 39 111 39q53 0 128.5 -37t123.5 -37q56 0 102 52v-72q-45 -39 -112 -39q-51 0 -129.5 37t-120.5 37q-52 0 -103 -51z" />
    <glyph glyph-name="Ograve" unicode="&#xd2;" 
d="M102 215v1016l203 203h486l202 -203v-1016l-215 -215h-461zM164 236l174 -175h420l174 175v972l-164 164h-440l-164 -164v-972zM242 1751v61l487 -104v-61z" />
    <glyph glyph-name="Oacute" unicode="&#xd3;" 
d="M102 215v1016l203 203h486l202 -203v-1016l-215 -215h-461zM164 236l174 -175h420l174 175v972l-164 164h-440l-164 -164v-972zM365 1647v61l487 104v-61z" />
    <glyph glyph-name="Ocircumflex" unicode="&#xd4;" 
d="M102 215v1016l203 203h486l202 -203v-1016l-215 -215h-461zM164 236l174 -175h420l174 175v972l-164 164h-440l-164 -164v-972zM258 1577l264 307h53l261 -307h-82l-205 238l-209 -238h-82z" />
    <glyph glyph-name="Otilde" unicode="&#xd5;" 
d="M102 215v1016l203 203h486l202 -203v-1016l-215 -215h-461zM164 236l174 -175h420l174 175v972l-164 164h-440l-164 -164v-972zM315 1690v71q39 39 111 39q53 0 128.5 -37t123.5 -37q56 0 102 52v-72q-45 -39 -112 -39q-51 0 -129.5 37t-120.5 37q-52 0 -103 -51z" />
    <glyph glyph-name="Odieresis" unicode="&#xd6;" 
d="M102 215v1016l203 203h486l202 -203v-1016l-215 -215h-461zM164 236l174 -175h420l174 175v972l-164 164h-440l-164 -164v-972zM328 1663v137h90v-137h-90zM676 1663v137h90v-137h-90z" />
    <glyph glyph-name="multiply" unicode="&#xd7;" horiz-adv-x="655" 
d="M102 551l183 180l-183 180l45 45l181 -182l180 182l45 -45l-182 -180l182 -180l-45 -45l-180 182l-181 -182z" />
    <glyph glyph-name="Oslash" unicode="&#xd8;" 
d="M102 215v1016l203 203h432l27 86l57 -17l-24 -78l196 -194v-1016l-215 -215h-409l-25 -84l-57 16l22 76zM164 236l164 -166l391 1302h-391l-164 -164v-972zM387 61h371l174 175v972l-154 154z" />
    <glyph glyph-name="Ugrave" unicode="&#xd9;" horiz-adv-x="1081" 
d="M123 215v1219h61v-1198l174 -175h365l174 175v1198h61v-1219l-215 -215h-405zM236 1751v61l487 -104v-61z" />
    <glyph glyph-name="Uacute" unicode="&#xda;" horiz-adv-x="1081" 
d="M123 215v1219h61v-1198l174 -175h365l174 175v1198h61v-1219l-215 -215h-405zM358 1647v61l488 104v-61z" />
    <glyph glyph-name="Ucircumflex" unicode="&#xdb;" horiz-adv-x="1081" 
d="M123 215v1219h61v-1198l174 -175h365l174 175v1198h61v-1219l-215 -215h-405zM252 1577l264 307h53l260 -307h-81l-205 238l-209 -238h-82z" />
    <glyph glyph-name="Udieresis" unicode="&#xdc;" horiz-adv-x="1081" 
d="M123 215v1219h61v-1198l174 -175h365l174 175v1198h61v-1219l-215 -215h-405zM322 1663v137h90v-137h-90zM670 1663v137h90v-137h-90z" />
    <glyph glyph-name="Yacute" unicode="&#xdd;" horiz-adv-x="890" 
d="M41 1434h68l337 -795l338 795h66l-373 -877v-557h-61v557zM262 1647v61l488 104v-61z" />
    <glyph glyph-name="Thorn" unicode="&#xde;" horiz-adv-x="1009" 
d="M123 0v1434h61v-273h566l202 -203v-438l-202 -203h-566v-317h-61zM184 379h543l164 164v393l-164 164h-543v-721z" />
    <glyph glyph-name="germandbls" unicode="&#xdf;" horiz-adv-x="2109" 
d="M102 195v262h62v-242l153 -154h420l154 154v406l-103 102h-544l-142 141v387l183 183h471l182 -183v-174h-61v152l-144 143h-426l-143 -143v-342l102 -103h545l141 -141v-448l-194 -195h-461zM1157 195v262h62v-242l153 -154h420l154 154v406l-103 102h-545l-141 141v387
l182 183h471l183 -183v-174h-62v152l-143 143h-426l-143 -143v-342l102 -103h545l141 -141v-448l-195 -195h-460z" />
    <glyph glyph-name="agrave" unicode="&#xe0;" horiz-adv-x="993" 
d="M41 0l410 1434h94l407 -1434h-65l-117 408h-547l-117 -408h-65zM190 1751v61l488 -104v-61zM240 469h505l-249 903z" />
    <glyph glyph-name="aacute" unicode="&#xe1;" horiz-adv-x="993" 
d="M41 0l410 1434h94l407 -1434h-65l-117 408h-547l-117 -408h-65zM240 469h505l-249 903zM313 1647v61l488 104v-61z" />
    <glyph glyph-name="acircumflex" unicode="&#xe2;" horiz-adv-x="993" 
d="M41 0l410 1434h94l407 -1434h-65l-117 408h-547l-117 -408h-65zM207 1577l264 307h53l260 -307h-82l-204 238l-209 -238h-82zM240 469h505l-249 903z" />
    <glyph glyph-name="atilde" unicode="&#xe3;" horiz-adv-x="993" 
d="M41 0l410 1434h94l407 -1434h-65l-117 408h-547l-117 -408h-65zM240 469h505l-249 903zM264 1690v71q39 39 111 39q53 0 128.5 -37t123.5 -37q56 0 102 52v-72q-45 -39 -113 -39q-50 0 -129 37t-120 37q-52 0 -103 -51z" />
    <glyph glyph-name="adieresis" unicode="&#xe4;" horiz-adv-x="993" 
d="M41 0l410 1434h94l407 -1434h-65l-117 408h-547l-117 -408h-65zM240 469h505l-249 903zM276 1663v137h91v-137h-91zM625 1663v137h90v-137h-90z" />
    <glyph glyph-name="aring" unicode="&#xe5;" horiz-adv-x="993" 
d="M41 0l410 1434h94l407 -1434h-65l-117 408h-547l-117 -408h-65zM240 469h505l-249 903zM326 1649v176l59 59h221l60 -59v-176l-72 -72h-197zM387 1669l31 -31h155l31 31v133l-20 21h-176l-21 -21v-133z" />
    <glyph glyph-name="ae" unicode="&#xe6;" horiz-adv-x="1583" 
d="M53 0l289 1434h1157v-62h-713v-569h517v-62h-517v-680h717v-61h-778v408h-535l-79 -408h-58zM203 469h522v903h-342z" />
    <glyph glyph-name="ccedilla" unicode="&#xe7;" horiz-adv-x="1075" 
d="M102 236v974l224 224h465l182 -183v-235h-62v213l-143 143h-420l-184 -184v-932l194 -195h400l153 154v242h62v-262l-195 -195h-440zM485 -303l39 262h66l-53 -262h-52z" />
    <glyph glyph-name="egrave" unicode="&#xe8;" horiz-adv-x="1021" 
d="M123 0v1434h815v-62h-754v-569h557v-62h-557v-680h758v-61h-819zM205 1751v61l487 -104v-61z" />
    <glyph glyph-name="eacute" unicode="&#xe9;" horiz-adv-x="1021" 
d="M123 0v1434h815v-62h-754v-569h557v-62h-557v-680h758v-61h-819zM328 1647v61l487 104v-61z" />
    <glyph glyph-name="ecircumflex" unicode="&#xea;" horiz-adv-x="1021" 
d="M123 0v1434h815v-62h-754v-569h557v-62h-557v-680h758v-61h-819zM221 1577l264 307h54l260 -307h-82l-205 238l-209 -238h-82z" />
    <glyph glyph-name="edieresis" unicode="&#xeb;" horiz-adv-x="1021" 
d="M123 0v1434h815v-62h-754v-569h557v-62h-557v-680h758v-61h-819zM291 1663v137h90v-137h-90zM639 1663v137h90v-137h-90z" />
    <glyph glyph-name="igrave" unicode="&#xec;" horiz-adv-x="348" 
d="M-131 1751v61l487 -104v-61zM143 0v1434h62v-1434h-62z" />
    <glyph glyph-name="iacute" unicode="&#xed;" horiz-adv-x="348" 
d="M-8 1647v61l487 104v-61zM143 0v1434h62v-1434h-62z" />
    <glyph glyph-name="icircumflex" unicode="&#xee;" horiz-adv-x="348" 
d="M-115 1577l265 307h53l260 -307h-82l-205 238l-209 -238h-82zM143 0v1434h62v-1434h-62z" />
    <glyph glyph-name="idieresis" unicode="&#xef;" horiz-adv-x="348" 
d="M-45 1663v137h90v-137h-90zM143 0v1434h62v-1434h-62zM303 1663v137h90v-137h-90z" />
    <glyph glyph-name="eth" unicode="&#xf0;" horiz-adv-x="1073" 
d="M55 741v62h68v631h584l264 -265v-893l-277 -276h-571v741h-68zM184 61h490l235 236v850l-225 225h-500v-569h369v-62h-369v-680z" />
    <glyph glyph-name="ntilde" unicode="&#xf1;" horiz-adv-x="1105" 
d="M123 -2v1436h135l664 -1307v1307h61v-1434h-63l-699 1372h-37v-1374h-61zM319 1690v71q39 39 111 39q53 0 128.5 -37t123.5 -37q56 0 102 52v-72q-45 -39 -112 -39q-51 0 -129.5 37t-120.5 37q-52 0 -103 -51z" />
    <glyph glyph-name="ograve" unicode="&#xf2;" 
d="M102 215v1016l203 203h486l202 -203v-1016l-215 -215h-461zM164 236l174 -175h420l174 175v972l-164 164h-440l-164 -164v-972zM242 1751v61l487 -104v-61z" />
    <glyph glyph-name="oacute" unicode="&#xf3;" 
d="M102 215v1016l203 203h486l202 -203v-1016l-215 -215h-461zM164 236l174 -175h420l174 175v972l-164 164h-440l-164 -164v-972zM365 1647v61l487 104v-61z" />
    <glyph glyph-name="ocircumflex" unicode="&#xf4;" 
d="M102 215v1016l203 203h486l202 -203v-1016l-215 -215h-461zM164 236l174 -175h420l174 175v972l-164 164h-440l-164 -164v-972zM258 1577l264 307h53l261 -307h-82l-205 238l-209 -238h-82z" />
    <glyph glyph-name="otilde" unicode="&#xf5;" 
d="M102 215v1016l203 203h486l202 -203v-1016l-215 -215h-461zM164 236l174 -175h420l174 175v972l-164 164h-440l-164 -164v-972zM315 1690v71q39 39 111 39q53 0 128.5 -37t123.5 -37q56 0 102 52v-72q-45 -39 -112 -39q-51 0 -129.5 37t-120.5 37q-52 0 -103 -51z" />
    <glyph glyph-name="odieresis" unicode="&#xf6;" 
d="M102 215v1016l203 203h486l202 -203v-1016l-215 -215h-461zM164 236l174 -175h420l174 175v972l-164 164h-440l-164 -164v-972zM328 1663v137h90v-137h-90zM676 1663v137h90v-137h-90z" />
    <glyph glyph-name="divide" unicode="&#xf7;" horiz-adv-x="778" 
d="M102 700v62h574v-62h-574zM342 367v137h90v-137h-90zM342 946v137h90v-137h-90z" />
    <glyph glyph-name="oslash" unicode="&#xf8;" 
d="M102 215v1016l203 203h432l27 86l57 -17l-24 -78l196 -194v-1016l-215 -215h-409l-25 -84l-57 16l22 76zM164 236l164 -166l391 1302h-391l-164 -164v-972zM387 61h371l174 175v972l-154 154z" />
    <glyph glyph-name="ugrave" unicode="&#xf9;" horiz-adv-x="1081" 
d="M123 215v1219h61v-1198l174 -175h365l174 175v1198h61v-1219l-215 -215h-405zM236 1751v61l487 -104v-61z" />
    <glyph glyph-name="uacute" unicode="&#xfa;" horiz-adv-x="1081" 
d="M123 215v1219h61v-1198l174 -175h365l174 175v1198h61v-1219l-215 -215h-405zM358 1647v61l488 104v-61z" />
    <glyph glyph-name="ucircumflex" unicode="&#xfb;" horiz-adv-x="1081" 
d="M123 215v1219h61v-1198l174 -175h365l174 175v1198h61v-1219l-215 -215h-405zM252 1577l264 307h53l260 -307h-81l-205 238l-209 -238h-82z" />
    <glyph glyph-name="udieresis" unicode="&#xfc;" horiz-adv-x="1081" 
d="M123 215v1219h61v-1198l174 -175h365l174 175v1198h61v-1219l-215 -215h-405zM322 1663v137h90v-137h-90zM670 1663v137h90v-137h-90z" />
    <glyph glyph-name="yacute" unicode="&#xfd;" horiz-adv-x="890" 
d="M41 1434h68l337 -795l338 795h66l-373 -877v-557h-61v557zM262 1647v61l488 104v-61z" />
    <glyph glyph-name="thorn" unicode="&#xfe;" horiz-adv-x="1009" 
d="M123 0v1434h61v-273h566l202 -203v-438l-202 -203h-566v-317h-61zM184 379h543l164 164v393l-164 164h-543v-721z" />
    <glyph glyph-name="ydieresis" unicode="&#xff;" horiz-adv-x="890" 
d="M41 1434h68l337 -795l338 795h66l-373 -877v-557h-61v557zM225 1663v137h90v-137h-90zM573 1663v137h91v-137h-91z" />
    <glyph glyph-name="OE" unicode="&#x152;" horiz-adv-x="1748" 
d="M102 215v1016l203 203h445l141 -142v142h774v-62h-713v-569h516v-62h-516v-680h717v-61h-778v154l-154 -154h-420zM164 236l174 -175h379l174 175v972l-164 164h-399l-164 -164v-972z" />
    <glyph glyph-name="oe" unicode="&#x153;" horiz-adv-x="1748" 
d="M102 215v1016l203 203h445l141 -142v142h774v-62h-713v-569h516v-62h-516v-680h717v-61h-778v154l-154 -154h-420zM164 236l174 -175h379l174 175v972l-164 164h-399l-164 -164v-972z" />
    <glyph glyph-name="Ydieresis" unicode="&#x178;" horiz-adv-x="890" 
d="M41 1434h68l337 -795l338 795h66l-373 -877v-557h-61v557zM225 1663v137h90v-137h-90zM573 1663v137h91v-137h-91z" />
    <glyph glyph-name="circumflex" unicode="&#x2c6;" horiz-adv-x="782" 
d="M102 1577l265 307h53l260 -307h-82l-205 238l-209 -238h-82z" />
    <glyph glyph-name="tilde" unicode="&#x2dc;" horiz-adv-x="669" 
d="M102 1690v71q39 39 111 39q53 0 128.5 -37t123.5 -37q56 0 102 52v-72q-45 -39 -112 -39q-51 0 -129.5 37t-120.5 37q-52 0 -103 -51z" />
    <glyph glyph-name="uni2000" unicode="&#x2000;" horiz-adv-x="942" 
 />
    <glyph glyph-name="uni2001" unicode="&#x2001;" horiz-adv-x="1884" 
 />
    <glyph glyph-name="uni2002" unicode="&#x2002;" horiz-adv-x="942" 
 />
    <glyph glyph-name="uni2003" unicode="&#x2003;" horiz-adv-x="1884" 
 />
    <glyph glyph-name="uni2004" unicode="&#x2004;" horiz-adv-x="628" 
 />
    <glyph glyph-name="uni2005" unicode="&#x2005;" horiz-adv-x="471" 
 />
    <glyph glyph-name="uni2006" unicode="&#x2006;" horiz-adv-x="314" 
 />
    <glyph glyph-name="uni2007" unicode="&#x2007;" horiz-adv-x="314" 
 />
    <glyph glyph-name="uni2008" unicode="&#x2008;" horiz-adv-x="235" 
 />
    <glyph glyph-name="uni2009" unicode="&#x2009;" horiz-adv-x="376" 
 />
    <glyph glyph-name="uni200A" unicode="&#x200a;" horiz-adv-x="104" 
 />
    <glyph glyph-name="uni2010" unicode="&#x2010;" horiz-adv-x="466" 
d="M31 707v61h409v-61h-409z" />
    <glyph glyph-name="uni2011" unicode="&#x2011;" horiz-adv-x="466" 
d="M31 707v61h409v-61h-409z" />
    <glyph glyph-name="figuredash" unicode="&#x2012;" horiz-adv-x="466" 
d="M31 707v61h409v-61h-409z" />
    <glyph glyph-name="endash" unicode="&#x2013;" horiz-adv-x="1200" 
d="M31 707v61h1143v-61h-1143z" />
    <glyph glyph-name="emdash" unicode="&#x2014;" horiz-adv-x="1859" 
d="M31 707v61h1802v-61h-1802z" />
    <glyph glyph-name="quoteleft" unicode="&#x2018;" horiz-adv-x="356" 
d="M102 1370v105h91v-82l61 -260l-43 -19z" />
    <glyph glyph-name="quoteright" unicode="&#x2019;" horiz-adv-x="356" 
d="M102 1133l62 260v82h90v-105l-109 -256z" />
    <glyph glyph-name="quotesinglbase" unicode="&#x201a;" horiz-adv-x="356" 
d="M102 -260l62 260v82h90v-105l-109 -256z" />
    <glyph glyph-name="quotedblleft" unicode="&#x201c;" horiz-adv-x="561" 
d="M102 1370v105h91v-82l61 -260l-43 -19zM307 1370v105h90v-82l62 -260l-43 -19z" />
    <glyph glyph-name="quotedblright" unicode="&#x201d;" horiz-adv-x="561" 
d="M102 1133l62 260v82h90v-105l-109 -256zM307 1133l62 260v82h90v-105l-109 -256z" />
    <glyph glyph-name="quotedblbase" unicode="&#x201e;" horiz-adv-x="561" 
d="M102 -260l62 260v82h90v-105l-109 -256zM307 -260l62 260v82h90v-105l-109 -256z" />
    <glyph glyph-name="bullet" unicode="&#x2022;" horiz-adv-x="628" 
d="M102 616v226l123 123h178l123 -123v-226l-123 -122h-178z" />
    <glyph glyph-name="ellipsis" unicode="&#x2026;" horiz-adv-x="1236" 
d="M102 0v137h91v-137h-91zM573 0v137h91v-137h-91zM1044 0v137h91v-137h-91z" />
    <glyph glyph-name="uni202F" unicode="&#x202f;" horiz-adv-x="376" 
 />
    <glyph glyph-name="uni205F" unicode="&#x205f;" horiz-adv-x="471" 
 />
    <glyph glyph-name="Euro" unicode="&#x20ac;" horiz-adv-x="1128" 
d="M102 578v61h125v184h-125v62h125v325l224 224h546l-16 -62h-508l-184 -184v-303h561l-16 -62h-545v-184h495l-16 -61h-479v-322l194 -195h543v-61h-563l-236 236v342h-125z" />
    <glyph glyph-name="trademark" unicode="&#x2122;" horiz-adv-x="1075" 
d="M102 1372v62h349v-62h-144v-551h-61v551h-144zM530 821v613h99l123 -525l122 525h99v-613h-62v496l-118 -496h-84l-117 479v-479h-62z" />
    <glyph glyph-name="uni25FC" unicode="&#x25fc;" horiz-adv-x="1433" 
d="M0 0v1434h1434v-1434h-1434z" />
    </font>
</defs>
</svg>
