<?xml version="1.0" standalone="no"?>
<!DOCTYPE svg PUBLIC "-//W3C//DTD SVG 1.1//EN" "http://www.w3.org/Graphics/SVG/1.1/DTD/svg11.dtd" >
<svg xmlns="http://www.w3.org/2000/svg" xmlns:xlink="http://www.w3.org/1999/xlink" version="1.1">
<metadata>
Created by FontForge 20161013 at Tue Mar 28 18:32:56 2017
 By ,,,
(c) 2007 Typodermic Do not distribute. Report piracy to piracy@typodermic.com. Visit www.typodermic.com and www.larabiefonts.com
</metadata>
<defs>
<font id="OctinCollegeRg-Bold" horiz-adv-x="1159" >
  <font-face 
    font-family="Octin College Rg"
    font-weight="700"
    font-stretch="normal"
    units-per-em="2048"
    panose-1="2 0 8 6 3 0 0 2 0 4"
    ascent="1638"
    descent="-410"
    x-height="1434"
    cap-height="1434"
    bbox="-47 -303 2202 1884"
    underline-thickness="102"
    underline-position="-816"
    unicode-range="U+0020-25FC"
  />
<missing-glyph horiz-adv-x="748" 
d="M68 0v1365h544v-1365h-544zM136 68h408v1229h-408v-1229z" />
    <glyph glyph-name="copyright" unicode="&#x28;C&#x29;" horiz-adv-x="1284" 
d="M88 221v1002l211 211h686l211 -211v-1002l-221 -221h-666zM199 262l151 -153h584l151 153v918l-143 143h-600l-143 -143v-918zM369 440v566l131 131h293l129 -131v-185h-109v142l-63 63h-207l-66 -63v-484l76 -71h186l74 71v150h109v-189l-142 -145h-266z" />
    <glyph glyph-name="registered" unicode="&#x28;R&#x29;" horiz-adv-x="1155" 
d="M88 526v697l209 211h563q39 -41 111.5 -114t95.5 -97v-697l-219 -219h-539zM195 565l153 -149h459l151 149v617l-141 141h-479l-143 -141v-617zM401 553v659h304l98 -96v-203l-101 -94h-36l135 -266h-121l-129 262h-43v-262h-107zM508 924h156l30 30v119l-30 31h-156
v-180z" />
    <glyph glyph-name=".notdef" horiz-adv-x="748" 
d="M68 0v1365h544v-1365h-544zM136 68h408v1229h-408v-1229z" />
    <glyph glyph-name="glyph1" horiz-adv-x="0" 
 />
    <glyph glyph-name="glyph2" horiz-adv-x="682" 
 />
    <glyph glyph-name="space" unicode=" " horiz-adv-x="567" 
 />
    <glyph glyph-name="exclam" unicode="!" horiz-adv-x="589" 
d="M133 1434h322l-41 -979h-240zM170 0v274h250v-274h-250z" />
    <glyph glyph-name="quotedbl" unicode="&#x22;" horiz-adv-x="630" 
d="M88 1495h172l-35 -551h-102zM369 1495h172l-33 -551h-105z" />
    <glyph glyph-name="numbersign" unicode="#" horiz-adv-x="997" 
d="M63 440v170h130l26 240h-113v170h132l43 414h200l-45 -414h187l43 414h200l-45 -414h111v-170h-129l-25 -240h109v-170h-127l-47 -440h-201l47 440h-184l-47 -440h-201l47 440h-111zM393 610h185l26 240h-186z" />
    <glyph glyph-name="dollar" unicode="$" horiz-adv-x="1005" 
d="M88 350v207h244v-102l63 -62h230l47 49v172l-37 39h-385l-158 156v330l178 178h166v117h127v-117h150l192 -193v-188h-243v78l-60 59h-221l-45 -45v-158l39 -41h387l153 -145v-348l-186 -186h-166v-150h-127v150h-145z" />
    <glyph glyph-name="percent" unicode="%" horiz-adv-x="1486" 
d="M88 858v457l119 119h313l119 -119v-459l-123 -121h-305zM258 944l39 -37h133l37 37v279l-35 34h-139l-35 -34v-279zM299 0l709 1434h174l-709 -1434h-174zM848 123v457l119 118h313l119 -118v-459l-123 -121h-305zM1018 211l39 -39h133l37 39v276l-35 35h-139l-35 -35
v-276z" />
    <glyph glyph-name="ampersand" unicode="&#x26;" horiz-adv-x="1193" 
d="M70 211v336l223 209l-168 213v291l172 174h307l172 -174v-326l-198 -207l161 -213l105 166h225l-192 -344l260 -336h-265l-129 160l-108 -160h-352zM330 303l59 -59h141l68 106l-168 219l-100 -100v-166zM354 1014l101 -123l114 119v137l-43 41h-129l-43 -41v-133z" />
    <glyph glyph-name="quotesingle" unicode="'" horiz-adv-x="348" 
d="M88 1495h172l-35 -551h-102z" />
    <glyph glyph-name="parenleft" unicode="(" horiz-adv-x="526" 
d="M88 147v1135l182 356h166l-190 -370v-1118l182 -355h-158z" />
    <glyph glyph-name="parenright" unicode=")" horiz-adv-x="526" 
d="M88 1638h166l182 -356v-1135l-182 -352h-158l183 355v1118z" />
    <glyph glyph-name="asterisk" unicode="*" horiz-adv-x="759" 
d="M88 1194l234 57l-154 174l90 74l125 -203l119 199l100 -65l-156 -179l226 -53l-29 -117l-221 95l20 -236h-118l20 238l-217 -97z" />
    <glyph glyph-name="plus" unicode="+" horiz-adv-x="897" 
d="M88 639v147h287v285h145v-285h287v-147h-287v-287h-145v287h-287z" />
    <glyph glyph-name="comma" unicode="," horiz-adv-x="481" 
d="M57 -236l84 334v158h250v-207l-233 -328z" />
    <glyph glyph-name="hyphen" unicode="-" horiz-adv-x="632" 
d="M27 641v184h583v-184h-583z" />
    <glyph glyph-name="period" unicode="." horiz-adv-x="425" 
d="M88 0v274h250v-274h-250z" />
    <glyph glyph-name="slash" unicode="/" horiz-adv-x="602" 
d="M-20 -176l444 1661h166l-445 -1661h-165z" />
    <glyph glyph-name="zero" unicode="0" 
d="M88 248v946l240 240h503l240 -240v-946l-252 -248h-481zM383 367l72 -74h250l71 74v704l-69 68h-256l-68 -68v-704z" />
    <glyph glyph-name="one" unicode="1" horiz-adv-x="811" 
d="M88 1298l340 136h158v-1141h135v-293h-592v293h164v819l-139 -55z" />
    <glyph glyph-name="two" unicode="2" horiz-adv-x="1144" 
d="M88 0v653l186 178h435l51 50v196l-64 62h-239l-62 -62v-102h-295v235l224 224h507l222 -224v-417l-191 -191h-432l-47 -47v-262h674v-293h-969z" />
    <glyph glyph-name="three" unicode="3" horiz-adv-x="1144" 
d="M88 231v250h295v-123l66 -65h247l66 65v201l-62 62h-362v227h358l64 61v168l-64 62h-247l-64 -62v-92h-289v225l223 224h506l224 -224v-340l-117 -116l125 -127v-396l-234 -231h-501z" />
    <glyph glyph-name="four" unicode="4" horiz-adv-x="1097" 
d="M53 408v217l537 809h307v-787h137v-239h-137v-408h-305v408h-539zM326 647h266v393z" />
    <glyph glyph-name="five" unicode="5" horiz-adv-x="1144" 
d="M88 231v283h295v-156l66 -65h247l66 65v250l-47 47h-621v779h946v-295h-651v-254h481l187 -178v-476l-234 -231h-501z" />
    <glyph glyph-name="six" unicode="6" horiz-adv-x="1144" 
d="M88 231v979l221 224h512l223 -224v-233h-294v100l-62 62h-244l-61 -62v-211h487l187 -178v-457l-234 -231h-501zM383 358l66 -65h247l66 65v230l-47 47h-332v-277z" />
    <glyph glyph-name="seven" unicode="7" horiz-adv-x="1048" 
d="M57 1165v269h924v-338l-422 -1096h-317l417 1047v118h-602z" />
    <glyph glyph-name="eight" unicode="8" horiz-adv-x="1144" 
d="M88 231v396l125 127l-117 116v340l223 224h506l224 -224v-340l-117 -116l125 -127v-396l-234 -231h-501zM383 358l66 -65h247l66 65v213l-62 62h-256l-61 -62v-213zM385 922l64 -62h247l64 62v155l-64 62h-247l-64 -62v-155z" />
    <glyph glyph-name="nine" unicode="9" horiz-adv-x="1144" 
d="M88 797v409l225 228h514l228 -228v-979l-228 -227h-508l-227 227v265h293v-136l64 -63h249l64 63v252h-483zM383 885l49 -49h330v237l-66 66h-247l-66 -66v-188z" />
    <glyph glyph-name="colon" unicode=":" horiz-adv-x="425" 
d="M88 291v276h250v-276h-250zM88 823v275h250v-275h-250z" />
    <glyph glyph-name="semicolon" unicode=";" horiz-adv-x="471" 
d="M49 -236l84 334v158h250v-207l-233 -328zM129 700v275h250v-275h-250z" />
    <glyph glyph-name="less" unicode="&#x3c;" horiz-adv-x="927" 
d="M88 637v192l752 390v-197l-572 -291l572 -293v-194z" />
    <glyph glyph-name="equal" unicode="=" horiz-adv-x="897" 
d="M88 524v144h719v-144h-719zM88 791v145h719v-145h-719z" />
    <glyph glyph-name="greater" unicode="&#x3e;" horiz-adv-x="927" 
d="M88 244v194l571 293l-571 291v197l752 -390v-192z" />
    <glyph glyph-name="question" unicode="?" horiz-adv-x="1058" 
d="M78 993v217l221 224h465l223 -224v-290l-358 -361v-129h-240v221l303 305v136l-61 61h-228l-61 -61v-99h-264zM383 0v274h250v-274h-250z" />
    <glyph glyph-name="at" unicode="@" horiz-adv-x="1187" 
d="M88 283v882l266 269h590l156 -154v-696l-115 -115h-393l-80 78v426l61 61h314v123l-43 45h-389l-107 -106v-686l117 -117h596v-293h-690zM684 672l37 -37h129l37 37v227h-170l-33 -35v-192z" />
    <glyph glyph-name="A" unicode="A" horiz-adv-x="1120" 
d="M35 0l354 1434h359l335 -1434h-301l-77 330h-334l-74 -330h-262zM408 500h260l-133 557z" />
    <glyph glyph-name="B" unicode="B" horiz-adv-x="1140" 
d="M106 0v1434h715l223 -224v-342l-118 -118l127 -125v-394l-234 -231h-713zM401 293h291l66 65v209l-62 62h-295v-336zM401 856h291l62 62v159l-62 62h-291v-283z" />
    <glyph glyph-name="C" unicode="C" horiz-adv-x="1142" 
d="M88 266v912l256 256h487l222 -224v-317h-293v184l-62 62h-241l-74 -76v-690l78 -80h233q12 13 36.5 36.5t29.5 28.5v211h293v-338l-232 -231h-467z" />
    <glyph glyph-name="D" unicode="D" horiz-adv-x="1163" 
d="M106 0v1434h678l291 -291v-842l-301 -301h-668zM401 293h273l106 106v637l-102 103h-277v-846z" />
    <glyph glyph-name="E" unicode="E" horiz-adv-x="1081" 
d="M106 0v1434h904v-295h-609v-291h422v-227h-422v-328h611v-293h-906z" />
    <glyph glyph-name="F" unicode="F" horiz-adv-x="1034" 
d="M106 0v1434h902v-295h-609v-312h449v-227h-449v-600h-293z" />
    <glyph glyph-name="G" unicode="G" 
d="M88 266v912l256 256h504l223 -224v-272h-295v139l-61 62h-256l-76 -76v-690l78 -80h229l86 86v209h-194v209h489v-797h-280v129l-129 -129h-308z" />
    <glyph glyph-name="H" unicode="H" horiz-adv-x="1175" 
d="M106 0v1434h293v-580h375v580h295v-1434h-295v621h-375v-621h-293z" />
    <glyph glyph-name="I" unicode="I" horiz-adv-x="542" 
d="M123 0v1434h295v-1434h-295z" />
    <glyph glyph-name="J" unicode="J" horiz-adv-x="1079" 
d="M57 231v392h295v-265l64 -65h200l80 80v1061h295v-1168l-268 -266h-434z" />
    <glyph glyph-name="K" unicode="K" horiz-adv-x="1230" 
d="M106 0v1434h306v-551l428 551h319l-405 -529l417 -905h-297l-296 666l-166 -213v-453h-306z" />
    <glyph glyph-name="L" unicode="L" horiz-adv-x="1050" 
d="M106 0v1434h295v-1141h605v-293h-900z" />
    <glyph glyph-name="M" unicode="M" horiz-adv-x="1378" 
d="M106 0v1434h359l237 -484l240 484h330v-1434h-281v1036l-243 -473h-119l-244 473v-1036h-279z" />
    <glyph glyph-name="N" unicode="N" horiz-adv-x="1216" 
d="M106 0v1434h334l416 -875v875h252v-1434h-287l-463 936v-936h-252z" />
    <glyph glyph-name="O" unicode="O" 
d="M88 248v946l240 240h503l240 -240v-946l-252 -248h-481zM383 367l72 -74h250l71 74v704l-69 68h-256l-68 -68v-704z" />
    <glyph glyph-name="P" unicode="P" horiz-adv-x="1126" 
d="M106 0v1434h723l240 -240v-418l-240 -239h-428v-537h-295zM401 801h306l67 67v203l-67 68h-306v-338z" />
    <glyph glyph-name="Q" unicode="Q" horiz-adv-x="1161" 
d="M88 248v946l240 240h503l240 -240v-946l-250 -248h-116v-201h-240v201h-129zM383 365l72 -72h250l71 72v704l-69 70h-256l-68 -70v-704z" />
    <glyph glyph-name="R" unicode="R" horiz-adv-x="1157" 
d="M106 0v1434h730l221 -224v-399l-215 -217l221 -594h-299l-207 573h-156v-573h-295zM401 825h301l62 62v190l-62 62h-301v-314z" />
    <glyph glyph-name="S" unicode="S" horiz-adv-x="1144" 
d="M88 231v261h295v-134l66 -65h247l66 65v215l-47 48h-436l-191 188v401l221 224h512l223 -224v-233h-294v100l-62 62h-244l-61 -62v-192l49 -47h438l187 -179v-428l-234 -231h-501z" />
    <glyph glyph-name="T" unicode="T" horiz-adv-x="1050" 
d="M25 1157v277h1001v-277h-352v-1157h-295v1157h-354z" />
    <glyph glyph-name="U" unicode="U" horiz-adv-x="1167" 
d="M106 221v1213h293v-1067l74 -74h229l74 74v1067h285v-1213l-221 -221h-512z" />
    <glyph glyph-name="V" unicode="V" horiz-adv-x="1120" 
d="M35 1434h299l248 -1059l237 1059h264l-354 -1434h-356z" />
    <glyph glyph-name="W" unicode="W" horiz-adv-x="1771" 
d="M35 1434h293l211 -1031l231 1031h260l238 -1031l196 1031h273l-277 -1434h-346l-217 969l-221 -969h-381z" />
    <glyph glyph-name="X" unicode="X" horiz-adv-x="1150" 
d="M35 0l389 719l-361 715h316l215 -439l217 439h276l-362 -670l389 -764h-317l-244 489l-242 -489h-276z" />
    <glyph glyph-name="Y" unicode="Y" horiz-adv-x="1099" 
d="M35 1434h307l223 -576l228 576h272l-371 -832v-602h-295v602z" />
    <glyph glyph-name="Z" unicode="Z" horiz-adv-x="1132" 
d="M63 0v240l590 913h-585v281h991v-244l-590 -909h596v-281h-1002z" />
    <glyph glyph-name="bracketleft" unicode="[" horiz-adv-x="538" 
d="M88 -205v1843h363v-102h-205v-1638h205v-103h-363z" />
    <glyph glyph-name="backslash" unicode="\" horiz-adv-x="602" 
d="M14 1485h166l445 -1661h-166z" />
    <glyph glyph-name="bracketright" unicode="]" horiz-adv-x="538" 
d="M88 -102h203v1638h-203v102h363v-1843h-363v103z" />
    <glyph glyph-name="asciicircum" unicode="^" horiz-adv-x="763" 
d="M88 1014l227 420h134l227 -420h-172l-123 252l-121 -252h-172z" />
    <glyph glyph-name="underscore" unicode="_" horiz-adv-x="970" 
d="M0 -70h975v-90h-975v90z" />
    <glyph glyph-name="grave" unicode="`" horiz-adv-x="688" 
d="M86 1739v121l512 -140v-121z" />
    <glyph glyph-name="a" unicode="a" horiz-adv-x="1120" 
d="M35 0l354 1434h359l335 -1434h-301l-77 330h-334l-74 -330h-262zM408 500h260l-133 557z" />
    <glyph glyph-name="b" unicode="b" horiz-adv-x="1140" 
d="M106 0v1434h715l223 -224v-342l-118 -118l127 -125v-394l-234 -231h-713zM401 293h291l66 65v209l-62 62h-295v-336zM401 856h291l62 62v159l-62 62h-291v-283z" />
    <glyph glyph-name="c" unicode="c" horiz-adv-x="1142" 
d="M88 266v912l256 256h487l222 -224v-317h-293v184l-62 62h-241l-74 -76v-690l78 -80h233q12 13 36.5 36.5t29.5 28.5v211h293v-338l-232 -231h-467z" />
    <glyph glyph-name="d" unicode="d" horiz-adv-x="1163" 
d="M106 0v1434h678l291 -291v-842l-301 -301h-668zM401 293h273l106 106v637l-102 103h-277v-846z" />
    <glyph glyph-name="e" unicode="e" horiz-adv-x="1081" 
d="M106 0v1434h904v-295h-609v-291h422v-227h-422v-328h611v-293h-906z" />
    <glyph glyph-name="f" unicode="f" horiz-adv-x="1034" 
d="M106 0v1434h902v-295h-609v-312h449v-227h-449v-600h-293z" />
    <glyph glyph-name="g" unicode="g" 
d="M88 266v912l256 256h504l223 -224v-272h-295v139l-61 62h-256l-76 -76v-690l78 -80h229l86 86v209h-194v209h489v-797h-280v129l-129 -129h-308z" />
    <glyph glyph-name="h" unicode="h" horiz-adv-x="1175" 
d="M106 0v1434h293v-580h375v580h295v-1434h-295v621h-375v-621h-293z" />
    <glyph glyph-name="i" unicode="i" horiz-adv-x="542" 
d="M123 0v1434h295v-1434h-295z" />
    <glyph glyph-name="j" unicode="j" horiz-adv-x="1079" 
d="M57 231v392h295v-265l64 -65h200l80 80v1061h295v-1168l-268 -266h-434z" />
    <glyph glyph-name="k" unicode="k" horiz-adv-x="1230" 
d="M106 0v1434h306v-551l428 551h319l-405 -529l417 -905h-297l-296 666l-166 -213v-453h-306z" />
    <glyph glyph-name="l" unicode="l" horiz-adv-x="1050" 
d="M106 0v1434h295v-1141h605v-293h-900z" />
    <glyph glyph-name="m" unicode="m" horiz-adv-x="1378" 
d="M106 0v1434h359l237 -484l240 484h330v-1434h-281v1036l-243 -473h-119l-244 473v-1036h-279z" />
    <glyph glyph-name="n" unicode="n" horiz-adv-x="1216" 
d="M106 0v1434h334l416 -875v875h252v-1434h-287l-463 936v-936h-252z" />
    <glyph glyph-name="o" unicode="o" 
d="M88 248v946l240 240h503l240 -240v-946l-252 -248h-481zM383 367l72 -74h250l71 74v704l-69 68h-256l-68 -68v-704z" />
    <glyph glyph-name="p" unicode="p" horiz-adv-x="1126" 
d="M106 0v1434h723l240 -240v-418l-240 -239h-428v-537h-295zM401 801h306l67 67v203l-67 68h-306v-338z" />
    <glyph glyph-name="q" unicode="q" horiz-adv-x="1161" 
d="M88 248v946l240 240h503l240 -240v-946l-250 -248h-116v-201h-240v201h-129zM383 365l72 -72h250l71 72v704l-69 70h-256l-68 -70v-704z" />
    <glyph glyph-name="r" unicode="r" horiz-adv-x="1157" 
d="M106 0v1434h730l221 -224v-399l-215 -217l221 -594h-299l-207 573h-156v-573h-295zM401 825h301l62 62v190l-62 62h-301v-314z" />
    <glyph glyph-name="s" unicode="s" horiz-adv-x="1144" 
d="M88 231v261h295v-134l66 -65h247l66 65v215l-47 48h-436l-191 188v401l221 224h512l223 -224v-233h-294v100l-62 62h-244l-61 -62v-192l49 -47h438l187 -179v-428l-234 -231h-501z" />
    <glyph glyph-name="t" unicode="t" horiz-adv-x="1050" 
d="M25 1157v277h1001v-277h-352v-1157h-295v1157h-354z" />
    <glyph glyph-name="u" unicode="u" horiz-adv-x="1167" 
d="M106 221v1213h293v-1067l74 -74h229l74 74v1067h285v-1213l-221 -221h-512z" />
    <glyph glyph-name="v" unicode="v" horiz-adv-x="1120" 
d="M35 1434h299l248 -1059l237 1059h264l-354 -1434h-356z" />
    <glyph glyph-name="w" unicode="w" horiz-adv-x="1771" 
d="M35 1434h293l211 -1031l231 1031h260l238 -1031l196 1031h273l-277 -1434h-346l-217 969l-221 -969h-381z" />
    <glyph glyph-name="x" unicode="x" horiz-adv-x="1150" 
d="M35 0l389 719l-361 715h316l215 -439l217 439h276l-362 -670l389 -764h-317l-244 489l-242 -489h-276z" />
    <glyph glyph-name="y" unicode="y" horiz-adv-x="1099" 
d="M35 1434h307l223 -576l228 576h272l-371 -832v-602h-295v602z" />
    <glyph glyph-name="z" unicode="z" horiz-adv-x="1132" 
d="M63 0v240l590 913h-585v281h991v-244l-590 -909h596v-281h-1002z" />
    <glyph glyph-name="braceleft" unicode="{" horiz-adv-x="739" 
d="M88 655v125h111l51 86v586l188 186h213v-102h-168l-75 -76v-610l-105 -133l105 -131v-615l75 -73h168v-103h-213l-188 187v585l-51 88h-111z" />
    <glyph glyph-name="bar" unicode="|" horiz-adv-x="335" 
d="M88 -205v1690h158v-1690h-158z" />
    <glyph glyph-name="braceright" unicode="}" horiz-adv-x="739" 
d="M88 -102h168l74 73v615l106 131l-106 133v610l-74 76h-168v102h213l188 -186v-586l52 -86h110v-125h-110l-52 -88v-585l-188 -187h-213v103z" />
    <glyph glyph-name="asciitilde" unicode="~" horiz-adv-x="786" 
d="M88 596v186q51 76 143 76q38 0 84 -20t82 -43.5t83.5 -43.5t88.5 -20q73 0 129 80v-176q-54 -80 -145 -80q-44 0 -165.5 63.5t-166.5 63.5q-75 0 -133 -86z" />
    <glyph glyph-name="uni00A0" unicode="&#xa0;" horiz-adv-x="567" 
 />
    <glyph glyph-name="exclamdown" unicode="&#xa1;" horiz-adv-x="507" 
d="M92 0l41 979h242l39 -979h-322zM129 1159v275h250v-275h-250z" />
    <glyph glyph-name="cent" unicode="&#xa2;" horiz-adv-x="978" 
d="M88 352v770l195 195h147v117h127v-117h154l178 -178v-254h-234v143l-45 45h-233l-45 -45v-586l47 -49h229l49 49v181h234v-287l-189 -186h-145v-150h-127v150h-137z" />
    <glyph glyph-name="sterling" unicode="&#xa3;" horiz-adv-x="1202" 
d="M88 0v293h135v340h-135v174h135v438l189 189h456l187 -189v-301h-256v209l-49 49h-183l-47 -49v-346h395v-174h-395v-340h352v174h240v-467h-1024z" />
    <glyph glyph-name="yen" unicode="&#xa5;" horiz-adv-x="1304" 
d="M88 1434h326l256 -480l256 480h288l-417 -709v-55h346v-148h-346v-184h346v-150h-346v-188h-293v188h-334v150h334v184h-334v148h334v55z" />
    <glyph glyph-name="brokenbar" unicode="&#xa6;" horiz-adv-x="731" 
d="M88 1434h172l121 -467l117 467h143l-184 -664h-195zM133 109v122h148v-57l26 -27h111l26 27v86l-18 19h-203l-90 94v182l105 107h243l107 -107v-111h-150v43l-24 25h-109l-24 -25v-75l20 -19h203l88 -86v-198l-109 -109h-239z" />
    <glyph glyph-name="dieresis" unicode="&#xa8;" horiz-adv-x="817" 
d="M88 1622v221h209v-221h-209zM520 1622v221h209v-221h-209z" />
    <glyph glyph-name="ordfeminine" unicode="&#xaa;" horiz-adv-x="677" 
d="M88 797v227l90 90h303v170l-43 43h-186l-41 -43v-76h-109v117l109 109h268l109 -109v-528l-119 -121h-260zM197 834l51 -54h182l51 54v172h-260l-24 -25v-147z" />
    <glyph glyph-name="guillemotleft" unicode="&#xab;" horiz-adv-x="686" 
d="M27 764l163 250h158l-170 -250l170 -250h-158zM340 764l164 250h160l-170 -250l170 -250h-160z" />
    <glyph glyph-name="uni00AD" unicode="&#xad;" horiz-adv-x="632" 
d="M27 641v184h583v-184h-583z" />
    <glyph glyph-name="macron" unicode="&#xaf;" horiz-adv-x="720" 
d="M88 1653v166h543v-166h-543z" />
    <glyph glyph-name="degree" unicode="&#xb0;" horiz-adv-x="630" 
d="M88 1108v244l82 82h291l82 -82v-244l-86 -84h-283zM190 1163l37 -37h176l37 37v133l-34 35h-181l-35 -35v-133z" />
    <glyph glyph-name="plusminus" unicode="&#xb1;" horiz-adv-x="925" 
d="M115 760v147h286v285h146v-285h287v-147h-287v-287h-146v287h-286zM121 180v148h719v-148h-719z" />
    <glyph glyph-name="acute" unicode="&#xb4;" horiz-adv-x="688" 
d="M90 1599v121l512 140v-121z" />
    <glyph glyph-name="periodcentered" unicode="&#xb7;" horiz-adv-x="501" 
d="M127 592v274h250v-274h-250z" />
    <glyph glyph-name="cedilla" unicode="&#xb8;" horiz-adv-x="391" 
d="M88 -303l49 262h164l-88 -262h-125z" />
    <glyph glyph-name="ordmasculine" unicode="&#xba;" horiz-adv-x="651" 
d="M88 795v530l107 109h258l108 -109v-530l-121 -119h-233zM195 834l51 -54h157l54 54v450l-43 43h-176l-43 -43v-450z" />
    <glyph glyph-name="guillemotright" unicode="&#xbb;" horiz-adv-x="686" 
d="M27 514l170 250l-170 250h157l164 -250l-164 -250h-157zM340 514l172 250l-172 250h158l166 -250l-166 -250h-158z" />
    <glyph glyph-name="questiondown" unicode="&#xbf;" horiz-adv-x="1087" 
d="M88 221v291l358 360v132h240v-224l-303 -305v-135l61 -61h228l61 61v98h264v-217l-223 -221h-465zM440 1157v277h250v-277h-250z" />
    <glyph glyph-name="Agrave" unicode="&#xc0;" horiz-adv-x="1120" 
d="M35 0l354 1434h359l335 -1434h-301l-77 330h-334l-74 -330h-262zM246 1739v121l512 -140v-121zM408 500h260l-133 557z" />
    <glyph glyph-name="Aacute" unicode="&#xc1;" horiz-adv-x="1120" 
d="M35 0l354 1434h359l335 -1434h-301l-77 330h-334l-74 -330h-262zM356 1599v121l512 140v-121zM408 500h260l-133 557z" />
    <glyph glyph-name="Acircumflex" unicode="&#xc2;" horiz-adv-x="1120" 
d="M35 0l354 1434h359l335 -1434h-301l-77 330h-334l-74 -330h-262zM242 1577l250 307h135l247 -307h-163l-152 197l-153 -197h-164zM408 500h260l-133 557z" />
    <glyph glyph-name="Atilde" unicode="&#xc3;" horiz-adv-x="1120" 
d="M35 0l354 1434h359l335 -1434h-301l-77 330h-334l-74 -330h-262zM305 1649v157q43 49 121 49q47 0 93 -23t90.5 -46t88.5 -23q65 0 113 64v-158q-49 -49 -123 -49q-45 0 -93 23t-93.5 46t-83.5 23q-59 0 -113 -63zM408 500h260l-133 557z" />
    <glyph glyph-name="Adieresis" unicode="&#xc4;" horiz-adv-x="1120" 
d="M35 0l354 1434h359l335 -1434h-301l-77 330h-334l-74 -330h-262zM238 1622v221h208v-221h-208zM408 500h260l-133 557zM670 1622v221h209v-221h-209z" />
    <glyph glyph-name="Aring" unicode="&#xc5;" horiz-adv-x="1120" 
d="M35 0l354 1434h359l335 -1434h-301l-77 330h-334l-74 -330h-262zM391 1649v168l68 67h198l68 -67v-168l-72 -72h-190zM408 500h260l-133 557zM494 1698l18 -19h92l19 19v67l-15 17h-100l-14 -17v-67z" />
    <glyph glyph-name="AE" unicode="&#xc6;" horiz-adv-x="1673" 
d="M45 0l289 1434h1265v-295h-593v-295h409v-219h-409v-332h598v-293h-891v330h-324l-67 -330h-277zM424 500h289v639h-156z" />
    <glyph glyph-name="Ccedilla" unicode="&#xc7;" horiz-adv-x="1142" 
d="M88 266v912l256 256h487l222 -224v-317h-293v184l-62 62h-241l-74 -76v-690l78 -80h233q12 13 36.5 36.5t29.5 28.5v211h293v-338l-232 -231h-467zM463 -303l49 262h164l-88 -262h-125z" />
    <glyph glyph-name="Egrave" unicode="&#xc8;" horiz-adv-x="1081" 
d="M106 0v1434h904v-295h-609v-291h422v-227h-422v-328h611v-293h-906zM227 1739v121l512 -140v-121z" />
    <glyph glyph-name="Eacute" unicode="&#xc9;" horiz-adv-x="1081" 
d="M106 0v1434h904v-295h-609v-291h422v-227h-422v-328h611v-293h-906zM338 1599v121l512 140v-121z" />
    <glyph glyph-name="Ecircumflex" unicode="&#xca;" horiz-adv-x="1081" 
d="M106 0v1434h904v-295h-609v-291h422v-227h-422v-328h611v-293h-906zM221 1577l250 307h135l248 -307h-164l-151 197l-154 -197h-164z" />
    <glyph glyph-name="Edieresis" unicode="&#xcb;" horiz-adv-x="1081" 
d="M106 0v1434h904v-295h-609v-291h422v-227h-422v-328h611v-293h-906zM219 1622v221h209v-221h-209zM651 1622v221h209v-221h-209z" />
    <glyph glyph-name="Igrave" unicode="&#xcc;" horiz-adv-x="542" 
d="M-39 1739v121l512 -140v-121zM123 0v1434h295v-1434h-295z" />
    <glyph glyph-name="Iacute" unicode="&#xcd;" horiz-adv-x="542" 
d="M70 1599v121l512 140v-121zM123 0v1434h295v-1434h-295z" />
    <glyph glyph-name="Icircumflex" unicode="&#xce;" horiz-adv-x="542" 
d="M-43 1577l250 307h135l248 -307h-164l-152 197l-153 -197h-164zM123 0v1434h295v-1434h-295z" />
    <glyph glyph-name="Idieresis" unicode="&#xcf;" horiz-adv-x="542" 
d="M-47 1622v221h209v-221h-209zM123 0v1434h295v-1434h-295zM385 1622v221h209v-221h-209z" />
    <glyph glyph-name="Eth" unicode="&#xd0;" horiz-adv-x="1183" 
d="M47 625v219h78v590h678l291 -291v-842l-301 -301h-668v625h-78zM420 293h274l107 106v637l-105 103h-276v-295h207v-219h-207v-332z" />
    <glyph glyph-name="Ntilde" unicode="&#xd1;" horiz-adv-x="1216" 
d="M106 0v1434h334l416 -875v875h252v-1434h-287l-463 936v-936h-252zM352 1649v157q43 49 121 49q47 0 93 -23t90.5 -46t88.5 -23q65 0 113 64v-158q-49 -49 -123 -49q-45 0 -93 23t-93.5 46t-83.5 23q-59 0 -113 -63z" />
    <glyph glyph-name="Ograve" unicode="&#xd2;" 
d="M88 248v946l240 240h503l240 -240v-946l-252 -248h-481zM266 1739v121l512 -140v-121zM383 367l72 -74h250l71 74v704l-69 68h-256l-68 -68v-704z" />
    <glyph glyph-name="Oacute" unicode="&#xd3;" 
d="M88 248v946l240 240h503l240 -240v-946l-252 -248h-481zM377 1599v121l512 140v-121zM383 367l72 -74h250l71 74v704l-69 68h-256l-68 -68v-704z" />
    <glyph glyph-name="Ocircumflex" unicode="&#xd4;" 
d="M88 248v946l240 240h503l240 -240v-946l-252 -248h-481zM262 1577l250 307h135l248 -307h-164l-151 197l-154 -197h-164zM383 367l72 -74h250l71 74v704l-69 68h-256l-68 -68v-704z" />
    <glyph glyph-name="Otilde" unicode="&#xd5;" 
d="M88 248v946l240 240h503l240 -240v-946l-252 -248h-481zM324 1649v157q43 49 120 49q47 0 93.5 -23t91 -46t88.5 -23q64 0 112 64v-158q-49 -49 -122 -49q-45 0 -93.5 23t-94 46t-83.5 23q-58 0 -112 -63zM383 367l72 -74h250l71 74v704l-69 68h-256l-68 -68v-704z" />
    <glyph glyph-name="Odieresis" unicode="&#xd6;" 
d="M88 248v946l240 240h503l240 -240v-946l-252 -248h-481zM258 1622v221h209v-221h-209zM383 367l72 -74h250l71 74v704l-69 68h-256l-68 -68v-704zM690 1622v221h209v-221h-209z" />
    <glyph glyph-name="multiply" unicode="&#xd7;" horiz-adv-x="790" 
d="M88 510l205 203l-203 202l103 103l202 -203l203 203l102 -103l-202 -202l202 -203l-102 -104l-203 204l-202 -204z" />
    <glyph glyph-name="Oslash" unicode="&#xd8;" 
d="M88 248v946l240 240h407l25 86l92 -25l-18 -63l237 -238v-946l-252 -248h-389l-24 -86l-93 23l19 67zM383 367l39 -41l229 813h-200l-68 -68v-704zM512 293h193l71 74v704l-35 33z" />
    <glyph glyph-name="Ugrave" unicode="&#xd9;" horiz-adv-x="1167" 
d="M106 221v1213h293v-1067l74 -74h229l74 74v1067h285v-1213l-221 -221h-512zM270 1739v121l512 -140v-121z" />
    <glyph glyph-name="Uacute" unicode="&#xda;" horiz-adv-x="1167" 
d="M106 221v1213h293v-1067l74 -74h229l74 74v1067h285v-1213l-221 -221h-512zM381 1599v121l512 140v-121z" />
    <glyph glyph-name="Ucircumflex" unicode="&#xdb;" horiz-adv-x="1167" 
d="M106 221v1213h293v-1067l74 -74h229l74 74v1067h285v-1213l-221 -221h-512zM266 1577l250 307h135l248 -307h-164l-151 197l-154 -197h-164z" />
    <glyph glyph-name="Udieresis" unicode="&#xdc;" horiz-adv-x="1167" 
d="M106 221v1213h293v-1067l74 -74h229l74 74v1067h285v-1213l-221 -221h-512zM262 1622v221h209v-221h-209zM694 1622v221h209v-221h-209z" />
    <glyph glyph-name="Yacute" unicode="&#xdd;" horiz-adv-x="1099" 
d="M35 1434h307l223 -576l228 576h272l-371 -832v-602h-295v602zM346 1599v121l512 140v-121z" />
    <glyph glyph-name="Thorn" unicode="&#xde;" horiz-adv-x="1091" 
d="M106 0v1434h293v-246h430l213 -213v-473q-108 -105 -213 -213h-430v-289h-293zM399 535h279l70 67v242l-70 67h-279v-376z" />
    <glyph glyph-name="germandbls" unicode="&#xdf;" horiz-adv-x="2289" 
d="M88 231v261h295v-134l66 -65h247l66 65v215l-47 48h-436l-191 188v401l221 224h512l223 -224v-233h-294v100l-62 62h-244l-61 -62v-192l49 -47h438l187 -179v-428l-234 -231h-501zM1233 231v261h295v-134l65 -65h248l66 65v215l-47 48h-437l-190 188v401l221 224h512
l223 -224v-233h-295v100l-61 62h-244l-61 -62v-192l49 -47h438l187 -179v-428l-234 -231h-502z" />
    <glyph glyph-name="agrave" unicode="&#xe0;" horiz-adv-x="1120" 
d="M35 0l354 1434h359l335 -1434h-301l-77 330h-334l-74 -330h-262zM246 1739v121l512 -140v-121zM408 500h260l-133 557z" />
    <glyph glyph-name="aacute" unicode="&#xe1;" horiz-adv-x="1120" 
d="M35 0l354 1434h359l335 -1434h-301l-77 330h-334l-74 -330h-262zM356 1599v121l512 140v-121zM408 500h260l-133 557z" />
    <glyph glyph-name="acircumflex" unicode="&#xe2;" horiz-adv-x="1120" 
d="M35 0l354 1434h359l335 -1434h-301l-77 330h-334l-74 -330h-262zM242 1577l250 307h135l247 -307h-163l-152 197l-153 -197h-164zM408 500h260l-133 557z" />
    <glyph glyph-name="atilde" unicode="&#xe3;" horiz-adv-x="1120" 
d="M35 0l354 1434h359l335 -1434h-301l-77 330h-334l-74 -330h-262zM305 1649v157q43 49 121 49q47 0 93 -23t90.5 -46t88.5 -23q65 0 113 64v-158q-49 -49 -123 -49q-45 0 -93 23t-93.5 46t-83.5 23q-59 0 -113 -63zM408 500h260l-133 557z" />
    <glyph glyph-name="adieresis" unicode="&#xe4;" horiz-adv-x="1120" 
d="M35 0l354 1434h359l335 -1434h-301l-77 330h-334l-74 -330h-262zM238 1622v221h208v-221h-208zM408 500h260l-133 557zM670 1622v221h209v-221h-209z" />
    <glyph glyph-name="aring" unicode="&#xe5;" horiz-adv-x="1120" 
d="M35 0l354 1434h359l335 -1434h-301l-77 330h-334l-74 -330h-262zM391 1649v168l68 67h198l68 -67v-168l-72 -72h-190zM408 500h260l-133 557zM494 1698l18 -19h92l19 19v67l-15 17h-100l-14 -17v-67z" />
    <glyph glyph-name="ae" unicode="&#xe6;" horiz-adv-x="1673" 
d="M45 0l289 1434h1265v-295h-593v-295h409v-219h-409v-332h598v-293h-891v330h-324l-67 -330h-277zM424 500h289v639h-156z" />
    <glyph glyph-name="ccedilla" unicode="&#xe7;" horiz-adv-x="1142" 
d="M88 266v912l256 256h487l222 -224v-317h-293v184l-62 62h-241l-74 -76v-690l78 -80h233q12 13 36.5 36.5t29.5 28.5v211h293v-338l-232 -231h-467zM463 -303l49 262h164l-88 -262h-125z" />
    <glyph glyph-name="egrave" unicode="&#xe8;" horiz-adv-x="1081" 
d="M106 0v1434h904v-295h-609v-291h422v-227h-422v-328h611v-293h-906zM227 1739v121l512 -140v-121z" />
    <glyph glyph-name="eacute" unicode="&#xe9;" horiz-adv-x="1081" 
d="M106 0v1434h904v-295h-609v-291h422v-227h-422v-328h611v-293h-906zM338 1599v121l512 140v-121z" />
    <glyph glyph-name="ecircumflex" unicode="&#xea;" horiz-adv-x="1081" 
d="M106 0v1434h904v-295h-609v-291h422v-227h-422v-328h611v-293h-906zM221 1577l250 307h135l248 -307h-164l-151 197l-154 -197h-164z" />
    <glyph glyph-name="edieresis" unicode="&#xeb;" horiz-adv-x="1081" 
d="M106 0v1434h904v-295h-609v-291h422v-227h-422v-328h611v-293h-906zM219 1622v221h209v-221h-209zM651 1622v221h209v-221h-209z" />
    <glyph glyph-name="igrave" unicode="&#xec;" horiz-adv-x="542" 
d="M-39 1739v121l512 -140v-121zM123 0v1434h295v-1434h-295z" />
    <glyph glyph-name="iacute" unicode="&#xed;" horiz-adv-x="542" 
d="M70 1599v121l512 140v-121zM123 0v1434h295v-1434h-295z" />
    <glyph glyph-name="icircumflex" unicode="&#xee;" horiz-adv-x="542" 
d="M-43 1577l250 307h135l248 -307h-164l-152 197l-153 -197h-164zM123 0v1434h295v-1434h-295z" />
    <glyph glyph-name="idieresis" unicode="&#xef;" horiz-adv-x="542" 
d="M-47 1622v221h209v-221h-209zM123 0v1434h295v-1434h-295zM385 1622v221h209v-221h-209z" />
    <glyph glyph-name="eth" unicode="&#xf0;" horiz-adv-x="1183" 
d="M47 625v219h78v590h678l291 -291v-842l-301 -301h-668v625h-78zM420 293h274l107 106v637l-105 103h-276v-295h207v-219h-207v-332z" />
    <glyph glyph-name="ntilde" unicode="&#xf1;" horiz-adv-x="1216" 
d="M106 0v1434h334l416 -875v875h252v-1434h-287l-463 936v-936h-252zM352 1649v157q43 49 121 49q47 0 93 -23t90.5 -46t88.5 -23q65 0 113 64v-158q-49 -49 -123 -49q-45 0 -93 23t-93.5 46t-83.5 23q-59 0 -113 -63z" />
    <glyph glyph-name="ograve" unicode="&#xf2;" 
d="M88 248v946l240 240h503l240 -240v-946l-252 -248h-481zM266 1739v121l512 -140v-121zM383 367l72 -74h250l71 74v704l-69 68h-256l-68 -68v-704z" />
    <glyph glyph-name="oacute" unicode="&#xf3;" 
d="M88 248v946l240 240h503l240 -240v-946l-252 -248h-481zM377 1599v121l512 140v-121zM383 367l72 -74h250l71 74v704l-69 68h-256l-68 -68v-704z" />
    <glyph glyph-name="ocircumflex" unicode="&#xf4;" 
d="M88 248v946l240 240h503l240 -240v-946l-252 -248h-481zM262 1577l250 307h135l248 -307h-164l-151 197l-154 -197h-164zM383 367l72 -74h250l71 74v704l-69 68h-256l-68 -68v-704z" />
    <glyph glyph-name="otilde" unicode="&#xf5;" 
d="M88 248v946l240 240h503l240 -240v-946l-252 -248h-481zM324 1649v157q43 49 120 49q47 0 93.5 -23t91 -46t88.5 -23q64 0 112 64v-158q-49 -49 -122 -49q-45 0 -93.5 23t-94 46t-83.5 23q-58 0 -112 -63zM383 367l72 -74h250l71 74v704l-69 68h-256l-68 -68v-704z" />
    <glyph glyph-name="odieresis" unicode="&#xf6;" 
d="M88 248v946l240 240h503l240 -240v-946l-252 -248h-481zM258 1622v221h209v-221h-209zM383 367l72 -74h250l71 74v704l-69 68h-256l-68 -68v-704zM690 1622v221h209v-221h-209z" />
    <glyph glyph-name="divide" unicode="&#xf7;" horiz-adv-x="897" 
d="M88 639v147h719v-147h-719zM367 309v215h168v-215h-168zM367 903v213h168v-213h-168z" />
    <glyph glyph-name="oslash" unicode="&#xf8;" 
d="M88 248v946l240 240h407l25 86l92 -25l-18 -63l237 -238v-946l-252 -248h-389l-24 -86l-93 23l19 67zM383 367l39 -41l229 813h-200l-68 -68v-704zM512 293h193l71 74v704l-35 33z" />
    <glyph glyph-name="ugrave" unicode="&#xf9;" horiz-adv-x="1167" 
d="M106 221v1213h293v-1067l74 -74h229l74 74v1067h285v-1213l-221 -221h-512zM270 1739v121l512 -140v-121z" />
    <glyph glyph-name="uacute" unicode="&#xfa;" horiz-adv-x="1167" 
d="M106 221v1213h293v-1067l74 -74h229l74 74v1067h285v-1213l-221 -221h-512zM381 1599v121l512 140v-121z" />
    <glyph glyph-name="ucircumflex" unicode="&#xfb;" horiz-adv-x="1167" 
d="M106 221v1213h293v-1067l74 -74h229l74 74v1067h285v-1213l-221 -221h-512zM266 1577l250 307h135l248 -307h-164l-151 197l-154 -197h-164z" />
    <glyph glyph-name="udieresis" unicode="&#xfc;" horiz-adv-x="1167" 
d="M106 221v1213h293v-1067l74 -74h229l74 74v1067h285v-1213l-221 -221h-512zM262 1622v221h209v-221h-209zM694 1622v221h209v-221h-209z" />
    <glyph glyph-name="yacute" unicode="&#xfd;" horiz-adv-x="1099" 
d="M35 1434h307l223 -576l228 576h272l-371 -832v-602h-295v602zM346 1599v121l512 140v-121z" />
    <glyph glyph-name="thorn" unicode="&#xfe;" horiz-adv-x="1091" 
d="M106 0v1434h293v-246h430l213 -213v-473q-108 -105 -213 -213h-430v-289h-293zM399 535h279l70 67v242l-70 67h-279v-376z" />
    <glyph glyph-name="ydieresis" unicode="&#xff;" horiz-adv-x="1099" 
d="M35 1434h307l223 -576l228 576h272l-371 -832v-602h-295v602zM227 1622v221h209v-221h-209zM659 1622v221h209v-221h-209z" />
    <glyph glyph-name="OE" unicode="&#x152;" horiz-adv-x="1722" 
d="M88 248v946l240 240h422l92 -93v93h809v-295h-594v-299h407v-209h-407v-338h596v-293h-811v100l-105 -100h-399zM383 367l72 -74h235l72 74v704l-68 68h-243l-68 -68v-704z" />
    <glyph glyph-name="oe" unicode="&#x153;" horiz-adv-x="1722" 
d="M88 248v946l240 240h422l92 -93v93h809v-295h-594v-299h407v-209h-407v-338h596v-293h-811v100l-105 -100h-399zM383 367l72 -74h235l72 74v704l-68 68h-243l-68 -68v-704z" />
    <glyph glyph-name="Ydieresis" unicode="&#x178;" horiz-adv-x="1099" 
d="M35 1434h307l223 -576l228 576h272l-371 -832v-602h-295v602zM227 1622v221h209v-221h-209zM659 1622v221h209v-221h-209z" />
    <glyph glyph-name="circumflex" unicode="&#x2c6;" horiz-adv-x="808" 
d="M88 1577l250 307h135l248 -307h-164l-151 197l-154 -197h-164z" />
    <glyph glyph-name="tilde" unicode="&#x2dc;" horiz-adv-x="681" 
d="M88 1649v157q43 49 121 49q47 0 93 -23t90.5 -46t88.5 -23q65 0 113 64v-158q-49 -49 -123 -49q-45 0 -93 23t-93.5 46t-83.5 23q-59 0 -113 -63z" />
    <glyph glyph-name="uni2000" unicode="&#x2000;" horiz-adv-x="942" 
 />
    <glyph glyph-name="uni2001" unicode="&#x2001;" horiz-adv-x="1884" 
 />
    <glyph glyph-name="uni2002" unicode="&#x2002;" horiz-adv-x="942" 
 />
    <glyph glyph-name="uni2003" unicode="&#x2003;" horiz-adv-x="1884" 
 />
    <glyph glyph-name="uni2004" unicode="&#x2004;" horiz-adv-x="628" 
 />
    <glyph glyph-name="uni2005" unicode="&#x2005;" horiz-adv-x="471" 
 />
    <glyph glyph-name="uni2006" unicode="&#x2006;" horiz-adv-x="314" 
 />
    <glyph glyph-name="uni2007" unicode="&#x2007;" horiz-adv-x="314" 
 />
    <glyph glyph-name="uni2008" unicode="&#x2008;" horiz-adv-x="235" 
 />
    <glyph glyph-name="uni2009" unicode="&#x2009;" horiz-adv-x="376" 
 />
    <glyph glyph-name="uni200A" unicode="&#x200a;" horiz-adv-x="104" 
 />
    <glyph glyph-name="uni2010" unicode="&#x2010;" horiz-adv-x="632" 
d="M27 641v184h583v-184h-583z" />
    <glyph glyph-name="uni2011" unicode="&#x2011;" horiz-adv-x="632" 
d="M27 641v184h583v-184h-583z" />
    <glyph glyph-name="figuredash" unicode="&#x2012;" horiz-adv-x="632" 
d="M27 641v184h583v-184h-583z" />
    <glyph glyph-name="endash" unicode="&#x2013;" horiz-adv-x="1241" 
d="M27 641v184h1192v-184h-1192z" />
    <glyph glyph-name="emdash" unicode="&#x2014;" horiz-adv-x="1787" 
d="M27 641v184h1738v-184h-1738z" />
    <glyph glyph-name="quoteleft" unicode="&#x2018;" horiz-adv-x="444" 
d="M88 1268v207h199v-158l69 -334l-80 -43z" />
    <glyph glyph-name="quoteright" unicode="&#x2019;" horiz-adv-x="444" 
d="M88 983l70 334v158h198v-207l-188 -328z" />
    <glyph glyph-name="quotesinglbase" unicode="&#x201a;" horiz-adv-x="444" 
d="M88 -236l70 334v158h198v-207l-188 -328z" />
    <glyph glyph-name="quotedblleft" unicode="&#x201c;" horiz-adv-x="763" 
d="M88 1268v207h199v-158l69 -334l-80 -43zM408 1268v207h196v-158l70 -334l-78 -43z" />
    <glyph glyph-name="quotedblright" unicode="&#x201d;" horiz-adv-x="763" 
d="M88 983l70 334v158h198v-207l-188 -328zM408 983l69 334v158h197v-207l-187 -328z" />
    <glyph glyph-name="quotedblbase" unicode="&#x201e;" horiz-adv-x="763" 
d="M88 -236l70 334v158h198v-207l-188 -328zM408 -236l69 334v158h197v-207l-187 -328z" />
    <glyph glyph-name="bullet" unicode="&#x2022;" horiz-adv-x="772" 
d="M88 582v288l174 174h248l174 -174v-288l-174 -172h-248z" />
    <glyph glyph-name="ellipsis" unicode="&#x2026;" horiz-adv-x="1753" 
d="M88 0v274h250v-274h-250zM752 0v274h249v-274h-249zM1415 0v274h248v-274h-248z" />
    <glyph glyph-name="uni202F" unicode="&#x202f;" horiz-adv-x="376" 
 />
    <glyph glyph-name="uni205F" unicode="&#x205f;" horiz-adv-x="471" 
 />
    <glyph glyph-name="Euro" unicode="&#x20ac;" horiz-adv-x="1169" 
d="M88 549v106h111v131h-111v107h111v285l256 256h616l-86 -295h-418l-75 -76v-170h423l-30 -107h-393v-131h356l-31 -106h-325v-176l79 -80h494v-293h-600l-266 266v283h-111z" />
    <glyph glyph-name="trademark" unicode="&#x2122;" horiz-adv-x="1067" 
d="M88 1327v107h369v-107h-133v-506h-103v506h-133zM522 821v613h133l97 -471l94 471h131v-613h-90v365l-80 -365h-115l-78 359v-359h-92z" />
    <glyph glyph-name="uni25FC" unicode="&#x25fc;" horiz-adv-x="1433" 
d="M0 0v1434h1434v-1434h-1434z" />
    </font>
</defs>
</svg>
