<?xml version="1.0" standalone="no"?>
<!DOCTYPE svg PUBLIC "-//W3C//DTD SVG 1.1//EN" "http://www.w3.org/Graphics/SVG/1.1/DTD/svg11.dtd" >
<svg xmlns="http://www.w3.org/2000/svg" xmlns:xlink="http://www.w3.org/1999/xlink" version="1.1">
<metadata>
Created by FontForge 20170731 at Mon Mar 15 14:21:06 2021
 By Aleksey,,,
Copyright (c) 2020 by Matthieu Salvaggio x Blaze Type. All rights reserved.
</metadata>
<defs>
<font id="Area-BlackExtended" horiz-adv-x="2457" >
  <font-face 
    font-family="Area Black Extended"
    font-weight="900"
    font-stretch="normal"
    units-per-em="2048"
    panose-1="0 0 10 0 0 0 0 0 0 0"
    ascent="1638"
    descent="-410"
    x-height="1143"
    cap-height="1597"
    bbox="-2044 -649 3095 2208"
    underline-thickness="102"
    underline-position="-307"
    unicode-range="U+0020-25CA"
  />
<missing-glyph horiz-adv-x="1689" 
d="M1477 0h-1266v1597h1266v-1597zM424 1407v-971l745 971h-745zM1266 1210l-768 -1017h768v1017z" />
    <glyph glyph-name=".notdef" horiz-adv-x="1689" 
d="M1477 0h-1266v1597h1266v-1597zM424 1407v-971l745 971h-745zM1266 1210l-768 -1017h768v1017z" />
    <glyph glyph-name=".null" horiz-adv-x="0" 
 />
    <glyph glyph-name="nonmarkingreturn" horiz-adv-x="682" 
 />
    <glyph glyph-name="space" unicode=" " horiz-adv-x="602" 
 />
    <glyph glyph-name="exclam" unicode="!" horiz-adv-x="688" 
d="M430 500h-168l-80 915v182h326v-182zM346 -14q-82 0 -139 54t-57 132q0 74 57 126t139 52q77 0 136 -52.5t59 -125.5q0 -78 -56.5 -132t-138.5 -54z" />
    <glyph glyph-name="quotedbl" unicode="&#x22;" horiz-adv-x="1058" 
d="M442 1049h-286v548h286v-548zM903 1049h-287v548h287v-548z" />
    <glyph glyph-name="numbersign" unicode="#" horiz-adv-x="1882" 
d="M1792 1126l-51 -235h-311l-64 -268h297l-51 -236h-301l-92 -387h-267l92 387h-397l-92 -387h-268l92 387h-289l51 236h293l64 268h-279l53 235h281l113 471h268l-113 -471h398l112 471h266l-112 -471h307zM702 623h398l63 268h-397z" />
    <glyph glyph-name="dollar" unicode="$" horiz-adv-x="1497" 
d="M1372 500q0 -178 -145 -297t-400 -131v-154h-143v156q-215 20 -362 123.5t-201 271.5l278 82q80 -174 285 -209v326l-57 14q-40 10 -70.5 19.5t-80.5 28t-88 38.5t-81 51.5t-70.5 67t-46 84t-18.5 102.5q0 118 71 212t186 146.5t255 61.5v145h143v-147
q188 -19 322.5 -111.5t173.5 -208.5l-258 -114q-30 62 -92 106.5t-146 61.5v-314l107 -32q51 -14 79.5 -23t81.5 -29t85 -38t72.5 -48.5t63.5 -63t39.5 -78.5t16.5 -99zM485 1104q0 -54 50 -87t149 -63v279q-95 -7 -147 -41.5t-52 -87.5zM827 631v-295q93 9 156.5 47.5
t63.5 93.5q0 59 -55 92t-165 62z" />
    <glyph glyph-name="percent" unicode="%" horiz-adv-x="2277" 
d="M446 715q-170 0 -271 114.5t-101 300.5q0 187 101 302.5t271 115.5q169 0 270 -117t101 -301t-100.5 -299.5t-270.5 -115.5zM592 0h-281l1366 1468h273zM446 928q117 0 117 202q0 205 -117 205q-118 0 -118 -205q0 -202 118 -202zM1833 -29q-170 0 -271.5 115t-101.5 301
t101.5 302t271.5 116q169 0 270 -117t101 -301t-101 -300t-270 -116zM1833 184q117 0 117 203q0 205 -117 205q-119 0 -119 -205q0 -203 119 -203z" />
    <glyph glyph-name="ampersand" unicode="&#x26;" horiz-adv-x="1783" 
d="M694 -35q-167 0 -302 51.5t-214.5 148.5t-79.5 222q0 72 30 138t85.5 120.5t116 97t139.5 84.5q-49 44 -84.5 82t-72.5 88t-56.5 104.5t-19.5 110.5q0 83 38.5 159t106.5 133.5t168 91.5t215 34q121 0 221.5 -36.5t164.5 -95.5t99 -132t35 -149q0 -71 -32 -135.5
t-90 -116.5t-119 -91t-138 -77l297 -226q62 106 111 252l282 -53q-79 -248 -180 -403l420 -365h-395l-203 150q-222 -187 -543 -187zM735 963q123 62 179.5 115t56.5 124q0 76 -60.5 123t-152.5 47q-88 0 -146.5 -44.5t-58.5 -113.5q0 -63 47.5 -121.5t134.5 -129.5z
M717 231q187 0 323 111l-393 311q-116 -56 -177.5 -108.5t-61.5 -116.5q0 -88 88 -142.5t221 -54.5z" />
    <glyph glyph-name="quotesingle" unicode="'" horiz-adv-x="600" 
d="M442 1049h-286v548h286v-548z" />
    <glyph glyph-name="parenleft" unicode="(" horiz-adv-x="847" 
d="M834 -307h-312q-201 198 -307 445t-106 507q0 261 106 507.5t307 444.5h312q-197 -197 -304.5 -446t-107.5 -506q0 -255 107 -504.5t305 -447.5z" />
    <glyph glyph-name="parenright" unicode=")" horiz-adv-x="847" 
d="M324 -307h-312q198 198 305 447.5t107 504.5q0 258 -106.5 505.5t-305.5 446.5h312q202 -199 307.5 -445t105.5 -507q0 -260 -105.5 -506.5t-307.5 -445.5z" />
    <glyph glyph-name="asterisk" unicode="*" horiz-adv-x="956" 
d="M555 1026h-154l2 172l-186 -90l-78 119l205 86l-203 82l76 121l186 -89l-2 170h154l-4 -170l186 89l78 -119l-203 -84l203 -86l-78 -119l-186 90z" />
    <glyph glyph-name="plus" unicode="+" horiz-adv-x="1275" 
d="M766 733h358v-219h-358v-317h-250v317h-364v219h364v320h250v-320z" />
    <glyph glyph-name="comma" unicode="," horiz-adv-x="620" 
d="M229 -283h-170l181 289q-60 23 -92.5 67.5t-32.5 98.5q0 73 59 125.5t141 52.5q80 0 138.5 -51t58.5 -123q0 -55 -37.5 -117t-167.5 -237q-49 -66 -78 -105z" />
    <glyph glyph-name="hyphen" unicode="-" horiz-adv-x="1058" 
d="M913 502h-768v243h768v-243z" />
    <glyph glyph-name="period" unicode="." horiz-adv-x="630" 
d="M317 -14q-82 0 -140 54t-58 132q0 73 58 125.5t140 52.5q81 0 138 -52t57 -126q0 -78 -56.5 -132t-138.5 -54z" />
    <glyph glyph-name="slash" unicode="/" horiz-adv-x="1095" 
d="M354 -135h-282l667 1773h285z" />
    <glyph glyph-name="zero" unicode="0" horiz-adv-x="1720" 
d="M860 -35q-165 0 -303 61t-233 170t-148 263t-53 336q0 244 90.5 433.5t258.5 295.5t388 106t388 -106t258.5 -295.5t90.5 -433.5q0 -182 -53 -336t-148 -263t-233 -170t-303 -61zM862 250q183 0 290.5 141.5t107.5 405.5t-107.5 406.5t-290.5 142.5q-185 0 -294 -142
t-109 -407t109 -406t294 -141z" />
    <glyph glyph-name="one" unicode="1" horiz-adv-x="1001" 
d="M778 0h-319v1104q-68 -62 -176.5 -113t-219.5 -71v317q175 42 289.5 143t114.5 217h311v-1597z" />
    <glyph glyph-name="two" unicode="2" horiz-adv-x="1556" 
d="M1419 0h-1280v37q6 113 33.5 202.5t72 160.5t124.5 141t168 128.5t227 137.5q163 93 210 128q130 93 138 193v13q0 93 -88.5 154t-237.5 61q-183 0 -288 -98t-105 -259l-295 48q0 169 88 302t247 207t362 74q182 0 328.5 -59t231.5 -171t85 -257q0 -80 -29 -152
t-81.5 -129.5t-113 -102t-135.5 -83.5q-51 -28 -136.5 -69.5t-137.5 -68.5t-111.5 -66.5t-98 -86t-58.5 -102.5h880v-283z" />
    <glyph glyph-name="three" unicode="3" horiz-adv-x="1603" 
d="M797 -35q-171 0 -320.5 45t-255 128t-145.5 192l276 133q18 -31 48.5 -63.5t82 -69.5t131.5 -60.5t174 -23.5q162 0 260.5 59t98.5 160q0 99 -95.5 160t-271.5 61h-194v248h182q153 0 240.5 56t87.5 151t-92.5 153t-237.5 58q-143 0 -240 -66t-118 -186l-287 63
q29 197 215.5 332t458.5 135q126 0 240.5 -30.5t201.5 -85.5t138.5 -138.5t51.5 -181.5q0 -128 -84.5 -224.5t-226.5 -125.5v-2q157 -25 263 -123.5t106 -249.5q0 -75 -27 -147t-84 -136.5t-137 -113.5t-193.5 -78t-246.5 -29z" />
    <glyph glyph-name="four" unicode="4" horiz-adv-x="1650" 
d="M1300 0h-309v338h-934v250l942 1009h301v-1003h261v-256h-261v-338zM991 1190l-610 -596h610v596z" />
    <glyph glyph-name="five" unicode="5" horiz-adv-x="1601" 
d="M776 -35q-165 0 -311 45t-255 131.5t-159 202.5l258 158q41 -92 120.5 -153.5t166.5 -86t182 -24.5q168 0 282 80.5t114 209.5q0 127 -108 205t-273 78q-127 0 -219.5 -49t-143.5 -127l-262 67l229 895h994v-266h-764l-117 -379h2q59 48 155 75.5t205 27.5
q70 0 141 -11.5t143.5 -35.5t134.5 -65t111 -95.5t77 -131.5t28 -169q0 -129 -57 -238.5t-155.5 -184.5t-232.5 -117t-286 -42z" />
    <glyph glyph-name="six" unicode="6" horiz-adv-x="1665" 
d="M860 -35q-222 0 -387 84t-258.5 253t-93.5 407q0 200 67.5 371t186 292t288 189.5t367.5 68.5q309 0 492 -157l-174 -218q-138 101 -340 101q-118 0 -220.5 -41t-171.5 -109t-109.5 -155.5t-43.5 -180.5h6q61 81 183 127.5t272 46.5q171 0 316.5 -63.5t235 -184.5
t89.5 -276q0 -116 -51.5 -218t-143 -176.5t-224 -117.5t-286.5 -43zM862 238q150 0 260.5 74t110.5 198q0 84 -53 149.5t-136.5 98.5t-179.5 33q-156 0 -264 -81.5t-108 -201.5q0 -80 53 -143t137 -95t180 -32z" />
    <glyph glyph-name="seven" unicode="7" horiz-adv-x="1443" 
d="M682 0h-336q0 144 39.5 307.5t118 340.5t212 360.5t306.5 341.5h-979v256h1352v-260q-150 -112 -272.5 -251.5t-203 -279t-135 -287t-78.5 -278t-24 -250.5z" />
    <glyph glyph-name="eight" unicode="8" horiz-adv-x="1640" 
d="M821 -35q-156 0 -289.5 38.5t-224.5 104t-142.5 153t-51.5 185.5q0 146 101.5 253t250.5 139v4q-128 44 -199 134t-71 206q0 129 82.5 231.5t225.5 159.5t318 57q173 0 315 -55t226 -158.5t84 -236.5q0 -113 -69 -204.5t-206 -133.5v-4q151 -32 254 -139t103 -253
q0 -98 -51.5 -186.5t-143 -153.5t-224.5 -103t-288 -38zM821 963q129 0 216 57t87 147q0 89 -86.5 146t-216.5 57t-218.5 -57.5t-88.5 -145.5q0 -89 88 -146.5t219 -57.5zM815 231q101 0 187 29.5t141 89.5t55 139q0 111 -102.5 179.5t-274.5 68.5t-275.5 -68t-103.5 -184
t108 -185t265 -69z" />
    <glyph glyph-name="nine" unicode="9" horiz-adv-x="1683" 
d="M735 -35q-178 0 -340 56t-262 151l172 211q168 -154 410 -154q124 0 223.5 42t161.5 113.5t94.5 161.5t32.5 189h-4q-51 -84 -180.5 -139t-292.5 -55q-99 0 -193.5 23.5t-176 69.5t-143 108.5t-96.5 146.5t-35 178q0 114 52 216.5t143.5 179.5t227 122t292.5 45
q121 0 228.5 -27.5t201 -87t161 -148t106 -217.5t38.5 -288q0 -151 -33 -285.5t-100.5 -246.5t-164.5 -193.5t-230.5 -126.5t-292.5 -45zM809 793q156 0 264.5 82t108.5 208q0 84 -54 148.5t-137 96.5t-178 32q-153 0 -263 -77t-110 -206q0 -128 107 -206t262 -78z" />
    <glyph glyph-name="colon" unicode=":" horiz-adv-x="698" 
d="M350 795q-82 0 -139 54t-57 132q0 74 57 126t139 52q81 0 138 -52t57 -126q0 -78 -56.5 -132t-138.5 -54zM350 -12q-82 0 -139 54t-57 132q0 74 57 126t139 52q81 0 138 -52t57 -126q0 -78 -56.5 -132t-138.5 -54z" />
    <glyph glyph-name="semicolon" unicode=";" horiz-adv-x="737" 
d="M375 795q-82 0 -140.5 54t-58.5 132q0 73 58.5 125.5t140.5 52.5q80 0 138 -52.5t58 -125.5q0 -77 -58 -131.5t-138 -54.5zM283 -299h-177l181 305q-51 23 -82 68.5t-31 97.5q0 73 58.5 125.5t140.5 52.5t139 -52t57 -126q0 -55 -47 -130.5t-239 -340.5z" />
    <glyph glyph-name="less" unicode="&#x3c;" horiz-adv-x="1251" 
d="M1079 438v-209l-929 230v305l929 229v-209l-719 -172z" />
    <glyph glyph-name="equal" unicode="=" horiz-adv-x="1323" 
d="M1155 719h-989v219h989v-219zM1155 270h-989v222h989v-222z" />
    <glyph glyph-name="greater" unicode="&#x3e;" horiz-adv-x="1251" 
d="M1100 459l-928 -230v209l715 174l-715 172v209l928 -229v-305z" />
    <glyph glyph-name="question" unicode="?" horiz-adv-x="1441" 
d="M817 457h-323q-15 69 -15 116q0 56 20.5 103.5t62 87.5t92.5 73t124 68q45 23 69.5 36.5t61 38.5t55.5 47t33.5 53.5t14.5 66.5q0 89 -87.5 146t-217.5 57q-149 0 -245.5 -80.5t-96.5 -206.5q0 -5 1 -16t1 -17l-285 49q-4 20 -4 29q0 160 91 281t236.5 181t321.5 60
q167 0 307 -53.5t227 -159t87 -243.5q0 -60 -19 -114.5t-47.5 -93.5t-73 -77.5t-82.5 -63t-90 -53.5q-124 -73 -162 -105q-71 -59 -71 -126q0 -43 14 -84zM668 -14q-82 0 -140.5 55t-58.5 131q0 74 57.5 126t139.5 52q78 0 136 -52.5t58 -129.5q0 -75 -56.5 -128.5
t-135.5 -53.5z" />
    <glyph glyph-name="at" unicode="@" horiz-adv-x="2342" 
d="M1139 -195q-202 0 -372.5 43t-292 119.5t-207 180t-126.5 225t-41 254.5q0 157 57.5 306.5t167 275t256.5 220.5t336 148t396 53q281 0 500 -96.5t342.5 -276t123.5 -413.5q0 -127 -39 -238t-108.5 -192t-171 -127.5t-221.5 -46.5q-140 0 -215.5 57t-81.5 145
q-79 -105 -196 -152.5t-245 -47.5q-197 0 -307 106.5t-110 269.5q0 149 86 282t226.5 211.5t295.5 78.5q118 0 202 -44t115 -118l33 135h215l-110 -528q-4 -22 -6.5 -35.5t-5 -40.5t-0.5 -45t9.5 -41t21 -37t37 -23.5t56.5 -9.5q128 0 212.5 115.5t84.5 306.5
q0 305 -197.5 465t-545.5 160q-217 0 -403 -64.5t-313.5 -175.5t-200 -263t-72.5 -324q0 -305 215.5 -472t615.5 -167q376 0 627 151l104 -145q-103 -68 -241 -111.5t-259 -58.5t-247 -15zM1085 453q150 0 252.5 100.5t102.5 222.5q0 89 -63 145t-171 56q-150 0 -256 -99.5
t-106 -226.5q0 -92 63.5 -145t177.5 -53z" />
    <glyph glyph-name="A" unicode="A" horiz-adv-x="1871" 
d="M342 0h-330l740 1597h368l740 -1597h-338l-205 418h-770q-37 -76 -106.5 -218t-98.5 -200zM686 713h492q-156 324 -242 518h-6q-118 -260 -244 -518z" />
    <glyph glyph-name="B" unicode="B" horiz-adv-x="1753" 
d="M1008 0h-793v1597h774q278 0 435 -115.5t157 -297.5q0 -79 -33.5 -151t-107 -129.5t-176.5 -82.5v-4q181 -30 283 -125.5t102 -255.5q0 -69 -20 -128.5t-55 -103.5t-84.5 -79t-105.5 -58t-120 -38.5t-127.5 -22t-128.5 -6.5zM535 938h362q72 0 131.5 9t110.5 29.5
t79.5 58.5t28.5 91t-30 91.5t-82.5 59.5t-112 30.5t-129.5 9.5h-358v-379zM535 281h403q73 0 134.5 9t117.5 30t87.5 61t31.5 96q0 55 -32.5 95.5t-88 62t-117.5 31.5t-133 10h-403v-395z" />
    <glyph glyph-name="C" unicode="C" horiz-adv-x="2048" 
d="M1094 -35q-213 0 -396 60.5t-313.5 169t-204.5 265.5t-74 343q0 156 52 290.5t143 232t213.5 167t265.5 103.5t297 34q299 0 536 -136.5t335 -365.5l-293 -112q-80 148 -230.5 237.5t-351.5 89.5q-177 0 -320.5 -67t-228 -194.5t-84.5 -293.5q0 -113 39 -205.5
t103.5 -152.5t151.5 -101.5t179 -59t189 -17.5q229 0 388.5 99t229.5 286l295 -96q-72 -195 -208 -325t-314 -190.5t-399 -60.5z" />
    <glyph glyph-name="D" unicode="D" horiz-adv-x="1957" 
d="M963 0h-748v1597h725q187 0 339.5 -40.5t257 -112t176 -171.5t104 -216t32.5 -248q0 -178 -60.5 -327t-173 -256t-280 -166.5t-372.5 -59.5zM535 281h397q98 0 181 15t159 52t129 94t84 146.5t31 204.5q0 96 -20.5 173.5t-55 131.5t-86 94t-106 63.5t-123.5 37.5
t-130.5 19t-134.5 5h-325v-1036z" />
    <glyph glyph-name="E" unicode="E" horiz-adv-x="1599" 
d="M1481 0h-1266v1597h1241v-280h-921v-359h872v-294h-872v-381h946v-283z" />
    <glyph glyph-name="F" unicode="F" horiz-adv-x="1521" 
d="M1436 1597v-282h-901v-389h851v-297h-851v-629h-320v1597h1221z" />
    <glyph glyph-name="G" unicode="G" horiz-adv-x="2142" 
d="M1051 -35q-204 0 -379.5 62t-300 171.5t-195 264.5t-70.5 334q0 191 78 350t211 263.5t308.5 162t371.5 57.5q303 0 540.5 -138.5t332.5 -363.5l-293 -112q-81 148 -230 237.5t-350 89.5q-131 0 -246 -38.5t-202 -108t-137 -175.5t-50 -233q0 -98 28.5 -179.5t78.5 -139
t114.5 -100.5t140.5 -68t151.5 -37t152.5 -12q227 0 381.5 88.5t185.5 239.5h-545v247h865v-827h-246q-4 86 -16 242h-13q-210 -277 -667 -277z" />
    <glyph glyph-name="H" unicode="H" horiz-adv-x="1990" 
d="M1456 938v659h320v-1597h-320v643h-921v-643h-320v1597h320v-659h921z" />
    <glyph glyph-name="I" unicode="I" horiz-adv-x="749" 
d="M535 0h-320v1597h320v-1597z" />
    <glyph glyph-name="J" unicode="J" horiz-adv-x="1517" 
d="M717 -35q-139 0 -259.5 35t-213 102t-146 173.5t-53.5 240.5v55l311 41v-51q0 -143 97 -226t247 -83q82 0 141 23.5t89 56t47 82t20.5 84.5t3.5 82v1017h318v-968q0 -58 -1.5 -95.5t-13 -114t-32.5 -129.5t-65.5 -119.5t-106.5 -107.5t-160.5 -69.5t-222.5 -28.5z" />
    <glyph glyph-name="K" unicode="K" horiz-adv-x="1730" 
d="M535 0h-320v1597h320v-714h8q407 375 800 714h375q-242 -222 -753 -694q89 -101 284 -325t334 -383.5t172 -194.5h-385q-106 114 -287 316.5t-335 369.5l-213 -201v-485z" />
    <glyph glyph-name="L" unicode="L" horiz-adv-x="1443" 
d="M535 1597v-1314h876v-283h-1196v1597h320z" />
    <glyph glyph-name="M" unicode="M" horiz-adv-x="2494" 
d="M539 0h-324v1597h395q407 -696 635 -1122h4q80 146 167.5 303t149 264t161.5 281.5t157 273.5h395v-1597h-323v1028h-10q-240 -468 -580 -1028h-240q-181 302 -310.5 530t-268.5 498h-8v-1028z" />
    <glyph glyph-name="N" unicode="N" horiz-adv-x="2009" 
d="M535 0h-320v1597h334q79 -91 279.5 -318.5t352.5 -403t289 -340.5h7v1062h315v-1597h-332q-40 46 -388.5 435.5t-530.5 604.5h-6v-1040z" />
    <glyph glyph-name="O" unicode="O" horiz-adv-x="2144" 
d="M1073 -35q-197 0 -374.5 61.5t-309 169.5t-208.5 264.5t-77 336.5q0 145 49 275t138.5 231t209 175t266.5 113t306 39q200 0 378 -62.5t308 -171.5t205.5 -265t75.5 -334t-75.5 -333.5t-205.5 -264.5t-308 -171.5t-378 -62.5zM1075 252q173 0 317 70.5t228 195.5t84 279
q0 151 -82.5 276.5t-227 197.5t-319.5 72t-320.5 -69.5t-231 -195.5t-85.5 -281q0 -118 51 -220.5t137 -173t203 -111t246 -40.5z" />
    <glyph glyph-name="P" unicode="P" horiz-adv-x="1658" 
d="M215 1597h723q52 0 101 -3.5t117.5 -16.5t126 -33.5t117 -59.5t101 -90.5t68 -129.5t26.5 -174q0 -97 -26.5 -177t-69 -133.5t-101.5 -94.5t-117 -63.5t-123.5 -36.5t-112.5 -18t-91 -4h-419v-563h-320v1597zM535 858h350q377 0 377 232q0 227 -377 227h-350v-459z" />
    <glyph glyph-name="Q" unicode="Q" horiz-adv-x="2177" 
d="M2011 -47l-227 -182q-45 44 -136.5 131t-136.5 131q-201 -68 -424 -68q-203 0 -383.5 61.5t-312.5 169.5t-209.5 264t-77.5 337t77 337t209 264.5t313.5 170t386.5 61.5t386 -62.5t312 -171.5t207 -264.5t76 -334.5q0 -181 -81 -337.5t-227 -271.5zM1092 252q97 0 200 27
q-169 141 -252 213l228 182q192 -172 288 -256q187 156 187 379q0 233 -183 389.5t-468 156.5q-189 0 -340.5 -70t-236.5 -195t-85 -281q0 -158 85.5 -283t236.5 -193.5t340 -68.5z" />
    <glyph glyph-name="R" unicode="R" horiz-adv-x="1720" 
d="M535 0h-320v1597h723q47 0 94.5 -3.5t115 -16.5t126 -34.5t119.5 -61t104 -91.5t70.5 -131t27.5 -176q0 -109 -36 -195.5t-100.5 -144t-141.5 -93t-170 -54.5v-2q343 -416 487 -594h-358l-467 571h-274v-571zM535 842h350q72 0 133 10t119 34.5t91.5 73t33.5 117.5
q0 55 -23.5 98t-60.5 70t-88 44.5t-101 24.5t-104 7h-350v-479z" />
    <glyph glyph-name="S" unicode="S" horiz-adv-x="1605" 
d="M825 -35q-177 0 -328.5 54t-262.5 162t-158 257l297 97q27 -81 75 -140t109 -91.5t125.5 -47t138.5 -14.5q93 0 172.5 21.5t132 67t52.5 107.5q0 38 -21.5 69.5t-47.5 51.5t-79.5 40.5t-84 29t-95.5 25.5q-4 1 -6.5 1.5t-6 1.5t-6.5 2l-174 43q-514 127 -514 457
q0 140 89.5 249t237 165.5t325.5 56.5q167 0 308 -53.5t227.5 -136.5t121.5 -183l-291 -112q-47 99 -143.5 154t-233.5 55q-134 0 -221.5 -48.5t-87.5 -121.5q0 -28 13.5 -53t33 -44t52 -37.5t60 -30.5t68 -25t65 -20t60.5 -16l197 -53q42 -11 66 -17.5t69.5 -21t74.5 -27
t70 -33.5t68 -42.5t57 -52.5t47 -65t28.5 -78t11.5 -93q0 -219 -193.5 -364.5t-497.5 -145.5z" />
    <glyph glyph-name="T" unicode="T" horiz-adv-x="1572" 
d="M944 0h-315v1317h-596v280h1507v-280h-596v-1317z" />
    <glyph glyph-name="U" unicode="U" horiz-adv-x="1835" 
d="M915 -35q-168 0 -298 43t-207.5 109t-127 157t-67.5 176.5t-18 176.5v970h317v-946q0 -183 99 -291t305 -108q105 0 183.5 29.5t126 83.5t70.5 125.5t23 160.5v946h319v-970q0 -62 -8 -121.5t-30 -126.5t-56.5 -125t-91.5 -112.5t-130.5 -92.5t-178.5 -61t-230 -23z" />
    <glyph glyph-name="V" unicode="V" horiz-adv-x="1871" 
d="M1120 0h-370l-738 1597h334q71 -114 307.5 -623t282.5 -601h6q72 141 294.5 628t287.5 596h336z" />
    <glyph glyph-name="W" unicode="W" horiz-adv-x="2834" 
d="M987 0h-397l-563 1597h360q303 -861 406 -1167h4q54 146 206 547t232 620h362q83 -222 238.5 -629.5t204.5 -537.5h6q34 100 100 296t103.5 306.5t92.5 269.5t105 295h361l-563 -1597h-396q-263 654 -430 1114h-4q-283 -765 -428 -1114z" />
    <glyph glyph-name="X" unicode="X" horiz-adv-x="1665" 
d="M393 -2h-383q101 127 305.5 393.5t315.5 405.5v6q-102 129 -303.5 394.5t-307.5 399.5h373q80 -96 222 -277.5t216 -270.5h7q58 71 206.5 258.5t235.5 289.5h373q-107 -133 -309 -396.5t-310 -397.5v-6q115 -144 320 -413t297 -386h-381q-58 72 -203.5 259.5
t-230.5 291.5h-7q-387 -489 -436 -551z" />
    <glyph glyph-name="Y" unicode="Y" horiz-adv-x="1716" 
d="M1016 0h-316v549q-89 135 -248.5 381t-283.5 437.5t-150 229.5h340q84 -125 249 -373.5t249 -373.5h4q46 70 133.5 202.5t168.5 254.5t196 290h340q-79 -121 -215 -330.5t-251 -385.5t-216 -330v-551z" />
    <glyph glyph-name="Z" unicode="Z" horiz-adv-x="1652" 
d="M1567 0h-1483v285q519 504 1063 1030v4q-342 -2 -1028 -2v280h1429v-286q-74 -71 -469 -446.5t-604 -577.5v-4h1092v-283z" />
    <glyph glyph-name="bracketleft" unicode="[" horiz-adv-x="958" 
d="M887 -432h-676v2029h676v-260h-377v-1478h377v-291z" />
    <glyph glyph-name="backslash" unicode="\" horiz-adv-x="1095" 
d="M1024 -135h-285l-667 1773h282z" />
    <glyph glyph-name="bracketright" unicode="]" horiz-adv-x="958" 
d="M745 -432h-675v291h379v1478h-379v260h675v-2029z" />
    <glyph glyph-name="asciicircum" unicode="^" horiz-adv-x="1122" 
d="M332 993h-228l326 604h270l318 -604h-225l-226 432h-6z" />
    <glyph glyph-name="underscore" unicode="_" horiz-adv-x="1308" 
d="M1227 -250h-1145v227h1145v-227z" />
    <glyph glyph-name="a" unicode="a" horiz-adv-x="1431" 
d="M549 -35q-124 0 -225.5 35.5t-167.5 113.5t-66 187q0 65 25 117t64.5 87t101 62t122.5 43.5t140 30.5q31 5 71.5 11.5t69.5 11t63.5 11t59 12t50.5 13.5t42.5 17t31 20.5t21 26.5t6.5 33q0 61 -68.5 103t-178.5 42q-108 0 -185.5 -44.5t-109.5 -137.5l-283 90
q30 87 90.5 151.5t140 102t167.5 55t186 17.5q249 0 397 -107t148 -299v-414q0 -128 10 -203.5t33 -152.5h-297q-29 62 -29 150h-6q-56 -85 -169 -135t-255 -50zM625 186q148 0 242 75t94 169v96q-115 -40 -285 -69q-51 -10 -87 -19.5t-80.5 -27t-68.5 -44t-24 -61.5
q0 -57 57.5 -88t151.5 -31z" />
    <glyph glyph-name="b" unicode="b" horiz-adv-x="1640" 
d="M924 -35q-146 0 -260.5 52.5t-182.5 134.5h-4v-152h-295v1638h299v-663q163 201 463 201q180 0 319 -81.5t212 -218.5t73 -303q0 -139 -51 -255t-137.5 -192.5t-199 -118.5t-236.5 -42zM858 240q166 0 272.5 92t106.5 237q0 143 -107 237.5t-272 94.5t-274 -94t-109 -238
t110 -236.5t273 -92.5z" />
    <glyph glyph-name="c" unicode="c" horiz-adv-x="1499" 
d="M795 -35q-201 0 -359.5 72.5t-251 210.5t-92.5 321q0 182 90.5 321t248 212.5t355.5 73.5q214 0 384.5 -94.5t242.5 -262.5l-280 -108q-41 96 -134 143t-215 47q-169 0 -275 -94t-106 -236q0 -150 113 -240.5t283 -90.5q131 0 228 52t147 152l280 -108
q-75 -173 -251 -272t-408 -99z" />
    <glyph glyph-name="d" unicode="d" horiz-adv-x="1640" 
d="M717 -35q-185 0 -328 78.5t-220 216t-77 311.5q0 183 85 322.5t225.5 211t312.5 71.5q146 0 258 -51.5t180 -133.5h6v647h299v-1282q0 -129 10.5 -205t32.5 -151h-295q-31 88 -28 145h-7q-73 -91 -192.5 -135.5t-261.5 -44.5zM780 240q166 0 275.5 94.5t109.5 238.5
q0 145 -110 237.5t-275 92.5t-271 -93t-106 -239q0 -142 107 -236.5t270 -94.5z" />
    <glyph glyph-name="e" unicode="e" horiz-adv-x="1466" 
d="M764 -35q-143 0 -268 43.5t-215.5 120.5t-142.5 190t-52 246q0 174 84 313.5t234 218.5t339 79q95 0 185 -22.5t171 -71.5t141.5 -119t96 -172t35.5 -224v-88h-987q18 -121 122 -188.5t255 -67.5q117 0 206.5 47.5t133.5 135.5l278 -109q-71 -146 -234.5 -239t-381.5 -93
zM399 694h672q-14 118 -107 177t-223 59q-135 0 -225 -65.5t-117 -170.5z" />
    <glyph glyph-name="f" unicode="f" horiz-adv-x="931" 
d="M569 0h-299v883h-204v260h204v112q0 418 443 418q133 0 231 -33v-239q-91 26 -170 26q-59 0 -100 -14t-61 -32t-30.5 -50.5t-12 -52t-1.5 -55.5v-80h336v-260h-336v-883z" />
    <glyph glyph-name="g" unicode="g" horiz-adv-x="1638" 
d="M786 -483q-496 0 -641 327l273 95q49 -93 136 -136t226 -43q176 0 276.5 91.5t100.5 271.5v53h-6q-131 -170 -432 -170q-145 0 -265.5 47t-199 127.5t-121.5 185.5t-43 222q0 169 82 304t223.5 209.5t315.5 74.5q147 0 263 -52t183 -135h4v154h295v-1028
q0 -135 -36 -239.5t-97 -171.5t-148.5 -109.5t-182.5 -60t-206 -17.5zM778 281q164 0 274.5 91.5t110.5 221.5q0 131 -110.5 220t-274.5 89q-163 0 -270 -89.5t-107 -219.5q0 -132 108 -222.5t269 -90.5z" />
    <glyph glyph-name="h" unicode="h" horiz-adv-x="1568" 
d="M481 0h-299v1638h299v-663h6q75 102 188.5 151.5t244.5 49.5q76 0 145.5 -17t131.5 -54t107.5 -89.5t72 -128t26.5 -166.5v-721h-299v594q0 47 -10 90.5t-32 83.5t-54.5 69t-81.5 46.5t-109 17.5q-151 0 -243.5 -77.5t-92.5 -233.5v-590z" />
    <glyph glyph-name="i" unicode="i" horiz-adv-x="661" 
d="M332 1298q-83 0 -139 52.5t-56 128.5q0 74 57.5 125t137.5 51q81 0 136.5 -51.5t55.5 -122.5q0 -77 -55.5 -130t-136.5 -53zM481 0h-299v1143h299v-1143z" />
    <glyph glyph-name="j" unicode="j" horiz-adv-x="659" 
d="M330 1298q-82 0 -138.5 54t-56.5 127t56.5 124.5t138.5 51.5q81 0 136.5 -51t55.5 -125q0 -75 -55.5 -128t-136.5 -53zM45 -483q-139 0 -270 43v247q106 -34 209 -34q41 0 73 7t52 17t34.5 28.5t21.5 32.5t10.5 39t4 38t0.5 38v1170h301v-1157q0 -57 -1 -88.5t-9.5 -88.5
t-24 -90.5t-47 -77t-77 -67t-116.5 -40.5t-161 -17z" />
    <glyph glyph-name="k" unicode="k" horiz-adv-x="1384" 
d="M842 672l573 -672h-350l-428 483l-156 -145v-338h-299v1638h299v-931h6q247 219 502 436h359z" />
    <glyph glyph-name="l" unicode="l" horiz-adv-x="661" 
d="M481 0h-299v1638h299v-1638z" />
    <glyph glyph-name="m" unicode="m" horiz-adv-x="2441" 
d="M481 0h-299v1143h295v-168h4q70 97 186.5 149t245.5 52q133 0 249 -54.5t169 -154.5h4q174 209 457 209q92 0 177 -29t154 -84t110.5 -143.5t41.5 -198.5v-721h-299v594q0 128 -68 217.5t-204 89.5q-68 0 -126 -18.5t-103.5 -55t-71 -97.5t-25.5 -140v-590h-299v596
q0 60 -15.5 113t-47 97t-85.5 69.5t-124 25.5q-144 0 -235 -78t-91 -233v-590z" />
    <glyph glyph-name="n" unicode="n" horiz-adv-x="1568" 
d="M481 0h-299v1143h295v-168h4q74 100 189.5 150.5t249.5 50.5q96 0 181.5 -28t153.5 -82t108 -143t40 -202v-721h-299v594q0 47 -10 90.5t-32 83.5t-54.5 69t-81.5 46.5t-109 17.5q-151 0 -243.5 -77.5t-92.5 -233.5v-590z" />
    <glyph glyph-name="o" unicode="o" horiz-adv-x="1583" 
d="M793 -35q-204 0 -363.5 76.5t-248.5 214t-89 313.5q0 175 88.5 313.5t249 216t363.5 77.5t363 -77.5t248.5 -216t88.5 -313.5q0 -176 -88.5 -313.5t-248 -214t-363.5 -76.5zM793 240q171 0 279 92t108 237q0 148 -107.5 240t-279.5 92q-171 0 -280.5 -93t-109.5 -239
q0 -144 109.5 -236.5t280.5 -92.5z" />
    <glyph glyph-name="p" unicode="p" horiz-adv-x="1640" 
d="M481 -451h-299v1594h295v-170h4q173 203 463 203q180 0 319 -81.5t212 -218t73 -301.5q0 -140 -51 -256.5t-137.5 -193t-199 -118.5t-236.5 -42q-147 0 -260.5 52.5t-182.5 134.5v-603zM858 240q165 0 272 93t107 236q0 145 -107.5 238.5t-271.5 93.5q-163 0 -273 -93.5
t-110 -238.5q0 -144 110 -236.5t273 -92.5z" />
    <glyph glyph-name="q" unicode="q" horiz-adv-x="1640" 
d="M1458 -451h-299v619q-80 -101 -199 -152t-260 -51q-177 0 -317 82t-215.5 221.5t-75.5 309.5q0 136 49 249.5t134 189t198 117.5t240 42q146 0 262.5 -52t183.5 -135h4v154h295v-1594zM780 240q166 0 275.5 94.5t109.5 238.5q0 145 -110 237.5t-275 92.5t-271 -93
t-106 -239q0 -142 107 -236.5t270 -94.5z" />
    <glyph glyph-name="r" unicode="r" horiz-adv-x="1056" 
d="M481 0h-299v1143h295v-176h10q55 90 160 149.5t238 59.5q75 0 139 -21v-321q-76 22 -168 22q-76 0 -137.5 -19.5t-101 -53.5t-67.5 -75t-42.5 -90t-20.5 -91t-6 -85v-442z" />
    <glyph glyph-name="s" unicode="s" horiz-adv-x="1259" 
d="M649 -35q-222 0 -380 88t-208 234l279 86q44 -89 127.5 -130.5t179.5 -41.5q49 0 94 9t81 35t36 64q0 28 -16.5 49.5t-47 35.5t-61 23.5t-69.5 19.5q-7 1 -11.5 2.5t-9.5 2.5l-143 35q-53 13 -100.5 30t-99.5 46.5t-89 65t-61.5 87t-24.5 111.5q0 106 68.5 189
t181.5 126.5t250 43.5q193 0 330.5 -81t181.5 -208l-277 -86q-29 61 -92 101t-156 40q-82 0 -134 -29.5t-52 -76.5q0 -24 17 -44.5t40.5 -34.5t62.5 -27.5t67.5 -21t70.5 -16.5l113 -24q30 -7 48 -11t52 -14t57 -19.5t55 -25t53.5 -32.5t45 -41t38 -51t23.5 -62.5t9 -75.5
q0 -169 -144.5 -270t-384.5 -101z" />
    <glyph glyph-name="t" unicode="t" horiz-adv-x="1048" 
d="M727 -35q-88 0 -158 17t-114 40.5t-76 63t-47 71t-23 78t-9 70t-1 60.5v518h-270v260h270v323h299v-323h383v-260h-383v-416q0 -32 0.5 -48.5t4 -46.5t10 -47t20.5 -38.5t33.5 -33t50 -20t69.5 -8.5q95 0 195 41v-258q-97 -43 -254 -43z" />
    <glyph glyph-name="u" unicode="u" horiz-adv-x="1546" 
d="M659 -35q-223 0 -358 119t-135 342v717h299v-619q0 -130 76 -207t202 -77q147 0 233.5 81.5t86.5 206.5v615h299v-787q0 -129 10.5 -203.5t34.5 -152.5h-301q-29 104 -27 139h-4q-138 -174 -416 -174z" />
    <glyph glyph-name="v" unicode="v" horiz-adv-x="1398" 
d="M881 0h-361l-500 1143h326q103 -220 354 -805h7q244 574 352 805h317z" />
    <glyph glyph-name="w" unicode="w" horiz-adv-x="2285" 
d="M831 0h-346l-465 1143h340l312 -772h8l330 772h268l330 -772h6l311 772h338l-461 -1143h-358q-164 384 -297 713h-6q-118 -280 -310 -713z" />
    <glyph glyph-name="x" unicode="x" horiz-adv-x="1349" 
d="M365 0h-349q60 78 217.5 275.5t239.5 304.5v2q-42 52 -190.5 237t-262.5 324h347q118 -145 309 -381h4q166 209 309 381h340q-149 -188 -452 -561v-2q60 -77 217 -276t239 -304h-340q-26 32 -95 117t-118.5 145t-99.5 117h-4q-56 -70 -171 -209.5t-140 -169.5z" />
    <glyph glyph-name="y" unicode="y" horiz-adv-x="1415" 
d="M676 -451h-314l191 402l-537 1192h330q176 -372 365 -809h4q164 380 362 809h322z" />
    <glyph glyph-name="z" unicode="z" horiz-adv-x="1286" 
d="M1217 0h-1133v242l680 637h-658v264h1059v-244l-682 -637h734v-262z" />
    <glyph glyph-name="braceleft" unicode="{" horiz-adv-x="1058" 
d="M989 -301h-139q-210 0 -339.5 50t-185 142.5t-55.5 235.5v176q0 34 -2.5 61t-5.5 47.5t-11.5 35.5t-15 25.5t-21 17.5t-23.5 10.5t-29.5 5t-33 2t-38.5 0.5h-4v280q89 0 118 12q50 22 62 110q4 35 4 83v176q0 45 4 82t18.5 83t38.5 81.5t68 71t104 58.5t148.5 37.5
t198.5 14.5h139v-260h-106q-58 0 -100 -4t-86 -17.5t-71.5 -37t-45 -65t-17.5 -99.5v-123q0 -124 -20 -193.5t-60 -101.5t-114 -47v-6q57 -12 91 -29.5t59 -55t34.5 -97.5t9.5 -156v-123q0 -119 71.5 -171t248.5 -52h106v-260z" />
    <glyph glyph-name="bar" unicode="|" horiz-adv-x="677" 
d="M465 -451h-254v2089h254v-2089z" />
    <glyph glyph-name="braceright" unicode="}" horiz-adv-x="1058" 
d="M207 -301h-137v260h106q58 0 99.5 4t85.5 17.5t71 37t44.5 65t17.5 99.5v123q0 123 16.5 188t57.5 99t122 51v6q-117 23 -156.5 96t-39.5 246v123q0 122 -71 172.5t-247 50.5h-106v260h137q211 0 340.5 -50t185 -142t55.5 -236v-176q0 -38 2.5 -67.5t9.5 -51t13 -36.5
t20.5 -24.5t24.5 -14.5t32 -7.5t36 -3t43 -0.5h4v-280q-90 0 -119 -13q-51 -22 -62 -114q-4 -33 -4 -78v-176q0 -47 -4.5 -85t-19.5 -84t-39.5 -81t-69 -70t-104 -57.5t-147.5 -36.5t-197 -14z" />
    <glyph glyph-name="asciitilde" unicode="~" horiz-adv-x="1370" 
d="M918 471q-67 0 -131 19t-104.5 41.5t-88.5 41.5t-88 19q-54 0 -83.5 -34t-29.5 -79h-237q0 159 93 253.5t226 94.5q62 0 121 -17.5t97.5 -38.5t89.5 -38.5t98 -17.5q48 0 72 30t24 78h240q0 -172 -82 -262t-217 -90z" />
    <glyph glyph-name="uni00A0" unicode="&#xa0;" horiz-adv-x="602" 
 />
    <glyph glyph-name="exclamdown" unicode="&#xa1;" horiz-adv-x="655" 
d="M330 809q-81 0 -140 53t-59 125q0 78 58.5 133.5t140.5 55.5q80 0 137 -55.5t57 -133.5q0 -72 -58.5 -125t-135.5 -53zM492 -436h-328v182l82 907h166l80 -907v-182z" />
    <glyph glyph-name="cent" unicode="&#xa2;" horiz-adv-x="1363" 
d="M1040 616l215 -86q-52 -123 -176.5 -199.5t-287.5 -88.5v-242h-144v244q-105 12 -196.5 51.5t-160 102.5t-108 154t-39.5 198q0 142 69 253.5t182 174t253 77.5v211h144v-209q150 -14 266 -86.5t168 -189.5l-215 -86q-51 116 -219 141v-573q86 9 151.5 48.5t97.5 104.5z
M397 750q0 -115 70.5 -188t179.5 -95v567q-112 -21 -181 -95.5t-69 -188.5z" />
    <glyph glyph-name="sterling" unicode="&#xa3;" horiz-adv-x="1572" 
d="M840 604q0 -94 -66 -185t-192 -163h884v-256h-1329v258q182 43 283.5 136.5t101.5 189.5q0 48 -26 98h-377v145h268q-36 42 -59 72.5t-49 74.5t-39 91.5t-13 99.5q0 137 78.5 244t212 164t297.5 57q75 0 147.5 -11t154.5 -42t148.5 -79t122 -129.5t80.5 -186.5l-290 -111
q-85 289 -353 289q-115 0 -190.5 -53t-75.5 -148q0 -45 20.5 -92.5t44.5 -78.5t67 -82.5t63 -78.5h503v-145h-428q11 -46 11 -78z" />
    <glyph glyph-name="currency" unicode="&#xa4;" horiz-adv-x="1642" 
d="M1313 834q0 -126 -74 -230l299 -297l-184 -151l-303 303q-101 -43 -226 -43q-126 0 -227 43l-307 -303l-187 151l299 299q-73 98 -73 228q0 123 71 227l-297 295l187 153l301 -301q106 45 229 45q126 0 232 -45l301 301l184 -153l-297 -295q72 -106 72 -227zM823 633
q106 0 171 56t65 145q0 91 -65.5 146.5t-172.5 55.5q-106 0 -172.5 -56.5t-66.5 -145.5q0 -88 67.5 -144.5t173.5 -56.5z" />
    <glyph glyph-name="yen" unicode="&#xa5;" horiz-adv-x="1773" 
d="M1047 0h-320v231h-442v197h442v113h-442v194h374l-589 862h338q80 -115 243.5 -355.5t231.5 -338.5h6q23 34 176 260t301 434h338l-594 -862h381v-194h-444v-113h444v-197h-444v-231z" />
    <glyph glyph-name="brokenbar" unicode="&#xa6;" horiz-adv-x="677" 
d="M465 831h-254v807h254v-807zM465 -451h-254v801h254v-801z" />
    <glyph glyph-name="section" unicode="&#xa7;" horiz-adv-x="1339" 
d="M686 -301q-221 0 -383 87t-211 234l264 78q43 -90 135 -136t193 -46q80 0 144.5 31t64.5 84q0 28 -16.5 50t-53.5 40.5t-67.5 29.5t-87.5 29l-142 47q-52 16 -97.5 35t-96 48t-86 61t-59 76t-23.5 92q0 87 67 158.5t187 95.5v2q-119 45 -180.5 118.5t-61.5 167.5
q0 115 71.5 200t183.5 125t247 40q189 0 327 -79.5t185 -215.5l-275 -86q-64 164 -245 164q-90 0 -144.5 -35t-54.5 -84q0 -31 18.5 -56t62 -45t69.5 -29t83 -26l4.5 -1.5t4 -1t4.5 -1.5l133 -39q56 -16 97 -30t94.5 -41t87 -57t57.5 -77t24 -102q0 -98 -70 -170.5
t-186 -95.5v-4q110 -34 175 -109.5t65 -175.5q0 -155 -138 -252.5t-370 -97.5zM664 432l47 -12q37 2 73 10t70 24t55 43t21 62q0 15 -3 28t-11.5 23.5t-15.5 18.5t-23 16t-25 13t-30 11.5t-30.5 9t-34 9t-32.5 8.5l-74 19q-81 23 -147 -19.5t-66 -107.5q0 -20 9 -38.5
t20 -31t33.5 -25.5t37.5 -20.5t44.5 -17t41 -12.5t40.5 -11z" />
    <glyph glyph-name="copyright" unicode="&#xa9;" horiz-adv-x="2277" 
d="M1139 -35q-220 0 -408.5 65.5t-317.5 178.5t-201.5 265.5t-72.5 324.5q0 171 72.5 323.5t201.5 264.5t317.5 177.5t408.5 65.5t408.5 -65.5t317 -177.5t201 -264.5t72.5 -323.5q0 -172 -72.5 -324.5t-201 -265.5t-317 -178.5t-408.5 -65.5zM1139 119q184 0 340.5 53.5
t263 145t166 216t59.5 265.5q0 140 -59.5 264.5t-166 216.5t-263 145.5t-340.5 53.5t-340.5 -53.5t-262.5 -145.5t-165.5 -216.5t-59.5 -264.5q0 -141 59.5 -265.5t165.5 -216t262.5 -145t340.5 -53.5zM1157 346q-234 0 -383 127.5t-149 327.5q0 105 43 191t116 141
t166.5 84.5t198.5 29.5q169 0 295 -75t180 -207l-192 -70q-76 174 -283 174q-137 0 -224 -76.5t-87 -199.5q0 -70 29 -123.5t77 -83.5t103.5 -45t115.5 -15q110 0 189.5 51.5t117.5 145.5l191 -57q-58 -154 -189.5 -237t-314.5 -83z" />
    <glyph glyph-name="guillemotleft" unicode="&#xab;" horiz-adv-x="1546" 
d="M805 164h-318l-372 405v9l372 405h318l-377 -405v-9zM1403 164h-316l-376 405v9l376 405h316l-379 -405v-9z" />
    <glyph glyph-name="logicalnot" unicode="&#xac;" horiz-adv-x="1284" 
d="M1120 168h-250v362h-723v222h973v-584z" />
    <glyph glyph-name="registered" unicode="&#xae;" horiz-adv-x="1359" 
d="M680 723q-236 0 -390.5 129.5t-154.5 327.5q0 196 154.5 324t390.5 128q235 0 389 -128.5t154 -323.5q0 -198 -154 -327.5t-389 -129.5zM680 825q184 0 304 101t120 254q0 151 -120 251.5t-304 100.5q-186 0 -307 -100t-121 -252q0 -154 121 -254.5t307 -100.5zM600 938
h-117v492h230q33 0 65.5 -7t67.5 -23t56.5 -49.5t21.5 -80.5q0 -61 -36 -98t-93 -50l149 -184h-131l-141 174h-72v-174zM600 1337v-133h100q95 0 95 68q0 33 -27 49t-68 16h-100z" />
    <glyph glyph-name="degree" unicode="&#xb0;" horiz-adv-x="905" 
d="M451 1047q-153 0 -255 87.5t-102 215.5q0 126 102.5 212.5t254.5 86.5q153 0 255.5 -87t102.5 -212q0 -127 -102.5 -215t-255.5 -88zM451 1204q78 0 130 42t52 104q0 59 -52.5 100t-129.5 41q-75 0 -128 -41.5t-53 -99.5q0 -61 53 -103.5t128 -42.5z" />
    <glyph glyph-name="plusminus" unicode="&#xb1;" horiz-adv-x="1333" 
d="M1176 848v-215h-388v-197h388v-213h-1018v213h381v197h-381v215h381v229h249v-229h388z" />
    <glyph glyph-name="uni00B2" unicode="&#xb2;" horiz-adv-x="854" 
d="M766 733h-672v29q1 146 61.5 226t227.5 173q8 5 32.5 18t38.5 22t32 22.5t27 28t9 30.5q0 27 -26.5 43t-71.5 16q-64 0 -102 -34.5t-39 -96.5l-222 33q0 137 105.5 221t263.5 84q145 0 243.5 -72.5t98.5 -187.5q0 -73 -44 -129.5t-116 -89.5q-6 -3 -44 -19t-50.5 -22.5
t-38.5 -21.5t-41 -30t-24 -32h352v-211z" />
    <glyph glyph-name="uni00B3" unicode="&#xb3;" horiz-adv-x="860" 
d="M416 713q-136 0 -238.5 52.5t-130.5 131.5l211 102q49 -94 158 -94q50 0 82 18.5t32 55.5q0 24 -11 40t-32.5 23.5t-41.5 10t-48 2.5h-90v157h92q50 0 86.5 18.5t36.5 53.5q0 29 -31.5 49.5t-78.5 20.5q-50 0 -83.5 -26.5t-39.5 -70.5l-219 48q12 101 113 172t251 71
q137 0 232.5 -59t95.5 -156q0 -61 -38.5 -110.5t-100.5 -59.5v-2q67 -11 116 -61.5t49 -118.5q0 -47 -23.5 -93t-67.5 -86t-117.5 -64.5t-163.5 -24.5z" />
    <glyph glyph-name="paragraph" unicode="&#xb6;" horiz-adv-x="1892" 
d="M1130 -287h-315v942h-170q-254 0 -411.5 133.5t-157.5 346.5q0 201 162.5 331.5t453.5 130.5h438v-1884zM1647 -287h-316v1884h316v-1884z" />
    <glyph glyph-name="periodcentered" unicode="&#xb7;" horiz-adv-x="743" 
d="M373 477q-100 0 -172 67.5t-72 162.5q0 89 72 153t172 64q98 0 166.5 -63.5t68.5 -153.5q0 -95 -68.5 -162.5t-166.5 -67.5z" />
    <glyph glyph-name="uni00B9" unicode="&#xb9;" horiz-adv-x="618" 
d="M485 733h-237v459q-91 -60 -195 -82v246q90 26 143.5 75t53.5 101h235v-799z" />
    <glyph glyph-name="guillemotright" unicode="&#xbb;" horiz-adv-x="1546" 
d="M461 164h-318l377 405v9l-377 405h318l373 -405v-9zM1057 164h-316l379 405v9l-379 405h316l375 -405v-9z" />
    <glyph glyph-name="onequarter" unicode="&#xbc;" horiz-adv-x="1890" 
d="M485 733h-237v459q-91 -60 -195 -82v246q90 26 143.5 75t53.5 101h235v-799zM319 0h-280l1366 1468h272zM1714 -10h-231v139h-428v178l434 481h225v-469h111v-190h-111v-139zM1483 498l-199 -179h199v179z" />
    <glyph glyph-name="onehalf" unicode="&#xbd;" horiz-adv-x="1968" 
d="M485 733h-237v459q-91 -60 -195 -82v246q90 26 143.5 75t53.5 101h235v-799zM319 0h-280l1366 1468h272zM1880 -10h-672v28q1 146 61.5 226.5t227.5 173.5q8 5 32.5 18t38.5 22t32 22.5t27 28t9 30.5q0 27 -26.5 43t-71.5 16q-64 0 -102 -34.5t-39 -96.5l-221 33
q0 137 105 221t263 84q145 0 243.5 -72.5t98.5 -187.5q0 -73 -44 -129.5t-116 -89.5q-6 -3 -44 -19t-50.5 -22.5t-38.5 -21.5t-41 -30t-24 -32h352v-211z" />
    <glyph glyph-name="threequarters" unicode="&#xbe;" horiz-adv-x="2131" 
d="M416 713q-136 0 -238.5 52.5t-130.5 131.5l211 102q49 -94 158 -94q50 0 82 18.5t32 55.5q0 24 -11 40t-32.5 23.5t-41.5 10t-48 2.5h-90v157h92q50 0 86.5 18.5t36.5 53.5q0 29 -31.5 49.5t-78.5 20.5q-50 0 -83.5 -26.5t-39.5 -70.5l-219 48q12 101 113 172t251 71
q137 0 232.5 -59t95.5 -156q0 -61 -38.5 -110.5t-100.5 -59.5v-2q67 -11 116 -61.5t49 -118.5q0 -47 -23.5 -93t-67.5 -86t-117.5 -64.5t-163.5 -24.5zM561 0h-280l1366 1468h272zM1956 -10h-232v139h-428v178l435 481h225v-469h110v-190h-110v-139zM1724 498l-198 -179h198
v179z" />
    <glyph glyph-name="questiondown" unicode="&#xbf;" horiz-adv-x="1423" 
d="M768 809q-81 0 -140 53.5t-59 130.5q0 74 57 128.5t138 54.5q83 0 142 -55t59 -132q0 -74 -58 -127t-139 -53zM705 -469q-166 0 -306.5 53.5t-228.5 159t-88 242.5q0 60 18.5 113.5t46 92.5t71.5 77.5t82.5 63.5t92.5 56q48 27 71.5 41t58 36.5t49 38t32 39t21 46t2 52
t-12.5 63.5h326q12 -58 13 -105.5t-12 -88t-35 -73t-60 -64t-82.5 -59t-108.5 -59.5q-57 -29 -89 -48t-71 -50t-57 -66t-18 -78q0 -89 87.5 -145.5t217.5 -56.5q160 0 256 85.5t84 233.5l287 -49q8 -167 -77 -294t-233.5 -192t-336.5 -65z" />
    <glyph glyph-name="Agrave" unicode="&#xc0;" horiz-adv-x="1871" 
d="M1102 1720h-273l-395 361h381zM342 0h-330l740 1597h368l740 -1597h-338l-205 418h-770q-37 -76 -106.5 -218t-98.5 -200zM686 713h492q-156 324 -242 518h-6q-118 -260 -244 -518z" />
    <glyph glyph-name="Aacute" unicode="&#xc1;" horiz-adv-x="1871" 
d="M1462 2081l-395 -361h-272l286 361h381zM342 0h-330l740 1597h368l740 -1597h-338l-205 418h-770q-37 -76 -106.5 -218t-98.5 -200zM686 713h492q-156 324 -242 518h-6q-118 -260 -244 -518z" />
    <glyph glyph-name="Acircumflex" unicode="&#xc2;" horiz-adv-x="1871" 
d="M1085 2077l342 -357h-278q-183 140 -215 166q-32 -27 -66.5 -54t-81.5 -62t-67 -50h-279l342 357h303zM342 0h-330l740 1597h368l740 -1597h-338l-205 418h-770q-37 -76 -106.5 -218t-98.5 -200zM686 713h492q-156 324 -242 518h-6q-118 -260 -244 -518z" />
    <glyph glyph-name="Atilde" unicode="&#xc3;" horiz-adv-x="1871" 
d="M1120 1729q-103 0 -178 47l-63 36q-55 35 -103 35q-46 0 -72 -28.5t-26 -71.5h-215q0 144 84.5 230.5t214.5 86.5q92 0 182 -49l60 -35q43 -26 94 -26q39 0 60.5 26t21.5 70h217q0 -155 -72.5 -238t-204.5 -83zM342 0h-330l740 1597h368l740 -1597h-338l-205 418h-770
q-37 -76 -106.5 -218t-98.5 -200zM686 713h492q-156 324 -242 518h-6q-118 -260 -244 -518z" />
    <glyph glyph-name="Adieresis" unicode="&#xc4;" horiz-adv-x="1871" 
d="M664 1731q-80 0 -135.5 51t-55.5 127q0 69 56 118.5t135 49.5q76 0 131 -49.5t55 -118.5q0 -76 -54.5 -127t-131.5 -51zM1202 1731q-80 0 -135 51t-55 127q0 69 55.5 118.5t134.5 49.5q76 0 130 -49.5t54 -118.5q0 -76 -53.5 -127t-130.5 -51zM342 0h-330l740 1597h368
l740 -1597h-338l-205 418h-770q-37 -76 -106.5 -218t-98.5 -200zM686 713h492q-156 324 -242 518h-6q-118 -260 -244 -518z" />
    <glyph glyph-name="Aring" unicode="&#xc5;" horiz-adv-x="1871" 
d="M932 1710q-129 0 -217 72.5t-88 177.5q0 106 88 177t217 71q126 0 212.5 -71.5t86.5 -176.5q0 -108 -86 -179t-213 -71zM932 1868q49 0 83 27t34 65q0 36 -34 62t-83 26q-53 0 -87 -26t-34 -62q0 -39 34 -65.5t87 -26.5zM342 0h-330l740 1597h368l740 -1597h-338
l-205 418h-770q-37 -76 -106.5 -218t-98.5 -200zM686 713h492q-156 324 -242 518h-6q-118 -260 -244 -518z" />
    <glyph glyph-name="AE" unicode="&#xc6;" horiz-adv-x="2596" 
d="M287 0h-355l1092 1597h1430v-280h-922v-359h872v-294h-872v-381h946v-283h-1266v406h-618q-13 -17 -307 -406zM768 702h444v615h-4z" />
    <glyph glyph-name="Ccedilla" unicode="&#xc7;" horiz-adv-x="2048" 
d="M1720 637l295 -96q-103 -278 -326.5 -421t-539.5 -155l-66 -71q28 8 66 8q105 0 174.5 -54.5t69.5 -144.5q0 -101 -90.5 -162t-233.5 -61q-105 0 -193.5 34.5t-142.5 94.5l101 112q84 -96 227 -96q59 0 96 21.5t37 58.5q0 36 -36 57t-91 21q-62 0 -109 -29l-98 68
l117 147q-255 21 -452 129.5t-308 291t-111 413.5q0 156 52 290.5t143 232t213.5 167t265.5 103.5t297 34q299 0 536 -136.5t335 -365.5l-293 -112q-80 148 -230.5 237.5t-351.5 89.5q-177 0 -320.5 -67t-228 -194.5t-84.5 -293.5q0 -113 39 -205.5t103.5 -152.5
t151.5 -101.5t179 -59t189 -17.5q229 0 388.5 99t229.5 286z" />
    <glyph glyph-name="Egrave" unicode="&#xc8;" horiz-adv-x="1599" 
d="M997 1720h-272l-395 361h381zM1481 0h-1266v1597h1241v-280h-921v-359h872v-294h-872v-381h946v-283z" />
    <glyph glyph-name="Eacute" unicode="&#xc9;" horiz-adv-x="1599" 
d="M1358 2081l-395 -361h-273l287 361h381zM1481 0h-1266v1597h1241v-280h-921v-359h872v-294h-872v-381h946v-283z" />
    <glyph glyph-name="Ecircumflex" unicode="&#xca;" horiz-adv-x="1599" 
d="M981 2077l342 -357h-279q-183 140 -215 166q-32 -27 -66.5 -54t-81.5 -62t-67 -50h-278l342 357h303zM1481 0h-1266v1597h1241v-280h-921v-359h872v-294h-872v-381h946v-283z" />
    <glyph glyph-name="Edieresis" unicode="&#xcb;" horiz-adv-x="1599" 
d="M559 1731q-80 0 -135 51t-55 127q0 69 55.5 118.5t134.5 49.5q76 0 131 -49.5t55 -118.5q0 -76 -54.5 -127t-131.5 -51zM1098 1731q-80 0 -135.5 51t-55.5 127q0 69 56 118.5t135 49.5q76 0 130 -49.5t54 -118.5q0 -76 -53.5 -127t-130.5 -51zM1481 0h-1266v1597h1241
v-280h-921v-359h872v-294h-872v-381h946v-283z" />
    <glyph glyph-name="Igrave" unicode="&#xcc;" horiz-adv-x="749" 
d="M543 1720h-273l-395 361h381zM535 0h-320v1597h320v-1597z" />
    <glyph glyph-name="Iacute" unicode="&#xcd;" horiz-adv-x="749" 
d="M901 2081l-395 -361h-273l287 361h381zM535 0h-320v1597h320v-1597z" />
    <glyph glyph-name="Icircumflex" unicode="&#xce;" horiz-adv-x="749" 
d="M524 2077l342 -357h-278q-183 140 -215 166q-32 -27 -66.5 -54t-81.5 -62t-67 -50h-279l342 357h303zM535 0h-320v1597h320v-1597z" />
    <glyph glyph-name="Idieresis" unicode="&#xcf;" horiz-adv-x="749" 
d="M104 1731q-80 0 -135 51t-55 127q0 69 55.5 118.5t134.5 49.5q77 0 132 -49.5t55 -118.5q0 -76 -55 -127t-132 -51zM643 1731q-80 0 -135 51t-55 127q0 69 55.5 118.5t134.5 49.5q76 0 130 -49.5t54 -118.5q0 -76 -53.5 -127t-130.5 -51zM535 0h-320v1597h320v-1597z" />
    <glyph glyph-name="Eth" unicode="&#xd0;" horiz-adv-x="1957" 
d="M215 1597h725q187 0 339.5 -40.5t257 -112t176 -171.5t104 -216t32.5 -248q0 -178 -60.5 -327t-173 -256t-280 -166.5t-372.5 -59.5h-748v676h-238v244h238v677zM932 281q98 0 181 15t159 52t129 94t84 146.5t31 204.5q0 96 -20.5 173.5t-55 131.5t-86 94t-106 63.5
t-123.5 37.5t-130.5 19t-134.5 5h-325v-397h464v-244h-464v-395h397z" />
    <glyph glyph-name="Ntilde" unicode="&#xd1;" horiz-adv-x="2009" 
d="M1176 1737q-104 0 -179 47l-63 37q-53 34 -103 34q-46 0 -72 -28.5t-26 -71.5h-215q0 144 84.5 231t214.5 87q90 0 182 -50l60 -34q44 -27 94 -27q39 0 60.5 26t21.5 70h217q0 -155 -72 -238t-204 -83zM535 0h-320v1597h334q79 -91 279.5 -318.5t352.5 -403t289 -340.5h7
v1062h315v-1597h-332q-40 46 -388.5 435.5t-530.5 604.5h-6v-1040z" />
    <glyph glyph-name="Ograve" unicode="&#xd2;" horiz-adv-x="2144" 
d="M1239 1720h-272l-396 361h381zM1073 -35q-197 0 -374.5 61.5t-309 169.5t-208.5 264.5t-77 336.5q0 145 49 275t138.5 231t209 175t266.5 113t306 39q200 0 378 -62.5t308 -171.5t205.5 -265t75.5 -334t-75.5 -333.5t-205.5 -264.5t-308 -171.5t-378 -62.5zM1075 252
q173 0 317 70.5t228 195.5t84 279q0 151 -82.5 276.5t-227 197.5t-319.5 72t-320.5 -69.5t-231 -195.5t-85.5 -281q0 -118 51 -220.5t137 -173t203 -111t246 -40.5z" />
    <glyph glyph-name="Oacute" unicode="&#xd3;" horiz-adv-x="2144" 
d="M1597 2081l-395 -361h-272l287 361h380zM1073 -35q-197 0 -374.5 61.5t-309 169.5t-208.5 264.5t-77 336.5q0 145 49 275t138.5 231t209 175t266.5 113t306 39q200 0 378 -62.5t308 -171.5t205.5 -265t75.5 -334t-75.5 -333.5t-205.5 -264.5t-308 -171.5t-378 -62.5z
M1075 252q173 0 317 70.5t228 195.5t84 279q0 151 -82.5 276.5t-227 197.5t-319.5 72t-320.5 -69.5t-231 -195.5t-85.5 -281q0 -118 51 -220.5t137 -173t203 -111t246 -40.5z" />
    <glyph glyph-name="Ocircumflex" unicode="&#xd4;" horiz-adv-x="2144" 
d="M1223 2077l342 -357h-279q-183 140 -215 166q-32 -27 -66.5 -54t-81.5 -62t-67 -50h-278l342 357h303zM1073 -35q-197 0 -374.5 61.5t-309 169.5t-208.5 264.5t-77 336.5q0 145 49 275t138.5 231t209 175t266.5 113t306 39q200 0 378 -62.5t308 -171.5t205.5 -265
t75.5 -334t-75.5 -333.5t-205.5 -264.5t-308 -171.5t-378 -62.5zM1075 252q173 0 317 70.5t228 195.5t84 279q0 151 -82.5 276.5t-227 197.5t-319.5 72t-320.5 -69.5t-231 -195.5t-85.5 -281q0 -118 51 -220.5t137 -173t203 -111t246 -40.5z" />
    <glyph glyph-name="Otilde" unicode="&#xd5;" horiz-adv-x="2144" 
d="M1262 1737q-104 0 -179 47l-63 37q-53 34 -102 34q-46 0 -72.5 -28.5t-26.5 -71.5h-215q0 144 84.5 231t214.5 87q90 0 182 -50l60 -34q44 -27 94 -27q39 0 60.5 26t21.5 70h217q0 -155 -72 -238t-204 -83zM1073 -35q-197 0 -374.5 61.5t-309 169.5t-208.5 264.5
t-77 336.5q0 145 49 275t138.5 231t209 175t266.5 113t306 39q200 0 378 -62.5t308 -171.5t205.5 -265t75.5 -334t-75.5 -333.5t-205.5 -264.5t-308 -171.5t-378 -62.5zM1075 252q173 0 317 70.5t228 195.5t84 279q0 151 -82.5 276.5t-227 197.5t-319.5 72t-320.5 -69.5
t-231 -195.5t-85.5 -281q0 -118 51 -220.5t137 -173t203 -111t246 -40.5z" />
    <glyph glyph-name="Odieresis" unicode="&#xd6;" horiz-adv-x="2144" 
d="M801 1731q-80 0 -135.5 51t-55.5 127q0 69 56 118.5t135 49.5q76 0 131 -49.5t55 -118.5q0 -76 -54.5 -127t-131.5 -51zM1339 1731q-80 0 -135 51t-55 127q0 69 55.5 118.5t134.5 49.5q76 0 130.5 -49.5t54.5 -118.5q0 -76 -54 -127t-131 -51zM1073 -35
q-197 0 -374.5 61.5t-309 169.5t-208.5 264.5t-77 336.5q0 145 49 275t138.5 231t209 175t266.5 113t306 39q200 0 378 -62.5t308 -171.5t205.5 -265t75.5 -334t-75.5 -333.5t-205.5 -264.5t-308 -171.5t-378 -62.5zM1075 252q173 0 317 70.5t228 195.5t84 279
q0 151 -82.5 276.5t-227 197.5t-319.5 72t-320.5 -69.5t-231 -195.5t-85.5 -281q0 -118 51 -220.5t137 -173t203 -111t246 -40.5z" />
    <glyph glyph-name="multiply" unicode="&#xd7;" horiz-adv-x="1198" 
d="M438 623l-305 260l166 157l305 -260l295 254l166 -157l-295 -254l297 -254l-168 -156l-295 256l-301 -260l-166 156z" />
    <glyph glyph-name="Oslash" unicode="&#xd8;" horiz-adv-x="2144" 
d="M1927 1661l-198 -242q147 -112 229 -272.5t82 -349.5q0 -178 -75.5 -333.5t-205.5 -264.5t-308 -171.5t-378 -62.5q-249 0 -463 94l-102 -125h-303l203 248q-143 113 -223.5 271t-80.5 344q0 145 49 275t138.5 231t209 175t266.5 113t306 39q238 0 451 -90l98 121h305z
M438 797q0 -222 166 -375l721 878q-113 43 -250 43q-175 0 -320.5 -69.5t-231 -195.5t-85.5 -281zM1075 252q173 0 317 70.5t228 195.5t84 279q0 111 -45.5 209.5t-128.5 173.5l-723 -881q124 -47 268 -47z" />
    <glyph glyph-name="Ugrave" unicode="&#xd9;" horiz-adv-x="1835" 
d="M1090 1720h-273l-395 361h381zM915 -35q-168 0 -298 43t-207.5 109t-127 157t-67.5 176.5t-18 176.5v970h317v-946q0 -183 99 -291t305 -108q105 0 183.5 29.5t126 83.5t70.5 125.5t23 160.5v946h319v-970q0 -62 -8 -121.5t-30 -126.5t-56.5 -125t-91.5 -112.5
t-130.5 -92.5t-178.5 -61t-230 -23z" />
    <glyph glyph-name="Uacute" unicode="&#xda;" horiz-adv-x="1835" 
d="M1409 2081l-397 -361h-273l287 361h383zM915 -35q-168 0 -298 43t-207.5 109t-127 157t-67.5 176.5t-18 176.5v970h317v-946q0 -183 99 -291t305 -108q105 0 183.5 29.5t126 83.5t70.5 125.5t23 160.5v946h319v-970q0 -62 -8 -121.5t-30 -126.5t-56.5 -125t-91.5 -112.5
t-130.5 -92.5t-178.5 -61t-230 -23z" />
    <glyph glyph-name="Ucircumflex" unicode="&#xdb;" horiz-adv-x="1835" 
d="M1071 2077l342 -357h-278q-183 140 -215 166q-32 -27 -66.5 -54t-81.5 -62t-67 -50h-279l342 357h303zM915 -35q-168 0 -298 43t-207.5 109t-127 157t-67.5 176.5t-18 176.5v970h317v-946q0 -183 99 -291t305 -108q105 0 183.5 29.5t126 83.5t70.5 125.5t23 160.5v946
h319v-970q0 -62 -8 -121.5t-30 -126.5t-56.5 -125t-91.5 -112.5t-130.5 -92.5t-178.5 -61t-230 -23z" />
    <glyph glyph-name="Udieresis" unicode="&#xdc;" horiz-adv-x="1835" 
d="M651 1731q-80 0 -135 51t-55 127q0 69 55.5 118.5t134.5 49.5q77 0 132 -49.5t55 -118.5q0 -76 -55 -127t-132 -51zM1190 1731q-80 0 -135.5 51t-55.5 127q0 69 56 118.5t135 49.5q76 0 130 -49.5t54 -118.5q0 -76 -53.5 -127t-130.5 -51zM915 -35q-168 0 -298 43
t-207.5 109t-127 157t-67.5 176.5t-18 176.5v970h317v-946q0 -183 99 -291t305 -108q105 0 183.5 29.5t126 83.5t70.5 125.5t23 160.5v946h319v-970q0 -62 -8 -121.5t-30 -126.5t-56.5 -125t-91.5 -112.5t-130.5 -92.5t-178.5 -61t-230 -23z" />
    <glyph glyph-name="Yacute" unicode="&#xdd;" horiz-adv-x="1716" 
d="M1276 2081l-395 -361h-273l287 361h381zM1016 0h-316v549q-89 135 -248.5 381t-283.5 437.5t-150 229.5h340q84 -125 249 -373.5t249 -373.5h4q46 70 133.5 202.5t168.5 254.5t196 290h340q-79 -121 -215 -330.5t-251 -385.5t-216 -330v-551z" />
    <glyph glyph-name="Thorn" unicode="&#xde;" horiz-adv-x="1689" 
d="M535 0h-320v1597h320v-270h403q51 0 100.5 -3.5t118 -16.5t126 -34t117 -60t101 -90.5t68 -129.5t26.5 -174q0 -97 -26.5 -177t-69 -133.5t-101.5 -94t-117 -63t-123.5 -36.5t-112.5 -18t-91 -4h-419v-293zM535 1044v-456h350q377 0 377 231q0 225 -377 225h-350z" />
    <glyph glyph-name="germandbls" unicode="&#xdf;" horiz-adv-x="1607" 
d="M481 0h-299v1020q0 65 7 125t26.5 127t49.5 123.5t80 109t114.5 89t156 58t201.5 21.5q144 0 264 -38t199 -103.5t122.5 -153t43.5 -186.5q0 -142 -88.5 -242t-229.5 -125v-6q169 -16 281.5 -120t112.5 -263q0 -67 -23 -128.5t-75.5 -118t-129 -98t-192.5 -66.5t-258 -25
h-178v260h219q147 0 233 57t86 144q0 86 -84 140t-215 54h-131v260h88q118 0 196.5 64.5t78.5 175.5q0 113 -85.5 182.5t-238.5 69.5q-64 0 -116 -16t-86 -40t-59 -58.5t-38.5 -66t-21 -67.5t-9.5 -58t-2 -42v-1059z" />
    <glyph glyph-name="agrave" unicode="&#xe0;" horiz-adv-x="1431" 
d="M866 1278h-262l-373 379h361zM549 -35q-124 0 -225.5 35.5t-167.5 113.5t-66 187q0 65 25 117t64.5 87t101 62t122.5 43.5t140 30.5q31 5 71.5 11.5t69.5 11t63.5 11t59 12t50.5 13.5t42.5 17t31 20.5t21 26.5t6.5 33q0 61 -68.5 103t-178.5 42q-108 0 -185.5 -44.5
t-109.5 -137.5l-283 90q30 87 90.5 151.5t140 102t167.5 55t186 17.5q249 0 397 -107t148 -299v-414q0 -128 10 -203.5t33 -152.5h-297q-29 62 -29 150h-6q-56 -85 -169 -135t-255 -50zM625 186q148 0 242 75t94 169v96q-115 -40 -285 -69q-51 -10 -87 -19.5t-80.5 -27
t-68.5 -44t-24 -61.5q0 -57 57.5 -88t151.5 -31z" />
    <glyph glyph-name="aacute" unicode="&#xe1;" horiz-adv-x="1431" 
d="M1210 1657l-372 -379h-260l272 379h360zM549 -35q-124 0 -225.5 35.5t-167.5 113.5t-66 187q0 65 25 117t64.5 87t101 62t122.5 43.5t140 30.5q31 5 71.5 11.5t69.5 11t63.5 11t59 12t50.5 13.5t42.5 17t31 20.5t21 26.5t6.5 33q0 61 -68.5 103t-178.5 42
q-108 0 -185.5 -44.5t-109.5 -137.5l-283 90q30 87 90.5 151.5t140 102t167.5 55t186 17.5q249 0 397 -107t148 -299v-414q0 -128 10 -203.5t33 -152.5h-297q-29 62 -29 150h-6q-56 -85 -169 -135t-255 -50zM625 186q148 0 242 75t94 169v96q-115 -40 -285 -69
q-51 -10 -87 -19.5t-80.5 -27t-68.5 -44t-24 -61.5q0 -57 57.5 -88t151.5 -31z" />
    <glyph glyph-name="acircumflex" unicode="&#xe2;" horiz-adv-x="1431" 
d="M496 1278h-283l354 371h318l356 -371h-283q-171 145 -231 197q-43 -36 -123 -105t-108 -92zM549 -35q-124 0 -225.5 35.5t-167.5 113.5t-66 187q0 65 25 117t64.5 87t101 62t122.5 43.5t140 30.5q31 5 71.5 11.5t69.5 11t63.5 11t59 12t50.5 13.5t42.5 17t31 20.5
t21 26.5t6.5 33q0 61 -68.5 103t-178.5 42q-108 0 -185.5 -44.5t-109.5 -137.5l-283 90q30 87 90.5 151.5t140 102t167.5 55t186 17.5q249 0 397 -107t148 -299v-414q0 -128 10 -203.5t33 -152.5h-297q-29 62 -29 150h-6q-56 -85 -169 -135t-255 -50zM625 186q148 0 242 75
t94 169v96q-115 -40 -285 -69q-51 -10 -87 -19.5t-80.5 -27t-68.5 -44t-24 -61.5q0 -57 57.5 -88t151.5 -31z" />
    <glyph glyph-name="atilde" unicode="&#xe3;" horiz-adv-x="1431" 
d="M922 1280q-104 0 -179 47l-63 37q-55 35 -102 35q-46 0 -72.5 -29t-26.5 -72h-215q0 144 84.5 231t214.5 87q92 0 182 -49l60 -35q44 -27 94 -27q39 0 60.5 26.5t21.5 70.5h217q0 -155 -72 -238.5t-204 -83.5zM549 -35q-124 0 -225.5 35.5t-167.5 113.5t-66 187
q0 65 25 117t64.5 87t101 62t122.5 43.5t140 30.5q31 5 71.5 11.5t69.5 11t63.5 11t59 12t50.5 13.5t42.5 17t31 20.5t21 26.5t6.5 33q0 61 -68.5 103t-178.5 42q-108 0 -185.5 -44.5t-109.5 -137.5l-283 90q30 87 90.5 151.5t140 102t167.5 55t186 17.5q249 0 397 -107
t148 -299v-414q0 -128 10 -203.5t33 -152.5h-297q-29 62 -29 150h-6q-56 -85 -169 -135t-255 -50zM625 186q148 0 242 75t94 169v96q-115 -40 -285 -69q-51 -10 -87 -19.5t-80.5 -27t-68.5 -44t-24 -61.5q0 -57 57.5 -88t151.5 -31z" />
    <glyph glyph-name="adieresis" unicode="&#xe4;" horiz-adv-x="1431" 
d="M465 1300q-75 0 -126.5 48.5t-51.5 117.5q0 65 52 111.5t126 46.5q73 0 124.5 -46.5t51.5 -111.5q0 -69 -51.5 -117.5t-124.5 -48.5zM991 1300q-76 0 -127 48t-51 118q0 65 51 111.5t127 46.5q72 0 124 -46.5t52 -111.5q0 -69 -52 -117.5t-124 -48.5zM549 -35
q-124 0 -225.5 35.5t-167.5 113.5t-66 187q0 65 25 117t64.5 87t101 62t122.5 43.5t140 30.5q31 5 71.5 11.5t69.5 11t63.5 11t59 12t50.5 13.5t42.5 17t31 20.5t21 26.5t6.5 33q0 61 -68.5 103t-178.5 42q-108 0 -185.5 -44.5t-109.5 -137.5l-283 90q30 87 90.5 151.5
t140 102t167.5 55t186 17.5q249 0 397 -107t148 -299v-414q0 -128 10 -203.5t33 -152.5h-297q-29 62 -29 150h-6q-56 -85 -169 -135t-255 -50zM625 186q148 0 242 75t94 169v96q-115 -40 -285 -69q-51 -10 -87 -19.5t-80.5 -27t-68.5 -44t-24 -61.5q0 -57 57.5 -88
t151.5 -31z" />
    <glyph glyph-name="aring" unicode="&#xe5;" horiz-adv-x="1431" 
d="M727 1255q-128 0 -215.5 72.5t-87.5 177.5q0 106 87 177t216 71q127 0 214 -71.5t87 -176.5q0 -108 -87 -179t-214 -71zM727 1413q49 0 83 27t34 65q0 36 -34 62t-83 26q-52 0 -86.5 -26t-34.5 -62q0 -39 34.5 -65.5t86.5 -26.5zM549 -35q-124 0 -225.5 35.5
t-167.5 113.5t-66 187q0 65 25 117t64.5 87t101 62t122.5 43.5t140 30.5q31 5 71.5 11.5t69.5 11t63.5 11t59 12t50.5 13.5t42.5 17t31 20.5t21 26.5t6.5 33q0 61 -68.5 103t-178.5 42q-108 0 -185.5 -44.5t-109.5 -137.5l-283 90q30 87 90.5 151.5t140 102t167.5 55
t186 17.5q249 0 397 -107t148 -299v-414q0 -128 10 -203.5t33 -152.5h-297q-29 62 -29 150h-6q-56 -85 -169 -135t-255 -50zM625 186q148 0 242 75t94 169v96q-115 -40 -285 -69q-51 -10 -87 -19.5t-80.5 -27t-68.5 -44t-24 -61.5q0 -57 57.5 -88t151.5 -31z" />
    <glyph glyph-name="ae" unicode="&#xe6;" horiz-adv-x="2406" 
d="M551 -35q-128 0 -230.5 36t-166.5 113t-64 185q0 50 14.5 92.5t38 73.5t60 57.5t73 44t85.5 32.5t89 24t91 18q38 7 95 16t90 14t75.5 14t66.5 18t47 22.5t33 31t10 40.5q0 59 -69 102t-178 43q-105 0 -183.5 -46.5t-111.5 -135.5l-283 90q31 84 91.5 148t140 102
t169.5 57t189 19q146 0 266.5 -38.5t181.5 -111.5q184 150 482 150q100 0 193.5 -22.5t178 -71.5t147 -119t99.5 -172t37 -224v-75h-1042q17 -122 129.5 -194.5t269.5 -72.5q126 0 224 47t143 134l280 -109q-72 -146 -244 -239t-401 -93q-188 0 -342 60t-240 172h-4
q-189 -232 -530 -232zM1274 698h723q-12 63 -47.5 109t-86 71.5t-105.5 37.5t-116 12q-138 0 -237 -61t-131 -169zM621 186q150 0 245 77t95 167v92q-119 -38 -261 -57q-55 -8 -102.5 -20.5t-90 -31t-67 -45.5t-24.5 -59q0 -61 57 -92t148 -31z" />
    <glyph glyph-name="ccedilla" unicode="&#xe7;" horiz-adv-x="1499" 
d="M1174 444l280 -108q-72 -165 -235.5 -263.5t-380.5 -107.5l-66 -71q28 8 66 8q105 0 174 -54.5t69 -144.5q0 -101 -90 -162t-233 -61q-105 0 -193.5 34.5t-142.5 94.5l100 112q84 -96 228 -96q59 0 96 21.5t37 58.5q0 36 -36 57t-91 21q-62 0 -109 -29l-98 68l121 151
q-259 33 -418.5 192.5t-159.5 403.5q0 182 90.5 321t248 212.5t355.5 73.5q214 0 384.5 -94.5t242.5 -262.5l-280 -108q-41 96 -134 143t-215 47q-169 0 -275 -94t-106 -236q0 -150 113 -240.5t283 -90.5q131 0 228 52t147 152z" />
    <glyph glyph-name="egrave" unicode="&#xe8;" horiz-adv-x="1466" 
d="M879 1278h-263l-372 379h360zM764 -35q-143 0 -268 43.5t-215.5 120.5t-142.5 190t-52 246q0 174 84 313.5t234 218.5t339 79q95 0 185 -22.5t171 -71.5t141.5 -119t96 -172t35.5 -224v-88h-987q18 -121 122 -188.5t255 -67.5q117 0 206.5 47.5t133.5 135.5l278 -109
q-71 -146 -234.5 -239t-381.5 -93zM399 694h672q-14 118 -107 177t-223 59q-135 0 -225 -65.5t-117 -170.5z" />
    <glyph glyph-name="eacute" unicode="&#xe9;" horiz-adv-x="1466" 
d="M1223 1657l-373 -379h-260l272 379h361zM764 -35q-143 0 -268 43.5t-215.5 120.5t-142.5 190t-52 246q0 174 84 313.5t234 218.5t339 79q95 0 185 -22.5t171 -71.5t141.5 -119t96 -172t35.5 -224v-88h-987q18 -121 122 -188.5t255 -67.5q117 0 206.5 47.5t133.5 135.5
l278 -109q-71 -146 -234.5 -239t-381.5 -93zM399 694h672q-14 118 -107 177t-223 59q-135 0 -225 -65.5t-117 -170.5z" />
    <glyph glyph-name="ecircumflex" unicode="&#xea;" horiz-adv-x="1466" 
d="M508 1278h-283l355 371h317l356 -371h-282q-205 173 -232 197q-43 -36 -123 -105t-108 -92zM764 -35q-143 0 -268 43.5t-215.5 120.5t-142.5 190t-52 246q0 174 84 313.5t234 218.5t339 79q95 0 185 -22.5t171 -71.5t141.5 -119t96 -172t35.5 -224v-88h-987
q18 -121 122 -188.5t255 -67.5q117 0 206.5 47.5t133.5 135.5l278 -109q-71 -146 -234.5 -239t-381.5 -93zM399 694h672q-14 118 -107 177t-223 59q-135 0 -225 -65.5t-117 -170.5z" />
    <glyph glyph-name="edieresis" unicode="&#xeb;" horiz-adv-x="1466" 
d="M477 1300q-75 0 -126.5 48.5t-51.5 117.5q0 65 52 111.5t126 46.5q73 0 124.5 -46.5t51.5 -111.5q0 -69 -51.5 -117.5t-124.5 -48.5zM1004 1300q-76 0 -127.5 48.5t-51.5 117.5q0 65 51.5 111.5t127.5 46.5q72 0 124 -46.5t52 -111.5q0 -69 -52 -117.5t-124 -48.5z
M764 -35q-143 0 -268 43.5t-215.5 120.5t-142.5 190t-52 246q0 174 84 313.5t234 218.5t339 79q95 0 185 -22.5t171 -71.5t141.5 -119t96 -172t35.5 -224v-88h-987q18 -121 122 -188.5t255 -67.5q117 0 206.5 47.5t133.5 135.5l278 -109q-71 -146 -234.5 -239t-381.5 -93z
M399 694h672q-14 118 -107 177t-223 59q-135 0 -225 -65.5t-117 -170.5z" />
    <glyph glyph-name="igrave" unicode="&#xec;" horiz-adv-x="661" 
d="M471 1262h-262l-373 378h361zM481 0h-299v1143h299v-1143z" />
    <glyph glyph-name="iacute" unicode="&#xed;" horiz-adv-x="661" 
d="M815 1640l-373 -378h-260l273 378h360zM481 0h-299v1143h299v-1143z" />
    <glyph glyph-name="icircumflex" unicode="&#xee;" horiz-adv-x="661" 
d="M100 1262h-282l354 370h317l357 -370h-283q-210 178 -231 196q-18 -15 -232 -196zM481 0h-299v1143h299v-1143z" />
    <glyph glyph-name="idieresis" unicode="&#xef;" horiz-adv-x="661" 
d="M70 1284q-75 0 -127 48.5t-52 117.5q0 65 52 111.5t127 46.5q73 0 124.5 -46.5t51.5 -111.5q0 -69 -51.5 -117.5t-124.5 -48.5zM596 1284q-76 0 -127 48t-51 118q0 65 51 111.5t127 46.5q72 0 124 -46.5t52 -111.5q0 -69 -52 -117.5t-124 -48.5zM481 0h-299v1143h299
v-1143z" />
    <glyph glyph-name="eth" unicode="&#xf0;" horiz-adv-x="1611" 
d="M1272 1518l-166 -80q399 -290 399 -746q0 -216 -86 -380t-250 -255.5t-385 -91.5q-206 0 -366 76t-245 205.5t-85 288.5q0 161 89 285.5t238 189.5t330 65q131 0 231 -35.5t189 -117.5h4q-74 218 -333 385l-320 -154l-84 135l232 113q-133 62 -314 112l80 224
q290 -77 518 -199l232 113zM780 229q165 0 273 83t108 212q0 132 -108.5 215.5t-272.5 83.5q-165 0 -273 -85t-108 -214q0 -127 106.5 -211t274.5 -84z" />
    <glyph glyph-name="ntilde" unicode="&#xf1;" horiz-adv-x="1568" 
d="M971 1280q-103 0 -178 47l-64 37q-55 35 -102 35q-46 0 -72.5 -29t-26.5 -72h-215q0 144 84.5 231t214.5 87q93 0 183 -49l59 -35q44 -27 94 -27q39 0 60.5 26.5t21.5 70.5h217q0 -155 -72 -238.5t-204 -83.5zM481 0h-299v1143h295v-168h4q74 100 189.5 150.5t249.5 50.5
q96 0 181.5 -28t153.5 -82t108 -143t40 -202v-721h-299v594q0 47 -10 90.5t-32 83.5t-54.5 69t-81.5 46.5t-109 17.5q-151 0 -243.5 -77.5t-92.5 -233.5v-590z" />
    <glyph glyph-name="ograve" unicode="&#xf2;" horiz-adv-x="1583" 
d="M934 1278h-262l-373 379h360zM793 -35q-204 0 -363.5 76.5t-248.5 214t-89 313.5q0 175 88.5 313.5t249 216t363.5 77.5t363 -77.5t248.5 -216t88.5 -313.5q0 -176 -88.5 -313.5t-248 -214t-363.5 -76.5zM793 240q171 0 279 92t108 237q0 148 -107.5 240t-279.5 92
q-171 0 -280.5 -93t-109.5 -239q0 -144 109.5 -236.5t280.5 -92.5z" />
    <glyph glyph-name="oacute" unicode="&#xf3;" horiz-adv-x="1583" 
d="M1276 1657l-373 -379h-260l272 379h361zM793 -35q-204 0 -363.5 76.5t-248.5 214t-89 313.5q0 175 88.5 313.5t249 216t363.5 77.5t363 -77.5t248.5 -216t88.5 -313.5q0 -176 -88.5 -313.5t-248 -214t-363.5 -76.5zM793 240q171 0 279 92t108 237q0 148 -107.5 240
t-279.5 92q-171 0 -280.5 -93t-109.5 -239q0 -144 109.5 -236.5t280.5 -92.5z" />
    <glyph glyph-name="ocircumflex" unicode="&#xf4;" horiz-adv-x="1583" 
d="M561 1278h-282l354 371h317l357 -371h-283q-171 145 -231 197q-44 -37 -128 -108.5t-104 -88.5zM793 -35q-204 0 -363.5 76.5t-248.5 214t-89 313.5q0 175 88.5 313.5t249 216t363.5 77.5t363 -77.5t248.5 -216t88.5 -313.5q0 -176 -88.5 -313.5t-248 -214t-363.5 -76.5z
M793 240q171 0 279 92t108 237q0 148 -107.5 240t-279.5 92q-171 0 -280.5 -93t-109.5 -239q0 -144 109.5 -236.5t280.5 -92.5z" />
    <glyph glyph-name="otilde" unicode="&#xf5;" horiz-adv-x="1583" 
d="M987 1280q-103 0 -178 47l-64 37q-55 35 -102 35q-46 0 -72 -29t-26 -72h-215q0 144 84.5 231t214.5 87q92 0 182 -49l59 -35q44 -27 95 -27q39 0 60.5 26.5t21.5 70.5h217q0 -155 -72.5 -238.5t-204.5 -83.5zM793 -35q-204 0 -363.5 76.5t-248.5 214t-89 313.5
q0 175 88.5 313.5t249 216t363.5 77.5t363 -77.5t248.5 -216t88.5 -313.5q0 -176 -88.5 -313.5t-248 -214t-363.5 -76.5zM793 240q171 0 279 92t108 237q0 148 -107.5 240t-279.5 92q-171 0 -280.5 -93t-109.5 -239q0 -144 109.5 -236.5t280.5 -92.5z" />
    <glyph glyph-name="odieresis" unicode="&#xf6;" horiz-adv-x="1583" 
d="M530 1300q-75 0 -126.5 48.5t-51.5 117.5q0 65 52 111.5t126 46.5q73 0 125 -46.5t52 -111.5q0 -69 -51.5 -117.5t-125.5 -48.5zM1057 1300q-76 0 -127 48t-51 118q0 65 51 111.5t127 46.5q72 0 124 -46.5t52 -111.5q0 -69 -52 -117.5t-124 -48.5zM793 -35
q-204 0 -363.5 76.5t-248.5 214t-89 313.5q0 175 88.5 313.5t249 216t363.5 77.5t363 -77.5t248.5 -216t88.5 -313.5q0 -176 -88.5 -313.5t-248 -214t-363.5 -76.5zM793 240q171 0 279 92t108 237q0 148 -107.5 240t-279.5 92q-171 0 -280.5 -93t-109.5 -239
q0 -144 109.5 -236.5t280.5 -92.5z" />
    <glyph glyph-name="divide" unicode="&#xf7;" horiz-adv-x="1316" 
d="M659 858q-69 0 -118 47t-49 113q0 63 48.5 107t118.5 44q72 0 122 -44.5t50 -108.5q0 -66 -50.5 -112t-121.5 -46zM1176 516h-1035v221h1035v-221zM659 86q-69 0 -118 46.5t-49 111.5q0 63 48.5 108t118.5 45q72 0 122 -45t50 -110q0 -64 -50.5 -110t-121.5 -46z" />
    <glyph glyph-name="oslash" unicode="&#xf8;" horiz-adv-x="1583" 
d="M1509 1188l-184 -207q168 -168 168 -412q0 -176 -88.5 -313.5t-248 -214t-363.5 -76.5q-175 0 -322 58l-72 -80h-325l190 213q-172 164 -172 413q0 175 88.5 313.5t249 216t363.5 77.5q181 0 331 -64l68 76h317zM403 569q0 -108 64 -188l453 504q-62 16 -127 16
q-171 0 -280.5 -93t-109.5 -239zM793 240q171 0 279 92t108 237q0 105 -58 185l-446 -502q56 -12 117 -12z" />
    <glyph glyph-name="ugrave" unicode="&#xf9;" horiz-adv-x="1546" 
d="M907 1278h-262l-373 379h361zM659 -35q-223 0 -358 119t-135 342v717h299v-619q0 -130 76 -207t202 -77q147 0 233.5 81.5t86.5 206.5v615h299v-787q0 -129 10.5 -203.5t34.5 -152.5h-301q-29 104 -27 139h-4q-138 -174 -416 -174z" />
    <glyph glyph-name="uacute" unicode="&#xfa;" horiz-adv-x="1546" 
d="M1249 1657l-372 -379h-261l273 379h360zM659 -35q-223 0 -358 119t-135 342v717h299v-619q0 -130 76 -207t202 -77q147 0 233.5 81.5t86.5 206.5v615h299v-787q0 -129 10.5 -203.5t34.5 -152.5h-301q-29 104 -27 139h-4q-138 -174 -416 -174z" />
    <glyph glyph-name="ucircumflex" unicode="&#xfb;" horiz-adv-x="1546" 
d="M537 1278h-283l354 371h318l356 -371h-283q-171 145 -231 197q-43 -36 -123 -105t-108 -92zM659 -35q-223 0 -358 119t-135 342v717h299v-619q0 -130 76 -207t202 -77q147 0 233.5 81.5t86.5 206.5v615h299v-787q0 -129 10.5 -203.5t34.5 -152.5h-301q-29 104 -27 139h-4
q-138 -174 -416 -174z" />
    <glyph glyph-name="udieresis" unicode="&#xfc;" horiz-adv-x="1546" 
d="M504 1300q-75 0 -126.5 48.5t-51.5 117.5q0 65 52 111.5t126 46.5q73 0 124.5 -46.5t51.5 -111.5q0 -69 -51.5 -117.5t-124.5 -48.5zM1030 1300q-76 0 -127 48t-51 118q0 65 51 111.5t127 46.5q72 0 124 -46.5t52 -111.5q0 -69 -52 -117.5t-124 -48.5zM659 -35
q-223 0 -358 119t-135 342v717h299v-619q0 -130 76 -207t202 -77q147 0 233.5 81.5t86.5 206.5v615h299v-787q0 -129 10.5 -203.5t34.5 -152.5h-301q-29 104 -27 139h-4q-138 -174 -416 -174z" />
    <glyph glyph-name="yacute" unicode="&#xfd;" horiz-adv-x="1415" 
d="M1184 1657l-373 -379h-260l272 379h361zM676 -451h-314l191 402l-537 1192h330q176 -372 365 -809h4q164 380 362 809h322z" />
    <glyph glyph-name="thorn" unicode="&#xfe;" horiz-adv-x="1640" 
d="M481 -451h-299v2089h299v-663h6q165 201 453 201q133 0 247.5 -48t193 -130.5t123 -194t44.5 -236.5q0 -135 -50.5 -249t-135.5 -190.5t-198.5 -119.5t-239.5 -43q-136 0 -249.5 47.5t-187.5 137.5h-6v-601zM858 240q165 0 272 93t107 234q0 146 -107.5 240t-271.5 94
q-165 0 -274 -94t-109 -238q0 -145 110 -237t273 -92z" />
    <glyph glyph-name="ydieresis" unicode="&#xff;" horiz-adv-x="1415" 
d="M438 1300q-75 0 -126.5 48.5t-51.5 117.5q0 65 52 111.5t126 46.5q73 0 124.5 -46.5t51.5 -111.5q0 -69 -51.5 -117.5t-124.5 -48.5zM965 1300q-76 0 -127.5 48.5t-51.5 117.5q0 65 51.5 111.5t127.5 46.5q72 0 124 -46.5t52 -111.5q0 -69 -52 -117.5t-124 -48.5z
M676 -451h-314l191 402l-537 1192h330q176 -372 365 -809h4q164 380 362 809h322z" />
    <glyph glyph-name="Amacron" unicode="&#x100;" horiz-adv-x="1871" 
d="M1372 1765h-880v213h880v-213zM342 0h-330l740 1597h368l740 -1597h-338l-205 418h-770q-37 -76 -106.5 -218t-98.5 -200zM686 713h492q-156 324 -242 518h-6q-118 -260 -244 -518z" />
    <glyph glyph-name="amacron" unicode="&#x101;" horiz-adv-x="1431" 
d="M1139 1331h-826v203h826v-203zM549 -35q-124 0 -225.5 35.5t-167.5 113.5t-66 187q0 65 25 117t64.5 87t101 62t122.5 43.5t140 30.5q31 5 71.5 11.5t69.5 11t63.5 11t59 12t50.5 13.5t42.5 17t31 20.5t21 26.5t6.5 33q0 61 -68.5 103t-178.5 42q-108 0 -185.5 -44.5
t-109.5 -137.5l-283 90q30 87 90.5 151.5t140 102t167.5 55t186 17.5q249 0 397 -107t148 -299v-414q0 -128 10 -203.5t33 -152.5h-297q-29 62 -29 150h-6q-56 -85 -169 -135t-255 -50zM625 186q148 0 242 75t94 169v96q-115 -40 -285 -69q-51 -10 -87 -19.5t-80.5 -27
t-68.5 -44t-24 -61.5q0 -57 57.5 -88t151.5 -31z" />
    <glyph glyph-name="Abreve" unicode="&#x102;" horiz-adv-x="1871" 
d="M934 1716q-208 0 -339.5 103.5t-137.5 261.5h258q3 -67 62.5 -114.5t156.5 -47.5q95 0 153.5 47.5t63.5 114.5h256q-3 -157 -135.5 -261t-337.5 -104zM342 0h-330l740 1597h368l740 -1597h-338l-205 418h-770q-37 -76 -106.5 -218t-98.5 -200zM686 713h492
q-156 324 -242 518h-6q-118 -260 -244 -518z" />
    <glyph glyph-name="abreve" unicode="&#x103;" horiz-adv-x="1431" 
d="M723 1268q-207 0 -330 109.5t-131 285.5h248q2 -77 60.5 -133.5t160.5 -56.5q101 0 159.5 55.5t61.5 134.5h248q-8 -176 -134.5 -285.5t-342.5 -109.5zM549 -35q-124 0 -225.5 35.5t-167.5 113.5t-66 187q0 65 25 117t64.5 87t101 62t122.5 43.5t140 30.5q31 5 71.5 11.5
t69.5 11t63.5 11t59 12t50.5 13.5t42.5 17t31 20.5t21 26.5t6.5 33q0 61 -68.5 103t-178.5 42q-108 0 -185.5 -44.5t-109.5 -137.5l-283 90q30 87 90.5 151.5t140 102t167.5 55t186 17.5q249 0 397 -107t148 -299v-414q0 -128 10 -203.5t33 -152.5h-297q-29 62 -29 150h-6
q-56 -85 -169 -135t-255 -50zM625 186q148 0 242 75t94 169v96q-115 -40 -285 -69q-51 -10 -87 -19.5t-80.5 -27t-68.5 -44t-24 -61.5q0 -57 57.5 -88t151.5 -31z" />
    <glyph glyph-name="Aogonek" unicode="&#x104;" horiz-adv-x="1871" 
d="M1534 -158q0 -46 50 -84.5t140 -38.5q54 0 105 11v-174q-64 -19 -150 -19q-96 0 -175.5 25t-131 79.5t-51.5 131.5q0 67 54 128t149 99h-2l-205 418h-770q-37 -76 -106.5 -218t-98.5 -200h-330l740 1597h368l740 -1597h-123q-57 -10 -99 -29.5t-63 -43t-31 -45t-10 -40.5
zM686 713h492q-156 324 -242 518h-6q-118 -260 -244 -518z" />
    <glyph glyph-name="aogonek" unicode="&#x105;" horiz-adv-x="1431" 
d="M1016 -160q0 -47 47 -78.5t123 -31.5q63 0 112 16v-195q-63 -14 -139 -14q-152 0 -253 62t-101 176q0 76 56.5 135.5t150.5 89.5h-4q-29 62 -29 150h-6q-56 -85 -169 -135t-255 -50q-124 0 -225.5 35.5t-167.5 113.5t-66 187q0 65 25 117t64.5 87t101 62t122.5 43.5
t140 30.5q31 5 71.5 11.5t69.5 11t63.5 11t59 12t50.5 13.5t42.5 17t31 20.5t21 26.5t6.5 33q0 61 -68.5 103t-178.5 42q-108 0 -185.5 -44.5t-109.5 -137.5l-283 90q30 87 90.5 151.5t140 102t167.5 55t186 17.5q249 0 397 -107t148 -299v-414q0 -128 10 -203.5t33 -152.5
h-95q-99 -21 -146.5 -66t-47.5 -94zM961 430v96q-115 -40 -285 -69q-51 -10 -87 -19.5t-80.5 -27t-68.5 -44t-24 -61.5q0 -57 57.5 -88t151.5 -31q148 0 242 75t94 169z" />
    <glyph glyph-name="Cacute" unicode="&#x106;" horiz-adv-x="2048" 
d="M1583 2081l-395 -361h-273l287 361h381zM1094 -35q-213 0 -396 60.5t-313.5 169t-204.5 265.5t-74 343q0 156 52 290.5t143 232t213.5 167t265.5 103.5t297 34q299 0 536 -136.5t335 -365.5l-293 -112q-80 148 -230.5 237.5t-351.5 89.5q-177 0 -320.5 -67t-228 -194.5
t-84.5 -293.5q0 -113 39 -205.5t103.5 -152.5t151.5 -101.5t179 -59t189 -17.5q229 0 388.5 99t229.5 286l295 -96q-72 -195 -208 -325t-314 -190.5t-399 -60.5z" />
    <glyph glyph-name="cacute" unicode="&#x107;" horiz-adv-x="1499" 
d="M1227 1657l-373 -379h-260l272 379h361zM795 -35q-201 0 -359.5 72.5t-251 210.5t-92.5 321q0 182 90.5 321t248 212.5t355.5 73.5q214 0 384.5 -94.5t242.5 -262.5l-280 -108q-41 96 -134 143t-215 47q-169 0 -275 -94t-106 -236q0 -150 113 -240.5t283 -90.5
q131 0 228 52t147 152l280 -108q-75 -173 -251 -272t-408 -99z" />
    <glyph glyph-name="Cdotaccent" unicode="&#x10a;" horiz-adv-x="2048" 
d="M1057 1755q-85 0 -141 51.5t-56 128.5q0 72 56.5 123t140.5 51q79 0 134.5 -51.5t55.5 -122.5q0 -76 -55 -128t-135 -52zM1094 -35q-213 0 -396 60.5t-313.5 169t-204.5 265.5t-74 343q0 156 52 290.5t143 232t213.5 167t265.5 103.5t297 34q299 0 536 -136.5t335 -365.5
l-293 -112q-80 148 -230.5 237.5t-351.5 89.5q-177 0 -320.5 -67t-228 -194.5t-84.5 -293.5q0 -113 39 -205.5t103.5 -152.5t151.5 -101.5t179 -59t189 -17.5q229 0 388.5 99t229.5 286l295 -96q-72 -195 -208 -325t-314 -190.5t-399 -60.5z" />
    <glyph glyph-name="cdotaccent" unicode="&#x10b;" horiz-adv-x="1499" 
d="M745 1315q-83 0 -138.5 52.5t-55.5 129.5q0 71 56 122.5t138 51.5q81 0 137 -51.5t56 -122.5q0 -77 -55.5 -129.5t-137.5 -52.5zM795 -35q-201 0 -359.5 72.5t-251 210.5t-92.5 321q0 182 90.5 321t248 212.5t355.5 73.5q214 0 384.5 -94.5t242.5 -262.5l-280 -108
q-41 96 -134 143t-215 47q-169 0 -275 -94t-106 -236q0 -150 113 -240.5t283 -90.5q131 0 228 52t147 152l280 -108q-75 -173 -251 -272t-408 -99z" />
    <glyph glyph-name="Ccaron" unicode="&#x10c;" horiz-adv-x="2048" 
d="M1268 2077h278l-338 -357h-311l-338 357h279q43 -32 120 -95t95 -77q36 28 106.5 85.5t108.5 86.5zM1094 -35q-213 0 -396 60.5t-313.5 169t-204.5 265.5t-74 343q0 156 52 290.5t143 232t213.5 167t265.5 103.5t297 34q299 0 536 -136.5t335 -365.5l-293 -112
q-80 148 -230.5 237.5t-351.5 89.5q-177 0 -320.5 -67t-228 -194.5t-84.5 -293.5q0 -113 39 -205.5t103.5 -152.5t151.5 -101.5t179 -59t189 -17.5q229 0 388.5 99t229.5 286l295 -96q-72 -195 -208 -325t-314 -190.5t-399 -60.5z" />
    <glyph glyph-name="ccaron" unicode="&#x10d;" horiz-adv-x="1499" 
d="M901 1294h-317l-355 387h283q73 -62 231 -198q37 32 232 198h282zM795 -35q-201 0 -359.5 72.5t-251 210.5t-92.5 321q0 182 90.5 321t248 212.5t355.5 73.5q214 0 384.5 -94.5t242.5 -262.5l-280 -108q-41 96 -134 143t-215 47q-169 0 -275 -94t-106 -236
q0 -150 113 -240.5t283 -90.5q131 0 228 52t147 152l280 -108q-75 -173 -251 -272t-408 -99z" />
    <glyph glyph-name="Dcaron" unicode="&#x10e;" horiz-adv-x="1957" 
d="M1126 2077h279l-338 -357h-311l-338 357h278q43 -32 120 -95t95 -77q36 28 106.5 85.5t108.5 86.5zM963 0h-748v1597h725q187 0 339.5 -40.5t257 -112t176 -171.5t104 -216t32.5 -248q0 -178 -60.5 -327t-173 -256t-280 -166.5t-372.5 -59.5zM535 281h397q98 0 181 15
t159 52t129 94t84 146.5t31 204.5q0 96 -20.5 173.5t-55 131.5t-86 94t-106 63.5t-123.5 37.5t-130.5 19t-134.5 5h-325v-1036z" />
    <glyph glyph-name="dcaron" unicode="&#x10f;" horiz-adv-x="1640" 
d="M1724 1094h-176l187 288q-60 23 -92.5 67.5t-32.5 98.5q0 73 58 125.5t140 52.5t139.5 -51t57.5 -123q0 -15 -2 -29t-9 -31.5t-13 -31t-21.5 -38.5t-27.5 -43t-38 -54t-45.5 -62t-57.5 -78t-67 -91zM717 -35q-185 0 -328 78.5t-220 216t-77 311.5q0 183 85 322.5
t225.5 211t312.5 71.5q146 0 258 -51.5t180 -133.5h6v647h299v-1282q0 -129 10.5 -205t32.5 -151h-295q-31 88 -28 145h-7q-73 -91 -192.5 -135.5t-261.5 -44.5zM780 240q166 0 275.5 94.5t109.5 238.5q0 145 -110 237.5t-275 92.5t-271 -93t-106 -239q0 -142 107 -236.5
t270 -94.5z" />
    <glyph glyph-name="Dcroat" unicode="&#x110;" horiz-adv-x="1957" 
d="M215 1597h725q187 0 339.5 -40.5t257 -112t176 -171.5t104 -216t32.5 -248q0 -178 -60.5 -327t-173 -256t-280 -166.5t-372.5 -59.5h-748v676h-238v244h238v677zM932 281q98 0 181 15t159 52t129 94t84 146.5t31 204.5q0 96 -20.5 173.5t-55 131.5t-86 94t-106 63.5
t-123.5 37.5t-130.5 19t-134.5 5h-325v-397h464v-244h-464v-395h397z" />
    <glyph glyph-name="dcroat" unicode="&#x111;" horiz-adv-x="1640" 
d="M1776 1481v-215h-318v-910q0 -129 10.5 -205t32.5 -151h-295q-31 88 -28 145h-7q-73 -91 -192.5 -135.5t-261.5 -44.5q-185 0 -328 78.5t-220 216t-77 311.5q0 183 85 322.5t225.5 211t312.5 71.5q146 0 258 -51.5t180 -133.5h6v275h-321v215h321v157h299v-157h318z
M780 240q166 0 275.5 94.5t109.5 238.5q0 145 -110 237.5t-275 92.5t-271 -93t-106 -239q0 -142 107 -236.5t270 -94.5z" />
    <glyph glyph-name="Emacron" unicode="&#x112;" horiz-adv-x="1599" 
d="M1268 1765h-881v213h881v-213zM1481 0h-1266v1597h1241v-280h-921v-359h872v-294h-872v-381h946v-283z" />
    <glyph glyph-name="emacron" unicode="&#x113;" horiz-adv-x="1466" 
d="M1151 1331h-825v203h825v-203zM764 -35q-143 0 -268 43.5t-215.5 120.5t-142.5 190t-52 246q0 174 84 313.5t234 218.5t339 79q95 0 185 -22.5t171 -71.5t141.5 -119t96 -172t35.5 -224v-88h-987q18 -121 122 -188.5t255 -67.5q117 0 206.5 47.5t133.5 135.5l278 -109
q-71 -146 -234.5 -239t-381.5 -93zM399 694h672q-14 118 -107 177t-223 59q-135 0 -225 -65.5t-117 -170.5z" />
    <glyph glyph-name="Edotaccent" unicode="&#x116;" horiz-adv-x="1599" 
d="M831 1755q-84 0 -140 51.5t-56 128.5q0 72 56 123t140 51q79 0 135 -51.5t56 -122.5q0 -76 -55.5 -128t-135.5 -52zM1481 0h-1266v1597h1241v-280h-921v-359h872v-294h-872v-381h946v-283z" />
    <glyph glyph-name="edotaccent" unicode="&#x117;" horiz-adv-x="1466" 
d="M741 1315q-83 0 -138.5 52.5t-55.5 129.5q0 71 56 122.5t138 51.5q81 0 137 -51.5t56 -122.5q0 -77 -55.5 -129.5t-137.5 -52.5zM764 -35q-143 0 -268 43.5t-215.5 120.5t-142.5 190t-52 246q0 174 84 313.5t234 218.5t339 79q95 0 185 -22.5t171 -71.5t141.5 -119
t96 -172t35.5 -224v-88h-987q18 -121 122 -188.5t255 -67.5q117 0 206.5 47.5t133.5 135.5l278 -109q-71 -146 -234.5 -239t-381.5 -93zM399 694h672q-14 118 -107 177t-223 59q-135 0 -225 -65.5t-117 -170.5z" />
    <glyph glyph-name="Eogonek" unicode="&#x118;" horiz-adv-x="1599" 
d="M1468 -281q54 0 105 11v-174q-64 -19 -150 -19q-96 0 -175.5 25t-131 79.5t-51.5 131.5q0 67 54 128t149 99h-1053v1597h1241v-280h-921v-359h872v-294h-872v-381h946v-283q-57 -10 -99 -29.5t-63 -43t-31 -45t-10 -40.5q0 -46 50 -84.5t140 -38.5z" />
    <glyph glyph-name="eogonek" unicode="&#x119;" horiz-adv-x="1466" 
d="M938 -18q-68 -25 -100.5 -63.5t-32.5 -78.5q0 -47 47 -78.5t123 -31.5q63 0 112 16v-195q-63 -14 -139 -14q-152 0 -253 62t-101 176q0 59 34 108t95 82q-182 9 -326.5 84.5t-227.5 210t-83 305.5q0 174 84 313.5t234 218.5t339 79q95 0 185 -22.5t171 -71.5t141.5 -119
t96 -172t35.5 -224v-88h-987q18 -121 122 -188.5t255 -67.5q117 0 206.5 47.5t133.5 135.5l278 -109q-55 -115 -170 -198.5t-272 -116.5zM741 930q-135 0 -225 -65.5t-117 -170.5h672q-14 118 -107 177t-223 59z" />
    <glyph glyph-name="Ecaron" unicode="&#x11a;" horiz-adv-x="1599" 
d="M1040 2077h279l-338 -357h-311l-338 357h278q43 -32 120 -95t95 -77q36 28 106.5 85.5t108.5 86.5zM1481 0h-1266v1597h1241v-280h-921v-359h872v-294h-872v-381h946v-283z" />
    <glyph glyph-name="ecaron" unicode="&#x11b;" horiz-adv-x="1466" 
d="M897 1294h-317l-355 387h283q73 -62 231 -198q37 32 232 198h282zM764 -35q-143 0 -268 43.5t-215.5 120.5t-142.5 190t-52 246q0 174 84 313.5t234 218.5t339 79q95 0 185 -22.5t171 -71.5t141.5 -119t96 -172t35.5 -224v-88h-987q18 -121 122 -188.5t255 -67.5
q117 0 206.5 47.5t133.5 135.5l278 -109q-71 -146 -234.5 -239t-381.5 -93zM399 694h672q-14 118 -107 177t-223 59q-135 0 -225 -65.5t-117 -170.5z" />
    <glyph glyph-name="Gbreve" unicode="&#x11e;" horiz-adv-x="2142" 
d="M1057 1716q-208 0 -339.5 103.5t-137.5 261.5h258q3 -67 62.5 -114.5t156.5 -47.5q95 0 153.5 47.5t63.5 114.5h256q-3 -157 -135.5 -261t-337.5 -104zM1051 -35q-204 0 -379.5 62t-300 171.5t-195 264.5t-70.5 334q0 191 78 350t211 263.5t308.5 162t371.5 57.5
q303 0 540.5 -138.5t332.5 -363.5l-293 -112q-81 148 -230 237.5t-350 89.5q-131 0 -246 -38.5t-202 -108t-137 -175.5t-50 -233q0 -98 28.5 -179.5t78.5 -139t114.5 -100.5t140.5 -68t151.5 -37t152.5 -12q227 0 381.5 88.5t185.5 239.5h-545v247h865v-827h-246
q-4 86 -16 242h-13q-210 -277 -667 -277z" />
    <glyph glyph-name="gbreve" unicode="&#x11f;" horiz-adv-x="1638" 
d="M807 1268q-207 0 -330 109.5t-131 285.5h248q2 -77 60.5 -133.5t160.5 -56.5q101 0 159.5 55.5t61.5 134.5h248q-8 -176 -134.5 -285.5t-342.5 -109.5zM786 -483q-496 0 -641 327l273 95q49 -93 136 -136t226 -43q176 0 276.5 91.5t100.5 271.5v53h-6
q-131 -170 -432 -170q-145 0 -265.5 47t-199 127.5t-121.5 185.5t-43 222q0 169 82 304t223.5 209.5t315.5 74.5q147 0 263 -52t183 -135h4v154h295v-1028q0 -135 -36 -239.5t-97 -171.5t-148.5 -109.5t-182.5 -60t-206 -17.5zM778 281q164 0 274.5 91.5t110.5 221.5
q0 131 -110.5 220t-274.5 89q-163 0 -270 -89.5t-107 -219.5q0 -132 108 -222.5t269 -90.5z" />
    <glyph glyph-name="Gdotaccent" unicode="&#x120;" horiz-adv-x="2142" 
d="M1057 1755q-85 0 -141 51.5t-56 128.5q0 72 56.5 123t140.5 51q79 0 134.5 -51.5t55.5 -122.5q0 -76 -55 -128t-135 -52zM1051 -35q-204 0 -379.5 62t-300 171.5t-195 264.5t-70.5 334q0 191 78 350t211 263.5t308.5 162t371.5 57.5q303 0 540.5 -138.5t332.5 -363.5
l-293 -112q-81 148 -230 237.5t-350 89.5q-131 0 -246 -38.5t-202 -108t-137 -175.5t-50 -233q0 -98 28.5 -179.5t78.5 -139t114.5 -100.5t140.5 -68t151.5 -37t152.5 -12q227 0 381.5 88.5t185.5 239.5h-545v247h865v-827h-246q-4 86 -16 242h-13q-210 -277 -667 -277z" />
    <glyph glyph-name="gdotaccent" unicode="&#x121;" horiz-adv-x="1638" 
d="M813 1315q-83 0 -139 52.5t-56 129.5q0 71 56.5 122.5t138.5 51.5q81 0 137 -51.5t56 -122.5q0 -77 -55.5 -129.5t-137.5 -52.5zM786 -483q-496 0 -641 327l273 95q49 -93 136 -136t226 -43q176 0 276.5 91.5t100.5 271.5v53h-6q-131 -170 -432 -170q-145 0 -265.5 47
t-199 127.5t-121.5 185.5t-43 222q0 169 82 304t223.5 209.5t315.5 74.5q147 0 263 -52t183 -135h4v154h295v-1028q0 -135 -36 -239.5t-97 -171.5t-148.5 -109.5t-182.5 -60t-206 -17.5zM778 281q164 0 274.5 91.5t110.5 221.5q0 131 -110.5 220t-274.5 89
q-163 0 -270 -89.5t-107 -219.5q0 -132 108 -222.5t269 -90.5z" />
    <glyph glyph-name="uni0122" unicode="&#x122;" horiz-adv-x="2142" 
d="M1051 -35q-204 0 -379.5 62t-300 171.5t-195 264.5t-70.5 334q0 191 78 350t211 263.5t308.5 162t371.5 57.5q303 0 540.5 -138.5t332.5 -363.5l-293 -112q-81 148 -230 237.5t-350 89.5q-131 0 -246 -38.5t-202 -108t-137 -175.5t-50 -233q0 -98 28.5 -179.5t78.5 -139
t114.5 -100.5t140.5 -68t151.5 -37t152.5 -12q227 0 381.5 88.5t185.5 239.5h-545v247h865v-827h-246q-4 86 -16 242h-13q-210 -277 -667 -277zM1044 -649h-159l147 237q-54 20 -85.5 60.5t-31.5 87.5q0 67 51.5 111t125.5 44q75 0 124.5 -43t49.5 -108q0 -21 -5.5 -41.5
t-13 -38.5t-29 -51.5t-39.5 -60.5t-59.5 -86.5t-75.5 -110.5z" />
    <glyph glyph-name="uni0123" unicode="&#x123;" horiz-adv-x="1638" 
d="M625 1430q0 18 2.5 33.5t12 36.5t18.5 38t31.5 50t41.5 60t57 81.5t70 101.5h172l-164 -250q109 -50 109 -149q0 -66 -50.5 -111t-125.5 -45q-73 0 -123.5 44.5t-50.5 109.5zM786 -483q-496 0 -641 327l273 95q49 -93 136 -136t226 -43q176 0 276.5 91.5t100.5 271.5v53
h-6q-131 -170 -432 -170q-145 0 -265.5 47t-199 127.5t-121.5 185.5t-43 222q0 169 82 304t223.5 209.5t315.5 74.5q147 0 263 -52t183 -135h4v154h295v-1028q0 -135 -36 -239.5t-97 -171.5t-148.5 -109.5t-182.5 -60t-206 -17.5zM778 281q164 0 274.5 91.5t110.5 221.5
q0 131 -110.5 220t-274.5 89q-163 0 -270 -89.5t-107 -219.5q0 -132 108 -222.5t269 -90.5z" />
    <glyph glyph-name="Hbar" unicode="&#x126;" horiz-adv-x="1990" 
d="M1776 1346h178v-236h-178v-1110h-320v643h-921v-643h-320v1110h-176v236h176v251h320v-251h921v251h320v-251zM535 938h921v172h-921v-172z" />
    <glyph glyph-name="hbar" unicode="&#x127;" horiz-adv-x="1568" 
d="M920 1176q76 0 145.5 -17t131.5 -54t107.5 -89.5t72 -128t26.5 -166.5v-721h-299v594q0 47 -10 90.5t-32 83.5t-54.5 69t-81.5 46.5t-109 17.5q-151 0 -243.5 -77.5t-92.5 -233.5v-590h-299v1260h-256v215h256v163h299v-163h383v-215h-383v-285h6q75 102 188.5 151.5
t244.5 49.5z" />
    <glyph glyph-name="Imacron" unicode="&#x12a;" horiz-adv-x="749" 
d="M811 1765h-881v213h881v-213zM535 0h-320v1597h320v-1597z" />
    <glyph glyph-name="imacron" unicode="&#x12b;" horiz-adv-x="661" 
d="M743 1315h-825v203h825v-203zM481 0h-299v1143h299v-1143z" />
    <glyph glyph-name="Iogonek" unicode="&#x12e;" horiz-adv-x="749" 
d="M526 -281q54 0 105 11v-174q-64 -19 -150 -19q-96 0 -175.5 25t-131 79.5t-51.5 131.5q0 67 54 128t149 99h-111v1597h320v-1597h4q-57 -10 -99 -29.5t-63 -43t-31 -45t-10 -40.5q0 -46 50 -84.5t140 -38.5z" />
    <glyph glyph-name="iogonek" unicode="&#x12f;" horiz-adv-x="661" 
d="M334 1298q-83 0 -139 53t-56 130q0 71 56.5 122.5t138.5 51.5q81 0 136.5 -51.5t55.5 -122.5q0 -77 -55.5 -130t-136.5 -53zM424 -270q64 0 113 16v-195q-63 -14 -140 -14q-152 0 -253 62t-101 176q0 76 56.5 135.5t150.5 89.5h-68v1143h299v-1143h-32
q-99 -22 -147 -66.5t-48 -93.5q0 -47 47 -78.5t123 -31.5z" />
    <glyph glyph-name="Idotaccent" unicode="&#x130;" horiz-adv-x="749" 
d="M373 1755q-85 0 -141 51.5t-56 128.5q0 72 56.5 123t140.5 51q79 0 134.5 -51.5t55.5 -122.5q0 -76 -55 -128t-135 -52zM535 0h-320v1597h320v-1597z" />
    <glyph glyph-name="dotlessi" unicode="&#x131;" horiz-adv-x="661" 
d="M481 0h-299v1143h299v-1143z" />
    <glyph glyph-name="uni0136" unicode="&#x136;" horiz-adv-x="1730" 
d="M535 0h-320v1597h320v-714h8q407 375 800 714h375q-242 -222 -753 -694q89 -101 284 -325t334 -383.5t172 -194.5h-385q-106 114 -287 316.5t-335 369.5l-213 -201v-485zM885 -649h-160l147 237q-54 20 -85 60t-31 88q0 67 51 111t125 44q75 0 124.5 -43t49.5 -108
q0 -21 -5.5 -41.5t-12.5 -38.5t-28.5 -51.5t-39.5 -60t-60 -87t-75 -110.5z" />
    <glyph glyph-name="uni0137" unicode="&#x137;" horiz-adv-x="1384" 
d="M1348 1143l-506 -471l573 -672h-350l-428 483l-156 -145v-338h-299v1638h299v-931h6q247 219 502 436h359zM731 -109q75 0 124.5 -43t49.5 -108q0 -21 -5.5 -41.5t-12.5 -38.5t-28.5 -51.5t-39.5 -60t-60 -87t-75 -110.5h-160l148 237q-54 20 -85.5 60.5t-31.5 87.5
q0 67 51 111t125 44z" />
    <glyph glyph-name="Lacute" unicode="&#x139;" horiz-adv-x="1443" 
d="M573 2081h381l-395 -361h-272zM535 1597v-1314h876v-283h-1196v1597h320z" />
    <glyph glyph-name="lacute" unicode="&#x13a;" horiz-adv-x="661" 
d="M883 2122l-396 -361h-272l287 361h381zM481 0h-299v1638h299v-1638z" />
    <glyph glyph-name="uni013B" unicode="&#x13b;" horiz-adv-x="1443" 
d="M535 1597v-1314h876v-283h-1196v1597h320zM778 -109q75 0 124.5 -43t49.5 -108q0 -21 -5.5 -41.5t-12.5 -38.5t-28.5 -51.5t-39.5 -60t-60 -87t-75 -110.5h-160l148 237q-54 20 -85.5 60.5t-31.5 87.5q0 67 51 111t125 44z" />
    <glyph glyph-name="uni013C" unicode="&#x13c;" horiz-adv-x="661" 
d="M481 0h-299v1638h299v-1638zM295 -649h-160l148 237q-54 20 -85.5 60.5t-31.5 87.5q0 67 51 111t125 44q75 0 124.5 -43t49.5 -108q0 -21 -5.5 -41.5t-12.5 -38.5t-28.5 -51.5t-39.5 -60t-60 -87t-75 -110.5z" />
    <glyph glyph-name="Lcaron" unicode="&#x13d;" horiz-adv-x="1443" 
d="M924 1030h-176l186 289q-60 23 -92.5 67.5t-32.5 98.5q0 73 58.5 125.5t140.5 52.5t139 -51t57 -123q0 -55 -39 -120.5t-166 -237.5q-48 -64 -75 -101zM535 1597v-1314h876v-283h-1196v1597h320z" />
    <glyph glyph-name="lcaron" unicode="&#x13e;" horiz-adv-x="661" 
d="M758 1030h-176l186 289q-60 23 -92.5 67.5t-32.5 98.5q0 74 59 126t142 52q80 0 137 -51t57 -123q0 -55 -39 -120.5t-166 -237.5q-48 -64 -75 -101zM481 0h-299v1638h299v-1638z" />
    <glyph glyph-name="Lslash" unicode="&#x141;" horiz-adv-x="1443" 
d="M535 823v-540h876v-283h-1196v696l-199 -78v256l199 80v643h320v-516l274 109v-258z" />
    <glyph glyph-name="lslash" unicode="&#x142;" horiz-adv-x="661" 
d="M481 1143l250 157v-247l-250 -158v-895h-299v709l-217 -138v248l217 137v682h299v-495z" />
    <glyph glyph-name="Nacute" unicode="&#x143;" horiz-adv-x="2009" 
d="M1511 2081l-395 -361h-272l286 361h381zM535 0h-320v1597h334q79 -91 279.5 -318.5t352.5 -403t289 -340.5h7v1062h315v-1597h-332q-40 46 -388.5 435.5t-530.5 604.5h-6v-1040z" />
    <glyph glyph-name="nacute" unicode="&#x144;" horiz-adv-x="1568" 
d="M1260 1657l-373 -379h-260l272 379h361zM481 0h-299v1143h295v-168h4q74 100 189.5 150.5t249.5 50.5q96 0 181.5 -28t153.5 -82t108 -143t40 -202v-721h-299v594q0 47 -10 90.5t-32 83.5t-54.5 69t-81.5 46.5t-109 17.5q-151 0 -243.5 -77.5t-92.5 -233.5v-590z" />
    <glyph glyph-name="uni0145" unicode="&#x145;" horiz-adv-x="2009" 
d="M535 0h-320v1597h334q79 -91 279.5 -318.5t352.5 -403t289 -340.5h7v1062h315v-1597h-332q-40 46 -388.5 435.5t-530.5 604.5h-6v-1040zM995 -649h-159l147 237q-54 20 -85.5 60.5t-31.5 87.5q0 67 51 111t125 44q75 0 125 -43t50 -108q0 -21 -5.5 -41.5t-13 -38.5
t-29 -51.5t-39.5 -60.5t-59.5 -86.5t-75.5 -110.5z" />
    <glyph glyph-name="uni0146" unicode="&#x146;" horiz-adv-x="1568" 
d="M481 0h-299v1143h295v-168h4q74 100 189.5 150.5t249.5 50.5q96 0 181.5 -28t153.5 -82t108 -143t40 -202v-721h-299v594q0 47 -10 90.5t-32 83.5t-54.5 69t-81.5 46.5t-109 17.5q-151 0 -243.5 -77.5t-92.5 -233.5v-590zM807 -649h-160l148 237q-54 20 -85.5 60.5
t-31.5 87.5q0 67 51 111t125 44q75 0 124.5 -43t49.5 -108q0 -21 -5.5 -41.5t-12.5 -38.5t-28.5 -51.5t-39.5 -60t-60 -87t-75 -110.5z" />
    <glyph glyph-name="Ncaron" unicode="&#x147;" horiz-adv-x="2009" 
d="M1194 2077h279l-338 -357h-312l-338 357h279q43 -32 120 -95t95 -77q36 28 106.5 85.5t108.5 86.5zM535 0h-320v1597h334q79 -91 279.5 -318.5t352.5 -403t289 -340.5h7v1062h315v-1597h-332q-40 46 -388.5 435.5t-530.5 604.5h-6v-1040z" />
    <glyph glyph-name="ncaron" unicode="&#x148;" horiz-adv-x="1568" 
d="M936 1294h-318l-354 387h283q73 -62 231 -198q37 32 232 198h282zM481 0h-299v1143h295v-168h4q74 100 189.5 150.5t249.5 50.5q96 0 181.5 -28t153.5 -82t108 -143t40 -202v-721h-299v594q0 47 -10 90.5t-32 83.5t-54.5 69t-81.5 46.5t-109 17.5q-151 0 -243.5 -77.5
t-92.5 -233.5v-590z" />
    <glyph glyph-name="Eng" unicode="&#x14a;" horiz-adv-x="2009" 
d="M1233 -483q-91 0 -197 14t-159 29v250q99 -35 270 -35q162 0 240.5 52.5t78.5 168.5q-88 100 -421.5 472t-509.5 581v-1049h-320v1597h334q79 -91 279.5 -318.5t352.5 -403t289 -340.5h7v1062h315v-1540q0 -46 -3 -85.5t-16 -97t-35 -103.5t-64.5 -95.5t-99.5 -82.5
t-144.5 -54.5t-196.5 -21.5z" />
    <glyph glyph-name="eng" unicode="&#x14b;" horiz-adv-x="1568" 
d="M969 -483q-144 0 -271 43v247q106 -34 207 -34q41 0 73.5 7t53 17t35 28.5t22 33t11 39t4 37.5t0.5 38v621q0 47 -10 90.5t-32 83.5t-54.5 69t-81.5 46.5t-109 17.5q-151 0 -243.5 -77.5t-92.5 -233.5v-590h-299v1143h295v-168h4q74 100 189.5 150.5t249.5 50.5
q96 0 181.5 -27.5t153.5 -81.5t108 -142.5t40 -201.5v-737q0 -57 -1 -88.5t-9 -88.5t-23.5 -90.5t-47.5 -77t-77 -67t-115.5 -40.5t-160.5 -17z" />
    <glyph glyph-name="Omacron" unicode="&#x14c;" horiz-adv-x="2144" 
d="M1507 1765h-880v213h880v-213zM1073 -35q-197 0 -374.5 61.5t-309 169.5t-208.5 264.5t-77 336.5q0 145 49 275t138.5 231t209 175t266.5 113t306 39q200 0 378 -62.5t308 -171.5t205.5 -265t75.5 -334t-75.5 -333.5t-205.5 -264.5t-308 -171.5t-378 -62.5zM1075 252
q173 0 317 70.5t228 195.5t84 279q0 151 -82.5 276.5t-227 197.5t-319.5 72t-320.5 -69.5t-231 -195.5t-85.5 -281q0 -118 51 -220.5t137 -173t203 -111t246 -40.5z" />
    <glyph glyph-name="omacron" unicode="&#x14d;" horiz-adv-x="1583" 
d="M1204 1331h-825v203h825v-203zM793 -35q-204 0 -363.5 76.5t-248.5 214t-89 313.5q0 175 88.5 313.5t249 216t363.5 77.5t363 -77.5t248.5 -216t88.5 -313.5q0 -176 -88.5 -313.5t-248 -214t-363.5 -76.5zM793 240q171 0 279 92t108 237q0 148 -107.5 240t-279.5 92
q-171 0 -280.5 -93t-109.5 -239q0 -144 109.5 -236.5t280.5 -92.5z" />
    <glyph glyph-name="Ohungarumlaut" unicode="&#x150;" horiz-adv-x="2144" 
d="M1272 2079l-363 -359h-262l260 359h365zM1790 2079l-371 -359h-264l270 359h365zM1073 -35q-197 0 -374.5 61.5t-309 169.5t-208.5 264.5t-77 336.5q0 145 49 275t138.5 231t209 175t266.5 113t306 39q200 0 378 -62.5t308 -171.5t205.5 -265t75.5 -334t-75.5 -333.5
t-205.5 -264.5t-308 -171.5t-378 -62.5zM1075 252q173 0 317 70.5t228 195.5t84 279q0 151 -82.5 276.5t-227 197.5t-319.5 72t-320.5 -69.5t-231 -195.5t-85.5 -281q0 -118 51 -220.5t137 -173t203 -111t246 -40.5z" />
    <glyph glyph-name="ohungarumlaut" unicode="&#x151;" horiz-adv-x="1583" 
d="M973 1673l-369 -395h-254l268 395h355zM1497 1673l-381 -395h-254l279 395h356zM793 -35q-204 0 -363.5 76.5t-248.5 214t-89 313.5q0 175 88.5 313.5t249 216t363.5 77.5t363 -77.5t248.5 -216t88.5 -313.5q0 -176 -88.5 -313.5t-248 -214t-363.5 -76.5zM793 240
q171 0 279 92t108 237q0 148 -107.5 240t-279.5 92q-171 0 -280.5 -93t-109.5 -239q0 -144 109.5 -236.5t280.5 -92.5z" />
    <glyph glyph-name="OE" unicode="&#x152;" horiz-adv-x="3059" 
d="M1067 -35q-197 0 -373.5 61.5t-306 169.5t-205.5 264t-76 337q0 145 48.5 275t137.5 231t207.5 175t264 113t303.5 39q403 0 645 -213v180h1204v-280h-907v-359h858v-294h-858v-381h932v-283h-1229v176q-119 -103 -284 -157t-361 -54zM1069 252q173 0 315.5 69.5
t226 195.5t83.5 284q0 155 -82 279.5t-224 193.5t-315 69q-175 0 -320 -69.5t-229 -195.5t-84 -281q0 -157 85 -283t228.5 -194t315.5 -68z" />
    <glyph glyph-name="oe" unicode="&#x153;" horiz-adv-x="2609" 
d="M793 -35q-204 0 -363.5 76.5t-248.5 214t-89 313.5q0 175 88.5 313.5t249 216t363.5 77.5q172 0 310 -53t226 -148q81 94 219.5 147.5t309.5 53.5q100 0 193.5 -22.5t178 -71.5t147 -119t99.5 -172t37 -224v-47h-1043q13 -134 128 -215.5t274 -81.5q125 0 222 47.5
t144 135.5l279 -109q-73 -147 -244.5 -239.5t-400.5 -92.5q-174 0 -316 51.5t-227 145.5q-88 -94 -225 -145.5t-311 -51.5zM1481 698h721q-15 82 -72 136.5t-128 76t-155 21.5q-139 0 -237.5 -64t-128.5 -170zM793 240q171 0 279 92t108 237q0 147 -108 239.5t-279 92.5
t-280.5 -93t-109.5 -239q0 -144 109.5 -236.5t280.5 -92.5z" />
    <glyph glyph-name="Racute" unicode="&#x154;" horiz-adv-x="1720" 
d="M1298 2081l-395 -361h-272l287 361h380zM535 0h-320v1597h723q47 0 94.5 -3.5t115 -16.5t126 -34.5t119.5 -61t104 -91.5t70.5 -131t27.5 -176q0 -109 -36 -195.5t-100.5 -144t-141.5 -93t-170 -54.5v-2q343 -416 487 -594h-358l-467 571h-274v-571zM535 842h350
q72 0 133 10t119 34.5t91.5 73t33.5 117.5q0 55 -23.5 98t-60.5 70t-88 44.5t-101 24.5t-104 7h-350v-479z" />
    <glyph glyph-name="racute" unicode="&#x155;" horiz-adv-x="1056" 
d="M1057 1657l-373 -379h-260l272 379h361zM481 0h-299v1143h295v-176h10q55 90 160 149.5t238 59.5q75 0 139 -21v-321q-76 22 -168 22q-76 0 -137.5 -19.5t-101 -53.5t-67.5 -75t-42.5 -90t-20.5 -91t-6 -85v-442z" />
    <glyph glyph-name="uni0156" unicode="&#x156;" horiz-adv-x="1720" 
d="M535 0h-320v1597h723q47 0 94.5 -3.5t115 -16.5t126 -34.5t119.5 -61t104 -91.5t70.5 -131t27.5 -176q0 -109 -36 -195.5t-100.5 -144t-141.5 -93t-170 -54.5v-2q343 -416 487 -594h-358l-467 571h-274v-571zM535 842h350q72 0 133 10t119 34.5t91.5 73t33.5 117.5
q0 55 -23.5 98t-60.5 70t-88 44.5t-101 24.5t-104 7h-350v-479zM809 -649h-160l148 237q-54 20 -85.5 60.5t-31.5 87.5q0 67 51 111t125 44q75 0 124.5 -43t49.5 -108q0 -21 -5.5 -41.5t-12.5 -38.5t-28.5 -51.5t-39.5 -60t-60 -87t-75 -110.5z" />
    <glyph glyph-name="uni0157" unicode="&#x157;" horiz-adv-x="1056" 
d="M481 0h-299v1143h295v-176h10q55 90 160 149.5t238 59.5q75 0 139 -21v-321q-76 22 -168 22q-76 0 -137.5 -19.5t-101 -53.5t-67.5 -75t-42.5 -90t-20.5 -91t-6 -85v-442zM287 -649h-160l147 237q-54 20 -85 60t-31 88q0 67 51 111t125 44q75 0 124.5 -43t49.5 -108
q0 -21 -5.5 -41.5t-12.5 -38.5t-28.5 -51.5t-39.5 -60t-60 -87t-75 -110.5z" />
    <glyph glyph-name="Rcaron" unicode="&#x158;" horiz-adv-x="1720" 
d="M983 2077h279l-338 -357h-312l-338 357h279q43 -32 120 -95t95 -77q36 28 106.5 85.5t108.5 86.5zM535 0h-320v1597h723q47 0 94.5 -3.5t115 -16.5t126 -34.5t119.5 -61t104 -91.5t70.5 -131t27.5 -176q0 -109 -36 -195.5t-100.5 -144t-141.5 -93t-170 -54.5v-2
q343 -416 487 -594h-358l-467 571h-274v-571zM535 842h350q72 0 133 10t119 34.5t91.5 73t33.5 117.5q0 55 -23.5 98t-60.5 70t-88 44.5t-101 24.5t-104 7h-350v-479z" />
    <glyph glyph-name="rcaron" unicode="&#x159;" horiz-adv-x="1056" 
d="M733 1294h-317l-355 387h283q73 -62 231 -198q37 32 232 198h283zM481 0h-299v1143h295v-176h10q55 90 160 149.5t238 59.5q75 0 139 -21v-321q-76 22 -168 22q-76 0 -137.5 -19.5t-101 -53.5t-67.5 -75t-42.5 -90t-20.5 -91t-6 -85v-442z" />
    <glyph glyph-name="Sacute" unicode="&#x15a;" horiz-adv-x="1605" 
d="M1247 2081l-397 -361h-272l288 361h381zM825 -35q-177 0 -328.5 54t-262.5 162t-158 257l297 97q27 -81 75 -140t109 -91.5t125.5 -47t138.5 -14.5q93 0 172.5 21.5t132 67t52.5 107.5q0 38 -21.5 69.5t-47.5 51.5t-79.5 40.5t-84 29t-95.5 25.5q-4 1 -6.5 1.5t-6 1.5
t-6.5 2l-174 43q-514 127 -514 457q0 140 89.5 249t237 165.5t325.5 56.5q167 0 308 -53.5t227.5 -136.5t121.5 -183l-291 -112q-47 99 -143.5 154t-233.5 55q-134 0 -221.5 -48.5t-87.5 -121.5q0 -28 13.5 -53t33 -44t52 -37.5t60 -30.5t68 -25t65 -20t60.5 -16l197 -53
q42 -11 66 -17.5t69.5 -21t74.5 -27t70 -33.5t68 -42.5t57 -52.5t47 -65t28.5 -78t11.5 -93q0 -219 -193.5 -364.5t-497.5 -145.5z" />
    <glyph glyph-name="sacute" unicode="&#x15b;" horiz-adv-x="1259" 
d="M1102 1661l-373 -379h-260l272 379h361zM649 -35q-222 0 -380 88t-208 234l279 86q44 -89 127.5 -130.5t179.5 -41.5q49 0 94 9t81 35t36 64q0 28 -16.5 49.5t-47 35.5t-61 23.5t-69.5 19.5q-7 1 -11.5 2.5t-9.5 2.5l-143 35q-53 13 -100.5 30t-99.5 46.5t-89 65
t-61.5 87t-24.5 111.5q0 106 68.5 189t181.5 126.5t250 43.5q193 0 330.5 -81t181.5 -208l-277 -86q-29 61 -92 101t-156 40q-82 0 -134 -29.5t-52 -76.5q0 -24 17 -44.5t40.5 -34.5t62.5 -27.5t67.5 -21t70.5 -16.5l113 -24q30 -7 48 -11t52 -14t57 -19.5t55 -25
t53.5 -32.5t45 -41t38 -51t23.5 -62.5t9 -75.5q0 -169 -144.5 -270t-384.5 -101z" />
    <glyph glyph-name="Scedilla" unicode="&#x15e;" horiz-adv-x="1605" 
d="M1516 475q0 -206 -172.5 -348.5t-450.5 -159.5l-68 -73q28 8 66 8q105 0 174.5 -54.5t69.5 -144.5q0 -101 -90.5 -162t-233.5 -61q-105 0 -193.5 34.5t-142.5 94.5l100 112q84 -96 228 -96q59 0 96 21.5t37 58.5q0 36 -36 57t-91 21q-62 0 -109 -29l-98 68l119 149
q-236 22 -409 144t-236 323l297 97q27 -81 75 -140t109 -91.5t125.5 -47t138.5 -14.5q93 0 172.5 21.5t132 67t52.5 107.5q0 38 -21.5 69.5t-47.5 51.5t-79.5 40.5t-84 29t-95.5 25.5q-4 1 -6.5 1.5t-6 1.5t-6.5 2l-174 43q-514 127 -514 457q0 140 89.5 249t237 165.5
t325.5 56.5q167 0 308 -53.5t227.5 -136.5t121.5 -183l-291 -112q-47 99 -143.5 154t-233.5 55q-134 0 -221.5 -48.5t-87.5 -121.5q0 -28 13.5 -53t33 -44t52 -37.5t60 -30.5t68 -25t65 -20t60.5 -16l197 -53q42 -11 66 -17.5t69.5 -21t74.5 -27t70 -33.5t68 -42.5t57 -52.5
t47 -65t28.5 -78t11.5 -93z" />
    <glyph glyph-name="scedilla" unicode="&#x15f;" horiz-adv-x="1259" 
d="M1178 336q0 -158 -128 -257.5t-345 -111.5l-66 -73q28 8 66 8q105 0 174 -54.5t69 -144.5q0 -101 -90 -162t-233 -61q-105 0 -193.5 34.5t-142.5 94.5l100 112q84 -96 227 -96q59 0 96.5 21.5t37.5 58.5q0 36 -36 57t-91 21q-62 0 -109 -29l-98 68l119 149
q-180 22 -305.5 106t-168.5 210l279 86q44 -89 127.5 -130.5t179.5 -41.5q49 0 94 9t81 35t36 64q0 28 -16.5 49.5t-47 35.5t-61 23.5t-69.5 19.5q-7 1 -11.5 2.5t-9.5 2.5l-143 35q-53 13 -100.5 30t-99.5 46.5t-89 65t-61.5 87t-24.5 111.5q0 106 68.5 189t181.5 126.5
t250 43.5q193 0 330.5 -81t181.5 -208l-277 -86q-29 61 -92 101t-156 40q-82 0 -134 -29.5t-52 -76.5q0 -24 17 -44.5t40.5 -34.5t62.5 -27.5t67.5 -21t70.5 -16.5l113 -24q30 -7 48 -11t52 -14t57 -19.5t55 -25t53.5 -32.5t45 -41t38 -51t23.5 -62.5t9 -75.5z" />
    <glyph glyph-name="Scaron" unicode="&#x160;" horiz-adv-x="1605" 
d="M1001 2077h279l-338 -357h-311l-338 357h278q43 -32 120 -95t95 -77q36 28 106.5 85.5t108.5 86.5zM825 -35q-177 0 -328.5 54t-262.5 162t-158 257l297 97q27 -81 75 -140t109 -91.5t125.5 -47t138.5 -14.5q93 0 172.5 21.5t132 67t52.5 107.5q0 38 -21.5 69.5
t-47.5 51.5t-79.5 40.5t-84 29t-95.5 25.5q-4 1 -6.5 1.5t-6 1.5t-6.5 2l-174 43q-514 127 -514 457q0 140 89.5 249t237 165.5t325.5 56.5q167 0 308 -53.5t227.5 -136.5t121.5 -183l-291 -112q-47 99 -143.5 154t-233.5 55q-134 0 -221.5 -48.5t-87.5 -121.5
q0 -28 13.5 -53t33 -44t52 -37.5t60 -30.5t68 -25t65 -20t60.5 -16l197 -53q42 -11 66 -17.5t69.5 -21t74.5 -27t70 -33.5t68 -42.5t57 -52.5t47 -65t28.5 -78t11.5 -93q0 -219 -193.5 -364.5t-497.5 -145.5z" />
    <glyph glyph-name="scaron" unicode="&#x161;" horiz-adv-x="1259" 
d="M776 1296h-317l-355 387h283q73 -62 231 -198q37 32 232 198h283zM649 -35q-222 0 -380 88t-208 234l279 86q44 -89 127.5 -130.5t179.5 -41.5q49 0 94 9t81 35t36 64q0 28 -16.5 49.5t-47 35.5t-61 23.5t-69.5 19.5q-7 1 -11.5 2.5t-9.5 2.5l-143 35q-53 13 -100.5 30
t-99.5 46.5t-89 65t-61.5 87t-24.5 111.5q0 106 68.5 189t181.5 126.5t250 43.5q193 0 330.5 -81t181.5 -208l-277 -86q-29 61 -92 101t-156 40q-82 0 -134 -29.5t-52 -76.5q0 -24 17 -44.5t40.5 -34.5t62.5 -27.5t67.5 -21t70.5 -16.5l113 -24q30 -7 48 -11t52 -14
t57 -19.5t55 -25t53.5 -32.5t45 -41t38 -51t23.5 -62.5t9 -75.5q0 -169 -144.5 -270t-384.5 -101z" />
    <glyph glyph-name="uni0162" unicode="&#x162;" horiz-adv-x="1572" 
d="M944 0h-67l-97 -106q28 8 66 8q105 0 174.5 -54.5t69.5 -144.5q0 -101 -90.5 -162t-233.5 -61q-105 0 -193.5 34.5t-142.5 94.5l100 112q84 -96 228 -96q59 0 96 21.5t37 58.5q0 36 -36 57t-91 21q-62 0 -109 -29l-98 68l141 178h-69v1317h-596v280h1507v-280h-596v-1317
z" />
    <glyph glyph-name="uni0163" unicode="&#x163;" horiz-adv-x="1048" 
d="M981 1143v-260h-383v-416q0 -32 0.5 -48.5t4 -46.5t10 -47t20.5 -38.5t33.5 -33t50 -20t69.5 -8.5q95 0 195 41v-258q-97 -43 -254 -43q-39 0 -57 2l-66 -73q28 8 66 8q105 0 174 -54.5t69 -144.5q0 -101 -90 -162t-233 -61q-105 0 -193.5 34.5t-142.5 94.5l100 112
q84 -96 228 -96q59 0 96 21.5t37 58.5q0 36 -36 57t-91 21q-62 0 -109 -29l-98 68l137 174q-45 16 -81 40.5t-58.5 49t-38.5 58.5t-24 59.5t-12 61.5t-4.5 53.5t-0.5 46.5v518h-270v260h270v323h299v-323h383z" />
    <glyph glyph-name="Tcaron" unicode="&#x164;" horiz-adv-x="1572" 
d="M1001 2077h279l-338 -357h-311l-338 357h278q43 -32 120 -95t95 -77q36 28 106.5 85.5t108.5 86.5zM944 0h-315v1317h-596v280h1507v-280h-596v-1317z" />
    <glyph glyph-name="tcaron" unicode="&#x165;" horiz-adv-x="1048" 
d="M1169 1047h-178l189 288q-61 21 -93 65.5t-32 100.5q0 73 58 125.5t140 52.5q80 0 138.5 -52t58.5 -122q0 -15 -2 -29t-9 -31.5t-13 -31t-21.5 -38.5t-27.5 -43t-38 -54t-45.5 -62t-57.5 -78t-67 -91zM727 -35q-88 0 -158 17t-114 40.5t-76 63t-47 71t-23 78t-9 70
t-1 60.5v518h-270v260h270v323h299v-323h383v-260h-383v-416q0 -32 0.5 -48.5t4 -46.5t10 -47t20.5 -38.5t33.5 -33t50 -20t69.5 -8.5q95 0 195 41v-258q-97 -43 -254 -43z" />
    <glyph glyph-name="Tbar" unicode="&#x166;" horiz-adv-x="1572" 
d="M1540 1597v-280h-596v-397h354v-244h-354v-676h-315v676h-353v244h353v397h-596v280h1507z" />
    <glyph glyph-name="tbar" unicode="&#x167;" horiz-adv-x="1048" 
d="M981 1143v-260h-383v-187h373v-215h-373v-14q0 -32 0.5 -48.5t4 -46.5t10 -47t20.5 -38.5t33.5 -33t50 -20t69.5 -8.5q95 0 195 41v-258q-97 -43 -254 -43q-88 0 -158 17t-114 40.5t-76 63t-47 71t-23 78t-9 70t-1 60.5v116h-266v215h266v187h-270v260h270v323h299v-323
h383z" />
    <glyph glyph-name="Umacron" unicode="&#x16a;" horiz-adv-x="1835" 
d="M1358 1765h-881v213h881v-213zM915 -35q-168 0 -298 43t-207.5 109t-127 157t-67.5 176.5t-18 176.5v970h317v-946q0 -183 99 -291t305 -108q105 0 183.5 29.5t126 83.5t70.5 125.5t23 160.5v946h319v-970q0 -62 -8 -121.5t-30 -126.5t-56.5 -125t-91.5 -112.5
t-130.5 -92.5t-178.5 -61t-230 -23z" />
    <glyph glyph-name="umacron" unicode="&#x16b;" horiz-adv-x="1546" 
d="M1178 1331h-826v203h826v-203zM659 -35q-223 0 -358 119t-135 342v717h299v-619q0 -130 76 -207t202 -77q147 0 233.5 81.5t86.5 206.5v615h299v-787q0 -129 10.5 -203.5t34.5 -152.5h-301q-29 104 -27 139h-4q-138 -174 -416 -174z" />
    <glyph glyph-name="Uring" unicode="&#x16e;" horiz-adv-x="1835" 
d="M918 1710q-129 0 -217.5 72.5t-88.5 177.5t88.5 176.5t217.5 71.5q126 0 212.5 -71.5t86.5 -176.5q0 -108 -86 -179t-213 -71zM918 1868q49 0 82.5 27t33.5 65q0 36 -33.5 62t-82.5 26q-53 0 -87 -26t-34 -62q0 -39 34 -65.5t87 -26.5zM915 -35q-168 0 -298 43
t-207.5 109t-127 157t-67.5 176.5t-18 176.5v970h317v-946q0 -183 99 -291t305 -108q105 0 183.5 29.5t126 83.5t70.5 125.5t23 160.5v946h319v-970q0 -62 -8 -121.5t-30 -126.5t-56.5 -125t-91.5 -112.5t-130.5 -92.5t-178.5 -61t-230 -23z" />
    <glyph glyph-name="uring" unicode="&#x16f;" horiz-adv-x="1546" 
d="M766 1255q-128 0 -215.5 72.5t-87.5 177.5q0 106 87 177t216 71q127 0 214 -71.5t87 -176.5q0 -108 -87 -179t-214 -71zM766 1413q49 0 83 27t34 65q0 36 -34 62t-83 26q-52 0 -86.5 -26t-34.5 -62q0 -39 34.5 -65.5t86.5 -26.5zM659 -35q-223 0 -358 119t-135 342v717
h299v-619q0 -130 76 -207t202 -77q147 0 233.5 81.5t86.5 206.5v615h299v-787q0 -129 10.5 -203.5t34.5 -152.5h-301q-29 104 -27 139h-4q-138 -174 -416 -174z" />
    <glyph glyph-name="Uhungarumlaut" unicode="&#x170;" horiz-adv-x="1835" 
d="M1122 2079l-362 -359h-262l260 359h364zM1640 2079l-370 -359h-264l270 359h364zM915 -35q-168 0 -298 43t-207.5 109t-127 157t-67.5 176.5t-18 176.5v970h317v-946q0 -183 99 -291t305 -108q105 0 183.5 29.5t126 83.5t70.5 125.5t23 160.5v946h319v-970
q0 -62 -8 -121.5t-30 -126.5t-56.5 -125t-91.5 -112.5t-130.5 -92.5t-178.5 -61t-230 -23z" />
    <glyph glyph-name="uhungarumlaut" unicode="&#x171;" horiz-adv-x="1546" 
d="M948 1673l-368 -395h-254l268 395h354zM1473 1673l-381 -395h-254l278 395h357zM659 -35q-223 0 -358 119t-135 342v717h299v-619q0 -130 76 -207t202 -77q147 0 233.5 81.5t86.5 206.5v615h299v-787q0 -129 10.5 -203.5t34.5 -152.5h-301q-29 104 -27 139h-4
q-138 -174 -416 -174z" />
    <glyph glyph-name="Uogonek" unicode="&#x172;" horiz-adv-x="1835" 
d="M1321 651v946h319v-970q0 -80 -13.5 -155t-51.5 -159.5t-98 -150t-162.5 -117t-235.5 -70.5q-61 -25 -88.5 -62.5t-27.5 -70.5q0 -46 50 -84.5t140 -38.5q53 0 104 11v-174q-64 -19 -149 -19q-96 0 -175.5 25t-131 79.5t-51.5 131.5q0 113 133 192q-160 4 -284.5 49
t-198.5 111.5t-121.5 156t-64.5 173t-17 172.5v970h317v-946q0 -183 99 -291t305 -108q105 0 183.5 29.5t126 83.5t70.5 125.5t23 160.5z" />
    <glyph glyph-name="uogonek" unicode="&#x173;" horiz-adv-x="1546" 
d="M1116 -160q0 -47 47 -78.5t123 -31.5q64 0 113 16v-195q-63 -14 -139 -14q-152 0 -253.5 62t-101.5 176q0 76 56.5 135.5t150.5 89.5h-6q-29 104 -27 139h-4q-138 -174 -416 -174q-223 0 -358 119t-135 342v717h299v-619q0 -130 76 -207t202 -77q147 0 233.5 81.5
t86.5 206.5v615h299v-787q0 -129 10.5 -203.5t34.5 -152.5h-96q-99 -22 -147 -66.5t-48 -93.5z" />
    <glyph glyph-name="Wcircumflex" unicode="&#x174;" horiz-adv-x="2834" 
d="M1571 2077l342 -357h-279q-183 140 -215 166q-32 -27 -66.5 -54t-81.5 -62t-67 -50h-278l342 357h303zM987 0h-397l-563 1597h360q303 -861 406 -1167h4q54 146 206 547t232 620h362q83 -222 238.5 -629.5t204.5 -537.5h6q34 100 100 296t103.5 306.5t92.5 269.5t105 295
h361l-563 -1597h-396q-263 654 -430 1114h-4q-283 -765 -428 -1114z" />
    <glyph glyph-name="wcircumflex" unicode="&#x175;" horiz-adv-x="2285" 
d="M909 1278h-282l354 371h317l357 -371h-283q-171 145 -231 197q-44 -37 -128 -108.5t-104 -88.5zM831 0h-346l-465 1143h340l312 -772h8l330 772h268l330 -772h6l311 772h338l-461 -1143h-358q-164 384 -297 713h-6q-118 -280 -310 -713z" />
    <glyph glyph-name="Ycircumflex" unicode="&#x176;" horiz-adv-x="1716" 
d="M1012 2077l342 -357h-279q-183 140 -215 166q-32 -27 -66.5 -54t-81.5 -62t-67 -50h-278l342 357h303zM1016 0h-316v549q-89 135 -248.5 381t-283.5 437.5t-150 229.5h340q84 -125 249 -373.5t249 -373.5h4q46 70 133.5 202.5t168.5 254.5t196 290h340
q-79 -121 -215 -330.5t-251 -385.5t-216 -330v-551z" />
    <glyph glyph-name="ycircumflex" unicode="&#x177;" horiz-adv-x="1415" 
d="M471 1278h-283l355 371h317l357 -371h-283q-205 173 -232 197q-43 -36 -123 -105t-108 -92zM676 -451h-314l191 402l-537 1192h330q176 -372 365 -809h4q164 380 362 809h322z" />
    <glyph glyph-name="Ydieresis" unicode="&#x178;" horiz-adv-x="1716" 
d="M590 1731q-80 0 -135.5 51t-55.5 127q0 69 56 118.5t135 49.5q76 0 131 -49.5t55 -118.5q0 -76 -54.5 -127t-131.5 -51zM1128 1731q-80 0 -135 51t-55 127q0 69 55.5 118.5t134.5 49.5q76 0 130.5 -49.5t54.5 -118.5q0 -76 -54 -127t-131 -51zM1016 0h-316v549
q-89 135 -248.5 381t-283.5 437.5t-150 229.5h340q84 -125 249 -373.5t249 -373.5h4q46 70 133.5 202.5t168.5 254.5t196 290h340q-79 -121 -215 -330.5t-251 -385.5t-216 -330v-551z" />
    <glyph glyph-name="Zacute" unicode="&#x179;" horiz-adv-x="1652" 
d="M1350 2081l-396 -361h-272l287 361h381zM1567 0h-1483v285q519 504 1063 1030v4q-342 -2 -1028 -2v280h1429v-286q-74 -71 -469 -446.5t-604 -577.5v-4h1092v-283z" />
    <glyph glyph-name="zacute" unicode="&#x17a;" horiz-adv-x="1286" 
d="M1124 1657l-372 -379h-260l272 379h360zM1217 0h-1133v242l680 637h-658v264h1059v-244l-682 -637h734v-262z" />
    <glyph glyph-name="Zdotaccent" unicode="&#x17b;" horiz-adv-x="1652" 
d="M795 1755q-85 0 -141 51.5t-56 128.5q0 72 56.5 123t140.5 51q79 0 134.5 -51.5t55.5 -122.5q0 -76 -55 -128t-135 -52zM1567 0h-1483v285q519 504 1063 1030v4q-342 -2 -1028 -2v280h1429v-286q-74 -71 -469 -446.5t-604 -577.5v-4h1092v-283z" />
    <glyph glyph-name="zdotaccent" unicode="&#x17c;" horiz-adv-x="1286" 
d="M641 1315q-83 0 -139 52.5t-56 129.5q0 71 56.5 122.5t138.5 51.5q81 0 137 -51.5t56 -122.5q0 -77 -55.5 -129.5t-137.5 -52.5zM1217 0h-1133v242l680 637h-658v264h1059v-244l-682 -637h734v-262z" />
    <glyph glyph-name="Zcaron" unicode="&#x17d;" horiz-adv-x="1652" 
d="M1034 2077h279l-338 -357h-311l-338 357h278q43 -32 120 -95t95 -77q36 28 106.5 85.5t108.5 86.5zM1567 0h-1483v285q519 504 1063 1030v4q-342 -2 -1028 -2v280h1429v-286q-74 -71 -469 -446.5t-604 -577.5v-4h1092v-283z" />
    <glyph glyph-name="zcaron" unicode="&#x17e;" horiz-adv-x="1286" 
d="M799 1294h-318l-354 387h283q73 -62 231 -198q76 66 231 198h283zM1217 0h-1133v242l680 637h-658v264h1059v-244l-682 -637h734v-262z" />
    <glyph glyph-name="uni0218" unicode="&#x218;" horiz-adv-x="1605" 
d="M825 -35q-177 0 -328.5 54t-262.5 162t-158 257l297 97q27 -81 75 -140t109 -91.5t125.5 -47t138.5 -14.5q93 0 172.5 21.5t132 67t52.5 107.5q0 38 -21.5 69.5t-47.5 51.5t-79.5 40.5t-84 29t-95.5 25.5q-4 1 -6.5 1.5t-6 1.5t-6.5 2l-174 43q-514 127 -514 457
q0 140 89.5 249t237 165.5t325.5 56.5q167 0 308 -53.5t227.5 -136.5t121.5 -183l-291 -112q-47 99 -143.5 154t-233.5 55q-134 0 -221.5 -48.5t-87.5 -121.5q0 -28 13.5 -53t33 -44t52 -37.5t60 -30.5t68 -25t65 -20t60.5 -16l197 -53q42 -11 66 -17.5t69.5 -21t74.5 -27
t70 -33.5t68 -42.5t57 -52.5t47 -65t28.5 -78t11.5 -93q0 -219 -193.5 -364.5t-497.5 -145.5zM786 -649h-159l147 237q-54 20 -85.5 60.5t-31.5 87.5q0 67 51.5 111t125.5 44q75 0 124.5 -43t49.5 -108q0 -21 -5.5 -41.5t-13 -38.5t-29 -51.5t-39.5 -60.5t-59.5 -86.5
t-75.5 -110.5z" />
    <glyph glyph-name="uni0219" unicode="&#x219;" horiz-adv-x="1259" 
d="M649 -35q-222 0 -380 88t-208 234l279 86q44 -89 127.5 -130.5t179.5 -41.5q49 0 94 9t81 35t36 64q0 28 -16.5 49.5t-47 35.5t-61 23.5t-69.5 19.5q-7 1 -11.5 2.5t-9.5 2.5l-143 35q-53 13 -100.5 30t-99.5 46.5t-89 65t-61.5 87t-24.5 111.5q0 106 68.5 189
t181.5 126.5t250 43.5q193 0 330.5 -81t181.5 -208l-277 -86q-29 61 -92 101t-156 40q-82 0 -134 -29.5t-52 -76.5q0 -24 17 -44.5t40.5 -34.5t62.5 -27.5t67.5 -21t70.5 -16.5l113 -24q30 -7 48 -11t52 -14t57 -19.5t55 -25t53.5 -32.5t45 -41t38 -51t23.5 -62.5t9 -75.5
q0 -169 -144.5 -270t-384.5 -101zM600 -649h-160l148 237q-54 20 -85.5 60.5t-31.5 87.5q0 67 51 111t125 44q75 0 124.5 -43t49.5 -108q0 -21 -5.5 -41.5t-12.5 -38.5t-28.5 -51.5t-39.5 -60t-60 -87t-75 -110.5z" />
    <glyph glyph-name="uni021A" unicode="&#x21a;" horiz-adv-x="1572" 
d="M944 0h-315v1317h-596v280h1507v-280h-596v-1317zM743 -649h-159l147 237q-54 20 -85.5 60.5t-31.5 87.5q0 67 51.5 111t125.5 44q75 0 124.5 -43t49.5 -108q0 -21 -5.5 -41.5t-13 -38.5t-29 -51.5t-39.5 -60.5t-59.5 -86.5t-75.5 -110.5z" />
    <glyph glyph-name="uni021B" unicode="&#x21b;" horiz-adv-x="1048" 
d="M727 -35q-88 0 -158 17t-114 40.5t-76 63t-47 71t-23 78t-9 70t-1 60.5v518h-270v260h270v323h299v-323h383v-260h-383v-416q0 -32 0.5 -48.5t4 -46.5t10 -47t20.5 -38.5t33.5 -33t50 -20t69.5 -8.5q95 0 195 41v-258q-97 -43 -254 -43zM565 -649h-159l147 237
q-54 20 -85.5 60.5t-31.5 87.5q0 67 51 111t125 44q75 0 124.5 -43t49.5 -108q0 -21 -5.5 -41.5t-12.5 -38.5t-28.5 -51.5t-39.5 -60t-60 -87t-75 -110.5z" />
    <glyph glyph-name="gravecomb" unicode="&#x300;" horiz-adv-x="0" 
d="M-78 1278h-262l-373 379h361z" />
    <glyph glyph-name="acutecomb" unicode="&#x301;" horiz-adv-x="0" 
d="M55 1657l-372 -379h-261l273 379h360z" />
    <glyph glyph-name="uni0302" unicode="&#x302;" horiz-adv-x="0" 
d="M-770 1278h-283l355 371h317l356 -371h-282q-205 173 -232 197q-43 -36 -123 -105t-108 -92z" />
    <glyph glyph-name="tildecomb" unicode="&#x303;" horiz-adv-x="0" 
d="M-375 1319q-103 0 -178 47l-63 37q-55 35 -103 35q-46 0 -72 -29t-26 -72h-215q0 144 84.5 231t214.5 87q92 0 182 -49l59 -35q44 -27 95 -27q39 0 60.5 26t21.5 70h217q0 -155 -72.5 -238t-204.5 -83z" />
    <glyph glyph-name="uni0304" unicode="&#x304;" horiz-adv-x="0" 
d="M-111 1315h-825v203h825v-203z" />
    <glyph glyph-name="uni0306" unicode="&#x306;" horiz-adv-x="0" 
d="M-506 1268q-207 0 -330 109.5t-131 285.5h248q2 -77 60.5 -133.5t160.5 -56.5q101 0 160 55.5t62 134.5h247q-8 -176 -134.5 -285.5t-342.5 -109.5z" />
    <glyph glyph-name="uni0307" unicode="&#x307;" horiz-adv-x="0" 
d="M-299 1298q-83 0 -139 53t-56 130q0 71 56.5 122.5t138.5 51.5q81 0 137 -51.5t56 -122.5q0 -77 -55.5 -130t-137.5 -53z" />
    <glyph glyph-name="uni0308" unicode="&#x308;" horiz-adv-x="0" 
d="M-934 1300q-75 0 -126.5 48.5t-51.5 117.5q0 65 52 111.5t126 46.5q73 0 124.5 -46.5t51.5 -111.5q0 -69 -51.5 -117.5t-124.5 -48.5zM-408 1300q-76 0 -127 48t-51 118q0 65 51 111.5t127 46.5q72 0 124.5 -47t52.5 -111q0 -69 -52.5 -117.5t-124.5 -48.5z" />
    <glyph glyph-name="uni030A" unicode="&#x30a;" horiz-adv-x="0" 
d="M-336 1255q-128 0 -215.5 72.5t-87.5 177.5q0 106 87 177t216 71q127 0 214 -71.5t87 -176.5q0 -108 -87 -179t-214 -71zM-336 1413q49 0 83 27t34 65q0 36 -34 62t-83 26q-52 0 -86.5 -26t-34.5 -62q0 -39 34.5 -65.5t86.5 -26.5z" />
    <glyph glyph-name="uni030B" unicode="&#x30b;" horiz-adv-x="0" 
d="M-420 1673l-368 -395h-254l268 395h354zM104 1673l-380 -395h-254l278 395h356z" />
    <glyph glyph-name="uni030C" unicode="&#x30c;" horiz-adv-x="0" 
d="M-381 1278h-317l-355 387h283q47 -40 129 -111t102 -88q83 72 232 199h282z" />
    <glyph glyph-name="uni0312" unicode="&#x312;" horiz-adv-x="0" 
d="M-492 1270q0 21 5.5 41.5t13 38.5t30.5 53t41.5 62t63 90.5t80.5 115.5h172l-164 -250q109 -50 109 -149q0 -66 -50.5 -111t-125.5 -45q-73 0 -124 44.5t-51 109.5z" />
    <glyph glyph-name="uni0326" unicode="&#x326;" horiz-adv-x="0" 
d="M-383 -649h-160l148 237q-54 20 -85.5 60.5t-31.5 87.5q0 67 51 111t125 44q75 0 124.5 -43t49.5 -108q0 -21 -5.5 -41.5t-12.5 -38.5t-28.5 -51.5t-39.5 -60t-60 -87t-75 -110.5z" />
    <glyph glyph-name="uni0327" unicode="&#x327;" horiz-adv-x="0" 
d="M-770 -520q-105 0 -193.5 34.5t-142.5 94.5l100 112q84 -96 228 -96q59 0 96 21.5t37 58.5q0 36 -36 57t-91 21q-62 0 -109 -29l-98 68l141 178h179l-97 -106q28 8 66 8q105 0 174.5 -54.5t69.5 -144.5q0 -101 -90.5 -162t-233.5 -61z" />
    <glyph glyph-name="uni0328" unicode="&#x328;" horiz-adv-x="0" 
d="M-764 -483q-152 0 -253 61.5t-101 175.5q0 76 56.5 136t150.5 90h198q-99 -21 -146.5 -66t-47.5 -94q0 -47 47 -79t123 -32q60 0 112 17v-195q-63 -14 -139 -14z" />
    <glyph glyph-name="uni0335" unicode="&#x335;" horiz-adv-x="0" 
d="M-979 682h938v-215h-938v215z" />
    <glyph glyph-name="uni0337" unicode="&#x337;" horiz-adv-x="0" 
d="M-631 420v248l766 481v-248z" />
    <glyph glyph-name="uni0338" unicode="&#x338;" horiz-adv-x="0" 
d="M-1159 -66h-326l1118 1246h318z" />
    <glyph glyph-name="Wgrave" unicode="&#x1e80;" horiz-adv-x="2834" 
d="M1587 1720h-272l-395 361h380zM987 0h-397l-563 1597h360q303 -861 406 -1167h4q54 146 206 547t232 620h362q83 -222 238.5 -629.5t204.5 -537.5h6q34 100 100 296t103.5 306.5t92.5 269.5t105 295h361l-563 -1597h-396q-263 654 -430 1114h-4q-283 -765 -428 -1114z
" />
    <glyph glyph-name="wgrave" unicode="&#x1e81;" horiz-adv-x="2285" 
d="M1280 1278h-262l-373 379h361zM831 0h-346l-465 1143h340l312 -772h8l330 772h268l330 -772h6l311 772h338l-461 -1143h-358q-164 384 -297 713h-6q-118 -280 -310 -713z" />
    <glyph glyph-name="Wacute" unicode="&#x1e82;" horiz-adv-x="2834" 
d="M1948 2081l-396 -361h-272l287 361h381zM987 0h-397l-563 1597h360q303 -861 406 -1167h4q54 146 206 547t232 620h362q83 -222 238.5 -629.5t204.5 -537.5h6q34 100 100 296t103.5 306.5t92.5 269.5t105 295h361l-563 -1597h-396q-263 654 -430 1114h-4
q-283 -765 -428 -1114z" />
    <glyph glyph-name="wacute" unicode="&#x1e83;" horiz-adv-x="2285" 
d="M1624 1657l-373 -379h-260l273 379h360zM831 0h-346l-465 1143h340l312 -772h8l330 772h268l330 -772h6l311 772h338l-461 -1143h-358q-164 384 -297 713h-6q-118 -280 -310 -713z" />
    <glyph glyph-name="Wdieresis" unicode="&#x1e84;" horiz-adv-x="2834" 
d="M1149 1731q-80 0 -135.5 51t-55.5 127q0 69 56 118.5t135 49.5q76 0 131 -49.5t55 -118.5q0 -76 -54.5 -127t-131.5 -51zM1688 1731q-80 0 -135.5 51t-55.5 127q0 69 56 118.5t135 49.5q76 0 130 -49.5t54 -118.5q0 -76 -53.5 -127t-130.5 -51zM987 0h-397l-563 1597h360
q303 -861 406 -1167h4q54 146 206 547t232 620h362q83 -222 238.5 -629.5t204.5 -537.5h6q34 100 100 296t103.5 306.5t92.5 269.5t105 295h361l-563 -1597h-396q-263 654 -430 1114h-4q-283 -765 -428 -1114z" />
    <glyph glyph-name="wdieresis" unicode="&#x1e85;" horiz-adv-x="2285" 
d="M879 1300q-75 0 -127 48.5t-52 117.5q0 65 52 111.5t127 46.5q73 0 124.5 -46.5t51.5 -111.5q0 -69 -51.5 -117.5t-124.5 -48.5zM1405 1300q-76 0 -127 48t-51 118q0 65 51 111.5t127 46.5q72 0 124 -46.5t52 -111.5q0 -69 -52 -117.5t-124 -48.5zM831 0h-346l-465 1143
h340l312 -772h8l330 772h268l330 -772h6l311 772h338l-461 -1143h-358q-164 384 -297 713h-6q-118 -280 -310 -713z" />
    <glyph glyph-name="uni1E9E" unicode="&#x1e9e;" horiz-adv-x="1875" 
d="M512 0h-319v891q0 739 751 739q226 0 393.5 -64.5t251.5 -172t84 -242.5q0 -133 -81.5 -223.5t-221.5 -116.5v-8q105 -5 195.5 -48t150.5 -128t60 -195q0 -41 -8.5 -80.5t-30 -83.5t-55 -82t-88 -72.5t-124 -59.5t-167 -39.5t-213.5 -14.5h-252v279h284q163 0 240.5 48
t77.5 126q0 85 -86.5 130.5t-235.5 45.5h-141v278h98q36 0 78 11.5t85.5 34.5t72 67t28.5 100q0 112 -107.5 173t-283.5 61q-124 0 -212 -33t-130.5 -74.5t-65 -108t-25.5 -102t-3 -88.5v-2v-946z" />
    <glyph glyph-name="Ygrave" unicode="&#x1ef2;" horiz-adv-x="1716" 
d="M1028 1720h-272l-396 361h381zM1016 0h-316v549q-89 135 -248.5 381t-283.5 437.5t-150 229.5h340q84 -125 249 -373.5t249 -373.5h4q46 70 133.5 202.5t168.5 254.5t196 290h340q-79 -121 -215 -330.5t-251 -385.5t-216 -330v-551z" />
    <glyph glyph-name="ygrave" unicode="&#x1ef3;" horiz-adv-x="1415" 
d="M842 1278h-262l-373 379h360zM676 -451h-314l191 402l-537 1192h330q176 -372 365 -809h4q164 380 362 809h322z" />
    <glyph glyph-name="uni2000" unicode="&#x2000;" horiz-adv-x="1228" 
 />
    <glyph glyph-name="uni2001" unicode="&#x2001;" 
 />
    <glyph glyph-name="uni2002" unicode="&#x2002;" horiz-adv-x="1228" 
 />
    <glyph glyph-name="uni2003" unicode="&#x2003;" 
 />
    <glyph glyph-name="uni2004" unicode="&#x2004;" horiz-adv-x="819" 
 />
    <glyph glyph-name="uni2005" unicode="&#x2005;" horiz-adv-x="614" 
 />
    <glyph glyph-name="uni2006" unicode="&#x2006;" horiz-adv-x="409" 
 />
    <glyph glyph-name="uni2007" unicode="&#x2007;" horiz-adv-x="608" 
 />
    <glyph glyph-name="uni2008" unicode="&#x2008;" horiz-adv-x="632" 
 />
    <glyph glyph-name="uni2009" unicode="&#x2009;" horiz-adv-x="307" 
 />
    <glyph glyph-name="uni200A" unicode="&#x200a;" horiz-adv-x="102" 
 />
    <glyph glyph-name="uni200B" unicode="&#x200b;" horiz-adv-x="0" 
 />
    <glyph glyph-name="endash" unicode="&#x2013;" horiz-adv-x="1214" 
d="M1069 502h-924v243h924v-243z" />
    <glyph glyph-name="emdash" unicode="&#x2014;" horiz-adv-x="1724" 
d="M1581 514h-1440v219h1440v-219z" />
    <glyph glyph-name="quoteleft" unicode="&#x2018;" horiz-adv-x="624" 
d="M373 1636h170l-181 -288q60 -21 92.5 -66t32.5 -100q0 -74 -58.5 -126t-141.5 -52q-79 0 -137 51.5t-58 122.5q0 56 37 117.5t174 245.5q44 60 70 95z" />
    <glyph glyph-name="quoteright" unicode="&#x2019;" horiz-adv-x="641" 
d="M289 1030h-178l188 289q-61 23 -93 67.5t-32 98.5q0 73 58.5 125.5t140.5 52.5q80 0 138 -51t58 -123q0 -55 -39 -120.5t-166 -237.5q-48 -64 -75 -101z" />
    <glyph glyph-name="quotesinglbase" unicode="&#x201a;" horiz-adv-x="620" 
d="M229 -283h-170l181 289q-60 23 -92.5 67.5t-32.5 98.5q0 73 59 125.5t141 52.5q80 0 138.5 -51t58.5 -123q0 -55 -37.5 -117t-167.5 -237q-49 -66 -78 -105z" />
    <glyph glyph-name="quotedblleft" unicode="&#x201c;" horiz-adv-x="1120" 
d="M373 1636h170l-181 -288q60 -21 92.5 -66t32.5 -100q0 -74 -58.5 -126t-141.5 -52q-79 0 -137 51.5t-58 122.5q0 56 37 117.5t174 245.5q44 60 70 95zM817 1636h170l-180 -288q60 -21 92.5 -66t32.5 -100q0 -74 -59 -126t-142 -52q-79 0 -136.5 51.5t-57.5 122.5
q0 57 39.5 122t176.5 250q13 17 20.5 27.5t20 27t23.5 31.5z" />
    <glyph glyph-name="quotedblright" unicode="&#x201d;" horiz-adv-x="1134" 
d="M283 1030h-170l180 289q-60 23 -92.5 67.5t-32.5 98.5q0 74 59 126t142 52q80 0 138 -51t58 -123q0 -56 -38 -119t-172 -243q-46 -62 -72 -97zM782 1030h-170l179 289q-59 23 -91 67t-32 99q0 74 58.5 126t141.5 52q78 0 135.5 -51t57.5 -123q0 -16 -2 -30t-8.5 -31.5
t-13 -31.5t-22 -38.5t-27.5 -43t-37.5 -54t-45.5 -62t-57 -77.5t-66 -91z" />
    <glyph glyph-name="quotedblbase" unicode="&#x201e;" horiz-adv-x="1120" 
d="M229 -258h-170l181 289q-60 21 -92.5 66t-32.5 100q0 73 59 125.5t141 52.5q80 0 138.5 -52t58.5 -122q0 -55 -37.5 -117t-167.5 -237q-49 -66 -78 -105zM729 -258h-170l178 289q-59 21 -91 65.5t-32 100.5q0 74 59 126t142 52q78 0 135.5 -52t57.5 -122
q0 -57 -37.5 -119.5t-165.5 -236.5q-16 -21 -24.5 -33t-23.5 -32t-28 -38z" />
    <glyph glyph-name="dagger" unicode="&#x2020;" horiz-adv-x="1220" 
d="M729 1331h391v-213h-391v-690h-254v690h-375v213h375v307h254v-307z" />
    <glyph glyph-name="daggerdbl" unicode="&#x2021;" horiz-adv-x="1292" 
d="M1145 1331v-213h-369v-233h369v-213h-369v-307h-254v307h-375v213h375v233h-375v213h375v307h254v-307h369z" />
    <glyph glyph-name="bullet" unicode="&#x2022;" horiz-adv-x="1062" 
d="M530 442q-140 0 -240 93.5t-100 226.5q0 125 100.5 215t239.5 90q136 0 234 -90t98 -215q0 -133 -97.5 -226.5t-234.5 -93.5z" />
    <glyph glyph-name="ellipsis" unicode="&#x2026;" horiz-adv-x="1824" 
d="M317 -14q-82 0 -140 54t-58 132q0 73 58 125.5t140 52.5q81 0 138 -52t57 -126q0 -78 -56.5 -132t-138.5 -54zM836 -14q-82 0 -140.5 54t-58.5 132q0 73 58.5 125.5t140.5 52.5q80 0 137 -52.5t57 -125.5q0 -78 -57 -132t-137 -54zM1511 -14q-82 0 -140 54t-58 132
q0 73 58 125.5t140 52.5q80 0 137.5 -52.5t57.5 -125.5q0 -78 -57.5 -132t-137.5 -54z" />
    <glyph glyph-name="uni202F" unicode="&#x202f;" horiz-adv-x="450" 
 />
    <glyph glyph-name="perthousand" unicode="&#x2030;" horiz-adv-x="3168" 
d="M446 715q-170 0 -271 114.5t-101 300.5q0 187 101 302.5t271 115.5q169 0 270 -117t101 -301t-100.5 -299.5t-270.5 -115.5zM592 0h-281l1366 1468h273zM446 928q117 0 117 202q0 205 -117 205q-118 0 -118 -205q0 -202 118 -202zM1833 -29q-170 0 -271.5 115t-101.5 301
t101.5 302t271.5 116q169 0 270 -117t101 -301t-101 -300t-270 -116zM2724 -29q-170 0 -271.5 115t-101.5 301t101.5 302t271.5 116q169 0 270 -117t101 -301t-101 -300t-270 -116zM1833 184q117 0 117 203q0 205 -117 205q-119 0 -119 -205q0 -203 119 -203zM2724 184
q117 0 117 203q0 205 -117 205q-119 0 -119 -205q0 -203 119 -203z" />
    <glyph glyph-name="guilsinglleft" unicode="&#x2039;" horiz-adv-x="1015" 
d="M872 164h-346l-415 405v9l415 405h346l-415 -405v-9z" />
    <glyph glyph-name="guilsinglright" unicode="&#x203a;" horiz-adv-x="1015" 
d="M489 164h-346l416 405v9l-416 405h346l416 -405v-9z" />
    <glyph glyph-name="fraction" unicode="&#x2044;" horiz-adv-x="495" 
d="M-299 0h-281l1366 1468h273z" />
    <glyph glyph-name="uni205F" unicode="&#x205f;" horiz-adv-x="544" 
 />
    <glyph glyph-name="uni2070" unicode="&#x2070;" horiz-adv-x="890" 
d="M446 715q-170 0 -271 114.5t-101 300.5q0 187 101 302.5t271 115.5q169 0 270 -117t101 -301t-100.5 -299.5t-270.5 -115.5zM446 928q117 0 117 202q0 205 -117 205q-118 0 -118 -205q0 -202 118 -202z" />
    <glyph glyph-name="uni2074" unicode="&#x2074;" horiz-adv-x="882" 
d="M707 733h-232v139h-428v179l434 481h226v-469h110v-191h-110v-139zM475 1241l-199 -178h199v178z" />
    <glyph glyph-name="uni2075" unicode="&#x2075;" horiz-adv-x="862" 
d="M412 715q-130 0 -230.5 44t-136.5 138l213 102q46 -90 156 -90q59 0 93 27.5t34 69.5q0 45 -35.5 71.5t-89.5 26.5q-43 0 -77 -19t-48 -43l-199 43l113 447h530v-184h-358l-45 -134h2q60 52 178 52q52 0 100 -14t90 -42.5t67.5 -79.5t25.5 -118q0 -139 -110 -218
t-273 -79z" />
    <glyph glyph-name="uni2076" unicode="&#x2076;" horiz-adv-x="894" 
d="M453 715q-173 0 -277 95t-104 275q0 201 128.5 332t336.5 131q78 0 153 -24t121 -74l-123 -152q-63 58 -158 58q-88 0 -146 -43.5t-73 -114.5h4q29 29 83.5 43t111.5 14q131 0 222 -69.5t91 -186.5q0 -123 -103 -203.5t-267 -80.5zM465 905q57 0 95 28.5t38 72.5t-37 71
t-92 27q-60 0 -97.5 -27.5t-37.5 -70.5t38 -72t93 -29z" />
    <glyph glyph-name="uni2077" unicode="&#x2077;" horiz-adv-x="724" 
d="M430 733h-256q0 87 20.5 187t77 219t140.5 200h-373v189h655v-191q-74 -54 -128 -130t-82 -159t-41 -160.5t-13 -154.5z" />
    <glyph glyph-name="uni2078" unicode="&#x2078;" horiz-adv-x="876" 
d="M436 715q-171 0 -269.5 71t-98.5 172q0 74 48.5 128t108.5 65v4q-114 60 -114 160q0 103 94 168t231 65q136 0 232 -64t96 -177q0 -103 -115 -152v-4q63 -13 111.5 -64t48.5 -124q0 -103 -100.5 -175.5t-272.5 -72.5zM438 1235q46 0 76.5 22.5t30.5 53.5q0 32 -29.5 51.5
t-77.5 19.5q-45 0 -74.5 -19.5t-29.5 -51.5t30 -54t74 -22zM438 915q54 0 89.5 24t35.5 62t-34 62t-91 24q-54 0 -88.5 -24t-34.5 -62t35 -62t88 -24z" />
    <glyph glyph-name="uni2079" unicode="&#x2079;" horiz-adv-x="899" 
d="M391 715q-92 0 -178 26.5t-135 79.5l123 150q38 -33 92 -51.5t102 -18.5q87 0 134.5 49.5t54.5 120.5h-4q-56 -59 -201 -59q-128 0 -216.5 67.5t-88.5 182.5q0 125 101.5 205.5t268.5 80.5q171 0 276 -94.5t105 -286.5q0 -197 -112.5 -324.5t-321.5 -127.5zM428 1167
q59 0 97 28.5t38 72.5t-37.5 72t-93.5 28q-60 0 -97.5 -28t-37.5 -74q0 -44 37 -71.5t94 -27.5z" />
    <glyph glyph-name="uni2080" unicode="&#x2080;" horiz-adv-x="890" 
d="M446 -285q-170 0 -271 115t-101 301q0 187 101 302.5t271 115.5q169 0 270 -117t101 -301t-101 -300t-270 -116zM446 -72q117 0 117 203q0 205 -117 205q-118 0 -118 -205q0 -203 118 -203z" />
    <glyph glyph-name="uni2081" unicode="&#x2081;" horiz-adv-x="618" 
d="M485 -266h-237v459q-91 -60 -195 -82v245q90 26 143.5 75t53.5 101h235v-798z" />
    <glyph glyph-name="uni2082" unicode="&#x2082;" horiz-adv-x="854" 
d="M766 -266h-672v28q1 146 61.5 226.5t227.5 173.5q8 5 32.5 18t38.5 22t32 22.5t27 28t9 30.5q0 27 -26.5 43t-71.5 16q-64 0 -102 -34.5t-39 -96.5l-222 33q0 137 105.5 221t263.5 84q145 0 243.5 -72.5t98.5 -187.5q0 -73 -44 -129.5t-116 -89.5q-6 -3 -44 -19
t-50.5 -22.5t-38.5 -21.5t-41 -30t-24 -32h352v-211z" />
    <glyph glyph-name="uni2083" unicode="&#x2083;" horiz-adv-x="860" 
d="M416 -287q-136 0 -238.5 53t-130.5 132l211 102q49 -94 158 -94q50 0 82 18.5t32 55.5q0 24 -11 40t-32.5 23t-41.5 9.5t-48 2.5h-90v158h92q50 0 86.5 18.5t36.5 53.5q0 29 -31.5 49t-78.5 20q-50 0 -83.5 -26t-39.5 -70l-219 47q13 101 113.5 172.5t250.5 71.5
q137 0 232.5 -59t95.5 -156q0 -61 -38.5 -110.5t-100.5 -59.5v-2q67 -11 116 -61.5t49 -118.5q0 -47 -23.5 -93.5t-67.5 -86t-117.5 -64.5t-163.5 -25z" />
    <glyph glyph-name="uni2084" unicode="&#x2084;" horiz-adv-x="882" 
d="M707 -266h-232v139h-428v178l434 481h226v-469h110v-190h-110v-139zM475 242l-199 -179h199v179z" />
    <glyph glyph-name="uni2085" unicode="&#x2085;" horiz-adv-x="862" 
d="M412 -285q-130 0 -230.5 44.5t-136.5 138.5l213 102q46 -90 156 -90q59 0 93 27.5t34 68.5q0 45 -35.5 71.5t-89.5 26.5q-43 0 -77 -19t-48 -42l-199 43l113 446h530v-184h-358l-45 -133h2q59 51 178 51q52 0 100 -14t90 -42.5t67.5 -79.5t25.5 -118q0 -139 -110 -218
t-273 -79z" />
    <glyph glyph-name="uni2086" unicode="&#x2086;" horiz-adv-x="894" 
d="M453 -285q-173 0 -277 95t-104 276q0 201 128.5 332t336.5 131q78 0 153 -24t121 -74l-123 -152q-62 57 -158 57q-89 0 -146.5 -43t-72.5 -114h4q29 29 83.5 43t111.5 14q131 0 222 -69.5t91 -186.5q0 -123 -103 -204t-267 -81zM465 -94q57 0 95 28t38 72t-37 71t-92 27
q-60 0 -97.5 -27.5t-37.5 -70.5t37.5 -71.5t93.5 -28.5z" />
    <glyph glyph-name="uni2087" unicode="&#x2087;" horiz-adv-x="724" 
d="M430 -266h-256q0 87 20.5 187t77 219t140.5 200h-373v188h655v-190q-74 -54 -128 -130t-82 -159t-41 -160.5t-13 -154.5z" />
    <glyph glyph-name="uni2088" unicode="&#x2088;" horiz-adv-x="876" 
d="M436 -285q-171 0 -269.5 71.5t-98.5 172.5q0 74 48.5 128t108.5 65v4q-114 60 -114 159q0 104 94 169t231 65q136 0 232 -64.5t96 -177.5q0 -102 -115 -151v-4q63 -13 111.5 -64.5t48.5 -124.5q0 -103 -100.5 -175.5t-272.5 -72.5zM438 236q46 0 76.5 22t30.5 53
q0 32 -30 52t-77 20q-45 0 -74.5 -20t-29.5 -52t30 -53.5t74 -21.5zM438 -84q54 0 89.5 24t35.5 62t-34 62t-91 24q-54 0 -88.5 -24t-34.5 -62t35 -62t88 -24z" />
    <glyph glyph-name="uni2089" unicode="&#x2089;" horiz-adv-x="899" 
d="M391 -285q-91 0 -177.5 26.5t-135.5 80.5l123 149q37 -33 91.5 -51t102.5 -18q87 0 134.5 49.5t54.5 120.5h-4q-57 -60 -201 -60q-128 0 -216.5 67.5t-88.5 182.5q0 125 102 206t268 81q171 0 276 -94.5t105 -286.5q0 -95 -27.5 -176.5t-80 -143.5t-136.5 -97.5
t-190 -35.5zM428 168q59 0 97 28t38 72t-37.5 72.5t-93.5 28.5q-60 0 -97.5 -28.5t-37.5 -74.5q0 -44 36.5 -71t94.5 -27z" />
    <glyph glyph-name="Euro" unicode="&#x20ac;" horiz-adv-x="2011" 
d="M1737 360l180 -204q-126 -100 -293 -145.5t-326 -45.5q-335 0 -571 154t-319 416h-285v145h254q-6 52 -6 108q0 30 4 84h-252v146h278q76 272 315 436t576 164q403 0 619 -191l-221 -210q-158 114 -400 114q-206 0 -346.5 -79.5t-198.5 -233.5h680v-146h-714
q-4 -54 -4 -81q0 -64 8 -111h710v-145h-667q64 -140 202.5 -211.5t335.5 -71.5q269 0 441 108z" />
    <glyph glyph-name="trademark" unicode="&#x2122;" horiz-adv-x="1918" 
d="M502 913h-170v557h-250v146h670v-146h-250v-557zM1044 913h-172v703h177q44 -80 135.5 -252.5t120.5 -226.5q29 54 120.5 226.5t135.5 252.5h174v-703h-172v387q-21 -39 -100.5 -185.5t-106.5 -199.5h-105q-19 38 -207 385v-387z" />
    <glyph glyph-name="oneeighth" unicode="&#x215b;" horiz-adv-x="1992" 
d="M485 733h-237v459q-91 -60 -195 -82v246q90 26 143.5 75t53.5 101h235v-799zM319 0h-280l1366 1468h272zM1550 -29q-171 0 -269.5 71.5t-98.5 172.5q0 74 48.5 128t108.5 65v4q-114 60 -114 159q0 104 94 169t231 65q136 0 232 -64.5t96 -177.5q0 -102 -115 -151v-4
q63 -13 111.5 -64.5t48.5 -124.5q0 -103 -100.5 -175.5t-272.5 -72.5zM1552 492q46 0 76.5 22t30.5 53q0 32 -30 52t-77 20q-45 0 -74.5 -20t-29.5 -52t30 -53.5t74 -21.5zM1552 172q54 0 89.5 24t35.5 62t-34 62t-91 24q-54 0 -88 -24t-34 -62t34.5 -62t87.5 -24z" />
    <glyph glyph-name="threeeighths" unicode="&#x215c;" horiz-adv-x="2234" 
d="M416 713q-136 0 -238.5 52.5t-130.5 131.5l211 102q49 -94 158 -94q50 0 82 18.5t32 55.5q0 24 -11 40t-32.5 23.5t-41.5 10t-48 2.5h-90v157h92q50 0 86.5 18.5t36.5 53.5q0 29 -31.5 49.5t-78.5 20.5q-50 0 -83.5 -26.5t-39.5 -70.5l-219 48q12 101 113 172t251 71
q137 0 232.5 -59t95.5 -156q0 -61 -38.5 -110.5t-100.5 -59.5v-2q67 -11 116 -61.5t49 -118.5q0 -47 -23.5 -93t-67.5 -86t-117.5 -64.5t-163.5 -24.5zM561 0h-280l1366 1468h272zM1792 -29q-171 0 -270 71.5t-99 172.5q0 73 49 127.5t109 65.5v4q-115 61 -115 159
q0 103 94.5 168.5t231.5 65.5q136 0 232 -64.5t96 -177.5q0 -102 -115 -151v-4q63 -13 111.5 -64.5t48.5 -124.5q0 -103 -100.5 -175.5t-272.5 -72.5zM1794 492q46 0 76.5 22t30.5 53q0 32 -30 52t-77 20q-45 0 -74.5 -20t-29.5 -52t30 -53.5t74 -21.5zM1794 172
q54 0 89.5 24t35.5 62t-34 62t-91 24q-54 0 -88.5 -24t-34.5 -62t35 -62t88 -24z" />
    <glyph glyph-name="fiveeighths" unicode="&#x215d;" horiz-adv-x="2234" 
d="M412 715q-130 0 -230.5 44t-136.5 138l213 102q46 -90 156 -90q59 0 93 27.5t34 69.5q0 45 -35.5 71.5t-89.5 26.5q-43 0 -77 -19t-48 -43l-199 43l113 447h530v-184h-358l-45 -134h2q60 52 178 52q52 0 100 -14t90 -42.5t67.5 -79.5t25.5 -118q0 -139 -110 -218
t-273 -79zM563 0h-280l1366 1468h272zM1794 -29q-171 0 -270 71.5t-99 172.5q0 73 49 127.5t109 65.5v4q-115 61 -115 159q0 103 94.5 168.5t231.5 65.5q136 0 232 -64.5t96 -177.5q0 -102 -115 -151v-4q63 -13 111.5 -64.5t48.5 -124.5q0 -103 -100.5 -175.5t-272.5 -72.5z
M1796 492q46 0 76.5 22t30.5 53q0 32 -30 52t-77 20q-45 0 -74.5 -20t-29.5 -52t30 -53.5t74 -21.5zM1796 172q54 0 89.5 24t35.5 62t-34 62t-91 24q-54 0 -88.5 -24t-34.5 -62t35 -62t88 -24z" />
    <glyph glyph-name="seveneighths" unicode="&#x215e;" horiz-adv-x="2099" 
d="M430 733h-256q0 87 20.5 187t77 219t140.5 200h-373v189h655v-191q-74 -54 -128 -130t-82 -159t-41 -160.5t-13 -154.5zM426 0h-281l1366 1468h273zM1657 -29q-171 0 -270 71.5t-99 172.5q0 73 49 127.5t109 65.5v4q-115 61 -115 159q0 103 94.5 168.5t231.5 65.5
q136 0 232 -64.5t96 -177.5q0 -102 -115 -151v-4q63 -13 111.5 -64.5t48.5 -124.5q0 -103 -100.5 -175.5t-272.5 -72.5zM1659 492q46 0 76 22t30 53q0 32 -29.5 52t-76.5 20q-45 0 -75 -20t-30 -52t30.5 -53.5t74.5 -21.5zM1659 172q54 0 89.5 24t35.5 62t-34 62t-91 24
q-54 0 -88.5 -24t-34.5 -62t35 -62t88 -24z" />
    <glyph glyph-name="arrowleft" unicode="&#x2190;" horiz-adv-x="1667" 
d="M510 760h1024v-230h-1026l303 -294h-287l-407 405v8l407 406h287z" />
    <glyph glyph-name="arrowup" unicode="&#x2191;" horiz-adv-x="1193" 
d="M600 1202l487 -340v-266l-368 262v-838h-246v836l-369 -260v266l488 340h8z" />
    <glyph glyph-name="arrowright" unicode="&#x2192;" horiz-adv-x="1667" 
d="M856 1055h287l407 -406v-8l-407 -405h-287l303 294h-1026v230h1024z" />
    <glyph glyph-name="arrowdown" unicode="&#x2193;" horiz-adv-x="1193" 
d="M721 1202v-837l369 262v-267l-488 -340h-8l-488 340v267l369 -262v837h246z" />
    <glyph glyph-name="arrowboth" unicode="&#x2194;" horiz-adv-x="2097" 
d="M805 236h-287l-407 405v8l407 406h287l-326 -305h1137l-324 305h287l408 -406v-8l-408 -405h-287l324 303h-1135z" />
    <glyph glyph-name="arrowupdn" unicode="&#x2195;" horiz-adv-x="1282" 
d="M645 10h-8l-487 309v238l368 -215v719l-368 -230v248l487 307h8l488 -307v-248l-369 230v-721l369 217v-238z" />
    <glyph glyph-name="uni2196" unicode="&#x2196;" horiz-adv-x="1251" 
d="M1042 1036l134 -231l-449 41l418 -723l-213 -123l-418 725l-188 -412l-133 232l251 536l7 4z" />
    <glyph glyph-name="uni2197" unicode="&#x2197;" horiz-adv-x="1251" 
d="M809 1081l252 -536l-133 -232l-189 414l-420 -727l-213 123l418 723l-448 -41l133 231l592 49z" />
    <glyph glyph-name="uni2198" unicode="&#x2198;" horiz-adv-x="1249" 
d="M737 496l189 411l133 -229l-252 -539l-8 -4l-592 51l-133 230l450 -41l-420 725l213 123z" />
    <glyph glyph-name="uni2199" unicode="&#x2199;" horiz-adv-x="1249" 
d="M1145 1100l-420 -725l451 41l-134 -230l-591 -51l-7 4l-251 539l133 229l186 -409l420 725z" />
    <glyph glyph-name="emptyset" unicode="&#x2205;" horiz-adv-x="1724" 
d="M1528 1184l-150 -174q99 -83 153 -196t54 -245q0 -130 -53.5 -242.5t-148.5 -192t-229.5 -124.5t-291.5 -45q-175 0 -325 58l-158 -187l-178 115l149 176q-101 83 -156 196t-55 246q0 174 92 312.5t257.5 216.5t375.5 78q180 0 328 -60l154 180zM449 569q0 -127 94 -215
l452 533q-72 14 -131 14q-181 0 -298 -94.5t-117 -237.5zM864 240q179 0 295.5 93.5t116.5 235.5q0 125 -90 215l-451 -530q57 -14 129 -14z" />
    <glyph glyph-name="minus" unicode="&#x2212;" horiz-adv-x="1275" 
d="M1124 516h-972v221h972v-221z" />
    <glyph glyph-name="infinity" unicode="&#x221e;" horiz-adv-x="2150" 
d="M578 283q-195 0 -319 96.5t-124 245.5q0 96 63 175.5t164.5 123t215.5 43.5q116 0 220 -46t277 -173q176 127 280 173t216 46q195 0 319.5 -96.5t124.5 -245.5t-124.5 -245.5t-319.5 -96.5q-122 0 -226 47t-268 172q-160 -131 -265 -175t-234 -44zM590 469q43 0 80 8.5
t85 35t76 45t99 67.5q-126 91 -190.5 123t-149.5 32q-92 0 -154.5 -43.5t-62.5 -111.5q0 -70 63.5 -113t153.5 -43zM1563 471q92 0 152.5 42t60.5 112q0 68 -60 110.5t-153 42.5q-83 0 -149 -32.5t-189 -120.5q133 -91 183 -115q80 -39 155 -39z" />
    <glyph glyph-name="approxequal" unicode="&#x2248;" horiz-adv-x="1341" 
d="M393 664h-237q0 155 91 248.5t226 93.5q61 0 116.5 -18t89.5 -39.5t77.5 -39.5t83.5 -18q57 0 82.5 30t25.5 78h238q0 -164 -80.5 -254t-220.5 -90q-66 0 -125 19t-94 41.5t-78.5 41.5t-81.5 19q-54 0 -83.5 -34t-29.5 -78zM393 205h-237q0 155 91 247.5t226 92.5
q61 0 116.5 -17.5t89.5 -39t77.5 -39t83.5 -17.5q57 0 82.5 30.5t25.5 78.5h238q0 -164 -80.5 -254t-220.5 -90q-66 0 -125 18.5t-94 41.5t-78.5 41.5t-81.5 18.5q-54 0 -83.5 -34t-29.5 -78z" />
    <glyph glyph-name="notequal" unicode="&#x2260;" horiz-adv-x="1320" 
d="M1153 944v-221h-334l-102 -227h436v-220h-522l-74 -170h-215l74 170h-252v220h336l104 227h-440v221h524l66 148h215l-66 -148h250z" />
    <glyph glyph-name="lessequal" unicode="&#x2264;" horiz-adv-x="1263" 
d="M1096 254h-932v184h528l-524 168v225l928 170v-202l-654 -113l654 -237v-195z" />
    <glyph glyph-name="greaterequal" unicode="&#x2265;" horiz-adv-x="1263" 
d="M1098 254h-932v195l657 237l-657 113v202l928 -170v-225l-523 -168h527v-184z" />
    <glyph glyph-name="lozenge" unicode="&#x25ca;" horiz-adv-x="1370" 
d="M739 0h-108l-510 694l510 692h108l510 -692zM377 694l305 -389h6l303 389l-303 387h-6z" />
    <glyph glyph-name="A.ss01" horiz-adv-x="1890" 
d="M360 0h-344l705 1597h448l705 -1597h-336q-124 262 -184 418h-809q-17 -45 -32.5 -83.5t-35 -82t-32 -70t-41 -87.5t-44.5 -95zM643 690h614q-51 106 -145 307.5t-117 249.5h-88z" />
    <glyph glyph-name="Aacute.ss01" horiz-adv-x="1890" 
d="M1466 2081l-395 -361h-272l286 361h381zM360 0h-344l705 1597h448l705 -1597h-336q-124 262 -184 418h-809q-17 -45 -32.5 -83.5t-35 -82t-32 -70t-41 -87.5t-44.5 -95zM643 690h614q-51 106 -145 307.5t-117 249.5h-88z" />
    <glyph glyph-name="Abreve.ss01" horiz-adv-x="1890" 
d="M938 1716q-208 0 -339.5 103.5t-137.5 261.5h258q3 -67 62.5 -114.5t156.5 -47.5q95 0 153.5 47.5t63.5 114.5h256q-3 -157 -135.5 -261t-337.5 -104zM360 0h-344l705 1597h448l705 -1597h-336q-124 262 -184 418h-809q-17 -45 -32.5 -83.5t-35 -82t-32 -70t-41 -87.5
t-44.5 -95zM643 690h614q-51 106 -145 307.5t-117 249.5h-88z" />
    <glyph glyph-name="Acircumflex.ss01" horiz-adv-x="1890" 
d="M1090 2077l342 -357h-279q-183 140 -215 166q-32 -27 -66.5 -54t-81.5 -62t-67 -50h-279l342 357h304zM360 0h-344l705 1597h448l705 -1597h-336q-124 262 -184 418h-809q-17 -45 -32.5 -83.5t-35 -82t-32 -70t-41 -87.5t-44.5 -95zM643 690h614q-51 106 -145 307.5
t-117 249.5h-88z" />
    <glyph glyph-name="Adieresis.ss01" horiz-adv-x="1890" 
d="M670 1731q-80 0 -135.5 51t-55.5 127q0 69 56 118.5t135 49.5q76 0 131 -49.5t55 -118.5q0 -76 -54.5 -127t-131.5 -51zM1208 1731q-80 0 -135 51t-55 127q0 69 55.5 118.5t134.5 49.5q76 0 130.5 -49.5t54.5 -118.5q0 -76 -54 -127t-131 -51zM360 0h-344l705 1597h448
l705 -1597h-336q-124 262 -184 418h-809q-17 -45 -32.5 -83.5t-35 -82t-32 -70t-41 -87.5t-44.5 -95zM643 690h614q-51 106 -145 307.5t-117 249.5h-88z" />
    <glyph glyph-name="Agrave.ss01" horiz-adv-x="1890" 
d="M1108 1720h-272l-396 361h381zM360 0h-344l705 1597h448l705 -1597h-336q-124 262 -184 418h-809q-17 -45 -32.5 -83.5t-35 -82t-32 -70t-41 -87.5t-44.5 -95zM643 690h614q-51 106 -145 307.5t-117 249.5h-88z" />
    <glyph glyph-name="Amacron.ss01" horiz-adv-x="1890" 
d="M1376 1765h-880v213h880v-213zM360 0h-344l705 1597h448l705 -1597h-336q-124 262 -184 418h-809q-17 -45 -32.5 -83.5t-35 -82t-32 -70t-41 -87.5t-44.5 -95zM643 690h614q-51 106 -145 307.5t-117 249.5h-88z" />
    <glyph glyph-name="Aogonek.ss01" horiz-adv-x="1890" 
d="M1550 -158q0 -46 50.5 -84.5t140.5 -38.5q53 0 104 11v-174q-64 -19 -149 -19q-96 0 -175.5 25t-131.5 79.5t-52 131.5q0 67 54 128t149 99h-2q-124 262 -184 418h-809q-17 -45 -32.5 -83.5t-35 -82t-32 -70t-41 -87.5t-44.5 -95h-344l705 1597h448l705 -1597h-121
q-57 -10 -99 -29.5t-63 -43t-31 -45t-10 -40.5zM643 690h614q-51 106 -145 307.5t-117 249.5h-88z" />
    <glyph glyph-name="Aring.ss01" horiz-adv-x="1890" 
d="M936 1710q-129 0 -217 72.5t-88 177.5q0 106 88 177t217 71q126 0 212.5 -71.5t86.5 -176.5q0 -108 -86 -179t-213 -71zM936 1868q49 0 83 27t34 65q0 36 -34 62t-83 26q-53 0 -87 -26t-34 -62q0 -39 34 -65.5t87 -26.5zM360 0h-344l705 1597h448l705 -1597h-336
q-124 262 -184 418h-809q-17 -45 -32.5 -83.5t-35 -82t-32 -70t-41 -87.5t-44.5 -95zM643 690h614q-51 106 -145 307.5t-117 249.5h-88z" />
    <glyph glyph-name="Atilde.ss01" horiz-adv-x="1890" 
d="M1124 1729q-103 0 -178 47l-63 36q-55 35 -103 35q-46 0 -72 -28.5t-26 -71.5h-215q0 144 84.5 230.5t214.5 86.5q92 0 182 -49l60 -35q43 -26 94 -26q39 0 60.5 26t21.5 70h217q0 -155 -72.5 -238t-204.5 -83zM360 0h-344l705 1597h448l705 -1597h-336
q-124 262 -184 418h-809q-17 -45 -32.5 -83.5t-35 -82t-32 -70t-41 -87.5t-44.5 -95zM643 690h614q-51 106 -145 307.5t-117 249.5h-88z" />
    <glyph glyph-name="B.ss01" horiz-adv-x="1753" 
d="M1008 0h-793v1597h774q278 0 435 -115.5t157 -297.5q0 -79 -33.5 -151t-107 -129.5t-176.5 -82.5v-4q181 -30 283 -125.5t102 -255.5q0 -69 -20 -128.5t-55 -103.5t-84.5 -79t-105.5 -58t-120 -38.5t-127.5 -22t-128.5 -6.5zM535 938h362q72 0 131.5 9t110.5 29.5
t79.5 58.5t28.5 91t-30 91.5t-82.5 59.5t-112 30.5t-129.5 9.5h-358v-379zM535 281h403q73 0 134.5 9t117.5 30t87.5 61t31.5 96q0 55 -32.5 95.5t-88 62t-117.5 31.5t-133 10h-403v-395z" />
    <glyph glyph-name="C.ss01" horiz-adv-x="2048" 
d="M1094 -35q-213 0 -396 60.5t-313.5 169t-204.5 265.5t-74 343q0 156 52 290.5t143 232t213.5 167t265.5 103.5t297 34q299 0 536 -136.5t335 -365.5l-293 -112q-80 148 -230.5 237.5t-351.5 89.5q-177 0 -320.5 -67t-228 -194.5t-84.5 -293.5q0 -113 39 -205.5
t103.5 -152.5t151.5 -101.5t179 -59t189 -17.5q229 0 388.5 99t229.5 286l295 -96q-72 -195 -208 -325t-314 -190.5t-399 -60.5z" />
    <glyph glyph-name="D.ss01" horiz-adv-x="1957" 
d="M963 0h-748v1597h725q187 0 339.5 -40.5t257 -112t176 -171.5t104 -216t32.5 -248q0 -178 -60.5 -327t-173 -256t-280 -166.5t-372.5 -59.5zM535 281h397q98 0 181 15t159 52t129 94t84 146.5t31 204.5q0 96 -20.5 173.5t-55 131.5t-86 94t-106 63.5t-123.5 37.5
t-130.5 19t-134.5 5h-325v-1036z" />
    <glyph glyph-name="E.ss01" horiz-adv-x="1599" 
d="M1481 0h-1266v1597h1241v-280h-921v-359h872v-294h-872v-381h946v-283z" />
    <glyph glyph-name="F.ss01" horiz-adv-x="1521" 
d="M1436 1597v-282h-901v-389h851v-297h-851v-629h-320v1597h1221z" />
    <glyph glyph-name="G.ss01" horiz-adv-x="2093" 
d="M1087 -35q-220 0 -403.5 60t-310.5 168.5t-197 262.5t-70 337q0 197 79.5 358.5t214.5 264.5t308.5 158.5t366.5 55.5q303 0 540.5 -138.5t332.5 -363.5l-293 -112q-80 149 -230 238t-350 89q-131 0 -247 -38.5t-202 -108t-136 -174t-50 -229.5q0 -171 88.5 -294.5
t241 -185t350.5 -61.5q231 0 376.5 84t180.5 244h-549v247h865v-92q0 -181 -67.5 -327.5t-187.5 -243t-286.5 -148t-364.5 -51.5z" />
    <glyph glyph-name="H.ss01" horiz-adv-x="1990" 
d="M1456 938v659h320v-1597h-320v643h-921v-643h-320v1597h320v-659h921z" />
    <glyph glyph-name="I.ss01" horiz-adv-x="1409" 
d="M1307 0h-1203v281h441v1036h-453v280h1227v-280h-455v-1036h443v-281z" />
    <glyph glyph-name="Iacute.ss01" horiz-adv-x="1409" 
d="M1149 2081l-395 -361h-273l287 361h381zM1307 0h-1203v281h441v1036h-453v280h1227v-280h-455v-1036h443v-281z" />
    <glyph glyph-name="Icircumflex.ss01" horiz-adv-x="1409" 
d="M860 2077l342 -357h-278q-183 140 -215 166q-32 -27 -66.5 -54t-81.5 -62t-67 -50h-279l342 357h303zM1307 0h-1203v281h441v1036h-453v280h1227v-280h-455v-1036h443v-281z" />
    <glyph glyph-name="Idieresis.ss01" horiz-adv-x="1409" 
d="M438 1731q-80 0 -135 51t-55 127q0 69 55.5 118.5t134.5 49.5q77 0 132 -49.5t55 -118.5q0 -76 -55 -127t-132 -51zM977 1731q-80 0 -135.5 51t-55.5 127q0 69 56 118.5t135 49.5q76 0 130 -49.5t54 -118.5q0 -76 -53.5 -127t-130.5 -51zM1307 0h-1203v281h441v1036h-453
v280h1227v-280h-455v-1036h443v-281z" />
    <glyph glyph-name="Idotaccent.ss01" horiz-adv-x="1409" 
d="M707 1755q-85 0 -141 51.5t-56 128.5q0 72 56.5 123t140.5 51q79 0 134.5 -51.5t55.5 -122.5q0 -76 -55 -128t-135 -52zM1307 0h-1203v281h441v1036h-453v280h1227v-280h-455v-1036h443v-281z" />
    <glyph glyph-name="Igrave.ss01" horiz-adv-x="1409" 
d="M877 1720h-273l-395 361h381zM1307 0h-1203v281h441v1036h-453v280h1227v-280h-455v-1036h443v-281z" />
    <glyph glyph-name="Imacron.ss01" horiz-adv-x="1409" 
d="M1145 1765h-881v213h881v-213zM1307 0h-1203v281h441v1036h-453v280h1227v-280h-455v-1036h443v-281z" />
    <glyph glyph-name="J.ss01" horiz-adv-x="1527" 
d="M723 -35q-136 0 -254 35t-210 102t-145 174.5t-53 243.5v51l312 41v-47q0 -146 95.5 -229.5t240.5 -83.5q82 0 143.5 27.5t94.5 73.5t49 98.5t16 111.5v754h-666v280h983v-987q0 -53 -1.5 -88t-13 -109t-33 -126t-66 -117.5t-107 -106.5t-161.5 -69.5t-224 -28.5z" />
    <glyph glyph-name="K.ss01" horiz-adv-x="1736" 
d="M535 0h-320v1597h320v-604h8l780 604h420q-150 -123 -479.5 -393t-503.5 -413q178 -137 508.5 -402t490.5 -389h-440q-126 92 -784 567v-567z" />
    <glyph glyph-name="L.ss01" horiz-adv-x="1443" 
d="M535 1597v-1314h876v-283h-1196v1597h320z" />
    <glyph glyph-name="M.ss01" horiz-adv-x="2394" 
d="M1798 1597h379v-1597h-322v1042l-546 -770h-224l-546 766v-1038h-324v1597h383q458 -677 596 -888h6q299 456 598 888z" />
    <glyph glyph-name="N.ss01" horiz-adv-x="2009" 
d="M535 0h-320v1597h363l833 -987h66v987h315v-1597h-358l-834 985h-65v-985z" />
    <glyph glyph-name="O.ss01" horiz-adv-x="2144" 
d="M1073 -35q-197 0 -374.5 61.5t-309 169.5t-208.5 264.5t-77 336.5q0 145 49 275t138.5 231t209 175t266.5 113t306 39q200 0 378 -62.5t308 -171.5t205.5 -265t75.5 -334t-75.5 -333.5t-205.5 -264.5t-308 -171.5t-378 -62.5zM1075 252q173 0 317 70.5t228 195.5t84 279
q0 151 -82.5 276.5t-227 197.5t-319.5 72t-320.5 -69.5t-231 -195.5t-85.5 -281q0 -118 51 -220.5t137 -173t203 -111t246 -40.5z" />
    <glyph glyph-name="P.ss01" horiz-adv-x="1658" 
d="M215 1597h723q52 0 101 -3.5t117.5 -16.5t126 -33.5t117 -59.5t101 -90.5t68 -129.5t26.5 -174q0 -97 -26.5 -177t-69 -133.5t-101.5 -94.5t-117 -63.5t-123.5 -36.5t-112.5 -18t-91 -4h-419v-563h-320v1597zM535 858h350q377 0 377 232q0 227 -377 227h-350v-459z" />
    <glyph glyph-name="Q.ss01" horiz-adv-x="1779" 
d="M717 -152v-2h868v-262h-1479l414 465q-201 101 -319.5 297t-118.5 451q0 182 63 338.5t172 264.5t257.5 169t316.5 61t317 -62t257 -170.5t170.5 -264.5t62.5 -336q0 -179 -62.5 -334.5t-170.5 -264.5t-257.5 -171t-318.5 -62q-42 0 -62 2zM893 1343q-212 0 -352 -153
t-140 -393q0 -241 141 -393t351 -152t347.5 154t137.5 391q0 235 -136.5 390.5t-348.5 155.5z" />
    <glyph glyph-name="R.ss01" horiz-adv-x="1722" 
d="M946 575l721 -575h-381l-727 575h-24v-575h-320v1597h723q52 0 101 -3.5t117.5 -16t126 -33.5t117 -60t101 -90t68 -129t26.5 -173q0 -97 -27 -176.5t-69.5 -132t-102.5 -92.5t-117.5 -61.5t-123.5 -34.5t-111.5 -16.5t-89.5 -3.5h-8zM885 1348h-350v-504h350
q181 0 279 69.5t98 186.5q0 116 -102 182t-275 66z" />
    <glyph glyph-name="S.ss01" horiz-adv-x="1605" 
d="M825 -35q-177 0 -328.5 54t-262.5 162t-158 257l297 97q27 -81 75 -140t109 -91.5t125.5 -47t138.5 -14.5q93 0 172.5 21.5t132 67t52.5 107.5q0 38 -21.5 69.5t-47.5 51.5t-79.5 40.5t-84 29t-95.5 25.5q-4 1 -6.5 1.5t-6 1.5t-6.5 2l-174 43q-514 127 -514 457
q0 140 89.5 249t237 165.5t325.5 56.5q167 0 308 -53.5t227.5 -136.5t121.5 -183l-291 -112q-47 99 -143.5 154t-233.5 55q-134 0 -221.5 -48.5t-87.5 -121.5q0 -28 13.5 -53t33 -44t52 -37.5t60 -30.5t68 -25t65 -20t60.5 -16l197 -53q42 -11 66 -17.5t69.5 -21t74.5 -27
t70 -33.5t68 -42.5t57 -52.5t47 -65t28.5 -78t11.5 -93q0 -219 -193.5 -364.5t-497.5 -145.5z" />
    <glyph glyph-name="U.ss01" horiz-adv-x="1855" 
d="M881 -35q-120 0 -220.5 27.5t-169 71.5t-122.5 104.5t-85.5 121.5t-52 126.5t-27.5 116t-7 94.5v970h317v-946q0 -47 11 -97.5t39.5 -105.5t71 -97.5t112.5 -70.5t157 -28q88 0 160.5 27.5t119 71t78 98t45 105.5t13.5 97v946h319v-1597h-303v141h-4q-75 -94 -181 -135
t-271 -41z" />
    <glyph glyph-name="Uacute.ss01" horiz-adv-x="1855" 
d="M1280 2081l-397 -361h-273l287 361h383zM881 -35q-120 0 -220.5 27.5t-169 71.5t-122.5 104.5t-85.5 121.5t-52 126.5t-27.5 116t-7 94.5v970h317v-946q0 -47 11 -97.5t39.5 -105.5t71 -97.5t112.5 -70.5t157 -28q88 0 160.5 27.5t119 71t78 98t45 105.5t13.5 97v946h319
v-1597h-303v141h-4q-75 -94 -181 -135t-271 -41z" />
    <glyph glyph-name="Ucircumflex.ss01" horiz-adv-x="1855" 
d="M1061 2077l342 -357h-279q-183 140 -215 166q-32 -27 -66.5 -54t-81.5 -62t-67 -50h-278l342 357h303zM881 -35q-120 0 -220.5 27.5t-169 71.5t-122.5 104.5t-85.5 121.5t-52 126.5t-27.5 116t-7 94.5v970h317v-946q0 -47 11 -97.5t39.5 -105.5t71 -97.5t112.5 -70.5
t157 -28q88 0 160.5 27.5t119 71t78 98t45 105.5t13.5 97v946h319v-1597h-303v141h-4q-75 -94 -181 -135t-271 -41z" />
    <glyph glyph-name="Udieresis.ss01" horiz-adv-x="1855" 
d="M639 1731q-80 0 -135 51t-55 127q0 69 55.5 118.5t134.5 49.5q76 0 131 -49.5t55 -118.5q0 -76 -54.5 -127t-131.5 -51zM1178 1731q-80 0 -135.5 51t-55.5 127q0 69 56 118.5t135 49.5q76 0 130 -49.5t54 -118.5q0 -76 -53.5 -127t-130.5 -51zM881 -35
q-120 0 -220.5 27.5t-169 71.5t-122.5 104.5t-85.5 121.5t-52 126.5t-27.5 116t-7 94.5v970h317v-946q0 -47 11 -97.5t39.5 -105.5t71 -97.5t112.5 -70.5t157 -28q88 0 160.5 27.5t119 71t78 98t45 105.5t13.5 97v946h319v-1597h-303v141h-4q-75 -94 -181 -135t-271 -41z
" />
    <glyph glyph-name="Ugrave.ss01" horiz-adv-x="1855" 
d="M1077 1720h-272l-395 361h381zM881 -35q-120 0 -220.5 27.5t-169 71.5t-122.5 104.5t-85.5 121.5t-52 126.5t-27.5 116t-7 94.5v970h317v-946q0 -47 11 -97.5t39.5 -105.5t71 -97.5t112.5 -70.5t157 -28q88 0 160.5 27.5t119 71t78 98t45 105.5t13.5 97v946h319v-1597
h-303v141h-4q-75 -94 -181 -135t-271 -41z" />
    <glyph glyph-name="Uhungarumlaut.ss01" horiz-adv-x="1855" 
d="M1112 2079l-362 -359h-263l261 359h364zM1630 2079l-370 -359h-265l271 359h364zM881 -35q-120 0 -220.5 27.5t-169 71.5t-122.5 104.5t-85.5 121.5t-52 126.5t-27.5 116t-7 94.5v970h317v-946q0 -47 11 -97.5t39.5 -105.5t71 -97.5t112.5 -70.5t157 -28q88 0 160.5 27.5
t119 71t78 98t45 105.5t13.5 97v946h319v-1597h-303v141h-4q-75 -94 -181 -135t-271 -41z" />
    <glyph glyph-name="Umacron.ss01" horiz-adv-x="1855" 
d="M1348 1765h-881v213h881v-213zM881 -35q-120 0 -220.5 27.5t-169 71.5t-122.5 104.5t-85.5 121.5t-52 126.5t-27.5 116t-7 94.5v970h317v-946q0 -47 11 -97.5t39.5 -105.5t71 -97.5t112.5 -70.5t157 -28q88 0 160.5 27.5t119 71t78 98t45 105.5t13.5 97v946h319v-1597
h-303v141h-4q-75 -94 -181 -135t-271 -41z" />
    <glyph glyph-name="Uogonek.ss01" horiz-adv-x="1855" 
d="M1579 -281q53 0 104 11v-174q-64 -19 -149 -19q-96 0 -175.5 25t-131 79.5t-51.5 131.5q0 67 53.5 128t148.5 99h-41v141h-4q-75 -94 -181 -135t-271 -41q-120 0 -220.5 27.5t-169 71.5t-122.5 104.5t-85.5 121.5t-52 126.5t-27.5 116t-7 94.5v970h317v-946
q0 -47 11 -97.5t39.5 -105.5t71 -97.5t112.5 -70.5t157 -28q88 0 160.5 27.5t119 71t78 98t45 105.5t13.5 97v946h319v-1597h-49q-57 -10 -98.5 -29.5t-63 -43t-31 -45t-9.5 -40.5q0 -46 50 -84.5t140 -38.5z" />
    <glyph glyph-name="Uring.ss01" horiz-adv-x="1855" 
d="M907 1710q-129 0 -217 72.5t-88 177.5q0 106 88 177t217 71q126 0 212.5 -71.5t86.5 -176.5q0 -108 -86 -179t-213 -71zM907 1868q49 0 83 27t34 65q0 36 -34 62t-83 26q-53 0 -87 -26t-34 -62q0 -39 34 -65.5t87 -26.5zM881 -35q-120 0 -220.5 27.5t-169 71.5
t-122.5 104.5t-85.5 121.5t-52 126.5t-27.5 116t-7 94.5v970h317v-946q0 -47 11 -97.5t39.5 -105.5t71 -97.5t112.5 -70.5t157 -28q88 0 160.5 27.5t119 71t78 98t45 105.5t13.5 97v946h319v-1597h-303v141h-4q-75 -94 -181 -135t-271 -41z" />
    <glyph glyph-name="V.ss01" horiz-adv-x="1884" 
d="M1155 0h-436l-705 1597h334q547 -1186 553 -1200h82q104 223 293.5 636.5t259.5 563.5h336z" />
    <glyph glyph-name="W.ss01" horiz-adv-x="2834" 
d="M991 0h-401l-563 1597h360l406 -1167h4l377 1167h497l369 -1167h6l401 1167h361l-563 -1597h-396l-376 1202h-103z" />
    <glyph glyph-name="Wacute.ss01" horiz-adv-x="2834" 
d="M1948 2081l-396 -361h-272l287 361h381zM991 0h-401l-563 1597h360l406 -1167h4l377 1167h497l369 -1167h6l401 1167h361l-563 -1597h-396l-376 1202h-103z" />
    <glyph glyph-name="Wcircumflex.ss01" horiz-adv-x="2834" 
d="M1571 2077l342 -357h-279q-183 140 -215 166q-32 -27 -66.5 -54t-81.5 -62t-67 -50h-278l342 357h303zM991 0h-401l-563 1597h360l406 -1167h4l377 1167h497l369 -1167h6l401 1167h361l-563 -1597h-396l-376 1202h-103z" />
    <glyph glyph-name="Wdieresis.ss01" horiz-adv-x="2834" 
d="M1149 1731q-80 0 -135.5 51t-55.5 127q0 69 56 118.5t135 49.5q76 0 131 -49.5t55 -118.5q0 -76 -54.5 -127t-131.5 -51zM1688 1731q-80 0 -135.5 51t-55.5 127q0 69 56 118.5t135 49.5q76 0 130 -49.5t54 -118.5q0 -76 -53.5 -127t-130.5 -51zM991 0h-401l-563 1597h360
l406 -1167h4l377 1167h497l369 -1167h6l401 1167h361l-563 -1597h-396l-376 1202h-103z" />
    <glyph glyph-name="Wgrave.ss01" horiz-adv-x="2834" 
d="M1587 1720h-272l-395 361h380zM991 0h-401l-563 1597h360l406 -1167h4l377 1167h497l369 -1167h6l401 1167h361l-563 -1597h-396l-376 1202h-103z" />
    <glyph glyph-name="X.ss01" horiz-adv-x="1757" 
d="M371 0h-359l617 811v8l-613 778h357q90 -112 253.5 -322.5t219.5 -281.5h72q77 95 222 281.5t255 322.5h344l-606 -778v-8l612 -811h-348q-82 102 -240.5 307t-238.5 305h-72q-94 -119 -264 -339t-211 -273z" />
    <glyph glyph-name="Y.ss01" horiz-adv-x="1753" 
d="M690 0h-342l395 571l-696 1026h346l508 -718h4l518 718h342z" />
    <glyph glyph-name="Yacute.ss01" horiz-adv-x="1753" 
d="M1337 2081l-397 -361h-272l288 361h381zM690 0h-342l395 571l-696 1026h346l508 -718h4l518 718h342z" />
    <glyph glyph-name="Ycircumflex.ss01" horiz-adv-x="1753" 
d="M1059 2077l342 -357h-279q-183 140 -215 166q-32 -27 -66.5 -54t-81.5 -62t-67 -50h-278l342 357h303zM690 0h-342l395 571l-696 1026h346l508 -718h4l518 718h342z" />
    <glyph glyph-name="Ydieresis.ss01" horiz-adv-x="1753" 
d="M637 1731q-80 0 -135.5 51t-55.5 127q0 69 56 118.5t135 49.5q76 0 131 -49.5t55 -118.5q0 -76 -54.5 -127t-131.5 -51zM1176 1731q-80 0 -135.5 51t-55.5 127q0 69 56 118.5t135 49.5q76 0 130 -49.5t54 -118.5q0 -76 -53.5 -127t-130.5 -51zM690 0h-342l395 571
l-696 1026h346l508 -718h4l518 718h342z" />
    <glyph glyph-name="Ygrave.ss01" horiz-adv-x="1753" 
d="M1075 1720h-272l-395 361h380zM690 0h-342l395 571l-696 1026h346l508 -718h4l518 718h342z" />
    <glyph glyph-name="Z.ss01" horiz-adv-x="1703" 
d="M1606 0h-1620l1138 1315h-974v282h1540l-1125 -1314h1041v-283z" />
    <glyph glyph-name="Zacute.ss01" horiz-adv-x="1703" 
d="M1380 2081l-395 -361h-272l286 361h381zM1606 0h-1620l1138 1315h-974v282h1540l-1125 -1314h1041v-283z" />
    <glyph glyph-name="Zcaron.ss01" horiz-adv-x="1703" 
d="M1065 2077h278l-337 -357h-312l-338 357h279q43 -32 120 -95t95 -77q36 28 106.5 85.5t108.5 86.5zM1606 0h-1620l1138 1315h-974v282h1540l-1125 -1314h1041v-283z" />
    <glyph glyph-name="Zdotaccent.ss01" horiz-adv-x="1703" 
d="M868 1755q-84 0 -140 51.5t-56 128.5q0 72 56 123t140 51q79 0 135 -51.5t56 -122.5q0 -76 -55.5 -128t-135.5 -52zM1606 0h-1620l1138 1315h-974v282h1540l-1125 -1314h1041v-283z" />
    <glyph glyph-name="Q.ss02" horiz-adv-x="2144" 
d="M1239 -23v-131h600v-262h-901v389q-234 26 -422.5 135t-300 289.5t-111.5 399.5q0 145 49 275t138.5 231t209 175t266.5 113t306 39q200 0 378 -62.5t308 -171.5t205.5 -265t75.5 -334q0 -159 -61 -301.5t-167.5 -248.5t-254 -176.5t-318.5 -93.5zM438 797
q0 -205 140.5 -350t359.5 -183v383h301v-377q205 45 335 189t130 338q0 151 -82.5 276.5t-227 197.5t-319.5 72t-320.5 -69.5t-231 -195.5t-85.5 -281z" />
    <glyph glyph-name="A.ss07" 
d="M1225 -315q-237 0 -446.5 71t-359 193.5t-236.5 294t-87 364.5q0 198 87 372.5t236.5 298.5t359 195.5t446.5 71.5q239 0 449 -71.5t360 -195.5t236.5 -298.5t86.5 -372.5q0 -156 -55 -298t-157.5 -255t-241 -196.5t-313 -128.5t-365.5 -45zM1114 1096l-444 -963h217
q29 44 123 248h434q58 -98 127 -248h221l-444 963h-234zM1374 559h-295q127 244 152 289q61 -150 143 -289z" />
    <glyph glyph-name="B.ss07" horiz-adv-x="2459" 
d="M1225 -315q-237 0 -446.5 71t-359 193.5t-236.5 294t-87 364.5q0 198 87 372.5t236.5 298.5t359 195.5t446.5 71.5q239 0 449 -71.5t360 -195.5t236.5 -298.5t86.5 -372.5q0 -156 -55 -298t-157.5 -255t-241 -196.5t-313 -128.5t-365.5 -45zM840 1096v-963h477
q55 0 107 7.5t104.5 27t91.5 49t63.5 76.5t24.5 106q0 86 -54 146t-151 82q74 27 120 85.5t46 131.5q0 115 -99 183.5t-263 68.5h-467zM1047 705v208h204q93 0 145 -26.5t52 -75.5q0 -106 -197 -106h-204zM1276 315h-229v220h229q97 0 153 -29.5t56 -81.5t-55 -80.5
t-154 -28.5z" />
    <glyph glyph-name="C.ss07" 
d="M1227 -315q-237 0 -446.5 71t-359 193.5t-236.5 294t-87 364.5q0 198 87 372.5t236.5 298.5t359 195.5t446.5 71.5q239 0 449 -71.5t360 -195.5t236.5 -298.5t86.5 -372.5q0 -156 -55 -298t-157.5 -255t-241 -196.5t-313 -128.5t-365.5 -45zM1253 113q207 0 351.5 92
t205.5 264l-192 59q-36 -106 -129.5 -167.5t-231.5 -61.5q-57 0 -110 10.5t-102.5 34t-86.5 58.5t-59 88t-22 118q0 144 102 233t264 89q121 0 206.5 -53.5t129.5 -143.5l193 74q-57 142 -201.5 225.5t-327.5 83.5q-92 0 -178.5 -21t-160.5 -63.5t-129 -101t-86.5 -139
t-31.5 -173.5q0 -147 76 -262.5t212 -179t308 -63.5z" />
    <glyph glyph-name="D.ss07" 
d="M1225 -315q-237 0 -446.5 71t-359 193.5t-236.5 294t-87 364.5q0 198 87 372.5t236.5 298.5t359 195.5t446.5 71.5q239 0 449 -71.5t360 -195.5t236.5 -298.5t86.5 -372.5q0 -156 -55 -298t-157.5 -255t-241 -196.5t-313 -128.5t-365.5 -45zM795 1096v-963h454
q244 0 390.5 133t146.5 355q0 223 -147 349t-404 126h-440zM1231 315h-227v598h184q60 0 107.5 -5.5t100.5 -24.5t88 -50.5t58 -88.5t23 -134q0 -144 -86 -219.5t-248 -75.5z" />
    <glyph glyph-name="E.ss07" 
d="M1225 -315q-237 0 -446.5 71t-359 193.5t-236.5 294t-87 364.5q0 198 87 372.5t236.5 298.5t359 195.5t446.5 71.5q239 0 449 -71.5t360 -195.5t236.5 -298.5t86.5 -372.5q0 -156 -55 -298t-157.5 -255t-241 -196.5t-313 -128.5t-365.5 -45zM856 1096v-963h770v184h-561
v209h518v191h-518v196h547v183h-756z" />
    <glyph glyph-name="F.ss07" horiz-adv-x="2459" 
d="M1225 -315q-237 0 -446.5 71t-359 193.5t-236.5 294t-87 364.5q0 198 87 372.5t236.5 298.5t359 195.5t446.5 71.5q239 0 449 -71.5t360 -195.5t236.5 -298.5t86.5 -372.5q0 -156 -55 -298t-157.5 -255t-241 -196.5t-313 -128.5t-365.5 -45zM883 1096v-963h211v373h503
v190h-503v215h534v185h-745z" />
    <glyph glyph-name="G.ss07" 
d="M1227 -315q-237 0 -446.5 71t-359 193.5t-236.5 294t-87 364.5q0 198 87 372.5t236.5 298.5t359 195.5t446.5 71.5q239 0 449 -71.5t360 -195.5t236.5 -298.5t86.5 -372.5q0 -156 -55 -298t-157.5 -255t-241 -196.5t-313 -128.5t-365.5 -45zM1229 113q267 0 393 157
l8 -137h164v508h-530v-166h321q-20 -80 -107.5 -128t-215.5 -48q-70 0 -134.5 16t-122.5 50.5t-93 97t-35 145.5q0 142 102.5 232t265.5 90q116 0 201.5 -50.5t132.5 -146.5l193 74q-55 140 -200.5 224.5t-328.5 84.5q-160 0 -292 -59.5t-213 -175.5t-81 -267
q0 -219 161.5 -360t410.5 -141z" />
    <glyph glyph-name="H.ss07" 
d="M1225 -315q-237 0 -446.5 71t-359 193.5t-236.5 294t-87 364.5q0 198 87 372.5t236.5 298.5t359 195.5t446.5 71.5q239 0 449 -71.5t360 -195.5t236.5 -298.5t86.5 -372.5q0 -156 -55 -298t-157.5 -255t-241 -196.5t-313 -128.5t-365.5 -45zM756 1096v-963h209v381h528
v-381h209v963h-209v-389h-528v389h-209z" />
    <glyph glyph-name="I.ss07" 
d="M1225 -315q-237 0 -446.5 71t-359 193.5t-236.5 294t-87 364.5q0 198 87 372.5t236.5 298.5t359 195.5t446.5 71.5q239 0 449 -71.5t360 -195.5t236.5 -298.5t86.5 -372.5q0 -156 -55 -298t-157.5 -255t-241 -196.5t-313 -128.5t-365.5 -45zM1128 1096v-963h209v963h-209
z" />
    <glyph glyph-name="J.ss07" 
d="M1225 -315q-237 0 -446.5 71t-359 193.5t-236.5 294t-87 364.5q0 198 87 372.5t236.5 298.5t359 195.5t446.5 71.5q239 0 449 -71.5t360 -195.5t236.5 -298.5t86.5 -372.5q0 -156 -55 -298t-157.5 -255t-241 -196.5t-313 -128.5t-365.5 -45zM1196 123q60 0 110 10.5
t85.5 27t64 43t46.5 50.5t30.5 58.5t19 58.5t9.5 59t3.5 51.5t0.5 42.5v582h-207v-610q0 -31 -3.5 -55.5t-14 -50.5t-29 -42.5t-49.5 -27.5t-74 -11q-83 0 -138 44.5t-55 129.5v41l-204 -26v-41q0 -155 115 -244.5t290 -89.5z" />
    <glyph glyph-name="K.ss07" 
d="M1225 -315q-237 0 -446.5 71t-359 193.5t-236.5 294t-87 364.5q0 198 87 372.5t236.5 298.5t359 195.5t446.5 71.5q239 0 449 -71.5t360 -195.5t236.5 -298.5t86.5 -372.5q0 -156 -55 -298t-157.5 -255t-241 -196.5t-313 -128.5t-365.5 -45zM813 1096v-963h207v293
q14 12 55 46t64 52q66 -73 193 -208t171 -183h252q-63 73 -162.5 184.5t-312.5 358.5q310 287 457 420h-250q-86 -72 -250.5 -216.5t-216.5 -189.5v406h-207z" />
    <glyph glyph-name="L.ss07" 
d="M1225 -315q-237 0 -446.5 71t-359 193.5t-236.5 294t-87 364.5q0 198 87 372.5t236.5 298.5t359 195.5t446.5 71.5q239 0 449 -71.5t360 -195.5t236.5 -298.5t86.5 -372.5q0 -156 -55 -298t-157.5 -255t-241 -196.5t-313 -128.5t-365.5 -45zM956 1096v-963h730v184h-521
v779h-209z" />
    <glyph glyph-name="M.ss07" horiz-adv-x="2459" 
d="M1225 -315q-237 0 -446.5 71t-359 193.5t-236.5 294t-87 364.5q0 198 87 372.5t236.5 298.5t359 195.5t446.5 71.5q239 0 449 -71.5t360 -195.5t236.5 -298.5t86.5 -372.5q0 -156 -55 -298t-157.5 -255t-241 -196.5t-313 -128.5t-365.5 -45zM608 1096v-963h209v576
q53 -92 171 -288t171 -288h139q48 83 163.5 275t176.5 301v-576h213v963h-252q-187 -338 -370 -660q-345 614 -371 660h-250z" />
    <glyph glyph-name="N.ss07" 
d="M1225 -315q-237 0 -446.5 71t-359 193.5t-236.5 294t-87 364.5q0 198 87 372.5t236.5 298.5t359 195.5t446.5 71.5q239 0 449 -71.5t360 -195.5t236.5 -298.5t86.5 -372.5q0 -156 -55 -298t-157.5 -255t-241 -196.5t-313 -128.5t-365.5 -45zM766 1096v-963h207v604
q97 -114 277 -314.5t257 -289.5h213v963h-207v-613q-192 227 -534 613h-213z" />
    <glyph glyph-name="O.ss07" 
d="M1225 -315q-237 0 -446.5 71t-359 193.5t-236.5 294t-87 364.5q0 198 87 372.5t236.5 298.5t359 195.5t446.5 71.5q239 0 449 -71.5t360 -195.5t236.5 -298.5t86.5 -372.5q0 -156 -55 -298t-157.5 -255t-241 -196.5t-313 -128.5t-365.5 -45zM1231 113q164 0 298 65.5
t210 180.5t76 255q0 105 -45 198.5t-122.5 160t-185.5 105t-231 38.5q-122 0 -230 -38.5t-186 -104.5t-123 -159.5t-45 -199.5q0 -141 76.5 -256t210 -180t297.5 -65zM866 614q0 134 106 225t261 91q152 0 257 -91.5t105 -224.5q0 -134 -104.5 -224.5t-257.5 -90.5
q-156 0 -261.5 90t-105.5 225z" />
    <glyph glyph-name="P.ss07" 
d="M1225 -315q-237 0 -446.5 71t-359 193.5t-236.5 294t-87 364.5q0 198 87 372.5t236.5 298.5t359 195.5t446.5 71.5q239 0 449 -71.5t360 -195.5t236.5 -298.5t86.5 -372.5q0 -156 -55 -298t-157.5 -255t-241 -196.5t-313 -128.5t-365.5 -45zM868 1096v-963h207v334h240
q32 0 66 4t81 15t87.5 34t76.5 56.5t57 88t21 123.5q0 58 -16.5 106t-42 79t-62.5 54.5t-72 36.5t-76 20.5t-70 9.5t-58 2h-439zM1272 659h-197v254h197q215 0 215 -127q0 -40 -18.5 -66.5t-52.5 -39t-67.5 -17t-76.5 -4.5z" />
    <glyph glyph-name="Q.ss07" 
d="M1225 -315q-237 0 -446.5 71t-359 193.5t-236.5 294t-87 364.5q0 198 87 372.5t236.5 298.5t359 195.5t446.5 71.5q239 0 449 -71.5t360 -195.5t236.5 -298.5t86.5 -372.5q0 -156 -55 -298t-157.5 -255t-241 -196.5t-313 -128.5t-365.5 -45zM1634 51l152 121
q-8 8 -37 34.5t-111 104.5q86 69 132.5 163t46.5 200q0 215 -169.5 358.5t-424.5 143.5q-167 0 -302.5 -65t-212.5 -180.5t-77 -256.5q0 -216 169 -359t423 -143q137 0 250 39zM844 674q0 137 108 226t273 89t272 -88.5t107 -226.5q0 -124 -103 -213q-16 14 -61 54t-109 95
l-149 -118q55 -44 143 -121q-47 -13 -100 -13q-166 0 -273.5 88t-107.5 228z" />
    <glyph glyph-name="R.ss07" 
d="M1225 -315q-237 0 -446.5 71t-359 193.5t-236.5 294t-87 364.5q0 198 87 372.5t236.5 298.5t359 195.5t446.5 71.5q239 0 449 -71.5t360 -195.5t236.5 -298.5t86.5 -372.5q0 -156 -55 -298t-157.5 -255t-241 -196.5t-313 -128.5t-365.5 -45zM866 1096v-963h209v338h148
l276 -338h236q-35 43 -103.5 127t-122.5 149.5t-67 82.5q126 30 194 104t68 186q0 82 -32.5 143t-77 92.5t-105 50.5t-102 23.5t-82.5 4.5h-439zM1272 647h-197v268h197q40 0 75 -6.5t67.5 -21t51.5 -42t19 -65.5q0 -41 -21 -69t-56.5 -41t-67.5 -18t-68 -5z" />
    <glyph glyph-name="S.ss07" 
d="M1225 -315q-237 0 -446.5 71t-359 193.5t-236.5 294t-87 364.5q0 198 87 372.5t236.5 298.5t359 195.5t446.5 71.5q239 0 449 -71.5t360 -195.5t236.5 -298.5t86.5 -372.5q0 -156 -55 -298t-157.5 -255t-241 -196.5t-313 -128.5t-365.5 -45zM1251 113q184 0 301 86.5
t117 224.5q0 38 -11.5 71t-28 57t-44 45t-50.5 34t-57 26t-54.5 19t-51.5 14l-119 31q-34 9 -50.5 13.5t-48.5 16.5t-48.5 23t-30.5 29t-14 39q0 40 46.5 65t119.5 25q78 0 134.5 -31.5t82.5 -91.5l188 74q-27 94 -135 163.5t-264 69.5q-169 0 -285.5 -80t-116.5 -209
q0 -205 318 -282l102 -27q44 -10 70 -17t57.5 -20.5t46.5 -32.5t15 -45q0 -49 -57 -77.5t-136 -28.5q-97 0 -164.5 44.5t-95.5 127.5l-192 -61q28 -95 96.5 -162.5t160.5 -100t199 -32.5z" />
    <glyph glyph-name="T.ss07" 
d="M1225 -315q-237 0 -446.5 71t-359 193.5t-236.5 294t-87 364.5q0 198 87 372.5t236.5 298.5t359 195.5t446.5 71.5q239 0 449 -71.5t360 -195.5t236.5 -298.5t86.5 -372.5q0 -156 -55 -298t-157.5 -255t-241 -196.5t-313 -128.5t-365.5 -45zM1124 913v-780h209v780h350
v183h-913v-183h354z" />
    <glyph glyph-name="U.ss07" 
d="M1225 -315q-237 0 -446.5 71t-359 193.5t-236.5 294t-87 364.5q0 198 87 372.5t236.5 298.5t359 195.5t446.5 71.5q239 0 449 -71.5t360 -195.5t236.5 -298.5t86.5 -372.5q0 -156 -55 -298t-157.5 -255t-241 -196.5t-313 -128.5t-365.5 -45zM1225 123q104 0 184 26.5
t127 67t76.5 96t40 106.5t10.5 105v582h-209v-567q0 -113 -53.5 -171.5t-173.5 -58.5q-122 0 -176 59.5t-54 170.5v567h-209v-582q0 -55 10 -105.5t39.5 -106t76 -96t126.5 -67t185 -26.5z" />
    <glyph glyph-name="V.ss07" 
d="M1225 -315q-237 0 -446.5 71t-359 193.5t-236.5 294t-87 364.5q0 198 87 372.5t236.5 298.5t359 195.5t446.5 71.5q239 0 449 -71.5t360 -195.5t236.5 -298.5t86.5 -372.5q0 -156 -55 -298t-157.5 -255t-241 -196.5t-313 -128.5t-365.5 -45zM684 1096l446 -963h234
l444 963h-219q-29 -43 -90.5 -174t-136.5 -298t-113 -243q-31 65 -113 244t-142 303t-89 168h-221z" />
    <glyph glyph-name="W.ss07" 
d="M1225 -315q-237 0 -446.5 71t-359 193.5t-236.5 294t-87 364.5q0 198 87 372.5t236.5 298.5t359 195.5t446.5 71.5q239 0 449 -71.5t360 -195.5t236.5 -298.5t86.5 -372.5q0 -156 -55 -298t-157.5 -255t-241 -196.5t-313 -128.5t-365.5 -45zM391 1096l342 -963h250
q152 382 248 643q109 -305 250 -643h245l340 963h-231q-39 -104 -75.5 -209.5t-82 -238t-78.5 -226.5q-91 242 -256 674h-227q-106 -277 -254 -674q-84 244 -237 674h-234z" />
    <glyph glyph-name="X.ss07" 
d="M1225 -315q-237 0 -446.5 71t-359 193.5t-236.5 294t-87 364.5q0 198 87 372.5t236.5 298.5t359 195.5t446.5 71.5q239 0 449 -71.5t360 -195.5t236.5 -298.5t86.5 -372.5q0 -156 -55 -298t-157.5 -255t-241 -196.5t-313 -128.5t-365.5 -45zM733 131h250q224 283 256 322
q47 -57 131.5 -166t122.5 -156h248q-61 76 -183 237.5t-190 245.5q71 89 197.5 254.5t175.5 227.5h-244q-48 -57 -134.5 -165t-123.5 -153q-45 54 -130 161.5t-126 156.5h-246q56 -71 180 -232.5t193 -247.5q-52 -65 -377 -485z" />
    <glyph glyph-name="Y.ss07" 
d="M1225 -315q-237 0 -446.5 71t-359 193.5t-236.5 294t-87 364.5q0 198 87 372.5t236.5 298.5t359 195.5t446.5 71.5q239 0 449 -71.5t360 -195.5t236.5 -298.5t86.5 -372.5q0 -156 -55 -298t-157.5 -255t-241 -196.5t-313 -128.5t-365.5 -45zM1124 465v-332h209v334
q67 103 214.5 329t195.5 300h-223q-139 -204 -291 -434q-50 76 -148.5 221.5t-142.5 212.5h-225q90 -137 411 -631z" />
    <glyph glyph-name="Z.ss07" 
d="M1225 -315q-237 0 -446.5 71t-359 193.5t-236.5 294t-87 364.5q0 198 87 372.5t236.5 298.5t359 195.5t446.5 71.5q239 0 449 -71.5t360 -195.5t236.5 -298.5t86.5 -372.5q0 -156 -55 -298t-157.5 -255t-241 -196.5t-313 -128.5t-365.5 -45zM780 313v-180h899v184h-641
q97 93 308 292.5t321 305.5v181h-864v-183q201 2 598 2q-474 -461 -621 -602z" />
    <glyph glyph-name="A.ss08" 
d="M1225 1546q239 0 449 -71.5t360 -195.5t236.5 -298.5t86.5 -372.5q0 -156 -55 -298t-157.5 -255t-241 -196.5t-313 -128.5t-365.5 -45q-237 0 -446.5 71t-359 193.5t-236.5 294t-87 364.5q0 198 87 372.5t236.5 298.5t359 195.5t446.5 71.5zM1225 -162q204 0 383 59
t307 161t202 245.5t74 306.5q0 165 -74 310t-202 249t-307.5 164t-382.5 60q-269 0 -489 -102t-346 -281.5t-126 -399.5q0 -162 74 -305t201.5 -245.5t306 -162t379.5 -59.5zM864 309l293 613h148l292 -613h-145q-36 74 -84 160h-278q-38 -77 -84 -160h-142zM1137 582h184
q-48 79 -92 176q-7 -14 -92 -176z" />
    <glyph glyph-name="B.ss08" 
d="M1225 1546q239 0 449 -71.5t360 -195.5t236.5 -298.5t86.5 -372.5q0 -156 -55 -298t-157.5 -255t-241 -196.5t-313 -128.5t-365.5 -45q-237 0 -446.5 71t-359 193.5t-236.5 294t-87 364.5q0 198 87 372.5t236.5 298.5t359 195.5t446.5 71.5zM1225 -162q204 0 383 59
t307 161t202 245.5t74 306.5q0 165 -74 310t-202 249t-307.5 164t-382.5 60q-269 0 -489 -102t-346 -281.5t-126 -399.5q0 -162 74 -305t201.5 -245.5t306 -162t379.5 -59.5zM1407 625q61 -19 94 -56.5t33 -87.5q0 -47 -23 -82t-61 -53.5t-80 -27.5t-88 -9h-313v613h303
q106 0 171.5 -45.5t65.5 -118.5q0 -43 -27.5 -78.5t-74.5 -54.5zM1106 803v-129h133q127 0 127 63q0 31 -34.5 48.5t-94.5 17.5h-131zM1255 428q134 0 134 66q0 32 -36 50.5t-98 18.5h-149v-135h149z" />
    <glyph glyph-name="C.ss08" 
d="M1225 -315q-237 0 -446.5 71t-359 193.5t-236.5 294t-87 364.5q0 198 87 372.5t236.5 298.5t359 195.5t446.5 71.5q239 0 449 -71.5t360 -195.5t236.5 -298.5t86.5 -372.5q0 -156 -55 -298t-157.5 -255t-241 -196.5t-313 -128.5t-365.5 -45zM1225 -162q204 0 383 59
t307 161t202 245.5t74 306.5q0 165 -74 310t-202 249t-307.5 164t-382.5 60q-269 0 -489 -102t-346 -281.5t-126 -399.5q0 -162 74 -305t201.5 -245.5t306 -162t379.5 -59.5zM1245 297q-170 0 -278.5 89t-108.5 230q0 97 53.5 170.5t139 109.5t186.5 36q124 0 217.5 -53.5
t128.5 -145.5l-125 -47q-30 62 -88 94.5t-133 32.5q-105 0 -171.5 -56.5t-66.5 -146.5q0 -67 38.5 -112t91.5 -62.5t116 -17.5q89 0 150 38t86 109l127 -41q-38 -108 -133.5 -167.5t-229.5 -59.5z" />
    <glyph glyph-name="D.ss08" horiz-adv-x="2459" 
d="M1225 -315q-237 0 -446.5 71t-359 193.5t-236.5 294t-87 364.5q0 198 87 372.5t236.5 298.5t359 195.5t446.5 71.5q239 0 449 -71.5t360 -195.5t236.5 -298.5t86.5 -372.5q0 -156 -55 -298t-157.5 -255t-241 -196.5t-313 -128.5t-365.5 -45zM1225 -162q204 0 383 59
t307 161t202 245.5t74 306.5q0 165 -74 310t-202 249t-307.5 164t-382.5 60q-269 0 -489 -102t-346 -281.5t-126 -399.5q0 -162 74 -305t201.5 -245.5t306 -162t379.5 -59.5zM1241 309h-295v613h287q167 0 261.5 -81.5t94.5 -222.5t-95.5 -225t-252.5 -84zM1083 428h150
q102 0 158.5 47t56.5 137q0 59 -21 99t-59.5 59t-77 26t-88.5 7h-119v-375z" />
    <glyph glyph-name="E.ss08" 
d="M1225 -315q-237 0 -446.5 71t-359 193.5t-236.5 294t-87 364.5q0 198 87 372.5t236.5 298.5t359 195.5t446.5 71.5q239 0 449 -71.5t360 -195.5t236.5 -298.5t86.5 -372.5q0 -156 -55 -298t-157.5 -255t-241 -196.5t-313 -128.5t-365.5 -45zM1225 -162q204 0 383 59
t307 161t202 245.5t74 306.5q0 165 -74 310t-202 249t-307.5 164t-382.5 60q-269 0 -489 -102t-346 -281.5t-126 -399.5q0 -162 74 -305t201.5 -245.5t306 -162t379.5 -59.5zM1489 309h-502v613h494v-119h-359v-121h340v-123h-340v-131h367v-119z" />
    <glyph glyph-name="F.ss08" 
d="M1225 -315q-237 0 -446.5 71t-359 193.5t-236.5 294t-87 364.5q0 198 87 372.5t236.5 298.5t359 195.5t446.5 71.5q239 0 449 -71.5t360 -195.5t236.5 -298.5t86.5 -372.5q0 -156 -55 -298t-157.5 -255t-241 -196.5t-313 -128.5t-365.5 -45zM1225 -162q204 0 383 59
t307 161t202 245.5t74 306.5q0 165 -74 310t-202 249t-307.5 164t-382.5 60q-269 0 -489 -102t-346 -281.5t-126 -399.5q0 -162 74 -305t201.5 -245.5t306 -162t379.5 -59.5zM1139 309h-135v613h485v-121h-350v-131h331v-123h-331v-238z" />
    <glyph glyph-name="G.ss08" 
d="M1225 1546q239 0 449 -71.5t360 -195.5t236.5 -298.5t86.5 -372.5q0 -156 -55 -298t-157.5 -255t-241 -196.5t-313 -128.5t-365.5 -45q-237 0 -446.5 71t-359 193.5t-236.5 294t-87 364.5q0 198 87 372.5t236.5 298.5t359 195.5t446.5 71.5zM1225 -162q204 0 383 59
t307 161t202 245.5t74 306.5q0 165 -74 310t-202 249t-307.5 164t-382.5 60q-269 0 -489 -102t-346 -281.5t-126 -399.5q0 -162 74 -305t201.5 -245.5t306 -162t379.5 -59.5zM1247 526v107h352v-324h-112q0 15 -1 44t-1 40q-84 -96 -256 -96q-162 0 -266.5 89t-104.5 228
t107 228.5t272 89.5q124 0 217.5 -53.5t128.5 -145.5l-125 -47q-30 63 -87.5 95t-131.5 32q-105 0 -172.5 -56.5t-67.5 -146.5q0 -52 22.5 -91t60 -60t79.5 -31t88 -10q83 0 139 29t70 79h-211z" />
    <glyph glyph-name="H.ss08" 
d="M1225 1546q239 0 449 -71.5t360 -195.5t236.5 -298.5t86.5 -372.5q0 -156 -55 -298t-157.5 -255t-241 -196.5t-313 -128.5t-365.5 -45q-237 0 -446.5 71t-359 193.5t-236.5 294t-87 364.5q0 198 87 372.5t236.5 298.5t359 195.5t446.5 71.5zM1225 -162q204 0 383 59
t307 161t202 245.5t74 306.5q0 165 -74 310t-202 249t-307.5 164t-382.5 60q-269 0 -489 -102t-346 -281.5t-126 -399.5q0 -162 74 -305t201.5 -245.5t306 -162t379.5 -59.5zM1059 674h340v248h137v-613h-137v242h-340v-242h-137v613h137v-248z" />
    <glyph glyph-name="I.ss08" horiz-adv-x="2459" 
d="M1227 -315q-237 0 -446.5 71t-359 193.5t-236.5 294t-87 364.5q0 198 87 372.5t236.5 298.5t359 195.5t446.5 71.5q239 0 449 -71.5t360 -195.5t236.5 -298.5t86.5 -372.5q0 -156 -55 -298t-157.5 -255t-241 -196.5t-313 -128.5t-365.5 -45zM1227 -162q204 0 383 59
t307 161t202 245.5t74 306.5q0 165 -74 310t-202 249t-307.5 164t-382.5 60q-269 0 -489 -102t-346 -281.5t-126 -399.5q0 -162 74 -305t201.5 -245.5t306 -162t379.5 -59.5zM1298 309h-137v613h137v-613z" />
    <glyph glyph-name="J.ss08" 
d="M1225 -315q-237 0 -446.5 71t-359 193.5t-236.5 294t-87 364.5q0 198 87 372.5t236.5 298.5t359 195.5t446.5 71.5q239 0 449 -71.5t360 -195.5t236.5 -298.5t86.5 -372.5q0 -156 -55 -298t-157.5 -255t-241 -196.5t-313 -128.5t-365.5 -45zM1225 -162q204 0 383 59
t307 161t202 245.5t74 306.5q0 165 -74 310t-202 249t-307.5 164t-382.5 60q-269 0 -489 -102t-346 -281.5t-126 -399.5q0 -162 74 -305t201.5 -245.5t306 -162t379.5 -59.5zM1206 303q-120 0 -191 57t-71 154v29l133 18v-31q0 -52 33.5 -80t91.5 -28q65 0 86 32t21 87v387
h137v-371q0 -22 -0.5 -36t-5 -43.5t-13 -49.5t-26.5 -45.5t-42.5 -41.5t-64 -27t-88.5 -11z" />
    <glyph glyph-name="K.ss08" 
d="M1225 1546q239 0 449 -71.5t360 -195.5t236.5 -298.5t86.5 -372.5q0 -156 -55 -298t-157.5 -255t-241 -196.5t-313 -128.5t-365.5 -45q-237 0 -446.5 71t-359 193.5t-236.5 294t-87 364.5q0 198 87 372.5t236.5 298.5t359 195.5t446.5 71.5zM1225 -162q204 0 383 59
t307 161t202 245.5t74 306.5q0 165 -74 310t-202 249t-307.5 164t-382.5 60q-269 0 -489 -102t-346 -281.5t-126 -399.5q0 -162 74 -305t201.5 -245.5t306 -162t379.5 -59.5zM1399 922h164q-265 -239 -299 -269q39 -43 309 -344h-166l-238 248q-60 -53 -71 -61v-187h-137
v613h137v-254q51 42 151 127.5t150 126.5z" />
    <glyph glyph-name="L.ss08" 
d="M1225 1546q239 0 449 -71.5t360 -195.5t236.5 -298.5t86.5 -372.5q0 -156 -55 -298t-157.5 -255t-241 -196.5t-313 -128.5t-365.5 -45q-237 0 -446.5 71t-359 193.5t-236.5 294t-87 364.5q0 198 87 372.5t236.5 298.5t359 195.5t446.5 71.5zM1225 -162q204 0 383 59
t307 161t202 245.5t74 306.5q0 165 -74 310t-202 249t-307.5 164t-382.5 60q-269 0 -489 -102t-346 -281.5t-126 -399.5q0 -162 74 -305t201.5 -245.5t306 -162t379.5 -59.5zM1051 922h135v-494h340v-119h-475v613z" />
    <glyph glyph-name="M.ss08" horiz-adv-x="2459" 
d="M1225 1546q239 0 449 -71.5t360 -195.5t236.5 -298.5t86.5 -372.5q0 -156 -55 -298t-157.5 -255t-241 -196.5t-313 -128.5t-365.5 -45q-237 0 -446.5 71t-359 193.5t-236.5 294t-87 364.5q0 198 87 372.5t236.5 298.5t359 195.5t446.5 71.5zM1225 -162q204 0 383 59
t307 161t202 245.5t74 306.5q0 165 -74 310t-202 249t-307.5 164t-382.5 60q-269 0 -489 -102t-346 -281.5t-126 -399.5q0 -162 74 -305t201.5 -245.5t306 -162t379.5 -59.5zM1229 506q152 255 241 416h162v-613h-137v361q-38 -64 -114 -186.5t-107 -174.5h-88
q-196 321 -221 363v-363h-138v613h162q37 -66 118.5 -205.5t121.5 -210.5z" />
    <glyph glyph-name="N.ss08" 
d="M1225 1546q239 0 449 -71.5t360 -195.5t236.5 -298.5t86.5 -372.5q0 -156 -55 -298t-157.5 -255t-241 -196.5t-313 -128.5t-365.5 -45q-237 0 -446.5 71t-359 193.5t-236.5 294t-87 364.5q0 198 87 372.5t236.5 298.5t359 195.5t446.5 71.5zM1225 -162q204 0 383 59
t307 161t202 245.5t74 306.5q0 165 -74 310t-202 249t-307.5 164t-382.5 60q-269 0 -489 -102t-346 -281.5t-126 -399.5q0 -162 74 -305t201.5 -245.5t306 -162t379.5 -59.5zM1413 532v390h135v-613h-137q-49 54 -165.5 180t-180.5 197v-377h-137v613h137q32 -36 154 -171.5
t194 -218.5z" />
    <glyph glyph-name="O.ss08" horiz-adv-x="2455" 
d="M1225 -315q-237 0 -446.5 71t-359 193.5t-236.5 294t-87 364.5q0 198 87 372.5t236.5 298.5t359 195.5t446.5 71.5q239 0 449 -71.5t360 -195.5t236.5 -298.5t86.5 -372.5q0 -156 -55 -298t-157.5 -255t-241 -196.5t-313 -128.5t-365.5 -45zM1225 -162q204 0 383 59
t307 161t202 245.5t74 306.5q0 165 -74 310t-202 249t-307.5 164t-382.5 60q-269 0 -489 -102t-346 -281.5t-126 -399.5q0 -162 74 -305t201.5 -245.5t306 -162t379.5 -59.5zM1231 297q-162 0 -271.5 90.5t-109.5 226.5q0 135 110 226.5t271 91.5t270 -91.5t109 -226.5
t-109 -226t-270 -91zM1233 418q99 0 166 56t67 140q0 85 -67.5 142t-165.5 57q-101 0 -170.5 -57t-69.5 -142q0 -84 69 -140t171 -56z" />
    <glyph glyph-name="P.ss08" 
d="M1225 1546q239 0 449 -71.5t360 -195.5t236.5 -298.5t86.5 -372.5q0 -156 -55 -298t-157.5 -255t-241 -196.5t-313 -128.5t-365.5 -45q-237 0 -446.5 71t-359 193.5t-236.5 294t-87 364.5q0 198 87 372.5t236.5 298.5t359 195.5t446.5 71.5zM1225 -162q204 0 383 59
t307 161t202 245.5t74 306.5q0 165 -74 310t-202 249t-307.5 164t-382.5 60q-269 0 -489 -102t-346 -281.5t-126 -399.5q0 -162 74 -305t201.5 -245.5t306 -162t379.5 -59.5zM993 922h283q24 0 47.5 -2.5t55.5 -9t58.5 -20.5t50 -34.5t37 -54t13.5 -76.5q0 -52 -20 -91
t-48.5 -60t-66 -34t-65.5 -16.5t-54 -3.5h-156v-211h-135v613zM1128 643h132q135 0 135 80t-138 80h-129v-160z" />
    <glyph glyph-name="Q.ss08" 
d="M1225 -315q-237 0 -446.5 71t-359 193.5t-236.5 294t-87 364.5q0 198 87 372.5t236.5 298.5t359 195.5t446.5 71.5q239 0 449 -71.5t360 -195.5t236.5 -298.5t86.5 -372.5q0 -156 -55 -298t-157.5 -255t-241 -196.5t-313 -128.5t-365.5 -45zM1225 -162q204 0 383 59
t307 161t202 245.5t74 306.5q0 165 -74 310t-202 249t-307.5 164t-382.5 60q-269 0 -489 -102t-346 -281.5t-126 -399.5q0 -162 74 -305t201.5 -245.5t306 -162t379.5 -59.5zM1589 334l-98 -76q-52 49 -107 98q-74 -24 -159 -24q-165 0 -276 90.5t-111 226.5t111.5 228
t275.5 92q163 0 274 -92t111 -228q0 -135 -115 -227q18 -18 53.5 -50.5t40.5 -37.5zM1227 453q33 0 63 10q-61 53 -96 74l98 77q25 -23 65 -55.5t50 -40.5q63 60 63 131q0 87 -69 143t-174 56q-108 0 -178 -56t-70 -143q0 -86 69.5 -141t178.5 -55z" />
    <glyph glyph-name="R.ss08" 
d="M1225 1546q239 0 449 -71.5t360 -195.5t236.5 -298.5t86.5 -372.5q0 -156 -55 -298t-157.5 -255t-241 -196.5t-313 -128.5t-365.5 -45q-237 0 -446.5 71t-359 193.5t-236.5 294t-87 364.5q0 198 87 372.5t236.5 298.5t359 195.5t446.5 71.5zM1225 -162q204 0 383 59
t307 161t202 245.5t74 306.5q0 165 -74 310t-202 249t-307.5 164t-382.5 60q-269 0 -489 -102t-346 -281.5t-126 -399.5q0 -162 74 -305t201.5 -245.5t306 -162t379.5 -59.5zM1536 721q0 -69 -44 -117t-122 -67q68 -84 189 -228h-156l-178 213h-99v-213h-135v613h283
q28 0 56 -3t67.5 -15.5t68.5 -33t49.5 -59t20.5 -90.5zM1126 637h131q136 0 136 84q0 43 -40 62.5t-98 19.5h-129v-166z" />
    <glyph glyph-name="S.ss08" 
d="M1225 -315q-237 0 -446.5 71t-359 193.5t-236.5 294t-87 364.5q0 198 87 372.5t236.5 298.5t359 195.5t446.5 71.5q239 0 449 -71.5t360 -195.5t236.5 -298.5t86.5 -372.5q0 -156 -55 -298t-157.5 -255t-241 -196.5t-313 -128.5t-365.5 -45zM1225 -162q204 0 383 59
t307 161t202 245.5t74 306.5q0 165 -74 310t-202 249t-307.5 164t-382.5 60q-269 0 -489 -102t-346 -281.5t-126 -399.5q0 -162 74 -305t201.5 -245.5t306 -162t379.5 -59.5zM1243 297q-112 0 -191.5 49.5t-105.5 138.5l125 41q39 -110 170 -110q51 0 88 17t37 48
q0 7 -2 13.5t-6.5 11.5t-9 9.5t-13 8t-15 6.5t-17.5 6t-18 5t-20 5t-20 5l-69 18q-205 49 -205 181q0 81 75.5 131.5t184.5 50.5q96 0 169 -42t93 -108l-123 -49q-38 80 -143 80q-47 0 -77 -15t-30 -40q0 -44 125 -76l74 -18q31 -8 49 -13t50 -19.5t50.5 -30.5t33 -44
t14.5 -63q0 -87 -77.5 -142t-195.5 -55z" />
    <glyph glyph-name="T.ss08" horiz-adv-x="2455" 
d="M1225 -315q-237 0 -446.5 71t-359 193.5t-236.5 294t-87 364.5q0 198 87 372.5t236.5 298.5t359 195.5t446.5 71.5q239 0 449 -71.5t360 -195.5t236.5 -298.5t86.5 -372.5q0 -156 -55 -298t-157.5 -255t-241 -196.5t-313 -128.5t-365.5 -45zM1225 -162q204 0 383 59
t307 161t202 245.5t74 306.5q0 165 -74 310t-202 249t-307.5 164t-382.5 60q-269 0 -489 -102t-346 -281.5t-126 -399.5q0 -162 74 -305t201.5 -245.5t306 -162t379.5 -59.5zM1294 309h-135v494h-229v119h594v-119h-230v-494z" />
    <glyph glyph-name="U.ss08" horiz-adv-x="2459" 
d="M1225 -315q-237 0 -446.5 71t-359 193.5t-236.5 294t-87 364.5q0 198 87 372.5t236.5 298.5t359 195.5t446.5 71.5q239 0 449 -71.5t360 -195.5t236.5 -298.5t86.5 -372.5q0 -156 -55 -298t-157.5 -255t-241 -196.5t-313 -128.5t-365.5 -45zM1225 -162q204 0 383 59
t307 161t202 245.5t74 306.5q0 165 -74 310t-202 249t-307.5 164t-382.5 60q-269 0 -489 -102t-346 -281.5t-126 -399.5q0 -162 74 -305t201.5 -245.5t306 -162t379.5 -59.5zM1227 303q-66 0 -117.5 16.5t-82 42.5t-50 60.5t-26.5 66.5t-7 66v373h137v-363q0 -70 34 -106.5
t114 -36.5q77 0 112 36t35 107v363h137v-373q0 -33 -7 -65t-27 -66.5t-50.5 -60.5t-82.5 -43t-119 -17z" />
    <glyph glyph-name="V.ss08" 
d="M1225 1546q239 0 449 -71.5t360 -195.5t236.5 -298.5t86.5 -372.5q0 -156 -55 -298t-157.5 -255t-241 -196.5t-313 -128.5t-365.5 -45q-237 0 -446.5 71t-359 193.5t-236.5 294t-87 364.5q0 198 87 372.5t236.5 298.5t359 195.5t446.5 71.5zM1225 -162q204 0 383 59
t307 161t202 245.5t74 306.5q0 165 -74 310t-202 249t-307.5 164t-382.5 60q-269 0 -489 -102t-346 -281.5t-126 -399.5q0 -162 74 -305t201.5 -245.5t306 -162t379.5 -59.5zM1243 467q157 370 219 455h144l-291 -613h-150l-291 613h144q16 -19 55.5 -100t91.5 -193t78 -162
z" />
    <glyph glyph-name="W.ss08" 
d="M1225 1546q239 0 449 -71.5t360 -195.5t236.5 -298.5t86.5 -372.5q0 -156 -55 -298t-157.5 -255t-241 -196.5t-313 -128.5t-365.5 -45q-237 0 -446.5 71t-359 193.5t-236.5 294t-87 364.5q0 198 87 372.5t236.5 298.5t359 195.5t446.5 71.5zM1225 -162q204 0 383 59
t307 161t202 245.5t74 306.5q0 165 -74 310t-202 249t-307.5 164t-382.5 60q-269 0 -489 -102t-346 -281.5t-126 -399.5q0 -162 74 -305t201.5 -245.5t306 -162t379.5 -59.5zM1468 496q79 227 154 426h152l-224 -613h-159q-16 38 -162 402q-96 -248 -160 -402h-162l-223 613
h154q26 -69 153 -424q76 199 166 424h146z" />
    <glyph glyph-name="X.ss08" 
d="M1225 1546q239 0 449 -71.5t360 -195.5t236.5 -298.5t86.5 -372.5q0 -156 -55 -298t-157.5 -255t-241 -196.5t-313 -128.5t-365.5 -45q-237 0 -446.5 71t-359 193.5t-236.5 294t-87 364.5q0 198 87 372.5t236.5 298.5t359 195.5t446.5 71.5zM1225 -162q204 0 383 59
t307 161t202 245.5t74 306.5q0 165 -74 310t-202 249t-307.5 164t-382.5 60q-269 0 -489 -102t-346 -281.5t-126 -399.5q0 -162 74 -305t201.5 -245.5t306 -162t379.5 -59.5zM1403 922h160q-22 -27 -108.5 -137.5t-135.5 -168.5q37 -46 118.5 -149.5t125.5 -157.5h-162
q-32 37 -168 203q-136 -166 -168 -203h-164q32 37 64.5 76.5t55 68t62.5 79t66 83.5q-50 59 -129 161t-113 145h160q21 -27 166 -205q23 27 80 97t90 108z" />
    <glyph glyph-name="Y.ss08" 
d="M1225 1546q239 0 449 -71.5t360 -195.5t236.5 -298.5t86.5 -372.5q0 -156 -55 -298t-157.5 -255t-241 -196.5t-313 -128.5t-365.5 -45q-237 0 -446.5 71t-359 193.5t-236.5 294t-87 364.5q0 198 87 372.5t236.5 298.5t359 195.5t446.5 71.5zM1225 -162q204 0 383 59
t307 161t202 245.5t74 306.5q0 165 -74 310t-202 249t-307.5 164t-382.5 60q-269 0 -489 -102t-346 -281.5t-126 -399.5q0 -162 74 -305t201.5 -245.5t306 -162t379.5 -59.5zM1229 645q46 70 188 277h148q-241 -361 -271 -400v-213h-133v211q-40 59 -118.5 178t-151.5 224
h149q28 -43 92 -134.5t97 -142.5z" />
    <glyph glyph-name="Z.ss08" 
d="M1225 1546q239 0 449 -71.5t360 -195.5t236.5 -298.5t86.5 -372.5q0 -156 -55 -298t-157.5 -255t-241 -196.5t-313 -128.5t-365.5 -45q-237 0 -446.5 71t-359 193.5t-236.5 294t-87 364.5q0 198 87 372.5t236.5 298.5t359 195.5t446.5 71.5zM1225 -162q204 0 383 59
t307 161t202 245.5t74 306.5q0 165 -74 310t-202 249t-307.5 164t-382.5 60q-269 0 -489 -102t-346 -281.5t-126 -399.5q0 -162 74 -305t201.5 -245.5t306 -162t379.5 -59.5zM1518 922v-117q-71 -65 -195.5 -181.5t-210.5 -195.5h412v-119h-586v115q46 43 136.5 125
t154.5 142.5t114 111.5h-391v119h566z" />
    <glyph glyph-name="i.loclTRK" horiz-adv-x="661" 
d="M334 1298q-83 0 -139 53t-56 130q0 71 56.5 122.5t138.5 51.5q81 0 136.5 -51.5t55.5 -122.5q0 -77 -55.5 -130t-136.5 -53zM481 0h-299v1143h299v-1143z" />
    <glyph glyph-name="a.ss01" horiz-adv-x="1644" 
d="M717 -33q-188 0 -331.5 81t-218.5 217t-75 304q0 138 51 254t138 192.5t200 118.5t238 42q142 0 260 -52.5t184 -134.5h4v154h297v-1143h-286v145h-7q-71 -91 -192 -134.5t-262 -43.5zM784 240q165 0 273 95.5t108 237.5q0 144 -110 237t-275 93q-164 0 -270.5 -92.5
t-106.5 -235.5q0 -148 107 -241.5t274 -93.5z" />
    <glyph glyph-name="aacute.ss01" horiz-adv-x="1644" 
d="M1319 1657l-373 -379h-260l272 379h361zM717 -33q-188 0 -331.5 81t-218.5 217t-75 304q0 138 51 254t138 192.5t200 118.5t238 42q142 0 260 -52.5t184 -134.5h4v154h297v-1143h-286v145h-7q-71 -91 -192 -134.5t-262 -43.5zM784 240q165 0 273 95.5t108 237.5
q0 144 -110 237t-275 93q-164 0 -270.5 -92.5t-106.5 -235.5q0 -148 107 -241.5t274 -93.5z" />
    <glyph glyph-name="abreve.ss01" horiz-adv-x="1644" 
d="M829 1268q-206 0 -329 109.5t-131 285.5h247q2 -77 61 -133.5t161 -56.5q101 0 159.5 55.5t61.5 134.5h248q-8 -176 -135 -285.5t-343 -109.5zM717 -33q-188 0 -331.5 81t-218.5 217t-75 304q0 138 51 254t138 192.5t200 118.5t238 42q142 0 260 -52.5t184 -134.5h4v154
h297v-1143h-286v145h-7q-71 -91 -192 -134.5t-262 -43.5zM784 240q165 0 273 95.5t108 237.5q0 144 -110 237t-275 93q-164 0 -270.5 -92.5t-106.5 -235.5q0 -148 107 -241.5t274 -93.5z" />
    <glyph glyph-name="acircumflex.ss01" horiz-adv-x="1644" 
d="M604 1278h-282l354 371h317l357 -371h-283q-171 145 -231 197q-44 -37 -128 -108.5t-104 -88.5zM717 -33q-188 0 -331.5 81t-218.5 217t-75 304q0 138 51 254t138 192.5t200 118.5t238 42q142 0 260 -52.5t184 -134.5h4v154h297v-1143h-286v145h-7q-71 -91 -192 -134.5
t-262 -43.5zM784 240q165 0 273 95.5t108 237.5q0 144 -110 237t-275 93q-164 0 -270.5 -92.5t-106.5 -235.5q0 -148 107 -241.5t274 -93.5z" />
    <glyph glyph-name="adieresis.ss01" horiz-adv-x="1644" 
d="M573 1300q-75 0 -126.5 48.5t-51.5 117.5q0 65 52 111.5t126 46.5q73 0 125 -46.5t52 -111.5q0 -69 -51.5 -117.5t-125.5 -48.5zM1100 1300q-76 0 -127 48t-51 118q0 65 51 111.5t127 46.5q72 0 124 -46.5t52 -111.5q0 -69 -52 -117.5t-124 -48.5zM717 -33
q-188 0 -331.5 81t-218.5 217t-75 304q0 138 51 254t138 192.5t200 118.5t238 42q142 0 260 -52.5t184 -134.5h4v154h297v-1143h-286v145h-7q-71 -91 -192 -134.5t-262 -43.5zM784 240q165 0 273 95.5t108 237.5q0 144 -110 237t-275 93q-164 0 -270.5 -92.5t-106.5 -235.5
q0 -148 107 -241.5t274 -93.5z" />
    <glyph glyph-name="agrave.ss01" horiz-adv-x="1644" 
d="M975 1278h-262l-373 379h360zM717 -33q-188 0 -331.5 81t-218.5 217t-75 304q0 138 51 254t138 192.5t200 118.5t238 42q142 0 260 -52.5t184 -134.5h4v154h297v-1143h-286v145h-7q-71 -91 -192 -134.5t-262 -43.5zM784 240q165 0 273 95.5t108 237.5q0 144 -110 237
t-275 93q-164 0 -270.5 -92.5t-106.5 -235.5q0 -148 107 -241.5t274 -93.5z" />
    <glyph glyph-name="amacron.ss01" horiz-adv-x="1644" 
d="M1247 1331h-825v203h825v-203zM717 -33q-188 0 -331.5 81t-218.5 217t-75 304q0 138 51 254t138 192.5t200 118.5t238 42q142 0 260 -52.5t184 -134.5h4v154h297v-1143h-286v145h-7q-71 -91 -192 -134.5t-262 -43.5zM784 240q165 0 273 95.5t108 237.5q0 144 -110 237
t-275 93q-164 0 -270.5 -92.5t-106.5 -235.5q0 -148 107 -241.5t274 -93.5z" />
    <glyph glyph-name="aogonek.ss01" horiz-adv-x="1644" 
d="M1358 -270q63 0 112 16v-195q-63 -14 -139 -14q-152 0 -253 62t-101 176q0 76 56.5 135.5t150.5 89.5h-6v145h-7q-71 -91 -192 -134.5t-262 -43.5q-188 0 -331.5 81t-218.5 217t-75 304q0 138 51 254t138 192.5t200 118.5t238 42q142 0 260 -52.5t184 -134.5h4v154h297
v-1143h-82q-99 -21 -146.5 -66t-47.5 -94q0 -47 47 -78.5t123 -31.5zM784 240q165 0 273 95.5t108 237.5q0 144 -110 237t-275 93q-164 0 -270.5 -92.5t-106.5 -235.5q0 -148 107 -241.5t274 -93.5z" />
    <glyph glyph-name="aring.ss01" horiz-adv-x="1644" 
d="M836 1255q-128 0 -216 72.5t-88 177.5q0 106 87.5 177t216.5 71q127 0 214 -71.5t87 -176.5q0 -108 -87 -179t-214 -71zM836 1413q49 0 82.5 27t33.5 65q0 36 -33.5 62t-82.5 26q-52 0 -86.5 -26t-34.5 -62q0 -39 34.5 -65.5t86.5 -26.5zM717 -33q-188 0 -331.5 81
t-218.5 217t-75 304q0 138 51 254t138 192.5t200 118.5t238 42q142 0 260 -52.5t184 -134.5h4v154h297v-1143h-286v145h-7q-71 -91 -192 -134.5t-262 -43.5zM784 240q165 0 273 95.5t108 237.5q0 144 -110 237t-275 93q-164 0 -270.5 -92.5t-106.5 -235.5q0 -148 107 -241.5
t274 -93.5z" />
    <glyph glyph-name="atilde.ss01" horiz-adv-x="1644" 
d="M1030 1280q-103 0 -178 47l-64 37q-55 35 -102 35q-46 0 -72 -29t-26 -72h-215q0 144 84.5 231t214.5 87q92 0 182 -49l59 -35q44 -27 95 -27q39 0 60.5 26.5t21.5 70.5h217q0 -155 -72.5 -238.5t-204.5 -83.5zM717 -33q-188 0 -331.5 81t-218.5 217t-75 304
q0 138 51 254t138 192.5t200 118.5t238 42q142 0 260 -52.5t184 -134.5h4v154h297v-1143h-286v145h-7q-71 -91 -192 -134.5t-262 -43.5zM784 240q165 0 273 95.5t108 237.5q0 144 -110 237t-275 93q-164 0 -270.5 -92.5t-106.5 -235.5q0 -148 107 -241.5t274 -93.5z" />
    <glyph glyph-name="b.ss01" horiz-adv-x="1398" 
d="M842 -35q-264 0 -375 162h-4v-127h-281v1638h299v-964h6q49 52 141.5 80t202.5 28q145 0 261.5 -51.5t183.5 -146t67 -215.5q0 -175 -141.5 -289.5t-359.5 -114.5zM793 203q105 0 175 49.5t70 126.5q0 74 -66.5 123t-176.5 49q-117 0 -186.5 -49t-69.5 -123
q0 -75 72 -125.5t182 -50.5z" />
    <glyph glyph-name="d.ss01" horiz-adv-x="1638" 
d="M719 -33q-189 0 -333.5 81.5t-219 217.5t-74.5 303q0 111 33 208.5t92 170t137.5 125t171.5 79t193 26.5q141 0 253.5 -52.5t180.5 -134.5h6v647h299v-1638h-280v145h-7q-73 -91 -192 -134.5t-260 -43.5zM780 240q166 0 275.5 94.5t109.5 238.5q0 145 -110 237.5
t-275 92.5q-164 0 -270.5 -92.5t-106.5 -235.5q0 -148 106.5 -241.5t270.5 -93.5z" />
    <glyph glyph-name="dcaron.ss01" horiz-adv-x="1683" 
d="M1724 1094h-176l187 288q-60 23 -92.5 67.5t-32.5 98.5q0 73 58 125.5t140 52.5t139.5 -51t57.5 -123q0 -15 -2 -29t-9 -31.5t-13 -31t-21.5 -38.5t-27.5 -43t-38 -54t-45.5 -62t-57.5 -78t-67 -91zM719 -33q-189 0 -333.5 81.5t-219 217.5t-74.5 303q0 111 33 208.5
t92 170t137.5 125t171.5 79t193 26.5q141 0 253.5 -52.5t180.5 -134.5h6v647h299v-1638h-280v145h-7q-73 -91 -192 -134.5t-260 -43.5zM780 240q166 0 275.5 94.5t109.5 238.5q0 145 -110 237.5t-275 92.5q-164 0 -270.5 -92.5t-106.5 -235.5q0 -148 106.5 -241.5
t270.5 -93.5z" />
    <glyph glyph-name="dcroat.ss01" horiz-adv-x="1638" 
d="M1458 1481h318v-215h-318v-1266h-280v145h-7q-73 -91 -192 -134.5t-260 -43.5q-189 0 -333.5 81.5t-219 217.5t-74.5 303q0 111 33 208.5t92 170t137.5 125t171.5 79t193 26.5q141 0 253.5 -52.5t180.5 -134.5h6v275h-321v215h321v157h299v-157zM780 240
q166 0 275.5 94.5t109.5 238.5q0 145 -110 237.5t-275 92.5q-164 0 -270.5 -92.5t-106.5 -235.5q0 -148 106.5 -241.5t270.5 -93.5z" />
    <glyph glyph-name="g.ss01" horiz-adv-x="1638" 
d="M1456 -451h-1233v263h934v364h-6q-131 -170 -432 -170q-145 0 -265.5 47t-199 127.5t-121.5 185.5t-43 222q0 169 82 304t223.5 209.5t315.5 74.5q147 0 263 -52t183 -135h4v154h295v-1594zM778 281q164 0 274.5 91.5t110.5 221.5q0 131 -110.5 220t-274.5 89
q-163 0 -270 -89.5t-107 -219.5q0 -132 108 -222.5t269 -90.5z" />
    <glyph glyph-name="gbreve.ss01" horiz-adv-x="1638" 
d="M825 1268q-206 0 -329 109.5t-131 285.5h247q2 -77 61 -133.5t161 -56.5q101 0 159.5 55.5t61.5 134.5h248q-8 -176 -135 -285.5t-343 -109.5zM1456 -451h-1233v263h934v364h-6q-131 -170 -432 -170q-145 0 -265.5 47t-199 127.5t-121.5 185.5t-43 222q0 169 82 304
t223.5 209.5t315.5 74.5q147 0 263 -52t183 -135h4v154h295v-1594zM778 281q164 0 274.5 91.5t110.5 221.5q0 131 -110.5 220t-274.5 89q-163 0 -270 -89.5t-107 -219.5q0 -132 108 -222.5t269 -90.5z" />
    <glyph glyph-name="uni0123.ss01" horiz-adv-x="1638" 
d="M643 1430q0 21 5.5 41.5t13 38.5t30.5 53t41.5 62t63 90.5t80.5 115.5h172l-164 -250q108 -50 108 -149q0 -66 -50.5 -111t-125.5 -45q-73 0 -123.5 44.5t-50.5 109.5zM1456 -451h-1233v263h934v364h-6q-131 -170 -432 -170q-145 0 -265.5 47t-199 127.5t-121.5 185.5
t-43 222q0 169 82 304t223.5 209.5t315.5 74.5q147 0 263 -52t183 -135h4v154h295v-1594zM778 281q164 0 274.5 91.5t110.5 221.5q0 131 -110.5 220t-274.5 89q-163 0 -270 -89.5t-107 -219.5q0 -132 108 -222.5t269 -90.5z" />
    <glyph glyph-name="gdotaccent.ss01" horiz-adv-x="1638" 
d="M831 1315q-83 0 -138.5 52.5t-55.5 129.5q0 71 56 122.5t138 51.5q81 0 137 -51.5t56 -122.5q0 -77 -55.5 -129.5t-137.5 -52.5zM1456 -451h-1233v263h934v364h-6q-131 -170 -432 -170q-145 0 -265.5 47t-199 127.5t-121.5 185.5t-43 222q0 169 82 304t223.5 209.5
t315.5 74.5q147 0 263 -52t183 -135h4v154h295v-1594zM778 281q164 0 274.5 91.5t110.5 221.5q0 131 -110.5 220t-274.5 89q-163 0 -270 -89.5t-107 -219.5q0 -132 108 -222.5t269 -90.5z" />
    <glyph glyph-name="i.ss01" horiz-adv-x="927" 
d="M459 1298q-83 0 -139 53t-56 130q0 71 56.5 122.5t138.5 51.5q81 0 136.5 -51.5t55.5 -122.5q0 -77 -55.5 -130t-136.5 -53zM885 0h-555v881h-299v262h598v-881h256v-262z" />
    <glyph glyph-name="dotlessi.ss01" horiz-adv-x="927" 
d="M885 0h-555v881h-299v262h598v-881h256v-262z" />
    <glyph glyph-name="iacute.ss01" horiz-adv-x="927" 
d="M920 1657l-373 -379h-260l272 379h361zM885 0h-555v881h-299v262h598v-881h256v-262z" />
    <glyph glyph-name="icircumflex.ss01" horiz-adv-x="927" 
d="M205 1278h-283l354 371h318l356 -371h-282q-205 173 -232 197q-43 -36 -123 -105t-108 -92zM885 0h-555v881h-299v262h598v-881h256v-262z" />
    <glyph glyph-name="idieresis.ss01" horiz-adv-x="927" 
d="M174 1300q-75 0 -126.5 48.5t-51.5 117.5q0 65 52 111.5t126 46.5q73 0 124.5 -46.5t51.5 -111.5q0 -69 -51.5 -117.5t-124.5 -48.5zM700 1300q-76 0 -127 48t-51 118q0 65 51 111.5t127 46.5q72 0 124.5 -47t52.5 -111q0 -69 -52.5 -117.5t-124.5 -48.5zM885 0h-555v881
h-299v262h598v-881h256v-262z" />
    <glyph glyph-name="i.loclTRK.ss01" horiz-adv-x="927" 
d="M444 1315q-83 0 -138.5 52.5t-55.5 129.5q0 71 56 122.5t138 51.5q81 0 137 -51.5t56 -122.5q0 -77 -55.5 -129.5t-137.5 -52.5zM885 0h-555v881h-299v262h598v-881h256v-262z" />
    <glyph glyph-name="igrave.ss01" horiz-adv-x="927" 
d="M575 1278h-262l-372 379h360zM885 0h-555v881h-299v262h598v-881h256v-262z" />
    <glyph glyph-name="imacron.ss01" horiz-adv-x="927" 
d="M848 1331h-825v203h825v-203zM885 0h-555v881h-299v262h598v-881h256v-262z" />
    <glyph glyph-name="iogonek.ss01" horiz-adv-x="927" 
d="M436 1315q-83 0 -138.5 52.5t-55.5 129.5q0 71 56 122.5t138 51.5q81 0 137 -51.5t56 -122.5q0 -77 -55.5 -129.5t-137.5 -52.5zM885 0h-371q-90 -23 -133 -66.5t-43 -89.5q0 -47 47 -78.5t123 -31.5q64 0 113 16v-194q-67 -15 -140 -15q-152 0 -253 62t-101 176
q0 75 55 134t148 89v879h-299v262h598v-881h256v-262z" />
    <glyph glyph-name="j.ss01" horiz-adv-x="851" 
d="M504 1298q-84 0 -140.5 53t-56.5 130q0 72 56.5 123t140.5 51q79 0 134.5 -51.5t55.5 -122.5q0 -77 -55.5 -130t-134.5 -53zM672 -451h-801v263h502v1069h-344v262h643v-1594z" />
    <glyph glyph-name="l.ss01" horiz-adv-x="937" 
d="M922 0h-738v1638h301v-1376h437v-262z" />
    <glyph glyph-name="lacute.ss01" horiz-adv-x="937" 
d="M944 2122l-395 -361h-273l287 361h381zM922 0h-738v1638h301v-1376h437v-262z" />
    <glyph glyph-name="lcaron.ss01" horiz-adv-x="937" 
d="M791 1030h-177l189 289q-61 23 -94 67.5t-33 98.5q0 73 59.5 125.5t141.5 52.5q80 0 138 -51t58 -123q0 -56 -38 -119t-172 -243q-46 -62 -72 -97zM922 0h-738v1638h301v-1376h437v-262z" />
    <glyph glyph-name="uni013C.ss01" horiz-adv-x="937" 
d="M922 0h-738v1638h301v-1376h437v-262zM403 -649h-159l147 237q-54 20 -85.5 60.5t-31.5 87.5q0 67 51.5 111t125.5 44q75 0 124.5 -43t49.5 -108q0 -21 -5.5 -41.5t-13 -38.5t-29 -51.5t-39.5 -60.5t-59.5 -86.5t-75.5 -110.5z" />
    <glyph glyph-name="lslash.ss01" horiz-adv-x="937" 
d="M485 899v-637h437v-262h-738v709l-219 -138v248l219 137v682h301v-491l246 153v-247z" />
    <glyph glyph-name="m.ss01" horiz-adv-x="2406" 
d="M481 0h-299v1143h299v-336l527 336h346v-336l524 336h348v-1143h-301v846h-14l-557 -359v-487h-299v846h-15l-559 -361v-485z" />
    <glyph glyph-name="n.ss01" horiz-adv-x="1566" 
d="M481 725l631 418h272v-1143h-297v801h-14l-592 -334v-467h-299v1143h299v-418z" />
    <glyph glyph-name="nacute.ss01" horiz-adv-x="1566" 
d="M905 1657h361l-373 -379h-260zM481 725l631 418h272v-1143h-297v801h-14l-592 -334v-467h-299v1143h299v-418z" />
    <glyph glyph-name="ncaron.ss01" horiz-adv-x="1566" 
d="M1296 1681l-356 -387h-317l-355 387h283q73 -62 231 -198q37 32 232 198h282zM481 725l631 418h272v-1143h-297v801h-14l-592 -334v-467h-299v1143h299v-418z" />
    <glyph glyph-name="uni0146.ss01" horiz-adv-x="1566" 
d="M481 725l631 418h272v-1143h-297v801h-14l-592 -334v-467h-299v1143h299v-418zM821 -109q75 0 124.5 -43t49.5 -108q0 -21 -5.5 -41.5t-12.5 -38.5t-28.5 -51.5t-39.5 -60t-60 -87t-75 -110.5h-160l148 237q-54 20 -85.5 60.5t-31.5 87.5q0 67 51 111t125 44z" />
    <glyph glyph-name="eng.ss01" horiz-adv-x="1566" 
d="M952 -483q-143 0 -270 43v247q106 -34 207 -34q41 0 73.5 7t53 17t35 28.5t21.5 32.5t10.5 39t4 38t0.5 38v828h-14l-592 -334v-467h-299v1143h299v-387l631 387h272v-1157q0 -57 -1 -88.5t-9 -88.5t-23.5 -90.5t-47 -77t-76.5 -67t-115 -40.5t-160 -17z" />
    <glyph glyph-name="ntilde.ss01" horiz-adv-x="1566" 
d="M633 1399q-46 0 -72 -29t-26 -72h-216q0 144 84.5 231t214.5 87q93 0 183 -49l59 -35q44 -27 94 -27q39 0 60.5 26.5t21.5 70.5h217q0 -155 -72 -238.5t-204 -83.5q-103 0 -178 47l-64 37q-55 35 -102 35zM481 725l631 418h272v-1143h-297v801h-14l-592 -334v-467h-299
v1143h299v-418z" />
    <glyph glyph-name="p.ss01" horiz-adv-x="1640" 
d="M481 -451h-299v1594h295v-170h4q173 203 463 203q180 0 319 -81.5t212 -218t73 -301.5q0 -140 -51 -256.5t-137.5 -193t-199 -118.5t-236.5 -42q-147 0 -260.5 52.5t-182.5 134.5v-603zM858 240q165 0 272 93t107 236q0 145 -107.5 238.5t-271.5 93.5q-163 0 -273 -93.5
t-110 -238.5q0 -144 110 -236.5t273 -92.5z" />
    <glyph glyph-name="q.ss01" horiz-adv-x="1640" 
d="M1458 -451h-299v619q-80 -101 -199 -152t-260 -51q-177 0 -317 82t-215.5 221.5t-75.5 309.5q0 136 49 249.5t134 189t198 117.5t240 42q146 0 262.5 -52t183.5 -135h4v154h295v-1594zM780 240q166 0 275.5 94.5t109.5 238.5q0 145 -110 237.5t-275 92.5t-271 -93
t-106 -239q0 -142 107 -236.5t270 -94.5z" />
    <glyph glyph-name="r.ss01" horiz-adv-x="1024" 
d="M481 0h-299v1143h811v-262h-512v-881z" />
    <glyph glyph-name="racute.ss01" horiz-adv-x="1024" 
d="M1016 1657l-373 -379h-260l272 379h361zM481 0h-299v1143h811v-262h-512v-881z" />
    <glyph glyph-name="rcaron.ss01" horiz-adv-x="1024" 
d="M690 1294h-317l-355 387h283q73 -62 231 -198q37 32 232 198h283zM481 0h-299v1143h811v-262h-512v-881z" />
    <glyph glyph-name="uni0157.ss01" horiz-adv-x="1024" 
d="M481 0h-299v1143h811v-262h-512v-881zM301 -649h-160l148 237q-54 20 -85.5 60.5t-31.5 87.5q0 67 51 111t125 44q75 0 124.5 -43t49.5 -108q0 -21 -5.5 -41.5t-12.5 -38.5t-28.5 -51.5t-39.5 -60t-60 -87t-75 -110.5z" />
    <glyph glyph-name="s.ss01" horiz-adv-x="1224" 
d="M1094 0h-963v262h670v209h-670v672h963v-262h-670v-203h670v-678z" />
    <glyph glyph-name="sacute.ss01" horiz-adv-x="1224" 
d="M1092 1657l-373 -379h-260l272 379h361zM1094 0h-963v262h670v209h-670v672h963v-262h-670v-203h670v-678z" />
    <glyph glyph-name="scaron.ss01" horiz-adv-x="1224" 
d="M768 1294h-317l-355 387h283q73 -62 231 -198q37 32 232 198h282zM1094 0h-963v262h670v209h-670v672h963v-262h-670v-203h670v-678z" />
    <glyph glyph-name="scedilla.ss01" horiz-adv-x="1224" 
d="M1094 1143v-262h-670v-203h670v-678h-363l-96 -106q28 8 65 8q105 0 174.5 -54.5t69.5 -144.5q0 -101 -90 -162t-233 -61q-105 0 -193.5 34.5t-142.5 94.5l100 112q84 -96 227 -96q59 0 96 21.5t37 58.5q0 36 -36 57t-91 21q-61 0 -108 -29l-98 68l141 178h-422v262h670
v209h-670v672h963z" />
    <glyph glyph-name="uni0219.ss01" horiz-adv-x="1224" 
d="M1094 0h-963v262h670v209h-670v672h963v-262h-670v-203h670v-678zM596 -649h-160l148 237q-54 20 -85.5 60.5t-31.5 87.5q0 67 51 111t125 44q75 0 124.5 -43t49.5 -108q0 -21 -5.5 -41.5t-12.5 -38.5t-28.5 -51.5t-39.5 -60t-60 -87t-75 -110.5z" />
    <glyph glyph-name="t.ss01" horiz-adv-x="1060" 
d="M604 883v-621h400v-262h-699v883h-270v260h270v323h299v-323h383v-260h-383z" />
    <glyph glyph-name="tbar.ss01" horiz-adv-x="1060" 
d="M604 481v-219h400v-262h-699v481h-268v215h268v187h-270v260h270v323h299v-323h383v-260h-383v-187h371v-215h-371z" />
    <glyph glyph-name="tcaron.ss01" horiz-adv-x="1060" 
d="M1257 1679q80 0 138.5 -52t58.5 -122q0 -14 -2.5 -27.5t-5.5 -25.5t-11.5 -29.5t-16 -31t-23.5 -37.5t-28.5 -42t-37.5 -51.5t-43.5 -59t-53 -72t-61.5 -82.5h-176l187 288q-60 21 -92.5 66t-32.5 100q0 73 59 125.5t141 52.5zM987 883h-383v-621h400v-262h-699v883h-270
v260h270v323h299v-323h383v-260z" />
    <glyph glyph-name="uni0163.ss01" horiz-adv-x="1060" 
d="M1004 262v-262h-295l-97 -106q28 8 66 8q105 0 174.5 -54.5t69.5 -144.5q0 -101 -90.5 -162t-233.5 -61q-105 0 -193.5 34.5t-142.5 94.5l100 112q84 -96 228 -96q59 0 96 21.5t37 58.5q0 36 -36 57t-91 21q-62 0 -109 -29l-98 68l141 178h-225v883h-270v260h270v323h299
v-323h383v-260h-383v-621h400z" />
    <glyph glyph-name="uni021B.ss01" horiz-adv-x="1060" 
d="M604 883v-621h400v-262h-699v883h-270v260h270v323h299v-323h383v-260h-383zM623 -109q75 0 124.5 -43t49.5 -108q0 -21 -5.5 -41.5t-13 -38.5t-29 -51.5t-39.5 -60.5t-59.5 -86.5t-75.5 -110.5h-159l147 237q-54 20 -85.5 60.5t-31.5 87.5q0 67 51.5 111t125.5 44z" />
    <glyph glyph-name="yacute.ss01" horiz-adv-x="1460" 
d="M1237 1657l-373 -379h-260l273 379h360zM772 -451h-311l184 404h-137l-481 1190h319l336 -819h96l342 819h316z" />
    <glyph glyph-name="ycircumflex.ss01" horiz-adv-x="1460" 
d="M522 1278h-282l354 371h317l357 -371h-283q-171 145 -231 197q-44 -37 -128 -108.5t-104 -88.5zM772 -451h-311l184 404h-137l-481 1190h319l336 -819h96l342 819h316z" />
    <glyph glyph-name="ydieresis.ss01" horiz-adv-x="1460" 
d="M492 1300q-75 0 -127 48.5t-52 117.5q0 65 52 111.5t127 46.5q73 0 124.5 -46.5t51.5 -111.5q0 -69 -51.5 -117.5t-124.5 -48.5zM1018 1300q-76 0 -127 48t-51 118q0 65 51 111.5t127 46.5q72 0 124 -46.5t52 -111.5q0 -69 -52 -117.5t-124 -48.5zM772 -451h-311l184 404
h-137l-481 1190h319l336 -819h96l342 819h316z" />
    <glyph glyph-name="ygrave.ss01" horiz-adv-x="1460" 
d="M893 1278h-262l-373 379h360zM772 -451h-311l184 404h-137l-481 1190h319l336 -819h96l342 819h316z" />
    <glyph glyph-name="a.ss02" horiz-adv-x="1427" 
d="M545 -35q-122 0 -223 35.5t-166.5 113t-65.5 185.5q0 50 15 92.5t39 73.5t61 57.5t74 44t86 32.5t88.5 24t89.5 18q32 5 77 12.5t72.5 12t64 10.5t59 12t48 14t40.5 17t28.5 20.5t19.5 26t6 31.5q0 59 -69.5 102t-179.5 43q-106 0 -183 -45t-110 -137l-283 90
q30 87 90.5 151.5t141 102t169 55t187.5 17.5q244 0 393.5 -106t149.5 -300v-770h-283v154h-6q-59 -87 -170.5 -138t-259.5 -51zM621 186q77 0 143 23.5t107 60.5t64 79t23 81v92q-107 -37 -282 -65q-48 -8 -90 -19t-82.5 -28.5t-64 -44t-23.5 -58.5q0 -61 56.5 -91
t148.5 -30z" />
    <glyph glyph-name="aacute.ss02" horiz-adv-x="1427" 
d="M1200 1657l-373 -379h-260l273 379h360zM545 -35q-122 0 -223 35.5t-166.5 113t-65.5 185.5q0 50 15 92.5t39 73.5t61 57.5t74 44t86 32.5t88.5 24t89.5 18q32 5 77 12.5t72.5 12t64 10.5t59 12t48 14t40.5 17t28.5 20.5t19.5 26t6 31.5q0 59 -69.5 102t-179.5 43
q-106 0 -183 -45t-110 -137l-283 90q30 87 90.5 151.5t141 102t169 55t187.5 17.5q244 0 393.5 -106t149.5 -300v-770h-283v154h-6q-59 -87 -170.5 -138t-259.5 -51zM621 186q77 0 143 23.5t107 60.5t64 79t23 81v92q-107 -37 -282 -65q-48 -8 -90 -19t-82.5 -28.5t-64 -44
t-23.5 -58.5q0 -61 56.5 -91t148.5 -30z" />
    <glyph glyph-name="abreve.ss02" horiz-adv-x="1427" 
d="M713 1268q-207 0 -330 109.5t-131 285.5h248q2 -77 60.5 -133.5t160.5 -56.5q101 0 159.5 55.5t61.5 134.5h248q-8 -176 -134.5 -285.5t-342.5 -109.5zM545 -35q-122 0 -223 35.5t-166.5 113t-65.5 185.5q0 50 15 92.5t39 73.5t61 57.5t74 44t86 32.5t88.5 24t89.5 18
q32 5 77 12.5t72.5 12t64 10.5t59 12t48 14t40.5 17t28.5 20.5t19.5 26t6 31.5q0 59 -69.5 102t-179.5 43q-106 0 -183 -45t-110 -137l-283 90q30 87 90.5 151.5t141 102t169 55t187.5 17.5q244 0 393.5 -106t149.5 -300v-770h-283v154h-6q-59 -87 -170.5 -138t-259.5 -51z
M621 186q77 0 143 23.5t107 60.5t64 79t23 81v92q-107 -37 -282 -65q-48 -8 -90 -19t-82.5 -28.5t-64 -44t-23.5 -58.5q0 -61 56.5 -91t148.5 -30z" />
    <glyph glyph-name="acircumflex.ss02" horiz-adv-x="1193" 
d="M481 1278h-282l354 371h317l357 -371h-283q-171 145 -231 197q-44 -37 -128 -108.5t-104 -88.5zM545 -35q-122 0 -223 35.5t-166.5 113t-65.5 185.5q0 50 15 92.5t39 73.5t61 57.5t74 44t86 32.5t88.5 24t89.5 18q32 5 77 12.5t72.5 12t64 10.5t59 12t48 14t40.5 17
t28.5 20.5t19.5 26t6 31.5q0 59 -69.5 102t-179.5 43q-106 0 -183 -45t-110 -137l-283 90q30 87 90.5 151.5t141 102t169 55t187.5 17.5q244 0 393.5 -106t149.5 -300v-770h-283v154h-6q-59 -87 -170.5 -138t-259.5 -51zM621 186q77 0 143 23.5t107 60.5t64 79t23 81v92
q-107 -37 -282 -65q-48 -8 -90 -19t-82.5 -28.5t-64 -44t-23.5 -58.5q0 -61 56.5 -91t148.5 -30z" />
    <glyph glyph-name="adieresis.ss02" horiz-adv-x="1427" 
d="M455 1300q-75 0 -127 48.5t-52 117.5q0 65 52 111.5t127 46.5q73 0 124.5 -46.5t51.5 -111.5q0 -69 -51.5 -117.5t-124.5 -48.5zM981 1300q-76 0 -127 48t-51 118q0 65 51 111.5t127 46.5q72 0 124 -46.5t52 -111.5q0 -69 -52 -117.5t-124 -48.5zM545 -35
q-122 0 -223 35.5t-166.5 113t-65.5 185.5q0 50 15 92.5t39 73.5t61 57.5t74 44t86 32.5t88.5 24t89.5 18q32 5 77 12.5t72.5 12t64 10.5t59 12t48 14t40.5 17t28.5 20.5t19.5 26t6 31.5q0 59 -69.5 102t-179.5 43q-106 0 -183 -45t-110 -137l-283 90q30 87 90.5 151.5
t141 102t169 55t187.5 17.5q244 0 393.5 -106t149.5 -300v-770h-283v154h-6q-59 -87 -170.5 -138t-259.5 -51zM621 186q77 0 143 23.5t107 60.5t64 79t23 81v92q-107 -37 -282 -65q-48 -8 -90 -19t-82.5 -28.5t-64 -44t-23.5 -58.5q0 -61 56.5 -91t148.5 -30z" />
    <glyph glyph-name="agrave.ss02" horiz-adv-x="1427" 
d="M858 1278h-262l-373 379h361zM545 -35q-122 0 -223 35.5t-166.5 113t-65.5 185.5q0 50 15 92.5t39 73.5t61 57.5t74 44t86 32.5t88.5 24t89.5 18q32 5 77 12.5t72.5 12t64 10.5t59 12t48 14t40.5 17t28.5 20.5t19.5 26t6 31.5q0 59 -69.5 102t-179.5 43q-106 0 -183 -45
t-110 -137l-283 90q30 87 90.5 151.5t141 102t169 55t187.5 17.5q244 0 393.5 -106t149.5 -300v-770h-283v154h-6q-59 -87 -170.5 -138t-259.5 -51zM621 186q77 0 143 23.5t107 60.5t64 79t23 81v92q-107 -37 -282 -65q-48 -8 -90 -19t-82.5 -28.5t-64 -44t-23.5 -58.5
q0 -61 56.5 -91t148.5 -30z" />
    <glyph glyph-name="amacron.ss02" horiz-adv-x="1193" 
d="M1147 1335h-825v203h825v-203zM545 -35q-122 0 -223 35.5t-166.5 113t-65.5 185.5q0 50 15 92.5t39 73.5t61 57.5t74 44t86 32.5t88.5 24t89.5 18q32 5 77 12.5t72.5 12t64 10.5t59 12t48 14t40.5 17t28.5 20.5t19.5 26t6 31.5q0 59 -69.5 102t-179.5 43q-106 0 -183 -45
t-110 -137l-283 90q30 87 90.5 151.5t141 102t169 55t187.5 17.5q244 0 393.5 -106t149.5 -300v-770h-283v154h-6q-59 -87 -170.5 -138t-259.5 -51zM621 186q77 0 143 23.5t107 60.5t64 79t23 81v92q-107 -37 -282 -65q-48 -8 -90 -19t-82.5 -28.5t-64 -44t-23.5 -58.5
q0 -61 56.5 -91t148.5 -30z" />
    <glyph glyph-name="aogonek.ss02" horiz-adv-x="1427" 
d="M1155 -270q64 0 113 16v-195q-63 -14 -140 -14q-152 0 -253 62t-101 176q0 76 56.5 135.5t150.5 89.5v154h-6q-59 -87 -170.5 -138t-259.5 -51q-122 0 -223 35.5t-166.5 113t-65.5 185.5q0 50 15 92.5t39 73.5t61 57.5t74 44t86 32.5t88.5 24t89.5 18q32 5 77 12.5
t72.5 12t64 10.5t59 12t48 14t40.5 17t28.5 20.5t19.5 26t6 31.5q0 59 -69.5 102t-179.5 43q-106 0 -183 -45t-110 -137l-283 90q30 87 90.5 151.5t141 102t169 55t187.5 17.5q244 0 393.5 -106t149.5 -300v-770h-84q-99 -22 -147 -66.5t-48 -93.5q0 -47 47 -78.5t123 -31.5
zM958 430v92q-107 -37 -282 -65q-48 -8 -90 -19t-82.5 -28.5t-64 -44t-23.5 -58.5q0 -61 56.5 -91t148.5 -30q77 0 143 23.5t107 60.5t64 79t23 81z" />
    <glyph glyph-name="aring.ss02" horiz-adv-x="1427" 
d="M717 1255q-128 0 -215.5 72.5t-87.5 177.5q0 106 87 177t216 71q127 0 214 -71.5t87 -176.5q0 -108 -87 -179t-214 -71zM717 1413q49 0 83 27t34 65q0 36 -34 62t-83 26q-52 0 -86.5 -26t-34.5 -62q0 -39 34.5 -65.5t86.5 -26.5zM545 -35q-122 0 -223 35.5t-166.5 113
t-65.5 185.5q0 50 15 92.5t39 73.5t61 57.5t74 44t86 32.5t88.5 24t89.5 18q32 5 77 12.5t72.5 12t64 10.5t59 12t48 14t40.5 17t28.5 20.5t19.5 26t6 31.5q0 59 -69.5 102t-179.5 43q-106 0 -183 -45t-110 -137l-283 90q30 87 90.5 151.5t141 102t169 55t187.5 17.5
q244 0 393.5 -106t149.5 -300v-770h-283v154h-6q-59 -87 -170.5 -138t-259.5 -51zM621 186q77 0 143 23.5t107 60.5t64 79t23 81v92q-107 -37 -282 -65q-48 -8 -90 -19t-82.5 -28.5t-64 -44t-23.5 -58.5q0 -61 56.5 -91t148.5 -30z" />
    <glyph glyph-name="atilde.ss02" horiz-adv-x="1427" 
d="M911 1280q-103 0 -178 47l-63 37q-55 35 -103 35q-46 0 -72 -29t-26 -72h-215q0 144 84.5 231t214.5 87q92 0 182 -49l60 -35q44 -27 94 -27q39 0 60.5 26.5t21.5 70.5h217q0 -155 -72.5 -238.5t-204.5 -83.5zM545 -35q-122 0 -223 35.5t-166.5 113t-65.5 185.5
q0 50 15 92.5t39 73.5t61 57.5t74 44t86 32.5t88.5 24t89.5 18q32 5 77 12.5t72.5 12t64 10.5t59 12t48 14t40.5 17t28.5 20.5t19.5 26t6 31.5q0 59 -69.5 102t-179.5 43q-106 0 -183 -45t-110 -137l-283 90q30 87 90.5 151.5t141 102t169 55t187.5 17.5q244 0 393.5 -106
t149.5 -300v-770h-283v154h-6q-59 -87 -170.5 -138t-259.5 -51zM621 186q77 0 143 23.5t107 60.5t64 79t23 81v92q-107 -37 -282 -65q-48 -8 -90 -19t-82.5 -28.5t-64 -44t-23.5 -58.5q0 -61 56.5 -91t148.5 -30z" />
    <glyph glyph-name="h.ss02" horiz-adv-x="1566" 
d="M481 0h-299v1638h299v-882l631 387h272v-1143h-297v801h-14l-592 -334v-467z" />
    <glyph glyph-name="hbar.ss02" horiz-adv-x="1566" 
d="M481 756l631 387h272v-1143h-297v801h-14l-592 -334v-467h-299v1268h-266v215h266v155h299v-155h373v-215h-373v-512z" />
    </font>
</defs>
</svg>
