<?xml version="1.0" standalone="no"?>
<!DOCTYPE svg PUBLIC "-//W3C//DTD SVG 1.1//EN" "http://www.w3.org/Graphics/SVG/1.1/DTD/svg11.dtd" >
<svg xmlns="http://www.w3.org/2000/svg" xmlns:xlink="http://www.w3.org/1999/xlink" version="1.1">
<metadata>
Created by FontForge 20170731 at Mon Mar 15 14:20:55 2021
 By Aleksey,,,
Copyright (c) 2020 by Matthieu Salvaggio x Blaze Type. All rights reserved.
</metadata>
<defs>
<font id="Area-BlackItalicExtended" horiz-adv-x="2457" >
  <font-face 
    font-family="Area Black Italic Extended"
    font-weight="900"
    font-style="italic"
    font-stretch="normal"
    units-per-em="2048"
    panose-1="0 0 10 0 0 0 0 0 0 0"
    ascent="1638"
    descent="-410"
    x-height="1143"
    cap-height="1597"
    bbox="-1952 -649 3095 2208"
    underline-thickness="102"
    underline-position="-307"
    slope="-10"
    unicode-range="U+0020-25CA"
  />
<missing-glyph horiz-adv-x="1685" 
d="M1376 0h-1265l282 1597h1266zM575 1407l-188 -971l936 971h-748zM1384 1210l-958 -1017h766z" />
    <glyph glyph-name=".notdef" horiz-adv-x="1685" 
d="M1376 0h-1265l282 1597h1266zM575 1407l-188 -971l936 971h-748zM1384 1210l-958 -1017h766z" />
    <glyph glyph-name=".null" horiz-adv-x="0" 
 />
    <glyph glyph-name="nonmarkingreturn" horiz-adv-x="682" 
 />
    <glyph glyph-name="space" unicode=" " horiz-adv-x="602" 
 />
    <glyph glyph-name="exclam" unicode="!" horiz-adv-x="688" 
d="M410 500h-166l92 915l26 182h328l-28 -182zM244 -14q-72 0 -122 45t-50 112q0 85 69.5 146t157.5 61q72 0 121 -44.5t49 -110.5q0 -78 -68 -143.5t-157 -65.5z" />
    <glyph glyph-name="quotedbl" unicode="&#x22;" horiz-adv-x="1052" 
d="M526 1049h-286l92 548h286zM987 1049h-287l91 548h286z" />
    <glyph glyph-name="numbersign" unicode="#" horiz-adv-x="1890" 
d="M1890 1126l-86 -235h-313l-113 -268h293l-84 -236h-305l-160 -387h-268l160 387h-398l-159 -387h-269l160 387h-282l84 236h294l113 268h-274l88 235h282l195 471h268l-194 -471h397l194 471h269l-195 -471h303zM713 623h397l113 268h-398z" />
    <glyph glyph-name="dollar" unicode="$" horiz-adv-x="1505" 
d="M889 909l100 -32q134 -41 184 -64q195 -92 195 -272q0 -122 -81 -226t-225 -169t-321 -74l-26 -154h-144l27 156q-204 19 -335 122.5t-157 272.5l291 82q22 -90 88.5 -142.5t159.5 -68.5l60 328l-52 14q-393 102 -393 344q0 173 169.5 312.5t420.5 154.5l24 145h144
l-27 -147q184 -21 304.5 -114t134.5 -206l-273 -114q-20 65 -74 109t-137 61zM580 1087q0 -49 43.5 -78.5t130.5 -56.5l49 281q-99 -9 -161 -49t-62 -97zM840 633l-52 -297q108 11 177 56t69 106q0 53 -49.5 81.5t-144.5 53.5z" />
    <glyph glyph-name="percent" unicode="%" horiz-adv-x="2269" 
d="M465 715q-143 0 -224 89t-81 247q0 131 58.5 245t164 183t233.5 69q142 0 224 -90t82 -248q0 -131 -59 -244.5t-164.5 -182t-233.5 -68.5zM487 0h-278l1624 1468h270zM496 928q68 0 121 97t53 196q0 114 -86 114q-45 0 -85.5 -46.5t-63.5 -114t-23 -132.5q0 -114 84 -114
zM1716 -29q-143 0 -224 89t-81 247q0 131 59 245t164.5 183.5t233.5 69.5q141 0 223 -90t82 -248q0 -131 -59 -244.5t-164.5 -182.5t-233.5 -69zM1747 184q68 0 121 97t53 196q0 115 -86 115q-45 0 -85.5 -46.5t-63.5 -114t-23 -132.5q0 -115 84 -115z" />
    <glyph glyph-name="ampersand" unicode="&#x26;" horiz-adv-x="1763" 
d="M584 -35q-233 0 -380 100t-147 267q0 263 457 495q-168 179 -168 326q0 125 79.5 234.5t218.5 176t302 66.5q208 0 332.5 -102t124.5 -256q0 -280 -459 -475l252 -226q99 139 156 252l276 -53q-123 -247 -252 -403l355 -365h-394l-170 150q-261 -187 -583 -187zM799 963
q62 27 106 51.5t88 58t67 74t23 86.5q0 64 -49 101.5t-131 37.5q-101 0 -169 -55t-68 -137q0 -50 33 -101.5t100 -115.5zM645 231q194 0 354 111l-337 311q-63 -29 -106 -53t-88.5 -57t-69 -69.5t-23.5 -76.5q0 -75 76 -120.5t194 -45.5z" />
    <glyph glyph-name="quotesingle" unicode="'" horiz-adv-x="593" 
d="M526 1049h-286l92 548h286z" />
    <glyph glyph-name="parenleft" unicode="(" horiz-adv-x="841" 
d="M678 -307h-311q-128 153 -196.5 341.5t-68.5 391.5q0 315 159.5 625.5t440.5 545.5h312q-279 -237 -438.5 -546t-159.5 -623q0 -201 67.5 -391.5t194.5 -343.5z" />
    <glyph glyph-name="parenright" unicode=")" horiz-adv-x="839" 
d="M168 -307h-311q283 243 440.5 551.5t157.5 617.5q0 201 -67 389.5t-195 345.5h311q131 -155 197.5 -343.5t66.5 -389.5q0 -309 -157.5 -621t-442.5 -550z" />
    <glyph glyph-name="asterisk" unicode="*" horiz-adv-x="958" 
d="M635 1026h-156l37 172l-203 -90l-59 119l221 86l-188 82l96 121l170 -89l27 170h155l-33 -170l201 89l58 -119l-218 -84l187 -86l-99 -119l-165 90z" />
    <glyph glyph-name="plus" unicode="+" horiz-adv-x="1263" 
d="M791 733h354l-33 -219h-360l-56 -317h-250l56 317h-363l35 219h365l55 320h252z" />
    <glyph glyph-name="comma" unicode="," horiz-adv-x="610" 
d="M94 -283h-170l230 289q-103 39 -103 137q0 82 70 144.5t162 62.5q72 0 120 -43.5t48 -109.5q0 -64 -63 -146t-294 -334z" />
    <glyph glyph-name="hyphen" unicode="-" horiz-adv-x="1052" 
d="M901 502h-768l37 243h768z" />
    <glyph glyph-name="period" unicode="." horiz-adv-x="622" 
d="M227 -14q-73 0 -121.5 44.5t-48.5 112.5q0 83 68.5 145t159.5 62q72 0 120 -43.5t48 -109.5q0 -81 -68 -146t-158 -65z" />
    <glyph glyph-name="slash" unicode="/" horiz-adv-x="1114" 
d="M240 -135h-283l981 1773h285z" />
    <glyph glyph-name="zero" unicode="0" horiz-adv-x="1718" 
d="M750 -35q-283 0 -445 173.5t-162 479.5q0 150 42 298t123 276t190 226.5t252.5 155t300.5 56.5q281 0 442.5 -174.5t161.5 -480.5q0 -124 -29.5 -248t-83.5 -236t-135.5 -208.5t-179.5 -167t-221 -110.5t-256 -40zM788 250q91 0 174 40.5t146.5 110.5t111 160.5t72.5 194
t25 207.5q0 187 -77.5 285t-225.5 98q-112 0 -213 -62t-170.5 -162t-110.5 -228t-41 -259q0 -188 79 -286.5t230 -98.5z" />
    <glyph glyph-name="one" unicode="1" horiz-adv-x="993" 
d="M672 0h-318l205 1104q-81 -63 -196.5 -113t-233.5 -71l47 317q185 44 315 145.5t152 214.5h309z" />
    <glyph glyph-name="two" unicode="2" horiz-adv-x="1550" 
d="M1319 0h-1280l4 37q26 112 68 200.5t98 159.5t146 140.5t189 129t251 138.5q191 98 256 141q166 111 166 223q0 85 -77 136t-208 51q-183 0 -305.5 -98t-153.5 -259l-291 48q29 169 141.5 302t285 207t374.5 74q256 0 411.5 -115.5t155.5 -304.5q0 -84 -35.5 -163.5
t-84.5 -135t-116 -107t-115.5 -79t-96.5 -49.5q-52 -24 -132.5 -59.5t-128.5 -57t-111 -54.5t-103.5 -62.5t-80 -71t-65.5 -88.5h881z" />
    <glyph glyph-name="three" unicode="3" horiz-adv-x="1595" 
d="M680 -35q-168 0 -308.5 45t-230.5 128t-110 192l297 133q7 -23 22.5 -49t47 -56.5t73.5 -54.5t107 -40.5t141 -16.5q179 0 293 71.5t114 178.5q0 89 -84.5 139.5t-242.5 50.5h-193l39 248h178q162 0 269.5 67t107.5 166q0 86 -81.5 135.5t-209.5 49.5
q-144 0 -254.5 -66.5t-152.5 -185.5l-281 63q42 128 149 233.5t267 169.5t340 64q155 0 281.5 -44t203 -131t76.5 -202q0 -145 -108 -261.5t-269 -147.5l-2 -2q140 -24 223.5 -104.5t83.5 -213.5q0 -107 -58.5 -208.5t-160 -179t-250 -124.5t-317.5 -47z" />
    <glyph glyph-name="four" unicode="4" horiz-adv-x="1644" 
d="M1196 0h-307l61 338h-936l41 250l1121 1009h301l-181 -1003h263l-37 -256h-262zM1108 1190l-729 -596h610z" />
    <glyph glyph-name="five" unicode="5" horiz-adv-x="1601" 
d="M672 -35q-161 0 -298.5 44t-233.5 131t-126 204l279 158q24 -89 90 -150t149 -87.5t179 -26.5q128 0 234.5 46t166 122.5t59.5 164.5q0 110 -89.5 175t-239.5 65q-127 0 -228 -48.5t-168 -127.5l-249 67l385 895h993l-41 -266h-764l-197 -379h5q68 48 170 75.5t213 27.5
q62 0 123.5 -9.5t124.5 -29t116.5 -53.5t95.5 -80t66 -111.5t24 -144.5q0 -126 -63.5 -246t-173 -212t-267.5 -148t-335 -56z" />
    <glyph glyph-name="six" unicode="6" horiz-adv-x="1662" 
d="M752 -35q-301 0 -463 153t-162 439q0 198 83 391t225 344t347.5 244.5t434.5 93.5q135 0 258.5 -36.5t207.5 -120.5l-206 -218q-125 101 -326 101q-117 0 -226.5 -41t-192 -109t-140.5 -155.5t-82 -180.5h4q78 81 210 127.5t282 46.5q89 0 171.5 -18.5t153 -56t122 -90.5
t81 -125.5t29.5 -157.5q0 -121 -61 -235.5t-166.5 -202t-258.5 -140.5t-325 -53zM799 238q111 0 210 42.5t158.5 115.5t59.5 157q0 107 -92 172.5t-228 65.5q-112 0 -213 -45.5t-161 -120t-60 -156.5q0 -104 94.5 -167.5t231.5 -63.5z" />
    <glyph glyph-name="seven" unicode="7" horiz-adv-x="1433" 
d="M573 0h-335q27 143 97 306.5t181 340.5t278 361t367 342h-981l39 256h1352l-39 -260q-208 -137 -381.5 -313t-288.5 -355.5t-187.5 -350.5t-101.5 -327z" />
    <glyph glyph-name="eight" unicode="8" horiz-adv-x="1634" 
d="M713 -35q-277 0 -453 118t-176 302q0 154 121.5 283.5t304.5 169.5l2 4q-103 37 -159 109.5t-56 172.5q0 133 93 249t257 186.5t359 70.5q245 0 399 -107t154 -284q0 -134 -94 -244t-246 -153v-4q127 -29 207.5 -117.5t80.5 -216.5q0 -106 -61 -205t-165 -172.5
t-252.5 -117.5t-315.5 -44zM885 963q147 0 249.5 70t102.5 163q0 76 -75.5 125t-192.5 49q-146 0 -249.5 -68.5t-103.5 -162.5q0 -80 76.5 -128t192.5 -48zM750 231q118 0 218.5 40.5t158 108.5t57.5 146q0 97 -89 154t-241 57q-189 0 -311.5 -83.5t-122.5 -202.5
q0 -104 94 -162t236 -58z" />
    <glyph glyph-name="nine" unicode="9" horiz-adv-x="1681" 
d="M623 -35q-178 0 -328.5 56.5t-231.5 150.5l203 211q139 -154 381 -154q123 0 231 42t184 113.5t127.5 161.5t72.5 189h-5q-69 -84 -211.5 -139t-304.5 -55q-150 0 -274.5 52t-202.5 156.5t-78 243.5q0 119 62 234t169 204t263 144t332 55q106 0 196.5 -20.5t168.5 -67
t133 -116t86.5 -172t31.5 -230.5q0 -127 -32.5 -255.5t-92 -246t-149 -219.5t-198.5 -177t-246.5 -118t-286.5 -43zM840 793q175 0 306.5 101.5t131.5 231.5q0 108 -93 171t-227 63q-177 0 -305.5 -99t-128.5 -229q0 -112 91.5 -175.5t224.5 -63.5z" />
    <glyph glyph-name="colon" unicode=":" horiz-adv-x="692" 
d="M393 795q-72 0 -121 45t-49 112q0 83 69.5 145t160.5 62q71 0 119.5 -43.5t48.5 -109.5q0 -81 -69 -146t-159 -65zM246 -12q-73 0 -121.5 44.5t-48.5 112.5q0 83 68 145t159 62q71 0 119.5 -43.5t48.5 -109.5q0 -80 -68.5 -145.5t-156.5 -65.5z" />
    <glyph glyph-name="semicolon" unicode=";" horiz-adv-x="727" 
d="M418 795q-74 0 -123 45t-49 112q0 83 69 145t158 62q72 0 122 -44.5t50 -108.5q0 -80 -69.5 -145.5t-157.5 -65.5zM129 -299h-178l233 305q-40 19 -65 56t-25 81q0 83 69 145t159 62q73 0 121.5 -43t48.5 -110q0 -62 -63.5 -147.5t-299.5 -348.5z" />
    <glyph glyph-name="less" unicode="&#x3c;" horiz-adv-x="1249" 
d="M1053 438l-31 -209l-887 230l45 305l971 229l-35 -209l-745 -172z" />
    <glyph glyph-name="equal" unicode="=" horiz-adv-x="1314" 
d="M1180 719h-987l34 219h987zM1104 270h-989l35 222h987z" />
    <glyph glyph-name="greater" unicode="&#x3e;" horiz-adv-x="1247" 
d="M1083 459l-968 -230l32 209l748 174l-686 172l31 209l890 -229z" />
    <glyph glyph-name="question" unicode="?" horiz-adv-x="1447" 
d="M797 457h-324v28q0 141 78.5 233t282.5 187q41 19 50 23.5t51 26.5t57.5 33.5t47 36t45 44.5t25.5 48t12 57q0 80 -75 128t-193 48q-147 0 -258.5 -80.5t-134.5 -204.5q-1 -6 -4 -35l-281 49l4 29q27 159 137.5 279.5t267.5 181.5t333 61q150 0 272.5 -44.5t199 -136
t76.5 -216.5q0 -53 -16 -103t-39.5 -89t-60.5 -77.5t-68.5 -64t-76 -53.5t-69.5 -42t-61 -32q-142 -75 -184 -105q-95 -76 -98 -165q0 -9 2 -25t2 -20zM567 -14q-73 0 -122.5 45.5t-49.5 111.5q0 82 68.5 144.5t157.5 62.5q72 0 121 -44t49 -111q0 -82 -68 -145.5
t-156 -63.5z" />
    <glyph glyph-name="at" unicode="@" horiz-adv-x="2338" 
d="M1001 -195q-220 0 -393.5 51.5t-284.5 144.5t-169 218.5t-58 276.5q0 140 51.5 281.5t143.5 266t223 233t284.5 186.5t335 122.5t367.5 44.5q250 0 439.5 -78.5t294 -228.5t104.5 -352q0 -137 -51.5 -269.5t-138.5 -234.5t-211 -164.5t-261 -62.5q-136 0 -202 57.5
t-56 144.5q-97 -105 -222 -152.5t-255 -47.5q-170 0 -264 84t-94 223q0 112 62.5 228.5t161.5 207t230.5 148t261.5 57.5q117 0 193.5 -44t93.5 -118l60 135h215l-205 -528q-97 -232 69 -232q101 0 192.5 82.5t144.5 210t53 258.5q0 238 -165.5 367t-475.5 129
q-162 0 -316 -38t-280 -104t-231.5 -156.5t-177 -194.5t-111.5 -219.5t-40 -229.5q0 -258 184 -391t539 -133q380 0 662 151l80 -145q-167 -100 -375.5 -142.5t-407.5 -42.5zM1053 453q82 0 162.5 34t138 86t93.5 116.5t36 123.5q0 76 -53.5 120t-145.5 44q-81 0 -161.5 -34
t-139 -86t-95 -117t-36.5 -126q0 -76 52.5 -118.5t148.5 -42.5z" />
    <glyph glyph-name="A" unicode="A" horiz-adv-x="1865" 
d="M242 0h-332l1022 1597h368l457 -1597h-336q-23 70 -68 214t-65 204h-770zM711 713h489q-107 363 -149 518h-4q-77 -119 -336 -518z" />
    <glyph glyph-name="B" unicode="B" horiz-adv-x="1753" 
d="M907 0h-790l282 1597h772q247 0 386 -94.5t139 -257.5q0 -142 -109 -263.5t-278 -160.5v-4q154 -28 238.5 -104t84.5 -217q0 -140 -92 -253.5t-258 -178t-375 -64.5zM594 938h364q177 0 284.5 57t107.5 154q0 168 -316 168h-360q-8 -38 -22.5 -125t-28 -151t-29.5 -103z
M475 281h404q193 0 304 61t111 158q0 50 -27.5 86t-76.5 54.5t-105 27t-124 8.5h-404q-63 -295 -82 -395z" />
    <glyph glyph-name="C" unicode="C" horiz-adv-x="2043" 
d="M985 -35q-390 0 -622 191t-232 512q0 189 87.5 365.5t236.5 308t359 210t443 78.5q304 0 518 -136.5t271 -365.5l-311 -112q-49 145 -183 236t-338 91q-159 0 -300 -55.5t-238 -146.5t-153 -208t-56 -239q0 -95 32.5 -171.5t87 -126t129 -83t153.5 -47.5t165 -14
q238 0 417 105.5t278 279.5l280 -96q-154 -288 -420 -432t-604 -144z" />
    <glyph glyph-name="D" unicode="D" horiz-adv-x="1957" 
d="M862 0h-745l282 1597h723q393 0 589 -170t196 -475q0 -147 -47 -287.5t-138 -260.5t-216 -210.5t-291.5 -142t-352.5 -51.5zM475 281h399q157 0 289 48t220.5 131.5t138 195.5t49.5 239q0 78 -16.5 141t-44.5 106.5t-71 75.5t-89 51t-107.5 30t-116.5 14.5t-125 3.5h-327
q-18 -92 -35 -171.5t-29.5 -137.5t-47 -241.5t-87.5 -485.5z" />
    <glyph glyph-name="E" unicode="E" horiz-adv-x="1595" 
d="M1382 0h-1265l282 1597h1241l-43 -280h-923q-3 -14 -24 -95t-52 -264h877l-45 -294h-875q-9 -42 -13.5 -63.5t-7.5 -37t-18.5 -88.5t-40.5 -192h948z" />
    <glyph glyph-name="F" unicode="F" horiz-adv-x="1521" 
d="M1618 1597l-41 -282h-905l-72 -389h848l-43 -297h-858l-113 -629h-317l282 1597h1219z" />
    <glyph glyph-name="G" unicode="G" horiz-adv-x="2136" 
d="M942 -35q-370 0 -591.5 189.5t-221.5 504.5q0 190 87 367.5t235.5 310.5t359 213t444.5 80q306 0 520.5 -138.5t270.5 -363.5l-311 -112q-52 148 -184.5 237.5t-333.5 89.5q-159 0 -301.5 -55.5t-240 -146t-154 -208t-56.5 -239.5q0 -99 35 -177t91 -126.5t132.5 -81
t154 -45t160.5 -12.5q149 0 279 39.5t224.5 114t135.5 174.5h-547l39 247h865l-146 -827h-246q3 22 12.5 81.5t22.5 160.5h-12q-268 -277 -723 -277z" />
    <glyph glyph-name="H" unicode="H" horiz-adv-x="1990" 
d="M1522 938l116 659h320l-283 -1597h-319l117 643h-924l-115 -643h-317l282 1597h318l-117 -659h922z" />
    <glyph glyph-name="I" unicode="I" horiz-adv-x="749" 
d="M434 0h-317l282 1597h318z" />
    <glyph glyph-name="J" unicode="J" horiz-adv-x="1509" 
d="M606 -35q-111 0 -207 22.5t-173 66.5t-127 110.5t-69 154t1 197.5l8 55l319 41l-10 -51q-30 -139 51 -224t234 -85q59 0 108.5 12t84 31t63 47.5t46 56t31.5 62.5t20.5 61t12.5 58l181 1017h315l-170 -968q-35 -190 -92 -307q-176 -357 -627 -357z" />
    <glyph glyph-name="K" unicode="K" horiz-adv-x="1726" 
d="M432 0h-317l282 1597h318q-90 -517 -125 -714h8q490 389 926 714h374q-255 -201 -876 -694q79 -112 229.5 -327.5t264.5 -378.5t139 -197h-387q-136 180 -500 686q-35 -29 -77.5 -63t-93.5 -74.5t-79 -63.5q-51 -297 -86 -485z" />
    <glyph glyph-name="L" unicode="L" horiz-adv-x="1437" 
d="M717 1597l-234 -1314h871l-43 -283h-1194l282 1597h318z" />
    <glyph glyph-name="M" unicode="M" horiz-adv-x="2494" 
d="M440 0h-323l282 1597h394q33 -87 133 -345t163 -427t125 -350h5q66 89 193 262.5t205 279t202 266.5t247 314h396l-283 -1597h-324q23 116 54 258.5t61.5 304t81.5 465.5h-8q-123 -174 -256 -352t-231 -304.5t-291 -371.5h-240q-91 223 -139 344.5t-119 316t-125 367.5
h-6q-26 -135 -53 -300.5t-58.5 -329.5t-85.5 -398z" />
    <glyph glyph-name="N" unicode="N" horiz-adv-x="2009" 
d="M434 0h-317l282 1597h332q371 -527 717 -1062h6q18 92 83 416t122 646h315l-282 -1597h-330q-79 114 -227 323.5t-268 382.5t-226 334h-6q-13 -72 -69.5 -323.5t-131.5 -716.5z" />
    <glyph glyph-name="O" unicode="O" horiz-adv-x="2138" 
d="M965 -35q-244 0 -434 87.5t-296 247.5t-106 366q0 148 56.5 292.5t161 264.5t242.5 212t310.5 143.5t355.5 51.5q244 0 434.5 -88.5t296 -249t105.5 -366.5q0 -124 -41 -246t-114 -227.5t-177.5 -196t-227.5 -154.5t-269 -100.5t-297 -36.5zM1008 252q150 0 288.5 53.5
t237.5 141.5t158 204.5t59 237.5q0 201 -149 327.5t-385 126.5q-149 0 -288 -54t-240 -142t-161.5 -205.5t-60.5 -239.5q0 -200 151 -325t390 -125z" />
    <glyph glyph-name="P" unicode="P" horiz-adv-x="1654" 
d="M399 1597h723q24 0 42 -0.5t63 -4t81.5 -10.5t87 -22t90 -35t81 -53t69 -73.5t45 -98.5t17.5 -126q0 -117 -53 -227.5t-147 -195.5t-235 -136.5t-305 -51.5h-426l-98 -563h-317zM586 858h346q118 0 212.5 27t155 86.5t60.5 144.5q0 62 -28 104t-79.5 62t-104.5 27.5
t-124 7.5h-354z" />
    <glyph glyph-name="Q" unicode="Q" horiz-adv-x="2168" 
d="M1896 -47l-256 -182q-40 47 -121 140t-106 122q-213 -68 -434 -68q-250 0 -443.5 87.5t-301 248t-107.5 367.5q0 151 57.5 295.5t163.5 264t246 210.5t315.5 141.5t360.5 50.5q186 0 344 -51t269.5 -142t174 -220.5t62.5 -282.5q0 -208 -114 -408t-316 -338
q36 -39 206 -235zM1022 252q103 0 209 27q-29 31 -91 92.5t-116 120.5l256 182q27 -29 74.5 -81t87.5 -95t76 -80q125 89 197.5 217.5t72.5 261.5q0 197 -152.5 321.5t-406.5 124.5q-160 0 -304.5 -53.5t-245.5 -142t-160.5 -205.5t-59.5 -240q0 -207 155.5 -328.5
t407.5 -121.5z" />
    <glyph glyph-name="R" unicode="R" horiz-adv-x="1720" 
d="M434 0h-317l282 1597h723q42 0 83 -3t101 -13.5t110.5 -28t104 -50.5t90.5 -77t61 -111.5t24 -150.5q0 -203 -150 -361.5t-391 -205.5v-2q35 -53 83.5 -116.5t112.5 -164.5t183 -313h-356l-367 571h-272q-13 -65 -18 -93t-9.5 -52.5t-24.5 -136.5t-53 -289zM578 842h352
q193 0 310.5 75.5t117.5 192.5q0 59 -28 101.5t-77 65.5t-105.5 33.5t-123.5 10.5h-350q-12 -60 -42.5 -213t-53.5 -266z" />
    <glyph glyph-name="S" unicode="S" horiz-adv-x="1599" 
d="M715 -35q-268 0 -452 125t-214 348l311 97q13 -82 50 -141t93 -91t118.5 -46.5t136.5 -14.5q168 0 280.5 63t112.5 154q0 36 -20 66t-46 48.5t-73.5 37t-78.5 27t-85 21.5l-166 43q-61 15 -110.5 31.5t-115 50t-109.5 73.5t-75.5 103.5t-31.5 139.5q0 81 34.5 159.5
t100.5 145t154.5 117t203.5 79.5t240 29q133 0 243.5 -32t183 -85t116.5 -118.5t55 -137.5l-307 -112q-27 98 -112 153.5t-226 55.5q-145 0 -245.5 -56t-100.5 -135q0 -34 21 -63.5t49.5 -49t75.5 -39t80 -29.5t83 -24l190 -53q45 -12 73 -20t77.5 -26t81.5 -36t71 -47.5
t62 -63t39 -80t16 -100.5q0 -106 -58 -208t-158 -181.5t-249 -128.5t-319 -49z" />
    <glyph glyph-name="T" unicode="T" horiz-adv-x="1566" 
d="M840 0h-316q24 135 36.5 203.5t23.5 127t58 315.5t122 671h-596l43 280h1507l-41 -280h-596q-30 -165 -53 -307.5t-61.5 -352.5t-126.5 -657z" />
    <glyph glyph-name="U" unicode="U" horiz-adv-x="1835" 
d="M809 -35q-121 0 -219 22t-164.5 59.5t-115 90.5t-74.5 111t-37.5 125t-9.5 129t14 125l176 970h317l-172 -946q-9 -46 -8.5 -91t10 -90.5t34.5 -84t62.5 -69t97.5 -47.5t136 -17q92 0 168.5 26t127.5 66.5t89.5 95.5t59 106.5t30.5 104.5l174 946h318l-178 -970
q-11 -62 -29 -121.5t-51.5 -127t-77.5 -125t-110 -112t-145.5 -92.5t-188 -61t-234.5 -23z" />
    <glyph glyph-name="V" unicode="V" horiz-adv-x="1865" 
d="M1018 0h-373l-455 1597h334q33 -88 101 -318t148 -509.5t116 -396.5h4q89 127 402 620t407 604h336z" />
    <glyph glyph-name="W" unicode="W" horiz-adv-x="2828" 
d="M887 0h-398l-282 1597h360q3 -18 20 -115t21 -118t19 -106.5t19.5 -115t17.5 -106.5t19 -117t17 -111t19 -124t17 -120l18 -134h6q160 283 657 1167h361q36 -191 112 -582.5t113 -584.5h4q60 113 165 311.5t163 309t140.5 263t154.5 283.5h358l-846 -1597h-395
q-130 609 -217 1114h-4q-406 -734 -639 -1114z" />
    <glyph glyph-name="X" unicode="X" horiz-adv-x="1660" 
d="M291 -2h-383q116 120 369 387.5t395 411.5l2 6q-50 83 -208.5 356t-264.5 438h372q44 -68 86 -154.5t97.5 -178.5t152.5 -215h4q83 80 258.5 261.5t288.5 286.5h373q-83 -84 -176.5 -189.5t-161 -184.5t-179 -192.5t-241.5 -227.5l-2 -6q89 -143 245 -411t230 -388h-381
q-60 96 -167 279t-162 272h-4q-93 -93 -272 -276t-271 -275z" />
    <glyph glyph-name="Y" unicode="Y" horiz-adv-x="1712" 
d="M913 0h-315q5 26 31.5 189t66.5 360q-45 91 -93.5 175.5t-82 144.5t-116 243t-205.5 485h340l360 -747h4q68 78 136 170.5t114.5 159t146 177.5t238.5 240h340q-145 -174 -432 -523t-432 -523q-89 -505 -101 -551z" />
    <glyph glyph-name="Z" unicode="Z" horiz-adv-x="1646" 
d="M1462 0h-1482l45 285q198 165 390.5 323t488.5 398t380 309v4q-342 -2 -1030 -2l45 280h1427l-47 -286q-232 -189 -661.5 -535t-605.5 -489v-4h1093z" />
    <glyph glyph-name="bracketleft" unicode="[" horiz-adv-x="952" 
d="M715 -432h-676l354 2029h676l-41 -260h-377l-270 -1478h377z" />
    <glyph glyph-name="backslash" unicode="\" horiz-adv-x="1093" 
d="M899 -135h-285l-354 1773h283z" />
    <glyph glyph-name="bracketright" unicode="]" horiz-adv-x="954" 
d="M571 -432h-675l43 291h378l271 1478h-379l41 260h676z" />
    <glyph glyph-name="asciicircum" unicode="^" horiz-adv-x="1124" 
d="M412 993h-228l432 604h269l215 -604h-228l-147 432h-6z" />
    <glyph glyph-name="underscore" unicode="_" horiz-adv-x="1300" 
d="M1085 -250h-1144l32 227h1147z" />
    <glyph glyph-name="a" unicode="a" horiz-adv-x="1431" 
d="M438 -35q-183 0 -293 77t-110 216q0 71 28.5 128.5t74 96.5t115.5 70.5t139 50.5t159 37q40 8 95 17t93 15.5t82 15t73 19t54.5 24.5t38 34t12.5 45q0 58 -58 94.5t-159 36.5q-107 0 -194 -44.5t-137 -137.5l-269 90q46 87 117.5 151.5t158.5 102t179 55t192 17.5
q242 0 372.5 -106t96.5 -300l-73 -414q-21 -124 -25 -199t6 -157h-299q-14 72 2 150h-4q-74 -86 -198 -135.5t-269 -49.5zM551 186q148 0 256.5 75.5t128.5 168.5l20 90q-13 -4 -26.5 -7.5t-24 -6.5t-26.5 -6.5t-24.5 -6t-28 -6t-27 -5t-31.5 -6l-32 -6t-37.5 -6.5t-39.5 -7
q-128 -24 -210 -67.5t-82 -104.5q0 -45 49 -72t135 -27z" />
    <glyph glyph-name="b" unicode="b" horiz-adv-x="1632" 
d="M819 -35q-147 0 -252.5 52.5t-154.5 134.5h-6l-31 -152h-295l289 1638h299l-121 -663q201 201 504 201q234 0 369.5 -133.5t135.5 -354.5q0 -140 -58 -272.5t-156 -231.5t-235.5 -159t-287.5 -60zM791 240q123 0 227.5 54t163.5 143t59 190q0 124 -86 199t-229 75
q-187 0 -323 -117t-136 -272q0 -123 89.5 -197.5t234.5 -74.5z" />
    <glyph glyph-name="c" unicode="c" horiz-adv-x="1490" 
d="M684 -35q-279 0 -442.5 137t-163.5 369q0 137 61 265t166 225.5t257.5 156t324.5 58.5q213 0 368.5 -95t200.5 -262l-299 -108q-25 96 -107 143t-198 47q-193 0 -327 -116t-134 -271q0 -128 93 -201t245 -73q129 0 238.5 52.5t177.5 151.5l264 -108q-105 -173 -300 -272
t-425 -99z" />
    <glyph glyph-name="d" unicode="d" horiz-adv-x="1638" 
d="M606 -35q-243 0 -385.5 133.5t-142.5 360.5q0 138 57.5 269t154.5 229.5t235.5 158.5t291.5 60q145 0 249 -51.5t155 -133.5h4l121 647h299l-226 -1282q-24 -128 -26.5 -213.5t8.5 -142.5h-299q-11 98 2 145h-4q-91 -91 -222 -135.5t-272 -44.5zM711 240q186 0 323 117.5
t137 273.5q0 122 -90.5 197t-234.5 75q-123 0 -227.5 -54t-164 -143t-59.5 -190q0 -124 86.5 -200t229.5 -76z" />
    <glyph glyph-name="e" unicode="e" horiz-adv-x="1456" 
d="M651 -35q-263 0 -421 135.5t-158 362.5q0 138 60 268t162 228t247.5 157.5t306.5 59.5q95 0 180.5 -23t158.5 -70.5t120.5 -120t66.5 -171t-4 -224.5l-16 -88h-987q-6 -122 85.5 -189t239.5 -67q115 0 215 47.5t160 135.5l262 -109q-96 -144 -277.5 -238t-400.5 -94z
M416 694h671q7 80 -31.5 135t-102 78t-146.5 23q-134 0 -238 -65.5t-153 -170.5z" />
    <glyph glyph-name="f" unicode="f" horiz-adv-x="929" 
d="M469 0h-299l162 883h-205l39 260h203l20 112q76 418 516 418q133 0 225 -33l-34 -239q-88 26 -164 26q-43 0 -78.5 -7.5t-58.5 -17t-42 -29.5t-28.5 -32.5t-18.5 -40t-11.5 -38t-8.5 -39.5l-18 -80h338l-39 -260h-336z" />
    <glyph glyph-name="g" unicode="g" horiz-adv-x="1634" 
d="M598 -483q-495 0 -582 327l287 95q30 -93 110 -136t214 -43q100 0 182 33.5t134.5 89t85 115t50.5 125.5l13 53h-5q-165 -170 -466 -170q-246 0 -392.5 128.5t-146.5 348.5q0 134 58 260.5t155 222t234 153t286 57.5q148 0 255 -52t157 -135h4l31 154h292l-178 -1028
q-23 -135 -77.5 -239.5t-127.5 -171.5t-168 -109.5t-193.5 -60t-211.5 -17.5zM721 281q119 0 224.5 51.5t167 135t61.5 175.5q0 116 -92 188t-238 72q-183 0 -313 -110t-130 -252q0 -116 89 -188t231 -72z" />
    <glyph glyph-name="h" unicode="h" horiz-adv-x="1564" 
d="M379 0h-299l289 1638h299l-119 -663h4q187 201 473 201q95 0 175 -28t138.5 -82t83 -143t4.5 -202l-127 -721h-299l111 594q13 55 4.5 110t-32 98.5t-75.5 71t-126 27.5q-152 0 -261.5 -78t-138.5 -233z" />
    <glyph glyph-name="i" unicode="i" horiz-adv-x="659" 
d="M463 1298q-72 0 -120 44t-48 110q0 82 67 142.5t158 60.5q72 0 119 -42.5t47 -107.5q0 -82 -67 -144.5t-156 -62.5zM379 0h-299l203 1143h299z" />
    <glyph glyph-name="j" unicode="j" horiz-adv-x="659" 
d="M467 1298q-73 0 -120.5 44t-47.5 110q0 80 66.5 141.5t156.5 61.5q72 0 120 -43t48 -107q0 -81 -66.5 -144t-156.5 -63zM-137 -483q-146 0 -264 43l36 247q112 -34 201 -34q57 0 100 14t66.5 32t40 49t22.5 52t11 53l205 1170h301l-205 -1157q-26 -149 -58 -221
q-95 -216 -368 -244q-42 -4 -88 -4z" />
    <glyph glyph-name="k" unicode="k" horiz-adv-x="1374" 
d="M1090 1143h358l-588 -471l455 -672h-352l-336 483l-183 -145l-63 -338h-301l289 1638h301l-170 -931h6q107 83 293 219t291 217z" />
    <glyph glyph-name="l" unicode="l" horiz-adv-x="659" 
d="M379 0h-299l289 1638h299z" />
    <glyph glyph-name="m" unicode="m" horiz-adv-x="2437" 
d="M379 0h-299l203 1143h292l-30 -168h4q88 95 214 148t255 53q85 0 161 -22.5t135 -71t81 -115.5h6q214 209 495 209q92 0 172.5 -29.5t140 -84.5t85 -143.5t6.5 -197.5l-125 -721h-301l111 594q15 82 0 149.5t-70.5 112.5t-147.5 45q-143 0 -250.5 -78.5t-136.5 -232.5
l-104 -590h-299l113 596q15 80 -1 147.5t-71.5 112.5t-145.5 45q-69 0 -131 -18.5t-115 -55t-90.5 -97.5t-52.5 -140z" />
    <glyph glyph-name="n" unicode="n" horiz-adv-x="1564" 
d="M379 0h-299l203 1143h292l-30 -168h4q89 96 214.5 148.5t262.5 52.5q77 0 144 -17.5t122 -53t90 -90t48.5 -128t-3.5 -166.5l-127 -721h-299l111 594q6 45 6 88.5t-16 83t-42.5 69.5t-72.5 48t-106 18q-151 0 -260 -78t-138 -233z" />
    <glyph glyph-name="o" unicode="o" horiz-adv-x="1574" 
d="M680 -35q-276 0 -439 137.5t-163 368.5q0 135 61 262.5t167 225.5t260 157.5t329 59.5q276 0 440 -139t164 -371q0 -108 -38 -211.5t-111 -191.5t-171.5 -155t-227.5 -105t-271 -38zM723 240q195 0 328 116t133 277q0 124 -89.5 196t-238.5 72q-132 0 -240 -57.5
t-165.5 -146.5t-57.5 -187q0 -123 89.5 -196.5t240.5 -73.5z" />
    <glyph glyph-name="p" unicode="p" horiz-adv-x="1632" 
d="M299 -451h-299l283 1594h292l-34 -170h6q212 203 502 203q232 0 369.5 -131.5t137.5 -354.5q0 -141 -58.5 -274t-156.5 -232t-236 -159t-288 -60q-147 0 -252 53t-155 134zM793 240q186 0 317 118t131 271q0 124 -86.5 198t-228.5 74q-93 0 -178.5 -32t-146.5 -85.5
t-97.5 -124.5t-36.5 -147q0 -122 90.5 -197t235.5 -75z" />
    <glyph glyph-name="q" unicode="q" horiz-adv-x="1634" 
d="M1276 -451h-299l110 619q-98 -100 -227.5 -151.5t-271.5 -51.5q-232 0 -371 135.5t-139 362.5q0 139 57.5 269.5t154.5 228t235 156.5t290 59q147 0 253.5 -52t156.5 -135h4l31 154h294zM709 240q189 0 324.5 117t135.5 272q0 124 -90 199t-235 75q-186 0 -318.5 -116
t-132.5 -271q0 -124 86.5 -200t229.5 -76z" />
    <glyph glyph-name="r" unicode="r" horiz-adv-x="1052" 
d="M379 0h-299l203 1143h292l-36 -176h10q74 88 190 148.5t252 60.5q71 0 133 -21l-47 -321q-67 22 -166 22q-88 0 -161 -27.5t-120 -69.5t-82.5 -100t-54 -110t-28.5 -107z" />
    <glyph glyph-name="s" unicode="s" horiz-adv-x="1247" 
d="M532 -35q-220 0 -360.5 87.5t-165.5 234.5l291 86q29 -89 104 -130.5t172 -41.5q100 0 168 35.5t68 87.5q0 12 -3 23t-11.5 20t-15.5 16t-22 14t-24 11t-28.5 10t-28 8.5t-31 8t-29.5 7.5l-135 35q-28 7 -46.5 12.5t-55.5 19t-62 27.5t-57 38t-51.5 50.5t-33 65
t-13.5 82.5q0 79 42 152.5t115 129t178.5 89t225.5 33.5q193 0 317 -80.5t148 -208.5l-291 -86q-17 61 -71 101t-146 40q-90 0 -151.5 -34.5t-61.5 -84.5q0 -18 8.5 -33.5t28 -28t37 -21.5t50 -19t51.5 -15t56 -14l107 -24q35 -8 57 -13.5t60.5 -18.5t64 -26.5t56 -36.5
t49 -49.5t31 -64.5t12.5 -82q0 -113 -76 -207t-215 -149.5t-312 -55.5z" />
    <glyph glyph-name="t" unicode="t" horiz-adv-x="1034" 
d="M614 -35q-69 0 -125 10t-94.5 26.5t-67.5 41.5t-45.5 49.5t-26 57t-12.5 58.5t-1.5 59t4.5 53t8 45l100 518h-270l39 260h270l58 323h299l-58 -323h381l-37 -260h-383l-84 -416q-4 -22 -6.5 -35t-5 -35.5t-2 -37t3 -34t9.5 -32.5t19 -27t29 -22t41.5 -13.5t55.5 -5.5
q88 0 200 41l-39 -258q-103 -43 -260 -43z" />
    <glyph glyph-name="u" unicode="u" horiz-adv-x="1544" 
d="M551 -35q-225 0 -338 119t-74 342l127 717h299l-114 -619q-23 -130 38.5 -207t186.5 -77q147 0 251 81t126 207l110 615h299l-137 -787q-22 -130 -26 -203.5t6 -152.5h-299q-9 92 2 139h-7q-171 -174 -450 -174z" />
    <glyph glyph-name="v" unicode="v" horiz-adv-x="1394" 
d="M778 0h-360l-297 1143h325q34 -122 66.5 -250.5t73 -292.5t65.5 -262h4q55 87 228 365t276 440h318z" />
    <glyph glyph-name="w" unicode="w" horiz-adv-x="2279" 
d="M727 0h-344l-264 1143h340l168 -772h6l475 772h268l187 -772h4l456 772h338l-661 -1143h-359q-104 458 -159 713h-2q-60 -94 -213.5 -337.5t-239.5 -375.5z" />
    <glyph glyph-name="x" unicode="x" horiz-adv-x="1343" 
d="M262 0h-348q248 262 559 580v2q-37 59 -162 256t-192 305h346q18 -28 237 -381h7q167 170 381 381h337q-33 -33 -111 -110t-126.5 -126t-134.5 -138t-178 -187v-2q121 -202 354 -580h-340q-23 37 -74 119t-89 141t-79 119h-6q-51 -53 -173 -169.5t-208 -209.5z" />
    <glyph glyph-name="y" unicode="y" horiz-adv-x="1409" 
d="M496 -451h-318l264 402l-327 1192h329q94 -332 213 -809h5q443 698 514 809h321z" />
    <glyph glyph-name="z" unicode="z" horiz-adv-x="1277" 
d="M1114 0h-1132l36 242l805 637h-657l39 264h1061l-37 -244l-809 -637h733z" />
    <glyph glyph-name="braceleft" unicode="{" horiz-adv-x="1050" 
d="M834 -301h-140q-289 0 -415 98.5t-86 329.5l30 176q6 38 9 66t1 50t-5.5 36.5t-14.5 24.5t-21 15.5t-31 8.5t-38 3.5t-47 0.5l43 280h37t32 1.5t29.5 4t24.5 7t23 12t19 18.5t18 26t14.5 35t14 45t11.5 56l33 176q8 48 20 88t35 85.5t55 80.5t82 69t113.5 56t152.5 35.5
t197 13.5h139l-39 -260h-106q-49 0 -84.5 -2.5t-76 -9.5t-70 -22.5t-56.5 -39.5t-45 -61.5t-28 -87.5l-25 -123q-32 -170 -84.5 -244t-173.5 -98v-6q81 -16 116.5 -56t36 -109t-19.5 -173l-22 -123q-23 -124 39 -173.5t233 -49.5h106z" />
    <glyph glyph-name="bar" unicode="|" horiz-adv-x="677" 
d="M285 -451h-252l368 2089h252z" />
    <glyph glyph-name="braceright" unicode="}" horiz-adv-x="1050" 
d="M47 -301h-137l39 260h106q61 0 103.5 4t89 17t77 36.5t55.5 65t36 100.5l22 123q17 87 32.5 137t44 95.5t71.5 69.5t110 36l2 6q-115 25 -142 102t7 240l23 123q15 79 -1 125.5t-81 72t-191 25.5h-104l35 260h139q301 0 423 -102.5t81 -325.5l-33 -176q-6 -31 -9 -55.5
t-2.5 -44t1.5 -34.5t7.5 -26t11.5 -18.5t18.5 -12.5t22.5 -8t28.5 -4.5t32.5 -1.5h39l-43 -280q-41 0 -62.5 -1.5t-47.5 -7.5t-39.5 -18.5t-29 -36t-25.5 -57.5t-20 -84l-35 -176q-15 -76 -38.5 -134t-72 -115.5t-117.5 -95t-177.5 -60.5t-249.5 -23z" />
    <glyph glyph-name="asciitilde" unicode="~" horiz-adv-x="1370" 
d="M901 471q-64 0 -123.5 19t-96.5 41.5t-81 41.5t-82 19q-55 0 -91 -34t-46 -79h-238q27 159 136 253.5t245 94.5q58 0 113 -17.5t90.5 -38.5t81 -38.5t86.5 -17.5q107 0 125 108h240q-28 -171 -125.5 -261.5t-233.5 -90.5z" />
    <glyph glyph-name="uni00A0" unicode="&#xa0;" horiz-adv-x="602" 
 />
    <glyph glyph-name="exclamdown" unicode="&#xa1;" horiz-adv-x="653" 
d="M375 809q-71 0 -120.5 45t-49.5 111q0 81 70 146t161 65q70 0 118 -46t48 -112q0 -84 -70 -146.5t-157 -62.5zM313 -436h-327l26 182l252 907h166l-90 -907z" />
    <glyph glyph-name="cent" unicode="&#xa2;" horiz-adv-x="1368" 
d="M877 1036l-101 -573q87 11 159.5 50t115.5 103l202 -86q-74 -120 -212.5 -198t-303.5 -90l-43 -242h-145l43 244q-188 23 -305 132.5t-117 289.5q0 107 45.5 209t124.5 181t191.5 132.5t240.5 66.5l37 211h143l-37 -211q146 -14 250.5 -86t137.5 -188l-232 -86
q-14 61 -67 96t-127 45zM426 700q0 -97 56.5 -156t148.5 -77l100 565q-133 -24 -219 -120t-86 -212z" />
    <glyph glyph-name="sterling" unicode="&#xa3;" horiz-adv-x="1579" 
d="M856 664q0 -111 -87.5 -220t-242.5 -188h885l-39 -256h-1329l37 258q206 45 329 148.5t123 211.5q0 31 -10 64h-375l23 145h266q-31 47 -49 79.5t-34.5 85.5t-16.5 108q0 141 86.5 262.5t242 194.5t343.5 73q74 0 144.5 -11t147.5 -42t135.5 -79t100 -129.5t49.5 -186.5
l-305 -111q-32 289 -305 289q-130 0 -217.5 -68t-87.5 -172q0 -53 19.5 -99t63.5 -109t56 -85h500l-25 -145h-428v-18z" />
    <glyph glyph-name="currency" unicode="&#xa4;" horiz-adv-x="1636" 
d="M1360 895q0 -162 -121 -293l246 -295l-209 -151l-252 303q-107 -43 -231 -43q-127 0 -220 43l-360 -303l-162 151l355 303q-39 70 -39 162q0 161 118 291l-241 293l207 153l251 -299q111 43 232 43q128 0 223 -45l354 301l166 -153l-354 -299q37 -70 37 -162zM621 803
q0 -78 55.5 -124t148.5 -46q118 0 199.5 70t81.5 169q0 75 -55 119.5t-146 44.5q-118 0 -201 -69t-83 -164z" />
    <glyph glyph-name="yen" unicode="&#xa5;" horiz-adv-x="1775" 
d="M944 0h-319l43 231h-441l29 197h442l27 113h-442l30 194h375l-438 862h338q101 -199 346 -694h4q68 77 131 161t103.5 140.5t136 159t237.5 233.5h338l-747 -862h381l-31 -194h-445l-24 -113h442l-28 -197h-445z" />
    <glyph glyph-name="brokenbar" unicode="&#xa6;" horiz-adv-x="677" 
d="M512 831h-252l141 807h254zM287 -451h-254l141 801h252z" />
    <glyph glyph-name="section" unicode="&#xa7;" horiz-adv-x="1343" 
d="M535 -301q-220 0 -367 87t-170 234l276 78q29 -91 111 -136.5t182 -45.5q96 0 165 38t69 91q0 17 -6 31.5t-23.5 28t-28 21.5t-41.5 19.5t-41 15t-47 15.5q-4 1 -6.5 2t-5.5 2l-133 47q-309 102 -309 277q0 100 84.5 181.5t220.5 107.5v2q-197 79 -197 243t160 286
t408 122q188 0 312 -79.5t146 -215.5l-286 -86q-30 164 -213 164q-98 0 -162 -38.5t-64 -92.5q0 -21 9 -39.5t28.5 -33.5t37 -25.5t47.5 -21.5t46.5 -16t46.5 -14l127 -37q49 -15 84 -27t82 -36t76.5 -50.5t50.5 -67.5t21 -89q0 -105 -89.5 -191.5t-222.5 -111.5v-4
q93 -31 145 -93t52 -147q0 -162 -161.5 -278.5t-413.5 -116.5zM639 432l45 -12q112 6 181 52t69 108q0 24 -12 42t-37.5 30.5t-48 20t-61.5 17.5q-5 1 -8 2t-7 2l-8 2l-70 19q-51 14 -108 -4t-94.5 -57t-37.5 -83q0 -25 14 -46t32 -34.5t48.5 -26t51 -18.5t51.5 -14z" />
    <glyph glyph-name="copyright" unicode="&#xa9;" horiz-adv-x="2283" 
d="M1036 -35q-256 0 -452.5 88.5t-304 249t-107.5 369.5q0 187 90.5 362.5t244 306.5t370 210t454.5 79q256 0 452.5 -87.5t304 -247.5t107.5 -369q0 -187 -90.5 -363t-244 -307.5t-370 -211t-454.5 -79.5zM1063 119q199 0 379 65t307 172.5t201.5 250.5t74.5 296
q0 259 -197.5 417.5t-518.5 158.5q-200 0 -380 -65t-307 -172.5t-201.5 -251.5t-74.5 -298q0 -173 90.5 -303.5t253 -200t373.5 -69.5zM1124 346q-211 0 -336.5 105t-125.5 278q0 102 47 196.5t127.5 165.5t194.5 113.5t241 42.5q168 0 282 -75t148 -207l-205 -70
q-21 86 -86.5 130t-163.5 44q-158 0 -264 -96t-106 -223q0 -60 25 -105.5t67 -70t89.5 -36.5t100.5 -12q109 0 198 52.5t144 144.5l180 -57q-83 -153 -228.5 -236.5t-328.5 -83.5z" />
    <glyph glyph-name="guillemotleft" unicode="&#xab;" horiz-adv-x="1548" 
d="M735 164h-317l-303 405l2 9l448 405h316l-451 -405l-2 -9zM1331 164h-313l-305 405l4 9l446 405h316l-451 -405l-2 -9z" />
    <glyph glyph-name="logicalnot" unicode="&#xac;" horiz-adv-x="1277" 
d="M1051 168h-250l63 362h-723l33 222h973z" />
    <glyph glyph-name="registered" unicode="&#xae;" horiz-adv-x="1363" 
d="M707 723q-209 0 -339 106.5t-130 278.5q0 102 49 197.5t132 167.5t201 115.5t248 43.5q133 0 239.5 -44.5t170 -132.5t63.5 -206q0 -102 -49.5 -198.5t-133 -168.5t-202 -115.5t-249.5 -43.5zM725 825q105 0 198.5 34.5t158 91t102 130.5t37.5 152q0 133 -102.5 216
t-266.5 83q-136 0 -251 -57.5t-180 -151.5t-65 -201q0 -132 102.5 -214.5t266.5 -82.5zM668 938h-119l86 492h229q89 0 139 -36t50 -100q0 -59 -43.5 -106t-116.5 -66l117 -184h-129l-109 174h-72zM739 1337l-24 -133h100q49 0 79 21.5t30 52.5q0 59 -86 59h-99z" />
    <glyph glyph-name="degree" unicode="&#xb0;" horiz-adv-x="899" 
d="M530 1047q-136 0 -221.5 72t-85.5 186q0 136 122.5 240t291.5 104q135 0 221 -71.5t86 -184.5q0 -88 -55.5 -168t-151.5 -129t-207 -49zM555 1204q85 0 148 50.5t63 115.5q0 53 -43.5 87t-110.5 34q-86 0 -148.5 -49.5t-62.5 -114.5q0 -54 43 -88.5t111 -34.5z" />
    <glyph glyph-name="plusminus" unicode="&#xb1;" horiz-adv-x="1327" 
d="M1219 848l-33 -215h-387l-35 -197h387l-33 -213h-1020l35 213h381l33 197h-381l35 215h381l41 229h249l-41 -229h388z" />
    <glyph glyph-name="uni00B2" unicode="&#xb2;" horiz-adv-x="845" 
d="M793 733h-674l6 29q18 95 49.5 156t103.5 120t201 123q4 2 34.5 16.5t46.5 23.5t39.5 25t34.5 32.5t11 33.5q0 22 -24 35.5t-64 13.5q-63 0 -108 -34.5t-58 -96.5l-215 33q23 137 141.5 221t278.5 84q135 0 218 -62.5t83 -162.5q0 -80 -59 -149t-144 -105
q-14 -6 -58 -23.5t-66 -27.5t-51.5 -30.5t-45.5 -43.5h352z" />
    <glyph glyph-name="uni00B3" unicode="&#xb3;" horiz-adv-x="851" 
d="M436 713q-135 0 -228.5 52.5t-107.5 131.5l226 102q34 -94 141 -94q58 0 94.5 24t36.5 60q0 28 -20 43.5t-43.5 19t-57.5 3.5h-88l23 157h92q55 0 98 22t43 58q0 26 -27.5 44t-68.5 18q-51 0 -88 -26t-55 -71l-213 48q30 102 142.5 172.5t260.5 70.5q126 0 210.5 -50.5
t84.5 -137.5q0 -68 -51 -126.5t-121 -70.5v-2q58 -9 98.5 -52t40.5 -101q0 -111 -122 -203t-300 -92z" />
    <glyph glyph-name="paragraph" unicode="&#xb6;" horiz-adv-x="1894" 
d="M979 -287h-315l165 942h-167q-227 0 -360.5 109t-133.5 295q0 108 50.5 206t140 171.5t223.5 117t292 43.5h437zM1497 -287h-315l331 1884h316z" />
    <glyph glyph-name="periodcentered" unicode="&#xb7;" horiz-adv-x="735" 
d="M377 477q-89 0 -149 56t-60 139q0 100 84 176t194 76q88 0 147.5 -54t59.5 -135q0 -98 -83.5 -178t-192.5 -80z" />
    <glyph glyph-name="uni00B9" unicode="&#xb9;" horiz-adv-x="612" 
d="M512 733h-238l84 459q-112 -63 -208 -82l36 246q95 30 156 77t70 99h237z" />
    <glyph glyph-name="guillemotright" unicode="&#xbb;" horiz-adv-x="1550" 
d="M389 164h-315l448 405l2 9l-305 405h316l303 -405l-2 -9zM987 164h-317l452 405l2 9l-307 405h316l305 -405l-4 -9z" />
    <glyph glyph-name="onequarter" unicode="&#xbc;" horiz-adv-x="1873" 
d="M512 733h-238l84 459q-112 -63 -208 -82l36 246q95 30 156 77t70 99h237zM213 0h-279l1625 1468h270zM1597 -10h-229l25 139h-428l26 178l520 481h224l-82 -469h112l-28 -190h-113zM1460 498l-237 -179h198z" />
    <glyph glyph-name="onehalf" unicode="&#xbd;" horiz-adv-x="1953" 
d="M512 733h-238l84 459q-112 -63 -208 -82l36 246q95 30 156 77t70 99h237zM213 0h-279l1625 1468h270zM1769 -10h-673l6 28q13 71 32.5 120t59 97.5t102 91.5t160.5 91q4 2 34.5 16.5t46.5 23.5t39.5 25t34.5 32.5t11 33.5q0 22 -24 35.5t-64 13.5q-63 0 -108 -34.5
t-58 -96.5l-215 33q23 137 141.5 221t278.5 84q135 0 218 -62.5t83 -162.5q0 -80 -59 -149t-144 -105q-14 -6 -58 -23.5t-66 -27.5t-51.5 -30.5t-45.5 -43.5h352z" />
    <glyph glyph-name="threequarters" unicode="&#xbe;" horiz-adv-x="2113" 
d="M436 713q-135 0 -228.5 52.5t-107.5 131.5l226 102q34 -94 141 -94q58 0 94.5 24t36.5 60q0 28 -20 43.5t-43.5 19t-57.5 3.5h-88l23 157h92q55 0 98 22t43 58q0 26 -27.5 44t-68.5 18q-51 0 -88 -26t-55 -71l-213 48q30 102 142.5 172.5t260.5 70.5q126 0 210.5 -50.5
t84.5 -137.5q0 -68 -51 -126.5t-121 -70.5v-2q58 -9 98.5 -52t40.5 -101q0 -111 -122 -203t-300 -92zM453 0h-279l1624 1468h270zM1837 -10h-229l24 139h-428l27 178l520 481h223l-82 -469h113l-29 -190h-112zM1700 498l-238 -179h199z" />
    <glyph glyph-name="questiondown" unicode="&#xbf;" horiz-adv-x="1425" 
d="M819 809q-72 0 -121 45.5t-49 112.5q0 82 68.5 145.5t156.5 63.5q71 0 122 -46.5t51 -113.5q0 -80 -69.5 -143.5t-158.5 -63.5zM526 -469q-240 0 -396.5 108.5t-156.5 290.5q0 52 16 101.5t40 88.5t61.5 77t69.5 64t76 54t69.5 42t61.5 32q145 77 186 108q86 63 94 147
q3 28 -2 61h324q7 -159 -72 -255.5t-289 -191.5q-6 -3 -19 -9q-44 -21 -69.5 -34t-69 -40.5t-68.5 -52t-45 -60.5t-20 -74q0 -81 75.5 -128.5t195.5 -47.5q158 0 271 86.5t126 232.5l279 -49q-19 -167 -126 -294t-266.5 -192t-345.5 -65z" />
    <glyph glyph-name="Agrave" unicode="&#xc0;" horiz-adv-x="1865" 
d="M1305 1720h-273l-334 361h381zM242 0h-332l1022 1597h368l457 -1597h-336q-23 70 -68 214t-65 204h-770zM711 713h489q-107 363 -149 518h-4q-77 -119 -336 -518z" />
    <glyph glyph-name="Aacute" unicode="&#xc1;" horiz-adv-x="1865" 
d="M1722 2081l-454 -361h-273l348 361h379zM242 0h-332l1022 1597h368l457 -1597h-336q-23 70 -68 214t-65 204h-770zM711 713h489q-107 363 -149 518h-4q-77 -119 -336 -518z" />
    <glyph glyph-name="Acircumflex" unicode="&#xc2;" horiz-adv-x="1865" 
d="M1346 2077l282 -357h-278q-10 9 -77.5 69.5t-103.5 96.5q-12 -9 -41.5 -30.5t-44.5 -32t-41.5 -29t-55.5 -36t-64 -38.5h-279l401 357h302zM242 0h-332l1022 1597h368l457 -1597h-336q-23 70 -68 214t-65 204h-770zM711 713h489q-107 363 -149 518h-4q-77 -119 -336 -518
z" />
    <glyph glyph-name="Atilde" unicode="&#xc3;" horiz-adv-x="1865" 
d="M1339 1729q-97 0 -165 45l-60 38q-50 35 -96 35q-44 0 -76 -28.5t-41 -71.5h-215q24 144 124 230.5t230 86.5q95 0 170 -49l56 -35q35 -26 86 -26q39 0 66.5 26.5t35.5 69.5h217q-25 -154 -112.5 -237.5t-219.5 -83.5zM242 0h-332l1022 1597h368l457 -1597h-336
q-23 70 -68 214t-65 204h-770zM711 713h489q-107 363 -149 518h-4q-77 -119 -336 -518z" />
    <glyph glyph-name="Adieresis" unicode="&#xc4;" horiz-adv-x="1865" 
d="M868 1731q-71 0 -117 41.5t-46 107.5q0 79 65.5 138t153.5 59q69 0 114 -41.5t45 -104.5q0 -78 -64 -139t-151 -61zM1407 1731q-72 0 -118 42t-46 105q0 81 64.5 140t152.5 59q69 0 115.5 -41.5t46.5 -104.5q0 -77 -64.5 -138.5t-150.5 -61.5zM242 0h-332l1022 1597h368
l457 -1597h-336q-23 70 -68 214t-65 204h-770zM711 713h489q-107 363 -149 518h-4q-77 -119 -336 -518z" />
    <glyph glyph-name="Aring" unicode="&#xc5;" horiz-adv-x="1865" 
d="M1130 1710q-114 0 -189 61t-75 156q0 110 103.5 195.5t244.5 85.5q117 0 191 -60.5t74 -154.5q0 -112 -103 -197.5t-246 -85.5zM1155 1868q56 0 96.5 31.5t40.5 72.5q0 32 -29 54t-73 22q-56 0 -96.5 -31t-40.5 -73q0 -34 29 -55t73 -21zM242 0h-332l1022 1597h368
l457 -1597h-336q-23 70 -68 214t-65 204h-770zM711 713h489q-107 363 -149 518h-4q-77 -119 -336 -518z" />
    <glyph glyph-name="AE" unicode="&#xc6;" horiz-adv-x="2600" 
d="M193 0h-353l1374 1597h1430l-43 -280h-922q-50 -249 -75 -359h874l-45 -294h-874q-9 -44 -23.5 -109.5t-27.5 -129t-29 -142.5h950l-45 -283h-1264q3 17 29 172t51 234h-620q-35 -35 -78.5 -73t-72 -64t-90 -94.5t-146.5 -174.5zM799 702h444q12 64 22 105.5t16.5 67
t26 134.5t52.5 308h-4q-106 -119 -293 -324t-264 -291z" />
    <glyph glyph-name="Ccedilla" unicode="&#xc7;" horiz-adv-x="2043" 
d="M1034 252q238 0 417 105.5t278 279.5l280 -96q-99 -186 -249 -313.5t-329 -191t-389 -71.5l-81 -71q32 8 67 8q95 0 155 -44.5t60 -123.5q0 -109 -103.5 -181.5t-260.5 -72.5q-103 0 -187 34.5t-127 94.5l117 112q67 -96 209 -96q66 0 108.5 25.5t42.5 64.5
q0 32 -31.5 50t-82.5 18q-63 0 -113 -29l-86 68l143 147q-342 28 -541.5 215.5t-199.5 483.5q0 189 87.5 365.5t236.5 308t359 210t443 78.5q304 0 518 -136.5t271 -365.5l-311 -112q-49 145 -183 236t-338 91q-159 0 -300 -55.5t-238 -146.5t-153 -208t-56 -239
q0 -95 32.5 -171.5t87 -126t129 -83t153.5 -47.5t165 -14z" />
    <glyph glyph-name="Egrave" unicode="&#xc8;" horiz-adv-x="1595" 
d="M1204 1720h-272l-334 361h381zM1382 0h-1265l282 1597h1241l-43 -280h-923q-3 -14 -24 -95t-52 -264h877l-45 -294h-875q-9 -42 -13.5 -63.5t-7.5 -37t-18.5 -88.5t-40.5 -192h948z" />
    <glyph glyph-name="Eacute" unicode="&#xc9;" horiz-adv-x="1595" 
d="M1622 2081l-455 -361h-272l348 361h379zM1382 0h-1265l282 1597h1241l-43 -280h-923q-3 -14 -24 -95t-52 -264h877l-45 -294h-875q-9 -42 -13.5 -63.5t-7.5 -37t-18.5 -88.5t-40.5 -192h948z" />
    <glyph glyph-name="Ecircumflex" unicode="&#xca;" horiz-adv-x="1595" 
d="M1245 2077l283 -357h-279q-5 5 -74.5 67.5t-105.5 98.5q-11 -8 -35.5 -26t-36 -26t-34 -24t-41 -27.5t-45 -28.5t-56.5 -34h-278l401 357h301zM1382 0h-1265l282 1597h1241l-43 -280h-923q-3 -14 -24 -95t-52 -264h877l-45 -294h-875q-9 -42 -13.5 -63.5t-7.5 -37
t-18.5 -88.5t-40.5 -192h948z" />
    <glyph glyph-name="Edieresis" unicode="&#xcb;" horiz-adv-x="1595" 
d="M768 1731q-71 0 -117.5 41.5t-46.5 107.5q0 79 65.5 138t153.5 59q69 0 114.5 -41.5t45.5 -104.5q0 -78 -64 -139t-151 -61zM1307 1731q-72 0 -118 42t-46 105q0 81 64.5 140t152.5 59q69 0 115.5 -41.5t46.5 -104.5q0 -77 -64.5 -138.5t-150.5 -61.5zM1382 0h-1265
l282 1597h1241l-43 -280h-923q-3 -14 -24 -95t-52 -264h877l-45 -294h-875q-9 -42 -13.5 -63.5t-7.5 -37t-18.5 -88.5t-40.5 -192h948z" />
    <glyph glyph-name="Igrave" unicode="&#xcc;" horiz-adv-x="749" 
d="M748 1720h-273l-334 361h381zM434 0h-317l282 1597h318z" />
    <glyph glyph-name="Iacute" unicode="&#xcd;" horiz-adv-x="749" 
d="M1165 2081l-454 -361h-273l348 361h379zM434 0h-317l282 1597h318z" />
    <glyph glyph-name="Icircumflex" unicode="&#xce;" horiz-adv-x="749" 
d="M788 2077l283 -357h-278q-10 9 -77.5 69.5t-103.5 96.5q-12 -9 -41.5 -30.5t-44.5 -32t-41.5 -29t-55.5 -36t-64 -38.5h-279l401 357h301zM434 0h-317l282 1597h318z" />
    <glyph glyph-name="Idieresis" unicode="&#xcf;" horiz-adv-x="749" 
d="M311 1731q-71 0 -117.5 41.5t-46.5 107.5q0 79 66 138t154 59q69 0 114 -41.5t45 -104.5q0 -78 -64 -139t-151 -61zM850 1731q-72 0 -118 42t-46 105q0 81 64.5 140t152.5 59q69 0 115.5 -41.5t46.5 -104.5q0 -77 -64.5 -138.5t-150.5 -61.5zM434 0h-317l282 1597h318z
" />
    <glyph glyph-name="Eth" unicode="&#xd0;" horiz-adv-x="1957" 
d="M399 1597h723q393 0 589 -170t196 -475q0 -147 -47 -287.5t-138 -260.5t-216 -210.5t-291.5 -142t-352.5 -51.5h-745l119 676h-236l35 244h244zM874 281q157 0 289 48t220.5 131.5t138 195.5t49.5 239q0 78 -16.5 141t-44.5 106.5t-71 75.5t-89 51t-107.5 30t-116.5 14.5
t-125 3.5h-327q-18 -95 -41 -198.5t-41 -198.5h465l-35 -244h-477l-70 -395h399z" />
    <glyph glyph-name="Ntilde" unicode="&#xd1;" horiz-adv-x="2009" 
d="M1384 1737q-97 0 -165 45l-60 39q-49 34 -96 34q-44 0 -76 -28.5t-41 -71.5h-215q24 144 124 231t230 87q94 0 170 -50l56 -34q36 -27 86 -27q39 0 66.5 26.5t35.5 69.5h217q-25 -154 -112.5 -237.5t-219.5 -83.5zM434 0h-317l282 1597h332q371 -527 717 -1062h6
q18 92 83 416t122 646h315l-282 -1597h-330q-79 114 -227 323.5t-268 382.5t-226 334h-6q-13 -72 -69.5 -323.5t-131.5 -716.5z" />
    <glyph glyph-name="Ograve" unicode="&#xd2;" horiz-adv-x="2138" 
d="M1440 1720h-273l-333 361h380zM965 -35q-244 0 -434 87.5t-296 247.5t-106 366q0 148 56.5 292.5t161 264.5t242.5 212t310.5 143.5t355.5 51.5q244 0 434.5 -88.5t296 -249t105.5 -366.5q0 -124 -41 -246t-114 -227.5t-177.5 -196t-227.5 -154.5t-269 -100.5t-297 -36.5
zM1008 252q150 0 288.5 53.5t237.5 141.5t158 204.5t59 237.5q0 201 -149 327.5t-385 126.5q-149 0 -288 -54t-240 -142t-161.5 -205.5t-60.5 -239.5q0 -200 151 -325t390 -125z" />
    <glyph glyph-name="Oacute" unicode="&#xd3;" horiz-adv-x="2138" 
d="M1858 2081l-455 -361h-273l349 361h379zM965 -35q-244 0 -434 87.5t-296 247.5t-106 366q0 148 56.5 292.5t161 264.5t242.5 212t310.5 143.5t355.5 51.5q244 0 434.5 -88.5t296 -249t105.5 -366.5q0 -124 -41 -246t-114 -227.5t-177.5 -196t-227.5 -154.5t-269 -100.5
t-297 -36.5zM1008 252q150 0 288.5 53.5t237.5 141.5t158 204.5t59 237.5q0 201 -149 327.5t-385 126.5q-149 0 -288 -54t-240 -142t-161.5 -205.5t-60.5 -239.5q0 -200 151 -325t390 -125z" />
    <glyph glyph-name="Ocircumflex" unicode="&#xd4;" horiz-adv-x="2138" 
d="M1481 2077l282 -357h-278q-5 5 -74.5 67.5t-105.5 98.5q-11 -8 -35.5 -26t-36 -26t-34 -24t-41 -27.5t-45 -28.5t-56.5 -34h-279l402 357h301zM965 -35q-244 0 -434 87.5t-296 247.5t-106 366q0 148 56.5 292.5t161 264.5t242.5 212t310.5 143.5t355.5 51.5
q244 0 434.5 -88.5t296 -249t105.5 -366.5q0 -124 -41 -246t-114 -227.5t-177.5 -196t-227.5 -154.5t-269 -100.5t-297 -36.5zM1008 252q150 0 288.5 53.5t237.5 141.5t158 204.5t59 237.5q0 201 -149 327.5t-385 126.5q-149 0 -288 -54t-240 -142t-161.5 -205.5
t-60.5 -239.5q0 -200 151 -325t390 -125z" />
    <glyph glyph-name="Otilde" unicode="&#xd5;" horiz-adv-x="2138" 
d="M1466 1737q-98 0 -166 45l-59 39q-49 34 -96 34q-44 0 -76 -28.5t-41 -71.5h-215q24 144 124 231t230 87q94 0 170 -50l56 -34q36 -27 86 -27q39 0 66.5 26.5t35.5 69.5h217q-25 -154 -112.5 -237.5t-219.5 -83.5zM965 -35q-244 0 -434 87.5t-296 247.5t-106 366
q0 148 56.5 292.5t161 264.5t242.5 212t310.5 143.5t355.5 51.5q244 0 434.5 -88.5t296 -249t105.5 -366.5q0 -124 -41 -246t-114 -227.5t-177.5 -196t-227.5 -154.5t-269 -100.5t-297 -36.5zM1008 252q150 0 288.5 53.5t237.5 141.5t158 204.5t59 237.5q0 201 -149 327.5
t-385 126.5q-149 0 -288 -54t-240 -142t-161.5 -205.5t-60.5 -239.5q0 -200 151 -325t390 -125z" />
    <glyph glyph-name="Odieresis" unicode="&#xd6;" horiz-adv-x="2138" 
d="M1004 1731q-71 0 -117.5 41.5t-46.5 107.5q0 79 65.5 138t153.5 59q69 0 114.5 -41.5t45.5 -104.5q0 -78 -64 -139t-151 -61zM1542 1731q-72 0 -118 42t-46 105q0 81 64.5 140t152.5 59q69 0 115.5 -41.5t46.5 -104.5q0 -77 -64.5 -138.5t-150.5 -61.5zM965 -35
q-244 0 -434 87.5t-296 247.5t-106 366q0 148 56.5 292.5t161 264.5t242.5 212t310.5 143.5t355.5 51.5q244 0 434.5 -88.5t296 -249t105.5 -366.5q0 -124 -41 -246t-114 -227.5t-177.5 -196t-227.5 -154.5t-269 -100.5t-297 -36.5zM1008 252q150 0 288.5 53.5t237.5 141.5
t158 204.5t59 237.5q0 201 -149 327.5t-385 126.5q-149 0 -288 -54t-240 -142t-161.5 -205.5t-60.5 -239.5q0 -200 151 -325t390 -125z" />
    <glyph glyph-name="multiply" unicode="&#xd7;" horiz-adv-x="1193" 
d="M442 623l-258 260l191 157l260 -260l338 254l141 -157l-338 -254l254 -254l-190 -156l-252 256l-346 -260l-142 156z" />
    <glyph glyph-name="Oslash" unicode="&#xd8;" horiz-adv-x="2138" 
d="M2120 1661l-244 -244q215 -193 215 -491q0 -124 -41 -246t-114 -227.5t-177.5 -196t-227.5 -154.5t-269 -100.5t-297 -36.5q-252 0 -445 94l-125 -125h-303l246 246q-101 92 -155 216t-54 270q0 148 56.5 292.5t161 264.5t242.5 212t310.5 143.5t355.5 51.5
q242 0 439 -90l121 121h305zM467 702q0 -167 108 -284l881 885q-104 40 -239 40q-149 0 -288 -54t-240 -142t-161.5 -205.5t-60.5 -239.5zM1008 252q150 0 288.5 53.5t237.5 141.5t158 204.5t59 237.5q0 170 -111 291l-884 -883q115 -45 252 -45z" />
    <glyph glyph-name="Ugrave" unicode="&#xd9;" horiz-adv-x="1835" 
d="M1294 1720h-272l-334 361h381zM809 -35q-121 0 -219 22t-164.5 59.5t-115 90.5t-74.5 111t-37.5 125t-9.5 129t14 125l176 970h317l-172 -946q-9 -46 -8.5 -91t10 -90.5t34.5 -84t62.5 -69t97.5 -47.5t136 -17q92 0 168.5 26t127.5 66.5t89.5 95.5t59 106.5t30.5 104.5
l174 946h318l-178 -970q-11 -62 -29 -121.5t-51.5 -127t-77.5 -125t-110 -112t-145.5 -92.5t-188 -61t-234.5 -23z" />
    <glyph glyph-name="Uacute" unicode="&#xda;" horiz-adv-x="1835" 
d="M1659 2081l-455 -361h-272l348 361h379zM809 -35q-121 0 -219 22t-164.5 59.5t-115 90.5t-74.5 111t-37.5 125t-9.5 129t14 125l176 970h317l-172 -946q-9 -46 -8.5 -91t10 -90.5t34.5 -84t62.5 -69t97.5 -47.5t136 -17q92 0 168.5 26t127.5 66.5t89.5 95.5t59 106.5
t30.5 104.5l174 946h318l-178 -970q-11 -62 -29 -121.5t-51.5 -127t-77.5 -125t-110 -112t-145.5 -92.5t-188 -61t-234.5 -23z" />
    <glyph glyph-name="Ucircumflex" unicode="&#xdb;" horiz-adv-x="1835" 
d="M1335 2077l283 -357h-279q-5 5 -74.5 67.5t-105.5 98.5q-11 -8 -35.5 -26t-36 -26t-34 -24t-41 -27.5t-45 -28.5t-56.5 -34h-278l401 357h301zM809 -35q-121 0 -219 22t-164.5 59.5t-115 90.5t-74.5 111t-37.5 125t-9.5 129t14 125l176 970h317l-172 -946
q-9 -46 -8.5 -91t10 -90.5t34.5 -84t62.5 -69t97.5 -47.5t136 -17q92 0 168.5 26t127.5 66.5t89.5 95.5t59 106.5t30.5 104.5l174 946h318l-178 -970q-11 -62 -29 -121.5t-51.5 -127t-77.5 -125t-110 -112t-145.5 -92.5t-188 -61t-234.5 -23z" />
    <glyph glyph-name="Udieresis" unicode="&#xdc;" horiz-adv-x="1835" 
d="M858 1731q-71 0 -117.5 41.5t-46.5 107.5q0 79 65.5 138t153.5 59q69 0 114.5 -41.5t45.5 -104.5q0 -78 -64 -139t-151 -61zM1397 1731q-72 0 -118 42t-46 105q0 81 64.5 140t152.5 59q69 0 115.5 -41.5t46.5 -104.5q0 -77 -64.5 -138.5t-150.5 -61.5zM809 -35
q-121 0 -219 22t-164.5 59.5t-115 90.5t-74.5 111t-37.5 125t-9.5 129t14 125l176 970h317l-172 -946q-9 -46 -8.5 -91t10 -90.5t34.5 -84t62.5 -69t97.5 -47.5t136 -17q92 0 168.5 26t127.5 66.5t89.5 95.5t59 106.5t30.5 104.5l174 946h318l-178 -970q-11 -62 -29 -121.5
t-51.5 -127t-77.5 -125t-110 -112t-145.5 -92.5t-188 -61t-234.5 -23z" />
    <glyph glyph-name="Yacute" unicode="&#xdd;" horiz-adv-x="1712" 
d="M1491 2081l-455 -361h-272l348 361h379zM913 0h-315q5 26 31.5 189t66.5 360q-45 91 -93.5 175.5t-82 144.5t-116 243t-205.5 485h340l360 -747h4q68 78 136 170.5t114.5 159t146 177.5t238.5 240h340q-145 -174 -432 -523t-432 -523q-89 -505 -101 -551z" />
    <glyph glyph-name="Thorn" unicode="&#xde;" horiz-adv-x="1681" 
d="M434 0h-317l282 1597h318l-49 -270h405q49 0 93.5 -3t104.5 -13.5t110 -28t101.5 -50t86.5 -76t57.5 -108.5t22.5 -145q0 -117 -52.5 -226.5t-146 -195t-235 -137t-306.5 -51.5h-420zM627 1044l-95 -456h353q118 0 212.5 27t155 86.5t60.5 144.5q0 62 -28 103.5t-80.5 61
t-105.5 26.5t-124 7h-348z" />
    <glyph glyph-name="germandbls" unicode="&#xdf;" horiz-adv-x="1603" 
d="M379 0h-299l182 1020q11 64 28.5 123t48 126t70.5 123.5t99 109.5t130 90t167 59t207 22q253 0 402 -112t149 -299q0 -160 -112.5 -284.5t-276.5 -152.5v-6q154 -15 242.5 -102.5t88.5 -224.5q0 -100 -52.5 -189t-148 -156.5t-241 -107t-320.5 -39.5h-180l41 260h219
q153 0 260 66t107 159q0 77 -72 123.5t-190 46.5h-135l38 260h91q140 0 232.5 86t92.5 197q0 98 -72.5 153.5t-205.5 55.5q-63 0 -118 -16t-93 -40t-70 -58.5t-51 -66t-33.5 -67.5t-20.5 -58t-10 -42z" />
    <glyph glyph-name="agrave" unicode="&#xe0;" horiz-adv-x="1431" 
d="M993 1278h-260l-305 379h360zM438 -35q-183 0 -293 77t-110 216q0 71 28.5 128.5t74 96.5t115.5 70.5t139 50.5t159 37q40 8 95 17t93 15.5t82 15t73 19t54.5 24.5t38 34t12.5 45q0 58 -58 94.5t-159 36.5q-107 0 -194 -44.5t-137 -137.5l-269 90q46 87 117.5 151.5
t158.5 102t179 55t192 17.5q242 0 372.5 -106t96.5 -300l-73 -414q-21 -124 -25 -199t6 -157h-299q-14 72 2 150h-4q-74 -86 -198 -135.5t-269 -49.5zM551 186q148 0 256.5 75.5t128.5 168.5l20 90q-13 -4 -26.5 -7.5t-24 -6.5t-26.5 -6.5t-24.5 -6t-28 -6t-27 -5t-31.5 -6
l-32 -6t-37.5 -6.5t-39.5 -7q-128 -24 -210 -67.5t-82 -104.5q0 -45 49 -72t135 -27z" />
    <glyph glyph-name="aacute" unicode="&#xe1;" horiz-adv-x="1431" 
d="M1401 1657l-438 -379h-261l338 379h361zM438 -35q-183 0 -293 77t-110 216q0 71 28.5 128.5t74 96.5t115.5 70.5t139 50.5t159 37q40 8 95 17t93 15.5t82 15t73 19t54.5 24.5t38 34t12.5 45q0 58 -58 94.5t-159 36.5q-107 0 -194 -44.5t-137 -137.5l-269 90
q46 87 117.5 151.5t158.5 102t179 55t192 17.5q242 0 372.5 -106t96.5 -300l-73 -414q-21 -124 -25 -199t6 -157h-299q-14 72 2 150h-4q-74 -86 -198 -135.5t-269 -49.5zM551 186q148 0 256.5 75.5t128.5 168.5l20 90q-13 -4 -26.5 -7.5t-24 -6.5t-26.5 -6.5t-24.5 -6
t-28 -6t-27 -5t-31.5 -6l-32 -6t-37.5 -6.5t-39.5 -7q-128 -24 -210 -67.5t-82 -104.5q0 -45 49 -72t135 -27z" />
    <glyph glyph-name="acircumflex" unicode="&#xe2;" horiz-adv-x="1431" 
d="M621 1278h-283l420 371h315l293 -371h-283q-22 24 -47.5 44.5t-58.5 53.5t-84 99q-34 -26 -70.5 -47t-81.5 -53t-120 -97zM438 -35q-183 0 -293 77t-110 216q0 71 28.5 128.5t74 96.5t115.5 70.5t139 50.5t159 37q40 8 95 17t93 15.5t82 15t73 19t54.5 24.5t38 34
t12.5 45q0 58 -58 94.5t-159 36.5q-107 0 -194 -44.5t-137 -137.5l-269 90q46 87 117.5 151.5t158.5 102t179 55t192 17.5q242 0 372.5 -106t96.5 -300l-73 -414q-21 -124 -25 -199t6 -157h-299q-14 72 2 150h-4q-74 -86 -198 -135.5t-269 -49.5zM551 186q148 0 256.5 75.5
t128.5 168.5l20 90q-13 -4 -26.5 -7.5t-24 -6.5t-26.5 -6.5t-24.5 -6t-28 -6t-27 -5t-31.5 -6l-32 -6t-37.5 -6.5t-39.5 -7q-128 -24 -210 -67.5t-82 -104.5q0 -45 49 -72t135 -27z" />
    <glyph glyph-name="atilde" unicode="&#xe3;" horiz-adv-x="1431" 
d="M1051 1280q-98 0 -166 45l-60 39q-50 35 -96 35q-44 0 -76 -29t-41 -72h-215q24 144 124.5 231t230.5 87q95 0 170 -49l55 -35q36 -27 86 -27q39 0 66.5 27t35.5 70h217q-25 -154 -112 -238t-219 -84zM438 -35q-183 0 -293 77t-110 216q0 71 28.5 128.5t74 96.5
t115.5 70.5t139 50.5t159 37q40 8 95 17t93 15.5t82 15t73 19t54.5 24.5t38 34t12.5 45q0 58 -58 94.5t-159 36.5q-107 0 -194 -44.5t-137 -137.5l-269 90q46 87 117.5 151.5t158.5 102t179 55t192 17.5q242 0 372.5 -106t96.5 -300l-73 -414q-21 -124 -25 -199t6 -157h-299
q-14 72 2 150h-4q-74 -86 -198 -135.5t-269 -49.5zM551 186q148 0 256.5 75.5t128.5 168.5l20 90q-13 -4 -26.5 -7.5t-24 -6.5t-26.5 -6.5t-24.5 -6t-28 -6t-27 -5t-31.5 -6l-32 -6t-37.5 -6.5t-39.5 -7q-128 -24 -210 -67.5t-82 -104.5q0 -45 49 -72t135 -27z" />
    <glyph glyph-name="adieresis" unicode="&#xe4;" horiz-adv-x="1431" 
d="M598 1300q-66 0 -110 41t-44 101q0 71 62 126.5t143 55.5q66 0 110 -39t44 -98q0 -71 -62 -129t-143 -58zM1126 1300q-67 0 -110 40.5t-43 101.5q0 74 61.5 128t141.5 54q66 0 109.5 -39t43.5 -98q0 -72 -61 -129.5t-142 -57.5zM438 -35q-183 0 -293 77t-110 216
q0 71 28.5 128.5t74 96.5t115.5 70.5t139 50.5t159 37q40 8 95 17t93 15.5t82 15t73 19t54.5 24.5t38 34t12.5 45q0 58 -58 94.5t-159 36.5q-107 0 -194 -44.5t-137 -137.5l-269 90q46 87 117.5 151.5t158.5 102t179 55t192 17.5q242 0 372.5 -106t96.5 -300l-73 -414
q-21 -124 -25 -199t6 -157h-299q-14 72 2 150h-4q-74 -86 -198 -135.5t-269 -49.5zM551 186q148 0 256.5 75.5t128.5 168.5l20 90q-13 -4 -26.5 -7.5t-24 -6.5t-26.5 -6.5t-24.5 -6t-28 -6t-27 -5t-31.5 -6l-32 -6t-37.5 -6.5t-39.5 -7q-128 -24 -210 -67.5t-82 -104.5
q0 -45 49 -72t135 -27z" />
    <glyph glyph-name="aring" unicode="&#xe5;" horiz-adv-x="1431" 
d="M850 1255q-114 0 -189 61.5t-75 156.5q0 111 102.5 195.5t245.5 84.5q116 0 189 -60.5t73 -154.5q0 -112 -101.5 -197.5t-244.5 -85.5zM874 1413q55 0 96.5 32.5t41.5 72.5q0 32 -30.5 53.5t-74.5 21.5q-56 0 -96.5 -31t-40.5 -73q0 -34 29 -55t75 -21zM438 -35
q-183 0 -293 77t-110 216q0 71 28.5 128.5t74 96.5t115.5 70.5t139 50.5t159 37q40 8 95 17t93 15.5t82 15t73 19t54.5 24.5t38 34t12.5 45q0 58 -58 94.5t-159 36.5q-107 0 -194 -44.5t-137 -137.5l-269 90q46 87 117.5 151.5t158.5 102t179 55t192 17.5q242 0 372.5 -106
t96.5 -300l-73 -414q-21 -124 -25 -199t6 -157h-299q-14 72 2 150h-4q-74 -86 -198 -135.5t-269 -49.5zM551 186q148 0 256.5 75.5t128.5 168.5l20 90q-13 -4 -26.5 -7.5t-24 -6.5t-26.5 -6.5t-24.5 -6t-28 -6t-27 -5t-31.5 -6l-32 -6t-37.5 -6.5t-39.5 -7
q-128 -24 -210 -67.5t-82 -104.5q0 -45 49 -72t135 -27z" />
    <glyph glyph-name="ae" unicode="&#xe6;" horiz-adv-x="2400" 
d="M440 -35q-84 0 -155 17t-128 51t-89.5 92t-32.5 135q0 56 20 105t50.5 84t77 65.5t90.5 49.5t100.5 36t97 26t88.5 17q33 5 94 14t93.5 14.5t80 15t73 20t52 25t38 34t11.5 43.5q0 56 -61 94.5t-158 38.5q-107 0 -193.5 -47.5t-135.5 -134.5l-271 90q46 85 118 149
t158.5 102t179.5 56.5t191 18.5q145 0 259.5 -39t158.5 -111q101 71 234 110.5t280 39.5q99 0 188.5 -23t165.5 -70.5t126 -120t70.5 -171t-1.5 -224.5l-12 -75h-1043q-9 -122 87.5 -194.5t254.5 -72.5q126 0 234 46.5t174 134.5l262 -109q-101 -146 -289 -239t-417 -93
q-187 0 -329.5 60t-205.5 172h-8q-229 -232 -578 -232zM1294 698h723q1 63 -24.5 109t-71 71.5t-98 37.5t-113.5 12q-139 0 -251.5 -64t-164.5 -166zM547 186q149 0 259.5 76t129.5 168l18 92q-103 -28 -147 -37.5t-129 -21.5q-54 -8 -104.5 -21.5t-99 -34t-78 -50
t-29.5 -64.5q0 -52 47 -79.5t133 -27.5z" />
    <glyph glyph-name="ccedilla" unicode="&#xe7;" horiz-adv-x="1490" 
d="M729 240q129 0 238.5 52.5t177.5 151.5l264 -108q-100 -164 -281.5 -262t-398.5 -109l-82 -71q32 8 68 8q95 0 155 -44.5t60 -123.5q0 -109 -104 -181.5t-261 -72.5q-103 0 -186.5 34.5t-126.5 94.5l117 112q67 -96 209 -96q66 0 108.5 25.5t42.5 64.5q0 32 -32 50
t-83 18q-62 0 -112 -29l-86 68l145 151q-226 29 -354.5 161t-128.5 337q0 137 61 265t166 225.5t257.5 156t324.5 58.5q213 0 368.5 -95t200.5 -262l-299 -108q-25 96 -107 143t-198 47q-193 0 -327 -116t-134 -271q0 -128 93 -201t245 -73z" />
    <glyph glyph-name="egrave" unicode="&#xe8;" horiz-adv-x="1456" 
d="M999 1278h-260l-305 379h361zM651 -35q-263 0 -421 135.5t-158 362.5q0 138 60 268t162 228t247.5 157.5t306.5 59.5q95 0 180.5 -23t158.5 -70.5t120.5 -120t66.5 -171t-4 -224.5l-16 -88h-987q-6 -122 85.5 -189t239.5 -67q115 0 215 47.5t160 135.5l262 -109
q-96 -144 -277.5 -238t-400.5 -94zM416 694h671q7 80 -31.5 135t-102 78t-146.5 23q-134 0 -238 -65.5t-153 -170.5z" />
    <glyph glyph-name="eacute" unicode="&#xe9;" horiz-adv-x="1456" 
d="M1407 1657l-438 -379h-260l338 379h360zM651 -35q-263 0 -421 135.5t-158 362.5q0 138 60 268t162 228t247.5 157.5t306.5 59.5q95 0 180.5 -23t158.5 -70.5t120.5 -120t66.5 -171t-4 -224.5l-16 -88h-987q-6 -122 85.5 -189t239.5 -67q115 0 215 47.5t160 135.5
l262 -109q-96 -144 -277.5 -238t-400.5 -94zM416 694h671q7 80 -31.5 135t-102 78t-146.5 23q-134 0 -238 -65.5t-153 -170.5z" />
    <glyph glyph-name="ecircumflex" unicode="&#xea;" horiz-adv-x="1456" 
d="M627 1278h-283l420 371h315l293 -371h-282q-13 15 -68.5 62t-122.5 135q-34 -26 -70.5 -47t-81.5 -53t-120 -97zM651 -35q-263 0 -421 135.5t-158 362.5q0 138 60 268t162 228t247.5 157.5t306.5 59.5q95 0 180.5 -23t158.5 -70.5t120.5 -120t66.5 -171t-4 -224.5
l-16 -88h-987q-6 -122 85.5 -189t239.5 -67q115 0 215 47.5t160 135.5l262 -109q-96 -144 -277.5 -238t-400.5 -94zM416 694h671q7 80 -31.5 135t-102 78t-146.5 23q-134 0 -238 -65.5t-153 -170.5z" />
    <glyph glyph-name="edieresis" unicode="&#xeb;" horiz-adv-x="1456" 
d="M604 1300q-66 0 -109.5 41t-43.5 101q0 71 61.5 126.5t142.5 55.5q66 0 110 -39t44 -98q0 -71 -62 -129t-143 -58zM1133 1300q-67 0 -110.5 40.5t-43.5 101.5q0 74 61.5 128t141.5 54q66 0 109.5 -39t43.5 -98q0 -72 -60.5 -129.5t-141.5 -57.5zM651 -35
q-263 0 -421 135.5t-158 362.5q0 138 60 268t162 228t247.5 157.5t306.5 59.5q95 0 180.5 -23t158.5 -70.5t120.5 -120t66.5 -171t-4 -224.5l-16 -88h-987q-6 -122 85.5 -189t239.5 -67q115 0 215 47.5t160 135.5l262 -109q-96 -144 -277.5 -238t-400.5 -94zM416 694h671
q7 80 -31.5 135t-102 78t-146.5 23q-134 0 -238 -65.5t-153 -170.5z" />
    <glyph glyph-name="igrave" unicode="&#xec;" horiz-adv-x="659" 
d="M594 1262h-260l-305 378h360zM379 0h-299l203 1143h299z" />
    <glyph glyph-name="iacute" unicode="&#xed;" horiz-adv-x="659" 
d="M1001 1640l-438 -378h-260l338 378h360zM379 0h-299l203 1143h299z" />
    <glyph glyph-name="icircumflex" unicode="&#xee;" horiz-adv-x="659" 
d="M221 1262h-282l419 370h316l293 -370h-283q-13 15 -68 61.5t-122 134.5q-20 -15 -96.5 -62.5t-176.5 -133.5zM379 0h-299l203 1143h299z" />
    <glyph glyph-name="idieresis" unicode="&#xef;" horiz-adv-x="659" 
d="M199 1284q-66 0 -110 40.5t-44 100.5q0 71 62 127t143 56q66 0 109.5 -39.5t43.5 -98.5q0 -71 -61.5 -128.5t-142.5 -57.5zM727 1284q-67 0 -110.5 40.5t-43.5 100.5q0 74 61.5 128.5t141.5 54.5q66 0 110 -39.5t44 -98.5q0 -72 -61 -129t-142 -57zM379 0h-299l203 1143
h299z" />
    <glyph glyph-name="eth" unicode="&#xf0;" horiz-adv-x="1609" 
d="M1442 1518l-182 -80q280 -235 280 -598q0 -136 -38 -265t-113 -239t-177.5 -193t-240 -130.5t-293.5 -47.5q-274 0 -440 131.5t-166 349.5q0 124 59 239t160 201t244 137.5t303 51.5q130 0 220.5 -35.5t166.5 -117.5h6q-39 217 -266 385l-344 -154l-64 135l252 113
q-120 61 -293 112l115 224q280 -77 485 -199l252 113zM711 229q187 0 317.5 102.5t130.5 243.5q0 114 -90.5 181t-234.5 67q-185 0 -317 -102.5t-132 -241.5q0 -113 88.5 -181.5t237.5 -68.5z" />
    <glyph glyph-name="ntilde" unicode="&#xf1;" horiz-adv-x="1564" 
d="M1098 1280q-98 0 -166 45l-60 39q-50 35 -96 35q-44 0 -76 -29t-41 -72h-215q24 144 124.5 231t230.5 87q95 0 170 -49l55 -35q36 -27 86 -27q39 0 66.5 27t35.5 70h218q-25 -154 -112.5 -238t-219.5 -84zM379 0h-299l203 1143h292l-30 -168h4q89 96 214.5 148.5
t262.5 52.5q77 0 144 -17.5t122 -53t90 -90t48.5 -128t-3.5 -166.5l-127 -721h-299l111 594q6 45 6 88.5t-16 83t-42.5 69.5t-72.5 48t-106 18q-151 0 -260 -78t-138 -233z" />
    <glyph glyph-name="ograve" unicode="&#xf2;" horiz-adv-x="1574" 
d="M1055 1278h-260l-306 379h361zM680 -35q-276 0 -439 137.5t-163 368.5q0 135 61 262.5t167 225.5t260 157.5t329 59.5q276 0 440 -139t164 -371q0 -108 -38 -211.5t-111 -191.5t-171.5 -155t-227.5 -105t-271 -38zM723 240q195 0 328 116t133 277q0 124 -89.5 196
t-238.5 72q-132 0 -240 -57.5t-165.5 -146.5t-57.5 -187q0 -123 89.5 -196.5t240.5 -73.5z" />
    <glyph glyph-name="oacute" unicode="&#xf3;" horiz-adv-x="1574" 
d="M1460 1657l-438 -379h-260l338 379h360zM680 -35q-276 0 -439 137.5t-163 368.5q0 135 61 262.5t167 225.5t260 157.5t329 59.5q276 0 440 -139t164 -371q0 -108 -38 -211.5t-111 -191.5t-171.5 -155t-227.5 -105t-271 -38zM723 240q195 0 328 116t133 277
q0 124 -89.5 196t-238.5 72q-132 0 -240 -57.5t-165.5 -146.5t-57.5 -187q0 -123 89.5 -196.5t240.5 -73.5z" />
    <glyph glyph-name="ocircumflex" unicode="&#xf4;" horiz-adv-x="1574" 
d="M682 1278h-283l420 371h316l292 -371h-282q-13 15 -68.5 62t-122.5 135q-34 -26 -70.5 -47t-81.5 -53t-120 -97zM680 -35q-276 0 -439 137.5t-163 368.5q0 135 61 262.5t167 225.5t260 157.5t329 59.5q276 0 440 -139t164 -371q0 -108 -38 -211.5t-111 -191.5
t-171.5 -155t-227.5 -105t-271 -38zM723 240q195 0 328 116t133 277q0 124 -89.5 196t-238.5 72q-132 0 -240 -57.5t-165.5 -146.5t-57.5 -187q0 -123 89.5 -196.5t240.5 -73.5z" />
    <glyph glyph-name="otilde" unicode="&#xf5;" horiz-adv-x="1574" 
d="M1110 1280q-98 0 -166 45l-59 39q-50 35 -97 35q-44 0 -75.5 -29t-40.5 -72h-215q24 144 124 231t230 87q95 0 170 -49l55 -35q36 -27 86 -27q39 0 67 27t36 70h217q-25 -154 -112.5 -238t-219.5 -84zM680 -35q-276 0 -439 137.5t-163 368.5q0 135 61 262.5t167 225.5
t260 157.5t329 59.5q276 0 440 -139t164 -371q0 -108 -38 -211.5t-111 -191.5t-171.5 -155t-227.5 -105t-271 -38zM723 240q195 0 328 116t133 277q0 124 -89.5 196t-238.5 72q-132 0 -240 -57.5t-165.5 -146.5t-57.5 -187q0 -123 89.5 -196.5t240.5 -73.5z" />
    <glyph glyph-name="odieresis" unicode="&#xf6;" horiz-adv-x="1574" 
d="M657 1300q-66 0 -109.5 41t-43.5 101q0 71 62 126.5t143 55.5q66 0 109.5 -39t43.5 -98q0 -71 -62 -129t-143 -58zM1186 1300q-67 0 -110.5 40.5t-43.5 101.5q0 74 61.5 128t141.5 54q66 0 110 -39t44 -98q0 -72 -61 -129.5t-142 -57.5zM680 -35q-276 0 -439 137.5
t-163 368.5q0 135 61 262.5t167 225.5t260 157.5t329 59.5q276 0 440 -139t164 -371q0 -108 -38 -211.5t-111 -191.5t-171.5 -155t-227.5 -105t-271 -38zM723 240q195 0 328 116t133 277q0 124 -89.5 196t-238.5 72q-132 0 -240 -57.5t-165.5 -146.5t-57.5 -187
q0 -123 89.5 -196.5t240.5 -73.5z" />
    <glyph glyph-name="divide" unicode="&#xf7;" horiz-adv-x="1310" 
d="M707 858q-63 0 -104.5 39t-41.5 98q0 69 60 121.5t139 52.5q63 0 105 -37t42 -94q0 -69 -61 -124.5t-139 -55.5zM1167 516h-1034l33 221h1036zM580 86q-63 0 -105.5 39t-42.5 96q0 69 59.5 122.5t137.5 53.5q63 0 106 -38t43 -95q0 -70 -60.5 -124t-137.5 -54z" />
    <glyph glyph-name="oslash" unicode="&#xf8;" horiz-adv-x="1574" 
d="M1296 1188h318l-221 -209q106 -128 106 -313q0 -108 -38 -211.5t-111 -191.5t-171.5 -155t-227.5 -105t-271 -38q-171 0 -309 58l-86 -80h-324l227 211q-110 128 -110 317q0 135 61 262.5t167 225.5t260 157.5t329 59.5q182 0 319 -64zM393 510q0 -74 35 -133l547 510
q-52 14 -119 14q-132 0 -240 -57.5t-165.5 -146.5t-57.5 -187zM1184 633q0 68 -31 125l-539 -506q50 -12 109 -12q195 0 328 116t133 277z" />
    <glyph glyph-name="ugrave" unicode="&#xf9;" horiz-adv-x="1544" 
d="M1032 1278h-260l-305 379h360zM551 -35q-225 0 -338 119t-74 342l127 717h299l-114 -619q-23 -130 38.5 -207t186.5 -77q147 0 251 81t126 207l110 615h299l-137 -787q-22 -130 -26 -203.5t6 -152.5h-299q-9 92 2 139h-7q-171 -174 -450 -174z" />
    <glyph glyph-name="uacute" unicode="&#xfa;" horiz-adv-x="1544" 
d="M1440 1657l-439 -379h-260l338 379h361zM551 -35q-225 0 -338 119t-74 342l127 717h299l-114 -619q-23 -130 38.5 -207t186.5 -77q147 0 251 81t126 207l110 615h299l-137 -787q-22 -130 -26 -203.5t6 -152.5h-299q-9 92 2 139h-7q-171 -174 -450 -174z" />
    <glyph glyph-name="ucircumflex" unicode="&#xfb;" horiz-adv-x="1544" 
d="M659 1278h-282l420 371h315l293 -371h-283q-22 24 -47.5 44.5t-58.5 53.5t-84 99q-19 -14 -96 -62.5t-177 -134.5zM551 -35q-225 0 -338 119t-74 342l127 717h299l-114 -619q-23 -130 38.5 -207t186.5 -77q147 0 251 81t126 207l110 615h299l-137 -787
q-22 -130 -26 -203.5t6 -152.5h-299q-9 92 2 139h-7q-171 -174 -450 -174z" />
    <glyph glyph-name="udieresis" unicode="&#xfc;" horiz-adv-x="1544" 
d="M637 1300q-66 0 -110 41t-44 101q0 71 62 126.5t143 55.5q66 0 110 -39t44 -98q0 -71 -62 -129t-143 -58zM1165 1300q-67 0 -110 40.5t-43 101.5q0 74 61 128t141 54q66 0 110 -39t44 -98q0 -72 -61 -129.5t-142 -57.5zM551 -35q-225 0 -338 119t-74 342l127 717h299
l-114 -619q-23 -130 38.5 -207t186.5 -77q147 0 251 81t126 207l110 615h299l-137 -787q-22 -130 -26 -203.5t6 -152.5h-299q-9 92 2 139h-7q-171 -174 -450 -174z" />
    <glyph glyph-name="yacute" unicode="&#xfd;" horiz-adv-x="1409" 
d="M1372 1657l-438 -379h-260l338 379h360zM496 -451h-318l264 402l-327 1192h329q94 -332 213 -809h5q443 698 514 809h321z" />
    <glyph glyph-name="thorn" unicode="&#xfe;" horiz-adv-x="1632" 
d="M299 -451h-299l369 2089h299l-121 -663h6q201 201 491 201q230 0 371 -135.5t141 -356.5q0 -141 -58.5 -273t-157 -230t-235.5 -157t-286 -59q-135 0 -240.5 46.5t-164.5 138.5h-4zM791 240q186 0 318 116t132 273q0 123 -87 197.5t-230 74.5q-187 0 -322 -117t-135 -272
q0 -123 89.5 -197.5t234.5 -74.5z" />
    <glyph glyph-name="ydieresis" unicode="&#xff;" horiz-adv-x="1409" 
d="M569 1300q-66 0 -109.5 41t-43.5 101q0 71 62 126.5t143 55.5q66 0 109.5 -39t43.5 -98q0 -71 -62 -129t-143 -58zM1098 1300q-67 0 -110.5 40.5t-43.5 101.5q0 74 61.5 128t141.5 54q66 0 109.5 -39t43.5 -98q0 -72 -60.5 -129.5t-141.5 -57.5zM496 -451h-318l264 402
l-327 1192h329q94 -332 213 -809h5q443 698 514 809h321z" />
    <glyph glyph-name="Amacron" unicode="&#x100;" horiz-adv-x="1865" 
d="M1583 1765h-878l32 213h879zM242 0h-332l1022 1597h368l457 -1597h-336q-23 70 -68 214t-65 204h-770zM711 713h489q-107 363 -149 518h-4q-77 -119 -336 -518z" />
    <glyph glyph-name="amacron" unicode="&#x101;" horiz-adv-x="1431" 
d="M1282 1331h-825l30 203h826zM438 -35q-183 0 -293 77t-110 216q0 71 28.5 128.5t74 96.5t115.5 70.5t139 50.5t159 37q40 8 95 17t93 15.5t82 15t73 19t54.5 24.5t38 34t12.5 45q0 58 -58 94.5t-159 36.5q-107 0 -194 -44.5t-137 -137.5l-269 90q46 87 117.5 151.5
t158.5 102t179 55t192 17.5q242 0 372.5 -106t96.5 -300l-73 -414q-21 -124 -25 -199t6 -157h-299q-14 72 2 150h-4q-74 -86 -198 -135.5t-269 -49.5zM551 186q148 0 256.5 75.5t128.5 168.5l20 90q-13 -4 -26.5 -7.5t-24 -6.5t-26.5 -6.5t-24.5 -6t-28 -6t-27 -5t-31.5 -6
l-32 -6t-37.5 -6.5t-39.5 -7q-128 -24 -210 -67.5t-82 -104.5q0 -45 49 -72t135 -27z" />
    <glyph glyph-name="Abreve" unicode="&#x102;" horiz-adv-x="1865" 
d="M1130 1716q-206 0 -319.5 103.5t-91.5 261.5h256q-8 -65 41 -113.5t145 -48.5q98 0 166 47.5t84 114.5h258q-31 -158 -181 -261.5t-358 -103.5zM242 0h-332l1022 1597h368l457 -1597h-336q-23 70 -68 214t-65 204h-770zM711 713h489q-107 363 -149 518h-4
q-77 -119 -336 -518z" />
    <glyph glyph-name="abreve" unicode="&#x103;" horiz-adv-x="1431" 
d="M852 1268q-207 0 -312 109t-81 286h248q-16 -78 32.5 -134t149.5 -56q98 0 168 56t90 134h248q-39 -184 -189 -289.5t-354 -105.5zM438 -35q-183 0 -293 77t-110 216q0 71 28.5 128.5t74 96.5t115.5 70.5t139 50.5t159 37q40 8 95 17t93 15.5t82 15t73 19t54.5 24.5
t38 34t12.5 45q0 58 -58 94.5t-159 36.5q-107 0 -194 -44.5t-137 -137.5l-269 90q46 87 117.5 151.5t158.5 102t179 55t192 17.5q242 0 372.5 -106t96.5 -300l-73 -414q-21 -124 -25 -199t6 -157h-299q-14 72 2 150h-4q-74 -86 -198 -135.5t-269 -49.5zM551 186
q148 0 256.5 75.5t128.5 168.5l20 90q-13 -4 -26.5 -7.5t-24 -6.5t-26.5 -6.5t-24.5 -6t-28 -6t-27 -5t-31.5 -6l-32 -6t-37.5 -6.5t-39.5 -7q-128 -24 -210 -67.5t-82 -104.5q0 -45 49 -72t135 -27z" />
    <glyph glyph-name="Aogonek" unicode="&#x104;" horiz-adv-x="1865" 
d="M1397 -174q0 -42 43.5 -74.5t124.5 -32.5q54 0 110 11l-28 -174q-67 -19 -154 -19q-136 0 -229 51.5t-93 149.5q0 86 73 155t175 107h2q-23 70 -68 214t-65 204h-770l-276 -418h-332l1022 1597h368l457 -1597h-125q-105 -16 -170 -68.5t-65 -105.5zM711 713h489
q-107 363 -149 518h-4q-77 -119 -336 -518z" />
    <glyph glyph-name="aogonek" unicode="&#x105;" horiz-adv-x="1431" 
d="M829 1176q242 0 372.5 -106t96.5 -300l-73 -414q-21 -124 -25 -199t6 -157h-94q-102 -20 -164.5 -70.5t-62.5 -105.5q0 -40 41.5 -67t107.5 -27q62 0 117 16l-31 -195q-63 -14 -135 -14q-150 0 -235.5 55t-85.5 150q0 86 73 156.5t176 101.5h-6q-14 72 2 150h-4
q-74 -86 -198 -135.5t-269 -49.5q-183 0 -293 77t-110 216q0 71 28.5 128.5t74 96.5t115.5 70.5t139 50.5t159 37q40 8 95 17t93 15.5t82 15t73 19t54.5 24.5t38 34t12.5 45q0 58 -58 94.5t-159 36.5q-107 0 -194 -44.5t-137 -137.5l-269 90q46 87 117.5 151.5t158.5 102
t179 55t192 17.5zM551 186q148 0 256.5 75.5t128.5 168.5l20 90q-13 -4 -26.5 -7.5t-24 -6.5t-26.5 -6.5t-24.5 -6t-28 -6t-27 -5t-31.5 -6l-32 -6t-37.5 -6.5t-39.5 -7q-128 -24 -210 -67.5t-82 -104.5q0 -45 49 -72t135 -27z" />
    <glyph glyph-name="Cacute" unicode="&#x106;" horiz-adv-x="2043" 
d="M1845 2081l-454 -361h-273l348 361h379zM985 -35q-390 0 -622 191t-232 512q0 189 87.5 365.5t236.5 308t359 210t443 78.5q304 0 518 -136.5t271 -365.5l-311 -112q-49 145 -183 236t-338 91q-159 0 -300 -55.5t-238 -146.5t-153 -208t-56 -239q0 -95 32.5 -171.5
t87 -126t129 -83t153.5 -47.5t165 -14q238 0 417 105.5t278 279.5l280 -96q-154 -288 -420 -432t-604 -144z" />
    <glyph glyph-name="cacute" unicode="&#x107;" horiz-adv-x="1490" 
d="M1413 1657l-438 -379h-260l338 379h360zM684 -35q-279 0 -442.5 137t-163.5 369q0 137 61 265t166 225.5t257.5 156t324.5 58.5q213 0 368.5 -95t200.5 -262l-299 -108q-25 96 -107 143t-198 47q-193 0 -327 -116t-134 -271q0 -128 93 -201t245 -73q129 0 238.5 52.5
t177.5 151.5l264 -108q-105 -173 -300 -272t-425 -99z" />
    <glyph glyph-name="Cdotaccent" unicode="&#x10a;" horiz-adv-x="2043" 
d="M1264 1755q-74 0 -121 43.5t-47 110.5q0 80 67.5 140t157.5 60q72 0 119 -42t47 -107q0 -82 -67 -143.5t-156 -61.5zM985 -35q-390 0 -622 191t-232 512q0 189 87.5 365.5t236.5 308t359 210t443 78.5q304 0 518 -136.5t271 -365.5l-311 -112q-49 145 -183 236t-338 91
q-159 0 -300 -55.5t-238 -146.5t-153 -208t-56 -239q0 -95 32.5 -171.5t87 -126t129 -83t153.5 -47.5t165 -14q238 0 417 105.5t278 279.5l280 -96q-154 -288 -420 -432t-604 -144z" />
    <glyph glyph-name="cdotaccent" unicode="&#x10b;" horiz-adv-x="1490" 
d="M877 1315q-72 0 -120 43.5t-48 109.5q0 82 67 142.5t158 60.5q72 0 119 -42t47 -107q0 -82 -67 -144.5t-156 -62.5zM684 -35q-279 0 -442.5 137t-163.5 369q0 137 61 265t166 225.5t257.5 156t324.5 58.5q213 0 368.5 -95t200.5 -262l-299 -108q-25 96 -107 143t-198 47
q-193 0 -327 -116t-134 -271q0 -128 93 -201t245 -73q129 0 238.5 52.5t177.5 151.5l264 -108q-105 -173 -300 -272t-425 -99z" />
    <glyph glyph-name="Ccaron" unicode="&#x10c;" horiz-adv-x="2043" 
d="M1528 2077h278l-397 -357h-311l-279 357h281q31 -28 92 -86t92 -86q31 21 109.5 79.5t134.5 92.5zM985 -35q-390 0 -622 191t-232 512q0 189 87.5 365.5t236.5 308t359 210t443 78.5q304 0 518 -136.5t271 -365.5l-311 -112q-49 145 -183 236t-338 91q-159 0 -300 -55.5
t-238 -146.5t-153 -208t-56 -239q0 -95 32.5 -171.5t87 -126t129 -83t153.5 -47.5t165 -14q238 0 417 105.5t278 279.5l280 -96q-154 -288 -420 -432t-604 -144z" />
    <glyph glyph-name="ccaron" unicode="&#x10d;" horiz-adv-x="1490" 
d="M1024 1294h-317l-289 387h282q26 -26 54 -48t58 -52.5t83 -97.5q34 28 67.5 47.5t80 52.5t120.5 98h283zM684 -35q-279 0 -442.5 137t-163.5 369q0 137 61 265t166 225.5t257.5 156t324.5 58.5q213 0 368.5 -95t200.5 -262l-299 -108q-25 96 -107 143t-198 47
q-193 0 -327 -116t-134 -271q0 -128 93 -201t245 -73q129 0 238.5 52.5t177.5 151.5l264 -108q-105 -173 -300 -272t-425 -99z" />
    <glyph glyph-name="Dcaron" unicode="&#x10e;" horiz-adv-x="1957" 
d="M1391 2077h278l-397 -357h-311l-279 357h281q31 -28 92 -86t92 -86q31 21 109.5 79.5t134.5 92.5zM862 0h-745l282 1597h723q393 0 589 -170t196 -475q0 -147 -47 -287.5t-138 -260.5t-216 -210.5t-291.5 -142t-352.5 -51.5zM475 281h399q157 0 289 48t220.5 131.5
t138 195.5t49.5 239q0 78 -16.5 141t-44.5 106.5t-71 75.5t-89 51t-107.5 30t-116.5 14.5t-125 3.5h-327q-18 -92 -35 -171.5t-29.5 -137.5t-47 -241.5t-87.5 -485.5z" />
    <glyph glyph-name="dcaron" unicode="&#x10f;" horiz-adv-x="1638" 
d="M1802 1094h-176l238 288q-49 19 -76 55.5t-27 82.5q0 83 70.5 144.5t161.5 61.5q72 0 120 -43.5t48 -109.5q0 -64 -63 -145.5t-296 -333.5zM606 -35q-243 0 -385.5 133.5t-142.5 360.5q0 138 57.5 269t154.5 229.5t235.5 158.5t291.5 60q145 0 249 -51.5t155 -133.5h4
l121 647h299l-226 -1282q-24 -128 -26.5 -213.5t8.5 -142.5h-299q-11 98 2 145h-4q-91 -91 -222 -135.5t-272 -44.5zM711 240q186 0 323 117.5t137 273.5q0 122 -90.5 197t-234.5 75q-123 0 -227.5 -54t-164 -143t-59.5 -190q0 -124 86.5 -200t229.5 -76z" />
    <glyph glyph-name="Dcroat" unicode="&#x110;" horiz-adv-x="1957" 
d="M399 1597h723q393 0 589 -170t196 -475q0 -147 -47 -287.5t-138 -260.5t-216 -210.5t-291.5 -142t-352.5 -51.5h-745l119 676h-236l35 244h244zM874 281q157 0 289 48t220.5 131.5t138 195.5t49.5 239q0 78 -16.5 141t-44.5 106.5t-71 75.5t-89 51t-107.5 30t-116.5 14.5
t-125 3.5h-327q-18 -95 -41 -198.5t-41 -198.5h465l-35 -244h-477l-70 -395h399z" />
    <glyph glyph-name="dcroat" unicode="&#x111;" horiz-adv-x="1638" 
d="M1616 1481h315l-30 -215h-322l-160 -910q-24 -128 -26.5 -213.5t8.5 -142.5h-299q-11 98 2 145h-4q-91 -91 -222 -135.5t-272 -44.5q-243 0 -385.5 133.5t-142.5 360.5q0 138 57.5 269t154.5 229.5t235.5 158.5t291.5 60q145 0 249 -51.5t155 -133.5h4l51 275h-313
l34 215h320l29 157h299zM711 240q186 0 323 117.5t137 273.5q0 122 -90.5 197t-234.5 75q-123 0 -227.5 -54t-164 -143t-59.5 -190q0 -124 86.5 -200t229.5 -76z" />
    <glyph glyph-name="Emacron" unicode="&#x112;" horiz-adv-x="1595" 
d="M1481 1765h-879l33 213h878zM1382 0h-1265l282 1597h1241l-43 -280h-923q-3 -14 -24 -95t-52 -264h877l-45 -294h-875q-9 -42 -13.5 -63.5t-7.5 -37t-18.5 -88.5t-40.5 -192h948z" />
    <glyph glyph-name="emacron" unicode="&#x113;" horiz-adv-x="1456" 
d="M1288 1331h-825l31 203h825zM651 -35q-263 0 -421 135.5t-158 362.5q0 138 60 268t162 228t247.5 157.5t306.5 59.5q95 0 180.5 -23t158.5 -70.5t120.5 -120t66.5 -171t-4 -224.5l-16 -88h-987q-6 -122 85.5 -189t239.5 -67q115 0 215 47.5t160 135.5l262 -109
q-96 -144 -277.5 -238t-400.5 -94zM416 694h671q7 80 -31.5 135t-102 78t-146.5 23q-134 0 -238 -65.5t-153 -170.5z" />
    <glyph glyph-name="Edotaccent" unicode="&#x116;" horiz-adv-x="1595" 
d="M1040 1755q-74 0 -121 43.5t-47 110.5q0 80 67.5 140t158.5 60q72 0 119 -42t47 -107q0 -82 -67.5 -143.5t-156.5 -61.5zM1382 0h-1265l282 1597h1241l-43 -280h-923q-3 -14 -24 -95t-52 -264h877l-45 -294h-875q-9 -42 -13.5 -63.5t-7.5 -37t-18.5 -88.5t-40.5 -192h948
z" />
    <glyph glyph-name="edotaccent" unicode="&#x117;" horiz-adv-x="1456" 
d="M870 1315q-72 0 -120 43.5t-48 109.5q0 82 67.5 142.5t158.5 60.5q72 0 119 -42t47 -107q0 -82 -67.5 -144.5t-156.5 -62.5zM651 -35q-263 0 -421 135.5t-158 362.5q0 138 60 268t162 228t247.5 157.5t306.5 59.5q95 0 180.5 -23t158.5 -70.5t120.5 -120t66.5 -171
t-4 -224.5l-16 -88h-987q-6 -122 85.5 -189t239.5 -67q115 0 215 47.5t160 135.5l262 -109q-96 -144 -277.5 -238t-400.5 -94zM416 694h671q7 80 -31.5 135t-102 78t-146.5 23q-134 0 -238 -65.5t-153 -170.5z" />
    <glyph glyph-name="Eogonek" unicode="&#x118;" horiz-adv-x="1595" 
d="M1640 1597l-43 -280h-923q-3 -14 -24 -95t-52 -264h877l-45 -294h-875q-9 -42 -13.5 -63.5t-7.5 -37t-18.5 -88.5t-40.5 -192h948l-41 -283q-105 -16 -170 -68.5t-65 -105.5q0 -42 43.5 -74.5t124.5 -32.5q54 0 110 11l-28 -174q-67 -19 -154 -19t-158 20.5t-117 67
t-46 113.5q0 86 72.5 155t174.5 107h-1052l282 1597h1241z" />
    <glyph glyph-name="eogonek" unicode="&#x119;" horiz-adv-x="1456" 
d="M848 1176q95 0 180.5 -23t158.5 -70.5t120.5 -120t66.5 -171t-4 -224.5l-16 -88h-987q-6 -122 85.5 -189t239.5 -67q115 0 215 47.5t160 135.5l262 -109q-74 -112 -205.5 -197t-294.5 -118q-74 -25 -117.5 -69.5t-43.5 -88.5q0 -40 41.5 -67t107.5 -27q62 0 117 16
l-31 -195q-63 -14 -135 -14q-150 0 -236 55t-86 150q0 67 46 125.5t120 97.5q-247 11 -393.5 145t-146.5 353q0 138 60 268t162 228t247.5 157.5t306.5 59.5zM416 694h671q7 80 -31.5 135t-102 78t-146.5 23q-134 0 -238 -65.5t-153 -170.5z" />
    <glyph glyph-name="Ecaron" unicode="&#x11a;" horiz-adv-x="1595" 
d="M1305 2077h278l-397 -357h-312l-278 357h281q31 -28 92 -86t92 -86q31 21 109.5 79.5t134.5 92.5zM1382 0h-1265l282 1597h1241l-43 -280h-923q-3 -14 -24 -95t-52 -264h877l-45 -294h-875q-9 -42 -13.5 -63.5t-7.5 -37t-18.5 -88.5t-40.5 -192h948z" />
    <glyph glyph-name="ecaron" unicode="&#x11b;" horiz-adv-x="1456" 
d="M1020 1294h-318l-288 387h282q26 -26 54 -48t58 -52.5t83 -97.5q34 28 67.5 47.5t80 52.5t120.5 98h283zM651 -35q-263 0 -421 135.5t-158 362.5q0 138 60 268t162 228t247.5 157.5t306.5 59.5q95 0 180.5 -23t158.5 -70.5t120.5 -120t66.5 -171t-4 -224.5l-16 -88h-987
q-6 -122 85.5 -189t239.5 -67q115 0 215 47.5t160 135.5l262 -109q-96 -144 -277.5 -238t-400.5 -94zM416 694h671q7 80 -31.5 135t-102 78t-146.5 23q-134 0 -238 -65.5t-153 -170.5z" />
    <glyph glyph-name="Gbreve" unicode="&#x11e;" horiz-adv-x="2136" 
d="M1253 1716q-206 0 -319.5 103.5t-91.5 261.5h256q-8 -65 41 -113.5t145 -48.5q98 0 166 47.5t84 114.5h258q-31 -158 -181 -261.5t-358 -103.5zM942 -35q-370 0 -591.5 189.5t-221.5 504.5q0 190 87 367.5t235.5 310.5t359 213t444.5 80q306 0 520.5 -138.5t270.5 -363.5
l-311 -112q-52 148 -184.5 237.5t-333.5 89.5q-159 0 -301.5 -55.5t-240 -146t-154 -208t-56.5 -239.5q0 -99 35 -177t91 -126.5t132.5 -81t154 -45t160.5 -12.5q149 0 279 39.5t224.5 114t135.5 174.5h-547l39 247h865l-146 -827h-246q3 22 12.5 81.5t22.5 160.5h-12
q-268 -277 -723 -277z" />
    <glyph glyph-name="gbreve" unicode="&#x11f;" horiz-adv-x="1634" 
d="M932 1268q-207 0 -312 109t-81 286h247q-16 -78 33 -134t150 -56q98 0 168 56t90 134h248q-39 -184 -189 -289.5t-354 -105.5zM598 -483q-495 0 -582 327l287 95q30 -93 110 -136t214 -43q100 0 182 33.5t134.5 89t85 115t50.5 125.5l13 53h-5q-165 -170 -466 -170
q-246 0 -392.5 128.5t-146.5 348.5q0 134 58 260.5t155 222t234 153t286 57.5q148 0 255 -52t157 -135h4l31 154h292l-178 -1028q-23 -135 -77.5 -239.5t-127.5 -171.5t-168 -109.5t-193.5 -60t-211.5 -17.5zM721 281q119 0 224.5 51.5t167 135t61.5 175.5q0 116 -92 188
t-238 72q-183 0 -313 -110t-130 -252q0 -116 89 -188t231 -72z" />
    <glyph glyph-name="Gdotaccent" unicode="&#x120;" horiz-adv-x="2136" 
d="M1262 1755q-74 0 -121 43.5t-47 110.5q0 80 67.5 140t157.5 60q72 0 119 -42t47 -107q0 -82 -67 -143.5t-156 -61.5zM942 -35q-370 0 -591.5 189.5t-221.5 504.5q0 190 87 367.5t235.5 310.5t359 213t444.5 80q306 0 520.5 -138.5t270.5 -363.5l-311 -112
q-52 148 -184.5 237.5t-333.5 89.5q-159 0 -301.5 -55.5t-240 -146t-154 -208t-56.5 -239.5q0 -99 35 -177t91 -126.5t132.5 -81t154 -45t160.5 -12.5q149 0 279 39.5t224.5 114t135.5 174.5h-547l39 247h865l-146 -827h-246q3 22 12.5 81.5t22.5 160.5h-12
q-268 -277 -723 -277z" />
    <glyph glyph-name="gdotaccent" unicode="&#x121;" horiz-adv-x="1634" 
d="M946 1315q-72 0 -120 43.5t-48 109.5q0 82 67.5 142.5t158.5 60.5q72 0 118.5 -42t46.5 -107q0 -82 -67 -144.5t-156 -62.5zM598 -483q-495 0 -582 327l287 95q30 -93 110 -136t214 -43q100 0 182 33.5t134.5 89t85 115t50.5 125.5l13 53h-5q-165 -170 -466 -170
q-246 0 -392.5 128.5t-146.5 348.5q0 134 58 260.5t155 222t234 153t286 57.5q148 0 255 -52t157 -135h4l31 154h292l-178 -1028q-23 -135 -77.5 -239.5t-127.5 -171.5t-168 -109.5t-193.5 -60t-211.5 -17.5zM721 281q119 0 224.5 51.5t167 135t61.5 175.5q0 116 -92 188
t-238 72q-183 0 -313 -110t-130 -252q0 -116 89 -188t231 -72z" />
    <glyph glyph-name="uni0122" unicode="&#x122;" horiz-adv-x="2136" 
d="M942 -35q-370 0 -591.5 189.5t-221.5 504.5q0 190 87 367.5t235.5 310.5t359 213t444.5 80q306 0 520.5 -138.5t270.5 -363.5l-311 -112q-52 148 -184.5 237.5t-333.5 89.5q-159 0 -301.5 -55.5t-240 -146t-154 -208t-56.5 -239.5q0 -99 35 -177t91 -126.5t132.5 -81
t154 -45t160.5 -12.5q149 0 279 39.5t224.5 114t135.5 174.5h-547l39 247h865l-146 -827h-246q3 22 12.5 81.5t22.5 160.5h-12q-268 -277 -723 -277zM834 -649h-160l188 237q-94 39 -94 127q0 69 60 122.5t143 53.5q67 0 109 -37t42 -98q0 -18 -4 -34t-16 -37.5t-24.5 -39.5
t-40 -52t-51 -61.5t-69 -81.5t-83.5 -99z" />
    <glyph glyph-name="uni0123" unicode="&#x123;" horiz-adv-x="1634" 
d="M768 1411q0 50 40.5 107t178.5 216q53 61 84 97h170l-203 -250q86 -42 86 -127q0 -72 -62 -125t-144 -53q-66 0 -108 37.5t-42 97.5zM598 -483q-495 0 -582 327l287 95q30 -93 110 -136t214 -43q100 0 182 33.5t134.5 89t85 115t50.5 125.5l13 53h-5q-165 -170 -466 -170
q-246 0 -392.5 128.5t-146.5 348.5q0 134 58 260.5t155 222t234 153t286 57.5q148 0 255 -52t157 -135h4l31 154h292l-178 -1028q-23 -135 -77.5 -239.5t-127.5 -171.5t-168 -109.5t-193.5 -60t-211.5 -17.5zM721 281q119 0 224.5 51.5t167 135t61.5 175.5q0 116 -92 188
t-238 72q-183 0 -313 -110t-130 -252q0 -116 89 -188t231 -72z" />
    <glyph glyph-name="Hbar" unicode="&#x126;" horiz-adv-x="1990" 
d="M1913 1346h172l-35 -236h-178l-197 -1110h-319l117 643h-924l-115 -643h-317l196 1110h-178l37 236h182l45 251h318l-45 -251h921l45 251h320zM600 938h922l30 172h-921z" />
    <glyph glyph-name="hbar" unicode="&#x127;" horiz-adv-x="1564" 
d="M1026 1176q95 0 175 -28t138.5 -82t83 -143t4.5 -202l-127 -721h-299l111 594q13 55 4.5 110t-32 98.5t-75.5 71t-126 27.5q-152 0 -261.5 -78t-138.5 -233l-104 -590h-299l221 1260h-252l35 215h256l29 163h299l-29 -163h379l-31 -215h-387l-51 -285h4q187 201 473 201z
" />
    <glyph glyph-name="Imacron" unicode="&#x12a;" horiz-adv-x="749" 
d="M1026 1765h-879l33 213h879zM434 0h-317l282 1597h318z" />
    <glyph glyph-name="imacron" unicode="&#x12b;" horiz-adv-x="659" 
d="M881 1315h-826l31 203h825zM379 0h-299l203 1143h299z" />
    <glyph glyph-name="Iogonek" unicode="&#x12e;" horiz-adv-x="749" 
d="M203 -174q0 -42 43.5 -74.5t124.5 -32.5q54 0 110 11l-28 -174q-66 -19 -154 -19q-136 0 -229 51.5t-93 149.5q0 86 73 155t175 107h-108l282 1597h318l-283 -1597h4q-105 -16 -170 -68.5t-65 -105.5z" />
    <glyph glyph-name="iogonek" unicode="&#x12f;" horiz-adv-x="659" 
d="M522 1655q72 0 119 -42.5t47 -107.5q0 -82 -67 -144.5t-156 -62.5q-72 0 -120 44t-48 110q0 82 67 142.5t158 60.5zM379 0h-33q-102 -20 -164.5 -70.5t-62.5 -105.5q0 -40 41.5 -67t107.5 -27q62 0 117 16l-31 -195q-63 -14 -135 -14q-150 0 -235.5 55t-85.5 150
q0 86 73 156.5t176 101.5h-67l203 1143h299z" />
    <glyph glyph-name="Idotaccent" unicode="&#x130;" horiz-adv-x="749" 
d="M582 1755q-74 0 -121 43.5t-47 110.5q0 80 67.5 140t157.5 60q72 0 119 -42t47 -107q0 -82 -67 -143.5t-156 -61.5zM434 0h-317l282 1597h318z" />
    <glyph glyph-name="dotlessi" unicode="&#x131;" horiz-adv-x="659" 
d="M379 0h-299l203 1143h299z" />
    <glyph glyph-name="uni0136" unicode="&#x136;" horiz-adv-x="1726" 
d="M432 0h-317l282 1597h318q-90 -517 -125 -714h8q490 389 926 714h374q-255 -201 -876 -694q79 -112 229.5 -327.5t264.5 -378.5t139 -197h-387q-136 180 -500 686q-35 -29 -77.5 -63t-93.5 -74.5t-79 -63.5q-51 -297 -86 -485zM457 -649h-160l188 237q-94 39 -94 127
q0 69 60 122.5t143 53.5q67 0 109 -37t42 -98q0 -18 -4 -34t-16 -37.5t-24.5 -39.5t-40 -52t-51 -61.5t-69 -81.5t-83.5 -99z" />
    <glyph glyph-name="uni0137" unicode="&#x137;" horiz-adv-x="1374" 
d="M1090 1143h358l-588 -471l455 -672h-352l-336 483l-183 -145l-63 -338h-301l289 1638h301l-170 -931h6q107 83 293 219t291 217zM610 -109q67 0 109.5 -37t42.5 -98q0 -18 -4 -34t-16 -37.5t-24.5 -39.5t-40 -52t-51.5 -61.5t-69.5 -81t-83.5 -99.5h-160l189 237
q-94 39 -94 127q0 69 59.5 122.5t142.5 53.5z" />
    <glyph glyph-name="Lacute" unicode="&#x139;" horiz-adv-x="1437" 
d="M842 2081h379l-455 -361h-272zM717 1597l-234 -1314h871l-43 -283h-1194l282 1597h318z" />
    <glyph glyph-name="lacute" unicode="&#x13a;" horiz-adv-x="659" 
d="M1153 2122l-455 -361h-272l348 361h379zM379 0h-299l289 1638h299z" />
    <glyph glyph-name="uni013B" unicode="&#x13b;" horiz-adv-x="1437" 
d="M717 1597l-234 -1314h871l-43 -283h-1194l282 1597h318zM662 -109q67 0 109 -37t42 -98q0 -18 -4 -34t-16 -37.5t-24.5 -39.5t-40 -52t-51.5 -61.5t-69.5 -81t-83.5 -99.5h-159l188 237q-94 39 -94 127q0 69 60 122.5t143 53.5z" />
    <glyph glyph-name="uni013C" unicode="&#x13c;" horiz-adv-x="659" 
d="M379 0h-299l289 1638h299zM84 -649h-160l189 237q-45 19 -70 52t-25 75q0 69 60 122.5t143 53.5q67 0 109.5 -37t42.5 -98q0 -18 -4 -34t-16 -37.5t-24.5 -39.5t-40 -52t-51.5 -61.5t-69.5 -81t-83.5 -99.5z" />
    <glyph glyph-name="Lcaron" unicode="&#x13d;" horiz-adv-x="1437" 
d="M1053 1030h-179l238 289q-49 19 -75.5 55t-26.5 82q0 83 70 145t161 62q72 0 120 -44t48 -110q0 -64 -63 -146t-293 -333zM399 1597h318l-234 -1314h871l-43 -283h-1194z" />
    <glyph glyph-name="lcaron" unicode="&#x13e;" horiz-adv-x="659" 
d="M885 1030h-176l235 289q-47 19 -73.5 55t-26.5 82q0 83 70 145t161 62q71 0 119.5 -44t48.5 -110q0 -62 -59.5 -140t-281.5 -320q-11 -13 -17 -19zM379 0h-299l289 1638h299z" />
    <glyph glyph-name="Lslash" unicode="&#x141;" horiz-adv-x="1437" 
d="M580 823l-97 -540h871l-43 -283h-1194l123 696l-211 -78l39 256l219 82l112 641h318l-90 -514l286 107l-39 -258z" />
    <glyph glyph-name="lslash" unicode="&#x142;" horiz-adv-x="659" 
d="M582 1147l270 153l-35 -247l-280 -160l-158 -893h-299l125 705l-236 -134l37 248l242 137l121 682h299z" />
    <glyph glyph-name="Nacute" unicode="&#x143;" horiz-adv-x="2009" 
d="M1776 2081l-455 -361h-272l348 361h379zM434 0h-317l282 1597h332q371 -527 717 -1062h6q18 92 83 416t122 646h315l-282 -1597h-330q-79 114 -227 323.5t-268 382.5t-226 334h-6q-13 -72 -69.5 -323.5t-131.5 -716.5z" />
    <glyph glyph-name="nacute" unicode="&#x144;" horiz-adv-x="1564" 
d="M1448 1657l-438 -379h-260l337 379h361zM379 0h-299l203 1143h292l-30 -168h4q89 96 214.5 148.5t262.5 52.5q77 0 144 -17.5t122 -53t90 -90t48.5 -128t-3.5 -166.5l-127 -721h-299l111 594q6 45 6 88.5t-16 83t-42.5 69.5t-72.5 48t-106 18q-151 0 -260 -78t-138 -233z
" />
    <glyph glyph-name="uni0145" unicode="&#x145;" horiz-adv-x="2009" 
d="M434 0h-317l282 1597h332q371 -527 717 -1062h6q18 92 83 416t122 646h315l-282 -1597h-330q-79 114 -227 323.5t-268 382.5t-226 334h-6q-13 -72 -69.5 -323.5t-131.5 -716.5zM788 -649h-159l188 237q-94 39 -94 127q0 69 60 122.5t143 53.5q67 0 109 -37t42 -98
q0 -18 -4 -34t-16 -37.5t-24.5 -39.5t-40 -52t-51.5 -61.5t-69.5 -81t-83.5 -99.5z" />
    <glyph glyph-name="uni0146" unicode="&#x146;" horiz-adv-x="1564" 
d="M379 0h-299l203 1143h292l-30 -168h4q89 96 214.5 148.5t262.5 52.5q77 0 144 -17.5t122 -53t90 -90t48.5 -128t-3.5 -166.5l-127 -721h-299l111 594q6 45 6 88.5t-16 83t-42.5 69.5t-72.5 48t-106 18q-151 0 -260 -78t-138 -233zM598 -649h-160l189 237q-45 19 -70 52
t-25 75q0 69 60 122.5t143 53.5q67 0 109.5 -37t42.5 -98q0 -18 -4 -34t-16 -37.5t-24.5 -39.5t-40 -52t-51.5 -61.5t-69.5 -81t-83.5 -99.5z" />
    <glyph glyph-name="Ncaron" unicode="&#x147;" horiz-adv-x="2009" 
d="M1458 2077h279l-398 -357h-311l-278 357h280q31 -28 92 -86t92 -86q31 21 109.5 79.5t134.5 92.5zM434 0h-317l282 1597h332q371 -527 717 -1062h6q18 92 83 416t122 646h315l-282 -1597h-330q-79 114 -227 323.5t-268 382.5t-226 334h-6q-13 -72 -69.5 -323.5
t-131.5 -716.5z" />
    <glyph glyph-name="ncaron" unicode="&#x148;" horiz-adv-x="1564" 
d="M1061 1294h-318l-288 387h282q26 -26 54 -48t58 -52.5t83 -97.5q34 28 67.5 47.5t80 52.5t120.5 98h283zM379 0h-299l203 1143h292l-30 -168h4q89 96 214.5 148.5t262.5 52.5q77 0 144 -17.5t122 -53t90 -90t48.5 -128t-3.5 -166.5l-127 -721h-299l111 594q6 45 6 88.5
t-16 83t-42.5 69.5t-72.5 48t-106 18q-151 0 -260 -78t-138 -233z" />
    <glyph glyph-name="Eng" unicode="&#x14a;" horiz-adv-x="2009" 
d="M1047 -483q-90 0 -193.5 14t-155.5 29l37 250q95 -35 266 -35q161 0 250.5 52.5t112.5 168.5q-102 151 -347.5 497.5t-381.5 555.5l-201 -1049h-317l282 1597h332q371 -527 717 -1062h6l205 1062h315l-272 -1540q-9 -47 -19 -85.5t-33 -97t-53 -104t-81 -95t-114 -82.5
t-154.5 -54.5t-200.5 -21.5z" />
    <glyph glyph-name="eng" unicode="&#x14b;" horiz-adv-x="1564" 
d="M782 -483q-148 0 -262 43l37 247q101 -34 201 -34q56 0 98 13.5t65.5 32t40.5 49t23 51.5t12 54l115 621q6 46 6 89.5t-15.5 83t-41.5 69.5t-72 47.5t-106 17.5q-152 0 -261.5 -78t-138.5 -233l-104 -590h-299l203 1143h292l-30 -168h4q89 96 214.5 148.5t262.5 52.5
q96 0 176.5 -28t139.5 -82t83.5 -142.5t4.5 -200.5l-130 -737q-7 -41 -12.5 -68t-17 -69.5t-24 -71.5t-34.5 -66.5t-48 -62.5t-64 -52t-83 -43t-105 -26t-130 -10z" />
    <glyph glyph-name="Omacron" unicode="&#x14c;" horiz-adv-x="2138" 
d="M1718 1765h-878l32 213h879zM965 -35q-244 0 -434 87.5t-296 247.5t-106 366q0 148 56.5 292.5t161 264.5t242.5 212t310.5 143.5t355.5 51.5q244 0 434.5 -88.5t296 -249t105.5 -366.5q0 -124 -41 -246t-114 -227.5t-177.5 -196t-227.5 -154.5t-269 -100.5t-297 -36.5z
M1008 252q150 0 288.5 53.5t237.5 141.5t158 204.5t59 237.5q0 201 -149 327.5t-385 126.5q-149 0 -288 -54t-240 -142t-161.5 -205.5t-60.5 -239.5q0 -200 151 -325t390 -125z" />
    <glyph glyph-name="omacron" unicode="&#x14d;" horiz-adv-x="1574" 
d="M1341 1331h-825l31 203h825zM680 -35q-276 0 -439 137.5t-163 368.5q0 135 61 262.5t167 225.5t260 157.5t329 59.5q276 0 440 -139t164 -371q0 -108 -38 -211.5t-111 -191.5t-171.5 -155t-227.5 -105t-271 -38zM723 240q195 0 328 116t133 277q0 124 -89.5 196
t-238.5 72q-132 0 -240 -57.5t-165.5 -146.5t-57.5 -187q0 -123 89.5 -196.5t240.5 -73.5z" />
    <glyph glyph-name="Ohungarumlaut" unicode="&#x150;" horiz-adv-x="2138" 
d="M1536 2079l-424 -359h-262l319 359h367zM2052 2079l-430 -359h-264l332 359h362zM965 -35q-244 0 -434 87.5t-296 247.5t-106 366q0 148 56.5 292.5t161 264.5t242.5 212t310.5 143.5t355.5 51.5q244 0 434.5 -88.5t296 -249t105.5 -366.5q0 -124 -41 -246t-114 -227.5
t-177.5 -196t-227.5 -154.5t-269 -100.5t-297 -36.5zM1008 252q150 0 288.5 53.5t237.5 141.5t158 204.5t59 237.5q0 201 -149 327.5t-385 126.5q-149 0 -288 -54t-240 -142t-161.5 -205.5t-60.5 -239.5q0 -200 151 -325t390 -125z" />
    <glyph glyph-name="ohungarumlaut" unicode="&#x151;" horiz-adv-x="1574" 
d="M1163 1673l-438 -395h-254l338 395h354zM1686 1673l-449 -395h-254l348 395h355zM680 -35q-276 0 -439 137.5t-163 368.5q0 135 61 262.5t167 225.5t260 157.5t329 59.5q276 0 440 -139t164 -371q0 -108 -38 -211.5t-111 -191.5t-171.5 -155t-227.5 -105t-271 -38z
M723 240q195 0 328 116t133 277q0 124 -89.5 196t-238.5 72q-132 0 -240 -57.5t-165.5 -146.5t-57.5 -187q0 -123 89.5 -196.5t240.5 -73.5z" />
    <glyph glyph-name="OE" unicode="&#x152;" horiz-adv-x="3051" 
d="M958 -35q-171 0 -321.5 47t-263.5 134.5t-178.5 221t-65.5 296.5q0 188 89.5 365t239 309t358.5 212t435 80q194 0 348 -54.5t250 -158.5l39 180h1207l-41 -280h-910l-73 -359h860l-45 -294h-858l-78 -381h932l-43 -283h-1231l41 176q-139 -102 -317.5 -156.5
t-373.5 -54.5zM1001 252q150 0 288 54.5t236.5 144t157 207t58.5 239.5q0 199 -146 322.5t-381 123.5q-150 0 -289.5 -54.5t-239 -143t-159 -205.5t-59.5 -238q0 -201 148.5 -325.5t385.5 -124.5z" />
    <glyph glyph-name="oe" unicode="&#x153;" horiz-adv-x="2600" 
d="M682 -35q-276 0 -440 138t-164 370q0 136 61.5 263.5t167.5 225t260 156t328 58.5q172 0 299.5 -53t196.5 -148q102 94 250.5 147.5t318.5 53.5q99 0 188.5 -23t166.5 -70.5t127.5 -120t71 -171t-2.5 -224.5l-8 -47h-1043q-13 -132 84 -214.5t256 -82.5q125 0 232 47.5
t172 135.5l264 -109q-101 -146 -289.5 -239t-417.5 -93q-176 0 -308.5 52t-195.5 145q-106 -94 -255 -145.5t-320 -51.5zM1497 698h723q1 61 -23.5 107.5t-69 73.5t-98 40t-116.5 13q-139 0 -251 -64t-165 -170zM723 240q195 0 328 115.5t133 273.5q0 125 -88.5 198.5
t-239.5 73.5q-196 0 -329.5 -117.5t-133.5 -273.5q0 -123 89.5 -196.5t240.5 -73.5z" />
    <glyph glyph-name="Racute" unicode="&#x154;" horiz-adv-x="1720" 
d="M1563 2081l-455 -361h-272l348 361h379zM434 0h-317l282 1597h723q42 0 83 -3t101 -13.5t110.5 -28t104 -50.5t90.5 -77t61 -111.5t24 -150.5q0 -203 -150 -361.5t-391 -205.5v-2q35 -53 83.5 -116.5t112.5 -164.5t183 -313h-356l-367 571h-272q-13 -65 -18 -93
t-9.5 -52.5t-24.5 -136.5t-53 -289zM578 842h352q193 0 310.5 75.5t117.5 192.5q0 59 -28 101.5t-77 65.5t-105.5 33.5t-123.5 10.5h-350q-12 -60 -42.5 -213t-53.5 -266z" />
    <glyph glyph-name="racute" unicode="&#x155;" horiz-adv-x="1052" 
d="M1247 1657l-438 -379h-260l338 379h360zM379 0h-299l203 1143h292l-36 -176h10q74 88 190 148.5t252 60.5q71 0 133 -21l-47 -321q-67 22 -166 22q-88 0 -161 -27.5t-120 -69.5t-82.5 -100t-54 -110t-28.5 -107z" />
    <glyph glyph-name="uni0156" unicode="&#x156;" horiz-adv-x="1720" 
d="M434 0h-317l282 1597h723q42 0 83 -3t101 -13.5t110.5 -28t104 -50.5t90.5 -77t61 -111.5t24 -150.5q0 -203 -150 -361.5t-391 -205.5v-2q35 -53 83.5 -116.5t112.5 -164.5t183 -313h-356l-367 571h-272q-13 -65 -18 -93t-9.5 -52.5t-24.5 -136.5t-53 -289zM578 842h352
q193 0 310.5 75.5t117.5 192.5q0 59 -28 101.5t-77 65.5t-105.5 33.5t-123.5 10.5h-350q-12 -60 -42.5 -213t-53.5 -266zM600 -649h-160l189 237q-94 39 -94 127q0 69 59.5 122.5t142.5 53.5q67 0 109.5 -37t42.5 -98q0 -18 -4 -34t-16 -37.5t-24.5 -39.5t-40 -52
t-51.5 -61.5t-69.5 -81t-83.5 -99.5z" />
    <glyph glyph-name="uni0157" unicode="&#x157;" horiz-adv-x="1052" 
d="M379 0h-299l203 1143h292l-36 -176h10q74 88 190 148.5t252 60.5q71 0 133 -21l-47 -321q-67 22 -166 22q-88 0 -161 -27.5t-120 -69.5t-82.5 -100t-54 -110t-28.5 -107zM76 -649h-160l188 237q-94 39 -94 127q0 69 60 122.5t143 53.5q67 0 109.5 -37t42.5 -98
q0 -18 -4 -34t-16 -37.5t-24.5 -39.5t-40 -52t-51.5 -61.5t-69.5 -81t-83.5 -99.5z" />
    <glyph glyph-name="Rcaron" unicode="&#x158;" horiz-adv-x="1720" 
d="M1245 2077h279l-398 -357h-311l-278 357h280q31 -28 92 -86t92 -86q31 21 109.5 79.5t134.5 92.5zM434 0h-317l282 1597h723q42 0 83 -3t101 -13.5t110.5 -28t104 -50.5t90.5 -77t61 -111.5t24 -150.5q0 -203 -150 -361.5t-391 -205.5v-2q35 -53 83.5 -116.5
t112.5 -164.5t183 -313h-356l-367 571h-272q-13 -65 -18 -93t-9.5 -52.5t-24.5 -136.5t-53 -289zM578 842h352q193 0 310.5 75.5t117.5 192.5q0 59 -28 101.5t-77 65.5t-105.5 33.5t-123.5 10.5h-350q-12 -60 -42.5 -213t-53.5 -266z" />
    <glyph glyph-name="rcaron" unicode="&#x159;" horiz-adv-x="1052" 
d="M860 1294h-317l-289 387h283q26 -26 54 -48t57.5 -52.5t82.5 -97.5q34 28 67.5 47.5t80 52.5t120.5 98h283zM379 0h-299l203 1143h292l-36 -176h10q74 88 190 148.5t252 60.5q71 0 133 -21l-47 -321q-67 22 -166 22q-88 0 -161 -27.5t-120 -69.5t-82.5 -100t-54 -110
t-28.5 -107z" />
    <glyph glyph-name="Sacute" unicode="&#x15a;" horiz-adv-x="1599" 
d="M1513 2081l-456 -361h-273l351 361h378zM715 -35q-268 0 -452 125t-214 348l311 97q13 -82 50 -141t93 -91t118.5 -46.5t136.5 -14.5q168 0 280.5 63t112.5 154q0 36 -20 66t-46 48.5t-73.5 37t-78.5 27t-85 21.5l-166 43q-61 15 -110.5 31.5t-115 50t-109.5 73.5
t-75.5 103.5t-31.5 139.5q0 81 34.5 159.5t100.5 145t154.5 117t203.5 79.5t240 29q133 0 243.5 -32t183 -85t116.5 -118.5t55 -137.5l-307 -112q-27 98 -112 153.5t-226 55.5q-145 0 -245.5 -56t-100.5 -135q0 -34 21 -63.5t49.5 -49t75.5 -39t80 -29.5t83 -24l190 -53
q45 -12 73 -20t77.5 -26t81.5 -36t71 -47.5t62 -63t39 -80t16 -100.5q0 -106 -58 -208t-158 -181.5t-249 -128.5t-319 -49z" />
    <glyph glyph-name="sacute" unicode="&#x15b;" horiz-adv-x="1247" 
d="M1286 1661l-438 -379h-260l338 379h360zM532 -35q-220 0 -360.5 87.5t-165.5 234.5l291 86q29 -89 104 -130.5t172 -41.5q100 0 168 35.5t68 87.5q0 12 -3 23t-11.5 20t-15.5 16t-22 14t-24 11t-28.5 10t-28 8.5t-31 8t-29.5 7.5l-135 35q-28 7 -46.5 12.5t-55.5 19
t-62 27.5t-57 38t-51.5 50.5t-33 65t-13.5 82.5q0 79 42 152.5t115 129t178.5 89t225.5 33.5q193 0 317 -80.5t148 -208.5l-291 -86q-17 61 -71 101t-146 40q-90 0 -151.5 -34.5t-61.5 -84.5q0 -18 8.5 -33.5t28 -28t37 -21.5t50 -19t51.5 -15t56 -14l107 -24
q35 -8 57 -13.5t60.5 -18.5t64 -26.5t56 -36.5t49 -49.5t31 -64.5t12.5 -82q0 -113 -76 -207t-215 -149.5t-312 -55.5z" />
    <glyph glyph-name="Scedilla" unicode="&#x15e;" horiz-adv-x="1599" 
d="M889 958l190 -53q45 -12 73 -20t77.5 -26t81.5 -36t71 -47.5t62 -63t39 -80t16 -100.5q0 -100 -52.5 -197.5t-144 -175.5t-227.5 -130t-293 -62l-82 -73q32 8 68 8q95 0 155 -44.5t60 -123.5q0 -109 -104 -181.5t-261 -72.5q-103 0 -186.5 34.5t-126.5 94.5l117 112
q67 -96 209 -96q66 0 108.5 25.5t42.5 64.5q0 32 -31.5 50t-82.5 18q-63 0 -113 -29l-86 68l143 147q-231 24 -383.5 146.5t-179.5 322.5l311 97q13 -82 50 -141t93 -91t118.5 -46.5t136.5 -14.5q168 0 280.5 63t112.5 154q0 36 -20 66t-46 48.5t-73.5 37t-78.5 27t-85 21.5
l-166 43q-61 15 -110.5 31.5t-115 50t-109.5 73.5t-75.5 103.5t-31.5 139.5q0 81 34.5 159.5t100.5 145t154.5 117t203.5 79.5t240 29q133 0 243.5 -32t183 -85t116.5 -118.5t55 -137.5l-307 -112q-27 98 -112 153.5t-226 55.5q-145 0 -245.5 -56t-100.5 -135
q0 -34 21 -63.5t49.5 -49t75.5 -39t80 -29.5t83 -24z" />
    <glyph glyph-name="scedilla" unicode="&#x15f;" horiz-adv-x="1247" 
d="M698 692l107 -24q35 -8 57 -13.5t60.5 -18.5t64 -26.5t56 -36.5t49 -49.5t31 -64.5t12.5 -82q0 -162 -151 -278.5t-390 -131.5l-82 -73q32 8 68 8q95 0 155 -44.5t60 -123.5q0 -109 -104 -181.5t-261 -72.5q-103 0 -186.5 34.5t-126.5 94.5l116 112q67 -96 209 -96
q66 0 109 26t43 64q0 32 -32 50t-83 18q-62 0 -112 -29l-86 68l143 149q-174 20 -285 104t-133 212l291 86q29 -89 104 -130.5t172 -41.5q100 0 168 35.5t68 87.5q0 12 -3 23t-11.5 20t-15.5 16t-22 14t-24 11t-28.5 10t-28 8.5t-31 8t-29.5 7.5l-135 35q-28 7 -46.5 12.5
t-55.5 19t-62 27.5t-57 38t-51.5 50.5t-33 65t-13.5 82.5q0 79 42 152.5t115 129t178.5 89t225.5 33.5q193 0 317 -80.5t148 -208.5l-291 -86q-17 61 -71 101t-146 40q-90 0 -151.5 -34.5t-61.5 -84.5q0 -18 8.5 -33.5t28 -28t37 -21.5t50 -19t51.5 -15t56 -14z" />
    <glyph glyph-name="Scaron" unicode="&#x160;" horiz-adv-x="1599" 
d="M1262 2077h278l-397 -357h-312l-278 357h281q31 -28 92 -86t92 -86q31 21 109.5 79.5t134.5 92.5zM715 -35q-268 0 -452 125t-214 348l311 97q13 -82 50 -141t93 -91t118.5 -46.5t136.5 -14.5q168 0 280.5 63t112.5 154q0 36 -20 66t-46 48.5t-73.5 37t-78.5 27t-85 21.5
l-166 43q-61 15 -110.5 31.5t-115 50t-109.5 73.5t-75.5 103.5t-31.5 139.5q0 81 34.5 159.5t100.5 145t154.5 117t203.5 79.5t240 29q133 0 243.5 -32t183 -85t116.5 -118.5t55 -137.5l-307 -112q-27 98 -112 153.5t-226 55.5q-145 0 -245.5 -56t-100.5 -135
q0 -34 21 -63.5t49.5 -49t75.5 -39t80 -29.5t83 -24l190 -53q45 -12 73 -20t77.5 -26t81.5 -36t71 -47.5t62 -63t39 -80t16 -100.5q0 -106 -58 -208t-158 -181.5t-249 -128.5t-319 -49z" />
    <glyph glyph-name="scaron" unicode="&#x161;" horiz-adv-x="1247" 
d="M899 1296h-317l-289 387h282q26 -26 54 -48t58 -52.5t83 -97.5q34 28 67.5 47.5t80 52.5t120.5 98h283zM532 -35q-220 0 -360.5 87.5t-165.5 234.5l291 86q29 -89 104 -130.5t172 -41.5q100 0 168 35.5t68 87.5q0 12 -3 23t-11.5 20t-15.5 16t-22 14t-24 11t-28.5 10
t-28 8.5t-31 8t-29.5 7.5l-135 35q-28 7 -46.5 12.5t-55.5 19t-62 27.5t-57 38t-51.5 50.5t-33 65t-13.5 82.5q0 79 42 152.5t115 129t178.5 89t225.5 33.5q193 0 317 -80.5t148 -208.5l-291 -86q-17 61 -71 101t-146 40q-90 0 -151.5 -34.5t-61.5 -84.5q0 -18 8.5 -33.5
t28 -28t37 -21.5t50 -19t51.5 -15t56 -14l107 -24q35 -8 57 -13.5t60.5 -18.5t64 -26.5t56 -36.5t49 -49.5t31 -64.5t12.5 -82q0 -113 -76 -207t-215 -149.5t-312 -55.5z" />
    <glyph glyph-name="uni0162" unicode="&#x162;" horiz-adv-x="1566" 
d="M168 1317l43 280h1507l-41 -280h-596q-30 -165 -53 -307.5t-61.5 -352.5t-126.5 -657h-66l-119 -106q32 8 68 8q95 0 155 -44.5t60 -123.5q0 -109 -104 -181.5t-261 -72.5q-103 0 -186.5 34.5t-126.5 94.5l117 112q67 -96 209 -96q66 0 108.5 25.5t42.5 64.5
q0 32 -31.5 50t-82.5 18q-63 0 -113 -29l-86 68l172 178h-72q24 135 36.5 203.5t23.5 127t58 315.5t122 671h-596z" />
    <glyph glyph-name="uni0163" unicode="&#x163;" horiz-adv-x="1034" 
d="M1036 883h-383l-84 -416q-4 -22 -6.5 -35t-5 -35.5t-2 -37t3 -34t9.5 -32.5t19 -27t29 -22t41.5 -13.5t55.5 -5.5q88 0 200 41l-39 -258q-103 -43 -260 -43q-41 0 -59 2l-82 -73q32 8 68 8q95 0 155 -44.5t60 -123.5q0 -109 -104 -181.5t-261 -72.5q-103 0 -186.5 34.5
t-126.5 94.5l117 112q67 -96 208 -96q66 0 109 26t43 64q0 32 -32 50t-83 18q-62 0 -112 -29l-86 68l168 174q-58 22 -95.5 59.5t-53 75t-18.5 87t0.5 79.5t10.5 68l100 518h-270l39 260h270l58 323h299l-58 -323h381z" />
    <glyph glyph-name="Tcaron" unicode="&#x164;" horiz-adv-x="1566" 
d="M1260 2077h278l-397 -357h-312l-278 357h280q31 -28 92.5 -86t92.5 -86q31 21 109.5 79.5t134.5 92.5zM840 0h-316q24 135 36.5 203.5t23.5 127t58 315.5t122 671h-596l43 280h1507l-41 -280h-596q-30 -165 -53 -307.5t-61.5 -352.5t-126.5 -657z" />
    <glyph glyph-name="tcaron" unicode="&#x165;" horiz-adv-x="1034" 
d="M1290 1047h-176l236 288q-47 19 -74 55.5t-27 82.5q0 83 70 144.5t160 61.5q72 0 120 -43.5t48 -109.5q0 -64 -62.5 -145t-294.5 -334zM614 -35q-69 0 -125 10t-94.5 26.5t-67.5 41.5t-45.5 49.5t-26 57t-12.5 58.5t-1.5 59t4.5 53t8 45l100 518h-270l39 260h270l58 323
h299l-58 -323h381l-37 -260h-383l-84 -416q-4 -22 -6.5 -35t-5 -35.5t-2 -37t3 -34t9.5 -32.5t19 -27t29 -22t41.5 -13.5t55.5 -5.5q88 0 200 41l-39 -258q-103 -43 -260 -43z" />
    <glyph glyph-name="Tbar" unicode="&#x166;" horiz-adv-x="1566" 
d="M1718 1597l-41 -280h-596q-45 -246 -67 -397h338l-35 -244h-346q-89 -463 -131 -676h-316q18 105 29 166.5t18 96.5t27 143t49 270h-352l35 244h362l72 397h-596l43 280h1507z" />
    <glyph glyph-name="tbar" unicode="&#x167;" horiz-adv-x="1034" 
d="M1073 1143l-37 -260h-383l-37 -187h367l-31 -215h-381l-2 -14q-4 -22 -6.5 -35t-5 -35.5t-2 -37t3 -34t9.5 -32.5t19 -27t29 -22t41.5 -13.5t55.5 -5.5q88 0 200 41l-39 -258q-103 -43 -260 -43q-69 0 -125 10t-94.5 26.5t-67.5 41.5t-45.5 49.5t-26 57t-12.5 58.5
t-1.5 59t4.5 53t8 45l22 116h-262l35 215h268l37 187h-270l39 260h270l58 323h299l-58 -323h381z" />
    <glyph glyph-name="Umacron" unicode="&#x16a;" horiz-adv-x="1835" 
d="M1573 1765h-879l33 213h879zM809 -35q-121 0 -219 22t-164.5 59.5t-115 90.5t-74.5 111t-37.5 125t-9.5 129t14 125l176 970h317l-172 -946q-9 -46 -8.5 -91t10 -90.5t34.5 -84t62.5 -69t97.5 -47.5t136 -17q92 0 168.5 26t127.5 66.5t89.5 95.5t59 106.5t30.5 104.5
l174 946h318l-178 -970q-11 -62 -29 -121.5t-51.5 -127t-77.5 -125t-110 -112t-145.5 -92.5t-188 -61t-234.5 -23z" />
    <glyph glyph-name="umacron" unicode="&#x16b;" horiz-adv-x="1544" 
d="M1319 1331h-825l30 203h826zM551 -35q-225 0 -338 119t-74 342l127 717h299l-114 -619q-23 -130 38.5 -207t186.5 -77q147 0 251 81t126 207l110 615h299l-137 -787q-22 -130 -26 -203.5t6 -152.5h-299q-9 92 2 139h-7q-171 -174 -450 -174z" />
    <glyph glyph-name="Uring" unicode="&#x16e;" horiz-adv-x="1835" 
d="M1122 1710q-114 0 -189 61t-75 156q0 110 103.5 195.5t244.5 85.5q117 0 190.5 -60.5t73.5 -154.5q0 -112 -102.5 -197.5t-245.5 -85.5zM1147 1868q56 0 96.5 31.5t40.5 72.5q0 32 -29 54t-73 22q-56 0 -97 -31t-41 -73q0 -33 29 -54.5t74 -21.5zM809 -35q-121 0 -219 22
t-164.5 59.5t-115 90.5t-74.5 111t-37.5 125t-9.5 129t14 125l176 970h317l-172 -946q-9 -46 -8.5 -91t10 -90.5t34.5 -84t62.5 -69t97.5 -47.5t136 -17q92 0 168.5 26t127.5 66.5t89.5 95.5t59 106.5t30.5 104.5l174 946h318l-178 -970q-11 -62 -29 -121.5t-51.5 -127
t-77.5 -125t-110 -112t-145.5 -92.5t-188 -61t-234.5 -23z" />
    <glyph glyph-name="uring" unicode="&#x16f;" horiz-adv-x="1544" 
d="M887 1255q-114 0 -189 61.5t-75 156.5q0 111 102.5 195.5t245.5 84.5q116 0 189 -60.5t73 -154.5q0 -112 -101.5 -197.5t-244.5 -85.5zM911 1413q55 0 96.5 32.5t41.5 72.5q0 32 -30.5 53.5t-74.5 21.5q-56 0 -96.5 -31t-40.5 -73q0 -34 29 -55t75 -21zM551 -35
q-225 0 -338 119t-74 342l127 717h299l-114 -619q-23 -130 38.5 -207t186.5 -77q147 0 251 81t126 207l110 615h299l-137 -787q-22 -130 -26 -203.5t6 -152.5h-299q-9 92 2 139h-7q-171 -174 -450 -174z" />
    <glyph glyph-name="Uhungarumlaut" unicode="&#x170;" horiz-adv-x="1835" 
d="M1391 2079l-424 -359h-262l319 359h367zM1907 2079l-430 -359h-265l332 359h363zM809 -35q-121 0 -219 22t-164.5 59.5t-115 90.5t-74.5 111t-37.5 125t-9.5 129t14 125l176 970h317l-172 -946q-9 -46 -8.5 -91t10 -90.5t34.5 -84t62.5 -69t97.5 -47.5t136 -17
q92 0 168.5 26t127.5 66.5t89.5 95.5t59 106.5t30.5 104.5l174 946h318l-178 -970q-11 -62 -29 -121.5t-51.5 -127t-77.5 -125t-110 -112t-145.5 -92.5t-188 -61t-234.5 -23z" />
    <glyph glyph-name="uhungarumlaut" unicode="&#x171;" horiz-adv-x="1544" 
d="M1143 1673l-438 -395h-254l337 395h355zM1665 1673l-448 -395h-254l348 395h354zM551 -35q-225 0 -338 119t-74 342l127 717h299l-114 -619q-23 -130 38.5 -207t186.5 -77q147 0 251 81t126 207l110 615h299l-137 -787q-22 -130 -26 -203.5t6 -152.5h-299q-9 92 2 139h-7
q-171 -174 -450 -174z" />
    <glyph glyph-name="Uogonek" unicode="&#x172;" horiz-adv-x="1835" 
d="M1331 651l174 946h318l-178 -970q-14 -80 -40 -155t-78 -159.5t-123 -150t-182 -117t-247 -70.5q-67 -27 -106.5 -68.5t-39.5 -80.5q0 -42 43.5 -74.5t124.5 -32.5q55 0 111 11l-29 -174q-67 -19 -153 -19q-136 0 -229 51.5t-93 149.5q0 68 48 126.5t124 100.5
q-114 3 -207 27t-156 62.5t-109 91t-70.5 110t-35.5 123t-9 126t14 122.5l176 970h317l-172 -946q-9 -46 -8.5 -91t10 -90.5t34.5 -84t62.5 -69t97.5 -47.5t136 -17q92 0 168.5 26t127.5 66.5t89.5 95.5t59 106.5t30.5 104.5z" />
    <glyph glyph-name="uogonek" unicode="&#x173;" horiz-adv-x="1544" 
d="M1163 1143h299l-137 -787q-22 -130 -26 -203.5t6 -152.5h-95q-102 -20 -164.5 -70.5t-62.5 -105.5q0 -40 41.5 -67t108.5 -27q61 0 116 16l-30 -195q-63 -14 -136 -14q-150 0 -235.5 55t-85.5 150q0 86 73 156.5t177 101.5h-6q-9 92 2 139h-7q-171 -174 -450 -174
q-225 0 -338 119t-74 342l127 717h299l-114 -619q-23 -130 38.5 -207t186.5 -77q147 0 251 81t126 207z" />
    <glyph glyph-name="Wcircumflex" unicode="&#x174;" horiz-adv-x="2828" 
d="M1833 2077l283 -357h-279q-5 5 -74.5 67.5t-105.5 98.5q-11 -8 -35.5 -26t-36 -26t-34 -24t-41 -27.5t-45 -28.5t-56.5 -34h-279l402 357h301zM887 0h-398l-282 1597h360q3 -18 20 -115t21 -118t19 -106.5t19.5 -115t17.5 -106.5t19 -117t17 -111t19 -124t17 -120
l18 -134h6q160 283 657 1167h361q36 -191 112 -582.5t113 -584.5h4q60 113 165 311.5t163 309t140.5 263t154.5 283.5h358l-846 -1597h-395q-130 609 -217 1114h-4q-406 -734 -639 -1114z" />
    <glyph glyph-name="wcircumflex" unicode="&#x175;" horiz-adv-x="2279" 
d="M1032 1278h-282l419 371h316l293 -371h-283q-22 24 -47.5 44.5t-58.5 53.5t-84 99q-19 -14 -96 -62.5t-177 -134.5zM727 0h-344l-264 1143h340l168 -772h6l475 772h268l187 -772h4l456 772h338l-661 -1143h-359q-104 458 -159 713h-2q-60 -94 -213.5 -337.5
t-239.5 -375.5z" />
    <glyph glyph-name="Ycircumflex" unicode="&#x176;" horiz-adv-x="1712" 
d="M1272 2077l282 -357h-278q-5 5 -74.5 67.5t-105.5 98.5q-11 -8 -35.5 -26t-36 -26t-34 -24t-41 -27.5t-45 -28.5t-56.5 -34h-279l402 357h301zM913 0h-315q5 26 31.5 189t66.5 360q-45 91 -93.5 175.5t-82 144.5t-116 243t-205.5 485h340l360 -747h4q68 78 136 170.5
t114.5 159t146 177.5t238.5 240h340q-145 -174 -432 -523t-432 -523q-89 -505 -101 -551z" />
    <glyph glyph-name="ycircumflex" unicode="&#x177;" horiz-adv-x="1409" 
d="M592 1278h-283l420 371h315l293 -371h-282q-13 15 -68.5 62t-122.5 135q-34 -26 -70.5 -47t-81.5 -53t-120 -97zM496 -451h-318l264 402l-327 1192h329q94 -332 213 -809h5q443 698 514 809h321z" />
    <glyph glyph-name="Ydieresis" unicode="&#x178;" horiz-adv-x="1712" 
d="M795 1731q-71 0 -117.5 41.5t-46.5 107.5q0 79 65.5 138t153.5 59q69 0 114.5 -41.5t45.5 -104.5q0 -78 -64 -139t-151 -61zM1333 1731q-72 0 -118 42t-46 105q0 81 64.5 140t152.5 59q69 0 115.5 -41.5t46.5 -104.5q0 -77 -64.5 -138.5t-150.5 -61.5zM913 0h-315
q5 26 31.5 189t66.5 360q-45 91 -93.5 175.5t-82 144.5t-116 243t-205.5 485h340l360 -747h4q68 78 136 170.5t114.5 159t146 177.5t238.5 240h340q-145 -174 -432 -523t-432 -523q-89 -505 -101 -551z" />
    <glyph glyph-name="Zacute" unicode="&#x179;" horiz-adv-x="1646" 
d="M1614 2081l-455 -361h-272l348 361h379zM1462 0h-1482l45 285q198 165 390.5 323t488.5 398t380 309v4q-342 -2 -1030 -2l45 280h1427l-47 -286q-232 -189 -661.5 -535t-605.5 -489v-4h1093z" />
    <glyph glyph-name="zacute" unicode="&#x17a;" horiz-adv-x="1277" 
d="M1313 1657l-439 -379h-260l338 379h361zM1114 0h-1132l36 242l805 637h-657l39 264h1061l-37 -244l-809 -637h733z" />
    <glyph glyph-name="Zdotaccent" unicode="&#x17b;" horiz-adv-x="1646" 
d="M999 1755q-74 0 -121 43.5t-47 110.5q0 80 67.5 140t158.5 60q72 0 119 -42t47 -107q0 -82 -67.5 -143.5t-156.5 -61.5zM1462 0h-1482l45 285q198 165 390.5 323t488.5 398t380 309v4q-342 -2 -1030 -2l45 280h1427l-47 -286q-232 -189 -661.5 -535t-605.5 -489v-4h1093z
" />
    <glyph glyph-name="zdotaccent" unicode="&#x17c;" horiz-adv-x="1277" 
d="M776 1315q-72 0 -120 43.5t-48 109.5q0 82 67.5 142.5t158.5 60.5q72 0 118.5 -42t46.5 -107q0 -82 -67 -144.5t-156 -62.5zM1114 0h-1132l36 242l805 637h-657l39 264h1061l-37 -244l-809 -637h733z" />
    <glyph glyph-name="Zcaron" unicode="&#x17d;" horiz-adv-x="1646" 
d="M1296 2077h279l-397 -357h-312l-278 357h280q31 -28 92.5 -86t92.5 -86q31 21 109 79.5t134 92.5zM1462 0h-1482l45 285q198 165 390.5 323t488.5 398t380 309v4q-342 -2 -1030 -2l45 280h1427l-47 -286q-232 -189 -661.5 -535t-605.5 -489v-4h1093z" />
    <glyph glyph-name="zcaron" unicode="&#x17e;" horiz-adv-x="1277" 
d="M926 1294h-318l-289 387h283q26 -26 54 -48t58 -52.5t83 -97.5q34 28 67.5 47.5t80 52.5t120.5 98h283zM1114 0h-1132l36 242l805 637h-657l39 264h1061l-37 -244l-809 -637h733z" />
    <glyph glyph-name="uni0218" unicode="&#x218;" horiz-adv-x="1599" 
d="M715 -35q-268 0 -452 125t-214 348l311 97q13 -82 50 -141t93 -91t118.5 -46.5t136.5 -14.5q168 0 280.5 63t112.5 154q0 36 -20 66t-46 48.5t-73.5 37t-78.5 27t-85 21.5l-166 43q-61 15 -110.5 31.5t-115 50t-109.5 73.5t-75.5 103.5t-31.5 139.5q0 81 34.5 159.5
t100.5 145t154.5 117t203.5 79.5t240 29q133 0 243.5 -32t183 -85t116.5 -118.5t55 -137.5l-307 -112q-27 98 -112 153.5t-226 55.5q-145 0 -245.5 -56t-100.5 -135q0 -34 21 -63.5t49.5 -49t75.5 -39t80 -29.5t83 -24l190 -53q45 -12 73 -20t77.5 -26t81.5 -36t71 -47.5
t62 -63t39 -80t16 -100.5q0 -106 -58 -208t-158 -181.5t-249 -128.5t-319 -49zM575 -649h-159l188 237q-94 39 -94 127q0 69 60 122.5t143 53.5q67 0 109 -37t42 -98q0 -18 -4 -34t-16 -37.5t-24.5 -39.5t-40 -52t-51.5 -61.5t-69.5 -81t-83.5 -99.5z" />
    <glyph glyph-name="uni0219" unicode="&#x219;" horiz-adv-x="1247" 
d="M532 -35q-220 0 -360.5 87.5t-165.5 234.5l291 86q29 -89 104 -130.5t172 -41.5q100 0 168 35.5t68 87.5q0 12 -3 23t-11.5 20t-15.5 16t-22 14t-24 11t-28.5 10t-28 8.5t-31 8t-29.5 7.5l-135 35q-28 7 -46.5 12.5t-55.5 19t-62 27.5t-57 38t-51.5 50.5t-33 65
t-13.5 82.5q0 79 42 152.5t115 129t178.5 89t225.5 33.5q193 0 317 -80.5t148 -208.5l-291 -86q-17 61 -71 101t-146 40q-90 0 -151.5 -34.5t-61.5 -84.5q0 -18 8.5 -33.5t28 -28t37 -21.5t50 -19t51.5 -15t56 -14l107 -24q35 -8 57 -13.5t60.5 -18.5t64 -26.5t56 -36.5
t49 -49.5t31 -64.5t12.5 -82q0 -113 -76 -207t-215 -149.5t-312 -55.5zM385 -649h-160l189 237q-45 19 -70 52t-25 75q0 69 60 122.5t143 53.5q67 0 109.5 -37t42.5 -98q0 -18 -4 -34t-16 -37.5t-24.5 -39.5t-40 -52t-51.5 -61.5t-69.5 -81t-83.5 -99.5z" />
    <glyph glyph-name="uni021A" unicode="&#x21a;" horiz-adv-x="1566" 
d="M840 0h-316q24 135 36.5 203.5t23.5 127t58 315.5t122 671h-596l43 280h1507l-41 -280h-596q-30 -165 -53 -307.5t-61.5 -352.5t-126.5 -657zM530 -649h-159l188 237q-94 39 -94 127q0 69 60 122.5t143 53.5q67 0 109 -37t42 -98q0 -18 -4 -34t-16 -37.5t-24.5 -39.5
t-40 -52t-51.5 -61.5t-69.5 -81t-83.5 -99.5z" />
    <glyph glyph-name="uni021B" unicode="&#x21b;" horiz-adv-x="1034" 
d="M614 -35q-69 0 -125 10t-94.5 26.5t-67.5 41.5t-45.5 49.5t-26 57t-12.5 58.5t-1.5 59t4.5 53t8 45l100 518h-270l39 260h270l58 323h299l-58 -323h381l-37 -260h-383l-84 -416q-4 -22 -6.5 -35t-5 -35.5t-2 -37t3 -34t9.5 -32.5t19 -27t29 -22t41.5 -13.5t55.5 -5.5
q88 0 200 41l-39 -258q-103 -43 -260 -43zM348 -649h-160l189 237q-94 39 -94 127q0 69 59.5 122.5t142.5 53.5q67 0 109.5 -37t42.5 -98q0 -18 -4 -34t-16 -37.5t-24.5 -39.5t-40 -52t-51.5 -61.5t-69.5 -81t-83.5 -99.5z" />
    <glyph glyph-name="gravecomb" unicode="&#x300;" horiz-adv-x="0" 
d="M166 1278h-260l-305 379h360z" />
    <glyph glyph-name="acutecomb" unicode="&#x301;" horiz-adv-x="0" 
d="M365 1657l-439 -379h-260l338 379h361z" />
    <glyph glyph-name="uni0302" unicode="&#x302;" horiz-adv-x="0" 
d="M-526 1278h-283l420 371h315l293 -371h-282q-13 15 -68.5 62t-122.5 135q-34 -26 -70.5 -47t-81.5 -53t-120 -97z" />
    <glyph glyph-name="tildecomb" unicode="&#x303;" horiz-adv-x="0" 
d="M-123 1319q-98 0 -166 45l-59 39q-50 35 -96 35q-44 0 -76 -29t-41 -72h-215q24 144 124 231t230 87q95 0 170 -49l55 -35q36 -27 86 -27q39 0 67 26.5t36 69.5h217q-25 -154 -112.5 -237.5t-219.5 -83.5z" />
    <glyph glyph-name="uni0304" unicode="&#x304;" horiz-adv-x="0" 
d="M147 1315h-825l31 203h825z" />
    <glyph glyph-name="uni0306" unicode="&#x306;" horiz-adv-x="0" 
d="M-258 1268q-207 0 -312 109t-81 286h248q-16 -78 32.5 -134t149.5 -56q98 0 168 56t90 134h248q-39 -184 -189 -289.5t-354 -105.5z" />
    <glyph glyph-name="uni0307" unicode="&#x307;" horiz-adv-x="0" 
d="M-45 1298q-72 0 -120 44t-48 110q0 82 67 142.5t158 60.5q72 0 119 -42.5t47 -107.5q0 -82 -67 -144.5t-156 -62.5z" />
    <glyph glyph-name="uni0308" unicode="&#x308;" horiz-adv-x="0" 
d="M-684 1300q-66 0 -110 41t-44 101q0 71 62 126.5t143 55.5q66 0 110 -39t44 -98q0 -71 -62 -129t-143 -58zM-156 1300q-67 0 -110 40.5t-43 101.5q0 74 61.5 128t141.5 54q66 0 109.5 -39t43.5 -98q0 -72 -61 -129.5t-142 -57.5z" />
    <glyph glyph-name="uni030A" unicode="&#x30a;" horiz-adv-x="0" 
d="M-94 1255q-114 0 -189 61.5t-75 156.5q0 111 102.5 195.5t245.5 84.5q116 0 189 -60.5t73 -154.5q0 -112 -101.5 -197.5t-244.5 -85.5zM-70 1413q55 0 96.5 32.5t41.5 72.5q0 32 -30.5 53.5t-74.5 21.5q-56 0 -96.5 -31t-40.5 -73q0 -34 29 -55t75 -21z" />
    <glyph glyph-name="uni030B" unicode="&#x30b;" horiz-adv-x="0" 
d="M-102 1673l-439 -395h-254l338 395h355zM420 1673l-449 -395h-254l349 395h354z" />
    <glyph glyph-name="uni030C" unicode="&#x30c;" horiz-adv-x="0" 
d="M-137 1278h-318l-288 387h282q26 -26 54.5 -48.5t58 -53t82.5 -97.5q28 23 99 68t169 131h283z" />
    <glyph glyph-name="uni0312" unicode="&#x312;" horiz-adv-x="0" 
d="M-244 1251q0 50 40.5 107t178.5 216q53 61 84 97h170l-202 -250q86 -42 86 -127q0 -72 -62.5 -125t-144.5 -53q-66 0 -108 37.5t-42 97.5z" />
    <glyph glyph-name="uni0326" unicode="&#x326;" horiz-adv-x="0" 
d="M-471 -649h-160l189 237q-45 19 -70 52t-25 75q0 69 60 122.5t143 53.5q67 0 109.5 -37t42.5 -98q0 -18 -4 -34t-16 -37.5t-24.5 -39.5t-40 -52t-51.5 -61.5t-69.5 -81t-83.5 -99.5z" />
    <glyph glyph-name="uni0327" unicode="&#x327;" horiz-adv-x="0" 
d="M-840 -520q-103 0 -186.5 34.5t-126.5 94.5l117 112q67 -96 209 -96q66 0 108.5 25.5t42.5 64.5q0 32 -32 50t-83 18q-62 0 -112 -29l-86 68l172 178h178l-119 -106q32 8 68 8q95 0 155 -44.5t60 -123.5q0 -109 -104 -181.5t-261 -72.5z" />
    <glyph glyph-name="uni0328" unicode="&#x328;" horiz-adv-x="0" 
d="M-823 -483q-151 0 -236.5 54.5t-85.5 149.5q0 86 73.5 157t176.5 102h199q-102 -20 -165 -71t-63 -106q0 -40 41.5 -67t108.5 -27q59 0 117 17l-31 -195q-63 -14 -135 -14z" />
    <glyph glyph-name="uni0335" unicode="&#x335;" horiz-adv-x="0" 
d="M-840 682h934l-31 -215h-937z" />
    <glyph glyph-name="uni0337" unicode="&#x337;" horiz-adv-x="0" 
d="M-532 420l36 248l846 481l-35 -248z" />
    <glyph glyph-name="uni0338" unicode="&#x338;" horiz-adv-x="0" 
d="M-1153 -66h-324l1336 1246h317z" />
    <glyph glyph-name="Wgrave" unicode="&#x1e80;" horiz-adv-x="2828" 
d="M1792 1720h-272l-334 361h381zM887 0h-398l-282 1597h360q3 -18 20 -115t21 -118t19 -106.5t19.5 -115t17.5 -106.5t19 -117t17 -111t19 -124t17 -120l18 -134h6q160 283 657 1167h361q36 -191 112 -582.5t113 -584.5h4q60 113 165 311.5t163 309t140.5 263t154.5 283.5
h358l-846 -1597h-395q-130 609 -217 1114h-4q-406 -734 -639 -1114z" />
    <glyph glyph-name="wgrave" unicode="&#x1e81;" horiz-adv-x="2279" 
d="M1405 1278h-260l-305 379h360zM727 0h-344l-264 1143h340l168 -772h6l475 772h268l187 -772h4l456 772h338l-661 -1143h-359q-104 458 -159 713h-2q-60 -94 -213.5 -337.5t-239.5 -375.5z" />
    <glyph glyph-name="Wacute" unicode="&#x1e82;" horiz-adv-x="2828" 
d="M2210 2081l-455 -361h-272l348 361h379zM887 0h-398l-282 1597h360q3 -18 20 -115t21 -118t19 -106.5t19.5 -115t17.5 -106.5t19 -117t17 -111t19 -124t17 -120l18 -134h6q160 283 657 1167h361q36 -191 112 -582.5t113 -584.5h4q60 113 165 311.5t163 309t140.5 263
t154.5 283.5h358l-846 -1597h-395q-130 609 -217 1114h-4q-406 -734 -639 -1114z" />
    <glyph glyph-name="wacute" unicode="&#x1e83;" horiz-adv-x="2279" 
d="M1812 1657l-438 -379h-260l338 379h360zM727 0h-344l-264 1143h340l168 -772h6l475 772h268l187 -772h4l456 772h338l-661 -1143h-359q-104 458 -159 713h-2q-60 -94 -213.5 -337.5t-239.5 -375.5z" />
    <glyph glyph-name="Wdieresis" unicode="&#x1e84;" horiz-adv-x="2828" 
d="M1356 1731q-71 0 -117.5 41.5t-46.5 107.5q0 79 65.5 138t153.5 59q69 0 114.5 -41.5t45.5 -104.5q0 -78 -64 -139t-151 -61zM1894 1731q-72 0 -117.5 42t-45.5 105q0 81 64.5 140t152.5 59q69 0 115 -41.5t46 -104.5q0 -77 -64.5 -138.5t-150.5 -61.5zM887 0h-398
l-282 1597h360q3 -18 20 -115t21 -118t19 -106.5t19.5 -115t17.5 -106.5t19 -117t17 -111t19 -124t17 -120l18 -134h6q160 283 657 1167h361q36 -191 112 -582.5t113 -584.5h4q60 113 165 311.5t163 309t140.5 263t154.5 283.5h358l-846 -1597h-395q-130 609 -217 1114h-4
q-406 -734 -639 -1114z" />
    <glyph glyph-name="wdieresis" unicode="&#x1e85;" horiz-adv-x="2279" 
d="M1010 1300q-66 0 -110 41t-44 101q0 71 62 126.5t143 55.5q66 0 109.5 -39t43.5 -98q0 -72 -61.5 -129.5t-142.5 -57.5zM1538 1300q-67 0 -110.5 40.5t-43.5 101.5q0 74 61.5 128t141.5 54q66 0 110 -39t44 -98q0 -72 -61 -129.5t-142 -57.5zM727 0h-344l-264 1143h340
l168 -772h6l475 772h268l187 -772h4l456 772h338l-661 -1143h-359q-104 458 -159 713h-2q-60 -94 -213.5 -337.5t-239.5 -375.5z" />
    <glyph glyph-name="uni1E9E" unicode="&#x1e9e;" horiz-adv-x="1873" 
d="M410 0h-318l156 891q20 115 55 213.5t103.5 198.5t162.5 169.5t239.5 113.5t326.5 44q307 0 478 -113t171 -300q0 -147 -104 -261t-269 -145l-2 -8q147 -8 247.5 -88t100.5 -223q0 -74 -27.5 -143.5t-88.5 -133t-149 -111.5t-217.5 -76t-285.5 -28h-252l43 279h285
q161 0 257.5 54.5t96.5 141.5q0 76 -74.5 115t-209.5 39h-142l41 278h96q129 0 220.5 74t91.5 174q0 97 -94.5 148t-253.5 51q-92 0 -168 -17.5t-126 -44t-89.5 -65t-61.5 -74.5t-38 -78t-22 -70t-11 -57v-2z" />
    <glyph glyph-name="Ygrave" unicode="&#x1ef2;" horiz-adv-x="1712" 
d="M1231 1720h-273l-333 361h381zM913 0h-315q5 26 31.5 189t66.5 360q-45 91 -93.5 175.5t-82 144.5t-116 243t-205.5 485h340l360 -747h4q68 78 136 170.5t114.5 159t146 177.5t238.5 240h340q-145 -174 -432 -523t-432 -523q-89 -505 -101 -551z" />
    <glyph glyph-name="ygrave" unicode="&#x1ef3;" horiz-adv-x="1409" 
d="M965 1278h-260l-306 379h361zM496 -451h-318l264 402l-327 1192h329q94 -332 213 -809h5q443 698 514 809h321z" />
    <glyph glyph-name="uni2000" unicode="&#x2000;" horiz-adv-x="1228" 
 />
    <glyph glyph-name="uni2001" unicode="&#x2001;" 
 />
    <glyph glyph-name="uni2002" unicode="&#x2002;" horiz-adv-x="1228" 
 />
    <glyph glyph-name="uni2003" unicode="&#x2003;" 
 />
    <glyph glyph-name="uni2004" unicode="&#x2004;" horiz-adv-x="819" 
 />
    <glyph glyph-name="uni2005" unicode="&#x2005;" horiz-adv-x="614" 
 />
    <glyph glyph-name="uni2006" unicode="&#x2006;" horiz-adv-x="409" 
 />
    <glyph glyph-name="uni2007" unicode="&#x2007;" horiz-adv-x="616" 
 />
    <glyph glyph-name="uni2008" unicode="&#x2008;" horiz-adv-x="622" 
 />
    <glyph glyph-name="uni2009" unicode="&#x2009;" horiz-adv-x="307" 
 />
    <glyph glyph-name="uni200A" unicode="&#x200a;" horiz-adv-x="102" 
 />
    <glyph glyph-name="uni200B" unicode="&#x200b;" horiz-adv-x="0" 
 />
    <glyph glyph-name="endash" unicode="&#x2013;" horiz-adv-x="1208" 
d="M1057 502h-924l37 243h924z" />
    <glyph glyph-name="emdash" unicode="&#x2014;" horiz-adv-x="1720" 
d="M1573 514h-1440l33 219h1440z" />
    <glyph glyph-name="quoteleft" unicode="&#x2018;" horiz-adv-x="626" 
d="M537 1636h170l-230 -288q48 -19 74.5 -55t26.5 -83q0 -80 -70 -143t-162 -63q-71 0 -119.5 44t-48.5 111q0 62 63 143.5t296 333.5z" />
    <glyph glyph-name="quoteright" unicode="&#x2019;" horiz-adv-x="641" 
d="M373 1030h-176l235 289q-47 19 -73.5 55t-26.5 82q0 83 70 145t161 62q71 0 119.5 -44t48.5 -110q0 -64 -63.5 -146.5t-294.5 -332.5z" />
    <glyph glyph-name="quotesinglbase" unicode="&#x201a;" horiz-adv-x="610" 
d="M115 -283h-170l229 289q-102 39 -102 137q0 82 69.5 144.5t161.5 62.5q72 0 120 -43.5t48 -109.5q0 -64 -63 -146.5t-293 -333.5z" />
    <glyph glyph-name="quotedblleft" unicode="&#x201c;" horiz-adv-x="1122" 
d="M557 1636h170l-229 -288q47 -19 73.5 -55t26.5 -83q0 -80 -69.5 -143t-161.5 -63q-71 0 -119.5 44t-48.5 111q0 62 63.5 144.5t294.5 332.5zM981 1636h170l-229 -288q47 -19 73.5 -55t26.5 -83q0 -80 -69.5 -143t-161.5 -63q-71 0 -119.5 44t-48.5 111q0 62 63.5 144.5
t294.5 332.5z" />
    <glyph glyph-name="quotedblright" unicode="&#x201d;" horiz-adv-x="1136" 
d="M371 1030h-172l231 289q-49 19 -75.5 55t-26.5 82q0 82 69.5 144.5t161.5 62.5q72 0 120 -44t48 -110q0 -64 -62.5 -145.5t-293.5 -333.5zM868 1030h-172l232 289q-47 18 -75 54.5t-28 82.5q0 83 70.5 145t163.5 62q71 0 119.5 -44t48.5 -110q0 -61 -57 -136t-259 -296
q-9 -10 -14.5 -16t-13.5 -14.5t-15 -16.5z" />
    <glyph glyph-name="quotedblbase" unicode="&#x201e;" horiz-adv-x="1112" 
d="M94 -258h-170l230 289q-47 19 -74 55t-27 82q0 80 70 143.5t162 63.5q72 0 120 -44.5t48 -111.5q0 -62 -63 -143.5t-296 -333.5zM594 -258h-170l227 289q-46 17 -73 53.5t-27 83.5q0 82 70 144.5t161 62.5q72 0 121 -45t49 -111q0 -61 -54.5 -133t-254.5 -290
q-10 -12 -16 -18.5t-15.5 -16.5t-17.5 -19z" />
    <glyph glyph-name="dagger" unicode="&#x2020;" horiz-adv-x="1222" 
d="M864 1331h389l-30 -213h-396l-122 -690h-254l122 690h-370l30 213h377l56 307h254z" />
    <glyph glyph-name="daggerdbl" unicode="&#x2021;" horiz-adv-x="1292" 
d="M1278 1331l-35 -213h-371l-43 -233h369l-31 -213h-370l-56 -307h-254l56 307h-375l33 213h374l43 233h-372l33 213h372l58 307h254l-58 -307h373z" />
    <glyph glyph-name="bullet" unicode="&#x2022;" horiz-adv-x="1064" 
d="M545 442q-126 0 -209.5 77.5t-83.5 193.5q0 91 54 173t144.5 131.5t190.5 49.5q123 0 206 -76t83 -188q0 -90 -53.5 -173.5t-143 -135.5t-188.5 -52z" />
    <glyph glyph-name="ellipsis" unicode="&#x2026;" horiz-adv-x="1816" 
d="M248 -14q-73 0 -121.5 44.5t-48.5 112.5q0 83 68 145t159 62q72 0 120 -43.5t48 -109.5q0 -81 -68 -146t-157 -65zM745 -14q-73 0 -121.5 44.5t-48.5 112.5q0 83 68.5 145t159.5 62q71 0 119.5 -43.5t48.5 -109.5q0 -80 -69 -145.5t-157 -65.5zM1440 -14
q-73 0 -121.5 44.5t-48.5 112.5q0 83 68 145t159 62q71 0 119.5 -43.5t48.5 -109.5q0 -80 -68.5 -145.5t-156.5 -65.5z" />
    <glyph glyph-name="uni202F" unicode="&#x202f;" horiz-adv-x="450" 
 />
    <glyph glyph-name="perthousand" unicode="&#x2030;" horiz-adv-x="3155" 
d="M465 715q-143 0 -224 89t-81 247q0 131 58.5 245t164 183t233.5 69q142 0 224 -90t82 -248q0 -131 -59 -244.5t-164.5 -182t-233.5 -68.5zM487 0h-278l1624 1468h270zM496 928q68 0 121 97t53 196q0 114 -86 114q-45 0 -85.5 -46.5t-63.5 -114t-23 -132.5q0 -114 84 -114
zM1716 -29q-143 0 -224 89t-81 247q0 131 59 245t164.5 183.5t233.5 69.5q141 0 223 -90t82 -248q0 -131 -59 -244.5t-164.5 -182.5t-233.5 -69zM2603 -29q-143 0 -224 89t-81 247q0 131 59 245t164.5 183.5t233.5 69.5q141 0 223 -90t82 -248q0 -131 -59 -244.5
t-164.5 -182.5t-233.5 -69zM1747 184q68 0 121 97t53 196q0 115 -86 115q-45 0 -85.5 -46.5t-63.5 -114t-23 -132.5q0 -115 84 -115zM2634 184q68 0 121 97t53 196q0 115 -86 115q-45 0 -85.5 -46.5t-63.5 -114t-23 -132.5q0 -115 84 -115z" />
    <glyph glyph-name="guilsinglleft" unicode="&#x2039;" horiz-adv-x="1015" 
d="M801 164h-346l-344 405l2 9l487 405h346l-487 -405l-2 -9z" />
    <glyph glyph-name="guilsinglright" unicode="&#x203a;" horiz-adv-x="1017" 
d="M604 254l-479 -90l252 315l184 96l-217 318l168 90l270 -315l125 -97z" />
    <glyph glyph-name="fraction" unicode="&#x2044;" horiz-adv-x="495" 
d="M-399 0h-279l1624 1468h271z" />
    <glyph glyph-name="uni205F" unicode="&#x205f;" horiz-adv-x="544" 
 />
    <glyph glyph-name="uni2070" unicode="&#x2070;" horiz-adv-x="886" 
d="M465 715q-143 0 -224 89t-81 247q0 131 58.5 245t164 183t233.5 69q142 0 224 -90t82 -248q0 -131 -59 -244.5t-164.5 -182t-233.5 -68.5zM496 928q68 0 121 97t53 196q0 114 -86 114q-45 0 -85.5 -46.5t-63.5 -114t-23 -132.5q0 -114 84 -114z" />
    <glyph glyph-name="uni2074" unicode="&#x2074;" horiz-adv-x="876" 
d="M731 733h-229l24 139h-428l27 179l520 481h223l-82 -469h113l-29 -191h-112zM594 1241l-238 -178h199z" />
    <glyph glyph-name="uni2075" unicode="&#x2075;" horiz-adv-x="854" 
d="M430 715q-57 0 -108.5 9.5t-99 29.5t-80.5 56.5t-44 86.5l226 102q14 -44 52 -67t87 -23q67 0 108 33.5t41 79.5q0 37 -28.5 59.5t-77.5 22.5q-42 0 -78.5 -19t-56.5 -43l-195 43l191 447h530l-27 -184h-360l-74 -134h2q72 52 189 52q46 0 87 -10.5t77 -33.5t57.5 -66
t21.5 -101q0 -143 -126 -241.5t-314 -98.5z" />
    <glyph glyph-name="uni2076" unicode="&#x2076;" horiz-adv-x="888" 
d="M473 715q-156 0 -239.5 77.5t-83.5 223.5q0 98 42 194t113.5 171t175 121t217.5 46q79 0 152 -24t113 -74l-148 -152q-53 58 -149 58q-88 0 -154 -43.5t-98 -114.5h6q33 29 90.5 43t116.5 14q115 0 193.5 -58.5t78.5 -162.5q0 -131 -123.5 -225t-302.5 -94zM518 905
q62 0 108 35.5t46 81.5q0 37 -31.5 59.5t-81.5 22.5q-63 0 -109.5 -34t-46.5 -81q0 -38 32.5 -61t82.5 -23z" />
    <glyph glyph-name="uni2077" unicode="&#x2077;" horiz-adv-x="718" 
d="M453 733h-256q18 90 56 190t115.5 218t174.5 198h-375l29 189h657l-31 -191q-83 -54 -150 -130.5t-110 -159.5t-70 -160.5t-40 -153.5z" />
    <glyph glyph-name="uni2078" unicode="&#x2078;" horiz-adv-x="870" 
d="M457 715q-149 0 -238.5 59t-89.5 154q0 77 59.5 143t133.5 80l2 4q-91 53 -91 135q0 103 107 180.5t260 77.5q123 0 207 -56t84 -157q0 -124 -143 -180l-3 -4q55 -13 93.5 -55.5t38.5 -106.5q0 -115 -120.5 -194.5t-299.5 -79.5zM547 1235q51 0 87 26.5t36 61.5
q0 26 -25.5 42.5t-66.5 16.5q-51 0 -86 -24t-35 -58q0 -28 26 -46.5t64 -18.5zM492 915q58 0 99.5 30t41.5 71q0 34 -28.5 52.5t-78.5 18.5q-58 0 -100.5 -29t-42.5 -69q0 -33 31 -53.5t78 -20.5z" />
    <glyph glyph-name="uni2079" unicode="&#x2079;" horiz-adv-x="894" 
d="M412 715q-89 0 -171 26.5t-120 79.5l143 150q35 -34 86 -52t99 -18q86 0 143 49.5t78 120.5q-73 -59 -213 -59q-115 0 -193 56t-78 161q0 132 125 225.5t307 93.5q155 0 235.5 -79.5t80.5 -231.5q0 -139 -68 -259t-188.5 -191.5t-265.5 -71.5zM524 1167q65 0 112.5 35
t47.5 82q0 38 -32.5 61t-82.5 23q-65 0 -111 -35t-46 -84q0 -37 30.5 -59.5t81.5 -22.5z" />
    <glyph glyph-name="uni2080" unicode="&#x2080;" horiz-adv-x="886" 
d="M289 -285q-143 0 -224 89t-81 247q0 131 58.5 245t164 183.5t233.5 69.5q141 0 223 -90t82 -248q0 -131 -58.5 -244.5t-164 -182.5t-233.5 -69zM319 -72q68 0 121.5 97t53.5 196q0 115 -86 115q-45 0 -85.5 -46.5t-63.5 -114t-23 -132.5q0 -115 83 -115z" />
    <glyph glyph-name="uni2081" unicode="&#x2081;" horiz-adv-x="612" 
d="M336 -266h-238l84 459q-112 -63 -209 -82l37 245q95 30 156 77t70 99h237z" />
    <glyph glyph-name="uni2082" unicode="&#x2082;" horiz-adv-x="845" 
d="M616 -266h-673l6 28q13 71 32.5 120t59 97.5t102 91.5t160.5 91q4 2 34.5 16.5t46.5 23.5t39.5 25t34.5 32.5t11 33.5q0 22 -24 35.5t-64 13.5q-63 0 -108 -34.5t-58 -96.5l-215 33q23 137 141.5 221t278.5 84q135 0 218 -62.5t83 -162.5q0 -80 -59 -149t-144 -105
q-14 -6 -58 -23.5t-66 -27.5t-51.5 -30.5t-45.5 -43.5h352z" />
    <glyph glyph-name="uni2083" unicode="&#x2083;" horiz-adv-x="851" 
d="M260 -287q-135 0 -228.5 53t-107.5 132l226 102q34 -94 141 -94q58 0 94.5 24t36.5 60q0 28 -20 43t-43 18.5t-58 3.5h-88l23 158h92q55 0 98 22t43 58q0 26 -27.5 43.5t-68.5 17.5q-52 0 -89 -25.5t-55 -70.5l-213 47q30 102 143 173t261 71q125 0 210 -50.5t85 -138.5
q0 -68 -51 -126t-121 -70v-2q57 -9 98 -52.5t41 -101.5q0 -111 -122 -203t-300 -92z" />
    <glyph glyph-name="uni2084" unicode="&#x2084;" horiz-adv-x="876" 
d="M555 -266h-229l24 139h-428l27 178l520 481h223l-82 -469h113l-29 -190h-112zM418 242l-238 -179h199z" />
    <glyph glyph-name="uni2085" unicode="&#x2085;" horiz-adv-x="854" 
d="M254 -285q-57 0 -108.5 9.5t-99 29.5t-80.5 57t-44 87l225 102q14 -44 52.5 -67t87.5 -23q67 0 108 33.5t41 79.5q0 37 -28.5 59t-77.5 22q-42 0 -78.5 -18.5t-56.5 -42.5l-195 43l190 446h531l-27 -184h-360l-74 -133h2q70 51 189 51q46 0 87 -10.5t77 -33.5t57.5 -66
t21.5 -101q0 -143 -126 -241.5t-314 -98.5z" />
    <glyph glyph-name="uni2086" unicode="&#x2086;" horiz-adv-x="888" 
d="M297 -285q-156 0 -240 77.5t-84 223.5q0 132 70.5 254t198.5 200.5t280 78.5q79 0 151.5 -24t112.5 -74l-147 -152q-52 57 -150 57q-88 0 -153.5 -43t-97.5 -114h6q33 29 90.5 43t116.5 14q115 0 193.5 -58.5t78.5 -162.5q0 -131 -123.5 -225.5t-302.5 -94.5zM342 -94
q62 0 108 35.5t46 81.5q0 36 -31.5 58.5t-81.5 22.5q-63 0 -109.5 -33.5t-46.5 -80.5q0 -38 32.5 -61t82.5 -23z" />
    <glyph glyph-name="uni2087" unicode="&#x2087;" horiz-adv-x="718" 
d="M276 -266h-256q17 90 56 190t116 218t175 198h-375l28 188h658l-31 -190q-83 -54 -150 -130.5t-110.5 -159.5t-70.5 -161t-40 -153z" />
    <glyph glyph-name="uni2088" unicode="&#x2088;" horiz-adv-x="870" 
d="M281 -285q-149 0 -238.5 59t-89.5 154q0 77 59 143.5t133 80.5l2 4q-90 52 -90 135q0 103 107 180.5t260 77.5q123 0 207 -56t84 -157q0 -123 -144 -180l-2 -4q55 -13 93 -55.5t38 -106.5q0 -115 -120 -195t-299 -80zM371 236q51 0 87 26.5t36 61.5q0 26 -26 42.5
t-67 16.5q-51 0 -85.5 -24t-34.5 -58q0 -28 26 -46.5t64 -18.5zM315 -84q59 0 100.5 29.5t41.5 70.5q0 34 -28.5 53t-78.5 19q-58 0 -100.5 -29t-42.5 -69q0 -33 30.5 -53.5t77.5 -20.5z" />
    <glyph glyph-name="uni2089" unicode="&#x2089;" horiz-adv-x="894" 
d="M236 -285q-88 0 -170.5 27t-120.5 80l143 149q35 -34 85 -51.5t99 -17.5q86 0 143.5 50t78.5 120q-37 -30 -96 -45t-117 -15q-115 0 -193 56t-78 161q0 132 125.5 226t306.5 94q155 0 235.5 -79.5t80.5 -231.5q0 -139 -68 -259t-188.5 -192t-265.5 -72zM348 168
q65 0 112.5 35t47.5 82q0 38 -32.5 61t-82.5 23q-65 0 -111 -35t-46 -84q0 -37 30.5 -59.5t81.5 -22.5z" />
    <glyph glyph-name="Euro" unicode="&#x20ac;" horiz-adv-x="2011" 
d="M1319 252q75 0 145.5 19.5t227.5 88.5l151 -204q-143 -100 -317.5 -145.5t-337.5 -45.5q-329 0 -538 152.5t-247 417.5h-286l24 145h254q6 93 31 192h-248l23 146h278q59 127 155.5 234.5t223.5 190t291 129t346 46.5q381 0 567 -191l-252 -210q-139 114 -370 114
q-207 0 -367 -83.5t-250 -229.5h678l-22 -146h-721q-29 -98 -29 -192h715l-25 -145h-676q38 -158 177 -220.5t399 -62.5z" />
    <glyph glyph-name="trademark" unicode="&#x2122;" horiz-adv-x="1921" 
d="M565 913h-170l99 557h-250l22 146h670l-23 -146h-249zM1108 913h-174l125 703h174q25 -71 84.5 -237.5t85.5 -241.5q53 72 170.5 239t171.5 240h174l-121 -703h-174l72 387q-28 -41 -73.5 -112.5t-89 -130t-116.5 -142.5h-102q-13 37 -34.5 105t-44 131.5t-56.5 148.5z
" />
    <glyph glyph-name="oneeighth" unicode="&#x215b;" horiz-adv-x="1978" 
d="M512 733h-238l84 459q-112 -63 -208 -82l36 246q95 30 156 77t70 99h237zM213 0h-279l1625 1468h270zM1434 -29q-149 0 -238.5 59t-89.5 154q0 77 59 143.5t133 80.5l2 4q-90 52 -90 135q0 103 107 180.5t260 77.5q123 0 207 -56t84 -157q0 -123 -144 -180l-2 -4
q55 -13 93 -55.5t38 -106.5q0 -115 -120 -195t-299 -80zM1524 492q51 0 87 26.5t36 61.5q0 26 -26 42.5t-67 16.5q-51 0 -85.5 -24t-34.5 -58q0 -28 26 -46.5t64 -18.5zM1468 172q59 0 100.5 29.5t41.5 70.5q0 34 -28.5 53t-78.5 19q-58 0 -100.5 -29t-42.5 -69
q0 -33 30.5 -53.5t77.5 -20.5z" />
    <glyph glyph-name="threeeighths" unicode="&#x215c;" horiz-adv-x="2217" 
d="M436 713q-135 0 -228.5 52.5t-107.5 131.5l226 102q34 -94 141 -94q58 0 94.5 24t36.5 60q0 28 -20 43.5t-43.5 19t-57.5 3.5h-88l23 157h92q55 0 98 22t43 58q0 26 -27.5 44t-68.5 18q-51 0 -88 -26t-55 -71l-213 48q30 102 142.5 172.5t260.5 70.5q126 0 210.5 -50.5
t84.5 -137.5q0 -68 -51 -126.5t-121 -70.5v-2q58 -9 98.5 -52t40.5 -101q0 -111 -122 -203t-300 -92zM453 0h-279l1624 1468h270zM1673 -29q-149 0 -238 59t-89 154q0 77 59 143.5t133 80.5l2 4q-90 52 -90 135q0 103 107 180.5t260 77.5q123 0 206.5 -56t83.5 -157
q0 -124 -143 -180l-2 -4q55 -13 93 -55.5t38 -106.5q0 -115 -120.5 -195t-299.5 -80zM1763 492q51 0 87 26.5t36 61.5q0 26 -25.5 42.5t-66.5 16.5q-51 0 -86 -24t-35 -58q0 -28 26 -46.5t64 -18.5zM1708 172q58 0 99.5 29.5t41.5 70.5q0 34 -28 53t-78 19q-58 0 -101 -29
t-43 -69q0 -33 31 -53.5t78 -20.5z" />
    <glyph glyph-name="fiveeighths" unicode="&#x215d;" horiz-adv-x="2220" 
d="M430 715q-57 0 -108.5 9.5t-99 29.5t-80.5 56.5t-44 86.5l226 102q14 -44 52 -67t87 -23q67 0 108 33.5t41 79.5q0 37 -28.5 59.5t-77.5 22.5q-42 0 -78.5 -19t-56.5 -43l-195 43l191 447h530l-27 -184h-360l-74 -134h2q72 52 189 52q46 0 87 -10.5t77 -33.5t57.5 -66
t21.5 -101q0 -143 -126 -241.5t-314 -98.5zM455 0h-279l1624 1468h271zM1675 -29q-149 0 -238 59t-89 154q0 77 59 143.5t133 80.5l2 4q-90 52 -90 135q0 103 107 180.5t260 77.5q123 0 206.5 -56t83.5 -157q0 -124 -143 -180l-2 -4q55 -13 93 -55.5t38 -106.5
q0 -115 -120.5 -195t-299.5 -80zM1765 492q51 0 87 26.5t36 61.5q0 26 -25.5 42.5t-66.5 16.5q-51 0 -86 -24t-35 -58q0 -28 26 -46.5t64 -18.5zM1710 172q58 0 99.5 29.5t41.5 70.5q0 34 -28 53t-78 19q-58 0 -100.5 -29t-42.5 -69q0 -33 30.5 -53.5t77.5 -20.5z" />
    <glyph glyph-name="seveneighths" unicode="&#x215e;" horiz-adv-x="2084" 
d="M453 733h-256q18 90 56 190t115.5 218t174.5 198h-375l29 189h657l-31 -191q-83 -54 -150 -130.5t-110 -159.5t-70 -160.5t-40 -153.5zM319 0h-278l1624 1468h270zM1540 -29q-149 0 -238.5 59t-89.5 154q0 77 59.5 143.5t133.5 80.5l2 4q-90 52 -90 135
q0 103 106.5 180.5t259.5 77.5q123 0 207 -56t84 -157q0 -124 -143 -180l-2 -4q55 -13 93 -55.5t38 -106.5q0 -115 -120.5 -195t-299.5 -80zM1630 492q51 0 87 26.5t36 61.5q0 26 -25.5 42.5t-66.5 16.5q-51 0 -86 -24t-35 -58q0 -28 26 -46.5t64 -18.5zM1575 172
q58 0 99.5 29.5t41.5 70.5q0 34 -28 53t-78 19q-58 0 -101 -29t-43 -69q0 -33 31 -53.5t78 -20.5z" />
    <glyph glyph-name="arrowleft" unicode="&#x2190;" horiz-adv-x="1669" 
d="M547 760h1022l-35 -230h-1032l252 -294h-287l-336 405l2 8l479 406h287z" />
    <glyph glyph-name="arrowup" unicode="&#x2191;" horiz-adv-x="1198" 
d="M717 1202l426 -340l-41 -266l-324 264l-153 -840h-244l149 836l-411 -260l41 266l547 340h10z" />
    <glyph glyph-name="arrowright" unicode="&#x2192;" horiz-adv-x="1667" 
d="M942 1055h287l336 -406l-2 -8l-480 -405h-286l356 294h-1026l37 230h1028z" />
    <glyph glyph-name="arrowdown" unicode="&#x2193;" horiz-adv-x="1202" 
d="M836 1202l-152 -837l414 262l-41 -267l-547 -340h-8l-428 340l41 267l323 -262l152 837h246z" />
    <glyph glyph-name="arrowboth" unicode="&#x2194;" horiz-adv-x="2097" 
d="M745 236h-286l-336 405l2 8l479 406h287l-379 -305h1135l-269 305h287l336 -406l-2 -8l-479 -405h-287l379 303h-1133z" />
    <glyph glyph-name="arrowupdn" unicode="&#x2195;" horiz-adv-x="1280" 
d="M547 10h-8l-433 309l37 238l328 -215l141 719l-413 -230l41 248l540 307h11l432 -307l-41 -248l-324 230l-141 -721l409 217l-36 -238z" />
    <glyph glyph-name="uni2196" unicode="&#x2196;" horiz-adv-x="1468" 
d="M752 768l546 -649l-211 -121l-550 651l-150 -391l-170 209l199 508l10 6l643 -23l168 -208z" />
    <glyph glyph-name="uni2197" unicode="&#x2197;" horiz-adv-x="1341" 
d="M942 975l199 -508l-168 -209l-150 391l-551 -651l-211 121l547 649l-487 -18l170 208l643 23z" />
    <glyph glyph-name="uni2198" unicode="&#x2198;" horiz-adv-x="1474" 
d="M948 573l150 392l168 -211l-199 -506l-8 -6l-643 20l-170 211l487 -18l-547 647l211 123z" />
    <glyph glyph-name="uni2199" unicode="&#x2199;" horiz-adv-x="1339" 
d="M1083 1225l211 -123l-546 -647l485 18l-168 -211l-643 -20l-10 6l-199 506l170 211l149 -392z" />
    <glyph glyph-name="emptyset" unicode="&#x2205;" horiz-adv-x="1728" 
d="M1640 1184l-182 -178q139 -133 139 -342q0 -135 -63.5 -262t-172.5 -223.5t-267 -155t-336 -58.5q-171 0 -309 55l-191 -184l-164 115l182 178q-143 137 -143 348q0 136 64 263t173.5 223.5t267.5 154.5t335 58q179 0 317 -60l185 180zM444 516q0 -96 62 -164l549 535
q-52 14 -123 14q-202 0 -345 -116.5t-143 -268.5zM801 240q100 0 191 32.5t155 85.5t101.5 123t37.5 144q0 91 -55 159l-547 -532q56 -12 117 -12z" />
    <glyph glyph-name="minus" unicode="&#x2212;" horiz-adv-x="1263" 
d="M1112 516h-973l35 221h971z" />
    <glyph glyph-name="infinity" unicode="&#x221e;" horiz-adv-x="2156" 
d="M535 283q-181 0 -287.5 80t-106.5 210q0 84 45.5 158.5t118.5 125.5t164.5 80.5t183.5 29.5q113 0 210 -48t243 -171q198 126 312 172.5t224 46.5q173 0 281.5 -81t108.5 -214q0 -156 -146 -272.5t-362 -116.5q-123 0 -217.5 46.5t-237.5 172.5q-182 -125 -293.5 -172
t-240.5 -47zM569 469q78 0 147.5 31t194.5 107q19 12 29 18q-60 51 -83.5 69.5t-65 44t-77 33.5t-81.5 8q-102 0 -177 -52.5t-75 -123.5q0 -63 53.5 -99t134.5 -36zM1548 471q100 0 172 51.5t72 122.5q0 61 -50 97t-134 36t-161 -33.5t-210 -119.5q47 -38 66.5 -53t56.5 -40
t61 -34.5t58 -18t69 -8.5z" />
    <glyph glyph-name="approxequal" unicode="&#x2248;" horiz-adv-x="1339" 
d="M414 664h-238q17 105 74.5 184t136 118.5t164.5 39.5q59 0 110.5 -18t82.5 -39.5t72 -39.5t81 -18q101 0 125 108h238q-27 -164 -122 -254t-235 -90q-66 0 -121 19t-86 41.5t-70.5 41.5t-76.5 19q-55 0 -91 -34t-44 -78zM334 205h-238q27 156 133 248t242 92
q61 0 112.5 -17.5t81 -39t70 -39t80.5 -17.5q102 0 129 109h238q-29 -164 -123.5 -254t-233.5 -90q-54 0 -100 12.5t-77 30t-58 35t-57.5 30t-61.5 12.5q-56 0 -91.5 -33.5t-45.5 -78.5z" />
    <glyph glyph-name="notequal" unicode="&#x2260;" horiz-adv-x="1316" 
d="M1214 944l-32 -221h-334l-148 -227h437l-31 -220h-522l-105 -170h-217l105 170h-250l33 220h335l148 227h-440l34 221h523l96 148h215l-94 -148h247z" />
    <glyph glyph-name="lessequal" unicode="&#x2264;" horiz-adv-x="1259" 
d="M1044 254h-931l28 184h529l-494 168l33 225l958 170l-30 -202l-676 -113l614 -237z" />
    <glyph glyph-name="greaterequal" unicode="&#x2265;" horiz-adv-x="1261" 
d="M1047 254h-932l30 195l695 237l-633 113l31 202l899 -170l-35 -225l-553 -168h528z" />
    <glyph glyph-name="lozenge" unicode="&#x25ca;" horiz-adv-x="1370" 
d="M639 0h-109l-387 694l633 692h109l387 -692zM399 694l228 -389h8l379 389l-226 387h-6z" />
    <glyph glyph-name="A.ss01" horiz-adv-x="1880" 
d="M254 0h-344l989 1597h447l421 -1597h-335q-12 46 -33.5 126.5t-37 144.5t-32.5 147h-809q-89 -152 -266 -418zM659 690h613q-12 43 -57.5 199.5t-96.5 357.5h-88q-20 -29 -371 -557z" />
    <glyph glyph-name="Aacute.ss01" horiz-adv-x="1880" 
d="M1726 2081l-454 -361h-273l349 361h378zM254 0h-344l989 1597h447l421 -1597h-335q-12 46 -33.5 126.5t-37 144.5t-32.5 147h-809q-89 -152 -266 -418zM659 690h613q-12 43 -57.5 199.5t-96.5 357.5h-88q-20 -29 -371 -557z" />
    <glyph glyph-name="Abreve.ss01" horiz-adv-x="1880" 
d="M1135 1716q-206 0 -320 103.5t-92 261.5h256q-8 -65 41 -113.5t145 -48.5q98 0 166 47.5t84 114.5h258q-31 -158 -180.5 -261.5t-357.5 -103.5zM254 0h-344l989 1597h447l421 -1597h-335q-12 46 -33.5 126.5t-37 144.5t-32.5 147h-809q-89 -152 -266 -418zM659 690h613
q-12 43 -57.5 199.5t-96.5 357.5h-88q-20 -29 -371 -557z" />
    <glyph glyph-name="Acircumflex.ss01" horiz-adv-x="1880" 
d="M1348 2077l282 -357h-278q-10 9 -77.5 69.5t-103.5 96.5q-12 -9 -41.5 -30.5t-44.5 -32t-41.5 -29t-55.5 -36t-64 -38.5h-279l402 357h301zM254 0h-344l989 1597h447l421 -1597h-335q-12 46 -33.5 126.5t-37 144.5t-32.5 147h-809q-89 -152 -266 -418zM659 690h613
q-12 43 -57.5 199.5t-96.5 357.5h-88q-20 -29 -371 -557z" />
    <glyph glyph-name="Adieresis.ss01" horiz-adv-x="1880" 
d="M870 1731q-71 0 -117 41.5t-46 107.5q0 79 65.5 138t153.5 59q69 0 114 -41.5t45 -104.5q0 -78 -64 -139t-151 -61zM1409 1731q-72 0 -118 42t-46 105q0 81 64.5 140t152.5 59q69 0 115.5 -41.5t46.5 -104.5q0 -77 -64.5 -138.5t-150.5 -61.5zM254 0h-344l989 1597h447
l421 -1597h-335q-12 46 -33.5 126.5t-37 144.5t-32.5 147h-809q-89 -152 -266 -418zM659 690h613q-12 43 -57.5 199.5t-96.5 357.5h-88q-20 -29 -371 -557z" />
    <glyph glyph-name="Agrave.ss01" horiz-adv-x="1880" 
d="M1307 1720h-273l-334 361h381zM254 0h-344l989 1597h447l421 -1597h-335q-12 46 -33.5 126.5t-37 144.5t-32.5 147h-809q-89 -152 -266 -418zM659 690h613q-12 43 -57.5 199.5t-96.5 357.5h-88q-20 -29 -371 -557z" />
    <glyph glyph-name="Amacron.ss01" horiz-adv-x="1880" 
d="M1585 1765h-878l32 213h879zM254 0h-344l989 1597h447l421 -1597h-335q-12 46 -33.5 126.5t-37 144.5t-32.5 147h-809q-89 -152 -266 -418zM659 690h613q-12 43 -57.5 199.5t-96.5 357.5h-88q-20 -29 -371 -557z" />
    <glyph glyph-name="Aogonek.ss01" horiz-adv-x="1880" 
d="M1413 -174q0 -42 43.5 -74.5t124.5 -32.5q55 0 111 11l-29 -174q-67 -19 -154 -19t-158 20.5t-117 67t-46 113.5q0 86 73 155t175 107h-4q-12 46 -33.5 126.5t-37 144.5t-32.5 147h-809q-89 -152 -266 -418h-344l989 1597h447l421 -1597h-118q-105 -16 -170.5 -68.5
t-65.5 -105.5zM659 690h613q-12 43 -57.5 199.5t-96.5 357.5h-88q-20 -29 -371 -557z" />
    <glyph glyph-name="Aring.ss01" horiz-adv-x="1880" 
d="M1133 1710q-115 0 -190 61t-75 156q0 110 104 195.5t245 85.5q117 0 190.5 -60.5t73.5 -154.5q0 -112 -102.5 -197.5t-245.5 -85.5zM1157 1868q56 0 96.5 31.5t40.5 72.5q0 32 -29 54t-73 22q-56 0 -96.5 -31t-40.5 -73q0 -34 29 -55t73 -21zM254 0h-344l989 1597h447
l421 -1597h-335q-12 46 -33.5 126.5t-37 144.5t-32.5 147h-809q-89 -152 -266 -418zM659 690h613q-12 43 -57.5 199.5t-96.5 357.5h-88q-20 -29 -371 -557z" />
    <glyph glyph-name="Atilde.ss01" horiz-adv-x="1880" 
d="M1343 1729q-97 0 -165 45l-60 38q-50 35 -96 35q-44 0 -76 -28.5t-41 -71.5h-215q24 144 124 230.5t230 86.5q95 0 170 -49l56 -35q35 -26 86 -26q39 0 66.5 26.5t35.5 69.5h217q-25 -154 -112.5 -237.5t-219.5 -83.5zM254 0h-344l989 1597h447l421 -1597h-335
q-12 46 -33.5 126.5t-37 144.5t-32.5 147h-809q-89 -152 -266 -418zM659 690h613q-12 43 -57.5 199.5t-96.5 357.5h-88q-20 -29 -371 -557z" />
    <glyph glyph-name="B.ss01" horiz-adv-x="1753" 
d="M907 0h-790l282 1597h772q247 0 386 -94.5t139 -257.5q0 -142 -109 -263.5t-278 -160.5v-4q154 -28 238.5 -104t84.5 -217q0 -140 -92 -253.5t-258 -178t-375 -64.5zM594 938h364q177 0 284.5 57t107.5 154q0 168 -316 168h-360q-8 -38 -22.5 -125t-28 -151t-29.5 -103z
M475 281h404q193 0 304 61t111 158q0 50 -27.5 86t-76.5 54.5t-105 27t-124 8.5h-404q-63 -295 -82 -395z" />
    <glyph glyph-name="C.ss01" horiz-adv-x="2043" 
d="M985 -35q-390 0 -622 191t-232 512q0 189 87.5 365.5t236.5 308t359 210t443 78.5q304 0 518 -136.5t271 -365.5l-311 -112q-49 145 -183 236t-338 91q-159 0 -300 -55.5t-238 -146.5t-153 -208t-56 -239q0 -95 32.5 -171.5t87 -126t129 -83t153.5 -47.5t165 -14
q238 0 417 105.5t278 279.5l280 -96q-154 -288 -420 -432t-604 -144z" />
    <glyph glyph-name="D.ss01" horiz-adv-x="1957" 
d="M862 0h-745l282 1597h723q393 0 589 -170t196 -475q0 -147 -47 -287.5t-138 -260.5t-216 -210.5t-291.5 -142t-352.5 -51.5zM475 281h399q157 0 289 48t220.5 131.5t138 195.5t49.5 239q0 78 -16.5 141t-44.5 106.5t-71 75.5t-89 51t-107.5 30t-116.5 14.5t-125 3.5h-327
q-18 -92 -35 -171.5t-29.5 -137.5t-47 -241.5t-87.5 -485.5z" />
    <glyph glyph-name="E.ss01" horiz-adv-x="1595" 
d="M1382 0h-1265l282 1597h1241l-43 -280h-923q-3 -14 -24 -95t-52 -264h877l-45 -294h-875q-9 -42 -13.5 -63.5t-7.5 -37t-18.5 -88.5t-40.5 -192h948z" />
    <glyph glyph-name="F.ss01" horiz-adv-x="1521" 
d="M1618 1597l-41 -282h-905l-72 -389h848l-43 -297h-858l-113 -629h-317l282 1597h1219z" />
    <glyph glyph-name="G.ss01" horiz-adv-x="2084" 
d="M979 -35q-396 0 -623 184t-227 504q0 127 39.5 250.5t110.5 231t174 199.5t226 157t271 102t305 37q202 0 370 -63.5t276.5 -177t144.5 -261.5l-311 -112q-49 148 -184 237.5t-334 89.5q-158 0 -299.5 -55t-239 -144.5t-154.5 -206.5t-57 -239q0 -211 154.5 -328.5
t429.5 -117.5q234 0 397.5 83.5t230.5 244.5h-549l39 247h865l-19 -92q-43 -240 -187.5 -415t-362.5 -265t-486 -90z" />
    <glyph glyph-name="H.ss01" horiz-adv-x="1990" 
d="M1522 938l116 659h320l-283 -1597h-319l117 643h-924l-115 -643h-317l282 1597h318l-117 -659h922z" />
    <glyph glyph-name="I.ss01" horiz-adv-x="1398" 
d="M1200 0h-1202l41 281h442l199 1036h-453l41 280h1227l-43 -280h-455l-198 -1036h442z" />
    <glyph glyph-name="Iacute.ss01" horiz-adv-x="1398" 
d="M1362 2081l-457 -361h-272l350 361h379zM1200 0h-1202l41 281h442l199 1036h-453l41 280h1227l-43 -280h-455l-198 -1036h442z" />
    <glyph glyph-name="Icircumflex.ss01" horiz-adv-x="1398" 
d="M1118 2077l283 -357h-279q-5 5 -74.5 67.5t-105.5 98.5q-11 -8 -35.5 -26t-36 -26t-34 -24t-41 -27.5t-45 -28.5t-56.5 -34h-278l401 357h301zM1200 0h-1202l41 281h442l199 1036h-453l41 280h1227l-43 -280h-455l-198 -1036h442z" />
    <glyph glyph-name="Idieresis.ss01" horiz-adv-x="1398" 
d="M641 1731q-71 0 -117.5 41.5t-46.5 107.5q0 79 65.5 138t153.5 59q69 0 114.5 -41.5t45.5 -104.5q0 -78 -64 -139t-151 -61zM1180 1731q-72 0 -118 42t-46 105q0 81 64.5 140t152.5 59q69 0 115.5 -41.5t46.5 -104.5q0 -77 -64.5 -138.5t-150.5 -61.5zM1200 0h-1202
l41 281h442l199 1036h-453l41 280h1227l-43 -280h-455l-198 -1036h442z" />
    <glyph glyph-name="Idotaccent.ss01" horiz-adv-x="1398" 
d="M909 1755q-74 0 -121 43.5t-47 110.5q0 80 67.5 140t158.5 60q72 0 119 -42t47 -107q0 -82 -67.5 -143.5t-156.5 -61.5zM1200 0h-1202l41 281h442l199 1036h-453l41 280h1227l-43 -280h-455l-198 -1036h442z" />
    <glyph glyph-name="Igrave.ss01" horiz-adv-x="1398" 
d="M1077 1720h-272l-334 361h381zM1200 0h-1202l41 281h442l199 1036h-453l41 280h1227l-43 -280h-455l-198 -1036h442z" />
    <glyph glyph-name="Imacron.ss01" horiz-adv-x="1398" 
d="M1356 1765h-879l33 213h879zM1200 0h-1202l41 281h442l199 1036h-453l41 280h1227l-43 -280h-455l-198 -1036h442z" />
    <glyph glyph-name="J.ss01" horiz-adv-x="1517" 
d="M612 -35q-137 0 -250 35t-194.5 102t-115.5 174.5t-9 243.5l8 51l320 41l-11 -47q-32 -147 51.5 -230t223.5 -83q82 0 148.5 27t109 73t68.5 98.5t38 112.5l146 754h-666l43 280h983l-176 -987q-10 -54 -18 -90t-33 -110t-55.5 -126t-87 -117t-125 -105t-172 -68.5
t-226.5 -28.5z" />
    <glyph glyph-name="K.ss01" horiz-adv-x="1732" 
d="M434 0h-317l282 1597h318l-115 -604h10q25 17 370 250.5t523 353.5h422q-43 -31 -386.5 -274t-741.5 -532q155 -139 437.5 -402t422.5 -389h-438q-74 60 -146.5 130t-122 119.5t-155.5 133.5t-256 184z" />
    <glyph glyph-name="L.ss01" horiz-adv-x="1437" 
d="M717 1597l-234 -1314h871l-43 -283h-1194l282 1597h318z" />
    <glyph glyph-name="M.ss01" horiz-adv-x="2394" 
d="M1980 1597h379l-282 -1597h-322l201 1042l-696 -770h-222l-399 766l-199 -1038h-323l282 1597h381q299 -608 430 -888h4q403 474 766 888z" />
    <glyph glyph-name="N.ss01" horiz-adv-x="2009" 
d="M434 0h-317l282 1597h361l641 -987h63l195 987h315l-282 -1597h-359l-641 985h-65z" />
    <glyph glyph-name="O.ss01" horiz-adv-x="2138" 
d="M965 -35q-244 0 -434 87.5t-296 247.5t-106 366q0 148 56.5 292.5t161 264.5t242.5 212t310.5 143.5t355.5 51.5q244 0 434.5 -88.5t296 -249t105.5 -366.5q0 -124 -41 -246t-114 -227.5t-177.5 -196t-227.5 -154.5t-269 -100.5t-297 -36.5zM1008 252q150 0 288.5 53.5
t237.5 141.5t158 204.5t59 237.5q0 201 -149 327.5t-385 126.5q-149 0 -288 -54t-240 -142t-161.5 -205.5t-60.5 -239.5q0 -200 151 -325t390 -125z" />
    <glyph glyph-name="P.ss01" horiz-adv-x="1654" 
d="M399 1597h723q24 0 42 -0.5t63 -4t81.5 -10.5t87 -22t90 -35t81 -53t69 -73.5t45 -98.5t17.5 -126q0 -117 -53 -227.5t-147 -195.5t-235 -136.5t-305 -51.5h-426l-98 -563h-317zM586 858h346q118 0 212.5 27t155 86.5t60.5 144.5q0 62 -28 104t-79.5 62t-104.5 27.5
t-124 7.5h-354z" />
    <glyph glyph-name="Q.ss01" horiz-adv-x="1775" 
d="M588 -152v-2h868l-47 -262h-1477l494 465q-152 83 -237 233t-85 347q0 133 35.5 262t99.5 239t154.5 203t197 158.5t231 102t253.5 36.5q300 0 489 -184.5t189 -482.5q0 -198 -78.5 -382.5t-209.5 -319t-310.5 -215.5t-372.5 -81q-41 0 -61 2q-92 -83 -133 -119z
M1028 1343q-160 0 -298.5 -91t-220 -244.5t-81.5 -329.5q0 -192 112.5 -309t293.5 -117q158 0 295 90.5t217.5 243.5t80.5 329q0 191 -108 309.5t-291 118.5z" />
    <glyph glyph-name="R.ss01" horiz-adv-x="1720" 
d="M958 575h-10l619 -575h-381l-627 575h-20l-105 -575h-317l282 1597h723q42 0 84 -3t101.5 -13.5t110.5 -28t104.5 -50.5t90.5 -76.5t61 -110.5t24 -148q0 -163 -94 -298t-264.5 -214.5t-381.5 -79.5zM1028 1348h-350l-100 -504h352q190 0 311 83t121 208q0 103 -87 158
t-247 55z" />
    <glyph glyph-name="S.ss01" horiz-adv-x="1599" 
d="M715 -35q-268 0 -452 125t-214 348l311 97q13 -82 50 -141t93 -91t118.5 -46.5t136.5 -14.5q168 0 280.5 63t112.5 154q0 36 -20 66t-46 48.5t-73.5 37t-78.5 27t-85 21.5l-166 43q-61 15 -110.5 31.5t-115 50t-109.5 73.5t-75.5 103.5t-31.5 139.5q0 81 34.5 159.5
t100.5 145t154.5 117t203.5 79.5t240 29q133 0 243.5 -32t183 -85t116.5 -118.5t55 -137.5l-307 -112q-27 98 -112 153.5t-226 55.5q-145 0 -245.5 -56t-100.5 -135q0 -34 21 -63.5t49.5 -49t75.5 -39t80 -29.5t83 -24l190 -53q45 -12 73 -20t77.5 -26t81.5 -36t71 -47.5
t62 -63t39 -80t16 -100.5q0 -106 -58 -208t-158 -181.5t-249 -128.5t-319 -49z" />
    <glyph glyph-name="U.ss01" horiz-adv-x="1855" 
d="M774 -35q-119 0 -214.5 27.5t-157 71.5t-106 104t-66 121.5t-31 127t-8 117t9.5 95.5l178 968h317l-174 -946q-6 -33 -7 -68t5 -74.5t19.5 -75.5t39.5 -69.5t61 -58t87.5 -39t116.5 -14.5q87 0 164.5 27.5t131 70.5t95 97.5t64.5 105.5t32 98l174 946h318l-283 -1597
h-303l29 141h-4q-92 -92 -206 -134t-282 -42z" />
    <glyph glyph-name="Uacute.ss01" horiz-adv-x="1855" 
d="M1481 2081l-455 -361h-272l348 361h379zM774 -35q-119 0 -214.5 27.5t-157 71.5t-106 104t-66 121.5t-31 127t-8 117t9.5 95.5l178 968h317l-174 -946q-6 -33 -7 -68t5 -74.5t19.5 -75.5t39.5 -69.5t61 -58t87.5 -39t116.5 -14.5q87 0 164.5 27.5t131 70.5t95 97.5
t64.5 105.5t32 98l174 946h318l-283 -1597h-303l29 141h-4q-92 -92 -206 -134t-282 -42z" />
    <glyph glyph-name="Ucircumflex.ss01" horiz-adv-x="1855" 
d="M1323 2077l283 -357h-279q-5 5 -74.5 67.5t-105.5 98.5q-11 -8 -35.5 -26t-36 -26t-34 -24t-41 -27.5t-45 -28.5t-56.5 -34h-278l401 357h301zM774 -35q-119 0 -214.5 27.5t-157 71.5t-106 104t-66 121.5t-31 127t-8 117t9.5 95.5l178 968h317l-174 -946q-6 -33 -7 -68
t5 -74.5t19.5 -75.5t39.5 -69.5t61 -58t87.5 -39t116.5 -14.5q87 0 164.5 27.5t131 70.5t95 97.5t64.5 105.5t32 98l174 946h318l-283 -1597h-303l29 141h-4q-92 -92 -206 -134t-282 -42z" />
    <glyph glyph-name="Udieresis.ss01" horiz-adv-x="1855" 
d="M846 1731q-71 0 -117.5 41.5t-46.5 107.5q0 79 65.5 138t153.5 59q69 0 114.5 -41.5t45.5 -104.5q0 -78 -64 -139t-151 -61zM1384 1731q-72 0 -117.5 42t-45.5 105q0 81 64.5 140t152.5 59q69 0 115 -41.5t46 -104.5q0 -77 -64.5 -138.5t-150.5 -61.5zM774 -35
q-119 0 -214.5 27.5t-157 71.5t-106 104t-66 121.5t-31 127t-8 117t9.5 95.5l178 968h317l-174 -946q-6 -33 -7 -68t5 -74.5t19.5 -75.5t39.5 -69.5t61 -58t87.5 -39t116.5 -14.5q87 0 164.5 27.5t131 70.5t95 97.5t64.5 105.5t32 98l174 946h318l-283 -1597h-303l29 141h-4
q-92 -92 -206 -134t-282 -42z" />
    <glyph glyph-name="Ugrave.ss01" horiz-adv-x="1855" 
d="M1282 1720h-272l-334 361h381zM774 -35q-119 0 -214.5 27.5t-157 71.5t-106 104t-66 121.5t-31 127t-8 117t9.5 95.5l178 968h317l-174 -946q-6 -33 -7 -68t5 -74.5t19.5 -75.5t39.5 -69.5t61 -58t87.5 -39t116.5 -14.5q87 0 164.5 27.5t131 70.5t95 97.5t64.5 105.5
t32 98l174 946h318l-283 -1597h-303l29 141h-4q-92 -92 -206 -134t-282 -42z" />
    <glyph glyph-name="Uhungarumlaut.ss01" horiz-adv-x="1855" 
d="M1378 2079l-424 -359h-262l320 359h366zM1894 2079l-430 -359h-264l332 359h362zM774 -35q-119 0 -214.5 27.5t-157 71.5t-106 104t-66 121.5t-31 127t-8 117t9.5 95.5l178 968h317l-174 -946q-6 -33 -7 -68t5 -74.5t19.5 -75.5t39.5 -69.5t61 -58t87.5 -39t116.5 -14.5
q87 0 164.5 27.5t131 70.5t95 97.5t64.5 105.5t32 98l174 946h318l-283 -1597h-303l29 141h-4q-92 -92 -206 -134t-282 -42z" />
    <glyph glyph-name="Umacron.ss01" horiz-adv-x="1855" 
d="M1561 1765h-879l33 213h878zM774 -35q-119 0 -214.5 27.5t-157 71.5t-106 104t-66 121.5t-31 127t-8 117t9.5 95.5l178 968h317l-174 -946q-6 -33 -7 -68t5 -74.5t19.5 -75.5t39.5 -69.5t61 -58t87.5 -39t116.5 -14.5q87 0 164.5 27.5t131 70.5t95 97.5t64.5 105.5t32 98
l174 946h318l-283 -1597h-303l29 141h-4q-92 -92 -206 -134t-282 -42z" />
    <glyph glyph-name="Uogonek.ss01" horiz-adv-x="1855" 
d="M1540 0h-47q-105 -16 -170.5 -68.5t-65.5 -105.5q0 -42 43.5 -74.5t124.5 -32.5q55 0 111 11l-29 -174q-67 -19 -153 -19q-136 0 -229 51.5t-93 149.5q0 86 73 155t175 107h-43l29 141h-4q-92 -92 -206 -134t-282 -42q-119 0 -214.5 27.5t-157 71.5t-106 104t-66 121.5
t-31 127t-8 117t9.5 95.5l178 968h317l-174 -946q-6 -33 -7 -68t5 -74.5t19.5 -75.5t39.5 -69.5t61 -58t87.5 -39t116.5 -14.5q87 0 164.5 27.5t131 70.5t95 97.5t64.5 105.5t32 98l174 946h318z" />
    <glyph glyph-name="Uring.ss01" horiz-adv-x="1855" 
d="M1108 1710q-114 0 -189 61t-75 156q0 110 103.5 195.5t244.5 85.5q117 0 190.5 -60.5t73.5 -154.5q0 -112 -102.5 -197.5t-245.5 -85.5zM1133 1868q56 0 96.5 31.5t40.5 72.5q0 32 -29.5 54t-73.5 22q-56 0 -96.5 -31t-40.5 -73q0 -33 29 -54.5t74 -21.5zM774 -35
q-119 0 -214.5 27.5t-157 71.5t-106 104t-66 121.5t-31 127t-8 117t9.5 95.5l178 968h317l-174 -946q-6 -33 -7 -68t5 -74.5t19.5 -75.5t39.5 -69.5t61 -58t87.5 -39t116.5 -14.5q87 0 164.5 27.5t131 70.5t95 97.5t64.5 105.5t32 98l174 946h318l-283 -1597h-303l29 141h-4
q-92 -92 -206 -134t-282 -42z" />
    <glyph glyph-name="V.ss01" horiz-adv-x="1878" 
d="M1051 0h-437l-421 1597h333q42 -146 87 -338.5t100.5 -395t144.5 -466.5h82q633 982 776 1200h334z" />
    <glyph glyph-name="W.ss01" horiz-adv-x="2828" 
d="M889 0h-400l-282 1597h360l187 -1167h6l594 1167h497l152 -1167h4l623 1167h358l-846 -1597h-395l-150 1202h-104z" />
    <glyph glyph-name="Wacute.ss01" horiz-adv-x="2828" 
d="M2210 2081l-455 -361h-272l348 361h379zM889 0h-400l-282 1597h360l187 -1167h6l594 1167h497l152 -1167h4l623 1167h358l-846 -1597h-395l-150 1202h-104z" />
    <glyph glyph-name="Wcircumflex.ss01" horiz-adv-x="2828" 
d="M1833 2077l283 -357h-279q-5 5 -74.5 67.5t-105.5 98.5q-11 -8 -35.5 -26t-36 -26t-34 -24t-41 -27.5t-45 -28.5t-56.5 -34h-279l402 357h301zM889 0h-400l-282 1597h360l187 -1167h6l594 1167h497l152 -1167h4l623 1167h358l-846 -1597h-395l-150 1202h-104z" />
    <glyph glyph-name="Wdieresis.ss01" horiz-adv-x="2828" 
d="M1356 1731q-71 0 -117.5 41.5t-46.5 107.5q0 79 65.5 138t153.5 59q69 0 114.5 -41.5t45.5 -104.5q0 -78 -64 -139t-151 -61zM1894 1731q-72 0 -117.5 42t-45.5 105q0 81 64.5 140t152.5 59q69 0 115 -41.5t46 -104.5q0 -77 -64.5 -138.5t-150.5 -61.5zM889 0h-400
l-282 1597h360l187 -1167h6l594 1167h497l152 -1167h4l623 1167h358l-846 -1597h-395l-150 1202h-104z" />
    <glyph glyph-name="Wgrave.ss01" horiz-adv-x="2828" 
d="M1792 1720h-272l-334 361h381zM889 0h-400l-282 1597h360l187 -1167h6l594 1167h497l152 -1167h4l623 1167h358l-846 -1597h-395l-150 1202h-104z" />
    <glyph glyph-name="X.ss01" horiz-adv-x="1751" 
d="M266 0h-356l762 811v8l-475 778h356q66 -108 188 -313.5t174 -290.5h72q63 62 246 262t342 342h346l-747 -778v-8l471 -811h-349q-299 472 -364 612h-72q-79 -78 -170 -182.5t-190 -208t-234 -221.5z" />
    <glyph glyph-name="Y.ss01" horiz-adv-x="1746" 
d="M582 0h-340l495 571l-514 1026h344l373 -718h4l653 718h345z" />
    <glyph glyph-name="Yacute.ss01" horiz-adv-x="1746" 
d="M1548 2081l-456 -361h-273l350 361h379zM582 0h-340l495 571l-514 1026h344l373 -718h4l653 718h345z" />
    <glyph glyph-name="Ycircumflex.ss01" horiz-adv-x="1746" 
d="M1313 2077l282 -357h-278q-5 5 -74.5 67.5t-105.5 98.5q-11 -8 -35.5 -26t-36 -26t-34 -24t-41 -27.5t-45 -28.5t-56.5 -34h-279l402 357h301zM582 0h-340l495 571l-514 1026h344l373 -718h4l653 718h345z" />
    <glyph glyph-name="Ydieresis.ss01" horiz-adv-x="1746" 
d="M838 1731q-71 0 -117.5 41.5t-46.5 107.5q0 79 65.5 138t153.5 59q69 0 114.5 -41.5t45.5 -104.5q0 -78 -64 -139t-151 -61zM1376 1731q-72 0 -118 42t-46 105q0 81 65 140t153 59q69 0 115 -41.5t46 -104.5q0 -77 -64.5 -138.5t-150.5 -61.5zM582 0h-340l495 571
l-514 1026h344l373 -718h4l653 718h345z" />
    <glyph glyph-name="Ygrave.ss01" horiz-adv-x="1746" 
d="M1274 1720h-273l-333 361h381zM582 0h-340l495 571l-514 1026h344l373 -718h4l653 718h345z" />
    <glyph glyph-name="Z.ss01" horiz-adv-x="1708" 
d="M1507 0h-1620l1379 1315h-977l45 282h1540l-1366 -1314h1042z" />
    <glyph glyph-name="Zacute.ss01" horiz-adv-x="1708" 
d="M1647 2081l-455 -361h-272l348 361h379zM1507 0h-1620l1379 1315h-977l45 282h1540l-1366 -1314h1042z" />
    <glyph glyph-name="Zcaron.ss01" horiz-adv-x="1708" 
d="M1329 2077h279l-398 -357h-311l-278 357h280q31 -28 92 -86t92 -86q31 21 109.5 79.5t134.5 92.5zM1507 0h-1620l1379 1315h-977l45 282h1540l-1366 -1314h1042z" />
    <glyph glyph-name="Zdotaccent.ss01" horiz-adv-x="1708" 
d="M1079 1755q-74 0 -121 43.5t-47 110.5q0 80 67.5 140t158.5 60q72 0 119 -42t47 -107q0 -82 -67.5 -143.5t-156.5 -61.5zM1507 0h-1620l1379 1315h-977l45 282h1540l-1366 -1314h1042z" />
    <glyph glyph-name="Q.ss02" horiz-adv-x="2138" 
d="M2091 926q0 -169 -75.5 -331.5t-204 -289.5t-307.5 -215t-378 -115l-22 -129h600l-39 -262h-901l65 389q-316 36 -508 223.5t-192 469.5q0 148 56.5 292.5t161 264.5t242.5 212t310.5 143.5t355.5 51.5q244 0 434.5 -88.5t296 -249t105.5 -366.5zM467 702
q0 -170 112.5 -288.5t299.5 -151.5l65 385h301l-65 -377q244 54 407.5 231t163.5 388q0 201 -149 327.5t-385 126.5q-149 0 -288 -54t-240 -142t-161.5 -205.5t-60.5 -239.5z" />
    <glyph glyph-name="A.ss07" 
d="M1092 -315q-216 0 -398.5 58t-310 160.5t-199 249.5t-71.5 320q0 165 65 325t185.5 294t279.5 236.5t360 160t414 57.5q205 0 383.5 -54.5t312 -154t210.5 -250.5t77 -333q0 -140 -46.5 -276t-130.5 -253.5t-204.5 -217.5t-263.5 -171t-314 -111t-349 -40zM1206 1096
l-614 -963h217q11 12 24.5 29.5t33 45.5t33 48t41.5 62l42 63h434q3 -12 13.5 -52.5t24 -84t38.5 -111.5h223l-276 963h-234zM1374 559h-297q20 30 48.5 72.5t45 67t46.5 64.5t67 85q5 -20 16.5 -61t15.5 -56t12.5 -44.5t14 -46t14 -38.5t17.5 -43z" />
    <glyph glyph-name="B.ss07" horiz-adv-x="2459" 
d="M1092 -315q-216 0 -398.5 58t-310 160.5t-199 249.5t-71.5 320q0 165 65 325t185.5 294t279.5 236.5t360 160t414 57.5q205 0 383.5 -54.5t312 -154t210.5 -250.5t77 -333q0 -140 -46.5 -276t-130.5 -253.5t-204.5 -217.5t-263.5 -171t-314 -111t-349 -40zM932 1096
l-170 -963h477q192 0 316 87t124 218q0 72 -43 120.5t-123 68.5q93 30 150 101.5t57 154.5q0 99 -87.5 156t-231.5 57h-469zM1069 705l41 208h207q176 0 176 -92q0 -54 -60 -85t-159 -31h-205zM1229 315h-232q23 122 45 220h228q35 0 65 -4t60 -14.5t47.5 -31t17.5 -49.5
q0 -53 -63.5 -87t-167.5 -34z" />
    <glyph glyph-name="C.ss07" horiz-adv-x="2455" 
d="M1092 -315q-216 0 -398.5 58t-310 160.5t-199 249.5t-71.5 320q0 165 65 325t185.5 294t279.5 236.5t360 160t414 57.5q205 0 383.5 -54.5t312 -154t210.5 -250.5t77 -333q0 -140 -46.5 -276t-130.5 -253.5t-204.5 -217.5t-263.5 -171t-314 -111t-349 -40zM1174 113
q204 0 367 92.5t253 263.5l-182 59q-59 -106 -165 -167.5t-243 -61.5q-49 0 -94 7.5t-88.5 26.5t-75 47.5t-50.5 73.5t-19 101q0 97 56 183t157.5 139t222.5 53q119 0 195.5 -53.5t105.5 -143.5l201 74q-32 143 -165.5 226t-314.5 83q-139 0 -265.5 -47.5t-216.5 -127
t-143 -186t-53 -220.5q0 -192 141 -307t376 -115z" />
    <glyph glyph-name="D.ss07" 
d="M1092 -315q-216 0 -398.5 58t-310 160.5t-199 249.5t-71.5 320q0 165 65 325t185.5 294t279.5 236.5t360 160t414 57.5q205 0 383.5 -54.5t312 -154t210.5 -250.5t77 -333q0 -140 -46.5 -276t-130.5 -253.5t-204.5 -217.5t-263.5 -171t-314 -111t-349 -40zM889 1096
l-170 -963h452q141 0 261.5 48.5t200 129t124.5 184t45 214.5q0 187 -123 287t-352 100h-438zM1182 315h-228q9 46 39.5 230.5t73.5 367.5h184q57 0 99.5 -4t88.5 -19t75 -40.5t48 -71t19 -108.5q0 -152 -111.5 -253.5t-287.5 -101.5z" />
    <glyph glyph-name="E.ss07" 
d="M1092 -315q-216 0 -398.5 58t-310 160.5t-199 249.5t-71.5 320q0 165 65 325t185.5 294t279.5 236.5t360 160t414 57.5q205 0 383.5 -54.5t312 -154t210.5 -250.5t77 -333q0 -140 -46.5 -276t-130.5 -253.5t-204.5 -217.5t-263.5 -171t-314 -111t-349 -40zM948 1096
l-170 -963h770l29 184h-561q6 32 20.5 96.5t22.5 112.5h520l29 191h-521q5 20 14.5 74.5t26.5 121.5h549l27 183h-756z" />
    <glyph glyph-name="F.ss07" horiz-adv-x="2459" 
d="M1092 -315q-216 0 -398.5 58t-310 160.5t-199 249.5t-71.5 320q0 165 65 325t185.5 294t279.5 236.5t360 160t414 57.5q205 0 383.5 -54.5t312 -154t210.5 -250.5t77 -333q0 -140 -46.5 -276t-130.5 -253.5t-204.5 -217.5t-263.5 -171t-314 -111t-349 -40zM977 1096
l-170 -963h209l67 373h506l29 190h-506l43 215h537l28 185h-743z" />
    <glyph glyph-name="G.ss07" horiz-adv-x="2455" 
d="M1092 -315q-216 0 -398.5 58t-310 160.5t-199 249.5t-71.5 320q0 165 65 325t185.5 294t279.5 236.5t360 160t414 57.5q205 0 383.5 -54.5t312 -154t210.5 -250.5t77 -333q0 -140 -46.5 -276t-130.5 -253.5t-204.5 -217.5t-263.5 -171t-314 -111t-349 -40zM1147 113
q273 0 424 157l-17 -137h164l88 508h-532l-27 -166h324q-38 -79 -138 -127.5t-225 -48.5q-62 0 -118 13t-106 41t-80 80.5t-30 123.5q0 150 128 261.5t309 111.5q115 0 192.5 -50.5t108.5 -146.5l203 74q-32 143 -165.5 226t-314.5 83q-186 0 -343 -82t-246 -216.5
t-89 -287.5q0 -189 133.5 -303t356.5 -114z" />
    <glyph glyph-name="H.ss07" 
d="M1092 -315q-216 0 -398.5 58t-310 160.5t-199 249.5t-71.5 320q0 165 65 325t185.5 294t279.5 236.5t360 160t414 57.5q205 0 383.5 -54.5t312 -154t210.5 -250.5t77 -333q0 -140 -46.5 -276t-130.5 -253.5t-204.5 -217.5t-263.5 -171t-314 -111t-349 -40zM850 1096
l-170 -963h209l67 381h529l-70 -381h209l170 963h-209l-69 -389h-529l72 389h-209z" />
    <glyph glyph-name="I.ss07" 
d="M1092 -315q-216 0 -398.5 58t-310 160.5t-199 249.5t-71.5 320q0 165 65 325t185.5 294t279.5 236.5t360 160t414 57.5q205 0 383.5 -54.5t312 -154t210.5 -250.5t77 -333q0 -140 -46.5 -276t-130.5 -253.5t-204.5 -217.5t-263.5 -171t-314 -111t-349 -40zM1221 1096
l-170 -963h209l170 963h-209z" />
    <glyph glyph-name="J.ss07" 
d="M1092 -315q-216 0 -398.5 58t-310 160.5t-199 249.5t-71.5 320q0 165 65 325t185.5 294t279.5 236.5t360 160t414 57.5q205 0 383.5 -54.5t312 -154t210.5 -250.5t77 -333q0 -140 -46.5 -276t-130.5 -253.5t-204.5 -217.5t-263.5 -171t-314 -111t-349 -40zM1116 123
q59 0 111 10.5t90.5 27t71.5 43t55 50.5t41 58.5t29.5 58.5t20 59t13 51t8.5 43l103 582h-209l-107 -610q-15 -88 -61.5 -137.5t-144.5 -49.5q-83 0 -130.5 45t-29.5 129l8 41l-209 -26l-8 -41q-28 -156 72 -245t276 -89z" />
    <glyph glyph-name="K.ss07" horiz-adv-x="2459" 
d="M1092 -315q-216 0 -398.5 58t-310 160.5t-199 249.5t-71.5 320q0 165 65 325t185.5 294t279.5 236.5t360 160t414 57.5q205 0 383.5 -54.5t312 -154t210.5 -250.5t77 -333q0 -140 -46.5 -276t-130.5 -253.5t-204.5 -217.5t-263.5 -171t-314 -111t-349 -40zM905 1096
l-170 -963h209q4 24 16 85.5t37 207.5q23 15 68.5 48.5t67.5 49.5q24 -33 74 -107.5t99.5 -139.5t118.5 -144h254q-33 46 -70 90t-64 76.5t-91 128t-156 248.5q241 194 533 420h-252q-27 -19 -95 -68t-100.5 -72.5t-91 -66t-95 -71t-80.5 -63.5t-79 -65l76 406h-209z" />
    <glyph glyph-name="L.ss07" 
d="M1092 -315q-216 0 -398.5 58t-310 160.5t-199 249.5t-71.5 320q0 165 65 325t185.5 294t279.5 236.5t360 160t414 57.5q205 0 383.5 -54.5t312 -154t210.5 -250.5t77 -333q0 -140 -46.5 -276t-130.5 -253.5t-204.5 -217.5t-263.5 -171t-314 -111t-349 -40zM1049 1096
l-170 -963h729l28 184h-520l141 779h-208z" />
    <glyph glyph-name="M.ss07" horiz-adv-x="2459" 
d="M1092 -315q-216 0 -398.5 58t-310 160.5t-199 249.5t-71.5 320q0 165 65 325t185.5 294t279.5 236.5t360 160t414 57.5q205 0 383.5 -54.5t312 -154t210.5 -250.5t77 -333q0 -140 -46.5 -276t-130.5 -253.5t-204.5 -217.5t-263.5 -171t-314 -111t-349 -40zM700 1096
l-170 -963h209l113 576q36 -95 118 -293t113 -283h138q28 37 93 125.5t101.5 136.5t107 135.5t150.5 178.5l-112 -576h213l170 963h-250q-59 -79 -233.5 -309.5t-264.5 -350.5q-52 143 -246 660h-250z" />
    <glyph glyph-name="N.ss07" 
d="M1092 -315q-216 0 -398.5 58t-310 160.5t-199 249.5t-71.5 320q0 165 65 325t185.5 294t279.5 236.5t360 160t414 57.5q205 0 383.5 -54.5t312 -154t210.5 -250.5t77 -333q0 -140 -46.5 -276t-130.5 -253.5t-204.5 -217.5t-263.5 -171t-314 -111t-349 -40zM858 1096
l-170 -963h209l115 604q75 -114 216.5 -314.5t201.5 -289.5h212l170 963h-206l-119 -613q-125 198 -416 613h-213z" />
    <glyph glyph-name="O.ss07" 
d="M1092 -315q-216 0 -398.5 58t-310 160.5t-199 249.5t-71.5 320q0 165 65 325t185.5 294t279.5 236.5t360 160t414 57.5q205 0 383.5 -54.5t312 -154t210.5 -250.5t77 -333q0 -140 -46.5 -276t-130.5 -253.5t-204.5 -217.5t-263.5 -171t-314 -111t-349 -40zM1151 113
q137 0 264 48.5t217.5 128.5t144.5 185.5t54 216.5q0 187 -141 305.5t-363 118.5q-135 0 -261 -48t-217 -127.5t-145.5 -186.5t-54.5 -219q0 -129 67 -226t180.5 -146.5t254.5 -49.5zM868 559q0 94 58 179.5t158.5 138.5t215.5 53q137 0 223.5 -72.5t86.5 -189.5
q0 -144 -127.5 -256.5t-300.5 -112.5q-137 0 -225.5 72.5t-88.5 187.5z" />
    <glyph glyph-name="P.ss07" 
d="M1092 -315q-216 0 -398.5 58t-310 160.5t-199 249.5t-71.5 320q0 165 65 325t185.5 294t279.5 236.5t360 160t414 57.5q205 0 383.5 -54.5t312 -154t210.5 -250.5t77 -333q0 -140 -46.5 -276t-130.5 -253.5t-204.5 -217.5t-263.5 -171t-314 -111t-349 -40zM961 1096
l-170 -963h208l60 334h241q192 0 320.5 108t128.5 261q0 50 -14 90t-35.5 66.5t-53.5 46.5t-62.5 30.5t-67 17t-63 8t-54.5 1.5h-438zM1284 659h-197l52 254h198q41 0 72 -4.5t60.5 -15.5t45 -34.5t15.5 -57.5q0 -42 -25 -72t-65.5 -44t-78.5 -20t-77 -6z" />
    <glyph glyph-name="Q.ss07" 
d="M1092 -315q-216 0 -398.5 58t-310 160.5t-199 249.5t-71.5 320q0 165 65 325t185.5 294t279.5 236.5t360 160t414 57.5q205 0 383.5 -54.5t312 -154t210.5 -250.5t77 -333q0 -140 -46.5 -276t-130.5 -253.5t-204.5 -217.5t-263.5 -171t-314 -111t-349 -40zM1542 51
l170 121q-16 18 -58.5 66.5t-64.5 72.5q118 85 185 203.5t67 241.5q0 185 -143 302.5t-369 117.5q-140 0 -268 -47.5t-219.5 -127t-146 -186t-54.5 -219.5q0 -194 143.5 -309t366.5 -115q130 0 258 39q63 -74 133 -160zM856 623q0 148 131.5 257t315.5 109q145 0 234 -70.5
t89 -185.5q0 -76 -39.5 -148t-111.5 -124q-12 13 -49 49t-89 100l-168 -118q18 -17 61 -63t56 -58q-50 -13 -106 -13q-146 0 -235 71.5t-89 193.5z" />
    <glyph glyph-name="R.ss07" 
d="M1092 -315q-216 0 -398.5 58t-310 160.5t-199 249.5t-71.5 320q0 165 65 325t185.5 294t279.5 236.5t360 160t414 57.5q205 0 383.5 -54.5t312 -154t210.5 -250.5t77 -333q0 -140 -46.5 -276t-130.5 -253.5t-204.5 -217.5t-263.5 -171t-314 -111t-349 -40zM958 1096
l-170 -963h209q5 25 62 338h147l217 -338h236q-25 40 -98.5 151.5t-130.5 207.5q137 28 227 122t90 217q0 69 -27.5 120.5t-66 78.5t-91 43t-89.5 19.5t-76 3.5h-439zM1284 647h-199q16 73 54 268h198q50 0 89 -8.5t69.5 -36t30.5 -71.5q0 -68 -67 -110t-175 -42z" />
    <glyph glyph-name="S.ss07" 
d="M1092 -315q-216 0 -398.5 58t-310 160.5t-199 249.5t-71.5 320q0 165 65 325t185.5 294t279.5 236.5t360 160t414 57.5q205 0 383.5 -54.5t312 -154t210.5 -250.5t77 -333q0 -140 -46.5 -276t-130.5 -253.5t-204.5 -217.5t-263.5 -171t-314 -111t-349 -40zM1169 113
q199 0 339.5 102.5t140.5 241.5q0 45 -17.5 82t-39.5 58.5t-61.5 41t-62 27t-63.5 18.5q-3 1 -5 1.5t-4.5 1t-4.5 1.5l-111 33q-98 27 -130 47q-41 27 -42 63q0 41 53.5 71t134.5 30q79 0 129 -32t64 -91l199 74q-8 94 -106 163.5t-255 69.5q-191 0 -322 -97.5t-131 -227.5
q0 -175 273 -246l98 -27q39 -9 62 -15.5t51 -18.5t41.5 -29t13.5 -39q0 -50 -62 -84.5t-155 -34.5q-98 0 -156.5 44t-70.5 128l-203 -61q17 -141 129 -218t274 -77z" />
    <glyph glyph-name="T.ss07" 
d="M1092 -315q-216 0 -398.5 58t-310 160.5t-199 249.5t-71.5 320q0 165 65 325t185.5 294t279.5 236.5t360 160t414 57.5q205 0 383.5 -54.5t312 -154t210.5 -250.5t77 -333q0 -140 -46.5 -276t-130.5 -253.5t-204.5 -217.5t-263.5 -171t-314 -111t-349 -40zM1190 913
l-143 -780h208q14 75 142 780h352l29 183h-914l-28 -183h354z" />
    <glyph glyph-name="U.ss07" 
d="M1092 -315q-216 0 -398.5 58t-310 160.5t-199 249.5t-71.5 320q0 165 65 325t185.5 294t279.5 236.5t360 160t414 57.5q205 0 383.5 -54.5t312 -154t210.5 -250.5t77 -333q0 -140 -46.5 -276t-130.5 -253.5t-204.5 -217.5t-263.5 -171t-314 -111t-349 -40zM1145 123
q110 0 198.5 30.5t141.5 74.5t91 102.5t54 104t23 89.5l106 582h-209l-102 -567q-8 -46 -26 -84.5t-49 -72.5t-81.5 -53.5t-115.5 -19.5q-54 0 -93.5 15.5t-59 40t-30.5 55t-9 61t5 58.5l103 567h-209l-105 -582q-7 -38 -8.5 -74.5t4.5 -77t21 -75.5t44 -67.5t69.5 -55.5
t101 -37t135.5 -14z" />
    <glyph glyph-name="V.ss07" 
d="M1092 -315q-216 0 -398.5 58t-310 160.5t-199 249.5t-71.5 320q0 165 65 325t185.5 294t279.5 236.5t360 160t414 57.5q205 0 383.5 -54.5t312 -154t210.5 -250.5t77 -333q0 -140 -46.5 -276t-130.5 -253.5t-204.5 -217.5t-263.5 -171t-314 -111t-349 -40zM778 1096
l275 -963h235l613 963h-220q-37 -40 -105.5 -145.5t-175 -274.5t-192.5 -295q-8 29 -65 231.5t-92.5 320t-53.5 163.5h-219z" />
    <glyph glyph-name="W.ss07" 
d="M1092 -315q-216 0 -398.5 58t-310 160.5t-199 249.5t-71.5 320q0 165 65 325t185.5 294t279.5 236.5t360 160t414 57.5q205 0 383.5 -54.5t312 -154t210.5 -250.5t77 -333q0 -140 -46.5 -276t-130.5 -253.5t-204.5 -217.5t-263.5 -171t-314 -111t-349 -40zM485 1096
l170 -963h250q151 248 369 643q60 -331 129 -643h246l512 963h-234q-21 -38 -138.5 -270t-221.5 -404q-18 94 -62.5 322.5t-68.5 351.5h-228q-28 -49 -156.5 -284t-224.5 -390q-5 28 -38 249.5t-72 424.5h-232z" />
    <glyph glyph-name="X.ss07" 
d="M1092 -315q-216 0 -398.5 58t-310 160.5t-199 249.5t-71.5 320q0 165 65 325t185.5 294t279.5 236.5t360 160t414 57.5q205 0 383.5 -54.5t312 -154t210.5 -250.5t77 -333q0 -140 -46.5 -276t-130.5 -253.5t-204.5 -217.5t-263.5 -171t-314 -111t-349 -40zM655 131h250
q96 98 320 322q26 -43 89 -152.5t101 -169.5h250q-52 83 -146.5 244.5t-142.5 238.5q71 73 223 235t236 247h-246q-48 -46 -91.5 -89.5t-105.5 -107t-120 -121.5q-37 56 -102.5 164.5t-94.5 153.5h-246q34 -56 84 -136.5t96 -157.5t107 -186q-87 -90 -252.5 -264.5
t-208.5 -220.5z" />
    <glyph glyph-name="Y.ss07" 
d="M1092 -315q-216 0 -398.5 58t-310 160.5t-199 249.5t-71.5 320q0 165 65 325t185.5 294t279.5 236.5t360 160t414 57.5q205 0 383.5 -54.5t312 -154t210.5 -250.5t77 -333q0 -140 -46.5 -276t-130.5 -253.5t-204.5 -217.5t-263.5 -171t-314 -111t-349 -40zM1108 465
l-61 -332h208q5 32 16 91.5t42 242.5q29 35 524 629h-225q-73 -82 -196 -227.5t-177 -206.5q-155 326 -209 434h-223q9 -18 117 -248t184 -383z" />
    <glyph glyph-name="Z.ss07" 
d="M1092 -315q-216 0 -398.5 58t-310 160.5t-199 249.5t-71.5 320q0 165 65 325t185.5 294t279.5 236.5t360 160t414 57.5q205 0 383.5 -54.5t312 -154t210.5 -250.5t77 -333q0 -140 -46.5 -276t-130.5 -253.5t-204.5 -217.5t-263.5 -171t-314 -111t-349 -40zM729 313
l-27 -180h900l28 184h-641q73 59 329 266t415 332l26 181h-864l-29 -183q203 2 600 2q-117 -95 -363.5 -297t-373.5 -305z" />
    <glyph glyph-name="A.ss08" 
d="M1417 1546q205 0 383.5 -54.5t312 -154t210.5 -250.5t77 -333q0 -140 -46.5 -276t-130.5 -253.5t-204.5 -217.5t-263.5 -171t-314 -111t-349 -40q-216 0 -398.5 58t-310 160.5t-199 249.5t-71.5 320q0 165 65 325t185.5 294t279.5 236.5t360 160t414 57.5zM1116 -162
q225 0 432 73t356 194t237.5 285t88.5 339q0 202 -112 354.5t-300 231t-423 78.5q-181 0 -352 -48t-307 -133.5t-239 -197t-158.5 -245t-55.5 -271.5q0 -193 104.5 -343.5t294.5 -233.5t434 -83zM819 309l404 613h147l180 -613h-145q-9 36 -29 95t-22 65h-281
q-98 -141 -112 -160h-142zM1141 582h184q-3 9 -10.5 27.5t-12 30.5t-13.5 43t-21 75q-18 -27 -61 -85t-66 -91z" />
    <glyph glyph-name="B.ss08" 
d="M1419 1546q205 0 383.5 -54.5t312 -154t210.5 -250.5t77 -333q0 -140 -46.5 -276t-130.5 -253.5t-204.5 -217.5t-263.5 -171t-314 -111t-349 -40q-216 0 -398.5 58t-310 160.5t-199 249.5t-71.5 320q0 165 65 325t185.5 294t279.5 236.5t360 160t414 57.5zM1118 -162
q225 0 432 73t356 194t237.5 285t88.5 339q0 202 -112 354.5t-300 231t-423 78.5q-181 0 -352 -48t-307 -133.5t-239 -197t-158.5 -245t-55.5 -271.5q0 -193 104.5 -343.5t294.5 -233.5t434 -83zM1534 784q0 -51 -36 -95t-95 -66q106 -31 106 -123q0 -79 -81.5 -135
t-204.5 -56h-314l111 613h303q94 0 152.5 -37.5t58.5 -100.5zM1243 674q65 0 104 19t39 50q0 60 -116 60h-133q-3 -14 -8.5 -42t-18.5 -87h133zM1214 428q62 0 105 18t43 56q0 29 -31.5 45t-87.5 16h-149q-4 -20 -8.5 -39t-11 -46.5t-11.5 -49.5h151z" />
    <glyph glyph-name="C.ss08" 
d="M1092 -315q-216 0 -398.5 58t-310 160.5t-199 249.5t-71.5 320q0 165 65 325t185.5 294t279.5 236.5t360 160t414 57.5q205 0 383.5 -54.5t312 -154t210.5 -250.5t77 -333q0 -140 -46.5 -276t-130.5 -253.5t-204.5 -217.5t-263.5 -171t-314 -111t-349 -40zM1116 -162
q225 0 432 73t356 194t237.5 285t88.5 339q0 202 -112 354.5t-300 231t-423 78.5q-181 0 -352 -48t-307 -133.5t-239 -197t-158.5 -245t-55.5 -271.5q0 -193 104.5 -343.5t294.5 -233.5t434 -83zM1192 297q-151 0 -241.5 73t-90.5 195q0 147 128.5 257t311.5 110
q124 0 208.5 -53.5t103.5 -145.5l-131 -47q-18 62 -71 94.5t-128 32.5q-115 0 -198 -70.5t-83 -164.5q0 -83 62.5 -121.5t150.5 -38.5t157.5 38t107.5 109l120 -41q-59 -109 -164 -168t-243 -59z" />
    <glyph glyph-name="D.ss08" 
d="M1092 -315q-215 0 -397.5 58t-310 160.5t-199.5 249.5t-72 320q0 165 65 325t186 294t280 236.5t359.5 160t413.5 57.5q163 0 311.5 -34t271 -101.5t212.5 -162t140 -221.5t50 -273q0 -140 -47 -276t-131 -253.5t-205 -217.5t-264 -171t-314 -111t-349 -40zM1116 -162
q225 0 432 73t356 194t237.5 285t88.5 339q0 202 -112 354.5t-300 231t-423 78.5q-225 0 -432.5 -75t-355.5 -198t-236 -286.5t-88 -335.5q0 -193 104.5 -343.5t294.5 -233.5t434 -83zM1194 309h-295l113 613h286q147 0 226.5 -64.5t79.5 -183.5q0 -146 -116.5 -255.5
t-293.5 -109.5zM1055 428h149q114 0 186 63.5t72 157.5q0 49 -16.5 81t-48.5 47t-65.5 20.5t-80.5 5.5h-123q-9 -48 -19 -90t-21.5 -101.5t-32.5 -183.5z" />
    <glyph glyph-name="E.ss08" 
d="M1092 -315q-216 0 -398.5 58t-310 160.5t-199 249.5t-71.5 320q0 165 65 325t185.5 294t279.5 236.5t360 160t414 57.5q205 0 383.5 -54.5t312 -154t210.5 -250.5t77 -333q0 -140 -46.5 -276t-130.5 -253.5t-204.5 -217.5t-263.5 -171t-314 -111t-349 -40zM1116 -162
q225 0 432 73t356 194t237.5 285t88.5 339q0 202 -112 354.5t-300 231t-423 78.5q-181 0 -352 -48t-307 -133.5t-239 -197t-158.5 -245t-55.5 -271.5q0 -193 104.5 -343.5t294.5 -233.5t434 -83zM1442 309h-502l111 613h495l-18 -119h-361q-20 -97 -24 -121h340l-21 -123
h-340q-1 -5 -8.5 -38.5t-19.5 -92.5h368z" />
    <glyph glyph-name="F.ss08" 
d="M1092 -315q-216 0 -398.5 58t-310 160.5t-199 249.5t-71.5 320q0 165 65 325t185.5 294t279.5 236.5t360 160t414 57.5q205 0 383.5 -54.5t312 -154t210.5 -250.5t77 -333q0 -140 -46.5 -276t-130.5 -253.5t-204.5 -217.5t-263.5 -171t-314 -111t-349 -40zM1116 -162
q225 0 432 73t356 194t237.5 285t88.5 339q0 202 -112 354.5t-300 231t-423 78.5q-181 0 -352 -48t-307 -133.5t-239 -197t-158.5 -245t-55.5 -271.5q0 -193 104.5 -343.5t294.5 -233.5t434 -83zM1094 309h-138l111 613h487l-20 -121h-350l-27 -131h332l-21 -123h-331z" />
    <glyph glyph-name="G.ss08" 
d="M1417 1546q205 0 383.5 -54.5t312 -154t210.5 -250.5t77 -333q0 -140 -46.5 -276t-130.5 -253.5t-204.5 -217.5t-263.5 -171t-314 -111t-349 -40q-216 0 -398.5 58t-310 160.5t-199 249.5t-71.5 320q0 165 65 325t185.5 294t279.5 236.5t360 160t414 57.5zM1116 -162
q225 0 432 73t356 194t237.5 285t88.5 339q0 202 -112 354.5t-300 231t-423 78.5q-181 0 -352 -48t-307 -133.5t-239 -197t-158.5 -245t-55.5 -271.5q0 -193 104.5 -343.5t294.5 -233.5t434 -83zM1284 813q-117 0 -198.5 -70.5t-81.5 -164.5q0 -45 19 -77.5t51.5 -49.5
t67.5 -25t75 -8q83 0 147 29t90 79h-211l14 107h351l-56 -324h-110q7 64 12 82q-108 -94 -276 -94q-144 0 -231 73t-87 193q0 148 129.5 258.5t313.5 110.5q121 0 205.5 -54t103.5 -145l-131 -47q-42 127 -197 127z" />
    <glyph glyph-name="H.ss08" 
d="M1417 1546q205 0 383.5 -54.5t312 -154t210.5 -250.5t77 -333q0 -140 -46.5 -276t-130.5 -253.5t-204.5 -217.5t-263.5 -171t-314 -111t-349 -40q-216 0 -398.5 58t-310 160.5t-199 249.5t-71.5 320q0 165 65 325t185.5 294t279.5 236.5t360 160t414 57.5zM1116 -162
q225 0 432 73t356 194t237.5 285t88.5 339q0 202 -112 354.5t-300 231t-423 78.5q-181 0 -352 -48t-307 -133.5t-239 -197t-158.5 -245t-55.5 -271.5q0 -193 104.5 -343.5t294.5 -233.5t434 -83zM1077 674h342l45 248h135l-110 -613h-137l43 242h-340l-43 -242h-138l113 613
h135z" />
    <glyph glyph-name="I.ss08" horiz-adv-x="2459" 
d="M1094 -315q-216 0 -398.5 58t-310 160.5t-199 249.5t-71.5 320q0 165 65 325t185.5 294t279.5 236.5t360 160t414 57.5q205 0 383.5 -54.5t312 -154t210.5 -250.5t77 -333q0 -140 -46.5 -276t-130.5 -253.5t-204.5 -217.5t-263.5 -171t-314 -111t-349 -40zM1118 -162
q225 0 432 73t356 194t237.5 285t88.5 339q0 202 -112 354.5t-300 231t-423 78.5q-181 0 -352 -48t-307 -133.5t-239 -197t-158.5 -245t-55.5 -271.5q0 -193 104.5 -343.5t294.5 -233.5t434 -83zM1251 309h-135l111 613h137z" />
    <glyph glyph-name="J.ss08" 
d="M1092 -315q-216 0 -398.5 58t-310 160.5t-199 249.5t-71.5 320q0 165 65 325t185.5 294t279.5 236.5t360 160t414 57.5q205 0 383.5 -54.5t312 -154t210.5 -250.5t77 -333q0 -140 -46.5 -276t-130.5 -253.5t-204.5 -217.5t-263.5 -171t-314 -111t-349 -40zM1116 -162
q225 0 432 73t356 194t237.5 285t88.5 339q0 202 -112 354.5t-300 231t-423 78.5q-181 0 -352 -48t-307 -133.5t-239 -197t-158.5 -245t-55.5 -271.5q0 -193 104.5 -343.5t294.5 -233.5t434 -83zM1159 303q-121 0 -180.5 57t-44.5 154l4 29l137 18l-6 -31q-9 -49 17 -78.5
t83 -29.5q117 0 134 119l71 387h137l-69 -371q-4 -22 -7 -36t-13 -43.5t-21.5 -49.5t-34 -45.5t-49.5 -41.5t-68 -27t-90 -11z" />
    <glyph glyph-name="K.ss08" 
d="M1417 1546q205 0 383.5 -54.5t312 -154t210.5 -250.5t77 -333q0 -140 -46.5 -276t-130.5 -253.5t-204.5 -217.5t-263.5 -171t-314 -111t-349 -40q-216 0 -398.5 58t-310 160.5t-199 249.5t-71.5 320q0 165 65 325t185.5 294t279.5 236.5t360 160t414 57.5zM1116 -162
q225 0 432 73t356 194t237.5 285t88.5 339q0 202 -112 354.5t-300 231t-423 78.5q-181 0 -352 -48t-307 -133.5t-239 -197t-158.5 -245t-55.5 -271.5q0 -193 104.5 -343.5t294.5 -233.5t434 -83zM1464 922h164q-41 -32 -120 -90t-138 -103.5t-90 -75.5q34 -49 114 -157
t134 -187h-166q-8 10 -62.5 90t-128.5 158q-6 -4 -20.5 -13t-29.5 -20t-34 -28q-4 -23 -6 -34t-4 -19t-8.5 -43t-17.5 -91h-136l111 613h137q-31 -146 -49 -254q62 43 174.5 126t175.5 128z" />
    <glyph glyph-name="L.ss08" 
d="M1417 1546q205 0 383.5 -54.5t312 -154t210.5 -250.5t77 -333q0 -140 -46.5 -276t-130.5 -253.5t-204.5 -217.5t-263.5 -171t-314 -111t-349 -40q-216 0 -398.5 58t-310 160.5t-199 249.5t-71.5 320q0 165 65 325t185.5 294t279.5 236.5t360 160t414 57.5zM1116 -162
q225 0 432 73t356 194t237.5 285t88.5 339q0 202 -112 354.5t-300 231t-423 78.5q-181 0 -352 -48t-307 -133.5t-239 -197t-158.5 -245t-55.5 -271.5q0 -193 104.5 -343.5t294.5 -233.5t434 -83zM1114 922h137l-90 -494h336l-18 -119h-475z" />
    <glyph glyph-name="M.ss08" horiz-adv-x="2459" 
d="M1417 1546q205 0 383.5 -54.5t312 -154t210.5 -250.5t77 -333q0 -140 -46.5 -276t-130.5 -253.5t-204.5 -217.5t-263.5 -171t-314 -111t-349 -40q-216 0 -398.5 58t-310 160.5t-199 249.5t-71.5 320q0 165 65 325t185.5 294t279.5 236.5t360 160t414 57.5zM1116 -162
q225 0 432 73t356 194t237.5 285t88.5 339q0 202 -112 354.5t-300 231t-423 78.5q-181 0 -352 -48t-307 -133.5t-239 -197t-158.5 -245t-55.5 -271.5q0 -193 104.5 -343.5t294.5 -233.5t434 -83zM1212 506q25 31 113.5 138t137.5 171.5t73 106.5h162l-111 -613h-139
q10 46 21 93t22 101.5t29 168.5q-48 -63 -148 -185.5t-143 -177.5h-90q-41 104 -148 363q-3 -16 -17 -90t-54 -273h-140l113 613h160q91 -232 159 -416z" />
    <glyph glyph-name="N.ss08" 
d="M1417 1546q205 0 383.5 -54.5t312 -154t210.5 -250.5t77 -333q0 -140 -46.5 -276t-130.5 -253.5t-204.5 -217.5t-263.5 -171t-314 -111t-349 -40q-216 0 -398.5 58t-310 160.5t-199 249.5t-71.5 320q0 165 65 325t185.5 294t279.5 236.5t360 160t414 57.5zM1116 -162
q225 0 432 73t356 194t237.5 285t88.5 339q0 202 -112 354.5t-300 231t-423 78.5q-181 0 -352 -48t-307 -133.5t-239 -197t-158.5 -245t-55.5 -271.5q0 -193 104.5 -343.5t294.5 -233.5t434 -83zM1401 535q46 198 78 387h135l-111 -613h-139q-31 44 -124.5 174.5
t-145.5 206.5q-6 -25 -13.5 -52.5t-12.5 -48t-18 -90.5t-32 -190h-137l112 613h137q32 -46 91 -128t102.5 -144.5t77.5 -114.5z" />
    <glyph glyph-name="O.ss08" 
d="M1092 -315q-216 0 -398.5 58t-310 160.5t-199 249.5t-71.5 320q0 165 65 325t185.5 294t279.5 236.5t360 160t414 57.5q205 0 383.5 -54.5t312 -154t210.5 -250.5t77 -333q0 -140 -46.5 -276t-130.5 -253.5t-204.5 -217.5t-263.5 -171t-314 -111t-349 -40zM1116 -162
q225 0 432 73t356 194t237.5 285t88.5 339q0 202 -112 354.5t-300 231t-423 78.5q-181 0 -352 -48t-307 -133.5t-239 -197t-158.5 -245t-55.5 -271.5q0 -193 104.5 -343.5t294.5 -233.5t434 -83zM1180 297q-143 0 -234.5 75t-91.5 193q0 94 59 178.5t162 136.5t223 52
q143 0 235.5 -75t92.5 -193q0 -146 -132.5 -256.5t-313.5 -110.5zM1202 418q111 0 195 69.5t84 161.5q0 72 -56.5 118t-144.5 46q-112 0 -196.5 -70.5t-84.5 -162.5q0 -71 57 -116.5t146 -45.5z" />
    <glyph glyph-name="P.ss08" horiz-adv-x="2459" 
d="M1417 1546q205 0 383.5 -54.5t312 -154t210.5 -250.5t77 -333q0 -140 -46.5 -276t-130.5 -253.5t-204.5 -217.5t-263.5 -171t-314 -111t-349 -40q-216 0 -398.5 58t-310 160.5t-199 249.5t-71.5 320q0 165 65 325t185.5 294t279.5 236.5t360 160t414 57.5zM1116 -162
q225 0 432 73t356 194t237.5 285t88.5 339q0 202 -112 354.5t-300 231t-423 78.5q-181 0 -352 -48t-307 -133.5t-239 -197t-158.5 -245t-55.5 -271.5q0 -193 104.5 -343.5t294.5 -233.5t434 -83zM1059 922h284q28 0 53 -2.5t59.5 -12.5t58.5 -27t41.5 -49.5t17.5 -76.5
q0 -97 -85.5 -165.5t-209.5 -68.5h-158l-37 -211h-137zM1143 643h129q65 0 109 22.5t44 67.5q0 70 -120 70h-131z" />
    <glyph glyph-name="Q.ss08" 
d="M1092 -315q-216 0 -398.5 58t-310 160.5t-199 249.5t-71.5 320q0 165 65 325t185.5 294t279.5 236.5t360 160t414 57.5q205 0 383.5 -54.5t312 -154t210.5 -250.5t77 -333q0 -140 -46.5 -276t-130.5 -253.5t-204.5 -217.5t-263.5 -171t-314 -111t-349 -40zM1116 -162
q225 0 432 73t356 194t237.5 285t88.5 339q0 202 -112 354.5t-300 231t-423 78.5q-181 0 -352 -48t-307 -133.5t-239 -197t-158.5 -245t-55.5 -271.5q0 -193 104.5 -343.5t294.5 -233.5t434 -83zM1544 334l-108 -76q-7 8 -37.5 40.5t-50.5 57.5q-80 -24 -168 -24
q-147 0 -239.5 75.5t-92.5 194.5q0 145 132 256t316 111q146 0 239 -75t93 -192q0 -77 -43 -151.5t-119 -128.5q6 -7 35.5 -38.5t42.5 -49.5zM1200 453q35 0 68 10q-8 8 -35.5 34t-40.5 40l106 77q11 -11 27 -26t31.5 -30.5t36.5 -39.5q44 33 70 77.5t26 90.5
q0 72 -57.5 117t-151.5 45q-119 0 -205 -68t-86 -162q0 -76 57 -120.5t154 -44.5z" />
    <glyph glyph-name="R.ss08" 
d="M1417 1546q205 0 383.5 -54.5t312 -154t210.5 -250.5t77 -333q0 -140 -46.5 -276t-130.5 -253.5t-204.5 -217.5t-263.5 -171t-314 -111t-349 -40q-216 0 -398.5 58t-310 160.5t-199 249.5t-71.5 320q0 165 65 325t185.5 294t279.5 236.5t360 160t414 57.5zM1116 -162
q225 0 432 73t356 194t237.5 285t88.5 339q0 202 -112 354.5t-300 231t-423 78.5q-181 0 -352 -48t-307 -133.5t-239 -197t-158.5 -245t-55.5 -271.5q0 -193 104.5 -343.5t294.5 -233.5t434 -83zM1569 754q0 -74 -56.5 -134.5t-146.5 -82.5q124 -191 147 -228h-155l-139 213
h-99q-4 -20 -11 -58t-28 -155h-137l111 613h286q25 0 49.5 -2.5t58.5 -12.5t59 -27t43 -49.5t18 -76.5zM1268 637q69 0 112 27t43 67q0 72 -120 72h-132q-21 -116 -32 -166h129z" />
    <glyph glyph-name="S.ss08" 
d="M1092 -315q-216 0 -398.5 58t-310 160.5t-199 249.5t-71.5 320q0 165 65 325t185.5 294t279.5 236.5t360 160t414 57.5q205 0 383.5 -54.5t312 -154t210.5 -250.5t77 -333q0 -140 -46.5 -276t-130.5 -253.5t-204.5 -217.5t-263.5 -171t-314 -111t-349 -40zM1116 -162
q225 0 432 73t356 194t237.5 285t88.5 339q0 202 -112 354.5t-300 231t-423 78.5q-181 0 -352 -48t-307 -133.5t-239 -197t-158.5 -245t-55.5 -271.5q0 -193 104.5 -343.5t294.5 -233.5t434 -83zM1194 297q-112 0 -183.5 50t-80.5 138l133 41q7 -52 46.5 -81t102.5 -29
q60 0 100 21t40 52q0 9 -2.5 15.5t-9.5 12t-13 9.5t-18.5 8t-19.5 6t-23 5.5t-23 5.5l-65 18q-174 41 -174 158q0 84 84 144.5t204 60.5q98 0 166.5 -42t75.5 -108l-133 -49q-19 80 -127 80q-51 0 -85 -17.5t-34 -45.5q0 -14 9.5 -25t30.5 -19.5t32.5 -12.5t36.5 -11l71 -20
q20 -5 25.5 -6.5t26.5 -8t30 -11.5t26.5 -14t26 -19t18.5 -23t14.5 -30t4.5 -36q0 -88 -91.5 -152.5t-221.5 -64.5z" />
    <glyph glyph-name="T.ss08" 
d="M1092 -315q-215 0 -397.5 58t-310 160.5t-199.5 249.5t-72 320q0 165 65 325t186 294t280 236.5t359.5 160t413.5 57.5q163 0 311.5 -34t271 -101.5t212.5 -162t140 -221.5t50 -273q0 -140 -47 -276t-131 -253.5t-205 -217.5t-264 -171t-314 -111t-349 -40zM1116 -162
q225 0 432 73t356 194t237.5 285t88.5 339q0 202 -112 354.5t-300 231t-423 78.5q-225 0 -432.5 -75t-355.5 -198t-236 -286.5t-88 -335.5q0 -193 104.5 -343.5t294.5 -233.5t434 -83zM1247 309h-135q13 74 92 494h-227l18 119h594l-20 -119h-228q-11 -52 -23.5 -111.5
t-25 -125t-45.5 -257.5z" />
    <glyph glyph-name="U.ss08" horiz-adv-x="2459" 
d="M1092 -315q-216 0 -398.5 58t-310 160.5t-199 249.5t-71.5 320q0 165 65 325t185.5 294t279.5 236.5t360 160t414 57.5q205 0 383.5 -54.5t312 -154t210.5 -250.5t77 -333q0 -140 -46.5 -276t-130.5 -253.5t-204.5 -217.5t-263.5 -171t-314 -111t-349 -40zM1116 -162
q225 0 432 73t356 194t237.5 285t88.5 339q0 202 -112 354.5t-300 231t-423 78.5q-181 0 -352 -48t-307 -133.5t-239 -197t-158.5 -245t-55.5 -271.5q0 -193 104.5 -343.5t294.5 -233.5t434 -83zM1178 303q-56 0 -99 11.5t-69.5 32t-43.5 45t-23 54t-6 56t5 53.5l68 373h137
l-70 -363q-23 -143 123 -143t174 143l68 363h137l-70 -373q-7 -34 -19.5 -66t-38.5 -66.5t-61 -60.5t-90 -42.5t-122 -16.5z" />
    <glyph glyph-name="V.ss08" 
d="M1417 1546q205 0 383.5 -54.5t312 -154t210.5 -250.5t77 -333q0 -140 -46.5 -276t-130.5 -253.5t-204.5 -217.5t-263.5 -171t-314 -111t-349 -40q-216 0 -398.5 58t-310 160.5t-199 249.5t-71.5 320q0 165 65 325t185.5 294t279.5 236.5t360 160t414 57.5zM1116 -162
q225 0 432 73t356 194t237.5 285t88.5 339q0 202 -112 354.5t-300 231t-423 78.5q-181 0 -352 -48t-307 -133.5t-239 -197t-158.5 -245t-55.5 -271.5q0 -193 104.5 -343.5t294.5 -233.5t434 -83zM1221 467q214 372 305 455h143l-401 -613h-150l-180 613h143q9 -16 32 -93
t55.5 -188.5t52.5 -173.5z" />
    <glyph glyph-name="W.ss08" 
d="M1417 1546q205 0 383.5 -54.5t312 -154t210.5 -250.5t77 -333q0 -140 -46.5 -276t-130.5 -253.5t-204.5 -217.5t-263.5 -171t-314 -111t-349 -40q-216 0 -398.5 58t-310 160.5t-199 249.5t-71.5 320q0 165 65 325t185.5 294t279.5 236.5t360 160t414 57.5zM1116 -162
q225 0 432 73t356 194t237.5 285t88.5 339q0 202 -112 354.5t-300 231t-423 78.5q-181 0 -352 -48t-307 -133.5t-239 -197t-158.5 -245t-55.5 -271.5q0 -193 104.5 -343.5t294.5 -233.5t434 -83zM1450 496q162 288 236 426h151l-338 -613h-156q-42 190 -81 402
q-15 -27 -48.5 -86t-48.5 -84.5t-41 -70t-50.5 -82t-53.5 -79.5h-160l-110 613h151q6 -33 32 -184.5t40 -239.5q36 61 119.5 206t128.5 218h145q15 -79 43 -218.5t41 -207.5z" />
    <glyph glyph-name="X.ss08" horiz-adv-x="2455" 
d="M1417 1546q205 0 383.5 -54.5t312 -154t210.5 -250.5t77 -333q0 -140 -46.5 -276t-130.5 -253.5t-204.5 -217.5t-263.5 -171t-314 -111t-349 -40q-216 0 -398.5 58t-310 160.5t-199 249.5t-71.5 320q0 165 65 325t185.5 294t279.5 236.5t360 160t414 57.5zM1116 -162
q225 0 432 73t356 194t237.5 285t88.5 339q0 202 -112 354.5t-300 231t-423 78.5q-181 0 -352 -48t-307 -133.5t-239 -197t-158.5 -245t-55.5 -271.5q0 -193 104.5 -343.5t294.5 -233.5t434 -83zM1468 922h160q-38 -38 -80.5 -90.5t-91 -102.5t-129.5 -115q35 -55 97.5 -157
t91.5 -148h-162l-127 201q-38 -36 -101.5 -98.5t-105.5 -102.5h-164q56 54 147 149.5t156 157.5q-24 38 -186 306h157q25 -35 130 -203q24 23 58 59.5t68.5 70.5t81.5 73z" />
    <glyph glyph-name="Y.ss08" 
d="M1417 1546q205 0 383.5 -54.5t312 -154t210.5 -250.5t77 -333q0 -140 -46.5 -276t-130.5 -253.5t-204.5 -217.5t-263.5 -171t-314 -111t-349 -40q-216 0 -398.5 58t-310 160.5t-199 249.5t-71.5 320q0 165 65 325t185.5 294t279.5 236.5t360 160t414 57.5zM1116 -162
q225 0 432 73t356 194t237.5 285t88.5 339q0 202 -112 354.5t-300 231t-423 78.5q-181 0 -352 -48t-307 -133.5t-239 -197t-158.5 -245t-55.5 -271.5q0 -193 104.5 -343.5t294.5 -233.5t434 -83zM1239 643q26 30 70.5 92.5t85.5 109t88 77.5h145q-40 -48 -92 -121t-107 -137
t-143 -142q-34 -187 -39 -213h-137q6 31 18 94t23 117q-14 27 -71 160.5t-126 241.5h150q19 -37 66 -139t69 -140z" />
    <glyph glyph-name="Z.ss08" horiz-adv-x="2455" 
d="M1417 1546q205 0 383.5 -54.5t312 -154t210.5 -250.5t77 -333q0 -140 -46.5 -276t-130.5 -253.5t-204.5 -217.5t-263.5 -171t-314 -111t-349 -40q-216 0 -398.5 58t-310 160.5t-199 249.5t-71.5 320q0 165 65 325t185.5 294t279.5 236.5t360 160t414 57.5zM1116 -162
q225 0 432 73t356 194t237.5 285t88.5 339q0 202 -112 354.5t-300 231t-423 78.5q-181 0 -352 -48t-307 -133.5t-239 -197t-158.5 -245t-55.5 -271.5q0 -193 104.5 -343.5t294.5 -233.5t434 -83zM999 803l17 119h567l-18 -117q-47 -36 -144.5 -115t-335.5 -262h412l-18 -119
h-586l16 115q95 76 246.5 196t230.5 183h-387z" />
    <glyph glyph-name="i.loclTRK" horiz-adv-x="659" 
d="M465 1298q-72 0 -120 44t-48 110q0 82 67 142.5t158 60.5q72 0 119 -42.5t47 -107.5q0 -82 -67 -144.5t-156 -62.5zM379 0h-299l203 1143h299z" />
    <glyph glyph-name="a.ss01" horiz-adv-x="1638" 
d="M606 -33q-245 0 -386.5 135t-141.5 355q0 139 58.5 271t156.5 230.5t236 158t288 59.5q146 0 254 -52.5t156 -134.5h4l33 154h297l-201 -1143h-287l31 145h-6q-90 -91 -221 -134.5t-271 -43.5zM713 240q186 0 320 118.5t134 276.5q0 121 -90 194.5t-235 73.5
q-95 0 -180 -33.5t-143 -88.5t-92 -126t-34 -145q0 -123 87.5 -196.5t232.5 -73.5z" />
    <glyph glyph-name="aacute.ss01" horiz-adv-x="1638" 
d="M1503 1657l-438 -379h-260l338 379h360zM606 -33q-245 0 -386.5 135t-141.5 355q0 139 58.5 271t156.5 230.5t236 158t288 59.5q146 0 254 -52.5t156 -134.5h4l33 154h297l-201 -1143h-287l31 145h-6q-90 -91 -221 -134.5t-271 -43.5zM713 240q186 0 320 118.5t134 276.5
q0 121 -90 194.5t-235 73.5q-95 0 -180 -33.5t-143 -88.5t-92 -126t-34 -145q0 -123 87.5 -196.5t232.5 -73.5z" />
    <glyph glyph-name="abreve.ss01" horiz-adv-x="1638" 
d="M952 1268q-207 0 -312 109t-81 286h248q-16 -78 32.5 -134t149.5 -56q98 0 168 56t90 134h248q-39 -184 -189 -289.5t-354 -105.5zM606 -33q-245 0 -386.5 135t-141.5 355q0 139 58.5 271t156.5 230.5t236 158t288 59.5q146 0 254 -52.5t156 -134.5h4l33 154h297
l-201 -1143h-287l31 145h-6q-90 -91 -221 -134.5t-271 -43.5zM713 240q186 0 320 118.5t134 276.5q0 121 -90 194.5t-235 73.5q-95 0 -180 -33.5t-143 -88.5t-92 -126t-34 -145q0 -123 87.5 -196.5t232.5 -73.5z" />
    <glyph glyph-name="acircumflex.ss01" horiz-adv-x="1638" 
d="M723 1278h-283l420 371h316l292 -371h-282q-13 15 -68.5 62t-122.5 135q-34 -26 -70.5 -47t-81.5 -53t-120 -97zM606 -33q-245 0 -386.5 135t-141.5 355q0 139 58.5 271t156.5 230.5t236 158t288 59.5q146 0 254 -52.5t156 -134.5h4l33 154h297l-201 -1143h-287l31 145
h-6q-90 -91 -221 -134.5t-271 -43.5zM713 240q186 0 320 118.5t134 276.5q0 121 -90 194.5t-235 73.5q-95 0 -180 -33.5t-143 -88.5t-92 -126t-34 -145q0 -123 87.5 -196.5t232.5 -73.5z" />
    <glyph glyph-name="adieresis.ss01" horiz-adv-x="1638" 
d="M698 1300q-66 0 -109.5 41t-43.5 101q0 71 62 126.5t143 55.5q66 0 109.5 -39t43.5 -98q0 -71 -62 -129t-143 -58zM1227 1300q-67 0 -110.5 40.5t-43.5 101.5q0 74 61.5 128t141.5 54q66 0 110 -39t44 -98q0 -72 -61 -129.5t-142 -57.5zM606 -33q-245 0 -386.5 135
t-141.5 355q0 139 58.5 271t156.5 230.5t236 158t288 59.5q146 0 254 -52.5t156 -134.5h4l33 154h297l-201 -1143h-287l31 145h-6q-90 -91 -221 -134.5t-271 -43.5zM713 240q186 0 320 118.5t134 276.5q0 121 -90 194.5t-235 73.5q-95 0 -180 -33.5t-143 -88.5t-92 -126
t-34 -145q0 -123 87.5 -196.5t232.5 -73.5z" />
    <glyph glyph-name="agrave.ss01" horiz-adv-x="1638" 
d="M1096 1278h-260l-306 379h361zM606 -33q-245 0 -386.5 135t-141.5 355q0 139 58.5 271t156.5 230.5t236 158t288 59.5q146 0 254 -52.5t156 -134.5h4l33 154h297l-201 -1143h-287l31 145h-6q-90 -91 -221 -134.5t-271 -43.5zM713 240q186 0 320 118.5t134 276.5
q0 121 -90 194.5t-235 73.5q-95 0 -180 -33.5t-143 -88.5t-92 -126t-34 -145q0 -123 87.5 -196.5t232.5 -73.5z" />
    <glyph glyph-name="amacron.ss01" horiz-adv-x="1638" 
d="M1382 1331h-825l31 203h825zM606 -33q-245 0 -386.5 135t-141.5 355q0 139 58.5 271t156.5 230.5t236 158t288 59.5q146 0 254 -52.5t156 -134.5h4l33 154h297l-201 -1143h-287l31 145h-6q-90 -91 -221 -134.5t-271 -43.5zM713 240q186 0 320 118.5t134 276.5
q0 121 -90 194.5t-235 73.5q-95 0 -180 -33.5t-143 -88.5t-92 -126t-34 -145q0 -123 87.5 -196.5t232.5 -73.5z" />
    <glyph glyph-name="aogonek.ss01" horiz-adv-x="1638" 
d="M1360 0h-84q-102 -20 -164.5 -70.5t-62.5 -105.5q0 -40 41.5 -67t107.5 -27q62 0 117 16l-31 -195q-63 -14 -135 -14q-150 0 -236 55t-86 150q0 86 73 156.5t177 101.5h-4l31 145h-6q-90 -91 -221 -134.5t-271 -43.5q-245 0 -386.5 135t-141.5 355q0 139 58.5 271
t156.5 230.5t236 158t288 59.5q146 0 254 -52.5t156 -134.5h4l33 154h297zM713 240q186 0 320 118.5t134 276.5q0 121 -90 194.5t-235 73.5q-95 0 -180 -33.5t-143 -88.5t-92 -126t-34 -145q0 -123 87.5 -196.5t232.5 -73.5z" />
    <glyph glyph-name="aring.ss01" horiz-adv-x="1638" 
d="M950 1255q-114 0 -189 61.5t-75 156.5q0 111 102.5 195.5t245.5 84.5q116 0 189 -60.5t73 -154.5q0 -112 -101.5 -197.5t-244.5 -85.5zM975 1413q55 0 96 32.5t41 72.5q0 32 -30 53.5t-74 21.5q-56 0 -97 -31t-41 -73q0 -34 29.5 -55t75.5 -21zM606 -33
q-245 0 -386.5 135t-141.5 355q0 139 58.5 271t156.5 230.5t236 158t288 59.5q146 0 254 -52.5t156 -134.5h4l33 154h297l-201 -1143h-287l31 145h-6q-90 -91 -221 -134.5t-271 -43.5zM713 240q186 0 320 118.5t134 276.5q0 121 -90 194.5t-235 73.5q-95 0 -180 -33.5
t-143 -88.5t-92 -126t-34 -145q0 -123 87.5 -196.5t232.5 -73.5z" />
    <glyph glyph-name="atilde.ss01" horiz-adv-x="1638" 
d="M1151 1280q-98 0 -166 45l-59 39q-50 35 -97 35q-44 0 -75.5 -29t-40.5 -72h-215q24 144 124 231t230 87q95 0 170 -49l55 -35q36 -27 86 -27q39 0 67 27t36 70h217q-25 -154 -112.5 -238t-219.5 -84zM606 -33q-245 0 -386.5 135t-141.5 355q0 139 58.5 271t156.5 230.5
t236 158t288 59.5q146 0 254 -52.5t156 -134.5h4l33 154h297l-201 -1143h-287l31 145h-6q-90 -91 -221 -134.5t-271 -43.5zM713 240q186 0 320 118.5t134 276.5q0 121 -90 194.5t-235 73.5q-95 0 -180 -33.5t-143 -88.5t-92 -126t-34 -145q0 -123 87.5 -196.5t232.5 -73.5z
" />
    <glyph glyph-name="b.ss01" horiz-adv-x="1394" 
d="M733 -35q-265 0 -342 162h-6l-25 -127h-280l289 1638h299l-172 -964h4q62 52 162 80t208 28q199 0 323 -97.5t124 -254.5q0 -90 -45 -175t-122 -149t-186.5 -102.5t-230.5 -38.5zM717 203q120 0 205.5 60t85.5 143q0 66 -57 105.5t-154 39.5q-122 0 -208.5 -59.5
t-86.5 -139.5q0 -65 59.5 -107t155.5 -42z" />
    <glyph glyph-name="d.ss01" horiz-adv-x="1632" 
d="M608 -33q-245 0 -387.5 131.5t-142.5 356.5q0 141 58.5 273.5t157 231t235.5 158.5t286 60q145 0 250 -52.5t154 -134.5h6l118 647h299l-288 -1638h-281l31 145h-6q-92 -92 -222 -135t-268 -43zM713 240q184 0 319 118t135 275q0 124 -90.5 197t-234.5 73
q-95 0 -180 -33.5t-143 -88.5t-92 -126t-34 -145q0 -123 87.5 -196.5t232.5 -73.5z" />
    <glyph glyph-name="dcaron.ss01" horiz-adv-x="1679" 
d="M1790 1094h-176l235 288q-47 19 -73.5 55.5t-26.5 82.5q0 83 69 144.5t160 61.5q72 0 120 -43.5t48 -109.5q0 -64 -63 -146t-293 -333zM623 -33q-244 0 -387.5 132t-143.5 356q0 141 59 273.5t157.5 231t236 158.5t286.5 60q144 0 248.5 -52.5t155.5 -134.5h4l121 647
h299l-289 -1638h-280l28 145h-4q-92 -92 -222 -135t-269 -43zM729 240q184 0 319.5 118t135.5 275q0 124 -91 197t-235 73q-127 0 -231 -57t-160.5 -146.5t-56.5 -189.5q0 -123 87 -196.5t232 -73.5z" />
    <glyph glyph-name="dcroat.ss01" horiz-adv-x="1632" 
d="M1614 1481h315l-31 -215h-321l-223 -1266h-281l31 145h-6q-92 -92 -222 -135t-268 -43q-245 0 -387.5 131.5t-142.5 356.5q0 141 58.5 273.5t157 231t235.5 158.5t286 60q145 0 250 -52.5t154 -134.5h6l51 275h-315l34 215h320l28 157h299zM713 240q184 0 319 118
t135 275q0 124 -90.5 197t-234.5 73q-95 0 -180 -33.5t-143 -88.5t-92 -126t-34 -145q0 -123 87.5 -196.5t232.5 -73.5z" />
    <glyph glyph-name="g.ss01" horiz-adv-x="1636" 
d="M1276 -451h-1235l39 263h936l74 364h-5q-165 -170 -464 -170q-253 0 -396 133t-143 346q0 132 57.5 258t154.5 221.5t234 153.5t287 58q148 0 254.5 -52t155.5 -135h6l31 154h294zM717 281q183 0 318.5 109t135.5 251q0 115 -91 188.5t-234 73.5q-120 0 -223.5 -50
t-163.5 -133t-60 -177q0 -116 88 -189t230 -73z" />
    <glyph glyph-name="gbreve.ss01" horiz-adv-x="1636" 
d="M952 1268q-207 0 -312 109t-81 286h248q-16 -78 32.5 -134t149.5 -56q98 0 168 56t90 134h248q-39 -184 -189 -289.5t-354 -105.5zM1276 -451h-1235l39 263h936l74 364h-5q-165 -170 -464 -170q-253 0 -396 133t-143 346q0 132 57.5 258t154.5 221.5t234 153.5t287 58
q148 0 254.5 -52t155.5 -135h6l31 154h294zM717 281q183 0 318.5 109t135.5 251q0 115 -91 188.5t-234 73.5q-120 0 -223.5 -50t-163.5 -133t-60 -177q0 -116 88 -189t230 -73z" />
    <glyph glyph-name="uni0123.ss01" horiz-adv-x="1636" 
d="M788 1411q0 12 2.5 24.5t6.5 24t13 27.5t17.5 29t25.5 35t31 39t40 47.5t46.5 54t56.5 65t65 74.5h170l-203 -250q86 -42 86 -127q0 -72 -62.5 -125t-144.5 -53q-66 0 -108 37.5t-42 97.5zM1276 -451h-1235l39 263h936l74 364h-5q-165 -170 -464 -170q-253 0 -396 133
t-143 346q0 132 57.5 258t154.5 221.5t234 153.5t287 58q148 0 254.5 -52t155.5 -135h6l31 154h294zM717 281q183 0 318.5 109t135.5 251q0 115 -91 188.5t-234 73.5q-120 0 -223.5 -50t-163.5 -133t-60 -177q0 -116 88 -189t230 -73z" />
    <glyph glyph-name="gdotaccent.ss01" horiz-adv-x="1636" 
d="M967 1315q-72 0 -120 43.5t-48 109.5q0 82 67 142.5t158 60.5q72 0 119 -42t47 -107q0 -82 -67 -144.5t-156 -62.5zM1276 -451h-1235l39 263h936l74 364h-5q-165 -170 -464 -170q-253 0 -396 133t-143 346q0 132 57.5 258t154.5 221.5t234 153.5t287 58q148 0 254.5 -52
t155.5 -135h6l31 154h294zM717 281q183 0 318.5 109t135.5 251q0 115 -91 188.5t-234 73.5q-120 0 -223.5 -50t-163.5 -133t-60 -177q0 -116 88 -189t230 -73z" />
    <glyph glyph-name="i.ss01" horiz-adv-x="917" 
d="M586 1298q-73 0 -120.5 44t-47.5 110q0 81 67.5 142t155.5 61q72 0 120 -43t48 -107q0 -82 -67 -144.5t-156 -62.5zM776 0h-555l162 881h-297l39 262h596l-160 -881h256z" />
    <glyph glyph-name="dotlessi.ss01" horiz-adv-x="917" 
d="M776 0h-555l162 881h-297l39 262h596l-160 -881h256z" />
    <glyph glyph-name="iacute.ss01" horiz-adv-x="917" 
d="M1102 1657l-438 -379h-261l338 379h361zM776 0h-555l162 881h-297l39 262h596l-160 -881h256z" />
    <glyph glyph-name="icircumflex.ss01" horiz-adv-x="917" 
d="M324 1278h-283l420 371h315l293 -371h-283q-22 24 -47.5 44.5t-58.5 53.5t-84 99q-34 -26 -70.5 -47t-81.5 -53t-120 -97zM776 0h-555l162 881h-297l39 262h596l-160 -881h256z" />
    <glyph glyph-name="idieresis.ss01" horiz-adv-x="917" 
d="M299 1300q-66 0 -110 41t-44 101q0 71 62 126.5t143 55.5q66 0 110 -39t44 -98q0 -71 -62 -129t-143 -58zM827 1300q-67 0 -110 40.5t-43 101.5q0 74 61.5 128t141.5 54q66 0 109.5 -39t43.5 -98q0 -72 -61 -129.5t-142 -57.5zM776 0h-555l162 881h-297l39 262h596
l-160 -881h256z" />
    <glyph glyph-name="i.loclTRK.ss01" horiz-adv-x="917" 
d="M580 1315q-72 0 -120 43.5t-48 109.5q0 82 67 142.5t158 60.5q72 0 119 -42.5t47 -108.5q0 -80 -67 -142.5t-156 -62.5zM776 0h-555l162 881h-297l39 262h596l-160 -881h256z" />
    <glyph glyph-name="igrave.ss01" horiz-adv-x="917" 
d="M696 1278h-260l-305 379h361zM776 0h-555l162 881h-297l39 262h596l-160 -881h256z" />
    <glyph glyph-name="imacron.ss01" horiz-adv-x="917" 
d="M983 1331h-825l30 203h826zM776 0h-555l162 881h-297l39 262h596l-160 -881h256z" />
    <glyph glyph-name="iogonek.ss01" horiz-adv-x="917" 
d="M565 1315q-72 0 -120 43.5t-48 109.5q0 82 67.5 142.5t158.5 60.5q72 0 118.5 -42t46.5 -107q0 -82 -67 -144.5t-156 -62.5zM776 0h-370q-94 -23 -150.5 -72t-56.5 -100q0 -40 41.5 -67t107.5 -27q62 0 117 16l-31 -194q-67 -15 -135 -15q-150 0 -236 55t-86 150
q0 85 71.5 155t172.5 101l162 879h-297l39 262h596l-160 -881h256z" />
    <glyph glyph-name="j.ss01" horiz-adv-x="841" 
d="M629 1298q-73 0 -120.5 44t-47.5 110q0 82 67 142.5t156 60.5q72 0 119 -42.5t47 -107.5q0 -82 -66 -144.5t-155 -62.5zM483 -451h-800l38 263h500l203 1069h-344l39 262h645z" />
    <glyph glyph-name="l.ss01" horiz-adv-x="929" 
d="M821 0h-737l289 1638h299l-250 -1376h438z" />
    <glyph glyph-name="lacute.ss01" horiz-adv-x="929" 
d="M1212 2122l-454 -361h-273l349 361h378zM821 0h-737l289 1638h299l-250 -1376h438z" />
    <glyph glyph-name="lcaron.ss01" horiz-adv-x="929" 
d="M918 1030h-177l238 289q-49 19 -75.5 55t-26.5 82q0 83 70 145t161 62q72 0 120 -44t48 -110q0 -64 -63.5 -146.5t-294.5 -332.5zM821 0h-737l289 1638h299l-250 -1376h438z" />
    <glyph glyph-name="uni013C.ss01" horiz-adv-x="929" 
d="M821 0h-737l289 1638h299l-250 -1376h438zM195 -649h-160l188 237q-94 39 -94 127q0 69 60 122.5t143 53.5q67 0 109 -37t42 -98q0 -18 -4 -34t-16 -37.5t-24.5 -39.5t-40 -52t-51 -61.5t-69 -81.5t-83.5 -99z" />
    <glyph glyph-name="lslash.ss01" horiz-adv-x="929" 
d="M537 893l-115 -631h438l-39 -262h-737l125 707l-240 -136l37 248l248 142l119 677h299l-90 -491l270 153l-35 -247z" />
    <glyph glyph-name="m.ss01" horiz-adv-x="2402" 
d="M379 0h-299l203 1143h299l-68 -336l594 336h346l-68 -336l592 336h349l-203 -1143h-299l157 846h-14l-631 -359l-86 -487h-299l158 846h-14l-631 -361z" />
    <glyph glyph-name="n.ss01" horiz-adv-x="1562" 
d="M508 725l704 418h273l-201 -1143h-299l152 801h-15l-659 -334l-84 -467h-299l203 1143h299z" />
    <glyph glyph-name="nacute.ss01" horiz-adv-x="1562" 
d="M1096 1657h360l-438 -379h-260zM508 725l704 418h273l-201 -1143h-299l152 801h-15l-659 -334l-84 -467h-299l203 1143h299z" />
    <glyph glyph-name="ncaron.ss01" horiz-adv-x="1562" 
d="M1489 1681l-422 -387h-317l-289 387h282q26 -26 54 -48t58 -52.5t83 -97.5q34 28 67.5 47.5t80 52.5t120.5 98h283zM582 1143l-74 -418l704 418h273l-201 -1143h-299l152 801h-15l-659 -334l-84 -467h-299l203 1143h299z" />
    <glyph glyph-name="uni0146.ss01" horiz-adv-x="1562" 
d="M508 725l704 418h273l-201 -1143h-299l152 801h-15l-659 -334l-84 -467h-299l203 1143h299zM700 -109q67 0 109.5 -37t42.5 -98q0 -18 -4 -34t-16 -37.5t-24.5 -39.5t-40 -52t-51.5 -61.5t-69.5 -81t-83.5 -99.5h-160l189 237q-94 39 -94 127q0 69 59.5 122.5t142.5 53.5
z" />
    <glyph glyph-name="eng.ss01" horiz-adv-x="1562" 
d="M766 -483q-148 0 -262 43l37 247q101 -34 200 -34q48 0 85.5 8.5t62 25.5t41 34t27 43.5t15 43.5t9.5 45l156 828h-15l-659 -334l-84 -467h-299l203 1143h299l-76 -387l706 387h273l-203 -1157q-28 -150 -60 -222q-95 -212 -359 -242q-46 -5 -97 -5z" />
    <glyph glyph-name="ntilde.ss01" horiz-adv-x="1562" 
d="M782 1399q-44 0 -75.5 -29t-40.5 -72h-215q24 144 124 231t230 87q95 0 170 -49l55 -35q36 -27 86 -27q39 0 67 27t36 70h217q-25 -154 -112.5 -238t-219.5 -84q-98 0 -166 45l-59 39q-50 35 -97 35zM508 725l704 418h273l-201 -1143h-299l152 801h-15l-659 -334
l-84 -467h-299l203 1143h299z" />
    <glyph glyph-name="p.ss01" horiz-adv-x="1632" 
d="M299 -451h-299l283 1594h292l-34 -170h6q212 203 502 203q232 0 369.5 -131.5t137.5 -354.5q0 -141 -58.5 -274t-156.5 -232t-236 -159t-288 -60q-147 0 -252 53t-155 134zM793 240q186 0 317 118t131 271q0 124 -86.5 198t-228.5 74q-93 0 -178.5 -32t-146.5 -85.5
t-97.5 -124.5t-36.5 -147q0 -122 90.5 -197t235.5 -75z" />
    <glyph glyph-name="q.ss01" horiz-adv-x="1634" 
d="M1276 -451h-299l110 619q-98 -100 -227.5 -151.5t-271.5 -51.5q-232 0 -371 135.5t-139 362.5q0 139 57.5 269.5t154.5 228t235 156.5t290 59q147 0 253.5 -52t156.5 -135h4l31 154h294zM709 240q189 0 324.5 117t135.5 272q0 124 -90 199t-235 75q-186 0 -318.5 -116
t-132.5 -271q0 -124 86.5 -200t229.5 -76z" />
    <glyph glyph-name="r.ss01" horiz-adv-x="1019" 
d="M379 0h-299l203 1143h811l-39 -262h-514z" />
    <glyph glyph-name="racute.ss01" horiz-adv-x="1019" 
d="M1204 1657l-438 -379h-260l338 379h360zM379 0h-299l203 1143h811l-39 -262h-514z" />
    <glyph glyph-name="rcaron.ss01" horiz-adv-x="1019" 
d="M815 1294h-317l-289 387h283q26 -26 54 -48t57.5 -52.5t82.5 -97.5q34 28 67.5 47.5t80 52.5t120.5 98h283zM379 0h-299l203 1143h811l-39 -262h-514z" />
    <glyph glyph-name="uni0157.ss01" horiz-adv-x="1019" 
d="M379 0h-299l203 1143h811l-39 -262h-514zM90 -649h-160l189 237q-94 39 -94 127q0 69 59.5 122.5t142.5 53.5q67 0 109.5 -37t42.5 -98q0 -18 -4 -34t-16 -37.5t-24.5 -39.5t-40 -52t-51.5 -61.5t-69.5 -81t-83.5 -99.5z" />
    <glyph glyph-name="s.ss01" horiz-adv-x="1222" 
d="M991 0h-960l39 262h667l45 209h-665l114 672h963l-41 -262h-668l-45 -203h670z" />
    <glyph glyph-name="sacute.ss01" horiz-adv-x="1222" 
d="M1280 1657l-438 -379h-260l338 379h360zM991 0h-960l39 262h667l45 209h-665l114 672h963l-41 -262h-668l-45 -203h670z" />
    <glyph glyph-name="scaron.ss01" horiz-adv-x="1222" 
d="M893 1294h-318l-288 387h282q26 -26 54 -48t58 -52.5t83 -97.5q34 28 67.5 47.5t80 52.5t120.5 98h283zM991 0h-960l39 262h667l45 209h-665l114 672h963l-41 -262h-668l-45 -203h670z" />
    </font>
</defs>
</svg>
