<?xml version="1.0" standalone="no"?>
<!DOCTYPE svg PUBLIC "-//W3C//DTD SVG 1.1//EN" "http://www.w3.org/Graphics/SVG/1.1/DTD/svg11.dtd" >
<svg xmlns="http://www.w3.org/2000/svg" xmlns:xlink="http://www.w3.org/1999/xlink" version="1.1">
<metadata>
Created by FontForge 20170731 at Mon Mar 15 14:21:05 2021
 By Aleksey,,,
Copyright (c) 2020 by Matthieu Salvaggio x Blaze Type. All rights reserved.
</metadata>
<defs>
<font id="Area-BoldExtended" horiz-adv-x="2457" >
  <font-face 
    font-family="Area Extended"
    font-weight="700"
    font-stretch="normal"
    units-per-em="2048"
    panose-1="0 0 8 0 0 0 0 0 0 0"
    ascent="1638"
    descent="-410"
    x-height="1137"
    cap-height="1597"
    bbox="-2011 -582 3031 2179"
    underline-thickness="102"
    underline-position="-307"
    unicode-range="U+0020-25CA"
  />
<missing-glyph horiz-adv-x="1720" 
d="M1493 0h-1266v1597h1266v-1597zM399 1448v-1139l844 1139h-844zM1321 1294l-840 -1142h840v1142z" />
    <glyph glyph-name=".notdef" horiz-adv-x="1720" 
d="M1493 0h-1266v1597h1266v-1597zM399 1448v-1139l844 1139h-844zM1321 1294l-840 -1142h840v1142z" />
    <glyph glyph-name=".null" horiz-adv-x="0" 
 />
    <glyph glyph-name="nonmarkingreturn" horiz-adv-x="682" 
 />
    <glyph glyph-name="space" unicode=" " horiz-adv-x="628" 
 />
    <glyph glyph-name="exclam" unicode="!" horiz-adv-x="655" 
d="M393 442h-127l-63 1014v141h250v-141zM330 -14q-67 0 -114.5 43.5t-47.5 105.5q0 59 48 101.5t114 42.5q65 0 112 -43t47 -101q0 -63 -46.5 -106t-112.5 -43z" />
    <glyph glyph-name="quotedbl" unicode="&#x22;" horiz-adv-x="927" 
d="M383 1106h-217v491h217v-491zM762 1106h-217v491h217v-491z" />
    <glyph glyph-name="numbersign" unicode="#" horiz-adv-x="1773" 
d="M1679 1102l-37 -172h-301l-77 -328h292l-38 -172h-295l-103 -430h-198l102 430h-446l-103 -430h-199l103 430h-285l37 172h289l78 328h-281l41 172h281l116 495h199l-117 -495h447l116 495h199l-117 -495h297zM618 602h447l78 328h-447z" />
    <glyph glyph-name="dollar" unicode="$" horiz-adv-x="1449" 
d="M1311 492q0 -166 -138.5 -278.5t-379.5 -121.5v-174h-125v178q-197 18 -339 113.5t-202 259.5l203 63q95 -212 338 -243v418l-29 6q-457 108 -457 381q0 111 69.5 198t178.5 133.5t238 53.5v159h125v-161q175 -18 307.5 -107.5t171.5 -208.5l-189 -82
q-36 78 -111.5 133.5t-178.5 73.5v-407l57 -19q44 -11 66.5 -17.5t67.5 -20t71 -24.5t65 -29.5t62 -36.5t51 -44t42.5 -54.5t25 -64.5t10.5 -77zM410 1114q0 -41 20.5 -73t60 -56t79.5 -39.5t98 -32.5v377q-116 -6 -187 -53.5t-71 -122.5zM793 676v-391q74 4 136 24.5
t105 63.5t43 100q0 36 -15.5 65t-40 49.5t-63.5 37.5t-76 28t-89 23z" />
    <glyph glyph-name="percent" unicode="%" horiz-adv-x="2129" 
d="M430 756q-156 0 -250 108t-94 281q0 175 94 284t250 109q155 0 249.5 -110.5t94.5 -282.5q0 -171 -94.5 -280t-249.5 -109zM489 0h-206l1366 1468h198zM430 911q71 0 112.5 59.5t41.5 174.5q0 117 -41.5 177t-112.5 60q-72 0 -114 -60.5t-42 -176.5q0 -115 42 -174.5
t114 -59.5zM1700 -29q-156 0 -250 108t-94 281q0 175 94.5 284.5t249.5 109.5t249.5 -111t94.5 -283q0 -171 -94.5 -280t-249.5 -109zM1700 127q71 0 112 59t41 174q0 117 -41 177.5t-112 60.5t-113.5 -60.5t-42.5 -177.5q0 -115 42 -174t114 -59z" />
    <glyph glyph-name="ampersand" unicode="&#x26;" horiz-adv-x="1726" 
d="M680 -35q-156 0 -284.5 48.5t-206.5 143.5t-78 218q0 63 24 121.5t60.5 103t93.5 89.5t109 77t120 68q-57 50 -96 89.5t-83.5 95.5t-67.5 114.5t-23 117.5q0 160 139.5 269.5t349.5 109.5q110 0 203 -33t153.5 -87.5t94 -122.5t33.5 -140q0 -235 -385 -438l368 -301
q71 124 121 295l209 -41q-77 -248 -176 -402l409 -358h-284l-248 199q-226 -236 -555 -236zM709 934q72 39 116 67.5t84.5 65.5t59 77.5t18.5 88.5q0 96 -72 152.5t-184 56.5q-106 0 -177 -52t-71 -139q0 -78 59.5 -153.5t166.5 -163.5zM692 158q237 0 398 182l-439 362
q-59 -30 -97 -51t-82.5 -52t-70 -59t-42.5 -64.5t-17 -76.5q0 -108 101 -174.5t249 -66.5z" />
    <glyph glyph-name="quotesingle" unicode="'" horiz-adv-x="548" 
d="M383 1106h-217v491h217v-491z" />
    <glyph glyph-name="parenleft" unicode="(" horiz-adv-x="786" 
d="M762 -307h-230q-201 198 -307 445t-106 507q0 263 106 508.5t307 443.5h230q-197 -196 -303.5 -444t-106.5 -508q0 -257 106 -505.5t304 -446.5z" />
    <glyph glyph-name="parenright" unicode=")" horiz-adv-x="786" 
d="M254 -307h-229q197 197 303 446.5t106 505.5q0 257 -105.5 505.5t-303.5 446.5h229q203 -200 308.5 -446t105.5 -506q0 -259 -105.5 -505.5t-308.5 -446.5z" />
    <glyph glyph-name="asterisk" unicode="*" horiz-adv-x="985" 
d="M557 1024h-129l2 193l-205 -99l-63 99l213 94l-213 94l63 100l205 -96l-2 188h129l-2 -188l205 96l63 -98l-213 -96l213 -94l-63 -99l-205 99z" />
    <glyph glyph-name="plus" unicode="+" horiz-adv-x="1239" 
d="M717 709h358v-168h-358v-316h-193v316h-362v168h362v315h193v-315z" />
    <glyph glyph-name="comma" unicode="," horiz-adv-x="573" 
d="M205 -270h-133l164 270q-50 17 -77.5 53.5t-27.5 81.5q0 59 48.5 101.5t115.5 42.5q65 0 112.5 -42t47.5 -100q0 -45 -34 -101.5t-151 -216.5q-41 -56 -65 -89z" />
    <glyph glyph-name="hyphen" unicode="-" horiz-adv-x="999" 
d="M854 535h-709v178h709v-178z" />
    <glyph glyph-name="period" unicode="." horiz-adv-x="598" 
d="M301 -14q-68 0 -115 43t-47 106q0 59 47.5 101.5t114.5 42.5q66 0 112 -42.5t46 -101.5q0 -63 -46 -106t-112 -43z" />
    <glyph glyph-name="slash" unicode="/" horiz-adv-x="1048" 
d="M295 -135h-211l668 1773h213z" />
    <glyph glyph-name="zero" unicode="0" horiz-adv-x="1722" 
d="M862 -35q-214 0 -379.5 105t-255.5 294t-90 431q0 183 52.5 338t147 264.5t229.5 171t296 61.5q160 0 295 -61.5t229 -171t146.5 -264.5t52.5 -338q0 -242 -90 -431t-255 -294t-378 -105zM864 170q214 0 342.5 168t128.5 457q0 292 -128.5 461t-342.5 169
q-217 0 -348 -168.5t-131 -461.5q0 -290 131.5 -457.5t347.5 -167.5z" />
    <glyph glyph-name="one" unicode="1" horiz-adv-x="970" 
d="M723 0h-236v1206q-68 -72 -181.5 -124.5t-242.5 -71.5v223q189 35 311 137.5t122 226.5h227v-1597z" />
    <glyph glyph-name="two" unicode="2" horiz-adv-x="1536" 
d="M1403 0h-1258v23q5 57 14.5 107t26.5 95t34 81.5t47 74.5t55 66.5t69.5 63.5t78 60t92.5 62t102.5 62.5t117.5 68.5q162 95 227 147q150 121 150 252q0 117 -105.5 193t-277.5 76q-202 0 -324 -110t-122 -286l-215 35q0 162 83.5 289t235 198.5t346.5 71.5
q176 0 316.5 -57.5t221.5 -164.5t81 -245q0 -81 -29.5 -154t-84 -132.5t-116 -106.5t-141.5 -92q-57 -33 -136 -75.5t-129 -68.5t-109.5 -64.5t-97.5 -73t-71.5 -83.5t-50.5 -106h969v-207z" />
    <glyph glyph-name="three" unicode="3" horiz-adv-x="1581" 
d="M786 -35q-250 0 -440 100t-250 265l201 96q47 -102 175 -180t312 -78t300 77t116 204q0 124 -113.5 200t-328.5 76h-193v180h195q183 0 285 73t102 189q0 120 -109.5 191.5t-279.5 71.5q-162 0 -274.5 -75t-135.5 -210l-211 45q31 192 209 316t434 124q165 0 303 -50.5
t223 -149t85 -226.5q0 -132 -88.5 -233t-235.5 -135v-2q166 -26 273.5 -125.5t107.5 -253.5q0 -95 -44.5 -182.5t-126 -156.5t-209 -110t-282.5 -41z" />
    <glyph glyph-name="four" unicode="4" horiz-adv-x="1619" 
d="M1251 0h-227v367h-963v194l967 1036h223v-1040h277v-190h-277v-367zM1024 1300l-723 -743h723v743z" />
    <glyph glyph-name="five" unicode="5" horiz-adv-x="1574" 
d="M768 -35q-159 0 -300.5 44t-247.5 129.5t-154 199.5l190 111q42 -94 125 -160t181.5 -96.5t207.5 -30.5q126 0 229.5 43.5t164.5 125t61 185.5q0 150 -123.5 245t-310.5 95q-140 0 -248 -54.5t-168 -142.5l-193 56l228 882h946v-192h-781l-141 -504h4q57 59 167 96
t239 37q91 0 179 -19t169.5 -60t143 -99.5t98 -143.5t36.5 -186q0 -163 -94.5 -292.5t-254 -199t-353.5 -69.5z" />
    <glyph glyph-name="six" unicode="6" horiz-adv-x="1644" 
d="M850 -35q-325 0 -520 197.5t-195 550.5q0 199 66.5 370t183.5 291t282 188t357 68q275 0 455 -135l-136 -158q-141 95 -339 95q-270 0 -446 -178t-179 -453h6q56 108 199 173.5t313 65.5q125 0 240 -38.5t202.5 -106t140 -167.5t52.5 -216q0 -154 -87.5 -279t-244 -196.5
t-350.5 -71.5zM852 162q116 0 215 41t161 121.5t62 183.5q0 102 -60.5 182.5t-159.5 123t-216 42.5q-185 0 -311.5 -102.5t-126.5 -249.5q0 -99 61 -178t160 -121.5t215 -42.5z" />
    <glyph glyph-name="seven" unicode="7" horiz-adv-x="1441" 
d="M602 0h-244q0 201 90 452.5t268.5 515.5t407.5 457h-1083v191h1352v-197q-182 -137 -334.5 -323t-250.5 -376.5t-152 -377.5t-54 -342z" />
    <glyph glyph-name="eight" unicode="8" horiz-adv-x="1619" 
d="M811 -35q-199 0 -355.5 63t-241.5 170t-85 238q0 148 102.5 257t262.5 145v4q-138 47 -213.5 139t-75.5 211q0 123 78.5 223.5t217.5 157.5t310 57q170 0 307.5 -55t217 -154.5t79.5 -224.5q0 -117 -75 -212.5t-218 -141.5v-4q162 -36 265.5 -145t103.5 -257
q0 -131 -86 -238.5t-242 -170t-352 -62.5zM811 926q158 0 263.5 73.5t105.5 188.5q0 112 -105.5 184t-263.5 72q-159 0 -265 -72t-106 -184q0 -114 105.5 -188t265.5 -74zM807 158q185 0 312.5 84.5t127.5 222.5q0 135 -115 216t-321 81t-322 -80.5t-116 -216.5
q0 -139 124.5 -223t309.5 -84z" />
    <glyph glyph-name="nine" unicode="9" horiz-adv-x="1669" 
d="M745 -35q-170 0 -329 57t-271 166l138 150q188 -180 444 -180q139 0 248 51.5t177 140.5t103 202.5t35 244.5h-4q-53 -118 -197 -191.5t-325 -73.5q-169 0 -314 66.5t-235 191.5t-90 281q0 116 51 218.5t141 177.5t220.5 119t281.5 44q115 0 217.5 -25.5t194 -83.5
t157 -144t104 -216t38.5 -291q0 -148 -31 -282t-95 -248t-156 -197.5t-221 -130.5t-282 -47zM799 717q187 0 315.5 108.5t128.5 266.5q0 104 -61.5 183.5t-159 120t-211.5 40.5q-185 0 -313.5 -99.5t-128.5 -261.5q0 -156 124 -257t306 -101z" />
    <glyph glyph-name="colon" unicode=":" horiz-adv-x="653" 
d="M330 866q-67 0 -115.5 44t-48.5 106q0 60 48 101.5t116 41.5q65 0 111 -41.5t46 -101.5q0 -62 -46.5 -106t-110.5 -44zM330 -14q-68 0 -116 44t-48 107q0 58 48 100t116 42q65 0 111 -42t46 -100q0 -63 -46 -107t-111 -44z" />
    <glyph glyph-name="semicolon" unicode=";" horiz-adv-x="716" 
d="M369 866q-67 0 -114.5 44t-47.5 106q0 60 47 101.5t115 41.5q66 0 112.5 -41.5t46.5 -101.5q0 -62 -46.5 -106t-112.5 -44zM274 -279h-135l164 279q-44 17 -71 54t-27 81q0 59 48.5 101.5t115.5 42.5q65 0 112 -43t47 -101q0 -43 -35.5 -101.5t-172.5 -248.5
q-30 -41 -46 -64z" />
    <glyph glyph-name="less" unicode="&#x3c;" horiz-adv-x="1241" 
d="M1053 434v-162l-889 236v219l889 236v-162l-709 -185z" />
    <glyph glyph-name="equal" unicode="=" horiz-adv-x="1282" 
d="M1104 745h-926v168h926v-168zM1104 313h-926v168h926v-168z" />
    <glyph glyph-name="greater" unicode="&#x3e;" horiz-adv-x="1241" 
d="M1075 508l-887 -236v162l705 182l-705 185v162l887 -236v-219z" />
    <glyph glyph-name="question" unicode="?" horiz-adv-x="1361" 
d="M719 416h-232q-14 72 -14 116q0 57 19 104t61 88t89.5 73.5t121.5 74.5q60 36 100 65.5t79 67.5t58 81t19 92q0 113 -102 182.5t-248 69.5q-157 0 -266 -85.5t-109 -224.5q0 -13 4 -49l-207 35q-6 27 -6 47q0 109 49 200t131.5 151t190.5 93t227 33q114 0 218.5 -30
t185 -84.5t128.5 -137.5t48 -182q0 -60 -20 -115t-49.5 -97t-76 -84t-87.5 -71t-97 -63q-41 -26 -54 -34t-46 -31t-44.5 -34t-33 -32.5t-29.5 -38t-15 -39.5t-7 -47q0 -45 14 -94zM621 -14q-66 0 -114 44t-48 105q0 59 47.5 101.5t114.5 42.5q64 0 110.5 -42.5t46.5 -103.5
q0 -62 -45.5 -104.5t-111.5 -42.5z" />
    <glyph glyph-name="at" unicode="@" horiz-adv-x="2353" 
d="M1114 -195q-237 0 -429.5 65t-316.5 176.5t-190.5 257.5t-66.5 312q0 131 42 258.5t118.5 239t187.5 207t244 164t293.5 107t330.5 38.5q204 0 380.5 -56t303 -156t198.5 -245.5t72 -318.5t-70 -316t-196 -226t-282 -83q-138 0 -208.5 62.5t-64.5 157.5
q-84 -107 -206.5 -159t-249.5 -52q-189 0 -300.5 109t-111.5 274q0 110 51.5 215t135 183t195.5 125.5t228 47.5q123 0 214 -50t128 -138l35 161h166l-119 -565q-50 -242 125 -242q146 0 248 135t102 343q0 304 -209 478.5t-565 174.5q-219 0 -412.5 -70t-329.5 -188.5
t-215 -279t-79 -337.5q0 -306 222.5 -486.5t619.5 -180.5q382 0 643 164l86 -115q-151 -99 -350 -145t-398 -46zM1065 397q115 0 211.5 58.5t148.5 147.5t52 185q0 110 -70.5 177t-196.5 67q-87 0 -165 -33t-132 -87.5t-86 -125.5t-32 -145q0 -111 70.5 -177.5t199.5 -66.5z
" />
    <glyph glyph-name="A" unicode="A" horiz-adv-x="1837" 
d="M270 0h-245l761 1597h265l761 -1597h-247q-25 52 -110.5 223t-133.5 269h-809zM612 702h609q-202 414 -299 633h-7q-41 -86 -303 -633z" />
    <glyph glyph-name="B" unicode="B" horiz-adv-x="1751" 
d="M1020 0h-778v1597h721q142 0 258 -33t190.5 -89.5t115 -131.5t40.5 -161q0 -123 -85.5 -225t-248.5 -140v-4q192 -29 294.5 -130.5t102.5 -250.5q0 -138 -87.5 -238t-223.5 -147t-299 -47zM475 901h434q186 0 299 63.5t113 180.5q0 120 -121 185t-303 65h-422v-494z
M475 203h483q188 0 306 64.5t118 183.5q0 82 -59.5 141.5t-155.5 88t-217 28.5h-475v-506z" />
    <glyph glyph-name="C" unicode="C" horiz-adv-x="2058" 
d="M1098 -35q-283 0 -505.5 104.5t-347 294.5t-124.5 435q0 152 50 285t139 232t209.5 170.5t264 107.5t299.5 36q188 0 358 -55t302 -166t194 -262l-213 -82q-84 165 -255 261.5t-388 96.5q-146 0 -275.5 -44t-227 -124t-154.5 -200t-57 -264q0 -125 42.5 -229.5
t114.5 -175.5t168 -120t201.5 -71.5t216.5 -22.5q262 0 439 119t247 319l215 -71q-101 -273 -336 -423.5t-577 -150.5z" />
    <glyph glyph-name="D" unicode="D" horiz-adv-x="1968" 
d="M958 0h-716v1597h694q187 0 339.5 -40.5t257 -112t176 -171.5t104 -216t32.5 -248q0 -178 -61 -327t-173 -256t-280 -166.5t-373 -59.5zM475 203h477q143 0 260.5 36.5t204 108t134.5 185.5t48 262q0 130 -36 232t-99.5 170.5t-155 113.5t-197 64.5t-230.5 19.5h-406
v-1192z" />
    <glyph glyph-name="E" unicode="E" horiz-adv-x="1609" 
d="M1485 0h-1243v1597h1218v-202h-985v-473h936v-211h-936v-504h1010v-207z" />
    <glyph glyph-name="F" unicode="F" horiz-adv-x="1523" 
d="M1438 1597v-206h-963v-494h914v-211h-914v-686h-233v1597h1196z" />
    <glyph glyph-name="G" unicode="G" horiz-adv-x="2152" 
d="M1069 -35q-205 0 -381 62t-300.5 171t-195.5 263.5t-71 333.5q0 150 49 283t137.5 233t208 172.5t264 109.5t301.5 37q292 0 528 -129.5t328 -353.5l-213 -82q-86 166 -255.5 262t-385.5 96q-145 0 -274.5 -43.5t-228 -123t-156 -200t-57.5 -265.5q0 -127 43.5 -232.5
t116 -176t169.5 -119t200.5 -70t211.5 -21.5q266 0 444.5 124t204.5 322h-616v185h850v-803h-185q-2 50 -5 152.5t-5 152.5h-12q-100 -164 -281.5 -252t-433.5 -88z" />
    <glyph glyph-name="H" unicode="H" horiz-adv-x="1988" 
d="M1513 903v694h234v-1597h-234v692h-1038v-692h-233v1597h233v-694h1038z" />
    <glyph glyph-name="I" unicode="I" horiz-adv-x="716" 
d="M475 0h-233v1597h233v-1597z" />
    <glyph glyph-name="J" unicode="J" horiz-adv-x="1472" 
d="M686 -35q-99 0 -189.5 19t-171.5 61t-140 103t-93.5 151t-34.5 199v49l226 28v-43q0 -92 33.5 -164t90 -114t124.5 -63t145 -21q60 0 109.5 11t84 33t60.5 47t41.5 60t25.5 64.5t14.5 68.5t5.5 63.5t1 57.5v1022h233v-979q0 -59 -1.5 -96.5t-12 -113t-30.5 -127
t-62 -116.5t-100 -104.5t-150.5 -67.5t-208.5 -28z" />
    <glyph glyph-name="K" unicode="K" horiz-adv-x="1677" 
d="M475 0h-233v1597h233v-792h8q390 362 889 792h279q-658 -594 -772 -698q89 -98 276 -306.5t326.5 -363t210.5 -229.5h-285q-95 100 -256 276t-434 465l-242 -221v-520z" />
    <glyph glyph-name="L" unicode="L" horiz-adv-x="1447" 
d="M475 1597v-1390h938v-207h-1171v1597h233z" />
    <glyph glyph-name="M" unicode="M" horiz-adv-x="2482" 
d="M479 0h-237v1597h286q473 -826 711 -1267h4q132 238 358 638t353 629h289v-1597h-238v1180h-10q-234 -450 -658 -1180h-194q-443 772 -658 1180h-6v-1180z" />
    <glyph glyph-name="N" unicode="N" horiz-adv-x="2019" 
d="M475 0h-233v1597h247q39 -45 239.5 -275.5t289 -333t244.5 -284.5t278 -329h6v1222h232v-1597h-248q-39 45 -440.5 501t-610.5 703h-4v-1204z" />
    <glyph glyph-name="O" unicode="O" horiz-adv-x="2166" 
d="M1083 -35q-157 0 -302.5 39.5t-265 113.5t-209 175t-138.5 231t-49 273q0 178 76 334t206 265t307.5 171.5t374.5 62.5q200 0 378.5 -64t307.5 -174t204 -265t75 -330q0 -176 -75.5 -331t-205 -264.5t-307.5 -173t-377 -63.5zM1085 172q193 0 356 80.5t260 224.5t97 320
q0 175 -96.5 319.5t-259.5 225.5t-357 81q-144 0 -276 -47t-229.5 -128.5t-155 -199t-57.5 -251.5t58 -251.5t155.5 -198.5t229 -128t275.5 -47z" />
    <glyph glyph-name="P" unicode="P" horiz-adv-x="1648" 
d="M242 1597h692q92 0 178 -14t172 -49.5t149 -89t102.5 -140.5t39.5 -196q0 -113 -40.5 -203.5t-103.5 -146t-146 -92.5t-162.5 -51.5t-159.5 -14.5h-488v-600h-233v1597zM475 811h428q92 0 167 16t134 50t92 91.5t33 135.5q0 76 -35 133.5t-97 91t-138 50t-166 16.5h-418
v-584z" />
    <glyph glyph-name="Q" unicode="Q" horiz-adv-x="2185" 
d="M1997 -76l-166 -133q-45 45 -137.5 134t-137.5 134q-218 -94 -464 -94q-199 0 -378 62t-310 170.5t-208 264.5t-77 335q0 178 76.5 334t207 265t310.5 171.5t381 62.5q202 0 382 -64t309 -174t204 -265t75 -330q0 -188 -85 -348.5t-240 -276.5q39 -37 113.5 -109
t144.5 -139zM1096 172q159 0 303 64q-179 157 -316 286l166 131l338 -315q110 88 172 205t62 254q0 132 -56.5 248.5t-153 199t-230.5 130.5t-285 48q-152 0 -287.5 -47t-234.5 -129t-156.5 -199t-57.5 -251q0 -179 98.5 -322.5t266.5 -223t371 -79.5z" />
    <glyph glyph-name="R" unicode="R" horiz-adv-x="1710" 
d="M475 0h-233v1597h692q88 0 173 -14t171.5 -49.5t151 -90t105 -142t40.5 -197.5q0 -207 -133 -331t-344 -150v-2q56 -69 159 -195.5t187 -230t158 -195.5h-263l-493 606h-371v-606zM475 801h428q123 0 216 29.5t151.5 97.5t58.5 170q0 99 -62 168.5t-158 100t-216 30.5
h-418v-596z" />
    <glyph glyph-name="S" unicode="S" horiz-adv-x="1593" 
d="M821 -35q-121 0 -232.5 28t-211 83.5t-175 147.5t-114.5 212l217 72q39 -117 119.5 -195t179 -111.5t215.5 -33.5q78 0 150.5 15.5t133.5 45.5t97.5 80.5t36.5 114.5q0 41 -14 74.5t-42 57.5t-59 43t-75.5 34t-81 25t-84.5 22q-17 4 -25 6l-178 45q-36 10 -65.5 18
t-72.5 23t-77.5 30t-76 37.5t-72.5 46.5t-62 56.5t-51 67.5t-32.5 80t-12.5 94q0 138 91.5 241.5t233.5 154t310 50.5q235 0 409.5 -104.5t233.5 -272.5l-213 -82q-51 120 -167 189.5t-278 69.5q-161 0 -269 -64.5t-108 -165.5q0 -36 16 -68.5t37.5 -56t60.5 -46.5t66.5 -36
t75.5 -29t67.5 -21.5t61.5 -16.5l191 -52q6 -2 20 -5q189 -49 279 -95q215 -110 215 -321q0 -141 -89 -253t-241.5 -173.5t-337.5 -61.5z" />
    <glyph glyph-name="T" unicode="T" horiz-adv-x="1564" 
d="M899 0h-233v1395h-631v202h1495v-202h-631v-1395z" />
    <glyph glyph-name="U" unicode="U" horiz-adv-x="1843" 
d="M918 -35q-146 0 -264 34t-198.5 92.5t-134.5 140t-78 173.5t-24 197v995h236v-979q0 -218 120 -333t347 -115t347 115t120 333v979h235v-995q0 -97 -21.5 -185t-73 -172t-130.5 -145t-202 -98t-279 -37z" />
    <glyph glyph-name="V" unicode="V" horiz-adv-x="1837" 
d="M1051 0h-265l-761 1597h247q77 -139 188.5 -369t254.5 -533t205 -431h6q86 175 317.5 667t321.5 666h247z" />
    <glyph glyph-name="W" unicode="W" horiz-adv-x="2809" 
d="M922 0h-289l-596 1597h260q265 -688 483 -1294h4q59 159 228.5 604.5t259.5 689.5h264q82 -216 247 -647t247 -647h6q322 893 479 1294h258l-596 -1597h-287q-227 565 -483 1260h-4q-283 -775 -481 -1260z" />
    <glyph glyph-name="X" unicode="X" horiz-adv-x="1626" 
d="M301 0h-278q102 125 315.5 395.5t329.5 411.5v6q-118 144 -334 414.5t-297 369.5h272q101 -121 267.5 -323.5t234.5 -284.5h6q58 70 161 196t184 223.5t159 188.5h272q-118 -143 -325 -401t-310 -383v-6q120 -146 334 -419t307 -388h-274q-98 119 -274 339t-234 292h-6
q-194 -243 -510 -631z" />
    <glyph glyph-name="Y" unicode="Y" horiz-adv-x="1701" 
d="M967 0h-232v567q-74 109 -237.5 352t-282.5 418.5t-180 259.5h252q94 -135 281.5 -406.5t281.5 -406.5h4q58 83 123.5 180.5t162 237.5t277.5 395h252q-118 -171 -351 -514t-351 -514v-569z" />
    <glyph glyph-name="Z" unicode="Z" horiz-adv-x="1634" 
d="M1552 0h-1472v209q98 100 515 527t644 657v4q-745 0 -1118 -2v202h1411v-208l-1167 -1178v-4h1187v-207z" />
    <glyph glyph-name="bracketleft" unicode="[" horiz-adv-x="868" 
d="M803 -381h-576v1978h576v-186h-357v-1587h357v-205z" />
    <glyph glyph-name="backslash" unicode="\" horiz-adv-x="1048" 
d="M965 -135h-211l-668 1773h209z" />
    <glyph glyph-name="bracketright" unicode="]" horiz-adv-x="868" 
d="M641 -381h-575v205h356v1587h-356v186h575v-1978z" />
    <glyph glyph-name="asciicircum" unicode="^" horiz-adv-x="1079" 
d="M307 1022h-182l313 575h207l309 -575h-182l-227 436h-6z" />
    <glyph glyph-name="underscore" unicode="_" horiz-adv-x="1267" 
d="M1206 -236h-1145v168h1145v-168z" />
    <glyph glyph-name="a" unicode="a" horiz-adv-x="1419" 
d="M547 -35q-120 0 -218.5 33.5t-161.5 106.5t-63 174q0 64 26.5 115.5t68.5 87t106 64t128.5 45.5t146.5 32q35 6 93.5 15t90.5 14.5t77 15t69.5 20t49.5 26t35.5 37t10.5 48.5q0 81 -86 139.5t-220 58.5q-124 0 -213.5 -55.5t-124.5 -155.5l-210 66q29 82 87.5 144.5
t134.5 99.5t159.5 55t173.5 18q145 0 261 -41.5t189.5 -132t73.5 -217.5v-424q0 -130 10 -204t33 -150h-219q-33 83 -33 195h-6q-63 -104 -184.5 -167t-284.5 -63zM594 129q91 0 171 30t131 76t80.5 101t29.5 106v127q-61 -29 -124 -46.5t-182 -37.5q-40 -7 -63 -11
t-65.5 -14t-69 -19.5t-60 -26t-52.5 -34t-32.5 -43t-13.5 -54.5q0 -71 69 -112.5t181 -41.5z" />
    <glyph glyph-name="b" unicode="b" horiz-adv-x="1644" 
d="M909 -35q-158 0 -284.5 61.5t-200.5 166.5h-4v-193h-217v1638h221v-706q83 117 213 177t287 60q133 0 247.5 -46t195 -126t126 -191t45.5 -237q0 -135 -50 -249.5t-136 -191.5t-200.5 -120t-242.5 -43zM868 160q191 0 315 115t124 292q0 175 -125 290.5t-314 115.5
q-123 0 -225.5 -51.5t-162.5 -145.5t-60 -211q0 -177 130 -291t318 -114z" />
    <glyph glyph-name="c" unicode="c" horiz-adv-x="1497" 
d="M791 -35q-197 0 -352.5 73t-245 210.5t-89.5 316.5t88.5 317.5t243.5 212.5t352 74q132 0 248 -36.5t210 -114t145 -187.5l-209 -77q-46 106 -153 162.5t-247 56.5q-200 0 -323 -115t-123 -291q0 -182 130 -294.5t331 -112.5q157 0 270 67.5t170 186.5l205 -76
q-77 -177 -250.5 -275t-400.5 -98z" />
    <glyph glyph-name="d" unicode="d" horiz-adv-x="1642" 
d="M733 -35q-276 0 -452.5 169.5t-176.5 432.5q0 180 85 318.5t227.5 211t316.5 72.5q156 0 281 -59.5t198 -165.5h7v694h221v-1284q0 -129 10.5 -205t32.5 -149h-219q-33 100 -33 188h-6q-76 -110 -205.5 -166.5t-286.5 -56.5zM772 162q190 0 320.5 114.5t130.5 292.5
q0 177 -130.5 291.5t-320.5 114.5q-189 0 -312.5 -115.5t-123.5 -292.5q0 -175 124 -290t312 -115z" />
    <glyph glyph-name="e" unicode="e" horiz-adv-x="1384" 
d="M717 -35q-177 0 -319 74t-224 211t-82 313q0 264 173.5 435t441.5 171q58 0 114.5 -9.5t114 -30.5t108.5 -52.5t95.5 -79t76 -106.5t50 -137.5t18.5 -169.5v-76h-973q10 -165 123.5 -260.5t284.5 -95.5q133 0 231.5 65t147.5 174l198 -76q-68 -160 -222 -255t-357 -95z
M319 686h744q-4 79 -36.5 139.5t-84.5 95t-112.5 51.5t-127.5 17q-151 0 -253.5 -85t-129.5 -218z" />
    <glyph glyph-name="f" unicode="f" horiz-adv-x="886" 
d="M494 0h-220v950h-204v187h204v133q0 200 91 301.5t303 101.5q143 0 243 -43v-180q-106 45 -202 45q-35 0 -64 -4.5t-50 -11.5t-37.5 -20.5t-27 -24.5t-17.5 -31t-11 -33t-5.5 -38t-2 -38.5t-0.5 -40.5v-116h370v-187h-370v-950z" />
    <glyph glyph-name="g" unicode="g" horiz-adv-x="1640" 
d="M793 -483q-481 0 -625 329l201 66q103 -217 422 -217q90 0 164.5 23t134.5 71.5t93.5 133.5t33.5 200v98h-7q-73 -109 -199 -163t-278 -54q-140 0 -259.5 46t-200 125t-126 185.5t-45.5 225.5q0 126 48.5 235t132.5 185t199.5 119.5t246.5 43.5q157 0 286 -61t202 -168h4
v197h217v-1008q0 -135 -33.5 -241t-91 -175t-140.5 -113.5t-176 -63.5t-204 -19zM770 199q188 0 319.5 113.5t131.5 277.5t-131 274.5t-320 110.5q-188 0 -312 -111t-124 -274q0 -165 125 -278t311 -113z" />
    <glyph glyph-name="h" unicode="h" horiz-adv-x="1560" 
d="M424 0h-221v1638h221v-696h6q75 115 193.5 171t261.5 56q76 0 145 -15.5t133 -50.5t110.5 -86.5t74.5 -129t28 -172.5v-715h-221v623q0 164 -91.5 257t-244.5 93q-180 0 -287.5 -101.5t-107.5 -261.5v-610z" />
    <glyph glyph-name="i" unicode="i" horiz-adv-x="626" 
d="M313 1360q-67 0 -113 41.5t-46 103.5q0 60 46.5 102t112.5 42q67 0 113.5 -42t46.5 -100q0 -63 -46 -105t-114 -42zM424 0h-221v1137h221v-1137z" />
    <glyph glyph-name="j" unicode="j" horiz-adv-x="624" 
d="M311 1360q-67 0 -113 42.5t-46 102.5q0 59 46 101.5t113 42.5t113.5 -42t46.5 -102q0 -61 -46 -103t-114 -42zM18 -483q-144 0 -262 49v184q112 -49 221 -49q46 0 82.5 11t59.5 26t39.5 41.5t24.5 48t12.5 55.5t5 53t0.5 52v1149h223v-1151q0 -54 -1 -84t-8.5 -86.5
t-22 -91t-44.5 -78.5t-72 -69t-108 -42.5t-150 -17.5z" />
    <glyph glyph-name="k" unicode="k" horiz-adv-x="1325" 
d="M762 680l588 -680h-258l-484 543l-184 -166v-377h-221v1638h221v-997h6q111 98 574 496h266z" />
    <glyph glyph-name="l" unicode="l" horiz-adv-x="626" 
d="M424 0h-221v1638h221v-1638z" />
    <glyph glyph-name="m" unicode="m" horiz-adv-x="2463" 
d="M424 0h-221v1137h217v-195h4q74 112 195 169.5t260 57.5q92 0 175 -23.5t155.5 -80.5t105.5 -141h4q173 245 477 245q90 0 173.5 -26.5t154 -79t113 -142.5t42.5 -206v-715h-221v623q0 164 -89 257t-234 93q-170 0 -276.5 -102.5t-106.5 -260.5v-610h-222v623
q0 164 -88.5 257t-232.5 93q-172 0 -278.5 -102.5t-106.5 -260.5v-610z" />
    <glyph glyph-name="n" unicode="n" horiz-adv-x="1560" 
d="M424 0h-221v1137h217v-195h4q75 114 196 170.5t267 56.5q76 0 145 -15.5t132.5 -50.5t110 -86.5t74 -129t27.5 -172.5v-715h-221v623q0 164 -91.5 257t-244.5 93q-180 0 -287.5 -101.5t-107.5 -261.5v-610z" />
    <glyph glyph-name="o" unicode="o" horiz-adv-x="1585" 
d="M795 -35q-150 0 -279 44.5t-219.5 122.5t-141.5 190t-51 243t51 243.5t141.5 191.5t219.5 124t279 45q198 0 354.5 -76.5t244 -214.5t87.5 -313t-87.5 -312t-244 -212.5t-354.5 -75.5zM795 160q201 0 326.5 113t125.5 292q0 180 -125.5 294t-326.5 114
q-202 0 -329.5 -114t-127.5 -294q0 -179 127.5 -292t329.5 -113z" />
    <glyph glyph-name="p" unicode="p" horiz-adv-x="1644" 
d="M424 -451h-221v1588h217v-207h4q87 121 216.5 180t281.5 59q178 0 319 -79t219 -215t78 -304q0 -109 -32.5 -205t-90.5 -169t-136.5 -125.5t-173 -79.5t-196.5 -27q-158 0 -284.5 61.5t-200.5 166.5v-644zM868 160q190 0 314.5 116t124.5 291q0 176 -125.5 291
t-313.5 115t-318 -115t-130 -293q0 -177 130 -291t318 -114z" />
    <glyph glyph-name="q" unicode="q" horiz-adv-x="1642" 
d="M1440 -451h-221v654q-81 -116 -210.5 -177t-285.5 -61q-177 0 -319 79t-221 217.5t-79 309.5q0 133 49.5 246t134 189.5t199.5 119.5t244 43q157 0 286 -61t202 -168h4v197h217v-1588zM772 162q190 0 320.5 114.5t130.5 292.5q0 177 -130.5 291.5t-320.5 114.5
q-189 0 -312.5 -115.5t-123.5 -292.5q0 -175 124 -290t312 -115z" />
    <glyph glyph-name="r" unicode="r" horiz-adv-x="1028" 
d="M424 0h-221v1137h217v-207h10q53 105 166 172t254 67q82 0 149 -22v-229q-76 24 -168 24q-87 0 -157.5 -27.5t-116 -72t-76.5 -103.5t-44 -118.5t-13 -120.5v-500z" />
    <glyph glyph-name="s" unicode="s" horiz-adv-x="1234" 
d="M645 -35q-210 0 -364 87t-207 233l205 61q49 -98 150 -153.5t214 -55.5q42 0 85.5 8.5t86 26t69.5 50.5t27 77q0 26 -10 48t-31.5 38.5t-41.5 28t-55.5 22.5t-56.5 16.5t-61 14.5l-135 33q-383 92 -383 334q0 104 69 182t174 115.5t226 37.5q180 0 314.5 -79.5
t179.5 -202.5l-207 -66q-34 75 -112 125.5t-189 50.5q-102 0 -167 -40.5t-65 -108.5q0 -28 12 -51.5t37 -41.5t49.5 -31.5t63.5 -26t64 -19.5t65 -16l121 -29q38 -9 62 -15t67.5 -20t72.5 -28.5t64 -39.5t56.5 -53t36 -68t14.5 -87q0 -157 -139 -257t-361 -100z" />
    <glyph glyph-name="t" unicode="t" horiz-adv-x="983" 
d="M670 -35q-106 0 -180.5 30t-110.5 67.5t-55.5 100t-22 97.5t-2.5 90v598h-270v189h270v329h219v-329h404v-189h-404v-528v-41t2 -40t5 -41t10 -37.5t16.5 -35.5t24 -28t33.5 -23.5t45 -14t57 -5.5q100 0 211 51v-191q-104 -49 -252 -49z" />
    <glyph glyph-name="u" unicode="u" horiz-adv-x="1538" 
d="M676 -35q-101 0 -187.5 26.5t-155.5 80t-109 144t-40 208.5v713h222v-639q0 -167 94 -252.5t235 -85.5q116 0 204 51.5t130.5 130t42.5 168.5v627h221v-783q0 -126 10 -201t35 -153h-223q-33 117 -31 176h-4q-141 -211 -444 -211z" />
    <glyph glyph-name="v" unicode="v" horiz-adv-x="1359" 
d="M807 0h-254l-522 1137h241q113 -239 408 -891h6q241 537 408 891h233z" />
    <glyph glyph-name="w" unicode="w" horiz-adv-x="2254" 
d="M760 0h-244l-481 1137h246l366 -865h6l371 865h207l379 -865h6l358 865h246l-479 -1137h-252q-20 46 -77 174t-82 186t-80 189.5t-120 292.5h-6q-171 -414 -364 -842z" />
    <glyph glyph-name="x" unicode="x" horiz-adv-x="1296" 
d="M283 0h-254q338 407 473 573v5q-56 67 -126 151.5t-146.5 175.5t-198.5 232h254q95 -110 362 -426h6q70 84 195 229.5t168 196.5h250q-134 -161 -473 -559v-5q290 -348 473 -573h-246q-46 53 -171.5 201t-195.5 229h-6q-69 -82 -206.5 -244t-157.5 -186z" />
    <glyph glyph-name="y" unicode="y" horiz-adv-x="1368" 
d="M596 -451h-221l198 420l-544 1168h243q180 -376 414 -893h4q284 624 412 893h237z" />
    <glyph glyph-name="z" unicode="z" horiz-adv-x="1234" 
d="M1169 0h-1091v170l741 776h-706v191h1003v-170l-745 -777h798v-190z" />
    <glyph glyph-name="braceleft" unicode="{" horiz-adv-x="972" 
d="M913 -303h-114q-151 0 -256 28.5t-166 85.5t-88 135t-27 185v174q0 40 -2.5 71t-5.5 55t-11 41.5t-13.5 29.5t-19 20t-22 12t-28 6t-31 2.5t-36.5 0.5h-3v209h4q25 0 36.5 0.5t30.5 2.5t27.5 6t22 12t19.5 20t13.5 29.5t10.5 41t5.5 55t2.5 70.5v174q0 45 3.5 81t16 83
t34 83t62 72.5t96 60.5t138.5 39t187 15h114v-186h-96q-169 0 -253.5 -57t-84.5 -199v-164q0 -123 -19.5 -195t-54 -102.5t-96.5 -46.5v-4q63 -15 97.5 -44.5t53.5 -100t19 -195.5v-164q0 -59 14.5 -102.5t50.5 -80t104.5 -55t168.5 -18.5h96v-186z" />
    <glyph glyph-name="bar" unicode="|" horiz-adv-x="651" 
d="M424 -451h-197v2089h197v-2089z" />
    <glyph glyph-name="braceright" unicode="}" horiz-adv-x="972" 
d="M172 -303h-111v186h95q167 0 251.5 57t84.5 199v164q0 121 17.5 189.5t53.5 101.5t103 49v4q-99 23 -136.5 96.5t-37.5 247.5v164q0 62 -15.5 107t-52.5 79.5t-103.5 52t-164.5 17.5h-95v186h111q122 0 213.5 -19t153.5 -54t100.5 -89.5t55 -120.5t16.5 -151v-174
q0 -39 2.5 -70.5t5.5 -55t10.5 -41t13.5 -29.5t19.5 -20t22 -12t27.5 -6t30.5 -2.5t36.5 -0.5h4v-209q-81 0 -107 -13q-49 -23 -60 -124q-5 -41 -5 -101v-174q0 -49 -4 -88.5t-18 -86t-37 -82t-64 -70t-96.5 -57t-137 -36.5t-182.5 -14z" />
    <glyph glyph-name="asciitilde" unicode="~" horiz-adv-x="1320" 
d="M872 522q-65 0 -124 21t-95.5 45.5t-83 45.5t-88.5 21q-59 0 -90 -37.5t-31 -89.5h-184q0 141 86.5 221t208.5 80q62 0 118.5 -20t92 -43.5t82.5 -43.5t92 -20q54 0 81.5 35t27.5 88h184q0 -148 -77 -225.5t-200 -77.5z" />
    <glyph glyph-name="uni00A0" unicode="&#xa0;" horiz-adv-x="628" 
 />
    <glyph glyph-name="exclamdown" unicode="&#xa1;" horiz-adv-x="620" 
d="M311 877q-66 0 -113.5 41.5t-47.5 99.5q0 63 47.5 107t113.5 44t113 -44t47 -107q0 -58 -47.5 -99.5t-112.5 -41.5zM434 -442h-250v139l64 1012h127l59 -1012v-139z" />
    <glyph glyph-name="cent" unicode="&#xa2;" horiz-adv-x="1366" 
d="M1087 596l162 -59q-57 -131 -184 -209.5t-293 -87.5v-240h-123v242q-217 22 -355 156t-138 341q0 208 138.5 342.5t354.5 155.5v229h123v-227q146 -9 263.5 -77.5t172.5 -188.5l-164 -64q-33 73 -105 117t-167 55v-682q111 9 193 61t122 136zM346 739q0 -136 84.5 -224.5
t218.5 -111.5v676q-136 -20 -219.5 -112.5t-83.5 -227.5z" />
    <glyph glyph-name="sterling" unicode="&#xa3;" horiz-adv-x="1509" 
d="M473 190h934v-190h-1278v193q200 57 315 162.5t115 217.5q0 68 -43 136h-377v125h283q-44 50 -58 67t-49 64.5t-49 78t-27.5 77.5t-13.5 93q0 126 73.5 221.5t196.5 145t275 49.5q70 0 138 -10.5t145 -39.5t139 -74t114.5 -120.5t77.5 -173.5l-210 -79q-97 301 -400 301
q-130 0 -217.5 -59t-87.5 -165q0 -51 24 -104t52.5 -88.5t78.5 -93.5t74 -90h514v-125h-442q23 -61 23 -117q0 -112 -83.5 -218.5t-236.5 -183.5z" />
    <glyph glyph-name="currency" unicode="&#xa4;" horiz-adv-x="1632" 
d="M1290 827q0 -139 -86 -245l309 -310l-141 -114l-315 313q-107 -49 -238 -49q-136 0 -244 51l-315 -315l-141 114l311 312q-88 102 -88 243q0 140 86 246l-309 307l141 115l315 -311q108 51 242 51q137 0 242 -51l313 311l141 -115l-309 -307q86 -106 86 -246zM537 827
q0 -107 78 -175t204 -68q125 0 201 68t76 175q0 110 -76 178t-203 68q-125 0 -202.5 -68.5t-77.5 -177.5z" />
    <glyph glyph-name="yen" unicode="&#xa5;" horiz-adv-x="1755" 
d="M995 0h-235v254h-445v154h445v153h-445v156h379l-620 880h250q105 -147 550 -782h7q23 32 167.5 240t385.5 542h247l-622 -880h383v-156h-447v-153h447v-154h-447v-254z" />
    <glyph glyph-name="brokenbar" unicode="&#xa6;" horiz-adv-x="651" 
d="M424 836h-197v802h197v-802zM424 -451h-197v797h197v-797z" />
    <glyph glyph-name="section" unicode="&#xa7;" horiz-adv-x="1323" 
d="M678 -301q-211 0 -369 91.5t-211 240.5l197 57q49 -102 157 -164.5t226 -62.5q58 0 114 15t100 53.5t44 93.5q0 26 -8.5 47t-28.5 38.5t-38.5 29.5t-54 25t-59 20t-67.5 20l-133 41q-52 16 -91 30.5t-95.5 43t-93.5 60.5t-64 80t-27 103q0 93 68.5 163.5t183.5 98.5v2
q-108 45 -170.5 116t-62.5 167q0 83 40.5 149t108 106.5t151.5 61.5t175 21q115 0 211 -31t171 -99.5t109 -168.5l-207 -64q-38 102 -107.5 151.5t-187.5 49.5q-111 0 -178 -44t-67 -112q0 -42 21.5 -74t73.5 -56.5t79 -34t95 -28.5l9 -3l144 -41q44 -12 75.5 -22.5
t76 -28.5t75.5 -40t60 -51t44 -68t15 -85q0 -97 -69 -173.5t-183 -105.5v-4q105 -37 169 -105.5t64 -166.5q0 -147 -135 -244.5t-350 -97.5zM651 399l58 -14q43 2 85 12.5t82.5 30t65.5 54t25 79.5q0 26 -7.5 47t-25 37t-33.5 27t-47 22t-49.5 16.5t-55.5 15.5q-17 5 -26 7
l-84 23q-100 25 -177 -28.5t-77 -133.5q0 -35 18.5 -64.5t44 -48.5t66 -36.5t69 -26.5t68.5 -19z" />
    <glyph glyph-name="copyright" unicode="&#xa9;" horiz-adv-x="2304" 
d="M1151 -35q-220 0 -408.5 65.5t-317 178.5t-201 265.5t-72.5 324.5q0 171 72.5 323.5t201 264.5t317 177.5t408.5 65.5t408.5 -65.5t317 -177.5t201 -264.5t72.5 -323.5q0 -172 -72.5 -324.5t-201 -265.5t-317 -178.5t-408.5 -65.5zM1151 98q189 0 350 55t270 150
t170.5 223.5t61.5 272.5t-61.5 272t-170.5 222.5t-270 150t-350 55.5q-188 0 -348.5 -55.5t-269 -150t-169.5 -222.5t-61 -272t61 -272.5t169.5 -223.5t269 -150t348.5 -55zM1165 348q-230 0 -375 125.5t-145 325.5q0 137 70 240t186 155.5t260 52.5q164 0 285.5 -71
t173.5 -199l-160 -53q-36 89 -114.5 135.5t-186.5 46.5q-148 0 -243 -86.5t-95 -224.5q0 -145 101.5 -224t248.5 -79q119 0 206 55t130 158l154 -46q-57 -149 -187 -230t-309 -81z" />
    <glyph glyph-name="guillemotleft" unicode="&#xab;" horiz-adv-x="1443" 
d="M758 164h-242l-391 405v9l391 405h242l-393 -405v-9zM1288 164h-239l-394 405v9l394 405h239l-393 -405v-9z" />
    <glyph glyph-name="logicalnot" unicode="&#xac;" horiz-adv-x="1263" 
d="M1083 215h-192v336h-723v170h915v-506z" />
    <glyph glyph-name="registered" unicode="&#xae;" horiz-adv-x="1382" 
d="M690 731q-233 0 -386.5 129t-153.5 324t153.5 322.5t386.5 127.5t386 -128t153 -322q0 -195 -153 -324t-386 -129zM690 821q189 0 311.5 103t122.5 260q0 156 -123 259t-311 103q-190 0 -314 -102.5t-124 -259.5q0 -158 123.5 -260.5t314.5 -102.5zM602 942h-102v492h221
q82 0 144.5 -38.5t62.5 -117.5q0 -58 -36 -97t-95 -53l153 -186h-119l-143 178h-86v-178zM602 1352v-150h113q47 0 74.5 19t27.5 57q0 37 -29.5 55.5t-76.5 18.5h-109z" />
    <glyph glyph-name="degree" unicode="&#xb0;" horiz-adv-x="923" 
d="M461 1051q-153 0 -252.5 86.5t-99.5 214.5q0 127 100 212t252 85q151 0 252.5 -86t101.5 -211q0 -127 -101.5 -214t-252.5 -87zM461 1176q90 0 149.5 50.5t59.5 125.5q0 73 -59.5 123.5t-149.5 50.5q-87 0 -148 -51t-61 -123q0 -75 60.5 -125.5t148.5 -50.5z" />
    <glyph glyph-name="plusminus" unicode="&#xb1;" horiz-adv-x="1290" 
d="M1116 813v-164h-377v-205h377v-159h-942v159h373v205h-373v164h373v238h192v-238h377z" />
    <glyph glyph-name="uni00B2" unicode="&#xb2;" horiz-adv-x="804" 
d="M713 772h-615v21q3 69 18 117.5t52.5 90t83.5 73.5t129 79q5 3 25.5 15.5t29 18t26.5 18t26.5 21.5t19.5 22t15.5 27t4.5 28q0 36 -35 59.5t-92 23.5q-73 0 -117.5 -39.5t-45.5 -107.5l-164 23q0 123 93.5 199.5t235.5 76.5q133 0 221.5 -65.5t88.5 -169.5
q0 -133 -160 -213q-17 -10 -53 -27.5t-56 -29t-45 -28.5t-41 -36t-24 -41h379v-156z" />
    <glyph glyph-name="uni00B3" unicode="&#xb3;" horiz-adv-x="815" 
d="M395 756q-122 0 -215 48t-119 124l156 71q52 -104 178 -104q63 0 104.5 26t41.5 74q0 50 -44 73.5t-118 23.5h-86v118h90q63 0 103 25.5t40 67.5q0 41 -38.5 66.5t-96.5 25.5q-59 0 -99.5 -29.5t-47.5 -79.5l-162 33q12 94 103 156.5t221 62.5q125 0 212 -55.5t87 -145.5
q0 -58 -38 -105.5t-102 -60.5v-2q70 -11 118 -59t48 -115q0 -94 -90 -166.5t-246 -72.5z" />
    <glyph glyph-name="paragraph" unicode="&#xb6;" horiz-adv-x="1808" 
d="M1114 -287h-231v942h-232q-254 0 -411.5 133.5t-157.5 346.5q0 201 162.5 331.5t453.5 130.5h416v-1884zM1542 -287h-233v1884h233v-1884z" />
    <glyph glyph-name="periodcentered" unicode="&#xb7;" horiz-adv-x="700" 
d="M352 477q-83 0 -140.5 54t-57.5 131q0 72 57.5 123t140.5 51q80 0 136.5 -51t56.5 -123q0 -76 -56.5 -130.5t-136.5 -54.5z" />
    <glyph glyph-name="uni00B9" unicode="&#xb9;" horiz-adv-x="571" 
d="M422 772h-176v490q-78 -62 -189 -84v176q86 21 138.5 68.5t52.5 99.5h174v-750z" />
    <glyph glyph-name="guillemotright" unicode="&#xbb;" horiz-adv-x="1443" 
d="M397 164h-241l393 405v9l-393 405h241l391 -405v-9zM928 164h-242l395 405v9l-395 405h242l391 -405v-9z" />
    <glyph glyph-name="onequarter" unicode="&#xbc;" horiz-adv-x="1726" 
d="M422 772h-176v490q-78 -62 -189 -84v176q86 21 138.5 68.5t52.5 99.5h174v-750zM201 0h-207l1366 1468h199zM1540 -12h-172v149h-422v133l426 467h168v-461h115v-139h-115v-149zM1368 524l-248 -248h248v248z" />
    <glyph glyph-name="onehalf" unicode="&#xbd;" horiz-adv-x="1785" 
d="M422 772h-176v490q-78 -62 -189 -84v176q86 21 138.5 68.5t52.5 99.5h174v-750zM201 0h-207l1366 1468h199zM1694 -12h-615v20q3 69 18 117.5t52 90.5t84 74.5t129 78.5q6 4 25.5 15.5t29 17.5t26.5 18t26.5 21.5t20 22t15 26.5t4.5 28q0 36 -35 60t-92 24
q-73 0 -117.5 -39.5t-45.5 -107.5l-164 22q0 123 94 200t235 77q132 0 221 -66t89 -170q0 -133 -160 -213q-17 -10 -53 -27.5t-56 -29t-45 -28.5t-41 -36t-24 -41h379v-155z" />
    <glyph glyph-name="threequarters" unicode="&#xbe;" horiz-adv-x="1970" 
d="M395 756q-122 0 -215 48t-119 124l156 71q52 -104 178 -104q63 0 104.5 26t41.5 74q0 50 -44 73.5t-118 23.5h-86v118h90q63 0 103 25.5t40 67.5q0 41 -38.5 66.5t-96.5 25.5q-59 0 -99.5 -29.5t-47.5 -79.5l-162 33q12 94 103 156.5t221 62.5q125 0 212 -55.5t87 -145.5
q0 -58 -38 -105.5t-102 -60.5v-2q70 -11 118 -59t48 -115q0 -94 -90 -166.5t-246 -72.5zM444 0h-206l1366 1468h198zM1786 -12h-172v149h-422v133l426 467h168v-461h115v-139h-115v-149zM1614 524l-248 -248h248v248z" />
    <glyph glyph-name="questiondown" unicode="&#xbf;" horiz-adv-x="1341" 
d="M733 877q-67 0 -114.5 42t-47.5 103q0 60 47 103.5t113 43.5q67 0 114.5 -43.5t47.5 -105.5q0 -60 -47 -101.5t-113 -41.5zM668 -475q-114 0 -219 30t-186 84.5t-129 137.5t-48 182q0 59 19 114t48.5 97t75.5 84t88.5 71.5t98.5 63.5q47 28 69.5 42.5t56.5 39t48 41
t31.5 42.5t21 51.5t2 59t-11.5 72.5h231q13 -60 14.5 -107.5t-12 -88t-34 -72t-60 -64.5t-80 -59.5t-104.5 -62.5q-61 -38 -100 -66.5t-78.5 -67t-58.5 -81t-19 -91.5q0 -114 102 -183.5t248 -69.5q81 0 153 24.5t124.5 69t78 113.5t13.5 151l211 -35q11 -118 -31.5 -217.5
t-125 -165.5t-195.5 -102.5t-242 -36.5z" />
    <glyph glyph-name="Agrave" unicode="&#xc0;" horiz-adv-x="1837" 
d="M1053 1720h-203l-401 340h301zM270 0h-245l761 1597h265l761 -1597h-247q-25 52 -110.5 223t-133.5 269h-809zM612 702h609q-202 414 -299 633h-7q-41 -86 -303 -633z" />
    <glyph glyph-name="Aacute" unicode="&#xc1;" horiz-adv-x="1837" 
d="M1405 2060l-404 -340h-200l301 340h303zM270 0h-245l761 1597h265l761 -1597h-247q-25 52 -110.5 223t-133.5 269h-809zM612 702h609q-202 414 -299 633h-7q-41 -86 -303 -633z" />
    <glyph glyph-name="Acircumflex" unicode="&#xc2;" horiz-adv-x="1837" 
d="M1040 2050l330 -330h-205q-194 149 -247 193q-63 -53 -250 -193h-205l330 330h247zM270 0h-245l761 1597h265l761 -1597h-247q-25 52 -110.5 223t-133.5 269h-809zM612 702h609q-202 414 -299 633h-7q-41 -86 -303 -633z" />
    <glyph glyph-name="Atilde" unicode="&#xc3;" horiz-adv-x="1837" 
d="M1104 1739q-45 0 -82.5 10t-56.5 20.5t-50 30.5l-55 35q-58 43 -112 43q-51 0 -83 -35.5t-32 -87.5h-162q1 126 77.5 204.5t194.5 78.5q85 0 181 -60l55 -34q55 -41 115 -41q50 0 76 32.5t26 87.5h166q0 -134 -67.5 -209t-190.5 -75zM270 0h-245l761 1597h265l761 -1597
h-247q-25 52 -110.5 223t-133.5 269h-809zM612 702h609q-202 414 -299 633h-7q-41 -86 -303 -633z" />
    <glyph glyph-name="Adieresis" unicode="&#xc4;" horiz-adv-x="1837" 
d="M666 1759q-63 0 -108.5 41t-45.5 101q0 55 45.5 95t108.5 40q64 0 108.5 -39.5t44.5 -95.5q0 -60 -44 -101t-109 -41zM1169 1759q-66 0 -110.5 41t-44.5 101q0 56 45 95.5t110 39.5q62 0 107 -40t45 -95q0 -59 -45 -100.5t-107 -41.5zM270 0h-245l761 1597h265l761 -1597
h-247q-25 52 -110.5 223t-133.5 269h-809zM612 702h609q-202 414 -299 633h-7q-41 -86 -303 -633z" />
    <glyph glyph-name="Aring" unicode="&#xc5;" horiz-adv-x="1837" 
d="M915 1712q-122 0 -204 67t-82 167t82 166.5t204 66.5q120 0 201.5 -66.5t81.5 -166.5t-82 -167t-201 -67zM915 1837q58 0 98 30.5t40 78.5q0 46 -40 76t-98 30q-62 0 -101.5 -29.5t-39.5 -76.5q0 -49 39.5 -79t101.5 -30zM270 0h-245l761 1597h265l761 -1597h-247
q-25 52 -110.5 223t-133.5 269h-809zM612 702h609q-202 414 -299 633h-7q-41 -86 -303 -633z" />
    <glyph glyph-name="AE" unicode="&#xc6;" horiz-adv-x="2562" 
d="M201 0h-258l1114 1597h1356v-202h-986v-473h936v-211h-936v-504h1010v-207h-1245v485h-633q-105 -141 -358 -485zM686 698h506v697h-4q-84 -115 -251 -348t-251 -349z" />
    <glyph glyph-name="Ccedilla" unicode="&#xc7;" horiz-adv-x="2058" 
d="M1796 610l215 -71q-100 -268 -327.5 -418t-559.5 -156l-84 -98q36 12 84 12q102 0 168 -49t66 -131q0 -91 -83.5 -148t-211.5 -57q-96 0 -180.5 32.5t-137.5 88.5l82 84q40 -46 101 -70t127 -24q64 0 106.5 26t42.5 68q0 39 -39 63.5t-100 24.5q-64 0 -113 -27l-80 60
l117 149q-255 20 -452 129t-306.5 291t-109.5 410q0 152 50 285t139 232t209.5 170.5t264 107.5t299.5 36q188 0 358 -55t302 -166t194 -262l-213 -82q-84 165 -255 261.5t-388 96.5q-146 0 -275.5 -44t-227 -124t-154.5 -200t-57 -264q0 -125 42.5 -229.5t114.5 -175.5
t168 -120t201.5 -71.5t216.5 -22.5q262 0 439 119t247 319z" />
    <glyph glyph-name="Egrave" unicode="&#xc8;" horiz-adv-x="1609" 
d="M963 1720h-203l-402 340h301zM1485 0h-1243v1597h1218v-202h-985v-473h936v-211h-936v-504h1010v-207z" />
    <glyph glyph-name="Eacute" unicode="&#xc9;" horiz-adv-x="1609" 
d="M1315 2060l-404 -340h-200l301 340h303zM1485 0h-1243v1597h1218v-202h-985v-473h936v-211h-936v-504h1010v-207z" />
    <glyph glyph-name="Ecircumflex" unicode="&#xca;" horiz-adv-x="1609" 
d="M950 2050l330 -330h-205q-208 159 -248 193q-72 -60 -249 -193h-205l329 330h248zM1485 0h-1243v1597h1218v-202h-985v-473h936v-211h-936v-504h1010v-207z" />
    <glyph glyph-name="Edieresis" unicode="&#xcb;" horiz-adv-x="1609" 
d="M575 1759q-63 0 -108 41t-45 101q0 56 45 95.5t108 39.5q64 0 109 -39.5t45 -95.5q0 -60 -44.5 -101t-109.5 -41zM1079 1759q-66 0 -110.5 41t-44.5 101q0 56 45 95.5t110 39.5q62 0 107 -40t45 -95q0 -59 -45 -100.5t-107 -41.5zM1485 0h-1243v1597h1218v-202h-985v-473
h936v-211h-936v-504h1010v-207z" />
    <glyph glyph-name="Igrave" unicode="&#xcc;" horiz-adv-x="716" 
d="M492 1720h-203l-402 340h301zM475 0h-233v1597h233v-1597z" />
    <glyph glyph-name="Iacute" unicode="&#xcd;" horiz-adv-x="716" 
d="M846 2060l-404 -340h-200l301 340h303zM475 0h-233v1597h233v-1597z" />
    <glyph glyph-name="Icircumflex" unicode="&#xce;" horiz-adv-x="716" 
d="M481 2050l330 -330h-205q-208 159 -248 193q-72 -60 -249 -193h-205l329 330h248zM475 0h-233v1597h233v-1597z" />
    <glyph glyph-name="Idieresis" unicode="&#xcf;" horiz-adv-x="716" 
d="M104 1759q-63 0 -108 41t-45 101q0 56 45 95.5t108 39.5q64 0 109 -39.5t45 -95.5q0 -60 -44.5 -101t-109.5 -41zM608 1759q-66 0 -110.5 41t-44.5 101q0 56 45 95.5t110 39.5q62 0 107 -40t45 -95q0 -59 -45 -100.5t-107 -41.5zM475 0h-233v1597h233v-1597z" />
    <glyph glyph-name="Eth" unicode="&#xd0;" horiz-adv-x="1968" 
d="M242 1597h694q187 0 339.5 -40.5t257 -112t176 -171.5t104 -216t32.5 -248q0 -178 -61 -327t-173 -256t-280 -166.5t-373 -59.5h-716v709h-222v178h222v710zM952 203q143 0 260.5 36.5t204 108t134.5 185.5t48 262q0 130 -36 232t-99.5 170.5t-155 113.5t-197 64.5
t-230.5 19.5h-406v-508h567v-178h-567v-506h477z" />
    <glyph glyph-name="Ntilde" unicode="&#xd1;" horiz-adv-x="2019" 
d="M1176 1767q-45 0 -83 10.5t-56 20.5t-50 31l-55 35q-58 43 -113 43q-51 0 -82.5 -35.5t-31.5 -87.5h-162q1 126 77.5 204t194.5 78q86 0 180 -59l56 -35q55 -41 114 -41q50 0 76.5 33t26.5 88h166q0 -134 -68 -209.5t-190 -75.5zM475 0h-233v1597h247
q39 -45 239.5 -275.5t289 -333t244.5 -284.5t278 -329h6v1222h232v-1597h-248q-39 45 -440.5 501t-610.5 703h-4v-1204z" />
    <glyph glyph-name="Ograve" unicode="&#xd2;" horiz-adv-x="2166" 
d="M1217 1720h-203l-402 340h301zM1083 -35q-157 0 -302.5 39.5t-265 113.5t-209 175t-138.5 231t-49 273q0 178 76 334t206 265t307.5 171.5t374.5 62.5q200 0 378.5 -64t307.5 -174t204 -265t75 -330q0 -176 -75.5 -331t-205 -264.5t-307.5 -173t-377 -63.5zM1085 172
q193 0 356 80.5t260 224.5t97 320q0 175 -96.5 319.5t-259.5 225.5t-357 81q-144 0 -276 -47t-229.5 -128.5t-155 -199t-57.5 -251.5t58 -251.5t155.5 -198.5t229 -128t275.5 -47z" />
    <glyph glyph-name="Oacute" unicode="&#xd3;" horiz-adv-x="2166" 
d="M1569 2060l-404 -340h-200l301 340h303zM1083 -35q-157 0 -302.5 39.5t-265 113.5t-209 175t-138.5 231t-49 273q0 178 76 334t206 265t307.5 171.5t374.5 62.5q200 0 378.5 -64t307.5 -174t204 -265t75 -330q0 -176 -75.5 -331t-205 -264.5t-307.5 -173t-377 -63.5z
M1085 172q193 0 356 80.5t260 224.5t97 320q0 175 -96.5 319.5t-259.5 225.5t-357 81q-144 0 -276 -47t-229.5 -128.5t-155 -199t-57.5 -251.5t58 -251.5t155.5 -198.5t229 -128t275.5 -47z" />
    <glyph glyph-name="Ocircumflex" unicode="&#xd4;" horiz-adv-x="2166" 
d="M1204 2050l330 -330h-205q-208 159 -248 193q-63 -53 -250 -193h-204l329 330h248zM1083 -35q-157 0 -302.5 39.5t-265 113.5t-209 175t-138.5 231t-49 273q0 178 76 334t206 265t307.5 171.5t374.5 62.5q200 0 378.5 -64t307.5 -174t204 -265t75 -330q0 -176 -75.5 -331
t-205 -264.5t-307.5 -173t-377 -63.5zM1085 172q193 0 356 80.5t260 224.5t97 320q0 175 -96.5 319.5t-259.5 225.5t-357 81q-144 0 -276 -47t-229.5 -128.5t-155 -199t-57.5 -251.5t58 -251.5t155.5 -198.5t229 -128t275.5 -47z" />
    <glyph glyph-name="Otilde" unicode="&#xd5;" horiz-adv-x="2166" 
d="M1270 1767q-45 0 -83 10.5t-56 20.5t-50 31l-55 35q-58 43 -113 43q-51 0 -82.5 -35.5t-31.5 -87.5h-162q1 126 77.5 204t194.5 78q87 0 181 -59l55 -35q55 -41 115 -41q50 0 76 32.5t26 88.5h166q0 -134 -68 -209.5t-190 -75.5zM1083 -35q-157 0 -302.5 39.5t-265 113.5
t-209 175t-138.5 231t-49 273q0 178 76 334t206 265t307.5 171.5t374.5 62.5q200 0 378.5 -64t307.5 -174t204 -265t75 -330q0 -176 -75.5 -331t-205 -264.5t-307.5 -173t-377 -63.5zM1085 172q193 0 356 80.5t260 224.5t97 320q0 175 -96.5 319.5t-259.5 225.5t-357 81
q-144 0 -276 -47t-229.5 -128.5t-155 -199t-57.5 -251.5t58 -251.5t155.5 -198.5t229 -128t275.5 -47z" />
    <glyph glyph-name="Odieresis" unicode="&#xd6;" horiz-adv-x="2166" 
d="M829 1759q-63 0 -108 41t-45 101q0 56 45 95.5t108 39.5q64 0 109 -39.5t45 -95.5q0 -60 -44.5 -101t-109.5 -41zM1333 1759q-66 0 -110.5 41t-44.5 101q0 56 45 95.5t110 39.5q62 0 107 -40t45 -95q0 -59 -45 -100.5t-107 -41.5zM1083 -35q-157 0 -302.5 39.5
t-265 113.5t-209 175t-138.5 231t-49 273q0 178 76 334t206 265t307.5 171.5t374.5 62.5q200 0 378.5 -64t307.5 -174t204 -265t75 -330q0 -176 -75.5 -331t-205 -264.5t-307.5 -173t-377 -63.5zM1085 172q193 0 356 80.5t260 224.5t97 320q0 175 -96.5 319.5t-259.5 225.5
t-357 81q-144 0 -276 -47t-229.5 -128.5t-155 -199t-57.5 -251.5t58 -251.5t155.5 -198.5t229 -128t275.5 -47z" />
    <glyph glyph-name="multiply" unicode="&#xd7;" horiz-adv-x="1146" 
d="M449 625l-289 241l129 121l289 -244l278 238l127 -121l-276 -235l282 -242l-131 -119l-280 242l-283 -240l-129 117z" />
    <glyph glyph-name="Oslash" unicode="&#xd8;" horiz-adv-x="2166" 
d="M1907 1661l-189 -229q155 -115 242.5 -279t87.5 -356q0 -176 -75.5 -331t-205 -264.5t-307.5 -173t-377 -63.5q-258 0 -483 107l-113 -138h-233l190 232q-153 113 -239 276t-86 355q0 178 76 334t206 265t307.5 171.5t374.5 62.5q265 0 478 -104l110 135h236zM367 797
q0 -136 58.5 -252.5t162.5 -202.5l831 1012q-153 69 -334 69q-144 0 -276 -47t-229.5 -128.5t-155 -199t-57.5 -251.5zM1085 172q193 0 356 80.5t260 224.5t97 320q0 137 -59 255t-164 203l-832 -1009q161 -74 342 -74z" />
    <glyph glyph-name="Ugrave" unicode="&#xd9;" horiz-adv-x="1843" 
d="M1057 1720h-203l-401 340h301zM918 -35q-146 0 -264 34t-198.5 92.5t-134.5 140t-78 173.5t-24 197v995h236v-979q0 -218 120 -333t347 -115t347 115t120 333v979h235v-995q0 -97 -21.5 -185t-73 -172t-130.5 -145t-202 -98t-279 -37z" />
    <glyph glyph-name="Uacute" unicode="&#xda;" horiz-adv-x="1843" 
d="M1313 2062l-404 -342h-200l301 342h303zM918 -35q-146 0 -264 34t-198.5 92.5t-134.5 140t-78 173.5t-24 197v995h236v-979q0 -218 120 -333t347 -115t347 115t120 333v979h235v-995q0 -97 -21.5 -185t-73 -172t-130.5 -145t-202 -98t-279 -37z" />
    <glyph glyph-name="Ucircumflex" unicode="&#xdb;" horiz-adv-x="1843" 
d="M1047 2050l329 -330h-205q-194 149 -247 193q-63 -53 -250 -193h-205l330 330h248zM918 -35q-146 0 -264 34t-198.5 92.5t-134.5 140t-78 173.5t-24 197v995h236v-979q0 -218 120 -333t347 -115t347 115t120 333v979h235v-995q0 -97 -21.5 -185t-73 -172t-130.5 -145
t-202 -98t-279 -37z" />
    <glyph glyph-name="Udieresis" unicode="&#xdc;" horiz-adv-x="1843" 
d="M670 1759q-63 0 -108.5 41t-45.5 101q0 55 45.5 95t108.5 40q64 0 108.5 -39.5t44.5 -95.5q0 -60 -44 -101t-109 -41zM1174 1759q-66 0 -111 41t-45 101q0 56 45 95.5t111 39.5q62 0 106.5 -40t44.5 -95q0 -60 -44.5 -101t-106.5 -41zM918 -35q-146 0 -264 34
t-198.5 92.5t-134.5 140t-78 173.5t-24 197v995h236v-979q0 -218 120 -333t347 -115t347 115t120 333v979h235v-995q0 -97 -21.5 -185t-73 -172t-130.5 -145t-202 -98t-279 -37z" />
    <glyph glyph-name="Yacute" unicode="&#xdd;" horiz-adv-x="1701" 
d="M1274 2062l-404 -342h-200l301 342h303zM967 0h-232v567q-74 109 -237.5 352t-282.5 418.5t-180 259.5h252q94 -135 281.5 -406.5t281.5 -406.5h4q58 83 123.5 180.5t162 237.5t277.5 395h252q-118 -171 -351 -514t-351 -514v-569z" />
    <glyph glyph-name="Thorn" unicode="&#xde;" horiz-adv-x="1681" 
d="M475 0h-233v1597h233v-276h459q92 0 178 -14.5t172 -50t149 -89.5t102.5 -140.5t39.5 -195.5q0 -113 -40.5 -203t-103.5 -145.5t-146 -92.5t-162.5 -51.5t-159.5 -14.5h-488v-324zM475 1118v-583h428q92 0 167 16t134 49.5t92 91.5t33 135q0 76 -35 133.5t-97 91t-138 50
t-166 16.5h-418z" />
    <glyph glyph-name="germandbls" unicode="&#xdf;" horiz-adv-x="1552" 
d="M424 0h-221v1094q0 49 4.5 95.5t20 106.5t41 110.5t71 101.5t105.5 86t149.5 57t198.5 22q275 0 433 -128.5t158 -325.5q0 -148 -91.5 -251.5t-233.5 -127.5v-4q172 -19 282.5 -122.5t110.5 -262.5q0 -89 -40.5 -169t-118.5 -143.5t-206 -101t-290 -37.5h-176v186h202
q176 0 286 77.5t110 197.5q0 113 -99.5 187.5t-253.5 74.5h-125v184h101q138 0 225.5 76.5t87.5 206.5q0 129 -92.5 211t-271.5 82q-68 0 -124 -15t-93 -38.5t-65.5 -56.5t-44 -65.5t-25 -68.5t-12.5 -61.5t-3 -49.5v-1128z" />
    <glyph glyph-name="agrave" unicode="&#xe0;" horiz-adv-x="1419" 
d="M823 1278h-192l-373 385h281zM547 -35q-120 0 -218.5 33.5t-161.5 106.5t-63 174q0 64 26.5 115.5t68.5 87t106 64t128.5 45.5t146.5 32q35 6 93.5 15t90.5 14.5t77 15t69.5 20t49.5 26t35.5 37t10.5 48.5q0 81 -86 139.5t-220 58.5q-124 0 -213.5 -55.5t-124.5 -155.5
l-210 66q29 82 87.5 144.5t134.5 99.5t159.5 55t173.5 18q145 0 261 -41.5t189.5 -132t73.5 -217.5v-424q0 -130 10 -204t33 -150h-219q-33 83 -33 195h-6q-63 -104 -184.5 -167t-284.5 -63zM594 129q91 0 171 30t131 76t80.5 101t29.5 106v127q-61 -29 -124 -46.5
t-182 -37.5q-40 -7 -63 -11t-65.5 -14t-69 -19.5t-60 -26t-52.5 -34t-32.5 -43t-13.5 -54.5q0 -71 69 -112.5t181 -41.5z" />
    <glyph glyph-name="aacute" unicode="&#xe1;" horiz-adv-x="1419" 
d="M1176 1663l-373 -385h-193l285 385h281zM547 -35q-120 0 -218.5 33.5t-161.5 106.5t-63 174q0 64 26.5 115.5t68.5 87t106 64t128.5 45.5t146.5 32q35 6 93.5 15t90.5 14.5t77 15t69.5 20t49.5 26t35.5 37t10.5 48.5q0 81 -86 139.5t-220 58.5q-124 0 -213.5 -55.5
t-124.5 -155.5l-210 66q29 82 87.5 144.5t134.5 99.5t159.5 55t173.5 18q145 0 261 -41.5t189.5 -132t73.5 -217.5v-424q0 -130 10 -204t33 -150h-219q-33 83 -33 195h-6q-63 -104 -184.5 -167t-284.5 -63zM594 129q91 0 171 30t131 76t80.5 101t29.5 106v127
q-61 -29 -124 -46.5t-182 -37.5q-40 -7 -63 -11t-65.5 -14t-69 -19.5t-60 -26t-52.5 -34t-32.5 -43t-13.5 -54.5q0 -71 69 -112.5t181 -41.5z" />
    <glyph glyph-name="acircumflex" unicode="&#xe2;" horiz-adv-x="1419" 
d="M444 1278h-208l356 364h256l356 -364h-209q-259 219 -274 233q-174 -150 -277 -233zM547 -35q-120 0 -218.5 33.5t-161.5 106.5t-63 174q0 64 26.5 115.5t68.5 87t106 64t128.5 45.5t146.5 32q35 6 93.5 15t90.5 14.5t77 15t69.5 20t49.5 26t35.5 37t10.5 48.5
q0 81 -86 139.5t-220 58.5q-124 0 -213.5 -55.5t-124.5 -155.5l-210 66q29 82 87.5 144.5t134.5 99.5t159.5 55t173.5 18q145 0 261 -41.5t189.5 -132t73.5 -217.5v-424q0 -130 10 -204t33 -150h-219q-33 83 -33 195h-6q-63 -104 -184.5 -167t-284.5 -63zM594 129
q91 0 171 30t131 76t80.5 101t29.5 106v127q-61 -29 -124 -46.5t-182 -37.5q-40 -7 -63 -11t-65.5 -14t-69 -19.5t-60 -26t-52.5 -34t-32.5 -43t-13.5 -54.5q0 -71 69 -112.5t181 -41.5z" />
    <glyph glyph-name="atilde" unicode="&#xe3;" horiz-adv-x="1419" 
d="M911 1307q-45 0 -82.5 10t-56 20t-49.5 31l-55 35q-58 43 -113 43q-51 0 -83 -35.5t-32 -87.5h-161q1 126 77.5 204.5t194.5 78.5q84 0 180 -60l55 -35q55 -41 115 -41q50 0 76.5 33t26.5 88h165q0 -134 -67.5 -209t-190.5 -75zM547 -35q-120 0 -218.5 33.5t-161.5 106.5
t-63 174q0 64 26.5 115.5t68.5 87t106 64t128.5 45.5t146.5 32q35 6 93.5 15t90.5 14.5t77 15t69.5 20t49.5 26t35.5 37t10.5 48.5q0 81 -86 139.5t-220 58.5q-124 0 -213.5 -55.5t-124.5 -155.5l-210 66q29 82 87.5 144.5t134.5 99.5t159.5 55t173.5 18q145 0 261 -41.5
t189.5 -132t73.5 -217.5v-424q0 -130 10 -204t33 -150h-219q-33 83 -33 195h-6q-63 -104 -184.5 -167t-284.5 -63zM594 129q91 0 171 30t131 76t80.5 101t29.5 106v127q-61 -29 -124 -46.5t-182 -37.5q-40 -7 -63 -11t-65.5 -14t-69 -19.5t-60 -26t-52.5 -34t-32.5 -43
t-13.5 -54.5q0 -71 69 -112.5t181 -41.5z" />
    <glyph glyph-name="adieresis" unicode="&#xe4;" horiz-adv-x="1419" 
d="M483 1337q-61 0 -104 40t-43 96q0 53 43 92t104 39q62 0 104 -39t42 -92q0 -56 -42 -96t-104 -40zM956 1337q-62 0 -104.5 40t-42.5 96q0 53 42.5 92t104.5 39q61 0 104.5 -39t43.5 -92q0 -56 -43.5 -96t-104.5 -40zM547 -35q-120 0 -218.5 33.5t-161.5 106.5t-63 174
q0 64 26.5 115.5t68.5 87t106 64t128.5 45.5t146.5 32q35 6 93.5 15t90.5 14.5t77 15t69.5 20t49.5 26t35.5 37t10.5 48.5q0 81 -86 139.5t-220 58.5q-124 0 -213.5 -55.5t-124.5 -155.5l-210 66q29 82 87.5 144.5t134.5 99.5t159.5 55t173.5 18q145 0 261 -41.5t189.5 -132
t73.5 -217.5v-424q0 -130 10 -204t33 -150h-219q-33 83 -33 195h-6q-63 -104 -184.5 -167t-284.5 -63zM594 129q91 0 171 30t131 76t80.5 101t29.5 106v127q-61 -29 -124 -46.5t-182 -37.5q-40 -7 -63 -11t-65.5 -14t-69 -19.5t-60 -26t-52.5 -34t-32.5 -43t-13.5 -54.5
q0 -71 69 -112.5t181 -41.5z" />
    <glyph glyph-name="aring" unicode="&#xe5;" horiz-adv-x="1419" 
d="M721 1251q-123 0 -205 67t-82 167t82 166.5t205 66.5q120 0 201.5 -66.5t81.5 -166.5t-82 -167t-201 -67zM721 1376q58 0 97.5 30t39.5 79q0 47 -39.5 76.5t-97.5 29.5q-62 0 -102.5 -29.5t-40.5 -76.5q0 -49 40.5 -79t102.5 -30zM547 -35q-120 0 -218.5 33.5
t-161.5 106.5t-63 174q0 64 26.5 115.5t68.5 87t106 64t128.5 45.5t146.5 32q35 6 93.5 15t90.5 14.5t77 15t69.5 20t49.5 26t35.5 37t10.5 48.5q0 81 -86 139.5t-220 58.5q-124 0 -213.5 -55.5t-124.5 -155.5l-210 66q29 82 87.5 144.5t134.5 99.5t159.5 55t173.5 18
q145 0 261 -41.5t189.5 -132t73.5 -217.5v-424q0 -130 10 -204t33 -150h-219q-33 83 -33 195h-6q-63 -104 -184.5 -167t-284.5 -63zM594 129q91 0 171 30t131 76t80.5 101t29.5 106v127q-61 -29 -124 -46.5t-182 -37.5q-40 -7 -63 -11t-65.5 -14t-69 -19.5t-60 -26
t-52.5 -34t-32.5 -43t-13.5 -54.5q0 -71 69 -112.5t181 -41.5z" />
    <glyph glyph-name="ae" unicode="&#xe6;" horiz-adv-x="2435" 
d="M545 -35q-124 0 -222 34.5t-158.5 107t-60.5 172.5q0 65 27 118t69.5 88t107.5 63t128 44.5t144 30.5q31 5 75 12t72.5 11t65 10.5t60.5 13t51 15t43.5 19.5t31 24.5t21 31.5t6.5 39q0 78 -86.5 138t-219.5 60q-122 0 -211.5 -56t-126.5 -155l-210 66q40 107 130 180.5
t198.5 105t232.5 31.5q151 0 279 -49t182 -145q86 92 218.5 143t293.5 51q90 0 176 -18.5t170 -62.5t147 -109t102 -167t39 -228v-64h-1087q9 -165 139 -266.5t322 -101.5q153 0 266.5 65t167.5 174l205 -76q-76 -160 -246 -255t-393 -95q-199 0 -357 72t-231 207h-6
q-81 -129 -226 -204t-329 -75zM1241 676h846q-5 68 -32 123t-67.5 89.5t-93 58t-106.5 33t-111 9.5q-169 0 -286.5 -84t-149.5 -229zM592 129q91 0 171 30.5t132 77t81.5 101t29.5 104.5v125q-71 -33 -124 -45.5t-169 -29.5q-369 -55 -369 -205q0 -75 69.5 -116.5
t178.5 -41.5z" />
    <glyph glyph-name="ccedilla" unicode="&#xe7;" horiz-adv-x="1497" 
d="M1237 414l205 -76q-74 -169 -237.5 -267t-377.5 -106l-86 -98q36 12 84 12q102 0 168 -49t66 -131q0 -91 -83.5 -148t-211.5 -57q-96 0 -180.5 32.5t-137.5 88.5l82 84q40 -46 101 -70t127 -24q64 0 106.5 26t42.5 68q0 39 -39 63.5t-100 24.5q-64 0 -113 -27l-80 60
l119 149q-262 28 -425 188.5t-163 407.5q0 179 88.5 317.5t243.5 212.5t352 74q132 0 248 -36.5t210 -114t145 -187.5l-209 -77q-46 106 -153 162.5t-247 56.5q-200 0 -323 -115t-123 -291q0 -182 130 -294.5t331 -112.5q157 0 270 67.5t170 186.5z" />
    <glyph glyph-name="egrave" unicode="&#xe8;" horiz-adv-x="1384" 
d="M801 1278h-193l-372 385h280zM717 -35q-177 0 -319 74t-224 211t-82 313q0 264 173.5 435t441.5 171q58 0 114.5 -9.5t114 -30.5t108.5 -52.5t95.5 -79t76 -106.5t50 -137.5t18.5 -169.5v-76h-973q10 -165 123.5 -260.5t284.5 -95.5q133 0 231.5 65t147.5 174l198 -76
q-68 -160 -222 -255t-357 -95zM319 686h744q-4 79 -36.5 139.5t-84.5 95t-112.5 51.5t-127.5 17q-151 0 -253.5 -85t-129.5 -218z" />
    <glyph glyph-name="eacute" unicode="&#xe9;" horiz-adv-x="1384" 
d="M1153 1663l-373 -385h-192l284 385h281zM717 -35q-177 0 -319 74t-224 211t-82 313q0 264 173.5 435t441.5 171q58 0 114.5 -9.5t114 -30.5t108.5 -52.5t95.5 -79t76 -106.5t50 -137.5t18.5 -169.5v-76h-973q10 -165 123.5 -260.5t284.5 -95.5q133 0 231.5 65t147.5 174
l198 -76q-68 -160 -222 -255t-357 -95zM319 686h744q-4 79 -36.5 139.5t-84.5 95t-112.5 51.5t-127.5 17q-151 0 -253.5 -85t-129.5 -218z" />
    <glyph glyph-name="ecircumflex" unicode="&#xea;" horiz-adv-x="1384" 
d="M422 1278h-209l356 364h256l357 -364h-209q-31 26 -86.5 72t-101 85t-87.5 76q-190 -163 -276 -233zM717 -35q-177 0 -319 74t-224 211t-82 313q0 264 173.5 435t441.5 171q58 0 114.5 -9.5t114 -30.5t108.5 -52.5t95.5 -79t76 -106.5t50 -137.5t18.5 -169.5v-76h-973
q10 -165 123.5 -260.5t284.5 -95.5q133 0 231.5 65t147.5 174l198 -76q-68 -160 -222 -255t-357 -95zM319 686h744q-4 79 -36.5 139.5t-84.5 95t-112.5 51.5t-127.5 17q-151 0 -253.5 -85t-129.5 -218z" />
    <glyph glyph-name="edieresis" unicode="&#xeb;" horiz-adv-x="1384" 
d="M461 1337q-61 0 -104.5 40t-43.5 96q0 53 43.5 92t104.5 39q62 0 103.5 -38.5t41.5 -92.5q0 -56 -41.5 -96t-103.5 -40zM934 1337q-62 0 -105 40t-43 96q0 53 43 92t105 39q61 0 104 -39t43 -92q0 -56 -43 -96t-104 -40zM717 -35q-177 0 -319 74t-224 211t-82 313
q0 264 173.5 435t441.5 171q58 0 114.5 -9.5t114 -30.5t108.5 -52.5t95.5 -79t76 -106.5t50 -137.5t18.5 -169.5v-76h-973q10 -165 123.5 -260.5t284.5 -95.5q133 0 231.5 65t147.5 174l198 -76q-68 -160 -222 -255t-357 -95zM319 686h744q-4 79 -36.5 139.5t-84.5 95
t-112.5 51.5t-127.5 17q-151 0 -253.5 -85t-129.5 -218z" />
    <glyph glyph-name="igrave" unicode="&#xec;" horiz-adv-x="626" 
d="M418 1268h-193l-372 385h280zM424 0h-221v1137h221v-1137z" />
    <glyph glyph-name="iacute" unicode="&#xed;" horiz-adv-x="626" 
d="M770 1653l-373 -385h-192l284 385h281zM424 0h-221v1137h221v-1137z" />
    <glyph glyph-name="icircumflex" unicode="&#xee;" horiz-adv-x="626" 
d="M37 1268h-209l356 364h256l357 -364h-209q-31 26 -86.5 72t-101 85t-87.5 76q-190 -163 -276 -233zM424 0h-221v1137h221v-1137z" />
    <glyph glyph-name="idieresis" unicode="&#xef;" horiz-adv-x="626" 
d="M78 1327q-61 0 -104.5 39.5t-43.5 95.5q0 53 43.5 92t104.5 39q62 0 103.5 -38.5t41.5 -92.5q0 -56 -41.5 -95.5t-103.5 -39.5zM551 1327q-63 0 -105.5 39.5t-42.5 95.5q0 53 43 92t105 39q61 0 104 -39t43 -92q0 -56 -43 -95.5t-104 -39.5zM424 0h-221v1137h221v-1137z
" />
    <glyph glyph-name="eth" unicode="&#xf0;" horiz-adv-x="1597" 
d="M1249 1544l-202 -96q428 -291 428 -772q0 -329 -187.5 -520t-505.5 -191q-152 0 -281.5 45.5t-216.5 123.5t-135.5 182.5t-48.5 222.5q0 161 88 289t237.5 197t332.5 69q140 0 249.5 -44.5t202.5 -140.5h4q-84 267 -370 441l-346 -166l-68 106l277 133q-150 69 -336 121
l57 166q283 -73 492 -186l258 125zM778 156q193 0 320 104.5t127 269.5q0 168 -127.5 273.5t-317.5 105.5q-193 0 -320.5 -107.5t-127.5 -269.5q0 -159 125 -267.5t321 -108.5z" />
    <glyph glyph-name="ntilde" unicode="&#xf1;" horiz-adv-x="1560" 
d="M965 1307q-45 0 -82.5 10t-56.5 20.5t-50 30.5l-55 35q-58 43 -113 43q-51 0 -82.5 -35.5t-31.5 -87.5h-162q1 126 77.5 204.5t194.5 78.5q84 0 180 -60l56 -35q55 -41 114 -41q50 0 76.5 33t26.5 88h166q0 -134 -67.5 -209t-190.5 -75zM424 0h-221v1137h217v-195h4
q75 114 196 170.5t267 56.5q76 0 145 -15.5t132.5 -50.5t110 -86.5t74 -129t27.5 -172.5v-715h-221v623q0 164 -91.5 257t-244.5 93q-180 0 -287.5 -101.5t-107.5 -261.5v-610z" />
    <glyph glyph-name="ograve" unicode="&#xf2;" horiz-adv-x="1585" 
d="M897 1278h-192l-373 385h280zM795 -35q-150 0 -279 44.5t-219.5 122.5t-141.5 190t-51 243t51 243.5t141.5 191.5t219.5 124t279 45q198 0 354.5 -76.5t244 -214.5t87.5 -313t-87.5 -312t-244 -212.5t-354.5 -75.5zM795 160q201 0 326.5 113t125.5 292q0 180 -125.5 294
t-326.5 114q-202 0 -329.5 -114t-127.5 -294q0 -179 127.5 -292t329.5 -113z" />
    <glyph glyph-name="oacute" unicode="&#xf3;" horiz-adv-x="1585" 
d="M1249 1663l-372 -385h-193l285 385h280zM795 -35q-150 0 -279 44.5t-219.5 122.5t-141.5 190t-51 243t51 243.5t141.5 191.5t219.5 124t279 45q198 0 354.5 -76.5t244 -214.5t87.5 -313t-87.5 -312t-244 -212.5t-354.5 -75.5zM795 160q201 0 326.5 113t125.5 292
q0 180 -125.5 294t-326.5 114q-202 0 -329.5 -114t-127.5 -294q0 -179 127.5 -292t329.5 -113z" />
    <glyph glyph-name="ocircumflex" unicode="&#xf4;" horiz-adv-x="1585" 
d="M518 1278h-209l357 364h256l356 -364h-209q-259 219 -274 233q-174 -150 -277 -233zM795 -35q-150 0 -279 44.5t-219.5 122.5t-141.5 190t-51 243t51 243.5t141.5 191.5t219.5 124t279 45q198 0 354.5 -76.5t244 -214.5t87.5 -313t-87.5 -312t-244 -212.5t-354.5 -75.5z
M795 160q201 0 326.5 113t125.5 292q0 180 -125.5 294t-326.5 114q-202 0 -329.5 -114t-127.5 -294q0 -179 127.5 -292t329.5 -113z" />
    <glyph glyph-name="otilde" unicode="&#xf5;" horiz-adv-x="1585" 
d="M983 1307q-45 0 -82.5 10t-56 20t-49.5 31l-56 35q-58 43 -112 43q-51 0 -83 -35.5t-32 -87.5h-162q1 126 78 204.5t195 78.5q84 0 180 -60l55 -35q55 -41 115 -41q50 0 76 32.5t26 88.5h166q0 -134 -67.5 -209t-190.5 -75zM795 -35q-150 0 -279 44.5t-219.5 122.5
t-141.5 190t-51 243t51 243.5t141.5 191.5t219.5 124t279 45q198 0 354.5 -76.5t244 -214.5t87.5 -313t-87.5 -312t-244 -212.5t-354.5 -75.5zM795 160q201 0 326.5 113t125.5 292q0 180 -125.5 294t-326.5 114q-202 0 -329.5 -114t-127.5 -294q0 -179 127.5 -292
t329.5 -113z" />
    <glyph glyph-name="odieresis" unicode="&#xf6;" horiz-adv-x="1585" 
d="M557 1337q-61 0 -104 40t-43 96q0 53 43 92t104 39q62 0 103.5 -38.5t41.5 -92.5q0 -56 -41.5 -96t-103.5 -40zM1030 1337q-62 0 -104.5 40t-42.5 96q0 53 42.5 92t104.5 39q61 0 104.5 -39t43.5 -92q0 -56 -43.5 -96t-104.5 -40zM795 -35q-150 0 -279 44.5t-219.5 122.5
t-141.5 190t-51 243t51 243.5t141.5 191.5t219.5 124t279 45q198 0 354.5 -76.5t244 -214.5t87.5 -313t-87.5 -312t-244 -212.5t-354.5 -75.5zM795 160q201 0 326.5 113t125.5 292q0 180 -125.5 294t-326.5 114q-202 0 -329.5 -114t-127.5 -294q0 -179 127.5 -292
t329.5 -113z" />
    <glyph glyph-name="divide" unicode="&#xf7;" horiz-adv-x="1280" 
d="M643 842q-60 0 -101.5 38.5t-41.5 94.5q0 53 41.5 90t101.5 37q61 0 103 -37.5t42 -91.5t-42.5 -92.5t-102.5 -38.5zM1116 543h-950v168h950v-168zM643 150q-60 0 -101.5 38.5t-41.5 94.5q0 54 41.5 90.5t101.5 36.5q62 0 103.5 -36.5t41.5 -90.5q0 -55 -42.5 -94
t-102.5 -39z" />
    <glyph glyph-name="oslash" unicode="&#xf8;" horiz-adv-x="1585" 
d="M1466 1184l-170 -191q89 -80 137 -190t48 -238q0 -175 -87.5 -312t-244 -212.5t-354.5 -75.5q-196 0 -346 72l-84 -94h-244l172 192q-189 168 -189 430q0 131 51 243.5t141.5 191.5t219.5 124t279 45q203 0 354 -77l82 92h235zM338 565q0 -155 100 -266l568 633
q-93 41 -211 41q-202 0 -329.5 -114t-127.5 -294zM795 160q201 0 326.5 113t125.5 292q0 154 -96 264l-561 -632q90 -37 205 -37z" />
    <glyph glyph-name="ugrave" unicode="&#xf9;" horiz-adv-x="1538" 
d="M856 1278h-192l-373 385h280zM676 -35q-101 0 -187.5 26.5t-155.5 80t-109 144t-40 208.5v713h222v-639q0 -167 94 -252.5t235 -85.5q116 0 204 51.5t130.5 130t42.5 168.5v627h221v-783q0 -126 10 -201t35 -153h-223q-33 117 -31 176h-4q-141 -211 -444 -211z" />
    <glyph glyph-name="uacute" unicode="&#xfa;" horiz-adv-x="1538" 
d="M1208 1663l-372 -385h-193l285 385h280zM676 -35q-101 0 -187.5 26.5t-155.5 80t-109 144t-40 208.5v713h222v-639q0 -167 94 -252.5t235 -85.5q116 0 204 51.5t130.5 130t42.5 168.5v627h221v-783q0 -126 10 -201t35 -153h-223q-33 117 -31 176h-4q-141 -211 -444 -211z
" />
    <glyph glyph-name="ucircumflex" unicode="&#xfb;" horiz-adv-x="1538" 
d="M477 1278h-209l357 364h256l356 -364h-209q-259 219 -274 233q-174 -150 -277 -233zM676 -35q-101 0 -187.5 26.5t-155.5 80t-109 144t-40 208.5v713h222v-639q0 -167 94 -252.5t235 -85.5q116 0 204 51.5t130.5 130t42.5 168.5v627h221v-783q0 -126 10 -201t35 -153
h-223q-33 117 -31 176h-4q-141 -211 -444 -211z" />
    <glyph glyph-name="udieresis" unicode="&#xfc;" horiz-adv-x="1538" 
d="M516 1337q-61 0 -104 40t-43 96q0 53 43 92t104 39q62 0 104 -39t42 -92q0 -56 -42 -96t-104 -40zM989 1337q-62 0 -104.5 40t-42.5 96q0 53 42.5 92t104.5 39q61 0 104.5 -39t43.5 -92q0 -56 -43.5 -96t-104.5 -40zM676 -35q-101 0 -187.5 26.5t-155.5 80t-109 144
t-40 208.5v713h222v-639q0 -167 94 -252.5t235 -85.5q116 0 204 51.5t130.5 130t42.5 168.5v627h221v-783q0 -126 10 -201t35 -153h-223q-33 117 -31 176h-4q-141 -211 -444 -211z" />
    <glyph glyph-name="yacute" unicode="&#xfd;" horiz-adv-x="1368" 
d="M1128 1663l-372 -385h-193l285 385h280zM596 -451h-221l198 420l-544 1168h243q180 -376 414 -893h4q284 624 412 893h237z" />
    <glyph glyph-name="thorn" unicode="&#xfe;" horiz-adv-x="1644" 
d="M424 -451h-221v2089h221v-706h6q82 117 208.5 177t281.5 60q176 0 318 -79.5t221 -217.5t79 -307q0 -176 -85 -314.5t-227.5 -212t-314.5 -73.5q-154 0 -279 58t-202 167h-6v-641zM868 160q190 0 314.5 115.5t124.5 289.5q0 178 -125 293t-314 115q-123 0 -225.5 -51.5
t-162.5 -145.5t-60 -211q0 -118 61 -211.5t163 -143.5t224 -50z" />
    <glyph glyph-name="ydieresis" unicode="&#xff;" horiz-adv-x="1368" 
d="M436 1337q-61 0 -104 40t-43 96q0 53 43 92t104 39q62 0 104 -39t42 -92q0 -56 -42 -96t-104 -40zM909 1337q-62 0 -104.5 40t-42.5 96q0 53 42.5 92t104.5 39q61 0 104.5 -39t43.5 -92q0 -56 -43.5 -96t-104.5 -40zM596 -451h-221l198 420l-544 1168h243
q180 -376 414 -893h4q284 624 412 893h237z" />
    <glyph glyph-name="Amacron" unicode="&#x100;" horiz-adv-x="1837" 
d="M1335 1798h-835v162h835v-162zM270 0h-245l761 1597h265l761 -1597h-247q-25 52 -110.5 223t-133.5 269h-809zM612 702h609q-202 414 -299 633h-7q-41 -86 -303 -633z" />
    <glyph glyph-name="amacron" unicode="&#x101;" horiz-adv-x="1419" 
d="M1135 1376h-826v156h826v-156zM547 -35q-120 0 -218.5 33.5t-161.5 106.5t-63 174q0 64 26.5 115.5t68.5 87t106 64t128.5 45.5t146.5 32q35 6 93.5 15t90.5 14.5t77 15t69.5 20t49.5 26t35.5 37t10.5 48.5q0 81 -86 139.5t-220 58.5q-124 0 -213.5 -55.5t-124.5 -155.5
l-210 66q29 82 87.5 144.5t134.5 99.5t159.5 55t173.5 18q145 0 261 -41.5t189.5 -132t73.5 -217.5v-424q0 -130 10 -204t33 -150h-219q-33 83 -33 195h-6q-63 -104 -184.5 -167t-284.5 -63zM594 129q91 0 171 30t131 76t80.5 101t29.5 106v127q-61 -29 -124 -46.5
t-182 -37.5q-40 -7 -63 -11t-65.5 -14t-69 -19.5t-60 -26t-52.5 -34t-32.5 -43t-13.5 -54.5q0 -71 69 -112.5t181 -41.5z" />
    <glyph glyph-name="Abreve" unicode="&#x102;" horiz-adv-x="1837" 
d="M918 1720q-202 0 -329.5 102t-133.5 242h194q5 -74 81.5 -131t187.5 -57q112 0 187.5 57t80.5 131h194q-5 -140 -132 -242t-330 -102zM270 0h-245l761 1597h265l761 -1597h-247q-25 52 -110.5 223t-133.5 269h-809zM612 702h609q-202 414 -299 633h-7q-41 -86 -303 -633z
" />
    <glyph glyph-name="abreve" unicode="&#x103;" horiz-adv-x="1419" 
d="M719 1272q-205 0 -326 110.5t-129 284.5h189q5 -103 78 -171.5t192 -68.5q118 0 191.5 67.5t78.5 172.5h189q-8 -174 -131 -284.5t-332 -110.5zM547 -35q-120 0 -218.5 33.5t-161.5 106.5t-63 174q0 64 26.5 115.5t68.5 87t106 64t128.5 45.5t146.5 32q35 6 93.5 15
t90.5 14.5t77 15t69.5 20t49.5 26t35.5 37t10.5 48.5q0 81 -86 139.5t-220 58.5q-124 0 -213.5 -55.5t-124.5 -155.5l-210 66q29 82 87.5 144.5t134.5 99.5t159.5 55t173.5 18q145 0 261 -41.5t189.5 -132t73.5 -217.5v-424q0 -130 10 -204t33 -150h-219q-33 83 -33 195h-6
q-63 -104 -184.5 -167t-284.5 -63zM594 129q91 0 171 30t131 76t80.5 101t29.5 106v127q-61 -29 -124 -46.5t-182 -37.5q-40 -7 -63 -11t-65.5 -14t-69 -19.5t-60 -26t-52.5 -34t-32.5 -43t-13.5 -54.5q0 -71 69 -112.5t181 -41.5z" />
    <glyph glyph-name="Aogonek" unicode="&#x104;" horiz-adv-x="1837" 
d="M1739 -326q48 0 104 13v-133q-67 -17 -133 -17q-144 0 -242 61.5t-98 172.5q0 69 52.5 128t146.5 101h-4q-25 52 -110.5 223t-133.5 269h-809l-242 -492h-245l761 1597h265l761 -1597h-71q-103 -29 -155 -80.5t-52 -103.5q0 -59 56.5 -100.5t148.5 -41.5zM612 702h609
q-202 414 -299 633h-7q-41 -86 -303 -633z" />
    <glyph glyph-name="aogonek" unicode="&#x105;" horiz-adv-x="1419" 
d="M1210 -319q51 0 111 16v-146q-66 -14 -131 -14q-143 0 -238.5 62t-95.5 172q0 75 54 133.5t147 95.5h-2q-33 83 -33 195h-6q-63 -104 -184.5 -167t-284.5 -63q-120 0 -218.5 33.5t-161.5 106.5t-63 174q0 64 26.5 115.5t68.5 87t106 64t128.5 45.5t146.5 32q35 6 93.5 15
t90.5 14.5t77 15t69.5 20t49.5 26t35.5 37t10.5 48.5q0 81 -86 139.5t-220 58.5q-124 0 -213.5 -55.5t-124.5 -155.5l-210 66q29 82 87.5 144.5t134.5 99.5t159.5 55t173.5 18q145 0 261 -41.5t189.5 -132t73.5 -217.5v-424q0 -130 10 -204t33 -150h-55q-99 -31 -150 -80.5
t-51 -105.5q0 -58 54 -95.5t138 -37.5zM1006 442v127q-61 -29 -124 -46.5t-182 -37.5q-40 -7 -63 -11t-65.5 -14t-69 -19.5t-60 -26t-52.5 -34t-32.5 -43t-13.5 -54.5q0 -71 69 -112.5t181 -41.5q91 0 171 30t131 76t80.5 101t29.5 106z" />
    <glyph glyph-name="Cacute" unicode="&#x106;" horiz-adv-x="2058" 
d="M1536 2060l-403 -340h-201l301 340h303zM1098 -35q-283 0 -505.5 104.5t-347 294.5t-124.5 435q0 152 50 285t139 232t209.5 170.5t264 107.5t299.5 36q188 0 358 -55t302 -166t194 -262l-213 -82q-84 165 -255 261.5t-388 96.5q-146 0 -275.5 -44t-227 -124t-154.5 -200
t-57 -264q0 -125 42.5 -229.5t114.5 -175.5t168 -120t201.5 -71.5t216.5 -22.5q262 0 439 119t247 319l215 -71q-101 -273 -336 -423.5t-577 -150.5z" />
    <glyph glyph-name="cacute" unicode="&#x107;" horiz-adv-x="1497" 
d="M1202 1663l-373 -385h-192l285 385h280zM791 -35q-197 0 -352.5 73t-245 210.5t-89.5 316.5t88.5 317.5t243.5 212.5t352 74q132 0 248 -36.5t210 -114t145 -187.5l-209 -77q-46 106 -153 162.5t-247 56.5q-200 0 -323 -115t-123 -291q0 -182 130 -294.5t331 -112.5
q157 0 270 67.5t170 186.5l205 -76q-77 -177 -250.5 -275t-400.5 -98z" />
    <glyph glyph-name="Cdotaccent" unicode="&#x10a;" horiz-adv-x="2058" 
d="M1047 1772q-68 0 -114 42t-46 103q0 59 46.5 100t113.5 41t113 -41t46 -100q0 -62 -46 -103.5t-113 -41.5zM1098 -35q-283 0 -505.5 104.5t-347 294.5t-124.5 435q0 152 50 285t139 232t209.5 170.5t264 107.5t299.5 36q188 0 358 -55t302 -166t194 -262l-213 -82
q-84 165 -255 261.5t-388 96.5q-146 0 -275.5 -44t-227 -124t-154.5 -200t-57 -264q0 -125 42.5 -229.5t114.5 -175.5t168 -120t201.5 -71.5t216.5 -22.5q262 0 439 119t247 319l215 -71q-101 -273 -336 -423.5t-577 -150.5z" />
    <glyph glyph-name="cdotaccent" unicode="&#x10b;" horiz-adv-x="1497" 
d="M750 1370q-69 0 -115.5 42.5t-46.5 105.5q0 58 47 99.5t115 41.5q65 0 111 -41.5t46 -99.5q0 -63 -45.5 -105.5t-111.5 -42.5zM791 -35q-197 0 -352.5 73t-245 210.5t-89.5 316.5t88.5 317.5t243.5 212.5t352 74q132 0 248 -36.5t210 -114t145 -187.5l-209 -77
q-46 106 -153 162.5t-247 56.5q-200 0 -323 -115t-123 -291q0 -182 130 -294.5t331 -112.5q157 0 270 67.5t170 186.5l205 -76q-77 -177 -250.5 -275t-400.5 -98z" />
    <glyph glyph-name="Ccaron" unicode="&#x10c;" horiz-adv-x="2058" 
d="M1292 2050h207l-328 -330h-251l-328 330h205q140 -107 250 -197q176 144 245 197zM1098 -35q-283 0 -505.5 104.5t-347 294.5t-124.5 435q0 152 50 285t139 232t209.5 170.5t264 107.5t299.5 36q188 0 358 -55t302 -166t194 -262l-213 -82q-84 165 -255 261.5t-388 96.5
q-146 0 -275.5 -44t-227 -124t-154.5 -200t-57 -264q0 -125 42.5 -229.5t114.5 -175.5t168 -120t201.5 -71.5t216.5 -22.5q262 0 439 119t247 319l215 -71q-101 -273 -336 -423.5t-577 -150.5z" />
    <glyph glyph-name="ccaron" unicode="&#x10d;" horiz-adv-x="1497" 
d="M874 1288h-256l-356 373h209q204 -171 277 -234q108 96 274 234h209zM791 -35q-197 0 -352.5 73t-245 210.5t-89.5 316.5t88.5 317.5t243.5 212.5t352 74q132 0 248 -36.5t210 -114t145 -187.5l-209 -77q-46 106 -153 162.5t-247 56.5q-200 0 -323 -115t-123 -291
q0 -182 130 -294.5t331 -112.5q157 0 270 67.5t170 186.5l205 -76q-77 -177 -250.5 -275t-400.5 -98z" />
    <glyph glyph-name="Dcaron" unicode="&#x10e;" horiz-adv-x="1968" 
d="M1163 2050h207l-328 -330h-251l-328 330h205q140 -107 250 -197q176 144 245 197zM958 0h-716v1597h694q187 0 339.5 -40.5t257 -112t176 -171.5t104 -216t32.5 -248q0 -178 -61 -327t-173 -256t-280 -166.5t-373 -59.5zM475 203h477q143 0 260.5 36.5t204 108
t134.5 185.5t48 262q0 130 -36 232t-99.5 170.5t-155 113.5t-197 64.5t-230.5 19.5h-406v-1192z" />
    <glyph glyph-name="dcaron" unicode="&#x10f;" horiz-adv-x="1642" 
d="M1700 1139h-135l166 270q-50 17 -77.5 54t-27.5 81q0 59 48.5 101.5t115.5 42.5q65 0 112.5 -42t47.5 -100q0 -45 -34 -101.5t-151 -216.5q-13 -18 -21 -28.5t-20.5 -28t-23.5 -32.5zM733 -35q-276 0 -452.5 169.5t-176.5 432.5q0 180 85 318.5t227.5 211t316.5 72.5
q156 0 281 -59.5t198 -165.5h7v694h221v-1284q0 -129 10.5 -205t32.5 -149h-219q-33 100 -33 188h-6q-76 -110 -205.5 -166.5t-286.5 -56.5zM772 162q190 0 320.5 114.5t130.5 292.5q0 177 -130.5 291.5t-320.5 114.5q-189 0 -312.5 -115.5t-123.5 -292.5q0 -175 124 -290
t312 -115z" />
    <glyph glyph-name="Dcroat" unicode="&#x110;" horiz-adv-x="1968" 
d="M242 1597h694q187 0 339.5 -40.5t257 -112t176 -171.5t104 -216t32.5 -248q0 -178 -61 -327t-173 -256t-280 -166.5t-373 -59.5h-716v709h-222v178h222v710zM952 203q143 0 260.5 36.5t204 108t134.5 185.5t48 262q0 130 -36 232t-99.5 170.5t-155 113.5t-197 64.5
t-230.5 19.5h-406v-508h567v-178h-567v-506h477z" />
    <glyph glyph-name="dcroat" unicode="&#x111;" horiz-adv-x="1642" 
d="M1757 1460v-160h-317v-946q0 -129 10.5 -205t32.5 -149h-219q-33 100 -33 188h-6q-76 -110 -205.5 -166.5t-286.5 -56.5q-276 0 -452.5 169.5t-176.5 432.5q0 180 85 318.5t227.5 211t316.5 72.5q156 0 281 -59.5t198 -165.5h7v356h-334v160h334v178h221v-178h317z
M772 162q190 0 320.5 114.5t130.5 292.5q0 177 -130.5 291.5t-320.5 114.5q-189 0 -312.5 -115.5t-123.5 -292.5q0 -175 124 -290t312 -115z" />
    <glyph glyph-name="Emacron" unicode="&#x112;" horiz-adv-x="1609" 
d="M1243 1798h-835v162h835v-162zM1485 0h-1243v1597h1218v-202h-985v-473h936v-211h-936v-504h1010v-207z" />
    <glyph glyph-name="emacron" unicode="&#x113;" horiz-adv-x="1384" 
d="M1110 1376h-825v156h825v-156zM717 -35q-177 0 -319 74t-224 211t-82 313q0 264 173.5 435t441.5 171q58 0 114.5 -9.5t114 -30.5t108.5 -52.5t95.5 -79t76 -106.5t50 -137.5t18.5 -169.5v-76h-973q10 -165 123.5 -260.5t284.5 -95.5q133 0 231.5 65t147.5 174l198 -76
q-68 -160 -222 -255t-357 -95zM319 686h744q-4 79 -36.5 139.5t-84.5 95t-112.5 51.5t-127.5 17q-151 0 -253.5 -85t-129.5 -218z" />
    <glyph glyph-name="Edotaccent" unicode="&#x116;" horiz-adv-x="1609" 
d="M827 1772q-67 0 -113 41.5t-46 103.5q0 59 46 100t113 41t113.5 -41t46.5 -100q0 -61 -46 -103t-114 -42zM1485 0h-1243v1597h1218v-202h-985v-473h936v-211h-936v-504h1010v-207z" />
    <glyph glyph-name="edotaccent" unicode="&#x117;" horiz-adv-x="1384" 
d="M700 1370q-69 0 -115 42.5t-46 105.5q0 58 46.5 99.5t114.5 41.5q66 0 112 -42t46 -99q0 -63 -46 -105.5t-112 -42.5zM717 -35q-177 0 -319 74t-224 211t-82 313q0 264 173.5 435t441.5 171q58 0 114.5 -9.5t114 -30.5t108.5 -52.5t95.5 -79t76 -106.5t50 -137.5
t18.5 -169.5v-76h-973q10 -165 123.5 -260.5t284.5 -95.5q133 0 231.5 65t147.5 174l198 -76q-68 -160 -222 -255t-357 -95zM319 686h744q-4 79 -36.5 139.5t-84.5 95t-112.5 51.5t-127.5 17q-151 0 -253.5 -85t-129.5 -218z" />
    <glyph glyph-name="Eogonek" unicode="&#x118;" horiz-adv-x="1609" 
d="M1483 -326q48 0 104 13v-133q-67 -17 -133 -17q-144 0 -242 61.5t-98 172.5q0 69 52.5 128t146.5 101h-1071v1597h1218v-202h-985v-473h936v-211h-936v-504h1010v-207q-103 -29 -155 -80.5t-52 -103.5q0 -59 56.5 -100.5t148.5 -41.5z" />
    <glyph glyph-name="eogonek" unicode="&#x119;" horiz-adv-x="1384" 
d="M895 -14q-80 -31 -121 -76.5t-41 -95.5q0 -58 54.5 -95.5t138.5 -37.5q50 0 110 16v-146q-66 -14 -131 -14q-143 0 -238.5 62t-95.5 172q0 116 129 194q-173 3 -311 78t-217.5 211t-79.5 309q0 264 173.5 435t441.5 171q58 0 114.5 -9.5t114 -30.5t108.5 -52.5t95.5 -79
t76 -106.5t50 -137.5t18.5 -169.5v-76h-973q10 -165 123.5 -260.5t284.5 -95.5q133 0 231.5 65t147.5 174l198 -76q-53 -123 -156.5 -208.5t-244.5 -120.5zM702 989q-151 0 -253.5 -85t-129.5 -218h744q-4 79 -36.5 139.5t-84.5 95t-112.5 51.5t-127.5 17z" />
    <glyph glyph-name="Ecaron" unicode="&#x11a;" horiz-adv-x="1609" 
d="M1073 2050h207l-328 -330h-252l-327 330h205q122 -94 249 -197q160 131 246 197zM1485 0h-1243v1597h1218v-202h-985v-473h936v-211h-936v-504h1010v-207z" />
    <glyph glyph-name="ecaron" unicode="&#x11b;" horiz-adv-x="1384" 
d="M825 1288h-256l-356 373h209q176 -147 276 -234q94 84 275 234h209zM717 -35q-177 0 -319 74t-224 211t-82 313q0 264 173.5 435t441.5 171q58 0 114.5 -9.5t114 -30.5t108.5 -52.5t95.5 -79t76 -106.5t50 -137.5t18.5 -169.5v-76h-973q10 -165 123.5 -260.5t284.5 -95.5
q133 0 231.5 65t147.5 174l198 -76q-68 -160 -222 -255t-357 -95zM319 686h744q-4 79 -36.5 139.5t-84.5 95t-112.5 51.5t-127.5 17q-151 0 -253.5 -85t-129.5 -218z" />
    <glyph glyph-name="Gbreve" unicode="&#x11e;" horiz-adv-x="2152" 
d="M1047 1720q-202 0 -329.5 102t-133.5 242h194q5 -74 81.5 -131t187.5 -57q112 0 187.5 57t80.5 131h194q-5 -140 -132 -242t-330 -102zM1069 -35q-205 0 -381 62t-300.5 171t-195.5 263.5t-71 333.5q0 150 49 283t137.5 233t208 172.5t264 109.5t301.5 37
q292 0 528 -129.5t328 -353.5l-213 -82q-86 166 -255.5 262t-385.5 96q-145 0 -274.5 -43.5t-228 -123t-156 -200t-57.5 -265.5q0 -127 43.5 -232.5t116 -176t169.5 -119t200.5 -70t211.5 -21.5q266 0 444.5 124t204.5 322h-616v185h850v-803h-185q-2 50 -5 152.5t-5 152.5
h-12q-100 -164 -281.5 -252t-433.5 -88z" />
    <glyph glyph-name="gbreve" unicode="&#x11f;" horiz-adv-x="1640" 
d="M801 1272q-205 0 -326 110.5t-129 284.5h189q5 -103 78 -171.5t192 -68.5q118 0 191.5 67.5t78.5 172.5h189q-8 -174 -131 -284.5t-332 -110.5zM793 -483q-481 0 -625 329l201 66q103 -217 422 -217q90 0 164.5 23t134.5 71.5t93.5 133.5t33.5 200v98h-7
q-73 -109 -199 -163t-278 -54q-140 0 -259.5 46t-200 125t-126 185.5t-45.5 225.5q0 126 48.5 235t132.5 185t199.5 119.5t246.5 43.5q157 0 286 -61t202 -168h4v197h217v-1008q0 -135 -33.5 -241t-91 -175t-140.5 -113.5t-176 -63.5t-204 -19zM770 199q188 0 319.5 113.5
t131.5 277.5t-131 274.5t-320 110.5q-188 0 -312 -111t-124 -274q0 -165 125 -278t311 -113z" />
    <glyph glyph-name="Gdotaccent" unicode="&#x120;" horiz-adv-x="2152" 
d="M1047 1772q-68 0 -114 42t-46 103q0 59 46.5 100t113.5 41t113 -41t46 -100q0 -62 -46 -103.5t-113 -41.5zM1069 -35q-205 0 -381 62t-300.5 171t-195.5 263.5t-71 333.5q0 150 49 283t137.5 233t208 172.5t264 109.5t301.5 37q292 0 528 -129.5t328 -353.5l-213 -82
q-86 166 -255.5 262t-385.5 96q-145 0 -274.5 -43.5t-228 -123t-156 -200t-57.5 -265.5q0 -127 43.5 -232.5t116 -176t169.5 -119t200.5 -70t211.5 -21.5q266 0 444.5 124t204.5 322h-616v185h850v-803h-185q-2 50 -5 152.5t-5 152.5h-12q-100 -164 -281.5 -252t-433.5 -88z
" />
    <glyph glyph-name="gdotaccent" unicode="&#x121;" horiz-adv-x="1640" 
d="M805 1370q-69 0 -115.5 42.5t-46.5 105.5q0 58 47 99.5t115 41.5q66 0 112 -42t46 -99q0 -63 -46 -105.5t-112 -42.5zM793 -483q-481 0 -625 329l201 66q103 -217 422 -217q90 0 164.5 23t134.5 71.5t93.5 133.5t33.5 200v98h-7q-73 -109 -199 -163t-278 -54
q-140 0 -259.5 46t-200 125t-126 185.5t-45.5 225.5q0 126 48.5 235t132.5 185t199.5 119.5t246.5 43.5q157 0 286 -61t202 -168h4v197h217v-1008q0 -135 -33.5 -241t-91 -175t-140.5 -113.5t-176 -63.5t-204 -19zM770 199q188 0 319.5 113.5t131.5 277.5t-131 274.5
t-320 110.5q-188 0 -312 -111t-124 -274q0 -165 125 -278t311 -113z" />
    <glyph glyph-name="uni0122" unicode="&#x122;" horiz-adv-x="2152" 
d="M1069 -35q-205 0 -381 62t-300.5 171t-195.5 263.5t-71 333.5q0 150 49 283t137.5 233t208 172.5t264 109.5t301.5 37q292 0 528 -129.5t328 -353.5l-213 -82q-86 166 -255.5 262t-385.5 96q-145 0 -274.5 -43.5t-228 -123t-156 -200t-57.5 -265.5q0 -127 43.5 -232.5
t116 -176t169.5 -119t200.5 -70t211.5 -21.5q266 0 444.5 124t204.5 322h-616v185h850v-803h-185q-2 50 -5 152.5t-5 152.5h-12q-100 -164 -281.5 -252t-433.5 -88zM1028 -582h-117l131 215q-53 17 -80.5 50t-27.5 75q0 55 42 92t105 37t105.5 -36.5t42.5 -90.5
q0 -12 -1.5 -22.5t-6.5 -24t-9.5 -24t-15.5 -28.5t-19.5 -32t-27 -40.5t-32.5 -46t-41 -57.5t-48 -67z" />
    <glyph glyph-name="uni0123" unicode="&#x123;" horiz-adv-x="1640" 
d="M633 1393q0 12 1.5 22.5t6.5 24t10 24.5t17 30.5t21.5 34.5t29.5 44t36.5 52t46.5 65t54 77h133l-153 -247q44 -18 69 -50.5t25 -74.5q0 -55 -43.5 -93t-106.5 -38q-62 0 -104.5 37.5t-42.5 91.5zM793 -483q-481 0 -625 329l201 66q103 -217 422 -217q90 0 164.5 23
t134.5 71.5t93.5 133.5t33.5 200v98h-7q-73 -109 -199 -163t-278 -54q-140 0 -259.5 46t-200 125t-126 185.5t-45.5 225.5q0 126 48.5 235t132.5 185t199.5 119.5t246.5 43.5q157 0 286 -61t202 -168h4v197h217v-1008q0 -135 -33.5 -241t-91 -175t-140.5 -113.5t-176 -63.5
t-204 -19zM770 199q188 0 319.5 113.5t131.5 277.5t-131 274.5t-320 110.5q-188 0 -312 -111t-124 -274q0 -165 125 -278t311 -113z" />
    <glyph glyph-name="Hbar" unicode="&#x126;" horiz-adv-x="1988" 
d="M1747 1315h172v-174h-172v-1141h-234v692h-1038v-692h-233v1141h-172v174h172v282h233v-282h1038v282h234v-282zM475 903h1038v238h-1038v-238z" />
    <glyph glyph-name="hbar" unicode="&#x127;" horiz-adv-x="1560" 
d="M885 1169q76 0 145 -15.5t133 -50.5t110.5 -86.5t74.5 -129t28 -172.5v-715h-221v623q0 164 -91.5 257t-244.5 93q-180 0 -287.5 -101.5t-107.5 -261.5v-610h-221v1296h-238v160h238v182h221v-182h414v-160h-414v-354h6q75 115 193.5 171t261.5 56z" />
    <glyph glyph-name="Imacron" unicode="&#x12a;" horiz-adv-x="716" 
d="M774 1798h-835v162h835v-162zM475 0h-233v1597h233v-1597z" />
    <glyph glyph-name="imacron" unicode="&#x12b;" horiz-adv-x="626" 
d="M727 1366h-825v156h825v-156zM424 0h-221v1137h221v-1137z" />
    <glyph glyph-name="Iogonek" unicode="&#x12e;" horiz-adv-x="716" 
d="M475 -326q49 0 105 13v-133q-67 -17 -134 -17q-144 0 -242 61.5t-98 172.5q0 69 52.5 128t146.5 101h-63v1597h233v-1597h2q-103 -29 -155 -80.5t-52 -103.5q0 -59 56.5 -100.5t148.5 -41.5z" />
    <glyph glyph-name="iogonek" unicode="&#x12f;" horiz-adv-x="626" 
d="M315 1360q-69 0 -115 42t-46 105q0 58 46.5 100t114.5 42q65 0 111.5 -42t46.5 -100q0 -63 -46 -105t-112 -42zM395 -319q51 0 111 16v-146q-66 -14 -131 -14q-143 0 -238.5 62t-95.5 172q0 75 54 133.5t147 95.5h-39v1137h221v-1137h-21q-99 -31 -149.5 -80.5
t-50.5 -105.5q0 -58 54 -95.5t138 -37.5z" />
    <glyph glyph-name="Idotaccent" unicode="&#x130;" horiz-adv-x="716" 
d="M356 1772q-67 0 -113 41.5t-46 103.5q0 59 46 100t113 41t113.5 -41t46.5 -100q0 -61 -46 -103t-114 -42zM475 0h-233v1597h233v-1597z" />
    <glyph glyph-name="dotlessi" unicode="&#x131;" horiz-adv-x="626" 
d="M424 0h-221v1137h221v-1137z" />
    <glyph glyph-name="uni0136" unicode="&#x136;" horiz-adv-x="1677" 
d="M475 0h-233v1597h233v-792h8q390 362 889 792h279q-658 -594 -772 -698q89 -98 276 -306.5t326.5 -363t210.5 -229.5h-285q-95 100 -256 276t-434 465l-242 -221v-520zM850 -582h-117l131 215q-53 17 -80.5 50t-27.5 75q0 55 42 92t105 37t105.5 -36.5t42.5 -90.5
q0 -12 -1.5 -22.5t-6.5 -24t-9.5 -24t-15.5 -28.5t-19.5 -32t-27 -40.5t-32.5 -46t-41 -57.5t-48 -67z" />
    <glyph glyph-name="uni0137" unicode="&#x137;" horiz-adv-x="1325" 
d="M1270 1137l-508 -457l588 -680h-258l-484 543l-184 -166v-377h-221v1638h221v-997h6q111 98 574 496h266zM702 -113q63 0 105.5 -36.5t42.5 -90.5q0 -12 -1.5 -22.5t-6.5 -24t-9.5 -24t-15.5 -28.5t-19.5 -32t-27 -40.5t-32.5 -46t-41 -57.5t-48 -67h-117l132 215
q-53 17 -81 50t-28 75q0 55 42 92t105 37z" />
    <glyph glyph-name="Lacute" unicode="&#x139;" horiz-adv-x="1447" 
d="M598 2060h303l-403 -340h-201zM475 1597v-1390h938v-207h-1171v1597h233z" />
    <glyph glyph-name="lacute" unicode="&#x13a;" horiz-adv-x="626" 
d="M836 2101l-404 -340h-201l301 340h304zM424 0h-221v1638h221v-1638z" />
    <glyph glyph-name="uni013B" unicode="&#x13b;" horiz-adv-x="1447" 
d="M475 1597v-1390h938v-207h-1171v1597h233zM778 -113q63 0 105.5 -36.5t42.5 -90.5q0 -12 -1.5 -22.5t-6.5 -24t-9.5 -24t-15.5 -28.5t-19.5 -32t-27 -40.5t-32.5 -46t-41 -57.5t-48 -67h-117l131 215q-53 17 -80.5 50t-27.5 75q0 55 42 92t105 37z" />
    <glyph glyph-name="uni013C" unicode="&#x13c;" horiz-adv-x="626" 
d="M424 0h-221v1638h221v-1638zM268 -582h-116l131 215q-53 17 -81 50t-28 75q0 55 42.5 92t105.5 37t105 -36.5t42 -90.5q0 -12 -1.5 -22.5t-6.5 -24t-9.5 -24t-15.5 -28.5t-19.5 -32t-27 -40.5t-32.5 -46t-41 -57.5t-48 -67z" />
    <glyph glyph-name="Lcaron" unicode="&#x13d;" horiz-adv-x="1447" 
d="M928 1102h-135l168 270q-51 17 -78 53t-27 82q0 59 47.5 101.5t114.5 42.5q66 0 113 -41.5t47 -100.5q0 -48 -39 -110.5t-180 -254.5q-7 -9 -10.5 -14t-9.5 -13t-11 -15zM475 1597v-1390h938v-207h-1171v1597h233z" />
    <glyph glyph-name="lcaron" unicode="&#x13e;" horiz-adv-x="626" 
d="M717 1102h-137l168 270q-50 17 -77.5 53.5t-27.5 81.5q0 59 48.5 101.5t115.5 42.5q65 0 112.5 -42t47.5 -100q0 -46 -36 -105t-162 -231q-11 -15 -17 -23.5t-16 -22t-19 -25.5zM424 0h-221v1638h221v-1638z" />
    <glyph glyph-name="Lslash" unicode="&#x141;" horiz-adv-x="1447" 
d="M475 829v-622h938v-207h-1171v737l-205 -80v189l205 80v671h233v-579l326 129v-189z" />
    <glyph glyph-name="lslash" unicode="&#x142;" horiz-adv-x="626" 
d="M424 1085l246 152v-182l-246 -152v-903h-221v766l-230 -143v182l230 143v690h221v-553z" />
    <glyph glyph-name="Nacute" unicode="&#x143;" horiz-adv-x="2019" 
d="M1475 2060l-404 -340h-201l301 340h304zM475 0h-233v1597h247q39 -45 239.5 -275.5t289 -333t244.5 -284.5t278 -329h6v1222h232v-1597h-248q-39 45 -440.5 501t-610.5 703h-4v-1204z" />
    <glyph glyph-name="nacute" unicode="&#x144;" horiz-adv-x="1560" 
d="M1231 1663l-373 -385h-192l284 385h281zM424 0h-221v1137h217v-195h4q75 114 196 170.5t267 56.5q76 0 145 -15.5t132.5 -50.5t110 -86.5t74 -129t27.5 -172.5v-715h-221v623q0 164 -91.5 257t-244.5 93q-180 0 -287.5 -101.5t-107.5 -261.5v-610z" />
    <glyph glyph-name="uni0145" unicode="&#x145;" horiz-adv-x="2019" 
d="M475 0h-233v1597h247q39 -45 239.5 -275.5t289 -333t244.5 -284.5t278 -329h6v1222h232v-1597h-248q-39 45 -440.5 501t-610.5 703h-4v-1204zM991 -582h-117l132 215q-53 17 -81 50t-28 75q0 55 42 92t105 37t105.5 -36.5t42.5 -90.5q0 -12 -1.5 -22.5t-6.5 -24t-9.5 -24
t-15.5 -28.5t-19.5 -32t-27 -40.5t-32.5 -46t-41 -57.5t-48 -67z" />
    <glyph glyph-name="uni0146" unicode="&#x146;" horiz-adv-x="1560" 
d="M424 0h-221v1137h217v-195h4q75 114 196 170.5t267 56.5q76 0 145 -15.5t132.5 -50.5t110 -86.5t74 -129t27.5 -172.5v-715h-221v623q0 164 -91.5 257t-244.5 93q-180 0 -287.5 -101.5t-107.5 -261.5v-610zM778 -582h-116l131 215q-53 17 -81 50t-28 75q0 55 42 92
t105 37t105.5 -36.5t42.5 -90.5q0 -12 -1.5 -22.5t-6.5 -24t-9.5 -24t-15.5 -28.5t-19.5 -32t-27 -40.5t-32.5 -46t-41 -57.5t-48 -67z" />
    <glyph glyph-name="Ncaron" unicode="&#x147;" horiz-adv-x="2019" 
d="M1233 2050h207l-328 -330h-252l-328 330h205q140 -107 250 -197q160 131 246 197zM475 0h-233v1597h247q39 -45 239.5 -275.5t289 -333t244.5 -284.5t278 -329h6v1222h232v-1597h-248q-39 45 -440.5 501t-610.5 703h-4v-1204z" />
    <glyph glyph-name="ncaron" unicode="&#x148;" horiz-adv-x="1560" 
d="M901 1288h-256l-356 373h209q176 -147 276 -234q94 84 275 234h208zM424 0h-221v1137h217v-195h4q75 114 196 170.5t267 56.5q76 0 145 -15.5t132.5 -50.5t110 -86.5t74 -129t27.5 -172.5v-715h-221v623q0 164 -91.5 257t-244.5 93q-180 0 -287.5 -101.5t-107.5 -261.5
v-610z" />
    <glyph glyph-name="Eng" unicode="&#x14a;" horiz-adv-x="2019" 
d="M1264 -483q-87 0 -176 14t-140 35v188q101 -49 258 -49q161 0 246.5 74t85.5 213q-56 64 -457 520t-606 698v-1210h-233v1597h247q39 -45 239.5 -275.5t289 -333t244.5 -284.5t278 -329h6v1222h232v-1538q0 -542 -514 -542z" />
    <glyph glyph-name="eng" unicode="&#x14b;" horiz-adv-x="1560" 
d="M973 -483q-147 0 -262 49v184q109 -49 219 -49q47 0 83.5 11t59.5 26t39.5 41.5t24.5 47.5t12.5 55.5t5 52.5t0.5 51v637q0 164 -91.5 257t-244.5 93q-180 0 -287.5 -101.5t-107.5 -261.5v-610h-221v1137h217v-195h4q75 114 196 170.5t267 56.5q75 0 144 -15t132.5 -49.5
t110 -85.5t74.5 -127.5t28 -170.5v-735q0 -54 -1 -84t-8.5 -86.5t-22 -91t-44 -78.5t-71 -69t-107.5 -42.5t-149 -17.5z" />
    <glyph glyph-name="Omacron" unicode="&#x14c;" horiz-adv-x="2166" 
d="M1497 1798h-835v162h835v-162zM1083 -35q-157 0 -302.5 39.5t-265 113.5t-209 175t-138.5 231t-49 273q0 178 76 334t206 265t307.5 171.5t374.5 62.5q200 0 378.5 -64t307.5 -174t204 -265t75 -330q0 -176 -75.5 -331t-205 -264.5t-307.5 -173t-377 -63.5zM1085 172
q193 0 356 80.5t260 224.5t97 320q0 175 -96.5 319.5t-259.5 225.5t-357 81q-144 0 -276 -47t-229.5 -128.5t-155 -199t-57.5 -251.5t58 -251.5t155.5 -198.5t229 -128t275.5 -47z" />
    <glyph glyph-name="omacron" unicode="&#x14d;" horiz-adv-x="1585" 
d="M1206 1376h-825v156h825v-156zM795 -35q-150 0 -279 44.5t-219.5 122.5t-141.5 190t-51 243t51 243.5t141.5 191.5t219.5 124t279 45q198 0 354.5 -76.5t244 -214.5t87.5 -313t-87.5 -312t-244 -212.5t-354.5 -75.5zM795 160q201 0 326.5 113t125.5 292q0 180 -125.5 294
t-326.5 114q-202 0 -329.5 -114t-127.5 -294q0 -179 127.5 -292t329.5 -113z" />
    <glyph glyph-name="Ohungarumlaut" unicode="&#x150;" horiz-adv-x="2166" 
d="M1268 2060l-346 -340h-195l256 340h285zM1710 2060l-360 -340h-197l272 340h285zM1083 -35q-157 0 -302.5 39.5t-265 113.5t-209 175t-138.5 231t-49 273q0 178 76 334t206 265t307.5 171.5t374.5 62.5q200 0 378.5 -64t307.5 -174t204 -265t75 -330q0 -176 -75.5 -331
t-205 -264.5t-307.5 -173t-377 -63.5zM1085 172q193 0 356 80.5t260 224.5t97 320q0 175 -96.5 319.5t-259.5 225.5t-357 81q-144 0 -276 -47t-229.5 -128.5t-155 -199t-57.5 -251.5t58 -251.5t155.5 -198.5t229 -128t275.5 -47z" />
    <glyph glyph-name="ohungarumlaut" unicode="&#x151;" horiz-adv-x="1585" 
d="M971 1673l-350 -395h-189l262 395h277zM1419 1673l-366 -395h-191l279 395h278zM795 -35q-150 0 -279 44.5t-219.5 122.5t-141.5 190t-51 243t51 243.5t141.5 191.5t219.5 124t279 45q198 0 354.5 -76.5t244 -214.5t87.5 -313t-87.5 -312t-244 -212.5t-354.5 -75.5z
M795 160q201 0 326.5 113t125.5 292q0 180 -125.5 294t-326.5 114q-202 0 -329.5 -114t-127.5 -294q0 -179 127.5 -292t329.5 -113z" />
    <glyph glyph-name="OE" unicode="&#x152;" horiz-adv-x="3155" 
d="M1079 -35q-195 0 -371.5 62t-306 170.5t-206 264.5t-76.5 335q0 178 76 334t206 265t306.5 171.5t373.5 62.5q227 0 416 -79.5t311 -219.5v266h1198v-202h-976v-473h927v-211h-927v-504h1001v-207h-1223v264q-123 -141 -313 -220t-416 -79zM1083 172q191 0 353 79.5
t259 224.5t97 323q0 177 -96 321t-257.5 223.5t-353.5 79.5q-195 0 -359 -79.5t-261.5 -224t-97.5 -322.5q0 -134 57.5 -251t154.5 -198.5t228 -128.5t276 -47z" />
    <glyph glyph-name="oe" unicode="&#x153;" horiz-adv-x="2666" 
d="M795 -35q-150 0 -279 44.5t-219.5 122.5t-141.5 190t-51 243t51 243.5t141.5 191.5t219.5 124t279 45q188 0 335 -67.5t230 -186.5q79 118 226 186t333 68q90 0 176 -18.5t170.5 -62.5t147.5 -109t102 -167t39 -228v-47h-1088q9 -171 139.5 -278t323.5 -107q152 0 265 65
t169 174l203 -76q-75 -162 -246.5 -256t-394.5 -94q-188 0 -335.5 66.5t-229.5 185.5q-83 -119 -230 -185.5t-335 -66.5zM1477 676h845q-6 83 -44.5 146t-98 98.5t-127 53t-141.5 17.5q-171 0 -287.5 -86.5t-146.5 -228.5zM795 160q201 0 326.5 113t125.5 292
q0 180 -125.5 294t-326.5 114q-202 0 -329.5 -114t-127.5 -294q0 -179 127.5 -292t329.5 -113z" />
    <glyph glyph-name="Racute" unicode="&#x154;" horiz-adv-x="1710" 
d="M1268 2060l-404 -340h-200l301 340h303zM475 0h-233v1597h692q88 0 173 -14t171.5 -49.5t151 -90t105 -142t40.5 -197.5q0 -207 -133 -331t-344 -150v-2q56 -69 159 -195.5t187 -230t158 -195.5h-263l-493 606h-371v-606zM475 801h428q123 0 216 29.5t151.5 97.5
t58.5 170q0 99 -62 168.5t-158 100t-216 30.5h-418v-596z" />
    <glyph glyph-name="racute" unicode="&#x155;" horiz-adv-x="1028" 
d="M1022 1663l-373 -385h-192l284 385h281zM424 0h-221v1137h217v-207h10q53 105 166 172t254 67q82 0 149 -22v-229q-76 24 -168 24q-87 0 -157.5 -27.5t-116 -72t-76.5 -103.5t-44 -118.5t-13 -120.5v-500z" />
    <glyph glyph-name="uni0156" unicode="&#x156;" horiz-adv-x="1710" 
d="M475 0h-233v1597h692q88 0 173 -14t171.5 -49.5t151 -90t105 -142t40.5 -197.5q0 -207 -133 -331t-344 -150v-2q56 -69 159 -195.5t187 -230t158 -195.5h-263l-493 606h-371v-606zM475 801h428q123 0 216 29.5t151.5 97.5t58.5 170q0 99 -62 168.5t-158 100t-216 30.5
h-418v-596zM811 -582h-117l131 215q-53 17 -80.5 50t-27.5 75q0 55 42 92t105 37t105.5 -36.5t42.5 -90.5q0 -12 -1.5 -22.5t-6.5 -24t-9.5 -24t-15.5 -28.5t-19.5 -32t-27 -40.5t-32.5 -46t-41 -57.5t-48 -67z" />
    <glyph glyph-name="uni0157" unicode="&#x157;" horiz-adv-x="1028" 
d="M424 0h-221v1137h217v-207h10q53 105 166 172t254 67q82 0 149 -22v-229q-76 24 -168 24q-87 0 -157.5 -27.5t-116 -72t-76.5 -103.5t-44 -118.5t-13 -120.5v-500zM260 -582h-117l131 215q-53 17 -80.5 50t-27.5 75q0 55 42 92t105 37t105.5 -36.5t42.5 -90.5
q0 -12 -1.5 -22.5t-6.5 -24t-9.5 -24t-15.5 -28.5t-19.5 -32t-27 -40.5t-32.5 -46t-41 -57.5t-48 -67z" />
    <glyph glyph-name="Rcaron" unicode="&#x158;" horiz-adv-x="1710" 
d="M1026 2050h207l-328 -330h-252l-327 330h204q140 -107 250 -197q160 131 246 197zM475 0h-233v1597h692q88 0 173 -14t171.5 -49.5t151 -90t105 -142t40.5 -197.5q0 -207 -133 -331t-344 -150v-2q56 -69 159 -195.5t187 -230t158 -195.5h-263l-493 606h-371v-606z
M475 801h428q123 0 216 29.5t151.5 97.5t58.5 170q0 99 -62 168.5t-158 100t-216 30.5h-418v-596z" />
    <glyph glyph-name="rcaron" unicode="&#x159;" horiz-adv-x="1028" 
d="M694 1288h-256l-356 373h209q176 -147 276 -234q94 84 275 234h209zM424 0h-221v1137h217v-207h10q53 105 166 172t254 67q82 0 149 -22v-229q-76 24 -168 24q-87 0 -157.5 -27.5t-116 -72t-76.5 -103.5t-44 -118.5t-13 -120.5v-500z" />
    <glyph glyph-name="Sacute" unicode="&#x15a;" horiz-adv-x="1593" 
d="M1202 2062l-403 -342h-201l301 342h303zM821 -35q-121 0 -232.5 28t-211 83.5t-175 147.5t-114.5 212l217 72q39 -117 119.5 -195t179 -111.5t215.5 -33.5q78 0 150.5 15.5t133.5 45.5t97.5 80.5t36.5 114.5q0 41 -14 74.5t-42 57.5t-59 43t-75.5 34t-81 25t-84.5 22
q-17 4 -25 6l-178 45q-36 10 -65.5 18t-72.5 23t-77.5 30t-76 37.5t-72.5 46.5t-62 56.5t-51 67.5t-32.5 80t-12.5 94q0 138 91.5 241.5t233.5 154t310 50.5q235 0 409.5 -104.5t233.5 -272.5l-213 -82q-51 120 -167 189.5t-278 69.5q-161 0 -269 -64.5t-108 -165.5
q0 -36 16 -68.5t37.5 -56t60.5 -46.5t66.5 -36t75.5 -29t67.5 -21.5t61.5 -16.5l191 -52q6 -2 20 -5q189 -49 279 -95q215 -110 215 -321q0 -141 -89 -253t-241.5 -173.5t-337.5 -61.5z" />
    <glyph glyph-name="sacute" unicode="&#x15b;" horiz-adv-x="1234" 
d="M1065 1665l-373 -385h-192l284 385h281zM645 -35q-210 0 -364 87t-207 233l205 61q49 -98 150 -153.5t214 -55.5q42 0 85.5 8.5t86 26t69.5 50.5t27 77q0 26 -10 48t-31.5 38.5t-41.5 28t-55.5 22.5t-56.5 16.5t-61 14.5l-135 33q-383 92 -383 334q0 104 69 182
t174 115.5t226 37.5q180 0 314.5 -79.5t179.5 -202.5l-207 -66q-34 75 -112 125.5t-189 50.5q-102 0 -167 -40.5t-65 -108.5q0 -28 12 -51.5t37 -41.5t49.5 -31.5t63.5 -26t64 -19.5t65 -16l121 -29q38 -9 62 -15t67.5 -20t72.5 -28.5t64 -39.5t56.5 -53t36 -68t14.5 -87
q0 -157 -139 -257t-361 -100z" />
    <glyph glyph-name="Scedilla" unicode="&#x15e;" horiz-adv-x="1593" 
d="M1489 453q0 -134 -82 -243t-223 -172t-314 -71l-86 -100q36 12 84 12q102 0 168 -49t66 -131q0 -91 -83.5 -148t-211.5 -57q-96 0 -180.5 32.5t-137.5 88.5l82 84q40 -46 101 -70t127 -24q64 0 106.5 26t42.5 68q0 39 -39 63.5t-100 24.5q-64 0 -113 -27l-80 60l117 149
q-109 10 -207.5 42t-184.5 88t-152 142t-101 195l217 72q39 -117 119.5 -195t179 -111.5t215.5 -33.5q78 0 150.5 15.5t133.5 45.5t97.5 80.5t36.5 114.5q0 41 -14 74.5t-42 57.5t-59 43t-75.5 34t-81 25t-84.5 22q-17 4 -25 6l-178 45q-36 10 -65.5 18t-72.5 23t-77.5 30
t-76 37.5t-72.5 46.5t-62 56.5t-51 67.5t-32.5 80t-12.5 94q0 138 91.5 241.5t233.5 154t310 50.5q235 0 409.5 -104.5t233.5 -272.5l-213 -82q-51 120 -167 189.5t-278 69.5q-161 0 -269 -64.5t-108 -165.5q0 -36 16 -68.5t37.5 -56t60.5 -46.5t66.5 -36t75.5 -29
t67.5 -21.5t61.5 -16.5l191 -52q6 -2 20 -5q189 -49 279 -95q215 -110 215 -321z" />
    <glyph glyph-name="scedilla" unicode="&#x15f;" horiz-adv-x="1234" 
d="M1145 322q0 -149 -127 -248t-332 -109l-86 -98q36 12 84 12q102 0 168 -49t66 -131q0 -91 -83.5 -148t-211.5 -57q-96 0 -180.5 32.5t-137.5 88.5l82 84q40 -46 101 -70t126 -24q64 0 107 26t43 68q0 39 -39 63.5t-100 24.5q-64 0 -113 -27l-80 60l119 149
q-177 20 -304 104.5t-173 211.5l205 61q49 -98 150 -153.5t214 -55.5q42 0 85.5 8.5t86 26t69.5 50.5t27 77q0 26 -10 48t-31.5 38.5t-41.5 28t-55.5 22.5t-56.5 16.5t-61 14.5l-135 33q-383 92 -383 334q0 104 69 182t174 115.5t226 37.5q180 0 314.5 -79.5t179.5 -202.5
l-207 -66q-34 75 -112 125.5t-189 50.5q-102 0 -167 -40.5t-65 -108.5q0 -28 12 -51.5t37 -41.5t49.5 -31.5t63.5 -26t64 -19.5t65 -16l121 -29q38 -9 62 -15t67.5 -20t72.5 -28.5t64 -39.5t56.5 -53t36 -68t14.5 -87z" />
    <glyph glyph-name="Scaron" unicode="&#x160;" horiz-adv-x="1593" 
d="M1032 2050h207l-328 -330h-252l-327 330h205q122 -94 249 -197q160 131 246 197zM821 -35q-121 0 -232.5 28t-211 83.5t-175 147.5t-114.5 212l217 72q39 -117 119.5 -195t179 -111.5t215.5 -33.5q78 0 150.5 15.5t133.5 45.5t97.5 80.5t36.5 114.5q0 41 -14 74.5
t-42 57.5t-59 43t-75.5 34t-81 25t-84.5 22q-17 4 -25 6l-178 45q-36 10 -65.5 18t-72.5 23t-77.5 30t-76 37.5t-72.5 46.5t-62 56.5t-51 67.5t-32.5 80t-12.5 94q0 138 91.5 241.5t233.5 154t310 50.5q235 0 409.5 -104.5t233.5 -272.5l-213 -82q-51 120 -167 189.5
t-278 69.5q-161 0 -269 -64.5t-108 -165.5q0 -36 16 -68.5t37.5 -56t60.5 -46.5t66.5 -36t75.5 -29t67.5 -21.5t61.5 -16.5l191 -52q6 -2 20 -5q189 -49 279 -95q215 -110 215 -321q0 -141 -89 -253t-241.5 -173.5t-337.5 -61.5z" />
    <glyph glyph-name="scaron" unicode="&#x161;" horiz-adv-x="1234" 
d="M737 1288h-256l-356 373h209q176 -147 276 -234q94 84 275 234h209zM645 -35q-210 0 -364 87t-207 233l205 61q49 -98 150 -153.5t214 -55.5q42 0 85.5 8.5t86 26t69.5 50.5t27 77q0 26 -10 48t-31.5 38.5t-41.5 28t-55.5 22.5t-56.5 16.5t-61 14.5l-135 33
q-383 92 -383 334q0 104 69 182t174 115.5t226 37.5q180 0 314.5 -79.5t179.5 -202.5l-207 -66q-34 75 -112 125.5t-189 50.5q-102 0 -167 -40.5t-65 -108.5q0 -28 12 -51.5t37 -41.5t49.5 -31.5t63.5 -26t64 -19.5t65 -16l121 -29q38 -9 62 -15t67.5 -20t72.5 -28.5
t64 -39.5t56.5 -53t36 -68t14.5 -87q0 -157 -139 -257t-361 -100z" />
    <glyph glyph-name="uni0162" unicode="&#x162;" horiz-adv-x="1564" 
d="M899 0h-47l-115 -133q36 12 84 12q102 0 168 -49t66 -131q0 -91 -83.5 -148t-211.5 -57q-96 0 -180.5 32.5t-137.5 88.5l82 84q40 -46 101 -70t127 -24q64 0 106.5 26t42.5 68q0 39 -39 63.5t-100 24.5q-64 0 -113 -27l-80 60l142 180h-45v1395h-631v202h1495v-202h-631
v-1395z" />
    <glyph glyph-name="uni0163" unicode="&#x163;" horiz-adv-x="983" 
d="M922 1137v-189h-404v-528v-41t2 -40t5 -41t10 -37.5t16.5 -35.5t24 -28t33.5 -23.5t45 -14t57 -5.5q100 0 211 51v-191q-104 -49 -252 -49q-38 0 -54 2l-86 -100q36 12 84 12q102 0 168 -49t66 -131q0 -91 -83.5 -148t-211.5 -57q-96 0 -180 32.5t-137 88.5l81 84
q40 -46 101 -70t127 -24q64 0 106.5 26t42.5 68q0 39 -39 63.5t-100 24.5q-64 0 -113 -27l-80 60l134 170q-41 14 -73 37t-52.5 46.5t-35 56.5t-21.5 57.5t-10.5 60.5t-4 54t-0.5 48v598h-270v189h270v329h219v-329h404z" />
    <glyph glyph-name="Tcaron" unicode="&#x164;" horiz-adv-x="1564" 
d="M1030 2050h207l-328 -330h-252l-327 330h205q122 -94 249 -197q160 131 246 197zM899 0h-233v1395h-631v202h1495v-202h-631v-1395z" />
    <glyph glyph-name="tcaron" unicode="&#x165;" horiz-adv-x="983" 
d="M1292 1518q0 -49 -42 -115t-208 -291h-120v-164h-404v-528v-41t2 -40t5 -41t10 -37.5t16.5 -35.5t24 -28t33.5 -23.5t45 -14t57 -5.5q100 0 211 51v-191q-104 -49 -252 -49q-106 0 -180.5 30t-110.5 67.5t-55.5 100t-22 97.5t-2.5 90v598h-270v189h270v329h219v-329h404
v-2l153 247q-51 17 -77.5 53t-26.5 81q0 60 47 101.5t115 41.5q66 0 112.5 -41t46.5 -100z" />
    <glyph glyph-name="Tbar" unicode="&#x166;" horiz-adv-x="1564" 
d="M1530 1597v-202h-631v-508h395v-178h-395v-709h-233v709h-394v178h394v508h-631v202h1495z" />
    <glyph glyph-name="tbar" unicode="&#x167;" horiz-adv-x="983" 
d="M922 1137v-189h-404v-258h387v-160h-387v-110v-41t2 -40t5 -41t10 -37.5t16.5 -35.5t24 -28t33.5 -23.5t45 -14t57 -5.5q100 0 211 51v-191q-104 -49 -252 -49q-106 0 -180.5 30t-110.5 67.5t-55.5 100t-22 97.5t-2.5 90v180h-266v160h266v258h-270v189h270v329h219v-329
h404z" />
    <glyph glyph-name="Umacron" unicode="&#x16a;" horiz-adv-x="1843" 
d="M1339 1798h-835v162h835v-162zM918 -35q-146 0 -264 34t-198.5 92.5t-134.5 140t-78 173.5t-24 197v995h236v-979q0 -218 120 -333t347 -115t347 115t120 333v979h235v-995q0 -97 -21.5 -185t-73 -172t-130.5 -145t-202 -98t-279 -37z" />
    <glyph glyph-name="umacron" unicode="&#x16b;" horiz-adv-x="1538" 
d="M1165 1376h-825v156h825v-156zM676 -35q-101 0 -187.5 26.5t-155.5 80t-109 144t-40 208.5v713h222v-639q0 -167 94 -252.5t235 -85.5q116 0 204 51.5t130.5 130t42.5 168.5v627h221v-783q0 -126 10 -201t35 -153h-223q-33 117 -31 176h-4q-141 -211 -444 -211z" />
    <glyph glyph-name="Uring" unicode="&#x16e;" horiz-adv-x="1843" 
d="M922 1712q-122 0 -204.5 67t-82.5 167q0 99 82.5 166t204.5 67q119 0 200.5 -66.5t81.5 -166.5q0 -101 -81.5 -167.5t-200.5 -66.5zM922 1837q58 0 97.5 30t39.5 79q0 47 -39.5 76.5t-97.5 29.5q-62 0 -102 -29.5t-40 -76.5q0 -49 40 -79t102 -30zM918 -35
q-146 0 -264 34t-198.5 92.5t-134.5 140t-78 173.5t-24 197v995h236v-979q0 -218 120 -333t347 -115t347 115t120 333v979h235v-995q0 -97 -21.5 -185t-73 -172t-130.5 -145t-202 -98t-279 -37z" />
    <glyph glyph-name="uring" unicode="&#x16f;" horiz-adv-x="1538" 
d="M754 1251q-123 0 -205 67t-82 167t82 166.5t205 66.5q119 0 200.5 -66.5t81.5 -166.5q0 -101 -81.5 -167.5t-200.5 -66.5zM754 1376q58 0 97.5 30t39.5 79q0 47 -39.5 76.5t-97.5 29.5q-62 0 -103 -29.5t-41 -76.5q0 -49 41 -79t103 -30zM676 -35q-101 0 -187.5 26.5
t-155.5 80t-109 144t-40 208.5v713h222v-639q0 -167 94 -252.5t235 -85.5q116 0 204 51.5t130.5 130t42.5 168.5v627h221v-783q0 -126 10 -201t35 -153h-223q-33 117 -31 176h-4q-141 -211 -444 -211z" />
    <glyph glyph-name="Uhungarumlaut" unicode="&#x170;" horiz-adv-x="1843" 
d="M1108 2060l-346 -340h-195l256 340h285zM1550 2060l-360 -340h-197l273 340h284zM918 -35q-146 0 -264 34t-198.5 92.5t-134.5 140t-78 173.5t-24 197v995h236v-979q0 -218 120 -333t347 -115t347 115t120 333v979h235v-995q0 -97 -21.5 -185t-73 -172t-130.5 -145
t-202 -98t-279 -37z" />
    <glyph glyph-name="uhungarumlaut" unicode="&#x171;" horiz-adv-x="1538" 
d="M930 1673l-350 -395h-189l262 395h277zM1378 1673l-366 -395h-191l279 395h278zM676 -35q-101 0 -187.5 26.5t-155.5 80t-109 144t-40 208.5v713h222v-639q0 -167 94 -252.5t235 -85.5q116 0 204 51.5t130.5 130t42.5 168.5v627h221v-783q0 -126 10 -201t35 -153h-223
q-33 117 -31 176h-4q-141 -211 -444 -211z" />
    <glyph glyph-name="Uogonek" unicode="&#x172;" horiz-adv-x="1843" 
d="M1389 618v979h235v-995q0 -88 -17.5 -168.5t-59 -159t-105 -138.5t-161.5 -104t-222 -59q-67 -30 -100 -72.5t-33 -84.5q0 -59 56 -100.5t148 -41.5q49 0 105 13v-133q-67 -17 -133 -17q-144 0 -242 61.5t-98 172.5q0 113 133 194q-141 2 -255.5 37.5t-191.5 94
t-129.5 139.5t-76 172t-23.5 194v995h236v-979q0 -218 120 -333t347 -115t347 115t120 333z" />
    <glyph glyph-name="uogonek" unicode="&#x173;" horiz-adv-x="1538" 
d="M1311 -319q50 0 110 16v-146q-66 -14 -131 -14q-143 0 -238.5 62t-95.5 172q0 75 54 133.5t147 95.5h-2q-33 117 -31 176h-4q-141 -211 -444 -211q-101 0 -187.5 26.5t-155.5 80t-109 144t-40 208.5v713h222v-639q0 -167 94 -252.5t235 -85.5q116 0 204 51.5t130.5 130
t42.5 168.5v627h221v-783q0 -126 10 -201t35 -153h-59q-99 -31 -150 -80.5t-51 -105.5q0 -58 54.5 -95.5t138.5 -37.5z" />
    <glyph glyph-name="Wcircumflex" unicode="&#x174;" horiz-adv-x="2809" 
d="M1530 2050l330 -330h-205q-208 159 -248 193q-63 -53 -250 -193h-205l330 330h248zM922 0h-289l-596 1597h260q265 -688 483 -1294h4q59 159 228.5 604.5t259.5 689.5h264q82 -216 247 -647t247 -647h6q322 893 479 1294h258l-596 -1597h-287q-227 565 -483 1260h-4
q-283 -775 -481 -1260z" />
    <glyph glyph-name="wcircumflex" unicode="&#x175;" horiz-adv-x="2254" 
d="M848 1278h-209l356 364h256l357 -364h-209q-31 26 -86.5 72t-101 85t-87.5 76q-190 -163 -276 -233zM760 0h-244l-481 1137h246l366 -865h6l371 865h207l379 -865h6l358 865h246l-479 -1137h-252q-20 46 -77 174t-82 186t-80 189.5t-120 292.5h-6q-171 -414 -364 -842z
" />
    <glyph glyph-name="Ycircumflex" unicode="&#x176;" horiz-adv-x="1701" 
d="M975 2050l330 -330h-205q-208 159 -248 193q-63 -53 -250 -193h-205l330 330h248zM967 0h-232v567q-74 109 -237.5 352t-282.5 418.5t-180 259.5h252q94 -135 281.5 -406.5t281.5 -406.5h4q58 83 123.5 180.5t162 237.5t277.5 395h252q-118 -171 -351 -514t-351 -514
v-569z" />
    <glyph glyph-name="ycircumflex" unicode="&#x177;" horiz-adv-x="1368" 
d="M397 1278h-209l357 364h256l356 -364h-209q-259 219 -274 233q-174 -150 -277 -233zM596 -451h-221l198 420l-544 1168h243q180 -376 414 -893h4q284 624 412 893h237z" />
    <glyph glyph-name="Ydieresis" unicode="&#x178;" horiz-adv-x="1701" 
d="M600 1759q-63 0 -108.5 41t-45.5 101q0 55 45.5 95t108.5 40q64 0 109 -39.5t45 -95.5q0 -60 -44.5 -101t-109.5 -41zM1104 1759q-66 0 -111 41t-45 101q0 56 45 95.5t111 39.5q62 0 106.5 -40t44.5 -95q0 -60 -44.5 -101t-106.5 -41zM967 0h-232v567q-74 109 -237.5 352
t-282.5 418.5t-180 259.5h252q94 -135 281.5 -406.5t281.5 -406.5h4q58 83 123.5 180.5t162 237.5t277.5 395h252q-118 -171 -351 -514t-351 -514v-569z" />
    <glyph glyph-name="Zacute" unicode="&#x179;" horiz-adv-x="1634" 
d="M1284 2060l-403 -340h-201l301 340h303zM1552 0h-1472v209q98 100 515 527t644 657v4q-745 0 -1118 -2v202h1411v-208l-1167 -1178v-4h1187v-207z" />
    <glyph glyph-name="zacute" unicode="&#x17a;" horiz-adv-x="1234" 
d="M1071 1663l-373 -385h-192l285 385h280zM1169 0h-1091v170l741 776h-706v191h1003v-170l-745 -777h798v-190z" />
    <glyph glyph-name="Zdotaccent" unicode="&#x17b;" horiz-adv-x="1634" 
d="M791 1772q-68 0 -114 42t-46 103q0 59 46.5 100t113.5 41t113 -41t46 -100q0 -62 -46 -103.5t-113 -41.5zM1552 0h-1472v209q98 100 515 527t644 657v4q-745 0 -1118 -2v202h1411v-208l-1167 -1178v-4h1187v-207z" />
    <glyph glyph-name="zdotaccent" unicode="&#x17c;" horiz-adv-x="1234" 
d="M618 1370q-69 0 -115 42.5t-46 105.5q0 58 46.5 99.5t114.5 41.5q66 0 112 -42t46 -99q0 -63 -46 -105.5t-112 -42.5zM1169 0h-1091v170l741 776h-706v191h1003v-170l-745 -777h798v-190z" />
    <glyph glyph-name="Zcaron" unicode="&#x17d;" horiz-adv-x="1634" 
d="M1042 2050h207l-327 -330h-252l-328 330h205q140 -107 250 -197q176 144 245 197zM1552 0h-1472v209q98 100 515 527t644 657v4q-745 0 -1118 -2v202h1411v-208l-1167 -1178v-4h1187v-207z" />
    <glyph glyph-name="zcaron" unicode="&#x17e;" horiz-adv-x="1234" 
d="M743 1288h-256l-356 373h209q176 -147 276 -234q94 84 275 234h209zM1169 0h-1091v170l741 776h-706v191h1003v-170l-745 -777h798v-190z" />
    <glyph glyph-name="uni0218" unicode="&#x218;" horiz-adv-x="1593" 
d="M821 -35q-121 0 -232.5 28t-211 83.5t-175 147.5t-114.5 212l217 72q39 -117 119.5 -195t179 -111.5t215.5 -33.5q78 0 150.5 15.5t133.5 45.5t97.5 80.5t36.5 114.5q0 41 -14 74.5t-42 57.5t-59 43t-75.5 34t-81 25t-84.5 22q-17 4 -25 6l-178 45q-36 10 -65.5 18
t-72.5 23t-77.5 30t-76 37.5t-72.5 46.5t-62 56.5t-51 67.5t-32.5 80t-12.5 94q0 138 91.5 241.5t233.5 154t310 50.5q235 0 409.5 -104.5t233.5 -272.5l-213 -82q-51 120 -167 189.5t-278 69.5q-161 0 -269 -64.5t-108 -165.5q0 -36 16 -68.5t37.5 -56t60.5 -46.5t66.5 -36
t75.5 -29t67.5 -21.5t61.5 -16.5l191 -52q6 -2 20 -5q189 -49 279 -95q215 -110 215 -321q0 -141 -89 -253t-241.5 -173.5t-337.5 -61.5zM770 -582h-117l131 215q-53 17 -80.5 50t-27.5 75q0 55 42 92t105 37t105.5 -36.5t42.5 -90.5q0 -12 -1.5 -22.5t-6.5 -24t-9.5 -24
t-15.5 -28.5t-19.5 -32t-27 -40.5t-32.5 -46t-41 -57.5t-48 -67z" />
    <glyph glyph-name="uni0219" unicode="&#x219;" horiz-adv-x="1234" 
d="M645 -35q-210 0 -364 87t-207 233l205 61q49 -98 150 -153.5t214 -55.5q42 0 85.5 8.5t86 26t69.5 50.5t27 77q0 26 -10 48t-31.5 38.5t-41.5 28t-55.5 22.5t-56.5 16.5t-61 14.5l-135 33q-383 92 -383 334q0 104 69 182t174 115.5t226 37.5q180 0 314.5 -79.5
t179.5 -202.5l-207 -66q-34 75 -112 125.5t-189 50.5q-102 0 -167 -40.5t-65 -108.5q0 -28 12 -51.5t37 -41.5t49.5 -31.5t63.5 -26t64 -19.5t65 -16l121 -29q38 -9 62 -15t67.5 -20t72.5 -28.5t64 -39.5t56.5 -53t36 -68t14.5 -87q0 -157 -139 -257t-361 -100zM588 -582
h-117l131 215q-53 17 -80.5 50t-27.5 75q0 55 42 92t105 37t105 -36.5t42 -90.5q0 -12 -1.5 -22.5t-6.5 -24t-9 -23.5t-15.5 -29t-19.5 -32t-27 -40.5t-32.5 -46t-41 -57.5t-47.5 -67z" />
    <glyph glyph-name="uni021A" unicode="&#x21a;" horiz-adv-x="1564" 
d="M899 0h-233v1395h-631v202h1495v-202h-631v-1395zM725 -582h-117l131 215q-53 17 -80.5 50t-27.5 75q0 55 42 92t105 37t105.5 -36.5t42.5 -90.5q0 -12 -1.5 -22.5t-6.5 -24t-9.5 -24t-15.5 -28.5t-19.5 -32t-27 -40.5t-32.5 -46t-41 -57.5t-48 -67z" />
    <glyph glyph-name="uni021B" unicode="&#x21b;" horiz-adv-x="983" 
d="M670 -35q-106 0 -180.5 30t-110.5 67.5t-55.5 100t-22 97.5t-2.5 90v598h-270v189h270v329h219v-329h404v-189h-404v-528v-41t2 -40t5 -41t10 -37.5t16.5 -35.5t24 -28t33.5 -23.5t45 -14t57 -5.5q100 0 211 51v-191q-104 -49 -252 -49zM518 -582h-117l131 215
q-53 17 -80.5 50t-27.5 75q0 55 42 92t105 37t105.5 -36.5t42.5 -90.5q0 -12 -1.5 -22.5t-6.5 -24t-9.5 -24t-15.5 -28.5t-19.5 -32t-27 -40.5t-32.5 -46t-41 -57.5t-48 -67z" />
    <glyph glyph-name="gravecomb" unicode="&#x300;" horiz-adv-x="0" 
d="M-102 1278h-193l-373 385h281z" />
    <glyph glyph-name="acutecomb" unicode="&#x301;" horiz-adv-x="0" 
d="M90 1663l-373 -385h-192l285 385h280z" />
    <glyph glyph-name="uni0302" unicode="&#x302;" horiz-adv-x="0" 
d="M-791 1278h-208l356 364h256l356 -364h-209q-259 219 -274 233q-174 -150 -277 -233z" />
    <glyph glyph-name="tildecomb" unicode="&#x303;" horiz-adv-x="0" 
d="M-379 1329q-45 0 -82.5 10.5t-55.5 20.5t-50 31l-56 34q-58 43 -112 43q-51 0 -83 -35t-32 -87h-162q1 126 78 204t195 78q86 0 180 -59l55 -35q55 -41 115 -41q50 0 76 32.5t26 88.5h166q0 -134 -68 -209.5t-190 -75.5z" />
    <glyph glyph-name="uni0304" unicode="&#x304;" horiz-adv-x="0" 
d="M-109 1366h-825v156h825v-156z" />
    <glyph glyph-name="uni0306" unicode="&#x306;" horiz-adv-x="0" 
d="M-496 1272q-205 0 -325.5 110.5t-128.5 284.5h188q5 -103 78 -171.5t192 -68.5q118 0 192 67.5t79 172.5h188q-8 -174 -131 -284.5t-332 -110.5z" />
    <glyph glyph-name="uni0307" unicode="&#x307;" horiz-adv-x="0" 
d="M-297 1360q-69 0 -115.5 42t-46.5 105q0 58 47 100t115 42q65 0 111.5 -42t46.5 -100q0 -63 -46 -105t-112 -42z" />
    <glyph glyph-name="uni0308" unicode="&#x308;" horiz-adv-x="0" 
d="M-975 1337q-61 0 -104 40t-43 96q0 53 43 92t104 39q62 0 104 -39t42 -92q0 -56 -42 -96t-104 -40zM-502 1337q-62 0 -104.5 40t-42.5 96q0 53 42.5 92t104.5 39q61 0 104.5 -39t43.5 -92q0 -56 -43.5 -96t-104.5 -40z" />
    <glyph glyph-name="uni030A" unicode="&#x30a;" horiz-adv-x="0" 
d="M-309 1251q-123 0 -205 67t-82 167t82 166.5t205 66.5q119 0 200.5 -66.5t81.5 -166.5q0 -101 -81.5 -167.5t-200.5 -66.5zM-309 1376q58 0 97.5 30t39.5 79q0 47 -39.5 76.5t-97.5 29.5q-62 0 -103 -29.5t-41 -76.5q0 -49 41 -79t103 -30z" />
    <glyph glyph-name="uni030B" unicode="&#x30b;" horiz-adv-x="0" 
d="M-289 1673l-350 -395h-188l262 395h276zM160 1673l-367 -395h-190l278 395h279z" />
    <glyph glyph-name="uni030C" unicode="&#x30c;" horiz-adv-x="0" 
d="M-387 1278h-256l-356 373h208q204 -171 277 -234q108 96 274 234h209z" />
    <glyph glyph-name="uni0312" unicode="&#x312;" horiz-adv-x="0" 
d="M-504 1298q0 12 1.5 22.5t6.5 24.5t10 24.5t17 30.5t21.5 34.5t30 44t36.5 52t46 65.5t54 77h134l-154 -248q44 -18 69 -50.5t25 -74.5q0 -55 -43 -93t-106 -38q-62 0 -105 37.5t-43 91.5z" />
    <glyph glyph-name="uni0326" unicode="&#x326;" horiz-adv-x="0" 
d="M-391 -582h-117l131 215q-53 17 -80.5 50t-27.5 75q0 55 42 92t105 37t105.5 -36.5t42.5 -90.5q0 -12 -1.5 -22.5t-6.5 -24t-9.5 -24t-15.5 -28.5t-19.5 -32t-27 -40.5t-32.5 -46t-41 -57.5t-48 -67z" />
    <glyph glyph-name="uni0327" unicode="&#x327;" horiz-adv-x="0" 
d="M-768 -506q-96 0 -180 32.5t-137 88.5l81 84q40 -46 101 -70t127 -24q64 0 106.5 26t42.5 68q0 39 -39 63.5t-100 24.5q-64 0 -113 -27l-79 60l141 180h141l-115 -133q36 12 84 12q102 0 168 -49t66 -131q0 -91 -83.5 -148t-211.5 -57z" />
    <glyph glyph-name="uni0328" unicode="&#x328;" horiz-adv-x="0" 
d="M-768 -483q-143 0 -238.5 61.5t-95.5 171.5q0 75 54 134t147 96h162q-99 -31 -150 -81t-51 -106q0 -58 54 -95.5t138 -37.5q51 0 111 16v-145q-66 -14 -131 -14z" />
    <glyph glyph-name="uni0335" unicode="&#x335;" horiz-adv-x="0" 
d="M-926 649h873v-160h-873v160z" />
    <glyph glyph-name="uni0337" unicode="&#x337;" horiz-adv-x="0" 
d="M-604 471v182l696 432v-182z" />
    <glyph glyph-name="uni0338" unicode="&#x338;" horiz-adv-x="0" 
d="M-1196 -61h-244l1110 1241h236z" />
    <glyph glyph-name="Wgrave" unicode="&#x1e80;" horiz-adv-x="2809" 
d="M1542 1720h-203l-401 340h301zM922 0h-289l-596 1597h260q265 -688 483 -1294h4q59 159 228.5 604.5t259.5 689.5h264q82 -216 247 -647t247 -647h6q322 893 479 1294h258l-596 -1597h-287q-227 565 -483 1260h-4q-283 -775 -481 -1260z" />
    <glyph glyph-name="wgrave" unicode="&#x1e81;" horiz-adv-x="2254" 
d="M1227 1278h-193l-372 385h280zM760 0h-244l-481 1137h246l366 -865h6l371 865h207l379 -865h6l358 865h246l-479 -1137h-252q-20 46 -77 174t-82 186t-80 189.5t-120 292.5h-6q-171 -414 -364 -842z" />
    <glyph glyph-name="Wacute" unicode="&#x1e82;" horiz-adv-x="2809" 
d="M1894 2060l-403 -340h-201l301 340h303zM922 0h-289l-596 1597h260q265 -688 483 -1294h4q59 159 228.5 604.5t259.5 689.5h264q82 -216 247 -647t247 -647h6q322 893 479 1294h258l-596 -1597h-287q-227 565 -483 1260h-4q-283 -775 -481 -1260z" />
    <glyph glyph-name="wacute" unicode="&#x1e83;" horiz-adv-x="2254" 
d="M1579 1663l-373 -385h-192l284 385h281zM760 0h-244l-481 1137h246l366 -865h6l371 865h207l379 -865h6l358 865h246l-479 -1137h-252q-20 46 -77 174t-82 186t-80 189.5t-120 292.5h-6q-171 -414 -364 -842z" />
    <glyph glyph-name="Wdieresis" unicode="&#x1e84;" horiz-adv-x="2809" 
d="M1155 1759q-63 0 -108.5 41t-45.5 101q0 55 45.5 95t108.5 40q64 0 109 -39.5t45 -95.5q0 -60 -44.5 -101t-109.5 -41zM1659 1759q-66 0 -111 41t-45 101q0 56 45 95.5t111 39.5q62 0 106.5 -40t44.5 -95q0 -60 -44.5 -101t-106.5 -41zM922 0h-289l-596 1597h260
q265 -688 483 -1294h4q59 159 228.5 604.5t259.5 689.5h264q82 -216 247 -647t247 -647h6q322 893 479 1294h258l-596 -1597h-287q-227 565 -483 1260h-4q-283 -775 -481 -1260z" />
    <glyph glyph-name="wdieresis" unicode="&#x1e85;" horiz-adv-x="2254" 
d="M887 1337q-61 0 -104.5 40t-43.5 96q0 53 43.5 92t104.5 39q62 0 103.5 -38.5t41.5 -92.5q0 -56 -41.5 -96t-103.5 -40zM1360 1337q-62 0 -105 40t-43 96q0 53 43 92t105 39q61 0 104 -39t43 -92q0 -56 -43 -96t-104 -40zM760 0h-244l-481 1137h246l366 -865h6l371 865
h207l379 -865h6l358 865h246l-479 -1137h-252q-20 46 -77 174t-82 186t-80 189.5t-120 292.5h-6q-171 -414 -364 -842z" />
    <glyph glyph-name="uni1E9E" unicode="&#x1e9e;" horiz-adv-x="1851" 
d="M453 0h-236v918q0 70 5.5 130.5t24.5 135.5t50 135.5t86.5 120t129 100t183 65.5t244.5 25q323 0 512.5 -128.5t189.5 -336.5q0 -140 -88 -235t-239 -121v-4q110 -5 204 -49.5t155 -131.5t61 -200q0 -41 -8.5 -81t-30 -82.5t-54.5 -79.5t-86 -71t-121 -58t-163.5 -38
t-208.5 -14h-227v201h260q106 0 184.5 19t122.5 53t65 75.5t21 91.5q0 116 -108 180t-289 64h-134v201h121q32 0 69 6t83 23.5t82 44.5t61 74.5t25 107.5q0 139 -123.5 216t-331.5 77q-79 0 -146 -12.5t-114.5 -31t-85 -49.5t-61.5 -59t-41 -68.5t-25 -69t-12.5 -70
t-5 -61.5t-0.5 -53v-2v-958z" />
    <glyph glyph-name="Ygrave" unicode="&#x1ef2;" horiz-adv-x="1701" 
d="M987 1720h-203l-401 340h301zM967 0h-232v567q-74 109 -237.5 352t-282.5 418.5t-180 259.5h252q94 -135 281.5 -406.5t281.5 -406.5h4q58 83 123.5 180.5t162 237.5t277.5 395h252q-118 -171 -351 -514t-351 -514v-569z" />
    <glyph glyph-name="ygrave" unicode="&#x1ef3;" horiz-adv-x="1368" 
d="M776 1278h-192l-373 385h281zM596 -451h-221l198 420l-544 1168h243q180 -376 414 -893h4q284 624 412 893h237z" />
    <glyph glyph-name="uni2000" unicode="&#x2000;" horiz-adv-x="1228" 
 />
    <glyph glyph-name="uni2001" unicode="&#x2001;" 
 />
    <glyph glyph-name="uni2002" unicode="&#x2002;" horiz-adv-x="1228" 
 />
    <glyph glyph-name="uni2003" unicode="&#x2003;" 
 />
    <glyph glyph-name="uni2004" unicode="&#x2004;" horiz-adv-x="819" 
 />
    <glyph glyph-name="uni2005" unicode="&#x2005;" horiz-adv-x="614" 
 />
    <glyph glyph-name="uni2006" unicode="&#x2006;" horiz-adv-x="409" 
 />
    <glyph glyph-name="uni2007" unicode="&#x2007;" horiz-adv-x="643" 
 />
    <glyph glyph-name="uni2008" unicode="&#x2008;" horiz-adv-x="600" 
 />
    <glyph glyph-name="uni2009" unicode="&#x2009;" horiz-adv-x="307" 
 />
    <glyph glyph-name="uni200A" unicode="&#x200a;" horiz-adv-x="102" 
 />
    <glyph glyph-name="uni200B" unicode="&#x200b;" horiz-adv-x="0" 
 />
    <glyph glyph-name="endash" unicode="&#x2013;" horiz-adv-x="1214" 
d="M1069 535h-924v178h924v-178z" />
    <glyph glyph-name="emdash" unicode="&#x2014;" horiz-adv-x="1726" 
d="M1583 541h-1440v164h1440v-164z" />
    <glyph glyph-name="quoteleft" unicode="&#x2018;" horiz-adv-x="585" 
d="M358 1634h131l-163 -270q51 -17 77.5 -53t26.5 -82q0 -59 -48 -101.5t-114 -42.5t-112.5 41.5t-46.5 100.5q0 51 42 117t207 290z" />
    <glyph glyph-name="quoteright" unicode="&#x2019;" horiz-adv-x="598" 
d="M262 1102h-135l168 270q-51 17 -78 53t-27 82q0 59 47.5 101.5t114.5 42.5q66 0 113 -41.5t47 -100.5q0 -48 -39 -110.5t-180 -254.5q-20 -27 -31 -42z" />
    <glyph glyph-name="quotesinglbase" unicode="&#x201a;" horiz-adv-x="573" 
d="M205 -270h-133l164 270q-50 17 -77.5 53.5t-27.5 81.5q0 59 48.5 101.5t115.5 42.5q65 0 112.5 -42t47.5 -100q0 -45 -34 -101.5t-151 -216.5q-41 -56 -65 -89z" />
    <glyph glyph-name="quotedblleft" unicode="&#x201c;" horiz-adv-x="1015" 
d="M358 1634h131l-163 -270q51 -17 77.5 -53t26.5 -82q0 -59 -48 -101.5t-114 -42.5t-112.5 41.5t-46.5 100.5q0 51 42 117t207 290zM737 1634h131l-163 -270q51 -17 78.5 -53t27.5 -82q0 -59 -48.5 -101.5t-115.5 -42.5q-66 0 -113 41.5t-47 100.5q0 48 39 110.5t180 254.5
q7 9 10.5 14t9.5 13t11 15z" />
    <glyph glyph-name="quotedblright" unicode="&#x201d;" horiz-adv-x="1028" 
d="M260 1102h-133l164 270q-50 17 -77.5 53.5t-27.5 81.5q0 59 48.5 101.5t115.5 42.5q66 0 113 -41.5t47 -100.5q0 -48 -39 -110.5t-180 -254.5q-20 -27 -31 -42zM694 1102h-133l162 270q-49 17 -75.5 53t-26.5 82q0 59 48 101.5t115 42.5q63 0 110.5 -42t47.5 -100
q0 -46 -32.5 -100.5t-143.5 -207.5q-46 -63 -72 -99z" />
    <glyph glyph-name="quotedblbase" unicode="&#x201e;" horiz-adv-x="1007" 
d="M205 -256h-133l164 270q-50 17 -77.5 54t-27.5 82q0 59 48.5 101t115.5 42q65 0 112.5 -41.5t47.5 -99.5q0 -47 -36.5 -106.5t-167.5 -238.5q-30 -41 -46 -63zM639 -256h-133l162 270q-50 17 -76.5 53t-26.5 83q0 58 48 100.5t114 42.5q65 0 112.5 -41.5t47.5 -99.5
q0 -46 -35 -104.5t-154 -222.5q-38 -51 -59 -81z" />
    <glyph glyph-name="dagger" unicode="&#x2020;" horiz-adv-x="1202" 
d="M696 1313h404v-166h-404v-717h-196v717h-396v166h396v325h196v-325z" />
    <glyph glyph-name="daggerdbl" unicode="&#x2021;" horiz-adv-x="1300" 
d="M1141 1313v-166h-389v-266h389v-164h-389v-326h-197v326h-395v164h395v266h-395v166h395v325h197v-325h389z" />
    <glyph glyph-name="bullet" unicode="&#x2022;" horiz-adv-x="995" 
d="M498 434q-117 0 -200 76.5t-83 185.5q0 102 83 175t200 73q115 0 195.5 -73t80.5 -175q0 -109 -80.5 -185.5t-195.5 -76.5z" />
    <glyph glyph-name="ellipsis" unicode="&#x2026;" horiz-adv-x="1701" 
d="M301 -14q-68 0 -115 43t-47 106q0 59 47.5 101.5t114.5 42.5q66 0 112 -42.5t46 -101.5q0 -63 -46 -106t-112 -43zM774 -14q-68 0 -115 43t-47 106q0 59 47.5 101.5t114.5 42.5q66 0 112 -42.5t46 -101.5q0 -63 -46 -106t-112 -43zM1405 -14q-68 0 -115 43t-47 106
q0 59 47.5 101.5t114.5 42.5q66 0 112 -42.5t46 -101.5q0 -63 -46 -106t-112 -43z" />
    <glyph glyph-name="uni202F" unicode="&#x202f;" horiz-adv-x="468" 
 />
    <glyph glyph-name="perthousand" unicode="&#x2030;" horiz-adv-x="2990" 
d="M430 756q-156 0 -250 108t-94 281q0 175 94 284t250 109q155 0 249.5 -110.5t94.5 -282.5q0 -171 -94.5 -280t-249.5 -109zM489 0h-206l1366 1468h198zM430 911q71 0 112.5 59.5t41.5 174.5q0 117 -41.5 177t-112.5 60q-72 0 -114 -60.5t-42 -176.5q0 -115 42 -174.5
t114 -59.5zM1700 -29q-156 0 -250 108t-94 281q0 175 94.5 284.5t249.5 109.5t249.5 -111t94.5 -283q0 -171 -94.5 -280t-249.5 -109zM2560 -29q-156 0 -250 108t-94 281q0 175 94.5 284.5t249.5 109.5t249.5 -111t94.5 -283q0 -171 -94.5 -280t-249.5 -109zM1700 127
q71 0 112 59t41 174q0 117 -41 177.5t-112 60.5t-113.5 -60.5t-42.5 -177.5q0 -115 42 -174t114 -59zM2560 127q71 0 112.5 59t41.5 174q0 117 -41.5 177.5t-112.5 60.5t-113.5 -60.5t-42.5 -177.5q0 -115 42 -174t114 -59z" />
    <glyph glyph-name="guilsinglleft" unicode="&#x2039;" horiz-adv-x="952" 
d="M797 164h-258l-416 405v9l416 405h258l-416 -405v-9z" />
    <glyph glyph-name="guilsinglright" unicode="&#x203a;" horiz-adv-x="952" 
d="M414 164h-258l415 405v9l-415 405h258l415 -405v-9z" />
    <glyph glyph-name="fraction" unicode="&#x2044;" horiz-adv-x="409" 
d="M-371 0h-207l1366 1468h199z" />
    <glyph glyph-name="uni205F" unicode="&#x205f;" horiz-adv-x="544" 
 />
    <glyph glyph-name="uni2070" unicode="&#x2070;" horiz-adv-x="860" 
d="M430 756q-156 0 -250 108t-94 281q0 175 94 284t250 109q155 0 249.5 -110.5t94.5 -282.5q0 -171 -94.5 -280t-249.5 -109zM430 911q71 0 112.5 59.5t41.5 174.5q0 117 -41.5 177t-112.5 60q-72 0 -114 -60.5t-42 -176.5q0 -115 42 -174.5t114 -59.5z" />
    <glyph glyph-name="uni2074" unicode="&#x2074;" horiz-adv-x="831" 
d="M645 772h-172v150h-422v133l426 467h168v-461h115v-139h-115v-150zM473 1309l-248 -248h248v248z" />
    <glyph glyph-name="uni2075" unicode="&#x2075;" horiz-adv-x="815" 
d="M391 756q-120 0 -212 43.5t-124 128.5l158 73q22 -49 71.5 -75.5t108.5 -26.5q69 0 112.5 34t43.5 87q0 56 -43.5 89.5t-108.5 33.5q-49 0 -87.5 -20.5t-59.5 -49.5l-148 33l105 416h477v-136h-350l-51 -180h2q28 28 78.5 43t101.5 15q69 0 129 -24t101.5 -79.5
t41.5 -134.5q0 -124 -100 -197t-246 -73z" />
    <glyph glyph-name="uni2076" unicode="&#x2076;" horiz-adv-x="847" 
d="M432 756q-158 0 -253 91t-95 257q0 189 119 311.5t307 122.5q66 0 132 -20t108 -62l-93 -110q-62 49 -153 49q-100 0 -166.5 -57.5t-75.5 -157.5h2q28 38 87 60t122 22q121 0 208 -67.5t87 -174.5q0 -114 -94.5 -189t-241.5 -75zM440 895q67 0 113.5 36t46.5 91
q0 54 -46 89.5t-112 35.5q-70 0 -114.5 -36t-44.5 -91q0 -53 46 -89t111 -36z" />
    <glyph glyph-name="uni2077" unicode="&#x2077;" horiz-adv-x="696" 
d="M367 772h-189q0 138 74 316.5t205 295.5h-414v140h621v-142q-143 -106 -220 -280.5t-77 -329.5z" />
    <glyph glyph-name="uni2078" unicode="&#x2078;" horiz-adv-x="831" 
d="M416 756q-152 0 -244 65.5t-92 159.5q0 68 47.5 119.5t110.5 64.5v2q-119 56 -119 156q0 94 85.5 154.5t211.5 60.5q123 0 210 -59.5t87 -157.5q0 -106 -121 -154v-2q67 -14 113.5 -63.5t46.5 -118.5q0 -95 -92.5 -161t-243.5 -66zM418 1227q56 0 93.5 27.5t37.5 68.5
q0 39 -37.5 64.5t-93.5 25.5q-57 0 -95 -25.5t-38 -64.5q0 -41 38 -68.5t95 -27.5zM418 901q64 0 106.5 30t42.5 79q0 48 -40.5 77t-108.5 29q-70 0 -112 -29t-42 -77q0 -47 44.5 -78t109.5 -31z" />
    <glyph glyph-name="uni2079" unicode="&#x2079;" horiz-adv-x="854" 
d="M379 756q-85 0 -163.5 25.5t-127.5 78.5l96 109q40 -38 93.5 -57t101.5 -19q100 0 153.5 65t55.5 160h-2q-25 -42 -84 -65t-127 -23q-121 0 -206 66.5t-85 173.5q0 117 94.5 192.5t245.5 75.5q72 0 132.5 -20.5t109 -62t75.5 -111.5t27 -162q0 -118 -41.5 -212.5
t-131.5 -154t-216 -59.5zM408 1145q69 0 115 38t46 95t-45 92t-110 35q-71 0 -116.5 -36.5t-45.5 -94.5q0 -57 44 -93t112 -36z" />
    <glyph glyph-name="uni2080" unicode="&#x2080;" horiz-adv-x="860" 
d="M430 -285q-156 0 -250 108t-94 281q0 175 94.5 284.5t249.5 109.5t249.5 -111t94.5 -283q0 -171 -94.5 -280t-249.5 -109zM430 -129q71 0 112.5 59t41.5 174q0 117 -41.5 177.5t-112.5 60.5t-113.5 -60.5t-42.5 -177.5q0 -115 42 -174t114 -59z" />
    <glyph glyph-name="uni2081" unicode="&#x2081;" horiz-adv-x="571" 
d="M422 -268h-176v489q-78 -62 -189 -84v176q86 21 138.5 68.5t52.5 99.5h174v-749z" />
    <glyph glyph-name="uni2082" unicode="&#x2082;" horiz-adv-x="804" 
d="M713 -268h-615v20q3 69 18 117.5t52 90.5t84 74.5t129 78.5q6 4 25.5 15.5t29 17.5t26.5 18t26.5 21.5t20 22t15 26.5t4.5 28q0 36 -35 60t-92 24q-73 0 -117.5 -39.5t-45.5 -107.5l-164 22q0 123 94 200t235 77q132 0 221 -66t89 -170q0 -133 -160 -213
q-17 -10 -53 -27.5t-56 -29t-45 -28.5t-41 -36t-24 -41h379v-155z" />
    <glyph glyph-name="uni2083" unicode="&#x2083;" horiz-adv-x="815" 
d="M395 -285q-122 0 -215 48t-119 124l156 72q52 -104 178 -104q63 0 104.5 26t41.5 74q0 96 -162 96h-86v119h90q63 0 103 25t40 67q0 41 -38.5 66.5t-96.5 25.5q-59 0 -99.5 -29t-47.5 -79l-162 33q12 94 103 156.5t221 62.5q125 0 212 -55.5t87 -145.5q0 -58 -38 -105.5
t-102 -60.5v-2q70 -11 118 -59t48 -115q0 -94 -90 -167t-246 -73z" />
    <glyph glyph-name="uni2084" unicode="&#x2084;" horiz-adv-x="831" 
d="M645 -268h-172v149h-422v133l426 467h168v-461h115v-139h-115v-149zM473 268l-248 -248h248v248z" />
    <glyph glyph-name="uni2085" unicode="&#x2085;" horiz-adv-x="815" 
d="M391 -285q-120 0 -212 43.5t-124 128.5l158 74q22 -49 71.5 -75.5t108.5 -26.5q69 0 112.5 34t43.5 87q0 56 -43.5 89t-108.5 33q-49 0 -87.5 -20t-59.5 -49l-148 33l105 415h477v-135h-350l-51 -180h2q28 28 78.5 42.5t101.5 14.5q69 0 129 -23.5t101.5 -79t41.5 -134.5
q0 -124 -100 -197.5t-246 -73.5z" />
    <glyph glyph-name="uni2086" unicode="&#x2086;" horiz-adv-x="847" 
d="M432 -285q-158 0 -253 91t-95 257q0 189 119 312t307 123q66 0 132 -20t108 -62l-93 -111q-62 49 -153 49q-100 0 -166.5 -57.5t-75.5 -157.5h2q28 38 87 60t122 22q121 0 208 -67t87 -174q0 -115 -94.5 -190t-241.5 -75zM440 -145q67 0 113.5 36t46.5 91q0 54 -46 89
t-112 35q-70 0 -114.5 -36t-44.5 -90q0 -53 46 -89t111 -36z" />
    <glyph glyph-name="uni2087" unicode="&#x2087;" horiz-adv-x="696" 
d="M367 -268h-189q0 138 74 316.5t205 295.5h-414v139h621v-141q-143 -106 -220 -280.5t-77 -329.5z" />
    <glyph glyph-name="uni2088" unicode="&#x2088;" horiz-adv-x="831" 
d="M416 -285q-152 0 -244 66t-92 160q0 68 47.5 119.5t110.5 64.5v2q-119 56 -119 156q0 94 85.5 154.5t211.5 60.5q123 0 210 -59.5t87 -157.5q0 -106 -121 -154v-2q67 -14 113.5 -63.5t46.5 -118.5q0 -95 -92.5 -161.5t-243.5 -66.5zM418 186q56 0 93.5 28t37.5 69
q0 39 -37.5 64.5t-93.5 25.5q-57 0 -95 -25.5t-38 -64.5q0 -41 38 -69t95 -28zM418 -139q64 0 106.5 29.5t42.5 78.5q0 48 -40.5 77.5t-108.5 29.5q-70 0 -112 -29.5t-42 -77.5q0 -47 44.5 -77.5t109.5 -30.5z" />
    <glyph glyph-name="uni2089" unicode="&#x2089;" horiz-adv-x="854" 
d="M379 -285q-84 0 -163 26t-128 79l96 108q40 -38 93.5 -56.5t101.5 -18.5q100 0 153.5 65t55.5 160h-2q-25 -42 -84 -65t-127 -23q-121 0 -206 66t-85 173q0 117 94.5 193t245.5 76q72 0 132.5 -20.5t109 -62t75.5 -112t27 -162.5q0 -118 -41.5 -212.5t-131.5 -154
t-216 -59.5zM408 104q69 0 115 38.5t46 95.5t-45 92t-110 35q-71 0 -116.5 -37t-45.5 -95q0 -57 44 -93t112 -36z" />
    <glyph glyph-name="Euro" unicode="&#x20ac;" horiz-adv-x="1978" 
d="M1733 291l141 -152q-125 -94 -281 -134t-307 -40q-341 0 -571 155.5t-305 418.5h-275v123h250q-8 49 -8 116q0 54 6 103h-248v123h271q71 269 298.5 432t567.5 163q373 0 588 -174l-164 -153q-171 123 -426 123q-239 0 -397.5 -102.5t-217.5 -288.5h750v-123h-776
q-6 -50 -6 -101q0 -69 8 -118h774v-123h-743q64 -179 225.5 -274t394.5 -95q271 0 451 121z" />
    <glyph glyph-name="trademark" unicode="&#x2122;" horiz-adv-x="1890" 
d="M489 926h-141v571h-260v119h657v-119h-256v-571zM1020 926h-143v690h143q34 -63 125.5 -238t140.5 -266q209 409 260 504h144v-690h-142v424l-217 -414h-96q-126 246 -215 416v-426z" />
    <glyph glyph-name="oneeighth" unicode="&#x215b;" horiz-adv-x="1814" 
d="M422 772h-176v490q-78 -62 -189 -84v176q86 21 138.5 68.5t52.5 99.5h174v-750zM201 0h-207l1366 1468h199zM1397 -29q-152 0 -244 66t-92 160q0 68 47.5 119.5t110.5 64.5v2q-119 56 -119 156q0 94 85.5 154.5t211.5 60.5q123 0 210 -59.5t87 -157.5q0 -106 -121 -154
v-2q67 -14 113.5 -63.5t46.5 -118.5q0 -95 -92.5 -161.5t-243.5 -66.5zM1399 442q56 0 93.5 28t37.5 69q0 39 -37.5 64.5t-93.5 25.5q-57 0 -95 -25.5t-38 -64.5q0 -41 38 -69t95 -28zM1399 117q64 0 106.5 29.5t42.5 78.5q0 48 -40.5 77.5t-108.5 29.5q-70 0 -112 -29.5
t-42 -77.5q0 -47 44.5 -77.5t109.5 -30.5z" />
    <glyph glyph-name="threeeighths" unicode="&#x215c;" horiz-adv-x="2058" 
d="M395 756q-122 0 -215 48t-119 124l156 71q52 -104 178 -104q63 0 104.5 26t41.5 74q0 50 -44 73.5t-118 23.5h-86v118h90q63 0 103 25.5t40 67.5q0 41 -38.5 66.5t-96.5 25.5q-59 0 -99.5 -29.5t-47.5 -79.5l-162 33q12 94 103 156.5t221 62.5q125 0 212 -55.5t87 -145.5
q0 -58 -38 -105.5t-102 -60.5v-2q70 -11 118 -59t48 -115q0 -94 -90 -166.5t-246 -72.5zM444 0h-206l1366 1468h198zM1642 -29q-152 0 -243.5 66t-91.5 160q0 69 47.5 120t109.5 64v2q-118 56 -118 156q0 94 85 154.5t211 60.5q123 0 210 -59.5t87 -157.5q0 -106 -120 -154
v-2q67 -14 113 -63.5t46 -118.5q0 -95 -92.5 -161.5t-243.5 -66.5zM1645 442q56 0 93.5 28t37.5 69q0 39 -37.5 64.5t-93.5 25.5q-58 0 -96 -25.5t-38 -64.5q0 -41 38.5 -69t95.5 -28zM1645 117q64 0 106.5 29.5t42.5 78.5q0 48 -40.5 77.5t-108.5 29.5q-70 0 -112 -29.5
t-42 -77.5q0 -47 44.5 -77.5t109.5 -30.5z" />
    <glyph glyph-name="fiveeighths" unicode="&#x215d;" horiz-adv-x="2056" 
d="M391 756q-120 0 -212 43.5t-124 128.5l158 73q22 -49 71.5 -75.5t108.5 -26.5q69 0 112.5 34t43.5 87q0 56 -43.5 89.5t-108.5 33.5q-49 0 -87.5 -20.5t-59.5 -49.5l-148 33l105 416h477v-136h-350l-51 -180h2q28 28 78.5 43t101.5 15q69 0 129 -24t101.5 -79.5
t41.5 -134.5q0 -124 -100 -197t-246 -73zM444 0h-206l1366 1468h198zM1640 -29q-152 0 -243.5 66t-91.5 160q0 69 47.5 120t109.5 64v2q-119 56 -119 156q0 94 85.5 154.5t211.5 60.5q123 0 210 -59.5t87 -157.5q0 -106 -120 -154v-2q67 -14 113 -63.5t46 -118.5
q0 -95 -92.5 -161.5t-243.5 -66.5zM1642 442q56 0 94 28t38 69q0 39 -38 64.5t-94 25.5q-57 0 -95 -25.5t-38 -64.5q0 -41 38 -69t95 -28zM1642 117q64 0 107 29.5t43 78.5q0 48 -41 77.5t-109 29.5q-70 0 -111.5 -29.5t-41.5 -77.5q0 -47 44 -77.5t109 -30.5z" />
    <glyph glyph-name="seveneighths" unicode="&#x215e;" horiz-adv-x="1939" 
d="M367 772h-189q0 138 74 316.5t205 295.5h-414v140h621v-142q-143 -106 -220 -280.5t-77 -329.5zM326 0h-207l1366 1468h198zM1522 -29q-152 0 -244 66t-92 160q0 69 47.5 120t109.5 64v2q-118 56 -118 156q0 94 85.5 154.5t211.5 60.5q123 0 210 -59.5t87 -157.5
q0 -106 -121 -154v-2q67 -14 113.5 -63.5t46.5 -118.5q0 -95 -92.5 -161.5t-243.5 -66.5zM1524 442q56 0 93.5 28t37.5 69q0 39 -37.5 64.5t-93.5 25.5q-57 0 -95 -25.5t-38 -64.5q0 -41 38 -69t95 -28zM1524 117q64 0 106.5 29.5t42.5 78.5q0 48 -40.5 77.5t-108.5 29.5
q-70 0 -112 -29.5t-42 -77.5q0 -47 44.5 -77.5t109.5 -30.5z" />
    <glyph glyph-name="arrowleft" unicode="&#x2190;" horiz-adv-x="1689" 
d="M434 733h1112v-176h-1112l330 -321h-227l-408 405v8l408 406h227z" />
    <glyph glyph-name="arrowup" unicode="&#x2191;" horiz-adv-x="1189" 
d="M598 1202l487 -340v-207l-393 281v-916h-192v916l-398 -281v207l488 340h8z" />
    <glyph glyph-name="arrowright" unicode="&#x2192;" horiz-adv-x="1689" 
d="M924 1055h229l408 -406v-8l-408 -405h-229l329 321h-1110v176h1110z" />
    <glyph glyph-name="arrowdown" unicode="&#x2193;" horiz-adv-x="1191" 
d="M692 1202v-915l395 280v-207l-487 -340h-8l-488 340v207l396 -280v915h192z" />
    <glyph glyph-name="arrowboth" unicode="&#x2194;" horiz-adv-x="2117" 
d="M760 233h-228l-407 406v8l407 406h228l-344 -328h1286l-344 328h229l408 -406v-8l-408 -406h-229l344 326h-1284z" />
    <glyph glyph-name="arrowupdn" unicode="&#x2195;" horiz-adv-x="1296" 
d="M651 6h-8l-487 322v190l397 -252v864l-397 -262v197l487 321h8l488 -321v-197l-394 262v-864l394 252v-190z" />
    <glyph glyph-name="uni2196" unicode="&#x2196;" horiz-adv-x="1249" 
d="M1055 1036l104 -180l-483 45l457 -792l-166 -97l-459 793l-201 -440l-104 180l252 538l8 4z" />
    <glyph glyph-name="uni2197" unicode="&#x2197;" horiz-adv-x="1249" 
d="M795 1083l252 -538l-105 -180l-201 440l-456 -793l-168 97l456 792l-481 -45l103 180l591 51z" />
    <glyph glyph-name="uni2198" unicode="&#x2198;" horiz-adv-x="1247" 
d="M739 418l201 438l104 -178l-251 -539l-9 -4l-591 51l-103 179l481 -46l-456 793l168 96z" />
    <glyph glyph-name="uni2199" unicode="&#x2199;" horiz-adv-x="1247" 
d="M1133 1112l-457 -793l483 46l-104 -179l-592 -51l-8 4l-252 539l104 178l201 -438l459 790z" />
    <glyph glyph-name="emptyset" unicode="&#x2205;" horiz-adv-x="1712" 
d="M1497 1190l-147 -174q103 -83 159 -198.5t56 -250.5q0 -171 -89.5 -308t-252 -215.5t-367.5 -78.5q-188 0 -346 68l-154 -180l-137 88l150 176q-106 83 -164 198.5t-58 251.5q0 172 89.5 309.5t252 216t369.5 78.5q195 0 348 -69l150 176zM375 567q0 -172 133 -286
l557 655q-90 37 -207 37q-212 0 -347.5 -116t-135.5 -290zM858 164q211 0 346 115t135 288t-131 285l-557 -653q93 -35 207 -35z" />
    <glyph glyph-name="minus" unicode="&#x2212;" horiz-adv-x="1239" 
d="M1075 543h-913v168h913v-168z" />
    <glyph glyph-name="infinity" unicode="&#x221e;" horiz-adv-x="2185" 
d="M582 285q-186 0 -309 96.5t-123 243.5q0 96 60 174.5t159 122t213 43.5q122 0 228 -52t282 -190q180 138 285 190t222 52q188 0 311.5 -96.5t123.5 -243.5t-123.5 -243.5t-311.5 -96.5q-123 0 -229 52.5t-276 188.5q-168 -138 -275.5 -189.5t-236.5 -51.5zM584 432
q37 0 73 8t61 16.5t64 32t58 36.5t68 49t71 51q-16 12 -56 41.5t-53 39t-45 31t-47.5 29t-43 21t-48 18t-47.5 8.5t-55 4q-108 0 -177 -52.5t-69 -139.5q0 -89 70.5 -141t175.5 -52zM1602 434q107 0 175 50.5t68 140.5q0 87 -67.5 138.5t-175.5 51.5q-28 0 -55 -4.5
t-47 -8.5t-48.5 -18t-43 -21t-48 -29t-45.5 -30.5t-52.5 -38.5t-54.5 -40q18 -13 67.5 -48.5t67.5 -47.5t58.5 -36.5t66 -33t62 -17t72.5 -8.5z" />
    <glyph glyph-name="approxequal" unicode="&#x2248;" horiz-adv-x="1304" 
d="M358 696h-184q0 136 86.5 215.5t208.5 79.5q61 0 115 -20t87 -43.5t76 -43.5t84 -20q59 0 87 35.5t28 89.5h184q0 -144 -76 -221.5t-200 -77.5q-64 0 -120.5 20.5t-90.5 45t-77.5 45t-84.5 20.5q-60 0 -91.5 -36.5t-31.5 -88.5zM358 256h-184q0 138 86.5 217.5
t208.5 79.5q61 0 115 -20t87 -43.5t76 -43.5t84 -20q59 0 87 35.5t28 89.5h184q0 -144 -76 -221.5t-200 -77.5q-64 0 -120.5 20.5t-90.5 45t-77.5 45t-84.5 20.5q-61 0 -92 -36.5t-31 -90.5z" />
    <glyph glyph-name="notequal" unicode="&#x2260;" horiz-adv-x="1282" 
d="M1102 915v-167h-314l-116 -265h430v-168h-498l-76 -176h-172l78 176h-258v168h322l118 265h-440v167h508l68 162h172l-70 -162h248z" />
    <glyph glyph-name="lessequal" unicode="&#x2264;" horiz-adv-x="1253" 
d="M1071 303h-893v143h555l-551 175v170l889 176v-158l-665 -127l665 -229v-150z" />
    <glyph glyph-name="greaterequal" unicode="&#x2265;" horiz-adv-x="1253" 
d="M1073 303h-891v150l666 229l-666 127v158l889 -176v-170l-549 -175h551v-143z" />
    <glyph glyph-name="lozenge" unicode="&#x25ca;" horiz-adv-x="1382" 
d="M745 0h-108l-504 694l504 692h108l502 -692zM340 694l346 -467h8l346 467l-346 465h-8z" />
    <glyph glyph-name="A.ss01" horiz-adv-x="1853" 
d="M283 0h-252l721 1597h350l721 -1597h-248q-156 343 -219 492h-850q-57 -133 -223 -492zM580 690h704q-172 366 -303 656h-96q-50 -108 -152.5 -328t-152.5 -328z" />
    <glyph glyph-name="Aacute.ss01" horiz-adv-x="1853" 
d="M1411 2060l-403 -340h-201l301 340h303zM283 0h-252l721 1597h350l721 -1597h-248q-156 343 -219 492h-850q-57 -133 -223 -492zM580 690h704q-172 366 -303 656h-96q-50 -108 -152.5 -328t-152.5 -328z" />
    <glyph glyph-name="Abreve.ss01" horiz-adv-x="1853" 
d="M922 1720q-202 0 -329.5 102t-133.5 242h194q5 -74 81.5 -131t187.5 -57q112 0 187.5 57t80.5 131h194q-5 -140 -132 -242t-330 -102zM283 0h-252l721 1597h350l721 -1597h-248q-156 343 -219 492h-850q-57 -133 -223 -492zM580 690h704q-172 366 -303 656h-96
q-50 -108 -152.5 -328t-152.5 -328z" />
    <glyph glyph-name="Acircumflex.ss01" horiz-adv-x="1853" 
d="M1047 2050l329 -330h-205q-194 149 -247 193q-63 -53 -250 -193h-205l330 330h248zM283 0h-252l721 1597h350l721 -1597h-248q-156 343 -219 492h-850q-57 -133 -223 -492zM580 690h704q-172 366 -303 656h-96q-50 -108 -152.5 -328t-152.5 -328z" />
    <glyph glyph-name="Adieresis.ss01" horiz-adv-x="1853" 
d="M670 1759q-63 0 -108.5 41t-45.5 101q0 55 45.5 95t108.5 40q64 0 108.5 -39.5t44.5 -95.5q0 -60 -44 -101t-109 -41zM1174 1759q-66 0 -111 41t-45 101q0 56 45 95.5t111 39.5q62 0 106.5 -40t44.5 -95q0 -60 -44.5 -101t-106.5 -41zM283 0h-252l721 1597h350l721 -1597
h-248q-156 343 -219 492h-850q-57 -133 -223 -492zM580 690h704q-172 366 -303 656h-96q-50 -108 -152.5 -328t-152.5 -328z" />
    <glyph glyph-name="Agrave.ss01" horiz-adv-x="1853" 
d="M1057 1720h-203l-401 340h301zM283 0h-252l721 1597h350l721 -1597h-248q-156 343 -219 492h-850q-57 -133 -223 -492zM580 690h704q-172 366 -303 656h-96q-50 -108 -152.5 -328t-152.5 -328z" />
    <glyph glyph-name="Amacron.ss01" horiz-adv-x="1853" 
d="M1339 1798h-835v162h835v-162zM283 0h-252l721 1597h350l721 -1597h-248q-156 343 -219 492h-850q-57 -133 -223 -492zM580 690h704q-172 366 -303 656h-96q-50 -108 -152.5 -328t-152.5 -328z" />
    <glyph glyph-name="Aogonek.ss01" horiz-adv-x="1853" 
d="M1753 -326q49 0 105 13v-133q-67 -17 -134 -17q-144 0 -242 61.5t-98 172.5q0 69 52.5 128t146.5 101h-8q-156 343 -219 492h-850q-57 -133 -223 -492h-252l721 1597h350l721 -1597h-68q-103 -29 -155 -80.5t-52 -103.5q0 -59 56.5 -100.5t148.5 -41.5zM580 690h704
q-172 366 -303 656h-96q-50 -108 -152.5 -328t-152.5 -328z" />
    <glyph glyph-name="Aring.ss01" horiz-adv-x="1853" 
d="M922 1712q-122 0 -204.5 67t-82.5 167q0 99 82.5 166t204.5 67q119 0 200.5 -66.5t81.5 -166.5q0 -101 -81.5 -167.5t-200.5 -66.5zM922 1837q58 0 97.5 30t39.5 79q0 47 -39.5 76.5t-97.5 29.5q-62 0 -102 -29.5t-40 -76.5q0 -49 40 -79t102 -30zM283 0h-252l721 1597
h350l721 -1597h-248q-156 343 -219 492h-850q-57 -133 -223 -492zM580 690h704q-172 366 -303 656h-96q-50 -108 -152.5 -328t-152.5 -328z" />
    <glyph glyph-name="Atilde.ss01" horiz-adv-x="1853" 
d="M1108 1739q-45 0 -82.5 10t-56 20t-49.5 31l-56 35q-58 43 -112 43q-51 0 -83 -35.5t-32 -87.5h-162q1 126 78 204.5t195 78.5q84 0 180 -60l55 -34q55 -41 115 -41q50 0 76 32.5t26 87.5h166q0 -134 -67.5 -209t-190.5 -75zM283 0h-252l721 1597h350l721 -1597h-248
q-156 343 -219 492h-850q-57 -133 -223 -492zM580 690h704q-172 366 -303 656h-96q-50 -108 -152.5 -328t-152.5 -328z" />
    <glyph glyph-name="B.ss01" horiz-adv-x="1751" 
d="M1020 0h-778v1597h721q142 0 258 -33t190.5 -89.5t115 -131.5t40.5 -161q0 -123 -85.5 -225t-248.5 -140v-4q192 -29 294.5 -130.5t102.5 -250.5q0 -138 -87.5 -238t-223.5 -147t-299 -47zM475 901h434q186 0 299 63.5t113 180.5q0 120 -121 185t-303 65h-422v-494z
M475 203h483q188 0 306 64.5t118 183.5q0 82 -59.5 141.5t-155.5 88t-217 28.5h-475v-506z" />
    <glyph glyph-name="C.ss01" horiz-adv-x="2058" 
d="M1098 -35q-283 0 -505.5 104.5t-347 294.5t-124.5 435q0 152 50 285t139 232t209.5 170.5t264 107.5t299.5 36q188 0 358 -55t302 -166t194 -262l-213 -82q-84 165 -255 261.5t-388 96.5q-146 0 -275.5 -44t-227 -124t-154.5 -200t-57 -264q0 -125 42.5 -229.5
t114.5 -175.5t168 -120t201.5 -71.5t216.5 -22.5q262 0 439 119t247 319l215 -71q-101 -273 -336 -423.5t-577 -150.5z" />
    <glyph glyph-name="D.ss01" horiz-adv-x="1968" 
d="M958 0h-716v1597h694q187 0 339.5 -40.5t257 -112t176 -171.5t104 -216t32.5 -248q0 -178 -61 -327t-173 -256t-280 -166.5t-373 -59.5zM475 203h477q143 0 260.5 36.5t204 108t134.5 185.5t48 262q0 130 -36 232t-99.5 170.5t-155 113.5t-197 64.5t-230.5 19.5h-406
v-1192z" />
    <glyph glyph-name="E.ss01" horiz-adv-x="1609" 
d="M1485 0h-1243v1597h1218v-202h-985v-473h936v-211h-936v-504h1010v-207z" />
    <glyph glyph-name="F.ss01" horiz-adv-x="1523" 
d="M1438 1597v-206h-963v-494h914v-211h-914v-686h-233v1597h1196z" />
    <glyph glyph-name="G.ss01" horiz-adv-x="2103" 
d="M1092 -35q-216 0 -397.5 61.5t-307.5 170t-196 262t-70 332.5q0 191 77 351t208 266t305.5 164t369.5 58q191 0 362 -56t302 -166.5t192 -260.5l-213 -82q-85 167 -254.5 262.5t-386.5 95.5q-145 0 -275 -44t-228 -123t-155.5 -199t-57.5 -264q0 -142 55.5 -259t155 -196
t239 -122.5t305.5 -43.5q280 0 446.5 117.5t196.5 328.5h-624v185h850v-70q0 -189 -71 -337.5t-194.5 -241.5t-285 -141t-348.5 -48z" />
    <glyph glyph-name="H.ss01" horiz-adv-x="1988" 
d="M1513 903v694h234v-1597h-234v692h-1038v-692h-233v1597h233v-694h1038z" />
    <glyph glyph-name="I.ss01" horiz-adv-x="1363" 
d="M1264 0h-1164v203h465v1192h-477v202h1188v-202h-477v-1192h465v-203z" />
    <glyph glyph-name="Iacute.ss01" horiz-adv-x="1363" 
d="M1120 2062l-403 -342h-201l301 342h303zM1264 0h-1164v203h465v1192h-477v202h1188v-202h-477v-1192h465v-203z" />
    <glyph glyph-name="Icircumflex.ss01" horiz-adv-x="1363" 
d="M807 2050l330 -330h-205q-208 159 -248 193q-63 -53 -250 -193h-205l330 330h248zM1264 0h-1164v203h465v1192h-477v202h1188v-202h-477v-1192h465v-203z" />
    <glyph glyph-name="Idieresis.ss01" horiz-adv-x="1363" 
d="M430 1759q-63 0 -108.5 41t-45.5 101q0 55 45.5 95t108.5 40q64 0 109 -39.5t45 -95.5q0 -60 -44.5 -101t-109.5 -41zM934 1759q-66 0 -111 41t-45 101q0 56 45 95.5t111 39.5q62 0 106.5 -40t44.5 -95q0 -60 -44.5 -101t-106.5 -41zM1264 0h-1164v203h465v1192h-477v202
h1188v-202h-477v-1192h465v-203z" />
    <glyph glyph-name="Idotaccent.ss01" horiz-adv-x="1363" 
d="M682 1772q-68 0 -114 42t-46 103q0 59 46.5 100t113.5 41t113.5 -41t46.5 -100q0 -61 -46 -103t-114 -42zM1264 0h-1164v203h465v1192h-477v202h1188v-202h-477v-1192h465v-203z" />
    <glyph glyph-name="Igrave.ss01" horiz-adv-x="1363" 
d="M817 1720h-203l-401 340h301zM1264 0h-1164v203h465v1192h-477v202h1188v-202h-477v-1192h465v-203z" />
    <glyph glyph-name="Imacron.ss01" horiz-adv-x="1363" 
d="M1100 1798h-836v162h836v-162zM1264 0h-1164v203h465v1192h-477v202h1188v-202h-477v-1192h465v-203z" />
    <glyph glyph-name="J.ss01" horiz-adv-x="1476" 
d="M686 -35q-96 0 -183.5 18.5t-167 60.5t-137.5 104t-92 155t-34 207v37l225 28v-34q0 -97 33 -171t88.5 -116.5t120 -63t135.5 -20.5q171 0 259.5 102t88.5 260v863h-662v202h895v-1022q0 -610 -569 -610z" />
    <glyph glyph-name="K.ss01" horiz-adv-x="1679" 
d="M475 0h-233v1597h233v-671h8l873 671h307q-62 -50 -1012 -809q175 -131 521.5 -394t521.5 -394h-324q-274 197 -895 637v-637z" />
    <glyph glyph-name="L.ss01" horiz-adv-x="1447" 
d="M475 1597v-1390h938v-207h-1171v1597h233z" />
    <glyph glyph-name="M.ss01" horiz-adv-x="2344" 
d="M1827 1597h276v-1597h-235v1206l-604 -893h-183l-602 891v-1204h-237v1597h278q375 -556 649 -985h7q32 49 118 182.5t128.5 198t115.5 176t142.5 214t146.5 214.5z" />
    <glyph glyph-name="N.ss01" horiz-adv-x="2019" 
d="M475 0h-233v1597h295l950 -1187h59v1187h232v-1597h-295l-946 1180h-62v-1180z" />
    <glyph glyph-name="O.ss01" horiz-adv-x="2166" 
d="M1083 -35q-157 0 -302.5 39.5t-265 113.5t-209 175t-138.5 231t-49 273q0 178 76 334t206 265t307.5 171.5t374.5 62.5q200 0 378.5 -64t307.5 -174t204 -265t75 -330q0 -176 -75.5 -331t-205 -264.5t-307.5 -173t-377 -63.5zM1085 172q193 0 356 80.5t260 224.5t97 320
q0 175 -96.5 319.5t-259.5 225.5t-357 81q-144 0 -276 -47t-229.5 -128.5t-155 -199t-57.5 -251.5t58 -251.5t155.5 -198.5t229 -128t275.5 -47z" />
    <glyph glyph-name="P.ss01" horiz-adv-x="1648" 
d="M242 1597h692q92 0 178 -14t172 -49.5t149 -89t102.5 -140.5t39.5 -196q0 -113 -40.5 -203.5t-103.5 -146t-146 -92.5t-162.5 -51.5t-159.5 -14.5h-488v-600h-233v1597zM475 811h428q92 0 167 16t134 50t92 91.5t33 135.5q0 76 -35 133.5t-97 91t-138 50t-166 16.5h-418
v-584z" />
    <glyph glyph-name="Q.ss01" horiz-adv-x="1806" 
d="M621 -203v-2h952v-190h-1391l377 434q-211 95 -336 294.5t-125 463.5q0 183 62 339.5t169.5 264.5t256 168.5t317.5 60.5q171 0 320 -62t255.5 -171t168 -264.5t61.5 -335.5t-61.5 -335.5t-168.5 -263.5t-256 -169.5t-319 -61.5q-70 0 -125 8q-114 -132 -157 -178z
M328 797q0 -138 44.5 -255.5t122 -198t183.5 -126t227 -45.5q161 0 291 78t205.5 221.5t75.5 325.5q0 275 -162.5 451.5t-409.5 176.5q-121 0 -227.5 -46t-183.5 -127t-121.5 -199t-44.5 -256z" />
    <glyph glyph-name="R.ss01" horiz-adv-x="1708" 
d="M793 608l847 -608h-294l-850 608h-21v-608h-233v1597h692q91 0 177 -14t172 -49.5t149.5 -89t103 -139.5t39.5 -195q0 -113 -41 -202.5t-104.5 -144.5t-147 -91t-162.5 -50t-157 -14h-170zM893 1413h-418v-610h428q204 0 315 82.5t111 224.5q0 140 -118 221.5t-318 81.5z
" />
    <glyph glyph-name="S.ss01" horiz-adv-x="1593" 
d="M821 -35q-121 0 -232.5 28t-211 83.5t-175 147.5t-114.5 212l217 72q39 -117 119.5 -195t179 -111.5t215.5 -33.5q78 0 150.5 15.5t133.5 45.5t97.5 80.5t36.5 114.5q0 41 -14 74.5t-42 57.5t-59 43t-75.5 34t-81 25t-84.5 22q-17 4 -25 6l-178 45q-36 10 -65.5 18
t-72.5 23t-77.5 30t-76 37.5t-72.5 46.5t-62 56.5t-51 67.5t-32.5 80t-12.5 94q0 138 91.5 241.5t233.5 154t310 50.5q235 0 409.5 -104.5t233.5 -272.5l-213 -82q-51 120 -167 189.5t-278 69.5q-161 0 -269 -64.5t-108 -165.5q0 -36 16 -68.5t37.5 -56t60.5 -46.5t66.5 -36
t75.5 -29t67.5 -21.5t61.5 -16.5l191 -52q6 -2 20 -5q189 -49 279 -95q215 -110 215 -321q0 -141 -89 -253t-241.5 -173.5t-337.5 -61.5z" />
    <glyph glyph-name="U.ss01" horiz-adv-x="1865" 
d="M897 -35q-144 0 -261 39t-193 102.5t-128 148t-74 171.5t-22 176v995h236v-979q0 -93 28 -172.5t83 -142t144 -98t203 -35.5q115 0 207 36t150 98t88.5 142.5t30.5 171.5v979h235v-1597h-225v174h-2q-79 -109 -199.5 -159t-300.5 -50z" />
    <glyph glyph-name="Uacute.ss01" horiz-adv-x="1865" 
d="M1243 2062l-403 -342h-201l301 342h303zM897 -35q-144 0 -261 39t-193 102.5t-128 148t-74 171.5t-22 176v995h236v-979q0 -93 28 -172.5t83 -142t144 -98t203 -35.5q115 0 207 36t150 98t88.5 142.5t30.5 171.5v979h235v-1597h-225v174h-2q-79 -109 -199.5 -159
t-300.5 -50z" />
    <glyph glyph-name="Ucircumflex.ss01" horiz-adv-x="1865" 
d="M1036 2050l330 -330h-205q-208 159 -248 193q-72 -60 -249 -193h-205l329 330h248zM897 -35q-144 0 -261 39t-193 102.5t-128 148t-74 171.5t-22 176v995h236v-979q0 -93 28 -172.5t83 -142t144 -98t203 -35.5q115 0 207 36t150 98t88.5 142.5t30.5 171.5v979h235v-1597
h-225v174h-2q-79 -109 -199.5 -159t-300.5 -50z" />
    <glyph glyph-name="Udieresis.ss01" horiz-adv-x="1865" 
d="M662 1759q-63 0 -108.5 41t-45.5 101q0 55 45.5 95t108.5 40q64 0 108.5 -39.5t44.5 -95.5q0 -60 -44 -101t-109 -41zM1165 1759q-66 0 -110.5 41t-44.5 101q0 56 45 95.5t110 39.5q62 0 107 -40t45 -95q0 -59 -45 -100.5t-107 -41.5zM897 -35q-144 0 -261 39t-193 102.5
t-128 148t-74 171.5t-22 176v995h236v-979q0 -93 28 -172.5t83 -142t144 -98t203 -35.5q115 0 207 36t150 98t88.5 142.5t30.5 171.5v979h235v-1597h-225v174h-2q-79 -109 -199.5 -159t-300.5 -50z" />
    <glyph glyph-name="Ugrave.ss01" horiz-adv-x="1865" 
d="M1049 1720h-203l-402 340h301zM897 -35q-144 0 -261 39t-193 102.5t-128 148t-74 171.5t-22 176v995h236v-979q0 -93 28 -172.5t83 -142t144 -98t203 -35.5q115 0 207 36t150 98t88.5 142.5t30.5 171.5v979h235v-1597h-225v174h-2q-79 -109 -199.5 -159t-300.5 -50z" />
    <glyph glyph-name="Uhungarumlaut.ss01" horiz-adv-x="1865" 
d="M1100 2060l-346 -340h-195l256 340h285zM1542 2060l-360 -340h-197l272 340h285zM897 -35q-144 0 -261 39t-193 102.5t-128 148t-74 171.5t-22 176v995h236v-979q0 -93 28 -172.5t83 -142t144 -98t203 -35.5q115 0 207 36t150 98t88.5 142.5t30.5 171.5v979h235v-1597
h-225v174h-2q-79 -109 -199.5 -159t-300.5 -50z" />
    <glyph glyph-name="Umacron.ss01" horiz-adv-x="1865" 
d="M1329 1798h-835v162h835v-162zM897 -35q-144 0 -261 39t-193 102.5t-128 148t-74 171.5t-22 176v995h236v-979q0 -93 28 -172.5t83 -142t144 -98t203 -35.5q115 0 207 36t150 98t88.5 142.5t30.5 171.5v979h235v-1597h-225v174h-2q-79 -109 -199.5 -159t-300.5 -50z" />
    <glyph glyph-name="Uogonek.ss01" horiz-adv-x="1865" 
d="M1593 -326q49 0 105 13v-133q-67 -17 -133 -17q-144 0 -242 61.5t-98 172.5q0 69 52 128t146 101h-24v174h-2q-79 -109 -199.5 -159t-300.5 -50q-144 0 -261 39t-193 102.5t-128 148t-74 171.5t-22 176v995h236v-979q0 -93 28 -172.5t83 -142t144 -98t203 -35.5
q115 0 207 36t150 98t88.5 142.5t30.5 171.5v979h235v-1597h-29q-103 -29 -154.5 -80t-51.5 -104q0 -59 56 -100.5t148 -41.5z" />
    <glyph glyph-name="Uring.ss01" horiz-adv-x="1865" 
d="M911 1712q-122 0 -204 67t-82 167t82 166.5t204 66.5q120 0 201.5 -66.5t81.5 -166.5t-82 -167t-201 -67zM911 1837q58 0 98 30.5t40 78.5q0 46 -40 76t-98 30q-62 0 -101.5 -29.5t-39.5 -76.5q0 -49 39.5 -79t101.5 -30zM897 -35q-144 0 -261 39t-193 102.5t-128 148
t-74 171.5t-22 176v995h236v-979q0 -93 28 -172.5t83 -142t144 -98t203 -35.5q115 0 207 36t150 98t88.5 142.5t30.5 171.5v979h235v-1597h-225v174h-2q-79 -109 -199.5 -159t-300.5 -50z" />
    <glyph glyph-name="V.ss01" horiz-adv-x="1847" 
d="M1094 0h-346l-721 1597h247q96 -210 236.5 -514t370.5 -804h90q114 247 321 701.5t281 616.5h248z" />
    <glyph glyph-name="W.ss01" horiz-adv-x="2809" 
d="M926 0h-293l-596 1597h260l483 -1294h4l433 1294h393l420 -1294h6l479 1294h258l-596 -1597h-289l-424 1327h-102z" />
    <glyph glyph-name="Wacute.ss01" horiz-adv-x="2809" 
d="M1894 2060l-403 -340h-201l301 340h303zM926 0h-293l-596 1597h260l483 -1294h4l433 1294h393l420 -1294h6l479 1294h258l-596 -1597h-289l-424 1327h-102z" />
    <glyph glyph-name="Wcircumflex.ss01" horiz-adv-x="2809" 
d="M1530 2050l330 -330h-205q-208 159 -248 193q-63 -53 -250 -193h-205l330 330h248zM926 0h-293l-596 1597h260l483 -1294h4l433 1294h393l420 -1294h6l479 1294h258l-596 -1597h-289l-424 1327h-102z" />
    <glyph glyph-name="Wdieresis.ss01" horiz-adv-x="2809" 
d="M1155 1759q-63 0 -108.5 41t-45.5 101q0 55 45.5 95t108.5 40q64 0 109 -39.5t45 -95.5q0 -60 -44.5 -101t-109.5 -41zM1659 1759q-66 0 -111 41t-45 101q0 56 45 95.5t111 39.5q62 0 106.5 -40t44.5 -95q0 -60 -44.5 -101t-106.5 -41zM926 0h-293l-596 1597h260
l483 -1294h4l433 1294h393l420 -1294h6l479 1294h258l-596 -1597h-289l-424 1327h-102z" />
    <glyph glyph-name="Wgrave.ss01" horiz-adv-x="2809" 
d="M1542 1720h-203l-401 340h301zM926 0h-293l-596 1597h260l483 -1294h4l433 1294h393l420 -1294h6l479 1294h258l-596 -1597h-289l-424 1327h-102z" />
    <glyph glyph-name="X.ss01" horiz-adv-x="1720" 
d="M287 0h-262l634 811v14l-624 772h262q75 -92 159 -197t199.5 -251.5t163.5 -206.5h86q52 64 201.5 253t323.5 402h253l-620 -772v-14l633 -811h-256q-101 126 -298.5 379.5t-236.5 302.5h-86q-453 -583 -532 -682z" />
    <glyph glyph-name="Y.ss01" horiz-adv-x="1705" 
d="M602 0h-246l410 582l-709 1015h254l572 -796h4l575 796h252z" />
    <glyph glyph-name="Yacute.ss01" horiz-adv-x="1705" 
d="M1315 2062l-402 -342h-202l303 342h301zM602 0h-246l410 582l-709 1015h254l572 -796h4l575 796h252z" />
    <glyph glyph-name="Ycircumflex.ss01" horiz-adv-x="1705" 
d="M1010 2050l329 -330h-204q-208 159 -248 193q-63 -53 -250 -193h-205l330 330h248zM602 0h-246l410 582l-709 1015h254l572 -796h4l575 796h252z" />
    <glyph glyph-name="Ydieresis.ss01" horiz-adv-x="1705" 
d="M633 1759q-63 0 -108.5 41t-45.5 101q0 55 45.5 95t108.5 40q64 0 108.5 -39.5t44.5 -95.5q0 -60 -44 -101t-109 -41zM1137 1759q-66 0 -111 41t-45 101q0 56 45 95.5t111 39.5q62 0 106.5 -40t44.5 -95q0 -60 -44.5 -101t-106.5 -41zM602 0h-246l410 582l-709 1015h254
l572 -796h4l575 796h252z" />
    <glyph glyph-name="Ygrave.ss01" horiz-adv-x="1705" 
d="M1020 1720h-203l-401 340h301zM602 0h-246l410 582l-709 1015h254l572 -796h4l575 796h252z" />
    <glyph glyph-name="Z.ss01" horiz-adv-x="1685" 
d="M1585 0h-1589l1245 1395h-1089v202h1509l-1235 -1390h1159v-207z" />
    <glyph glyph-name="Zacute.ss01" horiz-adv-x="1685" 
d="M1325 2060l-403 -340h-201l301 340h303zM1585 0h-1589l1245 1395h-1089v202h1509l-1235 -1390h1159v-207z" />
    <glyph glyph-name="Zcaron.ss01" horiz-adv-x="1685" 
d="M1081 2050h207l-327 -330h-252l-328 330h205q139 -107 250 -197q176 144 245 197zM1585 0h-1589l1245 1395h-1089v202h1509l-1235 -1390h1159v-207z" />
    <glyph glyph-name="Zdotaccent.ss01" horiz-adv-x="1685" 
d="M846 1772q-68 0 -114 42t-46 103q0 59 46.5 100t113.5 41t113.5 -41t46.5 -100q0 -61 -46 -103t-114 -42zM1585 0h-1589l1245 1395h-1089v202h1509l-1235 -1390h1159v-207z" />
    <glyph glyph-name="Q.ss02" horiz-adv-x="2166" 
d="M1206 -29v-176h637v-190h-858v364q-180 15 -339 82.5t-275.5 174.5t-184 255t-67.5 316q0 178 76 334t206 265t307.5 171.5t374.5 62.5q200 0 378.5 -64t307.5 -174t204 -265t75 -330q0 -216 -111 -397t-302.5 -293t-428.5 -136zM367 797q0 -162 83.5 -297.5t223.5 -218
t311 -103.5v436h221v-434q125 18 233.5 72t188 133.5t125 186.5t45.5 225q0 175 -96.5 319.5t-259.5 225.5t-357 81q-144 0 -276 -47t-229.5 -128.5t-155 -199t-57.5 -251.5z" />
    <glyph glyph-name="A.ss07" 
d="M1225 -315q-237 0 -446.5 71t-359 193.5t-236.5 294t-87 364.5q0 198 87 372.5t236.5 298.5t359 195.5t446.5 71.5q239 0 449 -71.5t360 -195.5t236.5 -298.5t86.5 -372.5q0 -156 -55 -298t-157.5 -255t-241 -196.5t-313 -128.5t-365.5 -45zM1143 1096l-457 -963h166
q30 57 145 293h459q92 -171 148 -293h170l-459 963h-172zM1403 559h-352q129 260 178 352q71 -162 174 -352z" />
    <glyph glyph-name="B.ss07" horiz-adv-x="2459" 
d="M1225 -315q-237 0 -446.5 71t-359 193.5t-236.5 294t-87 364.5q0 198 87 372.5t236.5 298.5t359 195.5t446.5 71.5q239 0 449 -71.5t360 -195.5t236.5 -298.5t86.5 -372.5q0 -156 -55 -298t-157.5 -255t-241 -196.5t-313 -128.5t-365.5 -45zM850 1096v-963h471
q70 0 134.5 16t119 47t87 83t32.5 118q0 84 -57 145t-154 83q77 27 124.5 85.5t47.5 131.5q0 114 -102 184t-265 70h-438zM1008 684v277h241q107 0 173.5 -38.5t66.5 -101.5q0 -69 -64.5 -103t-169.5 -34h-247zM1286 268h-278v285h272q111 0 178.5 -38.5t67.5 -104.5
t-64.5 -104t-175.5 -38z" />
    <glyph glyph-name="C.ss07" 
d="M1227 -315q-237 0 -446.5 71t-359 193.5t-236.5 294t-87 364.5q0 198 87 372.5t236.5 298.5t359 195.5t446.5 71.5q239 0 449 -71.5t360 -195.5t236.5 -298.5t86.5 -372.5q0 -156 -55 -298t-157.5 -255t-241 -196.5t-313 -128.5t-365.5 -45zM1260 113q204 0 348 92
t204 262l-145 45q-37 -115 -140 -187.5t-259 -72.5q-82 0 -156.5 21t-137 63t-99.5 112.5t-37 161.5q0 162 116.5 264.5t298.5 102.5q131 0 229 -58.5t142 -156.5l145 55q-35 94 -116 162.5t-184.5 102.5t-217.5 34q-159 0 -290 -60.5t-210 -176.5t-79 -265
q0 -222 164.5 -361.5t423.5 -139.5z" />
    <glyph glyph-name="D.ss07" 
d="M1225 -315q-237 0 -446.5 71t-359 193.5t-236.5 294t-87 364.5q0 198 87 372.5t236.5 298.5t359 195.5t446.5 71.5q239 0 449 -71.5t360 -195.5t236.5 -298.5t86.5 -372.5q0 -156 -55 -298t-157.5 -255t-241 -196.5t-313 -128.5t-365.5 -45zM805 1096v-963h436
q244 0 390.5 133t146.5 355q0 223 -147 349t-404 126h-422zM1237 268h-272v693h229q89 0 161.5 -18t131 -57t91 -108.5t32.5 -165.5q0 -162 -99 -253t-274 -91z" />
    <glyph glyph-name="E.ss07" 
d="M1225 -315q-237 0 -446.5 71t-359 193.5t-236.5 294t-87 364.5q0 198 87 372.5t236.5 298.5t359 195.5t446.5 71.5q239 0 449 -71.5t360 -195.5t236.5 -298.5t86.5 -372.5q0 -156 -55 -298t-157.5 -255t-241 -196.5t-313 -128.5t-365.5 -45zM870 1096v-963h758v139h-598
v283h555v141h-555v265h586v135h-746z" />
    <glyph glyph-name="F.ss07" horiz-adv-x="2459" 
d="M1225 -315q-237 0 -446.5 71t-359 193.5t-236.5 294t-87 364.5q0 198 87 372.5t236.5 298.5t359 195.5t446.5 71.5q239 0 449 -71.5t360 -195.5t236.5 -298.5t86.5 -372.5q0 -156 -55 -298t-157.5 -255t-241 -196.5t-313 -128.5t-365.5 -45zM897 1096v-963h160v408h540
v139h-540v276h571v140h-731z" />
    <glyph glyph-name="G.ss07" 
d="M1227 -315q-237 0 -446.5 71t-359 193.5t-236.5 294t-87 364.5q0 198 87 372.5t236.5 298.5t359 195.5t446.5 71.5q239 0 449 -71.5t360 -195.5t236.5 -298.5t86.5 -372.5q0 -156 -55 -298t-157.5 -255t-241 -196.5t-313 -128.5t-365.5 -45zM1243 113q295 0 422 190
l6 -170h127v494h-522v-127h364q-19 -112 -121 -180t-253 -68q-63 0 -123 12.5t-116 40t-97.5 68.5t-66.5 102t-25 135q0 161 116.5 264t298.5 103q128 0 226 -56.5t145 -158.5l145 55q-52 140 -196.5 219.5t-321.5 79.5q-161 0 -292.5 -62t-209 -178t-77.5 -264
q0 -145 72.5 -258.5t203 -177t295.5 -63.5z" />
    <glyph glyph-name="H.ss07" 
d="M1225 -315q-237 0 -446.5 71t-359 193.5t-236.5 294t-87 364.5q0 198 87 372.5t236.5 298.5t359 195.5t446.5 71.5q239 0 449 -71.5t360 -195.5t236.5 -298.5t86.5 -372.5q0 -156 -55 -298t-157.5 -255t-241 -196.5t-313 -128.5t-365.5 -45zM772 1096v-963h160v410h594
v-410h160v963h-160v-410h-594v410h-160z" />
    <glyph glyph-name="I.ss07" 
d="M1225 -315q-237 0 -446.5 71t-359 193.5t-236.5 294t-87 364.5q0 198 87 372.5t236.5 298.5t359 195.5t446.5 71.5q239 0 449 -71.5t360 -195.5t236.5 -298.5t86.5 -372.5q0 -156 -55 -298t-157.5 -255t-241 -196.5t-313 -128.5t-365.5 -45zM1151 1096v-963h160v963h-160
z" />
    <glyph glyph-name="J.ss07" 
d="M1225 -315q-237 0 -446.5 71t-359 193.5t-236.5 294t-87 364.5q0 198 87 372.5t236.5 298.5t359 195.5t446.5 71.5q239 0 449 -71.5t360 -195.5t236.5 -298.5t86.5 -372.5q0 -156 -55 -298t-157.5 -255t-241 -196.5t-313 -128.5t-365.5 -45zM1190 123q56 0 103 10.5
t80.5 26t60 41.5t43 49.5t29 57.5t18 58t8.5 58.5t3.5 51.5t0.5 44v586h-158v-612q0 -35 -2.5 -61.5t-13.5 -61.5t-30.5 -57t-56.5 -38t-89 -16q-59 0 -107.5 19t-82 67.5t-33.5 120.5v35l-154 -19v-37q0 -81 31.5 -144t85.5 -101.5t121 -58t143 -19.5z" />
    <glyph glyph-name="K.ss07" 
d="M1225 -315q-237 0 -446.5 71t-359 193.5t-236.5 294t-87 364.5q0 198 87 372.5t236.5 298.5t359 195.5t446.5 71.5q239 0 449 -71.5t360 -195.5t236.5 -298.5t86.5 -372.5q0 -156 -55 -298t-157.5 -255t-241 -196.5t-313 -128.5t-365.5 -45zM842 1096v-963h157v313
q16 14 62.5 54t73.5 61q44 -47 186.5 -196.5t218.5 -231.5h195q-30 33 -174.5 189t-317.5 352q48 43 213 192.5t256 229.5h-194q-239 -205 -519 -455v455h-157z" />
    <glyph glyph-name="L.ss07" 
d="M1225 -315q-237 0 -446.5 71t-359 193.5t-236.5 294t-87 364.5q0 198 87 372.5t236.5 298.5t359 195.5t446.5 71.5q239 0 449 -71.5t360 -195.5t236.5 -298.5t86.5 -372.5q0 -156 -55 -298t-157.5 -255t-241 -196.5t-313 -128.5t-365.5 -45zM967 1096v-963h714v139h-557
v824h-157z" />
    <glyph glyph-name="M.ss07" horiz-adv-x="2459" 
d="M1225 -315q-237 0 -446.5 71t-359 193.5t-236.5 294t-87 364.5q0 198 87 372.5t236.5 298.5t359 195.5t446.5 71.5q239 0 449 -71.5t360 -195.5t236.5 -298.5t86.5 -372.5q0 -156 -55 -298t-157.5 -255t-241 -196.5t-313 -128.5t-365.5 -45zM627 1096v-963h157v670
q58 -103 190 -331t195 -339h119q58 105 184.5 323t198.5 349v-672h162v963h-188q-74 -137 -416 -746q-124 229 -416 746h-186z" />
    <glyph glyph-name="N.ss07" 
d="M1225 -315q-237 0 -446.5 71t-359 193.5t-236.5 294t-87 364.5q0 198 87 372.5t236.5 298.5t359 195.5t446.5 71.5q239 0 449 -71.5t360 -195.5t236.5 -298.5t86.5 -372.5q0 -156 -55 -298t-157.5 -255t-241 -196.5t-313 -128.5t-365.5 -45zM778 1096v-963h158v701
q112 -133 318 -367.5t290 -333.5h164v963h-158v-709q-108 130 -608 709h-164z" />
    <glyph glyph-name="O.ss07" 
d="M1225 -315q-237 0 -446.5 71t-359 193.5t-236.5 294t-87 364.5q0 198 87 372.5t236.5 298.5t359 195.5t446.5 71.5q239 0 449 -71.5t360 -195.5t236.5 -298.5t86.5 -372.5q0 -156 -55 -298t-157.5 -255t-241 -196.5t-313 -128.5t-365.5 -45zM1229 113q247 0 415 144.5
t168 356.5q0 139 -76.5 254.5t-209.5 181.5t-295 66q-246 0 -414 -144.5t-168 -357.5t167 -357t413 -144zM815 614q0 153 121 258t295 105t294 -105t120 -258t-120 -257.5t-294 -104.5t-295 104t-121 258z" />
    <glyph glyph-name="P.ss07" 
d="M1225 -315q-237 0 -446.5 71t-359 193.5t-236.5 294t-87 364.5q0 198 87 372.5t236.5 298.5t359 195.5t446.5 71.5q239 0 449 -71.5t360 -195.5t236.5 -298.5t86.5 -372.5q0 -156 -55 -298t-157.5 -255t-241 -196.5t-313 -128.5t-365.5 -45zM879 1096v-963h157v356h281
q47 0 95 9t98.5 31.5t89.5 56.5t63.5 89t24.5 124q0 68 -25.5 122t-65 86t-92.5 53t-103 28.5t-102 7.5h-421zM1280 631h-244v330h238q108 0 178 -40.5t70 -123.5q0 -87 -66.5 -126.5t-175.5 -39.5z" />
    <glyph glyph-name="Q.ss07" 
d="M1225 -315q-237 0 -446.5 71t-359 193.5t-236.5 294t-87 364.5q0 198 87 372.5t236.5 298.5t359 195.5t446.5 71.5q239 0 449 -71.5t360 -195.5t236.5 -298.5t86.5 -372.5q0 -156 -55 -298t-157.5 -255t-241 -196.5t-313 -128.5t-365.5 -45zM1661 57l115 90l-154 148
q91 71 140.5 168t49.5 205q0 139 -77 254t-211.5 181t-298.5 66q-165 0 -299.5 -65.5t-211.5 -180.5t-77 -255q0 -141 77 -256.5t211.5 -180.5t299.5 -65q152 0 272 53q17 -17 75.5 -73.5t88.5 -88.5zM801 668q0 155 122 258.5t304 103.5q179 0 299.5 -103.5t120.5 -258.5
q0 -154 -129 -260q-21 19 -80.5 75t-120.5 109l-111 -88l183 -166q-70 -33 -162 -33q-182 0 -304 103t-122 260z" />
    <glyph glyph-name="R.ss07" 
d="M1225 -315q-237 0 -446.5 71t-359 193.5t-236.5 294t-87 364.5q0 198 87 372.5t236.5 298.5t359 195.5t446.5 71.5q239 0 449 -71.5t360 -195.5t236.5 -298.5t86.5 -372.5q0 -156 -55 -298t-157.5 -255t-241 -196.5t-313 -128.5t-365.5 -45zM881 1096v-963h157v359h205
l293 -359h180q-39 48 -153 188t-148 183q130 23 203.5 99.5t73.5 191.5q0 69 -26 123.5t-66 87t-93.5 54t-103 29t-100.5 7.5h-422zM1282 625h-244v336h238q108 0 179 -42.5t71 -125.5q0 -59 -36.5 -98.5t-89 -54.5t-118.5 -15z" />
    <glyph glyph-name="S.ss07" 
d="M1225 -315q-237 0 -446.5 71t-359 193.5t-236.5 294t-87 364.5q0 198 87 372.5t236.5 298.5t359 195.5t446.5 71.5q239 0 449 -71.5t360 -195.5t236.5 -298.5t86.5 -372.5q0 -156 -55 -298t-157.5 -255t-241 -196.5t-313 -128.5t-365.5 -45zM1249 113q176 0 292 83.5
t116 213.5q0 38 -12 70.5t-28 55t-46 43.5t-51.5 32.5t-61 25t-57 18.5t-55.5 15l-115 30q-215 52 -215 152q0 56 58 91.5t149 35.5q94 0 162 -41.5t96 -114.5l143 56q-30 102 -136 169.5t-257 67.5q-101 0 -188 -31.5t-143 -95t-56 -147.5q0 -197 319 -279l105 -24
q112 -28 148 -47q67 -36 67 -99q0 -47 -35.5 -80.5t-87.5 -48t-111 -14.5q-111 0 -189.5 53.5t-109.5 149.5l-145 -47q29 -99 101 -167t158.5 -97t184.5 -29z" />
    <glyph glyph-name="T.ss07" 
d="M1225 -315q-237 0 -446.5 71t-359 193.5t-236.5 294t-87 364.5q0 198 87 372.5t236.5 298.5t359 195.5t446.5 71.5q239 0 449 -71.5t360 -195.5t236.5 -298.5t86.5 -372.5q0 -156 -55 -298t-157.5 -255t-241 -196.5t-313 -128.5t-365.5 -45zM1151 961v-828h156v828h372
v135h-905v-135h377z" />
    <glyph glyph-name="U.ss07" 
d="M1225 -315q-237 0 -446.5 71t-359 193.5t-236.5 294t-87 364.5q0 198 87 372.5t236.5 298.5t359 195.5t446.5 71.5q239 0 449 -71.5t360 -195.5t236.5 -298.5t86.5 -372.5q0 -156 -55 -298t-157.5 -255t-241 -196.5t-313 -128.5t-365.5 -45zM1225 123q115 0 200.5 32.5
t133.5 89t71 123t23 142.5v596h-158v-588q0 -258 -266 -258q-268 0 -268 258v588h-160v-596q0 -61 13 -115t44 -104.5t78.5 -87t121.5 -58.5t167 -22z" />
    <glyph glyph-name="V.ss07" 
d="M1225 -315q-237 0 -446.5 71t-359 193.5t-236.5 294t-87 364.5q0 198 87 372.5t236.5 298.5t359 195.5t446.5 71.5q239 0 449 -71.5t360 -195.5t236.5 -298.5t86.5 -372.5q0 -156 -55 -298t-157.5 -255t-241 -196.5t-313 -128.5t-365.5 -45zM694 1096l459 -963h172
l457 963h-166q-54 -99 -192.5 -395t-182.5 -384q-40 82 -124.5 262t-147 309.5t-107.5 207.5h-168z" />
    <glyph glyph-name="W.ss07" 
d="M1225 -315q-237 0 -446.5 71t-359 193.5t-236.5 294t-87 364.5q0 198 87 372.5t236.5 298.5t359 195.5t446.5 71.5q239 0 449 -71.5t360 -195.5t236.5 -298.5t86.5 -372.5q0 -156 -55 -298t-157.5 -255t-241 -196.5t-313 -128.5t-365.5 -45zM406 1096l360 -963h182
q134 326 281 731q147 -402 282 -731h183l360 963h-174q-46 -118 -84 -220.5t-91.5 -249.5t-102.5 -278q-45 120 -141 367.5t-146 380.5h-172q-243 -644 -283 -748q-107 289 -282 748h-172z" />
    <glyph glyph-name="X.ss07" 
d="M1225 -315q-237 0 -446.5 71t-359 193.5t-236.5 294t-87 364.5q0 198 87 372.5t236.5 298.5t359 195.5t446.5 71.5q239 0 449 -71.5t360 -195.5t236.5 -298.5t86.5 -372.5q0 -156 -55 -298t-157.5 -255t-241 -196.5t-313 -128.5t-365.5 -45zM748 133h186l301 369
q49 -59 147 -182.5t150 -186.5h188q-76 91 -208.5 259.5t-180.5 228.5q306 381 383 475h-184q-23 -27 -295 -355q-57 66 -159 190.5t-136 164.5h-186q72 -87 201.5 -247.5t183.5 -227.5q-44 -54 -391 -488z" />
    <glyph glyph-name="Y.ss07" 
d="M1225 -315q-237 0 -446.5 71t-359 193.5t-236.5 294t-87 364.5q0 198 87 372.5t236.5 298.5t359 195.5t446.5 71.5q239 0 449 -71.5t360 -195.5t236.5 -298.5t86.5 -372.5q0 -156 -55 -298t-157.5 -255t-241 -196.5t-313 -128.5t-365.5 -45zM1149 475v-342h158v344
q46 67 144.5 210t174 253t105.5 156h-172q-138 -194 -330 -475q-59 85 -170.5 244t-161.5 231h-170z" />
    <glyph glyph-name="Z.ss07" 
d="M1225 -315q-237 0 -446.5 71t-359 193.5t-236.5 294t-87 364.5q0 198 87 372.5t236.5 298.5t359 195.5t446.5 71.5q239 0 449 -71.5t360 -195.5t236.5 -298.5t86.5 -372.5q0 -156 -55 -298t-157.5 -255t-241 -196.5t-313 -128.5t-365.5 -45zM793 268v-135h893v139h-699
q391 391 686 691v133h-854v-135h651q-91 -93 -320 -328t-357 -365z" />
    <glyph glyph-name="A.ss08" 
d="M1225 1546q239 0 449 -71.5t360 -195.5t236.5 -298.5t86.5 -372.5q0 -156 -55 -298t-157.5 -255t-241 -196.5t-313 -128.5t-365.5 -45q-237 0 -446.5 71t-359 193.5t-236.5 294t-87 364.5q0 198 87 372.5t236.5 298.5t359 195.5t446.5 71.5zM1225 -197q210 0 395.5 61.5
t318 168.5t209 257t76.5 320q0 172 -76.5 323t-209 259t-318 170.5t-395.5 62.5q-279 0 -507 -106t-358.5 -293t-130.5 -416q0 -226 130.5 -411t358.5 -290.5t507 -105.5zM860 291l314 647h112l316 -647h-117q-6 13 -101 198h-311q-26 -50 -53 -105t-47 -93h-113zM1112 580
h234q-84 159 -117 231q-15 -31 -56 -110.5t-61 -120.5z" />
    <glyph glyph-name="B.ss08" 
d="M1225 1546q239 0 449 -71.5t360 -195.5t236.5 -298.5t86.5 -372.5q0 -156 -55 -298t-157.5 -255t-241 -196.5t-313 -128.5t-365.5 -45q-237 0 -446.5 71t-359 193.5t-236.5 294t-87 364.5q0 198 87 372.5t236.5 298.5t359 195.5t446.5 71.5zM1225 -197q210 0 395.5 61.5
t318 168.5t209 257t76.5 320q0 172 -76.5 323t-209 259t-318 170.5t-395.5 62.5q-279 0 -507 -106t-358.5 -293t-130.5 -416q0 -226 130.5 -411t358.5 -290.5t507 -105.5zM1401 623q66 -19 102.5 -58.5t36.5 -93.5q0 -59 -37.5 -101t-93.5 -60.5t-121 -18.5h-321v647h295
q113 0 183.5 -48t70.5 -124q0 -46 -30.5 -84.5t-84.5 -58.5zM1075 846v-184h168q73 0 116.5 24.5t43.5 65.5q0 42 -45.5 68t-118.5 26h-164zM1266 385q70 0 114.5 23t44.5 67t-45.5 71t-119.5 27h-185v-188h191z" />
    <glyph glyph-name="C.ss08" 
d="M1225 -315q-237 0 -446.5 71t-359 193.5t-236.5 294t-87 364.5q0 198 87 372.5t236.5 298.5t359 195.5t446.5 71.5q239 0 449 -71.5t360 -195.5t236.5 -298.5t86.5 -372.5q0 -156 -55 -298t-157.5 -255t-241 -196.5t-313 -128.5t-365.5 -45zM1225 -197q210 0 395.5 61.5
t318 168.5t209 257t76.5 320q0 172 -76.5 323t-209 259t-318 170.5t-395.5 62.5q-279 0 -507 -106t-358.5 -293t-130.5 -416q0 -226 130.5 -411t358.5 -290.5t507 -105.5zM1249 279q-176 0 -288.5 93.5t-112.5 241.5q0 150 114.5 243t280.5 93q128 0 224 -54.5t130 -147.5
l-96 -35q-32 68 -101 105.5t-155 37.5q-125 0 -203.5 -68.5t-78.5 -177.5q0 -79 43.5 -134.5t107.5 -79t139 -23.5q102 0 174.5 46.5t98.5 131.5l100 -33q-38 -114 -138 -176.5t-239 -62.5z" />
    <glyph glyph-name="D.ss08" horiz-adv-x="2459" 
d="M1225 -315q-237 0 -446.5 71t-359 193.5t-236.5 294t-87 364.5q0 198 87 372.5t236.5 298.5t359 195.5t446.5 71.5q239 0 449 -71.5t360 -195.5t236.5 -298.5t86.5 -372.5q0 -156 -55 -298t-157.5 -255t-241 -196.5t-313 -128.5t-365.5 -45zM1225 -197q210 0 395.5 61.5
t318 168.5t209 257t76.5 320q0 172 -76.5 323t-209 259t-318 170.5t-395.5 62.5q-279 0 -507 -106t-358.5 -293t-130.5 -416q0 -226 130.5 -411t358.5 -290.5t507 -105.5zM1237 291h-297v647h289q175 0 274 -85.5t99 -234.5t-100 -238t-265 -89zM1049 385h188
q119 0 186.5 60t67.5 169q0 122 -78 177t-207 55h-157v-461z" />
    <glyph glyph-name="E.ss08" 
d="M1225 -315q-237 0 -446.5 71t-359 193.5t-236.5 294t-87 364.5q0 198 87 372.5t236.5 298.5t359 195.5t446.5 71.5q239 0 449 -71.5t360 -195.5t236.5 -298.5t86.5 -372.5q0 -156 -55 -298t-157.5 -255t-241 -196.5t-313 -128.5t-365.5 -45zM1225 -197q210 0 395.5 61.5
t318 168.5t209 257t76.5 320q0 172 -76.5 323t-209 259t-318 170.5t-395.5 62.5q-279 0 -507 -106t-358.5 -293t-130.5 -416q0 -226 130.5 -411t358.5 -290.5t507 -105.5zM1501 291h-516v647h510v-92h-401v-176h381v-95h-381v-190h407v-94z" />
    <glyph glyph-name="F.ss08" 
d="M1225 -315q-237 0 -446.5 71t-359 193.5t-236.5 294t-87 364.5q0 198 87 372.5t236.5 298.5t359 195.5t446.5 71.5q239 0 449 -71.5t360 -195.5t236.5 -298.5t86.5 -372.5q0 -156 -55 -298t-157.5 -255t-241 -196.5t-313 -128.5t-365.5 -45zM1225 -197q210 0 395.5 61.5
t318 168.5t209 257t76.5 320q0 172 -76.5 323t-209 259t-318 170.5t-395.5 62.5q-279 0 -507 -106t-358.5 -293t-130.5 -416q0 -226 130.5 -411t358.5 -290.5t507 -105.5zM1110 291h-109v647h500v-94h-391v-185h371v-94h-371v-274z" />
    <glyph glyph-name="G.ss08" 
d="M1225 1546q239 0 449 -71.5t360 -195.5t236.5 -298.5t86.5 -372.5q0 -156 -55 -298t-157.5 -255t-241 -196.5t-313 -128.5t-365.5 -45q-237 0 -446.5 71t-359 193.5t-236.5 294t-87 364.5q0 198 87 372.5t236.5 298.5t359 195.5t446.5 71.5zM1225 -197q210 0 395.5 61.5
t318 168.5t209 257t76.5 320q0 172 -76.5 323t-209 259t-318 170.5t-395.5 62.5q-279 0 -507 -106t-358.5 -293t-130.5 -416q0 -226 130.5 -411t358.5 -290.5t507 -105.5zM1257 539v84h361v-332h-90q-2 39 -2 112q-88 -124 -287 -124q-171 0 -281 93.5t-110 239.5
q0 147 112 242.5t283 95.5q128 0 224 -54.5t130 -147.5l-96 -35q-33 68 -101.5 105.5t-154.5 37.5q-123 0 -202.5 -69t-79.5 -177q0 -61 25.5 -108.5t68 -74.5t92.5 -40.5t104 -13.5q103 0 172.5 45.5t81.5 120.5h-250z" />
    <glyph glyph-name="H.ss08" 
d="M1225 1546q239 0 449 -71.5t360 -195.5t236.5 -298.5t86.5 -372.5q0 -156 -55 -298t-157.5 -255t-241 -196.5t-313 -128.5t-365.5 -45q-237 0 -446.5 71t-359 193.5t-236.5 294t-87 364.5q0 198 87 372.5t236.5 298.5t359 195.5t446.5 71.5zM1225 -197q210 0 395.5 61.5
t318 168.5t209 257t76.5 320q0 172 -76.5 323t-209 259t-318 170.5t-395.5 62.5q-279 0 -507 -106t-358.5 -293t-130.5 -416q0 -226 130.5 -411t358.5 -290.5t507 -105.5zM1028 664h404v274h108v-647h-108v276h-404v-276h-110v647h110v-274z" />
    <glyph glyph-name="I.ss08" horiz-adv-x="2459" 
d="M1227 -315q-237 0 -446.5 71t-359 193.5t-236.5 294t-87 364.5q0 198 87 372.5t236.5 298.5t359 195.5t446.5 71.5q239 0 449 -71.5t360 -195.5t236.5 -298.5t86.5 -372.5q0 -156 -55 -298t-157.5 -255t-241 -196.5t-313 -128.5t-365.5 -45zM1227 -197q210 0 395.5 61.5
t318 168.5t209 257t76.5 320q0 172 -76.5 323t-209 259t-318 170.5t-395.5 62.5q-279 0 -507 -106t-358.5 -293t-130.5 -416q0 -226 130.5 -411t358.5 -290.5t507 -105.5zM1284 291h-108v647h108v-647z" />
    <glyph glyph-name="J.ss08" 
d="M1225 -315q-237 0 -446.5 71t-359 193.5t-236.5 294t-87 364.5q0 198 87 372.5t236.5 298.5t359 195.5t446.5 71.5q239 0 449 -71.5t360 -195.5t236.5 -298.5t86.5 -372.5q0 -156 -55 -298t-157.5 -255t-241 -196.5t-313 -128.5t-365.5 -45zM1225 -197q210 0 395.5 61.5
t318 168.5t209 257t76.5 320q0 172 -76.5 323t-209 259t-318 170.5t-395.5 62.5q-279 0 -507 -106t-358.5 -293t-130.5 -416q0 -226 130.5 -411t358.5 -290.5t507 -105.5zM1202 285q-119 0 -188.5 58t-69.5 159v26l105 13v-27q0 -64 40 -100.5t109 -36.5q36 0 61.5 10.5
t38.5 25t20.5 38t9 40.5t1.5 41v412h109v-395q0 -20 -0.5 -33t-3 -39t-9 -44.5t-17 -43t-28.5 -41t-41.5 -32t-58.5 -23.5t-78 -8z" />
    <glyph glyph-name="K.ss08" 
d="M1225 1546q239 0 449 -71.5t360 -195.5t236.5 -298.5t86.5 -372.5q0 -156 -55 -298t-157.5 -255t-241 -196.5t-313 -128.5t-365.5 -45q-237 0 -446.5 71t-359 193.5t-236.5 294t-87 364.5q0 198 87 372.5t236.5 298.5t359 195.5t446.5 71.5zM1225 -197q210 0 395.5 61.5
t318 168.5t209 257t76.5 320q0 172 -76.5 323t-209 259t-318 170.5t-395.5 62.5q-279 0 -507 -106t-358.5 -293t-130.5 -416q0 -226 130.5 -411t358.5 -290.5t507 -105.5zM1427 938h134q-51 -44 -86 -75t-98 -87.5t-136 -120.5l334 -364h-133q-50 53 -160.5 166.5
t-116.5 120.5q-15 -12 -44 -37t-44 -37v-213h-108v647h108v-301q34 29 158 137.5t192 163.5z" />
    <glyph glyph-name="L.ss08" 
d="M1225 1546q239 0 449 -71.5t360 -195.5t236.5 -298.5t86.5 -372.5q0 -156 -55 -298t-157.5 -255t-241 -196.5t-313 -128.5t-365.5 -45q-237 0 -446.5 71t-359 193.5t-236.5 294t-87 364.5q0 198 87 372.5t236.5 298.5t359 195.5t446.5 71.5zM1225 -197q210 0 395.5 61.5
t318 168.5t209 257t76.5 320q0 172 -76.5 323t-209 259t-318 170.5t-395.5 62.5q-279 0 -507 -106t-358.5 -293t-130.5 -416q0 -226 130.5 -411t358.5 -290.5t507 -105.5zM1049 938h108v-553h381v-94h-489v647z" />
    <glyph glyph-name="M.ss08" horiz-adv-x="2459" 
d="M1225 1546q239 0 449 -71.5t360 -195.5t236.5 -298.5t86.5 -372.5q0 -156 -55 -298t-157.5 -255t-241 -196.5t-313 -128.5t-365.5 -45q-237 0 -446.5 71t-359 193.5t-236.5 294t-87 364.5q0 198 87 372.5t236.5 298.5t359 195.5t446.5 71.5zM1225 -197q210 0 395.5 61.5
t318 168.5t209 257t76.5 320q0 172 -76.5 323t-209 259t-318 170.5t-395.5 62.5q-279 0 -507 -106t-358.5 -293t-130.5 -416q0 -226 130.5 -411t358.5 -290.5t507 -105.5zM1229 438q198 345 284 500h125v-647h-108v448q-42 -73 -130 -223.5t-130 -224.5h-80
q-233 398 -260 448v-448h-109v647h125q27 -48 128.5 -225t154.5 -275z" />
    <glyph glyph-name="N.ss08" 
d="M1225 1546q239 0 449 -71.5t360 -195.5t236.5 -298.5t86.5 -372.5q0 -156 -55 -298t-157.5 -255t-241 -196.5t-313 -128.5t-365.5 -45q-237 0 -446.5 71t-359 193.5t-236.5 294t-87 364.5q0 198 87 372.5t236.5 298.5t359 195.5t446.5 71.5zM1225 -197q210 0 395.5 61.5
t318 168.5t209 257t76.5 320q0 172 -76.5 323t-209 259t-318 170.5t-395.5 62.5q-279 0 -507 -106t-358.5 -293t-130.5 -416q0 -226 130.5 -411t358.5 -290.5t507 -105.5zM1448 461v477h108v-647h-110q-63 73 -202.5 229t-213.5 242v-471h-108v647h110q239 -269 416 -477z
" />
    <glyph glyph-name="O.ss08" horiz-adv-x="2455" 
d="M1225 -315q-237 0 -446.5 71t-359 193.5t-236.5 294t-87 364.5q0 198 87 372.5t236.5 298.5t359 195.5t446.5 71.5q239 0 449 -71.5t360 -195.5t236.5 -298.5t86.5 -372.5q0 -156 -55 -298t-157.5 -255t-241 -196.5t-313 -128.5t-365.5 -45zM1225 -197q210 0 395.5 61.5
t318 168.5t209 257t76.5 320q0 172 -76.5 323t-209 259t-318 170.5t-395.5 62.5q-279 0 -507 -106t-358.5 -293t-130.5 -416q0 -226 130.5 -411t358.5 -290.5t507 -105.5zM1229 279q-167 0 -281 95.5t-114 239.5q0 142 114.5 239t282.5 97q167 0 281 -97t114 -239
t-114 -238.5t-283 -96.5zM1231 373q119 0 199.5 69t80.5 172t-80.5 172.5t-199.5 69.5t-201 -70t-82 -172t82 -171.5t201 -69.5z" />
    <glyph glyph-name="P.ss08" 
d="M1225 1546q239 0 449 -71.5t360 -195.5t236.5 -298.5t86.5 -372.5q0 -156 -55 -298t-157.5 -255t-241 -196.5t-313 -128.5t-365.5 -45q-237 0 -446.5 71t-359 193.5t-236.5 294t-87 364.5q0 198 87 372.5t236.5 298.5t359 195.5t446.5 71.5zM1225 -197q210 0 395.5 61.5
t318 168.5t209 257t76.5 320q0 172 -76.5 323t-209 259t-318 170.5t-395.5 62.5q-279 0 -507 -106t-358.5 -293t-130.5 -416q0 -226 130.5 -411t358.5 -290.5t507 -105.5zM989 938h285q48 0 91.5 -9.5t84.5 -31t65.5 -63t24.5 -97.5q0 -45 -16.5 -82t-42.5 -59.5t-60.5 -38
t-68 -21.5t-66.5 -6h-188v-239h-109v647zM1098 625h166q74 0 118.5 26.5t44.5 83.5q0 56 -46.5 83.5t-120.5 27.5h-162v-221z" />
    <glyph glyph-name="Q.ss08" 
d="M1225 -315q-237 0 -446.5 71t-359 193.5t-236.5 294t-87 364.5q0 198 87 372.5t236.5 298.5t359 195.5t446.5 71.5q239 0 449 -71.5t360 -195.5t236.5 -298.5t86.5 -372.5q0 -156 -55 -298t-157.5 -255t-241 -196.5t-313 -128.5t-365.5 -45zM1225 -197q210 0 395.5 61.5
t318 168.5t209 257t76.5 320q0 172 -76.5 323t-209 259t-318 170.5t-395.5 62.5q-279 0 -507 -106t-358.5 -293t-130.5 -416q0 -226 130.5 -411t358.5 -290.5t507 -105.5zM1599 301l-77 -59q-101 95 -111 104q-87 -35 -186 -35q-169 0 -284.5 97t-115.5 239q0 143 116 240.5
t286 97.5q166 0 281.5 -98t115.5 -240q0 -72 -33 -136t-94 -110q19 -20 54.5 -54t47.5 -46zM1227 406q59 0 108 22q-106 101 -127 113l80 61q36 -35 137 -127q86 70 86 172q0 104 -82 174t-202 70q-123 0 -206 -70t-83 -174q0 -103 83 -172t206 -69z" />
    <glyph glyph-name="R.ss08" 
d="M1225 1546q239 0 449 -71.5t360 -195.5t236.5 -298.5t86.5 -372.5q0 -156 -55 -298t-157.5 -255t-241 -196.5t-313 -128.5t-365.5 -45q-237 0 -446.5 71t-359 193.5t-236.5 294t-87 364.5q0 198 87 372.5t236.5 298.5t359 195.5t446.5 71.5zM1225 -197q210 0 395.5 61.5
t318 168.5t209 257t76.5 320q0 172 -76.5 323t-209 259t-318 170.5t-395.5 62.5q-279 0 -507 -106t-358.5 -293t-130.5 -416q0 -226 130.5 -411t358.5 -290.5t507 -105.5zM1540 735q0 -76 -49.5 -127.5t-134.5 -66.5q13 -16 82.5 -101.5t122.5 -148.5h-123l-199 241h-141
v-241h-109v647h285q47 0 90 -9.5t84.5 -31.5t66.5 -63.5t25 -98.5zM1098 623h168q72 0 116.5 27t44.5 83t-47 84.5t-120 28.5h-162v-223z" />
    <glyph glyph-name="S.ss08" 
d="M1225 -315q-237 0 -446.5 71t-359 193.5t-236.5 294t-87 364.5q0 198 87 372.5t236.5 298.5t359 195.5t446.5 71.5q239 0 449 -71.5t360 -195.5t236.5 -298.5t86.5 -372.5q0 -156 -55 -298t-157.5 -255t-241 -196.5t-313 -128.5t-365.5 -45zM1225 -197q210 0 395.5 61.5
t318 168.5t209 257t76.5 320q0 172 -76.5 323t-209 259t-318 170.5t-395.5 62.5q-279 0 -507 -106t-358.5 -293t-130.5 -416q0 -226 130.5 -411t358.5 -290.5t507 -105.5zM1243 279q-115 0 -195.5 51.5t-109.5 144.5l100 33q22 -65 76 -101t129 -36q63 0 110.5 25t47.5 71
q0 17 -8 30.5t-17.5 21.5t-31 16.5t-33.5 11.5l-40 10q-11 3 -16 4l-71 19q-217 55 -217 188q0 84 78 133t186 49q99 0 172 -43.5t96 -115.5l-96 -39q-22 51 -68 77.5t-110 26.5q-62 0 -102 -23t-40 -59q0 -68 148 -102l76 -21q26 -7 37.5 -10t39 -12t42 -16.5t35.5 -21.5
t31.5 -29.5t19 -37.5t8.5 -47q0 -87 -78.5 -142.5t-198.5 -55.5z" />
    <glyph glyph-name="T.ss08" horiz-adv-x="2455" 
d="M1225 -315q-237 0 -446.5 71t-359 193.5t-236.5 294t-87 364.5q0 198 87 372.5t236.5 298.5t359 195.5t446.5 71.5q239 0 449 -71.5t360 -195.5t236.5 -298.5t86.5 -372.5q0 -156 -55 -298t-157.5 -255t-241 -196.5t-313 -128.5t-365.5 -45zM1225 -197q210 0 395.5 61.5
t318 168.5t209 257t76.5 320q0 172 -76.5 323t-209 259t-318 170.5t-395.5 62.5q-279 0 -507 -106t-358.5 -293t-130.5 -416q0 -226 130.5 -411t358.5 -290.5t507 -105.5zM1282 291h-111v555h-251v92h614v-92h-252v-555z" />
    <glyph glyph-name="U.ss08" horiz-adv-x="2459" 
d="M1225 -315q-237 0 -446.5 71t-359 193.5t-236.5 294t-87 364.5q0 198 87 372.5t236.5 298.5t359 195.5t446.5 71.5q239 0 449 -71.5t360 -195.5t236.5 -298.5t86.5 -372.5q0 -156 -55 -298t-157.5 -255t-241 -196.5t-313 -128.5t-365.5 -45zM1225 -197q210 0 395.5 61.5
t318 168.5t209 257t76.5 320q0 172 -76.5 323t-209 259t-318 170.5t-395.5 62.5q-279 0 -507 -106t-358.5 -293t-130.5 -416q0 -226 130.5 -411t358.5 -290.5t507 -105.5zM1227 285q-148 0 -217.5 74t-69.5 184v401h109v-397q0 -170 180 -170q182 0 182 170v397h109v-401
q0 -51 -16 -95.5t-49.5 -81.5t-92 -59t-135.5 -22z" />
    <glyph glyph-name="V.ss08" 
d="M1225 1546q239 0 449 -71.5t360 -195.5t236.5 -298.5t86.5 -372.5q0 -156 -55 -298t-157.5 -255t-241 -196.5t-313 -128.5t-365.5 -45q-237 0 -446.5 71t-359 193.5t-236.5 294t-87 364.5q0 198 87 372.5t236.5 298.5t359 195.5t446.5 71.5zM1225 -197q210 0 395.5 61.5
t318 168.5t209 257t76.5 320q0 172 -76.5 323t-209 259t-318 170.5t-395.5 62.5q-279 0 -507 -106t-358.5 -293t-130.5 -416q0 -226 130.5 -411t358.5 -290.5t507 -105.5zM1239 416q114 253 252 522h117l-314 -647h-114l-316 647h115q28 -45 72 -134t102 -210t86 -178z" />
    <glyph glyph-name="W.ss08" 
d="M1225 1546q239 0 449 -71.5t360 -195.5t236.5 -298.5t86.5 -372.5q0 -156 -55 -298t-157.5 -255t-241 -196.5t-313 -128.5t-365.5 -45q-237 0 -446.5 71t-359 193.5t-236.5 294t-87 364.5q0 198 87 372.5t236.5 298.5t359 195.5t446.5 71.5zM1225 -197q210 0 395.5 61.5
t318 168.5t209 257t76.5 320q0 172 -76.5 323t-209 259t-318 170.5t-395.5 62.5q-279 0 -507 -106t-358.5 -293t-130.5 -416q0 -226 130.5 -411t358.5 -290.5t507 -105.5zM1481 434q17 45 57 155t72 193t63 156h117l-246 -647h-125q-13 31 -190 487q-57 -158 -191 -487h-125
l-245 647h120q42 -107 106.5 -277t84.5 -221l195 498h112q38 -96 106 -272.5t89 -231.5z" />
    <glyph glyph-name="X.ss08" 
d="M1225 1546q239 0 449 -71.5t360 -195.5t236.5 -298.5t86.5 -372.5q0 -156 -55 -298t-157.5 -255t-241 -196.5t-313 -128.5t-365.5 -45q-237 0 -446.5 71t-359 193.5t-236.5 294t-87 364.5q0 198 87 372.5t236.5 298.5t359 195.5t446.5 71.5zM1225 -197q210 0 395.5 61.5
t318 168.5t209 257t76.5 320q0 172 -76.5 323t-209 259t-318 170.5t-395.5 62.5q-279 0 -507 -106t-358.5 -293t-130.5 -416q0 -226 130.5 -411t358.5 -290.5t507 -105.5zM1434 938h125q-143 -173 -265 -317q40 -48 269 -330h-127l-205 248q-41 -49 -112 -135.5t-93 -112.5
h-129q14 17 103 128t167 202q-70 81 -264 317h127q108 -134 201 -240q33 38 100 118.5t103 121.5z" />
    <glyph glyph-name="Y.ss08" 
d="M1225 1546q239 0 449 -71.5t360 -195.5t236.5 -298.5t86.5 -372.5q0 -156 -55 -298t-157.5 -255t-241 -196.5t-313 -128.5t-365.5 -45q-237 0 -446.5 71t-359 193.5t-236.5 294t-87 364.5q0 198 87 372.5t236.5 298.5t359 195.5t446.5 71.5zM1225 -197q210 0 395.5 61.5
t318 168.5t209 257t76.5 320q0 172 -76.5 323t-209 259t-318 170.5t-395.5 62.5q-279 0 -507 -106t-358.5 -293t-130.5 -416q0 -226 130.5 -411t358.5 -290.5t507 -105.5zM1229 618q150 218 225 320h117q-42 -61 -107 -154t-122.5 -175t-59.5 -85v-233h-108v231
q-34 49 -69.5 102t-82.5 120t-137 194h121q38 -55 112.5 -161.5t110.5 -158.5z" />
    <glyph glyph-name="Z.ss08" 
d="M1225 1546q239 0 449 -71.5t360 -195.5t236.5 -298.5t86.5 -372.5q0 -156 -55 -298t-157.5 -255t-241 -196.5t-313 -128.5t-365.5 -45q-237 0 -446.5 71t-359 193.5t-236.5 294t-87 364.5q0 198 87 372.5t236.5 298.5t359 195.5t446.5 71.5zM1225 -197q210 0 395.5 61.5
t318 168.5t209 257t76.5 320q0 172 -76.5 323t-209 259t-318 170.5t-395.5 62.5q-279 0 -507 -106t-358.5 -293t-130.5 -416q0 -226 130.5 -411t358.5 -290.5t507 -105.5zM1534 938v-90q-374 -374 -465 -463h473v-94h-608v90q36 37 178 175.5t285 289.5h-447v92h584z" />
    <glyph glyph-name="i.loclTRK" horiz-adv-x="626" 
d="M315 1360q-69 0 -115 42t-46 105q0 58 46.5 100t114.5 42q65 0 111.5 -42t46.5 -100q0 -63 -46 -105t-112 -42zM424 0h-221v1137h221v-1137z" />
    <glyph glyph-name="a.ss01" horiz-adv-x="1648" 
d="M733 -35q-138 0 -256 46t-199.5 126t-127.5 191t-46 237q0 136 50.5 250.5t136.5 191t201 119.5t243 43q154 0 284 -61.5t204 -167.5h4v197h217v-1137h-211v188h-8q-75 -110 -206 -166.5t-286 -56.5zM776 162q191 0 319 118t128 291q0 175 -130 289.5t-321 114.5
q-189 0 -312.5 -115.5t-123.5 -290.5q0 -179 125 -293t315 -114z" />
    <glyph glyph-name="aacute.ss01" horiz-adv-x="1648" 
d="M1288 1663l-373 -385h-192l285 385h280zM733 -35q-138 0 -256 46t-199.5 126t-127.5 191t-46 237q0 136 50.5 250.5t136.5 191t201 119.5t243 43q154 0 284 -61.5t204 -167.5h4v197h217v-1137h-211v188h-8q-75 -110 -206 -166.5t-286 -56.5zM776 162q191 0 319 118
t128 291q0 175 -130 289.5t-321 114.5q-189 0 -312.5 -115.5t-123.5 -290.5q0 -179 125 -293t315 -114z" />
    <glyph glyph-name="abreve.ss01" horiz-adv-x="1648" 
d="M829 1272q-205 0 -325.5 110.5t-128.5 284.5h188q5 -103 78 -171.5t193 -68.5q118 0 191.5 67.5t78.5 172.5h188q-8 -174 -131 -284.5t-332 -110.5zM733 -35q-138 0 -256 46t-199.5 126t-127.5 191t-46 237q0 136 50.5 250.5t136.5 191t201 119.5t243 43q154 0 284 -61.5
t204 -167.5h4v197h217v-1137h-211v188h-8q-75 -110 -206 -166.5t-286 -56.5zM776 162q191 0 319 118t128 291q0 175 -130 289.5t-321 114.5q-189 0 -312.5 -115.5t-123.5 -290.5q0 -179 125 -293t315 -114z" />
    <glyph glyph-name="acircumflex.ss01" horiz-adv-x="1648" 
d="M555 1278h-209l356 364h256l357 -364h-209q-31 26 -86.5 72t-101 85t-87.5 76q-190 -163 -276 -233zM733 -35q-138 0 -256 46t-199.5 126t-127.5 191t-46 237q0 136 50.5 250.5t136.5 191t201 119.5t243 43q154 0 284 -61.5t204 -167.5h4v197h217v-1137h-211v188h-8
q-75 -110 -206 -166.5t-286 -56.5zM776 162q191 0 319 118t128 291q0 175 -130 289.5t-321 114.5q-189 0 -312.5 -115.5t-123.5 -290.5q0 -179 125 -293t315 -114z" />
    <glyph glyph-name="adieresis.ss01" horiz-adv-x="1648" 
d="M596 1337q-61 0 -104 40t-43 96q0 53 43 92t104 39q62 0 103.5 -38.5t41.5 -92.5q0 -56 -41.5 -96t-103.5 -40zM1069 1337q-62 0 -104.5 40t-42.5 96q0 53 42.5 92t104.5 39q61 0 104.5 -39t43.5 -92q0 -56 -43.5 -96t-104.5 -40zM733 -35q-138 0 -256 46t-199.5 126
t-127.5 191t-46 237q0 136 50.5 250.5t136.5 191t201 119.5t243 43q154 0 284 -61.5t204 -167.5h4v197h217v-1137h-211v188h-8q-75 -110 -206 -166.5t-286 -56.5zM776 162q191 0 319 118t128 291q0 175 -130 289.5t-321 114.5q-189 0 -312.5 -115.5t-123.5 -290.5
q0 -179 125 -293t315 -114z" />
    <glyph glyph-name="agrave.ss01" horiz-adv-x="1648" 
d="M936 1278h-193l-372 385h280zM733 -35q-138 0 -256 46t-199.5 126t-127.5 191t-46 237q0 136 50.5 250.5t136.5 191t201 119.5t243 43q154 0 284 -61.5t204 -167.5h4v197h217v-1137h-211v188h-8q-75 -110 -206 -166.5t-286 -56.5zM776 162q191 0 319 118t128 291
q0 175 -130 289.5t-321 114.5q-189 0 -312.5 -115.5t-123.5 -290.5q0 -179 125 -293t315 -114z" />
    <glyph glyph-name="amacron.ss01" horiz-adv-x="1648" 
d="M1245 1376h-825v156h825v-156zM733 -35q-138 0 -256 46t-199.5 126t-127.5 191t-46 237q0 136 50.5 250.5t136.5 191t201 119.5t243 43q154 0 284 -61.5t204 -167.5h4v197h217v-1137h-211v188h-8q-75 -110 -206 -166.5t-286 -56.5zM776 162q191 0 319 118t128 291
q0 175 -130 289.5t-321 114.5q-189 0 -312.5 -115.5t-123.5 -290.5q0 -179 125 -293t315 -114z" />
    <glyph glyph-name="aogonek.ss01" horiz-adv-x="1648" 
d="M1389 -319q50 0 110 16v-146q-66 -14 -131 -14q-143 0 -238.5 62t-95.5 172q0 75 54 133.5t147 95.5h-2v188h-8q-75 -110 -206 -166.5t-286 -56.5q-138 0 -256 46t-199.5 126t-127.5 191t-46 237q0 136 50.5 250.5t136.5 191t201 119.5t243 43q154 0 284 -61.5
t204 -167.5h4v197h217v-1137h-47q-99 -31 -150 -80.5t-51 -105.5q0 -58 54.5 -95.5t138.5 -37.5zM776 162q191 0 319 118t128 291q0 175 -130 289.5t-321 114.5q-189 0 -312.5 -115.5t-123.5 -290.5q0 -179 125 -293t315 -114z" />
    <glyph glyph-name="aring.ss01" horiz-adv-x="1648" 
d="M831 1251q-123 0 -204.5 67t-81.5 167t81.5 166.5t204.5 66.5q120 0 201.5 -66.5t81.5 -166.5t-82 -167t-201 -67zM831 1376q58 0 98 30.5t40 78.5q0 46 -40 76t-98 30q-62 0 -102.5 -29.5t-40.5 -76.5q0 -49 40.5 -79t102.5 -30zM733 -35q-138 0 -256 46t-199.5 126
t-127.5 191t-46 237q0 136 50.5 250.5t136.5 191t201 119.5t243 43q154 0 284 -61.5t204 -167.5h4v197h217v-1137h-211v188h-8q-75 -110 -206 -166.5t-286 -56.5zM776 162q191 0 319 118t128 291q0 175 -130 289.5t-321 114.5q-189 0 -312.5 -115.5t-123.5 -290.5
q0 -179 125 -293t315 -114z" />
    <glyph glyph-name="atilde.ss01" horiz-adv-x="1648" 
d="M1022 1307q-45 0 -82.5 10t-56 20t-49.5 31l-56 35q-58 43 -112 43q-51 0 -83 -35.5t-32 -87.5h-162q1 126 78 204.5t195 78.5q84 0 180 -60l55 -35q55 -41 115 -41q50 0 76 32.5t26 88.5h166q0 -134 -67.5 -209t-190.5 -75zM733 -35q-138 0 -256 46t-199.5 126
t-127.5 191t-46 237q0 136 50.5 250.5t136.5 191t201 119.5t243 43q154 0 284 -61.5t204 -167.5h4v197h217v-1137h-211v188h-8q-75 -110 -206 -166.5t-286 -56.5zM776 162q191 0 319 118t128 291q0 175 -130 289.5t-321 114.5q-189 0 -312.5 -115.5t-123.5 -290.5
q0 -179 125 -293t315 -114z" />
    <glyph glyph-name="b.ss01" horiz-adv-x="1394" 
d="M817 -35q-135 0 -239 46t-162 134h-4v-145h-209v1638h221v-983h6q56 69 157.5 105.5t223.5 36.5q225 0 369.5 -119t144.5 -301q0 -178 -142.5 -295t-365.5 -117zM788 137q133 0 223.5 70t90.5 176q0 101 -84.5 171.5t-226.5 70.5q-149 0 -237.5 -69.5t-88.5 -168.5
q0 -104 92.5 -177t230.5 -73z" />
    <glyph glyph-name="d.ss01" horiz-adv-x="1640" 
d="M733 -35q-139 0 -257 46.5t-199.5 126.5t-127 190.5t-45.5 236.5q0 136 50.5 250.5t136.5 191t201 119.5t243 43q154 0 279 -60t198 -165h7v694h221v-1638h-209v188h-6q-75 -110 -206 -166.5t-286 -56.5zM772 162q190 0 320.5 114.5t130.5 292.5q0 177 -130.5 291.5
t-320.5 114.5q-189 0 -312.5 -115.5t-123.5 -290.5q0 -179 124 -293t312 -114z" />
    <glyph glyph-name="dcaron.ss01" horiz-adv-x="1667" 
d="M1700 1139h-135l166 270q-50 17 -77.5 54t-27.5 81q0 59 48.5 101.5t115.5 42.5q65 0 112.5 -42t47.5 -100q0 -45 -34 -101.5t-151 -216.5q-13 -18 -21 -28.5t-20.5 -28t-23.5 -32.5zM733 -35q-139 0 -257 46.5t-199.5 126.5t-127 190.5t-45.5 236.5q0 136 50.5 250.5
t136.5 191t201 119.5t243 43q154 0 279 -60t198 -165h7v694h221v-1638h-209v188h-6q-75 -110 -206 -166.5t-286 -56.5zM772 162q190 0 320.5 114.5t130.5 292.5q0 177 -130.5 291.5t-320.5 114.5q-189 0 -312.5 -115.5t-123.5 -290.5q0 -179 124 -293t312 -114z" />
    <glyph glyph-name="dcroat.ss01" horiz-adv-x="1640" 
d="M1440 1460h317v-160h-317v-1300h-209v188h-6q-75 -110 -206 -166.5t-286 -56.5q-139 0 -257 46.5t-199.5 126.5t-127 190.5t-45.5 236.5q0 136 50.5 250.5t136.5 191t201 119.5t243 43q154 0 279 -60t198 -165h7v356h-334v160h334v178h221v-178zM772 162
q190 0 320.5 114.5t130.5 292.5q0 177 -130.5 291.5t-320.5 114.5q-189 0 -312.5 -115.5t-123.5 -290.5q0 -179 124 -293t312 -114z" />
    <glyph glyph-name="g.ss01" horiz-adv-x="1640" 
d="M1438 -451h-1225v189h1004v483h-7q-73 -109 -199 -163t-278 -54q-140 0 -259.5 46t-200 125t-126 185.5t-45.5 225.5q0 126 48.5 235t132.5 185t199.5 119.5t246.5 43.5q157 0 286 -61t202 -168h4v197h217v-1588zM770 199q188 0 319.5 113.5t131.5 277.5t-131 274.5
t-320 110.5q-188 0 -312 -111t-124 -274q0 -165 125 -278t311 -113z" />
    <glyph glyph-name="gbreve.ss01" horiz-adv-x="1640" 
d="M825 1272q-205 0 -325.5 110.5t-128.5 284.5h188q5 -103 78 -171.5t192 -68.5q118 0 192 67.5t79 172.5h188q-8 -174 -131 -284.5t-332 -110.5zM1438 -451h-1225v189h1004v483h-7q-73 -109 -199 -163t-278 -54q-140 0 -259.5 46t-200 125t-126 185.5t-45.5 225.5
q0 126 48.5 235t132.5 185t199.5 119.5t246.5 43.5q157 0 286 -61t202 -168h4v197h217v-1588zM770 199q188 0 319.5 113.5t131.5 277.5t-131 274.5t-320 110.5q-188 0 -312 -111t-124 -274q0 -165 125 -278t311 -113z" />
    <glyph glyph-name="uni0123.ss01" horiz-adv-x="1640" 
d="M657 1393q0 13 3 26t6.5 25.5t14.5 31.5t20.5 34.5t30.5 45.5t38.5 54.5t50.5 71t60 85.5h133l-154 -247q44 -18 69 -50.5t25 -74.5q0 -55 -43 -93t-106 -38q-62 0 -105 37.5t-43 91.5zM1438 -451h-1225v189h1004v483h-7q-73 -109 -199 -163t-278 -54q-140 0 -259.5 46
t-200 125t-126 185.5t-45.5 225.5q0 126 48.5 235t132.5 185t199.5 119.5t246.5 43.5q157 0 286 -61t202 -168h4v197h217v-1588zM770 199q188 0 319.5 113.5t131.5 277.5t-131 274.5t-320 110.5q-188 0 -312 -111t-124 -274q0 -165 125 -278t311 -113z" />
    <glyph glyph-name="gdotaccent.ss01" horiz-adv-x="1640" 
d="M829 1370q-69 0 -115 42.5t-46 105.5q0 58 46.5 99.5t114.5 41.5q66 0 112 -42t46 -99q0 -63 -46 -105.5t-112 -42.5zM1438 -451h-1225v189h1004v483h-7q-73 -109 -199 -163t-278 -54q-140 0 -259.5 46t-200 125t-126 185.5t-45.5 225.5q0 126 48.5 235t132.5 185
t199.5 119.5t246.5 43.5q157 0 286 -61t202 -168h4v197h217v-1588zM770 199q188 0 319.5 113.5t131.5 277.5t-131 274.5t-320 110.5q-188 0 -312 -111t-124 -274q0 -165 125 -278t311 -113z" />
    <glyph glyph-name="i.ss01" horiz-adv-x="878" 
d="M444 1360q-69 0 -115 42t-46 105q0 58 46.5 100t114.5 42q65 0 111.5 -42t46.5 -100q0 -63 -46 -105t-112 -42zM842 0h-496v946h-317v191h536v-949h277v-188z" />
    <glyph glyph-name="dotlessi.ss01" horiz-adv-x="878" 
d="M842 0h-496v946h-317v191h536v-949h277v-188z" />
    <glyph glyph-name="iacute.ss01" horiz-adv-x="878" 
d="M856 1663l-373 -385h-192l284 385h281zM842 0h-496v946h-317v191h536v-949h277v-188z" />
    <glyph glyph-name="icircumflex.ss01" horiz-adv-x="878" 
d="M123 1278h-209l356 364h256l357 -364h-209q-31 26 -86.5 72t-101 85t-87.5 76q-190 -163 -276 -233zM842 0h-496v946h-317v191h536v-949h277v-188z" />
    <glyph glyph-name="idieresis.ss01" horiz-adv-x="878" 
d="M164 1337q-61 0 -104.5 40t-43.5 96q0 53 43.5 92t104.5 39q62 0 103.5 -38.5t41.5 -92.5q0 -56 -41.5 -96t-103.5 -40zM637 1337q-62 0 -105 40t-43 96q0 53 43 92t105 39q61 0 104 -39t43 -92q0 -56 -43 -96t-104 -40zM842 0h-496v946h-317v191h536v-949h277v-188z" />
    <glyph glyph-name="i.loclTRK.ss01" horiz-adv-x="878" 
d="M420 1368q-69 0 -115.5 43t-46.5 105q0 59 46.5 100t115.5 41q66 0 112 -41t46 -100q0 -62 -46 -105t-112 -43zM842 0h-496v946h-317v191h536v-949h277v-188z" />
    <glyph glyph-name="igrave.ss01" horiz-adv-x="878" 
d="M504 1278h-193l-372 385h280zM842 0h-496v946h-317v191h536v-949h277v-188z" />
    <glyph glyph-name="imacron.ss01" horiz-adv-x="878" 
d="M813 1376h-825v156h825v-156zM842 0h-496v946h-317v191h536v-949h277v-188z" />
    <glyph glyph-name="iogonek.ss01" horiz-adv-x="878" 
d="M401 1370q-69 0 -115 42.5t-46 105.5q0 58 46.5 99.5t114.5 41.5q66 0 112 -42t46 -99q0 -63 -46 -105.5t-112 -42.5zM842 0h-338q-96 -31 -145.5 -80t-49.5 -104q0 -58 54.5 -95.5t138.5 -37.5q50 0 110 16v-145q-71 -15 -131 -15q-143 0 -238.5 62t-95.5 172
q0 75 53.5 133.5t145.5 95.5v944h-317v191h536v-949h277v-188z" />
    <glyph glyph-name="j.ss01" horiz-adv-x="794" 
d="M469 1360q-68 0 -114 42t-46 105q0 58 46.5 100t113.5 42t113.5 -42t46.5 -100q0 -63 -46 -105t-114 -42zM590 -451h-721v189h502v1208h-344v191h563v-1588z" />
    <glyph glyph-name="l.ss01" horiz-adv-x="917" 
d="M905 0h-694v1638h219v-1450h475v-188z" />
    <glyph glyph-name="lacute.ss01" horiz-adv-x="917" 
d="M907 2101l-403 -340h-201l301 340h303zM905 0h-694v1638h219v-1450h475v-188z" />
    <glyph glyph-name="lcaron.ss01" horiz-adv-x="917" 
d="M739 1102h-135l168 270q-51 17 -78.5 53t-27.5 82q0 59 48 101.5t115 42.5q66 0 113 -41.5t47 -100.5q0 -48 -39 -110.5t-180 -254.5q-7 -9 -10.5 -14t-9.5 -13t-11 -15zM905 0h-694v1638h219v-1450h475v-188z" />
    <glyph glyph-name="uni013C.ss01" horiz-adv-x="917" 
d="M905 0h-694v1638h219v-1450h475v-188zM399 -582h-116l131 215q-53 17 -81 50t-28 75q0 55 42.5 92t105.5 37t105 -36.5t42 -90.5q0 -12 -1.5 -22.5t-6.5 -24t-9.5 -24t-15.5 -28.5t-19.5 -32t-27 -40.5t-32.5 -46t-41 -57.5t-48 -67z" />
    <glyph glyph-name="lslash.ss01" horiz-adv-x="917" 
d="M430 905v-717h475v-188h-694v770l-238 -147v182l238 147v686h219v-551l240 150v-182z" />
    <glyph glyph-name="m.ss01" horiz-adv-x="2451" 
d="M424 0h-221v1137h221v-420l645 420h266v-420l645 420h267v-1137h-219v926h-15l-678 -441v-485h-219v926h-14l-678 -441v-485z" />
    <glyph glyph-name="n.ss01" horiz-adv-x="1568" 
d="M424 668l717 469h223v-1137h-219v899h-15l-706 -424v-475h-221v1137h221v-469z" />
    <glyph glyph-name="nacute.ss01" horiz-adv-x="1568" 
d="M958 1663h281l-373 -385h-192zM424 668l717 469h223v-1137h-219v899h-15l-706 -424v-475h-221v1137h221v-469z" />
    <glyph glyph-name="ncaron.ss01" horiz-adv-x="1568" 
d="M1268 1661l-357 -373h-256l-356 373h209q176 -147 276 -234q94 84 275 234h209zM424 668l717 469h223v-1137h-219v899h-15l-706 -424v-475h-221v1137h221v-469z" />
    <glyph glyph-name="uni0146.ss01" horiz-adv-x="1568" 
d="M424 668l717 469h223v-1137h-219v899h-15l-706 -424v-475h-221v1137h221v-469zM817 -113q63 0 105.5 -36.5t42.5 -90.5q0 -12 -1.5 -22.5t-6.5 -24t-9.5 -24t-15.5 -28.5t-19.5 -32t-27 -40.5t-32.5 -46t-41 -57.5t-48 -67h-117l131 215q-53 17 -80.5 50t-27.5 75
q0 55 42 92t105 37z" />
    <glyph glyph-name="eng.ss01" horiz-adv-x="1568" 
d="M963 -483q-148 0 -263 49v184q109 -49 218 -49q37 0 67.5 6.5t52.5 16t39.5 27t28.5 32.5t19 39t11.5 40.5t5.5 43.5t2.5 41t0.5 39v913h-15l-706 -424v-475h-221v1137h221v-451l717 451h223v-1151q0 -54 -1 -84t-8.5 -86.5t-22 -91t-43.5 -78.5t-70.5 -69t-107 -42.5
t-148.5 -17.5z" />
    <glyph glyph-name="ntilde.ss01" horiz-adv-x="1568" 
d="M616 1446q-51 0 -82.5 -35.5t-31.5 -87.5h-162q1 126 77.5 204.5t194.5 78.5q85 0 181 -60l55 -35q55 -41 115 -41q50 0 76 32.5t26 88.5h166q0 -134 -67.5 -209t-190.5 -75q-45 0 -82.5 10t-56.5 20.5t-50 30.5l-55 35q-58 43 -113 43zM424 668l717 469h223v-1137h-219
v899h-15l-706 -424v-475h-221v1137h221v-469z" />
    <glyph glyph-name="p.ss01" horiz-adv-x="1644" 
d="M424 -451h-221v1588h217v-207h4q87 121 216.5 180t281.5 59q178 0 319 -79t219 -215t78 -304q0 -109 -32.5 -205t-90.5 -169t-136.5 -125.5t-173 -79.5t-196.5 -27q-158 0 -284.5 61.5t-200.5 166.5v-644zM868 160q190 0 314.5 116t124.5 291q0 176 -125.5 291
t-313.5 115t-318 -115t-130 -293q0 -177 130 -291t318 -114z" />
    <glyph glyph-name="q.ss01" horiz-adv-x="1642" 
d="M1440 -451h-221v654q-81 -116 -210.5 -177t-285.5 -61q-177 0 -319 79t-221 217.5t-79 309.5q0 133 49.5 246t134 189.5t199.5 119.5t244 43q157 0 286 -61t202 -168h4v197h217v-1588zM772 162q190 0 320.5 114.5t130.5 292.5q0 177 -130.5 291.5t-320.5 114.5
q-189 0 -312.5 -115.5t-123.5 -292.5q0 -175 124 -290t312 -115z" />
    <glyph glyph-name="r.ss01" horiz-adv-x="999" 
d="M424 0h-221v1137h770v-191h-549v-946z" />
    <glyph glyph-name="racute.ss01" horiz-adv-x="999" 
d="M967 1663l-373 -385h-193l285 385h281zM424 0h-221v1137h770v-191h-549v-946z" />
    <glyph glyph-name="rcaron.ss01" horiz-adv-x="999" 
d="M639 1288h-256l-356 373h209q176 -147 276 -234q108 96 274 234h209zM424 0h-221v1137h770v-191h-549v-946z" />
    <glyph glyph-name="uni0157.ss01" horiz-adv-x="999" 
d="M424 0h-221v1137h770v-191h-549v-946zM272 -582h-116l131 215q-53 17 -81 50t-28 75q0 55 42.5 92t105.5 37t105 -36.5t42 -90.5q0 -12 -1.5 -22.5t-6.5 -24t-9.5 -24t-15.5 -28.5t-19.5 -32t-27 -40.5t-32.5 -46t-41 -57.5t-48 -67z" />
    <glyph glyph-name="s.ss01" horiz-adv-x="1187" 
d="M1044 0h-903v190h688v308h-688v639h903v-191h-686v-291h686v-655z" />
    <glyph glyph-name="sacute.ss01" horiz-adv-x="1187" 
d="M1030 1663l-373 -385h-192l285 385h280zM1044 0h-903v190h688v308h-688v639h903v-191h-686v-291h686v-655z" />
    <glyph glyph-name="scaron.ss01" horiz-adv-x="1187" 
d="M702 1288h-256l-356 373h209q176 -147 276 -234q94 84 275 234h209zM1044 0h-903v190h688v308h-688v639h903v-191h-686v-291h686v-655z" />
    <glyph glyph-name="scedilla.ss01" horiz-adv-x="1187" 
d="M1044 1137v-191h-686v-291h686v-655h-362l-115 -133q36 12 84 12q102 0 168 -49t66 -131q0 -91 -83.5 -148t-211.5 -57q-96 0 -180.5 32.5t-137.5 88.5l82 84q40 -46 101 -70t127 -24q64 0 106.5 26t42.5 68q0 39 -39 63.5t-100 24.5q-64 0 -113 -27l-80 60l142 180h-400
v190h688v308h-688v639h903z" />
    <glyph glyph-name="uni0219.ss01" horiz-adv-x="1187" 
d="M1044 0h-903v190h688v308h-688v639h903v-191h-686v-291h686v-655zM555 -582h-117l131 215q-53 17 -80.5 50t-27.5 75q0 55 42 92t105 37t105.5 -36.5t42.5 -90.5q0 -12 -1.5 -22.5t-6.5 -24t-9.5 -24t-15.5 -28.5t-19.5 -32t-27 -40.5t-32.5 -46t-41 -57.5t-48 -67z" />
    <glyph glyph-name="t.ss01" horiz-adv-x="999" 
d="M524 948v-760h432v-188h-653v948h-270v189h270v329h221v-329h402v-189h-402z" />
    <glyph glyph-name="tbar.ss01" horiz-adv-x="999" 
d="M524 532v-344h432v-188h-653v532h-266v160h266v256h-270v189h270v329h221v-329h402v-189h-402v-256h385v-160h-385z" />
    <glyph glyph-name="tcaron.ss01" horiz-adv-x="999" 
d="M926 1112v-164h-402v-760h432v-188h-653v948h-270v189h270v329h221v-329h400l153 245q-50 17 -77 53.5t-27 80.5q0 60 48 101.5t116 41.5q65 0 112 -41.5t47 -99.5q0 -46 -38.5 -108.5t-171.5 -244.5q-9 -11 -13.5 -17.5t-12 -16.5t-13.5 -19h-121z" />
    <glyph glyph-name="uni0163.ss01" horiz-adv-x="999" 
d="M956 188v-188h-305l-114 -133q36 12 84 12q102 0 167.5 -49t65.5 -131q0 -91 -83.5 -148t-211.5 -57q-96 0 -180 32.5t-137 88.5l82 84q40 -46 101 -70t126 -24q64 0 106.5 26t42.5 68q0 39 -39 63.5t-100 24.5q-63 0 -112 -27l-80 60l141 180h-207v948h-270v189h270v329
h221v-329h402v-189h-402v-760h432z" />
    <glyph glyph-name="uni021B.ss01" horiz-adv-x="999" 
d="M524 948v-760h432v-188h-653v948h-270v189h270v329h221v-329h402v-189h-402zM578 -113q63 0 105 -36.5t42 -90.5q0 -12 -1.5 -22.5t-6.5 -24t-9.5 -24t-15.5 -28.5t-19.5 -32t-27 -40.5t-32.5 -46t-41 -57.5t-48 -67h-116l131 215q-53 17 -81 50t-28 75q0 55 42.5 92
t105.5 37z" />
    <glyph glyph-name="yacute.ss01" horiz-adv-x="1396" 
d="M1167 1663l-372 -385h-193l285 385h280zM709 -451h-228l183 422h-158l-463 1166h231l367 -910h113l370 910h230z" />
    <glyph glyph-name="ycircumflex.ss01" horiz-adv-x="1396" 
d="M436 1278h-209l357 364h256l356 -364h-209q-259 219 -274 233q-174 -150 -277 -233zM709 -451h-228l183 422h-158l-463 1166h231l367 -910h113l370 910h230z" />
    <glyph glyph-name="ydieresis.ss01" horiz-adv-x="1396" 
d="M475 1337q-61 0 -104 40t-43 96q0 53 43 92t104 39q62 0 104 -39t42 -92q0 -56 -42 -96t-104 -40zM948 1337q-62 0 -104.5 40t-42.5 96q0 53 42.5 92t104.5 39q61 0 104.5 -39t43.5 -92q0 -56 -43.5 -96t-104.5 -40zM709 -451h-228l183 422h-158l-463 1166h231l367 -910
h113l370 910h230z" />
    <glyph glyph-name="ygrave.ss01" horiz-adv-x="1396" 
d="M815 1278h-192l-373 385h280zM709 -451h-228l183 422h-158l-463 1166h231l367 -910h113l370 910h230z" />
    <glyph glyph-name="a.ss02" horiz-adv-x="1417" 
d="M547 -35q-122 0 -220 33.5t-160.5 106t-62.5 174.5q0 66 28.5 120t72.5 89t109.5 63t127 43.5t138.5 28.5q32 5 77 12t73 11.5t65 11.5t60 13t50 15t42.5 19.5t30 24t20.5 31t6 38.5q0 78 -86.5 138t-219.5 60q-122 0 -212 -55.5t-126 -155.5l-210 66q29 82 87.5 144.5
t135 99.5t161 55t175.5 18q105 0 198 -24t166.5 -70.5t116.5 -123t43 -173.5v-778h-211v197h-6q-63 -107 -182 -169.5t-287 -62.5zM590 129q91 0 171.5 31t132 78t81 101t29.5 103v125q-97 -49 -308 -82q-43 -7 -74.5 -13.5t-77 -18t-77.5 -26.5t-62.5 -34.5t-46.5 -46.5
t-16 -59q0 -75 69 -116.5t179 -41.5z" />
    <glyph glyph-name="aacute.ss02" horiz-adv-x="1417" 
d="M1169 1663l-372 -385h-193l285 385h280zM547 -35q-122 0 -220 33.5t-160.5 106t-62.5 174.5q0 66 28.5 120t72.5 89t109.5 63t127 43.5t138.5 28.5q32 5 77 12t73 11.5t65 11.5t60 13t50 15t42.5 19.5t30 24t20.5 31t6 38.5q0 78 -86.5 138t-219.5 60q-122 0 -212 -55.5
t-126 -155.5l-210 66q29 82 87.5 144.5t135 99.5t161 55t175.5 18q105 0 198 -24t166.5 -70.5t116.5 -123t43 -173.5v-778h-211v197h-6q-63 -107 -182 -169.5t-287 -62.5zM590 129q91 0 171.5 31t132 78t81 101t29.5 103v125q-97 -49 -308 -82q-43 -7 -74.5 -13.5t-77 -18
t-77.5 -26.5t-62.5 -34.5t-46.5 -46.5t-16 -59q0 -75 69 -116.5t179 -41.5z" />
    <glyph glyph-name="abreve.ss02" horiz-adv-x="1417" 
d="M713 1272q-205 0 -326 110.5t-129 284.5h188q5 -103 78 -171.5t193 -68.5q118 0 191.5 67.5t78.5 172.5h189q-8 -174 -131 -284.5t-332 -110.5zM547 -35q-122 0 -220 33.5t-160.5 106t-62.5 174.5q0 66 28.5 120t72.5 89t109.5 63t127 43.5t138.5 28.5q32 5 77 12
t73 11.5t65 11.5t60 13t50 15t42.5 19.5t30 24t20.5 31t6 38.5q0 78 -86.5 138t-219.5 60q-122 0 -212 -55.5t-126 -155.5l-210 66q29 82 87.5 144.5t135 99.5t161 55t175.5 18q105 0 198 -24t166.5 -70.5t116.5 -123t43 -173.5v-778h-211v197h-6q-63 -107 -182 -169.5
t-287 -62.5zM590 129q91 0 171.5 31t132 78t81 101t29.5 103v125q-97 -49 -308 -82q-43 -7 -74.5 -13.5t-77 -18t-77.5 -26.5t-62.5 -34.5t-46.5 -46.5t-16 -59q0 -75 69 -116.5t179 -41.5z" />
    <glyph glyph-name="acircumflex.ss02" horiz-adv-x="1183" 
d="M408 1278h-209l356 364h256l356 -364h-209q-186 154 -274 233q-24 -20 -123.5 -104.5t-152.5 -128.5zM547 -35q-122 0 -220 33.5t-160.5 106t-62.5 174.5q0 66 28.5 120t72.5 89t109.5 63t127 43.5t138.5 28.5q32 5 77 12t73 11.5t65 11.5t60 13t50 15t42.5 19.5t30 24
t20.5 31t6 38.5q0 78 -86.5 138t-219.5 60q-122 0 -212 -55.5t-126 -155.5l-210 66q29 82 87.5 144.5t135 99.5t161 55t175.5 18q105 0 198 -24t166.5 -70.5t116.5 -123t43 -173.5v-778h-211v197h-6q-63 -107 -182 -169.5t-287 -62.5zM590 129q91 0 171.5 31t132 78t81 101
t29.5 103v125q-97 -49 -308 -82q-43 -7 -74.5 -13.5t-77 -18t-77.5 -26.5t-62.5 -34.5t-46.5 -46.5t-16 -59q0 -75 69 -116.5t179 -41.5z" />
    <glyph glyph-name="adieresis.ss02" horiz-adv-x="1417" 
d="M477 1337q-61 0 -104 40t-43 96q0 53 43 92t104 39q62 0 104 -39t42 -92q0 -56 -42 -96t-104 -40zM950 1337q-62 0 -104.5 40t-42.5 96q0 53 42.5 92t104.5 39q61 0 104.5 -39t43.5 -92q0 -56 -43.5 -96t-104.5 -40zM547 -35q-122 0 -220 33.5t-160.5 106t-62.5 174.5
q0 66 28.5 120t72.5 89t109.5 63t127 43.5t138.5 28.5q32 5 77 12t73 11.5t65 11.5t60 13t50 15t42.5 19.5t30 24t20.5 31t6 38.5q0 78 -86.5 138t-219.5 60q-122 0 -212 -55.5t-126 -155.5l-210 66q29 82 87.5 144.5t135 99.5t161 55t175.5 18q105 0 198 -24t166.5 -70.5
t116.5 -123t43 -173.5v-778h-211v197h-6q-63 -107 -182 -169.5t-287 -62.5zM590 129q91 0 171.5 31t132 78t81 101t29.5 103v125q-97 -49 -308 -82q-43 -7 -74.5 -13.5t-77 -18t-77.5 -26.5t-62.5 -34.5t-46.5 -46.5t-16 -59q0 -75 69 -116.5t179 -41.5z" />
    <glyph glyph-name="agrave.ss02" horiz-adv-x="1417" 
d="M817 1278h-192l-373 385h280zM547 -35q-122 0 -220 33.5t-160.5 106t-62.5 174.5q0 66 28.5 120t72.5 89t109.5 63t127 43.5t138.5 28.5q32 5 77 12t73 11.5t65 11.5t60 13t50 15t42.5 19.5t30 24t20.5 31t6 38.5q0 78 -86.5 138t-219.5 60q-122 0 -212 -55.5
t-126 -155.5l-210 66q29 82 87.5 144.5t135 99.5t161 55t175.5 18q105 0 198 -24t166.5 -70.5t116.5 -123t43 -173.5v-778h-211v197h-6q-63 -107 -182 -169.5t-287 -62.5zM590 129q91 0 171.5 31t132 78t81 101t29.5 103v125q-97 -49 -308 -82q-43 -7 -74.5 -13.5t-77 -18
t-77.5 -26.5t-62.5 -34.5t-46.5 -46.5t-16 -59q0 -75 69 -116.5t179 -41.5z" />
    <glyph glyph-name="amacron.ss02" horiz-adv-x="1183" 
d="M1143 1386h-826v156h826v-156zM547 -35q-122 0 -220 33.5t-160.5 106t-62.5 174.5q0 66 28.5 120t72.5 89t109.5 63t127 43.5t138.5 28.5q32 5 77 12t73 11.5t65 11.5t60 13t50 15t42.5 19.5t30 24t20.5 31t6 38.5q0 78 -86.5 138t-219.5 60q-122 0 -212 -55.5
t-126 -155.5l-210 66q29 82 87.5 144.5t135 99.5t161 55t175.5 18q105 0 198 -24t166.5 -70.5t116.5 -123t43 -173.5v-778h-211v197h-6q-63 -107 -182 -169.5t-287 -62.5zM590 129q91 0 171.5 31t132 78t81 101t29.5 103v125q-97 -49 -308 -82q-43 -7 -74.5 -13.5t-77 -18
t-77.5 -26.5t-62.5 -34.5t-46.5 -46.5t-16 -59q0 -75 69 -116.5t179 -41.5z" />
    <glyph glyph-name="aogonek.ss02" horiz-adv-x="1417" 
d="M1176 -319q50 0 110 16v-146q-66 -14 -131 -14q-143 0 -238.5 62t-95.5 172q0 75 54 133.5t147 95.5v197h-6q-63 -107 -182 -169.5t-287 -62.5q-122 0 -220 33.5t-160.5 106t-62.5 174.5q0 66 28.5 120t72.5 89t109.5 63t127 43.5t138.5 28.5q32 5 77 12t73 11.5t65 11.5
t60 13t50 15t42.5 19.5t30 24t20.5 31t6 38.5q0 78 -86.5 138t-219.5 60q-122 0 -212 -55.5t-126 -155.5l-210 66q29 82 87.5 144.5t135 99.5t161 55t175.5 18q105 0 198 -24t166.5 -70.5t116.5 -123t43 -173.5v-778h-49q-99 -31 -150 -80.5t-51 -105.5q0 -58 54.5 -95.5
t138.5 -37.5zM1004 442v125q-97 -49 -308 -82q-43 -7 -74.5 -13.5t-77 -18t-77.5 -26.5t-62.5 -34.5t-46.5 -46.5t-16 -59q0 -75 69 -116.5t179 -41.5q91 0 171.5 31t132 78t81 101t29.5 103z" />
    <glyph glyph-name="aring.ss02" horiz-adv-x="1417" 
d="M715 1251q-123 0 -205 67t-82 167t82 166.5t205 66.5q119 0 200.5 -66.5t81.5 -166.5q0 -101 -81.5 -167.5t-200.5 -66.5zM715 1376q58 0 97.5 30t39.5 79q0 47 -39.5 76.5t-97.5 29.5q-62 0 -103 -29.5t-41 -76.5q0 -49 41 -79t103 -30zM547 -35q-122 0 -220 33.5
t-160.5 106t-62.5 174.5q0 66 28.5 120t72.5 89t109.5 63t127 43.5t138.5 28.5q32 5 77 12t73 11.5t65 11.5t60 13t50 15t42.5 19.5t30 24t20.5 31t6 38.5q0 78 -86.5 138t-219.5 60q-122 0 -212 -55.5t-126 -155.5l-210 66q29 82 87.5 144.5t135 99.5t161 55t175.5 18
q105 0 198 -24t166.5 -70.5t116.5 -123t43 -173.5v-778h-211v197h-6q-63 -107 -182 -169.5t-287 -62.5zM590 129q91 0 171.5 31t132 78t81 101t29.5 103v125q-97 -49 -308 -82q-43 -7 -74.5 -13.5t-77 -18t-77.5 -26.5t-62.5 -34.5t-46.5 -46.5t-16 -59q0 -75 69 -116.5
t179 -41.5z" />
    </font>
</defs>
</svg>
