<?xml version="1.0" standalone="no"?>
<!DOCTYPE svg PUBLIC "-//W3C//DTD SVG 1.1//EN" "http://www.w3.org/Graphics/SVG/1.1/DTD/svg11.dtd" >
<svg xmlns="http://www.w3.org/2000/svg" xmlns:xlink="http://www.w3.org/1999/xlink" version="1.1">
<metadata>
Created by FontForge 20170731 at Mon Mar 15 14:20:54 2021
 By Aleksey,,,
Copyright (c) 2020 by Matthieu Salvaggio x Blaze Type. All rights reserved.
</metadata>
<defs>
<font id="Area-BoldItalicExtended" horiz-adv-x="2457" >
  <font-face 
    font-family="Area Italic Extended"
    font-weight="700"
    font-style="italic"
    font-stretch="normal"
    units-per-em="2048"
    panose-1="0 0 8 0 0 0 0 0 0 0"
    ascent="1638"
    descent="-410"
    x-height="1137"
    cap-height="1597"
    bbox="-1911 -582 3185 2179"
    underline-thickness="102"
    underline-position="-307"
    slope="-10"
    unicode-range="U+0020-25CA"
  />
<missing-glyph horiz-adv-x="1718" 
d="M1393 0h-1266l283 1597h1265zM559 1448l-213 -1139l1057 1139h-844zM1452 1294l-1046 -1142h837z" />
    <glyph glyph-name=".notdef" horiz-adv-x="1718" 
d="M1393 0h-1266l283 1597h1265zM559 1448l-213 -1139l1057 1139h-844zM1452 1294l-1046 -1142h837z" />
    <glyph glyph-name=".null" horiz-adv-x="0" 
 />
    <glyph glyph-name="nonmarkingreturn" horiz-adv-x="682" 
 />
    <glyph glyph-name="space" unicode=" " horiz-adv-x="628" 
 />
    <glyph glyph-name="exclam" unicode="!" horiz-adv-x="655" 
d="M367 442h-127l125 1014l20 141h250l-23 -141zM227 -14q-59 0 -99 35.5t-40 89.5q0 68 56.5 118t129.5 50q59 0 98.5 -35.5t39.5 -89.5q0 -63 -56.5 -115.5t-128.5 -52.5z" />
    <glyph glyph-name="quotedbl" unicode="&#x22;" horiz-adv-x="921" 
d="M475 1106h-217l84 491h217zM854 1106h-217l82 491h217z" />
    <glyph glyph-name="numbersign" unicode="#" horiz-adv-x="1781" 
d="M1778 1102l-66 -172h-305l-135 -328h291l-64 -172h-297l-178 -430h-199l179 430h-445l-178 -430h-201l178 430h-282l63 172h289l135 328h-276l65 172h283l205 495h200l-204 -495h444l205 495h198l-204 -495h299zM629 602h444l135 328h-444z" />
    <glyph glyph-name="dollar" unicode="$" horiz-adv-x="1458" 
d="M850 877l53 -17q154 -41 220 -72q184 -89 184 -258q0 -173 -170 -299.5t-424 -136.5l-31 -176h-125l31 178q-188 16 -315 111t-158 262l211 63q52 -210 297 -243l73 418l-24 6q-398 97 -398 336q0 80 43 156t116.5 135t178 97t219.5 44l29 157h125l-29 -161
q171 -20 289 -109t135 -207l-202 -82q-21 80 -87 135t-167 72zM506 1092q0 -30 13 -55.5t33 -43.5t51.5 -34t60 -26.5t67.5 -21.5l68 379q-127 -7 -210 -63.5t-83 -134.5zM815 676l-70 -391q139 7 230.5 67.5t91.5 145.5q0 33 -15 59.5t-36.5 43.5t-58.5 32.5t-67 23.5
t-75 19z" />
    <glyph glyph-name="percent" unicode="%" horiz-adv-x="2119" 
d="M459 756q-132 0 -208.5 82.5t-76.5 228.5q0 122 54 229.5t152.5 174.5t215.5 67q132 0 208.5 -83.5t76.5 -229.5q0 -122 -54.5 -229.5t-152 -173.5t-215.5 -66zM385 0h-207l1624 1468h199zM479 911q56 0 106 48.5t78.5 121t28.5 146.5q0 75 -30.5 115t-86.5 40
q-85 0 -149 -99.5t-64 -217.5q0 -75 30 -114.5t87 -39.5zM1585 -29q-132 0 -208.5 83t-76.5 229q0 122 54 229.5t152.5 174.5t215.5 67q132 0 208.5 -84t76.5 -230q0 -122 -54.5 -229.5t-152 -173.5t-215.5 -66zM1606 127q56 0 106 48t78.5 120.5t28.5 146.5
q0 75 -30.5 115.5t-86.5 40.5q-85 0 -149 -99.5t-64 -217.5q0 -75 30 -114.5t87 -39.5z" />
    <glyph glyph-name="ampersand" unicode="&#x26;" horiz-adv-x="1705" 
d="M569 -35q-217 0 -359 96.5t-142 260.5q0 69 32 135.5t79 117.5t118 102.5t131 85.5t135 71q-92 96 -144 184t-52 178q0 115 74 215t202 159.5t277 59.5q193 0 308 -95t115 -237q0 -270 -466 -489l311 -301q96 128 176 295l201 -41q-118 -243 -246 -402l346 -358h-285
l-209 199q-270 -236 -602 -236zM768 934q75 36 126.5 66t104.5 72t80 91t27 105q0 81 -58.5 127.5t-160.5 46.5q-123 0 -205 -65.5t-82 -162.5q0 -66 43.5 -132.5t124.5 -147.5zM612 158q236 0 437 182l-373 362q-52 -24 -87 -41.5t-83.5 -44.5t-80 -52.5t-62 -57
t-45.5 -66.5t-15 -73q0 -97 88.5 -153t220.5 -56z" />
    <glyph glyph-name="quotesingle" unicode="'" horiz-adv-x="542" 
d="M475 1106h-217l84 491h217z" />
    <glyph glyph-name="parenleft" unicode="(" horiz-adv-x="784" 
d="M604 -307h-227q-128 153 -196 341.5t-68 391.5q0 314 159 624.5t441 546.5h227q-277 -238 -434.5 -548t-157.5 -625q0 -202 66 -390.5t190 -340.5z" />
    <glyph glyph-name="parenright" unicode=")" horiz-adv-x="782" 
d="M100 -307h-229q281 239 438.5 549.5t157.5 623.5q0 200 -66 388t-194 343h229q131 -155 197.5 -343.5t66.5 -389.5q0 -309 -157.5 -621t-442.5 -550z" />
    <glyph glyph-name="asterisk" unicode="*" horiz-adv-x="985" 
d="M635 1024h-129l37 193l-221 -99l-50 99l232 94l-197 94l80 100l188 -96l31 188h129l-35 -188l222 96l47 -98l-230 -96l195 -94l-80 -99l-184 99z" />
    <glyph glyph-name="plus" unicode="+" horiz-adv-x="1224" 
d="M735 709h359l-27 -168h-360l-56 -316h-192l55 316h-360l26 168h363l55 315h193z" />
    <glyph glyph-name="comma" unicode="," horiz-adv-x="565" 
d="M72 -270h-131l209 270q-40 13 -62 43t-22 68q0 67 56 117.5t132 50.5q59 0 98 -35.5t39 -89.5q0 -51 -54 -121.5t-265 -302.5z" />
    <glyph glyph-name="hyphen" unicode="-" horiz-adv-x="989" 
d="M846 535h-709l27 178h708z" />
    <glyph glyph-name="period" unicode="." horiz-adv-x="589" 
d="M213 -14q-60 0 -99.5 36t-39.5 89q0 67 56 117.5t130 50.5q58 0 97.5 -35t39.5 -88q0 -65 -55.5 -117.5t-128.5 -52.5z" />
    <glyph glyph-name="slash" unicode="/" horiz-adv-x="1064" 
d="M180 -135h-211l981 1773h213z" />
    <glyph glyph-name="zero" unicode="0" horiz-adv-x="1720" 
d="M752 -35q-275 0 -434.5 174.5t-159.5 476.5q0 150 42 298.5t122.5 276.5t188.5 227t248.5 155.5t293.5 56.5q274 0 433 -175.5t159 -477.5q0 -125 -30 -250t-84 -236.5t-134.5 -208.5t-178 -167t-217.5 -110t-249 -40zM782 170q105 0 201.5 45.5t169.5 123.5t128 179.5
t83.5 217.5t28.5 233q0 218 -96 337t-271 119q-172 0 -316.5 -118t-223 -300t-78.5 -378q0 -218 98 -338.5t276 -120.5z" />
    <glyph glyph-name="one" unicode="1" horiz-adv-x="962" 
d="M616 0h-233l219 1206q-83 -73 -204.5 -125t-256.5 -71l33 223q198 37 337 139t161 225h225z" />
    <glyph glyph-name="two" unicode="2" horiz-adv-x="1529" 
d="M1305 0h-1258l2 23q21 80 51 147t62.5 120.5t85 105.5t100.5 91t129.5 89t149.5 88t182 98q54 28 82.5 43t85 48t89.5 57t77 61.5t68 70.5t41.5 74.5t17.5 83.5q0 105 -90.5 168.5t-243.5 63.5q-202 0 -344.5 -110t-175.5 -286l-211 35q27 161 134 288.5t272.5 199
t359.5 71.5q246 0 394 -110t148 -293q0 -60 -19 -118.5t-48 -105t-71.5 -92t-82.5 -78.5t-89 -65.5t-82 -51.5t-70 -38q-60 -31 -149.5 -73.5t-142.5 -68t-121.5 -64.5t-112.5 -74t-87 -84.5t-71 -106.5h968z" />
    <glyph glyph-name="three" unicode="3" horiz-adv-x="1574" 
d="M672 -35q-246 0 -418.5 100t-204.5 265l217 96q27 -102 141 -180t298 -78q207 0 341 93t134 226q0 111 -102 174.5t-296 63.5h-190l26 180h195q190 0 316 85.5t126 209.5q0 107 -94 168.5t-246 61.5q-165 0 -292.5 -75.5t-173.5 -209.5l-207 45q67 193 267.5 316.5
t455.5 123.5q148 0 269.5 -42.5t196 -127t74.5 -196.5q0 -146 -113.5 -269.5t-279.5 -158.5l-2 -2q150 -25 235 -107.5t85 -214.5q0 -105 -57 -204t-155 -175t-241 -122t-305 -46z" />
    <glyph glyph-name="four" unicode="4" horiz-adv-x="1613" 
d="M1149 0h-227l65 367h-962l32 194l1149 1036h224l-185 -1040h275l-27 -190h-276zM1157 1300l-862 -743h721z" />
    <glyph glyph-name="five" unicode="5" horiz-adv-x="1574" 
d="M662 -35q-155 0 -288 43.5t-226 129t-121 200.5l206 111q38 -137 165.5 -212t293.5 -75q110 0 209 33.5t168.5 89.5t110.5 130t41 152q0 131 -103.5 210t-271.5 79q-140 0 -257.5 -54.5t-195.5 -142.5l-180 56l379 882h948l-31 -192h-782l-235 -504h4q68 59 184 96
t246 37q82 0 159 -15.5t147.5 -49.5t123 -83t83.5 -121t31 -159q0 -97 -39 -192t-112 -175.5t-171 -142t-224 -96.5t-262 -35z" />
    <glyph glyph-name="six" unicode="6" horiz-adv-x="1644" 
d="M743 -35q-287 0 -443.5 153.5t-156.5 436.5q0 132 37 265t104 251.5t164.5 221.5t214 177.5t258.5 117t291 42.5q276 0 430 -135l-157 -158q-130 95 -326 95q-268 0 -476.5 -178t-264.5 -453h4q77 108 231.5 173.5t323.5 65.5q109 0 208.5 -30.5t176.5 -86t122.5 -142.5
t45.5 -193q0 -120 -60.5 -233t-163.5 -199.5t-250.5 -138.5t-312.5 -52zM780 162q132 0 248.5 55t186 147.5t69.5 196.5q0 131 -106.5 213t-268.5 82q-134 0 -252.5 -57t-188 -149.5t-69.5 -194.5q0 -129 109 -211t272 -82z" />
    <glyph glyph-name="seven" unicode="7" horiz-adv-x="1431" 
d="M494 0h-246q28 149 115.5 334t218 375.5t311.5 380t379 335.5h-1084l29 191h1352l-29 -197q-204 -136 -389 -320t-318 -374t-221.5 -378.5t-117.5 -346.5z" />
    <glyph glyph-name="eight" unicode="8" horiz-adv-x="1613" 
d="M702 -35q-172 0 -309 50t-216 144t-79 216q0 158 125 289t316 174l2 4q-111 40 -171.5 116.5t-60.5 178.5q0 129 90 242t249 182t347 69q236 0 385.5 -104.5t149.5 -272.5q0 -135 -100 -249.5t-261 -161.5v-4q137 -33 219 -123.5t82 -218.5q0 -140 -100 -262
t-277.5 -195.5t-390.5 -73.5zM870 926q175 0 299.5 89.5t124.5 207.5q0 98 -91 159.5t-236 61.5q-176 0 -299 -86t-123 -207q0 -102 92.5 -163.5t232.5 -61.5zM729 158q213 0 357.5 105t144.5 247q0 117 -101.5 184.5t-279.5 67.5q-222 0 -363 -97t-141 -239
q0 -127 108 -197.5t275 -70.5z" />
    <glyph glyph-name="nine" unicode="9" horiz-adv-x="1669" 
d="M633 -35q-168 0 -316 58.5t-239 164.5l160 150q158 -180 411 -180q139 0 258 51.5t203 140.5t141 202.5t82 244.5h-4q-73 -117 -233.5 -191t-339.5 -74q-153 0 -277 55.5t-198 161t-74 242.5q0 121 60 236.5t164 204.5t256 143.5t323 54.5q131 0 237 -33.5t187 -102.5
t125.5 -184.5t44.5 -271.5q0 -127 -31.5 -256.5t-89.5 -248.5t-145 -223t-192.5 -180.5t-237.5 -120.5t-275 -44zM819 717q138 0 259.5 61.5t192 160.5t70.5 206q0 136 -107.5 213.5t-266.5 77.5q-140 0 -259.5 -58.5t-188 -155t-68.5 -204.5q0 -93 51 -162.5t133.5 -104
t183.5 -34.5z" />
    <glyph glyph-name="colon" unicode=":" horiz-adv-x="649" 
d="M383 866q-58 0 -97.5 36.5t-39.5 90.5q0 66 56 116t130 50q57 0 97 -35.5t40 -87.5q0 -65 -56.5 -117.5t-129.5 -52.5zM225 -14q-60 0 -99.5 36.5t-39.5 90.5q0 66 55.5 116t130.5 50q58 0 97 -35t39 -88q0 -64 -56 -117t-127 -53z" />
    <glyph glyph-name="semicolon" unicode=";" horiz-adv-x="708" 
d="M422 866q-59 0 -99 36.5t-40 90.5q0 66 57 116t129 50q59 0 99 -35.5t40 -87.5q0 -65 -56.5 -117.5t-129.5 -52.5zM125 -279h-137l213 279q-36 13 -57 44t-21 67q0 68 55.5 118t130.5 50q59 0 98 -35t39 -90q0 -50 -56 -125.5t-265 -307.5z" />
    <glyph glyph-name="less" unicode="&#x3c;" horiz-adv-x="1239" 
d="M1028 434l-24 -162l-848 236l32 219l932 236l-26 -162l-738 -185z" />
    <glyph glyph-name="equal" unicode="=" horiz-adv-x="1280" 
d="M1135 745h-924l27 168h923zM1061 313h-924l27 168h921z" />
    <glyph glyph-name="greater" unicode="&#x3e;" horiz-adv-x="1236" 
d="M1069 508l-930 -236l25 162l739 182l-674 185l25 162l848 -236z" />
    <glyph glyph-name="question" unicode="?" horiz-adv-x="1366" 
d="M692 416h-231v33q0 74 18 129.5t63.5 105.5t108 92.5t166.5 97.5q48 25 80 43.5t82 54t80 68t53 78t23 92.5q0 101 -88 160.5t-220 59.5q-154 0 -278 -85.5t-150 -222.5q-4 -24 -4 -51l-205 35q0 20 5 51q24 140 125.5 249.5t246.5 166.5t307 57q138 0 252 -42t186 -129
t72 -206q0 -52 -16.5 -103t-41 -91.5t-63 -81t-72.5 -68.5t-80 -59t-74 -47t-66 -37q-48 -27 -68 -38t-58 -35t-54.5 -38.5t-41 -39t-34.5 -46.5t-18.5 -51.5t-8.5 -62.5q0 -5 2 -20t2 -19zM520 -14q-60 0 -99.5 36t-39.5 89q0 66 56 117t128 51q59 0 99.5 -35.5t40.5 -89.5
q0 -65 -56.5 -116.5t-128.5 -51.5z" />
    <glyph glyph-name="at" unicode="@" horiz-adv-x="2349" 
d="M979 -195q-208 0 -375 51t-276 142t-166.5 215t-57.5 272q0 141 53 283.5t146.5 268t226.5 235.5t287 188.5t335 124t364 45.5q240 0 426.5 -76t293.5 -224t107 -349q0 -139 -54 -276t-143.5 -241.5t-215 -169.5t-259.5 -65q-136 0 -195.5 63t-35.5 157
q-104 -108 -235.5 -159.5t-260.5 -51.5q-162 0 -256 86t-94 227q0 75 29 153.5t78.5 148.5t119 132.5t148 108t167.5 72t175 26.5q124 0 205.5 -49.5t101.5 -138.5l68 161h165l-221 -565q-98 -242 82 -242q113 0 218 89t168 229t63 285q0 249 -176.5 388.5t-491.5 139.5
q-195 0 -380.5 -56t-332.5 -153t-259.5 -222t-173 -270.5t-60.5 -289.5q0 -261 190.5 -406t540.5 -145q384 0 676 164l67 -115q-170 -100 -378 -145.5t-404 -45.5zM1026 397q95 0 188 41t160 104t108.5 142.5t41.5 153.5q0 92 -61 143t-167 51q-95 0 -187.5 -40t-159 -102.5
t-107.5 -141.5t-41 -154q0 -93 58.5 -145t166.5 -52z" />
    <glyph glyph-name="A" unicode="A" horiz-adv-x="1832" 
d="M168 0h-244l1045 1597h264l477 -1597h-246q-15 47 -157 492h-809zM635 702h608q-134 439 -188 633h-4q-26 -39 -105.5 -159.5t-160 -243t-150.5 -230.5z" />
    <glyph glyph-name="B" unicode="B" horiz-adv-x="1751" 
d="M922 0h-781l283 1597h723q251 0 391.5 -98t140.5 -258q0 -145 -112.5 -264.5t-288.5 -159.5v-4q163 -26 249.5 -109t86.5 -215q0 -134 -89.5 -246t-248.5 -177.5t-354 -65.5zM530 901h439q206 0 332 78t126 197q0 108 -103.5 163.5t-272.5 55.5h-424q-6 -30 -30 -163.5
t-40.5 -217t-26.5 -113.5zM406 203h485q216 0 345.5 79.5t129.5 198.5q0 112 -108 170t-281 58h-473q-10 -51 -33 -165.5t-65 -340.5z" />
    <glyph glyph-name="C" unicode="C" horiz-adv-x="2054" 
d="M989 -35q-384 0 -614 190t-230 509q0 188 87.5 365t236 309t358 212t441.5 80q189 0 350 -55t274.5 -165.5t149.5 -262.5l-227 -82q-52 163 -206.5 260.5t-373.5 97.5q-176 0 -334.5 -63t-268.5 -166t-174.5 -236.5t-64.5 -273.5q0 -107 36 -194t97 -145t143.5 -98
t173 -57.5t189.5 -17.5q268 0 467 122.5t303 315.5l203 -71q-145 -271 -408 -422.5t-608 -151.5z" />
    <glyph glyph-name="D" unicode="D" horiz-adv-x="1968" 
d="M858 0h-717l283 1597h694q393 0 589 -170t196 -475q0 -147 -47 -287.5t-138 -260.5t-216 -210.5t-291.5 -142t-352.5 -51.5zM406 203h477q173 0 320.5 57.5t245.5 154.5t153 224.5t55 267.5q0 110 -30.5 194.5t-84.5 139.5t-134 90t-171.5 49.5t-204.5 14.5h-405
q-24 -129 -52.5 -271.5t-64 -335t-104.5 -585.5z" />
    <glyph glyph-name="E" unicode="E" horiz-adv-x="1605" 
d="M1386 0h-1245l283 1597h1221l-31 -202h-987l-26 -123q-26 -124 -66 -350h938l-31 -211h-938q-12 -61 -28.5 -147t-69.5 -357h1011z" />
    <glyph glyph-name="F" unicode="F" horiz-adv-x="1525" 
d="M1622 1597l-33 -206h-964l-90 -494h911l-31 -211h-917l-121 -686h-236l283 1597h1198z" />
    <glyph glyph-name="G" unicode="G" horiz-adv-x="2146" 
d="M961 -35q-372 0 -595 188.5t-223 503.5q0 126 39.5 249t110.5 230t174 198.5t225.5 156.5t270 102t303.5 37q191 0 353 -56.5t274 -167t147 -259.5l-228 -82q-53 166 -206 262t-371 96q-177 0 -336 -63t-269 -166t-174.5 -236.5t-64.5 -273.5q0 -109 37 -197t98.5 -145.5
t145 -96.5t172 -56t184.5 -17q268 0 472 124t267 322h-616l29 185h850l-140 -803h-186q6 40 20 129t27 176h-12q-131 -164 -327.5 -252t-450.5 -88z" />
    <glyph glyph-name="H" unicode="H" horiz-adv-x="1988" 
d="M1573 903l123 694h235l-282 -1597h-236l123 692h-1038l-121 -692h-236l283 1597h235l-122 -694h1036z" />
    <glyph glyph-name="I" unicode="I" horiz-adv-x="716" 
d="M377 0h-236l283 1597h235z" />
    <glyph glyph-name="J" unicode="J" horiz-adv-x="1466" 
d="M575 -35q-99 0 -186 19.5t-161.5 60t-122 103.5t-67.5 150.5t3 199.5l8 49l230 28l-9 -43q-18 -90 1.5 -161.5t68 -114t113.5 -64.5t143 -22q69 0 126.5 15.5t97 39t72.5 61t52 70.5t35 78t23 73.5t14 67.5l180 1022h234l-173 -979q-34 -182 -82 -287
q-164 -366 -600 -366z" />
    <glyph glyph-name="K" unicode="K" horiz-adv-x="1673" 
d="M375 0h-234l283 1597h233l-141 -792h8q471 374 1030 792h279q-397 -307 -895 -698q651 -897 653 -899h-282q-113 146 -292.5 385t-268.5 356l-281 -221q-4 -20 -28 -161.5t-64 -358.5z" />
    <glyph glyph-name="L" unicode="L" horiz-adv-x="1441" 
d="M659 1597l-245 -1390h932l-31 -207h-1174l283 1597h235z" />
    <glyph glyph-name="M" unicode="M" horiz-adv-x="2482" 
d="M379 0h-238l283 1597h289q49 -129 152.5 -398.5t178.5 -471t144 -397.5h4q71 95 260 351.5t337.5 455t348.5 460.5h287l-283 -1597h-237q26 140 65.5 341.5t74 388t79.5 450.5h-10q-41 -58 -82 -115t-73 -102.5t-78 -107.5t-71.5 -97.5t-80.5 -108.5t-78.5 -104.5
t-91 -121t-93 -123t-110.5 -145.5t-117 -155h-195q-118 301 -169 433t-132.5 353t-138.5 394h-8q-18 -95 -67 -386.5t-150 -793.5z" />
    <glyph glyph-name="N" unicode="N" horiz-adv-x="2019" 
d="M377 0h-236l283 1597h250q486 -708 821 -1222h6q18 99 96 507t132 715h233l-283 -1597h-247q-47 68 -356.5 513t-471.5 691h-4q-24 -132 -61.5 -316.5t-75.5 -389t-86 -498.5z" />
    <glyph glyph-name="O" unicode="O" horiz-adv-x="2158" 
d="M975 -35q-241 0 -430.5 88.5t-295.5 249t-106 365.5q0 148 57.5 292t162.5 264t243 211.5t310 143t352 51.5t334.5 -52t264 -144.5t171 -224t61.5 -285.5q0 -123 -41 -244.5t-114.5 -226.5t-178 -195.5t-227.5 -155t-268 -101t-295 -36.5zM1010 172q166 0 321 61
t267 161.5t179.5 233.5t67.5 271q0 230 -170.5 377t-437.5 147q-165 0 -320.5 -61t-269.5 -161t-183 -234t-69 -273q0 -152 79 -271.5t219.5 -185t316.5 -65.5z" />
    <glyph glyph-name="P" unicode="P" horiz-adv-x="1644" 
d="M424 1597h694q21 0 39 -0.5t61 -4.5t79 -10.5t85 -21t88 -34t79.5 -51.5t67.5 -71.5t44.5 -95.5t17.5 -122q0 -114 -52 -220t-143 -187.5t-224.5 -130t-286.5 -48.5h-492l-104 -600h-236zM520 811h424q211 0 349.5 90t138.5 240q0 134 -105 194t-283 60h-419z" />
    <glyph glyph-name="Q" unicode="Q" horiz-adv-x="2177" 
d="M1878 -76l-186 -133q-37 44 -114 134t-114 134q-239 -94 -481 -94q-244 0 -435.5 88.5t-298 249.5t-106.5 367q0 187 91 363t243 307t362 210.5t437 79.5q243 0 434.5 -88.5t298.5 -248t107 -361.5q0 -214 -120.5 -417.5t-330.5 -342.5q43 -47 115.5 -133t97.5 -115z
M1016 172q159 0 317 64q-21 24 -93.5 101t-166.5 185l187 131q54 -60 151.5 -171.5t126.5 -143.5q154 106 242 257.5t88 309.5q0 227 -173 372.5t-450 145.5q-171 0 -330 -61t-273.5 -161t-183.5 -233.5t-69 -273.5q0 -158 83.5 -278t225 -182t318.5 -62z" />
    <glyph glyph-name="R" unicode="R" horiz-adv-x="1710" 
d="M377 0h-236l283 1597h694q77 0 149.5 -10.5t149 -39.5t132.5 -73.5t92 -119.5t36 -172q0 -134 -70.5 -253.5t-201 -201.5t-295.5 -104v-2q37 -58 101 -151.5t130.5 -199t159.5 -270.5h-260l-387 606h-369q-13 -69 -19 -103t-10 -58.5t-24 -139t-55 -305.5zM514 801h430
q215 0 350.5 96t135.5 240q0 132 -105 196t-281 64h-417q-68 -353 -113 -596z" />
    <glyph glyph-name="S" unicode="S" horiz-adv-x="1587" 
d="M713 -35q-95 0 -182.5 17t-167 54t-141 91.5t-103.5 133.5t-56 175l228 72q18 -118 85 -196t160.5 -111t211.5 -33q196 0 330 83.5t134 203.5q0 41 -19 74.5t-46 55t-72 40.5t-81 30t-89 25l-10.5 3t-9.5 2.5t-11 2.5l-167 43q-43 11 -77 21.5t-83 29.5t-86 40t-77 52
t-66 66.5t-43 83.5t-17 102q0 98 54 190t147 161t226.5 111t283.5 42q251 0 404 -107t179 -270l-225 -82q-27 120 -130 189.5t-267 69.5q-178 0 -300 -76t-122 -180q0 -37 15.5 -69t46.5 -57t60 -43t75 -35t70.5 -24.5t66.5 -19.5l184 -52q166 -45 238 -79q206 -98 206 -287
q0 -102 -57 -200.5t-155.5 -174t-241.5 -122t-303 -46.5z" />
    <glyph glyph-name="T" unicode="T" horiz-adv-x="1556" 
d="M795 0h-234q24 137 252 1395h-631l31 202h1495l-31 -202h-630q-26 -139 -75 -424t-177 -971z" />
    <glyph glyph-name="U" unicode="U" horiz-adv-x="1845" 
d="M813 -35q-121 0 -220 23.5t-166.5 65.5t-116.5 101t-70 130t-27 151t12 166l181 995h233l-178 -979q-35 -203 61 -325.5t328 -122.5t371.5 124.5t175.5 323.5l178 979h233l-180 -995q-17 -98 -53.5 -185.5t-102.5 -171.5t-154.5 -145t-218.5 -98t-286 -37z" />
    <glyph glyph-name="V" unicode="V" horiz-adv-x="1832" 
d="M948 0h-266l-477 1597h246q62 -183 213.5 -690.5t193.5 -642.5h4q100 148 425.5 651t457.5 682h248z" />
    <glyph glyph-name="W" unicode="W" horiz-adv-x="2805" 
d="M819 0h-287l-313 1597h258q175 -855 248 -1294h4q78 139 331.5 590.5t393.5 703.5h264q33 -165 122.5 -610t135.5 -684h4q465 852 715 1294h260l-878 -1597h-287q-136 616 -250 1260h-4q-11 -20 -83 -150.5t-89.5 -161.5t-81 -145.5t-91 -162.5t-84.5 -148.5
t-95.5 -166.5t-90.5 -154t-102 -171z" />
    <glyph glyph-name="X" unicode="X" horiz-adv-x="1619" 
d="M199 0h-277q101 103 368.5 379.5t420.5 427.5v6q-50 78 -211.5 340.5t-280.5 443.5h270q53 -78 89.5 -146t101.5 -170t203 -292h4q46 45 260 260t356 348h271q-98 -97 -205 -215t-236 -249.5t-334 -319.5v-6q91 -140 255 -410t245 -397h-276q-65 103 -194.5 312.5
t-199.5 318.5h-4q-533 -538 -626 -631z" />
    <glyph glyph-name="Y" unicode="Y" horiz-adv-x="1697" 
d="M864 0h-231q9 46 31 182.5t69 384.5q-53 106 -135.5 250t-170 318t-212.5 462h252q70 -135 208 -406.5t208 -406.5h4q79 88 140 167t100.5 132t158 184.5t311.5 329.5h252q-122 -141 -420 -490t-462 -538q-78 -456 -103 -569z" />
    <glyph glyph-name="Z" unicode="Z" horiz-adv-x="1626" 
d="M1448 0h-1473l33 209q349 302 1378 1184v4q-745 0 -1118 -2l33 202h1409l-35 -208q-404 -347 -1384 -1178v-4h1188z" />
    <glyph glyph-name="bracketleft" unicode="[" horiz-adv-x="864" 
d="M639 -381h-576l347 1978h575l-29 -186h-356l-287 -1587h357z" />
    <glyph glyph-name="backslash" unicode="\" horiz-adv-x="1050" 
d="M842 -135h-211l-355 1773h209z" />
    <glyph glyph-name="bracketright" unicode="]" horiz-adv-x="866" 
d="M475 -381h-575l28 205h359l286 1587h-358l31 186h575z" />
    <glyph glyph-name="asciicircum" unicode="^" horiz-adv-x="1077" 
d="M391 1022h-180l412 575h206l209 -575h-180l-151 436h-7z" />
    <glyph glyph-name="underscore" unicode="_" horiz-adv-x="1257" 
d="M1065 -236h-1145l27 168h1145z" />
    <glyph glyph-name="a" unicode="a" horiz-adv-x="1419" 
d="M440 -35q-180 0 -285.5 72t-105.5 203q0 68 29 124t76.5 96t118.5 72.5t145.5 53t167.5 37.5q38 7 96 16t96 15.5t85 16.5t76.5 22t56.5 29t40 41.5t13 55.5q0 77 -73 127.5t-196 50.5t-223.5 -55.5t-155.5 -155.5l-198 66q44 82 113 144.5t151.5 99.5t171 55t180.5 18
q105 0 193 -24t152.5 -70.5t93.5 -123t12 -173.5l-76 -424q-21 -116 -25.5 -186t7.5 -168h-222q-15 92 4 195h-4q-84 -105 -216.5 -167.5t-297.5 -62.5zM512 129q92 0 177.5 30t145.5 76.5t100 100.5t50 106l23 123q-63 -29 -120 -42.5t-200 -37.5q-58 -11 -104 -21.5
t-104 -29.5t-96.5 -41.5t-65.5 -56.5t-27 -74q0 -62 59 -97.5t162 -35.5z" />
    <glyph glyph-name="b" unicode="b" horiz-adv-x="1636" 
d="M805 -35q-158 0 -274.5 61.5t-168.5 166.5h-6l-37 -193h-215l289 1638h219l-127 -706q105 117 246 177t299 60q235 0 375.5 -135t140.5 -356q0 -137 -58 -267.5t-156 -228.5t-236.5 -157.5t-290.5 -59.5zM793 160q141 0 262 67.5t190.5 177t69.5 232.5q0 152 -101.5 244
t-267.5 92q-143 0 -267 -67t-195.5 -177t-71.5 -233q0 -151 107 -243.5t274 -92.5z" />
    <glyph glyph-name="c" unicode="c" horiz-adv-x="1488" 
d="M682 -35q-272 0 -432 136t-160 366q0 136 60 263.5t164 224.5t254.5 155.5t320.5 58.5q129 0 238.5 -35.5t193 -113t115.5 -189.5l-224 -77q-28 107 -122.5 163t-229.5 56q-113 0 -214 -40t-170.5 -106t-109.5 -152.5t-40 -178.5q0 -156 106.5 -246t284.5 -90
q155 0 282 68t205 186l193 -76q-108 -178 -299.5 -275.5t-415.5 -97.5z" />
    <glyph glyph-name="d" unicode="d" horiz-adv-x="1642" 
d="M623 -35q-241 0 -386 135t-145 359q0 137 58 266.5t156 227t237.5 157t292.5 59.5q155 0 269 -59.5t169 -165.5h4l127 694h221l-227 -1284q-23 -126 -25.5 -211t8.5 -143h-221q-13 110 4 188h-6q-96 -110 -239 -166.5t-297 -56.5zM694 162q142 0 266 66.5t196.5 177
t72.5 233.5q0 152 -107 244t-274 92q-142 0 -262.5 -67.5t-189 -177.5t-68.5 -234q0 -150 100.5 -242t265.5 -92z" />
    <glyph glyph-name="e" unicode="e" horiz-adv-x="1376" 
d="M604 -35q-238 0 -382 132.5t-144 353.5q0 141 57 272.5t154 229.5t233 157t285 59q68 0 132 -13t126 -41.5t108.5 -74.5t80 -111t40.5 -150.5t-10 -194.5l-14 -76h-973q-20 -166 76 -261t266 -95q130 0 242 65t180 174l188 -76q-97 -160 -268 -255t-377 -95zM338 686h741
q11 79 -10.5 139.5t-67 95t-102.5 51.5t-123 17q-150 0 -268.5 -85t-169.5 -218z" />
    <glyph glyph-name="f" unicode="f" horiz-adv-x="886" 
d="M393 0h-219l172 950h-205l29 187h203l24 133q35 199 145.5 301t319.5 102q144 0 236 -43l-27 -180q-95 45 -194 45q-76 0 -125 -16.5t-76 -58t-35.5 -67t-21.5 -88.5l-3 -12l-22 -116h373l-29 -187h-373z" />
    <glyph glyph-name="g" unicode="g" horiz-adv-x="1638" 
d="M602 -483q-475 0 -561 329l211 66q62 -217 373 -217q200 0 336.5 114t177.5 314l20 98h-6q-94 -110 -230 -163.5t-290 -53.5q-240 0 -388.5 130t-148.5 351q0 132 58.5 257.5t157 219t236 150.5t286.5 57q157 0 274 -61t170 -168h6l37 197h215l-176 -1008
q-24 -136 -75.5 -241.5t-121 -174.5t-161 -113.5t-189 -63.5t-211.5 -19zM700 199q139 0 262.5 64.5t196 169.5t72.5 220q0 143 -108 232.5t-275 89.5q-84 0 -163.5 -24.5t-142.5 -68t-110.5 -100t-73.5 -124t-26 -136.5q0 -143 102 -233t266 -90z" />
    <glyph glyph-name="h" unicode="h" horiz-adv-x="1558" 
d="M324 0h-220l289 1638h219l-125 -696h7q191 227 497 227q76 0 142.5 -16t124.5 -50t94 -87.5t51.5 -128t-2.5 -172.5l-125 -715h-221l114 623q29 162 -47 256t-227 94q-180 0 -307.5 -101.5t-155.5 -261.5z" />
    <glyph glyph-name="i" unicode="i" horiz-adv-x="624" 
d="M455 1360q-59 0 -98.5 35.5t-39.5 87.5q0 66 56 116t131 50q58 0 97.5 -35t39.5 -88q0 -65 -56.5 -115.5t-129.5 -50.5zM324 0h-220l199 1137h221z" />
    <glyph glyph-name="j" unicode="j" horiz-adv-x="624" 
d="M459 1360q-60 0 -100 35t-40 88q0 66 56 116t131 50q60 0 98.5 -35t38.5 -88q0 -65 -55 -115.5t-129 -50.5zM-164 -483q-148 0 -254 49l29 184q107 -49 211 -49q37 0 69 7t56 16.5t45 28t34.5 33t26 40t19 40.5t13.5 43.5t9.5 40t7.5 38.5l201 1149h221l-202 -1151
q-27 -154 -63 -232q-111 -236 -423 -237z" />
    <glyph glyph-name="k" unicode="k" horiz-adv-x="1316" 
d="M1102 1137h266l-588 -457l469 -680h-258l-385 543l-213 -166l-69 -377h-220l289 1638h219l-178 -997h4q109 83 325.5 243t338.5 253z" />
    <glyph glyph-name="l" unicode="l" horiz-adv-x="624" 
d="M324 0h-220l289 1638h219z" />
    <glyph glyph-name="m" unicode="m" horiz-adv-x="2461" 
d="M324 0h-220l199 1137h215l-35 -195h4q93 112 226 169.5t272 57.5q90 0 169 -23.5t141 -80.5t79 -141h6q218 245 521 245q92 0 171.5 -27t140 -79.5t86.5 -142.5t5 -205l-125 -715h-221l113 623q30 163 -44 256.5t-217 93.5q-172 0 -297 -102.5t-153 -260.5l-109 -610
h-221l115 623q30 163 -44 256.5t-218 93.5q-171 0 -297 -102.5t-154 -260.5z" />
    <glyph glyph-name="n" unicode="n" horiz-adv-x="1558" 
d="M324 0h-220l199 1137h215l-35 -195h4q94 112 226.5 169.5t279.5 57.5q97 0 177.5 -26t141 -78t85.5 -142t4 -208l-125 -715h-221l114 623q29 162 -47 256t-229 94q-179 0 -306 -102t-155 -261z" />
    <glyph glyph-name="o" unicode="o" horiz-adv-x="1576" 
d="M682 -35q-270 0 -431 136.5t-161 365.5q0 107 38 211t110.5 192t169.5 155.5t223 105.5t264 38q270 0 431 -137.5t161 -367.5q0 -134 -60 -260.5t-163.5 -223.5t-256 -156t-325.5 -59zM713 160q115 0 217 40t172 106.5t110.5 154t40.5 180.5q0 153 -104.5 242.5
t-282.5 89.5q-115 0 -217.5 -41t-172 -108t-110 -153.5t-40.5 -176.5q0 -152 105 -243t282 -91z" />
    <glyph glyph-name="p" unicode="p" horiz-adv-x="1636" 
d="M244 -451h-219l278 1588h215l-37 -207h4q106 120 247.5 179.5t295.5 59.5q235 0 376.5 -133.5t141.5 -355.5q0 -138 -58 -269t-156.5 -229t-237 -157.5t-289.5 -59.5q-158 0 -275.5 62t-171.5 166zM793 160q141 0 262 68.5t189.5 178.5t68.5 232q0 150 -101 242t-266 92
q-107 0 -206.5 -40t-171 -105.5t-114 -152.5t-42.5 -179q0 -149 106.5 -242.5t274.5 -93.5z" />
    <glyph glyph-name="q" unicode="q" horiz-adv-x="1638" 
d="M1257 -451h-221l117 654q-101 -116 -242.5 -177t-298.5 -61q-235 0 -377.5 136t-142.5 360q0 137 58 266t156 226.5t236.5 156.5t291.5 59q157 0 274 -61t170 -168h4l37 197h217zM692 162q144 0 268 67t195.5 176.5t71.5 233.5q0 152 -106.5 244t-272.5 92
q-142 0 -263 -67.5t-190 -177.5t-69 -234q0 -151 101 -242.5t265 -91.5z" />
    <glyph glyph-name="r" unicode="r" horiz-adv-x="1026" 
d="M324 0h-220l199 1137h215l-39 -207h10q72 103 198.5 171t268.5 68q79 0 144 -22l-35 -229q-67 24 -166 24q-105 0 -193 -40.5t-145.5 -106.5t-93.5 -141t-51 -154z" />
    <glyph glyph-name="s" unicode="s" horiz-adv-x="1222" 
d="M528 -35q-206 0 -344 87.5t-166 232.5l213 61q33 -100 124 -154.5t208 -54.5q123 0 210 53t87 127q0 34 -17.5 59t-51.5 41t-67.5 26.5t-80.5 21.5q-7 1 -10 2l-127 33q-26 7 -37 10t-42.5 13t-49 17.5t-48 22.5t-48.5 29t-40.5 36t-34.5 45t-21 53.5t-9 64.5
q0 153 152.5 265.5t373.5 112.5q182 0 303 -78.5t146 -203.5l-217 -66q-21 76 -89 126t-179 50t-188 -49t-77 -117q0 -25 10.5 -46.5t32.5 -38t44 -28.5t56.5 -23.5t58 -17.5t59.5 -15l114 -29q33 -8 49.5 -12.5t51.5 -14.5t55.5 -20.5t50 -26t47.5 -35t36 -43.5t26 -55.5
t8 -67.5q0 -159 -163.5 -276t-408.5 -117z" />
    <glyph glyph-name="t" unicode="t" horiz-adv-x="966" 
d="M555 -35q-76 0 -133.5 15.5t-92 38.5t-55.5 59t-29 67.5t-7.5 74t4 69t10.5 61.5l110 598h-270l29 189h270l58 329h221l-58 -329h400l-27 -189h-403l-101 -528q-5 -27 -7 -39.5t-5 -39.5t-2.5 -41t3 -37t9.5 -36t18.5 -29t29 -24t42.5 -14t56 -6q102 0 219 51l-29 -191
q-110 -49 -260 -49z" />
    <glyph glyph-name="u" unicode="u" horiz-adv-x="1538" 
d="M569 -35q-101 0 -182.5 26.5t-141 80t-83 144t-2.5 208.5l125 713h221l-115 -639q-30 -168 48.5 -253t217.5 -85q117 0 215 51t155.5 129.5t74.5 169.5l110 627h222l-138 -783q-22 -120 -25.5 -199.5t7.5 -154.5h-223q-10 112 4 176h-6q-181 -211 -484 -211z" />
    <glyph glyph-name="v" unicode="v" horiz-adv-x="1355" 
d="M707 0h-254l-322 1137h240q48 -167 136.5 -489t110.5 -402h5q481 754 569 891h235z" />
    <glyph glyph-name="w" unicode="w" horiz-adv-x="2248" 
d="M657 0h-243l-281 1137h246l207 -865h6l530 865h207l221 -865h4l519 865h245l-680 -1137h-252q-127 506 -200 842h-4q-222 -367 -525 -842z" />
    <glyph glyph-name="x" unicode="x" horiz-adv-x="1290" 
d="M180 0h-252q34 35 126 129t181.5 182.5t266.5 261.5v5q-331 495 -373 559h254q239 -356 285 -426h6q40 38 119 116t156.5 153t164.5 157h250q-45 -44 -153.5 -148t-207 -201t-210.5 -210v-5q243 -380 372 -573h-247q-230 344 -289 430h-4q-53 -52 -203 -193t-242 -237z
" />
    <glyph glyph-name="y" unicode="y" horiz-adv-x="1363" 
d="M414 -451h-221l274 420l-340 1168h244q68 -235 250 -893h6q380 598 573 893h238z" />
    <glyph glyph-name="z" unicode="z" horiz-adv-x="1226" 
d="M1067 0h-1092l27 170l887 776h-707l29 191h1003l-24 -170l-891 -777h797z" />
    <glyph glyph-name="braceleft" unicode="{" horiz-adv-x="962" 
d="M756 -303h-113q-277 0 -387 102.5t-72 331.5l31 174q11 67 12.5 109t-4 69t-25.5 39.5t-44 16.5t-68 4l35 209h4q25 0 36.5 0.5t31 2.5t29 6t24 12t22.5 20t19 29.5t18 41t14.5 55t14.5 70.5l31 174q13 72 32.5 128t63 116t107.5 99.5t169 65t242 25.5h113l-29 -186h-94
q-81 0 -140.5 -11t-111.5 -38.5t-85 -79t-48 -127.5l-31 -164q-31 -170 -80 -245t-151 -99v-4q95 -21 117.5 -95.5t-9.5 -244.5l-29 -164q-25 -131 38 -193.5t251 -62.5h94z" />
    <glyph glyph-name="bar" unicode="|" horiz-adv-x="651" 
d="M246 -451h-197l369 2089h196z" />
    <glyph glyph-name="braceright" unicode="}" horiz-adv-x="962" 
d="M12 -303h-110l28 186h95q171 0 264.5 56.5t120.5 199.5l28 164q31 167 78.5 242t155.5 98l2 4q-95 25 -119 97t6 247l31 164q7 44 8 82.5t-15.5 70.5t-48 55t-90.5 35.5t-143 12.5h-92l25 186h112q283 0 392.5 -104t68.5 -330l-31 -174q-9 -49 -12.5 -85t-3.5 -62
t9 -42.5t18 -26.5t29.5 -14.5t38.5 -5.5t50 -1l-33 -209q-55 0 -84 -6t-55.5 -31t-43 -71.5t-32.5 -129.5l-32 -174q-15 -77 -37 -135t-66.5 -117t-108.5 -96.5t-166.5 -61.5t-236.5 -24z" />
    <glyph glyph-name="asciitilde" unicode="~" horiz-adv-x="1318" 
d="M864 522q-63 0 -118 21t-87.5 45.5t-75 45.5t-83.5 21q-60 0 -98 -37.5t-48 -89.5h-184q24 140 124 220.5t224 80.5q59 0 111 -20t83.5 -43.5t73.5 -43.5t84 -20q60 0 94 34t44 89h184q-25 -147 -115.5 -225t-212.5 -78z" />
    <glyph glyph-name="uni00A0" unicode="&#xa0;" horiz-adv-x="628" 
 />
    <glyph glyph-name="exclamdown" unicode="&#xa1;" horiz-adv-x="618" 
d="M369 877q-59 0 -99.5 35t-40.5 87q0 65 57.5 117.5t131.5 52.5q58 0 96.5 -36.5t38.5 -90.5q0 -67 -56 -116t-128 -49zM256 -442h-250l23 139l247 1012h125l-122 -1012z" />
    <glyph glyph-name="cent" unicode="&#xa2;" horiz-adv-x="1370" 
d="M866 1081l-121 -682q110 10 202.5 62.5t146.5 134.5l153 -59q-79 -130 -220.5 -209t-307.5 -88l-43 -240h-125l43 242q-188 21 -301 129t-113 284q0 141 75 268t211 212.5t304 101.5l41 229h123l-41 -227q145 -9 250.5 -77t140.5 -189l-176 -64q-18 74 -83.5 118.5
t-158.5 53.5zM373 680q0 -116 68 -187.5t182 -89.5l118 674q-161 -24 -264.5 -140t-103.5 -257z" />
    <glyph glyph-name="sterling" unicode="&#xa3;" horiz-adv-x="1515" 
d="M809 651q0 -126 -106.5 -250.5t-290.5 -210.5h931l-30 -190h-1276l26 193q233 63 369.5 180t136.5 241q0 39 -18 95h-379l21 125h284q-4 5 -18.5 26.5t-19 28.5t-17.5 27.5t-18.5 30t-16 29.5t-15 32.5t-11 32t-9.5 35.5t-5.5 35.5t-2.5 39.5q0 97 47 185t128 153
t197 103t247 38q70 0 136.5 -10.5t138.5 -39.5t126.5 -74t94 -120.5t48.5 -173.5l-223 -79q-12 87 -47.5 149t-86.5 93.5t-103.5 45t-112.5 13.5q-147 0 -246.5 -75t-99.5 -190q0 -46 18 -93t39.5 -79.5t56 -82t52.5 -80.5h512l-21 -125h-442q6 -27 6 -58z" />
    <glyph glyph-name="currency" unicode="&#xa4;" horiz-adv-x="1626" 
d="M1339 889q0 -176 -139 -309l256 -308l-160 -114l-262 313q-117 -49 -246 -49q-131 0 -233 51l-371 -315l-123 114l367 314q-49 81 -49 180q0 172 135 307l-254 307l160 115l260 -311q114 51 250 51q133 0 235 -51l367 311l125 -115l-367 -311q49 -76 49 -180zM573 791
q0 -95 65.5 -151t174.5 -56q138 0 234 84t96 202q0 95 -63.5 149t-172.5 54q-139 0 -236.5 -83t-97.5 -199z" />
    <glyph glyph-name="yen" unicode="&#xa5;" horiz-adv-x="1759" 
d="M893 0h-234l46 254h-443l23 154h444l33 153h-445l25 156h377l-465 880h252q71 -136 202 -388t205 -394h5q78 87 137 161t95.5 121.5t152 173.5t311.5 326h250l-779 -880h383l-24 -156h-449l-30 -153h446l-22 -154h-449z" />
    <glyph glyph-name="brokenbar" unicode="&#xa6;" horiz-adv-x="651" 
d="M473 836h-197l142 802h196zM246 -451h-197l139 797h197z" />
    <glyph glyph-name="section" unicode="&#xa7;" horiz-adv-x="1323" 
d="M524 -301q-208 0 -350.5 92t-167.5 240l205 57q31 -106 126.5 -166.5t217.5 -60.5q117 0 203 54t86 128q0 42 -36.5 74.5t-70 45.5t-109.5 36q-4 2 -6.5 2.5t-5.5 1.5l-124 41q-64 20 -114 42.5t-99.5 55.5t-77 79t-27.5 101q0 102 83 186.5t220 114.5v2
q-188 81 -188 240q0 155 151.5 268t384.5 113q115 0 206.5 -31t154.5 -99.5t78 -168.5l-215 -64q-19 100 -80.5 150.5t-175.5 50.5q-122 0 -201.5 -51t-79.5 -123q0 -30 15 -55.5t36.5 -42.5t54.5 -32.5t60 -24.5t63 -20q5 -1 9 -2.5t8 -2.5l135 -39q48 -14 79.5 -24.5
t77.5 -33.5t74 -48t49 -64.5t21 -87.5q0 -104 -88.5 -194t-220.5 -122l-2 -4q192 -69 192 -229q0 -155 -157 -270t-394 -115zM621 399l55 -14q133 7 214 66t81 135q0 22 -6.5 40t-22.5 31.5t-30.5 23t-41.5 19t-44.5 14.5t-50.5 14q-13 3 -19 5l-82 23q-63 16 -130.5 -7
t-112 -71.5t-44.5 -102.5q0 -32 17 -59t39.5 -44t59 -33t60 -23.5t58.5 -16.5z" />
    <glyph glyph-name="copyright" unicode="&#xa9;" horiz-adv-x="2310" 
d="M1051 -35q-256 0 -453 88.5t-304.5 249t-107.5 369.5q0 187 90.5 362.5t244.5 306.5t370.5 210t454.5 79q256 0 452.5 -87.5t304 -247.5t107.5 -369q0 -187 -90.5 -363t-244 -307.5t-370 -211t-454.5 -79.5zM1073 98q204 0 388 67t314 177.5t206.5 258.5t76.5 306
q0 265 -202 428.5t-531 163.5q-164 0 -316 -42.5t-272.5 -119t-211 -177.5t-139 -222t-48.5 -248q0 -178 92 -312.5t259 -207t384 -72.5zM1133 348q-205 0 -328 103.5t-123 275.5q0 101 46 196t124.5 166.5t192 114.5t239.5 43q164 0 274.5 -71t141.5 -199l-168 -53
q-21 88 -92.5 135t-175.5 47q-88 0 -164.5 -31.5t-127.5 -83t-80.5 -117t-29.5 -133.5q0 -123 84.5 -186t214.5 -63q119 0 216 55.5t159 157.5l145 -46q-81 -149 -225 -230t-323 -81z" />
    <glyph glyph-name="guillemotleft" unicode="&#xab;" horiz-adv-x="1449" 
d="M690 164h-244l-319 405l2 9l465 405h242l-465 -405l-2 -9zM1221 164h-240l-322 405l5 9l462 405h242l-467 -405l-2 -9z" />
    <glyph glyph-name="logicalnot" unicode="&#xac;" horiz-adv-x="1259" 
d="M1022 215h-193l60 336h-723l27 170h913z" />
    <glyph glyph-name="registered" unicode="&#xae;" horiz-adv-x="1386" 
d="M721 731q-209 0 -338 106t-129 277q0 101 48.5 196t131.5 166.5t200.5 114.5t246.5 43q205 0 337 -104.5t132 -278.5q0 -134 -82.5 -253.5t-228.5 -193t-318 -73.5zM737 821q107 0 202 35.5t160.5 93.5t103.5 134t38 155q0 137 -104 222t-271 85q-140 0 -257.5 -58.5
t-184 -155t-66.5 -206.5q0 -137 104.5 -221t274.5 -84zM670 942h-103l86 492h221q86 0 135.5 -35t49.5 -96q0 -59 -45 -108.5t-117 -66.5l121 -186h-117l-110 178h-89zM743 1352l-26 -150h112q52 0 85.5 24t33.5 60q0 34 -27 50t-71 16h-107z" />
    <glyph glyph-name="degree" unicode="&#xb0;" horiz-adv-x="917" 
d="M541 1051q-135 0 -220 71t-85 185q0 136 121 239t290 103q134 0 219.5 -71t85.5 -183q0 -136 -121.5 -240t-289.5 -104zM561 1176q99 0 172.5 61t73.5 141q0 64 -51 106t-129 42q-98 0 -171 -62t-73 -141q0 -66 50 -106.5t128 -40.5z" />
    <glyph glyph-name="plusminus" unicode="&#xb1;" horiz-adv-x="1284" 
d="M1155 813l-27 -164h-374l-37 -205h377l-27 -159h-940l25 159h372l37 205h-373l25 164h375l41 238h192l-43 -238h377z" />
    <glyph glyph-name="uni00B2" unicode="&#xb2;" horiz-adv-x="796" 
d="M748 772h-617l4 21q30 129 94.5 198.5t247.5 161.5q1 1 16.5 8.5t21.5 10.5t22 12t24 14.5t23 15.5t23 17.5t18.5 18t16 20t9.5 21t4 22.5q0 34 -30.5 53.5t-81.5 19.5q-72 0 -125 -39.5t-66 -107.5l-159 23q21 123 128 199.5t250 76.5q121 0 196 -55.5t75 -147.5
q0 -80 -62 -145t-141 -100q-24 -13 -74.5 -36.5t-74 -36t-53 -37t-46.5 -52.5h379z" />
    <glyph glyph-name="uni00B3" unicode="&#xb3;" horiz-adv-x="806" 
d="M426 756q-122 0 -206.5 48t-98.5 124l166 71q36 -104 159 -104q71 0 118.5 33t47.5 80q0 84 -145 84h-86l16 118h92q66 0 115 30t49 75q0 36 -33 58t-85 22q-60 0 -104.5 -29t-63.5 -80l-158 33q30 93 131.5 156t228.5 63q113 0 191 -47t78 -127q0 -65 -51 -122.5
t-121 -70.5v-2q59 -9 98 -49.5t39 -97.5q0 -103 -110 -184.5t-267 -81.5z" />
    <glyph glyph-name="paragraph" unicode="&#xb6;" horiz-adv-x="1810" 
d="M963 -287h-232l166 942h-229q-227 0 -360.5 109t-133.5 295q0 108 50.5 206t140.5 171.5t224 117t292 43.5h413zM1393 -287h-234l332 1884h233z" />
    <glyph glyph-name="periodcentered" unicode="&#xb7;" horiz-adv-x="692" 
d="M358 477q-73 0 -122.5 45t-49.5 111q0 79 69.5 141t158.5 62q72 0 120 -43t48 -107q0 -79 -68 -144t-156 -65z" />
    <glyph glyph-name="uni00B9" unicode="&#xb9;" horiz-adv-x="565" 
d="M455 772h-176l88 490q-100 -65 -205 -84l28 176q89 23 150 69.5t70 98.5h174z" />
    <glyph glyph-name="guillemotright" unicode="&#xbb;" horiz-adv-x="1452" 
d="M330 164h-244l465 405l2 9l-322 405h244l320 -405l-2 -9zM860 164h-242l467 405l2 9l-321 405h240l321 -405l-4 -9z" />
    <glyph glyph-name="onequarter" unicode="&#xbc;" horiz-adv-x="1712" 
d="M455 772h-176l88 490q-100 -65 -205 -84l28 176q89 23 150 69.5t70 98.5h174zM96 0h-207l1624 1468h199zM1425 -12h-172l29 149h-422l21 133l508 467h165l-79 -461h114l-22 -139h-113zM1350 524l-297 -248h250z" />
    <glyph glyph-name="onehalf" unicode="&#xbd;" horiz-adv-x="1771" 
d="M455 772h-176l88 490q-100 -65 -205 -84l28 176q89 23 150 69.5t70 98.5h174zM96 0h-207l1624 1468h199zM1585 -12h-616l4 20q21 88 52.5 142.5t97.5 105t192 113.5l19 9.5l24 12t24.5 13.5t27 17t25 17.5t24 20t17.5 21t13 24t4 24.5q0 34 -31 54t-82 20
q-72 0 -124.5 -39.5t-65.5 -107.5l-160 22q21 123 128.5 200t250.5 77q121 0 195.5 -55.5t74.5 -147.5q0 -80 -61.5 -145.5t-140.5 -100.5q-24 -13 -74.5 -36.5t-74 -36t-53 -37t-46.5 -52.5h379z" />
    <glyph glyph-name="threequarters" unicode="&#xbe;" horiz-adv-x="1953" 
d="M426 756q-122 0 -206.5 48t-98.5 124l166 71q36 -104 159 -104q71 0 118.5 33t47.5 80q0 84 -145 84h-86l16 118h92q66 0 115 30t49 75q0 36 -33 58t-85 22q-60 0 -104.5 -29t-63.5 -80l-158 33q30 93 131.5 156t228.5 63q113 0 191 -47t78 -127q0 -65 -51 -122.5
t-121 -70.5v-2q59 -9 98 -49.5t39 -97.5q0 -103 -110 -184.5t-267 -81.5zM338 0h-207l1624 1468h199zM1667 -12h-172l29 149h-422l20 133l508 467h166l-80 -461h115l-23 -139h-112zM1591 524l-297 -248h250z" />
    <glyph glyph-name="questiondown" unicode="&#xbf;" horiz-adv-x="1343" 
d="M795 877q-60 0 -100 35t-40 87q0 66 56.5 118t128.5 52q59 0 99 -36.5t40 -90.5q0 -65 -55.5 -115t-128.5 -50zM487 -475q-142 0 -257 43.5t-185 130.5t-70 203q0 53 17.5 104.5t41 91t64.5 81.5t72 68t81 59t72.5 46.5t63.5 36.5q141 79 186 115q87 71 97 171q2 29 0 62
h229q4 -85 -12.5 -147t-63.5 -115t-110 -95t-168 -97q-49 -26 -79.5 -43.5t-82 -53.5t-82 -69t-54.5 -79.5t-24 -94.5q0 -100 87.5 -159.5t221.5 -59.5q109 0 205 41.5t160.5 125t69.5 191.5l202 -35q-8 -118 -68 -217.5t-154 -165.5t-213 -102.5t-247 -36.5z" />
    <glyph glyph-name="Agrave" unicode="&#xc0;" horiz-adv-x="1832" 
d="M1253 1720h-200l-344 340h303zM168 0h-244l1045 1597h264l477 -1597h-246q-15 47 -157 492h-809zM635 702h608q-134 439 -188 633h-4q-26 -39 -105.5 -159.5t-160 -243t-150.5 -230.5z" />
    <glyph glyph-name="Aacute" unicode="&#xc1;" horiz-adv-x="1832" 
d="M1665 2060l-459 -340h-202l362 340h299zM168 0h-244l1045 1597h264l477 -1597h-246q-15 47 -157 492h-809zM635 702h608q-134 439 -188 633h-4q-26 -39 -105.5 -159.5t-160 -243t-150.5 -230.5z" />
    <glyph glyph-name="Acircumflex" unicode="&#xc2;" horiz-adv-x="1832" 
d="M1298 2050l275 -330h-205q-129 115 -211 193q-18 -13 -58 -42t-59 -42.5t-64 -43t-104 -65.5h-204l387 330h243zM168 0h-244l1045 1597h264l477 -1597h-246q-15 47 -157 492h-809zM635 702h608q-134 439 -188 633h-4q-26 -39 -105.5 -159.5t-160 -243t-150.5 -230.5z" />
    <glyph glyph-name="Atilde" unicode="&#xc3;" horiz-adv-x="1832" 
d="M1325 1739q-55 0 -94 15t-80 46l-49 35q-58 43 -105 43q-52 0 -89 -35t-48 -88h-162q23 126 113.5 204.5t208.5 78.5q87 0 168 -60l49 -34q52 -41 106 -41q49 0 82.5 32.5t44.5 87.5h164q-23 -134 -104.5 -209t-204.5 -75zM168 0h-244l1045 1597h264l477 -1597h-246
q-15 47 -157 492h-809zM635 702h608q-134 439 -188 633h-4q-26 -39 -105.5 -159.5t-160 -243t-150.5 -230.5z" />
    <glyph glyph-name="Adieresis" unicode="&#xc4;" horiz-adv-x="1832" 
d="M877 1759q-57 0 -95.5 33.5t-38.5 85.5q0 64 53 111t124 47q57 0 94 -32.5t37 -82.5q0 -64 -52 -113t-122 -49zM1378 1759q-59 0 -97 33.5t-38 83.5q0 65 53.5 112.5t124.5 47.5q57 0 95 -33t38 -84q0 -61 -53 -110.5t-123 -49.5zM168 0h-244l1045 1597h264l477 -1597
h-246q-15 47 -157 492h-809zM635 702h608q-134 439 -188 633h-4q-26 -39 -105.5 -159.5t-160 -243t-150.5 -230.5z" />
    <glyph glyph-name="Aring" unicode="&#xc5;" horiz-adv-x="1832" 
d="M1118 1712q-109 0 -178.5 56.5t-69.5 144.5q0 105 97 185.5t231 80.5q110 0 179 -56.5t69 -144.5q0 -106 -96.5 -186t-231.5 -80zM1139 1837q66 0 112.5 38t46.5 89q0 39 -33.5 63.5t-86.5 24.5q-67 0 -113.5 -37t-46.5 -88q0 -41 34 -65.5t87 -24.5zM168 0h-244
l1045 1597h264l477 -1597h-246q-15 47 -157 492h-809zM635 702h608q-134 439 -188 633h-4q-26 -39 -105.5 -159.5t-160 -243t-150.5 -230.5z" />
    <glyph glyph-name="AE" unicode="&#xc6;" horiz-adv-x="2566" 
d="M109 0h-259l1397 1597h1358l-33 -202h-985q-28 -148 -92 -473h938l-33 -211h-938q-50 -253 -96 -504h1012l-33 -207h-1245q10 45 31 175.5t61 309.5h-635q-40 -42 -126.5 -129t-155.5 -163t-166 -193zM717 698h506q4 19 33 163t96 534h-4q-73 -80 -200 -221t-232.5 -258
t-198.5 -218z" />
    <glyph glyph-name="Ccedilla" unicode="&#xc7;" horiz-adv-x="2054" 
d="M1032 172q268 0 467 122.5t303 315.5l203 -71q-142 -265 -396 -416t-589 -158l-102 -98q40 12 86 12q92 0 148 -41t56 -112q0 -96 -95 -164t-236 -68q-93 0 -173 32t-124 89l94 84q34 -45 91 -69.5t118 -24.5q73 0 122.5 31t49.5 75q0 34 -35.5 55t-89.5 21
q-65 0 -117 -27l-70 60l144 149q-342 26 -542 212t-200 483q0 188 87.5 365t236 309t358 212t441.5 80q189 0 350 -55t274.5 -165.5t149.5 -262.5l-227 -82q-52 163 -206.5 260.5t-373.5 97.5q-176 0 -334.5 -63t-268.5 -166t-174.5 -236.5t-64.5 -273.5q0 -107 36 -194
t97 -145t143.5 -98t173 -57.5t189.5 -17.5z" />
    <glyph glyph-name="Egrave" unicode="&#xc8;" horiz-adv-x="1605" 
d="M1167 1720h-200l-344 340h303zM1386 0h-1245l283 1597h1221l-31 -202h-987l-26 -123q-26 -124 -66 -350h938l-31 -211h-938q-12 -61 -28.5 -147t-69.5 -357h1011z" />
    <glyph glyph-name="Eacute" unicode="&#xc9;" horiz-adv-x="1605" 
d="M1577 2060l-459 -340h-203l363 340h299zM1386 0h-1245l283 1597h1221l-31 -202h-987l-26 -123q-26 -124 -66 -350h938l-31 -211h-938q-12 -61 -28.5 -147t-69.5 -357h1011z" />
    <glyph glyph-name="Ecircumflex" unicode="&#xca;" horiz-adv-x="1605" 
d="M1210 2050l275 -330h-205q-129 115 -211 193q-18 -13 -58 -42t-59 -42.5t-64 -43t-104 -65.5h-204l387 330h243zM1386 0h-1245l283 1597h1221l-31 -202h-987l-26 -123q-26 -124 -66 -350h938l-31 -211h-938q-12 -61 -28.5 -147t-69.5 -357h1011z" />
    <glyph glyph-name="Edieresis" unicode="&#xcb;" horiz-adv-x="1605" 
d="M791 1759q-57 0 -95.5 33.5t-38.5 85.5q0 64 53 111t124 47q57 0 94 -32.5t37 -82.5q0 -64 -52 -113t-122 -49zM1292 1759q-59 0 -97 33.5t-38 83.5q0 65 53.5 112.5t124.5 47.5q57 0 95 -33t38 -84q0 -61 -53 -110.5t-123 -49.5zM1386 0h-1245l283 1597h1221l-31 -202
h-987l-26 -123q-26 -124 -66 -350h938l-31 -211h-938q-12 -61 -28.5 -147t-69.5 -357h1011z" />
    <glyph glyph-name="Igrave" unicode="&#xcc;" horiz-adv-x="716" 
d="M696 1720h-200l-344 340h303zM377 0h-236l283 1597h235z" />
    <glyph glyph-name="Iacute" unicode="&#xcd;" horiz-adv-x="716" 
d="M1108 2060l-459 -340h-203l363 340h299zM377 0h-236l283 1597h235z" />
    <glyph glyph-name="Icircumflex" unicode="&#xce;" horiz-adv-x="716" 
d="M741 2050l275 -330h-205q-129 115 -211 193q-18 -13 -58 -42t-59 -42.5t-64 -43t-104 -65.5h-204l387 330h243zM377 0h-236l283 1597h235z" />
    <glyph glyph-name="Idieresis" unicode="&#xcf;" horiz-adv-x="716" 
d="M319 1759q-57 0 -95 33.5t-38 85.5q0 64 52.5 111t123.5 47q57 0 94.5 -32.5t37.5 -82.5q0 -64 -52.5 -113t-122.5 -49zM821 1759q-59 0 -97 33.5t-38 83.5q0 65 53.5 112.5t124.5 47.5q57 0 95 -33t38 -84q0 -61 -53.5 -110.5t-122.5 -49.5zM377 0h-236l283 1597h235z
" />
    <glyph glyph-name="Eth" unicode="&#xd0;" horiz-adv-x="1968" 
d="M424 1597h694q393 0 589 -170t196 -475q0 -147 -47 -287.5t-138 -260.5t-216 -210.5t-291.5 -142t-352.5 -51.5h-717l125 709h-217l27 178h223zM883 203q173 0 320.5 57.5t245.5 154.5t153 224.5t55 267.5q0 110 -30.5 194.5t-84.5 139.5t-134 90t-171.5 49.5
t-204.5 14.5h-405q-23 -123 -52 -266.5t-47 -241.5h570l-27 -178h-575q-23 -124 -90 -506h477z" />
    <glyph glyph-name="Ntilde" unicode="&#xd1;" horiz-adv-x="2019" 
d="M1389 1767q-93 0 -175 62l-49 35q-58 43 -104 43q-52 0 -89 -35t-48 -88h-162q23 126 113 204t208 78q89 0 168 -59l49 -35q52 -41 107 -41q49 0 82.5 33t44.5 88h164q-23 -134 -104.5 -209.5t-204.5 -75.5zM377 0h-236l283 1597h250q486 -708 821 -1222h6q18 99 96 507
t132 715h233l-283 -1597h-247q-47 68 -356.5 513t-471.5 691h-4q-24 -132 -61.5 -316.5t-75.5 -389t-86 -498.5z" />
    <glyph glyph-name="Ograve" unicode="&#xd2;" horiz-adv-x="2158" 
d="M1417 1720h-200l-345 340h304zM975 -35q-241 0 -430.5 88.5t-295.5 249t-106 365.5q0 148 57.5 292t162.5 264t243 211.5t310 143t352 51.5t334.5 -52t264 -144.5t171 -224t61.5 -285.5q0 -123 -41 -244.5t-114.5 -226.5t-178 -195.5t-227.5 -155t-268 -101t-295 -36.5z
M1010 172q166 0 321 61t267 161.5t179.5 233.5t67.5 271q0 230 -170.5 377t-437.5 147q-165 0 -320.5 -61t-269.5 -161t-183 -234t-69 -273q0 -152 79 -271.5t219.5 -185t316.5 -65.5z" />
    <glyph glyph-name="Oacute" unicode="&#xd3;" horiz-adv-x="2158" 
d="M1827 2060l-459 -340h-203l363 340h299zM975 -35q-241 0 -430.5 88.5t-295.5 249t-106 365.5q0 148 57.5 292t162.5 264t243 211.5t310 143t352 51.5t334.5 -52t264 -144.5t171 -224t61.5 -285.5q0 -123 -41 -244.5t-114.5 -226.5t-178 -195.5t-227.5 -155t-268 -101
t-295 -36.5zM1010 172q166 0 321 61t267 161.5t179.5 233.5t67.5 271q0 230 -170.5 377t-437.5 147q-165 0 -320.5 -61t-269.5 -161t-183 -234t-69 -273q0 -152 79 -271.5t219.5 -185t316.5 -65.5z" />
    <glyph glyph-name="Ocircumflex" unicode="&#xd4;" horiz-adv-x="2158" 
d="M1460 2050l275 -330h-205q-129 115 -211 193q-18 -13 -58 -42t-59 -42.5t-64 -43t-104 -65.5h-205l388 330h243zM975 -35q-241 0 -430.5 88.5t-295.5 249t-106 365.5q0 148 57.5 292t162.5 264t243 211.5t310 143t352 51.5t334.5 -52t264 -144.5t171 -224t61.5 -285.5
q0 -123 -41 -244.5t-114.5 -226.5t-178 -195.5t-227.5 -155t-268 -101t-295 -36.5zM1010 172q166 0 321 61t267 161.5t179.5 233.5t67.5 271q0 230 -170.5 377t-437.5 147q-165 0 -320.5 -61t-269.5 -161t-183 -234t-69 -273q0 -152 79 -271.5t219.5 -185t316.5 -65.5z" />
    <glyph glyph-name="Otilde" unicode="&#xd5;" horiz-adv-x="2158" 
d="M1479 1767q-54 0 -93.5 15.5t-80.5 46.5l-50 35q-58 43 -104 43q-52 0 -89 -35t-48 -88h-162q23 126 113.5 204t208.5 78q88 0 167 -59l50 -35q52 -41 106 -41q49 0 82.5 33t44.5 88h164q-23 -134 -104.5 -209.5t-204.5 -75.5zM975 -35q-241 0 -430.5 88.5t-295.5 249
t-106 365.5q0 148 57.5 292t162.5 264t243 211.5t310 143t352 51.5t334.5 -52t264 -144.5t171 -224t61.5 -285.5q0 -123 -41 -244.5t-114.5 -226.5t-178 -195.5t-227.5 -155t-268 -101t-295 -36.5zM1010 172q166 0 321 61t267 161.5t179.5 233.5t67.5 271q0 230 -170.5 377
t-437.5 147q-165 0 -320.5 -61t-269.5 -161t-183 -234t-69 -273q0 -152 79 -271.5t219.5 -185t316.5 -65.5z" />
    <glyph glyph-name="Odieresis" unicode="&#xd6;" horiz-adv-x="2158" 
d="M1040 1759q-57 0 -95 33.5t-38 85.5q0 64 52.5 111t123.5 47q57 0 94 -32.5t37 -82.5q0 -64 -52 -113t-122 -49zM1542 1759q-59 0 -97 33.5t-38 83.5q0 65 53.5 112.5t124.5 47.5q57 0 95 -33t38 -84q0 -61 -53 -110.5t-123 -49.5zM975 -35q-241 0 -430.5 88.5
t-295.5 249t-106 365.5q0 148 57.5 292t162.5 264t243 211.5t310 143t352 51.5t334.5 -52t264 -144.5t171 -224t61.5 -285.5q0 -123 -41 -244.5t-114.5 -226.5t-178 -195.5t-227.5 -155t-268 -101t-295 -36.5zM1010 172q166 0 321 61t267 161.5t179.5 233.5t67.5 271
q0 230 -170.5 377t-437.5 147q-165 0 -320.5 -61t-269.5 -161t-183 -234t-69 -273q0 -152 79 -271.5t219.5 -185t316.5 -65.5z" />
    <glyph glyph-name="multiply" unicode="&#xd7;" horiz-adv-x="1144" 
d="M457 625l-246 241l149 121l246 -244l318 238l110 -121l-317 -235l239 -242l-147 -119l-242 242l-323 -240l-109 117z" />
    <glyph glyph-name="Oslash" unicode="&#xd8;" horiz-adv-x="2158" 
d="M2099 1661l-229 -231q110 -93 169.5 -223t59.5 -283q0 -123 -41 -244.5t-114.5 -226.5t-178 -195.5t-227.5 -155t-268 -101t-295 -36.5q-265 0 -465 107l-135 -138h-234l230 232q-109 94 -168.5 222.5t-59.5 279.5q0 148 57.5 292t162.5 264t243 211.5t310 143t352 51.5
q264 0 461 -104l135 135h235zM395 694q0 -209 150 -356l1011 1016q-138 69 -319 69q-165 0 -320.5 -61t-269.5 -161t-183 -234t-69 -273zM1010 172q166 0 321 61t267 161.5t179.5 233.5t67.5 271q0 212 -149 358l-1014 -1013q144 -72 328 -72z" />
    <glyph glyph-name="Ugrave" unicode="&#xd9;" horiz-adv-x="1845" 
d="M1264 1720h-201l-344 340h303zM813 -35q-121 0 -220 23.5t-166.5 65.5t-116.5 101t-70 130t-27 151t12 166l181 995h233l-178 -979q-35 -203 61 -325.5t328 -122.5t371.5 124.5t175.5 323.5l178 979h233l-180 -995q-17 -98 -53.5 -185.5t-102.5 -171.5t-154.5 -145
t-218.5 -98t-286 -37z" />
    <glyph glyph-name="Uacute" unicode="&#xda;" horiz-adv-x="1845" 
d="M1542 2062l-459 -342h-202l362 342h299zM813 -35q-121 0 -220 23.5t-166.5 65.5t-116.5 101t-70 130t-27 151t12 166l181 995h233l-178 -979q-35 -203 61 -325.5t328 -122.5t371.5 124.5t175.5 323.5l178 979h233l-180 -995q-17 -98 -53.5 -185.5t-102.5 -171.5
t-154.5 -145t-218.5 -98t-286 -37z" />
    <glyph glyph-name="Ucircumflex" unicode="&#xdb;" horiz-adv-x="1845" 
d="M1309 2050l274 -330h-205q-129 115 -211 193q-20 -14 -58 -42t-58 -42.5t-64.5 -43.5t-103.5 -65h-205l387 330h244zM813 -35q-121 0 -220 23.5t-166.5 65.5t-116.5 101t-70 130t-27 151t12 166l181 995h233l-178 -979q-35 -203 61 -325.5t328 -122.5t371.5 124.5
t175.5 323.5l178 979h233l-180 -995q-17 -98 -53.5 -185.5t-102.5 -171.5t-154.5 -145t-218.5 -98t-286 -37z" />
    <glyph glyph-name="Udieresis" unicode="&#xdc;" horiz-adv-x="1845" 
d="M887 1759q-57 0 -95 33.5t-38 85.5q0 64 52.5 111t123.5 47q57 0 94 -32.5t37 -82.5q0 -64 -52 -113t-122 -49zM1389 1759q-59 0 -97.5 33.5t-38.5 83.5q0 65 54 112.5t125 47.5q57 0 95 -33t38 -84q0 -61 -53.5 -110.5t-122.5 -49.5zM813 -35q-121 0 -220 23.5
t-166.5 65.5t-116.5 101t-70 130t-27 151t12 166l181 995h233l-178 -979q-35 -203 61 -325.5t328 -122.5t371.5 124.5t175.5 323.5l178 979h233l-180 -995q-17 -98 -53.5 -185.5t-102.5 -171.5t-154.5 -145t-218.5 -98t-286 -37z" />
    <glyph glyph-name="Yacute" unicode="&#xdd;" horiz-adv-x="1697" 
d="M1505 2062l-458 -342h-203l362 342h299zM864 0h-231q9 46 31 182.5t69 384.5q-53 106 -135.5 250t-170 318t-212.5 462h252q70 -135 208 -406.5t208 -406.5h4q79 88 140 167t100.5 132t158 184.5t311.5 329.5h252q-122 -141 -420 -490t-462 -538q-78 -456 -103 -569z" />
    <glyph glyph-name="Thorn" unicode="&#xde;" horiz-adv-x="1675" 
d="M377 0h-236l283 1597h235l-51 -276h461q83 0 158.5 -11.5t150 -41t129 -74.5t88 -119t33.5 -168q0 -111 -51 -216t-140.5 -186.5t-223.5 -131t-289 -49.5h-488zM578 1118l-113 -583h430q212 0 349.5 89t137.5 238q0 69 -29.5 119.5t-83.5 80t-121.5 43t-152.5 13.5h-417z
" />
    <glyph glyph-name="germandbls" unicode="&#xdf;" horiz-adv-x="1548" 
d="M324 0h-220l195 1094q9 49 21.5 94.5t38 106t59.5 111t88 101.5t119.5 86.5t159 57.5t202.5 22q242 0 381 -105t139 -280q0 -162 -115.5 -292t-283.5 -156l-2 -4q156 -19 245 -106t89 -222q0 -101 -53.5 -193t-148 -162t-235 -111.5t-305.5 -41.5h-178l31 186h201
q125 0 229.5 43t163.5 114.5t59 154.5q0 101 -84.5 163t-222.5 62h-125l27 184h102q161 0 267 101t106 233q0 111 -80.5 176.5t-235.5 65.5q-93 0 -168.5 -28.5t-120 -68.5t-77 -93t-45.5 -91.5t-19 -73.5z" />
    <glyph glyph-name="agrave" unicode="&#xe0;" horiz-adv-x="1419" 
d="M952 1278h-192l-305 385h280zM440 -35q-180 0 -285.5 72t-105.5 203q0 68 29 124t76.5 96t118.5 72.5t145.5 53t167.5 37.5q38 7 96 16t96 15.5t85 16.5t76.5 22t56.5 29t40 41.5t13 55.5q0 77 -73 127.5t-196 50.5t-223.5 -55.5t-155.5 -155.5l-198 66q44 82 113 144.5
t151.5 99.5t171 55t180.5 18q105 0 193 -24t152.5 -70.5t93.5 -123t12 -173.5l-76 -424q-21 -116 -25.5 -186t7.5 -168h-222q-15 92 4 195h-4q-84 -105 -216.5 -167.5t-297.5 -62.5zM512 129q92 0 177.5 30t145.5 76.5t100 100.5t50 106l23 123q-63 -29 -120 -42.5
t-200 -37.5q-58 -11 -104 -21.5t-104 -29.5t-96.5 -41.5t-65.5 -56.5t-27 -74q0 -62 59 -97.5t162 -35.5z" />
    <glyph glyph-name="aacute" unicode="&#xe1;" horiz-adv-x="1419" 
d="M1370 1663l-440 -385h-193l353 385h280zM440 -35q-180 0 -285.5 72t-105.5 203q0 68 29 124t76.5 96t118.5 72.5t145.5 53t167.5 37.5q38 7 96 16t96 15.5t85 16.5t76.5 22t56.5 29t40 41.5t13 55.5q0 77 -73 127.5t-196 50.5t-223.5 -55.5t-155.5 -155.5l-198 66
q44 82 113 144.5t151.5 99.5t171 55t180.5 18q105 0 193 -24t152.5 -70.5t93.5 -123t12 -173.5l-76 -424q-21 -116 -25.5 -186t7.5 -168h-222q-15 92 4 195h-4q-84 -105 -216.5 -167.5t-297.5 -62.5zM512 129q92 0 177.5 30t145.5 76.5t100 100.5t50 106l23 123
q-63 -29 -120 -42.5t-200 -37.5q-58 -11 -104 -21.5t-104 -29.5t-96.5 -41.5t-65.5 -56.5t-27 -74q0 -62 59 -97.5t162 -35.5z" />
    <glyph glyph-name="acircumflex" unicode="&#xe2;" horiz-adv-x="1419" 
d="M571 1278h-209l420 364h256l293 -364h-209q-1 1 -83 77.5t-146 155.5q-49 -38 -143 -101.5t-179 -131.5zM440 -35q-180 0 -285.5 72t-105.5 203q0 68 29 124t76.5 96t118.5 72.5t145.5 53t167.5 37.5q38 7 96 16t96 15.5t85 16.5t76.5 22t56.5 29t40 41.5t13 55.5
q0 77 -73 127.5t-196 50.5t-223.5 -55.5t-155.5 -155.5l-198 66q44 82 113 144.5t151.5 99.5t171 55t180.5 18q105 0 193 -24t152.5 -70.5t93.5 -123t12 -173.5l-76 -424q-21 -116 -25.5 -186t7.5 -168h-222q-15 92 4 195h-4q-84 -105 -216.5 -167.5t-297.5 -62.5zM512 129
q92 0 177.5 30t145.5 76.5t100 100.5t50 106l23 123q-63 -29 -120 -42.5t-200 -37.5q-58 -11 -104 -21.5t-104 -29.5t-96.5 -41.5t-65.5 -56.5t-27 -74q0 -62 59 -97.5t162 -35.5z" />
    <glyph glyph-name="atilde" unicode="&#xe3;" horiz-adv-x="1419" 
d="M1042 1307q-55 0 -94 15t-80 46l-49 35q-58 43 -104 43q-52 0 -89 -35t-48 -88h-162q23 126 113 204.5t208 78.5q87 0 168 -60l49 -35q52 -41 107 -41q49 0 82.5 33t44.5 88h164q-23 -134 -105 -209t-205 -75zM440 -35q-180 0 -285.5 72t-105.5 203q0 68 29 124t76.5 96
t118.5 72.5t145.5 53t167.5 37.5q38 7 96 16t96 15.5t85 16.5t76.5 22t56.5 29t40 41.5t13 55.5q0 77 -73 127.5t-196 50.5t-223.5 -55.5t-155.5 -155.5l-198 66q44 82 113 144.5t151.5 99.5t171 55t180.5 18q105 0 193 -24t152.5 -70.5t93.5 -123t12 -173.5l-76 -424
q-21 -116 -25.5 -186t7.5 -168h-222q-15 92 4 195h-4q-84 -105 -216.5 -167.5t-297.5 -62.5zM512 129q92 0 177.5 30t145.5 76.5t100 100.5t50 106l23 123q-63 -29 -120 -42.5t-200 -37.5q-58 -11 -104 -21.5t-104 -29.5t-96.5 -41.5t-65.5 -56.5t-27 -74q0 -62 59 -97.5
t162 -35.5z" />
    <glyph glyph-name="adieresis" unicode="&#xe4;" horiz-adv-x="1419" 
d="M623 1337q-55 0 -91 33.5t-36 81.5q0 59 51.5 105.5t118.5 46.5q55 0 91 -32.5t36 -80.5q0 -59 -51.5 -106.5t-118.5 -47.5zM1098 1337q-57 0 -93 32.5t-36 82.5q0 61 51 106.5t119 45.5q54 0 91.5 -33t37.5 -80q0 -59 -52 -106.5t-118 -47.5zM440 -35q-180 0 -285.5 72
t-105.5 203q0 68 29 124t76.5 96t118.5 72.5t145.5 53t167.5 37.5q38 7 96 16t96 15.5t85 16.5t76.5 22t56.5 29t40 41.5t13 55.5q0 77 -73 127.5t-196 50.5t-223.5 -55.5t-155.5 -155.5l-198 66q44 82 113 144.5t151.5 99.5t171 55t180.5 18q105 0 193 -24t152.5 -70.5
t93.5 -123t12 -173.5l-76 -424q-21 -116 -25.5 -186t7.5 -168h-222q-15 92 4 195h-4q-84 -105 -216.5 -167.5t-297.5 -62.5zM512 129q92 0 177.5 30t145.5 76.5t100 100.5t50 106l23 123q-63 -29 -120 -42.5t-200 -37.5q-58 -11 -104 -21.5t-104 -29.5t-96.5 -41.5
t-65.5 -56.5t-27 -74q0 -62 59 -97.5t162 -35.5z" />
    <glyph glyph-name="aring" unicode="&#xe5;" horiz-adv-x="1419" 
d="M844 1251q-109 0 -178.5 56.5t-69.5 144.5q0 105 97 185.5t231 80.5q108 0 176.5 -56t68.5 -144q0 -106 -95.5 -186.5t-229.5 -80.5zM864 1376q66 0 113 38t47 89q0 39 -34.5 63.5t-86.5 24.5q-67 0 -114.5 -37t-47.5 -88q0 -41 34 -65.5t89 -24.5zM440 -35
q-180 0 -285.5 72t-105.5 203q0 68 29 124t76.5 96t118.5 72.5t145.5 53t167.5 37.5q38 7 96 16t96 15.5t85 16.5t76.5 22t56.5 29t40 41.5t13 55.5q0 77 -73 127.5t-196 50.5t-223.5 -55.5t-155.5 -155.5l-198 66q44 82 113 144.5t151.5 99.5t171 55t180.5 18
q105 0 193 -24t152.5 -70.5t93.5 -123t12 -173.5l-76 -424q-21 -116 -25.5 -186t7.5 -168h-222q-15 92 4 195h-4q-84 -105 -216.5 -167.5t-297.5 -62.5zM512 129q92 0 177.5 30t145.5 76.5t100 100.5t50 106l23 123q-63 -29 -120 -42.5t-200 -37.5q-58 -11 -104 -21.5
t-104 -29.5t-96.5 -41.5t-65.5 -56.5t-27 -74q0 -62 59 -97.5t162 -35.5z" />
    <glyph glyph-name="ae" unicode="&#xe6;" horiz-adv-x="2428" 
d="M436 -35q-172 0 -279.5 69t-107.5 208q0 290 545 381q32 6 84 13.5t84 12.5t75.5 14t70.5 17.5t57.5 22t47 29t27.5 37t11 48.5q0 77 -75 128.5t-196 51.5q-124 0 -224 -57t-153 -154l-200 66q87 158 255.5 237.5t360.5 79.5q150 0 269.5 -49.5t152.5 -144.5
q104 92 247.5 143t303.5 51q63 0 123 -9.5t120 -30t110 -53.5t91.5 -79t65.5 -106.5t32 -137t-10 -169.5l-10 -64h-1087q-22 -165 88 -266.5t303 -101.5q152 0 277.5 65t201.5 174l193 -76q-106 -160 -293 -255t-410 -95q-197 0 -340.5 71.5t-193.5 207.5h-6
q-105 -129 -265.5 -204t-345.5 -75zM1260 676h845q8 68 -9 123t-50.5 89.5t-82 58t-100 33t-108.5 9.5q-170 0 -303.5 -86t-191.5 -227zM510 129q92 0 178 30t146.5 76.5t100.5 101t50 105.5l23 125q-91 -35 -146 -49t-164 -29q-66 -9 -127.5 -23.5t-129.5 -40t-109 -66.5
t-41 -91q0 -66 58.5 -102.5t160.5 -36.5z" />
    <glyph glyph-name="ccedilla" unicode="&#xe7;" horiz-adv-x="1488" 
d="M717 160q155 0 282 68t205 186l193 -76q-104 -171 -284.5 -268t-393.5 -105l-105 -98q40 12 86 12q92 0 148.5 -41t56.5 -112q0 -96 -95.5 -164t-236.5 -68q-93 0 -173 32t-124 89l95 84q34 -45 91 -69.5t118 -24.5q73 0 122.5 31t49.5 75q0 34 -35.5 55t-89.5 21
q-65 0 -117 -27l-70 60l144 149q-230 25 -362 157.5t-132 340.5q0 136 60 263.5t164 224.5t254.5 155.5t320.5 58.5q129 0 238.5 -35.5t193 -113t115.5 -189.5l-224 -77q-28 107 -122.5 163t-229.5 56q-113 0 -214 -40t-170.5 -106t-109.5 -152.5t-40 -178.5
q0 -156 106.5 -246t284.5 -90z" />
    <glyph glyph-name="egrave" unicode="&#xe8;" horiz-adv-x="1376" 
d="M924 1278h-193l-305 385h281zM604 -35q-238 0 -382 132.5t-144 353.5q0 141 57 272.5t154 229.5t233 157t285 59q68 0 132 -13t126 -41.5t108.5 -74.5t80 -111t40.5 -150.5t-10 -194.5l-14 -76h-973q-20 -166 76 -261t266 -95q130 0 242 65t180 174l188 -76
q-97 -160 -268 -255t-377 -95zM338 686h741q11 79 -10.5 139.5t-67 95t-102.5 51.5t-123 17q-150 0 -268.5 -85t-169.5 -218z" />
    <glyph glyph-name="eacute" unicode="&#xe9;" horiz-adv-x="1376" 
d="M1341 1663l-440 -385h-192l352 385h280zM604 -35q-238 0 -382 132.5t-144 353.5q0 141 57 272.5t154 229.5t233 157t285 59q68 0 132 -13t126 -41.5t108.5 -74.5t80 -111t40.5 -150.5t-10 -194.5l-14 -76h-973q-20 -166 76 -261t266 -95q130 0 242 65t180 174l188 -76
q-97 -160 -268 -255t-377 -95zM338 686h741q11 79 -10.5 139.5t-67 95t-102.5 51.5t-123 17q-150 0 -268.5 -85t-169.5 -218z" />
    <glyph glyph-name="ecircumflex" unicode="&#xea;" horiz-adv-x="1376" 
d="M541 1278h-209l420 364h256l292 -364h-208q-3 3 -85 79t-145 154q-48 -38 -142 -101.5t-179 -131.5zM604 -35q-238 0 -382 132.5t-144 353.5q0 141 57 272.5t154 229.5t233 157t285 59q68 0 132 -13t126 -41.5t108.5 -74.5t80 -111t40.5 -150.5t-10 -194.5l-14 -76h-973
q-20 -166 76 -261t266 -95q130 0 242 65t180 174l188 -76q-97 -160 -268 -255t-377 -95zM338 686h741q11 79 -10.5 139.5t-67 95t-102.5 51.5t-123 17q-150 0 -268.5 -85t-169.5 -218z" />
    <glyph glyph-name="edieresis" unicode="&#xeb;" horiz-adv-x="1376" 
d="M594 1337q-55 0 -91 33.5t-36 81.5q0 59 51.5 105.5t118.5 46.5q55 0 91 -32.5t36 -80.5q0 -59 -51.5 -106.5t-118.5 -47.5zM1069 1337q-57 0 -93 32.5t-36 82.5q0 61 51 106.5t119 45.5q54 0 91.5 -33t37.5 -80q0 -59 -52 -106.5t-118 -47.5zM604 -35q-238 0 -382 132.5
t-144 353.5q0 141 57 272.5t154 229.5t233 157t285 59q68 0 132 -13t126 -41.5t108.5 -74.5t80 -111t40.5 -150.5t-10 -194.5l-14 -76h-973q-20 -166 76 -261t266 -95q130 0 242 65t180 174l188 -76q-97 -160 -268 -255t-377 -95zM338 686h741q11 79 -10.5 139.5t-67 95
t-102.5 51.5t-123 17q-150 0 -268.5 -85t-169.5 -218z" />
    <glyph glyph-name="igrave" unicode="&#xec;" horiz-adv-x="624" 
d="M543 1268h-193l-305 385h281zM324 0h-220l199 1137h221z" />
    <glyph glyph-name="iacute" unicode="&#xed;" horiz-adv-x="624" 
d="M961 1653l-441 -385h-192l352 385h281zM324 0h-220l199 1137h221z" />
    <glyph glyph-name="icircumflex" unicode="&#xee;" horiz-adv-x="624" 
d="M162 1268h-209l420 364h256l293 -364h-209q-3 3 -85 79t-145 154q-48 -38 -142 -101.5t-179 -131.5zM324 0h-220l199 1137h221z" />
    <glyph glyph-name="idieresis" unicode="&#xef;" horiz-adv-x="624" 
d="M213 1327q-55 0 -91 33.5t-36 81.5q0 59 51.5 105t118.5 46q55 0 91 -32t36 -80q0 -59 -51.5 -106.5t-118.5 -47.5zM688 1327q-57 0 -93 32.5t-36 82.5q0 61 51 106t119 45q54 0 91.5 -32.5t37.5 -79.5q0 -59 -52 -106.5t-118 -47.5zM324 0h-220l199 1137h221z" />
    <glyph glyph-name="eth" unicode="&#xf0;" horiz-adv-x="1593" 
d="M1421 1544l-219 -96q305 -235 305 -619q0 -134 -36 -261t-107.5 -236t-170.5 -191t-232.5 -129t-284.5 -47q-264 0 -427 133t-163 351q0 125 59.5 242.5t160.5 206t245 142.5t303 54q140 0 239 -44t175 -141h6q-41 265 -293 441l-375 -166l-51 106l301 133
q-127 66 -313 121l84 166q270 -76 458 -184l281 123zM700 156q109 0 207 36.5t167.5 97t110 140.5t40.5 166q0 143 -105.5 228t-273.5 85q-142 0 -264 -61t-192.5 -162t-70.5 -215q0 -141 104 -228t277 -87z" />
    <glyph glyph-name="ntilde" unicode="&#xf1;" horiz-adv-x="1558" 
d="M1094 1307q-55 0 -94 15t-80 46l-50 35q-58 43 -104 43q-52 0 -89 -35t-48 -88h-162q23 126 113 204.5t208 78.5q87 0 168 -60l50 -35q52 -41 106 -41q49 0 82.5 33t44.5 88h164q-23 -134 -104.5 -209t-204.5 -75zM324 0h-220l199 1137h215l-35 -195h4
q94 112 226.5 169.5t279.5 57.5q97 0 177.5 -26t141 -78t85.5 -142t4 -208l-125 -715h-221l114 623q29 162 -47 256t-229 94q-179 0 -306 -102t-155 -261z" />
    <glyph glyph-name="ograve" unicode="&#xf2;" horiz-adv-x="1576" 
d="M1020 1278h-193l-305 385h281zM682 -35q-270 0 -431 136.5t-161 365.5q0 107 38 211t110.5 192t169.5 155.5t223 105.5t264 38q270 0 431 -137.5t161 -367.5q0 -134 -60 -260.5t-163.5 -223.5t-256 -156t-325.5 -59zM713 160q115 0 217 40t172 106.5t110.5 154
t40.5 180.5q0 153 -104.5 242.5t-282.5 89.5q-115 0 -217.5 -41t-172 -108t-110 -153.5t-40.5 -176.5q0 -152 105 -243t282 -91z" />
    <glyph glyph-name="oacute" unicode="&#xf3;" horiz-adv-x="1576" 
d="M1436 1663l-441 -385h-192l352 385h281zM682 -35q-270 0 -431 136.5t-161 365.5q0 107 38 211t110.5 192t169.5 155.5t223 105.5t264 38q270 0 431 -137.5t161 -367.5q0 -134 -60 -260.5t-163.5 -223.5t-256 -156t-325.5 -59zM713 160q115 0 217 40t172 106.5t110.5 154
t40.5 180.5q0 153 -104.5 242.5t-282.5 89.5q-115 0 -217.5 -41t-172 -108t-110 -153.5t-40.5 -176.5q0 -152 105 -243t282 -91z" />
    <glyph glyph-name="ocircumflex" unicode="&#xf4;" horiz-adv-x="1576" 
d="M637 1278h-209l420 364h256l293 -364h-209q-3 3 -85 79t-145 154q-48 -38 -142 -101.5t-179 -131.5zM682 -35q-270 0 -431 136.5t-161 365.5q0 107 38 211t110.5 192t169.5 155.5t223 105.5t264 38q270 0 431 -137.5t161 -367.5q0 -134 -60 -260.5t-163.5 -223.5
t-256 -156t-325.5 -59zM713 160q115 0 217 40t172 106.5t110.5 154t40.5 180.5q0 153 -104.5 242.5t-282.5 89.5q-115 0 -217.5 -41t-172 -108t-110 -153.5t-40.5 -176.5q0 -152 105 -243t282 -91z" />
    <glyph glyph-name="otilde" unicode="&#xf5;" horiz-adv-x="1576" 
d="M1108 1307q-55 0 -94 15t-80 46l-49 35q-58 43 -105 43q-52 0 -89 -35t-48 -88h-162q23 126 113.5 204.5t208.5 78.5q87 0 168 -60l49 -35q52 -41 106 -41q49 0 82.5 33t44.5 88h164q-23 -134 -104.5 -209t-204.5 -75zM682 -35q-270 0 -431 136.5t-161 365.5
q0 107 38 211t110.5 192t169.5 155.5t223 105.5t264 38q270 0 431 -137.5t161 -367.5q0 -134 -60 -260.5t-163.5 -223.5t-256 -156t-325.5 -59zM713 160q115 0 217 40t172 106.5t110.5 154t40.5 180.5q0 153 -104.5 242.5t-282.5 89.5q-115 0 -217.5 -41t-172 -108
t-110 -153.5t-40.5 -176.5q0 -152 105 -243t282 -91z" />
    <glyph glyph-name="odieresis" unicode="&#xf6;" horiz-adv-x="1576" 
d="M690 1337q-55 0 -91 33.5t-36 81.5q0 59 51.5 105.5t118.5 46.5q55 0 91 -32.5t36 -80.5q0 -59 -51.5 -106.5t-118.5 -47.5zM1165 1337q-57 0 -93 32.5t-36 82.5q0 61 51 106.5t119 45.5q54 0 91.5 -33t37.5 -80q0 -59 -52 -106.5t-118 -47.5zM682 -35q-270 0 -431 136.5
t-161 365.5q0 107 38 211t110.5 192t169.5 155.5t223 105.5t264 38q270 0 431 -137.5t161 -367.5q0 -134 -60 -260.5t-163.5 -223.5t-256 -156t-325.5 -59zM713 160q115 0 217 40t172 106.5t110.5 154t40.5 180.5q0 153 -104.5 242.5t-282.5 89.5q-115 0 -217.5 -41
t-172 -108t-110 -153.5t-40.5 -176.5q0 -152 105 -243t282 -91z" />
    <glyph glyph-name="divide" unicode="&#xf7;" horiz-adv-x="1271" 
d="M688 842q-55 0 -90 32t-35 80q0 59 50.5 103.5t117.5 44.5q54 0 90.5 -31.5t36.5 -77.5q0 -59 -52 -105t-118 -46zM1110 543h-950l26 168h949zM571 150q-53 0 -89 33t-36 79q0 58 51 103t117 45q54 0 90.5 -31.5t36.5 -77.5q0 -59 -52.5 -105t-117.5 -46z" />
    <glyph glyph-name="oslash" unicode="&#xf8;" horiz-adv-x="1576" 
d="M1335 1184h236l-205 -193q121 -130 121 -327q0 -134 -60 -260.5t-163.5 -223.5t-256 -156t-325.5 -59q-194 0 -332 72l-100 -94h-242l207 192q-125 134 -125 332q0 107 38 211t110.5 192t169.5 155.5t223 105.5t264 38q203 0 342 -77zM326 494q0 -114 61 -197l680 637
q-86 39 -201 39t-217.5 -41t-172 -108t-110 -153.5t-40.5 -176.5zM1253 641q0 111 -57 190l-676 -634q78 -37 193 -37t217 40t172 106.5t110.5 154t40.5 180.5z" />
    <glyph glyph-name="ugrave" unicode="&#xf9;" horiz-adv-x="1538" 
d="M985 1278h-192l-306 385h281zM569 -35q-101 0 -182.5 26.5t-141 80t-83 144t-2.5 208.5l125 713h221l-115 -639q-30 -168 48.5 -253t217.5 -85q117 0 215 51t155.5 129.5t74.5 169.5l110 627h222l-138 -783q-22 -120 -25.5 -199.5t7.5 -154.5h-223q-10 112 4 176h-6
q-181 -211 -484 -211z" />
    <glyph glyph-name="uacute" unicode="&#xfa;" horiz-adv-x="1538" 
d="M1401 1663l-440 -385h-193l352 385h281zM569 -35q-101 0 -182.5 26.5t-141 80t-83 144t-2.5 208.5l125 713h221l-115 -639q-30 -168 48.5 -253t217.5 -85q117 0 215 51t155.5 129.5t74.5 169.5l110 627h222l-138 -783q-22 -120 -25.5 -199.5t7.5 -154.5h-223
q-10 112 4 176h-6q-181 -211 -484 -211z" />
    <glyph glyph-name="ucircumflex" unicode="&#xfb;" horiz-adv-x="1538" 
d="M602 1278h-209l420 364h256l293 -364h-209q-1 1 -83 77.5t-146 155.5q-49 -38 -143 -101.5t-179 -131.5zM569 -35q-101 0 -182.5 26.5t-141 80t-83 144t-2.5 208.5l125 713h221l-115 -639q-30 -168 48.5 -253t217.5 -85q117 0 215 51t155.5 129.5t74.5 169.5l110 627h222
l-138 -783q-22 -120 -25.5 -199.5t7.5 -154.5h-223q-10 112 4 176h-6q-181 -211 -484 -211z" />
    <glyph glyph-name="udieresis" unicode="&#xfc;" horiz-adv-x="1538" 
d="M655 1337q-55 0 -91 33.5t-36 81.5q0 59 51.5 105.5t118.5 46.5q55 0 91 -32.5t36 -80.5q0 -59 -51.5 -106.5t-118.5 -47.5zM1130 1337q-57 0 -93 32.5t-36 82.5q0 61 51 106.5t119 45.5q54 0 91.5 -33t37.5 -80q0 -59 -52 -106.5t-118 -47.5zM569 -35
q-101 0 -182.5 26.5t-141 80t-83 144t-2.5 208.5l125 713h221l-115 -639q-30 -168 48.5 -253t217.5 -85q117 0 215 51t155.5 129.5t74.5 169.5l110 627h222l-138 -783q-22 -120 -25.5 -199.5t7.5 -154.5h-223q-10 112 4 176h-6q-181 -211 -484 -211z" />
    <glyph glyph-name="yacute" unicode="&#xfd;" horiz-adv-x="1363" 
d="M1319 1663l-440 -385h-193l352 385h281zM414 -451h-221l274 420l-340 1168h244q68 -235 250 -893h6q380 598 573 893h238z" />
    <glyph glyph-name="thorn" unicode="&#xfe;" horiz-adv-x="1636" 
d="M244 -451h-219l368 2089h219l-127 -706h4q103 117 242.5 177t294.5 60q234 0 377 -135.5t143 -357.5q0 -138 -58.5 -268t-157 -227.5t-236.5 -156.5t-289 -59t-267 57.5t-173 167.5h-7zM793 160q141 0 261.5 67.5t189.5 177.5t69 234q0 151 -101.5 242.5t-267.5 91.5
q-107 0 -205.5 -40t-170 -105.5t-114 -152.5t-42.5 -179q0 -149 106.5 -242.5t274.5 -93.5z" />
    <glyph glyph-name="ydieresis" unicode="&#xff;" horiz-adv-x="1363" 
d="M573 1337q-55 0 -91 33.5t-36 81.5q0 59 51.5 105.5t118.5 46.5q55 0 91 -32.5t36 -80.5q0 -59 -51.5 -106.5t-118.5 -47.5zM1049 1337q-57 0 -93 32.5t-36 82.5q0 61 51 106.5t119 45.5q54 0 91.5 -33t37.5 -80q0 -59 -52 -106.5t-118 -47.5zM414 -451h-221l274 420
l-340 1168h244q68 -235 250 -893h6q380 598 573 893h238z" />
    <glyph glyph-name="Amacron" unicode="&#x100;" horiz-adv-x="1832" 
d="M1554 1798h-835l26 162h834zM168 0h-244l1045 1597h264l477 -1597h-246q-15 47 -157 492h-809zM635 702h608q-134 439 -188 633h-4q-26 -39 -105.5 -159.5t-160 -243t-150.5 -230.5z" />
    <glyph glyph-name="amacron" unicode="&#x101;" horiz-adv-x="1419" 
d="M1282 1376h-825l24 156h826zM440 -35q-180 0 -285.5 72t-105.5 203q0 68 29 124t76.5 96t118.5 72.5t145.5 53t167.5 37.5q38 7 96 16t96 15.5t85 16.5t76.5 22t56.5 29t40 41.5t13 55.5q0 77 -73 127.5t-196 50.5t-223.5 -55.5t-155.5 -155.5l-198 66q44 82 113 144.5
t151.5 99.5t171 55t180.5 18q105 0 193 -24t152.5 -70.5t93.5 -123t12 -173.5l-76 -424q-21 -116 -25.5 -186t7.5 -168h-222q-15 92 4 195h-4q-84 -105 -216.5 -167.5t-297.5 -62.5zM512 129q92 0 177.5 30t145.5 76.5t100 100.5t50 106l23 123q-63 -29 -120 -42.5
t-200 -37.5q-58 -11 -104 -21.5t-104 -29.5t-96.5 -41.5t-65.5 -56.5t-27 -74q0 -62 59 -97.5t162 -35.5z" />
    <glyph glyph-name="Abreve" unicode="&#x102;" horiz-adv-x="1832" 
d="M1120 1720q-201 0 -311 102t-92 242h192q-8 -73 57 -130.5t177 -57.5q113 0 198 56.5t107 131.5h192q-29 -140 -174 -242t-346 -102zM168 0h-244l1045 1597h264l477 -1597h-246q-15 47 -157 492h-809zM635 702h608q-134 439 -188 633h-4q-26 -39 -105.5 -159.5t-160 -243
t-150.5 -230.5z" />
    <glyph glyph-name="abreve" unicode="&#x103;" horiz-adv-x="1419" 
d="M846 1272q-206 0 -307.5 110t-77.5 285h188q-17 -104 44.5 -172t178.5 -68q118 0 204.5 67.5t111.5 172.5h190q-40 -179 -184.5 -287t-347.5 -108zM440 -35q-180 0 -285.5 72t-105.5 203q0 68 29 124t76.5 96t118.5 72.5t145.5 53t167.5 37.5q38 7 96 16t96 15.5t85 16.5
t76.5 22t56.5 29t40 41.5t13 55.5q0 77 -73 127.5t-196 50.5t-223.5 -55.5t-155.5 -155.5l-198 66q44 82 113 144.5t151.5 99.5t171 55t180.5 18q105 0 193 -24t152.5 -70.5t93.5 -123t12 -173.5l-76 -424q-21 -116 -25.5 -186t7.5 -168h-222q-15 92 4 195h-4
q-84 -105 -216.5 -167.5t-297.5 -62.5zM512 129q92 0 177.5 30t145.5 76.5t100 100.5t50 106l23 123q-63 -29 -120 -42.5t-200 -37.5q-58 -11 -104 -21.5t-104 -29.5t-96.5 -41.5t-65.5 -56.5t-27 -74q0 -62 59 -97.5t162 -35.5z" />
    <glyph glyph-name="Aogonek" unicode="&#x104;" horiz-adv-x="1832" 
d="M1395 -205q0 -52 49 -86.5t131 -34.5q50 0 111 13l-23 -133q-69 -17 -137 -17q-130 0 -216.5 52t-86.5 147q0 88 71 155t172 109h-2q-15 47 -157 492h-809l-330 -492h-244l1045 1597h264l477 -1597h-72q-101 -26 -172 -83t-71 -122zM635 702h608q-134 439 -188 633h-4
q-26 -39 -105.5 -159.5t-160 -243t-150.5 -230.5z" />
    <glyph glyph-name="aogonek" unicode="&#x105;" horiz-adv-x="1419" 
d="M819 1169q105 0 193 -24t152.5 -70.5t93.5 -123t12 -173.5l-76 -424q-21 -116 -25.5 -186t7.5 -168h-58q-102 -29 -169.5 -85t-67.5 -120q0 -52 47.5 -83t122.5 -31q52 0 112 16l-24 -146q-63 -14 -125 -14q-139 0 -221 54.5t-82 146.5q0 46 22 89t58.5 75.5t78 57
t86.5 40.5h-2q-15 92 4 195h-4q-84 -105 -216.5 -167.5t-297.5 -62.5q-180 0 -285.5 72t-105.5 203q0 68 29 124t76.5 96t118.5 72.5t145.5 53t167.5 37.5q38 7 96 16t96 15.5t85 16.5t76.5 22t56.5 29t40 41.5t13 55.5q0 77 -73 127.5t-196 50.5t-223.5 -55.5
t-155.5 -155.5l-198 66q44 82 113 144.5t151.5 99.5t171 55t180.5 18zM512 129q92 0 177.5 30t145.5 76.5t100 100.5t50 106l23 123q-63 -29 -120 -42.5t-200 -37.5q-58 -11 -104 -21.5t-104 -29.5t-96.5 -41.5t-65.5 -56.5t-27 -74q0 -62 59 -97.5t162 -35.5z" />
    <glyph glyph-name="Cacute" unicode="&#x106;" horiz-adv-x="2054" 
d="M1794 2060l-459 -340h-202l362 340h299zM989 -35q-384 0 -614 190t-230 509q0 188 87.5 365t236 309t358 212t441.5 80q189 0 350 -55t274.5 -165.5t149.5 -262.5l-227 -82q-52 163 -206.5 260.5t-373.5 97.5q-176 0 -334.5 -63t-268.5 -166t-174.5 -236.5t-64.5 -273.5
q0 -107 36 -194t97 -145t143.5 -98t173 -57.5t189.5 -17.5q268 0 467 122.5t303 315.5l203 -71q-145 -271 -408 -422.5t-608 -151.5z" />
    <glyph glyph-name="cacute" unicode="&#x107;" horiz-adv-x="1488" 
d="M1391 1663l-441 -385h-192l352 385h281zM682 -35q-272 0 -432 136t-160 366q0 136 60 263.5t164 224.5t254.5 155.5t320.5 58.5q129 0 238.5 -35.5t193 -113t115.5 -189.5l-224 -77q-28 107 -122.5 163t-229.5 56q-113 0 -214 -40t-170.5 -106t-109.5 -152.5t-40 -178.5
q0 -156 106.5 -246t284.5 -90q155 0 282 68t205 186l193 -76q-108 -178 -299.5 -275.5t-415.5 -97.5z" />
    <glyph glyph-name="Cdotaccent" unicode="&#x10a;" horiz-adv-x="2054" 
d="M1260 1772q-60 0 -100 34t-40 88q0 66 56 115t131 49q59 0 98 -34.5t39 -86.5q0 -66 -56 -115.5t-128 -49.5zM989 -35q-384 0 -614 190t-230 509q0 188 87.5 365t236 309t358 212t441.5 80q189 0 350 -55t274.5 -165.5t149.5 -262.5l-227 -82q-52 163 -206.5 260.5
t-373.5 97.5q-176 0 -334.5 -63t-268.5 -166t-174.5 -236.5t-64.5 -273.5q0 -107 36 -194t97 -145t143.5 -98t173 -57.5t189.5 -17.5q268 0 467 122.5t303 315.5l203 -71q-145 -271 -408 -422.5t-608 -151.5z" />
    <glyph glyph-name="cdotaccent" unicode="&#x10b;" horiz-adv-x="1488" 
d="M889 1370q-60 0 -98.5 35t-38.5 88q0 66 55.5 116t130.5 50q58 0 97.5 -35t39.5 -88q0 -65 -56.5 -115.5t-129.5 -50.5zM682 -35q-272 0 -432 136t-160 366q0 136 60 263.5t164 224.5t254.5 155.5t320.5 58.5q129 0 238.5 -35.5t193 -113t115.5 -189.5l-224 -77
q-28 107 -122.5 163t-229.5 56q-113 0 -214 -40t-170.5 -106t-109.5 -152.5t-40 -178.5q0 -156 106.5 -246t284.5 -90q155 0 282 68t205 186l193 -76q-108 -178 -299.5 -275.5t-415.5 -97.5z" />
    <glyph glyph-name="Ccaron" unicode="&#x10c;" horiz-adv-x="2054" 
d="M1552 2050h207l-385 -330h-252l-270 330h205q62 -53 215 -197q39 28 90.5 65.5t94.5 67.5t95 64zM989 -35q-384 0 -614 190t-230 509q0 188 87.5 365t236 309t358 212t441.5 80q189 0 350 -55t274.5 -165.5t149.5 -262.5l-227 -82q-52 163 -206.5 260.5t-373.5 97.5
q-176 0 -334.5 -63t-268.5 -166t-174.5 -236.5t-64.5 -273.5q0 -107 36 -194t97 -145t143.5 -98t173 -57.5t189.5 -17.5q268 0 467 122.5t303 315.5l203 -71q-145 -271 -408 -422.5t-608 -151.5z" />
    <glyph glyph-name="ccaron" unicode="&#x10d;" horiz-adv-x="1488" 
d="M997 1288h-256l-290 373h208q30 -29 73.5 -68t78.5 -74.5t82 -91.5q46 38 140.5 102.5t176.5 131.5h209zM682 -35q-272 0 -432 136t-160 366q0 136 60 263.5t164 224.5t254.5 155.5t320.5 58.5q129 0 238.5 -35.5t193 -113t115.5 -189.5l-224 -77q-28 107 -122.5 163
t-229.5 56q-113 0 -214 -40t-170.5 -106t-109.5 -152.5t-40 -178.5q0 -156 106.5 -246t284.5 -90q155 0 282 68t205 186l193 -76q-108 -178 -299.5 -275.5t-415.5 -97.5z" />
    <glyph glyph-name="Dcaron" unicode="&#x10e;" horiz-adv-x="1968" 
d="M1423 2050h207l-385 -330h-252l-270 330h205q62 -53 215 -197q39 28 90.5 65.5t94.5 67.5t95 64zM858 0h-717l283 1597h694q393 0 589 -170t196 -475q0 -147 -47 -287.5t-138 -260.5t-216 -210.5t-291.5 -142t-352.5 -51.5zM406 203h477q173 0 320.5 57.5t245.5 154.5
t153 224.5t55 267.5q0 110 -30.5 194.5t-84.5 139.5t-134 90t-171.5 49.5t-204.5 14.5h-405q-24 -129 -52.5 -271.5t-64 -335t-104.5 -585.5z" />
    <glyph glyph-name="dcaron" unicode="&#x10f;" horiz-adv-x="1642" 
d="M1763 1139h-135l213 270q-39 13 -61.5 43.5t-22.5 69.5q0 66 57 116t132 50q58 0 96.5 -35.5t38.5 -89.5q0 -50 -54.5 -121t-263.5 -303zM623 -35q-241 0 -386 135t-145 359q0 137 58 266.5t156 227t237.5 157t292.5 59.5q155 0 269 -59.5t169 -165.5h4l127 694h221
l-227 -1284q-23 -126 -25.5 -211t8.5 -143h-221q-13 110 4 188h-6q-96 -110 -239 -166.5t-297 -56.5zM694 162q142 0 266 66.5t196.5 177t72.5 233.5q0 152 -107 244t-274 92q-142 0 -262.5 -67.5t-189 -177.5t-68.5 -234q0 -150 100.5 -242t265.5 -92z" />
    <glyph glyph-name="Dcroat" unicode="&#x110;" horiz-adv-x="1968" 
d="M424 1597h694q393 0 589 -170t196 -475q0 -147 -47 -287.5t-138 -260.5t-216 -210.5t-291.5 -142t-352.5 -51.5h-717l125 709h-217l27 178h223zM883 203q173 0 320.5 57.5t245.5 154.5t153 224.5t55 267.5q0 110 -30.5 194.5t-84.5 139.5t-134 90t-171.5 49.5
t-204.5 14.5h-405q-23 -123 -52 -266.5t-47 -241.5h570l-27 -178h-575q-23 -124 -90 -506h477z" />
    <glyph glyph-name="dcroat" unicode="&#x111;" horiz-adv-x="1642" 
d="M1595 1460h314l-23 -160h-319l-168 -946q-23 -126 -25.5 -211t8.5 -143h-221q-13 110 4 188h-6q-96 -110 -239 -166.5t-297 -56.5q-241 0 -386 135t-145 359q0 137 58 266.5t156 227t237.5 157t292.5 59.5q155 0 269 -59.5t169 -165.5h4l65 356h-331l26 160h334l33 178
h221zM694 162q142 0 266 66.5t196.5 177t72.5 233.5q0 152 -107 244t-274 92q-142 0 -262.5 -67.5t-189 -177.5t-68.5 -234q0 -150 100.5 -242t265.5 -92z" />
    <glyph glyph-name="Emacron" unicode="&#x112;" horiz-adv-x="1605" 
d="M1466 1798h-835l26 162h834zM1386 0h-1245l283 1597h1221l-31 -202h-987l-26 -123q-26 -124 -66 -350h938l-31 -211h-938q-12 -61 -28.5 -147t-69.5 -357h1011z" />
    <glyph glyph-name="emacron" unicode="&#x113;" horiz-adv-x="1376" 
d="M1253 1376h-825l25 156h825zM604 -35q-238 0 -382 132.5t-144 353.5q0 141 57 272.5t154 229.5t233 157t285 59q68 0 132 -13t126 -41.5t108.5 -74.5t80 -111t40.5 -150.5t-10 -194.5l-14 -76h-973q-20 -166 76 -261t266 -95q130 0 242 65t180 174l188 -76
q-97 -160 -268 -255t-377 -95zM338 686h741q11 79 -10.5 139.5t-67 95t-102.5 51.5t-123 17q-150 0 -268.5 -85t-169.5 -218z" />
    <glyph glyph-name="Edotaccent" unicode="&#x116;" horiz-adv-x="1605" 
d="M1040 1772q-60 0 -99.5 34t-39.5 88q0 66 55.5 115t130.5 49q59 0 98.5 -34.5t39.5 -86.5q0 -66 -56.5 -115.5t-128.5 -49.5zM1386 0h-1245l283 1597h1221l-31 -202h-987l-26 -123q-26 -124 -66 -350h938l-31 -211h-938q-12 -61 -28.5 -147t-69.5 -357h1011z" />
    <glyph glyph-name="edotaccent" unicode="&#x117;" horiz-adv-x="1376" 
d="M838 1370q-60 0 -99 35t-39 88q0 66 56 116t131 50q58 0 97.5 -35t39.5 -88q0 -65 -56.5 -115.5t-129.5 -50.5zM604 -35q-238 0 -382 132.5t-144 353.5q0 141 57 272.5t154 229.5t233 157t285 59q68 0 132 -13t126 -41.5t108.5 -74.5t80 -111t40.5 -150.5t-10 -194.5
l-14 -76h-973q-20 -166 76 -261t266 -95q130 0 242 65t180 174l188 -76q-97 -160 -268 -255t-377 -95zM338 686h741q11 79 -10.5 139.5t-67 95t-102.5 51.5t-123 17q-150 0 -268.5 -85t-169.5 -218z" />
    <glyph glyph-name="Eogonek" unicode="&#x118;" horiz-adv-x="1605" 
d="M1645 1597l-31 -202h-987l-26 -123q-26 -124 -66 -350h938l-31 -211h-938q-12 -61 -28.5 -147t-69.5 -357h1011l-31 -207q-101 -26 -172 -83t-71 -122q0 -52 49 -86.5t131 -34.5q50 0 111 13l-23 -133q-69 -17 -137 -17q-130 0 -216.5 52t-86.5 147q0 88 71 155t172 109
h-1073l283 1597h1221z" />
    <glyph glyph-name="eogonek" unicode="&#x119;" horiz-adv-x="1376" 
d="M807 1169q68 0 132 -13t126 -41.5t108.5 -74.5t80 -111t40.5 -150.5t-10 -194.5l-14 -76h-973q-20 -166 76 -261t266 -95q130 0 242 65t180 174l188 -76q-74 -122 -194.5 -208t-268.5 -121q-86 -32 -140 -83t-54 -108q0 -52 47.5 -83t122.5 -31q52 0 112 16l-24 -146
q-63 -14 -125 -14q-139 0 -221 54.5t-82 146.5q0 70 47.5 128t122.5 99q-234 5 -374 136.5t-140 349.5q0 141 57 272.5t154 229.5t233 157t285 59zM338 686h741q11 79 -10.5 139.5t-67 95t-102.5 51.5t-123 17q-150 0 -268.5 -85t-169.5 -218z" />
    <glyph glyph-name="Ecaron" unicode="&#x11a;" horiz-adv-x="1605" 
d="M1333 2050h207l-385 -330h-252l-270 330h205q62 -53 215 -197q39 28 90.5 65.5t94.5 67.5t95 64zM1386 0h-1245l283 1597h1221l-31 -202h-987l-26 -123q-26 -124 -66 -350h938l-31 -211h-938q-12 -61 -28.5 -147t-69.5 -357h1011z" />
    <glyph glyph-name="ecaron" unicode="&#x11b;" horiz-adv-x="1376" 
d="M946 1288h-256l-291 373h209q30 -29 73.5 -68t78.5 -74.5t82 -91.5q46 38 140.5 102.5t176.5 131.5h209zM604 -35q-238 0 -382 132.5t-144 353.5q0 141 57 272.5t154 229.5t233 157t285 59q68 0 132 -13t126 -41.5t108.5 -74.5t80 -111t40.5 -150.5t-10 -194.5l-14 -76
h-973q-20 -166 76 -261t266 -95q130 0 242 65t180 174l188 -76q-97 -160 -268 -255t-377 -95zM338 686h741q11 79 -10.5 139.5t-67 95t-102.5 51.5t-123 17q-150 0 -268.5 -85t-169.5 -218z" />
    <glyph glyph-name="Gbreve" unicode="&#x11e;" horiz-adv-x="2146" 
d="M1249 1720q-201 0 -311 102t-92 242h192q-8 -73 57 -130.5t177 -57.5q113 0 198 56.5t107 131.5h192q-29 -140 -174 -242t-346 -102zM961 -35q-372 0 -595 188.5t-223 503.5q0 126 39.5 249t110.5 230t174 198.5t225.5 156.5t270 102t303.5 37q191 0 353 -56.5t274 -167
t147 -259.5l-228 -82q-53 166 -206 262t-371 96q-177 0 -336 -63t-269 -166t-174.5 -236.5t-64.5 -273.5q0 -109 37 -197t98.5 -145.5t145 -96.5t172 -56t184.5 -17q268 0 472 124t267 322h-616l29 185h850l-140 -803h-186q6 40 20 129t27 176h-12q-131 -164 -327.5 -252
t-450.5 -88z" />
    <glyph glyph-name="gbreve" unicode="&#x11f;" horiz-adv-x="1638" 
d="M924 1272q-206 0 -307.5 110t-77.5 285h188q-17 -104 44.5 -172t178.5 -68q118 0 204.5 67.5t111.5 172.5h190q-40 -179 -184.5 -287t-347.5 -108zM602 -483q-475 0 -561 329l211 66q62 -217 373 -217q200 0 336.5 114t177.5 314l20 98h-6q-94 -110 -230 -163.5
t-290 -53.5q-240 0 -388.5 130t-148.5 351q0 132 58.5 257.5t157 219t236 150.5t286.5 57q157 0 274 -61t170 -168h6l37 197h215l-176 -1008q-24 -136 -75.5 -241.5t-121 -174.5t-161 -113.5t-189 -63.5t-211.5 -19zM700 199q139 0 262.5 64.5t196 169.5t72.5 220
q0 143 -108 232.5t-275 89.5q-84 0 -163.5 -24.5t-142.5 -68t-110.5 -100t-73.5 -124t-26 -136.5q0 -143 102 -233t266 -90z" />
    <glyph glyph-name="Gdotaccent" unicode="&#x120;" horiz-adv-x="2146" 
d="M1257 1772q-60 0 -99.5 34t-39.5 88q0 66 56 115t131 49q59 0 98 -34.5t39 -86.5q0 -66 -56.5 -115.5t-128.5 -49.5zM961 -35q-372 0 -595 188.5t-223 503.5q0 126 39.5 249t110.5 230t174 198.5t225.5 156.5t270 102t303.5 37q191 0 353 -56.5t274 -167t147 -259.5
l-228 -82q-53 166 -206 262t-371 96q-177 0 -336 -63t-269 -166t-174.5 -236.5t-64.5 -273.5q0 -109 37 -197t98.5 -145.5t145 -96.5t172 -56t184.5 -17q268 0 472 124t267 322h-616l29 185h850l-140 -803h-186q6 40 20 129t27 176h-12q-131 -164 -327.5 -252t-450.5 -88z
" />
    <glyph glyph-name="gdotaccent" unicode="&#x121;" horiz-adv-x="1638" 
d="M946 1370q-60 0 -98.5 35t-38.5 88q0 66 55.5 116t130.5 50q59 0 98.5 -35.5t39.5 -87.5q0 -65 -57 -115.5t-130 -50.5zM602 -483q-475 0 -561 329l211 66q62 -217 373 -217q200 0 336.5 114t177.5 314l20 98h-6q-94 -110 -230 -163.5t-290 -53.5q-240 0 -388.5 130
t-148.5 351q0 132 58.5 257.5t157 219t236 150.5t286.5 57q157 0 274 -61t170 -168h6l37 197h215l-176 -1008q-24 -136 -75.5 -241.5t-121 -174.5t-161 -113.5t-189 -63.5t-211.5 -19zM700 199q139 0 262.5 64.5t196 169.5t72.5 220q0 143 -108 232.5t-275 89.5
q-84 0 -163.5 -24.5t-142.5 -68t-110.5 -100t-73.5 -124t-26 -136.5q0 -143 102 -233t266 -90z" />
    <glyph glyph-name="uni0122" unicode="&#x122;" horiz-adv-x="2146" 
d="M961 -35q-372 0 -595 188.5t-223 503.5q0 126 39.5 249t110.5 230t174 198.5t225.5 156.5t270 102t303.5 37q191 0 353 -56.5t274 -167t147 -259.5l-228 -82q-53 166 -206 262t-371 96q-177 0 -336 -63t-269 -166t-174.5 -236.5t-64.5 -273.5q0 -109 37 -197t98.5 -145.5
t145 -96.5t172 -56t184.5 -17q268 0 472 124t267 322h-616l29 185h850l-140 -803h-186q6 40 20 129t27 176h-12q-131 -164 -327.5 -252t-450.5 -88zM827 -582h-116l168 215q-91 30 -91 107q0 58 50.5 102.5t119.5 44.5q56 0 92.5 -30.5t36.5 -79.5q0 -12 -2 -24t-8.5 -26
t-13 -25.5t-21 -31t-26.5 -34.5t-35.5 -42t-42 -48t-51.5 -59t-60 -69z" />
    <glyph glyph-name="uni0123" unicode="&#x123;" horiz-adv-x="1638" 
d="M774 1376q0 45 40 99.5t186 221.5q39 45 61 70h131l-195 -247q33 -13 55.5 -41t22.5 -64q0 -61 -52.5 -106t-121.5 -45q-56 0 -91.5 31.5t-35.5 80.5zM602 -483q-475 0 -561 329l211 66q62 -217 373 -217q200 0 336.5 114t177.5 314l20 98h-6q-94 -110 -230 -163.5
t-290 -53.5q-240 0 -388.5 130t-148.5 351q0 132 58.5 257.5t157 219t236 150.5t286.5 57q157 0 274 -61t170 -168h6l37 197h215l-176 -1008q-24 -136 -75.5 -241.5t-121 -174.5t-161 -113.5t-189 -63.5t-211.5 -19zM700 199q139 0 262.5 64.5t196 169.5t72.5 220
q0 143 -108 232.5t-275 89.5q-84 0 -163.5 -24.5t-142.5 -68t-110.5 -100t-73.5 -124t-26 -136.5q0 -143 102 -233t266 -90z" />
    <glyph glyph-name="Hbar" unicode="&#x126;" horiz-adv-x="1988" 
d="M1882 1315h166l-27 -174h-170l-202 -1141h-236l123 692h-1038l-121 -692h-236l203 1141h-172l27 174h176l49 282h235l-49 -282h1037l49 282h235zM537 903h1036l43 238h-1036z" />
    <glyph glyph-name="hbar" unicode="&#x127;" horiz-adv-x="1558" 
d="M991 1169q76 0 142.5 -16t124.5 -50t94 -87.5t51.5 -128t-2.5 -172.5l-125 -715h-221l114 623q29 162 -47 256t-227 94q-180 0 -307.5 -101.5t-155.5 -261.5l-108 -610h-220l230 1296h-240l27 160h239l33 182h219l-32 -182h411l-22 -160h-418l-64 -354h7q191 227 497 227
z" />
    <glyph glyph-name="Imacron" unicode="&#x12a;" horiz-adv-x="716" 
d="M997 1798h-835l26 162h834zM377 0h-236l283 1597h235z" />
    <glyph glyph-name="imacron" unicode="&#x12b;" horiz-adv-x="624" 
d="M872 1366h-825l25 156h825zM324 0h-220l199 1137h221z" />
    <glyph glyph-name="Iogonek" unicode="&#x12e;" horiz-adv-x="716" 
d="M135 -205q0 -52 49 -86.5t131 -34.5q50 0 111 13l-23 -133q-69 -17 -137 -17q-130 0 -216.5 52t-86.5 147q0 88 71.5 155t172.5 109h-66l283 1597h235l-282 -1597h2q-101 -26 -172.5 -83t-71.5 -122z" />
    <glyph glyph-name="iogonek" unicode="&#x12f;" horiz-adv-x="624" 
d="M506 1649q58 0 97.5 -35t39.5 -88q0 -65 -56.5 -115.5t-129.5 -50.5q-60 0 -99 35t-39 88q0 66 56 116t131 50zM324 0h-21q-102 -29 -169.5 -85t-67.5 -120q0 -52 47.5 -83t122.5 -31q52 0 112 16l-24 -146q-63 -14 -125 -14q-139 0 -221 54.5t-82 146.5q0 46 22 89
t58.5 75.5t78 57t86.5 40.5h-37l199 1137h221z" />
    <glyph glyph-name="Idotaccent" unicode="&#x130;" horiz-adv-x="716" 
d="M571 1772q-60 0 -99.5 34t-39.5 88q0 66 55.5 115t130.5 49q59 0 98.5 -34.5t39.5 -86.5q0 -66 -56.5 -115.5t-128.5 -49.5zM377 0h-236l283 1597h235z" />
    <glyph glyph-name="dotlessi" unicode="&#x131;" horiz-adv-x="624" 
d="M324 0h-220l199 1137h221z" />
    <glyph glyph-name="uni0136" unicode="&#x136;" horiz-adv-x="1673" 
d="M375 0h-234l283 1597h233l-141 -792h8q471 374 1030 792h279q-397 -307 -895 -698q651 -897 653 -899h-282q-113 146 -292.5 385t-268.5 356l-281 -221q-4 -20 -28 -161.5t-64 -358.5zM522 -582h-116l167 215q-90 30 -90 107q0 58 50.5 102.5t119.5 44.5q56 0 92.5 -30.5
t36.5 -79.5q0 -12 -2 -24t-8.5 -26t-13 -25.5t-21 -31t-26.5 -34.5t-35.5 -42t-42 -48t-51.5 -59t-60 -69z" />
    <glyph glyph-name="uni0137" unicode="&#x137;" horiz-adv-x="1316" 
d="M1102 1137h266l-588 -457l469 -680h-258l-385 543l-213 -166l-69 -377h-220l289 1638h219l-178 -997h4q109 83 325.5 243t338.5 253zM582 -113q56 0 92.5 -30.5t36.5 -79.5q0 -12 -2 -24t-8.5 -26t-13 -25.5t-21 -31t-26.5 -34.5t-35.5 -42t-42 -48t-51.5 -59t-60 -69
h-117l168 215q-90 30 -90 107q0 58 50.5 102.5t119.5 44.5z" />
    <glyph glyph-name="Lacute" unicode="&#x139;" horiz-adv-x="1441" 
d="M864 2060h299l-458 -340h-203zM659 1597l-245 -1390h932l-31 -207h-1174l283 1597h235z" />
    <glyph glyph-name="lacute" unicode="&#x13a;" horiz-adv-x="624" 
d="M1104 2101l-459 -340h-203l363 340h299zM324 0h-220l289 1638h219z" />
    <glyph glyph-name="uni013B" unicode="&#x13b;" horiz-adv-x="1441" 
d="M659 1597l-245 -1390h932l-31 -207h-1174l283 1597h235zM659 -113q56 0 92.5 -30.5t36.5 -79.5q0 -12 -2 -24t-8.5 -26t-13 -25.5t-21 -31t-26.5 -34.5t-35.5 -42t-42 -48t-51.5 -59t-60 -69h-116l168 215q-91 30 -91 107q0 58 50.5 102.5t119.5 44.5z" />
    <glyph glyph-name="uni013C" unicode="&#x13c;" horiz-adv-x="624" 
d="M324 0h-220l289 1638h219zM70 -582h-117l168 215q-90 30 -90 107q0 58 50.5 102.5t119.5 44.5q56 0 92.5 -30.5t36.5 -79.5q0 -12 -2 -24t-8.5 -26t-13 -25.5t-21 -31t-26.5 -34.5t-35.5 -42t-42 -48t-51.5 -59t-60 -69z" />
    <glyph glyph-name="Lcaron" unicode="&#x13d;" horiz-adv-x="1441" 
d="M1069 1102h-137l215 270q-41 13 -63.5 42.5t-22.5 68.5q0 66 57.5 117t132.5 51q57 0 96 -35.5t39 -89.5q0 -52 -55 -124t-262 -300zM424 1597h235l-245 -1390h932l-31 -207h-1174z" />
    <glyph glyph-name="lcaron" unicode="&#x13e;" horiz-adv-x="624" 
d="M856 1102h-137l215 270q-41 13 -63.5 42.5t-22.5 68.5q0 66 57.5 117t132.5 51q57 0 96.5 -35.5t39.5 -89.5q0 -51 -55 -122.5t-263 -301.5zM324 0h-220l289 1638h219z" />
    <glyph glyph-name="Lslash" unicode="&#x141;" horiz-adv-x="1441" 
d="M524 829l-110 -622h932l-31 -207h-1174l131 737l-215 -80l29 189l219 82l119 669h235l-102 -577l344 127l-29 -189z" />
    <glyph glyph-name="lslash" unicode="&#x142;" horiz-adv-x="624" 
d="M514 1085l270 152l-26 -182l-277 -154l-157 -901h-220l136 764l-252 -141l28 182l256 143l121 690h219z" />
    <glyph glyph-name="Nacute" unicode="&#x143;" horiz-adv-x="2019" 
d="M1737 2060l-459 -340h-203l363 340h299zM377 0h-236l283 1597h250q486 -708 821 -1222h6q18 99 96 507t132 715h233l-283 -1597h-247q-47 68 -356.5 513t-471.5 691h-4q-24 -132 -61.5 -316.5t-75.5 -389t-86 -498.5z" />
    <glyph glyph-name="nacute" unicode="&#x144;" horiz-adv-x="1558" 
d="M1421 1663l-440 -385h-193l353 385h280zM324 0h-220l199 1137h215l-35 -195h4q94 112 226.5 169.5t279.5 57.5q97 0 177.5 -26t141 -78t85.5 -142t4 -208l-125 -715h-221l114 623q29 162 -47 256t-229 94q-179 0 -306 -102t-155 -261z" />
    <glyph glyph-name="uni0145" unicode="&#x145;" horiz-adv-x="2019" 
d="M377 0h-236l283 1597h250q486 -708 821 -1222h6q18 99 96 507t132 715h233l-283 -1597h-247q-47 68 -356.5 513t-471.5 691h-4q-24 -132 -61.5 -316.5t-75.5 -389t-86 -498.5zM795 -582h-117l168 215q-90 30 -90 107q0 58 50.5 102.5t119.5 44.5q56 0 92.5 -30.5
t36.5 -79.5q0 -12 -2 -24t-8.5 -26t-13 -25.5t-21 -31t-26.5 -34.5t-35.5 -42t-42 -48t-51.5 -59t-60 -69z" />
    <glyph glyph-name="uni0146" unicode="&#x146;" horiz-adv-x="1558" 
d="M324 0h-220l199 1137h215l-35 -195h4q94 112 226.5 169.5t279.5 57.5q97 0 177.5 -26t141 -78t85.5 -142t4 -208l-125 -715h-221l114 623q29 162 -47 256t-229 94q-179 0 -306 -102t-155 -261zM580 -582h-117l168 215q-90 30 -90 107q0 58 50.5 102.5t119.5 44.5
q56 0 92.5 -30.5t36.5 -79.5q0 -12 -2 -24t-8.5 -26t-13 -25.5t-21 -31t-26.5 -34.5t-35.5 -42t-42 -48t-51.5 -59t-60 -69z" />
    <glyph glyph-name="Ncaron" unicode="&#x147;" horiz-adv-x="2019" 
d="M1493 2050h207l-385 -330h-252l-270 330h204q62 -53 215 -197q38 27 90.5 65t95.5 68t95 64zM377 0h-236l283 1597h250q486 -708 821 -1222h6q18 99 96 507t132 715h233l-283 -1597h-247q-47 68 -356.5 513t-471.5 691h-4q-24 -132 -61.5 -316.5t-75.5 -389t-86 -498.5z
" />
    <glyph glyph-name="ncaron" unicode="&#x148;" horiz-adv-x="1558" 
d="M1028 1288h-256l-291 373h209q30 -29 73.5 -68t78.5 -74.5t82 -91.5q46 38 140.5 102.5t176.5 131.5h209zM324 0h-220l199 1137h215l-35 -195h4q94 112 226.5 169.5t279.5 57.5q97 0 177.5 -26t141 -78t85.5 -142t4 -208l-125 -715h-221l114 623q29 162 -47 256t-229 94
q-179 0 -306 -102t-155 -261z" />
    <glyph glyph-name="Eng" unicode="&#x14a;" horiz-adv-x="2019" 
d="M1077 -483q-84 0 -170.5 14t-132.5 35l27 188q94 -49 250 -49q161 0 260 73.5t127 213.5q-110 162 -394.5 569.5t-443.5 648.5l-223 -1210h-236l283 1597h250q486 -708 821 -1222h6l228 1222h233l-274 -1538q-94 -542 -611 -542z" />
    <glyph glyph-name="eng" unicode="&#x14b;" horiz-adv-x="1558" 
d="M786 -483q-148 0 -251 49l26 184q104 -49 211 -49q47 0 85.5 10.5t65 26t48 42t34 48t23.5 54.5t15 53t10 51l116 637q29 163 -45.5 256.5t-228.5 93.5q-180 0 -307.5 -102t-155.5 -261l-108 -610h-220l199 1137h215l-35 -195h4q94 112 226.5 169.5t279.5 57.5
q96 0 176.5 -26t141.5 -77.5t87 -140.5t5 -204l-129 -735q-7 -39 -12 -64t-16 -67t-23 -71t-33 -67t-45.5 -64t-60.5 -54t-78 -44.5t-98.5 -27t-121.5 -10.5z" />
    <glyph glyph-name="Omacron" unicode="&#x14c;" horiz-adv-x="2158" 
d="M1716 1798h-835l26 162h834zM975 -35q-241 0 -430.5 88.5t-295.5 249t-106 365.5q0 148 57.5 292t162.5 264t243 211.5t310 143t352 51.5t334.5 -52t264 -144.5t171 -224t61.5 -285.5q0 -123 -41 -244.5t-114.5 -226.5t-178 -195.5t-227.5 -155t-268 -101t-295 -36.5z
M1010 172q166 0 321 61t267 161.5t179.5 233.5t67.5 271q0 230 -170.5 377t-437.5 147q-165 0 -320.5 -61t-269.5 -161t-183 -234t-69 -273q0 -152 79 -271.5t219.5 -185t316.5 -65.5z" />
    <glyph glyph-name="omacron" unicode="&#x14d;" horiz-adv-x="1576" 
d="M1348 1376h-826l25 156h825zM682 -35q-270 0 -431 136.5t-161 365.5q0 107 38 211t110.5 192t169.5 155.5t223 105.5t264 38q270 0 431 -137.5t161 -367.5q0 -134 -60 -260.5t-163.5 -223.5t-256 -156t-325.5 -59zM713 160q115 0 217 40t172 106.5t110.5 154t40.5 180.5
q0 153 -104.5 242.5t-282.5 89.5q-115 0 -217.5 -41t-172 -108t-110 -153.5t-40.5 -176.5q0 -152 105 -243t282 -91z" />
    <glyph glyph-name="Ohungarumlaut" unicode="&#x150;" horiz-adv-x="2158" 
d="M1530 2060l-406 -340h-196l315 340h287zM1970 2060l-420 -340h-196l332 340h284zM975 -35q-241 0 -430.5 88.5t-295.5 249t-106 365.5q0 148 57.5 292t162.5 264t243 211.5t310 143t352 51.5t334.5 -52t264 -144.5t171 -224t61.5 -285.5q0 -123 -41 -244.5t-114.5 -226.5
t-178 -195.5t-227.5 -155t-268 -101t-295 -36.5zM1010 172q166 0 321 61t267 161.5t179.5 233.5t67.5 271q0 230 -170.5 377t-437.5 147q-165 0 -320.5 -61t-269.5 -161t-183 -234t-69 -273q0 -152 79 -271.5t219.5 -185t316.5 -65.5z" />
    <glyph glyph-name="ohungarumlaut" unicode="&#x151;" horiz-adv-x="1576" 
d="M1161 1673l-420 -395h-188l332 395h276zM1608 1673l-434 -395h-191l348 395h277zM682 -35q-270 0 -431 136.5t-161 365.5q0 107 38 211t110.5 192t169.5 155.5t223 105.5t264 38q270 0 431 -137.5t161 -367.5q0 -134 -60 -260.5t-163.5 -223.5t-256 -156t-325.5 -59z
M713 160q115 0 217 40t172 106.5t110.5 154t40.5 180.5q0 153 -104.5 242.5t-282.5 89.5q-115 0 -217.5 -41t-172 -108t-110 -153.5t-40.5 -176.5q0 -152 105 -243t282 -91z" />
    <glyph glyph-name="OE" unicode="&#x152;" horiz-adv-x="3147" 
d="M971 -35q-233 0 -420 84t-297.5 245t-110.5 372q0 149 57.5 294t162 264.5t242.5 211.5t309 143t350 51q226 0 400.5 -79.5t268.5 -219.5l54 266h1198l-29 -202h-979l-90 -473h930l-35 -211h-928l-94 -504h1001l-32 -207h-1225l53 264q-149 -141 -354.5 -220t-431.5 -79z
M1006 172q166 0 321 61.5t266.5 162t178.5 234.5t67 273q0 229 -168.5 374.5t-435.5 145.5q-165 0 -321 -61.5t-269 -161.5t-181.5 -233.5t-68.5 -272.5q0 -152 78.5 -271.5t218 -185t314.5 -65.5z" />
    <glyph glyph-name="oe" unicode="&#x153;" horiz-adv-x="2658" 
d="M684 -35q-270 0 -432 137t-162 367q0 108 38 211.5t110.5 191.5t170 154.5t223.5 104.5t263 38q188 0 323.5 -67.5t196.5 -186.5q101 118 260.5 186t343.5 68q63 0 124 -9.5t121.5 -30t110.5 -53.5t92 -79t66 -106.5t31.5 -137t-10.5 -169.5l-8 -47h-1086
q-26 -172 85.5 -278.5t303.5 -106.5q151 0 276.5 65t201.5 174l192 -76q-104 -160 -292 -255t-412 -95q-189 0 -325 66.5t-192 185.5q-107 -119 -266.5 -185.5t-347.5 -66.5zM1491 676h846q8 67 -8.5 121.5t-50 90t-81.5 59.5t-101 34t-111 10q-169 0 -302.5 -86.5
t-191.5 -228.5zM713 160q115 0 217 40t172 106.5t110.5 153.5t40.5 179q0 154 -104.5 244t-282.5 90q-115 0 -217 -40.5t-172 -107t-110.5 -153t-40.5 -178.5q0 -152 105 -243t282 -91z" />
    <glyph glyph-name="Racute" unicode="&#x154;" horiz-adv-x="1710" 
d="M1530 2060l-459 -340h-203l363 340h299zM377 0h-236l283 1597h694q77 0 149.5 -10.5t149 -39.5t132.5 -73.5t92 -119.5t36 -172q0 -134 -70.5 -253.5t-201 -201.5t-295.5 -104v-2q37 -58 101 -151.5t130.5 -199t159.5 -270.5h-260l-387 606h-369q-13 -69 -19 -103
t-10 -58.5t-24 -139t-55 -305.5zM514 801h430q215 0 350.5 96t135.5 240q0 132 -105 196t-281 64h-417q-68 -353 -113 -596z" />
    <glyph glyph-name="racute" unicode="&#x155;" horiz-adv-x="1026" 
d="M1214 1663l-440 -385h-192l352 385h280zM324 0h-220l199 1137h215l-39 -207h10q72 103 198.5 171t268.5 68q79 0 144 -22l-35 -229q-67 24 -166 24q-105 0 -193 -40.5t-145.5 -106.5t-93.5 -141t-51 -154z" />
    <glyph glyph-name="uni0156" unicode="&#x156;" horiz-adv-x="1710" 
d="M377 0h-236l283 1597h694q77 0 149.5 -10.5t149 -39.5t132.5 -73.5t92 -119.5t36 -172q0 -134 -70.5 -253.5t-201 -201.5t-295.5 -104v-2q37 -58 101 -151.5t130.5 -199t159.5 -270.5h-260l-387 606h-369q-13 -69 -19 -103t-10 -58.5t-24 -139t-55 -305.5zM514 801h430
q215 0 350.5 96t135.5 240q0 132 -105 196t-281 64h-417q-68 -353 -113 -596zM612 -582h-116l168 215q-91 30 -91 107q0 58 50.5 102.5t119.5 44.5q56 0 92.5 -30.5t36.5 -79.5q0 -12 -2 -24t-8.5 -26t-13 -25.5t-21 -31t-26.5 -34.5t-35.5 -42t-42 -48t-51.5 -59t-60 -69z
" />
    <glyph glyph-name="uni0157" unicode="&#x157;" horiz-adv-x="1026" 
d="M324 0h-220l199 1137h215l-39 -207h10q72 103 198.5 171t268.5 68q79 0 144 -22l-35 -229q-67 24 -166 24q-105 0 -193 -40.5t-145.5 -106.5t-93.5 -141t-51 -154zM61 -582h-116l168 215q-90 30 -90 107q0 58 50.5 102.5t119.5 44.5q56 0 92.5 -30.5t36.5 -79.5
q0 -14 -3.5 -28t-9 -27t-19 -32.5t-25.5 -35t-36.5 -44t-44 -51t-57 -65t-66.5 -76.5z" />
    <glyph glyph-name="Rcaron" unicode="&#x158;" horiz-adv-x="1710" 
d="M1288 2050h207l-385 -330h-252l-270 330h205q62 -53 215 -197q39 28 90.5 65.5t94.5 67.5t95 64zM377 0h-236l283 1597h694q77 0 149.5 -10.5t149 -39.5t132.5 -73.5t92 -119.5t36 -172q0 -134 -70.5 -253.5t-201 -201.5t-295.5 -104v-2q37 -58 101 -151.5t130.5 -199
t159.5 -270.5h-260l-387 606h-369q-13 -69 -19 -103t-10 -58.5t-24 -139t-55 -305.5zM514 801h430q215 0 350.5 96t135.5 240q0 132 -105 196t-281 64h-417q-68 -353 -113 -596z" />
    <glyph glyph-name="rcaron" unicode="&#x159;" horiz-adv-x="1026" 
d="M821 1288h-256l-291 373h209q30 -29 73.5 -68t78.5 -74.5t82 -91.5q46 38 140.5 102.5t176.5 131.5h209zM324 0h-220l199 1137h215l-39 -207h10q72 103 198.5 171t268.5 68q79 0 144 -22l-35 -229q-67 24 -166 24q-105 0 -193 -40.5t-145.5 -106.5t-93.5 -141t-51 -154z
" />
    <glyph glyph-name="Sacute" unicode="&#x15a;" horiz-adv-x="1587" 
d="M1460 2062l-461 -342h-200l360 342h301zM713 -35q-95 0 -182.5 17t-167 54t-141 91.5t-103.5 133.5t-56 175l228 72q18 -118 85 -196t160.5 -111t211.5 -33q196 0 330 83.5t134 203.5q0 41 -19 74.5t-46 55t-72 40.5t-81 30t-89 25l-10.5 3t-9.5 2.5t-11 2.5l-167 43
q-43 11 -77 21.5t-83 29.5t-86 40t-77 52t-66 66.5t-43 83.5t-17 102q0 98 54 190t147 161t226.5 111t283.5 42q251 0 404 -107t179 -270l-225 -82q-27 120 -130 189.5t-267 69.5q-178 0 -300 -76t-122 -180q0 -37 15.5 -69t46.5 -57t60 -43t75 -35t70.5 -24.5t66.5 -19.5
l184 -52q166 -45 238 -79q206 -98 206 -287q0 -102 -57 -200.5t-155.5 -174t-241.5 -122t-303 -46.5z" />
    <glyph glyph-name="sacute" unicode="&#x15b;" horiz-adv-x="1222" 
d="M1253 1665l-440 -385h-192l352 385h280zM528 -35q-206 0 -344 87.5t-166 232.5l213 61q33 -100 124 -154.5t208 -54.5q123 0 210 53t87 127q0 34 -17.5 59t-51.5 41t-67.5 26.5t-80.5 21.5q-7 1 -10 2l-127 33q-26 7 -37 10t-42.5 13t-49 17.5t-48 22.5t-48.5 29
t-40.5 36t-34.5 45t-21 53.5t-9 64.5q0 153 152.5 265.5t373.5 112.5q182 0 303 -78.5t146 -203.5l-217 -66q-21 76 -89 126t-179 50t-188 -49t-77 -117q0 -25 10.5 -46.5t32.5 -38t44 -28.5t56.5 -23.5t58 -17.5t59.5 -15l114 -29q33 -8 49.5 -12.5t51.5 -14.5t55.5 -20.5
t50 -26t47.5 -35t36 -43.5t26 -55.5t8 -67.5q0 -159 -163.5 -276t-408.5 -117z" />
    <glyph glyph-name="Scedilla" unicode="&#x15e;" horiz-adv-x="1587" 
d="M842 926l184 -52q166 -45 238 -79q206 -98 206 -287q0 -98 -53 -193t-145 -169.5t-225.5 -123t-284.5 -55.5l-105 -100q40 12 86 12q92 0 148.5 -41t56.5 -112q0 -96 -95.5 -164t-236.5 -68q-93 0 -173 32t-124 89l95 84q34 -45 91 -69.5t118 -24.5q73 0 122.5 31
t49.5 75q0 34 -35.5 55t-89.5 21q-65 0 -117 -27l-70 60l144 149q-107 10 -200 42t-170 88t-127.5 142t-66.5 195l228 72q18 -118 85 -196t160.5 -111t211.5 -33q196 0 330 83.5t134 203.5q0 41 -19 74.5t-46 55t-72 40.5t-81 30t-89 25l-10.5 3t-9.5 2.5t-11 2.5l-167 43
q-43 11 -77 21.5t-83 29.5t-86 40t-77 52t-66 66.5t-43 83.5t-17 102q0 98 54 190t147 161t226.5 111t283.5 42q251 0 404 -107t179 -270l-225 -82q-27 120 -130 189.5t-267 69.5q-178 0 -300 -76t-122 -180q0 -37 15.5 -69t46.5 -57t60 -43t75 -35t70.5 -24.5t66.5 -19.5z
" />
    <glyph glyph-name="scedilla" unicode="&#x15f;" horiz-adv-x="1222" 
d="M662 662l114 -29q33 -8 49.5 -12.5t51.5 -14.5t55.5 -20.5t50 -26t47.5 -35t36 -43.5t26 -55.5t8 -67.5q0 -151 -148.5 -265t-376.5 -126l-104 -100q40 12 86 12q92 0 148.5 -41t56.5 -112q0 -96 -95.5 -164t-236.5 -68q-93 0 -173 32t-124 89l94 84q34 -45 91 -69.5
t118 -24.5q73 0 122.5 31t49.5 75q0 34 -35.5 55t-89.5 21q-64 0 -116 -27l-70 60l143 149q-172 19 -284.5 103t-137.5 213l213 61q33 -100 124 -154.5t208 -54.5q123 0 210 53t87 127q0 34 -17.5 59t-51.5 41t-67.5 26.5t-80.5 21.5q-7 1 -10 2l-127 33q-26 7 -37 10
t-42.5 13t-49 17.5t-48 22.5t-48.5 29t-40.5 36t-34.5 45t-21 53.5t-9 64.5q0 153 152.5 265.5t373.5 112.5q182 0 303 -78.5t146 -203.5l-217 -66q-21 76 -89 126t-179 50t-188 -49t-77 -117q0 -25 10.5 -46.5t32.5 -38t44 -28.5t56.5 -23.5t58 -17.5t59.5 -15z" />
    <glyph glyph-name="Scaron" unicode="&#x160;" horiz-adv-x="1587" 
d="M1288 2050h207l-385 -330h-252l-270 330h205q62 -53 215 -197q39 28 90.5 65.5t94.5 67.5t95 64zM713 -35q-95 0 -182.5 17t-167 54t-141 91.5t-103.5 133.5t-56 175l228 72q18 -118 85 -196t160.5 -111t211.5 -33q196 0 330 83.5t134 203.5q0 41 -19 74.5t-46 55
t-72 40.5t-81 30t-89 25l-10.5 3t-9.5 2.5t-11 2.5l-167 43q-43 11 -77 21.5t-83 29.5t-86 40t-77 52t-66 66.5t-43 83.5t-17 102q0 98 54 190t147 161t226.5 111t283.5 42q251 0 404 -107t179 -270l-225 -82q-27 120 -130 189.5t-267 69.5q-178 0 -300 -76t-122 -180
q0 -37 15.5 -69t46.5 -57t60 -43t75 -35t70.5 -24.5t66.5 -19.5l184 -52q166 -45 238 -79q206 -98 206 -287q0 -102 -57 -200.5t-155.5 -174t-241.5 -122t-303 -46.5z" />
    <glyph glyph-name="scaron" unicode="&#x161;" horiz-adv-x="1222" 
d="M860 1288h-256l-291 373h209q30 -29 73.5 -68t78.5 -74.5t82 -91.5q46 38 140.5 102.5t176.5 131.5h209zM528 -35q-206 0 -344 87.5t-166 232.5l213 61q33 -100 124 -154.5t208 -54.5q123 0 210 53t87 127q0 34 -17.5 59t-51.5 41t-67.5 26.5t-80.5 21.5q-7 1 -10 2
l-127 33q-26 7 -37 10t-42.5 13t-49 17.5t-48 22.5t-48.5 29t-40.5 36t-34.5 45t-21 53.5t-9 64.5q0 153 152.5 265.5t373.5 112.5q182 0 303 -78.5t146 -203.5l-217 -66q-21 76 -89 126t-179 50t-188 -49t-77 -117q0 -25 10.5 -46.5t32.5 -38t44 -28.5t56.5 -23.5t58 -17.5
t59.5 -15l114 -29q33 -8 49.5 -12.5t51.5 -14.5t55.5 -20.5t50 -26t47.5 -35t36 -43.5t26 -55.5t8 -67.5q0 -159 -163.5 -276t-408.5 -117z" />
    <glyph glyph-name="uni0162" unicode="&#x162;" horiz-adv-x="1556" 
d="M182 1395l31 202h1495l-31 -202h-630q-26 -139 -75 -424t-177 -971h-45l-140 -133q40 12 86 12q92 0 148.5 -41t56.5 -112q0 -96 -95.5 -164t-236.5 -68q-93 0 -173 32t-124 89l95 84q34 -46 90.5 -70t117.5 -24q73 0 123 31t50 75q0 34 -35.5 55t-89.5 21
q-65 0 -117 -27l-70 60l172 180h-47q24 137 252 1395h-631z" />
    <glyph glyph-name="uni0163" unicode="&#x163;" horiz-adv-x="966" 
d="M985 948h-403l-101 -528q-5 -27 -7 -39.5t-5 -39.5t-2.5 -41t3 -37t9.5 -36t18.5 -29t29 -24t42.5 -14t56 -6q102 0 219 51l-29 -191q-110 -49 -260 -49q-37 0 -53 2l-105 -100q40 12 86 12q92 0 148.5 -41t56.5 -112q0 -96 -95.5 -164t-236.5 -68q-93 0 -173 32t-124 89
l95 84q34 -46 90.5 -70t117.5 -24q73 0 123 31t50 75q0 34 -35.5 55t-89.5 21q-65 0 -117 -27l-70 60l164 172q-52 19 -86 54.5t-47.5 71t-15.5 83.5t2 79t12 70l110 598h-270l29 189h270l58 329h221l-58 -329h400z" />
    <glyph glyph-name="Tcaron" unicode="&#x164;" horiz-adv-x="1556" 
d="M1286 2050h207l-385 -330h-252l-270 330h205q62 -53 215 -197q39 28 90.5 65.5t94.5 67.5t95 64zM795 0h-234q24 137 252 1395h-631l31 202h1495l-31 -202h-630q-26 -139 -75 -424t-177 -971z" />
    <glyph glyph-name="tcaron" unicode="&#x165;" horiz-adv-x="966" 
d="M1176 1112h-138l215 270q-41 13 -63.5 42.5t-22.5 68.5q0 66 58 116t133 50q58 0 96.5 -34.5t38.5 -88.5q0 -52 -55 -124t-262 -300zM555 -35q-76 0 -133.5 15.5t-92 38.5t-55.5 59t-29 67.5t-7.5 74t4 69t10.5 61.5l110 598h-270l29 189h270l58 329h221l-58 -329h400
l-27 -189h-403l-101 -528q-5 -27 -7 -39.5t-5 -39.5t-2.5 -41t3 -37t9.5 -36t18.5 -29t29 -24t42.5 -14t56 -6q102 0 219 51l-29 -191q-110 -49 -260 -49z" />
    <glyph glyph-name="Tbar" unicode="&#x166;" horiz-adv-x="1556" 
d="M1708 1597l-31 -202h-630q-26 -145 -49.5 -279.5t-41.5 -228.5h387l-26 -178h-391q-12 -65 -30 -163.5t-47 -254t-54 -291.5h-234q66 373 127 709h-393l27 178h399q34 186 92 508h-631l31 202h1495z" />
    <glyph glyph-name="tbar" unicode="&#x167;" horiz-adv-x="966" 
d="M1012 1137l-27 -189h-403l-50 -258h386l-23 -160h-393l-21 -110q-5 -27 -7 -39.5t-5 -39.5t-2.5 -41t3 -37t9.5 -36t18.5 -29t29 -24t42.5 -14t56 -6q102 0 219 51l-29 -191q-110 -49 -260 -49q-76 0 -133.5 15.5t-92 38.5t-55.5 59t-29 67.5t-7.5 74t4 69t10.5 61.5
l33 180h-265l27 160h268l47 258h-270l29 189h270l58 329h221l-58 -329h400z" />
    <glyph glyph-name="Umacron" unicode="&#x16a;" horiz-adv-x="1845" 
d="M1563 1798h-836l27 162h833zM813 -35q-121 0 -220 23.5t-166.5 65.5t-116.5 101t-70 130t-27 151t12 166l181 995h233l-178 -979q-35 -203 61 -325.5t328 -122.5t371.5 124.5t175.5 323.5l178 979h233l-180 -995q-17 -98 -53.5 -185.5t-102.5 -171.5t-154.5 -145
t-218.5 -98t-286 -37z" />
    <glyph glyph-name="umacron" unicode="&#x16b;" horiz-adv-x="1538" 
d="M1313 1376h-826l25 156h825zM569 -35q-101 0 -182.5 26.5t-141 80t-83 144t-2.5 208.5l125 713h221l-115 -639q-30 -168 48.5 -253t217.5 -85q117 0 215 51t155.5 129.5t74.5 169.5l110 627h222l-138 -783q-22 -120 -25.5 -199.5t7.5 -154.5h-223q-10 112 4 176h-6
q-181 -211 -484 -211z" />
    <glyph glyph-name="Uring" unicode="&#x16e;" horiz-adv-x="1845" 
d="M1126 1712q-109 0 -178 56.5t-69 144.5q0 106 97 186t230 80q110 0 179 -56.5t69 -144.5q0 -106 -96.5 -186t-231.5 -80zM1147 1837q66 0 113 38t47 89q0 39 -34 63.5t-87 24.5q-67 0 -113.5 -37t-46.5 -88q0 -41 34 -65.5t87 -24.5zM813 -35q-121 0 -220 23.5
t-166.5 65.5t-116.5 101t-70 130t-27 151t12 166l181 995h233l-178 -979q-35 -203 61 -325.5t328 -122.5t371.5 124.5t175.5 323.5l178 979h233l-180 -995q-17 -98 -53.5 -185.5t-102.5 -171.5t-154.5 -145t-218.5 -98t-286 -37z" />
    <glyph glyph-name="uring" unicode="&#x16f;" horiz-adv-x="1538" 
d="M874 1251q-109 0 -178 56.5t-69 144.5q0 106 97 186t230 80q109 0 177.5 -56t68.5 -144q0 -106 -96 -186.5t-230 -80.5zM895 1376q66 0 113 38t47 89q0 39 -34.5 63.5t-86.5 24.5q-67 0 -114.5 -37t-47.5 -88q0 -41 34 -65.5t89 -24.5zM569 -35q-101 0 -182.5 26.5
t-141 80t-83 144t-2.5 208.5l125 713h221l-115 -639q-30 -168 48.5 -253t217.5 -85q117 0 215 51t155.5 129.5t74.5 169.5l110 627h222l-138 -783q-22 -120 -25.5 -199.5t7.5 -154.5h-223q-10 112 4 176h-6q-181 -211 -484 -211z" />
    <glyph glyph-name="Uhungarumlaut" unicode="&#x170;" horiz-adv-x="1845" 
d="M1378 2060l-405 -340h-197l316 340h286zM1819 2060l-420 -340h-197l332 340h285zM813 -35q-121 0 -220 23.5t-166.5 65.5t-116.5 101t-70 130t-27 151t12 166l181 995h233l-178 -979q-35 -203 61 -325.5t328 -122.5t371.5 124.5t175.5 323.5l178 979h233l-180 -995
q-17 -98 -53.5 -185.5t-102.5 -171.5t-154.5 -145t-218.5 -98t-286 -37z" />
    <glyph glyph-name="uhungarumlaut" unicode="&#x171;" horiz-adv-x="1538" 
d="M1124 1673l-419 -395h-189l332 395h276zM1571 1673l-434 -395h-191l348 395h277zM569 -35q-101 0 -182.5 26.5t-141 80t-83 144t-2.5 208.5l125 713h221l-115 -639q-30 -168 48.5 -253t217.5 -85q117 0 215 51t155.5 129.5t74.5 169.5l110 627h222l-138 -783
q-22 -120 -25.5 -199.5t7.5 -154.5h-223q-10 112 4 176h-6q-181 -211 -484 -211z" />
    <glyph glyph-name="Uogonek" unicode="&#x172;" horiz-adv-x="1845" 
d="M1397 618l178 979h233l-180 -995q-15 -88 -46.5 -168.5t-86.5 -159t-128 -138.5t-178.5 -104t-232.5 -59q-74 -32 -119.5 -79t-45.5 -99t49 -86.5t131 -34.5q49 0 110 13l-22 -133q-69 -17 -137 -17q-130 0 -217 52t-87 147q0 131 173 229q-100 2 -184.5 20t-147 50.5
t-111 77t-76.5 99t-44.5 117.5t-15 131.5t12.5 141.5l181 995h233l-178 -979q-35 -203 61 -325.5t328 -122.5t371.5 124.5t175.5 323.5z" />
    <glyph glyph-name="uogonek" unicode="&#x173;" horiz-adv-x="1538" 
d="M1212 1137h222l-138 -783q-22 -120 -25.5 -199.5t7.5 -154.5h-57q-102 -29 -170 -85t-68 -120q0 -52 47.5 -83t122.5 -31q53 0 113 16l-25 -146q-63 -14 -125 -14q-139 0 -221 54.5t-82 146.5q0 61 39.5 116t92 89.5t114.5 56.5h-4q-10 112 4 176h-6q-181 -211 -484 -211
q-101 0 -182.5 26.5t-141 80t-83 144t-2.5 208.5l125 713h221l-115 -639q-30 -168 48.5 -253t217.5 -85q117 0 215 51t155.5 129.5t74.5 169.5z" />
    <glyph glyph-name="Wcircumflex" unicode="&#x174;" horiz-adv-x="2805" 
d="M1788 2050l274 -330h-204q-129 115 -211 193q-18 -13 -58 -42t-59 -42.5t-64 -43t-104 -65.5h-205l387 330h244zM819 0h-287l-313 1597h258q175 -855 248 -1294h4q78 139 331.5 590.5t393.5 703.5h264q33 -165 122.5 -610t135.5 -684h4q465 852 715 1294h260l-878 -1597
h-287q-136 616 -250 1260h-4q-11 -20 -83 -150.5t-89.5 -161.5t-81 -145.5t-91 -162.5t-84.5 -148.5t-95.5 -166.5t-90.5 -154t-102 -171z" />
    <glyph glyph-name="wcircumflex" unicode="&#x175;" horiz-adv-x="2248" 
d="M973 1278h-209l420 364h256l293 -364h-209q-3 3 -85 79t-145 154q-48 -38 -142 -101.5t-179 -131.5zM657 0h-243l-281 1137h246l207 -865h6l530 865h207l221 -865h4l519 865h245l-680 -1137h-252q-127 506 -200 842h-4q-222 -367 -525 -842z" />
    <glyph glyph-name="Ycircumflex" unicode="&#x176;" horiz-adv-x="1697" 
d="M1233 2050l274 -330h-204q-129 115 -211 193q-18 -13 -58 -42t-59 -42.5t-64 -43t-104 -65.5h-205l387 330h244zM864 0h-231q9 46 31 182.5t69 384.5q-53 106 -135.5 250t-170 318t-212.5 462h252q70 -135 208 -406.5t208 -406.5h4q79 88 140 167t100.5 132t158 184.5
t311.5 329.5h252q-122 -141 -420 -490t-462 -538q-78 -456 -103 -569z" />
    <glyph glyph-name="ycircumflex" unicode="&#x177;" horiz-adv-x="1363" 
d="M520 1278h-209l420 364h256l293 -364h-209q-1 1 -83 77.5t-146 155.5q-49 -38 -143 -101.5t-179 -131.5zM414 -451h-221l274 420l-340 1168h244q68 -235 250 -893h6q380 598 573 893h238z" />
    <glyph glyph-name="Ydieresis" unicode="&#x178;" horiz-adv-x="1697" 
d="M811 1759q-57 0 -95 33.5t-38 85.5q0 64 52.5 111t123.5 47q57 0 94 -32.5t37 -82.5q0 -64 -52 -113t-122 -49zM1313 1759q-59 0 -97 33.5t-38 83.5q0 65 53.5 112.5t124.5 47.5q57 0 95 -33t38 -84q0 -61 -53.5 -110.5t-122.5 -49.5zM864 0h-231q9 46 31 182.5t69 384.5
q-53 106 -135.5 250t-170 318t-212.5 462h252q70 -135 208 -406.5t208 -406.5h4q79 88 140 167t100.5 132t158 184.5t311.5 329.5h252q-122 -141 -420 -490t-462 -538q-78 -456 -103 -569z" />
    <glyph glyph-name="Zacute" unicode="&#x179;" horiz-adv-x="1626" 
d="M1544 2060l-459 -340h-202l362 340h299zM1448 0h-1473l33 209q349 302 1378 1184v4q-745 0 -1118 -2l33 202h1409l-35 -208q-404 -347 -1384 -1178v-4h1188z" />
    <glyph glyph-name="zacute" unicode="&#x17a;" horiz-adv-x="1226" 
d="M1264 1663l-441 -385h-192l352 385h281zM1067 0h-1092l27 170l887 776h-707l29 191h1003l-24 -170l-891 -777h797z" />
    <glyph glyph-name="Zdotaccent" unicode="&#x17b;" horiz-adv-x="1626" 
d="M999 1772q-60 0 -99.5 34t-39.5 88q0 66 56 115t131 49q59 0 98 -34.5t39 -86.5q0 -66 -56.5 -115.5t-128.5 -49.5zM1448 0h-1473l33 209q349 302 1378 1184v4q-745 0 -1118 -2l33 202h1409l-35 -208q-404 -347 -1384 -1178v-4h1188z" />
    <glyph glyph-name="zdotaccent" unicode="&#x17c;" horiz-adv-x="1226" 
d="M760 1370q-60 0 -98.5 35t-38.5 88q0 66 55.5 116t130.5 50q58 0 97.5 -35t39.5 -88q0 -65 -56.5 -115.5t-129.5 -50.5zM1067 0h-1092l27 170l887 776h-707l29 191h1003l-24 -170l-891 -777h797z" />
    <glyph glyph-name="Zcaron" unicode="&#x17d;" horiz-adv-x="1626" 
d="M1300 2050h207l-385 -330h-252l-270 330h205q62 -53 215 -197q39 28 90.5 65.5t94.5 67.5t95 64zM1448 0h-1473l33 209q349 302 1378 1184v4q-745 0 -1118 -2l33 202h1409l-35 -208q-404 -347 -1384 -1178v-4h1188z" />
    <glyph glyph-name="zcaron" unicode="&#x17e;" horiz-adv-x="1226" 
d="M868 1288h-256l-290 373h208q30 -29 73.5 -68t78.5 -74.5t82 -91.5q46 38 140.5 102.5t176.5 131.5h209zM1067 0h-1092l27 170l887 776h-707l29 191h1003l-24 -170l-891 -777h797z" />
    <glyph glyph-name="uni0218" unicode="&#x218;" horiz-adv-x="1587" 
d="M713 -35q-95 0 -182.5 17t-167 54t-141 91.5t-103.5 133.5t-56 175l228 72q18 -118 85 -196t160.5 -111t211.5 -33q196 0 330 83.5t134 203.5q0 41 -19 74.5t-46 55t-72 40.5t-81 30t-89 25l-10.5 3t-9.5 2.5t-11 2.5l-167 43q-43 11 -77 21.5t-83 29.5t-86 40t-77 52
t-66 66.5t-43 83.5t-17 102q0 98 54 190t147 161t226.5 111t283.5 42q251 0 404 -107t179 -270l-225 -82q-27 120 -130 189.5t-267 69.5q-178 0 -300 -76t-122 -180q0 -37 15.5 -69t46.5 -57t60 -43t75 -35t70.5 -24.5t66.5 -19.5l184 -52q166 -45 238 -79q206 -98 206 -287
q0 -102 -57 -200.5t-155.5 -174t-241.5 -122t-303 -46.5zM571 -582h-116l168 215q-91 30 -91 107q0 58 50.5 102.5t119.5 44.5q56 0 92.5 -30.5t36.5 -79.5q0 -12 -2 -24t-8.5 -26t-13 -25.5t-21 -31t-26.5 -34.5t-35.5 -42t-42 -48t-51.5 -59t-60 -69z" />
    <glyph glyph-name="uni0219" unicode="&#x219;" horiz-adv-x="1222" 
d="M528 -35q-206 0 -344 87.5t-166 232.5l213 61q33 -100 124 -154.5t208 -54.5q123 0 210 53t87 127q0 34 -17.5 59t-51.5 41t-67.5 26.5t-80.5 21.5q-7 1 -10 2l-127 33q-26 7 -37 10t-42.5 13t-49 17.5t-48 22.5t-48.5 29t-40.5 36t-34.5 45t-21 53.5t-9 64.5
q0 153 152.5 265.5t373.5 112.5q182 0 303 -78.5t146 -203.5l-217 -66q-21 76 -89 126t-179 50t-188 -49t-77 -117q0 -25 10.5 -46.5t32.5 -38t44 -28.5t56.5 -23.5t58 -17.5t59.5 -15l114 -29q33 -8 49.5 -12.5t51.5 -14.5t55.5 -20.5t50 -26t47.5 -35t36 -43.5t26 -55.5
t8 -67.5q0 -159 -163.5 -276t-408.5 -117zM383 -582h-117l168 215q-90 30 -90 107q0 58 50.5 102.5t119.5 44.5q56 0 92.5 -30.5t36.5 -79.5q0 -12 -2 -24t-8.5 -26t-13 -25.5t-21 -31t-26.5 -34.5t-35.5 -42t-42 -48t-51.5 -59t-60 -69z" />
    <glyph glyph-name="uni021A" unicode="&#x21a;" horiz-adv-x="1556" 
d="M795 0h-234q24 137 252 1395h-631l31 202h1495l-31 -202h-630q-26 -139 -75 -424t-177 -971zM522 -582h-116l167 215q-90 30 -90 107q0 58 50.5 102.5t119.5 44.5q56 0 92.5 -30.5t36.5 -79.5q0 -12 -2 -24t-8.5 -26t-13 -25.5t-21 -31t-26.5 -34.5t-35.5 -42t-42 -48
t-51.5 -59t-60 -69z" />
    <glyph glyph-name="uni021B" unicode="&#x21b;" horiz-adv-x="966" 
d="M555 -35q-76 0 -133.5 15.5t-92 38.5t-55.5 59t-29 67.5t-7.5 74t4 69t10.5 61.5l110 598h-270l29 189h270l58 329h221l-58 -329h400l-27 -189h-403l-101 -528q-5 -27 -7 -39.5t-5 -39.5t-2.5 -41t3 -37t9.5 -36t18.5 -29t29 -24t42.5 -14t56 -6q102 0 219 51l-29 -191
q-110 -49 -260 -49zM309 -582h-116l167 215q-90 30 -90 107q0 58 50.5 102.5t119.5 44.5q56 0 92.5 -30.5t36.5 -79.5q0 -12 -2 -24t-8.5 -26t-13 -25.5t-21 -31t-26.5 -34.5t-35.5 -42t-42 -48t-51.5 -59t-60 -69z" />
    <glyph glyph-name="gravecomb" unicode="&#x300;" horiz-adv-x="0" 
d="M143 1278h-192l-305 385h280z" />
    <glyph glyph-name="acutecomb" unicode="&#x301;" horiz-adv-x="0" 
d="M401 1663l-440 -385h-192l352 385h280z" />
    <glyph glyph-name="uni0302" unicode="&#x302;" horiz-adv-x="0" 
d="M-547 1278h-209l420 364h256l293 -364h-209q-1 1 -83 77.5t-146 155.5q-49 -38 -143 -101.5t-179 -131.5z" />
    <glyph glyph-name="tildecomb" unicode="&#x303;" horiz-adv-x="0" 
d="M-127 1329q-54 0 -93.5 15.5t-80.5 46.5l-49 34q-58 43 -105 43q-52 0 -89 -34.5t-48 -87.5h-162q23 126 113.5 204t208.5 78q89 0 168 -59l49 -35q52 -41 106 -41q49 0 82.5 33t44.5 88h164q-23 -134 -104.5 -209.5t-204.5 -75.5z" />
    <glyph glyph-name="uni0304" unicode="&#x304;" horiz-adv-x="0" 
d="M156 1366h-826l25 156h825z" />
    <glyph glyph-name="uni0306" unicode="&#x306;" horiz-adv-x="0" 
d="M-250 1272q-206 0 -307.5 110t-77.5 285h189q-17 -104 44.5 -172t178.5 -68q118 0 204 67.5t111 172.5h191q-40 -179 -185 -287t-348 -108z" />
    <glyph glyph-name="uni0307" unicode="&#x307;" horiz-adv-x="0" 
d="M-35 1360q-60 0 -98.5 35t-38.5 88q0 66 55.5 116t130.5 50q59 0 98.5 -35.5t39.5 -87.5q0 -65 -57 -115.5t-130 -50.5z" />
    <glyph glyph-name="uni0308" unicode="&#x308;" horiz-adv-x="0" 
d="M-719 1337q-55 0 -91 33.5t-36 81.5q0 59 51.5 105.5t118.5 46.5q55 0 91 -32.5t36 -80.5q0 -59 -51.5 -106.5t-118.5 -47.5zM-244 1337q-57 0 -93 32.5t-36 82.5q0 61 51 106.5t119 45.5q54 0 91.5 -33t37.5 -80q0 -59 -52 -106.5t-118 -47.5z" />
    <glyph glyph-name="uni030A" unicode="&#x30a;" horiz-adv-x="0" 
d="M-70 1251q-109 0 -178 56.5t-69 144.5q0 106 97 186t230 80q109 0 177.5 -56t68.5 -144q0 -106 -96 -186.5t-230 -80.5zM-49 1376q66 0 113 38t47 89q0 39 -34.5 63.5t-86.5 24.5q-67 0 -114.5 -37t-47.5 -88q0 -41 34 -65.5t89 -24.5z" />
    <glyph glyph-name="uni030B" unicode="&#x30b;" horiz-adv-x="0" 
d="M29 1673l-420 -395h-189l332 395h277zM475 1673l-434 -395h-191l349 395h276z" />
    <glyph glyph-name="uni030C" unicode="&#x30c;" horiz-adv-x="0" 
d="M-143 1278h-256l-291 373h209q29 -29 73 -68t78.5 -74.5t81.5 -91.5q46 38 141 102.5t177 131.5h209z" />
    <glyph glyph-name="uni0312" unicode="&#x312;" horiz-adv-x="0" 
d="M-250 1282q0 45 40 99.5t186 221.5q39 45 61 70h131l-195 -248q33 -13 55.5 -40.5t22.5 -63.5q0 -61 -52.5 -106.5t-121.5 -45.5q-56 0 -91.5 32t-35.5 81z" />
    <glyph glyph-name="uni0326" unicode="&#x326;" horiz-adv-x="0" 
d="M-469 -582h-117l168 215q-90 30 -90 107q0 58 50.5 102.5t119.5 44.5q56 0 92.5 -30.5t36.5 -79.5q0 -12 -2 -24t-8.5 -26t-13 -25.5t-21 -31t-26.5 -34.5t-35.5 -42t-42 -48t-51.5 -59t-60 -69z" />
    <glyph glyph-name="uni0327" unicode="&#x327;" horiz-adv-x="0" 
d="M-834 -506q-93 0 -172.5 32t-123.5 89l94 84q34 -45 91 -69.5t118 -24.5q73 0 122.5 31t49.5 75q0 34 -35.5 55t-89.5 21q-65 0 -117 -27l-70 60l172 180h142l-140 -133q40 12 86 12q92 0 148.5 -41t56.5 -112q0 -96 -95.5 -164t-236.5 -68z" />
    <glyph glyph-name="uni0328" unicode="&#x328;" horiz-adv-x="0" 
d="M-825 -483q-140 0 -221.5 54t-81.5 146q0 89 73.5 158t171.5 105h162q-102 -29 -169.5 -85t-67.5 -120q0 -52 48 -83.5t122 -31.5q52 0 112 16l-24 -145q-63 -14 -125 -14z" />
    <glyph glyph-name="uni0335" unicode="&#x335;" horiz-adv-x="0" 
d="M-793 649h871l-23 -160h-874z" />
    <glyph glyph-name="uni0337" unicode="&#x337;" horiz-adv-x="0" 
d="M-496 471l29 182l768 432l-27 -182z" />
    <glyph glyph-name="uni0338" unicode="&#x338;" horiz-adv-x="0" 
d="M-1190 -61h-242l1328 1241h235z" />
    <glyph glyph-name="Wgrave" unicode="&#x1e80;" horiz-adv-x="2805" 
d="M1745 1720h-201l-344 340h303zM819 0h-287l-313 1597h258q175 -855 248 -1294h4q78 139 331.5 590.5t393.5 703.5h264q33 -165 122.5 -610t135.5 -684h4q465 852 715 1294h260l-878 -1597h-287q-136 616 -250 1260h-4q-11 -20 -83 -150.5t-89.5 -161.5t-81 -145.5
t-91 -162.5t-84.5 -148.5t-95.5 -166.5t-90.5 -154t-102 -171z" />
    <glyph glyph-name="wgrave" unicode="&#x1e81;" horiz-adv-x="2248" 
d="M1356 1278h-193l-305 385h281zM657 0h-243l-281 1137h246l207 -865h6l530 865h207l221 -865h4l519 865h245l-680 -1137h-252q-127 506 -200 842h-4q-222 -367 -525 -842z" />
    <glyph glyph-name="Wacute" unicode="&#x1e82;" horiz-adv-x="2805" 
d="M2154 2060l-458 -340h-203l362 340h299zM819 0h-287l-313 1597h258q175 -855 248 -1294h4q78 139 331.5 590.5t393.5 703.5h264q33 -165 122.5 -610t135.5 -684h4q465 852 715 1294h260l-878 -1597h-287q-136 616 -250 1260h-4q-11 -20 -83 -150.5t-89.5 -161.5
t-81 -145.5t-91 -162.5t-84.5 -148.5t-95.5 -166.5t-90.5 -154t-102 -171z" />
    <glyph glyph-name="wacute" unicode="&#x1e83;" horiz-adv-x="2248" 
d="M1772 1663l-441 -385h-192l352 385h281zM657 0h-243l-281 1137h246l207 -865h6l530 865h207l221 -865h4l519 865h245l-680 -1137h-252q-127 506 -200 842h-4q-222 -367 -525 -842z" />
    <glyph glyph-name="Wdieresis" unicode="&#x1e84;" horiz-adv-x="2805" 
d="M1368 1759q-57 0 -95 33.5t-38 85.5q0 64 52.5 111t123.5 47q57 0 94 -32.5t37 -82.5q0 -64 -52 -113t-122 -49zM1870 1759q-59 0 -97 33.5t-38 83.5q0 65 53.5 112.5t124.5 47.5q57 0 95 -33t38 -84q0 -61 -53 -110.5t-123 -49.5zM819 0h-287l-313 1597h258
q175 -855 248 -1294h4q78 139 331.5 590.5t393.5 703.5h264q33 -165 122.5 -610t135.5 -684h4q465 852 715 1294h260l-878 -1597h-287q-136 616 -250 1260h-4q-11 -20 -83 -150.5t-89.5 -161.5t-81 -145.5t-91 -162.5t-84.5 -148.5t-95.5 -166.5t-90.5 -154t-102 -171z" />
    <glyph glyph-name="wdieresis" unicode="&#x1e85;" horiz-adv-x="2248" 
d="M1026 1337q-55 0 -91 33.5t-36 81.5q0 59 51.5 105.5t118.5 46.5q55 0 91 -32.5t36 -80.5q0 -59 -51.5 -106.5t-118.5 -47.5zM1501 1337q-57 0 -93 32.5t-36 82.5q0 61 51 106.5t119 45.5q54 0 91.5 -33t37.5 -80q0 -59 -52 -106.5t-118 -47.5zM657 0h-243l-281 1137h246
l207 -865h6l530 865h207l221 -865h4l519 865h245l-680 -1137h-252q-127 506 -200 842h-4q-222 -367 -525 -842z" />
    <glyph glyph-name="uni1E9E" unicode="&#x1e9e;" horiz-adv-x="1853" 
d="M352 0h-235l162 918q9 53 21 101t32.5 106t46 107.5t63.5 102t83.5 94.5t108 80.5t135 64.5t165.5 41t199 15q296 0 460 -108t164 -291q0 -155 -112.5 -273t-286.5 -149l-2 -4q154 -8 257 -91t103 -231q0 -76 -28.5 -145.5t-89 -131.5t-148 -107.5t-212.5 -72t-275 -26.5
h-228l33 201h260q201 0 320.5 75t119.5 195q0 103 -91 158t-259 55h-135l31 201h119q159 0 265.5 87t106.5 212q0 120 -106.5 185t-294.5 65q-102 0 -187.5 -20.5t-141.5 -49t-101.5 -76t-69.5 -84t-44 -92t-25.5 -81t-13.5 -68.5q0 -1 -0.5 -2.5t-0.5 -2.5z" />
    <glyph glyph-name="Ygrave" unicode="&#x1ef2;" horiz-adv-x="1697" 
d="M1188 1720h-201l-344 340h303zM864 0h-231q9 46 31 182.5t69 384.5q-53 106 -135.5 250t-170 318t-212.5 462h252q70 -135 208 -406.5t208 -406.5h4q79 88 140 167t100.5 132t158 184.5t311.5 329.5h252q-122 -141 -420 -490t-462 -538q-78 -456 -103 -569z" />
    <glyph glyph-name="ygrave" unicode="&#x1ef3;" horiz-adv-x="1363" 
d="M903 1278h-192l-305 385h280zM414 -451h-221l274 420l-340 1168h244q68 -235 250 -893h6q380 598 573 893h238z" />
    <glyph glyph-name="uni2000" unicode="&#x2000;" horiz-adv-x="1228" 
 />
    <glyph glyph-name="uni2001" unicode="&#x2001;" 
 />
    <glyph glyph-name="uni2002" unicode="&#x2002;" horiz-adv-x="1228" 
 />
    <glyph glyph-name="uni2003" unicode="&#x2003;" 
 />
    <glyph glyph-name="uni2004" unicode="&#x2004;" horiz-adv-x="819" 
 />
    <glyph glyph-name="uni2005" unicode="&#x2005;" horiz-adv-x="614" 
 />
    <glyph glyph-name="uni2006" unicode="&#x2006;" horiz-adv-x="409" 
 />
    <glyph glyph-name="uni2007" unicode="&#x2007;" horiz-adv-x="649" 
 />
    <glyph glyph-name="uni2008" unicode="&#x2008;" horiz-adv-x="589" 
 />
    <glyph glyph-name="uni2009" unicode="&#x2009;" horiz-adv-x="307" 
 />
    <glyph glyph-name="uni200A" unicode="&#x200a;" horiz-adv-x="102" 
 />
    <glyph glyph-name="uni200B" unicode="&#x200b;" horiz-adv-x="0" 
 />
    <glyph glyph-name="endash" unicode="&#x2013;" horiz-adv-x="1206" 
d="M1061 535h-924l27 178h923z" />
    <glyph glyph-name="emdash" unicode="&#x2014;" horiz-adv-x="1718" 
d="M1577 541h-1440l25 164h1440z" />
    <glyph glyph-name="quoteleft" unicode="&#x2018;" horiz-adv-x="585" 
d="M522 1634h131l-211 -270q41 -13 63.5 -42.5t22.5 -68.5q0 -65 -57 -116.5t-133 -51.5q-57 0 -96 35.5t-39 89.5q0 51 54 121.5t265 302.5z" />
    <glyph glyph-name="quoteright" unicode="&#x2019;" horiz-adv-x="598" 
d="M358 1102h-135l213 270q-40 13 -62 43t-22 68q0 66 57 117t132 51q59 0 98 -35.5t39 -89.5q0 -51 -55.5 -123t-264.5 -301z" />
    <glyph glyph-name="quotesinglbase" unicode="&#x201a;" horiz-adv-x="565" 
d="M92 -270h-131l209 270q-40 13 -62 43t-22 68q0 67 56 117.5t132 50.5q59 0 98.5 -35.5t39.5 -89.5q0 -51 -54 -120.5t-266 -303.5z" />
    <glyph glyph-name="quotedblleft" unicode="&#x201c;" horiz-adv-x="1017" 
d="M543 1634h131l-211 -270q41 -13 63.5 -42.5t22.5 -68.5q0 -65 -57.5 -116.5t-133.5 -51.5q-57 0 -96 35.5t-39 89.5q0 51 54 120.5t266 303.5zM901 1634h131l-209 -270q40 -13 62 -43t22 -68q0 -65 -57 -116.5t-131 -51.5q-59 0 -98 35.5t-39 89.5q0 51 54 121.5
t265 302.5z" />
    <glyph glyph-name="quotedblright" unicode="&#x201d;" horiz-adv-x="1030" 
d="M356 1102h-131l209 270q-40 13 -62 43t-22 68q0 65 57.5 116.5t131.5 51.5q59 0 98 -35.5t39 -89.5q0 -51 -54 -120.5t-266 -303.5zM791 1102h-136l211 270q-39 14 -61.5 43.5t-22.5 67.5q0 66 57 117t132 51q58 0 97.5 -36t39.5 -89q0 -52 -55 -124t-262 -300z" />
    <glyph glyph-name="quotedblbase" unicode="&#x201e;" horiz-adv-x="999" 
d="M72 -256h-133l211 270q-39 13 -61.5 43.5t-22.5 67.5q0 65 56 116.5t132 51.5q58 0 96.5 -35.5t38.5 -89.5q0 -52 -55 -123.5t-262 -300.5zM506 -256h-133l209 270q-39 14 -61.5 43.5t-22.5 67.5q0 66 56.5 117t131.5 51q58 0 97.5 -36t39.5 -89q0 -51 -54 -121
t-263 -303z" />
    <glyph glyph-name="dagger" unicode="&#x2020;" horiz-adv-x="1210" 
d="M831 1313h402l-27 -166h-403l-127 -717h-199l127 717h-391l25 166h397l57 325h197z" />
    <glyph glyph-name="daggerdbl" unicode="&#x2021;" horiz-adv-x="1298" 
d="M1272 1313l-29 -166h-391l-49 -266h391l-25 -164h-391l-57 -326h-197l58 326h-394l25 164h395l47 266h-393l27 166h393l59 325h197l-59 -325h393z" />
    <glyph glyph-name="bullet" unicode="&#x2022;" horiz-adv-x="995" 
d="M510 434q-103 0 -172.5 63.5t-69.5 155.5q0 116 97.5 203.5t226.5 87.5q102 0 170.5 -60.5t68.5 -152.5q0 -114 -97.5 -205.5t-223.5 -91.5z" />
    <glyph glyph-name="ellipsis" unicode="&#x2026;" horiz-adv-x="1693" 
d="M233 -14q-60 0 -99.5 36t-39.5 89q0 67 56.5 117.5t130.5 50.5q58 0 97.5 -35t39.5 -88q0 -65 -56 -117.5t-129 -52.5zM686 -14q-60 0 -99.5 36t-39.5 89q0 67 56 117.5t130 50.5q58 0 97.5 -35t39.5 -88q0 -65 -55.5 -117.5t-128.5 -52.5zM1335 -14q-60 0 -99.5 36
t-39.5 89q0 67 56 117.5t130 50.5q59 0 98.5 -35.5t39.5 -87.5q0 -65 -56 -117.5t-129 -52.5z" />
    <glyph glyph-name="uni202F" unicode="&#x202f;" horiz-adv-x="468" 
 />
    <glyph glyph-name="perthousand" unicode="&#x2030;" horiz-adv-x="2973" 
d="M459 756q-132 0 -208.5 82.5t-76.5 228.5q0 122 54 229.5t152.5 174.5t215.5 67q132 0 208.5 -83.5t76.5 -229.5q0 -122 -54.5 -229.5t-152 -173.5t-215.5 -66zM385 0h-207l1624 1468h199zM479 911q56 0 106 48.5t78.5 121t28.5 146.5q0 75 -30.5 115t-86.5 40
q-85 0 -149 -99.5t-64 -217.5q0 -75 30 -114.5t87 -39.5zM1585 -29q-132 0 -208.5 83t-76.5 229q0 122 54 229.5t152.5 174.5t215.5 67q132 0 208.5 -84t76.5 -230q0 -122 -54.5 -229.5t-152 -173.5t-215.5 -66zM2441 -29q-132 0 -208 83t-76 229q0 122 54 229.5t152 174.5
t215 67q132 0 208.5 -84t76.5 -230q0 -122 -54.5 -229.5t-152 -173.5t-215.5 -66zM1606 127q56 0 106 48t78.5 120.5t28.5 146.5q0 75 -30.5 115.5t-86.5 40.5q-85 0 -149 -99.5t-64 -217.5q0 -75 30 -114.5t87 -39.5zM2462 127q56 0 106 48t78.5 120.5t28.5 146.5
q0 75 -30.5 115.5t-86.5 40.5q-85 0 -149 -99.5t-64 -217.5q0 -75 30 -114.5t87 -39.5z" />
    <glyph glyph-name="guilsinglleft" unicode="&#x2039;" horiz-adv-x="956" 
d="M727 164h-258l-344 405l2 9l487 405h258l-487 -405l-2 -9z" />
    <glyph glyph-name="guilsinglright" unicode="&#x203a;" horiz-adv-x="958" 
d="M659 383l-483 -219l86 186l313 223l-124 191l-50 219l215 -186l218 -224z" />
    <glyph glyph-name="fraction" unicode="&#x2044;" horiz-adv-x="409" 
d="M-469 0h-207l1624 1468h199z" />
    <glyph glyph-name="uni205F" unicode="&#x205f;" horiz-adv-x="544" 
 />
    <glyph glyph-name="uni2070" unicode="&#x2070;" horiz-adv-x="854" 
d="M459 756q-132 0 -208.5 82.5t-76.5 228.5q0 122 54 229.5t152.5 174.5t215.5 67q132 0 208.5 -83.5t76.5 -229.5q0 -122 -54.5 -229.5t-152 -173.5t-215.5 -66zM479 911q56 0 106 48.5t78.5 121t28.5 146.5q0 75 -30.5 115t-86.5 40q-85 0 -149 -99.5t-64 -217.5
q0 -75 30 -114.5t87 -39.5z" />
    <glyph glyph-name="uni2074" unicode="&#x2074;" horiz-adv-x="825" 
d="M678 772h-172l29 150h-422l20 133l508 467h166l-80 -461h115l-23 -139h-112zM602 1309l-297 -248h250z" />
    <glyph glyph-name="uni2075" unicode="&#x2075;" horiz-adv-x="806" 
d="M420 756q-74 0 -136 17t-109 57t-60 98l166 73q14 -49 59.5 -75.5t103.5 -26.5q78 0 130.5 42t52.5 99q0 46 -36.5 74.5t-94.5 28.5q-49 0 -91.5 -20.5t-68.5 -49.5l-143 33l176 416h477l-21 -136h-350l-88 -180h2q33 28 87.5 43t105.5 15q61 0 112.5 -19t87 -65.5
t35.5 -114.5q0 -129 -115 -219t-282 -90z" />
    <glyph glyph-name="uni2076" unicode="&#x2076;" horiz-adv-x="841" 
d="M461 756q-141 0 -218 73t-77 207q0 125 65.5 240t183.5 188.5t257 73.5q66 0 129 -20t100 -62l-110 -110q-52 49 -146 49q-99 0 -176 -57.5t-107 -157.5h5q32 38 96.5 60t126.5 22q107 0 181.5 -56t74.5 -153q0 -119 -112 -208t-273 -89zM492 895q73 0 128.5 44t55.5 103
q0 46 -38.5 75.5t-98.5 29.5q-73 0 -129 -43.5t-56 -102.5q0 -45 40 -75.5t98 -30.5z" />
    <glyph glyph-name="uni2077" unicode="&#x2077;" horiz-adv-x="692" 
d="M395 772h-188q26 141 131.5 318.5t255.5 293.5h-414l21 140h622l-20 -142q-110 -72 -200 -184t-140.5 -220.5t-67.5 -205.5z" />
    <glyph glyph-name="uni2078" unicode="&#x2078;" horiz-adv-x="825" 
d="M442 756q-133 0 -215 54.5t-82 141.5q0 73 57.5 135.5t135.5 77.5l2 2q-96 49 -96 133q0 94 98 166t236 72q113 0 188.5 -50.5t75.5 -137.5q0 -60 -40.5 -109t-107.5 -74l-2 -2q58 -14 94.5 -55t36.5 -100q0 -105 -110 -179.5t-271 -74.5zM526 1227q61 0 106.5 32.5
t45.5 75.5q0 34 -33 56t-84 22q-61 0 -105 -30.5t-44 -71.5q0 -37 31.5 -60.5t82.5 -23.5zM469 901q72 0 122 37t50 90q0 41 -35 64.5t-96 23.5q-74 0 -125 -35t-51 -86q0 -42 38 -68t97 -26z" />
    <glyph glyph-name="uni2079" unicode="&#x2079;" horiz-adv-x="849" 
d="M406 756q-80 0 -154 25.5t-115 78.5l113 109q34 -38 83 -57t97 -19q101 0 166.5 64.5t87.5 160.5q-36 -43 -100 -65.5t-129 -22.5q-108 0 -181 55t-73 154q0 122 115 210.5t278 88.5q140 0 213.5 -74t73.5 -213q0 -130 -62.5 -243.5t-172.5 -182.5t-240 -69zM504 1145
q76 0 133 46.5t57 106.5q0 48 -39 77.5t-98 29.5q-76 0 -132 -45t-56 -107q0 -47 37.5 -77.5t97.5 -30.5z" />
    <glyph glyph-name="uni2080" unicode="&#x2080;" horiz-adv-x="854" 
d="M276 -285q-132 0 -208 83t-76 229q0 122 54 229.5t152.5 174.5t215.5 67q132 0 208 -84t76 -230q0 -122 -54.5 -229.5t-152 -173.5t-215.5 -66zM297 -129q56 0 106 48t78.5 120.5t28.5 146.5q0 75 -30.5 115.5t-86.5 40.5q-85 0 -149 -99.5t-64 -217.5q0 -75 30 -114.5
t87 -39.5z" />
    <glyph glyph-name="uni2081" unicode="&#x2081;" horiz-adv-x="565" 
d="M272 -268h-176l88 489q-100 -65 -204 -84l28 176q88 23 149 69.5t70 98.5h174z" />
    <glyph glyph-name="uni2082" unicode="&#x2082;" horiz-adv-x="796" 
d="M565 -268h-616l4 20q21 88 52.5 142.5t97.5 105t192 113.5l19 9.5l24 12t24.5 13.5t27 17t25 17.5t24 20t17.5 21t13 24t4 24.5q0 34 -31 54t-82 20q-72 0 -124.5 -39.5t-65.5 -107.5l-160 22q21 123 128.5 200t250.5 77q121 0 195.5 -55.5t74.5 -147.5
q0 -80 -61.5 -145.5t-140.5 -100.5q-24 -13 -74.5 -36.5t-74 -36t-53 -37t-46.5 -52.5h379z" />
    <glyph glyph-name="uni2083" unicode="&#x2083;" horiz-adv-x="806" 
d="M244 -285q-122 0 -206.5 48t-98.5 124l165 72q36 -104 160 -104q71 0 118.5 33t47.5 79q0 84 -145 84h-86l16 119h92q66 0 115 29.5t49 74.5q0 36 -33.5 58t-85.5 22q-60 0 -104.5 -28.5t-63.5 -79.5l-157 33q30 93 131.5 156t228.5 63q112 0 190 -47t78 -127
q0 -65 -51 -122.5t-121 -70.5v-2q59 -9 98.5 -49.5t39.5 -97.5q0 -103 -110 -185t-267 -82z" />
    <glyph glyph-name="uni2084" unicode="&#x2084;" horiz-adv-x="825" 
d="M496 -268h-172l28 149h-422l21 133l508 467h166l-80 -461h114l-22 -139h-113zM420 268l-297 -248h250z" />
    <glyph glyph-name="uni2085" unicode="&#x2085;" horiz-adv-x="806" 
d="M238 -285q-74 0 -136.5 17t-109.5 57t-60 98l166 74q14 -49 60 -75.5t104 -26.5q78 0 130 42t52 99q0 46 -36 74t-95 28q-49 0 -91 -20t-68 -49l-144 33l176 415h478l-21 -135h-350l-88 -180h2q33 28 87 42.5t105 14.5q61 0 112.5 -19t87.5 -65t36 -114
q0 -129 -115 -219.5t-282 -90.5z" />
    <glyph glyph-name="uni2086" unicode="&#x2086;" horiz-adv-x="841" 
d="M279 -285q-141 0 -218 73.5t-77 207.5q0 125 65.5 240t183 188.5t256.5 73.5q66 0 129.5 -20t100.5 -62l-111 -111q-52 49 -145 49q-99 0 -176 -57.5t-107 -157.5h4q32 38 96.5 60t127.5 22q107 0 181.5 -56t74.5 -153q0 -119 -112 -208t-273 -89zM309 -145
q74 0 129.5 44.5t55.5 102.5q0 46 -39 75t-99 29q-73 0 -128.5 -43t-55.5 -102q0 -45 40 -75.5t97 -30.5z" />
    <glyph glyph-name="uni2087" unicode="&#x2087;" horiz-adv-x="692" 
d="M213 -268h-188q26 141 131.5 318.5t255.5 293.5h-414l20 139h623l-20 -141q-110 -72 -200 -184t-140.5 -220.5t-67.5 -205.5z" />
    <glyph glyph-name="uni2088" unicode="&#x2088;" horiz-adv-x="825" 
d="M260 -285q-133 0 -215 55t-82 142q0 73 57.5 135.5t135.5 77.5l2 2q-97 49 -97 133q0 94 98 166t236 72q113 0 188.5 -51t75.5 -138q0 -60 -40 -108.5t-107 -73.5l-2 -2q58 -14 94.5 -55.5t36.5 -100.5q0 -105 -110 -179.5t-271 -74.5zM344 186q61 0 106.5 33t45.5 76
q0 34 -33 56t-84 22q-61 0 -105.5 -31t-44.5 -72q0 -37 32 -60.5t83 -23.5zM287 -139q72 0 122 37t50 90q0 41 -35 64.5t-96 23.5q-74 0 -125 -35t-51 -86q0 -42 38 -68t97 -26z" />
    <glyph glyph-name="uni2089" unicode="&#x2089;" horiz-adv-x="849" 
d="M223 -285q-80 0 -153.5 26t-114.5 79l113 108q67 -75 180 -75q101 0 166.5 64.5t87.5 160.5q-36 -43 -100.5 -65.5t-129.5 -22.5q-108 0 -181 55t-73 154q0 122 115.5 210.5t278.5 88.5q139 0 212.5 -73.5t73.5 -213.5q0 -130 -62.5 -244t-172.5 -183t-240 -69zM322 104
q76 0 133 47t57 107q0 48 -39 77.5t-98 29.5q-76 0 -132.5 -45t-56.5 -107q0 -47 38 -78t98 -31z" />
    <glyph glyph-name="Euro" unicode="&#x20ac;" horiz-adv-x="1976" 
d="M1425 1395q-237 0 -417.5 -106.5t-276.5 -284.5h752l-21 -123h-782q-35 -107 -35 -219h778l-22 -123h-746q33 -191 183 -280t417 -89q99 0 192 25.5t232 95.5l119 -152q-141 -94 -304.5 -134t-317.5 -40q-332 0 -534 152t-234 422h-277l21 123h249q3 103 35 219h-246
l21 123h270q57 126 150 233t216.5 188.5t283 127.5t335.5 46q358 0 545 -174l-188 -153q-146 123 -398 123z" />
    <glyph glyph-name="trademark" unicode="&#x2122;" horiz-adv-x="1894" 
d="M553 926h-141l102 571h-260l18 119h658l-19 -119h-258zM1083 926h-143l123 690h141q26 -78 86 -249.5t88 -254.5q68 96 196.5 280.5t156.5 223.5h143l-121 -690h-143l78 424q-28 -40 -64 -96.5t-83 -122.5t-146 -195h-95q-17 49 -50 153t-89 263z" />
    <glyph glyph-name="oneeighth" unicode="&#x215b;" horiz-adv-x="1800" 
d="M455 772h-176l88 490q-100 -65 -205 -84l28 176q89 23 150 69.5t70 98.5h174zM96 0h-207l1624 1468h199zM1280 -29q-133 0 -215 55t-82 142q0 73 57.5 135.5t135.5 77.5l2 2q-97 49 -97 133q0 94 98 166t236 72q113 0 188.5 -51t75.5 -138q0 -60 -40 -108.5t-107 -73.5
l-2 -2q58 -14 94.5 -55.5t36.5 -100.5q0 -105 -110 -179.5t-271 -74.5zM1364 442q61 0 106.5 33t45.5 76q0 34 -33 56t-84 22q-61 0 -105.5 -31t-44.5 -72q0 -37 32 -60.5t83 -23.5zM1307 117q72 0 122 37t50 90q0 41 -35 64.5t-96 23.5q-74 0 -125.5 -35t-51.5 -86
q0 -42 38.5 -68t97.5 -26z" />
    <glyph glyph-name="threeeighths" unicode="&#x215c;" horiz-adv-x="2041" 
d="M426 756q-122 0 -206.5 48t-98.5 124l166 71q36 -104 159 -104q71 0 118.5 33t47.5 80q0 84 -145 84h-86l16 118h92q66 0 115 30t49 75q0 36 -33 58t-85 22q-60 0 -104.5 -29t-63.5 -80l-158 33q30 93 131.5 156t228.5 63q113 0 191 -47t78 -127q0 -65 -51 -122.5
t-121 -70.5v-2q59 -9 98 -49.5t39 -97.5q0 -103 -110 -184.5t-267 -81.5zM338 0h-207l1624 1468h199zM1522 -29q-133 0 -215 55t-82 142q0 73 57.5 135.5t134.5 77.5l2 2q-96 49 -96 133q0 94 98 166t236 72q113 0 188.5 -51t75.5 -138q0 -60 -40 -108.5t-107 -73.5l-2 -2
q58 -14 94.5 -55.5t36.5 -100.5q0 -105 -110 -179.5t-271 -74.5zM1606 442q61 0 106 33t45 76q0 34 -33 56t-84 22q-61 0 -105 -30.5t-44 -72.5q0 -37 32 -60.5t83 -23.5zM1548 117q72 0 122 37t50 90q0 41 -35 64.5t-96 23.5q-74 0 -125 -35t-51 -86q0 -42 38 -68t97 -26z
" />
    <glyph glyph-name="fiveeighths" unicode="&#x215d;" horiz-adv-x="2041" 
d="M420 756q-74 0 -136 17t-109 57t-60 98l166 73q14 -49 59.5 -75.5t103.5 -26.5q78 0 130.5 42t52.5 99q0 46 -36.5 74.5t-94.5 28.5q-49 0 -91.5 -20.5t-68.5 -49.5l-143 33l176 416h477l-21 -136h-350l-88 -180h2q33 28 87.5 43t105.5 15q61 0 112.5 -19t87 -65.5
t35.5 -114.5q0 -129 -115 -219t-282 -90zM338 0h-207l1624 1468h199zM1522 -29q-133 0 -215 55t-82 142q0 73 57.5 135.5t134.5 77.5l2 2q-96 49 -96 133q0 94 98 166t236 72q113 0 188.5 -51t75.5 -138q0 -60 -40 -108.5t-107 -73.5l-2 -2q58 -14 94.5 -55.5t36.5 -100.5
q0 -105 -110 -179.5t-271 -74.5zM1606 442q61 0 106 33t45 76q0 34 -33 56t-84 22q-61 0 -105 -30.5t-44 -72.5q0 -37 32 -60.5t83 -23.5zM1548 117q72 0 122 37t50 90q0 41 -35 64.5t-96 23.5q-74 0 -125 -35t-51 -86q0 -42 38 -68t97 -26z" />
    <glyph glyph-name="seveneighths" unicode="&#x215e;" horiz-adv-x="1927" 
d="M395 772h-188q26 141 131.5 318.5t255.5 293.5h-414l21 140h622l-20 -142q-110 -72 -200 -184t-140.5 -220.5t-67.5 -205.5zM223 0h-207l1624 1468h199zM1407 -29q-133 0 -215 55t-82 142q0 73 57.5 135.5t135.5 77.5l2 2q-97 49 -97 133q0 94 98 166t236 72
q113 0 188.5 -51t75.5 -138q0 -60 -40 -108.5t-107 -73.5l-2 -2q58 -14 94.5 -55.5t36.5 -100.5q0 -105 -110 -179.5t-271 -74.5zM1491 442q61 0 106 33t45 76q0 34 -32.5 56t-83.5 22q-61 0 -105.5 -31t-44.5 -72q0 -37 32 -60.5t83 -23.5zM1434 117q72 0 122 37t50 90
q0 41 -35 64.5t-96 23.5q-74 0 -125.5 -35t-51.5 -86q0 -42 38.5 -68t97.5 -26z" />
    <glyph glyph-name="arrowleft" unicode="&#x2190;" horiz-adv-x="1689" 
d="M467 733h1112l-29 -176h-1114l273 -321h-228l-336 405l2 8l480 406h227z" />
    <glyph glyph-name="arrowup" unicode="&#x2191;" horiz-adv-x="1196" 
d="M715 1202l428 -340l-33 -207l-346 281l-166 -916h-190l163 916l-444 -281l33 207l545 340h10z" />
    <glyph glyph-name="arrowright" unicode="&#x2192;" horiz-adv-x="1687" 
d="M1010 1055h229l336 -406l-2 -8l-479 -405h-230l387 321h-1110l29 176h1112z" />
    <glyph glyph-name="arrowdown" unicode="&#x2193;" horiz-adv-x="1200" 
d="M809 1202l-162 -915l443 280l-33 -207l-547 -340h-8l-428 340l32 207l349 -282l161 917h193z" />
    <glyph glyph-name="arrowboth" unicode="&#x2194;" horiz-adv-x="2117" 
d="M702 233h-229l-336 406l2 8l479 406h230l-404 -328h1287l-285 328h227l336 -406l-2 -8l-479 -406h-228l402 326h-1282z" />
    <glyph glyph-name="arrowupdn" unicode="&#x2195;" horiz-adv-x="1294" 
d="M555 6h-8l-430 322l30 190l349 -252l161 864l-444 -262l33 197l542 321h11l430 -321l-33 -197l-346 262l-162 -864l442 252l-30 -190z" />
    <glyph glyph-name="uni2196" unicode="&#x2196;" horiz-adv-x="1466" 
d="M688 817l598 -711l-166 -96l-600 711l-160 -416l-133 162l201 508l8 6l643 -23l133 -161z" />
    <glyph glyph-name="uni2197" unicode="&#x2197;" horiz-adv-x="1343" 
d="M932 975l201 -508l-134 -162l-159 416l-600 -711l-166 96l598 711l-525 -20l134 161l643 23z" />
    <glyph glyph-name="uni2198" unicode="&#x2198;" horiz-adv-x="1472" 
d="M961 500l159 418l133 -164l-200 -508l-9 -4l-643 20l-133 164l525 -20l-598 710l165 94z" />
    <glyph glyph-name="uni2199" unicode="&#x2199;" horiz-adv-x="1343" 
d="M1120 1210l166 -94l-598 -710l524 20l-133 -164l-643 -20l-8 4l-201 508l133 164l160 -418z" />
    <glyph glyph-name="emptyset" unicode="&#x2205;" horiz-adv-x="1718" 
d="M1612 1190l-180 -176q147 -138 147 -352q0 -134 -63 -261t-171 -223.5t-263 -154.5t-328 -58q-185 0 -330 68l-186 -180l-125 88l182 178q-152 136 -152 354q0 136 63 263.5t171.5 223.5t263 153.5t326.5 57.5q195 0 336 -69l182 176zM371 502q0 -131 90 -221l676 657
q-87 35 -199 35q-116 0 -222 -39.5t-181 -104.5t-119.5 -151t-44.5 -176zM786 164q154 0 285 66.5t205 174.5t74 230q0 129 -84 219l-674 -657q94 -33 194 -33z" />
    <glyph glyph-name="minus" unicode="&#x2212;" horiz-adv-x="1224" 
d="M1067 543h-913l26 168h914z" />
    <glyph glyph-name="infinity" unicode="&#x221e;" horiz-adv-x="2189" 
d="M539 285q-171 0 -276 80.5t-105 209.5q0 106 71.5 197t186.5 142t241 51q120 0 217.5 -53t245.5 -189q202 137 319 189.5t234 52.5q165 0 272 -79.5t107 -211.5q0 -102 -64.5 -191t-180 -143.5t-253.5 -54.5q-124 0 -220 52t-244 189q-193 -136 -308.5 -188.5
t-242.5 -52.5zM559 432q37 0 75.5 8.5t63 15.5t72.5 33.5t63.5 35.5t79 49.5t78.5 50.5q-13 11 -52 45t-51.5 43.5t-43.5 33.5t-48.5 31.5l-45.5 19.5t-55.5 15.5t-59.5 3.5q-121 0 -204 -65t-83 -156q0 -77 58 -120.5t153 -43.5zM1581 434q118 0 199.5 64t81.5 155
q0 75 -56 118.5t-153 43.5q-51 0 -98 -11t-98 -36.5t-92 -50.5t-109 -70q-7 -5 -11 -7.5t-10.5 -7t-11.5 -7.5q13 -10 58.5 -48.5t59 -49t51 -35.5t60 -33t58 -16.5t71.5 -8.5z" />
    <glyph glyph-name="approxequal" unicode="&#x2248;" horiz-adv-x="1300" 
d="M383 696h-184q16 93 70.5 162t125.5 101t148 32q61 0 111.5 -20t79.5 -43.5t68.5 -43.5t80.5 -20q58 0 91.5 35.5t43.5 89.5h184q-26 -144 -113.5 -221.5t-211.5 -77.5q-53 0 -97.5 13.5t-74 33t-55.5 38.5t-57 32.5t-65 13.5q-59 0 -97 -36.5t-48 -88.5zM307 256h-184
q24 139 122.5 218t221.5 79q61 0 111 -20t78.5 -43.5t68 -43.5t80.5 -20q110 0 137 125h184q-26 -144 -113.5 -221.5t-211.5 -77.5q-64 0 -116.5 20.5t-82 45t-69 45t-80.5 20.5q-61 0 -98.5 -36.5t-47.5 -90.5z" />
    <glyph glyph-name="notequal" unicode="&#x2260;" horiz-adv-x="1280" 
d="M1159 915l-26 -167h-312l-166 -265h430l-24 -168h-498l-108 -176h-172l110 176h-258l27 168h321l168 265h-440l27 167h503l103 162h172l-101 -162h244z" />
    <glyph glyph-name="lessequal" unicode="&#x2264;" horiz-adv-x="1249" 
d="M1024 303h-891l25 143h551l-519 175l27 170l920 176l-25 -158l-688 -127l625 -229z" />
    <glyph glyph-name="greaterequal" unicode="&#x2265;" horiz-adv-x="1251" 
d="M1030 303h-891l25 150l702 229l-639 127l23 158l858 -176l-27 -170l-579 -175h551z" />
    <glyph glyph-name="lozenge" unicode="&#x25ca;" horiz-adv-x="1382" 
d="M645 0h-108l-379 694l624 692h109l381 -692zM362 694l261 -467h8l434 467l-258 465h-8z" />
    <glyph glyph-name="A.ss01" horiz-adv-x="1845" 
d="M178 0h-252l1004 1597h350l438 -1597h-245q-104 384 -130 492h-851q-37 -61 -314 -492zM596 690h704q-108 373 -180 656h-96q-200 -305 -428 -656z" />
    <glyph glyph-name="Aacute.ss01" horiz-adv-x="1845" 
d="M1667 2060l-459 -340h-202l362 340h299zM178 0h-252l1004 1597h350l438 -1597h-245q-104 384 -130 492h-851q-37 -61 -314 -492zM596 690h704q-108 373 -180 656h-96q-200 -305 -428 -656z" />
    <glyph glyph-name="Abreve.ss01" horiz-adv-x="1845" 
d="M1122 1720q-201 0 -311 102t-92 242h192q-8 -73 57 -130.5t177 -57.5q113 0 198 56.5t107 131.5h192q-29 -140 -174 -242t-346 -102zM178 0h-252l1004 1597h350l438 -1597h-245q-104 384 -130 492h-851q-37 -61 -314 -492zM596 690h704q-108 373 -180 656h-96
q-200 -305 -428 -656z" />
    <glyph glyph-name="Acircumflex.ss01" horiz-adv-x="1845" 
d="M1303 2050l274 -330h-205q-129 115 -211 193q-20 -14 -58 -42t-58 -42.5t-64.5 -43.5t-103.5 -65h-205l387 330h244zM178 0h-252l1004 1597h350l438 -1597h-245q-104 384 -130 492h-851q-37 -61 -314 -492zM596 690h704q-108 373 -180 656h-96q-200 -305 -428 -656z" />
    <glyph glyph-name="Adieresis.ss01" horiz-adv-x="1845" 
d="M881 1759q-57 0 -95 33.5t-38 85.5q0 64 52.5 111t123.5 47q57 0 94 -32.5t37 -82.5q0 -64 -52 -113t-122 -49zM1382 1759q-59 0 -97 33.5t-38 83.5q0 65 53.5 112.5t124.5 47.5q57 0 95.5 -33t38.5 -84q0 -61 -53.5 -110.5t-123.5 -49.5zM178 0h-252l1004 1597h350
l438 -1597h-245q-104 384 -130 492h-851q-37 -61 -314 -492zM596 690h704q-108 373 -180 656h-96q-200 -305 -428 -656z" />
    <glyph glyph-name="Agrave.ss01" horiz-adv-x="1845" 
d="M1257 1720h-200l-344 340h303zM178 0h-252l1004 1597h350l438 -1597h-245q-104 384 -130 492h-851q-37 -61 -314 -492zM596 690h704q-108 373 -180 656h-96q-200 -305 -428 -656z" />
    <glyph glyph-name="Amacron.ss01" horiz-adv-x="1845" 
d="M1556 1798h-835l27 162h833zM178 0h-252l1004 1597h350l438 -1597h-245q-104 384 -130 492h-851q-37 -61 -314 -492zM596 690h704q-108 373 -180 656h-96q-200 -305 -428 -656z" />
    <glyph glyph-name="Aogonek.ss01" horiz-adv-x="1845" 
d="M1407 -205q0 -52 49 -86.5t131 -34.5q50 0 111 13l-23 -133q-69 -17 -137 -17q-130 0 -216.5 52t-86.5 147q0 88 71.5 155t172.5 109h-6q-104 384 -130 492h-851q-37 -61 -314 -492h-252l1004 1597h350l438 -1597h-67q-101 -26 -172.5 -83t-71.5 -122zM596 690h704
q-108 373 -180 656h-96q-200 -305 -428 -656z" />
    <glyph glyph-name="Aring.ss01" horiz-adv-x="1845" 
d="M1120 1712q-109 0 -178.5 56.5t-69.5 144.5q0 105 97 185.5t231 80.5q110 0 179 -56.5t69 -144.5q0 -106 -96.5 -186t-231.5 -80zM1141 1837q66 0 112.5 38t46.5 89q0 39 -33.5 63.5t-86.5 24.5q-67 0 -113.5 -37t-46.5 -88q0 -41 34 -65.5t87 -24.5zM178 0h-252
l1004 1597h350l438 -1597h-245q-104 384 -130 492h-851q-37 -61 -314 -492zM596 690h704q-108 373 -180 656h-96q-200 -305 -428 -656z" />
    <glyph glyph-name="Atilde.ss01" horiz-adv-x="1845" 
d="M1327 1739q-55 0 -94 15t-80 46l-49 35q-58 43 -105 43q-52 0 -89 -35t-48 -88h-162q23 126 113.5 204.5t208.5 78.5q87 0 168 -60l49 -34q52 -41 107 -41q49 0 82.5 32.5t44.5 87.5h163q-23 -134 -104.5 -209t-204.5 -75zM178 0h-252l1004 1597h350l438 -1597h-245
q-104 384 -130 492h-851q-37 -61 -314 -492zM596 690h704q-108 373 -180 656h-96q-200 -305 -428 -656z" />
    <glyph glyph-name="B.ss01" horiz-adv-x="1751" 
d="M922 0h-781l283 1597h723q251 0 391.5 -98t140.5 -258q0 -145 -112.5 -264.5t-288.5 -159.5v-4q163 -26 249.5 -109t86.5 -215q0 -134 -89.5 -246t-248.5 -177.5t-354 -65.5zM530 901h439q206 0 332 78t126 197q0 108 -103.5 163.5t-272.5 55.5h-424q-6 -30 -30 -163.5
t-40.5 -217t-26.5 -113.5zM406 203h485q216 0 345.5 79.5t129.5 198.5q0 112 -108 170t-281 58h-473q-10 -51 -33 -165.5t-65 -340.5z" />
    <glyph glyph-name="C.ss01" horiz-adv-x="2054" 
d="M989 -35q-384 0 -614 190t-230 509q0 188 87.5 365t236 309t358 212t441.5 80q189 0 350 -55t274.5 -165.5t149.5 -262.5l-227 -82q-52 163 -206.5 260.5t-373.5 97.5q-176 0 -334.5 -63t-268.5 -166t-174.5 -236.5t-64.5 -273.5q0 -107 36 -194t97 -145t143.5 -98
t173 -57.5t189.5 -17.5q268 0 467 122.5t303 315.5l203 -71q-145 -271 -408 -422.5t-608 -151.5z" />
    <glyph glyph-name="D.ss01" horiz-adv-x="1968" 
d="M858 0h-717l283 1597h694q393 0 589 -170t196 -475q0 -147 -47 -287.5t-138 -260.5t-216 -210.5t-291.5 -142t-352.5 -51.5zM406 203h477q173 0 320.5 57.5t245.5 154.5t153 224.5t55 267.5q0 110 -30.5 194.5t-84.5 139.5t-134 90t-171.5 49.5t-204.5 14.5h-405
q-24 -129 -52.5 -271.5t-64 -335t-104.5 -585.5z" />
    <glyph glyph-name="E.ss01" horiz-adv-x="1605" 
d="M1386 0h-1245l283 1597h1221l-31 -202h-987l-26 -123q-26 -124 -66 -350h938l-31 -211h-938q-12 -61 -28.5 -147t-69.5 -357h1011z" />
    <glyph glyph-name="F.ss01" horiz-adv-x="1525" 
d="M1622 1597l-33 -206h-964l-90 -494h911l-31 -211h-917l-121 -686h-236l283 1597h1198z" />
    <glyph glyph-name="G.ss01" horiz-adv-x="2095" 
d="M983 -35q-387 0 -613.5 186t-226.5 504q0 189 87.5 367t235.5 312t358.5 215t441.5 81q191 0 353 -56t274.5 -166.5t146.5 -260.5l-228 -82q-53 166 -206.5 262t-370.5 96q-175 0 -333 -62t-268.5 -163.5t-175.5 -236t-65 -275.5q0 -240 173.5 -377t477.5 -137
q281 0 471.5 117.5t258.5 328.5h-623l27 185h852l-13 -70q-28 -151 -96 -277t-165.5 -216t-221 -152.5t-262.5 -92.5t-289 -30z" />
    <glyph glyph-name="H.ss01" horiz-adv-x="1988" 
d="M1573 903l123 694h235l-282 -1597h-236l123 692h-1038l-121 -692h-236l283 1597h235l-122 -694h1036z" />
    <glyph glyph-name="I.ss01" horiz-adv-x="1349" 
d="M1157 0h-1163l33 203h462l222 1192h-475l28 202h1188l-33 -202h-475l-221 -1192h465z" />
    <glyph glyph-name="Iacute.ss01" horiz-adv-x="1349" 
d="M1350 2062l-461 -342h-201l361 342h301zM1157 0h-1163l33 203h462l222 1192h-475l28 202h1188l-33 -202h-475l-221 -1192h465z" />
    <glyph glyph-name="Icircumflex.ss01" horiz-adv-x="1349" 
d="M1061 2050l274 -330h-205q-111 100 -210 193q-18 -13 -58 -42t-59 -42.5t-64 -43t-104 -65.5h-205l387 330h244zM1157 0h-1163l33 203h462l222 1192h-475l28 202h1188l-33 -202h-475l-221 -1192h465z" />
    <glyph glyph-name="Idieresis.ss01" horiz-adv-x="1349" 
d="M641 1759q-57 0 -95 33.5t-38 85.5q0 64 52.5 111t123.5 47q57 0 94 -32.5t37 -82.5q0 -64 -52 -113t-122 -49zM1143 1759q-59 0 -97 33.5t-38 83.5q0 65 53.5 112.5t124.5 47.5q57 0 95 -33t38 -84q0 -61 -53.5 -110.5t-122.5 -49.5zM1157 0h-1163l33 203h462l222 1192
h-475l28 202h1188l-33 -202h-475l-221 -1192h465z" />
    <glyph glyph-name="Idotaccent.ss01" horiz-adv-x="1349" 
d="M889 1772q-60 0 -99.5 34t-39.5 88q0 66 55.5 115t130.5 49q59 0 98 -34.5t39 -86.5q0 -66 -56 -115.5t-128 -49.5zM1157 0h-1163l33 203h462l222 1192h-475l28 202h1188l-33 -202h-475l-221 -1192h465z" />
    <glyph glyph-name="Igrave.ss01" horiz-adv-x="1349" 
d="M1018 1720h-201l-344 340h303zM1157 0h-1163l33 203h462l222 1192h-475l28 202h1188l-33 -202h-475l-221 -1192h465z" />
    <glyph glyph-name="Imacron.ss01" horiz-adv-x="1349" 
d="M1317 1798h-836l27 162h833zM1157 0h-1163l33 203h462l222 1192h-475l28 202h1188l-33 -202h-475l-221 -1192h465z" />
    <glyph glyph-name="J.ss01" horiz-adv-x="1466" 
d="M573 -35q-96 0 -180.5 19t-159.5 59.5t-121.5 104t-66.5 154t6 208.5l6 37l232 28l-8 -34q-20 -83 -7.5 -145.5t42 -105.5t76.5 -69.5t96 -38.5t102 -12q171 0 278.5 102t135.5 260l161 863h-663l33 202h895l-181 -1022q-6 -34 -11 -58.5t-19.5 -74.5t-30.5 -88.5
t-45 -90.5t-63.5 -90.5t-85.5 -80t-110.5 -67.5t-139.5 -43t-171 -17z" />
    <glyph glyph-name="K.ss01" horiz-adv-x="1673" 
d="M377 0h-236l283 1597h235l-124 -671h6q102 69 454 306t545 365h309q-121 -85 -318.5 -221t-394 -273.5t-444.5 -314.5q161 -139 456.5 -399t446.5 -389h-323q-87 70 -154 130.5t-109.5 101t-172.5 144t-344 261.5z" />
    <glyph glyph-name="L.ss01" horiz-adv-x="1441" 
d="M659 1597l-245 -1390h932l-31 -207h-1174l283 1597h235z" />
    <glyph glyph-name="M.ss01" horiz-adv-x="2344" 
d="M2009 1597h279l-283 -1597h-236l222 1206l-770 -893h-179l-442 893l-221 -1206h-238l283 1597h281q169 -343 469 -985h4q63 75 194.5 233t213 255.5t200.5 237t223 259.5z" />
    <glyph glyph-name="N.ss01" horiz-adv-x="2019" 
d="M377 0h-236l283 1597h297l729 -1187h55l224 1187h233l-283 -1597h-295l-729 1180h-59z" />
    <glyph glyph-name="O.ss01" horiz-adv-x="2158" 
d="M975 -35q-241 0 -430.5 88.5t-295.5 249t-106 365.5q0 148 57.5 292t162.5 264t243 211.5t310 143t352 51.5t334.5 -52t264 -144.5t171 -224t61.5 -285.5q0 -123 -41 -244.5t-114.5 -226.5t-178 -195.5t-227.5 -155t-268 -101t-295 -36.5zM1010 172q166 0 321 61
t267 161.5t179.5 233.5t67.5 271q0 230 -170.5 377t-437.5 147q-165 0 -320.5 -61t-269.5 -161t-183 -234t-69 -273q0 -152 79 -271.5t219.5 -185t316.5 -65.5z" />
    <glyph glyph-name="P.ss01" horiz-adv-x="1644" 
d="M424 1597h694q21 0 39 -0.5t61 -4.5t79 -10.5t85 -21t88 -34t79.5 -51.5t67.5 -71.5t44.5 -95.5t17.5 -122q0 -114 -52 -220t-143 -187.5t-224.5 -130t-286.5 -48.5h-492l-104 -600h-236zM520 811h424q211 0 349.5 90t138.5 240q0 134 -105 194t-283 60h-419z" />
    <glyph glyph-name="Q.ss01" horiz-adv-x="1802" 
d="M672 -25q-122 -118 -189 -178v-2h953l-35 -190h-1391l453 434q-160 78 -251 230.5t-91 355.5q0 202 78 388t208.5 321t309.5 215.5t373 80.5q304 0 488.5 -183t184.5 -480q0 -201 -78 -386t-208.5 -319t-309 -214.5t-372.5 -80.5q-71 0 -123 8zM1055 1425
q-139 0 -269 -61.5t-224.5 -164t-151 -243t-56.5 -292.5q0 -223 133 -357.5t347 -134.5q185 0 345.5 103.5t254.5 279t94 377.5q0 222 -130 357.5t-343 135.5z" />
    <glyph glyph-name="R.ss01" horiz-adv-x="1703" 
d="M973 608h-172l739 -608h-295l-743 608h-17l-108 -608h-236l283 1597h694q35 0 70.5 -2t94 -11.5t108.5 -25.5t105 -47.5t94 -74t64 -108t25 -146.5q0 -115 -53 -220.5t-145.5 -183.5t-225 -124t-282.5 -46zM1047 1413h-418l-115 -610h428q216 0 353 99.5t137 248.5
q0 127 -100 194.5t-285 67.5z" />
    <glyph glyph-name="S.ss01" horiz-adv-x="1587" 
d="M713 -35q-95 0 -182.5 17t-167 54t-141 91.5t-103.5 133.5t-56 175l228 72q18 -118 85 -196t160.5 -111t211.5 -33q196 0 330 83.5t134 203.5q0 41 -19 74.5t-46 55t-72 40.5t-81 30t-89 25l-10.5 3t-9.5 2.5t-11 2.5l-167 43q-43 11 -77 21.5t-83 29.5t-86 40t-77 52
t-66 66.5t-43 83.5t-17 102q0 98 54 190t147 161t226.5 111t283.5 42q251 0 404 -107t179 -270l-225 -82q-27 120 -130 189.5t-267 69.5q-178 0 -300 -76t-122 -180q0 -37 15.5 -69t46.5 -57t60 -43t75 -35t70.5 -24.5t66.5 -19.5l184 -52q166 -45 238 -79q206 -98 206 -287
q0 -102 -57 -200.5t-155.5 -174t-241.5 -122t-303 -46.5z" />
    <glyph glyph-name="U.ss01" horiz-adv-x="1865" 
d="M793 -35q-90 0 -168 15.5t-136.5 44t-106 67t-79 85.5t-52.5 98.5t-29.5 107t-7.5 110.5t11 109l181 995h233l-180 -979q-11 -73 -7 -139t32.5 -122.5t74 -98t118.5 -65t165 -23.5q115 0 213.5 36t167.5 98t113.5 142.5t60.5 171.5l178 979h233l-282 -1597h-226l33 174
h-2q-97 -108 -226.5 -158.5t-311.5 -50.5z" />
    <glyph glyph-name="Uacute.ss01" horiz-adv-x="1865" 
d="M1444 2062l-461 -342h-201l361 342h301zM793 -35q-90 0 -168 15.5t-136.5 44t-106 67t-79 85.5t-52.5 98.5t-29.5 107t-7.5 110.5t11 109l181 995h233l-180 -979q-11 -73 -7 -139t32.5 -122.5t74 -98t118.5 -65t165 -23.5q115 0 213.5 36t167.5 98t113.5 142.5
t60.5 171.5l178 979h233l-282 -1597h-226l33 174h-2q-97 -108 -226.5 -158.5t-311.5 -50.5z" />
    <glyph glyph-name="Ucircumflex.ss01" horiz-adv-x="1865" 
d="M1298 2050l275 -330h-205q-129 115 -211 193q-18 -13 -58 -42t-59 -42.5t-64 -43t-104 -65.5h-204l387 330h243zM793 -35q-90 0 -168 15.5t-136.5 44t-106 67t-79 85.5t-52.5 98.5t-29.5 107t-7.5 110.5t11 109l181 995h233l-180 -979q-11 -73 -7 -139t32.5 -122.5
t74 -98t118.5 -65t165 -23.5q115 0 213.5 36t167.5 98t113.5 142.5t60.5 171.5l178 979h233l-282 -1597h-226l33 174h-2q-97 -108 -226.5 -158.5t-311.5 -50.5z" />
    <glyph glyph-name="Udieresis.ss01" horiz-adv-x="1865" 
d="M877 1759q-57 0 -95.5 33.5t-38.5 85.5q0 64 53 111t124 47q57 0 94 -32.5t37 -82.5q0 -64 -52 -113t-122 -49zM1378 1759q-59 0 -97 33.5t-38 83.5q0 65 53.5 112.5t124.5 47.5q57 0 95 -33t38 -84q0 -61 -53 -110.5t-123 -49.5zM793 -35q-90 0 -168 15.5t-136.5 44
t-106 67t-79 85.5t-52.5 98.5t-29.5 107t-7.5 110.5t11 109l181 995h233l-180 -979q-11 -73 -7 -139t32.5 -122.5t74 -98t118.5 -65t165 -23.5q115 0 213.5 36t167.5 98t113.5 142.5t60.5 171.5l178 979h233l-282 -1597h-226l33 174h-2q-97 -108 -226.5 -158.5t-311.5 -50.5
z" />
    <glyph glyph-name="Ugrave.ss01" horiz-adv-x="1865" 
d="M1253 1720h-200l-344 340h303zM793 -35q-90 0 -168 15.5t-136.5 44t-106 67t-79 85.5t-52.5 98.5t-29.5 107t-7.5 110.5t11 109l181 995h233l-180 -979q-11 -73 -7 -139t32.5 -122.5t74 -98t118.5 -65t165 -23.5q115 0 213.5 36t167.5 98t113.5 142.5t60.5 171.5l178 979
h233l-282 -1597h-226l33 174h-2q-97 -108 -226.5 -158.5t-311.5 -50.5z" />
    <glyph glyph-name="Uhungarumlaut.ss01" horiz-adv-x="1865" 
d="M1368 2060l-405 -340h-197l315 340h287zM1808 2060l-419 -340h-197l332 340h284zM793 -35q-90 0 -168 15.5t-136.5 44t-106 67t-79 85.5t-52.5 98.5t-29.5 107t-7.5 110.5t11 109l181 995h233l-180 -979q-11 -73 -7 -139t32.5 -122.5t74 -98t118.5 -65t165 -23.5
q115 0 213.5 36t167.5 98t113.5 142.5t60.5 171.5l178 979h233l-282 -1597h-226l33 174h-2q-97 -108 -226.5 -158.5t-311.5 -50.5z" />
    <glyph glyph-name="Umacron.ss01" horiz-adv-x="1865" 
d="M1554 1798h-835l26 162h834zM793 -35q-90 0 -168 15.5t-136.5 44t-106 67t-79 85.5t-52.5 98.5t-29.5 107t-7.5 110.5t11 109l181 995h233l-180 -979q-11 -73 -7 -139t32.5 -122.5t74 -98t118.5 -65t165 -23.5q115 0 213.5 36t167.5 98t113.5 142.5t60.5 171.5l178 979
h233l-282 -1597h-226l33 174h-2q-97 -108 -226.5 -158.5t-311.5 -50.5z" />
    <glyph glyph-name="Uogonek.ss01" horiz-adv-x="1865" 
d="M1255 -205q0 -52 49.5 -86.5t131.5 -34.5q49 0 110 13l-22 -133q-69 -17 -138 -17q-130 0 -216.5 52t-86.5 147q0 88 71.5 155t172.5 109h-27l33 174h-2q-97 -108 -226.5 -158.5t-311.5 -50.5q-90 0 -168 15.5t-136.5 44t-106 67t-79 85.5t-52.5 98.5t-29.5 107
t-7.5 110.5t11 109l181 995h233l-180 -979q-11 -73 -7 -139t32.5 -122.5t74 -98t118.5 -65t165 -23.5q115 0 213.5 36t167.5 98t113.5 142.5t60.5 171.5l178 979h233l-282 -1597h-27q-101 -26 -172.5 -83t-71.5 -122z" />
    <glyph glyph-name="Uring.ss01" horiz-adv-x="1865" 
d="M1118 1712q-109 0 -178.5 56.5t-69.5 144.5q0 105 97 185.5t231 80.5q110 0 179 -56.5t69 -144.5q0 -106 -96.5 -186t-231.5 -80zM1139 1837q66 0 112.5 38t46.5 89q0 39 -33.5 63.5t-86.5 24.5q-67 0 -113.5 -37t-46.5 -88q0 -41 34 -65.5t87 -24.5zM793 -35
q-90 0 -168 15.5t-136.5 44t-106 67t-79 85.5t-52.5 98.5t-29.5 107t-7.5 110.5t11 109l181 995h233l-180 -979q-11 -73 -7 -139t32.5 -122.5t74 -98t118.5 -65t165 -23.5q115 0 213.5 36t167.5 98t113.5 142.5t60.5 171.5l178 979h233l-282 -1597h-226l33 174h-2
q-97 -108 -226.5 -158.5t-311.5 -50.5z" />
    <glyph glyph-name="V.ss01" horiz-adv-x="1841" 
d="M989 0h-344l-438 1597h248q46 -164 83 -317t97 -370.5t186 -630.5h90q141 219 421 659t421 659h248z" />
    <glyph glyph-name="W.ss01" horiz-adv-x="2805" 
d="M823 0h-291l-313 1597h258l248 -1294h4l668 1294h395l184 -1294h4l715 1294h260l-878 -1597h-289l-180 1327h-105z" />
    <glyph glyph-name="Wacute.ss01" horiz-adv-x="2805" 
d="M2154 2060l-458 -340h-203l362 340h299zM823 0h-291l-313 1597h258l248 -1294h4l668 1294h395l184 -1294h4l715 1294h260l-878 -1597h-289l-180 1327h-105z" />
    <glyph glyph-name="Wcircumflex.ss01" horiz-adv-x="2805" 
d="M1788 2050l274 -330h-204q-129 115 -211 193q-18 -13 -58 -42t-59 -42.5t-64 -43t-104 -65.5h-205l387 330h244zM823 0h-291l-313 1597h258l248 -1294h4l668 1294h395l184 -1294h4l715 1294h260l-878 -1597h-289l-180 1327h-105z" />
    <glyph glyph-name="Wdieresis.ss01" horiz-adv-x="2805" 
d="M1368 1759q-57 0 -95 33.5t-38 85.5q0 64 52.5 111t123.5 47q57 0 94 -32.5t37 -82.5q0 -64 -52 -113t-122 -49zM1870 1759q-59 0 -97 33.5t-38 83.5q0 65 53.5 112.5t124.5 47.5q57 0 95 -33t38 -84q0 -61 -53 -110.5t-123 -49.5zM823 0h-291l-313 1597h258l248 -1294h4
l668 1294h395l184 -1294h4l715 1294h260l-878 -1597h-289l-180 1327h-105z" />
    <glyph glyph-name="Wgrave.ss01" horiz-adv-x="2805" 
d="M1745 1720h-201l-344 340h303zM823 0h-291l-313 1597h258l248 -1294h4l668 1294h395l184 -1294h4l715 1294h260l-878 -1597h-289l-180 1327h-105z" />
    <glyph glyph-name="X.ss01" horiz-adv-x="1714" 
d="M184 0h-262l780 811l3 14l-488 772h262q133 -211 404 -655h84q62 62 252 263.5t391 391.5h256l-758 -772l-2 -14l489 -811h-256q-345 544 -411 682h-84q-87 -88 -175.5 -187t-196.5 -211.5t-288 -283.5z" />
    <glyph glyph-name="Y.ss01" horiz-adv-x="1699" 
d="M494 0h-246l512 582l-529 1015h254l422 -796h4l725 796h252z" />
    <glyph glyph-name="Yacute.ss01" horiz-adv-x="1699" 
d="M1542 2062l-461 -342h-200l360 342h301zM494 0h-246l512 582l-529 1015h254l422 -796h4l725 796h252z" />
    <glyph glyph-name="Ycircumflex.ss01" horiz-adv-x="1699" 
d="M1260 2050l274 -330h-205q-129 115 -211 193q-20 -14 -58 -42t-58 -42.5t-64.5 -43.5t-103.5 -65h-205l387 330h244zM494 0h-246l512 582l-529 1015h254l422 -796h4l725 796h252z" />
    <glyph glyph-name="Ydieresis.ss01" horiz-adv-x="1699" 
d="M840 1759q-57 0 -95 33.5t-38 85.5q0 64 52.5 111t123.5 47q57 0 94 -32.5t37 -82.5q0 -64 -52 -113t-122 -49zM1341 1759q-59 0 -97 33.5t-38 83.5q0 65 53.5 112.5t124.5 47.5q57 0 95.5 -33t38.5 -84q0 -61 -53.5 -110.5t-123.5 -49.5zM494 0h-246l512 582l-529 1015
h254l422 -796h4l725 796h252z" />
    <glyph glyph-name="Ygrave.ss01" horiz-adv-x="1699" 
d="M1217 1720h-201l-344 340h303zM494 0h-246l512 582l-529 1015h254l422 -796h4l725 796h252z" />
    <glyph glyph-name="Z.ss01" horiz-adv-x="1687" 
d="M1487 0h-1589l1495 1395h-1090l33 202h1509l-1487 -1390h1162z" />
    <glyph glyph-name="Zacute.ss01" horiz-adv-x="1687" 
d="M1587 2060l-459 -340h-202l362 340h299zM1487 0h-1589l1495 1395h-1090l33 202h1509l-1487 -1390h1162z" />
    <glyph glyph-name="Zcaron.ss01" horiz-adv-x="1687" 
d="M1346 2050h206l-385 -330h-252l-270 330h205q62 -53 215 -197q38 27 90.5 65t95.5 68t95 64zM1487 0h-1589l1495 1395h-1090l33 202h1509l-1487 -1390h1162z" />
    <glyph glyph-name="Zdotaccent.ss01" horiz-adv-x="1687" 
d="M1061 1772q-60 0 -99.5 34t-39.5 88q0 66 55.5 115t130.5 49q59 0 98 -34.5t39 -86.5q0 -66 -56 -115.5t-128 -49.5zM1487 0h-1589l1495 1395h-1090l33 202h1509l-1487 -1390h1162z" />
    <glyph glyph-name="Q.ss02" horiz-adv-x="2158" 
d="M2099 924q0 -172 -79.5 -337.5t-213.5 -294t-320 -215t-390 -106.5l-31 -176h635l-29 -190h-858l64 364q-328 28 -531 219.5t-203 479.5q0 148 57.5 292t162.5 264t243 211.5t310 143t352 51.5t334.5 -52t264 -144.5t171 -224t61.5 -285.5zM395 694q0 -209 142.5 -349
t373.5 -167l76 436h221l-75 -434q195 28 359 134.5t258.5 261.5t94.5 323q0 230 -170.5 377t-437.5 147q-165 0 -320.5 -61t-269.5 -161t-183 -234t-69 -273z" />
    <glyph glyph-name="A.ss07" 
d="M1092 -315q-215 0 -397.5 58t-310 160.5t-199.5 249.5t-72 320q0 165 65 325t186 294t280.5 236.5t360.5 160t414 57.5q163 0 310.5 -34t270 -101.5t212.5 -162t140 -221.5t50 -273q0 -140 -47 -276t-131 -253.5t-205 -217.5t-264 -171t-314 -111t-349 -40zM1237 1096
l-629 -963h166q26 35 201 293h461q9 -27 17 -58t24 -82.5t51 -152.5h168l-289 963h-170zM1401 559h-350q21 31 62.5 94.5t78 116.5t100.5 141q64 -224 109 -352z" />
    <glyph glyph-name="B.ss07" horiz-adv-x="2459" 
d="M1092 -315q-215 0 -397.5 58t-310 160.5t-199.5 249.5t-72 320q0 165 65 325t186 294t280.5 236.5t360.5 160t414 57.5q163 0 310.5 -34t270 -101.5t212.5 -162t140 -221.5t50 -273q0 -140 -47 -276t-131 -253.5t-205 -217.5t-264 -171t-314 -111t-349 -40zM942 1096
l-170 -963h471q180 0 301 87.5t121 213.5q0 71 -44.5 121t-127.5 70q95 31 155 102t60 154q0 98 -90.5 156.5t-237.5 58.5h-438zM1026 684l53 277h242q94 0 154.5 -31t60.5 -94q0 -65 -72.5 -108.5t-187.5 -43.5h-250zM1231 268h-279q23 132 56 285h270q93 0 156 -32t63 -95
q0 -67 -74 -112.5t-192 -45.5z" />
    <glyph glyph-name="C.ss07" 
d="M1092 -315q-215 0 -397.5 58t-310 160.5t-199.5 249.5t-72 320q0 165 65 325t186 294t280.5 236.5t360.5 160t414 57.5q163 0 310.5 -34t270 -101.5t212.5 -162t140 -221.5t50 -273q0 -140 -47 -276t-131 -253.5t-205 -217.5t-264 -171t-314 -111t-349 -40zM1180 113
q203 0 365 93t251 261l-137 45q-61 -116 -177.5 -188t-273.5 -72q-72 0 -136 16.5t-117.5 50.5t-85 92.5t-31.5 135.5q0 83 37.5 161t101.5 137.5t155.5 95.5t194.5 36q131 0 219.5 -58t116.5 -157l154 55q-20 95 -91 164t-169 102t-211 33q-138 0 -264 -48.5t-215 -128.5
t-142 -186.5t-53 -220.5q0 -192 138 -305.5t370 -113.5z" />
    <glyph glyph-name="D.ss07" 
d="M1092 -315q-215 0 -397.5 58t-310 160.5t-199.5 249.5t-72 320q0 165 65 325t186 294t280.5 236.5t360.5 160t414 57.5q163 0 310.5 -34t270 -101.5t212.5 -162t140 -221.5t50 -273q0 -140 -47 -276t-131 -253.5t-205 -217.5t-264 -171t-314 -111t-349 -40zM899 1096
l-170 -963h436q141 0 261.5 48.5t200 129t124.5 184t45 214.5q0 187 -123 287t-352 100h-422zM1182 268h-275q11 60 39 228t88 465h232q65 0 118 -8.5t99 -28.5t77 -51.5t48.5 -81t17.5 -113.5q0 -172 -126.5 -291t-317.5 -119z" />
    <glyph glyph-name="E.ss07" 
d="M1092 -315q-215 0 -397.5 58t-310 160.5t-199.5 249.5t-72 320q0 165 65 325t186 294t280.5 236.5t360.5 160t414 57.5q163 0 310.5 -34t270 -101.5t212.5 -162t140 -221.5t50 -273q0 -140 -47 -276t-131 -253.5t-205 -217.5t-264 -171t-314 -111t-349 -40zM965 1096
l-170 -963h757l21 139h-598l55 283h557l21 141h-557q8 37 17.5 92t33.5 173h586l20 135h-743z" />
    <glyph glyph-name="F.ss07" horiz-adv-x="2459" 
d="M1092 -315q-215 0 -397.5 58t-310 160.5t-199.5 249.5t-72 320q0 165 65 325t186 294t280.5 236.5t360.5 160t414 57.5q163 0 310.5 -34t270 -101.5t212.5 -162t140 -221.5t50 -273q0 -140 -47 -276t-131 -253.5t-205 -217.5t-264 -171t-314 -111t-349 -40zM989 1096
l-170 -963h160l74 408h540l23 139h-543l53 276h574l22 140h-733z" />
    <glyph glyph-name="G.ss07" 
d="M1092 -315q-215 0 -397.5 58t-310 160.5t-199.5 249.5t-72 320q0 165 65 325t186 294t280.5 236.5t360.5 160t414 57.5q163 0 310.5 -34t270 -101.5t212.5 -162t140 -221.5t50 -273q0 -140 -47 -276t-131 -253.5t-205 -217.5t-264 -171t-314 -111t-349 -40zM1161 113
q142 0 261 48.5t198 141.5l-25 -170h127l86 494h-524l-20 -127h366q-40 -110 -157.5 -179t-266.5 -69q-70 0 -133 16.5t-117 50t-86 93t-32 137.5q0 83 37.5 161t102 137t156 94.5t193.5 35.5q128 0 216.5 -56.5t117.5 -158.5l156 55q-20 95 -91 164t-169 102t-211 33
q-138 0 -264 -48.5t-216 -129t-143 -188.5t-53 -222q0 -189 134 -302t357 -113z" />
    <glyph glyph-name="H.ss07" 
d="M1092 -315q-215 0 -397.5 58t-310 160.5t-199.5 249.5t-72 320q0 165 65 325t186 294t280.5 236.5t360.5 160t414 57.5q163 0 310.5 -34t270 -101.5t212.5 -162t140 -221.5t50 -273q0 -140 -47 -276t-131 -253.5t-205 -217.5t-264 -171t-314 -111t-349 -40zM866 1096
l-170 -963h158l74 410h596l-74 -410h160l170 963h-160l-74 -410h-596l74 410h-158z" />
    <glyph glyph-name="I.ss07" 
d="M1092 -315q-215 0 -397.5 58t-310 160.5t-199.5 249.5t-72 320q0 165 65 325t186 294t280.5 236.5t360.5 160t414 57.5q163 0 310.5 -34t270 -101.5t212.5 -162t140 -221.5t50 -273q0 -140 -47 -276t-131 -253.5t-205 -217.5t-264 -171t-314 -111t-349 -40zM1245 1096
l-170 -963h158l170 963h-158z" />
    <glyph glyph-name="J.ss07" 
d="M1092 -315q-215 0 -397.5 58t-310 160.5t-199.5 249.5t-72 320q0 165 65 325t186 294t280.5 236.5t360.5 160t414 57.5q163 0 310.5 -34t270 -101.5t212.5 -162t140 -221.5t50 -273q0 -140 -47 -276t-131 -253.5t-205 -217.5t-264 -171t-314 -111t-349 -40zM1112 123
q71 0 130.5 16.5t99.5 41.5t72.5 63.5t50.5 71.5t32.5 76.5t20 69t10.5 58.5l104 586h-157l-109 -612q-5 -35 -13.5 -64t-26.5 -62t-42.5 -55.5t-64.5 -37.5t-91 -15q-41 0 -77.5 11t-65.5 34t-41 65t0 97l6 35l-155 -19l-7 -37q-16 -82 4.5 -145.5t68.5 -101.5t111.5 -57
t139.5 -19z" />
    <glyph glyph-name="K.ss07" horiz-adv-x="2459" 
d="M1092 -315q-215 0 -397.5 58t-310 160.5t-199.5 249.5t-72 320q0 165 65 325t186 294t280.5 236.5t360.5 160t414 57.5q163 0 310.5 -34t270 -101.5t212.5 -162t140 -221.5t50 -273q0 -140 -47 -276t-131 -253.5t-205 -217.5t-264 -171t-314 -111t-349 -40zM936 1096
l-170 -963h160q7 39 20 111.5t35 201.5q26 18 78 58t76 57q30 -40 77 -105.5t101.5 -136.5t148.5 -186h195q-40 54 -102.5 130.5t-130 169t-162.5 241.5q511 399 542 422h-192q-451 -331 -600 -455l84 455h-160z" />
    <glyph glyph-name="L.ss07" 
d="M1092 -315q-215 0 -397.5 58t-310 160.5t-199.5 249.5t-72 320q0 165 65 325t186 294t280.5 236.5t360.5 160t414 57.5q163 0 310.5 -34t270 -101.5t212.5 -162t140 -221.5t50 -273q0 -140 -47 -276t-131 -253.5t-205 -217.5t-264 -171t-314 -111t-349 -40zM1059 1096
l-170 -963h715l22 139h-557l150 824h-160z" />
    <glyph glyph-name="M.ss07" horiz-adv-x="2459" 
d="M1092 -315q-215 0 -397.5 58t-310 160.5t-199.5 249.5t-72 320q0 165 65 325t186 294t280.5 236.5t360.5 160t414 57.5q163 0 310.5 -34t270 -101.5t212.5 -162t140 -221.5t50 -273q0 -140 -47 -276t-131 -253.5t-205 -217.5t-264 -171t-314 -111t-349 -40zM721 1096
l-170 -963h158l125 670q48 -132 140.5 -365t119.5 -305h116q35 48 100 135.5t103.5 139.5t120 157.5t186.5 239.5l-125 -672h160l170 963h-186q-101 -138 -292 -394.5t-261 -351.5q-135 366 -281 746h-184z" />
    <glyph glyph-name="N.ss07" 
d="M1092 -315q-215 0 -397.5 58t-310 160.5t-199.5 249.5t-72 320q0 165 65 325t186 294t280.5 236.5t360.5 160t414 57.5q163 0 310.5 -34t270 -101.5t212.5 -162t140 -221.5t50 -273q0 -140 -47 -276t-131 -253.5t-205 -217.5t-264 -171t-314 -111t-349 -40zM870 1096
l-170 -963h160l127 701q84 -126 245.5 -358t235.5 -343h164l170 963h-157l-132 -709q-123 191 -479 709h-164z" />
    <glyph glyph-name="O.ss07" 
d="M1092 -315q-215 0 -397.5 58t-310 160.5t-199.5 249.5t-72 320q0 165 65 325t186 294t280.5 236.5t360.5 160t414 57.5q163 0 310.5 -34t270 -101.5t212.5 -162t140 -221.5t50 -273q0 -140 -47 -276t-131 -253.5t-205 -217.5t-264 -171t-314 -111t-349 -40zM1151 113
q136 0 262 48.5t216.5 127.5t145 185t54.5 216q0 187 -140.5 306.5t-359.5 119.5q-135 0 -260.5 -48t-216.5 -127t-146 -185.5t-55 -218.5q0 -191 141.5 -307.5t358.5 -116.5zM819 555q0 81 40 158t106 135t156.5 93.5t187.5 35.5q154 0 253 -85.5t99 -217.5
q0 -108 -66.5 -205.5t-179 -157t-239.5 -59.5q-155 0 -256 85.5t-101 217.5z" />
    <glyph glyph-name="P.ss07" 
d="M1092 -315q-215 0 -397.5 58t-310 160.5t-199.5 249.5t-72 320q0 165 65 325t186 294t280.5 236.5t360.5 160t414 57.5q163 0 310.5 -34t270 -101.5t212.5 -162t140 -221.5t50 -273q0 -140 -47 -276t-131 -253.5t-205 -217.5t-264 -171t-314 -111t-349 -40zM971 1096
l-170 -963h160l63 356h281q184 0 307 106t123 249q0 72 -31.5 124t-84.5 78.5t-108.5 38t-117.5 11.5h-422zM1288 631h-244l64 330h238q221 0 221 -146q0 -60 -42.5 -103.5t-104 -62t-132.5 -18.5z" />
    <glyph glyph-name="Q.ss07" horiz-adv-x="2455" 
d="M1092 -315q-215 0 -397.5 58t-310 160.5t-199.5 249.5t-72 320q0 165 65 325t186 294t280.5 236.5t360.5 160t414 57.5q163 0 310.5 -34t270 -101.5t212.5 -162t140 -221.5t50 -273q0 -140 -47 -276t-131 -253.5t-205 -217.5t-264 -171t-314 -111t-349 -40zM1571 57
l127 90q-43 52 -127 148q122 82 193 203.5t71 249.5q0 185 -142.5 303t-365.5 118q-136 0 -262 -48t-217.5 -127t-146 -185.5t-54.5 -218.5q0 -191 142 -307.5t362 -116.5q152 0 285 53q14 -16 62 -73.5t73 -88.5zM813 608q0 110 67 207.5t182 156t247 58.5q158 0 259 -84
t101 -215q0 -91 -49 -176.5t-135 -146.5q-17 19 -61 67t-103 117l-127 -88q19 -20 53.5 -59t61.5 -70t34 -37q-73 -33 -172 -33q-156 0 -257 82.5t-101 220.5z" />
    <glyph glyph-name="R.ss07" 
d="M1092 -315q-215 0 -397.5 58t-310 160.5t-199.5 249.5t-72 320q0 165 65 325t186 294t280.5 236.5t360.5 160t414 57.5q163 0 310.5 -34t270 -101.5t212.5 -162t140 -221.5t50 -273q0 -140 -47 -276t-131 -253.5t-205 -217.5t-264 -171t-314 -111t-349 -40zM973 1096
l-170 -963h160q8 40 19 106.5t46 252.5h205l227 -359h178q-30 49 -105.5 167t-127.5 204q142 23 237 118t95 218q0 59 -22 105.5t-56.5 74t-81.5 45.5t-91 24.5t-91 6.5h-422zM1292 625h-245q7 37 22.5 118t27 140.5t15.5 77.5h238q98 0 158.5 -36t60.5 -110
q0 -84 -76.5 -137t-200.5 -53z" />
    <glyph glyph-name="S.ss07" 
d="M1092 -315q-215 0 -397.5 58t-310 160.5t-199.5 249.5t-72 320q0 165 65 325t186 294t280.5 236.5t360.5 160t414 57.5q163 0 310.5 -34t270 -101.5t212.5 -162t140 -221.5t50 -273q0 -140 -47 -276t-131 -253.5t-205 -217.5t-264 -171t-314 -111t-349 -40zM1171 113
q190 0 326.5 99t136.5 232q0 52 -20.5 90.5t-69 65t-73.5 36t-87 27.5q-15 5 -22 7l-109 30q-26 7 -35.5 10t-38 12.5t-43.5 19t-34.5 23.5t-28 32t-8.5 39q0 58 67 100.5t166 42.5q93 0 155 -42t77 -114l149 56q-11 102 -106.5 169.5t-247.5 67.5q-183 0 -309.5 -92
t-126.5 -217q0 -47 21 -86t48.5 -63.5t70.5 -45.5t70.5 -30t65.5 -19l101 -24q104 -27 135 -44q55 -31 55 -83q0 -67 -75.5 -114.5t-186.5 -47.5t-181 53.5t-83 149.5l-154 -47q12 -99 72.5 -167t142.5 -97t180 -29z" />
    <glyph glyph-name="T.ss07" 
d="M1092 -315q-215 0 -397.5 58t-310 160.5t-199.5 249.5t-72 320q0 165 65 325t186 294t280.5 236.5t360.5 160t414 57.5q163 0 310.5 -34t270 -101.5t212.5 -162t140 -221.5t50 -273q0 -140 -47 -276t-131 -253.5t-205 -217.5t-264 -171t-314 -111t-349 -40zM1223 961
l-150 -828h158l147 828h373l23 135h-906l-22 -135h377z" />
    <glyph glyph-name="U.ss07" 
d="M1092 -315q-215 0 -397.5 58t-310 160.5t-199.5 249.5t-72 320q0 165 65 325t186 294t280.5 236.5t360.5 160t414 57.5q163 0 310.5 -34t270 -101.5t212.5 -162t140 -221.5t50 -273q0 -140 -47 -276t-131 -253.5t-205 -217.5t-264 -171t-314 -111t-349 -40zM1147 123
q96 0 176.5 24.5t133.5 63t93 91t61 103.5t31 105l107 596h-160l-104 -588q-22 -118 -98.5 -188t-215.5 -70q-73 0 -123 21.5t-72.5 57.5t-30.5 82.5t3 96.5l107 588h-158l-106 -596q-11 -48 -8 -95.5t13.5 -90.5t39 -80t68.5 -63.5t102.5 -42t140.5 -15.5z" />
    <glyph glyph-name="V.ss07" 
d="M1092 -315q-215 0 -397.5 58t-310 160.5t-199.5 249.5t-72 320q0 165 65 325t186 294t280.5 236.5t360.5 160t414 57.5q163 0 310.5 -34t270 -101.5t212.5 -162t140 -221.5t50 -273q0 -140 -47 -276t-131 -253.5t-205 -217.5t-264 -171t-314 -111t-349 -40zM788 1096
l289 -963h170l629 963h-168q-52 -69 -100.5 -144.5t-159 -247t-254.5 -387.5q-22 72 -75 252t-94 311.5t-71 215.5h-166z" />
    <glyph glyph-name="W.ss07" 
d="M1092 -315q-215 0 -397.5 58t-310 160.5t-199.5 249.5t-72 320q0 165 65 325t186 294t280.5 236.5t360.5 160t414 57.5q163 0 310.5 -34t270 -101.5t212.5 -162t140 -221.5t50 -273q0 -140 -47 -276t-131 -253.5t-205 -217.5t-264 -171t-314 -111t-349 -40zM498 1096
l190 -963h184q132 220 416 731q74 -415 148 -731h180l530 963h-172q-4 -6 -138 -253t-280 -495q-20 107 -70.5 359t-76.5 389h-172q-40 -71 -170.5 -308t-251.5 -440q-12 67 -30.5 170t-28.5 159.5t-32 167t-52 251.5h-174z" />
    <glyph glyph-name="X.ss07" 
d="M1092 -315q-215 0 -397.5 58t-310 160.5t-199.5 249.5t-72 320q0 165 65 325t186 294t280.5 236.5t360.5 160t414 57.5q163 0 310.5 -34t270 -101.5t212.5 -162t140 -221.5t50 -273q0 -140 -47 -276t-131 -253.5t-205 -217.5t-264 -171t-314 -111t-349 -40zM670 133h188
l369 369q25 -40 104 -169.5t125 -199.5h186q-52 81 -151.5 244t-151.5 244q79 79 233.5 237.5t233.5 237.5h-184q-63 -61 -157 -154.5t-203 -200.5q-44 66 -123.5 190t-106.5 165h-184q24 -39 131.5 -205t167.5 -270q-73 -74 -252.5 -258.5t-224.5 -229.5z" />
    <glyph glyph-name="Y.ss07" 
d="M1092 -315q-215 0 -397.5 58t-310 160.5t-199.5 249.5t-72 320q0 165 65 325t186 294t280.5 236.5t360.5 160t414 57.5q163 0 310.5 -34t270 -101.5t212.5 -162t140 -221.5t50 -273q0 -140 -47 -276t-131 -253.5t-205 -217.5t-264 -171t-314 -111t-349 -40zM1135 475
l-62 -342h158q17 93 61 344l531 619h-170q-143 -158 -418 -475q-28 55 -57 113.5t-68 134.5t-119 227h-172q219 -436 316 -621z" />
    <glyph glyph-name="Z.ss07" 
d="M1092 -315q-215 0 -397.5 58t-310 160.5t-199.5 249.5t-72 320q0 165 65 325t186 294t280.5 236.5t360.5 160t414 57.5q163 0 310.5 -34t270 -101.5t212.5 -162t140 -221.5t50 -273q0 -140 -47 -276t-131 -253.5t-205 -217.5t-264 -171t-314 -111t-349 -40zM735 268
l-20 -135h893l20 139h-696q162 136 412.5 350t400.5 341l20 133h-854l-20 -135h651q-142 -121 -414.5 -356t-392.5 -337z" />
    <glyph glyph-name="A.ss08" 
d="M1419 1546q163 0 310.5 -34t270 -101.5t212.5 -162t140 -221.5t50 -273q0 -140 -47 -276t-131 -253.5t-205 -217.5t-264 -171t-314 -111t-349 -40q-215 0 -397.5 58t-310 160.5t-199.5 249.5t-72 320q0 165 65 325t186 294t280.5 236.5t360.5 160t414 57.5zM1112 -197
q233 0 447 76.5t368.5 203t246 298t91.5 354.5q0 127 -43.5 237t-122 192t-186 141.5t-238.5 89.5t-276 30q-187 0 -363.5 -50t-317 -139t-247 -205.5t-164 -256t-57.5 -282.5q0 -201 108.5 -358t305 -244t448.5 -87zM811 291l430 647h115l196 -647h-114q-26 89 -66 198
h-311q-30 -43 -71 -104t-66 -94h-113zM1116 580h234q-5 16 -20.5 59.5t-27 81t-24.5 90.5q-6 -9 -66.5 -94t-95.5 -137z" />
    <glyph glyph-name="B.ss08" horiz-adv-x="2459" 
d="M1421 1546q163 0 310.5 -34t270 -101.5t212.5 -162t140 -221.5t50 -273q0 -140 -47 -276t-131 -253.5t-205 -217.5t-264 -171t-314 -111t-349 -40q-215 0 -397.5 58t-310 160.5t-199.5 249.5t-72 320q0 165 65 325t186 294t280.5 236.5t360.5 160t414 57.5zM1114 -197
q233 0 447 76.5t368.5 203t246 298t91.5 354.5q0 127 -43.5 237t-122 192t-186 141.5t-238.5 89.5t-276 30q-187 0 -363.5 -50t-317 -139t-247 -205.5t-164 -256t-57.5 -282.5q0 -201 108.5 -358t305 -244t448.5 -87zM1546 793q0 -54 -38 -101t-101 -69q115 -37 115 -131
q0 -81 -83.5 -141t-205.5 -60h-322l115 647h297q100 0 161.5 -39.5t61.5 -105.5zM1253 662q78 0 128.5 29t50.5 73q0 38 -40 60t-108 22h-164q-35 -175 -37 -184h170zM1225 385q75 0 127.5 26.5t52.5 75.5q0 41 -40.5 63.5t-109.5 22.5h-184q-5 -29 -15.5 -81t-21.5 -107
h191z" />
    <glyph glyph-name="C.ss08" 
d="M1092 -315q-215 0 -397.5 58t-310 160.5t-199.5 249.5t-72 320q0 165 65 325t186 294t280.5 236.5t360.5 160t414 57.5q163 0 310.5 -34t270 -101.5t212.5 -162t140 -221.5t50 -273q0 -140 -47 -276t-131 -253.5t-205 -217.5t-264 -171t-314 -111t-349 -40zM1112 -197
q233 0 447 76.5t368.5 203t246 298t91.5 354.5q0 127 -43.5 237t-122 192t-186 141.5t-238.5 89.5t-276 30q-187 0 -363.5 -50t-317 -139t-247 -205.5t-164 -256t-57.5 -282.5q0 -201 108.5 -358t305 -244t448.5 -87zM1196 279q-157 0 -251.5 76.5t-94.5 205.5
q0 154 135 271.5t326 117.5q127 0 213.5 -54.5t105.5 -147.5l-104 -35q-20 68 -81.5 105.5t-148.5 37.5q-137 0 -234 -86.5t-97 -200.5q0 -51 21 -90t57.5 -61.5t80 -33.5t93.5 -11q101 0 182 46.5t123 131.5l96 -33q-59 -113 -169.5 -176t-252.5 -63z" />
    <glyph glyph-name="D.ss08" 
d="M1094 -315q-216 0 -398.5 58t-310 160.5t-199 249.5t-71.5 320q0 165 65 325t185.5 294t279.5 236.5t360 160t414 57.5q205 0 383.5 -54.5t312 -154t210.5 -250.5t77 -333q0 -140 -46.5 -276t-130.5 -253.5t-204.5 -217.5t-263.5 -171t-314 -111t-349 -40zM1114 -197
q233 0 447 76.5t367.5 203t245 298t91.5 354.5q0 127 -43.5 237t-122 192t-185.5 141.5t-238 89.5t-275 30q-187 0 -364 -50t-318 -139t-247.5 -205.5t-164 -256t-57.5 -282.5q0 -150 63.5 -278.5t176 -218.5t273.5 -141t351 -51zM1190 291h-299l117 647h288
q155 0 238.5 -68t83.5 -194q0 -156 -122.5 -270.5t-305.5 -114.5zM1016 385h186q131 0 217 78.5t86 193.5q0 189 -243 189h-160q-10 -49 -22.5 -110t-25 -129t-38.5 -222z" />
    <glyph glyph-name="E.ss08" 
d="M1092 -315q-215 0 -397.5 58t-310 160.5t-199.5 249.5t-72 320q0 165 65 325t186 294t280.5 236.5t360.5 160t414 57.5q163 0 310.5 -34t270 -101.5t212.5 -162t140 -221.5t50 -273q0 -140 -47 -276t-131 -253.5t-205 -217.5t-264 -171t-314 -111t-349 -40zM1112 -197
q233 0 447 76.5t368.5 203t246 298t91.5 354.5q0 127 -43.5 237t-122 192t-186 141.5t-238.5 89.5t-276 30q-187 0 -363.5 -50t-317 -139t-247 -205.5t-164 -256t-57.5 -282.5q0 -201 108.5 -358t305 -244t448.5 -87zM1454 291h-518l117 647h510l-17 -92h-399
q-4 -18 -15 -69t-20 -107h381l-16 -95h-379q-6 -32 -15.5 -78t-21.5 -112h409z" />
    <glyph glyph-name="F.ss08" 
d="M1092 -315q-215 0 -397.5 58t-310 160.5t-199.5 249.5t-72 320q0 165 65 325t186 294t280.5 236.5t360.5 160t414 57.5q163 0 310.5 -34t270 -101.5t212.5 -162t140 -221.5t50 -273q0 -140 -47 -276t-131 -253.5t-205 -217.5t-264 -171t-314 -111t-349 -40zM1112 -197
q233 0 447 76.5t368.5 203t246 298t91.5 354.5q0 127 -43.5 237t-122 192t-186 141.5t-238.5 89.5t-276 30q-187 0 -363.5 -50t-317 -139t-247 -205.5t-164 -256t-57.5 -282.5q0 -201 108.5 -358t305 -244t448.5 -87zM1063 291h-111l117 647h500l-17 -94h-389l-35 -185h371
l-16 -94h-371z" />
    <glyph glyph-name="G.ss08" 
d="M1419 1546q163 0 310.5 -34t270 -101.5t212.5 -162t140 -221.5t50 -273q0 -140 -47 -276t-131 -253.5t-205 -217.5t-264 -171t-314 -111t-349 -40q-215 0 -397.5 58t-310 160.5t-199.5 249.5t-72 320q0 165 65 325t186 294t280.5 236.5t360.5 160t414 57.5zM1112 -197
q233 0 447 76.5t368.5 203t246 298t91.5 354.5q0 127 -43.5 237t-122 192t-186 141.5t-238.5 89.5t-276 30q-187 0 -363.5 -50t-317 -139t-247 -205.5t-164 -256t-57.5 -282.5q0 -201 108.5 -358t305 -244t448.5 -87zM1296 856q-138 0 -233.5 -85.5t-95.5 -201.5
q0 -69 37.5 -114.5t91 -63.5t118.5 -18q102 0 182.5 46t108.5 120h-250l13 84h358l-57 -332h-90q4 23 9.5 60t8.5 52q-109 -124 -311 -124q-152 0 -244 76.5t-92 203.5q0 156 135.5 273.5t327.5 117.5q126 0 213 -54.5t104 -147.5l-104 -35q-21 69 -81.5 106t-148.5 37z" />
    <glyph glyph-name="H.ss08" 
d="M1419 1546q163 0 310.5 -34t270 -101.5t212.5 -162t140 -221.5t50 -273q0 -140 -47 -276t-131 -253.5t-205 -217.5t-264 -171t-314 -111t-349 -40q-215 0 -397.5 58t-310 160.5t-199.5 249.5t-72 320q0 165 65 325t186 294t280.5 236.5t360.5 160t414 57.5zM1112 -197
q233 0 447 76.5t368.5 203t246 298t91.5 354.5q0 127 -43.5 237t-122 192t-186 141.5t-238.5 89.5t-276 30q-187 0 -363.5 -50t-317 -139t-247 -205.5t-164 -256t-57.5 -282.5q0 -201 108.5 -358t305 -244t448.5 -87zM1047 664h403l49 274h109l-117 -647h-109l52 276h-404
l-51 -276h-109l115 647h111z" />
    <glyph glyph-name="I.ss08" 
d="M1094 -315q-216 0 -398.5 58t-310 160.5t-199 249.5t-71.5 320q0 165 65 325t185.5 294t279.5 236.5t360 160t414 57.5q205 0 383.5 -54.5t312 -154t210.5 -250.5t77 -333q0 -140 -46.5 -276t-130.5 -253.5t-204.5 -217.5t-263.5 -171t-314 -111t-349 -40zM1112 -197
q234 0 448 76.5t368 203t245.5 298t91.5 354.5q0 127 -43.5 237t-122 192t-185.5 141.5t-238 89.5t-275 30q-187 0 -364 -50t-318 -139t-247.5 -205.5t-164 -256t-57.5 -282.5q0 -201 108.5 -358t305 -244t448.5 -87zM1235 291h-109l115 647h111z" />
    <glyph glyph-name="J.ss08" 
d="M1092 -315q-215 0 -397.5 58t-310 160.5t-199.5 249.5t-72 320q0 165 65 325t186 294t280.5 236.5t360.5 160t414 57.5q163 0 310.5 -34t270 -101.5t212.5 -162t140 -221.5t50 -273q0 -140 -47 -276t-131 -253.5t-205 -217.5t-264 -171t-314 -111t-349 -40zM1112 -197
q233 0 447 76.5t368.5 203t246 298t91.5 354.5q0 127 -43.5 237t-122 192t-186 141.5t-238.5 89.5t-276 30q-187 0 -363.5 -50t-317 -139t-247 -205.5t-164 -256t-57.5 -282.5q0 -201 108.5 -358t305 -244t448.5 -87zM1153 285q-120 0 -178 57.5t-43 159.5l4 26l108 13
l-6 -27q-11 -63 21.5 -100t101.5 -37q36 0 64.5 11.5t44.5 27t28 39.5t16.5 40t8.5 37l74 412h108l-71 -395q-5 -24 -8 -38.5t-13 -45.5t-22 -51.5t-34 -47t-49 -42.5t-67 -27.5t-88 -11.5z" />
    <glyph glyph-name="K.ss08" 
d="M1419 1546q163 0 310.5 -34t270 -101.5t212.5 -162t140 -221.5t50 -273q0 -140 -47 -276t-131 -253.5t-205 -217.5t-264 -171t-314 -111t-349 -40q-215 0 -397.5 58t-310 160.5t-199.5 249.5t-72 320q0 165 65 325t186 294t280.5 236.5t360.5 160t414 57.5zM1112 -197
q233 0 447 76.5t368.5 203t246 298t91.5 354.5q0 127 -43.5 237t-122 192t-186 141.5t-238.5 89.5t-276 30q-187 0 -363.5 -50t-317 -139t-247 -205.5t-164 -256t-57.5 -282.5q0 -201 108.5 -358t305 -244t448.5 -87zM1497 938h133q-31 -23 -102.5 -76t-116.5 -87t-91 -70
t-60 -50q45 -65 131.5 -180.5t134.5 -183.5h-133q-25 32 -47.5 66t-59.5 81t-117 140q-40 -26 -102 -74q-3 -23 -37 -213h-110l116 647h109q-25 -139 -58 -303q47 35 167 124t243 179z" />
    <glyph glyph-name="L.ss08" 
d="M1419 1546q163 0 310.5 -34t270 -101.5t212.5 -162t140 -221.5t50 -273q0 -140 -47 -276t-131 -253.5t-205 -217.5t-264 -171t-314 -111t-349 -40q-215 0 -397.5 58t-310 160.5t-199.5 249.5t-72 320q0 165 65 325t186 294t280.5 236.5t360.5 160t414 57.5zM1112 -197
q233 0 447 76.5t368.5 203t246 298t91.5 354.5q0 127 -43.5 237t-122 192t-186 141.5t-238.5 89.5t-276 30q-187 0 -363.5 -50t-317 -139t-247 -205.5t-164 -256t-57.5 -282.5q0 -201 108.5 -358t305 -244t448.5 -87zM1116 938h109l-99 -553h377l-14 -94h-490z" />
    <glyph glyph-name="M.ss08" horiz-adv-x="2459" 
d="M1419 1546q163 0 310.5 -34t270 -101.5t212.5 -162t140 -221.5t50 -273q0 -140 -47 -276t-131 -253.5t-205 -217.5t-264 -171t-314 -111t-349 -40q-215 0 -397.5 58t-310 160.5t-199.5 249.5t-72 320q0 165 65 325t186 294t280.5 236.5t360.5 160t414 57.5zM1112 -197
q233 0 447 76.5t368.5 203t246 298t91.5 354.5q0 127 -43.5 237t-122 192t-186 141.5t-238.5 89.5t-276 30q-187 0 -363.5 -50t-317 -139t-247 -205.5t-164 -256t-57.5 -282.5q0 -201 108.5 -358t305 -244t448.5 -87zM1204 438q33 43 89.5 116t97 125t83.5 108.5t70.5 95
t36.5 55.5h127l-117 -647h-110q10 53 26.5 133.5t29 148t28.5 168.5q-50 -68 -167 -219t-175 -231h-82q-24 63 -73 186.5t-103 263.5q-22 -124 -82 -450h-111l117 647h125q103 -259 190 -500z" />
    <glyph glyph-name="N.ss08" 
d="M1419 1546q163 0 310.5 -34t270 -101.5t212.5 -162t140 -221.5t50 -273q0 -140 -47 -276t-131 -253.5t-205 -217.5t-264 -171t-314 -111t-349 -40q-215 0 -397.5 58t-310 160.5t-199.5 249.5t-72 320q0 165 65 325t186 294t280.5 236.5t360.5 160t414 57.5zM1112 -197
q233 0 447 76.5t368.5 203t246 298t91.5 354.5q0 127 -43.5 237t-122 192t-186 141.5t-238.5 89.5t-276 30q-187 0 -363.5 -50t-317 -139t-247 -205.5t-164 -256t-57.5 -282.5q0 -201 108.5 -358t305 -244t448.5 -87zM1425 463q44 205 91 475h108l-117 -647h-108
q-4 6 -132 186.5t-198 284.5q-6 -31 -17 -80.5t-26 -133t-43 -257.5h-111l117 647h111q44 -64 110 -159.5t117.5 -170.5t97.5 -145z" />
    <glyph glyph-name="O.ss08" 
d="M1092 -315q-215 0 -397.5 58t-310 160.5t-199.5 249.5t-72 320q0 165 65 325t186 294t280.5 236.5t360.5 160t414 57.5q163 0 310.5 -34t270 -101.5t212.5 -162t140 -221.5t50 -273q0 -140 -47 -276t-131 -253.5t-205 -217.5t-264 -171t-314 -111t-349 -40zM1112 -197
q233 0 447 76.5t368.5 203t246 298t91.5 354.5q0 127 -43.5 237t-122 192t-186 141.5t-238.5 89.5t-276 30q-187 0 -363.5 -50t-317 -139t-247 -205.5t-164 -256t-57.5 -282.5q0 -201 108.5 -358t305 -244t448.5 -87zM1178 279q-149 0 -244.5 79.5t-95.5 204.5
q0 99 62 188.5t169 144t231 54.5q149 0 245.5 -80t96.5 -204q0 -153 -138 -270t-326 -117zM1196 373q130 0 231 85.5t101 194.5q0 89 -68.5 146t-173.5 57q-130 0 -231 -85.5t-101 -195.5q0 -89 68 -145.5t174 -56.5z" />
    <glyph glyph-name="P.ss08" 
d="M1419 1546q163 0 310.5 -34t270 -101.5t212.5 -162t140 -221.5t50 -273q0 -140 -47 -276t-131 -253.5t-205 -217.5t-264 -171t-314 -111t-349 -40q-215 0 -397.5 58t-310 160.5t-199.5 249.5t-72 320q0 165 65 325t186 294t280.5 236.5t360.5 160t414 57.5zM1112 -197
q233 0 447 76.5t368.5 203t246 298t91.5 354.5q0 127 -43.5 237t-122 192t-186 141.5t-238.5 89.5t-276 30q-187 0 -363.5 -50t-317 -139t-247 -205.5t-164 -256t-57.5 -282.5q0 -201 108.5 -358t305 -244t448.5 -87zM1057 938h286q43 0 81 -8t74 -26t57.5 -53t21.5 -83
q0 -99 -85.5 -168.5t-209.5 -69.5h-190l-43 -239h-109zM1110 625h166q80 0 132 34t52 91q0 96 -147 96h-164z" />
    <glyph glyph-name="Q.ss08" 
d="M1092 -315q-215 0 -397.5 58t-310 160.5t-199.5 249.5t-72 320q0 165 65 325t186 294t280.5 236.5t360.5 160t414 57.5q163 0 310.5 -34t270 -101.5t212.5 -162t140 -221.5t50 -273q0 -140 -47 -276t-131 -253.5t-205 -217.5t-264 -171t-314 -111t-349 -40zM1112 -197
q233 0 447 76.5t368.5 203t246 298t91.5 354.5q0 127 -43.5 237t-122 192t-186 141.5t-238.5 89.5t-276 30q-187 0 -363.5 -50t-317 -139t-247 -205.5t-164 -256t-57.5 -282.5q0 -201 108.5 -358t305 -244t448.5 -87zM1550 301l-86 -59q-12 15 -42 48t-48 56
q-96 -35 -196 -35q-151 0 -246.5 80.5t-95.5 206.5q0 99 62 188t169.5 144t232.5 55q151 0 248 -80t97 -203q0 -85 -47.5 -165.5t-131.5 -135.5q6 -7 37.5 -43t46.5 -57zM1196 406q57 0 115 22q-20 23 -55.5 61.5t-47.5 51.5l86 61q84 -93 113 -127q59 42 92 97.5t33 115.5
q0 89 -68.5 146t-175.5 57q-135 0 -237.5 -84.5t-102.5 -196.5q0 -90 69.5 -147t178.5 -57z" />
    <glyph glyph-name="R.ss08" 
d="M1419 1546q163 0 310.5 -34t270 -101.5t212.5 -162t140 -221.5t50 -273q0 -140 -47 -276t-131 -253.5t-205 -217.5t-264 -171t-314 -111t-349 -40q-215 0 -397.5 58t-310 160.5t-199.5 249.5t-72 320q0 165 65 325t186 294t280.5 236.5t360.5 160t414 57.5zM1112 -197
q233 0 447 76.5t368.5 203t246 298t91.5 354.5q0 127 -43.5 237t-122 192t-186 141.5t-238.5 89.5t-276 30q-187 0 -363.5 -50t-317 -139t-247 -205.5t-164 -256t-57.5 -282.5q0 -201 108.5 -358t305 -244t448.5 -87zM1057 938h286q41 0 79 -8t74.5 -26t58.5 -53.5t22 -84.5
q0 -81 -64.5 -144.5t-160.5 -80.5q87 -132 159 -250h-122l-154 241h-141q-1 -6 -43 -241h-111zM1274 623q85 0 135.5 35t50.5 90q0 51 -40.5 74.5t-106.5 23.5h-162q-6 -30 -43 -223h166z" />
    <glyph glyph-name="S.ss08" 
d="M1092 -315q-215 0 -397.5 58t-310 160.5t-199.5 249.5t-72 320q0 165 65 325t186 294t280.5 236.5t360.5 160t414 57.5q163 0 310.5 -34t270 -101.5t212.5 -162t140 -221.5t50 -273q0 -140 -47 -276t-131 -253.5t-205 -217.5t-264 -171t-314 -111t-349 -40zM1112 -197
q233 0 447 76.5t368.5 203t246 298t91.5 354.5q0 127 -43.5 237t-122 192t-186 141.5t-238.5 89.5t-276 30q-187 0 -363.5 -50t-317 -139t-247 -205.5t-164 -256t-57.5 -282.5q0 -201 108.5 -358t305 -244t448.5 -87zM1192 279q-112 0 -185 51t-85 145l106 33
q9 -64 57 -100.5t125 -36.5q74 0 125 32t51 76q0 8 -2 15t-5 13t-9 11t-11 9t-14.5 8t-15 6t-17 5.5t-17.5 5t-19.5 5t-18.5 4.5l-69 19q-26 7 -43 12.5t-47 19.5t-49 30t-33.5 42.5t-14.5 58.5q0 84 86.5 145.5t208.5 61.5q100 0 168 -43.5t78 -115.5l-106 -39
q-10 52 -52 78t-106 26q-66 0 -112 -27t-46 -67q0 -56 129 -90l72 -21q91 -25 123 -45q64 -39 65 -106q0 -90 -93.5 -155.5t-223.5 -65.5z" />
    <glyph glyph-name="T.ss08" 
d="M1094 -315q-216 0 -398.5 58t-310 160.5t-199 249.5t-71.5 320q0 165 65 325t185.5 294t279.5 236.5t360 160t414 57.5q205 0 383.5 -54.5t312 -154t210.5 -250.5t77 -333q0 -140 -46.5 -276t-130.5 -253.5t-204.5 -217.5t-263.5 -171t-314 -111t-349 -40zM1114 -197
q233 0 447 76.5t367.5 203t245 298t91.5 354.5q0 127 -43.5 237t-122 192t-185.5 141.5t-238 89.5t-275 30q-187 0 -364 -50t-318 -139t-247.5 -205.5t-164 -256t-57.5 -282.5q0 -150 63.5 -278.5t176 -218.5t273.5 -141t351 -51zM1233 291h-109q67 366 101 555h-252l14 92
h617l-17 -92h-252q-41 -209 -102 -555z" />
    <glyph glyph-name="U.ss08" 
d="M1092 -315q-215 0 -397.5 58t-310 160.5t-199.5 249.5t-72 320q0 165 65 325t186 294t280.5 236.5t360.5 160t414 57.5q163 0 310.5 -34t270 -101.5t212.5 -162t140 -221.5t50 -273q0 -140 -47 -276t-131 -253.5t-205 -217.5t-264 -171t-314 -111t-349 -40zM1112 -197
q233 0 447 76.5t368.5 203t246 298t91.5 354.5q0 127 -43.5 237t-122 192t-186 141.5t-238.5 89.5t-276 30q-187 0 -363.5 -50t-317 -139t-247 -205.5t-164 -256t-57.5 -282.5q0 -201 108.5 -358t305 -244t448.5 -87zM1176 285q-63 0 -110.5 14.5t-74.5 39.5t-43.5 58
t-17 70t5.5 76l72 401h108l-72 -397q-14 -79 22 -124.5t130 -45.5q92 0 144.5 46t66.5 124l72 397h108l-74 -401q-9 -51 -33 -96t-63.5 -82t-101.5 -58.5t-139 -21.5z" />
    <glyph glyph-name="V.ss08" 
d="M1419 1546q163 0 310.5 -34t270 -101.5t212.5 -162t140 -221.5t50 -273q0 -140 -47 -276t-131 -253.5t-205 -217.5t-264 -171t-314 -111t-349 -40q-215 0 -397.5 58t-310 160.5t-199.5 249.5t-72 320q0 165 65 325t186 294t280.5 236.5t360.5 160t414 57.5zM1112 -197
q233 0 447 76.5t368.5 203t246 298t91.5 354.5q0 127 -43.5 237t-122 192t-186 141.5t-238.5 89.5t-276 30q-187 0 -363.5 -50t-317 -139t-247 -205.5t-164 -256t-57.5 -282.5q0 -201 108.5 -358t305 -244t448.5 -87zM1208 418q180 295 351 520h114l-430 -647h-113l-198 647
h115q15 -39 39 -118.5t59 -197t63 -204.5z" />
    <glyph glyph-name="W.ss08" 
d="M1419 1546q163 0 310.5 -34t270 -101.5t212.5 -162t140 -221.5t50 -273q0 -140 -47 -276t-131 -253.5t-205 -217.5t-264 -171t-314 -111t-349 -40q-215 0 -397.5 58t-310 160.5t-199.5 249.5t-72 320q0 165 65 325t186 294t280.5 236.5t360.5 160t414 57.5zM1112 -197
q233 0 447 76.5t368.5 203t246 298t91.5 354.5q0 127 -43.5 237t-122 192t-186 141.5t-238.5 89.5t-276 30q-187 0 -363.5 -50t-317 -139t-247 -205.5t-164 -256t-57.5 -282.5q0 -201 108.5 -358t305 -244t448.5 -87zM1454 434l285 504h116l-364 -647h-121q-41 185 -98 487
q-162 -295 -283 -487h-125l-129 647h119q6 -29 43 -211.5t55 -288.5q48 82 145 252.5t142 247.5h115q18 -91 51.5 -258.5t48.5 -245.5z" />
    <glyph glyph-name="X.ss08" horiz-adv-x="2455" 
d="M1419 1546q163 0 310.5 -34t270 -101.5t212.5 -162t140 -221.5t50 -273q0 -140 -47 -276t-131 -253.5t-205 -217.5t-264 -171t-314 -111t-349 -40q-215 0 -397.5 58t-310 160.5t-199.5 249.5t-72 320q0 165 65 325t186 294t280.5 236.5t360.5 160t414 57.5zM1112 -197
q233 0 447 76.5t368.5 203t246 298t91.5 354.5q0 127 -43.5 237t-122 192t-186 141.5t-238.5 89.5t-276 30q-187 0 -363.5 -50t-317 -139t-247 -205.5t-164 -256t-57.5 -282.5q0 -201 108.5 -358t305 -244t448.5 -87zM1501 938h125q-37 -37 -70.5 -77.5t-86.5 -93.5
t-162 -149q42 -64 206 -327h-124q-26 38 -57.5 87t-62.5 97.5t-40 63.5l-252 -248h-127q41 41 142 145.5t184 184.5q-139 216 -205 317h127q25 -37 47 -70.5t52.5 -80t57.5 -87.5q25 25 62 63t77.5 77.5t106.5 97.5z" />
    <glyph glyph-name="Y.ss08" 
d="M1419 1546q163 0 310.5 -34t270 -101.5t212.5 -162t140 -221.5t50 -273q0 -140 -47 -276t-131 -253.5t-205 -217.5t-264 -171t-314 -111t-349 -40q-215 0 -397.5 58t-310 160.5t-199.5 249.5t-72 320q0 165 65 325t186 294t280.5 236.5t360.5 160t414 57.5zM1112 -197
q233 0 447 76.5t368.5 203t246 298t91.5 354.5q0 127 -43.5 237t-122 192t-186 141.5t-238.5 89.5t-276 30q-187 0 -363.5 -50t-317 -139t-247 -205.5t-164 -256t-57.5 -282.5q0 -201 108.5 -358t305 -244t448.5 -87zM1237 618q28 32 70 86.5t89 107t126 126.5h116
q-46 -52 -86 -106t-98.5 -120.5t-179.5 -187.5q-15 -86 -41 -233h-111q6 30 11.5 60t12.5 66.5t19 104.5q-17 31 -68 141.5t-147 274.5h121q8 -15 63.5 -126.5t102.5 -193.5z" />
    <glyph glyph-name="Z.ss08" horiz-adv-x="2455" 
d="M1419 1546q163 0 310.5 -34t270 -101.5t212.5 -162t140 -221.5t50 -273q0 -140 -47 -276t-131 -253.5t-205 -217.5t-264 -171t-314 -111t-349 -40q-215 0 -397.5 58t-310 160.5t-199.5 249.5t-72 320q0 165 65 325t186 294t280.5 236.5t360.5 160t414 57.5zM1112 -197
q233 0 447 76.5t368.5 203t246 298t91.5 354.5q0 127 -43.5 237t-122 192t-186 141.5t-238.5 89.5t-276 30q-187 0 -363.5 -50t-317 -139t-247 -205.5t-164 -256t-57.5 -282.5q0 -201 108.5 -358t305 -244t448.5 -87zM1004 846l14 92h584l-13 -90q-56 -46 -160.5 -134.5
t-392.5 -328.5h473l-14 -94h-610l14 90q114 97 289.5 245.5t259.5 219.5h-444z" />
    <glyph glyph-name="i.loclTRK" horiz-adv-x="624" 
d="M457 1360q-60 0 -99 35t-39 88q0 66 56 116t131 50q58 0 97.5 -35t39.5 -88q0 -65 -56.5 -115.5t-129.5 -50.5zM324 0h-220l199 1137h221z" />
    <glyph glyph-name="a.ss01" horiz-adv-x="1642" 
d="M623 -35q-244 0 -388.5 136t-144.5 358q0 137 59 267t158 227.5t238 156.5t291 59q156 0 273.5 -61.5t170.5 -167.5h4l39 197h217l-197 -1137h-213l35 188h-6q-96 -110 -239 -166.5t-297 -56.5zM696 162q143 0 266 68t194 178.5t71 234.5q0 148 -106 240t-275 92
q-109 0 -207 -41t-165.5 -108.5t-107.5 -154.5t-40 -177q0 -149 101.5 -240.5t268.5 -91.5z" />
    <glyph glyph-name="aacute.ss01" horiz-adv-x="1642" 
d="M1475 1663l-441 -385h-192l352 385h281zM623 -35q-244 0 -388.5 136t-144.5 358q0 137 59 267t158 227.5t238 156.5t291 59q156 0 273.5 -61.5t170.5 -167.5h4l39 197h217l-197 -1137h-213l35 188h-6q-96 -110 -239 -166.5t-297 -56.5zM696 162q143 0 266 68t194 178.5
t71 234.5q0 148 -106 240t-275 92q-109 0 -207 -41t-165.5 -108.5t-107.5 -154.5t-40 -177q0 -149 101.5 -240.5t268.5 -91.5z" />
    <glyph glyph-name="abreve.ss01" horiz-adv-x="1642" 
d="M950 1272q-206 0 -307.5 110t-77.5 285h189q-17 -104 44.5 -172t178.5 -68q118 0 204 67.5t111 172.5h191q-40 -179 -185 -287t-348 -108zM623 -35q-244 0 -388.5 136t-144.5 358q0 137 59 267t158 227.5t238 156.5t291 59q156 0 273.5 -61.5t170.5 -167.5h4l39 197h217
l-197 -1137h-213l35 188h-6q-96 -110 -239 -166.5t-297 -56.5zM696 162q143 0 266 68t194 178.5t71 234.5q0 148 -106 240t-275 92q-109 0 -207 -41t-165.5 -108.5t-107.5 -154.5t-40 -177q0 -149 101.5 -240.5t268.5 -91.5z" />
    <glyph glyph-name="acircumflex.ss01" horiz-adv-x="1642" 
d="M676 1278h-209l420 364h256l293 -364h-209q-3 3 -85 79t-145 154q-48 -38 -142 -101.5t-179 -131.5zM623 -35q-244 0 -388.5 136t-144.5 358q0 137 59 267t158 227.5t238 156.5t291 59q156 0 273.5 -61.5t170.5 -167.5h4l39 197h217l-197 -1137h-213l35 188h-6
q-96 -110 -239 -166.5t-297 -56.5zM696 162q143 0 266 68t194 178.5t71 234.5q0 148 -106 240t-275 92q-109 0 -207 -41t-165.5 -108.5t-107.5 -154.5t-40 -177q0 -149 101.5 -240.5t268.5 -91.5z" />
    <glyph glyph-name="adieresis.ss01" horiz-adv-x="1642" 
d="M729 1337q-55 0 -91 33.5t-36 81.5q0 59 51.5 105.5t118.5 46.5q55 0 91 -32.5t36 -80.5q0 -59 -51.5 -106.5t-118.5 -47.5zM1204 1337q-57 0 -93 32.5t-36 82.5q0 61 51 106.5t119 45.5q54 0 91.5 -33t37.5 -80q0 -59 -52 -106.5t-118 -47.5zM623 -35q-244 0 -388.5 136
t-144.5 358q0 137 59 267t158 227.5t238 156.5t291 59q156 0 273.5 -61.5t170.5 -167.5h4l39 197h217l-197 -1137h-213l35 188h-6q-96 -110 -239 -166.5t-297 -56.5zM696 162q143 0 266 68t194 178.5t71 234.5q0 148 -106 240t-275 92q-109 0 -207 -41t-165.5 -108.5
t-107.5 -154.5t-40 -177q0 -149 101.5 -240.5t268.5 -91.5z" />
    <glyph glyph-name="agrave.ss01" horiz-adv-x="1642" 
d="M1059 1278h-193l-305 385h281zM623 -35q-244 0 -388.5 136t-144.5 358q0 137 59 267t158 227.5t238 156.5t291 59q156 0 273.5 -61.5t170.5 -167.5h4l39 197h217l-197 -1137h-213l35 188h-6q-96 -110 -239 -166.5t-297 -56.5zM696 162q143 0 266 68t194 178.5t71 234.5
q0 148 -106 240t-275 92q-109 0 -207 -41t-165.5 -108.5t-107.5 -154.5t-40 -177q0 -149 101.5 -240.5t268.5 -91.5z" />
    <glyph glyph-name="amacron.ss01" horiz-adv-x="1642" 
d="M1386 1376h-825l25 156h825zM623 -35q-244 0 -388.5 136t-144.5 358q0 137 59 267t158 227.5t238 156.5t291 59q156 0 273.5 -61.5t170.5 -167.5h4l39 197h217l-197 -1137h-213l35 188h-6q-96 -110 -239 -166.5t-297 -56.5zM696 162q143 0 266 68t194 178.5t71 234.5
q0 148 -106 240t-275 92q-109 0 -207 -41t-165.5 -108.5t-107.5 -154.5t-40 -177q0 -149 101.5 -240.5t268.5 -91.5z" />
    <glyph glyph-name="aogonek.ss01" horiz-adv-x="1642" 
d="M1343 0h-51q-102 -29 -169.5 -85t-67.5 -120q0 -52 47.5 -83t122.5 -31q52 0 112 16l-24 -146q-63 -14 -125 -14q-139 0 -221 54.5t-82 146.5q0 46 22 89t58.5 75.5t78 57t86.5 40.5l35 188h-6q-96 -110 -239 -166.5t-297 -56.5q-244 0 -388.5 136t-144.5 358
q0 137 59 267t158 227.5t238 156.5t291 59q156 0 273.5 -61.5t170.5 -167.5h4l39 197h217zM696 162q143 0 266 68t194 178.5t71 234.5q0 148 -106 240t-275 92q-109 0 -207 -41t-165.5 -108.5t-107.5 -154.5t-40 -177q0 -149 101.5 -240.5t268.5 -91.5z" />
    <glyph glyph-name="aring.ss01" horiz-adv-x="1642" 
d="M948 1251q-109 0 -178.5 56.5t-69.5 144.5q0 105 97 185.5t231 80.5q109 0 177.5 -56t68.5 -144q0 -106 -96 -186.5t-230 -80.5zM969 1376q66 0 112.5 38t46.5 89q0 39 -34 63.5t-86 24.5q-67 0 -114.5 -37t-47.5 -88q0 -41 34 -65.5t89 -24.5zM623 -35
q-244 0 -388.5 136t-144.5 358q0 137 59 267t158 227.5t238 156.5t291 59q156 0 273.5 -61.5t170.5 -167.5h4l39 197h217l-197 -1137h-213l35 188h-6q-96 -110 -239 -166.5t-297 -56.5zM696 162q143 0 266 68t194 178.5t71 234.5q0 148 -106 240t-275 92q-109 0 -207 -41
t-165.5 -108.5t-107.5 -154.5t-40 -177q0 -149 101.5 -240.5t268.5 -91.5z" />
    <glyph glyph-name="atilde.ss01" horiz-adv-x="1642" 
d="M1147 1307q-55 0 -94 15t-80 46l-49 35q-58 43 -105 43q-52 0 -89 -35t-48 -88h-162q23 126 113.5 204.5t208.5 78.5q87 0 168 -60l49 -35q52 -41 106 -41q49 0 82.5 33t44.5 88h164q-23 -134 -104.5 -209t-204.5 -75zM623 -35q-244 0 -388.5 136t-144.5 358
q0 137 59 267t158 227.5t238 156.5t291 59q156 0 273.5 -61.5t170.5 -167.5h4l39 197h217l-197 -1137h-213l35 188h-6q-96 -110 -239 -166.5t-297 -56.5zM696 162q143 0 266 68t194 178.5t71 234.5q0 148 -106 240t-275 92q-109 0 -207 -41t-165.5 -108.5t-107.5 -154.5
t-40 -177q0 -149 101.5 -240.5t268.5 -91.5z" />
    <glyph glyph-name="b.ss01" horiz-adv-x="1388" 
d="M711 -35q-135 0 -230.5 46t-136.5 134h-6l-27 -145h-207l289 1638h219l-174 -983h4q70 69 179.5 105.5t230.5 36.5q202 0 325 -99.5t123 -259.5q0 -92 -45.5 -178.5t-122.5 -151.5t-187.5 -104t-233.5 -39zM707 137q151 0 258.5 85t107.5 200q0 92 -72.5 147.5
t-195.5 55.5q-155 0 -265 -82.5t-110 -192.5q0 -92 77.5 -152.5t199.5 -60.5z" />
    <glyph glyph-name="d.ss01" horiz-adv-x="1636" 
d="M625 -35q-244 0 -389.5 134.5t-145.5 357.5q0 138 59 268.5t158 228t237.5 156.5t289.5 59q156 0 270.5 -59.5t169.5 -165.5h6l125 694h219l-289 -1638h-207l35 188h-4q-97 -111 -239 -167t-295 -56zM694 162q142 0 265.5 67t195.5 177.5t72 234.5q0 151 -107.5 242.5
t-273.5 91.5q-108 0 -206 -41t-166 -108t-108 -154t-40 -178q0 -149 101 -240.5t267 -91.5z" />
    <glyph glyph-name="dcaron.ss01" horiz-adv-x="1665" 
d="M1731 1139h-138l215 270q-40 13 -63 44t-23 69q0 66 58 116t133 50q57 0 96 -35.5t39 -89.5q0 -50 -55 -122t-262 -302zM633 -35q-243 0 -388 134.5t-145 357.5q0 138 59 268.5t158 228t237.5 156.5t289.5 59q155 0 270 -60t170 -165h4l127 694h219l-288 -1638h-207
l35 188h-5q-99 -111 -240.5 -167t-295.5 -56zM705 162q141 0 264 67t194.5 177.5t71.5 234.5q0 151 -106.5 242.5t-272.5 91.5q-108 0 -206 -41t-166 -108t-108 -154t-40 -178q0 -149 101.5 -240.5t267.5 -91.5z" />
    <glyph glyph-name="dcroat.ss01" horiz-adv-x="1636" 
d="M1593 1460h314l-23 -160h-319l-230 -1300h-207l35 188h-4q-97 -111 -239 -167t-295 -56q-244 0 -389.5 134.5t-145.5 357.5q0 138 59 268.5t158 228t237.5 156.5t289.5 59q156 0 270.5 -59.5t169.5 -165.5h6l63 356h-333l26 160h336l33 178h219zM694 162q142 0 265.5 67
t195.5 177.5t72 234.5q0 151 -107.5 242.5t-273.5 91.5q-108 0 -206 -41t-166 -108t-108 -154t-40 -178q0 -149 101 -240.5t267 -91.5z" />
    <glyph glyph-name="g.ss01" horiz-adv-x="1638" 
d="M1255 -451h-1224l28 189h1006l92 483h-6q-93 -107 -229 -162t-289 -55q-247 0 -392 134t-145 349q0 131 58.5 255.5t156.5 218.5t235.5 151t287.5 57q158 0 274 -61.5t170 -167.5h6l37 197h215zM698 199q140 0 263.5 64.5t195.5 169t72 218.5q0 141 -107 232.5t-274 91.5
q-104 0 -200.5 -38t-165.5 -100t-110.5 -144.5t-41.5 -168.5q0 -143 102 -234t266 -91z" />
    <glyph glyph-name="gbreve.ss01" horiz-adv-x="1638" 
d="M950 1272q-206 0 -307.5 110t-77.5 285h189q-17 -104 44.5 -172t178.5 -68q118 0 204 67.5t111 172.5h191q-40 -179 -185 -287t-348 -108zM1255 -451h-1224l28 189h1006l92 483h-6q-93 -107 -229 -162t-289 -55q-247 0 -392 134t-145 349q0 131 58.5 255.5t156.5 218.5
t235.5 151t287.5 57q158 0 274 -61.5t170 -167.5h6l37 197h215zM698 199q140 0 263.5 64.5t195.5 169t72 218.5q0 141 -107 232.5t-274 91.5q-104 0 -200.5 -38t-165.5 -100t-110.5 -144.5t-41.5 -168.5q0 -143 102 -234t266 -91z" />
    <glyph glyph-name="uni0123.ss01" horiz-adv-x="1638" 
d="M799 1376q0 45 43 104t189 226q35 39 54 61h132l-195 -247q33 -13 55.5 -41t22.5 -64q0 -61 -52.5 -106t-121.5 -45q-56 0 -91.5 31.5t-35.5 80.5zM1255 -451h-1224l28 189h1006l92 483h-6q-93 -107 -229 -162t-289 -55q-247 0 -392 134t-145 349q0 131 58.5 255.5
t156.5 218.5t235.5 151t287.5 57q158 0 274 -61.5t170 -167.5h6l37 197h215zM698 199q140 0 263.5 64.5t195.5 169t72 218.5q0 141 -107 232.5t-274 91.5q-104 0 -200.5 -38t-165.5 -100t-110.5 -144.5t-41.5 -168.5q0 -143 102 -234t266 -91z" />
    <glyph glyph-name="gdotaccent.ss01" horiz-adv-x="1638" 
d="M973 1370q-60 0 -98.5 35t-38.5 88q0 66 55.5 116t130.5 50q58 0 97.5 -35t39.5 -88q0 -65 -56.5 -115.5t-129.5 -50.5zM1255 -451h-1224l28 189h1006l92 483h-6q-93 -107 -229 -162t-289 -55q-247 0 -392 134t-145 349q0 131 58.5 255.5t156.5 218.5t235.5 151t287.5 57
q158 0 274 -61.5t170 -167.5h6l37 197h215zM698 199q140 0 263.5 64.5t195.5 169t72 218.5q0 141 -107 232.5t-274 91.5q-104 0 -200.5 -38t-165.5 -100t-110.5 -144.5t-41.5 -168.5q0 -143 102 -234t266 -91z" />
    <glyph glyph-name="i.ss01" horiz-adv-x="864" 
d="M580 1360q-61 0 -100.5 35t-39.5 88q0 66 56.5 116t128.5 50q60 0 99.5 -35t39.5 -88q0 -65 -56 -115.5t-128 -50.5zM733 0h-497l174 946h-320l29 191h536l-168 -949h275z" />
    <glyph glyph-name="dotlessi.ss01" horiz-adv-x="864" 
d="M733 0h-497l174 946h-320l29 191h536l-168 -949h275z" />
    <glyph glyph-name="iacute.ss01" horiz-adv-x="864" 
d="M1038 1663l-440 -385h-192l352 385h280zM733 0h-497l174 946h-320l29 191h536l-168 -949h275z" />
    <glyph glyph-name="icircumflex.ss01" horiz-adv-x="864" 
d="M240 1278h-209l420 364h256l292 -364h-208q-3 3 -85 79t-145 154q-48 -38 -142 -101.5t-179 -131.5zM733 0h-497l174 946h-320l29 191h536l-168 -949h275z" />
    <glyph glyph-name="idieresis.ss01" horiz-adv-x="864" 
d="M293 1337q-55 0 -91 33.5t-36 81.5q0 59 51.5 105.5t118.5 46.5q55 0 91 -32.5t36 -80.5q0 -59 -51.5 -106.5t-118.5 -47.5zM768 1337q-57 0 -93 32.5t-36 82.5q0 61 51 106.5t119 45.5q54 0 91.5 -33t37.5 -80q0 -59 -52 -106.5t-118 -47.5zM733 0h-497l174 946h-320
l29 191h536l-168 -949h275z" />
    <glyph glyph-name="i.loclTRK.ss01" horiz-adv-x="864" 
d="M567 1368q-60 0 -99.5 35.5t-39.5 89.5q0 66 55.5 115t130.5 49q59 0 98.5 -34.5t39.5 -86.5q0 -66 -56.5 -117t-128.5 -51zM733 0h-497l174 946h-320l29 191h536l-168 -949h275z" />
    <glyph glyph-name="igrave.ss01" horiz-adv-x="864" 
d="M623 1278h-193l-305 385h281zM733 0h-497l174 946h-320l29 191h536l-168 -949h275z" />
    <glyph glyph-name="imacron.ss01" horiz-adv-x="864" 
d="M950 1376h-825l25 156h825zM733 0h-497l174 946h-320l29 191h536l-168 -949h275z" />
    <glyph glyph-name="iogonek.ss01" horiz-adv-x="864" 
d="M537 1370q-60 0 -99 35t-39 88q0 66 56 116t131 50q58 0 97.5 -35t39.5 -88q0 -65 -56.5 -115.5t-129.5 -50.5zM733 0h-338q-100 -29 -165.5 -84.5t-65.5 -118.5q0 -52 47.5 -83t122.5 -31q52 0 112 16l-24 -145q-67 -15 -125 -15q-139 0 -221 54.5t-82 146.5
q0 46 21.5 88t57.5 74.5t77 57t86 40.5l174 946h-320l29 191h536l-168 -949h275z" />
    <glyph glyph-name="j.ss01" horiz-adv-x="784" 
d="M604 1360q-61 0 -100 35t-39 88q0 66 55.5 116t130.5 50q58 0 96.5 -35t38.5 -88q0 -65 -54.5 -115.5t-127.5 -50.5zM401 -451h-720l28 189h500l223 1208h-344l29 191h565z" />
    <glyph glyph-name="l.ss01" horiz-adv-x="909" 
d="M805 0h-694l288 1638h219l-260 -1450h476z" />
    <glyph glyph-name="lacute.ss01" horiz-adv-x="909" 
d="M1176 2101l-459 -340h-203l363 340h299zM805 0h-694l288 1638h219l-260 -1450h476z" />
    <glyph glyph-name="lcaron.ss01" horiz-adv-x="909" 
d="M879 1102h-136l213 270q-40 13 -62 43t-22 68q0 66 57 117t132 51q58 0 96.5 -35.5t38.5 -89.5q0 -52 -55 -124t-262 -300zM805 0h-694l288 1638h219l-260 -1450h476z" />
    <glyph glyph-name="uni013C.ss01" horiz-adv-x="909" 
d="M805 0h-694l288 1638h219l-260 -1450h476zM201 -582h-117l168 215q-90 30 -90 107q0 58 50.5 102.5t119.5 44.5q56 0 92.5 -30.5t36.5 -79.5q0 -12 -2 -24t-8.5 -26t-13 -25.5t-21 -31t-26.5 -34.5t-35.5 -42t-42 -48t-51.5 -59t-60 -69z" />
    <glyph glyph-name="lslash.ss01" horiz-adv-x="909" 
d="M487 903l-129 -715h476l-29 -188h-694l135 768l-258 -145l28 182l263 147l120 686h219l-98 -551l264 150l-26 -182z" />
    <glyph glyph-name="m.ss01" horiz-adv-x="2447" 
d="M324 0h-220l199 1137h221l-78 -420l723 420h267l-78 -420l723 420h266l-199 -1137h-221l170 926h-14l-762 -441l-86 -485h-219l170 926h-15l-761 -441z" />
    <glyph glyph-name="n.ss01" horiz-adv-x="1564" 
d="M442 668l799 469h223l-200 -1137h-220l166 899h-14l-788 -424l-84 -475h-220l91 522h2l106 615h221z" />
    <glyph glyph-name="nacute.ss01" horiz-adv-x="1564" 
d="M1151 1663h281l-441 -385h-192zM442 668l799 469h223l-200 -1137h-220l166 899h-14l-788 -424l-84 -475h-220l91 522h2l106 615h221z" />
    <glyph glyph-name="ncaron.ss01" horiz-adv-x="1564" 
d="M1460 1661l-422 -373h-256l-290 373h208q30 -29 73.5 -68t78.5 -74.5t82 -91.5q46 38 140.5 102.5t176.5 131.5h209zM442 668l799 469h223l-200 -1137h-220l166 899h-14l-788 -424l-84 -475h-220l91 522h2l106 615h221z" />
    <glyph glyph-name="uni0146.ss01" horiz-adv-x="1564" 
d="M442 668l799 469h223l-200 -1137h-220l166 899h-14l-788 -424l-84 -475h-220l91 522h2l106 615h221zM698 -113q56 0 92.5 -30.5t36.5 -79.5q0 -12 -2 -24t-8.5 -26t-13 -25.5t-21 -31t-26.5 -34.5t-35.5 -42t-42 -48t-51.5 -59t-60 -69h-116l167 215q-90 30 -90 107
q0 58 50.5 102.5t119.5 44.5z" />
    <glyph glyph-name="eng.ss01" horiz-adv-x="1566" 
d="M776 -483q-149 0 -252 49l27 184q104 -49 211 -49q47 0 86 10.5t65.5 26t48 41.5t33.5 47.5t22.5 55t14.5 53t10 51.5l168 913h-14l-788 -424l-84 -475h-220l199 1137h221l-84 -451l801 451h223l-202 -1151q-7 -40 -11.5 -63.5t-16 -67t-23 -71t-32.5 -66.5t-45 -64.5
t-60 -54t-78 -44.5t-98.5 -27t-121.5 -11z" />
    <glyph glyph-name="ntilde.ss01" horiz-adv-x="1564" 
d="M776 1446q-52 0 -89 -35t-48 -88h-162q23 126 113.5 204.5t208.5 78.5q87 0 168 -60l49 -35q52 -41 106 -41q49 0 82.5 33t44.5 88h164q-23 -134 -104.5 -209t-204.5 -75q-55 0 -94 15t-80 46l-49 35q-58 43 -105 43zM442 668l799 469h223l-200 -1137h-220l166 899h-14
l-788 -424l-84 -475h-220l91 522h2l106 615h221z" />
    <glyph glyph-name="p.ss01" horiz-adv-x="1636" 
d="M244 -451h-219l278 1588h215l-37 -207h4q106 120 247.5 179.5t295.5 59.5q235 0 376.5 -133.5t141.5 -355.5q0 -138 -58 -269t-156.5 -229t-237 -157.5t-289.5 -59.5q-158 0 -275.5 62t-171.5 166zM793 160q141 0 262 68.5t189.5 178.5t68.5 232q0 150 -101 242t-266 92
q-107 0 -206.5 -40t-171 -105.5t-114 -152.5t-42.5 -179q0 -149 106.5 -242.5t274.5 -93.5z" />
    <glyph glyph-name="q.ss01" horiz-adv-x="1638" 
d="M1257 -451h-221l117 654q-101 -116 -242.5 -177t-298.5 -61q-235 0 -377.5 136t-142.5 360q0 137 58 266t156 226.5t236.5 156.5t291.5 59q157 0 274 -61t170 -168h4l37 197h217zM692 162q144 0 268 67t195.5 176.5t71.5 233.5q0 152 -106.5 244t-272.5 92
q-142 0 -263 -67.5t-190 -177.5t-69 -234q0 -151 101 -242.5t265 -91.5z" />
    <glyph glyph-name="r.ss01" horiz-adv-x="999" 
d="M324 0h-220l199 1137h770l-29 -191h-548z" />
    <glyph glyph-name="racute.ss01" horiz-adv-x="999" 
d="M1159 1663l-440 -385h-193l353 385h280zM324 0h-220l199 1137h770l-29 -191h-548z" />
    <glyph glyph-name="rcaron.ss01" horiz-adv-x="999" 
d="M764 1288h-256l-291 373h209q29 -29 73 -68t78.5 -74.5t81.5 -91.5q46 38 141 102.5t177 131.5h209zM324 0h-220l199 1137h770l-29 -191h-548z" />
    <glyph glyph-name="uni0157.ss01" horiz-adv-x="999" 
d="M324 0h-220l199 1137h770l-29 -191h-548zM74 -582h-117l168 215q-90 30 -90 107q0 58 50.5 102.5t119.5 44.5q56 0 92.5 -30.5t36.5 -79.5q0 -12 -2 -24t-8.5 -26t-13 -25.5t-21 -31t-26.5 -34.5t-35.5 -42t-42 -48t-51.5 -59t-60 -69z" />
    <glyph glyph-name="s.ss01" horiz-adv-x="1185" 
d="M944 0h-903l31 190h684l61 308h-688l113 639h903l-29 -191h-688l-57 -291h688z" />
    </font>
</defs>
</svg>
