<?xml version="1.0" standalone="no"?>
<!DOCTYPE svg PUBLIC "-//W3C//DTD SVG 1.1//EN" "http://www.w3.org/Graphics/SVG/1.1/DTD/svg11.dtd" >
<svg xmlns="http://www.w3.org/2000/svg" xmlns:xlink="http://www.w3.org/1999/xlink" version="1.1">
<metadata>
Created by FontForge 20170731 at Mon Mar 15 14:21:07 2021
 By Aleksey,,,
Copyright (c) 2020 by Matthieu Salvaggio x Blaze Type. All rights reserved.
</metadata>
<defs>
<font id="Area-ExtrablackExtended" horiz-adv-x="2457" >
  <font-face 
    font-family="Area Extrablack Extended"
    font-weight="950"
    font-stretch="normal"
    units-per-em="2048"
    panose-1="0 0 10 0 0 0 0 0 0 0"
    ascent="1638"
    descent="-410"
    x-height="1147"
    cap-height="1597"
    bbox="-2066 -696 3230 2228"
    underline-thickness="102"
    underline-position="-307"
    unicode-range="U+0020-25CA"
  />
<missing-glyph horiz-adv-x="1667" 
d="M1466 0h-1265v1597h1265v-1597zM440 1378v-854l678 854h-678zM1227 1151l-719 -932h719v932z" />
    <glyph glyph-name=".notdef" horiz-adv-x="1667" 
d="M1466 0h-1265v1597h1265v-1597zM440 1378v-854l678 854h-678zM1227 1151l-719 -932h719v932z" />
    <glyph glyph-name=".null" horiz-adv-x="0" 
 />
    <glyph glyph-name="nonmarkingreturn" horiz-adv-x="682" 
 />
    <glyph glyph-name="space" unicode=" " horiz-adv-x="583" 
 />
    <glyph glyph-name="exclam" unicode="!" horiz-adv-x="710" 
d="M455 541h-195l-94 845v211h381v-211zM358 -14q-93 0 -158 62t-65 151q0 83 65.5 142.5t157.5 59.5q87 0 153.5 -60t66.5 -142q0 -89 -64.5 -151t-155.5 -62z" />
    <glyph glyph-name="quotedbl" unicode="&#x22;" horiz-adv-x="1150" 
d="M485 1008h-335v589h335v-589zM1001 1008h-335v589h335v-589z" />
    <glyph glyph-name="numbersign" unicode="#" horiz-adv-x="1957" 
d="M1870 1143l-62 -281h-315l-53 -225h297l-60 -281h-305l-84 -356h-315l84 356h-365l-84 -356h-315l84 356h-289l59 281h297l54 225h-279l64 281h280l109 454h315l-108 -454h364l109 454h315l-108 -454h311zM760 637h364l54 225h-365z" />
    <glyph glyph-name="dollar" unicode="$" horiz-adv-x="1529" 
d="M1413 504q0 -185 -149.5 -309.5t-411.5 -137.5v-139h-158v141q-225 21 -375 130.5t-202 279.5l332 96q68 -147 245 -186v262l-76 21q-41 11 -71 20.5t-80.5 29t-88 39.5t-80 52t-70 67.5t-46 84.5t-18.5 104q0 123 71.5 221t191 154.5t267.5 68.5v135h158v-137
q101 -10 190 -43t151.5 -78.5t105 -97t59.5 -104.5l-305 -136q-26 50 -79 87.5t-122 54.5v-248l141 -45q162 -50 238 -95q181 -107 182 -292zM537 1098q0 -40 37.5 -64.5t119.5 -50.5v211q-77 -7 -117 -33t-40 -63zM852 600v-225q76 10 124 40t48 66q0 42 -42.5 68
t-129.5 51z" />
    <glyph glyph-name="percent" unicode="%" horiz-adv-x="2381" 
d="M457 688q-181 0 -286 119.5t-105 314.5t105 314.5t286 119.5q180 0 285.5 -121t105.5 -313t-105.5 -313t-285.5 -121zM664 0h-330l1366 1468h321zM457 942q44 0 67 39t23 141q0 103 -23 143t-67 40q-45 0 -68.5 -40.5t-23.5 -142.5q0 -101 23.5 -140.5t68.5 -39.5z
M1925 -29q-181 0 -286 120t-105 315t105 314.5t286 119.5q180 0 285.5 -121t105.5 -313q0 -193 -105.5 -314t-285.5 -121zM1925 225q44 0 67 39.5t23 141.5q0 103 -23 142.5t-67 39.5q-45 0 -68.5 -40t-23.5 -142q0 -101 23.5 -141t68.5 -40z" />
    <glyph glyph-name="ampersand" unicode="&#x26;" horiz-adv-x="1824" 
d="M705 -35q-175 0 -315 53.5t-220 152.5t-80 226q0 238 346 426q-45 41 -77.5 77.5t-65 82.5t-49.5 97t-17 104q0 88 40 169t110.5 142.5t176 98t228.5 36.5q127 0 233.5 -39t173.5 -102t103.5 -139t36.5 -154q0 -59 -22.5 -112.5t-57 -94.5t-87 -80.5t-100 -66.5
t-108.5 -56l248 -170q58 100 101 224l335 -64q-76 -243 -184 -405l428 -369h-473l-170 115q-222 -152 -534 -152zM754 983q106 49 155 94.5t49 102.5q0 63 -52 104t-130 41q-76 0 -125 -39.5t-49 -97.5q0 -92 152 -205zM733 281q160 0 273 61l-363 276q-188 -85 -188 -172
q0 -72 78.5 -118.5t199.5 -46.5z" />
    <glyph glyph-name="quotesingle" unicode="'" horiz-adv-x="634" 
d="M485 1008h-335v589h335v-589z" />
    <glyph glyph-name="parenleft" unicode="(" horiz-adv-x="888" 
d="M885 -307h-369q-201 198 -307.5 445t-106.5 507q0 261 106.5 507.5t307.5 444.5h369q-199 -199 -306.5 -447.5t-107.5 -504.5q0 -255 108 -504.5t306 -447.5z" />
    <glyph glyph-name="parenright" unicode=")" horiz-adv-x="888" 
d="M373 -307h-369q198 198 306 447.5t108 504.5q0 257 -107.5 505t-306.5 447h369q201 -198 307 -444.5t106 -507.5q0 -260 -106 -507t-307 -445z" />
    <glyph glyph-name="asterisk" unicode="*" horiz-adv-x="935" 
d="M553 1026h-172l4 160l-174 -86l-86 135l199 78l-197 73l84 138l174 -82l-4 155h172l-4 -155l174 82l86 -135l-197 -76l197 -78l-86 -135l-174 86z" />
    <glyph glyph-name="plus" unicode="+" horiz-adv-x="1302" 
d="M801 752h356v-256h-356v-320h-291v320h-365v256h365v321h291v-321z" />
    <glyph glyph-name="comma" unicode="," horiz-adv-x="653" 
d="M248 -291h-197l193 301q-67 26 -103.5 76.5t-36.5 112.5q0 83 67 142.5t159 59.5q91 0 156 -58t65 -140q0 -63 -41 -130.5t-182 -256.5q-16 -22 -25.5 -34.5t-25 -33.5t-29.5 -39z" />
    <glyph glyph-name="hyphen" unicode="-" horiz-adv-x="1099" 
d="M954 479h-809v289h809v-289z" />
    <glyph glyph-name="period" unicode="." horiz-adv-x="655" 
d="M330 -14q-93 0 -158.5 62t-65.5 151q0 83 66 142.5t158 59.5q91 0 155 -59.5t64 -142.5q0 -89 -64 -151t-155 -62z" />
    <glyph glyph-name="slash" unicode="/" horiz-adv-x="1128" 
d="M395 -135h-332l668 1773h334z" />
    <glyph glyph-name="zero" unicode="0" horiz-adv-x="1718" 
d="M860 -35q-225 0 -395.5 105.5t-261 293.5t-90.5 431q0 245 90.5 434t261 295t395.5 106q224 0 394 -106t261 -295t91 -434q0 -243 -91 -431t-261 -293.5t-394 -105.5zM860 303q161 0 253.5 123.5t92.5 370.5t-92.5 371t-253.5 124q-162 0 -256 -123.5t-94 -371.5t94 -371
t256 -123z" />
    <glyph glyph-name="one" unicode="1" horiz-adv-x="1021" 
d="M815 0h-377v1034q-66 -55 -171 -106t-204 -70v381q165 46 274 146.5t109 211.5h369v-1597z" />
    <glyph glyph-name="two" unicode="2" horiz-adv-x="1570" 
d="M1432 0h-1297v45q3 113 27.5 203.5t69 166t121 146.5t169 134t228.5 141q24 14 76 43.5t73 42t58 36t53 39t35.5 37.5t26.5 43.5t7 46.5q0 78 -76.5 128.5t-209.5 50.5q-169 0 -262 -89.5t-93 -238.5l-352 55q0 174 91.5 311t255 213t370.5 76q187 0 337.5 -60.5
t239 -175.5t88.5 -264q0 -80 -28.5 -151.5t-79.5 -127.5t-110.5 -99t-131.5 -78q-40 -19 -120.5 -55t-127.5 -59.5t-105.5 -59t-96 -76t-56.5 -88.5h820v-336z" />
    <glyph glyph-name="three" unicode="3" horiz-adv-x="1617" 
d="M803 -35q-175 0 -329 44.5t-263 128t-148 192.5l328 159q40 -49 61 -68q130 -120 339 -120q147 0 233 46t86 128t-83 133t-230 51h-197v293h172q133 0 211 44.5t78 125.5q0 79 -81.5 127.5t-207.5 48.5q-129 0 -216 -59.5t-105 -169.5l-342 76q14 96 70 183t144.5 154.5
t214 107.5t267.5 40q174 0 320 -53t236.5 -155.5t90.5 -235.5q0 -126 -82 -218.5t-219 -117.5v-2q151 -25 254.5 -123.5t103.5 -247.5q0 -74 -27 -146t-84.5 -138.5t-138.5 -117t-199 -80.5t-257 -30z" />
    <glyph glyph-name="four" unicode="4" horiz-adv-x="1671" 
d="M1333 0h-364v317h-916v289l926 991h354v-979h252v-301h-252v-317zM969 1112l-533 -494h533v494z" />
    <glyph glyph-name="five" unicode="5" horiz-adv-x="1617" 
d="M780 -35q-168 0 -317 45.5t-259.5 133t-160.5 204.5l303 191q30 -69 80.5 -120t111.5 -78t121 -39.5t123 -12.5q153 0 255 68.5t102 181.5q0 110 -97 175.5t-247 65.5q-119 0 -200.5 -45t-125.5 -117l-311 74l231 905h1024v-315h-751l-101 -295h2q115 82 330 82
q56 0 114 -7t122 -24t121.5 -43t110 -67t90.5 -92t60.5 -121.5t22.5 -153.5q0 -176 -101 -313t-272 -210t-381 -73z" />
    <glyph glyph-name="six" unicode="6" horiz-adv-x="1679" 
d="M866 -35q-169 0 -307.5 47.5t-238.5 139.5t-154.5 233.5t-54.5 321.5q0 267 116 477t326.5 328t480.5 118q145 0 282 -41t236 -131l-200 -260q-136 105 -340 105q-108 0 -201.5 -36t-153.5 -93.5t-95.5 -123.5t-39.5 -130h6q63 63 171 96t245 33q172 0 317.5 -63
t235.5 -184t90 -276q0 -116 -52 -219t-144.5 -178.5t-228.5 -119.5t-296 -44zM868 289q83 0 155.5 23.5t121.5 76t49 123.5q0 105 -97.5 169t-226.5 64q-136 0 -231.5 -66.5t-95.5 -166.5q0 -68 48 -120.5t121 -77.5t156 -25z" />
    <glyph glyph-name="seven" unicode="7" horiz-adv-x="1443" 
d="M737 0h-399q0 113 17 226.5t60.5 249t111 266.5t176.5 275.5t249 278.5h-909v301h1352v-303q-152 -113 -270 -249.5t-189.5 -267.5t-117.5 -274t-63.5 -263t-17.5 -240z" />
    <glyph glyph-name="eight" unicode="8" horiz-adv-x="1654" 
d="M829 -35q-162 0 -299.5 39.5t-230.5 106.5t-145 156t-52 188q0 144 100.5 249t241.5 134v4q-122 42 -190 130.5t-68 201.5q0 133 85.5 238t231.5 161.5t324 56.5q176 0 321 -55.5t232.5 -162t87.5 -245.5q0 -110 -65.5 -198t-196.5 -127v-4q142 -30 244 -135t102 -250
q0 -98 -52 -187t-144.5 -155.5t-229.5 -106t-297 -39.5zM829 987q109 0 183.5 47t74.5 119t-74.5 120t-183.5 48q-111 0 -186.5 -48t-75.5 -120t75.5 -119t186.5 -47zM821 283q138 0 240 60t102 163q0 97 -92.5 156t-241.5 59q-150 0 -243.5 -58.5t-93.5 -160.5
q0 -101 96 -160t233 -59z" />
    <glyph glyph-name="nine" unicode="9" horiz-adv-x="1691" 
d="M729 -35q-183 0 -347.5 54.5t-256.5 140.5l197 254q78 -69 179 -102t206 -33q113 0 206 35.5t151 94.5t89 132t31 151h-4q-53 -61 -171.5 -104t-267.5 -43q-124 0 -239.5 36.5t-206.5 101.5t-146 164.5t-55 217.5q0 113 52 215.5t145 180t231 123.5t299 46
q159 0 293.5 -46.5t239 -138t164 -242t59.5 -345.5q0 -192 -56 -354t-161 -282.5t-267 -188.5t-364 -68zM815 846q134 0 230 64.5t96 166.5q0 103 -99 166.5t-227 63.5q-84 0 -156.5 -25t-121 -78.5t-48.5 -126.5q0 -107 96 -169t230 -62z" />
    <glyph glyph-name="colon" unicode=":" horiz-adv-x="729" 
d="M367 743q-93 0 -158.5 62t-65.5 151q0 83 66 143t158 60q91 0 155 -60t64 -143q0 -89 -64 -151t-155 -62zM367 -12q-93 0 -158.5 62t-65.5 151q0 83 66 142.5t158 59.5q91 0 155 -59.5t64 -142.5q0 -89 -64 -151t-155 -62z" />
    <glyph glyph-name="semicolon" unicode=";" horiz-adv-x="749" 
d="M379 743q-93 0 -158 62t-65 151q0 83 65.5 143t157.5 60q91 0 156 -60t65 -143q0 -89 -65 -151t-156 -62zM289 -311h-205l192 321q-56 26 -89 77.5t-33 111.5q0 83 65.5 142.5t157.5 59.5q91 0 156 -59.5t65 -142.5q0 -60 -50 -140.5t-259 -369.5z" />
    <glyph glyph-name="less" unicode="&#x3c;" horiz-adv-x="1257" 
d="M1098 442v-241l-957 225v365l957 225v-242l-725 -166z" />
    <glyph glyph-name="equal" unicode="=" horiz-adv-x="1349" 
d="M1192 700h-1034v256h1034v-256zM1192 242h-1034v256h1034v-256z" />
    <glyph glyph-name="greater" unicode="&#x3e;" horiz-adv-x="1257" 
d="M1116 426l-956 -225v241l723 166l-723 166v242l956 -225v-365z" />
    <glyph glyph-name="question" unicode="?" horiz-adv-x="1497" 
d="M887 485h-389q-15 66 -15 117q0 108 78 184.5t227 141.5q106 46 139 69q79 53 79 129q0 72 -77.5 120t-197.5 48q-143 0 -230 -76.5t-87 -193.5v-23l-338 58q-2 6 -2 16q0 129 55 235.5t149.5 175.5t218 106.5t261.5 37.5q104 0 200.5 -20.5t177.5 -61t142 -96.5
t95 -131.5t34 -161.5q0 -61 -19 -114.5t-46 -90.5t-70.5 -73t-78.5 -57.5t-85 -47.5q-130 -71 -170 -103q-68 -54 -68 -112q0 -33 17 -76zM700 -14q-92 0 -158.5 62.5t-66.5 148.5q0 85 65 144.5t156 59.5q90 0 156 -60t66 -148q0 -85 -64 -146t-154 -61z" />
    <glyph glyph-name="at" unicode="@" horiz-adv-x="2334" 
d="M1155 -195q-210 0 -385.5 44t-299 121t-209.5 182t-126.5 226t-40.5 255q0 197 90 378.5t246.5 318t384.5 218.5t488 82q285 0 506.5 -98t344.5 -279t123 -417q0 -167 -63.5 -299.5t-186 -210.5t-284.5 -78q-140 0 -219 54t-94 136q-141 -194 -431 -194q-103 0 -184.5 29
t-132.5 80.5t-77.5 118.5t-26.5 146q0 150 86 282.5t226.5 210t295.5 77.5q114 0 193 -39.5t106 -104.5l31 117h249l-104 -504q-5 -24 -7.5 -41t-4.5 -46t3.5 -49.5t17 -41.5t36 -32t59.5 -11q116 0 188 101t72 280q0 305 -190 455.5t-532 150.5q-216 0 -396 -60.5
t-302 -166.5t-189.5 -252t-67.5 -315q0 -305 209.5 -463t611.5 -158q369 0 617 144l117 -166q-264 -181 -748 -181zM1098 492q134 0 225.5 86t91.5 188q0 76 -57 124t-154 48q-133 0 -229 -86t-96 -193q0 -79 58 -123t161 -44z" />
    <glyph glyph-name="A" unicode="A" horiz-adv-x="1894" 
d="M393 0h-391l725 1597h440l725 -1597h-399l-178 365h-744zM739 719h408q-70 145 -201 438h-6q-131 -293 -201 -438z" />
    <glyph glyph-name="B" unicode="B" horiz-adv-x="1753" 
d="M999 0h-800v1597h809q275 0 429 -113.5t154 -297.5q0 -124 -79 -225t-226 -138v-4q375 -66 375 -379q0 -105 -43 -185.5t-109 -127.5t-157.5 -76.5t-176 -40t-176.5 -10.5zM575 965h312q65 0 110 4t95.5 18t77 46t26.5 81q0 47 -27 78.5t-76.5 45.5t-95.5 19t-106 5h-316
v-297zM575 336h347q41 0 73.5 1.5t74.5 6.5t72.5 16t58 27.5t42 44t14.5 62.5q0 34 -14.5 61t-41 43.5t-57 27.5t-70.5 16t-72.5 7t-71.5 2h-355v-315z" />
    <glyph glyph-name="C" unicode="C" horiz-adv-x="2041" 
d="M1092 -35q-214 0 -398 60.5t-316 169t-207 266.5t-75 346q0 159 53.5 294.5t146 231.5t216.5 164t266.5 100.5t294.5 32.5q306 0 542.5 -141.5t338.5 -372.5l-348 -135q-77 137 -213.5 222t-325.5 85q-251 0 -414.5 -138t-163.5 -362q0 -105 36.5 -189t96.5 -137.5
t140.5 -89t163 -50.5t170.5 -15q207 0 355 85.5t218 264.5l350 -114q-58 -155 -152.5 -268.5t-216.5 -180t-260 -98t-298 -31.5z" />
    <glyph glyph-name="D" unicode="D" horiz-adv-x="1949" 
d="M965 0h-766v1597h743q187 0 339.5 -40.5t257 -112t176 -171.5t104 -216t32.5 -248q0 -178 -60.5 -327t-173 -256t-280 -166.5t-372.5 -59.5zM575 336h345q88 0 158.5 9.5t144 39t122.5 78.5t80 133t31 197q0 76 -14 139.5t-34 109t-56.5 81.5t-68.5 59t-83 39t-86 24
t-92.5 12t-88 4.5t-85.5 0.5h-273v-926z" />
    <glyph glyph-name="E" unicode="E" horiz-adv-x="1593" 
d="M1479 0h-1280v1597h1255v-335h-879v-277h830v-354h-830v-295h904v-336z" />
    <glyph glyph-name="F" unicode="F" horiz-adv-x="1519" 
d="M1434 1597v-335h-859v-318h809v-354h-809v-590h-376v1597h1235z" />
    <glyph glyph-name="G" unicode="G" horiz-adv-x="2136" 
d="M1038 -35q-271 0 -486 106.5t-335.5 297t-120.5 430.5q0 156 51.5 290.5t142 232.5t213.5 168t267.5 105t300.5 35q311 0 548.5 -144.5t334.5 -369.5l-348 -135q-79 138 -212.5 222.5t-322.5 84.5q-121 0 -227.5 -35t-185 -98t-124 -158t-45.5 -209q0 -79 20.5 -146.5
t56 -116t84.5 -87t103.5 -62.5t116.5 -40t119.5 -22.5t116.5 -6.5q199 0 337.5 63.5t172.5 180.5h-496v295h873v-846h-287l-20 199h-13q-208 -234 -635 -234z" />
    <glyph glyph-name="H" unicode="H" horiz-adv-x="1992" 
d="M1417 963v634h377v-1597h-377v608h-842v-608h-376v1597h376v-634h842z" />
    <glyph glyph-name="I" unicode="I" horiz-adv-x="774" 
d="M575 0h-376v1597h376v-1597z" />
    <glyph glyph-name="J" unicode="J" horiz-adv-x="1548" 
d="M737 -35q-198 0 -355.5 65t-251 194.5t-93.5 303.5v60l373 49v-55q0 -118 84 -196.5t225 -78.5q72 0 124.5 19t80.5 46t43.5 67.5t19.5 72t4 72.5v1013h375v-962q0 -57 -1.5 -94.5t-13.5 -114.5t-34 -131t-68.5 -121t-111 -108.5t-168 -71t-232.5 -29.5z" />
    <glyph glyph-name="K" unicode="K" horiz-adv-x="1767" 
d="M575 0h-376v1597h376v-661h11q494 454 737 661h442q-504 -469 -741 -692l776 -905h-457q-305 335 -575 649q-14 -15 -193 -188v-461z" />
    <glyph glyph-name="L" unicode="L" horiz-adv-x="1439" 
d="M575 1597v-1261h834v-336h-1210v1597h376z" />
    <glyph glyph-name="M" unicode="M" horiz-adv-x="2502" 
d="M582 0h-383v1597h469q388 -657 581 -1019h4q59 109 117 213.5t124 220t107 186t122 208t112 191.5h469v-1597h-383v924h-8q-216 -430 -527 -924h-272q-306 490 -526 924h-6v-924z" />
    <glyph glyph-name="N" unicode="N" horiz-adv-x="2000" 
d="M575 0h-376v1597h391q63 -71 200 -225t219 -246.5t199 -227.5t213 -251h6v950h375v-1597h-389q-95 107 -262 289t-307 338.5t-262 300.5h-7v-928z" />
    <glyph glyph-name="O" unicode="O" horiz-adv-x="2129" 
d="M1065 -35q-198 0 -376 61t-309.5 168.5t-208.5 264t-77 338.5t76.5 338.5t208 264.5t309.5 169t377 61q200 0 378.5 -61.5t309.5 -170t207 -264.5t76 -337q0 -179 -76 -335t-206.5 -264.5t-309 -170.5t-379.5 -62zM1067 307q161 0 291.5 63.5t205 176t74.5 250.5
q0 206 -162.5 348.5t-408.5 142.5q-120 0 -226.5 -37t-184 -101.5t-122.5 -156t-45 -196.5q0 -142 78 -255t209.5 -174t290.5 -61z" />
    <glyph glyph-name="P" unicode="P" horiz-adv-x="1667" 
d="M199 1597h743q36 0 61 -0.5t80 -5.5t96.5 -13.5t99.5 -26.5t100.5 -43t88.5 -65t75 -90.5t48 -121t19 -154.5t-19 -156t-49.5 -123.5t-75 -93t-89.5 -68.5t-100.5 -46.5t-99.5 -29t-94 -15.5t-78 -7t-57 -1h-373v-537h-376v1597zM575 891h297q39 0 60.5 0.5t62.5 4
t66.5 10t57.5 20.5t50.5 33.5t31.5 50t13 69.5q0 38 -13 67.5t-31 48.5t-49.5 32.5t-56.5 20t-64.5 10t-61.5 4t-59 0.5h-304v-371z" />
    <glyph glyph-name="Q" unicode="Q" horiz-adv-x="2170" 
d="M2021 -27l-270 -219q-45 44 -136 131t-136 131q-184 -51 -394 -51q-275 0 -500.5 103.5t-358 294.5t-132.5 434q0 182 77 338.5t210 264.5t315.5 169t388.5 61q207 0 389.5 -61.5t315 -170t209 -264.5t76.5 -337q0 -178 -77 -331t-218 -265zM1087 307q91 0 132 2
q-130 99 -209 160l270 217l256 -215q154 138 154 326q0 136 -72.5 247.5t-211 177.5t-319.5 66q-272 0 -440 -138t-168 -353q0 -218 169 -354t439 -136z" />
    <glyph glyph-name="R" unicode="R" horiz-adv-x="1726" 
d="M575 0h-376v1597h743q31 0 54 -0.5t76.5 -5.5t95.5 -13.5t100 -27t102.5 -44t91.5 -66t77.5 -91.5t50.5 -123t20 -157q0 -383 -428 -489v-2l475 -578h-424l-451 547h-207v-547zM575 868h297q39 0 71 2t74.5 8.5t74.5 20t61.5 34.5t45 54.5t15.5 77.5q0 50 -23.5 88.5
t-58 59.5t-82 34t-88 17t-83.5 4h-304v-400z" />
    <glyph glyph-name="S" unicode="S" horiz-adv-x="1613" 
d="M829 -35q-284 0 -488.5 128.5t-272.5 346.5l350 115q27 -78 71.5 -131.5t101 -80.5t111.5 -37.5t121 -10.5q84 0 154.5 18t114 54t43.5 82q0 39 -23.5 68.5t-82.5 54t-90.5 34t-113.5 30.5q-3 1 -5.5 1.5t-4.5 1.5l-172 43q-510 125 -510 461q0 142 88 254t239 172.5
t337 60.5q133 0 250.5 -32.5t200 -86.5t138 -118t78.5 -131l-344 -136q-91 177 -329 177q-116 0 -190.5 -38.5t-74.5 -93.5q0 -29 23 -56t53 -45t82 -37t85 -28.5t87 -23.5l203 -53q49 -13 80.5 -22.5t87 -30t92 -41.5t81 -55.5t71 -73.5t45 -94.5t18.5 -118.5
q0 -109 -49.5 -205t-139.5 -167.5t-223.5 -113t-292.5 -41.5z" />
    <glyph glyph-name="T" unicode="T" horiz-adv-x="1579" 
d="M977 0h-375v1262h-571v335h1517v-335h-571v-1262z" />
    <glyph glyph-name="U" unicode="U" horiz-adv-x="1830" 
d="M913 -35q-133 0 -242.5 25.5t-183.5 67t-131 100.5t-89.5 119t-53 129.5t-27 125.5t-6.5 113v952h377v-921q0 -60 10.5 -111.5t36.5 -100t65.5 -82.5t102.5 -54.5t143 -20.5q99 0 171 30t112 83t58 116t18 140v921h377v-952q0 -58 -6.5 -113.5t-26.5 -125.5t-52 -130
t-89.5 -118.5t-132.5 -100t-185.5 -67t-245.5 -25.5z" />
    <glyph glyph-name="V" unicode="V" horiz-adv-x="1894" 
d="M1169 0h-444l-723 1597h395q39 -51 144 -274t230.5 -500.5t174.5 -376.5h6q62 118 279 603t264 548h397z" />
    <glyph glyph-name="W" unicode="W" horiz-adv-x="2850" 
d="M1034 0h-473l-543 1597h431q194 -578 352 -1081h4q380 1013 405 1081h428q68 -180 204.5 -540.5t203.5 -540.5h6q264 832 350 1081h430l-542 -1597h-469q-262 649 -394 1014h-4q-228 -624 -389 -1014z" />
    <glyph glyph-name="X" unicode="X" horiz-adv-x="1693" 
d="M457 -2h-455q104 133 301.5 396.5t302.5 396.5v6q-104 133 -299 400t-299 400h443q68 -84 197 -252.5t198 -252.5h6q64 78 195 247t204 258h443q-104 -133 -303.5 -400t-303.5 -400v-6q103 -133 299.5 -396.5t299.5 -396.5h-455q-59 75 -184.5 240t-196.5 254h-6
q-67 -83 -193.5 -247t-193.5 -247z" />
    <glyph glyph-name="Y" unicode="Y" horiz-adv-x="1726" 
d="M1051 0h-375v535q-589 929 -670 1062h404q76 -117 225 -350.5t225 -349.5h4q27 42 451 700h403q-112 -176 -334 -529t-333 -529v-539z" />
    <glyph glyph-name="Z" unicode="Z" horiz-adv-x="1667" 
d="M1577 0h-1489v336q983 915 995 926v4q-161 -1 -483 -2t-483 -2v335h1442v-342q-65 -59 -437.5 -396.5t-570.5 -518.5v-4h1026v-336z" />
    <glyph glyph-name="bracketleft" unicode="[" horiz-adv-x="1019" 
d="M946 -469h-745v2066h745v-309h-393v-1407h393v-350z" />
    <glyph glyph-name="backslash" unicode="\" horiz-adv-x="1128" 
d="M1065 -135h-334l-668 1773h332z" />
    <glyph glyph-name="bracketright" unicode="]" horiz-adv-x="1019" 
d="M819 -469h-745v350h393v1407h-393v309h745v-2066z" />
    <glyph glyph-name="asciicircum" unicode="^" horiz-adv-x="1153" 
d="M348 973h-258l336 624h311l326 -624h-258l-221 430h-6z" />
    <glyph glyph-name="underscore" unicode="_" horiz-adv-x="1337" 
d="M1241 -258h-1145v268h1145v-268z" />
    <glyph glyph-name="a" unicode="a" horiz-adv-x="1439" 
d="M549 -35q-93 0 -176 21.5t-149 63.5t-105 110.5t-39 154.5q0 65 24 117t62 86.5t97.5 61.5t117.5 43t135 30l90 15l87 14.5t74.5 14t66 17t48 20.5t34 27.5t10.5 35.5q0 46 -57.5 76t-151.5 30q-207 0 -264 -160l-332 107q31 89 93 155t144 103t172.5 54.5t192.5 17.5
q267 0 414 -110.5t147 -305.5v-406q0 -129 10 -205t33 -153h-352q-25 49 -25 119h-6q-53 -72 -160 -113t-235 -41zM645 225q126 0 204.5 58t78.5 139v74q-112 -29 -269 -60q-40 -8 -68 -16t-59.5 -21.5t-48 -33.5t-16.5 -46q0 -45 49.5 -69.5t128.5 -24.5z" />
    <glyph glyph-name="b" unicode="b" horiz-adv-x="1638" 
d="M932 -35q-136 0 -241.5 45.5t-170.5 112.5h-4v-123h-350v1638h354v-634q159 176 441 176q109 0 204 -31t165.5 -87t121.5 -131t76.5 -165t25.5 -188q0 -142 -51.5 -260t-138 -194t-198.5 -117.5t-234 -41.5zM852 293q148 0 242 77.5t94 200.5q0 121 -94.5 201t-243.5 80
q-147 0 -242.5 -80t-95.5 -201q0 -122 96.5 -200t243.5 -78z" />
    <glyph glyph-name="c" unicode="c" horiz-adv-x="1501" 
d="M797 -35q-203 0 -364 71.5t-256 210.5t-95 324q0 184 93 324t252 212.5t359 72.5q223 0 397.5 -100t246.5 -269l-332 -131q-25 62 -76 101.5t-109.5 55t-128.5 15.5q-149 0 -242 -79.5t-93 -199.5q0 -128 101 -204t249 -76q243 0 331 172l332 -131
q-72 -170 -250.5 -269.5t-414.5 -99.5z" />
    <glyph glyph-name="d" unicode="d" horiz-adv-x="1638" 
d="M707 -35q-188 0 -330.5 79.5t-217.5 217.5t-75 313q0 140 49 255.5t133.5 191t196.5 117t239 41.5q139 0 241.5 -44.5t168.5 -111.5h6v614h355v-1280q0 -130 10 -206.5t33 -151.5h-351q-27 79 -24 115h-6q-135 -150 -428 -150zM786 295q148 0 244 79.5t96 200.5
q0 122 -97 200.5t-245 78.5q-146 0 -239.5 -78t-93.5 -201q0 -121 93.5 -200.5t241.5 -79.5z" />
    <glyph glyph-name="e" unicode="e" horiz-adv-x="1521" 
d="M797 -35q-203 0 -365 73t-256 211t-94 318q0 173 87.5 313t245.5 220t355 80q131 0 250 -41t211.5 -117.5t147.5 -197.5t55 -269v-82h-998q22 -98 120.5 -149.5t236.5 -51.5q105 0 188 35.5t125 108.5l332 -131q-72 -136 -242.5 -228t-398.5 -92zM453 698h624
q-19 95 -104 143t-205 48q-124 0 -205 -52t-110 -139z" />
    <glyph glyph-name="f" unicode="f" horiz-adv-x="964" 
d="M623 0h-355v836h-205v311h205v100q0 97 26 172t69.5 122.5t105.5 77.5t129 42t145 12q133 0 224 -24v-283q-84 16 -146 16q-57 0 -97 -14t-59 -31t-29.5 -47t-11.5 -46t-1 -44v-53h311v-311h-311v-836z" />
    <glyph glyph-name="g" unicode="g" horiz-adv-x="1636" 
d="M782 -483q-508 0 -653 325l322 113q48 -82 124.5 -116t196.5 -34q167 0 255.5 84t88.5 234v20h-6q-116 -135 -399 -135q-150 0 -271.5 48t-198.5 129t-118 185t-41 220q0 128 47.5 238t129 187t195.5 121t244 44q139 0 246 -44.5t172 -111.5h4v123h350v-1041
q0 -135 -38.5 -239t-102 -169t-154 -106.5t-186 -58t-207.5 -16.5zM784 336q146 0 243 76.5t97 183.5t-97.5 182.5t-244.5 75.5q-144 0 -238.5 -74.5t-94.5 -183.5t94.5 -184.5t240.5 -75.5z" />
    <glyph glyph-name="h" unicode="h" horiz-adv-x="1572" 
d="M520 0h-354v1638h354v-641h6q75 93 184.5 138t233.5 45q96 0 181 -29.5t151.5 -84.5t105.5 -143.5t39 -197.5v-725h-354v573q0 35 -5.5 69t-22.5 73t-43.5 68.5t-73.5 49t-107 19.5q-295 0 -295 -279v-573z" />
    <glyph glyph-name="i" unicode="i" horiz-adv-x="686" 
d="M344 1257q-93 0 -156 59t-63 144t64 142t155 57q90 0 152.5 -58.5t62.5 -138.5q0 -86 -62 -145.5t-153 -59.5zM520 0h-354v1147h354v-1147z" />
    <glyph glyph-name="j" unicode="j" horiz-adv-x="684" 
d="M342 1257q-92 0 -154.5 60t-62.5 143t62 141t155 58q92 0 154.5 -57.5t62.5 -141.5q0 -85 -62.5 -144t-154.5 -59zM63 -483q-124 0 -276 39v290q136 -24 201 -24q37 0 65.5 5t46.5 11.5t31 19t19.5 22.5t9.5 27.5t3.5 27.5t0.5 30v1182h356v-1161q0 -59 -1 -91
t-9.5 -89.5t-25 -90.5t-50 -76t-81 -66t-121.5 -39.5t-169 -16.5z" />
    <glyph glyph-name="k" unicode="k" horiz-adv-x="1425" 
d="M899 668l563 -668h-418l-385 440l-137 -129v-311h-356v1638h356v-886h6q184 167 453 395h422z" />
    <glyph glyph-name="l" unicode="l" horiz-adv-x="686" 
d="M520 0h-354v1638h354v-1638z" />
    <glyph glyph-name="m" unicode="m" horiz-adv-x="2424" 
d="M520 0h-354v1147h350v-150h4q69 86 182.5 134.5t233.5 48.5q126 0 237.5 -50t167.5 -135h5q94 98 210.5 141.5t233.5 43.5q92 0 178.5 -31t154.5 -87.5t109 -144t41 -192.5v-725h-354v573q0 36 -5.5 70.5t-21.5 73.5t-41 68t-68.5 48t-99.5 19q-286 0 -286 -279v-573
h-355v575q0 36 -5.5 70t-21 73t-40.5 67.5t-68.5 47.5t-99.5 19q-287 0 -287 -279v-573z" />
    <glyph glyph-name="n" unicode="n" horiz-adv-x="1572" 
d="M520 0h-354v1147h350v-150h4q73 90 185 136.5t239 46.5q96 0 181 -29.5t151.5 -84.5t105.5 -143.5t39 -197.5v-725h-354v573q0 35 -5.5 69t-22.5 73t-43.5 68.5t-73.5 49t-107 19.5q-295 0 -295 -279v-573z" />
    <glyph glyph-name="o" unicode="o" horiz-adv-x="1583" 
d="M793 -35q-207 0 -369 76.5t-252 214.5t-90 315q0 267 199 438t512 171q205 0 367 -77.5t251.5 -216.5t89.5 -315q0 -177 -90 -315t-251 -214.5t-367 -76.5zM793 293q150 0 245 78t95 200q0 125 -94.5 203t-245.5 78t-246.5 -79t-95.5 -202q0 -122 96 -200t246 -78z" />
    <glyph glyph-name="p" unicode="p" horiz-adv-x="1638" 
d="M520 -451h-354v1598h350v-146h4q171 179 438 179q136 0 250 -48t188.5 -130.5t116 -191t41.5 -230.5q0 -142 -51.5 -260t-138 -194.5t-198.5 -118.5t-234 -42q-254 0 -412 158v-574zM852 293q148 0 242 78t94 200q0 123 -95 202t-241 79q-147 0 -243.5 -79t-96.5 -202
q0 -121 96.5 -199.5t243.5 -78.5z" />
    <glyph glyph-name="q" unicode="q" horiz-adv-x="1638" 
d="M1473 -451h-355v594q-158 -178 -434 -178q-176 0 -314.5 84t-212 224t-73.5 309q0 137 49 251t133 189t196 116.5t238 41.5q138 0 245.5 -45t172.5 -111h4v123h351v-1598zM786 295q148 0 244 79.5t96 200.5q0 122 -97 200.5t-245 78.5q-146 0 -239.5 -78t-93.5 -201
q0 -121 93.5 -200.5t241.5 -79.5z" />
    <glyph glyph-name="r" unicode="r" horiz-adv-x="1075" 
d="M520 0h-354v1147h350v-156h10q58 80 156.5 134.5t224.5 54.5q66 0 133 -19v-385q-75 21 -168 21q-352 0 -352 -396v-401z" />
    <glyph glyph-name="s" unicode="s" horiz-adv-x="1275" 
d="M653 -35q-232 0 -392 88t-208 236l330 102q74 -147 266 -147q68 0 120 18t52 55q0 22 -14.5 39t-42 29t-52 19t-60.5 16q-11 3 -17 4l-148 37q-71 18 -132 44.5t-117 67.5t-88.5 100.5t-32.5 131.5q0 109 68 195t186.5 133t265.5 47q203 0 342.5 -81.5t183.5 -211.5
l-325 -103q-60 121 -211 121q-67 0 -110.5 -22t-43.5 -56q0 -15 9 -27.5t30 -23.5t38.5 -19t52 -17t51.5 -13t55 -12l104 -23q39 -9 63.5 -15t69.5 -21t75 -31t67 -43.5t59 -59t37.5 -77.5t15.5 -99q0 -177 -148 -279t-399 -102z" />
    <glyph glyph-name="t" unicode="t" horiz-adv-x="1093" 
d="M768 -35q-76 0 -139.5 11t-109 27t-81.5 43t-58.5 51.5t-39 59.5t-24 59.5t-12 60t-5 52.5t-0.5 44v463h-270v311h270v319h354v-319h369v-311h-369v-336q0 -29 0.5 -44.5t4 -43t10.5 -43.5t20.5 -36t33 -31t49.5 -18.5t69 -7.5q65 0 182 31v-303q-94 -39 -254 -39z" />
    <glyph glyph-name="u" unicode="u" horiz-adv-x="1550" 
d="M647 -35q-231 0 -363 122t-132 341v719h354v-604q0 -106 63.5 -178t180.5 -72q129 0 203.5 67t74.5 183v604h354v-789q0 -131 11 -205.5t34 -152.5h-354q-26 91 -24 115h-5q-136 -150 -397 -150z" />
    <glyph glyph-name="v" unicode="v" horiz-adv-x="1425" 
d="M932 0h-436l-484 1147h387q42 -92 86 -193t73 -172t78.5 -191t78.5 -190h6q23 56 67.5 165.5t66 162t55.5 133.5t63.5 148t62.5 137h375z" />
    <glyph glyph-name="w" unicode="w" horiz-adv-x="2308" 
d="M881 0h-416l-453 1147h404l274 -709h8l301 709h312l297 -709h6l278 709h402l-449 -1147h-432q-168 406 -256 623h-4q-238 -547 -272 -623z" />
    <glyph glyph-name="x" unicode="x" horiz-adv-x="1386" 
d="M422 0h-414q66 89 217.5 284.5t227.5 299.5v2q-73 93 -220.5 280.5t-220.5 280.5h412q46 -59 135 -174t135 -174h6q121 162 273 348h399q-275 -357 -438 -561v-2q388 -507 444 -584h-403q-28 36 -84 107.5t-101 127.5t-90 107h-6q-44 -54 -137 -171.5t-135 -170.5z" />
    <glyph glyph-name="y" unicode="y" horiz-adv-x="1447" 
d="M733 -451h-379l185 390l-531 1208h391q177 -386 328 -750h4q101 244 328 750h381z" />
    <glyph glyph-name="z" unicode="z" horiz-adv-x="1320" 
d="M1249 0h-1161v293l637 541h-623v313h1098v-293l-639 -541h688v-313z" />
    <glyph glyph-name="braceleft" unicode="{" horiz-adv-x="1118" 
d="M1042 -299h-155q-323 0 -467 104t-144 320v178q0 30 -2.5 54t-6 42.5t-12.5 32l-15 22.5t-21.5 15t-25 9.5t-31 5t-35 1.5h-41.5h-4v328h4h41.5t35 1.5t31 5t25 9.5t21.5 15l15 22.5t12.5 32t6 42.5t2.5 54v179q0 45 4.5 83t20.5 83t42 80t72.5 69.5t109 57t155 36.5
t207.5 14h155v-309h-114q-35 0 -55 -0.5t-52.5 -3t-52.5 -8t-45.5 -14.5t-41 -24t-30.5 -35.5t-21.5 -50t-6.5 -65.5v-96q0 -124 -20.5 -192.5t-64.5 -101.5t-126 -48v-6q85 -15 127.5 -45t63 -97t20.5 -194v-96q0 -118 68.5 -159.5t236.5 -41.5h114v-309z" />
    <glyph glyph-name="bar" unicode="|" horiz-adv-x="694" 
d="M494 -451h-293v2089h293v-2089z" />
    <glyph glyph-name="braceright" unicode="}" horiz-adv-x="1118" 
d="M229 -299h-153v309h114q40 0 62.5 0.5t59.5 4.5t58.5 11.5t48 22t41 35.5t24.5 53.5t10 73.5v96q0 177 41.5 244.5t171.5 91.5v6q-54 10 -91.5 28t-61.5 44t-37 67t-18 87.5t-5 115.5v96q0 117 -69 159t-235 42h-114v309h153q325 0 469 -104t144 -319v-179q0 -30 2.5 -54
t6 -42.5t12.5 -32l15 -22.5t21.5 -15t25 -9.5t31 -5t35 -1.5h41.5h4v-328h-4h-41.5t-35 -1.5t-31 -5t-25 -9.5t-21.5 -15l-15 -22.5t-12.5 -32t-6 -42.5t-2.5 -54v-178q0 -45 -4.5 -82.5t-20.5 -82.5t-42 -80.5t-72.5 -70t-109.5 -57.5t-156 -37t-208 -14z" />
    <glyph glyph-name="asciitilde" unicode="~" horiz-adv-x="1404" 
d="M948 434q-68 0 -134.5 18t-110 39.5t-93.5 39.5t-88 18q-50 0 -77 -32.5t-27 -72.5h-277q0 173 97.5 278t238.5 105q62 0 123.5 -16.5t102 -35.5t93.5 -35.5t101 -16.5q45 0 67.5 27.5t22.5 70.5h277q0 -187 -86 -287t-230 -100z" />
    <glyph glyph-name="uni00A0" unicode="&#xa0;" horiz-adv-x="583" 
 />
    <glyph glyph-name="exclamdown" unicode="&#xa1;" horiz-adv-x="679" 
d="M342 764q-92 0 -157.5 60t-65.5 143q0 89 65 151t158 62q91 0 155 -62t64 -151q0 -83 -66 -143t-153 -60zM530 -432h-380v211l94 835h194l92 -835v-211z" />
    <glyph glyph-name="cent" unicode="&#xa2;" horiz-adv-x="1361" 
d="M1008 629l252 -103q-50 -116 -172 -191.5t-285 -90.5v-244h-158v248q-105 12 -196.5 51.5t-162 102.5t-111 154.5t-40.5 199.5q0 109 40.5 201t111 156t162 103.5t196.5 51.5v198h158v-198q151 -17 268 -92.5t166 -188.5l-252 -102q-41 96 -182 121v-500q154 22 205 123z
M432 758q0 -100 59.5 -162t153.5 -84v492q-95 -20 -154 -84t-59 -162z" />
    <glyph glyph-name="sterling" unicode="&#xa3;" horiz-adv-x="1617" 
d="M872 612q0 -81 -54 -162t-161 -149h852v-301h-1366v303q170 34 262.5 119.5t92.5 169.5q0 33 -17 72h-377v159h256q-61 74 -96 146.5t-35 163.5q0 145 82.5 259.5t223.5 176t313 61.5q63 0 126.5 -8.5t134 -28t134.5 -55.5t120 -85.5t99 -124.5t64 -167l-344 -131
q-20 73 -51.5 126.5t-63.5 82t-72 45t-70 21t-65 4.5q-105 0 -172 -49t-67 -136q0 -42 18.5 -85t38 -70.5t59 -75t56.5 -70.5h495v-159h-420q4 -32 4 -52z" />
    <glyph glyph-name="currency" unicode="&#xa4;" horiz-adv-x="1650" 
d="M1329 838q0 -123 -63 -217l288 -289l-215 -178l-297 295q-93 -37 -213 -37q-116 0 -219 39l-299 -297l-215 178l291 289q-68 100 -68 217q0 120 64 215l-287 286l215 179l295 -291q103 39 219 39q122 0 222 -41l292 293l215 -179l-288 -286q63 -97 63 -215zM827 668
q92 0 149.5 47.5t57.5 122.5q0 78 -58 125t-151 47t-152 -48t-59 -124q0 -75 60 -122.5t153 -47.5z" />
    <glyph glyph-name="yen" unicode="&#xa5;" horiz-adv-x="1785" 
d="M1081 0h-376v215h-441v225h441v84h-441v226h373l-571 847h399q101 -146 424 -632h6q313 470 424 632h399l-573 -847h379v-226h-443v-84h443v-225h-443v-215z" />
    <glyph glyph-name="brokenbar" unicode="&#xa6;" horiz-adv-x="694" 
d="M494 829h-293v809h293v-809zM494 -451h-293v803h293v-803z" />
    <glyph glyph-name="section" unicode="&#xa7;" horiz-adv-x="1351" 
d="M692 -301q-227 0 -392 84t-212 229l309 94q29 -57 81.5 -92.5t103 -47t106.5 -11.5q69 0 121.5 23.5t52.5 58.5q0 21 -15.5 39.5t-49 35t-61.5 27t-77 27.5l-147 49q-68 23 -126.5 51t-112.5 65.5t-85.5 87t-31.5 103.5q0 82 66 154.5t190 95.5v2q-248 93 -248 291
q0 118 71.5 206t188 131.5t260.5 43.5q198 0 339.5 -82t186.5 -211l-321 -102q-57 139 -213 139q-77 0 -120.5 -27.5t-43.5 -64.5q0 -25 18.5 -46t50 -36t66.5 -27t74 -23l12 -3l127 -37q57 -16 100.5 -31.5t97.5 -43.5t89 -59.5t59.5 -79t24.5 -102.5q0 -99 -71 -169
t-187 -87v-4q115 -36 179.5 -115.5t64.5 -179.5q0 -159 -141.5 -257.5t-383.5 -98.5zM672 455l41 -11q44 2 84.5 12.5t73 37t32.5 63.5q0 14 -4.5 26.5t-10.5 21t-19 17t-22 13.5t-28.5 11.5t-29 9t-32.5 8.5t-32 8l-63 16q-68 19 -127.5 -15t-59.5 -89q0 -20 8.5 -36.5
t27.5 -29.5t34.5 -22t44.5 -18t41 -12.5t41 -10.5z" />
    <glyph glyph-name="copyright" unicode="&#xa9;" horiz-adv-x="2260" 
d="M1130 -35q-220 0 -408.5 65.5t-317 178.5t-201 265.5t-72.5 324.5q0 171 72.5 323.5t201 264.5t317 177.5t408.5 65.5t408.5 -65.5t317.5 -177.5t201.5 -264.5t72.5 -323.5q0 -172 -72.5 -324.5t-201.5 -265.5t-317.5 -178.5t-408.5 -65.5zM1130 133q181 0 335 52.5
t259 142t163.5 211.5t58.5 260q0 137 -58.5 258.5t-163.5 211.5t-259 142.5t-335 52.5t-334.5 -52.5t-257.5 -142.5t-162.5 -211.5t-58.5 -258.5q0 -138 58 -260t162.5 -211.5t258 -142t334.5 -52.5zM1153 346q-239 0 -392 128t-153 329q0 86 29.5 159t80.5 125t119 88.5
t145 54t159 17.5q171 0 300 -78.5t185 -212.5l-215 -79q-73 165 -268 165q-130 0 -212.5 -68.5t-82.5 -180.5q0 -68 29.5 -117.5t78 -75.5t99 -37.5t104.5 -11.5q104 0 177.5 48t107.5 138l217 -67q-58 -156 -190 -240t-318 -84z" />
    <glyph glyph-name="guillemotleft" unicode="&#xab;" horiz-adv-x="1615" 
d="M838 164h-369l-363 405v9l363 405h369l-367 -405v-9zM1481 164h-367l-364 405v9l364 405h367l-367 -405v-9z" />
    <glyph glyph-name="logicalnot" unicode="&#xac;" horiz-adv-x="1298" 
d="M1147 135h-291v381h-723v256h1014v-637z" />
    <glyph glyph-name="registered" unicode="&#xae;" horiz-adv-x="1345" 
d="M672 717q-236 0 -391.5 130.5t-155.5 328.5q0 130 70.5 234.5t195.5 163t281 58.5q155 0 280.5 -59t196 -163.5t70.5 -233.5q0 -198 -155.5 -328.5t-391.5 -130.5zM672 827q181 0 299.5 99.5t118.5 249.5q0 149 -118.5 248.5t-299.5 99.5q-182 0 -301 -99t-119 -249
q0 -151 118.5 -250t301.5 -99zM600 936h-129v489h236q30 0 60.5 -5.5t68.5 -20t62 -49t24 -84.5q0 -62 -36.5 -98t-92.5 -50l147 -182h-141l-137 172h-62v-172zM600 1327v-121h92q88 0 88 62q0 31 -25.5 45t-62.5 14h-92z" />
    <glyph glyph-name="degree" unicode="&#xb0;" horiz-adv-x="890" 
d="M444 1044q-154 0 -256 87.5t-102 216.5q0 127 102.5 214t255.5 87t257 -88t104 -213q0 -127 -104 -215.5t-257 -88.5zM444 1225q69 0 115.5 36t46.5 87q0 50 -47 85t-115 35q-67 0 -114 -35t-47 -85q0 -51 47 -87t114 -36z" />
    <glyph glyph-name="plusminus" unicode="&#xb1;" horiz-adv-x="1363" 
d="M1219 872v-249h-396v-193h396v-250h-1074v250h387v193h-387v249h387v224h291v-224h396z" />
    <glyph glyph-name="uni00B2" unicode="&#xb2;" horiz-adv-x="886" 
d="M803 707h-713v36q0 154 61 241t234 183q9 5 38 19.5t46 24.5t33 27t16 34q0 18 -21.5 29.5t-58.5 11.5q-57 0 -90.5 -31t-34.5 -88l-260 37q0 148 112 236.5t281 88.5q157 0 262 -77t105 -201q0 -74 -44 -132t-116 -87q-8 -3 -32.5 -12.5t-36 -14t-33 -14.5t-33.5 -18
t-25.5 -19t-21.5 -23h332v-251z" />
    <glyph glyph-name="uni00B3" unicode="&#xb3;" horiz-adv-x="892" 
d="M428 686q-145 0 -254 55t-137 138l250 120q48 -86 141 -86q96 0 96 58q0 21 -9 34t-28.5 18t-32.5 6t-36 1h-8h-93v184h93q43 0 76.5 14.5t33.5 43.5q0 22 -26.5 38.5t-65.5 16.5q-44 0 -72.5 -24t-33.5 -64l-261 57q13 106 121.5 183t270.5 77q146 0 247 -61.5
t101 -163.5q0 -62 -39 -112.5t-100 -59.5v-2q66 -11 116.5 -64t50.5 -122q0 -49 -25 -97.5t-72 -91.5t-126.5 -69.5t-177.5 -26.5z" />
    <glyph glyph-name="paragraph" unicode="&#xb6;" horiz-adv-x="1949" 
d="M1143 -287h-373v942h-129q-254 0 -411.5 133.5t-157.5 346.5q0 201 162.5 331.5t453.5 130.5h455v-1884zM1720 -287h-372v1884h372v-1884z" />
    <glyph glyph-name="periodcentered" unicode="&#xb7;" horiz-adv-x="772" 
d="M387 477q-114 0 -193 76.5t-79 185.5q0 102 79.5 175t192.5 73q110 0 189 -73.5t79 -174.5q0 -109 -79 -185.5t-189 -76.5z" />
    <glyph glyph-name="uni00B9" unicode="&#xb9;" horiz-adv-x="651" 
d="M530 707h-282v440q-100 -60 -197 -82v293q93 30 146 80.5t53 101.5h280v-833z" />
    <glyph glyph-name="guillemotright" unicode="&#xbb;" horiz-adv-x="1615" 
d="M504 164h-369l367 405v9l-367 405h369l362 -405v-9zM1147 164h-369l369 405v9l-369 405h369l362 -405v-9z" />
    <glyph glyph-name="onequarter" unicode="&#xbc;" horiz-adv-x="2002" 
d="M530 707h-282v440q-100 -60 -197 -82v293q93 30 146 80.5t53 101.5h280v-833zM401 0h-329l1366 1468h321zM1833 -10h-272v135h-433v207l441 491h264v-475h111v-223h-111v-135zM1561 481l-164 -133h164v133z" />
    <glyph glyph-name="onehalf" unicode="&#xbd;" horiz-adv-x="2093" 
d="M530 707h-282v440q-100 -60 -197 -82v293q93 30 146 80.5t53 101.5h280v-833zM401 0h-329l1366 1468h321zM2009 -10h-713v37q0 154 61 241t234 183q9 5 37.5 19.5t46 24t33.5 26.5t16 34q0 18 -21 29.5t-58 11.5q-57 0 -90.5 -31t-34.5 -88l-260 37q0 149 112 237.5
t281 88.5q157 0 261.5 -77.5t104.5 -201.5q0 -74 -44 -132t-115 -87q-8 -3 -38.5 -14.5t-45 -18t-37.5 -18t-38 -23.5t-24 -26h332v-252z" />
    <glyph glyph-name="threequarters" unicode="&#xbe;" horiz-adv-x="2244" 
d="M428 686q-145 0 -254 55t-137 138l250 120q48 -86 141 -86q96 0 96 58q0 21 -9 34t-28.5 18t-32.5 6t-36 1h-8h-93v184h93q43 0 76.5 14.5t33.5 43.5q0 22 -26.5 38.5t-65.5 16.5q-44 0 -72.5 -24t-33.5 -64l-261 57q13 106 121.5 183t270.5 77q146 0 247 -61.5
t101 -163.5q0 -62 -39 -112.5t-100 -59.5v-2q66 -11 116.5 -64t50.5 -122q0 -49 -25 -97.5t-72 -91.5t-126.5 -69.5t-177.5 -26.5zM643 0h-330l1366 1468h322zM2075 -10h-273v135h-432v207l440 491h265v-475h110v-223h-110v-135zM1802 481l-164 -133h164v133z" />
    <glyph glyph-name="questiondown" unicode="&#xbf;" horiz-adv-x="1480" 
d="M793 764q-91 0 -157.5 60.5t-66.5 148.5q0 85 63.5 146t155.5 61t159 -62.5t67 -148.5q0 -85 -65 -145t-156 -60zM729 -465q-174 0 -320.5 55.5t-237.5 164.5t-91 251q0 60 18 112t44 88.5t69.5 73t79 58.5t88.5 51q43 23 64.5 35t54 31.5t47 32t33.5 30.5t25 34
t11.5 36.5t1.5 43t-14 48.5h389q12 -57 13 -104t-11.5 -87t-34.5 -72.5t-60 -63t-84.5 -57.5t-111.5 -56q-5 -2 -30.5 -13.5t-33 -15t-30 -14.5t-30 -16.5t-25.5 -17t-25 -19.5t-18.5 -21t-16 -25t-8.5 -27.5t-4 -31.5q0 -72 78.5 -120t196.5 -48q151 0 237 78.5t80 214.5
l340 -58q4 -175 -85.5 -306t-245 -198t-353.5 -67z" />
    <glyph glyph-name="Agrave" unicode="&#xc0;" horiz-adv-x="1894" 
d="M1139 1720h-322l-391 375h436zM393 0h-391l725 1597h440l725 -1597h-399l-178 365h-744zM739 719h408q-70 145 -201 438h-6q-131 -293 -201 -438z" />
    <glyph glyph-name="Aacute" unicode="&#xc1;" horiz-adv-x="1894" 
d="M1501 2095l-391 -375h-322l277 375h436zM393 0h-391l725 1597h440l725 -1597h-399l-178 365h-744zM739 719h408q-70 145 -201 438h-6q-131 -293 -201 -438z" />
    <glyph glyph-name="Acircumflex" unicode="&#xc2;" horiz-adv-x="1894" 
d="M1116 2095l350 -375h-329q-32 26 -95.5 74t-95.5 74q-34 -29 -99 -77.5t-93 -70.5h-330l350 375h342zM393 0h-391l725 1597h440l725 -1597h-399l-178 365h-744zM739 719h408q-70 145 -201 438h-6q-131 -293 -201 -438z" />
    <glyph glyph-name="Atilde" unicode="&#xc3;" horiz-adv-x="1894" 
d="M1130 1722q-103 0 -169 37l-70 39q-48 29 -96 29q-41 0 -63.5 -25t-22.5 -61h-252q0 156 90 250t227 94q96 0 184 -45l64 -33q29 -16 78 -16q33 0 51 21.5t18 58.5h254q0 -170 -76 -259.5t-217 -89.5zM393 0h-391l725 1597h440l725 -1597h-399l-178 365h-744zM739 719
h408q-70 145 -201 438h-6q-131 -293 -201 -438z" />
    <glyph glyph-name="Adieresis" unicode="&#xc4;" horiz-adv-x="1894" 
d="M662 1712q-90 0 -151.5 57.5t-61.5 143.5q0 80 62 136t151 56q88 0 149 -56t61 -136q0 -86 -61 -143.5t-149 -57.5zM1227 1712q-91 0 -153 57.5t-62 143.5q0 80 62.5 136t152.5 56q86 0 147.5 -56.5t61.5 -135.5q0 -85 -61 -143t-148 -58zM393 0h-391l725 1597h440
l725 -1597h-399l-178 365h-744zM739 719h408q-70 145 -201 438h-6q-131 -293 -201 -438z" />
    <glyph glyph-name="Aring" unicode="&#xc5;" horiz-adv-x="1894" 
d="M942 1708q-133 0 -225 76t-92 184q0 110 91.5 185t225.5 75q132 0 222.5 -74t90.5 -186t-90.5 -186t-222.5 -74zM942 1890q42 0 72 23.5t30 54.5q0 30 -30 53t-72 23q-46 0 -76 -23t-30 -53q0 -32 30 -55t76 -23zM393 0h-391l725 1597h440l725 -1597h-399l-178 365h-744z
M739 719h408q-70 145 -201 438h-6q-131 -293 -201 -438z" />
    <glyph glyph-name="AE" unicode="&#xc6;" horiz-adv-x="2621" 
d="M346 0h-420l1075 1597h1481v-335h-878v-279h829v-352h-829v-295h903v-336h-1280v350h-609q-127 -162 -272 -350zM823 707h404v555h-4z" />
    <glyph glyph-name="Ccedilla" unicode="&#xc7;" horiz-adv-x="2041" 
d="M1669 657l350 -114q-55 -146 -142.5 -255.5t-199.5 -177t-239 -102.5t-275 -41l-51 -55q24 4 53 4q108 0 180 -57t72 -154q0 -107 -95.5 -171t-248.5 -64q-113 0 -203 35.5t-145 99.5l113 133q83 -98 225 -98q56 0 89.5 17.5t33.5 51.5q0 33 -33.5 52.5t-85.5 19.5
q-61 0 -106 -31l-109 74l117 147q-256 21 -453 129t-308.5 291.5t-111.5 415.5q0 159 53.5 294.5t146 231.5t216.5 164t266.5 100.5t294.5 32.5q306 0 542.5 -141.5t338.5 -372.5l-348 -135q-77 137 -213.5 222t-325.5 85q-251 0 -414.5 -138t-163.5 -362q0 -105 36.5 -189
t96.5 -137.5t140.5 -89t163 -50.5t170.5 -15q207 0 355 85.5t218 264.5z" />
    <glyph glyph-name="Egrave" unicode="&#xc8;" horiz-adv-x="1593" 
d="M1024 1720h-322l-391 375h437zM1479 0h-1280v1597h1255v-335h-879v-277h830v-354h-830v-295h904v-336z" />
    <glyph glyph-name="Eacute" unicode="&#xc9;" horiz-adv-x="1593" 
d="M1386 2095l-391 -375h-321l276 375h436zM1479 0h-1280v1597h1255v-335h-879v-277h830v-354h-830v-295h904v-336z" />
    <glyph glyph-name="Ecircumflex" unicode="&#xca;" horiz-adv-x="1593" 
d="M1001 2095l351 -375h-330q-32 26 -95.5 74t-95.5 74q-34 -29 -99 -77.5t-93 -70.5h-330l350 375h342zM1479 0h-1280v1597h1255v-335h-879v-277h830v-354h-830v-295h904v-336z" />
    <glyph glyph-name="Edieresis" unicode="&#xcb;" horiz-adv-x="1593" 
d="M547 1712q-90 0 -151.5 57.5t-61.5 143.5q0 80 62 136t151 56q88 0 149.5 -56t61.5 -136q0 -86 -61.5 -143.5t-149.5 -57.5zM1112 1712q-91 0 -153 57.5t-62 143.5q0 80 62.5 136t152.5 56q86 0 147.5 -56.5t61.5 -135.5q0 -85 -61 -143t-148 -58zM1479 0h-1280v1597
h1255v-335h-879v-277h830v-354h-830v-295h904v-336z" />
    <glyph glyph-name="Igrave" unicode="&#xcc;" horiz-adv-x="774" 
d="M578 1720h-322l-391 375h436zM575 0h-376v1597h376v-1597z" />
    <glyph glyph-name="Iacute" unicode="&#xcd;" horiz-adv-x="774" 
d="M940 2095l-391 -375h-322l277 375h436zM575 0h-376v1597h376v-1597z" />
    <glyph glyph-name="Icircumflex" unicode="&#xce;" horiz-adv-x="774" 
d="M555 2095l350 -375h-330q-32 26 -95 74t-95 74q-34 -29 -99 -77.5t-93 -70.5h-330l350 375h342zM575 0h-376v1597h376v-1597z" />
    <glyph glyph-name="Idieresis" unicode="&#xcf;" horiz-adv-x="774" 
d="M100 1712q-90 0 -151.5 57.5t-61.5 143.5q0 80 62 136t151 56q88 0 149.5 -56t61.5 -136q0 -86 -61.5 -143.5t-149.5 -57.5zM666 1712q-91 0 -153 57.5t-62 143.5q0 80 62.5 136t152.5 56q86 0 147 -56t61 -136q0 -86 -60.5 -143.5t-147.5 -57.5zM575 0h-376v1597h376
v-1597z" />
    <glyph glyph-name="Eth" unicode="&#xd0;" horiz-adv-x="1949" 
d="M199 1597h743q187 0 339.5 -40.5t257 -112t176 -171.5t104 -216t32.5 -248q0 -178 -60.5 -327t-173 -256t-280 -166.5t-372.5 -59.5h-766v653h-252v289h252v655zM920 336q88 0 158.5 9.5t144 39t122.5 78.5t80 133t31 197q0 76 -14 139.5t-34 109t-56.5 81.5t-68.5 59
t-83 39t-86 24t-92.5 12t-88 4.5t-85.5 0.5h-273v-320h394v-289h-394v-317h345z" />
    <glyph glyph-name="Ntilde" unicode="&#xd1;" horiz-adv-x="2000" 
d="M1174 1714q-104 0 -170 37l-70 39q-48 29 -96 29q-41 0 -63.5 -25t-22.5 -61h-252q0 156 90 250t227 94q96 0 184 -45l64 -33q31 -17 78 -17q33 0 51 21.5t18 58.5h254q0 -170 -75.5 -259t-216.5 -89zM575 0h-376v1597h391q63 -71 200 -225t219 -246.5t199 -227.5
t213 -251h6v950h375v-1597h-389q-95 107 -262 289t-307 338.5t-262 300.5h-7v-928z" />
    <glyph glyph-name="Ograve" unicode="&#xd2;" horiz-adv-x="2129" 
d="M1255 1720h-321l-391 375h436zM1065 -35q-198 0 -376 61t-309.5 168.5t-208.5 264t-77 338.5t76.5 338.5t208 264.5t309.5 169t377 61q200 0 378.5 -61.5t309.5 -170t207 -264.5t76 -337q0 -179 -76 -335t-206.5 -264.5t-309 -170.5t-379.5 -62zM1067 307
q161 0 291.5 63.5t205 176t74.5 250.5q0 206 -162.5 348.5t-408.5 142.5q-120 0 -226.5 -37t-184 -101.5t-122.5 -156t-45 -196.5q0 -142 78 -255t209.5 -174t290.5 -61z" />
    <glyph glyph-name="Oacute" unicode="&#xd3;" horiz-adv-x="2129" 
d="M1618 2095l-391 -375h-322l277 375h436zM1065 -35q-198 0 -376 61t-309.5 168.5t-208.5 264t-77 338.5t76.5 338.5t208 264.5t309.5 169t377 61q200 0 378.5 -61.5t309.5 -170t207 -264.5t76 -337q0 -179 -76 -335t-206.5 -264.5t-309 -170.5t-379.5 -62zM1067 307
q161 0 291.5 63.5t205 176t74.5 250.5q0 206 -162.5 348.5t-408.5 142.5q-120 0 -226.5 -37t-184 -101.5t-122.5 -156t-45 -196.5q0 -142 78 -255t209.5 -174t290.5 -61z" />
    <glyph glyph-name="Ocircumflex" unicode="&#xd4;" horiz-adv-x="2129" 
d="M1233 2095l350 -375h-330q-32 26 -95 74t-95 74q-34 -29 -99.5 -77t-93.5 -71h-329l350 375h342zM1065 -35q-198 0 -376 61t-309.5 168.5t-208.5 264t-77 338.5t76.5 338.5t208 264.5t309.5 169t377 61q200 0 378.5 -61.5t309.5 -170t207 -264.5t76 -337q0 -179 -76 -335
t-206.5 -264.5t-309 -170.5t-379.5 -62zM1067 307q161 0 291.5 63.5t205 176t74.5 250.5q0 206 -162.5 348.5t-408.5 142.5q-120 0 -226.5 -37t-184 -101.5t-122.5 -156t-45 -196.5q0 -142 78 -255t209.5 -174t290.5 -61z" />
    <glyph glyph-name="Otilde" unicode="&#xd5;" horiz-adv-x="2129" 
d="M1255 1714q-104 0 -170 37l-69 39q-48 29 -96 29q-41 0 -63.5 -25t-22.5 -61h-252q0 156 90 250t227 94q96 0 184 -45l64 -33q31 -17 78 -17q33 0 51 21.5t18 58.5h254q0 -170 -76 -259t-217 -89zM1065 -35q-198 0 -376 61t-309.5 168.5t-208.5 264t-77 338.5t76.5 338.5
t208 264.5t309.5 169t377 61q200 0 378.5 -61.5t309.5 -170t207 -264.5t76 -337q0 -179 -76 -335t-206.5 -264.5t-309 -170.5t-379.5 -62zM1067 307q161 0 291.5 63.5t205 176t74.5 250.5q0 206 -162.5 348.5t-408.5 142.5q-120 0 -226.5 -37t-184 -101.5t-122.5 -156
t-45 -196.5q0 -142 78 -255t209.5 -174t290.5 -61z" />
    <glyph glyph-name="Odieresis" unicode="&#xd6;" horiz-adv-x="2129" 
d="M778 1712q-90 0 -151.5 57.5t-61.5 143.5q0 80 62 136t151 56q88 0 149.5 -56t61.5 -136q0 -86 -61.5 -143.5t-149.5 -57.5zM1343 1712q-91 0 -153 57.5t-62 143.5q0 80 62.5 136t152.5 56q86 0 147.5 -56.5t61.5 -135.5q0 -85 -61 -143t-148 -58zM1065 -35
q-198 0 -376 61t-309.5 168.5t-208.5 264t-77 338.5t76.5 338.5t208 264.5t309.5 169t377 61q200 0 378.5 -61.5t309.5 -170t207 -264.5t76 -337q0 -179 -76 -335t-206.5 -264.5t-309 -170.5t-379.5 -62zM1067 307q161 0 291.5 63.5t205 176t74.5 250.5q0 206 -162.5 348.5
t-408.5 142.5q-120 0 -226.5 -37t-184 -101.5t-122.5 -156t-45 -196.5q0 -142 78 -255t209.5 -174t290.5 -61z" />
    <glyph glyph-name="multiply" unicode="&#xd7;" horiz-adv-x="1234" 
d="M430 623l-315 272l190 182l318 -272l307 266l190 -182l-307 -266l307 -265l-192 -180l-305 264l-314 -272l-192 180z" />
    <glyph glyph-name="Oslash" unicode="&#xd8;" horiz-adv-x="2129" 
d="M1944 1661l-207 -250q142 -116 220.5 -272.5t78.5 -341.5q0 -179 -76 -335t-206.5 -264.5t-309 -170.5t-379.5 -62q-236 0 -444 86l-97 -117h-350l211 256q-138 113 -214.5 268t-76.5 339q0 182 76.5 338.5t208 264.5t309.5 169t377 61q231 0 434 -82l92 113h353z
M489 797q0 -185 132 -320l643 785q-99 26 -197 26q-120 0 -226.5 -37t-184 -101.5t-122.5 -156t-45 -196.5zM1067 307q161 0 291.5 63.5t205 176t74.5 250.5q0 188 -137 325l-645 -784q102 -31 211 -31z" />
    <glyph glyph-name="Ugrave" unicode="&#xd9;" horiz-adv-x="1830" 
d="M1112 1720h-321l-392 375h437zM913 -35q-133 0 -242.5 25.5t-183.5 67t-131 100.5t-89.5 119t-53 129.5t-27 125.5t-6.5 113v952h377v-921q0 -60 10.5 -111.5t36.5 -100t65.5 -82.5t102.5 -54.5t143 -20.5q99 0 171 30t112 83t58 116t18 140v921h377v-952
q0 -58 -6.5 -113.5t-26.5 -125.5t-52 -130t-89.5 -118.5t-132.5 -100t-185.5 -67t-245.5 -25.5z" />
    <glyph glyph-name="Uacute" unicode="&#xda;" horiz-adv-x="1830" 
d="M1475 2095l-392 -375h-321l276 375h437zM913 -35q-133 0 -242.5 25.5t-183.5 67t-131 100.5t-89.5 119t-53 129.5t-27 125.5t-6.5 113v952h377v-921q0 -60 10.5 -111.5t36.5 -100t65.5 -82.5t102.5 -54.5t143 -20.5q99 0 171 30t112 83t58 116t18 140v921h377v-952
q0 -58 -6.5 -113.5t-26.5 -125.5t-52 -130t-89.5 -118.5t-132.5 -100t-185.5 -67t-245.5 -25.5z" />
    <glyph glyph-name="Ucircumflex" unicode="&#xdb;" horiz-adv-x="1830" 
d="M1090 2095l350 -375h-330q-32 26 -95 74t-95 74q-34 -29 -99.5 -77t-93.5 -71h-330l351 375h342zM913 -35q-133 0 -242.5 25.5t-183.5 67t-131 100.5t-89.5 119t-53 129.5t-27 125.5t-6.5 113v952h377v-921q0 -60 10.5 -111.5t36.5 -100t65.5 -82.5t102.5 -54.5
t143 -20.5q99 0 171 30t112 83t58 116t18 140v921h377v-952q0 -58 -6.5 -113.5t-26.5 -125.5t-52 -130t-89.5 -118.5t-132.5 -100t-185.5 -67t-245.5 -25.5z" />
    <glyph glyph-name="Udieresis" unicode="&#xdc;" horiz-adv-x="1830" 
d="M635 1712q-90 0 -151.5 57.5t-61.5 143.5q0 80 62 136t151 56q88 0 149.5 -56t61.5 -136q0 -86 -61.5 -143.5t-149.5 -57.5zM1200 1712q-91 0 -153 57.5t-62 143.5q0 80 62.5 136t152.5 56q86 0 147.5 -56.5t61.5 -135.5q0 -85 -61 -143t-148 -58zM913 -35
q-133 0 -242.5 25.5t-183.5 67t-131 100.5t-89.5 119t-53 129.5t-27 125.5t-6.5 113v952h377v-921q0 -60 10.5 -111.5t36.5 -100t65.5 -82.5t102.5 -54.5t143 -20.5q99 0 171 30t112 83t58 116t18 140v921h377v-952q0 -58 -6.5 -113.5t-26.5 -125.5t-52 -130t-89.5 -118.5
t-132.5 -100t-185.5 -67t-245.5 -25.5z" />
    <glyph glyph-name="Yacute" unicode="&#xdd;" horiz-adv-x="1726" 
d="M1278 2095l-391 -375h-322l277 375h436zM1051 0h-375v535q-589 929 -670 1062h404q76 -117 225 -350.5t225 -349.5h4q27 42 451 700h403q-112 -176 -334 -529t-333 -529v-539z" />
    <glyph glyph-name="Thorn" unicode="&#xde;" horiz-adv-x="1693" 
d="M575 0h-376v1597h376v-266h367q36 0 61 -0.5t80 -5.5t96.5 -13.5t99.5 -26.5t100.5 -43t88.5 -65t75 -90.5t48 -121t19 -154.5q0 -108 -31 -195t-77 -142t-113 -95.5t-125.5 -60.5t-128.5 -32t-108.5 -14t-78.5 -2h-373v-270zM575 995v-370h297q39 0 60.5 0.5t62.5 4
t66.5 10t57.5 20.5t50.5 33.5t31.5 50t13 69.5q0 38 -13 67.5t-31 48.5t-49.5 32t-56.5 19.5t-65 10t-61.5 4t-58.5 0.5h-304z" />
    <glyph glyph-name="germandbls" unicode="&#xdf;" horiz-adv-x="1646" 
d="M520 0h-354v967q0 76 9 146t31 141.5t56 132.5t87 114.5t121 91t161.5 59t204.5 21.5q149 0 273 -39.5t206 -108t127 -159t45 -192.5q0 -137 -86 -234.5t-223 -124.5v-8q165 -12 278 -116.5t113 -264.5q0 -64 -21.5 -122.5t-73 -115t-128.5 -97.5t-197.5 -66t-271.5 -25
h-181v311h232q125 0 196.5 43.5t71.5 106.5q0 67 -74 108t-188 41h-137v312h82q103 0 174 55.5t71 152.5q0 104 -80 165t-217 61q-61 0 -110.5 -16.5t-80.5 -42t-54.5 -61t-34.5 -67t-18 -67.5t-8 -55t-1 -37v-1010z" />
    <glyph glyph-name="agrave" unicode="&#xe0;" horiz-adv-x="1439" 
d="M895 1278h-307l-373 375h416zM549 -35q-93 0 -176 21.5t-149 63.5t-105 110.5t-39 154.5q0 65 24 117t62 86.5t97.5 61.5t117.5 43t135 30l90 15l87 14.5t74.5 14t66 17t48 20.5t34 27.5t10.5 35.5q0 46 -57.5 76t-151.5 30q-207 0 -264 -160l-332 107q31 89 93 155
t144 103t172.5 54.5t192.5 17.5q267 0 414 -110.5t147 -305.5v-406q0 -129 10 -205t33 -153h-352q-25 49 -25 119h-6q-53 -72 -160 -113t-235 -41zM645 225q126 0 204.5 58t78.5 139v74q-112 -29 -269 -60q-40 -8 -68 -16t-59.5 -21.5t-48 -33.5t-16.5 -46q0 -45 49.5 -69.5
t128.5 -24.5z" />
    <glyph glyph-name="aacute" unicode="&#xe1;" horiz-adv-x="1439" 
d="M1233 1653l-373 -375h-307l264 375h416zM549 -35q-93 0 -176 21.5t-149 63.5t-105 110.5t-39 154.5q0 65 24 117t62 86.5t97.5 61.5t117.5 43t135 30l90 15l87 14.5t74.5 14t66 17t48 20.5t34 27.5t10.5 35.5q0 46 -57.5 76t-151.5 30q-207 0 -264 -160l-332 107
q31 89 93 155t144 103t172.5 54.5t192.5 17.5q267 0 414 -110.5t147 -305.5v-406q0 -129 10 -205t33 -153h-352q-25 49 -25 119h-6q-53 -72 -160 -113t-235 -41zM645 225q126 0 204.5 58t78.5 139v74q-112 -29 -269 -60q-40 -8 -68 -16t-59.5 -21.5t-48 -33.5t-16.5 -46
q0 -45 49.5 -69.5t128.5 -24.5z" />
    <glyph glyph-name="acircumflex" unicode="&#xe2;" horiz-adv-x="1439" 
d="M530 1278h-333l354 375h358l357 -375h-334l-201 172q-34 -29 -100.5 -86t-100.5 -86zM549 -35q-93 0 -176 21.5t-149 63.5t-105 110.5t-39 154.5q0 65 24 117t62 86.5t97.5 61.5t117.5 43t135 30l90 15l87 14.5t74.5 14t66 17t48 20.5t34 27.5t10.5 35.5q0 46 -57.5 76
t-151.5 30q-207 0 -264 -160l-332 107q31 89 93 155t144 103t172.5 54.5t192.5 17.5q267 0 414 -110.5t147 -305.5v-406q0 -129 10 -205t33 -153h-352q-25 49 -25 119h-6q-53 -72 -160 -113t-235 -41zM645 225q126 0 204.5 58t78.5 139v74q-112 -29 -269 -60q-40 -8 -68 -16
t-59.5 -21.5t-48 -33.5t-16.5 -46q0 -45 49.5 -69.5t128.5 -24.5z" />
    <glyph glyph-name="atilde" unicode="&#xe3;" horiz-adv-x="1439" 
d="M928 1264q-106 0 -170 36l-70 39q-48 29 -96 29q-41 0 -63.5 -25t-22.5 -61h-252q0 156 90 250t227 94q97 0 185 -45l63 -33q29 -16 78 -16q33 0 51.5 21.5t18.5 58.5h254q0 -170 -76 -259t-217 -89zM549 -35q-93 0 -176 21.5t-149 63.5t-105 110.5t-39 154.5
q0 65 24 117t62 86.5t97.5 61.5t117.5 43t135 30l90 15l87 14.5t74.5 14t66 17t48 20.5t34 27.5t10.5 35.5q0 46 -57.5 76t-151.5 30q-207 0 -264 -160l-332 107q31 89 93 155t144 103t172.5 54.5t192.5 17.5q267 0 414 -110.5t147 -305.5v-406q0 -129 10 -205t33 -153h-352
q-25 49 -25 119h-6q-53 -72 -160 -113t-235 -41zM645 225q126 0 204.5 58t78.5 139v74q-112 -29 -269 -60q-40 -8 -68 -16t-59.5 -21.5t-48 -33.5t-16.5 -46q0 -45 49.5 -69.5t128.5 -24.5z" />
    <glyph glyph-name="adieresis" unicode="&#xe4;" horiz-adv-x="1439" 
d="M451 1276q-83 0 -141 54t-58 132q0 73 58 125.5t141 52.5q82 0 139 -52.5t57 -125.5q0 -78 -56.5 -132t-139.5 -54zM1014 1276q-84 0 -141.5 54t-57.5 132q0 73 57.5 125.5t141.5 52.5q81 0 138.5 -52.5t57.5 -125.5q0 -78 -57 -132t-139 -54zM549 -35q-93 0 -176 21.5
t-149 63.5t-105 110.5t-39 154.5q0 65 24 117t62 86.5t97.5 61.5t117.5 43t135 30l90 15l87 14.5t74.5 14t66 17t48 20.5t34 27.5t10.5 35.5q0 46 -57.5 76t-151.5 30q-207 0 -264 -160l-332 107q31 89 93 155t144 103t172.5 54.5t192.5 17.5q267 0 414 -110.5t147 -305.5
v-406q0 -129 10 -205t33 -153h-352q-25 49 -25 119h-6q-53 -72 -160 -113t-235 -41zM645 225q126 0 204.5 58t78.5 139v74q-112 -29 -269 -60q-40 -8 -68 -16t-59.5 -21.5t-48 -33.5t-16.5 -46q0 -45 49.5 -69.5t128.5 -24.5z" />
    <glyph glyph-name="aring" unicode="&#xe5;" horiz-adv-x="1439" 
d="M731 1257q-133 0 -225 76.5t-92 184.5q0 110 91.5 185t225.5 75q132 0 222.5 -74t90.5 -186t-90.5 -186.5t-222.5 -74.5zM731 1440q42 0 72.5 23.5t30.5 54.5q0 30 -30.5 52.5t-72.5 22.5q-46 0 -76 -22.5t-30 -52.5q0 -32 30 -55t76 -23zM549 -35q-93 0 -176 21.5
t-149 63.5t-105 110.5t-39 154.5q0 65 24 117t62 86.5t97.5 61.5t117.5 43t135 30l90 15l87 14.5t74.5 14t66 17t48 20.5t34 27.5t10.5 35.5q0 46 -57.5 76t-151.5 30q-207 0 -264 -160l-332 107q31 89 93 155t144 103t172.5 54.5t192.5 17.5q267 0 414 -110.5t147 -305.5
v-406q0 -129 10 -205t33 -153h-352q-25 49 -25 119h-6q-53 -72 -160 -113t-235 -41zM645 225q126 0 204.5 58t78.5 139v74q-112 -29 -269 -60q-40 -8 -68 -16t-59.5 -21.5t-48 -33.5t-16.5 -46q0 -45 49.5 -69.5t128.5 -24.5z" />
    <glyph glyph-name="ae" unicode="&#xe6;" horiz-adv-x="2387" 
d="M555 -35q-131 0 -236.5 37.5t-172 118t-66.5 192.5q0 52 15 95.5t38 74.5t60.5 57.5t72 43t82.5 31t83.5 22.5t82.5 16q38 7 94.5 16t89 14.5t74.5 13.5t65.5 16.5t46 20t32.5 27t10 34.5q0 44 -59 76t-150 32q-93 0 -163 -40t-101 -120l-332 107q41 113 136.5 189.5
t213.5 108.5t258 32q144 0 259.5 -30t182.5 -87q182 117 459 117q107 0 205.5 -25.5t183 -77.5t147.5 -125.5t98.5 -175.5t35.5 -221v-84h-1012q21 -91 122 -144t235 -53q109 0 194.5 34.5t126.5 107.5l334 -131q-72 -136 -244.5 -228t-404.5 -92q-182 0 -333.5 51.5
t-244.5 147.5h-6q-188 -199 -512 -199zM1296 713h637q-19 63 -71 103.5t-112.5 55.5t-131.5 15q-117 0 -203 -45.5t-119 -128.5zM641 225q130 0 208.5 60.5t78.5 136.5v70q-145 -34 -238 -46q-98 -14 -160.5 -46.5t-62.5 -75.5q0 -52 48 -75.5t126 -23.5z" />
    <glyph glyph-name="ccedilla" unicode="&#xe7;" horiz-adv-x="1501" 
d="M1130 465l332 -131q-69 -161 -233.5 -259.5t-382.5 -107.5l-51 -55q24 4 53 4q108 0 180 -57t72 -154q0 -107 -95.5 -171t-248.5 -64q-113 0 -203 35.5t-145 99.5l112 133q83 -98 225 -98q56 0 89.5 17.5t33.5 51.5q0 33 -33 52.5t-85 19.5q-62 0 -107 -31l-108 74
l118 151q-256 36 -413.5 194t-157.5 402q0 184 93 324t252 212.5t359 72.5q223 0 397.5 -100t246.5 -269l-332 -131q-25 62 -76 101.5t-109.5 55t-128.5 15.5q-149 0 -242 -79.5t-93 -199.5q0 -128 101 -204t249 -76q243 0 331 172z" />
    <glyph glyph-name="egrave" unicode="&#xe8;" horiz-adv-x="1521" 
d="M932 1278h-307l-373 375h416zM797 -35q-203 0 -365 73t-256 211t-94 318q0 173 87.5 313t245.5 220t355 80q131 0 250 -41t211.5 -117.5t147.5 -197.5t55 -269v-82h-998q22 -98 120.5 -149.5t236.5 -51.5q105 0 188 35.5t125 108.5l332 -131q-72 -136 -242.5 -228
t-398.5 -92zM453 698h624q-19 95 -104 143t-205 48q-124 0 -205 -52t-110 -139z" />
    <glyph glyph-name="eacute" unicode="&#xe9;" horiz-adv-x="1521" 
d="M1270 1653l-373 -375h-307l264 375h416zM797 -35q-203 0 -365 73t-256 211t-94 318q0 173 87.5 313t245.5 220t355 80q131 0 250 -41t211.5 -117.5t147.5 -197.5t55 -269v-82h-998q22 -98 120.5 -149.5t236.5 -51.5q105 0 188 35.5t125 108.5l332 -131
q-72 -136 -242.5 -228t-398.5 -92zM453 698h624q-19 95 -104 143t-205 48q-124 0 -205 -52t-110 -139z" />
    <glyph glyph-name="ecircumflex" unicode="&#xea;" horiz-adv-x="1521" 
d="M567 1278h-334l355 375h358l357 -375h-334l-201 172q-34 -29 -100.5 -86t-100.5 -86zM797 -35q-203 0 -365 73t-256 211t-94 318q0 173 87.5 313t245.5 220t355 80q131 0 250 -41t211.5 -117.5t147.5 -197.5t55 -269v-82h-998q22 -98 120.5 -149.5t236.5 -51.5
q105 0 188 35.5t125 108.5l332 -131q-72 -136 -242.5 -228t-398.5 -92zM453 698h624q-19 95 -104 143t-205 48q-124 0 -205 -52t-110 -139z" />
    <glyph glyph-name="edieresis" unicode="&#xeb;" horiz-adv-x="1521" 
d="M487 1276q-83 0 -140.5 54t-57.5 132q0 73 57.5 125.5t140.5 52.5q82 0 139.5 -52.5t57.5 -125.5q0 -78 -57 -132t-140 -54zM1051 1276q-84 0 -141.5 54t-57.5 132q0 73 57.5 125.5t141.5 52.5q81 0 138.5 -52.5t57.5 -125.5q0 -78 -57 -132t-139 -54zM797 -35
q-203 0 -365 73t-256 211t-94 318q0 173 87.5 313t245.5 220t355 80q131 0 250 -41t211.5 -117.5t147.5 -197.5t55 -269v-82h-998q22 -98 120.5 -149.5t236.5 -51.5q105 0 188 35.5t125 108.5l332 -131q-72 -136 -242.5 -228t-398.5 -92zM453 698h624q-19 95 -104 143
t-205 48q-124 0 -205 -52t-110 -139z" />
    <glyph glyph-name="igrave" unicode="&#xec;" horiz-adv-x="686" 
d="M508 1257h-307l-373 375h416zM520 0h-354v1147h354v-1147z" />
    <glyph glyph-name="iacute" unicode="&#xed;" horiz-adv-x="686" 
d="M846 1632l-373 -375h-307l264 375h416zM520 0h-354v1147h354v-1147z" />
    <glyph glyph-name="icircumflex" unicode="&#xee;" horiz-adv-x="686" 
d="M143 1257h-333l354 375h358l357 -375h-334l-201 173q-34 -29 -100.5 -87t-100.5 -86zM520 0h-354v1147h354v-1147z" />
    <glyph glyph-name="idieresis" unicode="&#xef;" horiz-adv-x="686" 
d="M63 1255q-83 0 -140.5 54.5t-57.5 132.5q0 73 57.5 125.5t140.5 52.5q82 0 139.5 -52.5t57.5 -125.5q0 -78 -57 -132.5t-140 -54.5zM627 1255q-84 0 -141.5 54.5t-57.5 132.5q0 73 57.5 125.5t141.5 52.5q81 0 138.5 -52.5t57.5 -125.5q0 -78 -57 -132.5t-139 -54.5z
M520 0h-354v1147h354v-1147z" />
    <glyph glyph-name="eth" unicode="&#xf0;" horiz-adv-x="1622" 
d="M1288 1497l-139 -67q377 -289 377 -728q0 -160 -50.5 -295t-144 -233t-234 -153.5t-313.5 -55.5q-157 0 -289.5 43.5t-223.5 119t-142 180t-51 224.5q0 160 90 282.5t239 185.5t330 63q122 0 216 -30t182 -101h4q-72 188 -310 344l-299 -143l-98 155l203 98
q-148 68 -299 107l94 262q315 -85 537 -209l215 105zM780 281q146 0 241 67.5t95 171.5q0 107 -95 174.5t-241 67.5q-148 0 -242 -68t-94 -174q0 -105 93.5 -172t242.5 -67z" />
    <glyph glyph-name="ntilde" unicode="&#xf1;" horiz-adv-x="1572" 
d="M975 1264q-106 0 -170 36l-70 39q-48 29 -96 29q-41 0 -63.5 -25t-22.5 -61h-252q0 156 90 250t227 94q97 0 185 -45l63 -33q29 -16 78 -16q33 0 51.5 21.5t18.5 58.5h254q0 -170 -76 -259t-217 -89zM520 0h-354v1147h350v-150h4q73 90 185 136.5t239 46.5
q96 0 181 -29.5t151.5 -84.5t105.5 -143.5t39 -197.5v-725h-354v573q0 35 -5.5 69t-22.5 73t-43.5 68.5t-73.5 49t-107 19.5q-295 0 -295 -279v-573z" />
    <glyph glyph-name="ograve" unicode="&#xf2;" horiz-adv-x="1583" 
d="M956 1278h-307l-373 375h416zM793 -35q-207 0 -369 76.5t-252 214.5t-90 315q0 267 199 438t512 171q205 0 367 -77.5t251.5 -216.5t89.5 -315q0 -177 -90 -315t-251 -214.5t-367 -76.5zM793 293q150 0 245 78t95 200q0 125 -94.5 203t-245.5 78t-246.5 -79t-95.5 -202
q0 -122 96 -200t246 -78z" />
    <glyph glyph-name="oacute" unicode="&#xf3;" horiz-adv-x="1583" 
d="M1294 1653l-372 -375h-308l265 375h415zM793 -35q-207 0 -369 76.5t-252 214.5t-90 315q0 267 199 438t512 171q205 0 367 -77.5t251.5 -216.5t89.5 -315q0 -177 -90 -315t-251 -214.5t-367 -76.5zM793 293q150 0 245 78t95 200q0 125 -94.5 203t-245.5 78t-246.5 -79
t-95.5 -202q0 -122 96 -200t246 -78z" />
    <glyph glyph-name="ocircumflex" unicode="&#xf4;" horiz-adv-x="1583" 
d="M592 1278h-334l354 375h359l356 -375h-334l-200 172q-34 -29 -100.5 -86t-100.5 -86zM793 -35q-207 0 -369 76.5t-252 214.5t-90 315q0 267 199 438t512 171q205 0 367 -77.5t251.5 -216.5t89.5 -315q0 -177 -90 -315t-251 -214.5t-367 -76.5zM793 293q150 0 245 78
t95 200q0 125 -94.5 203t-245.5 78t-246.5 -79t-95.5 -202q0 -122 96 -200t246 -78z" />
    <glyph glyph-name="otilde" unicode="&#xf5;" horiz-adv-x="1583" 
d="M989 1264q-106 0 -170 36l-69 39q-17 10 -46 19.5t-51 9.5q-41 0 -63.5 -25t-22.5 -61h-252q0 156 90.5 250t227.5 94q96 0 184 -45l64 -33q29 -16 77 -16q33 0 51.5 21.5t18.5 58.5h254q0 -170 -76 -259t-217 -89zM793 -35q-207 0 -369 76.5t-252 214.5t-90 315
q0 267 199 438t512 171q205 0 367 -77.5t251.5 -216.5t89.5 -315q0 -177 -90 -315t-251 -214.5t-367 -76.5zM793 293q150 0 245 78t95 200q0 125 -94.5 203t-245.5 78t-246.5 -79t-95.5 -202q0 -122 96 -200t246 -78z" />
    <glyph glyph-name="odieresis" unicode="&#xf6;" horiz-adv-x="1583" 
d="M512 1276q-83 0 -141 54t-58 132q0 73 58 125.5t141 52.5q82 0 139.5 -52.5t57.5 -125.5q0 -78 -57 -132t-140 -54zM1075 1276q-84 0 -141 54t-57 132q0 73 57 125.5t141 52.5q81 0 139 -53t58 -125q0 -78 -57.5 -132t-139.5 -54zM793 -35q-207 0 -369 76.5t-252 214.5
t-90 315q0 267 199 438t512 171q205 0 367 -77.5t251.5 -216.5t89.5 -315q0 -177 -90 -315t-251 -214.5t-367 -76.5zM793 293q150 0 245 78t95 200q0 125 -94.5 203t-245.5 78t-246.5 -79t-95.5 -202q0 -122 96 -200t246 -78z" />
    <glyph glyph-name="divide" unicode="&#xf7;" horiz-adv-x="1343" 
d="M672 870q-76 0 -131.5 52.5t-55.5 124.5q0 71 54.5 120.5t132.5 49.5t133 -50.5t55 -122.5t-55.5 -123t-132.5 -51zM1219 500h-1094v256h1094v-256zM672 41q-76 0 -131.5 52t-55.5 124q0 71 54.5 120.5t132.5 49.5t133 -50t55 -122t-55.5 -123t-132.5 -51z" />
    <glyph glyph-name="oslash" unicode="&#xf8;" horiz-adv-x="1583" 
d="M1165 1190h375l-197 -219q158 -164 158 -400q0 -177 -90 -315t-251 -214.5t-367 -76.5q-170 0 -304 49l-63 -71h-383l203 225q-164 161 -164 403q0 267 199 438t512 171q174 0 313 -56zM451 571q0 -77 36 -133l371 410q-40 4 -65 4q-151 0 -246.5 -79t-95.5 -202z
M1133 571q0 70 -31 127l-361 -403q16 -2 52 -2q150 0 245 78t95 200z" />
    <glyph glyph-name="ugrave" unicode="&#xf9;" horiz-adv-x="1550" 
d="M940 1278h-307l-373 375h416zM647 -35q-231 0 -363 122t-132 341v719h354v-604q0 -106 63.5 -178t180.5 -72q129 0 203.5 67t74.5 183v604h354v-789q0 -131 11 -205.5t34 -152.5h-354q-26 91 -24 115h-5q-136 -150 -397 -150z" />
    <glyph glyph-name="uacute" unicode="&#xfa;" horiz-adv-x="1550" 
d="M1278 1653l-373 -375h-307l264 375h416zM647 -35q-231 0 -363 122t-132 341v719h354v-604q0 -106 63.5 -178t180.5 -72q129 0 203.5 67t74.5 183v604h354v-789q0 -131 11 -205.5t34 -152.5h-354q-26 91 -24 115h-5q-136 -150 -397 -150z" />
    <glyph glyph-name="ucircumflex" unicode="&#xfb;" horiz-adv-x="1550" 
d="M575 1278h-333l354 375h358l357 -375h-334l-201 172q-34 -29 -100.5 -86t-100.5 -86zM647 -35q-231 0 -363 122t-132 341v719h354v-604q0 -106 63.5 -178t180.5 -72q129 0 203.5 67t74.5 183v604h354v-789q0 -131 11 -205.5t34 -152.5h-354q-26 91 -24 115h-5
q-136 -150 -397 -150z" />
    <glyph glyph-name="udieresis" unicode="&#xfc;" horiz-adv-x="1550" 
d="M496 1276q-83 0 -141 54t-58 132q0 73 58 125.5t141 52.5q82 0 139 -52.5t57 -125.5q0 -78 -56.5 -132t-139.5 -54zM1059 1276q-84 0 -141.5 54t-57.5 132q0 73 57.5 125.5t141.5 52.5q81 0 138.5 -52.5t57.5 -125.5q0 -78 -57 -132t-139 -54zM647 -35q-231 0 -363 122
t-132 341v719h354v-604q0 -106 63.5 -178t180.5 -72q129 0 203.5 67t74.5 183v604h354v-789q0 -131 11 -205.5t34 -152.5h-354q-26 91 -24 115h-5q-136 -150 -397 -150z" />
    <glyph glyph-name="yacute" unicode="&#xfd;" horiz-adv-x="1447" 
d="M1223 1653l-373 -375h-307l264 375h416zM733 -451h-379l185 390l-531 1208h391q177 -386 328 -750h4q101 244 328 750h381z" />
    <glyph glyph-name="thorn" unicode="&#xfe;" horiz-adv-x="1638" 
d="M520 -451h-354v2089h354v-634h8q156 176 426 176q133 0 247 -49t190.5 -132.5t119.5 -195t43 -234.5q0 -137 -50.5 -252t-136.5 -191t-198 -118.5t-235 -42.5q-259 0 -408 158h-6v-574zM852 293q147 0 241.5 78t94.5 198q0 123 -95 203t-243 80q-147 0 -242.5 -80
t-95.5 -201q0 -123 97.5 -200.5t242.5 -77.5z" />
    <glyph glyph-name="ydieresis" unicode="&#xff;" horiz-adv-x="1447" 
d="M440 1276q-83 0 -140.5 54t-57.5 132q0 73 57.5 125.5t140.5 52.5q82 0 139.5 -52.5t57.5 -125.5q0 -78 -57 -132t-140 -54zM1004 1276q-84 0 -141.5 54t-57.5 132q0 73 57.5 125.5t141.5 52.5q81 0 138.5 -52.5t57.5 -125.5q0 -78 -57 -132t-139 -54zM733 -451h-379
l185 390l-531 1208h391q177 -386 328 -750h4q101 244 328 750h381z" />
    <glyph glyph-name="Amacron" unicode="&#x100;" horiz-adv-x="1894" 
d="M1397 1741h-910v250h910v-250zM393 0h-391l725 1597h440l725 -1597h-399l-178 365h-744zM739 719h408q-70 145 -201 438h-6q-131 -293 -201 -438z" />
    <glyph glyph-name="amacron" unicode="&#x101;" horiz-adv-x="1439" 
d="M1143 1300h-826v236h826v-236zM549 -35q-93 0 -176 21.5t-149 63.5t-105 110.5t-39 154.5q0 65 24 117t62 86.5t97.5 61.5t117.5 43t135 30l90 15l87 14.5t74.5 14t66 17t48 20.5t34 27.5t10.5 35.5q0 46 -57.5 76t-151.5 30q-207 0 -264 -160l-332 107q31 89 93 155
t144 103t172.5 54.5t192.5 17.5q267 0 414 -110.5t147 -305.5v-406q0 -129 10 -205t33 -153h-352q-25 49 -25 119h-6q-53 -72 -160 -113t-235 -41zM645 225q126 0 204.5 58t78.5 139v74q-112 -29 -269 -60q-40 -8 -68 -16t-59.5 -21.5t-48 -33.5t-16.5 -46q0 -45 49.5 -69.5
t128.5 -24.5z" />
    <glyph glyph-name="Abreve" unicode="&#x102;" horiz-adv-x="1894" 
d="M944 1712q-211 0 -346 105.5t-139 275.5h301q3 -61 51 -103t133 -42t132 42t50 103h301q-3 -169 -139 -275t-344 -106zM393 0h-391l725 1597h440l725 -1597h-399l-178 365h-744zM739 719h408q-70 145 -201 438h-6q-131 -293 -201 -438z" />
    <glyph glyph-name="abreve" unicode="&#x103;" horiz-adv-x="1439" 
d="M725 1264q-207 0 -332 110t-133 285h289q0 -59 49 -107.5t137 -48.5t136.5 48t50.5 108h288q-8 -176 -137 -285.5t-348 -109.5zM549 -35q-93 0 -176 21.5t-149 63.5t-105 110.5t-39 154.5q0 65 24 117t62 86.5t97.5 61.5t117.5 43t135 30l90 15l87 14.5t74.5 14t66 17
t48 20.5t34 27.5t10.5 35.5q0 46 -57.5 76t-151.5 30q-207 0 -264 -160l-332 107q31 89 93 155t144 103t172.5 54.5t192.5 17.5q267 0 414 -110.5t147 -305.5v-406q0 -129 10 -205t33 -153h-352q-25 49 -25 119h-6q-53 -72 -160 -113t-235 -41zM645 225q126 0 204.5 58
t78.5 139v74q-112 -29 -269 -60q-40 -8 -68 -16t-59.5 -21.5t-48 -33.5t-16.5 -46q0 -45 49.5 -69.5t128.5 -24.5z" />
    <glyph glyph-name="Aogonek" unicode="&#x104;" horiz-adv-x="1894" 
d="M1532 -139q0 -38 45.5 -74.5t134.5 -36.5q66 0 107 10v-204q-64 -19 -162 -19q-73 0 -138.5 14t-119 42t-84.5 75t-31 107q0 65 55.5 127t153.5 98l-178 365h-744l-178 -365h-391l725 1597h440l725 -1597h-159q-59 -6 -101.5 -23.5t-62.5 -40t-28.5 -41.5t-8.5 -34z
M739 719h408q-70 145 -201 438h-6q-131 -293 -201 -438z" />
    <glyph glyph-name="aogonek" unicode="&#x105;" horiz-adv-x="1439" 
d="M1016 -141q0 -39 41.5 -67t113.5 -28q65 0 115 17v-230q-66 -14 -147 -14q-158 0 -262.5 62t-104.5 180q0 76 57.5 136t151.5 85h-6q-25 49 -25 119h-6q-53 -72 -160 -113t-235 -41q-93 0 -176 21.5t-149 63.5t-105 110.5t-39 154.5q0 65 24 117t62 86.5t97.5 61.5
t117.5 43t135 30l90 15l87 14.5t74.5 14t66 17t48 20.5t34 27.5t10.5 35.5q0 46 -57.5 76t-151.5 30q-207 0 -264 -160l-332 107q31 89 93 155t144 103t172.5 54.5t192.5 17.5q267 0 414 -110.5t147 -305.5v-406q0 -129 10 -205t33 -153h-121q-99 -14 -144.5 -55.5
t-45.5 -85.5zM928 422v74q-112 -29 -269 -60q-40 -8 -68 -16t-59.5 -21.5t-48 -33.5t-16.5 -46q0 -45 49.5 -69.5t128.5 -24.5q126 0 204.5 58t78.5 139z" />
    <glyph glyph-name="Cacute" unicode="&#x106;" horiz-adv-x="2041" 
d="M1618 2095l-391 -375h-322l277 375h436zM1092 -35q-214 0 -398 60.5t-316 169t-207 266.5t-75 346q0 159 53.5 294.5t146 231.5t216.5 164t266.5 100.5t294.5 32.5q306 0 542.5 -141.5t338.5 -372.5l-348 -135q-77 137 -213.5 222t-325.5 85q-251 0 -414.5 -138
t-163.5 -362q0 -105 36.5 -189t96.5 -137.5t140.5 -89t163 -50.5t170.5 -15q207 0 355 85.5t218 264.5l350 -114q-58 -155 -152.5 -268.5t-216.5 -180t-260 -98t-298 -31.5z" />
    <glyph glyph-name="cacute" unicode="&#x107;" horiz-adv-x="1501" 
d="M1243 1653l-373 -375h-307l264 375h416zM797 -35q-203 0 -364 71.5t-256 210.5t-95 324q0 184 93 324t252 212.5t359 72.5q223 0 397.5 -100t246.5 -269l-332 -131q-25 62 -76 101.5t-109.5 55t-128.5 15.5q-149 0 -242 -79.5t-93 -199.5q0 -128 101 -204t249 -76
q243 0 331 172l332 -131q-72 -170 -250.5 -269.5t-414.5 -99.5z" />
    <glyph glyph-name="Cdotaccent" unicode="&#x10a;" horiz-adv-x="2041" 
d="M1061 1743q-93 0 -156 59t-63 146q0 81 63 138.5t156 57.5q90 0 152.5 -58t62.5 -138q0 -86 -62 -145.5t-153 -59.5zM1092 -35q-214 0 -398 60.5t-316 169t-207 266.5t-75 346q0 159 53.5 294.5t146 231.5t216.5 164t266.5 100.5t294.5 32.5q306 0 542.5 -141.5
t338.5 -372.5l-348 -135q-77 137 -213.5 222t-325.5 85q-251 0 -414.5 -138t-163.5 -362q0 -105 36.5 -189t96.5 -137.5t140.5 -89t163 -50.5t170.5 -15q207 0 355 85.5t218 264.5l350 -114q-58 -155 -152.5 -268.5t-216.5 -180t-260 -98t-298 -31.5z" />
    <glyph glyph-name="cdotaccent" unicode="&#x10b;" horiz-adv-x="1501" 
d="M743 1278q-93 0 -156 59t-63 146q0 81 63 138.5t156 57.5q90 0 152.5 -58t62.5 -138q0 -86 -62 -145.5t-153 -59.5zM797 -35q-203 0 -364 71.5t-256 210.5t-95 324q0 184 93 324t252 212.5t359 72.5q223 0 397.5 -100t246.5 -269l-332 -131q-25 62 -76 101.5t-109.5 55
t-128.5 15.5q-149 0 -242 -79.5t-93 -199.5q0 -128 101 -204t249 -76q243 0 331 172l332 -131q-72 -170 -250.5 -269.5t-414.5 -99.5z" />
    <glyph glyph-name="Ccaron" unicode="&#x10c;" horiz-adv-x="2041" 
d="M1249 2095h330l-344 -375h-354l-344 375h329q31 -24 96.5 -76t96.5 -77q37 27 101 80t89 73zM1092 -35q-214 0 -398 60.5t-316 169t-207 266.5t-75 346q0 159 53.5 294.5t146 231.5t216.5 164t266.5 100.5t294.5 32.5q306 0 542.5 -141.5t338.5 -372.5l-348 -135
q-77 137 -213.5 222t-325.5 85q-251 0 -414.5 -138t-163.5 -362q0 -105 36.5 -189t96.5 -137.5t140.5 -89t163 -50.5t170.5 -15q207 0 355 85.5t218 264.5l350 -114q-58 -155 -152.5 -268.5t-216.5 -180t-260 -98t-298 -31.5z" />
    <glyph glyph-name="ccaron" unicode="&#x10d;" horiz-adv-x="1501" 
d="M920 1298h-359l-354 396h334l200 -172q34 29 100.5 86t100.5 86h334zM797 -35q-203 0 -364 71.5t-256 210.5t-95 324q0 184 93 324t252 212.5t359 72.5q223 0 397.5 -100t246.5 -269l-332 -131q-25 62 -76 101.5t-109.5 55t-128.5 15.5q-149 0 -242 -79.5t-93 -199.5
q0 -128 101 -204t249 -76q243 0 331 172l332 -131q-72 -170 -250.5 -269.5t-414.5 -99.5z" />
    <glyph glyph-name="Dcaron" unicode="&#x10e;" horiz-adv-x="1949" 
d="M1102 2095h330l-345 -375h-354l-344 375h330q32 -24 96 -76t96 -77q37 27 101.5 80.5t89.5 72.5zM965 0h-766v1597h743q187 0 339.5 -40.5t257 -112t176 -171.5t104 -216t32.5 -248q0 -178 -60.5 -327t-173 -256t-280 -166.5t-372.5 -59.5zM575 336h345q88 0 158.5 9.5
t144 39t122.5 78.5t80 133t31 197q0 76 -14 139.5t-34 109t-56.5 81.5t-68.5 59t-83 39t-86 24t-92.5 12t-88 4.5t-85.5 0.5h-273v-926z" />
    <glyph glyph-name="dcaron" unicode="&#x10f;" horiz-adv-x="1638" 
d="M1741 1063h-205l201 301q-67 26 -103.5 76t-36.5 112q0 83 67 143t159 60q91 0 156 -58.5t65 -140.5q0 -16 -2.5 -31t-6 -28.5t-13 -32.5t-17 -33.5t-25 -40.5t-30.5 -45t-40 -55.5t-46.5 -63t-57 -76t-65.5 -87.5zM707 -35q-188 0 -330.5 79.5t-217.5 217.5t-75 313
q0 140 49 255.5t133.5 191t196.5 117t239 41.5q139 0 241.5 -44.5t168.5 -111.5h6v614h355v-1280q0 -130 10 -206.5t33 -151.5h-351q-27 79 -24 115h-6q-135 -150 -428 -150zM786 295q148 0 244 79.5t96 200.5q0 122 -97 200.5t-245 78.5q-146 0 -239.5 -78t-93.5 -201
q0 -121 93.5 -200.5t241.5 -79.5z" />
    <glyph glyph-name="Dcroat" unicode="&#x110;" horiz-adv-x="1949" 
d="M199 1597h743q187 0 339.5 -40.5t257 -112t176 -171.5t104 -216t32.5 -248q0 -178 -60.5 -327t-173 -256t-280 -166.5t-372.5 -59.5h-766v653h-252v289h252v655zM920 336q88 0 158.5 9.5t144 39t122.5 78.5t80 133t31 197q0 76 -14 139.5t-34 109t-56.5 81.5t-68.5 59
t-83 39t-86 24t-92.5 12t-88 4.5t-85.5 0.5h-273v-320h394v-289h-394v-317h345z" />
    <glyph glyph-name="dcroat" unicode="&#x111;" horiz-adv-x="1638" 
d="M1788 1495v-252h-315v-885q0 -130 10 -206.5t33 -151.5h-351q-27 79 -24 115h-6q-135 -150 -428 -150q-188 0 -330.5 79.5t-217.5 217.5t-75 313q0 140 49 255.5t133.5 191t196.5 117t239 41.5q139 0 241.5 -44.5t168.5 -111.5h6v219h-311v252h311v143h355v-143h315z
M786 295q148 0 244 79.5t96 200.5q0 122 -97 200.5t-245 78.5q-146 0 -239.5 -78t-93.5 -201q0 -121 93.5 -200.5t241.5 -79.5z" />
    <glyph glyph-name="Emacron" unicode="&#x112;" horiz-adv-x="1593" 
d="M1282 1741h-909v250h909v-250zM1479 0h-1280v1597h1255v-335h-879v-277h830v-354h-830v-295h904v-336z" />
    <glyph glyph-name="emacron" unicode="&#x113;" horiz-adv-x="1521" 
d="M1180 1300h-826v236h826v-236zM797 -35q-203 0 -365 73t-256 211t-94 318q0 173 87.5 313t245.5 220t355 80q131 0 250 -41t211.5 -117.5t147.5 -197.5t55 -269v-82h-998q22 -98 120.5 -149.5t236.5 -51.5q105 0 188 35.5t125 108.5l332 -131q-72 -136 -242.5 -228
t-398.5 -92zM453 698h624q-19 95 -104 143t-205 48q-124 0 -205 -52t-110 -139z" />
    <glyph glyph-name="Edotaccent" unicode="&#x116;" horiz-adv-x="1593" 
d="M831 1743q-93 0 -156 59t-63 146q0 81 63 138.5t156 57.5q90 0 153 -58t63 -138q0 -86 -62.5 -145.5t-153.5 -59.5zM1479 0h-1280v1597h1255v-335h-879v-277h830v-354h-830v-295h904v-336z" />
    <glyph glyph-name="edotaccent" unicode="&#x117;" horiz-adv-x="1521" 
d="M770 1278q-93 0 -156 59t-63 146q0 81 63 138.5t156 57.5q90 0 152.5 -58t62.5 -138q0 -86 -62 -145.5t-153 -59.5zM797 -35q-203 0 -365 73t-256 211t-94 318q0 173 87.5 313t245.5 220t355 80q131 0 250 -41t211.5 -117.5t147.5 -197.5t55 -269v-82h-998
q22 -98 120.5 -149.5t236.5 -51.5q105 0 188 35.5t125 108.5l332 -131q-72 -136 -242.5 -228t-398.5 -92zM453 698h624q-19 95 -104 143t-205 48q-124 0 -205 -52t-110 -139z" />
    <glyph glyph-name="Eogonek" unicode="&#x118;" horiz-adv-x="1593" 
d="M1458 -250q66 0 107 10v-204q-64 -19 -162 -19q-73 0 -138.5 14t-119 42t-84.5 75t-31 107q0 65 55.5 127t153.5 98h-1040v1597h1255v-335h-879v-277h830v-354h-830v-295h904v-336q-59 -6 -101.5 -23.5t-62.5 -40t-28.5 -41.5t-8.5 -34q0 -38 45.5 -74.5t134.5 -36.5z
" />
    <glyph glyph-name="eogonek" unicode="&#x119;" horiz-adv-x="1521" 
d="M963 -20q-55 -21 -81 -55t-26 -66q0 -39 42 -67t114 -28q64 0 114 17v-230q-66 -14 -147 -14q-158 0 -262.5 62t-104.5 180q0 58 33 106.5t92 81.5q-188 10 -336.5 86t-233.5 209.5t-85 304.5q0 173 87.5 313t245.5 220t355 80q131 0 250 -41t211.5 -117.5t147.5 -197.5
t55 -269v-82h-998q22 -98 120.5 -149.5t236.5 -51.5q105 0 188 35.5t125 108.5l332 -131q-58 -109 -182.5 -192t-292.5 -113zM768 889q-124 0 -205 -52t-110 -139h624q-19 95 -104 143t-205 48z" />
    <glyph glyph-name="Ecaron" unicode="&#x11a;" horiz-adv-x="1593" 
d="M1018 2095h330l-344 -375h-355l-344 375h330q32 -24 96.5 -76t95.5 -77q37 27 101.5 80.5t89.5 72.5zM1479 0h-1280v1597h1255v-335h-879v-277h830v-354h-830v-295h904v-336z" />
    <glyph glyph-name="ecaron" unicode="&#x11b;" horiz-adv-x="1521" 
d="M946 1298h-358l-355 396h334l201 -172q34 29 100.5 86t100.5 86h334zM797 -35q-203 0 -365 73t-256 211t-94 318q0 173 87.5 313t245.5 220t355 80q131 0 250 -41t211.5 -117.5t147.5 -197.5t55 -269v-82h-998q22 -98 120.5 -149.5t236.5 -51.5q105 0 188 35.5t125 108.5
l332 -131q-72 -136 -242.5 -228t-398.5 -92zM453 698h624q-19 95 -104 143t-205 48q-124 0 -205 -52t-110 -139z" />
    <glyph glyph-name="Gbreve" unicode="&#x11e;" horiz-adv-x="2136" 
d="M1061 1712q-211 0 -346.5 105.5t-139.5 275.5h302q3 -61 51 -103t133 -42t132 42t50 103h301q-3 -169 -139 -275t-344 -106zM1038 -35q-271 0 -486 106.5t-335.5 297t-120.5 430.5q0 156 51.5 290.5t142 232.5t213.5 168t267.5 105t300.5 35q311 0 548.5 -144.5
t334.5 -369.5l-348 -135q-79 138 -212.5 222.5t-322.5 84.5q-121 0 -227.5 -35t-185 -98t-124 -158t-45.5 -209q0 -79 20.5 -146.5t56 -116t84.5 -87t103.5 -62.5t116.5 -40t119.5 -22.5t116.5 -6.5q199 0 337.5 63.5t172.5 180.5h-496v295h873v-846h-287l-20 199h-13
q-208 -234 -635 -234z" />
    <glyph glyph-name="gbreve" unicode="&#x11f;" horiz-adv-x="1636" 
d="M813 1264q-207 0 -332 110t-133 285h289q0 -59 49 -107.5t137 -48.5t136.5 48t50.5 108h288q-8 -176 -137 -285.5t-348 -109.5zM782 -483q-508 0 -653 325l322 113q48 -82 124.5 -116t196.5 -34q167 0 255.5 84t88.5 234v20h-6q-116 -135 -399 -135q-150 0 -271.5 48
t-198.5 129t-118 185t-41 220q0 128 47.5 238t129 187t195.5 121t244 44q139 0 246 -44.5t172 -111.5h4v123h350v-1041q0 -135 -38.5 -239t-102 -169t-154 -106.5t-186 -58t-207.5 -16.5zM784 336q146 0 243 76.5t97 183.5t-97.5 182.5t-244.5 75.5q-144 0 -238.5 -74.5
t-94.5 -183.5t94.5 -184.5t240.5 -75.5z" />
    <glyph glyph-name="Gdotaccent" unicode="&#x120;" horiz-adv-x="2136" 
d="M1061 1743q-93 0 -156 59t-63 146q0 81 63 138.5t156 57.5q90 0 152.5 -58t62.5 -138q0 -86 -62 -145.5t-153 -59.5zM1038 -35q-271 0 -486 106.5t-335.5 297t-120.5 430.5q0 156 51.5 290.5t142 232.5t213.5 168t267.5 105t300.5 35q311 0 548.5 -144.5t334.5 -369.5
l-348 -135q-79 138 -212.5 222.5t-322.5 84.5q-121 0 -227.5 -35t-185 -98t-124 -158t-45.5 -209q0 -79 20.5 -146.5t56 -116t84.5 -87t103.5 -62.5t116.5 -40t119.5 -22.5t116.5 -6.5q199 0 337.5 63.5t172.5 180.5h-496v295h873v-846h-287l-20 199h-13
q-208 -234 -635 -234z" />
    <glyph glyph-name="gdotaccent" unicode="&#x121;" horiz-adv-x="1636" 
d="M821 1278q-93 0 -156 59t-63 146q0 81 63 138.5t156 57.5q90 0 152.5 -58t62.5 -138q0 -86 -62 -145.5t-153 -59.5zM782 -483q-508 0 -653 325l322 113q48 -82 124.5 -116t196.5 -34q167 0 255.5 84t88.5 234v20h-6q-116 -135 -399 -135q-150 0 -271.5 48t-198.5 129
t-118 185t-41 220q0 128 47.5 238t129 187t195.5 121t244 44q139 0 246 -44.5t172 -111.5h4v123h350v-1041q0 -135 -38.5 -239t-102 -169t-154 -106.5t-186 -58t-207.5 -16.5zM784 336q146 0 243 76.5t97 183.5t-97.5 182.5t-244.5 75.5q-144 0 -238.5 -74.5t-94.5 -183.5
t94.5 -184.5t240.5 -75.5z" />
    <glyph glyph-name="uni0122" unicode="&#x122;" horiz-adv-x="2136" 
d="M1038 -35q-271 0 -486 106.5t-335.5 297t-120.5 430.5q0 156 51.5 290.5t142 232.5t213.5 168t267.5 105t300.5 35q311 0 548.5 -144.5t334.5 -369.5l-348 -135q-79 138 -212.5 222.5t-322.5 84.5q-121 0 -227.5 -35t-185 -98t-124 -158t-45.5 -209q0 -79 20.5 -146.5
t56 -116t84.5 -87t103.5 -62.5t116.5 -40t119.5 -22.5t116.5 -6.5q199 0 337.5 63.5t172.5 180.5h-496v295h873v-846h-287l-20 199h-13q-208 -234 -635 -234zM1057 -696h-191l160 252q-55 25 -88 68.5t-33 96.5q0 75 56 125t139 50t137.5 -49t54.5 -121q0 -28 -5.5 -50.5
t-26.5 -59.5t-40.5 -66.5t-70 -104.5t-92.5 -141z" />
    <glyph glyph-name="uni0123" unicode="&#x123;" horiz-adv-x="1636" 
d="M618 1454q0 28 5.5 50.5t27 60t41.5 66.5t72.5 104.5t95.5 140.5h197l-168 -252q54 -26 85.5 -68.5t31.5 -97.5q0 -75 -56 -124.5t-139 -49.5t-138 49t-55 121zM782 -483q-508 0 -653 325l322 113q48 -82 124.5 -116t196.5 -34q167 0 255.5 84t88.5 234v20h-6
q-116 -135 -399 -135q-150 0 -271.5 48t-198.5 129t-118 185t-41 220q0 128 47.5 238t129 187t195.5 121t244 44q139 0 246 -44.5t172 -111.5h4v123h350v-1041q0 -135 -38.5 -239t-102 -169t-154 -106.5t-186 -58t-207.5 -16.5zM784 336q146 0 243 76.5t97 183.5
t-97.5 182.5t-244.5 75.5q-144 0 -238.5 -74.5t-94.5 -183.5t94.5 -184.5t240.5 -75.5z" />
    <glyph glyph-name="Hbar" unicode="&#x126;" horiz-adv-x="1992" 
d="M1794 1366h182v-276h-182v-1090h-377v608h-842v-608h-376v1090h-183v276h183v231h376v-231h842v231h377v-231zM575 963h842v127h-842v-127z" />
    <glyph glyph-name="hbar" unicode="&#x127;" horiz-adv-x="1572" 
d="M944 1180q96 0 181 -29.5t151.5 -84.5t105.5 -143.5t39 -197.5v-725h-354v573q0 35 -5.5 69t-22.5 73t-43.5 68.5t-73.5 49t-107 19.5q-295 0 -295 -279v-573h-354v1235h-266v252h266v151h354v-151h361v-252h-361v-238h6q75 93 184.5 138t233.5 45z" />
    <glyph glyph-name="Imacron" unicode="&#x12a;" horiz-adv-x="774" 
d="M836 1741h-910v250h910v-250zM575 0h-376v1597h376v-1597z" />
    <glyph glyph-name="imacron" unicode="&#x12b;" horiz-adv-x="686" 
d="M756 1280h-826v236h826v-236zM520 0h-354v1147h354v-1147z" />
    <glyph glyph-name="Iogonek" unicode="&#x12e;" horiz-adv-x="774" 
d="M559 -250q66 0 107 10v-204q-64 -19 -162 -19q-73 0 -138.5 14t-119 42t-84.5 75t-31 107q0 65 55.5 127t153.5 98h-141v1597h376v-1597h5q-59 -6 -101.5 -23.5t-62.5 -40t-28.5 -41.5t-8.5 -34q0 -38 45.5 -74.5t134.5 -36.5z" />
    <glyph glyph-name="iogonek" unicode="&#x12f;" horiz-adv-x="686" 
d="M346 1257q-93 0 -156 59t-63 146q0 81 63 139t156 58q90 0 152.5 -58.5t62.5 -138.5q0 -86 -62 -145.5t-153 -59.5zM289 -141q0 -39 41.5 -67t113.5 -28q65 0 115 17v-230q-66 -14 -147 -14q-158 0 -262.5 62t-104.5 180q0 76 57.5 136t151.5 85h-88v1147h354v-1147h-41
q-99 -14 -144.5 -55.5t-45.5 -85.5z" />
    <glyph glyph-name="Idotaccent" unicode="&#x130;" horiz-adv-x="774" 
d="M383 1743q-93 0 -156 59t-63 146q0 81 63 138.5t156 57.5q90 0 152.5 -58t62.5 -138q0 -86 -62 -145.5t-153 -59.5zM575 0h-376v1597h376v-1597z" />
    <glyph glyph-name="dotlessi" unicode="&#x131;" horiz-adv-x="686" 
d="M520 0h-354v1147h354v-1147z" />
    <glyph glyph-name="uni0136" unicode="&#x136;" horiz-adv-x="1767" 
d="M575 0h-376v1597h376v-661h11q494 454 737 661h442q-504 -469 -741 -692l776 -905h-457q-305 335 -575 649q-14 -15 -193 -188v-461zM911 -696h-190l160 252q-55 25 -88 68.5t-33 96.5q0 75 55.5 125t138.5 50t138 -49t55 -121q0 -28 -5.5 -51t-26.5 -59.5t-41 -66.5
t-70 -104.5t-93 -140.5z" />
    <glyph glyph-name="uni0137" unicode="&#x137;" horiz-adv-x="1425" 
d="M1403 1147l-504 -479l563 -668h-418l-385 440l-137 -129v-311h-356v1638h356v-886h6q184 167 453 395h422zM750 -104q83 0 137.5 -49t54.5 -121q0 -28 -5.5 -50.5t-26.5 -59.5t-40.5 -66.5t-70 -104.5t-92.5 -141h-191l160 252q-55 25 -88 68.5t-33 96.5q0 75 56 125
t139 50z" />
    <glyph glyph-name="Lacute" unicode="&#x139;" horiz-adv-x="1439" 
d="M557 2095h436l-391 -375h-321zM575 1597v-1261h834v-336h-1210v1597h376z" />
    <glyph glyph-name="lacute" unicode="&#x13a;" horiz-adv-x="686" 
d="M915 2136l-391 -375h-321l276 375h436zM520 0h-354v1638h354v-1638z" />
    <glyph glyph-name="uni013B" unicode="&#x13b;" horiz-adv-x="1439" 
d="M575 1597v-1261h834v-336h-1210v1597h376zM780 -104q83 0 138 -49t55 -121q0 -28 -5.5 -51t-26.5 -59.5t-41 -66.5t-70 -104.5t-93 -140.5h-190l160 252q-55 25 -88 68.5t-33 96.5q0 75 55.5 125t138.5 50z" />
    <glyph glyph-name="uni013C" unicode="&#x13c;" horiz-adv-x="686" 
d="M520 0h-354v1638h354v-1638zM313 -696h-190l160 252q-55 25 -88 68.5t-33 96.5q0 75 55.5 125t138.5 50t138 -49t55 -121q0 -28 -5.5 -51t-26.5 -59.5t-41 -66.5t-70 -104.5t-93 -140.5z" />
    <glyph glyph-name="Lcaron" unicode="&#x13d;" horiz-adv-x="1439" 
d="M920 981h-205l200 301q-67 26 -103 76t-36 112q0 83 66.5 143t158.5 60q91 0 156.5 -58t65.5 -140q0 -63 -41 -130.5t-182 -256.5q-51 -68 -80 -107zM575 1597v-1261h834v-336h-1210v1597h376z" />
    <glyph glyph-name="lcaron" unicode="&#x13e;" horiz-adv-x="686" 
d="M786 981h-204l200 301q-67 26 -103 76t-36 112q0 83 66.5 143t158.5 60q91 0 156.5 -58t65.5 -140q0 -16 -2.5 -31t-6 -28.5t-13 -32.5l-17 -34t-25 -41t-31 -45t-40 -55t-46.5 -63t-57.5 -76.5t-65.5 -87.5zM520 0h-354v1638h354v-1638z" />
    <glyph glyph-name="Lslash" unicode="&#x141;" horiz-adv-x="1439" 
d="M575 817v-481h834v-336h-1210v668l-195 -78v305l195 78v624h376v-475l240 97v-306z" />
    <glyph glyph-name="lslash" unicode="&#x142;" horiz-adv-x="686" 
d="M520 1186l252 160v-293l-252 -160v-893h-354v668l-209 -133v292l209 134v677h354v-452z" />
    <glyph glyph-name="Nacute" unicode="&#x143;" horiz-adv-x="2000" 
d="M1536 2095l-391 -375h-322l277 375h436zM575 0h-376v1597h391q63 -71 200 -225t219 -246.5t199 -227.5t213 -251h6v950h375v-1597h-389q-95 107 -262 289t-307 338.5t-262 300.5h-7v-928z" />
    <glyph glyph-name="nacute" unicode="&#x144;" horiz-adv-x="1572" 
d="M1280 1653l-373 -375h-307l264 375h416zM520 0h-354v1147h350v-150h4q73 90 185 136.5t239 46.5q96 0 181 -29.5t151.5 -84.5t105.5 -143.5t39 -197.5v-725h-354v573q0 35 -5.5 69t-22.5 73t-43.5 68.5t-73.5 49t-107 19.5q-295 0 -295 -279v-573z" />
    <glyph glyph-name="uni0145" unicode="&#x145;" horiz-adv-x="2000" 
d="M575 0h-376v1597h391q63 -71 200 -225t219 -246.5t199 -227.5t213 -251h6v950h375v-1597h-389q-95 107 -262 289t-307 338.5t-262 300.5h-7v-928zM999 -696h-190l160 252q-55 25 -88 68.5t-33 96.5q0 75 55.5 125t138.5 50t138 -49t55 -121q0 -28 -5.5 -51t-26.5 -59.5
t-41 -66.5t-70 -104.5t-93 -140.5z" />
    <glyph glyph-name="uni0146" unicode="&#x146;" horiz-adv-x="1572" 
d="M520 0h-354v1147h350v-150h4q73 90 185 136.5t239 46.5q96 0 181 -29.5t151.5 -84.5t105.5 -143.5t39 -197.5v-725h-354v573q0 35 -5.5 69t-22.5 73t-43.5 68.5t-73.5 49t-107 19.5q-295 0 -295 -279v-573zM827 -696h-190l160 252q-55 25 -88 68.5t-33 96.5
q0 75 55.5 125t138.5 50t138 -49t55 -121q0 -28 -5.5 -51t-26.5 -59.5t-41 -66.5t-70 -104.5t-93 -140.5z" />
    <glyph glyph-name="Ncaron" unicode="&#x147;" horiz-adv-x="2000" 
d="M1167 2095h330l-344 -375h-354l-344 375h329q32 -24 97 -76t96 -77q37 27 101 80t89 73zM575 0h-376v1597h391q63 -71 200 -225t219 -246.5t199 -227.5t213 -251h6v950h375v-1597h-389q-95 107 -262 289t-307 338.5t-262 300.5h-7v-928z" />
    <glyph glyph-name="ncaron" unicode="&#x148;" horiz-adv-x="1572" 
d="M956 1298h-358l-354 396h334l200 -172q34 29 100.5 86t100.5 86h334zM520 0h-354v1147h350v-150h4q73 90 185 136.5t239 46.5q96 0 181 -29.5t151.5 -84.5t105.5 -143.5t39 -197.5v-725h-354v573q0 35 -5.5 69t-22.5 73t-43.5 68.5t-73.5 49t-107 19.5q-295 0 -295 -279
v-573z" />
    <glyph glyph-name="Eng" unicode="&#x14a;" horiz-adv-x="2000" 
d="M1212 -483q-96 0 -213 13t-174 26v290q164 -24 281 -24q162 0 235.5 38.5t73.5 139.5q-71 80 -375 412t-465 524v-936h-376v1597h391q63 -71 200 -225t219 -246.5t199 -227.5t213 -251h6v950h375v-1540q0 -43 -2.5 -78t-15 -94t-34 -104.5t-66 -97.5t-104.5 -86t-155 -57
t-213 -23z" />
    <glyph glyph-name="eng" unicode="&#x14b;" horiz-adv-x="1572" 
d="M967 -483q-130 0 -277 39v290q132 -24 199 -24q37 0 66 5t47.5 11.5t31.5 19t19 22.5t9.5 27.5t4 27.5t0.5 30v608q0 35 -5.5 69t-22.5 73t-43.5 68.5t-73.5 49t-107 19.5q-295 0 -295 -279v-573h-354v1147h350v-150h4q73 90 185 136.5t239 46.5q96 0 181 -29.5
t151.5 -84.5t105.5 -143.5t39 -197.5v-739v-1q0 -60 -1 -91.5t-9.5 -89t-25 -90.5t-49.5 -75.5t-80.5 -65.5t-121 -39.5t-167.5 -16.5z" />
    <glyph glyph-name="Omacron" unicode="&#x14c;" horiz-adv-x="2129" 
d="M1513 1741h-909v250h909v-250zM1065 -35q-198 0 -376 61t-309.5 168.5t-208.5 264t-77 338.5t76.5 338.5t208 264.5t309.5 169t377 61q200 0 378.5 -61.5t309.5 -170t207 -264.5t76 -337q0 -179 -76 -335t-206.5 -264.5t-309 -170.5t-379.5 -62zM1067 307
q161 0 291.5 63.5t205 176t74.5 250.5q0 206 -162.5 348.5t-408.5 142.5q-120 0 -226.5 -37t-184 -101.5t-122.5 -156t-45 -196.5q0 -142 78 -255t209.5 -174t290.5 -61z" />
    <glyph glyph-name="omacron" unicode="&#x14d;" horiz-adv-x="1583" 
d="M1204 1300h-825v236h825v-236zM793 -35q-207 0 -369 76.5t-252 214.5t-90 315q0 267 199 438t512 171q205 0 367 -77.5t251.5 -216.5t89.5 -315q0 -177 -90 -315t-251 -214.5t-367 -76.5zM793 293q150 0 245 78t95 200q0 125 -94.5 203t-245.5 78t-246.5 -79t-95.5 -202
q0 -122 96 -200t246 -78z" />
    <glyph glyph-name="Ohungarumlaut" unicode="&#x150;" horiz-adv-x="2129" 
d="M1274 2093l-373 -373h-307l260 373h420zM1845 2093l-377 -373h-309l266 373h420zM1065 -35q-198 0 -376 61t-309.5 168.5t-208.5 264t-77 338.5t76.5 338.5t208 264.5t309.5 169t377 61q200 0 378.5 -61.5t309.5 -170t207 -264.5t76 -337q0 -179 -76 -335t-206.5 -264.5
t-309 -170.5t-379.5 -62zM1067 307q161 0 291.5 63.5t205 176t74.5 250.5q0 206 -162.5 348.5t-408.5 142.5q-120 0 -226.5 -37t-184 -101.5t-122.5 -156t-45 -196.5q0 -142 78 -255t209.5 -174t290.5 -61z" />
    <glyph glyph-name="ohungarumlaut" unicode="&#x151;" horiz-adv-x="1583" 
d="M977 1673l-383 -395h-299l274 395h408zM1552 1673l-389 -395h-299l279 395h409zM793 -35q-207 0 -369 76.5t-252 214.5t-90 315q0 267 199 438t512 171q205 0 367 -77.5t251.5 -216.5t89.5 -315q0 -177 -90 -315t-251 -214.5t-367 -76.5zM793 293q150 0 245 78t95 200
q0 125 -94.5 203t-245.5 78t-246.5 -79t-95.5 -202q0 -122 96 -200t246 -78z" />
    <glyph glyph-name="OE" unicode="&#x152;" horiz-adv-x="2994" 
d="M1059 -35q-198 0 -374.5 61t-306.5 168.5t-206 264t-76 338.5t76 338.5t206 264.5t306.5 169t374.5 61q359 0 588 -151v118h1208v-335h-860v-277h811v-354h-811v-295h884v-336h-1232v115q-229 -150 -588 -150zM1061 307q243 0 404 139.5t161 354.5q0 213 -158.5 350
t-402.5 137q-162 0 -293 -63t-205.5 -175.5t-74.5 -252.5q0 -143 75.5 -255.5t205 -173.5t288.5 -61z" />
    <glyph glyph-name="oe" unicode="&#x153;" horiz-adv-x="2570" 
d="M793 -35q-207 0 -369 76.5t-252 214.5t-90 315q0 267 199 438t512 171q328 0 514 -162q83 76 215 119t293 43q107 0 205.5 -25.5t183 -77.5t147 -125.5t98 -175.5t35.5 -221v-47h-1011q18 -106 121 -171t237 -65q108 0 193.5 35.5t127.5 108.5l332 -131
q-72 -137 -244 -228.5t-405 -91.5q-167 0 -304 41t-224 119q-187 -160 -514 -160zM1483 713h637q-15 47 -47.5 82.5t-76.5 56t-92.5 30t-101.5 9.5q-118 0 -203 -48.5t-116 -129.5zM793 293q150 0 245 78t95 200q0 123 -95 202t-245 79q-151 0 -246.5 -79t-95.5 -202
q0 -122 96 -200t246 -78z" />
    <glyph glyph-name="Racute" unicode="&#x154;" horiz-adv-x="1726" 
d="M1319 2095l-391 -375h-322l277 375h436zM575 0h-376v1597h743q31 0 54 -0.5t76.5 -5.5t95.5 -13.5t100 -27t102.5 -44t91.5 -66t77.5 -91.5t50.5 -123t20 -157q0 -383 -428 -489v-2l475 -578h-424l-451 547h-207v-547zM575 868h297q39 0 71 2t74.5 8.5t74.5 20t61.5 34.5
t45 54.5t15.5 77.5q0 50 -23.5 88.5t-58 59.5t-82 34t-88 17t-83.5 4h-304v-400z" />
    <glyph glyph-name="racute" unicode="&#x155;" horiz-adv-x="1075" 
d="M1081 1653l-372 -375h-308l265 375h415zM520 0h-354v1147h350v-156h10q58 80 156.5 134.5t224.5 54.5q66 0 133 -19v-385q-75 21 -168 21q-352 0 -352 -396v-401z" />
    <glyph glyph-name="uni0156" unicode="&#x156;" horiz-adv-x="1726" 
d="M575 0h-376v1597h743q31 0 54 -0.5t76.5 -5.5t95.5 -13.5t100 -27t102.5 -44t91.5 -66t77.5 -91.5t50.5 -123t20 -157q0 -383 -428 -489v-2l475 -578h-424l-451 547h-207v-547zM575 868h297q39 0 71 2t74.5 8.5t74.5 20t61.5 34.5t45 54.5t15.5 77.5q0 50 -23.5 88.5
t-58 59.5t-82 34t-88 17t-83.5 4h-304v-400zM807 -696h-191l160 252q-55 25 -88 68.5t-33 96.5q0 75 56 125t139 50t137.5 -49t54.5 -121q0 -28 -5.5 -50.5t-26.5 -59.5t-40.5 -66.5t-70 -104.5t-92.5 -141z" />
    <glyph glyph-name="uni0157" unicode="&#x157;" horiz-adv-x="1075" 
d="M520 0h-354v1147h350v-156h10q58 80 156.5 134.5t224.5 54.5q66 0 133 -19v-385q-75 21 -168 21q-352 0 -352 -396v-401zM305 -696h-190l159 252q-55 25 -87.5 68.5t-32.5 96.5q0 75 55.5 125t138.5 50t138 -49t55 -121q0 -28 -5.5 -51t-26.5 -59.5t-41 -66.5t-70 -104.5
t-93 -140.5z" />
    <glyph glyph-name="Rcaron" unicode="&#x158;" horiz-adv-x="1726" 
d="M950 2095h330l-344 -375h-354l-344 375h329q32 -24 96.5 -76t96.5 -77q37 27 101 80t89 73zM575 0h-376v1597h743q31 0 54 -0.5t76.5 -5.5t95.5 -13.5t100 -27t102.5 -44t91.5 -66t77.5 -91.5t50.5 -123t20 -157q0 -383 -428 -489v-2l475 -578h-424l-451 547h-207v-547z
M575 868h297q39 0 71 2t74.5 8.5t74.5 20t61.5 34.5t45 54.5t15.5 77.5q0 50 -23.5 88.5t-58 59.5t-82 34t-88 17t-83.5 4h-304v-400z" />
    <glyph glyph-name="rcaron" unicode="&#x159;" horiz-adv-x="1075" 
d="M758 1298h-359l-354 396h334l201 -172q34 29 100 86t100 86h334zM520 0h-354v1147h350v-156h10q58 80 156.5 134.5t224.5 54.5q66 0 133 -19v-385q-75 21 -168 21q-352 0 -352 -396v-401z" />
    <glyph glyph-name="Sacute" unicode="&#x15a;" horiz-adv-x="1613" 
d="M1278 2095l-391 -375h-322l277 375h436zM829 -35q-284 0 -488.5 128.5t-272.5 346.5l350 115q27 -78 71.5 -131.5t101 -80.5t111.5 -37.5t121 -10.5q84 0 154.5 18t114 54t43.5 82q0 39 -23.5 68.5t-82.5 54t-90.5 34t-113.5 30.5q-3 1 -5.5 1.5t-4.5 1.5l-172 43
q-510 125 -510 461q0 142 88 254t239 172.5t337 60.5q133 0 250.5 -32.5t200 -86.5t138 -118t78.5 -131l-344 -136q-91 177 -329 177q-116 0 -190.5 -38.5t-74.5 -93.5q0 -29 23 -56t53 -45t82 -37t85 -28.5t87 -23.5l203 -53q49 -13 80.5 -22.5t87 -30t92 -41.5t81 -55.5
t71 -73.5t45 -94.5t18.5 -118.5q0 -109 -49.5 -205t-139.5 -167.5t-223.5 -113t-292.5 -41.5z" />
    <glyph glyph-name="sacute" unicode="&#x15b;" horiz-adv-x="1275" 
d="M1124 1657l-372 -375h-308l265 375h415zM653 -35q-232 0 -392 88t-208 236l330 102q74 -147 266 -147q68 0 120 18t52 55q0 22 -14.5 39t-42 29t-52 19t-60.5 16q-11 3 -17 4l-148 37q-71 18 -132 44.5t-117 67.5t-88.5 100.5t-32.5 131.5q0 109 68 195t186.5 133
t265.5 47q203 0 342.5 -81.5t183.5 -211.5l-325 -103q-60 121 -211 121q-67 0 -110.5 -22t-43.5 -56q0 -15 9 -27.5t30 -23.5t38.5 -19t52 -17t51.5 -13t55 -12l104 -23q39 -9 63.5 -15t69.5 -21t75 -31t67 -43.5t59 -59t37.5 -77.5t15.5 -99q0 -177 -148 -279t-399 -102z
" />
    <glyph glyph-name="Scedilla" unicode="&#x15e;" horiz-adv-x="1613" 
d="M1534 492q0 -209 -171.5 -357t-457.5 -168l-51 -55q24 4 53 4q108 0 180 -57t72 -154q0 -107 -95.5 -171t-248.5 -64q-113 0 -203 35.5t-145 99.5l113 133q83 -98 225 -98q56 0 89.5 17.5t33.5 51.5q0 33 -33.5 52.5t-85.5 19.5q-62 0 -107 -31l-108 74l117 147
q-241 26 -412 150.5t-231 318.5l350 115q27 -78 71.5 -131.5t101 -80.5t111.5 -37.5t121 -10.5q84 0 154.5 18t114 54t43.5 82q0 39 -23.5 68.5t-82.5 54t-90.5 34t-113.5 30.5q-3 1 -5.5 1.5t-4.5 1.5l-172 43q-510 125 -510 461q0 142 88 254t239 172.5t337 60.5
q133 0 250.5 -32.5t200 -86.5t138 -118t78.5 -131l-344 -136q-91 177 -329 177q-116 0 -190.5 -38.5t-74.5 -93.5q0 -29 23 -56t53 -45t82 -37t85 -28.5t87 -23.5l203 -53q49 -13 80.5 -22.5t87 -30t92 -41.5t81 -55.5t71 -73.5t45 -94.5t18.5 -118.5z" />
    <glyph glyph-name="scedilla" unicode="&#x15f;" horiz-adv-x="1275" 
d="M1200 346q0 -165 -130 -266t-353 -113l-51 -55q24 4 53 4q108 0 180 -57t72 -154q0 -107 -95.5 -171t-248.5 -64q-113 0 -203 35.5t-145 99.5l112 133q83 -98 225 -98q56 0 89.5 17.5t33.5 51.5q0 33 -33 52.5t-85 19.5q-62 0 -107 -31l-108 74l118 149
q-183 23 -306 106.5t-165 209.5l330 102q74 -147 266 -147q68 0 120 18t52 55q0 22 -14.5 39t-42 29t-52 19t-60.5 16q-11 3 -17 4l-148 37q-71 18 -132 44.5t-117 67.5t-88.5 100.5t-32.5 131.5q0 109 68 195t186.5 133t265.5 47q203 0 342.5 -81.5t183.5 -211.5l-325 -103
q-60 121 -211 121q-67 0 -110.5 -22t-43.5 -56q0 -15 9 -27.5t30 -23.5t38.5 -19t52 -17t51.5 -13t55 -12l104 -23q39 -9 63.5 -15t69.5 -21t75 -31t67 -43.5t59 -59t37.5 -77.5t15.5 -99z" />
    <glyph glyph-name="Scaron" unicode="&#x160;" horiz-adv-x="1613" 
d="M981 2095h330l-344 -375h-355l-344 375h330q31 -24 96.5 -76t96.5 -77q37 27 101 80t89 73zM829 -35q-284 0 -488.5 128.5t-272.5 346.5l350 115q27 -78 71.5 -131.5t101 -80.5t111.5 -37.5t121 -10.5q84 0 154.5 18t114 54t43.5 82q0 39 -23.5 68.5t-82.5 54t-90.5 34
t-113.5 30.5q-3 1 -5.5 1.5t-4.5 1.5l-172 43q-510 125 -510 461q0 142 88 254t239 172.5t337 60.5q133 0 250.5 -32.5t200 -86.5t138 -118t78.5 -131l-344 -136q-91 177 -329 177q-116 0 -190.5 -38.5t-74.5 -93.5q0 -29 23 -56t53 -45t82 -37t85 -28.5t87 -23.5l203 -53
q49 -13 80.5 -22.5t87 -30t92 -41.5t81 -55.5t71 -73.5t45 -94.5t18.5 -118.5q0 -109 -49.5 -205t-139.5 -167.5t-223.5 -113t-292.5 -41.5z" />
    <glyph glyph-name="scaron" unicode="&#x161;" horiz-adv-x="1275" 
d="M801 1303h-359l-354 395h334l201 -172q34 28 100 85.5t100 86.5h334zM653 -35q-232 0 -392 88t-208 236l330 102q74 -147 266 -147q68 0 120 18t52 55q0 22 -14.5 39t-42 29t-52 19t-60.5 16q-11 3 -17 4l-148 37q-71 18 -132 44.5t-117 67.5t-88.5 100.5t-32.5 131.5
q0 109 68 195t186.5 133t265.5 47q203 0 342.5 -81.5t183.5 -211.5l-325 -103q-60 121 -211 121q-67 0 -110.5 -22t-43.5 -56q0 -15 9 -27.5t30 -23.5t38.5 -19t52 -17t51.5 -13t55 -12l104 -23q39 -9 63.5 -15t69.5 -21t75 -31t67 -43.5t59 -59t37.5 -77.5t15.5 -99
q0 -177 -148 -279t-399 -102z" />
    <glyph glyph-name="uni0162" unicode="&#x162;" horiz-adv-x="1579" 
d="M977 0h-84l-82 -88q24 4 53 4q108 0 180 -57t72 -154q0 -107 -95.5 -171t-248.5 -64q-113 0 -203 35.5t-145 99.5l113 133q83 -98 225 -98q56 0 89.5 17.5t33.5 51.5q0 33 -33.5 52.5t-85.5 19.5q-62 0 -107 -31l-108 74l139 176h-88v1262h-571v335h1517v-335h-571v-1262
z" />
    <glyph glyph-name="uni0163" unicode="&#x163;" horiz-adv-x="1093" 
d="M1022 1147v-311h-369v-336q0 -29 0.5 -44.5t4 -43t10.5 -43.5t20.5 -36t33 -31t49.5 -18.5t69 -7.5q65 0 182 31v-303q-94 -39 -254 -39q-41 0 -61 2l-52 -55q24 4 54 4q108 0 180 -57t72 -154q0 -107 -96 -171t-249 -64q-113 0 -203 35.5t-145 99.5l113 133
q83 -98 225 -98q56 0 89.5 17.5t33.5 51.5q0 33 -33.5 52.5t-85.5 19.5q-61 0 -106 -31l-109 74l137 174q-48 17 -86 42.5t-62 51.5t-41.5 60.5t-25.5 60t-12.5 61.5t-5 53.5t-0.5 45.5v463h-270v311h270v319h354v-319h369z" />
    <glyph glyph-name="Tcaron" unicode="&#x164;" horiz-adv-x="1579" 
d="M981 2095h330l-344 -375h-355l-344 375h330q31 -24 96.5 -76t96.5 -77q37 27 101 80t89 73zM977 0h-375v1262h-571v335h1517v-335h-571v-1262z" />
    <glyph glyph-name="tcaron" unicode="&#x165;" horiz-adv-x="1093" 
d="M1255 1001h-204l200 302q-67 26 -103 76t-36 112q0 83 66.5 143t158.5 60q91 0 156.5 -58.5t65.5 -140.5q0 -16 -2.5 -31t-6 -28.5t-13 -32.5l-17 -34t-25 -41t-31 -45t-40 -55t-46.5 -63t-57.5 -76.5t-65.5 -87.5zM768 -35q-76 0 -139.5 11t-109 27t-81.5 43t-58.5 51.5
t-39 59.5t-24 59.5t-12 60t-5 52.5t-0.5 44v463h-270v311h270v319h354v-319h369v-311h-369v-336q0 -29 0.5 -44.5t4 -43t10.5 -43.5t20.5 -36t33 -31t49.5 -18.5t69 -7.5q65 0 182 31v-303q-94 -39 -254 -39z" />
    <glyph glyph-name="Tbar" unicode="&#x166;" horiz-adv-x="1579" 
d="M1548 1597v-335h-571v-320h323v-289h-323v-653h-375v653h-323v289h323v320h-571v335h1517z" />
    <glyph glyph-name="tbar" unicode="&#x167;" horiz-adv-x="1093" 
d="M1022 1147v-311h-369v-138h361v-252h-361q3 -37 11 -63.5t26.5 -53t56.5 -40t93 -13.5q65 0 182 31v-303q-94 -39 -254 -39q-76 0 -139.5 11t-109 27t-81.5 43t-58.5 51.5t-39 59.5t-24 59.5t-12 60t-5 52.5t-0.5 44v73h-266v252h266v138h-270v311h270v319h354v-319h369z
" />
    <glyph glyph-name="Umacron" unicode="&#x16a;" horiz-adv-x="1830" 
d="M1370 1741h-909v250h909v-250zM913 -35q-133 0 -242.5 25.5t-183.5 67t-131 100.5t-89.5 119t-53 129.5t-27 125.5t-6.5 113v952h377v-921q0 -60 10.5 -111.5t36.5 -100t65.5 -82.5t102.5 -54.5t143 -20.5q99 0 171 30t112 83t58 116t18 140v921h377v-952
q0 -58 -6.5 -113.5t-26.5 -125.5t-52 -130t-89.5 -118.5t-132.5 -100t-185.5 -67t-245.5 -25.5z" />
    <glyph glyph-name="umacron" unicode="&#x16b;" horiz-adv-x="1550" 
d="M1188 1300h-826v236h826v-236zM647 -35q-231 0 -363 122t-132 341v719h354v-604q0 -106 63.5 -178t180.5 -72q129 0 203.5 67t74.5 183v604h354v-789q0 -131 11 -205.5t34 -152.5h-354q-26 91 -24 115h-5q-136 -150 -397 -150z" />
    <glyph glyph-name="Uring" unicode="&#x16e;" horiz-adv-x="1830" 
d="M915 1708q-133 0 -225 76t-92 184q0 110 91.5 185t225.5 75q132 0 223 -74.5t91 -185.5t-91 -185.5t-223 -74.5zM915 1890q42 0 72.5 23.5t30.5 54.5q0 30 -30.5 53t-72.5 23q-46 0 -76 -23t-30 -53q0 -32 30 -55t76 -23zM913 -35q-133 0 -242.5 25.5t-183.5 67
t-131 100.5t-89.5 119t-53 129.5t-27 125.5t-6.5 113v952h377v-921q0 -60 10.5 -111.5t36.5 -100t65.5 -82.5t102.5 -54.5t143 -20.5q99 0 171 30t112 83t58 116t18 140v921h377v-952q0 -58 -6.5 -113.5t-26.5 -125.5t-52 -130t-89.5 -118.5t-132.5 -100t-185.5 -67
t-245.5 -25.5z" />
    <glyph glyph-name="uring" unicode="&#x16f;" horiz-adv-x="1550" 
d="M776 1257q-133 0 -225 76.5t-92 184.5q0 110 91.5 185t225.5 75q132 0 223 -74.5t91 -185.5q0 -112 -91 -186.5t-223 -74.5zM776 1440q42 0 72.5 23.5t30.5 54.5q0 30 -30.5 52.5t-72.5 22.5q-46 0 -76 -22.5t-30 -52.5q0 -32 30 -55t76 -23zM647 -35q-231 0 -363 122
t-132 341v719h354v-604q0 -106 63.5 -178t180.5 -72q129 0 203.5 67t74.5 183v604h354v-789q0 -131 11 -205.5t34 -152.5h-354q-26 91 -24 115h-5q-136 -150 -397 -150z" />
    <glyph glyph-name="Uhungarumlaut" unicode="&#x170;" horiz-adv-x="1830" 
d="M1130 2093l-372 -373h-307l260 373h419zM1702 2093l-377 -373h-309l266 373h420zM913 -35q-133 0 -242.5 25.5t-183.5 67t-131 100.5t-89.5 119t-53 129.5t-27 125.5t-6.5 113v952h377v-921q0 -60 10.5 -111.5t36.5 -100t65.5 -82.5t102.5 -54.5t143 -20.5q99 0 171 30
t112 83t58 116t18 140v921h377v-952q0 -58 -6.5 -113.5t-26.5 -125.5t-52 -130t-89.5 -118.5t-132.5 -100t-185.5 -67t-245.5 -25.5z" />
    <glyph glyph-name="uhungarumlaut" unicode="&#x171;" horiz-adv-x="1550" 
d="M961 1673l-383 -395h-299l274 395h408zM1536 1673l-389 -395h-299l278 395h410zM647 -35q-231 0 -363 122t-132 341v719h354v-604q0 -106 63.5 -178t180.5 -72q129 0 203.5 67t74.5 183v604h354v-789q0 -131 11 -205.5t34 -152.5h-354q-26 91 -24 115h-5
q-136 -150 -397 -150z" />
    <glyph glyph-name="Uogonek" unicode="&#x172;" horiz-adv-x="1830" 
d="M1274 676v921h377v-952q0 -52 -5 -102t-20.5 -112.5t-40 -117t-68 -111t-100.5 -100t-141 -77t-186 -48.5q-56 -23 -79.5 -56.5t-23.5 -59.5q0 -38 45.5 -74.5t134.5 -36.5q66 0 107 10v-204q-64 -19 -162 -19q-73 0 -138.5 14t-119 42t-84.5 75t-31 107q0 52 35 102
t100 88q-125 4 -228.5 31.5t-174 70t-124.5 101t-85 117.5t-50 127t-25.5 122.5t-6.5 110.5v952h377v-921q0 -60 10.5 -111.5t36.5 -100t65.5 -82.5t102.5 -54.5t143 -20.5q99 0 171 30t112 83t58 116t18 140z" />
    <glyph glyph-name="uogonek" unicode="&#x173;" horiz-adv-x="1550" 
d="M1114 -141q0 -39 42 -67t114 -28q64 0 114 17v-230q-66 -14 -147 -14q-158 0 -262.5 62t-104.5 180q0 76 57.5 136t151.5 85h-6q-26 91 -24 115h-5q-136 -150 -397 -150q-231 0 -363 122t-132 341v719h354v-604q0 -106 63.5 -178t180.5 -72q129 0 203.5 67t74.5 183v604
h354v-789q0 -131 11 -205.5t34 -152.5h-122q-99 -14 -145 -55.5t-46 -85.5z" />
    <glyph glyph-name="Wcircumflex" unicode="&#x174;" horiz-adv-x="2850" 
d="M1599 2095l351 -375h-330q-32 26 -95 74t-95 74q-34 -29 -99.5 -77t-93.5 -71h-330l350 375h342zM1034 0h-473l-543 1597h431q194 -578 352 -1081h4q380 1013 405 1081h428q68 -180 204.5 -540.5t203.5 -540.5h6q264 832 350 1081h430l-542 -1597h-469
q-262 649 -394 1014h-4q-228 -624 -389 -1014z" />
    <glyph glyph-name="wcircumflex" unicode="&#x175;" horiz-adv-x="2308" 
d="M950 1278h-334l355 375h358l357 -375h-334l-201 172q-34 -29 -100.5 -86t-100.5 -86zM881 0h-416l-453 1147h404l274 -709h8l301 709h312l297 -709h6l278 709h402l-449 -1147h-432q-168 406 -256 623h-4q-238 -547 -272 -623z" />
    <glyph glyph-name="Ycircumflex" unicode="&#x176;" horiz-adv-x="1726" 
d="M1036 2095l350 -375h-329q-32 26 -95.5 74t-95.5 74q-34 -29 -99 -77.5t-93 -70.5h-330l350 375h342zM1051 0h-375v535q-589 929 -670 1062h404q76 -117 225 -350.5t225 -349.5h4q27 42 451 700h403q-112 -176 -334 -529t-333 -529v-539z" />
    <glyph glyph-name="ycircumflex" unicode="&#x177;" horiz-adv-x="1447" 
d="M520 1278h-334l355 375h358l356 -375h-333l-201 172q-34 -29 -100.5 -86t-100.5 -86zM733 -451h-379l185 390l-531 1208h391q177 -386 328 -750h4q101 244 328 750h381z" />
    <glyph glyph-name="Ydieresis" unicode="&#x178;" horiz-adv-x="1726" 
d="M582 1712q-90 0 -151.5 57.5t-61.5 143.5q0 80 62 136t151 56q88 0 149.5 -56t61.5 -136q0 -86 -61.5 -143.5t-149.5 -57.5zM1147 1712q-91 0 -153 57.5t-62 143.5q0 80 62.5 136t152.5 56q86 0 147.5 -56.5t61.5 -135.5q0 -85 -61 -143t-148 -58zM1051 0h-375v535
q-589 929 -670 1062h404q76 -117 225 -350.5t225 -349.5h4q27 42 451 700h403q-112 -176 -334 -529t-333 -529v-539z" />
    <glyph glyph-name="Zacute" unicode="&#x179;" horiz-adv-x="1667" 
d="M1397 2095l-391 -375h-322l277 375h436zM1577 0h-1489v336q983 915 995 926v4q-161 -1 -483 -2t-483 -2v335h1442v-342q-65 -59 -437.5 -396.5t-570.5 -518.5v-4h1026v-336z" />
    <glyph glyph-name="zacute" unicode="&#x17a;" horiz-adv-x="1320" 
d="M1159 1653l-373 -375h-307l264 375h416zM1249 0h-1161v293l637 541h-623v313h1098v-293l-639 -541h688v-313z" />
    <glyph glyph-name="Zdotaccent" unicode="&#x17b;" horiz-adv-x="1667" 
d="M797 1743q-93 0 -156 59t-63 146q0 81 63 138.5t156 57.5q90 0 152.5 -58t62.5 -138q0 -86 -62 -145.5t-153 -59.5zM1577 0h-1489v336q983 915 995 926v4q-161 -1 -483 -2t-483 -2v335h1442v-342q-65 -59 -437.5 -396.5t-570.5 -518.5v-4h1026v-336z" />
    <glyph glyph-name="zdotaccent" unicode="&#x17c;" horiz-adv-x="1320" 
d="M659 1278q-93 0 -156 59t-63 146q0 81 63 138.5t156 57.5q90 0 152.5 -58t62.5 -138q0 -86 -62 -145.5t-153 -59.5zM1249 0h-1161v293l637 541h-623v313h1098v-293l-639 -541h688v-313z" />
    <glyph glyph-name="Zcaron" unicode="&#x17d;" horiz-adv-x="1667" 
d="M1028 2095h330l-344 -375h-355l-344 375h330q32 -24 96.5 -76t96.5 -77q37 27 101 80t89 73zM1577 0h-1489v336q983 915 995 926v4q-161 -1 -483 -2t-483 -2v335h1442v-342q-65 -59 -437.5 -396.5t-570.5 -518.5v-4h1026v-336z" />
    <glyph glyph-name="zcaron" unicode="&#x17e;" horiz-adv-x="1320" 
d="M836 1298h-359l-354 396h334l200 -172q34 29 100.5 86t100.5 86h334zM1249 0h-1161v293l637 541h-623v313h1098v-293l-639 -541h688v-313z" />
    <glyph glyph-name="uni0218" unicode="&#x218;" horiz-adv-x="1613" 
d="M829 -35q-284 0 -488.5 128.5t-272.5 346.5l350 115q27 -78 71.5 -131.5t101 -80.5t111.5 -37.5t121 -10.5q84 0 154.5 18t114 54t43.5 82q0 39 -23.5 68.5t-82.5 54t-90.5 34t-113.5 30.5q-3 1 -5.5 1.5t-4.5 1.5l-172 43q-510 125 -510 461q0 142 88 254t239 172.5
t337 60.5q133 0 250.5 -32.5t200 -86.5t138 -118t78.5 -131l-344 -136q-91 177 -329 177q-116 0 -190.5 -38.5t-74.5 -93.5q0 -29 23 -56t53 -45t82 -37t85 -28.5t87 -23.5l203 -53q49 -13 80.5 -22.5t87 -30t92 -41.5t81 -55.5t71 -73.5t45 -94.5t18.5 -118.5
q0 -109 -49.5 -205t-139.5 -167.5t-223.5 -113t-292.5 -41.5zM799 -696h-191l160 252q-55 25 -88 68.5t-33 96.5q0 75 56 125t139 50t137.5 -49t54.5 -121q0 -28 -5.5 -50.5t-26.5 -59.5t-40.5 -66.5t-70 -104.5t-92.5 -141z" />
    <glyph glyph-name="uni0219" unicode="&#x219;" horiz-adv-x="1275" 
d="M653 -35q-232 0 -392 88t-208 236l330 102q74 -147 266 -147q68 0 120 18t52 55q0 22 -14.5 39t-42 29t-52 19t-60.5 16q-11 3 -17 4l-148 37q-71 18 -132 44.5t-117 67.5t-88.5 100.5t-32.5 131.5q0 109 68 195t186.5 133t265.5 47q203 0 342.5 -81.5t183.5 -211.5
l-325 -103q-60 121 -211 121q-67 0 -110.5 -22t-43.5 -56q0 -15 9 -27.5t30 -23.5t38.5 -19t52 -17t51.5 -13t55 -12l104 -23q39 -9 63.5 -15t69.5 -21t75 -31t67 -43.5t59 -59t37.5 -77.5t15.5 -99q0 -177 -148 -279t-399 -102zM610 -696h-190l160 252q-55 25 -88 68.5
t-33 96.5q0 75 55.5 125t138.5 50t138 -49t55 -121q0 -28 -5.5 -51t-26.5 -59.5t-41 -66.5t-70 -104.5t-93 -140.5z" />
    <glyph glyph-name="uni021A" unicode="&#x21a;" horiz-adv-x="1579" 
d="M977 0h-375v1262h-571v335h1517v-335h-571v-1262zM756 -696h-191l160 252q-55 25 -88 68.5t-33 96.5q0 75 56 125t139 50t137.5 -49t54.5 -121q0 -28 -5.5 -50.5t-26.5 -59.5t-40.5 -66.5t-70 -104.5t-92.5 -141z" />
    <glyph glyph-name="uni021B" unicode="&#x21b;" horiz-adv-x="1093" 
d="M768 -35q-76 0 -139.5 11t-109 27t-81.5 43t-58.5 51.5t-39 59.5t-24 59.5t-12 60t-5 52.5t-0.5 44v463h-270v311h270v319h354v-319h369v-311h-369v-336q0 -29 0.5 -44.5t4 -43t10.5 -43.5t20.5 -36t33 -31t49.5 -18.5t69 -7.5q65 0 182 31v-303q-94 -39 -254 -39z
M600 -696h-190l159 252q-55 25 -87.5 68.5t-32.5 96.5q0 75 55.5 125t138.5 50t138 -49t55 -121q0 -28 -5.5 -51t-26.5 -59.5t-41 -66.5t-70 -104.5t-93 -140.5z" />
    <glyph glyph-name="gravecomb" unicode="&#x300;" horiz-adv-x="0" 
d="M-63 1278h-308l-372 375h415z" />
    <glyph glyph-name="acutecomb" unicode="&#x301;" horiz-adv-x="0" 
d="M29 1653l-373 -375h-307l264 375h416z" />
    <glyph glyph-name="uni0302" unicode="&#x302;" horiz-adv-x="0" 
d="M-758 1278h-334l355 375h358l356 -375h-333l-201 172q-34 -29 -100.5 -86t-100.5 -86z" />
    <glyph glyph-name="tildecomb" unicode="&#x303;" horiz-adv-x="0" 
d="M-375 1313q-104 0 -170 37l-69 39q-47 28 -97 28q-41 0 -63.5 -25t-22.5 -61h-252q0 156 90.5 250t227.5 94q96 0 184 -45l64 -33q29 -16 77 -16q33 0 51.5 21.5t18.5 58.5h254q0 -170 -76 -259t-217 -89z" />
    <glyph glyph-name="uni0304" unicode="&#x304;" horiz-adv-x="0" 
d="M-111 1280h-825v236h825v-236z" />
    <glyph glyph-name="uni0306" unicode="&#x306;" horiz-adv-x="0" 
d="M-512 1264q-207 0 -332 110t-133 285h289q0 -59 49 -107.5t137 -48.5t136.5 48t50.5 108h288q-8 -176 -137 -285.5t-348 -109.5z" />
    <glyph glyph-name="uni0307" unicode="&#x307;" horiz-adv-x="0" 
d="M-299 1257q-93 0 -156 59t-63 146q0 81 63 139t156 58q90 0 152.5 -58.5t62.5 -138.5q0 -86 -62 -145.5t-153 -59.5z" />
    <glyph glyph-name="uni0308" unicode="&#x308;" horiz-adv-x="0" 
d="M-907 1276q-83 0 -141 54t-58 132q0 73 58 125.5t141 52.5q82 0 139 -52.5t57 -125.5q0 -78 -56.5 -132t-139.5 -54zM-344 1276q-84 0 -141.5 54t-57.5 132q0 73 57.5 125.5t141.5 52.5q81 0 139 -53t58 -125q0 -78 -57.5 -132t-139.5 -54z" />
    <glyph glyph-name="uni030A" unicode="&#x30a;" horiz-adv-x="0" 
d="M-352 1257q-133 0 -225.5 76.5t-92.5 184.5q0 110 92 185t226 75q132 0 222.5 -74t90.5 -186t-90.5 -186.5t-222.5 -74.5zM-352 1440q42 0 72 23.5t30 54.5q0 30 -30 52.5t-72 22.5q-46 0 -76.5 -22.5t-30.5 -52.5q0 -32 30.5 -55t76.5 -23z" />
    <glyph glyph-name="uni030B" unicode="&#x30b;" horiz-adv-x="0" 
d="M-512 1673l-383 -395h-299l274 395h408zM63 1673l-389 -395h-299l279 395h409z" />
    <glyph glyph-name="uni030C" unicode="&#x30c;" horiz-adv-x="0" 
d="M-379 1278h-358l-355 395h334l201 -172q34 29 100.5 86.5t100.5 85.5h333z" />
    <glyph glyph-name="uni0312" unicode="&#x312;" horiz-adv-x="0" 
d="M-483 1249q0 28 5.5 50.5t27 60t41 66t72 105t95.5 140.5h197l-168 -252q54 -26 85.5 -68.5t31.5 -97.5q0 -75 -56 -124.5t-139 -49.5t-137.5 49t-54.5 121z" />
    <glyph glyph-name="uni0326" unicode="&#x326;" horiz-adv-x="0" 
d="M-377 -696h-190l159 252q-55 25 -87.5 68.5t-32.5 96.5q0 75 55.5 125t138.5 50t138 -49t55 -121q0 -28 -5.5 -51t-26.5 -59.5t-41 -66.5t-70 -104.5t-93 -140.5z" />
    <glyph glyph-name="uni0327" unicode="&#x327;" horiz-adv-x="0" 
d="M-770 -530q-113 0 -203 35.5t-145 99.5l112 133q83 -98 226 -98q56 0 89.5 17.5t33.5 51.5q0 33 -33.5 52.5t-85.5 19.5q-62 0 -107 -31l-108 74l139 176h203l-82 -88q24 4 53 4q108 0 180 -57t72 -154q0 -107 -95.5 -171t-248.5 -64z" />
    <glyph glyph-name="uni0328" unicode="&#x328;" horiz-adv-x="0" 
d="M-762 -483q-158 0 -262 61.5t-104 179.5q0 76 57 136.5t151 85.5h226q-99 -14 -145 -56t-46 -86q0 -39 42 -66.5t114 -27.5q68 0 115 16v-229q-66 -14 -148 -14z" />
    <glyph glyph-name="uni0335" unicode="&#x335;" horiz-adv-x="0" 
d="M-1014 705h981v-252h-981v252z" />
    <glyph glyph-name="uni0337" unicode="&#x337;" horiz-adv-x="0" 
d="M-651 383v293l815 518v-293z" />
    <glyph glyph-name="uni0338" unicode="&#x338;" horiz-adv-x="0" 
d="M-1133 -68h-383l1123 1248h375z" />
    <glyph glyph-name="Wgrave" unicode="&#x1e80;" horiz-adv-x="2850" 
d="M1622 1720h-322l-391 375h437zM1034 0h-473l-543 1597h431q194 -578 352 -1081h4q380 1013 405 1081h428q68 -180 204.5 -540.5t203.5 -540.5h6q264 832 350 1081h430l-542 -1597h-469q-262 649 -394 1014h-4q-228 -624 -389 -1014z" />
    <glyph glyph-name="wgrave" unicode="&#x1e81;" horiz-adv-x="2308" 
d="M1315 1278h-307l-373 375h416zM881 0h-416l-453 1147h404l274 -709h8l301 709h312l297 -709h6l278 709h402l-449 -1147h-432q-168 406 -256 623h-4q-238 -547 -272 -623z" />
    <glyph glyph-name="Wacute" unicode="&#x1e82;" horiz-adv-x="2850" 
d="M1985 2095l-392 -375h-321l276 375h437zM1034 0h-473l-543 1597h431q194 -578 352 -1081h4q380 1013 405 1081h428q68 -180 204.5 -540.5t203.5 -540.5h6q264 832 350 1081h430l-542 -1597h-469q-262 649 -394 1014h-4q-228 -624 -389 -1014z" />
    <glyph glyph-name="wacute" unicode="&#x1e83;" horiz-adv-x="2308" 
d="M1653 1653l-373 -375h-307l264 375h416zM881 0h-416l-453 1147h404l274 -709h8l301 709h312l297 -709h6l278 709h402l-449 -1147h-432q-168 406 -256 623h-4q-238 -547 -272 -623z" />
    <glyph glyph-name="Wdieresis" unicode="&#x1e84;" horiz-adv-x="2850" 
d="M1145 1712q-90 0 -151.5 57.5t-61.5 143.5q0 80 62 136t151 56q88 0 149.5 -56t61.5 -136q0 -86 -61.5 -143.5t-149.5 -57.5zM1710 1712q-91 0 -153 57.5t-62 143.5q0 80 62.5 136t152.5 56q86 0 147.5 -56.5t61.5 -135.5q0 -85 -61 -143t-148 -58zM1034 0h-473
l-543 1597h431q194 -578 352 -1081h4q380 1013 405 1081h428q68 -180 204.5 -540.5t203.5 -540.5h6q264 832 350 1081h430l-542 -1597h-469q-262 649 -394 1014h-4q-228 -624 -389 -1014z" />
    <glyph glyph-name="wdieresis" unicode="&#x1e85;" horiz-adv-x="2308" 
d="M870 1276q-83 0 -140.5 54t-57.5 132q0 73 57.5 125.5t140.5 52.5q82 0 139.5 -52.5t57.5 -125.5q0 -78 -57 -132t-140 -54zM1434 1276q-84 0 -141.5 54t-57.5 132q0 73 57.5 125.5t141.5 52.5q81 0 138.5 -52.5t57.5 -125.5q0 -78 -57 -132t-139 -54zM881 0h-416
l-453 1147h404l274 -709h8l301 709h312l297 -709h6l278 709h402l-449 -1147h-432q-168 406 -256 623h-4q-238 -547 -272 -623z" />
    <glyph glyph-name="uni1E9E" unicode="&#x1e9e;" horiz-adv-x="1892" 
d="M553 0h-377v872q0 88 10.5 166.5t36 156.5t64.5 141.5t100 119t140 93.5t186 59.5t235 21.5q177 0 320.5 -39t236 -106.5t142 -155.5t49.5 -188q0 -127 -77.5 -214.5t-211.5 -115.5v-8q75 -5 144.5 -30.5t126.5 -70t91.5 -114t34.5 -152.5q0 -40 -8.5 -79.5t-30.5 -83.5
t-55.5 -82.5t-89 -74t-125.5 -61t-169.5 -40.5t-217.5 -15h-268v332h303q132 0 197 35t65 96t-71 94t-199 33h-144v334h82q44 0 94 18.5t90.5 62.5t40.5 103q0 92 -96 141t-250 49q-82 0 -147.5 -15.5t-106.5 -37.5t-70.5 -58t-43.5 -65t-21.5 -70.5t-8.5 -62.5t-1 -53v-936
z" />
    <glyph glyph-name="Ygrave" unicode="&#x1ef2;" horiz-adv-x="1726" 
d="M1059 1720h-322l-391 375h436zM1051 0h-375v535q-589 929 -670 1062h404q76 -117 225 -350.5t225 -349.5h4q27 42 451 700h403q-112 -176 -334 -529t-333 -529v-539z" />
    <glyph glyph-name="ygrave" unicode="&#x1ef3;" horiz-adv-x="1447" 
d="M885 1278h-307l-373 375h416zM733 -451h-379l185 390l-531 1208h391q177 -386 328 -750h4q101 244 328 750h381z" />
    <glyph glyph-name="uni2000" unicode="&#x2000;" horiz-adv-x="1228" 
 />
    <glyph glyph-name="uni2001" unicode="&#x2001;" 
 />
    <glyph glyph-name="uni2002" unicode="&#x2002;" horiz-adv-x="1228" 
 />
    <glyph glyph-name="uni2003" unicode="&#x2003;" 
 />
    <glyph glyph-name="uni2004" unicode="&#x2004;" horiz-adv-x="819" 
 />
    <glyph glyph-name="uni2005" unicode="&#x2005;" horiz-adv-x="614" 
 />
    <glyph glyph-name="uni2006" unicode="&#x2006;" horiz-adv-x="409" 
 />
    <glyph glyph-name="uni2007" unicode="&#x2007;" horiz-adv-x="583" 
 />
    <glyph glyph-name="uni2008" unicode="&#x2008;" horiz-adv-x="657" 
 />
    <glyph glyph-name="uni2009" unicode="&#x2009;" horiz-adv-x="307" 
 />
    <glyph glyph-name="uni200A" unicode="&#x200a;" horiz-adv-x="102" 
 />
    <glyph glyph-name="uni200B" unicode="&#x200b;" horiz-adv-x="0" 
 />
    <glyph glyph-name="endash" unicode="&#x2013;" horiz-adv-x="1214" 
d="M1069 479h-924v289h924v-289z" />
    <glyph glyph-name="emdash" unicode="&#x2014;" horiz-adv-x="1722" 
d="M1581 494h-1440v258h1440v-258z" />
    <glyph glyph-name="quoteleft" unicode="&#x2018;" horiz-adv-x="653" 
d="M383 1638h197l-193 -301q67 -26 103 -76t36 -112q0 -83 -66.5 -143t-158.5 -60q-91 0 -156 58.5t-65 140.5q0 16 2.5 31t6 28.5t13 32.5t17 33.5t25 40.5t30.5 45t40 55.5t46.5 63t57 76t65.5 87.5z" />
    <glyph glyph-name="quoteright" unicode="&#x2019;" horiz-adv-x="671" 
d="M305 981h-205l201 301q-67 26 -103 76t-36 112q0 83 66.5 143t158.5 60q91 0 156 -58t65 -140q0 -63 -41 -130.5t-182 -256.5q-16 -22 -25.5 -34.5t-25 -33.5t-29.5 -39z" />
    <glyph glyph-name="quotesinglbase" unicode="&#x201a;" horiz-adv-x="653" 
d="M248 -291h-197l193 301q-67 26 -103.5 76.5t-36.5 112.5q0 83 67 142.5t159 59.5q91 0 156 -58t65 -140q0 -63 -41 -130.5t-182 -256.5q-16 -22 -25.5 -34.5t-25 -33.5t-29.5 -39z" />
    <glyph glyph-name="quotedblleft" unicode="&#x201c;" horiz-adv-x="1193" 
d="M383 1638h197l-193 -301q67 -26 103 -76t36 -112q0 -83 -66.5 -143t-158.5 -60q-91 0 -156 58.5t-65 140.5q0 16 2.5 31t6 28.5t13 32.5t17 33.5t25 40.5t30.5 45t40 55.5t46.5 63t57 76t65.5 87.5zM872 1638h197l-192 -301q67 -26 103 -76t36 -112q0 -83 -66.5 -143
t-158.5 -60q-91 0 -156.5 58.5t-65.5 140.5q0 16 2.5 31t6 28.5t13 32.5t17 33.5t25 40.5t30.5 45t40 55.5t46.5 63t57 76t65.5 87.5z" />
    <glyph glyph-name="quotedblright" unicode="&#x201d;" horiz-adv-x="1208" 
d="M299 981h-197l193 301q-67 26 -103 76t-36 112q0 83 66.5 143t158.5 60q91 0 156 -58t65 -140q0 -63 -41 -130.5t-182 -256.5q-16 -22 -25.5 -34.5t-25 -33.5t-29.5 -39zM844 981h-197l191 301q-66 26 -102 75.5t-36 112.5q0 83 67 143t159 60q90 0 154.5 -58t64.5 -140
q0 -18 -2 -33.5t-9.5 -35t-14.5 -35t-23.5 -41.5t-29.5 -46t-40.5 -58t-49 -66.5t-61.5 -82.5t-71 -96z" />
    <glyph glyph-name="quotedblbase" unicode="&#x201e;" horiz-adv-x="1198" 
d="M248 -260h-197l193 301q-67 26 -103.5 76t-36.5 112q0 83 67 143t159 60q91 0 156 -58.5t65 -140.5q0 -16 -2.5 -31t-6 -28.5t-13 -32.5t-17 -33.5t-25 -40.5t-30.5 -45t-40 -55.5t-46.5 -63t-57 -76t-65.5 -87.5zM793 -260h-197l190 301q-66 26 -101.5 75.5t-35.5 112.5
q0 83 66.5 143t158.5 60q90 0 155 -58.5t65 -140.5q0 -20 -4 -39t-9.5 -36t-21 -44t-28 -47t-41.5 -60t-51 -69.5t-67 -90.5t-79 -107z" />
    <glyph glyph-name="dagger" unicode="&#x2020;" horiz-adv-x="1232" 
d="M752 1343h385v-245h-385v-670h-293v670h-361v245h361v295h293v-295z" />
    <glyph glyph-name="daggerdbl" unicode="&#x2021;" horiz-adv-x="1286" 
d="M1149 1343v-245h-356v-211h356v-246h-356v-295h-293v295h-361v246h361v211h-361v245h361v295h293v-295h356z" />
    <glyph glyph-name="bullet" unicode="&#x2022;" horiz-adv-x="1110" 
d="M553 446q-157 0 -267 105t-110 256q0 140 110.5 241t266.5 101q152 0 260.5 -101t108.5 -241q0 -150 -108 -255.5t-261 -105.5z" />
    <glyph glyph-name="ellipsis" unicode="&#x2026;" horiz-adv-x="1910" 
d="M330 -14q-93 0 -158.5 62t-65.5 151q0 83 66 142.5t158 59.5q91 0 155 -59.5t64 -142.5q0 -89 -64 -151t-155 -62zM879 -14q-93 0 -158.5 62t-65.5 151q0 83 66 142.5t158 59.5q91 0 155 -59.5t64 -142.5q0 -89 -64 -151t-155 -62zM1585 -14q-93 0 -158 62t-65 151
q0 83 65.5 142.5t157.5 59.5q91 0 155 -59.5t64 -142.5q0 -89 -64 -151t-155 -62z" />
    <glyph glyph-name="uni202F" unicode="&#x202f;" horiz-adv-x="436" 
 />
    <glyph glyph-name="perthousand" unicode="&#x2030;" horiz-adv-x="3295" 
d="M457 688q-181 0 -286 119.5t-105 314.5t105 314.5t286 119.5q180 0 285.5 -121t105.5 -313t-105.5 -313t-285.5 -121zM664 0h-330l1366 1468h321zM457 942q44 0 67 39t23 141q0 103 -23 143t-67 40q-45 0 -68.5 -40.5t-23.5 -142.5q0 -101 23.5 -140.5t68.5 -39.5z
M1925 -29q-181 0 -286 120t-105 315t105 314.5t286 119.5q180 0 285.5 -121t105.5 -313q0 -193 -105.5 -314t-285.5 -121zM2839 -29q-181 0 -286.5 120t-105.5 315t105.5 314.5t286.5 119.5q180 0 285.5 -121t105.5 -313q0 -193 -105.5 -314t-285.5 -121zM1925 225
q44 0 67 39.5t23 141.5q0 103 -23 142.5t-67 39.5q-45 0 -68.5 -40t-23.5 -142q0 -101 23.5 -141t68.5 -40zM2839 225q44 0 67 39.5t23 141.5q0 103 -23 142.5t-67 39.5q-45 0 -69 -40t-24 -142q0 -101 24 -141t69 -40z" />
    <glyph glyph-name="guilsinglleft" unicode="&#x2039;" horiz-adv-x="1060" 
d="M926 164h-408l-416 405v9l416 405h408l-416 -405v-9z" />
    <glyph glyph-name="guilsinglright" unicode="&#x203a;" horiz-adv-x="1060" 
d="M543 164h-408l416 405v9l-416 405h408l415 -405v-9z" />
    <glyph glyph-name="fraction" unicode="&#x2044;" horiz-adv-x="555" 
d="M-250 0h-330l1366 1468h322z" />
    <glyph glyph-name="uni205F" unicode="&#x205f;" horiz-adv-x="544" 
 />
    <glyph glyph-name="uni2070" unicode="&#x2070;" horiz-adv-x="913" 
d="M457 688q-181 0 -286 119.5t-105 314.5t105 314.5t286 119.5q180 0 285.5 -121t105.5 -313t-105.5 -313t-285.5 -121zM457 942q44 0 67 39t23 141q0 103 -23 143t-67 40q-45 0 -68.5 -40.5t-23.5 -142.5q0 -101 23.5 -140.5t68.5 -39.5z" />
    <glyph glyph-name="uni2074" unicode="&#x2074;" horiz-adv-x="917" 
d="M748 707h-273v135h-432v207l440 491h265v-475h110v-223h-110v-135zM475 1198l-164 -133h164v133z" />
    <glyph glyph-name="uni2075" unicode="&#x2075;" horiz-adv-x="894" 
d="M424 688q-87 0 -160 16.5t-136 61t-89 113.5l250 120q43 -79 139 -79q52 0 79.5 21.5t27.5 53.5q0 38 -30.5 60t-76.5 22q-38 0 -68 -17t-41 -36l-235 47l119 469h569v-217h-366l-41 -100h4q58 45 176 45q53 0 101 -13.5t92 -42.5t70 -82.5t26 -125.5q0 -101 -57 -174
t-148.5 -107.5t-204.5 -34.5z" />
    <glyph glyph-name="uni2076" unicode="&#x2076;" horiz-adv-x="927" 
d="M467 688q-184 0 -294 98t-110 287q0 210 135 346.5t355 136.5q88 0 170 -26.5t131 -83.5l-143 -178q-66 61 -164 61q-78 0 -129 -32.5t-72 -82.5h4q54 39 187 39q137 0 231 -71.5t94 -192.5q0 -131 -109.5 -216t-285.5 -85zM483 913q51 0 83 23t32 59t-32.5 58t-80.5 22
q-53 0 -84.5 -21.5t-31.5 -58.5q0 -35 32.5 -58.5t81.5 -23.5z" />
    <glyph glyph-name="uni2077" unicode="&#x2077;" horiz-adv-x="743" 
d="M473 707h-303q0 64 9 134.5t30.5 155t65.5 167.5t106 145h-346v223h680v-223q-242 -172 -242 -602z" />
    <glyph glyph-name="uni2078" unicode="&#x2078;" horiz-adv-x="909" 
d="M453 688q-184 0 -289 76t-105 182q0 75 49.5 131.5t108.5 67.5v2q-111 64 -111 164q0 111 100.5 178t246.5 67q91 0 168.5 -27.5t128.5 -88t51 -142.5q0 -50 -25.5 -86.5t-87.5 -64.5v-2q62 -14 112 -66t50 -129q0 -109 -106 -185.5t-291 -76.5zM455 1243q39 0 63.5 18
t24.5 44t-24 41.5t-64 15.5q-38 0 -63 -15.5t-25 -41.5t25.5 -44t62.5 -18zM455 926q46 0 75 20t29 51q0 32 -29 52t-75 20q-45 0 -75 -20t-30 -52q0 -31 30 -51t75 -20z" />
    <glyph glyph-name="uni2079" unicode="&#x2079;" horiz-adv-x="929" 
d="M401 688q-99 0 -190.5 27t-140.5 82l143 178q36 -30 91.5 -49t103.5 -19q78 0 120.5 39.5t51.5 93.5h-5q-55 -39 -192 -39q-133 0 -225 67.5t-92 188.5q0 130 108.5 214.5t286.5 84.5q119 0 207.5 -40.5t142 -131.5t53.5 -225q0 -207 -120 -339t-343 -132zM442 1184
q51 0 84 21.5t33 56.5t-32.5 58t-82.5 23q-53 0 -84.5 -22t-31.5 -59q0 -35 31.5 -56.5t82.5 -21.5z" />
    <glyph glyph-name="uni2080" unicode="&#x2080;" horiz-adv-x="913" 
d="M457 -285q-181 0 -286 120t-105 315t105 314.5t286 119.5q180 0 285.5 -121t105.5 -313q0 -193 -105.5 -314t-285.5 -121zM457 -31q44 0 67 39.5t23 141.5q0 103 -23 142.5t-67 39.5q-45 0 -68.5 -40t-23.5 -142q0 -101 23.5 -141t68.5 -40z" />
    <glyph glyph-name="uni2081" unicode="&#x2081;" horiz-adv-x="651" 
d="M530 -266h-282v440q-100 -60 -197 -82v293q93 30 146 80.5t53 101.5h280v-833z" />
    <glyph glyph-name="uni2082" unicode="&#x2082;" horiz-adv-x="886" 
d="M803 -266h-713v37q0 154 61 241t234 183q9 5 37.5 19.5t46 24t33.5 26.5t16 34q0 18 -21.5 29.5t-58.5 11.5q-57 0 -90.5 -31t-34.5 -88l-260 37q0 149 112 237.5t281 88.5q157 0 262 -77.5t105 -201.5q0 -74 -44 -132t-116 -87q-7 -3 -38.5 -15t-45 -18t-37 -17.5
t-38 -23.5t-23.5 -26h332v-252z" />
    <glyph glyph-name="uni2083" unicode="&#x2083;" horiz-adv-x="892" 
d="M428 -287q-145 0 -254 55t-137 138l250 121q48 -86 141 -86q96 0 96 57q0 21 -9 34t-28.5 18t-32.5 6t-36 1h-8h-93v185h93q44 0 77 14t33 43q0 22 -26.5 38.5t-65.5 16.5q-44 0 -72.5 -24t-33.5 -64l-261 58q13 106 121.5 183t270.5 77q146 0 247 -61.5t101 -164.5
q0 -62 -39 -112.5t-100 -59.5v-2q66 -11 116.5 -64t50.5 -122q0 -49 -25 -97.5t-72 -91.5t-126.5 -69.5t-177.5 -26.5z" />
    <glyph glyph-name="uni2084" unicode="&#x2084;" horiz-adv-x="917" 
d="M748 -266h-273v135h-432v207l440 491h265v-475h110v-223h-110v-135zM475 225l-164 -133h164v133z" />
    <glyph glyph-name="uni2085" unicode="&#x2085;" horiz-adv-x="894" 
d="M424 -285q-87 0 -160 16.5t-136 61t-89 113.5l250 121q44 -80 139 -80q52 0 79.5 22t27.5 54q0 38 -30.5 59.5t-76.5 21.5q-38 0 -68 -17t-41 -36l-235 47l119 469h569v-217h-366l-41 -100h4q58 45 176 45q53 0 101 -13.5t92 -42.5t70 -82.5t26 -125.5q0 -101 -57 -174
t-148.5 -107.5t-204.5 -34.5z" />
    <glyph glyph-name="uni2086" unicode="&#x2086;" horiz-adv-x="927" 
d="M467 -285q-184 0 -294 98t-110 287q0 210 135 347t355 137q88 0 170 -27t131 -84l-143 -178q-66 61 -164 61q-78 0 -129.5 -32t-71.5 -82h4q54 39 187 39q136 0 230.5 -71.5t94.5 -193.5q0 -131 -109.5 -216t-285.5 -85zM483 -59q51 0 83 23t32 59t-32 57.5t-81 21.5
q-53 0 -84.5 -21t-31.5 -58q0 -35 32.5 -58.5t81.5 -23.5z" />
    <glyph glyph-name="uni2087" unicode="&#x2087;" horiz-adv-x="743" 
d="M473 -266h-303q0 64 9 134.5t30.5 155t65.5 167.5t106 145h-346v223h680v-223q-242 -172 -242 -602z" />
    <glyph glyph-name="uni2088" unicode="&#x2088;" horiz-adv-x="909" 
d="M453 -285q-184 0 -289 76t-105 182q0 75 49.5 131.5t108.5 67.5v2q-111 64 -111 164q0 111 100.5 178.5t246.5 67.5q91 0 168.5 -27.5t128.5 -88t51 -142.5q0 -101 -113 -152v-2q62 -14 112 -66t50 -129q0 -109 -106 -185.5t-291 -76.5zM455 270q39 0 63.5 18t24.5 44
t-24 41.5t-64 15.5q-38 0 -63 -15.5t-25 -41.5t25.5 -44t62.5 -18zM455 -47q45 0 74.5 20.5t29.5 51.5q0 32 -29 51.5t-75 19.5q-45 0 -75 -19.5t-30 -51.5q0 -31 30.5 -51.5t74.5 -20.5z" />
    <glyph glyph-name="uni2089" unicode="&#x2089;" horiz-adv-x="929" 
d="M401 -285q-99 0 -190.5 27t-140.5 82l143 178q36 -30 91.5 -49t103.5 -19q78 0 120.5 40t51.5 94h-5q-55 -39 -192 -39q-133 0 -225 67.5t-92 188.5q0 130 108.5 214.5t286.5 84.5q88 0 160.5 -24t127.5 -71.5t85 -124.5t30 -178q0 -207 -120 -339t-343 -132zM442 211
q51 0 84 21.5t33 56.5t-33 58.5t-82 23.5q-52 0 -84 -22.5t-32 -59.5q0 -35 31.5 -56.5t82.5 -21.5z" />
    <glyph glyph-name="Euro" unicode="&#x20ac;" horiz-adv-x="2035" 
d="M1739 410l209 -242q-127 -105 -300.5 -154t-338.5 -49q-334 0 -575 153.5t-326 413.5h-293v160h258q-6 50 -6 103q0 48 2 71h-254v160h284q78 274 325 439t581 165q428 0 641 -200l-260 -252q-151 110 -381 110q-185 0 -313 -65t-185 -197h631v-160h-670q-4 -46 -4 -69
q0 -61 8 -105h666v-160h-615q124 -225 484 -225q262 0 432 103z" />
    <glyph glyph-name="trademark" unicode="&#x2122;" horiz-adv-x="1939" 
d="M512 903h-190v547h-244v166h678v-166h-244v-547zM1063 903h-195v713h199q38 -68 126 -230.5t126 -230.5q19 35 113 210t137 251h198v-713h-194v363q-32 -59 -101 -181.5t-100 -181.5h-108q-31 59 -100 181.5t-101 181.5v-363z" />
    <glyph glyph-name="oneeighth" unicode="&#x215b;" horiz-adv-x="2115" 
d="M530 707h-282v440q-100 -60 -197 -82v293q93 30 146 80.5t53 101.5h280v-833zM401 0h-329l1366 1468h321zM1659 -29q-184 0 -288.5 75.5t-104.5 182.5q0 75 49 131.5t108 67.5v2q-110 63 -110 164q0 111 100 178.5t246 67.5q91 0 168.5 -27.5t128.5 -88t51 -142.5
q0 -101 -113 -152v-2q62 -14 112 -66t50 -129q0 -109 -106 -185.5t-291 -76.5zM1661 526q39 0 63.5 18t24.5 44t-24 41.5t-64 15.5q-38 0 -63 -15.5t-25 -41.5t25.5 -44t62.5 -18zM1661 209q45 0 74.5 20.5t29.5 51.5q0 32 -29 51.5t-75 19.5q-45 0 -75 -19.5t-30 -51.5
q0 -31 30.5 -51.5t74.5 -20.5z" />
    <glyph glyph-name="threeeighths" unicode="&#x215c;" horiz-adv-x="2357" 
d="M428 686q-145 0 -254 55t-137 138l250 120q48 -86 141 -86q96 0 96 58q0 21 -9 34t-28.5 18t-32.5 6t-36 1h-8h-93v184h93q43 0 76.5 14.5t33.5 43.5q0 22 -26.5 38.5t-65.5 16.5q-44 0 -72.5 -24t-33.5 -64l-261 57q13 106 121.5 183t270.5 77q146 0 247 -61.5
t101 -163.5q0 -62 -39 -112.5t-100 -59.5v-2q66 -11 116.5 -64t50.5 -122q0 -49 -25 -97.5t-72 -91.5t-126.5 -69.5t-177.5 -26.5zM643 0h-330l1366 1468h322zM1901 -29q-184 0 -289 76t-105 182q0 75 49.5 131.5t108.5 67.5v2q-111 64 -111 164q0 111 100.5 178.5
t246.5 67.5q91 0 168.5 -27.5t128.5 -88t51 -142.5q0 -101 -113 -152v-2q62 -14 112 -66t50 -129q0 -109 -106 -185.5t-291 -76.5zM1903 526q39 0 63.5 18t24.5 44t-24 41.5t-64 15.5q-38 0 -63 -15.5t-25 -41.5t25.5 -44t62.5 -18zM1903 209q45 0 74.5 20.5t29.5 51.5
q0 32 -29 51.5t-75 19.5q-45 0 -75 -19.5t-30 -51.5q0 -31 30.5 -51.5t74.5 -20.5z" />
    <glyph glyph-name="fiveeighths" unicode="&#x215d;" horiz-adv-x="2359" 
d="M424 688q-87 0 -160 16.5t-136 61t-89 113.5l250 120q43 -79 139 -79q52 0 79.5 21.5t27.5 53.5q0 38 -30.5 60t-76.5 22q-38 0 -68 -17t-41 -36l-235 47l119 469h569v-217h-366l-41 -100h4q58 45 176 45q53 0 101 -13.5t92 -42.5t70 -82.5t26 -125.5q0 -101 -57 -174
t-148.5 -107.5t-204.5 -34.5zM645 0h-330l1366 1468h322zM1903 -29q-184 0 -289 76t-105 182q0 75 49.5 131.5t108.5 67.5v2q-111 64 -111 164q0 111 100.5 178.5t246.5 67.5q91 0 168.5 -27.5t128.5 -88t51 -142.5q0 -101 -113 -152v-2q62 -14 112 -66t50 -129
q0 -109 -106 -185.5t-291 -76.5zM1905 526q39 0 63.5 18t24.5 44t-24 41.5t-64 15.5q-38 0 -63 -15.5t-25 -41.5t25.5 -44t62.5 -18zM1905 209q45 0 74.5 20.5t29.5 51.5q0 32 -29 51.5t-75 19.5q-45 0 -75 -19.5t-30 -51.5q0 -31 30.5 -51.5t74.5 -20.5z" />
    <glyph glyph-name="seveneighths" unicode="&#x215e;" horiz-adv-x="2207" 
d="M473 707h-303q0 64 9 134.5t30.5 155t65.5 167.5t106 145h-346v223h680v-223q-242 -172 -242 -602zM494 0h-330l1366 1468h321zM1751 -29q-184 0 -288.5 75.5t-104.5 182.5q0 75 49.5 131.5t108.5 67.5v2q-111 64 -111 164q0 111 100 178.5t246 67.5q91 0 168.5 -27.5
t128.5 -88t51 -142.5q0 -50 -25 -87t-87 -65v-2q62 -14 111.5 -66t49.5 -129q0 -109 -106 -185.5t-291 -76.5zM1753 526q39 0 63.5 18t24.5 44t-24 41.5t-64 15.5q-38 0 -63 -15.5t-25 -41.5t25.5 -44t62.5 -18zM1753 209q46 0 75.5 20.5t29.5 51.5q0 32 -29.5 51.5
t-75.5 19.5q-45 0 -74.5 -19.5t-29.5 -51.5q0 -31 30 -51.5t74 -20.5z" />
    <glyph glyph-name="arrowleft" unicode="&#x2190;" horiz-adv-x="1652" 
d="M561 778h965v-266h-967l285 -276h-328l-407 405v8l407 406h328z" />
    <glyph glyph-name="arrowup" unicode="&#x2191;" horiz-adv-x="1196" 
d="M602 1202l488 -340v-307l-351 250v-785h-282v783l-351 -248v307l488 340h8z" />
    <glyph glyph-name="arrowright" unicode="&#x2192;" horiz-adv-x="1652" 
d="M809 1055h328l407 -406v-8l-407 -405h-328l285 276h-967v266h965z" />
    <glyph glyph-name="arrowdown" unicode="&#x2193;" horiz-adv-x="1196" 
d="M739 1202v-784l351 250v-308l-488 -340h-8l-488 340v308l351 -248v782h282z" />
    <glyph glyph-name="arrowboth" unicode="&#x2194;" horiz-adv-x="2080" 
d="M836 236h-328l-408 405v8l408 406h328l-312 -289h1032l-311 289h328l407 -406v-8l-407 -405h-328l311 288h-1032z" />
    <glyph glyph-name="arrowupdn" unicode="&#x2195;" horiz-adv-x="1273" 
d="M641 14h-8l-488 299v271l351 -189v617l-351 -207v282l488 299h8l487 -299v-282l-350 209v-621l350 191v-271z" />
    <glyph glyph-name="uni2196" unicode="&#x2196;" horiz-adv-x="1253" 
d="M1034 1036l154 -266l-426 39l391 -678l-246 -141l-391 678l-178 -389l-154 266l252 536l6 4z" />
    <glyph glyph-name="uni2197" unicode="&#x2197;" horiz-adv-x="1253" 
d="M817 1081l252 -536l-154 -266l-178 389l-391 -678l-246 141l392 678l-426 -39l153 266l592 49z" />
    <glyph glyph-name="uni2198" unicode="&#x2198;" horiz-adv-x="1251" 
d="M735 553l178 389l154 -266l-252 -537l-6 -4l-592 49l-154 267l426 -39l-391 678l246 141z" />
    <glyph glyph-name="uni2199" unicode="&#x2199;" horiz-adv-x="1251" 
d="M1153 1090l-391 -678l426 39l-154 -267l-592 -49l-6 4l-252 537l154 266l178 -389l391 678z" />
    <glyph glyph-name="emptyset" unicode="&#x2205;" horiz-adv-x="1732" 
d="M1550 1180l-149 -176q95 -81 146.5 -192t51.5 -241q0 -177 -93.5 -315t-260.5 -214.5t-379 -76.5q-172 0 -309 49l-162 -190l-207 133l152 176q-100 83 -153.5 194.5t-53.5 243.5q0 176 93.5 315t261.5 216.5t380 77.5q168 0 316 -52l153 181zM500 571q0 -98 67 -168
l377 443q-38 6 -76 6q-160 0 -264 -79t-104 -202zM868 293q159 0 262 78.5t103 199.5q0 92 -62 164l-372 -438q46 -4 69 -4z" />
    <glyph glyph-name="minus" unicode="&#x2212;" horiz-adv-x="1302" 
d="M1157 500h-1012v256h1012v-256z" />
    <glyph glyph-name="infinity" unicode="&#x221e;" horiz-adv-x="2127" 
d="M573 283q-200 0 -324 96.5t-124 245.5q0 95 64.5 175t167 123.5t216.5 43.5t218 -41.5t272 -161.5q174 120 276 161.5t211 41.5q201 0 326 -96.5t125 -245.5t-125 -245.5t-326 -96.5q-122 0 -223 42t-262 160q-156 -126 -257.5 -164t-234.5 -38zM594 496q69 0 131 28
t170 101q-109 78 -167.5 104.5t-133.5 26.5q-81 0 -139 -37.5t-58 -93.5q0 -58 59 -93.5t138 -35.5zM1536 498q81 0 137 34.5t56 92.5q0 56 -55 91.5t-138 35.5q-73 0 -134 -26.5t-165 -100.5q100 -67 165.5 -97t133.5 -30z" />
    <glyph glyph-name="approxequal" unicode="&#x2248;" horiz-adv-x="1368" 
d="M418 641h-277q0 167 95.5 270t240.5 103q60 0 116 -16.5t91 -36t79 -36t83 -16.5q102 0 102 99h277q0 -179 -83.5 -278t-234.5 -99q-67 0 -127.5 18t-97 39t-79.5 39t-79 18q-51 0 -78.5 -32t-27.5 -72zM418 168h-277q0 167 95.5 270t240.5 103q60 0 116 -16.5t91 -36
t79 -36t83 -16.5q102 0 102 99h277q0 -179 -83.5 -278t-234.5 -99q-67 0 -127.5 18t-97 39t-79.5 39t-79 18q-51 0 -78.5 -32t-27.5 -72z" />
    <glyph glyph-name="notequal" unicode="&#x2260;" horiz-adv-x="1347" 
d="M1190 963v-256h-348l-94 -203h442v-256h-541l-71 -164h-246l71 164h-247v256h344l96 203h-440v256h536l62 139h245l-61 -139h252z" />
    <glyph glyph-name="lessequal" unicode="&#x2264;" horiz-adv-x="1269" 
d="M1114 219h-960v215h512l-506 164v262l954 166v-233l-647 -105l647 -242v-227z" />
    <glyph glyph-name="greaterequal" unicode="&#x2265;" horiz-adv-x="1269" 
d="M1116 219h-960v227l649 242l-649 105v233l954 -166v-262l-504 -164h510v-215z" />
    <glyph glyph-name="lozenge" unicode="&#x25ca;" horiz-adv-x="1361" 
d="M735 0h-108l-514 694l514 692h108l514 -692zM403 694l275 -336h6l272 336l-272 334h-6z" />
    <glyph glyph-name="A.ss01" horiz-adv-x="1914" 
d="M414 0h-408l694 1597h514l695 -1597h-398q-104 217 -157 365h-781q-48 -133 -159 -365zM688 690h551q-45 91 -127.5 265t-105.5 223h-84z" />
    <glyph glyph-name="Aacute.ss01" horiz-adv-x="1914" 
d="M1505 2095l-391 -375h-321l276 375h436zM414 0h-408l694 1597h514l695 -1597h-398q-104 217 -157 365h-781q-48 -133 -159 -365zM688 690h551q-45 91 -127.5 265t-105.5 223h-84z" />
    <glyph glyph-name="Abreve.ss01" horiz-adv-x="1914" 
d="M948 1712q-211 0 -346 105.5t-139 275.5h301q3 -61 51 -103t133 -42t132 42t50 103h302q-3 -169 -139.5 -275t-344.5 -106zM414 0h-408l694 1597h514l695 -1597h-398q-104 217 -157 365h-781q-48 -133 -159 -365zM688 690h551q-45 91 -127.5 265t-105.5 223h-84z" />
    <glyph glyph-name="Acircumflex.ss01" horiz-adv-x="1914" 
d="M1120 2095l350 -375h-329q-32 26 -95.5 74t-95.5 74q-34 -29 -99 -77.5t-93 -70.5h-330l350 375h342zM414 0h-408l694 1597h514l695 -1597h-398q-104 217 -157 365h-781q-48 -133 -159 -365zM688 690h551q-45 91 -127.5 265t-105.5 223h-84z" />
    <glyph glyph-name="Adieresis.ss01" horiz-adv-x="1914" 
d="M666 1712q-90 0 -151.5 57.5t-61.5 143.5q0 80 62 136t151 56q88 0 149.5 -56t61.5 -136q0 -86 -61.5 -143.5t-149.5 -57.5zM1231 1712q-91 0 -153 57.5t-62 143.5q0 80 62.5 136t152.5 56q86 0 147.5 -56.5t61.5 -135.5q0 -85 -61 -143t-148 -58zM414 0h-408l694 1597
h514l695 -1597h-398q-104 217 -157 365h-781q-48 -133 -159 -365zM688 690h551q-45 91 -127.5 265t-105.5 223h-84z" />
    <glyph glyph-name="Agrave.ss01" horiz-adv-x="1914" 
d="M1143 1720h-322l-391 375h436zM414 0h-408l694 1597h514l695 -1597h-398q-104 217 -157 365h-781q-48 -133 -159 -365zM688 690h551q-45 91 -127.5 265t-105.5 223h-84z" />
    <glyph glyph-name="Amacron.ss01" horiz-adv-x="1914" 
d="M1401 1741h-909v250h909v-250zM414 0h-408l694 1597h514l695 -1597h-398q-104 217 -157 365h-781q-48 -133 -159 -365zM688 690h551q-45 91 -127.5 265t-105.5 223h-84z" />
    <glyph glyph-name="Aogonek.ss01" horiz-adv-x="1914" 
d="M1552 -139q0 -38 46 -74.5t135 -36.5q65 0 106 10v-204q-64 -19 -162 -19q-100 0 -181.5 24t-136 79.5t-54.5 134.5q0 65 55 127t153 98h-2q-104 217 -157 365h-781q-48 -133 -159 -365h-408l694 1597h514l695 -1597h-156q-59 -6 -101.5 -23.5t-62.5 -40t-28.5 -41.5
t-8.5 -34zM688 690h551q-45 91 -127.5 265t-105.5 223h-84z" />
    <glyph glyph-name="Aring.ss01" horiz-adv-x="1914" 
d="M946 1708q-133 0 -225 76t-92 184q0 110 91.5 185t225.5 75q132 0 223 -74.5t91 -185.5t-91 -185.5t-223 -74.5zM946 1890q42 0 72.5 23.5t30.5 54.5q0 30 -30.5 53t-72.5 23q-46 0 -76 -23t-30 -53q0 -32 30 -55t76 -23zM414 0h-408l694 1597h514l695 -1597h-398
q-104 217 -157 365h-781q-48 -133 -159 -365zM688 690h551q-45 91 -127.5 265t-105.5 223h-84z" />
    <glyph glyph-name="Atilde.ss01" horiz-adv-x="1914" 
d="M1135 1722q-104 0 -170 37l-70 39q-48 29 -96 29q-41 0 -63.5 -25t-22.5 -61h-252q0 156 90 250t227 94q97 0 185 -45l63 -33q29 -16 78 -16q33 0 51.5 21.5t18.5 58.5h253q0 -171 -75.5 -260t-216.5 -89zM414 0h-408l694 1597h514l695 -1597h-398q-104 217 -157 365
h-781q-48 -133 -159 -365zM688 690h551q-45 91 -127.5 265t-105.5 223h-84z" />
    <glyph glyph-name="B.ss01" horiz-adv-x="1753" 
d="M999 0h-800v1597h809q275 0 429 -113.5t154 -297.5q0 -124 -79 -225t-226 -138v-4q375 -66 375 -379q0 -105 -43 -185.5t-109 -127.5t-157.5 -76.5t-176 -40t-176.5 -10.5zM575 965h312q65 0 110 4t95.5 18t77 46t26.5 81q0 47 -27 78.5t-76.5 45.5t-95.5 19t-106 5h-316
v-297zM575 336h347q41 0 73.5 1.5t74.5 6.5t72.5 16t58 27.5t42 44t14.5 62.5q0 34 -14.5 61t-41 43.5t-57 27.5t-70.5 16t-72.5 7t-71.5 2h-355v-315z" />
    <glyph glyph-name="C.ss01" horiz-adv-x="2041" 
d="M1092 -35q-214 0 -398 60.5t-316 169t-207 266.5t-75 346q0 159 53.5 294.5t146 231.5t216.5 164t266.5 100.5t294.5 32.5q306 0 542.5 -141.5t338.5 -372.5l-348 -135q-77 137 -213.5 222t-325.5 85q-251 0 -414.5 -138t-163.5 -362q0 -105 36.5 -189t96.5 -137.5
t140.5 -89t163 -50.5t170.5 -15q207 0 355 85.5t218 264.5l350 -114q-58 -155 -152.5 -268.5t-216.5 -180t-260 -98t-298 -31.5z" />
    <glyph glyph-name="D.ss01" horiz-adv-x="1949" 
d="M965 0h-766v1597h743q187 0 339.5 -40.5t257 -112t176 -171.5t104 -216t32.5 -248q0 -178 -60.5 -327t-173 -256t-280 -166.5t-372.5 -59.5zM575 336h345q88 0 158.5 9.5t144 39t122.5 78.5t80 133t31 197q0 76 -14 139.5t-34 109t-56.5 81.5t-68.5 59t-83 39t-86 24
t-92.5 12t-88 4.5t-85.5 0.5h-273v-926z" />
    <glyph glyph-name="E.ss01" horiz-adv-x="1593" 
d="M1479 0h-1280v1597h1255v-335h-879v-277h830v-354h-830v-295h904v-336z" />
    <glyph glyph-name="F.ss01" horiz-adv-x="1519" 
d="M1434 1597v-335h-859v-318h809v-354h-809v-590h-376v1597h1235z" />
    <glyph glyph-name="G.ss01" horiz-adv-x="2084" 
d="M1085 -35q-297 0 -521.5 102.5t-346 290t-121.5 435.5q0 163 53 300.5t145 235t216 166.5t266 102t295 33q311 0 548.5 -144t334.5 -370l-348 -135q-78 139 -213 223t-324 84q-162 0 -293.5 -59.5t-209 -173t-77.5 -262.5q0 -158 84 -269.5t223.5 -164t321.5 -52.5
q199 0 329.5 60t168.5 184h-496v295h873v-111q0 -354 -245.5 -562t-662.5 -208z" />
    <glyph glyph-name="H.ss01" horiz-adv-x="1992" 
d="M1417 963v634h377v-1597h-377v608h-842v-608h-376v1597h376v-634h842z" />
    <glyph glyph-name="I.ss01" horiz-adv-x="1441" 
d="M1335 0h-1229v336h426v926h-438v335h1254v-335h-439v-926h426v-336z" />
    <glyph glyph-name="Iacute.ss01" horiz-adv-x="1441" 
d="M1169 2095l-391 -375h-321l276 375h436zM1335 0h-1229v336h426v926h-438v335h1254v-335h-439v-926h426v-336z" />
    <glyph glyph-name="Icircumflex.ss01" horiz-adv-x="1441" 
d="M895 2095l350 -375h-330q-32 26 -95 74t-95 74q-34 -29 -99.5 -77t-93.5 -71h-329l350 375h342zM1335 0h-1229v336h426v926h-438v335h1254v-335h-439v-926h426v-336z" />
    <glyph glyph-name="Idieresis.ss01" horiz-adv-x="1441" 
d="M440 1712q-90 0 -151.5 57.5t-61.5 143.5q0 80 62 136t151 56q88 0 149.5 -56t61.5 -136q0 -86 -61.5 -143.5t-149.5 -57.5zM1006 1712q-91 0 -153 57.5t-62 143.5q0 80 62.5 136t152.5 56q86 0 147 -56t61 -136q0 -86 -60.5 -143.5t-147.5 -57.5zM1335 0h-1229v336h426
v926h-438v335h1254v-335h-439v-926h426v-336z" />
    <glyph glyph-name="Idotaccent.ss01" horiz-adv-x="1441" 
d="M723 1743q-93 0 -156 59t-63 146q0 81 63 138.5t156 57.5q90 0 152.5 -58t62.5 -138q0 -86 -62 -145.5t-153 -59.5zM1335 0h-1229v336h426v926h-438v335h1254v-335h-439v-926h426v-336z" />
    <glyph glyph-name="Igrave.ss01" horiz-adv-x="1441" 
d="M918 1720h-322l-391 375h436zM1335 0h-1229v336h426v926h-438v335h1254v-335h-439v-926h426v-336z" />
    <glyph glyph-name="Imacron.ss01" horiz-adv-x="1441" 
d="M1176 1741h-910v250h910v-250zM1335 0h-1229v336h426v926h-438v335h1254v-335h-439v-926h426v-336z" />
    <glyph glyph-name="J.ss01" horiz-adv-x="1562" 
d="M750 -35q-196 0 -353 65t-250.5 194.5t-93.5 303.5v60l373 49v-55q0 -117 83.5 -196t221.5 -79q79 0 136 27t85 71t40 88t12 91v678h-666v335h1042v-962q0 -190 -39 -309q-120 -360 -591 -361z" />
    <glyph glyph-name="K.ss01" horiz-adv-x="1777" 
d="M575 0h-376v1597h376v-557h11q119 92 357 278.5t357 278.5h498q-213 -179 -964 -804q167 -132 485 -396.5t485 -396.5h-520q-102 75 -341 249.5t-368 270.5v-520z" />
    <glyph glyph-name="L.ss01" horiz-adv-x="1439" 
d="M575 1597v-1261h834v-336h-1210v1597h376z" />
    <glyph glyph-name="M.ss01" horiz-adv-x="2426" 
d="M1778 1597h450v-1597h-381v928l-508 -682h-252l-505 678v-924h-383v1597h452q70 -103 184.5 -269.5t203.5 -297t171 -254.5h7q159 238 561 821z" />
    <glyph glyph-name="N.ss01" horiz-adv-x="2000" 
d="M575 0h-376v1597h405l754 -847h69v847h375v-1597h-403l-754 850h-70v-850z" />
    <glyph glyph-name="O.ss01" horiz-adv-x="2129" 
d="M1065 -35q-198 0 -376 61t-309.5 168.5t-208.5 264t-77 338.5t76.5 338.5t208 264.5t309.5 169t377 61q200 0 378.5 -61.5t309.5 -170t207 -264.5t76 -337q0 -179 -76 -335t-206.5 -264.5t-309 -170.5t-379.5 -62zM1067 307q161 0 291.5 63.5t205 176t74.5 250.5
q0 206 -162.5 348.5t-408.5 142.5q-120 0 -226.5 -37t-184 -101.5t-122.5 -156t-45 -196.5q0 -142 78 -255t209.5 -174t290.5 -61z" />
    <glyph glyph-name="P.ss01" horiz-adv-x="1667" 
d="M199 1597h743q36 0 61 -0.5t80 -5.5t96.5 -13.5t99.5 -26.5t100.5 -43t88.5 -65t75 -90.5t48 -121t19 -154.5t-19 -156t-49.5 -123.5t-75 -93t-89.5 -68.5t-100.5 -46.5t-99.5 -29t-94 -15.5t-78 -7t-57 -1h-373v-537h-376v1597zM575 891h297q39 0 60.5 0.5t62.5 4
t66.5 10t57.5 20.5t50.5 33.5t31.5 50t13 69.5q0 38 -13 67.5t-31 48.5t-49.5 32.5t-56.5 20t-64.5 10t-61.5 4t-59 0.5h-304v-371z" />
    <glyph glyph-name="Q.ss01" horiz-adv-x="1761" 
d="M782 -117v-2h811v-311h-1538l439 489q-194 103 -309 296t-115 442q0 146 41 276.5t116 231.5t175.5 174.5t223 112t255.5 38.5q167 0 316 -61.5t258 -170t173 -264.5t64 -337q0 -179 -63.5 -335t-172 -264.5t-258 -170.5t-317.5 -62h-17q-9 -9 -25.5 -26t-30 -30.5
t-26.5 -25.5zM883 1288q-186 0 -309 -139t-123 -352q0 -216 123.5 -353t308.5 -137q187 0 307.5 139t120.5 351q0 136 -53 247.5t-151.5 177.5t-223.5 66z" />
    <glyph glyph-name="R.ss01" horiz-adv-x="1732" 
d="M1042 555l644 -555h-441l-649 553h-21v-553h-376v1597h743q48 0 82.5 -1t110 -11t131 -28t124.5 -56.5t113.5 -91.5t75.5 -138.5t31 -191.5q0 -90 -21.5 -165t-56.5 -126.5t-85 -92.5t-99.5 -65t-108 -41t-104 -24t-93.5 -10zM879 1303h-304v-431h297q163 0 252.5 61
t89.5 161q0 99 -90 154t-245 55z" />
    <glyph glyph-name="S.ss01" horiz-adv-x="1613" 
d="M829 -35q-284 0 -488.5 128.5t-272.5 346.5l350 115q27 -78 71.5 -131.5t101 -80.5t111.5 -37.5t121 -10.5q84 0 154.5 18t114 54t43.5 82q0 39 -23.5 68.5t-82.5 54t-90.5 34t-113.5 30.5q-3 1 -5.5 1.5t-4.5 1.5l-172 43q-510 125 -510 461q0 142 88 254t239 172.5
t337 60.5q133 0 250.5 -32.5t200 -86.5t138 -118t78.5 -131l-344 -136q-91 177 -329 177q-116 0 -190.5 -38.5t-74.5 -93.5q0 -29 23 -56t53 -45t82 -37t85 -28.5t87 -23.5l203 -53q49 -13 80.5 -22.5t87 -30t92 -41.5t81 -55.5t71 -73.5t45 -94.5t18.5 -118.5
q0 -109 -49.5 -205t-139.5 -167.5t-223.5 -113t-292.5 -41.5z" />
    <glyph glyph-name="U.ss01" horiz-adv-x="1849" 
d="M868 -35q-130 0 -237.5 32t-177 82t-122.5 118t-80.5 131.5t-44.5 132t-21.5 110t-4.5 74.5v952h377v-921q0 -21 3 -46.5t12.5 -62t24.5 -71t42 -69.5t61.5 -61t86 -42.5t112.5 -16.5q85 0 154 31t108.5 75.5t66.5 98.5t36.5 95t9.5 69v921h377v-1597h-357v119h-4
q-74 -83 -170.5 -118.5t-251.5 -35.5z" />
    <glyph glyph-name="Uacute.ss01" horiz-adv-x="1849" 
d="M1305 2095l-392 -375h-321l276 375h437zM868 -35q-130 0 -237.5 32t-177 82t-122.5 118t-80.5 131.5t-44.5 132t-21.5 110t-4.5 74.5v952h377v-921q0 -21 3 -46.5t12.5 -62t24.5 -71t42 -69.5t61.5 -61t86 -42.5t112.5 -16.5q85 0 154 31t108.5 75.5t66.5 98.5t36.5 95
t9.5 69v921h377v-1597h-357v119h-4q-74 -83 -170.5 -118.5t-251.5 -35.5z" />
    <glyph glyph-name="Ucircumflex.ss01" horiz-adv-x="1849" 
d="M1077 2095l350 -375h-329q-32 26 -95.5 74t-95.5 74q-34 -29 -99 -77.5t-93 -70.5h-330l350 375h342zM868 -35q-130 0 -237.5 32t-177 82t-122.5 118t-80.5 131.5t-44.5 132t-21.5 110t-4.5 74.5v952h377v-921q0 -21 3 -46.5t12.5 -62t24.5 -71t42 -69.5t61.5 -61
t86 -42.5t112.5 -16.5q85 0 154 31t108.5 75.5t66.5 98.5t36.5 95t9.5 69v921h377v-1597h-357v119h-4q-74 -83 -170.5 -118.5t-251.5 -35.5z" />
    <glyph glyph-name="Udieresis.ss01" horiz-adv-x="1849" 
d="M623 1712q-90 0 -151.5 57.5t-61.5 143.5q0 80 62 136t151 56q88 0 149.5 -56t61.5 -136q0 -86 -61.5 -143.5t-149.5 -57.5zM1188 1712q-91 0 -153 57.5t-62 143.5q0 80 62.5 136t152.5 56q86 0 147.5 -56.5t61.5 -135.5q0 -85 -61 -143t-148 -58zM868 -35
q-130 0 -237.5 32t-177 82t-122.5 118t-80.5 131.5t-44.5 132t-21.5 110t-4.5 74.5v952h377v-921q0 -21 3 -46.5t12.5 -62t24.5 -71t42 -69.5t61.5 -61t86 -42.5t112.5 -16.5q85 0 154 31t108.5 75.5t66.5 98.5t36.5 95t9.5 69v921h377v-1597h-357v119h-4
q-74 -83 -170.5 -118.5t-251.5 -35.5z" />
    <glyph glyph-name="Ugrave.ss01" horiz-adv-x="1849" 
d="M1100 1720h-322l-391 375h436zM868 -35q-130 0 -237.5 32t-177 82t-122.5 118t-80.5 131.5t-44.5 132t-21.5 110t-4.5 74.5v952h377v-921q0 -21 3 -46.5t12.5 -62t24.5 -71t42 -69.5t61.5 -61t86 -42.5t112.5 -16.5q85 0 154 31t108.5 75.5t66.5 98.5t36.5 95t9.5 69v921
h377v-1597h-357v119h-4q-74 -83 -170.5 -118.5t-251.5 -35.5z" />
    <glyph glyph-name="Uhungarumlaut.ss01" horiz-adv-x="1849" 
d="M1118 2093l-373 -373h-307l260 373h420zM1690 2093l-377 -373h-309l266 373h420zM868 -35q-130 0 -237.5 32t-177 82t-122.5 118t-80.5 131.5t-44.5 132t-21.5 110t-4.5 74.5v952h377v-921q0 -21 3 -46.5t12.5 -62t24.5 -71t42 -69.5t61.5 -61t86 -42.5t112.5 -16.5
q85 0 154 31t108.5 75.5t66.5 98.5t36.5 95t9.5 69v921h377v-1597h-357v119h-4q-74 -83 -170.5 -118.5t-251.5 -35.5z" />
    <glyph glyph-name="Umacron.ss01" horiz-adv-x="1849" 
d="M1358 1741h-909v250h909v-250zM868 -35q-130 0 -237.5 32t-177 82t-122.5 118t-80.5 131.5t-44.5 132t-21.5 110t-4.5 74.5v952h377v-921q0 -21 3 -46.5t12.5 -62t24.5 -71t42 -69.5t61.5 -61t86 -42.5t112.5 -16.5q85 0 154 31t108.5 75.5t66.5 98.5t36.5 95t9.5 69v921
h377v-1597h-357v119h-4q-74 -83 -170.5 -118.5t-251.5 -35.5z" />
    <glyph glyph-name="Uogonek.ss01" horiz-adv-x="1849" 
d="M1569 -250q65 0 106 10v-204q-64 -19 -162 -19q-100 0 -181.5 24t-136 79.5t-54.5 134.5q0 65 55.5 127t153.5 98h-56v119h-4q-74 -83 -170.5 -118.5t-251.5 -35.5q-130 0 -237.5 32t-177 82t-122.5 118t-80.5 131.5t-44.5 132t-21.5 110t-4.5 74.5v952h377v-921
q0 -21 3 -46.5t12.5 -62t24.5 -71t42 -69.5t61.5 -61t86 -42.5t112.5 -16.5q85 0 154 31t108.5 75.5t66.5 98.5t36.5 95t9.5 69v921h377v-1597h-62q-59 -6 -101.5 -23.5t-62 -40t-28 -41.5t-8.5 -34q0 -38 45.5 -74.5t134.5 -36.5z" />
    <glyph glyph-name="Uring.ss01" horiz-adv-x="1849" 
d="M903 1708q-133 0 -225 76t-92 184q0 110 91.5 185t225.5 75q132 0 223 -74.5t91 -185.5t-91 -185.5t-223 -74.5zM903 1890q42 0 72.5 23.5t30.5 54.5q0 30 -30.5 53t-72.5 23q-46 0 -76 -23t-30 -53q0 -32 30 -55t76 -23zM868 -35q-130 0 -237.5 32t-177 82t-122.5 118
t-80.5 131.5t-44.5 132t-21.5 110t-4.5 74.5v952h377v-921q0 -21 3 -46.5t12.5 -62t24.5 -71t42 -69.5t61.5 -61t86 -42.5t112.5 -16.5q85 0 154 31t108.5 75.5t66.5 98.5t36.5 95t9.5 69v921h377v-1597h-357v119h-4q-74 -83 -170.5 -118.5t-251.5 -35.5z" />
    <glyph glyph-name="V.ss01" horiz-adv-x="1910" 
d="M1198 0h-500l-694 1597h395q86 -184 258 -558.5t258 -559.5h76q87 184 260 559t260 559h396z" />
    <glyph glyph-name="W.ss01" horiz-adv-x="2850" 
d="M1036 0h-475l-543 1597h431l352 -1081h4l338 1081h569l334 -1081h6l350 1081h430l-542 -1597h-469l-342 1116h-103z" />
    <glyph glyph-name="Wacute.ss01" horiz-adv-x="2850" 
d="M1985 2095l-392 -375h-321l276 375h437zM1036 0h-475l-543 1597h431l352 -1081h4l338 1081h569l334 -1081h6l350 1081h430l-542 -1597h-469l-342 1116h-103z" />
    <glyph glyph-name="Wcircumflex.ss01" horiz-adv-x="2850" 
d="M1599 2095l351 -375h-330q-32 26 -95 74t-95 74q-34 -29 -99.5 -77t-93.5 -71h-330l350 375h342zM1036 0h-475l-543 1597h431l352 -1081h4l338 1081h569l334 -1081h6l350 1081h430l-542 -1597h-469l-342 1116h-103z" />
    <glyph glyph-name="Wdieresis.ss01" horiz-adv-x="2850" 
d="M1145 1712q-90 0 -151.5 57.5t-61.5 143.5q0 80 62 136t151 56q88 0 149.5 -56t61.5 -136q0 -86 -61.5 -143.5t-149.5 -57.5zM1710 1712q-91 0 -153 57.5t-62 143.5q0 80 62.5 136t152.5 56q86 0 147.5 -56.5t61.5 -135.5q0 -85 -61 -143t-148 -58zM1036 0h-475
l-543 1597h431l352 -1081h4l338 1081h569l334 -1081h6l350 1081h430l-542 -1597h-469l-342 1116h-103z" />
    <glyph glyph-name="Wgrave.ss01" horiz-adv-x="2850" 
d="M1622 1720h-322l-391 375h437zM1036 0h-475l-543 1597h431l352 -1081h4l338 1081h569l334 -1081h6l350 1081h430l-542 -1597h-469l-342 1116h-103z" />
    <glyph glyph-name="X.ss01" horiz-adv-x="1783" 
d="M428 0h-424l604 811v4l-604 782h422q81 -101 225 -291.5t213 -277.5h64q81 100 226 290.5t216 278.5h408l-598 -782v-4l600 -811h-412q-76 94 -220 282.5t-220 282.5h-64q-83 -105 -230.5 -297.5t-205.5 -267.5z" />
    <glyph glyph-name="Y.ss01" horiz-adv-x="1785" 
d="M750 0h-406l385 563l-688 1034h408l466 -663h5l475 663h407z" />
    <glyph glyph-name="Yacute.ss01" horiz-adv-x="1785" 
d="M1352 2095l-391 -375h-322l276 375h437zM750 0h-406l385 563l-688 1034h408l466 -663h5l475 663h407z" />
    <glyph glyph-name="Ycircumflex.ss01" horiz-adv-x="1785" 
d="M1092 2095l350 -375h-330q-32 26 -95 74t-95 74q-34 -29 -99.5 -77t-93.5 -71h-330l351 375h342zM750 0h-406l385 563l-688 1034h408l466 -663h5l475 663h407z" />
    <glyph glyph-name="Ydieresis.ss01" horiz-adv-x="1785" 
d="M637 1712q-90 0 -151.5 57.5t-61.5 143.5q0 80 62 136t151 56q88 0 149.5 -56t61.5 -136q0 -86 -61.5 -143.5t-149.5 -57.5zM1202 1712q-91 0 -153 57.5t-62 143.5q0 80 62.5 136t152.5 56q86 0 147.5 -56.5t61.5 -135.5q0 -85 -61 -143t-148 -58zM750 0h-406l385 563
l-688 1034h408l466 -663h5l475 663h407z" />
    <glyph glyph-name="Ygrave.ss01" horiz-adv-x="1785" 
d="M1114 1720h-321l-392 375h437zM750 0h-406l385 563l-688 1034h408l466 -663h5l475 663h407z" />
    <glyph glyph-name="Z.ss01" horiz-adv-x="1718" 
d="M1618 0h-1638l1062 1260h-892v337h1558l-1046 -1261h956v-336z" />
    <glyph glyph-name="Zacute.ss01" horiz-adv-x="1718" 
d="M1419 2095l-391 -375h-321l276 375h436zM1618 0h-1638l1062 1260h-892v337h1558l-1046 -1261h956v-336z" />
    <glyph glyph-name="Zcaron.ss01" horiz-adv-x="1718" 
d="M1051 2095h329l-344 -375h-354l-344 375h330q31 -24 96 -76t96 -77q37 27 101.5 80.5t89.5 72.5zM1618 0h-1638l1062 1260h-892v337h1558l-1046 -1261h956v-336z" />
    <glyph glyph-name="Zdotaccent.ss01" horiz-adv-x="1718" 
d="M883 1743q-93 0 -156 59t-63 146q0 81 63 138.5t156 57.5q90 0 152.5 -58t62.5 -138q0 -86 -62 -145.5t-153 -59.5zM1618 0h-1638l1062 1260h-892v337h1558l-1046 -1261h956v-336z" />
    <glyph glyph-name="Q.ss02" horiz-adv-x="2129" 
d="M1262 -18v-101h575v-311h-932v405q-171 22 -319.5 91.5t-257.5 174.5t-171.5 249t-62.5 307q0 182 76.5 338.5t208 264.5t309.5 169t377 61q200 0 378.5 -61.5t309.5 -170t207 -264.5t76 -337q0 -157 -58.5 -296.5t-162 -244t-245.5 -176t-308 -98.5zM489 797
q0 -176 115.5 -302.5t300.5 -168.5v344h357v-336q170 50 273 174.5t103 288.5q0 206 -162.5 348.5t-408.5 142.5q-120 0 -226.5 -37t-184 -101.5t-122.5 -156t-45 -196.5z" />
    <glyph glyph-name="A.ss07" 
d="M1225 -315q-237 0 -446.5 71t-359 193.5t-236.5 294t-87 364.5q0 198 87 372.5t236.5 298.5t359 195.5t446.5 71.5q239 0 449 -71.5t360 -195.5t236.5 -298.5t86.5 -372.5q0 -156 -55 -298t-157.5 -255t-241 -196.5t-313 -128.5t-365.5 -45zM1094 1096l-437 -963h254
q25 29 109 217h416q46 -73 110 -217h260l-436 963h-276zM1356 559h-256q102 194 131 246q67 -165 125 -246z" />
    <glyph glyph-name="B.ss07" horiz-adv-x="2459" 
d="M1225 -315q-237 0 -446.5 71t-359 193.5t-236.5 294t-87 364.5q0 198 87 372.5t236.5 298.5t359 195.5t446.5 71.5q239 0 449 -71.5t360 -195.5t236.5 -298.5t86.5 -372.5q0 -156 -55 -298t-157.5 -255t-241 -196.5t-313 -128.5t-365.5 -45zM831 1096v-963h484
q54 0 105 6.5t107 24.5t97 47t67.5 78t26.5 112q0 86 -52 145.5t-148 82.5q72 25 115.5 83.5t43.5 131.5q0 116 -97 184t-259 68h-490zM1075 721v160h178q168 0 168 -78q0 -27 -14.5 -44.5t-42.5 -25t-53.5 -10t-61.5 -2.5h-174zM1270 348h-195v172h199q184 0 184 -86
t-188 -86z" />
    <glyph glyph-name="C.ss07" 
d="M1227 -315q-237 0 -446.5 71t-359 193.5t-236.5 294t-87 364.5q0 198 87 372.5t236.5 298.5t359 195.5t446.5 71.5q239 0 449 -71.5t360 -195.5t236.5 -298.5t86.5 -372.5q0 -156 -55 -298t-157.5 -255t-241 -196.5t-313 -128.5t-365.5 -45zM1249 113q208 0 353 91.5
t208 264.5l-225 72q-37 -100 -123.5 -154.5t-210.5 -54.5q-51 0 -98.5 8.5t-93.5 29t-80 51t-55 79t-21 108.5q0 130 93 209.5t241 79.5q215 0 311 -184l226 86q-59 143 -204.5 230t-332.5 87q-91 0 -176.5 -20t-160.5 -61t-131 -98.5t-88 -139t-32 -176.5
q0 -225 167.5 -366.5t432.5 -141.5z" />
    <glyph glyph-name="D.ss07" 
d="M1225 -315q-237 0 -446.5 71t-359 193.5t-236.5 294t-87 364.5q0 198 87 372.5t236.5 298.5t359 195.5t446.5 71.5q239 0 449 -71.5t360 -195.5t236.5 -298.5t86.5 -372.5q0 -156 -55 -298t-157.5 -255t-241 -196.5t-313 -128.5t-365.5 -45zM788 1096v-963h465
q244 0 390.5 133t146.5 355q0 223 -147 349t-404 126h-451zM1227 348h-195v533h152q31 0 49 -0.5t51 -3t53.5 -7t49.5 -14t47.5 -22.5t39.5 -34t32.5 -47t19.5 -62.5t8 -80.5q0 -262 -307 -262z" />
    <glyph glyph-name="E.ss07" 
d="M1225 -315q-237 0 -446.5 71t-359 193.5t-236.5 294t-87 364.5q0 198 87 372.5t236.5 298.5t359 195.5t446.5 71.5q239 0 449 -71.5t360 -195.5t236.5 -298.5t86.5 -372.5q0 -156 -55 -298t-157.5 -255t-241 -196.5t-313 -128.5t-365.5 -45zM846 1096v-963h778v215h-534
v160h491v225h-491v148h520v215h-764z" />
    <glyph glyph-name="F.ss07" horiz-adv-x="2459" 
d="M1225 -315q-237 0 -446.5 71t-359 193.5t-236.5 294t-87 364.5q0 198 87 372.5t236.5 298.5t359 195.5t446.5 71.5q239 0 449 -71.5t360 -195.5t236.5 -298.5t86.5 -372.5q0 -156 -55 -298t-157.5 -255t-241 -196.5t-313 -128.5t-365.5 -45zM874 1096v-963h244v350h479
v226h-479v172h510v215h-754z" />
    <glyph glyph-name="G.ss07" 
d="M1227 -315q-237 0 -446.5 71t-359 193.5t-236.5 294t-87 364.5q0 198 87 372.5t236.5 298.5t359 195.5t446.5 71.5q239 0 449 -71.5t360 -195.5t236.5 -298.5t86.5 -372.5q0 -156 -55 -298t-157.5 -255t-241 -196.5t-313 -128.5t-365.5 -45zM1219 113q248 0 372 133
l13 -113h188v518h-537v-192h293q-24 -58 -100.5 -92.5t-190.5 -34.5q-49 0 -95.5 7.5t-94.5 27t-83.5 49.5t-58 79.5t-22.5 112.5q0 129 93.5 209t242.5 80q215 0 309 -184l226 86q-58 142 -204 229.5t-333 87.5q-94 0 -181 -21.5t-161 -64t-129 -102t-86 -140.5t-31 -174
q0 -220 160.5 -360.5t409.5 -140.5z" />
    <glyph glyph-name="H.ss07" 
d="M1225 -315q-237 0 -446.5 71t-359 193.5t-236.5 294t-87 364.5q0 198 87 372.5t236.5 298.5t359 195.5t446.5 71.5q239 0 449 -71.5t360 -195.5t236.5 -298.5t86.5 -372.5q0 -156 -55 -298t-157.5 -255t-241 -196.5t-313 -128.5t-365.5 -45zM745 1096v-963h244v361h479
v-361h244v963h-244v-375h-479v375h-244z" />
    <glyph glyph-name="I.ss07" 
d="M1225 -315q-237 0 -446.5 71t-359 193.5t-236.5 294t-87 364.5q0 198 87 372.5t236.5 298.5t359 195.5t446.5 71.5q239 0 449 -71.5t360 -195.5t236.5 -298.5t86.5 -372.5q0 -156 -55 -298t-157.5 -255t-241 -196.5t-313 -128.5t-365.5 -45zM1112 1096v-963h244v963h-244
z" />
    <glyph glyph-name="J.ss07" 
d="M1225 -315q-237 0 -446.5 71t-359 193.5t-236.5 294t-87 364.5q0 198 87 372.5t236.5 298.5t359 195.5t446.5 71.5q239 0 449 -71.5t360 -195.5t236.5 -298.5t86.5 -372.5q0 -156 -55 -298t-157.5 -255t-241 -196.5t-313 -128.5t-365.5 -45zM1200 123q79 0 141.5 18
t102 43t68 66t41.5 73.5t20.5 79t8.5 69t1 56.5v578h-242v-608q0 -78 -31.5 -117t-119.5 -39q-76 0 -124 41.5t-48 112.5v43l-242 -31v-43q0 -154 119 -248t305 -94z" />
    <glyph glyph-name="K.ss07" 
d="M1225 -315q-237 0 -446.5 71t-359 193.5t-236.5 294t-87 364.5q0 198 87 372.5t236.5 298.5t359 195.5t446.5 71.5q239 0 449 -71.5t360 -195.5t236.5 -298.5t86.5 -372.5q0 -156 -55 -298t-157.5 -255t-241 -196.5t-313 -128.5t-365.5 -45zM793 1096v-963h241v279
q19 14 54 44t53 44q56 -61 168.5 -183t167.5 -184h295q-29 34 -118.5 137.5t-348.5 407.5q37 34 199 185.5t251 232.5h-291q-58 -49 -204.5 -177.5t-225.5 -195.5v373h-241z" />
    <glyph glyph-name="L.ss07" 
d="M1225 -315q-237 0 -446.5 71t-359 193.5t-236.5 294t-87 364.5q0 198 87 372.5t236.5 298.5t359 195.5t446.5 71.5q239 0 449 -71.5t360 -195.5t236.5 -298.5t86.5 -372.5q0 -156 -55 -298t-157.5 -255t-241 -196.5t-313 -128.5t-365.5 -45zM950 1096v-963h738v215h-494
v748h-244z" />
    <glyph glyph-name="M.ss07" horiz-adv-x="2459" 
d="M1225 -315q-237 0 -446.5 71t-359 193.5t-236.5 294t-87 364.5q0 198 87 372.5t236.5 298.5t359 195.5t446.5 71.5q239 0 449 -71.5t360 -195.5t236.5 -298.5t86.5 -372.5q0 -156 -55 -298t-157.5 -255t-241 -196.5t-313 -128.5t-365.5 -45zM596 1096v-963h244v510
q51 -87 159.5 -260t153.5 -250h152q44 76 152 248.5t159 261.5v-510h248v963h-295q-62 -112 -183.5 -324.5t-156.5 -275.5l-340 600h-293z" />
    <glyph glyph-name="N.ss07" 
d="M1225 -315q-237 0 -446.5 71t-359 193.5t-236.5 294t-87 364.5q0 198 87 372.5t236.5 298.5t359 195.5t446.5 71.5q239 0 449 -71.5t360 -195.5t236.5 -298.5t86.5 -372.5q0 -156 -55 -298t-157.5 -255t-241 -196.5t-313 -128.5t-365.5 -45zM758 1096v-963h241v539
q91 -106 256 -287.5t226 -251.5h248v963h-242v-547q-155 185 -481 547h-248z" />
    <glyph glyph-name="O.ss07" 
d="M1225 -315q-237 0 -446.5 71t-359 193.5t-236.5 294t-87 364.5q0 198 87 372.5t236.5 298.5t359 195.5t446.5 71.5q239 0 449 -71.5t360 -195.5t236.5 -298.5t86.5 -372.5q0 -156 -55 -298t-157.5 -255t-241 -196.5t-313 -128.5t-365.5 -45zM1231 113q165 0 299 65
t210.5 180t76.5 256t-76.5 256.5t-210.5 180.5t-299 65q-164 0 -297.5 -65t-210 -180.5t-76.5 -256.5q0 -216 166.5 -358.5t417.5 -142.5zM901 614q0 121 95.5 202t236.5 81q140 0 235 -81t95 -202q0 -122 -94.5 -202t-235.5 -80q-142 0 -237 80t-95 202z" />
    <glyph glyph-name="P.ss07" 
d="M1225 -315q-237 0 -446.5 71t-359 193.5t-236.5 294t-87 364.5q0 198 87 372.5t236.5 298.5t359 195.5t446.5 71.5q239 0 449 -71.5t360 -195.5t236.5 -298.5t86.5 -372.5q0 -156 -55 -298t-157.5 -255t-241 -196.5t-313 -128.5t-365.5 -45zM860 1096v-963h244v318h211
q24 0 47 1.5t65.5 8.5t78 19t76 37t68.5 58.5t47 86.5t19 118t-19 116.5t-46.5 84t-69.5 56t-76 34.5t-79.5 17t-66.5 7t-48 1h-451zM1268 678h-164v203h168q30 0 49 -1t49 -6t47.5 -15t31 -30t13.5 -49q0 -25 -8.5 -43t-26 -29t-33.5 -17.5t-42.5 -9t-41.5 -3t-42 -0.5z
" />
    <glyph glyph-name="Q.ss07" 
d="M1225 -315q-237 0 -446.5 71t-359 193.5t-236.5 294t-87 364.5q0 198 87 372.5t236.5 298.5t359 195.5t446.5 71.5q239 0 449 -71.5t360 -195.5t236.5 -298.5t86.5 -372.5q0 -156 -55 -298t-157.5 -255t-241 -196.5t-313 -128.5t-365.5 -45zM1616 47l178 141
q-14 14 -22 21t-14.5 13t-34.5 32.5t-74 69.5q83 67 127.5 159t44.5 195q0 143 -77.5 257.5t-214 179.5t-306.5 65q-169 0 -305.5 -65t-213.5 -180t-77 -257q0 -143 77 -258t213.5 -179.5t305.5 -64.5q112 0 231 29q26 -27 80.5 -79t81.5 -79zM874 678q0 127 98 205t253 78
q154 0 251 -78t97 -205q0 -103 -84 -180q-20 16 -52.5 44t-97.5 81l-174 -140q25 -18 64.5 -48t52.5 -40h-57q-156 0 -253.5 77.5t-97.5 205.5z" />
    <glyph glyph-name="R.ss07" 
d="M1225 -315q-237 0 -446.5 71t-359 193.5t-236.5 294t-87 364.5q0 198 87 372.5t236.5 298.5t359 195.5t446.5 71.5q239 0 449 -71.5t360 -195.5t236.5 -298.5t86.5 -372.5q0 -156 -55 -298t-157.5 -255t-241 -196.5t-313 -128.5t-365.5 -45zM856 1096v-963h244v324h106
l269 -324h274q-181 215 -287 348q250 73 250 293q0 66 -19.5 119t-48 86t-71.5 57t-77.5 35t-79.5 17.5t-64.5 7t-44.5 0.5h-451zM1264 664h-164v221h168q33 0 62 -4t60 -15t49.5 -35t18.5 -59q0 -108 -194 -108z" />
    <glyph glyph-name="S.ss07" 
d="M1225 -315q-237 0 -446.5 71t-359 193.5t-236.5 294t-87 364.5q0 198 87 372.5t236.5 298.5t359 195.5t446.5 71.5q239 0 449 -71.5t360 -195.5t236.5 -298.5t86.5 -372.5q0 -156 -55 -298t-157.5 -255t-241 -196.5t-313 -128.5t-365.5 -45zM1251 113q190 0 309 88.5
t119 230.5q0 54 -21 98t-50 71.5t-73 50t-74 32.5t-70 21l-121 30q-39 10 -63 17t-54.5 19.5t-45.5 28t-15 34.5q0 29 38.5 47t98.5 18q139 0 190 -100l219 86q-24 89 -134.5 160t-270.5 71q-175 0 -292.5 -84t-117.5 -215q0 -209 316 -287l102 -24q53 -12 84.5 -22
t58.5 -29.5t27 -44.5q0 -35 -48 -57.5t-118 -22.5q-178 0 -231 151l-226 -73q39 -137 165.5 -216t297.5 -79z" />
    <glyph glyph-name="T.ss07" 
d="M1225 -315q-237 0 -446.5 71t-359 193.5t-236.5 294t-87 364.5q0 198 87 372.5t236.5 298.5t359 195.5t446.5 71.5q239 0 449 -71.5t360 -195.5t236.5 -298.5t86.5 -372.5q0 -156 -55 -298t-157.5 -255t-241 -196.5t-313 -128.5t-365.5 -45zM1108 881v-748h242v748h338
v215h-920v-215h340z" />
    <glyph glyph-name="U.ss07" 
d="M1225 -315q-237 0 -446.5 71t-359 193.5t-236.5 294t-87 364.5q0 198 87 372.5t236.5 298.5t359 195.5t446.5 71.5q239 0 449 -71.5t360 -195.5t236.5 -298.5t86.5 -372.5q0 -156 -55 -298t-157.5 -255t-241 -196.5t-313 -128.5t-365.5 -45zM1225 123q112 0 196.5 30
t130.5 73t74.5 103t36.5 107.5t8 98.5v571h-244v-553q0 -104 -45.5 -157.5t-154.5 -53.5q-112 0 -157.5 54.5t-45.5 156.5v553h-244v-571q0 -51 8 -98.5t36 -107.5t74 -103t130.5 -73t196.5 -30z" />
    <glyph glyph-name="V.ss07" 
d="M1225 -315q-237 0 -446.5 71t-359 193.5t-236.5 294t-87 364.5q0 198 87 372.5t236.5 298.5t359 195.5t446.5 71.5q239 0 449 -71.5t360 -195.5t236.5 -298.5t86.5 -372.5q0 -156 -55 -298t-157.5 -255t-241 -196.5t-313 -128.5t-365.5 -45zM678 1096l436 -963h279
l434 963h-256q-19 -19 -78 -146t-132.5 -292.5t-107.5 -231.5q-27 57 -105.5 232.5t-136.5 297t-77 140.5h-256z" />
    <glyph glyph-name="W.ss07" 
d="M1225 -315q-237 0 -446.5 71t-359 193.5t-236.5 294t-87 364.5q0 198 87 372.5t236.5 298.5t359 195.5t446.5 71.5q239 0 449 -71.5t360 -195.5t236.5 -298.5t86.5 -372.5q0 -156 -55 -298t-157.5 -255t-241 -196.5t-313 -128.5t-365.5 -45zM383 1096l328 -963h295
q119 295 225 582q87 -240 227 -582h291l328 963h-275q-27 -75 -56.5 -163.5t-49 -149t-51.5 -162t-46 -146.5q-169 445 -235 621h-268q-35 -94 -114 -302.5t-120 -318.5q-98 307 -205 621h-274z" />
    <glyph glyph-name="X.ss07" 
d="M1225 -315q-237 0 -446.5 71t-359 193.5t-236.5 294t-87 364.5q0 198 87 372.5t236.5 298.5t359 195.5t446.5 71.5q239 0 449 -71.5t360 -195.5t236.5 -298.5t86.5 -372.5q0 -156 -55 -298t-157.5 -255t-241 -196.5t-313 -128.5t-365.5 -45zM723 131h293q26 32 104 132
t123 155q38 -47 110.5 -143.5t110.5 -143.5h293q-65 83 -183 242t-179 237q58 75 179 238t187 248h-286q-43 -51 -119.5 -150t-112.5 -143q-41 49 -117 148t-114 145h-287q63 -80 182.5 -242t182.5 -242q-70 -90 -193 -253t-174 -228z" />
    <glyph glyph-name="Y.ss07" 
d="M1225 -315q-237 0 -446.5 71t-359 193.5t-236.5 294t-87 364.5q0 198 87 372.5t236.5 298.5t359 195.5t446.5 71.5q239 0 449 -71.5t360 -195.5t236.5 -298.5t86.5 -372.5q0 -156 -55 -298t-157.5 -255t-241 -196.5t-313 -128.5t-365.5 -45zM1108 457v-324h242v326
q341 540 403 637h-262l-262 -406q-35 55 -125 192.5t-139 213.5h-260z" />
    <glyph glyph-name="Z.ss07" 
d="M1225 -315q-237 0 -446.5 71t-359 193.5t-236.5 294t-87 364.5q0 198 87 372.5t236.5 298.5t359 195.5t446.5 71.5q239 0 449 -71.5t360 -195.5t236.5 -298.5t86.5 -372.5q0 -156 -55 -298t-157.5 -255t-241 -196.5t-313 -128.5t-365.5 -45zM772 344v-211h903v215h-602
q145 132 590 535v213h-872v-215q188 2 561 2q-534 -498 -580 -539z" />
    <glyph glyph-name="A.ss08" 
d="M1225 1546q239 0 449 -71.5t360 -195.5t236.5 -298.5t86.5 -372.5q0 -156 -55 -298t-157.5 -255t-241 -196.5t-313 -128.5t-365.5 -45q-237 0 -446.5 71t-359 193.5t-236.5 294t-87 364.5q0 198 87 372.5t236.5 298.5t359 195.5t446.5 71.5zM1225 -139q266 0 481.5 97.5
t338 269t122.5 382.5q0 214 -122.5 388t-338 273t-481.5 99q-262 0 -477 -99t-338 -273t-123 -388q0 -157 72.5 -296t196.5 -238.5t298.5 -157t370.5 -57.5zM868 322l277 587h172l276 -587h-166q-33 70 -69 131h-258q-22 -43 -70 -131h-162zM1153 584h152q-47 73 -76 137
q-14 -27 -40 -72.5t-36 -64.5z" />
    <glyph glyph-name="B.ss08" 
d="M1225 1546q239 0 449 -71.5t360 -195.5t236.5 -298.5t86.5 -372.5q0 -156 -55 -298t-157.5 -255t-241 -196.5t-313 -128.5t-365.5 -45q-237 0 -446.5 71t-359 193.5t-236.5 294t-87 364.5q0 198 87 372.5t236.5 298.5t359 195.5t446.5 71.5zM1225 -139q266 0 481.5 97.5
t338 269t122.5 382.5q0 214 -122.5 388t-338 273t-481.5 99q-262 0 -477 -99t-338 -273t-123 -388q0 -157 72.5 -296t196.5 -238.5t298.5 -157t370.5 -57.5zM1409 625q58 -19 89.5 -55t31.5 -83q0 -39 -16.5 -69.5t-42.5 -48t-61 -28.5t-66.5 -15t-65.5 -4h-307v587h307
q102 0 164.5 -42.5t62.5 -112.5q0 -42 -25.5 -77t-70.5 -52zM1126 772v-90h109q106 0 106 45t-104 45h-111zM1249 459q24 0 39.5 1t35.5 5.5t30 14.5t10 26q0 49 -113 49h-125v-96h123z" />
    <glyph glyph-name="C.ss08" 
d="M1225 -315q-237 0 -446.5 71t-359 193.5t-236.5 294t-87 364.5q0 198 87 372.5t236.5 298.5t359 195.5t446.5 71.5q239 0 449 -71.5t360 -195.5t236.5 -298.5t86.5 -372.5q0 -156 -55 -298t-157.5 -255t-241 -196.5t-313 -128.5t-365.5 -45zM1225 -139q266 0 481.5 97.5
t338 269t122.5 382.5q0 214 -122.5 388t-338 273t-481.5 99q-262 0 -477 -99t-338 -273t-123 -388q0 -157 72.5 -296t196.5 -238.5t298.5 -157t370.5 -57.5zM1241 309q-166 0 -271.5 86.5t-105.5 222.5q0 95 54 165.5t136 103.5t179 33q120 0 211.5 -53t128.5 -144l-143 -53
q-57 112 -197 112q-92 0 -149.5 -47.5t-57.5 -124.5q0 -84 63.5 -122.5t151.5 -38.5q78 0 132 32t77 94l145 -47q-38 -105 -130.5 -162t-223.5 -57z" />
    <glyph glyph-name="D.ss08" horiz-adv-x="2459" 
d="M1225 -315q-237 0 -446.5 71t-359 193.5t-236.5 294t-87 364.5q0 198 87 372.5t236.5 298.5t359 195.5t446.5 71.5q239 0 449 -71.5t360 -195.5t236.5 -298.5t86.5 -372.5q0 -156 -55 -298t-157.5 -255t-241 -196.5t-313 -128.5t-365.5 -45zM1225 -139q266 0 481.5 97.5
t338 269t122.5 382.5q0 214 -122.5 388t-338 273t-481.5 99q-262 0 -477 -99t-338 -273t-123 -388q0 -157 72.5 -296t196.5 -238.5t298.5 -157t370.5 -57.5zM1243 322h-293v587h285q162 0 254 -78t92 -213t-92.5 -215.5t-245.5 -80.5zM1106 459h123q190 0 190 153
q0 33 -8 59t-19 42.5t-31.5 28.5t-36 17.5t-42 8.5t-41 3.5t-41.5 0.5h-94v-313z" />
    <glyph glyph-name="E.ss08" 
d="M1225 -315q-237 0 -446.5 71t-359 193.5t-236.5 294t-87 364.5q0 198 87 372.5t236.5 298.5t359 195.5t446.5 71.5q239 0 449 -71.5t360 -195.5t236.5 -298.5t86.5 -372.5q0 -156 -55 -298t-157.5 -255t-241 -196.5t-313 -128.5t-365.5 -45zM1225 -139q266 0 481.5 97.5
t338 269t122.5 382.5q0 214 -122.5 388t-338 273t-481.5 99q-262 0 -477 -99t-338 -273t-123 -388q0 -157 72.5 -296t196.5 -238.5t298.5 -157t370.5 -57.5zM1479 322h-492v587h486v-137h-330v-82h311v-143h-311v-88h336v-137z" />
    <glyph glyph-name="F.ss08" 
d="M1225 -315q-237 0 -446.5 71t-359 193.5t-236.5 294t-87 364.5q0 198 87 372.5t236.5 298.5t359 195.5t446.5 71.5q239 0 449 -71.5t360 -195.5t236.5 -298.5t86.5 -372.5q0 -156 -55 -298t-157.5 -255t-241 -196.5t-313 -128.5t-365.5 -45zM1225 -139q266 0 481.5 97.5
t338 269t122.5 382.5q0 214 -122.5 388t-338 273t-481.5 99q-262 0 -477 -99t-338 -273t-123 -388q0 -157 72.5 -296t196.5 -238.5t298.5 -157t370.5 -57.5zM1159 322h-155v587h477v-137h-322v-96h303v-144h-303v-210z" />
    <glyph glyph-name="G.ss08" 
d="M1225 1546q239 0 449 -71.5t360 -195.5t236.5 -298.5t86.5 -372.5q0 -156 -55 -298t-157.5 -255t-241 -196.5t-313 -128.5t-365.5 -45q-237 0 -446.5 71t-359 193.5t-236.5 294t-87 364.5q0 198 87 372.5t236.5 298.5t359 195.5t446.5 71.5zM1225 -139q266 0 481.5 97.5
t338 269t122.5 382.5q0 214 -122.5 388t-338 273t-481.5 99q-262 0 -477 -99t-338 -273t-123 -388q0 -157 72.5 -296t196.5 -238.5t298.5 -157t370.5 -57.5zM1241 518v121h344v-317h-125q-4 46 -4 65q-81 -78 -233 -78q-157 0 -258 86t-101 219q0 134 104.5 220t264.5 86
q120 0 211.5 -53t128.5 -144l-143 -53q-59 112 -195 112q-92 0 -150.5 -48t-58.5 -124q0 -46 20.5 -79t54.5 -50t70 -24.5t76 -7.5q68 0 115.5 18.5t62.5 50.5h-184z" />
    <glyph glyph-name="H.ss08" 
d="M1225 1546q239 0 449 -71.5t360 -195.5t236.5 -298.5t86.5 -372.5q0 -156 -55 -298t-157.5 -255t-241 -196.5t-313 -128.5t-365.5 -45q-237 0 -446.5 71t-359 193.5t-236.5 294t-87 364.5q0 198 87 372.5t236.5 298.5t359 195.5t446.5 71.5zM1225 -139q266 0 481.5 97.5
t338 269t122.5 382.5q0 214 -122.5 388t-338 273t-481.5 99q-262 0 -477 -99t-338 -273t-123 -388q0 -157 72.5 -296t196.5 -238.5t298.5 -157t370.5 -57.5zM1079 682h297v227h156v-587h-156v217h-297v-217h-155v587h155v-227z" />
    <glyph glyph-name="I.ss08" horiz-adv-x="2459" 
d="M1227 -315q-237 0 -446.5 71t-359 193.5t-236.5 294t-87 364.5q0 198 87 372.5t236.5 298.5t359 195.5t446.5 71.5q239 0 449 -71.5t360 -195.5t236.5 -298.5t86.5 -372.5q0 -156 -55 -298t-157.5 -255t-241 -196.5t-313 -128.5t-365.5 -45zM1227 -139q266 0 481.5 97.5
t338 269t122.5 382.5q0 214 -122.5 388t-338 273t-481.5 99q-262 0 -477 -99t-338 -273t-123 -388q0 -157 72.5 -296t196.5 -238.5t298.5 -157t370.5 -57.5zM1309 322h-156v587h156v-587z" />
    <glyph glyph-name="J.ss08" 
d="M1225 -315q-237 0 -446.5 71t-359 193.5t-236.5 294t-87 364.5q0 198 87 372.5t236.5 298.5t359 195.5t446.5 71.5q239 0 449 -71.5t360 -195.5t236.5 -298.5t86.5 -372.5q0 -156 -55 -298t-157.5 -255t-241 -196.5t-313 -128.5t-365.5 -45zM1225 -139q266 0 481.5 97.5
t338 269t122.5 382.5q0 214 -122.5 388t-338 273t-481.5 99q-262 0 -477 -99t-338 -273t-123 -388q0 -157 72.5 -296t196.5 -238.5t298.5 -157t370.5 -57.5zM1210 315q-121 0 -193.5 57t-72.5 152v29l154 20v-30q0 -42 28 -65t78 -23q55 0 73.5 22t18.5 68v370h156v-352
q0 -20 -0.5 -34t-5 -42.5t-13 -48.5t-26.5 -45t-43 -40.5t-64.5 -26.5t-89.5 -11z" />
    <glyph glyph-name="K.ss08" 
d="M1225 1546q239 0 449 -71.5t360 -195.5t236.5 -298.5t86.5 -372.5q0 -156 -55 -298t-157.5 -255t-241 -196.5t-313 -128.5t-365.5 -45q-237 0 -446.5 71t-359 193.5t-236.5 294t-87 364.5q0 198 87 372.5t236.5 298.5t359 195.5t446.5 71.5zM1225 -139q266 0 481.5 97.5
t338 269t122.5 382.5q0 214 -122.5 388t-338 273t-481.5 99q-262 0 -477 -99t-338 -273t-123 -388q0 -157 72.5 -296t196.5 -238.5t298.5 -157t370.5 -57.5zM1378 909h187l-285 -256q167 -186 293 -331h-189q-108 114 -210 219l-62 -49v-170h-156v587h156v-219
q49 38 138 113t128 106z" />
    <glyph glyph-name="L.ss08" 
d="M1225 1546q239 0 449 -71.5t360 -195.5t236.5 -298.5t86.5 -372.5q0 -156 -55 -298t-157.5 -255t-241 -196.5t-313 -128.5t-365.5 -45q-237 0 -446.5 71t-359 193.5t-236.5 294t-87 364.5q0 198 87 372.5t236.5 298.5t359 195.5t446.5 71.5zM1225 -139q266 0 481.5 97.5
t338 269t122.5 382.5q0 214 -122.5 388t-338 273t-481.5 99q-262 0 -477 -99t-338 -273t-123 -388q0 -157 72.5 -296t196.5 -238.5t298.5 -157t370.5 -57.5zM1051 909h155v-450h312v-137h-467v587z" />
    <glyph glyph-name="M.ss08" horiz-adv-x="2459" 
d="M1225 1546q239 0 449 -71.5t360 -195.5t236.5 -298.5t86.5 -372.5q0 -156 -55 -298t-157.5 -255t-241 -196.5t-313 -128.5t-365.5 -45q-237 0 -446.5 71t-359 193.5t-236.5 294t-87 364.5q0 198 87 372.5t236.5 298.5t359 195.5t446.5 71.5zM1225 -139q266 0 481.5 97.5
t338 269t122.5 382.5q0 214 -122.5 388t-338 273t-481.5 99q-262 0 -477 -99t-338 -273t-123 -388q0 -157 72.5 -296t196.5 -238.5t298.5 -157t370.5 -57.5zM1229 551q147 242 213 358h186v-587h-158v301q-29 -47 -96 -149.5t-96 -151.5h-96q-20 32 -89 137.5t-104 163.5
v-301h-158v587h187q39 -68 119 -203t92 -155z" />
    <glyph glyph-name="N.ss08" 
d="M1225 1546q239 0 449 -71.5t360 -195.5t236.5 -298.5t86.5 -372.5q0 -156 -55 -298t-157.5 -255t-241 -196.5t-313 -128.5t-365.5 -45q-237 0 -446.5 71t-359 193.5t-236.5 294t-87 364.5q0 198 87 372.5t236.5 298.5t359 195.5t446.5 71.5zM1225 -139q266 0 481.5 97.5
t338 269t122.5 382.5q0 214 -122.5 388t-338 273t-481.5 99q-262 0 -477 -99t-338 -273t-123 -388q0 -157 72.5 -296t196.5 -238.5t298.5 -157t370.5 -57.5zM1389 582v327h155v-587h-158q-47 50 -146.5 153.5t-152.5 161.5v-315h-155v587h155q26 -29 134.5 -144.5
t167.5 -182.5z" />
    <glyph glyph-name="O.ss08" horiz-adv-x="2455" 
d="M1225 -315q-237 0 -446.5 71t-359 193.5t-236.5 294t-87 364.5q0 198 87 372.5t236.5 298.5t359 195.5t446.5 71.5q239 0 449 -71.5t360 -195.5t236.5 -298.5t86.5 -372.5q0 -156 -55 -298t-157.5 -255t-241 -196.5t-313 -128.5t-365.5 -45zM1225 -139q266 0 481.5 97.5
t338 269t122.5 382.5q0 214 -122.5 388t-338 273t-481.5 99q-262 0 -477 -99t-338 -273t-123 -388q0 -157 72.5 -296t196.5 -238.5t298.5 -157t370.5 -57.5zM1231 309q-157 0 -263 87t-106 218q0 130 106 218t263 88t262.5 -88t105.5 -218t-105.5 -217.5t-262.5 -87.5z
M1233 449q87 0 145 46.5t58 118.5t-58.5 120t-144.5 48q-89 0 -149 -48t-60 -120t59.5 -118.5t149.5 -46.5z" />
    <glyph glyph-name="P.ss08" 
d="M1225 1546q239 0 449 -71.5t360 -195.5t236.5 -298.5t86.5 -372.5q0 -156 -55 -298t-157.5 -255t-241 -196.5t-313 -128.5t-365.5 -45q-237 0 -446.5 71t-359 193.5t-236.5 294t-87 364.5q0 198 87 372.5t236.5 298.5t359 195.5t446.5 71.5zM1225 -139q266 0 481.5 97.5
t338 269t122.5 382.5q0 214 -122.5 388t-338 273t-481.5 99q-262 0 -477 -99t-338 -273t-123 -388q0 -157 72.5 -296t196.5 -238.5t298.5 -157t370.5 -57.5zM995 909h283q258 0 258 -194q0 -47 -15 -83t-41 -57t-52.5 -34.5t-59.5 -18.5t-50 -6.5t-36 -1.5h-131v-192h-156
v587zM1151 655h104q24 0 39 1.5t36 6.5t31.5 18t10.5 34q0 20 -10 32.5t-31 17.5t-35 6t-39 1h-106v-117z" />
    <glyph glyph-name="Q.ss08" 
d="M1225 -315q-237 0 -446.5 71t-359 193.5t-236.5 294t-87 364.5q0 198 87 372.5t236.5 298.5t359 195.5t446.5 71.5q239 0 449 -71.5t360 -195.5t236.5 -298.5t86.5 -372.5q0 -156 -55 -298t-157.5 -255t-241 -196.5t-313 -128.5t-365.5 -45zM1225 -139q266 0 481.5 97.5
t338 269t122.5 382.5q0 214 -122.5 388t-338 273t-481.5 99q-262 0 -477 -99t-338 -273t-123 -388q0 -157 72.5 -296t196.5 -238.5t298.5 -157t370.5 -57.5zM1583 356l-113 -88q-10 9 -28 26.5t-74 67.5q-72 -16 -143 -16q-162 0 -269.5 86.5t-107.5 218.5t107.5 218.5
t269.5 86.5q160 0 267 -86.5t107 -218.5q0 -129 -104 -213q17 -17 50 -47t38 -35zM1227 485h30q-59 41 -73 50l112 88q6 -5 97 -74q49 46 49 102q0 75 -60.5 121.5t-154.5 46.5q-97 0 -158 -46.5t-61 -121.5t60.5 -120.5t158.5 -45.5z" />
    <glyph glyph-name="R.ss08" 
d="M1225 1546q239 0 449 -71.5t360 -195.5t236.5 -298.5t86.5 -372.5q0 -156 -55 -298t-157.5 -255t-241 -196.5t-313 -128.5t-365.5 -45q-237 0 -446.5 71t-359 193.5t-236.5 294t-87 364.5q0 198 87 372.5t236.5 298.5t359 195.5t446.5 71.5zM1225 -139q266 0 481.5 97.5
t338 269t122.5 382.5q0 214 -122.5 388t-338 273t-481.5 99q-262 0 -477 -99t-338 -273t-123 -388q0 -157 72.5 -296t196.5 -238.5t298.5 -157t370.5 -57.5zM1532 711q0 -65 -39.5 -111t-112.5 -68q101 -122 179 -210h-179l-166 194h-67v-194h-156v587h283q17 0 29.5 -0.5
t41.5 -4t50.5 -10.5t49 -21.5t45 -35t30 -53t12.5 -73.5zM1251 647q117 0 117 64q0 63 -115 63h-106v-127h104z" />
    <glyph glyph-name="S.ss08" 
d="M1225 -315q-237 0 -446.5 71t-359 193.5t-236.5 294t-87 364.5q0 198 87 372.5t236.5 298.5t359 195.5t446.5 71.5q239 0 449 -71.5t360 -195.5t236.5 -298.5t86.5 -372.5q0 -156 -55 -298t-157.5 -255t-241 -196.5t-313 -128.5t-365.5 -45zM1225 -139q266 0 481.5 97.5
t338 269t122.5 382.5q0 214 -122.5 388t-338 273t-481.5 99q-262 0 -477 -99t-338 -273t-123 -388q0 -157 72.5 -296t196.5 -238.5t298.5 -157t370.5 -57.5zM1243 309q-110 0 -189.5 48.5t-103.5 134.5l144 47q36 -93 145 -93q42 0 72 13t30 33q0 5 -1.5 9.5t-5.5 8
t-7.5 6.5t-11 6l-12.5 5t-14.5 5t-16 4.5t-18 4t-17.5 4.5l-66 16q-198 49 -198 176q0 79 74 131t184 52q94 0 166.5 -40.5t91.5 -103.5l-141 -55q-33 61 -119 61q-37 0 -60.5 -9.5t-23.5 -24.5q0 -31 110 -58l74 -18q26 -7 44 -12.5t47 -19t47 -30t32 -44t14 -60.5
q0 -87 -76 -142t-194 -55z" />
    <glyph glyph-name="T.ss08" horiz-adv-x="2455" 
d="M1225 -315q-237 0 -446.5 71t-359 193.5t-236.5 294t-87 364.5q0 198 87 372.5t236.5 298.5t359 195.5t446.5 71.5q239 0 449 -71.5t360 -195.5t236.5 -298.5t86.5 -372.5q0 -156 -55 -298t-157.5 -255t-241 -196.5t-313 -128.5t-365.5 -45zM1225 -139q266 0 481.5 97.5
t338 269t122.5 382.5q0 214 -122.5 388t-338 273t-481.5 99q-262 0 -477 -99t-338 -273t-123 -388q0 -157 72.5 -296t196.5 -238.5t298.5 -157t370.5 -57.5zM1305 322h-156v450h-211v137h578v-137h-211v-450z" />
    <glyph glyph-name="U.ss08" horiz-adv-x="2459" 
d="M1225 -315q-237 0 -446.5 71t-359 193.5t-236.5 294t-87 364.5q0 198 87 372.5t236.5 298.5t359 195.5t446.5 71.5q239 0 449 -71.5t360 -195.5t236.5 -298.5t86.5 -372.5q0 -156 -55 -298t-157.5 -255t-241 -196.5t-313 -128.5t-365.5 -45zM1225 -139q266 0 481.5 97.5
t338 269t122.5 382.5q0 214 -122.5 388t-338 273t-481.5 99q-262 0 -477 -99t-338 -273t-123 -388q0 -157 72.5 -296t196.5 -238.5t298.5 -157t370.5 -57.5zM1227 315q-70 0 -122.5 18.5t-81.5 45t-47 62.5t-23 65t-5 59v350h156v-337q0 -60 28 -91.5t97 -31.5q68 0 96.5 31
t28.5 92v337h155v-350q0 -29 -5 -58t-23 -65t-47 -63t-82.5 -45.5t-124.5 -18.5z" />
    <glyph glyph-name="V.ss08" 
d="M1225 1546q239 0 449 -71.5t360 -195.5t236.5 -298.5t86.5 -372.5q0 -156 -55 -298t-157.5 -255t-241 -196.5t-313 -128.5t-365.5 -45q-237 0 -446.5 71t-359 193.5t-236.5 294t-87 364.5q0 198 87 372.5t236.5 298.5t359 195.5t446.5 71.5zM1225 -139q266 0 481.5 97.5
t338 269t122.5 382.5q0 214 -122.5 388t-338 273t-481.5 99q-262 0 -477 -99t-338 -273t-123 -388q0 -157 72.5 -296t196.5 -238.5t298.5 -157t370.5 -57.5zM1247 502q38 93 69 164t52.5 117.5t36.5 75t24 40t13 10.5h164l-275 -587h-174l-276 587h163q9 -1 45 -74.5
t86 -181.5t72 -151z" />
    <glyph glyph-name="W.ss08" 
d="M1225 1546q239 0 449 -71.5t360 -195.5t236.5 -298.5t86.5 -372.5q0 -156 -55 -298t-157.5 -255t-241 -196.5t-313 -128.5t-365.5 -45q-237 0 -446.5 71t-359 193.5t-236.5 294t-87 364.5q0 198 87 372.5t236.5 298.5t359 195.5t446.5 71.5zM1225 -139q266 0 481.5 97.5
t338 269t122.5 382.5q0 214 -122.5 388t-338 273t-481.5 99q-262 0 -477 -99t-338 -273t-123 -388q0 -157 72.5 -296t196.5 -238.5t298.5 -157t370.5 -57.5zM1460 537q57 178 127 372h174l-207 -587h-184q-117 281 -141 344q-73 -191 -139 -344h-187l-207 587h176l127 -368
q23 61 73 183.5t73 184.5h168z" />
    <glyph glyph-name="X.ss08" 
d="M1225 1546q239 0 449 -71.5t360 -195.5t236.5 -298.5t86.5 -372.5q0 -156 -55 -298t-157.5 -255t-241 -196.5t-313 -128.5t-365.5 -45q-237 0 -446.5 71t-359 193.5t-236.5 294t-87 364.5q0 198 87 372.5t236.5 298.5t359 195.5t446.5 71.5zM1225 -139q266 0 481.5 97.5
t338 269t122.5 382.5q0 214 -122.5 388t-338 273t-481.5 99q-262 0 -477 -99t-338 -273t-123 -388q0 -157 72.5 -296t196.5 -238.5t298.5 -157t370.5 -57.5zM1382 909h183q-28 -35 -108.5 -138.5t-125.5 -158.5q44 -52 121 -150t111 -140h-187q-28 31 -75.5 91t-65.5 81
q-18 -21 -65.5 -81t-75.5 -91h-189q42 50 119.5 147t116.5 143q-44 52 -120 152t-112 145h183q118 -148 143 -178q27 31 74.5 90t72.5 88z" />
    <glyph glyph-name="Y.ss08" 
d="M1225 1546q239 0 449 -71.5t360 -195.5t236.5 -298.5t86.5 -372.5q0 -156 -55 -298t-157.5 -255t-241 -196.5t-313 -128.5t-365.5 -45q-237 0 -446.5 71t-359 193.5t-236.5 294t-87 364.5q0 198 87 372.5t236.5 298.5t359 195.5t446.5 71.5zM1225 -139q266 0 481.5 97.5
t338 269t122.5 382.5q0 214 -122.5 388t-338 273t-481.5 99q-262 0 -477 -99t-338 -273t-123 -388q0 -157 72.5 -296t196.5 -238.5t298.5 -157t370.5 -57.5zM1229 666q15 24 37.5 57t43.5 63.5t39.5 58t30.5 45.5t13 19h168q-228 -351 -256 -389v-198h-154v196
q-22 34 -114 175t-142 216h170q28 -43 83 -123t81 -120z" />
    <glyph glyph-name="Z.ss08" 
d="M1225 1546q239 0 449 -71.5t360 -195.5t236.5 -298.5t86.5 -372.5q0 -156 -55 -298t-157.5 -255t-241 -196.5t-313 -128.5t-365.5 -45q-237 0 -446.5 71t-359 193.5t-236.5 294t-87 364.5q0 198 87 372.5t236.5 298.5t359 195.5t446.5 71.5zM1225 -139q266 0 481.5 97.5
t338 269t122.5 382.5q0 214 -122.5 388t-338 273t-481.5 99q-262 0 -477 -99t-338 -273t-123 -388q0 -157 72.5 -296t196.5 -238.5t298.5 -157t370.5 -57.5zM1505 909v-135l-364 -315h370v-137h-569v131q294 261 363 321q-119 -2 -353 -2v137h553z" />
    <glyph glyph-name="i.loclTRK" horiz-adv-x="686" 
d="M346 1257q-93 0 -156 59t-63 146q0 81 63 139t156 58q90 0 152.5 -58.5t62.5 -138.5q0 -86 -62 -145.5t-153 -59.5zM520 0h-354v1147h354v-1147z" />
    <glyph glyph-name="a.ss01" horiz-adv-x="1642" 
d="M705 -33q-143 0 -261.5 48t-196.5 131t-120.5 192.5t-42.5 232.5q0 113 33.5 211.5t92.5 170.5t137.5 123.5t170.5 77.5t189 26q135 0 243 -45t172 -111h4v123h351v-1147h-336v115h-6q-128 -148 -430 -148zM788 295q148 0 243 79.5t95 200.5q0 122 -97 200.5t-245 78.5
q-146 0 -239.5 -77t-93.5 -197q0 -127 94.5 -206t242.5 -79z" />
    <glyph glyph-name="aacute.ss01" horiz-adv-x="1642" 
d="M1339 1653l-372 -375h-308l265 375h415zM705 -33q-143 0 -261.5 48t-196.5 131t-120.5 192.5t-42.5 232.5q0 113 33.5 211.5t92.5 170.5t137.5 123.5t170.5 77.5t189 26q135 0 243 -45t172 -111h4v123h351v-1147h-336v115h-6q-128 -148 -430 -148zM788 295
q148 0 243 79.5t95 200.5q0 122 -97 200.5t-245 78.5q-146 0 -239.5 -77t-93.5 -197q0 -127 94.5 -206t242.5 -79z" />
    <glyph glyph-name="abreve.ss01" horiz-adv-x="1642" 
d="M831 1264q-207 0 -331.5 110t-132.5 285h288q0 -59 49.5 -107.5t137.5 -48.5t136 48t50 108h289q-8 -176 -137.5 -285.5t-348.5 -109.5zM705 -33q-143 0 -261.5 48t-196.5 131t-120.5 192.5t-42.5 232.5q0 113 33.5 211.5t92.5 170.5t137.5 123.5t170.5 77.5t189 26
q135 0 243 -45t172 -111h4v123h351v-1147h-336v115h-6q-128 -148 -430 -148zM788 295q148 0 243 79.5t95 200.5q0 122 -97 200.5t-245 78.5q-146 0 -239.5 -77t-93.5 -197q0 -127 94.5 -206t242.5 -79z" />
    <glyph glyph-name="acircumflex.ss01" horiz-adv-x="1642" 
d="M637 1278h-334l354 375h359l356 -375h-334l-200 172q-34 -29 -100.5 -86t-100.5 -86zM705 -33q-143 0 -261.5 48t-196.5 131t-120.5 192.5t-42.5 232.5q0 113 33.5 211.5t92.5 170.5t137.5 123.5t170.5 77.5t189 26q135 0 243 -45t172 -111h4v123h351v-1147h-336v115h-6
q-128 -148 -430 -148zM788 295q148 0 243 79.5t95 200.5q0 122 -97 200.5t-245 78.5q-146 0 -239.5 -77t-93.5 -197q0 -127 94.5 -206t242.5 -79z" />
    <glyph glyph-name="adieresis.ss01" horiz-adv-x="1642" 
d="M557 1276q-83 0 -141 54t-58 132q0 73 58 125.5t141 52.5q82 0 139.5 -52.5t57.5 -125.5q0 -78 -57 -132t-140 -54zM1120 1276q-84 0 -141 54t-57 132q0 73 57 125.5t141 52.5q81 0 139 -53t58 -125q0 -78 -57.5 -132t-139.5 -54zM705 -33q-143 0 -261.5 48t-196.5 131
t-120.5 192.5t-42.5 232.5q0 113 33.5 211.5t92.5 170.5t137.5 123.5t170.5 77.5t189 26q135 0 243 -45t172 -111h4v123h351v-1147h-336v115h-6q-128 -148 -430 -148zM788 295q148 0 243 79.5t95 200.5q0 122 -97 200.5t-245 78.5q-146 0 -239.5 -77t-93.5 -197
q0 -127 94.5 -206t242.5 -79z" />
    <glyph glyph-name="agrave.ss01" horiz-adv-x="1642" 
d="M1001 1278h-307l-372 375h415zM705 -33q-143 0 -261.5 48t-196.5 131t-120.5 192.5t-42.5 232.5q0 113 33.5 211.5t92.5 170.5t137.5 123.5t170.5 77.5t189 26q135 0 243 -45t172 -111h4v123h351v-1147h-336v115h-6q-128 -148 -430 -148zM788 295q148 0 243 79.5
t95 200.5q0 122 -97 200.5t-245 78.5q-146 0 -239.5 -77t-93.5 -197q0 -127 94.5 -206t242.5 -79z" />
    <glyph glyph-name="amacron.ss01" horiz-adv-x="1642" 
d="M1249 1300h-825v236h825v-236zM705 -33q-143 0 -261.5 48t-196.5 131t-120.5 192.5t-42.5 232.5q0 113 33.5 211.5t92.5 170.5t137.5 123.5t170.5 77.5t189 26q135 0 243 -45t172 -111h4v123h351v-1147h-336v115h-6q-128 -148 -430 -148zM788 295q148 0 243 79.5
t95 200.5q0 122 -97 200.5t-245 78.5q-146 0 -239.5 -77t-93.5 -197q0 -127 94.5 -206t242.5 -79z" />
    <glyph glyph-name="aogonek.ss01" horiz-adv-x="1642" 
d="M1477 0h-105q-99 -14 -144.5 -55.5t-45.5 -85.5q0 -39 41.5 -67t113.5 -28q65 0 115 17v-230q-66 -14 -147 -14q-158 0 -262.5 62t-104.5 180q0 76 57.5 136t151.5 85h-6v115h-6q-128 -148 -430 -148q-143 0 -261.5 48t-196.5 131t-120.5 192.5t-42.5 232.5
q0 113 33.5 211.5t92.5 170.5t137.5 123.5t170.5 77.5t189 26q135 0 243 -45t172 -111h4v123h351v-1147zM788 295q148 0 243 79.5t95 200.5q0 122 -97 200.5t-245 78.5q-146 0 -239.5 -77t-93.5 -197q0 -127 94.5 -206t242.5 -79z" />
    <glyph glyph-name="aring.ss01" horiz-adv-x="1642" 
d="M838 1257q-133 0 -225.5 76.5t-92.5 184.5q0 110 92 185t226 75q132 0 222.5 -74t90.5 -186t-90.5 -186.5t-222.5 -74.5zM838 1440q42 0 72 23.5t30 54.5q0 30 -30 52.5t-72 22.5q-46 0 -76.5 -22.5t-30.5 -52.5q0 -32 30.5 -55t76.5 -23zM705 -33q-143 0 -261.5 48
t-196.5 131t-120.5 192.5t-42.5 232.5q0 113 33.5 211.5t92.5 170.5t137.5 123.5t170.5 77.5t189 26q135 0 243 -45t172 -111h4v123h351v-1147h-336v115h-6q-128 -148 -430 -148zM788 295q148 0 243 79.5t95 200.5q0 122 -97 200.5t-245 78.5q-146 0 -239.5 -77t-93.5 -197
q0 -127 94.5 -206t242.5 -79z" />
    <glyph glyph-name="atilde.ss01" horiz-adv-x="1642" 
d="M1034 1264q-106 0 -170 36l-69 39q-17 10 -46 19.5t-51 9.5q-41 0 -63.5 -25t-22.5 -61h-252q0 156 90.5 250t227.5 94q96 0 184 -45l64 -33q29 -16 78 -16q33 0 51 21.5t18 58.5h254q0 -170 -76 -259t-217 -89zM705 -33q-143 0 -261.5 48t-196.5 131t-120.5 192.5
t-42.5 232.5q0 113 33.5 211.5t92.5 170.5t137.5 123.5t170.5 77.5t189 26q135 0 243 -45t172 -111h4v123h351v-1147h-336v115h-6q-128 -148 -430 -148zM788 295q148 0 243 79.5t95 200.5q0 122 -97 200.5t-245 78.5q-146 0 -239.5 -77t-93.5 -197q0 -127 94.5 -206
t242.5 -79z" />
    <glyph glyph-name="b.ss01" horiz-adv-x="1402" 
d="M858 -35q-249 0 -356 150h-4v-115h-332v1638h354v-952h6q46 42 132.5 65t187.5 23q216 0 363 -114t147 -295q0 -174 -141.5 -287t-356.5 -113zM795 248q87 0 142.5 35t55.5 92q0 56 -53.5 90.5t-140.5 34.5q-96 0 -153.5 -35t-57.5 -92q0 -55 58 -90t149 -35z" />
    <glyph glyph-name="d.ss01" horiz-adv-x="1636" 
d="M709 -33q-146 0 -265.5 48.5t-197.5 131.5t-120 192t-42 232q0 141 51.5 258t138.5 193t199 118t234 42q134 0 236.5 -45t168.5 -113h6v614h355v-1638h-332v115h-6q-133 -148 -426 -148zM786 295q148 0 244 79.5t96 200.5q0 122 -97 200.5t-245 78.5q-146 0 -239.5 -77
t-93.5 -197q0 -127 94 -206t241 -79z" />
    <glyph glyph-name="dcaron.ss01" horiz-adv-x="1695" 
d="M1741 1063h-205l201 301q-67 26 -103.5 76t-36.5 112q0 83 67 143t159 60q91 0 156 -58.5t65 -140.5q0 -16 -2.5 -31t-6 -28.5t-13 -32.5t-17 -33.5t-25 -40.5t-30.5 -45t-40 -55.5t-46.5 -63t-57 -76t-65.5 -87.5zM709 -33q-146 0 -265.5 48.5t-197.5 131.5t-120 192
t-42 232q0 141 51.5 258t138.5 193t199 118t234 42q134 0 236.5 -45t168.5 -113h6v614h355v-1638h-332v115h-6q-133 -148 -426 -148zM786 295q148 0 244 79.5t96 200.5q0 122 -97 200.5t-245 78.5q-146 0 -239.5 -77t-93.5 -197q0 -127 94 -206t241 -79z" />
    <glyph glyph-name="dcroat.ss01" horiz-adv-x="1636" 
d="M1473 1495h315v-252h-315v-1243h-332v115h-6q-133 -148 -426 -148q-146 0 -265.5 48.5t-197.5 131.5t-120 192t-42 232q0 141 51.5 258t138.5 193t199 118t234 42q134 0 236.5 -45t168.5 -113h6v219h-311v252h311v143h355v-143zM786 295q148 0 244 79.5t96 200.5
q0 122 -97 200.5t-245 78.5q-146 0 -239.5 -77t-93.5 -197q0 -127 94 -206t241 -79z" />
    <glyph glyph-name="g.ss01" horiz-adv-x="1636" 
d="M1470 -451h-1241v312h887v282h-6q-116 -135 -399 -135q-150 0 -271.5 48t-198.5 129t-118 185t-41 220q0 128 47.5 238t129 187t195.5 121t244 44q139 0 246 -44.5t172 -111.5h4v123h350v-1598zM784 336q146 0 243 76.5t97 183.5t-97.5 182.5t-244.5 75.5
q-144 0 -238.5 -74.5t-94.5 -183.5t94.5 -184.5t240.5 -75.5z" />
    <glyph glyph-name="gbreve.ss01" horiz-adv-x="1636" 
d="M827 1264q-207 0 -332 110t-133 285h289q0 -59 49.5 -107.5t137.5 -48.5t136 48t50 108h289q-8 -176 -137.5 -285.5t-348.5 -109.5zM1470 -451h-1241v312h887v282h-6q-116 -135 -399 -135q-150 0 -271.5 48t-198.5 129t-118 185t-41 220q0 128 47.5 238t129 187
t195.5 121t244 44q139 0 246 -44.5t172 -111.5h4v123h350v-1598zM784 336q146 0 243 76.5t97 183.5t-97.5 182.5t-244.5 75.5q-144 0 -238.5 -74.5t-94.5 -183.5t94.5 -184.5t240.5 -75.5z" />
    <glyph glyph-name="uni0123.ss01" horiz-adv-x="1636" 
d="M633 1454q0 28 5.5 50.5t27 60t41 66t72 105t95.5 140.5h197l-168 -252q54 -26 85.5 -68.5t31.5 -97.5q0 -75 -56 -124.5t-139 -49.5t-137.5 49t-54.5 121zM1470 -451h-1241v312h887v282h-6q-116 -135 -399 -135q-150 0 -271.5 48t-198.5 129t-118 185t-41 220
q0 128 47.5 238t129 187t195.5 121t244 44q139 0 246 -44.5t172 -111.5h4v123h350v-1598zM784 336q146 0 243 76.5t97 183.5t-97.5 182.5t-244.5 75.5q-144 0 -238.5 -74.5t-94.5 -183.5t94.5 -184.5t240.5 -75.5z" />
    <glyph glyph-name="gdotaccent.ss01" horiz-adv-x="1636" 
d="M836 1278q-93 0 -156.5 59t-63.5 146q0 80 63.5 138t156.5 58q90 0 152.5 -58t62.5 -138q0 -86 -62 -145.5t-153 -59.5zM1470 -451h-1241v312h887v282h-6q-116 -135 -399 -135q-150 0 -271.5 48t-198.5 129t-118 185t-41 220q0 128 47.5 238t129 187t195.5 121t244 44
q139 0 246 -44.5t172 -111.5h4v123h350v-1598zM784 336q146 0 243 76.5t97 183.5t-97.5 182.5t-244.5 75.5q-144 0 -238.5 -74.5t-94.5 -183.5t94.5 -184.5t240.5 -75.5z" />
    <glyph glyph-name="i.ss01" horiz-adv-x="962" 
d="M469 1257q-93 0 -156 59t-63 146q0 81 63 139t156 58q90 0 152.5 -58.5t62.5 -138.5q0 -86 -62 -145.5t-153 -59.5zM913 0h-596v836h-284v311h639v-836h241v-311z" />
    <glyph glyph-name="dotlessi.ss01" horiz-adv-x="962" 
d="M913 0h-596v836h-284v311h639v-836h241v-311z" />
    <glyph glyph-name="iacute.ss01" horiz-adv-x="962" 
d="M963 1653l-373 -375h-307l264 375h416zM913 0h-596v836h-284v311h639v-836h241v-311z" />
    <glyph glyph-name="icircumflex.ss01" horiz-adv-x="962" 
d="M260 1278h-334l355 375h358l356 -375h-333l-201 172q-34 -29 -100.5 -86t-100.5 -86zM913 0h-596v836h-284v311h639v-836h241v-311z" />
    <glyph glyph-name="idieresis.ss01" horiz-adv-x="962" 
d="M180 1276q-83 0 -140.5 54t-57.5 132q0 73 57.5 125.5t140.5 52.5q82 0 139.5 -52.5t57.5 -125.5q0 -78 -57 -132t-140 -54zM743 1276q-84 0 -141 54t-57 132q0 73 57 125.5t141 52.5q81 0 139 -53t58 -125q0 -78 -57.5 -132t-139.5 -54zM913 0h-596v836h-284v311h639
v-836h241v-311z" />
    <glyph glyph-name="i.loclTRK.ss01" horiz-adv-x="962" 
d="M463 1278q-93 0 -156 59t-63 146q0 81 63 138.5t156 57.5q90 0 152.5 -58t62.5 -138q0 -86 -62 -145.5t-153 -59.5zM913 0h-596v836h-284v311h639v-836h241v-311z" />
    <glyph glyph-name="igrave.ss01" horiz-adv-x="962" 
d="M625 1278h-308l-372 375h415zM913 0h-596v836h-284v311h639v-836h241v-311z" />
    <glyph glyph-name="imacron.ss01" horiz-adv-x="962" 
d="M872 1300h-825v236h825v-236zM913 0h-596v836h-284v311h639v-836h241v-311z" />
    <glyph glyph-name="iogonek.ss01" horiz-adv-x="962" 
d="M463 1278q-93 0 -156 59t-63 146q0 81 63 138.5t156 57.5q90 0 152.5 -58t62.5 -138q0 -86 -62 -145.5t-153 -59.5zM913 0h-389q-86 -17 -126 -56.5t-40 -80.5q0 -39 42 -66.5t114 -27.5q68 0 115 16v-229q-71 -15 -148 -15q-158 0 -262 62t-104 180q0 75 55.5 134.5
t146.5 84.5v834h-284v311h639v-836h241v-311z" />
    <glyph glyph-name="j.ss01" horiz-adv-x="892" 
d="M526 1257q-93 0 -156 59t-63 146q0 81 63 139t156 58q90 0 152.5 -58.5t62.5 -138.5q0 -86 -62 -145.5t-153 -59.5zM727 -451h-856v312h502v975h-344v311h698v-1598z" />
    <glyph glyph-name="l.ss01" horiz-adv-x="952" 
d="M934 0h-766v1638h354v-1327h412v-311z" />
    <glyph glyph-name="lacute.ss01" horiz-adv-x="952" 
d="M969 2136l-391 -375h-322l276 375h437zM934 0h-766v1638h354v-1327h412v-311z" />
    <glyph glyph-name="lcaron.ss01" horiz-adv-x="952" 
d="M827 981h-204l200 301q-67 26 -103 76t-36 112q0 83 66.5 143t158.5 60q91 0 156 -58t65 -140q0 -63 -41 -130.5t-182 -256.5q-51 -68 -80 -107zM934 0h-766v1638h354v-1327h412v-311z" />
    <glyph glyph-name="uni013C.ss01" horiz-adv-x="952" 
d="M934 0h-766v1638h354v-1327h412v-311zM408 -696h-191l160 252q-55 25 -88 68.5t-33 96.5q0 75 56 125t139 50t137.5 -49t54.5 -121q0 -28 -5.5 -50.5t-26.5 -59.5t-40.5 -66.5t-70 -104.5t-92.5 -141z" />
    <glyph glyph-name="lslash.ss01" horiz-adv-x="952" 
d="M522 893v-582h412v-311h-766v668l-211 -133v292l211 134v677h354v-452l250 160v-293z" />
    <glyph glyph-name="m.ss01" horiz-adv-x="2375" 
d="M520 0h-354v1147h354v-279l445 279h401v-277l442 277h402v-1147h-355v791h-14l-475 -304v-487h-354v791h-15l-477 -306v-485z" />
    <glyph glyph-name="n.ss01" horiz-adv-x="1564" 
d="M520 768l574 379h305v-1147h-352v731h-15l-512 -268v-463h-354v1147h354v-379z" />
    <glyph glyph-name="nacute.ss01" horiz-adv-x="1564" 
d="M868 1653h416l-373 -375h-307zM520 768l574 379h305v-1147h-352v731h-15l-512 -268v-463h-354v1147h354v-379z" />
    <glyph glyph-name="ncaron.ss01" horiz-adv-x="1564" 
d="M1317 1694l-356 -396h-359l-354 396h334l200 -172q34 29 100.5 86t100.5 86h334zM520 768l574 379h305v-1147h-352v731h-15l-512 -268v-463h-354v1147h354v-379z" />
    <glyph glyph-name="uni0146.ss01" horiz-adv-x="1564" 
d="M520 768l574 379h305v-1147h-352v731h-15l-512 -268v-463h-354v1147h354v-379zM823 -104q83 0 138 -49t55 -121q0 -28 -5.5 -51t-26.5 -59.5t-41 -66.5t-70 -104.5t-93 -140.5h-190l160 252q-55 25 -88 68.5t-33 96.5q0 75 55.5 125t138.5 50z" />
    <glyph glyph-name="eng.ss01" horiz-adv-x="1564" 
d="M946 -483q-129 0 -276 39v290q132 -24 198 -24q51 0 86.5 9t53.5 21t27 34.5t10.5 37t1.5 41.5v766h-15l-512 -268v-463h-354v1147h354v-342l574 342h305v-1161q0 -59 -1 -91t-9.5 -89.5t-25 -90.5t-49.5 -76t-80 -66t-120.5 -39.5t-167.5 -16.5z" />
    <glyph glyph-name="ntilde.ss01" horiz-adv-x="1564" 
d="M643 1368q-41 0 -63.5 -25t-22.5 -61h-252q0 156 90.5 250t227.5 94q96 0 184 -45l63 -33q29 -16 78 -16q33 0 51.5 21.5t18.5 58.5h254q0 -170 -76 -259t-217 -89q-106 0 -170 36l-70 39q-48 29 -96 29zM520 768l574 379h305v-1147h-352v731h-15l-512 -268v-463h-354
v1147h354v-379z" />
    <glyph glyph-name="p.ss01" horiz-adv-x="1638" 
d="M520 -451h-354v1598h350v-146h4q171 179 438 179q136 0 250 -48t188.5 -130.5t116 -191t41.5 -230.5q0 -142 -51.5 -260t-138 -194.5t-198.5 -118.5t-234 -42q-254 0 -412 158v-574zM852 293q148 0 242 78t94 200q0 123 -95 202t-241 79q-147 0 -243.5 -79t-96.5 -202
q0 -121 96.5 -199.5t243.5 -78.5z" />
    <glyph glyph-name="q.ss01" horiz-adv-x="1638" 
d="M1473 -451h-355v594q-158 -178 -434 -178q-176 0 -314.5 84t-212 224t-73.5 309q0 137 49 251t133 189t196 116.5t238 41.5q138 0 245.5 -45t172.5 -111h4v123h351v-1598zM786 295q148 0 244 79.5t96 200.5q0 122 -97 200.5t-245 78.5q-146 0 -239.5 -78t-93.5 -201
q0 -121 93.5 -200.5t241.5 -79.5z" />
    <glyph glyph-name="r.ss01" horiz-adv-x="1040" 
d="M520 0h-354v1147h842v-311h-488v-836z" />
    <glyph glyph-name="racute.ss01" horiz-adv-x="1040" 
d="M1049 1653l-373 -375h-307l264 375h416zM520 0h-354v1147h842v-311h-488v-836z" />
    <glyph glyph-name="rcaron.ss01" horiz-adv-x="1040" 
d="M725 1298h-358l-355 396h334l201 -172q34 29 100.5 86t100.5 86h333zM520 0h-354v1147h842v-311h-488v-836z" />
    <glyph glyph-name="uni0157.ss01" horiz-adv-x="1040" 
d="M520 0h-354v1147h842v-311h-488v-836zM322 -696h-191l160 252q-55 25 -88 68.5t-33 96.5q0 75 56 125t139 50t137.5 -49t54.5 -121q0 -28 -5.5 -50.5t-26.5 -59.5t-40.5 -66.5t-70 -104.5t-92.5 -141z" />
    <glyph glyph-name="s.ss01" horiz-adv-x="1251" 
d="M1126 0h-1001v311h655v142h-655v694h1001v-311h-655v-142h655v-694z" />
    <glyph glyph-name="sacute.ss01" horiz-adv-x="1251" 
d="M1135 1653l-373 -375h-307l264 375h416zM1126 0h-1001v311h655v142h-655v694h1001v-311h-655v-142h655v-694z" />
    <glyph glyph-name="scaron.ss01" horiz-adv-x="1251" 
d="M811 1298h-358l-355 396h334l201 -172q34 29 100.5 86t100.5 86h333zM1126 0h-1001v311h655v142h-655v694h1001v-311h-655v-142h655v-694z" />
    <glyph glyph-name="scedilla.ss01" horiz-adv-x="1251" 
d="M1126 1147v-311h-655v-142h655v-694h-362l-82 -88q24 4 53 4q108 0 180 -57t72 -154q0 -107 -95.5 -171t-248.5 -64q-113 0 -203 35.5t-145 99.5l113 133q83 -98 225 -98q56 0 89.5 17.5t33.5 51.5q0 33 -33.5 52.5t-85.5 19.5q-62 0 -107 -31l-108 74l139 176h-436v311
h655v142h-655v694h1001z" />
    <glyph glyph-name="uni0219.ss01" horiz-adv-x="1251" 
d="M1126 0h-1001v311h655v142h-655v694h1001v-311h-655v-142h655v-694zM627 -696h-191l160 252q-55 25 -88 68.5t-33 96.5q0 75 56 125t139 50t137.5 -49t54.5 -121q0 -28 -5.5 -50.5t-26.5 -59.5t-40.5 -66.5t-70 -104.5t-92.5 -141z" />
    <glyph glyph-name="t.ss01" horiz-adv-x="1103" 
d="M659 836v-525h377v-311h-731v836h-270v311h270v319h354v-319h369v-311h-369z" />
    <glyph glyph-name="tbar.ss01" horiz-adv-x="1103" 
d="M659 449v-138h377v-311h-731v449h-266v251h266v136h-270v311h270v319h354v-319h369v-311h-369v-136h361v-251h-361z" />
    <glyph glyph-name="tcaron.ss01" horiz-adv-x="1103" 
d="M1341 1694q91 0 156.5 -58.5t65.5 -140.5q0 -63 -41 -130.5t-182 -256.5q-51 -68 -80 -107h-205l200 302q-67 26 -103 76t-36 112q0 83 66.5 143t158.5 60zM1028 836h-369v-525h377v-311h-731v836h-270v311h270v319h354v-319h369v-311z" />
    <glyph glyph-name="uni0163.ss01" horiz-adv-x="1103" 
d="M1036 311v-311h-288l-82 -88q24 4 53 4q108 0 180 -57t72 -154q0 -107 -95.5 -171t-248.5 -64q-113 0 -203 35.5t-145 99.5l112 133q83 -98 225 -98q56 0 89.5 17.5t33.5 51.5q0 33 -33 52.5t-85 19.5q-62 0 -107 -31l-108 74l139 176h-240v836h-270v311h270v319h354
v-319h369v-311h-369v-525h377z" />
    <glyph glyph-name="uni021B.ss01" horiz-adv-x="1103" 
d="M659 836v-525h377v-311h-731v836h-270v311h270v319h354v-319h369v-311h-369zM653 -104q83 0 138 -49t55 -121q0 -28 -5.5 -51t-26.5 -59.5t-41 -66.5t-70 -104.5t-93 -140.5h-190l160 252q-55 25 -88 68.5t-33 96.5q0 75 55.5 125t138.5 50z" />
    <glyph glyph-name="yacute.ss01" horiz-adv-x="1505" 
d="M1284 1653l-373 -375h-307l264 375h416zM815 -451h-369l187 390h-123l-496 1208h381l314 -756h86l321 756h377z" />
    <glyph glyph-name="ycircumflex.ss01" horiz-adv-x="1505" 
d="M582 1278h-334l354 375h359l356 -375h-334l-201 172q-34 -29 -100 -86.5t-100 -85.5zM815 -451h-369l187 390h-123l-496 1208h381l314 -756h86l321 756h377z" />
    <glyph glyph-name="ydieresis.ss01" horiz-adv-x="1505" 
d="M502 1276q-83 0 -141 54t-58 132q0 73 58 125.5t141 52.5q82 0 139 -52.5t57 -125.5q0 -78 -56.5 -132t-139.5 -54zM1065 1276q-84 0 -141.5 54t-57.5 132q0 73 57.5 125.5t141.5 52.5q81 0 139 -53t58 -125q0 -78 -57.5 -132t-139.5 -54zM815 -451h-369l187 390h-123
l-496 1208h381l314 -756h86l321 756h377z" />
    <glyph glyph-name="ygrave.ss01" horiz-adv-x="1505" 
d="M946 1278h-307l-373 375h416zM815 -451h-369l187 390h-123l-496 1208h381l314 -756h86l321 756h377z" />
    <glyph glyph-name="a.ss02" horiz-adv-x="1435" 
d="M545 -35q-91 0 -173 21.5t-148 63.5t-105 110t-39 153q0 51 15 94.5t39 74.5t61 57.5t72.5 43.5t83.5 31.5t84 22.5t83 16q34 6 77.5 13t72 12t63.5 11t57 11.5t47 12.5t39.5 15t27.5 18t18.5 22t5.5 27q0 44 -58.5 76t-152.5 32q-204 0 -262 -160l-332 107q30 89 92 155
t145.5 103t175 54.5t195.5 17.5q260 0 407.5 -109t147.5 -307v-764h-332v123h-6q-54 -74 -160.5 -116t-240.5 -42zM641 225q131 0 209 62t78 135v70q-180 -41 -269 -56q-81 -14 -136.5 -42.5t-55.5 -69.5q0 -99 174 -99z" />
    <glyph glyph-name="aacute.ss02" horiz-adv-x="1435" 
d="M1221 1653l-373 -375h-307l264 375h416zM545 -35q-91 0 -173 21.5t-148 63.5t-105 110t-39 153q0 51 15 94.5t39 74.5t61 57.5t72.5 43.5t83.5 31.5t84 22.5t83 16q34 6 77.5 13t72 12t63.5 11t57 11.5t47 12.5t39.5 15t27.5 18t18.5 22t5.5 27q0 44 -58.5 76t-152.5 32
q-204 0 -262 -160l-332 107q30 89 92 155t145.5 103t175 54.5t195.5 17.5q260 0 407.5 -109t147.5 -307v-764h-332v123h-6q-54 -74 -160.5 -116t-240.5 -42zM641 225q131 0 209 62t78 135v70q-180 -41 -269 -56q-81 -14 -136.5 -42.5t-55.5 -69.5q0 -99 174 -99z" />
    <glyph glyph-name="abreve.ss02" horiz-adv-x="1435" 
d="M713 1264q-207 0 -332 110t-133 285h289q0 -59 49 -107.5t137 -48.5t136 48t50 108h289q-8 -176 -137 -285.5t-348 -109.5zM545 -35q-91 0 -173 21.5t-148 63.5t-105 110t-39 153q0 51 15 94.5t39 74.5t61 57.5t72.5 43.5t83.5 31.5t84 22.5t83 16q34 6 77.5 13t72 12
t63.5 11t57 11.5t47 12.5t39.5 15t27.5 18t18.5 22t5.5 27q0 44 -58.5 76t-152.5 32q-204 0 -262 -160l-332 107q30 89 92 155t145.5 103t175 54.5t195.5 17.5q260 0 407.5 -109t147.5 -307v-764h-332v123h-6q-54 -74 -160.5 -116t-240.5 -42zM641 225q131 0 209 62t78 135
v70q-180 -41 -269 -56q-81 -14 -136.5 -42.5t-55.5 -69.5q0 -99 174 -99z" />
    <glyph glyph-name="acircumflex.ss02" horiz-adv-x="1202" 
d="M532 1278h-333l354 375h358l357 -375h-334l-201 172q-34 -29 -100.5 -86t-100.5 -86zM545 -35q-91 0 -173 21.5t-148 63.5t-105 110t-39 153q0 51 15 94.5t39 74.5t61 57.5t72.5 43.5t83.5 31.5t84 22.5t83 16q34 6 77.5 13t72 12t63.5 11t57 11.5t47 12.5t39.5 15
t27.5 18t18.5 22t5.5 27q0 44 -58.5 76t-152.5 32q-204 0 -262 -160l-332 107q30 89 92 155t145.5 103t175 54.5t195.5 17.5q260 0 407.5 -109t147.5 -307v-764h-332v123h-6q-54 -74 -160.5 -116t-240.5 -42zM641 225q131 0 209 62t78 135v70q-180 -41 -269 -56
q-81 -14 -136.5 -42.5t-55.5 -69.5q0 -99 174 -99z" />
    <glyph glyph-name="adieresis.ss02" horiz-adv-x="1435" 
d="M438 1276q-83 0 -140.5 54t-57.5 132q0 73 57.5 125.5t140.5 52.5q82 0 139.5 -52.5t57.5 -125.5q0 -78 -57 -132t-140 -54zM1001 1276q-84 0 -141 54t-57 132q0 73 57 125.5t141 52.5q81 0 139 -53t58 -125q0 -78 -57.5 -132t-139.5 -54zM545 -35q-91 0 -173 21.5
t-148 63.5t-105 110t-39 153q0 51 15 94.5t39 74.5t61 57.5t72.5 43.5t83.5 31.5t84 22.5t83 16q34 6 77.5 13t72 12t63.5 11t57 11.5t47 12.5t39.5 15t27.5 18t18.5 22t5.5 27q0 44 -58.5 76t-152.5 32q-204 0 -262 -160l-332 107q30 89 92 155t145.5 103t175 54.5
t195.5 17.5q260 0 407.5 -109t147.5 -307v-764h-332v123h-6q-54 -74 -160.5 -116t-240.5 -42zM641 225q131 0 209 62t78 135v70q-180 -41 -269 -56q-81 -14 -136.5 -42.5t-55.5 -69.5q0 -99 174 -99z" />
    <glyph glyph-name="agrave.ss02" horiz-adv-x="1435" 
d="M883 1278h-308l-372 375h415zM545 -35q-91 0 -173 21.5t-148 63.5t-105 110t-39 153q0 51 15 94.5t39 74.5t61 57.5t72.5 43.5t83.5 31.5t84 22.5t83 16q34 6 77.5 13t72 12t63.5 11t57 11.5t47 12.5t39.5 15t27.5 18t18.5 22t5.5 27q0 44 -58.5 76t-152.5 32
q-204 0 -262 -160l-332 107q30 89 92 155t145.5 103t175 54.5t195.5 17.5q260 0 407.5 -109t147.5 -307v-764h-332v123h-6q-54 -74 -160.5 -116t-240.5 -42zM641 225q131 0 209 62t78 135v70q-180 -41 -269 -56q-81 -14 -136.5 -42.5t-55.5 -69.5q0 -99 174 -99z" />
    <glyph glyph-name="amacron.ss02" horiz-adv-x="1202" 
d="M1151 1300h-825v236h825v-236zM545 -35q-91 0 -173 21.5t-148 63.5t-105 110t-39 153q0 51 15 94.5t39 74.5t61 57.5t72.5 43.5t83.5 31.5t84 22.5t83 16q34 6 77.5 13t72 12t63.5 11t57 11.5t47 12.5t39.5 15t27.5 18t18.5 22t5.5 27q0 44 -58.5 76t-152.5 32
q-204 0 -262 -160l-332 107q30 89 92 155t145.5 103t175 54.5t195.5 17.5q260 0 407.5 -109t147.5 -307v-764h-332v123h-6q-54 -74 -160.5 -116t-240.5 -42zM641 225q131 0 209 62t78 135v70q-180 -41 -269 -56q-81 -14 -136.5 -42.5t-55.5 -69.5q0 -99 174 -99z" />
    <glyph glyph-name="aogonek.ss02" horiz-adv-x="1435" 
d="M1284 0h-106q-99 -14 -145 -55.5t-46 -85.5q0 -39 42 -67t114 -28q64 0 114 17v-230q-66 -14 -147 -14q-158 0 -262.5 62t-104.5 180q0 76 57.5 136t151.5 85v123h-6q-54 -74 -160.5 -116t-240.5 -42q-91 0 -173 21.5t-148 63.5t-105 110t-39 153q0 51 15 94.5t39 74.5
t61 57.5t72.5 43.5t83.5 31.5t84 22.5t83 16q34 6 77.5 13t72 12t63.5 11t57 11.5t47 12.5t39.5 15t27.5 18t18.5 22t5.5 27q0 44 -58.5 76t-152.5 32q-204 0 -262 -160l-332 107q30 89 92 155t145.5 103t175 54.5t195.5 17.5q260 0 407.5 -109t147.5 -307v-764zM928 422v70
q-180 -41 -269 -56q-81 -14 -136.5 -42.5t-55.5 -69.5q0 -99 174 -99q131 0 209 62t78 135z" />
    <glyph glyph-name="aring.ss02" horiz-adv-x="1435" 
d="M719 1257q-133 0 -225.5 76.5t-92.5 184.5q0 110 92 185t226 75q132 0 222.5 -74t90.5 -186t-90.5 -186.5t-222.5 -74.5zM719 1440q42 0 72 23.5t30 54.5q0 30 -30 52.5t-72 22.5q-46 0 -76.5 -22.5t-30.5 -52.5q0 -32 30.5 -55t76.5 -23zM545 -35q-91 0 -173 21.5
t-148 63.5t-105 110t-39 153q0 51 15 94.5t39 74.5t61 57.5t72.5 43.5t83.5 31.5t84 22.5t83 16q34 6 77.5 13t72 12t63.5 11t57 11.5t47 12.5t39.5 15t27.5 18t18.5 22t5.5 27q0 44 -58.5 76t-152.5 32q-204 0 -262 -160l-332 107q30 89 92 155t145.5 103t175 54.5
t195.5 17.5q260 0 407.5 -109t147.5 -307v-764h-332v123h-6q-54 -74 -160.5 -116t-240.5 -42zM641 225q131 0 209 62t78 135v70q-180 -41 -269 -56q-81 -14 -136.5 -42.5t-55.5 -69.5q0 -99 174 -99z" />
    <glyph glyph-name="atilde.ss02" horiz-adv-x="1435" 
d="M915 1264q-106 0 -170 36l-69 39q-48 29 -96 29q-41 0 -63.5 -25t-22.5 -61h-252q0 156 90 250t227 94q96 0 184 -45l64 -33q29 -16 78 -16q33 0 51 21.5t18 58.5h254q0 -170 -76 -259t-217 -89zM545 -35q-91 0 -173 21.5t-148 63.5t-105 110t-39 153q0 51 15 94.5
t39 74.5t61 57.5t72.5 43.5t83.5 31.5t84 22.5t83 16q34 6 77.5 13t72 12t63.5 11t57 11.5t47 12.5t39.5 15t27.5 18t18.5 22t5.5 27q0 44 -58.5 76t-152.5 32q-204 0 -262 -160l-332 107q30 89 92 155t145.5 103t175 54.5t195.5 17.5q260 0 407.5 -109t147.5 -307v-764
h-332v123h-6q-54 -74 -160.5 -116t-240.5 -42zM641 225q131 0 209 62t78 135v70q-180 -41 -269 -56q-81 -14 -136.5 -42.5t-55.5 -69.5q0 -99 174 -99z" />
    <glyph glyph-name="h.ss02" horiz-adv-x="1564" 
d="M520 0h-354v1638h354v-833l574 342h305v-1147h-352v731h-15l-512 -268v-463z" />
    <glyph glyph-name="hbar.ss02" horiz-adv-x="1564" 
d="M520 805l574 342h305v-1147h-352v731h-15l-512 -268v-463h-354v1245h-279v252h279v141h354v-141h348v-252h-348v-440z" />
    <glyph glyph-name="t.ss02" horiz-adv-x="1054" 
d="M659 0h-354v836h-270v311h270v319h354v-319h369v-311h-369v-836z" />
    <glyph glyph-name="tbar.ss02" horiz-adv-x="1054" 
d="M1028 1147v-311h-369v-136h359v-251h-359v-449h-354v449h-268v251h268v136h-270v311h270v319h354v-319h369z" />
    <glyph glyph-name="tcaron.ss02" horiz-adv-x="1054" 
d="M1257 1001h-204l200 302q-67 26 -103 76t-36 112q0 83 66.5 143t158.5 60q91 0 156.5 -58.5t65.5 -140.5q0 -16 -2.5 -31t-6 -28.5t-13 -32.5l-17 -34t-25 -41t-31 -45t-40 -55t-46.5 -63t-57.5 -76.5t-65.5 -87.5zM659 0h-354v836h-270v311h270v319h354v-319h369v-311
h-369v-836z" />
    <glyph glyph-name="uni0163.ss02" horiz-adv-x="1054" 
d="M659 836v-836h-81l-82 -88q24 4 53 4q108 0 180 -57t72 -154q0 -107 -95.5 -171t-248.5 -64q-113 0 -203 35.5t-145 99.5l112 133q83 -98 225 -98q56 0 89.5 17.5t33.5 51.5q0 33 -33 52.5t-85 19.5q-62 0 -107 -31l-108 74l139 176h-70v836h-270v311h270v319h354v-319
h369v-311h-369z" />
    <glyph glyph-name="uni021B.ss02" horiz-adv-x="1054" 
d="M659 0h-354v836h-270v311h270v319h354v-319h369v-311h-369v-836zM440 -696h-190l160 252q-55 25 -88 68.5t-33 96.5q0 75 55.5 125t138.5 50t138 -49t55 -121q0 -28 -5.5 -51t-26.5 -59.5t-41 -66.5t-70 -104.5t-93 -140.5z" />
    <glyph glyph-name="a.ss03" horiz-adv-x="1429" 
d="M569 -35q-139 0 -252.5 51t-179 143t-65.5 206q0 120 69 214t186 144.5t259 50.5q106 0 190.5 -27.5t126.5 -80.5h6v190h-673v291h1028v-1147h-332v115h-6q-107 -150 -357 -150zM635 244q92 0 151.5 36.5t59.5 92.5q0 58 -60 96.5t-155 38.5q-87 0 -145 -38.5t-58 -94.5
q0 -57 59.5 -94t147.5 -37z" />
    <glyph glyph-name="aacute.ss03" horiz-adv-x="1429" 
d="M1253 1653l-372 -375h-308l265 375h415zM569 -35q-139 0 -252.5 51t-179 143t-65.5 206q0 120 69 214t186 144.5t259 50.5q106 0 190.5 -27.5t126.5 -80.5h6v190h-673v291h1028v-1147h-332v115h-6q-107 -150 -357 -150zM635 244q92 0 151.5 36.5t59.5 92.5q0 58 -60 96.5
t-155 38.5q-87 0 -145 -38.5t-58 -94.5q0 -57 59.5 -94t147.5 -37z" />
    <glyph glyph-name="abreve.ss03" horiz-adv-x="1429" 
d="M745 1264q-207 0 -331.5 110t-132.5 285h288q0 -59 49.5 -107.5t137.5 -48.5t136 48t50 108h289q-8 -176 -137.5 -285.5t-348.5 -109.5zM569 -35q-139 0 -252.5 51t-179 143t-65.5 206q0 120 69 214t186 144.5t259 50.5q106 0 190.5 -27.5t126.5 -80.5h6v190h-673v291
h1028v-1147h-332v115h-6q-107 -150 -357 -150zM635 244q92 0 151.5 36.5t59.5 92.5q0 58 -60 96.5t-155 38.5q-87 0 -145 -38.5t-58 -94.5q0 -57 59.5 -94t147.5 -37z" />
    <glyph glyph-name="acircumflex.ss03" horiz-adv-x="1429" 
d="M551 1278h-334l354 375h359l356 -375h-334l-200 172q-34 -29 -100.5 -86t-100.5 -86zM569 -35q-139 0 -252.5 51t-179 143t-65.5 206q0 120 69 214t186 144.5t259 50.5q106 0 190.5 -27.5t126.5 -80.5h6v190h-673v291h1028v-1147h-332v115h-6q-107 -150 -357 -150z
M635 244q92 0 151.5 36.5t59.5 92.5q0 58 -60 96.5t-155 38.5q-87 0 -145 -38.5t-58 -94.5q0 -57 59.5 -94t147.5 -37z" />
    </font>
</defs>
</svg>
