<?xml version="1.0" standalone="no"?>
<!DOCTYPE svg PUBLIC "-//W3C//DTD SVG 1.1//EN" "http://www.w3.org/Graphics/SVG/1.1/DTD/svg11.dtd" >
<svg xmlns="http://www.w3.org/2000/svg" xmlns:xlink="http://www.w3.org/1999/xlink" version="1.1">
<metadata>
Created by FontForge 20170731 at Mon Mar 15 14:21:01 2021
 By Aleksey,,,
Copyright (c) 2020 by Matthieu Salvaggio x Blaze Type. All rights reserved.
</metadata>
<defs>
<font id="Area-ExtrablackItalicExtended" horiz-adv-x="2457" >
  <font-face 
    font-family="Area Extrablack Italic Extended"
    font-weight="950"
    font-style="italic"
    font-stretch="normal"
    units-per-em="2048"
    panose-1="0 0 10 0 0 0 0 0 0 0"
    ascent="1638"
    descent="-410"
    x-height="1147"
    cap-height="1597"
    bbox="-1978 -696 3197 2228"
    underline-thickness="102"
    underline-position="-307"
    slope="-10"
    unicode-range="U+0020-25CA"
  />
<missing-glyph horiz-adv-x="1662" 
d="M1364 0h-1266l283 1597h1266zM588 1378l-172 -854l850 854h-678zM1337 1151l-897 -932h717z" />
    <glyph glyph-name=".notdef" horiz-adv-x="1662" 
d="M1364 0h-1266l283 1597h1266zM588 1378l-172 -854l850 854h-678zM1337 1151l-897 -932h717z" />
    <glyph glyph-name=".null" horiz-adv-x="0" 
 />
    <glyph glyph-name="nonmarkingreturn" horiz-adv-x="682" 
 />
    <glyph glyph-name="space" unicode=" " horiz-adv-x="583" 
 />
    <glyph glyph-name="exclam" unicode="!" horiz-adv-x="710" 
d="M440 541h-194l69 845l31 211h381l-33 -211zM254 -14q-82 0 -137.5 51t-55.5 129q0 96 78 165.5t176 69.5q82 0 138.5 -51.5t56.5 -126.5q0 -89 -77.5 -163t-178.5 -74z" />
    <glyph glyph-name="quotedbl" unicode="&#x22;" horiz-adv-x="1142" 
d="M563 1008h-336l97 589h338zM1079 1008h-336l97 589h336z" />
    <glyph glyph-name="numbersign" unicode="#" horiz-adv-x="1964" 
d="M1970 1143l-102 -281h-322l-94 -225h295l-100 -281h-310l-147 -356h-316l148 356h-365l-147 -356h-315l147 356h-285l101 281h299l94 225h-272l104 281h283l188 454h315l-188 -454h365l188 454h315l-188 -454h309zM772 637h365l94 225h-365z" />
    <glyph glyph-name="dollar" unicode="$" horiz-adv-x="1538" 
d="M918 932l131 -43q8 -3 24 -8q38 -12 60 -19.5t62 -25t65 -33.5t56.5 -42.5t49 -55.5t30.5 -69.5t13 -86.5q0 -193 -183 -334t-462 -158l-25 -139h-157l24 141q-216 20 -349.5 129t-156.5 281l346 96q19 -78 77 -124t141 -62l45 264l-68 19q-35 10 -62.5 18.5t-70 25.5
t-75 35t-69 46.5t-60 59.5t-39 74t-15.5 91q0 86 45.5 170.5t124.5 152t194 113t246 55.5l25 135h157l-24 -137q192 -22 312.5 -117t133.5 -206l-323 -136q-17 54 -63 91.5t-115 52.5zM629 1085q0 -36 33 -58t106 -48l39 215q-81 -9 -129.5 -38t-48.5 -71zM860 602l-41 -227
q85 11 139 45t54 78q0 37 -37.5 59t-114.5 45z" />
    <glyph glyph-name="percent" unicode="%" horiz-adv-x="2373" 
d="M471 688q-152 0 -236.5 93t-84.5 259q0 139 62 257.5t172.5 188.5t244.5 70q151 0 236 -93t85 -259q0 -138 -62 -256.5t-172.5 -189t-244.5 -70.5zM559 0h-330l1624 1468h322zM508 942q57 0 101 94.5t44 182.5q0 86 -63 86q-37 0 -71 -45.5t-53.5 -109.5t-19.5 -122
q0 -45 15 -65.5t47 -20.5zM1808 -29q-152 0 -236.5 93.5t-84.5 259.5q0 139 62 257.5t172.5 188.5t244.5 70q151 0 236.5 -93.5t85.5 -259.5q0 -138 -62 -256.5t-173 -189t-245 -70.5zM1845 225q57 0 101.5 94.5t44.5 182.5q0 86 -64 86q-37 0 -71 -45.5t-53 -109.5
t-19 -122q0 -46 14.5 -66t46.5 -20z" />
    <glyph glyph-name="ampersand" unicode="&#x26;" horiz-adv-x="1804" 
d="M594 -35q-245 0 -395 103t-150 272q0 259 430 483q-145 155 -145 299q0 132 83 248.5t229.5 188t318.5 71.5q219 0 349 -108t130 -271q0 -283 -453 -465l209 -170q88 118 143 224l328 -64q-117 -236 -256 -405l363 -369h-471l-144 115q-254 -152 -569 -152zM819 983
q54 22 93.5 42t78 48t58.5 62t20 73q0 52 -44 84.5t-112 32.5q-85 0 -143.5 -49t-58.5 -119q0 -75 108 -174zM670 281q161 0 295 61l-312 276q-229 -101 -229 -198q0 -61 69 -100t177 -39z" />
    <glyph glyph-name="quotesingle" unicode="'" horiz-adv-x="628" 
d="M563 1008h-336l97 589h338z" />
    <glyph glyph-name="parenleft" unicode="(" horiz-adv-x="882" 
d="M727 -307h-369q-128 153 -196 341.5t-68 391.5q0 315 159.5 625t440.5 546h369q-279 -238 -439.5 -546t-160.5 -619q0 -200 68.5 -392t195.5 -347z" />
    <glyph glyph-name="parenright" unicode=")" horiz-adv-x="880" 
d="M215 -307h-369q284 244 442 551.5t158 613.5q0 201 -67.5 391t-196.5 348h369q131 -155 197.5 -343.5t66.5 -389.5q0 -309 -157.5 -621t-442.5 -550z" />
    <glyph glyph-name="asterisk" unicode="*" horiz-adv-x="940" 
d="M635 1026h-174l35 160l-189 -86l-65 135l213 78l-183 73l107 138l158 -82l24 155h174l-33 -155l189 82l63 -135l-209 -76l181 -78l-109 -135l-155 86z" />
    <glyph glyph-name="plus" unicode="+" horiz-adv-x="1292" 
d="M827 752h355l-39 -256h-359l-55 -320h-291l56 320h-363l39 256h367l55 321h291z" />
    <glyph glyph-name="comma" unicode="," horiz-adv-x="643" 
d="M109 -291h-197l244 301q-113 46 -113 156q0 92 78.5 163.5t181.5 71.5q82 0 136.5 -50.5t54.5 -125.5q0 -70 -65 -155t-295 -334q-17 -18 -25 -27z" />
    <glyph glyph-name="hyphen" unicode="-" horiz-adv-x="1095" 
d="M940 479h-809l43 289h809z" />
    <glyph glyph-name="period" unicode="." horiz-adv-x="647" 
d="M238 -14q-83 0 -138 51.5t-55 128.5q0 94 77.5 164.5t178.5 70.5q82 0 136.5 -50.5t54.5 -125.5q0 -92 -77 -165.5t-177 -73.5z" />
    <glyph glyph-name="slash" unicode="/" horiz-adv-x="1146" 
d="M281 -135h-332l981 1773h334z" />
    <glyph glyph-name="zero" unicode="0" horiz-adv-x="1716" 
d="M748 -35q-287 0 -451 174.5t-164 481.5q0 150 42 297.5t123 275t191 225.5t255.5 154.5t306.5 56.5q286 0 449 -175t163 -482q0 -149 -41 -295.5t-121.5 -274.5t-190 -226.5t-255 -155t-307.5 -56.5zM793 303q134 0 244 97.5t168.5 247t58.5 310.5q0 334 -258 334
q-133 0 -244 -96.5t-171.5 -245.5t-60.5 -311q0 -166 66.5 -251t196.5 -85z" />
    <glyph glyph-name="one" unicode="1" horiz-adv-x="1013" 
d="M709 0h-375l194 1034q-81 -57 -192 -106t-215 -70l55 381q177 49 302 150t145 208h368z" />
    <glyph glyph-name="two" unicode="2" horiz-adv-x="1564" 
d="M1329 0h-1296l6 45q29 140 80 245t144.5 198t213 171t307.5 175q23 12 69 35.5t67.5 35t60 32.5t57 33.5t46.5 32t41.5 34.5t28.5 34t20.5 38.5t5.5 39.5q0 71 -67 112.5t-183 41.5q-168 0 -278 -89t-140 -239l-344 55q29 173 145 310.5t293.5 213.5t384.5 76
q263 0 423.5 -118.5t160.5 -313.5q0 -84 -35 -163t-84.5 -134.5t-114 -105t-112.5 -76t-92 -45.5q-43 -18 -120 -49.5t-119 -49t-102.5 -47t-98 -55t-75.5 -61.5t-63 -76h819z" />
    <glyph glyph-name="three" unicode="3" horiz-adv-x="1609" 
d="M686 -35q-172 0 -317 44.5t-239 128.5t-114 192l353 159q7 -16 17 -33t38.5 -47t65 -52t100 -39t139.5 -17q161 0 261 55t100 144q0 75 -73.5 117t-205.5 42h-195l46 293h169q142 0 236 55.5t94 137.5q0 71 -72.5 112t-183.5 41q-129 0 -228 -60.5t-138 -168.5l-332 76
q31 96 102.5 183t171.5 154.5t232 107.5t274 40q158 0 288 -45t209 -134t79 -206q0 -143 -106 -256t-261 -139l-2 -2q134 -25 216.5 -104.5t82.5 -211.5q0 -109 -60 -211.5t-164.5 -181t-257 -126.5t-325.5 -48z" />
    <glyph glyph-name="four" unicode="4" horiz-adv-x="1667" 
d="M1229 0h-363l58 317h-916l45 289l1102 991h354l-176 -979h252l-43 -301h-254zM1073 1112l-637 -494h533z" />
    <glyph glyph-name="five" unicode="5" horiz-adv-x="1619" 
d="M678 -35q-252 0 -439 102.5t-233 280.5l330 191q23 -88 85.5 -146t138.5 -81t165 -23q174 0 294 84t120 202q0 95 -81.5 150t-217.5 55q-221 0 -357 -162l-299 74l389 905h1026l-49 -315h-751l-168 -295h4q129 82 348 82q50 0 100 -5.5t106 -19.5t105.5 -35t95 -55
t78.5 -77.5t52.5 -104t19.5 -131.5q0 -128 -65.5 -250.5t-177.5 -216.5t-274.5 -151.5t-344.5 -57.5z" />
    <glyph glyph-name="six" unicode="6" horiz-adv-x="1677" 
d="M756 -35q-309 0 -474 153t-165 439q0 131 37.5 262.5t105.5 250t169 221.5t220.5 178t267.5 118t304 43q143 0 274.5 -41t214.5 -131l-240 -260q-121 105 -323 105q-86 0 -168.5 -24t-147 -63t-118 -89.5t-88 -103t-50.5 -103.5h5q160 129 446 129q153 0 278.5 -51
t203 -154t77.5 -242q0 -122 -61.5 -237t-168.5 -203.5t-264 -142.5t-335 -54zM813 289q148 0 260.5 76t112.5 182q0 92 -81.5 145t-199.5 53q-149 0 -264 -81.5t-115 -184.5q0 -88 83.5 -139t203.5 -51z" />
    <glyph glyph-name="seven" unicode="7" horiz-adv-x="1435" 
d="M629 0h-400q22 112 61 226t108 249t161 266.5t226.5 276t297.5 278.5h-909l45 301h1352l-45 -303q-170 -111 -311 -245.5t-237 -264.5t-169.5 -272.5t-114.5 -265t-65 -246.5z" />
    <glyph glyph-name="eight" unicode="8" horiz-adv-x="1648" 
d="M719 -35q-287 0 -466 121t-179 305q0 151 119.5 280.5t295.5 166.5l3 4q-96 35 -149.5 105t-53.5 169q0 101 56 195.5t151.5 164.5t230.5 112t285 42q251 0 409 -109.5t158 -291.5q0 -132 -90 -239.5t-236 -147.5l-2 -4q121 -26 202 -114t81 -216q0 -106 -62.5 -205.5
t-169.5 -174t-259.5 -119t-323.5 -44.5zM895 987q125 0 213 58t88 133q0 63 -64 103t-163 40q-122 0 -211.5 -58t-89.5 -135q0 -62 65 -101.5t162 -39.5zM762 283q159 0 274 75.5t115 178.5q0 84 -80 134t-213 50q-166 0 -276.5 -75t-110.5 -177q0 -89 83.5 -137.5
t207.5 -48.5z" />
    <glyph glyph-name="nine" unicode="9" horiz-adv-x="1689" 
d="M616 -35q-183 0 -336 56t-227 139l234 254q66 -69 160 -102t198 -33q113 0 213 35.5t171 94.5t118 132t65 151h-4q-70 -61 -198.5 -104t-276.5 -43q-149 0 -274 50.5t-205 154.5t-80 243q0 119 62.5 234t171 204.5t267 144t337.5 54.5q135 0 246.5 -34t200.5 -105
t138.5 -192t49.5 -283q0 -154 -46 -306t-136.5 -285.5t-213 -236.5t-287.5 -163t-348 -60zM854 846q99 0 187.5 37.5t141 99t52.5 129.5q0 90 -83 142.5t-200 52.5q-153 0 -266 -80t-113 -185q0 -92 82.5 -144t198.5 -52z" />
    <glyph glyph-name="colon" unicode=":" horiz-adv-x="722" 
d="M401 743q-83 0 -137.5 52t-54.5 129q0 93 78 164t180 71q80 0 135 -50.5t55 -125.5q0 -92 -78 -166t-178 -74zM260 -12q-83 0 -137.5 51.5t-54.5 128.5q0 94 77.5 164.5t178.5 70.5q82 0 136 -50.5t54 -125.5q0 -92 -77 -165.5t-177 -73.5z" />
    <glyph glyph-name="semicolon" unicode=";" horiz-adv-x="741" 
d="M414 743q-83 0 -138 52t-55 129q0 93 78 164t178 71q80 0 136.5 -51t56.5 -125q0 -91 -78 -165.5t-178 -74.5zM131 -311h-205l246 321q-43 22 -69.5 64.5t-26.5 91.5q0 93 78 164t178 71q82 0 137 -50t55 -126q0 -68 -67.5 -158.5t-325.5 -377.5z" />
    <glyph glyph-name="less" unicode="&#x3c;" horiz-adv-x="1255" 
d="M1071 442l-35 -241l-915 225l53 365l997 225l-38 -242l-752 -166z" />
    <glyph glyph-name="equal" unicode="=" horiz-adv-x="1339" 
d="M1212 700h-1034l41 256h1032zM1135 242h-1035l39 256h1032z" />
    <glyph glyph-name="greater" unicode="&#x3e;" horiz-adv-x="1253" 
d="M1094 426l-996 -225l37 241l754 166l-694 166l36 242l918 -225z" />
    <glyph glyph-name="question" unicode="?" horiz-adv-x="1503" 
d="M870 485h-389v25q0 142 79 235.5t286 180.5l30 12t34.5 14.5t34.5 15.5t36.5 18t33 19.5t32.5 22.5t26 25t22.5 28.5t13 30.5t5.5 35q0 66 -68 106.5t-176 40.5q-140 0 -242 -77t-124 -193q-2 -4 -4 -23l-332 58q2 6 2 16q29 171 146 299.5t281.5 192t350.5 63.5
q117 0 220.5 -27t183 -77.5t126 -129.5t46.5 -177q0 -53 -15.5 -102.5t-38 -87t-59 -74.5t-66.5 -61t-73 -50t-66.5 -38.5t-58.5 -29.5q-146 -72 -183 -96q-96 -70 -100 -145q0 -20 6 -50zM600 -14q-83 0 -138.5 52t-55.5 128q0 92 76.5 163.5t176.5 71.5q82 0 137.5 -51
t55.5 -127q0 -93 -76.5 -165t-175.5 -72z" />
    <glyph glyph-name="at" unicode="@" horiz-adv-x="2330" 
d="M1018 -195q-229 0 -407.5 52t-291.5 146t-171 220.5t-58 278.5q0 140 51 280.5t141.5 264.5t220.5 231.5t283 185t335 122t370 44.5q256 0 447.5 -81t295 -231.5t103.5 -352.5q0 -135 -49.5 -264.5t-135 -229.5t-209 -161.5t-262.5 -61.5q-137 0 -206.5 54.5t-67.5 135.5
q-177 -194 -467 -194q-175 0 -268.5 83t-93.5 222q0 111 62 227t160 206.5t230 148t262 57.5q114 0 186.5 -39.5t86.5 -104.5l55 117h250l-197 -504q-44 -113 -31 -164q16 -57 93 -57q94 0 175.5 77.5t127 196t45.5 240.5q0 232 -157.5 352.5t-463.5 120.5
q-163 0 -314.5 -36.5t-272.5 -100.5t-222 -151t-168 -188t-104 -212t-37 -221q0 -506 717 -506q372 0 649 144l90 -166q-294 -181 -782 -181zM1069 492q74 0 146.5 29t124.5 73.5t84 99t32 103.5q0 66 -49 103.5t-131 37.5q-96 0 -187.5 -48.5t-145.5 -120.5t-54 -140
q0 -65 47 -101t133 -36z" />
    <glyph glyph-name="A" unicode="A" horiz-adv-x="1888" 
d="M291 0h-391l1007 1597h441l442 -1597h-399q-20 61 -58 183t-57 182h-744q-23 -34 -107.5 -163t-133.5 -202zM764 719h407q-61 211 -122 438h-7q-199 -318 -278 -438z" />
    <glyph glyph-name="B" unicode="B" horiz-adv-x="1753" 
d="M899 0h-801l283 1597h809q243 0 379.5 -92t136.5 -256q0 -142 -106 -264.5t-269 -161.5v-4q71 -14 123 -35t97.5 -57t69.5 -93t24 -134q0 -144 -93.5 -258t-264 -178t-388.5 -64zM639 965h313q158 0 251 41t93 124q0 43 -22.5 70.5t-65 40.5t-84.5 17t-100 4h-317
q-7 -34 -17 -95t-21.5 -108.5t-29.5 -93.5zM524 336h346q177 0 276 47.5t99 128.5q0 37 -19 63.5t-46.5 40.5t-70.5 22.5t-78.5 10.5t-82.5 2h-354q-11 -53 -36.5 -166.5t-33.5 -148.5z" />
    <glyph glyph-name="C" unicode="C" horiz-adv-x="2035" 
d="M981 -35q-393 0 -626.5 191.5t-233.5 515.5q0 152 55.5 296t159.5 263t241.5 209t312 140t361.5 50q312 0 525 -141.5t274 -372.5l-369 -135q-22 63 -61 116t-96.5 97t-140.5 69t-183 25q-118 0 -225.5 -33t-190 -90t-143.5 -131t-93 -159.5t-32 -172.5
q0 -88 30.5 -157.5t80.5 -113t118.5 -72.5t139.5 -40.5t149 -11.5q217 0 383.5 93.5t261.5 256.5l332 -114q-82 -155 -196 -268.5t-248.5 -180t-279.5 -98t-306 -31.5z" />
    <glyph glyph-name="D" unicode="D" horiz-adv-x="1949" 
d="M864 0h-766l283 1597h743q393 0 589 -170t196 -475q0 -147 -47 -287.5t-138 -260.5t-216 -210.5t-291.5 -142t-352.5 -51.5zM524 336h344q291 0 467 155t176 394q0 69 -11.5 124t-37.5 93.5t-52.5 66.5t-72 45t-79 27.5t-91 14.5t-91.5 5t-95 1h-274q-14 -71 -28 -128
t-25 -102.5t-43.5 -219.5t-86.5 -476z" />
    <glyph glyph-name="E" unicode="E" horiz-adv-x="1589" 
d="M1378 0h-1280l283 1597h1255l-49 -335h-880q-5 -25 -11.5 -42t-11.5 -29.5t-15.5 -64t-25.5 -141.5h832l-54 -354h-831l-10.5 -45t-6 -28.5t-15.5 -71t-34 -150.5h903z" />
    <glyph glyph-name="F" unicode="F" horiz-adv-x="1519" 
d="M1616 1597l-49 -335h-862l-60 -318h803l-51 -354h-817l-105 -590h-377l283 1597h1235z" />
    <glyph glyph-name="G" unicode="G" horiz-adv-x="2129" 
d="M930 -35q-370 0 -590.5 190t-220.5 507q0 190 87 367.5t236 309.5t360.5 211.5t446.5 79.5q314 0 528.5 -144.5t272.5 -369.5l-369 -135q-52 138 -170 222.5t-307 84.5q-148 0 -278.5 -50.5t-219.5 -132.5t-140.5 -187.5t-51.5 -215.5q0 -92 34 -163.5t86.5 -114
t125.5 -70t142.5 -37.5t144.5 -10q198 0 353 63.5t216 180.5h-498l43 295h875l-148 -846h-286q2 14 6 51.5t16 147.5h-12q-258 -234 -682 -234z" />
    <glyph glyph-name="H" unicode="H" horiz-adv-x="1992" 
d="M1487 963l112 634h377l-282 -1597h-377l108 608h-841l-109 -608h-377l283 1597h377l-113 -634h842z" />
    <glyph glyph-name="I" unicode="I" horiz-adv-x="774" 
d="M475 0h-377l283 1597h377z" />
    <glyph glyph-name="J" unicode="J" horiz-adv-x="1540" 
d="M627 -35q-148 0 -269.5 38t-203.5 108.5t-117.5 178t-13.5 238.5l10 60l381 49l-13 -55q-26 -114 43 -194.5t213 -80.5q282 0 330 277l180 1013h375l-170 -962q-7 -43 -13 -70.5t-21.5 -85t-33 -98t-49.5 -98t-69.5 -98.5t-93.5 -85t-121.5 -71.5t-154 -45.5t-189.5 -18z
" />
    <glyph glyph-name="K" unicode="K" horiz-adv-x="1763" 
d="M473 0h-377l283 1597h377q-59 -340 -117 -661h10q551 438 854 661h443q-758 -606 -865 -692l617 -905h-457q-237 322 -461 649q-37 -33 -225 -188q-65 -371 -82 -461z" />
    <glyph glyph-name="L" unicode="L" horiz-adv-x="1433" 
d="M758 1597l-223 -1261h823l-49 -336h-1211l283 1597h377z" />
    <glyph glyph-name="M" unicode="M" horiz-adv-x="2502" 
d="M481 0h-383l283 1597h469q47 -125 124.5 -323t140 -364.5t118.5 -331.5h4q46 62 225 307t301.5 402.5t253.5 309.5h469l-282 -1597h-383q22 106 46.5 202.5t53 243.5t82.5 478h-8q-330 -470 -709 -924h-272q-76 178 -119.5 285t-108.5 286.5t-116 352.5h-6
q-23 -118 -53.5 -308t-59.5 -336t-70 -280z" />
    <glyph glyph-name="N" unicode="N" horiz-adv-x="2000" 
d="M475 0h-377l283 1597h391q309 -430 643 -950h6q14 70 72 342.5t117 607.5h375l-283 -1597h-389q-74 106 -204.5 289t-239.5 338.5t-203 300.5h-7q-19 -106 -35.5 -166.5t-28 -94.5t-42 -199t-78.5 -468z" />
    <glyph glyph-name="O" unicode="O" horiz-adv-x="2123" 
d="M956 -35q-245 0 -435 87t-296 247t-106 367q0 186 89 362t239 308.5t360.5 213t439.5 80.5q246 0 437.5 -88.5t297 -248.5t105.5 -367q0 -186 -90 -362t-241 -307.5t-361.5 -211.5t-438.5 -80zM1008 307q138 0 264.5 48.5t216.5 128t143.5 184.5t53.5 215q0 181 -134 293
t-350 112q-138 0 -265.5 -49t-218.5 -129t-145.5 -185.5t-54.5 -215.5q0 -180 135.5 -291t354.5 -111z" />
    <glyph glyph-name="P" unicode="P" horiz-adv-x="1662" 
d="M381 1597h743q25 0 44 -0.5t65 -4.5t83 -11t88 -22t91 -36t82 -54.5t69.5 -75t45.5 -100t18 -128.5q0 -96 -33.5 -188t-99 -171t-156 -139.5t-213 -95t-260.5 -34.5h-379l-94 -537h-377zM633 891h291q79 0 145 11t122 34t88 65t32 99q0 34 -10.5 60t-25.5 43t-42 29
t-48.5 17.5t-58.5 8.5t-57.5 3.5t-58.5 0.5h-310z" />
    <glyph glyph-name="Q" unicode="Q" horiz-adv-x="2162" 
d="M1909 -27l-303 -219l-228 262q-196 -51 -403 -51q-189 0 -349 51t-272 142t-174.5 222.5t-62.5 287.5q0 151 57.5 295.5t163.5 264t246.5 210.5t317 141.5t364.5 50.5q251 0 446.5 -87t303.5 -245t108 -362q0 -203 -110 -400t-306 -335q34 -37 201 -228zM1026 307
q92 0 135 2q-24 24 -52.5 50.5t-64.5 59t-55 50.5l305 217q23 -24 65 -67.5t77 -79.5t67 -68q107 79 168.5 192.5t61.5 229.5q0 176 -138 285.5t-376 109.5q-152 0 -287 -49t-227 -129t-145.5 -185t-53.5 -216q0 -186 140 -294t380 -108z" />
    <glyph glyph-name="R" unicode="R" horiz-adv-x="1726" 
d="M475 0h-377l283 1597h743q30 0 50.5 -0.5t68 -4.5t84 -11.5t87 -23t88.5 -37t79 -56t67 -77.5t43 -103.5t17 -132.5q0 -201 -144.5 -358t-377.5 -213v-2q33 -50 63 -86t51 -62.5t85.5 -132.5t170.5 -297h-423l-351 547h-207q-12 -57 -17 -84t-9 -51.5t-23 -132.5
t-51 -279zM623 868h299q175 0 281 63t106 161q0 176 -299 176h-303q-43 -214 -84 -400z" />
    <glyph glyph-name="S" unicode="S" horiz-adv-x="1607" 
d="M717 -35q-281 0 -464.5 129t-211.5 346l367 115q10 -63 35.5 -110t59 -75.5t78.5 -45.5t88 -23t95 -6q148 0 247 48.5t99 119.5q0 25 -11.5 47t-35 39t-47.5 30t-61 25.5t-63 19.5t-65 17l-163 41q-41 10 -75.5 20.5t-81.5 29.5t-83.5 40t-75 52.5t-64 67.5t-41.5 85
t-16 104q0 104 56 203.5t152.5 176t238.5 123t303 46.5q109 0 205 -21.5t164.5 -58t120.5 -84t80 -99.5t36 -105l-364 -136q-55 177 -295 177q-123 0 -209 -42.5t-86 -103.5q0 -32 24.5 -59.5t72.5 -49t90.5 -36t105.5 -31.5l194 -53q42 -11 68.5 -19t73.5 -26.5t78 -36.5
t69 -48t61 -63.5t38.5 -81t15.5 -102.5q0 -87 -36.5 -172.5t-107 -159.5t-166.5 -131t-224 -90t-269 -33z" />
    <glyph glyph-name="T" unicode="T" horiz-adv-x="1572" 
d="M872 0h-374q24 137 35.5 197.5t22 117.5t57 306.5t118.5 640.5h-571l49 335h1517l-49 -335h-571q-30 -161 -54.5 -312.5t-62 -354.5t-117.5 -595z" />
    <glyph glyph-name="U" unicode="U" horiz-adv-x="1828" 
d="M805 -35q-131 0 -236 25.5t-172.5 67t-115.5 100t-71 119t-32 129t-6 125.5t14 114l176 952h375l-170 -921q-8 -42 -9 -85.5t13 -96.5t44.5 -92.5t93 -67t151.5 -27.5t162.5 29t117.5 69.5t76.5 95.5t46.5 95.5t21 79.5l172 921h375l-174 -952q-11 -59 -26.5 -114
t-47.5 -125.5t-73.5 -129.5t-108.5 -118.5t-148.5 -100.5t-197 -66.5t-250.5 -25.5z" />
    <glyph glyph-name="V" unicode="V" horiz-adv-x="1888" 
d="M1065 0h-444l-441 1597h395q23 -52 86.5 -273t142 -503.5t105.5 -374.5h4q79 107 248.5 378t314 497t197.5 276h398z" />
    <glyph glyph-name="W" unicode="W" horiz-adv-x="2844" 
d="M932 0h-473l-260 1597h430q96 -629 145 -1081h6l611 1081h428l202 -1081h4q391 767 558 1081h430l-826 -1597h-469q-122 583 -194 1014h-4q-9 -17 -71.5 -128.5t-83.5 -149t-78 -138.5t-90.5 -158t-83.5 -142.5t-94 -157.5t-87 -140z" />
    <glyph glyph-name="X" unicode="X" horiz-adv-x="1689" 
d="M354 -2h-454q121 126 365.5 390t379.5 403l2 6q-58 97 -210.5 373.5t-248.5 426.5h443q33 -52 69 -125t62 -128.5t70 -124.5t98 -127h4q80 77 240.5 246.5t257.5 258.5h442q-83 -84 -182 -198.5t-171.5 -202.5t-179 -198t-215.5 -201l-2 -6q84 -139 233.5 -403
t225.5 -390h-455q-50 83 -142 247t-142 247h-6q-83 -83 -242 -247t-242 -247z" />
    <glyph glyph-name="Y" unicode="Y" horiz-adv-x="1722" 
d="M948 0h-375q8 42 36 211.5t61 323.5q-43 92 -81.5 156.5t-65 111t-111.5 243t-226 551.5h404l319 -700h4q62 72 134 173.5t123.5 178t137.5 172.5t187 176h403q-143 -176 -426 -529t-425 -529q-94 -527 -99 -539z" />
    <glyph glyph-name="Z" unicode="Z" horiz-adv-x="1660" 
d="M1473 0h-1489l51 336q147 118 313 249.5t276 217.5t304.5 238t283.5 221v4q-161 -1 -483 -2t-483 -2l51 335h1440l-54 -342q-220 -171 -625 -482t-562 -433v-4h1028z" />
    <glyph glyph-name="bracketleft" unicode="[" horiz-adv-x="1013" 
d="M768 -469h-745l358 2066h745l-47 -309h-393l-260 -1407h393z" />
    <glyph glyph-name="backslash" unicode="\" horiz-adv-x="1122" 
d="M938 -135h-334l-354 1773h332z" />
    <glyph glyph-name="bracketright" unicode="]" horiz-adv-x="1015" 
d="M639 -469h-745l51 350h393l260 1407h-393l47 309h745z" />
    <glyph glyph-name="asciicircum" unicode="^" horiz-adv-x="1157" 
d="M426 973h-258l444 624h310l219 -624h-258l-146 430h-6z" />
    <glyph glyph-name="underscore" unicode="_" horiz-adv-x="1331" 
d="M1098 -258h-1145l39 268h1147z" />
    <glyph glyph-name="a" unicode="a" horiz-adv-x="1439" 
d="M436 -35q-185 0 -297 80.5t-112 224.5q0 73 28 131.5t71 97t112.5 69.5t134 49t153.5 36q41 9 94.5 18t92 15.5t81 14.5t71.5 17.5t53.5 21.5t36.5 29t12 38q0 44 -48.5 70t-134.5 26q-212 0 -299 -160l-315 107q47 89 120 154.5t162.5 103t184.5 55t199 17.5
q259 0 388.5 -109t94.5 -307l-72 -406q-22 -126 -26 -207.5t6 -150.5h-353q-13 54 0 119h-4q-68 -72 -185.5 -113t-248.5 -41zM578 225q126 0 215.5 58t109.5 139l17 67l-279 -53q-105 -21 -163 -58t-58 -77q0 -34 42 -55t116 -21z" />
    <glyph glyph-name="b" unicode="b" horiz-adv-x="1628" 
d="M827 -35q-138 0 -236 46t-145 112h-6l-26 -123h-351l289 1638h355l-117 -634q193 176 477 176q230 0 363 -133t133 -353q0 -189 -98 -357t-268.5 -270t-369.5 -102zM791 293q166 0 283.5 96.5t117.5 228.5q0 106 -77 170t-204 64q-167 0 -287 -98.5t-120 -231.5
q0 -103 78.5 -166t208.5 -63z" />
    <glyph glyph-name="c" unicode="c" horiz-adv-x="1492" 
d="M686 -35q-284 0 -451 137.5t-167 372.5q0 109 39 214t112.5 193t172.5 155t227 105t268 38q222 0 381 -100.5t202 -268.5l-352 -131q-22 91 -95.5 131.5t-176.5 40.5q-169 0 -288.5 -97t-119.5 -229q0 -110 83 -171.5t216 -61.5q112 0 209 42t158 130l313 -131
q-103 -169 -300 -269t-431 -100z" />
    <glyph glyph-name="d" unicode="d" horiz-adv-x="1636" 
d="M594 -35q-243 0 -383.5 132.5t-140.5 361.5q0 187 95.5 352.5t266 267t373.5 101.5q138 0 234.5 -45t144.5 -111h4l115 614h354l-225 -1280q-24 -128 -26.5 -215t7.5 -143h-352q-8 92 2 115h-6q-85 -78 -207.5 -114t-255.5 -36zM723 295q165 0 286 98t121 232
q0 103 -78.5 166t-207.5 63q-166 0 -284 -96.5t-118 -229.5q0 -106 76.5 -169.5t204.5 -63.5z" />
    <glyph glyph-name="e" unicode="e" horiz-adv-x="1511" 
d="M684 -35q-280 0 -448 138.5t-168 369.5q0 134 61.5 262t167 226.5t257 158.5t320.5 60q131 0 243 -41t191.5 -117.5t113.5 -197.5t8 -269l-15 -82h-997q1 -68 44 -114.5t111 -66.5t156 -20q104 0 195 35.5t147 108.5l315 -131q-97 -134 -284.5 -227t-417.5 -93zM471 698
h623q3 95 -72 143t-195 48q-122 0 -216 -52.5t-140 -138.5z" />
    <glyph glyph-name="f" unicode="f" horiz-adv-x="960" 
d="M520 0h-354l156 836h-205l47 311h203l18 100q18 97 57.5 172t91.5 122.5t119.5 77.5t136 42t146.5 12q131 0 217 -24l-41 -283q-81 16 -141 16q-42 0 -76.5 -7.5t-57 -17t-41 -28t-28 -30.5t-18 -36t-10.5 -32.5t-7 -30.5l-12 -53h313l-47 -311h-311z" />
    <glyph glyph-name="g" unicode="g" horiz-adv-x="1632" 
d="M594 -483q-504 0 -594 325l338 113q31 -81 102 -115.5t187 -34.5q67 0 125 16t99 45t71.5 59t53.5 69.5t35 65t24 55.5q2 5 3 8l9 20h-7q-145 -135 -430 -135q-249 0 -392.5 127t-143.5 348q0 134 57 261.5t153.5 223t233 154t285.5 58.5q141 0 239 -45t148 -111h4
l27 123h348l-180 -1041q-17 -97 -51 -178.5t-79.5 -141t-104.5 -106.5t-123 -77t-138 -50t-147 -28t-152 -8zM733 336q161 0 280.5 91.5t119.5 209.5q0 97 -81 157t-210 60q-162 0 -277.5 -91.5t-115.5 -209.5q0 -97 78.5 -157t205.5 -60z" />
    <glyph glyph-name="h" unicode="h" horiz-adv-x="1568" 
d="M418 0h-355l289 1638h355l-117 -641h6q92 93 209.5 138t245.5 45q95 0 174.5 -29.5t136.5 -84.5t80 -143.5t4 -197.5l-127 -725h-354l108 573q6 33 6.5 67t-9 73.5t-31 69t-64.5 49.5t-103 20q-301 0 -352 -279z" />
    <glyph glyph-name="i" unicode="i" horiz-adv-x="681" 
d="M469 1257q-81 0 -134.5 50t-53.5 125q0 91 75 159t176 68q82 0 134.5 -48t52.5 -122q0 -91 -75.5 -161.5t-174.5 -70.5zM418 0h-355l203 1147h355z" />
    <glyph glyph-name="j" unicode="j" horiz-adv-x="681" 
d="M473 1257q-83 0 -136.5 50t-53.5 125q0 90 75 158.5t177 68.5q82 0 135 -48t53 -122q0 -90 -75 -161t-175 -71zM-121 -483q-133 0 -270 39l43 290q126 -24 194 -24q51 0 89 9t59 21.5t35 33.5t19 37.5t9 41.5l207 1182h357l-205 -1161q-26 -148 -56 -216
q-83 -191 -309 -237q-77 -16 -172 -16z" />
    <glyph glyph-name="k" unicode="k" horiz-adv-x="1415" 
d="M1079 1147h422l-588 -479l447 -668h-418l-301 442l-162 -131l-59 -311h-357l289 1638h357l-164 -886h6q101 81 267 201t261 194z" />
    <glyph glyph-name="l" unicode="l" horiz-adv-x="681" 
d="M418 0h-355l289 1638h355z" />
    <glyph glyph-name="m" unicode="m" horiz-adv-x="2420" 
d="M418 0h-355l203 1147h348l-28 -150h4q84 84 206.5 133.5t243.5 49.5q126 0 228.5 -50t140.5 -135h6q213 185 479 185q92 0 173 -31t139.5 -87.5t84 -144t7.5 -192.5l-127 -725h-354l106 573q7 37 8 71.5t-7.5 73.5t-28.5 67.5t-60 47.5t-96 19q-291 0 -342 -279
l-103 -573h-354l111 575q7 35 7.5 70t-9 73t-30 67t-60.5 48t-95 19q-293 0 -344 -279z" />
    <glyph glyph-name="n" unicode="n" horiz-adv-x="1568" 
d="M418 0h-355l203 1147h348l-28 -150h4q87 86 208 134.5t253 48.5q96 0 175.5 -29.5t136 -84.5t79.5 -143.5t4 -197.5l-127 -725h-354l108 573q6 33 6.5 67t-9 73.5t-31 69t-64.5 49.5t-103 20q-301 0 -352 -279z" />
    <glyph glyph-name="o" unicode="o" horiz-adv-x="1574" 
d="M680 -35q-281 0 -446.5 138t-165.5 370q0 136 62 264.5t169 226t263 157t333 59.5q280 0 446 -139.5t166 -372.5q0 -136 -61.5 -263.5t-168 -225t-263 -156t-334.5 -58.5zM731 293q169 0 286.5 98.5t117.5 235.5q0 104 -78.5 164.5t-208.5 60.5q-88 0 -165.5 -29
t-130 -75.5t-82.5 -106.5t-30 -121q0 -103 79.5 -165t211.5 -62z" />
    <glyph glyph-name="p" unicode="p" horiz-adv-x="1628" 
d="M338 -451h-354l282 1598h348l-30 -146h6q204 179 473 179q231 0 365.5 -130t134.5 -354q0 -190 -98.5 -358.5t-269.5 -270.5t-370 -102q-138 0 -234.5 46t-146.5 112zM793 293q166 0 282.5 100.5t116.5 229.5q0 104 -77.5 166.5t-203.5 62.5q-167 0 -287 -98t-120 -230
q0 -104 80 -167.5t209 -63.5z" />
    <glyph glyph-name="q" unicode="q" horiz-adv-x="1632" 
d="M1288 -451h-354l108 594q-193 -178 -471 -178q-229 0 -365 135.5t-136 362.5q0 188 95.5 352.5t265 264.5t372.5 100q139 0 237 -45t148 -111h4l27 123h350zM721 295q168 0 287.5 97.5t119.5 230.5q0 104 -78.5 167.5t-207.5 63.5q-165 0 -283.5 -96.5t-118.5 -229.5
q0 -106 76.5 -169.5t204.5 -63.5z" />
    <glyph glyph-name="r" unicode="r" horiz-adv-x="1071" 
d="M418 0h-355l203 1147h348l-32 -156h10q77 79 184 134t238 55q63 0 127 -19l-56 -385q-70 21 -163 21q-66 0 -122.5 -15t-96 -38t-73 -57.5t-54 -68t-37.5 -76t-25.5 -73.5t-15.5 -68z" />
    <glyph glyph-name="s" unicode="s" horiz-adv-x="1263" 
d="M535 -35q-228 0 -371 87.5t-166 236.5l344 102q47 -147 238 -147q85 0 138.5 23.5t53.5 60.5q0 10 -3 18.5t-10.5 16t-14 13.5t-19.5 11.5t-21 9t-25 8t-24.5 7t-26 7t-24.5 5.5l-139 37q-27 7 -45 12.5t-54 19t-61 28t-56 39t-50.5 51.5t-33 66t-13.5 83q0 81 43 157
t118.5 134.5t186 93.5t237.5 35q200 0 327 -81.5t148 -211.5l-340 -103q-35 121 -184 121q-73 0 -124.5 -25.5t-51.5 -60.5q0 -19 16.5 -34.5t51 -28.5t64.5 -21t81 -20l100 -23q36 -8 57.5 -13.5t61 -18.5t64.5 -27t56.5 -38t50 -51.5t31.5 -67.5t13 -87q0 -182 -175 -303
t-449 -121z" />
    <glyph glyph-name="t" unicode="t" horiz-adv-x="1081" 
d="M655 -35q-75 0 -136.5 10.5t-104 27.5t-74.5 43t-50.5 52t-29.5 59t-14.5 60t-2 59.5t4.5 52.5t8 44l92 463h-270l47 311h270l56 319h354l-55 -319h366l-45 -311h-369l-71 -336q-6 -26 -8.5 -42t-4.5 -42t1.5 -43t13 -37t27 -32t46.5 -20t68 -8q58 0 189 31l-48 -303
q-100 -39 -260 -39z" />
    <glyph glyph-name="u" unicode="u" horiz-adv-x="1548" 
d="M539 -35q-234 0 -343 122t-71 341l127 719h354l-112 -604q-20 -105 29 -177.5t165 -72.5q129 0 220 66.5t112 183.5l108 604h355l-137 -789q-24 -137 -27.5 -207t6.5 -151h-354q-7 88 2 115h-6q-168 -150 -428 -150z" />
    <glyph glyph-name="v" unicode="v" horiz-adv-x="1421" 
d="M829 0h-436l-280 1147h387q32 -120 59 -233t62 -273.5t53 -239.5h4q53 86 207.5 340.5t251.5 405.5h374z" />
    <glyph glyph-name="w" unicode="w" horiz-adv-x="2301" 
d="M776 0h-416l-249 1147h403l139 -709h6l439 709h311l162 -709h4l416 709h401l-651 -1147h-432q-86 412 -129 623h-2q-68 -103 -201.5 -312t-200.5 -311z" />
    <glyph glyph-name="x" unicode="x" horiz-adv-x="1380" 
d="M319 0h-413q83 91 268.5 286t278.5 298v2q-57 93 -171.5 280.5t-170.5 280.5h411q40 -66 109 -184.5t96 -163.5h6q180 188 340 348h400q-40 -42 -132.5 -134.5t-189 -192.5t-217.5 -234v-2q59 -102 172 -293t170 -291h-404q-23 38 -64 109t-73.5 124.5t-70.5 108.5h-7
q-41 -43 -147.5 -145t-190.5 -197z" />
    <glyph glyph-name="y" unicode="y" horiz-adv-x="1441" 
d="M551 -451h-381l256 390l-320 1208h392q105 -398 184 -750h4q169 272 471 750h381z" />
    <glyph glyph-name="z" unicode="z" horiz-adv-x="1314" 
d="M1147 0h-1161l43 293l749 541h-622l45 313h1099l-43 -293l-751 -541h686z" />
    <glyph glyph-name="braceleft" unicode="{" horiz-adv-x="1110" 
d="M887 -299h-156q-146 0 -249 20.5t-176.5 67.5t-100.5 131t-6 205l30 178q5 31 7 54.5t2 42t-6 31.5t-10.5 22.5t-18.5 15.5t-23 9.5t-31 4.5t-35.5 1.5t-43.5 0.5l49 328h4q37 0 53.5 0.5t42.5 3.5t38 10t29 20t26 32.5t19 48t17 67.5l33 179q8 47 20 85.5t36 83.5t57 80
t85.5 68.5t119 56t160.5 36t208 13.5h156l-47 -309h-115h-51t-48.5 -2t-49 -5.5t-44 -10.5t-42.5 -16.5t-36 -25t-32 -35t-23.5 -46.5t-17.5 -60l-19 -96q-17 -86 -34.5 -139t-48 -97.5t-76.5 -69t-115 -36.5v-6q92 -17 131.5 -59t37.5 -110t-20 -167l-18 -96
q-6 -32 -6.5 -57.5t5 -45.5t16 -35t28 -26t38.5 -18t50 -11.5t60 -6t71 -1.5h115z" />
    <glyph glyph-name="bar" unicode="|" horiz-adv-x="694" 
d="M313 -451h-293l369 2089h293z" />
    <glyph glyph-name="braceright" unicode="}" horiz-adv-x="1110" 
d="M70 -299h-154l47 309h115q38 0 58 0.5t54.5 2.5t54 7.5t47 14.5t44.5 24t35 35.5t30 50t19 66.5l18 96q14 71 25.5 112.5t31 84.5t47 67t69.5 43t102 29l2 6q-88 18 -128 58.5t-42 110t18 173.5l19 96q22 115 -32.5 158t-227.5 43h-115l43 309h156q315 0 445 -100.5
t89 -322.5l-33 -179q-8 -46 -10 -77t7 -51t18 -31t36 -16t46.5 -6t64.5 -1l-49 -328q-35 0 -49.5 -0.5t-40 -2.5t-35.5 -6t-27.5 -13t-25.5 -22t-19 -32t-18 -45t-14 -61l-35 -178q-15 -75 -40 -133.5t-75.5 -115t-123 -93.5t-186.5 -59.5t-261 -22.5z" />
    <glyph glyph-name="asciitilde" unicode="~" horiz-adv-x="1404" 
d="M926 434q-64 0 -126.5 18t-102.5 39.5t-86 39.5t-81 18q-52 0 -86 -32t-43 -73h-276q29 173 143.5 278t259.5 105q57 0 114 -16.5t95.5 -35.5t85.5 -35.5t88 -16.5q101 0 119 98h277q-30 -187 -132.5 -287t-248.5 -100z" />
    <glyph glyph-name="uni00A0" unicode="&#xa0;" horiz-adv-x="583" 
 />
    <glyph glyph-name="exclamdown" unicode="&#xa1;" horiz-adv-x="677" 
d="M379 764q-80 0 -135.5 50.5t-55.5 125.5q0 92 79 166t182 74q79 0 133.5 -52t54.5 -129q0 -95 -80 -165t-178 -70zM352 -432h-381l31 211l254 835h195l-68 -835z" />
    <glyph glyph-name="cent" unicode="&#xa2;" horiz-adv-x="1366" 
d="M883 1006l-86 -498q152 21 223 121l237 -103q-70 -114 -206 -190.5t-301 -91.5l-43 -244h-158l43 248q-122 14 -217.5 64.5t-154 144t-58.5 217.5q0 143 78.5 272.5t219.5 216.5t312 105l35 198h158l-35 -198q147 -17 251.5 -93t133.5 -188l-268 -102q-24 99 -164 121z
M463 713q0 -83 49 -133.5t127 -69.5l86 491q-116 -26 -189 -108t-73 -180z" />
    <glyph glyph-name="sterling" unicode="&#xa3;" horiz-adv-x="1622" 
d="M1313 664h-424q-3 -97 -78 -193.5t-205 -169.5h852l-45 -301h-1366l45 303q187 35 300.5 129t113.5 191q0 23 -6 41h-371l25 159h256q-78 126 -78 240q0 149 91.5 279t255 209t359.5 79q63 0 124 -8.5t129 -28t125.5 -55.5t106 -85.5t79 -124.5t36.5 -167l-362 -131
q-26 279 -275 279q-118 0 -197 -63.5t-79 -160.5q0 -47 16.5 -87.5t56 -99t48.5 -75.5h493z" />
    <glyph glyph-name="currency" unicode="&#xa4;" horiz-adv-x="1642" 
d="M1376 899q0 -154 -110 -283l237 -284l-241 -178l-246 295q-101 -37 -219 -37q-115 0 -213 39l-351 -297l-188 178l344 293q-33 74 -33 151q0 150 109 281l-234 282l240 179l246 -291q106 39 221 39q124 0 217 -41l344 293l191 -179l-344 -292q30 -65 30 -148zM653 811
q0 -65 50.5 -104t130.5 -39q102 0 173.5 60t71.5 144q0 63 -48 100.5t-128 37.5q-103 0 -176.5 -60t-73.5 -139z" />
    <glyph glyph-name="yen" unicode="&#xa5;" horiz-adv-x="1787" 
d="M979 0h-377l41 215h-440l33 225h442l22 84h-442l35 226h373l-420 847h399q27 -55 303 -632h4q61 70 127 160.5t110 153.5t125 149t185 169h399l-724 -847h378l-34 -226h-443l-20 -84h440l-33 -225h-442z" />
    <glyph glyph-name="brokenbar" unicode="&#xa6;" horiz-adv-x="694" 
d="M541 829h-293l143 809h293zM315 -451h-292l141 803h291z" />
    <glyph glyph-name="section" unicode="&#xa7;" horiz-adv-x="1355" 
d="M541 -301q-225 0 -375 84t-172 229l323 94q27 -82 99.5 -116.5t161.5 -34.5q81 0 137.5 27t56.5 65q0 20 -13 36.5t-42.5 32t-49.5 23.5t-61 22q-10 3 -14 5l-139 49q-303 108 -303 274q0 99 85.5 179.5t219.5 103.5l2 2q-203 77 -203 244q0 83 42.5 160t117.5 136.5
t186.5 95.5t241.5 36q197 0 324.5 -82t148.5 -211l-336 -102q-11 63 -56 101t-128 38q-81 0 -134 -31t-53 -72q0 -24 16.5 -44t47 -34.5t56 -23.5t61.5 -20q3 -1 5 -1.5t4.5 -1t4.5 -1.5l121 -35q50 -15 87.5 -28.5t84.5 -38t77 -52.5t51 -69.5t21 -90.5
q0 -107 -89.5 -190.5t-221.5 -102.5v-4q97 -32 148 -97t51 -151q0 -167 -163.5 -285t-428.5 -118zM651 455l39 -11q97 4 157 41.5t60 89.5q0 25 -22 43.5t-43 26t-71 21.5q-3 1 -5 1.5t-5 1.5t-5.5 1.5t-5.5 1.5l-62 16q-68 19 -138.5 -22t-70.5 -97q0 -17 7 -31.5t22 -25.5
t29.5 -19.5t37.5 -16t37.5 -11.5t38.5 -10z" />
    <glyph glyph-name="copyright" unicode="&#xa9;" horiz-adv-x="2267" 
d="M1028 -35q-256 0 -452.5 88.5t-304 249t-107.5 369.5q0 187 90.5 362.5t244 306.5t370 210t454.5 79q256 0 452.5 -87.5t304 -247.5t107.5 -369q0 -187 -90.5 -363t-244 -307.5t-370 -211t-454.5 -79.5zM1055 133q158 0 304 41t261.5 114t202 168.5t132.5 210.5t46 234
q0 253 -194 408t-511 155q-196 0 -372.5 -63t-301 -168.5t-197.5 -246.5t-73 -292q0 -170 89.5 -298t248.5 -195.5t365 -67.5zM1118 346q-215 0 -344 105.5t-129 279.5q0 101 48 196t130 165t197 112.5t242 42.5q172 0 289 -78.5t151 -212.5l-227 -79q-23 84 -85 124.5
t-155 40.5q-147 0 -247.5 -85t-100.5 -201q0 -48 17.5 -85t44.5 -59t64 -36.5t71.5 -19.5t72.5 -5q103 0 186 49.5t134 136.5l204 -67q-85 -157 -230 -240.5t-333 -83.5z" />
    <glyph glyph-name="guillemotleft" unicode="&#xab;" horiz-adv-x="1617" 
d="M766 164h-369l-291 405l3 9l436 405h366l-438 -405l-2 -9zM1409 164h-367l-292 405l4 9l434 405h368l-440 -405l-2 -9z" />
    <glyph glyph-name="logicalnot" unicode="&#xac;" horiz-adv-x="1292" 
d="M1071 135h-291l66 381h-723l39 256h1014z" />
    <glyph glyph-name="registered" unicode="&#xae;" horiz-adv-x="1349" 
d="M698 717q-211 0 -341 107t-130 280q0 137 82.5 258t229.5 195.5t321 74.5q133 0 239.5 -43.5t171 -132.5t64.5 -209q0 -103 -49.5 -200t-134 -169.5t-203.5 -116.5t-250 -44zM717 827q205 0 346 122t141 280q0 131 -100 213t-260 82q-202 0 -345 -121.5t-143 -282.5
q0 -131 100 -212t261 -81zM666 936h-129l86 489h235q91 0 141 -35.5t50 -101.5q0 -58 -42.5 -104.5t-115.5 -65.5l115 -182h-140l-106 172h-62zM737 1327l-22 -121h92q44 0 72 19.5t28 48.5q0 53 -78 53h-92z" />
    <glyph glyph-name="degree" unicode="&#xb0;" horiz-adv-x="884" 
d="M522 1044q-136 0 -222.5 72.5t-86.5 186.5q0 137 123 241.5t293 104.5q136 0 223.5 -72.5t87.5 -185.5q0 -88 -56 -168t-153.5 -129.5t-208.5 -49.5zM551 1225q75 0 131.5 42.5t56.5 98.5q0 43 -39 72.5t-98 29.5q-75 0 -131.5 -42t-56.5 -97q0 -46 38.5 -75t98.5 -29z
" />
    <glyph glyph-name="plusminus" unicode="&#xb1;" horiz-adv-x="1355" 
d="M1264 872l-39 -249h-396l-32 -193h395l-39 -250h-1073l39 250h387l33 193h-387l38 249h388l40 224h291l-41 -224h396z" />
    <glyph glyph-name="uni00B2" unicode="&#xb2;" horiz-adv-x="878" 
d="M825 707h-714l6 36q12 74 32.5 127t60.5 105t105.5 97.5t165.5 94.5q9 5 34 16t42.5 20t37.5 21.5t31 26t11 27.5q0 15 -19.5 25t-52.5 10q-55 0 -94.5 -31t-52.5 -88l-254 37q26 149 152 237t296 88q146 0 235 -66.5t89 -174.5q0 -79 -57.5 -149.5t-147.5 -106.5
q-7 -3 -44.5 -16.5t-59.5 -22.5t-51.5 -26.5t-45.5 -35.5h332z" />
    <glyph glyph-name="uni00B3" unicode="&#xb3;" horiz-adv-x="882" 
d="M444 686q-146 0 -245 55t-113 138l266 120q34 -86 127 -86q50 0 80.5 19t30.5 47q0 48 -73 51h-32h-92l27 184h94q47 0 86 17t39 47q0 21 -22.5 35t-57.5 14q-45 0 -78 -24t-47 -64l-252 57q31 106 151 183t281 77q134 0 225 -52t91 -144q0 -69 -52 -130t-122 -71v-2
q57 -9 98 -54.5t41 -105.5q0 -54 -33 -109t-90.5 -100t-144 -73.5t-183.5 -28.5z" />
    <glyph glyph-name="paragraph" unicode="&#xb6;" horiz-adv-x="1953" 
d="M991 -287h-373l166 942h-127q-227 0 -360 109t-133 295q0 108 50.5 206t140 171.5t223.5 117t292 43.5h453zM1571 -287h-373l332 1884h373z" />
    <glyph glyph-name="periodcentered" unicode="&#xb7;" horiz-adv-x="763" 
d="M391 477q-101 0 -168 63.5t-67 157.5q0 115 94 202t219 87q98 0 164.5 -62.5t66.5 -154.5q0 -112 -93.5 -202.5t-215.5 -90.5z" />
    <glyph glyph-name="uni00B9" unicode="&#xb9;" horiz-adv-x="645" 
d="M553 707h-283l82 440q-117 -62 -211 -82l43 293q98 34 159.5 82.5t70.5 99.5h280z" />
    <glyph glyph-name="guillemotright" unicode="&#xbb;" horiz-adv-x="1617" 
d="M432 164h-369l439 405l2 9l-295 405h369l290 -405l-2 -9zM1075 164h-368l440 405l2 9l-295 405h367l292 -405l-4 -9z" />
    <glyph glyph-name="onequarter" unicode="&#xbc;" horiz-adv-x="1986" 
d="M553 707h-283l82 440q-117 -62 -211 -82l43 293q98 34 159.5 82.5t70.5 99.5h280zM295 0h-330l1624 1468h322zM1716 -10h-270l24 135h-432l31 207l526 491h263l-82 -475h110l-33 -223h-110zM1536 481l-197 -133h164z" />
    <glyph glyph-name="onehalf" unicode="&#xbd;" horiz-adv-x="2078" 
d="M553 707h-283l82 440q-117 -62 -211 -82l43 293q98 34 159.5 82.5t70.5 99.5h280zM295 0h-330l1624 1468h322zM1898 -10h-714l6 37q12 74 32.5 127t60.5 105t105.5 97.5t165.5 94.5q10 5 34.5 16t42.5 20t37.5 21t30.5 25.5t11 27.5q0 15 -19.5 25t-52.5 10
q-55 0 -94.5 -31t-52.5 -88l-254 37q26 149 152.5 237.5t296.5 88.5q146 0 234.5 -67t88.5 -175q0 -79 -57.5 -149.5t-147.5 -106.5q-8 -3 -44.5 -16t-58.5 -22t-51.5 -26.5t-45.5 -35.5h331z" />
    <glyph glyph-name="threequarters" unicode="&#xbe;" horiz-adv-x="2224" 
d="M444 686q-146 0 -245 55t-113 138l266 120q34 -86 127 -86q50 0 80.5 19t30.5 47q0 48 -73 51h-32h-92l27 184h94q47 0 86 17t39 47q0 21 -22.5 35t-57.5 14q-45 0 -78 -24t-47 -64l-252 57q31 106 151 183t281 77q134 0 225 -52t91 -144q0 -69 -52 -130t-122 -71v-2
q57 -9 98 -54.5t41 -105.5q0 -54 -33 -109t-90.5 -100t-144 -73.5t-183.5 -28.5zM532 0h-329l1624 1468h321zM1954 -10h-271l25 135h-432l31 207l526 491h262l-82 -475h111l-33 -223h-111zM1774 481l-197 -133h164z" />
    <glyph glyph-name="questiondown" unicode="&#xbf;" horiz-adv-x="1482" 
d="M838 764q-82 0 -137.5 51t-55.5 127q0 94 77 166t177 72q80 0 136.5 -52.5t56.5 -128.5q0 -92 -77 -163.5t-177 -71.5zM553 -465q-168 0 -299 50t-206 144.5t-75 219.5q0 52 15.5 100.5t37.5 85.5t59 74t66.5 60.5t73.5 50.5t66.5 39t58.5 30q13 7 37 19q33 17 48.5 25
t43 23t40 23.5t33 22.5t29.5 24t21.5 24.5t17.5 27.5t9.5 29.5t4 34.5t-4.5 38h389q6 -156 -73.5 -253t-293.5 -187q-6 -2 -36 -14.5t-43.5 -18.5t-43 -20.5t-45 -25t-38 -28t-34 -33.5t-20 -37.5t-8.5 -44.5q0 -66 67 -106.5t177 -40.5q149 0 250 79.5t120 213.5l332 -58
q-25 -174 -136.5 -305.5t-277.5 -198.5t-362 -67z" />
    <glyph glyph-name="Agrave" unicode="&#xc0;" horiz-adv-x="1888" 
d="M1339 1720h-321l-328 375h436zM291 0h-391l1007 1597h441l442 -1597h-399q-20 61 -58 183t-57 182h-744q-23 -34 -107.5 -163t-133.5 -202zM764 719h407q-61 211 -122 438h-7q-199 -318 -278 -438z" />
    <glyph glyph-name="Aacute" unicode="&#xc1;" horiz-adv-x="1888" 
d="M1763 2095l-452 -375h-322l340 375h434zM291 0h-391l1007 1597h441l442 -1597h-399q-20 61 -58 183t-57 182h-744q-23 -34 -107.5 -163t-133.5 -202zM764 719h407q-61 211 -122 438h-7q-199 -318 -278 -438z" />
    <glyph glyph-name="Acircumflex" unicode="&#xc2;" horiz-adv-x="1888" 
d="M1378 2095l289 -375h-330q-135 124 -159 148q-5 -4 -46.5 -34t-57.5 -41t-51.5 -33t-68.5 -40h-329l413 375h340zM291 0h-391l1007 1597h441l442 -1597h-399q-20 61 -58 183t-57 182h-744q-23 -34 -107.5 -163t-133.5 -202zM764 719h407q-61 211 -122 438h-7
q-199 -318 -278 -438z" />
    <glyph glyph-name="Atilde" unicode="&#xc3;" horiz-adv-x="1888" 
d="M1350 1722q-106 0 -160 35l-66 41q-44 29 -90 29q-39 0 -66.5 -25t-35.5 -61h-252q26 156 132.5 250t244.5 94q89 0 172 -45l57 -33q28 -16 72 -16q35 0 57.5 21.5t30.5 58.5h254q-27 -170 -118.5 -259.5t-231.5 -89.5zM291 0h-391l1007 1597h441l442 -1597h-399
q-20 61 -58 183t-57 182h-744q-23 -34 -107.5 -163t-133.5 -202zM764 719h407q-61 211 -122 438h-7q-199 -318 -278 -438z" />
    <glyph glyph-name="Adieresis" unicode="&#xc4;" horiz-adv-x="1888" 
d="M862 1712q-80 0 -132 47.5t-52 120.5q0 92 73.5 158.5t172.5 66.5q78 0 130 -47t52 -119q0 -88 -73 -157.5t-171 -69.5zM1427 1712q-82 0 -134 47t-52 121q0 92 73.5 158.5t172.5 66.5q78 0 130 -47t52 -119q0 -88 -72.5 -157.5t-169.5 -69.5zM291 0h-391l1007 1597h441
l442 -1597h-399q-20 61 -58 183t-57 182h-744q-23 -34 -107.5 -163t-133.5 -202zM764 719h407q-61 211 -122 438h-7q-199 -318 -278 -438z" />
    <glyph glyph-name="Aring" unicode="&#xc5;" horiz-adv-x="1888" 
d="M1141 1708q-119 0 -198 64.5t-79 162.5q0 115 108 204t255 89q121 0 197.5 -63t76.5 -162q0 -117 -106.5 -206t-253.5 -89zM1167 1890q48 0 84.5 27.5t36.5 60.5q0 27 -25.5 46.5t-64.5 19.5q-49 0 -85 -27t-36 -61q0 -28 25.5 -47t64.5 -19zM291 0h-391l1007 1597h441
l442 -1597h-399q-20 61 -58 183t-57 182h-744q-23 -34 -107.5 -163t-133.5 -202zM764 719h407q-61 211 -122 438h-7q-199 -318 -278 -438z" />
    <glyph glyph-name="AE" unicode="&#xc6;" horiz-adv-x="2625" 
d="M252 0h-420l1358 1597h1483l-52 -335h-878q-8 -34 -16.5 -80t-19 -89.5t-28.5 -109.5h830l-53 -352h-830q-16 -64 -67 -295h905l-51 -336h-1280q8 36 22 128.5t26 155t23 66.5h-610q-29 -28 -60 -49.5t-52.5 -38t-80 -81.5t-149.5 -181zM854 707h403q12 62 22 100.5
t16.5 60.5t24.5 119t46 275h-4q-107 -119 -290 -318t-218 -237z" />
    <glyph glyph-name="Ccedilla" unicode="&#xc7;" horiz-adv-x="2035" 
d="M1034 307q217 0 383.5 93.5t261.5 256.5l332 -114q-77 -146 -183 -255.5t-230.5 -177t-258.5 -102.5t-284 -41l-64 -55q28 4 56 4q97 0 159 -46t62 -130q0 -118 -110 -194t-277 -76q-110 0 -196.5 36t-129.5 99l131 133q70 -98 209 -98q63 0 101 22t38 57
q0 29 -29.5 45.5t-76.5 16.5q-63 0 -111 -31l-96 74l141 145q-344 29 -542.5 217t-198.5 486q0 152 55.5 296t159.5 263t241.5 209t312 140t361.5 50q312 0 525 -141.5t274 -372.5l-369 -135q-22 63 -61 116t-96.5 97t-140.5 69t-183 25q-118 0 -225.5 -33t-190 -90
t-143.5 -131t-93 -159.5t-32 -172.5q0 -88 30.5 -157.5t80.5 -113t118.5 -72.5t139.5 -40.5t149 -11.5z" />
    <glyph glyph-name="Egrave" unicode="&#xc8;" horiz-adv-x="1589" 
d="M1229 1720h-322l-327 375h436zM1378 0h-1280l283 1597h1255l-49 -335h-880q-5 -25 -11.5 -42t-11.5 -29.5t-15.5 -64t-25.5 -141.5h832l-54 -354h-831l-10.5 -45t-6 -28.5t-15.5 -71t-34 -150.5h903z" />
    <glyph glyph-name="Eacute" unicode="&#xc9;" horiz-adv-x="1589" 
d="M1653 2095l-453 -375h-321l340 375h434zM1378 0h-1280l283 1597h1255l-49 -335h-880q-5 -25 -11.5 -42t-11.5 -29.5t-15.5 -64t-25.5 -141.5h832l-54 -354h-831l-10.5 -45t-6 -28.5t-15.5 -71t-34 -150.5h903z" />
    <glyph glyph-name="Ecircumflex" unicode="&#xca;" horiz-adv-x="1589" 
d="M1268 2095l288 -375h-329q-147 135 -160 148q-10 -7 -47.5 -34t-55.5 -40t-52.5 -34.5t-67.5 -39.5h-330l414 375h340zM1378 0h-1280l283 1597h1255l-49 -335h-880q-5 -25 -11.5 -42t-11.5 -29.5t-15.5 -64t-25.5 -141.5h832l-54 -354h-831l-10.5 -45t-6 -28.5t-15.5 -71
t-34 -150.5h903z" />
    <glyph glyph-name="Edieresis" unicode="&#xcb;" horiz-adv-x="1589" 
d="M752 1712q-80 0 -132.5 47.5t-52.5 120.5q0 92 73.5 158.5t172.5 66.5q78 0 130 -47t52 -119q0 -88 -72.5 -157.5t-170.5 -69.5zM1317 1712q-82 0 -134.5 47.5t-52.5 120.5q0 92 73.5 158.5t172.5 66.5q78 0 130.5 -47t52.5 -119q0 -88 -72.5 -157.5t-169.5 -69.5z
M1378 0h-1280l283 1597h1255l-49 -335h-880q-5 -25 -11.5 -42t-11.5 -29.5t-15.5 -64t-25.5 -141.5h832l-54 -354h-831l-10.5 -45t-6 -28.5t-15.5 -71t-34 -150.5h903z" />
    <glyph glyph-name="Igrave" unicode="&#xcc;" horiz-adv-x="774" 
d="M782 1720h-321l-328 375h436zM475 0h-377l283 1597h377z" />
    <glyph glyph-name="Iacute" unicode="&#xcd;" horiz-adv-x="774" 
d="M1206 2095l-452 -375h-322l340 375h434zM475 0h-377l283 1597h377z" />
    <glyph glyph-name="Icircumflex" unicode="&#xce;" horiz-adv-x="774" 
d="M821 2095l289 -375h-330q-135 124 -159 148q-5 -4 -46.5 -34t-57.5 -41t-51.5 -33t-68.5 -40h-329l413 375h340zM475 0h-377l283 1597h377z" />
    <glyph glyph-name="Idieresis" unicode="&#xcf;" horiz-adv-x="774" 
d="M305 1712q-80 0 -132 47.5t-52 120.5q0 92 73.5 158.5t172.5 66.5q78 0 130 -47t52 -119q0 -88 -73 -157.5t-171 -69.5zM870 1712q-82 0 -134 47t-52 121q0 92 73.5 158.5t172.5 66.5q78 0 130 -47t52 -119q0 -88 -72.5 -157.5t-169.5 -69.5zM475 0h-377l283 1597h377z
" />
    <glyph glyph-name="Eth" unicode="&#xd0;" horiz-adv-x="1949" 
d="M381 1597h743q393 0 589 -170t196 -475q0 -147 -47 -287.5t-138 -260.5t-216 -210.5t-291.5 -142t-352.5 -51.5h-766l115 653h-248l43 289h256zM868 336q291 0 467 155t176 394q0 69 -11.5 124t-37.5 93.5t-52.5 66.5t-72 45t-79 27.5t-91 14.5t-91.5 5t-95 1h-274
q-15 -74 -34 -150t-38 -170h395l-43 -289h-405q-22 -119 -58 -317h344z" />
    <glyph glyph-name="Ntilde" unicode="&#xd1;" horiz-adv-x="2000" 
d="M1380 1714q-105 0 -159 35l-66 41q-43 29 -90 29q-39 0 -66.5 -25t-35.5 -61h-252q26 156 132 250t244 94q91 0 173 -45l57 -33q30 -17 72 -17q35 0 57.5 21.5t30.5 58.5h254q-27 -170 -119 -259t-232 -89zM475 0h-377l283 1597h391q309 -430 643 -950h6q14 70 72 342.5
t117 607.5h375l-283 -1597h-389q-74 106 -204.5 289t-239.5 338.5t-203 300.5h-7q-19 -106 -35.5 -166.5t-28 -94.5t-42 -199t-78.5 -468z" />
    <glyph glyph-name="Ograve" unicode="&#xd2;" horiz-adv-x="2123" 
d="M1456 1720h-321l-328 375h436zM956 -35q-245 0 -435 87t-296 247t-106 367q0 186 89 362t239 308.5t360.5 213t439.5 80.5q246 0 437.5 -88.5t297 -248.5t105.5 -367q0 -186 -90 -362t-241 -307.5t-361.5 -211.5t-438.5 -80zM1008 307q138 0 264.5 48.5t216.5 128
t143.5 184.5t53.5 215q0 181 -134 293t-350 112q-138 0 -265.5 -49t-218.5 -129t-145.5 -185.5t-54.5 -215.5q0 -180 135.5 -291t354.5 -111z" />
    <glyph glyph-name="Oacute" unicode="&#xd3;" horiz-adv-x="2123" 
d="M1880 2095l-453 -375h-321l340 375h434zM956 -35q-245 0 -435 87t-296 247t-106 367q0 186 89 362t239 308.5t360.5 213t439.5 80.5q246 0 437.5 -88.5t297 -248.5t105.5 -367q0 -186 -90 -362t-241 -307.5t-361.5 -211.5t-438.5 -80zM1008 307q138 0 264.5 48.5
t216.5 128t143.5 184.5t53.5 215q0 181 -134 293t-350 112q-138 0 -265.5 -49t-218.5 -129t-145.5 -185.5t-54.5 -215.5q0 -180 135.5 -291t354.5 -111z" />
    <glyph glyph-name="Ocircumflex" unicode="&#xd4;" horiz-adv-x="2123" 
d="M1495 2095l289 -375h-330q-147 135 -160 148q-10 -7 -47.5 -34t-55.5 -40t-52.5 -34.5t-67.5 -39.5h-330l414 375h340zM956 -35q-245 0 -435 87t-296 247t-106 367q0 186 89 362t239 308.5t360.5 213t439.5 80.5q246 0 437.5 -88.5t297 -248.5t105.5 -367
q0 -186 -90 -362t-241 -307.5t-361.5 -211.5t-438.5 -80zM1008 307q138 0 264.5 48.5t216.5 128t143.5 184.5t53.5 215q0 181 -134 293t-350 112q-138 0 -265.5 -49t-218.5 -129t-145.5 -185.5t-54.5 -215.5q0 -180 135.5 -291t354.5 -111z" />
    <glyph glyph-name="Otilde" unicode="&#xd5;" horiz-adv-x="2123" 
d="M1458 1714q-106 0 -160 35l-65 41q-43 29 -90 29q-39 0 -67 -25t-36 -61h-252q26 156 132.5 250t244.5 94q89 0 172 -45l58 -33q30 -17 71 -17q35 0 57.5 21.5t30.5 58.5h254q-27 -170 -118.5 -259t-231.5 -89zM956 -35q-245 0 -435 87t-296 247t-106 367q0 186 89 362
t239 308.5t360.5 213t439.5 80.5q246 0 437.5 -88.5t297 -248.5t105.5 -367q0 -186 -90 -362t-241 -307.5t-361.5 -211.5t-438.5 -80zM1008 307q138 0 264.5 48.5t216.5 128t143.5 184.5t53.5 215q0 181 -134 293t-350 112q-138 0 -265.5 -49t-218.5 -129t-145.5 -185.5
t-54.5 -215.5q0 -180 135.5 -291t354.5 -111z" />
    <glyph glyph-name="Odieresis" unicode="&#xd6;" horiz-adv-x="2123" 
d="M979 1712q-80 0 -132 47.5t-52 120.5q0 92 73 158.5t172 66.5q78 0 130.5 -47t52.5 -119q0 -88 -73 -157.5t-171 -69.5zM1544 1712q-82 0 -134 47t-52 121q0 92 73.5 158.5t172.5 66.5q78 0 130 -47t52 -119q0 -88 -72.5 -157.5t-169.5 -69.5zM956 -35q-245 0 -435 87
t-296 247t-106 367q0 186 89 362t239 308.5t360.5 213t439.5 80.5q246 0 437.5 -88.5t297 -248.5t105.5 -367q0 -186 -90 -362t-241 -307.5t-361.5 -211.5t-438.5 -80zM1008 307q138 0 264.5 48.5t216.5 128t143.5 184.5t53.5 215q0 181 -134 293t-350 112
q-138 0 -265.5 -49t-218.5 -129t-145.5 -185.5t-54.5 -215.5q0 -180 135.5 -291t354.5 -111z" />
    <glyph glyph-name="multiply" unicode="&#xd7;" horiz-adv-x="1226" 
d="M434 623l-268 272l219 182l270 -272l353 266l161 -182l-352 -266l264 -265l-221 -180l-260 264l-360 -272l-164 180z" />
    <glyph glyph-name="Oslash" unicode="&#xd8;" horiz-adv-x="2123" 
d="M2134 1661l-252 -252q205 -192 205 -483q0 -186 -90 -362t-241 -307.5t-361.5 -211.5t-438.5 -80q-238 0 -430 86l-116 -117h-351l256 256q-196 190 -196 476q0 186 89 362t239 308.5t360.5 213t439.5 80.5q235 0 422 -82l113 113h352zM518 709q0 -135 80 -234l786 789
q-83 24 -182 24q-138 0 -265.5 -49t-218.5 -129t-145.5 -185.5t-54.5 -215.5zM1008 307q138 0 264.5 48.5t216.5 128t143.5 184.5t53.5 215q0 139 -87 243l-788 -790q92 -29 197 -29z" />
    <glyph glyph-name="Ugrave" unicode="&#xd9;" horiz-adv-x="1828" 
d="M1317 1720h-322l-327 375h436zM805 -35q-131 0 -236 25.5t-172.5 67t-115.5 100t-71 119t-32 129t-6 125.5t14 114l176 952h375l-170 -921q-8 -42 -9 -85.5t13 -96.5t44.5 -92.5t93 -67t151.5 -27.5t162.5 29t117.5 69.5t76.5 95.5t46.5 95.5t21 79.5l172 921h375
l-174 -952q-11 -59 -26.5 -114t-47.5 -125.5t-73.5 -129.5t-108.5 -118.5t-148.5 -100.5t-197 -66.5t-250.5 -25.5z" />
    <glyph glyph-name="Uacute" unicode="&#xda;" horiz-adv-x="1828" 
d="M1741 2095l-453 -375h-321l340 375h434zM805 -35q-131 0 -236 25.5t-172.5 67t-115.5 100t-71 119t-32 129t-6 125.5t14 114l176 952h375l-170 -921q-8 -42 -9 -85.5t13 -96.5t44.5 -92.5t93 -67t151.5 -27.5t162.5 29t117.5 69.5t76.5 95.5t46.5 95.5t21 79.5l172 921
h375l-174 -952q-11 -59 -26.5 -114t-47.5 -125.5t-73.5 -129.5t-108.5 -118.5t-148.5 -100.5t-197 -66.5t-250.5 -25.5z" />
    <glyph glyph-name="Ucircumflex" unicode="&#xdb;" horiz-adv-x="1828" 
d="M1356 2095l289 -375h-330q-147 135 -160 148q-10 -7 -47.5 -34t-55.5 -40t-52.5 -34.5t-67.5 -39.5h-330l414 375h340zM805 -35q-131 0 -236 25.5t-172.5 67t-115.5 100t-71 119t-32 129t-6 125.5t14 114l176 952h375l-170 -921q-8 -42 -9 -85.5t13 -96.5t44.5 -92.5
t93 -67t151.5 -27.5t162.5 29t117.5 69.5t76.5 95.5t46.5 95.5t21 79.5l172 921h375l-174 -952q-11 -59 -26.5 -114t-47.5 -125.5t-73.5 -129.5t-108.5 -118.5t-148.5 -100.5t-197 -66.5t-250.5 -25.5z" />
    <glyph glyph-name="Udieresis" unicode="&#xdc;" horiz-adv-x="1828" 
d="M840 1712q-80 0 -132.5 47.5t-52.5 120.5q0 92 73.5 158.5t172.5 66.5q78 0 130 -47t52 -119q0 -88 -72.5 -157.5t-170.5 -69.5zM1405 1712q-82 0 -134 47t-52 121q0 92 73 158.5t172 66.5q78 0 130.5 -47t52.5 -119q0 -88 -72.5 -157.5t-169.5 -69.5zM805 -35
q-131 0 -236 25.5t-172.5 67t-115.5 100t-71 119t-32 129t-6 125.5t14 114l176 952h375l-170 -921q-8 -42 -9 -85.5t13 -96.5t44.5 -92.5t93 -67t151.5 -27.5t162.5 29t117.5 69.5t76.5 95.5t46.5 95.5t21 79.5l172 921h375l-174 -952q-11 -59 -26.5 -114t-47.5 -125.5
t-73.5 -129.5t-108.5 -118.5t-148.5 -100.5t-197 -66.5t-250.5 -25.5z" />
    <glyph glyph-name="Yacute" unicode="&#xdd;" horiz-adv-x="1722" 
d="M1481 2095l-453 -375h-321l340 375h434zM948 0h-375q8 42 36 211.5t61 323.5q-43 92 -81.5 156.5t-65 111t-111.5 243t-226 551.5h404l319 -700h4q62 72 134 173.5t123.5 178t137.5 172.5t187 176h403q-143 -176 -426 -529t-425 -529q-94 -527 -99 -539z" />
    <glyph glyph-name="Thorn" unicode="&#xde;" horiz-adv-x="1685" 
d="M475 0h-377l283 1597h377l-49 -266h368q35 0 58 -0.5t72.5 -4.5t85 -11t86 -22t86.5 -36t75.5 -54t64 -75t40.5 -100.5t16 -128.5q0 -120 -53 -233t-148.5 -201t-242 -141.5t-318.5 -53.5h-373zM659 995l-81 -370h299q79 0 145 11t122 34t88 65t32 99q0 34 -11 60
t-25.5 43t-42.5 28.5t-48.5 17t-58 8.5t-57 3.5t-58.5 0.5h-304z" />
    <glyph glyph-name="germandbls" unicode="&#xdf;" horiz-adv-x="1642" 
d="M418 0h-355l175 967q13 75 34 143.5t55 140.5t77.5 132.5t106 115t136.5 92.5t171.5 60t209.5 22q260 0 417 -118t157 -312q0 -157 -110 -277.5t-271 -150.5l-2 -8q154 -13 242.5 -101.5t88.5 -226.5q0 -99 -52 -185.5t-148 -152t-244.5 -103.5t-331.5 -38h-180l47 311
h231q129 0 218.5 48.5t89.5 117.5q0 60 -64 96.5t-168 36.5h-139l45 312h84q124 0 208.5 75t84.5 172q0 87 -68.5 137t-187.5 50q-61 0 -113 -16.5t-87.5 -41.5t-65 -60.5t-47 -67t-30.5 -67.5t-18 -55.5t-8 -37.5z" />
    <glyph glyph-name="agrave" unicode="&#xe0;" horiz-adv-x="1439" 
d="M1024 1278h-307l-307 375h415zM436 -35q-185 0 -297 80.5t-112 224.5q0 73 28 131.5t71 97t112.5 69.5t134 49t153.5 36q41 9 94.5 18t92 15.5t81 14.5t71.5 17.5t53.5 21.5t36.5 29t12 38q0 44 -48.5 70t-134.5 26q-212 0 -299 -160l-315 107q47 89 120 154.5t162.5 103
t184.5 55t199 17.5q259 0 388.5 -109t94.5 -307l-72 -406q-22 -126 -26 -207.5t6 -150.5h-353q-13 54 0 119h-4q-68 -72 -185.5 -113t-248.5 -41zM578 225q126 0 215.5 58t109.5 139l17 67l-279 -53q-105 -21 -163 -58t-58 -77q0 -34 42 -55t116 -21z" />
    <glyph glyph-name="aacute" unicode="&#xe1;" horiz-adv-x="1439" 
d="M1423 1653l-438 -375h-307l330 375h415zM436 -35q-185 0 -297 80.5t-112 224.5q0 73 28 131.5t71 97t112.5 69.5t134 49t153.5 36q41 9 94.5 18t92 15.5t81 14.5t71.5 17.5t53.5 21.5t36.5 29t12 38q0 44 -48.5 70t-134.5 26q-212 0 -299 -160l-315 107q47 89 120 154.5
t162.5 103t184.5 55t199 17.5q259 0 388.5 -109t94.5 -307l-72 -406q-22 -126 -26 -207.5t6 -150.5h-353q-13 54 0 119h-4q-68 -72 -185.5 -113t-248.5 -41zM578 225q126 0 215.5 58t109.5 139l17 67l-279 -53q-105 -21 -163 -58t-58 -77q0 -34 42 -55t116 -21z" />
    <glyph glyph-name="acircumflex" unicode="&#xe2;" horiz-adv-x="1439" 
d="M655 1278h-333l419 375h359l291 -375h-334q-21 24 -38 34.5t-44.5 38t-81.5 99.5q-30 -22 -55.5 -33t-64 -38.5t-118.5 -100.5zM436 -35q-185 0 -297 80.5t-112 224.5q0 73 28 131.5t71 97t112.5 69.5t134 49t153.5 36q41 9 94.5 18t92 15.5t81 14.5t71.5 17.5t53.5 21.5
t36.5 29t12 38q0 44 -48.5 70t-134.5 26q-212 0 -299 -160l-315 107q47 89 120 154.5t162.5 103t184.5 55t199 17.5q259 0 388.5 -109t94.5 -307l-72 -406q-22 -126 -26 -207.5t6 -150.5h-353q-13 54 0 119h-4q-68 -72 -185.5 -113t-248.5 -41zM578 225q126 0 215.5 58
t109.5 139l17 67l-279 -53q-105 -21 -163 -58t-58 -77q0 -34 42 -55t116 -21z" />
    <glyph glyph-name="atilde" unicode="&#xe3;" horiz-adv-x="1439" 
d="M1055 1264q-107 0 -160 34l-66 41q-44 29 -90 29q-39 0 -66.5 -25t-35.5 -61h-252q26 156 132.5 250t244.5 94q90 0 172 -45l57 -33q28 -16 72 -16q35 0 57.5 21.5t30.5 58.5h254q-27 -170 -118.5 -259t-231.5 -89zM436 -35q-185 0 -297 80.5t-112 224.5q0 73 28 131.5
t71 97t112.5 69.5t134 49t153.5 36q41 9 94.5 18t92 15.5t81 14.5t71.5 17.5t53.5 21.5t36.5 29t12 38q0 44 -48.5 70t-134.5 26q-212 0 -299 -160l-315 107q47 89 120 154.5t162.5 103t184.5 55t199 17.5q259 0 388.5 -109t94.5 -307l-72 -406q-22 -126 -26 -207.5
t6 -150.5h-353q-13 54 0 119h-4q-68 -72 -185.5 -113t-248.5 -41zM578 225q126 0 215.5 58t109.5 139l17 67l-279 -53q-105 -21 -163 -58t-58 -77q0 -34 42 -55t116 -21z" />
    <glyph glyph-name="adieresis" unicode="&#xe4;" horiz-adv-x="1439" 
d="M580 1276q-73 0 -121.5 45t-48.5 113q0 80 68.5 143t158.5 63q73 0 122.5 -44.5t49.5 -110.5q0 -81 -69 -145t-160 -64zM1145 1276q-75 0 -123.5 45t-48.5 113q0 84 68.5 145t158.5 61q73 0 122.5 -44.5t49.5 -110.5q0 -80 -68 -144.5t-159 -64.5zM436 -35
q-185 0 -297 80.5t-112 224.5q0 73 28 131.5t71 97t112.5 69.5t134 49t153.5 36q41 9 94.5 18t92 15.5t81 14.5t71.5 17.5t53.5 21.5t36.5 29t12 38q0 44 -48.5 70t-134.5 26q-212 0 -299 -160l-315 107q47 89 120 154.5t162.5 103t184.5 55t199 17.5q259 0 388.5 -109
t94.5 -307l-72 -406q-22 -126 -26 -207.5t6 -150.5h-353q-13 54 0 119h-4q-68 -72 -185.5 -113t-248.5 -41zM578 225q126 0 215.5 58t109.5 139l17 67l-279 -53q-105 -21 -163 -58t-58 -77q0 -34 42 -55t116 -21z" />
    <glyph glyph-name="aring" unicode="&#xe5;" horiz-adv-x="1439" 
d="M854 1257q-119 0 -197.5 65t-78.5 163q0 116 107.5 204.5t254.5 88.5q121 0 197.5 -63.5t76.5 -162.5q0 -117 -106.5 -206t-253.5 -89zM881 1440q48 0 84 27.5t36 60.5q0 27 -25.5 46t-64.5 19q-49 0 -84.5 -27t-35.5 -61q0 -28 25.5 -46.5t64.5 -18.5zM436 -35
q-185 0 -297 80.5t-112 224.5q0 73 28 131.5t71 97t112.5 69.5t134 49t153.5 36q41 9 94.5 18t92 15.5t81 14.5t71.5 17.5t53.5 21.5t36.5 29t12 38q0 44 -48.5 70t-134.5 26q-212 0 -299 -160l-315 107q47 89 120 154.5t162.5 103t184.5 55t199 17.5q259 0 388.5 -109
t94.5 -307l-72 -406q-22 -126 -26 -207.5t6 -150.5h-353q-13 54 0 119h-4q-68 -72 -185.5 -113t-248.5 -41zM578 225q126 0 215.5 58t109.5 139l17 67l-279 -53q-105 -21 -163 -58t-58 -77q0 -34 42 -55t116 -21z" />
    <glyph glyph-name="ae" unicode="&#xe6;" horiz-adv-x="2381" 
d="M444 -35q-116 0 -207 29.5t-150.5 100.5t-59.5 177q0 59 21 110t52 86.5t79 66t90 49t98.5 34t90.5 22.5t79 15q33 5 93 14.5t91 14.5t77.5 14t71 18t50 22t36.5 29t11 36q0 43 -51.5 71.5t-133.5 28.5q-94 0 -172.5 -40.5t-124.5 -119.5l-315 107q90 168 270.5 249
t395.5 81q143 0 252.5 -30.5t162.5 -86.5q207 117 488 117q106 0 200 -26t169.5 -76.5t125.5 -126t68.5 -174.5t-2.5 -222l-14 -84h-1012q1 -92 88 -144.5t223 -52.5q106 0 201 35t153 107l314 -131q-101 -137 -289 -228.5t-422 -91.5q-180 0 -320.5 51.5t-213.5 147.5h-9
q-225 -199 -555 -199zM1319 713h637q-4 48 -28.5 83t-65 54t-86 28t-97.5 9q-119 0 -215 -48t-145 -126zM571 225q130 0 223 59.5t109 137.5l15 70q-199 -40 -254 -48q-98 -15 -171 -52t-73 -83q0 -84 151 -84z" />
    <glyph glyph-name="ccedilla" unicode="&#xe7;" horiz-adv-x="1492" 
d="M737 293q112 0 209 42t158 130l313 -131q-97 -160 -280 -259t-402 -108l-63 -55q28 4 55 4q97 0 159 -46t62 -130q0 -118 -110 -194t-277 -76q-110 0 -196 36t-129 99l131 133q70 -98 208 -98q63 0 101.5 22t38.5 57q0 29 -30 45.5t-77 16.5q-62 0 -110 -31l-97 74
l146 151q-224 32 -351.5 164.5t-127.5 335.5q0 109 39 214t112.5 193t172.5 155t227 105t268 38q222 0 381 -100.5t202 -268.5l-352 -131q-22 91 -95.5 131.5t-176.5 40.5q-169 0 -288.5 -97t-119.5 -229q0 -110 83 -171.5t216 -61.5z" />
    <glyph glyph-name="egrave" unicode="&#xe8;" horiz-adv-x="1511" 
d="M1055 1278h-307l-308 375h416zM684 -35q-280 0 -448 138.5t-168 369.5q0 134 61.5 262t167 226.5t257 158.5t320.5 60q131 0 243 -41t191.5 -117.5t113.5 -197.5t8 -269l-15 -82h-997q1 -68 44 -114.5t111 -66.5t156 -20q104 0 195 35.5t147 108.5l315 -131
q-97 -134 -284.5 -227t-417.5 -93zM471 698h623q3 95 -72 143t-195 48q-122 0 -216 -52.5t-140 -138.5z" />
    <glyph glyph-name="eacute" unicode="&#xe9;" horiz-adv-x="1511" 
d="M1454 1653l-438 -375h-307l329 375h416zM684 -35q-280 0 -448 138.5t-168 369.5q0 134 61.5 262t167 226.5t257 158.5t320.5 60q131 0 243 -41t191.5 -117.5t113.5 -197.5t8 -269l-15 -82h-997q1 -68 44 -114.5t111 -66.5t156 -20q104 0 195 35.5t147 108.5l315 -131
q-97 -134 -284.5 -227t-417.5 -93zM471 698h623q3 95 -72 143t-195 48q-122 0 -216 -52.5t-140 -138.5z" />
    <glyph glyph-name="ecircumflex" unicode="&#xea;" horiz-adv-x="1511" 
d="M686 1278h-334l420 375h358l291 -375h-334q-21 24 -37.5 34.5t-44 38t-81.5 99.5q-30 -22 -55.5 -33t-64 -38.5t-118.5 -100.5zM684 -35q-280 0 -448 138.5t-168 369.5q0 134 61.5 262t167 226.5t257 158.5t320.5 60q131 0 243 -41t191.5 -117.5t113.5 -197.5t8 -269
l-15 -82h-997q1 -68 44 -114.5t111 -66.5t156 -20q104 0 195 35.5t147 108.5l315 -131q-97 -134 -284.5 -227t-417.5 -93zM471 698h623q3 95 -72 143t-195 48q-122 0 -216 -52.5t-140 -138.5z" />
    <glyph glyph-name="edieresis" unicode="&#xeb;" horiz-adv-x="1511" 
d="M610 1276q-73 0 -121.5 45t-48.5 113q0 80 69 143t159 63q73 0 122.5 -44.5t49.5 -110.5q0 -80 -69.5 -144.5t-160.5 -64.5zM1176 1276q-75 0 -123.5 45t-48.5 113q0 84 68.5 145t158.5 61q73 0 122.5 -44.5t49.5 -110.5q0 -80 -68 -144.5t-159 -64.5zM684 -35
q-280 0 -448 138.5t-168 369.5q0 134 61.5 262t167 226.5t257 158.5t320.5 60q131 0 243 -41t191.5 -117.5t113.5 -197.5t8 -269l-15 -82h-997q1 -68 44 -114.5t111 -66.5t156 -20q104 0 195 35.5t147 108.5l315 -131q-97 -134 -284.5 -227t-417.5 -93zM471 698h623
q3 95 -72 143t-195 48q-122 0 -216 -52.5t-140 -138.5z" />
    <glyph glyph-name="igrave" unicode="&#xec;" horiz-adv-x="681" 
d="M631 1257h-307l-308 375h416zM418 0h-355l203 1147h355z" />
    <glyph glyph-name="iacute" unicode="&#xed;" horiz-adv-x="681" 
d="M1030 1632l-438 -375h-307l329 375h416zM418 0h-355l203 1147h355z" />
    <glyph glyph-name="icircumflex" unicode="&#xee;" horiz-adv-x="681" 
d="M262 1257h-334l420 375h359l290 -375h-333q-18 21 -32.5 32t-24.5 17.5t-37.5 37t-69.5 86.5q-30 -22 -55.5 -33.5t-64 -39t-118.5 -100.5zM418 0h-355l203 1147h355z" />
    <glyph glyph-name="idieresis" unicode="&#xef;" horiz-adv-x="681" 
d="M186 1255q-73 0 -121.5 45t-48.5 113q0 80 69 143.5t159 63.5q73 0 122.5 -45t49.5 -111q0 -80 -69.5 -144.5t-160.5 -64.5zM752 1255q-75 0 -123.5 45t-48.5 113q0 84 68.5 145.5t158.5 61.5q73 0 122.5 -45t49.5 -111q0 -80 -68 -144.5t-159 -64.5zM418 0h-355
l203 1147h355z" />
    <glyph glyph-name="eth" unicode="&#xf0;" horiz-adv-x="1619" 
d="M1454 1497l-154 -67q263 -236 263 -582q0 -137 -39.5 -267t-116.5 -241.5t-182.5 -195.5t-246.5 -131.5t-300 -47.5q-279 0 -448 131t-169 350q0 122 58.5 235t159 197.5t243.5 134.5t303 50q124 0 209.5 -30t159.5 -101h6q-40 191 -246 344l-323 -143l-74 155l221 98
q-135 68 -278 107l135 262q302 -86 502 -209l233 105zM719 281q164 0 278.5 82t114.5 198q0 92 -80 146.5t-207 54.5q-164 0 -279.5 -82.5t-115.5 -196.5q0 -92 78.5 -147t210.5 -55z" />
    <glyph glyph-name="ntilde" unicode="&#xf1;" horiz-adv-x="1568" 
d="M1098 1264q-107 0 -160 34l-66 41q-44 29 -90 29q-39 0 -66.5 -25t-35.5 -61h-252q26 156 132.5 250t244.5 94q89 0 172 -45l57 -33q28 -16 72 -16q35 0 57.5 21.5t30.5 58.5h254q-27 -170 -118.5 -259t-231.5 -89zM418 0h-355l203 1147h348l-28 -150h4q87 86 208 134.5
t253 48.5q96 0 175.5 -29.5t136 -84.5t79.5 -143.5t4 -197.5l-127 -725h-354l108 573q6 33 6.5 67t-9 73.5t-31 69t-64.5 49.5t-103 20q-301 0 -352 -279z" />
    <glyph glyph-name="ograve" unicode="&#xf2;" horiz-adv-x="1574" 
d="M1079 1278h-307l-307 375h416zM680 -35q-281 0 -446.5 138t-165.5 370q0 136 62 264.5t169 226t263 157t333 59.5q280 0 446 -139.5t166 -372.5q0 -136 -61.5 -263.5t-168 -225t-263 -156t-334.5 -58.5zM731 293q169 0 286.5 98.5t117.5 235.5q0 104 -78.5 164.5
t-208.5 60.5q-88 0 -165.5 -29t-130 -75.5t-82.5 -106.5t-30 -121q0 -103 79.5 -165t211.5 -62z" />
    <glyph glyph-name="oacute" unicode="&#xf3;" horiz-adv-x="1574" 
d="M1479 1653l-439 -375h-307l330 375h416zM680 -35q-281 0 -446.5 138t-165.5 370q0 136 62 264.5t169 226t263 157t333 59.5q280 0 446 -139.5t166 -372.5q0 -136 -61.5 -263.5t-168 -225t-263 -156t-334.5 -58.5zM731 293q169 0 286.5 98.5t117.5 235.5
q0 104 -78.5 164.5t-208.5 60.5q-88 0 -165.5 -29t-130 -75.5t-82.5 -106.5t-30 -121q0 -103 79.5 -165t211.5 -62z" />
    <glyph glyph-name="ocircumflex" unicode="&#xf4;" horiz-adv-x="1574" 
d="M711 1278h-334l420 375h358l291 -375h-334q-21 24 -38 34.5t-44.5 38t-81.5 99.5q-30 -22 -55.5 -33t-63.5 -38.5t-118 -100.5zM680 -35q-281 0 -446.5 138t-165.5 370q0 136 62 264.5t169 226t263 157t333 59.5q280 0 446 -139.5t166 -372.5q0 -136 -61.5 -263.5
t-168 -225t-263 -156t-334.5 -58.5zM731 293q169 0 286.5 98.5t117.5 235.5q0 104 -78.5 164.5t-208.5 60.5q-88 0 -165.5 -29t-130 -75.5t-82.5 -106.5t-30 -121q0 -103 79.5 -165t211.5 -62z" />
    <glyph glyph-name="otilde" unicode="&#xf5;" horiz-adv-x="1574" 
d="M1110 1264q-107 0 -160 34l-65 41q-43 29 -90 29q-39 0 -67 -25t-36 -61h-252q26 156 132.5 250t244.5 94q89 0 172 -45l58 -33q28 -16 71 -16q35 0 57.5 21.5t30.5 58.5h254q-27 -170 -118.5 -259t-231.5 -89zM680 -35q-281 0 -446.5 138t-165.5 370q0 136 62 264.5
t169 226t263 157t333 59.5q280 0 446 -139.5t166 -372.5q0 -136 -61.5 -263.5t-168 -225t-263 -156t-334.5 -58.5zM731 293q169 0 286.5 98.5t117.5 235.5q0 104 -78.5 164.5t-208.5 60.5q-88 0 -165.5 -29t-130 -75.5t-82.5 -106.5t-30 -121q0 -103 79.5 -165t211.5 -62z
" />
    <glyph glyph-name="odieresis" unicode="&#xf6;" horiz-adv-x="1574" 
d="M635 1276q-73 0 -121.5 45t-48.5 113q0 80 68.5 143t158.5 63q73 0 122.5 -44.5t49.5 -110.5q0 -81 -69 -145t-160 -64zM1200 1276q-75 0 -123.5 45t-48.5 113q0 84 68.5 145t158.5 61q73 0 122.5 -44.5t49.5 -110.5q0 -80 -68 -144.5t-159 -64.5zM680 -35
q-281 0 -446.5 138t-165.5 370q0 136 62 264.5t169 226t263 157t333 59.5q280 0 446 -139.5t166 -372.5q0 -136 -61.5 -263.5t-168 -225t-263 -156t-334.5 -58.5zM731 293q169 0 286.5 98.5t117.5 235.5q0 104 -78.5 164.5t-208.5 60.5q-88 0 -165.5 -29t-130 -75.5
t-82.5 -106.5t-30 -121q0 -103 79.5 -165t211.5 -62z" />
    <glyph glyph-name="divide" unicode="&#xf7;" horiz-adv-x="1339" 
d="M721 870q-69 0 -114.5 43.5t-45.5 108.5q0 77 65 136t152 59q69 0 115.5 -42t46.5 -106q0 -77 -66.5 -138t-152.5 -61zM1208 500h-1093l39 256h1093zM586 41q-69 0 -115.5 43.5t-46.5 108.5q0 76 64.5 135t150.5 59q71 0 118.5 -42t47.5 -105q0 -78 -67 -138.5
t-152 -60.5z" />
    <glyph glyph-name="oslash" unicode="&#xf8;" horiz-adv-x="1574" 
d="M1270 1190h375l-236 -219q98 -128 98 -303q0 -136 -61.5 -263.5t-168 -225t-263 -156t-334.5 -58.5q-168 0 -293 49l-76 -71h-383l242 225q-102 127 -102 305q0 136 62 264.5t169 226t263 157t333 59.5q172 0 305 -56zM440 520q0 -40 17 -86l446 414q-36 4 -55 4
q-88 0 -165.5 -29t-130 -75.5t-82.5 -106.5t-30 -121zM1135 627q0 36 -13 73l-434 -405q14 -2 43 -2q169 0 286.5 98.5t117.5 235.5z" />
    <glyph glyph-name="ugrave" unicode="&#xf9;" horiz-adv-x="1548" 
d="M1067 1278h-307l-307 375h415zM539 -35q-234 0 -343 122t-71 341l127 719h354l-112 -604q-20 -105 29 -177.5t165 -72.5q129 0 220 66.5t112 183.5l108 604h355l-137 -789q-24 -137 -27.5 -207t6.5 -151h-354q-7 88 2 115h-6q-168 -150 -428 -150z" />
    <glyph glyph-name="uacute" unicode="&#xfa;" horiz-adv-x="1548" 
d="M1466 1653l-438 -375h-307l330 375h415zM539 -35q-234 0 -343 122t-71 341l127 719h354l-112 -604q-20 -105 29 -177.5t165 -72.5q129 0 220 66.5t112 183.5l108 604h355l-137 -789q-24 -137 -27.5 -207t6.5 -151h-354q-7 88 2 115h-6q-168 -150 -428 -150z" />
    <glyph glyph-name="ucircumflex" unicode="&#xfb;" horiz-adv-x="1548" 
d="M698 1278h-333l419 375h359l291 -375h-334q-21 24 -38 34.5t-44.5 38t-81.5 99.5q-30 -22 -55.5 -33t-64 -38.5t-118.5 -100.5zM539 -35q-234 0 -343 122t-71 341l127 719h354l-112 -604q-20 -105 29 -177.5t165 -72.5q129 0 220 66.5t112 183.5l108 604h355l-137 -789
q-24 -137 -27.5 -207t6.5 -151h-354q-7 88 2 115h-6q-168 -150 -428 -150z" />
    <glyph glyph-name="udieresis" unicode="&#xfc;" horiz-adv-x="1548" 
d="M623 1276q-73 0 -121.5 45t-48.5 113q0 80 68.5 143t158.5 63q73 0 122.5 -44.5t49.5 -110.5q0 -81 -69 -145t-160 -64zM1188 1276q-75 0 -123.5 45t-48.5 113q0 84 68.5 145t158.5 61q73 0 122.5 -44.5t49.5 -110.5q0 -80 -68 -144.5t-159 -64.5zM539 -35
q-234 0 -343 122t-71 341l127 719h354l-112 -604q-20 -105 29 -177.5t165 -72.5q129 0 220 66.5t112 183.5l108 604h355l-137 -789q-24 -137 -27.5 -207t6.5 -151h-354q-7 88 2 115h-6q-168 -150 -428 -150z" />
    <glyph glyph-name="yacute" unicode="&#xfd;" horiz-adv-x="1441" 
d="M1409 1653l-438 -375h-307l329 375h416zM551 -451h-381l256 390l-320 1208h392q105 -398 184 -750h4q169 272 471 750h381z" />
    <glyph glyph-name="thorn" unicode="&#xfe;" horiz-adv-x="1628" 
d="M338 -451h-354l368 2089h355l-117 -634h6q194 176 463 176q227 0 365.5 -134.5t138.5 -357.5q0 -142 -59 -275t-157.5 -231.5t-235 -157.5t-284.5 -59q-262 0 -378 158h-5zM791 293q165 0 283 97.5t118 230.5q0 104 -77.5 167.5t-205.5 63.5q-166 0 -285.5 -98
t-119.5 -230q0 -104 79 -167.5t208 -63.5z" />
    <glyph glyph-name="ydieresis" unicode="&#xff;" horiz-adv-x="1441" 
d="M565 1276q-73 0 -121.5 45t-48.5 113q0 80 69 143t159 63q73 0 122.5 -44.5t49.5 -110.5q0 -80 -69.5 -144.5t-160.5 -64.5zM1130 1276q-75 0 -123.5 45t-48.5 113q0 84 69 145t159 61q73 0 122.5 -44.5t49.5 -110.5q0 -79 -68.5 -144t-159.5 -65zM551 -451h-381l256 390
l-320 1208h392q105 -398 184 -750h4q169 272 471 750h381z" />
    <glyph glyph-name="Amacron" unicode="&#x100;" horiz-adv-x="1888" 
d="M1604 1741h-910l39 250h907zM291 0h-391l1007 1597h441l442 -1597h-399q-20 61 -58 183t-57 182h-744q-23 -34 -107.5 -163t-133.5 -202zM764 719h407q-61 211 -122 438h-7q-199 -318 -278 -438z" />
    <glyph glyph-name="amacron" unicode="&#x101;" horiz-adv-x="1439" 
d="M1280 1300h-825l34 236h826zM436 -35q-185 0 -297 80.5t-112 224.5q0 73 28 131.5t71 97t112.5 69.5t134 49t153.5 36q41 9 94.5 18t92 15.5t81 14.5t71.5 17.5t53.5 21.5t36.5 29t12 38q0 44 -48.5 70t-134.5 26q-212 0 -299 -160l-315 107q47 89 120 154.5t162.5 103
t184.5 55t199 17.5q259 0 388.5 -109t94.5 -307l-72 -406q-22 -126 -26 -207.5t6 -150.5h-353q-13 54 0 119h-4q-68 -72 -185.5 -113t-248.5 -41zM578 225q126 0 215.5 58t109.5 139l17 67l-279 -53q-105 -21 -163 -58t-58 -77q0 -34 42 -55t116 -21z" />
    <glyph glyph-name="Abreve" unicode="&#x102;" horiz-adv-x="1888" 
d="M1141 1712q-210 0 -326.5 105.5t-93.5 275.5h301q-8 -60 30.5 -102.5t123.5 -42.5q87 0 142.5 41.5t70.5 103.5h301q-32 -170 -185 -275.5t-364 -105.5zM291 0h-391l1007 1597h441l442 -1597h-399q-20 61 -58 183t-57 182h-744q-23 -34 -107.5 -163t-133.5 -202zM764 719
h407q-61 211 -122 438h-7q-199 -318 -278 -438z" />
    <glyph glyph-name="abreve" unicode="&#x103;" horiz-adv-x="1439" 
d="M854 1264q-208 0 -315.5 109t-83.5 286h288q-13 -59 26.5 -107.5t127.5 -48.5q85 0 144.5 48t74.5 108h289q-40 -186 -193 -290.5t-358 -104.5zM436 -35q-185 0 -297 80.5t-112 224.5q0 73 28 131.5t71 97t112.5 69.5t134 49t153.5 36q41 9 94.5 18t92 15.5t81 14.5
t71.5 17.5t53.5 21.5t36.5 29t12 38q0 44 -48.5 70t-134.5 26q-212 0 -299 -160l-315 107q47 89 120 154.5t162.5 103t184.5 55t199 17.5q259 0 388.5 -109t94.5 -307l-72 -406q-22 -126 -26 -207.5t6 -150.5h-353q-13 54 0 119h-4q-68 -72 -185.5 -113t-248.5 -41zM578 225
q126 0 215.5 58t109.5 139l17 67l-279 -53q-105 -21 -163 -58t-58 -77q0 -34 42 -55t116 -21z" />
    <glyph glyph-name="Aogonek" unicode="&#x104;" horiz-adv-x="1888" 
d="M1399 -154q0 -35 40 -65.5t120 -30.5q64 0 110 10l-33 -204q-67 -19 -166 -19q-89 0 -162 20t-122 67.5t-49 115.5q0 84 73.5 153.5t178.5 106.5h2q-20 61 -58 183t-57 182h-744q-23 -34 -107.5 -163t-133.5 -202h-391l1007 1597h441l442 -1597h-162q-109 -11 -169 -60
t-60 -94zM764 719h407q-61 211 -122 438h-7q-199 -318 -278 -438z" />
    <glyph glyph-name="aogonek" unicode="&#x105;" horiz-adv-x="1439" 
d="M836 1180q259 0 388.5 -109t94.5 -307l-72 -406q-22 -126 -26 -207.5t6 -150.5h-121q-103 -14 -162 -61t-59 -95q0 -34 37.5 -57t99.5 -23q67 0 119 17l-37 -230q-63 -14 -139 -14q-158 0 -247 55t-89 152q0 84 72 155t180 101h-7q-13 54 0 119h-4q-68 -72 -185.5 -113
t-248.5 -41q-185 0 -297 80.5t-112 224.5q0 73 28 131.5t71 97t112.5 69.5t134 49t153.5 36q41 9 94.5 18t92 15.5t81 14.5t71.5 17.5t53.5 21.5t36.5 29t12 38q0 44 -48.5 70t-134.5 26q-212 0 -299 -160l-315 107q47 89 120 154.5t162.5 103t184.5 55t199 17.5zM578 225
q126 0 215.5 58t109.5 139l17 67l-279 -53q-105 -21 -163 -58t-58 -77q0 -34 42 -55t116 -21z" />
    <glyph glyph-name="Cacute" unicode="&#x106;" horiz-adv-x="2035" 
d="M1880 2095l-453 -375h-321l340 375h434zM981 -35q-393 0 -626.5 191.5t-233.5 515.5q0 152 55.5 296t159.5 263t241.5 209t312 140t361.5 50q312 0 525 -141.5t274 -372.5l-369 -135q-22 63 -61 116t-96.5 97t-140.5 69t-183 25q-118 0 -225.5 -33t-190 -90t-143.5 -131
t-93 -159.5t-32 -172.5q0 -88 30.5 -157.5t80.5 -113t118.5 -72.5t139.5 -40.5t149 -11.5q217 0 383.5 93.5t261.5 256.5l332 -114q-82 -155 -196 -268.5t-248.5 -180t-279.5 -98t-306 -31.5z" />
    <glyph glyph-name="cacute" unicode="&#x107;" horiz-adv-x="1492" 
d="M1427 1653l-438 -375h-307l330 375h415zM686 -35q-284 0 -451 137.5t-167 372.5q0 109 39 214t112.5 193t172.5 155t227 105t268 38q222 0 381 -100.5t202 -268.5l-352 -131q-22 91 -95.5 131.5t-176.5 40.5q-169 0 -288.5 -97t-119.5 -229q0 -110 83 -171.5t216 -61.5
q112 0 209 42t158 130l313 -131q-103 -169 -300 -269t-431 -100z" />
    <glyph glyph-name="Cdotaccent" unicode="&#x10a;" horiz-adv-x="2035" 
d="M1266 1743q-82 0 -135.5 49.5t-53.5 124.5q0 91 75.5 159t176.5 68q82 0 134.5 -48t52.5 -122q0 -91 -75.5 -161t-174.5 -70zM981 -35q-393 0 -626.5 191.5t-233.5 515.5q0 152 55.5 296t159.5 263t241.5 209t312 140t361.5 50q312 0 525 -141.5t274 -372.5l-369 -135
q-22 63 -61 116t-96.5 97t-140.5 69t-183 25q-118 0 -225.5 -33t-190 -90t-143.5 -131t-93 -159.5t-32 -172.5q0 -88 30.5 -157.5t80.5 -113t118.5 -72.5t139.5 -40.5t149 -11.5q217 0 383.5 93.5t261.5 256.5l332 -114q-82 -155 -196 -268.5t-248.5 -180t-279.5 -98
t-306 -31.5z" />
    <glyph glyph-name="cdotaccent" unicode="&#x10b;" horiz-adv-x="1492" 
d="M868 1278q-82 0 -135 49.5t-53 124.5q0 91 75.5 159t176.5 68q81 0 133.5 -48t52.5 -122q0 -91 -75.5 -161t-174.5 -70zM686 -35q-284 0 -451 137.5t-167 372.5q0 109 39 214t112.5 193t172.5 155t227 105t268 38q222 0 381 -100.5t202 -268.5l-352 -131
q-22 91 -95.5 131.5t-176.5 40.5q-169 0 -288.5 -97t-119.5 -229q0 -110 83 -171.5t216 -61.5q112 0 209 42t158 130l313 -131q-103 -169 -300 -269t-431 -100z" />
    <glyph glyph-name="Ccaron" unicode="&#x10c;" horiz-adv-x="2035" 
d="M1511 2095h330l-407 -375h-353l-282 375h329q27 -25 81.5 -76.5t82.5 -76.5q31 20 101.5 73t117.5 80zM981 -35q-393 0 -626.5 191.5t-233.5 515.5q0 152 55.5 296t159.5 263t241.5 209t312 140t361.5 50q312 0 525 -141.5t274 -372.5l-369 -135q-22 63 -61 116t-96.5 97
t-140.5 69t-183 25q-118 0 -225.5 -33t-190 -90t-143.5 -131t-93 -159.5t-32 -172.5q0 -88 30.5 -157.5t80.5 -113t118.5 -72.5t139.5 -40.5t149 -11.5q217 0 383.5 93.5t261.5 256.5l332 -114q-82 -155 -196 -268.5t-248.5 -180t-279.5 -98t-306 -31.5z" />
    <glyph glyph-name="ccaron" unicode="&#x10d;" horiz-adv-x="1492" 
d="M1042 1298h-358l-287 396h334q21 -21 39.5 -32.5t44 -38.5t82.5 -101q30 24 53.5 34.5t63.5 38t119 99.5h333zM686 -35q-284 0 -451 137.5t-167 372.5q0 109 39 214t112.5 193t172.5 155t227 105t268 38q222 0 381 -100.5t202 -268.5l-352 -131q-22 91 -95.5 131.5
t-176.5 40.5q-169 0 -288.5 -97t-119.5 -229q0 -110 83 -171.5t216 -61.5q112 0 209 42t158 130l313 -131q-103 -169 -300 -269t-431 -100z" />
    <glyph glyph-name="Dcaron" unicode="&#x10e;" horiz-adv-x="1949" 
d="M1368 2095h330l-408 -375h-352l-283 375h330q28 -25 82.5 -76.5t81.5 -76.5q31 20 101.5 73t117.5 80zM864 0h-766l283 1597h743q393 0 589 -170t196 -475q0 -147 -47 -287.5t-138 -260.5t-216 -210.5t-291.5 -142t-352.5 -51.5zM524 336h344q291 0 467 155t176 394
q0 69 -11.5 124t-37.5 93.5t-52.5 66.5t-72 45t-79 27.5t-91 14.5t-91.5 5t-95 1h-274q-14 -71 -28 -128t-25 -102.5t-43.5 -219.5t-86.5 -476z" />
    <glyph glyph-name="dcaron" unicode="&#x10f;" horiz-adv-x="1636" 
d="M1831 1063h-205l252 301q-54 22 -83.5 62.5t-29.5 93.5q0 93 79 164t181 71q82 0 136.5 -50.5t54.5 -125.5q0 -70 -63 -152.5t-296 -334.5q-4 -5 -6.5 -7.5t-6 -6.5l-7 -8t-6.5 -7zM594 -35q-243 0 -383.5 132.5t-140.5 361.5q0 187 95.5 352.5t266 267t373.5 101.5
q138 0 234.5 -45t144.5 -111h4l115 614h354l-225 -1280q-24 -128 -26.5 -215t7.5 -143h-352q-8 92 2 115h-6q-85 -78 -207.5 -114t-255.5 -36zM723 295q165 0 286 98t121 232q0 103 -78.5 166t-207.5 63q-166 0 -284 -96.5t-118 -229.5q0 -106 76.5 -169.5t204.5 -63.5z" />
    <glyph glyph-name="Dcroat" unicode="&#x110;" horiz-adv-x="1949" 
d="M381 1597h743q393 0 589 -170t196 -475q0 -147 -47 -287.5t-138 -260.5t-216 -210.5t-291.5 -142t-352.5 -51.5h-766l115 653h-248l43 289h256zM868 336q291 0 467 155t176 394q0 69 -11.5 124t-37.5 93.5t-52.5 66.5t-72 45t-79 27.5t-91 14.5t-91.5 5t-95 1h-274
q-15 -74 -34 -150t-38 -170h395l-43 -289h-405q-22 -119 -58 -317h344z" />
    <glyph glyph-name="dcroat" unicode="&#x111;" horiz-adv-x="1636" 
d="M1632 1495h314l-37 -252h-322l-155 -885q-24 -128 -26.5 -215t7.5 -143h-352q-8 92 2 115h-6q-85 -78 -207.5 -114t-255.5 -36q-243 0 -383.5 132.5t-140.5 361.5q0 187 95.5 352.5t266 267t373.5 101.5q138 0 234.5 -45t144.5 -111h4l41 219h-301l39 252h309l27 143h354
zM723 295q165 0 286 98t121 232q0 103 -78.5 166t-207.5 63q-166 0 -284 -96.5t-118 -229.5q0 -106 76.5 -169.5t204.5 -63.5z" />
    <glyph glyph-name="Emacron" unicode="&#x112;" horiz-adv-x="1589" 
d="M1493 1741h-909l39 250h907zM1378 0h-1280l283 1597h1255l-49 -335h-880q-5 -25 -11.5 -42t-11.5 -29.5t-15.5 -64t-25.5 -141.5h832l-54 -354h-831l-10.5 -45t-6 -28.5t-15.5 -71t-34 -150.5h903z" />
    <glyph glyph-name="emacron" unicode="&#x113;" horiz-adv-x="1511" 
d="M1311 1300h-826l35 236h826zM684 -35q-280 0 -448 138.5t-168 369.5q0 134 61.5 262t167 226.5t257 158.5t320.5 60q131 0 243 -41t191.5 -117.5t113.5 -197.5t8 -269l-15 -82h-997q1 -68 44 -114.5t111 -66.5t156 -20q104 0 195 35.5t147 108.5l315 -131
q-97 -134 -284.5 -227t-417.5 -93zM471 698h623q3 95 -72 143t-195 48q-122 0 -216 -52.5t-140 -138.5z" />
    <glyph glyph-name="Edotaccent" unicode="&#x116;" horiz-adv-x="1589" 
d="M1038 1743q-82 0 -135 49.5t-53 124.5q0 91 75.5 159t176.5 68q81 0 133.5 -48t52.5 -122q0 -91 -75.5 -161t-174.5 -70zM1378 0h-1280l283 1597h1255l-49 -335h-880q-5 -25 -11.5 -42t-11.5 -29.5t-15.5 -64t-25.5 -141.5h832l-54 -354h-831l-10.5 -45t-6 -28.5
t-15.5 -71t-34 -150.5h903z" />
    <glyph glyph-name="edotaccent" unicode="&#x117;" horiz-adv-x="1511" 
d="M895 1278q-82 0 -135 49.5t-53 124.5q0 91 75 159t176 68q82 0 134.5 -48t52.5 -122q0 -91 -75.5 -161t-174.5 -70zM684 -35q-280 0 -448 138.5t-168 369.5q0 134 61.5 262t167 226.5t257 158.5t320.5 60q131 0 243 -41t191.5 -117.5t113.5 -197.5t8 -269l-15 -82h-997
q1 -68 44 -114.5t111 -66.5t156 -20q104 0 195 35.5t147 108.5l315 -131q-97 -134 -284.5 -227t-417.5 -93zM471 698h623q3 95 -72 143t-195 48q-122 0 -216 -52.5t-140 -138.5z" />
    <glyph glyph-name="Eogonek" unicode="&#x118;" horiz-adv-x="1589" 
d="M1636 1597l-49 -335h-880q-5 -25 -11.5 -42t-11.5 -29.5t-15.5 -64t-25.5 -141.5h832l-54 -354h-831l-10.5 -45t-6 -28.5t-15.5 -71t-34 -150.5h903l-49 -336q-109 -11 -169 -60t-60 -94q0 -35 40 -65.5t120 -30.5q64 0 110 10l-33 -204q-66 -19 -165 -19
q-89 0 -162.5 20t-122.5 67.5t-49 115.5q0 84 73.5 153.5t178.5 106.5h-1041l283 1597h1255z" />
    <glyph glyph-name="eogonek" unicode="&#x119;" horiz-adv-x="1511" 
d="M874 1180q131 0 243 -41t191.5 -117.5t113.5 -197.5t8 -269l-15 -82h-997q1 -68 44 -114.5t111 -66.5t156 -20q104 0 195 35.5t147 108.5l315 -131q-76 -106 -214.5 -189t-311.5 -114q-65 -23 -102 -62.5t-37 -75.5q0 -34 37.5 -57t99.5 -23q67 0 119 17l-37 -230
q-63 -14 -139 -14q-158 0 -247 55t-89 152q0 66 45 125t121 98q-258 14 -410.5 150t-152.5 356q0 134 61.5 262t167 226.5t257 158.5t320.5 60zM471 698h623q3 95 -72 143t-195 48q-122 0 -216 -52.5t-140 -138.5z" />
    <glyph glyph-name="Ecaron" unicode="&#x11a;" horiz-adv-x="1589" 
d="M1284 2095h330l-408 -375h-352l-283 375h330q28 -25 82 -76.5t82 -76.5q31 20 101.5 73t117.5 80zM1378 0h-1280l283 1597h1255l-49 -335h-880q-5 -25 -11.5 -42t-11.5 -29.5t-15.5 -64t-25.5 -141.5h832l-54 -354h-831l-10.5 -45t-6 -28.5t-15.5 -71t-34 -150.5h903z
" />
    <glyph glyph-name="ecaron" unicode="&#x11b;" horiz-adv-x="1511" 
d="M1069 1298h-358l-287 396h334q21 -21 39.5 -32.5t44 -38.5t82.5 -101q30 24 53.5 34.5t63 38t118.5 99.5h334zM684 -35q-280 0 -448 138.5t-168 369.5q0 134 61.5 262t167 226.5t257 158.5t320.5 60q131 0 243 -41t191.5 -117.5t113.5 -197.5t8 -269l-15 -82h-997
q1 -68 44 -114.5t111 -66.5t156 -20q104 0 195 35.5t147 108.5l315 -131q-97 -134 -284.5 -227t-417.5 -93zM471 698h623q3 95 -72 143t-195 48q-122 0 -216 -52.5t-140 -138.5z" />
    <glyph glyph-name="Gbreve" unicode="&#x11e;" horiz-adv-x="2129" 
d="M1257 1712q-210 0 -326 105.5t-93 275.5h301q-8 -60 30 -102.5t123 -42.5q87 0 142.5 41.5t70.5 103.5h301q-32 -170 -185 -275.5t-364 -105.5zM930 -35q-370 0 -590.5 190t-220.5 507q0 190 87 367.5t236 309.5t360.5 211.5t446.5 79.5q314 0 528.5 -144.5t272.5 -369.5
l-369 -135q-52 138 -170 222.5t-307 84.5q-148 0 -278.5 -50.5t-219.5 -132.5t-140.5 -187.5t-51.5 -215.5q0 -92 34 -163.5t86.5 -114t125.5 -70t142.5 -37.5t144.5 -10q198 0 353 63.5t216 180.5h-498l43 295h875l-148 -846h-286q2 14 6 51.5t16 147.5h-12
q-258 -234 -682 -234z" />
    <glyph glyph-name="gbreve" unicode="&#x11f;" horiz-adv-x="1632" 
d="M938 1264q-208 0 -315.5 109t-83.5 286h288q-13 -59 26.5 -107.5t127.5 -48.5q85 0 144.5 48t74.5 108h289q-40 -186 -193 -290.5t-358 -104.5zM594 -483q-504 0 -594 325l338 113q31 -81 102 -115.5t187 -34.5q67 0 125 16t99 45t71.5 59t53.5 69.5t35 65t24 55.5
q2 5 3 8l9 20h-7q-145 -135 -430 -135q-249 0 -392.5 127t-143.5 348q0 134 57 261.5t153.5 223t233 154t285.5 58.5q141 0 239 -45t148 -111h4l27 123h348l-180 -1041q-17 -97 -51 -178.5t-79.5 -141t-104.5 -106.5t-123 -77t-138 -50t-147 -28t-152 -8zM733 336
q161 0 280.5 91.5t119.5 209.5q0 97 -81 157t-210 60q-162 0 -277.5 -91.5t-115.5 -209.5q0 -97 78.5 -157t205.5 -60z" />
    <glyph glyph-name="Gdotaccent" unicode="&#x120;" horiz-adv-x="2129" 
d="M1264 1743q-82 0 -135.5 49.5t-53.5 124.5q0 91 75.5 159t176.5 68q81 0 133.5 -48t52.5 -122q0 -91 -75 -161t-174 -70zM930 -35q-370 0 -590.5 190t-220.5 507q0 190 87 367.5t236 309.5t360.5 211.5t446.5 79.5q314 0 528.5 -144.5t272.5 -369.5l-369 -135
q-52 138 -170 222.5t-307 84.5q-148 0 -278.5 -50.5t-219.5 -132.5t-140.5 -187.5t-51.5 -215.5q0 -92 34 -163.5t86.5 -114t125.5 -70t142.5 -37.5t144.5 -10q198 0 353 63.5t216 180.5h-498l43 295h875l-148 -846h-286q2 14 6 51.5t16 147.5h-12q-258 -234 -682 -234z" />
    <glyph glyph-name="gdotaccent" unicode="&#x121;" horiz-adv-x="1632" 
d="M948 1278q-82 0 -135 49.5t-53 124.5q0 91 75.5 159t176.5 68q81 0 133.5 -48t52.5 -122q0 -91 -75.5 -161t-174.5 -70zM594 -483q-504 0 -594 325l338 113q31 -81 102 -115.5t187 -34.5q67 0 125 16t99 45t71.5 59t53.5 69.5t35 65t24 55.5q2 5 3 8l9 20h-7
q-145 -135 -430 -135q-249 0 -392.5 127t-143.5 348q0 134 57 261.5t153.5 223t233 154t285.5 58.5q141 0 239 -45t148 -111h4l27 123h348l-180 -1041q-17 -97 -51 -178.5t-79.5 -141t-104.5 -106.5t-123 -77t-138 -50t-147 -28t-152 -8zM733 336q161 0 280.5 91.5
t119.5 209.5q0 97 -81 157t-210 60q-162 0 -277.5 -91.5t-115.5 -209.5q0 -97 78.5 -157t205.5 -60z" />
    <glyph glyph-name="uni0122" unicode="&#x122;" horiz-adv-x="2129" 
d="M930 -35q-370 0 -590.5 190t-220.5 507q0 190 87 367.5t236 309.5t360.5 211.5t446.5 79.5q314 0 528.5 -144.5t272.5 -369.5l-369 -135q-52 138 -170 222.5t-307 84.5q-148 0 -278.5 -50.5t-219.5 -132.5t-140.5 -187.5t-51.5 -215.5q0 -92 34 -163.5t86.5 -114
t125.5 -70t142.5 -37.5t144.5 -10q198 0 353 63.5t216 180.5h-498l43 295h875l-148 -846h-286q2 14 6 51.5t16 147.5h-12q-258 -234 -682 -234zM838 -696h-191l203 252q-96 49 -96 143q0 77 65.5 137t157.5 60q74 0 121 -42.5t47 -109.5q0 -23 -8 -45.5t-19.5 -43.5t-41 -59
t-55.5 -69.5t-81.5 -98.5t-101.5 -124z" />
    <glyph glyph-name="uni0123" unicode="&#x123;" horiz-adv-x="1632" 
d="M764 1436q0 15 2.5 29t10 31t15.5 31t25 37.5t31.5 41.5t42.5 51.5t51 59.5t63.5 73t73.5 86h195l-209 -252q38 -20 65 -56t27 -85q0 -81 -68 -140t-159 -59q-74 0 -120 42.5t-46 109.5zM594 -483q-504 0 -594 325l338 113q31 -81 102 -115.5t187 -34.5q67 0 125 16
t99 45t71.5 59t53.5 69.5t35 65t24 55.5q2 5 3 8l9 20h-7q-145 -135 -430 -135q-249 0 -392.5 127t-143.5 348q0 134 57 261.5t153.5 223t233 154t285.5 58.5q141 0 239 -45t148 -111h4l27 123h348l-180 -1041q-17 -97 -51 -178.5t-79.5 -141t-104.5 -106.5t-123 -77
t-138 -50t-147 -28t-152 -8zM733 336q161 0 280.5 91.5t119.5 209.5q0 97 -81 157t-210 60q-162 0 -277.5 -91.5t-115.5 -209.5q0 -97 78.5 -157t205.5 -60z" />
    <glyph glyph-name="Hbar" unicode="&#x126;" horiz-adv-x="1992" 
d="M1935 1366h176l-40 -276h-185l-192 -1090h-377l108 608h-841l-109 -608h-377l193 1090h-180l41 276h188l41 231h377l-41 -231h842l40 231h377zM645 963h842l22 127h-841z" />
    <glyph glyph-name="hbar" unicode="&#x127;" horiz-adv-x="1568" 
d="M1051 1180q95 0 174.5 -29.5t136.5 -84.5t80 -143.5t4 -197.5l-127 -725h-354l108 573q6 33 6.5 67t-9 73.5t-31 69t-64.5 49.5t-103 20q-301 0 -352 -279l-102 -573h-355l218 1235h-263l39 252h269l26 151h355l-27 -151h356l-37 -252h-366l-43 -238h6q92 93 209.5 138
t245.5 45z" />
    <glyph glyph-name="Imacron" unicode="&#x12a;" horiz-adv-x="774" 
d="M1047 1741h-910l39 250h907zM475 0h-377l283 1597h377z" />
    <glyph glyph-name="imacron" unicode="&#x12b;" horiz-adv-x="681" 
d="M887 1280h-826l35 236h826zM418 0h-355l203 1147h355z" />
    <glyph glyph-name="Iogonek" unicode="&#x12e;" horiz-adv-x="774" 
d="M250 -154q0 -35 40 -65.5t120 -30.5q64 0 110 10l-33 -204q-67 -19 -165 -19q-89 0 -162.5 20t-122.5 67.5t-49 115.5q0 84 73.5 153.5t178.5 106.5h-142l283 1597h377l-283 -1597h4q-109 -11 -169 -60t-60 -94z" />
    <glyph glyph-name="iogonek" unicode="&#x12f;" horiz-adv-x="681" 
d="M535 1659q81 0 133.5 -48t52.5 -122q0 -91 -75.5 -161.5t-174.5 -70.5q-81 0 -134.5 50t-53.5 125q0 91 75.5 159t176.5 68zM152 0h-89l203 1147h355l-203 -1147h-41q-103 -14 -162 -61t-59 -95q0 -34 37.5 -57t99.5 -23q67 0 119 17l-37 -230q-63 -14 -139 -14
q-158 0 -247 55t-89 152q0 84 72 155t180 101z" />
    <glyph glyph-name="Idotaccent" unicode="&#x130;" horiz-adv-x="774" 
d="M590 1743q-82 0 -135.5 49.5t-53.5 124.5q0 91 75.5 159t176.5 68q82 0 134.5 -48t52.5 -122q0 -91 -75.5 -161t-174.5 -70zM475 0h-377l283 1597h377z" />
    <glyph glyph-name="dotlessi" unicode="&#x131;" horiz-adv-x="681" 
d="M418 0h-355l203 1147h355z" />
    <glyph glyph-name="uni0136" unicode="&#x136;" horiz-adv-x="1763" 
d="M473 0h-377l283 1597h377q-59 -340 -117 -661h10q551 438 854 661h443q-758 -606 -865 -692l617 -905h-457q-237 322 -461 649q-37 -33 -225 -188q-65 -371 -82 -461zM414 -696h-191l203 252q-96 49 -96 143q0 77 65.5 137t157.5 60q74 0 121 -42.5t47 -109.5
q0 -23 -8 -45.5t-19.5 -43.5t-41 -59t-55.5 -69.5t-81.5 -98.5t-101.5 -124z" />
    <glyph glyph-name="uni0137" unicode="&#x137;" horiz-adv-x="1415" 
d="M1079 1147h422l-588 -479l447 -668h-418l-301 442l-162 -131l-59 -311h-357l289 1638h357l-164 -886h6q101 81 267 201t261 194zM629 -104q74 0 121 -42.5t47 -109.5q0 -22 -8 -45t-19.5 -44t-41 -59t-56 -70t-81.5 -98t-102 -124h-190l203 252q-96 49 -96 143
q0 77 65.5 137t157.5 60z" />
    <glyph glyph-name="Lacute" unicode="&#x139;" horiz-adv-x="1433" 
d="M825 2095h435l-453 -375h-322zM758 1597l-223 -1261h823l-49 -336h-1211l283 1597h377z" />
    <glyph glyph-name="lacute" unicode="&#x13a;" horiz-adv-x="681" 
d="M1186 2136l-453 -375h-321l340 375h434zM418 0h-355l289 1638h355z" />
    <glyph glyph-name="uni013B" unicode="&#x13b;" horiz-adv-x="1433" 
d="M758 1597l-223 -1261h823l-49 -336h-1211l283 1597h377zM662 -104q74 0 120.5 -42.5t46.5 -109.5q0 -23 -8 -45.5t-19.5 -43.5t-41 -59t-55.5 -69.5t-81.5 -98.5t-101.5 -124h-190l203 252q-97 49 -97 143q0 77 66 137t158 60z" />
    <glyph glyph-name="uni013C" unicode="&#x13c;" horiz-adv-x="681" 
d="M418 0h-355l289 1638h355zM96 -696h-190l203 252q-97 49 -97 143q0 77 66 137t158 60q74 0 120.5 -42.5t46.5 -109.5q0 -23 -8 -45.5t-19.5 -43.5t-41 -59t-55.5 -69.5t-81.5 -98.5t-101.5 -124z" />
    <glyph glyph-name="Lcaron" unicode="&#x13d;" horiz-adv-x="1433" 
d="M1040 981h-204l251 301q-54 22 -83 62.5t-29 93.5q0 93 79 164t181 71q82 0 136 -50.5t54 -125.5q0 -70 -63 -152.5t-296 -334.5q-4 -5 -6.5 -7.5t-6 -6.5l-7 -8t-6.5 -7zM381 1597h377l-223 -1261h823l-49 -336h-1211z" />
    <glyph glyph-name="lcaron" unicode="&#x13e;" horiz-adv-x="681" 
d="M905 981h-205l252 301q-54 22 -83 62.5t-29 93.5q0 93 79 164t181 71q82 0 136 -50.5t54 -125.5q0 -70 -63 -152.5t-296 -334.5q-4 -5 -6.5 -7.5t-6 -6.5l-7 -8t-6.5 -7zM418 0h-355l289 1638h355z" />
    <glyph glyph-name="Lslash" unicode="&#x141;" horiz-adv-x="1433" 
d="M621 817l-86 -481h823l-49 -336h-1211l119 666l-205 -76l45 305l213 80l111 622h377l-84 -471l250 93l-45 -306z" />
    <glyph glyph-name="lslash" unicode="&#x142;" horiz-adv-x="681" 
d="M627 1188l274 158l-43 -293l-283 -164l-157 -889h-355l117 664l-223 -129l43 292l233 134l119 677h355z" />
    <glyph glyph-name="Nacute" unicode="&#x143;" horiz-adv-x="2000" 
d="M1802 2095l-452 -375h-322l340 375h434zM475 0h-377l283 1597h391q309 -430 643 -950h6q14 70 72 342.5t117 607.5h375l-283 -1597h-389q-74 106 -204.5 289t-239.5 338.5t-203 300.5h-7q-19 -106 -35.5 -166.5t-28 -94.5t-42 -199t-78.5 -468z" />
    <glyph glyph-name="nacute" unicode="&#x144;" horiz-adv-x="1568" 
d="M1466 1653l-438 -375h-307l330 375h415zM418 0h-355l203 1147h348l-28 -150h4q87 86 208 134.5t253 48.5q96 0 175.5 -29.5t136 -84.5t79.5 -143.5t4 -197.5l-127 -725h-354l108 573q6 33 6.5 67t-9 73.5t-31 69t-64.5 49.5t-103 20q-301 0 -352 -279z" />
    <glyph glyph-name="uni0145" unicode="&#x145;" horiz-adv-x="2000" 
d="M475 0h-377l283 1597h391q309 -430 643 -950h6q14 70 72 342.5t117 607.5h375l-283 -1597h-389q-74 106 -204.5 289t-239.5 338.5t-203 300.5h-7q-19 -106 -35.5 -166.5t-28 -94.5t-42 -199t-78.5 -468zM784 -696h-190l203 252q-97 49 -97 143q0 77 66 137t158 60
q74 0 121 -42.5t47 -109.5q0 -23 -8 -45.5t-19.5 -43.5t-41 -59t-56 -70t-81.5 -98t-102 -124z" />
    <glyph glyph-name="uni0146" unicode="&#x146;" horiz-adv-x="1568" 
d="M418 0h-355l203 1147h348l-28 -150h4q87 86 208 134.5t253 48.5q96 0 175.5 -29.5t136 -84.5t79.5 -143.5t4 -197.5l-127 -725h-354l108 573q6 33 6.5 67t-9 73.5t-31 69t-64.5 49.5t-103 20q-301 0 -352 -279zM610 -696h-190l203 252q-97 49 -97 143q0 77 66 137t158 60
q74 0 121 -42.5t47 -109.5q0 -22 -8 -45t-19.5 -44t-41 -59t-56 -70t-81.5 -98t-102 -124z" />
    <glyph glyph-name="Ncaron" unicode="&#x147;" horiz-adv-x="2000" 
d="M1434 2095h329l-407 -375h-352l-283 375h330q28 -25 81.5 -76.5t81.5 -76.5q30 20 101.5 73t118.5 80zM475 0h-377l283 1597h391q309 -430 643 -950h6q14 70 72 342.5t117 607.5h375l-283 -1597h-389q-74 106 -204.5 289t-239.5 338.5t-203 300.5h-7
q-19 -106 -35.5 -166.5t-28 -94.5t-42 -199t-78.5 -468z" />
    <glyph glyph-name="ncaron" unicode="&#x148;" horiz-adv-x="1568" 
d="M1081 1298h-358l-287 396h334q21 -21 39.5 -32.5t44 -38.5t82.5 -101q30 24 53.5 34.5t63 38t118.5 99.5h334zM418 0h-355l203 1147h348l-28 -150h4q87 86 208 134.5t253 48.5q96 0 175.5 -29.5t136 -84.5t79.5 -143.5t4 -197.5l-127 -725h-354l108 573q6 33 6.5 67
t-9 73.5t-31 69t-64.5 49.5t-103 20q-301 0 -352 -279z" />
    <glyph glyph-name="Eng" unicode="&#x14a;" horiz-adv-x="2000" 
d="M1026 -483q-96 0 -209.5 13t-169.5 26l43 290q156 -24 277 -24q163 0 245 39t101 139q-100 148 -318 450t-336 486l-184 -936h-377l283 1597h391q309 -430 643 -950h6l189 950h375l-275 -1540q-6 -33 -11.5 -58.5t-19.5 -70t-30.5 -79t-45.5 -79t-64 -78t-86.5 -68
t-111.5 -57t-141 -36.5t-174 -14z" />
    <glyph glyph-name="eng" unicode="&#x14b;" horiz-adv-x="1568" 
d="M778 -483q-132 0 -268 39l43 290q126 -24 195 -24q62 0 104 12t62.5 35t29 44t14.5 52l115 608q6 34 6.5 68t-9 73.5t-31 68.5t-64.5 49t-103 20q-301 0 -352 -279l-102 -573h-355l203 1147h348l-28 -150h4q87 86 208 134.5t253 48.5q96 0 176 -29.5t137 -84.5t80 -143.5
t4 -197.5l-129 -739q-7 -43 -12.5 -70.5t-17.5 -70.5t-25.5 -71.5t-36 -66t-49.5 -62.5t-67 -51t-87 -41.5t-110 -25.5t-136 -10z" />
    <glyph glyph-name="Omacron" unicode="&#x14c;" horiz-adv-x="2123" 
d="M1720 1741h-909l39 250h907zM956 -35q-245 0 -435 87t-296 247t-106 367q0 186 89 362t239 308.5t360.5 213t439.5 80.5q246 0 437.5 -88.5t297 -248.5t105.5 -367q0 -186 -90 -362t-241 -307.5t-361.5 -211.5t-438.5 -80zM1008 307q138 0 264.5 48.5t216.5 128
t143.5 184.5t53.5 215q0 181 -134 293t-350 112q-138 0 -265.5 -49t-218.5 -129t-145.5 -185.5t-54.5 -215.5q0 -180 135.5 -291t354.5 -111z" />
    <glyph glyph-name="omacron" unicode="&#x14d;" horiz-adv-x="1574" 
d="M1335 1300h-825l35 236h825zM680 -35q-281 0 -446.5 138t-165.5 370q0 136 62 264.5t169 226t263 157t333 59.5q280 0 446 -139.5t166 -372.5q0 -136 -61.5 -263.5t-168 -225t-263 -156t-334.5 -58.5zM731 293q169 0 286.5 98.5t117.5 235.5q0 104 -78.5 164.5
t-208.5 60.5q-88 0 -165.5 -29t-130 -75.5t-82.5 -106.5t-30 -121q0 -103 79.5 -165t211.5 -62z" />
    <glyph glyph-name="Ohungarumlaut" unicode="&#x150;" horiz-adv-x="2123" 
d="M1538 2093l-436 -373h-307l323 373h420zM2107 2093l-438 -373h-309l330 373h417zM956 -35q-245 0 -435 87t-296 247t-106 367q0 186 89 362t239 308.5t360.5 213t439.5 80.5q246 0 437.5 -88.5t297 -248.5t105.5 -367q0 -186 -90 -362t-241 -307.5t-361.5 -211.5
t-438.5 -80zM1008 307q138 0 264.5 48.5t216.5 128t143.5 184.5t53.5 215q0 181 -134 293t-350 112q-138 0 -265.5 -49t-218.5 -129t-145.5 -185.5t-54.5 -215.5q0 -180 135.5 -291t354.5 -111z" />
    <glyph glyph-name="ohungarumlaut" unicode="&#x151;" horiz-adv-x="1574" 
d="M1167 1673l-452 -395h-299l344 395h407zM1741 1673l-457 -395h-299l348 395h408zM680 -35q-281 0 -446.5 138t-165.5 370q0 136 62 264.5t169 226t263 157t333 59.5q280 0 446 -139.5t166 -372.5q0 -136 -61.5 -263.5t-168 -225t-263 -156t-334.5 -58.5zM731 293
q169 0 286.5 98.5t117.5 235.5q0 104 -78.5 164.5t-208.5 60.5q-88 0 -165.5 -29t-130 -75.5t-82.5 -106.5t-30 -121q0 -103 79.5 -165t211.5 -62z" />
    <glyph glyph-name="OE" unicode="&#x152;" horiz-adv-x="2985" 
d="M948 -35q-169 0 -318 45.5t-263.5 131t-181 220t-66.5 300.5q0 188 88.5 365.5t238 310t358.5 212.5t437 80q359 0 549 -151l31 118h1210l-49 -335h-860l-62 -277h811l-53 -354h-811l-65 -295h884l-51 -336h-1235l33 115q-265 -150 -625 -150zM999 307q138 0 264 49.5
t214.5 131t141 188t52.5 217.5q0 180 -129.5 287.5t-343.5 107.5q-140 0 -267.5 -49.5t-217 -130t-142.5 -185.5t-53 -214q0 -181 132 -291.5t349 -110.5z" />
    <glyph glyph-name="oe" unicode="&#x153;" horiz-adv-x="2562" 
d="M682 -35q-281 0 -447.5 138.5t-166.5 371.5q0 137 62.5 265t170 225.5t263 156t331.5 58.5q327 0 479 -162q100 76 241.5 119t301.5 43q106 0 200.5 -26t170.5 -76.5t126.5 -126t68.5 -174.5t-3 -222l-8 -47h-1012q-6 -103 82 -169.5t225 -66.5q107 0 200.5 35.5
t152.5 108.5l313 -131q-99 -137 -287.5 -228.5t-421.5 -91.5q-169 0 -297 41.5t-196 118.5q-220 -160 -549 -160zM1501 713h637q-7 90 -84 134t-192 44q-117 0 -214 -48.5t-147 -129.5zM729 293q170 0 288 97t118 231q0 106 -77.5 168.5t-209.5 62.5q-173 0 -290.5 -99.5
t-117.5 -230.5q0 -104 79 -166.5t210 -62.5z" />
    <glyph glyph-name="Racute" unicode="&#x154;" horiz-adv-x="1726" 
d="M1585 2095l-452 -375h-322l340 375h434zM475 0h-377l283 1597h743q30 0 50.5 -0.5t68 -4.5t84 -11.5t87 -23t88.5 -37t79 -56t67 -77.5t43 -103.5t17 -132.5q0 -201 -144.5 -358t-377.5 -213v-2q33 -50 63 -86t51 -62.5t85.5 -132.5t170.5 -297h-423l-351 547h-207
q-12 -57 -17 -84t-9 -51.5t-23 -132.5t-51 -279zM623 868h299q175 0 281 63t106 161q0 176 -299 176h-303q-43 -214 -84 -400z" />
    <glyph glyph-name="racute" unicode="&#x155;" horiz-adv-x="1071" 
d="M1270 1653l-439 -375h-307l330 375h416zM418 0h-355l203 1147h348l-32 -156h10q77 79 184 134t238 55q63 0 127 -19l-56 -385q-70 21 -163 21q-66 0 -122.5 -15t-96 -38t-73 -57.5t-54 -68t-37.5 -76t-25.5 -73.5t-15.5 -68z" />
    <glyph glyph-name="uni0156" unicode="&#x156;" horiz-adv-x="1726" 
d="M475 0h-377l283 1597h743q30 0 50.5 -0.5t68 -4.5t84 -11.5t87 -23t88.5 -37t79 -56t67 -77.5t43 -103.5t17 -132.5q0 -201 -144.5 -358t-377.5 -213v-2q33 -50 63 -86t51 -62.5t85.5 -132.5t170.5 -297h-423l-351 547h-207q-12 -57 -17 -84t-9 -51.5t-23 -132.5
t-51 -279zM623 868h299q175 0 281 63t106 161q0 176 -299 176h-303q-43 -214 -84 -400zM592 -696h-191l203 252q-96 49 -96 143q0 77 65.5 137t157.5 60q74 0 121 -42.5t47 -109.5q0 -23 -8 -45.5t-19.5 -43.5t-41 -59t-55.5 -69.5t-81.5 -98.5t-101.5 -124z" />
    <glyph glyph-name="uni0157" unicode="&#x157;" horiz-adv-x="1071" 
d="M418 0h-355l203 1147h348l-32 -156h10q77 79 184 134t238 55q63 0 127 -19l-56 -385q-70 21 -163 21q-66 0 -122.5 -15t-96 -38t-73 -57.5t-54 -68t-37.5 -76t-25.5 -73.5t-15.5 -68zM88 -696h-190l202 252q-96 49 -96 143q0 77 65.5 137t157.5 60q74 0 121 -42.5
t47 -109.5q0 -23 -8 -45.5t-19.5 -43.5t-41 -59t-55.5 -69.5t-81.5 -98.5t-101.5 -124z" />
    <glyph glyph-name="Rcaron" unicode="&#x158;" horiz-adv-x="1726" 
d="M1217 2095h329l-407 -375h-353l-282 375h330q27 -25 81.5 -76.5t81.5 -76.5q30 20 101.5 73t118.5 80zM475 0h-377l283 1597h743q30 0 50.5 -0.5t68 -4.5t84 -11.5t87 -23t88.5 -37t79 -56t67 -77.5t43 -103.5t17 -132.5q0 -201 -144.5 -358t-377.5 -213v-2
q33 -50 63 -86t51 -62.5t85.5 -132.5t170.5 -297h-423l-351 547h-207q-12 -57 -17 -84t-9 -51.5t-23 -132.5t-51 -279zM623 868h299q175 0 281 63t106 161q0 176 -299 176h-303q-43 -214 -84 -400z" />
    <glyph glyph-name="rcaron" unicode="&#x159;" horiz-adv-x="1071" 
d="M885 1298h-359l-286 396h333q21 -21 39.5 -32.5t44 -38.5t82.5 -101q30 24 53.5 34.5t63.5 38t119 99.5h334zM418 0h-355l203 1147h348l-32 -156h10q77 79 184 134t238 55q63 0 127 -19l-56 -385q-70 21 -163 21q-66 0 -122.5 -15t-96 -38t-73 -57.5t-54 -68t-37.5 -76
t-25.5 -73.5t-15.5 -68z" />
    <glyph glyph-name="Sacute" unicode="&#x15a;" horiz-adv-x="1607" 
d="M1550 2095l-452 -375h-322l340 375h434zM717 -35q-281 0 -464.5 129t-211.5 346l367 115q10 -63 35.5 -110t59 -75.5t78.5 -45.5t88 -23t95 -6q148 0 247 48.5t99 119.5q0 25 -11.5 47t-35 39t-47.5 30t-61 25.5t-63 19.5t-65 17l-163 41q-41 10 -75.5 20.5t-81.5 29.5
t-83.5 40t-75 52.5t-64 67.5t-41.5 85t-16 104q0 104 56 203.5t152.5 176t238.5 123t303 46.5q109 0 205 -21.5t164.5 -58t120.5 -84t80 -99.5t36 -105l-364 -136q-55 177 -295 177q-123 0 -209 -42.5t-86 -103.5q0 -32 24.5 -59.5t72.5 -49t90.5 -36t105.5 -31.5l194 -53
q42 -11 68.5 -19t73.5 -26.5t78 -36.5t69 -48t61 -63.5t38.5 -81t15.5 -102.5q0 -87 -36.5 -172.5t-107 -159.5t-166.5 -131t-224 -90t-269 -33z" />
    <glyph glyph-name="sacute" unicode="&#x15b;" horiz-adv-x="1263" 
d="M1309 1657l-439 -375h-307l330 375h416zM535 -35q-228 0 -371 87.5t-166 236.5l344 102q47 -147 238 -147q85 0 138.5 23.5t53.5 60.5q0 10 -3 18.5t-10.5 16t-14 13.5t-19.5 11.5t-21 9t-25 8t-24.5 7t-26 7t-24.5 5.5l-139 37q-27 7 -45 12.5t-54 19t-61 28t-56 39
t-50.5 51.5t-33 66t-13.5 83q0 81 43 157t118.5 134.5t186 93.5t237.5 35q200 0 327 -81.5t148 -211.5l-340 -103q-35 121 -184 121q-73 0 -124.5 -25.5t-51.5 -60.5q0 -19 16.5 -34.5t51 -28.5t64.5 -21t81 -20l100 -23q36 -8 57.5 -13.5t61 -18.5t64.5 -27t56.5 -38
t50 -51.5t31.5 -67.5t13 -87q0 -182 -175 -303t-449 -121z" />
    <glyph glyph-name="Scedilla" unicode="&#x15e;" horiz-adv-x="1607" 
d="M922 981l194 -53q42 -11 68.5 -19t73.5 -26.5t78 -36.5t69 -48t61 -63.5t38.5 -81t15.5 -102.5q0 -103 -52 -202.5t-144 -180.5t-229.5 -135.5t-297.5 -65.5l-66 -55q28 4 55 4q97 0 159.5 -46.5t62.5 -129.5q0 -118 -110 -194t-277 -76q-110 0 -196.5 36t-129.5 99
l131 133q70 -98 209 -98q63 0 101 22t38 57q0 29 -29.5 45.5t-76.5 16.5q-63 0 -111 -31l-96 74l141 147q-236 26 -386 151t-175 318l367 115q10 -63 35.5 -110t59 -75.5t78.5 -45.5t88 -23t95 -6q148 0 247 48.5t99 119.5q0 25 -11.5 47t-35 39t-47.5 30t-61 25.5t-63 19.5
t-65 17l-163 41q-41 10 -75.5 20.5t-81.5 29.5t-83.5 40t-75 52.5t-64 67.5t-41.5 85t-16 104q0 104 56 203.5t152.5 176t238.5 123t303 46.5q109 0 205 -21.5t164.5 -58t120.5 -84t80 -99.5t36 -105l-364 -136q-55 177 -295 177q-123 0 -209 -42.5t-86 -103.5
q0 -32 24.5 -59.5t72.5 -49t90.5 -36t105.5 -31.5z" />
    <glyph glyph-name="scedilla" unicode="&#x15f;" horiz-adv-x="1263" 
d="M725 715l100 -23q36 -8 57.5 -13.5t61 -18.5t64.5 -27t56.5 -38t50 -51.5t31.5 -67.5t13 -87q0 -168 -153.5 -286.5t-399.5 -135.5l-65 -55q28 4 55 4q97 0 159 -46t62 -130q0 -118 -110 -194t-277 -76q-110 0 -196.5 36t-129.5 99l132 133q70 -98 208 -98q63 0 101.5 22
t38.5 57q0 29 -30 45.5t-77 16.5q-62 0 -110 -31l-97 74l144 147q-178 23 -287 106.5t-129 211.5l344 102q47 -147 238 -147q85 0 138.5 23.5t53.5 60.5q0 10 -3 18.5t-10.5 16t-14 13.5t-19.5 11.5t-21 9t-25 8t-24.5 7t-26 7t-24.5 5.5l-139 37q-27 7 -45 12.5t-54 19
t-61 28t-56 39t-50.5 51.5t-33 66t-13.5 83q0 81 43 157t118.5 134.5t186 93.5t237.5 35q200 0 327 -81.5t148 -211.5l-340 -103q-35 121 -184 121q-73 0 -124.5 -25.5t-51.5 -60.5q0 -19 16.5 -34.5t51 -28.5t64.5 -21t81 -20z" />
    <glyph glyph-name="Scaron" unicode="&#x160;" horiz-adv-x="1607" 
d="M1243 2095h330l-408 -375h-352l-283 375h330q28 -25 82.5 -76.5t81.5 -76.5q31 20 101.5 73t117.5 80zM717 -35q-281 0 -464.5 129t-211.5 346l367 115q10 -63 35.5 -110t59 -75.5t78.5 -45.5t88 -23t95 -6q148 0 247 48.5t99 119.5q0 25 -11.5 47t-35 39t-47.5 30
t-61 25.5t-63 19.5t-65 17l-163 41q-41 10 -75.5 20.5t-81.5 29.5t-83.5 40t-75 52.5t-64 67.5t-41.5 85t-16 104q0 104 56 203.5t152.5 176t238.5 123t303 46.5q109 0 205 -21.5t164.5 -58t120.5 -84t80 -99.5t36 -105l-364 -136q-55 177 -295 177q-123 0 -209 -42.5
t-86 -103.5q0 -32 24.5 -59.5t72.5 -49t90.5 -36t105.5 -31.5l194 -53q42 -11 68.5 -19t73.5 -26.5t78 -36.5t69 -48t61 -63.5t38.5 -81t15.5 -102.5q0 -87 -36.5 -172.5t-107 -159.5t-166.5 -131t-224 -90t-269 -33z" />
    <glyph glyph-name="scaron" unicode="&#x161;" horiz-adv-x="1263" 
d="M924 1303h-359l-286 395h333q21 -21 39.5 -32.5t44 -38.5t82.5 -101q30 24 53.5 34.5t63.5 38t119 99.5h334zM535 -35q-228 0 -371 87.5t-166 236.5l344 102q47 -147 238 -147q85 0 138.5 23.5t53.5 60.5q0 10 -3 18.5t-10.5 16t-14 13.5t-19.5 11.5t-21 9t-25 8t-24.5 7
t-26 7t-24.5 5.5l-139 37q-27 7 -45 12.5t-54 19t-61 28t-56 39t-50.5 51.5t-33 66t-13.5 83q0 81 43 157t118.5 134.5t186 93.5t237.5 35q200 0 327 -81.5t148 -211.5l-340 -103q-35 121 -184 121q-73 0 -124.5 -25.5t-51.5 -60.5q0 -19 16.5 -34.5t51 -28.5t64.5 -21
t81 -20l100 -23q36 -8 57.5 -13.5t61 -18.5t64.5 -27t56.5 -38t50 -51.5t31.5 -67.5t13 -87q0 -182 -175 -303t-449 -121z" />
    <glyph glyph-name="uni0162" unicode="&#x162;" horiz-adv-x="1572" 
d="M160 1262l49 335h1517l-49 -335h-571q-30 -161 -54.5 -312.5t-62 -354.5t-117.5 -595h-81l-103 -88q28 4 55 4q97 0 159.5 -46.5t62.5 -129.5q0 -118 -110 -194t-277 -76q-110 0 -196.5 36t-129.5 99l131 133q70 -98 209 -98q63 0 101 22t38 57q0 29 -29.5 45.5
t-76.5 16.5q-63 0 -111 -31l-96 74l170 176h-90q24 137 35.5 197.5t22 117.5t57 306.5t118.5 640.5h-571z" />
    <glyph glyph-name="uni0163" unicode="&#x163;" horiz-adv-x="1081" 
d="M1071 836h-369l-71 -336q-6 -26 -8.5 -42t-4.5 -42t1.5 -43t13 -37t27 -32t46.5 -20t68 -8q58 0 189 31l-48 -303q-100 -39 -260 -39q-43 0 -63 2l-64 -55q28 4 56 4q97 0 159 -46t62 -130q0 -118 -110 -194t-277 -76q-110 0 -196.5 36t-129.5 99l131 133q70 -98 209 -98
q63 0 101 22t38 57q0 29 -29.5 45.5t-76.5 16.5q-63 0 -111 -31l-96 74l170 174q-230 85 -172 375l92 463h-270l47 311h270l56 319h354l-55 -319h366z" />
    <glyph glyph-name="Tcaron" unicode="&#x164;" horiz-adv-x="1572" 
d="M1243 2095h330l-408 -375h-352l-283 375h330q28 -25 82.5 -76.5t81.5 -76.5q31 20 101.5 73t117.5 80zM872 0h-374q24 137 35.5 197.5t22 117.5t57 306.5t118.5 640.5h-571l49 335h1517l-49 -335h-571q-30 -161 -54.5 -312.5t-62 -354.5t-117.5 -595z" />
    <glyph glyph-name="tcaron" unicode="&#x165;" horiz-adv-x="1081" 
d="M1370 1001h-205l252 302q-54 22 -83 62t-29 93q0 93 79 164.5t181 71.5q82 0 136 -50.5t54 -125.5q0 -70 -65.5 -155.5t-301.5 -341.5q-4 -4 -6 -6.5t-5.5 -6.5t-6.5 -7zM655 -35q-75 0 -136.5 10.5t-104 27.5t-74.5 43t-50.5 52t-29.5 59t-14.5 60t-2 59.5t4.5 52.5
t8 44l92 463h-270l47 311h270l56 319h354l-55 -319h366l-45 -311h-369l-71 -336q-6 -26 -8.5 -42t-4.5 -42t1.5 -43t13 -37t27 -32t46.5 -20t68 -8q58 0 189 31l-48 -303q-100 -39 -260 -39z" />
    <glyph glyph-name="Tbar" unicode="&#x166;" horiz-adv-x="1572" 
d="M1726 1597l-49 -335h-571q-40 -214 -55 -320h307l-43 -289h-314q-88 -452 -129 -653h-374q56 308 120 653h-325l43 289h336q9 48 28.5 155t30.5 165h-571l49 335h1517z" />
    <glyph glyph-name="tbar" unicode="&#x167;" horiz-adv-x="1081" 
d="M1116 1147l-45 -311h-369l-28 -138h354l-37 -252h-370q-7 -31 -2.5 -61.5t17 -54.5t48 -39t90.5 -15q58 0 189 31l-48 -303q-100 -39 -260 -39q-75 0 -136.5 10.5t-104 27.5t-74.5 43t-50.5 52t-29.5 59t-14.5 60t-2 59.5t4.5 52.5t8 44l14 73h-260l39 252h273l26 138
h-270l47 311h270l56 319h354l-55 -319h366z" />
    <glyph glyph-name="Umacron" unicode="&#x16a;" horiz-adv-x="1828" 
d="M1581 1741h-909l39 250h907zM805 -35q-131 0 -236 25.5t-172.5 67t-115.5 100t-71 119t-32 129t-6 125.5t14 114l176 952h375l-170 -921q-8 -42 -9 -85.5t13 -96.5t44.5 -92.5t93 -67t151.5 -27.5t162.5 29t117.5 69.5t76.5 95.5t46.5 95.5t21 79.5l172 921h375
l-174 -952q-11 -59 -26.5 -114t-47.5 -125.5t-73.5 -129.5t-108.5 -118.5t-148.5 -100.5t-197 -66.5t-250.5 -25.5z" />
    <glyph glyph-name="umacron" unicode="&#x16b;" horiz-adv-x="1548" 
d="M1323 1300h-825l34 236h826zM539 -35q-234 0 -343 122t-71 341l127 719h354l-112 -604q-20 -105 29 -177.5t165 -72.5q129 0 220 66.5t112 183.5l108 604h355l-137 -789q-24 -137 -27.5 -207t6.5 -151h-354q-7 88 2 115h-6q-168 -150 -428 -150z" />
    <glyph glyph-name="Uring" unicode="&#x16e;" horiz-adv-x="1828" 
d="M1118 1708q-119 0 -197.5 64.5t-78.5 162.5q0 116 107.5 204.5t254.5 88.5q121 0 198 -63t77 -162q0 -117 -107 -206t-254 -89zM1145 1890q48 0 84.5 27.5t36.5 60.5q0 27 -25.5 46.5t-64.5 19.5q-49 0 -85 -27t-36 -61q0 -28 25.5 -47t64.5 -19zM805 -35
q-131 0 -236 25.5t-172.5 67t-115.5 100t-71 119t-32 129t-6 125.5t14 114l176 952h375l-170 -921q-8 -42 -9 -85.5t13 -96.5t44.5 -92.5t93 -67t151.5 -27.5t162.5 29t117.5 69.5t76.5 95.5t46.5 95.5t21 79.5l172 921h375l-174 -952q-11 -59 -26.5 -114t-47.5 -125.5
t-73.5 -129.5t-108.5 -118.5t-148.5 -100.5t-197 -66.5t-250.5 -25.5z" />
    <glyph glyph-name="uring" unicode="&#x16f;" horiz-adv-x="1548" 
d="M897 1257q-119 0 -197.5 65t-78.5 163q0 116 107.5 204.5t254.5 88.5q121 0 197.5 -63.5t76.5 -162.5q0 -117 -106.5 -206t-253.5 -89zM924 1440q48 0 84 27.5t36 60.5q0 27 -25.5 46t-64.5 19q-49 0 -84.5 -27t-35.5 -61q0 -28 25.5 -46.5t64.5 -18.5zM539 -35
q-234 0 -343 122t-71 341l127 719h354l-112 -604q-20 -105 29 -177.5t165 -72.5q129 0 220 66.5t112 183.5l108 604h355l-137 -789q-24 -137 -27.5 -207t6.5 -151h-354q-7 88 2 115h-6q-168 -150 -428 -150z" />
    <glyph glyph-name="Uhungarumlaut" unicode="&#x170;" horiz-adv-x="1828" 
d="M1399 2093l-436 -373h-308l324 373h420zM1968 2093l-438 -373h-309l329 373h418zM805 -35q-131 0 -236 25.5t-172.5 67t-115.5 100t-71 119t-32 129t-6 125.5t14 114l176 952h375l-170 -921q-8 -42 -9 -85.5t13 -96.5t44.5 -92.5t93 -67t151.5 -27.5t162.5 29t117.5 69.5
t76.5 95.5t46.5 95.5t21 79.5l172 921h375l-174 -952q-11 -59 -26.5 -114t-47.5 -125.5t-73.5 -129.5t-108.5 -118.5t-148.5 -100.5t-197 -66.5t-250.5 -25.5z" />
    <glyph glyph-name="uhungarumlaut" unicode="&#x171;" horiz-adv-x="1548" 
d="M1155 1673l-453 -395h-299l345 395h407zM1729 1673l-457 -395h-299l348 395h408zM539 -35q-234 0 -343 122t-71 341l127 719h354l-112 -604q-20 -105 29 -177.5t165 -72.5q129 0 220 66.5t112 183.5l108 604h355l-137 -789q-24 -137 -27.5 -207t6.5 -151h-354
q-7 88 2 115h-6q-168 -150 -428 -150z" />
    <glyph glyph-name="Uogonek" unicode="&#x172;" horiz-adv-x="1828" 
d="M1284 676l172 921h375l-174 -952q-9 -52 -22.5 -101t-39.5 -112t-59.5 -117.5t-86.5 -111t-116.5 -99.5t-152.5 -77.5t-193 -49.5q-62 -23 -96.5 -61t-34.5 -70q0 -35 40 -65.5t120 -30.5q64 0 110 10l-32 -204q-66 -19 -166 -19q-89 0 -162.5 20t-122.5 67.5t-49 115.5
q0 67 48.5 125.5t125.5 99.5q-124 4 -223 31.5t-163 69.5t-109 100t-66.5 117.5t-29.5 127t-5 123.5t14 111l176 952h375l-170 -921q-8 -42 -9 -85.5t13 -96.5t44.5 -92.5t93 -67t151.5 -27.5t162.5 29t117.5 69.5t76.5 95.5t46.5 95.5t21 79.5z" />
    <glyph glyph-name="uogonek" unicode="&#x173;" horiz-adv-x="1548" 
d="M1128 1147h355l-137 -789q-24 -137 -27.5 -207t6.5 -151h-121q-103 -14 -162 -61t-59 -95q0 -34 37.5 -57t99.5 -23q67 0 119 17l-37 -230q-63 -14 -139 -14q-158 0 -247 55t-89 152q0 84 72 155t180 101h-8q-7 88 2 115h-6q-168 -150 -428 -150q-234 0 -343 122t-71 341
l127 719h354l-112 -604q-20 -105 29 -177.5t165 -72.5q129 0 220 66.5t112 183.5z" />
    <glyph glyph-name="Wcircumflex" unicode="&#x174;" horiz-adv-x="2844" 
d="M1864 2095l288 -375h-329q-147 135 -160 148q-10 -7 -47.5 -34t-55.5 -40t-52.5 -34.5t-67.5 -39.5h-330l414 375h340zM932 0h-473l-260 1597h430q96 -629 145 -1081h6l611 1081h428l202 -1081h4q391 767 558 1081h430l-826 -1597h-469q-122 583 -194 1014h-4
q-9 -17 -71.5 -128.5t-83.5 -149t-78 -138.5t-90.5 -158t-83.5 -142.5t-94 -157.5t-87 -140z" />
    <glyph glyph-name="wcircumflex" unicode="&#x175;" horiz-adv-x="2301" 
d="M1073 1278h-334l420 375h359l290 -375h-333q-21 24 -38 34.5t-44.5 38t-81.5 99.5q-30 -22 -55.5 -33t-64 -38.5t-118.5 -100.5zM776 0h-416l-249 1147h403l139 -709h6l439 709h311l162 -709h4l416 709h401l-651 -1147h-432q-86 412 -129 623h-2q-68 -103 -201.5 -312
t-200.5 -311z" />
    <glyph glyph-name="Ycircumflex" unicode="&#x176;" horiz-adv-x="1722" 
d="M1300 2095l289 -375h-329q-147 135 -160 148q-10 -7 -47.5 -34t-55.5 -40t-52.5 -34.5t-67.5 -39.5h-330l414 375h339zM948 0h-375q8 42 36 211.5t61 323.5q-43 92 -81.5 156.5t-65 111t-111.5 243t-226 551.5h404l319 -700h4q62 72 134 173.5t123.5 178t137.5 172.5
t187 176h403q-143 -176 -426 -529t-425 -529q-94 -527 -99 -539z" />
    <glyph glyph-name="ycircumflex" unicode="&#x177;" horiz-adv-x="1441" 
d="M641 1278h-334l420 375h358l291 -375h-334q-21 24 -37.5 34.5t-44 38t-81.5 99.5q-30 -22 -55.5 -33t-64 -38.5t-118.5 -100.5zM551 -451h-381l256 390l-320 1208h392q105 -398 184 -750h4q169 272 471 750h381z" />
    <glyph glyph-name="Ydieresis" unicode="&#x178;" horiz-adv-x="1722" 
d="M784 1712q-80 0 -132 47.5t-52 120.5q0 92 73.5 158.5t172.5 66.5q78 0 130 -47t52 -119q0 -88 -73 -157.5t-171 -69.5zM1350 1712q-82 0 -134.5 47.5t-52.5 120.5q0 92 73.5 158.5t172.5 66.5q78 0 130 -47t52 -119q0 -88 -72 -157.5t-169 -69.5zM948 0h-375
q8 42 36 211.5t61 323.5q-43 92 -81.5 156.5t-65 111t-111.5 243t-226 551.5h404l319 -700h4q62 72 134 173.5t123.5 178t137.5 172.5t187 176h403q-143 -176 -426 -529t-425 -529q-94 -527 -99 -539z" />
    <glyph glyph-name="Zacute" unicode="&#x179;" horiz-adv-x="1660" 
d="M1661 2095l-453 -375h-321l340 375h434zM1473 0h-1489l51 336q147 118 313 249.5t276 217.5t304.5 238t283.5 221v4q-161 -1 -483 -2t-483 -2l51 335h1440l-54 -342q-220 -171 -625 -482t-562 -433v-4h1028z" />
    <glyph glyph-name="zacute" unicode="&#x17a;" horiz-adv-x="1314" 
d="M1348 1653l-439 -375h-307l330 375h416zM1147 0h-1161l43 293l749 541h-622l45 313h1099l-43 -293l-751 -541h686z" />
    <glyph glyph-name="Zdotaccent" unicode="&#x17b;" horiz-adv-x="1660" 
d="M999 1743q-82 0 -135 49.5t-53 124.5q0 91 75.5 159t176.5 68q81 0 133.5 -48t52.5 -122q0 -91 -75.5 -161t-174.5 -70zM1473 0h-1489l51 336q147 118 313 249.5t276 217.5t304.5 238t283.5 221v4q-161 -1 -483 -2t-483 -2l51 335h1440l-54 -342q-220 -171 -625 -482
t-562 -433v-4h1028z" />
    <glyph glyph-name="zdotaccent" unicode="&#x17c;" horiz-adv-x="1314" 
d="M788 1278q-82 0 -135 49.5t-53 124.5q0 91 75.5 159t176.5 68q81 0 133.5 -48t52.5 -122q0 -91 -75.5 -161t-174.5 -70zM1147 0h-1161l43 293l749 541h-622l45 313h1099l-43 -293l-751 -541h686z" />
    <glyph glyph-name="Zcaron" unicode="&#x17d;" horiz-adv-x="1660" 
d="M1292 2095h330l-408 -375h-352l-282 375h329q27 -25 81.5 -76.5t82.5 -76.5q31 20 101.5 73t117.5 80zM1473 0h-1489l51 336q147 118 313 249.5t276 217.5t304.5 238t283.5 221v4q-161 -1 -483 -2t-483 -2l51 335h1440l-54 -342q-220 -171 -625 -482t-562 -433v-4h1028z
" />
    <glyph glyph-name="zcaron" unicode="&#x17e;" horiz-adv-x="1314" 
d="M963 1298h-359l-287 396h334q21 -21 39.5 -32.5t44 -38.5t82.5 -101q30 24 53.5 34.5t63.5 38t119 99.5h333zM1147 0h-1161l43 293l749 541h-622l45 313h1099l-43 -293l-751 -541h686z" />
    <glyph glyph-name="uni0218" unicode="&#x218;" horiz-adv-x="1607" 
d="M717 -35q-281 0 -464.5 129t-211.5 346l367 115q10 -63 35.5 -110t59 -75.5t78.5 -45.5t88 -23t95 -6q148 0 247 48.5t99 119.5q0 25 -11.5 47t-35 39t-47.5 30t-61 25.5t-63 19.5t-65 17l-163 41q-41 10 -75.5 20.5t-81.5 29.5t-83.5 40t-75 52.5t-64 67.5t-41.5 85
t-16 104q0 104 56 203.5t152.5 176t238.5 123t303 46.5q109 0 205 -21.5t164.5 -58t120.5 -84t80 -99.5t36 -105l-364 -136q-55 177 -295 177q-123 0 -209 -42.5t-86 -103.5q0 -32 24.5 -59.5t72.5 -49t90.5 -36t105.5 -31.5l194 -53q42 -11 68.5 -19t73.5 -26.5t78 -36.5
t69 -48t61 -63.5t38.5 -81t15.5 -102.5q0 -87 -36.5 -172.5t-107 -159.5t-166.5 -131t-224 -90t-269 -33zM580 -696h-191l203 252q-96 49 -96 143q0 77 65.5 137t157.5 60q74 0 121 -42.5t47 -109.5q0 -23 -8 -45.5t-19.5 -43.5t-41 -59t-55.5 -69.5t-81.5 -98.5
t-101.5 -124z" />
    <glyph glyph-name="uni0219" unicode="&#x219;" horiz-adv-x="1263" 
d="M535 -35q-228 0 -371 87.5t-166 236.5l344 102q47 -147 238 -147q85 0 138.5 23.5t53.5 60.5q0 10 -3 18.5t-10.5 16t-14 13.5t-19.5 11.5t-21 9t-25 8t-24.5 7t-26 7t-24.5 5.5l-139 37q-27 7 -45 12.5t-54 19t-61 28t-56 39t-50.5 51.5t-33 66t-13.5 83q0 81 43 157
t118.5 134.5t186 93.5t237.5 35q200 0 327 -81.5t148 -211.5l-340 -103q-35 121 -184 121q-73 0 -124.5 -25.5t-51.5 -60.5q0 -19 16.5 -34.5t51 -28.5t64.5 -21t81 -20l100 -23q36 -8 57.5 -13.5t61 -18.5t64.5 -27t56.5 -38t50 -51.5t31.5 -67.5t13 -87q0 -182 -175 -303
t-449 -121zM389 -696h-190l202 252q-96 49 -96 143q0 77 65.5 137t157.5 60q74 0 121 -42.5t47 -109.5q0 -23 -8 -45.5t-19.5 -43.5t-41 -59t-55.5 -69.5t-81.5 -98.5t-101.5 -124z" />
    <glyph glyph-name="uni021A" unicode="&#x21a;" horiz-adv-x="1572" 
d="M872 0h-374q24 137 35.5 197.5t22 117.5t57 306.5t118.5 640.5h-571l49 335h1517l-49 -335h-571q-30 -161 -54.5 -312.5t-62 -354.5t-117.5 -595zM537 -696h-191l203 252q-96 49 -96 143q0 77 65.5 137t157.5 60q74 0 121 -42.5t47 -109.5q0 -23 -8 -45.5t-19.5 -43.5
t-41 -59t-55.5 -69.5t-81.5 -98.5t-101.5 -124z" />
    <glyph glyph-name="uni021B" unicode="&#x21b;" horiz-adv-x="1081" 
d="M655 -35q-75 0 -136.5 10.5t-104 27.5t-74.5 43t-50.5 52t-29.5 59t-14.5 60t-2 59.5t4.5 52.5t8 44l92 463h-270l47 311h270l56 319h354l-55 -319h366l-45 -311h-369l-71 -336q-6 -26 -8.5 -42t-4.5 -42t1.5 -43t13 -37t27 -32t46.5 -20t68 -8q58 0 189 31l-48 -303
q-100 -39 -260 -39zM377 -696h-191l203 252q-96 49 -96 143q0 77 65.5 137t157.5 60q74 0 121 -42.5t47 -109.5q0 -23 -8 -45.5t-19.5 -43.5t-41 -59t-55.5 -69.5t-81.5 -98.5t-101.5 -124z" />
    <glyph glyph-name="gravecomb" unicode="&#x300;" horiz-adv-x="0" 
d="M182 1278h-307l-307 375h416z" />
    <glyph glyph-name="acutecomb" unicode="&#x301;" horiz-adv-x="0" 
d="M340 1653l-438 -375h-308l330 375h416z" />
    <glyph glyph-name="uni0302" unicode="&#x302;" horiz-adv-x="0" 
d="M-514 1278h-334l420 375h358l291 -375h-334q-21 24 -37.5 34.5t-44 38t-81.5 99.5q-30 -22 -55.5 -33t-64 -38.5t-118.5 -100.5z" />
    <glyph glyph-name="tildecomb" unicode="&#x303;" horiz-adv-x="0" 
d="M-123 1313q-106 0 -160 35l-65 41q-42 28 -90 28q-39 0 -67 -25t-36 -61h-252q26 156 132.5 250t244.5 94q89 0 172 -45l58 -33q28 -16 71 -16q35 0 57.5 21.5t30.5 58.5h254q-27 -170 -118.5 -259t-231.5 -89z" />
    <glyph glyph-name="uni0304" unicode="&#x304;" horiz-adv-x="0" 
d="M141 1280h-825l35 236h825z" />
    <glyph glyph-name="uni0306" unicode="&#x306;" horiz-adv-x="0" 
d="M-264 1264q-208 0 -316 109t-84 286h289q-13 -59 26.5 -107.5t127.5 -48.5q85 0 144.5 48t74.5 108h289q-40 -186 -193 -290.5t-358 -104.5z" />
    <glyph glyph-name="uni0307" unicode="&#x307;" horiz-adv-x="0" 
d="M-51 1257q-82 0 -135.5 50t-53.5 125q0 91 75.5 159t176.5 68q82 0 134.5 -48t52.5 -122q0 -91 -75.5 -161.5t-174.5 -70.5z" />
    <glyph glyph-name="uni0308" unicode="&#x308;" horiz-adv-x="0" 
d="M-659 1276q-73 0 -121.5 45t-48.5 113q0 80 68.5 143t158.5 63q73 0 122.5 -44.5t49.5 -110.5q0 -81 -69 -145t-160 -64zM-94 1276q-75 0 -123.5 45t-48.5 113q0 84 68.5 145t158.5 61q73 0 122.5 -44.5t49.5 -110.5q0 -80 -68 -144.5t-159 -64.5z" />
    <glyph glyph-name="uni030A" unicode="&#x30a;" horiz-adv-x="0" 
d="M-111 1257q-119 0 -197.5 65t-78.5 163q0 116 107.5 204.5t254.5 88.5q121 0 198 -63.5t77 -162.5q0 -117 -107 -206t-254 -89zM-84 1440q48 0 84.5 27.5t36.5 60.5q0 27 -25.5 46t-64.5 19q-49 0 -85 -27t-36 -61q0 -28 25.5 -46.5t64.5 -18.5z" />
    <glyph glyph-name="uni030B" unicode="&#x30b;" horiz-adv-x="0" 
d="M-195 1673l-452 -395h-299l344 395h407zM379 1673l-457 -395h-299l348 395h408z" />
    <glyph glyph-name="uni030C" unicode="&#x30c;" horiz-adv-x="0" 
d="M-133 1278h-359l-286 395h334q21 -21 39.5 -32.5t43.5 -38.5t82 -101q30 24 53.5 34.5t63.5 38t119 99.5h334z" />
    <glyph glyph-name="uni0312" unicode="&#x312;" horiz-adv-x="0" 
d="M-240 1231q0 17 4.5 34t10.5 32.5t22 39t30 42.5t44 54t54 62.5t69.5 80t81.5 95.5h194l-209 -252q93 -50 93 -141q0 -81 -68.5 -140t-159.5 -59q-74 0 -120 42.5t-46 109.5z" />
    <glyph glyph-name="uni0326" unicode="&#x326;" horiz-adv-x="0" 
d="M-471 -696h-191l203 252q-96 49 -96 143q0 77 65.5 137t157.5 60q74 0 121 -42.5t47 -109.5q0 -23 -8 -45.5t-19.5 -43.5t-41 -59t-55.5 -69.5t-81.5 -98.5t-101.5 -124z" />
    <glyph glyph-name="uni0327" unicode="&#x327;" horiz-adv-x="0" 
d="M-842 -530q-110 0 -196 36t-129 99l131 133q70 -98 209 -98q63 0 101 22t38 57q0 29 -30 45.5t-77 16.5q-62 0 -110 -31l-96 74l170 176h202l-102 -88q28 4 55 4q97 0 159 -46t62 -130q0 -118 -110 -194t-277 -76z" />
    <glyph glyph-name="uni0328" unicode="&#x328;" horiz-adv-x="0" 
d="M-819 -483q-158 0 -247 55t-89 152q0 84 72 155t180 101h225q-103 -14 -162 -61t-59 -95q0 -34 37.5 -57t99.5 -23q70 0 119 16l-37 -229q-63 -14 -139 -14z" />
    <glyph glyph-name="uni0335" unicode="&#x335;" horiz-adv-x="0" 
d="M-872 705h978l-36 -252h-981z" />
    <glyph glyph-name="uni0337" unicode="&#x337;" horiz-adv-x="0" 
d="M-557 383l43 293l901 518l-43 -293z" />
    <glyph glyph-name="uni0338" unicode="&#x338;" horiz-adv-x="0" 
d="M-1126 -68h-383l1341 1248h375z" />
    <glyph glyph-name="Wgrave" unicode="&#x1e80;" horiz-adv-x="2844" 
d="M1825 1720h-322l-327 375h436zM932 0h-473l-260 1597h430q96 -629 145 -1081h6l611 1081h428l202 -1081h4q391 767 558 1081h430l-826 -1597h-469q-122 583 -194 1014h-4q-9 -17 -71.5 -128.5t-83.5 -149t-78 -138.5t-90.5 -158t-83.5 -142.5t-94 -157.5t-87 -140z" />
    <glyph glyph-name="wgrave" unicode="&#x1e81;" horiz-adv-x="2301" 
d="M1442 1278h-307l-308 375h416zM776 0h-416l-249 1147h403l139 -709h6l439 709h311l162 -709h4l416 709h401l-651 -1147h-432q-86 412 -129 623h-2q-68 -103 -201.5 -312t-200.5 -311z" />
    <glyph glyph-name="Wacute" unicode="&#x1e82;" horiz-adv-x="2844" 
d="M2249 2095l-453 -375h-321l340 375h434zM932 0h-473l-260 1597h430q96 -629 145 -1081h6l611 1081h428l202 -1081h4q391 767 558 1081h430l-826 -1597h-469q-122 583 -194 1014h-4q-9 -17 -71.5 -128.5t-83.5 -149t-78 -138.5t-90.5 -158t-83.5 -142.5t-94 -157.5
t-87 -140z" />
    <glyph glyph-name="wacute" unicode="&#x1e83;" horiz-adv-x="2301" 
d="M1841 1653l-438 -375h-307l329 375h416zM776 0h-416l-249 1147h403l139 -709h6l439 709h311l162 -709h4l416 709h401l-651 -1147h-432q-86 412 -129 623h-2q-68 -103 -201.5 -312t-200.5 -311z" />
    <glyph glyph-name="Wdieresis" unicode="&#x1e84;" horiz-adv-x="2844" 
d="M1348 1712q-80 0 -132.5 47.5t-52.5 120.5q0 92 73.5 158.5t172.5 66.5q78 0 130 -47t52 -119q0 -88 -72.5 -157.5t-170.5 -69.5zM1913 1712q-82 0 -134.5 47.5t-52.5 120.5q0 92 73.5 158.5t172.5 66.5q78 0 130 -47t52 -119q0 -88 -72 -157.5t-169 -69.5zM932 0h-473
l-260 1597h430q96 -629 145 -1081h6l611 1081h428l202 -1081h4q391 767 558 1081h430l-826 -1597h-469q-122 583 -194 1014h-4q-9 -17 -71.5 -128.5t-83.5 -149t-78 -138.5t-90.5 -158t-83.5 -142.5t-94 -157.5t-87 -140z" />
    <glyph glyph-name="wdieresis" unicode="&#x1e85;" horiz-adv-x="2301" 
d="M997 1276q-73 0 -121.5 45t-48.5 113q0 80 69 143t159 63q73 0 122.5 -44.5t49.5 -110.5q0 -80 -69.5 -144.5t-160.5 -64.5zM1563 1276q-75 0 -123.5 45t-48.5 113q0 84 68.5 145t158.5 61q73 0 122.5 -44.5t49.5 -110.5q0 -80 -68 -144.5t-159 -64.5zM776 0h-416
l-249 1147h403l139 -709h6l439 709h311l162 -709h4l416 709h401l-651 -1147h-432q-86 412 -129 623h-2q-68 -103 -201.5 -312t-200.5 -311z" />
    <glyph glyph-name="uni1E9E" unicode="&#x1e9e;" horiz-adv-x="1890" 
d="M451 0h-377l153 872q22 126 62 232t112.5 205.5t170.5 168.5t242.5 110.5t322.5 41.5q315 0 491 -117t176 -305q0 -142 -99 -253.5t-257 -143.5l-2 -8q67 -5 126 -25.5t108 -56.5t77.5 -94t28.5 -131q0 -71 -27.5 -140t-88.5 -134t-149.5 -114t-221.5 -78.5t-293 -29.5
h-269l51 332h304q132 0 212 41t80 106q0 111 -239 111h-144l50 334h79q107 0 187 65t80 146q0 82 -85.5 122.5t-224.5 40.5q-67 0 -124.5 -10t-99.5 -24.5t-77.5 -39.5t-59 -46.5t-43 -54t-29.5 -53t-19.5 -53t-12 -45t-6.5 -36.5z" />
    <glyph glyph-name="Ygrave" unicode="&#x1ef2;" horiz-adv-x="1722" 
d="M1262 1720h-322l-328 375h437zM948 0h-375q8 42 36 211.5t61 323.5q-43 92 -81.5 156.5t-65 111t-111.5 243t-226 551.5h404l319 -700h4q62 72 134 173.5t123.5 178t137.5 172.5t187 176h403q-143 -176 -426 -529t-425 -529q-94 -527 -99 -539z" />
    <glyph glyph-name="ygrave" unicode="&#x1ef3;" horiz-adv-x="1441" 
d="M1010 1278h-308l-307 375h416zM551 -451h-381l256 390l-320 1208h392q105 -398 184 -750h4q169 272 471 750h381z" />
    <glyph glyph-name="uni2000" unicode="&#x2000;" horiz-adv-x="1228" 
 />
    <glyph glyph-name="uni2001" unicode="&#x2001;" 
 />
    <glyph glyph-name="uni2002" unicode="&#x2002;" horiz-adv-x="1228" 
 />
    <glyph glyph-name="uni2003" unicode="&#x2003;" 
 />
    <glyph glyph-name="uni2004" unicode="&#x2004;" horiz-adv-x="819" 
 />
    <glyph glyph-name="uni2005" unicode="&#x2005;" horiz-adv-x="614" 
 />
    <glyph glyph-name="uni2006" unicode="&#x2006;" horiz-adv-x="409" 
 />
    <glyph glyph-name="uni2007" unicode="&#x2007;" horiz-adv-x="591" 
 />
    <glyph glyph-name="uni2008" unicode="&#x2008;" horiz-adv-x="647" 
 />
    <glyph glyph-name="uni2009" unicode="&#x2009;" horiz-adv-x="307" 
 />
    <glyph glyph-name="uni200A" unicode="&#x200a;" horiz-adv-x="102" 
 />
    <glyph glyph-name="uni200B" unicode="&#x200b;" horiz-adv-x="0" 
 />
    <glyph glyph-name="endash" unicode="&#x2013;" horiz-adv-x="1210" 
d="M1055 479h-924l43 289h924z" />
    <glyph glyph-name="emdash" unicode="&#x2014;" horiz-adv-x="1720" 
d="M1571 494h-1440l39 258h1440z" />
    <glyph glyph-name="quoteleft" unicode="&#x2018;" horiz-adv-x="653" 
d="M547 1638h196l-243 -301q112 -45 112 -155q0 -92 -79 -164t-181 -72q-82 0 -136 50.5t-54 125.5q0 70 65 155t295 334q17 18 25 27z" />
    <glyph glyph-name="quoteright" unicode="&#x2019;" horiz-adv-x="669" 
d="M383 981h-205l252 301q-54 22 -83.5 62.5t-29.5 93.5q0 93 79.5 164t181.5 71q82 0 136 -50.5t54 -125.5q0 -70 -63 -152.5t-296 -334.5q-4 -5 -6.5 -7.5t-6 -6.5l-7 -8t-6.5 -7z" />
    <glyph glyph-name="quotesinglbase" unicode="&#x201a;" horiz-adv-x="643" 
d="M129 -291h-197l244 301q-113 46 -113 156q0 92 79 163.5t182 71.5q82 0 136 -50.5t54 -125.5q0 -70 -65 -155t-295 -334q-17 -18 -25 -27z" />
    <glyph glyph-name="quotedblleft" unicode="&#x201c;" horiz-adv-x="1193" 
d="M567 1638h197l-244 -301q113 -46 113 -155q0 -92 -79 -164t-181 -72q-82 0 -136.5 50.5t-54.5 125.5q0 70 65 155t295 334q17 18 25 27zM1036 1638h197l-244 -301q113 -46 113 -155q0 -92 -79 -164t-181 -72q-82 0 -136.5 50.5t-54.5 125.5q0 70 65 155t295 334
q17 18 25 27z" />
    <glyph glyph-name="quotedblright" unicode="&#x201d;" horiz-adv-x="1210" 
d="M379 981h-197l244 301q-54 22 -83.5 62.5t-29.5 93.5q0 92 78.5 163.5t181.5 71.5q82 0 136.5 -50.5t54.5 -125.5q0 -70 -65 -155t-295 -334l-9 -9t-7.5 -8.5t-8.5 -9.5zM924 981h-199l244 301q-52 21 -82.5 62t-30.5 94q0 93 79.5 164t182.5 71q80 0 135.5 -50.5
t55.5 -125.5q0 -68 -59 -147t-254 -291q-47 -50 -72 -78z" />
    <glyph glyph-name="quotedblbase" unicode="&#x201e;" horiz-adv-x="1189" 
d="M111 -260h-197l244 301q-54 22 -83.5 62.5t-29.5 93.5q0 92 78.5 163.5t181.5 71.5q82 0 136.5 -50.5t54.5 -125.5q0 -70 -65 -155t-295 -334q-17 -18 -25 -27zM655 -260h-196l241 301q-52 21 -82 62t-30 94q0 93 79.5 164t182.5 71q80 0 135 -50.5t55 -125.5
q0 -68 -59 -147t-254 -291q-47 -50 -72 -78z" />
    <glyph glyph-name="dagger" unicode="&#x2020;" horiz-adv-x="1232" 
d="M887 1343h383l-37 -245h-389l-119 -670h-293l119 670h-356l36 245h363l53 295h293z" />
    <glyph glyph-name="daggerdbl" unicode="&#x2021;" horiz-adv-x="1288" 
d="M1282 1343l-39 -245h-356l-41 -211h356l-37 -246h-356l-53 -295h-293l53 295h-360l37 246h360l41 211h-361l37 245h361l55 295h293l-55 -295h358z" />
    <glyph glyph-name="bullet" unicode="&#x2022;" horiz-adv-x="1114" 
d="M567 446q-139 0 -232 87.5t-93 218.5q0 102 60 194.5t160.5 147.5t211.5 55q136 0 228.5 -85.5t92.5 -211.5q0 -101 -59 -195t-158.5 -152.5t-210.5 -58.5z" />
    <glyph glyph-name="ellipsis" unicode="&#x2026;" horiz-adv-x="1902" 
d="M258 -14q-83 0 -137.5 51.5t-54.5 128.5q0 94 77.5 164.5t178.5 70.5q82 0 136 -50.5t54 -125.5q0 -92 -77 -165.5t-177 -73.5zM786 -14q-83 0 -137.5 51.5t-54.5 128.5q0 94 77.5 164.5t178.5 70.5q82 0 136 -50.5t54 -125.5q0 -92 -77 -165.5t-177 -73.5zM1511 -14
q-83 0 -137.5 51.5t-54.5 128.5q0 94 77.5 164.5t178.5 70.5q82 0 136 -50.5t54 -125.5q0 -92 -77 -165.5t-177 -73.5z" />
    <glyph glyph-name="uni202F" unicode="&#x202f;" horiz-adv-x="436" 
 />
    <glyph glyph-name="perthousand" unicode="&#x2030;" horiz-adv-x="3282" 
d="M471 688q-152 0 -236.5 93t-84.5 259q0 139 62 257.5t172.5 188.5t244.5 70q151 0 236 -93t85 -259q0 -138 -62 -256.5t-172.5 -189t-244.5 -70.5zM559 0h-330l1624 1468h322zM508 942q57 0 101 94.5t44 182.5q0 86 -63 86q-37 0 -71 -45.5t-53.5 -109.5t-19.5 -122
q0 -45 15 -65.5t47 -20.5zM1808 -29q-152 0 -236.5 93.5t-84.5 259.5q0 139 62 257.5t172.5 188.5t244.5 70q151 0 236.5 -93.5t85.5 -259.5q0 -138 -62 -256.5t-173 -189t-245 -70.5zM2718 -29q-152 0 -237 93.5t-85 259.5q0 139 62 257.5t172.5 188.5t244.5 70
q151 0 236.5 -93.5t85.5 -259.5q0 -138 -62 -256.5t-172.5 -189t-244.5 -70.5zM1845 225q57 0 101.5 94.5t44.5 182.5q0 86 -64 86q-37 0 -71 -45.5t-53 -109.5t-19 -122q0 -46 14.5 -66t46.5 -20zM2755 225q57 0 101 94.5t44 182.5q0 86 -64 86q-37 0 -71 -45.5t-53 -109.5
t-19 -122q0 -45 15 -65.5t47 -20.5z" />
    <glyph glyph-name="guilsinglleft" unicode="&#x2039;" horiz-adv-x="1058" 
d="M852 164h-408l-344 405l2 9l488 405h407l-487 -405l-2 -9z" />
    <glyph glyph-name="guilsinglright" unicode="&#x203a;" horiz-adv-x="1060" 
d="M565 164h-475l367 405l96 9l-283 405h320l309 -405l59 -9z" />
    <glyph glyph-name="fraction" unicode="&#x2044;" horiz-adv-x="555" 
d="M-350 0h-330l1624 1468h322z" />
    <glyph glyph-name="uni205F" unicode="&#x205f;" horiz-adv-x="544" 
 />
    <glyph glyph-name="uni2070" unicode="&#x2070;" horiz-adv-x="909" 
d="M471 688q-152 0 -236.5 93t-84.5 259q0 139 62 257.5t172.5 188.5t244.5 70q151 0 236 -93t85 -259q0 -138 -62 -256.5t-172.5 -189t-244.5 -70.5zM508 942q57 0 101 94.5t44 182.5q0 86 -63 86q-37 0 -71 -45.5t-53.5 -109.5t-19.5 -122q0 -45 15 -65.5t47 -20.5z" />
    <glyph glyph-name="uni2074" unicode="&#x2074;" horiz-adv-x="911" 
d="M768 707h-270l24 135h-432l31 207l526 491h262l-82 -475h111l-33 -223h-110zM588 1198l-197 -133h164z" />
    <glyph glyph-name="uni2075" unicode="&#x2075;" horiz-adv-x="886" 
d="M436 688q-58 0 -110.5 9t-103.5 29t-86.5 59.5t-47.5 93.5l266 120q29 -79 123 -79q58 0 92.5 26.5t34.5 63.5q0 31 -24.5 49t-67.5 18q-37 0 -69.5 -17t-47.5 -36l-229 47l199 469h569l-33 -217h-366l-66 -100h4q68 45 184 45q47 0 88 -10.5t79.5 -33.5t60.5 -68
t22 -107q0 -153 -134 -257t-337 -104z" />
    <glyph glyph-name="uni2076" unicode="&#x2076;" horiz-adv-x="921" 
d="M483 688q-166 0 -255 80.5t-89 232.5q0 103 43.5 203t118.5 178t184.5 126t231.5 48q89 0 168 -26.5t119 -83.5l-173 -178q-54 61 -153 61q-78 0 -135.5 -32t-91.5 -83h6q59 39 194 39q123 0 204 -59.5t81 -169.5q0 -139 -131 -237.5t-322 -98.5zM537 913q55 0 94 29
t39 68q0 30 -27.5 47.5t-71.5 17.5q-55 0 -95 -27t-40 -67q0 -30 29 -49t72 -19z" />
    <glyph glyph-name="uni2077" unicode="&#x2077;" horiz-adv-x="739" 
d="M492 707h-304q13 68 35 137.5t58.5 154t94.5 166.5t130 144h-346l33 223h681l-34 -223q-273 -172 -348 -602z" />
    <glyph glyph-name="uni2078" unicode="&#x2078;" horiz-adv-x="901" 
d="M467 688q-160 0 -255 62t-95 163q0 81 60.5 149.5t133.5 82.5v2q-84 55 -84 137q0 110 113 191t274 81q84 0 153 -23.5t114 -76t45 -127.5q0 -120 -142 -182l-2 -2q53 -13 92 -57t39 -111q0 -122 -127.5 -205.5t-318.5 -83.5zM563 1243q42 0 72.5 22t30.5 52
q0 20 -21 32.5t-55 12.5q-43 0 -73 -20t-30 -48q0 -22 22 -36.5t54 -14.5zM508 926q49 0 84 25t35 59q0 27 -24 43t-64 16q-49 0 -86 -25t-37 -59q0 -26 26.5 -42.5t65.5 -16.5z" />
    <glyph glyph-name="uni2079" unicode="&#x2079;" horiz-adv-x="925" 
d="M416 688q-95 0 -182 27.5t-125 81.5l167 178q33 -31 85 -49.5t100 -18.5q76 0 127.5 39.5t73.5 93.5h-3q-67 -39 -200 -39q-122 0 -202.5 56t-80.5 166q0 139 132.5 236t326.5 97q166 0 251 -82.5t85 -242.5q0 -146 -72 -270.5t-200 -198.5t-283 -74zM541 1184
q56 0 96.5 26.5t40.5 65.5q0 30 -28 48.5t-72 18.5q-56 0 -96 -27.5t-40 -68.5q0 -29 27 -46t72 -17z" />
    <glyph glyph-name="uni2080" unicode="&#x2080;" horiz-adv-x="909" 
d="M299 -285q-152 0 -237 93.5t-85 259.5q0 139 62 257.5t173 188.5t245 70q151 0 236 -93.5t85 -259.5q0 -138 -62 -256.5t-172.5 -189t-244.5 -70.5zM336 -31q57 0 101 94.5t44 182.5q0 86 -63 86q-37 0 -71 -45.5t-53.5 -109.5t-19.5 -122q0 -45 15 -65.5t47 -20.5z" />
    <glyph glyph-name="uni2081" unicode="&#x2081;" horiz-adv-x="645" 
d="M381 -266h-283l82 440q-117 -62 -211 -82l43 293q98 34 159.5 82.5t70.5 99.5h280z" />
    <glyph glyph-name="uni2082" unicode="&#x2082;" horiz-adv-x="878" 
d="M653 -266h-714l6 37q12 74 32.5 127t60.5 105t105.5 97.5t165.5 94.5q10 5 34.5 16t42.5 20t37.5 21t30.5 25.5t11 27.5q0 15 -19.5 25t-52.5 10q-55 0 -94.5 -31t-52.5 -88l-254 37q26 149 152 237.5t296 88.5q146 0 235 -67t89 -175q0 -79 -57.5 -149.5t-147.5 -106.5
q-8 -3 -44.5 -16t-59 -22t-52 -26.5t-45.5 -35.5h332z" />
    <glyph glyph-name="uni2083" unicode="&#x2083;" horiz-adv-x="882" 
d="M272 -287q-146 0 -245 55t-113 138l266 121q34 -86 127 -86q50 0 80.5 18.5t30.5 46.5q0 48 -73 51h-32h-92l27 185h94q47 0 86 16.5t39 46.5q0 21 -22.5 35t-57.5 14q-45 0 -78 -24t-47 -64l-252 58q31 106 151 183t281 77q134 0 225 -52.5t91 -144.5q0 -69 -52 -130
t-122 -71v-2q57 -9 98 -54t41 -105q0 -54 -33 -109t-90.5 -100.5t-144 -74t-183.5 -28.5z" />
    <glyph glyph-name="uni2084" unicode="&#x2084;" horiz-adv-x="911" 
d="M596 -266h-270l24 135h-432l31 207l526 491h262l-82 -475h111l-33 -223h-110zM416 225l-197 -133h164z" />
    <glyph glyph-name="uni2085" unicode="&#x2085;" horiz-adv-x="886" 
d="M264 -285q-58 0 -110.5 9t-103.5 29t-86.5 59.5t-47.5 93.5l266 121q29 -80 123 -80q58 0 92.5 26.5t34.5 63.5q0 31 -24.5 49t-67.5 18q-37 0 -69.5 -17t-47.5 -36l-229 47l199 469h569l-33 -217h-367l-65 -100h4q68 45 184 45q47 0 88 -10.5t79.5 -33.5t60.5 -68
t22 -107q0 -153 -134 -257t-337 -104z" />
    <glyph glyph-name="uni2086" unicode="&#x2086;" horiz-adv-x="921" 
d="M311 -285q-166 0 -255 81t-89 233q0 103 43.5 203t118.5 178t184.5 126t231.5 48q88 0 167 -27t119 -84l-172 -178q-54 61 -153 61q-150 0 -227 -114h6q59 39 194 39q122 0 203.5 -60t81.5 -170q0 -139 -131 -237.5t-322 -98.5zM365 -59q55 0 94 28.5t39 67.5
q0 30 -27.5 47.5t-71.5 17.5q-55 0 -95 -27t-40 -67q0 -30 28.5 -48.5t72.5 -18.5z" />
    <glyph glyph-name="uni2087" unicode="&#x2087;" horiz-adv-x="739" 
d="M319 -266h-303q13 68 35 137.5t58.5 154t94.5 166.5t130 144h-346l32 223h682l-34 -223q-274 -173 -349 -602z" />
    <glyph glyph-name="uni2088" unicode="&#x2088;" horiz-adv-x="901" 
d="M295 -285q-160 0 -255 62.5t-95 163.5q0 80 60.5 148.5t133.5 82.5v2q-84 55 -84 137q0 110 113 191.5t274 81.5q84 0 153 -23.5t114 -76.5t45 -128q0 -120 -142 -182l-2 -2q53 -13 92 -57t39 -111q0 -122 -127.5 -205.5t-318.5 -83.5zM391 270q42 0 72.5 22t30.5 52
q0 20 -21 32.5t-55 12.5q-43 0 -73 -19.5t-30 -47.5q0 -22 22 -37t54 -15zM336 -47q49 0 84 25t35 59q0 27 -24 43t-64 16q-49 0 -86 -25t-37 -59q0 -26 26.5 -42.5t65.5 -16.5z" />
    <glyph glyph-name="uni2089" unicode="&#x2089;" horiz-adv-x="925" 
d="M244 -285q-95 0 -182 27.5t-125 81.5l167 178q33 -31 85 -49.5t100 -18.5q76 0 127 40t73 94h-2q-67 -39 -200 -39q-122 0 -202.5 55.5t-80.5 165.5q0 139 132.5 236.5t326.5 97.5q165 0 250.5 -83t85.5 -243q0 -146 -72 -270.5t-200 -198.5t-283 -74zM369 211
q56 0 96.5 26.5t40.5 65.5q0 30 -28.5 49t-71.5 19q-56 0 -96 -28t-40 -69q0 -29 27 -46t72 -17z" />
    <glyph glyph-name="Euro" unicode="&#x20ac;" horiz-adv-x="2035" 
d="M1362 307q56 0 107 15.5t231 87.5l176 -242q-147 -106 -329 -154.5t-351 -48.5q-328 0 -541 152.5t-254 414.5h-292l26 160h256q7 94 29 174h-252l25 160h286q60 127 157.5 235t227 191t297 130.5t352.5 47.5q106 0 201.5 -14.5t204 -61.5t178.5 -124l-297 -252
q-132 110 -352 110q-184 0 -328.5 -69t-230.5 -193h627l-25 -160h-678q-25 -98 -25 -174h670l-26 -160h-625q21 -69 65 -113.5t117 -69t160 -33.5t213 -9z" />
    <glyph glyph-name="trademark" unicode="&#x2122;" horiz-adv-x="1941" 
d="M573 903h-190l98 547h-243l24 166h678l-25 -166h-243zM1124 903h-194l125 713h196q21 -60 81 -222.5t87 -238.5q59 79 177 243.5t157 217.5h199l-123 -713h-195l68 363q-29 -42 -81 -124t-92 -135t-95 -104h-109q-6 17 -51.5 152t-79.5 211z" />
    <glyph glyph-name="oneeighth" unicode="&#x215b;" horiz-adv-x="2101" 
d="M553 707h-283l82 440q-117 -62 -211 -82l43 293q98 34 159.5 82.5t70.5 99.5h280zM295 0h-330l1624 1468h322zM1540 -29q-160 0 -255 62.5t-95 163.5q0 80 60.5 148.5t133.5 82.5v2q-84 55 -84 137q0 110 113.5 191.5t274.5 81.5q84 0 152.5 -23.5t113.5 -76.5t45 -128
q0 -120 -141 -182l-3 -2q53 -14 92.5 -57.5t39.5 -110.5q0 -122 -128 -205.5t-319 -83.5zM1636 526q42 0 72.5 22t30.5 52q0 20 -21 32.5t-55 12.5q-43 0 -72.5 -19.5t-29.5 -47.5q0 -22 21.5 -37t53.5 -15zM1581 209q49 0 84 25t35 59q0 27 -24 43t-64 16q-49 0 -86 -25
t-37 -59q0 -26 26.5 -42.5t65.5 -16.5z" />
    <glyph glyph-name="threeeighths" unicode="&#x215c;" horiz-adv-x="2338" 
d="M444 686q-146 0 -245 55t-113 138l266 120q34 -86 127 -86q50 0 80.5 19t30.5 47q0 48 -73 51h-32h-92l27 184h94q47 0 86 17t39 47q0 21 -22.5 35t-57.5 14q-45 0 -78 -24t-47 -64l-252 57q31 106 151 183t281 77q134 0 225 -52t91 -144q0 -69 -52 -130t-122 -71v-2
q57 -9 98 -54.5t41 -105.5q0 -54 -33 -109t-90.5 -100t-144 -73.5t-183.5 -28.5zM532 0h-329l1624 1468h321zM1778 -29q-160 0 -255.5 62.5t-95.5 163.5q0 80 60.5 148.5t134.5 82.5v2q-84 55 -84 137q0 110 113 191.5t274 81.5q84 0 152.5 -23.5t113.5 -76.5t45 -128
q0 -120 -141 -182l-2 -2q53 -13 92 -57t39 -111q0 -122 -127.5 -205.5t-318.5 -83.5zM1874 526q42 0 72 22t30 52q0 20 -20.5 32.5t-54.5 12.5q-43 0 -73 -19.5t-30 -47.5q0 -22 22 -37t54 -15zM1819 209q49 0 83.5 25t34.5 59q0 27 -24 43t-64 16q-49 0 -86 -25t-37 -59
q0 -26 27 -42.5t66 -16.5z" />
    <glyph glyph-name="fiveeighths" unicode="&#x215d;" horiz-adv-x="2342" 
d="M436 688q-58 0 -110.5 9t-103.5 29t-86.5 59.5t-47.5 93.5l266 120q29 -79 123 -79q58 0 92.5 26.5t34.5 63.5q0 31 -24.5 49t-67.5 18q-37 0 -69.5 -17t-47.5 -36l-229 47l199 469h569l-33 -217h-366l-66 -100h4q68 45 184 45q47 0 88 -10.5t79.5 -33.5t60.5 -68
t22 -107q0 -153 -134 -257t-337 -104zM537 0h-330l1624 1468h321zM1782 -29q-160 0 -255 62.5t-95 163.5q0 80 60.5 148.5t133.5 82.5v2q-84 55 -84 137q0 110 113 191.5t274 81.5q84 0 153 -23.5t114 -76.5t45 -128q0 -120 -142 -182l-2 -2q53 -13 92 -57t39 -111
q0 -122 -127.5 -205.5t-318.5 -83.5zM1878 526q42 0 72 22t30 52q0 20 -20.5 32.5t-54.5 12.5q-43 0 -73 -19.5t-30 -47.5q0 -22 22 -37t54 -15zM1823 209q49 0 84 25t35 59q0 27 -24.5 43t-64.5 16q-49 0 -85.5 -25t-36.5 -59q0 -26 26.5 -42.5t65.5 -16.5z" />
    <glyph glyph-name="seveneighths" unicode="&#x215e;" horiz-adv-x="2195" 
d="M492 707h-304q13 68 35 137.5t58.5 154t94.5 166.5t130 144h-346l33 223h681l-34 -223q-273 -172 -348 -602zM389 0h-330l1624 1468h322zM1634 -29q-160 0 -255 62.5t-95 163.5q0 80 60.5 148.5t134.5 82.5v2q-84 55 -84 137q0 110 113 191.5t274 81.5q84 0 152.5 -23.5
t113.5 -76.5t45 -128q0 -120 -141 -182l-2 -2q53 -13 92 -57t39 -111q0 -122 -128 -205.5t-319 -83.5zM1731 526q42 0 72 22t30 52q0 20 -21 32.5t-55 12.5q-43 0 -72.5 -19.5t-29.5 -47.5q0 -22 22 -37t54 -15zM1675 209q49 0 84 25t35 59q0 27 -24 43t-64 16
q-49 0 -86 -25t-37 -59q0 -26 26.5 -42.5t65.5 -16.5z" />
    <glyph glyph-name="arrowleft" unicode="&#x2190;" horiz-adv-x="1652" 
d="M602 778h961l-41 -266h-971l235 -276h-327l-336 405l2 8l479 406h328z" />
    <glyph glyph-name="arrowup" unicode="&#x2191;" horiz-adv-x="1200" 
d="M717 1202l426 -340l-47 -307l-310 252l-143 -787h-281l142 781l-391 -246l47 307l547 340h10z" />
    <glyph glyph-name="arrowright" unicode="&#x2192;" horiz-adv-x="1652" 
d="M895 1055h328l336 -406l-3 -8l-479 -405h-327l333 276h-964l41 266h968z" />
    <glyph glyph-name="arrowdown" unicode="&#x2193;" horiz-adv-x="1202" 
d="M854 1202l-141 -782l391 248l-47 -308l-547 -340h-8l-428 340l47 308l309 -250l141 784h283z" />
    <glyph glyph-name="arrowboth" unicode="&#x2194;" horiz-adv-x="2080" 
d="M776 236h-327l-336 405l2 8l479 406h328l-365 -289h1032l-258 289h328l336 -406l-2 -8l-480 -405h-327l364 288h-1030z" />
    <glyph glyph-name="arrowupdn" unicode="&#x2195;" horiz-adv-x="1271" 
d="M543 14h-11l-432 299l41 271l314 -189l127 617l-392 -207l46 282l538 299h10l435 -299l-45 -282l-310 209l-127 -621l387 191l-41 -271z" />
    <glyph glyph-name="uni2196" unicode="&#x2196;" horiz-adv-x="1470" 
d="M795 733l512 -604l-244 -139l-518 608l-142 -373l-194 244l199 506l10 6l643 -20l194 -244z" />
    <glyph glyph-name="uni2197" unicode="&#x2197;" horiz-adv-x="1339" 
d="M950 975l199 -506l-195 -244l-141 373l-518 -608l-244 139l512 604l-461 -16l195 244l643 20z" />
    <glyph glyph-name="uni2198" unicode="&#x2198;" horiz-adv-x="1476" 
d="M940 625l141 372l195 -243l-199 -506l-10 -6l-643 20l-195 244l461 -17l-512 605l244 139z" />
    <glyph glyph-name="uni2199" unicode="&#x2199;" horiz-adv-x="1337" 
d="M1057 1233l243 -139l-512 -605l461 17l-194 -244l-643 -20l-11 6l-198 506l194 243l142 -372z" />
    <glyph glyph-name="emptyset" unicode="&#x2205;" horiz-adv-x="1736" 
d="M1466 1309l195 -129l-182 -179q133 -136 133 -337q0 -89 -28.5 -176.5t-81 -164.5t-129 -143t-169.5 -113.5t-206.5 -74.5t-235.5 -27q-169 0 -297 49l-195 -190l-188 133l184 180q-139 133 -139 342q0 136 64 263.5t175 224t271 155t340 58.5q167 0 303 -52zM496 526
q0 -73 43 -125l454 447q-40 4 -65 4q-179 0 -305.5 -99t-126.5 -227zM1241 618q0 67 -35 117l-452 -438q36 -4 57 -4q181 0 305.5 98t124.5 227z" />
    <glyph glyph-name="minus" unicode="&#x2212;" horiz-adv-x="1292" 
d="M1143 500h-1012l39 256h1012z" />
    <glyph glyph-name="infinity" unicode="&#x221e;" horiz-adv-x="2131" 
d="M532 283q-188 0 -294.5 79t-106.5 211q0 87 47 162.5t122.5 125t167.5 78t183 28.5q109 0 206 -44t239 -159q193 119 305.5 161t220.5 42q179 0 287 -81t108 -214q0 -102 -64.5 -190.5t-184 -143.5t-267.5 -55q-122 0 -214.5 42t-231.5 160q-171 -116 -281.5 -159
t-241.5 -43zM578 496q70 0 138 28.5t189 100.5q-93 78 -145 104.5t-127 26.5q-91 0 -159 -44.5t-68 -103.5q0 -52 50.5 -82t121.5 -30zM1526 498q87 0 152 42.5t65 100.5q0 49 -47 80t-121 31q-72 0 -141.5 -27t-186.5 -100q88 -68 148.5 -97.5t130.5 -29.5z" />
    <glyph glyph-name="approxequal" unicode="&#x2248;" horiz-adv-x="1368" 
d="M436 641h-276q27 169 140 271t255 102q59 0 112 -16.5t84.5 -36t73 -36t80.5 -16.5q100 0 119 99h276q-29 -179 -128 -278t-248 -99q-67 0 -124.5 18t-90 39t-72 39t-74.5 18q-52 0 -86 -32t-41 -72zM354 168h-276q29 168 140 270.5t257 102.5q60 0 112.5 -16.5t83.5 -36
t71.5 -36t80.5 -16.5q98 0 121 99h277q-31 -179 -130 -278t-249 -99q-67 0 -124 18t-90 39t-72 39t-73 18q-53 0 -86.5 -32t-42.5 -72z" />
    <glyph glyph-name="notequal" unicode="&#x2260;" horiz-adv-x="1341" 
d="M1253 963l-39 -256h-348l-135 -203h443l-37 -256h-541l-100 -164h-248l102 164h-248l39 256h344l136 203h-441l41 256h535l90 139h246l-88 -139h249z" />
    <glyph glyph-name="lessequal" unicode="&#x2264;" horiz-adv-x="1267" 
d="M1057 219h-961l33 215h512l-475 164l37 262l985 166l-35 -233l-668 -105l609 -242z" />
    <glyph glyph-name="greaterequal" unicode="&#x2265;" horiz-adv-x="1267" 
d="M1059 219h-961l35 227l688 242l-626 105l34 233l926 -166l-39 -262l-534 -164h512z" />
    <glyph glyph-name="lozenge" unicode="&#x25ca;" horiz-adv-x="1361" 
d="M635 0h-109l-391 694l637 692h109l391 -692zM426 694l205 -336h6l342 336l-203 334h-6z" />
    <glyph glyph-name="A.ss01" horiz-adv-x="1904" 
d="M307 0h-407l977 1597h514l411 -1597h-397q-6 24 -22 84.5t-22.5 87t-18 80t-21.5 113.5h-782q-25 -44 -48.5 -83t-49.5 -79.5t-42 -65t-47.5 -71.5t-44.5 -66zM702 690h551q-17 61 -38.5 130.5t-41 140.5t-55.5 217h-84q-56 -79 -172.5 -252.5t-159.5 -235.5z" />
    <glyph glyph-name="Aacute.ss01" horiz-adv-x="1904" 
d="M1765 2095l-452 -375h-322l340 375h434zM307 0h-407l977 1597h514l411 -1597h-397q-6 24 -22 84.5t-22.5 87t-18 80t-21.5 113.5h-782q-25 -44 -48.5 -83t-49.5 -79.5t-42 -65t-47.5 -71.5t-44.5 -66zM702 690h551q-17 61 -38.5 130.5t-41 140.5t-55.5 217h-84
q-56 -79 -172.5 -252.5t-159.5 -235.5z" />
    <glyph glyph-name="Abreve.ss01" horiz-adv-x="1904" 
d="M1143 1712q-210 0 -326.5 105.5t-93.5 275.5h301q-8 -60 30.5 -102.5t123.5 -42.5q87 0 142.5 41.5t70.5 103.5h301q-32 -170 -185 -275.5t-364 -105.5zM307 0h-407l977 1597h514l411 -1597h-397q-6 24 -22 84.5t-22.5 87t-18 80t-21.5 113.5h-782q-25 -44 -48.5 -83
t-49.5 -79.5t-42 -65t-47.5 -71.5t-44.5 -66zM702 690h551q-17 61 -38.5 130.5t-41 140.5t-55.5 217h-84q-56 -79 -172.5 -252.5t-159.5 -235.5z" />
    <glyph glyph-name="Acircumflex.ss01" horiz-adv-x="1904" 
d="M1380 2095l289 -375h-330q-135 124 -159 148q-5 -4 -46.5 -34t-57.5 -41t-51.5 -33t-68.5 -40h-329l413 375h340zM307 0h-407l977 1597h514l411 -1597h-397q-6 24 -22 84.5t-22.5 87t-18 80t-21.5 113.5h-782q-25 -44 -48.5 -83t-49.5 -79.5t-42 -65t-47.5 -71.5
t-44.5 -66zM702 690h551q-17 61 -38.5 130.5t-41 140.5t-55.5 217h-84q-56 -79 -172.5 -252.5t-159.5 -235.5z" />
    <glyph glyph-name="Adieresis.ss01" horiz-adv-x="1904" 
d="M864 1712q-80 0 -132 47.5t-52 120.5q0 92 73.5 158.5t172.5 66.5q78 0 130 -47t52 -119q0 -88 -73 -157.5t-171 -69.5zM1430 1712q-82 0 -134.5 47.5t-52.5 120.5q0 92 73.5 158.5t172.5 66.5q78 0 130 -47t52 -119q0 -88 -72 -157.5t-169 -69.5zM307 0h-407l977 1597
h514l411 -1597h-397q-6 24 -22 84.5t-22.5 87t-18 80t-21.5 113.5h-782q-25 -44 -48.5 -83t-49.5 -79.5t-42 -65t-47.5 -71.5t-44.5 -66zM702 690h551q-17 61 -38.5 130.5t-41 140.5t-55.5 217h-84q-56 -79 -172.5 -252.5t-159.5 -235.5z" />
    <glyph glyph-name="Agrave.ss01" horiz-adv-x="1904" 
d="M1341 1720h-321l-328 375h436zM307 0h-407l977 1597h514l411 -1597h-397q-6 24 -22 84.5t-22.5 87t-18 80t-21.5 113.5h-782q-25 -44 -48.5 -83t-49.5 -79.5t-42 -65t-47.5 -71.5t-44.5 -66zM702 690h551q-17 61 -38.5 130.5t-41 140.5t-55.5 217h-84
q-56 -79 -172.5 -252.5t-159.5 -235.5z" />
    <glyph glyph-name="Amacron.ss01" horiz-adv-x="1904" 
d="M1606 1741h-910l39 250h907zM307 0h-407l977 1597h514l411 -1597h-397q-6 24 -22 84.5t-22.5 87t-18 80t-21.5 113.5h-782q-25 -44 -48.5 -83t-49.5 -79.5t-42 -65t-47.5 -71.5t-44.5 -66zM702 690h551q-17 61 -38.5 130.5t-41 140.5t-55.5 217h-84
q-56 -79 -172.5 -252.5t-159.5 -235.5z" />
    <glyph glyph-name="Aogonek.ss01" horiz-adv-x="1904" 
d="M1417 -154q0 -35 40 -65.5t120 -30.5q65 0 111 10l-33 -204q-66 -19 -166 -19q-89 0 -162.5 20t-122.5 67.5t-49 115.5q0 84 73.5 153.5t178.5 106.5h-2q-6 24 -22 84.5t-22.5 87t-18 80t-21.5 113.5h-782q-25 -44 -48.5 -83t-49.5 -79.5t-42 -65t-47.5 -71.5t-44.5 -66
h-407l977 1597h514l411 -1597h-155q-109 -11 -169.5 -60t-60.5 -94zM702 690h551q-17 61 -38.5 130.5t-41 140.5t-55.5 217h-84q-56 -79 -172.5 -252.5t-159.5 -235.5z" />
    <glyph glyph-name="Aring.ss01" horiz-adv-x="1904" 
d="M1143 1708q-119 0 -198 64.5t-79 162.5q0 115 108 204t255 89q121 0 197.5 -63t76.5 -162q0 -117 -106.5 -206t-253.5 -89zM1169 1890q48 0 84.5 27.5t36.5 60.5q0 27 -25.5 46.5t-64.5 19.5q-49 0 -85 -27t-36 -61q0 -28 25.5 -47t64.5 -19zM307 0h-407l977 1597h514
l411 -1597h-397q-6 24 -22 84.5t-22.5 87t-18 80t-21.5 113.5h-782q-25 -44 -48.5 -83t-49.5 -79.5t-42 -65t-47.5 -71.5t-44.5 -66zM702 690h551q-17 61 -38.5 130.5t-41 140.5t-55.5 217h-84q-56 -79 -172.5 -252.5t-159.5 -235.5z" />
    <glyph glyph-name="Atilde.ss01" horiz-adv-x="1904" 
d="M1352 1722q-106 0 -160 35l-66 41q-44 29 -90 29q-39 0 -66.5 -25t-35.5 -61h-252q26 156 132.5 250t244.5 94q89 0 172 -45l57 -33q28 -16 72 -16q35 0 57.5 21.5t30.5 58.5h254q-27 -170 -118.5 -259.5t-231.5 -89.5zM307 0h-407l977 1597h514l411 -1597h-397
q-6 24 -22 84.5t-22.5 87t-18 80t-21.5 113.5h-782q-25 -44 -48.5 -83t-49.5 -79.5t-42 -65t-47.5 -71.5t-44.5 -66zM702 690h551q-17 61 -38.5 130.5t-41 140.5t-55.5 217h-84q-56 -79 -172.5 -252.5t-159.5 -235.5z" />
    <glyph glyph-name="B.ss01" horiz-adv-x="1753" 
d="M899 0h-801l283 1597h809q243 0 379.5 -92t136.5 -256q0 -142 -106 -264.5t-269 -161.5v-4q71 -14 123 -35t97.5 -57t69.5 -93t24 -134q0 -144 -93.5 -258t-264 -178t-388.5 -64zM639 965h313q158 0 251 41t93 124q0 43 -22.5 70.5t-65 40.5t-84.5 17t-100 4h-317
q-7 -34 -17 -95t-21.5 -108.5t-29.5 -93.5zM524 336h346q177 0 276 47.5t99 128.5q0 37 -19 63.5t-46.5 40.5t-70.5 22.5t-78.5 10.5t-82.5 2h-354q-11 -53 -36.5 -166.5t-33.5 -148.5z" />
    <glyph glyph-name="C.ss01" horiz-adv-x="2035" 
d="M981 -35q-393 0 -626.5 191.5t-233.5 515.5q0 152 55.5 296t159.5 263t241.5 209t312 140t361.5 50q312 0 525 -141.5t274 -372.5l-369 -135q-22 63 -61 116t-96.5 97t-140.5 69t-183 25q-118 0 -225.5 -33t-190 -90t-143.5 -131t-93 -159.5t-32 -172.5
q0 -88 30.5 -157.5t80.5 -113t118.5 -72.5t139.5 -40.5t149 -11.5q217 0 383.5 93.5t261.5 256.5l332 -114q-82 -155 -196 -268.5t-248.5 -180t-279.5 -98t-306 -31.5z" />
    <glyph glyph-name="D.ss01" horiz-adv-x="1949" 
d="M864 0h-766l283 1597h743q393 0 589 -170t196 -475q0 -147 -47 -287.5t-138 -260.5t-216 -210.5t-291.5 -142t-352.5 -51.5zM524 336h344q291 0 467 155t176 394q0 69 -11.5 124t-37.5 93.5t-52.5 66.5t-72 45t-79 27.5t-91 14.5t-91.5 5t-95 1h-274q-14 -71 -28 -128
t-25 -102.5t-43.5 -219.5t-86.5 -476z" />
    <glyph glyph-name="E.ss01" horiz-adv-x="1589" 
d="M1378 0h-1280l283 1597h1255l-49 -335h-880q-5 -25 -11.5 -42t-11.5 -29.5t-15.5 -64t-25.5 -141.5h832l-54 -354h-831l-10.5 -45t-6 -28.5t-15.5 -71t-34 -150.5h903z" />
    <glyph glyph-name="F.ss01" horiz-adv-x="1519" 
d="M1616 1597l-49 -335h-862l-60 -318h803l-51 -354h-817l-105 -590h-377l283 1597h1235z" />
    <glyph glyph-name="G.ss01" horiz-adv-x="2078" 
d="M977 -35q-403 0 -630.5 182.5t-227.5 505.5q0 191 87 369.5t235.5 312.5t360 214.5t447.5 80.5q315 0 530 -144.5t271 -369.5l-369 -135q-49 137 -169.5 222t-307.5 85q-146 0 -276 -49.5t-219 -131t-141 -186.5t-52 -214q0 -189 142 -294.5t397 -105.5q204 0 349 59.5
t210 184.5h-496l45 295h873l-21 -111q-65 -353 -343.5 -561.5t-694.5 -208.5z" />
    <glyph glyph-name="H.ss01" horiz-adv-x="1992" 
d="M1487 963l112 634h377l-282 -1597h-377l108 608h-841l-109 -608h-377l283 1597h377l-113 -634h842z" />
    <glyph glyph-name="I.ss01" horiz-adv-x="1431" 
d="M1229 0h-1229l49 336h426l184 926h-438l49 335h1254l-49 -335h-441l-182 -926h426z" />
    <glyph glyph-name="Iacute.ss01" horiz-adv-x="1431" 
d="M1370 2095l-452 -375h-322l340 375h434zM1229 0h-1229l49 336h426l184 926h-438l49 335h1254l-49 -335h-441l-182 -926h426z" />
    <glyph glyph-name="Icircumflex.ss01" horiz-adv-x="1431" 
d="M1157 2095l289 -375h-330q-147 135 -160 148q-10 -7 -47.5 -34t-55.5 -40t-52.5 -34.5t-67.5 -39.5h-330l414 375h340zM1229 0h-1229l49 336h426l184 926h-438l49 335h1254l-49 -335h-441l-182 -926h426z" />
    <glyph glyph-name="Idieresis.ss01" horiz-adv-x="1431" 
d="M641 1712q-80 0 -132 47.5t-52 120.5q0 92 73 158.5t172 66.5q78 0 130.5 -47t52.5 -119q0 -88 -73 -157.5t-171 -69.5zM1206 1712q-82 0 -134 47t-52 121q0 92 73.5 158.5t172.5 66.5q78 0 130 -47t52 -119q0 -88 -72.5 -157.5t-169.5 -69.5zM1229 0h-1229l49 336h426
l184 926h-438l49 335h1254l-49 -335h-441l-182 -926h426z" />
    <glyph glyph-name="Idotaccent.ss01" horiz-adv-x="1431" 
d="M924 1743q-82 0 -135.5 49.5t-53.5 124.5q0 91 75.5 159t176.5 68q82 0 134.5 -48t52.5 -122q0 -91 -75.5 -161t-174.5 -70zM1229 0h-1229l49 336h426l184 926h-438l49 335h1254l-49 -335h-441l-182 -926h426z" />
    <glyph glyph-name="Igrave.ss01" horiz-adv-x="1431" 
d="M1118 1720h-321l-328 375h436zM1229 0h-1229l49 336h426l184 926h-438l49 335h1254l-49 -335h-441l-182 -926h426z" />
    <glyph glyph-name="Imacron.ss01" horiz-adv-x="1431" 
d="M1382 1741h-909l39 250h907zM1229 0h-1229l49 336h426l184 926h-438l49 335h1254l-49 -335h-441l-182 -926h426z" />
    <glyph glyph-name="J.ss01" horiz-adv-x="1554" 
d="M639 -35q-148 0 -268.5 38t-202.5 108.5t-117.5 178t-13.5 238.5l10 60l381 49l-12 -55q-26 -117 45.5 -196t206.5 -79q63 0 116 18t88 46t61.5 66t40 73.5t21.5 73.5l135 678h-667l51 335h1042l-172 -962q-10 -58 -18.5 -97t-34.5 -115.5t-58 -130.5t-90 -120.5
t-129.5 -107.5t-179 -70t-235.5 -29z" />
    <glyph glyph-name="K.ss01" horiz-adv-x="1773" 
d="M475 0h-377l283 1597h377l-109 -557h13q515 352 821 557h499q-110 -80 -395.5 -285.5t-714.5 -518.5q144 -132 416.5 -396.5t415.5 -396.5h-520q-74 61 -173.5 164.5t-200 190.5t-235.5 165z" />
    <glyph glyph-name="L.ss01" horiz-adv-x="1433" 
d="M758 1597l-223 -1261h823l-49 -336h-1211l283 1597h377z" />
    <glyph glyph-name="M.ss01" horiz-adv-x="2426" 
d="M1960 1597h450l-282 -1597h-381l182 928l-643 -682h-250l-372 682l-183 -928h-383l283 1597h453q31 -64 178 -361t225 -460h4q214 247 719 821z" />
    <glyph glyph-name="N.ss01" horiz-adv-x="2000" 
d="M475 0h-377l283 1597h405l580 -847h70l174 847h375l-283 -1597h-404l-581 850h-70z" />
    <glyph glyph-name="O.ss01" horiz-adv-x="2123" 
d="M956 -35q-245 0 -435 87t-296 247t-106 367q0 186 89 362t239 308.5t360.5 213t439.5 80.5q246 0 437.5 -88.5t297 -248.5t105.5 -367q0 -186 -90 -362t-241 -307.5t-361.5 -211.5t-438.5 -80zM1008 307q138 0 264.5 48.5t216.5 128t143.5 184.5t53.5 215q0 181 -134 293
t-350 112q-138 0 -265.5 -49t-218.5 -129t-145.5 -185.5t-54.5 -215.5q0 -180 135.5 -291t354.5 -111z" />
    <glyph glyph-name="P.ss01" horiz-adv-x="1662" 
d="M381 1597h743q25 0 44 -0.5t65 -4.5t83 -11t88 -22t91 -36t82 -54.5t69.5 -75t45.5 -100t18 -128.5q0 -96 -33.5 -188t-99 -171t-156 -139.5t-213 -95t-260.5 -34.5h-379l-94 -537h-377zM633 891h291q79 0 145 11t122 34t88 65t32 99q0 34 -10.5 60t-25.5 43t-42 29
t-48.5 17.5t-58.5 8.5t-57.5 3.5t-58.5 0.5h-310z" />
    <glyph glyph-name="Q.ss01" horiz-adv-x="1757" 
d="M659 -117v-2h811l-55 -311h-1538l524 489q-145 85 -227 233.5t-82 338.5q0 159 50.5 310.5t142 274.5t212 217t267.5 145.5t301 51.5q197 0 351.5 -83t241.5 -235.5t87 -350.5q0 -197 -79 -381t-210.5 -318.5t-311 -215.5t-372.5 -81h-16q-30 -26 -97 -82zM1008 1288
q-105 0 -202.5 -49t-169 -130t-114.5 -192t-43 -229q0 -171 98 -276t257 -105q139 0 260 82t192.5 219.5t71.5 294.5q0 170 -94 277.5t-256 107.5z" />
    <glyph glyph-name="R.ss01" horiz-adv-x="1730" 
d="M1710 1157q0 -238 -187.5 -406.5t-484.5 -193.5l547 -557h-440l-551 553h-19l-100 -553h-377l283 1597h743q48 0 94 -3.5t106.5 -15t112 -30t103.5 -52.5t88 -79t59 -111.5t23 -148.5zM1016 1303h-303l-90 -431h297q172 0 282.5 72t110.5 178q0 88 -77 134.5t-220 46.5z
" />
    <glyph glyph-name="S.ss01" horiz-adv-x="1607" 
d="M717 -35q-281 0 -464.5 129t-211.5 346l367 115q10 -63 35.5 -110t59 -75.5t78.5 -45.5t88 -23t95 -6q148 0 247 48.5t99 119.5q0 25 -11.5 47t-35 39t-47.5 30t-61 25.5t-63 19.5t-65 17l-163 41q-41 10 -75.5 20.5t-81.5 29.5t-83.5 40t-75 52.5t-64 67.5t-41.5 85
t-16 104q0 104 56 203.5t152.5 176t238.5 123t303 46.5q109 0 205 -21.5t164.5 -58t120.5 -84t80 -99.5t36 -105l-364 -136q-55 177 -295 177q-123 0 -209 -42.5t-86 -103.5q0 -32 24.5 -59.5t72.5 -49t90.5 -36t105.5 -31.5l194 -53q42 -11 68.5 -19t73.5 -26.5t78 -36.5
t69 -48t61 -63.5t38.5 -81t15.5 -102.5q0 -87 -36.5 -172.5t-107 -159.5t-166.5 -131t-224 -90t-269 -33z" />
    <glyph glyph-name="U.ss01" horiz-adv-x="1847" 
d="M762 -35q-130 0 -232 32t-164 82t-104 117.5t-60 132t-24 132t-3 111t9 75.5l178 950h375l-172 -921q-5 -31 -6 -69.5t11.5 -94t40 -99t87.5 -75t146 -31.5q85 0 158.5 30.5t121 74.5t84 98t53.5 95t23 71l172 921h375l-283 -1597h-356l27 119h-5q-90 -81 -192 -117.5
t-260 -36.5z" />
    <glyph glyph-name="Uacute.ss01" horiz-adv-x="1847" 
d="M1507 2095l-452 -375h-322l340 375h434zM762 -35q-130 0 -232 32t-164 82t-104 117.5t-60 132t-24 132t-3 111t9 75.5l178 950h375l-172 -921q-5 -31 -6 -69.5t11.5 -94t40 -99t87.5 -75t146 -31.5q85 0 158.5 30.5t121 74.5t84 98t53.5 95t23 71l172 921h375l-283 -1597
h-356l27 119h-5q-90 -81 -192 -117.5t-260 -36.5z" />
    <glyph glyph-name="Ucircumflex.ss01" horiz-adv-x="1847" 
d="M1341 2095l289 -375h-330q-135 124 -159 148q-10 -7 -47.5 -34t-55.5 -40t-52.5 -34.5t-67.5 -39.5h-330l413 375h340zM762 -35q-130 0 -232 32t-164 82t-104 117.5t-60 132t-24 132t-3 111t9 75.5l178 950h375l-172 -921q-5 -31 -6 -69.5t11.5 -94t40 -99t87.5 -75
t146 -31.5q85 0 158.5 30.5t121 74.5t84 98t53.5 95t23 71l172 921h375l-283 -1597h-356l27 119h-5q-90 -81 -192 -117.5t-260 -36.5z" />
    <glyph glyph-name="Udieresis.ss01" horiz-adv-x="1847" 
d="M825 1712q-80 0 -132 47.5t-52 120.5q0 92 73.5 158.5t172.5 66.5q78 0 130 -47t52 -119q0 -88 -73 -157.5t-171 -69.5zM1391 1712q-82 0 -134.5 47.5t-52.5 120.5q0 92 73.5 158.5t172.5 66.5q78 0 130 -47t52 -119q0 -88 -72 -157.5t-169 -69.5zM762 -35
q-130 0 -232 32t-164 82t-104 117.5t-60 132t-24 132t-3 111t9 75.5l178 950h375l-172 -921q-5 -31 -6 -69.5t11.5 -94t40 -99t87.5 -75t146 -31.5q85 0 158.5 30.5t121 74.5t84 98t53.5 95t23 71l172 921h375l-283 -1597h-356l27 119h-5q-90 -81 -192 -117.5t-260 -36.5z
" />
    <glyph glyph-name="Ugrave.ss01" horiz-adv-x="1847" 
d="M1303 1720h-322l-328 375h437zM762 -35q-130 0 -232 32t-164 82t-104 117.5t-60 132t-24 132t-3 111t9 75.5l178 950h375l-172 -921q-5 -31 -6 -69.5t11.5 -94t40 -99t87.5 -75t146 -31.5q85 0 158.5 30.5t121 74.5t84 98t53.5 95t23 71l172 921h375l-283 -1597h-356
l27 119h-5q-90 -81 -192 -117.5t-260 -36.5z" />
    <glyph glyph-name="Uhungarumlaut.ss01" horiz-adv-x="1847" 
d="M1384 2093l-436 -373h-307l324 373h419zM1954 2093l-438 -373h-310l330 373h418zM762 -35q-130 0 -232 32t-164 82t-104 117.5t-60 132t-24 132t-3 111t9 75.5l178 950h375l-172 -921q-5 -31 -6 -69.5t11.5 -94t40 -99t87.5 -75t146 -31.5q85 0 158.5 30.5t121 74.5
t84 98t53.5 95t23 71l172 921h375l-283 -1597h-356l27 119h-5q-90 -81 -192 -117.5t-260 -36.5z" />
    <glyph glyph-name="Umacron.ss01" horiz-adv-x="1847" 
d="M1567 1741h-910l39 250h908zM762 -35q-130 0 -232 32t-164 82t-104 117.5t-60 132t-24 132t-3 111t9 75.5l178 950h375l-172 -921q-5 -31 -6 -69.5t11.5 -94t40 -99t87.5 -75t146 -31.5q85 0 158.5 30.5t121 74.5t84 98t53.5 95t23 71l172 921h375l-283 -1597h-356
l27 119h-5q-90 -81 -192 -117.5t-260 -36.5z" />
    <glyph glyph-name="Uogonek.ss01" horiz-adv-x="1847" 
d="M1548 0h-59q-109 -11 -169 -60t-60 -94q0 -36 39.5 -66t119.5 -30q65 0 111 10l-33 -204q-67 -19 -166 -19q-89 0 -162.5 20t-122.5 67.5t-49 115.5q0 84 73.5 153.5t178.5 106.5h-57l27 119h-5q-90 -81 -192 -117.5t-260 -36.5q-130 0 -232 32t-164 82t-104 117.5
t-60 132t-24 132t-3 111t9 75.5l178 950h375l-172 -921q-5 -31 -6 -69.5t11.5 -94t40 -99t87.5 -75t146 -31.5q85 0 158.5 30.5t121 74.5t84 98t53.5 95t23 71l172 921h375z" />
    <glyph glyph-name="Uring.ss01" horiz-adv-x="1847" 
d="M1104 1708q-119 0 -198 64.5t-79 162.5q0 115 108 204t255 89q121 0 197.5 -63t76.5 -162q0 -117 -106.5 -206t-253.5 -89zM1130 1890q48 0 84.5 27.5t36.5 60.5q0 27 -25.5 46.5t-64.5 19.5q-49 0 -85 -27t-36 -61q0 -28 25.5 -47t64.5 -19zM762 -35q-130 0 -232 32
t-164 82t-104 117.5t-60 132t-24 132t-3 111t9 75.5l178 950h375l-172 -921q-5 -31 -6 -69.5t11.5 -94t40 -99t87.5 -75t146 -31.5q85 0 158.5 30.5t121 74.5t84 98t53.5 95t23 71l172 921h375l-283 -1597h-356l27 119h-5q-90 -81 -192 -117.5t-260 -36.5z" />
    <glyph glyph-name="V.ss01" horiz-adv-x="1902" 
d="M1092 0h-498l-412 1597h396q37 -130 88 -352.5t102 -412.5t115 -353h75q66 100 328 502t404 616h395z" />
    <glyph glyph-name="W.ss01" horiz-adv-x="2844" 
d="M934 0h-475l-260 1597h430l145 -1081h6l543 1081h569l129 -1081h4l558 1081h430l-826 -1597h-469l-127 1116h-104z" />
    <glyph glyph-name="Wacute.ss01" horiz-adv-x="2844" 
d="M2249 2095l-453 -375h-321l340 375h434zM934 0h-475l-260 1597h430l145 -1081h6l543 1081h569l129 -1081h4l558 1081h430l-826 -1597h-469l-127 1116h-104z" />
    <glyph glyph-name="Wcircumflex.ss01" horiz-adv-x="2844" 
d="M1864 2095l288 -375h-329q-147 135 -160 148q-10 -7 -47.5 -34t-55.5 -40t-52.5 -34.5t-67.5 -39.5h-330l414 375h340zM934 0h-475l-260 1597h430l145 -1081h6l543 1081h569l129 -1081h4l558 1081h430l-826 -1597h-469l-127 1116h-104z" />
    <glyph glyph-name="Wdieresis.ss01" horiz-adv-x="2844" 
d="M1348 1712q-80 0 -132.5 47.5t-52.5 120.5q0 92 73.5 158.5t172.5 66.5q78 0 130 -47t52 -119q0 -88 -72.5 -157.5t-170.5 -69.5zM1913 1712q-82 0 -134.5 47.5t-52.5 120.5q0 92 73.5 158.5t172.5 66.5q78 0 130 -47t52 -119q0 -88 -72 -157.5t-169 -69.5zM934 0h-475
l-260 1597h430l145 -1081h6l543 1081h569l129 -1081h4l558 1081h430l-826 -1597h-469l-127 1116h-104z" />
    <glyph glyph-name="Wgrave.ss01" horiz-adv-x="2844" 
d="M1825 1720h-322l-327 375h436zM934 0h-475l-260 1597h430l145 -1081h6l543 1081h569l129 -1081h4l558 1081h430l-826 -1597h-469l-127 1116h-104z" />
    <glyph glyph-name="X.ss01" horiz-adv-x="1777" 
d="M324 0h-422l747 811v4l-465 782h422q49 -82 159 -274t173 -295h63q73 72 168.5 181t188 207t192.5 181h408l-737 -782v-4l456 -811h-411q-5 8 -37.5 59t-41.5 64.5t-38 59.5t-41 66t-36.5 61t-38.5 66.5t-34 60.5t-35.5 66t-29.5 62h-64q-61 -59 -132 -140t-123 -143
t-130 -140t-161 -142z" />
    <glyph glyph-name="Y.ss01" horiz-adv-x="1779" 
d="M643 0h-405l485 563l-506 1034h408l338 -663h4l604 663h407z" />
    <glyph glyph-name="Yacute.ss01" horiz-adv-x="1779" 
d="M1552 2095l-452 -375h-322l340 375h434zM643 0h-405l485 563l-506 1034h408l338 -663h4l604 663h407z" />
    <glyph glyph-name="Ycircumflex.ss01" horiz-adv-x="1779" 
d="M1352 2095l288 -375h-329q-147 135 -160 148q-10 -7 -47.5 -34t-55.5 -40t-52.5 -34.5t-67.5 -39.5h-330l414 375h340zM643 0h-405l485 563l-506 1034h408l338 -663h4l604 663h407z" />
    <glyph glyph-name="Ydieresis.ss01" horiz-adv-x="1779" 
d="M836 1712q-80 0 -132.5 47.5t-52.5 120.5q0 92 73.5 158.5t172.5 66.5q78 0 130 -47t52 -119q0 -88 -72.5 -157.5t-170.5 -69.5zM1401 1712q-82 0 -134.5 47.5t-52.5 120.5q0 92 73.5 158.5t172.5 66.5q78 0 130 -47t52 -119q0 -88 -72 -157.5t-169 -69.5zM643 0h-405
l485 563l-506 1034h408l338 -663h4l604 663h407z" />
    <glyph glyph-name="Ygrave.ss01" horiz-adv-x="1779" 
d="M1313 1720h-322l-327 375h436zM643 0h-405l485 563l-506 1034h408l338 -663h4l604 663h407z" />
    <glyph glyph-name="Z.ss01" horiz-adv-x="1722" 
d="M1520 0h-1639l1295 1260h-895l53 337h1558l-1280 -1261h959z" />
    <glyph glyph-name="Zacute.ss01" horiz-adv-x="1722" 
d="M1688 2095l-453 -375h-322l340 375h435zM1520 0h-1639l1295 1260h-895l53 337h1558l-1280 -1261h959z" />
    <glyph glyph-name="Zcaron.ss01" horiz-adv-x="1722" 
d="M1319 2095h330l-408 -375h-352l-283 375h330q27 -25 81.5 -76.5t82.5 -76.5q31 20 101.5 73t117.5 80zM1520 0h-1639l1295 1260h-895l53 337h1558l-1280 -1261h959z" />
    <glyph glyph-name="Zdotaccent.ss01" horiz-adv-x="1722" 
d="M1092 1743q-82 0 -135.5 49.5t-53.5 124.5q0 91 75.5 159t176.5 68q81 0 133.5 -48t52.5 -122q0 -91 -75 -161t-174 -70zM1520 0h-1639l1295 1260h-895l53 337h1558l-1280 -1261h959z" />
    <glyph glyph-name="Q.ss02" horiz-adv-x="2123" 
d="M2087 926q0 -166 -72.5 -326t-197.5 -286t-299.5 -215t-370.5 -119l-17 -99h576l-45 -311h-932l70 405q-308 40 -494 226.5t-186 464.5q0 186 89 362t239 308.5t360.5 213t439.5 80.5q246 0 437.5 -88.5t297 -248.5t105.5 -367zM518 709q0 -145 91.5 -248t246.5 -137
l59 346h355l-60 -334q207 57 341.5 211.5t134.5 335.5t-134 293t-350 112q-138 0 -265.5 -49t-218.5 -129t-145.5 -185.5t-54.5 -215.5z" />
    <glyph glyph-name="A.ss07" 
d="M1092 -315q-216 0 -398.5 58t-310 160.5t-199 249.5t-71.5 320q0 165 65 325t185.5 294t279.5 236.5t360 160t414 57.5q205 0 383.5 -54.5t312 -154t210.5 -250.5t77 -333q0 -140 -46.5 -276t-130.5 -253.5t-204.5 -217.5t-263.5 -171t-314 -111t-349 -40zM1186 1096
l-606 -963h254q24 17 153 217h416q3 -11 13 -51.5t22.5 -81t29.5 -84.5h261l-267 963h-276zM1354 559h-256q21 30 56 84.5t61.5 89.5t62.5 72q7 -26 17.5 -64t15 -55t11.5 -41.5t11 -36.5t9.5 -25.5t11.5 -23.5z" />
    <glyph glyph-name="B.ss07" horiz-adv-x="2459" 
d="M1092 -315q-216 0 -398.5 58t-310 160.5t-199 249.5t-71.5 320q0 165 65 325t185.5 294t279.5 236.5t360 160t414 57.5q205 0 383.5 -54.5t312 -154t210.5 -250.5t77 -333q0 -140 -46.5 -276t-130.5 -253.5t-204.5 -217.5t-263.5 -171t-314 -111t-349 -40zM924 1096
l-170 -963h483q200 0 326.5 86.5t126.5 220.5q0 147 -162 189q90 30 145.5 102.5t55.5 153.5q0 100 -85.5 155.5t-230.5 55.5h-489zM1098 721l35 160h180q26 0 40 -0.5t38.5 -4t38 -10.5t24 -21t10.5 -34q0 -44 -51.5 -67t-138.5 -23h-176zM1227 348h-197q18 102 37 172h199
q25 0 40.5 -0.5t42.5 -4.5t43 -11.5t29 -22.5t13 -37q0 -43 -55.5 -69.5t-151.5 -26.5z" />
    <glyph glyph-name="C.ss07" horiz-adv-x="2455" 
d="M1092 -315q-216 0 -398.5 58t-310 160.5t-199 249.5t-71.5 320q0 165 65 325t185.5 294t279.5 236.5t360 160t414 57.5q205 0 383.5 -54.5t312 -154t210.5 -250.5t77 -333q0 -140 -46.5 -276t-130.5 -253.5t-204.5 -217.5t-263.5 -171t-314 -111t-349 -40zM1169 113
q204 0 368 92t257 264l-215 72q-57 -100 -154.5 -154.5t-222.5 -54.5q-44 0 -84 6.5t-80 22.5t-69.5 41.5t-47.5 66t-18 92.5q0 135 116.5 235.5t283.5 100.5q211 0 276 -184l236 86q-33 145 -166.5 231t-319.5 86q-140 0 -266.5 -47.5t-217 -126t-143.5 -185t-53 -220.5
q0 -194 141 -309t379 -115z" />
    <glyph glyph-name="D.ss07" 
d="M1092 -315q-216 0 -398.5 58t-310 160.5t-199 249.5t-71.5 320q0 165 65 325t185.5 294t279.5 236.5t360 160t414 57.5q205 0 383.5 -54.5t312 -154t210.5 -250.5t77 -333q0 -140 -46.5 -276t-130.5 -253.5t-204.5 -217.5t-263.5 -171t-314 -111t-349 -40zM881 1096
l-170 -963h465q141 0 261 48.5t199.5 129t124.5 184t45 214.5q0 187 -123 287t-352 100h-450zM1182 348h-195q12 61 28 168t33.5 196.5t41.5 168.5h153q56 0 86 -1.5t78.5 -12.5t74 -32.5t46 -65t20.5 -105.5q0 -137 -101 -226.5t-265 -89.5z" />
    <glyph glyph-name="E.ss07" 
d="M1092 -315q-216 0 -398.5 58t-310 160.5t-199 249.5t-71.5 320q0 165 65 325t185.5 294t279.5 236.5t360 160t414 57.5q205 0 383.5 -54.5t312 -154t210.5 -250.5t77 -333q0 -140 -46.5 -276t-130.5 -253.5t-204.5 -217.5t-263.5 -171t-314 -111t-349 -40zM938 1096
l-170 -963h778l33 215h-535q5 27 17.5 80.5t17.5 79.5h494l35 225h-494q2 10 12 64.5t21 83.5h522l33 215h-764z" />
    <glyph glyph-name="F.ss07" horiz-adv-x="2459" 
d="M1092 -315q-216 0 -398.5 58t-310 160.5t-199 249.5t-71.5 320q0 165 65 325t185.5 294t279.5 236.5t360 160t414 57.5q205 0 383.5 -54.5t312 -154t210.5 -250.5t77 -333q0 -140 -46.5 -276t-130.5 -253.5t-204.5 -217.5t-263.5 -171t-314 -111t-349 -40zM967 1096
l-170 -963h243l64 350h481l35 226h-481l37 172h510l34 215h-753z" />
    <glyph glyph-name="G.ss07" horiz-adv-x="2455" 
d="M1092 -315q-216 0 -398.5 58t-310 160.5t-199 249.5t-71.5 320q0 165 65 325t185.5 294t279.5 236.5t360 160t414 57.5q205 0 383.5 -54.5t312 -154t210.5 -250.5t77 -333q0 -140 -46.5 -276t-130.5 -253.5t-204.5 -217.5t-263.5 -171t-314 -111t-349 -40zM1137 113
q250 0 401 133l-12 -113h188l90 518h-538l-29 -192h293q-37 -58 -125 -92.5t-197 -34.5q-55 0 -105 10.5t-97.5 34.5t-76 71t-28.5 113q0 136 117 236t282 100q216 0 277 -184l238 86q-33 145 -166.5 231t-319.5 86q-140 0 -267.5 -48t-217.5 -128t-143.5 -187.5
t-53.5 -222.5q0 -189 133.5 -303t356.5 -114z" />
    <glyph glyph-name="H.ss07" 
d="M1092 -315q-216 0 -398.5 58t-310 160.5t-199 249.5t-71.5 320q0 165 65 325t185.5 294t279.5 236.5t360 160t414 57.5q205 0 383.5 -54.5t312 -154t210.5 -250.5t77 -333q0 -140 -46.5 -276t-130.5 -253.5t-204.5 -217.5t-263.5 -171t-314 -111t-349 -40zM838 1096
l-170 -963h243l66 361h481l-67 -361h243l170 963h-243l-68 -375h-481l69 375h-243z" />
    <glyph glyph-name="I.ss07" 
d="M1092 -315q-216 0 -398.5 58t-310 160.5t-199 249.5t-71.5 320q0 165 65 325t185.5 294t279.5 236.5t360 160t414 57.5q205 0 383.5 -54.5t312 -154t210.5 -250.5t77 -333q0 -140 -46.5 -276t-130.5 -253.5t-204.5 -217.5t-263.5 -171t-314 -111t-349 -40zM1204 1096
l-170 -963h244l170 963h-244z" />
    <glyph glyph-name="J.ss07" 
d="M1092 -315q-216 0 -398.5 58t-310 160.5t-199 249.5t-71.5 320q0 165 65 325t185.5 294t279.5 236.5t360 160t414 57.5q205 0 383.5 -54.5t312 -154t210.5 -250.5t77 -333q0 -140 -46.5 -276t-130.5 -253.5t-204.5 -217.5t-263.5 -171t-314 -111t-349 -40zM1120 123
q78 0 144 17.5t110 43.5t79.5 66t55 73.5t35 78.5t20.5 69.5t11 56.5l102 578h-243l-107 -608q-14 -81 -56 -118.5t-128 -37.5q-76 0 -116.5 41.5t-27.5 112.5l9 43l-244 -31l-8 -43q-29 -154 73.5 -248t290.5 -94z" />
    <glyph glyph-name="K.ss07" horiz-adv-x="2459" 
d="M1092 -315q-216 0 -398.5 58t-310 160.5t-199 249.5t-71.5 320q0 165 65 325t185.5 294t279.5 236.5t360 160t414 57.5q205 0 383.5 -54.5t312 -154t210.5 -250.5t77 -333q0 -140 -46.5 -276t-130.5 -253.5t-204.5 -217.5t-263.5 -171t-314 -111t-349 -40zM885 1096
l-170 -963h243q4 19 15 71.5t37 207.5q12 8 55 39.5t68 48.5q12 -18 69.5 -106t101 -147t95.5 -114h295q-31 45 -60 78t-51.5 58.5t-88.5 127.5t-171 281q186 150 524 418h-291q-27 -19 -105.5 -74.5t-114 -81t-94 -69t-102.5 -78.5t-83 -70l71 373h-243z" />
    <glyph glyph-name="L.ss07" 
d="M1092 -315q-216 0 -398.5 58t-310 160.5t-199 249.5t-71.5 320q0 165 65 325t185.5 294t279.5 236.5t360 160t414 57.5q205 0 383.5 -54.5t312 -154t210.5 -250.5t77 -333q0 -140 -46.5 -276t-130.5 -253.5t-204.5 -217.5t-263.5 -171t-314 -111t-349 -40zM1042 1096
l-170 -963h738l32 215h-493l137 748h-244z" />
    <glyph glyph-name="M.ss07" horiz-adv-x="2459" 
d="M1092 -315q-216 0 -398.5 58t-310 160.5t-199 249.5t-71.5 320q0 165 65 325t185.5 294t279.5 236.5t360 160t414 57.5q205 0 383.5 -54.5t312 -154t210.5 -250.5t77 -333q0 -140 -46.5 -276t-130.5 -253.5t-204.5 -217.5t-263.5 -171t-314 -111t-349 -40zM688 1096
l-170 -963h244l102 510q28 -75 104.5 -249.5t106.5 -260.5h152q26 34 89 119.5t99.5 133.5t99.5 121.5t125 135.5l-102 -510h248l170 963h-295q-70 -93 -226 -296.5t-231 -303.5q-40 110 -119 321.5t-104 278.5h-293z" />
    <glyph glyph-name="N.ss07" 
d="M1092 -315q-216 0 -398.5 58t-310 160.5t-199 249.5t-71.5 320q0 165 65 325t185.5 294t279.5 236.5t360 160t414 57.5q205 0 383.5 -54.5t312 -154t210.5 -250.5t77 -333q0 -140 -46.5 -276t-130.5 -253.5t-204.5 -217.5t-263.5 -171t-314 -111t-349 -40zM850 1096
l-170 -963h244l104 539q67 -102 194 -280.5t181 -258.5h248l170 963h-242l-109 -547q-111 177 -372 547h-248z" />
    <glyph glyph-name="O.ss07" 
d="M1092 -315q-216 0 -398.5 58t-310 160.5t-199 249.5t-71.5 320q0 165 65 325t185.5 294t279.5 236.5t360 160t414 57.5q205 0 383.5 -54.5t312 -154t210.5 -250.5t77 -333q0 -140 -46.5 -276t-130.5 -253.5t-204.5 -217.5t-263.5 -171t-314 -111t-349 -40zM1151 113
q139 0 266 48.5t217.5 128.5t144.5 185.5t54 216.5q0 188 -141.5 306t-364.5 118q-137 0 -263 -48t-217 -127.5t-145.5 -186t-54.5 -219.5q0 -98 39.5 -178.5t108 -133.5t160 -81.5t196.5 -28.5zM903 563q0 130 116.5 232t276.5 102q123 0 201 -64.5t78 -168.5
q0 -131 -115 -231.5t-274 -100.5q-125 0 -204 64.5t-79 166.5z" />
    <glyph glyph-name="P.ss07" 
d="M1092 -315q-216 0 -398.5 58t-310 160.5t-199 249.5t-71.5 320q0 165 65 325t185.5 294t279.5 236.5t360 160t414 57.5q205 0 383.5 -54.5t312 -154t210.5 -250.5t77 -333q0 -140 -46.5 -276t-130.5 -253.5t-204.5 -217.5t-263.5 -171t-314 -111t-349 -40zM952 1096
l-170 -963h244l57 318h213q199 0 331 110t132 268q0 267 -356 267h-451zM1282 678h-164l43 203h170q26 0 40.5 -0.5t38.5 -3t37 -8t28 -15t21.5 -25.5t6.5 -38q0 -113 -221 -113z" />
    <glyph glyph-name="Q.ss07" 
d="M1092 -315q-216 0 -398.5 58t-310 160.5t-199 249.5t-71.5 320q0 165 65 325t185.5 294t279.5 236.5t360 160t414 57.5q205 0 383.5 -54.5t312 -154t210.5 -250.5t77 -333q0 -140 -46.5 -276t-130.5 -253.5t-204.5 -217.5t-263.5 -171t-314 -111t-349 -40zM1524 47
l198 141l-120 136q115 84 179 201t64 237q0 185 -143.5 301.5t-372.5 116.5q-141 0 -270 -47.5t-221 -126.5t-146.5 -185.5t-54.5 -220.5q0 -196 145 -310t369 -114q114 0 240 29q108 -128 133 -158zM887 631q0 135 119.5 232.5t291.5 97.5q134 0 215.5 -62t81.5 -164
q0 -65 -33 -127.5t-94 -109.5q-10 11 -41 38.5t-79 86.5l-197 -140q15 -13 47.5 -43.5t48.5 -44.5h-61q-139 0 -219 63.5t-80 172.5z" />
    <glyph glyph-name="R.ss07" 
d="M1092 -315q-216 0 -398.5 58t-310 160.5t-199 249.5t-71.5 320q0 165 65 325t185.5 294t279.5 236.5t360 160t414 57.5q205 0 383.5 -54.5t312 -154t210.5 -250.5t77 -333q0 -140 -46.5 -276t-130.5 -253.5t-204.5 -217.5t-263.5 -171t-314 -111t-349 -40zM948 1096
l-170 -963h244q8 40 11.5 59t5 31t12.5 72t30 162h107l209 -324h274q-25 40 -94 143.5t-129 204.5q132 33 218.5 126.5t86.5 217.5q0 55 -16.5 99.5t-40.5 72.5t-61 48t-67 29.5t-69 15t-57.5 6t-42.5 0.5h-451zM1278 664h-166q22 98 47 221h170q168 0 168 -99
q0 -55 -60 -88.5t-159 -33.5z" />
    <glyph glyph-name="S.ss07" 
d="M1092 -315q-216 0 -398.5 58t-310 160.5t-199 249.5t-71.5 320q0 165 65 325t185.5 294t279.5 236.5t360 160t414 57.5q205 0 383.5 -54.5t312 -154t210.5 -250.5t77 -333q0 -140 -46.5 -276t-130.5 -253.5t-204.5 -217.5t-263.5 -171t-314 -111t-349 -40zM1167 113
q135 0 248.5 48t178.5 129.5t65 176.5q0 34 -9.5 63.5t-21.5 49.5t-36 39t-39.5 29.5t-46.5 22.5t-43 15.5t-42 12.5q-3 1 -5.5 1.5t-4.5 1.5l-115 33q-27 7 -35.5 9.5t-33.5 10.5t-35.5 14t-25.5 15t-21 20t-6 23q0 29 43.5 50.5t111.5 21.5q136 0 168 -100l232 86
q-7 88 -106.5 159.5t-260.5 71.5q-196 0 -329.5 -101t-133.5 -235q0 -49 21 -90t48.5 -65.5t70 -46t69.5 -30.5t62 -18l98 -24q29 -7 45.5 -11.5t39.5 -12.5t35.5 -16t21.5 -20t9 -26q0 -38 -53.5 -64t-132.5 -26q-179 0 -203 151l-235 -73q13 -136 126.5 -215.5
t280.5 -79.5z" />
    <glyph glyph-name="T.ss07" 
d="M1092 -315q-216 0 -398.5 58t-310 160.5t-199 249.5t-71.5 320q0 165 65 325t185.5 294t279.5 236.5t360 160t414 57.5q205 0 383.5 -54.5t312 -154t210.5 -250.5t77 -333q0 -140 -46.5 -276t-130.5 -253.5t-204.5 -217.5t-263.5 -171t-314 -111t-349 -40zM1167 881
l-137 -748h242l137 748h338l35 215h-922l-33 -215h340z" />
    <glyph glyph-name="U.ss07" 
d="M1092 -315q-216 0 -398.5 58t-310 160.5t-199 249.5t-71.5 320q0 165 65 325t185.5 294t279.5 236.5t360 160t414 57.5q205 0 383.5 -54.5t312 -154t210.5 -250.5t77 -333q0 -140 -46.5 -276t-130.5 -253.5t-204.5 -217.5t-263.5 -171t-314 -111t-349 -40zM1145 123
q86 0 159.5 18.5t123.5 46.5t91 68.5t64.5 77.5t41.5 79.5t24.5 69t11.5 52.5l104 571h-243l-101 -553q-7 -38 -21 -71t-40.5 -66.5t-72.5 -53.5t-107 -20q-52 0 -88 17t-52.5 40t-23 55t-5.5 54t5 45l100 553h-242l-104 -571q-6 -34 -8.5 -68t2.5 -76t18.5 -78.5t42 -72
t69.5 -61t105.5 -41t145.5 -15.5z" />
    <glyph glyph-name="V.ss07" 
d="M1092 -315q-216 0 -398.5 58t-310 160.5t-199 249.5t-71.5 320q0 165 65 325t185.5 294t279.5 236.5t360 160t414 57.5q205 0 383.5 -54.5t312 -154t210.5 -250.5t77 -333q0 -140 -46.5 -276t-130.5 -253.5t-204.5 -217.5t-263.5 -171t-314 -111t-349 -40zM770 1096
l266 -963h279l604 963h-256q-26 -19 -108.5 -146t-184.5 -292t-151 -232q-9 32 -36 131t-47 172.5t-44.5 160t-41.5 140.5t-24 66h-256z" />
    <glyph glyph-name="W.ss07" 
d="M1092 -315q-216 0 -398.5 58t-310 160.5t-199 249.5t-71.5 320q0 165 65 325t185.5 294t279.5 236.5t360 160t414 57.5q205 0 383.5 -54.5t312 -154t210.5 -250.5t77 -333q0 -140 -46.5 -276t-130.5 -253.5t-204.5 -217.5t-263.5 -171t-314 -111t-349 -40zM475 1096
l158 -963h295q112 180 338 582q66 -358 114 -582h291l498 963h-275q-25 -48 -134.5 -275t-186.5 -346q-102 535 -117 621h-268q-30 -51 -151.5 -276t-200.5 -345q-7 51 -20 156.5t-28.5 218t-37.5 246.5h-275z" />
    <glyph glyph-name="X.ss07" 
d="M1092 -315q-216 0 -398.5 58t-310 160.5t-199 249.5t-71.5 320q0 165 65 325t185.5 294t279.5 236.5t360 160t414 57.5q205 0 383.5 -54.5t312 -154t210.5 -250.5t77 -333q0 -140 -46.5 -276t-130.5 -253.5t-204.5 -217.5t-263.5 -171t-314 -111t-349 -40zM645 131h293
q193 197 285 287q26 -44 79 -140t84 -147h293q-47 77 -137 236.5t-141 242.5q74 77 222.5 239.5t229.5 246.5h-286q-57 -55 -156.5 -157.5t-132.5 -135.5q-30 48 -87 146.5t-87 146.5h-287q190 -324 279 -484q-67 -70 -216.5 -231.5t-234.5 -249.5z" />
    <glyph glyph-name="Y.ss07" 
d="M1092 -315q-216 0 -398.5 58t-310 160.5t-199 249.5t-71.5 320q0 165 65 325t185.5 294t279.5 236.5t360 160t414 57.5q205 0 383.5 -54.5t312 -154t210.5 -250.5t77 -333q0 -140 -46.5 -276t-130.5 -253.5t-204.5 -217.5t-263.5 -171t-314 -111t-349 -40zM1090 457
l-60 -324h242q5 32 8.5 50t6 32.5t13.5 77.5t29 166q91 111 263 324t253 313h-262q-67 -76 -182 -216t-158 -190q-30 67 -93 202.5t-93 203.5h-260q24 -53 129.5 -284t163.5 -355z" />
    <glyph glyph-name="Z.ss07" 
d="M1092 -315q-216 0 -398.5 58t-310 160.5t-199 249.5t-71.5 320q0 165 65 325t185.5 294t279.5 236.5t360 160t414 57.5q205 0 383.5 -54.5t312 -154t210.5 -250.5t77 -333q0 -140 -46.5 -276t-130.5 -253.5t-204.5 -217.5t-263.5 -171t-314 -111t-349 -40zM725 344
l-31 -211h903l33 215h-602q83 63 319 248t377 287l31 213h-872l-33 -215q190 2 563 2q-119 -91 -357 -279t-331 -260z" />
    <glyph glyph-name="A.ss08" 
d="M1417 1546q205 0 383.5 -54.5t312 -154t210.5 -250.5t77 -333q0 -140 -46.5 -276t-130.5 -253.5t-204.5 -217.5t-263.5 -171t-314 -111t-349 -40q-216 0 -398.5 58t-310 160.5t-199 249.5t-71.5 320q0 165 65 325t185.5 294t279.5 236.5t360 160t414 57.5zM1120 -139
q147 0 288 32t259.5 89.5t219.5 138.5t171 176t109 205.5t39 224.5q0 194 -109 342t-293.5 224.5t-412.5 76.5q-220 0 -422.5 -73t-347 -192.5t-230.5 -278.5t-86 -326q0 -187 103 -333t288.5 -226t423.5 -80zM823 322l385 587h172l168 -587h-166q-13 54 -43 131h-258
q-46 -64 -96 -131h-162zM1157 584h152l-6 9t-6.5 10.5t-7 18t-11 37.5t-16.5 62q-19 -29 -57.5 -77t-47.5 -60z" />
    <glyph glyph-name="B.ss08" 
d="M1419 1546q205 0 383.5 -54.5t312 -154t210.5 -250.5t77 -333q0 -140 -46.5 -276t-130.5 -253.5t-204.5 -217.5t-263.5 -171t-314 -111t-349 -40q-216 0 -398.5 58t-310 160.5t-199 249.5t-71.5 320q0 165 65 325t185.5 294t279.5 236.5t360 160t414 57.5zM1122 -139
q147 0 288 32t259.5 89.5t219.5 138.5t171 176t109 205.5t39 224.5q0 194 -109 342t-293.5 224.5t-412.5 76.5q-220 0 -422.5 -73t-347 -192.5t-230.5 -278.5t-86 -326q0 -187 103 -333t288.5 -226t423.5 -80zM1524 780q0 -49 -33.5 -92t-87.5 -63q98 -32 98 -119
q0 -79 -81 -131.5t-206 -52.5h-307l109 587h307q90 0 145.5 -35t55.5 -94zM1235 682q57 0 88 13.5t31 35.5q0 41 -94 41h-111q-3 -9 -6.5 -26t-16.5 -64h109zM1208 459q125 0 125 51q0 45 -100 45h-125q-18 -74 -25 -96h125z" />
    <glyph glyph-name="C.ss08" 
d="M1092 -315q-216 0 -398.5 58t-310 160.5t-199 249.5t-71.5 320q0 165 65 325t185.5 294t279.5 236.5t360 160t414 57.5q205 0 383.5 -54.5t312 -154t210.5 -250.5t77 -333q0 -140 -46.5 -276t-130.5 -253.5t-204.5 -217.5t-263.5 -171t-314 -111t-349 -40zM1120 -139
q147 0 288 32t259.5 89.5t219.5 138.5t171 176t109 205.5t39 224.5q0 194 -109 342t-293.5 224.5t-412.5 76.5q-220 0 -422.5 -73t-347 -192.5t-230.5 -278.5t-86 -326q0 -187 103 -333t288.5 -226t423.5 -80zM1190 309q-148 0 -236 70.5t-88 189.5q0 141 125 246t303 105
q120 0 202.5 -53t102.5 -144l-151 -53q-34 112 -174 112q-101 0 -173.5 -59.5t-72.5 -138.5q0 -38 16 -65.5t44 -42t59 -21t67 -6.5q77 0 138 32t96 94l139 -47q-59 -106 -161.5 -162.5t-235.5 -56.5z" />
    <glyph glyph-name="D.ss08" 
d="M1092 -315q-216 0 -398.5 58t-310 160.5t-199 249.5t-71.5 320q0 165 65 325t185.5 294t279.5 236.5t360 160t414 57.5q205 0 383.5 -54.5t312 -154t210.5 -250.5t77 -333q0 -140 -46.5 -276t-130.5 -253.5t-204.5 -217.5t-263.5 -171t-314 -111t-349 -40zM1120 -139
q147 0 288 32t259.5 89.5t219.5 138.5t171 176t109 205.5t39 224.5q0 194 -109 342t-293.5 224.5t-412.5 76.5q-220 0 -422.5 -73t-347 -192.5t-230.5 -278.5t-86 -326q0 -187 103 -333t288.5 -226t423.5 -80zM1198 322h-293l109 587h284q143 0 220 -61.5t77 -175.5
q0 -67 -28.5 -130t-79.5 -112t-126.5 -78.5t-162.5 -29.5zM1081 459h123q103 0 165.5 52.5t62.5 133.5q0 37 -12 62t-27.5 37.5t-45.5 19t-49 7.5t-55 1h-96q-5 -28 -24 -101t-42 -212z" />
    <glyph glyph-name="E.ss08" 
d="M1092 -315q-216 0 -398.5 58t-310 160.5t-199 249.5t-71.5 320q0 165 65 325t185.5 294t279.5 236.5t360 160t414 57.5q205 0 383.5 -54.5t312 -154t210.5 -250.5t77 -333q0 -140 -46.5 -276t-130.5 -253.5t-204.5 -217.5t-263.5 -171t-314 -111t-349 -40zM1120 -139
q147 0 288 32t259.5 89.5t219.5 138.5t171 176t109 205.5t39 224.5q0 194 -109 342t-293.5 224.5t-412.5 76.5q-220 0 -422.5 -73t-347 -192.5t-230.5 -278.5t-86 -326q0 -187 103 -333t288.5 -226t423.5 -80zM1434 322h-492l109 587h485l-23 -137h-329q-3 -12 -10.5 -38
t-10.5 -44h312l-23 -143h-311q-19 -67 -23 -88h338z" />
    <glyph glyph-name="F.ss08" 
d="M1092 -315q-216 0 -398.5 58t-310 160.5t-199 249.5t-71.5 320q0 165 65 325t185.5 294t279.5 236.5t360 160t414 57.5q205 0 383.5 -54.5t312 -154t210.5 -250.5t77 -333q0 -140 -46.5 -276t-130.5 -253.5t-204.5 -217.5t-263.5 -171t-314 -111t-349 -40zM1120 -139
q147 0 288 32t259.5 89.5t219.5 138.5t171 176t109 205.5t39 224.5q0 194 -109 342t-293.5 224.5t-412.5 76.5q-220 0 -422.5 -73t-347 -192.5t-230.5 -278.5t-86 -326q0 -187 103 -333t288.5 -226t423.5 -80zM1114 322h-156l109 587h477l-22 -137h-322l-22 -96h303
l-23 -144h-303z" />
    <glyph glyph-name="G.ss08" 
d="M1417 1546q205 0 383.5 -54.5t312 -154t210.5 -250.5t77 -333q0 -140 -46.5 -276t-130.5 -253.5t-204.5 -217.5t-263.5 -171t-314 -111t-349 -40q-216 0 -398.5 58t-310 160.5t-199 249.5t-71.5 320q0 165 65 325t185.5 294t279.5 236.5t360 160t414 57.5zM1120 -139
q147 0 288 32t259.5 89.5t219.5 138.5t171 176t109 205.5t39 224.5q0 194 -109 342t-293.5 224.5t-412.5 76.5q-220 0 -422.5 -73t-347 -192.5t-230.5 -278.5t-86 -326q0 -187 103 -333t288.5 -226t423.5 -80zM1276 782q-101 0 -173.5 -59.5t-72.5 -138.5q0 -40 17 -68
t46.5 -41.5t60 -19.5t65.5 -6q68 0 121.5 18.5t78.5 50.5h-184l16 121h344l-55 -317h-125l8 63q-98 -76 -249 -76q-139 0 -223.5 70t-84.5 186q0 143 125 249t303 106q119 0 202.5 -53.5t102.5 -143.5l-149 -53q-40 112 -174 112z" />
    <glyph glyph-name="H.ss08" 
d="M1417 1546q205 0 383.5 -54.5t312 -154t210.5 -250.5t77 -333q0 -140 -46.5 -276t-130.5 -253.5t-204.5 -217.5t-263.5 -171t-314 -111t-349 -40q-216 0 -398.5 58t-310 160.5t-199 249.5t-71.5 320q0 165 65 325t185.5 294t279.5 236.5t360 160t414 57.5zM1120 -139
q147 0 288 32t259.5 89.5t219.5 138.5t171 176t109 205.5t39 224.5q0 194 -109 342t-293.5 224.5t-412.5 76.5q-220 0 -422.5 -73t-347 -192.5t-230.5 -278.5t-86 -326q0 -187 103 -333t288.5 -226t423.5 -80zM1100 682h297l43 227h155l-108 -587h-156l41 217h-297l-41 -217
h-155l108 587h156z" />
    <glyph glyph-name="I.ss08" horiz-adv-x="2459" 
d="M1094 -315q-216 0 -398.5 58t-310 160.5t-199 249.5t-71.5 320q0 165 65 325t185.5 294t279.5 236.5t360 160t414 57.5q205 0 383.5 -54.5t312 -154t210.5 -250.5t77 -333q0 -140 -46.5 -276t-130.5 -253.5t-204.5 -217.5t-263.5 -171t-314 -111t-349 -40zM1122 -139
q147 0 288 32t259.5 89.5t219.5 138.5t171 176t109 205.5t39 224.5q0 194 -109 342t-293.5 224.5t-412.5 76.5q-220 0 -422.5 -73t-347 -192.5t-230.5 -278.5t-86 -326q0 -187 103 -333t288.5 -226t423.5 -80zM1264 322h-156l109 587h155z" />
    <glyph glyph-name="J.ss08" 
d="M1092 -315q-216 0 -398.5 58t-310 160.5t-199 249.5t-71.5 320q0 165 65 325t185.5 294t279.5 236.5t360 160t414 57.5q205 0 383.5 -54.5t312 -154t210.5 -250.5t77 -333q0 -140 -46.5 -276t-130.5 -253.5t-204.5 -217.5t-263.5 -171t-314 -111t-349 -40zM1120 -139
q147 0 288 32t259.5 89.5t219.5 138.5t171 176t109 205.5t39 224.5q0 194 -109 342t-293.5 224.5t-412.5 76.5q-220 0 -422.5 -73t-347 -192.5t-230.5 -278.5t-86 -326q0 -187 103 -333t288.5 -226t423.5 -80zM1163 315q-121 0 -182 56.5t-47 152.5l4 29l158 20l-6 -30
q-8 -40 14 -64t72 -24q99 0 114 90l70 370h156l-68 -352q-4 -23 -6.5 -34.5t-12.5 -41.5t-22 -49t-34 -44.5t-49.5 -41t-69 -26.5t-91.5 -11z" />
    <glyph glyph-name="K.ss08" 
d="M1417 1546q205 0 383.5 -54.5t312 -154t210.5 -250.5t77 -333q0 -140 -46.5 -276t-130.5 -253.5t-204.5 -217.5t-263.5 -171t-314 -111t-349 -40q-216 0 -398.5 58t-310 160.5t-199 249.5t-71.5 320q0 165 65 325t185.5 294t279.5 236.5t360 160t414 57.5zM1120 -139
q147 0 288 32t259.5 89.5t219.5 138.5t171 176t109 205.5t39 224.5q0 194 -109 342t-293.5 224.5t-412.5 76.5q-220 0 -422.5 -73t-347 -192.5t-230.5 -278.5t-86 -326q0 -187 103 -333t288.5 -226t423.5 -80zM1442 909h186q-38 -29 -110.5 -81t-128 -95t-93.5 -80
q30 -44 104.5 -146.5t127.5 -184.5h-189q-20 26 -46 69.5t-53.5 80t-65.5 69.5q-5 -4 -15.5 -8.5t-24.5 -14t-34 -26.5q-4 -23 -5.5 -32.5t-3 -15.5t-8 -37.5t-16.5 -84.5h-156l109 587h156q-29 -136 -46 -219q54 36 157.5 110t154.5 109z" />
    <glyph glyph-name="L.ss08" 
d="M1417 1546q205 0 383.5 -54.5t312 -154t210.5 -250.5t77 -333q0 -140 -46.5 -276t-130.5 -253.5t-204.5 -217.5t-263.5 -171t-314 -111t-349 -40q-216 0 -398.5 58t-310 160.5t-199 249.5t-71.5 320q0 165 65 325t185.5 294t279.5 236.5t360 160t414 57.5zM1120 -139
q147 0 288 32t259.5 89.5t219.5 138.5t171 176t109 205.5t39 224.5q0 194 -109 342t-293.5 224.5t-412.5 76.5q-220 0 -422.5 -73t-347 -192.5t-230.5 -278.5t-86 -326q0 -187 103 -333t288.5 -226t423.5 -80zM1114 909h156l-84 -450h307l-20 -137h-467z" />
    <glyph glyph-name="M.ss08" horiz-adv-x="2459" 
d="M1417 1546q205 0 383.5 -54.5t312 -154t210.5 -250.5t77 -333q0 -140 -46.5 -276t-130.5 -253.5t-204.5 -217.5t-263.5 -171t-314 -111t-349 -40q-216 0 -398.5 58t-310 160.5t-199 249.5t-71.5 320q0 165 65 325t185.5 294t279.5 236.5t360 160t414 57.5zM1120 -139
q147 0 288 32t259.5 89.5t219.5 138.5t171 176t109 205.5t39 224.5q0 194 -109 342t-293.5 224.5t-412.5 76.5q-220 0 -422.5 -73t-347 -192.5t-230.5 -278.5t-86 -326q0 -187 103 -333t288.5 -226t423.5 -80zM1219 549q20 24 92.5 107t118 141.5t75.5 111.5h187l-109 -587
h-158q8 36 15 59l10.5 34.5t13 62t25.5 147.5q-46 -57 -138 -164.5t-118 -138.5h-96q-75 183 -129 303l-64 -303h-158l109 587h186q16 -42 65 -167t73 -193z" />
    <glyph glyph-name="N.ss08" 
d="M1417 1546q205 0 383.5 -54.5t312 -154t210.5 -250.5t77 -333q0 -140 -46.5 -276t-130.5 -253.5t-204.5 -217.5t-263.5 -171t-314 -111t-349 -40q-216 0 -398.5 58t-310 160.5t-199 249.5t-71.5 320q0 165 65 325t185.5 294t279.5 236.5t360 160t414 57.5zM1120 -139
q147 0 288 32t259.5 89.5t219.5 138.5t171 176t109 205.5t39 224.5q0 194 -109 342t-293.5 224.5t-412.5 76.5q-220 0 -422.5 -73t-347 -192.5t-230.5 -278.5t-86 -326q0 -187 103 -333t288.5 -226t423.5 -80zM1384 584q3 11 10.5 38t12 47t16.5 82t29 158h156l-109 -587
h-158q-25 35 -106.5 144.5t-124.5 172.5q-6 -23 -12.5 -41.5t-11 -34t-16 -75.5t-28.5 -166h-155l108 587h156q183 -248 233 -325z" />
    <glyph glyph-name="O.ss08" 
d="M1092 -315q-216 0 -398.5 58t-310 160.5t-199 249.5t-71.5 320q0 165 65 325t185.5 294t279.5 236.5t360 160t414 57.5q205 0 383.5 -54.5t312 -154t210.5 -250.5t77 -333q0 -140 -46.5 -276t-130.5 -253.5t-204.5 -217.5t-263.5 -171t-314 -111t-349 -40zM1120 -139
q147 0 288 32t259.5 89.5t219.5 138.5t171 176t109 205.5t39 224.5q0 194 -109 342t-293.5 224.5t-412.5 76.5q-220 0 -422.5 -73t-347 -192.5t-230.5 -278.5t-86 -326q0 -187 103 -333t288.5 -226t423.5 -80zM1182 309q-140 0 -228 72t-88 186q0 139 126.5 246t303.5 107
q140 0 229 -72t89 -186q0 -140 -128 -246.5t-304 -106.5zM1206 449q97 0 169.5 59t72.5 137q0 61 -48 99t-124 38q-98 0 -172 -60t-74 -138q0 -60 49 -97.5t127 -37.5z" />
    <glyph glyph-name="P.ss08" horiz-adv-x="2459" 
d="M1417 1546q205 0 383.5 -54.5t312 -154t210.5 -250.5t77 -333q0 -140 -46.5 -276t-130.5 -253.5t-204.5 -217.5t-263.5 -171t-314 -111t-349 -40q-216 0 -398.5 58t-310 160.5t-199 249.5t-71.5 320q0 165 65 325t185.5 294t279.5 236.5t360 160t414 57.5zM1120 -139
q147 0 288 32t259.5 89.5t219.5 138.5t171 176t109 205.5t39 224.5q0 194 -109 342t-293.5 224.5t-412.5 76.5q-220 0 -422.5 -73t-347 -192.5t-230.5 -278.5t-86 -326q0 -187 103 -333t288.5 -226t423.5 -80zM1059 909h284q226 0 226 -164q0 -97 -84.5 -164t-208.5 -67
h-135l-35 -192h-156zM1167 655h103q131 0 131 66q0 24 -18 36t-35.5 13.5t-49.5 1.5h-108z" />
    <glyph glyph-name="Q.ss08" 
d="M1092 -315q-216 0 -398.5 58t-310 160.5t-199 249.5t-71.5 320q0 165 65 325t185.5 294t279.5 236.5t360 160t414 57.5q205 0 383.5 -54.5t312 -154t210.5 -250.5t77 -333q0 -140 -46.5 -276t-130.5 -253.5t-204.5 -217.5t-263.5 -171t-314 -111t-349 -40zM1120 -139
q147 0 288 32t259.5 89.5t219.5 138.5t171 176t109 205.5t39 224.5q0 194 -109 342t-293.5 224.5t-412.5 76.5q-220 0 -422.5 -73t-347 -192.5t-230.5 -278.5t-86 -326q0 -187 103 -333t288.5 -226t423.5 -80zM1540 356l-125 -88q-6 7 -34.5 38t-49.5 56q-78 -16 -151 -16
q-145 0 -234.5 72t-89.5 188q0 139 128.5 244.5t309.5 105.5q143 0 233.5 -71t90.5 -183q0 -71 -40.5 -142.5t-111.5 -121.5q10 -11 35.5 -38.5t38.5 -43.5zM1204 485h33q-4 3 -26 22t-31 28l123 88q53 -45 79 -74q76 56 76 135q0 62 -49.5 98.5t-134.5 36.5
q-106 0 -181 -57t-75 -137q0 -66 49 -103t137 -37z" />
    <glyph glyph-name="R.ss08" 
d="M1417 1546q205 0 383.5 -54.5t312 -154t210.5 -250.5t77 -333q0 -140 -46.5 -276t-130.5 -253.5t-204.5 -217.5t-263.5 -171t-314 -111t-349 -40q-216 0 -398.5 58t-310 160.5t-199 249.5t-71.5 320q0 165 65 325t185.5 294t279.5 236.5t360 160t414 57.5zM1120 -139
q147 0 288 32t259.5 89.5t219.5 138.5t171 176t109 205.5t39 224.5q0 194 -109 342t-293.5 224.5t-412.5 76.5q-220 0 -422.5 -73t-347 -192.5t-230.5 -278.5t-86 -326q0 -187 103 -333t288.5 -226t423.5 -80zM1565 743q0 -69 -52.5 -128t-138.5 -83q75 -107 139 -210h-178
l-129 194h-67q-4 -20 -5.5 -29.5t-3.5 -18.5t-9.5 -47.5t-18.5 -98.5h-156l109 587h284q18 0 32 -1t44 -5t53 -15t47 -28t37 -47.5t13 -69.5zM1264 647q60 0 96.5 20.5t36.5 51.5q0 55 -103 55h-106q-5 -22 -14.5 -63.5t-14.5 -63.5h105z" />
    <glyph glyph-name="S.ss08" 
d="M1092 -315q-216 0 -398.5 58t-310 160.5t-199 249.5t-71.5 320q0 165 65 325t185.5 294t279.5 236.5t360 160t414 57.5q205 0 383.5 -54.5t312 -154t210.5 -250.5t77 -333q0 -140 -46.5 -276t-130.5 -253.5t-204.5 -217.5t-263.5 -171t-314 -111t-349 -40zM1120 -139
q147 0 288 32t259.5 89.5t219.5 138.5t171 176t109 205.5t39 224.5q0 194 -109 342t-293.5 224.5t-412.5 76.5q-220 0 -422.5 -73t-347 -192.5t-230.5 -278.5t-86 -326q0 -187 103 -333t288.5 -226t423.5 -80zM1194 309q-110 0 -180.5 49.5t-77.5 133.5l151 47
q16 -93 127 -93q49 0 81 15t32 37q0 6 -2.5 11t-8 9t-10.5 7t-15 6t-16.5 4.5l-19.5 4.5t-20 5l-64 16q-23 6 -36.5 10t-41.5 17t-44.5 27.5t-30.5 41t-14 58.5q0 84 83.5 144.5t202.5 60.5q96 0 164 -41t74 -103l-152 -55q-17 61 -104 61q-41 0 -67.5 -11.5t-26.5 -29.5
q0 -9 7 -16t21 -13t25.5 -10t31.5 -9q7 -2 11 -3l72 -20q28 -8 39 -11.5t39.5 -16.5t42 -26.5t26 -37.5t12.5 -54q0 -87 -91 -151t-220 -64z" />
    <glyph glyph-name="T.ss08" 
d="M1092 -315q-216 0 -398.5 58t-310 160.5t-199 249.5t-71.5 320q0 165 65 325t185.5 294t279.5 236.5t360 160t414 57.5q205 0 383.5 -54.5t312 -154t210.5 -250.5t77 -333q0 -140 -46.5 -276t-130.5 -253.5t-204.5 -217.5t-263.5 -171t-314 -111t-349 -40zM1120 -139
q147 0 288 32t259.5 89.5t219.5 138.5t171 176t109 205.5t39 224.5q0 194 -109 342t-293.5 224.5t-412.5 76.5q-220 0 -422.5 -73t-347 -192.5t-230.5 -278.5t-86 -326q0 -187 103 -333t288.5 -226t423.5 -80zM1257 322h-153q2 10 86 450h-211l20 137h580l-23 -137h-210
q-11 -54 -19 -86.5t-12 -48.5t-18 -91.5t-40 -223.5z" />
    <glyph glyph-name="U.ss08" horiz-adv-x="2459" 
d="M1092 -315q-216 0 -398.5 58t-310 160.5t-199 249.5t-71.5 320q0 165 65 325t185.5 294t279.5 236.5t360 160t414 57.5q205 0 383.5 -54.5t312 -154t210.5 -250.5t77 -333q0 -140 -46.5 -276t-130.5 -253.5t-204.5 -217.5t-263.5 -171t-314 -111t-349 -40zM1120 -139
q147 0 288 32t259.5 89.5t219.5 138.5t171 176t109 205.5t39 224.5q0 194 -109 342t-293.5 224.5t-412.5 76.5q-220 0 -422.5 -73t-347 -192.5t-230.5 -278.5t-86 -326q0 -187 103 -333t288.5 -226t423.5 -80zM1180 315q-58 0 -102.5 12.5t-70 34t-41.5 46.5t-20.5 55
t-4.5 54t5 48l66 350h155l-65 -337q-22 -123 102 -123q70 0 104 36.5t44 86.5l65 337h156l-68 -350q-6 -30 -16 -58.5t-34.5 -65t-58 -63t-90 -45t-126.5 -18.5z" />
    <glyph glyph-name="V.ss08" 
d="M1417 1546q205 0 383.5 -54.5t312 -154t210.5 -250.5t77 -333q0 -140 -46.5 -276t-130.5 -253.5t-204.5 -217.5t-263.5 -171t-314 -111t-349 -40q-216 0 -398.5 58t-310 160.5t-199 249.5t-71.5 320q0 165 65 325t185.5 294t279.5 236.5t360 160t414 57.5zM1120 -139
q147 0 288 32t259.5 89.5t219.5 138.5t171 176t109 205.5t39 224.5q0 194 -109 342t-293.5 224.5t-412.5 76.5q-220 0 -422.5 -73t-347 -192.5t-230.5 -278.5t-86 -326q0 -187 103 -333t288.5 -226t423.5 -80zM1229 504q87 152 145.5 245t87.5 127.5t41 32.5h164l-383 -587
h-174l-168 587h164q4 -1 25.5 -75t51 -178t46.5 -152z" />
    <glyph glyph-name="W.ss08" 
d="M1417 1546q205 0 383.5 -54.5t312 -154t210.5 -250.5t77 -333q0 -140 -46.5 -276t-130.5 -253.5t-204.5 -217.5t-263.5 -171t-314 -111t-349 -40q-216 0 -398.5 58t-310 160.5t-199 249.5t-71.5 320q0 165 65 325t185.5 294t279.5 236.5t360 160t414 57.5zM1120 -139
q147 0 288 32t259.5 89.5t219.5 138.5t171 176t109 205.5t39 224.5q0 194 -109 342t-293.5 224.5t-412.5 76.5q-220 0 -422.5 -73t-347 -192.5t-230.5 -278.5t-86 -326q0 -187 103 -333t288.5 -226t423.5 -80zM1446 537q104 181 203 372h174l-318 -587h-182q-51 246 -70 344
q-10 -18 -37.5 -68t-37 -66.5t-31.5 -54t-35 -57.5t-32 -47t-38 -51h-186l-98 587h176q10 -72 27.5 -187t25.5 -181q26 43 101 170.5t118 197.5h168q48 -242 72 -372z" />
    <glyph glyph-name="X.ss08" horiz-adv-x="2455" 
d="M1417 1546q205 0 383.5 -54.5t312 -154t210.5 -250.5t77 -333q0 -140 -46.5 -276t-130.5 -253.5t-204.5 -217.5t-263.5 -171t-314 -111t-349 -40q-216 0 -398.5 58t-310 160.5t-199 249.5t-71.5 320q0 165 65 325t185.5 294t279.5 236.5t360 160t414 57.5zM1120 -139
q147 0 288 32t259.5 89.5t219.5 138.5t171 176t109 205.5t39 224.5q0 194 -109 342t-293.5 224.5t-412.5 76.5q-220 0 -422.5 -73t-347 -192.5t-230.5 -278.5t-86 -326q0 -187 103 -333t288.5 -226t423.5 -80zM1446 909h182q-35 -37 -85 -99t-95.5 -108t-108.5 -90
q28 -45 87 -141.5t92 -148.5h-187q-19 28 -33 50.5t-34 58t-37 63.5q-21 -20 -57.5 -56t-65 -63.5t-55.5 -52.5h-189q48 46 138 141.5t151 150.5q-36 56 -98.5 163.5t-77.5 131.5h182q2 -3 109 -176q20 20 53.5 55.5t63.5 65t65 55.5z" />
    <glyph glyph-name="Y.ss08" 
d="M1417 1546q205 0 383.5 -54.5t312 -154t210.5 -250.5t77 -333q0 -140 -46.5 -276t-130.5 -253.5t-204.5 -217.5t-263.5 -171t-314 -111t-349 -40q-216 0 -398.5 58t-310 160.5t-199 249.5t-71.5 320q0 165 65 325t185.5 294t279.5 236.5t360 160t414 57.5zM1120 -139
q147 0 288 32t259.5 89.5t219.5 138.5t171 176t109 205.5t39 224.5q0 194 -109 342t-293.5 224.5t-412.5 76.5q-220 0 -422.5 -73t-347 -192.5t-230.5 -278.5t-86 -326q0 -187 103 -333t288.5 -226t423.5 -80zM1241 662q19 24 68 94.5t84 110t61 42.5h168
q-39 -46 -98.5 -131t-112.5 -148t-117 -110q-27 -148 -37 -198h-155q4 20 17.5 89t21.5 107q-12 24 -74 172.5t-111 218.5h170q13 -26 57 -125t58 -122z" />
    <glyph glyph-name="Z.ss08" horiz-adv-x="2455" 
d="M1417 1546q205 0 383.5 -54.5t312 -154t210.5 -250.5t77 -333q0 -140 -46.5 -276t-130.5 -253.5t-204.5 -217.5t-263.5 -171t-314 -111t-349 -40q-216 0 -398.5 58t-310 160.5t-199 249.5t-71.5 320q0 165 65 325t185.5 294t279.5 236.5t360 160t414 57.5zM1120 -139
q147 0 288 32t259.5 89.5t219.5 138.5t171 176t109 205.5t39 224.5q0 194 -109 342t-293.5 224.5t-412.5 76.5q-220 0 -422.5 -73t-347 -192.5t-230.5 -278.5t-86 -326q0 -187 103 -333t288.5 -226t423.5 -80zM995 772l21 137h553l-21 -135q-46 -33 -136.5 -102.5
t-291.5 -212.5h369l-23 -137h-569l21 131q201 154 430 321q-117 -2 -353 -2z" />
    <glyph glyph-name="i.loclTRK" horiz-adv-x="681" 
d="M471 1257q-81 0 -134.5 50t-53.5 125q0 91 75.5 159t176.5 68q81 0 133.5 -48t52.5 -122q0 -91 -75.5 -161.5t-174.5 -70.5zM418 0h-355l203 1147h355z" />
    <glyph glyph-name="a.ss01" horiz-adv-x="1634" 
d="M594 -33q-246 0 -386 134.5t-140 355.5q0 141 58.5 273.5t157 231t235.5 158.5t286 60q137 0 237 -45.5t148 -110.5h4l29 123h350l-201 -1147h-338l27 115h-6q-84 -79 -206.5 -113.5t-254.5 -34.5zM725 295q165 0 283 99t118 235q0 103 -78.5 164t-207.5 61
q-172 0 -286 -101t-114 -231q0 -104 78 -165.5t207 -61.5z" />
    <glyph glyph-name="aacute.ss01" horiz-adv-x="1634" 
d="M1522 1653l-439 -375h-307l330 375h416zM594 -33q-246 0 -386 134.5t-140 355.5q0 141 58.5 273.5t157 231t235.5 158.5t286 60q137 0 237 -45.5t148 -110.5h4l29 123h350l-201 -1147h-338l27 115h-6q-84 -79 -206.5 -113.5t-254.5 -34.5zM725 295q165 0 283 99t118 235
q0 103 -78.5 164t-207.5 61q-172 0 -286 -101t-114 -231q0 -104 78 -165.5t207 -61.5z" />
    <glyph glyph-name="abreve.ss01" horiz-adv-x="1634" 
d="M952 1264q-208 0 -315.5 109t-83.5 286h289q-14 -59 25.5 -107.5t127.5 -48.5q85 0 144.5 48t74.5 108h289q-40 -186 -193 -290.5t-358 -104.5zM594 -33q-246 0 -386 134.5t-140 355.5q0 141 58.5 273.5t157 231t235.5 158.5t286 60q137 0 237 -45.5t148 -110.5h4l29 123
h350l-201 -1147h-338l27 115h-6q-84 -79 -206.5 -113.5t-254.5 -34.5zM725 295q165 0 283 99t118 235q0 103 -78.5 164t-207.5 61q-172 0 -286 -101t-114 -231q0 -104 78 -165.5t207 -61.5z" />
    <glyph glyph-name="acircumflex.ss01" horiz-adv-x="1634" 
d="M754 1278h-334l420 375h358l291 -375h-334q-21 24 -38 34.5t-44.5 38t-81.5 99.5q-30 -22 -55.5 -33t-63.5 -38.5t-118 -100.5zM594 -33q-246 0 -386 134.5t-140 355.5q0 141 58.5 273.5t157 231t235.5 158.5t286 60q137 0 237 -45.5t148 -110.5h4l29 123h350l-201 -1147
h-338l27 115h-6q-84 -79 -206.5 -113.5t-254.5 -34.5zM725 295q165 0 283 99t118 235q0 103 -78.5 164t-207.5 61q-172 0 -286 -101t-114 -231q0 -104 78 -165.5t207 -61.5z" />
    <glyph glyph-name="adieresis.ss01" horiz-adv-x="1634" 
d="M678 1276q-73 0 -121.5 45t-48.5 113q0 80 68.5 143t158.5 63q73 0 122.5 -44.5t49.5 -110.5q0 -81 -69 -145t-160 -64zM1243 1276q-75 0 -123.5 45t-48.5 113q0 84 68.5 145t158.5 61q73 0 122.5 -44.5t49.5 -110.5q0 -80 -68 -144.5t-159 -64.5zM594 -33
q-246 0 -386 134.5t-140 355.5q0 141 58.5 273.5t157 231t235.5 158.5t286 60q137 0 237 -45.5t148 -110.5h4l29 123h350l-201 -1147h-338l27 115h-6q-84 -79 -206.5 -113.5t-254.5 -34.5zM725 295q165 0 283 99t118 235q0 103 -78.5 164t-207.5 61q-172 0 -286 -101
t-114 -231q0 -104 78 -165.5t207 -61.5z" />
    <glyph glyph-name="agrave.ss01" horiz-adv-x="1634" 
d="M1122 1278h-307l-307 375h416zM594 -33q-246 0 -386 134.5t-140 355.5q0 141 58.5 273.5t157 231t235.5 158.5t286 60q137 0 237 -45.5t148 -110.5h4l29 123h350l-201 -1147h-338l27 115h-6q-84 -79 -206.5 -113.5t-254.5 -34.5zM725 295q165 0 283 99t118 235
q0 103 -78.5 164t-207.5 61q-172 0 -286 -101t-114 -231q0 -104 78 -165.5t207 -61.5z" />
    <glyph glyph-name="amacron.ss01" horiz-adv-x="1634" 
d="M1378 1300h-825l35 236h825zM594 -33q-246 0 -386 134.5t-140 355.5q0 141 58.5 273.5t157 231t235.5 158.5t286 60q137 0 237 -45.5t148 -110.5h4l29 123h350l-201 -1147h-338l27 115h-6q-84 -79 -206.5 -113.5t-254.5 -34.5zM725 295q165 0 283 99t118 235
q0 103 -78.5 164t-207.5 61q-172 0 -286 -101t-114 -231q0 -104 78 -165.5t207 -61.5z" />
    <glyph glyph-name="aogonek.ss01" horiz-adv-x="1634" 
d="M1372 0h-106q-103 -14 -162.5 -61t-59.5 -95q0 -33 38 -56.5t100 -23.5q66 0 118 17l-36 -230q-63 -14 -140 -14q-158 0 -247 55t-89 152q0 84 72 155t180 101h-6l27 115h-6q-84 -79 -206.5 -113.5t-254.5 -34.5q-246 0 -386 134.5t-140 355.5q0 141 58.5 273.5t157 231
t235.5 158.5t286 60q137 0 237 -45.5t148 -110.5h4l29 123h350zM725 295q165 0 283 99t118 235q0 103 -78.5 164t-207.5 61q-172 0 -286 -101t-114 -231q0 -104 78 -165.5t207 -61.5z" />
    <glyph glyph-name="aring.ss01" horiz-adv-x="1634" 
d="M952 1257q-119 0 -197.5 65t-78.5 163q0 116 107.5 204.5t254.5 88.5q121 0 198 -63.5t77 -162.5q0 -117 -107 -206t-254 -89zM979 1440q48 0 84.5 27.5t36.5 60.5q0 27 -25.5 46t-64.5 19q-49 0 -85 -27t-36 -61q0 -28 25.5 -46.5t64.5 -18.5zM594 -33
q-246 0 -386 134.5t-140 355.5q0 141 58.5 273.5t157 231t235.5 158.5t286 60q137 0 237 -45.5t148 -110.5h4l29 123h350l-201 -1147h-338l27 115h-6q-84 -79 -206.5 -113.5t-254.5 -34.5zM725 295q165 0 283 99t118 235q0 103 -78.5 164t-207.5 61q-172 0 -286 -101
t-114 -231q0 -104 78 -165.5t207 -61.5z" />
    <glyph glyph-name="atilde.ss01" horiz-adv-x="1634" 
d="M1153 1264q-107 0 -160 34l-65 41q-44 29 -90 29q-39 0 -67 -25t-36 -61h-252q26 156 132.5 250t244.5 94q90 0 172 -45l58 -33q28 -16 71 -16q35 0 57.5 21.5t30.5 58.5h254q-27 -170 -118.5 -259t-231.5 -89zM594 -33q-246 0 -386 134.5t-140 355.5q0 141 58.5 273.5
t157 231t235.5 158.5t286 60q137 0 237 -45.5t148 -110.5h4l29 123h350l-201 -1147h-338l27 115h-6q-84 -79 -206.5 -113.5t-254.5 -34.5zM725 295q165 0 283 99t118 235q0 103 -78.5 164t-207.5 61q-172 0 -286 -101t-114 -231q0 -104 78 -165.5t207 -61.5z" />
    <glyph glyph-name="b.ss01" horiz-adv-x="1398" 
d="M750 -35q-250 0 -326 150h-6l-23 -115h-332l289 1638h355l-170 -952h4q57 42 150 65t192 23q198 0 321 -97.5t123 -252.5q0 -119 -75 -224.5t-208.5 -170t-293.5 -64.5zM725 248q97 0 166.5 42.5t69.5 102.5q0 50 -45.5 78.5t-124.5 28.5q-99 0 -169.5 -43.5
t-70.5 -102.5q0 -48 47.5 -77t126.5 -29z" />
    <glyph glyph-name="d.ss01" horiz-adv-x="1628" 
d="M596 -33q-246 0 -387 131t-141 357q0 142 59 275.5t157.5 232.5t235 159t283.5 60q138 0 234 -45.5t145 -112.5h4l114 614h355l-289 -1638h-332l27 115h-6q-163 -148 -459 -148zM725 295q163 0 282 99t119 235q0 103 -79 164t-207 61q-172 0 -286 -101t-114 -231
q0 -104 78 -165.5t207 -61.5z" />
    <glyph glyph-name="dcaron.ss01" horiz-adv-x="1689" 
d="M1831 1063h-205l252 301q-54 22 -83.5 62.5t-29.5 93.5q0 93 79 164t181 71q82 0 136.5 -50.5t54.5 -125.5q0 -70 -63 -152.5t-296 -334.5q-4 -5 -6.5 -7.5t-6 -6.5l-7 -8t-6.5 -7zM616 -33q-246 0 -387 131t-141 357q0 142 59 275.5t157.5 232.5t235 159t283.5 60
q138 0 234 -45.5t145 -112.5h4l115 614h354l-289 -1638h-331l26 115h-6q-163 -148 -459 -148zM745 295q163 0 282.5 99t119.5 235q0 103 -79.5 164t-207.5 61q-172 0 -285.5 -101t-113.5 -231q0 -104 77.5 -165.5t206.5 -61.5z" />
    <glyph glyph-name="dcroat.ss01" horiz-adv-x="1628" 
d="M1630 1495h314l-37 -252h-322l-219 -1243h-332l27 115h-6q-163 -148 -459 -148q-246 0 -387 131t-141 357q0 142 59 275.5t157.5 232.5t235 159t283.5 60q138 0 234 -45.5t145 -112.5h4l41 219h-301l39 252h309l26 143h355zM725 295q163 0 282 99t119 235q0 103 -79 164
t-207 61q-172 0 -286 -101t-114 -231q0 -104 78 -165.5t207 -61.5z" />
    <glyph glyph-name="g.ss01" horiz-adv-x="1634" 
d="M1288 -451h-1241l47 312h887l63 282h-6q-142 -135 -428 -135q-256 0 -396 132t-140 343q0 133 57 260t153 223t232.5 155t286.5 59q140 0 239.5 -45t145.5 -111h6l27 123h350zM729 336q162 0 281.5 90t119.5 209q0 97 -80 158t-206 61q-162 0 -280 -89t-118 -210
q0 -96 78.5 -157.5t204.5 -61.5z" />
    <glyph glyph-name="gbreve.ss01" horiz-adv-x="1634" 
d="M954 1264q-208 0 -315.5 109t-83.5 286h289q-14 -59 25.5 -107.5t127.5 -48.5q85 0 145 48.5t75 107.5h288q-40 -186 -193 -290.5t-358 -104.5zM1288 -451h-1241l47 312h887l63 282h-6q-142 -135 -428 -135q-256 0 -396 132t-140 343q0 133 57 260t153 223t232.5 155
t286.5 59q140 0 239.5 -45t145.5 -111h6l27 123h350zM729 336q162 0 281.5 90t119.5 209q0 97 -80 158t-206 61q-162 0 -280 -89t-118 -210q0 -96 78.5 -157.5t204.5 -61.5z" />
    <glyph glyph-name="uni0123.ss01" horiz-adv-x="1634" 
d="M780 1436q0 17 4.5 34t10.5 32.5t22 39t30 42.5t44 54t54 62.5t69.5 80t81.5 95.5h194l-209 -252q93 -50 93 -141q0 -81 -68.5 -140t-159.5 -59q-74 0 -120 42.5t-46 109.5zM1288 -451h-1241l47 312h887l63 282h-6q-142 -135 -428 -135q-256 0 -396 132t-140 343
q0 133 57 260t153 223t232.5 155t286.5 59q140 0 239.5 -45t145.5 -111h6l27 123h350zM729 336q162 0 281.5 90t119.5 209q0 97 -80 158t-206 61q-162 0 -280 -89t-118 -210q0 -96 78.5 -157.5t204.5 -61.5z" />
    <glyph glyph-name="gdotaccent.ss01" horiz-adv-x="1634" 
d="M965 1278q-82 0 -135.5 49.5t-53.5 124.5q0 91 75.5 159t176.5 68q81 0 133.5 -48t52.5 -122q0 -91 -75 -161t-174 -70zM1288 -451h-1241l47 312h887l63 282h-6q-142 -135 -428 -135q-256 0 -396 132t-140 343q0 133 57 260t153 223t232.5 155t286.5 59q140 0 239.5 -45
t145.5 -111h6l27 123h350zM729 336q162 0 281.5 90t119.5 209q0 97 -80 158t-206 61q-162 0 -280 -89t-118 -210q0 -96 78.5 -157.5t204.5 -61.5z" />
    <glyph glyph-name="i.ss01" horiz-adv-x="954" 
d="M590 1257q-82 0 -135.5 50t-53.5 125q0 91 76 159t176 68q82 0 134.5 -48t52.5 -122q0 -91 -75.5 -161.5t-174.5 -70.5zM807 0h-596l156 836h-285l47 311h637l-154 -836h242z" />
    <glyph glyph-name="dotlessi.ss01" horiz-adv-x="954" 
d="M807 0h-596l156 836h-285l47 311h637l-154 -836h242z" />
    <glyph glyph-name="iacute.ss01" horiz-adv-x="954" 
d="M1147 1653l-438 -375h-308l330 375h416zM807 0h-596l156 836h-285l47 311h637l-154 -836h242z" />
    <glyph glyph-name="icircumflex.ss01" horiz-adv-x="954" 
d="M379 1278h-334l420 375h358l291 -375h-334q-21 24 -38 34.5t-44.5 38t-81.5 99.5q-30 -22 -55.5 -33t-63.5 -38.5t-118 -100.5zM807 0h-596l156 836h-285l47 311h637l-154 -836h242z" />
    <glyph glyph-name="idieresis.ss01" horiz-adv-x="954" 
d="M303 1276q-73 0 -121.5 45t-48.5 113q0 80 68.5 143t158.5 63q73 0 122.5 -44.5t49.5 -110.5q0 -81 -69 -145t-160 -64zM868 1276q-75 0 -123.5 45t-48.5 113q0 84 69 145t159 61q73 0 122.5 -44.5t49.5 -110.5q0 -79 -68.5 -144t-159.5 -65zM807 0h-596l156 836h-285
l47 311h637l-154 -836h242z" />
    <glyph glyph-name="i.loclTRK.ss01" horiz-adv-x="954" 
d="M588 1278q-82 0 -135.5 49.5t-53.5 124.5q0 91 75.5 159t176.5 68q82 0 134.5 -48t52.5 -122q0 -91 -75.5 -161t-174.5 -70zM807 0h-596l156 836h-285l47 311h637l-154 -836h242z" />
    <glyph glyph-name="igrave.ss01" horiz-adv-x="954" 
d="M748 1278h-308l-307 375h416zM807 0h-596l156 836h-285l47 311h637l-154 -836h242z" />
    <glyph glyph-name="imacron.ss01" horiz-adv-x="954" 
d="M1004 1300h-826l35 236h825zM807 0h-596l156 836h-285l47 311h637l-154 -836h242z" />
    <glyph glyph-name="iogonek.ss01" horiz-adv-x="954" 
d="M588 1278q-82 0 -135.5 49.5t-53.5 124.5q0 91 75.5 159t176.5 68q82 0 134.5 -48t52.5 -122q0 -91 -75.5 -161t-174.5 -70zM807 0h-389q-92 -18 -144.5 -63t-52.5 -89q0 -33 37 -56t100 -23q70 0 119 16l-37 -229q-67 -15 -139 -15q-158 0 -247 55t-89 152
q0 83 70.5 153.5t175.5 100.5l156 834h-285l47 311h637l-154 -836h242z" />
    <glyph glyph-name="j.ss01" horiz-adv-x="882" 
d="M645 1257q-81 0 -134.5 50t-53.5 125q0 91 75.5 159t176.5 68q81 0 133.5 -48t52.5 -122q0 -91 -75.5 -161.5t-174.5 -70.5zM539 -451h-856l47 312h499l191 975h-344l45 311h700z" />
    <glyph glyph-name="l.ss01" horiz-adv-x="946" 
d="M831 0h-765l288 1638h355l-242 -1327h412z" />
    <glyph glyph-name="lacute.ss01" horiz-adv-x="946" 
d="M1239 2136l-453 -375h-321l340 375h434zM831 0h-765l288 1638h355l-242 -1327h412z" />
    <glyph glyph-name="lcaron.ss01" horiz-adv-x="946" 
d="M946 981h-205l252 301q-54 22 -83 62.5t-29 93.5q0 93 79 164t181 71q82 0 136 -50.5t54 -125.5q0 -70 -63 -152.5t-296 -334.5q-4 -5 -6.5 -7.5t-6 -6.5l-7 -8t-6.5 -7zM831 0h-765l288 1638h355l-242 -1327h412z" />
    <glyph glyph-name="uni013C.ss01" horiz-adv-x="946" 
d="M831 0h-765l288 1638h355l-242 -1327h412zM190 -696h-190l203 252q-97 49 -97 143q0 77 66 137t158 60q74 0 121 -42.5t47 -109.5q0 -22 -8 -45t-19.5 -44t-41 -59t-56 -70t-81.5 -98t-102 -124z" />
    <glyph glyph-name="lslash.ss01" horiz-adv-x="946" 
d="M858 1053l-287 -164l-104 -578h412l-48 -311h-765l116 664l-225 -129l43 292l236 136l118 675h355l-82 -450l274 158z" />
    <glyph glyph-name="m.ss01" horiz-adv-x="2371" 
d="M418 0h-355l203 1147h355l-60 -279l504 279h401l-59 -277l502 277h401l-203 -1147h-354l150 791h-15l-538 -304l-86 -487h-355l150 791h-15l-540 -306z" />
    <glyph glyph-name="n.ss01" horiz-adv-x="1560" 
d="M553 768l641 379h305l-203 -1147h-352l141 731h-14l-569 -268l-84 -463h-355l203 1147h355z" />
    <glyph glyph-name="nacute.ss01" horiz-adv-x="1560" 
d="M1057 1653h416l-439 -375h-307zM553 768l641 379h305l-203 -1147h-352l141 731h-14l-569 -268l-84 -463h-355l203 1147h355z" />
    <glyph glyph-name="ncaron.ss01" horiz-adv-x="1560" 
d="M1511 1694l-424 -396h-358l-287 396h334q21 -21 39.5 -32.5t44 -38.5t82.5 -101q30 24 53.5 34.5t63.5 38t119 99.5h333zM621 1147l-68 -379l641 379h305l-203 -1147h-352l141 731h-14l-569 -268l-84 -463h-355l203 1147h355z" />
    <glyph glyph-name="uni0146.ss01" horiz-adv-x="1560" 
d="M553 768l641 379h305l-203 -1147h-352l141 731h-14l-569 -268l-84 -463h-355l203 1147h355zM702 -104q74 0 121 -42.5t47 -109.5q0 -23 -8 -45.5t-19.5 -43.5t-41 -59t-55.5 -69.5t-81.5 -98.5t-101.5 -124h-190l202 252q-96 49 -96 143q0 77 65.5 137t157.5 60z" />
    <glyph glyph-name="eng.ss01" horiz-adv-x="1560" 
d="M758 -483q-132 0 -269 39l43 290q126 -24 195 -24q51 0 89 9t59 21.5t35 33.5t19 37.5t9 41.5l147 766h-14l-569 -268l-84 -463h-355l203 1147h355l-70 -342l643 342h305l-205 -1161q-27 -149 -58 -220q-83 -191 -314 -235q-74 -14 -164 -14z" />
    <glyph glyph-name="ntilde.ss01" horiz-adv-x="1560" 
d="M788 1368q-39 0 -66.5 -25t-35.5 -61h-252q26 156 132.5 250t244.5 94q89 0 172 -45l57 -33q28 -16 72 -16q35 0 57.5 21.5t30.5 58.5h254q-27 -170 -118.5 -259t-231.5 -89q-107 0 -160 34l-65 41q-15 10 -42.5 19.5t-48.5 9.5zM553 768l641 379h305l-203 -1147h-352
l141 731h-14l-569 -268l-84 -463h-355l203 1147h355z" />
    <glyph glyph-name="p.ss01" horiz-adv-x="1628" 
d="M338 -451h-354l282 1598h348l-30 -146h6q204 179 473 179q231 0 365.5 -130t134.5 -354q0 -190 -98.5 -358.5t-269.5 -270.5t-370 -102q-138 0 -234.5 46t-146.5 112zM793 293q166 0 282.5 100.5t116.5 229.5q0 104 -77.5 166.5t-203.5 62.5q-167 0 -287 -98t-120 -230
q0 -104 80 -167.5t209 -63.5z" />
    <glyph glyph-name="q.ss01" horiz-adv-x="1632" 
d="M1288 -451h-354l108 594q-193 -178 -471 -178q-229 0 -365 135.5t-136 362.5q0 188 95.5 352.5t265 264.5t372.5 100q139 0 237 -45t148 -111h4l27 123h350zM721 295q168 0 287.5 97.5t119.5 230.5q0 104 -78.5 167.5t-207.5 63.5q-165 0 -283.5 -96.5t-118.5 -229.5
q0 -106 76.5 -169.5t204.5 -63.5z" />
    <glyph glyph-name="r.ss01" horiz-adv-x="1036" 
d="M418 0h-355l203 1147h842l-47 -311h-488z" />
    <glyph glyph-name="racute.ss01" horiz-adv-x="1036" 
d="M1235 1653l-438 -375h-308l330 375h416zM418 0h-355l203 1147h842l-47 -311h-488z" />
    <glyph glyph-name="rcaron.ss01" horiz-adv-x="1036" 
d="M850 1298h-358l-287 396h334q21 -21 39.5 -32.5t44 -38.5t82.5 -101q30 24 53.5 34.5t63 38t118.5 99.5h334zM418 0h-355l203 1147h842l-47 -311h-488z" />
    <glyph glyph-name="uni0157.ss01" horiz-adv-x="1036" 
d="M418 0h-355l203 1147h842l-47 -311h-488zM104 -696h-190l203 252q-97 49 -97 143q0 77 66 137t158 60q74 0 121 -42.5t47 -109.5q0 -22 -8 -45t-19.5 -44t-41 -59t-56 -70t-81.5 -98t-102 -124z" />
    <glyph glyph-name="s.ss01" horiz-adv-x="1249" 
d="M1024 0h-1001l47 311h653l37 142h-654l119 694h1002l-47 -311h-656l-35 -142h656z" />
    <glyph glyph-name="sacute.ss01" horiz-adv-x="1249" 
d="M1321 1653l-438 -375h-308l330 375h416zM1024 0h-1001l47 311h653l37 142h-654l119 694h1002l-47 -311h-656l-35 -142h656z" />
    <glyph glyph-name="scaron.ss01" horiz-adv-x="1249" 
d="M936 1298h-358l-287 396h334q21 -21 39.5 -32.5t44 -38.5t82.5 -101q30 24 53.5 34.5t63 38t118.5 99.5h334zM1024 0h-1001l47 311h653l37 142h-654l119 694h1002l-47 -311h-656l-35 -142h656z" />
    <glyph glyph-name="scedilla.ss01" horiz-adv-x="1249" 
d="M1227 1147l-47 -311h-656l-35 -142h656l-121 -694h-360l-103 -88q28 4 55 4q97 0 159.5 -46.5t62.5 -129.5q0 -118 -110 -194t-277 -76q-110 0 -196.5 36t-129.5 99l131 133q70 -98 209 -98q63 0 101 22t38 57q0 29 -29.5 45.5t-76.5 16.5q-63 0 -111 -31l-96 74l170 176
h-438l47 311h653l37 142h-654l119 694h1002z" />
    </font>
</defs>
</svg>
