<?xml version="1.0" standalone="no"?>
<!DOCTYPE svg PUBLIC "-//W3C//DTD SVG 1.1//EN" "http://www.w3.org/Graphics/SVG/1.1/DTD/svg11.dtd" >
<svg xmlns="http://www.w3.org/2000/svg" xmlns:xlink="http://www.w3.org/1999/xlink" version="1.1">
<metadata>
Created by FontForge 20170731 at Mon Mar 15 14:21:00 2021
 By Aleksey,,,
Copyright (c) 2020 by Matthieu Salvaggio x Blaze Type. All rights reserved.
</metadata>
<defs>
<font id="Area-ExtraboldExtended" horiz-adv-x="2457" >
  <font-face 
    font-family="Area Extrabold Extended"
    font-weight="800"
    font-stretch="normal"
    units-per-em="2048"
    panose-1="0 0 9 0 0 0 0 0 0 0"
    ascent="1638"
    descent="-410"
    x-height="1139"
    cap-height="1597"
    bbox="-2025 -610 2992 2191"
    underline-thickness="102"
    underline-position="-307"
    unicode-range="U+0020-25CA"
  />
<missing-glyph horiz-adv-x="1705" 
d="M1487 0h-1266v1597h1266v-1597zM412 1430v-1063l798 1063h-798zM1296 1257l-809 -1087h809v1087z" />
    <glyph glyph-name=".notdef" horiz-adv-x="1705" 
d="M1487 0h-1266v1597h1266v-1597zM412 1430v-1063l798 1063h-798zM1296 1257l-809 -1087h809v1087z" />
    <glyph glyph-name=".null" horiz-adv-x="0" 
 />
    <glyph glyph-name="nonmarkingreturn" horiz-adv-x="682" 
 />
    <glyph glyph-name="space" unicode=" " horiz-adv-x="616" 
 />
    <glyph glyph-name="exclam" unicode="!" horiz-adv-x="669" 
d="M410 467h-146l-69 971v159h282v-159zM338 -14q-74 0 -126 48.5t-52 117.5q0 66 52 112.5t126 46.5q70 0 122 -47t52 -112q0 -69 -51 -117.5t-123 -48.5z" />
    <glyph glyph-name="quotedbl" unicode="&#x22;" horiz-adv-x="987" 
d="M410 1079h-248v518h248v-518zM825 1079h-247v518h247v-518z" />
    <glyph glyph-name="numbersign" unicode="#" horiz-adv-x="1822" 
d="M1731 1112l-45 -201h-306l-71 -301h295l-43 -200h-301l-97 -410h-229l96 410h-424l-96 -410h-229l96 410h-285l43 200h291l72 301h-281l47 201h281l114 485h230l-115 -485h424l115 485h229l-115 -485h304zM655 610h424l72 301h-424z" />
    <glyph glyph-name="dollar" unicode="$" horiz-adv-x="1470" 
d="M1337 496q0 -171 -141.5 -287.5t-388.5 -126.5v-164h-133v168q-204 19 -347.5 118t-201.5 265l237 72q45 -101 127 -157.5t185 -72.5v377l-41 10q-39 10 -69.5 18.5t-81 27t-88.5 38.5t-81 51t-71 66t-47 83.5t-19 102.5q0 87 41 160.5t110 123.5t158.5 80t188.5 36v153
h133v-155q182 -20 315.5 -110t171.5 -208l-219 -96q-33 71 -103 121t-165 67v-364l80 -25q42 -11 64 -17.5t65.5 -20t68.5 -24.5t63.5 -30t61.5 -37.5t50 -45t42 -55t25 -65t10 -77.5zM442 1110q0 -35 17.5 -63t53 -49t71.5 -35.5t90 -30.5v332q-105 -8 -168.5 -49
t-63.5 -105zM807 657v-350q107 8 181.5 52.5t74.5 115.5q0 32 -14 57.5t-35 43.5t-57 33.5t-68.5 25.5t-81.5 22z" />
    <glyph glyph-name="percent" unicode="%" horiz-adv-x="2197" 
d="M436 737q-161 0 -258.5 111.5t-97.5 290.5q0 180 97 291.5t259 111.5t260.5 -113t98.5 -290t-98.5 -289.5t-260.5 -112.5zM537 0h-240l1366 1468h231zM436 918q65 0 102 54.5t37 166.5q0 113 -37.5 168t-101.5 55t-100.5 -55t-36.5 -168q0 -112 36.5 -166.5t100.5 -54.5z
M1759 -29q-161 0 -258.5 111.5t-97.5 290.5q0 180 97 291.5t259 111.5t260.5 -113t98.5 -290t-98.5 -289.5t-260.5 -112.5zM1759 152q65 0 102 54.5t37 166.5q0 113 -37.5 168t-101.5 55t-100.5 -55t-36.5 -168q0 -112 36.5 -166.5t100.5 -54.5z" />
    <glyph glyph-name="ampersand" unicode="&#x26;" horiz-adv-x="1751" 
d="M686 -35q-160 0 -291.5 50.5t-210 146t-78.5 219.5q0 75 32 142.5t91.5 123.5t121.5 98t145 86q-52 46 -90 86t-78.5 92.5t-62 109.5t-21.5 114q0 166 143.5 281.5t362.5 115.5q114 0 210 -34.5t158 -91t96.5 -126.5t34.5 -143q0 -71 -32 -136.5t-90.5 -119.5t-120 -95
t-140.5 -81l338 -266q73 128 115 274l242 -45q-74 -243 -179 -404l414 -360h-334l-227 176q-223 -213 -549 -213zM721 946q133 70 195.5 130.5t62.5 142.5q0 87 -67 139.5t-169 52.5q-97 0 -163 -49t-66 -127q0 -71 54.5 -139.5t152.5 -149.5zM702 190q215 0 365 150
l-418 340q-66 -33 -110 -58.5t-85.5 -59t-62 -71t-20.5 -79.5q0 -99 95 -160.5t236 -61.5z" />
    <glyph glyph-name="quotesingle" unicode="'" horiz-adv-x="571" 
d="M410 1079h-248v518h248v-518z" />
    <glyph glyph-name="parenleft" unicode="(" horiz-adv-x="813" 
d="M795 -307h-267q-201 198 -307 445t-106 507q0 261 106 507.5t307 444.5h267q-197 -197 -303.5 -445t-106.5 -507q0 -257 106 -505.5t304 -446.5z" />
    <glyph glyph-name="parenright" unicode=")" horiz-adv-x="813" 
d="M285 -307h-265q198 198 304 447t106 505q0 258 -106 506t-304 446h265q202 -199 307.5 -445.5t105.5 -506.5q0 -259 -106 -506.5t-307 -445.5z" />
    <glyph glyph-name="asterisk" unicode="*" horiz-adv-x="972" 
d="M555 1026h-139l2 182l-197 -96l-69 109l210 92l-208 88l67 108l197 -92l-2 180h139l-2 -180l197 92l69 -108l-209 -88l209 -92l-69 -109l-197 96z" />
    <glyph glyph-name="plus" unicode="+" horiz-adv-x="1255" 
d="M739 719h359v-191h-359v-315h-219v315h-362v191h362v317h219v-317z" />
    <glyph glyph-name="comma" unicode="," horiz-adv-x="595" 
d="M215 -274h-147l170 276q-54 20 -83.5 60.5t-29.5 89.5q0 66 52 112.5t126 46.5q72 0 124 -46.5t52 -110.5q0 -50 -37.5 -111t-176.5 -249q-32 -44 -50 -68z" />
    <glyph glyph-name="hyphen" unicode="-" horiz-adv-x="1026" 
d="M881 520h-736v207h736v-207z" />
    <glyph glyph-name="period" unicode="." horiz-adv-x="612" 
d="M309 -14q-74 0 -126 48.5t-52 117.5q0 66 52 112.5t126 46.5q72 0 123 -46.5t51 -112.5q0 -69 -51 -117.5t-123 -48.5z" />
    <glyph glyph-name="slash" unicode="/" horiz-adv-x="1071" 
d="M322 -135h-242l668 1773h243z" />
    <glyph glyph-name="zero" unicode="0" horiz-adv-x="1722" 
d="M862 -35q-217 0 -383.5 105t-257 293.5t-90.5 431.5q0 244 90.5 433.5t257 295.5t383.5 106q216 0 382 -106t256.5 -295.5t90.5 -433.5q0 -243 -90.5 -431.5t-256.5 -293.5t-382 -105zM862 205q200 0 319 156t119 436q0 279 -119.5 436.5t-318.5 157.5
q-200 0 -322 -157.5t-122 -436.5q0 -280 121.5 -436t322.5 -156z" />
    <glyph glyph-name="one" unicode="1" horiz-adv-x="985" 
d="M748 0h-273v1161q-68 -68 -179 -119.5t-233 -70.5v264q184 38 302 139.5t118 222.5h265v-1597z" />
    <glyph glyph-name="two" unicode="2" horiz-adv-x="1546" 
d="M1411 0h-1268v29q5 71 17 131.5t35.5 114t49 96.5t69.5 87.5t85 79.5t106.5 79t123 79t145.5 86q160 94 214 135q151 114 151 236q0 106 -98 175t-261 69q-194 0 -308 -104t-114 -273l-252 41q0 164 86 294t241 202.5t353 72.5q179 0 322.5 -58.5t226 -167t82.5 -249.5
q0 -81 -29.5 -153.5t-83.5 -131.5t-114.5 -105t-138.5 -89q-52 -29 -126.5 -67.5t-122.5 -63t-106 -60t-95 -68t-70 -78.5t-50 -99h930v-240z" />
    <glyph glyph-name="three" unicode="3" horiz-adv-x="1591" 
d="M791 -35q-254 0 -448.5 100t-254.5 265l234 112q19 -39 55.5 -78t92.5 -76.5t138.5 -61t177.5 -23.5q174 0 283 68.5t109 183.5q0 113 -106.5 183.5t-303.5 70.5h-195v209h191q168 0 264 66t96 171q0 109 -101.5 174.5t-260.5 65.5q-154 0 -259 -70.5t-128 -198.5
l-246 52q31 194 213 323t444 129q167 0 307 -51t227 -151t87 -230t-86.5 -228.5t-230.5 -129.5v-2q161 -26 267.5 -125t106.5 -252q0 -95 -44 -182.5t-126.5 -158t-213 -113t-289.5 -42.5z" />
    <glyph glyph-name="four" unicode="4" horiz-adv-x="1632" 
d="M1274 0h-264v354h-951v219l957 1024h258v-1024h268v-219h-268v-354zM1010 1251l-672 -678h672v678z" />
    <glyph glyph-name="five" unicode="5" horiz-adv-x="1587" 
d="M772 -35q-247 0 -444 101.5t-269 273.5l222 133q41 -93 122 -157.5t174.5 -92.5t196.5 -28q181 0 304.5 90.5t123.5 236.5q0 139 -117 226.5t-294 87.5q-133 0 -234.5 -52.5t-157.5 -136.5l-223 62l227 888h969v-225h-774l-131 -448h4q57 54 160 86t225 32
q88 0 175 -17.5t170 -57t146 -96.5t101.5 -143.5t38.5 -190.5q0 -167 -96 -298.5t-258.5 -202.5t-360.5 -71z" />
    <glyph glyph-name="six" unicode="6" horiz-adv-x="1654" 
d="M854 -35q-162 0 -295.5 49.5t-229 142.5t-148 234.5t-52.5 319.5q0 160 42.5 302.5t122 254.5t189 193.5t248.5 125t295 43.5q292 0 473 -145l-153 -185q-140 97 -340 97q-126 0 -236 -44.5t-186.5 -120.5t-121 -179t-46.5 -219h6q60 95 192.5 151.5t294.5 56.5
q126 0 241.5 -38t203 -105.5t140 -167t52.5 -215.5q0 -115 -51 -217t-141.5 -175.5t-220 -116t-279.5 -42.5zM856 195q107 0 199 37t150.5 109.5t58.5 166.5t-57 168t-149 112.5t-200 38.5q-171 0 -290 -93.5t-119 -227.5q0 -90 57.5 -162t150 -110.5t199.5 -38.5z" />
    <glyph glyph-name="seven" unicode="7" horiz-adv-x="1441" 
d="M639 0h-285q0 146 47 321.5t135 359.5t229 371.5t314 338.5h-1036v219h1352v-224q-184 -138 -332 -320.5t-238.5 -368.5t-138 -365t-47.5 -332z" />
    <glyph glyph-name="eight" unicode="8" horiz-adv-x="1628" 
d="M817 -35q-306 0 -500 137.5t-194 339.5q0 147 100.5 254t257.5 142v4q-134 45 -208 136.5t-74 207.5q0 127 80.5 229t221.5 158.5t314 56.5q171 0 311 -55t222 -156.5t82 -230.5q0 -114 -73 -208t-212 -138v-4q157 -35 259.5 -142.5t102.5 -255.5q0 -130 -86.5 -238.5
t-245.5 -172.5t-358 -64zM817 942q144 0 241 67.5t97 170.5q0 100 -97 165.5t-241 65.5q-148 0 -246 -65t-98 -166q0 -104 98 -171t246 -67zM811 190q111 0 204.5 33.5t151.5 100t58 153.5q0 123 -109 198t-299 75q-193 0 -303.5 -74.5t-110.5 -202.5t118 -205.5t290 -77.5z
" />
    <glyph glyph-name="nine" unicode="9" horiz-adv-x="1675" 
d="M741 -35q-174 0 -334.5 56.5t-265.5 158.5l152 176q179 -168 428 -168q133 0 238 47.5t170 129t99 185t34 220.5h-5q-52 -103 -189 -168t-310 -65q-125 0 -241 38.5t-205 106.5t-142 169t-53 218q0 154 87 281.5t249 203.5t368 76q117 0 221.5 -26t197 -85t159 -146.5
t105 -217t38.5 -289.5q0 -187 -51.5 -349.5t-149.5 -286t-252.5 -194.5t-347.5 -71zM803 750q174 0 294 96.5t120 240.5q0 95 -58.5 168t-150 109.5t-197.5 36.5q-109 0 -201.5 -38t-150.5 -113t-58 -173q0 -145 116 -236t286 -91z" />
    <glyph glyph-name="colon" unicode=":" horiz-adv-x="673" 
d="M338 834q-74 0 -126 48.5t-52 118.5q0 65 52.5 111.5t125.5 46.5q72 0 123 -46.5t51 -111.5q0 -70 -51 -118.5t-123 -48.5zM338 -12q-74 0 -126 48.5t-52 117.5q0 65 52.5 111t125.5 46q72 0 123 -46t51 -111q0 -69 -51 -117.5t-123 -48.5z" />
    <glyph glyph-name="semicolon" unicode=";" horiz-adv-x="724" 
d="M371 834q-74 0 -126 48.5t-52 118.5q0 65 52.5 111.5t125.5 46.5q72 0 124 -46.5t52 -111.5q0 -70 -51.5 -118.5t-124.5 -48.5zM279 -287h-154l172 289q-49 20 -76.5 61t-27.5 89q0 66 52 112.5t126 46.5q72 0 124 -46.5t52 -112.5q0 -50 -43.5 -119t-224.5 -320z" />
    <glyph glyph-name="less" unicode="&#x3c;" horiz-adv-x="1245" 
d="M1065 436v-182l-907 233v256l907 234v-182l-713 -181z" />
    <glyph glyph-name="equal" unicode="=" horiz-adv-x="1300" 
d="M1126 733h-952v191h952v-191zM1126 295h-952v190h952v-190z" />
    <glyph glyph-name="greater" unicode="&#x3e;" horiz-adv-x="1245" 
d="M1087 487l-907 -233v182l711 178l-711 181v182l907 -234v-256z" />
    <glyph glyph-name="question" unicode="?" horiz-adv-x="1396" 
d="M764 434h-275q-14 68 -14 117q0 107 72.5 182t222.5 154q58 34 94.5 58t75.5 59t57.5 74t18.5 85q0 103 -95.5 167.5t-234.5 64.5q-153 0 -255.5 -83.5t-102.5 -215.5q0 -29 2 -43l-242 41q-6 21 -6 39q0 151 87 266t226.5 173t306.5 58q95 0 183 -19t163.5 -57
t131.5 -91t88 -124t32 -153q0 -74 -26.5 -138t-77 -116t-99 -87.5t-116.5 -76.5q-39 -24 -53.5 -32.5t-47 -30t-45.5 -32.5t-34.5 -31.5t-29.5 -37t-15.5 -38t-7.5 -44.5q0 -38 16 -88zM643 -14q-73 0 -126.5 49t-53.5 117q0 66 52 112.5t124 46.5q71 0 123.5 -48t52.5 -116
q0 -66 -50.5 -113.5t-121.5 -47.5z" />
    <glyph glyph-name="at" unicode="@" horiz-adv-x="2349" 
d="M1126 -195q-196 0 -362.5 43t-286.5 118.5t-204.5 178t-125.5 223.5t-41 253q0 157 58.5 307.5t168.5 276.5t257 221.5t336.5 149.5t394.5 54q277 0 494.5 -96t340.5 -274.5t123 -411.5q0 -171 -68 -311t-193 -222t-283 -82q-138 0 -211.5 60.5t-71.5 152.5
q-81 -107 -200.5 -156.5t-247.5 -49.5q-194 0 -305 107t-111 271q0 111 51.5 217t135 184t195.5 125.5t228 47.5q120 0 208 -48t124 -130l33 151h188l-115 -549q-4 -22 -6.5 -36t-5 -41t0 -46t10 -42.5t21.5 -37.5t39.5 -24t59.5 -10q138 0 232 125t94 325q0 305 -204 474.5
t-556 169.5q-218 0 -408.5 -67.5t-323 -183t-208.5 -272.5t-76 -332q0 -307 220 -481t618 -174q377 0 635 160l94 -129q-151 -99 -349.5 -144t-396.5 -45zM1073 422q82 0 155.5 32t123.5 83t79 115.5t29 129.5q0 102 -66.5 164t-185.5 62q-108 0 -199 -52.5t-141.5 -135
t-50.5 -173.5q0 -103 67 -164t189 -61z" />
    <glyph glyph-name="A" unicode="A" horiz-adv-x="1853" 
d="M303 0h-285l754 1597h309l752 -1597h-287q-12 24 -227 459h-793q-39 -79 -81 -166t-84 -173.5t-58 -119.5zM645 707h555q-225 476 -272 581h-6q-37 -79 -135 -283t-142 -298z" />
    <glyph glyph-name="B" unicode="B" horiz-adv-x="1753" 
d="M1016 0h-787v1597h746q141 0 255.5 -32t188.5 -88.5t114 -131.5t40 -161q0 -80 -34 -152t-109.5 -130.5t-182.5 -82.5v-4q186 -29 288.5 -128t102.5 -253q0 -89 -35.5 -162.5t-95 -123t-140 -83.5t-168.5 -49.5t-183 -15.5zM502 918h401q172 0 278.5 54.5t106.5 164.5
q0 58 -32 102t-88 70t-124.5 38.5t-148.5 12.5h-393v-442zM502 238h448q112 0 199 21.5t144 73.5t57 130q0 59 -33.5 104.5t-91 72.5t-128.5 40.5t-153 13.5h-442v-456z" />
    <glyph glyph-name="C" unicode="C" horiz-adv-x="2054" 
d="M1096 -35q-283 0 -506.5 104t-349 295t-125.5 437q0 154 51 287t141 231.5t211 169t264.5 106t298.5 35.5q192 0 363.5 -57.5t303 -170t194.5 -263.5l-248 -97q-81 158 -243.5 251t-373.5 93q-140 0 -263.5 -42t-215.5 -117.5t-145.5 -189t-53.5 -249.5q0 -119 41 -217.5
t109.5 -164.5t161 -111.5t191.5 -65.5t204 -20q249 0 418 109.5t239 304.5l250 -82q-104 -281 -340.5 -428.5t-576.5 -147.5z" />
    <glyph glyph-name="D" unicode="D" horiz-adv-x="1964" 
d="M961 0h-732v1597h709q187 0 339.5 -40.5t257 -112t176 -171.5t104 -216t32.5 -248q0 -178 -60.5 -327t-173 -256t-280 -166.5t-372.5 -59.5zM502 238h442q107 0 198.5 19t169.5 61.5t133.5 106.5t86.5 158t31 212q0 565 -691 565h-370v-1122z" />
    <glyph glyph-name="E" unicode="E" horiz-adv-x="1605" 
d="M1483 0h-1254v1597h1229v-237h-956v-422h907v-248h-907v-450h981v-240z" />
    <glyph glyph-name="F" unicode="F" horiz-adv-x="1523" 
d="M1438 1597v-241h-936v-447h887v-247h-887v-662h-273v1597h1209z" />
    <glyph glyph-name="G" unicode="G" horiz-adv-x="2148" 
d="M1061 -35q-204 0 -380 62t-300 171t-195 263.5t-71 333.5q0 152 49.5 285t138.5 233t209 172t265 108.5t302 36.5q296 0 533 -133.5t330 -357.5l-248 -97q-84 159 -244 251.5t-371 92.5q-139 0 -262 -41t-216 -116t-147.5 -189t-54.5 -252q0 -122 42.5 -221.5t112 -165
t163 -110t190.5 -63.5t199 -19q250 0 418 108t196 283h-583v213h856v-813h-213l-13 276h-12q-101 -151 -276.5 -231t-417.5 -80z" />
    <glyph glyph-name="H" unicode="H" horiz-adv-x="1988" 
d="M1487 920v677h272v-1597h-272v670h-985v-670h-273v1597h273v-677h985z" />
    <glyph glyph-name="I" unicode="I" horiz-adv-x="731" 
d="M502 0h-273v1597h273v-1597z" />
    <glyph glyph-name="J" unicode="J" horiz-adv-x="1490" 
d="M698 -35q-130 0 -245 33t-205.5 97.5t-143.5 170t-53 240.5v51l264 35v-47q0 -109 53 -187.5t135 -114.5t183 -36q65 0 116.5 14t85 36t58 55.5t37 64t19.5 71.5t8.5 68t1.5 62v1019h268v-974q0 -58 -1.5 -95.5t-12.5 -114t-31.5 -128.5t-63.5 -117.5t-103 -105.5
t-155 -68.5t-215 -28.5z" />
    <glyph glyph-name="K" unicode="K" horiz-adv-x="1701" 
d="M502 0h-273v1597h273v-757h8q410 380 850 757h319l-761 -696q85 -95 279 -314t331.5 -374t191.5 -213h-329q-68 73 -246.5 269t-415.5 448q-37 -36 -227 -211v-506z" />
    <glyph glyph-name="L" unicode="L" horiz-adv-x="1445" 
d="M502 1597v-1357h911v-240h-1184v1597h273z" />
    <glyph glyph-name="M" unicode="M" horiz-adv-x="2488" 
d="M506 0h-277v1597h336q445 -773 676 -1202h4q144 259 381 677.5t297 524.5h336v-1597h-277v1112h-8q-266 -507 -624 -1112h-215q-400 686 -623 1112h-6v-1112z" />
    <glyph glyph-name="N" unicode="N" horiz-adv-x="2013" 
d="M502 0h-273v1597h287q724 -829 991 -1151h6v1151h271v-1597h-285q-40 46 -418 473t-575 660h-4v-1133z" />
    <glyph glyph-name="O" unicode="O" horiz-adv-x="2156" 
d="M1077 -35q-196 0 -373 62t-307.5 170t-207 264.5t-76.5 335.5q0 238 130.5 430t351 297.5t484.5 105.5q199 0 377.5 -63.5t307.5 -173t204.5 -265t75.5 -331.5q0 -141 -48.5 -270t-137 -230.5t-207.5 -176.5t-266.5 -115t-307.5 -40zM1081 209q184 0 338 75.5t245 211
t91 301.5q0 165 -90 300.5t-244.5 212t-339.5 76.5t-341 -75t-248.5 -211t-92.5 -303q0 -169 93 -304.5t248.5 -209.5t340.5 -74z" />
    <glyph glyph-name="P" unicode="P" horiz-adv-x="1654" 
d="M229 1597h707q58 0 115 -5.5t122.5 -20.5t122.5 -38.5t111 -62.5t92 -89.5t61 -122.5t23 -158q0 -89 -23.5 -163.5t-62 -126.5t-92 -92.5t-110 -65t-119 -40.5t-115 -22t-103.5 -6h-456v-584h-273v1597zM502 834h393q66 0 122 7.5t109 26t90 48t59.5 76t22.5 106.5
q0 73 -34 126t-94.5 81.5t-129.5 41.5t-151 13h-387v-526z" />
    <glyph glyph-name="Q" unicode="Q" horiz-adv-x="2181" 
d="M2003 -63l-195 -154l-272 264q-211 -82 -446 -82q-201 0 -380.5 62t-311 170t-208.5 264t-77 336q0 179 76.5 335t208 264.5t312 171t382.5 62.5q271 0 494 -107.5t351.5 -299t128.5 -426.5q0 -185 -83 -344t-234 -273q57 -54 254 -243zM1094 209q137 0 258 45
q-41 36 -140 122.5t-149 131.5l194 154q53 -48 158 -144.5t158 -144.5q101 82 157 190t56 234q0 124 -52.5 233.5t-144 187.5t-220 123t-275.5 45q-196 0 -356.5 -75.5t-252.5 -210.5t-92 -303q0 -170 92.5 -305t252.5 -209t356 -74z" />
    <glyph glyph-name="R" unicode="R" horiz-adv-x="1714" 
d="M502 0h-273v1597h707q54 0 109.5 -5.5t120.5 -20.5t122.5 -38.5t112.5 -63t94.5 -90t63.5 -123.5t24 -160q0 -107 -36.5 -194t-101 -145.5t-146.5 -95t-179 -51.5v-2q82 -102 248 -304.5t248 -303.5h-305l-482 590h-327v-590zM502 819h393q82 0 151 14.5t127.5 44.5
t91.5 84.5t33 127.5q0 72 -34.5 126.5t-93.5 85.5t-130 46.5t-151 15.5h-387v-545z" />
    <glyph glyph-name="S" unicode="S" horiz-adv-x="1599" 
d="M823 -35q-170 0 -316.5 50.5t-260.5 158.5t-162 262l252 84q28 -86 78.5 -149t115.5 -99.5t137 -53.5t154 -17q73 0 141 14t124.5 41.5t90 72.5t33.5 101q0 43 -22.5 79t-47 57t-83 43.5t-85 30.5t-98.5 26q-20 5 -30 8l-174 45q-47 12 -86.5 23.5t-95.5 33t-100 45
t-90 59.5t-77 76.5t-51 96t-20 118.5q0 140 90.5 246t235.5 159.5t317 53.5q241 0 416 -106t233 -269l-248 -96q-48 111 -155.5 174.5t-258.5 63.5q-149 0 -248.5 -57.5t-99.5 -147.5q0 -32 15 -61.5t35.5 -51t57 -42t63.5 -33t72.5 -27.5t66.5 -20.5t61 -16.5l194 -51
q180 -48 264 -87q240 -114 240 -339q0 -142 -88 -256t-243 -178t-347 -64z" />
    <glyph glyph-name="T" unicode="T" horiz-adv-x="1568" 
d="M920 0h-271v1360h-614v237h1501v-237h-616v-1360z" />
    <glyph glyph-name="U" unicode="U" horiz-adv-x="1839" 
d="M915 -35q-156 0 -279.5 38t-202 100t-130 147.5t-73 174.5t-21.5 187v985h272v-964q0 -203 110.5 -314.5t328.5 -111.5q217 0 328.5 112t111.5 314v964h270v-985q0 -94 -19 -180t-70 -173t-129 -150.5t-205.5 -103.5t-291.5 -40z" />
    <glyph glyph-name="V" unicode="V" horiz-adv-x="1853" 
d="M1083 0h-313l-752 1597h287q67 -116 177.5 -345t247 -523.5t196.5 -417.5h6q80 160 307.5 650.5t306.5 635.5h287z" />
    <glyph glyph-name="W" unicode="W" horiz-adv-x="2822" 
d="M950 0h-336l-581 1597h303q272 -726 448 -1237h4q390 1030 467 1237h308q333 -873 471 -1237h6q43 120 141 399t166 466.5t137 371.5h305l-581 -1597h-336q-274 686 -459 1194h-4q-292 -791 -459 -1194z" />
    <glyph glyph-name="X" unicode="X" horiz-adv-x="1644" 
d="M342 -2h-324q88 111 300.5 384t332.5 421v6q-108 134 -314.5 398.5t-307.5 389.5h317q82 -99 236.5 -289.5t238.5 -291.5h6q51 63 150.5 185.5t176 215.5t149.5 180h317q-106 -130 -311.5 -390.5t-317.5 -397.5v-6q119 -147 329.5 -418.5t301.5 -386.5h-322
q-79 97 -235 295.5t-240 300.5h-6q-86 -107 -245 -306t-232 -290z" />
    <glyph glyph-name="Y" unicode="Y" horiz-adv-x="1708" 
d="M989 0h-270v559q-81 121 -242.5 365t-282.5 426.5t-167 246.5h292l533 -784h4q52 77 128 191t165.5 245t241.5 348h290q-58 -86 -692 -1036v-561z" />
    <glyph glyph-name="Z" unicode="Z" horiz-adv-x="1642" 
d="M1559 0h-1477v242q557 559 1116 1116v4q-719 0 -1079 -2v237h1419v-243q-128 -127 -519 -512t-605 -598v-4h1145v-240z" />
    <glyph glyph-name="bracketleft" unicode="[" horiz-adv-x="909" 
d="M840 -403h-619v2000h619v-219h-365v-1538h365v-243z" />
    <glyph glyph-name="backslash" unicode="\" horiz-adv-x="1071" 
d="M991 -135h-243l-668 1773h242z" />
    <glyph glyph-name="bracketright" unicode="]" horiz-adv-x="909" 
d="M688 -403h-620v243h366v1538h-366v219h620v-2000z" />
    <glyph glyph-name="asciicircum" unicode="^" horiz-adv-x="1099" 
d="M317 1010h-200l317 587h236l313 -587h-203l-225 434h-6z" />
    <glyph glyph-name="underscore" unicode="_" horiz-adv-x="1286" 
d="M1217 -242h-1145v195h1145v-195z" />
    <glyph glyph-name="a" unicode="a" horiz-adv-x="1423" 
d="M549 -35q-123 0 -223 34.5t-164 109.5t-64 180q0 64 25.5 116t66.5 87t104 63t125.5 44.5t143.5 31.5q35 6 92.5 15t89.5 14.5t76 14.5t68 19.5t48.5 25t35 34.5t10.5 45q0 71 -78 122.5t-200 51.5q-117 0 -201.5 -50.5t-118.5 -148.5l-242 78q30 84 89 147t136.5 99.5
t163.5 54.5t179 18q153 0 272 -43.5t190.5 -134.5t71.5 -219v-418q0 -130 10 -205.5t33 -150.5h-256q-28 69 -28 176h-7q-60 -97 -177 -154t-271 -57zM606 154q84 0 157 26t120.5 67.5t74.5 91t27 97.5v113q-109 -45 -297 -76q-39 -7 -56.5 -10.5t-57 -13.5t-60.5 -18
t-51.5 -22.5t-46 -30t-27.5 -38t-12 -47.5q0 -65 63.5 -102t165.5 -37z" />
    <glyph glyph-name="b" unicode="b" horiz-adv-x="1642" 
d="M915 -35q-152 0 -274 57.5t-192 151.5h-5v-174h-249v1638h254v-688q83 110 207.5 165.5t275.5 55.5q179 0 319 -80t215.5 -216.5t75.5 -303.5q0 -137 -50.5 -252.5t-136.5 -192t-199.5 -119t-240.5 -42.5zM864 195q180 0 296 105t116 267t-117 268.5t-297 106.5
q-176 0 -297 -107t-121 -268q0 -163 121 -267.5t299 -104.5z" />
    <glyph glyph-name="c" unicode="c" horiz-adv-x="1497" 
d="M793 -35q-199 0 -356.5 72.5t-248 210.5t-90.5 319q0 136 52 249.5t144 191t219 120.5t275 43q135 0 254 -38.5t214 -117.5t145 -190l-242 -92q-44 103 -144 156t-231 53q-187 0 -302 -106t-115 -267q0 -169 121 -271.5t309 -102.5q145 0 250.5 61t160.5 170l238 -88
q-74 -176 -249 -274.5t-404 -98.5z" />
    <glyph glyph-name="d" unicode="d" horiz-adv-x="1642" 
d="M727 -35q-185 0 -328 78t-221 215t-78 311q0 182 84.5 320.5t225.5 210t315 71.5q151 0 270.5 -55t190.5 -149h6v671h256v-1282q0 -130 10 -205.5t33 -150.5h-254q-32 99 -29 170h-6q-75 -102 -200.5 -153.5t-274.5 -51.5zM776 197q180 0 301 105.5t121 268.5
q0 162 -122 266.5t-300 104.5t-293.5 -105t-115.5 -268q0 -162 115.5 -267t293.5 -105z" />
    <glyph glyph-name="e" unicode="e" horiz-adv-x="1421" 
d="M737 -35q-137 0 -256.5 43.5t-205.5 120.5t-135.5 190t-49.5 246q0 263 178.5 434.5t454.5 171.5q88 0 172 -20t162.5 -66.5t137 -113.5t93.5 -169t35 -227v-90h-979q13 -139 123 -221t270 -82q126 0 221.5 57.5t141.5 157.5l233 -90q-69 -155 -227 -248.5t-369 -93.5z
M354 692h713q-6 70 -37.5 123.5t-80.5 85t-107 47t-123 15.5q-143 0 -239.5 -75.5t-125.5 -195.5z" />
    <glyph glyph-name="f" unicode="f" horiz-adv-x="907" 
d="M528 0h-256v920h-204v219h204v125q0 207 102.5 308t313.5 101q141 0 238 -39v-207q-94 37 -189 37q-44 0 -77.5 -7.5t-55.5 -18t-37 -30.5t-22.5 -35.5t-11.5 -43.5t-4.5 -43.5t-0.5 -46.5v-100h355v-219h-355v-920z" />
    <glyph glyph-name="g" unicode="g" horiz-adv-x="1640" 
d="M791 -483q-490 0 -633 327l233 80q95 -200 393 -200q89 0 161 22.5t128 69t86.5 124.5t30.5 183v78h-6q-72 -100 -192.5 -148.5t-264.5 -48.5q-142 0 -261.5 46.5t-199.5 126.5t-124 186t-44 225q0 126 48 235t131 185t198 119.5t246 43.5q153 0 275.5 -56t193.5 -152h4
v176h252v-1016q0 -135 -34.5 -240.5t-93.5 -173.5t-144 -112t-178.5 -62t-204.5 -18zM774 236q178 0 300 103t122 253t-122 250t-300 100q-177 0 -293 -100.5t-116 -249.5q0 -150 116.5 -253t292.5 -103z" />
    <glyph glyph-name="h" unicode="h" horiz-adv-x="1564" 
d="M449 0h-254v1638h254v-682h6q75 110 191 162.5t255 52.5q76 0 145.5 -16t132.5 -51.5t109 -87.5t73.5 -128.5t27.5 -170.5v-717h-256v610q0 146 -83.5 239t-232.5 93q-166 0 -267 -91.5t-101 -248.5v-602z" />
    <glyph glyph-name="i" unicode="i" horiz-adv-x="643" 
d="M322 1333q-75 0 -126 47t-51 113q0 67 52 112.5t125 45.5t123.5 -46t50.5 -110q0 -68 -50.5 -115t-123.5 -47zM449 0h-254v1139h254v-1139z" />
    <glyph glyph-name="j" unicode="j" horiz-adv-x="641" 
d="M319 1333q-74 0 -124 47t-50 113q0 65 50 111.5t124 46.5q73 0 124 -46t51 -112t-51 -113t-124 -47zM31 -483q-145 0 -267 47v213q116 -43 216 -43q39 0 70.5 6t53 19.5t37.5 27t25.5 35.5t15.5 38t8 42.5t2.5 40.5t0.5 39v1157h256v-1153q0 -55 -1 -85.5t-9 -87.5
t-23 -91t-45.5 -77.5t-73.5 -68t-111 -42t-155 -17.5z" />
    <glyph glyph-name="k" unicode="k" horiz-adv-x="1351" 
d="M797 676l581 -676h-299l-458 516l-170 -156v-360h-256v1638h256v-968h6q276 245 540 469h308z" />
    <glyph glyph-name="l" unicode="l" horiz-adv-x="643" 
d="M449 0h-254v1638h254v-1638z" />
    <glyph glyph-name="m" unicode="m" horiz-adv-x="2453" 
d="M449 0h-254v1139h249v-183h5q72 105 192 160t254 55q139 0 257.5 -58t168.5 -171h4q175 229 469 229q72 0 141 -17t131 -53t109 -88.5t74.5 -128.5t27.5 -167v-717h-256v610q0 148 -79.5 240t-219.5 92q-160 0 -259 -91.5t-99 -248.5v-602h-256v610q0 148 -79.5 240
t-221.5 92q-158 0 -258 -91.5t-100 -248.5v-602z" />
    <glyph glyph-name="n" unicode="n" horiz-adv-x="1564" 
d="M449 0h-254v1139h249v-183h5q75 108 193.5 161.5t258.5 53.5q76 0 145.5 -16t132.5 -51.5t109 -87.5t73.5 -128.5t27.5 -170.5v-717h-256v610q0 146 -83.5 239t-232.5 93q-166 0 -267 -91t-101 -249v-602z" />
    <glyph glyph-name="o" unicode="o" horiz-adv-x="1585" 
d="M793 -35q-306 0 -500.5 168.5t-194.5 433.5q0 131 51.5 243.5t142.5 191.5t220.5 124t280.5 45q201 0 359 -77t245.5 -214.5t87.5 -312.5t-87.5 -312t-245 -213.5t-359.5 -76.5zM793 195q188 0 307 104.5t119 267.5q0 165 -119 270t-307 105q-187 0 -306.5 -105.5
t-119.5 -269.5q0 -163 119.5 -267.5t306.5 -104.5z" />
    <glyph glyph-name="p" unicode="p" horiz-adv-x="1642" 
d="M449 -451h-254v1590h249v-191h5q171 223 483 223q179 0 319 -80t215.5 -216t75.5 -302q0 -138 -50.5 -253.5t-136.5 -192.5t-199.5 -119.5t-240.5 -42.5q-153 0 -274 57.5t-192 151.5v-625zM864 195q180 0 296 105t116 267t-117.5 268.5t-294.5 106.5t-298.5 -105.5
t-121.5 -269.5q0 -162 121.5 -267t298.5 -105z" />
    <glyph glyph-name="q" unicode="q" horiz-adv-x="1642" 
d="M1448 -451h-256v637q-81 -107 -206 -164t-273 -57q-177 0 -317.5 80.5t-218 219t-77.5 308.5q0 134 49 247.5t133.5 189.5t198 118.5t242.5 42.5q152 0 275 -56t194 -152h4v176h252v-1590zM776 197q180 0 300 105.5t120 268.5q0 162 -121.5 266.5t-298.5 104.5
q-178 0 -293.5 -105t-115.5 -268q0 -162 115.5 -267t293.5 -105z" />
    <glyph glyph-name="r" unicode="r" horiz-adv-x="1040" 
d="M449 0h-254v1139h249v-193h11q53 98 163.5 161.5t247.5 63.5q83 0 144 -20v-270q-70 22 -168 22q-88 0 -158 -28t-113 -72t-71.5 -102.5t-39.5 -114.5t-11 -113v-473z" />
    <glyph glyph-name="s" unicode="s" horiz-adv-x="1247" 
d="M647 -35q-214 0 -370 88t-209 232l237 73q47 -95 140.5 -143.5t199.5 -48.5q39 0 78.5 7t77.5 22t62 43t24 65q0 27 -14.5 49.5t-33.5 36.5t-53.5 27.5t-58 20.5t-64.5 17l-12 3l-139 32q-51 12 -96.5 27.5t-100 44t-93.5 63t-65 87t-26 114.5q0 106 69 186t177.5 120
t236.5 40q186 0 321 -79.5t181 -204.5l-237 -74q-32 69 -103.5 114.5t-175.5 45.5q-92 0 -151.5 -35.5t-59.5 -93.5q0 -25 11.5 -46t35 -37.5t47 -28.5t60.5 -23.5t61 -17.5t62 -15l118 -27q146 -35 215 -72q160 -85 160 -249q0 -162 -141 -262.5t-371 -100.5z" />
    <glyph glyph-name="t" unicode="t" horiz-adv-x="1011" 
d="M696 -35q-64 0 -118 10t-92.5 25t-69 40t-49.5 47.5t-33 56t-20.5 57t-10 58t-4 51.5t-0.5 46v564h-270v219h270v327h256v-327h393v-219h-393v-480q0 -33 0.5 -50.5t4 -48.5t10 -49t20.5 -41t33.5 -35t50 -21t69.5 -9q96 0 205 45v-219q-100 -47 -252 -47z" />
    <glyph glyph-name="u" unicode="u" horiz-adv-x="1542" 
d="M668 -35q-103 0 -191 27.5t-156 82.5t-106.5 144.5t-38.5 204.5v715h256v-629q0 -151 86 -233t221 -82q161 0 256 94.5t95 228.5v621h256v-783q0 -126 10.5 -201.5t34.5 -154.5h-256q-31 102 -31 160h-4q-140 -195 -432 -195z" />
    <glyph glyph-name="v" unicode="v" horiz-adv-x="1376" 
d="M840 0h-301l-512 1139h278q124 -264 385 -852h6q190 441 381 852h273z" />
    <glyph glyph-name="w" unicode="w" horiz-adv-x="2269" 
d="M793 0h-291l-473 1139h288l340 -824h9l352 824h235l355 -824h6l338 824h286l-471 -1139h-299q-26 61 -69.5 160.5t-67 155t-75 178.5t-119.5 290h-4q-155 -369 -340 -784z" />
    <glyph glyph-name="x" unicode="x" horiz-adv-x="1320" 
d="M319 0h-294q80 101 236 293t228 282v5q-51 61 -188 228.5t-276 330.5h297q63 -74 176.5 -211.5t160.5 -194.5h7q117 145 338 406h290q-193 -234 -465 -559v-5q305 -370 467 -575h-288q-47 56 -161.5 194t-180.5 214h-7q-61 -73 -179 -215t-161 -193z" />
    <glyph glyph-name="y" unicode="y" horiz-adv-x="1390" 
d="M631 -451h-262l196 412l-540 1178h280q177 -373 391 -854h4q208 466 392 854h274z" />
    <glyph glyph-name="z" unicode="z" horiz-adv-x="1257" 
d="M1190 0h-1110v203l715 712h-684v224h1028v-203l-719 -713h770v-223z" />
    <glyph glyph-name="braceleft" unicode="{" horiz-adv-x="1011" 
d="M946 -303h-125q-154 0 -262 28t-172 85t-92.5 134.5t-28.5 184.5v174q0 82 -9 128.5t-36 67t-50.5 24t-79.5 3.5h-3v242h3q56 0 79.5 3.5t50.5 24t36 67t9 128.5v174q0 46 3.5 82.5t17 83t36 82t64.5 72t99 59.5t142.5 38t192.5 15h125v-219h-100q-78 0 -134 -10
t-102.5 -35.5t-70 -74.5t-23.5 -121v-146q0 -124 -19.5 -194.5t-56.5 -102t-104 -45.5v-6q69 -16 105 -45t55.5 -98.5t19.5 -196.5v-145q0 -59 15.5 -101.5t52 -75.5t101.5 -49t161 -16h100v-219z" />
    <glyph glyph-name="bar" unicode="|" horiz-adv-x="663" 
d="M442 -451h-221v2089h221v-2089z" />
    <glyph glyph-name="braceright" unicode="}" horiz-adv-x="1011" 
d="M188 -303h-122v219h100q77 0 132.5 10t102 36t70 75t23.5 121v145q0 178 37.5 247.5t144.5 92.5v6q-106 23 -144 96.5t-38 245.5v146q0 125 -73.5 183t-254.5 58h-100v219h122q155 0 263 -27.5t172.5 -84t93 -134.5t28.5 -186v-174q0 -42 2 -74t9 -55t13 -39.5t20 -27
t23.5 -16t31 -8t35 -3t42.5 -0.5h3v-242h-3q-29 0 -42.5 -0.5t-35 -3t-31 -8t-23.5 -16t-20 -27t-13 -39.5t-9 -55t-2 -74v-174q0 -48 -4.5 -87t-18.5 -85t-38 -82t-66.5 -70.5t-99.5 -57t-141 -36.5t-189 -14z" />
    <glyph glyph-name="asciitilde" unicode="~" horiz-adv-x="1343" 
d="M893 500q-66 0 -127 20t-99.5 43.5t-85.5 43.5t-89 20q-56 0 -86.5 -36t-30.5 -85h-209q0 149 90 235t217 86q62 0 119.5 -18.5t94 -41.5t85 -41.5t94.5 -18.5q52 0 78.5 33.5t26.5 84.5h207q0 -159 -78.5 -242t-206.5 -83z" />
    <glyph glyph-name="uni00A0" unicode="&#xa0;" horiz-adv-x="616" 
 />
    <glyph glyph-name="exclamdown" unicode="&#xa1;" horiz-adv-x="634" 
d="M319 846q-73 0 -125.5 47t-52.5 113q0 69 52 117t126 48q72 0 123.5 -48t51.5 -117q0 -65 -52.5 -112.5t-122.5 -47.5zM461 -440h-285v159l72 965h143l70 -965v-159z" />
    <glyph glyph-name="cent" unicode="&#xa2;" horiz-adv-x="1366" 
d="M1067 604l184 -69q-55 -127 -180.5 -204.5t-290.5 -88.5v-242h-133v244q-217 23 -357 156.5t-140 342.5t140.5 344.5t356.5 157.5v221h133v-219q148 -12 265.5 -82t171.5 -188l-189 -74q-28 68 -94.5 108.5t-153.5 49.5v-635q99 11 174 57t113 121zM369 745
q0 -127 78 -209.5t200 -103.5v627q-125 -21 -201.5 -105.5t-76.5 -208.5z" />
    <glyph glyph-name="sterling" unicode="&#xa3;" horiz-adv-x="1538" 
d="M522 219h912v-219h-1301v221q192 52 301 152.5t109 206.5q0 60 -35 116h-379v135h277q-44 51 -65.5 79t-53.5 78t-46 100.5t-14 105.5q0 130 76 230t203.5 153t284.5 53q72 0 142 -10.5t149 -40.5t143 -76.5t117.5 -125t78.5 -179.5l-245 -92q-90 295 -379 295
q-124 0 -205.5 -56t-81.5 -157q0 -49 22.5 -100t48 -84t73 -88.5t69.5 -84.5h508v-135h-434q16 -50 16 -98q0 -104 -75 -204t-216 -175z" />
    <glyph glyph-name="currency" unicode="&#xa4;" horiz-adv-x="1638" 
d="M1300 829q0 -135 -79 -237l305 -303l-162 -131l-311 307q-106 -45 -232 -45q-132 0 -235 47l-312 -309l-161 131l305 303q-82 106 -82 237q0 134 80 238l-303 303l161 131l310 -305q103 47 235 47q134 0 238 -49l307 307l162 -131l-305 -303q79 -102 79 -238zM557 829
q0 -99 73 -161t191 -62q117 0 187.5 62t70.5 161q0 102 -71 165t-189 63q-117 0 -189.5 -63.5t-72.5 -164.5z" />
    <glyph glyph-name="yen" unicode="&#xa5;" horiz-adv-x="1763" 
d="M1018 0h-273v244h-442v172h442v137h-442v172h375l-606 872h288q74 -102 161 -227.5t193 -278t165 -237.5h6q51 73 122 177.5t158.5 230.5t237.5 335h289l-611 -872h383v-172h-446v-137h446v-172h-446v-244z" />
    <glyph glyph-name="brokenbar" unicode="&#xa6;" horiz-adv-x="663" 
d="M442 834h-221v804h221v-804zM442 -451h-221v799h221v-799z" />
    <glyph glyph-name="section" unicode="&#xa7;" horiz-adv-x="1331" 
d="M682 -301q-214 0 -374.5 89.5t-211.5 236.5l226 67q48 -97 148 -152t210 -55q55 0 107 14t91.5 47.5t39.5 80.5q0 27 -14 50t-33 38t-56 31t-63.5 24.5t-75.5 22.5l-139 43q-365 116 -365 315q0 91 67 161.5t185 96.5v4q-113 44 -175.5 116t-62.5 167q0 84 41 152.5
t109.5 110.5t155.5 64.5t182 22.5q183 0 317.5 -76.5t182.5 -220.5l-236 -74q-35 92 -100 138.5t-174 46.5q-101 0 -163.5 -39.5t-62.5 -100.5q0 -23 10 -43t22.5 -34.5t38 -29.5t43 -23.5t52.5 -20t50 -15.5t51 -14l137 -39q44 -12 77 -23.5t78 -30t76.5 -41.5t61 -52.5
t44.5 -68.5t15 -85q0 -98 -69.5 -173t-184.5 -101v-4q108 -35 173 -106.5t65 -170.5q0 -151 -136.5 -248.5t-359.5 -97.5zM657 414l52 -15q40 2 79.5 12t77 28t61 49.5t23.5 72.5q0 35 -15 60t-51 43t-61 26t-79 22q-4 1 -6.5 1.5t-6 1.5t-6.5 2l-80 20q-92 24 -164.5 -24.5
t-72.5 -120.5q0 -32 18 -59t41 -44t62 -33.5t64 -24t64 -17.5z" />
    <glyph glyph-name="copyright" unicode="&#xa9;" horiz-adv-x="2291" 
d="M1147 -35q-220 0 -408.5 65.5t-317.5 178.5t-201.5 265.5t-72.5 324.5q0 171 72.5 323.5t201.5 264.5t317.5 177.5t408.5 65.5t408.5 -65.5t317 -177.5t201 -264.5t72.5 -323.5q0 -172 -72.5 -324.5t-201 -265.5t-317 -178.5t-408.5 -65.5zM1147 106q186 0 344.5 54.5
t266.5 148t168.5 220.5t60.5 270q0 142 -60.5 268.5t-168.5 220.5t-266.5 148.5t-344.5 54.5q-187 0 -345.5 -54.5t-266 -148.5t-168 -220.5t-60.5 -268.5q0 -143 60 -270t168 -220.5t266.5 -148t345.5 -54.5zM1161 348q-232 0 -378 126.5t-146 326.5q0 137 71.5 240
t188 154.5t258.5 51.5q166 0 289.5 -72.5t177.5 -201.5l-174 -62q-38 88 -113.5 133.5t-179.5 45.5q-143 0 -235.5 -82.5t-92.5 -212.5q0 -73 29 -129.5t78 -90.5t108.5 -51.5t124.5 -17.5q115 0 198.5 54t125.5 153l170 -51q-57 -150 -187.5 -232t-312.5 -82z" />
    <glyph glyph-name="guillemotleft" unicode="&#xab;" horiz-adv-x="1488" 
d="M778 164h-274l-385 405v9l385 405h274l-385 -405v-9zM1339 164h-274l-385 405v9l385 405h274l-387 -405v-9z" />
    <glyph glyph-name="logicalnot" unicode="&#xac;" horiz-adv-x="1271" 
d="M1100 193h-217v350h-723v190h940v-540z" />
    <glyph glyph-name="registered" unicode="&#xae;" horiz-adv-x="1372" 
d="M684 727q-233 0 -387 129.5t-154 325.5q0 128 70 231t193.5 161t277.5 58q234 0 388.5 -128t154.5 -322q0 -129 -70 -233.5t-194.5 -163t-278.5 -58.5zM684 823q187 0 309.5 102t122.5 257q0 153 -122.5 255.5t-309.5 102.5t-309.5 -102t-122.5 -256q0 -157 122 -258
t310 -101zM602 940h-110v492h225q35 0 69.5 -8t67 -24.5t52.5 -49t20 -76.5q0 -59 -36 -97t-93 -51l151 -186h-125l-141 176h-80v-176zM602 1346v-144h107q98 0 98 74q0 35 -28 52.5t-74 17.5h-103z" />
    <glyph glyph-name="degree" unicode="&#xb0;" horiz-adv-x="915" 
d="M457 1049q-153 0 -254 86.5t-101 214.5q0 127 101.5 213t253.5 86q151 0 253.5 -87t102.5 -212q0 -127 -102 -214t-254 -87zM457 1188q84 0 140 47t56 115q0 67 -56 113t-140 46q-83 0 -140 -46.5t-57 -112.5q0 -68 57 -115t140 -47z" />
    <glyph glyph-name="plusminus" unicode="&#xb1;" horiz-adv-x="1308" 
d="M1143 827v-184h-381v-203h381v-182h-977v182h377v203h-377v184h377v236h219v-236h381z" />
    <glyph glyph-name="uni00B2" unicode="&#xb2;" horiz-adv-x="825" 
d="M737 754h-641v24q3 95 32.5 158.5t86 111t166.5 109.5q4 2 21.5 12t25 14t23.5 14t24 16.5t19.5 17t17 19.5t10 20t4.5 22q0 33 -31 53.5t-83 20.5q-69 0 -111.5 -37t-42.5 -102l-188 26q0 130 98 209.5t248 79.5q138 0 230.5 -68.5t92.5 -177.5q0 -72 -43.5 -127
t-115.5 -90q-14 -7 -50 -23.5t-53.5 -25.5t-42.5 -25t-40.5 -33t-24.5 -38h368v-180z" />
    <glyph glyph-name="uni00B3" unicode="&#xb3;" horiz-adv-x="835" 
d="M403 735q-128 0 -224.5 50.5t-123.5 127.5l181 86q52 -100 167 -100q58 0 96 23t38 65q0 88 -150 88h-88v135h90q58 0 96.5 22.5t38.5 61.5q0 35 -35.5 58.5t-89.5 23.5q-55 0 -91.5 -27.5t-43.5 -76.5l-188 41q14 96 109 162.5t233 66.5q131 0 221 -56.5t90 -150.5
q0 -59 -37.5 -107.5t-99.5 -60.5v-2q67 -11 115.5 -60t48.5 -116q0 -99 -94 -176.5t-259 -77.5z" />
    <glyph glyph-name="paragraph" unicode="&#xb6;" horiz-adv-x="1845" 
d="M1122 -287h-270v942h-203q-254 0 -411.5 133.5t-157.5 346.5q0 201 162.5 331.5t453.5 130.5h426v-1884zM1589 -287h-270v1884h270v-1884z" />
    <glyph glyph-name="periodcentered" unicode="&#xb7;" horiz-adv-x="718" 
d="M360 477q-91 0 -154 59.5t-63 145.5q0 79 63.5 135.5t153.5 56.5q87 0 150 -57t63 -135q0 -86 -62.5 -145.5t-150.5 -59.5z" />
    <glyph glyph-name="uni00B9" unicode="&#xb9;" horiz-adv-x="593" 
d="M451 754h-205v477q-79 -63 -191 -84v207q88 24 141.5 72t53.5 100h201v-772z" />
    <glyph glyph-name="guillemotright" unicode="&#xbb;" horiz-adv-x="1488" 
d="M426 164h-276l387 405v9l-387 405h276l383 -405v-9zM985 164h-274l387 405v9l-387 405h274l385 -405v-9z" />
    <glyph glyph-name="onequarter" unicode="&#xbc;" horiz-adv-x="1800" 
d="M451 754h-205v477q-79 -63 -191 -84v207q88 24 141.5 72t53.5 100h201v-772zM256 0h-240l1366 1468h232zM1618 -12h-199v145h-424v154l430 473h193v-465h113v-162h-113v-145zM1419 512l-225 -217h225v217z" />
    <glyph glyph-name="onehalf" unicode="&#xbd;" horiz-adv-x="1867" 
d="M451 754h-205v477q-79 -63 -191 -84v207q88 24 141.5 72t53.5 100h201v-772zM256 0h-240l1366 1468h232zM1780 -12h-641v24q4 138 63 213t221 166q3 2 24.5 14t29 16.5t26 16t27 20t19.5 20t15.5 23.5t4.5 25q0 33 -31.5 53.5t-83.5 20.5q-69 0 -111.5 -37t-42.5 -102
l-188 26q0 130 98 209.5t248 79.5q139 0 231.5 -68.5t92.5 -177.5q0 -72 -44 -127t-116 -90q-14 -7 -50 -23.5t-53.5 -25.5t-42.5 -25t-40.5 -33t-24.5 -38h369v-180z" />
    <glyph glyph-name="threequarters" unicode="&#xbe;" horiz-adv-x="2041" 
d="M403 735q-128 0 -224.5 50.5t-123.5 127.5l181 86q52 -100 167 -100q58 0 96 23t38 65q0 88 -150 88h-88v135h90q58 0 96.5 22.5t38.5 61.5q0 35 -35.5 58.5t-89.5 23.5q-55 0 -91.5 -27.5t-43.5 -76.5l-188 41q14 96 109 162.5t233 66.5q131 0 221 -56.5t90 -150.5
q0 -59 -37.5 -107.5t-99.5 -60.5v-2q67 -11 115.5 -60t48.5 -116q0 -99 -94 -176.5t-259 -77.5zM498 0h-240l1366 1468h231zM1860 -12h-199v145h-424v154l430 473h193v-465h112v-162h-112v-145zM1661 512l-225 -217h225v217z" />
    <glyph glyph-name="questiondown" unicode="&#xbf;" horiz-adv-x="1378" 
d="M748 846q-71 0 -124 48t-53 116q0 66 51 113.5t123 47.5q74 0 127.5 -49t53.5 -116q0 -66 -52.5 -113t-125.5 -47zM684 -473q-94 0 -182.5 19t-164 57t-132.5 91t-89 124t-32 153q0 59 19 113t47.5 94.5t74 81t85.5 68.5t96 61q42 24 63 36.5t52 33.5t45.5 34.5
t33.5 34.5t25 39.5t11.5 43t1.5 52t-13 60.5h272q13 -59 14.5 -107t-12 -88.5t-34.5 -72.5t-60 -64.5t-81.5 -59t-105.5 -61.5q-46 -26 -76.5 -45t-66 -47t-56 -53.5t-34.5 -59.5t-14 -71q0 -103 95 -167.5t234 -64.5q167 0 271 92.5t86 249.5l243 -41q10 -122 -34.5 -224
t-129.5 -169.5t-201.5 -105t-250.5 -37.5z" />
    <glyph glyph-name="Agrave" unicode="&#xc0;" horiz-adv-x="1853" 
d="M1073 1720h-231l-400 351h336zM303 0h-285l754 1597h309l752 -1597h-287q-12 24 -227 459h-793q-39 -79 -81 -166t-84 -173.5t-58 -119.5zM645 707h555q-225 476 -272 581h-6q-37 -79 -135 -283t-142 -298z" />
    <glyph glyph-name="Aacute" unicode="&#xc1;" horiz-adv-x="1853" 
d="M1430 2071l-400 -351h-231l295 351h336zM303 0h-285l754 1597h309l752 -1597h-287q-12 24 -227 459h-793q-39 -79 -81 -166t-84 -173.5t-58 -119.5zM645 707h555q-225 476 -272 581h-6q-37 -79 -135 -283t-142 -298z" />
    <glyph glyph-name="Acircumflex" unicode="&#xc2;" horiz-adv-x="1853" 
d="M1059 2062l336 -342h-238q-117 88 -231 183q-62 -51 -236 -183h-237l335 342h271zM303 0h-285l754 1597h309l752 -1597h-287q-12 24 -227 459h-793q-39 -79 -81 -166t-84 -173.5t-58 -119.5zM645 707h555q-225 476 -272 581h-6q-37 -79 -135 -283t-142 -298z" />
    <glyph glyph-name="Atilde" unicode="&#xc3;" horiz-adv-x="1853" 
d="M1110 1735q-43 0 -79 8.5t-55.5 18.5t-49.5 28l-58 35q-57 39 -108 39q-48 0 -77.5 -32.5t-29.5 -80.5h-186q0 134 80.5 216.5t204.5 82.5q86 0 180 -55l57 -35q55 -35 107 -35q44 0 69 30.5t25 80.5h186q0 -145 -69 -223t-197 -78zM303 0h-285l754 1597h309l752 -1597
h-287q-12 24 -227 459h-793q-39 -79 -81 -166t-84 -173.5t-58 -119.5zM645 707h555q-225 476 -272 581h-6q-37 -79 -135 -283t-142 -298z" />
    <glyph glyph-name="Adieresis" unicode="&#xc4;" horiz-adv-x="1853" 
d="M666 1747q-71 0 -120.5 45.5t-49.5 112.5q0 62 50 106.5t120 44.5t119 -44.5t49 -106.5q0 -67 -48.5 -112.5t-119.5 -45.5zM1186 1747q-73 0 -122.5 45t-49.5 113q0 62 49.5 106.5t122.5 44.5q68 0 117 -45t49 -106q0 -67 -49 -112.5t-117 -45.5zM303 0h-285l754 1597
h309l752 -1597h-287q-12 24 -227 459h-793q-39 -79 -81 -166t-84 -173.5t-58 -119.5zM645 707h555q-225 476 -272 581h-6q-37 -79 -135 -283t-142 -298z" />
    <glyph glyph-name="Aring" unicode="&#xc5;" horiz-adv-x="1853" 
d="M922 1712q-124 0 -208.5 69.5t-84.5 170.5q0 102 84 170.5t209 68.5q124 0 207 -67.5t83 -171.5t-83 -172t-207 -68zM922 1851q54 0 91.5 29t37.5 72q0 42 -37 70t-92 28q-57 0 -94 -27.5t-37 -70.5t37 -72t94 -29zM303 0h-285l754 1597h309l752 -1597h-287
q-12 24 -227 459h-793q-39 -79 -81 -166t-84 -173.5t-58 -119.5zM645 707h555q-225 476 -272 581h-6q-37 -79 -135 -283t-142 -298z" />
    <glyph glyph-name="AE" unicode="&#xc6;" horiz-adv-x="2576" 
d="M240 0h-301l1103 1597h1389v-237h-958v-422h909v-248h-909v-450h983v-240h-1254v451h-627q-58 -76 -335 -451zM723 700h479v660h-4q-93 -127 -263 -364t-212 -296z" />
    <glyph glyph-name="Ccedilla" unicode="&#xc7;" horiz-adv-x="2054" 
d="M1763 623l250 -82q-101 -273 -327 -420t-551 -156l-76 -86q30 10 78 10q102 0 169.5 -51t67.5 -137q0 -96 -87 -154.5t-222 -58.5q-99 0 -185 33.5t-139 91.5l88 96q42 -47 103 -70.5t125 -23.5q63 0 103 23t40 63q0 38 -37.5 61t-95.5 23q-61 0 -113 -27l-86 62l117 149
q-255 20 -452 128.5t-307.5 291t-110.5 412.5q0 154 51 287t141 231.5t211 169t264.5 106t298.5 35.5q192 0 363.5 -57.5t303 -170t194.5 -263.5l-248 -97q-81 158 -243.5 251t-373.5 93q-140 0 -263.5 -42t-215.5 -117.5t-145.5 -189t-53.5 -249.5q0 -119 41 -217.5
t109.5 -164.5t161 -111.5t191.5 -65.5t204 -20q249 0 418 109.5t239 304.5z" />
    <glyph glyph-name="Egrave" unicode="&#xc8;" horiz-adv-x="1605" 
d="M977 1720h-232l-399 351h336zM1483 0h-1254v1597h1229v-237h-956v-422h907v-248h-907v-450h981v-240z" />
    <glyph glyph-name="Eacute" unicode="&#xc9;" horiz-adv-x="1605" 
d="M1333 2071l-399 -351h-232l295 351h336zM1483 0h-1254v1597h1229v-237h-956v-422h907v-248h-907v-450h981v-240z" />
    <glyph glyph-name="Ecircumflex" unicode="&#xca;" horiz-adv-x="1605" 
d="M963 2062l335 -342h-237q-128 97 -232 183q-72 -60 -235 -183h-238l336 342h271zM1483 0h-1254v1597h1229v-237h-956v-422h907v-248h-907v-450h981v-240z" />
    <glyph glyph-name="Edieresis" unicode="&#xcb;" horiz-adv-x="1605" 
d="M567 1747q-71 0 -120.5 45.5t-49.5 112.5q0 62 50 106.5t120 44.5t119 -44.5t49 -106.5q0 -67 -48.5 -112.5t-119.5 -45.5zM1087 1747q-73 0 -122.5 45t-49.5 113q0 62 49.5 106.5t122.5 44.5q68 0 117 -45t49 -106q0 -67 -49 -112.5t-117 -45.5zM1483 0h-1254v1597h1229
v-237h-956v-422h907v-248h-907v-450h981v-240z" />
    <glyph glyph-name="Igrave" unicode="&#xcc;" horiz-adv-x="731" 
d="M514 1720h-231l-400 351h336zM502 0h-273v1597h273v-1597z" />
    <glyph glyph-name="Iacute" unicode="&#xcd;" horiz-adv-x="731" 
d="M868 2071l-399 -351h-231l294 351h336zM502 0h-273v1597h273v-1597z" />
    <glyph glyph-name="Icircumflex" unicode="&#xce;" horiz-adv-x="731" 
d="M500 2062l336 -342h-238q-117 88 -231 183q-62 -51 -236 -183h-237l335 342h271zM502 0h-273v1597h273v-1597z" />
    <glyph glyph-name="Idieresis" unicode="&#xcf;" horiz-adv-x="731" 
d="M104 1747q-71 0 -120.5 45.5t-49.5 112.5q0 62 50 106.5t120 44.5t119 -44.5t49 -106.5q0 -67 -48.5 -112.5t-119.5 -45.5zM625 1747q-73 0 -122.5 45t-49.5 113q0 62 49.5 106.5t122.5 44.5q68 0 117 -45t49 -106q0 -67 -49 -112.5t-117 -45.5zM502 0h-273v1597h273
v-1597z" />
    <glyph glyph-name="Eth" unicode="&#xd0;" horiz-adv-x="1964" 
d="M229 1597h709q187 0 339.5 -40.5t257 -112t176 -171.5t104 -216t32.5 -248q0 -178 -60.5 -327t-173 -256t-280 -166.5t-372.5 -59.5h-732v694h-227v207h227v696zM944 238q107 0 198.5 19t169.5 61.5t133.5 106.5t86.5 158t31 212q0 565 -691 565h-370v-459h522v-207h-522
v-456h442z" />
    <glyph glyph-name="Ntilde" unicode="&#xd1;" horiz-adv-x="2013" 
d="M1176 1755q-43 0 -79.5 8.5t-56.5 18.5t-49 28l-57 35q-57 39 -109 39q-48 0 -77 -32t-29 -80h-187q0 134 80.5 216.5t204.5 82.5q85 0 180 -56l58 -35q53 -34 106 -34q44 0 69 30t25 80h187q0 -145 -69 -223t-197 -78zM502 0h-273v1597h287q724 -829 991 -1151h6v1151
h271v-1597h-285q-40 46 -418 473t-575 660h-4v-1133z" />
    <glyph glyph-name="Ograve" unicode="&#xd2;" horiz-adv-x="2156" 
d="M1225 1720h-232l-399 351h336zM1077 -35q-196 0 -373 62t-307.5 170t-207 264.5t-76.5 335.5q0 238 130.5 430t351 297.5t484.5 105.5q199 0 377.5 -63.5t307.5 -173t204.5 -265t75.5 -331.5q0 -141 -48.5 -270t-137 -230.5t-207.5 -176.5t-266.5 -115t-307.5 -40z
M1081 209q184 0 338 75.5t245 211t91 301.5q0 165 -90 300.5t-244.5 212t-339.5 76.5t-341 -75t-248.5 -211t-92.5 -303q0 -169 93 -304.5t248.5 -209.5t340.5 -74z" />
    <glyph glyph-name="Oacute" unicode="&#xd3;" horiz-adv-x="2156" 
d="M1581 2071l-399 -351h-232l295 351h336zM1077 -35q-196 0 -373 62t-307.5 170t-207 264.5t-76.5 335.5q0 238 130.5 430t351 297.5t484.5 105.5q199 0 377.5 -63.5t307.5 -173t204.5 -265t75.5 -331.5q0 -141 -48.5 -270t-137 -230.5t-207.5 -176.5t-266.5 -115
t-307.5 -40zM1081 209q184 0 338 75.5t245 211t91 301.5q0 165 -90 300.5t-244.5 212t-339.5 76.5t-341 -75t-248.5 -211t-92.5 -303q0 -169 93 -304.5t248.5 -209.5t340.5 -74z" />
    <glyph glyph-name="Ocircumflex" unicode="&#xd4;" horiz-adv-x="2156" 
d="M1210 2062l336 -342h-237q-128 97 -232 183q-72 -60 -235 -183h-238l336 342h270zM1077 -35q-196 0 -373 62t-307.5 170t-207 264.5t-76.5 335.5q0 238 130.5 430t351 297.5t484.5 105.5q199 0 377.5 -63.5t307.5 -173t204.5 -265t75.5 -331.5q0 -141 -48.5 -270
t-137 -230.5t-207.5 -176.5t-266.5 -115t-307.5 -40zM1081 209q184 0 338 75.5t245 211t91 301.5q0 165 -90 300.5t-244.5 212t-339.5 76.5t-341 -75t-248.5 -211t-92.5 -303q0 -169 93 -304.5t248.5 -209.5t340.5 -74z" />
    <glyph glyph-name="Otilde" unicode="&#xd5;" horiz-adv-x="2156" 
d="M1266 1755q-43 0 -79.5 8.5t-56.5 18.5t-49 28l-57 35q-57 39 -109 39q-48 0 -77 -32t-29 -80h-186q0 134 80.5 216.5t203.5 82.5q85 0 180 -56l58 -35q53 -34 106 -34q44 0 69.5 30t25.5 80h186q0 -145 -69 -223t-197 -78zM1077 -35q-196 0 -373 62t-307.5 170
t-207 264.5t-76.5 335.5q0 238 130.5 430t351 297.5t484.5 105.5q199 0 377.5 -63.5t307.5 -173t204.5 -265t75.5 -331.5q0 -141 -48.5 -270t-137 -230.5t-207.5 -176.5t-266.5 -115t-307.5 -40zM1081 209q184 0 338 75.5t245 211t91 301.5q0 165 -90 300.5t-244.5 212
t-339.5 76.5t-341 -75t-248.5 -211t-92.5 -303q0 -169 93 -304.5t248.5 -209.5t340.5 -74z" />
    <glyph glyph-name="Odieresis" unicode="&#xd6;" horiz-adv-x="2156" 
d="M815 1747q-71 0 -120.5 45.5t-49.5 112.5q0 62 50 106.5t120 44.5t119 -44.5t49 -106.5q0 -67 -48.5 -112.5t-119.5 -45.5zM1335 1747q-73 0 -122.5 45t-49.5 113q0 62 49.5 106.5t122.5 44.5q68 0 117 -45t49 -106q0 -67 -49 -112.5t-117 -45.5zM1077 -35
q-196 0 -373 62t-307.5 170t-207 264.5t-76.5 335.5q0 238 130.5 430t351 297.5t484.5 105.5q199 0 377.5 -63.5t307.5 -173t204.5 -265t75.5 -331.5q0 -141 -48.5 -270t-137 -230.5t-207.5 -176.5t-266.5 -115t-307.5 -40zM1081 209q184 0 338 75.5t245 211t91 301.5
q0 165 -90 300.5t-244.5 212t-339.5 76.5t-341 -75t-248.5 -211t-92.5 -303q0 -169 93 -304.5t248.5 -209.5t340.5 -74z" />
    <glyph glyph-name="multiply" unicode="&#xd7;" horiz-adv-x="1169" 
d="M442 623l-295 251l146 138l297 -252l284 244l146 -136l-285 -243l289 -248l-147 -135l-287 247l-291 -249l-145 135z" />
    <glyph glyph-name="Oslash" unicode="&#xd8;" horiz-adv-x="2156" 
d="M1915 1661l-193 -234q153 -116 237.5 -278t84.5 -352q0 -141 -48.5 -270t-137 -230.5t-207.5 -176.5t-266.5 -115t-307.5 -40q-250 0 -473 101l-108 -132h-265l197 238q-150 115 -232.5 275t-82.5 350q0 238 130.5 430t351 297.5t484.5 105.5q252 0 465 -98l105 129h266z
M399 797q0 -125 52 -232.5t145 -185.5l780 950q-136 57 -295 57q-185 0 -341 -75t-248.5 -211t-92.5 -303zM1081 209q184 0 338 75.5t245 211t91 301.5q0 125 -53 235t-148 191l-782 -953q144 -61 309 -61z" />
    <glyph glyph-name="Ugrave" unicode="&#xd9;" horiz-adv-x="1839" 
d="M1071 1720h-231l-400 351h336zM915 -35q-156 0 -279.5 38t-202 100t-130 147.5t-73 174.5t-21.5 187v985h272v-964q0 -203 110.5 -314.5t328.5 -111.5q217 0 328.5 112t111.5 314v964h270v-985q0 -94 -19 -180t-70 -173t-129 -150.5t-205.5 -103.5t-291.5 -40z" />
    <glyph glyph-name="Uacute" unicode="&#xda;" horiz-adv-x="1839" 
d="M1356 2071l-400 -351h-233l295 351h338zM915 -35q-156 0 -279.5 38t-202 100t-130 147.5t-73 174.5t-21.5 187v985h272v-964q0 -203 110.5 -314.5t328.5 -111.5q217 0 328.5 112t111.5 314v964h270v-985q0 -94 -19 -180t-70 -173t-129 -150.5t-205.5 -103.5t-291.5 -40z
" />
    <glyph glyph-name="Ucircumflex" unicode="&#xdb;" horiz-adv-x="1839" 
d="M1057 2062l336 -342h-238q-117 88 -231 183q-62 -51 -236 -183h-237l335 342h271zM915 -35q-156 0 -279.5 38t-202 100t-130 147.5t-73 174.5t-21.5 187v985h272v-964q0 -203 110.5 -314.5t328.5 -111.5q217 0 328.5 112t111.5 314v964h270v-985q0 -94 -19 -180t-70 -173
t-129 -150.5t-205.5 -103.5t-291.5 -40z" />
    <glyph glyph-name="Udieresis" unicode="&#xdc;" horiz-adv-x="1839" 
d="M662 1747q-71 0 -120.5 45.5t-49.5 112.5q0 62 50 106.5t120 44.5t118.5 -44.5t48.5 -106.5q0 -67 -48 -112.5t-119 -45.5zM1182 1747q-73 0 -122.5 45t-49.5 113q0 62 49.5 106.5t122.5 44.5q68 0 117 -45t49 -106q0 -67 -49 -112.5t-117 -45.5zM915 -35
q-156 0 -279.5 38t-202 100t-130 147.5t-73 174.5t-21.5 187v985h272v-964q0 -203 110.5 -314.5t328.5 -111.5q217 0 328.5 112t111.5 314v964h270v-985q0 -94 -19 -180t-70 -173t-129 -150.5t-205.5 -103.5t-291.5 -40z" />
    <glyph glyph-name="Yacute" unicode="&#xdd;" horiz-adv-x="1708" 
d="M1274 2071l-400 -351h-231l295 351h336zM989 0h-270v559q-81 121 -242.5 365t-282.5 426.5t-167 246.5h292l533 -784h4q52 77 128 191t165.5 245t241.5 348h290q-58 -86 -692 -1036v-561z" />
    <glyph glyph-name="Thorn" unicode="&#xde;" horiz-adv-x="1685" 
d="M502 0h-273v1597h273v-274h434q58 0 115 -5.5t122.5 -20.5t122.5 -38.5t111 -63t92 -90t61 -122.5t23 -158q0 -89 -23.5 -163.5t-62 -126.5t-92 -92.5t-110 -65t-119 -40.5t-115 -22t-103.5 -6h-456v-309zM502 1085v-526h393q66 0 122 7.5t109 26t90 48t59.5 76
t22.5 106.5q0 73 -34 126t-94.5 81.5t-129.5 41.5t-151 13h-387z" />
    <glyph glyph-name="germandbls" unicode="&#xdf;" horiz-adv-x="1576" 
d="M449 0h-254v1061q0 56 5.5 108.5t22.5 115.5t44.5 116.5t74.5 105t109 87t152.5 57.5t199.5 22q141 0 257 -36.5t192 -99.5t117.5 -148t41.5 -183q0 -146 -89.5 -247t-231.5 -125v-7q170 -15 281.5 -119.5t111.5 -263.5q0 -87 -39.5 -164.5t-117.5 -141t-209 -101
t-298 -37.5h-178v219h209q163 0 262.5 68.5t99.5 173.5q0 101 -92 166t-235 65h-129v219h94q129 0 213 71.5t84 191.5q0 123 -89.5 199.5t-256.5 76.5q-91 0 -159.5 -29.5t-104 -69.5t-57 -94t-26.5 -90.5t-5 -70.5v-1096z" />
    <glyph glyph-name="agrave" unicode="&#xe0;" horiz-adv-x="1423" 
d="M844 1278h-223l-373 383h315zM549 -35q-123 0 -223 34.5t-164 109.5t-64 180q0 64 25.5 116t66.5 87t104 63t125.5 44.5t143.5 31.5q35 6 92.5 15t89.5 14.5t76 14.5t68 19.5t48.5 25t35 34.5t10.5 45q0 71 -78 122.5t-200 51.5q-117 0 -201.5 -50.5t-118.5 -148.5
l-242 78q30 84 89 147t136.5 99.5t163.5 54.5t179 18q153 0 272 -43.5t190.5 -134.5t71.5 -219v-418q0 -130 10 -205.5t33 -150.5h-256q-28 69 -28 176h-7q-60 -97 -177 -154t-271 -57zM606 154q84 0 157 26t120.5 67.5t74.5 91t27 97.5v113q-109 -45 -297 -76
q-39 -7 -56.5 -10.5t-57 -13.5t-60.5 -18t-51.5 -22.5t-46 -30t-27.5 -38t-12 -47.5q0 -65 63.5 -102t165.5 -37z" />
    <glyph glyph-name="aacute" unicode="&#xe1;" horiz-adv-x="1423" 
d="M1192 1661l-373 -383h-223l281 383h315zM549 -35q-123 0 -223 34.5t-164 109.5t-64 180q0 64 25.5 116t66.5 87t104 63t125.5 44.5t143.5 31.5q35 6 92.5 15t89.5 14.5t76 14.5t68 19.5t48.5 25t35 34.5t10.5 45q0 71 -78 122.5t-200 51.5q-117 0 -201.5 -50.5
t-118.5 -148.5l-242 78q30 84 89 147t136.5 99.5t163.5 54.5t179 18q153 0 272 -43.5t190.5 -134.5t71.5 -219v-418q0 -130 10 -205.5t33 -150.5h-256q-28 69 -28 176h-7q-60 -97 -177 -154t-271 -57zM606 154q84 0 157 26t120.5 67.5t74.5 91t27 97.5v113
q-109 -45 -297 -76q-39 -7 -56.5 -10.5t-57 -13.5t-60.5 -18t-51.5 -22.5t-46 -30t-27.5 -38t-12 -47.5q0 -65 63.5 -102t165.5 -37z" />
    <glyph glyph-name="acircumflex" unicode="&#xe2;" horiz-adv-x="1423" 
d="M467 1278h-242l357 367h282l357 -367h-242q-155 130 -256 217q-163 -139 -256 -217zM549 -35q-123 0 -223 34.5t-164 109.5t-64 180q0 64 25.5 116t66.5 87t104 63t125.5 44.5t143.5 31.5q35 6 92.5 15t89.5 14.5t76 14.5t68 19.5t48.5 25t35 34.5t10.5 45
q0 71 -78 122.5t-200 51.5q-117 0 -201.5 -50.5t-118.5 -148.5l-242 78q30 84 89 147t136.5 99.5t163.5 54.5t179 18q153 0 272 -43.5t190.5 -134.5t71.5 -219v-418q0 -130 10 -205.5t33 -150.5h-256q-28 69 -28 176h-7q-60 -97 -177 -154t-271 -57zM606 154q84 0 157 26
t120.5 67.5t74.5 91t27 97.5v113q-109 -45 -297 -76q-39 -7 -56.5 -10.5t-57 -13.5t-60.5 -18t-51.5 -22.5t-46 -30t-27.5 -38t-12 -47.5q0 -65 63.5 -102t165.5 -37z" />
    <glyph glyph-name="atilde" unicode="&#xe3;" horiz-adv-x="1423" 
d="M915 1296q-43 0 -79.5 9t-55.5 18.5t-49 28.5l-57 34q-57 39 -109 39q-48 0 -77 -32t-29 -80h-187q0 134 80.5 216.5t204.5 82.5q85 0 180 -56l58 -34q55 -35 106 -35q44 0 69 30t25 80h187q0 -145 -69.5 -223t-197.5 -78zM549 -35q-123 0 -223 34.5t-164 109.5t-64 180
q0 64 25.5 116t66.5 87t104 63t125.5 44.5t143.5 31.5q35 6 92.5 15t89.5 14.5t76 14.5t68 19.5t48.5 25t35 34.5t10.5 45q0 71 -78 122.5t-200 51.5q-117 0 -201.5 -50.5t-118.5 -148.5l-242 78q30 84 89 147t136.5 99.5t163.5 54.5t179 18q153 0 272 -43.5t190.5 -134.5
t71.5 -219v-418q0 -130 10 -205.5t33 -150.5h-256q-28 69 -28 176h-7q-60 -97 -177 -154t-271 -57zM606 154q84 0 157 26t120.5 67.5t74.5 91t27 97.5v113q-109 -45 -297 -76q-39 -7 -56.5 -10.5t-57 -13.5t-60.5 -18t-51.5 -22.5t-46 -30t-27.5 -38t-12 -47.5
q0 -65 63.5 -102t165.5 -37z" />
    <glyph glyph-name="adieresis" unicode="&#xe4;" horiz-adv-x="1423" 
d="M477 1321q-68 0 -115 43t-47 106q0 58 47.5 100t114.5 42t112.5 -42t45.5 -100q0 -63 -45.5 -106t-112.5 -43zM973 1321q-69 0 -114.5 43t-45.5 106q0 58 46 100t114 42q66 0 113 -42.5t47 -99.5q0 -63 -47 -106t-113 -43zM549 -35q-123 0 -223 34.5t-164 109.5t-64 180
q0 64 25.5 116t66.5 87t104 63t125.5 44.5t143.5 31.5q35 6 92.5 15t89.5 14.5t76 14.5t68 19.5t48.5 25t35 34.5t10.5 45q0 71 -78 122.5t-200 51.5q-117 0 -201.5 -50.5t-118.5 -148.5l-242 78q30 84 89 147t136.5 99.5t163.5 54.5t179 18q153 0 272 -43.5t190.5 -134.5
t71.5 -219v-418q0 -130 10 -205.5t33 -150.5h-256q-28 69 -28 176h-7q-60 -97 -177 -154t-271 -57zM606 154q84 0 157 26t120.5 67.5t74.5 91t27 97.5v113q-109 -45 -297 -76q-39 -7 -56.5 -10.5t-57 -13.5t-60.5 -18t-51.5 -22.5t-46 -30t-27.5 -38t-12 -47.5
q0 -65 63.5 -102t165.5 -37z" />
    <glyph glyph-name="aring" unicode="&#xe5;" horiz-adv-x="1423" 
d="M723 1253q-124 0 -208.5 69.5t-84.5 170.5q0 103 84 171.5t209 68.5q124 0 207.5 -68t83.5 -172t-83.5 -172t-207.5 -68zM723 1393q54 0 91.5 28.5t37.5 71.5q0 42 -37 70t-92 28q-57 0 -94 -27.5t-37 -70.5t37 -71.5t94 -28.5zM549 -35q-123 0 -223 34.5t-164 109.5
t-64 180q0 64 25.5 116t66.5 87t104 63t125.5 44.5t143.5 31.5q35 6 92.5 15t89.5 14.5t76 14.5t68 19.5t48.5 25t35 34.5t10.5 45q0 71 -78 122.5t-200 51.5q-117 0 -201.5 -50.5t-118.5 -148.5l-242 78q30 84 89 147t136.5 99.5t163.5 54.5t179 18q153 0 272 -43.5
t190.5 -134.5t71.5 -219v-418q0 -130 10 -205.5t33 -150.5h-256q-28 69 -28 176h-7q-60 -97 -177 -154t-271 -57zM606 154q84 0 157 26t120.5 67.5t74.5 91t27 97.5v113q-109 -45 -297 -76q-39 -7 -56.5 -10.5t-57 -13.5t-60.5 -18t-51.5 -22.5t-46 -30t-27.5 -38t-12 -47.5
q0 -65 63.5 -102t165.5 -37z" />
    <glyph glyph-name="ae" unicode="&#xe6;" horiz-adv-x="2422" 
d="M547 -35q-126 0 -226 35.5t-161.5 110t-61.5 178.5q0 67 27.5 120.5t69.5 88.5t106.5 62.5t124.5 42.5t137 28q31 5 75 12t72 11t64.5 10.5t60 12.5t50 14.5t43 18.5t30.5 22.5t20.5 29t6.5 35.5q0 71 -78.5 123.5t-201.5 52.5q-115 0 -199 -52t-119 -147l-244 78
q31 82 90 144.5t136.5 100t165 56t182.5 18.5q151 0 274.5 -44t179.5 -130q87 83 216 128.5t284 45.5q94 0 183.5 -20t173.5 -66.5t147 -113.5t101 -169t38 -227v-67h-1067q12 -147 134.5 -235.5t299.5 -88.5q140 0 247 57t157 156l239 -90q-75 -154 -246.5 -248t-396.5 -94
q-194 0 -350 66.5t-233 191.5h-6q-87 -124 -228 -191t-317 -67zM1255 686h791q-8 75 -45 131t-93 86.5t-117.5 45t-129.5 14.5q-154 0 -264 -74.5t-142 -202.5zM604 154q165 0 273 91t108 191v113q-75 -30 -126.5 -42.5t-151.5 -27.5q-330 -52 -330 -182q0 -69 63.5 -106
t163.5 -37z" />
    <glyph glyph-name="ccedilla" unicode="&#xe7;" horiz-adv-x="1497" 
d="M1208 426l238 -88q-71 -167 -235.5 -265.5t-381.5 -107.5l-75 -86q30 10 77 10q102 0 170 -51t68 -137q0 -96 -87 -154.5t-222 -58.5q-99 0 -185 33.5t-139 91.5l88 96q42 -47 103 -70.5t125 -23.5q63 0 103 23t40 63q0 38 -37.5 61t-95.5 23q-61 0 -113 -27l-86 62
l119 151q-261 30 -422.5 190t-161.5 406q0 136 52 249.5t144 191t219 120.5t275 43q135 0 254 -38.5t214 -117.5t145 -190l-242 -92q-44 103 -144 156t-231 53q-187 0 -302 -106t-115 -267q0 -169 121 -271.5t309 -102.5q145 0 250.5 61t160.5 170z" />
    <glyph glyph-name="egrave" unicode="&#xe8;" horiz-adv-x="1421" 
d="M836 1278h-224l-372 383h315zM737 -35q-137 0 -256.5 43.5t-205.5 120.5t-135.5 190t-49.5 246q0 263 178.5 434.5t454.5 171.5q88 0 172 -20t162.5 -66.5t137 -113.5t93.5 -169t35 -227v-90h-979q13 -139 123 -221t270 -82q126 0 221.5 57.5t141.5 157.5l233 -90
q-69 -155 -227 -248.5t-369 -93.5zM354 692h713q-6 70 -37.5 123.5t-80.5 85t-107 47t-123 15.5q-143 0 -239.5 -75.5t-125.5 -195.5z" />
    <glyph glyph-name="eacute" unicode="&#xe9;" horiz-adv-x="1421" 
d="M1184 1661l-373 -383h-223l280 383h316zM737 -35q-137 0 -256.5 43.5t-205.5 120.5t-135.5 190t-49.5 246q0 263 178.5 434.5t454.5 171.5q88 0 172 -20t162.5 -66.5t137 -113.5t93.5 -169t35 -227v-90h-979q13 -139 123 -221t270 -82q126 0 221.5 57.5t141.5 157.5
l233 -90q-69 -155 -227 -248.5t-369 -93.5zM354 692h713q-6 70 -37.5 123.5t-80.5 85t-107 47t-123 15.5q-143 0 -239.5 -75.5t-125.5 -195.5z" />
    <glyph glyph-name="ecircumflex" unicode="&#xea;" horiz-adv-x="1421" 
d="M461 1278h-242l356 367h283l356 -367h-241q-155 130 -256 217q-163 -139 -256 -217zM737 -35q-137 0 -256.5 43.5t-205.5 120.5t-135.5 190t-49.5 246q0 263 178.5 434.5t454.5 171.5q88 0 172 -20t162.5 -66.5t137 -113.5t93.5 -169t35 -227v-90h-979q13 -139 123 -221
t270 -82q126 0 221.5 57.5t141.5 157.5l233 -90q-69 -155 -227 -248.5t-369 -93.5zM354 692h713q-6 70 -37.5 123.5t-80.5 85t-107 47t-123 15.5q-143 0 -239.5 -75.5t-125.5 -195.5z" />
    <glyph glyph-name="edieresis" unicode="&#xeb;" horiz-adv-x="1421" 
d="M469 1321q-68 0 -115 43t-47 106q0 58 47.5 100t114.5 42t112.5 -42t45.5 -100q0 -63 -45.5 -106t-112.5 -43zM965 1321q-69 0 -114.5 43t-45.5 106q0 58 46 100t114 42q66 0 112.5 -42.5t46.5 -99.5q0 -63 -46.5 -106t-112.5 -43zM737 -35q-137 0 -256.5 43.5
t-205.5 120.5t-135.5 190t-49.5 246q0 263 178.5 434.5t454.5 171.5q88 0 172 -20t162.5 -66.5t137 -113.5t93.5 -169t35 -227v-90h-979q13 -139 123 -221t270 -82q126 0 221.5 57.5t141.5 157.5l233 -90q-69 -155 -227 -248.5t-369 -93.5zM354 692h713q-6 70 -37.5 123.5
t-80.5 85t-107 47t-123 15.5q-143 0 -239.5 -75.5t-125.5 -195.5z" />
    <glyph glyph-name="igrave" unicode="&#xec;" horiz-adv-x="643" 
d="M442 1266h-223l-373 383h316zM449 0h-254v1139h254v-1139z" />
    <glyph glyph-name="iacute" unicode="&#xed;" horiz-adv-x="643" 
d="M788 1649l-372 -383h-223l280 383h315zM449 0h-254v1139h254v-1139z" />
    <glyph glyph-name="icircumflex" unicode="&#xee;" horiz-adv-x="643" 
d="M66 1266h-242l356 366h283l356 -366h-241q-155 130 -256 217q-163 -139 -256 -217zM449 0h-254v1139h254v-1139z" />
    <glyph glyph-name="idieresis" unicode="&#xef;" horiz-adv-x="643" 
d="M74 1309q-68 0 -115 43t-47 106q0 57 47.5 99t114.5 42t112 -41.5t45 -99.5q0 -63 -45 -106t-112 -43zM569 1309q-69 0 -114 43t-45 106q0 58 45.5 99.5t113.5 41.5q66 0 113 -42t47 -99q0 -63 -47 -106t-113 -43zM449 0h-254v1139h254v-1139z" />
    <glyph glyph-name="eth" unicode="&#xf0;" horiz-adv-x="1603" 
d="M1260 1532l-185 -88q414 -289 414 -762q0 -328 -191 -522.5t-514 -194.5q-154 0 -284.5 45t-218.5 122t-137.5 182t-49.5 223q0 161 88.5 287t238 193.5t331.5 67.5q137 0 242 -40t198 -130h4q-81 243 -356 414l-334 -160l-74 119l256 125q-148 68 -328 117l68 192
q294 -77 504 -190l246 119zM780 188q180 0 298 95t118 245q0 152 -118.5 247t-297.5 95q-181 0 -299.5 -97t-118.5 -245q0 -145 116.5 -242.5t301.5 -97.5z" />
    <glyph glyph-name="ntilde" unicode="&#xf1;" horiz-adv-x="1564" 
d="M967 1296q-43 0 -79.5 9t-56 18.5t-49.5 28.5l-57 34q-57 39 -109 39q-48 0 -77 -32t-29 -80h-186q0 134 80.5 216.5t203.5 82.5q85 0 180 -56l58 -34q55 -35 106 -35q44 0 69.5 30t25.5 80h186q0 -145 -69 -223t-197 -78zM449 0h-254v1139h249v-183h5
q75 108 193.5 161.5t258.5 53.5q76 0 145.5 -16t132.5 -51.5t109 -87.5t73.5 -128.5t27.5 -170.5v-717h-256v610q0 146 -83.5 239t-232.5 93q-166 0 -267 -91t-101 -249v-602z" />
    <glyph glyph-name="ograve" unicode="&#xf2;" horiz-adv-x="1585" 
d="M913 1278h-223l-373 383h316zM793 -35q-306 0 -500.5 168.5t-194.5 433.5q0 131 51.5 243.5t142.5 191.5t220.5 124t280.5 45q201 0 359 -77t245.5 -214.5t87.5 -312.5t-87.5 -312t-245 -213.5t-359.5 -76.5zM793 195q188 0 307 104.5t119 267.5q0 165 -119 270t-307 105
q-187 0 -306.5 -105.5t-119.5 -269.5q0 -163 119.5 -267.5t306.5 -104.5z" />
    <glyph glyph-name="oacute" unicode="&#xf3;" horiz-adv-x="1585" 
d="M1262 1661l-373 -383h-223l280 383h316zM793 -35q-306 0 -500.5 168.5t-194.5 433.5q0 131 51.5 243.5t142.5 191.5t220.5 124t280.5 45q201 0 359 -77t245.5 -214.5t87.5 -312.5t-87.5 -312t-245 -213.5t-359.5 -76.5zM793 195q188 0 307 104.5t119 267.5
q0 165 -119 270t-307 105q-187 0 -306.5 -105.5t-119.5 -269.5q0 -163 119.5 -267.5t306.5 -104.5z" />
    <glyph glyph-name="ocircumflex" unicode="&#xf4;" horiz-adv-x="1585" 
d="M537 1278h-242l356 367h283l356 -367h-241q-155 130 -256 217q-163 -139 -256 -217zM793 -35q-306 0 -500.5 168.5t-194.5 433.5q0 131 51.5 243.5t142.5 191.5t220.5 124t280.5 45q201 0 359 -77t245.5 -214.5t87.5 -312.5t-87.5 -312t-245 -213.5t-359.5 -76.5z
M793 195q188 0 307 104.5t119 267.5q0 165 -119 270t-307 105q-187 0 -306.5 -105.5t-119.5 -269.5q0 -163 119.5 -267.5t306.5 -104.5z" />
    <glyph glyph-name="otilde" unicode="&#xf5;" horiz-adv-x="1585" 
d="M985 1296q-43 0 -79.5 9t-55.5 18.5t-49 28.5l-58 34q-57 39 -108 39q-48 0 -77.5 -32t-29.5 -80h-186q0 134 80.5 216.5t204.5 82.5q85 0 180 -56l57 -34q55 -35 107 -35q44 0 69 30t25 80h186q0 -145 -69 -223t-197 -78zM793 -35q-306 0 -500.5 168.5t-194.5 433.5
q0 131 51.5 243.5t142.5 191.5t220.5 124t280.5 45q201 0 359 -77t245.5 -214.5t87.5 -312.5t-87.5 -312t-245 -213.5t-359.5 -76.5zM793 195q188 0 307 104.5t119 267.5q0 165 -119 270t-307 105q-187 0 -306.5 -105.5t-119.5 -269.5q0 -163 119.5 -267.5t306.5 -104.5z
" />
    <glyph glyph-name="odieresis" unicode="&#xf6;" horiz-adv-x="1585" 
d="M547 1321q-68 0 -115 43t-47 106q0 58 47.5 100t114.5 42t112.5 -42t45.5 -100q0 -63 -45.5 -106t-112.5 -43zM1042 1321q-69 0 -114 43t-45 106q0 58 45.5 100t113.5 42q66 0 113 -42.5t47 -99.5q0 -63 -47 -106t-113 -43zM793 -35q-306 0 -500.5 168.5t-194.5 433.5
q0 131 51.5 243.5t142.5 191.5t220.5 124t280.5 45q201 0 359 -77t245.5 -214.5t87.5 -312.5t-87.5 -312t-245 -213.5t-359.5 -76.5zM793 195q188 0 307 104.5t119 267.5q0 165 -119 270t-307 105q-187 0 -306.5 -105.5t-119.5 -269.5q0 -163 119.5 -267.5t306.5 -104.5z
" />
    <glyph glyph-name="divide" unicode="&#xf7;" horiz-adv-x="1296" 
d="M651 850q-65 0 -110 41.5t-45 101.5q0 59 44.5 99.5t110.5 40.5q65 0 110.5 -41t45.5 -101q0 -58 -45.5 -99.5t-110.5 -41.5zM1143 530h-989v193h989v-193zM651 121q-64 0 -109.5 42.5t-45.5 102.5q0 57 44.5 97t110.5 40q65 0 110.5 -40.5t45.5 -98.5
q0 -60 -45.5 -101.5t-110.5 -41.5z" />
    <glyph glyph-name="oslash" unicode="&#xf8;" horiz-adv-x="1585" 
d="M1485 1186l-176 -199q176 -168 176 -420q0 -175 -87.5 -312t-245 -213.5t-359.5 -76.5q-186 0 -336 66l-78 -88h-279l181 200q-183 169 -183 424q0 131 51.5 243.5t142.5 191.5t220.5 124t280.5 45q194 0 344 -69l75 84h273zM367 567q0 -133 84 -233l518 579
q-85 29 -176 29q-187 0 -306.5 -105.5t-119.5 -269.5zM793 195q188 0 307 104.5t119 267.5q0 134 -80 230l-512 -576q71 -26 166 -26z" />
    <glyph glyph-name="ugrave" unicode="&#xf9;" horiz-adv-x="1542" 
d="M879 1278h-224l-372 383h315zM668 -35q-103 0 -191 27.5t-156 82.5t-106.5 144.5t-38.5 204.5v715h256v-629q0 -151 86 -233t221 -82q161 0 256 94.5t95 228.5v621h256v-783q0 -126 10.5 -201.5t34.5 -154.5h-256q-31 102 -31 160h-4q-140 -195 -432 -195z" />
    <glyph glyph-name="uacute" unicode="&#xfa;" horiz-adv-x="1542" 
d="M1227 1661l-373 -383h-223l280 383h316zM668 -35q-103 0 -191 27.5t-156 82.5t-106.5 144.5t-38.5 204.5v715h256v-629q0 -151 86 -233t221 -82q161 0 256 94.5t95 228.5v621h256v-783q0 -126 10.5 -201.5t34.5 -154.5h-256q-31 102 -31 160h-4q-140 -195 -432 -195z" />
    <glyph glyph-name="ucircumflex" unicode="&#xfb;" horiz-adv-x="1542" 
d="M502 1278h-242l356 367h283l356 -367h-241q-155 130 -256 217q-163 -139 -256 -217zM668 -35q-103 0 -191 27.5t-156 82.5t-106.5 144.5t-38.5 204.5v715h256v-629q0 -151 86 -233t221 -82q161 0 256 94.5t95 228.5v621h256v-783q0 -126 10.5 -201.5t34.5 -154.5h-256
q-31 102 -31 160h-4q-140 -195 -432 -195z" />
    <glyph glyph-name="udieresis" unicode="&#xfc;" horiz-adv-x="1542" 
d="M512 1321q-68 0 -115 43t-47 106q0 58 47.5 100t114.5 42t112.5 -42t45.5 -100q0 -63 -45.5 -106t-112.5 -43zM1008 1321q-69 0 -114.5 43t-45.5 106q0 58 46 100t114 42q66 0 112.5 -42.5t46.5 -99.5q0 -63 -46.5 -106t-112.5 -43zM668 -35q-103 0 -191 27.5t-156 82.5
t-106.5 144.5t-38.5 204.5v715h256v-629q0 -151 86 -233t221 -82q161 0 256 94.5t95 228.5v621h256v-783q0 -126 10.5 -201.5t34.5 -154.5h-256q-31 102 -31 160h-4q-140 -195 -432 -195z" />
    <glyph glyph-name="yacute" unicode="&#xfd;" horiz-adv-x="1390" 
d="M1153 1661l-373 -383h-223l281 383h315zM631 -451h-262l196 412l-540 1178h280q177 -373 391 -854h4q208 466 392 854h274z" />
    <glyph glyph-name="thorn" unicode="&#xfe;" horiz-adv-x="1642" 
d="M449 -451h-254v2089h254v-688h8q81 109 202.5 165t270.5 56q176 0 317 -80.5t218 -218t77 -305.5q0 -179 -85.5 -317.5t-226.5 -211.5t-312 -73q-146 0 -265.5 53t-197.5 154h-6v-623zM864 195q180 0 296 105t116 267q0 163 -117.5 269t-296.5 106q-176 0 -297 -107
t-121 -268q0 -163 121.5 -267.5t298.5 -104.5z" />
    <glyph glyph-name="ydieresis" unicode="&#xff;" horiz-adv-x="1390" 
d="M438 1321q-68 0 -115 43t-47 106q0 58 47.5 100t114.5 42t112.5 -42t45.5 -100q0 -63 -45.5 -106t-112.5 -43zM934 1321q-69 0 -114.5 43t-45.5 106q0 58 46 100t114 42q66 0 113 -42.5t47 -99.5q0 -63 -47 -106t-113 -43zM631 -451h-262l196 412l-540 1178h280
q177 -373 391 -854h4q208 466 392 854h274z" />
    <glyph glyph-name="Amacron" unicode="&#x100;" horiz-adv-x="1853" 
d="M1352 1784h-856v184h856v-184zM303 0h-285l754 1597h309l752 -1597h-287q-12 24 -227 459h-793q-39 -79 -81 -166t-84 -173.5t-58 -119.5zM645 707h555q-225 476 -272 581h-6q-37 -79 -135 -283t-142 -298z" />
    <glyph glyph-name="amacron" unicode="&#x101;" horiz-adv-x="1423" 
d="M1135 1356h-826v176h826v-176zM549 -35q-123 0 -223 34.5t-164 109.5t-64 180q0 64 25.5 116t66.5 87t104 63t125.5 44.5t143.5 31.5q35 6 92.5 15t89.5 14.5t76 14.5t68 19.5t48.5 25t35 34.5t10.5 45q0 71 -78 122.5t-200 51.5q-117 0 -201.5 -50.5t-118.5 -148.5
l-242 78q30 84 89 147t136.5 99.5t163.5 54.5t179 18q153 0 272 -43.5t190.5 -134.5t71.5 -219v-418q0 -130 10 -205.5t33 -150.5h-256q-28 69 -28 176h-7q-60 -97 -177 -154t-271 -57zM606 154q84 0 157 26t120.5 67.5t74.5 91t27 97.5v113q-109 -45 -297 -76
q-39 -7 -56.5 -10.5t-57 -13.5t-60.5 -18t-51.5 -22.5t-46 -30t-27.5 -38t-12 -47.5q0 -65 63.5 -102t165.5 -37z" />
    <glyph glyph-name="Abreve" unicode="&#x102;" horiz-adv-x="1853" 
d="M926 1718q-205 0 -334.5 103t-134.5 252h221q5 -71 73.5 -125t174.5 -54q104 0 171 53.5t72 125.5h224q-5 -147 -135 -251t-332 -104zM303 0h-285l754 1597h309l752 -1597h-287q-12 24 -227 459h-793q-39 -79 -81 -166t-84 -173.5t-58 -119.5zM645 707h555
q-225 476 -272 581h-6q-37 -79 -135 -283t-142 -298z" />
    <glyph glyph-name="abreve" unicode="&#x103;" horiz-adv-x="1423" 
d="M719 1270q-206 0 -327.5 110t-129.5 285h215q3 -92 70 -154.5t178 -62.5t178 61.5t70 155.5h215q-8 -175 -132 -285t-337 -110zM549 -35q-123 0 -223 34.5t-164 109.5t-64 180q0 64 25.5 116t66.5 87t104 63t125.5 44.5t143.5 31.5q35 6 92.5 15t89.5 14.5t76 14.5
t68 19.5t48.5 25t35 34.5t10.5 45q0 71 -78 122.5t-200 51.5q-117 0 -201.5 -50.5t-118.5 -148.5l-242 78q30 84 89 147t136.5 99.5t163.5 54.5t179 18q153 0 272 -43.5t190.5 -134.5t71.5 -219v-418q0 -130 10 -205.5t33 -150.5h-256q-28 69 -28 176h-7q-60 -97 -177 -154
t-271 -57zM606 154q84 0 157 26t120.5 67.5t74.5 91t27 97.5v113q-109 -45 -297 -76q-39 -7 -56.5 -10.5t-57 -13.5t-60.5 -18t-51.5 -22.5t-46 -30t-27.5 -38t-12 -47.5q0 -65 63.5 -102t165.5 -37z" />
    <glyph glyph-name="Aogonek" unicode="&#x104;" horiz-adv-x="1853" 
d="M1731 -305q57 0 106 12v-153q-67 -17 -141 -17q-95 0 -172 25.5t-126.5 80t-49.5 130.5q0 68 52.5 127.5t147.5 99.5h-2q-12 24 -227 459h-793q-39 -79 -81 -166t-84 -173.5t-58 -119.5h-285l754 1597h309l752 -1597h-94q-105 -24 -155 -73.5t-50 -98.5q0 -53 53.5 -93
t143.5 -40zM645 707h555q-225 476 -272 581h-6q-37 -79 -135 -283t-142 -298z" />
    <glyph glyph-name="aogonek" unicode="&#x105;" horiz-adv-x="1423" 
d="M1200 -297q54 0 111 16v-168q-66 -14 -135 -14q-147 0 -244.5 62t-97.5 174q0 76 54.5 135t147.5 92h-4q-28 69 -28 176h-7q-60 -97 -177 -154t-271 -57q-123 0 -223 34.5t-164 109.5t-64 180q0 64 25.5 116t66.5 87t104 63t125.5 44.5t143.5 31.5q35 6 92.5 15
t89.5 14.5t76 14.5t68 19.5t48.5 25t35 34.5t10.5 45q0 71 -78 122.5t-200 51.5q-117 0 -201.5 -50.5t-118.5 -148.5l-242 78q30 84 89 147t136.5 99.5t163.5 54.5t179 18q153 0 272 -43.5t190.5 -134.5t71.5 -219v-418q0 -130 10 -205.5t33 -150.5h-74q-100 -26 -149 -73
t-49 -101t51 -88.5t133 -34.5zM985 436v113q-109 -45 -297 -76q-39 -7 -56.5 -10.5t-57 -13.5t-60.5 -18t-51.5 -22.5t-46 -30t-27.5 -38t-12 -47.5q0 -65 63.5 -102t165.5 -37q84 0 157 26t120.5 67.5t74.5 91t27 97.5z" />
    <glyph glyph-name="Cacute" unicode="&#x106;" horiz-adv-x="2054" 
d="M1556 2071l-399 -351h-231l295 351h335zM1096 -35q-283 0 -506.5 104t-349 295t-125.5 437q0 154 51 287t141 231.5t211 169t264.5 106t298.5 35.5q192 0 363.5 -57.5t303 -170t194.5 -263.5l-248 -97q-81 158 -243.5 251t-373.5 93q-140 0 -263.5 -42t-215.5 -117.5
t-145.5 -189t-53.5 -249.5q0 -119 41 -217.5t109.5 -164.5t161 -111.5t191.5 -65.5t204 -20q249 0 418 109.5t239 304.5l250 -82q-104 -281 -340.5 -428.5t-576.5 -147.5z" />
    <glyph glyph-name="cacute" unicode="&#x107;" horiz-adv-x="1497" 
d="M1212 1661l-372 -383h-224l281 383h315zM793 -35q-199 0 -356.5 72.5t-248 210.5t-90.5 319q0 136 52 249.5t144 191t219 120.5t275 43q135 0 254 -38.5t214 -117.5t145 -190l-242 -92q-44 103 -144 156t-231 53q-187 0 -302 -106t-115 -267q0 -169 121 -271.5
t309 -102.5q145 0 250.5 61t160.5 170l238 -88q-74 -176 -249 -274.5t-404 -98.5z" />
    <glyph glyph-name="Cdotaccent" unicode="&#x10a;" horiz-adv-x="2054" 
d="M1053 1763q-75 0 -127 47t-52 115q0 64 52.5 110t126.5 46q71 0 121.5 -46t50.5 -110q0 -68 -50 -115t-122 -47zM1096 -35q-283 0 -506.5 104t-349 295t-125.5 437q0 154 51 287t141 231.5t211 169t264.5 106t298.5 35.5q192 0 363.5 -57.5t303 -170t194.5 -263.5
l-248 -97q-81 158 -243.5 251t-373.5 93q-140 0 -263.5 -42t-215.5 -117.5t-145.5 -189t-53.5 -249.5q0 -119 41 -217.5t109.5 -164.5t161 -111.5t191.5 -65.5t204 -20q249 0 418 109.5t239 304.5l250 -82q-104 -281 -340.5 -428.5t-576.5 -147.5z" />
    <glyph glyph-name="cdotaccent" unicode="&#x10b;" horiz-adv-x="1497" 
d="M748 1346q-75 0 -126 46.5t-51 114.5q0 64 51.5 110t125.5 46q71 0 121.5 -46t50.5 -110q0 -67 -50 -114t-122 -47zM793 -35q-199 0 -356.5 72.5t-248 210.5t-90.5 319q0 136 52 249.5t144 191t219 120.5t275 43q135 0 254 -38.5t214 -117.5t145 -190l-242 -92
q-44 103 -144 156t-231 53q-187 0 -302 -106t-115 -267q0 -169 121 -271.5t309 -102.5q145 0 250.5 61t160.5 170l238 -88q-74 -176 -249 -274.5t-404 -98.5z" />
    <glyph glyph-name="Ccaron" unicode="&#x10c;" horiz-adv-x="2054" 
d="M1282 2062h240l-332 -342h-281l-331 342h239q113 -86 234 -186q126 104 231 186zM1096 -35q-283 0 -506.5 104t-349 295t-125.5 437q0 154 51 287t141 231.5t211 169t264.5 106t298.5 35.5q192 0 363.5 -57.5t303 -170t194.5 -263.5l-248 -97q-81 158 -243.5 251
t-373.5 93q-140 0 -263.5 -42t-215.5 -117.5t-145.5 -189t-53.5 -249.5q0 -119 41 -217.5t109.5 -164.5t161 -111.5t191.5 -65.5t204 -20q249 0 418 109.5t239 304.5l250 -82q-104 -281 -340.5 -428.5t-576.5 -147.5z" />
    <glyph glyph-name="ccaron" unicode="&#x10d;" horiz-adv-x="1497" 
d="M887 1290h-283l-356 379h241q203 -172 256 -217q88 76 256 217h242zM793 -35q-199 0 -356.5 72.5t-248 210.5t-90.5 319q0 136 52 249.5t144 191t219 120.5t275 43q135 0 254 -38.5t214 -117.5t145 -190l-242 -92q-44 103 -144 156t-231 53q-187 0 -302 -106t-115 -267
q0 -169 121 -271.5t309 -102.5q145 0 250.5 61t160.5 170l238 -88q-74 -176 -249 -274.5t-404 -98.5z" />
    <glyph glyph-name="Dcaron" unicode="&#x10e;" horiz-adv-x="1964" 
d="M1147 2062h239l-331 -342h-281l-332 342h240q100 -76 233 -186q111 92 232 186zM961 0h-732v1597h709q187 0 339.5 -40.5t257 -112t176 -171.5t104 -216t32.5 -248q0 -178 -60.5 -327t-173 -256t-280 -166.5t-372.5 -59.5zM502 238h442q107 0 198.5 19t169.5 61.5
t133.5 106.5t86.5 158t31 212q0 565 -691 565h-370v-1122z" />
    <glyph glyph-name="dcaron" unicode="&#x10f;" horiz-adv-x="1642" 
d="M1710 1120h-154l177 277q-55 20 -85 60t-30 89q0 66 53 113t127 47q72 0 124 -46.5t52 -111.5q0 -50 -37.5 -111t-176.5 -249q-10 -14 -16 -22t-16 -21.5t-18 -24.5zM727 -35q-185 0 -328 78t-221 215t-78 311q0 182 84.5 320.5t225.5 210t315 71.5q151 0 270.5 -55
t190.5 -149h6v671h256v-1282q0 -130 10 -205.5t33 -150.5h-254q-32 99 -29 170h-6q-75 -102 -200.5 -153.5t-274.5 -51.5zM776 197q180 0 301 105.5t121 268.5q0 162 -122 266.5t-300 104.5t-293.5 -105t-115.5 -268q0 -162 115.5 -267t293.5 -105z" />
    <glyph glyph-name="Dcroat" unicode="&#x110;" horiz-adv-x="1964" 
d="M229 1597h709q187 0 339.5 -40.5t257 -112t176 -171.5t104 -216t32.5 -248q0 -178 -60.5 -327t-173 -256t-280 -166.5t-372.5 -59.5h-732v694h-227v207h227v696zM944 238q107 0 198.5 19t169.5 61.5t133.5 106.5t86.5 158t31 212q0 565 -691 565h-370v-459h522v-207h-522
v-456h442z" />
    <glyph glyph-name="dcroat" unicode="&#x111;" horiz-adv-x="1642" 
d="M1765 1468v-184h-317v-928q0 -130 10 -205.5t33 -150.5h-254q-32 99 -29 170h-6q-75 -102 -200.5 -153.5t-274.5 -51.5q-185 0 -328 78t-221 215t-78 311q0 182 84.5 320.5t225.5 210t315 71.5q151 0 270.5 -55t190.5 -149h6v317h-328v184h328v170h256v-170h317zM776 197
q180 0 301 105.5t121 268.5q0 162 -122 266.5t-300 104.5t-293.5 -105t-115.5 -268q0 -162 115.5 -267t293.5 -105z" />
    <glyph glyph-name="Emacron" unicode="&#x112;" horiz-adv-x="1605" 
d="M1255 1784h-856v184h856v-184zM1483 0h-1254v1597h1229v-237h-956v-422h907v-248h-907v-450h981v-240z" />
    <glyph glyph-name="emacron" unicode="&#x113;" horiz-adv-x="1421" 
d="M1126 1356h-825v176h825v-176zM737 -35q-137 0 -256.5 43.5t-205.5 120.5t-135.5 190t-49.5 246q0 263 178.5 434.5t454.5 171.5q88 0 172 -20t162.5 -66.5t137 -113.5t93.5 -169t35 -227v-90h-979q13 -139 123 -221t270 -82q126 0 221.5 57.5t141.5 157.5l233 -90
q-69 -155 -227 -248.5t-369 -93.5zM354 692h713q-6 70 -37.5 123.5t-80.5 85t-107 47t-123 15.5q-143 0 -239.5 -75.5t-125.5 -195.5z" />
    <glyph glyph-name="Edotaccent" unicode="&#x116;" horiz-adv-x="1605" 
d="M829 1763q-75 0 -126.5 47t-51.5 115q0 64 52 110t126 46q71 0 121.5 -46t50.5 -110q0 -68 -50 -115t-122 -47zM1483 0h-1254v1597h1229v-237h-956v-422h907v-248h-907v-450h981v-240z" />
    <glyph glyph-name="edotaccent" unicode="&#x117;" horiz-adv-x="1421" 
d="M719 1346q-75 0 -125.5 46.5t-50.5 114.5q0 64 51 110t125 46q71 0 121.5 -46t50.5 -110q0 -67 -50 -114t-122 -47zM737 -35q-137 0 -256.5 43.5t-205.5 120.5t-135.5 190t-49.5 246q0 263 178.5 434.5t454.5 171.5q88 0 172 -20t162.5 -66.5t137 -113.5t93.5 -169
t35 -227v-90h-979q13 -139 123 -221t270 -82q126 0 221.5 57.5t141.5 157.5l233 -90q-69 -155 -227 -248.5t-369 -93.5zM354 692h713q-6 70 -37.5 123.5t-80.5 85t-107 47t-123 15.5q-143 0 -239.5 -75.5t-125.5 -195.5z" />
    <glyph glyph-name="Eogonek" unicode="&#x118;" horiz-adv-x="1605" 
d="M1475 -305q57 0 106 12v-153q-67 -17 -141 -17q-95 0 -172 25.5t-126.5 80t-49.5 130.5q0 68 52.5 127.5t147.5 99.5h-1063v1597h1229v-237h-956v-422h907v-248h-907v-450h981v-240q-105 -24 -155 -73.5t-50 -98.5q0 -53 53.5 -93t143.5 -40z" />
    <glyph glyph-name="eogonek" unicode="&#x119;" horiz-adv-x="1421" 
d="M915 -14q-74 -29 -111.5 -72t-37.5 -88q0 -54 51 -88.5t133 -34.5q54 0 111 16v-168q-66 -14 -135 -14q-147 0 -244.5 62t-97.5 174q0 119 127 192q-177 5 -317.5 80t-222 211t-81.5 309q0 263 178.5 434.5t454.5 171.5q88 0 172 -20t162.5 -66.5t137 -113.5t93.5 -169
t35 -227v-90h-979q13 -139 123 -221t270 -82q126 0 221.5 57.5t141.5 157.5l233 -90q-53 -119 -162 -203.5t-256 -117.5zM719 963q-143 0 -239.5 -75.5t-125.5 -195.5h713q-6 70 -37.5 123.5t-80.5 85t-107 47t-123 15.5z" />
    <glyph glyph-name="Ecaron" unicode="&#x11a;" horiz-adv-x="1605" 
d="M1059 2062h239l-331 -342h-281l-332 342h240q100 -76 233 -186q111 92 232 186zM1483 0h-1254v1597h1229v-237h-956v-422h907v-248h-907v-450h981v-240z" />
    <glyph glyph-name="ecaron" unicode="&#x11b;" horiz-adv-x="1421" 
d="M858 1290h-283l-356 379h242q203 -172 256 -217q88 76 256 217h241zM737 -35q-137 0 -256.5 43.5t-205.5 120.5t-135.5 190t-49.5 246q0 263 178.5 434.5t454.5 171.5q88 0 172 -20t162.5 -66.5t137 -113.5t93.5 -169t35 -227v-90h-979q13 -139 123 -221t270 -82
q126 0 221.5 57.5t141.5 157.5l233 -90q-69 -155 -227 -248.5t-369 -93.5zM354 692h713q-6 70 -37.5 123.5t-80.5 85t-107 47t-123 15.5q-143 0 -239.5 -75.5t-125.5 -195.5z" />
    <glyph glyph-name="Gbreve" unicode="&#x11e;" horiz-adv-x="2148" 
d="M1053 1718q-205 0 -334.5 103t-134.5 252h221q5 -71 73.5 -125t174.5 -54q104 0 171 53.5t72 125.5h224q-5 -147 -135 -251t-332 -104zM1061 -35q-204 0 -380 62t-300 171t-195 263.5t-71 333.5q0 152 49.5 285t138.5 233t209 172t265 108.5t302 36.5q296 0 533 -133.5
t330 -357.5l-248 -97q-84 159 -244 251.5t-371 92.5q-139 0 -262 -41t-216 -116t-147.5 -189t-54.5 -252q0 -122 42.5 -221.5t112 -165t163 -110t190.5 -63.5t199 -19q250 0 418 108t196 283h-583v213h856v-813h-213l-13 276h-12q-101 -151 -276.5 -231t-417.5 -80z" />
    <glyph glyph-name="gbreve" unicode="&#x11f;" horiz-adv-x="1640" 
d="M803 1270q-206 0 -327.5 110t-129.5 285h215q3 -92 70 -154.5t178 -62.5t178 61.5t70 155.5h215q-8 -175 -132 -285t-337 -110zM791 -483q-490 0 -633 327l233 80q95 -200 393 -200q89 0 161 22.5t128 69t86.5 124.5t30.5 183v78h-6q-72 -100 -192.5 -148.5t-264.5 -48.5
q-142 0 -261.5 46.5t-199.5 126.5t-124 186t-44 225q0 126 48 235t131 185t198 119.5t246 43.5q153 0 275.5 -56t193.5 -152h4v176h252v-1016q0 -135 -34.5 -240.5t-93.5 -173.5t-144 -112t-178.5 -62t-204.5 -18zM774 236q178 0 300 103t122 253t-122 250t-300 100
q-177 0 -293 -100.5t-116 -249.5q0 -150 116.5 -253t292.5 -103z" />
    <glyph glyph-name="Gdotaccent" unicode="&#x120;" horiz-adv-x="2148" 
d="M1053 1763q-75 0 -127 47t-52 115q0 64 52.5 110t126.5 46q71 0 121.5 -46t50.5 -110q0 -68 -50 -115t-122 -47zM1061 -35q-204 0 -380 62t-300 171t-195 263.5t-71 333.5q0 152 49.5 285t138.5 233t209 172t265 108.5t302 36.5q296 0 533 -133.5t330 -357.5l-248 -97
q-84 159 -244 251.5t-371 92.5q-139 0 -262 -41t-216 -116t-147.5 -189t-54.5 -252q0 -122 42.5 -221.5t112 -165t163 -110t190.5 -63.5t199 -19q250 0 418 108t196 283h-583v213h856v-813h-213l-13 276h-12q-101 -151 -276.5 -231t-417.5 -80z" />
    <glyph glyph-name="gdotaccent" unicode="&#x121;" horiz-adv-x="1640" 
d="M809 1346q-75 0 -125.5 46.5t-50.5 114.5q0 64 51 110t125 46q71 0 121.5 -46t50.5 -110q0 -67 -50 -114t-122 -47zM791 -483q-490 0 -633 327l233 80q95 -200 393 -200q89 0 161 22.5t128 69t86.5 124.5t30.5 183v78h-6q-72 -100 -192.5 -148.5t-264.5 -48.5
q-142 0 -261.5 46.5t-199.5 126.5t-124 186t-44 225q0 126 48 235t131 185t198 119.5t246 43.5q153 0 275.5 -56t193.5 -152h4v176h252v-1016q0 -135 -34.5 -240.5t-93.5 -173.5t-144 -112t-178.5 -62t-204.5 -18zM774 236q178 0 300 103t122 253t-122 250t-300 100
q-177 0 -293 -100.5t-116 -249.5q0 -150 116.5 -253t292.5 -103z" />
    <glyph glyph-name="uni0122" unicode="&#x122;" horiz-adv-x="2148" 
d="M1061 -35q-204 0 -380 62t-300 171t-195 263.5t-71 333.5q0 152 49.5 285t138.5 233t209 172t265 108.5t302 36.5q296 0 533 -133.5t330 -357.5l-248 -97q-84 159 -244 251.5t-371 92.5q-139 0 -262 -41t-216 -116t-147.5 -189t-54.5 -252q0 -122 42.5 -221.5t112 -165
t163 -110t190.5 -63.5t199 -19q250 0 418 108t196 283h-583v213h856v-813h-213l-13 276h-12q-101 -151 -276.5 -231t-417.5 -80zM1036 -610h-135l137 223q-53 19 -82.5 54.5t-29.5 80.5q0 61 46 101t115 40q68 0 113 -39.5t45 -99.5q0 -16 -2.5 -30.5t-11 -33.5t-17 -34.5
t-28.5 -45.5t-37 -54t-51 -72.5t-62 -89.5z" />
    <glyph glyph-name="uni0123" unicode="&#x123;" horiz-adv-x="1640" 
d="M629 1409q0 17 2.5 31t11.5 34t18 35.5t31 48.5t39.5 58.5t55.5 79.5t69 98h150l-158 -248q46 -19 73 -54.5t27 -80.5q0 -61 -46.5 -101t-115.5 -40q-68 0 -112.5 39.5t-44.5 99.5zM791 -483q-490 0 -633 327l233 80q95 -200 393 -200q89 0 161 22.5t128 69t86.5 124.5
t30.5 183v78h-6q-72 -100 -192.5 -148.5t-264.5 -48.5q-142 0 -261.5 46.5t-199.5 126.5t-124 186t-44 225q0 126 48 235t131 185t198 119.5t246 43.5q153 0 275.5 -56t193.5 -152h4v176h252v-1016q0 -135 -34.5 -240.5t-93.5 -173.5t-144 -112t-178.5 -62t-204.5 -18z
M774 236q178 0 300 103t122 253t-122 250t-300 100q-177 0 -293 -100.5t-116 -249.5q0 -150 116.5 -253t292.5 -103z" />
    <glyph glyph-name="Hbar" unicode="&#x126;" horiz-adv-x="1988" 
d="M1759 1327h174v-199h-174v-1128h-272v670h-985v-670h-273v1128h-174v199h174v270h273v-270h985v270h272v-270zM502 920h985v208h-985v-208z" />
    <glyph glyph-name="hbar" unicode="&#x127;" horiz-adv-x="1564" 
d="M901 1171q76 0 145.5 -16t132.5 -51.5t109 -87.5t73.5 -128.5t27.5 -170.5v-717h-256v610q0 146 -83.5 239t-232.5 93q-166 0 -267 -91.5t-101 -248.5v-602h-254v1280h-246v184h246v174h254v-174h401v-184h-401v-324h6q75 110 191 162.5t255 52.5z" />
    <glyph glyph-name="Imacron" unicode="&#x12a;" horiz-adv-x="731" 
d="M791 1784h-857v184h857v-184zM502 0h-273v1597h273v-1597z" />
    <glyph glyph-name="imacron" unicode="&#x12b;" horiz-adv-x="643" 
d="M733 1343h-825v177h825v-177zM449 0h-254v1139h254v-1139z" />
    <glyph glyph-name="Iogonek" unicode="&#x12e;" horiz-adv-x="731" 
d="M496 -305q57 0 106 12v-153q-67 -17 -141 -17q-95 0 -172 25.5t-126.5 80t-49.5 130.5q0 68 52.5 127.5t147.5 99.5h-84v1597h273v-1597h2q-105 -24 -155 -73.5t-50 -98.5q0 -53 53.5 -93t143.5 -40z" />
    <glyph glyph-name="iogonek" unicode="&#x12f;" horiz-adv-x="643" 
d="M324 1333q-75 0 -126 47t-51 115q0 64 51.5 110t125.5 46q71 0 121.5 -46t50.5 -110q0 -68 -50 -115t-122 -47zM410 -297q53 0 110 16v-168q-66 -14 -135 -14q-147 0 -244.5 62t-97.5 174q0 76 54.5 135t148.5 92h-51v1139h254v-1139h-25q-100 -26 -149.5 -73.5
t-49.5 -100.5q0 -54 51.5 -88.5t133.5 -34.5z" />
    <glyph glyph-name="Idotaccent" unicode="&#x130;" horiz-adv-x="731" 
d="M365 1763q-75 0 -127 47t-52 115q0 64 52.5 110t126.5 46q71 0 121.5 -46t50.5 -110q0 -68 -50 -115t-122 -47zM502 0h-273v1597h273v-1597z" />
    <glyph glyph-name="dotlessi" unicode="&#x131;" horiz-adv-x="643" 
d="M449 0h-254v1139h254v-1139z" />
    <glyph glyph-name="uni0136" unicode="&#x136;" horiz-adv-x="1701" 
d="M502 0h-273v1597h273v-757h8q410 380 850 757h319l-761 -696q85 -95 279 -314t331.5 -374t191.5 -213h-329q-68 73 -246.5 269t-415.5 448q-37 -36 -227 -211v-506zM866 -610h-135l137 223q-53 19 -82.5 54.5t-29.5 80.5q0 61 46.5 101t115.5 40q68 0 112.5 -39.5
t44.5 -99.5q0 -16 -2.5 -30.5t-11 -33.5t-17 -34.5t-28.5 -45.5t-37 -54t-51 -72.5t-62 -89.5z" />
    <glyph glyph-name="uni0137" unicode="&#x137;" horiz-adv-x="1351" 
d="M1305 1139l-508 -463l581 -676h-299l-458 516l-170 -156v-360h-256v1638h256v-968h6q276 245 540 469h308zM717 -111q68 0 112.5 -39.5t44.5 -99.5q0 -16 -2.5 -30.5t-11 -33.5t-16.5 -34.5t-28.5 -45.5t-37 -53.5t-50.5 -73t-62 -89.5h-136l138 223q-54 19 -83.5 54.5
t-29.5 80.5q0 61 46.5 101t115.5 40z" />
    <glyph glyph-name="Lacute" unicode="&#x139;" horiz-adv-x="1445" 
d="M588 2071h336l-400 -351h-231zM502 1597v-1357h911v-240h-1184v1597h273z" />
    <glyph glyph-name="lacute" unicode="&#x13a;" horiz-adv-x="643" 
d="M856 2111l-399 -350h-232l295 350h336zM449 0h-254v1638h254v-1638z" />
    <glyph glyph-name="uni013B" unicode="&#x13b;" horiz-adv-x="1445" 
d="M502 1597v-1357h911v-240h-1184v1597h273zM780 -111q68 0 113 -39.5t45 -99.5q0 -16 -2.5 -30.5t-11 -33.5t-17 -34.5t-28.5 -45.5t-37 -54t-51 -72.5t-62 -89.5h-135l137 223q-54 19 -83.5 54.5t-29.5 80.5q0 61 46.5 101t115.5 40z" />
    <glyph glyph-name="uni013C" unicode="&#x13c;" horiz-adv-x="643" 
d="M449 0h-254v1638h254v-1638zM281 -610h-136l138 223q-54 19 -83.5 54.5t-29.5 80.5q0 61 46.5 101t115.5 40q68 0 112.5 -39.5t44.5 -99.5q0 -16 -2.5 -30.5t-11 -33.5t-16.5 -34.5t-28.5 -45.5t-37 -53.5t-50.5 -73t-62 -89.5z" />
    <glyph glyph-name="Lcaron" unicode="&#x13d;" horiz-adv-x="1445" 
d="M926 1071h-154l176 277q-55 20 -84.5 60t-29.5 89q0 66 53 113t127 47q72 0 124 -46.5t52 -111.5q0 -50 -37.5 -111t-176.5 -249q-10 -14 -16 -22t-16 -21.5t-18 -24.5zM502 1597v-1357h911v-240h-1184v1597h273z" />
    <glyph glyph-name="lcaron" unicode="&#x13e;" horiz-adv-x="643" 
d="M735 1071h-153l176 277q-55 20 -85 60t-30 89q0 66 53 113t127 47q72 0 124 -46.5t52 -111.5q0 -48 -37 -108.5t-159 -227.5q-43 -58 -68 -92zM449 0h-254v1638h254v-1638z" />
    <glyph glyph-name="Lslash" unicode="&#x141;" horiz-adv-x="1445" 
d="M502 825v-585h911v-240h-1184v719l-200 -80v219l200 80v659h273v-553l303 121v-219z" />
    <glyph glyph-name="lslash" unicode="&#x142;" horiz-adv-x="643" 
d="M449 1110l247 156v-211l-247 -156v-899h-254v741l-226 -141v211l226 141v686h254v-528z" />
    <glyph glyph-name="Nacute" unicode="&#x143;" horiz-adv-x="2013" 
d="M1489 2071l-399 -351h-232l295 351h336zM502 0h-273v1597h287q724 -829 991 -1151h6v1151h271v-1597h-285q-40 46 -418 473t-575 660h-4v-1133z" />
    <glyph glyph-name="nacute" unicode="&#x144;" horiz-adv-x="1564" 
d="M1243 1661l-373 -383h-223l281 383h315zM449 0h-254v1139h249v-183h5q75 108 193.5 161.5t258.5 53.5q76 0 145.5 -16t132.5 -51.5t109 -87.5t73.5 -128.5t27.5 -170.5v-717h-256v610q0 146 -83.5 239t-232.5 93q-166 0 -267 -91t-101 -249v-602z" />
    <glyph glyph-name="uni0145" unicode="&#x145;" horiz-adv-x="2013" 
d="M502 0h-273v1597h287q724 -829 991 -1151h6v1151h271v-1597h-285q-40 46 -418 473t-575 660h-4v-1133zM993 -610h-135l137 223q-53 19 -82.5 54.5t-29.5 80.5q0 61 46 101t115 40q68 0 113 -39.5t45 -99.5q0 -16 -2.5 -30.5t-11 -33.5t-17 -34.5t-28.5 -45.5t-37 -54
t-51 -72.5t-62 -89.5z" />
    <glyph glyph-name="uni0146" unicode="&#x146;" horiz-adv-x="1564" 
d="M449 0h-254v1139h249v-183h5q75 108 193.5 161.5t258.5 53.5q76 0 145.5 -16t132.5 -51.5t109 -87.5t73.5 -128.5t27.5 -170.5v-717h-256v610q0 146 -83.5 239t-232.5 93q-166 0 -267 -91t-101 -249v-602zM793 -610h-136l138 223q-54 19 -83.5 54.5t-29.5 80.5
q0 61 46.5 101t115.5 40q68 0 112.5 -39.5t44.5 -99.5q0 -16 -2.5 -30.5t-11 -33.5t-16.5 -34.5t-28.5 -45.5t-37 -53.5t-50.5 -73t-62 -89.5z" />
    <glyph glyph-name="Ncaron" unicode="&#x147;" horiz-adv-x="2013" 
d="M1214 2062h240l-332 -342h-280l-332 342h240q100 -76 233 -186q126 104 231 186zM502 0h-273v1597h287q724 -829 991 -1151h6v1151h271v-1597h-285q-40 46 -418 473t-575 660h-4v-1133z" />
    <glyph glyph-name="ncaron" unicode="&#x148;" horiz-adv-x="1564" 
d="M918 1290h-283l-356 379h241q203 -172 256 -217q88 76 256 217h242zM449 0h-254v1139h249v-183h5q75 108 193.5 161.5t258.5 53.5q76 0 145.5 -16t132.5 -51.5t109 -87.5t73.5 -128.5t27.5 -170.5v-717h-256v610q0 146 -83.5 239t-232.5 93q-166 0 -267 -91t-101 -249
v-602z" />
    <glyph glyph-name="Eng" unicode="&#x14a;" horiz-adv-x="2013" 
d="M1249 -483q-89 0 -185 14.5t-149 32.5v215q105 -43 265 -43q325 0 325 258q-50 58 -429.5 486.5t-573.5 658.5v-1139h-273v1597h287q724 -829 991 -1151h6v1151h271v-1538q0 -542 -535 -542z" />
    <glyph glyph-name="eng" unicode="&#x14b;" horiz-adv-x="1564" 
d="M971 -483q-148 0 -266 47v213q113 -43 213 -43q45 0 79.5 9t57 22t38.5 36t23.5 41t11.5 48t4.5 46t0.5 46v628q0 146 -83.5 239t-232.5 93q-166 0 -267 -91t-101 -249v-602h-254v1139h249v-183h5q75 108 193.5 161.5t258.5 53.5q76 0 145.5 -16t132.5 -51.5t109.5 -87
t73.5 -127.5t27 -168v-735q0 -55 -1 -85.5t-9 -87.5t-23 -91t-45.5 -77.5t-73.5 -68t-111 -42t-155 -17.5z" />
    <glyph glyph-name="Omacron" unicode="&#x14c;" horiz-adv-x="2156" 
d="M1503 1784h-856v184h856v-184zM1077 -35q-196 0 -373 62t-307.5 170t-207 264.5t-76.5 335.5q0 238 130.5 430t351 297.5t484.5 105.5q199 0 377.5 -63.5t307.5 -173t204.5 -265t75.5 -331.5q0 -141 -48.5 -270t-137 -230.5t-207.5 -176.5t-266.5 -115t-307.5 -40z
M1081 209q184 0 338 75.5t245 211t91 301.5q0 165 -90 300.5t-244.5 212t-339.5 76.5t-341 -75t-248.5 -211t-92.5 -303q0 -169 93 -304.5t248.5 -209.5t340.5 -74z" />
    <glyph glyph-name="omacron" unicode="&#x14d;" horiz-adv-x="1585" 
d="M1204 1356h-825v176h825v-176zM793 -35q-306 0 -500.5 168.5t-194.5 433.5q0 131 51.5 243.5t142.5 191.5t220.5 124t280.5 45q201 0 359 -77t245.5 -214.5t87.5 -312.5t-87.5 -312t-245 -213.5t-359.5 -76.5zM793 195q188 0 307 104.5t119 267.5q0 165 -119 270
t-307 105q-187 0 -306.5 -105.5t-119.5 -269.5q0 -163 119.5 -267.5t306.5 -104.5z" />
    <glyph glyph-name="Ohungarumlaut" unicode="&#x150;" horiz-adv-x="2156" 
d="M1270 2068l-352 -348h-226l258 348h320zM1747 2068l-367 -348h-225l270 348h322zM1077 -35q-196 0 -373 62t-307.5 170t-207 264.5t-76.5 335.5q0 238 130.5 430t351 297.5t484.5 105.5q199 0 377.5 -63.5t307.5 -173t204.5 -265t75.5 -331.5q0 -141 -48.5 -270
t-137 -230.5t-207.5 -176.5t-266.5 -115t-307.5 -40zM1081 209q184 0 338 75.5t245 211t91 301.5q0 165 -90 300.5t-244.5 212t-339.5 76.5t-341 -75t-248.5 -211t-92.5 -303q0 -169 93 -304.5t248.5 -209.5t340.5 -74z" />
    <glyph glyph-name="ohungarumlaut" unicode="&#x151;" horiz-adv-x="1585" 
d="M973 1673l-359 -395h-217l265 395h311zM1454 1673l-373 -395h-217l277 395h313zM793 -35q-306 0 -500.5 168.5t-194.5 433.5q0 131 51.5 243.5t142.5 191.5t220.5 124t280.5 45q201 0 359 -77t245.5 -214.5t87.5 -312.5t-87.5 -312t-245 -213.5t-359.5 -76.5zM793 195
q188 0 307 104.5t119 267.5q0 165 -119 270t-307 105q-187 0 -306.5 -105.5t-119.5 -269.5q0 -163 119.5 -267.5t306.5 -104.5z" />
    <glyph glyph-name="OE" unicode="&#x152;" horiz-adv-x="3112" 
d="M1075 -35q-196 0 -372.5 62t-306.5 170t-206.5 264.5t-76.5 335.5t76 335t206 264.5t306.5 171t373.5 62.5q213 0 391 -68t299 -192v227h1203v-237h-949v-422h899v-248h-899v-450h973v-240h-1227v225q-121 -124 -299.5 -192t-390.5 -68zM1077 209q183 0 336.5 75
t244.5 211t91 304t-90 303.5t-243 209.5t-337 74q-186 0 -341.5 -75t-247 -211t-91.5 -303q0 -169 92 -304.5t246.5 -209.5t339.5 -74z" />
    <glyph glyph-name="oe" unicode="&#x153;" horiz-adv-x="2641" 
d="M793 -35q-306 0 -500.5 168.5t-194.5 433.5q0 131 51.5 243.5t142.5 191.5t220.5 124t280.5 45q182 0 325 -60.5t228 -168.5q81 107 224 168t322 61q94 0 183 -20t173 -66.5t147.5 -113.5t101.5 -169.5t38 -226.5v-47h-1067q10 -154 134.5 -250t300.5 -96q140 0 246 57.5
t159 157.5l236 -90q-73 -155 -244.5 -248.5t-396.5 -93.5q-183 0 -328 60t-229 168q-85 -107 -228 -167.5t-325 -60.5zM1479 686h790q-9 74 -46 129.5t-92.5 87t-118 47t-130.5 15.5q-156 0 -264.5 -76.5t-138.5 -202.5zM793 195q188 0 307 104.5t119 267.5q0 165 -119 270
t-307 105q-187 0 -306.5 -105.5t-119.5 -269.5q0 -163 119.5 -267.5t306.5 -104.5z" />
    <glyph glyph-name="Racute" unicode="&#x154;" horiz-adv-x="1714" 
d="M1280 2071l-399 -351h-232l295 351h336zM502 0h-273v1597h707q54 0 109.5 -5.5t120.5 -20.5t122.5 -38.5t112.5 -63t94.5 -90t63.5 -123.5t24 -160q0 -107 -36.5 -194t-101 -145.5t-146.5 -95t-179 -51.5v-2q82 -102 248 -304.5t248 -303.5h-305l-482 590h-327v-590z
M502 819h393q82 0 151 14.5t127.5 44.5t91.5 84.5t33 127.5q0 72 -34.5 126.5t-93.5 85.5t-130 46.5t-151 15.5h-387v-545z" />
    <glyph glyph-name="racute" unicode="&#x155;" horiz-adv-x="1040" 
d="M1036 1661l-372 -383h-224l281 383h315zM449 0h-254v1139h249v-193h11q53 98 163.5 161.5t247.5 63.5q83 0 144 -20v-270q-70 22 -168 22q-88 0 -158 -28t-113 -72t-71.5 -102.5t-39.5 -114.5t-11 -113v-473z" />
    <glyph glyph-name="uni0156" unicode="&#x156;" horiz-adv-x="1714" 
d="M502 0h-273v1597h707q54 0 109.5 -5.5t120.5 -20.5t122.5 -38.5t112.5 -63t94.5 -90t63.5 -123.5t24 -160q0 -107 -36.5 -194t-101 -145.5t-146.5 -95t-179 -51.5v-2q82 -102 248 -304.5t248 -303.5h-305l-482 590h-327v-590zM502 819h393q82 0 151 14.5t127.5 44.5
t91.5 84.5t33 127.5q0 72 -34.5 126.5t-93.5 85.5t-130 46.5t-151 15.5h-387v-545zM809 -610h-135l137 223q-54 19 -83.5 54.5t-29.5 80.5q0 61 46.5 101t115.5 40q68 0 113 -39.5t45 -99.5q0 -16 -2.5 -30.5t-11 -33.5t-17 -34.5t-28.5 -45.5t-37 -54t-51 -72.5t-62 -89.5z
" />
    <glyph glyph-name="uni0157" unicode="&#x157;" horiz-adv-x="1040" 
d="M449 0h-254v1139h249v-193h11q53 98 163.5 161.5t247.5 63.5q83 0 144 -20v-270q-70 22 -168 22q-88 0 -158 -28t-113 -72t-71.5 -102.5t-39.5 -114.5t-11 -113v-473zM272 -610h-135l137 223q-53 19 -82.5 54.5t-29.5 80.5q0 61 46.5 101t115.5 40q68 0 112.5 -39.5
t44.5 -99.5q0 -16 -2.5 -30.5t-11 -33.5t-17 -34.5t-28.5 -45.5t-37 -54t-51 -72.5t-62 -89.5z" />
    <glyph glyph-name="Rcaron" unicode="&#x158;" horiz-adv-x="1714" 
d="M1006 2062h239l-332 -342h-280l-332 342h240q100 -76 233 -186q111 92 232 186zM502 0h-273v1597h707q54 0 109.5 -5.5t120.5 -20.5t122.5 -38.5t112.5 -63t94.5 -90t63.5 -123.5t24 -160q0 -107 -36.5 -194t-101 -145.5t-146.5 -95t-179 -51.5v-2q82 -102 248 -304.5
t248 -303.5h-305l-482 590h-327v-590zM502 819h393q82 0 151 14.5t127.5 44.5t91.5 84.5t33 127.5q0 72 -34.5 126.5t-93.5 85.5t-130 46.5t-151 15.5h-387v-545z" />
    <glyph glyph-name="rcaron" unicode="&#x159;" horiz-adv-x="1040" 
d="M711 1290h-283l-356 379h241q203 -172 256 -217q88 76 256 217h242zM449 0h-254v1139h249v-193h11q53 98 163.5 161.5t247.5 63.5q83 0 144 -20v-270q-70 22 -168 22q-88 0 -158 -28t-113 -72t-71.5 -102.5t-39.5 -114.5t-11 -113v-473z" />
    <glyph glyph-name="Sacute" unicode="&#x15a;" horiz-adv-x="1599" 
d="M1221 2071l-400 -351h-231l295 351h336zM823 -35q-170 0 -316.5 50.5t-260.5 158.5t-162 262l252 84q28 -86 78.5 -149t115.5 -99.5t137 -53.5t154 -17q73 0 141 14t124.5 41.5t90 72.5t33.5 101q0 43 -22.5 79t-47 57t-83 43.5t-85 30.5t-98.5 26q-20 5 -30 8l-174 45
q-47 12 -86.5 23.5t-95.5 33t-100 45t-90 59.5t-77 76.5t-51 96t-20 118.5q0 140 90.5 246t235.5 159.5t317 53.5q241 0 416 -106t233 -269l-248 -96q-48 111 -155.5 174.5t-258.5 63.5q-149 0 -248.5 -57.5t-99.5 -147.5q0 -32 15 -61.5t35.5 -51t57 -42t63.5 -33
t72.5 -27.5t66.5 -20.5t61 -16.5l194 -51q180 -48 264 -87q240 -114 240 -339q0 -142 -88 -256t-243 -178t-347 -64z" />
    <glyph glyph-name="sacute" unicode="&#x15b;" horiz-adv-x="1247" 
d="M1081 1663l-372 -383h-224l281 383h315zM647 -35q-214 0 -370 88t-209 232l237 73q47 -95 140.5 -143.5t199.5 -48.5q39 0 78.5 7t77.5 22t62 43t24 65q0 27 -14.5 49.5t-33.5 36.5t-53.5 27.5t-58 20.5t-64.5 17l-12 3l-139 32q-51 12 -96.5 27.5t-100 44t-93.5 63
t-65 87t-26 114.5q0 106 69 186t177.5 120t236.5 40q186 0 321 -79.5t181 -204.5l-237 -74q-32 69 -103.5 114.5t-175.5 45.5q-92 0 -151.5 -35.5t-59.5 -93.5q0 -25 11.5 -46t35 -37.5t47 -28.5t60.5 -23.5t61 -17.5t62 -15l118 -27q146 -35 215 -72q160 -85 160 -249
q0 -162 -141 -262.5t-371 -100.5z" />
    <glyph glyph-name="Scedilla" unicode="&#x15e;" horiz-adv-x="1599" 
d="M1501 463q0 -135 -80 -245.5t-222 -176t-320 -74.5l-78 -88q30 10 78 10q102 0 169.5 -51t67.5 -137q0 -96 -87 -154.5t-222 -58.5q-99 0 -185 33.5t-139 91.5l88 96q42 -47 103 -70.5t125 -23.5q63 0 103 23t40 63q0 38 -37.5 61t-95.5 23q-61 0 -113 -27l-86 62
l117 149q-230 21 -404 140.5t-239 326.5l252 84q28 -86 78.5 -149t115.5 -99.5t137 -53.5t154 -17q73 0 141 14t124.5 41.5t90 72.5t33.5 101q0 43 -22.5 79t-47 57t-83 43.5t-85 30.5t-98.5 26q-20 5 -30 8l-174 45q-47 12 -86.5 23.5t-95.5 33t-100 45t-90 59.5t-77 76.5
t-51 96t-20 118.5q0 140 90.5 246t235.5 159.5t317 53.5q241 0 416 -106t233 -269l-248 -96q-48 111 -155.5 174.5t-258.5 63.5q-149 0 -248.5 -57.5t-99.5 -147.5q0 -32 15 -61.5t35.5 -51t57 -42t63.5 -33t72.5 -27.5t66.5 -20.5t61 -16.5l194 -51q180 -48 264 -87
q240 -114 240 -339z" />
    <glyph glyph-name="scedilla" unicode="&#x15f;" horiz-adv-x="1247" 
d="M1159 328q0 -154 -127.5 -253t-337.5 -108l-78 -88q30 10 78 10q102 0 170 -51t68 -137q0 -96 -87 -154.5t-222 -58.5q-99 0 -185 33.5t-139 91.5l88 96q42 -47 102.5 -70.5t124.5 -23.5q63 0 103.5 23t40.5 63q0 38 -37.5 61t-95.5 23q-61 0 -113 -27l-86 62l119 151
q-178 20 -304.5 104t-172.5 210l237 73q47 -95 140.5 -143.5t199.5 -48.5q39 0 78.5 7t77.5 22t62 43t24 65q0 27 -14.5 49.5t-33.5 36.5t-53.5 27.5t-58 20.5t-64.5 17l-12 3l-139 32q-51 12 -96.5 27.5t-100 44t-93.5 63t-65 87t-26 114.5q0 106 69 186t177.5 120
t236.5 40q186 0 321 -79.5t181 -204.5l-237 -74q-32 69 -103.5 114.5t-175.5 45.5q-92 0 -151.5 -35.5t-59.5 -93.5q0 -25 11.5 -46t35 -37.5t47 -28.5t60.5 -23.5t61 -17.5t62 -15l118 -27q146 -35 215 -72q160 -85 160 -249z" />
    <glyph glyph-name="Scaron" unicode="&#x160;" horiz-adv-x="1599" 
d="M1018 2062h239l-331 -342h-281l-332 342h240q100 -76 233 -186q111 92 232 186zM823 -35q-170 0 -316.5 50.5t-260.5 158.5t-162 262l252 84q28 -86 78.5 -149t115.5 -99.5t137 -53.5t154 -17q73 0 141 14t124.5 41.5t90 72.5t33.5 101q0 43 -22.5 79t-47 57t-83 43.5
t-85 30.5t-98.5 26q-20 5 -30 8l-174 45q-47 12 -86.5 23.5t-95.5 33t-100 45t-90 59.5t-77 76.5t-51 96t-20 118.5q0 140 90.5 246t235.5 159.5t317 53.5q241 0 416 -106t233 -269l-248 -96q-48 111 -155.5 174.5t-258.5 63.5q-149 0 -248.5 -57.5t-99.5 -147.5
q0 -32 15 -61.5t35.5 -51t57 -42t63.5 -33t72.5 -27.5t66.5 -20.5t61 -16.5l194 -51q180 -48 264 -87q240 -114 240 -339q0 -142 -88 -256t-243 -178t-347 -64z" />
    <glyph glyph-name="scaron" unicode="&#x161;" horiz-adv-x="1247" 
d="M754 1292h-283l-356 379h241q203 -172 256 -217q88 76 256 217h242zM647 -35q-214 0 -370 88t-209 232l237 73q47 -95 140.5 -143.5t199.5 -48.5q39 0 78.5 7t77.5 22t62 43t24 65q0 27 -14.5 49.5t-33.5 36.5t-53.5 27.5t-58 20.5t-64.5 17l-12 3l-139 32
q-51 12 -96.5 27.5t-100 44t-93.5 63t-65 87t-26 114.5q0 106 69 186t177.5 120t236.5 40q186 0 321 -79.5t181 -204.5l-237 -74q-32 69 -103.5 114.5t-175.5 45.5q-92 0 -151.5 -35.5t-59.5 -93.5q0 -25 11.5 -46t35 -37.5t47 -28.5t60.5 -23.5t61 -17.5t62 -15l118 -27
q146 -35 215 -72q160 -85 160 -249q0 -162 -141 -262.5t-371 -100.5z" />
    <glyph glyph-name="uni0162" unicode="&#x162;" horiz-adv-x="1568" 
d="M920 0h-58l-106 -121q30 10 78 10q102 0 169.5 -51t67.5 -137q0 -96 -87 -154.5t-222 -58.5q-99 0 -185 33.5t-139 91.5l88 96q42 -47 103 -70.5t125 -23.5q63 0 103 23t40 63q0 38 -37.5 61t-95.5 23q-61 0 -113 -27l-86 62l142 180h-58v1360h-614v237h1501v-237h-616
v-1360z" />
    <glyph glyph-name="uni0163" unicode="&#x163;" horiz-adv-x="1011" 
d="M948 1139v-219h-393v-480q0 -33 0.5 -50.5t4 -48.5t10 -49t20.5 -41t33.5 -35t50 -21t69.5 -9q96 0 205 45v-219q-100 -47 -252 -47q-39 0 -57 2l-78 -88q30 10 78 10q102 0 170 -51t68 -137q0 -96 -87.5 -154.5t-222.5 -58.5q-99 0 -184.5 33.5t-138.5 91.5l88 96
q42 -47 102.5 -70.5t124.5 -23.5q63 0 103 23t40 63q0 38 -37.5 61t-95.5 23q-60 0 -112 -27l-86 62l135 174q-43 15 -76.5 38.5t-55 47t-37 57t-22.5 58t-11 60t-4.5 53.5t-0.5 48v564h-270v219h270v327h256v-327h393z" />
    <glyph glyph-name="Tcaron" unicode="&#x164;" horiz-adv-x="1568" 
d="M1018 2062h239l-331 -342h-281l-332 342h240q100 -76 233 -186q111 92 232 186zM920 0h-271v1360h-614v237h1501v-237h-616v-1360z" />
    <glyph glyph-name="tcaron" unicode="&#x165;" horiz-adv-x="1011" 
d="M1362 1511q0 -50 -38.5 -113.5t-169.5 -241.5q-11 -15 -17.5 -23.5t-17 -23t-19.5 -26.5h-152v-163h-393v-480q0 -33 0.5 -50.5t4 -48.5t10 -49t20.5 -41t33.5 -35t50 -21t69.5 -9q96 0 205 45v-219q-100 -47 -252 -47q-64 0 -118 10t-92.5 25t-69 40t-49.5 47.5t-33 56
t-20.5 57t-10 58t-4 51.5t-0.5 46v564h-270v219h270v327h256v-327h393v-49l172 270q-54 20 -83 60t-29 89q0 66 52.5 113t125.5 47q72 0 124 -46.5t52 -111.5z" />
    <glyph glyph-name="Tbar" unicode="&#x166;" horiz-adv-x="1568" 
d="M1536 1597v-237h-616v-459h376v-207h-376v-694h-271v694h-375v207h375v459h-614v237h1501z" />
    <glyph glyph-name="tbar" unicode="&#x167;" horiz-adv-x="1011" 
d="M948 1139v-219h-393v-228h379v-184h-379v-68q0 -33 0.5 -50.5t4 -48.5t10 -49t20.5 -41t33.5 -35t50 -21t69.5 -9q96 0 205 45v-219q-100 -47 -252 -47q-64 0 -118 10t-92.5 25t-69 40t-49.5 47.5t-33 56t-20.5 57t-10 58t-4 51.5t-0.5 46v152h-266v184h266v228h-270v219
h270v327h256v-327h393z" />
    <glyph glyph-name="Umacron" unicode="&#x16a;" horiz-adv-x="1839" 
d="M1348 1784h-856v184h856v-184zM915 -35q-156 0 -279.5 38t-202 100t-130 147.5t-73 174.5t-21.5 187v985h272v-964q0 -203 110.5 -314.5t328.5 -111.5q217 0 328.5 112t111.5 314v964h270v-985q0 -94 -19 -180t-70 -173t-129 -150.5t-205.5 -103.5t-291.5 -40z" />
    <glyph glyph-name="umacron" unicode="&#x16b;" horiz-adv-x="1542" 
d="M1169 1356h-825v176h825v-176zM668 -35q-103 0 -191 27.5t-156 82.5t-106.5 144.5t-38.5 204.5v715h256v-629q0 -151 86 -233t221 -82q161 0 256 94.5t95 228.5v621h256v-783q0 -126 10.5 -201.5t34.5 -154.5h-256q-31 102 -31 160h-4q-140 -195 -432 -195z" />
    <glyph glyph-name="Uring" unicode="&#x16e;" horiz-adv-x="1839" 
d="M920 1712q-124 0 -208.5 69.5t-84.5 170.5q0 102 84 170.5t209 68.5q124 0 207 -67.5t83 -171.5t-83 -172t-207 -68zM920 1851q54 0 91.5 29t37.5 72q0 42 -37 70t-92 28q-57 0 -94.5 -27.5t-37.5 -70.5t37.5 -72t94.5 -29zM915 -35q-156 0 -279.5 38t-202 100
t-130 147.5t-73 174.5t-21.5 187v985h272v-964q0 -203 110.5 -314.5t328.5 -111.5q217 0 328.5 112t111.5 314v964h270v-985q0 -94 -19 -180t-70 -173t-129 -150.5t-205.5 -103.5t-291.5 -40z" />
    <glyph glyph-name="uring" unicode="&#x16f;" horiz-adv-x="1542" 
d="M758 1253q-124 0 -208.5 69.5t-84.5 170.5q0 103 84 171.5t209 68.5q124 0 207.5 -68t83.5 -172t-83.5 -172t-207.5 -68zM758 1393q54 0 91.5 28.5t37.5 71.5q0 42 -37 70t-92 28q-57 0 -94 -27.5t-37 -70.5t37 -71.5t94 -28.5zM668 -35q-103 0 -191 27.5t-156 82.5
t-106.5 144.5t-38.5 204.5v715h256v-629q0 -151 86 -233t221 -82q161 0 256 94.5t95 228.5v621h256v-783q0 -126 10.5 -201.5t34.5 -154.5h-256q-31 102 -31 160h-4q-140 -195 -432 -195z" />
    <glyph glyph-name="Uhungarumlaut" unicode="&#x170;" horiz-adv-x="1839" 
d="M1114 2068l-352 -348h-225l258 348h319zM1591 2068l-366 -348h-226l271 348h321zM915 -35q-156 0 -279.5 38t-202 100t-130 147.5t-73 174.5t-21.5 187v985h272v-964q0 -203 110.5 -314.5t328.5 -111.5q217 0 328.5 112t111.5 314v964h270v-985q0 -94 -19 -180t-70 -173
t-129 -150.5t-205.5 -103.5t-291.5 -40z" />
    <glyph glyph-name="uhungarumlaut" unicode="&#x171;" horiz-adv-x="1542" 
d="M938 1673l-358 -395h-218l265 395h311zM1419 1673l-372 -395h-218l277 395h313zM668 -35q-103 0 -191 27.5t-156 82.5t-106.5 144.5t-38.5 204.5v715h256v-629q0 -151 86 -233t221 -82q161 0 256 94.5t95 228.5v621h256v-783q0 -126 10.5 -201.5t34.5 -154.5h-256
q-31 102 -31 160h-4q-140 -195 -432 -195z" />
    <glyph glyph-name="Uogonek" unicode="&#x172;" horiz-adv-x="1839" 
d="M1360 633v964h270v-985q0 -84 -15.5 -162t-55.5 -158.5t-102 -143.5t-161.5 -110t-226.5 -63q-65 -28 -96 -68.5t-31 -78.5q0 -53 53.5 -93t143.5 -40q57 0 106 12v-153q-67 -17 -141 -17q-95 0 -172 25.5t-126.5 80t-49.5 130.5q0 113 133 192q-149 3 -268 42.5
t-195 102t-126 147t-70.5 172t-20.5 183.5v985h272v-964q0 -203 110.5 -314.5t328.5 -111.5q217 0 328.5 112t111.5 314z" />
    <glyph glyph-name="uogonek" unicode="&#x173;" horiz-adv-x="1542" 
d="M1303 -297q53 0 110 16v-168q-66 -14 -135 -14q-147 0 -244.5 62t-97.5 174q0 76 54.5 135t148.5 92h-4q-31 102 -31 160h-4q-140 -195 -432 -195q-103 0 -191 27.5t-156 82.5t-106.5 144.5t-38.5 204.5v715h256v-629q0 -151 86 -233t221 -82q161 0 256 94.5t95 228.5
v621h256v-783q0 -126 10.5 -201.5t34.5 -154.5h-74q-100 -26 -149.5 -73.5t-49.5 -100.5q0 -54 51.5 -88.5t133.5 -34.5z" />
    <glyph glyph-name="Wcircumflex" unicode="&#x174;" horiz-adv-x="2822" 
d="M1546 2062l336 -342h-237q-128 97 -232 183q-72 -60 -235 -183h-238l336 342h270zM950 0h-336l-581 1597h303q272 -726 448 -1237h4q390 1030 467 1237h308q333 -873 471 -1237h6q43 120 141 399t166 466.5t137 371.5h305l-581 -1597h-336q-274 686 -459 1194h-4
q-292 -791 -459 -1194z" />
    <glyph glyph-name="wcircumflex" unicode="&#x175;" horiz-adv-x="2269" 
d="M874 1278h-241l356 367h283l356 -367h-242q-155 130 -256 217q-163 -139 -256 -217zM793 0h-291l-473 1139h288l340 -824h9l352 824h235l355 -824h6l338 824h286l-471 -1139h-299q-26 61 -69.5 160.5t-67 155t-75 178.5t-119.5 290h-4q-155 -369 -340 -784z" />
    <glyph glyph-name="Ycircumflex" unicode="&#x176;" horiz-adv-x="1708" 
d="M991 2062l336 -342h-237q-128 97 -232 183q-72 -60 -235 -183h-238l336 342h270zM989 0h-270v559q-81 121 -242.5 365t-282.5 426.5t-167 246.5h292l533 -784h4q52 77 128 191t165.5 245t241.5 348h290q-58 -86 -692 -1036v-561z" />
    <glyph glyph-name="ycircumflex" unicode="&#x177;" horiz-adv-x="1390" 
d="M430 1278h-242l357 367h282l357 -367h-242q-155 130 -256 217q-163 -139 -256 -217zM631 -451h-262l196 412l-540 1178h280q177 -373 391 -854h4q208 466 392 854h274z" />
    <glyph glyph-name="Ydieresis" unicode="&#x178;" horiz-adv-x="1708" 
d="M596 1747q-71 0 -120.5 45.5t-49.5 112.5q0 62 50 106.5t120 44.5t119 -44.5t49 -106.5q0 -67 -48.5 -112.5t-119.5 -45.5zM1116 1747q-73 0 -122.5 45t-49.5 113q0 62 49.5 106.5t122.5 44.5q68 0 117 -45t49 -106q0 -67 -49 -112.5t-117 -45.5zM989 0h-270v559
q-81 121 -242.5 365t-282.5 426.5t-167 246.5h292l533 -784h4q52 77 128 191t165.5 245t241.5 348h290q-58 -86 -692 -1036v-561z" />
    <glyph glyph-name="Zacute" unicode="&#x179;" horiz-adv-x="1642" 
d="M1313 2071l-400 -351h-231l295 351h336zM1559 0h-1477v242q557 559 1116 1116v4q-719 0 -1079 -2v237h1419v-243q-128 -127 -519 -512t-605 -598v-4h1145v-240z" />
    <glyph glyph-name="zacute" unicode="&#x17a;" horiz-adv-x="1257" 
d="M1094 1661l-373 -383h-223l280 383h316zM1190 0h-1110v203l715 712h-684v224h1028v-203l-719 -713h770v-223z" />
    <glyph glyph-name="Zdotaccent" unicode="&#x17b;" horiz-adv-x="1642" 
d="M793 1763q-75 0 -127 47t-52 115q0 64 52.5 110t126.5 46q71 0 121.5 -46t50.5 -110q0 -68 -50 -115t-122 -47zM1559 0h-1477v242q557 559 1116 1116v4q-719 0 -1079 -2v237h1419v-243q-128 -127 -519 -512t-605 -598v-4h1145v-240z" />
    <glyph glyph-name="zdotaccent" unicode="&#x17c;" horiz-adv-x="1257" 
d="M629 1346q-75 0 -125.5 46.5t-50.5 114.5q0 64 51 110t125 46q71 0 121.5 -46t50.5 -110q0 -67 -50 -114t-122 -47zM1190 0h-1110v203l715 712h-684v224h1028v-203l-719 -713h770v-223z" />
    <glyph glyph-name="Zcaron" unicode="&#x17d;" horiz-adv-x="1642" 
d="M1038 2062h240l-332 -342h-280l-332 342h239q113 -86 234 -186q126 104 231 186zM1559 0h-1477v242q557 559 1116 1116v4q-719 0 -1079 -2v237h1419v-243q-128 -127 -519 -512t-605 -598v-4h1145v-240z" />
    <glyph glyph-name="zcaron" unicode="&#x17e;" horiz-adv-x="1257" 
d="M768 1290h-283l-356 379h242q203 -172 256 -217q88 76 256 217h241zM1190 0h-1110v203l715 712h-684v224h1028v-203l-719 -713h770v-223z" />
    <glyph glyph-name="uni0218" unicode="&#x218;" horiz-adv-x="1599" 
d="M823 -35q-170 0 -316.5 50.5t-260.5 158.5t-162 262l252 84q28 -86 78.5 -149t115.5 -99.5t137 -53.5t154 -17q73 0 141 14t124.5 41.5t90 72.5t33.5 101q0 43 -22.5 79t-47 57t-83 43.5t-85 30.5t-98.5 26q-20 5 -30 8l-174 45q-47 12 -86.5 23.5t-95.5 33t-100 45
t-90 59.5t-77 76.5t-51 96t-20 118.5q0 140 90.5 246t235.5 159.5t317 53.5q241 0 416 -106t233 -269l-248 -96q-48 111 -155.5 174.5t-258.5 63.5q-149 0 -248.5 -57.5t-99.5 -147.5q0 -32 15 -61.5t35.5 -51t57 -42t63.5 -33t72.5 -27.5t66.5 -20.5t61 -16.5l194 -51
q180 -48 264 -87q240 -114 240 -339q0 -142 -88 -256t-243 -178t-347 -64zM778 -610h-135l137 223q-53 19 -82.5 54.5t-29.5 80.5q0 61 46 101t115 40q68 0 113 -39.5t45 -99.5q0 -16 -2.5 -30.5t-11 -33.5t-17 -34.5t-28.5 -45.5t-37 -54t-51 -72.5t-62 -89.5z" />
    <glyph glyph-name="uni0219" unicode="&#x219;" horiz-adv-x="1247" 
d="M647 -35q-214 0 -370 88t-209 232l237 73q47 -95 140.5 -143.5t199.5 -48.5q39 0 78.5 7t77.5 22t62 43t24 65q0 27 -14.5 49.5t-33.5 36.5t-53.5 27.5t-58 20.5t-64.5 17l-12 3l-139 32q-51 12 -96.5 27.5t-100 44t-93.5 63t-65 87t-26 114.5q0 106 69 186t177.5 120
t236.5 40q186 0 321 -79.5t181 -204.5l-237 -74q-32 69 -103.5 114.5t-175.5 45.5q-92 0 -151.5 -35.5t-59.5 -93.5q0 -25 11.5 -46t35 -37.5t47 -28.5t60.5 -23.5t61 -17.5t62 -15l118 -27q146 -35 215 -72q160 -85 160 -249q0 -162 -141 -262.5t-371 -100.5zM594 -610
h-135l137 223q-54 19 -83.5 54.5t-29.5 80.5q0 61 46.5 101t115.5 40q68 0 113 -39.5t45 -99.5q0 -16 -2.5 -30.5t-11 -33.5t-17 -34.5t-28.5 -45.5t-37 -54t-51 -72.5t-62 -89.5z" />
    <glyph glyph-name="uni021A" unicode="&#x21a;" horiz-adv-x="1568" 
d="M920 0h-271v1360h-614v237h1501v-237h-616v-1360zM733 -610h-135l137 223q-53 19 -82.5 54.5t-29.5 80.5q0 61 46 101t115 40q68 0 113 -39.5t45 -99.5q0 -16 -2.5 -30.5t-11 -33.5t-17 -34.5t-28.5 -45.5t-37 -54t-51 -72.5t-62 -89.5z" />
    <glyph glyph-name="uni021B" unicode="&#x21b;" horiz-adv-x="1011" 
d="M696 -35q-64 0 -118 10t-92.5 25t-69 40t-49.5 47.5t-33 56t-20.5 57t-10 58t-4 51.5t-0.5 46v564h-270v219h270v327h256v-327h393v-219h-393v-480q0 -33 0.5 -50.5t4 -48.5t10 -49t20.5 -41t33.5 -35t50 -21t69.5 -9q96 0 205 45v-219q-100 -47 -252 -47zM541 -610h-135
l137 223q-54 19 -83.5 54.5t-29.5 80.5q0 61 46.5 101t115.5 40q68 0 113 -39.5t45 -99.5q0 -16 -2.5 -30.5t-11 -33.5t-17 -34.5t-28.5 -45.5t-37 -54t-51 -72.5t-62 -89.5z" />
    <glyph glyph-name="gravecomb" unicode="&#x300;" horiz-adv-x="0" 
d="M-92 1278h-223l-373 383h315z" />
    <glyph glyph-name="acutecomb" unicode="&#x301;" horiz-adv-x="0" 
d="M74 1661l-373 -383h-223l280 383h316z" />
    <glyph glyph-name="uni0302" unicode="&#x302;" horiz-adv-x="0" 
d="M-782 1278h-242l356 367h283l356 -367h-241q-155 130 -256 217q-163 -139 -256 -217z" />
    <glyph glyph-name="tildecomb" unicode="&#x303;" horiz-adv-x="0" 
d="M-377 1325q-43 0 -79 8.5t-55.5 18.5t-49.5 28l-57 35q-57 39 -109 39q-48 0 -77.5 -32.5t-29.5 -80.5h-186q0 134 80.5 216.5t204.5 82.5q86 0 180 -55l57 -35q53 -34 107 -34q44 0 69 30t25 80h186q0 -145 -69 -223t-197 -78z" />
    <glyph glyph-name="uni0304" unicode="&#x304;" horiz-adv-x="0" 
d="M-111 1343h-825v177h825v-177z" />
    <glyph glyph-name="uni0306" unicode="&#x306;" horiz-adv-x="0" 
d="M-500 1270q-206 0 -327 110t-129 285h215q3 -92 69.5 -154.5t177.5 -62.5t178 61.5t70 155.5h215q-8 -175 -132 -285t-337 -110z" />
    <glyph glyph-name="uni0307" unicode="&#x307;" horiz-adv-x="0" 
d="M-297 1333q-75 0 -125.5 47t-50.5 115q0 64 51 110t125 46q71 0 121.5 -46t50.5 -110q0 -68 -50 -115t-122 -47z" />
    <glyph glyph-name="uni0308" unicode="&#x308;" horiz-adv-x="0" 
d="M-956 1321q-68 0 -115 43t-47 106q0 58 47.5 100t114.5 42q66 0 111.5 -42t45.5 -100q0 -63 -45 -106t-112 -43zM-461 1321q-69 0 -114.5 43t-45.5 106q0 58 46 100t114 42q66 0 113 -42.5t47 -99.5q0 -63 -47 -106t-113 -43z" />
    <glyph glyph-name="uni030A" unicode="&#x30a;" horiz-adv-x="0" 
d="M-322 1253q-124 0 -208 69t-84 171q0 103 83.5 171.5t208.5 68.5q124 0 207.5 -68t83.5 -172t-83.5 -172t-207.5 -68zM-322 1393q54 0 91.5 28.5t37.5 71.5q0 42 -37 70t-92 28q-57 0 -94 -27.5t-37 -70.5t37 -71.5t94 -28.5z" />
    <glyph glyph-name="uni030B" unicode="&#x30b;" horiz-adv-x="0" 
d="M-348 1673l-359 -395h-217l265 395h311zM133 1673l-373 -395h-217l277 395h313z" />
    <glyph glyph-name="uni030C" unicode="&#x30c;" horiz-adv-x="0" 
d="M-385 1278h-283l-356 379h242q203 -172 256 -217q88 76 256 217h241z" />
    <glyph glyph-name="uni0312" unicode="&#x312;" horiz-adv-x="0" 
d="M-498 1286q0 17 2.5 31t11.5 34t18 36t31 48t40.5 58t56 79.5t68.5 98.5h149l-158 -248q46 -19 73.5 -55t27.5 -80q0 -61 -46.5 -101t-115.5 -40q-68 0 -113 39.5t-45 99.5z" />
    <glyph glyph-name="uni0326" unicode="&#x326;" horiz-adv-x="0" 
d="M-387 -610h-135l137 223q-54 19 -83.5 54.5t-29.5 80.5q0 61 46.5 101t115.5 40q68 0 113 -39.5t45 -99.5q0 -16 -2.5 -30.5t-11 -33.5t-17 -34.5t-28.5 -45.5t-37 -54t-51 -72.5t-62 -89.5z" />
    <glyph glyph-name="uni0327" unicode="&#x327;" horiz-adv-x="0" 
d="M-770 -512q-99 0 -185 33.5t-139 91.5l88 96q42 -47 103 -70.5t125 -23.5q63 0 103 23t40 63q0 38 -37.5 61t-95.5 23q-61 0 -113 -27l-86 62l142 180h155l-106 -121q30 10 78 10q102 0 169.5 -51t67.5 -137q0 -96 -87 -154.5t-222 -58.5z" />
    <glyph glyph-name="uni0328" unicode="&#x328;" horiz-adv-x="0" 
d="M-766 -483q-147 0 -244.5 61.5t-97.5 173.5q0 76 55 135.5t148 92.5h178q-100 -26 -149.5 -73.5t-49.5 -101.5t51.5 -88t133.5 -34q53 0 110 16v-168q-66 -14 -135 -14z" />
    <glyph glyph-name="uni0335" unicode="&#x335;" horiz-adv-x="0" 
d="M-948 664h901v-185h-901v185z" />
    <glyph glyph-name="uni0337" unicode="&#x337;" horiz-adv-x="0" 
d="M-616 449v210l727 455v-211z" />
    <glyph glyph-name="uni0338" unicode="&#x338;" horiz-adv-x="0" 
d="M-1180 -63h-278l1112 1243h272z" />
    <glyph glyph-name="Wgrave" unicode="&#x1e80;" horiz-adv-x="2822" 
d="M1561 1720h-232l-399 351h336zM950 0h-336l-581 1597h303q272 -726 448 -1237h4q390 1030 467 1237h308q333 -873 471 -1237h6q43 120 141 399t166 466.5t137 371.5h305l-581 -1597h-336q-274 686 -459 1194h-4q-292 -791 -459 -1194z" />
    <glyph glyph-name="wgrave" unicode="&#x1e81;" horiz-adv-x="2269" 
d="M1251 1278h-223l-373 383h316zM793 0h-291l-473 1139h288l340 -824h9l352 824h235l355 -824h6l338 824h286l-471 -1139h-299q-26 61 -69.5 160.5t-67 155t-75 178.5t-119.5 290h-4q-155 -369 -340 -784z" />
    <glyph glyph-name="Wacute" unicode="&#x1e82;" horiz-adv-x="2822" 
d="M1917 2071l-399 -351h-232l295 351h336zM950 0h-336l-581 1597h303q272 -726 448 -1237h4q390 1030 467 1237h308q333 -873 471 -1237h6q43 120 141 399t166 466.5t137 371.5h305l-581 -1597h-336q-274 686 -459 1194h-4q-292 -791 -459 -1194z" />
    <glyph glyph-name="wacute" unicode="&#x1e83;" horiz-adv-x="2269" 
d="M1599 1661l-372 -383h-223l280 383h315zM793 0h-291l-473 1139h288l340 -824h9l352 824h235l355 -824h6l338 824h286l-471 -1139h-299q-26 61 -69.5 160.5t-67 155t-75 178.5t-119.5 290h-4q-155 -369 -340 -784z" />
    <glyph glyph-name="Wdieresis" unicode="&#x1e84;" horiz-adv-x="2822" 
d="M1153 1747q-71 0 -120.5 45.5t-49.5 112.5q0 62 50 106.5t120 44.5t119 -44.5t49 -106.5q0 -67 -48.5 -112.5t-119.5 -45.5zM1673 1747q-73 0 -122.5 45t-49.5 113q0 62 49.5 106.5t122.5 44.5q68 0 117 -45t49 -106q0 -67 -49 -112.5t-117 -45.5zM950 0h-336l-581 1597
h303q272 -726 448 -1237h4q390 1030 467 1237h308q333 -873 471 -1237h6q43 120 141 399t166 466.5t137 371.5h305l-581 -1597h-336q-274 686 -459 1194h-4q-292 -791 -459 -1194z" />
    <glyph glyph-name="wdieresis" unicode="&#x1e85;" horiz-adv-x="2269" 
d="M885 1321q-68 0 -115 43t-47 106q0 58 47.5 100t114.5 42q66 0 111.5 -42t45.5 -100q0 -63 -45 -106t-112 -43zM1380 1321q-69 0 -114 43t-45 106q0 58 45.5 100t113.5 42q66 0 113 -42.5t47 -99.5q0 -63 -47 -106t-113 -43zM793 0h-291l-473 1139h288l340 -824h9
l352 824h235l355 -824h6l338 824h286l-471 -1139h-299q-26 61 -69.5 160.5t-67 155t-75 178.5t-119.5 290h-4q-155 -369 -340 -784z" />
    <glyph glyph-name="uni1E9E" unicode="&#x1e9e;" horiz-adv-x="1863" 
d="M479 0h-272v905q0 74 7 140t27.5 141t53.5 137t89.5 120.5t132 98.5t184 64t241.5 24q330 0 522.5 -131.5t192.5 -339.5q0 -137 -86 -229t-232 -119v-6q108 -6 200 -50t153 -129.5t61 -197.5q0 -41 -8.5 -80.5t-30 -83t-54.5 -81t-87 -71.5t-122.5 -58.5t-164.5 -39
t-211 -14.5h-239v236h272q186 0 272 58t86 152q0 101 -98 157t-264 56h-137v236h110q39 0 85 11t95.5 36t82 74.5t32.5 116.5q0 126 -116 195t-310 69q-76 0 -139 -11.5t-108.5 -29t-81 -46.5t-58.5 -55t-39 -64t-24 -65t-12 -65.5t-4.5 -57.5t-0.5 -49v-2v-952z" />
    <glyph glyph-name="Ygrave" unicode="&#x1ef2;" horiz-adv-x="1708" 
d="M1006 1720h-232l-399 351h336zM989 0h-270v559q-81 121 -242.5 365t-282.5 426.5t-167 246.5h292l533 -784h4q52 77 128 191t165.5 245t241.5 348h290q-58 -86 -692 -1036v-561z" />
    <glyph glyph-name="ygrave" unicode="&#x1ef3;" horiz-adv-x="1390" 
d="M805 1278h-223l-373 383h315zM631 -451h-262l196 412l-540 1178h280q177 -373 391 -854h4q208 466 392 854h274z" />
    <glyph glyph-name="uni2000" unicode="&#x2000;" horiz-adv-x="1228" 
 />
    <glyph glyph-name="uni2001" unicode="&#x2001;" 
 />
    <glyph glyph-name="uni2002" unicode="&#x2002;" horiz-adv-x="1228" 
 />
    <glyph glyph-name="uni2003" unicode="&#x2003;" 
 />
    <glyph glyph-name="uni2004" unicode="&#x2004;" horiz-adv-x="819" 
 />
    <glyph glyph-name="uni2005" unicode="&#x2005;" horiz-adv-x="614" 
 />
    <glyph glyph-name="uni2006" unicode="&#x2006;" horiz-adv-x="409" 
 />
    <glyph glyph-name="uni2007" unicode="&#x2007;" horiz-adv-x="628" 
 />
    <glyph glyph-name="uni2008" unicode="&#x2008;" horiz-adv-x="614" 
 />
    <glyph glyph-name="uni2009" unicode="&#x2009;" horiz-adv-x="307" 
 />
    <glyph glyph-name="uni200A" unicode="&#x200a;" horiz-adv-x="102" 
 />
    <glyph glyph-name="uni200B" unicode="&#x200b;" horiz-adv-x="0" 
 />
    <glyph glyph-name="endash" unicode="&#x2013;" horiz-adv-x="1214" 
d="M1069 520h-924v207h924v-207z" />
    <glyph glyph-name="emdash" unicode="&#x2014;" horiz-adv-x="1726" 
d="M1583 528h-1440v189h1440v-189z" />
    <glyph glyph-name="quoteleft" unicode="&#x2018;" horiz-adv-x="604" 
d="M365 1634h149l-172 -276q55 -20 85 -60.5t30 -89.5q0 -66 -53.5 -112.5t-127.5 -46.5q-72 0 -124 46.5t-52 110.5q0 50 38 111.5t169 238.5q37 50 58 78z" />
    <glyph glyph-name="quoteright" unicode="&#x2019;" horiz-adv-x="618" 
d="M274 1071h-153l176 277q-55 20 -85 60t-30 89q0 66 53 113t127 47q72 0 124.5 -47t52.5 -111q0 -48 -34.5 -104.5t-156.5 -222.5q-47 -64 -74 -101z" />
    <glyph glyph-name="quotesinglbase" unicode="&#x201a;" horiz-adv-x="595" 
d="M215 -274h-147l170 276q-54 20 -83.5 60.5t-29.5 89.5q0 66 52 112.5t126 46.5q72 0 124 -46.5t52 -110.5q0 -50 -37.5 -111t-176.5 -249q-32 -44 -50 -68z" />
    <glyph glyph-name="quotedblleft" unicode="&#x201c;" horiz-adv-x="1062" 
d="M365 1634h149l-172 -276q55 -20 85 -60.5t30 -89.5q0 -66 -53.5 -112.5t-127.5 -46.5q-72 0 -124 46.5t-52 110.5q0 50 38 111.5t169 238.5q37 50 58 78zM772 1634h150l-172 -276q55 -20 84.5 -60.5t29.5 -89.5q0 -66 -53 -112.5t-127 -46.5q-72 0 -124 46.5t-52 110.5
q0 48 37 108.5t159 227.5q43 58 68 92z" />
    <glyph glyph-name="quotedblright" unicode="&#x201d;" horiz-adv-x="1075" 
d="M270 1071h-149l172 277q-55 20 -85 60t-30 89q0 66 53 113t127 47q72 0 124.5 -47t52.5 -111q0 -48 -34.5 -104.5t-156.5 -222.5q-47 -64 -74 -101zM733 1071h-149l170 277q-55 20 -84 59.5t-29 89.5q0 66 53 113t127 47q71 0 122.5 -47t51.5 -111q0 -14 -2 -26.5
t-8 -28.5t-12 -29t-20 -35.5t-26 -40t-35.5 -50.5t-42.5 -58.5t-53.5 -73.5t-62.5 -86z" />
    <glyph glyph-name="quotedblbase" unicode="&#x201e;" horiz-adv-x="1056" 
d="M215 -256h-147l170 276q-54 20 -83.5 60.5t-29.5 89.5q0 66 52.5 113t125.5 47q72 0 124 -46.5t52 -111.5q0 -50 -37.5 -111t-176.5 -249q-32 -44 -50 -68zM678 -256h-150l170 276q-53 20 -81.5 60t-28.5 90q0 66 52.5 113t125.5 47q71 0 122.5 -47t51.5 -111
q0 -51 -35.5 -110t-155.5 -222q-45 -61 -71 -96z" />
    <glyph glyph-name="dagger" unicode="&#x2020;" horiz-adv-x="1210" 
d="M711 1321h397v-186h-397v-707h-224v707h-385v186h385v317h224v-317z" />
    <glyph glyph-name="daggerdbl" unicode="&#x2021;" horiz-adv-x="1296" 
d="M1143 1321v-186h-381v-252h381v-187h-381v-317h-221v317h-385v187h385v252h-385v186h385v317h221v-317h381z" />
    <glyph glyph-name="bullet" unicode="&#x2022;" horiz-adv-x="1024" 
d="M512 438q-128 0 -217.5 83.5t-89.5 203.5q0 113 90 193.5t217 80.5q124 0 212.5 -80.5t88.5 -193.5q0 -120 -88 -203.5t-213 -83.5z" />
    <glyph glyph-name="ellipsis" unicode="&#x2026;" horiz-adv-x="1757" 
d="M309 -14q-74 0 -126 48.5t-52 117.5q0 66 52 112.5t126 46.5q72 0 123 -46.5t51 -112.5q0 -69 -51 -117.5t-123 -48.5zM801 -14q-74 0 -126 48.5t-52 117.5q0 66 52 112.5t126 46.5q72 0 123 -46.5t51 -112.5q0 -69 -51 -117.5t-123 -48.5zM1452 -14q-74 0 -126 48.5
t-52 117.5q0 66 52 112.5t126 46.5q72 0 123 -46.5t51 -112.5q0 -69 -51 -117.5t-123 -48.5z" />
    <glyph glyph-name="uni202F" unicode="&#x202f;" horiz-adv-x="460" 
 />
    <glyph glyph-name="perthousand" unicode="&#x2030;" horiz-adv-x="3072" 
d="M436 737q-161 0 -258.5 111.5t-97.5 290.5q0 180 97 291.5t259 111.5t260.5 -113t98.5 -290t-98.5 -289.5t-260.5 -112.5zM537 0h-240l1366 1468h231zM436 918q65 0 102 54.5t37 166.5q0 113 -37.5 168t-101.5 55t-100.5 -55t-36.5 -168q0 -112 36.5 -166.5t100.5 -54.5z
M1759 -29q-161 0 -258.5 111.5t-97.5 290.5q0 180 97 291.5t259 111.5t260.5 -113t98.5 -290t-98.5 -289.5t-260.5 -112.5zM2634 -29q-161 0 -259 111.5t-98 290.5q0 180 97.5 291.5t259.5 111.5t260 -113t98 -290t-98 -289.5t-260 -112.5zM1759 152q65 0 102 54.5t37 166.5
q0 113 -37.5 168t-101.5 55t-100.5 -55t-36.5 -168q0 -112 36.5 -166.5t100.5 -54.5zM2634 152q65 0 102 54.5t37 166.5q0 113 -37.5 168t-101.5 55t-100.5 -55t-36.5 -168q0 -112 36.5 -166.5t100.5 -54.5z" />
    <glyph glyph-name="guilsinglleft" unicode="&#x2039;" horiz-adv-x="980" 
d="M831 164h-299l-415 405v9l415 405h299l-415 -405v-9z" />
    <glyph glyph-name="guilsinglright" unicode="&#x203a;" horiz-adv-x="980" 
d="M449 164h-299l415 405v9l-415 405h299l415 -405v-9z" />
    <glyph glyph-name="fraction" unicode="&#x2044;" horiz-adv-x="448" 
d="M-338 0h-240l1366 1468h232z" />
    <glyph glyph-name="uni205F" unicode="&#x205f;" horiz-adv-x="544" 
 />
    <glyph glyph-name="uni2070" unicode="&#x2070;" horiz-adv-x="874" 
d="M436 737q-161 0 -258.5 111.5t-97.5 290.5q0 180 97 291.5t259 111.5t260.5 -113t98.5 -290t-98.5 -289.5t-260.5 -112.5zM436 918q65 0 102 54.5t37 166.5q0 113 -37.5 168t-101.5 55t-100.5 -55t-36.5 -168q0 -112 36.5 -166.5t100.5 -54.5z" />
    <glyph glyph-name="uni2074" unicode="&#x2074;" horiz-adv-x="854" 
d="M672 754h-199v145h-424v154l430 473h193v-465h112v-162h-112v-145zM473 1278l-225 -217h225v217z" />
    <glyph glyph-name="uni2075" unicode="&#x2075;" horiz-adv-x="835" 
d="M399 737q-59 0 -113 10t-101 30.5t-82 55.5t-52 80l180 86q24 -48 69.5 -72t102.5 -24q63 0 102.5 32t39.5 79q0 51 -39.5 81.5t-99.5 30.5q-48 0 -84.5 -20t-53.5 -47l-170 37l109 430h500v-158h-355l-49 -158h4q28 26 78 40t100 14q51 0 99 -14t89 -42t66 -77t25 -111
q0 -130 -105.5 -206.5t-259.5 -76.5z" />
    <glyph glyph-name="uni2076" unicode="&#x2076;" horiz-adv-x="870" 
d="M440 737q-163 0 -261.5 93.5t-98.5 265.5q0 194 123 320t319 126q72 0 141 -21t113 -67l-104 -129q-63 53 -156 53q-95 0 -157 -51t-74 -139h2q28 33 85 51t117 18q126 0 215 -67t89 -180q0 -118 -99.5 -195.5t-253.5 -77.5zM451 899q63 0 105 33t42 84q0 49 -41.5 80.5
t-101.5 31.5q-66 0 -108 -32t-42 -82q0 -49 42.5 -82t103.5 -33z" />
    <glyph glyph-name="uni2077" unicode="&#x2077;" horiz-adv-x="708" 
d="M395 754h-219q0 87 25.5 191t87 221.5t147.5 197.5h-395v162h637v-164q-74 -54 -131 -131t-89 -160t-47.5 -163t-15.5 -154z" />
    <glyph glyph-name="uni2078" unicode="&#x2078;" horiz-adv-x="851" 
d="M424 737q-160 0 -254 68t-94 166q0 71 47 123t110 65v2q-118 56 -118 158q0 98 89.5 160.5t219.5 62.5q129 0 220 -62t91 -165q0 -104 -119 -154v-2q66 -14 113 -64t47 -120q0 -100 -95.5 -169t-256.5 -69zM426 1231q52 0 86.5 24.5t34.5 61.5q0 36 -34 59t-87 23
q-52 0 -85.5 -23t-33.5 -59q0 -37 34 -61.5t85 -24.5zM426 907q60 0 99.5 28t39.5 71q0 45 -37.5 71.5t-101.5 26.5q-63 0 -101 -27t-38 -71q0 -42 40 -70.5t99 -28.5z" />
    <glyph glyph-name="uni2079" unicode="&#x2079;" horiz-adv-x="874" 
d="M385 737q-86 0 -169 26.5t-134 78.5l111 127q39 -36 92.5 -55t101.5 -19q94 0 145 59.5t54 143.5h-2q-27 -37 -84.5 -56.5t-122.5 -19.5q-124 0 -211.5 66.5t-87.5 177.5q0 120 98 198t256 78q161 0 261 -90.5t100 -275.5q0 -91 -25.5 -170t-75 -139.5t-128.5 -95
t-179 -34.5zM418 1155q63 0 106 34t43 85q0 50 -42 82.5t-103 32.5q-66 0 -109 -33.5t-43 -85.5q0 -51 42 -83t106 -32z" />
    <glyph glyph-name="uni2080" unicode="&#x2080;" horiz-adv-x="874" 
d="M436 -285q-161 0 -258.5 111.5t-97.5 290.5q0 180 97 291.5t259 111.5t260.5 -113t98.5 -290t-98.5 -289.5t-260.5 -112.5zM436 -104q65 0 102 54.5t37 166.5q0 113 -37.5 168t-101.5 55t-100.5 -55t-36.5 -168q0 -112 36.5 -166.5t100.5 -54.5z" />
    <glyph glyph-name="uni2081" unicode="&#x2081;" horiz-adv-x="593" 
d="M451 -268h-205v477q-79 -63 -191 -84v207q88 24 141.5 72t53.5 100h201v-772z" />
    <glyph glyph-name="uni2082" unicode="&#x2082;" horiz-adv-x="825" 
d="M737 -268h-641v24q3 95 32.5 158.5t86 111t166.5 109.5q4 2 21.5 12t25 14t23.5 14t24 16.5t19.5 17t17 19.5t10 20t4.5 22q0 33 -31 53.5t-83 20.5q-69 0 -111.5 -37t-42.5 -102l-188 26q0 130 98 209.5t248 79.5q138 0 230.5 -68.5t92.5 -177.5q0 -72 -43.5 -127
t-115.5 -90q-14 -7 -50 -23.5t-53.5 -25.5t-42.5 -25t-40.5 -33t-24.5 -38h368v-180z" />
    <glyph glyph-name="uni2083" unicode="&#x2083;" horiz-adv-x="835" 
d="M403 -287q-128 0 -224.5 50.5t-123.5 127.5l181 86q52 -100 167 -100q58 0 96 23t38 65q0 88 -150 88h-88v135h90q58 0 96.5 22.5t38.5 61.5q0 35 -35.5 58.5t-89.5 23.5q-55 0 -91.5 -27.5t-43.5 -76.5l-188 41q14 96 109 162.5t233 66.5q131 0 221 -56.5t90 -150.5
q0 -59 -37.5 -107.5t-99.5 -60.5v-2q67 -11 115.5 -60t48.5 -116q0 -99 -94 -176.5t-259 -77.5z" />
    <glyph glyph-name="uni2084" unicode="&#x2084;" horiz-adv-x="854" 
d="M672 -268h-199v145h-424v154l430 473h193v-465h112v-162h-112v-145zM473 256l-225 -217h225v217z" />
    <glyph glyph-name="uni2085" unicode="&#x2085;" horiz-adv-x="835" 
d="M399 -285q-59 0 -113 10t-101 30.5t-82 55.5t-52 80l180 86q24 -48 69.5 -72t102.5 -24q63 0 102.5 32t39.5 79q0 51 -39.5 81.5t-99.5 30.5q-48 0 -84.5 -20t-53.5 -47l-170 37l109 430h500v-158h-355l-49 -158h4q28 26 78 40t100 14q51 0 99 -14t89 -42t66 -77t25 -111
q0 -130 -105.5 -206.5t-259.5 -76.5z" />
    <glyph glyph-name="uni2086" unicode="&#x2086;" horiz-adv-x="870" 
d="M440 -285q-163 0 -261.5 93.5t-98.5 265.5q0 194 123 320t319 126q72 0 141 -21t113 -67l-104 -129q-63 53 -156 53q-95 0 -157 -51t-74 -139h2q28 33 85 51.5t117 18.5q126 0 215 -67.5t89 -180.5q0 -118 -99.5 -195.5t-253.5 -77.5zM451 -123q63 0 105 33t42 84
q0 49 -41.5 80.5t-101.5 31.5q-66 0 -108 -32t-42 -82q0 -49 42.5 -82t103.5 -33z" />
    <glyph glyph-name="uni2087" unicode="&#x2087;" horiz-adv-x="708" 
d="M395 -268h-219q0 87 25.5 191t87 221.5t147.5 197.5h-395v162h637v-164q-74 -54 -131 -131t-89 -160t-47.5 -163t-15.5 -154z" />
    <glyph glyph-name="uni2088" unicode="&#x2088;" horiz-adv-x="851" 
d="M424 -285q-160 0 -254 68t-94 166q0 71 47 123t110 65v2q-118 56 -118 158q0 98 89.5 160.5t219.5 62.5q129 0 220 -62t91 -165q0 -104 -119 -154v-2q66 -14 113 -64t47 -120q0 -100 -95.5 -169t-256.5 -69zM426 209q52 0 86.5 24.5t34.5 61.5q0 36 -34 59t-87 23
q-52 0 -85.5 -23t-33.5 -59q0 -37 34 -61.5t85 -24.5zM426 -115q60 0 99.5 28t39.5 71q0 45 -37.5 71.5t-101.5 26.5q-63 0 -101 -27t-38 -71q0 -42 40 -70.5t99 -28.5z" />
    <glyph glyph-name="uni2089" unicode="&#x2089;" horiz-adv-x="874" 
d="M385 -285q-86 0 -169 26.5t-134 78.5l111 127q39 -36 92.5 -55t101.5 -19q94 0 145 59.5t54 143.5h-2q-27 -37 -84.5 -56.5t-122.5 -19.5q-124 0 -211.5 66.5t-87.5 177.5q0 120 98 198t256 78q161 0 261 -90.5t100 -275.5q0 -91 -25.5 -170t-75 -139.5t-128.5 -95
t-179 -34.5zM418 133q63 0 106 34t43 85q0 50 -42 82.5t-103 32.5q-66 0 -109 -33.5t-43 -85.5q0 -51 42 -83t106 -32z" />
    <glyph glyph-name="Euro" unicode="&#x20ac;" horiz-adv-x="1992" 
d="M1735 322l157 -175q-125 -97 -285.5 -139.5t-314.5 -42.5q-339 0 -571.5 154.5t-310.5 417.5h-281v133h252q-6 56 -6 112q0 33 4 95h-250v133h274q74 270 307 434t570 164q389 0 602 -181l-188 -180q-166 119 -414 119q-224 0 -375.5 -92t-210.5 -264h719v-133h-747
q-7 -51 -7 -93q0 -58 9 -114h745v-133h-711q65 -161 217 -245.5t369 -84.5q270 0 447 115z" />
    <glyph glyph-name="trademark" unicode="&#x2122;" horiz-adv-x="1902" 
d="M496 920h-154v565h-256v131h662v-131h-252v-565zM1030 920h-156v696h158q99 -183 262 -494q162 315 258 494h158v-696h-156v407q-24 -45 -73.5 -138t-85.5 -160.5t-54 -100.5h-98q-20 38 -213 401v-409z" />
    <glyph glyph-name="oneeighth" unicode="&#x215b;" horiz-adv-x="1894" 
d="M451 754h-205v477q-79 -63 -191 -84v207q88 24 141.5 72t53.5 100h201v-772zM256 0h-240l1366 1468h232zM1466 -29q-160 0 -254 68t-94 166q0 71 47.5 123t110.5 65v2q-119 56 -119 158q0 98 89.5 160.5t219.5 62.5q129 0 220.5 -62t91.5 -165q0 -104 -119 -154v-2
q66 -14 113 -64t47 -120q0 -100 -96 -169t-257 -69zM1468 465q52 0 86.5 24.5t34.5 61.5q0 36 -34 59t-87 23q-51 0 -84.5 -23t-33.5 -59q0 -37 33.5 -61.5t84.5 -24.5zM1468 141q60 0 100 28t40 71q0 44 -38 71t-102 27q-63 0 -101 -27t-38 -71q0 -42 40 -70.5t99 -28.5z
" />
    <glyph glyph-name="threeeighths" unicode="&#x215c;" horiz-adv-x="2136" 
d="M403 735q-128 0 -224.5 50.5t-123.5 127.5l181 86q52 -100 167 -100q58 0 96 23t38 65q0 88 -150 88h-88v135h90q58 0 96.5 22.5t38.5 61.5q0 35 -35.5 58.5t-89.5 23.5q-55 0 -91.5 -27.5t-43.5 -76.5l-188 41q14 96 109 162.5t233 66.5q131 0 221 -56.5t90 -150.5
q0 -59 -37.5 -107.5t-99.5 -60.5v-2q67 -11 115.5 -60t48.5 -116q0 -99 -94 -176.5t-259 -77.5zM498 0h-240l1366 1468h231zM1708 -29q-160 0 -254 68t-94 166q0 71 47.5 123t110.5 65v2q-119 56 -119 158q0 98 89.5 160.5t219.5 62.5q129 0 220 -62t91 -165
q0 -104 -118 -154v-2q66 -14 112.5 -64t46.5 -120q0 -100 -95.5 -169t-256.5 -69zM1710 465q52 0 86.5 24.5t34.5 61.5q0 36 -34 59t-87 23q-52 0 -85.5 -23t-33.5 -59q0 -37 34 -61.5t85 -24.5zM1710 141q60 0 99.5 28t39.5 71q0 45 -37.5 71.5t-101.5 26.5q-63 0 -101 -27
t-38 -71q0 -42 40 -70.5t99 -28.5z" />
    <glyph glyph-name="fiveeighths" unicode="&#x215d;" horiz-adv-x="2136" 
d="M399 737q-59 0 -113 10t-101 30.5t-82 55.5t-52 80l180 86q24 -48 69.5 -72t102.5 -24q63 0 102.5 32t39.5 79q0 51 -39.5 81.5t-99.5 30.5q-48 0 -84.5 -20t-53.5 -47l-170 37l109 430h500v-158h-355l-49 -158h4q28 26 78 40t100 14q51 0 99 -14t89 -42t66 -77t25 -111
q0 -130 -105.5 -206.5t-259.5 -76.5zM498 0h-240l1366 1468h231zM1708 -29q-160 0 -254 68t-94 166q0 71 47.5 123t110.5 65v2q-119 56 -119 158q0 98 89.5 160.5t219.5 62.5q129 0 220 -62t91 -165q0 -104 -118 -154v-2q66 -14 112.5 -64t46.5 -120q0 -100 -95.5 -169
t-256.5 -69zM1710 465q52 0 86.5 24.5t34.5 61.5q0 36 -34 59t-87 23q-52 0 -85.5 -23t-33.5 -59q0 -37 34 -61.5t85 -24.5zM1710 141q60 0 99.5 28t39.5 71q0 45 -37.5 71.5t-101.5 26.5q-63 0 -101 -27t-38 -71q0 -42 40 -70.5t99 -28.5z" />
    <glyph glyph-name="seveneighths" unicode="&#x215e;" horiz-adv-x="2009" 
d="M395 754h-219q0 87 25.5 191t87 221.5t147.5 197.5h-395v162h637v-164q-74 -54 -131 -131t-89 -160t-47.5 -163t-15.5 -154zM371 0h-240l1366 1468h232zM1581 -29q-160 0 -254 68t-94 166q0 71 47.5 123t110.5 65v2q-119 56 -119 158q0 98 89.5 160.5t219.5 62.5
q129 0 220 -62t91 -165q0 -104 -118 -154v-2q66 -14 112.5 -64t46.5 -120q0 -100 -95.5 -169t-256.5 -69zM1583 465q52 0 86.5 24.5t34.5 61.5q0 36 -34 59t-87 23q-52 0 -85.5 -23t-33.5 -59q0 -37 34 -61.5t85 -24.5zM1583 141q60 0 99.5 28t39.5 71q0 45 -37.5 71.5
t-101.5 26.5q-63 0 -101 -27t-38 -71q0 -42 40 -70.5t99 -28.5z" />
    <glyph glyph-name="arrowleft" unicode="&#x2190;" horiz-adv-x="1679" 
d="M471 745h1071v-200h-1075l319 -309h-254l-407 405v8l407 406h254z" />
    <glyph glyph-name="arrowup" unicode="&#x2191;" horiz-adv-x="1191" 
d="M600 1202l487 -340v-233l-382 272v-881h-218v881l-383 -272v233l488 340h8z" />
    <glyph glyph-name="arrowright" unicode="&#x2192;" horiz-adv-x="1679" 
d="M895 1055h254l407 -406v-8l-407 -405h-254l319 309h-1075v200h1071z" />
    <glyph glyph-name="arrowdown" unicode="&#x2193;" horiz-adv-x="1191" 
d="M705 1202v-880l382 272v-234l-487 -340h-8l-488 340v234l385 -272v880h216z" />
    <glyph glyph-name="arrowboth" unicode="&#x2194;" horiz-adv-x="2109" 
d="M780 233h-254l-407 406v8l407 406h254l-336 -318h1219l-334 318h254l408 -406v-8l-408 -406h-254l334 318h-1217z" />
    <glyph glyph-name="arrowupdn" unicode="&#x2195;" horiz-adv-x="1290" 
d="M649 8h-8l-487 316v211l383 -236v801l-383 -248v219l487 315h8l488 -315v-219l-383 248v-801l383 236v-211z" />
    <glyph glyph-name="uni2196" unicode="&#x2196;" horiz-adv-x="1249" 
d="M1051 1036l116 -202l-469 43l441 -762l-189 -109l-440 764l-195 -428l-116 203l252 538l6 4z" />
    <glyph glyph-name="uni2197" unicode="&#x2197;" horiz-adv-x="1249" 
d="M801 1083l252 -538l-117 -203l-195 428l-440 -764l-188 109l440 762l-469 -43l117 202l592 51z" />
    <glyph glyph-name="uni2198" unicode="&#x2198;" horiz-adv-x="1247" 
d="M739 453l195 426l117 -201l-252 -539l-8 -4l-592 51l-117 201l469 -43l-440 762l188 108z" />
    <glyph glyph-name="uni2199" unicode="&#x2199;" horiz-adv-x="1247" 
d="M1139 1106l-441 -762l469 43l-116 -201l-594 -51l-6 4l-252 539l116 201l195 -426l440 761z" />
    <glyph glyph-name="emptyset" unicode="&#x2205;" horiz-adv-x="1718" 
d="M1511 1188l-149 -174q102 -83 157.5 -197t55.5 -248q0 -172 -90.5 -310t-254.5 -216t-372 -78q-183 0 -336 64l-155 -185l-156 101l149 176q-104 83 -160.5 198t-56.5 250q0 172 90.5 310t254.5 216.5t372 78.5q190 0 340 -66l152 178zM408 567q0 -151 116 -254l512 602
q-89 27 -176 27q-197 0 -324.5 -107t-127.5 -268zM860 197q197 0 324 105.5t127 264.5q0 149 -111 254l-512 -600q77 -24 172 -24z" />
    <glyph glyph-name="minus" unicode="&#x2212;" horiz-adv-x="1255" 
d="M1098 530h-940v193h940v-193z" />
    <glyph glyph-name="infinity" unicode="&#x221e;" horiz-adv-x="2168" 
d="M580 285q-190 0 -313.5 96t-123.5 244q0 96 61.5 174.5t161.5 122t214 43.5q119 0 224 -49t279 -181q177 132 282.5 181t221.5 49q190 0 314 -96t124 -244t-124 -244t-314 -96q-124 0 -229 49.5t-273 179.5q-164 -134 -270 -181.5t-235 -47.5zM586 449q25 0 50 4t43.5 8
t46 17t40.5 19t45.5 27.5t42.5 28t50.5 35.5t51.5 37q-137 101 -182 126q-90 50 -188 50q-101 0 -166.5 -48.5t-65.5 -127.5q0 -80 67 -128t165 -48zM1585 451q100 0 165 46.5t65 127.5q0 79 -64.5 126.5t-165.5 47.5q-47 0 -86 -8.5t-86.5 -35t-75.5 -45t-95 -67.5
q-17 -12 -25 -18q13 -9 49 -34.5l48 -34t42.5 -28t45.5 -27t41.5 -20t46 -17.5t45 -9t50.5 -4z" />
    <glyph glyph-name="approxequal" unicode="&#x2248;" horiz-adv-x="1320" 
d="M375 682h-209q0 145 88 230t217 85q61 0 115.5 -18.5t88.5 -41.5t77.5 -41.5t83.5 -18.5q57 0 83.5 32.5t26.5 83.5h209q0 -152 -78 -234.5t-209 -82.5q-65 0 -122.5 20t-92 43.5t-78 43.5t-83.5 20q-57 0 -87 -36t-30 -85zM375 233h-209q0 145 88.5 230.5t216.5 85.5
q61 0 115.5 -19t88.5 -41.5t77.5 -41.5t83.5 -19q57 0 83.5 33.5t26.5 85.5h209q0 -153 -78 -236.5t-209 -83.5q-65 0 -122.5 20t-92 43.5t-78 43.5t-83.5 20q-57 0 -87 -36t-30 -85z" />
    <glyph glyph-name="notequal" unicode="&#x2260;" horiz-adv-x="1298" 
d="M1124 928v-191h-321l-113 -248h434v-192h-508l-75 -172h-191l76 172h-254v192h326l114 248h-440v191h514l68 155h190l-67 -155h247z" />
    <glyph glyph-name="lessequal" unicode="&#x2264;" horiz-adv-x="1257" 
d="M1081 281h-909v161h543l-539 172v195l905 174v-178l-659 -121l659 -233v-170z" />
    <glyph glyph-name="greaterequal" unicode="&#x2265;" horiz-adv-x="1257" 
d="M1083 281h-907v170l662 233l-662 121v178l905 -174v-195l-536 -172h538v-161z" />
    <glyph glyph-name="lozenge" unicode="&#x25ca;" horiz-adv-x="1376" 
d="M743 0h-108l-506 694l506 692h108l506 -692zM356 694l328 -432h8l326 432l-326 430h-8z" />
    <glyph glyph-name="A.ss01" horiz-adv-x="1869" 
d="M317 0h-292l712 1597h396l712 -1597h-286q-113 237 -203 459h-832q-74 -174 -207 -459zM608 690h664q-43 89 -91 192t-105 226t-89 192h-92z" />
    <glyph glyph-name="Aacute.ss01" horiz-adv-x="1869" 
d="M1434 2071l-400 -351h-231l295 351h336zM317 0h-292l712 1597h396l712 -1597h-286q-113 237 -203 459h-832q-74 -174 -207 -459zM608 690h664q-43 89 -91 192t-105 226t-89 192h-92z" />
    <glyph glyph-name="Abreve.ss01" horiz-adv-x="1869" 
d="M930 1718q-205 0 -334.5 103t-134.5 252h221q5 -71 73.5 -125t174.5 -54q104 0 171.5 54t72.5 125h223q-5 -147 -135 -251t-332 -104zM317 0h-292l712 1597h396l712 -1597h-286q-113 237 -203 459h-832q-74 -174 -207 -459zM608 690h664q-43 89 -91 192t-105 226t-89 192
h-92z" />
    <glyph glyph-name="Acircumflex.ss01" horiz-adv-x="1869" 
d="M1065 2062l336 -342h-238q-117 88 -231 183q-62 -51 -236 -183h-237l336 342h270zM317 0h-292l712 1597h396l712 -1597h-286q-113 237 -203 459h-832q-74 -174 -207 -459zM608 690h664q-43 89 -91 192t-105 226t-89 192h-92z" />
    <glyph glyph-name="Adieresis.ss01" horiz-adv-x="1869" 
d="M670 1747q-71 0 -120.5 45.5t-49.5 112.5q0 62 50 106.5t120 44.5t119 -44.5t49 -106.5q0 -67 -48.5 -112.5t-119.5 -45.5zM1190 1747q-73 0 -122.5 45t-49.5 113q0 62 49.5 106.5t122.5 44.5q68 0 117 -45t49 -106q0 -67 -49 -112.5t-117 -45.5zM317 0h-292l712 1597
h396l712 -1597h-286q-113 237 -203 459h-832q-74 -174 -207 -459zM608 690h664q-43 89 -91 192t-105 226t-89 192h-92z" />
    <glyph glyph-name="Agrave.ss01" horiz-adv-x="1869" 
d="M1079 1720h-231l-399 351h335zM317 0h-292l712 1597h396l712 -1597h-286q-113 237 -203 459h-832q-74 -174 -207 -459zM608 690h664q-43 89 -91 192t-105 226t-89 192h-92z" />
    <glyph glyph-name="Amacron.ss01" horiz-adv-x="1869" 
d="M1356 1784h-856v184h856v-184zM317 0h-292l712 1597h396l712 -1597h-286q-113 237 -203 459h-832q-74 -174 -207 -459zM608 690h664q-43 89 -91 192t-105 226t-89 192h-92z" />
    <glyph glyph-name="Aogonek.ss01" horiz-adv-x="1869" 
d="M1745 -305q57 0 106 12v-153q-67 -17 -141 -17q-95 0 -172 25.5t-126.5 80t-49.5 130.5q0 68 53 127.5t148 99.5h-4q-113 237 -203 459h-832q-74 -174 -207 -459h-292l712 1597h396l712 -1597h-92q-105 -24 -155 -73.5t-50 -98.5q0 -53 53.5 -93t143.5 -40zM608 690h664
q-43 89 -91 192t-105 226t-89 192h-92z" />
    <glyph glyph-name="Aring.ss01" horiz-adv-x="1869" 
d="M928 1712q-124 0 -208.5 69.5t-84.5 170.5q0 102 84 170.5t209 68.5q124 0 207.5 -67.5t83.5 -171.5t-83.5 -172t-207.5 -68zM928 1851q54 0 91.5 29t37.5 72q0 42 -37 70t-92 28q-57 0 -94 -27.5t-37 -70.5t37 -72t94 -29zM317 0h-292l712 1597h396l712 -1597h-286
q-113 237 -203 459h-832q-74 -174 -207 -459zM608 690h664q-43 89 -91 192t-105 226t-89 192h-92z" />
    <glyph glyph-name="Atilde.ss01" horiz-adv-x="1869" 
d="M1114 1735q-43 0 -79 8.5t-55.5 18.5t-49.5 28l-58 35q-57 39 -108 39q-48 0 -77.5 -32.5t-29.5 -80.5h-186q0 134 80.5 216.5t204.5 82.5q86 0 180 -55l57 -35q55 -35 107 -35q44 0 69 30.5t25 80.5h186q0 -145 -69 -223t-197 -78zM317 0h-292l712 1597h396l712 -1597
h-286q-113 237 -203 459h-832q-74 -174 -207 -459zM608 690h664q-43 89 -91 192t-105 226t-89 192h-92z" />
    <glyph glyph-name="B.ss01" horiz-adv-x="1753" 
d="M1016 0h-787v1597h746q141 0 255.5 -32t188.5 -88.5t114 -131.5t40 -161q0 -80 -34 -152t-109.5 -130.5t-182.5 -82.5v-4q186 -29 288.5 -128t102.5 -253q0 -89 -35.5 -162.5t-95 -123t-140 -83.5t-168.5 -49.5t-183 -15.5zM502 918h401q172 0 278.5 54.5t106.5 164.5
q0 58 -32 102t-88 70t-124.5 38.5t-148.5 12.5h-393v-442zM502 238h448q112 0 199 21.5t144 73.5t57 130q0 59 -33.5 104.5t-91 72.5t-128.5 40.5t-153 13.5h-442v-456z" />
    <glyph glyph-name="C.ss01" horiz-adv-x="2054" 
d="M1096 -35q-283 0 -506.5 104t-349 295t-125.5 437q0 154 51 287t141 231.5t211 169t264.5 106t298.5 35.5q192 0 363.5 -57.5t303 -170t194.5 -263.5l-248 -97q-81 158 -243.5 251t-373.5 93q-140 0 -263.5 -42t-215.5 -117.5t-145.5 -189t-53.5 -249.5q0 -119 41 -217.5
t109.5 -164.5t161 -111.5t191.5 -65.5t204 -20q249 0 418 109.5t239 304.5l250 -82q-104 -281 -340.5 -428.5t-576.5 -147.5z" />
    <glyph glyph-name="D.ss01" horiz-adv-x="1964" 
d="M961 0h-732v1597h709q187 0 339.5 -40.5t257 -112t176 -171.5t104 -216t32.5 -248q0 -178 -60.5 -327t-173 -256t-280 -166.5t-372.5 -59.5zM502 238h442q107 0 198.5 19t169.5 61.5t133.5 106.5t86.5 158t31 212q0 565 -691 565h-370v-1122z" />
    <glyph glyph-name="E.ss01" horiz-adv-x="1605" 
d="M1483 0h-1254v1597h1229v-237h-956v-422h907v-248h-907v-450h981v-240z" />
    <glyph glyph-name="F.ss01" horiz-adv-x="1523" 
d="M1438 1597v-241h-936v-447h887v-247h-887v-662h-273v1597h1209z" />
    <glyph glyph-name="G.ss01" horiz-adv-x="2097" 
d="M1090 -35q-217 0 -399.5 61t-309 169.5t-196.5 262t-70 335.5q0 156 50.5 291t140.5 234t211 170t264 106.5t298 35.5q296 0 533 -133t330 -358l-248 -97q-84 159 -245 251.5t-370 92.5q-139 0 -262.5 -41t-216.5 -115.5t-147 -187.5t-54 -249q0 -182 93 -315t255.5 -201
t374.5 -68q258 0 415 101.5t189 289.5h-589v213h856v-80q0 -185 -69.5 -332.5t-192 -242t-286 -144t-355.5 -49.5z" />
    <glyph glyph-name="H.ss01" horiz-adv-x="1988" 
d="M1487 920v677h272v-1597h-272v670h-985v-670h-273v1597h273v-677h985z" />
    <glyph glyph-name="I.ss01" horiz-adv-x="1384" 
d="M1282 0h-1180v238h455v1122h-467v237h1204v-237h-467v-1122h455v-238z" />
    <glyph glyph-name="Iacute.ss01" horiz-adv-x="1384" 
d="M1133 2071l-400 -351h-233l295 351h338zM1282 0h-1180v238h455v1122h-467v237h1204v-237h-467v-1122h455v-238z" />
    <glyph glyph-name="Icircumflex.ss01" horiz-adv-x="1384" 
d="M829 2062l336 -342h-237q-128 97 -232 183q-72 -60 -235 -183h-238l336 342h270zM1282 0h-1180v238h455v1122h-467v237h1204v-237h-467v-1122h455v-238z" />
    <glyph glyph-name="Idieresis.ss01" horiz-adv-x="1384" 
d="M434 1747q-71 0 -120.5 45.5t-49.5 112.5q0 62 50 106.5t120 44.5t119 -44.5t49 -106.5q0 -67 -48.5 -112.5t-119.5 -45.5zM954 1747q-73 0 -122.5 45t-49.5 113q0 62 49.5 106.5t122.5 44.5q68 0 117 -45t49 -106q0 -67 -49 -112.5t-117 -45.5zM1282 0h-1180v238h455
v1122h-467v237h1204v-237h-467v-1122h455v-238z" />
    <glyph glyph-name="Idotaccent.ss01" horiz-adv-x="1384" 
d="M694 1763q-75 0 -126.5 47t-51.5 115q0 64 52 110t126 46q71 0 121.5 -46t50.5 -110q0 -68 -50 -115t-122 -47zM1282 0h-1180v238h455v1122h-467v237h1204v-237h-467v-1122h455v-238z" />
    <glyph glyph-name="Igrave.ss01" horiz-adv-x="1384" 
d="M844 1720h-232l-399 351h336zM1282 0h-1180v238h455v1122h-467v237h1204v-237h-467v-1122h455v-238z" />
    <glyph glyph-name="Imacron.ss01" horiz-adv-x="1384" 
d="M1120 1784h-856v184h856v-184zM1282 0h-1180v238h455v1122h-467v237h1204v-237h-467v-1122h455v-238z" />
    <glyph glyph-name="J.ss01" horiz-adv-x="1499" 
d="M702 -35q-102 0 -194 20t-173 63.5t-140.5 106.5t-94 155t-34.5 204v43l264 35v-41q0 -86 30 -153.5t81.5 -108t114.5 -61.5t134 -21q84 0 148.5 28t102.5 76t56.5 107t18.5 127v815h-662v237h934v-1007q0 -625 -586 -625z" />
    <glyph glyph-name="K.ss01" horiz-adv-x="1703" 
d="M502 0h-273v1597h273v-641h8l831 641h359q-183 -149 -523 -421.5t-479 -384.5q173 -131 512 -395.5t512 -395.5h-374q-40 29 -846 606v-606z" />
    <glyph glyph-name="L.ss01" horiz-adv-x="1445" 
d="M502 1597v-1357h911v-240h-1184v1597h273z" />
    <glyph glyph-name="M.ss01" horiz-adv-x="2365" 
d="M1815 1597h321v-1597h-272v1133l-582 -838h-199l-577 835v-1130h-277v1597h326q411 -608 625 -942h6q376 576 629 942z" />
    <glyph glyph-name="N.ss01" horiz-adv-x="2013" 
d="M502 0h-273v1597h326l899 -1097h59v1097h271v-1597h-324l-895 1092h-63v-1092z" />
    <glyph glyph-name="O.ss01" horiz-adv-x="2156" 
d="M1077 -35q-196 0 -373 62t-307.5 170t-207 264.5t-76.5 335.5q0 238 130.5 430t351 297.5t484.5 105.5q199 0 377.5 -63.5t307.5 -173t204.5 -265t75.5 -331.5q0 -141 -48.5 -270t-137 -230.5t-207.5 -176.5t-266.5 -115t-307.5 -40zM1081 209q184 0 338 75.5t245 211
t91 301.5q0 165 -90 300.5t-244.5 212t-339.5 76.5t-341 -75t-248.5 -211t-92.5 -303q0 -169 93 -304.5t248.5 -209.5t340.5 -74z" />
    <glyph glyph-name="P.ss01" horiz-adv-x="1654" 
d="M229 1597h707q58 0 115 -5.5t122.5 -20.5t122.5 -38.5t111 -62.5t92 -89.5t61 -122.5t23 -158q0 -89 -23.5 -163.5t-62 -126.5t-92 -92.5t-110 -65t-119 -40.5t-115 -22t-103.5 -6h-456v-584h-273v1597zM502 834h393q66 0 122 7.5t109 26t90 48t59.5 76t22.5 106.5
q0 73 -34 126t-94.5 81.5t-129.5 41.5t-151 13h-387v-526z" />
    <glyph glyph-name="Q.ss01" horiz-adv-x="1794" 
d="M664 -180v-2h915v-224h-1429l391 449q-206 96 -328.5 294.5t-122.5 459.5q0 182 62.5 338.5t171 264.5t257 169t316.5 61q227 0 411.5 -106t290 -297t105.5 -430q0 -179 -62 -334.5t-169.5 -264.5t-257 -171t-318.5 -62q-49 0 -98 6q-45 -53 -135 -151zM360 797
q0 -129 42 -240t114.5 -187.5t171.5 -119.5t211 -43q151 0 273 74t192 209.5t70 306.5q0 258 -151.5 425t-383.5 167q-151 0 -274 -74.5t-194 -210t-71 -307.5z" />
    <glyph glyph-name="R.ss01" horiz-adv-x="1714" 
d="M862 594l791 -594h-334l-797 594h-20v-594h-273v1597h707q58 0 115 -5.5t122.5 -20.5t122.5 -38.5t111 -62.5t92 -89t61 -121.5t23 -157.5q0 -88 -24 -162.5t-63 -125.5t-93 -91t-110 -64t-119 -39t-114.5 -20.5t-101.5 -5.5h-96zM889 1384h-387v-563h393q193 0 298 77.5
t105 207.5t-109.5 204t-299.5 74z" />
    <glyph glyph-name="S.ss01" horiz-adv-x="1599" 
d="M823 -35q-170 0 -316.5 50.5t-260.5 158.5t-162 262l252 84q28 -86 78.5 -149t115.5 -99.5t137 -53.5t154 -17q73 0 141 14t124.5 41.5t90 72.5t33.5 101q0 43 -22.5 79t-47 57t-83 43.5t-85 30.5t-98.5 26q-20 5 -30 8l-174 45q-47 12 -86.5 23.5t-95.5 33t-100 45
t-90 59.5t-77 76.5t-51 96t-20 118.5q0 140 90.5 246t235.5 159.5t317 53.5q241 0 416 -106t233 -269l-248 -96q-48 111 -155.5 174.5t-258.5 63.5q-149 0 -248.5 -57.5t-99.5 -147.5q0 -32 15 -61.5t35.5 -51t57 -42t63.5 -33t72.5 -27.5t66.5 -20.5t61 -16.5l194 -51
q180 -48 264 -87q240 -114 240 -339q0 -142 -88 -256t-243 -178t-347 -64z" />
    <glyph glyph-name="U.ss01" horiz-adv-x="1861" 
d="M889 -35q-152 0 -274 45t-196 114t-123 158t-68 170.5t-19 159.5v985h272v-964q0 -78 24.5 -151t73 -136t134 -101t196.5 -38q112 0 201 38.5t142 101t80.5 136t27.5 150.5v964h270v-1597h-258v160h-4q-77 -103 -191.5 -149t-287.5 -46z" />
    <glyph glyph-name="Uacute.ss01" horiz-adv-x="1861" 
d="M1260 2071l-400 -351h-233l295 351h338zM889 -35q-152 0 -274 45t-196 114t-123 158t-68 170.5t-19 159.5v985h272v-964q0 -78 24.5 -151t73 -136t134 -101t196.5 -38q112 0 201 38.5t142 101t80.5 136t27.5 150.5v964h270v-1597h-258v160h-4q-77 -103 -191.5 -149
t-287.5 -46z" />
    <glyph glyph-name="Ucircumflex.ss01" horiz-adv-x="1861" 
d="M1047 2062l335 -342h-237q-128 97 -232 183q-72 -60 -235 -183h-238l336 342h271zM889 -35q-152 0 -274 45t-196 114t-123 158t-68 170.5t-19 159.5v985h272v-964q0 -78 24.5 -151t73 -136t134 -101t196.5 -38q112 0 201 38.5t142 101t80.5 136t27.5 150.5v964h270v-1597
h-258v160h-4q-77 -103 -191.5 -149t-287.5 -46z" />
    <glyph glyph-name="Udieresis.ss01" horiz-adv-x="1861" 
d="M651 1747q-71 0 -120.5 45.5t-49.5 112.5q0 62 50 106.5t120 44.5t119 -44.5t49 -106.5q0 -67 -48.5 -112.5t-119.5 -45.5zM1171 1747q-73 0 -122.5 45t-49.5 113q0 62 49.5 106.5t122.5 44.5q68 0 117 -45t49 -106q0 -67 -49 -112.5t-117 -45.5zM889 -35q-152 0 -274 45
t-196 114t-123 158t-68 170.5t-19 159.5v985h272v-964q0 -78 24.5 -151t73 -136t134 -101t196.5 -38q112 0 201 38.5t142 101t80.5 136t27.5 150.5v964h270v-1597h-258v160h-4q-77 -103 -191.5 -149t-287.5 -46z" />
    <glyph glyph-name="Ugrave.ss01" horiz-adv-x="1861" 
d="M1061 1720h-232l-399 351h336zM889 -35q-152 0 -274 45t-196 114t-123 158t-68 170.5t-19 159.5v985h272v-964q0 -78 24.5 -151t73 -136t134 -101t196.5 -38q112 0 201 38.5t142 101t80.5 136t27.5 150.5v964h270v-1597h-258v160h-4q-77 -103 -191.5 -149t-287.5 -46z
" />
    <glyph glyph-name="Uhungarumlaut.ss01" horiz-adv-x="1861" 
d="M1104 2068l-352 -348h-226l258 348h320zM1581 2068l-367 -348h-225l271 348h321zM889 -35q-152 0 -274 45t-196 114t-123 158t-68 170.5t-19 159.5v985h272v-964q0 -78 24.5 -151t73 -136t134 -101t196.5 -38q112 0 201 38.5t142 101t80.5 136t27.5 150.5v964h270v-1597
h-258v160h-4q-77 -103 -191.5 -149t-287.5 -46z" />
    <glyph glyph-name="Umacron.ss01" horiz-adv-x="1861" 
d="M1337 1784h-856v184h856v-184zM889 -35q-152 0 -274 45t-196 114t-123 158t-68 170.5t-19 159.5v985h272v-964q0 -78 24.5 -151t73 -136t134 -101t196.5 -38q112 0 201 38.5t142 101t80.5 136t27.5 150.5v964h270v-1597h-258v160h-4q-77 -103 -191.5 -149t-287.5 -46z
" />
    <glyph glyph-name="Uogonek.ss01" horiz-adv-x="1861" 
d="M1585 -305q58 0 107 12v-153q-67 -17 -142 -17q-95 0 -172 25.5t-126.5 80t-49.5 130.5q0 68 53 127.5t148 99.5h-31v160h-4q-77 -103 -191.5 -149t-287.5 -46q-152 0 -274 45t-196 114t-123 158t-68 170.5t-19 159.5v985h272v-964q0 -78 24.5 -151t73 -136t134 -101
t196.5 -38q112 0 201 38.5t142 101t80.5 136t27.5 150.5v964h270v-1597h-37q-105 -24 -154.5 -73.5t-49.5 -98.5q0 -53 53 -93t143 -40z" />
    <glyph glyph-name="Uring.ss01" horiz-adv-x="1861" 
d="M909 1712q-124 0 -208.5 69.5t-84.5 170.5q0 102 84 170.5t209 68.5q124 0 207.5 -67.5t83.5 -171.5t-83.5 -172t-207.5 -68zM909 1851q54 0 91.5 29t37.5 72q0 42 -37 70t-92 28q-57 0 -94 -27.5t-37 -70.5t37 -72t94 -29zM889 -35q-152 0 -274 45t-196 114t-123 158
t-68 170.5t-19 159.5v985h272v-964q0 -78 24.5 -151t73 -136t134 -101t196.5 -38q112 0 201 38.5t142 101t80.5 136t27.5 150.5v964h270v-1597h-258v160h-4q-77 -103 -191.5 -149t-287.5 -46z" />
    <glyph glyph-name="V.ss01" horiz-adv-x="1863" 
d="M1120 0h-385l-715 1597h287q100 -216 249 -540.5t333 -724.5h88q97 210 289.5 632.5t289.5 632.5h287z" />
    <glyph glyph-name="W.ss01" horiz-adv-x="2822" 
d="M954 0h-340l-581 1597h303l448 -1237h4l408 1237h440l398 -1237h6l444 1237h305l-581 -1597h-338l-402 1272h-102z" />
    <glyph glyph-name="Wacute.ss01" horiz-adv-x="2822" 
d="M1917 2071l-399 -351h-232l295 351h336zM954 0h-340l-581 1597h303l448 -1237h4l408 1237h440l398 -1237h6l444 1237h305l-581 -1597h-338l-402 1272h-102z" />
    <glyph glyph-name="Wcircumflex.ss01" horiz-adv-x="2822" 
d="M1546 2062l336 -342h-237q-128 97 -232 183q-72 -60 -235 -183h-238l336 342h270zM954 0h-340l-581 1597h303l448 -1237h4l408 1237h440l398 -1237h6l444 1237h305l-581 -1597h-338l-402 1272h-102z" />
    <glyph glyph-name="Wdieresis.ss01" horiz-adv-x="2822" 
d="M1153 1747q-71 0 -120.5 45.5t-49.5 112.5q0 62 50 106.5t120 44.5t119 -44.5t49 -106.5q0 -67 -48.5 -112.5t-119.5 -45.5zM1673 1747q-73 0 -122.5 45t-49.5 113q0 62 49.5 106.5t122.5 44.5q68 0 117 -45t49 -106q0 -67 -49 -112.5t-117 -45.5zM954 0h-340l-581 1597
h303l448 -1237h4l408 1237h440l398 -1237h6l444 1237h305l-581 -1597h-338l-402 1272h-102z" />
    <glyph glyph-name="Wgrave.ss01" horiz-adv-x="2822" 
d="M1561 1720h-232l-399 351h336zM954 0h-340l-581 1597h303l448 -1237h4l408 1237h440l398 -1237h6l444 1237h305l-581 -1597h-338l-402 1272h-102z" />
    <glyph glyph-name="X.ss01" horiz-adv-x="1736" 
d="M324 0h-306l629 811v12l-620 774h305q24 -30 499 -632h80q64 80 210 266t292 366h295l-614 -774v-12l624 -811h-297q-84 106 -255 325.5t-255 325.5h-80q-91 -114 -260 -333t-247 -318z" />
    <glyph glyph-name="Y.ss01" horiz-adv-x="1728" 
d="M641 0h-289l404 575l-703 1022h295l543 -761h4l549 761h293z" />
    <glyph glyph-name="Yacute.ss01" horiz-adv-x="1728" 
d="M1325 2071l-399 -351h-234l295 351h338zM641 0h-289l404 575l-703 1022h295l543 -761h4l549 761h293z" />
    <glyph glyph-name="Ycircumflex.ss01" horiz-adv-x="1728" 
d="M1030 2062l336 -342h-238q-117 88 -231 183q-72 -60 -235 -183h-238l336 342h270zM641 0h-289l404 575l-703 1022h295l543 -761h4l549 761h293z" />
    <glyph glyph-name="Ydieresis.ss01" horiz-adv-x="1728" 
d="M635 1747q-71 0 -120.5 45.5t-49.5 112.5q0 62 50 106.5t120 44.5t119 -44.5t49 -106.5q0 -67 -48.5 -112.5t-119.5 -45.5zM1155 1747q-73 0 -122.5 45t-49.5 113q0 62 49.5 106.5t122.5 44.5q68 0 117 -45t49 -106q0 -67 -49 -112.5t-117 -45.5zM641 0h-289l404 575
l-703 1022h295l543 -761h4l549 761h293z" />
    <glyph glyph-name="Ygrave.ss01" horiz-adv-x="1728" 
d="M1044 1720h-231l-399 351h336zM641 0h-289l404 575l-703 1022h295l543 -761h4l549 761h293z" />
    <glyph glyph-name="Z.ss01" horiz-adv-x="1693" 
d="M1593 0h-1601l1196 1358h-1036v239h1521l-1186 -1357h1106v-240z" />
    <glyph glyph-name="Zacute.ss01" horiz-adv-x="1693" 
d="M1348 2071l-400 -351h-231l295 351h336zM1593 0h-1601l1196 1358h-1036v239h1521l-1186 -1357h1106v-240z" />
    <glyph glyph-name="Zcaron.ss01" horiz-adv-x="1693" 
d="M1073 2062h240l-332 -342h-281l-331 342h239q113 -86 234 -186q126 104 231 186zM1593 0h-1601l1196 1358h-1036v239h1521l-1186 -1357h1106v-240z" />
    <glyph glyph-name="Zdotaccent.ss01" horiz-adv-x="1693" 
d="M856 1763q-75 0 -126.5 47t-51.5 115q0 64 52 110t126 46q71 0 121.5 -46t50.5 -110q0 -68 -50 -115t-122 -47zM1593 0h-1601l1196 1358h-1036v239h1521l-1186 -1357h1106v-240z" />
    <glyph glyph-name="Q.ss02" horiz-adv-x="2156" 
d="M1221 -27v-155h620v-224h-878v377q-177 17 -333 85t-270.5 174.5t-180.5 253.5t-66 313q0 238 130.5 430t351 297.5t484.5 105.5q199 0 377.5 -63.5t307.5 -173t204.5 -265t75.5 -331.5q0 -214 -108 -393t-294.5 -291t-420.5 -140zM399 797q0 -151 75.5 -276.5t203 -203
t285.5 -100.5v412h258v-408q233 40 383.5 198.5t150.5 377.5q0 165 -90 300.5t-244.5 212t-339.5 76.5t-341 -75t-248.5 -211t-92.5 -303z" />
    <glyph glyph-name="A.ss07" 
d="M1225 -315q-237 0 -446.5 71t-359 193.5t-236.5 294t-87 364.5q0 198 87 372.5t236.5 298.5t359 195.5t446.5 71.5q239 0 449 -71.5t360 -195.5t236.5 -298.5t86.5 -372.5q0 -156 -55 -298t-157.5 -255t-241 -196.5t-313 -128.5t-365.5 -45zM1130 1096l-452 -963h188
q47 79 138 273h448q89 -169 137 -273h193l-453 963h-199zM1391 559h-328q91 183 166 324q64 -149 162 -324z" />
    <glyph glyph-name="B.ss07" horiz-adv-x="2459" 
d="M1225 -315q-237 0 -446.5 71t-359 193.5t-236.5 294t-87 364.5q0 198 87 372.5t236.5 298.5t359 195.5t446.5 71.5q239 0 449 -71.5t360 -195.5t236.5 -298.5t86.5 -372.5q0 -156 -55 -298t-157.5 -255t-241 -196.5t-313 -128.5t-365.5 -45zM844 1096v-963h475
q55 0 107.5 9t102.5 29.5t87.5 50.5t60.5 75t23 100q0 86 -55.5 146.5t-153.5 83.5q77 25 123.5 84t46.5 133q0 114 -101 183t-264 69h-452zM1026 692v246h225q101 0 160 -32.5t59 -90.5q0 -62 -61 -92.5t-156 -30.5h-227zM1282 291h-256v254h252q105 0 167 -34.5t62 -94.5
q0 -59 -60 -92t-165 -33z" />
    <glyph glyph-name="C.ss07" 
d="M1227 -315q-237 0 -446.5 71t-359 193.5t-236.5 294t-87 364.5q0 198 87 372.5t236.5 298.5t359 195.5t446.5 71.5q239 0 449 -71.5t360 -195.5t236.5 -298.5t86.5 -372.5q0 -156 -55 -298t-157.5 -255t-241 -196.5t-313 -128.5t-365.5 -45zM1257 113q204 0 349 92
t206 262l-165 53q-38 -112 -137 -180t-246 -68q-78 0 -148.5 19.5t-130.5 58t-95.5 105.5t-35.5 153q0 154 111 251t284 97q126 0 219.5 -56t137.5 -150l166 61q-56 142 -201 223.5t-324 81.5q-157 0 -288 -59t-212 -174.5t-81 -266.5q0 -223 165 -363t426 -140z" />
    <glyph glyph-name="D.ss07" 
d="M1225 -315q-237 0 -446.5 71t-359 193.5t-236.5 294t-87 364.5q0 198 87 372.5t236.5 298.5t359 195.5t446.5 71.5q239 0 449 -71.5t360 -195.5t236.5 -298.5t86.5 -372.5q0 -156 -55 -298t-157.5 -255t-241 -196.5t-313 -128.5t-365.5 -45zM801 1096v-963h444
q244 0 390.5 133t146.5 355q0 223 -147 349t-404 126h-430zM1235 291h-252v647h209q399 0 399 -326q0 -154 -93 -237.5t-263 -83.5z" />
    <glyph glyph-name="E.ss07" 
d="M1225 -315q-237 0 -446.5 71t-359 193.5t-236.5 294t-87 364.5q0 198 87 372.5t236.5 298.5t359 195.5t446.5 71.5q239 0 449 -71.5t360 -195.5t236.5 -298.5t86.5 -372.5q0 -156 -55 -298t-157.5 -255t-241 -196.5t-313 -128.5t-365.5 -45zM864 1096v-963h764v158h-581
v252h538v162h-538v233h567v158h-750z" />
    <glyph glyph-name="F.ss07" horiz-adv-x="2459" 
d="M1225 -315q-237 0 -446.5 71t-359 193.5t-236.5 294t-87 364.5q0 198 87 372.5t236.5 298.5t359 195.5t446.5 71.5q239 0 449 -71.5t360 -195.5t236.5 -298.5t86.5 -372.5q0 -156 -55 -298t-157.5 -255t-241 -196.5t-313 -128.5t-365.5 -45zM891 1096v-963h182v391h524
v164h-524v250h555v158h-737z" />
    <glyph glyph-name="G.ss07" 
d="M1227 -315q-237 0 -446.5 71t-359 193.5t-236.5 294t-87 364.5q0 198 87 372.5t236.5 298.5t359 195.5t446.5 71.5q239 0 449 -71.5t360 -195.5t236.5 -298.5t86.5 -372.5q0 -156 -55 -298t-157.5 -255t-241 -196.5t-313 -128.5t-365.5 -45zM1237 113q283 0 408 176
l8 -156h143v500h-526v-144h346q-20 -99 -115.5 -158t-236.5 -59q-59 0 -115.5 11t-110.5 37t-94.5 64t-65 95.5t-24.5 128.5q0 153 111.5 250.5t283.5 97.5q124 0 217 -53.5t140 -152.5l166 61q-54 141 -200 223t-325 82q-160 0 -291.5 -60.5t-210.5 -177t-79 -266.5
q0 -218 160.5 -358.5t410.5 -140.5z" />
    <glyph glyph-name="H.ss07" 
d="M1225 -315q-237 0 -446.5 71t-359 193.5t-236.5 294t-87 364.5q0 198 87 372.5t236.5 298.5t359 195.5t446.5 71.5q239 0 449 -71.5t360 -195.5t236.5 -298.5t86.5 -372.5q0 -156 -55 -298t-157.5 -255t-241 -196.5t-313 -128.5t-365.5 -45zM766 1096v-963h180v397h565
v-397h181v963h-181v-402h-565v402h-180z" />
    <glyph glyph-name="I.ss07" 
d="M1225 -315q-237 0 -446.5 71t-359 193.5t-236.5 294t-87 364.5q0 198 87 372.5t236.5 298.5t359 195.5t446.5 71.5q239 0 449 -71.5t360 -195.5t236.5 -298.5t86.5 -372.5q0 -156 -55 -298t-157.5 -255t-241 -196.5t-313 -128.5t-365.5 -45zM1141 1096v-963h182v963h-182
z" />
    <glyph glyph-name="J.ss07" 
d="M1225 -315q-237 0 -446.5 71t-359 193.5t-236.5 294t-87 364.5q0 198 87 372.5t236.5 298.5t359 195.5t446.5 71.5q239 0 449 -71.5t360 -195.5t236.5 -298.5t86.5 -372.5q0 -156 -55 -298t-157.5 -255t-241 -196.5t-313 -128.5t-365.5 -45zM1192 123q58 0 106 10.5
t82.5 26.5t62 42t44.5 50t29.5 58.5t18.5 58.5t9 58.5t3.5 51t0.5 43.5v584h-178v-612q0 -33 -3 -58.5t-14 -56t-29.5 -50t-54 -33t-83.5 -13.5q-88 0 -148.5 48t-60.5 144v37l-176 -23v-38q0 -105 55 -180.5t142 -111.5t194 -36z" />
    <glyph glyph-name="K.ss07" 
d="M1225 -315q-237 0 -446.5 71t-359 193.5t-236.5 294t-87 364.5q0 198 87 372.5t236.5 298.5t359 195.5t446.5 71.5q239 0 449 -71.5t360 -195.5t236.5 -298.5t86.5 -372.5q0 -156 -55 -298t-157.5 -255t-241 -196.5t-313 -128.5t-365.5 -45zM829 1096v-963h181v305
q17 14 59.5 51t67.5 56q52 -56 387 -412h219q-49 55 -170 188.5t-313 354.5q78 70 229.5 209t232.5 211h-219q-84 -73 -254 -222.5t-239 -209.5v432h-181z" />
    <glyph glyph-name="L.ss07" 
d="M1225 -315q-237 0 -446.5 71t-359 193.5t-236.5 294t-87 364.5q0 198 87 372.5t236.5 298.5t359 195.5t446.5 71.5q239 0 449 -71.5t360 -195.5t236.5 -298.5t86.5 -372.5q0 -156 -55 -298t-157.5 -255t-241 -196.5t-313 -128.5t-365.5 -45zM963 1096v-963h720v158h-540
v805h-180z" />
    <glyph glyph-name="M.ss07" horiz-adv-x="2459" 
d="M1225 -315q-237 0 -446.5 71t-359 193.5t-236.5 294t-87 364.5q0 198 87 372.5t236.5 298.5t359 195.5t446.5 71.5q239 0 449 -71.5t360 -195.5t236.5 -298.5t86.5 -372.5q0 -156 -55 -298t-157.5 -255t-241 -196.5t-313 -128.5t-365.5 -45zM618 1096v-963h181v629
q58 -102 183.5 -316t182.5 -313h127q56 99 177.5 304.5t187.5 324.5v-629h184v963h-215q-72 -131 -397 -707q-140 254 -398 707h-213z" />
    <glyph glyph-name="N.ss07" 
d="M1225 -315q-237 0 -446.5 71t-359 193.5t-236.5 294t-87 364.5q0 198 87 372.5t236.5 298.5t359 195.5t446.5 71.5q239 0 449 -71.5t360 -195.5t236.5 -298.5t86.5 -372.5q0 -156 -55 -298t-157.5 -255t-241 -196.5t-313 -128.5t-365.5 -45zM772 1096v-963h180v658
q103 -120 296 -338.5t280 -319.5h186v963h-180v-666q-69 82 -576 666h-186z" />
    <glyph glyph-name="O.ss07" 
d="M1225 -315q-237 0 -446.5 71t-359 193.5t-236.5 294t-87 364.5q0 198 87 372.5t236.5 298.5t359 195.5t446.5 71.5q239 0 449 -71.5t360 -195.5t236.5 -298.5t86.5 -372.5q0 -156 -55 -298t-157.5 -255t-241 -196.5t-313 -128.5t-365.5 -45zM1231 113q163 0 296 65.5
t209 180.5t76 255t-76 255.5t-209 181t-296 65.5t-296.5 -65.5t-209.5 -181t-76 -255.5q0 -141 76 -256t209.5 -180t296.5 -65zM838 614q0 144 114.5 243t280.5 99q163 0 277 -99t114 -243q0 -145 -113.5 -243.5t-277.5 -98.5q-166 0 -280.5 98t-114.5 244z" />
    <glyph glyph-name="P.ss07" 
d="M1225 -315q-237 0 -446.5 71t-359 193.5t-236.5 294t-87 364.5q0 198 87 372.5t236.5 298.5t359 195.5t446.5 71.5q239 0 449 -71.5t360 -195.5t236.5 -298.5t86.5 -372.5q0 -156 -55 -298t-157.5 -255t-241 -196.5t-313 -128.5t-365.5 -45zM872 1096v-963h183v346h260
q44 0 89.5 7.5t99.5 29t95.5 54.5t69 91t27.5 132t-28 130.5t-69.5 88t-97.5 51.5t-103 26.5t-95 6.5h-431zM1276 643h-221v295h219q47 0 86.5 -7t73.5 -23t53.5 -45t19.5 -70q0 -150 -231 -150z" />
    <glyph glyph-name="Q.ss07" 
d="M1225 -315q-237 0 -446.5 71t-359 193.5t-236.5 294t-87 364.5q0 198 87 372.5t236.5 298.5t359 195.5t446.5 71.5q239 0 449 -71.5t360 -195.5t236.5 -298.5t86.5 -372.5q0 -156 -55 -298t-157.5 -255t-241 -196.5t-313 -128.5t-365.5 -45zM1649 55l131 105
q-56 51 -152 143q89 69 138 165t49 202q0 140 -77.5 255t-212.5 180.5t-300 65.5q-166 0 -301 -65t-212 -180t-77 -256t77 -256.5t211.5 -180.5t299.5 -65q140 0 264 47zM821 670q0 148 115.5 245t288.5 97t288 -97t115 -245q0 -143 -119 -238q-20 17 -72 66t-114 102
l-129 -100q26 -23 54 -47.5t60.5 -54t51.5 -46.5q-67 -24 -135 -24q-174 0 -289 96t-115 246z" />
    <glyph glyph-name="R.ss07" 
d="M1225 -315q-237 0 -446.5 71t-359 193.5t-236.5 294t-87 364.5q0 198 87 372.5t236.5 298.5t359 195.5t446.5 71.5q239 0 449 -71.5t360 -195.5t236.5 -298.5t86.5 -372.5q0 -156 -55 -298t-157.5 -255t-241 -196.5t-313 -128.5t-365.5 -45zM874 1096v-963h181v350h180
l285 -350h204q-50 63 -164.5 202.5t-132.5 162.5q127 27 198 103t71 190q0 74 -28.5 131t-71 89t-98.5 52t-102.5 26.5t-92.5 6.5h-429zM1278 635h-223v307h219q98 0 165.5 -38.5t67.5 -117.5q0 -43 -21 -74t-56 -47t-72.5 -23t-79.5 -7z" />
    <glyph glyph-name="S.ss07" 
d="M1225 -315q-237 0 -446.5 71t-359 193.5t-236.5 294t-87 364.5q0 198 87 372.5t236.5 298.5t359 195.5t446.5 71.5q239 0 449 -71.5t360 -195.5t236.5 -298.5t86.5 -372.5q0 -156 -55 -298t-157.5 -255t-241 -196.5t-313 -128.5t-365.5 -45zM1251 113q179 0 295.5 85
t116.5 218q0 38 -12 71t-27.5 56t-45 44.5t-51 33.5t-59.5 25.5t-56 18.5l-54 15l-117 29q-34 9 -52 14t-52.5 18.5t-53 26.5t-34 34t-15.5 46q0 47 54 77.5t137 30.5q87 0 149 -36t90 -103l164 64q-29 99 -136 167t-261 68q-105 0 -193.5 -33t-144 -98t-55.5 -149
q0 -205 319 -281l105 -25q109 -28 143 -47q58 -33 59 -86q0 -59 -64 -92t-153 -33q-103 0 -177 49.5t-103 139.5l-166 -55q28 -97 98.5 -164.5t159.5 -98t192 -30.5z" />
    <glyph glyph-name="T.ss07" 
d="M1225 -315q-237 0 -446.5 71t-359 193.5t-236.5 294t-87 364.5q0 198 87 372.5t236.5 298.5t359 195.5t446.5 71.5q239 0 449 -71.5t360 -195.5t236.5 -298.5t86.5 -372.5q0 -156 -55 -298t-157.5 -255t-241 -196.5t-313 -128.5t-365.5 -45zM1139 938v-805h180v805h362
v158h-909v-158h367z" />
    <glyph glyph-name="U.ss07" 
d="M1225 -315q-237 0 -446.5 71t-359 193.5t-236.5 294t-87 364.5q0 198 87 372.5t236.5 298.5t359 195.5t446.5 71.5q239 0 449 -71.5t360 -195.5t236.5 -298.5t86.5 -372.5q0 -156 -55 -298t-157.5 -255t-241 -196.5t-313 -128.5t-365.5 -45zM1225 123q98 0 175 24
t125 62.5t79 91.5t43 105.5t12 109.5v590h-182v-578q0 -122 -60 -183.5t-190 -61.5q-131 0 -190.5 62.5t-59.5 182.5v578h-180v-590q0 -58 11.5 -110.5t41.5 -105.5t77 -91t123.5 -62t174.5 -24z" />
    <glyph glyph-name="V.ss07" 
d="M1225 -315q-237 0 -446.5 71t-359 193.5t-236.5 294t-87 364.5q0 198 87 372.5t236.5 298.5t359 195.5t446.5 71.5q239 0 449 -71.5t360 -195.5t236.5 -298.5t86.5 -372.5q0 -156 -55 -298t-157.5 -255t-241 -196.5t-313 -128.5t-365.5 -45zM690 1096l453 -963h200
l451 963h-190q-36 -62 -99.5 -196t-141.5 -303t-118 -251q-36 75 -119 254.5t-145 306t-100 189.5h-191z" />
    <glyph glyph-name="W.ss07" 
d="M1225 -315q-237 0 -446.5 71t-359 193.5t-236.5 294t-87 364.5q0 198 87 372.5t236.5 298.5t359 195.5t446.5 71.5q239 0 449 -71.5t360 -195.5t236.5 -298.5t86.5 -372.5q0 -156 -55 -298t-157.5 -255t-241 -196.5t-313 -128.5t-365.5 -45zM399 1096l353 -963h213
q151 376 266 692q110 -312 266 -692h211l352 963h-200q-55 -144 -138 -378t-120 -337q-33 86 -128.5 332.5t-146.5 382.5h-197l-270 -715q-43 121 -126.5 349.5t-133.5 365.5h-201z" />
    <glyph glyph-name="X.ss07" 
d="M1225 -315q-237 0 -446.5 71t-359 193.5t-236.5 294t-87 364.5q0 198 87 372.5t236.5 298.5t359 195.5t446.5 71.5q239 0 449 -71.5t360 -195.5t236.5 -298.5t86.5 -372.5q0 -156 -55 -298t-157.5 -255t-241 -196.5t-313 -128.5t-365.5 -45zM741 131h215q52 66 147 182.5
t134 165.5q37 -46 276 -348h216q-60 75 -185.5 238t-195.5 249q61 76 186.5 236t191.5 242h-210q-34 -40 -279 -338q-53 63 -149 180t-130 158h-213q66 -80 191 -239t190 -239q-71 -88 -385 -487z" />
    <glyph glyph-name="Y.ss07" 
d="M1225 -315q-237 0 -446.5 71t-359 193.5t-236.5 294t-87 364.5q0 198 87 372.5t236.5 298.5t359 195.5t446.5 71.5q239 0 449 -71.5t360 -195.5t236.5 -298.5t86.5 -372.5q0 -156 -55 -298t-157.5 -255t-241 -196.5t-313 -128.5t-365.5 -45zM1139 471v-338h180v338
q60 91 216.5 323.5t201.5 301.5h-197l-311 -457q-53 79 -159 231.5t-155 225.5h-194z" />
    <glyph glyph-name="Z.ss07" 
d="M1225 -315q-237 0 -446.5 71t-359 193.5t-236.5 294t-87 364.5q0 198 87 372.5t236.5 298.5t359 195.5t446.5 71.5q239 0 449 -71.5t360 -195.5t236.5 -298.5t86.5 -372.5q0 -156 -55 -298t-157.5 -255t-241 -196.5t-313 -128.5t-365.5 -45zM786 289v-156h897v158h-673
l661 649v156h-860v-158q211 2 629 2q-484 -484 -654 -651z" />
    <glyph glyph-name="A.ss08" 
d="M1225 1546q239 0 449 -71.5t360 -195.5t236.5 -298.5t86.5 -372.5q0 -156 -55 -298t-157.5 -255t-241 -196.5t-313 -128.5t-365.5 -45q-237 0 -446.5 71t-359 193.5t-236.5 294t-87 364.5q0 198 87 372.5t236.5 298.5t359 195.5t446.5 71.5zM1225 -180q277 0 502.5 102.5
t354 283.5t128.5 404q0 169 -75.5 317.5t-206 254.5t-313.5 167.5t-390 61.5q-205 0 -386.5 -61.5t-311.5 -167.5t-205.5 -254.5t-75.5 -317.5q0 -166 75.5 -313t205.5 -251.5t311.5 -165t386.5 -60.5zM862 299l303 631h129l305 -631h-129q-18 39 -92 182h-299
q-57 -116 -92 -182h-125zM1122 582h213q-63 112 -106 204q-15 -29 -52 -98.5t-55 -105.5z" />
    <glyph glyph-name="B.ss08" 
d="M1225 1546q239 0 449 -71.5t360 -195.5t236.5 -298.5t86.5 -372.5q0 -156 -55 -298t-157.5 -255t-241 -196.5t-313 -128.5t-365.5 -45q-237 0 -446.5 71t-359 193.5t-236.5 294t-87 364.5q0 198 87 372.5t236.5 298.5t359 195.5t446.5 71.5zM1225 -180q277 0 502.5 102.5
t354 283.5t128.5 404q0 169 -75.5 317.5t-206 254.5t-313.5 167.5t-390 61.5q-205 0 -386.5 -61.5t-311.5 -167.5t-205.5 -254.5t-75.5 -317.5q0 -166 75.5 -313t205.5 -251.5t311.5 -165t386.5 -60.5zM1401 623q66 -17 101.5 -56t35.5 -92q0 -59 -39 -100.5t-94 -58.5
t-119 -17h-319v631h299q109 0 178 -46.5t69 -121.5q0 -45 -29.5 -83t-82.5 -56zM1090 825v-159h151q67 0 106 21t39 58t-40.5 58.5t-106.5 21.5h-149zM1262 403q64 0 105.5 20t41.5 60t-41.5 63t-110.5 23h-167v-166h172z" />
    <glyph glyph-name="C.ss08" 
d="M1225 -315q-237 0 -446.5 71t-359 193.5t-236.5 294t-87 364.5q0 198 87 372.5t236.5 298.5t359 195.5t446.5 71.5q239 0 449 -71.5t360 -195.5t236.5 -298.5t86.5 -372.5q0 -156 -55 -298t-157.5 -255t-241 -196.5t-313 -128.5t-365.5 -45zM1225 -180q277 0 502.5 102.5
t354 283.5t128.5 404q0 169 -75.5 317.5t-206 254.5t-313.5 167.5t-390 61.5q-205 0 -386.5 -61.5t-311.5 -167.5t-205.5 -254.5t-75.5 -317.5q0 -166 75.5 -313t205.5 -251.5t311.5 -165t386.5 -60.5zM1247 287q-174 0 -284.5 91.5t-110.5 235.5q0 149 113 238.5t276 89.5
q126 0 220.5 -54.5t129.5 -146.5l-108 -41q-32 65 -97 101.5t-145 36.5q-116 0 -189 -63.5t-73 -164.5q0 -74 41.5 -125.5t100 -72.5t128.5 -21q96 0 164 43.5t94 122.5l111 -37q-38 -112 -135.5 -172.5t-235.5 -60.5z" />
    <glyph glyph-name="D.ss08" horiz-adv-x="2459" 
d="M1225 -315q-237 0 -446.5 71t-359 193.5t-236.5 294t-87 364.5q0 198 87 372.5t236.5 298.5t359 195.5t446.5 71.5q239 0 449 -71.5t360 -195.5t236.5 -298.5t86.5 -372.5q0 -156 -55 -298t-157.5 -255t-241 -196.5t-313 -128.5t-365.5 -45zM1225 -180q277 0 502.5 102.5
t354 283.5t128.5 404q0 169 -75.5 317.5t-206 254.5t-313.5 167.5t-390 61.5q-205 0 -386.5 -61.5t-311.5 -167.5t-205.5 -254.5t-75.5 -317.5q0 -166 75.5 -313t205.5 -251.5t311.5 -165t386.5 -60.5zM1239 299h-297v631h289q172 0 269 -83t97 -229q0 -144 -98 -231.5
t-260 -87.5zM1065 403h170q111 0 174.5 55t63.5 154q0 213 -269 213h-139v-422z" />
    <glyph glyph-name="E.ss08" 
d="M1225 -315q-237 0 -446.5 71t-359 193.5t-236.5 294t-87 364.5q0 198 87 372.5t236.5 298.5t359 195.5t446.5 71.5q239 0 449 -71.5t360 -195.5t236.5 -298.5t86.5 -372.5q0 -156 -55 -298t-157.5 -255t-241 -196.5t-313 -128.5t-365.5 -45zM1225 -180q277 0 502.5 102.5
t354 283.5t128.5 404q0 169 -75.5 317.5t-206 254.5t-313.5 167.5t-390 61.5q-205 0 -386.5 -61.5t-311.5 -167.5t-205.5 -254.5t-75.5 -317.5q0 -166 75.5 -313t205.5 -251.5t311.5 -165t386.5 -60.5zM1495 299h-510v631h504v-105h-383v-149h362v-109h-362v-161h389v-107z
" />
    <glyph glyph-name="F.ss08" 
d="M1225 -315q-237 0 -446.5 71t-359 193.5t-236.5 294t-87 364.5q0 198 87 372.5t236.5 298.5t359 195.5t446.5 71.5q239 0 449 -71.5t360 -195.5t236.5 -298.5t86.5 -372.5q0 -156 -55 -298t-157.5 -255t-241 -196.5t-313 -128.5t-365.5 -45zM1225 -180q277 0 502.5 102.5
t354 283.5t128.5 404q0 169 -75.5 317.5t-206 254.5t-313.5 167.5t-390 61.5q-205 0 -386.5 -61.5t-311.5 -167.5t-205.5 -254.5t-75.5 -317.5q0 -166 75.5 -313t205.5 -251.5t311.5 -165t386.5 -60.5zM1122 299h-121v631h494v-105h-373v-161h355v-107h-355v-258z" />
    <glyph glyph-name="G.ss08" 
d="M1225 1546q239 0 449 -71.5t360 -195.5t236.5 -298.5t86.5 -372.5q0 -156 -55 -298t-157.5 -255t-241 -196.5t-313 -128.5t-365.5 -45q-237 0 -446.5 71t-359 193.5t-236.5 294t-87 364.5q0 198 87 372.5t236.5 298.5t359 195.5t446.5 71.5zM1225 -180q277 0 502.5 102.5
t354 283.5t128.5 404q0 169 -75.5 317.5t-206 254.5t-313.5 167.5t-390 61.5q-205 0 -386.5 -61.5t-311.5 -167.5t-205.5 -254.5t-75.5 -317.5q0 -166 75.5 -313t205.5 -251.5t311.5 -165t386.5 -60.5zM1253 532v95h357v-328h-101q-2 35 -2 100q-86 -112 -272 -112
q-167 0 -275 91.5t-108 233.5q0 144 110.5 237t278.5 93q126 0 220.5 -54.5t129.5 -146.5l-108 -41q-33 66 -97 102t-143 36q-116 0 -190 -63.5t-74 -164.5q0 -57 24 -100.5t64 -68.5t86.5 -37.5t97.5 -12.5q93 0 157.5 39t78.5 102h-234z" />
    <glyph glyph-name="H.ss08" 
d="M1225 1546q239 0 449 -71.5t360 -195.5t236.5 -298.5t86.5 -372.5q0 -156 -55 -298t-157.5 -255t-241 -196.5t-313 -128.5t-365.5 -45q-237 0 -446.5 71t-359 193.5t-236.5 294t-87 364.5q0 198 87 372.5t236.5 298.5t359 195.5t446.5 71.5zM1225 -180q277 0 502.5 102.5
t354 283.5t128.5 404q0 169 -75.5 317.5t-206 254.5t-313.5 167.5t-390 61.5q-205 0 -386.5 -61.5t-311.5 -167.5t-205.5 -254.5t-75.5 -317.5q0 -166 75.5 -313t205.5 -251.5t311.5 -165t386.5 -60.5zM1040 668h377v262h121v-631h-121v260h-377v-260h-120v631h120v-262z
" />
    <glyph glyph-name="I.ss08" horiz-adv-x="2459" 
d="M1227 -315q-237 0 -446.5 71t-359 193.5t-236.5 294t-87 364.5q0 198 87 372.5t236.5 298.5t359 195.5t446.5 71.5q239 0 449 -71.5t360 -195.5t236.5 -298.5t86.5 -372.5q0 -156 -55 -298t-157.5 -255t-241 -196.5t-313 -128.5t-365.5 -45zM1227 -180q277 0 502.5 102.5
t354 283.5t128.5 404q0 169 -75.5 317.5t-206 254.5t-313.5 167.5t-390 61.5q-205 0 -386.5 -61.5t-311.5 -167.5t-205.5 -254.5t-75.5 -317.5q0 -166 75.5 -313t205.5 -251.5t311.5 -165t386.5 -60.5zM1290 299h-121v631h121v-631z" />
    <glyph glyph-name="J.ss08" 
d="M1225 -315q-237 0 -446.5 71t-359 193.5t-236.5 294t-87 364.5q0 198 87 372.5t236.5 298.5t359 195.5t446.5 71.5q239 0 449 -71.5t360 -195.5t236.5 -298.5t86.5 -372.5q0 -156 -55 -298t-157.5 -255t-241 -196.5t-313 -128.5t-365.5 -45zM1225 -180q277 0 502.5 102.5
t354 283.5t128.5 404q0 169 -75.5 317.5t-206 254.5t-313.5 167.5t-390 61.5q-205 0 -386.5 -61.5t-311.5 -167.5t-205.5 -254.5t-75.5 -317.5q0 -166 75.5 -313t205.5 -251.5t311.5 -165t386.5 -60.5zM1204 293q-120 0 -190 57.5t-70 157.5v27l117 14v-27q0 -60 37 -92.5
t102 -32.5q39 0 65 12.5t37.5 35.5t15 43.5t3.5 48.5v399h121v-383q0 -23 -0.5 -37.5t-5 -45t-13 -51t-26 -46.5t-42 -42t-63.5 -27t-88 -11z" />
    <glyph glyph-name="K.ss08" 
d="M1225 1546q239 0 449 -71.5t360 -195.5t236.5 -298.5t86.5 -372.5q0 -156 -55 -298t-157.5 -255t-241 -196.5t-313 -128.5t-365.5 -45q-237 0 -446.5 71t-359 193.5t-236.5 294t-87 364.5q0 198 87 372.5t236.5 298.5t359 195.5t446.5 71.5zM1225 -180q277 0 502.5 102.5
t354 283.5t128.5 404q0 169 -75.5 317.5t-206 254.5t-313.5 167.5t-390 61.5q-205 0 -386.5 -61.5t-311.5 -167.5t-205.5 -254.5t-75.5 -317.5q0 -166 75.5 -313t205.5 -251.5t311.5 -165t386.5 -60.5zM1415 930h148q-49 -42 -88 -77t-99 -89t-125 -111q17 -18 322 -354
h-148q-42 46 -139.5 146.5t-118.5 123.5q-68 -58 -80 -69v-201h-122v631h122v-281q54 46 163.5 140.5t164.5 140.5z" />
    <glyph glyph-name="L.ss08" 
d="M1225 1546q239 0 449 -71.5t360 -195.5t236.5 -298.5t86.5 -372.5q0 -156 -55 -298t-157.5 -255t-241 -196.5t-313 -128.5t-365.5 -45q-237 0 -446.5 71t-359 193.5t-236.5 294t-87 364.5q0 198 87 372.5t236.5 298.5t359 195.5t446.5 71.5zM1225 -180q277 0 502.5 102.5
t354 283.5t128.5 404q0 169 -75.5 317.5t-206 254.5t-313.5 167.5t-390 61.5q-205 0 -386.5 -61.5t-311.5 -167.5t-205.5 -254.5t-75.5 -317.5q0 -166 75.5 -313t205.5 -251.5t311.5 -165t386.5 -60.5zM1049 930h120v-524h363v-107h-483v631z" />
    <glyph glyph-name="M.ss08" horiz-adv-x="2459" 
d="M1225 1546q239 0 449 -71.5t360 -195.5t236.5 -298.5t86.5 -372.5q0 -156 -55 -298t-157.5 -255t-241 -196.5t-313 -128.5t-365.5 -45q-237 0 -446.5 71t-359 193.5t-236.5 294t-87 364.5q0 198 87 372.5t236.5 298.5t359 195.5t446.5 71.5zM1225 -180q277 0 502.5 102.5
t354 283.5t128.5 404q0 169 -75.5 317.5t-206 254.5t-313.5 167.5t-390 61.5q-205 0 -386.5 -61.5t-311.5 -167.5t-205.5 -254.5t-75.5 -317.5q0 -166 75.5 -313t205.5 -251.5t311.5 -165t386.5 -60.5zM1229 469q219 377 266 461h141v-631h-123v408q-24 -41 -110.5 -186
t-130.5 -222h-84q-3 4 -97 160.5t-145 247.5v-408h-123v631h142q256 -447 264 -461z" />
    <glyph glyph-name="N.ss08" 
d="M1225 1546q239 0 449 -71.5t360 -195.5t236.5 -298.5t86.5 -372.5q0 -156 -55 -298t-157.5 -255t-241 -196.5t-313 -128.5t-365.5 -45q-237 0 -446.5 71t-359 193.5t-236.5 294t-87 364.5q0 198 87 372.5t236.5 298.5t359 195.5t446.5 71.5zM1225 -180q277 0 502.5 102.5
t354 283.5t128.5 404q0 169 -75.5 317.5t-206 254.5t-313.5 167.5t-390 61.5q-205 0 -386.5 -61.5t-311.5 -167.5t-205.5 -254.5t-75.5 -317.5q0 -166 75.5 -313t205.5 -251.5t311.5 -165t386.5 -60.5zM1432 494v436h120v-631h-120q-52 59 -182.5 202t-202.5 226v-428h-123
v631h123q280 -313 385 -436z" />
    <glyph glyph-name="O.ss08" horiz-adv-x="2455" 
d="M1225 -315q-237 0 -446.5 71t-359 193.5t-236.5 294t-87 364.5q0 198 87 372.5t236.5 298.5t359 195.5t446.5 71.5q239 0 449 -71.5t360 -195.5t236.5 -298.5t86.5 -372.5q0 -156 -55 -298t-157.5 -255t-241 -196.5t-313 -128.5t-365.5 -45zM1225 -180q277 0 502.5 102.5
t354 283.5t128.5 404q0 169 -75.5 317.5t-206 254.5t-313.5 167.5t-390 61.5q-205 0 -386.5 -61.5t-311.5 -167.5t-205.5 -254.5t-75.5 -317.5q0 -166 75.5 -313t205.5 -251.5t311.5 -165t386.5 -60.5zM1231 287q-165 0 -277 93.5t-112 233.5q0 139 112 233.5t277 94.5
t277 -94.5t112 -233.5t-112 -233t-277 -94zM1233 391q108 0 183 64.5t75 158.5t-75.5 159t-182.5 65q-112 0 -189 -65t-77 -159t77 -158.5t189 -64.5z" />
    <glyph glyph-name="P.ss08" 
d="M1225 1546q239 0 449 -71.5t360 -195.5t236.5 -298.5t86.5 -372.5q0 -156 -55 -298t-157.5 -255t-241 -196.5t-313 -128.5t-365.5 -45q-237 0 -446.5 71t-359 193.5t-236.5 294t-87 364.5q0 198 87 372.5t236.5 298.5t359 195.5t446.5 71.5zM1225 -180q277 0 502.5 102.5
t354 283.5t128.5 404q0 169 -75.5 317.5t-206 254.5t-313.5 167.5t-390 61.5q-205 0 -386.5 -61.5t-311.5 -167.5t-205.5 -254.5t-75.5 -317.5q0 -166 75.5 -313t205.5 -251.5t311.5 -165t386.5 -60.5zM991 930h283q44 0 85 -8t84.5 -28t70 -62t26.5 -101t-26.5 -102
t-68.5 -64t-81.5 -30t-77.5 -9h-174v-227h-121v631zM1112 633h150q151 0 151 98q0 94 -153 94h-148v-192z" />
    <glyph glyph-name="Q.ss08" 
d="M1225 -315q-237 0 -446.5 71t-359 193.5t-236.5 294t-87 364.5q0 198 87 372.5t236.5 298.5t359 195.5t446.5 71.5q239 0 449 -71.5t360 -195.5t236.5 -298.5t86.5 -372.5q0 -156 -55 -298t-157.5 -255t-241 -196.5t-313 -128.5t-365.5 -45zM1225 -180q277 0 502.5 102.5
t354 283.5t128.5 404q0 169 -75.5 317.5t-206 254.5t-313.5 167.5t-390 61.5q-205 0 -386.5 -61.5t-311.5 -167.5t-205.5 -254.5t-75.5 -317.5q0 -166 75.5 -313t205.5 -251.5t311.5 -165t386.5 -60.5zM1595 315l-88 -67q-49 49 -108 102q-82 -28 -174 -28q-168 0 -281 93.5
t-113 233.5q0 139 113.5 233.5t280.5 94.5q166 0 279.5 -94.5t113.5 -233.5q0 -144 -121 -239q21 -23 98 -95zM1227 426q51 0 88 18q-91 81 -113 95l88 67q13 -12 127 -110q76 66 76 153q0 95 -76.5 159t-189.5 64q-116 0 -193.5 -64t-77.5 -159q0 -97 77 -160t194 -63z" />
    <glyph glyph-name="R.ss08" 
d="M1225 1546q239 0 449 -71.5t360 -195.5t236.5 -298.5t86.5 -372.5q0 -156 -55 -298t-157.5 -255t-241 -196.5t-313 -128.5t-365.5 -45q-237 0 -446.5 71t-359 193.5t-236.5 294t-87 364.5q0 198 87 372.5t236.5 298.5t359 195.5t446.5 71.5zM1225 -180q277 0 502.5 102.5
t354 283.5t128.5 404q0 169 -75.5 317.5t-206 254.5t-313.5 167.5t-390 61.5q-205 0 -386.5 -61.5t-311.5 -167.5t-205.5 -254.5t-75.5 -317.5q0 -166 75.5 -313t205.5 -251.5t311.5 -165t386.5 -60.5zM1538 729q0 -73 -47 -123t-129 -67q152 -186 199 -240h-140l-188 229
h-123v-229h-121v631h285q33 0 65 -4.5t69 -17.5t65 -34.5t46.5 -58.5t18.5 -86zM1110 629h152q67 0 109 23t42 75q0 51 -45 75.5t-111 24.5h-147v-198z" />
    <glyph glyph-name="S.ss08" 
d="M1225 -315q-237 0 -446.5 71t-359 193.5t-236.5 294t-87 364.5q0 198 87 372.5t236.5 298.5t359 195.5t446.5 71.5q239 0 449 -71.5t360 -195.5t236.5 -298.5t86.5 -372.5q0 -156 -55 -298t-157.5 -255t-241 -196.5t-313 -128.5t-365.5 -45zM1225 -180q277 0 502.5 102.5
t354 283.5t128.5 404q0 169 -75.5 317.5t-206 254.5t-313.5 167.5t-390 61.5q-205 0 -386.5 -61.5t-311.5 -167.5t-205.5 -254.5t-75.5 -317.5q0 -166 75.5 -313t205.5 -251.5t311.5 -165t386.5 -60.5zM1243 287q-114 0 -194 50.5t-107 141.5l111 37q20 -59 69.5 -92
t118.5 -33q59 0 102 21.5t43 60.5q0 9 -2 16.5t-7.5 14t-10 11.5t-14.5 10t-16.5 8t-19.5 6.5t-20 5.5t-22.5 6t-22.5 6l-71 18q-28 7 -46.5 13t-53 22t-56 34t-38.5 48.5t-17 67.5q0 83 77 132.5t185 49.5q98 0 171 -43t95 -113l-108 -43q-42 95 -164 95q-55 0 -90 -19.5
t-35 -50.5q0 -19 12.5 -35t37 -27t42 -17t45.5 -13l76 -19q35 -9 52 -14t51.5 -20t52.5 -31t33.5 -44t15.5 -63q0 -87 -78.5 -142.5t-196.5 -55.5z" />
    <glyph glyph-name="T.ss08" horiz-adv-x="2455" 
d="M1225 -315q-237 0 -446.5 71t-359 193.5t-236.5 294t-87 364.5q0 198 87 372.5t236.5 298.5t359 195.5t446.5 71.5q239 0 449 -71.5t360 -195.5t236.5 -298.5t86.5 -372.5q0 -156 -55 -298t-157.5 -255t-241 -196.5t-313 -128.5t-365.5 -45zM1225 -180q277 0 502.5 102.5
t354 283.5t128.5 404q0 169 -75.5 317.5t-206 254.5t-313.5 167.5t-390 61.5q-205 0 -386.5 -61.5t-311.5 -167.5t-205.5 -254.5t-75.5 -317.5q0 -166 75.5 -313t205.5 -251.5t311.5 -165t386.5 -60.5zM1288 299h-123v526h-241v105h606v-105h-242v-526z" />
    <glyph glyph-name="U.ss08" horiz-adv-x="2459" 
d="M1225 -315q-237 0 -446.5 71t-359 193.5t-236.5 294t-87 364.5q0 198 87 372.5t236.5 298.5t359 195.5t446.5 71.5q239 0 449 -71.5t360 -195.5t236.5 -298.5t86.5 -372.5q0 -156 -55 -298t-157.5 -255t-241 -196.5t-313 -128.5t-365.5 -45zM1225 -180q277 0 502.5 102.5
t354 283.5t128.5 404q0 169 -75.5 317.5t-206 254.5t-313.5 167.5t-390 61.5q-205 0 -386.5 -61.5t-311.5 -167.5t-205.5 -254.5t-75.5 -317.5q0 -166 75.5 -313t205.5 -251.5t311.5 -165t386.5 -60.5zM1227 293q-79 0 -137 22.5t-89 61.5t-45 81.5t-14 90.5v387h121v-381
q0 -158 166 -158t166 158v381h123v-387q0 -47 -15 -90t-46.5 -81.5t-90.5 -61.5t-139 -23z" />
    <glyph glyph-name="V.ss08" 
d="M1225 1546q239 0 449 -71.5t360 -195.5t236.5 -298.5t86.5 -372.5q0 -156 -55 -298t-157.5 -255t-241 -196.5t-313 -128.5t-365.5 -45q-237 0 -446.5 71t-359 193.5t-236.5 294t-87 364.5q0 198 87 372.5t236.5 298.5t359 195.5t446.5 71.5zM1225 -180q277 0 502.5 102.5
t354 283.5t128.5 404q0 169 -75.5 317.5t-206 254.5t-313.5 167.5t-390 61.5q-205 0 -386.5 -61.5t-311.5 -167.5t-205.5 -254.5t-75.5 -317.5q0 -166 75.5 -313t205.5 -251.5t311.5 -165t386.5 -60.5zM1241 438q151 349 238 492h127l-303 -631h-129l-306 631h127
q23 -35 64.5 -118.5t98.5 -203t83 -170.5z" />
    <glyph glyph-name="W.ss08" 
d="M1225 1546q239 0 449 -71.5t360 -195.5t236.5 -298.5t86.5 -372.5q0 -156 -55 -298t-157.5 -255t-241 -196.5t-313 -128.5t-365.5 -45q-237 0 -446.5 71t-359 193.5t-236.5 294t-87 364.5q0 198 87 372.5t236.5 298.5t359 195.5t446.5 71.5zM1225 -180q277 0 502.5 102.5
t354 283.5t128.5 404q0 169 -75.5 317.5t-206 254.5t-313.5 167.5t-390 61.5q-205 0 -386.5 -61.5t-311.5 -167.5t-205.5 -254.5t-75.5 -317.5q0 -166 75.5 -313t205.5 -251.5t311.5 -165t386.5 -60.5zM1477 463q131 359 174 467h131l-236 -631h-139q-60 145 -178 449
q-66 -183 -176 -449h-142l-235 631h135q2 -6 174 -465q33 91 92.5 241.5t87.5 223.5h127q20 -52 58 -146.5t69 -173t58 -147.5z" />
    <glyph glyph-name="X.ss08" 
d="M1225 1546q239 0 449 -71.5t360 -195.5t236.5 -298.5t86.5 -372.5q0 -156 -55 -298t-157.5 -255t-241 -196.5t-313 -128.5t-365.5 -45q-237 0 -446.5 71t-359 193.5t-236.5 294t-87 364.5q0 198 87 372.5t236.5 298.5t359 195.5t446.5 71.5zM1225 -180q277 0 502.5 102.5
t354 283.5t128.5 404q0 169 -75.5 317.5t-206 254.5t-313.5 167.5t-390 61.5q-205 0 -386.5 -61.5t-311.5 -167.5t-205.5 -254.5t-75.5 -317.5q0 -166 75.5 -313t205.5 -251.5t311.5 -165t386.5 -60.5zM1419 930h142q-16 -20 -109.5 -135t-146.5 -177q49 -59 134 -165.5
t124 -153.5h-142q-37 41 -100 119.5t-90 109.5q-34 -41 -96 -117t-91 -112h-145q36 44 115.5 143t144.5 176q-47 56 -120.5 148t-133.5 164h142q74 -90 184 -223q31 37 93.5 111.5t94.5 111.5z" />
    <glyph glyph-name="Y.ss08" 
d="M1225 1546q239 0 449 -71.5t360 -195.5t236.5 -298.5t86.5 -372.5q0 -156 -55 -298t-157.5 -255t-241 -196.5t-313 -128.5t-365.5 -45q-237 0 -446.5 71t-359 193.5t-236.5 294t-87 364.5q0 198 87 372.5t236.5 298.5t359 195.5t446.5 71.5zM1225 -180q277 0 502.5 102.5
t354 283.5t128.5 404q0 169 -75.5 317.5t-206 254.5t-313.5 167.5t-390 61.5q-205 0 -386.5 -61.5t-311.5 -167.5t-205.5 -254.5t-75.5 -317.5q0 -166 75.5 -313t205.5 -251.5t311.5 -165t386.5 -60.5zM1229 631q183 264 209 299h131l-281 -408v-223h-121v223
q-32 47 -72.5 107t-85.5 126t-122 175h133q134 -188 209 -299z" />
    <glyph glyph-name="Z.ss08" 
d="M1225 1546q239 0 449 -71.5t360 -195.5t236.5 -298.5t86.5 -372.5q0 -156 -55 -298t-157.5 -255t-241 -196.5t-313 -128.5t-365.5 -45q-237 0 -446.5 71t-359 193.5t-236.5 294t-87 364.5q0 198 87 372.5t236.5 298.5t359 195.5t446.5 71.5zM1225 -180q277 0 502.5 102.5
t354 283.5t128.5 404q0 169 -75.5 317.5t-206 254.5t-313.5 167.5t-390 61.5q-205 0 -386.5 -61.5t-311.5 -167.5t-205.5 -254.5t-75.5 -317.5q0 -166 75.5 -313t205.5 -251.5t311.5 -165t386.5 -60.5zM1526 930v-101q-390 -379 -436 -423h444v-107h-598v100
q52 52 192.5 185.5t243.5 242.5q-141 -2 -422 -2v105h576z" />
    <glyph glyph-name="i.loclTRK" horiz-adv-x="643" 
d="M324 1333q-75 0 -126 47t-51 115q0 64 51.5 110t125.5 46q71 0 121.5 -46t50.5 -110q0 -68 -50 -115t-122 -47zM449 0h-254v1139h254v-1139z" />
    <glyph glyph-name="a.ss01" horiz-adv-x="1646" 
d="M725 -33q-139 0 -257 46.5t-198 127.5t-125 191t-45 235q0 137 50.5 252t137 191t200 118.5t239.5 42.5q150 0 274.5 -56.5t194.5 -151.5h4v176h252v-1139h-244v170h-6q-75 -103 -201.5 -153t-275.5 -50zM780 197q179 0 297.5 107.5t118.5 266.5q0 162 -120 266.5
t-300 104.5q-178 0 -293.5 -105t-115.5 -266q0 -164 117 -269t296 -105z" />
    <glyph glyph-name="aacute.ss01" horiz-adv-x="1646" 
d="M1300 1661l-372 -383h-223l280 383h315zM725 -33q-139 0 -257 46.5t-198 127.5t-125 191t-45 235q0 137 50.5 252t137 191t200 118.5t239.5 42.5q150 0 274.5 -56.5t194.5 -151.5h4v176h252v-1139h-244v170h-6q-75 -103 -201.5 -153t-275.5 -50zM780 197
q179 0 297.5 107.5t118.5 266.5q0 162 -120 266.5t-300 104.5q-178 0 -293.5 -105t-115.5 -266q0 -164 117 -269t296 -105z" />
    <glyph glyph-name="abreve.ss01" horiz-adv-x="1646" 
d="M829 1270q-206 0 -327 110t-129 285h215q3 -92 70 -154.5t178 -62.5t177.5 61.5t69.5 155.5h215q-8 -175 -132 -285t-337 -110zM725 -33q-139 0 -257 46.5t-198 127.5t-125 191t-45 235q0 137 50.5 252t137 191t200 118.5t239.5 42.5q150 0 274.5 -56.5t194.5 -151.5h4
v176h252v-1139h-244v170h-6q-75 -103 -201.5 -153t-275.5 -50zM780 197q179 0 297.5 107.5t118.5 266.5q0 162 -120 266.5t-300 104.5q-178 0 -293.5 -105t-115.5 -266q0 -164 117 -269t296 -105z" />
    <glyph glyph-name="acircumflex.ss01" horiz-adv-x="1646" 
d="M578 1278h-242l356 367h283l356 -367h-241q-155 130 -256 217q-163 -139 -256 -217zM725 -33q-139 0 -257 46.5t-198 127.5t-125 191t-45 235q0 137 50.5 252t137 191t200 118.5t239.5 42.5q150 0 274.5 -56.5t194.5 -151.5h4v176h252v-1139h-244v170h-6
q-75 -103 -201.5 -153t-275.5 -50zM780 197q179 0 297.5 107.5t118.5 266.5q0 162 -120 266.5t-300 104.5q-178 0 -293.5 -105t-115.5 -266q0 -164 117 -269t296 -105z" />
    <glyph glyph-name="adieresis.ss01" horiz-adv-x="1646" 
d="M586 1321q-68 0 -115 43t-47 106q0 58 47.5 100t114.5 42q66 0 111.5 -42t45.5 -100q0 -63 -45 -106t-112 -43zM1081 1321q-69 0 -114 43t-45 106q0 58 45.5 100t113.5 42q66 0 113 -42.5t47 -99.5q0 -63 -47 -106t-113 -43zM725 -33q-139 0 -257 46.5t-198 127.5
t-125 191t-45 235q0 137 50.5 252t137 191t200 118.5t239.5 42.5q150 0 274.5 -56.5t194.5 -151.5h4v176h252v-1139h-244v170h-6q-75 -103 -201.5 -153t-275.5 -50zM780 197q179 0 297.5 107.5t118.5 266.5q0 162 -120 266.5t-300 104.5q-178 0 -293.5 -105t-115.5 -266
q0 -164 117 -269t296 -105z" />
    <glyph glyph-name="agrave.ss01" horiz-adv-x="1646" 
d="M952 1278h-223l-373 383h316zM725 -33q-139 0 -257 46.5t-198 127.5t-125 191t-45 235q0 137 50.5 252t137 191t200 118.5t239.5 42.5q150 0 274.5 -56.5t194.5 -151.5h4v176h252v-1139h-244v170h-6q-75 -103 -201.5 -153t-275.5 -50zM780 197q179 0 297.5 107.5
t118.5 266.5q0 162 -120 266.5t-300 104.5q-178 0 -293.5 -105t-115.5 -266q0 -164 117 -269t296 -105z" />
    <glyph glyph-name="amacron.ss01" horiz-adv-x="1646" 
d="M1245 1356h-825v176h825v-176zM725 -33q-139 0 -257 46.5t-198 127.5t-125 191t-45 235q0 137 50.5 252t137 191t200 118.5t239.5 42.5q150 0 274.5 -56.5t194.5 -151.5h4v176h252v-1139h-244v170h-6q-75 -103 -201.5 -153t-275.5 -50zM780 197q179 0 297.5 107.5
t118.5 266.5q0 162 -120 266.5t-300 104.5q-178 0 -293.5 -105t-115.5 -266q0 -164 117 -269t296 -105z" />
    <glyph glyph-name="aogonek.ss01" horiz-adv-x="1646" 
d="M1376 -297q54 0 111 16v-168q-66 -14 -135 -14q-147 0 -244.5 62t-97.5 174q0 76 54.5 135t147.5 92h-4v170h-6q-75 -103 -201.5 -153t-275.5 -50q-139 0 -257 46.5t-198 127.5t-125 191t-45 235q0 137 50.5 252t137 191t200 118.5t239.5 42.5q150 0 274.5 -56.5
t194.5 -151.5h4v176h252v-1139h-61q-100 -26 -149.5 -73.5t-49.5 -100.5q0 -54 51 -88.5t133 -34.5zM780 197q179 0 297.5 107.5t118.5 266.5q0 162 -120 266.5t-300 104.5q-178 0 -293.5 -105t-115.5 -266q0 -164 117 -269t296 -105z" />
    <glyph glyph-name="aring.ss01" horiz-adv-x="1646" 
d="M834 1253q-124 0 -208.5 69.5t-84.5 170.5q0 103 84 171.5t209 68.5q124 0 207 -68t83 -172t-83 -172t-207 -68zM834 1393q54 0 91.5 28.5t37.5 71.5q0 42 -37 70t-92 28q-57 0 -94.5 -27.5t-37.5 -70.5t37.5 -71.5t94.5 -28.5zM725 -33q-139 0 -257 46.5t-198 127.5
t-125 191t-45 235q0 137 50.5 252t137 191t200 118.5t239.5 42.5q150 0 274.5 -56.5t194.5 -151.5h4v176h252v-1139h-244v170h-6q-75 -103 -201.5 -153t-275.5 -50zM780 197q179 0 297.5 107.5t118.5 266.5q0 162 -120 266.5t-300 104.5q-178 0 -293.5 -105t-115.5 -266
q0 -164 117 -269t296 -105z" />
    <glyph glyph-name="atilde.ss01" horiz-adv-x="1646" 
d="M1024 1296q-43 0 -79.5 9t-55.5 18.5t-49 28.5l-58 34q-57 39 -108 39q-48 0 -77.5 -32t-29.5 -80h-186q0 134 80.5 216.5t204.5 82.5q85 0 180 -56l57 -34q55 -35 107 -35q44 0 69 30t25 80h186q0 -145 -69 -223t-197 -78zM725 -33q-139 0 -257 46.5t-198 127.5
t-125 191t-45 235q0 137 50.5 252t137 191t200 118.5t239.5 42.5q150 0 274.5 -56.5t194.5 -151.5h4v176h252v-1139h-244v170h-6q-75 -103 -201.5 -153t-275.5 -50zM780 197q179 0 297.5 107.5t118.5 266.5q0 162 -120 266.5t-300 104.5q-178 0 -293.5 -105t-115.5 -266
q0 -164 117 -269t296 -105z" />
    <glyph glyph-name="b.ss01" horiz-adv-x="1396" 
d="M827 -35q-272 0 -389 172h-4v-137h-239v1638h254v-974h6q54 62 151.5 94.5t214.5 32.5q222 0 367 -118t145 -300q0 -176 -143 -292t-363 -116zM791 166q121 0 201.5 61t80.5 154q0 89 -76 150t-204 61q-135 0 -215 -60.5t-80 -148.5q0 -92 83.5 -154.5t209.5 -62.5z" />
    <glyph glyph-name="d.ss01" horiz-adv-x="1640" 
d="M727 -33q-141 0 -259 46.5t-198.5 127.5t-125 191t-44.5 235q0 137 50.5 252.5t137 192.5t200 119.5t239.5 42.5q149 0 268 -56.5t191 -152.5h6v673h256v-1638h-240v170h-6q-75 -102 -201 -152.5t-274 -50.5zM776 197q180 0 300 105.5t120 268.5q0 162 -121.5 266.5
t-298.5 104.5q-178 0 -293.5 -105t-115.5 -266q0 -163 116.5 -268.5t292.5 -105.5z" />
    <glyph glyph-name="dcaron.ss01" horiz-adv-x="1675" 
d="M1710 1120h-154l177 277q-55 20 -85 60t-30 89q0 66 53 113t127 47q72 0 124 -46.5t52 -111.5q0 -50 -37.5 -111t-176.5 -249q-10 -14 -16 -22t-16 -21.5t-18 -24.5zM727 -33q-141 0 -259 46.5t-198.5 127.5t-125 191t-44.5 235q0 137 50.5 252.5t137 192.5t200 119.5
t239.5 42.5q149 0 268 -56.5t191 -152.5h6v673h256v-1638h-240v170h-6q-75 -102 -201 -152.5t-274 -50.5zM776 197q180 0 300 105.5t120 268.5q0 162 -121.5 266.5t-298.5 104.5q-178 0 -293.5 -105t-115.5 -266q0 -163 116.5 -268.5t292.5 -105.5z" />
    <glyph glyph-name="dcroat.ss01" horiz-adv-x="1640" 
d="M1448 1468h317v-184h-317v-1284h-240v170h-6q-75 -102 -201 -152.5t-274 -50.5q-141 0 -259 46.5t-198.5 127.5t-125 191t-44.5 235q0 137 50.5 252.5t137 192.5t200 119.5t239.5 42.5q149 0 268 -56.5t191 -152.5h6v319h-328v184h328v170h256v-170zM776 197
q180 0 300 105.5t120 268.5q0 162 -121.5 266.5t-298.5 104.5q-178 0 -293.5 -105t-115.5 -266q0 -163 116.5 -268.5t292.5 -105.5z" />
    <glyph glyph-name="g.ss01" horiz-adv-x="1640" 
d="M1446 -451h-1229v222h973v430h-6q-72 -100 -192.5 -148.5t-264.5 -48.5q-142 0 -261.5 46.5t-199.5 126.5t-124 186t-44 225q0 126 48 235t131 185t198 119.5t246 43.5q153 0 275.5 -56t193.5 -152h4v176h252v-1590zM774 236q178 0 300 103t122 253t-122 250t-300 100
q-177 0 -293 -100.5t-116 -249.5q0 -150 116.5 -253t292.5 -103z" />
    <glyph glyph-name="gbreve.ss01" horiz-adv-x="1640" 
d="M825 1270q-206 0 -327 110t-129 285h215q3 -92 69.5 -154.5t177.5 -62.5t178 61.5t70 155.5h215q-8 -175 -132 -285t-337 -110zM1446 -451h-1229v222h973v430h-6q-72 -100 -192.5 -148.5t-264.5 -48.5q-142 0 -261.5 46.5t-199.5 126.5t-124 186t-44 225q0 126 48 235
t131 185t198 119.5t246 43.5q153 0 275.5 -56t193.5 -152h4v176h252v-1590zM774 236q178 0 300 103t122 253t-122 250t-300 100q-177 0 -293 -100.5t-116 -249.5q0 -150 116.5 -253t292.5 -103z" />
    <glyph glyph-name="uni0123.ss01" horiz-adv-x="1640" 
d="M651 1409q0 17 2.5 31t11.5 34t18 36t31 48t40.5 58t56 79.5t68.5 98.5h149l-158 -248q46 -19 73.5 -55t27.5 -80q0 -61 -46.5 -101t-115.5 -40q-68 0 -113 39.5t-45 99.5zM1446 -451h-1229v222h973v430h-6q-72 -100 -192.5 -148.5t-264.5 -48.5q-142 0 -261.5 46.5
t-199.5 126.5t-124 186t-44 225q0 126 48 235t131 185t198 119.5t246 43.5q153 0 275.5 -56t193.5 -152h4v176h252v-1590zM774 236q178 0 300 103t122 253t-122 250t-300 100q-177 0 -293 -100.5t-116 -249.5q0 -150 116.5 -253t292.5 -103z" />
    <glyph glyph-name="gdotaccent.ss01" horiz-adv-x="1640" 
d="M831 1346q-75 0 -125.5 46.5t-50.5 114.5q0 64 51 110t125 46q72 0 122.5 -46.5t50.5 -109.5q0 -67 -50.5 -114t-122.5 -47zM1446 -451h-1229v222h973v430h-6q-72 -100 -192.5 -148.5t-264.5 -48.5q-142 0 -261.5 46.5t-199.5 126.5t-124 186t-44 225q0 126 48 235
t131 185t198 119.5t246 43.5q153 0 275.5 -56t193.5 -152h4v176h252v-1590zM774 236q178 0 300 103t122 253t-122 250t-300 100q-177 0 -293 -100.5t-116 -249.5q0 -150 116.5 -253t292.5 -103z" />
    <glyph glyph-name="i.ss01" horiz-adv-x="901" 
d="M451 1333q-75 0 -126 47t-51 115q0 64 51.5 110t125.5 46q73 0 123.5 -46t50.5 -110q0 -68 -50.5 -115t-123.5 -47zM860 0h-522v918h-309v221h565v-918h266v-221z" />
    <glyph glyph-name="dotlessi.ss01" horiz-adv-x="901" 
d="M860 0h-522v918h-309v221h565v-918h266v-221z" />
    <glyph glyph-name="iacute.ss01" horiz-adv-x="901" 
d="M883 1661l-373 -383h-223l280 383h316zM860 0h-522v918h-309v221h565v-918h266v-221z" />
    <glyph glyph-name="icircumflex.ss01" horiz-adv-x="901" 
d="M160 1278h-242l356 367h283l356 -367h-241q-155 130 -256 217q-163 -139 -256 -217zM860 0h-522v918h-309v221h565v-918h266v-221z" />
    <glyph glyph-name="idieresis.ss01" horiz-adv-x="901" 
d="M168 1321q-68 0 -115 43t-47 106q0 58 47.5 100t114.5 42t112.5 -42t45.5 -100q0 -63 -45.5 -106t-112.5 -43zM664 1321q-69 0 -114.5 43t-45.5 106q0 58 46 100t114 42q66 0 112.5 -42.5t46.5 -99.5q0 -63 -46.5 -106t-112.5 -43zM860 0h-522v918h-309v221h565v-918h266
v-221z" />
    <glyph glyph-name="i.loclTRK.ss01" horiz-adv-x="901" 
d="M430 1346q-75 0 -125.5 46.5t-50.5 114.5q0 64 51 110t125 46q73 0 123.5 -46t50.5 -110q0 -68 -50.5 -114.5t-123.5 -46.5zM860 0h-522v918h-309v221h565v-918h266v-221z" />
    <glyph glyph-name="igrave.ss01" horiz-adv-x="901" 
d="M535 1278h-224l-372 383h315zM860 0h-522v918h-309v221h565v-918h266v-221z" />
    <glyph glyph-name="imacron.ss01" horiz-adv-x="901" 
d="M827 1356h-825v176h825v-176zM860 0h-522v918h-309v221h565v-918h266v-221z" />
    <glyph glyph-name="iogonek.ss01" horiz-adv-x="901" 
d="M418 1346q-75 0 -125.5 46.5t-50.5 114.5q0 64 51 110t125 46q71 0 121.5 -46t50.5 -110q0 -67 -50 -114t-122 -47zM860 0h-348q-95 -26 -142.5 -73t-47.5 -99q0 -54 51 -88.5t133 -34.5q53 0 110 16v-167q-71 -15 -135 -15q-147 0 -244.5 62t-97.5 174q0 75 53.5 133.5
t145.5 91.5v918h-309v221h565v-918h266v-221z" />
    <glyph glyph-name="j.ss01" horiz-adv-x="819" 
d="M485 1333q-75 0 -126.5 47t-51.5 115q0 64 52 110t126 46q71 0 121.5 -46t50.5 -110q0 -68 -50 -115t-122 -47zM627 -451h-758v222h502v1147h-344v221h600v-1590z" />
    <glyph glyph-name="l.ss01" horiz-adv-x="925" 
d="M913 0h-714v1638h256v-1417h458v-221z" />
    <glyph glyph-name="lacute.ss01" horiz-adv-x="925" 
d="M922 2111l-400 -350h-231l295 350h336zM913 0h-714v1638h256v-1417h458v-221z" />
    <glyph glyph-name="lcaron.ss01" horiz-adv-x="925" 
d="M762 1071h-154l176 277q-54 20 -83 60t-29 89q0 66 52.5 113t125.5 47q72 0 124 -46.5t52 -111.5q0 -50 -37.5 -111t-176.5 -249q-10 -14 -16 -22t-16 -21.5t-18 -24.5zM913 0h-714v1638h256v-1417h458v-221z" />
    <glyph glyph-name="uni013C.ss01" horiz-adv-x="925" 
d="M913 0h-714v1638h256v-1417h458v-221zM401 -610h-135l137 223q-53 19 -82.5 54.5t-29.5 80.5q0 61 46.5 101t115.5 40q68 0 112.5 -39.5t44.5 -99.5q0 -16 -2.5 -30.5t-11 -33.5t-17 -34.5t-28.5 -45.5t-37 -54t-51 -72.5t-62 -89.5z" />
    <glyph glyph-name="lslash.ss01" horiz-adv-x="925" 
d="M455 903v-682h458v-221h-714v743l-230 -143v211l230 143v684h256v-524l241 152v-211z" />
    <glyph glyph-name="m.ss01" horiz-adv-x="2430" 
d="M449 0h-254v1139h254v-383l593 383h301v-381l592 381h303v-1139h-256v891h-14l-625 -404v-487h-253v891h-15l-626 -406v-485z" />
    <glyph glyph-name="n.ss01" horiz-adv-x="1566" 
d="M449 692l679 447h246v-1139h-254v854h-14l-657 -383v-471h-254v1139h254v-447z" />
    <glyph glyph-name="nacute.ss01" horiz-adv-x="1566" 
d="M936 1661h315l-372 -383h-224zM449 692l679 447h246v-1139h-254v854h-14l-657 -383v-471h-254v1139h254v-447z" />
    <glyph glyph-name="ncaron.ss01" horiz-adv-x="1566" 
d="M1280 1669l-356 -379h-283l-356 379h241q203 -172 256 -217q88 76 256 217h242zM449 692l679 447h246v-1139h-254v854h-14l-657 -383v-471h-254v1139h254v-447z" />
    <glyph glyph-name="uni0146.ss01" horiz-adv-x="1566" 
d="M449 692l679 447h246v-1139h-254v854h-14l-657 -383v-471h-254v1139h254v-447zM821 -111q68 0 113 -39.5t45 -99.5q0 -16 -2.5 -30.5t-11 -33.5t-17 -34.5t-28.5 -45.5t-37 -54t-51 -72.5t-62 -89.5h-135l137 223q-54 19 -83.5 54.5t-29.5 80.5q0 61 46.5 101t115.5 40z
" />
    <glyph glyph-name="eng.ss01" horiz-adv-x="1566" 
d="M958 -483q-148 0 -266 47v213q113 -43 213 -43q45 0 79.5 9t57 22t38.5 36t23.5 40.5t11.5 47.5t4.5 46t0.5 45v874h-14l-657 -383v-471h-254v1139h254v-422l679 422h246v-1153q0 -55 -1 -85.5t-9 -87.5t-22.5 -91t-45 -77.5t-74 -68t-111 -42t-153.5 -17.5z" />
    <glyph glyph-name="ntilde.ss01" horiz-adv-x="1566" 
d="M625 1425q-48 0 -77.5 -32t-29.5 -80h-186q0 134 80.5 216.5t203.5 82.5q86 0 181 -56l57 -34q55 -35 107 -35q44 0 69 30t25 80h186q0 -145 -69 -223t-197 -78q-43 0 -79.5 9t-55.5 18.5t-49 28.5l-58 34q-57 39 -108 39zM449 692l679 447h246v-1139h-254v854h-14
l-657 -383v-471h-254v1139h254v-447z" />
    <glyph glyph-name="p.ss01" horiz-adv-x="1642" 
d="M449 -451h-254v1590h249v-191h5q171 223 483 223q179 0 319 -80t215.5 -216t75.5 -302q0 -138 -50.5 -253.5t-136.5 -192.5t-199.5 -119.5t-240.5 -42.5q-153 0 -274 57.5t-192 151.5v-625zM864 195q180 0 296 105t116 267t-117.5 268.5t-294.5 106.5t-298.5 -105.5
t-121.5 -269.5q0 -162 121.5 -267t298.5 -105z" />
    <glyph glyph-name="q.ss01" horiz-adv-x="1642" 
d="M1448 -451h-256v637q-81 -107 -206 -164t-273 -57q-177 0 -317.5 80.5t-218 219t-77.5 308.5q0 134 49 247.5t133.5 189.5t198 118.5t242.5 42.5q152 0 275 -56t194 -152h4v176h252v-1590zM776 197q180 0 300 105.5t120 268.5q0 162 -121.5 266.5t-298.5 104.5
q-178 0 -293.5 -105t-115.5 -268q0 -162 115.5 -267t293.5 -105z" />
    <glyph glyph-name="r.ss01" horiz-adv-x="1011" 
d="M449 0h-254v1139h786v-221h-532v-918z" />
    <glyph glyph-name="racute.ss01" horiz-adv-x="1011" 
d="M987 1661l-373 -383h-223l281 383h315zM449 0h-254v1139h786v-221h-532v-918z" />
    <glyph glyph-name="rcaron.ss01" horiz-adv-x="1011" 
d="M662 1290h-283l-356 379h241q203 -172 256 -217q88 76 256 217h242zM449 0h-254v1139h786v-221h-532v-918z" />
    <glyph glyph-name="uni0157.ss01" horiz-adv-x="1011" 
d="M449 0h-254v1139h786v-221h-532v-918zM285 -610h-135l137 223q-54 19 -83.5 54.5t-29.5 80.5q0 61 46.5 101t115.5 40q68 0 113 -39.5t45 -99.5q0 -16 -2.5 -30.5t-11 -33.5t-17 -34.5t-28.5 -45.5t-37 -54t-51 -72.5t-62 -89.5z" />
    <glyph glyph-name="s.ss01" horiz-adv-x="1204" 
d="M1067 0h-930v221h680v264h-680v654h930v-221h-680v-252h680v-666z" />
    <glyph glyph-name="sacute.ss01" horiz-adv-x="1204" 
d="M1057 1661l-373 -383h-223l280 383h316zM1067 0h-930v221h680v264h-680v654h930v-221h-680v-252h680v-666z" />
    <glyph glyph-name="scaron.ss01" horiz-adv-x="1204" 
d="M731 1290h-282l-357 379h242q203 -172 256 -217q88 76 256 217h241zM1067 0h-930v221h680v264h-680v654h930v-221h-680v-252h680v-666z" />
    <glyph glyph-name="scedilla.ss01" horiz-adv-x="1204" 
d="M1067 1139v-221h-680v-252h680v-666h-365l-106 -121q30 10 78 10q102 0 169.5 -51t67.5 -137q0 -96 -87 -154.5t-222 -58.5q-99 0 -184.5 33.5t-138.5 91.5l88 96q42 -47 102.5 -70.5t124.5 -23.5q63 0 103 23t40 63q0 38 -37.5 61t-95.5 23q-60 0 -112 -27l-86 62
l141 180h-410v221h680v264h-680v654h930z" />
    <glyph glyph-name="uni0219.ss01" horiz-adv-x="1204" 
d="M1067 0h-930v221h680v264h-680v654h930v-221h-680v-252h680v-666zM573 -610h-135l137 223q-53 19 -82.5 54.5t-29.5 80.5q0 61 46.5 101t115.5 40q68 0 112.5 -39.5t44.5 -99.5q0 -16 -2.5 -30.5t-11 -33.5t-17 -34.5t-28.5 -45.5t-37 -54t-51 -72.5t-62 -89.5z" />
    <glyph glyph-name="t.ss01" horiz-adv-x="1026" 
d="M559 920v-699h418v-221h-672v920h-270v219h270v327h254v-327h393v-219h-393z" />
    <glyph glyph-name="tbar.ss01" horiz-adv-x="1026" 
d="M559 510v-289h418v-221h-672v510h-266v184h266v226h-270v219h270v327h254v-327h393v-219h-393v-226h381v-184h-381z" />
    <glyph glyph-name="tcaron.ss01" horiz-adv-x="1026" 
d="M952 1083v-163h-393v-699h418v-221h-672v920h-270v219h270v327h254v-327h393v-49l172 270q-55 20 -84.5 60t-29.5 89q0 66 53 113t127 47q72 0 124 -46.5t52 -111.5q0 -50 -37.5 -111t-176.5 -249q-10 -14 -16 -22t-16 -21.5t-18 -24.5h-150z" />
    <glyph glyph-name="uni0163.ss01" horiz-adv-x="1026" 
d="M977 221v-221h-301l-107 -121q30 10 78 10q102 0 170 -51t68 -137q0 -96 -87.5 -154.5t-222.5 -58.5q-99 0 -184.5 33.5t-138.5 91.5l88 96q42 -47 102.5 -70.5t124.5 -23.5q63 0 103.5 23t40.5 63q0 38 -37.5 61t-95.5 23q-61 0 -113 -27l-86 62l141 180h-215v920h-270
v219h270v327h254v-327h393v-219h-393v-699h418z" />
    <glyph glyph-name="uni021B.ss01" horiz-adv-x="1026" 
d="M559 920v-699h418v-221h-672v920h-270v219h270v327h254v-327h393v-219h-393zM598 -111q68 0 113 -39.5t45 -99.5q0 -16 -2.5 -30.5t-11 -33.5t-17 -34.5t-28.5 -45.5t-37 -54t-51 -72.5t-62 -89.5h-135l137 223q-54 19 -83.5 54.5t-29.5 80.5q0 61 46.5 101t115.5 40z
" />
    <glyph glyph-name="yacute.ss01" horiz-adv-x="1425" 
d="M1198 1661l-373 -383h-223l281 383h315zM737 -451h-266l184 414h-149l-471 1176h272l352 -869h105l358 869h269z" />
    <glyph glyph-name="ycircumflex.ss01" horiz-adv-x="1425" 
d="M475 1278h-242l357 367h282l357 -367h-242q-155 130 -256 217q-163 -139 -256 -217zM737 -451h-266l184 414h-149l-471 1176h272l352 -869h105l358 869h269z" />
    <glyph glyph-name="ydieresis.ss01" horiz-adv-x="1425" 
d="M483 1321q-68 0 -114.5 43t-46.5 106q0 58 47 100t114 42t112.5 -42t45.5 -100q0 -63 -45.5 -106t-112.5 -43zM979 1321q-69 0 -114.5 43t-45.5 106q0 58 46 100t114 42q66 0 113 -42.5t47 -99.5q0 -63 -47 -106t-113 -43zM737 -451h-266l184 414h-149l-471 1176h272
l352 -869h105l358 869h269z" />
    <glyph glyph-name="ygrave.ss01" horiz-adv-x="1425" 
d="M850 1278h-223l-373 383h315zM737 -451h-266l184 414h-149l-471 1176h272l352 -869h105l358 869h269z" />
    <glyph glyph-name="a.ss02" horiz-adv-x="1421" 
d="M545 -35q-90 0 -169.5 20t-142 59t-99 101.5t-36.5 141.5q0 67 28.5 121.5t71.5 89t108.5 62.5t123.5 43t133 28q32 6 76.5 12.5t73 11t64.5 11t59.5 12.5t49.5 14.5t41.5 18t29.5 22t20 28.5t6 36q0 70 -79 123t-202 53q-115 0 -198.5 -51t-118.5 -148l-244 78
q30 84 89.5 147t138 99.5t165.5 54.5t181 18q150 0 267.5 -42.5t190 -133.5t72.5 -221v-774h-241v178h-7q-61 -98 -176.5 -155.5t-275.5 -57.5zM602 154q86 0 160.5 27.5t121.5 70t74 91t27 93.5v111q-112 -47 -297 -74q-313 -49 -313 -178q0 -68 63 -104.5t164 -36.5z" />
    <glyph glyph-name="aacute.ss02" horiz-adv-x="1421" 
d="M1184 1661l-373 -383h-223l280 383h316zM545 -35q-90 0 -169.5 20t-142 59t-99 101.5t-36.5 141.5q0 67 28.5 121.5t71.5 89t108.5 62.5t123.5 43t133 28q32 6 76.5 12.5t73 11t64.5 11t59.5 12.5t49.5 14.5t41.5 18t29.5 22t20 28.5t6 36q0 70 -79 123t-202 53
q-115 0 -198.5 -51t-118.5 -148l-244 78q30 84 89.5 147t138 99.5t165.5 54.5t181 18q150 0 267.5 -42.5t190 -133.5t72.5 -221v-774h-241v178h-7q-61 -98 -176.5 -155.5t-275.5 -57.5zM602 154q86 0 160.5 27.5t121.5 70t74 91t27 93.5v111q-112 -47 -297 -74
q-313 -49 -313 -178q0 -68 63 -104.5t164 -36.5z" />
    <glyph glyph-name="abreve.ss02" horiz-adv-x="1421" 
d="M711 1270q-206 0 -327.5 110t-129.5 285h215q3 -92 70 -154.5t178 -62.5t178 61.5t70 155.5h215q-8 -175 -132 -285t-337 -110zM545 -35q-90 0 -169.5 20t-142 59t-99 101.5t-36.5 141.5q0 67 28.5 121.5t71.5 89t108.5 62.5t123.5 43t133 28q32 6 76.5 12.5t73 11
t64.5 11t59.5 12.5t49.5 14.5t41.5 18t29.5 22t20 28.5t6 36q0 70 -79 123t-202 53q-115 0 -198.5 -51t-118.5 -148l-244 78q30 84 89.5 147t138 99.5t165.5 54.5t181 18q150 0 267.5 -42.5t190 -133.5t72.5 -221v-774h-241v178h-7q-61 -98 -176.5 -155.5t-275.5 -57.5z
M602 154q86 0 160.5 27.5t121.5 70t74 91t27 93.5v111q-112 -47 -297 -74q-313 -49 -313 -178q0 -68 63 -104.5t164 -36.5z" />
    <glyph glyph-name="acircumflex.ss02" horiz-adv-x="1187" 
d="M440 1278h-241l354 367h285l356 -367h-242q-155 130 -256 217q-163 -139 -256 -217zM545 -35q-90 0 -169.5 20t-142 59t-99 101.5t-36.5 141.5q0 67 28.5 121.5t71.5 89t108.5 62.5t123.5 43t133 28q32 6 76.5 12.5t73 11t64.5 11t59.5 12.5t49.5 14.5t41.5 18t29.5 22
t20 28.5t6 36q0 70 -79 123t-202 53q-115 0 -198.5 -51t-118.5 -148l-244 78q30 84 89.5 147t138 99.5t165.5 54.5t181 18q150 0 267.5 -42.5t190 -133.5t72.5 -221v-774h-241v178h-7q-61 -98 -176.5 -155.5t-275.5 -57.5zM602 154q86 0 160.5 27.5t121.5 70t74 91t27 93.5
v111q-112 -47 -297 -74q-313 -49 -313 -178q0 -68 63 -104.5t164 -36.5z" />
    <glyph glyph-name="adieresis.ss02" horiz-adv-x="1421" 
d="M469 1321q-68 0 -115 43t-47 106q0 58 47.5 100t114.5 42t112.5 -42t45.5 -100q0 -63 -45.5 -106t-112.5 -43zM965 1321q-69 0 -114.5 43t-45.5 106q0 58 46 100t114 42q66 0 112.5 -42.5t46.5 -99.5q0 -63 -46.5 -106t-112.5 -43zM545 -35q-90 0 -169.5 20t-142 59
t-99 101.5t-36.5 141.5q0 67 28.5 121.5t71.5 89t108.5 62.5t123.5 43t133 28q32 6 76.5 12.5t73 11t64.5 11t59.5 12.5t49.5 14.5t41.5 18t29.5 22t20 28.5t6 36q0 70 -79 123t-202 53q-115 0 -198.5 -51t-118.5 -148l-244 78q30 84 89.5 147t138 99.5t165.5 54.5t181 18
q150 0 267.5 -42.5t190 -133.5t72.5 -221v-774h-241v178h-7q-61 -98 -176.5 -155.5t-275.5 -57.5zM602 154q86 0 160.5 27.5t121.5 70t74 91t27 93.5v111q-112 -47 -297 -74q-313 -49 -313 -178q0 -68 63 -104.5t164 -36.5z" />
    <glyph glyph-name="agrave.ss02" horiz-adv-x="1421" 
d="M836 1278h-224l-372 383h315zM545 -35q-90 0 -169.5 20t-142 59t-99 101.5t-36.5 141.5q0 67 28.5 121.5t71.5 89t108.5 62.5t123.5 43t133 28q32 6 76.5 12.5t73 11t64.5 11t59.5 12.5t49.5 14.5t41.5 18t29.5 22t20 28.5t6 36q0 70 -79 123t-202 53q-115 0 -198.5 -51
t-118.5 -148l-244 78q30 84 89.5 147t138 99.5t165.5 54.5t181 18q150 0 267.5 -42.5t190 -133.5t72.5 -221v-774h-241v178h-7q-61 -98 -176.5 -155.5t-275.5 -57.5zM602 154q86 0 160.5 27.5t121.5 70t74 91t27 93.5v111q-112 -47 -297 -74q-313 -49 -313 -178
q0 -68 63 -104.5t164 -36.5z" />
    <glyph glyph-name="amacron.ss02" horiz-adv-x="1187" 
d="M1145 1364h-826v176h826v-176zM545 -35q-90 0 -169.5 20t-142 59t-99 101.5t-36.5 141.5q0 67 28.5 121.5t71.5 89t108.5 62.5t123.5 43t133 28q32 6 76.5 12.5t73 11t64.5 11t59.5 12.5t49.5 14.5t41.5 18t29.5 22t20 28.5t6 36q0 70 -79 123t-202 53q-115 0 -198.5 -51
t-118.5 -148l-244 78q30 84 89.5 147t138 99.5t165.5 54.5t181 18q150 0 267.5 -42.5t190 -133.5t72.5 -221v-774h-241v178h-7q-61 -98 -176.5 -155.5t-275.5 -57.5zM602 154q86 0 160.5 27.5t121.5 70t74 91t27 93.5v111q-112 -47 -297 -74q-313 -49 -313 -178
q0 -68 63 -104.5t164 -36.5z" />
    <glyph glyph-name="aogonek.ss02" horiz-adv-x="1421" 
d="M1167 -297q54 0 111 16v-168q-66 -14 -135 -14q-147 0 -244.5 62t-97.5 174q0 76 54.5 135t148.5 92v178h-7q-61 -98 -176.5 -155.5t-275.5 -57.5q-90 0 -169.5 20t-142 59t-99 101.5t-36.5 141.5q0 67 28.5 121.5t71.5 89t108.5 62.5t123.5 43t133 28q32 6 76.5 12.5
t73 11t64.5 11t59.5 12.5t49.5 14.5t41.5 18t29.5 22t20 28.5t6 36q0 70 -79 123t-202 53q-115 0 -198.5 -51t-118.5 -148l-244 78q30 84 89.5 147t138 99.5t165.5 54.5t181 18q150 0 267.5 -42.5t190 -133.5t72.5 -221v-774h-63q-100 -26 -149.5 -73.5t-49.5 -100.5
q0 -54 51 -88.5t133 -34.5zM985 436v111q-112 -47 -297 -74q-313 -49 -313 -178q0 -68 63 -104.5t164 -36.5q86 0 160.5 27.5t121.5 70t74 91t27 93.5z" />
    <glyph glyph-name="aring.ss02" horiz-adv-x="1421" 
d="M715 1253q-124 0 -208.5 69.5t-84.5 170.5q0 103 84 171.5t209 68.5q124 0 207.5 -68t83.5 -172t-83.5 -172t-207.5 -68zM715 1393q54 0 91.5 28.5t37.5 71.5q0 42 -37 70t-92 28q-57 0 -94 -27.5t-37 -70.5t37 -71.5t94 -28.5zM545 -35q-90 0 -169.5 20t-142 59
t-99 101.5t-36.5 141.5q0 67 28.5 121.5t71.5 89t108.5 62.5t123.5 43t133 28q32 6 76.5 12.5t73 11t64.5 11t59.5 12.5t49.5 14.5t41.5 18t29.5 22t20 28.5t6 36q0 70 -79 123t-202 53q-115 0 -198.5 -51t-118.5 -148l-244 78q30 84 89.5 147t138 99.5t165.5 54.5t181 18
q150 0 267.5 -42.5t190 -133.5t72.5 -221v-774h-241v178h-7q-61 -98 -176.5 -155.5t-275.5 -57.5zM602 154q86 0 160.5 27.5t121.5 70t74 91t27 93.5v111q-112 -47 -297 -74q-313 -49 -313 -178q0 -68 63 -104.5t164 -36.5z" />
    </font>
</defs>
</svg>
