<?xml version="1.0" standalone="no"?>
<!DOCTYPE svg PUBLIC "-//W3C//DTD SVG 1.1//EN" "http://www.w3.org/Graphics/SVG/1.1/DTD/svg11.dtd" >
<svg xmlns="http://www.w3.org/2000/svg" xmlns:xlink="http://www.w3.org/1999/xlink" version="1.1">
<metadata>
Created by FontForge 20170731 at Mon Mar 15 14:21:03 2021
 By Aleksey,,,
Copyright (c) 2020 by Matthieu Salvaggio x Blaze Type. All rights reserved.
</metadata>
<defs>
<font id="Area-ExtraboldItalicExtended" horiz-adv-x="2457" >
  <font-face 
    font-family="Area Extrabold Italic Extended"
    font-weight="800"
    font-style="italic"
    font-stretch="normal"
    units-per-em="2048"
    panose-1="0 0 9 0 0 0 0 0 0 0"
    ascent="1638"
    descent="-410"
    x-height="1139"
    cap-height="1597"
    bbox="-1929 -610 3146 2191"
    underline-thickness="102"
    underline-position="-307"
    slope="-10"
    unicode-range="U+0020-25CA"
  />
<missing-glyph horiz-adv-x="1703" 
d="M1384 0h-1265l282 1597h1266zM567 1430l-202 -1063l1003 1063h-801zM1423 1257l-1007 -1087h805z" />
    <glyph glyph-name=".notdef" horiz-adv-x="1703" 
d="M1384 0h-1265l282 1597h1266zM567 1430l-202 -1063l1003 1063h-801zM1423 1257l-1007 -1087h805z" />
    <glyph glyph-name=".null" horiz-adv-x="0" 
 />
    <glyph glyph-name="nonmarkingreturn" horiz-adv-x="682" 
 />
    <glyph glyph-name="space" unicode=" " horiz-adv-x="616" 
 />
    <glyph glyph-name="exclam" unicode="!" horiz-adv-x="669" 
d="M387 467h-145l110 971l23 159h284l-26 -159zM233 -14q-65 0 -108 39.5t-43 99.5q0 75 62 130.5t141 55.5q64 0 108.5 -40t44.5 -99q0 -70 -62.5 -128t-142.5 -58z" />
    <glyph glyph-name="quotedbl" unicode="&#x22;" horiz-adv-x="978" 
d="M498 1079h-248l86 518h250zM913 1079h-247l86 518h247z" />
    <glyph glyph-name="numbersign" unicode="#" horiz-adv-x="1828" 
d="M1827 1112l-74 -201h-309l-125 -301h293l-74 -200h-301l-170 -410h-229l170 410h-424l-170 -410h-230l170 410h-284l73 200h293l125 301h-276l75 201h283l201 485h229l-201 -485h424l201 485h229l-200 -485h301zM666 610h424l124 301h-423z" />
    <glyph glyph-name="dollar" unicode="$" horiz-adv-x="1478" 
d="M868 891l74 -23q143 -41 201 -69q190 -90 190 -262q0 -181 -173 -311t-435 -142l-29 -166h-133l29 168q-195 18 -323.5 116.5t-157.5 266.5l247 72q25 -102 99 -158.5t176 -71.5l65 379l-34 8q-35 9 -62.5 17t-71 24.5t-76.5 34t-69.5 45t-60.5 58t-40 72.5t-16 89
q0 109 73.5 208.5t206.5 165t292 73.5l26 153h133l-26 -155q177 -21 294.5 -111.5t135.5 -206.5l-234 -96q-21 73 -82 123t-155 65zM539 1090q0 -32 15.5 -57t47 -44t62.5 -32t77 -27l60 334q-115 -9 -188.5 -57.5t-73.5 -116.5zM827 657l-63 -350q126 9 207.5 63t81.5 128
q0 28 -13.5 51t-32.5 38t-51.5 29t-60 22.5t-68.5 18.5z" />
    <glyph glyph-name="percent" unicode="%" horiz-adv-x="2185" 
d="M463 737q-138 0 -216.5 85.5t-78.5 236.5q0 126 56 237t157.5 178.5t224.5 67.5q137 0 215 -86t78 -237q0 -126 -56 -236.5t-157 -178t-223 -67.5zM430 0h-240l1625 1468h231zM487 918q78 0 136.5 99t58.5 208q0 66 -26.5 101.5t-75.5 35.5q-51 0 -97 -47.5t-72 -118.5
t-26 -141q0 -137 102 -137zM1645 -29q-138 0 -216.5 85.5t-78.5 236.5q0 126 56 237t157.5 178.5t224.5 67.5q137 0 215 -86t78 -237q0 -126 -56 -236.5t-157 -178t-223 -67.5zM1669 152q78 0 136.5 99t58.5 208q0 66 -26.5 101.5t-76.5 35.5q-51 0 -96.5 -47.5t-71.5 -118
t-26 -141.5q0 -137 102 -137z" />
    <glyph glyph-name="ampersand" unicode="&#x26;" horiz-adv-x="1732" 
d="M575 -35q-223 0 -367.5 98t-144.5 263q0 67 30 131t75.5 114.5t112.5 101t127 86t133 72.5q-183 192 -183 345q0 120 76.5 224.5t209.5 167t288 62.5q199 0 318.5 -98t119.5 -246q0 -273 -465 -483l287 -266q105 145 166 274l235 -45q-124 -248 -250 -404l351 -360h-332
l-193 176q-266 -213 -594 -213zM780 946q55 25 95 46.5t84.5 51.5t72 59.5t46 68t18.5 79.5q0 73 -55.5 116.5t-147.5 43.5q-114 0 -189 -61t-75 -152q0 -59 38.5 -118.5t112.5 -133.5zM627 190q215 0 399 150l-356 340q-56 -26 -95.5 -46t-88 -51t-78.5 -59.5t-51 -66
t-21 -76.5q0 -88 82.5 -139.5t208.5 -51.5z" />
    <glyph glyph-name="quotesingle" unicode="'" horiz-adv-x="565" 
d="M498 1079h-248l86 518h250z" />
    <glyph glyph-name="parenleft" unicode="(" horiz-adv-x="811" 
d="M637 -307h-266q-128 153 -196.5 341.5t-68.5 391.5q0 313 159.5 623.5t441.5 547.5h266q-278 -237 -437 -547t-159 -624q0 -201 67 -390t193 -343z" />
    <glyph glyph-name="parenright" unicode=")" horiz-adv-x="808" 
d="M131 -307h-266q282 242 440 551.5t158 619.5q0 201 -67 389t-195 344h266q131 -155 197.5 -343.5t66.5 -389.5q0 -309 -157.5 -621t-442.5 -550z" />
    <glyph glyph-name="asterisk" unicode="*" horiz-adv-x="972" 
d="M635 1026h-141l36 182l-213 -96l-53 109l228 92l-193 88l86 108l180 -92l29 180h141l-35 -180l213 92l52 -108l-224 -88l191 -92l-88 -109l-176 96z" />
    <glyph glyph-name="plus" unicode="+" horiz-adv-x="1243" 
d="M760 719h356l-29 -191h-360l-55 -315h-217l53 315h-361l31 191h363l55 317h219z" />
    <glyph glyph-name="comma" unicode="," horiz-adv-x="585" 
d="M82 -274h-150l220 276q-93 36 -93 123q0 73 62 129.5t145 56.5q65 0 108.5 -39.5t43.5 -99.5q0 -56 -58.5 -131.5t-277.5 -314.5z" />
    <glyph glyph-name="hyphen" unicode="-" horiz-adv-x="1017" 
d="M870 520h-735l31 207h735z" />
    <glyph glyph-name="period" unicode="." horiz-adv-x="604" 
d="M219 -14q-66 0 -109.5 40t-43.5 99q0 74 61.5 130t142.5 56q65 0 108.5 -39.5t43.5 -97.5q0 -72 -61 -130t-142 -58z" />
    <glyph glyph-name="slash" unicode="/" horiz-adv-x="1087" 
d="M207 -135h-242l981 1773h244z" />
    <glyph glyph-name="zero" unicode="0" horiz-adv-x="1718" 
d="M750 -35q-279 0 -438.5 173.5t-159.5 477.5q0 189 67 371.5t183 325t287 230t364 87.5q277 0 436.5 -174.5t159.5 -480.5q0 -149 -41.5 -296.5t-121 -275.5t-187.5 -226.5t-250 -155t-299 -56.5zM784 205q123 0 232.5 66.5t183.5 174.5t117 244.5t43 276.5
q0 203 -88 313.5t-252 110.5q-122 0 -231.5 -66.5t-185 -173.5t-119.5 -244t-44 -276q0 -203 90 -314.5t254 -111.5z" />
    <glyph glyph-name="one" unicode="1" horiz-adv-x="976" 
d="M641 0h-270l211 1161q-81 -69 -200 -120.5t-245 -69.5l39 264q191 40 326 141.5t157 220.5h263z" />
    <glyph glyph-name="two" unicode="2" horiz-adv-x="1540" 
d="M1311 0h-1268l4 29q20 80 48 147.5t61 122.5t83 107t100.5 94t129 91t151.5 90t183 99q187 99 260 149q183 129 184 257q0 97 -84.5 154t-228.5 57q-194 0 -327.5 -104t-166.5 -273l-245 41q43 249 262.5 409t519.5 160q250 0 401.5 -112.5t151.5 -298.5q0 -83 -36 -162
t-85.5 -135t-118.5 -109t-117 -81t-100 -54q-55 -27 -142 -67.5t-136.5 -64t-116 -60.5t-108.5 -69.5t-83.5 -78t-68.5 -98.5h930z" />
    <glyph glyph-name="three" unicode="3" horiz-adv-x="1583" 
d="M676 -35q-251 0 -427.5 100.5t-207.5 264.5l252 112q11 -39 40.5 -78.5t78 -76.5t127 -60.5t172.5 -23.5q194 0 319 83.5t125 205.5q0 102 -93.5 159.5t-270.5 57.5h-193l33 209h188q177 0 294.5 77.5t117.5 190.5q0 98 -88.5 153.5t-229.5 55.5q-156 0 -275.5 -71
t-166.5 -198l-238 52q64 194 269.5 323t468.5 129q151 0 274.5 -43t199 -129.5t75.5 -200.5q0 -144 -111 -263.5t-274 -153.5l-2 -2q145 -26 229 -107.5t84 -212.5q0 -106 -57.5 -206.5t-157 -177t-245 -123t-310.5 -46.5z" />
    <glyph glyph-name="four" unicode="4" horiz-adv-x="1628" 
d="M1171 0h-264l64 354h-951l35 219l1137 1024h260l-184 -1024h268l-31 -219h-270zM1135 1251l-803 -678h672z" />
    <glyph glyph-name="five" unicode="5" horiz-adv-x="1587" 
d="M666 -35q-157 0 -292.5 44t-230 130t-123.5 201l240 133q38 -136 159 -207t281 -71q139 0 255 52.5t180.5 138t64.5 183.5q0 121 -98 194t-258 73q-133 0 -243.5 -52t-182.5 -137l-213 62l383 888h968l-34 -225h-777l-217 -448h4q66 54 176 86t234 32q79 0 154 -14
t147 -47t126 -81t87 -122t33 -164q0 -123 -62.5 -240.5t-170 -208t-262.5 -145.5t-328 -55z" />
    <glyph glyph-name="six" unicode="6" horiz-adv-x="1652" 
d="M748 -35q-293 0 -452 154t-159 438q0 132 37 264t104 250.5t165 221.5t215.5 177.5t260.5 117t295 42.5q126 0 245 -33.5t202 -111.5l-180 -185q-123 97 -326 97q-167 0 -315 -76t-247 -204t-134 -283h4q78 95 222 151.5t304 56.5q149 0 273.5 -51t203 -155.5
t78.5 -243.5q0 -120 -60.5 -234t-164.5 -201t-254 -139.5t-317 -52.5zM788 195q123 0 232 49.5t174.5 133t65.5 179.5q0 121 -101 195.5t-252 74.5q-124 0 -234.5 -52t-175.5 -136.5t-65 -177.5q0 -119 102.5 -192.5t253.5 -73.5z" />
    <glyph glyph-name="seven" unicode="7" horiz-adv-x="1431" 
d="M528 0h-284q27 146 107 321.5t201.5 359.5t296 371.5t374.5 338.5h-1039l33 219h1352l-33 -224q-206 -137 -385.5 -317.5t-304.5 -365.5t-207 -365.5t-111 -337.5z" />
    <glyph glyph-name="eight" unicode="8" horiz-adv-x="1622" 
d="M707 -35q-269 0 -442 115.5t-173 298.5q0 157 123.5 287.5t310.5 171.5l2 4q-107 39 -165 113.5t-58 177.5q0 130 91 244t251.5 183.5t351.5 69.5q240 0 391.5 -105.5t151.5 -277.5q0 -134 -97 -246.5t-253 -158.5l-2 -4q133 -32 215 -121.5t82 -216.5q0 -106 -60 -204
t-163 -171t-248.5 -116.5t-308.5 -43.5zM877 942q163 0 277 81t114 187q0 89 -83.5 145t-217.5 56q-160 0 -274.5 -79t-114.5 -187q0 -92 85.5 -147.5t213.5 -55.5zM737 190q198 0 335.5 97.5t137.5 228.5q0 109 -96 171.5t-262 62.5q-207 0 -340 -90.5t-133 -223.5
q0 -117 101 -181.5t257 -64.5z" />
    <glyph glyph-name="nine" unicode="9" horiz-adv-x="1673" 
d="M629 -35q-172 0 -321.5 57.5t-235.5 157.5l178 176q152 -168 399 -168q131 0 245.5 47.5t195.5 129t135.5 185t77.5 220.5h-7q-71 -102 -222.5 -167.5t-323.5 -65.5q-152 0 -276 53.5t-199.5 159t-75.5 243.5q0 120 61 235t166 204t258.5 143.5t327.5 54.5
q131 0 238 -33.5t190 -103.5t128.5 -187t45.5 -274q0 -127 -32 -256t-90.5 -247.5t-147 -221.5t-195 -179t-241 -119.5t-279.5 -43.5zM829 750q127 0 239.5 55.5t178.5 145t66 186.5q0 124 -101 194t-249 70q-129 0 -240.5 -52.5t-175.5 -139.5t-64 -185q0 -127 100 -200.5
t246 -73.5z" />
    <glyph glyph-name="colon" unicode=":" horiz-adv-x="669" 
d="M389 834q-66 0 -109.5 40.5t-43.5 100.5q0 73 62 128.5t144 55.5q62 0 106 -39.5t44 -97.5q0 -71 -62 -129.5t-141 -58.5zM233 -12q-66 0 -109.5 39.5t-43.5 99.5q0 73 61.5 128.5t143.5 55.5q65 0 108 -38.5t43 -98.5q0 -72 -61 -129t-142 -57z" />
    <glyph glyph-name="semicolon" unicode=";" horiz-adv-x="716" 
d="M420 834q-66 0 -110 40.5t-44 100.5q0 73 62.5 128.5t142.5 55.5q65 0 109.5 -39.5t44.5 -97.5q0 -72 -62 -130t-143 -58zM127 -287h-156l222 289q-37 17 -59.5 50.5t-22.5 72.5q0 74 61.5 130t142.5 56q65 0 108.5 -39t43.5 -100q0 -54 -58.5 -132.5t-281.5 -326.5z" />
    <glyph glyph-name="less" unicode="&#x3c;" horiz-adv-x="1243" 
d="M1038 436l-26 -182l-865 233l37 256l951 234l-31 -182l-742 -181z" />
    <glyph glyph-name="equal" unicode="=" horiz-adv-x="1294" 
d="M1155 733h-952l30 191h953zM1081 295h-954l31 190h950z" />
    <glyph glyph-name="greater" unicode="&#x3e;" horiz-adv-x="1241" 
d="M1075 487l-948 -233l29 182l743 178l-680 181l29 182l866 -234z" />
    <glyph glyph-name="question" unicode="?" horiz-adv-x="1402" 
d="M739 434h-272q-2 2 -2 31q0 142 78 231t282 191q38 19 53 27t54.5 31t60 38.5t51.5 42.5t46.5 50.5t27.5 54.5t12 63q0 92 -82.5 146.5t-207.5 54.5q-152 0 -271 -84t-143 -215q0 -2 -4 -43l-238 41l4 43q25 148 131 262t256 172.5t318 58.5q144 0 262 -43t192 -132
t74 -210q0 -53 -16.5 -104t-40 -90t-62.5 -79.5t-70.5 -67t-78 -56.5t-72 -44.5t-63.5 -35.5q-39 -21 -53.5 -28.5t-47 -26t-45.5 -27.5t-38 -27t-35 -30.5t-26 -31.5t-22 -36t-11 -39t-5 -45q0 -27 4 -43zM543 -14q-67 0 -111.5 40t-44.5 99q0 73 61.5 129.5t141.5 56.5
q65 0 109 -39.5t44 -99.5q0 -72 -61 -129t-139 -57z" />
    <glyph glyph-name="at" unicode="@" horiz-adv-x="2342" 
d="M989 -195q-214 0 -384 51t-279.5 143t-167.5 216.5t-58 273.5q0 141 52.5 283t145 267t224.5 234.5t286 188t335.5 123.5t365.5 45q245 0 432.5 -77.5t293.5 -226.5t106 -349q0 -139 -53 -274t-141.5 -238.5t-213.5 -167.5t-260 -64t-198 61t-43 152
q-102 -107 -230.5 -156.5t-257.5 -49.5q-166 0 -260 85t-94 224q0 112 63 229t162 207.5t230.5 148.5t259.5 58q121 0 200.5 -47.5t98.5 -130.5l65 151h186l-213 -549q-96 -237 76 -237q108 0 207 86t157 220t58 273q0 245 -171 380t-484 135q-163 0 -319 -39t-284.5 -106.5
t-238 -161t-184 -200.5t-116.5 -226.5t-42 -237.5q0 -259 187.5 -399t539.5 -140q380 0 670 160l74 -129q-169 -100 -377 -144.5t-406 -44.5zM1038 422q89 0 176 37.5t150 95.5t102 130.5t39 139.5q0 86 -57.5 134.5t-157.5 48.5q-117 0 -227 -62.5t-175 -157t-65 -186.5
q0 -85 56.5 -132.5t158.5 -47.5z" />
    <glyph glyph-name="A" unicode="A" horiz-adv-x="1847" 
d="M201 0h-283l1034 1597h310l471 -1597h-289l-146 459h-790q-52 -77 -158.5 -237.5t-148.5 -221.5zM668 707h557q-19 66 -51 169.5t-60 198.5t-61 213h-4q-72 -112 -381 -581z" />
    <glyph glyph-name="B" unicode="B" horiz-adv-x="1753" 
d="M915 0h-784l283 1597h743q250 0 389.5 -96t139.5 -258q0 -143 -111 -264t-283 -160v-4q330 -57 330 -323q0 -136 -90.5 -248.5t-253 -178t-363.5 -65.5zM559 918h406q193 0 310.5 68t117.5 177q0 101 -96 149t-253 48h-397q-5 -27 -25.5 -144.5t-35.5 -190t-27 -107.5z
M438 238h449q205 0 325.5 71t120.5 180q0 72 -51.5 119.5t-130 66.5t-182.5 19h-443q-8 -45 -31.5 -159t-56.5 -297z" />
    <glyph glyph-name="C" unicode="C" horiz-adv-x="2050" 
d="M987 -35q-387 0 -617.5 190t-230.5 511q0 189 87.5 365.5t236.5 308t359 211t442 79.5q194 0 356.5 -57.5t274.5 -169.5t149 -264l-264 -97q-51 155 -197 249.5t-358 94.5q-168 0 -318.5 -59.5t-254.5 -156.5t-165 -223.5t-61 -258.5q0 -102 34.5 -184t92.5 -136
t137 -90.5t165 -52.5t179 -16q254 0 444 114.5t291 299.5l238 -82q-150 -280 -413.5 -428t-606.5 -148z" />
    <glyph glyph-name="D" unicode="D" horiz-adv-x="1964" 
d="M860 0h-729l283 1597h706q393 0 589 -170t196 -475q0 -147 -47 -287.5t-138 -260.5t-216 -210.5t-291.5 -142t-352.5 -51.5zM438 238h441q166 0 306.5 53.5t234.5 144t146 211t52 254.5q0 110 -31 191.5t-83 132t-130.5 81.5t-163 42.5t-190.5 11.5h-373
q-18 -94 -46 -233.5t-60.5 -315.5t-102.5 -573z" />
    <glyph glyph-name="E" unicode="E" horiz-adv-x="1601" 
d="M1384 0h-1253l283 1597h1228l-34 -237h-961q0 -1 -24.5 -107t-59.5 -315h912l-39 -248h-910q-10 -51 -15 -77t-8.5 -44t-20 -102.5t-44.5 -226.5h981z" />
    <glyph glyph-name="F" unicode="F" horiz-adv-x="1523" 
d="M1620 1597l-37 -241h-938l-80 -447h883l-37 -247h-891l-119 -662h-270l283 1597h1206z" />
    <glyph glyph-name="G" unicode="G" horiz-adv-x="2142" 
d="M952 -35q-246 0 -430.5 85t-284.5 242.5t-100 366.5q0 189 87 366.5t235.5 310.5t359 213.5t443.5 80.5q297 0 511.5 -133.5t268.5 -357.5l-264 -97q-52 159 -196 251.5t-355 92.5q-169 0 -320.5 -59.5t-256 -156.5t-165.5 -223.5t-61 -258.5q0 -104 36 -187t95 -136.5
t139.5 -89.5t164 -51t173.5 -15q250 0 441 108t256 283h-586l31 213h858l-144 -813h-211q5 34 16.5 109.5t24.5 166.5h-12q-269 -311 -754 -311z" />
    <glyph glyph-name="H" unicode="H" horiz-adv-x="1988" 
d="M1550 920l121 677h273l-283 -1597h-272l118 670h-987l-119 -670h-270l283 1597h270l-121 -677h987z" />
    <glyph glyph-name="I" unicode="I" horiz-adv-x="731" 
d="M401 0h-270l283 1597h270z" />
    <glyph glyph-name="J" unicode="J" horiz-adv-x="1484" 
d="M590 -35q-104 0 -195.5 20.5t-167.5 63t-124.5 107t-68.5 152t1 198.5l10 51l270 35l-10 -47q-32 -160 58 -249t249 -89q89 0 158 27t108.5 64t68.5 93.5t40 95.5t21 91l180 1019h270l-172 -974q-7 -43 -13 -72t-20.5 -84.5t-31.5 -96.5t-47 -96.5t-65 -95.5t-87.5 -82.5
t-113.5 -69.5t-142.5 -44t-175.5 -17z" />
    <glyph glyph-name="K" unicode="K" horiz-adv-x="1695" 
d="M401 0h-272l283 1597h272l-135 -757h8q467 371 983 757h322q-170 -132 -481 -377t-406 -319q73 -101 225.5 -315.5t264.5 -371t155 -214.5h-330q-108 142 -289 386.5t-245 330.5q-105 -85 -267 -211q-30 -182 -88 -506z" />
    <glyph glyph-name="L" unicode="L" horiz-adv-x="1439" 
d="M684 1597l-240 -1357h906l-37 -240h-1182l283 1597h270z" />
    <glyph glyph-name="M" unicode="M" horiz-adv-x="2488" 
d="M406 0h-275l283 1597h334q36 -94 114 -296t120.5 -313t104 -278t113.5 -315h4q82 110 254.5 345t319.5 430t327 427h336l-282 -1597h-277q25 133 60.5 305.5t69 349t79.5 457.5h-8q-128 -181 -266 -367t-231 -308t-335 -437h-215q-105 266 -155 394t-126.5 336.5
t-133.5 381.5h-7q-28 -145 -51.5 -293t-56.5 -326t-100 -493z" />
    <glyph glyph-name="N" unicode="N" horiz-adv-x="2013" 
d="M401 0h-270l283 1597h284q415 -595 777 -1151h6q23 123 93 482.5t124 668.5h270l-282 -1597h-285q-87 126 -245.5 352.5t-289 416.5t-245.5 364h-7q-16 -90 -80.5 -400.5t-132.5 -732.5z" />
    <glyph glyph-name="O" unicode="O" horiz-adv-x="2150" 
d="M971 -35q-242 0 -432 88t-296 248.5t-106 366.5q0 148 57 291.5t162 263.5t243 212t310 143.5t353 51.5q182 0 337.5 -52t264 -144.5t170 -223.5t61.5 -284q0 -149 -57.5 -293t-162.5 -263.5t-243 -211t-309.5 -142.5t-351.5 -51zM1008 209q159 0 307 58t254.5 152
t170.5 219.5t64 256.5q0 217 -160.5 354t-414.5 137q-157 0 -305.5 -58t-256.5 -152.5t-173.5 -220.5t-65.5 -257q0 -217 162.5 -353t417.5 -136z" />
    <glyph glyph-name="P" unicode="P" horiz-adv-x="1650" 
d="M414 1597h706q31 0 57 -1t88.5 -9t112 -22t110.5 -45t102 -73.5t69.5 -111t28.5 -153.5q0 -116 -52.5 -224t-144.5 -191t-229 -133t-295 -50h-463l-103 -584h-270zM549 834h391q129 0 231.5 33t165 101t62.5 162q0 230 -365 230h-391z" />
    <glyph glyph-name="Q" unicode="Q" horiz-adv-x="2172" 
d="M1886 -63l-217 -154q-110 125 -227 264q-230 -82 -461 -82q-247 0 -439 88t-298.5 249t-106.5 368q0 187 90.5 363t242.5 307t363.5 210.5t440.5 79.5q245 0 437.5 -88t299.5 -247.5t107 -362.5q0 -211 -118 -412t-325 -340q33 -36 63 -70.5t72.5 -84.5t75.5 -88z
M1018 209q143 0 270 45q-29 32 -95 101t-142 153l219 154q20 -23 113.5 -128t144.5 -161q142 98 222.5 239.5t80.5 288.5q0 214 -163.5 349.5t-428.5 135.5q-166 0 -319 -57.5t-262 -152.5t-173.5 -220.5t-64.5 -257.5q0 -148 78.5 -260t213.5 -170.5t306 -58.5z" />
    <glyph glyph-name="R" unicode="R" horiz-adv-x="1714" 
d="M401 0h-270l283 1597h706q48 0 95.5 -4t105 -16t107.5 -31t98.5 -52t83 -75.5t55.5 -105.5t21 -139q0 -134 -69.5 -253.5t-197 -202t-289.5 -108.5l-2 -2q34 -51 93.5 -134t124 -185t170.5 -289h-304l-376 590h-328q-13 -69 -18.5 -98.5t-10 -54.5t-25 -139.5
t-53.5 -297.5zM543 819h395q205 0 333 86.5t128 218.5q0 64 -28.5 111.5t-80 75t-115 40.5t-141.5 13h-387q-73 -379 -104 -545z" />
    <glyph glyph-name="S" unicode="S" horiz-adv-x="1593" 
d="M715 -35q-168 0 -306.5 50.5t-234 159t-117.5 261.5l265 84q13 -86 52 -149.5t98.5 -99.5t128.5 -53t151 -17q183 0 308.5 75t125.5 181q0 49 -27 85.5t-76.5 60.5t-96.5 39t-110 31q-3 0 -5 0.5t-4.5 1t-4.5 1.5l-166 43q-43 11 -77 21.5t-82.5 29.5t-85.5 40t-76.5 52
t-65.5 66.5t-42.5 83.5t-16.5 102q0 100 54.5 193.5t148.5 165t229.5 114.5t288.5 43q129 0 237 -30.5t180.5 -83t116.5 -119.5t56 -142l-263 -96q-27 110 -122 174t-248 64q-163 0 -276 -67.5t-113 -160.5q0 -33 14.5 -62t42.5 -51.5t57.5 -40t71.5 -32.5t71 -24t68 -19
l187 -51q163 -45 237 -83q195 -100 195 -288q0 -104 -57.5 -204t-156.5 -177.5t-244.5 -124.5t-309.5 -47z" />
    <glyph glyph-name="T" unicode="T" horiz-adv-x="1560" 
d="M815 0h-270q12 68 248 1360h-617l37 237h1499l-35 -237h-616q-31 -170 -52.5 -303t-60.5 -349.5t-133 -707.5z" />
    <glyph glyph-name="U" unicode="U" horiz-adv-x="1841" 
d="M811 -35q-111 0 -203 19.5t-158 54t-115 83t-77.5 104.5t-42.5 121t-13.5 130.5t13.5 134.5l178 985h271l-175 -964q-12 -55 -9 -108t15 -100.5t41.5 -87.5t71 -69t104 -45t140.5 -16q94 0 174 24t136.5 64.5t100 96.5t68.5 115.5t37 125.5l176 964h271l-179 -985
q-12 -66 -32 -128t-54.5 -127.5t-80 -121.5t-111 -106.5t-144 -86t-181.5 -56.5t-222 -21z" />
    <glyph glyph-name="V" unicode="V" horiz-adv-x="1847" 
d="M979 0h-313l-467 1597h284q53 -152 200.5 -654t188.5 -632h5q99 143 416.5 640.5t432.5 645.5h287z" />
    <glyph glyph-name="W" unicode="W" horiz-adv-x="2816" 
d="M850 0h-338l-299 1597h305q7 -39 37 -197.5t39.5 -210.5t34 -185.5t38 -214t33.5 -198.5t37 -231h6q117 209 352.5 627t342.5 610h307q39 -201 122 -619t122 -618h4q473 882 673 1237h304l-865 -1597h-333q-140 642 -236 1194h-4q-458 -824 -682 -1194z" />
    <glyph glyph-name="X" unicode="X" horiz-adv-x="1638" 
d="M240 -2h-324q94 97 360 375t418 430v6q-56 89 -213.5 352.5t-269.5 435.5h315q49 -74 88.5 -150t100 -173.5t180.5 -257.5h4q74 72 266 267t320 314h315q-98 -98 -211 -226t-241 -260.5t-316 -301.5v-6q92 -145 254.5 -416t235.5 -389h-324q-60 96 -179 294t-185 302h-5
q-101 -101 -295.5 -299t-293.5 -297z" />
    <glyph glyph-name="Y" unicode="Y" horiz-adv-x="1703" 
d="M887 0h-271q8 45 32.5 190t68.5 369q-47 95 -103 193t-96 169t-121 244t-190 432h293q65 -131 195 -392t194 -392h4q74 84 138.5 169t107 144.5t152.5 181.5t280 289h291q-161 -189 -455.5 -540t-417.5 -496q-15 -82 -40.5 -226.5t-41.5 -230t-20 -104.5z" />
    <glyph glyph-name="Z" unicode="Z" horiz-adv-x="1634" 
d="M1454 0h-1477l37 242q260 220 713.5 601t611.5 515l2 4q-721 0 -1079 -2l37 237h1417l-39 -243q-242 -204 -692.5 -577.5t-640.5 -532.5v-4h1147z" />
    <glyph glyph-name="bracketleft" unicode="[" horiz-adv-x="903" 
d="M674 -403h-621l348 2000h621l-33 -219h-366l-279 -1538h365z" />
    <glyph glyph-name="backslash" unicode="\" horiz-adv-x="1069" 
d="M868 -135h-243l-355 1773h242z" />
    <glyph glyph-name="bracketright" unicode="]" horiz-adv-x="905" 
d="M518 -403h-620l34 243h367l281 1538h-367l35 219h618z" />
    <glyph glyph-name="asciicircum" unicode="^" horiz-adv-x="1097" 
d="M401 1010h-202l422 587h233l211 -587h-201l-149 434h-6z" />
    <glyph glyph-name="underscore" unicode="_" horiz-adv-x="1277" 
d="M1073 -242h-1145l31 195h1145z" />
    <glyph glyph-name="a" unicode="a" horiz-adv-x="1423" 
d="M438 -35q-180 0 -287.5 74.5t-107.5 208.5q0 69 28.5 126t75 96.5t117 71.5t143 52t164.5 37q39 7 95.5 16t94.5 15.5t83.5 16t75 20.5t56.5 27t39.5 38t12.5 51q0 69 -66.5 113.5t-179.5 44.5q-117 0 -211 -50.5t-147 -148.5l-229 78q59 111 163 184.5t219.5 104
t245.5 30.5q150 0 260 -42.5t166 -133.5t33 -221l-74 -418q-21 -117 -25.5 -192.5t5.5 -163.5h-254q-14 81 2 176h-4q-78 -98 -207 -154.5t-287 -56.5zM528 154q85 0 163 26.5t133.5 68t92 90.5t46.5 97l22 111q-64 -25 -123 -38.5t-186 -35.5q-350 -65 -350 -201
q0 -54 53.5 -86t148.5 -32z" />
    <glyph glyph-name="b" unicode="b" horiz-adv-x="1634" 
d="M811 -35q-153 0 -265 57.5t-161 151.5h-6l-35 -174h-252l289 1638h256l-125 -688q104 110 239.5 165.5t286.5 55.5q235 0 373.5 -134t138.5 -355q0 -138 -58 -269t-155.5 -229.5t-236 -158.5t-289.5 -60zM791 195q100 0 191.5 36.5t156.5 96.5t104 140t39 165
q0 138 -95 223.5t-251 85.5q-134 0 -250 -61.5t-183 -163t-67 -215.5q0 -137 99.5 -222t255.5 -85z" />
    <glyph glyph-name="c" unicode="c" horiz-adv-x="1488" 
d="M684 -35q-277 0 -438.5 136t-161.5 368q0 136 60.5 263.5t165 224.5t256.5 155.5t323 58.5q205 0 357 -89.5t200 -256.5l-258 -92q-27 104 -116 156.5t-216 52.5q-105 0 -199.5 -36.5t-160 -97t-104 -140.5t-38.5 -164q0 -143 101.5 -226t267.5 -83q143 0 262 61t193 170
l225 -88q-107 -176 -300 -274.5t-419 -98.5z" />
    <glyph glyph-name="d" unicode="d" horiz-adv-x="1640" 
d="M614 -35q-241 0 -384.5 134t-143.5 360q0 138 57.5 267.5t155 227.5t236.5 157.5t292 59.5q151 0 261 -55t163 -149h4l123 671h256l-227 -1282q-23 -128 -25 -213t9 -143h-256q-11 111 4 170h-6q-93 -101 -231.5 -153t-287.5 -52zM702 197q133 0 249 61.5t183.5 162.5
t67.5 214q0 138 -99.5 222.5t-254.5 84.5q-134 0 -248 -61.5t-179 -162.5t-65 -214q0 -138 95 -222.5t251 -84.5z" />
    <glyph glyph-name="e" unicode="e" horiz-adv-x="1411" 
d="M627 -35q-251 0 -401 134t-150 358q0 139 58.5 269.5t157.5 228.5t239 157t294 59q88 0 168.5 -20.5t152 -65t117 -114.5t65 -168.5t-4.5 -227.5l-16 -90h-979q-13 -140 81 -221.5t253 -81.5q124 0 230 57.5t171 157.5l221 -90q-95 -153 -270.5 -247.5t-386.5 -94.5z
M373 692h710q8 70 -13 123.5t-64 85t-97.5 47t-117.5 15.5q-144 0 -256.5 -76t-161.5 -195z" />
    <glyph glyph-name="f" unicode="f" horiz-adv-x="905" 
d="M426 0h-254l168 920h-205l33 219h203l22 125q38 207 159.5 308t330.5 101q138 0 229 -39l-31 -207q-89 37 -180 37q-73 0 -121.5 -16t-74 -53.5t-35 -63t-20.5 -79.5q-1 -2 -1 -3t-0.5 -3t-1 -3.5t-0.5 -3.5l-20 -100h358l-35 -219h-356z" />
    <glyph glyph-name="g" unicode="g" horiz-adv-x="1636" 
d="M600 -483q-481 0 -571 327l245 80q60 -200 351 -200q196 0 322 112t165 287l16 78h-4q-93 -100 -223 -148.5t-274 -48.5q-242 0 -389.5 129.5t-147.5 351.5q0 132 58 257.5t156 220t235 151.5t286 57q153 0 265.5 -56t164.5 -152h5l34 176h250l-176 -1016
q-24 -135 -77 -240.5t-124 -173.5t-164 -112t-191.5 -62t-211.5 -18zM709 236q131 0 246 58.5t182 154t67 200.5q0 130 -100.5 211.5t-257.5 81.5q-131 0 -243.5 -58.5t-176.5 -153t-64 -200.5q0 -130 96.5 -212t250.5 -82z" />
    <glyph glyph-name="h" unicode="h" horiz-adv-x="1560" 
d="M348 0h-256l289 1638h256l-123 -682h6q185 215 488 215q95 0 175.5 -27t140.5 -80t85 -142.5t4 -204.5l-127 -717h-254l111 610q27 144 -39.5 238t-214.5 94q-167 0 -286 -91.5t-148 -248.5z" />
    <glyph glyph-name="i" unicode="i" horiz-adv-x="641" 
d="M459 1333q-65 0 -108.5 38.5t-43.5 98.5q0 72 61 126.5t144 54.5q64 0 107 -38t43 -95q0 -72 -62 -128.5t-141 -56.5zM348 0h-256l203 1139h254z" />
    <glyph glyph-name="j" unicode="j" horiz-adv-x="641" 
d="M463 1333q-66 0 -109 38.5t-43 98.5q0 71 60.5 126t142.5 55q64 0 107 -38t43 -95q0 -73 -60 -129t-141 -56zM-152 -483q-150 0 -260 47l33 213q104 -43 207 -43q45 0 82 9t62 22.5t45 36.5t31.5 42t20.5 47.5t12.5 46t8.5 44.5l203 1157h256l-203 -1153
q-27 -149 -58 -220q-96 -224 -374 -246q-32 -3 -66 -3z" />
    <glyph glyph-name="k" unicode="k" horiz-adv-x="1341" 
d="M1096 1139h307l-588 -463l463 -676h-299l-365 516l-198 -156l-66 -360h-258l289 1638h258l-176 -968h6q118 92 323.5 243t303.5 226z" />
    <glyph glyph-name="l" unicode="l" horiz-adv-x="641" 
d="M348 0h-256l289 1638h256z" />
    <glyph glyph-name="m" unicode="m" horiz-adv-x="2451" 
d="M348 0h-256l203 1139h250l-35 -183h4q91 104 221 159.5t264 55.5q88 0 165.5 -23t138 -76.5t79.5 -129.5h7q216 229 509 229q93 0 172.5 -27.5t139.5 -81t86 -143t6 -202.5l-125 -717h-256l111 610q27 147 -37 239.5t-203 92.5q-160 0 -277.5 -91.5t-146.5 -248.5
l-106 -602h-254l112 610q27 147 -38 239.5t-203 92.5q-160 0 -277.5 -91.5t-146.5 -248.5z" />
    <glyph glyph-name="n" unicode="n" horiz-adv-x="1560" 
d="M348 0h-256l203 1139h250l-35 -183h4q92 105 221.5 160t272.5 55q97 0 177.5 -27t140 -80t84 -142.5t3.5 -204.5l-127 -717h-254l111 610q27 145 -40 238.5t-216 93.5q-165 0 -284 -91.5t-148 -248.5z" />
    <glyph glyph-name="o" unicode="o" horiz-adv-x="1576" 
d="M682 -35q-274 0 -436 137t-162 367q0 134 61 261.5t166 225t258 156.5t326 59q273 0 435.5 -137.5t162.5 -367.5q0 -135 -60 -262t-165 -224.5t-258 -156t-328 -58.5zM719 195q141 0 257.5 62.5t180.5 163.5t64 216q0 139 -98 222t-261 83q-109 0 -205 -37.5t-161 -99.5
t-102.5 -142t-37.5 -163q0 -138 99 -221.5t264 -83.5z" />
    <glyph glyph-name="p" unicode="p" horiz-adv-x="1634" 
d="M268 -451h-256l283 1590h250l-37 -191h4q106 113 241.5 168t282.5 55q235 0 374.5 -132t139.5 -355q0 -139 -58 -271t-156.5 -230.5t-236.5 -158t-290 -59.5t-263 57.5t-165 151.5zM793 195q100 0 191.5 37.5t156 98t103 141t38.5 163.5q0 138 -95.5 222.5t-250.5 84.5
q-134 0 -250 -62t-183 -163t-67 -213q0 -137 100 -223t257 -86z" />
    <glyph glyph-name="q" unicode="q" horiz-adv-x="1636" 
d="M1266 -451h-256l114 637q-100 -108 -235.5 -164.5t-286.5 -56.5q-233 0 -374.5 136t-141.5 360q0 138 57.5 268t155 227t235.5 156t291 59t264.5 -56t163.5 -152h7l32 176h252zM700 197q134 0 250.5 61.5t184 162.5t67.5 214q0 138 -99.5 222.5t-256.5 84.5
q-133 0 -246.5 -61.5t-178.5 -162.5t-65 -214q0 -138 94.5 -222.5t249.5 -84.5z" />
    <glyph glyph-name="r" unicode="r" horiz-adv-x="1038" 
d="M348 0h-256l203 1139h250l-39 -193h10q73 96 195 160.5t262 64.5q80 0 139 -20l-41 -270q-65 22 -166 22q-86 0 -160 -27t-124.5 -70.5t-90 -101t-61.5 -115t-33 -116.5z" />
    <glyph glyph-name="s" unicode="s" horiz-adv-x="1232" 
d="M530 -35q-212 0 -351 87t-167 233l248 73q31 -95 115.5 -143.5t191.5 -48.5q113 0 192 44.5t79 108.5q0 15 -3.5 27.5t-12.5 23.5t-16.5 19t-24 16t-25.5 13t-32 11.5t-31.5 9t-34.5 9.5t-33 9l-131 32q-29 7 -48 12.5t-56 19t-63 27.5t-58 37.5t-51.5 50t-33.5 65
t-14 81.5q0 102 69.5 191t195 143.5t276.5 54.5q188 0 310 -79t146 -205l-249 -74q-19 69 -81 114.5t-165 45.5q-101 0 -171.5 -43t-70.5 -103q0 -22 9.5 -40.5t31 -33t41 -25.5t53.5 -21.5t55 -16t58 -14.5l110 -27l43.5 -10.5t46 -13t50 -17t46.5 -21.5t45.5 -28t38 -34.5
t31.5 -43t19 -52t8 -62.5q0 -80 -44 -153.5t-120.5 -128.5t-186.5 -87.5t-235 -32.5z" />
    <glyph glyph-name="t" unicode="t" horiz-adv-x="995" 
d="M582 -35q-81 0 -142.5 16t-98.5 40t-60 60.5t-32 69t-9.5 75.5t3 69.5t9.5 60.5l106 564h-270l33 219h270l58 327h256l-58 -327h391l-30 -219h-394l-94 -480q-6 -32 -8.5 -48.5t-5 -47.5t1 -49t13 -41.5t27 -36.5t47 -22t69.5 -9q95 0 213 45l-35 -219q-105 -47 -260 -47
z" />
    <glyph glyph-name="u" unicode="u" horiz-adv-x="1540" 
d="M561 -35q-105 0 -188.5 28t-141 83t-79.5 144t-2 204l126 715h256l-114 -629q-28 -150 43.5 -232.5t204.5 -82.5q161 0 275 94t138 229l111 621h256l-137 -783q-23 -126 -26.5 -201.5t7.5 -154.5h-258q-7 115 4 160h-6q-179 -195 -469 -195z" />
    <glyph glyph-name="v" unicode="v" horiz-adv-x="1372" 
d="M739 0h-303l-311 1139h281q36 -125 72.5 -262t82.5 -314.5t72 -275.5h4q80 125 259.5 409t281.5 443h272z" />
    <glyph glyph-name="w" unicode="w" horiz-adv-x="2263" 
d="M690 0h-291l-272 1139h289l188 -824h6l506 824h236l202 -824h5l491 824h287l-672 -1139h-299q-134 557 -182 784h-4q-372 -601 -490 -784z" />
    <glyph glyph-name="x" unicode="x" horiz-adv-x="1314" 
d="M217 0h-295q33 34 92.5 96t90.5 94t88.5 90.5t128 129t167.5 165.5v5l-366 559h297q88 -132 264 -406h4q318 313 416 406h289q-46 -45 -149 -145t-202 -198t-213 -216v-5q174 -281 365 -575h-289q-177 277 -266 408h-6q-47 -47 -186.5 -180t-229.5 -228z" />
    <glyph glyph-name="y" unicode="y" horiz-adv-x="1384" 
d="M451 -451h-265l271 412l-334 1178h280q72 -248 234 -854h4q345 540 549 854h274z" />
    <glyph glyph-name="z" unicode="z" horiz-adv-x="1249" 
d="M1090 0h-1113l31 203l852 712h-684l33 224h1028l-29 -203l-856 -713h768z" />
    <glyph glyph-name="braceleft" unicode="{" horiz-adv-x="1001" 
d="M791 -303h-125q-282 0 -399.5 101t-78.5 331l31 174q9 53 12 89.5t-2.5 62t-14.5 39.5t-30.5 21t-42.5 9t-59 2l37 242h35t30.5 1.5t28.5 4t24 8t23 13.5t18.5 20t18 28.5t14.5 38t14.5 48.5t12.5 61l31 174q13 71 32.5 126t64 115.5t110 99.5t174 65t251.5 26h125
l-32 -219h-101q-62 0 -108 -5t-93 -20t-79 -41t-57.5 -70t-37.5 -105l-26 -146q-32 -170 -82.5 -244t-161.5 -98v-6q72 -15 104.5 -52.5t34.5 -108t-20 -179.5l-27 -145q-24 -128 39 -185t244 -57h100z" />
    <glyph glyph-name="bar" unicode="|" horiz-adv-x="663" 
d="M264 -451h-223l369 2089h223z" />
    <glyph glyph-name="braceright" unicode="}" horiz-adv-x="1001" 
d="M29 -303h-123l33 219h100q80 0 138 10t108.5 36t81.5 74.5t45 121.5l26 145q13 68 25 112.5t30.5 86.5t43.5 67.5t61 44.5t86 29v6q-70 17 -102.5 53t-37 106.5t18.5 182.5l27 146q13 55 6 99.5t-34.5 76t-90.5 48.5t-162 17h-100l31 219h125q291 0 405.5 -103.5
t73.5 -328.5l-33 -174q-7 -41 -11 -72t-2 -54.5t5 -39.5t14 -27t21 -17t30 -9t36.5 -3.5t45.5 -0.5l-37 -242q-39 0 -61 -2t-46.5 -9t-38 -21t-28 -39.5t-25 -61.5t-20.5 -90l-35 -174q-15 -76 -37.5 -134.5t-68.5 -117t-111.5 -96t-170.5 -61t-242 -23.5z" />
    <glyph glyph-name="asciitilde" unicode="~" horiz-adv-x="1341" 
d="M881 500q-64 0 -121 20t-91.5 43.5t-77.5 43.5t-83 20q-57 0 -94 -36t-47 -85h-209q25 149 129 235t233 86q48 0 91.5 -12.5t75.5 -30t62 -35t64 -30t68 -12.5q58 0 90.5 32t42.5 86h207q-25 -158 -118 -241.5t-222 -83.5z" />
    <glyph glyph-name="uni00A0" unicode="&#xa0;" horiz-adv-x="616" 
 />
    <glyph glyph-name="exclamdown" unicode="&#xa1;" horiz-adv-x="634" 
d="M371 846q-65 0 -108.5 39.5t-43.5 97.5q0 73 62.5 130.5t144.5 57.5q63 0 106 -40t43 -99q0 -74 -63 -130t-141 -56zM283 -440h-285l25 159l247 965h144l-109 -965z" />
    <glyph glyph-name="cent" unicode="&#xa2;" horiz-adv-x="1368" 
d="M870 1061l-110 -633q99 11 181.5 57t133.5 119l174 -69q-76 -126 -216 -204t-306 -89l-43 -242h-133l43 244q-189 21 -304.5 130t-115.5 288q0 105 45 205.5t123 179t189.5 132t238.5 66.5l39 221h133l-39 -219q145 -12 250 -82t139 -188l-200 -74q-17 68 -77.5 108
t-144.5 50zM397 688q0 -106 63.5 -172t166.5 -86l110 629q-150 -26 -245 -132.5t-95 -238.5z" />
    <glyph glyph-name="sterling" unicode="&#xa3;" horiz-adv-x="1544" 
d="M831 657q0 -120 -99 -237.5t-269 -200.5h909l-33 -219h-1300l33 221q221 55 351 166t130 229q0 40 -16 80h-375l20 135h277q-28 41 -43.5 65.5t-36 64.5t-30 81t-9.5 86q0 135 82.5 250t231 183.5t329.5 68.5q72 0 140 -10.5t142.5 -40.5t131 -76.5t97 -125t48.5 -179.5
l-260 -92q-9 70 -34 124t-57 85.5t-74.5 51.5t-81.5 27t-83 7q-139 0 -233 -72t-94 -182q0 -56 21 -105t70 -119t62 -92h508l-22 -135h-435q2 -12 2 -39z" />
    <glyph glyph-name="currency" unicode="&#xa4;" horiz-adv-x="1630" 
d="M1348 891q0 -169 -129 -301l249 -301l-180 -131l-258 307q-112 -45 -239 -45q-132 0 -228 47l-366 -309l-140 131l361 307q-45 76 -45 172q0 164 127 301l-248 301l180 131l258 -305q109 47 242 47q135 0 229 -49l363 307l141 -131l-360 -307q43 -73 43 -172zM596 795
q0 -87 60.5 -138t162.5 -51q128 0 217.5 78.5t89.5 187.5q0 85 -59.5 135t-159.5 50q-129 0 -220 -77.5t-91 -184.5z" />
    <glyph glyph-name="yen" unicode="&#xa5;" horiz-adv-x="1767" 
d="M915 0h-272l45 244h-442l26 172h445l28 137h-444l29 172h375l-453 872h291q31 -60 163.5 -317.5t217.5 -425.5h4q74 83 134.5 161.5t98.5 129.5t145 167t279 285h287l-764 -872h383l-29 -172h-446l-29 -137h447l-27 -172h-446z" />
    <glyph glyph-name="brokenbar" unicode="&#xa6;" horiz-adv-x="663" 
d="M492 834h-224l144 804h221zM264 -451h-221l139 799h221z" />
    <glyph glyph-name="section" unicode="&#xa7;" horiz-adv-x="1331" 
d="M528 -301q-212 0 -356.5 90t-169.5 236l238 67q29 -99 119.5 -153t201.5 -54q107 0 185.5 47t78.5 111q0 24 -12.5 44.5t-29.5 34t-47.5 27t-54 21.5t-61.5 20q-2 1 -3.5 1t-3 1t-3.5 1l-129 43q-313 102 -313 278q0 101 83.5 183.5t219.5 111.5l2 4q-194 78 -194 240
q0 160 155.5 276.5t394.5 116.5q183 0 304.5 -76.5t144.5 -220.5l-248 -74q-32 185 -235 185q-112 0 -185 -46t-73 -110q0 -44 41 -79t74.5 -48t102.5 -34q10 -4 15 -5l131 -37q48 -14 81 -26t79 -35t74.5 -49t49.5 -66t21 -88q0 -105 -88 -193.5t-221 -117.5v-4
q90 -31 142.5 -90t52.5 -144q0 -76 -41.5 -146.5t-114.5 -124t-179.5 -86t-228.5 -32.5zM629 414l51 -15q123 7 198.5 61t75.5 124q0 23 -11 42t-24.5 30.5t-42 23t-47 17t-56.5 15.5q-13 3 -19 5l-76 20q-90 24 -178 -31.5t-88 -132.5q0 -28 16 -52t35.5 -39.5t54.5 -30
t55.5 -21t55.5 -16.5z" />
    <glyph glyph-name="copyright" unicode="&#xa9;" horiz-adv-x="2297" 
d="M1044 -35q-256 0 -452.5 88.5t-304 249t-107.5 369.5q0 187 90.5 362.5t244 306.5t370 210t454.5 79q256 0 453 -87.5t304.5 -247.5t107.5 -369q0 -150 -57.5 -294t-164 -263.5t-248 -210.5t-320.5 -142t-370 -51zM1067 106q162 0 313 42.5t270 118t208.5 175
t137.5 219.5t48 244q0 262 -200.5 424t-526.5 162q-202 0 -384 -66t-311 -175t-204.5 -255.5t-75.5 -302.5q0 -176 91.5 -309.5t255.5 -205t378 -71.5zM1128 348q-207 0 -330.5 103.5t-123.5 275.5q0 102 46.5 197t125.5 166t192 114t240 43q166 0 278 -72.5t144 -201.5
l-184 -62q-21 88 -90 133.5t-171 45.5q-166 0 -276.5 -104.5t-110.5 -240.5q0 -82 43 -137.5t107 -78.5t143 -23q114 0 207.5 54.5t151.5 152.5l161 -51q-83 -151 -227 -232.5t-326 -81.5z" />
    <glyph glyph-name="guillemotleft" unicode="&#xab;" horiz-adv-x="1495" 
d="M709 164h-275l-311 405l2 9l457 405h272l-457 -405l-2 -9zM1270 164h-273l-315 405l4 9l457 405h274l-461 -405l-2 -9z" />
    <glyph glyph-name="logicalnot" unicode="&#xac;" horiz-adv-x="1267" 
d="M1034 193h-217l62 350h-723l28 190h940z" />
    <glyph glyph-name="registered" unicode="&#xae;" horiz-adv-x="1376" 
d="M715 727q-209 0 -338 106.5t-129 278.5q0 101 48.5 196t131 166.5t200 114.5t246.5 43q206 0 339 -103t133 -278q0 -101 -49.5 -197t-133 -168t-201.5 -115.5t-247 -43.5zM731 823q106 0 200.5 35t160 92.5t103.5 132.5t38 154q0 134 -104 218.5t-269 84.5
q-104 0 -197.5 -34.5t-160 -91.5t-105.5 -133t-39 -157q0 -135 103 -218t270 -83zM670 940h-111l86 492h225q88 0 137.5 -35.5t49.5 -98.5q0 -59 -44.5 -107t-117.5 -65l119 -186h-121l-111 176h-80zM741 1346l-24 -144h106q50 0 81.5 23t31.5 57q0 64 -90 64h-105z" />
    <glyph glyph-name="degree" unicode="&#xb0;" horiz-adv-x="909" 
d="M537 1049q-136 0 -222 71.5t-86 184.5q0 135 122 239.5t290 104.5q135 0 221 -71.5t86 -184.5q0 -134 -122 -239t-289 -105zM559 1188q93 0 161 56.5t68 129.5q0 59 -47 97t-120 38q-93 0 -161.5 -55.5t-68.5 -128.5q0 -61 47 -99t121 -38z" />
    <glyph glyph-name="plusminus" unicode="&#xb1;" horiz-adv-x="1302" 
d="M1184 827l-29 -184h-383l-35 -203h381l-28 -182h-975l28 182h377l35 203h-377l29 184h379l41 236h217l-41 -236h381z" />
    <glyph glyph-name="uni00B2" unicode="&#xb2;" horiz-adv-x="817" 
d="M768 754h-641l4 24q20 91 51.5 148.5t100.5 112t196 118.5l24 12t32 16.5t31.5 17.5t33 22t25 23t20 27t6.5 28q0 29 -28 46t-74 17q-67 0 -116 -37t-62 -102l-185 26q21 130 133.5 209.5t262.5 79.5q128 0 206 -58.5t78 -154.5q0 -80 -60 -146.5t-142 -103.5
q-21 -10 -67 -30.5t-70 -32t-53 -34t-46 -48.5h367z" />
    <glyph glyph-name="uni00B3" unicode="&#xb3;" horiz-adv-x="827" 
d="M432 735q-129 0 -217 50t-102 128l192 86q15 -48 54.5 -74t97.5 -26q65 0 107 29t42 71q0 76 -133 76h-88l18 135h93q62 0 108.5 27t46.5 68q0 32 -30.5 51.5t-77.5 19.5q-57 0 -99 -27.5t-59 -76.5l-182 41q30 97 136 163t243 66q119 0 199.5 -48.5t80.5 -131.5
q0 -66 -51 -124t-121 -71v-2q58 -9 97.5 -50.5t39.5 -98.5q0 -107 -114.5 -194t-280.5 -87z" />
    <glyph glyph-name="paragraph" unicode="&#xb6;" horiz-adv-x="1847" 
d="M971 -287h-271l166 942h-200q-227 0 -360.5 109t-133.5 295q0 108 50.5 206t140.5 171.5t224 117t292 43.5h424zM1440 -287h-271l332 1884h271z" />
    <glyph glyph-name="periodcentered" unicode="&#xb7;" horiz-adv-x="710" 
d="M367 477q-79 0 -134 50t-55 122q0 89 76 157t174 68q78 0 132 -47.5t54 -117.5q0 -89 -75 -160.5t-172 -71.5z" />
    <glyph glyph-name="uni00B9" unicode="&#xb9;" horiz-adv-x="585" 
d="M481 754h-205l86 477q-100 -65 -204 -84l30 207q92 27 153.5 73.5t70.5 98.5h200z" />
    <glyph glyph-name="guillemotright" unicode="&#xbb;" horiz-adv-x="1495" 
d="M356 164h-276l459 405l2 9l-316 405h277l311 -405l-2 -9zM915 164h-274l461 405l2 9l-316 405h273l315 -405l-4 -9z" />
    <glyph glyph-name="onequarter" unicode="&#xbc;" horiz-adv-x="1783" 
d="M481 754h-205l86 477q-100 -65 -204 -84l30 207q92 27 153.5 73.5t70.5 98.5h200zM147 0h-239l1624 1468h231zM1503 -12h-196l24 145h-424l25 154l512 473h192l-82 -465h115l-24 -162h-115zM1401 512l-271 -217h226z" />
    <glyph glyph-name="onehalf" unicode="&#xbd;" horiz-adv-x="1851" 
d="M481 754h-205l86 477q-100 -65 -204 -84l30 207q92 27 153.5 73.5t70.5 98.5h200zM147 0h-239l1624 1468h231zM1667 -12h-641l4 24q20 91 51.5 148.5t100.5 112t196 118.5l24 12t32 16.5t31.5 17.5t33 22t25 23t20 27t6.5 28q0 29 -28 46t-74 17q-67 0 -116 -37t-62 -102
l-185 26q21 130 133.5 209.5t262.5 79.5q128 0 206 -58.5t78 -154.5q0 -80 -60 -146.5t-142 -103.5q-21 -10 -67 -30.5t-70 -32t-53 -34t-46 -48.5h367z" />
    <glyph glyph-name="threequarters" unicode="&#xbe;" horiz-adv-x="2025" 
d="M432 735q-129 0 -217 50t-102 128l192 86q15 -48 54.5 -74t97.5 -26q65 0 107 29t42 71q0 76 -133 76h-88l18 135h93q62 0 108.5 27t46.5 68q0 32 -30.5 51.5t-77.5 19.5q-57 0 -99 -27.5t-59 -76.5l-182 41q30 97 136 163t243 66q119 0 199.5 -48.5t80.5 -131.5
q0 -66 -51 -124t-121 -71v-2q58 -9 97.5 -50.5t39.5 -98.5q0 -107 -114.5 -194t-280.5 -87zM389 0h-239l1624 1468h231zM1745 -12h-197l25 145h-424l25 154l512 473h192l-82 -465h115l-25 -162h-114zM1642 512l-270 -217h225z" />
    <glyph glyph-name="questiondown" unicode="&#xbf;" horiz-adv-x="1380" 
d="M805 846q-65 0 -108.5 39.5t-43.5 99.5q0 73 61.5 129.5t139.5 56.5q65 0 110.5 -40.5t45.5 -100.5q0 -72 -62 -128t-143 -56zM504 -473q-149 0 -268.5 45t-191 134t-71.5 208q0 52 17 103t41 90t63.5 79.5t71 66.5t79 57t71.5 44.5t63 34.5q143 78 187 114q85 68 92 164
q2 26 -1 56h275q6 -162 -73 -256.5t-286 -194.5l-52.5 -27t-55.5 -31t-60 -38.5t-52 -43t-46.5 -51t-28.5 -56t-12 -64.5q0 -91 82 -145t209 -54q164 0 286 93.5t132 248.5l235 -41q-11 -122 -73 -224t-158.5 -169.5t-219 -105t-255.5 -37.5z" />
    <glyph glyph-name="Agrave" unicode="&#xc0;" horiz-adv-x="1847" 
d="M1278 1720h-234l-337 351h335zM201 0h-283l1034 1597h310l471 -1597h-289l-146 459h-790q-52 -77 -158.5 -237.5t-148.5 -221.5zM668 707h557q-19 66 -51 169.5t-60 198.5t-61 213h-4q-72 -112 -381 -581z" />
    <glyph glyph-name="Aacute" unicode="&#xc1;" horiz-adv-x="1847" 
d="M1690 2071l-457 -351h-234l357 351h334zM201 0h-283l1034 1597h310l471 -1597h-289l-146 459h-790q-52 -77 -158.5 -237.5t-148.5 -221.5zM668 707h557q-19 66 -51 169.5t-60 198.5t-61 213h-4q-72 -112 -381 -581z" />
    <glyph glyph-name="Acircumflex" unicode="&#xc2;" horiz-adv-x="1847" 
d="M1321 2062l278 -342h-237q-148 133 -199 183q-158 -115 -268 -183h-238l394 342h270zM201 0h-283l1034 1597h310l471 -1597h-289l-146 459h-790q-52 -77 -158.5 -237.5t-148.5 -221.5zM668 707h557q-19 66 -51 169.5t-60 198.5t-61 213h-4q-72 -112 -381 -581z" />
    <glyph glyph-name="Atilde" unicode="&#xc3;" horiz-adv-x="1847" 
d="M1331 1735q-96 0 -170 53l-53 37q-54 39 -100 39q-49 0 -83.5 -32t-45.5 -81h-185q23 134 117.5 216.5t218.5 82.5q93 0 168 -55l51 -35q50 -35 99 -35q45 0 76 30.5t40 80.5h187q-23 -144 -107.5 -222.5t-212.5 -78.5zM201 0h-283l1034 1597h310l471 -1597h-289
l-146 459h-790q-52 -77 -158.5 -237.5t-148.5 -221.5zM668 707h557q-19 66 -51 169.5t-60 198.5t-61 213h-4q-72 -112 -381 -581z" />
    <glyph glyph-name="Adieresis" unicode="&#xc4;" horiz-adv-x="1847" 
d="M874 1747q-63 0 -105 37.5t-42 95.5q0 70 59 123t136 53q63 0 104 -36.5t41 -92.5q0 -70 -58 -125t-135 -55zM1393 1747q-66 0 -108 37t-42 94q0 72 59.5 125t137.5 53q63 0 104 -37.5t41 -93.5q0 -68 -58 -123t-134 -55zM201 0h-283l1034 1597h310l471 -1597h-289
l-146 459h-790q-52 -77 -158.5 -237.5t-148.5 -221.5zM668 707h557q-19 66 -51 169.5t-60 198.5t-61 213h-4q-72 -112 -381 -581z" />
    <glyph glyph-name="Aring" unicode="&#xc5;" horiz-adv-x="1847" 
d="M1124 1712q-112 0 -184 58t-72 149q0 108 100 190t238 82q112 0 183 -57.5t71 -148.5q0 -109 -99 -191t-237 -82zM1145 1851q62 0 106.5 35.5t44.5 81.5q0 36 -32 59t-82 23q-61 0 -105.5 -34.5t-44.5 -80.5q0 -38 31.5 -61t81.5 -23zM201 0h-283l1034 1597h310
l471 -1597h-289l-146 459h-790q-52 -77 -158.5 -237.5t-148.5 -221.5zM668 707h557q-19 66 -51 169.5t-60 198.5t-61 213h-4q-72 -112 -381 -581z" />
    <glyph glyph-name="AE" unicode="&#xc6;" horiz-adv-x="2580" 
d="M145 0h-299l1387 1597h1390l-38 -237h-957q-56 -289 -84 -422h907l-36 -248h-910q-7 -37 -33 -160t-57 -290h985l-37 -240h-1255q8 39 31.5 177.5t56.5 273.5h-629q-39 -40 -113 -110.5t-140.5 -142.5t-168.5 -198zM754 700h479q7 38 34.5 166.5t88.5 493.5h-4
q-241 -267 -598 -660z" />
    <glyph glyph-name="Ccedilla" unicode="&#xc7;" horiz-adv-x="2050" 
d="M1034 209q254 0 444 114.5t291 299.5l238 -82q-146 -271 -398.5 -419t-580.5 -157l-92 -86q30 10 78 10q93 0 151 -42.5t58 -116.5q0 -102 -99 -172t-247 -70q-97 0 -179.5 33.5t-126.5 91.5l105 96q70 -94 211 -94q69 0 115.5 27.5t46.5 70.5q0 33 -33.5 52.5
t-87.5 19.5q-63 0 -115 -27l-76 62l144 149q-342 26 -542 213t-200 484q0 189 87.5 365.5t236.5 308t359 211t442 79.5q194 0 356.5 -57.5t274.5 -169.5t149 -264l-264 -97q-51 155 -197 249.5t-358 94.5q-168 0 -318.5 -59.5t-254.5 -156.5t-165 -223.5t-61 -258.5
q0 -102 34.5 -184t92.5 -136t137 -90.5t165 -52.5t179 -16z" />
    <glyph glyph-name="Egrave" unicode="&#xc8;" horiz-adv-x="1601" 
d="M1184 1720h-234l-338 351h336zM1384 0h-1253l283 1597h1228l-34 -237h-961q0 -1 -24.5 -107t-59.5 -315h912l-39 -248h-910q-10 -51 -15 -77t-8.5 -44t-20 -102.5t-44.5 -226.5h981z" />
    <glyph glyph-name="Eacute" unicode="&#xc9;" horiz-adv-x="1601" 
d="M1595 2071l-456 -351h-234l357 351h333zM1384 0h-1253l283 1597h1228l-34 -237h-961q0 -1 -24.5 -107t-59.5 -315h912l-39 -248h-910q-10 -51 -15 -77t-8.5 -44t-20 -102.5t-44.5 -226.5h981z" />
    <glyph glyph-name="Ecircumflex" unicode="&#xca;" horiz-adv-x="1601" 
d="M1227 2062l278 -342h-237q-148 133 -199 183q-158 -115 -268 -183h-238l393 342h271zM1384 0h-1253l283 1597h1228l-34 -237h-961q0 -1 -24.5 -107t-59.5 -315h912l-39 -248h-910q-10 -51 -15 -77t-8.5 -44t-20 -102.5t-44.5 -226.5h981z" />
    <glyph glyph-name="Edieresis" unicode="&#xcb;" horiz-adv-x="1601" 
d="M780 1747q-63 0 -105 37.5t-42 95.5q0 70 58.5 123t135.5 53q63 0 104.5 -36.5t41.5 -92.5q0 -70 -58 -125t-135 -55zM1298 1747q-66 0 -107.5 37t-41.5 94q0 72 59.5 125t137.5 53q63 0 104 -37.5t41 -93.5q0 -68 -58.5 -123t-134.5 -55zM1384 0h-1253l283 1597h1228
l-34 -237h-961q0 -1 -24.5 -107t-59.5 -315h912l-39 -248h-910q-10 -51 -15 -77t-8.5 -44t-20 -102.5t-44.5 -226.5h981z" />
    <glyph glyph-name="Igrave" unicode="&#xcc;" horiz-adv-x="731" 
d="M721 1720h-234l-337 351h335zM401 0h-270l283 1597h270z" />
    <glyph glyph-name="Iacute" unicode="&#xcd;" horiz-adv-x="731" 
d="M1133 2071l-457 -351h-234l357 351h334zM401 0h-270l283 1597h270z" />
    <glyph glyph-name="Icircumflex" unicode="&#xce;" horiz-adv-x="731" 
d="M764 2062l278 -342h-237q-148 133 -199 183q-158 -115 -268 -183h-238l394 342h270zM401 0h-270l283 1597h270z" />
    <glyph glyph-name="Idieresis" unicode="&#xcf;" horiz-adv-x="731" 
d="M317 1747q-63 0 -105 37.5t-42 95.5q0 70 59 123t136 53q63 0 104 -36.5t41 -92.5q0 -70 -58 -125t-135 -55zM836 1747q-66 0 -108 37t-42 94q0 72 59.5 125t137.5 53q63 0 104 -37.5t41 -93.5q0 -68 -58 -123t-134 -55zM401 0h-270l283 1597h270z" />
    <glyph glyph-name="Eth" unicode="&#xd0;" horiz-adv-x="1964" 
d="M414 1597h706q393 0 589 -170t196 -475q0 -147 -47 -287.5t-138 -260.5t-216 -210.5t-291.5 -142t-352.5 -51.5h-729l123 694h-225l30 207h232zM879 238q166 0 306.5 53.5t234.5 144t146 211t52 254.5q0 110 -31 191.5t-83 132t-130.5 81.5t-163 42.5t-190.5 11.5h-373
q-17 -88 -43 -219.5t-47 -239.5h524l-30 -207h-531l-82 -456h441z" />
    <glyph glyph-name="Ntilde" unicode="&#xd1;" horiz-adv-x="2013" 
d="M1386 1755q-95 0 -169 53l-54 37q-54 39 -100 39q-49 0 -83.5 -31.5t-45.5 -80.5h-184q23 134 117.5 216.5t217.5 82.5q91 0 168 -56l52 -35q49 -34 98 -34q45 0 76.5 30t40.5 80h186q-23 -144 -107.5 -222.5t-212.5 -78.5zM401 0h-270l283 1597h284q415 -595 777 -1151
h6q23 123 93 482.5t124 668.5h270l-282 -1597h-285q-87 126 -245.5 352.5t-289 416.5t-245.5 364h-7q-16 -90 -80.5 -400.5t-132.5 -732.5z" />
    <glyph glyph-name="Ograve" unicode="&#xd2;" horiz-adv-x="2150" 
d="M1427 1720h-233l-338 351h336zM971 -35q-242 0 -432 88t-296 248.5t-106 366.5q0 148 57 291.5t162 263.5t243 212t310 143.5t353 51.5q182 0 337.5 -52t264 -144.5t170 -223.5t61.5 -284q0 -149 -57.5 -293t-162.5 -263.5t-243 -211t-309.5 -142.5t-351.5 -51zM1008 209
q159 0 307 58t254.5 152t170.5 219.5t64 256.5q0 217 -160.5 354t-414.5 137q-157 0 -305.5 -58t-256.5 -152.5t-173.5 -220.5t-65.5 -257q0 -217 162.5 -353t417.5 -136z" />
    <glyph glyph-name="Oacute" unicode="&#xd3;" horiz-adv-x="2150" 
d="M1839 2071l-457 -351h-233l356 351h334zM971 -35q-242 0 -432 88t-296 248.5t-106 366.5q0 148 57 291.5t162 263.5t243 212t310 143.5t353 51.5q182 0 337.5 -52t264 -144.5t170 -223.5t61.5 -284q0 -149 -57.5 -293t-162.5 -263.5t-243 -211t-309.5 -142.5t-351.5 -51z
M1008 209q159 0 307 58t254.5 152t170.5 219.5t64 256.5q0 217 -160.5 354t-414.5 137q-157 0 -305.5 -58t-256.5 -152.5t-173.5 -220.5t-65.5 -257q0 -217 162.5 -353t417.5 -136z" />
    <glyph glyph-name="Ocircumflex" unicode="&#xd4;" horiz-adv-x="2150" 
d="M1470 2062l279 -342h-238q-134 121 -198 183q-12 -8 -38.5 -27.5t-37.5 -27.5t-35 -25t-43.5 -29.5t-49.5 -32t-65 -41.5h-237l393 342h270zM971 -35q-242 0 -432 88t-296 248.5t-106 366.5q0 148 57 291.5t162 263.5t243 212t310 143.5t353 51.5q182 0 337.5 -52
t264 -144.5t170 -223.5t61.5 -284q0 -149 -57.5 -293t-162.5 -263.5t-243 -211t-309.5 -142.5t-351.5 -51zM1008 209q159 0 307 58t254.5 152t170.5 219.5t64 256.5q0 217 -160.5 354t-414.5 137q-157 0 -305.5 -58t-256.5 -152.5t-173.5 -220.5t-65.5 -257
q0 -217 162.5 -353t417.5 -136z" />
    <glyph glyph-name="Otilde" unicode="&#xd5;" horiz-adv-x="2150" 
d="M1473 1755q-96 0 -170 53l-54 37q-54 39 -100 39q-49 0 -83.5 -31.5t-45.5 -80.5h-184q23 134 117.5 216.5t217.5 82.5q91 0 168 -56l52 -35q49 -34 98 -34q45 0 76.5 30t40.5 80h186q-23 -144 -107 -222.5t-212 -78.5zM971 -35q-242 0 -432 88t-296 248.5t-106 366.5
q0 148 57 291.5t162 263.5t243 212t310 143.5t353 51.5q182 0 337.5 -52t264 -144.5t170 -223.5t61.5 -284q0 -149 -57.5 -293t-162.5 -263.5t-243 -211t-309.5 -142.5t-351.5 -51zM1008 209q159 0 307 58t254.5 152t170.5 219.5t64 256.5q0 217 -160.5 354t-414.5 137
q-157 0 -305.5 -58t-256.5 -152.5t-173.5 -220.5t-65.5 -257q0 -217 162.5 -353t417.5 -136z" />
    <glyph glyph-name="Odieresis" unicode="&#xd6;" horiz-adv-x="2150" 
d="M1024 1747q-63 0 -105 37.5t-42 95.5q0 70 58.5 123t135.5 53q63 0 104.5 -36.5t41.5 -92.5q0 -70 -58 -125t-135 -55zM1542 1747q-66 0 -107.5 37t-41.5 94q0 72 59 125t137 53q63 0 104.5 -37.5t41.5 -93.5q0 -68 -58.5 -123t-134.5 -55zM971 -35q-242 0 -432 88
t-296 248.5t-106 366.5q0 148 57 291.5t162 263.5t243 212t310 143.5t353 51.5q182 0 337.5 -52t264 -144.5t170 -223.5t61.5 -284q0 -149 -57.5 -293t-162.5 -263.5t-243 -211t-309.5 -142.5t-351.5 -51zM1008 209q159 0 307 58t254.5 152t170.5 219.5t64 256.5
q0 217 -160.5 354t-414.5 137q-157 0 -305.5 -58t-256.5 -152.5t-173.5 -220.5t-65.5 -257q0 -217 162.5 -353t417.5 -136z" />
    <glyph glyph-name="multiply" unicode="&#xd7;" horiz-adv-x="1165" 
d="M451 623l-252 251l168 138l251 -252l328 244l123 -136l-326 -243l246 -248l-168 -135l-246 247l-331 -249l-125 135z" />
    <glyph glyph-name="Oslash" unicode="&#xd8;" horiz-adv-x="2150" 
d="M2107 1661l-235 -236q223 -198 223 -499q0 -149 -57.5 -293t-162.5 -263.5t-243 -211t-309.5 -142.5t-351.5 -51q-260 0 -457 101l-131 -132h-264l237 238q-219 194 -219 496q0 148 57 291.5t162 263.5t243 212t310 143.5t353 51.5q252 0 450 -98l129 129h266zM428 698
q0 -192 131 -323l952 956q-129 55 -282 55q-157 0 -305.5 -58t-256.5 -152.5t-173.5 -220.5t-65.5 -257zM1008 209q159 0 307 58t254.5 152t170.5 219.5t64 256.5q0 194 -133 330l-956 -957q127 -59 293 -59z" />
    <glyph glyph-name="Ugrave" unicode="&#xd9;" horiz-adv-x="1841" 
d="M1278 1720h-234l-337 351h335zM811 -35q-111 0 -203 19.5t-158 54t-115 83t-77.5 104.5t-42.5 121t-13.5 130.5t13.5 134.5l178 985h271l-175 -964q-12 -55 -9 -108t15 -100.5t41.5 -87.5t71 -69t104 -45t140.5 -16q94 0 174 24t136.5 64.5t100 96.5t68.5 115.5t37 125.5
l176 964h271l-179 -985q-12 -66 -32 -128t-54.5 -127.5t-80 -121.5t-111 -106.5t-144 -86t-181.5 -56.5t-222 -21z" />
    <glyph glyph-name="Uacute" unicode="&#xda;" horiz-adv-x="1841" 
d="M1593 2071l-456 -351h-234l357 351h333zM811 -35q-111 0 -203 19.5t-158 54t-115 83t-77.5 104.5t-42.5 121t-13.5 130.5t13.5 134.5l178 985h271l-175 -964q-12 -55 -9 -108t15 -100.5t41.5 -87.5t71 -69t104 -45t140.5 -16q94 0 174 24t136.5 64.5t100 96.5t68.5 115.5
t37 125.5l176 964h271l-179 -985q-12 -66 -32 -128t-54.5 -127.5t-80 -121.5t-111 -106.5t-144 -86t-181.5 -56.5t-222 -21z" />
    <glyph glyph-name="Ucircumflex" unicode="&#xdb;" horiz-adv-x="1841" 
d="M1321 2062l278 -342h-237q-148 133 -199 183q-158 -115 -268 -183h-238l394 342h270zM811 -35q-111 0 -203 19.5t-158 54t-115 83t-77.5 104.5t-42.5 121t-13.5 130.5t13.5 134.5l178 985h271l-175 -964q-12 -55 -9 -108t15 -100.5t41.5 -87.5t71 -69t104 -45t140.5 -16
q94 0 174 24t136.5 64.5t100 96.5t68.5 115.5t37 125.5l176 964h271l-179 -985q-12 -66 -32 -128t-54.5 -127.5t-80 -121.5t-111 -106.5t-144 -86t-181.5 -56.5t-222 -21z" />
    <glyph glyph-name="Udieresis" unicode="&#xdc;" horiz-adv-x="1841" 
d="M874 1747q-63 0 -105 37.5t-42 95.5q0 70 59 123t136 53q63 0 104 -36.5t41 -92.5q0 -70 -58 -125t-135 -55zM1393 1747q-66 0 -108 37t-42 94q0 72 59.5 125t137.5 53q63 0 104 -37.5t41 -93.5q0 -68 -58 -123t-134 -55zM811 -35q-111 0 -203 19.5t-158 54t-115 83
t-77.5 104.5t-42.5 121t-13.5 130.5t13.5 134.5l178 985h271l-175 -964q-12 -55 -9 -108t15 -100.5t41.5 -87.5t71 -69t104 -45t140.5 -16q94 0 174 24t136.5 64.5t100 96.5t68.5 115.5t37 125.5l176 964h271l-179 -985q-12 -66 -32 -128t-54.5 -127.5t-80 -121.5
t-111 -106.5t-144 -86t-181.5 -56.5t-222 -21z" />
    <glyph glyph-name="Yacute" unicode="&#xdd;" horiz-adv-x="1703" 
d="M1499 2071l-459 -351h-231l354 351h336zM887 0h-271q8 45 32.5 190t68.5 369q-47 95 -103 193t-96 169t-121 244t-190 432h293q65 -131 195 -392t194 -392h4q74 84 138.5 169t107 144.5t152.5 181.5t280 289h291q-161 -189 -455.5 -540t-417.5 -496q-15 -82 -40.5 -226.5
t-41.5 -230t-20 -104.5z" />
    <glyph glyph-name="Thorn" unicode="&#xde;" horiz-adv-x="1677" 
d="M401 0h-270l283 1597h270l-49 -274h436q53 0 103.5 -4.5t108.5 -16.5t107 -31.5t95.5 -52.5t79 -75.5t52 -103.5t19.5 -134q0 -114 -51.5 -221t-142.5 -190.5t-228 -134t-296 -50.5h-459zM598 1085l-102 -526h393q130 0 233.5 33.5t166.5 101.5t63 160q0 231 -365 231
h-389z" />
    <glyph glyph-name="germandbls" unicode="&#xdf;" horiz-adv-x="1572" 
d="M348 0h-256l191 1061q10 55 24.5 107t42.5 115t64 116.5t92.5 105t124.5 88t162 58.5t204 22q247 0 391 -108t144 -289q0 -162 -114 -288t-281 -154v-7q154 -17 242.5 -104t88.5 -223q0 -100 -52.5 -190.5t-147.5 -159.5t-238 -109.5t-313 -40.5h-176l32 219h211
q172 0 293 81t121 192q0 91 -79 145.5t-208 54.5h-131l33 219h96q153 0 253 94t100 218q0 105 -76.5 166t-222.5 61q-90 0 -163.5 -29.5t-116.5 -70t-74 -93.5t-43 -90.5t-17 -70.5z" />
    <glyph glyph-name="agrave" unicode="&#xe0;" horiz-adv-x="1423" 
d="M973 1278h-223l-306 383h316zM438 -35q-180 0 -287.5 74.5t-107.5 208.5q0 69 28.5 126t75 96.5t117 71.5t143 52t164.5 37q39 7 95.5 16t94.5 15.5t83.5 16t75 20.5t56.5 27t39.5 38t12.5 51q0 69 -66.5 113.5t-179.5 44.5q-117 0 -211 -50.5t-147 -148.5l-229 78
q59 111 163 184.5t219.5 104t245.5 30.5q150 0 260 -42.5t166 -133.5t33 -221l-74 -418q-21 -117 -25.5 -192.5t5.5 -163.5h-254q-14 81 2 176h-4q-78 -98 -207 -154.5t-287 -56.5zM528 154q85 0 163 26.5t133.5 68t92 90.5t46.5 97l22 111q-64 -25 -123 -38.5t-186 -35.5
q-350 -65 -350 -201q0 -54 53.5 -86t148.5 -32z" />
    <glyph glyph-name="aacute" unicode="&#xe1;" horiz-adv-x="1423" 
d="M1384 1661l-440 -383h-223l348 383h315zM438 -35q-180 0 -287.5 74.5t-107.5 208.5q0 69 28.5 126t75 96.5t117 71.5t143 52t164.5 37q39 7 95.5 16t94.5 15.5t83.5 16t75 20.5t56.5 27t39.5 38t12.5 51q0 69 -66.5 113.5t-179.5 44.5q-117 0 -211 -50.5t-147 -148.5
l-229 78q59 111 163 184.5t219.5 104t245.5 30.5q150 0 260 -42.5t166 -133.5t33 -221l-74 -418q-21 -117 -25.5 -192.5t5.5 -163.5h-254q-14 81 2 176h-4q-78 -98 -207 -154.5t-287 -56.5zM528 154q85 0 163 26.5t133.5 68t92 90.5t46.5 97l22 111q-64 -25 -123 -38.5
t-186 -35.5q-350 -65 -350 -201q0 -54 53.5 -86t148.5 -32z" />
    <glyph glyph-name="acircumflex" unicode="&#xe2;" horiz-adv-x="1423" 
d="M594 1278h-242l420 367h283l293 -367h-242q-10 11 -78.5 73t-134.5 144q-36 -28 -121.5 -84t-177.5 -133zM438 -35q-180 0 -287.5 74.5t-107.5 208.5q0 69 28.5 126t75 96.5t117 71.5t143 52t164.5 37q39 7 95.5 16t94.5 15.5t83.5 16t75 20.5t56.5 27t39.5 38t12.5 51
q0 69 -66.5 113.5t-179.5 44.5q-117 0 -211 -50.5t-147 -148.5l-229 78q59 111 163 184.5t219.5 104t245.5 30.5q150 0 260 -42.5t166 -133.5t33 -221l-74 -418q-21 -117 -25.5 -192.5t5.5 -163.5h-254q-14 81 2 176h-4q-78 -98 -207 -154.5t-287 -56.5zM528 154
q85 0 163 26.5t133.5 68t92 90.5t46.5 97l22 111q-64 -25 -123 -38.5t-186 -35.5q-350 -65 -350 -201q0 -54 53.5 -86t148.5 -32z" />
    <glyph glyph-name="atilde" unicode="&#xe3;" horiz-adv-x="1423" 
d="M1044 1296q-94 0 -170 54l-53 36q-54 39 -100 39q-49 0 -83.5 -31.5t-45.5 -80.5h-184q23 134 117.5 216.5t217.5 82.5q91 0 168 -56l52 -34q50 -35 98 -35q45 0 76.5 30t40.5 80h186q-23 -144 -107.5 -222.5t-212.5 -78.5zM438 -35q-180 0 -287.5 74.5t-107.5 208.5
q0 69 28.5 126t75 96.5t117 71.5t143 52t164.5 37q39 7 95.5 16t94.5 15.5t83.5 16t75 20.5t56.5 27t39.5 38t12.5 51q0 69 -66.5 113.5t-179.5 44.5q-117 0 -211 -50.5t-147 -148.5l-229 78q59 111 163 184.5t219.5 104t245.5 30.5q150 0 260 -42.5t166 -133.5t33 -221
l-74 -418q-21 -117 -25.5 -192.5t5.5 -163.5h-254q-14 81 2 176h-4q-78 -98 -207 -154.5t-287 -56.5zM528 154q85 0 163 26.5t133.5 68t92 90.5t46.5 97l22 111q-64 -25 -123 -38.5t-186 -35.5q-350 -65 -350 -201q0 -54 53.5 -86t148.5 -32z" />
    <glyph glyph-name="adieresis" unicode="&#xe4;" horiz-adv-x="1423" 
d="M612 1321q-60 0 -98.5 36.5t-38.5 90.5q0 64 55.5 114t128.5 50q60 0 100 -35t40 -88q0 -65 -56.5 -116.5t-130.5 -51.5zM1112 1321q-61 0 -100 36t-39 89q0 68 55 117t129 49q59 0 99 -35.5t40 -87.5q0 -64 -56 -116t-128 -52zM438 -35q-180 0 -287.5 74.5t-107.5 208.5
q0 69 28.5 126t75 96.5t117 71.5t143 52t164.5 37q39 7 95.5 16t94.5 15.5t83.5 16t75 20.5t56.5 27t39.5 38t12.5 51q0 69 -66.5 113.5t-179.5 44.5q-117 0 -211 -50.5t-147 -148.5l-229 78q59 111 163 184.5t219.5 104t245.5 30.5q150 0 260 -42.5t166 -133.5t33 -221
l-74 -418q-21 -117 -25.5 -192.5t5.5 -163.5h-254q-14 81 2 176h-4q-78 -98 -207 -154.5t-287 -56.5zM528 154q85 0 163 26.5t133.5 68t92 90.5t46.5 97l22 111q-64 -25 -123 -38.5t-186 -35.5q-350 -65 -350 -201q0 -54 53.5 -86t148.5 -32z" />
    <glyph glyph-name="aring" unicode="&#xe5;" horiz-adv-x="1423" 
d="M846 1253q-112 0 -184 58t-72 149q0 108 100 190.5t238 82.5q112 0 183 -58t71 -149q0 -109 -99 -191t-237 -82zM866 1393q62 0 107 35t45 81q0 36 -32.5 59t-82.5 23q-61 0 -105 -34t-44 -80q0 -38 31 -61t81 -23zM438 -35q-180 0 -287.5 74.5t-107.5 208.5
q0 69 28.5 126t75 96.5t117 71.5t143 52t164.5 37q39 7 95.5 16t94.5 15.5t83.5 16t75 20.5t56.5 27t39.5 38t12.5 51q0 69 -66.5 113.5t-179.5 44.5q-117 0 -211 -50.5t-147 -148.5l-229 78q59 111 163 184.5t219.5 104t245.5 30.5q150 0 260 -42.5t166 -133.5t33 -221
l-74 -418q-21 -117 -25.5 -192.5t5.5 -163.5h-254q-14 81 2 176h-4q-78 -98 -207 -154.5t-287 -56.5zM528 154q85 0 163 26.5t133.5 68t92 90.5t46.5 97l22 111q-64 -25 -123 -38.5t-186 -35.5q-350 -65 -350 -201q0 -54 53.5 -86t148.5 -32z" />
    <glyph glyph-name="ae" unicode="&#xe6;" horiz-adv-x="2416" 
d="M438 -35q-113 0 -199.5 28.5t-141 94t-54.5 162.5q0 292 535 381q34 6 95 15t94.5 15t81.5 16t74.5 21t53.5 27t39 38t12 50q0 68 -68 114t-178 46q-117 0 -211 -53t-147 -146l-229 78q45 82 115 145t154 100t174.5 55.5t184.5 18.5q150 0 266 -44t154 -130
q102 82 241.5 128t293.5 46q94 0 179.5 -20.5t162.5 -65t127 -114.5t72.5 -168.5t-1.5 -227.5l-12 -67h-1067q-15 -147 89.5 -235.5t281.5 -88.5q140 0 257.5 57t188.5 156l223 -90q-104 -155 -291 -248.5t-413 -93.5q-193 0 -336 66t-199 192h-6q-109 -124 -263.5 -191
t-332.5 -67zM1276 686h790q5 61 -12 109t-49 79t-76.5 51.5t-92.5 29t-101 8.5q-157 0 -280.5 -76.5t-178.5 -200.5zM526 154q166 0 292 90.5t145 191.5l20 113q-92 -33 -141.5 -44.5t-153.5 -27.5q-61 -9 -116.5 -22.5t-115 -36.5t-95 -59t-35.5 -80q0 -60 53 -92.5
t147 -32.5z" />
    <glyph glyph-name="ccedilla" unicode="&#xe7;" horiz-adv-x="1488" 
d="M723 195q143 0 262 61t193 170l225 -88q-103 -168 -285 -266t-397 -107l-92 -86q30 10 78 10q93 0 150.5 -42.5t57.5 -116.5q0 -102 -99 -172t-247 -70q-97 0 -179 33.5t-126 91.5l105 96q70 -94 211 -94q69 0 115 27.5t46 70.5q0 33 -33.5 52.5t-86.5 19.5
q-63 0 -115 -27l-76 62l145 151q-229 26 -360 158.5t-131 339.5q0 136 60.5 263.5t165 224.5t256.5 155.5t323 58.5q205 0 357 -89.5t200 -256.5l-258 -92q-27 104 -116 156.5t-216 52.5q-105 0 -199.5 -36.5t-160 -97t-104 -140.5t-38.5 -164q0 -143 101.5 -226t267.5 -83z
" />
    <glyph glyph-name="egrave" unicode="&#xe8;" horiz-adv-x="1411" 
d="M958 1278h-223l-305 383h315zM627 -35q-251 0 -401 134t-150 358q0 139 58.5 269.5t157.5 228.5t239 157t294 59q88 0 168.5 -20.5t152 -65t117 -114.5t65 -168.5t-4.5 -227.5l-16 -90h-979q-13 -140 81 -221.5t253 -81.5q124 0 230 57.5t171 157.5l221 -90
q-95 -153 -270.5 -247.5t-386.5 -94.5zM373 692h710q8 70 -13 123.5t-64 85t-97.5 47t-117.5 15.5q-144 0 -256.5 -76t-161.5 -195z" />
    <glyph glyph-name="eacute" unicode="&#xe9;" horiz-adv-x="1411" 
d="M1370 1661l-440 -383h-223l348 383h315zM627 -35q-251 0 -401 134t-150 358q0 139 58.5 269.5t157.5 228.5t239 157t294 59q88 0 168.5 -20.5t152 -65t117 -114.5t65 -168.5t-4.5 -227.5l-16 -90h-979q-13 -140 81 -221.5t253 -81.5q124 0 230 57.5t171 157.5l221 -90
q-95 -153 -270.5 -247.5t-386.5 -94.5zM373 692h710q8 70 -13 123.5t-64 85t-97.5 47t-117.5 15.5q-144 0 -256.5 -76t-161.5 -195z" />
    <glyph glyph-name="ecircumflex" unicode="&#xea;" horiz-adv-x="1411" 
d="M580 1278h-242l420 367h282l293 -367h-241q-10 11 -78.5 73t-134.5 144q-36 -28 -121.5 -84t-177.5 -133zM627 -35q-251 0 -401 134t-150 358q0 139 58.5 269.5t157.5 228.5t239 157t294 59q88 0 168.5 -20.5t152 -65t117 -114.5t65 -168.5t-4.5 -227.5l-16 -90h-979
q-13 -140 81 -221.5t253 -81.5q124 0 230 57.5t171 157.5l221 -90q-95 -153 -270.5 -247.5t-386.5 -94.5zM373 692h710q8 70 -13 123.5t-64 85t-97.5 47t-117.5 15.5q-144 0 -256.5 -76t-161.5 -195z" />
    <glyph glyph-name="edieresis" unicode="&#xeb;" horiz-adv-x="1411" 
d="M598 1321q-60 0 -98.5 36.5t-38.5 90.5q0 64 55.5 114t128.5 50q60 0 99.5 -35t39.5 -88q0 -65 -56 -116.5t-130 -51.5zM1098 1321q-61 0 -100.5 36t-39.5 89q0 68 55.5 117t129.5 49q59 0 99 -35.5t40 -87.5q0 -64 -56 -116t-128 -52zM627 -35q-251 0 -401 134t-150 358
q0 139 58.5 269.5t157.5 228.5t239 157t294 59q88 0 168.5 -20.5t152 -65t117 -114.5t65 -168.5t-4.5 -227.5l-16 -90h-979q-13 -140 81 -221.5t253 -81.5q124 0 230 57.5t171 157.5l221 -90q-95 -153 -270.5 -247.5t-386.5 -94.5zM373 692h710q8 70 -13 123.5t-64 85
t-97.5 47t-117.5 15.5q-144 0 -256.5 -76t-161.5 -195z" />
    <glyph glyph-name="igrave" unicode="&#xec;" horiz-adv-x="641" 
d="M567 1266h-223l-305 383h315zM348 0h-256l203 1139h254z" />
    <glyph glyph-name="iacute" unicode="&#xed;" horiz-adv-x="641" 
d="M979 1649l-440 -383h-224l349 383h315zM348 0h-256l203 1139h254z" />
    <glyph glyph-name="icircumflex" unicode="&#xee;" horiz-adv-x="641" 
d="M188 1266h-241l420 366h282l293 -366h-242q-10 11 -78.5 73t-134.5 144q-36 -28 -121.5 -84t-177.5 -133zM348 0h-256l203 1139h254z" />
    <glyph glyph-name="idieresis" unicode="&#xef;" horiz-adv-x="641" 
d="M207 1309q-60 0 -98.5 36.5t-38.5 90.5q0 63 55.5 113t128.5 50q60 0 99.5 -34.5t39.5 -87.5q0 -65 -56 -116.5t-130 -51.5zM707 1309q-61 0 -100.5 36t-39.5 89q0 68 55.5 116.5t129.5 48.5q59 0 99 -35t40 -87q0 -64 -55.5 -116t-128.5 -52zM348 0h-256l203 1139h254z
" />
    <glyph glyph-name="eth" unicode="&#xf0;" horiz-adv-x="1599" 
d="M1430 1532l-203 -90q295 -234 295 -608q0 -135 -37 -263t-110 -237.5t-173.5 -192t-235.5 -129.5t-288 -47q-269 0 -433.5 131.5t-164.5 349.5q0 125 59 241.5t160 204t244.5 140.5t302.5 53q136 0 231.5 -40t171.5 -130h6q-40 246 -280 414l-363 -160l-55 119l279 125
q-133 66 -306 117l99 192q278 -76 471 -190l266 119zM707 188q204 0 346.5 119t142.5 281q0 129 -99 205.5t-257 76.5q-202 0 -347 -118.5t-145 -276.5q0 -128 98 -207.5t261 -79.5z" />
    <glyph glyph-name="ntilde" unicode="&#xf1;" horiz-adv-x="1560" 
d="M1094 1296q-94 0 -170 54l-54 36q-54 39 -100 39q-49 0 -83.5 -31.5t-45.5 -80.5h-184q23 134 117.5 216.5t218.5 82.5q91 0 168 -56l51 -34q50 -35 98 -35q45 0 76.5 30t40.5 80h186q-23 -144 -107 -222.5t-212 -78.5zM348 0h-256l203 1139h250l-35 -183h4
q92 105 221.5 160t272.5 55q97 0 177.5 -27t140 -80t84 -142.5t3.5 -204.5l-127 -717h-254l111 610q27 145 -40 238.5t-216 93.5q-165 0 -284 -91.5t-148 -248.5z" />
    <glyph glyph-name="ograve" unicode="&#xf2;" horiz-adv-x="1576" 
d="M1036 1278h-223l-305 383h315zM682 -35q-274 0 -436 137t-162 367q0 134 61 261.5t166 225t258 156.5t326 59q273 0 435.5 -137.5t162.5 -367.5q0 -135 -60 -262t-165 -224.5t-258 -156t-328 -58.5zM719 195q141 0 257.5 62.5t180.5 163.5t64 216q0 139 -98 222t-261 83
q-109 0 -205 -37.5t-161 -99.5t-102.5 -142t-37.5 -163q0 -138 99 -221.5t264 -83.5z" />
    <glyph glyph-name="oacute" unicode="&#xf3;" horiz-adv-x="1576" 
d="M1448 1661l-440 -383h-224l349 383h315zM682 -35q-274 0 -436 137t-162 367q0 134 61 261.5t166 225t258 156.5t326 59q273 0 435.5 -137.5t162.5 -367.5q0 -135 -60 -262t-165 -224.5t-258 -156t-328 -58.5zM719 195q141 0 257.5 62.5t180.5 163.5t64 216q0 139 -98 222
t-261 83q-109 0 -205 -37.5t-161 -99.5t-102.5 -142t-37.5 -163q0 -138 99 -221.5t264 -83.5z" />
    <glyph glyph-name="ocircumflex" unicode="&#xf4;" horiz-adv-x="1576" 
d="M657 1278h-241l420 367h282l293 -367h-242q-10 11 -78.5 73t-134.5 144q-36 -28 -121.5 -84t-177.5 -133zM682 -35q-274 0 -436 137t-162 367q0 134 61 261.5t166 225t258 156.5t326 59q273 0 435.5 -137.5t162.5 -367.5q0 -135 -60 -262t-165 -224.5t-258 -156
t-328 -58.5zM719 195q141 0 257.5 62.5t180.5 163.5t64 216q0 139 -98 222t-261 83q-109 0 -205 -37.5t-161 -99.5t-102.5 -142t-37.5 -163q0 -138 99 -221.5t264 -83.5z" />
    <glyph glyph-name="otilde" unicode="&#xf5;" horiz-adv-x="1576" 
d="M1108 1296q-94 0 -170 54l-53 36q-54 39 -101 39q-49 0 -83.5 -31.5t-45.5 -80.5h-184q23 134 117.5 216.5t218.5 82.5q91 0 168 -56l51 -34q50 -35 98 -35q45 0 76.5 30t40.5 80h186q-23 -144 -107 -222.5t-212 -78.5zM682 -35q-274 0 -436 137t-162 367q0 134 61 261.5
t166 225t258 156.5t326 59q273 0 435.5 -137.5t162.5 -367.5q0 -135 -60 -262t-165 -224.5t-258 -156t-328 -58.5zM719 195q141 0 257.5 62.5t180.5 163.5t64 216q0 139 -98 222t-261 83q-109 0 -205 -37.5t-161 -99.5t-102.5 -142t-37.5 -163q0 -138 99 -221.5t264 -83.5z
" />
    <glyph glyph-name="odieresis" unicode="&#xf6;" horiz-adv-x="1576" 
d="M676 1321q-60 0 -98.5 36.5t-38.5 90.5q0 64 55.5 114t128.5 50q60 0 99.5 -35t39.5 -88q0 -65 -56 -116.5t-130 -51.5zM1176 1321q-61 0 -100.5 36t-39.5 89q0 68 55.5 117t129.5 49q59 0 99 -35.5t40 -87.5q0 -64 -56 -116t-128 -52zM682 -35q-274 0 -436 137t-162 367
q0 134 61 261.5t166 225t258 156.5t326 59q273 0 435.5 -137.5t162.5 -367.5q0 -135 -60 -262t-165 -224.5t-258 -156t-328 -58.5zM719 195q141 0 257.5 62.5t180.5 163.5t64 216q0 139 -98 222t-261 83q-109 0 -205 -37.5t-161 -99.5t-102.5 -142t-37.5 -163
q0 -138 99 -221.5t264 -83.5z" />
    <glyph glyph-name="divide" unicode="&#xf7;" horiz-adv-x="1290" 
d="M696 850q-58 0 -96.5 35t-38.5 88q0 63 54.5 111.5t127.5 48.5q59 0 97.5 -34.5t38.5 -86.5q0 -62 -56 -112t-127 -50zM1135 530h-988l31 193h987zM575 121q-58 0 -96.5 35.5t-38.5 87.5q0 63 54.5 111t126.5 48q59 0 98 -33.5t39 -84.5q0 -64 -56 -114t-127 -50z" />
    <glyph glyph-name="oslash" unicode="&#xf8;" horiz-adv-x="1576" 
d="M1317 1186h272l-211 -199q115 -131 115 -321q0 -135 -60 -262t-165 -224.5t-258 -156t-328 -58.5q-186 0 -324 66l-94 -88h-278l217 202q-119 128 -119 324q0 134 61 261.5t166 225t258 156.5t326 59q191 0 332 -69zM356 500q0 -98 47 -166l623 581q-79 27 -164 27
q-109 0 -205 -37.5t-161 -99.5t-102.5 -142t-37.5 -163zM1221 637q0 92 -45 162l-617 -580q71 -24 160 -24q141 0 257.5 62.5t180.5 163.5t64 216z" />
    <glyph glyph-name="ugrave" unicode="&#xf9;" horiz-adv-x="1540" 
d="M1006 1278h-224l-305 383h316zM561 -35q-105 0 -188.5 28t-141 83t-79.5 144t-2 204l126 715h256l-114 -629q-28 -150 43.5 -232.5t204.5 -82.5q161 0 275 94t138 229l111 621h256l-137 -783q-23 -126 -26.5 -201.5t7.5 -154.5h-258q-7 115 4 160h-6q-179 -195 -469 -195
z" />
    <glyph glyph-name="uacute" unicode="&#xfa;" horiz-adv-x="1540" 
d="M1419 1661l-440 -383h-223l348 383h315zM561 -35q-105 0 -188.5 28t-141 83t-79.5 144t-2 204l126 715h256l-114 -629q-28 -150 43.5 -232.5t204.5 -82.5q161 0 275 94t138 229l111 621h256l-137 -783q-23 -126 -26.5 -201.5t7.5 -154.5h-258q-7 115 4 160h-6
q-179 -195 -469 -195z" />
    <glyph glyph-name="ucircumflex" unicode="&#xfb;" horiz-adv-x="1540" 
d="M627 1278h-242l420 367h282l293 -367h-241q-10 11 -78.5 73t-134.5 144q-36 -28 -121.5 -84t-177.5 -133zM561 -35q-105 0 -188.5 28t-141 83t-79.5 144t-2 204l126 715h256l-114 -629q-28 -150 43.5 -232.5t204.5 -82.5q161 0 275 94t138 229l111 621h256l-137 -783
q-23 -126 -26.5 -201.5t7.5 -154.5h-258q-7 115 4 160h-6q-179 -195 -469 -195z" />
    <glyph glyph-name="udieresis" unicode="&#xfc;" horiz-adv-x="1540" 
d="M645 1321q-60 0 -98.5 36.5t-38.5 90.5q0 64 55.5 114t128.5 50q60 0 99.5 -35t39.5 -88q0 -65 -56 -116.5t-130 -51.5zM1145 1321q-61 0 -100 36t-39 89q0 68 55 117t129 49q59 0 99 -35.5t40 -87.5q0 -64 -55.5 -116t-128.5 -52zM561 -35q-105 0 -188.5 28t-141 83
t-79.5 144t-2 204l126 715h256l-114 -629q-28 -150 43.5 -232.5t204.5 -82.5q161 0 275 94t138 229l111 621h256l-137 -783q-23 -126 -26.5 -201.5t7.5 -154.5h-258q-7 115 4 160h-6q-179 -195 -469 -195z" />
    <glyph glyph-name="yacute" unicode="&#xfd;" horiz-adv-x="1384" 
d="M1343 1661l-440 -383h-223l348 383h315zM451 -451h-265l271 412l-334 1178h280q72 -248 234 -854h4q345 540 549 854h274z" />
    <glyph glyph-name="thorn" unicode="&#xfe;" horiz-adv-x="1634" 
d="M268 -451h-256l369 2089h256l-125 -688h6q101 110 233.5 165.5t282.5 55.5q233 0 374.5 -135t141.5 -356q0 -139 -58.5 -270.5t-156.5 -229t-236 -156.5t-288 -59q-143 0 -255 53t-169 154h-6zM791 195q100 0 191.5 36.5t156.5 96.5t104 140t39 165q0 138 -95.5 223.5
t-250.5 85.5q-134 0 -250 -62t-183 -163t-67 -213q0 -138 99 -223.5t256 -85.5z" />
    <glyph glyph-name="ydieresis" unicode="&#xff;" horiz-adv-x="1384" 
d="M569 1321q-60 0 -98.5 36.5t-38.5 90.5q0 64 55.5 114t128.5 50q60 0 100 -35t40 -88q0 -65 -56.5 -116.5t-130.5 -51.5zM1069 1321q-61 0 -100 36t-39 89q0 68 55 117t129 49q59 0 99 -35.5t40 -87.5q0 -64 -55.5 -116t-128.5 -52zM451 -451h-265l271 412l-334 1178h280
q72 -248 234 -854h4q345 540 549 854h274z" />
    <glyph glyph-name="Amacron" unicode="&#x100;" horiz-adv-x="1847" 
d="M1567 1784h-856l30 184h852zM201 0h-283l1034 1597h310l471 -1597h-289l-146 459h-790q-52 -77 -158.5 -237.5t-148.5 -221.5zM668 707h557q-19 66 -51 169.5t-60 198.5t-61 213h-4q-72 -112 -381 -581z" />
    <glyph glyph-name="amacron" unicode="&#x101;" horiz-adv-x="1423" 
d="M1282 1356h-825l26 176h826zM438 -35q-180 0 -287.5 74.5t-107.5 208.5q0 69 28.5 126t75 96.5t117 71.5t143 52t164.5 37q39 7 95.5 16t94.5 15.5t83.5 16t75 20.5t56.5 27t39.5 38t12.5 51q0 69 -66.5 113.5t-179.5 44.5q-117 0 -211 -50.5t-147 -148.5l-229 78
q59 111 163 184.5t219.5 104t245.5 30.5q150 0 260 -42.5t166 -133.5t33 -221l-74 -418q-21 -117 -25.5 -192.5t5.5 -163.5h-254q-14 81 2 176h-4q-78 -98 -207 -154.5t-287 -56.5zM528 154q85 0 163 26.5t133.5 68t92 90.5t46.5 97l22 111q-64 -25 -123 -38.5t-186 -35.5
q-350 -65 -350 -201q0 -54 53.5 -86t148.5 -32z" />
    <glyph glyph-name="Abreve" unicode="&#x102;" horiz-adv-x="1847" 
d="M1124 1718q-202 0 -313.5 103t-93.5 252h223q-8 -70 49.5 -124.5t161.5 -54.5q107 0 185 53.5t96 125.5h221q-30 -149 -177 -252t-352 -103zM201 0h-283l1034 1597h310l471 -1597h-289l-146 459h-790q-52 -77 -158.5 -237.5t-148.5 -221.5zM668 707h557q-19 66 -51 169.5
t-60 198.5t-61 213h-4q-72 -112 -381 -581z" />
    <glyph glyph-name="abreve" unicode="&#x103;" horiz-adv-x="1423" 
d="M848 1270q-206 0 -309.5 109.5t-79.5 285.5h215q-15 -93 40 -155t165 -62t189 61.5t101 155.5h215q-39 -180 -186.5 -287.5t-349.5 -107.5zM438 -35q-180 0 -287.5 74.5t-107.5 208.5q0 69 28.5 126t75 96.5t117 71.5t143 52t164.5 37q39 7 95.5 16t94.5 15.5t83.5 16
t75 20.5t56.5 27t39.5 38t12.5 51q0 69 -66.5 113.5t-179.5 44.5q-117 0 -211 -50.5t-147 -148.5l-229 78q59 111 163 184.5t219.5 104t245.5 30.5q150 0 260 -42.5t166 -133.5t33 -221l-74 -418q-21 -117 -25.5 -192.5t5.5 -163.5h-254q-14 81 2 176h-4
q-78 -98 -207 -154.5t-287 -56.5zM528 154q85 0 163 26.5t133.5 68t92 90.5t46.5 97l22 111q-64 -25 -123 -38.5t-186 -35.5q-350 -65 -350 -201q0 -54 53.5 -86t148.5 -32z" />
    <glyph glyph-name="Aogonek" unicode="&#x104;" horiz-adv-x="1847" 
d="M1397 -190q0 -48 46.5 -81.5t127.5 -33.5q56 0 110 12l-24 -153q-69 -17 -146 -17q-85 0 -153 21t-112 67.5t-44 112.5q0 86 71.5 154.5t172.5 107.5h-2l-146 459h-790q-52 -77 -158.5 -237.5t-148.5 -221.5h-283l1034 1597h310l471 -1597h-97q-102 -22 -170.5 -76.5
t-68.5 -113.5zM668 707h557q-19 66 -51 169.5t-60 198.5t-61 213h-4q-72 -112 -381 -581z" />
    <glyph glyph-name="aogonek" unicode="&#x105;" horiz-adv-x="1423" 
d="M823 1171q150 0 260 -42.5t166 -133.5t33 -221l-74 -418q-21 -117 -25.5 -192.5t5.5 -163.5h-72q-102 -25 -167.5 -78.5t-65.5 -114.5q0 -47 45 -75.5t116 -28.5q55 0 115 16l-29 -168q-63 -14 -129 -14q-144 0 -227.5 54.5t-83.5 148.5q0 87 73 156t173 104h-2
q-14 81 2 176h-4q-78 -98 -207 -154.5t-287 -56.5q-180 0 -287.5 74.5t-107.5 208.5q0 69 28.5 126t75 96.5t117 71.5t143 52t164.5 37q39 7 95.5 16t94.5 15.5t83.5 16t75 20.5t56.5 27t39.5 38t12.5 51q0 69 -66.5 113.5t-179.5 44.5q-117 0 -211 -50.5t-147 -148.5
l-229 78q59 111 163 184.5t219.5 104t245.5 30.5zM528 154q85 0 163 26.5t133.5 68t92 90.5t46.5 97l22 111q-64 -25 -123 -38.5t-186 -35.5q-350 -65 -350 -201q0 -54 53.5 -86t148.5 -32z" />
    <glyph glyph-name="Cacute" unicode="&#x106;" horiz-adv-x="2050" 
d="M1817 2071l-457 -351h-234l357 351h334zM987 -35q-387 0 -617.5 190t-230.5 511q0 189 87.5 365.5t236.5 308t359 211t442 79.5q194 0 356.5 -57.5t274.5 -169.5t149 -264l-264 -97q-51 155 -197 249.5t-358 94.5q-168 0 -318.5 -59.5t-254.5 -156.5t-165 -223.5
t-61 -258.5q0 -102 34.5 -184t92.5 -136t137 -90.5t165 -52.5t179 -16q254 0 444 114.5t291 299.5l238 -82q-150 -280 -413.5 -428t-606.5 -148z" />
    <glyph glyph-name="cacute" unicode="&#x107;" horiz-adv-x="1488" 
d="M1401 1661l-440 -383h-224l348 383h316zM684 -35q-277 0 -438.5 136t-161.5 368q0 136 60.5 263.5t165 224.5t256.5 155.5t323 58.5q205 0 357 -89.5t200 -256.5l-258 -92q-27 104 -116 156.5t-216 52.5q-105 0 -199.5 -36.5t-160 -97t-104 -140.5t-38.5 -164
q0 -143 101.5 -226t267.5 -83q143 0 262 61t193 170l225 -88q-107 -176 -300 -274.5t-419 -98.5z" />
    <glyph glyph-name="Cdotaccent" unicode="&#x10a;" horiz-adv-x="2050" 
d="M1260 1763q-65 0 -108.5 39t-43.5 99q0 72 61 126t144 54q64 0 106.5 -38t42.5 -95q0 -72 -61.5 -128.5t-140.5 -56.5zM987 -35q-387 0 -617.5 190t-230.5 511q0 189 87.5 365.5t236.5 308t359 211t442 79.5q194 0 356.5 -57.5t274.5 -169.5t149 -264l-264 -97
q-51 155 -197 249.5t-358 94.5q-168 0 -318.5 -59.5t-254.5 -156.5t-165 -223.5t-61 -258.5q0 -102 34.5 -184t92.5 -136t137 -90.5t165 -52.5t179 -16q254 0 444 114.5t291 299.5l238 -82q-150 -280 -413.5 -428t-606.5 -148z" />
    <glyph glyph-name="cdotaccent" unicode="&#x10b;" horiz-adv-x="1488" 
d="M883 1346q-66 0 -109 38.5t-43 98.5q0 72 60.5 126t142.5 54q66 0 108.5 -38t42.5 -95q0 -72 -61.5 -128t-140.5 -56zM684 -35q-277 0 -438.5 136t-161.5 368q0 136 60.5 263.5t165 224.5t256.5 155.5t323 58.5q205 0 357 -89.5t200 -256.5l-258 -92q-27 104 -116 156.5
t-216 52.5q-105 0 -199.5 -36.5t-160 -97t-104 -140.5t-38.5 -164q0 -143 101.5 -226t267.5 -83q143 0 262 61t193 170l225 -88q-107 -176 -300 -274.5t-419 -98.5z" />
    <glyph glyph-name="Ccaron" unicode="&#x10c;" horiz-adv-x="2050" 
d="M1542 2062h238l-391 -342h-277l-274 342h237q4 -3 201 -186q33 24 84 61.5t91.5 66t90.5 58.5zM987 -35q-387 0 -617.5 190t-230.5 511q0 189 87.5 365.5t236.5 308t359 211t442 79.5q194 0 356.5 -57.5t274.5 -169.5t149 -264l-264 -97q-51 155 -197 249.5t-358 94.5
q-168 0 -318.5 -59.5t-254.5 -156.5t-165 -223.5t-61 -258.5q0 -102 34.5 -184t92.5 -136t137 -90.5t165 -52.5t179 -16q254 0 444 114.5t291 299.5l238 -82q-150 -280 -413.5 -428t-606.5 -148z" />
    <glyph glyph-name="ccaron" unicode="&#x10d;" horiz-adv-x="1488" 
d="M1010 1290h-283l-291 379h242q28 -27 65.5 -59t69 -64.5t80.5 -93.5q35 28 120 84.5t177 132.5h242zM684 -35q-277 0 -438.5 136t-161.5 368q0 136 60.5 263.5t165 224.5t256.5 155.5t323 58.5q205 0 357 -89.5t200 -256.5l-258 -92q-27 104 -116 156.5t-216 52.5
q-105 0 -199.5 -36.5t-160 -97t-104 -140.5t-38.5 -164q0 -143 101.5 -226t267.5 -83q143 0 262 61t193 170l225 -88q-107 -176 -300 -274.5t-419 -98.5z" />
    <glyph glyph-name="Dcaron" unicode="&#x10e;" horiz-adv-x="1964" 
d="M1411 2062h238l-392 -342h-276l-274 342h237q4 -3 201 -186q33 24 84 61.5t91.5 66t90.5 58.5zM860 0h-729l283 1597h706q393 0 589 -170t196 -475q0 -147 -47 -287.5t-138 -260.5t-216 -210.5t-291.5 -142t-352.5 -51.5zM438 238h441q166 0 306.5 53.5t234.5 144
t146 211t52 254.5q0 110 -31 191.5t-83 132t-130.5 81.5t-163 42.5t-190.5 11.5h-373q-18 -94 -46 -233.5t-60.5 -315.5t-102.5 -573z" />
    <glyph glyph-name="dcaron" unicode="&#x10f;" horiz-adv-x="1640" 
d="M1782 1120h-156l225 277q-92 36 -92 123q0 73 62.5 129.5t144.5 56.5q65 0 108.5 -39.5t43.5 -99.5q0 -56 -59.5 -133t-276.5 -314zM614 -35q-241 0 -384.5 134t-143.5 360q0 138 57.5 267.5t155 227.5t236.5 157.5t292 59.5q151 0 261 -55t163 -149h4l123 671h256
l-227 -1282q-23 -128 -25 -213t9 -143h-256q-11 111 4 170h-6q-93 -101 -231.5 -153t-287.5 -52zM702 197q133 0 249 61.5t183.5 162.5t67.5 214q0 138 -99.5 222.5t-254.5 84.5q-134 0 -248 -61.5t-179 -162.5t-65 -214q0 -138 95 -222.5t251 -84.5z" />
    <glyph glyph-name="Dcroat" unicode="&#x110;" horiz-adv-x="1964" 
d="M414 1597h706q393 0 589 -170t196 -475q0 -147 -47 -287.5t-138 -260.5t-216 -210.5t-291.5 -142t-352.5 -51.5h-729l123 694h-225l30 207h232zM879 238q166 0 306.5 53.5t234.5 144t146 211t52 254.5q0 110 -31 191.5t-83 132t-130.5 81.5t-163 42.5t-190.5 11.5h-373
q-17 -88 -43 -219.5t-47 -239.5h524l-30 -207h-531l-82 -456h441z" />
    <glyph glyph-name="dcroat" unicode="&#x111;" horiz-adv-x="1640" 
d="M1604 1468h315l-27 -184h-321l-164 -928q-23 -128 -25 -213t9 -143h-256q-11 111 4 170h-6q-93 -101 -231.5 -153t-287.5 -52q-241 0 -384.5 134t-143.5 360q0 138 57.5 267.5t155 227.5t236.5 157.5t292 59.5q151 0 261 -55t163 -149h4l58 317h-322l29 184h328l30 170
h256zM702 197q133 0 249 61.5t183.5 162.5t67.5 214q0 138 -99.5 222.5t-254.5 84.5q-134 0 -248 -61.5t-179 -162.5t-65 -214q0 -138 95 -222.5t251 -84.5z" />
    <glyph glyph-name="Emacron" unicode="&#x112;" horiz-adv-x="1601" 
d="M1475 1784h-857l31 184h852zM1384 0h-1253l283 1597h1228l-34 -237h-961q0 -1 -24.5 -107t-59.5 -315h912l-39 -248h-910q-10 -51 -15 -77t-8.5 -44t-20 -102.5t-44.5 -226.5h981z" />
    <glyph glyph-name="emacron" unicode="&#x113;" horiz-adv-x="1411" 
d="M1268 1356h-826l27 176h825zM627 -35q-251 0 -401 134t-150 358q0 139 58.5 269.5t157.5 228.5t239 157t294 59q88 0 168.5 -20.5t152 -65t117 -114.5t65 -168.5t-4.5 -227.5l-16 -90h-979q-13 -140 81 -221.5t253 -81.5q124 0 230 57.5t171 157.5l221 -90
q-95 -153 -270.5 -247.5t-386.5 -94.5zM373 692h710q8 70 -13 123.5t-64 85t-97.5 47t-117.5 15.5q-144 0 -256.5 -76t-161.5 -195z" />
    <glyph glyph-name="Edotaccent" unicode="&#x116;" horiz-adv-x="1601" 
d="M1040 1763q-65 0 -108 39t-43 99q0 72 61 126t144 54q64 0 106.5 -38t42.5 -95q0 -72 -62 -128.5t-141 -56.5zM1384 0h-1253l283 1597h1228l-34 -237h-961q0 -1 -24.5 -107t-59.5 -315h912l-39 -248h-910q-10 -51 -15 -77t-8.5 -44t-20 -102.5t-44.5 -226.5h981z" />
    <glyph glyph-name="edotaccent" unicode="&#x117;" horiz-adv-x="1411" 
d="M854 1346q-66 0 -109 38.5t-43 98.5q0 72 60.5 126t142.5 54q66 0 109 -38t43 -95q0 -72 -62 -128t-141 -56zM627 -35q-251 0 -401 134t-150 358q0 139 58.5 269.5t157.5 228.5t239 157t294 59q88 0 168.5 -20.5t152 -65t117 -114.5t65 -168.5t-4.5 -227.5l-16 -90h-979
q-13 -140 81 -221.5t253 -81.5q124 0 230 57.5t171 157.5l221 -90q-95 -153 -270.5 -247.5t-386.5 -94.5zM373 692h710q8 70 -13 123.5t-64 85t-97.5 47t-117.5 15.5q-144 0 -256.5 -76t-161.5 -195z" />
    <glyph glyph-name="Eogonek" unicode="&#x118;" horiz-adv-x="1601" 
d="M1642 1597l-34 -237h-961q0 -1 -24.5 -107t-59.5 -315h912l-39 -248h-910q-10 -51 -15 -77t-8.5 -44t-20 -102.5t-44.5 -226.5h981l-35 -240q-102 -22 -170.5 -76.5t-68.5 -113.5q0 -48 46.5 -81.5t127.5 -33.5q57 0 111 12l-25 -153q-69 -17 -145 -17q-85 0 -153.5 21
t-112.5 67.5t-44 112.5q0 86 71.5 154.5t172.5 107.5h-1063l283 1597h1228z" />
    <glyph glyph-name="eogonek" unicode="&#x119;" horiz-adv-x="1411" 
d="M825 1171q88 0 168.5 -20.5t152 -65t117 -114.5t65 -168.5t-4.5 -227.5l-16 -90h-979q-13 -140 81 -221.5t253 -81.5q124 0 230 57.5t171 157.5l221 -90q-73 -118 -196.5 -203t-276.5 -118q-83 -30 -133.5 -78t-50.5 -101q0 -47 45 -75.5t116 -28.5q55 0 115 16l-29 -168
q-63 -14 -129 -14q-144 0 -227.5 54.5t-83.5 148.5q0 69 47 127t121 98q-240 8 -383 141t-143 351q0 139 58.5 269.5t157.5 228.5t239 157t294 59zM373 692h710q8 70 -13 123.5t-64 85t-97.5 47t-117.5 15.5q-144 0 -256.5 -76t-161.5 -195z" />
    <glyph glyph-name="Ecaron" unicode="&#x11a;" horiz-adv-x="1601" 
d="M1323 2062h238l-392 -342h-276l-275 342h238q4 -3 201 -186q33 24 84 61.5t91.5 66t90.5 58.5zM1384 0h-1253l283 1597h1228l-34 -237h-961q0 -1 -24.5 -107t-59.5 -315h912l-39 -248h-910q-10 -51 -15 -77t-8.5 -44t-20 -102.5t-44.5 -226.5h981z" />
    <glyph glyph-name="ecaron" unicode="&#x11b;" horiz-adv-x="1411" 
d="M979 1290h-283l-290 379h241q28 -27 65.5 -59t69 -64.5t80.5 -93.5q35 28 120 84.5t177 132.5h242zM627 -35q-251 0 -401 134t-150 358q0 139 58.5 269.5t157.5 228.5t239 157t294 59q88 0 168.5 -20.5t152 -65t117 -114.5t65 -168.5t-4.5 -227.5l-16 -90h-979
q-13 -140 81 -221.5t253 -81.5q124 0 230 57.5t171 157.5l221 -90q-95 -153 -270.5 -247.5t-386.5 -94.5zM373 692h710q8 70 -13 123.5t-64 85t-97.5 47t-117.5 15.5q-144 0 -256.5 -76t-161.5 -195z" />
    <glyph glyph-name="Gbreve" unicode="&#x11e;" horiz-adv-x="2142" 
d="M1249 1718q-202 0 -313.5 103t-93.5 252h223q-8 -70 49.5 -124.5t161.5 -54.5q107 0 184.5 53.5t95.5 125.5h222q-30 -149 -177 -252t-352 -103zM952 -35q-246 0 -430.5 85t-284.5 242.5t-100 366.5q0 189 87 366.5t235.5 310.5t359 213.5t443.5 80.5q297 0 511.5 -133.5
t268.5 -357.5l-264 -97q-52 159 -196 251.5t-355 92.5q-169 0 -320.5 -59.5t-256 -156.5t-165.5 -223.5t-61 -258.5q0 -104 36 -187t95 -136.5t139.5 -89.5t164 -51t173.5 -15q250 0 441 108t256 283h-586l31 213h858l-144 -813h-211q5 34 16.5 109.5t24.5 166.5h-12
q-269 -311 -754 -311z" />
    <glyph glyph-name="gbreve" unicode="&#x11f;" horiz-adv-x="1636" 
d="M928 1270q-206 0 -309.5 109.5t-79.5 285.5h215q-15 -93 39.5 -155t164.5 -62t189.5 61.5t101.5 155.5h215q-39 -180 -186.5 -287.5t-349.5 -107.5zM600 -483q-481 0 -571 327l245 80q60 -200 351 -200q196 0 322 112t165 287l16 78h-4q-93 -100 -223 -148.5t-274 -48.5
q-242 0 -389.5 129.5t-147.5 351.5q0 132 58 257.5t156 220t235 151.5t286 57q153 0 265.5 -56t164.5 -152h5l34 176h250l-176 -1016q-24 -135 -77 -240.5t-124 -173.5t-164 -112t-191.5 -62t-211.5 -18zM709 236q131 0 246 58.5t182 154t67 200.5q0 130 -100.5 211.5
t-257.5 81.5q-131 0 -243.5 -58.5t-176.5 -153t-64 -200.5q0 -130 96.5 -212t250.5 -82z" />
    <glyph glyph-name="Gdotaccent" unicode="&#x120;" horiz-adv-x="2142" 
d="M1257 1763q-65 0 -108 39t-43 99q0 72 61 126t144 54q64 0 106.5 -38t42.5 -95q0 -72 -62 -128.5t-141 -56.5zM952 -35q-246 0 -430.5 85t-284.5 242.5t-100 366.5q0 189 87 366.5t235.5 310.5t359 213.5t443.5 80.5q297 0 511.5 -133.5t268.5 -357.5l-264 -97
q-52 159 -196 251.5t-355 92.5q-169 0 -320.5 -59.5t-256 -156.5t-165.5 -223.5t-61 -258.5q0 -104 36 -187t95 -136.5t139.5 -89.5t164 -51t173.5 -15q250 0 441 108t256 283h-586l31 213h858l-144 -813h-211q5 34 16.5 109.5t24.5 166.5h-12q-269 -311 -754 -311z" />
    <glyph glyph-name="gdotaccent" unicode="&#x121;" horiz-adv-x="1636" 
d="M946 1346q-66 0 -108.5 38.5t-42.5 98.5q0 72 60 126t142 54q66 0 109 -38t43 -95q0 -72 -62 -128t-141 -56zM600 -483q-481 0 -571 327l245 80q60 -200 351 -200q196 0 322 112t165 287l16 78h-4q-93 -100 -223 -148.5t-274 -48.5q-242 0 -389.5 129.5t-147.5 351.5
q0 132 58 257.5t156 220t235 151.5t286 57q153 0 265.5 -56t164.5 -152h5l34 176h250l-176 -1016q-24 -135 -77 -240.5t-124 -173.5t-164 -112t-191.5 -62t-211.5 -18zM709 236q131 0 246 58.5t182 154t67 200.5q0 130 -100.5 211.5t-257.5 81.5q-131 0 -243.5 -58.5
t-176.5 -153t-64 -200.5q0 -130 96.5 -212t250.5 -82z" />
    <glyph glyph-name="uni0122" unicode="&#x122;" horiz-adv-x="2142" 
d="M952 -35q-246 0 -430.5 85t-284.5 242.5t-100 366.5q0 189 87 366.5t235.5 310.5t359 213.5t443.5 80.5q297 0 511.5 -133.5t268.5 -357.5l-264 -97q-52 159 -196 251.5t-355 92.5q-169 0 -320.5 -59.5t-256 -156.5t-165.5 -223.5t-61 -258.5q0 -104 36 -187t95 -136.5
t139.5 -89.5t164 -51t173.5 -15q250 0 441 108t256 283h-586l31 213h858l-144 -813h-211q5 34 16.5 109.5t24.5 166.5h-12q-269 -311 -754 -311zM829 -610h-135l178 223q-92 35 -92 115q0 64 54.5 112.5t130.5 48.5q61 0 100 -33.5t39 -86.5q0 -17 -4 -32.5t-15.5 -36
t-23.5 -37.5t-38.5 -48.5t-48.5 -57t-65.5 -75.5t-79.5 -92z" />
    <glyph glyph-name="uni0123" unicode="&#x123;" horiz-adv-x="1636" 
d="M770 1393q0 46 38.5 99.5t182.5 216.5q47 54 74 85h147l-198 -248q35 -15 58.5 -44.5t23.5 -69.5q0 -66 -57 -114t-132 -48q-60 0 -98.5 34t-38.5 89zM600 -483q-481 0 -571 327l245 80q60 -200 351 -200q196 0 322 112t165 287l16 78h-4q-93 -100 -223 -148.5
t-274 -48.5q-242 0 -389.5 129.5t-147.5 351.5q0 132 58 257.5t156 220t235 151.5t286 57q153 0 265.5 -56t164.5 -152h5l34 176h250l-176 -1016q-24 -135 -77 -240.5t-124 -173.5t-164 -112t-191.5 -62t-211.5 -18zM709 236q131 0 246 58.5t182 154t67 200.5
q0 130 -100.5 211.5t-257.5 81.5q-131 0 -243.5 -58.5t-176.5 -153t-64 -200.5q0 -130 96.5 -212t250.5 -82z" />
    <glyph glyph-name="Hbar" unicode="&#x126;" horiz-adv-x="1988" 
d="M1896 1327h168l-30 -199h-174l-199 -1128h-272l118 670h-987l-119 -670h-270l199 1128h-174l30 199h181l47 270h270l-47 -270h987l47 270h273zM563 920h987l37 208h-987z" />
    <glyph glyph-name="hbar" unicode="&#x127;" horiz-adv-x="1560" 
d="M1008 1171q95 0 175.5 -27t140.5 -80t85 -142.5t4 -204.5l-127 -717h-254l111 610q27 144 -39.5 238t-214.5 94q-167 0 -286 -91.5t-148 -248.5l-107 -602h-256l225 1280h-241l28 184h246l31 174h256l-31 -174h398l-27 -184h-406l-57 -324h6q185 215 488 215z" />
    <glyph glyph-name="Imacron" unicode="&#x12a;" horiz-adv-x="731" 
d="M1010 1784h-856l30 184h852zM401 0h-270l283 1597h270z" />
    <glyph glyph-name="imacron" unicode="&#x12b;" horiz-adv-x="641" 
d="M877 1343h-826l27 177h825zM348 0h-256l203 1139h254z" />
    <glyph glyph-name="Iogonek" unicode="&#x12e;" horiz-adv-x="731" 
d="M166 -190q0 -48 46.5 -81.5t127.5 -33.5q57 0 111 12l-25 -153q-69 -17 -145 -17q-85 0 -153.5 21t-112.5 67.5t-44 112.5q0 86 71.5 154.5t172.5 107.5h-84l283 1597h270l-283 -1597h5q-102 -22 -171 -76.5t-69 -113.5z" />
    <glyph glyph-name="iogonek" unicode="&#x12f;" horiz-adv-x="641" 
d="M512 1651q66 0 109 -38t43 -95q0 -72 -62 -128.5t-141 -56.5q-66 0 -109 38.5t-43 98.5q0 72 60.5 126.5t142.5 54.5zM348 0h-24q-102 -25 -168 -78.5t-66 -114.5q0 -47 45.5 -75.5t116.5 -28.5q55 0 115 16l-29 -168q-63 -14 -129 -14q-144 0 -227.5 54.5t-83.5 148.5
q0 87 72.5 156.5t172.5 103.5h-51l203 1139h254z" />
    <glyph glyph-name="Idotaccent" unicode="&#x130;" horiz-adv-x="731" 
d="M575 1763q-65 0 -108 39t-43 99q0 72 61 126t144 54q64 0 106.5 -38t42.5 -95q0 -72 -62 -128.5t-141 -56.5zM401 0h-270l283 1597h270z" />
    <glyph glyph-name="dotlessi" unicode="&#x131;" horiz-adv-x="641" 
d="M348 0h-256l203 1139h254z" />
    <glyph glyph-name="uni0136" unicode="&#x136;" horiz-adv-x="1695" 
d="M401 0h-272l283 1597h272l-135 -757h8q467 371 983 757h322q-170 -132 -481 -377t-406 -319q73 -101 225.5 -315.5t264.5 -371t155 -214.5h-330q-108 142 -289 386.5t-245 330.5q-105 -85 -267 -211q-30 -182 -88 -506zM492 -610h-136l179 223q-45 17 -69 47.5t-24 67.5
q0 64 54.5 112.5t130.5 48.5q61 0 100 -33.5t39 -86.5q0 -17 -3.5 -32t-15.5 -36t-23.5 -37.5t-38.5 -49t-48.5 -57.5t-65.5 -75.5t-79 -91.5z" />
    <glyph glyph-name="uni0137" unicode="&#x137;" horiz-adv-x="1341" 
d="M1096 1139h307l-588 -463l463 -676h-299l-365 516l-198 -156l-66 -360h-258l289 1638h258l-176 -968h6q118 92 323.5 243t303.5 226zM596 -111q61 0 100 -33.5t39 -86.5q0 -17 -3.5 -32t-15.5 -36t-23.5 -37.5t-38.5 -49t-48.5 -57.5t-65.5 -75.5t-79 -91.5h-135l178 223
q-92 35 -92 115q0 64 54.5 112.5t129.5 48.5z" />
    <glyph glyph-name="Lacute" unicode="&#x139;" horiz-adv-x="1439" 
d="M854 2071h334l-457 -351h-233zM684 1597l-240 -1357h906l-37 -240h-1182l283 1597h270z" />
    <glyph glyph-name="lacute" unicode="&#x13a;" horiz-adv-x="641" 
d="M1124 2111l-456 -350h-234l357 350h333zM348 0h-256l289 1638h256z" />
    <glyph glyph-name="uni013B" unicode="&#x13b;" horiz-adv-x="1439" 
d="M684 1597l-240 -1357h906l-37 -240h-1182l283 1597h270zM659 -111q61 0 100.5 -33.5t39.5 -86.5q0 -17 -4 -32.5t-15.5 -36t-23.5 -37.5t-38.5 -48.5t-48.5 -57t-65.5 -75.5t-79.5 -92h-135l178 223q-92 35 -92 115q0 64 54.5 112.5t129.5 48.5z" />
    <glyph glyph-name="uni013C" unicode="&#x13c;" horiz-adv-x="641" 
d="M348 0h-256l289 1638h256zM76 -610h-135l178 223q-92 35 -92 115q0 64 54.5 112.5t129.5 48.5q61 0 100 -33.5t39 -86.5q0 -17 -3.5 -32t-15.5 -36t-23.5 -37.5t-38.5 -49t-48.5 -57.5t-65.5 -75.5t-79 -91.5z" />
    <glyph glyph-name="Lcaron" unicode="&#x13d;" horiz-adv-x="1439" 
d="M1061 1071h-154l223 277q-43 17 -67.5 49t-24.5 73q0 74 63 130.5t146 56.5q63 0 106.5 -39.5t43.5 -99.5q0 -56 -59.5 -133t-276.5 -314zM414 1597h270l-240 -1357h906l-37 -240h-1182z" />
    <glyph glyph-name="lcaron" unicode="&#x13e;" horiz-adv-x="641" 
d="M868 1071h-153l223 277q-43 17 -67.5 49t-24.5 73q0 74 63 130.5t146 56.5q63 0 106 -39.5t43 -99.5q0 -56 -59.5 -133t-276.5 -314zM348 0h-256l289 1638h256z" />
    <glyph glyph-name="Lslash" unicode="&#x141;" horiz-adv-x="1439" 
d="M547 825l-103 -585h906l-37 -240h-1182l127 719l-213 -80l33 219l219 82l117 657h270l-98 -550l319 118l-33 -219z" />
    <glyph glyph-name="lslash" unicode="&#x142;" horiz-adv-x="641" 
d="M545 1112l270 154l-31 -211l-278 -158l-158 -897h-256l129 735l-239 -135l30 211l248 139l121 688h256z" />
    <glyph glyph-name="Nacute" unicode="&#x143;" horiz-adv-x="2013" 
d="M1753 2071l-457 -351h-233l356 351h334zM401 0h-270l283 1597h284q415 -595 777 -1151h6q23 123 93 482.5t124 668.5h270l-282 -1597h-285q-87 126 -245.5 352.5t-289 416.5t-245.5 364h-7q-16 -90 -80.5 -400.5t-132.5 -732.5z" />
    <glyph glyph-name="nacute" unicode="&#x144;" horiz-adv-x="1560" 
d="M1434 1661l-441 -383h-223l348 383h316zM348 0h-256l203 1139h250l-35 -183h4q92 105 221.5 160t272.5 55q97 0 177.5 -27t140 -80t84 -142.5t3.5 -204.5l-127 -717h-254l111 610q27 145 -40 238.5t-216 93.5q-165 0 -284 -91.5t-148 -248.5z" />
    <glyph glyph-name="uni0145" unicode="&#x145;" horiz-adv-x="2013" 
d="M401 0h-270l283 1597h284q415 -595 777 -1151h6q23 123 93 482.5t124 668.5h270l-282 -1597h-285q-87 126 -245.5 352.5t-289 416.5t-245.5 364h-7q-16 -90 -80.5 -400.5t-132.5 -732.5zM791 -610h-136l179 223q-45 17 -69 47.5t-24 67.5q0 64 54.5 112.5t130.5 48.5
q61 0 100 -33.5t39 -86.5q0 -17 -3.5 -32t-15.5 -36t-23.5 -37.5t-38.5 -49t-48.5 -57.5t-65.5 -75.5t-79 -91.5z" />
    <glyph glyph-name="uni0146" unicode="&#x146;" horiz-adv-x="1560" 
d="M348 0h-256l203 1139h250l-35 -183h4q92 105 221.5 160t272.5 55q97 0 177.5 -27t140 -80t84 -142.5t3.5 -204.5l-127 -717h-254l111 610q27 145 -40 238.5t-216 93.5q-165 0 -284 -91.5t-148 -248.5zM586 -610h-135l178 223q-92 35 -92 115q0 64 54.5 112.5t129.5 48.5
q61 0 100 -33.5t39 -86.5q0 -17 -3.5 -32t-15.5 -36t-23.5 -37.5t-38.5 -49t-48.5 -57.5t-65.5 -75.5t-79 -91.5z" />
    <glyph glyph-name="Ncaron" unicode="&#x147;" horiz-adv-x="2013" 
d="M1479 2062h237l-391 -342h-276l-275 342h238q39 -34 115 -105.5t85 -80.5q32 23 84 61.5t92.5 66t90.5 58.5zM401 0h-270l283 1597h284q415 -595 777 -1151h6q23 123 93 482.5t124 668.5h270l-282 -1597h-285q-87 126 -245.5 352.5t-289 416.5t-245.5 364h-7
q-16 -90 -80.5 -400.5t-132.5 -732.5z" />
    <glyph glyph-name="ncaron" unicode="&#x148;" horiz-adv-x="1560" 
d="M1042 1290h-282l-291 379h242q28 -27 65.5 -59t69 -64.5t80.5 -93.5q35 28 120 84.5t177 132.5h241zM348 0h-256l203 1139h250l-35 -183h4q92 105 221.5 160t272.5 55q97 0 177.5 -27t140 -80t84 -142.5t3.5 -204.5l-127 -717h-254l111 610q27 145 -40 238.5t-216 93.5
q-165 0 -284 -91.5t-148 -248.5z" />
    <glyph glyph-name="Eng" unicode="&#x14a;" horiz-adv-x="2013" 
d="M1065 -483q-90 0 -183.5 14t-140.5 33l31 215q95 -43 256 -43q328 0 377 258q-102 150 -371.5 533t-419.5 612l-213 -1139h-270l283 1597h284q415 -595 777 -1151h6l217 1151h270l-274 -1538q-9 -49 -20 -92.5t-34.5 -100.5t-53.5 -103.5t-79 -94t-109.5 -79.5t-146 -52
t-186.5 -20z" />
    <glyph glyph-name="eng" unicode="&#x14b;" horiz-adv-x="1560" 
d="M784 -483q-150 0 -256 47l31 213q107 -43 207 -43q51 0 91.5 10.5t67.5 32t45 43t29.5 54.5t17 54t11.5 54l115 628q27 146 -39 239t-215 93q-167 0 -286 -91.5t-148 -248.5l-107 -602h-256l203 1139h250l-35 -183h4q92 105 221.5 160t272.5 55q76 0 143 -16.5t123.5 -51
t92.5 -88t50.5 -127t-2.5 -167.5l-129 -735q-7 -41 -12 -66t-17 -67.5t-24 -71t-33.5 -67t-46.5 -64t-62 -53t-80.5 -43.5t-101.5 -26.5t-125 -10.5z" />
    <glyph glyph-name="Omacron" unicode="&#x14c;" horiz-adv-x="2150" 
d="M1718 1784h-856l31 184h852zM971 -35q-242 0 -432 88t-296 248.5t-106 366.5q0 148 57 291.5t162 263.5t243 212t310 143.5t353 51.5q182 0 337.5 -52t264 -144.5t170 -223.5t61.5 -284q0 -149 -57.5 -293t-162.5 -263.5t-243 -211t-309.5 -142.5t-351.5 -51zM1008 209
q159 0 307 58t254.5 152t170.5 219.5t64 256.5q0 217 -160.5 354t-414.5 137q-157 0 -305.5 -58t-256.5 -152.5t-173.5 -220.5t-65.5 -257q0 -217 162.5 -353t417.5 -136z" />
    <glyph glyph-name="omacron" unicode="&#x14d;" horiz-adv-x="1576" 
d="M1346 1356h-826l27 176h825zM682 -35q-274 0 -436 137t-162 367q0 134 61 261.5t166 225t258 156.5t326 59q273 0 435.5 -137.5t162.5 -367.5q0 -135 -60 -262t-165 -224.5t-258 -156t-328 -58.5zM719 195q141 0 257.5 62.5t180.5 163.5t64 216q0 139 -98 222t-261 83
q-109 0 -205 -37.5t-161 -99.5t-102.5 -142t-37.5 -163q0 -138 99 -221.5t264 -83.5z" />
    <glyph glyph-name="Ohungarumlaut" unicode="&#x150;" horiz-adv-x="2150" 
d="M1532 2068l-414 -348h-223l317 348h320zM2007 2068l-424 -348h-227l332 348h319zM971 -35q-242 0 -432 88t-296 248.5t-106 366.5q0 148 57 291.5t162 263.5t243 212t310 143.5t353 51.5q182 0 337.5 -52t264 -144.5t170 -223.5t61.5 -284q0 -149 -57.5 -293
t-162.5 -263.5t-243 -211t-309.5 -142.5t-351.5 -51zM1008 209q159 0 307 58t254.5 152t170.5 219.5t64 256.5q0 217 -160.5 354t-414.5 137q-157 0 -305.5 -58t-256.5 -152.5t-173.5 -220.5t-65.5 -257q0 -217 162.5 -353t417.5 -136z" />
    <glyph glyph-name="ohungarumlaut" unicode="&#x151;" horiz-adv-x="1576" 
d="M1163 1673l-428 -395h-217l334 395h311zM1642 1673l-440 -395h-217l346 395h311zM682 -35q-274 0 -436 137t-162 367q0 134 61 261.5t166 225t258 156.5t326 59q273 0 435.5 -137.5t162.5 -367.5q0 -135 -60 -262t-165 -224.5t-258 -156t-328 -58.5zM719 195
q141 0 257.5 62.5t180.5 163.5t64 216q0 139 -98 222t-261 83q-109 0 -205 -37.5t-161 -99.5t-102.5 -142t-37.5 -163q0 -138 99 -221.5t264 -83.5z" />
    <glyph glyph-name="OE" unicode="&#x152;" horiz-adv-x="3104" 
d="M965 -35q-172 0 -323 48.5t-263 136.5t-177 221.5t-65 294.5q0 187 89.5 363.5t239.5 308.5t358 212t433 80q212 0 377.5 -68t261.5 -192l48 227h1202l-37 -237h-946l-82 -422h897l-39 -248h-897l-88 -450h973l-39 -240h-1227l47 225q-146 -124 -338 -192t-405 -68z
M1004 209q159 0 306.5 58.5t253 154t169 221.5t63.5 258q0 216 -158 350.5t-411 134.5q-159 0 -307.5 -58t-255.5 -153t-171.5 -220.5t-64.5 -256.5q0 -219 160.5 -354t415.5 -135z" />
    <glyph glyph-name="oe" unicode="&#x153;" horiz-adv-x="2633" 
d="M682 -35q-272 0 -435 137.5t-163 368.5q0 135 61 262t166.5 224t258 155.5t325.5 58.5q181 0 312.5 -60.5t195.5 -168.5q103 107 257.5 168t332.5 61q94 0 180 -20.5t163.5 -65t127.5 -114.5t72.5 -168.5t-1.5 -227.5l-8 -47h-1067q-21 -154 84.5 -250t282.5 -96
q139 0 255.5 57.5t188.5 157.5l226 -90q-102 -154 -290 -248t-415 -94q-183 0 -317 60.5t-195 167.5q-107 -108 -262 -168t-336 -60zM1493 686h791q6 74 -19.5 129.5t-75 87t-109 47t-128.5 15.5q-156 0 -279.5 -76.5t-179.5 -202.5zM717 195q107 0 202 36.5t160.5 97
t103.5 140t38 164.5q0 141 -97.5 225t-261.5 84q-107 0 -203 -37t-161.5 -98.5t-103.5 -141t-38 -163.5q0 -140 98.5 -223.5t262.5 -83.5z" />
    <glyph glyph-name="Racute" unicode="&#x154;" horiz-adv-x="1714" 
d="M1544 2071l-457 -351h-233l356 351h334zM401 0h-270l283 1597h706q48 0 95.5 -4t105 -16t107.5 -31t98.5 -52t83 -75.5t55.5 -105.5t21 -139q0 -134 -69.5 -253.5t-197 -202t-289.5 -108.5l-2 -2q34 -51 93.5 -134t124 -185t170.5 -289h-304l-376 590h-328
q-13 -69 -18.5 -98.5t-10 -54.5t-25 -139.5t-53.5 -297.5zM543 819h395q205 0 333 86.5t128 218.5q0 64 -28.5 111.5t-80 75t-115 40.5t-141.5 13h-387q-73 -379 -104 -545z" />
    <glyph glyph-name="racute" unicode="&#x155;" horiz-adv-x="1038" 
d="M1229 1661l-441 -383h-223l348 383h316zM348 0h-256l203 1139h250l-39 -193h10q73 96 195 160.5t262 64.5q80 0 139 -20l-41 -270q-65 22 -166 22q-86 0 -160 -27t-124.5 -70.5t-90 -101t-61.5 -115t-33 -116.5z" />
    <glyph glyph-name="uni0156" unicode="&#x156;" horiz-adv-x="1714" 
d="M401 0h-270l283 1597h706q48 0 95.5 -4t105 -16t107.5 -31t98.5 -52t83 -75.5t55.5 -105.5t21 -139q0 -134 -69.5 -253.5t-197 -202t-289.5 -108.5l-2 -2q34 -51 93.5 -134t124 -185t170.5 -289h-304l-376 590h-328q-13 -69 -18.5 -98.5t-10 -54.5t-25 -139.5
t-53.5 -297.5zM543 819h395q205 0 333 86.5t128 218.5q0 64 -28.5 111.5t-80 75t-115 40.5t-141.5 13h-387q-73 -379 -104 -545zM606 -610h-135l178 223q-92 35 -92 115q0 64 54.5 112.5t129.5 48.5q61 0 100.5 -33.5t39.5 -86.5q0 -17 -4 -32.5t-15.5 -36t-23.5 -37.5
t-38.5 -48.5t-48.5 -57t-65.5 -75.5t-79.5 -92z" />
    <glyph glyph-name="uni0157" unicode="&#x157;" horiz-adv-x="1038" 
d="M348 0h-256l203 1139h250l-39 -193h10q73 96 195 160.5t262 64.5q80 0 139 -20l-41 -270q-65 22 -166 22q-86 0 -160 -27t-124.5 -70.5t-90 -101t-61.5 -115t-33 -116.5zM68 -610h-136l179 223q-45 17 -69 47.5t-24 67.5q0 64 54.5 112.5t130.5 48.5q61 0 100 -33.5
t39 -86.5q0 -17 -3.5 -32t-15.5 -36t-23.5 -37.5t-38.5 -49t-48.5 -57.5t-65.5 -75.5t-79 -91.5z" />
    <glyph glyph-name="Rcaron" unicode="&#x158;" horiz-adv-x="1714" 
d="M1270 2062h237l-391 -342h-276l-275 342h238q4 -3 201 -186q33 24 84 61.5t91.5 66t90.5 58.5zM401 0h-270l283 1597h706q48 0 95.5 -4t105 -16t107.5 -31t98.5 -52t83 -75.5t55.5 -105.5t21 -139q0 -134 -69.5 -253.5t-197 -202t-289.5 -108.5l-2 -2q34 -51 93.5 -134
t124 -185t170.5 -289h-304l-376 590h-328q-13 -69 -18.5 -98.5t-10 -54.5t-25 -139.5t-53.5 -297.5zM543 819h395q205 0 333 86.5t128 218.5q0 64 -28.5 111.5t-80 75t-115 40.5t-141.5 13h-387q-73 -379 -104 -545z" />
    <glyph glyph-name="rcaron" unicode="&#x159;" horiz-adv-x="1038" 
d="M838 1290h-283l-291 379h242q28 -27 65.5 -59t69 -64.5t80.5 -93.5q35 28 120 84.5t177 132.5h242zM348 0h-256l203 1139h250l-39 -193h10q73 96 195 160.5t262 64.5q80 0 139 -20l-41 -270q-65 22 -166 22q-86 0 -160 -27t-124.5 -70.5t-90 -101t-61.5 -115t-33 -116.5z
" />
    <glyph glyph-name="Sacute" unicode="&#x15a;" horiz-adv-x="1593" 
d="M1483 2071l-457 -351h-233l356 351h334zM715 -35q-168 0 -306.5 50.5t-234 159t-117.5 261.5l265 84q13 -86 52 -149.5t98.5 -99.5t128.5 -53t151 -17q183 0 308.5 75t125.5 181q0 49 -27 85.5t-76.5 60.5t-96.5 39t-110 31q-3 0 -5 0.5t-4.5 1t-4.5 1.5l-166 43
q-43 11 -77 21.5t-82.5 29.5t-85.5 40t-76.5 52t-65.5 66.5t-42.5 83.5t-16.5 102q0 100 54.5 193.5t148.5 165t229.5 114.5t288.5 43q129 0 237 -30.5t180.5 -83t116.5 -119.5t56 -142l-263 -96q-27 110 -122 174t-248 64q-163 0 -276 -67.5t-113 -160.5q0 -33 14.5 -62
t42.5 -51.5t57.5 -40t71.5 -32.5t71 -24t68 -19l187 -51q163 -45 237 -83q195 -100 195 -288q0 -104 -57.5 -204t-156.5 -177.5t-244.5 -124.5t-309.5 -47z" />
    <glyph glyph-name="sacute" unicode="&#x15b;" horiz-adv-x="1232" 
d="M1268 1663l-441 -383h-223l348 383h316zM530 -35q-212 0 -351 87t-167 233l248 73q31 -95 115.5 -143.5t191.5 -48.5q113 0 192 44.5t79 108.5q0 15 -3.5 27.5t-12.5 23.5t-16.5 19t-24 16t-25.5 13t-32 11.5t-31.5 9t-34.5 9.5t-33 9l-131 32q-29 7 -48 12.5t-56 19
t-63 27.5t-58 37.5t-51.5 50t-33.5 65t-14 81.5q0 102 69.5 191t195 143.5t276.5 54.5q188 0 310 -79t146 -205l-249 -74q-19 69 -81 114.5t-165 45.5q-101 0 -171.5 -43t-70.5 -103q0 -22 9.5 -40.5t31 -33t41 -25.5t53.5 -21.5t55 -16t58 -14.5l110 -27l43.5 -10.5t46 -13
t50 -17t46.5 -21.5t45.5 -28t38 -34.5t31.5 -43t19 -52t8 -62.5q0 -80 -44 -153.5t-120.5 -128.5t-186.5 -87.5t-235 -32.5z" />
    <glyph glyph-name="Scedilla" unicode="&#x15e;" horiz-adv-x="1593" 
d="M864 940l187 -51q163 -45 237 -83q195 -100 195 -288q0 -99 -53 -195.5t-145 -172.5t-227 -126t-288 -57l-94 -88q30 10 78 10q93 0 151 -42.5t58 -116.5q0 -102 -99.5 -172t-247.5 -70q-97 0 -179 33.5t-126 91.5l105 96q70 -94 211 -94q69 0 115 27.5t46 70.5
q0 33 -33.5 52.5t-86.5 19.5q-63 0 -115 -27l-76 62l144 149q-226 21 -380 140.5t-184 326.5l265 84q13 -86 52 -149.5t98.5 -99.5t128.5 -53t151 -17q183 0 308.5 75t125.5 181q0 49 -27 85.5t-76.5 60.5t-96.5 39t-110 31q-3 0 -5 0.5t-4.5 1t-4.5 1.5l-166 43
q-43 11 -77 21.5t-82.5 29.5t-85.5 40t-76.5 52t-65.5 66.5t-42.5 83.5t-16.5 102q0 100 54.5 193.5t148.5 165t229.5 114.5t288.5 43q129 0 237 -30.5t180.5 -83t116.5 -119.5t56 -142l-263 -96q-27 110 -122 174t-248 64q-163 0 -276 -67.5t-113 -160.5q0 -33 14.5 -62
t42.5 -51.5t57.5 -40t71.5 -32.5t71 -24t68 -19z" />
    <glyph glyph-name="scedilla" unicode="&#x15f;" horiz-adv-x="1232" 
d="M678 676l110 -27l43.5 -10.5t46 -13t50 -17t46.5 -21.5t45.5 -28t38 -34.5t31.5 -43t19 -52t8 -62.5q0 -156 -150.5 -272t-381.5 -128l-95 -88q30 10 78 10q93 0 151 -42.5t58 -116.5q0 -102 -99 -172t-247 -70q-97 0 -179 33.5t-126 91.5l104 96q70 -94 211 -94
q69 0 115.5 27.5t46.5 70.5q0 33 -33.5 52.5t-87.5 19.5q-62 0 -114 -27l-76 62l143 149q-173 20 -285 104t-137 212l248 73q31 -95 115.5 -143.5t191.5 -48.5q113 0 192 44.5t79 108.5q0 15 -3.5 27.5t-12.5 23.5t-16.5 19t-24 16t-25.5 13t-32 11.5t-31.5 9t-34.5 9.5
t-33 9l-131 32q-29 7 -48 12.5t-56 19t-63 27.5t-58 37.5t-51.5 50t-33.5 65t-14 81.5q0 102 69.5 191t195 143.5t276.5 54.5q188 0 310 -79t146 -205l-249 -74q-19 69 -81 114.5t-165 45.5q-101 0 -171.5 -43t-70.5 -103q0 -22 9.5 -40.5t31 -33t41 -25.5t53.5 -21.5
t55 -16t58 -14.5z" />
    <glyph glyph-name="Scaron" unicode="&#x160;" horiz-adv-x="1593" 
d="M1278 2062h238l-392 -342h-276l-275 342h238q4 -3 201 -186q33 24 84 61.5t91.5 66t90.5 58.5zM715 -35q-168 0 -306.5 50.5t-234 159t-117.5 261.5l265 84q13 -86 52 -149.5t98.5 -99.5t128.5 -53t151 -17q183 0 308.5 75t125.5 181q0 49 -27 85.5t-76.5 60.5t-96.5 39
t-110 31q-3 0 -5 0.5t-4.5 1t-4.5 1.5l-166 43q-43 11 -77 21.5t-82.5 29.5t-85.5 40t-76.5 52t-65.5 66.5t-42.5 83.5t-16.5 102q0 100 54.5 193.5t148.5 165t229.5 114.5t288.5 43q129 0 237 -30.5t180.5 -83t116.5 -119.5t56 -142l-263 -96q-27 110 -122 174t-248 64
q-163 0 -276 -67.5t-113 -160.5q0 -33 14.5 -62t42.5 -51.5t57.5 -40t71.5 -32.5t71 -24t68 -19l187 -51q163 -45 237 -83q195 -100 195 -288q0 -104 -57.5 -204t-156.5 -177.5t-244.5 -124.5t-309.5 -47z" />
    <glyph glyph-name="scaron" unicode="&#x161;" horiz-adv-x="1232" 
d="M877 1292h-283l-291 379h242q28 -27 65.5 -59t69 -64.5t80.5 -93.5q35 28 120 84.5t177 132.5h241zM530 -35q-212 0 -351 87t-167 233l248 73q31 -95 115.5 -143.5t191.5 -48.5q113 0 192 44.5t79 108.5q0 15 -3.5 27.5t-12.5 23.5t-16.5 19t-24 16t-25.5 13t-32 11.5
t-31.5 9t-34.5 9.5t-33 9l-131 32q-29 7 -48 12.5t-56 19t-63 27.5t-58 37.5t-51.5 50t-33.5 65t-14 81.5q0 102 69.5 191t195 143.5t276.5 54.5q188 0 310 -79t146 -205l-249 -74q-19 69 -81 114.5t-165 45.5q-101 0 -171.5 -43t-70.5 -103q0 -22 9.5 -40.5t31 -33
t41 -25.5t53.5 -21.5t55 -16t58 -14.5l110 -27l43.5 -10.5t46 -13t50 -17t46.5 -21.5t45.5 -28t38 -34.5t31.5 -43t19 -52t8 -62.5q0 -80 -44 -153.5t-120.5 -128.5t-186.5 -87.5t-235 -32.5z" />
    <glyph glyph-name="uni0162" unicode="&#x162;" horiz-adv-x="1560" 
d="M176 1360l37 237h1499l-35 -237h-616q-31 -170 -52.5 -303t-60.5 -349.5t-133 -707.5h-55l-129 -121q30 10 78 10q93 0 151 -42.5t58 -116.5q0 -102 -99.5 -172t-247.5 -70q-97 0 -179 33.5t-126 91.5l105 96q70 -94 211 -94q69 0 115 27.5t46 70.5q0 33 -33.5 52.5
t-86.5 19.5q-63 0 -115 -27l-76 62l172 180h-59q12 68 248 1360h-617z" />
    <glyph glyph-name="uni0163" unicode="&#x163;" horiz-adv-x="995" 
d="M1008 920h-394l-94 -480q-6 -32 -8.5 -48.5t-5 -47.5t1 -49t13 -41.5t27 -36.5t47 -22t69.5 -9q95 0 213 45l-35 -219q-105 -47 -260 -47q-40 0 -56 2l-94 -88q30 10 78 10q93 0 151 -42.5t58 -116.5q0 -102 -99 -172t-247 -70q-97 0 -179 33.5t-126 91.5l104 96
q70 -94 211 -94q69 0 115.5 27.5t46.5 70.5q0 33 -33.5 52.5t-87.5 19.5q-63 0 -115 -27l-76 62l166 174q-47 17 -80 44t-49 61t-24.5 65.5t-7 71t4.5 63.5t9 57l106 564h-270l33 219h270l58 327h256l-58 -327h391z" />
    <glyph glyph-name="Tcaron" unicode="&#x164;" horiz-adv-x="1560" 
d="M1276 2062h237l-391 -342h-276l-275 342h238q4 -3 201 -186q33 24 84 61.5t91.5 66t90.5 58.5zM815 0h-270q12 68 248 1360h-617l37 237h1499l-35 -237h-616q-31 -170 -52.5 -303t-60.5 -349.5t-133 -707.5z" />
    <glyph glyph-name="tcaron" unicode="&#x165;" horiz-adv-x="995" 
d="M1227 1083h-156l225 277q-92 36 -92 123q0 73 62.5 129.5t144.5 56.5q65 0 108.5 -39.5t43.5 -99.5q0 -56 -59.5 -133t-276.5 -314zM582 -35q-81 0 -142.5 16t-98.5 40t-60 60.5t-32 69t-9.5 75.5t3 69.5t9.5 60.5l106 564h-270l33 219h270l58 327h256l-58 -327h391
l-30 -219h-394l-94 -480q-6 -32 -8.5 -48.5t-5 -47.5t1 -49t13 -41.5t27 -36.5t47 -22t69.5 -9q95 0 213 45l-35 -219q-105 -47 -260 -47z" />
    <glyph glyph-name="Tbar" unicode="&#x166;" horiz-adv-x="1560" 
d="M1712 1597l-35 -237h-616q-26 -144 -48 -278t-30 -181h365l-31 -207h-371q-9 -50 -52 -276t-79 -418h-270q19 106 127 694h-377l31 207h383q66 361 84 459h-617l37 237h1499z" />
    <glyph glyph-name="tbar" unicode="&#x167;" horiz-adv-x="995" 
d="M1038 1139l-30 -219h-394l-45 -228h377l-26 -184h-388l-12 -68q-6 -32 -8.5 -48.5t-5 -47.5t1 -49t13 -41.5t27 -36.5t47 -22t69.5 -9q95 0 213 45l-35 -219q-105 -47 -260 -47q-81 0 -142.5 16t-98.5 40t-60 60.5t-32 69t-9.5 75.5t3 69.5t9.5 60.5l29 152h-263l29 184
h268l43 228h-270l33 219h270l58 327h256l-58 -327h391z" />
    <glyph glyph-name="Umacron" unicode="&#x16a;" horiz-adv-x="1841" 
d="M1569 1784h-856l30 184h852zM811 -35q-111 0 -203 19.5t-158 54t-115 83t-77.5 104.5t-42.5 121t-13.5 130.5t13.5 134.5l178 985h271l-175 -964q-12 -55 -9 -108t15 -100.5t41.5 -87.5t71 -69t104 -45t140.5 -16q94 0 174 24t136.5 64.5t100 96.5t68.5 115.5t37 125.5
l176 964h271l-179 -985q-12 -66 -32 -128t-54.5 -127.5t-80 -121.5t-111 -106.5t-144 -86t-181.5 -56.5t-222 -21z" />
    <glyph glyph-name="umacron" unicode="&#x16b;" horiz-adv-x="1540" 
d="M1315 1356h-826l27 176h825zM561 -35q-105 0 -188.5 28t-141 83t-79.5 144t-2 204l126 715h256l-114 -629q-28 -150 43.5 -232.5t204.5 -82.5q161 0 275 94t138 229l111 621h256l-137 -783q-23 -126 -26.5 -201.5t7.5 -154.5h-258q-7 115 4 160h-6q-179 -195 -469 -195z
" />
    <glyph glyph-name="Uring" unicode="&#x16e;" horiz-adv-x="1841" 
d="M1126 1712q-112 0 -184 58t-72 149q0 108 100 190t238 82q112 0 183 -57.5t71 -148.5q0 -109 -99 -191t-237 -82zM1147 1851q62 0 106.5 35.5t44.5 81.5q0 36 -32 59t-82 23q-61 0 -105.5 -34.5t-44.5 -80.5q0 -38 31.5 -61t81.5 -23zM811 -35q-111 0 -203 19.5t-158 54
t-115 83t-77.5 104.5t-42.5 121t-13.5 130.5t13.5 134.5l178 985h271l-175 -964q-12 -55 -9 -108t15 -100.5t41.5 -87.5t71 -69t104 -45t140.5 -16q94 0 174 24t136.5 64.5t100 96.5t68.5 115.5t37 125.5l176 964h271l-179 -985q-12 -66 -32 -128t-54.5 -127.5t-80 -121.5
t-111 -106.5t-144 -86t-181.5 -56.5t-222 -21z" />
    <glyph glyph-name="uring" unicode="&#x16f;" horiz-adv-x="1540" 
d="M881 1253q-112 0 -184 58t-72 149q0 108 100 190.5t238 82.5q112 0 183 -58t71 -149q0 -109 -99 -191t-237 -82zM901 1393q62 0 107 35t45 81q0 36 -32.5 59t-82.5 23q-61 0 -105.5 -34t-44.5 -80q0 -38 31.5 -61t81.5 -23zM561 -35q-105 0 -188.5 28t-141 83t-79.5 144
t-2 204l126 715h256l-114 -629q-28 -150 43.5 -232.5t204.5 -82.5q161 0 275 94t138 229l111 621h256l-137 -783q-23 -126 -26.5 -201.5t7.5 -154.5h-258q-7 115 4 160h-6q-179 -195 -469 -195z" />
    <glyph glyph-name="Uhungarumlaut" unicode="&#x170;" horiz-adv-x="1841" 
d="M1382 2068l-413 -348h-224l318 348h319zM1858 2068l-424 -348h-228l332 348h320zM811 -35q-111 0 -203 19.5t-158 54t-115 83t-77.5 104.5t-42.5 121t-13.5 130.5t13.5 134.5l178 985h271l-175 -964q-12 -55 -9 -108t15 -100.5t41.5 -87.5t71 -69t104 -45t140.5 -16
q94 0 174 24t136.5 64.5t100 96.5t68.5 115.5t37 125.5l176 964h271l-179 -985q-12 -66 -32 -128t-54.5 -127.5t-80 -121.5t-111 -106.5t-144 -86t-181.5 -56.5t-222 -21z" />
    <glyph glyph-name="uhungarumlaut" unicode="&#x171;" horiz-adv-x="1540" 
d="M1133 1673l-428 -395h-218l334 395h312zM1612 1673l-441 -395h-217l346 395h312zM561 -35q-105 0 -188.5 28t-141 83t-79.5 144t-2 204l126 715h256l-114 -629q-28 -150 43.5 -232.5t204.5 -82.5q161 0 275 94t138 229l111 621h256l-137 -783q-23 -126 -26.5 -201.5
t7.5 -154.5h-258q-7 115 4 160h-6q-179 -195 -469 -195z" />
    <glyph glyph-name="Uogonek" unicode="&#x172;" horiz-adv-x="1841" 
d="M1368 633l176 964h271l-179 -985q-15 -84 -43.5 -161.5t-82 -159t-125.5 -144t-179.5 -109.5t-238.5 -63q-71 -29 -114.5 -74.5t-43.5 -90.5q0 -48 46.5 -81.5t127.5 -33.5q57 0 111 12l-25 -153q-69 -17 -145 -17q-85 0 -153.5 21t-112.5 67.5t-44 112.5q0 69 47.5 127
t122.5 100q-107 2 -195 23t-151 56t-110 83.5t-74 104t-40 119.5t-12.5 128.5t13.5 132.5l178 985h271l-175 -964q-12 -55 -9 -108t15 -100.5t41.5 -87.5t71 -69t104 -45t140.5 -16q94 0 174 24t136.5 64.5t100 96.5t68.5 115.5t37 125.5z" />
    <glyph glyph-name="uogonek" unicode="&#x173;" horiz-adv-x="1540" 
d="M1190 1139h256l-137 -783q-23 -126 -26.5 -201.5t7.5 -154.5h-73q-102 -25 -168 -78.5t-66 -114.5q0 -47 45.5 -75.5t116.5 -28.5q55 0 115 16l-29 -168q-63 -14 -129 -14q-144 0 -227.5 54.5t-83.5 148.5q0 87 72.5 156.5t172.5 103.5h-4q-7 115 4 160h-6
q-179 -195 -469 -195q-105 0 -188.5 28t-141 83t-79.5 144t-2 204l126 715h256l-114 -629q-28 -150 43.5 -232.5t204.5 -82.5q161 0 275 94t138 229z" />
    <glyph glyph-name="Wcircumflex" unicode="&#x174;" horiz-adv-x="2816" 
d="M1808 2062l279 -342h-238q-134 121 -198 183q-12 -8 -38.5 -27.5t-37.5 -27.5t-35 -25t-43.5 -29.5t-49.5 -32t-65 -41.5h-237l393 342h270zM850 0h-338l-299 1597h305q7 -39 37 -197.5t39.5 -210.5t34 -185.5t38 -214t33.5 -198.5t37 -231h6q117 209 352.5 627
t342.5 610h307q39 -201 122 -619t122 -618h4q473 882 673 1237h304l-865 -1597h-333q-140 642 -236 1194h-4q-458 -824 -682 -1194z" />
    <glyph glyph-name="wcircumflex" unicode="&#x175;" horiz-adv-x="2263" 
d="M999 1278h-241l420 367h282l293 -367h-242q-10 11 -78.5 73t-134.5 144q-36 -28 -121.5 -84t-177.5 -133zM690 0h-291l-272 1139h289l188 -824h6l506 824h236l202 -824h5l491 824h287l-672 -1139h-299q-134 557 -182 784h-4q-372 -601 -490 -784z" />
    <glyph glyph-name="Ycircumflex" unicode="&#x176;" horiz-adv-x="1703" 
d="M1251 2062l279 -342h-238q-134 121 -198 183q-12 -8 -38.5 -27.5t-37.5 -27.5t-35 -25t-43.5 -29.5t-49.5 -32t-65 -41.5h-237l393 342h270zM887 0h-271q8 45 32.5 190t68.5 369q-47 95 -103 193t-96 169t-121 244t-190 432h293q65 -131 195 -392t194 -392h4
q74 84 138.5 169t107 144.5t152.5 181.5t280 289h291q-161 -189 -455.5 -540t-417.5 -496q-15 -82 -40.5 -226.5t-41.5 -230t-20 -104.5z" />
    <glyph glyph-name="ycircumflex" unicode="&#x177;" horiz-adv-x="1384" 
d="M551 1278h-242l420 367h283l293 -367h-242q-10 11 -78.5 73t-134.5 144q-36 -28 -121.5 -84t-177.5 -133zM451 -451h-265l271 412l-334 1178h280q72 -248 234 -854h4q345 540 549 854h274z" />
    <glyph glyph-name="Ydieresis" unicode="&#x178;" horiz-adv-x="1703" 
d="M805 1747q-63 0 -105.5 37.5t-42.5 95.5q0 70 59 123t136 53q63 0 104 -36.5t41 -92.5q0 -70 -57.5 -125t-134.5 -55zM1323 1747q-66 0 -107.5 37t-41.5 94q0 72 59 125t137 53q63 0 104.5 -37.5t41.5 -93.5q0 -68 -58.5 -123t-134.5 -55zM887 0h-271q8 45 32.5 190
t68.5 369q-47 95 -103 193t-96 169t-121 244t-190 432h293q65 -131 195 -392t194 -392h4q74 84 138.5 169t107 144.5t152.5 181.5t280 289h291q-161 -189 -455.5 -540t-417.5 -496q-15 -82 -40.5 -226.5t-41.5 -230t-20 -104.5z" />
    <glyph glyph-name="Zacute" unicode="&#x179;" horiz-adv-x="1634" 
d="M1573 2071l-457 -351h-233l356 351h334zM1454 0h-1477l37 242q260 220 713.5 601t611.5 515l2 4q-721 0 -1079 -2l37 237h1417l-39 -243q-242 -204 -692.5 -577.5t-640.5 -532.5v-4h1147z" />
    <glyph glyph-name="zacute" unicode="&#x17a;" horiz-adv-x="1249" 
d="M1286 1661l-440 -383h-223l348 383h315zM1090 0h-1113l31 203l852 712h-684l33 224h1028l-29 -203l-856 -713h768z" />
    <glyph glyph-name="Zdotaccent" unicode="&#x17b;" horiz-adv-x="1634" 
d="M997 1763q-65 0 -108 39t-43 99q0 72 61 126t144 54q64 0 106.5 -38t42.5 -95q0 -72 -62 -128.5t-141 -56.5zM1454 0h-1477l37 242q260 220 713.5 601t611.5 515l2 4q-721 0 -1079 -2l37 237h1417l-39 -243q-242 -204 -692.5 -577.5t-640.5 -532.5v-4h1147z" />
    <glyph glyph-name="zdotaccent" unicode="&#x17c;" horiz-adv-x="1249" 
d="M768 1346q-66 0 -109 38.5t-43 98.5q0 72 60.5 126t142.5 54q66 0 109 -38t43 -95q0 -72 -62 -128t-141 -56zM1090 0h-1113l31 203l852 712h-684l33 224h1028l-29 -203l-856 -713h768z" />
    <glyph glyph-name="Zcaron" unicode="&#x17d;" horiz-adv-x="1634" 
d="M1300 2062h238l-391 -342h-277l-274 342h238q39 -34 115 -105.5t85 -80.5q33 24 84 61.5t91.5 66t90.5 58.5zM1454 0h-1477l37 242q260 220 713.5 601t611.5 515l2 4q-721 0 -1079 -2l37 237h1417l-39 -243q-242 -204 -692.5 -577.5t-640.5 -532.5v-4h1147z" />
    <glyph glyph-name="zcaron" unicode="&#x17e;" horiz-adv-x="1249" 
d="M895 1290h-283l-290 379h241q28 -27 65.5 -59t69 -64.5t80.5 -93.5q35 28 120 84.5t177 132.5h242zM1090 0h-1113l31 203l852 712h-684l33 224h1028l-29 -203l-856 -713h768z" />
    <glyph glyph-name="uni0218" unicode="&#x218;" horiz-adv-x="1593" 
d="M715 -35q-168 0 -306.5 50.5t-234 159t-117.5 261.5l265 84q13 -86 52 -149.5t98.5 -99.5t128.5 -53t151 -17q183 0 308.5 75t125.5 181q0 49 -27 85.5t-76.5 60.5t-96.5 39t-110 31q-3 0 -5 0.5t-4.5 1t-4.5 1.5l-166 43q-43 11 -77 21.5t-82.5 29.5t-85.5 40t-76.5 52
t-65.5 66.5t-42.5 83.5t-16.5 102q0 100 54.5 193.5t148.5 165t229.5 114.5t288.5 43q129 0 237 -30.5t180.5 -83t116.5 -119.5t56 -142l-263 -96q-27 110 -122 174t-248 64q-163 0 -276 -67.5t-113 -160.5q0 -33 14.5 -62t42.5 -51.5t57.5 -40t71.5 -32.5t71 -24t68 -19
l187 -51q163 -45 237 -83q195 -100 195 -288q0 -104 -57.5 -204t-156.5 -177.5t-244.5 -124.5t-309.5 -47zM571 -610h-135l178 223q-92 35 -92 115q0 64 54.5 112.5t130.5 48.5q61 0 100 -33.5t39 -86.5q0 -17 -4 -32.5t-15.5 -36t-23.5 -37.5t-38.5 -48.5t-48.5 -57
t-65.5 -75.5t-79.5 -92z" />
    <glyph glyph-name="uni0219" unicode="&#x219;" horiz-adv-x="1232" 
d="M530 -35q-212 0 -351 87t-167 233l248 73q31 -95 115.5 -143.5t191.5 -48.5q113 0 192 44.5t79 108.5q0 15 -3.5 27.5t-12.5 23.5t-16.5 19t-24 16t-25.5 13t-32 11.5t-31.5 9t-34.5 9.5t-33 9l-131 32q-29 7 -48 12.5t-56 19t-63 27.5t-58 37.5t-51.5 50t-33.5 65
t-14 81.5q0 102 69.5 191t195 143.5t276.5 54.5q188 0 310 -79t146 -205l-249 -74q-19 69 -81 114.5t-165 45.5q-101 0 -171.5 -43t-70.5 -103q0 -22 9.5 -40.5t31 -33t41 -25.5t53.5 -21.5t55 -16t58 -14.5l110 -27l43.5 -10.5t46 -13t50 -17t46.5 -21.5t45.5 -28t38 -34.5
t31.5 -43t19 -52t8 -62.5q0 -80 -44 -153.5t-120.5 -128.5t-186.5 -87.5t-235 -32.5zM383 -610h-135l178 223q-92 35 -92 115q0 64 54.5 112.5t129.5 48.5q61 0 100 -33.5t39 -86.5q0 -17 -3.5 -32t-15.5 -36t-23.5 -37.5t-38.5 -49t-48.5 -57.5t-65.5 -75.5t-79 -91.5z" />
    <glyph glyph-name="uni021A" unicode="&#x21a;" horiz-adv-x="1560" 
d="M815 0h-270q12 68 248 1360h-617l37 237h1499l-35 -237h-616q-31 -170 -52.5 -303t-60.5 -349.5t-133 -707.5zM524 -610h-135l178 223q-92 35 -92 115q0 64 54.5 112.5t129.5 48.5q61 0 100.5 -33.5t39.5 -86.5q0 -17 -4 -32.5t-15.5 -36t-23.5 -37.5t-38.5 -48.5
t-48.5 -57t-65.5 -75.5t-79.5 -92z" />
    <glyph glyph-name="uni021B" unicode="&#x21b;" horiz-adv-x="995" 
d="M582 -35q-81 0 -142.5 16t-98.5 40t-60 60.5t-32 69t-9.5 75.5t3 69.5t9.5 60.5l106 564h-270l33 219h270l58 327h256l-58 -327h391l-30 -219h-394l-94 -480q-6 -32 -8.5 -48.5t-5 -47.5t1 -49t13 -41.5t27 -36.5t47 -22t69.5 -9q95 0 213 45l-35 -219q-105 -47 -260 -47
zM326 -610h-136l179 223q-45 17 -69 47.5t-24 67.5q0 64 54.5 112.5t130.5 48.5q61 0 100 -33.5t39 -86.5q0 -17 -3.5 -32t-15.5 -36t-23.5 -37.5t-38.5 -49t-48.5 -57.5t-65.5 -75.5t-79 -91.5z" />
    <glyph glyph-name="gravecomb" unicode="&#x300;" horiz-adv-x="0" 
d="M154 1278h-224l-305 383h316z" />
    <glyph glyph-name="acutecomb" unicode="&#x301;" horiz-adv-x="0" 
d="M387 1661l-440 -383h-223l348 383h315z" />
    <glyph glyph-name="uni0302" unicode="&#x302;" horiz-adv-x="0" 
d="M-539 1278h-241l420 367h282l293 -367h-242q-10 11 -78.5 73t-134.5 144q-36 -28 -121.5 -84t-177.5 -133z" />
    <glyph glyph-name="tildecomb" unicode="&#x303;" horiz-adv-x="0" 
d="M-127 1325q-96 0 -170 53l-53 37q-54 39 -101 39q-49 0 -83.5 -32t-45.5 -81h-184q23 134 117.5 216.5t218.5 82.5q93 0 168 -55l51 -35q49 -34 98 -34q45 0 76.5 30t40.5 80h187q-23 -144 -107.5 -222.5t-212.5 -78.5z" />
    <glyph glyph-name="uni0304" unicode="&#x304;" horiz-adv-x="0" 
d="M152 1343h-826l27 177h825z" />
    <glyph glyph-name="uni0306" unicode="&#x306;" horiz-adv-x="0" 
d="M-252 1270q-206 0 -309.5 109.5t-79.5 285.5h215q-15 -93 40 -155t165 -62t189.5 61.5t101.5 155.5h215q-39 -180 -187 -287.5t-350 -107.5z" />
    <glyph glyph-name="uni0307" unicode="&#x307;" horiz-adv-x="0" 
d="M-39 1333q-66 0 -108.5 38.5t-42.5 98.5q0 72 60.5 126.5t141.5 54.5q66 0 109 -38t43 -95q0 -72 -62 -128.5t-141 -56.5z" />
    <glyph glyph-name="uni0308" unicode="&#x308;" horiz-adv-x="0" 
d="M-705 1321q-60 0 -98.5 36.5t-38.5 90.5q0 63 56 113.5t129 50.5q60 0 99.5 -35t39.5 -88q0 -65 -56.5 -116.5t-130.5 -51.5zM-205 1321q-61 0 -100 36t-39 89q0 68 55 117t129 49q59 0 99.5 -35.5t40.5 -87.5q0 -64 -56 -116t-129 -52z" />
    <glyph glyph-name="uni030A" unicode="&#x30a;" horiz-adv-x="0" 
d="M-80 1253q-112 0 -184 58t-72 149q0 108 100 190.5t238 82.5q112 0 183 -58t71 -149q0 -109 -99 -191t-237 -82zM-59 1393q62 0 106.5 35t44.5 81q0 36 -32.5 59t-82.5 23q-61 0 -105 -34t-44 -80q0 -38 31.5 -61t81.5 -23z" />
    <glyph glyph-name="uni030B" unicode="&#x30b;" horiz-adv-x="0" 
d="M-31 1673l-428 -395h-217l334 395h311zM449 1673l-441 -395h-217l346 395h312z" />
    <glyph glyph-name="uni030C" unicode="&#x30c;" horiz-adv-x="0" 
d="M-139 1278h-283l-291 379h242q28 -27 65.5 -59t69 -64.5t80.5 -93.5q35 28 120 84.5t177 132.5h242z" />
    <glyph glyph-name="uni0312" unicode="&#x312;" horiz-adv-x="0" 
d="M-248 1270q0 46 38.5 99.5t182.5 216.5q47 54 74 85h148l-199 -248q35 -15 58.5 -44.5t23.5 -69.5q0 -66 -57 -114t-132 -48q-60 0 -98.5 34t-38.5 89z" />
    <glyph glyph-name="uni0326" unicode="&#x326;" horiz-adv-x="0" 
d="M-471 -610h-135l178 223q-92 35 -92 115q0 64 54.5 112.5t129.5 48.5q61 0 100 -33.5t39 -86.5q0 -17 -3.5 -32t-15.5 -36t-23.5 -37.5t-38.5 -49t-48.5 -57.5t-65.5 -75.5t-79 -91.5z" />
    <glyph glyph-name="uni0327" unicode="&#x327;" horiz-adv-x="0" 
d="M-838 -512q-97 0 -179 33.5t-126 91.5l105 96q70 -94 211 -94q69 0 115 27.5t46 70.5q0 33 -33.5 52.5t-86.5 19.5q-63 0 -115 -27l-76 62l172 180h156l-129 -121q30 10 78 10q93 0 150.5 -42.5t57.5 -116.5q0 -102 -99 -172t-247 -70z" />
    <glyph glyph-name="uni0328" unicode="&#x328;" horiz-adv-x="0" 
d="M-825 -483q-145 0 -228.5 54t-83.5 148q0 87 73 157t173 104h180q-102 -25 -167.5 -78.5t-65.5 -114.5q0 -47 45.5 -75.5t116.5 -28.5q54 0 114 16l-28 -168q-63 -14 -129 -14z" />
    <glyph glyph-name="uni0335" unicode="&#x335;" horiz-adv-x="0" 
d="M-813 664h899l-27 -185h-901z" />
    <glyph glyph-name="uni0337" unicode="&#x337;" horiz-adv-x="0" 
d="M-512 449l31 210l803 455l-31 -211z" />
    <glyph glyph-name="uni0338" unicode="&#x338;" horiz-adv-x="0" 
d="M-1174 -63h-278l1331 1243h273z" />
    <glyph glyph-name="Wgrave" unicode="&#x1e80;" horiz-adv-x="2816" 
d="M1765 1720h-233l-338 351h336zM850 0h-338l-299 1597h305q7 -39 37 -197.5t39.5 -210.5t34 -185.5t38 -214t33.5 -198.5t37 -231h6q117 209 352.5 627t342.5 610h307q39 -201 122 -619t122 -618h4q473 882 673 1237h304l-865 -1597h-333q-140 642 -236 1194h-4
q-458 -824 -682 -1194z" />
    <glyph glyph-name="wgrave" unicode="&#x1e81;" horiz-adv-x="2263" 
d="M1378 1278h-223l-305 383h315zM690 0h-291l-272 1139h289l188 -824h6l506 824h236l202 -824h5l491 824h287l-672 -1139h-299q-134 557 -182 784h-4q-372 -601 -490 -784z" />
    <glyph glyph-name="Wacute" unicode="&#x1e82;" horiz-adv-x="2816" 
d="M2179 2071l-457 -351h-233l356 351h334zM850 0h-338l-299 1597h305q7 -39 37 -197.5t39.5 -210.5t34 -185.5t38 -214t33.5 -198.5t37 -231h6q117 209 352.5 627t342.5 610h307q39 -201 122 -619t122 -618h4q473 882 673 1237h304l-865 -1597h-333q-140 642 -236 1194h-4
q-458 -824 -682 -1194z" />
    <glyph glyph-name="wacute" unicode="&#x1e83;" horiz-adv-x="2263" 
d="M1790 1661l-440 -383h-224l349 383h315zM690 0h-291l-272 1139h289l188 -824h6l506 824h236l202 -824h5l491 824h287l-672 -1139h-299q-134 557 -182 784h-4q-372 -601 -490 -784z" />
    <glyph glyph-name="Wdieresis" unicode="&#x1e84;" horiz-adv-x="2816" 
d="M1362 1747q-63 0 -105.5 37.5t-42.5 95.5q0 70 59 123t136 53q63 0 104 -36.5t41 -92.5q0 -70 -57.5 -125t-134.5 -55zM1880 1747q-66 0 -107.5 37t-41.5 94q0 72 59 125t137 53q63 0 104.5 -37.5t41.5 -93.5q0 -68 -58.5 -123t-134.5 -55zM850 0h-338l-299 1597h305
q7 -39 37 -197.5t39.5 -210.5t34 -185.5t38 -214t33.5 -198.5t37 -231h6q117 209 352.5 627t342.5 610h307q39 -201 122 -619t122 -618h4q473 882 673 1237h304l-865 -1597h-333q-140 642 -236 1194h-4q-458 -824 -682 -1194z" />
    <glyph glyph-name="wdieresis" unicode="&#x1e85;" horiz-adv-x="2263" 
d="M1018 1321q-60 0 -98.5 36.5t-38.5 90.5q0 64 55.5 114t128.5 50q60 0 99.5 -35t39.5 -88q0 -65 -56 -116.5t-130 -51.5zM1518 1321q-61 0 -100.5 36t-39.5 89q0 68 55.5 117t129.5 49q59 0 99 -35.5t40 -87.5q0 -64 -56 -116t-128 -52zM690 0h-291l-272 1139h289
l188 -824h6l506 824h236l202 -824h5l491 824h287l-672 -1139h-299q-134 557 -182 784h-4q-372 -601 -490 -784z" />
    <glyph glyph-name="uni1E9E" unicode="&#x1e9e;" horiz-adv-x="1861" 
d="M377 0h-271l158 905q13 75 32 141t53.5 141.5t79 137t112 120t150.5 98t196 63.5t246 24q302 0 469 -110t167 -295q0 -152 -109 -268.5t-278 -145.5l-2 -6q96 -6 174 -41t129.5 -107t51.5 -170q0 -94 -46.5 -179.5t-136.5 -155t-239 -111t-338 -41.5h-240l37 236h272
q183 0 292.5 66.5t109.5 170.5q0 90 -83.5 138t-238.5 48h-135l33 236h111q146 0 245 81t99 195q0 109 -101 167.5t-276 58.5q-77 0 -144 -12t-116.5 -30t-91.5 -48t-69.5 -56.5t-50.5 -65.5t-35 -65t-23 -65t-14.5 -56.5t-8.5 -46.5z" />
    <glyph glyph-name="Ygrave" unicode="&#x1ef2;" horiz-adv-x="1703" 
d="M1208 1720h-233l-338 351h336zM887 0h-271q8 45 32.5 190t68.5 369q-47 95 -103 193t-96 169t-121 244t-190 432h293q65 -131 195 -392t194 -392h4q74 84 138.5 169t107 144.5t152.5 181.5t280 289h291q-161 -189 -455.5 -540t-417.5 -496q-15 -82 -40.5 -226.5
t-41.5 -230t-20 -104.5z" />
    <glyph glyph-name="ygrave" unicode="&#x1ef3;" horiz-adv-x="1384" 
d="M932 1278h-223l-306 383h316zM451 -451h-265l271 412l-334 1178h280q72 -248 234 -854h4q345 540 549 854h274z" />
    <glyph glyph-name="uni2000" unicode="&#x2000;" horiz-adv-x="1228" 
 />
    <glyph glyph-name="uni2001" unicode="&#x2001;" 
 />
    <glyph glyph-name="uni2002" unicode="&#x2002;" horiz-adv-x="1228" 
 />
    <glyph glyph-name="uni2003" unicode="&#x2003;" 
 />
    <glyph glyph-name="uni2004" unicode="&#x2004;" horiz-adv-x="819" 
 />
    <glyph glyph-name="uni2005" unicode="&#x2005;" horiz-adv-x="614" 
 />
    <glyph glyph-name="uni2006" unicode="&#x2006;" horiz-adv-x="409" 
 />
    <glyph glyph-name="uni2007" unicode="&#x2007;" horiz-adv-x="634" 
 />
    <glyph glyph-name="uni2008" unicode="&#x2008;" horiz-adv-x="604" 
 />
    <glyph glyph-name="uni2009" unicode="&#x2009;" horiz-adv-x="307" 
 />
    <glyph glyph-name="uni200A" unicode="&#x200a;" horiz-adv-x="102" 
 />
    <glyph glyph-name="uni200B" unicode="&#x200b;" horiz-adv-x="0" 
 />
    <glyph glyph-name="endash" unicode="&#x2013;" horiz-adv-x="1206" 
d="M1059 520h-924l31 207h924z" />
    <glyph glyph-name="emdash" unicode="&#x2014;" horiz-adv-x="1720" 
d="M1575 528h-1440l29 189h1440z" />
    <glyph glyph-name="quoteleft" unicode="&#x2018;" horiz-adv-x="604" 
d="M528 1634h150l-219 -276q92 -37 92 -123q0 -72 -63 -129t-146 -57q-64 0 -106.5 39.5t-42.5 99.5q0 56 59 132.5t276 313.5z" />
    <glyph glyph-name="quoteright" unicode="&#x2019;" horiz-adv-x="616" 
d="M365 1071h-154l223 277q-43 17 -67.5 49t-24.5 73q0 73 63.5 130t145.5 57q64 0 106.5 -39.5t42.5 -99.5q0 -56 -61 -136t-274 -311z" />
    <glyph glyph-name="quotesinglbase" unicode="&#x201a;" horiz-adv-x="585" 
d="M102 -274h-149l219 276q-92 36 -92 123q0 73 62 129.5t145 56.5q65 0 108 -39.5t43 -99.5q0 -56 -58.5 -131.5t-277.5 -314.5z" />
    <glyph glyph-name="quotedblleft" unicode="&#x201c;" horiz-adv-x="1062" 
d="M549 1634h149l-219 -276q92 -37 92 -123q0 -72 -63 -129t-146 -57q-64 0 -106.5 39.5t-42.5 99.5q0 56 58.5 131.5t277.5 314.5zM936 1634h149l-219 -276q92 -36 92 -123q0 -73 -62 -129.5t-144 -56.5q-65 0 -108.5 39.5t-43.5 99.5q0 56 58.5 131.5t277.5 314.5z" />
    <glyph glyph-name="quotedblright" unicode="&#x201d;" horiz-adv-x="1077" 
d="M362 1071h-149l219 277q-43 17 -67.5 49t-24.5 73q0 73 62.5 130t146.5 57q63 0 106 -39.5t43 -99.5q0 -57 -58 -132t-278 -315zM825 1071h-151l219 277q-41 15 -65.5 48t-24.5 74q0 74 62 130.5t145 56.5q65 0 108 -39.5t43 -99.5q0 -56 -57 -129.5t-279 -317.5z" />
    <glyph glyph-name="quotedblbase" unicode="&#x201e;" horiz-adv-x="1048" 
d="M82 -256h-150l220 276q-43 17 -68 49.5t-25 73.5q0 73 62.5 130t146.5 57q63 0 106.5 -40t43.5 -100q0 -56 -58.5 -131.5t-277.5 -314.5zM545 -256h-150l217 276q-41 15 -65.5 48.5t-24.5 74.5q0 74 62 130.5t145 56.5q65 0 108.5 -40t43.5 -100q0 -54 -52 -122
t-249 -285q-23 -26 -35 -39z" />
    <glyph glyph-name="dagger" unicode="&#x2020;" horiz-adv-x="1216" 
d="M846 1321h395l-29 -186h-399l-125 -707h-223l125 707h-383l29 186h387l57 317h221z" />
    <glyph glyph-name="daggerdbl" unicode="&#x2021;" horiz-adv-x="1296" 
d="M1274 1321l-31 -186h-381l-47 -252h381l-29 -187h-381l-55 -317h-223l57 317h-385l29 187h385l45 252h-385l31 186h385l57 317h221l-57 -317h383z" />
    <glyph glyph-name="bullet" unicode="&#x2022;" horiz-adv-x="1028" 
d="M526 438q-114 0 -190 69.5t-76 172.5q0 127 107 223t247 96q111 0 185.5 -67t74.5 -168q0 -124 -105.5 -225t-242.5 -101z" />
    <glyph glyph-name="ellipsis" unicode="&#x2026;" horiz-adv-x="1748" 
d="M240 -14q-66 0 -110 40t-44 99q0 74 61.5 130t143.5 56q64 0 107.5 -39t43.5 -98q0 -72 -61 -130t-141 -58zM713 -14q-66 0 -110 40t-44 99q0 74 61.5 130t143.5 56q64 0 107.5 -39t43.5 -98q0 -71 -61.5 -129.5t-140.5 -58.5zM1382 -14q-66 0 -109.5 40t-43.5 99
q0 74 61.5 130t143.5 56q64 0 107.5 -39t43.5 -98q0 -71 -62 -129.5t-141 -58.5z" />
    <glyph glyph-name="uni202F" unicode="&#x202f;" horiz-adv-x="460" 
 />
    <glyph glyph-name="perthousand" unicode="&#x2030;" horiz-adv-x="3053" 
d="M463 737q-138 0 -216.5 85.5t-78.5 236.5q0 126 56 237t157.5 178.5t224.5 67.5q137 0 215 -86t78 -237q0 -126 -56 -236.5t-157 -178t-223 -67.5zM430 0h-240l1625 1468h231zM487 918q78 0 136.5 99t58.5 208q0 66 -26.5 101.5t-75.5 35.5q-51 0 -97 -47.5t-72 -118.5
t-26 -141q0 -137 102 -137zM1645 -29q-138 0 -216.5 85.5t-78.5 236.5q0 126 56 237t157.5 178.5t224.5 67.5q137 0 215 -86t78 -237q0 -126 -56 -236.5t-157 -178t-223 -67.5zM2513 -29q-138 0 -216.5 85.5t-78.5 236.5q0 126 56 237t157.5 178.5t224.5 67.5q137 0 215 -86
t78 -237q0 -126 -56 -236.5t-157 -178t-223 -67.5zM1669 152q78 0 136.5 99t58.5 208q0 66 -26.5 101.5t-76.5 35.5q-51 0 -96.5 -47.5t-71.5 -118t-26 -141.5q0 -137 102 -137zM2537 152q78 0 136.5 99t58.5 208q0 66 -26.5 101.5t-75.5 35.5q-51 0 -97 -47.5t-72 -118.5
t-26 -141q0 -137 102 -137z" />
    <glyph glyph-name="guilsinglleft" unicode="&#x2039;" horiz-adv-x="983" 
d="M760 164h-297l-344 405l2 9l487 405h297l-487 -405l-2 -9z" />
    <glyph glyph-name="guilsinglright" unicode="&#x203a;" horiz-adv-x="985" 
d="M635 326l-481 -162l159 244l256 165l-166 248l48 162l239 -244l176 -166z" />
    <glyph glyph-name="fraction" unicode="&#x2044;" horiz-adv-x="448" 
d="M-438 0h-240l1624 1468h232z" />
    <glyph glyph-name="uni205F" unicode="&#x205f;" horiz-adv-x="544" 
 />
    <glyph glyph-name="uni2070" unicode="&#x2070;" horiz-adv-x="868" 
d="M463 737q-138 0 -216.5 85.5t-78.5 236.5q0 126 56 237t157.5 178.5t224.5 67.5q137 0 215 -86t78 -237q0 -126 -56 -236.5t-157 -178t-223 -67.5zM487 918q78 0 136.5 99t58.5 208q0 66 -26.5 101.5t-75.5 35.5q-51 0 -97 -47.5t-72 -118.5t-26 -141q0 -137 102 -137z
" />
    <glyph glyph-name="uni2074" unicode="&#x2074;" horiz-adv-x="847" 
d="M702 754h-196l24 145h-424l25 154l512 473h193l-82 -465h114l-24 -162h-115zM600 1278l-270 -217h225z" />
    <glyph glyph-name="uni2075" unicode="&#x2075;" horiz-adv-x="829" 
d="M424 737q-75 0 -138.5 16.5t-113 57.5t-63.5 102l192 86q15 -46 56.5 -71t95.5 -25q73 0 120.5 38t47.5 91q0 42 -33 68t-88 26q-46 0 -85.5 -19.5t-62.5 -47.5l-166 37l183 430h501l-24 -158h-354l-82 -158h2q35 26 87.5 40t102.5 14q99 0 169.5 -49.5t70.5 -155.5
q0 -134 -121 -228t-297 -94z" />
    <glyph glyph-name="uni2076" unicode="&#x2076;" horiz-adv-x="862" 
d="M467 737q-147 0 -227 75.5t-80 213.5q0 96 40.5 189.5t109 165.5t167 116.5t207.5 44.5q72 0 140 -21t106 -67l-127 -129q-53 53 -148 53t-167 -51t-101 -139h4q32 33 93 51t122 18q112 0 188 -56.5t76 -156.5q0 -125 -117 -216t-286 -91zM504 899q69 0 120.5 40t51.5 93
q0 43 -35.5 69.5t-91.5 26.5q-68 0 -120 -39t-52 -94q0 -41 36.5 -68.5t90.5 -27.5z" />
    <glyph glyph-name="uni2077" unicode="&#x2077;" horiz-adv-x="704" 
d="M422 754h-219q27 143 124.5 317.5t243.5 292.5h-395l25 162h637l-25 -164q-83 -54 -153 -131t-117 -160.5t-77.5 -163.5t-43.5 -153z" />
    <glyph glyph-name="uni2078" unicode="&#x2078;" horiz-adv-x="843" 
d="M451 737q-141 0 -226.5 57t-85.5 148q0 75 58 138.5t135 78.5v2q-92 50 -92 133q0 98 102 173t246 75q118 0 197 -53t79 -146q0 -63 -39 -109.5t-106 -72.5l-2 -2q56 -14 93.5 -56.5t37.5 -103.5q0 -108 -115 -185t-282 -77zM537 1231q56 0 96.5 29.5t40.5 68.5
q0 31 -29.5 50.5t-75.5 19.5q-57 0 -97 -28t-40 -66q0 -32 29.5 -53t75.5 -21zM479 907q65 0 111.5 34.5t46.5 80.5q0 38 -31.5 60t-87.5 22q-67 0 -114.5 -32.5t-47.5 -78.5q0 -38 34.5 -62t88.5 -24z" />
    <glyph glyph-name="uni2079" unicode="&#x2079;" horiz-adv-x="870" 
d="M408 737q-82 0 -159.5 26t-117.5 79l125 127q35 -36 85 -55t99 -19q93 0 155 59t83 144q-36 -37 -98 -56.5t-123 -19.5q-112 0 -187 55t-75 156q0 128 119.5 218.5t291.5 90.5q146 0 222.5 -75.5t76.5 -221.5q0 -134 -65 -250.5t-180 -187t-252 -70.5zM514 1155
q71 0 123.5 41t52.5 96q0 44 -36 70.5t-91 26.5q-72 0 -123 -41t-51 -97q0 -43 34.5 -69.5t90.5 -26.5z" />
    <glyph glyph-name="uni2080" unicode="&#x2080;" horiz-adv-x="868" 
d="M283 -285q-138 0 -216.5 85.5t-78.5 236.5q0 126 56 237t157.5 178.5t224.5 67.5q137 0 215 -86t78 -237q0 -126 -56 -236.5t-157 -178t-223 -67.5zM307 -104q78 0 136.5 99t58.5 208q0 66 -26.5 101.5t-76.5 35.5q-51 0 -96.5 -47.5t-71.5 -118t-26 -141.5
q0 -137 102 -137z" />
    <glyph glyph-name="uni2081" unicode="&#x2081;" horiz-adv-x="585" 
d="M301 -268h-205l86 477q-100 -65 -205 -84l31 207q92 27 153 73.5t70 98.5h201z" />
    <glyph glyph-name="uni2082" unicode="&#x2082;" horiz-adv-x="817" 
d="M588 -268h-641l4 24q20 91 51.5 148.5t100.5 112t196 118.5l24 12t32 16.5t31.5 17.5t33 22t25 23t20 27t6.5 28q0 29 -28 46t-74 17q-67 0 -116.5 -37t-62.5 -102l-184 26q21 130 133 209.5t262 79.5q128 0 206.5 -58.5t78.5 -154.5q0 -80 -60.5 -146.5t-142.5 -103.5
q-21 -10 -67 -30.5t-69.5 -32t-52.5 -34t-46 -48.5h366z" />
    <glyph glyph-name="uni2083" unicode="&#x2083;" horiz-adv-x="827" 
d="M252 -287q-129 0 -217.5 50.5t-102.5 127.5l193 86q32 -100 151 -100q65 0 107.5 29t42.5 71q0 76 -133 76h-88l18 135h92q62 0 109 27t47 68q0 32 -31 51.5t-78 19.5q-57 0 -98.5 -27.5t-58.5 -76.5l-182 41q30 97 135.5 163t242.5 66q119 0 200 -48.5t81 -131.5
q0 -66 -51 -124t-121 -71v-2q58 -9 97.5 -50.5t39.5 -98.5q0 -107 -114.5 -194t-280.5 -87z" />
    <glyph glyph-name="uni2084" unicode="&#x2084;" horiz-adv-x="847" 
d="M522 -268h-196l24 145h-424l25 154l512 473h192l-82 -465h115l-24 -162h-115zM420 256l-270 -217h225z" />
    <glyph glyph-name="uni2085" unicode="&#x2085;" horiz-adv-x="829" 
d="M244 -285q-55 0 -105 9.5t-94.5 29.5t-75.5 55t-41 82l193 86q15 -46 56 -71t95 -25q73 0 120.5 38t47.5 91q0 42 -33 68t-88 26q-46 0 -85 -19.5t-62 -47.5l-166 37l182 430h502l-24 -158h-355l-82 -158h2q35 26 88 40t103 14q99 0 169.5 -49.5t70.5 -155.5
q0 -134 -121 -228t-297 -94z" />
    <glyph glyph-name="uni2086" unicode="&#x2086;" horiz-adv-x="862" 
d="M287 -285q-147 0 -227 75.5t-80 213.5q0 96 40.5 189.5t109 165.5t167 116.5t207.5 44.5q72 0 140 -21t106 -67l-127 -129q-53 53 -148 53t-167 -51t-101 -139h4q32 33 93.5 51.5t121.5 18.5q112 0 188 -56.5t76 -156.5q0 -125 -117 -216.5t-286 -91.5zM324 -123
q69 0 120.5 40t51.5 93q0 43 -35.5 69.5t-91.5 26.5q-68 0 -120 -39t-52 -94q0 -41 36.5 -68.5t90.5 -27.5z" />
    <glyph glyph-name="uni2087" unicode="&#x2087;" horiz-adv-x="704" 
d="M242 -268h-219q27 143 124.5 317.5t243.5 292.5h-395l24 162h637l-24 -164q-83 -54 -153 -131t-117 -160.5t-77.5 -163.5t-43.5 -153z" />
    <glyph glyph-name="uni2088" unicode="&#x2088;" horiz-adv-x="843" 
d="M270 -285q-141 0 -226 56.5t-85 148.5q0 75 58 138.5t135 78.5v2q-93 51 -93 133q0 98 102.5 173t246.5 75q118 0 197 -52.5t79 -145.5q0 -63 -39 -110t-106 -73l-2 -2q56 -14 93.5 -56.5t37.5 -103.5q0 -108 -115.5 -185t-282.5 -77zM356 209q56 0 97 29.5t41 68.5
q0 31 -29.5 50.5t-75.5 19.5q-57 0 -97 -28t-40 -66q0 -32 29 -53t75 -21zM299 -115q65 0 111.5 34.5t46.5 80.5q0 38 -31.5 60t-87.5 22q-67 0 -114.5 -32.5t-47.5 -78.5q0 -38 34.5 -62t88.5 -24z" />
    <glyph glyph-name="uni2089" unicode="&#x2089;" horiz-adv-x="870" 
d="M227 -285q-82 0 -159 26t-117 79l125 127q35 -36 85 -55t99 -19q93 0 155 59t83 144q-36 -37 -98.5 -56.5t-123.5 -19.5q-112 0 -187 55t-75 156q0 128 119.5 218.5t292.5 90.5q146 0 222.5 -75.5t76.5 -221.5q0 -134 -65 -250.5t-180.5 -187t-252.5 -70.5zM334 133
q71 0 123.5 41t52.5 96q0 44 -36 70.5t-91 26.5q-72 0 -123 -41t-51 -97q0 -43 34.5 -69.5t90.5 -26.5z" />
    <glyph glyph-name="Euro" unicode="&#x20ac;" horiz-adv-x="1992" 
d="M1284 207q87 0 170.5 23t231.5 92l133 -175q-143 -97 -311 -139.5t-326 -42.5q-332 0 -536.5 152t-239.5 420h-281l22 133h252q3 92 33 207h-248l23 133h274q58 126 152.5 233.5t219.5 189.5t286 128.5t340 46.5q97 0 187 -13.5t193.5 -56t174.5 -111.5l-217 -180
q-142 119 -385 119q-223 0 -395 -96t-265 -260h719l-21 -133h-755q-33 -109 -33 -207h750l-23 -133h-715q34 -176 179.5 -253t410.5 -77z" />
    <glyph glyph-name="trademark" unicode="&#x2122;" horiz-adv-x="1906" 
d="M557 920h-154l103 565h-256l20 131h662l-21 -131h-252zM1094 920h-156l123 696h156q24 -71 84 -240.5t88 -253.5q59 83 177 252t171 242h157l-120 -696h-158l76 407q-31 -43 -69 -103t-84.5 -124t-133.5 -172h-98q-13 37 -50 149.5t-88 251.5z" />
    <glyph glyph-name="oneeighth" unicode="&#x215b;" horiz-adv-x="1878" 
d="M481 754h-205l86 477q-100 -65 -204 -84l30 207q92 27 153.5 73.5t70.5 98.5h200zM147 0h-239l1624 1468h231zM1350 -29q-141 0 -226.5 57t-85.5 148q0 75 58 138.5t135 78.5v2q-92 50 -92 133q0 98 102 173t246 75q118 0 197 -52.5t79 -145.5q0 -63 -39 -110t-106 -73
l-2 -2q56 -14 93.5 -56.5t37.5 -103.5q0 -108 -115 -185t-282 -77zM1436 465q56 0 96.5 29.5t40.5 68.5q0 31 -29.5 50.5t-75.5 19.5q-57 0 -97 -28t-40 -66q0 -32 29.5 -53t75.5 -21zM1378 141q65 0 111.5 34.5t46.5 80.5q0 38 -31.5 60t-87.5 22q-67 0 -114.5 -32.5
t-47.5 -78.5q0 -38 34.5 -62t88.5 -24z" />
    <glyph glyph-name="threeeighths" unicode="&#x215c;" horiz-adv-x="2119" 
d="M432 735q-129 0 -217 50t-102 128l192 86q15 -48 54.5 -74t97.5 -26q65 0 107 29t42 71q0 76 -133 76h-88l18 135h93q62 0 108.5 27t46.5 68q0 32 -30.5 51.5t-77.5 19.5q-57 0 -99 -27.5t-59 -76.5l-182 41q30 97 136 163t243 66q119 0 199.5 -48.5t80.5 -131.5
q0 -66 -51 -124t-121 -71v-2q58 -9 97.5 -50.5t39.5 -98.5q0 -107 -114.5 -194t-280.5 -87zM389 0h-239l1624 1468h231zM1591 -29q-141 0 -226 56.5t-85 148.5q0 75 58 138.5t135 78.5v2q-93 51 -93 133q0 98 102.5 173t246.5 75q118 0 197 -52.5t79 -145.5q0 -63 -39 -110
t-106 -73l-2 -2q56 -14 93.5 -56.5t37.5 -103.5q0 -108 -115.5 -185t-282.5 -77zM1677 465q56 0 97 29.5t41 68.5q0 31 -29.5 50.5t-75.5 19.5q-57 0 -97 -28t-40 -66q0 -32 29 -53t75 -21zM1620 141q65 0 111.5 34.5t46.5 80.5q0 38 -31.5 60t-87.5 22q-67 0 -114.5 -32.5
t-47.5 -78.5q0 -38 34.5 -62t88.5 -24z" />
    <glyph glyph-name="fiveeighths" unicode="&#x215d;" horiz-adv-x="2121" 
d="M424 737q-75 0 -138.5 16.5t-113 57.5t-63.5 102l192 86q15 -46 56.5 -71t95.5 -25q73 0 120.5 38t47.5 91q0 42 -33 68t-88 26q-46 0 -85.5 -19.5t-62.5 -47.5l-166 37l183 430h501l-24 -158h-354l-82 -158h2q35 26 87.5 40t102.5 14q99 0 169.5 -49.5t70.5 -155.5
q0 -134 -121 -228t-297 -94zM391 0h-239l1624 1468h231zM1593 -29q-141 0 -226 56.5t-85 148.5q0 75 58 138.5t135 78.5v2q-93 51 -93 133q0 98 102.5 173t246.5 75q118 0 197 -52.5t79 -145.5q0 -63 -39 -110t-106 -73l-2 -2q56 -14 93.5 -56.5t37.5 -103.5
q0 -108 -115.5 -185t-282.5 -77zM1679 465q56 0 97 29.5t41 68.5q0 31 -29.5 50.5t-75.5 19.5q-57 0 -97 -28t-40 -66q0 -32 29 -53t75 -21zM1622 141q65 0 111.5 34.5t46.5 80.5q0 38 -31.5 60t-87.5 22q-67 0 -114.5 -32.5t-47.5 -78.5q0 -38 34.5 -62t88.5 -24z" />
    <glyph glyph-name="seveneighths" unicode="&#x215e;" horiz-adv-x="1996" 
d="M422 754h-219q27 143 124.5 317.5t243.5 292.5h-395l25 162h637l-25 -164q-83 -54 -153 -131t-117 -160.5t-77.5 -163.5t-43.5 -153zM266 0h-239l1624 1468h231zM1468 -29q-141 0 -226 56.5t-85 148.5q0 75 58 138.5t135 78.5v2q-93 51 -93 133q0 98 102.5 173t246.5 75
q118 0 197 -52.5t79 -145.5q0 -63 -39 -110t-106 -73l-2 -2q56 -14 93.5 -56.5t37.5 -103.5q0 -108 -115.5 -185t-282.5 -77zM1554 465q56 0 97 29.5t41 68.5q0 31 -29.5 50.5t-75.5 19.5q-57 0 -97 -28t-40 -66q0 -32 29 -53t75 -21zM1497 141q65 0 111.5 34.5t46.5 80.5
q0 38 -31.5 60t-87.5 22q-67 0 -114.5 -32.5t-47.5 -78.5q0 -38 34.5 -62t88.5 -24z" />
    <glyph glyph-name="arrowleft" unicode="&#x2190;" horiz-adv-x="1681" 
d="M504 745h1071l-33 -200h-1077l264 -309h-254l-336 405l2 8l480 406h253z" />
    <glyph glyph-name="arrowup" unicode="&#x2191;" horiz-adv-x="1198" 
d="M717 1202l426 -340l-37 -233l-338 274l-158 -883h-215l158 881l-430 -272l37 233l547 340h10z" />
    <glyph glyph-name="arrowright" unicode="&#x2192;" horiz-adv-x="1677" 
d="M981 1055h254l336 -406l-2 -8l-479 -405h-254l372 309h-1073l33 200h1073z" />
    <glyph glyph-name="arrowdown" unicode="&#x2193;" horiz-adv-x="1202" 
d="M821 1202l-155 -878l428 270l-37 -234l-547 -340h-8l-428 340l37 234l335 -275l158 883h217z" />
    <glyph glyph-name="arrowboth" unicode="&#x2194;" horiz-adv-x="2109" 
d="M721 233h-254l-336 406l2 8l479 406h254l-391 -318h1219l-279 318h254l336 -406l-2 -8l-479 -406h-254l391 318h-1215z" />
    <glyph glyph-name="arrowupdn" unicode="&#x2195;" horiz-adv-x="1288" 
d="M551 8h-8l-430 316l32 211l340 -236l154 801l-432 -248l37 219l540 315h11l432 -315l-37 -219l-336 248l-154 -801l428 236l-32 -211z" />
    <glyph glyph-name="uni2196" unicode="&#x2196;" horiz-adv-x="1466" 
d="M717 795l575 -682l-186 -109l-580 686l-153 -405l-150 182l201 508l8 6l643 -23l150 -182z" />
    <glyph glyph-name="uni2197" unicode="&#x2197;" horiz-adv-x="1343" 
d="M936 975l201 -508l-150 -182l-153 405l-580 -686l-186 109l575 682l-508 -19l150 182l643 23z" />
    <glyph glyph-name="uni2198" unicode="&#x2198;" horiz-adv-x="1474" 
d="M956 532l154 406l150 -184l-201 -508l-8 -4l-643 20l-150 184l508 -18l-576 682l187 107z" />
    <glyph glyph-name="uni2199" unicode="&#x2199;" horiz-adv-x="1341" 
d="M1104 1217l186 -107l-575 -682l508 18l-150 -184l-643 -20l-8 4l-201 508l150 184l153 -406z" />
    <glyph glyph-name="emptyset" unicode="&#x2205;" horiz-adv-x="1724" 
d="M1624 1188l-182 -176q145 -136 145 -348q0 -136 -63.5 -263t-172 -223.5t-264.5 -154.5t-331 -58q-179 0 -322 62l-188 -183l-142 101l183 178q-148 139 -148 352q0 136 63.5 263t172 223.5t264.5 154.5t330 58q186 0 327 -66l183 178zM403 508q0 -115 76 -197l621 607
q-71 24 -164 24q-145 0 -269 -62t-194 -161.5t-70 -210.5zM793 197q109 0 208 36.5t168.5 96t110.5 139t41 162.5q0 114 -72 192l-618 -602q73 -24 162 -24z" />
    <glyph glyph-name="minus" unicode="&#x2212;" horiz-adv-x="1243" 
d="M1087 530h-940l31 193h938z" />
    <glyph glyph-name="infinity" unicode="&#x221e;" horiz-adv-x="2174" 
d="M537 285q-176 0 -280.5 80t-104.5 210q0 108 73.5 199t189 141t240.5 50q118 0 215.5 -50.5t243.5 -179.5q197 131 314 180.5t233 49.5q168 0 274.5 -80t106.5 -213q0 -156 -145 -271.5t-357 -115.5q-124 0 -219 49t-240 180q-188 -130 -302 -179.5t-242 -49.5zM563 449
q29 0 55.5 3.5t58.5 14.5t50.5 18t57.5 29t53.5 30.5t65 40t65.5 40.5q-9 8 -36.5 31t-35 29.5t-30.5 25t-32 24t-29 19t-31.5 17.5t-30.5 12t-34.5 10.5t-35.5 5t-41 2.5q-112 0 -191.5 -59.5t-79.5 -141.5q0 -70 56 -110.5t145 -40.5zM1567 451q109 0 186.5 58t77.5 140
q0 69 -54 109.5t-145 40.5q-50 0 -94 -10t-99.5 -38.5t-91.5 -50.5t-118 -75q8 -6 38 -31t38 -31t34 -26t36.5 -25.5t33 -19.5t37.5 -18.5t36.5 -11.5t42 -9t42.5 -2z" />
    <glyph glyph-name="approxequal" unicode="&#x2248;" horiz-adv-x="1318" 
d="M397 682h-209q24 147 127.5 231t231.5 84q49 0 91 -12.5t71.5 -30t56.5 -35t58 -30t65 -12.5q57 0 89 33t42 83h207q-26 -152 -117 -234.5t-221 -82.5q-66 0 -120 20t-83 43.5t-68 43.5t-79 20q-58 0 -96 -36t-46 -85zM319 233h-208q25 146 127 231t231 85q61 0 112 -19
t80 -41.5t69 -41.5t81 -19q108 0 131 119h209q-27 -154 -118.5 -237t-221.5 -83q-65 0 -119 20t-83.5 43.5t-68.5 43.5t-79 20q-57 0 -94.5 -36t-47.5 -85z" />
    <glyph glyph-name="notequal" unicode="&#x2260;" horiz-adv-x="1296" 
d="M1184 928l-29 -191h-321l-160 -248h434l-29 -192h-508l-104 -172h-193l107 172h-254l31 192h325l160 248h-440l30 191h512l99 155h190l-96 -155h246z" />
    <glyph glyph-name="lessequal" unicode="&#x2264;" horiz-adv-x="1253" 
d="M1032 281h-907l25 161h540l-506 172l29 195l938 174l-29 -178l-682 -121l621 -233z" />
    <glyph glyph-name="greaterequal" unicode="&#x2265;" horiz-adv-x="1255" 
d="M1038 281h-909l27 170l698 233l-635 121l27 178l874 -174l-28 -195l-570 -172h543z" />
    <glyph glyph-name="lozenge" unicode="&#x25ca;" horiz-adv-x="1376" 
d="M643 0h-108l-383 694l628 692h109l383 -692zM379 694l246 -432h8l409 432l-243 430h-8z" />
    <glyph glyph-name="A.ss01" horiz-adv-x="1859" 
d="M213 0h-293l995 1597h394l432 -1597h-287q-12 47 -37.5 141t-43 162t-36.5 156h-833q-49 -81 -94.5 -153t-110.5 -173t-86 -133zM625 690h663q-12 43 -64 222.5t-106 387.5h-92q-70 -105 -208.5 -316.5t-192.5 -293.5z" />
    <glyph glyph-name="Aacute.ss01" horiz-adv-x="1859" 
d="M1692 2071l-457 -351h-234l357 351h334zM213 0h-293l995 1597h394l432 -1597h-287q-12 47 -37.5 141t-43 162t-36.5 156h-833q-49 -81 -94.5 -153t-110.5 -173t-86 -133zM625 690h663q-12 43 -64 222.5t-106 387.5h-92q-70 -105 -208.5 -316.5t-192.5 -293.5z" />
    <glyph glyph-name="Abreve.ss01" horiz-adv-x="1859" 
d="M1126 1718q-202 0 -313.5 103t-93.5 252h223q-8 -70 49.5 -124.5t161.5 -54.5q107 0 185 53.5t96 125.5h221q-30 -149 -177 -252t-352 -103zM213 0h-293l995 1597h394l432 -1597h-287q-12 47 -37.5 141t-43 162t-36.5 156h-833q-49 -81 -94.5 -153t-110.5 -173t-86 -133z
M625 690h663q-12 43 -64 222.5t-106 387.5h-92q-70 -105 -208.5 -316.5t-192.5 -293.5z" />
    <glyph glyph-name="Acircumflex.ss01" horiz-adv-x="1859" 
d="M1323 2062l279 -342h-238q-148 133 -199 183q-158 -115 -268 -183h-238l394 342h270zM213 0h-293l995 1597h394l432 -1597h-287q-12 47 -37.5 141t-43 162t-36.5 156h-833q-49 -81 -94.5 -153t-110.5 -173t-86 -133zM625 690h663q-12 43 -64 222.5t-106 387.5h-92
q-70 -105 -208.5 -316.5t-192.5 -293.5z" />
    <glyph glyph-name="Adieresis.ss01" horiz-adv-x="1859" 
d="M877 1747q-63 0 -105.5 37.5t-42.5 95.5q0 70 59 123t136 53q63 0 104 -36.5t41 -92.5q0 -70 -57.5 -125t-134.5 -55zM1395 1747q-66 0 -108 37t-42 94q0 72 59.5 125t137.5 53q63 0 104 -37.5t41 -93.5q0 -68 -58 -123t-134 -55zM213 0h-293l995 1597h394l432 -1597
h-287q-12 47 -37.5 141t-43 162t-36.5 156h-833q-49 -81 -94.5 -153t-110.5 -173t-86 -133zM625 690h663q-12 43 -64 222.5t-106 387.5h-92q-70 -105 -208.5 -316.5t-192.5 -293.5z" />
    <glyph glyph-name="Agrave.ss01" horiz-adv-x="1859" 
d="M1280 1720h-233l-338 351h335zM213 0h-293l995 1597h394l432 -1597h-287q-12 47 -37.5 141t-43 162t-36.5 156h-833q-49 -81 -94.5 -153t-110.5 -173t-86 -133zM625 690h663q-12 43 -64 222.5t-106 387.5h-92q-70 -105 -208.5 -316.5t-192.5 -293.5z" />
    <glyph glyph-name="Amacron.ss01" horiz-adv-x="1859" 
d="M1571 1784h-856l30 184h852zM213 0h-293l995 1597h394l432 -1597h-287q-12 47 -37.5 141t-43 162t-36.5 156h-833q-49 -81 -94.5 -153t-110.5 -173t-86 -133zM625 690h663q-12 43 -64 222.5t-106 387.5h-92q-70 -105 -208.5 -316.5t-192.5 -293.5z" />
    <glyph glyph-name="Aogonek.ss01" horiz-adv-x="1859" 
d="M1409 -190q0 -48 46.5 -81.5t127.5 -33.5q57 0 111 12l-25 -153q-69 -17 -145 -17q-85 0 -153.5 21t-112.5 67.5t-44 112.5q0 86 71.5 154.5t172.5 107.5h-4q-12 47 -37.5 141t-43 162t-36.5 156h-833q-49 -81 -94.5 -153t-110.5 -173t-86 -133h-293l995 1597h394
l432 -1597h-92q-102 -22 -171 -76.5t-69 -113.5zM625 690h663q-12 43 -64 222.5t-106 387.5h-92q-70 -105 -208.5 -316.5t-192.5 -293.5z" />
    <glyph glyph-name="Aring.ss01" horiz-adv-x="1859" 
d="M1126 1712q-112 0 -184 58t-72 149q0 108 100 190t238 82q112 0 183 -57.5t71 -148.5q0 -109 -99 -191t-237 -82zM1147 1851q62 0 106.5 35.5t44.5 81.5q0 36 -32 59t-82 23q-61 0 -105.5 -34.5t-44.5 -80.5q0 -38 31.5 -61t81.5 -23zM213 0h-293l995 1597h394l432 -1597
h-287q-12 47 -37.5 141t-43 162t-36.5 156h-833q-49 -81 -94.5 -153t-110.5 -173t-86 -133zM625 690h663q-12 43 -64 222.5t-106 387.5h-92q-70 -105 -208.5 -316.5t-192.5 -293.5z" />
    <glyph glyph-name="Atilde.ss01" horiz-adv-x="1859" 
d="M1333 1735q-96 0 -170 53l-53 37q-54 39 -100 39q-49 0 -83.5 -32t-45.5 -81h-185q23 134 117.5 216.5t218.5 82.5q93 0 168 -55l51 -35q50 -35 99 -35q45 0 76 30.5t40 80.5h187q-23 -144 -107.5 -222.5t-212.5 -78.5zM213 0h-293l995 1597h394l432 -1597h-287
q-12 47 -37.5 141t-43 162t-36.5 156h-833q-49 -81 -94.5 -153t-110.5 -173t-86 -133zM625 690h663q-12 43 -64 222.5t-106 387.5h-92q-70 -105 -208.5 -316.5t-192.5 -293.5z" />
    <glyph glyph-name="B.ss01" horiz-adv-x="1753" 
d="M915 0h-784l283 1597h743q250 0 389.5 -96t139.5 -258q0 -143 -111 -264t-283 -160v-4q330 -57 330 -323q0 -136 -90.5 -248.5t-253 -178t-363.5 -65.5zM559 918h406q193 0 310.5 68t117.5 177q0 101 -96 149t-253 48h-397q-5 -27 -25.5 -144.5t-35.5 -190t-27 -107.5z
M438 238h449q205 0 325.5 71t120.5 180q0 72 -51.5 119.5t-130 66.5t-182.5 19h-443q-8 -45 -31.5 -159t-56.5 -297z" />
    <glyph glyph-name="C.ss01" horiz-adv-x="2050" 
d="M987 -35q-387 0 -617.5 190t-230.5 511q0 189 87.5 365.5t236.5 308t359 211t442 79.5q194 0 356.5 -57.5t274.5 -169.5t149 -264l-264 -97q-51 155 -197 249.5t-358 94.5q-168 0 -318.5 -59.5t-254.5 -156.5t-165 -223.5t-61 -258.5q0 -102 34.5 -184t92.5 -136
t137 -90.5t165 -52.5t179 -16q254 0 444 114.5t291 299.5l238 -82q-150 -280 -413.5 -428t-606.5 -148z" />
    <glyph glyph-name="D.ss01" horiz-adv-x="1964" 
d="M860 0h-729l283 1597h706q393 0 589 -170t196 -475q0 -147 -47 -287.5t-138 -260.5t-216 -210.5t-291.5 -142t-352.5 -51.5zM438 238h441q166 0 306.5 53.5t234.5 144t146 211t52 254.5q0 110 -31 191.5t-83 132t-130.5 81.5t-163 42.5t-190.5 11.5h-373
q-18 -94 -46 -233.5t-60.5 -315.5t-102.5 -573z" />
    <glyph glyph-name="E.ss01" horiz-adv-x="1601" 
d="M1384 0h-1253l283 1597h1228l-34 -237h-961q0 -1 -24.5 -107t-59.5 -315h912l-39 -248h-910q-10 -51 -15 -77t-8.5 -44t-20 -102.5t-44.5 -226.5h981z" />
    <glyph glyph-name="F.ss01" horiz-adv-x="1523" 
d="M1620 1597l-37 -241h-938l-80 -447h883l-37 -247h-891l-119 -662h-270l283 1597h1206z" />
    <glyph glyph-name="G.ss01" horiz-adv-x="2091" 
d="M981 -35q-390 0 -617 185t-227 503q0 190 87 369t235.5 312.5t359 214.5t443.5 81q195 0 359.5 -59t275.5 -171t145 -261l-264 -97q-52 158 -197 251t-354 93q-167 0 -318 -58.5t-255.5 -154.5t-166 -222.5t-61.5 -258.5q0 -227 164.5 -355t456.5 -128q260 0 439.5 102
t246.5 289h-590l31 213h858l-17 -80q-44 -245 -193.5 -420.5t-365 -261.5t-475.5 -86z" />
    <glyph glyph-name="H.ss01" horiz-adv-x="1988" 
d="M1550 920l121 677h273l-283 -1597h-272l118 670h-987l-119 -670h-270l283 1597h270l-121 -677h987z" />
    <glyph glyph-name="I.ss01" horiz-adv-x="1372" 
d="M1176 0h-1180l37 238h452l211 1122h-465l35 237h1204l-36 -237h-467l-209 -1122h452z" />
    <glyph glyph-name="Iacute.ss01" horiz-adv-x="1372" 
d="M1354 2071l-457 -351h-233l356 351h334zM1176 0h-1180l37 238h452l211 1122h-465l35 237h1204l-36 -237h-467l-209 -1122h452z" />
    <glyph glyph-name="Icircumflex.ss01" horiz-adv-x="1372" 
d="M1087 2062l279 -342h-238q-134 121 -198 183q-158 -115 -268 -183h-238l393 342h270zM1176 0h-1180l37 238h452l211 1122h-465l35 237h1204l-36 -237h-467l-209 -1122h452z" />
    <glyph glyph-name="Idieresis.ss01" horiz-adv-x="1372" 
d="M641 1747q-63 0 -105 37.5t-42 95.5q0 70 58.5 123t135.5 53q63 0 104.5 -36.5t41.5 -92.5q0 -70 -58 -125t-135 -55zM1159 1747q-66 0 -107.5 37t-41.5 94q0 72 59 125t137 53q63 0 104.5 -37.5t41.5 -93.5q0 -68 -58.5 -123t-134.5 -55zM1176 0h-1180l37 238h452
l211 1122h-465l35 237h1204l-36 -237h-467l-209 -1122h452z" />
    <glyph glyph-name="Idotaccent.ss01" horiz-adv-x="1372" 
d="M897 1763q-65 0 -108.5 39t-43.5 99q0 72 61 126t144 54q64 0 107 -38t43 -95q0 -72 -62 -128.5t-141 -56.5zM1176 0h-1180l37 238h452l211 1122h-465l35 237h1204l-36 -237h-467l-209 -1122h452z" />
    <glyph glyph-name="Igrave.ss01" horiz-adv-x="1372" 
d="M1044 1720h-233l-338 351h336zM1176 0h-1180l37 238h452l211 1122h-465l35 237h1204l-36 -237h-467l-209 -1122h452z" />
    <glyph glyph-name="Imacron.ss01" horiz-adv-x="1372" 
d="M1335 1784h-856l31 184h852zM1176 0h-1180l37 238h452l211 1122h-465l35 237h1204l-36 -237h-467l-209 -1122h452z" />
    <glyph glyph-name="J.ss01" horiz-adv-x="1488" 
d="M590 -35q-128 0 -235.5 32.5t-187.5 97t-113.5 172.5t-6.5 247l8 43l271 35l-11 -41q-17 -74 -6 -130.5t38 -97t70.5 -66.5t91.5 -38t101 -12q164 0 264 97t127 241l154 815h-663l36 237h934l-178 -1007q-7 -37 -12 -62t-19.5 -77.5t-31 -91t-46.5 -92t-65 -92.5
t-87.5 -81t-113.5 -68.5t-143 -43.5t-176 -17z" />
    <glyph glyph-name="K.ss01" horiz-adv-x="1699" 
d="M401 0h-270l283 1597h270l-121 -641h10q431 291 951 641h360q-104 -74 -448.5 -314t-696.5 -492q152 -133 441.5 -395t443.5 -396h-375q-81 66 -150.5 130t-115 108.5t-165 139.5t-304.5 228z" />
    <glyph glyph-name="L.ss01" horiz-adv-x="1439" 
d="M684 1597l-240 -1357h906l-37 -240h-1182l283 1597h270z" />
    <glyph glyph-name="M.ss01" horiz-adv-x="2365" 
d="M1997 1597h323l-282 -1597h-275l213 1133l-739 -838h-197l-422 838l-212 -1133h-275l283 1597h323q232 -466 453 -942h4q514 611 803 942z" />
    <glyph glyph-name="N.ss01" horiz-adv-x="2013" 
d="M401 0h-270l283 1597h323l690 -1097h60l211 1097h270l-282 -1597h-324l-690 1092h-64z" />
    <glyph glyph-name="O.ss01" horiz-adv-x="2150" 
d="M971 -35q-242 0 -432 88t-296 248.5t-106 366.5q0 148 57 291.5t162 263.5t243 212t310 143.5t353 51.5q182 0 337.5 -52t264 -144.5t170 -223.5t61.5 -284q0 -149 -57.5 -293t-162.5 -263.5t-243 -211t-309.5 -142.5t-351.5 -51zM1008 209q159 0 307 58t254.5 152
t170.5 219.5t64 256.5q0 217 -160.5 354t-414.5 137q-157 0 -305.5 -58t-256.5 -152.5t-173.5 -220.5t-65.5 -257q0 -217 162.5 -353t417.5 -136z" />
    <glyph glyph-name="P.ss01" horiz-adv-x="1650" 
d="M414 1597h706q31 0 57 -1t88.5 -9t112 -22t110.5 -45t102 -73.5t69.5 -111t28.5 -153.5q0 -116 -52.5 -224t-144.5 -191t-229 -133t-295 -50h-463l-103 -584h-270zM549 834h391q129 0 231.5 33t165 101t62.5 162q0 230 -365 230h-391z" />
    <glyph glyph-name="Q.ss01" horiz-adv-x="1789" 
d="M692 -29q-22 -22 -48 -46t-60 -55t-54 -50v-2h916l-41 -224h-1430l471 449q-156 79 -244.5 231t-88.5 353t78 386.5t209 320.5t310 215.5t373 80.5q302 0 488 -183.5t186 -481.5q0 -199 -78 -384t-208.5 -319.5t-310 -215.5t-372.5 -81q-50 0 -96 6zM1042 1389
q-130 0 -251 -58t-209.5 -155t-141.5 -230t-53 -276q0 -209 124 -336t323 -127q173 0 323 98t238 263.5t88 355.5q0 208 -120.5 336.5t-320.5 128.5z" />
    <glyph glyph-name="R.ss01" horiz-adv-x="1710" 
d="M967 594h-101l686 -594h-333l-691 594h-20l-107 -594h-270l283 1597h706q38 0 76 -2.5t97 -12.5t109.5 -26.5t105 -49t93 -75t63 -108.5t24.5 -147q0 -118 -54 -225t-148.5 -185.5t-229.5 -125t-289 -46.5zM1038 1384h-387l-108 -563h393q204 0 334.5 92.5t130.5 229.5
q0 117 -94.5 179t-268.5 62z" />
    <glyph glyph-name="S.ss01" horiz-adv-x="1593" 
d="M715 -35q-168 0 -306.5 50.5t-234 159t-117.5 261.5l265 84q13 -86 52 -149.5t98.5 -99.5t128.5 -53t151 -17q183 0 308.5 75t125.5 181q0 49 -27 85.5t-76.5 60.5t-96.5 39t-110 31q-3 0 -5 0.5t-4.5 1t-4.5 1.5l-166 43q-43 11 -77 21.5t-82.5 29.5t-85.5 40t-76.5 52
t-65.5 66.5t-42.5 83.5t-16.5 102q0 100 54.5 193.5t148.5 165t229.5 114.5t288.5 43q129 0 237 -30.5t180.5 -83t116.5 -119.5t56 -142l-263 -96q-27 110 -122 174t-248 64q-163 0 -276 -67.5t-113 -160.5q0 -33 14.5 -62t42.5 -51.5t57.5 -40t71.5 -32.5t71 -24t68 -19
l187 -51q163 -45 237 -83q195 -100 195 -288q0 -104 -57.5 -204t-156.5 -177.5t-244.5 -124.5t-309.5 -47z" />
    <glyph glyph-name="U.ss01" horiz-adv-x="1861" 
d="M784 -35q-110 0 -200.5 23.5t-152.5 63t-107.5 93t-71 112t-37.5 123t-12 122.5t10 112l180 983h271l-177 -964q-11 -49 -7.5 -100t15 -98t40.5 -88.5t69 -72.5t101.5 -49t136.5 -18q112 0 208 38t159.5 101t104 136t54.5 151l176 964h271l-283 -1597h-260l33 160h-5
q-94 -102 -217 -148.5t-299 -46.5z" />
    <glyph glyph-name="Uacute.ss01" horiz-adv-x="1861" 
d="M1460 2071l-459 -351h-231l354 351h336zM784 -35q-110 0 -200.5 23.5t-152.5 63t-107.5 93t-71 112t-37.5 123t-12 122.5t10 112l180 983h271l-177 -964q-11 -49 -7.5 -100t15 -98t40.5 -88.5t69 -72.5t101.5 -49t136.5 -18q112 0 208 38t159.5 101t104 136t54.5 151
l176 964h271l-283 -1597h-260l33 160h-5q-94 -102 -217 -148.5t-299 -46.5z" />
    <glyph glyph-name="Ucircumflex.ss01" horiz-adv-x="1861" 
d="M1311 2062l278 -342h-237q-148 133 -199 183q-158 -115 -268 -183h-238l393 342h271zM784 -35q-110 0 -200.5 23.5t-152.5 63t-107.5 93t-71 112t-37.5 123t-12 122.5t10 112l180 983h271l-177 -964q-11 -49 -7.5 -100t15 -98t40.5 -88.5t69 -72.5t101.5 -49t136.5 -18
q112 0 208 38t159.5 101t104 136t54.5 151l176 964h271l-283 -1597h-260l33 160h-5q-94 -102 -217 -148.5t-299 -46.5z" />
    <glyph glyph-name="Udieresis.ss01" horiz-adv-x="1861" 
d="M864 1747q-63 0 -105 37.5t-42 95.5q0 70 58.5 123t135.5 53q63 0 104.5 -36.5t41.5 -92.5q0 -70 -58 -125t-135 -55zM1382 1747q-66 0 -107.5 37t-41.5 94q0 72 59.5 125t137.5 53q63 0 104 -37.5t41 -93.5q0 -68 -58.5 -123t-134.5 -55zM784 -35q-110 0 -200.5 23.5
t-152.5 63t-107.5 93t-71 112t-37.5 123t-12 122.5t10 112l180 983h271l-177 -964q-11 -49 -7.5 -100t15 -98t40.5 -88.5t69 -72.5t101.5 -49t136.5 -18q112 0 208 38t159.5 101t104 136t54.5 151l176 964h271l-283 -1597h-260l33 160h-5q-94 -102 -217 -148.5t-299 -46.5z
" />
    <glyph glyph-name="Ugrave.ss01" horiz-adv-x="1861" 
d="M1268 1720h-234l-338 351h336zM784 -35q-110 0 -200.5 23.5t-152.5 63t-107.5 93t-71 112t-37.5 123t-12 122.5t10 112l180 983h271l-177 -964q-11 -49 -7.5 -100t15 -98t40.5 -88.5t69 -72.5t101.5 -49t136.5 -18q112 0 208 38t159.5 101t104 136t54.5 151l176 964h271
l-283 -1597h-260l33 160h-5q-94 -102 -217 -148.5t-299 -46.5z" />
    <glyph glyph-name="Uhungarumlaut.ss01" horiz-adv-x="1861" 
d="M1370 2068l-414 -348h-223l318 348h319zM1845 2068l-424 -348h-227l332 348h319zM784 -35q-110 0 -200.5 23.5t-152.5 63t-107.5 93t-71 112t-37.5 123t-12 122.5t10 112l180 983h271l-177 -964q-11 -49 -7.5 -100t15 -98t40.5 -88.5t69 -72.5t101.5 -49t136.5 -18
q112 0 208 38t159.5 101t104 136t54.5 151l176 964h271l-283 -1597h-260l33 160h-5q-94 -102 -217 -148.5t-299 -46.5z" />
    <glyph glyph-name="Umacron.ss01" horiz-adv-x="1861" 
d="M1559 1784h-857l31 184h852zM784 -35q-110 0 -200.5 23.5t-152.5 63t-107.5 93t-71 112t-37.5 123t-12 122.5t10 112l180 983h271l-177 -964q-11 -49 -7.5 -100t15 -98t40.5 -88.5t69 -72.5t101.5 -49t136.5 -18q112 0 208 38t159.5 101t104 136t54.5 151l176 964h271
l-283 -1597h-260l33 160h-5q-94 -102 -217 -148.5t-299 -46.5z" />
    <glyph glyph-name="Uogonek.ss01" horiz-adv-x="1861" 
d="M1257 -190q0 -48 47 -81.5t128 -33.5q56 0 110 12l-24 -153q-69 -17 -146 -17q-85 0 -153 21t-112 67.5t-44 112.5q0 86 71.5 154.5t172.5 107.5h-35l33 160h-5q-94 -102 -217 -148.5t-299 -46.5q-110 0 -200.5 23.5t-152.5 63t-107.5 93t-71 112t-37.5 123t-12 122.5
t10 112l180 983h271l-177 -964q-11 -49 -7.5 -100t15 -98t40.5 -88.5t69 -72.5t101.5 -49t136.5 -18q112 0 208 38t159.5 101t104 136t54.5 151l176 964h271l-283 -1597h-35q-102 -22 -171 -76.5t-69 -113.5z" />
    <glyph glyph-name="Uring.ss01" horiz-adv-x="1861" 
d="M1114 1712q-112 0 -184 58t-72 149q0 108 100 190t238 82q112 0 183 -57.5t71 -148.5q0 -109 -99 -191t-237 -82zM1135 1851q62 0 106.5 35.5t44.5 81.5q0 36 -32.5 59t-82.5 23q-61 0 -105 -34.5t-44 -80.5q0 -38 31.5 -61t81.5 -23zM784 -35q-110 0 -200.5 23.5
t-152.5 63t-107.5 93t-71 112t-37.5 123t-12 122.5t10 112l180 983h271l-177 -964q-11 -49 -7.5 -100t15 -98t40.5 -88.5t69 -72.5t101.5 -49t136.5 -18q112 0 208 38t159.5 101t104 136t54.5 151l176 964h271l-283 -1597h-260l33 160h-5q-94 -102 -217 -148.5t-299 -46.5z
" />
    <glyph glyph-name="V.ss01" horiz-adv-x="1857" 
d="M1016 0h-383l-432 1597h286q45 -157 85.5 -326t98.5 -381t167 -558h86l813 1265h286z" />
    <glyph glyph-name="W.ss01" horiz-adv-x="2816" 
d="M852 0h-340l-299 1597h305l219 -1237h6l635 1237h441l170 -1237h4l673 1237h304l-865 -1597h-336l-165 1272h-105z" />
    <glyph glyph-name="Wacute.ss01" horiz-adv-x="2816" 
d="M2179 2071l-457 -351h-233l356 351h334zM852 0h-340l-299 1597h305l219 -1237h6l635 1237h441l170 -1237h4l673 1237h304l-865 -1597h-336l-165 1272h-105z" />
    <glyph glyph-name="Wcircumflex.ss01" horiz-adv-x="2816" 
d="M1808 2062l279 -342h-238q-134 121 -198 183q-12 -8 -38.5 -27.5t-37.5 -27.5t-35 -25t-43.5 -29.5t-49.5 -32t-65 -41.5h-237l393 342h270zM852 0h-340l-299 1597h305l219 -1237h6l635 1237h441l170 -1237h4l673 1237h304l-865 -1597h-336l-165 1272h-105z" />
    <glyph glyph-name="Wdieresis.ss01" horiz-adv-x="2816" 
d="M1362 1747q-63 0 -105.5 37.5t-42.5 95.5q0 70 59 123t136 53q63 0 104 -36.5t41 -92.5q0 -70 -57.5 -125t-134.5 -55zM1880 1747q-66 0 -107.5 37t-41.5 94q0 72 59 125t137 53q63 0 104.5 -37.5t41.5 -93.5q0 -68 -58.5 -123t-134.5 -55zM852 0h-340l-299 1597h305
l219 -1237h6l635 1237h441l170 -1237h4l673 1237h304l-865 -1597h-336l-165 1272h-105z" />
    <glyph glyph-name="Wgrave.ss01" horiz-adv-x="2816" 
d="M1765 1720h-233l-338 351h336zM852 0h-340l-299 1597h305l219 -1237h6l635 1237h441l170 -1237h4l673 1237h304l-865 -1597h-336l-165 1272h-105z" />
    <glyph glyph-name="X.ss01" horiz-adv-x="1730" 
d="M221 0h-303l770 811l2 12l-481 774h303q68 -110 198.5 -325.5t186.5 -306.5h78q67 66 252.5 265t367.5 367h295l-753 -774l-2 -12l481 -811h-297q-339 543 -389 651h-80q-83 -84 -172 -185t-193 -209.5t-264 -256.5z" />
    <glyph glyph-name="Y.ss01" horiz-adv-x="1720" 
d="M532 0h-286l504 575l-523 1022h295l400 -761h4l694 761h293z" />
    <glyph glyph-name="Yacute.ss01" horiz-adv-x="1720" 
d="M1544 2071l-457 -351h-233l354 351h336zM532 0h-286l504 575l-523 1022h295l400 -761h4l694 761h293z" />
    <glyph glyph-name="Ycircumflex.ss01" horiz-adv-x="1720" 
d="M1284 2062l279 -342h-238q-148 133 -199 183q-158 -115 -268 -183h-237l393 342h270zM532 0h-286l504 575l-523 1022h295l400 -761h4l694 761h293z" />
    <glyph glyph-name="Ydieresis.ss01" horiz-adv-x="1720" 
d="M838 1747q-63 0 -105.5 37.5t-42.5 95.5q0 70 59 123t136 53q63 0 104 -36.5t41 -92.5q0 -70 -57.5 -125t-134.5 -55zM1356 1747q-66 0 -108 37t-42 94q0 72 59.5 125t137.5 53q63 0 104 -37.5t41 -93.5q0 -68 -58 -123t-134 -55zM532 0h-286l504 575l-523 1022h295
l400 -761h4l694 761h293z" />
    <glyph glyph-name="Ygrave.ss01" horiz-adv-x="1720" 
d="M1241 1720h-233l-338 351h336zM532 0h-286l504 575l-523 1022h295l400 -761h4l694 761h293z" />
    <glyph glyph-name="Z.ss01" horiz-adv-x="1695" 
d="M1495 0h-1601l1441 1358h-1038l39 239h1522l-1432 -1357h1108z" />
    <glyph glyph-name="Zacute.ss01" horiz-adv-x="1695" 
d="M1614 2071l-457 -351h-233l356 351h334zM1495 0h-1601l1441 1358h-1038l39 239h1522l-1432 -1357h1108z" />
    <glyph glyph-name="Zcaron.ss01" horiz-adv-x="1695" 
d="M1339 2062h238l-391 -342h-277l-274 342h237q4 -3 201 -186q33 24 84 61.5t91.5 66t90.5 58.5zM1495 0h-1601l1441 1358h-1038l39 239h1522l-1432 -1357h1108z" />
    <glyph glyph-name="Zdotaccent.ss01" horiz-adv-x="1695" 
d="M1067 1763q-65 0 -108.5 39t-43.5 99q0 72 61 126t144 54q64 0 107 -38t43 -95q0 -72 -62 -128.5t-141 -56.5zM1495 0h-1601l1441 1358h-1038l39 239h1522l-1432 -1357h1108z" />
    <glyph glyph-name="Q.ss02" horiz-adv-x="2150" 
d="M2095 926q0 -172 -77.5 -336.5t-209 -292t-314.5 -215t-386 -109.5l-27 -155h621l-33 -224h-878l65 377q-323 31 -521 220.5t-198 476.5q0 148 57 291.5t162 263.5t243 212t310 143.5t353 51.5q182 0 337.5 -52t264 -144.5t170 -223.5t61.5 -284zM428 698
q0 -192 129 -322.5t340 -158.5l72 412h256l-72 -408q180 31 330 131.5t235.5 244.5t85.5 298q0 217 -160.5 354t-414.5 137q-157 0 -305.5 -58t-256.5 -152.5t-173.5 -220.5t-65.5 -257z" />
    <glyph glyph-name="A.ss07" 
d="M1092 -315q-215 0 -397.5 58t-310 160.5t-199.5 249.5t-72 320q0 165 65 325t186 294t280 236.5t359.5 160t413.5 57.5q163 0 311.5 -34t271 -101.5t212.5 -162t140 -221.5t50 -273q0 -140 -47 -276t-131 -253.5t-205 -217.5t-264 -171t-314 -111t-349 -40zM1223 1096
l-623 -963h191q28 35 188 273h448q7 -22 16 -56.5t24 -82.5t44 -134h193l-283 963h-198zM1389 559h-326q18 27 60 91.5t75 111t90 121.5q7 -23 24 -83.5t24.5 -84.5t22 -68.5t30.5 -87.5z" />
    <glyph glyph-name="B.ss07" horiz-adv-x="2459" 
d="M1092 -315q-215 0 -397.5 58t-310 160.5t-199.5 249.5t-72 320q0 165 65 325t186 294t280 236.5t359.5 160t413.5 57.5q163 0 311.5 -34t271 -101.5t212.5 -162t140 -221.5t50 -273q0 -140 -47 -276t-131 -253.5t-205 -217.5t-264 -171t-314 -111t-349 -40zM938 1096
l-170 -963h473q186 0 308 87t122 216q0 71 -44 121t-126 70q94 29 152.5 100t58.5 154q0 99 -88 157t-235 58h-451zM1044 692l50 246h225q86 0 142.5 -26t56.5 -83q0 -60 -67.5 -98.5t-174.5 -38.5h-232zM1231 291h-258q31 172 49 254h252q39 0 74 -6t66 -18.5t49 -35.5
t18 -55q0 -61 -68.5 -100t-181.5 -39z" />
    <glyph glyph-name="C.ss07" horiz-adv-x="2455" 
d="M1092 -315q-215 0 -397.5 58t-310 160.5t-199.5 249.5t-72 320q0 165 65 325t186 294t280 236.5t359.5 160t413.5 57.5q163 0 311.5 -34t271 -101.5t212.5 -162t140 -221.5t50 -273q0 -140 -47 -276t-131 -253.5t-205 -217.5t-264 -171t-314 -111t-349 -40zM1178 113
q203 0 365.5 92.5t252.5 261.5l-160 53q-58 -112 -170 -180t-260 -68q-68 0 -128 15.5t-111.5 47t-82 87t-30.5 129.5q0 105 60.5 198t169 150t237.5 57q125 0 207.5 -56t111.5 -150l175 61q-30 143 -163.5 224t-310.5 81q-138 0 -264 -48t-215.5 -128t-142.5 -187t-53 -221
q0 -191 139.5 -305t372.5 -114z" />
    <glyph glyph-name="D.ss07" 
d="M1092 -315q-215 0 -397.5 58t-310 160.5t-199.5 249.5t-72 320q0 165 65 325t186 294t280 236.5t359.5 160t413.5 57.5q163 0 311.5 -34t271 -101.5t212.5 -162t140 -221.5t50 -273q0 -140 -47 -276t-131 -253.5t-205 -217.5t-264 -171t-314 -111t-349 -40zM893 1096
l-170 -963h444q141 0 261.5 48.5t200 129t124.5 184t45 214.5q0 187 -123 287t-352 100h-430zM1182 291h-252q8 41 37 220t82 427h211q78 0 135.5 -11t107.5 -38.5t76.5 -81.5t26.5 -133q0 -163 -119.5 -273t-304.5 -110z" />
    <glyph glyph-name="E.ss07" 
d="M1092 -315q-215 0 -397.5 58t-310 160.5t-199.5 249.5t-72 320q0 165 65 325t186 294t280 236.5t359.5 160t413.5 57.5q163 0 311.5 -34t271 -101.5t212.5 -162t140 -221.5t50 -273q0 -140 -47 -276t-131 -253.5t-205 -217.5t-264 -171t-314 -111t-349 -40zM958 1096
l-170 -963h762l25 158h-582q7 41 22.5 117t26.5 135h541l25 162h-541q5 23 15 79.5t32 153.5h567l25 158h-748z" />
    <glyph glyph-name="F.ss07" horiz-adv-x="2459" 
d="M1092 -315q-215 0 -397.5 58t-310 160.5t-199.5 249.5t-72 320q0 165 65 325t186 294t280 236.5t359.5 160t413.5 57.5q163 0 311.5 -34t271 -101.5t212.5 -162t140 -221.5t50 -273q0 -140 -47 -276t-131 -253.5t-205 -217.5t-264 -171t-314 -111t-349 -40zM983 1096
l-170 -963h182l70 391h526l27 164h-528l49 250h557l24 158h-737z" />
    <glyph glyph-name="G.ss07" horiz-adv-x="2455" 
d="M1092 -315q-215 0 -397.5 58t-310 160.5t-199.5 249.5t-72 320q0 165 65 325t186 294t280 236.5t359.5 160t413.5 57.5q163 0 311.5 -34t271 -101.5t212.5 -162t140 -221.5t50 -273q0 -140 -47 -276t-131 -253.5t-205 -217.5t-264 -171t-314 -111t-349 -40zM1155 113
q137 0 251 44.5t193 131.5l-22 -156h143l88 500h-530l-21 -144h347q-40 -97 -149.5 -157t-248.5 -60q-66 0 -125.5 15t-112 46.5t-83.5 88t-31 131.5q0 105 61 197.5t169 149t237 56.5q121 0 204.5 -53.5t112.5 -152.5l177 61q-30 143 -163.5 224t-310.5 81
q-139 0 -265.5 -48.5t-216 -129t-142.5 -187.5t-53 -221q0 -189 134 -303t357 -114z" />
    <glyph glyph-name="H.ss07" 
d="M1092 -315q-215 0 -397.5 58t-310 160.5t-199.5 249.5t-72 320q0 165 65 325t186 294t280 236.5t359.5 160t413.5 57.5q163 0 311.5 -34t271 -101.5t212.5 -162t140 -221.5t50 -273q0 -140 -47 -276t-131 -253.5t-205 -217.5t-264 -171t-314 -111t-349 -40zM858 1096
l-170 -963h182l70 397h567l-73 -397h182l170 963h-182l-72 -402h-565l73 402h-182z" />
    <glyph glyph-name="I.ss07" 
d="M1092 -315q-215 0 -397.5 58t-310 160.5t-199.5 249.5t-72 320q0 165 65 325t186 294t280 236.5t359.5 160t413.5 57.5q163 0 311.5 -34t271 -101.5t212.5 -162t140 -221.5t50 -273q0 -140 -47 -276t-131 -253.5t-205 -217.5t-264 -171t-314 -111t-349 -40zM1233 1096
l-170 -963h182l170 963h-182z" />
    <glyph glyph-name="J.ss07" 
d="M1092 -315q-215 0 -397.5 58t-310 160.5t-199.5 249.5t-72 320q0 165 65 325t186 294t280 236.5t359.5 160t413.5 57.5q163 0 311.5 -34t271 -101.5t212.5 -162t140 -221.5t50 -273q0 -140 -47 -276t-131 -253.5t-205 -217.5t-264 -171t-314 -111t-349 -40zM1114 123
q73 0 134 17t102 42t74.5 64t52 72t33 77t20 69t10.5 58l105 584h-183l-106 -612q-8 -43 -20.5 -76.5t-37 -66t-66.5 -50.5t-99 -18q-88 0 -141.5 47.5t-33.5 144.5l9 37l-181 -23l-6 -38q-21 -106 21 -182t123.5 -111t189.5 -35z" />
    <glyph glyph-name="K.ss07" horiz-adv-x="2459" 
d="M1092 -315q-215 0 -397.5 58t-310 160.5t-199.5 249.5t-72 320q0 165 65 325t186 294t280 236.5t359.5 160t413.5 57.5q163 0 311.5 -34t271 -101.5t212.5 -162t140 -221.5t50 -273q0 -140 -47 -276t-131 -253.5t-205 -217.5t-264 -171t-314 -111t-349 -40zM922 1096
l-170 -963h182q5 31 18 99t37 206q142 105 146 107q20 -27 73.5 -104t104 -142.5t133.5 -165.5h221q-35 48 -77.5 100t-74 90t-93.5 129t-144 224l539 420h-220q-413 -298 -573 -432l80 432h-182z" />
    <glyph glyph-name="L.ss07" 
d="M1092 -315q-215 0 -397.5 58t-310 160.5t-199.5 249.5t-72 320q0 165 65 325t186 294t280 236.5t359.5 160t413.5 57.5q163 0 311.5 -34t271 -101.5t212.5 -162t140 -221.5t50 -273q0 -140 -47 -276t-131 -253.5t-205 -217.5t-264 -171t-314 -111t-349 -40zM1055 1096
l-170 -963h721l24 158h-540l147 805h-182z" />
    <glyph glyph-name="M.ss07" horiz-adv-x="2459" 
d="M1092 -315q-215 0 -397.5 58t-310 160.5t-199.5 249.5t-72 320q0 165 65 325t186 294t280 236.5t359.5 160t413.5 57.5q163 0 311.5 -34t271 -101.5t212.5 -162t140 -221.5t50 -273q0 -140 -47 -276t-131 -253.5t-205 -217.5t-264 -171t-314 -111t-349 -40zM713 1096
l-170 -963h180l119 629q38 -103 126 -322t119 -307h127q19 26 77 104.5t83 111.5t78.5 102.5t112 143t135.5 167.5l-121 -629h184l170 963h-215q-173 -234 -528 -707q-111 308 -264 707h-213z" />
    <glyph glyph-name="N.ss07" 
d="M1092 -315q-215 0 -397.5 58t-310 160.5t-199.5 249.5t-72 320q0 165 65 325t186 294t280 236.5t359.5 160t413.5 57.5q163 0 311.5 -34t271 -101.5t212.5 -162t140 -221.5t50 -273q0 -140 -47 -276t-131 -253.5t-205 -217.5t-264 -171t-314 -111t-349 -40zM866 1096
l-170 -963h181l122 658q81 -124 235 -343t218 -315h184l170 963h-178l-127 -666q-94 149 -450 666h-185z" />
    <glyph glyph-name="O.ss07" 
d="M1092 -315q-215 0 -397.5 58t-310 160.5t-199.5 249.5t-72 320q0 165 65 325t186 294t280 236.5t359.5 160t413.5 57.5q163 0 311.5 -34t271 -101.5t212.5 -162t140 -221.5t50 -273q0 -140 -47 -276t-131 -253.5t-205 -217.5t-264 -171t-314 -111t-349 -40zM1151 113
q136 0 263 48.5t217.5 128t145 185.5t54.5 217q0 186 -141.5 305t-362.5 119q-134 0 -259.5 -48t-216.5 -127.5t-145.5 -185.5t-54.5 -218q0 -128 66 -225.5t179 -148t255 -50.5zM842 557q0 101 63 193.5t170.5 149t229.5 56.5q146 0 239.5 -79.5t93.5 -204.5
q0 -157 -137.5 -278.5t-322.5 -121.5q-148 0 -242 80t-94 205z" />
    <glyph glyph-name="P.ss07" 
d="M1092 -315q-215 0 -397.5 58t-310 160.5t-199.5 249.5t-72 320q0 165 65 325t186 294t280 236.5t359.5 160t413.5 57.5q163 0 311.5 -34t271 -101.5t212.5 -162t140 -221.5t50 -273q0 -140 -47 -276t-131 -253.5t-205 -217.5t-264 -171t-314 -111t-349 -40zM967 1096
l-170 -963h180l63 346h263q188 0 313 106.5t125 254.5q0 63 -24 110.5t-59 74.5t-84 43.5t-91.5 22t-87.5 5.5h-428zM1286 643h-221l57 295h219q209 0 209 -129q0 -58 -43 -97t-100 -54t-121 -15z" />
    <glyph glyph-name="Q.ss07" 
d="M1092 -315q-215 0 -397.5 58t-310 160.5t-199.5 249.5t-72 320q0 165 65 325t186 294t280 236.5t359.5 160t413.5 57.5q163 0 311.5 -34t271 -101.5t212.5 -162t140 -221.5t50 -273q0 -140 -47 -276t-131 -253.5t-205 -217.5t-264 -171t-314 -111t-349 -40zM1559 55
l145 105q-22 24 -68 77t-57 66q120 82 189 202.5t69 246.5q0 184 -142.5 301.5t-365.5 117.5q-184 0 -342.5 -80.5t-250 -213.5t-91.5 -285q0 -192 142 -308t364 -116q145 0 272 47q110 -128 136 -160zM831 614q0 104 64 196t174.5 147t237.5 55q152 0 247 -78t95 -203
q0 -83 -45 -163.5t-123 -135.5q-16 18 -38.5 40t-47 49t-68.5 79l-143 -100q16 -17 46.5 -51.5t54.5 -61.5t34 -35q-74 -24 -143 -24q-152 0 -248.5 77.5t-96.5 208.5z" />
    <glyph glyph-name="R.ss07" 
d="M1092 -315q-215 0 -397.5 58t-310 160.5t-199.5 249.5t-72 320q0 165 65 325t186 294t280 236.5t359.5 160t413.5 57.5q163 0 311.5 -34t271 -101.5t212.5 -162t140 -221.5t50 -273q0 -140 -47 -276t-131 -253.5t-205 -217.5t-264 -171t-314 -111t-349 -40zM967 1096
l-170 -963h182q10 52 20 113t43 237h179l223 -350h203q-32 52 -105.5 164.5t-126.5 200.5q140 27 233 121t93 217q0 64 -24.5 112.5t-60.5 75.5t-85 44t-90.5 22.5t-83.5 5.5h-430zM1288 635h-225q10 48 61 307h219q89 0 148 -32.5t59 -102.5q0 -76 -72 -124t-190 -48z" />
    <glyph glyph-name="S.ss07" 
d="M1092 -315q-215 0 -397.5 58t-310 160.5t-199.5 249.5t-72 320q0 165 65 325t186 294t280 236.5t359.5 160t413.5 57.5q163 0 311.5 -34t271 -101.5t212.5 -162t140 -221.5t50 -273q0 -140 -47 -276t-131 -253.5t-205 -217.5t-264 -171t-314 -111t-349 -40zM1169 113
q195 0 333 101t138 237q0 43 -18 79t-37.5 56t-62.5 40t-62 26.5t-66 19.5q-5 2 -7.5 2.5t-6 1.5t-6.5 2l-108 31q-100 29 -136 53q-44 31 -45 72q0 50 60.5 86t152.5 36q87 0 142.5 -36.5t70.5 -102.5l172 64q-11 99 -107 167t-249 68q-188 0 -316 -94t-128 -221
q0 -176 274 -246l100 -25q7 -2 28.5 -7.5t29.5 -8t26.5 -8t26.5 -9.5l22 -11t20.5 -13.5t14 -15.5t10.5 -20t3 -23q0 -59 -70.5 -100.5t-173.5 -41.5q-105 0 -170 48.5t-78 140.5l-174 -55q11 -97 70 -164.5t142.5 -98t184.5 -30.5z" />
    <glyph glyph-name="T.ss07" 
d="M1092 -315q-215 0 -397.5 58t-310 160.5t-199.5 249.5t-72 320q0 165 65 325t186 294t280 236.5t359.5 160t413.5 57.5q163 0 311.5 -34t271 -101.5t212.5 -162t140 -221.5t50 -273q0 -140 -47 -276t-131 -253.5t-205 -217.5t-264 -171t-314 -111t-349 -40zM1208 938
l-147 -805h180l145 805h365l25 158h-910l-24 -158h366z" />
    <glyph glyph-name="U.ss07" 
d="M1092 -315q-215 0 -397.5 58t-310 160.5t-199.5 249.5t-72 320q0 165 65 325t186 294t280 236.5t359.5 160t413.5 57.5q163 0 311.5 -34t271 -101.5t212.5 -162t140 -221.5t50 -273q0 -140 -47 -276t-131 -253.5t-205 -217.5t-264 -171t-314 -111t-349 -40zM1147 123
q102 0 186 27.5t136.5 68.5t92 96t58 103.5t27.5 97.5l106 590h-182l-103 -578q-21 -110 -91.5 -177.5t-202.5 -67.5q-57 0 -99 14.5t-64.5 38.5t-36 56t-12.5 66.5t5 69.5l104 578h-180l-107 -590q-11 -45 -8.5 -91.5t12 -90.5t37.5 -82t68.5 -67t105.5 -45.5t148 -16.5z
" />
    <glyph glyph-name="V.ss07" 
d="M1092 -315q-215 0 -397.5 58t-310 160.5t-199.5 249.5t-72 320q0 165 65 325t186 294t280 236.5t359.5 160t413.5 57.5q163 0 311.5 -34t271 -101.5t212.5 -162t140 -221.5t50 -273q0 -140 -47 -276t-131 -253.5t-205 -217.5t-264 -171t-314 -111t-349 -40zM782 1096
l283 -963h201l620 963h-190q-45 -55 -102 -143.5t-166 -259.5t-228 -347q-22 71 -72.5 247t-90 306t-64.5 197h-191z" />
    <glyph glyph-name="W.ss07" 
d="M1092 -315q-215 0 -397.5 58t-310 160.5t-199.5 249.5t-72 320q0 165 65 325t186 294t280 236.5t359.5 160t413.5 57.5q163 0 311.5 -34t271 -101.5t212.5 -162t140 -221.5t50 -273q0 -140 -47 -276t-131 -253.5t-205 -217.5t-264 -171t-314 -111t-349 -40zM492 1096
l182 -963h213q172 287 395 692q67 -368 139 -692h209l522 963h-200q-39 -71 -99.5 -189t-128.5 -242.5t-163 -283.5q-20 106 -68 346t-72 369h-196q-53 -93 -175.5 -315.5t-228.5 -399.5q-13 75 -33 195.5t-41 236.5t-55 283h-200z" />
    <glyph glyph-name="X.ss07" 
d="M1092 -315q-215 0 -397.5 58t-310 160.5t-199.5 249.5t-72 320q0 165 65 325t186 294t280 236.5t359.5 160t413.5 57.5q163 0 311.5 -34t271 -101.5t212.5 -162t140 -221.5t50 -273q0 -140 -47 -276t-131 -253.5t-205 -217.5t-264 -171t-314 -111t-349 -40zM664 131h215
q174 177 348 348q33 -54 103 -170t108 -178h215q-54 85 -151 247t-146 240q78 79 231 238.5t232 239.5h-211q-59 -57 -151.5 -149t-190.5 -189q-33 51 -104.5 164.5t-110.5 173.5h-211q24 -40 124.5 -198.5t170.5 -279.5q-305 -313 -471 -487z" />
    <glyph glyph-name="Y.ss07" 
d="M1092 -315q-215 0 -397.5 58t-310 160.5t-199.5 249.5t-72 320q0 165 65 325t186 294t280 236.5t359.5 160t413.5 57.5q163 0 311.5 -34t271 -101.5t212.5 -162t140 -221.5t50 -273q0 -140 -47 -276t-131 -253.5t-205 -217.5t-264 -171t-314 -111t-349 -40zM1122 471
l-61 -338h180q7 42 17.5 98.5t41.5 239.5q248 295 529 625h-195q-85 -94 -397 -457q-22 45 -55.5 115.5t-69.5 141.5t-104 200h-195q20 -41 82 -170t110.5 -226.5t116.5 -228.5z" />
    <glyph glyph-name="Z.ss07" 
d="M1092 -315q-215 0 -397.5 58t-310 160.5t-199.5 249.5t-72 320q0 165 65 325t186 294t280 236.5t359.5 160t413.5 57.5q163 0 311.5 -34t271 -101.5t212.5 -162t140 -221.5t50 -273q0 -140 -47 -276t-131 -253.5t-205 -217.5t-264 -171t-314 -111t-349 -40zM733 289
l-22 -156h895l24 158h-674q104 86 253.5 210.5t274.5 228t257 210.5l22 156h-860l-24 -158q213 2 630 2q-148 -123 -442.5 -371t-333.5 -280z" />
    <glyph glyph-name="A.ss08" 
d="M1417 1546q163 0 311.5 -34t271 -101.5t212.5 -162t140 -221.5t50 -273q0 -140 -47 -276t-131 -253.5t-205 -217.5t-264 -171t-314 -111t-349 -40q-215 0 -397.5 58t-310 160.5t-199.5 249.5t-72 320q0 165 65 325t186 294t280 236.5t359.5 160t413.5 57.5zM1114 -180
q153 0 300.5 34t271.5 94.5t229.5 145.5t178.5 185.5t114 217t41 236.5q0 206 -114 361.5t-306 236t-432 80.5q-185 0 -359 -49t-312.5 -136.5t-243.5 -202t-161.5 -251.5t-56.5 -278q0 -197 107 -350.5t300.5 -238.5t442.5 -85zM815 299l418 631h129l190 -631h-129
q-4 14 -59 182h-297q-36 -50 -72.5 -103.5t-54.5 -78.5h-125zM1126 582h213q-43 117 -65 206q-21 -30 -72 -100.5t-76 -105.5z" />
    <glyph glyph-name="B.ss08" 
d="M1419 1546q163 0 311.5 -34t271 -101.5t212.5 -162t140 -221.5t50 -273q0 -140 -47 -276t-131 -253.5t-205 -217.5t-264 -171t-314 -111t-349 -40q-215 0 -397.5 58t-310 160.5t-199.5 249.5t-72 320q0 165 65 325t186 294t280 236.5t359.5 160t413.5 57.5zM1116 -180
q153 0 300.5 34t271.5 94.5t229.5 145.5t178.5 185.5t114 217t41 236.5q0 206 -114 361.5t-306 236t-432 80.5q-185 0 -359 -49t-312.5 -136.5t-243.5 -202t-161.5 -251.5t-56.5 -278q0 -197 107 -350.5t300.5 -238.5t442.5 -85zM1540 788q0 -53 -37 -98t-98 -67
q53 -15 82 -48t29 -79q0 -81 -82 -139t-205 -58h-320l115 631h299q97 0 157 -39t60 -103zM1247 666q73 0 118.5 25.5t45.5 64.5q0 33 -35.5 51t-97.5 18h-150q-4 -21 -11 -56.5t-21 -102.5h151zM1221 403q68 0 116.5 24t48.5 67q0 35 -37 55t-100 20h-168q-6 -29 -15.5 -77
t-18.5 -89h174z" />
    <glyph glyph-name="C.ss08" 
d="M1092 -315q-215 0 -397.5 58t-310 160.5t-199.5 249.5t-72 320q0 165 65 325t186 294t280 236.5t359.5 160t413.5 57.5q163 0 311.5 -34t271 -101.5t212.5 -162t140 -221.5t50 -273q0 -140 -47 -276t-131 -253.5t-205 -217.5t-264 -171t-314 -111t-349 -40zM1114 -180
q153 0 300.5 34t271.5 94.5t229.5 145.5t178.5 185.5t114 217t41 236.5q0 206 -114 361.5t-306 236t-432 80.5q-185 0 -359 -49t-312.5 -136.5t-243.5 -202t-161.5 -251.5t-56.5 -278q0 -197 107 -350.5t300.5 -238.5t442.5 -85zM1194 287q-154 0 -247 75t-93 201
q0 98 59 185t164.5 140.5t229.5 53.5q125 0 210.5 -54.5t104.5 -146.5l-117 -41q-19 66 -76 102t-139 36q-128 0 -218.5 -80t-90.5 -185q0 -63 35.5 -105.5t86.5 -59.5t114 -17q94 0 169.5 43.5t116.5 122.5l107 -37q-59 -110 -168 -171.5t-248 -61.5z" />
    <glyph glyph-name="D.ss08" 
d="M1094 -315q-216 0 -398.5 58t-310.5 160.5t-200 249.5t-72 320q0 165 65 325t186 294t280.5 236.5t360.5 160t414 57.5q205 0 383.5 -54.5t312 -154t210.5 -250.5t77 -333q0 -140 -47 -276t-131 -253.5t-204.5 -217.5t-263.5 -171t-313.5 -111t-348.5 -40zM1114 -180
q154 0 301.5 34t272 94.5t230 145.5t178.5 185.5t114 217t41 236.5q0 155 -66.5 283.5t-181.5 214.5t-270.5 133t-333.5 47q-185 0 -359 -49t-313 -136.5t-244 -202t-162 -251.5t-57 -278q0 -197 107 -350.5t301 -238.5t442 -85zM1192 299h-297l115 631h286q152 0 234 -65.5
t82 -188.5q0 -153 -120 -265t-300 -112zM1032 403h170q124 0 203.5 72t79.5 178q0 97 -60 134.5t-170 37.5h-141q-10 -51 -21.5 -101t-24 -115.5t-36.5 -205.5z" />
    <glyph glyph-name="E.ss08" 
d="M1092 -315q-215 0 -397.5 58t-310 160.5t-199.5 249.5t-72 320q0 165 65 325t186 294t280 236.5t359.5 160t413.5 57.5q163 0 311.5 -34t271 -101.5t212.5 -162t140 -221.5t50 -273q0 -140 -47 -276t-131 -253.5t-205 -217.5t-264 -171t-314 -111t-349 -40zM1114 -180
q153 0 300.5 34t271.5 94.5t229.5 145.5t178.5 185.5t114 217t41 236.5q0 206 -114 361.5t-306 236t-432 80.5q-185 0 -359 -49t-312.5 -136.5t-243.5 -202t-161.5 -251.5t-56.5 -278q0 -197 107 -350.5t300.5 -238.5t442.5 -85zM1448 299h-510l115 631h503l-18 -105h-383
q-26 -131 -29 -149h361l-17 -109h-362q-7 -34 -33 -161h391z" />
    <glyph glyph-name="F.ss08" 
d="M1092 -315q-215 0 -397.5 58t-310 160.5t-199.5 249.5t-72 320q0 165 65 325t186 294t280 236.5t359.5 160t413.5 57.5q163 0 311.5 -34t271 -101.5t212.5 -162t140 -221.5t50 -273q0 -140 -47 -276t-131 -253.5t-205 -217.5t-264 -171t-314 -111t-349 -40zM1114 -180
q153 0 300.5 34t271.5 94.5t229.5 145.5t178.5 185.5t114 217t41 236.5q0 206 -114 361.5t-306 236t-432 80.5q-185 0 -359 -49t-312.5 -136.5t-243.5 -202t-161.5 -251.5t-56.5 -278q0 -197 107 -350.5t300.5 -238.5t442.5 -85zM1075 299h-121l115 631h494l-19 -105h-373
l-30 -161h352l-16 -107h-355z" />
    <glyph glyph-name="G.ss08" 
d="M1417 1546q163 0 311.5 -34t271 -101.5t212.5 -162t140 -221.5t50 -273q0 -140 -47 -276t-131 -253.5t-205 -217.5t-264 -171t-314 -111t-349 -40q-215 0 -397.5 58t-310 160.5t-199.5 249.5t-72 320q0 165 65 325t186 294t280 236.5t359.5 160t413.5 57.5zM1114 -180
q153 0 300.5 34t271.5 94.5t229.5 145.5t178.5 185.5t114 217t41 236.5q0 206 -114 361.5t-306 236t-432 80.5q-185 0 -359 -49t-312.5 -136.5t-243.5 -202t-161.5 -251.5t-56.5 -278q0 -197 107 -350.5t300.5 -238.5t442.5 -85zM1292 838q-128 0 -218.5 -79.5t-90.5 -185.5
q0 -49 20 -86t54 -57t73.5 -29.5t83.5 -9.5q95 0 168 39t101 102h-234l15 95h354l-57 -328h-99l15 98q-110 -110 -295 -110q-148 0 -238 75t-90 199q0 153 132.5 267t320.5 114q125 0 211.5 -54.5t103.5 -146.5l-115 -41q-21 68 -78 103t-137 35z" />
    <glyph glyph-name="H.ss08" 
d="M1417 1546q163 0 311.5 -34t271 -101.5t212.5 -162t140 -221.5t50 -273q0 -140 -47 -276t-131 -253.5t-205 -217.5t-264 -171t-314 -111t-349 -40q-215 0 -397.5 58t-310 160.5t-199.5 249.5t-72 320q0 165 65 325t186 294t280 236.5t359.5 160t413.5 57.5zM1114 -180
q153 0 300.5 34t271.5 94.5t229.5 145.5t178.5 185.5t114 217t41 236.5q0 206 -114 361.5t-306 236t-432 80.5q-185 0 -359 -49t-312.5 -136.5t-243.5 -202t-161.5 -251.5t-56.5 -278q0 -197 107 -350.5t300.5 -238.5t442.5 -85zM1061 668h375l47 262h121l-113 -631h-123
l47 260h-375l-47 -260h-121l115 631h121z" />
    <glyph glyph-name="I.ss08" horiz-adv-x="2459" 
d="M1094 -315q-216 0 -398.5 58t-310 160.5t-199 249.5t-71.5 320q0 165 65 325t185.5 294t279.5 236.5t360 160t414 57.5q205 0 383.5 -54.5t312 -154t210.5 -250.5t77 -333q0 -140 -46.5 -276t-130.5 -253.5t-204.5 -217.5t-263.5 -171t-314 -111t-349 -40zM1116 -180
q153 0 300.5 34t271.5 94.5t229.5 145.5t178.5 185.5t114 217t41 236.5q0 206 -114 361.5t-306 236t-432 80.5q-185 0 -359 -49t-312.5 -136.5t-243.5 -202t-161.5 -251.5t-56.5 -278q0 -197 107 -350.5t300.5 -238.5t442.5 -85zM1243 299h-123l115 631h121z" />
    <glyph glyph-name="J.ss08" 
d="M1092 -315q-215 0 -397.5 58t-310 160.5t-199.5 249.5t-72 320q0 165 65 325t186 294t280 236.5t359.5 160t413.5 57.5q163 0 311.5 -34t271 -101.5t212.5 -162t140 -221.5t50 -273q0 -140 -47 -276t-131 -253.5t-205 -217.5t-264 -171t-314 -111t-349 -40zM1114 -180
q153 0 300.5 34t271.5 94.5t229.5 145.5t178.5 185.5t114 217t41 236.5q0 206 -114 361.5t-306 236t-432 80.5q-185 0 -359 -49t-312.5 -136.5t-243.5 -202t-161.5 -251.5t-56.5 -278q0 -197 107 -350.5t300.5 -238.5t442.5 -85zM1155 293q-120 0 -179 57.5t-44 157.5l4 27
l121 14l-4 -27q-11 -58 18.5 -91.5t93.5 -33.5q41 0 70.5 14t45 39t22.5 43.5t12 43.5l71 399h121l-69 -383q-5 -25 -8 -38t-13 -44.5t-22 -51t-34 -46t-49 -42t-67.5 -27t-89.5 -11.5z" />
    <glyph glyph-name="K.ss08" 
d="M1417 1546q163 0 311.5 -34t271 -101.5t212.5 -162t140 -221.5t50 -273q0 -140 -47 -276t-131 -253.5t-205 -217.5t-264 -171t-314 -111t-349 -40q-215 0 -397.5 58t-310 160.5t-199.5 249.5t-72 320q0 165 65 325t186 294t280 236.5t359.5 160t413.5 57.5zM1114 -180
q153 0 300.5 34t271.5 94.5t229.5 145.5t178.5 185.5t114 217t41 236.5q0 206 -114 361.5t-306 236t-432 80.5q-185 0 -359 -49t-312.5 -136.5t-243.5 -202t-161.5 -251.5t-56.5 -278q0 -197 107 -350.5t300.5 -238.5t442.5 -85zM1483 930h145q-29 -22 -124.5 -92.5
t-153 -115t-82.5 -69.5q28 -39 115.5 -156.5t142.5 -197.5h-148q-23 30 -46 66.5t-57.5 81t-103.5 122.5q-75 -52 -96 -69q-6 -44 -37 -201h-120l114 631h121q-45 -235 -53 -281q60 43 174.5 128t208.5 153z" />
    <glyph glyph-name="L.ss08" 
d="M1417 1546q163 0 311.5 -34t271 -101.5t212.5 -162t140 -221.5t50 -273q0 -140 -47 -276t-131 -253.5t-205 -217.5t-264 -171t-314 -111t-349 -40q-215 0 -397.5 58t-310 160.5t-199.5 249.5t-72 320q0 165 65 325t186 294t280 236.5t359.5 160t413.5 57.5zM1114 -180
q153 0 300.5 34t271.5 94.5t229.5 145.5t178.5 185.5t114 217t41 236.5q0 206 -114 361.5t-306 236t-432 80.5q-185 0 -359 -49t-312.5 -136.5t-243.5 -202t-161.5 -251.5t-56.5 -278q0 -197 107 -350.5t300.5 -238.5t442.5 -85zM1116 930h121l-96 -524h360l-16 -107h-484z
" />
    <glyph glyph-name="M.ss08" horiz-adv-x="2459" 
d="M1417 1546q163 0 311.5 -34t271 -101.5t212.5 -162t140 -221.5t50 -273q0 -140 -47 -276t-131 -253.5t-205 -217.5t-264 -171t-314 -111t-349 -40q-215 0 -397.5 58t-310 160.5t-199.5 249.5t-72 320q0 165 65 325t186 294t280 236.5t359.5 160t413.5 57.5zM1114 -180
q153 0 300.5 34t271.5 94.5t229.5 145.5t178.5 185.5t114 217t41 236.5q0 206 -114 361.5t-306 236t-432 80.5q-185 0 -359 -49t-312.5 -136.5t-243.5 -202t-161.5 -251.5t-56.5 -278q0 -197 107 -350.5t300.5 -238.5t442.5 -85zM1208 469q40 51 132.5 166.5t148 188
t74.5 106.5h141l-115 -631h-123q10 53 24 117.5t25.5 126.5t28.5 166q-51 -67 -159.5 -204.5t-159.5 -205.5h-84q-48 123 -164 410q-5 -28 -20 -108t-58 -302h-123l115 631h141q119 -303 176 -461z" />
    <glyph glyph-name="N.ss08" 
d="M1417 1546q163 0 311.5 -34t271 -101.5t212.5 -162t140 -221.5t50 -273q0 -140 -47 -276t-131 -253.5t-205 -217.5t-264 -171t-314 -111t-349 -40q-215 0 -397.5 58t-310 160.5t-199.5 249.5t-72 320q0 165 65 325t186 294t280 236.5t359.5 160t413.5 57.5zM1114 -180
q153 0 300.5 34t271.5 94.5t229.5 145.5t178.5 185.5t114 217t41 236.5q0 206 -114 361.5t-306 236t-432 80.5q-185 0 -359 -49t-312.5 -136.5t-243.5 -202t-161.5 -251.5t-56.5 -278q0 -197 107 -350.5t300.5 -238.5t442.5 -85zM1415 494q40 182 84 436h121l-115 -631h-123
q-40 58 -142.5 202t-160.5 230q-5 -26 -16 -71t-24.5 -120t-41.5 -241h-120l114 631h123q37 -54 142.5 -205.5t158.5 -230.5z" />
    <glyph glyph-name="O.ss08" 
d="M1092 -315q-215 0 -397.5 58t-310 160.5t-199.5 249.5t-72 320q0 165 65 325t186 294t280 236.5t359.5 160t413.5 57.5q163 0 311.5 -34t271 -101.5t212.5 -162t140 -221.5t50 -273q0 -140 -47 -276t-131 -253.5t-205 -217.5t-264 -171t-314 -111t-349 -40zM1114 -180
q153 0 300.5 34t271.5 94.5t229.5 145.5t178.5 185.5t114 217t41 236.5q0 206 -114 361.5t-306 236t-432 80.5q-185 0 -359 -49t-312.5 -136.5t-243.5 -202t-161.5 -251.5t-56.5 -278q0 -197 107 -350.5t300.5 -238.5t442.5 -85zM1180 287q-148 0 -241 77t-93 199
q0 150 134 264.5t320 114.5q146 0 240 -77.5t94 -198.5q0 -98 -61 -185.5t-166.5 -140.5t-226.5 -53zM1198 391q122 0 214.5 79t92.5 181q0 82 -62 134.5t-159 52.5q-123 0 -217 -79t-94 -181q0 -82 63.5 -134.5t161.5 -52.5z" />
    <glyph glyph-name="P.ss08" horiz-adv-x="2459" 
d="M1417 1546q163 0 311.5 -34t271 -101.5t212.5 -162t140 -221.5t50 -273q0 -140 -47 -276t-131 -253.5t-205 -217.5t-264 -171t-314 -111t-349 -40q-215 0 -397.5 58t-310 160.5t-199.5 249.5t-72 320q0 165 65 325t186 294t280 236.5t359.5 160t413.5 57.5zM1114 -180
q153 0 300.5 34t271.5 94.5t229.5 145.5t178.5 185.5t114 217t41 236.5q0 206 -114 361.5t-306 236t-432 80.5q-185 0 -359 -49t-312.5 -136.5t-243.5 -202t-161.5 -251.5t-56.5 -278q0 -197 107 -350.5t300.5 -238.5t442.5 -85zM1057 930h286q31 0 59.5 -3.5t61.5 -14.5
t56.5 -29t39 -49t15.5 -72q0 -97 -85.5 -166.5t-209.5 -69.5h-174l-41 -227h-123zM1124 633h150q74 0 123 28.5t49 79.5q0 84 -137 84h-148z" />
    <glyph glyph-name="Q.ss08" 
d="M1092 -315q-215 0 -397.5 58t-310 160.5t-199.5 249.5t-72 320q0 165 65 325t186 294t280 236.5t359.5 160t413.5 57.5q163 0 311.5 -34t271 -101.5t212.5 -162t140 -221.5t50 -273q0 -140 -47 -276t-131 -253.5t-205 -217.5t-264 -171t-314 -111t-349 -40zM1114 -180
q153 0 300.5 34t271.5 94.5t229.5 145.5t178.5 185.5t114 217t41 236.5q0 206 -114 361.5t-306 236t-432 80.5q-185 0 -359 -49t-312.5 -136.5t-243.5 -202t-161.5 -251.5t-56.5 -278q0 -197 107 -350.5t300.5 -238.5t442.5 -85zM1548 315l-96 -67q-16 19 -44.5 50.5
t-45.5 51.5q-92 -28 -182 -28q-151 0 -245.5 77.5t-94.5 200.5q0 72 36 141t97 121t146.5 83.5t178.5 31.5q149 0 244.5 -77.5t95.5 -197.5q0 -82 -45.5 -159.5t-126.5 -132.5q73 -83 82 -95zM1198 426q48 0 92 18q-17 19 -49.5 53t-40.5 42l96 67q6 -6 41.5 -42.5
t63.5 -67.5q51 36 80.5 86.5t29.5 105.5q0 80 -63 132t-164 52q-127 0 -222 -77.5t-95 -180.5q0 -85 63.5 -136.5t167.5 -51.5z" />
    <glyph glyph-name="R.ss08" 
d="M1417 1546q163 0 311.5 -34t271 -101.5t212.5 -162t140 -221.5t50 -273q0 -140 -47 -276t-131 -253.5t-205 -217.5t-264 -171t-314 -111t-349 -40q-215 0 -397.5 58t-310 160.5t-199.5 249.5t-72 320q0 165 65 325t186 294t280 236.5t359.5 160t413.5 57.5zM1114 -180
q153 0 300.5 34t271.5 94.5t229.5 145.5t178.5 185.5t114 217t41 236.5q0 206 -114 361.5t-306 236t-432 80.5q-185 0 -359 -49t-312.5 -136.5t-243.5 -202t-161.5 -251.5t-56.5 -278q0 -197 107 -350.5t300.5 -238.5t442.5 -85zM1573 760q0 -76 -60.5 -138.5t-154.5 -82.5
q107 -161 155 -240h-139l-147 229h-121q-2 -12 -43 -229h-121l115 631h286q37 0 72 -6.5t73.5 -23.5t61.5 -53t23 -87zM1272 629q77 0 124.5 31.5t47.5 78.5q0 88 -137 88h-148q-7 -37 -19.5 -103.5t-17.5 -94.5h150z" />
    <glyph glyph-name="S.ss08" 
d="M1092 -315q-215 0 -397.5 58t-310 160.5t-199.5 249.5t-72 320q0 165 65 325t186 294t280 236.5t359.5 160t413.5 57.5q163 0 311.5 -34t271 -101.5t212.5 -162t140 -221.5t50 -273q0 -140 -47 -276t-131 -253.5t-205 -217.5t-264 -171t-314 -111t-349 -40zM1114 -180
q153 0 300.5 34t271.5 94.5t229.5 145.5t178.5 185.5t114 217t41 236.5q0 206 -114 361.5t-306 236t-432 80.5q-185 0 -359 -49t-312.5 -136.5t-243.5 -202t-161.5 -251.5t-56.5 -278q0 -197 107 -350.5t300.5 -238.5t442.5 -85zM1192 287q-112 0 -184 50.5t-82 141.5
l118 37q8 -59 52 -92t114 -33q68 0 114 27.5t46 64.5q0 10 -3 18.5t-11 15t-14 11t-20 9.5t-21 7t-25.5 6.5t-24.5 6.5l-67 18q-183 45 -183 160q0 84 85.5 145.5t207.5 61.5q100 0 167.5 -43.5t76.5 -112.5l-117 -43q-10 48 -49 71.5t-96 23.5q-59 0 -99 -23t-40 -57
q0 -51 118 -82l72 -21q27 -7 32 -8.5t32 -10t36.5 -14.5t29 -18.5t27.5 -25t15.5 -31.5t7.5 -41q0 -88 -92.5 -153.5t-222.5 -65.5z" />
    <glyph glyph-name="T.ss08" 
d="M1094 -315q-216 0 -398.5 58t-310.5 160.5t-200 249.5t-72 320q0 165 65 325t186 294t280.5 236.5t360.5 160t414 57.5q205 0 383.5 -54.5t312 -154t210.5 -250.5t77 -333q0 -140 -47 -276t-131 -253.5t-204.5 -217.5t-263.5 -171t-313.5 -111t-348.5 -40zM1114 -180
q154 0 301.5 34t272 94.5t230 145.5t178.5 185.5t114 217t41 236.5q0 155 -66.5 283.5t-181.5 214.5t-270.5 133t-333.5 47q-185 0 -359 -49t-313 -136.5t-244 -202t-162 -251.5t-57 -278q0 -197 107 -350.5t301 -238.5t442 -85zM1239 299h-119q9 48 13.5 73.5t9.5 51
t24.5 131t49.5 270.5h-242l16 105h606l-18 -105h-242q-51 -262 -98 -526z" />
    <glyph glyph-name="U.ss08" horiz-adv-x="2459" 
d="M1092 -315q-215 0 -397.5 58t-310 160.5t-199.5 249.5t-72 320q0 165 65 325t186 294t280 236.5t359.5 160t413.5 57.5q163 0 311.5 -34t271 -101.5t212.5 -162t140 -221.5t50 -273q0 -140 -47 -276t-131 -253.5t-205 -217.5t-264 -171t-314 -111t-349 -40zM1114 -180
q153 0 300.5 34t271.5 94.5t229.5 145.5t178.5 185.5t114 217t41 236.5q0 206 -114 361.5t-306 236t-432 80.5q-185 0 -359 -49t-312.5 -136.5t-243.5 -202t-161.5 -251.5t-56.5 -278q0 -197 107 -350.5t300.5 -238.5t442.5 -85zM1178 293q-65 0 -113.5 15.5t-74 41
t-41.5 59t-15.5 69t4.5 71.5l70 387h122l-71 -381q-13 -72 19 -115t120 -43q87 0 134.5 43.5t60.5 114.5l69 381h121l-72 -387q-8 -48 -30 -91t-60.5 -81.5t-101 -61t-141.5 -22.5z" />
    <glyph glyph-name="V.ss08" 
d="M1417 1546q163 0 311.5 -34t271 -101.5t212.5 -162t140 -221.5t50 -273q0 -140 -47 -276t-131 -253.5t-205 -217.5t-264 -171t-314 -111t-349 -40q-215 0 -397.5 58t-310 160.5t-199.5 249.5t-72 320q0 165 65 325t186 294t280 236.5t359.5 160t413.5 57.5zM1114 -180
q153 0 300.5 34t271.5 94.5t229.5 145.5t178.5 185.5t114 217t41 236.5q0 206 -114 361.5t-306 236t-432 80.5q-185 0 -359 -49t-312.5 -136.5t-243.5 -202t-161.5 -251.5t-56.5 -278q0 -197 107 -350.5t300.5 -238.5t442.5 -85zM1214 438q210 351 330 492h127l-416 -631
h-131l-190 631h127q13 -28 37 -107.5t57.5 -194t58.5 -190.5z" />
    <glyph glyph-name="W.ss08" 
d="M1417 1546q163 0 311.5 -34t271 -101.5t212.5 -162t140 -221.5t50 -273q0 -140 -47 -276t-131 -253.5t-205 -217.5t-264 -171t-314 -111t-349 -40q-215 0 -397.5 58t-310 160.5t-199.5 249.5t-72 320q0 165 65 325t186 294t280 236.5t359.5 160t413.5 57.5zM1114 -180
q153 0 300.5 34t271.5 94.5t229.5 145.5t178.5 185.5t114 217t41 236.5q0 206 -114 361.5t-306 236t-432 80.5q-185 0 -359 -49t-312.5 -136.5t-243.5 -202t-161.5 -251.5t-56.5 -278q0 -197 107 -350.5t300.5 -238.5t442.5 -85zM1452 463q100 175 264 467h131l-352 -631
h-137q-32 147 -92 451q-11 -20 -42 -77t-41.5 -76t-36.5 -64.5t-43 -74t-43.5 -71.5t-55.5 -88h-142l-121 631h136q9 -52 38.5 -211t45.5 -254q14 24 116.5 203t153.5 262h127q82 -404 94 -467z" />
    <glyph glyph-name="X.ss08" horiz-adv-x="2455" 
d="M1417 1546q163 0 311.5 -34t271 -101.5t212.5 -162t140 -221.5t50 -273q0 -140 -47 -276t-131 -253.5t-205 -217.5t-264 -171t-314 -111t-349 -40q-215 0 -397.5 58t-310 160.5t-199.5 249.5t-72 320q0 165 65 325t186 294t280 236.5t359.5 160t413.5 57.5zM1114 -180
q153 0 300.5 34t271.5 94.5t229.5 145.5t178.5 185.5t114 217t41 236.5q0 206 -114 361.5t-306 236t-432 80.5q-185 0 -359 -49t-312.5 -136.5t-243.5 -202t-161.5 -251.5t-56.5 -278q0 -197 107 -350.5t300.5 -238.5t442.5 -85zM1487 930h141q-37 -37 -75.5 -83
t-89.5 -96.5t-148 -132.5q36 -55 102 -161t99 -158h-144q-87 135 -143 229q-16 -15 -93 -91.5t-141 -137.5h-143q46 46 143 146t174 173q-46 71 -196 312h139q44 -63 145 -221q23 22 59.5 60t74.5 74.5t96 86.5z" />
    <glyph glyph-name="Y.ss08" 
d="M1417 1546q163 0 311.5 -34t271 -101.5t212.5 -162t140 -221.5t50 -273q0 -140 -47 -276t-131 -253.5t-205 -217.5t-264 -171t-314 -111t-349 -40q-215 0 -397.5 58t-310 160.5t-199.5 249.5t-72 320q0 165 65 325t186 294t280 236.5t359.5 160t413.5 57.5zM1114 -180
q153 0 300.5 34t271.5 94.5t229.5 145.5t178.5 185.5t114 217t41 236.5q0 206 -114 361.5t-306 236t-432 80.5q-185 0 -359 -49t-312.5 -136.5t-243.5 -202t-161.5 -251.5t-56.5 -278q0 -197 107 -350.5t300.5 -238.5t442.5 -85zM1237 629q26 31 70 89t88 107.5t108 104.5
h131q-44 -50 -89 -112t-102.5 -128t-164.5 -168q-4 -22 -15 -87.5t-24 -135.5h-121q28 155 41 223q-18 34 -71 152t-136 256h133q15 -29 66 -134.5t86 -166.5z" />
    <glyph glyph-name="Z.ss08" horiz-adv-x="2455" 
d="M1417 1546q163 0 311.5 -34t271 -101.5t212.5 -162t140 -221.5t50 -273q0 -140 -47 -276t-131 -253.5t-205 -217.5t-264 -171t-314 -111t-349 -40q-215 0 -397.5 58t-310 160.5t-199.5 249.5t-72 320q0 165 65 325t186 294t280 236.5t359.5 160t413.5 57.5zM1114 -180
q153 0 300.5 34t271.5 94.5t229.5 145.5t178.5 185.5t114 217t41 236.5q0 206 -114 361.5t-306 236t-432 80.5q-185 0 -359 -49t-312.5 -136.5t-243.5 -202t-161.5 -251.5t-56.5 -278q0 -197 107 -350.5t300.5 -238.5t442.5 -85zM1001 825l17 105h575l-14 -101
q-45 -37 -148.5 -122.5t-371.5 -300.5h446l-18 -107h-598l16 100q180 152 518 428q-141 -2 -422 -2z" />
    <glyph glyph-name="i.loclTRK" horiz-adv-x="641" 
d="M461 1333q-66 0 -109 38.5t-43 98.5q0 72 60.5 126.5t142.5 54.5q66 0 109 -38t43 -95q0 -72 -62 -128.5t-141 -56.5zM348 0h-256l203 1139h254z" />
    <glyph glyph-name="a.ss01" horiz-adv-x="1640" 
d="M614 -33q-244 0 -387 135t-143 355q0 139 59 269.5t157.5 228.5t237 157t289.5 59q152 0 265 -56t165 -152h5l34 176h252l-196 -1139h-248l35 170h-6q-94 -102 -232 -152.5t-287 -50.5zM705 197q133 0 247.5 62t181 164t66.5 216q0 136 -98.5 219.5t-257.5 83.5
q-103 0 -195 -38t-155.5 -99.5t-100.5 -141t-37 -161.5q0 -138 96 -221.5t253 -83.5z" />
    <glyph glyph-name="aacute.ss01" horiz-adv-x="1640" 
d="M1487 1661l-440 -383h-224l348 383h316zM614 -33q-244 0 -387 135t-143 355q0 139 59 269.5t157.5 228.5t237 157t289.5 59q152 0 265 -56t165 -152h5l34 176h252l-196 -1139h-248l35 170h-6q-94 -102 -232 -152.5t-287 -50.5zM705 197q133 0 247.5 62t181 164t66.5 216
q0 136 -98.5 219.5t-257.5 83.5q-103 0 -195 -38t-155.5 -99.5t-100.5 -141t-37 -161.5q0 -138 96 -221.5t253 -83.5z" />
    <glyph glyph-name="abreve.ss01" horiz-adv-x="1640" 
d="M952 1270q-206 0 -309.5 109.5t-79.5 285.5h215q-15 -93 40 -155t165 -62t189.5 61.5t101.5 155.5h215q-39 -180 -187 -287.5t-350 -107.5zM614 -33q-244 0 -387 135t-143 355q0 139 59 269.5t157.5 228.5t237 157t289.5 59q152 0 265 -56t165 -152h5l34 176h252
l-196 -1139h-248l35 170h-6q-94 -102 -232 -152.5t-287 -50.5zM705 197q133 0 247.5 62t181 164t66.5 216q0 136 -98.5 219.5t-257.5 83.5q-103 0 -195 -38t-155.5 -99.5t-100.5 -141t-37 -161.5q0 -138 96 -221.5t253 -83.5z" />
    <glyph glyph-name="acircumflex.ss01" horiz-adv-x="1640" 
d="M696 1278h-241l419 367h283l293 -367h-242q-10 11 -78.5 73t-134.5 144q-36 -28 -121.5 -84t-177.5 -133zM614 -33q-244 0 -387 135t-143 355q0 139 59 269.5t157.5 228.5t237 157t289.5 59q152 0 265 -56t165 -152h5l34 176h252l-196 -1139h-248l35 170h-6
q-94 -102 -232 -152.5t-287 -50.5zM705 197q133 0 247.5 62t181 164t66.5 216q0 136 -98.5 219.5t-257.5 83.5q-103 0 -195 -38t-155.5 -99.5t-100.5 -141t-37 -161.5q0 -138 96 -221.5t253 -83.5z" />
    <glyph glyph-name="adieresis.ss01" horiz-adv-x="1640" 
d="M715 1321q-60 0 -98.5 36.5t-38.5 90.5q0 64 55.5 114t128.5 50q60 0 99.5 -35t39.5 -88q0 -65 -56 -116.5t-130 -51.5zM1214 1321q-61 0 -100 36t-39 89q0 68 55.5 117t129.5 49q59 0 99 -35.5t40 -87.5q0 -64 -56 -116t-129 -52zM614 -33q-244 0 -387 135t-143 355
q0 139 59 269.5t157.5 228.5t237 157t289.5 59q152 0 265 -56t165 -152h5l34 176h252l-196 -1139h-248l35 170h-6q-94 -102 -232 -152.5t-287 -50.5zM705 197q133 0 247.5 62t181 164t66.5 216q0 136 -98.5 219.5t-257.5 83.5q-103 0 -195 -38t-155.5 -99.5t-100.5 -141
t-37 -161.5q0 -138 96 -221.5t253 -83.5z" />
    <glyph glyph-name="agrave.ss01" horiz-adv-x="1640" 
d="M1075 1278h-223l-305 383h315zM614 -33q-244 0 -387 135t-143 355q0 139 59 269.5t157.5 228.5t237 157t289.5 59q152 0 265 -56t165 -152h5l34 176h252l-196 -1139h-248l35 170h-6q-94 -102 -232 -152.5t-287 -50.5zM705 197q133 0 247.5 62t181 164t66.5 216
q0 136 -98.5 219.5t-257.5 83.5q-103 0 -195 -38t-155.5 -99.5t-100.5 -141t-37 -161.5q0 -138 96 -221.5t253 -83.5z" />
    <glyph glyph-name="amacron.ss01" horiz-adv-x="1640" 
d="M1384 1356h-825l27 176h825zM614 -33q-244 0 -387 135t-143 355q0 139 59 269.5t157.5 228.5t237 157t289.5 59q152 0 265 -56t165 -152h5l34 176h252l-196 -1139h-248l35 170h-6q-94 -102 -232 -152.5t-287 -50.5zM705 197q133 0 247.5 62t181 164t66.5 216
q0 136 -98.5 219.5t-257.5 83.5q-103 0 -195 -38t-155.5 -99.5t-100.5 -141t-37 -161.5q0 -138 96 -221.5t253 -83.5z" />
    <glyph glyph-name="aogonek.ss01" horiz-adv-x="1640" 
d="M1352 0h-66q-102 -25 -167.5 -78.5t-65.5 -114.5q0 -47 45 -75.5t116 -28.5q55 0 115 16l-29 -168q-63 -14 -129 -14q-144 0 -227.5 54.5t-83.5 148.5q0 87 73 156t173 104h-2l35 170h-6q-94 -102 -232 -152.5t-287 -50.5q-244 0 -387 135t-143 355q0 139 59 269.5
t157.5 228.5t237 157t289.5 59q152 0 265 -56t165 -152h5l34 176h252zM705 197q133 0 247.5 62t181 164t66.5 216q0 136 -98.5 219.5t-257.5 83.5q-103 0 -195 -38t-155.5 -99.5t-100.5 -141t-37 -161.5q0 -138 96 -221.5t253 -83.5z" />
    <glyph glyph-name="aring.ss01" horiz-adv-x="1640" 
d="M950 1253q-112 0 -184 58t-72 149q0 108 100 190.5t238 82.5q112 0 183 -58t71 -149q0 -109 -99 -191t-237 -82zM971 1393q62 0 106.5 35t44.5 81q0 36 -32 59t-82 23q-61 0 -105.5 -34t-44.5 -80q0 -38 31.5 -61t81.5 -23zM614 -33q-244 0 -387 135t-143 355
q0 139 59 269.5t157.5 228.5t237 157t289.5 59q152 0 265 -56t165 -152h5l34 176h252l-196 -1139h-248l35 170h-6q-94 -102 -232 -152.5t-287 -50.5zM705 197q133 0 247.5 62t181 164t66.5 216q0 136 -98.5 219.5t-257.5 83.5q-103 0 -195 -38t-155.5 -99.5t-100.5 -141
t-37 -161.5q0 -138 96 -221.5t253 -83.5z" />
    <glyph glyph-name="atilde.ss01" horiz-adv-x="1640" 
d="M1147 1296q-94 0 -170 54l-53 36q-54 39 -101 39q-49 0 -83.5 -31.5t-45.5 -80.5h-184q23 134 117.5 216.5t218.5 82.5q91 0 168 -56l51 -34q50 -35 98 -35q45 0 76.5 30t40.5 80h186q-23 -144 -107 -222.5t-212 -78.5zM614 -33q-244 0 -387 135t-143 355q0 139 59 269.5
t157.5 228.5t237 157t289.5 59q152 0 265 -56t165 -152h5l34 176h252l-196 -1139h-248l35 170h-6q-94 -102 -232 -152.5t-287 -50.5zM705 197q133 0 247.5 62t181 164t66.5 216q0 136 -98.5 219.5t-257.5 83.5q-103 0 -195 -38t-155.5 -99.5t-100.5 -141t-37 -161.5
q0 -138 96 -221.5t253 -83.5z" />
    <glyph glyph-name="b.ss01" horiz-adv-x="1390" 
d="M721 -35q-131 0 -223 43.5t-133 128.5h-7l-24 -137h-242l289 1638h256l-174 -974h4q67 61 173 94t220 33q201 0 324 -98.5t123 -258.5q0 -122 -76 -229.5t-211.5 -173.5t-298.5 -66zM713 166q136 0 233.5 74t97.5 174q0 82 -65.5 130t-177.5 48q-139 0 -238.5 -72
t-99.5 -168q0 -80 69.5 -133t180.5 -53z" />
    <glyph glyph-name="d.ss01" horiz-adv-x="1634" 
d="M616 -33q-244 0 -388 133t-144 357q0 138 59 269.5t158 230t237 158t287 59.5q151 0 261 -57t163 -152h6l123 673h254l-289 -1638h-239l33 170h-4q-96 -102 -233.5 -152.5t-283.5 -50.5zM702 197q132 0 247.5 61.5t183 163t67.5 215.5q0 139 -100 222t-256 83
q-136 0 -249.5 -63.5t-176 -164.5t-62.5 -212q0 -138 94.5 -221.5t251.5 -83.5z" />
    <glyph glyph-name="dcaron.ss01" horiz-adv-x="1671" 
d="M1757 1120h-155l225 277q-92 36 -92 123q0 73 62.5 129.5t144.5 56.5q65 0 108 -39.5t43 -99.5q0 -56 -59.5 -133t-276.5 -314zM629 -33q-244 0 -388.5 133t-144.5 357q0 138 59 269.5t158 230t237.5 158t287.5 59.5q151 0 261 -57t163 -152h6l123 673h254l-289 -1638
h-240l33 170h-4q-96 -102 -233.5 -152.5t-282.5 -50.5zM715 197q99 0 191 36.5t159 96.5t107 141t40 166q0 139 -100 222t-256 83q-102 0 -194 -37.5t-155.5 -99t-100.5 -141t-37 -162.5q0 -138 94.5 -221.5t251.5 -83.5z" />
    <glyph glyph-name="dcroat.ss01" horiz-adv-x="1634" 
d="M1602 1468h315l-27 -184h-319l-228 -1284h-239l33 170h-4q-96 -102 -233.5 -152.5t-283.5 -50.5q-244 0 -388 133t-144 357q0 138 59 269.5t158 230t237 158t287 59.5q151 0 261 -57t163 -152h6l58 319h-324l29 184h330l30 170h254zM702 197q132 0 247.5 61.5t183 163
t67.5 215.5q0 139 -100 222t-256 83q-136 0 -249.5 -63.5t-176 -164.5t-62.5 -212q0 -138 94.5 -221.5t251.5 -83.5z" />
    <glyph glyph-name="g.ss01" horiz-adv-x="1638" 
d="M1264 -451h-1229l35 222h972l84 430h-4q-90 -99 -220 -148t-275 -49q-249 0 -393 133.5t-144 347.5q0 132 58 257t155.5 219.5t234.5 152t287 57.5q154 0 266.5 -56.5t163.5 -151.5h5l34 176h252zM707 236q131 0 246.5 58t183 153t67.5 200q0 130 -100.5 212.5
t-257.5 82.5q-130 0 -242.5 -57.5t-178 -152t-65.5 -200.5q0 -131 96.5 -213.5t250.5 -82.5z" />
    <glyph glyph-name="gbreve.ss01" horiz-adv-x="1638" 
d="M952 1270q-206 0 -309.5 109.5t-79.5 285.5h215q-15 -93 40 -155t165 -62t189.5 61.5t101.5 155.5h215q-39 -180 -187 -287.5t-350 -107.5zM1264 -451h-1229l35 222h972l84 430h-4q-90 -99 -220 -148t-275 -49q-249 0 -393 133.5t-144 347.5q0 132 58 257t155.5 219.5
t234.5 152t287 57.5q154 0 266.5 -56.5t163.5 -151.5h5l34 176h252zM707 236q131 0 246.5 58t183 153t67.5 200q0 130 -100.5 212.5t-257.5 82.5q-130 0 -242.5 -57.5t-178 -152t-65.5 -200.5q0 -131 96.5 -213.5t250.5 -82.5z" />
    <glyph glyph-name="uni0123.ss01" horiz-adv-x="1638" 
d="M795 1393q0 46 38.5 99.5t182.5 216.5q47 54 74 85h147l-199 -248q35 -15 58.5 -44.5t23.5 -69.5q0 -66 -56.5 -114t-131.5 -48q-60 0 -98.5 34t-38.5 89zM1264 -451h-1229l35 222h972l84 430h-4q-90 -99 -220 -148t-275 -49q-249 0 -393 133.5t-144 347.5q0 132 58 257
t155.5 219.5t234.5 152t287 57.5q154 0 266.5 -56.5t163.5 -151.5h5l34 176h252zM707 236q131 0 246.5 58t183 153t67.5 200q0 130 -100.5 212.5t-257.5 82.5q-130 0 -242.5 -57.5t-178 -152t-65.5 -200.5q0 -131 96.5 -213.5t250.5 -82.5z" />
    <glyph glyph-name="gdotaccent.ss01" horiz-adv-x="1638" 
d="M971 1346q-66 0 -109 38.5t-43 98.5q0 72 60.5 126t142.5 54q66 0 109 -38t43 -95q0 -72 -62 -128t-141 -56zM1264 -451h-1229l35 222h972l84 430h-4q-90 -99 -220 -148t-275 -49q-249 0 -393 133.5t-144 347.5q0 132 58 257t155.5 219.5t234.5 152t287 57.5
q154 0 266.5 -56.5t163.5 -151.5h5l34 176h252zM707 236q131 0 246.5 58t183 153t67.5 200q0 130 -100.5 212.5t-257.5 82.5q-130 0 -242.5 -57.5t-178 -152t-65.5 -200.5q0 -131 96.5 -213.5t250.5 -82.5z" />
    <glyph glyph-name="i.ss01" horiz-adv-x="886" 
d="M582 1333q-66 0 -109 39t-43 98q0 72 61.5 126.5t141.5 54.5q64 0 106.5 -38t42.5 -95q0 -72 -60.5 -128.5t-139.5 -56.5zM752 0h-523l168 918h-309l33 221h563l-164 -918h266z" />
    <glyph glyph-name="dotlessi.ss01" horiz-adv-x="886" 
d="M752 0h-523l168 918h-309l33 221h563l-164 -918h266z" />
    <glyph glyph-name="iacute.ss01" horiz-adv-x="886" 
d="M1067 1661l-440 -383h-224l349 383h315zM752 0h-523l168 918h-309l33 221h563l-164 -918h266z" />
    <glyph glyph-name="icircumflex.ss01" horiz-adv-x="886" 
d="M276 1278h-241l420 367h282l293 -367h-242q-10 11 -78.5 73t-134.5 144q-36 -28 -121.5 -84t-177.5 -133zM752 0h-523l168 918h-309l33 221h563l-164 -918h266z" />
    <glyph glyph-name="idieresis.ss01" horiz-adv-x="886" 
d="M295 1321q-60 0 -98.5 36.5t-38.5 90.5q0 64 55.5 114t128.5 50q60 0 99.5 -35t39.5 -88q0 -65 -56 -116.5t-130 -51.5zM795 1321q-61 0 -100.5 36t-39.5 89q0 68 55.5 117t129.5 49q59 0 99 -35.5t40 -87.5q0 -64 -55.5 -116t-128.5 -52zM752 0h-523l168 918h-309
l33 221h563l-164 -918h266z" />
    <glyph glyph-name="i.loclTRK.ss01" horiz-adv-x="886" 
d="M571 1346q-65 0 -108 38.5t-43 98.5q0 72 61.5 126t143.5 54q64 0 106.5 -38t42.5 -95q0 -72 -61 -128t-142 -56zM752 0h-523l168 918h-309l33 221h563l-164 -918h266z" />
    <glyph glyph-name="igrave.ss01" horiz-adv-x="886" 
d="M655 1278h-223l-305 383h315zM752 0h-523l168 918h-309l33 221h563l-164 -918h266z" />
    <glyph glyph-name="imacron.ss01" horiz-adv-x="886" 
d="M965 1356h-826l27 176h825zM752 0h-523l168 918h-309l33 221h563l-164 -918h266z" />
    <glyph glyph-name="iogonek.ss01" horiz-adv-x="886" 
d="M551 1346q-66 0 -109 38.5t-43 98.5q0 72 60.5 126t142.5 54q66 0 109 -38t43 -95q0 -72 -62 -128t-141 -56zM752 0h-349q-100 -27 -162.5 -79t-62.5 -111q0 -47 45.5 -76t116.5 -29q55 0 115 16l-29 -167q-68 -15 -129 -15q-144 0 -227.5 54.5t-83.5 148.5
q0 87 71.5 156.5t171.5 103.5l168 916h-309l33 221h563l-164 -918h266z" />
    <glyph glyph-name="j.ss01" horiz-adv-x="808" 
d="M614 1333q-66 0 -108.5 38.5t-42.5 98.5q0 72 60.5 126.5t142.5 54.5q64 0 106.5 -38t42.5 -95q0 -72 -61 -128.5t-140 -56.5zM438 -451h-757l32 222h502l213 1147h-344l35 221h600z" />
    <glyph glyph-name="l.ss01" horiz-adv-x="917" 
d="M811 0h-713l289 1638h256l-256 -1417h459z" />
    <glyph glyph-name="lacute.ss01" horiz-adv-x="917" 
d="M1190 2111l-457 -350h-233l356 350h334zM811 0h-713l289 1638h256l-256 -1417h459z" />
    <glyph glyph-name="lcaron.ss01" horiz-adv-x="917" 
d="M897 1071h-156l226 277q-44 17 -68.5 49t-24.5 73q0 74 62.5 130.5t144.5 56.5q65 0 108.5 -39.5t43.5 -99.5q0 -56 -59.5 -133t-276.5 -314zM811 0h-713l289 1638h256l-256 -1417h459z" />
    <glyph glyph-name="uni013C.ss01" horiz-adv-x="917" 
d="M811 0h-713l289 1638h256l-256 -1417h459zM197 -610h-136l179 223q-45 17 -69 47.5t-24 67.5q0 64 54.5 112.5t130.5 48.5q61 0 100 -33.5t39 -86.5q0 -17 -3.5 -32t-15.5 -36t-23.5 -37.5t-38.5 -49t-48.5 -57.5t-65.5 -75.5t-79 -91.5z" />
    <glyph glyph-name="lslash.ss01" horiz-adv-x="917" 
d="M510 899l-123 -678h459l-35 -221h-713l131 739l-247 -139l30 211l254 143l121 684h256l-94 -524l266 152l-31 -211z" />
    <glyph glyph-name="m.ss01" horiz-adv-x="2428" 
d="M348 0h-256l203 1139h254l-74 -383l668 383h301l-74 -381l666 381h303l-203 -1139h-254l164 891h-14l-703 -404l-86 -487h-256l166 891h-14l-705 -406z" />
    <glyph glyph-name="n.ss01" horiz-adv-x="1564" 
d="M471 692l758 447h246l-203 -1139h-254l160 854h-15l-731 -383l-84 -471h-256l203 1139h254z" />
    <glyph glyph-name="nacute.ss01" horiz-adv-x="1564" 
d="M1126 1661h316l-441 -383h-223zM471 692l758 447h246l-203 -1139h-254l160 854h-15l-731 -383l-84 -471h-256l203 1139h254z" />
    <glyph glyph-name="ncaron.ss01" horiz-adv-x="1564" 
d="M1473 1669l-422 -379h-283l-291 379h242q28 -27 65.5 -59t69 -64.5t80.5 -93.5q35 28 120 84.5t177 132.5h242zM471 692l758 447h246l-203 -1139h-254l160 854h-15l-731 -383l-84 -471h-256l203 1139h254z" />
    <glyph glyph-name="uni0146.ss01" horiz-adv-x="1564" 
d="M471 692l758 447h246l-203 -1139h-254l160 854h-15l-731 -383l-84 -471h-256l203 1139h254zM698 -111q61 0 100.5 -33.5t39.5 -86.5q0 -17 -4 -32.5t-15.5 -36t-23.5 -37.5t-38.5 -48.5t-48.5 -57t-65.5 -75.5t-79.5 -92h-135l178 223q-92 35 -92 115q0 64 54.5 112.5
t129.5 48.5z" />
    <glyph glyph-name="eng.ss01" horiz-adv-x="1564" 
d="M772 -483q-148 0 -258 47l33 213q104 -43 207 -43q61 0 107.5 17.5t72 40t44 61t25 63.5t13.5 64l162 874h-15l-731 -383l-84 -471h-256l203 1139h254l-80 -422l760 422h246l-205 -1153q-7 -42 -11.5 -65t-15.5 -67t-23 -71t-33 -66.5t-45.5 -64.5t-61.5 -53.5t-80.5 -44
t-101.5 -26.5t-126 -11z" />
    <glyph glyph-name="ntilde.ss01" horiz-adv-x="1564" 
d="M778 1425q-49 0 -83.5 -31.5t-45.5 -80.5h-184q23 134 117.5 216.5t218.5 82.5q91 0 168 -56l51 -34q50 -35 98 -35q45 0 76.5 30t40.5 80h186q-23 -144 -107 -222.5t-212 -78.5q-94 0 -170 54l-53 36q-54 39 -101 39zM471 692l758 447h246l-203 -1139h-254l160 854h-15
l-731 -383l-84 -471h-256l203 1139h254z" />
    <glyph glyph-name="p.ss01" horiz-adv-x="1634" 
d="M268 -451h-256l283 1590h250l-37 -191h4q106 113 241.5 168t282.5 55q235 0 374.5 -132t139.5 -355q0 -139 -58 -271t-156.5 -230.5t-236.5 -158t-290 -59.5t-263 57.5t-165 151.5zM793 195q100 0 191.5 37.5t156 98t103 141t38.5 163.5q0 138 -95.5 222.5t-250.5 84.5
q-134 0 -250 -62t-183 -163t-67 -213q0 -137 100 -223t257 -86z" />
    <glyph glyph-name="q.ss01" horiz-adv-x="1636" 
d="M1266 -451h-256l114 637q-100 -108 -235.5 -164.5t-286.5 -56.5q-233 0 -374.5 136t-141.5 360q0 138 57.5 268t155 227t235.5 156t291 59t264.5 -56t163.5 -152h7l32 176h252zM700 197q134 0 250.5 61.5t184 162.5t67.5 214q0 138 -99.5 222.5t-256.5 84.5
q-133 0 -246.5 -61.5t-178.5 -162.5t-65 -214q0 -138 94.5 -222.5t249.5 -84.5z" />
    </font>
</defs>
</svg>
