<?xml version="1.0" standalone="no"?>
<!DOCTYPE svg PUBLIC "-//W3C//DTD SVG 1.1//EN" "http://www.w3.org/Graphics/SVG/1.1/DTD/svg11.dtd" >
<svg xmlns="http://www.w3.org/2000/svg" xmlns:xlink="http://www.w3.org/1999/xlink" version="1.1">
<metadata>
Created by FontForge 20170731 at Mon Mar 15 14:21:19 2021
 By Aleksey,,,
Copyright (c) 2020 by Matthieu Salvaggio x Blaze Type. All rights reserved.
</metadata>
<defs>
<font id="Area-ExtralightExtended" horiz-adv-x="2457" >
  <font-face 
    font-family="Area Extralight Extended"
    font-weight="200"
    font-stretch="normal"
    units-per-em="2048"
    panose-1="0 0 3 0 0 0 0 0 0 0"
    ascent="1638"
    descent="-410"
    x-height="1128"
    cap-height="1597"
    bbox="-1970 -498 3142 2144"
    underline-thickness="102"
    underline-position="-307"
    unicode-range="U+0020-25CA"
  />
<missing-glyph horiz-adv-x="1759" 
d="M1511 0h-1265v1597h1265v-1597zM371 1499v-1343l962 1343h-962zM1386 1397l-923 -1293h923v1293z" />
    <glyph glyph-name=".notdef" horiz-adv-x="1759" 
d="M1511 0h-1265v1597h1265v-1597zM371 1499v-1343l962 1343h-962zM1386 1397l-923 -1293h923v1293z" />
    <glyph glyph-name=".null" horiz-adv-x="0" 
 />
    <glyph glyph-name="nonmarkingreturn" horiz-adv-x="682" 
 />
    <glyph glyph-name="space" unicode=" " horiz-adv-x="659" 
 />
    <glyph glyph-name="exclam" unicode="!" horiz-adv-x="616" 
d="M348 371h-76l-41 1136v90h156v-90zM311 -14q-49 0 -83.5 30.5t-34.5 73.5q0 41 34.5 70.5t83.5 29.5q47 0 81 -29.5t34 -70.5q0 -43 -34 -73.5t-81 -30.5z" />
    <glyph glyph-name="quotedbl" unicode="&#x22;" horiz-adv-x="768" 
d="M307 1176h-129v421h129v-421zM590 1176h-131v421h131v-421z" />
    <glyph glyph-name="numbersign" unicode="#" horiz-adv-x="1642" 
d="M1544 1073l-22 -94h-293l-94 -404h290l-20 -94h-293l-115 -481h-114l114 481h-501l-115 -481h-115l115 481h-283l21 94h284l95 404h-283l25 94h280l125 524h115l-125 -524h502l125 524h114l-125 -524h293zM518 575h502l94 404h-502z" />
    <glyph glyph-name="dollar" unicode="$" horiz-adv-x="1392" 
d="M1237 483q0 -155 -130.5 -257.5t-356.5 -106.5v-201h-101v205q-179 14 -314 99.5t-200 246.5l111 39q112 -253 403 -285v527q-36 8 -69 16.5t-80.5 25t-87 35.5t-81.5 49t-70.5 64t-47 80.5t-18.5 99.5q0 78 40 143t105.5 106t145 65t163.5 28v176h101v-180
q163 -18 291.5 -101t168.5 -206l-106 -45q-42 98 -133 165.5t-221 84.5v-516q58 -13 95 -22.5t94 -27.5t93.5 -35.5t79 -45.5t67 -59t41.5 -74t17 -93zM319 1124q0 -46 21.5 -85t53 -65.5t79 -49.5t87 -36t89.5 -26v498q-142 -6 -236 -68.5t-94 -167.5zM750 729v-510
q65 2 126 17t117 43t89.5 76.5t33.5 111.5q0 50 -22 90.5t-54.5 66.5t-84.5 47.5t-97.5 33.5t-107.5 24z" />
    <glyph glyph-name="percent" unicode="%" horiz-adv-x="1949" 
d="M412 803q-138 0 -225 100t-87 258q0 159 87 260t225 101q137 0 224 -101.5t87 -259.5q0 -157 -86.5 -257.5t-224.5 -100.5zM365 0h-119l1366 1468h110zM412 887q90 0 145 74.5t55 199.5t-55 200t-145 75q-91 0 -146 -74.5t-55 -200.5q0 -125 55 -199.5t146 -74.5z
M1540 -29q-138 0 -224.5 100.5t-86.5 258.5q0 159 86.5 259.5t224.5 100.5q137 0 224 -101.5t87 -258.5t-87 -258t-224 -101zM1540 55q90 0 145.5 75t55.5 200t-55.5 199.5t-145.5 74.5q-91 0 -146 -74.5t-55 -199.5q0 -126 55 -200.5t146 -74.5z" />
    <glyph glyph-name="ampersand" unicode="&#x26;" horiz-adv-x="1654" 
d="M662 -35q-141 0 -261 45t-197 136t-77 210q0 50 14.5 97t37 84.5t59.5 75.5t71.5 66t85 59.5t88.5 52.5t92 49q-54 48 -85 77.5t-80 83t-76.5 95.5t-48.5 97t-21 107q0 141 128.5 235.5t314.5 94.5q192 0 314 -102t122 -242q0 -70 -32 -137t-90 -125t-124 -105.5
t-147 -91.5l456 -397q83 146 137 344l115 -22q-81 -258 -170 -400l395 -350h-149l-303 260q-224 -297 -569 -297zM676 897q68 40 109.5 66.5t89 64t72.5 71.5t42 78.5t17 94.5q0 120 -86 187t-220 67q-128 0 -215.5 -61t-87.5 -167q0 -52 21.5 -104t66.5 -105.5t85 -93.5
t106 -98zM664 72q292 0 487 266l-494 426l-67.5 -36t-63 -35t-62.5 -37.5t-55 -38.5t-50.5 -42.5t-39.5 -44.5t-33 -50t-18.5 -53t-7.5 -60q0 -90 56.5 -158.5t147.5 -102.5t200 -34z" />
    <glyph glyph-name="quotesingle" unicode="'" horiz-adv-x="485" 
d="M307 1176h-129v421h129v-421z" />
    <glyph glyph-name="parenleft" unicode="(" horiz-adv-x="712" 
d="M674 -307h-129q-201 198 -307.5 445t-106.5 507q0 262 106 507.5t308 444.5h129q-196 -194 -301 -441.5t-105 -510.5q0 -259 104.5 -507t301.5 -445z" />
    <glyph glyph-name="parenright" unicode=")" horiz-adv-x="712" 
d="M168 -307h-127q196 196 299.5 445t103.5 507q0 259 -103 507t-300 445h127q204 -201 309 -447.5t105 -504.5q0 -257 -105.5 -504.5t-308.5 -447.5z" />
    <glyph glyph-name="asterisk" unicode="*" horiz-adv-x="1021" 
d="M559 1024h-96v213l-227 -107l-48 72l226 109l-226 108l48 72l227 -107v213h96v-213l227 107l48 -72l-226 -108l226 -109l-48 -72l-227 107v-213z" />
    <glyph glyph-name="plus" unicode="+" horiz-adv-x="1191" 
d="M655 678h363v-107h-363v-311h-120v311h-361v107h361v311h120v-311z" />
    <glyph glyph-name="comma" unicode="," horiz-adv-x="518" 
d="M174 -254h-86l141 248q-37 9 -58 35.5t-21 60.5q0 41 34.5 70.5t83.5 29.5q47 0 82 -29.5t35 -70.5q0 -35 -36.5 -92.5t-174.5 -251.5z" />
    <glyph glyph-name="hyphen" unicode="-" horiz-adv-x="927" 
d="M782 575h-637v97h637v-97z" />
    <glyph glyph-name="period" unicode="." horiz-adv-x="557" 
d="M281 -14q-49 0 -84 30.5t-35 73.5q0 41 35 70.5t84 29.5q47 0 80.5 -29.5t33.5 -70.5q0 -43 -33.5 -73.5t-80.5 -30.5z" />
    <glyph glyph-name="slash" unicode="/" horiz-adv-x="993" 
d="M221 -135h-121l668 1773h123z" />
    <glyph glyph-name="zero" unicode="0" horiz-adv-x="1726" 
d="M864 -35q-207 0 -369 105t-251.5 294t-89.5 431q0 243 89.5 433.5t251.5 296t369 105.5q206 0 367 -105.5t250.5 -296t89.5 -433.5q0 -242 -89.5 -431t-250.5 -294t-367 -105zM866 76q166 0 293.5 90t197.5 253.5t70 375.5q0 323 -155 524t-406 201q-167 0 -296.5 -90.5
t-201 -255.5t-71.5 -379q0 -322 157.5 -520.5t411.5 -198.5z" />
    <glyph glyph-name="one" unicode="1" horiz-adv-x="933" 
d="M657 0h-133v1329q-73 -87 -192 -140.5t-269 -68.5v109q208 28 338.5 131t130.5 237h125v-1597z" />
    <glyph glyph-name="two" unicode="2" horiz-adv-x="1511" 
d="M1384 0h-1232v6q12 87 34.5 157t58 126t78.5 101.5t104 89.5t126 83.5t152 90.5q22 12 34 19t31.5 18.5t36.5 21.5q41 24 69 41.5t75 50t79.5 60.5t70 68t61 78.5t39.5 85.5t16 95q0 144 -125.5 238t-327.5 94q-227 0 -369.5 -123t-142.5 -320l-119 19q0 232 174.5 381
t456.5 149q258 0 422 -123.5t164 -320.5q0 -82 -30 -156t-88 -136.5t-120.5 -111.5t-148.5 -102q-68 -43 -160 -95.5t-146.5 -83.5t-119.5 -76t-104 -85.5t-73.5 -98.5t-52.5 -128h1077v-113z" />
    <glyph glyph-name="three" unicode="3" horiz-adv-x="1554" 
d="M774 -35q-236 0 -414.5 99.5t-240.5 265.5l110 51q58 -138 206.5 -223.5t342.5 -85.5q212 0 350 98.5t138 259.5q0 152 -136.5 247t-400.5 95h-190v100h213q219 0 338.5 93t119.5 233q0 149 -129.5 237.5t-330.5 88.5q-187 0 -318 -86t-160 -238l-116 21
q22 125 107.5 218.5t215 142t285.5 48.5q157 0 288.5 -48.5t212.5 -144t81 -220.5q0 -137 -93 -244.5t-245 -145.5v-2q175 -28 285 -128.5t110 -258.5q0 -96 -44 -182t-124 -150.5t-199.5 -102.5t-261.5 -38z" />
    <glyph glyph-name="four" unicode="4" horiz-adv-x="1581" 
d="M1194 0h-131v403h-995v125l995 1069h131v-1083h293v-111h-293v-403zM1063 1434l-858 -920h858v920z" />
    <glyph glyph-name="five" unicode="5" horiz-adv-x="1546" 
d="M760 -35q-153 0 -289.5 43t-239.5 127t-149 197l111 53q66 -145 222 -229t347 -84q144 0 263.5 53t190 151t70.5 222q0 180 -142.5 295.5t-357.5 115.5q-154 0 -282 -61t-197 -160l-106 45l223 864h893v-106h-805l-168 -653h4q55 71 181 120.5t278 49.5q167 0 306.5 -61
t224.5 -178t85 -267q0 -154 -88.5 -277.5t-240 -191.5t-334.5 -68z" />
    <glyph glyph-name="six" unicode="6" horiz-adv-x="1619" 
d="M840 -35q-311 0 -499.5 201.5t-188.5 550.5q0 200 65.5 370.5t180 289.5t275 186t345.5 67q236 0 409 -108l-90 -86q-145 88 -340 88q-151 0 -282.5 -55.5t-229 -157t-153.5 -255t-56 -339.5h7q52 139 218 228t361 89q123 0 237 -39t201.5 -107.5t140 -169t52.5 -216.5
q0 -153 -86.5 -276t-235.5 -192t-331 -69zM842 72q139 0 256.5 54t188.5 153.5t71 224.5q0 124 -69.5 223t-186.5 153t-258 54q-223 0 -370.5 -127.5t-147.5 -308.5q0 -119 69.5 -217.5t188 -153.5t258.5 -55z" />
    <glyph glyph-name="seven" unicode="7" horiz-adv-x="1439" 
d="M506 0h-131q0 157 71 366t187.5 417.5t279 406.5t334.5 328h-1206v110h1352v-121q-178 -135 -342.5 -330t-283.5 -399.5t-190 -411t-71 -366.5z" />
    <glyph glyph-name="eight" unicode="8" horiz-adv-x="1593" 
d="M799 -35q-186 0 -336 60.5t-233 165t-83 233.5q0 150 103.5 261.5t279.5 152.5v4q-151 52 -232 146t-81 216q0 180 165 303t419 123q249 0 412 -119t163 -297q0 -120 -82 -220.5t-231 -151.5v-4q176 -41 279.5 -152.5t103.5 -261.5q0 -130 -84 -235t-232 -164.5
t-331 -59.5zM799 881q192 0 319 94t127 239q0 138 -127 227t-319 89q-195 0 -323 -88.5t-128 -227.5q0 -146 127.5 -239.5t323.5 -93.5zM799 68q141 0 256.5 45t183.5 129.5t68 193.5q0 162 -131.5 258.5t-376.5 96.5q-248 0 -380 -96.5t-132 -258.5q0 -164 146.5 -266
t365.5 -102z" />
    <glyph glyph-name="nine" unicode="9" horiz-adv-x="1652" 
d="M756 -35q-158 0 -312.5 59t-281.5 183l92 76q216 -213 487 -213q157 0 278.5 63t195.5 174t111.5 253.5t37.5 311.5h-4q-50 -157 -213.5 -252.5t-366.5 -95.5q-171 0 -315.5 70t-231 198t-86.5 285q0 156 86 282.5t240 198.5t346 72q107 0 202 -23t183.5 -78.5
t151.5 -139.5t101 -214.5t38 -295.5q0 -145 -28 -278t-87 -249.5t-144.5 -202t-208.5 -135t-271 -49.5zM788 623q148 0 270 65t190.5 174t68.5 238q0 98 -41.5 179.5t-111.5 135.5t-162.5 83.5t-194.5 29.5q-145 0 -263.5 -55.5t-189.5 -159.5t-71 -238q0 -194 143 -323
t362 -129z" />
    <glyph glyph-name="colon" unicode=":" horiz-adv-x="600" 
d="M301 954q-49 0 -83 31t-34 74q0 41 34 70.5t83 29.5q47 0 81 -29.5t34 -70.5q0 -43 -34 -74t-81 -31zM301 -14q-49 0 -83 30.5t-34 73.5q0 41 34 70.5t83 29.5q47 0 81 -29.5t34 -70.5q0 -43 -34 -73.5t-81 -30.5z" />
    <glyph glyph-name="semicolon" unicode=";" horiz-adv-x="694" 
d="M362 954q-49 0 -83.5 31t-34.5 74q0 41 34.5 70.5t83.5 29.5q47 0 81 -29.5t34 -70.5q0 -43 -34 -74t-81 -31zM266 -256h-86l142 250q-36 9 -57 36t-21 60q0 42 34 71t84 29q47 0 81 -29.5t34 -70.5q0 -36 -34.5 -91t-176.5 -255z" />
    <glyph glyph-name="less" unicode="&#x3c;" horiz-adv-x="1228" 
d="M1022 428v-104l-842 243v113l842 244v-105l-696 -196z" />
    <glyph glyph-name="equal" unicode="=" horiz-adv-x="1234" 
d="M1040 776h-845v107h845v-107zM1040 365h-845v104h845v-104z" />
    <glyph glyph-name="greater" unicode="&#x3e;" horiz-adv-x="1228" 
d="M1047 567l-840 -243v104l694 195l-694 196v105l840 -244v-113z" />
    <glyph glyph-name="question" unicode="?" horiz-adv-x="1263" 
d="M598 367h-117q-14 60 -14 114q0 58 17.5 104.5t60 90.5t84 75.5t119.5 82.5q90 61 148 115t95 122.5t37 142.5q0 95 -57.5 168t-148.5 109.5t-197 36.5q-79 0 -153 -23t-132.5 -64.5t-93.5 -106.5t-35 -144q0 -34 6 -68l-115 19q-8 33 -8 67q0 127 76 224.5t197.5 147.5
t263.5 50q103 0 198 -28t169 -79t118.5 -129t44.5 -171q0 -73 -28.5 -140.5t-83 -126.5t-108.5 -103t-130 -95q-41 -27 -63.5 -43t-53 -40t-46.5 -43.5t-32.5 -45t-23 -54t-6.5 -61.5q0 -55 12 -104zM565 -14q-49 0 -84 30.5t-35 73.5q0 41 35 70.5t84 29.5q46 0 80.5 -29.5
t34.5 -70.5q0 -42 -34.5 -73t-80.5 -31z" />
    <glyph glyph-name="at" unicode="@" horiz-adv-x="2367" 
d="M1085 -195q-220 0 -403.5 63.5t-305 172.5t-188.5 254t-67 309q0 157 61 310t174 281t262.5 226t338 153.5t389.5 55.5q265 0 477.5 -93.5t336.5 -268.5t124 -402q0 -178 -75 -328t-203.5 -236.5t-279.5 -86.5q-136 0 -201 69t-44 173q-88 -110 -217 -167t-256 -57
q-179 0 -292.5 111.5t-113.5 276.5q0 144 86.5 278t228.5 215.5t295 81.5q128 0 229 -58.5t146 -162.5l39 194h105l-129 -608q-5 -23 -7 -37t-4.5 -44t0 -50.5t11.5 -46.5t26 -42t46 -27t69 -11q108 0 202 70.5t151.5 197t57.5 277.5q0 149 -57.5 276.5t-162 218t-257 142
t-334.5 51.5q-221 0 -424.5 -76.5t-349.5 -203t-232.5 -297.5t-86.5 -353q0 -150 59 -279t167.5 -222.5t270.5 -147t359 -53.5q189 0 362 46.5t301 131.5l64 -78q-156 -98 -353 -148.5t-395 -50.5zM1042 330q133 0 245 69.5t173.5 179t61.5 228.5q0 133 -80.5 213t-227.5 80
q-135 0 -247 -68t-173 -175.5t-61 -227.5q0 -134 80 -216.5t229 -82.5z" />
    <glyph glyph-name="A" unicode="A" horiz-adv-x="1798" 
d="M182 0h-139l786 1597h138l788 -1597h-137q-140 270 -293 584h-856q-96 -194 -287 -584zM520 692h752q-28 58 -93.5 192.5t-102 210t-87 181.5t-86.5 188h-6q-35 -74 -171.5 -352t-205.5 -420z" />
    <glyph glyph-name="B" unicode="B" horiz-adv-x="1751" 
d="M1036 0h-766v1597h662q145 0 264 -34.5t194.5 -93t116.5 -133t41 -156.5q0 -58 -21 -113.5t-62.5 -106t-111 -89.5t-159.5 -58v-4q107 -15 189.5 -53.5t130.5 -92t72 -113.5t24 -124q0 -178 -161 -302t-413 -124zM403 856h525q225 0 353 87.5t128 223.5q0 144 -141 234
t-365 90h-500v-635zM403 106h584q225 0 354 89t129 227q0 143 -138.5 235.5t-366.5 92.5h-562v-644z" />
    <glyph glyph-name="C" unicode="C" horiz-adv-x="2070" 
d="M1102 -35q-280 0 -500 105.5t-342.5 294t-122.5 428.5q0 183 74.5 340.5t202.5 265.5t303 169.5t373 61.5q132 0 259 -28t240.5 -83t202 -145t133.5 -205l-115 -43q-90 187 -285 290.5t-433 103.5q-129 0 -249.5 -31.5t-222 -93.5t-177.5 -148.5t-119 -204t-43 -251.5
q0 -140 46.5 -258.5t126.5 -201.5t187.5 -141.5t228.5 -86t250 -27.5q156 0 288.5 40.5t225.5 111.5t156 158t96 189l119 -38q-35 -96 -89.5 -179.5t-134.5 -156.5t-178 -125t-226.5 -81.5t-274.5 -29.5z" />
    <glyph glyph-name="D" unicode="D" horiz-adv-x="1982" 
d="M952 0h-682v1597h660q187 0 339.5 -40.5t257 -112t176 -171.5t104 -216t32.5 -248q0 -178 -61 -327t-173 -256t-280 -166.5t-373 -59.5zM403 106h572q339 0 533 188.5t194 502.5q0 323 -206.5 508.5t-592.5 185.5h-500v-1385z" />
    <glyph glyph-name="E" unicode="E" horiz-adv-x="1622" 
d="M1491 0h-1221v1597h1196v-106h-1063v-614h1014v-109h-1014v-655h1088v-113z" />
    <glyph glyph-name="F" unicode="F" horiz-adv-x="1527" 
d="M1442 1597v-114h-1039v-619h990v-108h-990v-756h-133v1597h1172z" />
    <glyph glyph-name="G" unicode="G" horiz-adv-x="2164" 
d="M1090 -35q-274 0 -491.5 105t-339.5 294t-122 427q0 184 74.5 341.5t202.5 266t303 170t373 61.5q132 0 259 -28t240.5 -83t202 -145t133.5 -205l-115 -43q-90 187 -285 290.5t-433 103.5q-162 0 -308 -50t-258.5 -141t-178.5 -230.5t-66 -307.5q0 -139 46.5 -257.5
t125.5 -201.5t185 -141.5t225 -86.5t245 -28q160 0 296.5 45.5t232.5 124.5t154 188t67 234h-701v104h834v-772h-113q0 64 -1 191.5t-1 189.5h-12q-97 -197 -295 -306.5t-479 -109.5z" />
    <glyph glyph-name="H" unicode="H" horiz-adv-x="1984" 
d="M1581 862v735h133v-1597h-133v754h-1178v-754h-133v1597h133v-735h1178z" />
    <glyph glyph-name="I" unicode="I" horiz-adv-x="675" 
d="M403 0h-133v1597h133v-1597z" />
    <glyph glyph-name="J" unicode="J" horiz-adv-x="1417" 
d="M647 -35q-85 0 -164 15.5t-155 53t-132 94.5t-90 146t-34 201v43l118 14v-34q0 -96 28.5 -171.5t73.5 -122.5t106.5 -77.5t122 -42.5t124.5 -12q81 0 144.5 20.5t104 49t69.5 77t42.5 86.5t21 96.5t8.5 88.5t1 79v1028h131v-989q0 -61 -1 -98.5t-11 -112.5t-28.5 -125.5
t-57 -113.5t-92 -101t-138.5 -65t-192 -27z" />
    <glyph glyph-name="K" unicode="K" horiz-adv-x="1613" 
d="M403 0h-133v1597h133v-886h5q292 270 999 886h160q-215 -189 -791 -702q148 -159 435 -463.5t405 -431.5h-162q-95 98 -144 149t-80.5 84t-173 180.5t-378.5 393.5l-275 -244v-563z" />
    <glyph glyph-name="L" unicode="L" horiz-adv-x="1454" 
d="M403 1597v-1484h1014v-113h-1147v1597h133z" />
    <glyph glyph-name="M" unicode="M" horiz-adv-x="2467" 
d="M403 0h-133v1597h160q451 -796 803 -1445h4q75 135 203 363t200.5 358t182.5 328.5t217 395.5h158v-1597h-134v1362h-10q-165 -309 -751 -1362h-140q-65 118 -238 427.5t-283.5 510.5t-229.5 424h-9v-1362z" />
    <glyph glyph-name="N" unicode="N" horiz-adv-x="2031" 
d="M403 0h-133v1597h148q54 -63 346.5 -405t485.5 -569.5t374 -444.5h6v1419h131v-1597h-147q-135 158 -555 643.5t-653 759.5h-3v-1403z" />
    <glyph glyph-name="O" unicode="O" horiz-adv-x="2193" 
d="M1096 -35q-194 0 -370 63t-306.5 172t-207.5 265t-77 332t76.5 331.5t206 265t307 173t373.5 63.5q199 0 377 -65t305.5 -176.5t201.5 -265.5t74 -326q0 -231 -128.5 -422.5t-348.5 -300.5t-483 -109zM1100 76q128 0 250 34.5t222.5 99.5t177 152.5t119 199.5t42.5 235
q0 154 -66 289.5t-177 230t-259 149t-309 54.5q-218 0 -405.5 -92t-301.5 -259t-114 -372q0 -204 114 -370.5t301.5 -258.5t405.5 -92z" />
    <glyph glyph-name="P" unicode="P" horiz-adv-x="1636" 
d="M270 1597h658q290 0 455 -128t165 -339q0 -147 -74.5 -257.5t-204.5 -168t-296 -57.5h-570v-647h-133v1597zM403 756h523q232 0 358.5 95.5t126.5 268.5q0 172 -137.5 271.5t-370.5 99.5h-500v-735z" />
    <glyph glyph-name="Q" unicode="Q" horiz-adv-x="2193" 
d="M1978 -111l-92 -69q-45 45 -137 134t-137 134q-237 -123 -514 -123q-194 0 -371 63t-307.5 172t-207.5 265t-77 332t76.5 331.5t206 265t307.5 173t375 63.5q199 0 376.5 -65t305 -176.5t202 -265.5t74.5 -326q0 -193 -92.5 -360t-255.5 -283q34 -33 123.5 -122.5
t144.5 -142.5zM1102 76q228 0 426 106q-221 210 -393 379l92 70l397 -387q135 102 213 244t78 309q0 154 -66.5 289.5t-177.5 230t-259.5 149t-309.5 54.5q-164 0 -315 -54.5t-264 -149t-180 -230t-67 -289.5q0 -153 67 -288.5t180 -229.5t264 -148.5t315 -54.5z" />
    <glyph glyph-name="R" unicode="R" horiz-adv-x="1697" 
d="M403 0h-133v1597h658q289 0 454.5 -128.5t165.5 -338.5q0 -204 -139.5 -333t-370.5 -146v-2q63 -79 244.5 -302.5t278.5 -346.5h-146l-524 647h-488v-647zM403 754h523q232 0 358.5 96.5t126.5 269.5q0 171 -137.5 271t-370.5 100h-500v-737z" />
    <glyph glyph-name="S" unicode="S" horiz-adv-x="1579" 
d="M815 -35q-84 0 -165 14t-166 48.5t-156 86t-130.5 133.5t-93.5 185l121 41q61 -190 221.5 -293.5t370.5 -103.5q70 0 138 11.5t133.5 37t115 63.5t79.5 94.5t30 125.5q0 60 -26.5 107.5t-54 74.5t-96 55t-98 36.5t-115.5 29.5q-25 7 -38 10l-180 47q-40 11 -65.5 18
t-72.5 22t-79.5 29t-76.5 36.5t-74.5 45t-63.5 54.5t-53 67t-33 79t-13 93q0 103 53.5 185t142 131.5t195 75.5t219.5 26q145 0 269 -41.5t219 -129t139 -212.5l-117 -45q-57 145 -196.5 231.5t-331.5 86.5t-324.5 -82.5t-132.5 -216.5q0 -44 17 -84t40.5 -69t64.5 -56.5
t70.5 -43.5t79.5 -34.5t70.5 -25t62.5 -18.5q12 -3 17 -5l184 -49q185 -49 243 -70q218 -80 275 -219q23 -57 23 -123q0 -83 -35 -156.5t-96 -128.5t-142 -94.5t-175 -59.5t-193 -20z" />
    <glyph glyph-name="T" unicode="T" horiz-adv-x="1556" 
d="M844 0h-131v1491h-674v106h1479v-106h-674v-1491z" />
    <glyph glyph-name="U" unicode="U" horiz-adv-x="1851" 
d="M920 -35q-152 0 -274 37t-211.5 110.5t-138 190t-48.5 268.5v1026h131v-1019q0 -260 145.5 -383t401.5 -123t401.5 123t145.5 383v1019h133v-1026q0 -278 -176 -442t-510 -164z" />
    <glyph glyph-name="V" unicode="V" horiz-adv-x="1798" 
d="M967 0h-138l-786 1597h139q226 -441 719 -1464h6q141 292 395 816t314 648h139z" />
    <glyph glyph-name="W" unicode="W" horiz-adv-x="2781" 
d="M840 0h-154l-635 1597h135q371 -897 578 -1445h4q483 1267 549 1445h145q33 -85 240.5 -622.5t316.5 -822.5h6q348 907 570 1445h137l-635 -1597h-155q-215 532 -549 1436h-4q-331 -906 -549 -1436z" />
    <glyph glyph-name="X" unicode="X" horiz-adv-x="1576" 
d="M188 0h-149q71 86 306.5 374.5t367.5 444.5v4q-382 447 -656 774h150q192 -225 579 -684h7q311 375 579 684h148q-424 -504 -656 -774v-4q134 -158 374 -452t300 -367h-147q-72 88 -277 338.5t-321 390.5h-7q-107 -133 -308 -376t-290 -353z" />
    <glyph glyph-name="Y" unicode="Y" horiz-adv-x="1685" 
d="M907 0h-131v592q-502 701 -723 1005h146q60 -84 643 -895h4q44 62 647 895h139l-725 -1005v-592z" />
    <glyph glyph-name="Z" unicode="Z" horiz-adv-x="1609" 
d="M1534 0h-1460v119l1278 1368v4h-1229v106h1390v-112q-148 -158 -406 -432.5t-472.5 -503.5t-403.5 -432v-4h1303v-113z" />
    <glyph glyph-name="bracketleft" unicode="[" horiz-adv-x="759" 
d="M700 -317h-454v1914h454v-100h-329v-1712h329v-102z" />
    <glyph glyph-name="backslash" unicode="\" horiz-adv-x="993" 
d="M893 -135h-123l-668 1773h121z" />
    <glyph glyph-name="bracketright" unicode="]" horiz-adv-x="759" 
d="M514 -317h-455v102h332v1712h-332v100h455v-1914z" />
    <glyph glyph-name="asciicircum" unicode="^" horiz-adv-x="1028" 
d="M279 1059h-127l294 538h134l297 -538h-127l-234 440h-6z" />
    <glyph glyph-name="underscore" unicode="_" horiz-adv-x="1218" 
d="M1182 -219h-1145v96h1145v-96z" />
    <glyph glyph-name="a" unicode="a" horiz-adv-x="1402" 
d="M547 -35q-117 0 -211 30.5t-153.5 97t-59.5 159.5q0 78 40 138.5t114 100.5t157 65.5t191 43.5q32 5 84 13t82 12.5t72.5 13.5t67 17t52.5 22t43 30.5t25 40t10 52.5q0 104 -105 183t-268 79q-145 0 -248.5 -67.5t-142.5 -180.5l-125 39q37 102 123 173.5t188 102.5
t213 31q70 0 138 -12.5t133.5 -41.5t115 -71t79.5 -106t30 -142v-436q0 -131 10 -204.5t33 -147.5h-125q-35 104 -35 250h-6q-71 -129 -202 -207t-320 -78zM555 59q90 0 172 26t141.5 68.5t104 95t66.5 106.5t22 102v164q-58 -40 -119.5 -59t-212.5 -42q-53 -8 -81 -13
t-85.5 -17.5t-92 -25t-80.5 -33.5t-71.5 -44.5t-44 -57.5t-18.5 -73q0 -90 82 -143.5t217 -53.5z" />
    <glyph glyph-name="b" unicode="b" horiz-adv-x="1648" 
d="M893 -35q-172 0 -314.5 72.5t-224.5 206.5h-4v-244h-119v1638h123v-759q85 139 228 210.5t313 71.5q177 0 320.5 -75.5t227 -212.5t83.5 -310t-84 -310.5t-228 -212.5t-321 -75zM881 66q221 0 366.5 141.5t145.5 355.5q0 216 -146.5 357t-365.5 141q-142 0 -262 -62.5
t-192.5 -178t-72.5 -259.5t72.5 -258t192.5 -175.5t262 -61.5z" />
    <glyph glyph-name="c" unicode="c" horiz-adv-x="1492" 
d="M786 -35q-294 0 -478.5 165.5t-184.5 430.5q0 266 186.5 433t481.5 167q89 0 170.5 -17t158.5 -53t139.5 -98.5t102.5 -146.5l-121 -41q-54 119 -175.5 187.5t-283.5 68.5q-239 0 -382.5 -141t-143.5 -359q0 -221 150 -358t389 -137q190 0 321 85t197 224l112 -33
q-78 -182 -248.5 -279.5t-390.5 -97.5z" />
    <glyph glyph-name="d" unicode="d" horiz-adv-x="1646" 
d="M752 -35q-178 0 -321.5 75.5t-226.5 212t-83 308.5q0 174 84.5 312t229 213t321.5 75q166 0 305.5 -70t224.5 -202h6v749h123v-1286q0 -129 10 -204t33 -148h-125q-37 118 -37 242h-6q-80 -133 -223 -205t-315 -72zM764 66q143 0 263.5 62t192.5 176.5t72 258.5
q0 109 -42.5 203t-114 158t-168 100.5t-203.5 36.5q-221 0 -365.5 -142t-144.5 -358q0 -214 146 -354.5t364 -140.5z" />
    <glyph glyph-name="e" unicode="e" horiz-adv-x="1525" 
d="M782 -35q-188 0 -338 74.5t-235.5 211t-85.5 310.5q0 263 185.5 431.5t473.5 168.5q78 0 154.5 -13.5t161.5 -52t148.5 -98t105 -162t41.5 -233.5v-57h-1137q1 -142 68.5 -252t188 -170t273.5 -60q186 0 319 87t198 223l110 -35q-78 -178 -247 -275.5t-384 -97.5z
M260 649h997q-1 89 -30 160.5t-76.5 118t-111 78t-128.5 44.5t-133 13q-208 0 -347.5 -114t-170.5 -300z" />
    <glyph glyph-name="f" unicode="f" horiz-adv-x="831" 
d="M401 0h-122v1032h-205v96h205v158q0 53 1.5 85t8 78t19.5 74t37.5 59.5t59.5 49t88 29.5t121 12q157 0 256 -57v-107q-116 66 -243 66q-37 0 -67 -5t-52.5 -12t-39.5 -21.5t-28 -26.5t-18.5 -34.5t-11.5 -38.5t-6 -45.5t-2.5 -47.5t-0.5 -52v-164h414v-96h-414v-1032z
" />
    <glyph glyph-name="g" unicode="g" horiz-adv-x="1644" 
d="M799 -483q-463 0 -602 331l114 35q106 -268 492 -268q76 0 142.5 13.5t131.5 49t110.5 91t74 146t28.5 208.5v153h-6q-82 -133 -223 -204.5t-311 -71.5q-177 0 -322 76.5t-227 210t-82 297.5q0 166 84 298.5t228.5 205.5t320.5 73q168 0 311 -72t227 -208h4v247h119v-983
q0 -169 -44.5 -292.5t-128 -196t-192.5 -106t-249 -33.5zM762 100q142 0 263 62.5t193 175t72 248.5t-72 245.5t-192.5 169.5t-263.5 60q-220 0 -365 -137.5t-145 -339.5q0 -203 147 -343.5t363 -140.5z" />
    <glyph glyph-name="h" unicode="h" horiz-adv-x="1552" 
d="M354 0h-123v1638h123v-737h6q149 260 484 260q75 0 143 -13.5t134 -46.5t114.5 -83.5t78 -130t29.5 -180.5v-707h-122v657q0 89 -23.5 159.5t-61.5 115.5t-91 75t-108 42t-116 12q-89 0 -166 -25t-131.5 -67.5t-93.5 -97t-57.5 -114t-18.5 -118.5v-639z" />
    <glyph glyph-name="i" unicode="i" horiz-adv-x="585" 
d="M293 1434q-51 0 -86 30t-35 74q0 42 35 72t86 30q49 0 83 -30t34 -72q0 -44 -33.5 -74t-83.5 -30zM354 0h-123v1128h123v-1128z" />
    <glyph glyph-name="j" unicode="j" horiz-adv-x="583" 
d="M291 1434q-51 0 -86 30t-35 74q0 42 35 72t86 30q49 0 83 -30t34 -72q0 -44 -33.5 -74t-83.5 -30zM-12 -483q-146 0 -254 57v109q120 -68 235 -68q42 0 77 9.5t60.5 23t45.5 37.5t32.5 45t21.5 54t13.5 56t6.5 59t2.5 54t0.5 51v1124h125v-1142v-1q0 -39 -0.5 -60.5
t-3.5 -64.5t-9.5 -70.5t-19 -67t-30 -65t-46 -55t-64 -46t-85 -28t-108.5 -11.5z" />
    <glyph glyph-name="k" unicode="k" horiz-adv-x="1253" 
d="M662 688l606 -688h-142l-553 612l-219 -188v-424h-123v1638h123v-1075h6q77 66 306 262.5t354 302.5h154z" />
    <glyph glyph-name="l" unicode="l" horiz-adv-x="585" 
d="M354 0h-123v1638h123v-1638z" />
    <glyph glyph-name="m" unicode="m" horiz-adv-x="2492" 
d="M354 0h-123v1128h119v-227h4q78 132 205.5 196t280.5 64q71 0 138 -14.5t131 -46.5t113.5 -91t73.5 -139h4q170 291 500 291q71 0 136.5 -13.5t130 -46.5t112 -83.5t76.5 -130t29 -180.5v-707h-125v657q0 89 -23 159.5t-60 115.5t-88 75t-104 42t-110 12q-105 0 -193 -38
t-144 -99.5t-87 -135.5t-31 -149v-639h-123v657q0 89 -23 159.5t-60.5 115.5t-89 75t-104.5 42t-110 12q-105 0 -193 -38t-144 -99.5t-87 -135.5t-31 -149v-639z" />
    <glyph glyph-name="n" unicode="n" horiz-adv-x="1552" 
d="M354 0h-123v1128h119v-227h4q79 133 206.5 196.5t285.5 63.5q75 0 143.5 -13.5t134 -46.5t113.5 -83.5t77 -130t29 -180.5v-707h-122v657q0 89 -23.5 159.5t-61.5 115.5t-91 75t-108 42t-116 12q-110 0 -201.5 -38t-148 -99.5t-87 -135t-30.5 -149.5v-639z" />
    <glyph glyph-name="o" unicode="o" horiz-adv-x="1587" 
d="M795 -35q-195 0 -348.5 75.5t-238.5 211.5t-85 309q0 264 188 432t484 168q194 0 346.5 -76t237.5 -213t85 -311q0 -173 -85 -309t-237.5 -211.5t-346.5 -75.5zM795 66q239 0 387.5 138t148.5 357q0 221 -149 360.5t-387 139.5t-388.5 -140t-150.5 -360
q0 -218 150.5 -356.5t388.5 -138.5z" />
    <glyph glyph-name="p" unicode="p" horiz-adv-x="1648" 
d="M354 -451h-123v1579h119v-249h4q85 140 228.5 211t312.5 71q177 0 321 -75.5t227 -212t83 -308.5q0 -174 -84 -312t-228 -213t-321 -75q-172 0 -314.5 72.5t-224.5 206.5v-695zM881 66q221 0 366.5 141.5t145.5 355.5q0 216 -146.5 357t-365.5 141q-142 0 -262 -62
t-192.5 -177.5t-72.5 -260.5q0 -144 72.5 -258t192.5 -175.5t262 -61.5z" />
    <glyph glyph-name="q" unicode="q" horiz-adv-x="1646" 
d="M1415 -451h-123v695q-81 -132 -224.5 -205.5t-315.5 -73.5q-178 0 -322 76t-226.5 213t-82.5 309q0 173 84.5 310.5t228.5 212.5t320 75q168 0 311 -72t227 -208h4v247h119v-1579zM764 66q143 0 263 62t191.5 176.5t71.5 258.5q0 109 -42 203t-113.5 158t-167.5 100.5
t-203 36.5q-221 0 -365.5 -142t-144.5 -358q0 -214 146 -354.5t364 -140.5z" />
    <glyph glyph-name="r" unicode="r" horiz-adv-x="995" 
d="M354 0h-123v1128h119v-243h10q51 124 175 200t276 76q93 0 160 -22v-121q-76 29 -168 29q-103 0 -189 -41t-142 -109t-87 -153t-31 -175v-569z" />
    <glyph glyph-name="s" unicode="s" horiz-adv-x="1206" 
d="M639 -35q-193 0 -344 87t-207 229l115 34q54 -110 177.5 -181t258.5 -71q51 0 104.5 11t108 35t89 69.5t34.5 106.5q0 41 -19 73.5t-45.5 53t-72 38.5t-79.5 27t-87 21l-129 30q-34 8 -57 14t-67.5 20.5t-76 30t-70 42t-62.5 56t-41 71.5t-17 90q0 77 40.5 138.5
t105 97.5t138.5 54.5t148 18.5q164 0 294 -78t177 -196l-121 -37q-40 90 -137 151.5t-232 61.5q-124 0 -205 -54.5t-81 -144.5q0 -37 14.5 -68.5t42.5 -55.5t57 -41.5t72 -32.5t73 -24t72 -19l133 -31q42 -10 62 -15t65.5 -19.5t71 -27.5t61 -36.5t55 -49t34 -62.5t14.5 -79
q0 -142 -132 -240t-335 -98z" />
    <glyph glyph-name="t" unicode="t" horiz-adv-x="903" 
d="M600 -35q-49 0 -89.5 9t-70 22t-52.5 35.5t-37.5 43t-25 51.5t-15.5 52.5t-7.5 55.5t-3 51.5t-0.5 48.5v696h-270v98h270v338h123v-338h426v-98h-426v-668v-45t2 -44.5t5 -46t9.5 -41.5t16 -39t24.5 -31.5t34 -26.5t45 -15.5t58 -6.5q115 0 232 65v-108
q-110 -58 -248 -58z" />
    <glyph glyph-name="u" unicode="u" horiz-adv-x="1529" 
d="M694 -35q-71 0 -137 13.5t-130.5 47t-112 83.5t-76.5 130t-29 181v708h123v-661q0 -89 23.5 -160t62 -115t91 -73.5t105.5 -41t111 -11.5q105 0 193 38t142.5 99.5t84 134.5t29.5 147v643h122v-776q0 -123 10 -197.5t35 -154.5h-127q-36 115 -36 221h-4
q-78 -131 -203 -193.5t-277 -62.5z" />
    <glyph glyph-name="v" unicode="v" horiz-adv-x="1312" 
d="M719 0h-125l-549 1128h135q48 -100 215.5 -450.5t259.5 -542.5h7l471 993h135z" />
    <glyph glyph-name="w" unicode="w" horiz-adv-x="2215" 
d="M674 0h-121l-502 1128h133l432 -974h7l419 974h134l434 -974h6l416 974h135l-502 -1128h-123q-289 650 -430 997h-6q-181 -446 -432 -997z" />
    <glyph glyph-name="x" unicode="x" horiz-adv-x="1232" 
d="M182 0h-137q51 58 155 177t185.5 212t153.5 178v4q-73 82 -182.5 205.5t-313.5 351.5h143l428 -481h4q71 81 213.5 240.5t212.5 240.5h146l-498 -557v-4q444 -509 494 -567h-135q-39 44 -195 221t-238 273h-4q-40 -45 -195 -222t-237 -272z" />
    <glyph glyph-name="y" unicode="y" horiz-adv-x="1312" 
d="M498 -451h-109l211 441l-555 1138h135q90 -182 250 -519.5t227 -475.5h5q44 93 211 449.5t260 545.5h135z" />
    <glyph glyph-name="z" unicode="z" horiz-adv-x="1171" 
d="M1112 0h-1042v82l817 944h-768v102h936v-81l-822 -945h879v-102z" />
    <glyph glyph-name="braceleft" unicode="{" horiz-adv-x="870" 
d="M819 -307h-84q-141 0 -237 29.5t-148.5 90t-74 138t-21.5 186.5v168q0 42 -1.5 75.5t-5.5 60t-7 47t-11.5 35.5t-14 25t-18.5 16.5l-20 10t-24 5.5t-26 2h-30v127h3q48 0 69 4.5t45.5 29.5t32.5 83t8 159v170q0 47 2 80.5t12 83.5t28.5 85t54 74t85.5 63t126.5 40
t172.5 16h84v-100h-80q-192 0 -277 -71.5t-85 -223.5v-211q0 -94 -9.5 -158t-30 -101t-44.5 -55.5t-60 -29.5v-4q36 -11 60 -29.5t44.5 -55.5t30 -101t9.5 -158v-211q0 -46 6.5 -83t28.5 -78.5t60 -69t106 -46t161 -18.5h80v-100z" />
    <glyph glyph-name="bar" unicode="|" horiz-adv-x="622" 
d="M375 -451h-129v2089h129v-2089z" />
    <glyph glyph-name="braceright" unicode="}" horiz-adv-x="870" 
d="M133 -307h-82v100h80q190 0 275.5 71.5t85.5 223.5v211q0 121 17.5 193t47 103.5t80.5 47.5v4q-51 15 -81 47.5t-47 104.5t-17 192v211q0 51 -8 91.5t-32 80t-63 65.5t-104.5 42t-153.5 16h-80v100h82q114 0 198 -20t138.5 -56t87.5 -92.5t46 -122t13 -151.5v-170
q0 -199 43 -248q24 -27 85 -28h28v-127q-23 0 -33 -0.5t-28.5 -2.5t-26 -7t-20 -14t-18 -23t-13 -34.5t-10 -48t-5 -64.5t-2.5 -83v-168q0 -52 -3.5 -93.5t-16 -89t-33 -83.5t-57.5 -71t-86.5 -57.5t-122.5 -36t-164 -13.5z" />
    <glyph glyph-name="asciitilde" unicode="~" horiz-adv-x="1259" 
d="M819 588q-52 0 -96 14.5t-75.5 35t-60 41.5t-63 35.5t-71.5 14.5q-67 0 -100.5 -40t-33.5 -101h-118q0 79 40 135.5t98.5 81t127.5 24.5q61 0 114 -22.5t84.5 -49t74.5 -49t87 -22.5q61 0 90 40.5t29 102.5h119q0 -120 -69.5 -180.5t-176.5 -60.5z" />
    <glyph glyph-name="uni00A0" unicode="&#xa0;" horiz-adv-x="659" 
 />
    <glyph glyph-name="exclamdown" unicode="&#xa1;" horiz-adv-x="577" 
d="M291 956q-49 0 -84 30t-35 71q0 43 35 73.5t84 30.5q47 0 81 -30.5t34 -73.5q0 -41 -34 -71t-81 -30zM367 -449h-156v89l41 1134h76l39 -1134v-89z" />
    <glyph glyph-name="cent" unicode="&#xa2;" horiz-adv-x="1370" 
d="M1145 573l96 -30q-64 -140 -193 -219.5t-296 -87.5v-236h-101v238q-215 20 -348 154t-133 335q0 203 133 337t348 153v249h101v-245q93 -4 173 -30t151.5 -84.5t111.5 -143.5l-103 -35q-38 88 -126.5 143t-206.5 62v-811q143 7 243 75.5t150 175.5zM283 727
q0 -163 101 -272t267 -129v804q-167 -17 -267.5 -128.5t-100.5 -274.5z" />
    <glyph glyph-name="sterling" unicode="&#xa3;" horiz-adv-x="1433" 
d="M342 113h989v-113h-1212v113q225 76 355 195t130 253q0 89 -61 180h-379v99h305q-13 15 -47.5 54t-50.5 58.5t-44.5 55.5t-42.5 62.5t-30.5 61.5t-23.5 70t-7 72q0 110 66.5 192t177 123t248.5 41q66 0 128.5 -9.5t133 -36t127.5 -67.5t106 -110t74 -158l-117 -43
q-31 88 -81.5 152t-113 99t-126.5 51t-135 16q-95 0 -173 -27t-128 -85t-50 -138q0 -58 29 -119.5t63 -103t92.5 -108t86.5 -103.5h526v-99h-463q41 -80 41 -163q0 -135 -104 -258.5t-289 -206.5z" />
    <glyph glyph-name="currency" unicode="&#xa4;" horiz-adv-x="1619" 
d="M1262 821q0 -159 -105 -264l328 -326l-88 -69l-330 327q-106 -59 -254 -59q-143 0 -258 59l-332 -327l-88 69l330 328q-105 105 -105 262q0 154 103 260l-328 328l88 70l332 -326q112 59 256 59q145 0 258 -61l328 328l88 -70l-326 -326q103 -106 103 -262zM481 821
q0 -132 90.5 -215.5t241.5 -83.5q150 0 239 83t89 216t-89.5 216t-240.5 83q-149 0 -239.5 -83.5t-90.5 -215.5z" />
    <glyph glyph-name="yen" unicode="&#xa5;" horiz-adv-x="1734" 
d="M932 0h-131v283h-447v102h447v205h-447v102h379l-653 905h143q170 -233 641 -890h6q65 89 102 140t67.5 93.5t154 213t322.5 443.5h139l-658 -905h387v-102h-452v-205h452v-102h-452v-283z" />
    <glyph glyph-name="brokenbar" unicode="&#xa6;" horiz-adv-x="622" 
d="M375 840h-129v798h129v-798zM375 -451h-129v791h129v-791z" />
    <glyph glyph-name="section" unicode="&#xa7;" horiz-adv-x="1302" 
d="M668 -301q-199 0 -353 96.5t-209 247.5l115 31q54 -118 180.5 -198.5t268.5 -80.5q39 0 80 6.5t84.5 22.5t77 40t55.5 63t22 87q0 29 -9 53t-20.5 41.5t-36.5 34t-43.5 26.5t-56.5 22.5t-59.5 19t-67.5 18.5l-125 33q-35 10 -56.5 16.5t-66 23t-74 32.5t-67 43t-60 56
t-38.5 70t-16 87q0 100 69 169t178 101v4q-97 41 -161 109t-64 164q0 79 40 140.5t106 97t142.5 53.5t158.5 18q75 0 142 -15t131 -48.5t114 -95t77 -146.5l-125 -33q-45 126 -127 184t-225 58q-136 0 -221.5 -54.5t-85.5 -146.5q0 -35 13 -65.5t39.5 -53.5t53 -40
t67.5 -32.5t67.5 -24t67.5 -20.5q10 -3 14 -4l155 -43q36 -10 59.5 -17t61.5 -21t63 -27.5t55 -35.5t47.5 -46.5t29.5 -58t12 -72.5q0 -97 -68 -179t-180 -120v-4q225 -81 225 -254q0 -138 -130 -235t-326 -97zM637 358l68 -16q52 3 102.5 16t99 38t78 68.5t29.5 100.5
q0 25 -5.5 47t-20 39.5t-27 31t-39.5 26.5t-42.5 20.5t-50.5 18t-51 14.5t-55 14l-102 27q-122 31 -212 -36.5t-90 -166.5q0 -35 14 -65.5t40.5 -54t55.5 -42.5t69 -34.5t70 -25.5t69 -20z" />
    <glyph glyph-name="copyright" unicode="&#xa9;" horiz-adv-x="2332" 
d="M1167 -35q-220 0 -408.5 65.5t-317 178.5t-201 265.5t-72.5 324.5q0 171 72.5 323.5t201 264.5t317 177.5t408.5 65.5t408.5 -65.5t317.5 -177.5t201.5 -264.5t72.5 -323.5q0 -172 -72.5 -324.5t-201.5 -265.5t-317.5 -178.5t-408.5 -65.5zM1167 72q194 0 359 57.5
t277.5 155.5t175.5 231t63 283q0 149 -63 282t-175.5 231.5t-278 156t-358.5 57.5q-194 0 -359.5 -57.5t-277 -156t-174.5 -231.5t-63 -282q0 -150 63 -283t174.5 -231t277 -155.5t359.5 -57.5zM1174 350q-222 0 -361 124.5t-139 322.5q0 200 140 325t362 125
q158 0 273.5 -66t166.5 -188l-119 -37q-37 93 -122 144t-204 51q-162 0 -265 -99t-103 -255q0 -157 105 -252.5t272 -95.5q130 0 226.5 59.5t145.5 171.5l109 -29q-55 -142 -184 -221.5t-303 -79.5z" />
    <glyph glyph-name="guillemotleft" unicode="&#xab;" horiz-adv-x="1320" 
d="M700 164h-151l-412 405v9l412 405h151l-411 -405v-9zM1151 164h-150l-413 405v9l413 405h150l-412 -405v-9z" />
    <glyph glyph-name="logicalnot" unicode="&#xac;" horiz-adv-x="1236" 
d="M1038 270h-120v308h-723v104h843v-412z" />
    <glyph glyph-name="registered" unicode="&#xae;" horiz-adv-x="1409" 
d="M702 741q-230 0 -383 128t-153 321q0 126 69.5 228t192 159t274.5 57q151 0 273.5 -57.5t192 -159.5t69.5 -227q0 -193 -152.5 -321t-382.5 -128zM702 815q194 0 321.5 106.5t127.5 268.5q0 160 -128 266.5t-321 106.5q-195 0 -322.5 -106t-127.5 -267
q0 -164 127.5 -269.5t322.5 -105.5zM604 946h-86v494h213q90 0 146.5 -42t56.5 -112q0 -54 -36.5 -94.5t-96.5 -54.5l155 -191h-100l-149 182h-103v-182zM604 1368v-170h127q54 0 83.5 22.5t29.5 63.5t-32.5 62.5t-88.5 21.5h-119z" />
    <glyph glyph-name="degree" unicode="&#xb0;" horiz-adv-x="948" 
d="M473 1057q-152 0 -250 84.5t-98 212.5q0 126 99 210.5t249 84.5t250 -85t100 -210q0 -126 -100 -211.5t-250 -85.5zM473 1139q104 0 173 61.5t69 153.5q0 90 -69 150.5t-173 60.5q-102 0 -172 -61t-70 -150q0 -91 69.5 -153t172.5 -62z" />
    <glyph glyph-name="plusminus" unicode="&#xb1;" horiz-adv-x="1236" 
d="M1040 770v-102h-362v-213h362v-95h-845v95h362v213h-362v102h362v250h121v-250h362z" />
    <glyph glyph-name="uni00B2" unicode="&#xb2;" horiz-adv-x="745" 
d="M649 817h-545v8q3 32 8 58t16.5 49.5t20.5 40.5t30.5 37t35.5 32t46.5 32.5t52.5 32t63 36.5q69 39 113.5 82t44.5 96q0 52 -44.5 85.5t-115.5 33.5q-84 0 -137.5 -47.5t-53.5 -124.5l-94 14q0 106 80 173t205 67q115 0 190.5 -56t75.5 -145q0 -69 -43 -118.5t-119 -94.5
q-19 -11 -61.5 -34.5t-63.5 -37t-49.5 -35.5t-44.5 -45.5t-24 -52.5h413v-86z" />
    <glyph glyph-name="uni00B3" unicode="&#xb3;" horiz-adv-x="759" 
d="M373 803q-105 0 -186 43.5t-109 114.5l90 38q24 -54 77.5 -86t127.5 -32q77 0 127.5 36t50.5 95q0 56 -51.5 89.5t-143.5 33.5h-82v69h91q76 0 121.5 33.5t45.5 85.5q0 54 -48.5 86.5t-121.5 32.5q-68 0 -116 -33.5t-58 -91.5l-92 18q13 84 91.5 135.5t185.5 51.5
q109 0 185.5 -50t76.5 -131q0 -55 -36 -100.5t-101 -62.5q71 -12 116 -56t45 -108q0 -86 -78 -148.5t-208 -62.5z" />
    <glyph glyph-name="paragraph" unicode="&#xb6;" horiz-adv-x="1705" 
d="M1096 -287h-133v942h-304q-254 0 -411.5 133.5t-157.5 346.5q0 201 163 331.5t454 130.5h389v-1884zM1413 -287h-133v1884h133v-1884z" />
    <glyph glyph-name="periodcentered" unicode="&#xb7;" horiz-adv-x="647" 
d="M326 477q-60 0 -102 37.5t-42 91.5q0 51 42 86t102 35q59 0 99 -35t40 -86q0 -54 -40.5 -91.5t-98.5 -37.5z" />
    <glyph glyph-name="uni00B9" unicode="&#xb9;" horiz-adv-x="516" 
d="M346 817h-102v524q-65 -65 -183 -84v91q82 17 134.5 62t52.5 97h98v-690z" />
    <glyph glyph-name="guillemotright" unicode="&#xbb;" horiz-adv-x="1320" 
d="M322 164h-152l412 405v9l-412 405h152l411 -405v-9zM772 164h-151l413 405v9l-413 405h151l412 -405v-9z" />
    <glyph glyph-name="onequarter" unicode="&#xbc;" horiz-adv-x="1529" 
d="M346 817h-102v524q-65 -65 -183 -84v91q82 17 134.5 62t52.5 97h98v-690zM59 0h-118l1366 1468h110zM1333 -14h-100v159h-414v82l414 449h100v-453h117v-78h-117v-159zM1233 553l-309 -330h309v330z" />
    <glyph glyph-name="onehalf" unicode="&#xbd;" horiz-adv-x="1568" 
d="M346 817h-102v524q-65 -65 -183 -84v91q82 17 134.5 62t52.5 97h98v-690zM59 0h-118l1366 1468h110zM1473 -14h-545v8q3 36 11 66t17 52.5t30 46t35.5 38t50 37.5t57 36t71.5 41q69 39 113.5 82t44.5 96q0 52 -44.5 85.5t-115.5 33.5q-84 0 -137 -47.5t-53 -124.5l-95 15
q0 105 80 172t205 67q115 0 190.5 -56t75.5 -145q0 -69 -42.5 -118.5t-118.5 -94.5q-20 -12 -62 -35t-63.5 -36.5t-50 -35t-44.5 -45t-24 -52.5h414v-86z" />
    <glyph glyph-name="threequarters" unicode="&#xbe;" horiz-adv-x="1773" 
d="M373 803q-105 0 -186 43.5t-109 114.5l90 38q24 -54 77.5 -86t127.5 -32q77 0 127.5 36t50.5 95q0 56 -51.5 89.5t-143.5 33.5h-82v69h91q76 0 121.5 33.5t45.5 85.5q0 54 -48.5 86.5t-121.5 32.5q-68 0 -116 -33.5t-58 -91.5l-92 18q13 84 91.5 135.5t185.5 51.5
q109 0 185.5 -50t76.5 -131q0 -55 -36 -100.5t-101 -62.5q71 -12 116 -56t45 -108q0 -86 -78 -148.5t-208 -62.5zM303 0h-119l1366 1468h111zM1577 -14h-100v159h-414v82l414 449h100v-453h117v-78h-117v-159zM1477 553l-310 -330h310v330z" />
    <glyph glyph-name="questiondown" unicode="&#xbf;" horiz-adv-x="1243" 
d="M690 956q-47 0 -82 30t-35 71q0 43 34 73.5t83 30.5t83 -30.5t34 -73.5q0 -42 -34 -71.5t-83 -29.5zM623 -483q-103 0 -198 28t-169.5 79t-119 129t-44.5 171q0 59 20 115.5t51.5 102t79 92t94 81.5t105.5 74q37 24 53 35t45 32.5t41 33.5t31.5 33.5t26.5 38.5t16.5 41.5
t10 50t-1.5 57t-9 67.5h119q9 -41 12 -76.5t2 -64.5t-11.5 -57.5t-20 -49.5t-32.5 -46t-40 -41.5t-51.5 -42.5t-58 -42.5t-68.5 -46.5q-137 -92 -210 -182t-73 -197q0 -96 58 -168.5t149.5 -108.5t198.5 -36q87 0 166 27t139.5 77t89 129t10.5 173l117 -19
q18 -109 -18.5 -202t-112 -155t-179 -97t-218.5 -35z" />
    <glyph glyph-name="Agrave" unicode="&#xc0;" horiz-adv-x="1798" 
d="M991 1720h-117l-409 318h205zM182 0h-139l786 1597h138l788 -1597h-137q-140 270 -293 584h-856q-96 -194 -287 -584zM520 692h752q-28 58 -93.5 192.5t-102 210t-87 181.5t-86.5 188h-6q-35 -74 -171.5 -352t-205.5 -420z" />
    <glyph glyph-name="Aacute" unicode="&#xc1;" horiz-adv-x="1798" 
d="M1335 2038l-411 -318h-115l319 318h207zM182 0h-139l786 1597h138l788 -1597h-137q-140 270 -293 584h-856q-96 -194 -287 -584zM520 692h752q-28 58 -93.5 192.5t-102 210t-87 181.5t-86.5 188h-6q-35 -74 -171.5 -352t-205.5 -420z" />
    <glyph glyph-name="Acircumflex" unicode="&#xc2;" horiz-adv-x="1798" 
d="M987 2017l316 -297h-117q-187 143 -287 228q-127 -105 -291 -228h-114l315 297h178zM182 0h-139l786 1597h138l788 -1597h-137q-140 270 -293 584h-856q-96 -194 -287 -584zM520 692h752q-28 58 -93.5 192.5t-102 210t-87 181.5t-86.5 188h-6q-35 -74 -171.5 -352
t-205.5 -420z" />
    <glyph glyph-name="Atilde" unicode="&#xc3;" horiz-adv-x="1798" 
d="M1083 1751q-26 0 -49.5 4t-37.5 7t-35 15t-26.5 14.5t-28.5 19.5t-25 18l-43 33q-25 18 -39 27.5t-37.5 17.5t-48.5 8q-58 0 -96.5 -42.5t-38.5 -107.5h-97q1 105 68 171.5t170 66.5q53 0 91.5 -17.5t86.5 -52.5l49 -37q80 -57 144 -57q60 0 93.5 41.5t33.5 108.5h98
q0 -108 -61.5 -173t-170.5 -65zM182 0h-139l786 1597h138l788 -1597h-137q-140 270 -293 584h-856q-96 -194 -287 -584zM520 692h752q-28 58 -93.5 192.5t-102 210t-87 181.5t-86.5 188h-6q-35 -74 -171.5 -352t-205.5 -420z" />
    <glyph glyph-name="Adieresis" unicode="&#xc4;" horiz-adv-x="1798" 
d="M670 1794q-46 0 -79.5 28.5t-33.5 69.5q0 38 34 67.5t79 29.5t77.5 -29t32.5 -68q0 -41 -32 -69.5t-78 -28.5zM1126 1794q-49 0 -80.5 28t-31.5 70q0 39 32 68t80 29q44 0 77.5 -29.5t33.5 -67.5q0 -41 -33 -69.5t-78 -28.5zM182 0h-139l786 1597h138l788 -1597h-137
q-140 270 -293 584h-856q-96 -194 -287 -584zM520 692h752q-28 58 -93.5 192.5t-102 210t-87 181.5t-86.5 188h-6q-35 -74 -171.5 -352t-205.5 -420z" />
    <glyph glyph-name="Aring" unicode="&#xc5;" horiz-adv-x="1798" 
d="M897 1714q-114 0 -189 61t-75 156q0 92 75 152.5t189 60.5q111 0 185.5 -60.5t74.5 -152.5q0 -94 -74.5 -155.5t-185.5 -61.5zM897 1800q70 0 117 35.5t47 95.5q0 58 -47 92.5t-117 34.5q-73 0 -120.5 -34.5t-47.5 -92.5q0 -60 47.5 -95.5t120.5 -35.5zM182 0h-139
l786 1597h138l788 -1597h-137q-140 270 -293 584h-856q-96 -194 -287 -584zM520 692h752q-28 58 -93.5 192.5t-102 210t-87 181.5t-86.5 188h-6q-35 -74 -171.5 -352t-205.5 -420z" />
    <glyph glyph-name="AE" unicode="&#xc6;" horiz-adv-x="2519" 
d="M96 0h-141l1143 1597h1263v-106h-1061v-614h1012v-109h-1012v-655h1086v-113h-1219v584h-649q-317 -437 -422 -584zM588 692h579v799h-4z" />
    <glyph glyph-name="Ccedilla" unicode="&#xc7;" horiz-adv-x="2070" 
d="M1102 -35h-2l-111 -131q44 19 109 19q95 0 156 -44.5t61 -115.5q0 -79 -74.5 -129.5t-185.5 -50.5q-83 0 -162 30t-133 78l59 49q38 -40 102 -65t128 -25q72 0 121 31t49 80q0 44 -44 73t-112 29q-67 0 -117 -26l-59 49l121 153q-191 13 -353 79.5t-276 173.5t-178 254
t-64 317q0 183 74.5 340.5t202.5 265.5t303 169.5t373 61.5q132 0 259 -28t240.5 -83t202 -145t133.5 -205l-115 -43q-90 187 -285 290.5t-433 103.5q-129 0 -249.5 -31.5t-222 -93.5t-177.5 -148.5t-119 -204t-43 -251.5q0 -140 46.5 -258.5t126.5 -201.5t187.5 -141.5
t228.5 -86t250 -27.5q156 0 288.5 40.5t225.5 111.5t156 158t96 189l119 -38q-35 -96 -89.5 -179.5t-134.5 -156.5t-178 -125t-226.5 -81.5t-274.5 -29.5z" />
    <glyph glyph-name="Egrave" unicode="&#xc8;" horiz-adv-x="1622" 
d="M918 1720h-117l-410 318h205zM1491 0h-1221v1597h1196v-106h-1063v-614h1014v-109h-1014v-655h1088v-113z" />
    <glyph glyph-name="Eacute" unicode="&#xc9;" horiz-adv-x="1622" 
d="M1264 2038l-412 -318h-115l320 318h207zM1491 0h-1221v1597h1196v-106h-1063v-614h1014v-109h-1014v-655h1088v-113z" />
    <glyph glyph-name="Ecircumflex" unicode="&#xca;" horiz-adv-x="1622" 
d="M913 2017l316 -297h-117q-187 143 -287 228q-136 -113 -290 -228h-115l315 297h178zM1491 0h-1221v1597h1196v-106h-1063v-614h1014v-109h-1014v-655h1088v-113z" />
    <glyph glyph-name="Edieresis" unicode="&#xcb;" horiz-adv-x="1622" 
d="M598 1794q-46 0 -79.5 28.5t-33.5 69.5q0 38 34 67.5t79 29.5t78 -29t33 -68q0 -41 -32.5 -69.5t-78.5 -28.5zM1055 1794q-49 0 -81 28t-32 70q0 39 32.5 68t80.5 29q44 0 77 -29.5t33 -67.5q0 -41 -32.5 -69.5t-77.5 -28.5zM1491 0h-1221v1597h1196v-106h-1063v-614
h1014v-109h-1014v-655h1088v-113z" />
    <glyph glyph-name="Igrave" unicode="&#xcc;" horiz-adv-x="675" 
d="M432 1720h-117l-409 318h205zM403 0h-133v1597h133v-1597z" />
    <glyph glyph-name="Iacute" unicode="&#xcd;" horiz-adv-x="675" 
d="M776 2038l-411 -318h-115l319 318h207zM403 0h-133v1597h133v-1597z" />
    <glyph glyph-name="Icircumflex" unicode="&#xce;" horiz-adv-x="675" 
d="M428 2017l315 -297h-116q-187 143 -287 228q-127 -105 -291 -228h-115l316 297h178zM403 0h-133v1597h133v-1597z" />
    <glyph glyph-name="Idieresis" unicode="&#xcf;" horiz-adv-x="675" 
d="M111 1794q-46 0 -79.5 28.5t-33.5 69.5q0 38 34 67.5t79 29.5t77.5 -29t32.5 -68q0 -41 -32 -69.5t-78 -28.5zM567 1794q-49 0 -80.5 28t-31.5 70q0 39 32 68t80 29q44 0 77.5 -29.5t33.5 -67.5q0 -41 -33 -69.5t-78 -28.5zM403 0h-133v1597h133v-1597z" />
    <glyph glyph-name="Eth" unicode="&#xd0;" horiz-adv-x="1982" 
d="M270 1597h660q187 0 339.5 -40.5t257 -112t176 -171.5t104 -216t32.5 -248q0 -178 -61 -327t-173 -256t-280 -166.5t-373 -59.5h-682v750h-196v96h196v751zM975 106q339 0 533 188.5t194 502.5q0 323 -206.5 508.5t-592.5 185.5h-500v-645h693v-96h-693v-644h572z" />
    <glyph glyph-name="Ntilde" unicode="&#xd1;" horiz-adv-x="2031" 
d="M1178 1808q-22 0 -41 2t-37 7.5t-29.5 9t-27.5 13.5t-22.5 14t-24 16.5t-21.5 15.5l-43 33q-25 18 -39 27.5t-37.5 17.5t-48.5 8q-58 0 -96.5 -42t-38.5 -107h-97q1 105 68 171t170 66q53 0 92 -17.5t86 -51.5l49 -37q81 -58 144 -58q60 0 93.5 41.5t33.5 108.5h98
q0 -108 -61.5 -173t-169.5 -65zM403 0h-133v1597h148q54 -63 346.5 -405t485.5 -569.5t374 -444.5h6v1419h131v-1597h-147q-135 158 -555 643.5t-653 759.5h-3v-1403z" />
    <glyph glyph-name="Ograve" unicode="&#xd2;" horiz-adv-x="2193" 
d="M1188 1720h-117l-409 318h204zM1096 -35q-194 0 -370 63t-306.5 172t-207.5 265t-77 332t76.5 331.5t206 265t307 173t373.5 63.5q199 0 377 -65t305.5 -176.5t201.5 -265.5t74 -326q0 -231 -128.5 -422.5t-348.5 -300.5t-483 -109zM1100 76q128 0 250 34.5t222.5 99.5
t177 152.5t119 199.5t42.5 235q0 154 -66 289.5t-177 230t-259 149t-309 54.5q-218 0 -405.5 -92t-301.5 -259t-114 -372q0 -204 114 -370.5t301.5 -258.5t405.5 -92z" />
    <glyph glyph-name="Oacute" unicode="&#xd3;" horiz-adv-x="2193" 
d="M1532 2038l-412 -318h-114l319 318h207zM1096 -35q-194 0 -370 63t-306.5 172t-207.5 265t-77 332t76.5 331.5t206 265t307 173t373.5 63.5q199 0 377 -65t305.5 -176.5t201.5 -265.5t74 -326q0 -231 -128.5 -422.5t-348.5 -300.5t-483 -109zM1100 76q128 0 250 34.5
t222.5 99.5t177 152.5t119 199.5t42.5 235q0 154 -66 289.5t-177 230t-259 149t-309 54.5q-218 0 -405.5 -92t-301.5 -259t-114 -372q0 -204 114 -370.5t301.5 -258.5t405.5 -92z" />
    <glyph glyph-name="Ocircumflex" unicode="&#xd4;" horiz-adv-x="2193" 
d="M1184 2017l315 -297h-117q-177 135 -286 228q-127 -105 -291 -228h-115l316 297h178zM1096 -35q-194 0 -370 63t-306.5 172t-207.5 265t-77 332t76.5 331.5t206 265t307 173t373.5 63.5q199 0 377 -65t305.5 -176.5t201.5 -265.5t74 -326q0 -231 -128.5 -422.5
t-348.5 -300.5t-483 -109zM1100 76q128 0 250 34.5t222.5 99.5t177 152.5t119 199.5t42.5 235q0 154 -66 289.5t-177 230t-259 149t-309 54.5q-218 0 -405.5 -92t-301.5 -259t-114 -372q0 -204 114 -370.5t301.5 -258.5t405.5 -92z" />
    <glyph glyph-name="Otilde" unicode="&#xd5;" horiz-adv-x="2193" 
d="M1280 1808q-22 0 -41 2t-37 7.5t-29.5 9t-27.5 13.5t-22.5 14t-24 16.5t-21.5 15.5l-43 33q-25 18 -39 27.5t-37.5 17.5t-48.5 8q-58 0 -96.5 -42t-38.5 -107h-96q1 105 67.5 171t169.5 66q53 0 92.5 -17.5t86.5 -51.5l49 -37q81 -58 143 -58q60 0 93.5 41.5t33.5 108.5
h98q0 -108 -61.5 -173t-169.5 -65zM1096 -35q-194 0 -370 63t-306.5 172t-207.5 265t-77 332t76.5 331.5t206 265t307 173t373.5 63.5q199 0 377 -65t305.5 -176.5t201.5 -265.5t74 -326q0 -231 -128.5 -422.5t-348.5 -300.5t-483 -109zM1100 76q128 0 250 34.5t222.5 99.5
t177 152.5t119 199.5t42.5 235q0 154 -66 289.5t-177 230t-259 149t-309 54.5q-218 0 -405.5 -92t-301.5 -259t-114 -372q0 -204 114 -370.5t301.5 -258.5t405.5 -92z" />
    <glyph glyph-name="Odieresis" unicode="&#xd6;" horiz-adv-x="2193" 
d="M866 1794q-46 0 -79 28.5t-33 69.5q0 39 33.5 68t78.5 29t78 -29t33 -68q0 -41 -32.5 -69.5t-78.5 -28.5zM1323 1794q-49 0 -81 28t-32 70q0 39 32.5 68t80.5 29q44 0 77.5 -29.5t33.5 -67.5q0 -41 -33 -69.5t-78 -28.5zM1096 -35q-194 0 -370 63t-306.5 172t-207.5 265
t-77 332t76.5 331.5t206 265t307 173t373.5 63.5q199 0 377 -65t305.5 -176.5t201.5 -265.5t74 -326q0 -231 -128.5 -422.5t-348.5 -300.5t-483 -109zM1100 76q128 0 250 34.5t222.5 99.5t177 152.5t119 199.5t42.5 235q0 154 -66 289.5t-177 230t-259 149t-309 54.5
q-218 0 -405.5 -92t-301.5 -259t-114 -372q0 -204 114 -370.5t301.5 -258.5t405.5 -92z" />
    <glyph glyph-name="multiply" unicode="&#xd7;" horiz-adv-x="1083" 
d="M461 625l-268 223l86 76l268 -224l256 215l82 -73l-254 -215l264 -226l-86 -73l-264 223l-258 -217l-84 74z" />
    <glyph glyph-name="Oslash" unicode="&#xd8;" horiz-adv-x="2193" 
d="M1878 1661l-176 -213q167 -116 260.5 -285t93.5 -366q0 -231 -128.5 -422.5t-348.5 -300.5t-483 -109q-273 0 -510 123l-127 -154h-150l176 216q-164 116 -257 282.5t-93 364.5q0 176 76.5 331.5t206 265t307 173t373.5 63.5q279 0 504 -121l124 152h152zM279 797
q0 -166 76 -308t210 -241l959 1165q-197 107 -424 107q-218 0 -405.5 -92t-301.5 -259t-114 -372zM1100 76q128 0 250 34.5t222.5 99.5t177 152.5t119 199.5t42.5 235q0 167 -77 311t-210 244l-960 -1168q199 -108 436 -108z" />
    <glyph glyph-name="Ugrave" unicode="&#xd9;" horiz-adv-x="1851" 
d="M1018 1720h-117l-409 318h204zM920 -35q-152 0 -274 37t-211.5 110.5t-138 190t-48.5 268.5v1026h131v-1019q0 -260 145.5 -383t401.5 -123t401.5 123t145.5 383v1019h133v-1026q0 -278 -176 -442t-510 -164z" />
    <glyph glyph-name="Uacute" unicode="&#xda;" horiz-adv-x="1851" 
d="M1196 2038l-410 -318h-116l321 318h205zM920 -35q-152 0 -274 37t-211.5 110.5t-138 190t-48.5 268.5v1026h131v-1019q0 -260 145.5 -383t401.5 -123t401.5 123t145.5 383v1019h133v-1026q0 -278 -176 -442t-510 -164z" />
    <glyph glyph-name="Ucircumflex" unicode="&#xdb;" horiz-adv-x="1851" 
d="M1014 2017l315 -297h-117q-177 135 -286 228q-127 -105 -291 -228h-115l316 297h178zM920 -35q-152 0 -274 37t-211.5 110.5t-138 190t-48.5 268.5v1026h131v-1019q0 -260 145.5 -383t401.5 -123t401.5 123t145.5 383v1019h133v-1026q0 -278 -176 -442t-510 -164z" />
    <glyph glyph-name="Udieresis" unicode="&#xdc;" horiz-adv-x="1851" 
d="M696 1794q-46 0 -79 28.5t-33 69.5q0 39 33.5 68t78.5 29t78 -29t33 -68q0 -41 -32.5 -69.5t-78.5 -28.5zM1153 1794q-49 0 -81 28t-32 70q0 39 32.5 68t80.5 29q44 0 77.5 -29.5t33.5 -67.5q0 -41 -33 -69.5t-78 -28.5zM920 -35q-152 0 -274 37t-211.5 110.5t-138 190
t-48.5 268.5v1026h131v-1019q0 -260 145.5 -383t401.5 -123t401.5 123t145.5 383v1019h133v-1026q0 -278 -176 -442t-510 -164z" />
    <glyph glyph-name="Yacute" unicode="&#xdd;" horiz-adv-x="1685" 
d="M1270 2038l-410 -318h-115l320 318h205zM907 0h-131v592q-502 701 -723 1005h146q60 -84 643 -895h4q44 62 647 895h139l-725 -1005v-592z" />
    <glyph glyph-name="Thorn" unicode="&#xde;" horiz-adv-x="1673" 
d="M403 0h-133v1597h133v-284h525q290 0 455 -128t165 -339q0 -147 -74.5 -257.5t-204.5 -168.5t-296 -58h-570v-362zM403 1204v-733h523q232 0 358.5 96t126.5 269q0 171 -137.5 269.5t-370.5 98.5h-500z" />
    <glyph glyph-name="germandbls" unicode="&#xdf;" horiz-adv-x="1486" 
d="M354 0h-123v1186q0 33 1.5 59.5t12 80.5t29.5 95.5t58.5 91t94 82.5t141 55.5t194.5 22.5q258 0 403.5 -118.5t145.5 -305.5q0 -154 -95.5 -262.5t-242.5 -130.5v-2q178 -21 286.5 -124.5t108.5 -262.5q0 -95 -43.5 -180t-122.5 -149t-198.5 -101t-262.5 -37h-174v96h181
q212 0 349.5 102.5t137.5 262.5q0 147 -117 244.5t-301 97.5h-117v96h113q164 0 264.5 90.5t100.5 241.5q0 70 -23.5 130t-71 108.5t-129.5 76t-190 27.5q-101 0 -178 -26.5t-119.5 -64.5t-69.5 -90t-35 -94.5t-8 -85.5v-1212z" />
    <glyph glyph-name="agrave" unicode="&#xe0;" horiz-adv-x="1402" 
d="M776 1278h-112l-373 393h184zM547 -35q-117 0 -211 30.5t-153.5 97t-59.5 159.5q0 78 40 138.5t114 100.5t157 65.5t191 43.5q32 5 84 13t82 12.5t72.5 13.5t67 17t52.5 22t43 30.5t25 40t10 52.5q0 104 -105 183t-268 79q-145 0 -248.5 -67.5t-142.5 -180.5l-125 39
q37 102 123 173.5t188 102.5t213 31q70 0 138 -12.5t133.5 -41.5t115 -71t79.5 -106t30 -142v-436q0 -131 10 -204.5t33 -147.5h-125q-35 104 -35 250h-6q-71 -129 -202 -207t-320 -78zM555 59q90 0 172 26t141.5 68.5t104 95t66.5 106.5t22 102v164q-58 -40 -119.5 -59
t-212.5 -42q-53 -8 -81 -13t-85.5 -17.5t-92 -25t-80.5 -33.5t-71.5 -44.5t-44 -57.5t-18.5 -73q0 -90 82 -143.5t217 -53.5z" />
    <glyph glyph-name="aacute" unicode="&#xe1;" horiz-adv-x="1402" 
d="M1135 1671l-373 -393h-111l301 393h183zM547 -35q-117 0 -211 30.5t-153.5 97t-59.5 159.5q0 78 40 138.5t114 100.5t157 65.5t191 43.5q32 5 84 13t82 12.5t72.5 13.5t67 17t52.5 22t43 30.5t25 40t10 52.5q0 104 -105 183t-268 79q-145 0 -248.5 -67.5t-142.5 -180.5
l-125 39q37 102 123 173.5t188 102.5t213 31q70 0 138 -12.5t133.5 -41.5t115 -71t79.5 -106t30 -142v-436q0 -131 10 -204.5t33 -147.5h-125q-35 104 -35 250h-6q-71 -129 -202 -207t-320 -78zM555 59q90 0 172 26t141.5 68.5t104 95t66.5 106.5t22 102v164
q-58 -40 -119.5 -59t-212.5 -42q-53 -8 -81 -13t-85.5 -17.5t-92 -25t-80.5 -33.5t-71.5 -44.5t-44 -57.5t-18.5 -73q0 -90 82 -143.5t217 -53.5z" />
    <glyph glyph-name="acircumflex" unicode="&#xe2;" horiz-adv-x="1402" 
d="M383 1278h-119l357 356h184l356 -356h-119q-238 198 -327 276q-182 -157 -332 -276zM547 -35q-117 0 -211 30.5t-153.5 97t-59.5 159.5q0 78 40 138.5t114 100.5t157 65.5t191 43.5q32 5 84 13t82 12.5t72.5 13.5t67 17t52.5 22t43 30.5t25 40t10 52.5q0 104 -105 183
t-268 79q-145 0 -248.5 -67.5t-142.5 -180.5l-125 39q37 102 123 173.5t188 102.5t213 31q70 0 138 -12.5t133.5 -41.5t115 -71t79.5 -106t30 -142v-436q0 -131 10 -204.5t33 -147.5h-125q-35 104 -35 250h-6q-71 -129 -202 -207t-320 -78zM555 59q90 0 172 26t141.5 68.5
t104 95t66.5 106.5t22 102v164q-58 -40 -119.5 -59t-212.5 -42q-53 -8 -81 -13t-85.5 -17.5t-92 -25t-80.5 -33.5t-71.5 -44.5t-44 -57.5t-18.5 -73q0 -90 82 -143.5t217 -53.5z" />
    <glyph glyph-name="atilde" unicode="&#xe3;" horiz-adv-x="1402" 
d="M899 1337q-22 0 -41 2t-37 7.5t-29.5 9t-27.5 13.5t-22.5 14t-24 16.5t-21.5 15.5l-43 33q-25 18 -39 27.5t-37.5 17.5t-48.5 8q-58 0 -96.5 -42t-38.5 -107h-96q1 105 68 171t170 66q53 0 92 -17.5t86 -51.5l49 -37q81 -58 143 -58q60 0 93.5 41.5t33.5 108.5h98
q0 -108 -61.5 -173t-169.5 -65zM547 -35q-117 0 -211 30.5t-153.5 97t-59.5 159.5q0 78 40 138.5t114 100.5t157 65.5t191 43.5q32 5 84 13t82 12.5t72.5 13.5t67 17t52.5 22t43 30.5t25 40t10 52.5q0 104 -105 183t-268 79q-145 0 -248.5 -67.5t-142.5 -180.5l-125 39
q37 102 123 173.5t188 102.5t213 31q70 0 138 -12.5t133.5 -41.5t115 -71t79.5 -106t30 -142v-436q0 -131 10 -204.5t33 -147.5h-125q-35 104 -35 250h-6q-71 -129 -202 -207t-320 -78zM555 59q90 0 172 26t141.5 68.5t104 95t66.5 106.5t22 102v164q-58 -40 -119.5 -59
t-212.5 -42q-53 -8 -81 -13t-85.5 -17.5t-92 -25t-80.5 -33.5t-71.5 -44.5t-44 -57.5t-18.5 -73q0 -90 82 -143.5t217 -53.5z" />
    <glyph glyph-name="adieresis" unicode="&#xe4;" horiz-adv-x="1402" 
d="M508 1382q-46 0 -79.5 29.5t-33.5 69.5q0 38 33.5 66t79.5 28q47 0 78.5 -27.5t31.5 -66.5q0 -40 -31.5 -69.5t-78.5 -29.5zM918 1382q-48 0 -79.5 29t-31.5 70q0 39 31 66.5t80 27.5q46 0 78 -28t32 -66q0 -40 -32.5 -69.5t-77.5 -29.5zM547 -35q-117 0 -211 30.5
t-153.5 97t-59.5 159.5q0 78 40 138.5t114 100.5t157 65.5t191 43.5q32 5 84 13t82 12.5t72.5 13.5t67 17t52.5 22t43 30.5t25 40t10 52.5q0 104 -105 183t-268 79q-145 0 -248.5 -67.5t-142.5 -180.5l-125 39q37 102 123 173.5t188 102.5t213 31q70 0 138 -12.5
t133.5 -41.5t115 -71t79.5 -106t30 -142v-436q0 -131 10 -204.5t33 -147.5h-125q-35 104 -35 250h-6q-71 -129 -202 -207t-320 -78zM555 59q90 0 172 26t141.5 68.5t104 95t66.5 106.5t22 102v164q-58 -40 -119.5 -59t-212.5 -42q-53 -8 -81 -13t-85.5 -17.5t-92 -25
t-80.5 -33.5t-71.5 -44.5t-44 -57.5t-18.5 -73q0 -90 82 -143.5t217 -53.5z" />
    <glyph glyph-name="aring" unicode="&#xe5;" horiz-adv-x="1402" 
d="M715 1245q-114 0 -189 61t-75 156q0 92 75 152.5t189 60.5q111 0 185.5 -60.5t74.5 -152.5q0 -94 -74.5 -155.5t-185.5 -61.5zM715 1331q70 0 116 35.5t46 95.5q0 58 -46 92.5t-116 34.5q-73 0 -120.5 -34.5t-47.5 -92.5q0 -60 47.5 -95.5t120.5 -35.5zM547 -35
q-117 0 -211 30.5t-153.5 97t-59.5 159.5q0 78 40 138.5t114 100.5t157 65.5t191 43.5q32 5 84 13t82 12.5t72.5 13.5t67 17t52.5 22t43 30.5t25 40t10 52.5q0 104 -105 183t-268 79q-145 0 -248.5 -67.5t-142.5 -180.5l-125 39q37 102 123 173.5t188 102.5t213 31
q70 0 138 -12.5t133.5 -41.5t115 -71t79.5 -106t30 -142v-436q0 -131 10 -204.5t33 -147.5h-125q-35 104 -35 250h-6q-71 -129 -202 -207t-320 -78zM555 59q90 0 172 26t141.5 68.5t104 95t66.5 106.5t22 102v164q-58 -40 -119.5 -59t-212.5 -42q-53 -8 -81 -13t-85.5 -17.5
t-92 -25t-80.5 -33.5t-71.5 -44.5t-44 -57.5t-18.5 -73q0 -90 82 -143.5t217 -53.5z" />
    <glyph glyph-name="ae" unicode="&#xe6;" horiz-adv-x="2467" 
d="M539 -35q-183 0 -299.5 76t-116.5 213q0 77 37.5 135.5t109 98.5t157 66t200.5 46q32 5 84 13t82 12.5t72.5 13.5t67 17t52.5 22t43 30.5t25 40t10 52.5q0 104 -105 183t-268 79q-145 0 -248.5 -67.5t-142.5 -180.5l-125 39q38 102 123.5 173t187.5 102.5t215 31.5
q72 0 143 -14t137.5 -43t118 -78.5t75.5 -114.5q86 118 229 184t321 66q78 0 154.5 -13.5t161.5 -52t148.5 -98t105 -162t41.5 -233.5v-47h-1141q0 -144 69.5 -256t191 -172.5t274.5 -60.5q185 0 318 86t196 221l112 -35q-77 -177 -246.5 -275t-386.5 -98
q-208 0 -370.5 86.5t-223.5 249.5h-4q-67 -146 -222 -241t-363 -95zM1200 649h998q-1 89 -30 161t-76.5 118.5t-111 77.5t-128.5 44t-134 13q-205 0 -345.5 -113t-172.5 -301zM557 59q108 0 205.5 40t161 100.5t100.5 129t37 128.5v166q-67 -44 -126 -61t-204 -40
q-48 -7 -83 -12.5t-88 -17.5t-91.5 -24.5t-81 -33t-69.5 -44.5t-44.5 -57.5t-17.5 -72.5q0 -92 84.5 -146.5t216.5 -54.5z" />
    <glyph glyph-name="ccedilla" unicode="&#xe7;" horiz-adv-x="1492" 
d="M1313 375l112 -33q-75 -176 -238 -273.5t-374 -103.5l-111 -131q44 19 109 19q95 0 156 -44.5t61 -115.5q0 -79 -74.5 -129.5t-185.5 -50.5q-83 0 -162 30t-133 78l59 49q38 -40 102 -65t128 -25q72 0 121 31t49 80q0 44 -44 73t-112 29q-67 0 -117 -26l-59 49l121 151
q-268 20 -433 182.5t-165 411.5q0 266 186.5 433t481.5 167q89 0 170.5 -17t158.5 -53t139.5 -98.5t102.5 -146.5l-121 -41q-54 119 -175.5 187.5t-283.5 68.5q-239 0 -382.5 -141t-143.5 -359q0 -221 150 -358t389 -137q190 0 321 85t197 224z" />
    <glyph glyph-name="egrave" unicode="&#xe8;" horiz-adv-x="1525" 
d="M829 1278h-112l-373 393h184zM782 -35q-188 0 -338 74.5t-235.5 211t-85.5 310.5q0 263 185.5 431.5t473.5 168.5q78 0 154.5 -13.5t161.5 -52t148.5 -98t105 -162t41.5 -233.5v-57h-1137q1 -142 68.5 -252t188 -170t273.5 -60q186 0 319 87t198 223l110 -35
q-78 -178 -247 -275.5t-384 -97.5zM260 649h997q-1 89 -30 160.5t-76.5 118t-111 78t-128.5 44.5t-133 13q-208 0 -347.5 -114t-170.5 -300z" />
    <glyph glyph-name="eacute" unicode="&#xe9;" horiz-adv-x="1525" 
d="M1190 1671l-373 -393h-110l301 393h182zM782 -35q-188 0 -338 74.5t-235.5 211t-85.5 310.5q0 263 185.5 431.5t473.5 168.5q78 0 154.5 -13.5t161.5 -52t148.5 -98t105 -162t41.5 -233.5v-57h-1137q1 -142 68.5 -252t188 -170t273.5 -60q186 0 319 87t198 223l110 -35
q-78 -178 -247 -275.5t-384 -97.5zM260 649h997q-1 89 -30 160.5t-76.5 118t-111 78t-128.5 44.5t-133 13q-208 0 -347.5 -114t-170.5 -300z" />
    <glyph glyph-name="ecircumflex" unicode="&#xea;" horiz-adv-x="1525" 
d="M436 1278h-119l357 356h184l356 -356h-118q-254 211 -328 276q-182 -157 -332 -276zM782 -35q-188 0 -338 74.5t-235.5 211t-85.5 310.5q0 263 185.5 431.5t473.5 168.5q78 0 154.5 -13.5t161.5 -52t148.5 -98t105 -162t41.5 -233.5v-57h-1137q1 -142 68.5 -252t188 -170
t273.5 -60q186 0 319 87t198 223l110 -35q-78 -178 -247 -275.5t-384 -97.5zM260 649h997q-1 89 -30 160.5t-76.5 118t-111 78t-128.5 44.5t-133 13q-208 0 -347.5 -114t-170.5 -300z" />
    <glyph glyph-name="edieresis" unicode="&#xeb;" horiz-adv-x="1525" 
d="M563 1382q-46 0 -79 29.5t-33 69.5q0 38 33 66t79 28q47 0 79 -27.5t32 -66.5q0 -40 -32 -69.5t-79 -29.5zM973 1382q-48 0 -79.5 29t-31.5 70q0 39 31 66.5t80 27.5q46 0 78 -28t32 -66q0 -40 -32.5 -69.5t-77.5 -29.5zM782 -35q-188 0 -338 74.5t-235.5 211
t-85.5 310.5q0 263 185.5 431.5t473.5 168.5q78 0 154.5 -13.5t161.5 -52t148.5 -98t105 -162t41.5 -233.5v-57h-1137q1 -142 68.5 -252t188 -170t273.5 -60q186 0 319 87t198 223l110 -35q-78 -178 -247 -275.5t-384 -97.5zM260 649h997q-1 89 -30 160.5t-76.5 118t-111 78
t-128.5 44.5t-133 13q-208 0 -347.5 -114t-170.5 -300z" />
    <glyph glyph-name="igrave" unicode="&#xec;" horiz-adv-x="585" 
d="M354 1276h-112l-373 393h184zM354 0h-123v1128h123v-1128z" />
    <glyph glyph-name="iacute" unicode="&#xed;" horiz-adv-x="585" 
d="M715 1669l-373 -393h-111l301 393h183zM354 0h-123v1128h123v-1128z" />
    <glyph glyph-name="icircumflex" unicode="&#xee;" horiz-adv-x="585" 
d="M-39 1276h-119l357 356h184l356 -356h-118q-254 211 -328 276q-182 -157 -332 -276zM354 0h-123v1128h123v-1128z" />
    <glyph glyph-name="idieresis" unicode="&#xef;" horiz-adv-x="585" 
d="M88 1380q-46 0 -79.5 29.5t-33.5 69.5q0 38 33.5 66t79.5 28q47 0 79 -27.5t32 -66.5q0 -40 -32 -69.5t-79 -29.5zM498 1380q-48 0 -79.5 29t-31.5 70q0 39 31 66.5t80 27.5q46 0 78 -28t32 -66q0 -40 -32.5 -69.5t-77.5 -29.5zM354 0h-123v1128h123v-1128z" />
    <glyph glyph-name="eth" unicode="&#xf0;" horiz-adv-x="1581" 
d="M1221 1579l-248 -119q465 -286 465 -803q0 -166 -48 -298t-135 -218t-207 -131t-266 -45q-150 0 -276 46.5t-210 126t-130.5 184t-46.5 221.5q0 162 85.5 293t235 204.5t332.5 73.5q156 0 276 -54t218 -169h4q-47 165 -147.5 290.5t-270.5 221.5l-379 -182l-43 69
l330 160q-163 75 -365 131l31 98q265 -68 459 -170l289 140zM778 66q148 0 267.5 58.5t188.5 167t69 247.5q0 140 -70 250t-189 168.5t-264 58.5q-227 0 -377.5 -136t-150.5 -339q0 -198 147.5 -336.5t378.5 -138.5z" />
    <glyph glyph-name="ntilde" unicode="&#xf1;" horiz-adv-x="1552" 
d="M956 1337q-26 0 -49.5 4t-37.5 7t-35 15t-26.5 14.5t-28.5 19.5t-25 18l-43 33q-25 18 -39 27.5t-37.5 17.5t-48.5 8q-58 0 -96.5 -42t-38.5 -107h-97q1 105 68 171t170 66q53 0 92 -17.5t86 -51.5l49 -37q81 -58 144 -58q60 0 93.5 41.5t33.5 108.5h98
q0 -108 -61.5 -173t-170.5 -65zM354 0h-123v1128h119v-227h4q79 133 206.5 196.5t285.5 63.5q75 0 143.5 -13.5t134 -46.5t113.5 -83.5t77 -130t29 -180.5v-707h-122v657q0 89 -23.5 159.5t-61.5 115.5t-91 75t-108 42t-116 12q-110 0 -201.5 -38t-148 -99.5t-87 -135
t-30.5 -149.5v-639z" />
    <glyph glyph-name="ograve" unicode="&#xf2;" horiz-adv-x="1587" 
d="M856 1278h-113l-372 393h184zM795 -35q-195 0 -348.5 75.5t-238.5 211.5t-85 309q0 264 188 432t484 168q194 0 346.5 -76t237.5 -213t85 -311q0 -173 -85 -309t-237.5 -211.5t-346.5 -75.5zM795 66q239 0 387.5 138t148.5 357q0 221 -149 360.5t-387 139.5t-388.5 -140
t-150.5 -360q0 -218 150.5 -356.5t388.5 -138.5z" />
    <glyph glyph-name="oacute" unicode="&#xf3;" horiz-adv-x="1587" 
d="M1217 1671l-373 -393h-111l301 393h183zM795 -35q-195 0 -348.5 75.5t-238.5 211.5t-85 309q0 264 188 432t484 168q194 0 346.5 -76t237.5 -213t85 -311q0 -173 -85 -309t-237.5 -211.5t-346.5 -75.5zM795 66q239 0 387.5 138t148.5 357q0 221 -149 360.5t-387 139.5
t-388.5 -140t-150.5 -360q0 -218 150.5 -356.5t388.5 -138.5z" />
    <glyph glyph-name="ocircumflex" unicode="&#xf4;" horiz-adv-x="1587" 
d="M463 1278h-119l356 356h185l356 -356h-119q-238 198 -327 276q-182 -157 -332 -276zM795 -35q-195 0 -348.5 75.5t-238.5 211.5t-85 309q0 264 188 432t484 168q194 0 346.5 -76t237.5 -213t85 -311q0 -173 -85 -309t-237.5 -211.5t-346.5 -75.5zM795 66q239 0 387.5 138
t148.5 357q0 221 -149 360.5t-387 139.5t-388.5 -140t-150.5 -360q0 -218 150.5 -356.5t388.5 -138.5z" />
    <glyph glyph-name="otilde" unicode="&#xf5;" horiz-adv-x="1587" 
d="M979 1337q-22 0 -41 2t-37 7.5t-29.5 9t-27.5 13.5t-22.5 14t-24 16.5t-21.5 15.5l-43 33q-25 18 -39 27.5t-37.5 17.5t-48.5 8q-58 0 -96.5 -42t-38.5 -107h-96q1 105 67.5 171t169.5 66q53 0 92.5 -17.5t86.5 -51.5l49 -37q81 -58 143 -58q60 0 93.5 41.5t33.5 108.5
h98q0 -108 -61.5 -173t-169.5 -65zM795 -35q-195 0 -348.5 75.5t-238.5 211.5t-85 309q0 264 188 432t484 168q194 0 346.5 -76t237.5 -213t85 -311q0 -173 -85 -309t-237.5 -211.5t-346.5 -75.5zM795 66q239 0 387.5 138t148.5 357q0 221 -149 360.5t-387 139.5
t-388.5 -140t-150.5 -360q0 -218 150.5 -356.5t388.5 -138.5z" />
    <glyph glyph-name="odieresis" unicode="&#xf6;" horiz-adv-x="1587" 
d="M590 1382q-46 0 -79.5 29.5t-33.5 69.5q0 38 33.5 66t79.5 28q47 0 78.5 -27.5t31.5 -66.5q0 -40 -31.5 -69.5t-78.5 -29.5zM999 1382q-48 0 -79 29t-31 70q0 39 31 66.5t79 27.5q46 0 78.5 -28t32.5 -66q0 -40 -33 -69.5t-78 -29.5zM795 -35q-195 0 -348.5 75.5
t-238.5 211.5t-85 309q0 264 188 432t484 168q194 0 346.5 -76t237.5 -213t85 -311q0 -173 -85 -309t-237.5 -211.5t-346.5 -75.5zM795 66q239 0 387.5 138t148.5 357q0 221 -149 360.5t-387 139.5t-388.5 -140t-150.5 -360q0 -218 150.5 -356.5t388.5 -138.5z" />
    <glyph glyph-name="divide" unicode="&#xf7;" horiz-adv-x="1234" 
d="M625 821q-49 0 -83 29.5t-34 71.5q0 41 34 69.5t83 28.5q46 0 79 -28.5t33 -69.5t-33 -71t-79 -30zM1040 571h-845v107h845v-107zM625 227q-49 0 -83 30.5t-34 72.5q0 40 34 69t83 29q46 0 79 -29t33 -69q0 -43 -33 -73t-79 -30z" />
    <glyph glyph-name="oslash" unicode="&#xf8;" horiz-adv-x="1587" 
d="M1413 1180l-153 -172q98 -80 151 -195t53 -252q0 -173 -85 -309t-237.5 -211.5t-346.5 -75.5q-214 0 -379 92l-99 -112h-141l154 172q-99 79 -153 193t-54 251q0 264 188 432t484 168q217 0 381 -96l102 115h135zM256 561q0 -219 152 -358l694 778q-132 80 -307 80
q-238 0 -388.5 -140t-150.5 -360zM795 66q239 0 387.5 138t148.5 357q0 221 -147 359l-692 -779q129 -75 303 -75z" />
    <glyph glyph-name="ugrave" unicode="&#xf9;" horiz-adv-x="1529" 
d="M799 1278h-113l-373 393h185zM694 -35q-71 0 -137 13.5t-130.5 47t-112 83.5t-76.5 130t-29 181v708h123v-661q0 -89 23.5 -160t62 -115t91 -73.5t105.5 -41t111 -11.5q105 0 193 38t142.5 99.5t84 134.5t29.5 147v643h122v-776q0 -123 10 -197.5t35 -154.5h-127
q-36 115 -36 221h-4q-78 -131 -203 -193.5t-277 -62.5z" />
    <glyph glyph-name="uacute" unicode="&#xfa;" horiz-adv-x="1529" 
d="M1157 1671l-373 -393h-110l301 393h182zM694 -35q-71 0 -137 13.5t-130.5 47t-112 83.5t-76.5 130t-29 181v708h123v-661q0 -89 23.5 -160t62 -115t91 -73.5t105.5 -41t111 -11.5q105 0 193 38t142.5 99.5t84 134.5t29.5 147v643h122v-776q0 -123 10 -197.5t35 -154.5
h-127q-36 115 -36 221h-4q-78 -131 -203 -193.5t-277 -62.5z" />
    <glyph glyph-name="ucircumflex" unicode="&#xfb;" horiz-adv-x="1529" 
d="M406 1278h-119l356 356h184l357 -356h-119q-254 211 -328 276q-195 -167 -331 -276zM694 -35q-71 0 -137 13.5t-130.5 47t-112 83.5t-76.5 130t-29 181v708h123v-661q0 -89 23.5 -160t62 -115t91 -73.5t105.5 -41t111 -11.5q105 0 193 38t142.5 99.5t84 134.5t29.5 147
v643h122v-776q0 -123 10 -197.5t35 -154.5h-127q-36 115 -36 221h-4q-78 -131 -203 -193.5t-277 -62.5z" />
    <glyph glyph-name="udieresis" unicode="&#xfc;" horiz-adv-x="1529" 
d="M530 1382q-46 0 -79 29.5t-33 69.5q0 38 33 66t79 28q47 0 79 -27.5t32 -66.5q0 -40 -32 -69.5t-79 -29.5zM940 1382q-48 0 -79.5 29t-31.5 70q0 39 31 66.5t80 27.5q46 0 78.5 -28t32.5 -66q0 -40 -33 -69.5t-78 -29.5zM694 -35q-71 0 -137 13.5t-130.5 47t-112 83.5
t-76.5 130t-29 181v708h123v-661q0 -89 23.5 -160t62 -115t91 -73.5t105.5 -41t111 -11.5q105 0 193 38t142.5 99.5t84 134.5t29.5 147v643h122v-776q0 -123 10 -197.5t35 -154.5h-127q-36 115 -36 221h-4q-78 -131 -203 -193.5t-277 -62.5z" />
    <glyph glyph-name="yacute" unicode="&#xfd;" horiz-adv-x="1312" 
d="M1061 1671l-373 -393h-110l301 393h182zM498 -451h-109l211 441l-555 1138h135q90 -182 250 -519.5t227 -475.5h5q44 93 211 449.5t260 545.5h135z" />
    <glyph glyph-name="thorn" unicode="&#xfe;" horiz-adv-x="1648" 
d="M354 -451h-123v2089h123v-759h6q84 139 225.5 210.5t309.5 71.5q131 0 247.5 -44.5t201 -122.5t133.5 -190t49 -241q0 -173 -84 -310.5t-228 -212.5t-321 -75q-170 0 -310.5 70.5t-222.5 202.5h-6v-689zM881 66q221 0 366.5 141.5t145.5 355.5q0 216 -146.5 357
t-365.5 141q-142 0 -262 -62.5t-192.5 -178t-72.5 -259.5t72.5 -258t192.5 -175.5t262 -61.5z" />
    <glyph glyph-name="ydieresis" unicode="&#xff;" horiz-adv-x="1312" 
d="M434 1382q-46 0 -79 29.5t-33 69.5q0 38 33 66t79 28q47 0 79 -27.5t32 -66.5q0 -40 -32 -69.5t-79 -29.5zM844 1382q-48 0 -79.5 29t-31.5 70q0 39 31 66.5t80 27.5q46 0 78 -28t32 -66q0 -40 -32.5 -69.5t-77.5 -29.5zM498 -451h-109l211 441l-555 1138h135
q90 -182 250 -519.5t227 -475.5h5q44 93 211 449.5t260 545.5h135z" />
    <glyph glyph-name="Amacron" unicode="&#x100;" horiz-adv-x="1798" 
d="M1290 1839h-782v100h782v-100zM182 0h-139l786 1597h138l788 -1597h-137q-140 270 -293 584h-856q-96 -194 -287 -584zM520 692h752q-28 58 -93.5 192.5t-102 210t-87 181.5t-86.5 188h-6q-35 -74 -171.5 -352t-205.5 -420z" />
    <glyph glyph-name="amacron" unicode="&#x101;" horiz-adv-x="1402" 
d="M1126 1430h-825v98h825v-98zM547 -35q-117 0 -211 30.5t-153.5 97t-59.5 159.5q0 78 40 138.5t114 100.5t157 65.5t191 43.5q32 5 84 13t82 12.5t72.5 13.5t67 17t52.5 22t43 30.5t25 40t10 52.5q0 104 -105 183t-268 79q-145 0 -248.5 -67.5t-142.5 -180.5l-125 39
q37 102 123 173.5t188 102.5t213 31q70 0 138 -12.5t133.5 -41.5t115 -71t79.5 -106t30 -142v-436q0 -131 10 -204.5t33 -147.5h-125q-35 104 -35 250h-6q-71 -129 -202 -207t-320 -78zM555 59q90 0 172 26t141.5 68.5t104 95t66.5 106.5t22 102v164q-58 -40 -119.5 -59
t-212.5 -42q-53 -8 -81 -13t-85.5 -17.5t-92 -25t-80.5 -33.5t-71.5 -44.5t-44 -57.5t-18.5 -73q0 -90 82 -143.5t217 -53.5z" />
    <glyph glyph-name="Abreve" unicode="&#x102;" horiz-adv-x="1798" 
d="M899 1726q-101 0 -186 29.5t-139.5 76.5t-85.5 102.5t-35 111.5h114q8 -87 104 -155t228 -68t227 68t103 155h114q-2 -55 -33 -110.5t-85 -103t-139.5 -77t-186.5 -29.5zM182 0h-139l786 1597h138l788 -1597h-137q-140 270 -293 584h-856q-96 -194 -287 -584zM520 692
h752q-28 58 -93.5 192.5t-102 210t-87 181.5t-86.5 188h-6q-35 -74 -171.5 -352t-205.5 -420z" />
    <glyph glyph-name="abreve" unicode="&#x103;" horiz-adv-x="1402" 
d="M713 1278q-204 0 -320.5 110.5t-124.5 284.5h117q6 -135 96 -217t234 -82q140 0 230.5 80.5t96.5 218.5h119q-8 -174 -126 -284.5t-322 -110.5zM547 -35q-117 0 -211 30.5t-153.5 97t-59.5 159.5q0 78 40 138.5t114 100.5t157 65.5t191 43.5q32 5 84 13t82 12.5
t72.5 13.5t67 17t52.5 22t43 30.5t25 40t10 52.5q0 104 -105 183t-268 79q-145 0 -248.5 -67.5t-142.5 -180.5l-125 39q37 102 123 173.5t188 102.5t213 31q70 0 138 -12.5t133.5 -41.5t115 -71t79.5 -106t30 -142v-436q0 -131 10 -204.5t33 -147.5h-125q-35 104 -35 250h-6
q-71 -129 -202 -207t-320 -78zM555 59q90 0 172 26t141.5 68.5t104 95t66.5 106.5t22 102v164q-58 -40 -119.5 -59t-212.5 -42q-53 -8 -81 -13t-85.5 -17.5t-92 -25t-80.5 -33.5t-71.5 -44.5t-44 -57.5t-18.5 -73q0 -90 82 -143.5t217 -53.5z" />
    <glyph glyph-name="Aogonek" unicode="&#x104;" horiz-adv-x="1798" 
d="M1757 -379q48 0 105 14v-84q-66 -14 -113 -14q-136 0 -226.5 63t-90.5 169q0 134 190 231h-4q-140 270 -293 584h-856q-96 -194 -287 -584h-139l786 1597h138l788 -1597h-8q-213 -94 -213 -217q0 -73 64 -117.5t159 -44.5zM520 692h752q-28 58 -93.5 192.5t-102 210
t-87 181.5t-86.5 188h-6q-35 -74 -171.5 -352t-205.5 -420z" />
    <glyph glyph-name="aogonek" unicode="&#x105;" horiz-adv-x="1402" 
d="M1237 -379q47 0 104 14v-84q-63 -14 -116 -14q-132 0 -222 62.5t-90 164.5q0 138 197 236q-35 104 -35 250h-6q-71 -129 -202 -207t-320 -78q-117 0 -211 30.5t-153.5 97t-59.5 159.5q0 78 40 138.5t114 100.5t157 65.5t191 43.5q32 5 84 13t82 12.5t72.5 13.5t67 17
t52.5 22t43 30.5t25 40t10 52.5q0 104 -105 183t-268 79q-145 0 -248.5 -67.5t-142.5 -180.5l-125 39q37 102 123 173.5t188 102.5t213 31q70 0 138 -12.5t133.5 -41.5t115 -71t79.5 -106t30 -142v-436q0 -131 10 -204.5t33 -147.5h-8q-211 -97 -211 -217q0 -73 64.5 -117.5
t156.5 -44.5zM1061 457v164q-58 -40 -119.5 -59t-212.5 -42q-53 -8 -81 -13t-85.5 -17.5t-92 -25t-80.5 -33.5t-71.5 -44.5t-44 -57.5t-18.5 -73q0 -90 82 -143.5t217 -53.5q90 0 172 26t141.5 68.5t104 95t66.5 106.5t22 102z" />
    <glyph glyph-name="Cacute" unicode="&#x106;" horiz-adv-x="2070" 
d="M1475 2038l-412 -318h-115l320 318h207zM1102 -35q-280 0 -500 105.5t-342.5 294t-122.5 428.5q0 183 74.5 340.5t202.5 265.5t303 169.5t373 61.5q132 0 259 -28t240.5 -83t202 -145t133.5 -205l-115 -43q-90 187 -285 290.5t-433 103.5q-129 0 -249.5 -31.5t-222 -93.5
t-177.5 -148.5t-119 -204t-43 -251.5q0 -140 46.5 -258.5t126.5 -201.5t187.5 -141.5t228.5 -86t250 -27.5q156 0 288.5 40.5t225.5 111.5t156 158t96 189l119 -38q-35 -96 -89.5 -179.5t-134.5 -156.5t-178 -125t-226.5 -81.5t-274.5 -29.5z" />
    <glyph glyph-name="cacute" unicode="&#x107;" horiz-adv-x="1492" 
d="M1174 1671l-373 -393h-111l301 393h183zM786 -35q-294 0 -478.5 165.5t-184.5 430.5q0 266 186.5 433t481.5 167q89 0 170.5 -17t158.5 -53t139.5 -98.5t102.5 -146.5l-121 -41q-54 119 -175.5 187.5t-283.5 68.5q-239 0 -382.5 -141t-143.5 -359q0 -221 150 -358
t389 -137q190 0 321 85t197 224l112 -33q-78 -182 -248.5 -279.5t-390.5 -97.5z" />
    <glyph glyph-name="Cdotaccent" unicode="&#x10a;" horiz-adv-x="2070" 
d="M1038 1790q-51 0 -85.5 31t-34.5 75q0 42 34.5 71.5t85.5 29.5q49 0 84 -30t35 -71q0 -44 -34.5 -75t-84.5 -31zM1102 -35q-280 0 -500 105.5t-342.5 294t-122.5 428.5q0 183 74.5 340.5t202.5 265.5t303 169.5t373 61.5q132 0 259 -28t240.5 -83t202 -145t133.5 -205
l-115 -43q-90 187 -285 290.5t-433 103.5q-129 0 -249.5 -31.5t-222 -93.5t-177.5 -148.5t-119 -204t-43 -251.5q0 -140 46.5 -258.5t126.5 -201.5t187.5 -141.5t228.5 -86t250 -27.5q156 0 288.5 40.5t225.5 111.5t156 158t96 189l119 -38q-35 -96 -89.5 -179.5
t-134.5 -156.5t-178 -125t-226.5 -81.5t-274.5 -29.5z" />
    <glyph glyph-name="cdotaccent" unicode="&#x10b;" horiz-adv-x="1492" 
d="M754 1436q-51 0 -86 30t-35 74q0 42 35 72t86 30q49 0 82.5 -30t33.5 -72q0 -44 -33.5 -74t-82.5 -30zM786 -35q-294 0 -478.5 165.5t-184.5 430.5q0 266 186.5 433t481.5 167q89 0 170.5 -17t158.5 -53t139.5 -98.5t102.5 -146.5l-121 -41q-54 119 -175.5 187.5
t-283.5 68.5q-239 0 -382.5 -141t-143.5 -359q0 -221 150 -358t389 -137q190 0 321 85t197 224l112 -33q-78 -182 -248.5 -279.5t-390.5 -97.5z" />
    <glyph glyph-name="Ccaron" unicode="&#x10c;" horiz-adv-x="2070" 
d="M1325 2017h117l-316 -297h-178l-315 297h115q188 -141 290 -227q37 32 79 66t65 51.5t76.5 58.5t66.5 51zM1102 -35q-280 0 -500 105.5t-342.5 294t-122.5 428.5q0 183 74.5 340.5t202.5 265.5t303 169.5t373 61.5q132 0 259 -28t240.5 -83t202 -145t133.5 -205l-115 -43
q-90 187 -285 290.5t-433 103.5q-129 0 -249.5 -31.5t-222 -93.5t-177.5 -148.5t-119 -204t-43 -251.5q0 -140 46.5 -258.5t126.5 -201.5t187.5 -141.5t228.5 -86t250 -27.5q156 0 288.5 40.5t225.5 111.5t156 158t96 189l119 -38q-35 -96 -89.5 -179.5t-134.5 -156.5
t-178 -125t-226.5 -81.5t-274.5 -29.5z" />
    <glyph glyph-name="ccaron" unicode="&#x10d;" horiz-adv-x="1492" 
d="M842 1280h-185l-356 356h119q224 -182 332 -276q115 103 327 276h119zM786 -35q-294 0 -478.5 165.5t-184.5 430.5q0 266 186.5 433t481.5 167q89 0 170.5 -17t158.5 -53t139.5 -98.5t102.5 -146.5l-121 -41q-54 119 -175.5 187.5t-283.5 68.5q-239 0 -382.5 -141
t-143.5 -359q0 -221 150 -358t389 -137q190 0 321 85t197 224l112 -33q-78 -182 -248.5 -279.5t-390.5 -97.5z" />
    <glyph glyph-name="Dcaron" unicode="&#x10e;" horiz-adv-x="1982" 
d="M1206 2017h117l-315 -297h-179l-315 297h115q197 -148 291 -227q80 69 286 227zM952 0h-682v1597h660q187 0 339.5 -40.5t257 -112t176 -171.5t104 -216t32.5 -248q0 -178 -61 -327t-173 -256t-280 -166.5t-373 -59.5zM403 106h572q339 0 533 188.5t194 502.5
q0 323 -206.5 508.5t-592.5 185.5h-500v-1385z" />
    <glyph glyph-name="dcaron" unicode="&#x10f;" horiz-adv-x="1646" 
d="M752 -35q-178 0 -321.5 75.5t-226.5 212t-83 308.5q0 174 84.5 312t229 213t321.5 75q166 0 305.5 -70t224.5 -202h6v749h123v-1286q0 -129 10 -204t33 -148h-125q-37 118 -37 242h-6q-80 -133 -223 -205t-315 -72zM1671 1194h-88l143 248q-37 10 -58 36.5t-21 59.5
q0 41 34.5 70.5t83.5 29.5q48 0 82.5 -28.5t34.5 -69.5q0 -35 -37.5 -95.5t-173.5 -250.5zM764 66q143 0 263.5 62t192.5 176.5t72 258.5q0 109 -42.5 203t-114 158t-168 100.5t-203.5 36.5q-221 0 -365.5 -142t-144.5 -358q0 -214 146 -354.5t364 -140.5z" />
    <glyph glyph-name="Dcroat" unicode="&#x110;" horiz-adv-x="1982" 
d="M270 1597h660q187 0 339.5 -40.5t257 -112t176 -171.5t104 -216t32.5 -248q0 -178 -61 -327t-173 -256t-280 -166.5t-373 -59.5h-682v750h-196v96h196v751zM975 106q339 0 533 188.5t194 502.5q0 323 -206.5 508.5t-592.5 185.5h-500v-645h693v-96h-693v-644h572z" />
    <glyph glyph-name="dcroat" unicode="&#x111;" horiz-adv-x="1646" 
d="M1735 1436v-95h-320v-989q0 -129 10 -204t33 -148h-125q-37 118 -37 242h-6q-80 -133 -223 -205t-315 -72q-178 0 -321.5 75.5t-226.5 212t-83 308.5q0 174 84.5 312t229 213t321.5 75q166 0 305.5 -70t224.5 -202h6v452h-354v95h354v202h123v-202h320zM764 66
q143 0 263.5 62t192.5 176.5t72 258.5q0 109 -42.5 203t-114 158t-168 100.5t-203.5 36.5q-221 0 -365.5 -142t-144.5 -358q0 -214 146 -354.5t364 -140.5z" />
    <glyph glyph-name="Emacron" unicode="&#x112;" horiz-adv-x="1622" 
d="M1217 1839h-783v100h783v-100zM1491 0h-1221v1597h1196v-106h-1063v-614h1014v-109h-1014v-655h1088v-113z" />
    <glyph glyph-name="emacron" unicode="&#x113;" horiz-adv-x="1525" 
d="M1180 1430h-826v98h826v-98zM782 -35q-188 0 -338 74.5t-235.5 211t-85.5 310.5q0 263 185.5 431.5t473.5 168.5q78 0 154.5 -13.5t161.5 -52t148.5 -98t105 -162t41.5 -233.5v-57h-1137q1 -142 68.5 -252t188 -170t273.5 -60q186 0 319 87t198 223l110 -35
q-78 -178 -247 -275.5t-384 -97.5zM260 649h997q-1 89 -30 160.5t-76.5 118t-111 78t-128.5 44.5t-133 13q-208 0 -347.5 -114t-170.5 -300z" />
    <glyph glyph-name="Edotaccent" unicode="&#x116;" horiz-adv-x="1622" 
d="M825 1790q-51 0 -85.5 31t-34.5 75q0 42 34.5 71.5t85.5 29.5q49 0 84 -30t35 -71q0 -44 -34.5 -75t-84.5 -31zM1491 0h-1221v1597h1196v-106h-1063v-614h1014v-109h-1014v-655h1088v-113z" />
    <glyph glyph-name="edotaccent" unicode="&#x117;" horiz-adv-x="1525" 
d="M770 1436q-51 0 -86 30t-35 74q0 42 35 72t86 30q49 0 83 -30t34 -72q0 -44 -33.5 -74t-83.5 -30zM782 -35q-188 0 -338 74.5t-235.5 211t-85.5 310.5q0 263 185.5 431.5t473.5 168.5q78 0 154.5 -13.5t161.5 -52t148.5 -98t105 -162t41.5 -233.5v-57h-1137
q1 -142 68.5 -252t188 -170t273.5 -60q186 0 319 87t198 223l110 -35q-78 -178 -247 -275.5t-384 -97.5zM260 649h997q-1 89 -30 160.5t-76.5 118t-111 78t-128.5 44.5t-133 13q-208 0 -347.5 -114t-170.5 -300z" />
    <glyph glyph-name="Eogonek" unicode="&#x118;" horiz-adv-x="1622" 
d="M1501 -379q48 0 105 14v-84q-66 -14 -113 -14q-136 0 -226.5 63t-90.5 169q0 134 190 231h-1096v1597h1196v-106h-1063v-614h1014v-109h-1014v-655h1088v-113q-213 -94 -213 -217q0 -73 64 -117.5t159 -44.5z" />
    <glyph glyph-name="eogonek" unicode="&#x119;" horiz-adv-x="1525" 
d="M1012 -4q-205 -94 -205 -213q0 -73 64.5 -117.5t156.5 -44.5q48 0 105 14v-84q-63 -14 -117 -14q-132 0 -221.5 62.5t-89.5 164.5q0 118 137 203q-18 -2 -60 -2q-188 0 -338 74.5t-235.5 211t-85.5 310.5q0 263 185.5 431.5t473.5 168.5q78 0 154.5 -13.5t161.5 -52
t148.5 -98t105 -162t41.5 -233.5v-57h-1137q1 -142 68.5 -252t188 -170t273.5 -60q186 0 319 87t198 223l110 -35q-56 -127 -160 -214.5t-241 -127.5zM778 1063q-208 0 -347.5 -114t-170.5 -300h997q-1 89 -30 160.5t-76.5 118t-111 78t-128.5 44.5t-133 13z" />
    <glyph glyph-name="Ecaron" unicode="&#x11a;" horiz-adv-x="1622" 
d="M1112 2017h117l-316 -297h-178l-315 297h115q188 -141 290 -227q37 32 79 66t65 51.5t76.5 58.5t66.5 51zM1491 0h-1221v1597h1196v-106h-1063v-614h1014v-109h-1014v-655h1088v-113z" />
    <glyph glyph-name="ecaron" unicode="&#x11b;" horiz-adv-x="1525" 
d="M858 1280h-184l-357 356h119q224 -182 332 -276q105 95 328 276h118zM782 -35q-188 0 -338 74.5t-235.5 211t-85.5 310.5q0 263 185.5 431.5t473.5 168.5q78 0 154.5 -13.5t161.5 -52t148.5 -98t105 -162t41.5 -233.5v-57h-1137q1 -142 68.5 -252t188 -170t273.5 -60
q186 0 319 87t198 223l110 -35q-78 -178 -247 -275.5t-384 -97.5zM260 649h997q-1 89 -30 160.5t-76.5 118t-111 78t-128.5 44.5t-133 13q-208 0 -347.5 -114t-170.5 -300z" />
    <glyph glyph-name="Gbreve" unicode="&#x11e;" horiz-adv-x="2164" 
d="M1038 1726q-101 0 -186 29.5t-139.5 76.5t-85.5 102.5t-35 111.5h115q8 -87 103.5 -155t227.5 -68t227 68t103 155h115q-2 -55 -33 -110.5t-85.5 -103t-140 -77t-186.5 -29.5zM1090 -35q-274 0 -491.5 105t-339.5 294t-122 427q0 184 74.5 341.5t202.5 266t303 170
t373 61.5q132 0 259 -28t240.5 -83t202 -145t133.5 -205l-115 -43q-90 187 -285 290.5t-433 103.5q-162 0 -308 -50t-258.5 -141t-178.5 -230.5t-66 -307.5q0 -139 46.5 -257.5t125.5 -201.5t185 -141.5t225 -86.5t245 -28q160 0 296.5 45.5t232.5 124.5t154 188t67 234
h-701v104h834v-772h-113q0 64 -1 191.5t-1 189.5h-12q-97 -197 -295 -306.5t-479 -109.5z" />
    <glyph glyph-name="gbreve" unicode="&#x11f;" horiz-adv-x="1644" 
d="M791 1278q-204 0 -320.5 110.5t-124.5 284.5h117q6 -135 96 -217t234 -82q140 0 230.5 80.5t96.5 218.5h119q-8 -174 -126 -284.5t-322 -110.5zM799 -483q-463 0 -602 331l114 35q106 -268 492 -268q76 0 142.5 13.5t131.5 49t110.5 91t74 146t28.5 208.5v153h-6
q-82 -133 -223 -204.5t-311 -71.5q-177 0 -322 76.5t-227 210t-82 297.5q0 166 84 298.5t228.5 205.5t320.5 73q168 0 311 -72t227 -208h4v247h119v-983q0 -169 -44.5 -292.5t-128 -196t-192.5 -106t-249 -33.5zM762 100q142 0 263 62.5t193 175t72 248.5t-72 245.5
t-192.5 169.5t-263.5 60q-220 0 -365 -137.5t-145 -339.5q0 -203 147 -343.5t363 -140.5z" />
    <glyph glyph-name="Gdotaccent" unicode="&#x120;" horiz-adv-x="2164" 
d="M1038 1790q-51 0 -85.5 31t-34.5 75q0 42 34.5 71.5t85.5 29.5q49 0 84 -30t35 -71q0 -44 -34.5 -75t-84.5 -31zM1090 -35q-274 0 -491.5 105t-339.5 294t-122 427q0 184 74.5 341.5t202.5 266t303 170t373 61.5q132 0 259 -28t240.5 -83t202 -145t133.5 -205l-115 -43
q-90 187 -285 290.5t-433 103.5q-162 0 -308 -50t-258.5 -141t-178.5 -230.5t-66 -307.5q0 -139 46.5 -257.5t125.5 -201.5t185 -141.5t225 -86.5t245 -28q160 0 296.5 45.5t232.5 124.5t154 188t67 234h-701v104h834v-772h-113q0 64 -1 191.5t-1 189.5h-12
q-97 -197 -295 -306.5t-479 -109.5z" />
    <glyph glyph-name="gdotaccent" unicode="&#x121;" horiz-adv-x="1644" 
d="M793 1436q-51 0 -86 30t-35 74q0 42 35 72t86 30q49 0 82.5 -30t33.5 -72q0 -44 -33.5 -74t-82.5 -30zM799 -483q-463 0 -602 331l114 35q106 -268 492 -268q76 0 142.5 13.5t131.5 49t110.5 91t74 146t28.5 208.5v153h-6q-82 -133 -223 -204.5t-311 -71.5
q-177 0 -322 76.5t-227 210t-82 297.5q0 166 84 298.5t228.5 205.5t320.5 73q168 0 311 -72t227 -208h4v247h119v-983q0 -169 -44.5 -292.5t-128 -196t-192.5 -106t-249 -33.5zM762 100q142 0 263 62.5t193 175t72 248.5t-72 245.5t-192.5 169.5t-263.5 60
q-220 0 -365 -137.5t-145 -339.5q0 -203 147 -343.5t363 -140.5z" />
    <glyph glyph-name="uni0122" unicode="&#x122;" horiz-adv-x="2164" 
d="M1090 -35q-274 0 -491.5 105t-339.5 294t-122 427q0 184 74.5 341.5t202.5 266t303 170t373 61.5q132 0 259 -28t240.5 -83t202 -145t133.5 -205l-115 -43q-90 187 -285 290.5t-433 103.5q-162 0 -308 -50t-258.5 -141t-178.5 -230.5t-66 -307.5q0 -139 46.5 -257.5
t125.5 -201.5t185 -141.5t225 -86.5t245 -28q160 0 296.5 45.5t232.5 124.5t154 188t67 234h-701v104h834v-772h-113q0 64 -1 191.5t-1 189.5h-12q-97 -197 -295 -306.5t-479 -109.5zM1008 -498h-64l111 187q-53 10 -78 35.5t-25 60.5q0 40 34.5 68t82.5 28q47 0 81 -28
t34 -68q0 -38 -32.5 -88t-143.5 -195z" />
    <glyph glyph-name="uni0123" unicode="&#x123;" horiz-adv-x="1644" 
d="M643 1348q0 37 34 90.5t175 249.5h88l-143 -244q36 -10 56.5 -36t20.5 -60q0 -41 -33.5 -70t-82.5 -29q-47 0 -81 29t-34 70zM799 -483q-463 0 -602 331l114 35q106 -268 492 -268q76 0 142.5 13.5t131.5 49t110.5 91t74 146t28.5 208.5v153h-6q-82 -133 -223 -204.5
t-311 -71.5q-177 0 -322 76.5t-227 210t-82 297.5q0 166 84 298.5t228.5 205.5t320.5 73q168 0 311 -72t227 -208h4v247h119v-983q0 -169 -44.5 -292.5t-128 -196t-192.5 -106t-249 -33.5zM762 100q142 0 263 62.5t193 175t72 248.5t-72 245.5t-192.5 169.5t-263.5 60
q-220 0 -365 -137.5t-145 -339.5q0 -203 147 -343.5t363 -140.5z" />
    <glyph glyph-name="Hbar" unicode="&#x126;" horiz-adv-x="1984" 
d="M1714 1276h162v-96h-162v-1180h-133v754h-1178v-754h-133v1180h-161v96h161v321h133v-321h1178v321h133v-321zM403 862h1178v318h-1178v-318z" />
    <glyph glyph-name="hbar" unicode="&#x127;" horiz-adv-x="1552" 
d="M844 1161q75 0 143 -13.5t134 -46.5t114.5 -83.5t78 -130t29.5 -180.5v-707h-122v657q0 89 -23.5 159.5t-61.5 115.5t-91 75t-108 42t-116 12q-89 0 -166 -25t-131.5 -67.5t-93.5 -97t-57.5 -114t-18.5 -118.5v-639h-123v1339h-221v95h221v204h123v-204h453v-95h-453
v-438h6q149 260 484 260z" />
    <glyph glyph-name="Imacron" unicode="&#x12a;" horiz-adv-x="675" 
d="M731 1839h-782v100h782v-100zM403 0h-133v1597h133v-1597z" />
    <glyph glyph-name="imacron" unicode="&#x12b;" horiz-adv-x="585" 
d="M705 1427h-826v99h826v-99zM354 0h-123v1128h123v-1128z" />
    <glyph glyph-name="Iogonek" unicode="&#x12e;" horiz-adv-x="675" 
d="M414 -379q47 0 104 14v-84q-66 -14 -112 -14q-136 0 -227 63t-91 169q0 133 191 231h-9v1597h133v-1597q-213 -94 -213 -217q0 -73 64.5 -117.5t159.5 -44.5z" />
    <glyph glyph-name="iogonek" unicode="&#x12f;" horiz-adv-x="585" 
d="M295 1434q-51 0 -86 30t-35 74q0 42 35 72t86 30q49 0 83 -30t34 -72q0 -44 -33.5 -74t-83.5 -30zM362 -379q48 0 105 14v-84q-63 -14 -117 -14q-132 0 -221.5 62.5t-89.5 164.5q0 138 197 236h-5v1128h123v-1128h-2q-211 -97 -211 -217q0 -73 64.5 -117.5t156.5 -44.5z
" />
    <glyph glyph-name="Idotaccent" unicode="&#x130;" horiz-adv-x="675" 
d="M340 1790q-51 0 -86 31t-35 75q0 42 35 71.5t86 29.5q49 0 84 -30t35 -71q0 -44 -34.5 -75t-84.5 -31zM403 0h-133v1597h133v-1597z" />
    <glyph glyph-name="dotlessi" unicode="&#x131;" horiz-adv-x="585" 
d="M354 0h-123v1128h123v-1128z" />
    <glyph glyph-name="uni0136" unicode="&#x136;" horiz-adv-x="1613" 
d="M403 0h-133v1597h133v-886h5q292 270 999 886h160q-215 -189 -791 -702q148 -159 435 -463.5t405 -431.5h-162q-95 98 -144 149t-80.5 84t-173 180.5t-378.5 393.5l-275 -244v-563zM805 -498h-64l111 187q-53 10 -77.5 35.5t-24.5 60.5q0 40 34.5 68t81.5 28t81 -28
t34 -68q0 -38 -32.5 -88t-143.5 -195z" />
    <glyph glyph-name="uni0137" unicode="&#x137;" horiz-adv-x="1253" 
d="M1174 1128l-512 -440l606 -688h-142l-553 612l-219 -188v-424h-123v1638h123v-1075h6q77 66 306 262.5t354 302.5h154zM672 -119q47 0 80.5 -28t33.5 -68q0 -38 -32.5 -88t-143.5 -195h-63l110 187q-53 10 -77.5 35.5t-24.5 60.5q0 40 34.5 68t82.5 28z" />
    <glyph glyph-name="Lacute" unicode="&#x139;" horiz-adv-x="1454" 
d="M627 2038h207l-412 -318h-115zM403 1597v-1484h1014v-113h-1147v1597h133z" />
    <glyph glyph-name="lacute" unicode="&#x13a;" horiz-adv-x="585" 
d="M778 2079l-411 -318h-115l319 318h207zM354 0h-123v1638h123v-1638z" />
    <glyph glyph-name="uni013B" unicode="&#x13b;" horiz-adv-x="1454" 
d="M403 1597v-1484h1014v-113h-1147v1597h133zM778 -119q47 0 81 -28t34 -68q0 -38 -32.5 -88t-143.5 -195h-64l111 187q-53 10 -77.5 35.5t-24.5 60.5q0 40 34.5 68t81.5 28z" />
    <glyph glyph-name="uni013C" unicode="&#x13c;" horiz-adv-x="585" 
d="M354 0h-123v1638h123v-1638zM238 -498h-64l111 187q-53 10 -78 35.5t-25 60.5q0 40 34.5 68t82.5 28q47 0 81 -28t34 -68q0 -38 -32.5 -88t-143.5 -195z" />
    <glyph glyph-name="Lcaron" unicode="&#x13d;" horiz-adv-x="1454" 
d="M934 1190h-86l143 246q-38 10 -59 37t-21 61q0 41 34.5 69.5t84.5 28.5q48 0 82.5 -28.5t34.5 -69.5q0 -35 -38.5 -96t-174.5 -248zM403 1597v-1484h1014v-113h-1147v1597h133z" />
    <glyph glyph-name="lcaron" unicode="&#x13e;" horiz-adv-x="585" 
d="M354 0h-123v1638h123v-1638zM666 1190h-86l143 246q-38 10 -59 37t-21 61q0 41 34.5 69.5t84.5 28.5q48 0 82.5 -28.5t34.5 -69.5q0 -35 -38.5 -96t-174.5 -248z" />
    <glyph glyph-name="Lslash" unicode="&#x141;" horiz-adv-x="1454" 
d="M403 840v-727h1014v-113h-1147v788l-209 -81v102l209 82v706h133v-655l388 152v-103z" />
    <glyph glyph-name="lslash" unicode="&#x142;" horiz-adv-x="585" 
d="M354 1012l242 147v-102l-242 -146v-911h-123v836l-245 -148v100l245 150v700h123v-626z" />
    <glyph glyph-name="Nacute" unicode="&#x143;" horiz-adv-x="2031" 
d="M1430 2038l-412 -318h-115l320 318h207zM403 0h-133v1597h148q54 -63 346.5 -405t485.5 -569.5t374 -444.5h6v1419h131v-1597h-147q-135 158 -555 643.5t-653 759.5h-3v-1403z" />
    <glyph glyph-name="nacute" unicode="&#x144;" horiz-adv-x="1552" 
d="M1194 1671l-373 -393h-110l301 393h182zM354 0h-123v1128h119v-227h4q79 133 206.5 196.5t285.5 63.5q75 0 143.5 -13.5t134 -46.5t113.5 -83.5t77 -130t29 -180.5v-707h-122v657q0 89 -23.5 159.5t-61.5 115.5t-91 75t-108 42t-116 12q-110 0 -201.5 -38t-148 -99.5
t-87 -135t-30.5 -149.5v-639z" />
    <glyph glyph-name="uni0145" unicode="&#x145;" horiz-adv-x="2031" 
d="M403 0h-133v1597h148q54 -63 346.5 -405t485.5 -569.5t374 -444.5h6v1419h131v-1597h-147q-135 158 -555 643.5t-653 759.5h-3v-1403zM987 -498h-63l110 187q-53 10 -77.5 35.5t-24.5 60.5q0 40 34.5 68t82.5 28q47 0 80.5 -28t33.5 -68q0 -38 -32.5 -88t-143.5 -195z
" />
    <glyph glyph-name="uni0146" unicode="&#x146;" horiz-adv-x="1552" 
d="M354 0h-123v1128h119v-227h4q79 133 206.5 196.5t285.5 63.5q75 0 143.5 -13.5t134 -46.5t113.5 -83.5t77 -130t29 -180.5v-707h-122v657q0 89 -23.5 159.5t-61.5 115.5t-91 75t-108 42t-116 12q-110 0 -201.5 -38t-148 -99.5t-87 -135t-30.5 -149.5v-639zM743 -498h-63
l111 187q-53 10 -78 35.5t-25 60.5q0 40 34.5 68t82.5 28q47 0 81 -28t34 -68q0 -37 -32 -87t-145 -196z" />
    <glyph glyph-name="Ncaron" unicode="&#x147;" horiz-adv-x="2031" 
d="M1280 2017h117l-316 -297h-178l-315 297h114q197 -148 291 -227q37 32 79 66t65 51.5t76.5 58.5t66.5 51zM403 0h-133v1597h148q54 -63 346.5 -405t485.5 -569.5t374 -444.5h6v1419h131v-1597h-147q-135 158 -555 643.5t-653 759.5h-3v-1403z" />
    <glyph glyph-name="ncaron" unicode="&#x148;" horiz-adv-x="1552" 
d="M864 1280h-184l-356 356h118q224 -182 332 -276q105 95 328 276h119zM354 0h-123v1128h119v-227h4q79 133 206.5 196.5t285.5 63.5q75 0 143.5 -13.5t134 -46.5t113.5 -83.5t77 -130t29 -180.5v-707h-122v657q0 89 -23.5 159.5t-61.5 115.5t-91 75t-108 42t-116 12
q-110 0 -201.5 -38t-148 -99.5t-87 -135t-30.5 -149.5v-639z" />
    <glyph glyph-name="Eng" unicode="&#x14a;" horiz-adv-x="2031" 
d="M1300 -483q-153 0 -264 57v115q115 -68 244 -68q161 0 253.5 99.5t92.5 265.5q-99 115 -373 431t-473.5 548t-376.5 442v-1407h-133v1597h148q54 -63 346.5 -405t485.5 -569.5t374 -444.5h6v1419h131v-1536q0 -84 -11.5 -156.5t-43 -146t-81 -125t-133 -84t-192.5 -32.5z
" />
    <glyph glyph-name="eng" unicode="&#x14b;" horiz-adv-x="1552" 
d="M979 -483q-149 0 -254 57v109q117 -68 233 -68q42 0 77.5 9t61 23t46 37.5t33 45t22 54t14 55t6.5 58t2.5 54.5t0.5 51v655q0 89 -23.5 159.5t-61.5 115.5t-91 75t-108 42t-116 12q-110 0 -201.5 -38t-148 -99.5t-87 -135t-30.5 -149.5v-639h-123v1128h119v-227h4
q79 133 206.5 196.5t285.5 63.5q75 0 143 -13t133.5 -45.5t113.5 -82t77.5 -127.5t29.5 -176v-731v-1q0 -39 -0.5 -60.5t-3.5 -64.5t-9 -70.5t-19 -67t-30.5 -65.5t-45.5 -55t-63 -45.5t-84.5 -28t-108.5 -11.5z" />
    <glyph glyph-name="Omacron" unicode="&#x14c;" horiz-adv-x="2193" 
d="M1487 1839h-782v100h782v-100zM1096 -35q-194 0 -370 63t-306.5 172t-207.5 265t-77 332t76.5 331.5t206 265t307 173t373.5 63.5q199 0 377 -65t305.5 -176.5t201.5 -265.5t74 -326q0 -231 -128.5 -422.5t-348.5 -300.5t-483 -109zM1100 76q128 0 250 34.5t222.5 99.5
t177 152.5t119 199.5t42.5 235q0 154 -66 289.5t-177 230t-259 149t-309 54.5q-218 0 -405.5 -92t-301.5 -259t-114 -372q0 -204 114 -370.5t301.5 -258.5t405.5 -92z" />
    <glyph glyph-name="omacron" unicode="&#x14d;" horiz-adv-x="1587" 
d="M1206 1430h-825v98h825v-98zM795 -35q-195 0 -348.5 75.5t-238.5 211.5t-85 309q0 264 188 432t484 168q194 0 346.5 -76t237.5 -213t85 -311q0 -173 -85 -309t-237.5 -211.5t-346.5 -75.5zM795 66q239 0 387.5 138t148.5 357q0 221 -149 360.5t-387 139.5t-388.5 -140
t-150.5 -360q0 -218 150.5 -356.5t388.5 -138.5z" />
    <glyph glyph-name="Ohungarumlaut" unicode="&#x150;" horiz-adv-x="2193" 
d="M1264 2038l-328 -318h-115l256 318h187zM1614 2038l-350 -318h-117l278 318h189zM1096 -35q-194 0 -370 63t-306.5 172t-207.5 265t-77 332t76.5 331.5t206 265t307 173t373.5 63.5q199 0 377 -65t305.5 -176.5t201.5 -265.5t74 -326q0 -231 -128.5 -422.5t-348.5 -300.5
t-483 -109zM1100 76q128 0 250 34.5t222.5 99.5t177 152.5t119 199.5t42.5 235q0 154 -66 289.5t-177 230t-259 149t-309 54.5q-218 0 -405.5 -92t-301.5 -259t-114 -372q0 -204 114 -370.5t301.5 -258.5t405.5 -92z" />
    <glyph glyph-name="ohungarumlaut" unicode="&#x151;" horiz-adv-x="1587" 
d="M967 1673l-326 -395h-111l252 395h185zM1323 1673l-352 -395h-111l277 395h186zM795 -35q-195 0 -348.5 75.5t-238.5 211.5t-85 309q0 264 188 432t484 168q194 0 346.5 -76t237.5 -213t85 -311q0 -173 -85 -309t-237.5 -211.5t-346.5 -75.5zM795 66q239 0 387.5 138
t148.5 357q0 221 -149 360.5t-387 139.5t-388.5 -140t-150.5 -360q0 -218 150.5 -356.5t388.5 -138.5z" />
    <glyph glyph-name="OE" unicode="&#x152;" horiz-adv-x="3272" 
d="M1096 -35q-194 0 -370.5 63t-306 172t-206 264.5t-76.5 332.5q0 176 76 331.5t205.5 265t306.5 173t373 63.5q265 0 483.5 -109.5t343.5 -295.5v372h1192v-106h-1063v-614h1014v-109h-1014v-655h1088v-113h-1217v371q-126 -187 -346 -296.5t-483 -109.5zM1100 76
q215 0 401 92t299 259t113 370q0 154 -66.5 289.5t-177.5 230t-259.5 149t-309.5 54.5q-218 0 -405.5 -92t-301.5 -259t-114 -372q0 -204 114 -370.5t301.5 -258.5t405.5 -92z" />
    <glyph glyph-name="oe" unicode="&#x153;" horiz-adv-x="2736" 
d="M795 -35q-195 0 -348.5 75.5t-238.5 211.5t-85 309q0 264 188 432t484 168q209 0 368 -86t236 -235q77 149 234.5 235t361.5 86q54 0 107.5 -6.5t114.5 -24t115 -44.5t104.5 -71.5t87 -101t58 -136.5t21.5 -175v-45h-1141q1 -144 70.5 -257t191.5 -175t275 -62
q184 0 316.5 87t197.5 223l110 -35q-78 -180 -247.5 -276.5t-384.5 -96.5q-205 0 -360.5 85t-231.5 233q-77 -148 -237 -233t-367 -85zM1470 649h996q0 88 -28 159t-75 118t-109.5 78.5t-129 45t-137.5 13.5q-207 0 -347 -114.5t-170 -299.5zM795 66q239 0 387.5 138
t148.5 357q0 221 -149 360.5t-387 139.5t-388.5 -140t-150.5 -360q0 -218 150.5 -356.5t388.5 -138.5z" />
    <glyph glyph-name="Racute" unicode="&#x154;" horiz-adv-x="1697" 
d="M1231 2038l-412 -318h-114l319 318h207zM403 0h-133v1597h658q289 0 454.5 -128.5t165.5 -338.5q0 -204 -139.5 -333t-370.5 -146v-2q63 -79 244.5 -302.5t278.5 -346.5h-146l-524 647h-488v-647zM403 754h523q232 0 358.5 96.5t126.5 269.5q0 171 -137.5 271t-370.5 100
h-500v-737z" />
    <glyph glyph-name="racute" unicode="&#x155;" horiz-adv-x="995" 
d="M979 1671l-373 -393h-110l301 393h182zM354 0h-123v1128h119v-243h10q51 124 175 200t276 76q93 0 160 -22v-121q-76 29 -168 29q-103 0 -189 -41t-142 -109t-87 -153t-31 -175v-569z" />
    <glyph glyph-name="uni0156" unicode="&#x156;" horiz-adv-x="1697" 
d="M403 0h-133v1597h658q289 0 454.5 -128.5t165.5 -338.5q0 -204 -139.5 -333t-370.5 -146v-2q63 -79 244.5 -302.5t278.5 -346.5h-146l-524 647h-488v-647zM403 754h523q232 0 358.5 96.5t126.5 269.5q0 171 -137.5 271t-370.5 100h-500v-737zM813 -498h-63l110 187
q-53 10 -77.5 35.5t-24.5 60.5q0 40 34.5 68t81.5 28t81 -28t34 -68q0 -38 -32.5 -88t-143.5 -195z" />
    <glyph glyph-name="uni0157" unicode="&#x157;" horiz-adv-x="995" 
d="M354 0h-123v1128h119v-243h10q51 124 175 200t276 76q93 0 160 -22v-121q-76 29 -168 29q-103 0 -189 -41t-142 -109t-87 -153t-31 -175v-569zM227 -498h-63l110 187q-53 10 -77.5 35.5t-24.5 60.5q0 40 34.5 68t82.5 28q47 0 80.5 -28t33.5 -68q0 -38 -32.5 -88
t-143.5 -195z" />
    <glyph glyph-name="Rcaron" unicode="&#x158;" horiz-adv-x="1697" 
d="M1081 2017h117l-315 -297h-178l-316 297h115q197 -148 291 -227q80 69 286 227zM403 0h-133v1597h658q289 0 454.5 -128.5t165.5 -338.5q0 -204 -139.5 -333t-370.5 -146v-2q63 -79 244.5 -302.5t278.5 -346.5h-146l-524 647h-488v-647zM403 754h523q232 0 358.5 96.5
t126.5 269.5q0 171 -137.5 271t-370.5 100h-500v-737z" />
    <glyph glyph-name="rcaron" unicode="&#x159;" horiz-adv-x="995" 
d="M647 1280h-184l-357 356h119q224 -182 332 -276q105 95 328 276h119zM354 0h-123v1128h119v-243h10q51 124 175 200t276 76q93 0 160 -22v-121q-76 29 -168 29q-103 0 -189 -41t-142 -109t-87 -153t-31 -175v-569z" />
    <glyph glyph-name="Sacute" unicode="&#x15a;" horiz-adv-x="1579" 
d="M1147 2038l-412 -318h-114l319 318h207zM815 -35q-84 0 -165 14t-166 48.5t-156 86t-130.5 133.5t-93.5 185l121 41q61 -190 221.5 -293.5t370.5 -103.5q70 0 138 11.5t133.5 37t115 63.5t79.5 94.5t30 125.5q0 60 -26.5 107.5t-54 74.5t-96 55t-98 36.5t-115.5 29.5
q-25 7 -38 10l-180 47q-40 11 -65.5 18t-72.5 22t-79.5 29t-76.5 36.5t-74.5 45t-63.5 54.5t-53 67t-33 79t-13 93q0 103 53.5 185t142 131.5t195 75.5t219.5 26q145 0 269 -41.5t219 -129t139 -212.5l-117 -45q-57 145 -196.5 231.5t-331.5 86.5t-324.5 -82.5
t-132.5 -216.5q0 -44 17 -84t40.5 -69t64.5 -56.5t70.5 -43.5t79.5 -34.5t70.5 -25t62.5 -18.5q12 -3 17 -5l184 -49q185 -49 243 -70q218 -80 275 -219q23 -57 23 -123q0 -83 -35 -156.5t-96 -128.5t-142 -94.5t-175 -59.5t-193 -20z" />
    <glyph glyph-name="sacute" unicode="&#x15b;" horiz-adv-x="1206" 
d="M1024 1671l-373 -393h-110l301 393h182zM639 -35q-193 0 -344 87t-207 229l115 34q54 -110 177.5 -181t258.5 -71q51 0 104.5 11t108 35t89 69.5t34.5 106.5q0 41 -19 73.5t-45.5 53t-72 38.5t-79.5 27t-87 21l-129 30q-34 8 -57 14t-67.5 20.5t-76 30t-70 42t-62.5 56
t-41 71.5t-17 90q0 77 40.5 138.5t105 97.5t138.5 54.5t148 18.5q164 0 294 -78t177 -196l-121 -37q-40 90 -137 151.5t-232 61.5q-124 0 -205 -54.5t-81 -144.5q0 -37 14.5 -68.5t42.5 -55.5t57 -41.5t72 -32.5t73 -24t72 -19l133 -31q42 -10 62 -15t65.5 -19.5t71 -27.5
t61 -36.5t55 -49t34 -62.5t14.5 -79q0 -142 -132 -240t-335 -98z" />
    <glyph glyph-name="Scedilla" unicode="&#x15e;" horiz-adv-x="1579" 
d="M1456 424q0 -100 -50.5 -186t-136 -143.5t-195.5 -91.5t-230 -38l-111 -131q44 19 109 19q95 0 156 -44.5t61 -115.5q0 -79 -74.5 -129.5t-185.5 -50.5q-83 0 -162 30t-133 78l59 49q38 -40 102 -65t128 -25q72 0 121 31t49 80q0 44 -44 73t-112 29q-67 0 -117 -26
l-59 49l119 151q-79 5 -154 22.5t-151.5 54t-140 87.5t-116.5 128.5t-84 172.5l121 41q61 -190 221.5 -293.5t370.5 -103.5q70 0 138 11.5t133.5 37t115 63.5t79.5 94.5t30 125.5q0 60 -26.5 107.5t-54 74.5t-96 55t-98 36.5t-115.5 29.5q-25 7 -38 10l-180 47
q-40 11 -65.5 18t-72.5 22t-79.5 29t-76.5 36.5t-74.5 45t-63.5 54.5t-53 67t-33 79t-13 93q0 103 53.5 185t142 131.5t195 75.5t219.5 26q145 0 269 -41.5t219 -129t139 -212.5l-117 -45q-57 145 -196.5 231.5t-331.5 86.5t-324.5 -82.5t-132.5 -216.5q0 -44 17 -84
t40.5 -69t64.5 -56.5t70.5 -43.5t79.5 -34.5t70.5 -25t62.5 -18.5q12 -3 17 -5l184 -49q185 -49 243 -70q218 -80 275 -219q23 -57 23 -123z" />
    <glyph glyph-name="scedilla" unicode="&#x15f;" horiz-adv-x="1206" 
d="M1106 303q0 -138 -125 -235t-319 -103l-111 -131q44 19 108 19q95 0 156.5 -44.5t61.5 -115.5q0 -79 -75 -129.5t-186 -50.5q-83 0 -161.5 29.5t-132.5 78.5l59 49q38 -40 101.5 -65t127.5 -25q72 0 121 31t49 80q0 44 -44 73t-111 29t-117 -26l-59 49l120 153
q-170 15 -300 99t-181 213l115 34q54 -110 177.5 -181t258.5 -71q51 0 104.5 11t108 35t89 69.5t34.5 106.5q0 41 -19 73.5t-45.5 53t-72 38.5t-79.5 27t-87 21l-129 30q-34 8 -57 14t-67.5 20.5t-76 30t-70 42t-62.5 56t-41 71.5t-17 90q0 77 40.5 138.5t105 97.5
t138.5 54.5t148 18.5q164 0 294 -78t177 -196l-121 -37q-40 90 -137 151.5t-232 61.5q-124 0 -205 -54.5t-81 -144.5q0 -37 14.5 -68.5t42.5 -55.5t57 -41.5t72 -32.5t73 -24t72 -19l133 -31q42 -10 62 -15t65.5 -19.5t71 -27.5t61 -36.5t55 -49t34 -62.5t14.5 -79z" />
    <glyph glyph-name="Scaron" unicode="&#x160;" horiz-adv-x="1579" 
d="M1067 2017h117l-316 -297h-178l-315 297h114q197 -148 291 -227q37 32 79 66t65 51.5t76.5 58.5t66.5 51zM815 -35q-84 0 -165 14t-166 48.5t-156 86t-130.5 133.5t-93.5 185l121 41q61 -190 221.5 -293.5t370.5 -103.5q70 0 138 11.5t133.5 37t115 63.5t79.5 94.5
t30 125.5q0 60 -26.5 107.5t-54 74.5t-96 55t-98 36.5t-115.5 29.5q-25 7 -38 10l-180 47q-40 11 -65.5 18t-72.5 22t-79.5 29t-76.5 36.5t-74.5 45t-63.5 54.5t-53 67t-33 79t-13 93q0 103 53.5 185t142 131.5t195 75.5t219.5 26q145 0 269 -41.5t219 -129t139 -212.5
l-117 -45q-57 145 -196.5 231.5t-331.5 86.5t-324.5 -82.5t-132.5 -216.5q0 -44 17 -84t40.5 -69t64.5 -56.5t70.5 -43.5t79.5 -34.5t70.5 -25t62.5 -18.5q12 -3 17 -5l184 -49q185 -49 243 -70q218 -80 275 -219q23 -57 23 -123q0 -83 -35 -156.5t-96 -128.5t-142 -94.5
t-175 -59.5t-193 -20z" />
    <glyph glyph-name="scaron" unicode="&#x161;" horiz-adv-x="1206" 
d="M692 1280h-184l-356 356h118q224 -182 332 -276q105 95 328 276h119zM639 -35q-193 0 -344 87t-207 229l115 34q54 -110 177.5 -181t258.5 -71q51 0 104.5 11t108 35t89 69.5t34.5 106.5q0 41 -19 73.5t-45.5 53t-72 38.5t-79.5 27t-87 21l-129 30q-34 8 -57 14
t-67.5 20.5t-76 30t-70 42t-62.5 56t-41 71.5t-17 90q0 77 40.5 138.5t105 97.5t138.5 54.5t148 18.5q164 0 294 -78t177 -196l-121 -37q-40 90 -137 151.5t-232 61.5q-124 0 -205 -54.5t-81 -144.5q0 -37 14.5 -68.5t42.5 -55.5t57 -41.5t72 -32.5t73 -24t72 -19l133 -31
q42 -10 62 -15t65.5 -19.5t71 -27.5t61 -36.5t55 -49t34 -62.5t14.5 -79q0 -142 -132 -240t-335 -98z" />
    <glyph glyph-name="uni0162" unicode="&#x162;" horiz-adv-x="1556" 
d="M844 0h-19l-139 -166q44 19 109 19q95 0 156 -44.5t61 -115.5q0 -79 -74.5 -129.5t-185.5 -50.5q-83 0 -162 30t-133 78l59 49q38 -40 101.5 -65t127.5 -25q72 0 121 31t49 80q0 44 -44 73t-111 29t-117 -26l-59 49l145 184h-16v1491h-674v106h1479v-106h-674v-1491z" />
    <glyph glyph-name="uni0163" unicode="&#x163;" horiz-adv-x="903" 
d="M848 1128v-98h-426v-668v-45t2 -44.5t5 -46t9.5 -41.5t16 -39t24.5 -31.5t34 -26.5t45 -15.5t58 -6.5q115 0 232 65v-108q-110 -58 -248 -58q-33 0 -47 2l-113 -133q44 19 109 19q95 0 156 -44.5t61 -115.5q0 -79 -74.5 -129.5t-185.5 -50.5q-83 0 -162 30t-133 78l59 49
q38 -40 102 -65t128 -25q72 0 121 31t49 80q0 44 -44 73t-112 29q-67 0 -117 -26l-59 49l133 168q-36 12 -64 33t-45.5 42.5t-30 53t-19 55t-9.5 59.5t-3.5 55t-0.5 52v696h-270v98h270v338h123v-338h426z" />
    <glyph glyph-name="Tcaron" unicode="&#x164;" horiz-adv-x="1556" 
d="M1067 2017h117l-316 -297h-178l-315 297h114q197 -148 291 -227q37 32 79 66t65 51.5t76.5 58.5t66.5 51zM844 0h-131v1491h-674v106h1479v-106h-674v-1491z" />
    <glyph glyph-name="tcaron" unicode="&#x165;" horiz-adv-x="903" 
d="M891 1190h-86l143 248q-39 10 -59.5 36.5t-20.5 59.5q0 41 35 70.5t84 29.5q47 0 81 -29t34 -69q0 -35 -37.5 -95.5t-173.5 -250.5zM600 -35q-49 0 -89.5 9t-70 22t-52.5 35.5t-37.5 43t-25 51.5t-15.5 52.5t-7.5 55.5t-3 51.5t-0.5 48.5v696h-270v98h270v338h123v-338
h426v-98h-426v-668v-45t2 -44.5t5 -46t9.5 -41.5t16 -39t24.5 -31.5t34 -26.5t45 -15.5t58 -6.5q115 0 232 65v-108q-110 -58 -248 -58z" />
    <glyph glyph-name="Tbar" unicode="&#x166;" horiz-adv-x="1556" 
d="M1518 1597v-106h-674v-645h444v-96h-444v-750h-131v750h-447v96h447v645h-674v106h1479z" />
    <glyph glyph-name="tbar" unicode="&#x167;" horiz-adv-x="903" 
d="M848 1128v-98h-426v-344h405v-94h-405v-230v-45t2 -44.5t5 -46t9.5 -41.5t16 -39t24.5 -31.5t34 -26.5t45 -15.5t58 -6.5q115 0 232 65v-108q-110 -58 -248 -58q-49 0 -89.5 9t-70 22t-52.5 35.5t-37.5 43t-25 51.5t-15.5 52.5t-7.5 55.5t-3 51.5t-0.5 48.5v258h-268v94
h268v344h-270v98h270v338h123v-338h426z" />
    <glyph glyph-name="Umacron" unicode="&#x16a;" horiz-adv-x="1851" 
d="M1317 1839h-782v100h782v-100zM920 -35q-152 0 -274 37t-211.5 110.5t-138 190t-48.5 268.5v1026h131v-1019q0 -260 145.5 -383t401.5 -123t401.5 123t145.5 383v1019h133v-1026q0 -278 -176 -442t-510 -164z" />
    <glyph glyph-name="umacron" unicode="&#x16b;" horiz-adv-x="1529" 
d="M1149 1430h-825v98h825v-98zM694 -35q-71 0 -137 13.5t-130.5 47t-112 83.5t-76.5 130t-29 181v708h123v-661q0 -89 23.5 -160t62 -115t91 -73.5t105.5 -41t111 -11.5q105 0 193 38t142.5 99.5t84 134.5t29.5 147v643h122v-776q0 -123 10 -197.5t35 -154.5h-127
q-36 115 -36 221h-4q-78 -131 -203 -193.5t-277 -62.5z" />
    <glyph glyph-name="Uring" unicode="&#x16e;" horiz-adv-x="1851" 
d="M924 1714q-115 0 -190 61t-75 156q0 92 75.5 152.5t189.5 60.5q111 0 185.5 -60.5t74.5 -152.5q0 -94 -74.5 -155.5t-185.5 -61.5zM924 1800q70 0 116.5 35.5t46.5 95.5q0 58 -46.5 92.5t-116.5 34.5q-73 0 -120.5 -34.5t-47.5 -92.5q0 -60 47.5 -95.5t120.5 -35.5z
M920 -35q-152 0 -274 37t-211.5 110.5t-138 190t-48.5 268.5v1026h131v-1019q0 -260 145.5 -383t401.5 -123t401.5 123t145.5 383v1019h133v-1026q0 -278 -176 -442t-510 -164z" />
    <glyph glyph-name="uring" unicode="&#x16f;" horiz-adv-x="1529" 
d="M737 1245q-114 0 -189 61t-75 156q0 92 75 152.5t189 60.5q111 0 185.5 -60.5t74.5 -152.5q0 -94 -74.5 -155.5t-185.5 -61.5zM737 1331q70 0 116 35.5t46 95.5q0 58 -46 92.5t-116 34.5q-73 0 -120.5 -34.5t-47.5 -92.5q0 -60 47.5 -95.5t120.5 -35.5zM694 -35
q-71 0 -137 13.5t-130.5 47t-112 83.5t-76.5 130t-29 181v708h123v-661q0 -89 23.5 -160t62 -115t91 -73.5t105.5 -41t111 -11.5q105 0 193 38t142.5 99.5t84 134.5t29.5 147v643h122v-776q0 -123 10 -197.5t35 -154.5h-127q-36 115 -36 221h-4q-78 -131 -203 -193.5
t-277 -62.5z" />
    <glyph glyph-name="Uhungarumlaut" unicode="&#x170;" horiz-adv-x="1851" 
d="M1094 2038l-328 -318h-115l256 318h187zM1444 2038l-350 -318h-117l278 318h189zM920 -35q-152 0 -274 37t-211.5 110.5t-138 190t-48.5 268.5v1026h131v-1019q0 -260 145.5 -383t401.5 -123t401.5 123t145.5 383v1019h133v-1026q0 -278 -176 -442t-510 -164z" />
    <glyph glyph-name="uhungarumlaut" unicode="&#x171;" horiz-adv-x="1529" 
d="M907 1673l-325 -395h-111l252 395h184zM1264 1673l-353 -395h-110l276 395h187zM694 -35q-71 0 -137 13.5t-130.5 47t-112 83.5t-76.5 130t-29 181v708h123v-661q0 -89 23.5 -160t62 -115t91 -73.5t105.5 -41t111 -11.5q105 0 193 38t142.5 99.5t84 134.5t29.5 147v643
h122v-776q0 -123 10 -197.5t35 -154.5h-127q-36 115 -36 221h-4q-78 -131 -203 -193.5t-277 -62.5z" />
    <glyph glyph-name="Uogonek" unicode="&#x172;" horiz-adv-x="1851" 
d="M1473 578v1019h133v-1026q0 -253 -147 -413t-427 -187q-153 -84 -153 -188q0 -73 64 -117.5t159 -44.5q47 0 104 14v-84q-66 -14 -112 -14q-136 0 -227 63t-91 169q0 111 131 196q-149 2 -269 39.5t-207.5 111t-135 189t-47.5 266.5v1026h131v-1019q0 -260 145.5 -383
t401.5 -123t401.5 123t145.5 383z" />
    <glyph glyph-name="uogonek" unicode="&#x173;" horiz-adv-x="1529" 
d="M1341 -379q48 0 105 14v-84q-63 -14 -117 -14q-132 0 -221.5 62.5t-89.5 164.5q0 139 196 236q-36 115 -36 221h-4q-78 -131 -203 -193.5t-277 -62.5q-71 0 -137 13.5t-130.5 47t-112 83.5t-76.5 130t-29 181v708h123v-661q0 -89 23.5 -160t62 -115t91 -73.5t105.5 -41
t111 -11.5q105 0 193 38t142.5 99.5t84 134.5t29.5 147v643h122v-776q0 -123 10 -197.5t35 -154.5h-10q-211 -97 -211 -217q0 -73 64.5 -117.5t156.5 -44.5z" />
    <glyph glyph-name="Wcircumflex" unicode="&#x174;" horiz-adv-x="2781" 
d="M1479 2017l315 -297h-117q-177 135 -286 228q-127 -105 -291 -228h-115l315 297h179zM840 0h-154l-635 1597h135q371 -897 578 -1445h4q483 1267 549 1445h145q33 -85 240.5 -622.5t316.5 -822.5h6q348 907 570 1445h137l-635 -1597h-155q-215 532 -549 1436h-4
q-331 -906 -549 -1436z" />
    <glyph glyph-name="wcircumflex" unicode="&#x175;" horiz-adv-x="2215" 
d="M774 1278h-119l357 356h184l356 -356h-118q-254 211 -328 276q-182 -157 -332 -276zM674 0h-121l-502 1128h133l432 -974h7l419 974h134l434 -974h6l416 974h135l-502 -1128h-123q-289 650 -430 997h-6q-181 -446 -432 -997z" />
    <glyph glyph-name="Ycircumflex" unicode="&#x176;" horiz-adv-x="1685" 
d="M932 2017l315 -297h-117q-177 135 -286 228q-127 -105 -291 -228h-115l316 297h178zM907 0h-131v592q-502 701 -723 1005h146q60 -84 643 -895h4q44 62 647 895h139l-725 -1005v-592z" />
    <glyph glyph-name="ycircumflex" unicode="&#x177;" horiz-adv-x="1312" 
d="M307 1278h-119l357 356h184l356 -356h-118q-254 211 -328 276q-182 -157 -332 -276zM498 -451h-109l211 441l-555 1138h135q90 -182 250 -519.5t227 -475.5h5q44 93 211 449.5t260 545.5h135z" />
    <glyph glyph-name="Ydieresis" unicode="&#x178;" horiz-adv-x="1685" 
d="M614 1794q-46 0 -79 28.5t-33 69.5q0 39 33.5 68t78.5 29t78 -29t33 -68q0 -41 -32.5 -69.5t-78.5 -28.5zM1071 1794q-49 0 -81 28t-32 70q0 39 32.5 68t80.5 29q44 0 77.5 -29.5t33.5 -67.5q0 -41 -33 -69.5t-78 -28.5zM907 0h-131v592q-502 701 -723 1005h146
q60 -84 643 -895h4q44 62 647 895h139l-725 -1005v-592z" />
    <glyph glyph-name="Zacute" unicode="&#x179;" horiz-adv-x="1609" 
d="M1202 2038l-411 -318h-115l319 318h207zM1534 0h-1460v119l1278 1368v4h-1229v106h1390v-112q-148 -158 -406 -432.5t-472.5 -503.5t-403.5 -432v-4h1303v-113z" />
    <glyph glyph-name="zacute" unicode="&#x17a;" horiz-adv-x="1171" 
d="M1008 1671l-373 -393h-111l301 393h183zM1112 0h-1042v82l817 944h-768v102h936v-81l-822 -945h879v-102z" />
    <glyph glyph-name="Zdotaccent" unicode="&#x17b;" horiz-adv-x="1609" 
d="M786 1790q-51 0 -85.5 31t-34.5 75q0 42 34.5 71.5t85.5 29.5q49 0 84 -30t35 -71q0 -44 -34.5 -75t-84.5 -31zM1534 0h-1460v119l1278 1368v4h-1229v106h1390v-112q-148 -158 -406 -432.5t-472.5 -503.5t-403.5 -432v-4h1303v-113z" />
    <glyph glyph-name="zdotaccent" unicode="&#x17c;" horiz-adv-x="1171" 
d="M590 1436q-51 0 -86 30t-35 74q0 42 35 72t86 30q49 0 83 -30t34 -72q0 -44 -33.5 -74t-83.5 -30zM1112 0h-1042v82l817 944h-768v102h936v-81l-822 -945h879v-102z" />
    <glyph glyph-name="Zcaron" unicode="&#x17d;" horiz-adv-x="1609" 
d="M1053 2017h116l-315 -297h-178l-316 297h115q197 -148 291 -227q37 32 79 66t65 51.5t76.5 58.5t66.5 51zM1534 0h-1460v119l1278 1368v4h-1229v106h1390v-112q-148 -158 -406 -432.5t-472.5 -503.5t-403.5 -432v-4h1303v-113z" />
    <glyph glyph-name="zcaron" unicode="&#x17e;" horiz-adv-x="1171" 
d="M678 1280h-184l-357 356h119q224 -182 332 -276q115 103 327 276h119zM1112 0h-1042v82l817 944h-768v102h936v-81l-822 -945h879v-102z" />
    <glyph glyph-name="uni0218" unicode="&#x218;" horiz-adv-x="1579" 
d="M815 -35q-84 0 -165 14t-166 48.5t-156 86t-130.5 133.5t-93.5 185l121 41q61 -190 221.5 -293.5t370.5 -103.5q70 0 138 11.5t133.5 37t115 63.5t79.5 94.5t30 125.5q0 60 -26.5 107.5t-54 74.5t-96 55t-98 36.5t-115.5 29.5q-25 7 -38 10l-180 47q-40 11 -65.5 18
t-72.5 22t-79.5 29t-76.5 36.5t-74.5 45t-63.5 54.5t-53 67t-33 79t-13 93q0 103 53.5 185t142 131.5t195 75.5t219.5 26q145 0 269 -41.5t219 -129t139 -212.5l-117 -45q-57 145 -196.5 231.5t-331.5 86.5t-324.5 -82.5t-132.5 -216.5q0 -44 17 -84t40.5 -69t64.5 -56.5
t70.5 -43.5t79.5 -34.5t70.5 -25t62.5 -18.5q12 -3 17 -5l184 -49q185 -49 243 -70q218 -80 275 -219q23 -57 23 -123q0 -83 -35 -156.5t-96 -128.5t-142 -94.5t-175 -59.5t-193 -20zM752 -498h-64l111 187q-53 10 -78 35.5t-25 60.5q0 40 34.5 68t82.5 28q47 0 81 -28
t34 -68q0 -38 -32.5 -88t-143.5 -195z" />
    <glyph glyph-name="uni0219" unicode="&#x219;" horiz-adv-x="1206" 
d="M639 -35q-193 0 -344 87t-207 229l115 34q54 -110 177.5 -181t258.5 -71q51 0 104.5 11t108 35t89 69.5t34.5 106.5q0 41 -19 73.5t-45.5 53t-72 38.5t-79.5 27t-87 21l-129 30q-34 8 -57 14t-67.5 20.5t-76 30t-70 42t-62.5 56t-41 71.5t-17 90q0 77 40.5 138.5
t105 97.5t138.5 54.5t148 18.5q164 0 294 -78t177 -196l-121 -37q-40 90 -137 151.5t-232 61.5q-124 0 -205 -54.5t-81 -144.5q0 -37 14.5 -68.5t42.5 -55.5t57 -41.5t72 -32.5t73 -24t72 -19l133 -31q42 -10 62 -15t65.5 -19.5t71 -27.5t61 -36.5t55 -49t34 -62.5t14.5 -79
q0 -142 -132 -240t-335 -98zM571 -498h-63l110 187q-53 10 -77.5 35.5t-24.5 60.5q0 40 34.5 68t82.5 28q47 0 81 -28t34 -68q0 -37 -32 -87t-145 -196z" />
    <glyph glyph-name="uni021A" unicode="&#x21a;" horiz-adv-x="1556" 
d="M844 0h-131v1491h-674v106h1479v-106h-674v-1491zM705 -498h-64l111 187q-53 10 -78 35.5t-25 60.5q0 40 34.5 68t82.5 28q47 0 81 -28t34 -68q0 -38 -32.5 -88t-143.5 -195z" />
    <glyph glyph-name="uni021B" unicode="&#x21b;" horiz-adv-x="903" 
d="M600 -35q-49 0 -89.5 9t-70 22t-52.5 35.5t-37.5 43t-25 51.5t-15.5 52.5t-7.5 55.5t-3 51.5t-0.5 48.5v696h-270v98h270v338h123v-338h426v-98h-426v-668v-45t2 -44.5t5 -46t9.5 -41.5t16 -39t24.5 -31.5t34 -26.5t45 -15.5t58 -6.5q115 0 232 65v-108
q-110 -58 -248 -58zM459 -498h-64l111 187q-53 10 -78 35.5t-25 60.5q0 40 34.5 68t82.5 28q47 0 81 -28t34 -68q0 -38 -32.5 -88t-143.5 -195z" />
    <glyph glyph-name="gravecomb" unicode="&#x300;" horiz-adv-x="0" 
d="M-129 1278h-113l-372 393h184z" />
    <glyph glyph-name="acutecomb" unicode="&#x301;" horiz-adv-x="0" 
d="M133 1671l-373 -393h-110l301 393h182z" />
    <glyph glyph-name="uni0302" unicode="&#x302;" horiz-adv-x="0" 
d="M-815 1278h-119l356 356h185l356 -356h-119q-238 198 -327 276q-182 -157 -332 -276z" />
    <glyph glyph-name="tildecomb" unicode="&#x303;" horiz-adv-x="0" 
d="M-381 1341q-22 0 -41 2t-37 7.5t-29.5 9t-27.5 13.5t-22.5 14t-24 16.5t-21.5 15.5l-43 33q-25 18 -39 27.5t-37.5 17.5t-48.5 8q-58 0 -96.5 -42t-38.5 -107h-96q1 105 68 171t170 66q53 0 92 -17.5t86 -51.5l49 -37q80 -57 143 -57q60 0 93.5 41.5t33.5 107.5h98
q0 -108 -61.5 -173t-169.5 -65z" />
    <glyph glyph-name="uni0304" unicode="&#x304;" horiz-adv-x="0" 
d="M-109 1427h-825v99h825v-99z" />
    <glyph glyph-name="uni0306" unicode="&#x306;" horiz-adv-x="0" 
d="M-483 1278q-204 0 -320.5 110.5t-124.5 284.5h117q6 -135 96 -217t234 -82q140 0 230.5 80.5t96.5 218.5h119q-8 -174 -126 -284.5t-322 -110.5z" />
    <glyph glyph-name="uni0307" unicode="&#x307;" horiz-adv-x="0" 
d="M-295 1434q-51 0 -86 30t-35 74q0 42 35 72t86 30q49 0 83 -30t34 -72q0 -44 -33.5 -74t-83.5 -30z" />
    <glyph glyph-name="uni0308" unicode="&#x308;" horiz-adv-x="0" 
d="M-1024 1382q-46 0 -79.5 29.5t-33.5 69.5q0 38 33.5 66t79.5 28q47 0 79 -27.5t32 -66.5q0 -40 -32 -69.5t-79 -29.5zM-614 1382q-48 0 -79.5 29t-31.5 70q0 39 31 66.5t80 27.5q46 0 78 -28t32 -66q0 -40 -32.5 -69.5t-77.5 -29.5z" />
    <glyph glyph-name="uni030A" unicode="&#x30a;" horiz-adv-x="0" 
d="M-279 1245q-114 0 -189 61t-75 156q0 92 75 152.5t189 60.5q111 0 186 -60.5t75 -152.5q0 -94 -75 -155.5t-186 -61.5zM-279 1331q70 0 116 35.5t46 95.5q0 58 -46 92.5t-116 34.5q-73 0 -120 -34t-47 -93q0 -60 47.5 -95.5t119.5 -35.5z" />
    <glyph glyph-name="uni030B" unicode="&#x30b;" horiz-adv-x="0" 
d="M-127 1673l-326 -395h-110l252 395h184zM229 1673l-352 -395h-110l276 395h186z" />
    <glyph glyph-name="uni030C" unicode="&#x30c;" horiz-adv-x="0" 
d="M-393 1278h-185l-356 356h119q224 -182 332 -276q115 103 327 276h119z" />
    <glyph glyph-name="uni0312" unicode="&#x312;" horiz-adv-x="0" 
d="M-516 1333q0 37 34 90.5t175 249.5h88l-143 -243q36 -10 56.5 -36.5t20.5 -60.5q0 -41 -33.5 -69.5t-82.5 -28.5q-48 0 -81.5 28.5t-33.5 69.5z" />
    <glyph glyph-name="uni0326" unicode="&#x326;" horiz-adv-x="0" 
d="M-401 -498h-64l111 187q-53 10 -78 35.5t-25 60.5q0 40 34.5 68t82.5 28q47 0 81 -28t34 -68q0 -38 -32.5 -88t-143.5 -195z" />
    <glyph glyph-name="uni0327" unicode="&#x327;" horiz-adv-x="0" 
d="M-768 -487q-83 0 -162 30t-133 78l59 49q38 -40 102 -65t128 -25q72 0 121 31t49 80q0 44 -44 73t-112 29q-67 0 -117 -26l-59 49l145 184h97l-140 -166q44 19 109 19q95 0 156 -44.5t61 -115.5q0 -79 -74.5 -129.5t-185.5 -50.5z" />
    <glyph glyph-name="uni0328" unicode="&#x328;" horiz-adv-x="0" 
d="M-772 -483q-132 0 -221.5 62.5t-89.5 164.5q0 139 196 236h117q-211 -97 -211 -218q0 -73 64 -117t157 -44q48 0 105 14v-84q-63 -14 -117 -14z" />
    <glyph glyph-name="uni0335" unicode="&#x335;" horiz-adv-x="0" 
d="M-864 610h796v-94h-796v94z" />
    <glyph glyph-name="uni0337" unicode="&#x337;" horiz-adv-x="0" 
d="M-569 537v100l610 371v-103z" />
    <glyph glyph-name="uni0338" unicode="&#x338;" horiz-adv-x="0" 
d="M-1243 -55h-141l1101 1235h136z" />
    <glyph glyph-name="Wgrave" unicode="&#x1e80;" horiz-adv-x="2781" 
d="M1483 1720h-117l-410 318h205zM840 0h-154l-635 1597h135q371 -897 578 -1445h4q483 1267 549 1445h145q33 -85 240.5 -622.5t316.5 -822.5h6q348 907 570 1445h137l-635 -1597h-155q-215 532 -549 1436h-4q-331 -906 -549 -1436z" />
    <glyph glyph-name="wgrave" unicode="&#x1e81;" horiz-adv-x="2215" 
d="M1167 1278h-112l-373 393h184zM674 0h-121l-502 1128h133l432 -974h7l419 974h134l434 -974h6l416 974h135l-502 -1128h-123q-289 650 -430 997h-6q-181 -446 -432 -997z" />
    <glyph glyph-name="Wacute" unicode="&#x1e82;" horiz-adv-x="2781" 
d="M1829 2038l-412 -318h-114l319 318h207zM840 0h-154l-635 1597h135q371 -897 578 -1445h4q483 1267 549 1445h145q33 -85 240.5 -622.5t316.5 -822.5h6q348 907 570 1445h137l-635 -1597h-155q-215 532 -549 1436h-4q-331 -906 -549 -1436z" />
    <glyph glyph-name="wacute" unicode="&#x1e83;" horiz-adv-x="2215" 
d="M1528 1671l-373 -393h-111l302 393h182zM674 0h-121l-502 1128h133l432 -974h7l419 974h134l434 -974h6l416 974h135l-502 -1128h-123q-289 650 -430 997h-6q-181 -446 -432 -997z" />
    <glyph glyph-name="Wdieresis" unicode="&#x1e84;" horiz-adv-x="2781" 
d="M1163 1794q-46 0 -79 28.5t-33 69.5q0 39 33.5 68t78.5 29t78 -29t33 -68q0 -41 -32.5 -69.5t-78.5 -28.5zM1620 1794q-49 0 -81 28t-32 70q0 39 32.5 68t80.5 29q44 0 77.5 -29.5t33.5 -67.5q0 -41 -33 -69.5t-78 -28.5zM840 0h-154l-635 1597h135q371 -897 578 -1445h4
q483 1267 549 1445h145q33 -85 240.5 -622.5t316.5 -822.5h6q348 907 570 1445h137l-635 -1597h-155q-215 532 -549 1436h-4q-331 -906 -549 -1436z" />
    <glyph glyph-name="wdieresis" unicode="&#x1e85;" horiz-adv-x="2215" 
d="M901 1382q-46 0 -79.5 29.5t-33.5 69.5q0 38 33.5 66t79.5 28q47 0 79 -27.5t32 -66.5q0 -40 -32 -69.5t-79 -29.5zM1311 1382q-48 0 -79.5 29t-31.5 70q0 39 31 66.5t80 27.5q46 0 78 -28t32 -66q0 -40 -32.5 -69.5t-77.5 -29.5zM674 0h-121l-502 1128h133l432 -974h7
l419 974h134l434 -974h6l416 974h135l-502 -1128h-123q-289 650 -430 997h-6q-181 -446 -432 -997z" />
    <glyph glyph-name="uni1E9E" unicode="&#x1e9e;" horiz-adv-x="1822" 
d="M379 0h-133v948q0 47 1 80t8 90.5t19 100.5t36.5 99.5t58 97.5t86.5 83.5t119 69.5t158.5 44t201.5 17q305 0 487.5 -118.5t182.5 -329.5q0 -149 -96.5 -248.5t-258.5 -124.5v-2q86 -4 164 -32.5t139.5 -77t97.5 -122t36 -159.5q0 -60 -17 -115t-62.5 -111.5t-116.5 -97
t-188.5 -66.5t-269.5 -26h-201v106h230q108 0 193.5 17.5t140 47t90.5 71t50.5 86t14.5 94.5q0 105 -63.5 180t-172.5 111.5t-251 36.5h-129v106h151q30 0 63.5 4t80 14.5t87 33t76.5 54.5t57 84t21 117q0 172 -143 269.5t-389 97.5q-115 0 -206.5 -23.5t-149 -56.5
t-99 -87.5t-61 -98t-30 -107.5t-12 -95.5t-1.5 -81.5v-3v-977z" />
    <glyph glyph-name="Ygrave" unicode="&#x1ef2;" horiz-adv-x="1685" 
d="M936 1720h-117l-409 318h204zM907 0h-131v592q-502 701 -723 1005h146q60 -84 643 -895h4q44 62 647 895h139l-725 -1005v-592z" />
    <glyph glyph-name="ygrave" unicode="&#x1ef3;" horiz-adv-x="1312" 
d="M700 1278h-112l-373 393h184zM498 -451h-109l211 441l-555 1138h135q90 -182 250 -519.5t227 -475.5h5q44 93 211 449.5t260 545.5h135z" />
    <glyph glyph-name="uni2000" unicode="&#x2000;" horiz-adv-x="1228" 
 />
    <glyph glyph-name="uni2001" unicode="&#x2001;" 
 />
    <glyph glyph-name="uni2002" unicode="&#x2002;" horiz-adv-x="1228" 
 />
    <glyph glyph-name="uni2003" unicode="&#x2003;" 
 />
    <glyph glyph-name="uni2004" unicode="&#x2004;" horiz-adv-x="819" 
 />
    <glyph glyph-name="uni2005" unicode="&#x2005;" horiz-adv-x="614" 
 />
    <glyph glyph-name="uni2006" unicode="&#x2006;" horiz-adv-x="409" 
 />
    <glyph glyph-name="uni2007" unicode="&#x2007;" horiz-adv-x="686" 
 />
    <glyph glyph-name="uni2008" unicode="&#x2008;" horiz-adv-x="559" 
 />
    <glyph glyph-name="uni2009" unicode="&#x2009;" horiz-adv-x="307" 
 />
    <glyph glyph-name="uni200A" unicode="&#x200a;" horiz-adv-x="102" 
 />
    <glyph glyph-name="uni200B" unicode="&#x200b;" horiz-adv-x="0" 
 />
    <glyph glyph-name="endash" unicode="&#x2013;" horiz-adv-x="1214" 
d="M1069 575h-924v97h924v-97z" />
    <glyph glyph-name="emdash" unicode="&#x2014;" horiz-adv-x="1730" 
d="M1585 575h-1440v97h1440v-97z" />
    <glyph glyph-name="quoteleft" unicode="&#x2018;" horiz-adv-x="536" 
d="M340 1630h86l-143 -248q37 -9 58 -35.5t21 -60.5q0 -41 -34.5 -70.5t-83.5 -29.5q-47 0 -82 29.5t-35 70.5q0 35 37 93.5t176 250.5z" />
    <glyph glyph-name="quoteright" unicode="&#x2019;" horiz-adv-x="546" 
d="M233 1190h-88l144 246q-38 10 -59 37t-21 61q0 41 34.5 69.5t84.5 28.5q48 0 82 -28.5t34 -69.5q0 -35 -38 -95.5t-173 -248.5z" />
    <glyph glyph-name="quotesinglbase" unicode="&#x201a;" horiz-adv-x="518" 
d="M174 -254h-86l141 248q-37 9 -58 35.5t-21 60.5q0 41 34.5 70.5t83.5 29.5q47 0 82 -29.5t35 -70.5q0 -35 -36.5 -92.5t-174.5 -251.5z" />
    <glyph glyph-name="quotedblleft" unicode="&#x201c;" horiz-adv-x="888" 
d="M340 1630h86l-143 -248q37 -9 58 -35.5t21 -60.5q0 -41 -34.5 -70.5t-83.5 -29.5q-47 0 -82 29.5t-35 70.5q0 35 37 93.5t176 250.5zM639 1630h86l-141 -248q37 -9 58.5 -36t21.5 -60q0 -41 -35 -70.5t-84 -29.5q-47 0 -82 29.5t-35 70.5q0 35 36.5 92.5t174.5 251.5z
" />
    <glyph glyph-name="quotedblright" unicode="&#x201d;" horiz-adv-x="897" 
d="M231 1190h-86l144 246q-38 10 -59 37t-21 61q0 41 34.5 69.5t84.5 28.5q48 0 82 -28.5t34 -69.5q0 -35 -38.5 -96t-174.5 -248zM586 1190h-86l141 246q-37 10 -57.5 36.5t-20.5 61.5q0 41 34.5 69.5t84.5 28.5q46 0 80.5 -28.5t34.5 -69.5q0 -36 -32 -88.5t-147 -211.5
q-21 -29 -32 -44z" />
    <glyph glyph-name="quotedblbase" unicode="&#x201e;" horiz-adv-x="870" 
d="M174 -252h-86l141 248q-37 9 -58 35.5t-21 60.5q0 42 34.5 71.5t83.5 29.5q47 0 82 -30t35 -71q0 -35 -36.5 -92.5t-174.5 -251.5zM528 -252h-88l142 248q-36 9 -57 35.5t-21 60.5q0 41 35 71t84 30q46 0 80 -30t34 -71q0 -34 -29 -81.5t-140 -205.5q-26 -37 -40 -57z
" />
    <glyph glyph-name="dagger" unicode="&#x2020;" horiz-adv-x="1181" 
d="M655 1290h416v-106h-416v-754h-127v754h-417v106h417v348h127v-348z" />
    <glyph glyph-name="daggerdbl" unicode="&#x2021;" horiz-adv-x="1308" 
d="M1135 1290v-106h-412v-307h412v-107h-412v-346h-129v346h-418v107h418v307h-418v106h418v348h129v-348h412z" />
    <glyph glyph-name="bullet" unicode="&#x2022;" horiz-adv-x="911" 
d="M457 426q-88 0 -149.5 54.5t-61.5 131.5q0 74 62 126.5t149 52.5q86 0 145.5 -52.5t59.5 -126.5q0 -77 -59.5 -131.5t-145.5 -54.5z" />
    <glyph glyph-name="ellipsis" unicode="&#x2026;" horiz-adv-x="1552" 
d="M281 -14q-49 0 -84 30.5t-35 73.5q0 41 35 70.5t84 29.5q47 0 80.5 -29.5t33.5 -70.5q0 -43 -33.5 -73.5t-80.5 -30.5zM698 -14q-49 0 -82.5 30.5t-33.5 73.5q0 42 33.5 71t82.5 29t82 -29t33 -71q0 -43 -33 -73.5t-82 -30.5zM1276 -14q-49 0 -84 30.5t-35 73.5
q0 41 35 70.5t84 29.5q47 0 81 -29.5t34 -70.5q0 -43 -34 -73.5t-81 -30.5z" />
    <glyph glyph-name="uni202F" unicode="&#x202f;" horiz-adv-x="493" 
 />
    <glyph glyph-name="perthousand" unicode="&#x2030;" horiz-adv-x="2770" 
d="M412 803q-138 0 -225 100t-87 258q0 159 87 260t225 101q137 0 224 -101.5t87 -259.5q0 -157 -86.5 -257.5t-224.5 -100.5zM365 0h-119l1366 1468h110zM412 887q90 0 145 74.5t55 199.5t-55 200t-145 75q-91 0 -146 -74.5t-55 -200.5q0 -125 55 -199.5t146 -74.5z
M1540 -29q-138 0 -224.5 100.5t-86.5 258.5q0 159 86.5 259.5t224.5 100.5q137 0 224 -101.5t87 -258.5t-87 -258t-224 -101zM2361 -29q-138 0 -224.5 100.5t-86.5 258.5q0 159 86.5 259.5t224.5 100.5q137 0 224.5 -101.5t87.5 -258.5t-87 -258t-225 -101zM1540 55
q90 0 145.5 75t55.5 200t-55.5 199.5t-145.5 74.5q-91 0 -146 -74.5t-55 -199.5q0 -126 55 -200.5t146 -74.5zM2361 55q90 0 145.5 75t55.5 200t-55.5 199.5t-145.5 74.5q-91 0 -145.5 -74t-54.5 -200t54.5 -200.5t145.5 -74.5z" />
    <glyph glyph-name="guilsinglleft" unicode="&#x2039;" horiz-adv-x="874" 
d="M705 164h-152l-416 405v9l416 405h152l-416 -405v-9z" />
    <glyph glyph-name="guilsinglright" unicode="&#x203a;" horiz-adv-x="874" 
d="M322 164h-152l416 405v9l-416 405h152l415 -405v-9z" />
    <glyph glyph-name="fraction" unicode="&#x2044;" horiz-adv-x="307" 
d="M-457 0h-118l1366 1468h110z" />
    <glyph glyph-name="uni205F" unicode="&#x205f;" horiz-adv-x="544" 
 />
    <glyph glyph-name="uni2070" unicode="&#x2070;" horiz-adv-x="821" 
d="M412 803q-138 0 -225 100t-87 258q0 159 87 260t225 101q137 0 224 -101.5t87 -259.5q0 -157 -86.5 -257.5t-224.5 -100.5zM412 887q90 0 145 74.5t55 199.5t-55 200t-145 75q-91 0 -146 -74.5t-55 -200.5q0 -125 55 -199.5t146 -74.5z" />
    <glyph glyph-name="uni2074" unicode="&#x2074;" horiz-adv-x="768" 
d="M571 817h-100v160h-414v82l414 448h100v-452h117v-78h-117v-160zM471 1384l-309 -329h309v329z" />
    <glyph glyph-name="uni2075" unicode="&#x2075;" horiz-adv-x="757" 
d="M369 803q-108 0 -190 42.5t-111 115.5l90 40q24 -55 83 -86.5t128 -31.5q81 0 135.5 43.5t54.5 111.5q0 66 -53 109t-129 43q-57 0 -103.5 -23.5t-74.5 -60.5l-82 24l94 377h410v-77h-338l-60 -236q26 30 78.5 48t106.5 18q105 0 183.5 -59.5t78.5 -160.5
q0 -105 -87.5 -171t-213.5 -66z" />
    <glyph glyph-name="uni2076" unicode="&#x2076;" horiz-adv-x="792" 
d="M406 803q-137 0 -221.5 85.5t-84.5 235.5q0 173 107.5 285.5t273.5 112.5q122 0 193 -58l-56 -63q-58 41 -143 41q-115 0 -192.5 -76.5t-81.5 -214.5h2q26 53 89 84t136 31q110 0 192 -64.5t82 -163.5q0 -101 -85 -168t-211 -67zM410 881q77 0 133.5 45t56.5 114
q0 68 -55.5 113t-130.5 45q-83 0 -138 -47t-55 -113t56.5 -111.5t132.5 -45.5z" />
    <glyph glyph-name="uni2077" unicode="&#x2077;" horiz-adv-x="663" 
d="M291 817h-107q0 138 92 321t234 300h-461v80h578v-84q-148 -111 -242 -292t-94 -325z" />
    <glyph glyph-name="uni2078" unicode="&#x2078;" horiz-adv-x="776" 
d="M387 803q-128 0 -209.5 57.5t-81.5 143.5q0 66 45 113t113 61v4q-60 22 -93.5 61t-33.5 88q0 82 75 136.5t185 54.5t186 -53t76 -134q0 -48 -31.5 -89.5t-95.5 -63.5v-4q70 -15 114 -62t44 -110q0 -87 -82.5 -145t-210.5 -58zM389 1212q69 0 116.5 35t47.5 88
q0 50 -47.5 82.5t-116.5 32.5q-70 0 -116 -32.5t-46 -82.5q0 -53 46 -88t116 -35zM389 883q78 0 131 37t53 96q0 61 -49.5 97t-134.5 36q-88 0 -137 -36t-49 -97q0 -58 53.5 -95.5t132.5 -37.5z" />
    <glyph glyph-name="uni2079" unicode="&#x2079;" horiz-adv-x="800" 
d="M360 803q-160 0 -260 100l64 60q78 -82 194 -82t177 82.5t59 207.5q-22 -57 -86 -89.5t-139 -32.5q-112 0 -192.5 65t-80.5 164q0 105 84.5 174.5t214.5 69.5q62 0 114.5 -17.5t96 -54.5t68 -101.5t24.5 -150.5q0 -79 -21 -149t-61 -125.5t-106 -88t-150 -32.5zM383 1116
q82 0 138.5 50.5t56.5 121.5t-55 114.5t-132 43.5q-84 0 -139 -46t-55 -120q0 -70 54 -117t132 -47z" />
    <glyph glyph-name="uni2080" unicode="&#x2080;" horiz-adv-x="821" 
d="M412 -285q-138 0 -225 100.5t-87 258.5t87 259t225 101q137 0 224 -101.5t87 -258.5t-87 -258t-224 -101zM412 -201q90 0 145 75t55 200t-55 199.5t-145 74.5q-91 0 -146 -74.5t-55 -199.5q0 -126 55 -200.5t146 -74.5z" />
    <glyph glyph-name="uni2081" unicode="&#x2081;" horiz-adv-x="516" 
d="M346 -270h-102v524q-65 -65 -183 -84v90q82 17 134.5 62t52.5 98h98v-690z" />
    <glyph glyph-name="uni2082" unicode="&#x2082;" horiz-adv-x="745" 
d="M649 -270h-545v8q3 32 8 58t16.5 49.5t20.5 40t31 37t35.5 32t46.5 32.5t51.5 31.5t63.5 36.5q69 39 113.5 82t44.5 96q0 52 -44.5 85.5t-115.5 33.5q-84 0 -137.5 -47.5t-53.5 -124.5l-94 15q0 105 80 172t205 67q115 0 190.5 -56t75.5 -145q0 -69 -43 -118.5
t-119 -94.5q-20 -12 -62 -35t-63 -36.5t-49.5 -35t-44.5 -45t-24 -52.5h413v-86z" />
    <glyph glyph-name="uni2083" unicode="&#x2083;" horiz-adv-x="759" 
d="M373 -285q-105 0 -186 43.5t-109 114.5l90 39q24 -54 77.5 -86.5t127.5 -32.5q77 0 127.5 36t50.5 95q0 56 -51.5 89.5t-143.5 33.5h-82v70h91q76 0 121.5 33.5t45.5 85.5q0 54 -48.5 86t-121.5 32q-68 0 -116 -33.5t-58 -91.5l-92 19q13 84 91.5 135t185.5 51
q109 0 185.5 -49.5t76.5 -130.5q0 -55 -36 -101t-101 -63q71 -12 116 -56t45 -108q0 -86 -78 -148.5t-208 -62.5z" />
    <glyph glyph-name="uni2084" unicode="&#x2084;" horiz-adv-x="768" 
d="M571 -270h-100v159h-414v82l414 449h100v-453h117v-78h-117v-159zM471 297l-309 -330h309v330z" />
    <glyph glyph-name="uni2085" unicode="&#x2085;" horiz-adv-x="757" 
d="M369 -285q-108 0 -190 42.5t-111 115.5l90 41q24 -55 83.5 -88t127.5 -33q80 0 135 45t55 113q0 66 -52.5 108.5t-129.5 42.5q-57 0 -103.5 -23.5t-74.5 -60.5l-82 25l94 377h410v-78h-338l-60 -236q26 30 78.5 48t106.5 18q105 0 183.5 -59t78.5 -160
q0 -105 -87.5 -171.5t-213.5 -66.5z" />
    <glyph glyph-name="uni2086" unicode="&#x2086;" horiz-adv-x="792" 
d="M406 -285q-137 0 -221.5 86t-84.5 236q0 173 107.5 285t273.5 112q123 0 193 -57l-56 -64q-58 41 -143 41q-115 0 -192.5 -76.5t-81.5 -214.5h2q26 53 89 84t136 31q110 0 192 -64t82 -163q0 -101 -85 -168.5t-211 -67.5zM410 -207q77 0 133.5 45.5t56.5 114.5
q0 68 -55.5 113t-130.5 45q-83 0 -138 -47t-55 -113t56.5 -112t132.5 -46z" />
    <glyph glyph-name="uni2087" unicode="&#x2087;" horiz-adv-x="663" 
d="M291 -270h-107q0 137 92 320t234 300h-461v80h578v-84q-148 -111 -242 -291.5t-94 -324.5z" />
    <glyph glyph-name="uni2088" unicode="&#x2088;" horiz-adv-x="776" 
d="M387 -285q-128 0 -209.5 57.5t-81.5 143.5q0 66 45 113t113 61v4q-60 22 -93.5 61.5t-33.5 88.5q0 81 74.5 135.5t185.5 54.5q110 0 186 -52.5t76 -133.5q0 -48 -31.5 -90t-95.5 -64v-4q70 -15 114 -62t44 -110q0 -87 -82.5 -145t-210.5 -58zM389 125q69 0 116.5 35
t47.5 88q0 50 -47.5 82t-116.5 32q-70 0 -116 -32t-46 -82q0 -53 46 -88t116 -35zM389 -205q78 0 131 37t53 96q0 61 -49.5 97t-134.5 36q-88 0 -137 -36t-49 -97q0 -58 53.5 -95.5t132.5 -37.5z" />
    <glyph glyph-name="uni2089" unicode="&#x2089;" horiz-adv-x="800" 
d="M360 -285q-159 0 -260 101l64 59q76 -82 194 -82q116 0 177 83t59 208q-22 -57 -86.5 -90t-138.5 -33q-112 0 -192.5 65t-80.5 164q0 105 84.5 174.5t214.5 69.5q62 0 114.5 -17.5t96 -54t68 -101t24.5 -150.5q0 -107 -35 -194.5t-113.5 -144.5t-189.5 -57zM383 29
q82 0 138.5 50.5t56.5 121.5t-55 114t-132 43q-84 0 -139 -45.5t-55 -119.5q0 -70 54 -117t132 -47z" />
    <glyph glyph-name="Euro" unicode="&#x20ac;" horiz-adv-x="1937" 
d="M1729 205l92 -84q-221 -156 -553 -156q-344 0 -566 156t-290 422h-262v98h243q-8 55 -8 127q0 69 8 121h-243v98h260q31 129 99 235.5t171 187t248.5 125t320.5 44.5q330 0 547 -156l-94 -86q-182 133 -457 133q-278 0 -457 -129.5t-239 -353.5h833v-98h-852
q-8 -52 -8 -121q0 -72 8 -127h852v-98h-829q63 -222 249.5 -346.5t461.5 -124.5q277 0 465 133z" />
    <glyph glyph-name="trademark" unicode="&#x2122;" horiz-adv-x="1855" 
d="M471 944h-104v588h-273v84h645v-84h-268v-588zM989 944h-106v672h104q210 -410 275 -535q45 88 134 267.5t134 267.5h104v-672h-104v467q-197 -386 -227 -453h-86l-228 457v-471z" />
    <glyph glyph-name="oneeighth" unicode="&#x215b;" horiz-adv-x="1599" 
d="M346 817h-102v524q-65 -65 -183 -84v91q82 17 134.5 62t52.5 97h98v-690zM59 0h-118l1366 1468h110zM1210 -29q-127 0 -208.5 57.5t-81.5 143.5q0 66 44.5 113t112.5 61v4q-60 22 -93.5 61.5t-33.5 88.5q0 81 74.5 135.5t185.5 54.5q110 0 186.5 -52.5t76.5 -133.5
q0 -48 -31.5 -90t-95.5 -64v-4q70 -15 113.5 -61.5t43.5 -110.5q0 -87 -82.5 -145t-210.5 -58zM1212 381q69 0 116.5 35t47.5 88q0 50 -47.5 82t-116.5 32q-70 0 -115.5 -32t-45.5 -82q0 -53 45.5 -88t115.5 -35zM1212 51q78 0 131.5 37t53.5 96q0 60 -49.5 96.5
t-135.5 36.5q-88 0 -137 -36t-49 -97q0 -58 53.5 -95.5t132.5 -37.5z" />
    <glyph glyph-name="threeeighths" unicode="&#x215c;" horiz-adv-x="1843" 
d="M373 803q-105 0 -186 43.5t-109 114.5l90 38q24 -54 77.5 -86t127.5 -32q77 0 127.5 36t50.5 95q0 56 -51.5 89.5t-143.5 33.5h-82v69h91q76 0 121.5 33.5t45.5 85.5q0 54 -48.5 86.5t-121.5 32.5q-68 0 -116 -33.5t-58 -91.5l-92 18q13 84 91.5 135.5t185.5 51.5
q109 0 185.5 -50t76.5 -131q0 -55 -36 -100.5t-101 -62.5q71 -12 116 -56t45 -108q0 -86 -78 -148.5t-208 -62.5zM303 0h-119l1366 1468h111zM1454 -29q-128 0 -209.5 57.5t-81.5 143.5q0 66 45 113t113 61v4q-60 22 -93.5 61.5t-33.5 88.5q0 81 74.5 135.5t185.5 54.5
q110 0 186 -52.5t76 -133.5q0 -48 -31.5 -90t-95.5 -64v-4q70 -15 114 -62t44 -110q0 -87 -82.5 -145t-210.5 -58zM1456 381q69 0 116.5 35t47.5 88q0 50 -47.5 82t-116.5 32q-70 0 -116 -32t-46 -82q0 -53 46 -88t116 -35zM1456 51q78 0 131 37t53 96q0 61 -49.5 97
t-134.5 36q-88 0 -137 -36t-49 -97q0 -58 53.5 -95.5t132.5 -37.5z" />
    <glyph glyph-name="fiveeighths" unicode="&#x215d;" horiz-adv-x="1841" 
d="M369 803q-108 0 -190 42.5t-111 115.5l90 40q24 -55 83 -86.5t128 -31.5q81 0 135.5 43.5t54.5 111.5q0 66 -53 109t-129 43q-57 0 -103.5 -23.5t-74.5 -60.5l-82 24l94 377h410v-77h-338l-60 -236q26 30 78.5 48t106.5 18q105 0 183.5 -59.5t78.5 -160.5
q0 -105 -87.5 -171t-213.5 -66zM301 0h-119l1366 1468h111zM1452 -29q-128 0 -209.5 57.5t-81.5 143.5q0 66 45 113t113 61v4q-60 22 -93.5 61.5t-33.5 88.5q0 81 74.5 135.5t185.5 54.5q110 0 186 -52.5t76 -133.5q0 -48 -31.5 -90t-95.5 -64v-4q70 -15 114 -62t44 -110
q0 -87 -82.5 -145t-210.5 -58zM1454 381q69 0 116.5 35t47.5 88q0 50 -47.5 82t-116.5 32q-70 0 -116 -32t-46 -82q0 -53 46 -88t116 -35zM1454 51q78 0 131 37t53 96q0 61 -49.5 97t-134.5 36q-88 0 -137 -36t-49 -97q0 -58 53.5 -95.5t132.5 -37.5z" />
    <glyph glyph-name="seveneighths" unicode="&#x215e;" horiz-adv-x="1746" 
d="M291 817h-107q0 138 92 321t234 300h-461v80h578v-84q-148 -111 -242 -292t-94 -325zM207 0h-119l1366 1468h111zM1358 -29q-128 0 -209.5 57.5t-81.5 143.5q0 66 45 113t113 61v4q-60 22 -93.5 61.5t-33.5 88.5q0 81 74.5 135.5t185.5 54.5q110 0 186 -52.5t76 -133.5
q0 -48 -31.5 -90t-95.5 -64v-4q70 -15 114 -62t44 -110q0 -87 -82.5 -145t-210.5 -58zM1360 381q69 0 116.5 35t47.5 88q0 50 -47.5 82t-116.5 32q-70 0 -116 -32t-46 -82q0 -53 46 -88t116 -35zM1360 51q78 0 131 37t53 96q0 61 -49.5 97t-134.5 36q-88 0 -137 -36t-49 -97
q0 -58 53.5 -95.5t132.5 -37.5z" />
    <glyph glyph-name="arrowleft" unicode="&#x2190;" horiz-adv-x="1716" 
d="M346 700h1217v-112h-1215l361 -352h-156l-408 405v8l408 406h156z" />
    <glyph glyph-name="arrowup" unicode="&#x2191;" horiz-adv-x="1183" 
d="M596 1202l487 -340v-135l-426 303v-1010h-129v1010l-428 -303v135l488 340h8z" />
    <glyph glyph-name="arrowright" unicode="&#x2192;" horiz-adv-x="1716" 
d="M1008 1055h155l408 -406v-8l-408 -405h-155l360 352h-1214v112h1216z" />
    <glyph glyph-name="arrowdown" unicode="&#x2193;" horiz-adv-x="1187" 
d="M659 1202v-1009l426 303v-136l-487 -340h-8l-488 340v136l428 -303v1009h129z" />
    <glyph glyph-name="arrowboth" unicode="&#x2194;" horiz-adv-x="2146" 
d="M707 231h-158l-408 406v8l408 406h158l-367 -355h1466l-366 355h155l408 -406v-8l-408 -406h-155l364 355h-1462z" />
    <glyph glyph-name="arrowupdn" unicode="&#x2195;" horiz-adv-x="1312" 
d="M659 0h-8l-487 338v133l428 -299v1045l-428 -302v134l487 337h8l488 -337v-134l-426 299v-1040l426 297v-133z" />
    <glyph glyph-name="uni2196" unicode="&#x2196;" horiz-adv-x="1245" 
d="M1069 1036l68 -116l-525 49l506 -875l-110 -65l-504 874l-219 -475l-68 117l252 538l8 4z" />
    <glyph glyph-name="uni2197" unicode="&#x2197;" horiz-adv-x="1245" 
d="M778 1083l252 -538l-67 -117l-220 475l-503 -874l-111 65l506 875l-524 -49l67 116l592 51z" />
    <glyph glyph-name="uni2198" unicode="&#x2198;" horiz-adv-x="1243" 
d="M741 319l220 476l67 -117l-252 -539l-8 -4l-592 51l-67 117l524 -49l-506 874l111 66z" />
    <glyph glyph-name="uni2199" unicode="&#x2199;" horiz-adv-x="1243" 
d="M1118 1128l-506 -874l525 49l-68 -117l-592 -51l-8 4l-252 539l68 117l219 -476l504 875z" />
    <glyph glyph-name="emptyset" unicode="&#x2205;" horiz-adv-x="1697" 
d="M1458 1198l-147 -174q109 -82 169 -201t60 -258q0 -125 -50.5 -235.5t-140.5 -191t-220 -127t-281 -46.5q-207 0 -369 84l-151 -176l-88 57l149 176q-110 83 -170.5 202t-60.5 257q0 126 50.5 237t140.5 191t220.5 126t282.5 46q207 0 369 -84l149 174zM285 563
q0 -110 46.5 -205t133.5 -163l682 798q-133 68 -295 68q-248 0 -407.5 -144t-159.5 -354zM852 70q247 0 404 141.5t157 351.5q0 112 -46.5 208.5t-131.5 164.5l-682 -799q131 -67 299 -67z" />
    <glyph glyph-name="minus" unicode="&#x2212;" horiz-adv-x="1191" 
d="M1018 571h-844v107h844v-107z" />
    <glyph glyph-name="infinity" unicode="&#x221e;" horiz-adv-x="2224" 
d="M588 287q-176 0 -299 96t-123 242q0 145 123.5 241.5t298.5 96.5q127 0 235 -59t289 -210q184 152 290.5 210.5t233.5 58.5q176 0 299 -96t123 -242t-123 -242t-299 -96q-126 0 -235 59t-289 209q-181 -151 -288.5 -209.5t-235.5 -58.5zM578 387q54 0 100.5 11t96 39
t80 49t91.5 69t92 70q-29 22 -79.5 61t-76.5 58t-68.5 46t-74 40t-74 22.5t-87.5 9.5q-128 0 -204.5 -64.5t-76.5 -172.5q0 -111 78 -174.5t203 -63.5zM1649 387q126 0 203 63t77 175q0 109 -76 173t-204 64q-45 0 -88 -10t-75.5 -23t-74.5 -40t-68.5 -47t-75 -58t-77.5 -59
q29 -22 77 -59t74.5 -57.5t68.5 -47t75 -40.5t76 -24t88 -10z" />
    <glyph glyph-name="approxequal" unicode="&#x2248;" horiz-adv-x="1259" 
d="M317 735h-118q0 116 78.5 178t185.5 62q50 0 93.5 -14.5t74.5 -35.5t59.5 -41.5t62 -35t68.5 -14.5q62 0 92.5 39.5t30.5 101.5h119q0 -118 -70.5 -180t-177.5 -62q-63 0 -116 22.5t-84.5 49.5t-75 49.5t-88.5 22.5q-67 0 -100.5 -40t-33.5 -102zM317 322h-118
q0 116 78.5 177.5t185.5 61.5q50 0 93.5 -14.5t74.5 -35.5t59.5 -41.5t62 -35t68.5 -14.5q62 0 92.5 39.5t30.5 101.5h119q0 -119 -70.5 -180.5t-177.5 -61.5q-63 0 -116 22.5t-84.5 49.5t-75 49.5t-88.5 22.5q-66 0 -100 -40.5t-34 -100.5z" />
    <glyph glyph-name="notequal" unicode="&#x2260;" horiz-adv-x="1234" 
d="M1038 883v-107h-288l-134 -307h422v-104h-465l-81 -185h-119l82 185h-262v104h303l137 307h-440v107h485l74 176h118l-75 -176h243z" />
    <glyph glyph-name="lessequal" unicode="&#x2264;" horiz-adv-x="1241" 
d="M1040 362h-843v93h583l-581 182v104l841 185v-105l-678 -143l678 -221v-95z" />
    <glyph glyph-name="greaterequal" unicode="&#x2265;" horiz-adv-x="1241" 
d="M1042 362h-841v95l678 221l-678 143v105l841 -185v-104l-581 -182h581v-93z" />
    <glyph glyph-name="lozenge" unicode="&#x25ca;" horiz-adv-x="1396" 
d="M752 0h-109l-493 694l493 692h109l495 -692zM293 694l399 -561h10l400 561l-400 559h-10z" />
    <glyph glyph-name="A.ss01" horiz-adv-x="1810" 
d="M188 0h-141l741 1597h234l739 -1597h-139q-22 49 -117.5 259t-146.5 325h-901q-45 -100 -109 -236.5t-160 -347.5zM502 690h813q-115 249 -352 776h-105q-63 -139 -183 -399.5t-173 -376.5z" />
    <glyph glyph-name="Aacute.ss01" horiz-adv-x="1810" 
d="M1341 2038l-411 -318h-115l320 318h206zM188 0h-141l741 1597h234l739 -1597h-139q-22 49 -117.5 259t-146.5 325h-901q-45 -100 -109 -236.5t-160 -347.5zM502 690h813q-115 249 -352 776h-105q-63 -139 -183 -399.5t-173 -376.5z" />
    <glyph glyph-name="Abreve.ss01" horiz-adv-x="1810" 
d="M905 1726q-101 0 -186 29.5t-139.5 76.5t-85.5 102.5t-35 111.5h114q8 -87 104 -155t228 -68t227 68t103 155h115q-2 -55 -33 -110.5t-85.5 -103t-140 -77t-186.5 -29.5zM188 0h-141l741 1597h234l739 -1597h-139q-22 49 -117.5 259t-146.5 325h-901
q-45 -100 -109 -236.5t-160 -347.5zM502 690h813q-115 249 -352 776h-105q-63 -139 -183 -399.5t-173 -376.5z" />
    <glyph glyph-name="Acircumflex.ss01" horiz-adv-x="1810" 
d="M993 2017l316 -297h-117q-187 143 -287 228q-127 -105 -291 -228h-114l315 297h178zM188 0h-141l741 1597h234l739 -1597h-139q-22 49 -117.5 259t-146.5 325h-901q-45 -100 -109 -236.5t-160 -347.5zM502 690h813q-115 249 -352 776h-105q-63 -139 -183 -399.5
t-173 -376.5z" />
    <glyph glyph-name="Adieresis.ss01" horiz-adv-x="1810" 
d="M676 1794q-46 0 -79.5 28.5t-33.5 69.5q0 38 34 67.5t79 29.5t77.5 -29t32.5 -68q0 -41 -32 -69.5t-78 -28.5zM1133 1794q-49 0 -81 28t-32 70q0 39 32.5 68t80.5 29q44 0 77 -29.5t33 -67.5q0 -41 -32.5 -69.5t-77.5 -28.5zM188 0h-141l741 1597h234l739 -1597h-139
q-22 49 -117.5 259t-146.5 325h-901q-45 -100 -109 -236.5t-160 -347.5zM502 690h813q-115 249 -352 776h-105q-63 -139 -183 -399.5t-173 -376.5z" />
    <glyph glyph-name="Agrave.ss01" horiz-adv-x="1810" 
d="M997 1720h-116l-410 318h205zM188 0h-141l741 1597h234l739 -1597h-139q-22 49 -117.5 259t-146.5 325h-901q-45 -100 -109 -236.5t-160 -347.5zM502 690h813q-115 249 -352 776h-105q-63 -139 -183 -399.5t-173 -376.5z" />
    <glyph glyph-name="Amacron.ss01" horiz-adv-x="1810" 
d="M1296 1839h-782v100h782v-100zM188 0h-141l741 1597h234l739 -1597h-139q-22 49 -117.5 259t-146.5 325h-901q-45 -100 -109 -236.5t-160 -347.5zM502 690h813q-115 249 -352 776h-105q-63 -139 -183 -399.5t-173 -376.5z" />
    <glyph glyph-name="Aogonek.ss01" horiz-adv-x="1810" 
d="M1765 -379q48 0 105 14v-84q-66 -14 -113 -14q-136 0 -226.5 63t-90.5 169q0 134 190 231h-8q-22 49 -117.5 259t-146.5 325h-901q-45 -100 -109 -236.5t-160 -347.5h-141l741 1597h234l739 -1597h-6q-213 -94 -213 -217q0 -73 64 -117.5t159 -44.5zM502 690h813
q-115 249 -352 776h-105q-63 -139 -183 -399.5t-173 -376.5z" />
    <glyph glyph-name="Aring.ss01" horiz-adv-x="1810" 
d="M903 1714q-114 0 -189 61t-75 156q0 92 75 152.5t189 60.5q111 0 185.5 -60.5t74.5 -152.5q0 -94 -74.5 -155.5t-185.5 -61.5zM903 1800q70 0 117 35.5t47 95.5q0 58 -47 92.5t-117 34.5q-73 0 -120.5 -34.5t-47.5 -92.5q0 -60 47.5 -95.5t120.5 -35.5zM188 0h-141
l741 1597h234l739 -1597h-139q-22 49 -117.5 259t-146.5 325h-901q-45 -100 -109 -236.5t-160 -347.5zM502 690h813q-115 249 -352 776h-105q-63 -139 -183 -399.5t-173 -376.5z" />
    <glyph glyph-name="Atilde.ss01" horiz-adv-x="1810" 
d="M1090 1751q-22 0 -41 2t-37 7.5t-29.5 9t-27.5 13.5t-22.5 14t-24 16.5t-21.5 15.5l-43 33q-25 18 -39 27.5t-37.5 17.5t-48.5 8q-58 0 -96.5 -42.5t-38.5 -107.5h-97q1 105 68 171.5t170 66.5q53 0 91.5 -17.5t86.5 -52.5l49 -37q80 -57 144 -57q60 0 93.5 41.5
t33.5 108.5h98q0 -108 -61.5 -173t-169.5 -65zM188 0h-141l741 1597h234l739 -1597h-139q-22 49 -117.5 259t-146.5 325h-901q-45 -100 -109 -236.5t-160 -347.5zM502 690h813q-115 249 -352 776h-105q-63 -139 -183 -399.5t-173 -376.5z" />
    <glyph glyph-name="B.ss01" horiz-adv-x="1751" 
d="M1036 0h-766v1597h662q145 0 264 -34.5t194.5 -93t116.5 -133t41 -156.5q0 -58 -21 -113.5t-62.5 -106t-111 -89.5t-159.5 -58v-4q107 -15 189.5 -53.5t130.5 -92t72 -113.5t24 -124q0 -178 -161 -302t-413 -124zM403 856h525q225 0 353 87.5t128 223.5q0 144 -141 234
t-365 90h-500v-635zM403 106h584q225 0 354 89t129 227q0 143 -138.5 235.5t-366.5 92.5h-562v-644z" />
    <glyph glyph-name="C.ss01" horiz-adv-x="2070" 
d="M1102 -35q-280 0 -500 105.5t-342.5 294t-122.5 428.5q0 183 74.5 340.5t202.5 265.5t303 169.5t373 61.5q132 0 259 -28t240.5 -83t202 -145t133.5 -205l-115 -43q-90 187 -285 290.5t-433 103.5q-129 0 -249.5 -31.5t-222 -93.5t-177.5 -148.5t-119 -204t-43 -251.5
q0 -140 46.5 -258.5t126.5 -201.5t187.5 -141.5t228.5 -86t250 -27.5q156 0 288.5 40.5t225.5 111.5t156 158t96 189l119 -38q-35 -96 -89.5 -179.5t-134.5 -156.5t-178 -125t-226.5 -81.5t-274.5 -29.5z" />
    <glyph glyph-name="D.ss01" horiz-adv-x="1982" 
d="M952 0h-682v1597h660q187 0 339.5 -40.5t257 -112t176 -171.5t104 -216t32.5 -248q0 -178 -61 -327t-173 -256t-280 -166.5t-373 -59.5zM403 106h572q339 0 533 188.5t194 502.5q0 323 -206.5 508.5t-592.5 185.5h-500v-1385z" />
    <glyph glyph-name="E.ss01" horiz-adv-x="1622" 
d="M1491 0h-1221v1597h1196v-106h-1063v-614h1014v-109h-1014v-655h1088v-113z" />
    <glyph glyph-name="F.ss01" horiz-adv-x="1527" 
d="M1442 1597v-114h-1039v-619h990v-108h-990v-756h-133v1597h1172z" />
    <glyph glyph-name="G.ss01" horiz-adv-x="2115" 
d="M1096 -35q-211 0 -390.5 62.5t-304 172t-194.5 262.5t-70 329q0 184 74.5 341.5t202.5 266t303 170t373 61.5q132 0 259 -28t240.5 -83t202 -145t133.5 -205l-115 -43q-90 187 -285 290.5t-433 103.5q-129 0 -249 -31t-222 -93t-178 -148.5t-119 -203.5t-43 -251
q0 -212 104.5 -375t296.5 -252.5t444 -89.5q340 0 532.5 159t213.5 433h-715v104h834v-41q0 -160 -50.5 -290t-136 -217.5t-201.5 -146.5t-242.5 -85.5t-264.5 -26.5z" />
    <glyph glyph-name="H.ss01" horiz-adv-x="1984" 
d="M1581 862v735h133v-1597h-133v754h-1178v-754h-133v1597h133v-735h1178z" />
    <glyph glyph-name="I.ss01" horiz-adv-x="1308" 
d="M1210 0h-1114v106h492v1385h-504v106h1139v-106h-502v-1385h489v-106z" />
    <glyph glyph-name="Iacute.ss01" horiz-adv-x="1308" 
d="M1083 2038l-409 -318h-117l322 318h204zM1210 0h-1114v106h492v1385h-504v106h1139v-106h-502v-1385h489v-106z" />
    <glyph glyph-name="Icircumflex.ss01" horiz-adv-x="1308" 
d="M743 2017l316 -297h-117q-187 143 -287 228q-137 -113 -290 -228h-115l315 297h178zM1210 0h-1114v106h492v1385h-504v106h1139v-106h-502v-1385h489v-106z" />
    <glyph glyph-name="Idieresis.ss01" horiz-adv-x="1308" 
d="M426 1794q-46 0 -79.5 28.5t-33.5 69.5q0 38 34 67.5t79 29.5t78 -29t33 -68q0 -41 -32.5 -69.5t-78.5 -28.5zM883 1794q-49 0 -81 28t-32 70q0 39 32.5 68t80.5 29q44 0 77 -29.5t33 -67.5q0 -41 -32.5 -69.5t-77.5 -28.5zM1210 0h-1114v106h492v1385h-504v106h1139
v-106h-502v-1385h489v-106z" />
    <glyph glyph-name="Idotaccent.ss01" horiz-adv-x="1308" 
d="M653 1790q-51 0 -86 31t-35 75q0 42 35 71.5t86 29.5q49 0 84 -30t35 -71q0 -44 -34.5 -75t-84.5 -31zM1210 0h-1114v106h492v1385h-504v106h1139v-106h-502v-1385h489v-106z" />
    <glyph glyph-name="Igrave.ss01" horiz-adv-x="1308" 
d="M748 1720h-117l-410 318h205zM1210 0h-1114v106h492v1385h-504v106h1139v-106h-502v-1385h489v-106z" />
    <glyph glyph-name="Imacron.ss01" horiz-adv-x="1308" 
d="M1044 1839h-782v100h782v-100zM1210 0h-1114v106h492v1385h-504v106h1139v-106h-502v-1385h489v-106z" />
    <glyph glyph-name="J.ss01" horiz-adv-x="1415" 
d="M641 -35q-82 0 -156.5 14.5t-149.5 52.5t-129 96t-88 152.5t-34 215.5v22l119 14v-20q0 -102 28.5 -181.5t72 -127t103 -78t115 -42t113.5 -11.5q186 0 292.5 114t106.5 308v997h-657v106h790v-1065q0 -29 -0.5 -49t-5.5 -66t-13.5 -81t-27 -84.5t-43.5 -86.5t-66 -76.5
t-91.5 -65t-122 -42t-156.5 -16.5z" />
    <glyph glyph-name="K.ss01" horiz-adv-x="1607" 
d="M403 0h-133v1597h133v-753h5l989 753h170q-185 -145 -537.5 -416.5t-509.5 -394.5l1096 -786h-182q-654 457 -1031 721v-721z" />
    <glyph glyph-name="L.ss01" horiz-adv-x="1454" 
d="M403 1597v-1484h1014v-113h-1147v1597h133z" />
    <glyph glyph-name="M.ss01" horiz-adv-x="2285" 
d="M1862 1597h153v-1597h-131v1409l-676 -1049h-131l-674 1045v-1405h-133v1597h156q376 -562 715 -1103h6q449 718 715 1103z" />
    <glyph glyph-name="N.ss01" horiz-adv-x="2031" 
d="M403 0h-133v1597h219l1092 -1431h49v1431h131v-1597h-217l-1085 1415h-56v-1415z" />
    <glyph glyph-name="O.ss01" horiz-adv-x="2193" 
d="M1096 -35q-194 0 -370 63t-306.5 172t-207.5 265t-77 332t76.5 331.5t206 265t307 173t373.5 63.5q199 0 377 -65t305.5 -176.5t201.5 -265.5t74 -326q0 -231 -128.5 -422.5t-348.5 -300.5t-483 -109zM1100 76q128 0 250 34.5t222.5 99.5t177 152.5t119 199.5t42.5 235
q0 154 -66 289.5t-177 230t-259 149t-309 54.5q-218 0 -405.5 -92t-301.5 -259t-114 -372q0 -204 114 -370.5t301.5 -258.5t405.5 -92z" />
    <glyph glyph-name="P.ss01" horiz-adv-x="1636" 
d="M270 1597h658q290 0 455 -128t165 -339q0 -147 -74.5 -257.5t-204.5 -168t-296 -57.5h-570v-647h-133v1597zM403 756h523q232 0 358.5 95.5t126.5 268.5q0 172 -137.5 271.5t-370.5 99.5h-500v-735z" />
    <glyph glyph-name="Q.ss01" horiz-adv-x="2207" 
d="M596 -264v-4h1274v-103h-1534l399 396q-270 87 -430 290t-160 482q0 184 72.5 340t200.5 264t306 168.5t384 60.5q208 0 386.5 -62.5t304 -172.5t196.5 -264.5t71 -333.5q0 -181 -72.5 -335.5t-199 -263t-304.5 -170t-384 -61.5q-125 0 -250 25q-43 -43 -130 -128
t-130 -128zM283 797q0 -251 148.5 -432t393.5 -252l498 493l92 -69q-230 -227 -463 -451q76 -12 158 -12q136 0 260 33t225 96.5t176.5 150.5t116.5 201t41 242q0 161 -64 298t-174.5 230.5t-260.5 146t-320 52.5q-231 0 -419 -89.5t-298 -256.5t-110 -381z" />
    <glyph glyph-name="R.ss01" horiz-adv-x="1691" 
d="M598 649l1010 -649h-191l-1011 649h-3v-649h-133v1597h658q289 0 454.5 -128.5t165.5 -338.5q0 -220 -161.5 -350.5t-413.5 -130.5h-375zM903 1493h-500v-739h523q233 0 359 98t126 270q0 170 -137.5 270.5t-370.5 100.5z" />
    <glyph glyph-name="S.ss01" horiz-adv-x="1579" 
d="M815 -35q-84 0 -165 14t-166 48.5t-156 86t-130.5 133.5t-93.5 185l121 41q61 -190 221.5 -293.5t370.5 -103.5q70 0 138 11.5t133.5 37t115 63.5t79.5 94.5t30 125.5q0 60 -26.5 107.5t-54 74.5t-96 55t-98 36.5t-115.5 29.5q-25 7 -38 10l-180 47q-40 11 -65.5 18
t-72.5 22t-79.5 29t-76.5 36.5t-74.5 45t-63.5 54.5t-53 67t-33 79t-13 93q0 103 53.5 185t142 131.5t195 75.5t219.5 26q145 0 269 -41.5t219 -129t139 -212.5l-117 -45q-57 145 -196.5 231.5t-331.5 86.5t-324.5 -82.5t-132.5 -216.5q0 -44 17 -84t40.5 -69t64.5 -56.5
t70.5 -43.5t79.5 -34.5t70.5 -25t62.5 -18.5q12 -3 17 -5l184 -49q185 -49 243 -70q218 -80 275 -219q23 -57 23 -123q0 -83 -35 -156.5t-96 -128.5t-142 -94.5t-175 -59.5t-193 -20z" />
    <glyph glyph-name="U.ss01" horiz-adv-x="1875" 
d="M915 -35q-307 0 -487 155t-180 451v1026h131v-1019q0 -257 145.5 -381.5t399.5 -124.5q256 0 402.5 124.5t146.5 381.5v1019h133v-1597h-131v213h-5q-82 -128 -219 -188t-336 -60z" />
    <glyph glyph-name="Uacute.ss01" horiz-adv-x="1875" 
d="M1198 2038l-410 -318h-116l321 318h205zM915 -35q-307 0 -487 155t-180 451v1026h131v-1019q0 -257 145.5 -381.5t399.5 -124.5q256 0 402.5 124.5t146.5 381.5v1019h133v-1597h-131v213h-5q-82 -128 -219 -188t-336 -60z" />
    <glyph glyph-name="Ucircumflex.ss01" horiz-adv-x="1875" 
d="M1008 2017l315 -297h-117q-177 135 -286 228q-127 -105 -291 -228h-115l315 297h179zM915 -35q-307 0 -487 155t-180 451v1026h131v-1019q0 -257 145.5 -381.5t399.5 -124.5q256 0 402.5 124.5t146.5 381.5v1019h133v-1597h-131v213h-5q-82 -128 -219 -188t-336 -60z" />
    <glyph glyph-name="Udieresis.ss01" horiz-adv-x="1875" 
d="M690 1794q-46 0 -79 28.5t-33 69.5q0 39 33.5 68t78.5 29t78 -29t33 -68q0 -41 -32.5 -69.5t-78.5 -28.5zM1147 1794q-49 0 -81 28t-32 70q0 39 32.5 68t80.5 29q44 0 77 -29.5t33 -67.5q0 -41 -32.5 -69.5t-77.5 -28.5zM915 -35q-307 0 -487 155t-180 451v1026h131
v-1019q0 -257 145.5 -381.5t399.5 -124.5q256 0 402.5 124.5t146.5 381.5v1019h133v-1597h-131v213h-5q-82 -128 -219 -188t-336 -60z" />
    <glyph glyph-name="Ugrave.ss01" horiz-adv-x="1875" 
d="M1012 1720h-117l-410 318h205zM915 -35q-307 0 -487 155t-180 451v1026h131v-1019q0 -257 145.5 -381.5t399.5 -124.5q256 0 402.5 124.5t146.5 381.5v1019h133v-1597h-131v213h-5q-82 -128 -219 -188t-336 -60z" />
    <glyph glyph-name="Uhungarumlaut.ss01" horiz-adv-x="1875" 
d="M1087 2038l-327 -318h-115l256 318h186zM1438 2038l-351 -318h-116l278 318h189zM915 -35q-307 0 -487 155t-180 451v1026h131v-1019q0 -257 145.5 -381.5t399.5 -124.5q256 0 402.5 124.5t146.5 381.5v1019h133v-1597h-131v213h-5q-82 -128 -219 -188t-336 -60z" />
    <glyph glyph-name="Umacron.ss01" horiz-adv-x="1875" 
d="M1309 1839h-783v100h783v-100zM915 -35q-307 0 -487 155t-180 451v1026h131v-1019q0 -257 145.5 -381.5t399.5 -124.5q256 0 402.5 124.5t146.5 381.5v1019h133v-1597h-131v213h-5q-82 -128 -219 -188t-336 -60z" />
    <glyph glyph-name="Uogonek.ss01" horiz-adv-x="1875" 
d="M1612 -379q47 0 104 14v-84q-66 -14 -112 -14q-136 0 -227 63t-91 169q0 133 191 231h-2v213h-5q-82 -128 -219 -188t-336 -60q-307 0 -487 155t-180 451v1026h131v-1019q0 -257 145.5 -381.5t399.5 -124.5q256 0 402.5 124.5t146.5 381.5v1019h133v-1597h-4
q-213 -94 -213 -217q0 -73 64 -117.5t159 -44.5z" />
    <glyph glyph-name="Uring.ss01" horiz-adv-x="1875" 
d="M918 1714q-115 0 -190 61t-75 156q0 92 75.5 152.5t189.5 60.5q111 0 185.5 -60.5t74.5 -152.5q0 -94 -74.5 -155.5t-185.5 -61.5zM918 1800q70 0 116.5 35.5t46.5 95.5q0 58 -46.5 92.5t-116.5 34.5q-73 0 -120.5 -34.5t-47.5 -92.5q0 -60 47.5 -95.5t120.5 -35.5z
M915 -35q-307 0 -487 155t-180 451v1026h131v-1019q0 -257 145.5 -381.5t399.5 -124.5q256 0 402.5 124.5t146.5 381.5v1019h133v-1597h-131v213h-5q-82 -128 -219 -188t-336 -60z" />
    <glyph glyph-name="V.ss01" horiz-adv-x="1802" 
d="M1018 0h-234l-739 1597h139q83 -183 124.5 -272.5t69 -149t150.5 -328.5t326 -712h102q129 281 363 799.5t299 662.5h139z" />
    <glyph glyph-name="W.ss01" horiz-adv-x="2781" 
d="M846 0h-160l-635 1597h135l578 -1445h4l500 1445h268l483 -1445h6l570 1445h137l-635 -1597h-160l-483 1477h-102z" />
    <glyph glyph-name="Wacute.ss01" horiz-adv-x="2781" 
d="M1829 2038l-412 -318h-114l319 318h207zM846 0h-160l-635 1597h135l578 -1445h4l500 1445h268l483 -1445h6l570 1445h137l-635 -1597h-160l-483 1477h-102z" />
    <glyph glyph-name="Wcircumflex.ss01" horiz-adv-x="2781" 
d="M1479 2017l315 -297h-117q-177 135 -286 228q-127 -105 -291 -228h-115l315 297h179zM846 0h-160l-635 1597h135l578 -1445h4l500 1445h268l483 -1445h6l570 1445h137l-635 -1597h-160l-483 1477h-102z" />
    <glyph glyph-name="Wdieresis.ss01" horiz-adv-x="2781" 
d="M1163 1794q-46 0 -79 28.5t-33 69.5q0 39 33.5 68t78.5 29t78 -29t33 -68q0 -41 -32.5 -69.5t-78.5 -28.5zM1620 1794q-49 0 -81 28t-32 70q0 39 32.5 68t80.5 29q44 0 77.5 -29.5t33.5 -67.5q0 -41 -33 -69.5t-78 -28.5zM846 0h-160l-635 1597h135l578 -1445h4l500 1445
h268l483 -1445h6l570 1445h137l-635 -1597h-160l-483 1477h-102z" />
    <glyph glyph-name="Wgrave.ss01" horiz-adv-x="2781" 
d="M1483 1720h-117l-410 318h205zM846 0h-160l-635 1597h135l578 -1445h4l500 1445h268l483 -1445h6l570 1445h137l-635 -1597h-160l-483 1477h-102z" />
    <glyph glyph-name="X.ss01" horiz-adv-x="1675" 
d="M186 0h-147l659 811v23l-641 763h148q326 -394 583 -716h99q78 95 219.5 270.5t363.5 445.5h148l-639 -763v-23l657 -811h-143q-229 287 -606 766h-99q-297 -382 -602 -766z" />
    <glyph glyph-name="Y.ss01" horiz-adv-x="1650" 
d="M498 0h-133l428 594l-723 1003h143l645 -892h4l649 892h140z" />
    <glyph glyph-name="Yacute.ss01" horiz-adv-x="1650" 
d="M1288 2038l-409 -318h-115l319 318h205zM498 0h-133l428 594l-723 1003h143l645 -892h4l649 892h140z" />
    <glyph glyph-name="Ycircumflex.ss01" horiz-adv-x="1650" 
d="M948 2017l316 -297h-117q-187 143 -287 228q-127 -105 -291 -228h-114l315 297h178zM498 0h-133l428 594l-723 1003h143l645 -892h4l649 892h140z" />
    <glyph glyph-name="Ydieresis.ss01" horiz-adv-x="1650" 
d="M633 1794q-46 0 -79.5 28.5t-33.5 69.5q0 38 34 67.5t79 29.5t77.5 -29t32.5 -68q0 -41 -32 -69.5t-78 -28.5zM1090 1794q-49 0 -81 28t-32 70q0 39 32.5 68t80.5 29q44 0 77 -29.5t33 -67.5q0 -41 -32.5 -69.5t-77.5 -28.5zM498 0h-133l428 594l-723 1003h143l645 -892
h4l649 892h140z" />
    <glyph glyph-name="Ygrave.ss01" horiz-adv-x="1650" 
d="M952 1720h-116l-410 318h205zM498 0h-133l428 594l-723 1003h143l645 -892h4l649 892h140z" />
    <glyph glyph-name="Z.ss01" horiz-adv-x="1660" 
d="M1563 0h-1557l1376 1491h-1228v106h1474l-1370 -1484h1305v-113z" />
    <glyph glyph-name="Zacute.ss01" horiz-adv-x="1660" 
d="M1255 2038l-411 -318h-115l320 318h206zM1563 0h-1557l1376 1491h-1228v106h1474l-1370 -1484h1305v-113z" />
    <glyph glyph-name="Zcaron.ss01" horiz-adv-x="1660" 
d="M1106 2017h117l-316 -297h-178l-315 297h114q197 -148 291 -227q37 32 79 66t65 51.5t76.5 58.5t66.5 51zM1563 0h-1557l1376 1491h-1228v106h1474l-1370 -1484h1305v-113z" />
    <glyph glyph-name="Zdotaccent.ss01" horiz-adv-x="1660" 
d="M819 1790q-51 0 -86 31t-35 75q0 42 35 71.5t86 29.5q49 0 84 -30t35 -71q0 -44 -34.5 -75t-84.5 -31zM1563 0h-1557l1376 1491h-1228v106h1474l-1370 -1484h1305v-113z" />
    <glyph glyph-name="Q.ss02" horiz-adv-x="2193" 
d="M1167 -33v-233h680v-105h-807v338q-185 9 -351 75t-288.5 174t-194 259t-71.5 322q0 176 76.5 331.5t206 265t307 173t373.5 63.5q199 0 377 -65t305.5 -176.5t201.5 -265.5t74 -326q0 -166 -69 -315t-187.5 -258t-283 -177.5t-349.5 -79.5zM279 797q0 -146 61 -276
t164 -223.5t242.5 -151.5t293.5 -68v495h127v-495q150 12 286 70.5t237.5 152t161 222.5t59.5 274q0 154 -66 289.5t-177 230t-259 149t-309 54.5q-218 0 -405.5 -92t-301.5 -259t-114 -372z" />
    <glyph glyph-name="A.ss07" 
d="M1225 -315q-237 0 -446.5 71t-359 193.5t-236.5 294t-87 364.5q0 198 87 372.5t236.5 298.5t359 195.5t446.5 71.5q239 0 449 -71.5t360 -195.5t236.5 -298.5t86.5 -372.5q0 -156 -55 -298t-157.5 -255t-241 -196.5t-313 -128.5t-365.5 -45zM1180 1096l-475 -963h104
q21 43 79.5 161t90.5 185h494q126 -249 172 -346h104l-475 963h-94zM1436 559h-420q28 56 69.5 141.5t75 154t66.5 132.5q136 -284 209 -428z" />
    <glyph glyph-name="B.ss07" horiz-adv-x="2459" 
d="M1225 -315q-237 0 -446.5 71t-359 193.5t-236.5 294t-87 364.5q0 198 87 372.5t236.5 298.5t359 195.5t446.5 71.5q239 0 449 -71.5t360 -195.5t236.5 -298.5t86.5 -372.5q0 -156 -55 -298t-157.5 -255t-241 -196.5t-313 -128.5t-365.5 -45zM862 1096v-963h463
q148 0 249 73.5t101 186.5q0 84 -59.5 146t-159.5 84q84 26 133 85t49 134q0 111 -105 182.5t-269 71.5h-402zM958 655v361h289q128 0 208.5 -50.5t80.5 -131.5t-75 -130t-199 -49h-304zM1296 213h-338v365h326q128 0 208.5 -52t80.5 -135q0 -81 -76 -129.5t-201 -48.5z" />
    <glyph glyph-name="C.ss07" 
d="M1227 -315q-237 0 -446.5 71t-359 193.5t-236.5 294t-87 364.5q0 198 87 372.5t236.5 298.5t359 195.5t446.5 71.5q239 0 449 -71.5t360 -195.5t236.5 -298.5t86.5 -372.5q0 -156 -55 -298t-157.5 -255t-241 -196.5t-313 -128.5t-365.5 -45zM1268 113q201 0 345.5 92.5
t201.5 259.5l-89 29q-37 -128 -152 -213.5t-296 -85.5q-94 0 -180 26t-155.5 75.5t-110.5 130.5t-41 183q0 185 134 304.5t339 119.5q144 0 256.5 -64t158.5 -171l88 30q-33 95 -116 162t-182.5 96t-208.5 29q-161 0 -292 -64.5t-205.5 -180.5t-74.5 -261q0 -219 162.5 -358
t417.5 -139z" />
    <glyph glyph-name="D.ss07" 
d="M1225 -315q-237 0 -446.5 71t-359 193.5t-236.5 294t-87 364.5q0 198 87 372.5t236.5 298.5t359 195.5t446.5 71.5q239 0 449 -71.5t360 -195.5t236.5 -298.5t86.5 -372.5q0 -156 -55 -298t-157.5 -255t-241 -196.5t-313 -128.5t-365.5 -45zM817 1096v-963h416
q243 0 389.5 133t146.5 355q0 224 -146.5 349.5t-403.5 125.5h-402zM1245 213h-330v803h285q220 0 342.5 -105t122.5 -297q0 -185 -113.5 -293t-306.5 -108z" />
    <glyph glyph-name="E.ss07" 
d="M1225 -315q-237 0 -446.5 71t-359 193.5t-236.5 294t-87 364.5q0 198 87 372.5t236.5 298.5t359 195.5t446.5 71.5q239 0 449 -71.5t360 -195.5t236.5 -298.5t86.5 -372.5q0 -156 -55 -298t-157.5 -255t-241 -196.5t-313 -128.5t-365.5 -45zM889 1096v-963h743v84h-643
v371h600v80h-600v348h631v80h-731z" />
    <glyph glyph-name="F.ss07" horiz-adv-x="2459" 
d="M1225 -315q-237 0 -446.5 71t-359 193.5t-236.5 294t-87 364.5q0 198 87 372.5t236.5 298.5t359 195.5t446.5 71.5q239 0 449 -71.5t360 -195.5t236.5 -298.5t86.5 -372.5q0 -156 -55 -298t-157.5 -255t-241 -196.5t-313 -128.5t-365.5 -45zM913 1096v-963h99v447h585v82
h-585v350h616v84h-715z" />
    <glyph glyph-name="G.ss07" 
d="M1227 -315q-237 0 -446.5 71t-359 193.5t-236.5 294t-87 364.5q0 198 87 372.5t236.5 298.5t359 195.5t446.5 71.5q239 0 449 -71.5t360 -195.5t236.5 -298.5t86.5 -372.5q0 -156 -55 -298t-157.5 -255t-241 -196.5t-313 -128.5t-365.5 -45zM1260 113q160 0 278 60
t178 171l2 -211h86v475h-514v-80h416q-15 -151 -135 -242t-299 -91q-93 0 -177.5 26t-153 75.5t-109.5 130.5t-41 183q0 185 134 304.5t339 119.5q143 0 255.5 -63.5t159.5 -171.5l88 30q-34 94 -115.5 161t-181 96.5t-210.5 29.5q-161 0 -292 -65t-205.5 -181t-74.5 -260
t73.5 -257.5t204 -176.5t294.5 -63z" />
    <glyph glyph-name="H.ss07" 
d="M1225 -315q-237 0 -446.5 71t-359 193.5t-236.5 294t-87 364.5q0 198 87 372.5t236.5 298.5t359 195.5t446.5 71.5q239 0 449 -71.5t360 -195.5t236.5 -298.5t86.5 -372.5q0 -156 -55 -298t-157.5 -255t-241 -196.5t-313 -128.5t-365.5 -45zM791 1096v-963h100v447h676
v-447h100v963h-100v-437h-676v437h-100z" />
    <glyph glyph-name="I.ss07" 
d="M1225 -315q-237 0 -446.5 71t-359 193.5t-236.5 294t-87 364.5q0 198 87 372.5t236.5 298.5t359 195.5t446.5 71.5q239 0 449 -71.5t360 -195.5t236.5 -298.5t86.5 -372.5q0 -156 -55 -298t-157.5 -255t-241 -196.5t-313 -128.5t-365.5 -45zM1180 1096v-963h98v963h-98z
" />
    <glyph glyph-name="J.ss07" 
d="M1225 -315q-237 0 -446.5 71t-359 193.5t-236.5 294t-87 364.5q0 198 87 372.5t236.5 298.5t359 195.5t446.5 71.5q239 0 449 -71.5t360 -195.5t236.5 -298.5t86.5 -372.5q0 -156 -55 -298t-157.5 -255t-241 -196.5t-313 -128.5t-365.5 -45zM1184 123q52 0 95 10t74 25.5
t55.5 40.5t40 48t26.5 56.5t16.5 56.5t8 57.5t3 51.5t0.5 45v592h-96v-617q0 -29 -0.5 -47.5t-5 -51.5t-12.5 -55.5t-25 -49.5t-40 -43t-59.5 -27.5t-82.5 -11.5q-47 0 -89.5 11.5t-82 37t-63 75.5t-23.5 119v29l-90 -8v-35q0 -67 21 -121t55.5 -88.5t80.5 -57.5t94 -32.5
t99 -9.5z" />
    <glyph glyph-name="K.ss07" 
d="M1225 -315q-237 0 -446.5 71t-359 193.5t-236.5 294t-87 364.5q0 198 87 372.5t236.5 298.5t359 195.5t446.5 71.5q239 0 449 -71.5t360 -195.5t236.5 -298.5t86.5 -372.5q0 -156 -55 -298t-157.5 -255t-241 -196.5t-313 -128.5t-365.5 -45zM879 1096v-963h96v340
q29 24 80.5 69.5t72.5 63.5q67 -70 222.5 -230t234.5 -243h121q-63 67 -231.5 246t-274.5 293q52 46 151 134.5t178 158t152 131.5h-125q-416 -363 -581 -512v512h-96z" />
    <glyph glyph-name="L.ss07" 
d="M1225 -315q-237 0 -446.5 71t-359 193.5t-236.5 294t-87 364.5q0 198 87 372.5t236.5 298.5t359 195.5t446.5 71.5q239 0 449 -71.5t360 -195.5t236.5 -298.5t86.5 -372.5q0 -156 -55 -298t-157.5 -255t-241 -196.5t-313 -128.5t-365.5 -45zM977 1096v-963h698v84h-600
v879h-98z" />
    <glyph glyph-name="M.ss07" horiz-adv-x="2459" 
d="M1225 -315q-237 0 -446.5 71t-359 193.5t-236.5 294t-87 364.5q0 198 87 372.5t236.5 298.5t359 195.5t446.5 71.5q239 0 449 -71.5t360 -195.5t236.5 -298.5t86.5 -372.5q0 -156 -55 -298t-157.5 -255t-241 -196.5t-313 -128.5t-365.5 -45zM649 1096v-963h96v785
q5 -10 437 -785h94q281 502 436 789v-789h98v963h-110q-67 -127 -146 -269t-176 -313t-149 -266q-199 367 -471 848h-109z" />
    <glyph glyph-name="N.ss07" 
d="M1225 -315q-237 0 -446.5 71t-359 193.5t-236.5 294t-87 364.5q0 198 87 372.5t236.5 298.5t359 195.5t446.5 71.5q239 0 449 -71.5t360 -195.5t236.5 -298.5t86.5 -372.5q0 -156 -55 -298t-157.5 -255t-241 -196.5t-313 -128.5t-365.5 -45zM793 1096v-963h98v817
q131 -157 370.5 -433.5t329.5 -383.5h103v963h-97v-826q-106 128 -224.5 267.5t-258.5 302.5t-219 256h-102z" />
    <glyph glyph-name="O.ss07" 
d="M1225 -315q-237 0 -446.5 71t-359 193.5t-236.5 294t-87 364.5q0 198 87 372.5t236.5 298.5t359 195.5t446.5 71.5q239 0 449 -71.5t360 -195.5t236.5 -298.5t86.5 -372.5q0 -156 -55 -298t-157.5 -255t-241 -196.5t-313 -128.5t-365.5 -45zM1229 113q120 0 227 39
t184.5 106t122.5 159.5t45 196.5q0 138 -76.5 253.5t-209 182t-291.5 66.5q-161 0 -294 -66t-209.5 -181.5t-76.5 -254.5t76.5 -254.5t209 -181t292.5 -65.5zM754 614q0 115 63.5 211.5t173.5 152.5t240 56q195 0 334 -123t139 -297t-138.5 -296.5t-334.5 -122.5
q-129 0 -238.5 55t-174 151.5t-64.5 212.5z" />
    <glyph glyph-name="P.ss07" 
d="M1225 -315q-237 0 -446.5 71t-359 193.5t-236.5 294t-87 364.5q0 198 87 372.5t236.5 298.5t359 195.5t446.5 71.5q239 0 449 -71.5t360 -195.5t236.5 -298.5t86.5 -372.5q0 -156 -55 -298t-157.5 -255t-241 -196.5t-313 -128.5t-365.5 -45zM891 1096v-963h96v385h330
q153 0 252.5 79.5t99.5 213.5q0 133 -105 209t-272 76h-401zM1288 598h-301v418h289q132 0 210.5 -56t78.5 -153q0 -102 -72 -155.5t-205 -53.5z" />
    <glyph glyph-name="Q.ss07" 
d="M1225 -315q-237 0 -446.5 71t-359 193.5t-236.5 294t-87 364.5q0 198 87 372.5t236.5 298.5t359 195.5t446.5 71.5q239 0 449 -71.5t360 -195.5t236.5 -298.5t86.5 -372.5q0 -156 -55 -298t-157.5 -255t-241 -196.5t-313 -128.5t-365.5 -45zM1692 66l69 53
q-15 14 -20.5 19t-13.5 13t-17 17.5t-37.5 38.5t-68.5 69q97 70 149.5 170t52.5 213q0 138 -76.5 253.5t-209.5 182t-293 66.5q-162 0 -295.5 -66t-210 -181.5t-76.5 -254.5q0 -140 76.5 -255t209.5 -180.5t294 -65.5q171 0 303 69q20 -20 77 -75t87 -86zM750 659
q0 175 139 297.5t338 122.5q129 0 238 -56t172 -152.5t63 -211.5q0 -192 -164 -315q-192 187 -236 227l-65 -51q75 -75 227 -223q-108 -57 -235 -57q-199 0 -338 121t-139 298z" />
    <glyph glyph-name="R.ss07" 
d="M1225 -315q-237 0 -446.5 71t-359 193.5t-236.5 294t-87 364.5q0 198 87 372.5t236.5 298.5t359 195.5t446.5 71.5q239 0 449 -71.5t360 -195.5t236.5 -298.5t86.5 -372.5q0 -156 -55 -298t-157.5 -255t-241 -196.5t-313 -128.5t-365.5 -45zM897 1096v-963h98v385h277
l309 -385h111q-50 65 -156.5 195.5t-155.5 193.5q134 14 214.5 92t80.5 197q0 134 -104.5 209.5t-272.5 75.5h-401zM1296 596h-301v420h287q133 0 212 -56t79 -153q0 -102 -73.5 -156.5t-203.5 -54.5z" />
    <glyph glyph-name="S.ss07" 
d="M1225 -315q-237 0 -446.5 71t-359 193.5t-236.5 294t-87 364.5q0 198 87 372.5t236.5 298.5t359 195.5t446.5 71.5q239 0 449 -71.5t360 -195.5t236.5 -298.5t86.5 -372.5q0 -156 -55 -298t-157.5 -255t-241 -196.5t-313 -128.5t-365.5 -45zM1249 113q165 0 277 79.5
t112 200.5q0 48 -21.5 87t-44 61t-76 45t-75 29.5t-83.5 22.5l-9 3t-7.5 2t-8.5 2l-111 29q-26 7 -42.5 12t-49.5 17t-55 26t-46 33.5t-36 46t-12 57.5q0 74 72 121t186 47q113 0 194.5 -51t112.5 -141l88 32q-35 113 -137.5 177.5t-247.5 64.5q-67 0 -131.5 -16t-119 -46.5
t-87.5 -81.5t-33 -114q0 -189 322 -270l106 -27q8 -2 37 -9.5t39.5 -10.5t36.5 -10.5t37 -14t30.5 -16.5t28.5 -21t20 -25.5t15 -32t4 -38.5q0 -64 -45 -108t-106.5 -62t-131.5 -18q-127 0 -219.5 63.5t-126.5 175.5l-90 -31q24 -79 73 -138t110.5 -90.5t124 -46.5
t126.5 -15z" />
    <glyph glyph-name="T.ss07" 
d="M1225 -315q-237 0 -446.5 71t-359 193.5t-236.5 294t-87 364.5q0 198 87 372.5t236.5 298.5t359 195.5t446.5 71.5q239 0 449 -71.5t360 -195.5t236.5 -298.5t86.5 -372.5q0 -156 -55 -298t-157.5 -255t-241 -196.5t-313 -128.5t-365.5 -45zM1180 1016v-883h98v883h395
v80h-893v-80h400z" />
    <glyph glyph-name="U.ss07" 
d="M1225 -315q-237 0 -446.5 71t-359 193.5t-236.5 294t-87 364.5q0 198 87 372.5t236.5 298.5t359 195.5t446.5 71.5q239 0 449 -71.5t360 -195.5t236.5 -298.5t86.5 -372.5q0 -156 -55 -298t-157.5 -255t-241 -196.5t-313 -128.5t-365.5 -45zM1225 123q198 0 306.5 99
t108.5 270v614h-98v-612q0 -291 -313 -291q-157 0 -236.5 74t-79.5 217v612h-96v-614q0 -173 105 -271t303 -98z" />
    <glyph glyph-name="V.ss07" 
d="M1225 -315q-237 0 -446.5 71t-359 193.5t-236.5 294t-87 364.5q0 198 87 372.5t236.5 298.5t359 195.5t446.5 71.5q239 0 449 -71.5t360 -195.5t236.5 -298.5t86.5 -372.5q0 -156 -55 -298t-157.5 -255t-241 -196.5t-313 -128.5t-365.5 -45zM707 1096l475 -963h94
l475 963h-104q-140 -286 -414 -856q-37 77 -108 223t-111 227t-97.5 195.5t-107.5 210.5h-102z" />
    <glyph glyph-name="W.ss07" 
d="M1225 -315q-237 0 -446.5 71t-359 193.5t-236.5 294t-87 364.5q0 198 87 372.5t236.5 298.5t359 195.5t446.5 71.5q239 0 449 -71.5t360 -195.5t236.5 -298.5t86.5 -372.5q0 -156 -55 -298t-157.5 -255t-241 -196.5t-313 -128.5t-365.5 -45zM422 1096l383 -963h104
q148 363 320 838q163 -456 321 -838h103l383 963h-101q-173 -428 -331 -840q-30 79 -146 378t-178 462h-102q-31 -81 -65.5 -173t-90.5 -238.5t-164 -428.5q-124 326 -336 840h-100z" />
    <glyph glyph-name="X.ss07" 
d="M1225 -315q-237 0 -446.5 71t-359 193.5t-236.5 294t-87 364.5q0 198 87 372.5t236.5 298.5t359 195.5t446.5 71.5q239 0 449 -71.5t360 -195.5t236.5 -298.5t86.5 -372.5q0 -156 -55 -298t-157.5 -255t-241 -196.5t-313 -128.5t-365.5 -45zM764 133h113q143 171 352 428
q54 -63 170.5 -207.5t181.5 -220.5h111q-49 59 -189 230.5t-219 263.5q58 70 124 148.5t145.5 172.5t125.5 148h-110q-160 -183 -340 -400q-64 72 -179.5 208.5t-162.5 191.5h-113q68 -81 201.5 -236t198.5 -233q-96 -113 -410 -494z" />
    <glyph glyph-name="Y.ss07" 
d="M1225 -315q-237 0 -446.5 71t-359 193.5t-236.5 294t-87 364.5q0 198 87 372.5t236.5 298.5t359 195.5t446.5 71.5q239 0 449 -71.5t360 -195.5t236.5 -298.5t86.5 -372.5q0 -156 -55 -298t-157.5 -255t-241 -196.5t-313 -128.5t-365.5 -45zM1178 489v-356h100v356
q52 73 160.5 224t187.5 261t86 122h-104q-287 -392 -379 -525q-74 103 -214.5 297.5t-164.5 227.5h-107q58 -82 207 -288.5t228 -318.5z" />
    <glyph glyph-name="Z.ss07" 
d="M1225 -315q-237 0 -446.5 71t-359 193.5t-236.5 294t-87 364.5q0 198 87 372.5t236.5 298.5t359 195.5t446.5 71.5q239 0 449 -71.5t360 -195.5t236.5 -298.5t86.5 -372.5q0 -156 -55 -298t-157.5 -255t-241 -196.5t-313 -128.5t-365.5 -45zM807 215v-82h885v84h-766
q43 46 321.5 340.5t431.5 460.5v78h-841v-80h718q-117 -124 -749 -801z" />
    <glyph glyph-name="A.ss08" 
d="M1225 1546q239 0 449 -71.5t360 -195.5t236.5 -298.5t86.5 -372.5q0 -156 -55 -298t-157.5 -255t-241 -196.5t-313 -128.5t-365.5 -45q-237 0 -446.5 71t-359 193.5t-236.5 294t-87 364.5q0 198 87 372.5t236.5 298.5t359 195.5t446.5 71.5zM1225 -236q219 0 411.5 64.5
t330 176t217 269t79.5 336.5q0 181 -79.5 340t-217 272t-330 178.5t-411.5 65.5q-217 0 -409.5 -65.5t-330 -178.5t-217.5 -272.5t-80 -339.5q0 -178 80 -335t217.5 -269t330 -177t409.5 -65zM854 270l340 688h72l342 -688h-82q-8 18 -123 248h-348q-25 -52 -53 -107.5
t-45.5 -90t-24.5 -50.5h-78zM1083 578h291q-105 210 -145 299q-14 -30 -65.5 -133.5t-80.5 -165.5z" />
    <glyph glyph-name="B.ss08" 
d="M1225 1546q239 0 449 -71.5t360 -195.5t236.5 -298.5t86.5 -372.5q0 -156 -55 -298t-157.5 -255t-241 -196.5t-313 -128.5t-365.5 -45q-237 0 -446.5 71t-359 193.5t-236.5 294t-87 364.5q0 198 87 372.5t236.5 298.5t359 195.5t446.5 71.5zM1225 -236q219 0 411.5 64.5
t330 176t217 269t79.5 336.5q0 181 -79.5 340t-217 272t-330 178.5t-411.5 65.5q-217 0 -409.5 -65.5t-330 -178.5t-217.5 -272.5t-80 -339.5q0 -178 80 -335t217.5 -269t330 -177t409.5 -65zM1395 621q71 -17 112 -60.5t41 -101.5q0 -82 -72.5 -135.5t-179.5 -53.5h-333
v688h288q119 0 195 -51.5t76 -132.5q0 -50 -34 -91.5t-93 -61.5zM1038 897v-252h211q89 0 143 34.5t54 90.5q0 57 -57.5 92t-147.5 35h-203zM1276 332q88 0 141 33t53 90q0 59 -56.5 96t-147.5 37h-228v-256h238z" />
    <glyph glyph-name="C.ss08" 
d="M1225 -315q-237 0 -446.5 71t-359 193.5t-236.5 294t-87 364.5q0 198 87 372.5t236.5 298.5t359 195.5t446.5 71.5q239 0 449 -71.5t360 -195.5t236.5 -298.5t86.5 -372.5q0 -156 -55 -298t-157.5 -255t-241 -196.5t-313 -128.5t-365.5 -45zM1225 -236q219 0 411.5 64.5
t330 176t217 269t79.5 336.5q0 181 -79.5 340t-217 272t-330 178.5t-411.5 65.5q-217 0 -409.5 -65.5t-330 -178.5t-217.5 -272.5t-80 -339.5q0 -178 80 -335t217.5 -269t330 -177t409.5 -65zM1255 256q-183 0 -300 99t-117 255q0 157 117.5 260t293.5 103
q134 0 233.5 -56.5t133.5 -150.5l-64 -25q-35 77 -116.5 122.5t-182.5 45.5q-147 0 -241 -83.5t-94 -215.5q0 -94 50.5 -162.5t127 -99.5t166.5 -31q121 0 206 57t113 158l68 -22q-39 -121 -143.5 -187.5t-250.5 -66.5z" />
    <glyph glyph-name="D.ss08" horiz-adv-x="2459" 
d="M1225 -315q-237 0 -446.5 71t-359 193.5t-236.5 294t-87 364.5q0 198 87 372.5t236.5 298.5t359 195.5t446.5 71.5q239 0 449 -71.5t360 -195.5t236.5 -298.5t86.5 -372.5q0 -156 -55 -298t-157.5 -255t-241 -196.5t-313 -128.5t-365.5 -45zM1225 -236q219 0 411.5 64.5
t330 176t217 269t79.5 336.5q0 181 -79.5 340t-217 272t-330 178.5t-411.5 65.5q-217 0 -409.5 -65.5t-330 -178.5t-217.5 -272.5t-80 -339.5q0 -178 80 -335t217.5 -269t330 -177t409.5 -65zM1233 270h-299v688h289q185 0 290 -90t105 -250q0 -158 -106 -253t-279 -95z
M1010 332h233q136 0 217.5 75.5t81.5 206.5q0 136 -88 209.5t-242 73.5h-202v-565z" />
    <glyph glyph-name="E.ss08" 
d="M1225 -315q-237 0 -446.5 71t-359 193.5t-236.5 294t-87 364.5q0 198 87 372.5t236.5 298.5t359 195.5t446.5 71.5q239 0 449 -71.5t360 -195.5t236.5 -298.5t86.5 -372.5q0 -156 -55 -298t-157.5 -255t-241 -196.5t-313 -128.5t-365.5 -45zM1225 -236q219 0 411.5 64.5
t330 176t217 269t79.5 336.5q0 181 -79.5 340t-217 272t-330 178.5t-411.5 65.5q-217 0 -409.5 -65.5t-330 -178.5t-217.5 -272.5t-80 -339.5q0 -178 80 -335t217.5 -269t330 -177t409.5 -65zM1520 270h-537v688h528v-61h-452v-242h430v-61h-430v-260h461v-64z" />
    <glyph glyph-name="F.ss08" 
d="M1225 -315q-237 0 -446.5 71t-359 193.5t-236.5 294t-87 364.5q0 198 87 372.5t236.5 298.5t359 195.5t446.5 71.5q239 0 449 -71.5t360 -195.5t236.5 -298.5t86.5 -372.5q0 -156 -55 -298t-157.5 -255t-241 -196.5t-313 -128.5t-365.5 -45zM1225 -236q219 0 411.5 64.5
t330 176t217 269t79.5 336.5q0 181 -79.5 340t-217 272t-330 178.5t-411.5 65.5q-217 0 -409.5 -65.5t-330 -178.5t-217.5 -272.5t-80 -339.5q0 -178 80 -335t217.5 -269t330 -177t409.5 -65zM1075 270h-76v688h517v-61h-441v-248h420v-59h-420v-320z" />
    <glyph glyph-name="G.ss08" 
d="M1225 1546q239 0 449 -71.5t360 -195.5t236.5 -298.5t86.5 -372.5q0 -156 -55 -298t-157.5 -255t-241 -196.5t-313 -128.5t-365.5 -45q-237 0 -446.5 71t-359 193.5t-236.5 294t-87 364.5q0 198 87 372.5t236.5 298.5t359 195.5t446.5 71.5zM1225 -236q219 0 411.5 64.5
t330 176t217 269t79.5 336.5q0 181 -79.5 340t-217 272t-330 178.5t-411.5 65.5q-217 0 -409.5 -65.5t-330 -178.5t-217.5 -272.5t-80 -339.5q0 -178 80 -335t217.5 -269t330 -177t409.5 -65zM1270 553v57h372v-340h-67q0 25 1 75t1 71q-43 -76 -127 -118t-199 -42
q-181 0 -297 99.5t-116 254.5q0 157 117 260t294 103q134 0 233.5 -56.5t133.5 -150.5l-64 -25q-35 77 -116.5 122.5t-182.5 45.5q-147 0 -241 -83.5t-94 -215.5q0 -72 28.5 -129.5t77.5 -92.5t109 -53t127 -18q127 0 211.5 65t95.5 171h-297z" />
    <glyph glyph-name="H.ss08" 
d="M1225 1546q239 0 449 -71.5t360 -195.5t236.5 -298.5t86.5 -372.5q0 -156 -55 -298t-157.5 -255t-241 -196.5t-313 -128.5t-365.5 -45q-237 0 -446.5 71t-359 193.5t-236.5 294t-87 364.5q0 198 87 372.5t236.5 298.5t359 195.5t446.5 71.5zM1225 -236q219 0 411.5 64.5
t330 176t217 269t79.5 336.5q0 181 -79.5 340t-217 272t-330 178.5t-411.5 65.5q-217 0 -409.5 -65.5t-330 -178.5t-217.5 -272.5t-80 -339.5q0 -178 80 -335t217.5 -269t330 -177t409.5 -65zM989 649h481v309h76v-688h-76v318h-481v-318h-76v688h76v-309z" />
    <glyph glyph-name="I.ss08" horiz-adv-x="2459" 
d="M1227 -315q-237 0 -446.5 71t-359 193.5t-236.5 294t-87 364.5q0 198 87 372.5t236.5 298.5t359 195.5t446.5 71.5q239 0 449 -71.5t360 -195.5t236.5 -298.5t86.5 -372.5q0 -156 -55 -298t-157.5 -255t-241 -196.5t-313 -128.5t-365.5 -45zM1227 -236q219 0 411.5 64.5
t330 176t217 269t79.5 336.5q0 181 -79.5 340t-217 272t-330 178.5t-411.5 65.5q-217 0 -409.5 -65.5t-330 -178.5t-217.5 -272.5t-80 -339.5q0 -178 80 -335t217.5 -269t330 -177t409.5 -65zM1268 270h-76v688h76v-688z" />
    <glyph glyph-name="J.ss08" 
d="M1225 -315q-237 0 -446.5 71t-359 193.5t-236.5 294t-87 364.5q0 198 87 372.5t236.5 298.5t359 195.5t446.5 71.5q239 0 449 -71.5t360 -195.5t236.5 -298.5t86.5 -372.5q0 -156 -55 -298t-157.5 -255t-241 -196.5t-313 -128.5t-365.5 -45zM1225 -236q219 0 411.5 64.5
t330 176t217 269t79.5 336.5q0 181 -79.5 340t-217 272t-330 178.5t-411.5 65.5q-217 0 -409.5 -65.5t-330 -178.5t-217.5 -272.5t-80 -339.5q0 -178 80 -335t217.5 -269t330 -177t409.5 -65zM1196 262q-117 0 -184.5 59t-67.5 162v27l70 8v-24q0 -80 48.5 -126t131.5 -46
q45 0 77 15.5t47 34.5t23.5 52t9.5 51.5t1 48.5v441h75v-424q0 -26 -0.5 -42t-5 -48.5t-12.5 -54.5t-25 -49.5t-41 -44t-61.5 -28.5t-85.5 -12z" />
    <glyph glyph-name="K.ss08" 
d="M1225 1546q239 0 449 -71.5t360 -195.5t236.5 -298.5t86.5 -372.5q0 -156 -55 -298t-157.5 -255t-241 -196.5t-313 -128.5t-365.5 -45q-237 0 -446.5 71t-359 193.5t-236.5 294t-87 364.5q0 198 87 372.5t236.5 298.5t359 195.5t446.5 71.5zM1225 -236q219 0 411.5 64.5
t330 176t217 269t79.5 336.5q0 181 -79.5 340t-217 272t-330 178.5t-411.5 65.5q-217 0 -409.5 -65.5t-330 -178.5t-217.5 -272.5t-80 -339.5q0 -178 80 -335t217.5 -269t330 -177t409.5 -65zM1464 958h95q-24 -21 -109 -94t-238 -209q57 -61 179.5 -190.5t183.5 -194.5h-94
q-40 43 -119.5 125.5t-139 143.5t-63.5 67l-106 -94v-242h-76v688h76v-360q257 226 411 360z" />
    <glyph glyph-name="L.ss08" 
d="M1225 1546q239 0 449 -71.5t360 -195.5t236.5 -298.5t86.5 -372.5q0 -156 -55 -298t-157.5 -255t-241 -196.5t-313 -128.5t-365.5 -45q-237 0 -446.5 71t-359 193.5t-236.5 294t-87 364.5q0 198 87 372.5t236.5 298.5t359 195.5t446.5 71.5zM1225 -236q219 0 411.5 64.5
t330 176t217 269t79.5 336.5q0 181 -79.5 340t-217 272t-330 178.5t-411.5 65.5q-217 0 -409.5 -65.5t-330 -178.5t-217.5 -272.5t-80 -339.5q0 -178 80 -335t217.5 -269t330 -177t409.5 -65zM1047 958h75v-624h430v-64h-505v688z" />
    <glyph glyph-name="M.ss08" horiz-adv-x="2459" 
d="M1225 1546q239 0 449 -71.5t360 -195.5t236.5 -298.5t86.5 -372.5q0 -156 -55 -298t-157.5 -255t-241 -196.5t-313 -128.5t-365.5 -45q-237 0 -446.5 71t-359 193.5t-236.5 294t-87 364.5q0 198 87 372.5t236.5 298.5t359 195.5t446.5 71.5zM1225 -236q219 0 411.5 64.5
t330 176t217 269t79.5 336.5q0 181 -79.5 340t-217 272t-330 178.5t-411.5 65.5q-217 0 -409.5 -65.5t-330 -178.5t-217.5 -272.5t-80 -339.5q0 -178 80 -335t217.5 -269t330 -177t409.5 -65zM1229 358q163 286 338 600h78v-688h-74v553q-43 -82 -95 -174.5t-114.5 -204
t-97.5 -174.5h-68q-220 389 -307 553v-553h-76v688h80q198 -342 336 -600z" />
    <glyph glyph-name="N.ss08" 
d="M1225 1546q239 0 449 -71.5t360 -195.5t236.5 -298.5t86.5 -372.5q0 -156 -55 -298t-157.5 -255t-241 -196.5t-313 -128.5t-365.5 -45q-237 0 -446.5 71t-359 193.5t-236.5 294t-87 364.5q0 198 87 372.5t236.5 298.5t359 195.5t446.5 71.5zM1225 -236q219 0 411.5 64.5
t330 176t217 269t79.5 336.5q0 181 -79.5 340t-217 272t-330 178.5t-411.5 65.5q-217 0 -409.5 -65.5t-330 -178.5t-217.5 -272.5t-80 -339.5q0 -178 80 -335t217.5 -269t330 -177t409.5 -65zM1489 375v583h76v-688h-76q-54 63 -227.5 262.5t-270.5 313.5v-576h-76v688h76
q166 -191 498 -583z" />
    <glyph glyph-name="O.ss08" horiz-adv-x="2455" 
d="M1225 -315q-237 0 -446.5 71t-359 193.5t-236.5 294t-87 364.5q0 198 87 372.5t236.5 298.5t359 195.5t446.5 71.5q239 0 449 -71.5t360 -195.5t236.5 -298.5t86.5 -372.5q0 -156 -55 -298t-157.5 -255t-241 -196.5t-313 -128.5t-365.5 -45zM1225 -236q219 0 411.5 64.5
t330 176t217 269t79.5 336.5q0 181 -79.5 340t-217 272t-330 178.5t-411.5 65.5q-217 0 -409.5 -65.5t-330 -178.5t-217.5 -272.5t-80 -339.5q0 -178 80 -335t217.5 -269t330 -177t409.5 -65zM1229 256q-174 0 -295 103t-121 255q0 151 121.5 255t296.5 104
q173 0 293.5 -104t120.5 -255t-120.5 -254.5t-295.5 -103.5zM1231 317q140 0 237 86.5t97 210.5t-97 209.5t-237 85.5t-239 -85.5t-99 -209.5t99 -210.5t239 -86.5z" />
    <glyph glyph-name="P.ss08" 
d="M1225 1546q239 0 449 -71.5t360 -195.5t236.5 -298.5t86.5 -372.5q0 -156 -55 -298t-157.5 -255t-241 -196.5t-313 -128.5t-365.5 -45q-237 0 -446.5 71t-359 193.5t-236.5 294t-87 364.5q0 198 87 372.5t236.5 298.5t359 195.5t446.5 71.5zM1225 -236q219 0 411.5 64.5
t330 176t217 269t79.5 336.5q0 181 -79.5 340t-217 272t-330 178.5t-411.5 65.5q-217 0 -409.5 -65.5t-330 -178.5t-217.5 -272.5t-80 -339.5q0 -178 80 -335t217.5 -269t330 -177t409.5 -65zM983 958h287q123 0 198.5 -53.5t75.5 -148.5q0 -98 -71.5 -155.5t-182.5 -57.5
h-231v-273h-76v688zM1059 604h211q94 0 146 38t52 110q0 67 -56 106t-150 39h-203v-293z" />
    <glyph glyph-name="Q.ss08" 
d="M1225 -315q-237 0 -446.5 71t-359 193.5t-236.5 294t-87 364.5q0 198 87 372.5t236.5 298.5t359 195.5t446.5 71.5q239 0 449 -71.5t360 -195.5t236.5 -298.5t86.5 -372.5q0 -156 -55 -298t-157.5 -255t-241 -196.5t-313 -128.5t-365.5 -45zM1225 -236q219 0 411.5 64.5
t330 176t217 269t79.5 336.5q0 181 -79.5 340t-217 272t-330 178.5t-411.5 65.5q-217 0 -409.5 -65.5t-330 -178.5t-217.5 -272.5t-80 -339.5q0 -178 80 -335t217.5 -269t330 -177t409.5 -65zM1610 260l-51 -37q-13 12 -42.5 40.5t-51 48.5t-25.5 24q-100 -49 -215 -49
q-174 0 -296 103.5t-122 254.5q0 150 122.5 254.5t297.5 104.5q172 0 292.5 -104.5t120.5 -254.5q0 -79 -36.5 -150t-104.5 -122q74 -74 111 -113zM1227 348q93 0 164 41q-25 25 -65 63t-70 66t-31 29l57 39q82 -82 168 -162q113 92 113 221q0 124 -98.5 210.5t-237.5 86.5
q-141 0 -240.5 -86.5t-99.5 -210.5q0 -123 99.5 -210t240.5 -87z" />
    <glyph glyph-name="R.ss08" 
d="M1225 1546q239 0 449 -71.5t360 -195.5t236.5 -298.5t86.5 -372.5q0 -156 -55 -298t-157.5 -255t-241 -196.5t-313 -128.5t-365.5 -45q-237 0 -446.5 71t-359 193.5t-236.5 294t-87 364.5q0 198 87 372.5t236.5 298.5t359 195.5t446.5 71.5zM1225 -236q219 0 411.5 64.5
t330 176t217 269t79.5 336.5q0 181 -79.5 340t-217 272t-330 178.5t-411.5 65.5q-217 0 -409.5 -65.5t-330 -178.5t-217.5 -272.5t-80 -339.5q0 -178 80 -335t217.5 -269t330 -177t409.5 -65zM1546 754q0 -84 -56.5 -140t-150.5 -67q129 -165 224 -277h-86l-222 273h-192
v-273h-76v688h287q123 0 197.5 -54t74.5 -150zM1063 604h211q93 0 144.5 38.5t51.5 109.5q0 68 -55 107.5t-149 39.5h-203v-295z" />
    <glyph glyph-name="S.ss08" 
d="M1225 -315q-237 0 -446.5 71t-359 193.5t-236.5 294t-87 364.5q0 198 87 372.5t236.5 298.5t359 195.5t446.5 71.5q239 0 449 -71.5t360 -195.5t236.5 -298.5t86.5 -372.5q0 -156 -55 -298t-157.5 -255t-241 -196.5t-313 -128.5t-365.5 -45zM1225 -236q219 0 411.5 64.5
t330 176t217 269t79.5 336.5q0 181 -79.5 340t-217 272t-330 178.5t-411.5 65.5q-217 0 -409.5 -65.5t-330 -178.5t-217.5 -272.5t-80 -339.5q0 -178 80 -335t217.5 -269t330 -177t409.5 -65zM1243 256q-117 0 -199.5 55t-113.5 154l67 22q25 -78 91.5 -124t156.5 -46
q78 0 138.5 34t60.5 100q0 16 -4.5 29t-10.5 23t-18.5 18.5t-21.5 14t-27.5 12t-28 9t-32.5 8.5t-31 8l-78 21q-31 8 -51.5 14.5t-58 23.5t-61 35.5t-42 50.5t-18.5 70q0 59 42 102.5t101.5 63t126.5 19.5q103 0 176 -47t100 -127l-65 -25q-23 64 -82 99.5t-139 35.5
t-131.5 -32t-51.5 -84q0 -93 174 -136l76 -20q114 -28 158 -53q79 -47 80 -127q0 -86 -82 -143.5t-201 -57.5z" />
    <glyph glyph-name="T.ss08" horiz-adv-x="2455" 
d="M1225 -315q-237 0 -446.5 71t-359 193.5t-236.5 294t-87 364.5q0 198 87 372.5t236.5 298.5t359 195.5t446.5 71.5q239 0 449 -71.5t360 -195.5t236.5 -298.5t86.5 -372.5q0 -156 -55 -298t-157.5 -255t-241 -196.5t-313 -128.5t-365.5 -45zM1225 -236q219 0 411.5 64.5
t330 176t217 269t79.5 336.5q0 181 -79.5 340t-217 272t-330 178.5t-411.5 65.5q-217 0 -409.5 -65.5t-330 -178.5t-217.5 -272.5t-80 -339.5q0 -178 80 -335t217.5 -269t330 -177t409.5 -65zM1264 270h-74v627h-285v61h643v-61h-284v-627z" />
    <glyph glyph-name="U.ss08" horiz-adv-x="2459" 
d="M1225 -315q-237 0 -446.5 71t-359 193.5t-236.5 294t-87 364.5q0 198 87 372.5t236.5 298.5t359 195.5t446.5 71.5q239 0 449 -71.5t360 -195.5t236.5 -298.5t86.5 -372.5q0 -156 -55 -298t-157.5 -255t-241 -196.5t-313 -128.5t-365.5 -45zM1225 -236q219 0 411.5 64.5
t330 176t217 269t79.5 336.5q0 181 -79.5 340t-217 272t-330 178.5t-411.5 65.5q-217 0 -409.5 -65.5t-330 -178.5t-217.5 -272.5t-80 -339.5q0 -178 80 -335t217.5 -269t330 -177t409.5 -65zM1227 262q-141 0 -217 69t-76 193v441h74v-439q0 -204 221 -204t221 204v439h76
v-441q0 -122 -78.5 -192t-220.5 -70z" />
    <glyph glyph-name="V.ss08" 
d="M1225 1546q239 0 449 -71.5t360 -195.5t236.5 -298.5t86.5 -372.5q0 -156 -55 -298t-157.5 -255t-241 -196.5t-313 -128.5t-365.5 -45q-237 0 -446.5 71t-359 193.5t-236.5 294t-87 364.5q0 198 87 372.5t236.5 298.5t359 195.5t446.5 71.5zM1225 -236q219 0 411.5 64.5
t330 176t217 269t79.5 336.5q0 181 -79.5 340t-217 272t-330 178.5t-411.5 65.5q-217 0 -409.5 -65.5t-330 -178.5t-217.5 -272.5t-80 -339.5q0 -178 80 -335t217.5 -269t330 -177t409.5 -65zM1231 352q39 80 142 289t155 317h80l-342 -688h-70l-342 688h78
q107 -199 299 -606z" />
    <glyph glyph-name="W.ss08" 
d="M1225 1546q239 0 449 -71.5t360 -195.5t236.5 -298.5t86.5 -372.5q0 -156 -55 -298t-157.5 -255t-241 -196.5t-313 -128.5t-365.5 -45q-237 0 -446.5 71t-359 193.5t-236.5 294t-87 364.5q0 198 87 372.5t236.5 298.5t359 195.5t446.5 71.5zM1225 -236q219 0 411.5 64.5
t330 176t217 269t79.5 336.5q0 181 -79.5 340t-217 272t-330 178.5t-411.5 65.5q-217 0 -409.5 -65.5t-330 -178.5t-217.5 -272.5t-80 -339.5q0 -178 80 -335t217.5 -269t330 -177t409.5 -65zM1497 360q168 437 238 598h73l-272 -688h-80q-47 112 -227 588
q-147 -392 -228 -588h-79l-273 688h78q102 -247 238 -591q21 55 90 233t137 358h76z" />
    <glyph glyph-name="X.ss08" 
d="M1225 1546q239 0 449 -71.5t360 -195.5t236.5 -298.5t86.5 -372.5q0 -156 -55 -298t-157.5 -255t-241 -196.5t-313 -128.5t-365.5 -45q-237 0 -446.5 71t-359 193.5t-236.5 294t-87 364.5q0 198 87 372.5t236.5 298.5t359 195.5t446.5 71.5zM1225 -236q219 0 411.5 64.5
t330 176t217 269t79.5 336.5q0 181 -79.5 340t-217 272t-330 178.5t-411.5 65.5q-217 0 -409.5 -65.5t-330 -178.5t-217.5 -272.5t-80 -339.5q0 -178 80 -335t217.5 -269t330 -177t409.5 -65zM1470 958h84q-150 -177 -284 -333q244 -297 293 -355h-84q-247 296 -252 301
q-116 -141 -250 -301h-86q44 52 124 150t171 205q-37 42 -78 88t-86.5 99t-122.5 146h86q121 -143 242 -282q167 197 243 282z" />
    <glyph glyph-name="Y.ss08" 
d="M1225 1546q239 0 449 -71.5t360 -195.5t236.5 -298.5t86.5 -372.5q0 -156 -55 -298t-157.5 -255t-241 -196.5t-313 -128.5t-365.5 -45q-237 0 -446.5 71t-359 193.5t-236.5 294t-87 364.5q0 198 87 372.5t236.5 298.5t359 195.5t446.5 71.5zM1225 -236q219 0 411.5 64.5
t330 176t217 269t79.5 336.5q0 181 -79.5 340t-217 272t-330 178.5t-411.5 65.5q-217 0 -409.5 -65.5t-330 -178.5t-217.5 -272.5t-80 -339.5q0 -178 80 -335t217.5 -269t330 -177t409.5 -65zM1229 588q24 33 104.5 144.5t165.5 225.5h80q-309 -424 -315 -432v-256h-72v256
q-39 54 -59 81.5t-33 44.5t-70.5 96t-152.5 210h86q13 -19 266 -370z" />
    <glyph glyph-name="Z.ss08" 
d="M1225 1546q239 0 449 -71.5t360 -195.5t236.5 -298.5t86.5 -372.5q0 -156 -55 -298t-157.5 -255t-241 -196.5t-313 -128.5t-365.5 -45q-237 0 -446.5 71t-359 193.5t-236.5 294t-87 364.5q0 198 87 372.5t236.5 298.5t359 195.5t446.5 71.5zM1225 -236q219 0 411.5 64.5
t330 176t217 269t79.5 336.5q0 181 -79.5 340t-217 272t-330 178.5t-411.5 65.5q-217 0 -409.5 -65.5t-330 -178.5t-217.5 -272.5t-80 -339.5q0 -178 80 -335t217.5 -269t330 -177t409.5 -65zM1554 958v-57q-101 -108 -534 -567h545v-64h-637v60l532 569q-174 -2 -512 -2v61
h606z" />
    <glyph glyph-name="i.loclTRK" horiz-adv-x="585" 
d="M295 1434q-51 0 -86 30t-35 74q0 42 35 72t86 30q49 0 83 -30t34 -72q0 -44 -33.5 -74t-83.5 -30zM354 0h-123v1128h123v-1128z" />
    <glyph glyph-name="a.ss01" horiz-adv-x="1652" 
d="M752 -35q-178 0 -322 76t-226.5 212.5t-82.5 307.5q0 174 84.5 312t229 213t321.5 75q166 0 310 -72t228 -208h4v247h123v-1128h-123v242h-8q-81 -133 -223 -205t-315 -72zM768 66q146 0 266 66.5t188 181.5t68 253q0 141 -70.5 254.5t-191 176.5t-264.5 63
q-221 0 -365.5 -142t-144.5 -356q0 -216 146.5 -356.5t367.5 -140.5z" />
    <glyph glyph-name="aacute.ss01" horiz-adv-x="1652" 
d="M1249 1671l-372 -393h-111l301 393h182zM752 -35q-178 0 -322 76t-226.5 212.5t-82.5 307.5q0 174 84.5 312t229 213t321.5 75q166 0 310 -72t228 -208h4v247h123v-1128h-123v242h-8q-81 -133 -223 -205t-315 -72zM768 66q146 0 266 66.5t188 181.5t68 253
q0 141 -70.5 254.5t-191 176.5t-264.5 63q-221 0 -365.5 -142t-144.5 -356q0 -216 146.5 -356.5t367.5 -140.5z" />
    <glyph glyph-name="abreve.ss01" horiz-adv-x="1652" 
d="M827 1278q-204 0 -320 110.5t-124 284.5h117q6 -136 95.5 -217.5t233.5 -81.5q140 0 231 81t97 218h119q-8 -174 -126.5 -284.5t-322.5 -110.5zM752 -35q-178 0 -322 76t-226.5 212.5t-82.5 307.5q0 174 84.5 312t229 213t321.5 75q166 0 310 -72t228 -208h4v247h123
v-1128h-123v242h-8q-81 -133 -223 -205t-315 -72zM768 66q146 0 266 66.5t188 181.5t68 253q0 141 -70.5 254.5t-191 176.5t-264.5 63q-221 0 -365.5 -142t-144.5 -356q0 -216 146.5 -356.5t367.5 -140.5z" />
    <glyph glyph-name="acircumflex.ss01" horiz-adv-x="1652" 
d="M498 1278h-119l356 356h185l356 -356h-119q-254 211 -328 276q-195 -167 -331 -276zM752 -35q-178 0 -322 76t-226.5 212.5t-82.5 307.5q0 174 84.5 312t229 213t321.5 75q166 0 310 -72t228 -208h4v247h123v-1128h-123v242h-8q-81 -133 -223 -205t-315 -72zM768 66
q146 0 266 66.5t188 181.5t68 253q0 141 -70.5 254.5t-191 176.5t-264.5 63q-221 0 -365.5 -142t-144.5 -356q0 -216 146.5 -356.5t367.5 -140.5z" />
    <glyph glyph-name="adieresis.ss01" horiz-adv-x="1652" 
d="M623 1382q-46 0 -79.5 29.5t-33.5 69.5q0 38 33.5 66t79.5 28q47 0 78.5 -27.5t31.5 -66.5q0 -40 -31.5 -69.5t-78.5 -29.5zM1032 1382q-48 0 -79 29t-31 70q0 39 31 66.5t79 27.5q46 0 78.5 -28t32.5 -66q0 -40 -33 -69.5t-78 -29.5zM752 -35q-178 0 -322 76
t-226.5 212.5t-82.5 307.5q0 174 84.5 312t229 213t321.5 75q166 0 310 -72t228 -208h4v247h123v-1128h-123v242h-8q-81 -133 -223 -205t-315 -72zM768 66q146 0 266 66.5t188 181.5t68 253q0 141 -70.5 254.5t-191 176.5t-264.5 63q-221 0 -365.5 -142t-144.5 -356
q0 -216 146.5 -356.5t367.5 -140.5z" />
    <glyph glyph-name="agrave.ss01" horiz-adv-x="1652" 
d="M889 1278h-113l-373 393h185zM752 -35q-178 0 -322 76t-226.5 212.5t-82.5 307.5q0 174 84.5 312t229 213t321.5 75q166 0 310 -72t228 -208h4v247h123v-1128h-123v242h-8q-81 -133 -223 -205t-315 -72zM768 66q146 0 266 66.5t188 181.5t68 253q0 141 -70.5 254.5
t-191 176.5t-264.5 63q-221 0 -365.5 -142t-144.5 -356q0 -216 146.5 -356.5t367.5 -140.5z" />
    <glyph glyph-name="amacron.ss01" horiz-adv-x="1652" 
d="M1239 1430h-825v98h825v-98zM752 -35q-178 0 -322 76t-226.5 212.5t-82.5 307.5q0 174 84.5 312t229 213t321.5 75q166 0 310 -72t228 -208h4v247h123v-1128h-123v242h-8q-81 -133 -223 -205t-315 -72zM768 66q146 0 266 66.5t188 181.5t68 253q0 141 -70.5 254.5
t-191 176.5t-264.5 63q-221 0 -365.5 -142t-144.5 -356q0 -216 146.5 -356.5t367.5 -140.5z" />
    <glyph glyph-name="aogonek.ss01" horiz-adv-x="1652" 
d="M1427 -379q48 0 105 14v-84q-63 -14 -117 -14q-132 0 -221.5 62.5t-89.5 164.5q0 139 196 236h-2v242h-8q-81 -133 -223 -205t-315 -72q-178 0 -322 76t-226.5 212.5t-82.5 307.5q0 174 84.5 312t229 213t321.5 75q166 0 310 -72t228 -208h4v247h123v-1128h-4
q-211 -97 -211 -217q0 -73 64.5 -117.5t156.5 -44.5zM768 66q146 0 266 66.5t188 181.5t68 253q0 141 -70.5 254.5t-191 176.5t-264.5 63q-221 0 -365.5 -142t-144.5 -356q0 -216 146.5 -356.5t367.5 -140.5z" />
    <glyph glyph-name="aring.ss01" horiz-adv-x="1652" 
d="M829 1245q-114 0 -189 61t-75 156q0 92 75 152.5t189 60.5q111 0 186 -60.5t75 -152.5q0 -94 -75 -155.5t-186 -61.5zM829 1331q70 0 116 35.5t46 95.5q0 58 -46 92.5t-116 34.5q-73 0 -120 -34t-47 -93q0 -60 47.5 -95.5t119.5 -35.5zM752 -35q-178 0 -322 76
t-226.5 212.5t-82.5 307.5q0 174 84.5 312t229 213t321.5 75q166 0 310 -72t228 -208h4v247h123v-1128h-123v242h-8q-81 -133 -223 -205t-315 -72zM768 66q146 0 266 66.5t188 181.5t68 253q0 141 -70.5 254.5t-191 176.5t-264.5 63q-221 0 -365.5 -142t-144.5 -356
q0 -216 146.5 -356.5t367.5 -140.5z" />
    <glyph glyph-name="atilde.ss01" horiz-adv-x="1652" 
d="M1014 1337q-22 0 -41 2t-37 7.5t-29.5 9t-27.5 13.5t-22.5 14t-24 16.5t-21.5 15.5l-43 33q-25 18 -39 27.5t-37.5 17.5t-48.5 8q-58 0 -96.5 -42t-38.5 -107h-96q1 105 67.5 171t169.5 66q53 0 92 -17.5t86 -51.5l50 -37q81 -58 143 -58q60 0 93.5 41.5t33.5 108.5h98
q0 -108 -61.5 -173t-169.5 -65zM752 -35q-178 0 -322 76t-226.5 212.5t-82.5 307.5q0 174 84.5 312t229 213t321.5 75q166 0 310 -72t228 -208h4v247h123v-1128h-123v242h-8q-81 -133 -223 -205t-315 -72zM768 66q146 0 266 66.5t188 181.5t68 253q0 141 -70.5 254.5
t-191 176.5t-264.5 63q-221 0 -365.5 -142t-144.5 -356q0 -216 146.5 -356.5t367.5 -140.5z" />
    <glyph glyph-name="b.ss01" horiz-adv-x="1388" 
d="M788 -35q-148 0 -260.5 52.5t-175.5 150.5h-4v-168h-117v1638h123v-1005h6q63 88 175.5 134t250.5 46q231 0 375 -122.5t144 -305.5q0 -180 -144 -300t-373 -120zM784 59q167 0 281.5 94.5t114.5 235.5q0 134 -106.5 230t-289.5 96q-188 0 -296.5 -95t-108.5 -225
q0 -137 116.5 -236.5t288.5 -99.5z" />
    <glyph glyph-name="d.ss01" horiz-adv-x="1644" 
d="M752 -35q-178 0 -322 76t-226.5 212.5t-82.5 307.5q0 174 84.5 312t229 213t321.5 75q165 0 305.5 -70.5t224.5 -203.5h6v751h123v-1638h-119v242h-6q-80 -133 -223 -205t-315 -72zM764 66q143 0 263 62t191.5 176.5t71.5 258.5q0 109 -42 203t-113.5 158t-167.5 100.5
t-203 36.5q-221 0 -365.5 -142t-144.5 -356q0 -215 146 -356t364 -141z" />
    <glyph glyph-name="dcaron.ss01" horiz-adv-x="1648" 
d="M752 -35q-178 0 -322 76t-226.5 212.5t-82.5 307.5q0 174 84.5 312t229 213t321.5 75q165 0 305.5 -70.5t224.5 -203.5h6v751h123v-1638h-119v242h-6q-80 -133 -223 -205t-315 -72zM1671 1194h-88l143 248q-37 10 -58 36.5t-21 59.5q0 41 34.5 70.5t83.5 29.5
q48 0 82.5 -28.5t34.5 -69.5q0 -35 -37.5 -95.5t-173.5 -250.5zM764 66q143 0 263 62t191.5 176.5t71.5 258.5q0 109 -42 203t-113.5 158t-167.5 100.5t-203 36.5q-221 0 -365.5 -142t-144.5 -356q0 -215 146 -356t364 -141z" />
    <glyph glyph-name="dcroat.ss01" horiz-adv-x="1644" 
d="M1415 1436h320v-95h-320v-1341h-119v242h-6q-80 -133 -223 -205t-315 -72q-178 0 -322 76t-226.5 212.5t-82.5 307.5q0 174 84.5 312t229 213t321.5 75q165 0 305.5 -70.5t224.5 -203.5h6v454h-354v95h354v202h123v-202zM764 66q143 0 263 62t191.5 176.5t71.5 258.5
q0 109 -42 203t-113.5 158t-167.5 100.5t-203 36.5q-221 0 -365.5 -142t-144.5 -356q0 -215 146 -356t364 -141z" />
    <glyph glyph-name="g.ss01" horiz-adv-x="1644" 
d="M1413 -451h-1212v103h1089v624h-6q-82 -133 -223 -204.5t-311 -71.5q-177 0 -322 76.5t-227 210t-82 297.5q0 166 84 298.5t228.5 205.5t320.5 73q168 0 311 -72t227 -208h4v247h119v-1579zM762 100q142 0 263 62.5t193 175t72 248.5t-72 245.5t-192.5 169.5t-263.5 60
q-220 0 -365 -137.5t-145 -339.5q0 -203 147 -343.5t363 -140.5z" />
    <glyph glyph-name="gbreve.ss01" horiz-adv-x="1644" 
d="M823 1278q-204 0 -320 110.5t-124 284.5h117q6 -136 95.5 -217.5t233.5 -81.5q140 0 231 81t97 218h119q-8 -174 -126.5 -284.5t-322.5 -110.5zM1413 -451h-1212v103h1089v624h-6q-82 -133 -223 -204.5t-311 -71.5q-177 0 -322 76.5t-227 210t-82 297.5q0 166 84 298.5
t228.5 205.5t320.5 73q168 0 311 -72t227 -208h4v247h119v-1579zM762 100q142 0 263 62.5t193 175t72 248.5t-72 245.5t-192.5 169.5t-263.5 60q-220 0 -365 -137.5t-145 -339.5q0 -203 147 -343.5t363 -140.5z" />
    <glyph glyph-name="uni0123.ss01" horiz-adv-x="1644" 
d="M676 1348q0 37 34 90.5t175 249.5h88l-144 -244q37 -10 57.5 -36t20.5 -60q0 -41 -33.5 -70t-82.5 -29q-47 0 -81 29t-34 70zM1413 -451h-1212v103h1089v624h-6q-82 -133 -223 -204.5t-311 -71.5q-177 0 -322 76.5t-227 210t-82 297.5q0 166 84 298.5t228.5 205.5
t320.5 73q168 0 311 -72t227 -208h4v247h119v-1579zM762 100q142 0 263 62.5t193 175t72 248.5t-72 245.5t-192.5 169.5t-263.5 60q-220 0 -365 -137.5t-145 -339.5q0 -203 147 -343.5t363 -140.5z" />
    <glyph glyph-name="gdotaccent.ss01" horiz-adv-x="1644" 
d="M825 1436q-51 0 -85.5 30t-34.5 74q0 42 35 72t85 30q49 0 83 -30t34 -72q0 -44 -33.5 -74t-83.5 -30zM1413 -451h-1212v103h1089v624h-6q-82 -133 -223 -204.5t-311 -71.5q-177 0 -322 76.5t-227 210t-82 297.5q0 166 84 298.5t228.5 205.5t320.5 73q168 0 311 -72
t227 -208h4v247h119v-1579zM762 100q142 0 263 62.5t193 175t72 248.5t-72 245.5t-192.5 169.5t-263.5 60q-220 0 -365 -137.5t-145 -339.5q0 -203 147 -343.5t363 -140.5z" />
    <glyph glyph-name="i.ss01" horiz-adv-x="819" 
d="M428 1434q-52 0 -86.5 30t-34.5 74q0 42 34.5 72t86.5 30q49 0 83 -30t34 -72q0 -44 -33.5 -74t-83.5 -30zM788 0h-421v1026h-342v102h467v-1026h296v-102z" />
    <glyph glyph-name="dotlessi.ss01" horiz-adv-x="819" 
d="M788 0h-421v1026h-342v102h467v-1026h296v-102z" />
    <glyph glyph-name="iacute.ss01" horiz-adv-x="819" 
d="M778 1671l-372 -393h-111l301 393h182zM788 0h-421v1026h-342v102h467v-1026h296v-102z" />
    <glyph glyph-name="icircumflex.ss01" horiz-adv-x="819" 
d="M25 1278h-119l356 356h184l357 -356h-119q-254 211 -328 276q-195 -167 -331 -276zM788 0h-421v1026h-342v102h467v-1026h296v-102z" />
    <glyph glyph-name="idieresis.ss01" horiz-adv-x="819" 
d="M152 1382q-46 0 -79.5 29.5t-33.5 69.5q0 38 33.5 66t79.5 28q47 0 78.5 -27.5t31.5 -66.5q0 -40 -31.5 -69.5t-78.5 -29.5zM561 1382q-48 0 -79 29t-31 70q0 39 31 66.5t79 27.5q46 0 78.5 -28t32.5 -66q0 -40 -33 -69.5t-78 -29.5zM788 0h-421v1026h-342v102h467v-1026
h296v-102z" />
    <glyph glyph-name="i.loclTRK.ss01" horiz-adv-x="819" 
d="M389 1434q-51 0 -86 31t-35 75q0 41 35 70.5t86 29.5q49 0 83 -29.5t34 -70.5q0 -44 -34 -75t-83 -31zM788 0h-421v1026h-342v102h467v-1026h296v-102z" />
    <glyph glyph-name="igrave.ss01" horiz-adv-x="819" 
d="M418 1278h-113l-373 393h185zM788 0h-421v1026h-342v102h467v-1026h296v-102z" />
    <glyph glyph-name="imacron.ss01" horiz-adv-x="819" 
d="M768 1430h-825v98h825v-98zM788 0h-421v1026h-342v102h467v-1026h296v-102z" />
    <glyph glyph-name="iogonek.ss01" horiz-adv-x="819" 
d="M358 1436q-51 0 -85.5 30t-34.5 74q0 42 35 72t85 30q49 0 83 -30t34 -72q0 -44 -33.5 -74t-83.5 -30zM788 0h-303q-211 -97 -211 -217q0 -73 64.5 -117.5t157.5 -44.5q47 0 104 14v-84q-63 -14 -117 -14q-132 0 -221.5 62.5t-89.5 164.5q0 138 197 236h-2v1026h-342v102
h467v-1026h296v-102z" />
    <glyph glyph-name="j.ss01" horiz-adv-x="722" 
d="M430 1434q-52 0 -86.5 30t-34.5 74q0 42 34.5 72t86.5 30q49 0 83 -30t34 -72q0 -44 -33.5 -74t-83.5 -30zM492 -451h-625v103h502v1374h-344v102h467v-1579z" />
    <glyph glyph-name="l.ss01" horiz-adv-x="890" 
d="M885 0h-645v1638h125v-1536h520v-102z" />
    <glyph glyph-name="lacute.ss01" horiz-adv-x="890" 
d="M862 2079l-411 -318h-115l319 318h207zM885 0h-645v1638h125v-1536h520v-102z" />
    <glyph glyph-name="lcaron.ss01" horiz-adv-x="890" 
d="M885 0h-645v1638h125v-1536h520v-102zM676 1190h-86l143 246q-38 10 -59 37t-21 61q0 41 34.5 69.5t84.5 28.5q48 0 82.5 -28.5t34.5 -69.5q0 -35 -38.5 -96t-174.5 -248z" />
    <glyph glyph-name="uni013C.ss01" horiz-adv-x="890" 
d="M885 0h-645v1638h125v-1536h520v-102zM395 -498h-63l110 187q-53 10 -77.5 35.5t-24.5 60.5q0 40 34.5 68t82.5 28q47 0 80.5 -28t33.5 -68q0 -38 -32.5 -88t-143.5 -195z" />
    <glyph glyph-name="lslash.ss01" horiz-adv-x="890" 
d="M365 918v-816h520v-102h-645v842l-254 -154v100l254 154v696h125v-620l231 141v-102z" />
    <glyph glyph-name="m.ss01" horiz-adv-x="2504" 
d="M354 0h-123v1128h123v-522l791 522h170v-522l788 522h172v-1128h-125v1024h-14l-821 -539v-485h-123v1024h-14l-824 -539v-485z" />
    <glyph glyph-name="n.ss01" horiz-adv-x="1570" 
d="M354 594l820 534h165v-1128h-122v1020h-15l-848 -537v-483h-123v1128h123v-534z" />
    <glyph glyph-name="nacute.ss01" horiz-adv-x="1570" 
d="M1024 1671h182l-372 -393h-111zM354 594l820 534h165v-1128h-122v1020h-15l-848 -537v-483h-123v1128h123v-534z" />
    <glyph glyph-name="ncaron.ss01" horiz-adv-x="1570" 
d="M1231 1636l-357 -356h-184l-356 356h119q211 -171 331 -276q105 95 328 276h119zM354 594l820 534h165v-1128h-122v1020h-15l-848 -537v-483h-123v1128h123v-534z" />
    <glyph glyph-name="uni0146.ss01" horiz-adv-x="1570" 
d="M354 594l820 534h165v-1128h-122v1020h-15l-848 -537v-483h-123v1128h123v-534zM815 -119q47 0 81 -28t34 -68q0 -38 -32.5 -88t-143.5 -195h-64l111 187q-53 10 -78 35.5t-25 60.5q0 40 34.5 68t82.5 28z" />
    <glyph glyph-name="eng.ss01" horiz-adv-x="1570" 
d="M975 -483q-149 0 -254 57v109q117 -68 233 -68q54 0 97 15t70 36t46.5 57t29 65t14.5 75t5.5 70.5t0.5 66.5v1020h-15l-848 -537v-483h-123v1128h123v-528l820 528h165v-1142v-1q0 -39 -0.5 -60.5t-3.5 -64.5t-9 -70.5t-19 -67t-30.5 -65.5t-45.5 -55t-63 -45.5
t-84.5 -28t-108.5 -11.5z" />
    <glyph glyph-name="ntilde.ss01" horiz-adv-x="1570" 
d="M598 1501q-58 0 -96.5 -42t-38.5 -107h-96q1 105 67.5 171t169.5 66q53 0 92 -17.5t86 -51.5l49 -37q81 -58 144 -58q60 0 93.5 41.5t33.5 108.5h98q0 -108 -61.5 -173t-169.5 -65q-22 0 -41 2t-37 7.5t-29.5 9t-27.5 13.5t-22.5 14t-24 16.5t-21.5 15.5l-43 33
q-25 18 -39 27.5t-37.5 17.5t-48.5 8zM354 594l820 534h165v-1128h-122v1020h-15l-848 -537v-483h-123v1128h123v-534z" />
    <glyph glyph-name="p.ss01" horiz-adv-x="1648" 
d="M354 -451h-123v1579h119v-249h4q85 140 228.5 211t312.5 71q177 0 321 -75.5t227 -212t83 -308.5q0 -174 -84 -312t-228 -213t-321 -75q-172 0 -314.5 72.5t-224.5 206.5v-695zM881 66q221 0 366.5 141.5t145.5 355.5q0 216 -146.5 357t-365.5 141q-142 0 -262 -62
t-192.5 -177.5t-72.5 -260.5q0 -144 72.5 -258t192.5 -175.5t262 -61.5z" />
    <glyph glyph-name="q.ss01" horiz-adv-x="1646" 
d="M1415 -451h-123v695q-81 -132 -224.5 -205.5t-315.5 -73.5q-178 0 -322 76t-226.5 213t-82.5 309q0 173 84.5 310.5t228.5 212.5t320 75q168 0 311 -72t227 -208h4v247h119v-1579zM764 66q143 0 263 62t191.5 176.5t71.5 258.5q0 109 -42 203t-113.5 158t-167.5 100.5
t-203 36.5q-221 0 -365.5 -142t-144.5 -358q0 -214 146 -354.5t364 -140.5z" />
    <glyph glyph-name="r.ss01" horiz-adv-x="970" 
d="M354 0h-123v1128h715v-102h-592v-1026z" />
    <glyph glyph-name="racute.ss01" horiz-adv-x="970" 
d="M907 1671l-372 -393h-111l301 393h182zM354 0h-123v1128h715v-102h-592v-1026z" />
    <glyph glyph-name="rcaron.ss01" horiz-adv-x="970" 
d="M578 1280h-185l-356 356h119q211 -171 331 -276q105 95 328 276h119zM354 0h-123v1128h715v-102h-592v-1026z" />
    <glyph glyph-name="uni0157.ss01" horiz-adv-x="970" 
d="M354 0h-123v1128h715v-102h-592v-1026zM236 -498h-64l111 187q-53 10 -78 35.5t-25 60.5q0 40 34.5 68t82.5 28q47 0 81 -28t34 -68q0 -38 -32.5 -88t-143.5 -195z" />
    <glyph glyph-name="s.ss01" horiz-adv-x="1142" 
d="M987 0h-833v102h710v428h-710v598h833v-102h-711v-399h711v-627z" />
    <glyph glyph-name="sacute.ss01" horiz-adv-x="1142" 
d="M954 1671l-372 -393h-111l301 393h182zM987 0h-833v102h710v428h-710v598h833v-102h-711v-399h711v-627z" />
    <glyph glyph-name="scaron.ss01" horiz-adv-x="1142" 
d="M625 1280h-185l-356 356h119q224 -182 332 -276q115 103 327 276h119zM987 0h-833v102h710v428h-710v598h833v-102h-711v-399h711v-627z" />
    <glyph glyph-name="scedilla.ss01" horiz-adv-x="1142" 
d="M987 1128v-102h-711v-399h711v-627h-364l-140 -166q44 19 109 19q95 0 156 -44.5t61 -115.5q0 -79 -74.5 -129.5t-185.5 -50.5q-83 0 -162 30t-133 78l59 49q38 -40 102 -65t128 -25q72 0 121 31t49 80q0 44 -44 73t-112 29q-67 0 -117 -26l-59 49l145 184h-372v102h710
v428h-710v598h833z" />
    <glyph glyph-name="uni0219.ss01" horiz-adv-x="1142" 
d="M987 0h-833v102h710v428h-710v598h833v-102h-711v-399h711v-627zM504 -498h-64l111 187q-53 10 -77.5 35.5t-24.5 60.5q0 40 34.5 68t81.5 28t81 -28t34 -68q0 -38 -32.5 -88t-143.5 -195z" />
    <glyph glyph-name="t.ss01" horiz-adv-x="923" 
d="M426 1030v-928h473v-102h-596v1030h-270v98h270v338h123v-338h426v-98h-426z" />
    <glyph glyph-name="tbar.ss01" horiz-adv-x="923" 
d="M426 592v-490h473v-102h-596v592h-268v94h268v344h-270v98h270v338h123v-338h426v-98h-426v-344h405v-94h-405z" />
    <glyph glyph-name="tcaron.ss01" horiz-adv-x="923" 
d="M893 1190h-86l143 248q-37 10 -58.5 36.5t-21.5 59.5q0 41 35 70.5t84 29.5q47 0 81 -29t34 -69q0 -36 -39 -98.5t-172 -247.5zM852 1030h-426v-928h473v-102h-596v1030h-270v98h270v338h123v-338h426v-98z" />
    <glyph glyph-name="uni0163.ss01" horiz-adv-x="923" 
d="M899 102v-102h-317l-140 -166q44 19 109 19q95 0 156 -44.5t61 -115.5q0 -79 -74.5 -129.5t-185.5 -50.5q-83 0 -162 30t-133 78l59 49q38 -40 102 -65t128 -25q72 0 121 31t49 80q0 44 -44 73t-112 29q-67 0 -117 -26l-59 49l145 184h-182v1030h-270v98h270v338h123
v-338h426v-98h-426v-928h473z" />
    <glyph glyph-name="uni021B.ss01" horiz-adv-x="923" 
d="M426 1030v-928h473v-102h-596v1030h-270v98h270v338h123v-338h426v-98h-426zM522 -119q47 0 81 -28t34 -68q0 -38 -32.5 -88t-143.5 -195h-64l111 187q-53 10 -77.5 35.5t-24.5 60.5q0 40 34.5 68t81.5 28z" />
    <glyph glyph-name="yacute.ss01" horiz-adv-x="1318" 
d="M1083 1671l-372 -393h-111l301 393h182zM633 -451h-127l180 447h-184l-439 1132h125l406 -1017h131l405 1017h125z" />
    <glyph glyph-name="ycircumflex.ss01" horiz-adv-x="1318" 
d="M332 1278h-119l356 356h185l356 -356h-119q-238 198 -327 276q-182 -157 -332 -276zM633 -451h-127l180 447h-184l-439 1132h125l406 -1017h131l405 1017h125z" />
    <glyph glyph-name="ydieresis.ss01" horiz-adv-x="1318" 
d="M457 1382q-46 0 -79.5 29.5t-33.5 69.5q0 38 33.5 66t79.5 28q47 0 78.5 -27.5t31.5 -66.5q0 -40 -31.5 -69.5t-78.5 -29.5zM866 1382q-48 0 -79 29t-31 70q0 39 31 66.5t79 27.5q46 0 78.5 -28t32.5 -66q0 -40 -33 -69.5t-78 -29.5zM633 -451h-127l180 447h-184
l-439 1132h125l406 -1017h131l405 1017h125z" />
    <glyph glyph-name="ygrave.ss01" horiz-adv-x="1318" 
d="M723 1278h-113l-372 393h184zM633 -451h-127l180 447h-184l-439 1132h125l406 -1017h131l405 1017h125z" />
    <glyph glyph-name="a.ss02" horiz-adv-x="1402" 
d="M547 -35q-121 0 -215.5 31t-152.5 97t-58 159q0 78 40 138.5t114.5 100.5t157 65t190.5 44q32 5 84.5 13t82.5 12.5t72.5 13.5t66.5 17t52.5 22t43 30.5t24.5 40t10 52.5q0 104 -105 183t-268 79q-145 0 -248.5 -67.5t-142.5 -180.5l-125 39q37 102 123 173.5t188 102.5
t213 31q70 0 138.5 -12.5t134.5 -41.5t116 -71t80.5 -106t30.5 -142v-788h-121v250h-6q-157 -285 -520 -285zM551 59q110 0 208 40t162 100t101 129t37 129v164q-60 -40 -121.5 -59.5t-212.5 -41.5q-46 -7 -69.5 -11.5t-74 -14.5t-80.5 -19.5t-73.5 -25t-70 -33.5t-52.5 -41
t-38.5 -53t-12.5 -64q0 -90 82 -144.5t215 -54.5z" />
    <glyph glyph-name="aacute.ss02" horiz-adv-x="1402" 
d="M1133 1671l-373 -393h-111l301 393h183zM547 -35q-121 0 -215.5 31t-152.5 97t-58 159q0 78 40 138.5t114.5 100.5t157 65t190.5 44q32 5 84.5 13t82.5 12.5t72.5 13.5t66.5 17t52.5 22t43 30.5t24.5 40t10 52.5q0 104 -105 183t-268 79q-145 0 -248.5 -67.5
t-142.5 -180.5l-125 39q37 102 123 173.5t188 102.5t213 31q70 0 138.5 -12.5t134.5 -41.5t116 -71t80.5 -106t30.5 -142v-788h-121v250h-6q-157 -285 -520 -285zM551 59q110 0 208 40t162 100t101 129t37 129v164q-60 -40 -121.5 -59.5t-212.5 -41.5q-46 -7 -69.5 -11.5
t-74 -14.5t-80.5 -19.5t-73.5 -25t-70 -33.5t-52.5 -41t-38.5 -53t-12.5 -64q0 -90 82 -144.5t215 -54.5z" />
    <glyph glyph-name="abreve.ss02" horiz-adv-x="1402" 
d="M711 1278q-204 0 -320.5 110.5t-124.5 284.5h117q6 -135 96 -217t234 -82q140 0 230.5 80.5t96.5 218.5h119q-8 -174 -126 -284.5t-322 -110.5zM547 -35q-121 0 -215.5 31t-152.5 97t-58 159q0 78 40 138.5t114.5 100.5t157 65t190.5 44q32 5 84.5 13t82.5 12.5
t72.5 13.5t66.5 17t52.5 22t43 30.5t24.5 40t10 52.5q0 104 -105 183t-268 79q-145 0 -248.5 -67.5t-142.5 -180.5l-125 39q37 102 123 173.5t188 102.5t213 31q70 0 138.5 -12.5t134.5 -41.5t116 -71t80.5 -106t30.5 -142v-788h-121v250h-6q-157 -285 -520 -285zM551 59
q110 0 208 40t162 100t101 129t37 129v164q-60 -40 -121.5 -59.5t-212.5 -41.5q-46 -7 -69.5 -11.5t-74 -14.5t-80.5 -19.5t-73.5 -25t-70 -33.5t-52.5 -41t-38.5 -53t-12.5 -64q0 -90 82 -144.5t215 -54.5z" />
    <glyph glyph-name="acircumflex.ss02" horiz-adv-x="1169" 
d="M317 1278h-118l356 356h182l357 -356h-119q-254 211 -328 276q-171 -147 -330 -276zM547 -35q-121 0 -215.5 31t-152.5 97t-58 159q0 78 40 138.5t114.5 100.5t157 65t190.5 44q32 5 84.5 13t82.5 12.5t72.5 13.5t66.5 17t52.5 22t43 30.5t24.5 40t10 52.5
q0 104 -105 183t-268 79q-145 0 -248.5 -67.5t-142.5 -180.5l-125 39q37 102 123 173.5t188 102.5t213 31q70 0 138.5 -12.5t134.5 -41.5t116 -71t80.5 -106t30.5 -142v-788h-121v250h-6q-157 -285 -520 -285zM551 59q110 0 208 40t162 100t101 129t37 129v164
q-60 -40 -121.5 -59.5t-212.5 -41.5q-46 -7 -69.5 -11.5t-74 -14.5t-80.5 -19.5t-73.5 -25t-70 -33.5t-52.5 -41t-38.5 -53t-12.5 -64q0 -90 82 -144.5t215 -54.5z" />
    <glyph glyph-name="adieresis.ss02" horiz-adv-x="1402" 
d="M506 1382q-46 0 -79.5 29.5t-33.5 69.5q0 38 33.5 66t79.5 28q47 0 78.5 -27.5t31.5 -66.5q0 -40 -31.5 -69.5t-78.5 -29.5zM915 1382q-48 0 -79 29t-31 70q0 39 31 66.5t79 27.5q46 0 78.5 -28t32.5 -66q0 -40 -33 -69.5t-78 -29.5zM547 -35q-121 0 -215.5 31t-152.5 97
t-58 159q0 78 40 138.5t114.5 100.5t157 65t190.5 44q32 5 84.5 13t82.5 12.5t72.5 13.5t66.5 17t52.5 22t43 30.5t24.5 40t10 52.5q0 104 -105 183t-268 79q-145 0 -248.5 -67.5t-142.5 -180.5l-125 39q37 102 123 173.5t188 102.5t213 31q70 0 138.5 -12.5t134.5 -41.5
t116 -71t80.5 -106t30.5 -142v-788h-121v250h-6q-157 -285 -520 -285zM551 59q110 0 208 40t162 100t101 129t37 129v164q-60 -40 -121.5 -59.5t-212.5 -41.5q-46 -7 -69.5 -11.5t-74 -14.5t-80.5 -19.5t-73.5 -25t-70 -33.5t-52.5 -41t-38.5 -53t-12.5 -64q0 -90 82 -144.5
t215 -54.5z" />
    <glyph glyph-name="agrave.ss02" horiz-adv-x="1402" 
d="M772 1278h-113l-372 393h184zM547 -35q-121 0 -215.5 31t-152.5 97t-58 159q0 78 40 138.5t114.5 100.5t157 65t190.5 44q32 5 84.5 13t82.5 12.5t72.5 13.5t66.5 17t52.5 22t43 30.5t24.5 40t10 52.5q0 104 -105 183t-268 79q-145 0 -248.5 -67.5t-142.5 -180.5l-125 39
q37 102 123 173.5t188 102.5t213 31q70 0 138.5 -12.5t134.5 -41.5t116 -71t80.5 -106t30.5 -142v-788h-121v250h-6q-157 -285 -520 -285zM551 59q110 0 208 40t162 100t101 129t37 129v164q-60 -40 -121.5 -59.5t-212.5 -41.5q-46 -7 -69.5 -11.5t-74 -14.5t-80.5 -19.5
t-73.5 -25t-70 -33.5t-52.5 -41t-38.5 -53t-12.5 -64q0 -90 82 -144.5t215 -54.5z" />
    <glyph glyph-name="amacron.ss02" horiz-adv-x="1169" 
d="M1137 1448h-826v98h826v-98zM547 -35q-121 0 -215.5 31t-152.5 97t-58 159q0 78 40 138.5t114.5 100.5t157 65t190.5 44q32 5 84.5 13t82.5 12.5t72.5 13.5t66.5 17t52.5 22t43 30.5t24.5 40t10 52.5q0 104 -105 183t-268 79q-145 0 -248.5 -67.5t-142.5 -180.5l-125 39
q37 102 123 173.5t188 102.5t213 31q70 0 138.5 -12.5t134.5 -41.5t116 -71t80.5 -106t30.5 -142v-788h-121v250h-6q-157 -285 -520 -285zM551 59q110 0 208 40t162 100t101 129t37 129v164q-60 -40 -121.5 -59.5t-212.5 -41.5q-46 -7 -69.5 -11.5t-74 -14.5t-80.5 -19.5
t-73.5 -25t-70 -33.5t-52.5 -41t-38.5 -53t-12.5 -64q0 -90 82 -144.5t215 -54.5z" />
    <glyph glyph-name="aogonek.ss02" horiz-adv-x="1402" 
d="M1200 -379q48 0 105 14v-84q-63 -14 -117 -14q-132 0 -221.5 62.5t-89.5 164.5q0 139 196 236v250h-6q-157 -285 -520 -285q-121 0 -215.5 31t-152.5 97t-58 159q0 78 40 138.5t114.5 100.5t157 65t190.5 44q32 5 84.5 13t82.5 12.5t72.5 13.5t66.5 17t52.5 22t43 30.5
t24.5 40t10 52.5q0 104 -105 183t-268 79q-145 0 -248.5 -67.5t-142.5 -180.5l-125 39q37 102 123 173.5t188 102.5t213 31q70 0 138.5 -12.5t134.5 -41.5t116 -71t80.5 -106t30.5 -142v-788h-4q-211 -97 -211 -217q0 -73 64.5 -117.5t156.5 -44.5zM1059 457v164
q-60 -40 -121.5 -59.5t-212.5 -41.5q-46 -7 -69.5 -11.5t-74 -14.5t-80.5 -19.5t-73.5 -25t-70 -33.5t-52.5 -41t-38.5 -53t-12.5 -64q0 -90 82 -144.5t215 -54.5q110 0 208 40t162 100t101 129t37 129z" />
    </font>
</defs>
</svg>
