<?xml version="1.0" standalone="no"?>
<!DOCTYPE svg PUBLIC "-//W3C//DTD SVG 1.1//EN" "http://www.w3.org/Graphics/SVG/1.1/DTD/svg11.dtd" >
<svg xmlns="http://www.w3.org/2000/svg" xmlns:xlink="http://www.w3.org/1999/xlink" version="1.1">
<metadata>
Created by FontForge 20170731 at Mon Mar 15 14:21:17 2021
 By Aleksey,,,
Copyright (c) 2020 by Matthieu Salvaggio x Blaze Type. All rights reserved.
</metadata>
<defs>
<font id="Area-ExtralightItalicExtended" horiz-adv-x="2457" >
  <font-face 
    font-family="Area Extralight Italic Extended"
    font-weight="200"
    font-style="italic"
    font-stretch="normal"
    units-per-em="2048"
    panose-1="0 0 3 0 0 0 0 0 0 0"
    ascent="1638"
    descent="-410"
    x-height="1128"
    cap-height="1597"
    bbox="-1864 -498 3295 2144"
    underline-thickness="102"
    underline-position="-307"
    slope="-10"
    unicode-range="U+0020-25CA"
  />
<missing-glyph horiz-adv-x="1759" 
d="M1413 0h-1266l283 1597h1266zM541 1499l-244 -1343l1204 1343h-960zM1536 1397l-1155 -1293h924z" />
    <glyph glyph-name=".notdef" horiz-adv-x="1759" 
d="M1413 0h-1266l283 1597h1266zM541 1499l-244 -1343l1204 1343h-960zM1536 1397l-1155 -1293h924z" />
    <glyph glyph-name=".null" horiz-adv-x="0" 
 />
    <glyph glyph-name="nonmarkingreturn" horiz-adv-x="682" 
 />
    <glyph glyph-name="space" unicode=" " horiz-adv-x="659" 
 />
    <glyph glyph-name="exclam" unicode="!" horiz-adv-x="616" 
d="M315 371h-79l163 1136l15 90h155l-16 -90zM209 -14q-43 0 -73 24.5t-30 61.5q0 47 42 82.5t98 35.5q40 0 68 -25t28 -61q0 -45 -40.5 -81.5t-92.5 -36.5z" />
    <glyph glyph-name="quotedbl" unicode="&#x22;" horiz-adv-x="761" 
d="M412 1176h-131l73 421h129zM692 1176h-129l70 421h133z" />
    <glyph glyph-name="numbersign" unicode="#" horiz-adv-x="1650" 
d="M1638 1073l-36 -94h-295l-166 -404h289l-35 -94h-293l-199 -481h-115l199 481h-502l-198 -481h-115l199 481h-283l37 94h285l165 404h-282l39 94h282l217 524h115l-217 -524h502l217 524h115l-217 -524h292zM524 575h502l166 404h-502z" />
    <glyph glyph-name="dollar" unicode="$" horiz-adv-x="1400" 
d="M895 1356l-92 -516q172 -41 246 -75q184 -85 184 -247q0 -105 -72 -195t-200 -144.5t-285 -59.5l-35 -201h-100l37 203q-173 15 -296 100t-159 248l117 39q23 -91 79 -154t124 -93t151 -38l94 529q-397 83 -397 323q0 100 70.5 188t191 142t260.5 57l31 176h100l-33 -180
q162 -19 276 -101.5t132 -205.5l-113 -45q-24 98 -104.5 165.5t-206.5 84.5zM420 1098q0 -42 19.5 -78t46.5 -59t69.5 -44t75 -32t76.5 -23l88 498q-160 -7 -267.5 -83t-107.5 -179zM784 729l-90 -510q178 6 296 85.5t118 193.5q0 32 -11 60t-27 48.5t-43.5 38.5t-52.5 29.5
t-62 22.5t-63.5 17.5t-64.5 14.5z" />
    <glyph glyph-name="percent" unicode="%" horiz-adv-x="1937" 
d="M451 803q-117 0 -186.5 76t-69.5 206q0 81 29 160t79 140t122.5 99t152.5 38q117 0 186.5 -76.5t69.5 -208.5q0 -109 -49 -208.5t-138.5 -162.5t-195.5 -63zM260 0h-119l1624 1468h111zM461 887q106 0 184 105.5t78 240.5q0 95 -41.5 149t-114.5 54q-106 0 -184 -104.5
t-78 -239.5q0 -97 41 -151t115 -54zM1425 -29q-117 0 -186.5 76.5t-69.5 206.5q0 109 49 208.5t138 163.5t196 64q117 0 186.5 -76.5t69.5 -207.5q0 -109 -49 -209t-138.5 -163t-195.5 -63zM1436 55q106 0 184 105.5t78 240.5q0 95 -41.5 149t-114.5 54q-106 0 -184 -104.5
t-78 -239.5q0 -97 41 -151t115 -54z" />
    <glyph glyph-name="ampersand" unicode="&#x26;" horiz-adv-x="1636" 
d="M553 -35q-127 0 -232 37.5t-172 117t-67 187.5q0 63 24.5 123.5t70.5 111.5t95.5 93t118.5 82.5t118.5 66.5t113.5 56q-52 55 -82.5 91.5t-71 93t-60.5 112t-20 110.5q0 103 68.5 191.5t183.5 140t248 51.5q174 0 277.5 -84.5t103.5 -212.5q0 -134 -124 -264.5
t-353 -241.5l387 -397q113 153 198 344l111 -22q-125 -253 -240 -400l334 -350h-149l-256 260q-277 -297 -625 -297zM729 897q71 36 121 65t107.5 70.5t93 80.5t59 90.5t23.5 105.5q0 103 -70 160t-195 57q-150 0 -248 -78t-98 -195q0 -84 54 -167t153 -189zM571 72
q292 0 539 266l-418 426q-193 -93 -274 -147q-201 -134 -201 -289q0 -122 101.5 -189t252.5 -67z" />
    <glyph glyph-name="quotesingle" unicode="'" horiz-adv-x="479" 
d="M412 1176h-131l73 421h129z" />
    <glyph glyph-name="parenleft" unicode="(" horiz-adv-x="714" 
d="M518 -307h-129q-128 153 -196 341.5t-68 391.5q0 312 158.5 623t441.5 548h129q-277 -236 -433.5 -548.5t-156.5 -630.5q0 -202 65 -388.5t189 -336.5z" />
    <glyph glyph-name="parenright" unicode=")" horiz-adv-x="712" 
d="M18 -307h-129q278 236 436 549.5t158 629.5q0 198 -66 384.5t-192 340.5h129q131 -155 197.5 -343.5t66.5 -389.5q0 -309 -157.5 -621t-442.5 -550z" />
    <glyph glyph-name="asterisk" unicode="*" horiz-adv-x="1017" 
d="M635 1024h-96l39 213l-248 -107l-35 72l246 109l-207 108l59 72l211 -107l35 213h96l-37 -213l246 107l35 -72l-244 -108l205 -109l-59 -72l-205 107z" />
    <glyph glyph-name="plus" unicode="+" horiz-adv-x="1175" 
d="M670 678h360l-16 -107h-363l-55 -311h-121l55 311h-360l16 107h363l55 311h121z" />
    <glyph glyph-name="comma" unicode="," horiz-adv-x="509" 
d="M45 -254h-86l186 248q-63 15 -63 78q0 47 40.5 82.5t96.5 35.5q41 0 68.5 -25t27.5 -63q0 -37 -47.5 -100t-222.5 -256z" />
    <glyph glyph-name="hyphen" unicode="-" horiz-adv-x="915" 
d="M778 575h-637l17 97h635z" />
    <glyph glyph-name="period" unicode="." horiz-adv-x="548" 
d="M197 -14q-43 0 -73 24.5t-30 61.5q0 47 41 82.5t96 35.5q40 0 69.5 -25t29.5 -61q0 -45 -40.5 -81.5t-92.5 -36.5z" />
    <glyph glyph-name="slash" unicode="/" horiz-adv-x="1007" 
d="M106 -135h-120l981 1773h123z" />
    <glyph glyph-name="zero" unicode="0" horiz-adv-x="1722" 
d="M754 -35q-266 0 -422 174t-156 473q0 151 42 300.5t122 277.5t186.5 227.5t243.5 156t285 56.5q266 0 420.5 -175t154.5 -476q0 -151 -41.5 -299.5t-120.5 -276.5t-184.5 -226.5t-243 -155t-286.5 -56.5zM774 76q122 0 234.5 51t198.5 139t149.5 202t97 245t33.5 262
q0 255 -119 400t-328 145q-122 0 -235 -51t-200 -139t-152 -201.5t-99.5 -244.5t-34.5 -261q0 -255 122 -401t333 -146z" />
    <glyph glyph-name="one" unicode="1" horiz-adv-x="925" 
d="M551 0h-133l235 1329q-84 -84 -213 -139t-282 -70l16 109q211 28 360.5 130.5t172.5 237.5h124z" />
    <glyph glyph-name="two" unicode="2" horiz-adv-x="1505" 
d="M1288 0h-1233v6q41 130 94 219.5t155 170t180.5 127t263.5 144.5q17 9 26.5 14t24.5 13t28 15q48 26 77.5 42.5t88.5 53t99 67t90 76.5t80 88.5t51.5 95.5t21.5 105q0 129 -108 208t-287 79q-151 0 -278 -56t-210 -156.5t-106 -230.5l-115 19q40 232 242 381t483 149
q234 0 374 -104.5t140 -278.5q0 -305 -483 -565q-70 -39 -170.5 -91t-160 -83t-134.5 -77.5t-122.5 -88t-94 -100.5t-76.5 -129h1078z" />
    <glyph glyph-name="three" unicode="3" horiz-adv-x="1548" 
d="M664 -35q-235 0 -396.5 99.5t-193.5 265.5l119 51q33 -138 166 -223.5t327 -85.5q240 0 398.5 121.5t158.5 285.5q0 136 -121 214.5t-358 78.5h-189l15 100h211q224 0 373 107t149 262q0 132 -109.5 207.5t-291.5 75.5q-191 0 -337.5 -86t-201.5 -238l-115 21
q44 125 146 218.5t239.5 142t292.5 48.5q143 0 259.5 -41t187.5 -122.5t71 -190.5q0 -149 -118.5 -278.5t-294.5 -170.5l-2 -2q162 -28 247.5 -111.5t85.5 -215.5q0 -101 -54 -197.5t-147 -171t-228.5 -119.5t-288.5 -45z" />
    <glyph glyph-name="four" unicode="4" horiz-adv-x="1574" 
d="M1094 0h-131l69 403h-995l22 125l1184 1069h131l-192 -1083h291l-17 -111h-293zM1217 1434l-1022 -920h856z" />
    <glyph glyph-name="five" unicode="5" horiz-adv-x="1544" 
d="M651 -35q-149 0 -278 43.5t-218 127.5t-114 196l117 53q43 -145 184 -229t326 -84q128 0 243.5 41.5t195.5 109.5t126.5 156.5t46.5 181.5q0 158 -118.5 253t-311.5 95q-154 0 -292.5 -60.5t-227.5 -160.5l-99 45l375 864h893l-18 -106h-805l-283 -653h4
q68 71 202.5 120.5t287.5 49.5q150 0 269.5 -50t191 -148.5t71.5 -229.5q0 -116 -59 -228t-160 -197t-245 -137.5t-304 -52.5z" />
    <glyph glyph-name="six" unicode="6" horiz-adv-x="1619" 
d="M735 -35q-274 0 -423.5 154.5t-149.5 435.5q0 160 51 318.5t146.5 293.5t222.5 239.5t289 164t335 59.5q236 0 389 -108l-102 -86q-128 88 -326 88q-150 0 -291 -55.5t-256.5 -157t-199 -255t-115.5 -339.5h4q77 139 258 228t375 89q107 0 204.5 -30.5t174 -86
t122.5 -143.5t46 -194q0 -118 -59.5 -230.5t-159.5 -197t-240.5 -136t-294.5 -51.5zM756 72q118 0 229 41t192 109t130 159.5t49 187.5q0 161 -125 263t-320 102q-120 0 -232.5 -42t-193 -110.5t-129.5 -159t-49 -184.5q0 -159 127.5 -262.5t321.5 -103.5z" />
    <glyph glyph-name="seven" unicode="7" horiz-adv-x="1427" 
d="M395 0h-133q28 157 136.5 366t262 417.5t351.5 406.5t393 328h-1206l16 110h1352l-19 -121q-200 -135 -398.5 -329t-354 -398t-263.5 -411.5t-137 -368.5z" />
    <glyph glyph-name="eight" unicode="8" horiz-adv-x="1587" 
d="M692 -35q-160 0 -290 46t-208.5 138.5t-78.5 215.5q0 161 129 293.5t331 179.5v4q-122 44 -185.5 124t-63.5 187q0 124 86.5 233.5t239 176.5t333.5 67q226 0 368 -100t142 -260q0 -135 -107 -254.5t-278 -173.5v-4q148 -37 231.5 -129.5t83.5 -221.5q0 -139 -96 -259
t-265.5 -191.5t-371.5 -71.5zM852 881q212 0 362 112.5t150 259.5q0 124 -110 200.5t-289 76.5q-140 0 -257 -49t-184 -132t-67 -180q0 -133 112.5 -210.5t282.5 -77.5zM707 68q124 0 233.5 35.5t185 94t119 135.5t43.5 159q0 140 -116.5 219.5t-327.5 79.5
q-261 0 -423.5 -112.5t-162.5 -283.5q0 -154 125.5 -240.5t323.5 -86.5z" />
    <glyph glyph-name="nine" unicode="9" horiz-adv-x="1652" 
d="M643 -35q-155 0 -299.5 60.5t-247.5 181.5l105 76q180 -213 452 -213q157 0 289.5 63t226.5 174t157.5 253.5t94.5 311.5h-6q-80 -158 -261.5 -253t-381.5 -95q-237 0 -390 131t-153 336q0 122 58.5 237.5t159.5 204.5t249 143t314 54q127 0 228.5 -33t177 -100.5
t116.5 -179.5t41 -262q0 -127 -30.5 -257.5t-86.5 -251.5t-139.5 -227t-184.5 -184.5t-227.5 -124t-261.5 -45.5zM795 623q124 0 240 47.5t199 123.5t133 175t50 200q0 113 -60 195.5t-158.5 123t-221.5 40.5q-126 0 -240.5 -43.5t-195 -116t-128.5 -169t-48 -198.5
q0 -117 58 -204t155 -130.5t217 -43.5z" />
    <glyph glyph-name="colon" unicode=":" horiz-adv-x="598" 
d="M371 954q-42 0 -70.5 25.5t-28.5 62.5q0 47 41 82t95 35q40 0 69 -24t29 -60q0 -46 -41.5 -83.5t-93.5 -37.5zM199 -14q-42 0 -71.5 25t-29.5 61q0 47 40.5 82.5t94.5 35.5q42 0 71.5 -25t29.5 -61q0 -45 -41 -81.5t-94 -36.5z" />
    <glyph glyph-name="semicolon" unicode=";" horiz-adv-x="684" 
d="M428 954q-41 0 -70.5 25.5t-29.5 62.5q0 47 41 82t94 35q43 0 71.5 -24.5t28.5 -59.5q0 -46 -41 -83.5t-94 -37.5zM119 -256h-86l186 250q-29 7 -46 28.5t-17 49.5q0 48 40 83t95 35q43 0 71.5 -25t28.5 -63q0 -36 -46 -96.5t-226 -261.5z" />
    <glyph glyph-name="less" unicode="&#x3c;" horiz-adv-x="1226" 
d="M997 428l-18 -104l-797 243l17 113l884 244l-18 -105l-727 -196z" />
    <glyph glyph-name="equal" unicode="=" horiz-adv-x="1236" 
d="M1079 776h-843l16 107h846zM1010 365h-846l16 104h844z" />
    <glyph glyph-name="greater" unicode="&#x3e;" horiz-adv-x="1226" 
d="M1053 567l-885 -243l16 104l729 195l-659 196l16 105l799 -244z" />
    <glyph glyph-name="question" unicode="?" horiz-adv-x="1267" 
d="M565 367h-119q-2 6 -2 36q0 52 8 93t30 78.5t45.5 65t70.5 63t87.5 62t113.5 71.5q39 24 62.5 39.5t65 45.5t68 54t59 59.5t51.5 68t32.5 73t13.5 81.5q0 84 -49 146.5t-128 93.5t-175 31q-107 0 -207 -38t-174.5 -116.5t-93.5 -181.5q-5 -40 -5 -70l-112 19q0 37 4 76
q20 118 111.5 213.5t223.5 147.5t275 52q74 0 142 -14.5t127 -43.5t102.5 -70.5t68.5 -98.5t25 -123q0 -52 -17.5 -104.5t-43 -94.5t-67 -86t-76.5 -74.5t-85 -65.5t-79.5 -53.5t-71.5 -43.5q-63 -38 -95 -59t-75 -56.5t-63 -66.5t-35 -77t-15 -100zM465 -14q-44 0 -72 25
t-28 61q0 47 40 82.5t93 35.5q42 0 71 -25t29 -61q0 -45 -40.5 -81.5t-92.5 -36.5z" />
    <glyph glyph-name="at" unicode="@" horiz-adv-x="2361" 
d="M950 -195q-193 0 -351 50t-263.5 139t-163 212t-57.5 269q0 141 54.5 285t149.5 270.5t230 237.5t289.5 190.5t334.5 125.5t359 46q172 0 320 -42.5t259 -122t174.5 -201.5t63.5 -273q0 -114 -36.5 -229t-102.5 -212t-151 -173t-188.5 -119t-207.5 -43
q-134 0 -187.5 69.5t-13.5 172.5q-109 -110 -247.5 -167t-266.5 -57q-154 0 -248 88t-94 230q0 112 64 229.5t164 208.5t231.5 149t257.5 58q129 0 218.5 -58t115.5 -163l76 194h104l-235 -608q-8 -20 -10 -26.5t-10.5 -32t-10.5 -38.5t-5 -37.5t1 -38.5t12 -32.5t23 -28
t38.5 -17t55.5 -7.5q127 0 248.5 96.5t196.5 252t75 317.5q0 260 -189.5 413.5t-510.5 153.5q-162 0 -324 -42t-300.5 -115t-259 -174t-205 -216.5t-133 -245t-48.5 -256.5q0 -268 197 -425.5t544 -157.5q190 0 371.5 46.5t324.5 131.5l50 -78q-175 -100 -382 -149.5
t-401 -49.5zM997 330q108 0 215 49t184.5 125.5t126 173t48.5 188.5q0 111 -68 172.5t-192 61.5q-111 0 -218 -48.5t-184 -124t-124.5 -172t-47.5 -188.5q0 -113 67.5 -175t192.5 -62z" />
    <glyph glyph-name="A" unicode="A" horiz-adv-x="1792" 
d="M82 0h-141l1071 1597h137l506 -1597h-139q-113 349 -187 584h-856q-154 -227 -391 -584zM541 692h753q-170 550 -233 772h-4q-20 -30 -208.5 -310.5t-307.5 -461.5z" />
    <glyph glyph-name="B" unicode="B" horiz-adv-x="1751" 
d="M938 0h-766l283 1597h661q257 0 401 -102t144 -260q0 -146 -119 -265t-303 -157v-4q178 -26 265 -115t87 -213q0 -126 -87 -236.5t-238 -177.5t-328 -67zM455 856h524q242 0 392.5 103t150.5 247q0 130 -124 207.5t-329 77.5h-500q-12 -69 -40 -223.5t-49.5 -274
t-24.5 -137.5zM322 106h585q243 0 394 104.5t151 250.5q0 132 -122.5 210.5t-332.5 78.5h-559q-68 -373 -116 -644z" />
    <glyph glyph-name="C" unicode="C" horiz-adv-x="2068" 
d="M995 -35q-378 0 -604.5 188t-226.5 504q0 187 87 365t234 311.5t355.5 215t437.5 81.5q131 0 253.5 -28t227 -83t178.5 -145t99 -205l-127 -43q-56 186 -233.5 290t-415.5 104q-197 0 -376 -72t-304.5 -189.5t-199 -272t-73.5 -316.5q0 -120 39.5 -219.5t108 -168
t161.5 -115.5t197.5 -69t218.5 -22q156 0 296 41t246 111.5t184.5 158t129.5 188.5l111 -38q-64 -119 -156.5 -219.5t-216.5 -181t-286 -126t-345 -45.5z" />
    <glyph glyph-name="D" unicode="D" horiz-adv-x="1982" 
d="M854 0h-682l283 1597h659q393 0 588.5 -170t195.5 -475q0 -147 -46.5 -287.5t-138 -260.5t-216 -210.5t-291 -142t-352.5 -51.5zM322 106h571q130 0 248.5 31.5t212.5 87.5t171.5 133.5t128.5 168.5t79 192.5t28 206.5q0 279 -178 422t-512 143h-502
q-148 -821 -247 -1385z" />
    <glyph glyph-name="E" unicode="E" horiz-adv-x="1615" 
d="M1393 0h-1221l283 1597h1196l-19 -106h-1063q-49 -261 -110 -614h1014l-17 -109h-1016q-15 -78 -33.5 -189.5t-84.5 -465.5h1089z" />
    <glyph glyph-name="F" unicode="F" horiz-adv-x="1531" 
d="M1626 1597l-18 -114h-1041l-110 -619h989l-16 -108h-990l-135 -756h-133l283 1597h1171z" />
    <glyph glyph-name="G" unicode="G" horiz-adv-x="2158" 
d="M983 -35q-247 0 -433 84.5t-287 241t-101 364.5q0 188 86.5 365.5t233.5 312t355.5 216t438.5 81.5q132 0 254 -28t226 -83t177.5 -145t98.5 -205l-125 -43q-56 187 -234 290.5t-418 103.5q-197 0 -375.5 -72t-303 -189.5t-198 -272t-73.5 -316.5q0 -120 39.5 -219.5
t106.5 -168t158 -115.5t193 -69t212 -22q214 0 397.5 78t303.5 212t163 302h-704l18 104h833l-135 -772h-112q35 221 65 381h-12q-133 -198 -349.5 -307t-498.5 -109z" />
    <glyph glyph-name="H" unicode="H" horiz-adv-x="1984" 
d="M1634 862l131 735h133l-282 -1597h-133l133 754h-1178l-133 -754h-133l283 1597h133l-131 -735h1177z" />
    <glyph glyph-name="I" unicode="I" horiz-adv-x="675" 
d="M305 0h-133l283 1597h133z" />
    <glyph glyph-name="J" unicode="J" horiz-adv-x="1413" 
d="M539 -35q-59 0 -115 8t-112 25.5t-101.5 46t-83.5 68.5t-58.5 92.5t-27 120t11.5 149.5l8 43l121 14l-6 -34q-13 -82 -7.5 -145t32.5 -110.5t63.5 -80t86 -52.5t99 -29t103.5 -9q81 0 148.5 20t113 49.5t83 76.5t59 87t39 96.5t24 88.5t14.5 79l183 1028h131l-174 -989
q-11 -61 -19 -99t-31.5 -113t-50.5 -125t-77 -113t-110 -101t-150 -65t-197 -27z" />
    <glyph glyph-name="K" unicode="K" horiz-adv-x="1607" 
d="M305 0h-133l283 1597h133q-61 -333 -158 -886h4q140 112 306 240.5t266.5 204.5t309 233t275.5 208h160q-161 -122 -915 -702q126 -167 364.5 -479t317.5 -416h-162q-207 267 -631 807q-115 -85 -322 -244q-82 -478 -98 -563z" />
    <glyph glyph-name="L" unicode="L" horiz-adv-x="1447" 
d="M588 1597l-262 -1484h1011l-18 -113h-1147l283 1597h133z" />
    <glyph glyph-name="M" unicode="M" horiz-adv-x="2467" 
d="M305 0h-133l283 1597h159q354 -923 543 -1445h4q724 981 1063 1445h158l-283 -1597h-133q42 240 121 676t123 686h-10q-268 -375 -996 -1362h-139q-351 925 -508 1362h-8q-38 -207 -78.5 -438.5t-165.5 -923.5z" />
    <glyph glyph-name="N" unicode="N" horiz-adv-x="2031" 
d="M305 0h-133l283 1597h147q626 -924 950 -1419h7q46 261 132.5 737t123.5 682h129l-283 -1597h-143q-80 118 -426.5 620.5t-532.5 782.5h-2q-13 -73 -107 -588.5t-145 -814.5z" />
    <glyph glyph-name="O" unicode="O" horiz-adv-x="2185" 
d="M989 -35q-239 0 -427.5 90t-294 251t-105.5 364q0 123 41 244.5t114 227t178 196t227 155t266.5 101t293.5 36.5q238 0 426 -90t293.5 -251.5t105.5 -364.5q0 -123 -41.5 -244.5t-115 -226.5t-178 -195.5t-226.5 -155t-266 -101t-291 -36.5zM1010 76q125 0 246.5 32
t225.5 88.5t193 135.5t151.5 170.5t98 197t35.5 211.5q0 174 -88.5 313t-248 217.5t-359.5 78.5q-148 0 -292 -44.5t-262.5 -124t-209.5 -183.5t-142 -229.5t-51 -254.5q0 -176 92 -315.5t252 -216t359 -76.5z" />
    <glyph glyph-name="P" unicode="P" horiz-adv-x="1632" 
d="M455 1597h657q26 0 51.5 -1t84.5 -9t107.5 -21.5t107 -43t99 -70t68 -105.5t27.5 -145q0 -110 -51 -211t-138 -177t-212.5 -121.5t-266.5 -45.5h-569l-115 -647h-133zM438 756h523q245 0 401 117t156 296q0 157 -118 239.5t-331 82.5h-500z" />
    <glyph glyph-name="Q" unicode="Q" horiz-adv-x="2185" 
d="M1855 -111l-102 -69q-137 161 -227 268q-259 -123 -537 -123q-239 0 -427.5 90t-294 251.5t-105.5 365.5q0 123 41.5 245t115 227t178 195t227 154t266.5 100.5t292 36.5q237 0 426 -90t295 -250.5t106 -361.5q0 -222 -127.5 -429t-347.5 -345q42 -49 116.5 -139.5
t104.5 -125.5zM1010 76q234 0 444 106l-321 379l102 70q62 -71 172 -202t156 -185q187 123 294 302t107 367q0 173 -89.5 311.5t-250 217t-360.5 78.5q-148 0 -292.5 -44.5t-263.5 -124t-210 -183.5t-142 -229.5t-51 -254.5q0 -138 57.5 -253.5t154.5 -192.5t224.5 -119.5
t268.5 -42.5z" />
    <glyph glyph-name="R" unicode="R" horiz-adv-x="1697" 
d="M305 0h-133l283 1597h657q251 0 398 -102t147 -293q0 -100 -44 -195.5t-121 -170.5t-190.5 -125t-244.5 -60l-2 -2q36 -56 122 -189.5t154 -242.5t131 -217h-145l-410 647h-487q-16 -86 -34 -192.5t-81 -454.5zM436 754h525q245 0 401 118t156 297q0 156 -117.5 239
t-331.5 83h-500q-20 -109 -56.5 -314t-76.5 -423z" />
    <glyph glyph-name="S" unicode="S" horiz-adv-x="1572" 
d="M711 -35q-84 0 -163 14t-158.5 48.5t-141.5 86t-107.5 133.5t-60.5 185l127 41q27 -191 170.5 -294t359.5 -103q229 0 389 109.5t160 263.5q0 50 -23 91t-47 64.5t-83.5 47.5t-86 32t-100.5 27q-8 3 -12.5 4t-11.5 3t-13 3l-172 47q-45 12 -78.5 22.5t-84 30t-88 39.5
t-79 51t-67.5 65.5t-43.5 81t-17.5 99.5q0 126 89.5 234.5t247.5 173.5t347 65q242 0 389.5 -104t177.5 -279l-125 -45q-30 145 -154.5 231.5t-316.5 86.5q-218 0 -366 -99.5t-148 -236.5q0 -54 28 -101t61.5 -75.5t93 -56t88.5 -37t82 -25.5q9 -3 13 -4l177 -49
q172 -47 232 -71q197 -78 233 -218q8 -33 8 -70q0 -97 -57 -190.5t-152.5 -164t-231.5 -114t-284 -43.5z" />
    <glyph glyph-name="T" unicode="T" horiz-adv-x="1544" 
d="M739 0h-133q28 159 41 233t25 140.5t64.5 360t135.5 757.5h-673l18 106h1477l-17 -106h-673q-34 -187 -78.5 -441.5t-186.5 -1049.5z" />
    <glyph glyph-name="U" unicode="U" horiz-adv-x="1855" 
d="M819 -35q-151 0 -266.5 37t-192.5 110t-105 190t-1 269l180 1026h133l-180 -1019q-46 -259 75.5 -382.5t379.5 -123.5q170 0 299.5 52t218.5 167t119 287l182 1019h131l-182 -1026q-51 -279 -254 -442.5t-537 -163.5z" />
    <glyph glyph-name="V" unicode="V" horiz-adv-x="1794" 
d="M864 0h-137l-506 1597h141q83 -260 240.5 -765.5t218.5 -698.5h4q712 1081 971 1464h141z" />
    <glyph glyph-name="W" unicode="W" horiz-adv-x="2777" 
d="M739 0h-155l-351 1597h136q226 -971 319 -1445h4q491 870 807 1445h146q7 -35 124.5 -596t174.5 -849h6q496 883 827 1445h137l-917 -1597h-156q-148 665 -291 1436h-4q-489 -895 -807 -1436z" />
    <glyph glyph-name="X" unicode="X" horiz-adv-x="1570" 
d="M88 0h-149q101 101 266.5 268t297 298.5t255.5 252.5v4q-502 749 -518 774h149q46 -68 127.5 -193.5t331.5 -490.5h4q400 400 702 684h148q-96 -94 -189.5 -188t-222.5 -220t-381 -366v-4q102 -152 281 -433t248 -386h-148q-78 120 -232.5 362t-236.5 367h-4
q-123 -124 -366 -366t-363 -363z" />
    <glyph glyph-name="Y" unicode="Y" horiz-adv-x="1679" 
d="M805 0h-131l106 592q-20 36 -226 407t-321 598h146l485 -895h4q89 99 143.5 162.5t86 100t172.5 192.5t403 440h139q-797 -890 -901 -1005q-92 -521 -106 -592z" />
    <glyph glyph-name="Z" unicode="Z" horiz-adv-x="1599" 
d="M1430 0h-1461l21 119q254 229 759.5 683.5t759.5 684.5l2 4h-1226l18 106h1389l-23 -112q-282 -255 -800.5 -719.5t-723.5 -648.5l-2 -4h1305z" />
    <glyph glyph-name="bracketleft" unicode="[" horiz-adv-x="755" 
d="M547 -317h-455l338 1914h455l-17 -100h-331l-304 -1712h328z" />
    <glyph glyph-name="backslash" unicode="\" horiz-adv-x="999" 
d="M774 -135h-125l-354 1773h123z" />
    <glyph glyph-name="bracketright" unicode="]" horiz-adv-x="757" 
d="M356 -317h-452l14 102h330l307 1712h-332l17 100h454z" />
    <glyph glyph-name="asciicircum" unicode="^" horiz-adv-x="1019" 
d="M367 1059h-127l391 538h133l201 -538h-125l-156 440h-6z" />
    <glyph glyph-name="underscore" unicode="_" horiz-adv-x="1206" 
d="M1042 -219h-1144l16 96h1145z" />
    <glyph glyph-name="a" unicode="a" horiz-adv-x="1402" 
d="M442 -35q-176 0 -276 65.5t-100 188.5q0 284 563 381q34 6 96.5 15t99 15t87.5 17.5t80.5 25.5t59 35t43 51t13.5 68q0 101 -90.5 168.5t-239.5 67.5q-143 0 -259 -67.5t-177 -180.5l-117 39q55 102 153.5 173.5t207 102.5t221.5 31q70 0 135.5 -12.5t125 -41.5t101 -71
t60 -106t4.5 -142l-78 -436q-10 -65 -13.5 -90t-8.5 -77.5t-3.5 -95.5t7.5 -89h-125q-15 125 8 250h-6q-93 -130 -237 -207.5t-335 -77.5zM465 59q90 0 177 26t153.5 68.5t120.5 95t85.5 106.5t40.5 102l31 164q-69 -42 -129 -59t-223 -42q-51 -8 -83.5 -14t-93 -19.5
t-101.5 -27t-91 -36.5t-80.5 -49t-51.5 -62.5t-21 -78.5q0 -80 71 -127t195 -47z" />
    <glyph glyph-name="b" unicode="b" horiz-adv-x="1642" 
d="M788 -35q-172 0 -301.5 73t-185.5 206h-6l-43 -244h-119l289 1638h123l-135 -759q111 139 266.5 210.5t324.5 71.5q241 0 388 -135.5t147 -357.5q0 -134 -58 -262t-157 -225.5t-239 -156.5t-294 -59zM793 66q124 0 237.5 49t194 129.5t128.5 187.5t48 219
q0 183 -118.5 296.5t-311.5 113.5q-166 0 -311 -83t-229.5 -217.5t-84.5 -283.5q0 -185 126.5 -298t320.5 -113z" />
    <glyph glyph-name="c" unicode="c" horiz-adv-x="1484" 
d="M680 -35q-263 0 -417 134t-154 362q0 136 58.5 263t160 224t249 155t314.5 58q86 0 164 -16.5t150 -52t126 -98.5t80 -148l-131 -41q-32 121 -141.5 188.5t-268.5 67.5q-135 0 -253.5 -50t-199 -132.5t-127 -188.5t-46.5 -217q0 -188 123 -297.5t335 -109.5
q188 0 335.5 85.5t238.5 223.5l106 -33q-112 -184 -299.5 -280.5t-402.5 -96.5z" />
    <glyph glyph-name="d" unicode="d" horiz-adv-x="1646" 
d="M643 -35q-241 0 -387.5 136t-146.5 358q0 134 58.5 262t157 225t238.5 156t293 59q167 0 295 -70t188 -202h4l138 749h123l-228 -1286q-22 -128 -25 -209t9 -143h-127q-14 123 6 242h-4q-105 -133 -263 -205t-329 -72zM674 66q124 0 240.5 49.5t200 130t133.5 187
t50 216.5q0 186 -126.5 299t-319.5 113q-125 0 -239 -50t-194 -131t-127.5 -188t-47.5 -219q0 -182 118.5 -294.5t311.5 -112.5z" />
    <glyph glyph-name="e" unicode="e" horiz-adv-x="1515" 
d="M670 -35q-256 0 -408.5 134.5t-152.5 359.5q0 135 59 262.5t160 224.5t248 156t311 59q49 0 96 -5.5t99 -18.5t96 -34t86.5 -52.5t71.5 -73.5t49.5 -97.5t21.5 -124t-12 -153.5l-11 -57h-1134q-38 -215 86.5 -348.5t357.5 -133.5q184 0 332 87t238 223l106 -35
q-109 -177 -296 -275t-404 -98zM270 649h998q16 89 -0.5 160.5t-56 118t-98 78t-121 44.5t-130.5 13q-207 0 -367.5 -114.5t-224.5 -299.5z" />
    <glyph glyph-name="f" unicode="f" horiz-adv-x="833" 
d="M303 0h-123l182 1032h-204l18 96h203l27 158q9 51 16.5 85t22.5 78.5t33.5 73.5t49 60t68.5 49t93 29.5t122 11.5q156 0 248 -57l-17 -107q-113 66 -233 66q-64 0 -110 -15t-71.5 -31.5t-45.5 -60t-26 -67t-19 -86.5q-3 -15 -5 -23l-30 -164h416l-17 -96h-414z" />
    <glyph glyph-name="g" unicode="g" horiz-adv-x="1642" 
d="M608 -483q-456 0 -538 331l118 35q29 -124 137.5 -196t297.5 -72q80 0 152 14.5t144 50.5t128 92.5t100 146t65 204.5l27 153h-4q-106 -133 -260 -204.5t-324 -71.5q-153 0 -274.5 58t-192.5 169.5t-71 259.5q0 131 59 254.5t158 215.5t237 148t287 56q169 0 300 -72
t189 -208h5l45 247h118l-172 -983q-111 -628 -731 -628zM678 100q122 0 237.5 48t199.5 126t134.5 181t50.5 209q0 177 -127 287t-321 110q-122 0 -234.5 -47t-193 -124t-128.5 -179t-48 -209q0 -177 120 -289.5t310 -112.5z" />
    <glyph glyph-name="h" unicode="h" horiz-adv-x="1552" 
d="M256 0h-123l289 1638h123l-131 -737h4q199 260 532 260q63 0 119.5 -10t110 -32t93 -57t68.5 -85.5t35.5 -117.5t-6.5 -152l-125 -707h-125l117 657q18 91 5 159t-42 115t-77 76t-99.5 41.5t-110.5 12.5q-111 0 -209 -37.5t-166 -99t-112 -135.5t-57 -150z" />
    <glyph glyph-name="i" unicode="i" horiz-adv-x="585" 
d="M446 1434q-43 0 -72.5 25t-29.5 63q0 47 41.5 82.5t97.5 35.5q43 0 73 -25.5t30 -60.5q0 -47 -43 -83.5t-97 -36.5zM256 0h-123l199 1128h123z" />
    <glyph glyph-name="j" unicode="j" horiz-adv-x="585" 
d="M451 1434q-46 0 -74.5 25t-28.5 63q0 47 41 82.5t96 35.5q44 0 72.5 -25t28.5 -61q0 -47 -40.5 -83.5t-94.5 -36.5zM-193 -483q-146 0 -243 57l18 109q105 -68 221 -68q43 0 80.5 9.5t65.5 23.5t52.5 39t41 45.5t31 55t22.5 56t16.5 58.5t11.5 53t9 49l199 1124h123
l-201 -1142q-28 -159 -66 -240q-107 -229 -381 -229z" />
    <glyph glyph-name="k" unicode="k" horiz-adv-x="1245" 
d="M1120 1128h154l-590 -440l485 -688h-141l-446 612l-252 -188l-74 -424h-123l289 1638h123l-191 -1075h4q134 99 387.5 287.5t374.5 277.5z" />
    <glyph glyph-name="l" unicode="l" horiz-adv-x="585" 
d="M256 0h-123l289 1638h123z" />
    <glyph glyph-name="m" unicode="m" horiz-adv-x="2490" 
d="M256 0h-123l199 1128h119l-41 -227h4q99 131 239.5 195.5t290.5 64.5q56 0 108 -8.5t103.5 -30t91 -53.5t67 -83.5t34.5 -115.5h6q222 291 553 291q73 0 136.5 -14t122 -46.5t94.5 -85t53 -129t-3 -179.5l-125 -707h-125l117 657q18 92 5.5 160t-41 115t-75.5 75.5
t-97 41t-107 12.5q-105 0 -200.5 -38t-162 -99.5t-110.5 -135.5t-58 -149l-110 -639h-125l116 657q18 92 5.5 160t-41 115t-75.5 75.5t-97 41t-107 12.5q-105 0 -199.5 -38t-161 -99.5t-110.5 -135.5t-57 -149z" />
    <glyph glyph-name="n" unicode="n" horiz-adv-x="1552" 
d="M256 0h-123l199 1128h119l-41 -227h4q100 133 239.5 196.5t298.5 63.5q78 0 144.5 -14.5t126.5 -47t96.5 -85t53.5 -129t-3 -178.5l-125 -707h-125l117 657q20 109 -0.5 190.5t-72 126.5t-116 66t-141.5 21q-110 0 -207 -38t-164 -99.5t-110.5 -135t-56.5 -149.5z" />
    <glyph glyph-name="o" unicode="o" horiz-adv-x="1579" 
d="M684 -35q-262 0 -418.5 135.5t-156.5 362.5q0 134 58.5 260t160 223t250 156t317.5 59q264 0 421 -136t157 -363q0 -133 -58.5 -259t-160.5 -223t-251.5 -156t-318.5 -59zM700 66q137 0 258 49.5t203 131t129 187t47 217.5q0 188 -123.5 299t-332.5 111
q-136 0 -256.5 -49.5t-202.5 -131t-130 -187.5t-48 -218q0 -188 123.5 -298.5t332.5 -110.5z" />
    <glyph glyph-name="p" unicode="p" horiz-adv-x="1642" 
d="M176 -451h-123l279 1579h119l-45 -249h4q108 139 265.5 210.5t325.5 71.5q241 0 388 -135.5t147 -357.5q0 -135 -58.5 -263.5t-157.5 -225t-238.5 -155.5t-293.5 -59q-171 0 -301.5 73t-189.5 206zM793 66q123 0 237 49.5t194.5 130t128.5 187.5t48 218
q0 183 -118.5 296.5t-311.5 113.5q-166 0 -311.5 -83.5t-229.5 -218t-84 -282.5q0 -182 125.5 -296.5t321.5 -114.5z" />
    <glyph glyph-name="q" unicode="q" horiz-adv-x="1642" 
d="M1235 -451h-123l121 695q-104 -133 -261.5 -206t-330.5 -73q-239 0 -385.5 136.5t-146.5 357.5q0 134 58 262t156.5 225t238.5 156t294 59q168 0 298 -72t187 -208h7l45 247h118zM674 66q125 0 241 49.5t199.5 130t133.5 187t50 216.5q0 186 -126 299t-320 113
q-125 0 -239 -50t-194 -131t-127.5 -188t-47.5 -219q0 -183 119 -295t311 -112z" />
    <glyph glyph-name="r" unicode="r" horiz-adv-x="993" 
d="M256 0h-123l199 1128h119l-48 -243h11q75 124 214 200t290 76q88 0 153 -22l-20 -121q-63 29 -170 29q-98 0 -189.5 -41t-159 -108t-114 -153t-62.5 -176z" />
    <glyph glyph-name="s" unicode="s" horiz-adv-x="1193" 
d="M524 -35q-190 0 -325 87.5t-166 228.5l121 34q35 -113 145 -182.5t252 -69.5q151 0 263 73.5t112 174.5q0 26 -8.5 47.5t-20 37t-36 30.5t-42 23.5t-52.5 19t-54 15t-60 14.5l-118 30q-28 7 -39.5 10t-44.5 12.5t-51 17t-49 22t-49.5 28.5t-42 35t-36 43.5t-21.5 52
t-9 62.5q0 93 65 174t176.5 128.5t241.5 47.5q168 0 285 -77t145 -197l-129 -37q-22 90 -107.5 151.5t-220.5 61.5q-137 0 -231 -65t-94 -158q0 -29 11 -55t26.5 -44.5t42 -36t48.5 -28.5t56 -22.5t54 -17t52 -13.5l127 -31q35 -9 49 -13t50.5 -15t55 -20t49 -24.5t47 -32.5
t34 -39t25.5 -50t8 -60q0 -69 -40.5 -136t-110.5 -119.5t-171 -85t-213 -32.5z" />
    <glyph glyph-name="t" unicode="t" horiz-adv-x="882" 
d="M483 -35q-48 0 -86.5 8.5t-65 22.5t-46 35.5t-30.5 43t-16.5 51t-6.5 53.5t1.5 55.5t6 51.5t8.5 48l125 696h-271l15 98h270l59 338h125l-57 -338h422l-14 -98h-426l-121 -668q-5 -29 -7.5 -44t-6 -44t-3.5 -45.5t2 -41.5t9 -40t18.5 -32t29 -26.5t42.5 -16t57 -6.5
q117 0 244 65l-19 -108q-116 -58 -258 -58z" />
    <glyph glyph-name="u" unicode="u" horiz-adv-x="1529" 
d="M592 -35q-60 0 -114 9.5t-107 31t-91.5 56.5t-67.5 85.5t-35 118t7 154.5l125 708h123l-117 -661q-11 -79 -7.5 -139t27 -105t54 -75t73 -48t85 -26t88.5 -8q106 0 200.5 38t160 99.5t108 134.5t55.5 147l115 643h123l-137 -776q-39 -213 -17 -352h-127q-13 134 6 221h-6
q-202 -256 -524 -256z" />
    <glyph glyph-name="v" unicode="v" horiz-adv-x="1308" 
d="M618 0h-124l-351 1128h136l299 -993h4q129 196 376 573.5t275 419.5h133z" />
    <glyph glyph-name="w" unicode="w" horiz-adv-x="2209" 
d="M573 0h-120l-303 1128h133l256 -974h6l596 974h133l260 -974h4l592 974h135l-700 -1128h-123q-164 598 -252 997h-6q-288 -488 -611 -997z" />
    <glyph glyph-name="x" unicode="x" horiz-adv-x="1226" 
d="M80 0h-135q52 50 91.5 88t68.5 66t137.5 131.5t296.5 281.5v4l-398 557h144q67 -96 194 -273.5t148 -207.5h4q72 69 222.5 209t289.5 272h143q-71 -67 -268.5 -251t-325.5 -306v-4q44 -66 60.5 -90.5t36.5 -54.5t46 -66.5t47.5 -67.5t84.5 -120.5t118 -167.5h-135
q-313 446 -346 494h-4q-76 -74 -251.5 -238.5t-268.5 -255.5z" />
    <glyph glyph-name="y" unicode="y" horiz-adv-x="1308" 
d="M315 -451h-106l287 441l-353 1138h136q54 -172 152 -504t147 -491h6q70 107 203.5 314.5t240 371.5t203.5 309h135z" />
    <glyph glyph-name="z" unicode="z" horiz-adv-x="1163" 
d="M1012 0h-1043l15 82l985 944h-768l16 102h936l-12 -81l-991 -945h876z" />
    <glyph glyph-name="braceleft" unicode="{" horiz-adv-x="858" 
d="M662 -307h-82q-135 0 -223 28t-133 84t-56.5 139t8.5 193l29 168q13 77 16.5 124.5t0 80t-20.5 47t-39.5 20t-63.5 5.5l23 127h3q20 0 29.5 0.5t26 2t24.5 5t21 10t20.5 17t18 25t17 35t15 47t16 60t14.5 74.5l28 170q9 53 21 96t33 90.5t49 83.5t70.5 69.5t96.5 55
t128 34.5t163 13h82l-14 -100h-80q-182 0 -283 -68t-131 -227l-38 -211q-32 -167 -78 -243t-127 -101v-4q35 -10 56.5 -29.5t34 -57.5t10.5 -101.5t-19 -155.5l-37 -211q-8 -43 -9 -78.5t7 -70t30 -60t57.5 -45.5t91.5 -30.5t130 -10.5h80z" />
    <glyph glyph-name="bar" unicode="|" horiz-adv-x="622" 
d="M197 -451h-129l368 2089h129z" />
    <glyph glyph-name="braceright" unicode="}" horiz-adv-x="858" 
d="M-27 -307h-82l15 100h80q192 0 290 71.5t125 223.5l37 211q29 161 74.5 240.5t130.5 103.5l2 4q-35 11 -56.5 30t-35 57t-11.5 101t19 156l37 211q9 49 10 86t-13 78.5t-47 68.5t-98 44.5t-159 17.5h-78l14 100h82q259 0 353.5 -106t52.5 -336l-31 -170
q-14 -80 -17.5 -130.5t0.5 -80.5t23 -44t39.5 -17.5t61.5 -3.5l-21 -127q-51 0 -78.5 -8t-52 -39t-40 -82.5t-34.5 -147.5l-33 -168q-11 -55 -23 -98t-33.5 -91t-49 -83.5t-70 -69t-95.5 -55t-126 -34.5t-162 -13z" />
    <glyph glyph-name="asciitilde" unicode="~" horiz-adv-x="1255" 
d="M819 588q-51 0 -92.5 14.5t-69 35t-52.5 41.5t-57 35.5t-69 14.5q-67 0 -108 -40t-52 -101h-118q15 79 65.5 135.5t113 81t130.5 24.5q50 0 90.5 -14.5t68 -35.5t52 -42.5t55.5 -36t66 -14.5q61 0 99 40.5t48 102.5h119q-21 -119 -102.5 -180t-186.5 -61z" />
    <glyph glyph-name="uni00A0" unicode="&#xa0;" horiz-adv-x="659" 
 />
    <glyph glyph-name="exclamdown" unicode="&#xa1;" horiz-adv-x="577" 
d="M360 956q-43 0 -72.5 24.5t-29.5 59.5q0 46 42 83.5t97 37.5q41 0 69 -25.5t28 -62.5q0 -46 -40 -81.5t-94 -35.5zM188 -449h-155l14 89l244 1134h76l-164 -1134z" />
    <glyph glyph-name="cent" unicode="&#xa2;" horiz-adv-x="1372" 
d="M854 1133l-143 -811q143 7 254.5 75t181.5 176l94 -30q-87 -141 -232 -220t-315 -87l-41 -236h-100l43 240q-187 17 -295 124.5t-108 278.5q0 140 71.5 265t204.5 209.5t299 99.5l45 249h100l-43 -245q140 -7 246.5 -69.5t145.5 -188.5l-109 -35q-23 88 -102.5 143
t-196.5 62zM309 657q0 -138 80.5 -225t220.5 -106l144 804q-194 -23 -319.5 -161.5t-125.5 -311.5z" />
    <glyph glyph-name="sterling" unicode="&#xa3;" horiz-adv-x="1439" 
d="M887 1524q-168 0 -283 -84t-115 -211q0 -53 21.5 -108t48.5 -93t68 -94.5t63 -93.5h524l-18 -99h-459q17 -56 17 -104q0 -147 -131 -289.5t-353 -234.5h990l-19 -113h-1212l16 113q264 84 417.5 218t153.5 277q0 67 -32 133h-381l18 99h305q-10 14 -46 65t-50 75
t-37 67.5t-32 84.5t-9 85q0 175 157.5 294t399.5 119q66 0 127.5 -9.5t127 -36t115.5 -67.5t87 -110t47 -158l-123 -43q-15 88 -55 152t-97 99t-119 51t-132 16z" />
    <glyph glyph-name="currency" unicode="&#xa4;" horiz-adv-x="1613" 
d="M1311 883q0 -94 -41.5 -179t-116.5 -147l270 -326l-100 -69l-274 330q-124 -62 -267 -62q-146 0 -241 62l-391 -330l-78 69l389 328q-64 83 -64 199q0 90 40 174t114 149l-270 328l100 70l276 -326q121 59 267 59q149 0 243 -61l387 328l80 -70l-387 -328q64 -80 64 -198
zM518 774q0 -116 76 -184t205 -68q163 0 277 102.5t114 245.5q0 116 -75.5 183t-203.5 67q-163 0 -278 -102t-115 -244z" />
    <glyph glyph-name="yen" unicode="&#xa5;" horiz-adv-x="1740" 
d="M831 0h-133l52 283h-447l16 102h449l37 205h-447l19 102h381l-498 905h146l483 -890h4q90 100 144.5 162t85.5 98t172 191t403 439h139l-815 -905h385l-16 -102h-453l-39 -205h451l-15 -102h-452z" />
    <glyph glyph-name="brokenbar" unicode="&#xa6;" horiz-adv-x="622" 
d="M424 840h-129l141 798h129zM197 -451h-129l139 791h129z" />
    <glyph glyph-name="section" unicode="&#xa7;" horiz-adv-x="1300" 
d="M514 -301q-197 0 -334.5 97t-165.5 247l121 31q34 -122 145 -200.5t257 -78.5q143 0 250.5 72.5t107.5 171.5q0 33 -14.5 59.5t-29 42t-56 33.5t-59.5 24t-75 23q-17 5 -26 8l-115 33q-40 12 -65.5 21t-69.5 27t-73 39t-59 49.5t-45 66.5t-15 82q0 104 81 190.5
t222 122.5l-2 4q-77 35 -129 93.5t-52 142.5q0 141 143.5 243.5t358.5 102.5q75 0 139.5 -15t123 -48.5t97.5 -95t52 -146.5l-127 -33q-25 126 -97.5 184t-209.5 58q-152 0 -251.5 -64.5t-99.5 -157.5q0 -29 10.5 -55t24.5 -44t40.5 -36t46 -28t55.5 -23t53 -18t53 -15
l145 -43q33 -9 51 -14.5t52.5 -18.5t55.5 -24.5t47.5 -31t41.5 -40.5t26 -50t11 -62q0 -103 -86.5 -198t-218.5 -138l-4 -4q85 -32 137.5 -81.5t52.5 -133.5q0 -94 -68.5 -179t-190 -138.5t-263.5 -53.5zM600 358l66 -16q160 9 256 83t96 167q0 34 -15.5 61t-31.5 43t-58 33
t-60 22.5t-73 19.5q-12 3 -18 5l-98 27q-76 20 -157 -8t-133 -88t-52 -127q0 -40 20.5 -74t48 -56t70 -42t72 -29.5t67.5 -20.5z" />
    <glyph glyph-name="copyright" unicode="&#xa9;" horiz-adv-x="2338" 
d="M1067 -35q-256 0 -452.5 88.5t-304 249t-107.5 369.5q0 187 90.5 362.5t244 306.5t370 210t454.5 79q256 0 452.5 -87.5t304 -247.5t107.5 -369q0 -187 -90.5 -363t-244 -307.5t-370 -211t-454.5 -79.5zM1085 72q210 0 399.5 69.5t323.5 184t212.5 268t78.5 317.5
q0 276 -208.5 445.5t-547.5 169.5q-209 0 -398.5 -69t-323 -184t-212.5 -268t-79 -317q0 -278 207 -447t548 -169zM1141 350q-198 0 -314 101t-116 272q0 101 44.5 196t121 167.5t188.5 116.5t238 44q156 0 261 -66.5t134 -187.5l-127 -37q-20 93 -96.5 144t-192.5 51
q-97 0 -181 -37t-139 -96.5t-86.5 -134t-31.5 -150.5q0 -134 86.5 -209t234.5 -75q130 0 236.5 59.5t175.5 171.5l104 -29q-79 -142 -222.5 -221.5t-317.5 -79.5z" />
    <glyph glyph-name="guillemotleft" unicode="&#xab;" horiz-adv-x="1329" 
d="M635 164h-152l-340 405l2 9l486 405h149l-485 -405l-2 -9zM1085 164h-149l-342 405l4 9l483 405h152l-488 -405l-2 -9z" />
    <glyph glyph-name="logicalnot" unicode="&#xac;" horiz-adv-x="1234" 
d="M987 270h-121l54 308h-723l18 104h842z" />
    <glyph glyph-name="registered" unicode="&#xae;" horiz-adv-x="1413" 
d="M737 741q-209 0 -337 105t-128 274q0 134 81.5 252t226 190t315.5 72q205 0 334 -105.5t129 -273.5q0 -99 -48.5 -192.5t-130.5 -164.5t-198 -114t-244 -43zM752 815q110 0 208 36.5t165 97t106 138t39 158.5q0 141 -107 229.5t-280 88.5q-144 0 -265 -60.5t-189.5 -159
t-68.5 -210.5q0 -143 107.5 -230.5t284.5 -87.5zM674 946h-86l86 494h213q83 0 130.5 -34t47.5 -93q0 -61 -45.5 -111t-116.5 -65l123 -191h-98l-117 182h-104zM748 1368l-29 -170h127q58 0 94.5 28t36.5 68q0 74 -111 74h-118z" />
    <glyph glyph-name="degree" unicode="&#xb0;" horiz-adv-x="942" 
d="M555 1057q-135 0 -218 69.5t-83 182.5q0 135 119 237.5t286 102.5q133 0 217.5 -70t84.5 -182q0 -134 -120 -237t-286 -103zM569 1139q116 0 200.5 74.5t84.5 172.5q0 79 -58.5 129t-150.5 50q-116 0 -199.5 -75.5t-83.5 -172.5q0 -78 57.5 -128t149.5 -50z" />
    <glyph glyph-name="plusminus" unicode="&#xb1;" horiz-adv-x="1232" 
d="M1077 770l-16 -102h-363l-39 -213h363l-16 -95h-846l16 95h363l39 213h-363l16 102h363l41 250h123l-43 -250h362z" />
    <glyph glyph-name="uni00B2" unicode="&#xb2;" horiz-adv-x="737" 
d="M694 817h-547l5 8q32 114 90.5 170t236.5 148q26 14 39.5 21.5t47.5 30t53 41.5t36 46.5t17 54.5q0 46 -39.5 74.5t-102.5 28.5q-84 0 -146 -47.5t-75 -124.5l-92 14q17 105 109.5 172.5t216.5 67.5q103 0 168 -47t65 -125q0 -133 -201 -242q-31 -17 -79 -41.5t-71 -37.5
t-52.5 -33t-47.5 -42t-32 -51h414z" />
    <glyph glyph-name="uni00B3" unicode="&#xb3;" horiz-adv-x="753" 
d="M418 803q-107 0 -182.5 44t-88.5 114l97 38q16 -55 62.5 -86.5t121.5 -31.5q85 0 144 43t59 102q0 53 -46.5 81t-127.5 28h-82l10 69h88q83 0 139 39.5t56 97.5q0 46 -41.5 73.5t-106.5 27.5q-71 0 -124.5 -33.5t-73.5 -91.5l-91 18q27 84 115.5 135.5t194.5 51.5
q97 0 164 -42.5t67 -113.5q0 -62 -49 -116.5t-121 -71.5q62 -11 99.5 -47.5t37.5 -90.5q0 -97 -95 -167t-226 -70z" />
    <glyph glyph-name="paragraph" unicode="&#xb6;" horiz-adv-x="1708" 
d="M944 -287h-133l166 942h-301q-227 0 -360.5 109t-133.5 295q0 108 50.5 206t140.5 171.5t224 117t292 43.5h387zM1264 -287h-134l332 1884h133z" />
    <glyph glyph-name="periodcentered" unicode="&#xb7;" horiz-adv-x="641" 
d="M334 477q-52 0 -87.5 31t-35.5 76q0 57 50 100t116 43q51 0 86 -29t35 -73q0 -56 -50 -102t-114 -46z" />
    <glyph glyph-name="uni00B9" unicode="&#xb9;" horiz-adv-x="507" 
d="M389 817h-102l92 524q-88 -68 -199 -84l17 91q82 18 144 62.5t71 96.5h94z" />
    <glyph glyph-name="guillemotright" unicode="&#xbb;" horiz-adv-x="1331" 
d="M254 164h-150l484 405l2 9l-340 405h149l342 -405l-2 -9zM705 164h-150l485 405l2 9l-340 405h148l344 -405l-4 -9z" />
    <glyph glyph-name="onequarter" unicode="&#xbc;" horiz-adv-x="1515" 
d="M389 817h-102l92 524q-88 -68 -199 -84l17 91q82 18 144 62.5t71 96.5h94zM-47 0h-119l1624 1468h111zM1219 -14h-99l29 159h-414l15 82l493 449h98l-79 -453h118l-14 -78h-117zM1221 553l-369 -330h311z" />
    <glyph glyph-name="onehalf" unicode="&#xbd;" horiz-adv-x="1552" 
d="M389 817h-102l92 524q-88 -68 -199 -84l17 91q82 18 144 62.5t71 96.5h94zM-47 0h-119l1624 1468h111zM1362 -14h-547l4 8q32 113 90.5 168.5t237.5 148.5q192 102 192 195q0 46 -39 74t-102 28q-84 0 -146 -47.5t-75 -124.5l-92 15q17 105 109 172t216 67
q103 0 168.5 -47t65.5 -125q0 -133 -201 -242q-32 -17 -79 -41t-71 -37t-53 -33t-47 -42t-32 -51h413z" />
    <glyph glyph-name="threequarters" unicode="&#xbe;" horiz-adv-x="1761" 
d="M418 803q-107 0 -182.5 44t-88.5 114l97 38q16 -55 62.5 -86.5t121.5 -31.5q85 0 144 43t59 102q0 53 -46.5 81t-127.5 28h-82l10 69h88q83 0 139 39.5t56 97.5q0 46 -41.5 73.5t-106.5 27.5q-71 0 -124.5 -33.5t-73.5 -91.5l-91 18q27 84 115.5 135.5t194.5 51.5
q97 0 164 -42.5t67 -113.5q0 -62 -49 -116.5t-121 -71.5q62 -11 99.5 -47.5t37.5 -90.5q0 -97 -95 -167t-226 -70zM199 0h-119l1624 1468h111zM1464 -14h-98l29 159h-414l14 82l494 449h98l-80 -453h119l-14 -78h-117zM1466 553l-368 -330h311z" />
    <glyph glyph-name="questiondown" unicode="&#xbf;" horiz-adv-x="1243" 
d="M764 956q-43 0 -72.5 24.5t-29.5 59.5q0 47 41 84t94 37q43 0 72.5 -26t29.5 -64q0 -45 -40 -80t-95 -35zM440 -483q-92 0 -175 23t-148 66.5t-103.5 111.5t-38.5 151q0 54 18 107t44.5 95.5t69 86.5t77.5 74t85.5 64.5t78 51.5t68.5 41q51 30 74.5 45t61 41.5t54.5 44.5
t40 47.5t31.5 58.5t15 67.5t5.5 84.5h117q2 -40 -1.5 -75.5t-9.5 -64.5t-21 -57.5t-28.5 -49.5t-40 -45.5t-47 -42t-58 -42.5t-65 -42t-75.5 -46q-358 -210 -358 -426q0 -125 101.5 -196.5t252.5 -71.5q86 0 170 27.5t153.5 77.5t112.5 128.5t43 172.5l111 -19
q-1 -108 -54 -201.5t-140 -155.5t-196.5 -97t-224.5 -35z" />
    <glyph glyph-name="Agrave" unicode="&#xc0;" horiz-adv-x="1792" 
d="M1194 1720h-117l-354 318h207zM82 0h-141l1071 1597h137l506 -1597h-139q-113 349 -187 584h-856q-154 -227 -391 -584zM541 692h753q-170 550 -233 772h-4q-20 -30 -208.5 -310.5t-307.5 -461.5z" />
    <glyph glyph-name="Aacute" unicode="&#xc1;" horiz-adv-x="1792" 
d="M1593 2038l-465 -318h-114l377 318h202zM82 0h-141l1071 1597h137l506 -1597h-139q-113 349 -187 584h-856q-154 -227 -391 -584zM541 692h753q-170 550 -233 772h-4q-20 -30 -208.5 -310.5t-307.5 -461.5z" />
    <glyph glyph-name="Acircumflex" unicode="&#xc2;" horiz-adv-x="1792" 
d="M1243 2017l264 -297h-114q-195 175 -248 228q-30 -21 -80.5 -58.5t-101.5 -72t-148 -97.5h-117l369 297h176zM82 0h-141l1071 1597h137l506 -1597h-139q-113 349 -187 584h-856q-154 -227 -391 -584zM541 692h753q-170 550 -233 772h-4q-20 -30 -208.5 -310.5
t-307.5 -461.5z" />
    <glyph glyph-name="Atilde" unicode="&#xc3;" horiz-adv-x="1792" 
d="M1305 1751q-33 0 -58 5t-51 20t-35 22t-39 31l-39 33q-2 2 -18 14.5t-21.5 15.5t-19 10.5t-26.5 10t-29 2.5q-60 0 -104 -42t-58 -108h-98q22 106 100 172t182 66q83 0 164 -70l45 -37q66 -57 131 -57q57 0 99.5 42t54.5 108h100q-21 -107 -96 -172.5t-184 -65.5zM82 0
h-141l1071 1597h137l506 -1597h-139q-113 349 -187 584h-856q-154 -227 -391 -584zM541 692h753q-170 550 -233 772h-4q-20 -30 -208.5 -310.5t-307.5 -461.5z" />
    <glyph glyph-name="Adieresis" unicode="&#xc4;" horiz-adv-x="1792" 
d="M889 1794q-42 0 -70 24t-28 60q0 43 39 77t90 34q41 0 67.5 -23t26.5 -57q0 -46 -37.5 -80.5t-87.5 -34.5zM1346 1794q-43 0 -71 24t-28 58q0 46 39 79.5t90 33.5q41 0 69 -24t28 -58q0 -43 -39 -78t-88 -35zM82 0h-141l1071 1597h137l506 -1597h-139q-113 349 -187 584
h-856q-154 -227 -391 -584zM541 692h753q-170 550 -233 772h-4q-20 -30 -208.5 -310.5t-307.5 -461.5z" />
    <glyph glyph-name="Aring" unicode="&#xc5;" horiz-adv-x="1792" 
d="M1100 1714q-101 0 -163.5 51t-62.5 133q0 99 89.5 172.5t214.5 73.5q101 0 163 -51t62 -133q0 -98 -88.5 -172t-214.5 -74zM1116 1800q78 0 133.5 45t55.5 109q0 48 -41 76t-103 28q-80 0 -134 -43.5t-54 -107.5q0 -50 40 -78.5t103 -28.5zM82 0h-141l1071 1597h137
l506 -1597h-139q-113 349 -187 584h-856q-154 -227 -391 -584zM541 692h753q-170 550 -233 772h-4q-20 -30 -208.5 -310.5t-307.5 -461.5z" />
    <glyph glyph-name="AE" unicode="&#xc6;" horiz-adv-x="2523" 
d="M6 0h-141l1423 1597h1268l-19 -106h-1062q-13 -75 -35 -194.5t-76 -419.5h1014l-19 -109h-1013q-14 -81 -21.5 -122t-12.5 -67t-27 -146t-58 -320h1087l-18 -113h-1219q12 58 18 92t10.5 62.5t25 140.5t53.5 289h-654q-47 -52 -134.5 -148t-136 -149.5t-119.5 -133
t-134 -153.5zM618 692h580q11 61 38.5 209t106.5 590h-6q-452 -506 -719 -799z" />
    <glyph glyph-name="Ccedilla" unicode="&#xc7;" horiz-adv-x="2068" 
d="M1032 76q156 0 296 41t246 111.5t184.5 158t129.5 188.5l111 -38q-64 -119 -156.5 -219.5t-216.5 -181t-286 -126t-345 -45.5l-133 -131q51 19 109 19q88 0 140 -37t52 -99q0 -83 -83.5 -143.5t-207.5 -60.5q-80 0 -155.5 29t-120.5 79l68 49q32 -40 90.5 -65t119.5 -25
q80 0 136.5 36.5t56.5 88.5q0 39 -39 63.5t-98 24.5q-67 0 -121 -26l-51 49l145 153q-340 23 -539.5 208t-199.5 480q0 187 87 365t234 311.5t355.5 215t437.5 81.5q131 0 253.5 -28t227 -83t178.5 -145t99 -205l-127 -43q-56 186 -233.5 290t-415.5 104q-197 0 -376 -72
t-304.5 -189.5t-199 -272t-73.5 -316.5q0 -120 39.5 -219.5t108 -168t161.5 -115.5t197.5 -69t218.5 -22z" />
    <glyph glyph-name="Egrave" unicode="&#xc8;" horiz-adv-x="1615" 
d="M1124 1720h-116l-355 318h207zM1393 0h-1221l283 1597h1196l-19 -106h-1063q-49 -261 -110 -614h1014l-17 -109h-1016q-15 -78 -33.5 -189.5t-84.5 -465.5h1089z" />
    <glyph glyph-name="Eacute" unicode="&#xc9;" horiz-adv-x="1615" 
d="M1524 2038l-465 -318h-115l377 318h203zM1393 0h-1221l283 1597h1196l-19 -106h-1063q-49 -261 -110 -614h1014l-17 -109h-1016q-15 -78 -33.5 -189.5t-84.5 -465.5h1089z" />
    <glyph glyph-name="Ecircumflex" unicode="&#xca;" horiz-adv-x="1615" 
d="M1171 2017l265 -297h-115q-195 175 -248 228q-30 -21 -80.5 -58.5t-101.5 -72t-148 -97.5h-116l368 297h176zM1393 0h-1221l283 1597h1196l-19 -106h-1063q-49 -261 -110 -614h1014l-17 -109h-1016q-15 -78 -33.5 -189.5t-84.5 -465.5h1089z" />
    <glyph glyph-name="Edieresis" unicode="&#xcb;" horiz-adv-x="1615" 
d="M819 1794q-42 0 -70 24t-28 60q0 43 39 77t90 34q41 0 67.5 -23t26.5 -57q0 -46 -37.5 -80.5t-87.5 -34.5zM1276 1794q-43 0 -70.5 23.5t-27.5 58.5q0 46 39 79.5t90 33.5q41 0 68.5 -24t27.5 -58q0 -43 -39 -78t-88 -35zM1393 0h-1221l283 1597h1196l-19 -106h-1063
q-49 -261 -110 -614h1014l-17 -109h-1016q-15 -78 -33.5 -189.5t-84.5 -465.5h1089z" />
    <glyph glyph-name="Igrave" unicode="&#xcc;" horiz-adv-x="675" 
d="M637 1720h-117l-354 318h207zM305 0h-133l283 1597h133z" />
    <glyph glyph-name="Iacute" unicode="&#xcd;" horiz-adv-x="675" 
d="M1036 2038l-465 -318h-114l377 318h202zM305 0h-133l283 1597h133z" />
    <glyph glyph-name="Icircumflex" unicode="&#xce;" horiz-adv-x="675" 
d="M686 2017l264 -297h-114q-195 175 -248 228q-30 -21 -80.5 -58.5t-101.5 -72t-148 -97.5h-117l369 297h176zM305 0h-133l283 1597h133z" />
    <glyph glyph-name="Idieresis" unicode="&#xcf;" horiz-adv-x="675" 
d="M332 1794q-42 0 -70.5 24t-28.5 60q0 43 39 77t90 34q41 0 68 -23t27 -57q0 -46 -37.5 -80.5t-87.5 -34.5zM788 1794q-43 0 -70.5 23.5t-27.5 58.5q0 46 39 79.5t90 33.5q41 0 68.5 -24t27.5 -58q0 -43 -39 -78t-88 -35zM305 0h-133l283 1597h133z" />
    <glyph glyph-name="Eth" unicode="&#xd0;" horiz-adv-x="1982" 
d="M455 1597h659q393 0 588.5 -170t195.5 -475q0 -147 -46.5 -287.5t-138 -260.5t-216 -210.5t-291 -142t-352.5 -51.5h-682l133 750h-194l14 96h197zM893 106q130 0 248.5 31.5t212.5 87.5t171.5 133.5t128.5 168.5t79 192.5t28 206.5q0 279 -178 422t-512 143h-502
q-78 -431 -116 -645h694l-14 -96h-699q-30 -164 -112 -644h571z" />
    <glyph glyph-name="Ntilde" unicode="&#xd1;" horiz-adv-x="2031" 
d="M1393 1808q-33 0 -58 5t-51 20t-35 22t-39 31l-39 33q-2 2 -18 14.5t-21.5 15.5t-19 10.5t-26.5 10t-29 2.5q-60 0 -104 -41.5t-58 -107.5h-98q22 106 100 171.5t182 65.5q84 0 164 -69l45 -37q67 -58 131 -58q57 0 99.5 42t54.5 108h100q-21 -107 -96 -172.5t-184 -65.5
zM305 0h-133l283 1597h147q626 -924 950 -1419h7q46 261 132.5 737t123.5 682h129l-283 -1597h-143q-80 118 -426.5 620.5t-532.5 782.5h-2q-13 -73 -107 -588.5t-145 -814.5z" />
    <glyph glyph-name="Ograve" unicode="&#xd2;" horiz-adv-x="2185" 
d="M1391 1720h-117l-354 318h206zM989 -35q-239 0 -427.5 90t-294 251t-105.5 364q0 123 41 244.5t114 227t178 196t227 155t266.5 101t293.5 36.5q238 0 426 -90t293.5 -251.5t105.5 -364.5q0 -123 -41.5 -244.5t-115 -226.5t-178 -195.5t-226.5 -155t-266 -101t-291 -36.5
zM1010 76q125 0 246.5 32t225.5 88.5t193 135.5t151.5 170.5t98 197t35.5 211.5q0 174 -88.5 313t-248 217.5t-359.5 78.5q-148 0 -292 -44.5t-262.5 -124t-209.5 -183.5t-142 -229.5t-51 -254.5q0 -176 92 -315.5t252 -216t359 -76.5z" />
    <glyph glyph-name="Oacute" unicode="&#xd3;" horiz-adv-x="2185" 
d="M1788 2038l-465 -318h-115l377 318h203zM989 -35q-239 0 -427.5 90t-294 251t-105.5 364q0 123 41 244.5t114 227t178 196t227 155t266.5 101t293.5 36.5q238 0 426 -90t293.5 -251.5t105.5 -364.5q0 -123 -41.5 -244.5t-115 -226.5t-178 -195.5t-226.5 -155t-266 -101
t-291 -36.5zM1010 76q125 0 246.5 32t225.5 88.5t193 135.5t151.5 170.5t98 197t35.5 211.5q0 174 -88.5 313t-248 217.5t-359.5 78.5q-148 0 -292 -44.5t-262.5 -124t-209.5 -183.5t-142 -229.5t-51 -254.5q0 -176 92 -315.5t252 -216t359 -76.5z" />
    <glyph glyph-name="Ocircumflex" unicode="&#xd4;" horiz-adv-x="2185" 
d="M1438 2017l264 -297h-115q-195 175 -248 228q-32 -23 -80.5 -59t-100 -71t-148.5 -98h-117l369 297h176zM989 -35q-239 0 -427.5 90t-294 251t-105.5 364q0 123 41 244.5t114 227t178 196t227 155t266.5 101t293.5 36.5q238 0 426 -90t293.5 -251.5t105.5 -364.5
q0 -123 -41.5 -244.5t-115 -226.5t-178 -195.5t-226.5 -155t-266 -101t-291 -36.5zM1010 76q125 0 246.5 32t225.5 88.5t193 135.5t151.5 170.5t98 197t35.5 211.5q0 174 -88.5 313t-248 217.5t-359.5 78.5q-148 0 -292 -44.5t-262.5 -124t-209.5 -183.5t-142 -229.5
t-51 -254.5q0 -176 92 -315.5t252 -216t359 -76.5z" />
    <glyph glyph-name="Otilde" unicode="&#xd5;" horiz-adv-x="2185" 
d="M1493 1808q-40 0 -73.5 11t-50.5 22.5t-48 36.5q-7 5 -10 8l-39 33q-4 3 -16 12.5t-17 13t-16 10t-19.5 9.5t-21 5.5t-25.5 2.5q-60 0 -104 -41.5t-58 -107.5h-98q22 106 100.5 171.5t182.5 65.5q50 0 87 -18t76 -51l46 -37q67 -58 131 -58q57 0 99 42t54 108h101
q-21 -107 -96.5 -172.5t-184.5 -65.5zM989 -35q-239 0 -427.5 90t-294 251t-105.5 364q0 123 41 244.5t114 227t178 196t227 155t266.5 101t293.5 36.5q238 0 426 -90t293.5 -251.5t105.5 -364.5q0 -123 -41.5 -244.5t-115 -226.5t-178 -195.5t-226.5 -155t-266 -101
t-291 -36.5zM1010 76q125 0 246.5 32t225.5 88.5t193 135.5t151.5 170.5t98 197t35.5 211.5q0 174 -88.5 313t-248 217.5t-359.5 78.5q-148 0 -292 -44.5t-262.5 -124t-209.5 -183.5t-142 -229.5t-51 -254.5q0 -176 92 -315.5t252 -216t359 -76.5z" />
    <glyph glyph-name="Odieresis" unicode="&#xd6;" horiz-adv-x="2185" 
d="M1083 1794q-42 0 -70 24t-28 60q0 43 39 77t90 34q41 0 67.5 -23t26.5 -57q0 -46 -37.5 -80.5t-87.5 -34.5zM1540 1794q-43 0 -70.5 23.5t-27.5 58.5q0 46 39 79.5t90 33.5q41 0 68.5 -24t27.5 -58q0 -43 -39 -78t-88 -35zM989 -35q-239 0 -427.5 90t-294 251t-105.5 364
q0 123 41 244.5t114 227t178 196t227 155t266.5 101t293.5 36.5q238 0 426 -90t293.5 -251.5t105.5 -364.5q0 -123 -41.5 -244.5t-115 -226.5t-178 -195.5t-226.5 -155t-266 -101t-291 -36.5zM1010 76q125 0 246.5 32t225.5 88.5t193 135.5t151.5 170.5t98 197t35.5 211.5
q0 174 -88.5 313t-248 217.5t-359.5 78.5q-148 0 -292 -44.5t-262.5 -124t-209.5 -183.5t-142 -229.5t-51 -254.5q0 -176 92 -315.5t252 -216t359 -76.5z" />
    <glyph glyph-name="multiply" unicode="&#xd7;" horiz-adv-x="1085" 
d="M473 625l-229 223l100 76l227 -224l293 215l72 -73l-293 -215l225 -226l-98 -73l-225 223l-297 -217l-72 74z" />
    <glyph glyph-name="Oslash" unicode="&#xd8;" horiz-adv-x="2185" 
d="M2071 1661l-213 -215q119 -95 184 -229t65 -293q0 -123 -41.5 -244.5t-115 -226.5t-178 -195.5t-226.5 -155t-266 -101t-291 -36.5q-279 0 -489 123l-154 -154h-149l215 216q-120 95 -185 228.5t-65 291.5q0 123 41 244.5t114 227t178 196t227 155t266.5 101t293.5 36.5
q275 0 485 -123l152 154h152zM307 684q0 -131 53 -244t148 -194l1165 1167q-178 107 -409 107q-148 0 -292 -44.5t-262.5 -124t-209.5 -183.5t-142 -229.5t-51 -254.5zM1010 76q125 0 246.5 32t225.5 88.5t193 135.5t151.5 170.5t98 197t35.5 211.5q0 132 -52 245.5
t-147 193.5l-1167 -1168q179 -106 416 -106z" />
    <glyph glyph-name="Ugrave" unicode="&#xd9;" horiz-adv-x="1855" 
d="M1227 1720h-117l-354 318h207zM819 -35q-151 0 -266.5 37t-192.5 110t-105 190t-1 269l180 1026h133l-180 -1019q-46 -259 75.5 -382.5t379.5 -123.5q170 0 299.5 52t218.5 167t119 287l182 1019h131l-182 -1026q-51 -279 -254 -442.5t-537 -163.5z" />
    <glyph glyph-name="Uacute" unicode="&#xda;" horiz-adv-x="1855" 
d="M1399 2038l-463 -318h-117l377 318h203zM819 -35q-151 0 -266.5 37t-192.5 110t-105 190t-1 269l180 1026h133l-180 -1019q-46 -259 75.5 -382.5t379.5 -123.5q170 0 299.5 52t218.5 167t119 287l182 1019h131l-182 -1026q-51 -279 -254 -442.5t-537 -163.5z" />
    <glyph glyph-name="Ucircumflex" unicode="&#xdb;" horiz-adv-x="1855" 
d="M1276 2017l264 -297h-115q-185 166 -247 228q-30 -21 -80.5 -58.5t-101.5 -72t-148 -97.5h-117l369 297h176zM819 -35q-151 0 -266.5 37t-192.5 110t-105 190t-1 269l180 1026h133l-180 -1019q-46 -259 75.5 -382.5t379.5 -123.5q170 0 299.5 52t218.5 167t119 287
l182 1019h131l-182 -1026q-51 -279 -254 -442.5t-537 -163.5z" />
    <glyph glyph-name="Udieresis" unicode="&#xdc;" horiz-adv-x="1855" 
d="M922 1794q-42 0 -70.5 24t-28.5 60q0 43 39 77t90 34q41 0 68 -23t27 -57q0 -46 -37.5 -80.5t-87.5 -34.5zM1378 1794q-43 0 -70.5 23.5t-27.5 58.5q0 46 39 79.5t90 33.5q41 0 68.5 -24t27.5 -58q0 -43 -39 -78t-88 -35zM819 -35q-151 0 -266.5 37t-192.5 110t-105 190
t-1 269l180 1026h133l-180 -1019q-46 -259 75.5 -382.5t379.5 -123.5q170 0 299.5 52t218.5 167t119 287l182 1019h131l-182 -1026q-51 -279 -254 -442.5t-537 -163.5z" />
    <glyph glyph-name="Yacute" unicode="&#xdd;" horiz-adv-x="1679" 
d="M1522 2038l-463 -318h-117l377 318h203zM805 0h-131l106 592q-20 36 -226 407t-321 598h146l485 -895h4q89 99 143.5 162.5t86 100t172.5 192.5t403 440h139q-797 -890 -901 -1005q-92 -521 -106 -592z" />
    <glyph glyph-name="Thorn" unicode="&#xde;" horiz-adv-x="1667" 
d="M305 0h-133l283 1597h133l-51 -284h526q256 0 399.5 -106t143.5 -294q0 -106 -50 -205.5t-136 -176t-212 -123t-268 -46.5h-569zM518 1204l-133 -733h522q247 0 404 117t157 295q0 157 -117.5 239t-332.5 82h-500z" />
    <glyph glyph-name="germandbls" unicode="&#xdf;" horiz-adv-x="1480" 
d="M256 0h-123l209 1186q6 33 12 59.5t26.5 80t46.5 95t74.5 91.5t108.5 83t150 55.5t198 22.5q229 0 355.5 -95t126.5 -257q0 -167 -120 -303t-294 -162v-2q157 -19 245.5 -106t88.5 -222q0 -101 -54 -196.5t-147 -168.5t-228.5 -117t-287.5 -44h-174l16 96h181
q153 0 282 57.5t202 153t73 205.5q0 130 -100 210.5t-263 80.5h-117l15 96h114q96 0 178 33t137 88t85.5 126.5t30.5 147.5q0 128 -87 203.5t-268 75.5q-101 0 -183 -26.5t-132 -65t-86 -90t-51.5 -94.5t-22.5 -85z" />
    <glyph glyph-name="agrave" unicode="&#xe0;" horiz-adv-x="1402" 
d="M903 1278h-110l-306 393h185zM442 -35q-176 0 -276 65.5t-100 188.5q0 284 563 381q34 6 96.5 15t99 15t87.5 17.5t80.5 25.5t59 35t43 51t13.5 68q0 101 -90.5 168.5t-239.5 67.5q-143 0 -259 -67.5t-177 -180.5l-117 39q55 102 153.5 173.5t207 102.5t221.5 31
q70 0 135.5 -12.5t125 -41.5t101 -71t60 -106t4.5 -142l-78 -436q-10 -65 -13.5 -90t-8.5 -77.5t-3.5 -95.5t7.5 -89h-125q-15 125 8 250h-6q-93 -130 -237 -207.5t-335 -77.5zM465 59q90 0 177 26t153.5 68.5t120.5 95t85.5 106.5t40.5 102l31 164q-69 -42 -129 -59
t-223 -42q-51 -8 -83.5 -14t-93 -19.5t-101.5 -27t-91 -36.5t-80.5 -49t-51.5 -62.5t-21 -78.5q0 -80 71 -127t195 -47z" />
    <glyph glyph-name="aacute" unicode="&#xe1;" horiz-adv-x="1402" 
d="M1331 1671l-442 -393h-111l371 393h182zM442 -35q-176 0 -276 65.5t-100 188.5q0 284 563 381q34 6 96.5 15t99 15t87.5 17.5t80.5 25.5t59 35t43 51t13.5 68q0 101 -90.5 168.5t-239.5 67.5q-143 0 -259 -67.5t-177 -180.5l-117 39q55 102 153.5 173.5t207 102.5
t221.5 31q70 0 135.5 -12.5t125 -41.5t101 -71t60 -106t4.5 -142l-78 -436q-10 -65 -13.5 -90t-8.5 -77.5t-3.5 -95.5t7.5 -89h-125q-15 125 8 250h-6q-93 -130 -237 -207.5t-335 -77.5zM465 59q90 0 177 26t153.5 68.5t120.5 95t85.5 106.5t40.5 102l31 164
q-69 -42 -129 -59t-223 -42q-51 -8 -83.5 -14t-93 -19.5t-101.5 -27t-91 -36.5t-80.5 -49t-51.5 -62.5t-21 -78.5q0 -80 71 -127t195 -47z" />
    <glyph glyph-name="acircumflex" unicode="&#xe2;" horiz-adv-x="1402" 
d="M510 1278h-119l420 356h184l293 -356h-119q-23 23 -78.5 76t-105.5 103t-92 97q-102 -82 -383 -276zM442 -35q-176 0 -276 65.5t-100 188.5q0 284 563 381q34 6 96.5 15t99 15t87.5 17.5t80.5 25.5t59 35t43 51t13.5 68q0 101 -90.5 168.5t-239.5 67.5q-143 0 -259 -67.5
t-177 -180.5l-117 39q55 102 153.5 173.5t207 102.5t221.5 31q70 0 135.5 -12.5t125 -41.5t101 -71t60 -106t4.5 -142l-78 -436q-10 -65 -13.5 -90t-8.5 -77.5t-3.5 -95.5t7.5 -89h-125q-15 125 8 250h-6q-93 -130 -237 -207.5t-335 -77.5zM465 59q90 0 177 26t153.5 68.5
t120.5 95t85.5 106.5t40.5 102l31 164q-69 -42 -129 -59t-223 -42q-51 -8 -83.5 -14t-93 -19.5t-101.5 -27t-91 -36.5t-80.5 -49t-51.5 -62.5t-21 -78.5q0 -80 71 -127t195 -47z" />
    <glyph glyph-name="atilde" unicode="&#xe3;" horiz-adv-x="1402" 
d="M1032 1337q-40 0 -73.5 11t-50.5 22.5t-48 36.5q-7 5 -10 8l-39 33q-4 3 -16 12.5t-17 13t-16 10t-19.5 9.5t-21 5.5t-25.5 2.5q-60 0 -103.5 -41.5t-57.5 -107.5h-99q22 106 100.5 171.5t182.5 65.5q84 0 164 -69l45 -37q67 -58 131 -58q57 0 99 42t54 108h101
q-21 -107 -96.5 -172.5t-184.5 -65.5zM442 -35q-176 0 -276 65.5t-100 188.5q0 284 563 381q34 6 96.5 15t99 15t87.5 17.5t80.5 25.5t59 35t43 51t13.5 68q0 101 -90.5 168.5t-239.5 67.5q-143 0 -259 -67.5t-177 -180.5l-117 39q55 102 153.5 173.5t207 102.5t221.5 31
q70 0 135.5 -12.5t125 -41.5t101 -71t60 -106t4.5 -142l-78 -436q-10 -65 -13.5 -90t-8.5 -77.5t-3.5 -95.5t7.5 -89h-125q-15 125 8 250h-6q-93 -130 -237 -207.5t-335 -77.5zM465 59q90 0 177 26t153.5 68.5t120.5 95t85.5 106.5t40.5 102l31 164q-69 -42 -129 -59
t-223 -42q-51 -8 -83.5 -14t-93 -19.5t-101.5 -27t-91 -36.5t-80.5 -49t-51.5 -62.5t-21 -78.5q0 -80 71 -127t195 -47z" />
    <glyph glyph-name="adieresis" unicode="&#xe4;" horiz-adv-x="1402" 
d="M655 1382q-42 0 -70 24t-28 60q0 43 39 76t90 33q41 0 67.5 -22.5t26.5 -55.5q0 -45 -37.5 -80t-87.5 -35zM1065 1382q-42 0 -69 23t-27 59q0 46 37.5 78.5t89.5 32.5q40 0 68 -23t28 -57q0 -44 -39.5 -78.5t-87.5 -34.5zM442 -35q-176 0 -276 65.5t-100 188.5
q0 284 563 381q34 6 96.5 15t99 15t87.5 17.5t80.5 25.5t59 35t43 51t13.5 68q0 101 -90.5 168.5t-239.5 67.5q-143 0 -259 -67.5t-177 -180.5l-117 39q55 102 153.5 173.5t207 102.5t221.5 31q70 0 135.5 -12.5t125 -41.5t101 -71t60 -106t4.5 -142l-78 -436
q-10 -65 -13.5 -90t-8.5 -77.5t-3.5 -95.5t7.5 -89h-125q-15 125 8 250h-6q-93 -130 -237 -207.5t-335 -77.5zM465 59q90 0 177 26t153.5 68.5t120.5 95t85.5 106.5t40.5 102l31 164q-69 -42 -129 -59t-223 -42q-51 -8 -83.5 -14t-93 -19.5t-101.5 -27t-91 -36.5t-80.5 -49
t-51.5 -62.5t-21 -78.5q0 -80 71 -127t195 -47z" />
    <glyph glyph-name="aring" unicode="&#xe5;" horiz-adv-x="1402" 
d="M836 1245q-101 0 -164.5 51.5t-63.5 133.5q0 99 89 172t214 73q101 0 164.5 -51t63.5 -133q0 -98 -88.5 -172t-214.5 -74zM850 1331q80 0 135 45t55 109q0 48 -40.5 76t-102.5 28q-82 0 -136 -43t-54 -108q0 -50 40 -78.5t103 -28.5zM442 -35q-176 0 -276 65.5
t-100 188.5q0 284 563 381q34 6 96.5 15t99 15t87.5 17.5t80.5 25.5t59 35t43 51t13.5 68q0 101 -90.5 168.5t-239.5 67.5q-143 0 -259 -67.5t-177 -180.5l-117 39q55 102 153.5 173.5t207 102.5t221.5 31q70 0 135.5 -12.5t125 -41.5t101 -71t60 -106t4.5 -142l-78 -436
q-10 -65 -13.5 -90t-8.5 -77.5t-3.5 -95.5t7.5 -89h-125q-15 125 8 250h-6q-93 -130 -237 -207.5t-335 -77.5zM465 59q90 0 177 26t153.5 68.5t120.5 95t85.5 106.5t40.5 102l31 164q-69 -42 -129 -59t-223 -42q-51 -8 -83.5 -14t-93 -19.5t-101.5 -27t-91 -36.5t-80.5 -49
t-51.5 -62.5t-21 -78.5q0 -80 71 -127t195 -47z" />
    <glyph glyph-name="ae" unicode="&#xe6;" horiz-adv-x="2461" 
d="M430 -35q-166 0 -265 64.5t-99 191.5q0 285 567 379q33 6 98.5 15t99.5 15t86 17.5t80 25.5t57.5 35t42.5 50.5t13 66.5q0 101 -90.5 169.5t-239.5 68.5q-147 0 -261.5 -68.5t-174.5 -179.5l-119 39q85 151 245 229t337 78q71 0 139.5 -14t129.5 -43t103.5 -78.5
t53.5 -114.5q106 118 263.5 184t334.5 66q41 0 81.5 -4t86.5 -13.5t86.5 -25.5t81.5 -39t72.5 -55t58.5 -73t39.5 -93t16 -116t-12.5 -140l-8 -47h-1139q-38 -218 87.5 -353.5t358.5 -135.5q187 0 333.5 85.5t236.5 221.5l106 -35q-109 -177 -295.5 -275t-402.5 -98
q-208 0 -355 86.5t-180 249.5h-4q-93 -146 -266.5 -241t-382.5 -95zM1219 649h995q15 89 -2 161t-56 118.5t-97 77.5t-120.5 44t-130.5 13q-207 0 -367 -114.5t-222 -299.5zM465 59q110 0 215.5 40t179 100.5t122.5 129t60 128.5l29 166q-72 -45 -135 -62t-213 -39
q-42 -6 -71.5 -11t-80.5 -15t-88.5 -21.5t-84 -27.5t-79 -36.5t-61.5 -45t-44 -57t-15 -68.5q0 -84 71.5 -132.5t194.5 -48.5z" />
    <glyph glyph-name="ccedilla" unicode="&#xe7;" horiz-adv-x="1484" 
d="M702 66q188 0 335.5 85.5t238.5 223.5l106 -33q-109 -179 -288.5 -275t-388.5 -102l-134 -131q51 19 109 19q88 0 140 -37t52 -99q0 -83 -83 -143.5t-207 -60.5q-80 0 -156 29t-121 79l68 49q32 -40 91 -65t120 -25q80 0 136 36.5t56 88.5q0 39 -39 63.5t-98 24.5
q-67 0 -121 -26l-51 49l145 151q-235 19 -369 150.5t-134 343.5q0 136 58.5 263t160 224t249 155t314.5 58q86 0 164 -16.5t150 -52t126 -98.5t80 -148l-131 -41q-32 121 -141.5 188.5t-268.5 67.5q-135 0 -253.5 -50t-199 -132.5t-127 -188.5t-46.5 -217q0 -188 123 -297.5
t335 -109.5z" />
    <glyph glyph-name="egrave" unicode="&#xe8;" horiz-adv-x="1515" 
d="M950 1278h-110l-305 393h184zM670 -35q-256 0 -408.5 134.5t-152.5 359.5q0 135 59 262.5t160 224.5t248 156t311 59q49 0 96 -5.5t99 -18.5t96 -34t86.5 -52.5t71.5 -73.5t49.5 -97.5t21.5 -124t-12 -153.5l-11 -57h-1134q-38 -215 86.5 -348.5t357.5 -133.5
q184 0 332 87t238 223l106 -35q-109 -177 -296 -275t-404 -98zM270 649h998q16 89 -0.5 160.5t-56 118t-98 78t-121 44.5t-130.5 13q-207 0 -367.5 -114.5t-224.5 -299.5z" />
    <glyph glyph-name="eacute" unicode="&#xe9;" horiz-adv-x="1515" 
d="M1380 1671l-442 -393h-111l371 393h182zM670 -35q-256 0 -408.5 134.5t-152.5 359.5q0 135 59 262.5t160 224.5t248 156t311 59q49 0 96 -5.5t99 -18.5t96 -34t86.5 -52.5t71.5 -73.5t49.5 -97.5t21.5 -124t-12 -153.5l-11 -57h-1134q-38 -215 86.5 -348.5t357.5 -133.5
q184 0 332 87t238 223l106 -35q-109 -177 -296 -275t-404 -98zM270 649h998q16 89 -0.5 160.5t-56 118t-98 78t-121 44.5t-130.5 13q-207 0 -367.5 -114.5t-224.5 -299.5z" />
    <glyph glyph-name="ecircumflex" unicode="&#xea;" horiz-adv-x="1515" 
d="M557 1278h-119l420 356h184l293 -356h-118q-23 23 -78.5 75.5t-106 103t-92.5 97.5q-102 -82 -383 -276zM670 -35q-256 0 -408.5 134.5t-152.5 359.5q0 135 59 262.5t160 224.5t248 156t311 59q49 0 96 -5.5t99 -18.5t96 -34t86.5 -52.5t71.5 -73.5t49.5 -97.5t21.5 -124
t-12 -153.5l-11 -57h-1134q-38 -215 86.5 -348.5t357.5 -133.5q184 0 332 87t238 223l106 -35q-109 -177 -296 -275t-404 -98zM270 649h998q16 89 -0.5 160.5t-56 118t-98 78t-121 44.5t-130.5 13q-207 0 -367.5 -114.5t-224.5 -299.5z" />
    <glyph glyph-name="edieresis" unicode="&#xeb;" horiz-adv-x="1515" 
d="M705 1382q-42 0 -70.5 24.5t-28.5 59.5q0 43 39 76t90 33q41 0 67.5 -22.5t26.5 -55.5q0 -45 -37 -80t-87 -35zM1114 1382q-42 0 -69 23t-27 59q0 46 37.5 78.5t89.5 32.5q40 0 68 -23t28 -57q0 -44 -39.5 -78.5t-87.5 -34.5zM670 -35q-256 0 -408.5 134.5t-152.5 359.5
q0 135 59 262.5t160 224.5t248 156t311 59q49 0 96 -5.5t99 -18.5t96 -34t86.5 -52.5t71.5 -73.5t49.5 -97.5t21.5 -124t-12 -153.5l-11 -57h-1134q-38 -215 86.5 -348.5t357.5 -133.5q184 0 332 87t238 223l106 -35q-109 -177 -296 -275t-404 -98zM270 649h998
q16 89 -0.5 160.5t-56 118t-98 78t-121 44.5t-130.5 13q-207 0 -367.5 -114.5t-224.5 -299.5z" />
    <glyph glyph-name="igrave" unicode="&#xec;" horiz-adv-x="585" 
d="M481 1276h-110l-305 393h184zM256 0h-123l199 1128h123z" />
    <glyph glyph-name="iacute" unicode="&#xed;" horiz-adv-x="585" 
d="M909 1669l-442 -393h-111l371 393h182zM256 0h-123l199 1128h123z" />
    <glyph glyph-name="icircumflex" unicode="&#xee;" horiz-adv-x="585" 
d="M88 1276h-119l420 356h184l293 -356h-118q-23 23 -78.5 75.5t-106 103t-92.5 97.5q-102 -82 -383 -276zM256 0h-123l199 1128h123z" />
    <glyph glyph-name="idieresis" unicode="&#xef;" horiz-adv-x="585" 
d="M236 1380q-42 0 -70.5 24.5t-28.5 59.5q0 43 39 76t90 33q41 0 67.5 -22.5t26.5 -55.5q0 -45 -37 -80t-87 -35zM645 1380q-42 0 -69 23t-27 59q0 46 37.5 78.5t89.5 32.5q40 0 68 -23t28 -57q0 -44 -39.5 -78.5t-87.5 -34.5zM256 0h-123l199 1128h123z" />
    <glyph glyph-name="eth" unicode="&#xf0;" horiz-adv-x="1574" 
d="M1399 1579l-269 -119q338 -237 338 -645q0 -132 -34 -256.5t-101.5 -232t-161 -188.5t-221.5 -127t-274 -46q-257 0 -415.5 133.5t-158.5 350.5q0 127 60 248t161.5 213t246.5 148t304 56q153 0 261 -54t186 -169h6q-19 164 -98 288.5t-232 221.5l-407 -180l-35 69
l358 160q-135 70 -342 131l50 98q249 -67 430 -170l311 140zM688 66q129 0 245 46.5t197 123.5t129 178.5t48 208.5q0 179 -124.5 286t-322.5 107q-126 0 -241.5 -46t-198 -122t-131.5 -177t-49 -208q0 -175 122.5 -286t325.5 -111z" />
    <glyph glyph-name="ntilde" unicode="&#xf1;" horiz-adv-x="1552" 
d="M1090 1337q-33 0 -58 5t-51 20t-35 22t-39 31l-39 33q-2 2 -18 14.5t-21.5 15.5t-19 10.5t-26.5 10t-29 2.5q-60 0 -104 -41.5t-58 -107.5h-98q22 106 100 171.5t182 65.5q84 0 164 -69l45 -37q67 -58 131 -58q58 0 100 42t54 108h100q-21 -107 -96 -172.5t-184 -65.5z
M256 0h-123l199 1128h119l-41 -227h4q100 133 239.5 196.5t298.5 63.5q78 0 144.5 -14.5t126.5 -47t96.5 -85t53.5 -129t-3 -178.5l-125 -707h-125l117 657q20 109 -0.5 190.5t-72 126.5t-116 66t-141.5 21q-110 0 -207 -38t-164 -99.5t-110.5 -135t-56.5 -149.5z" />
    <glyph glyph-name="ograve" unicode="&#xf2;" horiz-adv-x="1579" 
d="M977 1278h-111l-305 393h184zM684 -35q-262 0 -418.5 135.5t-156.5 362.5q0 134 58.5 260t160 223t250 156t317.5 59q264 0 421 -136t157 -363q0 -133 -58.5 -259t-160.5 -223t-251.5 -156t-318.5 -59zM700 66q137 0 258 49.5t203 131t129 187t47 217.5q0 188 -123.5 299
t-332.5 111q-136 0 -256.5 -49.5t-202.5 -131t-130 -187.5t-48 -218q0 -188 123.5 -298.5t332.5 -110.5z" />
    <glyph glyph-name="oacute" unicode="&#xf3;" horiz-adv-x="1579" 
d="M1407 1671l-442 -393h-111l371 393h182zM684 -35q-262 0 -418.5 135.5t-156.5 362.5q0 134 58.5 260t160 223t250 156t317.5 59q264 0 421 -136t157 -363q0 -133 -58.5 -259t-160.5 -223t-251.5 -156t-318.5 -59zM700 66q137 0 258 49.5t203 131t129 187t47 217.5
q0 188 -123.5 299t-332.5 111q-136 0 -256.5 -49.5t-202.5 -131t-130 -187.5t-48 -218q0 -188 123.5 -298.5t332.5 -110.5z" />
    <glyph glyph-name="ocircumflex" unicode="&#xf4;" horiz-adv-x="1579" 
d="M584 1278h-119l420 356h184l293 -356h-119q-23 23 -78.5 76t-105.5 103t-92 97q-102 -82 -383 -276zM684 -35q-262 0 -418.5 135.5t-156.5 362.5q0 134 58.5 260t160 223t250 156t317.5 59q264 0 421 -136t157 -363q0 -133 -58.5 -259t-160.5 -223t-251.5 -156
t-318.5 -59zM700 66q137 0 258 49.5t203 131t129 187t47 217.5q0 188 -123.5 299t-332.5 111q-136 0 -256.5 -49.5t-202.5 -131t-130 -187.5t-48 -218q0 -188 123.5 -298.5t332.5 -110.5z" />
    <glyph glyph-name="otilde" unicode="&#xf5;" horiz-adv-x="1579" 
d="M1106 1337q-40 0 -73.5 11t-50.5 22.5t-48 36.5q-7 5 -10 8l-39 33q-4 3 -16 12.5t-17 13t-16 10t-19.5 9.5t-21 5.5t-25.5 2.5q-60 0 -104 -41.5t-58 -107.5h-98q22 106 100.5 171.5t182.5 65.5q50 0 87 -18t76 -51l45 -37q67 -58 132 -58q57 0 99 42t54 108h100
q-21 -107 -96 -172.5t-184 -65.5zM684 -35q-262 0 -418.5 135.5t-156.5 362.5q0 134 58.5 260t160 223t250 156t317.5 59q264 0 421 -136t157 -363q0 -133 -58.5 -259t-160.5 -223t-251.5 -156t-318.5 -59zM700 66q137 0 258 49.5t203 131t129 187t47 217.5
q0 188 -123.5 299t-332.5 111q-136 0 -256.5 -49.5t-202.5 -131t-130 -187.5t-48 -218q0 -188 123.5 -298.5t332.5 -110.5z" />
    <glyph glyph-name="odieresis" unicode="&#xf6;" horiz-adv-x="1579" 
d="M731 1382q-42 0 -70 24t-28 60q0 43 39 76t90 33q41 0 67.5 -22.5t26.5 -55.5q0 -45 -37.5 -80t-87.5 -35zM1141 1382q-43 0 -70 23.5t-27 58.5q0 46 37.5 78.5t89.5 32.5q40 0 68.5 -23t28.5 -57q0 -44 -39.5 -78.5t-87.5 -34.5zM684 -35q-262 0 -418.5 135.5
t-156.5 362.5q0 134 58.5 260t160 223t250 156t317.5 59q264 0 421 -136t157 -363q0 -133 -58.5 -259t-160.5 -223t-251.5 -156t-318.5 -59zM700 66q137 0 258 49.5t203 131t129 187t47 217.5q0 188 -123.5 299t-332.5 111q-136 0 -256.5 -49.5t-202.5 -131t-130 -187.5
t-48 -218q0 -188 123.5 -298.5t332.5 -110.5z" />
    <glyph glyph-name="divide" unicode="&#xf7;" horiz-adv-x="1222" 
d="M664 821q-42 0 -71.5 25t-29.5 61q0 45 40 79t95 34q42 0 71.5 -24t29.5 -58q0 -45 -41 -81t-94 -36zM1038 571h-848l19 107h846zM561 227q-42 0 -70 25t-28 61q0 46 40 80.5t93 34.5q41 0 69.5 -24.5t28.5 -59.5q0 -44 -41 -80.5t-92 -36.5z" />
    <glyph glyph-name="oslash" unicode="&#xf8;" horiz-adv-x="1579" 
d="M1518 1180l-183 -172q138 -135 138 -346q0 -133 -58.5 -259t-160.5 -223t-251.5 -156t-318.5 -59q-213 0 -360 92l-119 -112h-142l185 172q-139 133 -139 346q0 134 58.5 260t160 223t250 156t317.5 59q214 0 367 -94l120 113h136zM244 475q0 -163 96 -270l831 778
q-121 78 -290 78q-136 0 -256.5 -49.5t-202.5 -131t-130 -187.5t-48 -218zM700 66q137 0 258 49.5t203 131t129 187t47 217.5q0 159 -94 271l-829 -781q116 -75 286 -75z" />
    <glyph glyph-name="ugrave" unicode="&#xf9;" horiz-adv-x="1529" 
d="M926 1278h-111l-305 393h184zM592 -35q-60 0 -114 9.5t-107 31t-91.5 56.5t-67.5 85.5t-35 118t7 154.5l125 708h123l-117 -661q-11 -79 -7.5 -139t27 -105t54 -75t73 -48t85 -26t88.5 -8q106 0 200.5 38t160 99.5t108 134.5t55.5 147l115 643h123l-137 -776
q-39 -213 -17 -352h-127q-13 134 6 221h-6q-202 -256 -524 -256z" />
    <glyph glyph-name="uacute" unicode="&#xfa;" horiz-adv-x="1529" 
d="M1354 1671l-443 -393h-110l370 393h183zM592 -35q-60 0 -114 9.5t-107 31t-91.5 56.5t-67.5 85.5t-35 118t7 154.5l125 708h123l-117 -661q-11 -79 -7.5 -139t27 -105t54 -75t73 -48t85 -26t88.5 -8q106 0 200.5 38t160 99.5t108 134.5t55.5 147l115 643h123l-137 -776
q-39 -213 -17 -352h-127q-13 134 6 221h-6q-202 -256 -524 -256z" />
    <glyph glyph-name="ucircumflex" unicode="&#xfb;" horiz-adv-x="1529" 
d="M532 1278h-118l420 356h184l293 -356h-119q-23 23 -78.5 75.5t-106 103t-92.5 97.5q-102 -82 -383 -276zM592 -35q-60 0 -114 9.5t-107 31t-91.5 56.5t-67.5 85.5t-35 118t7 154.5l125 708h123l-117 -661q-11 -79 -7.5 -139t27 -105t54 -75t73 -48t85 -26t88.5 -8
q106 0 200.5 38t160 99.5t108 134.5t55.5 147l115 643h123l-137 -776q-39 -213 -17 -352h-127q-13 134 6 221h-6q-202 -256 -524 -256z" />
    <glyph glyph-name="udieresis" unicode="&#xfc;" horiz-adv-x="1529" 
d="M678 1382q-42 0 -70 24t-28 60q0 43 39 76t90 33q41 0 67.5 -22.5t26.5 -55.5q0 -45 -37.5 -80t-87.5 -35zM1087 1382q-42 0 -69 23t-27 59q0 46 37.5 78.5t89.5 32.5q40 0 68 -23t28 -57q0 -44 -39.5 -78.5t-87.5 -34.5zM592 -35q-60 0 -114 9.5t-107 31t-91.5 56.5
t-67.5 85.5t-35 118t7 154.5l125 708h123l-117 -661q-11 -79 -7.5 -139t27 -105t54 -75t73 -48t85 -26t88.5 -8q106 0 200.5 38t160 99.5t108 134.5t55.5 147l115 643h123l-137 -776q-39 -213 -17 -352h-127q-13 134 6 221h-6q-202 -256 -524 -256z" />
    <glyph glyph-name="yacute" unicode="&#xfd;" horiz-adv-x="1308" 
d="M1255 1671l-442 -393h-111l371 393h182zM315 -451h-106l287 441l-353 1138h136q54 -172 152 -504t147 -491h6q70 107 203.5 314.5t240 371.5t203.5 309h135z" />
    <glyph glyph-name="thorn" unicode="&#xfe;" horiz-adv-x="1642" 
d="M176 -451h-123l369 2089h123l-135 -759h6q109 140 262.5 211t322.5 71q239 0 387 -136t148 -357q0 -135 -58.5 -263.5t-157.5 -225t-238.5 -155.5t-293.5 -59q-168 0 -298 71t-187 202h-6zM793 66q124 0 237.5 49t194 129.5t128.5 187.5t48 219q0 183 -118.5 296.5
t-311.5 113.5q-166 0 -311.5 -83.5t-229.5 -218t-84 -282.5q0 -182 125.5 -296.5t321.5 -114.5z" />
    <glyph glyph-name="ydieresis" unicode="&#xff;" horiz-adv-x="1308" 
d="M580 1382q-42 0 -70.5 24.5t-28.5 59.5q0 43 39 76t90 33q41 0 68 -22.5t27 -55.5q0 -45 -37.5 -80t-87.5 -35zM989 1382q-42 0 -69 23t-27 59q0 46 37.5 78.5t89.5 32.5q40 0 68 -23t28 -57q0 -44 -39.5 -78.5t-87.5 -34.5zM315 -451h-106l287 441l-353 1138h136
q54 -172 152 -504t147 -491h6q70 107 203.5 314.5t240 371.5t203.5 309h135z" />
    <glyph glyph-name="Amacron" unicode="&#x100;" horiz-adv-x="1792" 
d="M1518 1839h-785l19 100h782zM82 0h-141l1071 1597h137l506 -1597h-139q-113 349 -187 584h-856q-154 -227 -391 -584zM541 692h753q-170 550 -233 772h-4q-20 -30 -208.5 -310.5t-307.5 -461.5z" />
    <glyph glyph-name="amacron" unicode="&#x101;" horiz-adv-x="1402" 
d="M1282 1430h-825l18 98h825zM442 -35q-176 0 -276 65.5t-100 188.5q0 284 563 381q34 6 96.5 15t99 15t87.5 17.5t80.5 25.5t59 35t43 51t13.5 68q0 101 -90.5 168.5t-239.5 67.5q-143 0 -259 -67.5t-177 -180.5l-117 39q55 102 153.5 173.5t207 102.5t221.5 31
q70 0 135.5 -12.5t125 -41.5t101 -71t60 -106t4.5 -142l-78 -436q-10 -65 -13.5 -90t-8.5 -77.5t-3.5 -95.5t7.5 -89h-125q-15 125 8 250h-6q-93 -130 -237 -207.5t-335 -77.5zM465 59q90 0 177 26t153.5 68.5t120.5 95t85.5 106.5t40.5 102l31 164q-69 -42 -129 -59
t-223 -42q-51 -8 -83.5 -14t-93 -19.5t-101.5 -27t-91 -36.5t-80.5 -49t-51.5 -62.5t-21 -78.5q0 -80 71 -127t195 -47z" />
    <glyph glyph-name="Abreve" unicode="&#x102;" horiz-adv-x="1792" 
d="M1102 1726q-99 0 -179 29.5t-126.5 76.5t-69 102.5t-16.5 111.5h116q-8 -87 75 -155t214 -68q132 0 239.5 68t131.5 155h117q-13 -56 -54.5 -111.5t-104 -102.5t-153 -76.5t-190.5 -29.5zM82 0h-141l1071 1597h137l506 -1597h-139q-113 349 -187 584h-856
q-154 -227 -391 -584zM541 692h753q-170 550 -233 772h-4q-20 -30 -208.5 -310.5t-307.5 -461.5z" />
    <glyph glyph-name="abreve" unicode="&#x103;" horiz-adv-x="1402" 
d="M840 1278q-204 0 -301.5 110.5t-73.5 284.5h117q-20 -137 57 -218t215 -81q140 0 246.5 81t138.5 218h119q-39 -174 -178 -284.5t-340 -110.5zM442 -35q-176 0 -276 65.5t-100 188.5q0 284 563 381q34 6 96.5 15t99 15t87.5 17.5t80.5 25.5t59 35t43 51t13.5 68
q0 101 -90.5 168.5t-239.5 67.5q-143 0 -259 -67.5t-177 -180.5l-117 39q55 102 153.5 173.5t207 102.5t221.5 31q70 0 135.5 -12.5t125 -41.5t101 -71t60 -106t4.5 -142l-78 -436q-10 -65 -13.5 -90t-8.5 -77.5t-3.5 -95.5t7.5 -89h-125q-15 125 8 250h-6
q-93 -130 -237 -207.5t-335 -77.5zM465 59q90 0 177 26t153.5 68.5t120.5 95t85.5 106.5t40.5 102l31 164q-69 -42 -129 -59t-223 -42q-51 -8 -83.5 -14t-93 -19.5t-101.5 -27t-91 -36.5t-80.5 -49t-51.5 -62.5t-21 -78.5q0 -80 71 -127t195 -47z" />
    <glyph glyph-name="Aogonek" unicode="&#x104;" horiz-adv-x="1792" 
d="M1587 -379q47 0 111 14l-17 -84q-69 -14 -114 -14q-123 0 -202 52.5t-79 144.5q0 153 236 266h-6q-113 349 -187 584h-856q-154 -227 -391 -584h-141l1071 1597h137l506 -1597h-8q-254 -108 -254 -242q0 -64 55.5 -100.5t138.5 -36.5zM541 692h753q-170 550 -233 772h-4
q-20 -30 -208.5 -310.5t-307.5 -461.5z" />
    <glyph glyph-name="aogonek" unicode="&#x105;" horiz-adv-x="1402" 
d="M1233 788l-78 -436q-10 -65 -13.5 -90t-8.5 -77.5t-3.5 -95.5t7.5 -89h-9q-249 -103 -249 -242q0 -64 54.5 -100.5t139.5 -36.5q47 0 107 14l-17 -84q-63 -14 -114 -14q-127 0 -203 54t-76 143q0 151 240 266h2q-15 125 8 250h-6q-93 -130 -237 -207.5t-335 -77.5
q-176 0 -276 65.5t-100 188.5q0 284 563 381q34 6 96.5 15t99 15t87.5 17.5t80.5 25.5t59 35t43 51t13.5 68q0 101 -90.5 168.5t-239.5 67.5q-143 0 -259 -67.5t-177 -180.5l-117 39q55 102 153.5 173.5t207 102.5t221.5 31q70 0 135.5 -12.5t125 -41.5t101 -71t60 -106
t4.5 -142zM465 59q90 0 177 26t153.5 68.5t120.5 95t85.5 106.5t40.5 102l31 164q-69 -42 -129 -59t-223 -42q-51 -8 -83.5 -14t-93 -19.5t-101.5 -27t-91 -36.5t-80.5 -49t-51.5 -62.5t-21 -78.5q0 -80 71 -127t195 -47z" />
    <glyph glyph-name="Cacute" unicode="&#x106;" horiz-adv-x="2068" 
d="M1733 2038l-465 -318h-115l377 318h203zM995 -35q-378 0 -604.5 188t-226.5 504q0 187 87 365t234 311.5t355.5 215t437.5 81.5q131 0 253.5 -28t227 -83t178.5 -145t99 -205l-127 -43q-56 186 -233.5 290t-415.5 104q-197 0 -376 -72t-304.5 -189.5t-199 -272
t-73.5 -316.5q0 -120 39.5 -219.5t108 -168t161.5 -115.5t197.5 -69t218.5 -22q156 0 296 41t246 111.5t184.5 158t129.5 188.5l111 -38q-64 -119 -156.5 -219.5t-216.5 -181t-286 -126t-345 -45.5z" />
    <glyph glyph-name="cacute" unicode="&#x107;" horiz-adv-x="1484" 
d="M1364 1671l-442 -393h-111l371 393h182zM680 -35q-263 0 -417 134t-154 362q0 136 58.5 263t160 224t249 155t314.5 58q86 0 164 -16.5t150 -52t126 -98.5t80 -148l-131 -41q-32 121 -141.5 188.5t-268.5 67.5q-135 0 -253.5 -50t-199 -132.5t-127 -188.5t-46.5 -217
q0 -188 123 -297.5t335 -109.5q188 0 335.5 85.5t238.5 223.5l106 -33q-112 -184 -299.5 -280.5t-402.5 -96.5z" />
    <glyph glyph-name="Cdotaccent" unicode="&#x10a;" horiz-adv-x="2068" 
d="M1255 1790q-44 0 -73 25.5t-29 62.5q0 47 42 83t97 36q43 0 73 -24.5t30 -61.5q0 -47 -43 -84t-97 -37zM995 -35q-378 0 -604.5 188t-226.5 504q0 187 87 365t234 311.5t355.5 215t437.5 81.5q131 0 253.5 -28t227 -83t178.5 -145t99 -205l-127 -43q-56 186 -233.5 290
t-415.5 104q-197 0 -376 -72t-304.5 -189.5t-199 -272t-73.5 -316.5q0 -120 39.5 -219.5t108 -168t161.5 -115.5t197.5 -69t218.5 -22q156 0 296 41t246 111.5t184.5 158t129.5 188.5l111 -38q-64 -119 -156.5 -219.5t-216.5 -181t-286 -126t-345 -45.5z" />
    <glyph glyph-name="cdotaccent" unicode="&#x10b;" horiz-adv-x="1484" 
d="M903 1436q-44 0 -73 25t-29 63q0 47 41.5 82.5t97.5 35.5q43 0 72.5 -25.5t29.5 -60.5q0 -47 -42.5 -83.5t-96.5 -36.5zM680 -35q-263 0 -417 134t-154 362q0 136 58.5 263t160 224t249 155t314.5 58q86 0 164 -16.5t150 -52t126 -98.5t80 -148l-131 -41
q-32 121 -141.5 188.5t-268.5 67.5q-135 0 -253.5 -50t-199 -132.5t-127 -188.5t-46.5 -217q0 -188 123 -297.5t335 -109.5q188 0 335.5 85.5t238.5 223.5l106 -33q-112 -184 -299.5 -280.5t-402.5 -96.5z" />
    <glyph glyph-name="Ccaron" unicode="&#x10c;" horiz-adv-x="2068" 
d="M1583 2017h117l-369 -297h-178l-264 297h117q150 -128 249 -227q222 159 328 227zM995 -35q-378 0 -604.5 188t-226.5 504q0 187 87 365t234 311.5t355.5 215t437.5 81.5q131 0 253.5 -28t227 -83t178.5 -145t99 -205l-127 -43q-56 186 -233.5 290t-415.5 104
q-197 0 -376 -72t-304.5 -189.5t-199 -272t-73.5 -316.5q0 -120 39.5 -219.5t108 -168t161.5 -115.5t197.5 -69t218.5 -22q156 0 296 41t246 111.5t184.5 158t129.5 188.5l111 -38q-64 -119 -156.5 -219.5t-216.5 -181t-286 -126t-345 -45.5z" />
    <glyph glyph-name="ccaron" unicode="&#x10d;" horiz-adv-x="1484" 
d="M965 1280h-185l-291 356h117q21 -20 77 -72.5t78.5 -74t59 -59t66.5 -70.5q112 89 379 276h118zM680 -35q-263 0 -417 134t-154 362q0 136 58.5 263t160 224t249 155t314.5 58q86 0 164 -16.5t150 -52t126 -98.5t80 -148l-131 -41q-32 121 -141.5 188.5t-268.5 67.5
q-135 0 -253.5 -50t-199 -132.5t-127 -188.5t-46.5 -217q0 -188 123 -297.5t335 -109.5q188 0 335.5 85.5t238.5 223.5l106 -33q-112 -184 -299.5 -280.5t-402.5 -96.5z" />
    <glyph glyph-name="Dcaron" unicode="&#x10e;" horiz-adv-x="1982" 
d="M1466 2017h117l-369 -297h-178l-264 297h117q157 -134 250 -227q28 20 85.5 61.5t79.5 57t66.5 45.5t95.5 63zM854 0h-682l283 1597h659q393 0 588.5 -170t195.5 -475q0 -147 -46.5 -287.5t-138 -260.5t-216 -210.5t-291 -142t-352.5 -51.5zM322 106h571
q130 0 248.5 31.5t212.5 87.5t171.5 133.5t128.5 168.5t79 192.5t28 206.5q0 279 -178 422t-512 143h-502q-148 -821 -247 -1385z" />
    <glyph glyph-name="dcaron" unicode="&#x10f;" horiz-adv-x="1646" 
d="M643 -35q-241 0 -387.5 136t-146.5 358q0 134 58.5 262t157 225t238.5 156t293 59q167 0 295 -70t188 -202h4l138 749h123l-228 -1286q-22 -128 -25 -209t9 -143h-127q-14 123 6 242h-4q-105 -133 -263 -205t-329 -72zM1714 1194h-86l187 248q-30 9 -47 30.5t-17 49.5
q0 46 41 81t96 35q42 0 69.5 -24t27.5 -62q0 -37 -47.5 -99.5t-223.5 -258.5zM674 66q124 0 240.5 49.5t200 130t133.5 187t50 216.5q0 186 -126.5 299t-319.5 113q-125 0 -239 -50t-194 -131t-127.5 -188t-47.5 -219q0 -182 118.5 -294.5t311.5 -112.5z" />
    <glyph glyph-name="Dcroat" unicode="&#x110;" horiz-adv-x="1982" 
d="M455 1597h659q393 0 588.5 -170t195.5 -475q0 -147 -46.5 -287.5t-138 -260.5t-216 -210.5t-291 -142t-352.5 -51.5h-682l133 750h-194l14 96h197zM893 106q130 0 248.5 31.5t212.5 87.5t171.5 133.5t128.5 168.5t79 192.5t28 206.5q0 279 -178 422t-512 143h-502
q-78 -431 -116 -645h694l-14 -96h-699q-30 -164 -112 -644h571z" />
    <glyph glyph-name="dcroat" unicode="&#x111;" horiz-adv-x="1646" 
d="M1569 1436h313l-14 -95h-318l-174 -989q-22 -128 -25 -209t9 -143h-127q-14 123 6 242h-4q-105 -133 -263 -205t-329 -72q-241 0 -387.5 136t-146.5 358q0 134 58.5 262t157 225t238.5 156t293 59q167 0 295 -70t188 -202h4l82 452h-352l17 95h354l37 202h123zM674 66
q124 0 240.5 49.5t200 130t133.5 187t50 216.5q0 186 -126.5 299t-319.5 113q-125 0 -239 -50t-194 -131t-127.5 -188t-47.5 -219q0 -182 118.5 -294.5t311.5 -112.5z" />
    <glyph glyph-name="Emacron" unicode="&#x112;" horiz-adv-x="1615" 
d="M1448 1839h-784l18 100h782zM1393 0h-1221l283 1597h1196l-19 -106h-1063q-49 -261 -110 -614h1014l-17 -109h-1016q-15 -78 -33.5 -189.5t-84.5 -465.5h1089z" />
    <glyph glyph-name="emacron" unicode="&#x113;" horiz-adv-x="1515" 
d="M1329 1430h-825l18 98h826zM670 -35q-256 0 -408.5 134.5t-152.5 359.5q0 135 59 262.5t160 224.5t248 156t311 59q49 0 96 -5.5t99 -18.5t96 -34t86.5 -52.5t71.5 -73.5t49.5 -97.5t21.5 -124t-12 -153.5l-11 -57h-1134q-38 -215 86.5 -348.5t357.5 -133.5q184 0 332 87
t238 223l106 -35q-109 -177 -296 -275t-404 -98zM270 649h998q16 89 -0.5 160.5t-56 118t-98 78t-121 44.5t-130.5 13q-207 0 -367.5 -114.5t-224.5 -299.5z" />
    <glyph glyph-name="Edotaccent" unicode="&#x116;" horiz-adv-x="1615" 
d="M1042 1790q-44 0 -73 25.5t-29 62.5q0 47 42 83t97 36q43 0 73 -24.5t30 -61.5q0 -47 -43 -84t-97 -37zM1393 0h-1221l283 1597h1196l-19 -106h-1063q-49 -261 -110 -614h1014l-17 -109h-1016q-15 -78 -33.5 -189.5t-84.5 -465.5h1089z" />
    <glyph glyph-name="edotaccent" unicode="&#x117;" horiz-adv-x="1515" 
d="M918 1436q-44 0 -73.5 25t-29.5 63q0 47 41.5 82.5t97.5 35.5q43 0 73 -25.5t30 -60.5q0 -47 -42.5 -83.5t-96.5 -36.5zM670 -35q-256 0 -408.5 134.5t-152.5 359.5q0 135 59 262.5t160 224.5t248 156t311 59q49 0 96 -5.5t99 -18.5t96 -34t86.5 -52.5t71.5 -73.5
t49.5 -97.5t21.5 -124t-12 -153.5l-11 -57h-1134q-38 -215 86.5 -348.5t357.5 -133.5q184 0 332 87t238 223l106 -35q-109 -177 -296 -275t-404 -98zM270 649h998q16 89 -0.5 160.5t-56 118t-98 78t-121 44.5t-130.5 13q-207 0 -367.5 -114.5t-224.5 -299.5z" />
    <glyph glyph-name="Eogonek" unicode="&#x118;" horiz-adv-x="1615" 
d="M1651 1597l-19 -106h-1063q-49 -261 -110 -614h1014l-17 -109h-1016q-15 -78 -33.5 -189.5t-84.5 -465.5h1089l-18 -113q-254 -108 -254 -242q0 -64 55.5 -100.5t138.5 -36.5q47 0 111 14l-17 -84q-69 -14 -114 -14q-123 0 -202 52.5t-79 144.5q0 153 236 266h-1096
l283 1597h1196z" />
    <glyph glyph-name="eogonek" unicode="&#x119;" horiz-adv-x="1515" 
d="M887 1161q49 0 96 -5.5t99 -18.5t96 -34t86.5 -52.5t71.5 -73.5t49.5 -97.5t21.5 -124t-12 -153.5l-11 -57h-1134q-38 -215 86.5 -348.5t357.5 -133.5q184 0 332 87t238 223l106 -35q-77 -125 -196 -212t-263 -128q-245 -103 -245 -240q0 -64 54.5 -100.5t139.5 -36.5
q48 0 107 14l-17 -84q-63 -14 -114 -14q-127 0 -203 54t-76 143q0 132 176 233q-20 -2 -63 -2q-256 0 -408.5 134.5t-152.5 359.5q0 135 59 262.5t160 224.5t248 156t311 59zM270 649h998q16 89 -0.5 160.5t-56 118t-98 78t-121 44.5t-130.5 13q-207 0 -367.5 -114.5
t-224.5 -299.5z" />
    <glyph glyph-name="Ecaron" unicode="&#x11a;" horiz-adv-x="1615" 
d="M1372 2017h117l-369 -297h-178l-264 297h117q150 -128 249 -227q222 159 328 227zM1393 0h-1221l283 1597h1196l-19 -106h-1063q-49 -261 -110 -614h1014l-17 -109h-1016q-15 -78 -33.5 -189.5t-84.5 -465.5h1089z" />
    <glyph glyph-name="ecaron" unicode="&#x11b;" horiz-adv-x="1515" 
d="M981 1280h-184l-291 356h117q20 -19 63.5 -59.5t62.5 -59.5t50 -49t55.5 -55.5t48.5 -52.5q112 89 379 276h119zM670 -35q-256 0 -408.5 134.5t-152.5 359.5q0 135 59 262.5t160 224.5t248 156t311 59q49 0 96 -5.5t99 -18.5t96 -34t86.5 -52.5t71.5 -73.5t49.5 -97.5
t21.5 -124t-12 -153.5l-11 -57h-1134q-38 -215 86.5 -348.5t357.5 -133.5q184 0 332 87t238 223l106 -35q-109 -177 -296 -275t-404 -98zM270 649h998q16 89 -0.5 160.5t-56 118t-98 78t-121 44.5t-130.5 13q-207 0 -367.5 -114.5t-224.5 -299.5z" />
    <glyph glyph-name="Gbreve" unicode="&#x11e;" horiz-adv-x="2158" 
d="M1243 1726q-99 0 -179 29.5t-126.5 76.5t-69 102.5t-16.5 111.5h117q-8 -87 74.5 -155t213.5 -68q132 0 239.5 68t131.5 155h117q-13 -56 -54.5 -111.5t-104 -102.5t-153 -76.5t-190.5 -29.5zM983 -35q-247 0 -433 84.5t-287 241t-101 364.5q0 188 86.5 365.5t233.5 312
t355.5 216t438.5 81.5q132 0 254 -28t226 -83t177.5 -145t98.5 -205l-125 -43q-56 187 -234 290.5t-418 103.5q-197 0 -375.5 -72t-303 -189.5t-198 -272t-73.5 -316.5q0 -120 39.5 -219.5t106.5 -168t158 -115.5t193 -69t212 -22q214 0 397.5 78t303.5 212t163 302h-704
l18 104h833l-135 -772h-112q35 221 65 381h-12q-133 -198 -349.5 -307t-498.5 -109z" />
    <glyph glyph-name="gbreve" unicode="&#x11f;" horiz-adv-x="1642" 
d="M913 1278q-204 0 -301 110.5t-73 284.5h116q-20 -137 57.5 -218t215.5 -81q140 0 246.5 81t138.5 218h119q-39 -174 -178 -284.5t-341 -110.5zM608 -483q-456 0 -538 331l118 35q29 -124 137.5 -196t297.5 -72q80 0 152 14.5t144 50.5t128 92.5t100 146t65 204.5l27 153
h-4q-106 -133 -260 -204.5t-324 -71.5q-153 0 -274.5 58t-192.5 169.5t-71 259.5q0 131 59 254.5t158 215.5t237 148t287 56q169 0 300 -72t189 -208h5l45 247h118l-172 -983q-111 -628 -731 -628zM678 100q122 0 237.5 48t199.5 126t134.5 181t50.5 209q0 177 -127 287
t-321 110q-122 0 -234.5 -47t-193 -124t-128.5 -179t-48 -209q0 -177 120 -289.5t310 -112.5z" />
    <glyph glyph-name="Gdotaccent" unicode="&#x120;" horiz-adv-x="2158" 
d="M1253 1790q-44 0 -73 25.5t-29 62.5q0 47 42 83t97 36q43 0 73 -24.5t30 -61.5q0 -47 -43 -84t-97 -37zM983 -35q-247 0 -433 84.5t-287 241t-101 364.5q0 188 86.5 365.5t233.5 312t355.5 216t438.5 81.5q132 0 254 -28t226 -83t177.5 -145t98.5 -205l-125 -43
q-56 187 -234 290.5t-418 103.5q-197 0 -375.5 -72t-303 -189.5t-198 -272t-73.5 -316.5q0 -120 39.5 -219.5t106.5 -168t158 -115.5t193 -69t212 -22q214 0 397.5 78t303.5 212t163 302h-704l18 104h833l-135 -772h-112q35 221 65 381h-12q-133 -198 -349.5 -307
t-498.5 -109z" />
    <glyph glyph-name="gdotaccent" unicode="&#x121;" horiz-adv-x="1642" 
d="M944 1436q-44 0 -73 25t-29 63q0 47 41.5 82.5t97.5 35.5q43 0 72.5 -25.5t29.5 -60.5q0 -47 -42.5 -83.5t-96.5 -36.5zM608 -483q-456 0 -538 331l118 35q29 -124 137.5 -196t297.5 -72q80 0 152 14.5t144 50.5t128 92.5t100 146t65 204.5l27 153h-4
q-106 -133 -260 -204.5t-324 -71.5q-153 0 -274.5 58t-192.5 169.5t-71 259.5q0 131 59 254.5t158 215.5t237 148t287 56q169 0 300 -72t189 -208h5l45 247h118l-172 -983q-111 -628 -731 -628zM678 100q122 0 237.5 48t199.5 126t134.5 181t50.5 209q0 177 -127 287
t-321 110q-122 0 -234.5 -47t-193 -124t-128.5 -179t-48 -209q0 -177 120 -289.5t310 -112.5z" />
    <glyph glyph-name="uni0122" unicode="&#x122;" horiz-adv-x="2158" 
d="M983 -35q-247 0 -433 84.5t-287 241t-101 364.5q0 188 86.5 365.5t233.5 312t355.5 216t438.5 81.5q132 0 254 -28t226 -83t177.5 -145t98.5 -205l-125 -43q-56 187 -234 290.5t-418 103.5q-197 0 -375.5 -72t-303 -189.5t-198 -272t-73.5 -316.5q0 -120 39.5 -219.5
t106.5 -168t158 -115.5t193 -69t212 -22q214 0 397.5 78t303.5 212t163 302h-704l18 104h833l-135 -772h-112q35 221 65 381h-12q-133 -198 -349.5 -307t-498.5 -109zM819 -498h-63l143 187q-86 17 -86 80q0 45 39.5 78.5t93.5 33.5q42 0 71.5 -23t29.5 -59q0 -37 -35.5 -83
t-148.5 -167q-28 -30 -44 -47z" />
    <glyph glyph-name="uni0123" unicode="&#x123;" horiz-adv-x="1642" 
d="M780 1335q0 37 49.5 101t219.5 252h84l-183 -244q66 -20 66 -80q0 -46 -41.5 -80.5t-95.5 -34.5q-41 0 -70 24.5t-29 61.5zM608 -483q-456 0 -538 331l118 35q29 -124 137.5 -196t297.5 -72q80 0 152 14.5t144 50.5t128 92.5t100 146t65 204.5l27 153h-4
q-106 -133 -260 -204.5t-324 -71.5q-153 0 -274.5 58t-192.5 169.5t-71 259.5q0 131 59 254.5t158 215.5t237 148t287 56q169 0 300 -72t189 -208h5l45 247h118l-172 -983q-111 -628 -731 -628zM678 100q122 0 237.5 48t199.5 126t134.5 181t50.5 209q0 177 -127 287
t-321 110q-122 0 -234.5 -47t-193 -124t-128.5 -179t-48 -209q0 -177 120 -289.5t310 -112.5z" />
    <glyph glyph-name="Hbar" unicode="&#x126;" horiz-adv-x="1984" 
d="M1841 1276h160l-14 -96h-162l-209 -1180h-133l133 754h-1178l-133 -754h-133l209 1180h-164l16 96h164l58 321h133l-58 -321h1178l57 321h133zM457 862h1177l58 318h-1178z" />
    <glyph glyph-name="hbar" unicode="&#x127;" horiz-adv-x="1552" 
d="M950 1161q63 0 119.5 -10t110 -32t93 -57t68.5 -85.5t35.5 -117.5t-6.5 -152l-125 -707h-125l117 657q18 91 5 159t-42 115t-77 76t-99.5 41.5t-110.5 12.5q-111 0 -209 -37.5t-166 -99t-112 -135.5t-57 -150l-113 -639h-123l236 1339h-219l16 95h219l37 204h123
l-37 -204h450l-14 -95h-452l-78 -438h4q199 260 532 260z" />
    <glyph glyph-name="Imacron" unicode="&#x12a;" horiz-adv-x="675" 
d="M961 1839h-785l19 100h782zM305 0h-133l283 1597h133z" />
    <glyph glyph-name="imacron" unicode="&#x12b;" horiz-adv-x="585" 
d="M860 1427h-825l18 99h826zM256 0h-123l199 1128h123z" />
    <glyph glyph-name="Iogonek" unicode="&#x12e;" horiz-adv-x="675" 
d="M51 -242q0 -64 56 -100.5t139 -36.5q46 0 110 14l-16 -84q-69 -14 -115 -14q-123 0 -201.5 52.5t-78.5 144.5q0 153 235 266h-8l283 1597h133l-283 -1597q-254 -108 -254 -242z" />
    <glyph glyph-name="iogonek" unicode="&#x12f;" horiz-adv-x="585" 
d="M485 1640q43 0 73 -25.5t30 -60.5q0 -47 -42.5 -83.5t-96.5 -36.5q-44 0 -73.5 25t-29.5 63q0 47 41.5 82.5t97.5 35.5zM256 0h-2q-250 -103 -250 -242q0 -64 55 -100.5t140 -36.5q47 0 106 14l-16 -84q-63 -14 -115 -14q-127 0 -202.5 53.5t-75.5 143.5q0 152 239 266
h-2l199 1128h123z" />
    <glyph glyph-name="Idotaccent" unicode="&#x130;" horiz-adv-x="675" 
d="M555 1790q-44 0 -73 25.5t-29 62.5q0 47 42 83t97 36q43 0 72.5 -24.5t29.5 -61.5q0 -47 -42.5 -84t-96.5 -37zM305 0h-133l283 1597h133z" />
    <glyph glyph-name="dotlessi" unicode="&#x131;" horiz-adv-x="585" 
d="M256 0h-123l199 1128h123z" />
    <glyph glyph-name="uni0136" unicode="&#x136;" horiz-adv-x="1607" 
d="M305 0h-133l283 1597h133q-61 -333 -158 -886h4q140 112 306 240.5t266.5 204.5t309 233t275.5 208h160q-161 -122 -915 -702q126 -167 364.5 -479t317.5 -416h-162q-207 267 -631 807q-115 -85 -322 -244q-82 -478 -98 -563zM598 -498h-63l143 187q-86 17 -86 80
q0 45 39.5 78.5t93.5 33.5q42 0 71 -23t29 -59q0 -38 -37.5 -86.5t-151.5 -170.5q-8 -8 -12.5 -13t-12 -12.5t-13.5 -14.5z" />
    <glyph glyph-name="uni0137" unicode="&#x137;" horiz-adv-x="1245" 
d="M1120 1128h154l-590 -440l485 -688h-141l-446 612l-252 -188l-74 -424h-123l289 1638h123l-191 -1075h4q134 99 387.5 287.5t374.5 277.5zM549 -119q42 0 71 -23t29 -59q0 -38 -37.5 -86.5t-151.5 -170.5q-25 -26 -38 -40h-64l144 187q-86 17 -86 80q0 45 39.5 78.5
t93.5 33.5z" />
    <glyph glyph-name="Lacute" unicode="&#x139;" horiz-adv-x="1447" 
d="M891 2038h203l-465 -318h-115zM588 1597l-262 -1484h1011l-18 -113h-1147l283 1597h133z" />
    <glyph glyph-name="lacute" unicode="&#x13a;" horiz-adv-x="585" 
d="M1044 2079l-464 -318h-115l377 318h202zM256 0h-123l289 1638h123z" />
    <glyph glyph-name="uni013B" unicode="&#x13b;" horiz-adv-x="1447" 
d="M588 1597l-262 -1484h1011l-18 -113h-1147l283 1597h133zM657 -119q42 0 71.5 -23t29.5 -59q0 -37 -35.5 -83t-148.5 -167q-28 -30 -44 -47h-63l143 187q-86 17 -86 80q0 45 39.5 78.5t93.5 33.5z" />
    <glyph glyph-name="uni013C" unicode="&#x13c;" horiz-adv-x="585" 
d="M256 0h-123l289 1638h123zM51 -498h-63l143 187q-86 17 -86 80q0 45 39.5 78.5t93.5 33.5q42 0 71.5 -23t29.5 -59q0 -37 -35.5 -83t-148.5 -167q-28 -30 -44 -47z" />
    <glyph glyph-name="Lcaron" unicode="&#x13d;" horiz-adv-x="1447" 
d="M1087 1190h-86l187 246q-30 9 -47 30.5t-17 49.5q0 46 41.5 81t96.5 35q42 0 69 -24t27 -62q0 -37 -47.5 -99.5t-223.5 -256.5zM455 1597h133l-262 -1484h1011l-18 -113h-1147z" />
    <glyph glyph-name="lcaron" unicode="&#x13e;" horiz-adv-x="585" 
d="M256 0h-123l289 1638h123zM819 1190h-86l187 246q-31 9 -48.5 30.5t-17.5 49.5q0 46 42 81t97 35q42 0 69.5 -24t27.5 -62q0 -36 -46.5 -96.5t-224.5 -259.5z" />
    <glyph glyph-name="Lslash" unicode="&#x141;" horiz-adv-x="1447" 
d="M455 840l-129 -727h1011l-18 -113h-1147l139 788l-223 -81l18 102l224 82l125 706h133l-117 -655l412 152l-17 -103z" />
    <glyph glyph-name="lslash" unicode="&#x142;" horiz-adv-x="585" 
d="M434 1012l266 147l-14 -102l-270 -148l-160 -909h-123l148 836l-271 -148l19 100l270 150l123 700h123z" />
    <glyph glyph-name="Nacute" unicode="&#x143;" horiz-adv-x="2031" 
d="M1690 2038l-465 -318h-115l377 318h203zM305 0h-133l283 1597h147q626 -924 950 -1419h7q46 261 132.5 737t123.5 682h129l-283 -1597h-143q-80 118 -426.5 620.5t-532.5 782.5h-2q-13 -73 -107 -588.5t-145 -814.5z" />
    <glyph glyph-name="nacute" unicode="&#x144;" horiz-adv-x="1552" 
d="M1391 1671l-443 -393h-110l370 393h183zM256 0h-123l199 1128h119l-41 -227h4q100 133 239.5 196.5t298.5 63.5q78 0 144.5 -14.5t126.5 -47t96.5 -85t53.5 -129t-3 -178.5l-125 -707h-125l117 657q20 109 -0.5 190.5t-72 126.5t-116 66t-141.5 21q-110 0 -207 -38
t-164 -99.5t-110.5 -135t-56.5 -149.5z" />
    <glyph glyph-name="uni0145" unicode="&#x145;" horiz-adv-x="2031" 
d="M305 0h-133l283 1597h147q626 -924 950 -1419h7q46 261 132.5 737t123.5 682h129l-283 -1597h-143q-80 118 -426.5 620.5t-532.5 782.5h-2q-13 -73 -107 -588.5t-145 -814.5zM801 -498h-64l144 187q-86 17 -86 80q0 45 39.5 78.5t93.5 33.5q42 0 71 -23t29 -59
q0 -38 -37.5 -86.5t-151.5 -170.5q-8 -8 -12.5 -13t-12 -12.5t-13.5 -14.5z" />
    <glyph glyph-name="uni0146" unicode="&#x146;" horiz-adv-x="1552" 
d="M256 0h-123l199 1128h119l-41 -227h4q100 133 239.5 196.5t298.5 63.5q78 0 144.5 -14.5t126.5 -47t96.5 -85t53.5 -129t-3 -178.5l-125 -707h-125l117 657q20 109 -0.5 190.5t-72 126.5t-116 66t-141.5 21q-110 0 -207 -38t-164 -99.5t-110.5 -135t-56.5 -149.5z
M557 -498h-63l143 187q-86 17 -86 80q0 45 39.5 78.5t93.5 33.5q42 0 71 -23t29 -59q0 -38 -37.5 -86.5t-151.5 -170.5q-8 -8 -12.5 -13t-12 -12.5t-13.5 -14.5z" />
    <glyph glyph-name="Ncaron" unicode="&#x147;" horiz-adv-x="2031" 
d="M1538 2017h117l-369 -297h-178l-264 297h117q150 -128 249 -227q222 159 328 227zM305 0h-133l283 1597h147q626 -924 950 -1419h7q46 261 132.5 737t123.5 682h129l-283 -1597h-143q-80 118 -426.5 620.5t-532.5 782.5h-2q-13 -73 -107 -588.5t-145 -814.5z" />
    <glyph glyph-name="ncaron" unicode="&#x148;" horiz-adv-x="1552" 
d="M991 1280h-184l-291 356h117q20 -19 63.5 -59.5t62.5 -59.5t50 -49t55.5 -55.5t48.5 -52.5q112 89 379 276h119zM256 0h-123l199 1128h119l-41 -227h4q100 133 239.5 196.5t298.5 63.5q78 0 144.5 -14.5t126.5 -47t96.5 -85t53.5 -129t-3 -178.5l-125 -707h-125l117 657
q20 109 -0.5 190.5t-72 126.5t-116 66t-141.5 21q-110 0 -207 -38t-164 -99.5t-110.5 -135t-56.5 -149.5z" />
    <glyph glyph-name="Eng" unicode="&#x14a;" horiz-adv-x="2031" 
d="M1116 -483q-158 0 -252 57l17 115q107 -68 231 -68q162 0 272.5 99.5t141.5 265.5q-108 158 -309.5 451t-357 521t-302.5 449l-252 -1407h-133l283 1597h147q626 -924 950 -1419h7l256 1419h129l-273 -1536q-15 -84 -38.5 -156.5t-68 -146t-103 -125t-147.5 -84
t-198 -32.5z" />
    <glyph glyph-name="eng" unicode="&#x14b;" horiz-adv-x="1552" 
d="M793 -483q-148 0 -242 57l16 109q109 -68 224 -68q54 0 99.5 15t76 36t56 58t40 65.5t27.5 75.5t17.5 70t12.5 67l117 655q18 92 6 160t-40.5 115t-76.5 75.5t-100 41t-113 12.5q-111 0 -209.5 -38t-166 -99.5t-111.5 -135t-57 -149.5l-113 -639h-123l199 1128h119
l-41 -227h4q100 133 239.5 196.5t298.5 63.5q63 0 119.5 -9.5t110 -31t93 -56t68.5 -84t35.5 -115t-6.5 -148.5l-129 -731q-7 -38 -11 -60t-15 -65t-22 -70.5t-30.5 -67t-42 -65.5t-56 -55t-72 -46t-90.5 -28.5t-111 -11.5z" />
    <glyph glyph-name="Omacron" unicode="&#x14c;" horiz-adv-x="2185" 
d="M1712 1839h-784l18 100h783zM989 -35q-239 0 -427.5 90t-294 251t-105.5 364q0 123 41 244.5t114 227t178 196t227 155t266.5 101t293.5 36.5q238 0 426 -90t293.5 -251.5t105.5 -364.5q0 -123 -41.5 -244.5t-115 -226.5t-178 -195.5t-226.5 -155t-266 -101t-291 -36.5z
M1010 76q125 0 246.5 32t225.5 88.5t193 135.5t151.5 170.5t98 197t35.5 211.5q0 174 -88.5 313t-248 217.5t-359.5 78.5q-148 0 -292 -44.5t-262.5 -124t-209.5 -183.5t-142 -229.5t-51 -254.5q0 -176 92 -315.5t252 -216t359 -76.5z" />
    <glyph glyph-name="omacron" unicode="&#x14d;" horiz-adv-x="1579" 
d="M1356 1430h-826l19 98h825zM684 -35q-262 0 -418.5 135.5t-156.5 362.5q0 134 58.5 260t160 223t250 156t317.5 59q264 0 421 -136t157 -363q0 -133 -58.5 -259t-160.5 -223t-251.5 -156t-318.5 -59zM700 66q137 0 258 49.5t203 131t129 187t47 217.5q0 188 -123.5 299
t-332.5 111q-136 0 -256.5 -49.5t-202.5 -131t-130 -187.5t-48 -218q0 -188 123.5 -298.5t332.5 -110.5z" />
    <glyph glyph-name="Ohungarumlaut" unicode="&#x150;" horiz-adv-x="2185" 
d="M1522 2038l-383 -318h-115l309 318h189zM1870 2038l-404 -318h-116l333 318h187zM989 -35q-239 0 -427.5 90t-294 251t-105.5 364q0 123 41 244.5t114 227t178 196t227 155t266.5 101t293.5 36.5q238 0 426 -90t293.5 -251.5t105.5 -364.5q0 -123 -41.5 -244.5
t-115 -226.5t-178 -195.5t-226.5 -155t-266 -101t-291 -36.5zM1010 76q125 0 246.5 32t225.5 88.5t193 135.5t151.5 170.5t98 197t35.5 211.5q0 174 -88.5 313t-248 217.5t-359.5 78.5q-148 0 -292 -44.5t-262.5 -124t-209.5 -183.5t-142 -229.5t-51 -254.5
q0 -176 92 -315.5t252 -216t359 -76.5z" />
    <glyph glyph-name="ohungarumlaut" unicode="&#x151;" horiz-adv-x="1579" 
d="M1157 1673l-395 -395h-111l322 395h184zM1511 1673l-419 -395h-111l346 395h184zM684 -35q-262 0 -418.5 135.5t-156.5 362.5q0 134 58.5 260t160 223t250 156t317.5 59q264 0 421 -136t157 -363q0 -133 -58.5 -259t-160.5 -223t-251.5 -156t-318.5 -59zM700 66
q137 0 258 49.5t203 131t129 187t47 217.5q0 188 -123.5 299t-332.5 111q-136 0 -256.5 -49.5t-202.5 -131t-130 -187.5t-48 -218q0 -188 123.5 -298.5t332.5 -110.5z" />
    <glyph glyph-name="OE" unicode="&#x152;" horiz-adv-x="3262" 
d="M989 -35q-237 0 -425.5 89t-295 250t-106.5 366q0 124 41.5 245.5t114.5 226.5t177.5 196t227 155t267 100.5t292.5 36.5q265 0 465 -109.5t289 -295.5l69 372h1190l-16 -106h-1061l-113 -614h1014l-18 -109h-1012l-117 -655h1088l-21 -113h-1218l69 371
q-159 -187 -397.5 -296.5t-503.5 -109.5zM1010 76q125 0 247 32t226 88.5t193.5 135.5t152 170.5t98 197t35.5 211.5q0 174 -90 313t-249.5 217.5t-358.5 78.5q-148 0 -292 -44.5t-262.5 -124t-209.5 -183.5t-142 -229.5t-51 -254.5q0 -176 92 -315.5t252 -216t359 -76.5z
" />
    <glyph glyph-name="oe" unicode="&#x153;" horiz-adv-x="2727" 
d="M684 -35q-262 0 -418.5 135.5t-156.5 362.5q0 134 59 260.5t160.5 223.5t250 155.5t316.5 58.5q208 0 352 -85.5t197 -235.5q102 149 275 235t376 86q47 0 93.5 -5t98.5 -17.5t96.5 -33t88 -51.5t73 -73.5t51.5 -97.5t23 -125t-12 -156l-8 -45h-1139q-39 -222 88.5 -358
t358.5 -136q185 0 330.5 86.5t236.5 223.5l109 -35q-109 -177 -297.5 -275t-405.5 -98q-202 0 -343 85t-191 233q-104 -148 -278.5 -233t-383.5 -85zM1483 649h995q15 89 -1 161t-55 118.5t-97 77.5t-120.5 44t-131.5 13q-208 0 -367 -114t-223 -300zM700 66q137 0 258 49.5
t203 131t129 187t47 217.5q0 188 -123.5 299t-332.5 111q-136 0 -256.5 -49.5t-202.5 -131t-130 -187.5t-48 -218q0 -188 123.5 -298.5t332.5 -110.5z" />
    <glyph glyph-name="Racute" unicode="&#x154;" horiz-adv-x="1697" 
d="M1491 2038l-465 -318h-115l377 318h203zM305 0h-133l283 1597h657q251 0 398 -102t147 -293q0 -100 -44 -195.5t-121 -170.5t-190.5 -125t-244.5 -60l-2 -2q36 -56 122 -189.5t154 -242.5t131 -217h-145l-410 647h-487q-16 -86 -34 -192.5t-81 -454.5zM436 754h525
q245 0 401 118t156 297q0 156 -117.5 239t-331.5 83h-500q-20 -109 -56.5 -314t-76.5 -423z" />
    <glyph glyph-name="racute" unicode="&#x155;" horiz-adv-x="993" 
d="M1176 1671l-443 -393h-110l370 393h183zM256 0h-123l199 1128h119l-48 -243h11q75 124 214 200t290 76q88 0 153 -22l-20 -121q-63 29 -170 29q-98 0 -189.5 -41t-159 -108t-114 -153t-62.5 -176z" />
    <glyph glyph-name="uni0156" unicode="&#x156;" horiz-adv-x="1697" 
d="M305 0h-133l283 1597h657q251 0 398 -102t147 -293q0 -100 -44 -195.5t-121 -170.5t-190.5 -125t-244.5 -60l-2 -2q36 -56 122 -189.5t154 -242.5t131 -217h-145l-410 647h-487q-16 -86 -34 -192.5t-81 -454.5zM436 754h525q245 0 401 118t156 297q0 156 -117.5 239
t-331.5 83h-500q-20 -109 -56.5 -314t-76.5 -423zM627 -498h-64l144 187q-86 17 -86 80q0 45 39.5 78.5t93.5 33.5q42 0 71 -23t29 -59q0 -38 -37.5 -86.5t-151.5 -170.5q-8 -8 -12.5 -13t-12 -12.5t-13.5 -14.5z" />
    <glyph glyph-name="uni0157" unicode="&#x157;" horiz-adv-x="993" 
d="M256 0h-123l199 1128h119l-48 -243h11q75 124 214 200t290 76q88 0 153 -22l-20 -121q-63 29 -170 29q-98 0 -189.5 -41t-159 -108t-114 -153t-62.5 -176zM41 -498h-64l144 187q-86 17 -86 80q0 45 39.5 78.5t93.5 33.5q42 0 71 -23t29 -59q0 -38 -37.5 -86.5
t-151.5 -170.5q-25 -26 -38 -40z" />
    <glyph glyph-name="Rcaron" unicode="&#x158;" horiz-adv-x="1697" 
d="M1341 2017h117l-368 -297h-179l-264 297h117q157 -134 250 -227q28 20 85.5 61.5t79.5 57t66.5 45.5t95.5 63zM305 0h-133l283 1597h657q251 0 398 -102t147 -293q0 -100 -44 -195.5t-121 -170.5t-190.5 -125t-244.5 -60l-2 -2q36 -56 122 -189.5t154 -242.5t131 -217
h-145l-410 647h-487q-16 -86 -34 -192.5t-81 -454.5zM436 754h525q245 0 401 118t156 297q0 156 -117.5 239t-331.5 83h-500q-20 -109 -56.5 -314t-76.5 -423z" />
    <glyph glyph-name="rcaron" unicode="&#x159;" horiz-adv-x="993" 
d="M774 1280h-184l-291 356h117q20 -19 63.5 -59.5t62.5 -59.5t50 -49t55.5 -55.5t48.5 -52.5q112 89 379 276h119zM256 0h-123l199 1128h119l-48 -243h11q75 124 214 200t290 76q88 0 153 -22l-20 -121q-63 29 -170 29q-98 0 -189.5 -41t-159 -108t-114 -153t-62.5 -176z
" />
    <glyph glyph-name="Sacute" unicode="&#x15a;" horiz-adv-x="1572" 
d="M1395 2038l-465 -318h-115l375 318h205zM711 -35q-84 0 -163 14t-158.5 48.5t-141.5 86t-107.5 133.5t-60.5 185l127 41q27 -191 170.5 -294t359.5 -103q229 0 389 109.5t160 263.5q0 50 -23 91t-47 64.5t-83.5 47.5t-86 32t-100.5 27q-8 3 -12.5 4t-11.5 3t-13 3
l-172 47q-45 12 -78.5 22.5t-84 30t-88 39.5t-79 51t-67.5 65.5t-43.5 81t-17.5 99.5q0 126 89.5 234.5t247.5 173.5t347 65q242 0 389.5 -104t177.5 -279l-125 -45q-30 145 -154.5 231.5t-316.5 86.5q-218 0 -366 -99.5t-148 -236.5q0 -54 28 -101t61.5 -75.5t93 -56
t88.5 -37t82 -25.5q9 -3 13 -4l177 -49q172 -47 232 -71q197 -78 233 -218q8 -33 8 -70q0 -97 -57 -190.5t-152.5 -164t-231.5 -114t-284 -43.5z" />
    <glyph glyph-name="sacute" unicode="&#x15b;" horiz-adv-x="1193" 
d="M1214 1671l-442 -393h-110l370 393h182zM524 -35q-190 0 -325 87.5t-166 228.5l121 34q35 -113 145 -182.5t252 -69.5q151 0 263 73.5t112 174.5q0 26 -8.5 47.5t-20 37t-36 30.5t-42 23.5t-52.5 19t-54 15t-60 14.5l-118 30q-28 7 -39.5 10t-44.5 12.5t-51 17t-49 22
t-49.5 28.5t-42 35t-36 43.5t-21.5 52t-9 62.5q0 93 65 174t176.5 128.5t241.5 47.5q168 0 285 -77t145 -197l-129 -37q-22 90 -107.5 151.5t-220.5 61.5q-137 0 -231 -65t-94 -158q0 -29 11 -55t26.5 -44.5t42 -36t48.5 -28.5t56 -22.5t54 -17t52 -13.5l127 -31
q35 -9 49 -13t50.5 -15t55 -20t49 -24.5t47 -32.5t34 -39t25.5 -50t8 -60q0 -69 -40.5 -136t-110.5 -119.5t-171 -85t-213 -32.5z" />
    <glyph glyph-name="Scedilla" unicode="&#x15e;" horiz-adv-x="1572" 
d="M786 885l177 -49q172 -47 232 -71q197 -78 233 -218q8 -33 8 -70q0 -95 -54.5 -186.5t-147 -162t-223 -115t-274.5 -48.5l-133 -131q51 19 109 19q88 0 140 -37t52 -99q0 -83 -83.5 -143.5t-207.5 -60.5q-80 0 -155.5 29t-120.5 79l68 49q32 -40 90.5 -65t119.5 -25
q80 0 136.5 36.5t56.5 88.5q0 39 -39 63.5t-98 24.5q-67 0 -121 -26l-51 49l145 151q-100 7 -188 35t-168.5 80.5t-135.5 142t-73 207.5l127 41q27 -191 170.5 -294t359.5 -103q229 0 389 109.5t160 263.5q0 50 -23 91t-47 64.5t-83.5 47.5t-86 32t-100.5 27q-8 3 -12.5 4
t-11.5 3t-13 3l-172 47q-45 12 -78.5 22.5t-84 30t-88 39.5t-79 51t-67.5 65.5t-43.5 81t-17.5 99.5q0 126 89.5 234.5t247.5 173.5t347 65q242 0 389.5 -104t177.5 -279l-125 -45q-30 145 -154.5 231.5t-316.5 86.5q-218 0 -366 -99.5t-148 -236.5q0 -54 28 -101
t61.5 -75.5t93 -56t88.5 -37t82 -25.5q9 -3 13 -4z" />
    <glyph glyph-name="scedilla" unicode="&#x15f;" horiz-adv-x="1193" 
d="M614 623l127 -31q35 -9 49 -13t50.5 -15t55 -20t49 -24.5t47 -32.5t34 -39t25.5 -50t8 -60q0 -89 -64.5 -172.5t-183 -139.5t-260.5 -61l-133 -131q51 19 108 19q88 0 140.5 -37t52.5 -99q0 -83 -83.5 -143.5t-207.5 -60.5q-80 0 -155.5 29t-120.5 79l67 49
q32 -40 91 -65t120 -25q80 0 136.5 36.5t56.5 88.5q0 39 -39.5 63.5t-98.5 24.5q-66 0 -120 -26l-52 49l146 151q-166 15 -282 100t-144 214l121 34q35 -113 145 -182.5t252 -69.5q151 0 263 73.5t112 174.5q0 26 -8.5 47.5t-20 37t-36 30.5t-42 23.5t-52.5 19t-54 15
t-60 14.5l-118 30q-28 7 -39.5 10t-44.5 12.5t-51 17t-49 22t-49.5 28.5t-42 35t-36 43.5t-21.5 52t-9 62.5q0 93 65 174t176.5 128.5t241.5 47.5q168 0 285 -77t145 -197l-129 -37q-22 90 -107.5 151.5t-220.5 61.5q-137 0 -231 -65t-94 -158q0 -29 11 -55t26.5 -44.5
t42 -36t48.5 -28.5t56 -22.5t54 -17t52 -13.5z" />
    <glyph glyph-name="Scaron" unicode="&#x160;" horiz-adv-x="1572" 
d="M1323 2017h117l-369 -297h-178l-264 297h116q157 -134 250 -227q222 159 328 227zM711 -35q-84 0 -163 14t-158.5 48.5t-141.5 86t-107.5 133.5t-60.5 185l127 41q27 -191 170.5 -294t359.5 -103q229 0 389 109.5t160 263.5q0 50 -23 91t-47 64.5t-83.5 47.5t-86 32
t-100.5 27q-8 3 -12.5 4t-11.5 3t-13 3l-172 47q-45 12 -78.5 22.5t-84 30t-88 39.5t-79 51t-67.5 65.5t-43.5 81t-17.5 99.5q0 126 89.5 234.5t247.5 173.5t347 65q242 0 389.5 -104t177.5 -279l-125 -45q-30 145 -154.5 231.5t-316.5 86.5q-218 0 -366 -99.5t-148 -236.5
q0 -54 28 -101t61.5 -75.5t93 -56t88.5 -37t82 -25.5q9 -3 13 -4l177 -49q172 -47 232 -71q197 -78 233 -218q8 -33 8 -70q0 -97 -57 -190.5t-152.5 -164t-231.5 -114t-284 -43.5z" />
    <glyph glyph-name="scaron" unicode="&#x161;" horiz-adv-x="1193" 
d="M813 1280h-184l-291 356h117q20 -19 63.5 -59.5t62.5 -59.5t50 -49t55.5 -55.5t48.5 -52.5q112 89 379 276h119zM524 -35q-190 0 -325 87.5t-166 228.5l121 34q35 -113 145 -182.5t252 -69.5q151 0 263 73.5t112 174.5q0 26 -8.5 47.5t-20 37t-36 30.5t-42 23.5t-52.5 19
t-54 15t-60 14.5l-118 30q-28 7 -39.5 10t-44.5 12.5t-51 17t-49 22t-49.5 28.5t-42 35t-36 43.5t-21.5 52t-9 62.5q0 93 65 174t176.5 128.5t241.5 47.5q168 0 285 -77t145 -197l-129 -37q-22 90 -107.5 151.5t-220.5 61.5q-137 0 -231 -65t-94 -158q0 -29 11 -55
t26.5 -44.5t42 -36t48.5 -28.5t56 -22.5t54 -17t52 -13.5l127 -31q35 -9 49 -13t50.5 -15t55 -20t49 -24.5t47 -32.5t34 -39t25.5 -50t8 -60q0 -69 -40.5 -136t-110.5 -119.5t-171 -85t-213 -32.5z" />
    <glyph glyph-name="uni0162" unicode="&#x162;" horiz-adv-x="1544" 
d="M199 1491l18 106h1477l-17 -106h-673q-34 -187 -78.5 -441.5t-186.5 -1049.5h-18l-168 -166q51 19 109 19q88 0 140 -37t52 -99q0 -83 -83.5 -143.5t-207.5 -60.5q-80 0 -155.5 29t-120.5 79l67 49q32 -40 91 -65t120 -25q80 0 136.5 36.5t56.5 88.5q0 39 -39 63.5
t-98 24.5q-67 0 -121 -26l-51 49l176 184h-19q28 159 41 233t25 140.5t64.5 360t135.5 757.5h-673z" />
    <glyph glyph-name="uni0163" unicode="&#x163;" horiz-adv-x="882" 
d="M922 1030h-426l-121 -668q-5 -29 -7.5 -44t-6 -44t-3.5 -45.5t2 -41.5t9 -40t18.5 -32t29 -26.5t42.5 -16t57 -6.5q117 0 244 65l-19 -108q-116 -58 -258 -58q-33 0 -47 2l-135 -133q51 19 109 19q88 0 140 -37t52 -99q0 -83 -83.5 -143.5t-207.5 -60.5q-80 0 -155.5 29
t-120.5 79l67 49q32 -40 91 -65t120 -25q80 0 136.5 36.5t56.5 88.5q0 39 -39 63.5t-98 24.5q-67 0 -121 -26l-51 49l161 168q-33 12 -57 32.5t-37.5 42.5t-21 53t-9.5 56t0.5 59t5.5 55t9 52l125 696h-271l15 98h270l59 338h125l-57 -338h422z" />
    <glyph glyph-name="Tcaron" unicode="&#x164;" horiz-adv-x="1544" 
d="M1317 2017h117l-369 -297h-178l-264 297h116q157 -134 250 -227q222 159 328 227zM739 0h-133q28 159 41 233t25 140.5t64.5 360t135.5 757.5h-673l18 106h1477l-17 -106h-673q-34 -187 -78.5 -441.5t-186.5 -1049.5z" />
    <glyph glyph-name="tcaron" unicode="&#x165;" horiz-adv-x="882" 
d="M1034 1190h-86l187 248q-31 9 -48.5 30.5t-17.5 49.5q0 46 42 81t97 35q42 0 69.5 -24t27.5 -62q0 -36 -47.5 -99t-223.5 -259zM483 -35q-48 0 -86.5 8.5t-65 22.5t-46 35.5t-30.5 43t-16.5 51t-6.5 53.5t1.5 55.5t6 51.5t8.5 48l125 696h-271l15 98h270l59 338h125
l-57 -338h422l-14 -98h-426l-121 -668q-5 -29 -7.5 -44t-6 -44t-3.5 -45.5t2 -41.5t9 -40t18.5 -32t29 -26.5t42.5 -16t57 -6.5q117 0 244 65l-19 -108q-116 -58 -258 -58z" />
    <glyph glyph-name="Tbar" unicode="&#x166;" horiz-adv-x="1544" 
d="M1694 1597l-17 -106h-673q-47 -262 -113 -645h440l-14 -96h-445q-10 -58 -53.5 -304.5t-79.5 -445.5h-133q20 119 32.5 188.5t19.5 108.5t28.5 158t52.5 295h-444l14 96h449l114 645h-673l18 106h1477z" />
    <glyph glyph-name="tbar" unicode="&#x167;" horiz-adv-x="882" 
d="M936 1128l-14 -98h-426l-62 -344h404l-15 -94h-407l-41 -230q-5 -29 -7.5 -44t-6 -44t-3.5 -45.5t2 -41.5t9 -40t18.5 -32t29 -26.5t42.5 -16t57 -6.5q117 0 244 65l-19 -108q-116 -58 -258 -58q-48 0 -86.5 8.5t-65 22.5t-46 35.5t-30.5 43t-16.5 51t-6.5 53.5t1.5 55.5
t6 51.5t8.5 48l47 258h-266l16 94h266l62 344h-271l15 98h270l59 338h125l-57 -338h422z" />
    <glyph glyph-name="Umacron" unicode="&#x16a;" horiz-adv-x="1855" 
d="M1550 1839h-784l18 100h783zM819 -35q-151 0 -266.5 37t-192.5 110t-105 190t-1 269l180 1026h133l-180 -1019q-46 -259 75.5 -382.5t379.5 -123.5q170 0 299.5 52t218.5 167t119 287l182 1019h131l-182 -1026q-51 -279 -254 -442.5t-537 -163.5z" />
    <glyph glyph-name="umacron" unicode="&#x16b;" horiz-adv-x="1529" 
d="M1305 1430h-826l19 98h825zM592 -35q-60 0 -114 9.5t-107 31t-91.5 56.5t-67.5 85.5t-35 118t7 154.5l125 708h123l-117 -661q-11 -79 -7.5 -139t27 -105t54 -75t73 -48t85 -26t88.5 -8q106 0 200.5 38t160 99.5t108 134.5t55.5 147l115 643h123l-137 -776
q-39 -213 -17 -352h-127q-13 134 6 221h-6q-202 -256 -524 -256z" />
    <glyph glyph-name="Uring" unicode="&#x16e;" horiz-adv-x="1855" 
d="M1133 1714q-101 0 -163.5 51t-62.5 133q0 99 89 172.5t214 73.5q101 0 163.5 -51t62.5 -133q0 -98 -88.5 -172t-214.5 -74zM1149 1800q78 0 133 45t55 109q0 48 -40.5 76t-102.5 28q-80 0 -134 -43.5t-54 -107.5q0 -50 40 -78.5t103 -28.5zM819 -35q-151 0 -266.5 37
t-192.5 110t-105 190t-1 269l180 1026h133l-180 -1019q-46 -259 75.5 -382.5t379.5 -123.5q170 0 299.5 52t218.5 167t119 287l182 1019h131l-182 -1026q-51 -279 -254 -442.5t-537 -163.5z" />
    <glyph glyph-name="uring" unicode="&#x16f;" horiz-adv-x="1529" 
d="M858 1245q-101 0 -164 51.5t-63 133.5q0 99 89 172t214 73q101 0 164 -51t63 -133q0 -98 -88.5 -172t-214.5 -74zM872 1331q80 0 135.5 45t55.5 109q0 48 -40.5 76t-102.5 28q-82 0 -136.5 -43t-54.5 -108q0 -50 40 -78.5t103 -28.5zM592 -35q-60 0 -114 9.5t-107 31
t-91.5 56.5t-67.5 85.5t-35 118t7 154.5l125 708h123l-117 -661q-11 -79 -7.5 -139t27 -105t54 -75t73 -48t85 -26t88.5 -8q106 0 200.5 38t160 99.5t108 134.5t55.5 147l115 643h123l-137 -776q-39 -213 -17 -352h-127q-13 134 6 221h-6q-202 -256 -524 -256z" />
    <glyph glyph-name="Uhungarumlaut" unicode="&#x170;" horiz-adv-x="1855" 
d="M1360 2038l-383 -318h-115l309 318h189zM1708 2038l-403 -318h-117l334 318h186zM819 -35q-151 0 -266.5 37t-192.5 110t-105 190t-1 269l180 1026h133l-180 -1019q-46 -259 75.5 -382.5t379.5 -123.5q170 0 299.5 52t218.5 167t119 287l182 1019h131l-182 -1026
q-51 -279 -254 -442.5t-537 -163.5z" />
    <glyph glyph-name="uhungarumlaut" unicode="&#x171;" horiz-adv-x="1529" 
d="M1104 1673l-395 -395h-111l322 395h184zM1458 1673l-420 -395h-110l346 395h184zM592 -35q-60 0 -114 9.5t-107 31t-91.5 56.5t-67.5 85.5t-35 118t7 154.5l125 708h123l-117 -661q-11 -79 -7.5 -139t27 -105t54 -75t73 -48t85 -26t88.5 -8q106 0 200.5 38t160 99.5
t108 134.5t55.5 147l115 643h123l-137 -776q-39 -213 -17 -352h-127q-13 134 6 221h-6q-202 -256 -524 -256z" />
    <glyph glyph-name="Uogonek" unicode="&#x172;" horiz-adv-x="1855" 
d="M1479 578l182 1019h131l-182 -1026q-45 -254 -218 -413.5t-458 -186.5q-191 -95 -191 -213q0 -64 56 -100.5t139 -36.5q47 0 111 14l-17 -84q-69 -14 -114 -14q-123 0 -202 52.5t-79 144.5q0 132 170 231q-149 2 -262 39.5t-188.5 111t-102.5 189t0 266.5l180 1026h133
l-180 -1019q-46 -259 75.5 -382.5t379.5 -123.5q170 0 299.5 52t218.5 167t119 287z" />
    <glyph glyph-name="uogonek" unicode="&#x173;" horiz-adv-x="1529" 
d="M985 -242q0 -64 55 -100.5t140 -36.5q46 0 106 14l-16 -84q-63 -14 -115 -14q-127 0 -202.5 53.5t-75.5 143.5q0 152 239 266q-13 134 6 221h-6q-202 -256 -524 -256q-60 0 -114 9.5t-107 31t-91.5 56.5t-67.5 85.5t-35 118t7 154.5l125 708h123l-117 -661
q-11 -79 -7.5 -139t27 -105t54 -75t73 -48t85 -26t88.5 -8q106 0 200.5 38t160 99.5t108 134.5t55.5 147l115 643h123l-137 -776q-39 -213 -17 -352h-8q-250 -103 -250 -242z" />
    <glyph glyph-name="Wcircumflex" unicode="&#x174;" horiz-adv-x="2777" 
d="M1735 2017l264 -297h-115q-195 175 -248 228q-32 -23 -80.5 -59t-100 -71t-148.5 -98h-117l369 297h176zM739 0h-155l-351 1597h136q226 -971 319 -1445h4q491 870 807 1445h146q7 -35 124.5 -596t174.5 -849h6q496 883 827 1445h137l-917 -1597h-156q-148 665 -291 1436
h-4q-489 -895 -807 -1436z" />
    <glyph glyph-name="wcircumflex" unicode="&#x175;" horiz-adv-x="2209" 
d="M901 1278h-119l420 356h184l293 -356h-118q-23 23 -78.5 75.5t-106 103t-92.5 97.5q-102 -82 -383 -276zM573 0h-120l-303 1128h133l256 -974h6l596 974h133l260 -974h4l592 974h135l-700 -1128h-123q-164 598 -252 997h-6q-288 -488 -611 -997z" />
    <glyph glyph-name="Ycircumflex" unicode="&#x176;" horiz-adv-x="1679" 
d="M1186 2017l264 -297h-115q-195 175 -248 228q-32 -23 -80.5 -59t-100 -71t-148.5 -98h-117l369 297h176zM805 0h-131l106 592q-20 36 -226 407t-321 598h146l485 -895h4q89 99 143.5 162.5t86 100t172.5 192.5t403 440h139q-797 -890 -901 -1005q-92 -521 -106 -592z" />
    <glyph glyph-name="ycircumflex" unicode="&#x177;" horiz-adv-x="1308" 
d="M432 1278h-119l420 356h185l292 -356h-118q-23 23 -78.5 75.5t-106 103t-92.5 97.5q-102 -82 -383 -276zM315 -451h-106l287 441l-353 1138h136q54 -172 152 -504t147 -491h6q70 107 203.5 314.5t240 371.5t203.5 309h135z" />
    <glyph glyph-name="Ydieresis" unicode="&#x178;" horiz-adv-x="1679" 
d="M831 1794q-42 0 -70 24t-28 60q0 43 39 77t90 34q41 0 67.5 -23t26.5 -57q0 -46 -37.5 -80.5t-87.5 -34.5zM1288 1794q-43 0 -70.5 23.5t-27.5 58.5q0 46 39 79.5t90 33.5q41 0 68.5 -24t27.5 -58q0 -43 -39 -78t-88 -35zM805 0h-131l106 592q-20 36 -226 407t-321 598
h146l485 -895h4q89 99 143.5 162.5t86 100t172.5 192.5t403 440h139q-797 -890 -901 -1005q-92 -521 -106 -592z" />
    <glyph glyph-name="Zacute" unicode="&#x179;" horiz-adv-x="1599" 
d="M1458 2038l-465 -318h-114l376 318h203zM1430 0h-1461l21 119q254 229 759.5 683.5t759.5 684.5l2 4h-1226l18 106h1389l-23 -112q-282 -255 -800.5 -719.5t-723.5 -648.5l-2 -4h1305z" />
    <glyph glyph-name="zacute" unicode="&#x17a;" horiz-adv-x="1163" 
d="M1202 1671l-442 -393h-111l371 393h182zM1012 0h-1043l15 82l985 944h-768l16 102h936l-12 -81l-991 -945h876z" />
    <glyph glyph-name="Zdotaccent" unicode="&#x17b;" horiz-adv-x="1599" 
d="M997 1790q-44 0 -73 25.5t-29 62.5q0 47 42 83t97 36q43 0 73 -24.5t30 -61.5q0 -47 -43 -84t-97 -37zM1430 0h-1461l21 119q254 229 759.5 683.5t759.5 684.5l2 4h-1226l18 106h1389l-23 -112q-282 -255 -800.5 -719.5t-723.5 -648.5l-2 -4h1305z" />
    <glyph glyph-name="zdotaccent" unicode="&#x17c;" horiz-adv-x="1163" 
d="M741 1436q-44 0 -73 25t-29 63q0 47 41.5 82.5t97.5 35.5q43 0 73 -25.5t30 -60.5q0 -47 -43 -83.5t-97 -36.5zM1012 0h-1043l15 82l985 944h-768l16 102h936l-12 -81l-991 -945h876z" />
    <glyph glyph-name="Zcaron" unicode="&#x17d;" horiz-adv-x="1599" 
d="M1309 2017h116l-368 -297h-178l-265 297h117q157 -134 250 -227q222 159 328 227zM1430 0h-1461l21 119q254 229 759.5 683.5t759.5 684.5l2 4h-1226l18 106h1389l-23 -112q-282 -255 -800.5 -719.5t-723.5 -648.5l-2 -4h1305z" />
    <glyph glyph-name="zcaron" unicode="&#x17e;" horiz-adv-x="1163" 
d="M803 1280h-185l-290 356h116q21 -20 77 -72.5t78.5 -74t59 -59t66.5 -70.5q112 89 379 276h119zM1012 0h-1043l15 82l985 944h-768l16 102h936l-12 -81l-991 -945h876z" />
    <glyph glyph-name="uni0218" unicode="&#x218;" horiz-adv-x="1572" 
d="M711 -35q-84 0 -163 14t-158.5 48.5t-141.5 86t-107.5 133.5t-60.5 185l127 41q27 -191 170.5 -294t359.5 -103q229 0 389 109.5t160 263.5q0 50 -23 91t-47 64.5t-83.5 47.5t-86 32t-100.5 27q-8 3 -12.5 4t-11.5 3t-13 3l-172 47q-45 12 -78.5 22.5t-84 30t-88 39.5
t-79 51t-67.5 65.5t-43.5 81t-17.5 99.5q0 126 89.5 234.5t247.5 173.5t347 65q242 0 389.5 -104t177.5 -279l-125 -45q-30 145 -154.5 231.5t-316.5 86.5q-218 0 -366 -99.5t-148 -236.5q0 -54 28 -101t61.5 -75.5t93 -56t88.5 -37t82 -25.5q9 -3 13 -4l177 -49
q172 -47 232 -71q197 -78 233 -218q8 -33 8 -70q0 -97 -57 -190.5t-152.5 -164t-231.5 -114t-284 -43.5zM563 -498h-63l143 187q-86 17 -86 80q0 45 39.5 78.5t93.5 33.5q42 0 71.5 -23t29.5 -59q0 -37 -35.5 -83t-148.5 -167q-28 -30 -44 -47z" />
    <glyph glyph-name="uni0219" unicode="&#x219;" horiz-adv-x="1193" 
d="M524 -35q-190 0 -325 87.5t-166 228.5l121 34q35 -113 145 -182.5t252 -69.5q151 0 263 73.5t112 174.5q0 26 -8.5 47.5t-20 37t-36 30.5t-42 23.5t-52.5 19t-54 15t-60 14.5l-118 30q-28 7 -39.5 10t-44.5 12.5t-51 17t-49 22t-49.5 28.5t-42 35t-36 43.5t-21.5 52
t-9 62.5q0 93 65 174t176.5 128.5t241.5 47.5q168 0 285 -77t145 -197l-129 -37q-22 90 -107.5 151.5t-220.5 61.5q-137 0 -231 -65t-94 -158q0 -29 11 -55t26.5 -44.5t42 -36t48.5 -28.5t56 -22.5t54 -17t52 -13.5l127 -31q35 -9 49 -13t50.5 -15t55 -20t49 -24.5t47 -32.5
t34 -39t25.5 -50t8 -60q0 -69 -40.5 -136t-110.5 -119.5t-171 -85t-213 -32.5zM377 -498h-64l144 187q-86 17 -86 80q0 45 39.5 78.5t93.5 33.5q42 0 71 -23t29 -59q0 -38 -37.5 -86.5t-151.5 -170.5q-25 -26 -38 -40z" />
    <glyph glyph-name="uni021A" unicode="&#x21a;" horiz-adv-x="1544" 
d="M739 0h-133q28 159 41 233t25 140.5t64.5 360t135.5 757.5h-673l18 106h1477l-17 -106h-673q-34 -187 -78.5 -441.5t-186.5 -1049.5zM512 -498h-63l143 187q-86 17 -86 80q0 45 39.5 78.5t93.5 33.5q42 0 71 -23t29 -59q0 -38 -37.5 -86.5t-151.5 -170.5q-8 -8 -12.5 -13
t-12 -12.5t-13.5 -14.5z" />
    <glyph glyph-name="uni021B" unicode="&#x21b;" horiz-adv-x="882" 
d="M483 -35q-48 0 -86.5 8.5t-65 22.5t-46 35.5t-30.5 43t-16.5 51t-6.5 53.5t1.5 55.5t6 51.5t8.5 48l125 696h-271l15 98h270l59 338h125l-57 -338h422l-14 -98h-426l-121 -668q-5 -29 -7.5 -44t-6 -44t-3.5 -45.5t2 -41.5t9 -40t18.5 -32t29 -26.5t42.5 -16t57 -6.5
q117 0 244 65l-19 -108q-116 -58 -258 -58zM260 -498h-63l143 187q-86 17 -86 80q0 45 39.5 78.5t93.5 33.5q42 0 71 -23t29 -59q0 -38 -37.5 -86.5t-151.5 -170.5q-25 -26 -38 -40z" />
    <glyph glyph-name="gravecomb" unicode="&#x300;" horiz-adv-x="0" 
d="M117 1278h-111l-305 393h184z" />
    <glyph glyph-name="acutecomb" unicode="&#x301;" horiz-adv-x="0" 
d="M446 1671l-442 -393h-110l370 393h182z" />
    <glyph glyph-name="uni0302" unicode="&#x302;" horiz-adv-x="0" 
d="M-571 1278h-119l420 356h184l293 -356h-119q-23 23 -78.5 76t-105.5 103t-92 97q-102 -82 -383 -276z" />
    <glyph glyph-name="tildecomb" unicode="&#x303;" horiz-adv-x="0" 
d="M-131 1341q-40 0 -73.5 11t-50.5 22.5t-48 36.5q-7 5 -10 8l-39 33q-4 3 -16 12.5t-17 13t-16 10t-19.5 9.5t-21 5.5t-25.5 2.5q-60 0 -104 -41.5t-58 -107.5h-98q22 106 100.5 171.5t182.5 65.5q50 0 87 -18t76 -51l45 -37q66 -57 132 -57q58 0 99.5 41.5t53.5 107.5
h101q-21 -107 -96.5 -172.5t-184.5 -65.5z" />
    <glyph glyph-name="uni0304" unicode="&#x304;" horiz-adv-x="0" 
d="M164 1427h-826l19 99h825z" />
    <glyph glyph-name="uni0306" unicode="&#x306;" horiz-adv-x="0" 
d="M-238 1278q-204 0 -301 110.5t-73 284.5h116q-20 -137 57.5 -218t215.5 -81q140 0 246.5 81t138.5 218h119q-39 -174 -178 -284.5t-341 -110.5z" />
    <glyph glyph-name="uni0307" unicode="&#x307;" horiz-adv-x="0" 
d="M-23 1434q-44 0 -73 25t-29 63q0 47 41.5 82.5t97.5 35.5q43 0 73 -25.5t30 -60.5q0 -47 -43 -83.5t-97 -36.5z" />
    <glyph glyph-name="uni0308" unicode="&#x308;" horiz-adv-x="0" 
d="M-760 1382q-42 0 -70 24t-28 60q0 43 39 76t90 33q41 0 67.5 -22.5t26.5 -55.5q0 -45 -37.5 -80t-87.5 -35zM-350 1382q-42 0 -69 23t-27 59q0 46 37.5 78.5t89.5 32.5q40 0 68 -23t28 -57q0 -44 -39.5 -78.5t-87.5 -34.5z" />
    <glyph glyph-name="uni030A" unicode="&#x30a;" horiz-adv-x="0" 
d="M-41 1245q-101 0 -164 51.5t-63 133.5q0 99 89 172t214 73q101 0 164 -51t63 -133q0 -98 -88.5 -172t-214.5 -74zM-27 1331q80 0 135.5 45t55.5 109q0 48 -41 76t-103 28q-82 0 -136 -43t-54 -108q0 -50 40 -78.5t103 -28.5z" />
    <glyph glyph-name="uni030B" unicode="&#x30b;" horiz-adv-x="0" 
d="M190 1673l-395 -395h-110l321 395h184zM545 1673l-420 -395h-111l346 395h185z" />
    <glyph glyph-name="uni030C" unicode="&#x30c;" horiz-adv-x="0" 
d="M-150 1278h-184l-291 356h117q21 -20 77 -72.5t78.5 -74t59 -59t66.5 -70.5q112 89 379 276h118z" />
    <glyph glyph-name="uni0312" unicode="&#x312;" horiz-adv-x="0" 
d="M-258 1321q0 37 49 100.5t219 251.5h84l-182 -243q65 -20 65 -80q0 -46 -41.5 -80.5t-95.5 -34.5q-41 0 -69.5 24.5t-28.5 61.5z" />
    <glyph glyph-name="uni0326" unicode="&#x326;" horiz-adv-x="0" 
d="M-469 -498h-63l143 187q-86 17 -86 80q0 45 39.5 78.5t93.5 33.5q42 0 71 -23t29 -59q0 -38 -37.5 -86.5t-151.5 -170.5q-25 -26 -38 -40z" />
    <glyph glyph-name="uni0327" unicode="&#x327;" horiz-adv-x="0" 
d="M-829 -487q-80 0 -156 29t-121 79l68 49q32 -40 91 -65t120 -25q80 0 136 36.5t56 88.5q0 39 -39 63.5t-98 24.5q-67 0 -121 -26l-51 49l176 184h96l-168 -166q51 19 109 19q88 0 140 -37t52 -99q0 -83 -83 -143.5t-207 -60.5z" />
    <glyph glyph-name="uni0328" unicode="&#x328;" horiz-adv-x="0" 
d="M-831 -483q-127 0 -203 53.5t-76 142.5q0 152 240 267h118q-249 -103 -249 -242q0 -64 54.5 -100.5t139.5 -36.5q47 0 107 14l-17 -84q-63 -14 -114 -14z" />
    <glyph glyph-name="uni0335" unicode="&#x335;" horiz-adv-x="0" 
d="M-735 610h792l-14 -94h-795z" />
    <glyph glyph-name="uni0337" unicode="&#x337;" horiz-adv-x="0" 
d="M-453 537l19 100l672 371l-15 -103z" />
    <glyph glyph-name="uni0338" unicode="&#x338;" horiz-adv-x="0" 
d="M-1235 -55h-141l1319 1235h135z" />
    <glyph glyph-name="Wgrave" unicode="&#x1e80;" horiz-adv-x="2777" 
d="M1688 1720h-117l-354 318h206zM739 0h-155l-351 1597h136q226 -971 319 -1445h4q491 870 807 1445h146q7 -35 124.5 -596t174.5 -849h6q496 883 827 1445h137l-917 -1597h-156q-148 665 -291 1436h-4q-489 -895 -807 -1436z" />
    <glyph glyph-name="wgrave" unicode="&#x1e81;" horiz-adv-x="2209" 
d="M1294 1278h-110l-305 393h184zM573 0h-120l-303 1128h133l256 -974h6l596 974h133l260 -974h4l592 974h135l-700 -1128h-123q-164 598 -252 997h-6q-288 -488 -611 -997z" />
    <glyph glyph-name="Wacute" unicode="&#x1e82;" horiz-adv-x="2777" 
d="M2087 2038l-465 -318h-115l377 318h203zM739 0h-155l-351 1597h136q226 -971 319 -1445h4q491 870 807 1445h146q7 -35 124.5 -596t174.5 -849h6q496 883 827 1445h137l-917 -1597h-156q-148 665 -291 1436h-4q-489 -895 -807 -1436z" />
    <glyph glyph-name="wacute" unicode="&#x1e83;" horiz-adv-x="2209" 
d="M1722 1671l-442 -393h-111l371 393h182zM573 0h-120l-303 1128h133l256 -974h6l596 974h133l260 -974h4l592 974h135l-700 -1128h-123q-164 598 -252 997h-6q-288 -488 -611 -997z" />
    <glyph glyph-name="Wdieresis" unicode="&#x1e84;" horiz-adv-x="2777" 
d="M1382 1794q-42 0 -70 24t-28 60q0 43 39 77t90 34q41 0 67.5 -23t26.5 -57q0 -46 -37.5 -80.5t-87.5 -34.5zM1839 1794q-43 0 -70.5 23.5t-27.5 58.5q0 46 39 79.5t90 33.5q41 0 68.5 -24t27.5 -58q0 -43 -39 -78t-88 -35zM739 0h-155l-351 1597h136q226 -971 319 -1445
h4q491 870 807 1445h146q7 -35 124.5 -596t174.5 -849h6q496 883 827 1445h137l-917 -1597h-156q-148 665 -291 1436h-4q-489 -895 -807 -1436z" />
    <glyph glyph-name="wdieresis" unicode="&#x1e85;" horiz-adv-x="2209" 
d="M1047 1382q-42 0 -70.5 24.5t-28.5 59.5q0 43 39 76t90 33q41 0 67.5 -22.5t26.5 -55.5q0 -45 -37 -80t-87 -35zM1456 1382q-42 0 -69 23t-27 59q0 46 37.5 78.5t89.5 32.5q40 0 68 -23t28 -57q0 -44 -39.5 -78.5t-87.5 -34.5zM573 0h-120l-303 1128h133l256 -974h6
l596 974h133l260 -974h4l592 974h135l-700 -1128h-123q-164 598 -252 997h-6q-288 -488 -611 -997z" />
    <glyph glyph-name="uni1E9E" unicode="&#x1e9e;" horiz-adv-x="1824" 
d="M281 0h-134l168 948q8 46 15.5 81t24.5 91.5t37 100.5t54.5 99.5t76 96.5t102.5 83t132 69t166.5 44t204.5 17q284 0 439 -101.5t155 -281.5q0 -164 -121.5 -287t-306.5 -151l-2 -2q77 -4 143.5 -26.5t119 -63t82.5 -103t30 -139.5q0 -98 -47.5 -183.5t-137 -151
t-231 -103t-317.5 -37.5h-201l19 106h229q252 0 400.5 100.5t148.5 258.5q0 136 -112 210.5t-318 74.5h-129l14 106h150q196 0 321 103.5t125 259.5q0 148 -121 229.5t-346 81.5q-90 0 -169 -14.5t-137 -37t-107.5 -57.5t-83 -69t-61 -79.5t-43.5 -80t-29 -80t-18.5 -70.5
t-11.5 -59q-1 -4 -1 -6z" />
    <glyph glyph-name="Ygrave" unicode="&#x1ef2;" horiz-adv-x="1679" 
d="M1139 1720h-117l-354 318h206zM805 0h-131l106 592q-20 36 -226 407t-321 598h146l485 -895h4q89 99 143.5 162.5t86 100t172.5 192.5t403 440h139q-797 -890 -901 -1005q-92 -521 -106 -592z" />
    <glyph glyph-name="ygrave" unicode="&#x1ef3;" horiz-adv-x="1308" 
d="M825 1278h-110l-305 393h184zM315 -451h-106l287 441l-353 1138h136q54 -172 152 -504t147 -491h6q70 107 203.5 314.5t240 371.5t203.5 309h135z" />
    <glyph glyph-name="uni2000" unicode="&#x2000;" horiz-adv-x="1228" 
 />
    <glyph glyph-name="uni2001" unicode="&#x2001;" 
 />
    <glyph glyph-name="uni2002" unicode="&#x2002;" horiz-adv-x="1228" 
 />
    <glyph glyph-name="uni2003" unicode="&#x2003;" 
 />
    <glyph glyph-name="uni2004" unicode="&#x2004;" horiz-adv-x="819" 
 />
    <glyph glyph-name="uni2005" unicode="&#x2005;" horiz-adv-x="614" 
 />
    <glyph glyph-name="uni2006" unicode="&#x2006;" horiz-adv-x="409" 
 />
    <glyph glyph-name="uni2007" unicode="&#x2007;" horiz-adv-x="690" 
 />
    <glyph glyph-name="uni2008" unicode="&#x2008;" horiz-adv-x="548" 
 />
    <glyph glyph-name="uni2009" unicode="&#x2009;" horiz-adv-x="307" 
 />
    <glyph glyph-name="uni200A" unicode="&#x200a;" horiz-adv-x="102" 
 />
    <glyph glyph-name="uni200B" unicode="&#x200b;" horiz-adv-x="0" 
 />
    <glyph glyph-name="endash" unicode="&#x2013;" horiz-adv-x="1202" 
d="M1065 575h-924l17 97h923z" />
    <glyph glyph-name="emdash" unicode="&#x2014;" horiz-adv-x="1718" 
d="M1581 575h-1440l15 97h1439z" />
    <glyph glyph-name="quoteleft" unicode="&#x2018;" horiz-adv-x="538" 
d="M504 1630h86l-187 -248q64 -16 64 -77q0 -47 -40.5 -83t-96.5 -36q-42 0 -70.5 25t-28.5 63q0 35 48.5 98.5t224.5 257.5z" />
    <glyph glyph-name="quoteright" unicode="&#x2019;" horiz-adv-x="544" 
d="M342 1190h-88l188 246q-65 18 -65 80q0 46 41 81t96 35q42 0 70 -24t28 -62q0 -36 -46.5 -97.5t-223.5 -258.5z" />
    <glyph glyph-name="quotesinglbase" unicode="&#x201a;" horiz-adv-x="509" 
d="M66 -254h-86l186 248q-64 16 -64 78q0 46 41 82t97 36q41 0 68.5 -25t27.5 -63q0 -37 -47.5 -100t-222.5 -256z" />
    <glyph glyph-name="quotedblleft" unicode="&#x201c;" horiz-adv-x="890" 
d="M524 1630h86l-186 -248q63 -15 63 -77q0 -47 -40.5 -83t-96.5 -36q-42 0 -70 25t-28 63q0 36 48.5 99.5t223.5 256.5zM803 1630h86l-187 -248q31 -8 48.5 -28t17.5 -49q0 -47 -40.5 -83t-96.5 -36q-42 0 -70.5 25t-28.5 63q0 35 47.5 97.5t223.5 258.5z" />
    <glyph glyph-name="quotedblright" unicode="&#x201d;" horiz-adv-x="899" 
d="M340 1190h-86l186 246q-30 9 -46.5 30.5t-16.5 49.5q0 45 40.5 80.5t96.5 35.5q42 0 70 -24t28 -62t-46.5 -98t-225.5 -258zM694 1190h-88l187 246q-29 9 -45.5 30.5t-16.5 49.5q0 46 40 81t95 35q43 0 71 -24.5t28 -61.5q0 -35 -47.5 -97.5t-223.5 -258.5z" />
    <glyph glyph-name="quotedblbase" unicode="&#x201e;" horiz-adv-x="862" 
d="M43 -252h-86l186 248q-30 7 -46.5 28.5t-16.5 49.5q0 47 40.5 83t96.5 36q41 0 69.5 -25.5t28.5 -63.5q0 -36 -48.5 -99.5t-223.5 -256.5zM397 -252h-86l185 248q-30 7 -46 28t-16 50q0 48 40 83.5t95 35.5q42 0 70.5 -26t28.5 -63q0 -35 -47.5 -97.5t-223.5 -258.5z" />
    <glyph glyph-name="dagger" unicode="&#x2020;" horiz-adv-x="1191" 
d="M788 1290h416l-16 -106h-418l-131 -754h-129l133 754h-418l19 106h418l61 348h127z" />
    <glyph glyph-name="daggerdbl" unicode="&#x2021;" horiz-adv-x="1306" 
d="M1264 1290l-21 -106h-416l-53 -307h414l-17 -107h-413l-62 -346h-129l62 346h-418l18 107h418l53 307h-417l20 106h418l61 348h127l-61 -348h416z" />
    <glyph glyph-name="bullet" unicode="&#x2022;" horiz-adv-x="911" 
d="M469 426q-76 0 -128 45t-52 111q0 83 72 146t169 63q74 0 125.5 -43.5t51.5 -108.5q0 -80 -72.5 -146.5t-165.5 -66.5z" />
    <glyph glyph-name="ellipsis" unicode="&#x2026;" horiz-adv-x="1544" 
d="M217 -14q-43 0 -72.5 24.5t-29.5 61.5q0 47 41 82.5t96 35.5q40 0 69 -25t29 -61q0 -45 -40.5 -81.5t-92.5 -36.5zM614 -14q-43 0 -71.5 24.5t-28.5 61.5q0 47 40.5 82.5t94.5 35.5q42 0 71.5 -25t29.5 -61q0 -45 -41.5 -81.5t-94.5 -36.5zM1210 -14q-43 0 -71.5 24.5
t-28.5 61.5q0 47 40.5 82.5t94.5 35.5q41 0 69.5 -24.5t28.5 -61.5q0 -45 -40.5 -81.5t-92.5 -36.5z" />
    <glyph glyph-name="uni202F" unicode="&#x202f;" horiz-adv-x="493" 
 />
    <glyph glyph-name="perthousand" unicode="&#x2030;" horiz-adv-x="2752" 
d="M451 803q-117 0 -186.5 76t-69.5 206q0 81 29 160t79 140t122.5 99t152.5 38q117 0 186.5 -76.5t69.5 -208.5q0 -109 -49 -208.5t-138.5 -162.5t-195.5 -63zM260 0h-119l1624 1468h111zM461 887q106 0 184 105.5t78 240.5q0 95 -41.5 149t-114.5 54q-106 0 -184 -104.5
t-78 -239.5q0 -97 41 -151t115 -54zM1425 -29q-117 0 -186.5 76.5t-69.5 206.5q0 109 49 208.5t138 163.5t196 64q117 0 186.5 -76.5t69.5 -207.5q0 -109 -49 -209t-138.5 -163t-195.5 -63zM2241 -29q-117 0 -186.5 76.5t-69.5 206.5q0 109 48.5 208.5t137.5 163.5t196 64
q117 0 186.5 -76.5t69.5 -207.5q0 -109 -49 -209t-138 -163t-195 -63zM1436 55q106 0 184 105.5t78 240.5q0 95 -41.5 149t-114.5 54q-106 0 -184 -104.5t-78 -239.5q0 -97 41 -151t115 -54zM2251 55q106 0 184 105.5t78 240.5q0 95 -41.5 149t-114.5 54q-106 0 -184 -104.5
t-78 -239.5q0 -97 41 -151t115 -54z" />
    <glyph glyph-name="guilsinglleft" unicode="&#x2039;" horiz-adv-x="880" 
d="M639 164h-154l-344 405l2 9l488 405h153l-487 -405l-2 -9z" />
    <glyph glyph-name="guilsinglright" unicode="&#x203a;" horiz-adv-x="882" 
d="M725 541l-485 -377l-119 29l471 376l-12 37l-314 377l148 -29l331 -376z" />
    <glyph glyph-name="fraction" unicode="&#x2044;" horiz-adv-x="307" 
d="M-555 0h-119l1624 1468h111z" />
    <glyph glyph-name="uni205F" unicode="&#x205f;" horiz-adv-x="544" 
 />
    <glyph glyph-name="uni2070" unicode="&#x2070;" horiz-adv-x="815" 
d="M451 803q-117 0 -186.5 76t-69.5 206q0 81 29 160t79 140t122.5 99t152.5 38q117 0 186.5 -76.5t69.5 -208.5q0 -109 -49 -208.5t-138.5 -162.5t-195.5 -63zM461 887q106 0 184 105.5t78 240.5q0 95 -41.5 149t-114.5 54q-106 0 -184 -104.5t-78 -239.5q0 -97 41 -151
t115 -54z" />
    <glyph glyph-name="uni2074" unicode="&#x2074;" horiz-adv-x="763" 
d="M614 817h-98l29 160h-414l14 82l494 448h98l-80 -452h119l-14 -78h-117zM616 1384l-368 -329h311z" />
    <glyph glyph-name="uni2075" unicode="&#x2075;" horiz-adv-x="751" 
d="M412 803q-107 0 -183.5 43t-91.5 115l94 40q14 -55 69.5 -86.5t123.5 -31.5q92 0 156.5 53.5t64.5 124.5q0 58 -45 93.5t-113 35.5q-58 0 -109 -23.5t-83 -60.5l-80 24l160 377h411l-12 -77h-338l-104 -236q31 30 87.5 48t108.5 18q93 0 159.5 -49t66.5 -138
q0 -110 -101 -190t-241 -80z" />
    <glyph glyph-name="uni2076" unicode="&#x2076;" horiz-adv-x="784" 
d="M446 803q-123 0 -190.5 68t-67.5 190q0 86 36 169.5t96 148t145 104t176 39.5q127 0 190 -58l-67 -63q-49 41 -137 41q-115 0 -205.5 -76.5t-118.5 -214.5h2q31 52 102 83.5t142 31.5q97 0 166 -53t69 -142q0 -104 -98.5 -186t-239.5 -82zM463 881q87 0 154 55.5
t67 126.5q0 58 -46.5 96.5t-117.5 38.5q-87 0 -154 -55.5t-67 -126.5q0 -58 48 -96.5t116 -38.5z" />
    <glyph glyph-name="uni2077" unicode="&#x2077;" horiz-adv-x="657" 
d="M332 817h-109q24 138 149.5 321.5t286.5 299.5h-462l14 80h580l-13 -84q-166 -112 -294 -293.5t-152 -323.5z" />
    <glyph glyph-name="uni2078" unicode="&#x2078;" horiz-adv-x="770" 
d="M428 803q-115 0 -186.5 49.5t-71.5 126.5q0 67 54 124.5t134 74.5l4 4q-49 19 -75.5 52t-26.5 75q0 84 86 148.5t209 64.5q99 0 164 -45t65 -115q0 -58 -41 -107.5t-112 -72.5l-2 -4q61 -13 96 -52.5t35 -95.5q0 -92 -96.5 -159.5t-235.5 -67.5zM502 1212q74 0 130 41.5
t56 94.5q0 45 -40.5 73.5t-104.5 28.5q-75 0 -129 -38.5t-54 -92.5q0 -47 39.5 -77t102.5 -30zM444 883q87 0 148 46t61 111q0 51 -42.5 80t-118.5 29q-92 0 -152.5 -41.5t-60.5 -103.5q0 -55 45.5 -88t119.5 -33z" />
    <glyph glyph-name="uni2079" unicode="&#x2079;" horiz-adv-x="796" 
d="M399 803q-155 0 -237 100l69 60q68 -82 181 -82q118 0 192.5 82t97.5 208q-33 -58 -103.5 -90t-143.5 -32q-99 0 -167.5 54.5t-68.5 143.5q0 112 103.5 193.5t244.5 81.5q122 0 186 -65.5t64 -192.5q0 -118 -55.5 -224t-153 -171.5t-209.5 -65.5zM479 1116
q91 0 160.5 61.5t69.5 137.5q0 60 -47 95.5t-117 35.5q-91 0 -158.5 -57.5t-67.5 -133.5q0 -61 44.5 -100t115.5 -39z" />
    <glyph glyph-name="uni2080" unicode="&#x2080;" horiz-adv-x="815" 
d="M258 -285q-117 0 -186.5 76.5t-69.5 206.5q0 109 49 208.5t138 163.5t196 64q117 0 186.5 -76.5t69.5 -207.5q0 -109 -49 -209t-138.5 -163t-195.5 -63zM268 -201q106 0 184 105.5t78 240.5q0 95 -41 149t-114 54q-106 0 -184 -104.5t-78 -239.5q0 -97 41 -151t114 -54z
" />
    <glyph glyph-name="uni2081" unicode="&#x2081;" horiz-adv-x="507" 
d="M197 -270h-103l92 524q-88 -68 -198 -84l16 90q82 18 144 62.5t71 97.5h94z" />
    <glyph glyph-name="uni2082" unicode="&#x2082;" horiz-adv-x="737" 
d="M502 -270h-547l4 8q32 113 90.5 168.5t237.5 148.5q192 102 192 195q0 46 -39 74t-102 28q-84 0 -146 -47.5t-75 -124.5l-92 15q17 105 109 172t216 67q103 0 168.5 -47t65.5 -125q0 -133 -201 -242q-32 -18 -79 -41.5t-71 -37t-53 -33t-47.5 -41.5t-32.5 -51h414z" />
    <glyph glyph-name="uni2083" unicode="&#x2083;" horiz-adv-x="753" 
d="M225 -285q-107 0 -181.5 43.5t-88.5 114.5l96 39q16 -55 63 -87t122 -32q85 0 143.5 43.5t58.5 102.5q0 53 -46.5 80.5t-127.5 27.5h-82l11 70h88q83 0 138.5 39t55.5 98q0 46 -41 73t-106 27q-71 0 -125 -33.5t-74 -91.5l-90 19q27 84 115 135t194 51q98 0 165 -42
t67 -113q0 -62 -49 -117t-121 -72q62 -11 99.5 -47t37.5 -90q0 -97 -95.5 -167.5t-226.5 -70.5z" />
    <glyph glyph-name="uni2084" unicode="&#x2084;" horiz-adv-x="763" 
d="M422 -270h-98l28 159h-413l14 82l493 449h99l-80 -453h119l-15 -78h-116zM424 297l-369 -330h312z" />
    <glyph glyph-name="uni2085" unicode="&#x2085;" horiz-adv-x="751" 
d="M219 -285q-107 0 -183 43t-91 115l94 41q15 -55 70 -88t122 -33q92 0 157 54.5t65 125.5q0 58 -45 93.5t-113 35.5q-58 0 -109.5 -23.5t-83.5 -60.5l-79 25l159 377h412l-12 -78h-338l-105 -236q31 30 88 48t109 18q93 0 159 -48.5t66 -137.5q0 -110 -101.5 -190.5
t-240.5 -80.5z" />
    <glyph glyph-name="uni2086" unicode="&#x2086;" horiz-adv-x="784" 
d="M254 -285q-123 0 -190.5 68t-67.5 190q0 86 36 169.5t96 148t145 104t176 39.5q128 0 190 -57l-68 -64q-49 41 -137 41q-115 0 -205 -76.5t-118 -214.5h2q31 52 101.5 83.5t141.5 31.5q97 0 166.5 -52.5t69.5 -141.5q0 -105 -98.5 -187t-239.5 -82zM270 -207
q87 0 154.5 55.5t67.5 126.5q0 58 -46.5 97t-117.5 39q-87 0 -154.5 -56t-67.5 -127q0 -58 48 -96.5t116 -38.5z" />
    <glyph glyph-name="uni2087" unicode="&#x2087;" horiz-adv-x="657" 
d="M139 -270h-108q24 138 149.5 321t286.5 299h-463l14 80h580l-12 -84q-166 -112 -294.5 -293t-152.5 -323z" />
    <glyph glyph-name="uni2088" unicode="&#x2088;" horiz-adv-x="770" 
d="M236 -285q-115 0 -187 49.5t-72 126.5q0 67 54.5 124.5t134.5 74.5l4 4q-49 19 -75.5 52t-26.5 75q0 84 85.5 148.5t208.5 64.5q99 0 164.5 -45t65.5 -115q0 -58 -41.5 -107.5t-112.5 -72.5l-2 -4q61 -13 96 -52t35 -95q0 -92 -96 -160t-235 -68zM309 125q74 0 130.5 41
t56.5 94q0 44 -41 73t-105 29q-75 0 -128.5 -38.5t-53.5 -92.5q0 -47 39 -76.5t102 -29.5zM252 -205q87 0 148 46.5t61 111.5q0 51 -42.5 79.5t-119.5 28.5q-92 0 -152.5 -41.5t-60.5 -103.5q0 -55 46 -88t120 -33z" />
    <glyph glyph-name="uni2089" unicode="&#x2089;" horiz-adv-x="796" 
d="M207 -285q-68 0 -131.5 24.5t-106.5 76.5l70 59q68 -82 180 -82q118 0 193 82.5t98 208.5q-33 -58 -104 -90.5t-144 -32.5q-99 0 -167 55t-68 144q0 112 103.5 193t244.5 81q122 0 186 -65.5t64 -192.5q0 -118 -55.5 -224t-153 -171.5t-209.5 -65.5zM287 29q91 0 160 61
t69 137q0 60 -47 95.5t-117 35.5q-91 0 -158 -57t-67 -133q0 -61 44.5 -100t115.5 -39z" />
    <glyph glyph-name="Euro" unicode="&#x20ac;" horiz-adv-x="1935" 
d="M1409 1470q-274 0 -480.5 -134t-307.5 -349h837l-16 -98h-860q-39 -125 -39 -248h854l-17 -98h-831q28 -228 191 -349.5t442 -121.5q268 0 483 133l78 -84q-247 -156 -582 -156q-334 0 -528.5 151t-220.5 427h-265l17 98h244q3 137 38 248h-237l16 98h258
q112 262 363 427t588 165q327 0 516 -156l-109 -86q-159 133 -432 133z" />
    <glyph glyph-name="trademark" unicode="&#x2122;" horiz-adv-x="1859" 
d="M537 944h-107l107 588h-273l15 84h645l-17 -84h-266zM1055 944h-107l121 672h102q29 -88 89.5 -267.5t89.5 -267.5q61 88 182 267.5t182 267.5h105l-119 -672h-107l84 467q-28 -41 -47.5 -71t-34 -51.5t-71.5 -104.5t-158 -226h-82q-20 60 -47 148.5t-100 308.5z" />
    <glyph glyph-name="oneeighth" unicode="&#x215b;" horiz-adv-x="1585" 
d="M389 817h-102l92 524q-88 -68 -199 -84l17 91q82 18 144 62.5t71 96.5h94zM-47 0h-119l1624 1468h111zM1096 -29q-115 0 -186.5 49.5t-71.5 126.5q0 67 54 124.5t134 74.5l4 4q-49 19 -75.5 52t-26.5 75q0 84 86 148.5t209 64.5q99 0 164 -45t65 -115q0 -58 -41.5 -107.5
t-112.5 -72.5l-2 -4q61 -13 96 -52t35 -95q0 -92 -96 -160t-235 -68zM1169 381q74 0 130.5 41t56.5 94q0 44 -41 73t-105 29q-75 0 -128.5 -38.5t-53.5 -92.5q0 -47 39 -76.5t102 -29.5zM1112 51q87 0 148 46.5t61 111.5q0 51 -42.5 79.5t-119.5 28.5q-92 0 -152.5 -41.5
t-60.5 -103.5q0 -55 46 -88t120 -33z" />
    <glyph glyph-name="threeeighths" unicode="&#x215c;" horiz-adv-x="1830" 
d="M418 803q-107 0 -182.5 44t-88.5 114l97 38q16 -55 62.5 -86.5t121.5 -31.5q85 0 144 43t59 102q0 53 -46.5 81t-127.5 28h-82l10 69h88q83 0 139 39.5t56 97.5q0 46 -41.5 73.5t-106.5 27.5q-71 0 -124.5 -33.5t-73.5 -91.5l-91 18q27 84 115.5 135.5t194.5 51.5
q97 0 164 -42.5t67 -113.5q0 -62 -49 -116.5t-121 -71.5q62 -11 99.5 -47.5t37.5 -90.5q0 -97 -95 -167t-226 -70zM199 0h-119l1624 1468h111zM1341 -29q-115 0 -186.5 49.5t-71.5 126.5q0 67 54.5 124.5t134.5 74.5l4 4q-49 19 -75.5 52t-26.5 75q0 84 85.5 148.5
t208.5 64.5q99 0 164.5 -45t65.5 -115q0 -58 -41.5 -107.5t-112.5 -72.5l-2 -4q61 -13 96 -52t35 -95q0 -92 -96.5 -160t-235.5 -68zM1415 381q74 0 130.5 41t56.5 94q0 44 -41 73t-105 29q-75 0 -128.5 -38.5t-53.5 -92.5q0 -47 39 -76.5t102 -29.5zM1358 51q87 0 148 46.5
t61 111.5q0 51 -42.5 79.5t-119.5 28.5q-92 0 -152.5 -41.5t-60.5 -103.5q0 -55 46 -88t120 -33z" />
    <glyph glyph-name="fiveeighths" unicode="&#x215d;" horiz-adv-x="1828" 
d="M412 803q-107 0 -183.5 43t-91.5 115l94 40q14 -55 69.5 -86.5t123.5 -31.5q92 0 156.5 53.5t64.5 124.5q0 58 -45 93.5t-113 35.5q-58 0 -109 -23.5t-83 -60.5l-80 24l160 377h411l-12 -77h-338l-104 -236q31 30 87.5 48t108.5 18q93 0 159.5 -49t66.5 -138
q0 -110 -101 -190t-241 -80zM197 0h-119l1624 1468h110zM1339 -29q-115 0 -186.5 49.5t-71.5 126.5q0 67 54.5 124.5t134.5 74.5l4 4q-49 19 -76 52t-27 75q0 84 86 148.5t209 64.5q99 0 164.5 -45t65.5 -115q0 -58 -41.5 -107.5t-112.5 -72.5l-2 -4q61 -13 96 -52t35 -95
q0 -92 -96.5 -160t-235.5 -68zM1413 381q74 0 130 41t56 94q0 45 -40.5 73.5t-104.5 28.5q-75 0 -128.5 -38.5t-53.5 -92.5q0 -47 39 -76.5t102 -29.5zM1356 51q87 0 148 46.5t61 111.5q0 51 -42.5 79.5t-119.5 28.5q-92 0 -152.5 -41.5t-60.5 -103.5q0 -55 46 -88t120 -33z
" />
    <glyph glyph-name="seveneighths" unicode="&#x215e;" horiz-adv-x="1734" 
d="M332 817h-109q24 138 149.5 321.5t286.5 299.5h-462l14 80h580l-13 -84q-166 -112 -294 -293.5t-152 -323.5zM102 0h-118l1624 1468h110zM1245 -29q-115 0 -186.5 49.5t-71.5 126.5q0 67 54.5 124.5t134.5 74.5l4 4q-49 19 -76 52t-27 75q0 84 86 148.5t209 64.5
q99 0 164.5 -45t65.5 -115q0 -58 -41.5 -107.5t-112.5 -72.5l-2 -4q61 -13 96 -52t35 -95q0 -92 -96.5 -160t-235.5 -68zM1319 381q74 0 130 41t56 94q0 45 -40.5 73.5t-104.5 28.5q-75 0 -128.5 -38.5t-53.5 -92.5q0 -47 39 -76.5t102 -29.5zM1262 51q87 0 147.5 46.5
t60.5 111.5q0 51 -42.5 79.5t-118.5 28.5q-92 0 -152.5 -41.5t-60.5 -103.5q0 -55 46 -88t120 -33z" />
    <glyph glyph-name="arrowleft" unicode="&#x2190;" horiz-adv-x="1718" 
d="M373 700h1216l-18 -112h-1217l299 -352h-155l-336 405l2 8l479 406h156z" />
    <glyph glyph-name="arrowup" unicode="&#x2191;" horiz-adv-x="1193" 
d="M715 1202l428 -340l-25 -135l-373 303l-178 -1010h-129l180 1012l-483 -305l25 135l545 340h10z" />
    <glyph glyph-name="arrowright" unicode="&#x2192;" horiz-adv-x="1712" 
d="M1094 1055h155l336 -406l-2 -8l-479 -405h-156l424 352h-1214l18 112h1219z" />
    <glyph glyph-name="arrowdown" unicode="&#x2193;" horiz-adv-x="1200" 
d="M778 1202l-178 -1009l481 303l-24 -136l-547 -340h-8l-428 340l24 136l375 -306l176 1012h129z" />
    <glyph glyph-name="arrowboth" unicode="&#x2194;" horiz-adv-x="2146" 
d="M649 231h-157l-336 406l2 8l479 406h158l-430 -355h1466l-303 355h155l336 -406l-2 -8l-479 -406h-156l428 355h-1462z" />
    <glyph glyph-name="arrowupdn" unicode="&#x2195;" horiz-adv-x="1310" 
d="M563 0h-8l-428 338l25 133l372 -299l189 1045l-484 -302l23 134l547 337h8l428 -337l-23 -134l-370 299l-191 -1040l484 297l-25 -133z" />
    <glyph glyph-name="uni2196" unicode="&#x2196;" horiz-adv-x="1462" 
d="M612 874l660 -784l-111 -65l-659 784l-172 -449l-88 107l200 508l9 4l643 -21l88 -106z" />
    <glyph glyph-name="uni2197" unicode="&#x2197;" horiz-adv-x="1347" 
d="M920 975l200 -508l-90 -107l-170 449l-659 -784l-111 65l660 784l-570 -22l88 106l641 21z" />
    <glyph glyph-name="uni2198" unicode="&#x2198;" horiz-adv-x="1470" 
d="M977 412l172 448l88 -106l-201 -508l-8 -4l-643 20l-88 107l567 -23l-657 784l110 66z" />
    <glyph glyph-name="uni2199" unicode="&#x2199;" horiz-adv-x="1349" 
d="M1165 1196l111 -66l-658 -784l568 23l-90 -107l-641 -20l-9 4l-200 508l88 106l172 -448z" />
    <glyph glyph-name="emptyset" unicode="&#x2205;" horiz-adv-x="1705" 
d="M1575 1198l-178 -174q157 -138 157 -362q0 -136 -62.5 -263.5t-169 -223t-257 -153t-317.5 -57.5q-206 0 -353 84l-180 -176l-82 57l180 176q-159 137 -159 363q0 136 62.5 263.5t169 222.5t257.5 152.5t318 57.5q206 0 356 -86l180 176zM283 483q0 -174 123 -288
l821 798q-120 68 -283 68q-135 0 -258.5 -48t-211 -127.5t-139.5 -185.5t-52 -217zM768 70q135 0 258 48t209.5 126.5t138 184t51.5 216.5q0 177 -120 291l-820 -801q120 -65 283 -65z" />
    <glyph glyph-name="minus" unicode="&#x2212;" horiz-adv-x="1175" 
d="M1014 571h-844l16 107h844z" />
    <glyph glyph-name="infinity" unicode="&#x221e;" horiz-adv-x="2230" 
d="M545 287q-161 0 -265 82t-104 209q0 153 145 269t343 116q66 0 121.5 -15t113.5 -52.5t109 -81.5t129 -120q208 150 329 209.5t246 59.5q154 0 259.5 -79t105.5 -210q0 -101 -65.5 -190.5t-177.5 -143t-241 -53.5q-89 0 -165.5 31t-142 83t-169.5 154
q-209 -151 -328 -209.5t-243 -58.5zM545 387q46 0 92 10t81 23.5t83 40.5t77.5 46.5t86 58t88.5 59.5q-25 21 -67.5 59t-65 58t-60 47t-67.5 40t-71.5 23t-86.5 10q-141 0 -234.5 -79.5t-93.5 -194.5q0 -95 62.5 -148t175.5 -53zM1620 387q140 0 234 80t94 195
q0 95 -63.5 147.5t-176.5 52.5q-46 0 -92 -10.5t-79.5 -22.5t-83.5 -40.5t-76.5 -46t-86 -58.5t-86.5 -59q22 -19 65.5 -59t65 -58.5t60 -46.5t68 -41t71 -23t86.5 -10z" />
    <glyph glyph-name="approxequal" unicode="&#x2248;" horiz-adv-x="1251" 
d="M344 735h-117q14 79 64.5 135t113.5 80.5t130 24.5q50 0 91 -14.5t68 -35.5t51.5 -41.5t55 -35t65.5 -14.5q63 0 99.5 41t46.5 100h118q-21 -118 -101 -180t-187 -62q-51 0 -92.5 15t-68.5 36t-51.5 42t-56.5 36t-69 15q-66 0 -107.5 -40.5t-52.5 -101.5zM272 322h-118
q22 116 111 177.5t196 61.5q50 0 91 -14.5t68 -35.5t51.5 -41.5t55 -35t66.5 -14.5q62 0 99 39.5t48 101.5h119q-22 -119 -102.5 -180.5t-184.5 -61.5q-52 0 -93.5 15t-69 36t-52 42t-56.5 36t-69 15q-66 0 -107.5 -40.5t-52.5 -100.5z" />
    <glyph glyph-name="notequal" unicode="&#x2260;" horiz-adv-x="1236" 
d="M1094 883l-19 -107h-284l-191 -307h422l-16 -104h-465l-115 -185h-117l113 185h-262l18 104h303l191 307h-441l17 107h485l109 176h119l-109 -176h242z" />
    <glyph glyph-name="lessequal" unicode="&#x2264;" horiz-adv-x="1234" 
d="M1001 362h-839l14 93h582l-549 182l16 104l875 185l-17 -105l-704 -143l639 -221z" />
    <glyph glyph-name="greaterequal" unicode="&#x2265;" horiz-adv-x="1239" 
d="M1010 362h-842l16 95l715 221l-649 143l16 105l809 -185l-18 -104l-613 -182h580z" />
    <glyph glyph-name="lozenge" unicode="&#x25ca;" horiz-adv-x="1396" 
d="M653 0h-108l-371 694l617 692h108l373 -692zM317 694l299 -561h9l501 561l-299 559h-8z" />
    <glyph glyph-name="A.ss01" horiz-adv-x="1802" 
d="M86 0h-141l1024 1597h233l457 -1597h-139q-144 524 -160 584h-901q-69 -110 -190.5 -299t-182.5 -285zM520 690h813q-22 83 -87 315.5t-126 460.5h-102z" />
    <glyph glyph-name="Aacute.ss01" horiz-adv-x="1802" 
d="M1597 2038l-464 -318h-115l377 318h202zM86 0h-141l1024 1597h233l457 -1597h-139q-144 524 -160 584h-901q-69 -110 -190.5 -299t-182.5 -285zM520 690h813q-22 83 -87 315.5t-126 460.5h-102z" />
    <glyph glyph-name="Abreve.ss01" horiz-adv-x="1802" 
d="M1106 1726q-99 0 -179 29.5t-126.5 76.5t-69 102.5t-16.5 111.5h116q-8 -87 75 -155t214 -68q132 0 239.5 68t131.5 155h117q-13 -56 -54.5 -111.5t-104 -102.5t-153 -76.5t-190.5 -29.5zM86 0h-141l1024 1597h233l457 -1597h-139q-144 524 -160 584h-901
q-69 -110 -190.5 -299t-182.5 -285zM520 690h813q-22 83 -87 315.5t-126 460.5h-102z" />
    <glyph glyph-name="Acircumflex.ss01" horiz-adv-x="1802" 
d="M1245 2017l264 -297h-114q-195 175 -248 228q-30 -21 -80.5 -58.5t-101.5 -72t-148 -97.5h-117l369 297h176zM86 0h-141l1024 1597h233l457 -1597h-139q-144 524 -160 584h-901q-69 -110 -190.5 -299t-182.5 -285zM520 690h813q-22 83 -87 315.5t-126 460.5h-102z" />
    <glyph glyph-name="Adieresis.ss01" horiz-adv-x="1802" 
d="M893 1794q-42 0 -70 24t-28 60q0 43 39 77t90 34q41 0 67.5 -23t26.5 -57q0 -46 -37.5 -80.5t-87.5 -34.5zM1350 1794q-43 0 -71 24t-28 58q0 46 39 79.5t90 33.5q41 0 69 -24t28 -58q0 -43 -39 -78t-88 -35zM86 0h-141l1024 1597h233l457 -1597h-139q-144 524 -160 584
h-901q-69 -110 -190.5 -299t-182.5 -285zM520 690h813q-22 83 -87 315.5t-126 460.5h-102z" />
    <glyph glyph-name="Agrave.ss01" horiz-adv-x="1802" 
d="M1198 1720h-117l-354 318h207zM86 0h-141l1024 1597h233l457 -1597h-139q-144 524 -160 584h-901q-69 -110 -190.5 -299t-182.5 -285zM520 690h813q-22 83 -87 315.5t-126 460.5h-102z" />
    <glyph glyph-name="Amacron.ss01" horiz-adv-x="1802" 
d="M1522 1839h-785l19 100h782zM86 0h-141l1024 1597h233l457 -1597h-139q-144 524 -160 584h-901q-69 -110 -190.5 -299t-182.5 -285zM520 690h813q-22 83 -87 315.5t-126 460.5h-102z" />
    <glyph glyph-name="Aogonek.ss01" horiz-adv-x="1802" 
d="M1593 -379q47 0 111 14l-16 -84q-69 -14 -115 -14q-123 0 -202 52.5t-79 144.5q0 153 236 266h-8q-144 524 -160 584h-901q-69 -110 -190.5 -299t-182.5 -285h-141l1024 1597h233l457 -1597h-6q-254 -108 -254 -242q0 -64 55.5 -100.5t138.5 -36.5zM520 690h813
q-22 83 -87 315.5t-126 460.5h-102z" />
    <glyph glyph-name="Aring.ss01" horiz-adv-x="1802" 
d="M1104 1714q-101 0 -163 51t-62 133q0 99 89 172.5t214 73.5q101 0 163 -51t62 -133q0 -98 -88.5 -172t-214.5 -74zM1120 1800q78 0 133.5 45t55.5 109q0 48 -41 76t-103 28q-80 0 -134 -43.5t-54 -107.5q0 -50 40 -78.5t103 -28.5zM86 0h-141l1024 1597h233l457 -1597
h-139q-144 524 -160 584h-901q-69 -110 -190.5 -299t-182.5 -285zM520 690h813q-22 83 -87 315.5t-126 460.5h-102z" />
    <glyph glyph-name="Atilde.ss01" horiz-adv-x="1802" 
d="M1309 1751q-33 0 -58 5t-51 20t-35 22t-39 31l-39 33q-2 2 -18 14.5t-21.5 15.5t-19 10.5t-26.5 10t-29 2.5q-60 0 -104 -42t-58 -108h-98q22 106 100 172t182 66q83 0 164 -70l45 -37q66 -57 131 -57q57 0 99.5 42t54.5 108h100q-21 -107 -96 -172.5t-184 -65.5zM86 0
h-141l1024 1597h233l457 -1597h-139q-144 524 -160 584h-901q-69 -110 -190.5 -299t-182.5 -285zM520 690h813q-22 83 -87 315.5t-126 460.5h-102z" />
    <glyph glyph-name="B.ss01" horiz-adv-x="1751" 
d="M938 0h-766l283 1597h661q257 0 401 -102t144 -260q0 -146 -119 -265t-303 -157v-4q178 -26 265 -115t87 -213q0 -126 -87 -236.5t-238 -177.5t-328 -67zM455 856h524q242 0 392.5 103t150.5 247q0 130 -124 207.5t-329 77.5h-500q-12 -69 -40 -223.5t-49.5 -274
t-24.5 -137.5zM322 106h585q243 0 394 104.5t151 250.5q0 132 -122.5 210.5t-332.5 78.5h-559q-68 -373 -116 -644z" />
    <glyph glyph-name="C.ss01" horiz-adv-x="2068" 
d="M995 -35q-378 0 -604.5 188t-226.5 504q0 187 87 365t234 311.5t355.5 215t437.5 81.5q131 0 253.5 -28t227 -83t178.5 -145t99 -205l-127 -43q-56 186 -233.5 290t-415.5 104q-197 0 -376 -72t-304.5 -189.5t-199 -272t-73.5 -316.5q0 -120 39.5 -219.5t108 -168
t161.5 -115.5t197.5 -69t218.5 -22q156 0 296 41t246 111.5t184.5 158t129.5 188.5l111 -38q-64 -119 -156.5 -219.5t-216.5 -181t-286 -126t-345 -45.5z" />
    <glyph glyph-name="D.ss01" horiz-adv-x="1982" 
d="M854 0h-682l283 1597h659q393 0 588.5 -170t195.5 -475q0 -147 -46.5 -287.5t-138 -260.5t-216 -210.5t-291 -142t-352.5 -51.5zM322 106h571q130 0 248.5 31.5t212.5 87.5t171.5 133.5t128.5 168.5t79 192.5t28 206.5q0 279 -178 422t-512 143h-502
q-148 -821 -247 -1385z" />
    <glyph glyph-name="E.ss01" horiz-adv-x="1615" 
d="M1393 0h-1221l283 1597h1196l-19 -106h-1063q-49 -261 -110 -614h1014l-17 -109h-1016q-15 -78 -33.5 -189.5t-84.5 -465.5h1089z" />
    <glyph glyph-name="F.ss01" horiz-adv-x="1531" 
d="M1626 1597l-18 -114h-1041l-110 -619h989l-16 -108h-990l-135 -756h-133l283 1597h1171z" />
    <glyph glyph-name="G.ss01" horiz-adv-x="2107" 
d="M989 -35q-377 0 -602 188t-225 502q0 189 87 367t234.5 312t355.5 215t437 81q131 0 253 -28t226.5 -83t178 -145t98.5 -205l-125 -43q-56 187 -234.5 290.5t-417.5 103.5q-196 0 -373 -70.5t-302.5 -187.5t-199 -271.5t-73.5 -318.5q0 -277 195 -436.5t534 -159.5
t561 159.5t291 432.5h-714l14 104h835l-6 -41q-29 -160 -101.5 -290t-172.5 -217.5t-225.5 -146.5t-257.5 -85.5t-271 -26.5z" />
    <glyph glyph-name="H.ss01" horiz-adv-x="1984" 
d="M1634 862l131 735h133l-282 -1597h-133l133 754h-1178l-133 -754h-133l283 1597h133l-131 -735h1177z" />
    <glyph glyph-name="I.ss01" horiz-adv-x="1292" 
d="M1104 0h-1114l18 106h492l248 1385h-504l16 106h1139l-19 -106h-501l-248 -1385h491z" />
    <glyph glyph-name="Iacute.ss01" horiz-adv-x="1292" 
d="M1333 2038l-463 -318h-116l376 318h203zM1104 0h-1114l18 106h492l248 1385h-504l16 106h1139l-19 -106h-501l-248 -1385h491z" />
    <glyph glyph-name="Icircumflex.ss01" horiz-adv-x="1292" 
d="M995 2017l265 -297h-115q-195 175 -248 228q-30 -21 -80.5 -58.5t-101.5 -72t-148 -97.5h-116l368 297h176zM1104 0h-1114l18 106h492l248 1385h-504l16 106h1139l-19 -106h-501l-248 -1385h491z" />
    <glyph glyph-name="Idieresis.ss01" horiz-adv-x="1292" 
d="M641 1794q-42 0 -70 24t-28 60q0 43 39 77t90 34q41 0 67.5 -23t26.5 -57q0 -46 -37.5 -80.5t-87.5 -34.5zM1098 1794q-43 0 -71 24t-28 58q0 46 39 79.5t90 33.5q41 0 69 -24t28 -58q0 -43 -39 -78t-88 -35zM1104 0h-1114l18 106h492l248 1385h-504l16 106h1139
l-19 -106h-501l-248 -1385h491z" />
    <glyph glyph-name="Idotaccent.ss01" horiz-adv-x="1292" 
d="M862 1790q-44 0 -73 25.5t-29 62.5q0 47 42 83t97 36q43 0 72.5 -24.5t29.5 -61.5q0 -47 -42.5 -84t-96.5 -37zM1104 0h-1114l18 106h492l248 1385h-504l16 106h1139l-19 -106h-501l-248 -1385h491z" />
    <glyph glyph-name="Igrave.ss01" horiz-adv-x="1292" 
d="M946 1720h-117l-354 318h207zM1104 0h-1114l18 106h492l248 1385h-504l16 106h1139l-19 -106h-501l-248 -1385h491z" />
    <glyph glyph-name="Imacron.ss01" horiz-adv-x="1292" 
d="M1270 1839h-785l19 100h782zM1104 0h-1114l18 106h492l248 1385h-504l16 106h1139l-19 -106h-501l-248 -1385h491z" />
    <glyph glyph-name="J.ss01" horiz-adv-x="1402" 
d="M526 -35q-56 0 -109 7.5t-108.5 24t-99.5 44.5t-82.5 69t-57.5 96.5t-24.5 127.5t16.5 162l5 22l122 14l-6 -20q-13 -69 -14.5 -124.5t13.5 -99t36 -77t52.5 -57.5t63.5 -39.5t69 -25t69 -13.5t64 -4q186 0 313.5 114t161.5 308l180 997h-660l19 106h790l-188 -1065
q-6 -36 -12.5 -66.5t-27.5 -92.5t-48 -111t-76.5 -107.5t-110.5 -97.5t-151.5 -65.5t-198.5 -26.5z" />
    <glyph glyph-name="K.ss01" horiz-adv-x="1599" 
d="M305 0h-133l283 1597h133l-137 -753h4q206 137 586 392t538 361h174q-167 -115 -564.5 -383.5t-627.5 -427.5q434 -357 957 -786h-183q-84 66 -247 200t-656 521z" />
    <glyph glyph-name="L.ss01" horiz-adv-x="1447" 
d="M588 1597l-262 -1484h1011l-18 -113h-1147l283 1597h133z" />
    <glyph glyph-name="M.ss01" horiz-adv-x="2285" 
d="M2046 1597h154l-283 -1597h-131l250 1405l-862 -1045h-127l-492 1043l-250 -1403h-133l283 1597h155q206 -417 518 -1103h5q37 46 164.5 202.5t193.5 237t174.5 212t201 241.5t179.5 210z" />
    <glyph glyph-name="N.ss01" horiz-adv-x="2031" 
d="M305 0h-133l283 1597h219l835 -1431h47l259 1431h129l-283 -1597h-215l-834 1415h-55z" />
    <glyph glyph-name="O.ss01" horiz-adv-x="2185" 
d="M989 -35q-239 0 -427.5 90t-294 251t-105.5 364q0 123 41 244.5t114 227t178 196t227 155t266.5 101t293.5 36.5q238 0 426 -90t293.5 -251.5t105.5 -364.5q0 -123 -41.5 -244.5t-115 -226.5t-178 -195.5t-226.5 -155t-266 -101t-291 -36.5zM1010 76q125 0 246.5 32
t225.5 88.5t193 135.5t151.5 170.5t98 197t35.5 211.5q0 174 -88.5 313t-248 217.5t-359.5 78.5q-148 0 -292 -44.5t-262.5 -124t-209.5 -183.5t-142 -229.5t-51 -254.5q0 -176 92 -315.5t252 -216t359 -76.5z" />
    <glyph glyph-name="P.ss01" horiz-adv-x="1632" 
d="M455 1597h657q26 0 51.5 -1t84.5 -9t107.5 -21.5t107 -43t99 -70t68 -105.5t27.5 -145q0 -110 -51 -211t-138 -177t-212.5 -121.5t-266.5 -45.5h-569l-115 -647h-133zM438 756h523q245 0 401 117t156 296q0 157 -118 239.5t-331 82.5h-500z" />
    <glyph glyph-name="Q.ss01" horiz-adv-x="2201" 
d="M752 -8l-306 -256v-4h1274l-18 -103h-1532l467 394q-222 76 -345.5 242.5t-123.5 396.5q0 187 85 363t231.5 309.5t357.5 214.5t448 81q249 0 436.5 -85.5t289.5 -244t102 -368.5q0 -188 -85.5 -364t-232 -308.5t-357 -212.5t-446.5 -80q-126 0 -245 25zM305 676
q0 -210 117 -357t321 -208l588 495l78 -69l-545 -453q82 -10 154 -10q201 0 381.5 71t306 187.5t199 270.5t73.5 317q0 274 -193 439t-511 165q-135 0 -263 -32.5t-233.5 -89.5t-194.5 -137t-149.5 -173.5t-94.5 -200t-34 -215.5z" />
    <glyph glyph-name="R.ss01" horiz-adv-x="1685" 
d="M989 649h-375l895 -649h-190l-897 649h-2l-115 -649h-133l283 1597h657q28 0 54.5 -1t85 -9t107 -22t106.5 -44t98 -70.5t67 -105t27 -145.5q0 -109 -51 -209.5t-138 -176t-212.5 -120.5t-266.5 -45zM1069 1493h-500l-133 -739h525q245 0 401 119t156 298
q0 155 -116.5 238.5t-332.5 83.5z" />
    <glyph glyph-name="S.ss01" horiz-adv-x="1572" 
d="M711 -35q-84 0 -163 14t-158.5 48.5t-141.5 86t-107.5 133.5t-60.5 185l127 41q27 -191 170.5 -294t359.5 -103q229 0 389 109.5t160 263.5q0 50 -23 91t-47 64.5t-83.5 47.5t-86 32t-100.5 27q-8 3 -12.5 4t-11.5 3t-13 3l-172 47q-45 12 -78.5 22.5t-84 30t-88 39.5
t-79 51t-67.5 65.5t-43.5 81t-17.5 99.5q0 126 89.5 234.5t247.5 173.5t347 65q242 0 389.5 -104t177.5 -279l-125 -45q-30 145 -154.5 231.5t-316.5 86.5q-218 0 -366 -99.5t-148 -236.5q0 -54 28 -101t61.5 -75.5t93 -56t88.5 -37t82 -25.5q9 -3 13 -4l177 -49
q172 -47 232 -71q197 -78 233 -218q8 -33 8 -70q0 -97 -57 -190.5t-152.5 -164t-231.5 -114t-284 -43.5z" />
    <glyph glyph-name="U.ss01" horiz-adv-x="1880" 
d="M815 -35q-150 0 -265 38t-191 112t-104 190.5t-1 265.5l180 1026h133l-182 -1019q-22 -134 -2 -229.5t83.5 -157t156.5 -90.5t217 -29q258 0 426.5 125.5t212.5 380.5l182 1019h131l-283 -1597h-131l39 213h-2q-198 -248 -600 -248z" />
    <glyph glyph-name="Uacute.ss01" horiz-adv-x="1880" 
d="M1397 2038l-465 -318h-115l377 318h203zM815 -35q-150 0 -265 38t-191 112t-104 190.5t-1 265.5l180 1026h133l-182 -1019q-22 -134 -2 -229.5t83.5 -157t156.5 -90.5t217 -29q258 0 426.5 125.5t212.5 380.5l182 1019h131l-283 -1597h-131l39 213h-2
q-198 -248 -600 -248z" />
    <glyph glyph-name="Ucircumflex.ss01" horiz-adv-x="1880" 
d="M1268 2017l264 -297h-115q-195 175 -248 228q-32 -23 -80.5 -59t-100 -71t-148.5 -98h-117l369 297h176zM815 -35q-150 0 -265 38t-191 112t-104 190.5t-1 265.5l180 1026h133l-182 -1019q-22 -134 -2 -229.5t83.5 -157t156.5 -90.5t217 -29q258 0 426.5 125.5
t212.5 380.5l182 1019h131l-283 -1597h-131l39 213h-2q-198 -248 -600 -248z" />
    <glyph glyph-name="Udieresis.ss01" horiz-adv-x="1880" 
d="M915 1794q-42 0 -70 24t-28 60q0 43 39 77t90 34q41 0 67.5 -23t26.5 -57q0 -46 -37.5 -80.5t-87.5 -34.5zM1372 1794q-43 0 -70.5 23.5t-27.5 58.5q0 46 39 79.5t90 33.5q41 0 68.5 -24t27.5 -58q0 -43 -39 -78t-88 -35zM815 -35q-150 0 -265 38t-191 112t-104 190.5
t-1 265.5l180 1026h133l-182 -1019q-22 -134 -2 -229.5t83.5 -157t156.5 -90.5t217 -29q258 0 426.5 125.5t212.5 380.5l182 1019h131l-283 -1597h-131l39 213h-2q-198 -248 -600 -248z" />
    <glyph glyph-name="Ugrave.ss01" horiz-adv-x="1880" 
d="M1221 1720h-117l-354 318h206zM815 -35q-150 0 -265 38t-191 112t-104 190.5t-1 265.5l180 1026h133l-182 -1019q-22 -134 -2 -229.5t83.5 -157t156.5 -90.5t217 -29q258 0 426.5 125.5t212.5 380.5l182 1019h131l-283 -1597h-131l39 213h-2q-198 -248 -600 -248z" />
    <glyph glyph-name="Uhungarumlaut.ss01" horiz-adv-x="1880" 
d="M1354 2038l-383 -318h-115l309 318h189zM1702 2038l-404 -318h-116l334 318h186zM815 -35q-150 0 -265 38t-191 112t-104 190.5t-1 265.5l180 1026h133l-182 -1019q-22 -134 -2 -229.5t83.5 -157t156.5 -90.5t217 -29q258 0 426.5 125.5t212.5 380.5l182 1019h131
l-283 -1597h-131l39 213h-2q-198 -248 -600 -248z" />
    <glyph glyph-name="Umacron.ss01" horiz-adv-x="1880" 
d="M1544 1839h-784l18 100h783zM815 -35q-150 0 -265 38t-191 112t-104 190.5t-1 265.5l180 1026h133l-182 -1019q-22 -134 -2 -229.5t83.5 -157t156.5 -90.5t217 -29q258 0 426.5 125.5t212.5 380.5l182 1019h131l-283 -1597h-131l39 213h-2q-198 -248 -600 -248z" />
    <glyph glyph-name="Uogonek.ss01" horiz-adv-x="1880" 
d="M1251 -242q0 -64 56 -100.5t139 -36.5q46 0 110 14l-16 -84q-69 -14 -115 -14q-123 0 -201.5 52.5t-78.5 144.5q0 153 235 266h-2l39 213h-2q-198 -248 -600 -248q-150 0 -265 38t-191 112t-104 190.5t-1 265.5l180 1026h133l-182 -1019q-22 -134 -2 -229.5t83.5 -157
t156.5 -90.5t217 -29q258 0 426.5 125.5t212.5 380.5l182 1019h131l-283 -1597h-4q-254 -108 -254 -242z" />
    <glyph glyph-name="Uring.ss01" horiz-adv-x="1880" 
d="M1126 1714q-101 0 -163 51t-62 133q0 99 89 172.5t214 73.5q101 0 163.5 -51t62.5 -133q0 -98 -89 -172t-215 -74zM1143 1800q78 0 133 45t55 109q0 48 -40.5 76t-102.5 28q-80 0 -134.5 -43.5t-54.5 -107.5q0 -50 40.5 -78.5t103.5 -28.5zM815 -35q-150 0 -265 38
t-191 112t-104 190.5t-1 265.5l180 1026h133l-182 -1019q-22 -134 -2 -229.5t83.5 -157t156.5 -90.5t217 -29q258 0 426.5 125.5t212.5 380.5l182 1019h131l-283 -1597h-131l39 213h-2q-198 -248 -600 -248z" />
    <glyph glyph-name="V.ss01" horiz-adv-x="1798" 
d="M915 0h-231l-459 1597h142q43 -152 114.5 -419t294.5 -1043h103q59 94 399 634.5t522 827.5h139z" />
    <glyph glyph-name="W.ss01" horiz-adv-x="2777" 
d="M745 0h-161l-351 1597h136l319 -1445h4l758 1445h268l226 -1445h6l827 1445h137l-917 -1597h-160l-219 1477h-102z" />
    <glyph glyph-name="Wacute.ss01" horiz-adv-x="2777" 
d="M2087 2038l-465 -318h-115l377 318h203zM745 0h-161l-351 1597h136l319 -1445h4l758 1445h268l226 -1445h6l827 1445h137l-917 -1597h-160l-219 1477h-102z" />
    <glyph glyph-name="Wcircumflex.ss01" horiz-adv-x="2777" 
d="M1735 2017l264 -297h-115q-195 175 -248 228q-32 -23 -80.5 -59t-100 -71t-148.5 -98h-117l369 297h176zM745 0h-161l-351 1597h136l319 -1445h4l758 1445h268l226 -1445h6l827 1445h137l-917 -1597h-160l-219 1477h-102z" />
    <glyph glyph-name="Wdieresis.ss01" horiz-adv-x="2777" 
d="M1382 1794q-42 0 -70 24t-28 60q0 43 39 77t90 34q41 0 67.5 -23t26.5 -57q0 -46 -37.5 -80.5t-87.5 -34.5zM1839 1794q-43 0 -70.5 23.5t-27.5 58.5q0 46 39 79.5t90 33.5q41 0 68.5 -24t27.5 -58q0 -43 -39 -78t-88 -35zM745 0h-161l-351 1597h136l319 -1445h4
l758 1445h268l226 -1445h6l827 1445h137l-917 -1597h-160l-219 1477h-102z" />
    <glyph glyph-name="Wgrave.ss01" horiz-adv-x="2777" 
d="M1688 1720h-117l-354 318h206zM745 0h-161l-351 1597h136l319 -1445h4l758 1445h268l226 -1445h6l827 1445h137l-917 -1597h-160l-219 1477h-102z" />
    <glyph glyph-name="X.ss01" horiz-adv-x="1669" 
d="M86 0h-147l802 811l4 23l-505 763h147q204 -311 455 -716h98q75 75 270 272.5t443 443.5h147l-774 -763l-4 -23l514 -811h-145q-435 700 -469 766h-97q-60 -62 -246 -257t-493 -509z" />
    <glyph glyph-name="Y.ss01" horiz-adv-x="1642" 
d="M387 0h-133l532 594l-544 1003h145l481 -892h4l811 892h142z" />
    <glyph glyph-name="Yacute.ss01" horiz-adv-x="1642" 
d="M1534 2038l-465 -318h-115l375 318h205zM387 0h-133l532 594l-544 1003h145l481 -892h4l811 892h142z" />
    <glyph glyph-name="Ycircumflex.ss01" horiz-adv-x="1642" 
d="M1194 2017l264 -297h-115q-185 166 -247 228q-30 -21 -80.5 -58.5t-101.5 -72t-148 -97.5h-117l369 297h176zM387 0h-133l532 594l-544 1003h145l481 -892h4l811 892h142z" />
    <glyph glyph-name="Ydieresis.ss01" horiz-adv-x="1642" 
d="M842 1794q-42 0 -70.5 24t-28.5 60q0 43 39 77t90 34q41 0 68 -23t27 -57q0 -46 -37.5 -80.5t-87.5 -34.5zM1298 1794q-43 0 -70.5 23.5t-27.5 58.5q0 46 39 79.5t90 33.5q41 0 68.5 -24t27.5 -58q0 -43 -39 -78t-88 -35zM387 0h-133l532 594l-544 1003h145l481 -892h4
l811 892h142z" />
    <glyph glyph-name="Ygrave.ss01" horiz-adv-x="1642" 
d="M1147 1720h-117l-354 318h207zM387 0h-133l532 594l-544 1003h145l481 -892h4l811 892h142z" />
    <glyph glyph-name="Z.ss01" horiz-adv-x="1660" 
d="M1464 0h-1556l1642 1491h-1231l19 106h1474l-1634 -1484h1305z" />
    <glyph glyph-name="Zacute.ss01" horiz-adv-x="1660" 
d="M1516 2038l-465 -318h-115l377 318h203zM1464 0h-1556l1642 1491h-1231l19 106h1474l-1634 -1484h1305z" />
    <glyph glyph-name="Zcaron.ss01" horiz-adv-x="1660" 
d="M1364 2017h117l-369 -297h-178l-264 297h116q157 -134 250 -227q222 159 328 227zM1464 0h-1556l1642 1491h-1231l19 106h1474l-1634 -1484h1305z" />
    <glyph glyph-name="Zdotaccent.ss01" horiz-adv-x="1660" 
d="M1036 1790q-44 0 -73 25.5t-29 62.5q0 47 42 83t97 36q43 0 73 -24.5t30 -61.5q0 -47 -43 -84t-97 -37zM1464 0h-1556l1642 1491h-1231l19 106h1474l-1634 -1484h1305z" />
    <glyph glyph-name="Q.ss02" horiz-adv-x="2185" 
d="M2107 924q0 -177 -84.5 -347.5t-225.5 -299.5t-335 -213.5t-403 -96.5l-41 -233h678l-17 -105h-805l60 338q-225 10 -401 102t-273.5 249t-97.5 352q0 123 41 244.5t114 227t178 196t227 155t266.5 101t293.5 36.5q238 0 426 -90t293.5 -251.5t105.5 -364.5zM307 684
q0 -168 83.5 -302.5t229.5 -213.5t332 -90l88 495h125l-86 -495q175 13 338 87.5t282 187t190 259.5t71 299q0 174 -88.5 313t-248 217.5t-359.5 78.5q-148 0 -292 -44.5t-262.5 -124t-209.5 -183.5t-142 -229.5t-51 -254.5z" />
    <glyph glyph-name="A.ss07" 
d="M1094 -315q-216 0 -398.5 58t-310 160.5t-199 249.5t-71.5 320q0 165 65 325t185.5 294t279.5 236.5t360 160t414 57.5q205 0 383.5 -54.5t312 -154t210.5 -250.5t77 -333q0 -140 -46.5 -276t-130.5 -253.5t-204.5 -217.5t-263.5 -171t-314 -111t-349 -40zM1274 1096
l-645 -963h104q202 300 234 346h493q0 -1 24 -78t85 -268h104l-305 963h-94zM1436 559h-420q194 291 287 428q6 -19 29 -98.5t46.5 -154t57.5 -175.5z" />
    <glyph glyph-name="B.ss07" horiz-adv-x="2459" 
d="M1094 -315q-216 0 -398.5 58t-310 160.5t-199 249.5t-71.5 320q0 165 65 325t185.5 294t279.5 236.5t360 160t414 57.5q205 0 383.5 -54.5t312 -154t210.5 -250.5t77 -333q0 -140 -46.5 -276t-130.5 -253.5t-204.5 -217.5t-263.5 -171t-314 -111t-349 -40zM956 1096
l-170 -963h463q164 0 281 89t117 206q0 72 -46.5 123.5t-134.5 71.5q99 30 162.5 100t63.5 154q0 97 -92.5 158t-241.5 61h-402zM975 655l65 361h287q117 0 188.5 -44.5t71.5 -117.5q0 -81 -86 -140t-223 -59h-303zM1235 213h-338q36 205 68 365h321q116 0 187 -45t71 -121
q0 -84 -87 -141.5t-222 -57.5z" />
    <glyph glyph-name="C.ss07" 
d="M1094 -315q-216 0 -398.5 58t-310 160.5t-199 249.5t-71.5 320q0 165 65 325t185.5 294t279.5 236.5t360 160t414 57.5q205 0 383.5 -54.5t312 -154t210.5 -250.5t77 -333q0 -140 -46.5 -276t-130.5 -253.5t-204.5 -217.5t-263.5 -171t-314 -111t-349 -40zM1188 113
q201 0 362.5 93t247.5 259l-84 29q-61 -128 -192 -213.5t-310 -85.5q-84 0 -158 20.5t-133.5 61t-94.5 108t-35 154.5q0 94 42.5 184t115.5 158.5t177 110.5t220 42q145 0 246.5 -64t129.5 -171l95 30q-13 72 -58 128.5t-109.5 90t-139 51t-152.5 17.5q-136 0 -261 -49
t-214 -129.5t-142 -188t-53 -221.5q0 -189 136.5 -302t363.5 -113z" />
    <glyph glyph-name="D.ss07" 
d="M1094 -315q-216 0 -398.5 58t-310 160.5t-199 249.5t-71.5 320q0 165 65 325t185.5 294t279.5 236.5t360 160t414 57.5q205 0 383.5 -54.5t312 -154t210.5 -250.5t77 -333q0 -140 -46.5 -276t-130.5 -253.5t-204.5 -217.5t-263.5 -171t-314 -111t-349 -40zM911 1096
l-170 -963h416q141 0 261.5 48.5t200 129t124.5 184t45 214.5q0 187 -123 287t-352 100h-402zM1182 213h-330q18 98 41.5 239t101.5 564h287q195 0 297 -83t102 -247q0 -96 -38 -183t-103.5 -150.5t-159 -101.5t-198.5 -38z" />
    <glyph glyph-name="E.ss07" 
d="M1094 -315q-216 0 -398.5 58t-310 160.5t-199 249.5t-71.5 320q0 165 65 325t185.5 294t279.5 236.5t360 160t414 57.5q205 0 383.5 -54.5t312 -154t210.5 -250.5t77 -333q0 -140 -46.5 -276t-130.5 -253.5t-204.5 -217.5t-263.5 -171t-314 -111t-349 -40zM983 1096
l-170 -963h743l11 84h-643q11 52 69 371h602l13 80h-602q9 46 18.5 105t44.5 243h631l14 80h-731z" />
    <glyph glyph-name="F.ss07" horiz-adv-x="2459" 
d="M1094 -315q-216 0 -398.5 58t-310 160.5t-199 249.5t-71.5 320q0 165 65 325t185.5 294t279.5 236.5t360 160t414 57.5q205 0 383.5 -54.5t312 -154t210.5 -250.5t77 -333q0 -140 -46.5 -276t-130.5 -253.5t-204.5 -217.5t-263.5 -171t-314 -111t-349 -40zM1008 1096
l-170 -963h98l78 447h585l15 82h-588l66 350h616l14 84h-714z" />
    <glyph glyph-name="G.ss07" 
d="M1094 -315q-216 0 -398.5 58t-310 160.5t-199 249.5t-71.5 320q0 165 65 325t185.5 294t279.5 236.5t360 160t414 57.5q205 0 383.5 -54.5t312 -154t210.5 -250.5t77 -333q0 -140 -46.5 -276t-130.5 -253.5t-204.5 -217.5t-263.5 -171t-314 -111t-349 -40zM1180 113
q157 0 286.5 59.5t212.5 171.5l-34 -211h84l83 475h-516l-14 -80h420q-43 -148 -180.5 -240.5t-317.5 -92.5q-81 0 -153.5 21t-131.5 61.5t-93.5 108.5t-34.5 155q0 94 42.5 183.5t115.5 158t177 110t220 41.5q143 0 245.5 -63.5t130.5 -171.5l95 30q-13 72 -58 128.5
t-109.5 90t-139 51t-152.5 17.5q-136 0 -261.5 -49t-214 -130t-141.5 -188.5t-53 -220.5q0 -189 134.5 -302t357.5 -113z" />
    <glyph glyph-name="H.ss07" 
d="M1094 -315q-216 0 -398.5 58t-310 160.5t-199 249.5t-71.5 320q0 165 65 325t185.5 294t279.5 236.5t360 160t414 57.5q205 0 383.5 -54.5t312 -154t210.5 -250.5t77 -333q0 -140 -46.5 -276t-130.5 -253.5t-204.5 -217.5t-263.5 -171t-314 -111t-349 -40zM885 1096
l-170 -963h100l78 447h678l-80 -447h100l170 963h-100l-76 -437h-680l80 437h-100z" />
    <glyph glyph-name="I.ss07" 
d="M1094 -315q-216 0 -398.5 58t-310 160.5t-199 249.5t-71.5 320q0 165 65 325t185.5 294t279.5 236.5t360 160t414 57.5q205 0 383.5 -54.5t312 -154t210.5 -250.5t77 -333q0 -140 -46.5 -276t-130.5 -253.5t-204.5 -217.5t-263.5 -171t-314 -111t-349 -40zM1274 1096
l-170 -963h98l170 963h-98z" />
    <glyph glyph-name="J.ss07" 
d="M1094 -315q-216 0 -398.5 58t-310 160.5t-199 249.5t-71.5 320q0 165 65 325t185.5 294t279.5 236.5t360 160t414 57.5q205 0 383.5 -54.5t312 -154t210.5 -250.5t77 -333q0 -140 -46.5 -276t-130.5 -253.5t-204.5 -217.5t-263.5 -171t-314 -111t-349 -40zM1106 123
q66 0 121 16.5t92 40t67.5 61.5t47.5 69.5t31 76t19 68.5t11 59l104 592h-96l-108 -617q-4 -26 -8.5 -47t-15 -52t-23 -55t-34 -50t-48 -43t-64 -28t-82.5 -11q-30 0 -57.5 4.5t-57 15t-51 28t-38.5 44.5t-19 64.5t6 86.5l8 29l-94 -8l-6 -35q-9 -61 -4.5 -107t26.5 -80.5
t50.5 -57.5t67 -37.5t76.5 -20.5t79 -6z" />
    <glyph glyph-name="K.ss07" horiz-adv-x="2459" 
d="M1094 -315q-216 0 -398.5 58t-310 160.5t-199 249.5t-71.5 320q0 165 65 325t185.5 294t279.5 236.5t360 160t414 57.5q205 0 383.5 -54.5t312 -154t210.5 -250.5t77 -333q0 -140 -46.5 -276t-130.5 -253.5t-204.5 -217.5t-263.5 -171t-314 -111t-349 -40zM973 1096
l-170 -963h98q14 87 62 340q29 21 91.5 69.5t82.5 63.5q347 -442 372 -473h121q-21 28 -173 223.5t-238 315.5q64 49 176 135t205 156.5t176 132.5h-125q-520 -391 -672 -512l92 512h-98z" />
    <glyph glyph-name="L.ss07" 
d="M1094 -315q-216 0 -398.5 58t-310 160.5t-199 249.5t-71.5 320q0 165 65 325t185.5 294t279.5 236.5t360 160t414 57.5q205 0 383.5 -54.5t312 -154t210.5 -250.5t77 -333q0 -140 -46.5 -276t-130.5 -253.5t-204.5 -217.5t-263.5 -171t-314 -111t-349 -40zM1071 1096
l-170 -963h698l15 84h-602l157 879h-98z" />
    <glyph glyph-name="M.ss07" horiz-adv-x="2459" 
d="M1094 -315q-216 0 -398.5 58t-310 160.5t-199 249.5t-71.5 320q0 165 65 325t185.5 294t279.5 236.5t360 160t414 57.5q205 0 383.5 -54.5t312 -154t210.5 -250.5t77 -333q0 -140 -46.5 -276t-130.5 -253.5t-204.5 -217.5t-263.5 -171t-314 -111t-349 -40zM743 1096
l-170 -963h97l141 785q100 -275 295 -785h94q102 142 578 789l-144 -789h101l170 963h-111q-115 -161 -331 -452t-292 -396q-188 509 -319 848h-109z" />
    <glyph glyph-name="N.ss07" 
d="M1094 -315q-216 0 -398.5 58t-310 160.5t-199 249.5t-71.5 320q0 165 65 325t185.5 294t279.5 236.5t360 160t414 57.5q205 0 383.5 -54.5t312 -154t210.5 -250.5t77 -333q0 -140 -46.5 -276t-130.5 -253.5t-204.5 -217.5t-263.5 -171t-314 -111t-349 -40zM887 1096
l-170 -963h98l143 817q98 -150 287 -421.5t271 -395.5h102l170 963h-96l-150 -826q-170 264 -553 826h-102z" />
    <glyph glyph-name="O.ss07" 
d="M1094 -315q-216 0 -398.5 58t-310 160.5t-199 249.5t-71.5 320q0 165 65 325t185.5 294t279.5 236.5t360 160t414 57.5q205 0 383.5 -54.5t312 -154t210.5 -250.5t77 -333q0 -140 -46.5 -276t-130.5 -253.5t-204.5 -217.5t-263.5 -171t-314 -111t-349 -40zM1151 113
q178 0 335 81t249 214.5t92 281.5q0 185 -140.5 305.5t-357.5 120.5q-132 0 -256.5 -48t-216 -126.5t-146.5 -185t-55 -217.5q0 -188 139 -307t357 -119zM760 549q0 125 76.5 237t206 180t274.5 68q177 0 291 -100t114 -254q0 -93 -45.5 -182t-121 -155.5t-178 -107
t-210.5 -40.5q-178 0 -292.5 100t-114.5 254z" />
    <glyph glyph-name="P.ss07" 
d="M1094 -315q-216 0 -398.5 58t-310 160.5t-199 249.5t-71.5 320q0 165 65 325t185.5 294t279.5 236.5t360 160t414 57.5q205 0 383.5 -54.5t312 -154t210.5 -250.5t77 -333q0 -140 -46.5 -276t-130.5 -253.5t-204.5 -217.5t-263.5 -171t-314 -111t-349 -40zM985 1096
l-170 -963h98l70 385h328q174 0 290.5 102t116.5 234q0 116 -90.5 179t-241.5 63h-401zM1294 598h-301l76 418h287q124 0 190 -46.5t66 -135.5q0 -103 -89 -169.5t-229 -66.5z" />
    <glyph glyph-name="Q.ss07" horiz-adv-x="2455" 
d="M1094 -315q-216 0 -398.5 58t-310 160.5t-199 249.5t-71.5 320q0 165 65 325t185.5 294t279.5 236.5t360 160t414 57.5q205 0 383.5 -54.5t312 -154t210.5 -250.5t77 -333q0 -140 -46.5 -276t-130.5 -253.5t-204.5 -217.5t-263.5 -171t-314 -111t-349 -40zM1604 66l77 53
q-57 65 -131 157q125 79 201 204t76 259q0 183 -141 302.5t-359 119.5q-133 0 -257.5 -48t-215.5 -127t-146 -185t-55 -217q0 -188 140 -307t358 -119q174 0 315 69q74 -82 138 -161zM760 592q0 126 76.5 238.5t206 180.5t274.5 68q175 0 289 -100t114 -252
q0 -110 -61 -212.5t-164 -170.5q-24 29 -76 90t-116 137l-78 -51q23 -27 70.5 -83.5t81 -97t36.5 -42.5q-117 -57 -250 -57q-169 0 -286 96.5t-117 255.5z" />
    <glyph glyph-name="R.ss07" 
d="M1094 -315q-216 0 -398.5 58t-310 160.5t-199 249.5t-71.5 320q0 165 65 325t185.5 294t279.5 236.5t360 160t414 57.5q205 0 383.5 -54.5t312 -154t210.5 -250.5t77 -333q0 -140 -46.5 -276t-130.5 -253.5t-204.5 -217.5t-263.5 -171t-314 -111t-349 -40zM991 1096
l-170 -963h101q11 55 22 127.5t45 257.5h275l241 -385h111q-31 51 -113.5 180.5t-128.5 208.5q149 13 249.5 109t100.5 219q0 119 -89.5 182.5t-241.5 63.5h-402zM1300 596h-301q11 53 29.5 156.5t32.5 180.5t16 83h287q122 0 189 -46.5t67 -135.5q0 -103 -88.5 -170.5
t-231.5 -67.5z" />
    <glyph glyph-name="S.ss07" 
d="M1094 -315q-216 0 -398.5 58t-310 160.5t-199 249.5t-71.5 320q0 165 65 325t185.5 294t279.5 236.5t360 160t414 57.5q205 0 383.5 -54.5t312 -154t210.5 -250.5t77 -333q0 -140 -46.5 -276t-130.5 -253.5t-204.5 -217.5t-263.5 -171t-314 -111t-349 -40zM1174 113
q180 0 311 95t131 218q0 22 -5.5 42t-13 35.5t-22 30t-26.5 25t-33.5 21t-35.5 17t-39 14.5t-38.5 12t-40 11.5t-37.5 10.5l-100 29q-24 7 -31 8.5t-35.5 11.5t-42 17t-37 21.5t-35 29t-21 35.5t-9.5 45q0 79 83 135.5t206 56.5q113 0 187 -51.5t87 -140.5l94 32
q-17 113 -109.5 177.5t-236.5 64.5q-175 0 -296.5 -86.5t-121.5 -204.5q0 -44 21 -82t49 -61.5t71 -44t72 -30t66 -19.5l102 -27q7 -2 37 -10t40 -10.5t35.5 -11.5t35.5 -15t27.5 -18t24.5 -24t13 -29t6 -37q0 -86 -91.5 -148.5t-225.5 -62.5q-129 0 -211.5 63t-95.5 176
l-95 -31q11 -79 50 -138t95 -90.5t116 -46.5t125 -15z" />
    <glyph glyph-name="T.ss07" 
d="M1094 -315q-216 0 -398.5 58t-310 160.5t-199 249.5t-71.5 320q0 165 65 325t185.5 294t279.5 236.5t360 160t414 57.5q205 0 383.5 -54.5t312 -154t210.5 -250.5t77 -333q0 -140 -46.5 -276t-130.5 -253.5t-204.5 -217.5t-263.5 -171t-314 -111t-349 -40zM1262 1016
l-160 -883h100q17 101 25 148t15 84t37.5 206.5t78.5 444.5h397l12 80h-893l-14 -80h402z" />
    <glyph glyph-name="U.ss07" 
d="M1094 -315q-216 0 -398.5 58t-310 160.5t-199 249.5t-71.5 320q0 165 65 325t185.5 294t279.5 236.5t360 160t414 57.5q205 0 383.5 -54.5t312 -154t210.5 -250.5t77 -333q0 -140 -46.5 -276t-130.5 -253.5t-204.5 -217.5t-263.5 -171t-314 -111t-349 -40zM1149 123
q199 0 324 99.5t155 269.5l109 614h-99l-108 -612q-25 -142 -117 -216.5t-248 -74.5q-157 0 -223 75t-41 216l111 612h-99l-108 -614q-31 -174 56 -271.5t288 -97.5z" />
    <glyph glyph-name="V.ss07" 
d="M1094 -315q-216 0 -398.5 58t-310 160.5t-199 249.5t-71.5 320q0 165 65 325t185.5 294t279.5 236.5t360 160t414 57.5q205 0 383.5 -54.5t312 -154t210.5 -250.5t77 -333q0 -140 -46.5 -276t-130.5 -253.5t-204.5 -217.5t-263.5 -171t-314 -111t-349 -40zM801 1096
l305 -963h94l645 963h-104q-21 -33 -140.5 -212.5t-424.5 -643.5q-22 70 -65 208.5t-69.5 223t-65 203.5t-73.5 221h-102z" />
    <glyph glyph-name="W.ss07" 
d="M1094 -315q-216 0 -398.5 58t-310 160.5t-199 249.5t-71.5 320q0 165 65 325t185.5 294t279.5 236.5t360 160t414 57.5q205 0 383.5 -54.5t312 -154t210.5 -250.5t77 -333q0 -140 -46.5 -276t-130.5 -253.5t-204.5 -217.5t-263.5 -171t-314 -111t-349 -40zM516 1096
l213 -963h102q154 259 474 838q73 -421 170 -838h102l553 963h-100q-28 -49 -161 -278t-323 -562q-25 124 -83.5 406.5t-88.5 433.5h-102q-46 -82 -183 -329.5t-288 -510.5q-6 28 -19 93l-16.5 82.5t-14 67.5t-14.5 68t-13 61t-15.5 70.5t-16.5 73t-21 91.5t-24.5 103.5
t-30.5 129.5h-100z" />
    <glyph glyph-name="X.ss07" 
d="M1094 -315q-216 0 -398.5 58t-310 160.5t-199 249.5t-71.5 320q0 165 65 325t185.5 294t279.5 236.5t360 160t414 57.5q205 0 383.5 -54.5t312 -154t210.5 -250.5t77 -333q0 -140 -46.5 -276t-130.5 -253.5t-204.5 -217.5t-263.5 -171t-314 -111t-349 -40zM688 133h113
q129 127 430 428q27 -42 84.5 -133t102.5 -161.5t87 -133.5h111q-51 76 -156.5 242t-163.5 252q114 114 478 469h-111q-23 -22 -121.5 -116t-292.5 -284q-50 73 -141 210t-127 190h-113q47 -71 166.5 -245.5t151.5 -223.5q-86 -83 -286 -282.5t-212 -211.5z" />
    <glyph glyph-name="Y.ss07" 
d="M1094 -315q-216 0 -398.5 58t-310 160.5t-199 249.5t-71.5 320q0 165 65 325t185.5 294t279.5 236.5t360 160t414 57.5q205 0 383.5 -54.5t312 -154t210.5 -250.5t77 -333q0 -140 -46.5 -276t-130.5 -253.5t-204.5 -217.5t-263.5 -171t-314 -111t-349 -40zM1165 489
l-63 -356h100q56 318 62 356q89 100 271 303t271 304h-104q-324 -359 -473 -525q-29 52 -80.5 149t-204.5 376h-106q314 -583 327 -607z" />
    <glyph glyph-name="Z.ss07" 
d="M1094 -315q-216 0 -398.5 58t-310 160.5t-199 249.5t-71.5 320q0 165 65 325t185.5 294t279.5 236.5t360 160t414 57.5q205 0 383.5 -54.5t312 -154t210.5 -250.5t77 -333q0 -140 -46.5 -276t-130.5 -253.5t-204.5 -217.5t-263.5 -171t-314 -111t-349 -40zM743 215
l-12 -82h885l12 84h-766q160 143 431 383.5t468 417.5l13 78h-842l-12 -80h716q-176 -157 -506.5 -454t-386.5 -347z" />
    <glyph glyph-name="A.ss08" 
d="M1419 1546q205 0 383.5 -54.5t312 -154t210.5 -250.5t77 -333q0 -140 -46.5 -276t-130.5 -253.5t-204.5 -217.5t-263.5 -171t-314 -111t-349 -40q-216 0 -398.5 58t-310 160.5t-199 249.5t-71.5 320q0 165 65 325t185.5 294t279.5 236.5t360 160t414 57.5zM1106 -236
q163 0 318.5 36.5t287 100.5t242.5 155.5t188.5 198.5t120.5 231.5t43 252.5q0 166 -69.5 304t-191 230t-286 142.5t-354.5 50.5q-162 0 -318 -37.5t-286.5 -103t-241.5 -158t-187.5 -200t-119.5 -231t-43 -249.5q0 -212 113 -376.5t317.5 -255.5t466.5 -91zM803 270
l463 688h71l219 -688h-79q-5 16 -34.5 106t-45.5 142h-350l-89 -133.5t-77 -114.5h-78zM1087 578h291q-74 233 -92 301q-20 -34 -91 -138t-108 -163z" />
    <glyph glyph-name="B.ss08" horiz-adv-x="2459" 
d="M1421 1546q205 0 383.5 -54.5t312 -154t210.5 -250.5t77 -333q0 -140 -46.5 -276t-130.5 -253.5t-204.5 -217.5t-263.5 -171t-314 -111t-349 -40q-216 0 -398.5 58t-310 160.5t-199 249.5t-71.5 320q0 165 65 325t185.5 294t279.5 236.5t360 160t414 57.5zM1108 -236
q163 0 318.5 36.5t287 100.5t242.5 155.5t188.5 198.5t120.5 231.5t43 252.5q0 166 -69.5 304t-191 230t-286 142.5t-354.5 50.5q-162 0 -318 -37.5t-286.5 -103t-241.5 -158t-187.5 -200t-119.5 -231t-43 -249.5q0 -212 113 -376.5t317.5 -255.5t466.5 -91zM1565 801
q0 -57 -44 -107t-114 -73q60 -15 94.5 -52t34.5 -86q0 -85 -84.5 -149t-204.5 -64h-334l121 688h289q108 0 175 -43.5t67 -113.5zM1266 645q93 0 157 40.5t64 100.5q0 51 -51.5 81t-135.5 30h-200q-33 -184 -45 -252h211zM1456 471q0 53 -50.5 85t-131.5 32h-230
q-7 -42 -19 -108.5t-26 -147.5h238q93 0 156 39t63 100z" />
    <glyph glyph-name="C.ss08" 
d="M1094 -315q-216 0 -398.5 58t-310 160.5t-199 249.5t-71.5 320q0 165 65 325t185.5 294t279.5 236.5t360 160t414 57.5q205 0 383.5 -54.5t312 -154t210.5 -250.5t77 -333q0 -140 -46.5 -276t-130.5 -253.5t-204.5 -217.5t-263.5 -171t-314 -111t-349 -40zM1106 -236
q163 0 318.5 36.5t287 100.5t242.5 155.5t188.5 198.5t120.5 231.5t43 252.5q0 166 -69.5 304t-191 230t-286 142.5t-354.5 50.5q-162 0 -318 -37.5t-286.5 -103t-241.5 -158t-187.5 -200t-119.5 -231t-43 -249.5q0 -212 113 -376.5t317.5 -255.5t466.5 -91zM1200 256
q-163 0 -261.5 81.5t-98.5 217.5q0 79 37 155t100.5 134t154 93.5t191.5 35.5q131 0 222 -57t106 -150l-70 -25q-22 78 -93.5 123t-174.5 45q-163 0 -278 -105t-115 -243q0 -120 86 -182t213 -62q119 0 214 57t142 158l63 -22q-59 -118 -174.5 -186t-263.5 -68z" />
    <glyph glyph-name="D.ss08" 
d="M1096 -315q-216 0 -398.5 58t-310.5 160.5t-200 249.5t-72 320q0 165 65 325t186 294t280.5 236.5t360.5 160t414 57.5q205 0 383.5 -54.5t312 -154t210.5 -250.5t77 -333q0 -140 -47 -276t-131 -253.5t-204.5 -217.5t-263.5 -171t-313.5 -111t-348.5 -40zM1108 -236
q163 0 318.5 36.5t287 100.5t242.5 155.5t188.5 198.5t120.5 231.5t43 252.5q0 166 -69.5 304t-191 230t-286 142.5t-354.5 50.5q-163 0 -319 -37.5t-286.5 -103t-241 -158t-187 -200t-119.5 -231t-43 -249.5q0 -212 113 -376.5t317.5 -255.5t466.5 -91zM1184 270h-301
l121 688h290q164 0 252 -71.5t88 -206.5q0 -169 -130 -289.5t-320 -120.5zM969 332h231q152 0 254 98t102 236q0 115 -72 173t-210 58h-205q-11 -61 -100 -565z" />
    <glyph glyph-name="E.ss08" 
d="M1094 -315q-216 0 -398.5 58t-310 160.5t-199 249.5t-71.5 320q0 165 65 325t185.5 294t279.5 236.5t360 160t414 57.5q205 0 383.5 -54.5t312 -154t210.5 -250.5t77 -333q0 -140 -46.5 -276t-130.5 -253.5t-204.5 -217.5t-263.5 -171t-314 -111t-349 -40zM1106 -236
q163 0 318.5 36.5t287 100.5t242.5 155.5t188.5 198.5t120.5 231.5t43 252.5q0 166 -69.5 304t-191 230t-286 142.5t-354.5 50.5q-162 0 -318 -37.5t-286.5 -103t-241.5 -158t-187.5 -200t-119.5 -231t-43 -249.5q0 -212 113 -376.5t317.5 -255.5t466.5 -91zM1468 270h-536
l123 688h526l-10 -61h-453q-7 -43 -12 -70.5t-13 -72.5t-18 -99h430l-10 -61h-428q-21 -109 -47 -260h459z" />
    <glyph glyph-name="F.ss08" 
d="M1094 -315q-216 0 -398.5 58t-310 160.5t-199 249.5t-71.5 320q0 165 65 325t185.5 294t279.5 236.5t360 160t414 57.5q205 0 383.5 -54.5t312 -154t210.5 -250.5t77 -333q0 -140 -46.5 -276t-130.5 -253.5t-204.5 -217.5t-263.5 -171t-314 -111t-349 -40zM1106 -236
q163 0 318.5 36.5t287 100.5t242.5 155.5t188.5 198.5t120.5 231.5t43 252.5q0 166 -69.5 304t-191 230t-286 142.5t-354.5 50.5q-162 0 -318 -37.5t-286.5 -103t-241.5 -158t-187.5 -200t-119.5 -231t-43 -249.5q0 -212 113 -376.5t317.5 -255.5t466.5 -91zM1024 270h-76
l123 688h514l-10 -61h-440l-43 -248h419l-12 -59h-418z" />
    <glyph glyph-name="G.ss08" 
d="M1419 1546q205 0 383.5 -54.5t312 -154t210.5 -250.5t77 -333q0 -140 -46.5 -276t-130.5 -253.5t-204.5 -217.5t-263.5 -171t-314 -111t-349 -40q-216 0 -398.5 58t-310 160.5t-199 249.5t-71.5 320q0 165 65 325t185.5 294t279.5 236.5t360 160t414 57.5zM1106 -236
q163 0 318.5 36.5t287 100.5t242.5 155.5t188.5 198.5t120.5 231.5t43 252.5q0 166 -69.5 304t-191 230t-286 142.5t-354.5 50.5q-162 0 -318 -37.5t-286.5 -103t-241.5 -158t-187.5 -200t-119.5 -231t-43 -249.5q0 -212 113 -376.5t317.5 -255.5t466.5 -91zM1313 909
q-163 0 -278 -104.5t-115 -243.5q0 -82 43.5 -139t107 -81t139.5 -24q129 0 227.5 65.5t129.5 170.5h-297l8 57h371l-60 -340h-65q4 27 12.5 75.5t11.5 68.5q-124 -158 -354 -158q-160 0 -257 81t-97 216q0 80 37.5 157t101.5 134.5t155 93t191 35.5q130 0 220.5 -57
t105.5 -150l-70 -25q-22 79 -93.5 123.5t-174.5 44.5z" />
    <glyph glyph-name="H.ss08" 
d="M1419 1546q205 0 383.5 -54.5t312 -154t210.5 -250.5t77 -333q0 -140 -46.5 -276t-130.5 -253.5t-204.5 -217.5t-263.5 -171t-314 -111t-349 -40q-216 0 -398.5 58t-310 160.5t-199 249.5t-71.5 320q0 165 65 325t185.5 294t279.5 236.5t360 160t414 57.5zM1106 -236
q163 0 318.5 36.5t287 100.5t242.5 155.5t188.5 198.5t120.5 231.5t43 252.5q0 166 -69.5 304t-191 230t-286 142.5t-354.5 50.5q-162 0 -318 -37.5t-286.5 -103t-241.5 -158t-187.5 -200t-119.5 -231t-43 -249.5q0 -212 113 -376.5t317.5 -255.5t466.5 -91zM1006 649h481
l53 309h76l-121 -688h-76l56 318h-480l-57 -318h-74l121 688h76z" />
    <glyph glyph-name="I.ss08" 
d="M1094 -315q-216 0 -398.5 58t-310 160.5t-199 249.5t-71.5 320q0 165 65 325t185.5 294t279.5 236.5t360 160t414 57.5q205 0 383.5 -54.5t312 -154t210.5 -250.5t77 -333q0 -140 -46.5 -276t-130.5 -253.5t-204.5 -217.5t-263.5 -171t-314 -111t-349 -40zM1106 -236
q163 0 318.5 36.5t287 100.5t242.5 155.5t188.5 198.5t120.5 231.5t43 252.5q0 166 -69.5 304t-191 230t-285.5 142.5t-353 50.5q-195 0 -379 -52.5t-330.5 -146t-257.5 -215t-171 -268t-60 -297.5q0 -212 113 -376.5t317.5 -255.5t466.5 -91zM1214 270h-75l121 688h75z" />
    <glyph glyph-name="J.ss08" 
d="M1094 -315q-216 0 -398.5 58t-310 160.5t-199 249.5t-71.5 320q0 165 65 325t185.5 294t279.5 236.5t360 160t414 57.5q205 0 383.5 -54.5t312 -154t210.5 -250.5t77 -333q0 -140 -46.5 -276t-130.5 -253.5t-204.5 -217.5t-263.5 -171t-314 -111t-349 -40zM1106 -236
q163 0 318.5 36.5t287 100.5t242.5 155.5t188.5 198.5t120.5 231.5t43 252.5q0 166 -69.5 304t-191 230t-286 142.5t-354.5 50.5q-162 0 -318 -37.5t-286.5 -103t-241.5 -158t-187.5 -200t-119.5 -231t-43 -249.5q0 -212 113 -376.5t317.5 -255.5t466.5 -91zM1145 262
q-118 0 -175 59t-40 162l4 27l72 8l-5 -24q-14 -80 26.5 -126t123.5 -46q44 0 78 15.5t53.5 35.5t34 51.5t19.5 52t10 47.5l77 441h76l-76 -424q-4 -24 -8 -41.5t-14 -49t-22 -54t-33.5 -49.5t-48.5 -44.5t-66 -29t-86 -11.5z" />
    <glyph glyph-name="K.ss08" 
d="M1419 1546q205 0 383.5 -54.5t312 -154t210.5 -250.5t77 -333q0 -140 -46.5 -276t-130.5 -253.5t-204.5 -217.5t-263.5 -171t-314 -111t-349 -40q-216 0 -398.5 58t-310 160.5t-199 249.5t-71.5 320q0 165 65 325t185.5 294t279.5 236.5t360 160t414 57.5zM1106 -236
q163 0 318.5 36.5t287 100.5t242.5 155.5t188.5 198.5t120.5 231.5t43 252.5q0 166 -69.5 304t-191 230t-286 142.5t-354.5 50.5q-162 0 -318 -37.5t-286.5 -103t-241.5 -158t-187.5 -200t-119.5 -231t-43 -249.5q0 -212 113 -376.5t317.5 -255.5t466.5 -91zM1536 958h94
q-99 -73 -244.5 -183.5t-154.5 -119.5q58 -77 165.5 -218t127.5 -167h-92q-25 32 -43 56t-30 39t-58 73t-134 168q-23 -18 -68 -52t-55 -42q-15 -89 -43 -242h-75l123 688h75q-8 -49 -30.5 -171.5t-32.5 -188.5q300 230 475 360z" />
    <glyph glyph-name="L.ss08" 
d="M1419 1546q205 0 383.5 -54.5t312 -154t210.5 -250.5t77 -333q0 -140 -46.5 -276t-130.5 -253.5t-204.5 -217.5t-263.5 -171t-314 -111t-349 -40q-216 0 -398.5 58t-310 160.5t-199 249.5t-71.5 320q0 165 65 325t185.5 294t279.5 236.5t360 160t414 57.5zM1106 -236
q163 0 318.5 36.5t287 100.5t242.5 155.5t188.5 198.5t120.5 231.5t43 252.5q0 166 -69.5 304t-191 230t-286 142.5t-354.5 50.5q-162 0 -318 -37.5t-286.5 -103t-241.5 -158t-187.5 -200t-119.5 -231t-43 -249.5q0 -212 113 -376.5t317.5 -255.5t466.5 -91zM1118 958h76
l-111 -624h428l-10 -64h-506z" />
    <glyph glyph-name="M.ss08" horiz-adv-x="2459" 
d="M1419 1546q205 0 383.5 -54.5t312 -154t210.5 -250.5t77 -333q0 -140 -46.5 -276t-130.5 -253.5t-204.5 -217.5t-263.5 -171t-314 -111t-349 -40q-216 0 -398.5 58t-310 160.5t-199 249.5t-71.5 320q0 165 65 325t185.5 294t279.5 236.5t360 160t414 57.5zM1106 -236
q163 0 318.5 36.5t287 100.5t242.5 155.5t188.5 198.5t120.5 231.5t43 252.5q0 166 -69.5 304t-191 230t-286 142.5t-354.5 50.5q-162 0 -318 -37.5t-286.5 -103t-241.5 -158t-187.5 -200t-119.5 -231t-43 -249.5q0 -212 113 -376.5t317.5 -255.5t466.5 -91zM1194 358
q70 94 185 250t183.5 249t73.5 101h82l-121 -688h-75q13 74 46.5 260t49.5 293q-73 -102 -211.5 -290t-192.5 -263h-69q-8 20 -72.5 187.5t-136.5 365.5q-8 -41 -26 -148t-72 -405h-76l121 688h82q145 -370 229 -600z" />
    <glyph glyph-name="N.ss08" 
d="M1419 1546q205 0 383.5 -54.5t312 -154t210.5 -250.5t77 -333q0 -140 -46.5 -276t-130.5 -253.5t-204.5 -217.5t-263.5 -171t-314 -111t-349 -40q-216 0 -398.5 58t-310 160.5t-199 249.5t-71.5 320q0 165 65 325t185.5 294t279.5 236.5t360 160t414 57.5zM1106 -236
q163 0 318.5 36.5t287 100.5t242.5 155.5t188.5 198.5t120.5 231.5t43 252.5q0 166 -69.5 304t-191 230t-286 142.5t-354.5 50.5q-162 0 -318 -37.5t-286.5 -103t-241.5 -158t-187.5 -200t-119.5 -231t-43 -249.5q0 -212 113 -376.5t317.5 -255.5t466.5 -91zM1454 377
q49 239 107 581h75l-123 -688h-75q-359 521 -398 580q-5 -28 -30 -171.5t-70 -408.5h-76l121 688h78q346 -512 391 -581z" />
    <glyph glyph-name="O.ss08" 
d="M1094 -315q-216 0 -398.5 58t-310 160.5t-199 249.5t-71.5 320q0 165 65 325t185.5 294t279.5 236.5t360 160t414 57.5q205 0 383.5 -54.5t312 -154t210.5 -250.5t77 -333q0 -140 -46.5 -276t-130.5 -253.5t-204.5 -217.5t-263.5 -171t-314 -111t-349 -40zM1106 -236
q163 0 318.5 36.5t287 100.5t242.5 155.5t188.5 198.5t120.5 231.5t43 252.5q0 166 -69.5 304t-191 230t-286 142.5t-354.5 50.5q-162 0 -318 -37.5t-286.5 -103t-241.5 -158t-187.5 -200t-119.5 -231t-43 -249.5q0 -212 113 -376.5t317.5 -255.5t466.5 -91zM1176 256
q-155 0 -256 85.5t-101 217.5q0 105 65.5 200.5t178.5 154.5t242 59q155 0 256.5 -85.5t101.5 -217.5q0 -106 -66.5 -201.5t-179.5 -154t-241 -58.5zM1190 317q101 0 192.5 48.5t146 128t54.5 165.5q0 107 -82.5 178.5t-206.5 71.5q-101 0 -193 -47.5t-147 -126.5t-55 -166
q0 -109 82.5 -180.5t208.5 -71.5z" />
    <glyph glyph-name="P.ss08" 
d="M1419 1546q205 0 383.5 -54.5t312 -154t210.5 -250.5t77 -333q0 -140 -46.5 -276t-130.5 -253.5t-204.5 -217.5t-263.5 -171t-314 -111t-349 -40q-216 0 -398.5 58t-310 160.5t-199 249.5t-71.5 320q0 165 65 325t185.5 294t279.5 236.5t360 160t414 57.5zM1106 -236
q163 0 318.5 36.5t287 100.5t242.5 155.5t188.5 198.5t120.5 231.5t43 252.5q0 166 -69.5 304t-191 230t-286 142.5t-354.5 50.5q-162 0 -318 -37.5t-286.5 -103t-241.5 -158t-187.5 -200t-119.5 -231t-43 -249.5q0 -212 113 -376.5t317.5 -255.5t466.5 -91zM1055 958h288
q110 0 175 -45.5t65 -128.5q0 -99 -86.5 -170t-208.5 -71h-231l-47 -273h-76zM1067 604h213q98 0 160.5 47t62.5 117q0 64 -47.5 96.5t-134.5 32.5h-201z" />
    <glyph glyph-name="Q.ss08" 
d="M1094 -315q-216 0 -398.5 58t-310 160.5t-199 249.5t-71.5 320q0 165 65 325t185.5 294t279.5 236.5t360 160t414 57.5q205 0 383.5 -54.5t312 -154t210.5 -250.5t77 -333q0 -140 -46.5 -276t-130.5 -253.5t-204.5 -217.5t-263.5 -171t-314 -111t-349 -40zM1106 -236
q163 0 318.5 36.5t287 100.5t242.5 155.5t188.5 198.5t120.5 231.5t43 252.5q0 166 -69.5 304t-191 230t-286 142.5t-354.5 50.5q-162 0 -318 -37.5t-286.5 -103t-241.5 -158t-187.5 -200t-119.5 -231t-43 -249.5q0 -212 113 -376.5t317.5 -255.5t466.5 -91zM1559 260
l-58 -37q-18 22 -52 60.5t-46 52.5q-114 -49 -225 -49q-156 0 -257.5 86t-101.5 219q0 78 39.5 153t104.5 132t156 92t188 35q155 0 255.5 -85.5t100.5 -216.5q0 -95 -52 -181t-145 -148q66 -74 93 -113zM1190 348q92 0 172 41q-26 32 -75 88.5t-60 69.5l61 39
q75 -92 137 -162q74 51 116 122t42 146q0 108 -81.5 179t-205.5 71q-101 0 -193.5 -48t-148 -127.5t-55.5 -166.5q0 -109 82.5 -180.5t208.5 -71.5z" />
    <glyph glyph-name="R.ss08" 
d="M1419 1546q205 0 383.5 -54.5t312 -154t210.5 -250.5t77 -333q0 -140 -46.5 -276t-130.5 -253.5t-204.5 -217.5t-263.5 -171t-314 -111t-349 -40q-216 0 -398.5 58t-310 160.5t-199 249.5t-71.5 320q0 165 65 325t185.5 294t279.5 236.5t360 160t414 57.5zM1106 -236
q163 0 318.5 36.5t287 100.5t242.5 155.5t188.5 198.5t120.5 231.5t43 252.5q0 166 -69.5 304t-191 230t-286 142.5t-354.5 50.5q-162 0 -318 -37.5t-286.5 -103t-241.5 -158t-187.5 -200t-119.5 -231t-43 -249.5q0 -212 113 -376.5t317.5 -255.5t466.5 -91zM1059 958h289
q109 0 173 -45.5t64 -128.5q0 -90 -73 -157.5t-177 -79.5q26 -41 69 -109t73 -115t34 -53h-84l-174 273h-192q-4 -28 -49 -273h-76zM1282 604q100 0 162.5 47t62.5 117q0 64 -48 97.5t-134 33.5h-203q-25 -156 -51 -295h211z" />
    <glyph glyph-name="S.ss08" 
d="M1094 -315q-216 0 -398.5 58t-310 160.5t-199 249.5t-71.5 320q0 165 65 325t185.5 294t279.5 236.5t360 160t414 57.5q205 0 383.5 -54.5t312 -154t210.5 -250.5t77 -333q0 -140 -46.5 -276t-130.5 -253.5t-204.5 -217.5t-263.5 -171t-314 -111t-349 -40zM1106 -236
q163 0 318.5 36.5t287 100.5t242.5 155.5t188.5 198.5t120.5 231.5t43 252.5q0 166 -69.5 304t-191 230t-286 142.5t-354.5 50.5q-162 0 -318 -37.5t-286.5 -103t-241.5 -158t-187.5 -200t-119.5 -231t-43 -249.5q0 -212 113 -376.5t317.5 -255.5t466.5 -91zM1190 256
q-115 0 -189.5 54t-87.5 155l74 22q9 -78 68.5 -124t150.5 -46q93 0 157 44t64 104q0 12 -2.5 22.5t-8.5 19.5t-11 15.5t-17 12.5t-18.5 9.5t-22.5 8.5t-22.5 7t-25.5 6.5t-25 6.5l-76 21q-199 53 -199 170q0 84 89 146.5t215 62.5q101 0 168 -46.5t79 -127.5l-71 -25
q-10 64 -63 99.5t-132 35.5q-86 0 -144.5 -37.5t-58.5 -93.5q0 -81 150 -121l74 -20q4 -1 28 -7.5t31.5 -9t29.5 -10t31 -12.5t26.5 -14.5t25 -19t17.5 -22.5t13.5 -28t3.5 -33q0 -90 -95.5 -157.5t-225.5 -67.5z" />
    <glyph glyph-name="T.ss08" 
d="M1096 -315q-216 0 -398.5 58t-310.5 160.5t-200 249.5t-72 320q0 165 65 325t186 294t280.5 236.5t360.5 160t414 57.5q205 0 383.5 -54.5t312 -154t210.5 -250.5t77 -333q0 -140 -47 -276t-131 -253.5t-204.5 -217.5t-263.5 -171t-313.5 -111t-348.5 -40zM1108 -236
q163 0 318.5 36.5t287 100.5t242.5 155.5t188.5 198.5t120.5 231.5t43 252.5q0 166 -69.5 304t-191 230t-286 142.5t-354.5 50.5q-163 0 -319 -37.5t-286.5 -103t-241 -158t-187 -200t-119.5 -231t-43 -249.5q0 -212 113 -376.5t317.5 -255.5t466.5 -91zM1217 270h-76
q10 58 15.5 89t11 61.5t27.5 155.5t56 321h-284l12 61h641l-10 -61h-283q-11 -59 -110 -627z" />
    <glyph glyph-name="U.ss08" 
d="M1094 -315q-216 0 -398.5 58t-310 160.5t-199 249.5t-71.5 320q0 165 65 325t185.5 294t279.5 236.5t360 160t414 57.5q205 0 383.5 -54.5t312 -154t210.5 -250.5t77 -333q0 -140 -46.5 -276t-130.5 -253.5t-204.5 -217.5t-263.5 -171t-314 -111t-349 -40zM1106 -236
q163 0 318.5 36.5t287 100.5t242.5 155.5t188.5 198.5t120.5 231.5t43 252.5q0 166 -69.5 304t-191 230t-286 142.5t-354.5 50.5q-162 0 -318 -37.5t-286.5 -103t-241.5 -158t-187.5 -200t-119.5 -231t-43 -249.5q0 -212 113 -376.5t317.5 -255.5t466.5 -91zM1174 262
q-144 0 -206 70.5t-40 191.5l76 441h75l-75 -439q-19 -100 28.5 -152t157.5 -52q218 0 256 204l76 439h75l-77 -441q-20 -122 -112.5 -192t-233.5 -70z" />
    <glyph glyph-name="V.ss08" 
d="M1419 1546q205 0 383.5 -54.5t312 -154t210.5 -250.5t77 -333q0 -140 -46.5 -276t-130.5 -253.5t-204.5 -217.5t-263.5 -171t-314 -111t-349 -40q-216 0 -398.5 58t-310 160.5t-199 249.5t-71.5 320q0 165 65 325t185.5 294t279.5 236.5t360 160t414 57.5zM1106 -236
q163 0 318.5 36.5t287 100.5t242.5 155.5t188.5 198.5t120.5 231.5t43 252.5q0 166 -69.5 304t-191 230t-286 142.5t-354.5 50.5q-162 0 -318 -37.5t-286.5 -103t-241.5 -158t-187.5 -200t-119.5 -231t-43 -249.5q0 -212 113 -376.5t317.5 -255.5t466.5 -91zM1194 352
q146 224 405 606h80l-465 -688h-69l-219 688h78q50 -151 190 -606z" />
    <glyph glyph-name="W.ss08" 
d="M1419 1546q205 0 383.5 -54.5t312 -154t210.5 -250.5t77 -333q0 -140 -46.5 -276t-130.5 -253.5t-204.5 -217.5t-263.5 -171t-314 -111t-349 -40q-216 0 -398.5 58t-310 160.5t-199 249.5t-71.5 320q0 165 65 325t185.5 294t279.5 236.5t360 160t414 57.5zM1106 -236
q163 0 318.5 36.5t287 100.5t242.5 155.5t188.5 198.5t120.5 231.5t43 252.5q0 166 -69.5 304t-191 230t-286 142.5t-354.5 50.5q-162 0 -318 -37.5t-286.5 -103t-241.5 -158t-187.5 -200t-119.5 -231t-43 -249.5q0 -212 113 -376.5t317.5 -255.5t466.5 -91zM1460 362
q218 387 344 596h76l-397 -688h-78q-58 254 -121 590q-26 -47 -72 -131.5t-72 -131t-76.5 -134.5t-113.5 -193h-80l-151 688h80q14 -63 40 -178t48.5 -217t42.5 -198q27 47 153 270.5t181 322.5h73q12 -60 56 -270t67 -326z" />
    <glyph glyph-name="X.ss08" horiz-adv-x="2455" 
d="M1419 1546q205 0 383.5 -54.5t312 -154t210.5 -250.5t77 -333q0 -140 -46.5 -276t-130.5 -253.5t-204.5 -217.5t-263.5 -171t-314 -111t-349 -40q-216 0 -398.5 58t-310 160.5t-199 249.5t-71.5 320q0 165 65 325t185.5 294t279.5 236.5t360 160t414 57.5zM1106 -236
q163 0 318.5 36.5t287 100.5t242.5 155.5t188.5 198.5t120.5 231.5t43 252.5q0 166 -69.5 304t-191 230t-286 142.5t-354.5 50.5q-162 0 -318 -37.5t-286.5 -103t-241.5 -158t-187.5 -200t-119.5 -231t-43 -249.5q0 -212 113 -376.5t317.5 -255.5t466.5 -91zM1249 676
q25 24 66.5 66t89 88t137.5 128h84q-33 -33 -56.5 -57t-38.5 -39.5t-76.5 -74.5t-172.5 -164q38 -54 75 -111.5t85.5 -133.5t68.5 -108h-84l-196 301q-46 -46 -128 -126t-177 -175h-84q47 47 109.5 111t116.5 118t130 126q-147 210 -227 333h86q33 -48 88 -129.5t104 -152.5
z" />
    <glyph glyph-name="Y.ss08" 
d="M1419 1546q205 0 383.5 -54.5t312 -154t210.5 -250.5t77 -333q0 -140 -46.5 -276t-130.5 -253.5t-204.5 -217.5t-263.5 -171t-314 -111t-349 -40q-216 0 -398.5 58t-310 160.5t-199 249.5t-71.5 320q0 165 65 325t185.5 294t279.5 236.5t360 160t414 57.5zM1106 -236
q163 0 318.5 36.5t287 100.5t242.5 155.5t188.5 198.5t120.5 231.5t43 252.5q0 166 -69.5 304t-191 230t-286 142.5t-354.5 50.5q-162 0 -318 -37.5t-286.5 -103t-241.5 -158t-187.5 -200t-119.5 -231t-43 -249.5q0 -212 113 -376.5t317.5 -255.5t466.5 -91zM1233 588
q222 246 338 370h80q-23 -25 -100 -113t-294 -319q-8 -44 -22.5 -133.5t-20.5 -122.5h-75q7 47 15.5 95t27.5 161q-16 29 -61 114.5t-175 317.5h84q130 -234 203 -370z" />
    <glyph glyph-name="Z.ss08" horiz-adv-x="2455" 
d="M1419 1546q205 0 383.5 -54.5t312 -154t210.5 -250.5t77 -333q0 -140 -46.5 -276t-130.5 -253.5t-204.5 -217.5t-263.5 -171t-314 -111t-349 -40q-216 0 -398.5 58t-310 160.5t-199 249.5t-71.5 320q0 165 65 325t185.5 294t279.5 236.5t360 160t414 57.5zM1106 -236
q163 0 318.5 36.5t287 100.5t242.5 155.5t188.5 198.5t120.5 231.5t43 252.5q0 166 -69.5 304t-191 230t-286 142.5t-354.5 50.5q-162 0 -318 -37.5t-286.5 -103t-241.5 -158t-187.5 -200t-119.5 -231t-43 -249.5q0 -212 113 -376.5t317.5 -255.5t466.5 -91zM1010 897l10 61
h606l-8 -57q-37 -33 -160.5 -143t-478.5 -424h547l-13 -64h-636l10 60q140 129 358.5 322t278.5 247q-172 -2 -514 -2z" />
    <glyph glyph-name="i.loclTRK" horiz-adv-x="585" 
d="M449 1434q-44 0 -73.5 25t-29.5 63q0 47 41.5 82.5t97.5 35.5q43 0 73 -25.5t30 -60.5q0 -47 -42.5 -83.5t-96.5 -36.5zM256 0h-123l199 1128h123z" />
    <glyph glyph-name="a.ss01" horiz-adv-x="1648" 
d="M643 -35q-241 0 -387.5 136t-146.5 358q0 135 58.5 263.5t157.5 225t238.5 155t292.5 58.5q169 0 300.5 -72t189.5 -208h4l45 247h123l-195 -1128h-125l43 242h-6q-105 -133 -262.5 -205t-329.5 -72zM676 66q125 0 241 50t199 131t132.5 187.5t49.5 216.5
q0 181 -124.5 295.5t-321.5 114.5q-126 0 -240.5 -50t-194 -132t-126.5 -188t-47 -216q0 -183 119.5 -296t312.5 -113z" />
    <glyph glyph-name="aacute.ss01" horiz-adv-x="1648" 
d="M1442 1671l-443 -393h-110l371 393h182zM643 -35q-241 0 -387.5 136t-146.5 358q0 135 58.5 263.5t157.5 225t238.5 155t292.5 58.5q169 0 300.5 -72t189.5 -208h4l45 247h123l-195 -1128h-125l43 242h-6q-105 -133 -262.5 -205t-329.5 -72zM676 66q125 0 241 50t199 131
t132.5 187.5t49.5 216.5q0 181 -124.5 295.5t-321.5 114.5q-126 0 -240.5 -50t-194 -132t-126.5 -188t-47 -216q0 -183 119.5 -296t312.5 -113z" />
    <glyph glyph-name="abreve.ss01" horiz-adv-x="1648" 
d="M950 1278q-204 0 -301.5 110.5t-73.5 284.5h117q-20 -137 57.5 -218t215.5 -81q140 0 246.5 81t138.5 218h118q-39 -174 -178 -284.5t-340 -110.5zM643 -35q-241 0 -387.5 136t-146.5 358q0 135 58.5 263.5t157.5 225t238.5 155t292.5 58.5q169 0 300.5 -72t189.5 -208h4
l45 247h123l-195 -1128h-125l43 242h-6q-105 -133 -262.5 -205t-329.5 -72zM676 66q125 0 241 50t199 131t132.5 187.5t49.5 216.5q0 181 -124.5 295.5t-321.5 114.5q-126 0 -240.5 -50t-194 -132t-126.5 -188t-47 -216q0 -183 119.5 -296t312.5 -113z" />
    <glyph glyph-name="acircumflex.ss01" horiz-adv-x="1648" 
d="M621 1278h-119l420 356h184l293 -356h-119q-23 23 -78.5 76t-105.5 103t-92 97q-102 -82 -383 -276zM643 -35q-241 0 -387.5 136t-146.5 358q0 135 58.5 263.5t157.5 225t238.5 155t292.5 58.5q169 0 300.5 -72t189.5 -208h4l45 247h123l-195 -1128h-125l43 242h-6
q-105 -133 -262.5 -205t-329.5 -72zM676 66q125 0 241 50t199 131t132.5 187.5t49.5 216.5q0 181 -124.5 295.5t-321.5 114.5q-126 0 -240.5 -50t-194 -132t-126.5 -188t-47 -216q0 -183 119.5 -296t312.5 -113z" />
    <glyph glyph-name="adieresis.ss01" horiz-adv-x="1648" 
d="M766 1382q-42 0 -70 24t-28 60q0 43 39 76t90 33q41 0 67.5 -22.5t26.5 -55.5q0 -45 -37.5 -80t-87.5 -35zM1176 1382q-43 0 -70 23.5t-27 58.5q0 46 37.5 78.5t89.5 32.5q40 0 68.5 -23t28.5 -57q0 -44 -39.5 -78.5t-87.5 -34.5zM643 -35q-241 0 -387.5 136t-146.5 358
q0 135 58.5 263.5t157.5 225t238.5 155t292.5 58.5q169 0 300.5 -72t189.5 -208h4l45 247h123l-195 -1128h-125l43 242h-6q-105 -133 -262.5 -205t-329.5 -72zM676 66q125 0 241 50t199 131t132.5 187.5t49.5 216.5q0 181 -124.5 295.5t-321.5 114.5q-126 0 -240.5 -50
t-194 -132t-126.5 -188t-47 -216q0 -183 119.5 -296t312.5 -113z" />
    <glyph glyph-name="agrave.ss01" horiz-adv-x="1648" 
d="M1012 1278h-111l-305 393h184zM643 -35q-241 0 -387.5 136t-146.5 358q0 135 58.5 263.5t157.5 225t238.5 155t292.5 58.5q169 0 300.5 -72t189.5 -208h4l45 247h123l-195 -1128h-125l43 242h-6q-105 -133 -262.5 -205t-329.5 -72zM676 66q125 0 241 50t199 131
t132.5 187.5t49.5 216.5q0 181 -124.5 295.5t-321.5 114.5q-126 0 -240.5 -50t-194 -132t-126.5 -188t-47 -216q0 -183 119.5 -296t312.5 -113z" />
    <glyph glyph-name="amacron.ss01" horiz-adv-x="1648" 
d="M1391 1430h-826l19 98h825zM643 -35q-241 0 -387.5 136t-146.5 358q0 135 58.5 263.5t157.5 225t238.5 155t292.5 58.5q169 0 300.5 -72t189.5 -208h4l45 247h123l-195 -1128h-125l43 242h-6q-105 -133 -262.5 -205t-329.5 -72zM676 66q125 0 241 50t199 131t132.5 187.5
t49.5 216.5q0 181 -124.5 295.5t-321.5 114.5q-126 0 -240.5 -50t-194 -132t-126.5 -188t-47 -216q0 -183 119.5 -296t312.5 -113z" />
    <glyph glyph-name="aogonek.ss01" horiz-adv-x="1648" 
d="M1065 -242q0 -64 55 -100.5t140 -36.5q47 0 106 14l-16 -84q-63 -14 -115 -14q-127 0 -203 54t-76 143q0 151 240 266h2l43 242h-6q-105 -133 -262.5 -205t-329.5 -72q-241 0 -387.5 136t-146.5 358q0 135 58.5 263.5t157.5 225t238.5 155t292.5 58.5q169 0 300.5 -72
t189.5 -208h4l45 247h123l-195 -1128h-8q-250 -103 -250 -242zM676 66q125 0 241 50t199 131t132.5 187.5t49.5 216.5q0 181 -124.5 295.5t-321.5 114.5q-126 0 -240.5 -50t-194 -132t-126.5 -188t-47 -216q0 -183 119.5 -296t312.5 -113z" />
    <glyph glyph-name="aring.ss01" horiz-adv-x="1648" 
d="M944 1245q-101 0 -164 51.5t-63 133.5q0 99 89 172t214 73q101 0 164 -51t63 -133q0 -98 -88.5 -172t-214.5 -74zM958 1331q80 0 135.5 45t55.5 109q0 48 -40.5 76t-102.5 28q-82 0 -136.5 -43t-54.5 -108q0 -50 40 -78.5t103 -28.5zM643 -35q-241 0 -387.5 136
t-146.5 358q0 135 58.5 263.5t157.5 225t238.5 155t292.5 58.5q169 0 300.5 -72t189.5 -208h4l45 247h123l-195 -1128h-125l43 242h-6q-105 -133 -262.5 -205t-329.5 -72zM676 66q125 0 241 50t199 131t132.5 187.5t49.5 216.5q0 181 -124.5 295.5t-321.5 114.5
q-126 0 -240.5 -50t-194 -132t-126.5 -188t-47 -216q0 -183 119.5 -296t312.5 -113z" />
    <glyph glyph-name="atilde.ss01" horiz-adv-x="1648" 
d="M1141 1337q-33 0 -58 5t-51 20t-35 22t-39 31l-38 33q-4 3 -16 12.5t-17 13t-16 10t-19.5 9.5t-21 5.5t-25.5 2.5q-60 0 -104 -41.5t-58 -107.5h-98q22 106 100 171.5t182 65.5q84 0 164 -69l45 -37q67 -58 131 -58q57 0 99.5 42t54.5 108h100q-21 -107 -96 -172.5
t-184 -65.5zM643 -35q-241 0 -387.5 136t-146.5 358q0 135 58.5 263.5t157.5 225t238.5 155t292.5 58.5q169 0 300.5 -72t189.5 -208h4l45 247h123l-195 -1128h-125l43 242h-6q-105 -133 -262.5 -205t-329.5 -72zM676 66q125 0 241 50t199 131t132.5 187.5t49.5 216.5
q0 181 -124.5 295.5t-321.5 114.5q-126 0 -240.5 -50t-194 -132t-126.5 -188t-47 -216q0 -183 119.5 -296t312.5 -113z" />
    <glyph glyph-name="b.ss01" horiz-adv-x="1382" 
d="M682 -35q-146 0 -249.5 52.5t-145.5 150.5h-6l-31 -168h-117l289 1638h123l-178 -1005h4q81 88 203 134t257 46q204 0 327.5 -100t123.5 -264q0 -94 -46 -182t-124.5 -154.5t-191 -107t-238.5 -40.5zM694 59q189 0 325 114.5t136 266.5q0 125 -93 200t-249 75
q-194 0 -331.5 -109.5t-137.5 -257.5q0 -124 98.5 -206.5t251.5 -82.5z" />
    <glyph glyph-name="d.ss01" horiz-adv-x="1642" 
d="M643 -35q-241 0 -387.5 136t-146.5 358q0 135 58.5 263.5t157.5 225t238.5 155t292.5 58.5q167 0 295 -70t188 -204h7l135 751h123l-289 -1638h-119l43 242h-4q-105 -133 -262.5 -205t-329.5 -72zM674 66q124 0 240.5 49.5t200 130t133.5 187t50 216.5q0 186 -126.5 299
t-319.5 113q-125 0 -239 -50t-194 -131t-127.5 -188t-47.5 -219q0 -182 118.5 -294.5t311.5 -112.5z" />
    <glyph glyph-name="dcaron.ss01" horiz-adv-x="1646" 
d="M645 -35q-241 0 -388.5 136t-147.5 358q0 108 37 213t106 192.5t160.5 154.5t207 104.5t238.5 37.5q167 0 295 -70t188 -204h7l133 751h125l-289 -1638h-119l41 242h-4q-104 -132 -261.5 -204.5t-328.5 -72.5zM1657 1194h-86l186 248q-30 9 -46.5 30.5t-16.5 49.5
q0 46 41 81t96 35q42 0 69 -24t27 -62q0 -37 -47.5 -100.5t-222.5 -257.5zM676 66q124 0 240.5 49.5t200 130t133.5 187t50 216.5q0 185 -127.5 298.5t-320.5 113.5q-124 0 -237.5 -50t-193.5 -131t-127.5 -188t-47.5 -219q0 -182 118.5 -294.5t311.5 -112.5z" />
    <glyph glyph-name="dcroat.ss01" horiz-adv-x="1642" 
d="M1569 1436h313l-14 -95h-318l-235 -1341h-119l43 242h-4q-105 -133 -262.5 -205t-329.5 -72q-241 0 -387.5 136t-146.5 358q0 135 58.5 263.5t157.5 225t238.5 155t292.5 58.5q167 0 295 -70t188 -204h7l81 454h-354l17 95h354l37 202h123zM674 66q124 0 240.5 49.5
t200 130t133.5 187t50 216.5q0 186 -126.5 299t-319.5 113q-125 0 -239 -50t-194 -131t-127.5 -188t-47.5 -219q0 -182 118.5 -294.5t311.5 -112.5z" />
    <glyph glyph-name="g.ss01" horiz-adv-x="1642" 
d="M1233 -451h-1213l15 103h1089l113 624h-4q-103 -131 -256 -203.5t-326 -72.5q-242 0 -390 135t-148 354q0 130 59 253t158 215t237.5 148t288.5 56q171 0 299.5 -72.5t187.5 -207.5h5l45 247h118zM678 100q123 0 238.5 48.5t199 126.5t134 181t50.5 208q0 173 -127 285
t-323 112q-122 0 -234.5 -47t-193 -124.5t-128.5 -179.5t-48 -208q0 -177 121 -289.5t311 -112.5z" />
    <glyph glyph-name="gbreve.ss01" horiz-adv-x="1642" 
d="M948 1278q-204 0 -301.5 110.5t-73.5 284.5h117q-20 -137 57.5 -218t215.5 -81q140 0 246.5 81t138.5 218h118q-39 -174 -178 -284.5t-340 -110.5zM1233 -451h-1213l15 103h1089l113 624h-4q-103 -131 -256 -203.5t-326 -72.5q-242 0 -390 135t-148 354q0 130 59 253
t158 215t237.5 148t288.5 56q171 0 299.5 -72.5t187.5 -207.5h5l45 247h118zM678 100q123 0 238.5 48.5t199 126.5t134 181t50.5 208q0 173 -127 285t-323 112q-122 0 -234.5 -47t-193 -124.5t-128.5 -179.5t-48 -208q0 -177 121 -289.5t311 -112.5z" />
    <glyph glyph-name="uni0123.ss01" horiz-adv-x="1642" 
d="M813 1335q0 37 49.5 101.5t218.5 251.5h84l-182 -244q66 -20 66 -80q0 -46 -42 -80.5t-96 -34.5q-41 0 -69.5 24.5t-28.5 61.5zM1233 -451h-1213l15 103h1089l113 624h-4q-103 -131 -256 -203.5t-326 -72.5q-242 0 -390 135t-148 354q0 130 59 253t158 215t237.5 148
t288.5 56q171 0 299.5 -72.5t187.5 -207.5h5l45 247h118zM678 100q123 0 238.5 48.5t199 126.5t134 181t50.5 208q0 173 -127 285t-323 112q-122 0 -234.5 -47t-193 -124.5t-128.5 -179.5t-48 -208q0 -177 121 -289.5t311 -112.5z" />
    <glyph glyph-name="gdotaccent.ss01" horiz-adv-x="1642" 
d="M979 1436q-44 0 -73 25t-29 63q0 47 41.5 82.5t97.5 35.5q43 0 72.5 -25.5t29.5 -60.5q0 -47 -42.5 -83.5t-96.5 -36.5zM1233 -451h-1213l15 103h1089l113 624h-4q-103 -131 -256 -203.5t-326 -72.5q-242 0 -390 135t-148 354q0 130 59 253t158 215t237.5 148t288.5 56
q171 0 299.5 -72.5t187.5 -207.5h5l45 247h118zM678 100q123 0 238.5 48.5t199 126.5t134 181t50.5 208q0 173 -127 285t-323 112q-122 0 -234.5 -47t-193 -124.5t-128.5 -179.5t-48 -208q0 -177 121 -289.5t311 -112.5z" />
    <glyph glyph-name="i.ss01" horiz-adv-x="798" 
d="M571 1434q-45 0 -73.5 25.5t-28.5 62.5q0 47 41.5 82.5t95.5 35.5q43 0 73 -25.5t30 -60.5q0 -47 -42 -83.5t-96 -36.5zM680 0h-426l184 1026h-342l17 102h465l-181 -1026h299z" />
    <glyph glyph-name="dotlessi.ss01" horiz-adv-x="798" 
d="M680 0h-426l184 1026h-342l17 102h465l-181 -1026h299z" />
    <glyph glyph-name="iacute.ss01" horiz-adv-x="798" 
d="M963 1671l-443 -393h-110l370 393h183zM680 0h-426l184 1026h-342l17 102h465l-181 -1026h299z" />
    <glyph glyph-name="icircumflex.ss01" horiz-adv-x="798" 
d="M139 1278h-119l420 356h185l293 -356h-119q-23 23 -78.5 75.5t-106 103t-92.5 97.5q-102 -82 -383 -276zM680 0h-426l184 1026h-342l17 102h465l-181 -1026h299z" />
    <glyph glyph-name="idieresis.ss01" horiz-adv-x="798" 
d="M287 1382q-42 0 -70.5 24.5t-28.5 59.5q0 43 39 76t90 33q41 0 68 -22.5t27 -55.5q0 -45 -37.5 -80t-87.5 -35zM696 1382q-42 0 -69 23t-27 59q0 46 37.5 78.5t89.5 32.5q40 0 68 -23t28 -57q0 -44 -39.5 -78.5t-87.5 -34.5zM680 0h-426l184 1026h-342l17 102h465
l-181 -1026h299z" />
    <glyph glyph-name="i.loclTRK.ss01" horiz-adv-x="798" 
d="M551 1434q-43 0 -72.5 25.5t-29.5 62.5q0 49 41.5 83.5t97.5 34.5q43 0 72.5 -24.5t29.5 -61.5q0 -47 -42 -83.5t-97 -36.5zM680 0h-426l184 1026h-342l17 102h465l-181 -1026h299z" />
    <glyph glyph-name="igrave.ss01" horiz-adv-x="798" 
d="M532 1278h-110l-305 393h184zM680 0h-426l184 1026h-342l17 102h465l-181 -1026h299z" />
    <glyph glyph-name="imacron.ss01" horiz-adv-x="798" 
d="M911 1430h-825l18 98h826zM680 0h-426l184 1026h-342l17 102h465l-181 -1026h299z" />
    <glyph glyph-name="iogonek.ss01" horiz-adv-x="798" 
d="M500 1436q-44 0 -73.5 25t-29.5 63q0 47 42 82.5t98 35.5q43 0 72.5 -25.5t29.5 -60.5q0 -47 -42.5 -83.5t-96.5 -36.5zM680 0h-307q-250 -103 -250 -242q0 -64 54.5 -100.5t139.5 -36.5q47 0 107 14l-16 -84q-63 -14 -115 -14q-127 0 -203 54t-76 143q0 151 240 266
l184 1026h-342l17 102h465l-181 -1026h299z" />
    <glyph glyph-name="j.ss01" horiz-adv-x="712" 
d="M575 1434q-46 0 -75 25t-29 63q0 48 41 83t98 35q41 0 71 -25.5t30 -60.5q0 -46 -41 -83t-95 -37zM303 -451h-625l15 103h502l245 1374h-344l19 102h469z" />
    <glyph glyph-name="l.ss01" horiz-adv-x="880" 
d="M786 0h-645l289 1638h125l-272 -1536h520z" />
    <glyph glyph-name="lacute.ss01" horiz-adv-x="880" 
d="M1128 2079l-464 -318h-115l377 318h202zM786 0h-645l289 1638h125l-272 -1536h520z" />
    <glyph glyph-name="lcaron.ss01" horiz-adv-x="880" 
d="M786 0h-645l289 1638h125l-272 -1536h520zM829 1190h-86l187 246q-30 9 -47 30.5t-17 49.5q0 46 41.5 81t96.5 35q42 0 69 -24t27 -62q0 -37 -47.5 -99.5t-223.5 -256.5z" />
    <glyph glyph-name="uni013C.ss01" horiz-adv-x="880" 
d="M786 0h-645l289 1638h125l-272 -1536h520zM207 -498h-64l144 187q-86 17 -86 80q0 45 39.5 78.5t93.5 33.5q42 0 71 -23t29 -59q0 -38 -37.5 -86.5t-151.5 -170.5q-8 -8 -12.5 -13t-12 -12.5t-13.5 -14.5z" />
    <glyph glyph-name="lslash.ss01" horiz-adv-x="880" 
d="M426 915l-143 -813h520l-17 -102h-645l148 840l-279 -152l19 100l278 154l123 696h125l-111 -620l256 141l-14 -102z" />
    <glyph glyph-name="m.ss01" horiz-adv-x="2502" 
d="M256 0h-123l199 1128h123l-93 -522l883 522h170l-92 -522l881 522h172l-199 -1128h-125l184 1024h-14l-919 -539l-86 -485h-125l184 1024h-14l-920 -539z" />
    <glyph glyph-name="n.ss01" horiz-adv-x="1568" 
d="M360 594l914 534h166l-199 -1128h-123l182 1020h-14l-944 -537l-86 -483h-123l90 514l109 614h123z" />
    <glyph glyph-name="nacute.ss01" horiz-adv-x="1568" 
d="M1221 1671h182l-442 -393h-111zM360 594l914 534h166l-199 -1128h-123l182 1020h-14l-944 -537l-86 -483h-123l90 514l109 614h123z" />
    <glyph glyph-name="ncaron.ss01" horiz-adv-x="1568" 
d="M1421 1636l-420 -356h-184l-291 356h117q21 -20 77 -72.5t78.5 -74t59 -59t66.5 -70.5q112 89 379 276h118zM360 594l914 534h166l-199 -1128h-123l182 1020h-14l-944 -537l-86 -483h-123l90 514l109 614h123z" />
    <glyph glyph-name="uni0146.ss01" horiz-adv-x="1568" 
d="M360 594l914 534h166l-199 -1128h-123l182 1020h-14l-944 -537l-86 -483h-123l90 514l109 614h123zM694 -119q42 0 71.5 -23t29.5 -59q0 -37 -35.5 -83t-148.5 -167q-28 -30 -44 -47h-63l143 187q-86 17 -86 80q0 45 39.5 78.5t93.5 33.5z" />
    <glyph glyph-name="eng.ss01" horiz-adv-x="1570" 
d="M791 -483q-151 0 -242 57l16 109q107 -68 223 -68q73 0 130 28t88.5 60.5t57 96.5t33 95t19.5 96q1 6 2 9l182 1020h-14l-944 -537l-86 -483h-123l199 1128h123l-95 -528l914 528h166l-201 -1142q-13 -71 -23 -114t-42.5 -119t-75.5 -120.5t-123 -80t-184 -35.5z" />
    </font>
</defs>
</svg>
