<?xml version="1.0" standalone="no"?>
<!DOCTYPE svg PUBLIC "-//W3C//DTD SVG 1.1//EN" "http://www.w3.org/Graphics/SVG/1.1/DTD/svg11.dtd" >
<svg xmlns="http://www.w3.org/2000/svg" xmlns:xlink="http://www.w3.org/1999/xlink" version="1.1">
<metadata>
Created by FontForge 20170731 at Mon Mar 15 14:21:16 2021
 By Aleksey,,,
Copyright (c) 2020 by Matthieu Salvaggio x Blaze Type. All rights reserved.
</metadata>
<defs>
<font id="Area-HairlineExtended" horiz-adv-x="2457" >
  <font-face 
    font-family="Area Hairline Extended"
    font-weight="50"
    font-stretch="normal"
    units-per-em="2048"
    panose-1="0 0 1 0 0 0 0 0 0 0"
    ascent="1638"
    descent="-410"
    x-height="1126"
    cap-height="1597"
    bbox="-1964 -485 3160 2138"
    underline-thickness="102"
    underline-position="-307"
    unicode-range="U+0020-25CA"
  />
<missing-glyph horiz-adv-x="1765" 
d="M1516 0h-1266v1597h1266v-1597zM367 1507v-1378l983 1378h-983zM1399 1415l-940 -1319h940v1319z" />
    <glyph glyph-name=".notdef" horiz-adv-x="1765" 
d="M1516 0h-1266v1597h1266v-1597zM367 1507v-1378l983 1378h-983zM1399 1415l-940 -1319h940v1319z" />
    <glyph glyph-name=".null" horiz-adv-x="0" 
 />
    <glyph glyph-name="nonmarkingreturn" horiz-adv-x="682" 
 />
    <glyph glyph-name="space" unicode=" " horiz-adv-x="665" 
 />
    <glyph glyph-name="exclam" unicode="!" horiz-adv-x="610" 
d="M340 358h-68l-36 1158v81h139v-81zM307 -14q-46 0 -78 28t-32 68q0 38 32 65t78 27q44 0 75.5 -27t31.5 -65q0 -40 -31.5 -68t-75.5 -28z" />
    <glyph glyph-name="quotedbl" unicode="&#x22;" horiz-adv-x="739" 
d="M295 1188h-115v409h115v-409zM559 1188h-115v409h115v-409z" />
    <glyph glyph-name="numbersign" unicode="#" horiz-adv-x="1619" 
d="M1520 1067l-19 -80h-291l-98 -416h291l-19 -79h-290l-117 -492h-100l116 492h-512l-116 -492h-101l117 492h-283l19 79h282l99 416h-283l21 80h282l125 530h100l-125 -530h512l125 530h101l-125 -530h289zM500 571h512l98 416h-512z" />
    <glyph glyph-name="dollar" unicode="$" horiz-adv-x="1382" 
d="M1225 481q0 -152 -130.5 -253t-353.5 -105v-205h-96v209q-175 14 -308.5 97.5t-199.5 244.5l94 35q113 -258 414 -291v545q-53 11 -101 25t-115.5 44t-115 67.5t-82 97.5t-34.5 132q0 77 39.5 141t105 104t143.5 63t160 26v180h96v-184q160 -18 288.5 -100t170.5 -205
l-92 -39q-43 101 -138 171t-229 87v-534q58 -13 95.5 -22.5t93.5 -27.5t92.5 -35.5t78.5 -45t66.5 -58t41 -73t16.5 -91.5zM303 1126q0 -187 342 -272v518q-145 -5 -243.5 -70.5t-98.5 -175.5zM741 739v-530q52 1 103 10t102 28.5t89.5 48t62.5 73t24 98.5q0 52 -23 94
t-57 69t-88.5 49.5t-101 34.5t-111.5 25z" />
    <glyph glyph-name="percent" unicode="%" horiz-adv-x="1918" 
d="M408 811q-135 0 -220.5 98.5t-85.5 253.5q0 157 85.5 257t220.5 100q134 0 219.5 -100.5t85.5 -256.5q0 -154 -85 -253t-220 -99zM344 0h-104l1366 1468h96zM408 883q94 0 151 76.5t57 203.5q0 128 -57 205.5t-151 77.5t-151.5 -78t-57.5 -205t57.5 -203.5t151.5 -76.5z
M1511 -29q-135 0 -220 99t-85 254q0 157 85 256.5t220 99.5t220.5 -100t85.5 -256q0 -154 -85.5 -253.5t-220.5 -99.5zM1511 43q94 0 151.5 77t57.5 204t-57.5 204.5t-151.5 77.5t-151 -77.5t-57 -204.5t57 -204t151 -77z" />
    <glyph glyph-name="ampersand" unicode="&#x26;" horiz-adv-x="1642" 
d="M657 -35q-138 0 -256.5 44.5t-195 135t-76.5 209.5q0 50 15 97.5t37.5 85t61 76.5t73 66.5t87.5 60t90 53t93 49.5q-54 48 -86.5 78t-82.5 84t-78.5 97.5t-50.5 99.5t-22 108q0 139 126.5 230t307.5 91q188 0 308 -100t120 -238q0 -68 -32.5 -135.5t-89.5 -126.5
t-124 -108t-147 -93l471 -413q86 150 140 354l100 -20q-81 -258 -170 -400l393 -348h-125l-313 270q-224 -307 -574 -307zM670 891q50 30 81.5 49.5t71.5 47t64 49t50.5 50.5t40.5 57t23 62.5t9 71.5q0 125 -88.5 193.5t-227.5 68.5q-132 0 -221.5 -61.5t-89.5 -171.5
q0 -54 22.5 -108t68 -109.5t87.5 -97.5t109 -101zM657 55q304 0 504 283l-502 436q-182 -97 -250 -147q-154 -113 -162 -249q-1 -9 -1 -18q0 -93 58 -164t150.5 -106t202.5 -35z" />
    <glyph glyph-name="quotesingle" unicode="'" horiz-adv-x="475" 
d="M295 1188h-115v409h115v-409z" />
    <glyph glyph-name="parenleft" unicode="(" horiz-adv-x="700" 
d="M657 -307h-110q-201 198 -307.5 445t-106.5 507q0 262 106 507.5t308 444.5h110q-194 -194 -298.5 -441.5t-104.5 -510.5q0 -260 103 -507.5t300 -444.5z" />
    <glyph glyph-name="parenright" unicode=")" horiz-adv-x="700" 
d="M154 -307h-111q196 196 299.5 445t103.5 507q0 259 -103 507t-300 445h111q203 -200 308 -447t105 -505q0 -257 -105 -504.5t-308 -447.5z" />
    <glyph glyph-name="asterisk" unicode="*" horiz-adv-x="1028" 
d="M559 1024h-90v217l-231 -108l-45 67l227 111l-227 110l45 68l231 -109v217h90v-217l232 109l45 -68l-228 -110l228 -111l-45 -67l-232 108v-217z" />
    <glyph glyph-name="plus" unicode="+" horiz-adv-x="1183" 
d="M645 672h363v-94h-363v-312h-108v312h-361v94h361v311h108v-311z" />
    <glyph glyph-name="comma" unicode="," horiz-adv-x="507" 
d="M168 -252h-78l139 244q-36 9 -55.5 33.5t-19.5 56.5q0 38 32 65t78 27q44 0 76.5 -27t32.5 -65q0 -33 -37.5 -93t-167.5 -241z" />
    <glyph glyph-name="hyphen" unicode="-" horiz-adv-x="915" 
d="M770 582h-625v84h625v-84z" />
    <glyph glyph-name="period" unicode="." horiz-adv-x="548" 
d="M276 -14q-46 0 -78 28t-32 68q0 38 32 65t78 27q44 0 75.5 -27t31.5 -65q0 -40 -31.5 -68t-75.5 -28z" />
    <glyph glyph-name="slash" unicode="/" horiz-adv-x="983" 
d="M209 -135h-107l668 1773h109z" />
    <glyph glyph-name="zero" unicode="0" horiz-adv-x="1726" 
d="M864 -35q-154 0 -285.5 61.5t-224 170t-144.5 263t-52 335.5q0 182 52 337.5t144.5 265t224 171t285.5 61.5q205 0 365.5 -105.5t250 -296t89.5 -433.5q0 -242 -89.5 -431t-250 -294t-365.5 -105zM866 59q171 0 302.5 93t203.5 260.5t72 382.5q0 328 -160 534.5
t-418 206.5q-172 0 -305.5 -93.5t-206.5 -262t-73 -385.5q0 -216 73 -383.5t206.5 -260t305.5 -92.5z" />
    <glyph glyph-name="one" unicode="1" horiz-adv-x="927" 
d="M645 0h-115v1352q-147 -181 -467 -213v90q211 26 343.5 129t132.5 239h106v-1597z" />
    <glyph glyph-name="two" unicode="2" horiz-adv-x="1507" 
d="M1380 0h-1226v4q12 86 34.5 154.5t57 123.5t76.5 99t101.5 86.5t122 81t146.5 87.5q77 44 119 69q49 29 81.5 50t88 60.5t93 77.5t76 86.5t58 104t19.5 112.5q0 151 -129 247.5t-336 96.5q-232 0 -378 -125.5t-146 -324.5l-101 16q0 230 172.5 377t452.5 147
q255 0 417 -122.5t162 -317.5q0 -82 -30.5 -156t-89 -137.5t-121 -112.5t-150.5 -104q-69 -44 -163.5 -98.5t-149.5 -86.5t-121 -78.5t-105 -88t-73.5 -101t-52.5 -131.5h1095v-96z" />
    <glyph glyph-name="three" unicode="3" horiz-adv-x="1550" 
d="M772 -35q-234 0 -410.5 99.5t-238.5 265.5l94 43q60 -145 212.5 -231.5t348.5 -86.5q217 0 358.5 103t141.5 268q0 159 -140 256.5t-413 97.5h-190v86h215q226 0 348.5 96.5t122.5 241.5q0 154 -133 245t-340 91q-192 0 -325.5 -87.5t-162.5 -242.5l-100 17
q22 124 107 216.5t212.5 139.5t280.5 47q156 0 286 -48t210.5 -143t80.5 -220q0 -137 -93.5 -245.5t-246.5 -148.5v-2q177 -28 287.5 -128.5t110.5 -258.5q0 -97 -44 -182.5t-123.5 -149.5t-197.5 -101.5t-258 -37.5z" />
    <glyph glyph-name="four" unicode="4" horiz-adv-x="1574" 
d="M1184 0h-115v410h-1001v112l1001 1075h115v-1091h295v-96h-295v-410zM1069 1458l-881 -952h881v952z" />
    <glyph glyph-name="five" unicode="5" horiz-adv-x="1540" 
d="M758 -35q-152 0 -287.5 43t-238 126.5t-148.5 195.5l96 43q68 -146 227 -232t353 -86q147 0 269 55t194.5 156.5t72.5 229.5q0 185 -145 304.5t-365 119.5q-157 0 -287.5 -62.5t-203.5 -165.5l-90 43l221 862h883v-90h-807l-174 -680h4q56 73 185 125t284 52
q169 0 308.5 -62.5t222.5 -179t83 -264.5q0 -152 -88 -275t-238 -190.5t-331 -67.5z" />
    <glyph glyph-name="six" unicode="6" horiz-adv-x="1615" 
d="M838 -35q-309 0 -495.5 202t-186.5 550q0 200 65 370.5t178.5 289.5t273 186t343.5 67q230 0 401 -104l-82 -72q-144 86 -340 86q-154 0 -288 -57t-234 -162t-157.5 -264.5t-57.5 -354.5h6q52 144 222 237t370 93q123 0 237 -39t201.5 -107.5t140 -169t52.5 -216.5
q0 -152 -87 -275.5t-235 -191.5t-327 -68zM840 55q143 0 264 56.5t193.5 160t72.5 232.5q0 128 -71 230.5t-191.5 158t-265.5 55.5q-228 0 -380.5 -132t-152.5 -318q0 -123 71.5 -225.5t193.5 -160t266 -57.5z" />
    <glyph glyph-name="seven" unicode="7" horiz-adv-x="1439" 
d="M489 0h-112q0 211 123.5 504.5t332 576.5t437.5 453h-1229v96h1352v-106q-236 -181 -446 -457t-334 -564t-124 -503z" />
    <glyph glyph-name="eight" unicode="8" horiz-adv-x="1589" 
d="M797 -35q-184 0 -332 59.5t-230.5 164t-82.5 233.5q0 151 103 262t282 154v4q-152 52 -235 147t-83 217q0 178 164 301t416 123q163 0 294 -54.5t204 -148.5t73 -208q0 -121 -83.5 -223.5t-233.5 -153.5v-4q179 -43 282 -154t103 -262q0 -130 -83.5 -235t-230.5 -163.5
t-327 -58.5zM797 872q197 0 328.5 98.5t131.5 248.5q0 144 -131 235.5t-329 91.5q-201 0 -333 -91.5t-132 -235.5q0 -151 132 -249t333 -98zM797 51q145 0 263 47t187.5 134.5t69.5 199.5q0 165 -134 264t-386 99q-255 0 -390 -99t-135 -264q0 -169 150 -275t375 -106z" />
    <glyph glyph-name="nine" unicode="9" horiz-adv-x="1650" 
d="M758 -35q-157 0 -311 59t-283 187l86 61q217 -217 493 -217q129 0 234.5 42.5t179.5 118t124 180t73.5 227.5t23.5 262h-4q-52 -163 -219 -263t-373 -100q-171 0 -315 71t-229.5 199t-85.5 285q0 238 189 395.5t478 157.5q105 0 199 -22.5t181.5 -77.5t150.5 -139
t101 -214.5t38 -295.5q0 -145 -27.5 -278t-86 -249.5t-143 -202.5t-206.5 -136t-268 -50zM786 606q115 0 216.5 39.5t173 107t112.5 158.5t41 191q0 134 -72.5 236t-190 154t-259.5 52q-149 0 -271.5 -57.5t-195 -165.5t-72.5 -246q0 -201 147 -335t371 -134z" />
    <glyph glyph-name="colon" unicode=":" horiz-adv-x="589" 
d="M297 971q-46 0 -78.5 28t-32.5 68q0 38 32.5 65t78.5 27q44 0 75 -27t31 -65q0 -40 -31 -68t-75 -28zM297 -14q-46 0 -78.5 28t-32.5 68q0 38 32.5 65t78.5 27q44 0 75 -27t31 -65q0 -40 -31 -68t-75 -28z" />
    <glyph glyph-name="semicolon" unicode=";" horiz-adv-x="690" 
d="M360 971q-46 0 -78 28t-32 68q0 38 32 65t78 27q44 0 76.5 -27t32.5 -65q0 -40 -32.5 -68t-76.5 -28zM264 -252h-78l140 244q-36 9 -56 33.5t-20 56.5q0 38 32 65t78 27q44 0 76.5 -27t32.5 -65q0 -32 -31.5 -83t-140.5 -205q-22 -30 -33 -46z" />
    <glyph glyph-name="less" unicode="&#x3c;" horiz-adv-x="1226" 
d="M1016 426v-94l-834 246v94l834 246v-95l-694 -198z" />
    <glyph glyph-name="equal" unicode="=" horiz-adv-x="1226" 
d="M1028 782h-831v95h831v-95zM1028 373h-831v94h831v-94z" />
    <glyph glyph-name="greater" unicode="&#x3e;" horiz-adv-x="1226" 
d="M1042 578l-831 -246v94l692 199l-692 198v95l831 -246v-94z" />
    <glyph glyph-name="question" unicode="?" horiz-adv-x="1247" 
d="M578 358h-99q-14 60 -14 115q0 39 7.5 72.5t27.5 65t38.5 54.5t57 54t66 51t81.5 57q140 95 213.5 189.5t73.5 204.5q0 99 -59.5 174t-152.5 112t-202 37q-107 0 -201 -38.5t-156 -118t-62 -185.5q0 -34 6 -72l-99 17q-8 36 -8 72q0 123 74.5 218t193 144t257.5 49
q136 0 253.5 -46.5t193 -140.5t75.5 -216q0 -73 -29 -140.5t-83.5 -127.5t-110 -105.5t-132.5 -97.5q-49 -33 -75.5 -52t-59.5 -49t-49 -55t-27.5 -60t-11.5 -75q0 -54 13 -107zM555 -14q-46 0 -78.5 28t-32.5 68q0 38 32.5 65t78.5 27q43 0 75 -27t32 -65q0 -39 -32 -67.5
t-75 -28.5z" />
    <glyph glyph-name="at" unicode="@" horiz-adv-x="2369" 
d="M1081 -195q-217 0 -399 63t-303.5 172t-188.5 254t-67 308q0 196 96.5 383.5t259.5 329.5t392 228.5t479 86.5q263 0 474.5 -93t335.5 -268t124 -401q0 -179 -76 -330t-205 -238t-279 -87q-136 0 -199.5 70t-39.5 176q-89 -110 -219 -168t-258 -58q-176 0 -290 111.5
t-114 276.5q0 144 86.5 278t228.5 215.5t295 81.5q131 0 232.5 -59.5t148.5 -167.5l39 200h95l-132 -616q-4 -22 -6.5 -37t-5 -44.5t0.5 -50.5t12.5 -47t26 -42t46.5 -27.5t70 -11.5q111 0 208 72.5t156.5 202t59.5 282.5q0 149 -58.5 277t-163.5 220t-258.5 144.5
t-336.5 52.5q-222 0 -427.5 -77.5t-353.5 -205.5t-236.5 -300.5t-88.5 -356.5q0 -150 60 -279.5t169 -224.5t271.5 -149.5t359.5 -54.5q189 0 363.5 48t301.5 134l60 -72q-156 -99 -352 -150t-394 -51zM1038 317q137 0 251.5 72t177.5 184.5t63 235.5q0 137 -82.5 220
t-233.5 83q-104 0 -196.5 -41t-156.5 -108.5t-101 -155.5t-37 -180q0 -139 81.5 -224.5t233.5 -85.5z" />
    <glyph glyph-name="A" unicode="A" horiz-adv-x="1789" 
d="M166 0h-121l793 1597h114l793 -1597h-119q-206 408 -301 600h-864q-52 -106 -120.5 -245t-112 -227.5t-62.5 -127.5zM504 690h778q-270 547 -383 797h-6q-34 -71 -173.5 -355.5t-215.5 -441.5z" />
    <glyph glyph-name="B" unicode="B" horiz-adv-x="1751" 
d="M1038 0h-762v1597h650q146 0 265 -35t195 -93.5t117 -132.5t41 -156q0 -58 -21 -113.5t-62.5 -106t-112 -89.5t-160.5 -58v-4q109 -15 192.5 -55t131 -94t71 -113.5t23.5 -122.5q0 -83 -40 -159.5t-112 -135.5t-180.5 -94t-235.5 -35zM391 848h539q233 0 364 92t131 231
q0 148 -145.5 242t-376.5 94h-512v-659zM391 90h600q234 0 365 92.5t131 233.5q0 148 -141.5 245t-378.5 97h-576v-668z" />
    <glyph glyph-name="C" unicode="C" horiz-adv-x="2072" 
d="M1102 -35q-209 0 -388 61.5t-305 170t-197 262t-71 332.5q0 182 73.5 339.5t201 266.5t302.5 171t374 62q131 0 256.5 -27t239 -80.5t202 -143.5t133.5 -205l-98 -37q-61 128 -175.5 219t-256 135.5t-299.5 44.5q-165 0 -314.5 -51t-264.5 -144t-183 -235.5t-68 -314.5
q0 -142 47.5 -263t129.5 -206.5t191.5 -145.5t233.5 -88.5t256 -28.5q161 0 296.5 42t229.5 114.5t157.5 161.5t97.5 192l100 -32q-34 -94 -87 -176.5t-132.5 -156t-177.5 -126t-227 -83t-277 -30.5z" />
    <glyph glyph-name="D" unicode="D" horiz-adv-x="1984" 
d="M952 0h-676v1597h654q187 0 339.5 -40.5t257 -112t176 -171.5t104 -216t32.5 -248q0 -178 -61 -327t-173 -256t-280 -166.5t-373 -59.5zM391 90h588q174 0 314 52t233.5 145.5t143.5 223.5t50 286q0 158 -51 287.5t-150.5 224t-255.5 146.5t-356 52h-516v-1417z" />
    <glyph glyph-name="E" unicode="E" horiz-adv-x="1624" 
d="M1491 0h-1215v1597h1190v-90h-1075v-639h1026v-90h-1026v-682h1100v-96z" />
    <glyph glyph-name="F" unicode="F" horiz-adv-x="1527" 
d="M1442 1597v-98h-1051v-641h1002v-90h-1002v-768h-115v1597h1166z" />
    <glyph glyph-name="G" unicode="G" horiz-adv-x="2166" 
d="M1094 -35q-274 0 -491.5 105t-339.5 294t-122 427q0 182 73.5 339.5t201 266.5t302.5 171t374 62q131 0 256.5 -27t239 -80.5t202 -143.5t133.5 -205l-98 -37q-61 128 -175.5 219t-256 135.5t-299.5 44.5q-165 0 -314.5 -51t-264.5 -144t-183 -235.5t-68 -314.5
q0 -142 47 -262.5t127.5 -206t188.5 -145.5t230 -89t251 -29q218 0 390.5 82t269 221.5t108.5 313.5h-717v90h832v-766h-101v395h-12q-97 -204 -298 -317t-486 -113z" />
    <glyph glyph-name="H" unicode="H" horiz-adv-x="1984" 
d="M1593 854v743h115v-1597h-115v764h-1202v-764h-115v1597h115v-743h1202z" />
    <glyph glyph-name="I" unicode="I" horiz-adv-x="667" 
d="M391 0h-115v1597h115v-1597z" />
    <glyph glyph-name="J" unicode="J" horiz-adv-x="1406" 
d="M641 -35q-58 0 -114 7.5t-113 25t-106.5 44t-93 67t-74 91.5t-48.5 120.5t-18 150.5v41l100 12v-32q0 -99 29.5 -177t76 -126t109.5 -79t124 -43t126 -12t119.5 13t93 32.5t69.5 52t50.5 62t33.5 73.5t20.5 74.5t10 76.5t4 68.5t0.5 61.5v1028h113v-991q0 -47 -0.5 -75
t-5 -84.5t-13 -95t-26.5 -93t-42.5 -92t-64 -78.5t-89 -65.5t-119 -41t-152.5 -16.5z" />
    <glyph glyph-name="K" unicode="K" horiz-adv-x="1601" 
d="M391 0h-115v1597h115v-903h4q97 90 195 178.5t220 196t187 165t220 193t196 170.5h139q-154 -135 -435.5 -384.5t-358.5 -317.5q141 -150 422.5 -447.5t421.5 -447.5h-140q-98 101 -144 148.5t-74.5 77.5t-175 182.5t-396.5 410.5q-151 -135 -281 -248v-571z" />
    <glyph glyph-name="L" unicode="L" horiz-adv-x="1456" 
d="M391 1597v-1501h1026v-96h-1141v1597h115z" />
    <glyph glyph-name="M" unicode="M" horiz-adv-x="2465" 
d="M391 0h-115v1597h136q471 -833 819 -1476h4q503 896 819 1476h135v-1597h-114v1395h-11q-171 -320 -768 -1395h-129q-72 130 -245 441t-287 519t-236 435h-8v-1395z" />
    <glyph glyph-name="N" unicode="N" horiz-adv-x="2033" 
d="M391 0h-115v1597h130q916 -1073 1232 -1454h7v1454h112v-1597h-129q-139 162 -386 448t-456 529t-393 461h-2v-1438z" />
    <glyph glyph-name="O" unicode="O" horiz-adv-x="2197" 
d="M1098 -35q-194 0 -370 63.5t-305.5 172.5t-206.5 264.5t-77 331.5q0 175 76 330.5t205.5 265.5t306.5 173.5t373 63.5q199 0 377 -65.5t305.5 -177t201.5 -265.5t74 -325q0 -230 -128.5 -421.5t-349 -301t-482.5 -109.5zM1102 59q164 0 315 56t264.5 152t181.5 234.5
t68 295.5t-68 296t-181.5 235.5t-264.5 152t-315 55.5q-166 0 -319.5 -55.5t-268 -152t-183.5 -235.5t-69 -296t69 -295.5t183.5 -234.5t268 -152t319.5 -56z" />
    <glyph glyph-name="P" unicode="P" horiz-adv-x="1634" 
d="M276 1597h652q150 0 268.5 -35.5t194 -98.5t114.5 -146.5t39 -181.5q0 -214 -155.5 -347t-413.5 -133h-584v-655h-115v1597zM391 745h539q239 0 367 100.5t128 278.5q0 176 -140 279.5t-380 103.5h-514v-762z" />
    <glyph glyph-name="Q" unicode="Q" horiz-adv-x="2195" 
d="M1974 -117l-78 -59q-45 45 -137 135t-137 135q-239 -129 -524 -129q-194 0 -370 63.5t-305.5 172.5t-206.5 264.5t-77 331.5q0 175 76 330.5t205.5 265.5t306.5 173.5t373 63.5q198 0 376 -65.5t305 -177t201 -265.5t74 -325q0 -195 -93 -363t-259 -284q52 -50 144 -142
t126 -125zM1102 59q239 0 448 113q-217 210 -405 395l78 60q69 -66 203.5 -199.5t203.5 -200.5q140 103 220.5 250t80.5 320q0 157 -68 296t-182 235.5t-265 152t-314 55.5q-166 0 -319.5 -55.5t-268 -152t-183.5 -235.5t-69 -296t69 -295.5t183.5 -234.5t268 -152
t319.5 -56z" />
    <glyph glyph-name="R" unicode="R" horiz-adv-x="1695" 
d="M391 0h-115v1597h652q150 0 268.5 -35.5t194 -98.5t114.5 -146.5t39 -181.5q0 -203 -141.5 -334t-374.5 -144v-2q87 -109 263 -327t263 -328h-124l-531 655h-508v-655zM391 745h539q239 0 367 100.5t128 278.5q0 176 -140 279.5t-380 103.5h-514v-762z" />
    <glyph glyph-name="S" unicode="S" horiz-adv-x="1576" 
d="M813 -35q-67 0 -133.5 9.5t-137 30.5t-135 58t-122 87t-104 122t-75.5 160l105 35q62 -193 226.5 -300.5t379.5 -107.5q71 0 141 11.5t137 38.5t117.5 65.5t81.5 97.5t31 131q0 52 -15 94t-46 72.5t-64 52.5t-84 40t-88.5 29t-94.5 25q-30 7 -44 11l-180 47
q-52 14 -86.5 24t-96 32t-103 44t-92.5 58t-81.5 75t-52 93.5t-21.5 116.5q0 83 35.5 152t95 116.5t138.5 81t164.5 48.5t174.5 15q142 0 264 -40.5t218 -129t141 -215.5l-100 -37q-56 150 -200.5 239t-342.5 89q-197 0 -334 -85.5t-137 -225.5q0 -37 11 -71t27.5 -60.5
t44 -51.5t52 -43t60.5 -36t61 -28.5t62 -22.5t54.5 -17t46.5 -13q8 -2 11 -3l182 -50q186 -50 231 -65q214 -74 280 -199q34 -64 34 -145q0 -103 -54 -190.5t-143.5 -144.5t-203.5 -88.5t-236 -31.5z" />
    <glyph glyph-name="T" unicode="T" horiz-adv-x="1554" 
d="M834 0h-113v1507h-682v90h1477v-90h-682v-1507z" />
    <glyph glyph-name="U" unicode="U" horiz-adv-x="1853" 
d="M920 -35q-117 0 -216 21t-183.5 67.5t-143.5 116t-92 170t-33 225.5v1032h115v-1028q0 -137 41 -238t117 -160.5t175.5 -87.5t225.5 -28q127 0 227 28t176 87.5t117 160.5t41 238v1028h115v-1032q0 -280 -177.5 -440t-504.5 -160z" />
    <glyph glyph-name="V" unicode="V" horiz-adv-x="1789" 
d="M952 0h-114l-793 1597h121q229 -447 731 -1486h6q108 223 350 720.5t371 765.5h121z" />
    <glyph glyph-name="W" unicode="W" horiz-adv-x="2777" 
d="M825 0h-131l-641 1597h115q357 -853 594 -1472h4q67 176 261 684.5t298 787.5h125q94 -246 283.5 -736t283.5 -736h6q358 925 586 1472h115l-641 -1597h-133q-228 567 -559 1466h-5q-368 -997 -561 -1466z" />
    <glyph glyph-name="X" unicode="X" horiz-adv-x="1568" 
d="M168 0h-127q82 98 315.5 382.5t364.5 438.5v4q-497 578 -660 772h127q422 -493 594 -696h6q252 306 592 696h127q-183 -217 -659 -772v-4q134 -156 371.5 -445.5t308.5 -375.5h-125q-88 106 -294 357.5t-321 390.5h-6q-119 -148 -339.5 -415t-274.5 -333z" />
    <glyph glyph-name="Y" unicode="Y" horiz-adv-x="1681" 
d="M897 0h-113v596q-121 167 -363.5 500.5t-363.5 500.5h125l658 -909h4q64 88 183 251t478 658h121l-729 -1001v-596z" />
    <glyph glyph-name="Z" unicode="Z" horiz-adv-x="1605" 
d="M1530 0h-1458v102q526 568 1300 1401v4h-1249v90h1386v-96q-1210 -1302 -1302 -1401v-4h1323v-96z" />
    <glyph glyph-name="bracketleft" unicode="[" horiz-adv-x="741" 
d="M682 -307h-432v1904h432v-84h-326v-1736h326v-84z" />
    <glyph glyph-name="backslash" unicode="\" horiz-adv-x="983" 
d="M881 -135h-109l-668 1773h107z" />
    <glyph glyph-name="bracketright" unicode="]" horiz-adv-x="741" 
d="M492 -307h-433v84h326v1736h-326v84h433v-1904z" />
    <glyph glyph-name="asciicircum" unicode="^" horiz-adv-x="1017" 
d="M272 1065h-116l293 532h118l295 -532h-117l-233 440h-6z" />
    <glyph glyph-name="underscore" unicode="_" horiz-adv-x="1210" 
d="M1178 -217h-1145v84h1145v-84z" />
    <glyph glyph-name="a" unicode="a" horiz-adv-x="1400" 
d="M547 -35q-117 0 -210 30.5t-151.5 95.5t-58.5 157q0 63 27.5 114.5t73 88t113 65.5t137 47.5t155.5 32.5q32 5 84.5 13t82.5 12.5t72.5 13.5t67 17.5t53 22.5t43.5 31t25 41t10 54q0 109 -109 191.5t-276 82.5q-149 0 -254.5 -69.5t-146.5 -184.5l-109 33
q37 101 122.5 172t186 102t209.5 31q86 0 168.5 -20.5t157 -61.5t120.5 -115.5t46 -170.5v-439q0 -131 10 -204.5t33 -147.5h-109q-37 115 -37 260h-6q-71 -134 -204 -214.5t-326 -80.5zM549 47q116 0 217.5 41.5t166 104t101.5 133.5t37 133v172q-58 -42 -119.5 -61.5
t-218.5 -43.5q-54 -8 -83.5 -13t-89 -18t-96 -25.5t-84 -34.5t-74.5 -46.5t-46.5 -60t-19.5 -76.5q0 -93 85 -149t224 -56z" />
    <glyph glyph-name="b" unicode="b" horiz-adv-x="1648" 
d="M891 -35q-174 0 -319.5 74.5t-229.5 212.5h-4v-252h-102v1638h106v-768q85 142 230.5 215.5t318.5 73.5q176 0 320.5 -75t228.5 -212t84 -309q0 -173 -83.5 -310t-227.5 -212.5t-322 -75.5zM883 49q227 0 375.5 146t148.5 368q0 146 -68.5 263.5t-188.5 183t-267 65.5
q-145 0 -268.5 -64t-198 -183t-74.5 -267t74.5 -266.5t197.5 -182t269 -63.5z" />
    <glyph glyph-name="c" unicode="c" horiz-adv-x="1492" 
d="M786 -35q-293 0 -477 166t-184 430q0 265 185.5 431.5t480.5 166.5q87 0 167.5 -16.5t157 -52t139.5 -97t103 -145.5l-107 -33q-54 121 -178.5 190.5t-290.5 69.5q-245 0 -392.5 -145t-147.5 -369q0 -229 153.5 -370.5t399.5 -141.5q195 0 329.5 88.5t202.5 231.5l96 -27
q-80 -183 -249.5 -280t-387.5 -97z" />
    <glyph glyph-name="d" unicode="d" horiz-adv-x="1646" 
d="M756 -35q-178 0 -322 75.5t-227.5 212t-83.5 308.5q0 173 84.5 310.5t229.5 212.5t323 75q168 0 310.5 -71.5t227.5 -208.5h7v759h106v-1286q0 -129 10 -204t33 -148h-108q-37 121 -37 252h-6q-82 -138 -227.5 -212.5t-319.5 -74.5zM762 49q146 0 270 64t198.5 183
t74.5 267t-74.5 266.5t-198.5 182t-270 63.5q-226 0 -374 -146.5t-148 -367.5t149.5 -366.5t372.5 -145.5z" />
    <glyph glyph-name="e" unicode="e" horiz-adv-x="1525" 
d="M780 -35q-187 0 -336 74.5t-234 211t-85 310.5q0 173 84.5 310t234 212.5t338.5 75.5q53 0 105.5 -6t114 -23t115 -43t104.5 -69.5t87.5 -99.5t58.5 -136t22 -176v-55h-1147q0 -225 151.5 -363.5t392.5 -138.5q191 0 327.5 90t203.5 230l94 -27q-78 -181 -247 -279
t-384 -98zM246 645h1024q0 93 -30 168t-78.5 123t-114 80t-132.5 45.5t-137 13.5q-214 0 -357.5 -118.5t-174.5 -311.5z" />
    <glyph glyph-name="f" unicode="f" horiz-adv-x="821" 
d="M385 0h-106v1047h-205v79h205v162v8q0 75 2.5 113t19 97.5t48.5 89.5t96.5 53.5t158.5 23.5q157 0 260 -59v-94q-119 69 -252 69q-34 0 -61.5 -3t-49 -11.5t-38.5 -16.5t-29 -23.5t-20.5 -27.5t-14 -34.5t-8.5 -37t-4 -43t-1.5 -45t-0.5 -49.5v-172h422v-79h-422v-1047z
" />
    <glyph glyph-name="g" unicode="g" horiz-adv-x="1644" 
d="M801 -483q-227 0 -377 79.5t-223 251.5l100 29q50 -129 174.5 -202.5t329.5 -73.5q77 0 144.5 13.5t134 49.5t113.5 93t76.5 150.5t29.5 215.5v164h-7q-82 -138 -226 -212.5t-318 -74.5q-132 0 -248.5 44.5t-200.5 122t-133 186t-49 231.5q0 166 84.5 298t229.5 204.5
t321 72.5q170 0 316 -73.5t231 -215.5h4v256h102v-979q0 -630 -608 -630zM760 84q146 0 270 64.5t198.5 180.5t74.5 257t-74.5 254t-198.5 174t-270 61q-224 0 -373 -141.5t-149 -349.5q0 -211 150.5 -355.5t371.5 -144.5z" />
    <glyph glyph-name="h" unicode="h" horiz-adv-x="1550" 
d="M342 0h-106v1638h106v-743h6q76 134 201.5 199t286.5 65q75 0 143 -13t135 -46t115 -83t78 -130t30 -182v-705h-106v664q0 93 -24.5 166t-64 118t-94 74.5t-110 41t-117.5 11.5q-92 0 -171.5 -26.5t-134.5 -70t-95 -100t-59 -116.5t-19 -119v-643z" />
    <glyph glyph-name="i" unicode="i" horiz-adv-x="577" 
d="M289 1446q-47 0 -80 28.5t-33 69.5q0 38 33 66t80 28q46 0 78 -28t32 -66q0 -41 -32 -69.5t-78 -28.5zM342 0h-106v1126h106v-1126z" />
    <glyph glyph-name="j" unicode="j" horiz-adv-x="575" 
d="M287 1446q-47 0 -80 28.5t-33 69.5q0 38 33 66t80 28q46 0 78 -28t32 -66q0 -41 -32 -69.5t-78 -28.5zM-18 -483q-146 0 -252 59v94q120 -69 237 -69q43 0 79 9.5t62 24t46.5 39.5t33 47.5t22 56.5t14 58t6.5 61t2.5 56t0.5 53v1120h109v-1140q0 -38 -0.5 -59.5
t-3.5 -64.5t-9 -70.5t-18.5 -67t-30 -65.5t-45 -55.5t-62.5 -46.5t-84 -28.5t-107 -11.5z" />
    <glyph glyph-name="k" unicode="k" horiz-adv-x="1241" 
d="M643 690l610 -690h-120l-566 623l-225 -191v-432h-106v1638h106v-1089h6l674 577h135z" />
    <glyph glyph-name="l" unicode="l" horiz-adv-x="577" 
d="M342 0h-106v1638h106v-1638z" />
    <glyph glyph-name="m" unicode="m" horiz-adv-x="2496" 
d="M342 0h-106v1126h102v-231h4q78 135 206 199.5t283 64.5q72 0 140 -15t133.5 -47t115 -92.5t72.5 -142.5h4q170 297 504 297q71 0 136.5 -13t130 -46t111.5 -83t76.5 -130t29.5 -182v-705h-107v664q0 93 -24 166t-63 118t-92 74.5t-106.5 41t-111.5 11.5q-108 0 -199 -40
t-148 -103.5t-88.5 -138.5t-31.5 -150v-643h-107v664q0 93 -24 166t-63 118t-92 74.5t-106.5 41t-111.5 11.5q-108 0 -199 -40t-148 -103.5t-88.5 -138.5t-31.5 -150v-643z" />
    <glyph glyph-name="n" unicode="n" horiz-adv-x="1550" 
d="M342 0h-106v1126h102v-231h4q78 135 207 199.5t289 64.5q76 0 144 -13t134 -46t114 -83t77.5 -130t29.5 -182v-705h-106v664q0 93 -24.5 166t-64 118t-94 74.5t-110 41t-117.5 11.5q-92 0 -171.5 -26t-134.5 -69.5t-95 -100t-59 -116.5t-19 -120v-643z" />
    <glyph glyph-name="o" unicode="o" horiz-adv-x="1587" 
d="M795 -35q-295 0 -482.5 167t-187.5 429q0 174 85 310.5t238 212t347 75.5q145 0 269 -44t211.5 -122.5t137 -190t49.5 -241.5q0 -262 -187 -429t-480 -167zM795 49q245 0 398 143t153 369q0 227 -153 370.5t-398 143.5q-244 0 -398.5 -144t-154.5 -370t154.5 -369
t398.5 -143z" />
    <glyph glyph-name="p" unicode="p" horiz-adv-x="1648" 
d="M342 -451h-106v1577h102v-256h4q85 143 231.5 216t317.5 73q176 0 320.5 -75t228.5 -212t84 -309q0 -173 -83.5 -310t-227.5 -212.5t-322 -75.5q-174 0 -319.5 74.5t-229.5 212.5v-703zM883 49q227 0 375.5 146t148.5 368q0 146 -68.5 263.5t-188.5 183t-267 65.5
q-145 0 -268.5 -64t-198 -183t-74.5 -267t74.5 -266.5t197.5 -182t269 -63.5z" />
    <glyph glyph-name="q" unicode="q" horiz-adv-x="1646" 
d="M1411 -451h-106v703q-81 -136 -227 -211.5t-322 -75.5q-178 0 -322 75.5t-227.5 212t-83.5 308.5q0 173 84.5 310.5t229 212.5t321.5 75q170 0 316 -73.5t231 -215.5h4v256h102v-1577zM762 49q146 0 269.5 64t197.5 182.5t74 267.5t-74 267t-197.5 181.5t-269.5 63.5
q-226 0 -374 -146.5t-148 -367.5t149.5 -366.5t372.5 -145.5z" />
    <glyph glyph-name="r" unicode="r" horiz-adv-x="989" 
d="M342 0h-106v1126h102v-249h10q51 128 176.5 205t278.5 77q95 0 162 -22v-101q-73 29 -168 29q-134 0 -240 -70t-160.5 -179t-54.5 -234v-582z" />
    <glyph glyph-name="s" unicode="s" horiz-adv-x="1202" 
d="M637 -35q-189 0 -339.5 87.5t-207.5 228.5l100 28q54 -113 181 -186.5t268 -73.5q40 0 83.5 7t92 24t86 42.5t62 67.5t24.5 93q0 31 -10.5 57t-25.5 45t-41.5 36t-50 28t-60 22.5t-61.5 17.5t-64 15l-127 28q-148 35 -223 75q-169 91 -170 249q0 77 40.5 137.5t105 95
t136.5 52.5t144 18q161 0 290.5 -77.5t176.5 -194.5l-107 -33q-40 93 -140.5 157t-238.5 64q-129 0 -213 -57t-84 -152q0 -46 23 -84.5t55 -63t83 -46.5t88 -33t89 -23l137 -32q31 -8 41.5 -10.5t44 -11.5t49 -15.5t46.5 -18t47.5 -23t41 -28t38 -34.5t27.5 -40t20 -48.5
t6 -55.5q0 -139 -132 -236.5t-331 -97.5z" />
    <glyph glyph-name="t" unicode="t" horiz-adv-x="888" 
d="M588 -35q-47 0 -86 8.5t-67 21.5t-50 35.5t-36.5 42.5t-24.5 51t-14.5 52.5t-7 55.5t-3 51.5t-0.5 48.5v712h-270v82h270v340h107v-340h430v-82h-430v-692v-46t2 -45.5t5 -47t9.5 -42t16 -40.5t24.5 -32.5t34 -27t45 -16t58 -6.5q114 0 236 70v-94q-108 -60 -248 -60z
" />
    <glyph glyph-name="u" unicode="u" horiz-adv-x="1527" 
d="M698 -35q-70 0 -135 13t-130 46t-112.5 83t-77.5 130.5t-30 182.5v706h106v-665q0 -115 36.5 -199t97.5 -128.5t128 -64.5t142 -20q108 0 198 40t146 103.5t86.5 138.5t30.5 150v645h106v-774q0 -122 10 -197t35 -155h-110q-37 121 -37 229h-4q-79 -136 -205.5 -200
t-280.5 -64z" />
    <glyph glyph-name="v" unicode="v" horiz-adv-x="1304" 
d="M702 0h-100l-555 1126h117q82 -169 243.5 -505.5t243.5 -505.5h6l484 1011h116z" />
    <glyph glyph-name="w" unicode="w" horiz-adv-x="2209" 
d="M659 0h-100l-506 1126h115l442 -993h6l431 993h118l445 -993h6l426 993h115l-504 -1126h-101q-293 652 -444 1026h-6q-166 -415 -443 -1026z" />
    <glyph glyph-name="x" unicode="x" horiz-adv-x="1220" 
d="M164 0h-117q426 482 498 565v4q-465 518 -500 557h123l440 -489h4q73 82 219.5 244.5t219.5 244.5h125l-502 -557v-4q343 -388 497 -565h-114q-59 67 -211.5 239t-233.5 265h-4q-55 -63 -208.5 -236t-235.5 -268z" />
    <glyph glyph-name="y" unicode="y" horiz-adv-x="1302" 
d="M479 -451h-88l213 445l-557 1132h117q95 -191 263.5 -544t223.5 -467h4q50 104 220 462.5t264 548.5h116z" />
    <glyph glyph-name="z" unicode="z" horiz-adv-x="1161" 
d="M1102 0h-1034v66l831 974h-778v86h923v-65l-835 -975h893v-86z" />
    <glyph glyph-name="braceleft" unicode="{" horiz-adv-x="851" 
d="M803 -307h-78q-112 0 -195 20.5t-136 56.5t-85 93t-44.5 122t-12.5 152v168q0 61 -4 106t-8.5 76t-16.5 51t-21 30.5t-29.5 15.5t-33 5.5t-41.5 0.5v110q29 0 41.5 0.5t33 5.5t29.5 15.5t21 30.5t16.5 51t8.5 76t4 106v168q0 48 2 81t12 83.5t27.5 85t52.5 74t84 64
t124.5 40.5t170.5 16h78v-84h-78q-196 0 -281.5 -74.5t-85.5 -228.5v-219q0 -124 -18.5 -198t-45.5 -102.5t-73 -43.5v-4q46 -15 73 -43.5t45.5 -102.5t18.5 -198v-219q0 -47 6 -84t28.5 -80t60.5 -71.5t107.5 -48t164.5 -19.5h78v-84z" />
    <glyph glyph-name="bar" unicode="|" horiz-adv-x="616" 
d="M367 -451h-117v2089h117v-2089z" />
    <glyph glyph-name="braceright" unicode="}" horiz-adv-x="851" 
d="M125 -307h-76v84h78q194 0 279.5 74.5t85.5 228.5v219q0 120 17.5 193t45.5 104t76 47v4q-48 16 -76 47t-45.5 104t-17.5 193v219q0 52 -8 93t-31.5 81.5t-63 67.5t-106 44t-156.5 17h-78v84h76q140 0 234.5 -30t146.5 -90.5t73 -137.5t21 -186v-168q0 -61 4 -106
t8.5 -76t16.5 -51t21 -30.5t29.5 -15.5t33 -5.5t41.5 -0.5v-110q-29 0 -41.5 -0.5t-33 -5.5t-29.5 -15.5t-21 -30.5t-16.5 -51t-8.5 -76t-4 -106v-168q0 -52 -3.5 -94t-16 -89.5t-33 -83.5t-56 -71t-85 -57t-121 -35.5t-160.5 -13.5z" />
    <glyph glyph-name="asciitilde" unicode="~" horiz-adv-x="1249" 
d="M809 598q-51 0 -94.5 15t-74 36t-59 42.5t-63 36.5t-72.5 15q-67 0 -101 -41t-34 -104h-106q0 113 78 172t184 59q50 0 92.5 -15t73 -36t58.5 -42.5t61 -36.5t69 -15q62 0 92.5 40.5t30.5 104.5h107q0 -115 -68.5 -173t-173.5 -58z" />
    <glyph glyph-name="uni00A0" unicode="&#xa0;" horiz-adv-x="665" 
 />
    <glyph glyph-name="exclamdown" unicode="&#xa1;" horiz-adv-x="569" 
d="M287 971q-46 0 -78.5 27t-32.5 65q0 40 32.5 68t78.5 28q44 0 75 -28t31 -68q0 -38 -31 -65t-75 -27zM354 -451h-139v80l37 1157h67l35 -1157v-80z" />
    <glyph glyph-name="cent" unicode="&#xa2;" horiz-adv-x="1370" 
d="M1155 569l84 -24q-63 -144 -192.5 -222.5t-298.5 -86.5v-236h-97v238q-216 20 -347.5 153.5t-131.5 333.5q0 201 132 335t347 154v252h97v-249q92 -4 171.5 -29t151.5 -83t113 -144l-90 -29q-40 91 -131.5 146.5t-214.5 62.5v-832q149 7 250.5 77.5t156.5 182.5zM272 725
q0 -167 104 -279.5t275 -132.5v828q-173 -20 -276 -135t-103 -281z" />
    <glyph glyph-name="sterling" unicode="&#xa3;" horiz-adv-x="1419" 
d="M319 98h1000v-98h-1202v98q229 79 362 201t133 260q0 91 -65 189h-379v94h307q-17 20 -56.5 65.5t-59.5 69.5t-50.5 67t-46 76t-27.5 77t-12 87q0 108 65.5 188t173.5 119t243 39q65 0 126.5 -9.5t131 -35t125.5 -66t104.5 -108.5t73.5 -156l-99 -36q-32 88 -84 152.5
t-115.5 100t-129.5 52t-138 16.5q-150 0 -254 -67.5t-104 -188.5q0 -59 29.5 -121t64 -104.5t93.5 -109.5t89 -107h529v-94h-467q45 -88 45 -173q0 -139 -107.5 -265.5t-298.5 -211.5z" />
    <glyph glyph-name="currency" unicode="&#xa4;" horiz-adv-x="1617" 
d="M1257 819q0 -161 -108 -266l332 -330l-80 -61l-334 332q-111 -62 -256 -62q-146 0 -260 62l-334 -332l-80 61l334 332q-109 106 -109 264q0 157 107 264l-332 332l80 62l334 -330q113 61 260 61t260 -61l330 330l80 -62l-330 -330q106 -106 106 -266zM471 819
q0 -135 93 -221t247 -86t246 85.5t92 221.5q0 137 -91.5 223t-246.5 86q-154 0 -247 -86.5t-93 -222.5z" />
    <glyph glyph-name="yen" unicode="&#xa5;" horiz-adv-x="1730" 
d="M922 0h-115v287h-447v94h447v213h-447v94h381l-661 909h125q98 -135 207.5 -286.5t243 -336.5t206.5 -286h6q20 27 662 909h121l-664 -909h387v-94h-452v-213h452v-94h-452v-287z" />
    <glyph glyph-name="brokenbar" unicode="&#xa6;" horiz-adv-x="616" 
d="M367 840h-117v798h117v-798zM367 -451h-117v791h117v-791z" />
    <glyph glyph-name="section" unicode="&#xa7;" horiz-adv-x="1298" 
d="M666 -301q-197 0 -349.5 97.5t-207.5 248.5l100 27q54 -120 183.5 -204.5t275.5 -84.5q40 0 82 6.5t87.5 23.5t80.5 42t58 66t23 91q0 41 -18 74t-37.5 52t-69.5 39.5t-76.5 28.5t-96.5 26q-2 1 -3 1l-123 33q-28 8 -41.5 11.5t-48.5 15t-56.5 21t-55 26.5t-55.5 33.5
t-47.5 41t-40.5 50t-25 59t-10 70.5q0 102 69 171t178 101v4q-223 99 -223 273q0 78 39.5 138.5t105 95t140.5 52t155 17.5q73 0 138.5 -14.5t129.5 -47.5t114.5 -95t78.5 -148l-110 -29q-46 131 -131 190.5t-232 59.5q-141 0 -229 -56t-88 -153q0 -26 7.5 -49t18 -41.5
t31.5 -36t36.5 -29.5t45 -25.5t46 -20.5t51 -18t47 -14.5t46.5 -13.5l156 -43q38 -10 59 -16.5t60.5 -21t63 -27.5t54 -35t48 -46t29.5 -57.5t12 -72.5q0 -97 -68 -179t-180 -122v-4q225 -83 225 -252q0 -137 -129.5 -233.5t-322.5 -96.5zM635 352l70 -18q53 3 104.5 16.5
t101.5 39t80.5 71t30.5 104.5q0 41 -18 73.5t-39 52t-68.5 39t-74 27.5t-88.5 24q-7 2 -11 3l-105 27q-84 21 -157.5 -6t-113.5 -83t-40 -120q0 -44 22.5 -81.5t54 -62t79.5 -47t85.5 -34.5t86.5 -25z" />
    <glyph glyph-name="copyright" unicode="&#xa9;" horiz-adv-x="2338" 
d="M1169 -35q-220 0 -408.5 65.5t-317 178.5t-201 265.5t-72.5 324.5q0 171 72.5 323.5t201 264.5t317 177.5t408.5 65.5t408.5 -65.5t317.5 -177.5t201.5 -264.5t72.5 -323.5q0 -172 -72.5 -324.5t-201.5 -265.5t-317.5 -178.5t-408.5 -65.5zM1169 68q195 0 361.5 57.5
t279.5 156.5t176.5 233t63.5 284t-63.5 283.5t-176.5 232.5t-279.5 157t-361.5 58t-361 -58t-278.5 -157t-175.5 -232.5t-63 -283.5t63 -284t175.5 -233t278.5 -156.5t361 -57.5zM1176 350q-221 0 -359.5 124.5t-138.5 322.5q0 200 139 325t361 125q157 0 272.5 -65
t165.5 -187l-113 -32q-37 94 -123 145t-206 51q-165 0 -270 -101.5t-105 -260.5t106 -258t277 -99q131 0 229.5 61t149.5 175l100 -27q-55 -141 -184 -220t-301 -79z" />
    <glyph glyph-name="guillemotleft" unicode="&#xab;" horiz-adv-x="1298" 
d="M690 164h-135l-416 405v9l416 405h135l-416 -405v-9zM1126 164h-133l-418 405v9l418 405h133l-415 -405v-9z" />
    <glyph glyph-name="logicalnot" unicode="&#xac;" horiz-adv-x="1232" 
d="M1030 281h-108v301h-723v94h831v-395z" />
    <glyph glyph-name="registered" unicode="&#xae;" horiz-adv-x="1413" 
d="M705 743q-230 0 -382.5 127.5t-152.5 319.5q0 126 69.5 228t191.5 159t274 57q230 0 382 -126.5t152 -317.5q0 -192 -152 -319.5t-382 -127.5zM705 815q195 0 322.5 106t127.5 269q0 162 -127.5 268.5t-322.5 106.5q-197 0 -325 -106t-128 -269q0 -164 128 -269.5
t325 -105.5zM604 946h-82v494h211q92 0 146.5 -42t54.5 -110q0 -54 -36 -95t-97 -54l157 -193h-98l-149 184h-107v-184zM604 1372v-174h129q56 0 85.5 22.5t29.5 65.5q0 41 -33 63.5t-90 22.5h-121z" />
    <glyph glyph-name="degree" unicode="&#xb0;" horiz-adv-x="952" 
d="M475 1057q-152 0 -250 84.5t-98 212.5q0 126 99 210.5t249 84.5t250 -85t100 -210q0 -126 -100 -211.5t-250 -85.5zM475 1133q107 0 177.5 63t70.5 158q0 93 -70.5 156t-177.5 63q-104 0 -176 -63.5t-72 -155.5q0 -94 71 -157.5t177 -63.5z" />
    <glyph glyph-name="plusminus" unicode="&#xb1;" horiz-adv-x="1226" 
d="M1028 762v-90h-360v-215h360v-84h-829v84h360v215h-360v90h360v252h109v-252h360z" />
    <glyph glyph-name="uni00B2" unicode="&#xb2;" horiz-adv-x="735" 
d="M637 825h-533v6q11 112 64 166t197 137q8 5 12 7q32 19 55.5 35t50 40t40.5 51.5t14 57.5q0 53 -46.5 88t-119.5 35q-87 0 -142 -48t-55 -126l-82 12q0 102 78 168t199 66q112 0 186 -55t74 -142q0 -68 -43 -116.5t-119 -94.5q-22 -14 -64.5 -37.5t-65 -38t-51 -36.5
t-45 -46.5t-24.5 -54.5h420v-74z" />
    <glyph glyph-name="uni00B3" unicode="&#xb3;" horiz-adv-x="749" 
d="M369 811q-103 0 -182 43t-105 113l78 32q24 -55 78.5 -87.5t130.5 -32.5q79 0 131.5 37t52.5 98q0 58 -52.5 93.5t-148.5 35.5h-82v61h90q80 0 126 34.5t46 88.5q0 56 -50 89.5t-124 33.5q-70 0 -120 -34t-60 -93l-80 14q13 82 89.5 132.5t179.5 50.5q106 0 181 -50
t75 -129q0 -54 -36.5 -99t-101.5 -62q71 -12 116.5 -56t45.5 -108q0 -84 -76.5 -144.5t-201.5 -60.5z" />
    <glyph glyph-name="paragraph" unicode="&#xb6;" horiz-adv-x="1687" 
d="M1092 -287h-115v942h-315q-254 0 -412 133.5t-158 346.5q0 201 163 331.5t454 130.5h383v-1884zM1391 -287h-115v1884h115v-1884z" />
    <glyph glyph-name="periodcentered" unicode="&#xb7;" horiz-adv-x="638" 
d="M322 477q-57 0 -96.5 34.5t-39.5 84.5q0 46 39.5 79.5t96.5 33.5q54 0 92.5 -33.5t38.5 -79.5q0 -49 -38.5 -84t-92.5 -35z" />
    <glyph glyph-name="uni00B9" unicode="&#xb9;" horiz-adv-x="505" 
d="M332 825h-88v531q-65 -69 -183 -84v76q82 15 134.5 59t52.5 98h84v-680z" />
    <glyph glyph-name="guillemotright" unicode="&#xbb;" horiz-adv-x="1298" 
d="M307 164h-135l416 405v9l-416 405h135l416 -405v-9zM743 164h-135l418 405v9l-418 405h135l416 -405v-9z" />
    <glyph glyph-name="onequarter" unicode="&#xbc;" horiz-adv-x="1495" 
d="M332 825h-88v531q-65 -69 -183 -84v76q82 15 134.5 59t52.5 98h84v-680zM35 0h-105l1366 1468h97zM1296 -14h-88v161h-411v72l411 447h88v-451h117v-68h-117v-161zM1208 559l-319 -344h319v344z" />
    <glyph glyph-name="onehalf" unicode="&#xbd;" horiz-adv-x="1529" 
d="M332 825h-88v531q-65 -69 -183 -84v76q82 15 134.5 59t52.5 98h84v-680zM35 0h-105l1366 1468h97zM1432 -14h-533v6q6 60 22.5 101.5t52.5 75.5t74.5 59t109.5 66q9 4 13 7q32 19 55.5 35t50 40t40.5 51.5t14 57.5q0 53 -46.5 88t-119.5 35q-87 0 -141.5 -48t-54.5 -126
l-82 12q0 102 77.5 168t198.5 66q112 0 186 -55t74 -142q0 -68 -42.5 -116.5t-118.5 -94.5q-22 -14 -64.5 -37.5t-65 -38t-51 -36.5t-45 -46.5t-24.5 -54.5h420v-73z" />
    <glyph glyph-name="threequarters" unicode="&#xbe;" horiz-adv-x="1738" 
d="M369 811q-103 0 -182 43t-105 113l78 32q24 -55 78.5 -87.5t130.5 -32.5q79 0 131.5 37t52.5 98q0 58 -52.5 93.5t-148.5 35.5h-82v61h90q80 0 126 34.5t46 88.5q0 56 -50 89.5t-124 33.5q-70 0 -120 -34t-60 -93l-80 14q13 82 89.5 132.5t179.5 50.5q106 0 181 -50
t75 -129q0 -54 -36.5 -99t-101.5 -62q71 -12 116.5 -56t45.5 -108q0 -84 -76.5 -144.5t-201.5 -60.5zM279 0h-105l1366 1468h96zM1540 -14h-88v161h-412v72l412 447h88v-451h117v-68h-117v-161zM1452 559l-319 -344h319v344z" />
    <glyph glyph-name="questiondown" unicode="&#xbf;" horiz-adv-x="1224" 
d="M682 971q-44 0 -76.5 27t-32.5 65q0 40 32.5 68t76.5 28q46 0 78.5 -28t32.5 -68q0 -38 -32.5 -65t-78.5 -27zM614 -485q-100 0 -193.5 28t-167 78t-117.5 127.5t-44 169.5q0 73 28.5 141t82 127.5t110.5 106t133 96.5q45 30 66.5 45t54.5 41.5t47 45.5t31 48.5t21 59
t3.5 69.5t-10.5 88h99q9 -41 11.5 -77t2 -65t-11.5 -58t-19.5 -49t-32.5 -46t-39.5 -41.5t-51.5 -43t-57.5 -42.5t-67.5 -47q-140 -96 -213.5 -189.5t-73.5 -203.5q0 -99 59.5 -174t152 -112t201.5 -37q88 0 169 27.5t143 78t91 131t11 176.5l101 -16q15 -86 -5.5 -163
t-68.5 -134.5t-117 -100t-153.5 -64t-174.5 -21.5z" />
    <glyph glyph-name="Agrave" unicode="&#xc0;" horiz-adv-x="1789" 
d="M979 1720h-100l-412 314h188zM166 0h-121l793 1597h114l793 -1597h-119q-206 408 -301 600h-864q-52 -106 -120.5 -245t-112 -227.5t-62.5 -127.5zM504 690h778q-270 547 -383 797h-6q-34 -71 -173.5 -355.5t-215.5 -441.5z" />
    <glyph glyph-name="Aacute" unicode="&#xc1;" horiz-adv-x="1789" 
d="M1323 2034l-412 -314h-100l324 314h188zM166 0h-121l793 1597h114l793 -1597h-119q-206 408 -301 600h-864q-52 -106 -120.5 -245t-112 -227.5t-62.5 -127.5zM504 690h778q-270 547 -383 797h-6q-34 -71 -173.5 -355.5t-215.5 -441.5z" />
    <glyph glyph-name="Acircumflex" unicode="&#xc2;" horiz-adv-x="1789" 
d="M977 2013l313 -293h-100q-178 134 -295 234q-130 -108 -297 -234h-100l313 293h166zM166 0h-121l793 1597h114l793 -1597h-119q-206 408 -301 600h-864q-52 -106 -120.5 -245t-112 -227.5t-62.5 -127.5zM504 690h778q-270 547 -383 797h-6q-34 -71 -173.5 -355.5
t-215.5 -441.5z" />
    <glyph glyph-name="Atilde" unicode="&#xc3;" horiz-adv-x="1789" 
d="M1079 1753q-23 0 -42.5 2t-37 8t-29.5 10t-28 14t-22.5 14.5t-24 17.5t-21.5 16l-40 31q-26 19 -40.5 28.5t-38 18t-48.5 8.5q-60 0 -100 -44t-40 -110h-86q1 101 67 165.5t167 64.5q37 0 71 -11.5t54 -24.5t51 -36l49 -37q79 -61 147 -61q61 0 96.5 43.5t35.5 111.5h88
q0 -103 -61 -166t-167 -63zM166 0h-121l793 1597h114l793 -1597h-119q-206 408 -301 600h-864q-52 -106 -120.5 -245t-112 -227.5t-62.5 -127.5zM504 690h778q-270 547 -383 797h-6q-34 -71 -173.5 -355.5t-215.5 -441.5z" />
    <glyph glyph-name="Adieresis" unicode="&#xc4;" horiz-adv-x="1789" 
d="M670 1800q-43 0 -74 27t-31 65q0 35 31 61.5t74 26.5q44 0 74 -26t30 -62q0 -38 -30 -65t-74 -27zM1120 1800q-45 0 -75.5 26.5t-30.5 65.5q0 36 30.5 62t75.5 26q41 0 72 -26.5t31 -61.5q0 -38 -30.5 -65t-72.5 -27zM166 0h-121l793 1597h114l793 -1597h-119
q-206 408 -301 600h-864q-52 -106 -120.5 -245t-112 -227.5t-62.5 -127.5zM504 690h778q-270 547 -383 797h-6q-34 -71 -173.5 -355.5t-215.5 -441.5z" />
    <glyph glyph-name="Aring" unicode="&#xc5;" horiz-adv-x="1789" 
d="M895 1716q-113 0 -186.5 60t-73.5 153q0 91 73.5 150t186.5 59q109 0 182.5 -59.5t73.5 -149.5q0 -93 -73 -153t-183 -60zM895 1794q72 0 120 36.5t48 98.5q0 60 -48.5 95.5t-119.5 35.5q-74 0 -123 -35.5t-49 -95.5q0 -63 49 -99t123 -36zM166 0h-121l793 1597h114
l793 -1597h-119q-206 408 -301 600h-864q-52 -106 -120.5 -245t-112 -227.5t-62.5 -127.5zM504 690h778q-270 547 -383 797h-6q-34 -71 -173.5 -355.5t-215.5 -441.5z" />
    <glyph glyph-name="AE" unicode="&#xc6;" horiz-adv-x="2510" 
d="M78 0h-121l1147 1597h1249v-90h-1075v-639h1026v-90h-1026v-682h1100v-96h-1215v600h-653q-372 -516 -432 -600zM571 690h592v817h-4z" />
    <glyph glyph-name="Ccedilla" unicode="&#xc7;" horiz-adv-x="2072" 
d="M1102 -35h-8l-115 -137q42 20 113 20q94 0 154.5 -43t60.5 -112q0 -77 -72.5 -126.5t-181.5 -49.5q-81 0 -159.5 29t-131.5 77l55 43q38 -40 102 -65t128 -25q73 0 123.5 32t50.5 81q0 45 -45 74.5t-113 29.5q-66 0 -119 -24l-55 47l121 153q-256 17 -453.5 125.5
t-306.5 289.5t-109 407q0 182 73.5 339.5t201 266.5t302.5 171t374 62q131 0 256.5 -27t239 -80.5t202 -143.5t133.5 -205l-98 -37q-61 128 -175.5 219t-256 135.5t-299.5 44.5q-165 0 -314.5 -51t-264.5 -144t-183 -235.5t-68 -314.5q0 -142 47.5 -263t129.5 -206.5
t191.5 -145.5t233.5 -88.5t256 -28.5q161 0 296.5 42t229.5 114.5t157.5 161.5t97.5 192l100 -32q-34 -94 -87 -176.5t-132.5 -156t-177.5 -126t-227 -83t-277 -30.5z" />
    <glyph glyph-name="Egrave" unicode="&#xc8;" horiz-adv-x="1624" 
d="M909 1720h-100l-412 314h189zM1491 0h-1215v1597h1190v-90h-1075v-639h1026v-90h-1026v-682h1100v-96z" />
    <glyph glyph-name="Eacute" unicode="&#xc9;" horiz-adv-x="1624" 
d="M1253 2034l-411 -314h-101l324 314h188zM1491 0h-1215v1597h1190v-90h-1075v-639h1026v-90h-1026v-682h1100v-96z" />
    <glyph glyph-name="Ecircumflex" unicode="&#xca;" horiz-adv-x="1624" 
d="M907 2013l314 -293h-101q-178 134 -295 234q-130 -108 -297 -234h-100l313 293h166zM1491 0h-1215v1597h1190v-90h-1075v-639h1026v-90h-1026v-682h1100v-96z" />
    <glyph glyph-name="Edieresis" unicode="&#xcb;" horiz-adv-x="1624" 
d="M600 1800q-43 0 -73.5 27t-30.5 65q0 35 30.5 61.5t73.5 26.5q44 0 74.5 -26t30.5 -62q0 -38 -30.5 -65t-74.5 -27zM1051 1800q-45 0 -76 26.5t-31 65.5q0 36 31 62t76 26q41 0 71.5 -26.5t30.5 -61.5q0 -38 -30 -65t-72 -27zM1491 0h-1215v1597h1190v-90h-1075v-639
h1026v-90h-1026v-682h1100v-96z" />
    <glyph glyph-name="Igrave" unicode="&#xcc;" horiz-adv-x="667" 
d="M420 1720h-101l-411 314h188zM391 0h-115v1597h115v-1597z" />
    <glyph glyph-name="Iacute" unicode="&#xcd;" horiz-adv-x="667" 
d="M764 2034l-412 -314h-100l323 314h189zM391 0h-115v1597h115v-1597z" />
    <glyph glyph-name="Icircumflex" unicode="&#xce;" horiz-adv-x="667" 
d="M418 2013l313 -293h-100q-178 134 -295 234q-130 -108 -297 -234h-100l313 293h166zM391 0h-115v1597h115v-1597z" />
    <glyph glyph-name="Idieresis" unicode="&#xcf;" horiz-adv-x="667" 
d="M111 1800q-43 0 -74 27t-31 65q0 35 31 61.5t74 26.5q44 0 74 -26t30 -62q0 -38 -30 -65t-74 -27zM561 1800q-45 0 -75.5 26.5t-30.5 65.5q0 36 30.5 62t75.5 26q41 0 72 -26.5t31 -61.5q0 -38 -30.5 -65t-72.5 -27zM391 0h-115v1597h115v-1597z" />
    <glyph glyph-name="Eth" unicode="&#xd0;" horiz-adv-x="1984" 
d="M276 1597h654q187 0 339.5 -40.5t257 -112t176 -171.5t104 -216t32.5 -248q0 -178 -61 -327t-173 -256t-280 -166.5t-373 -59.5h-676v756h-192v84h192v757zM979 90q174 0 314 52t233.5 145.5t143.5 223.5t50 286q0 158 -51 287.5t-150.5 224t-255.5 146.5t-356 52h-516
v-667h715v-84h-715v-666h588z" />
    <glyph glyph-name="Ntilde" unicode="&#xd1;" horiz-adv-x="2033" 
d="M1178 1815q-23 0 -42.5 2t-37.5 8t-29 9t-28 14t-22.5 14.5t-24 17.5t-21.5 16l-41 31q-26 19 -40.5 28.5t-38 18t-48.5 8.5q-60 0 -99.5 -43.5t-39.5 -109.5h-86q1 101 66.5 165t166.5 64q53 0 91.5 -18t84.5 -53l49 -37q80 -62 148 -62q61 0 96 44t35 112h88
q0 -103 -60.5 -166t-166.5 -63zM391 0h-115v1597h130q916 -1073 1232 -1454h7v1454h112v-1597h-129q-139 162 -386 448t-456 529t-393 461h-2v-1438z" />
    <glyph glyph-name="Ograve" unicode="&#xd2;" horiz-adv-x="2197" 
d="M1182 1720h-101l-411 314h188zM1098 -35q-194 0 -370 63.5t-305.5 172.5t-206.5 264.5t-77 331.5q0 175 76 330.5t205.5 265.5t306.5 173.5t373 63.5q199 0 377 -65.5t305.5 -177t201.5 -265.5t74 -325q0 -230 -128.5 -421.5t-349 -301t-482.5 -109.5zM1102 59
q164 0 315 56t264.5 152t181.5 234.5t68 295.5t-68 296t-181.5 235.5t-264.5 152t-315 55.5q-166 0 -319.5 -55.5t-268 -152t-183.5 -235.5t-69 -296t69 -295.5t183.5 -234.5t268 -152t319.5 -56z" />
    <glyph glyph-name="Oacute" unicode="&#xd3;" horiz-adv-x="2197" 
d="M1526 2034l-412 -314h-100l323 314h189zM1098 -35q-194 0 -370 63.5t-305.5 172.5t-206.5 264.5t-77 331.5q0 175 76 330.5t205.5 265.5t306.5 173.5t373 63.5q199 0 377 -65.5t305.5 -177t201.5 -265.5t74 -325q0 -230 -128.5 -421.5t-349 -301t-482.5 -109.5zM1102 59
q164 0 315 56t264.5 152t181.5 234.5t68 295.5t-68 296t-181.5 235.5t-264.5 152t-315 55.5q-166 0 -319.5 -55.5t-268 -152t-183.5 -235.5t-69 -296t69 -295.5t183.5 -234.5t268 -152t319.5 -56z" />
    <glyph glyph-name="Ocircumflex" unicode="&#xd4;" horiz-adv-x="2197" 
d="M1180 2013l313 -293h-100q-178 134 -295 234q-130 -108 -297 -234h-101l314 293h166zM1098 -35q-194 0 -370 63.5t-305.5 172.5t-206.5 264.5t-77 331.5q0 175 76 330.5t205.5 265.5t306.5 173.5t373 63.5q199 0 377 -65.5t305.5 -177t201.5 -265.5t74 -325
q0 -230 -128.5 -421.5t-349 -301t-482.5 -109.5zM1102 59q164 0 315 56t264.5 152t181.5 234.5t68 295.5t-68 296t-181.5 235.5t-264.5 152t-315 55.5q-166 0 -319.5 -55.5t-268 -152t-183.5 -235.5t-69 -296t69 -295.5t183.5 -234.5t268 -152t319.5 -56z" />
    <glyph glyph-name="Otilde" unicode="&#xd5;" horiz-adv-x="2197" 
d="M1282 1815q-23 0 -42.5 2t-37.5 8t-29 9t-28 14t-22.5 14.5t-24 17.5t-21.5 16l-41 31q-26 19 -40.5 28.5t-38 18t-48.5 8.5q-60 0 -99.5 -43.5t-39.5 -109.5h-86q1 101 67 165t167 64q53 0 91.5 -18t84.5 -53l49 -37q80 -62 147 -62q61 0 96 44t35 112h88
q0 -103 -60.5 -166t-166.5 -63zM1098 -35q-194 0 -370 63.5t-305.5 172.5t-206.5 264.5t-77 331.5q0 175 76 330.5t205.5 265.5t306.5 173.5t373 63.5q199 0 377 -65.5t305.5 -177t201.5 -265.5t74 -325q0 -230 -128.5 -421.5t-349 -301t-482.5 -109.5zM1102 59
q164 0 315 56t264.5 152t181.5 234.5t68 295.5t-68 296t-181.5 235.5t-264.5 152t-315 55.5q-166 0 -319.5 -55.5t-268 -152t-183.5 -235.5t-69 -296t69 -295.5t183.5 -234.5t268 -152t319.5 -56z" />
    <glyph glyph-name="Odieresis" unicode="&#xd6;" horiz-adv-x="2197" 
d="M872 1800q-43 0 -73.5 27t-30.5 65q0 35 30.5 61.5t73.5 26.5q44 0 74.5 -26t30.5 -62q0 -38 -30.5 -65t-74.5 -27zM1323 1800q-45 0 -75.5 26.5t-30.5 65.5q0 36 30.5 62t75.5 26q41 0 71.5 -26.5t30.5 -61.5q0 -38 -30 -65t-72 -27zM1098 -35q-194 0 -370 63.5
t-305.5 172.5t-206.5 264.5t-77 331.5q0 175 76 330.5t205.5 265.5t306.5 173.5t373 63.5q199 0 377 -65.5t305.5 -177t201.5 -265.5t74 -325q0 -230 -128.5 -421.5t-349 -301t-482.5 -109.5zM1102 59q164 0 315 56t264.5 152t181.5 234.5t68 295.5t-68 296t-181.5 235.5
t-264.5 152t-315 55.5q-166 0 -319.5 -55.5t-268 -152t-183.5 -235.5t-69 -296t69 -295.5t183.5 -234.5t268 -152t319.5 -56z" />
    <glyph glyph-name="multiply" unicode="&#xd7;" horiz-adv-x="1073" 
d="M463 625l-264 219l77 67l265 -219l252 211l75 -65l-252 -211l263 -221l-78 -68l-262 221l-254 -213l-76 66z" />
    <glyph glyph-name="Oslash" unicode="&#xd8;" horiz-adv-x="2197" 
d="M1874 1661l-174 -211q168 -116 263 -286t95 -367q0 -230 -128.5 -421.5t-349 -301t-482.5 -109.5q-282 0 -514 127l-129 -158h-136l175 213q-165 113 -260 282.5t-95 367.5q0 175 76 330.5t205.5 265.5t306.5 173.5t373 63.5q280 0 510 -125l127 156h137zM262 797
q0 -172 80 -318.5t219 -249.5l981 1194q-202 113 -440 113q-166 0 -319.5 -55.5t-268 -152t-183.5 -235.5t-69 -296zM1102 59q164 0 315 56t264.5 152t181.5 234.5t68 295.5q0 174 -80 321t-219 248l-981 -1192q204 -115 451 -115z" />
    <glyph glyph-name="Ugrave" unicode="&#xd9;" horiz-adv-x="1853" 
d="M1010 1720h-101l-411 314h188zM920 -35q-117 0 -216 21t-183.5 67.5t-143.5 116t-92 170t-33 225.5v1032h115v-1028q0 -137 41 -238t117 -160.5t175.5 -87.5t225.5 -28q127 0 227 28t176 87.5t117 160.5t41 238v1028h115v-1032q0 -280 -177.5 -440t-504.5 -160z" />
    <glyph glyph-name="Uacute" unicode="&#xda;" horiz-adv-x="1853" 
d="M1176 2034l-412 -314h-100l323 314h189zM920 -35q-117 0 -216 21t-183.5 67.5t-143.5 116t-92 170t-33 225.5v1032h115v-1028q0 -137 41 -238t117 -160.5t175.5 -87.5t225.5 -28q127 0 227 28t176 87.5t117 160.5t41 238v1028h115v-1032q0 -280 -177.5 -440t-504.5 -160z
" />
    <glyph glyph-name="Ucircumflex" unicode="&#xdb;" horiz-adv-x="1853" 
d="M1008 2013l313 -293h-100q-178 134 -295 234q-130 -108 -297 -234h-101l314 293h166zM920 -35q-117 0 -216 21t-183.5 67.5t-143.5 116t-92 170t-33 225.5v1032h115v-1028q0 -137 41 -238t117 -160.5t175.5 -87.5t225.5 -28q127 0 227 28t176 87.5t117 160.5t41 238v1028
h115v-1032q0 -280 -177.5 -440t-504.5 -160z" />
    <glyph glyph-name="Udieresis" unicode="&#xdc;" horiz-adv-x="1853" 
d="M700 1800q-43 0 -73.5 27t-30.5 65q0 35 30.5 61.5t73.5 26.5q44 0 74.5 -26t30.5 -62q0 -38 -30.5 -65t-74.5 -27zM1151 1800q-45 0 -76 26.5t-31 65.5q0 36 31 62t76 26q41 0 71.5 -26.5t30.5 -61.5q0 -38 -30 -65t-72 -27zM920 -35q-117 0 -216 21t-183.5 67.5
t-143.5 116t-92 170t-33 225.5v1032h115v-1028q0 -137 41 -238t117 -160.5t175.5 -87.5t225.5 -28q127 0 227 28t176 87.5t117 160.5t41 238v1028h115v-1032q0 -280 -177.5 -440t-504.5 -160z" />
    <glyph glyph-name="Yacute" unicode="&#xdd;" horiz-adv-x="1681" 
d="M1270 2034l-412 -314h-100l323 314h189zM897 0h-113v596q-121 167 -363.5 500.5t-363.5 500.5h125l658 -909h4q64 88 183 251t478 658h121l-729 -1001v-596z" />
    <glyph glyph-name="Thorn" unicode="&#xde;" horiz-adv-x="1671" 
d="M391 0h-115v1597h115v-286h537q150 0 268.5 -36t194 -99t114.5 -146.5t39 -181.5q0 -214 -155.5 -346.5t-413.5 -132.5h-584v-369zM391 1221v-762h539q239 0 367 100.5t128 278.5q0 176 -140 279.5t-380 103.5h-514z" />
    <glyph glyph-name="germandbls" unicode="&#xdf;" horiz-adv-x="1474" 
d="M342 0h-106v1202q0 31 1 53.5t11 75.5t27.5 92.5t56 89.5t92 82.5t139 55t193.5 22.5q256 0 399 -116t143 -302q0 -156 -96.5 -265t-243.5 -130v-2q178 -22 287 -126t109 -261q0 -96 -44.5 -182t-123.5 -150t-197 -101.5t-258 -37.5h-174v80h178q218 0 360 107t142 274
q0 153 -120 254.5t-308 101.5h-115v80h115q168 0 270.5 93t102.5 249q0 56 -14 106.5t-46.5 95.5t-80 77.5t-120 51.5t-161.5 19q-102 0 -180.5 -26t-122 -64t-71 -89.5t-36 -94.5t-8.5 -88v-1227z" />
    <glyph glyph-name="agrave" unicode="&#xe0;" horiz-adv-x="1400" 
d="M766 1278h-96l-373 395h166zM547 -35q-117 0 -210 30.5t-151.5 95.5t-58.5 157q0 63 27.5 114.5t73 88t113 65.5t137 47.5t155.5 32.5q32 5 84.5 13t82.5 12.5t72.5 13.5t67 17.5t53 22.5t43.5 31t25 41t10 54q0 109 -109 191.5t-276 82.5q-149 0 -254.5 -69.5
t-146.5 -184.5l-109 33q37 101 122.5 172t186 102t209.5 31q86 0 168.5 -20.5t157 -61.5t120.5 -115.5t46 -170.5v-439q0 -131 10 -204.5t33 -147.5h-109q-37 115 -37 260h-6q-71 -134 -204 -214.5t-326 -80.5zM549 47q116 0 217.5 41.5t166 104t101.5 133.5t37 133v172
q-58 -42 -119.5 -61.5t-218.5 -43.5q-54 -8 -83.5 -13t-89 -18t-96 -25.5t-84 -34.5t-74.5 -46.5t-46.5 -60t-19.5 -76.5q0 -93 85 -149t224 -56z" />
    <glyph glyph-name="aacute" unicode="&#xe1;" horiz-adv-x="1400" 
d="M1128 1673l-372 -395h-97l304 395h165zM547 -35q-117 0 -210 30.5t-151.5 95.5t-58.5 157q0 63 27.5 114.5t73 88t113 65.5t137 47.5t155.5 32.5q32 5 84.5 13t82.5 12.5t72.5 13.5t67 17.5t53 22.5t43.5 31t25 41t10 54q0 109 -109 191.5t-276 82.5q-149 0 -254.5 -69.5
t-146.5 -184.5l-109 33q37 101 122.5 172t186 102t209.5 31q86 0 168.5 -20.5t157 -61.5t120.5 -115.5t46 -170.5v-439q0 -131 10 -204.5t33 -147.5h-109q-37 115 -37 260h-6q-71 -134 -204 -214.5t-326 -80.5zM549 47q116 0 217.5 41.5t166 104t101.5 133.5t37 133v172
q-58 -42 -119.5 -61.5t-218.5 -43.5q-54 -8 -83.5 -13t-89 -18t-96 -25.5t-84 -34.5t-74.5 -46.5t-46.5 -60t-19.5 -76.5q0 -93 85 -149t224 -56z" />
    <glyph glyph-name="acircumflex" unicode="&#xe2;" horiz-adv-x="1400" 
d="M373 1278h-103l357 354h170l356 -354h-102q-216 177 -338 285q-207 -179 -340 -285zM547 -35q-117 0 -210 30.5t-151.5 95.5t-58.5 157q0 63 27.5 114.5t73 88t113 65.5t137 47.5t155.5 32.5q32 5 84.5 13t82.5 12.5t72.5 13.5t67 17.5t53 22.5t43.5 31t25 41t10 54
q0 109 -109 191.5t-276 82.5q-149 0 -254.5 -69.5t-146.5 -184.5l-109 33q37 101 122.5 172t186 102t209.5 31q86 0 168.5 -20.5t157 -61.5t120.5 -115.5t46 -170.5v-439q0 -131 10 -204.5t33 -147.5h-109q-37 115 -37 260h-6q-71 -134 -204 -214.5t-326 -80.5zM549 47
q116 0 217.5 41.5t166 104t101.5 133.5t37 133v172q-58 -42 -119.5 -61.5t-218.5 -43.5q-54 -8 -83.5 -13t-89 -18t-96 -25.5t-84 -34.5t-74.5 -46.5t-46.5 -60t-19.5 -76.5q0 -93 85 -149t224 -56z" />
    <glyph glyph-name="atilde" unicode="&#xe3;" horiz-adv-x="1400" 
d="M897 1343q-23 0 -42.5 2t-37 8t-29.5 10t-28 14t-22.5 14.5t-24 17.5t-21.5 16l-41 31q-26 19 -40.5 28.5t-38 18t-48.5 8.5q-60 0 -99.5 -43.5t-39.5 -109.5h-86q1 101 66.5 165t166.5 64q53 0 92 -18t85 -53l49 -37q80 -62 147 -62q61 0 96 44t35 112h88
q0 -103 -60.5 -166.5t-166.5 -63.5zM547 -35q-117 0 -210 30.5t-151.5 95.5t-58.5 157q0 63 27.5 114.5t73 88t113 65.5t137 47.5t155.5 32.5q32 5 84.5 13t82.5 12.5t72.5 13.5t67 17.5t53 22.5t43.5 31t25 41t10 54q0 109 -109 191.5t-276 82.5q-149 0 -254.5 -69.5
t-146.5 -184.5l-109 33q37 101 122.5 172t186 102t209.5 31q86 0 168.5 -20.5t157 -61.5t120.5 -115.5t46 -170.5v-439q0 -131 10 -204.5t33 -147.5h-109q-37 115 -37 260h-6q-71 -134 -204 -214.5t-326 -80.5zM549 47q116 0 217.5 41.5t166 104t101.5 133.5t37 133v172
q-58 -42 -119.5 -61.5t-218.5 -43.5q-54 -8 -83.5 -13t-89 -18t-96 -25.5t-84 -34.5t-74.5 -46.5t-46.5 -60t-19.5 -76.5q0 -93 85 -149t224 -56z" />
    <glyph glyph-name="adieresis" unicode="&#xe4;" horiz-adv-x="1400" 
d="M514 1391q-44 0 -75 27t-31 65q0 36 31 62t75 26q43 0 72.5 -26t29.5 -62q0 -39 -29 -65.5t-73 -26.5zM911 1391q-45 0 -74.5 26.5t-29.5 65.5q0 36 29.5 62t74.5 26q43 0 74 -26.5t31 -61.5q0 -38 -31 -65t-74 -27zM547 -35q-117 0 -210 30.5t-151.5 95.5t-58.5 157
q0 63 27.5 114.5t73 88t113 65.5t137 47.5t155.5 32.5q32 5 84.5 13t82.5 12.5t72.5 13.5t67 17.5t53 22.5t43.5 31t25 41t10 54q0 109 -109 191.5t-276 82.5q-149 0 -254.5 -69.5t-146.5 -184.5l-109 33q37 101 122.5 172t186 102t209.5 31q86 0 168.5 -20.5t157 -61.5
t120.5 -115.5t46 -170.5v-439q0 -131 10 -204.5t33 -147.5h-109q-37 115 -37 260h-6q-71 -134 -204 -214.5t-326 -80.5zM549 47q116 0 217.5 41.5t166 104t101.5 133.5t37 133v172q-58 -42 -119.5 -61.5t-218.5 -43.5q-54 -8 -83.5 -13t-89 -18t-96 -25.5t-84 -34.5
t-74.5 -46.5t-46.5 -60t-19.5 -76.5q0 -93 85 -149t224 -56z" />
    <glyph glyph-name="aring" unicode="&#xe5;" horiz-adv-x="1400" 
d="M713 1245q-113 0 -186.5 60t-73.5 153q0 91 73.5 150t186.5 59q109 0 182.5 -59.5t73.5 -149.5q0 -93 -73 -153t-183 -60zM713 1323q72 0 120 36.5t48 98.5q0 60 -48.5 95.5t-119.5 35.5q-74 0 -123 -35.5t-49 -95.5q0 -63 49 -99t123 -36zM547 -35q-117 0 -210 30.5
t-151.5 95.5t-58.5 157q0 63 27.5 114.5t73 88t113 65.5t137 47.5t155.5 32.5q32 5 84.5 13t82.5 12.5t72.5 13.5t67 17.5t53 22.5t43.5 31t25 41t10 54q0 109 -109 191.5t-276 82.5q-149 0 -254.5 -69.5t-146.5 -184.5l-109 33q37 101 122.5 172t186 102t209.5 31
q86 0 168.5 -20.5t157 -61.5t120.5 -115.5t46 -170.5v-439q0 -131 10 -204.5t33 -147.5h-109q-37 115 -37 260h-6q-71 -134 -204 -214.5t-326 -80.5zM549 47q116 0 217.5 41.5t166 104t101.5 133.5t37 133v172q-58 -42 -119.5 -61.5t-218.5 -43.5q-54 -8 -83.5 -13t-89 -18
t-96 -25.5t-84 -34.5t-74.5 -46.5t-46.5 -60t-19.5 -76.5q0 -93 85 -149t224 -56z" />
    <glyph glyph-name="ae" unicode="&#xe6;" horiz-adv-x="2473" 
d="M537 -35q-181 0 -295.5 75t-114.5 210q0 75 37 133.5t108 99t158.5 67t204.5 46.5q32 5 84.5 13t82.5 12.5t72.5 13.5t67 17.5t53 22.5t43.5 31t25 41t10 54q0 109 -108.5 191.5t-276.5 82.5q-149 0 -254.5 -69.5t-146.5 -184.5l-109 33q38 101 123 172t185.5 102
t211.5 31q72 0 143.5 -14.5t139 -44.5t119 -81.5t74.5 -119.5q86 123 231 191.5t326 68.5q53 0 105.5 -6t113.5 -23t115 -43t105 -69.5t87 -99.5t58 -136t22 -176v-45h-1149q-1 -227 153 -369.5t394 -142.5q191 0 327 90t201 230l96 -27q-78 -181 -246.5 -279t-383.5 -98
q-137 0 -255 37t-209.5 116.5t-131.5 192.5h-5q-64 -148 -221 -247t-370 -99zM1194 645h1022q1 93 -28.5 168t-78 123t-113.5 80t-132 45.5t-138 13.5q-213 0 -357 -117t-175 -313zM551 47q90 0 173 27.5t144.5 71.5t108.5 98.5t70.5 110.5t23.5 104v174
q-65 -47 -124.5 -64.5t-213.5 -40.5q-53 -8 -85 -13.5t-90 -18t-95.5 -25t-84 -34t-73.5 -46t-46 -59.5t-19 -76q0 -95 87.5 -152t223.5 -57z" />
    <glyph glyph-name="ccedilla" unicode="&#xe7;" horiz-adv-x="1492" 
d="M1327 369l96 -27q-78 -179 -241 -275.5t-373 -101.5l-115 -137q42 20 113 20q94 0 154.5 -43t60.5 -112q0 -77 -72.5 -126.5t-181.5 -49.5q-81 0 -159.5 29t-131.5 77l55 43q38 -40 102 -65t128 -25q73 0 123.5 32t50.5 81q0 45 -45 74.5t-113 29.5q-66 0 -119 -24
l-55 47l119 151q-268 19 -433 181.5t-165 412.5q0 265 185.5 431.5t480.5 166.5q87 0 167.5 -16.5t157 -52t139.5 -97t103 -145.5l-107 -33q-54 121 -178.5 190.5t-290.5 69.5q-245 0 -392.5 -145t-147.5 -369q0 -229 153.5 -370.5t399.5 -141.5q195 0 329.5 88.5
t202.5 231.5z" />
    <glyph glyph-name="egrave" unicode="&#xe8;" horiz-adv-x="1525" 
d="M821 1278h-96l-373 395h166zM780 -35q-187 0 -336 74.5t-234 211t-85 310.5q0 173 84.5 310t234 212.5t338.5 75.5q53 0 105.5 -6t114 -23t115 -43t104.5 -69.5t87.5 -99.5t58.5 -136t22 -176v-55h-1147q0 -225 151.5 -363.5t392.5 -138.5q191 0 327.5 90t203.5 230
l94 -27q-78 -181 -247 -279t-384 -98zM246 645h1024q0 93 -30 168t-78.5 123t-114 80t-132.5 45.5t-137 13.5q-214 0 -357.5 -118.5t-174.5 -311.5z" />
    <glyph glyph-name="eacute" unicode="&#xe9;" horiz-adv-x="1525" 
d="M1184 1673l-373 -395h-96l303 395h166zM780 -35q-187 0 -336 74.5t-234 211t-85 310.5q0 173 84.5 310t234 212.5t338.5 75.5q53 0 105.5 -6t114 -23t115 -43t104.5 -69.5t87.5 -99.5t58.5 -136t22 -176v-55h-1147q0 -225 151.5 -363.5t392.5 -138.5q191 0 327.5 90
t203.5 230l94 -27q-78 -181 -247 -279t-384 -98zM246 645h1024q0 93 -30 168t-78.5 123t-114 80t-132.5 45.5t-137 13.5q-214 0 -357.5 -118.5t-174.5 -311.5z" />
    <glyph glyph-name="ecircumflex" unicode="&#xea;" horiz-adv-x="1525" 
d="M428 1278h-102l356 354h170l356 -354h-102q-216 177 -338 285q-207 -179 -340 -285zM780 -35q-187 0 -336 74.5t-234 211t-85 310.5q0 173 84.5 310t234 212.5t338.5 75.5q53 0 105.5 -6t114 -23t115 -43t104.5 -69.5t87.5 -99.5t58.5 -136t22 -176v-55h-1147
q0 -225 151.5 -363.5t392.5 -138.5q191 0 327.5 90t203.5 230l94 -27q-78 -181 -247 -279t-384 -98zM246 645h1024q0 93 -30 168t-78.5 123t-114 80t-132.5 45.5t-137 13.5q-214 0 -357.5 -118.5t-174.5 -311.5z" />
    <glyph glyph-name="edieresis" unicode="&#xeb;" horiz-adv-x="1525" 
d="M569 1391q-44 0 -75 27t-31 65q0 36 31 62t75 26t73.5 -26t29.5 -62q0 -39 -29.5 -65.5t-73.5 -26.5zM967 1391q-45 0 -75 26.5t-30 65.5q0 36 30 62t75 26q43 0 73.5 -26.5t30.5 -61.5q0 -38 -30.5 -65t-73.5 -27zM780 -35q-187 0 -336 74.5t-234 211t-85 310.5
q0 173 84.5 310t234 212.5t338.5 75.5q53 0 105.5 -6t114 -23t115 -43t104.5 -69.5t87.5 -99.5t58.5 -136t22 -176v-55h-1147q0 -225 151.5 -363.5t392.5 -138.5q191 0 327.5 90t203.5 230l94 -27q-78 -181 -247 -279t-384 -98zM246 645h1024q0 93 -30 168t-78.5 123
t-114 80t-132.5 45.5t-137 13.5q-214 0 -357.5 -118.5t-174.5 -311.5z" />
    <glyph glyph-name="igrave" unicode="&#xec;" horiz-adv-x="577" 
d="M342 1278h-96l-373 395h166zM342 0h-106v1126h106v-1126z" />
    <glyph glyph-name="iacute" unicode="&#xed;" horiz-adv-x="577" 
d="M705 1673l-373 -395h-96l303 395h166zM342 0h-106v1126h106v-1126z" />
    <glyph glyph-name="icircumflex" unicode="&#xee;" horiz-adv-x="577" 
d="M-51 1278h-103l357 354h170l356 -354h-102q-216 177 -338 285q-207 -179 -340 -285zM342 0h-106v1126h106v-1126z" />
    <glyph glyph-name="idieresis" unicode="&#xef;" horiz-adv-x="577" 
d="M90 1391q-44 0 -75 27t-31 65q0 36 31 62t75 26t73.5 -26t29.5 -62q0 -39 -29.5 -65.5t-73.5 -26.5zM487 1391q-45 0 -74.5 26.5t-29.5 65.5q0 36 29.5 62t74.5 26q43 0 74 -26.5t31 -61.5q0 -38 -31 -65t-74 -27zM342 0h-106v1126h106v-1126z" />
    <glyph glyph-name="eth" unicode="&#xf0;" horiz-adv-x="1576" 
d="M1217 1585l-259 -123q474 -286 474 -809q0 -167 -48 -298.5t-134.5 -216t-205 -129t-262.5 -44.5q-149 0 -275 47t-209.5 126.5t-130 184t-46.5 220.5q0 162 85.5 294t235 206.5t332.5 74.5q159 0 281 -55.5t221 -173.5h4q-47 170 -149.5 297t-278.5 225l-383 -184
l-39 63l338 164q-140 67 -369 133l27 86q260 -67 453 -166l295 142zM778 49q152 0 274.5 61t193.5 174t71 257q0 145 -72 258.5t-194 174t-271 60.5q-115 0 -215.5 -37.5t-172 -103t-113 -156.5t-41.5 -194q0 -100 39.5 -190t108.5 -157.5t171 -107t221 -39.5z" />
    <glyph glyph-name="ntilde" unicode="&#xf1;" horiz-adv-x="1550" 
d="M956 1343q-26 0 -50 4t-38.5 7.5t-35.5 15.5t-26.5 15.5t-28.5 20.5t-25 19l-41 31q-26 19 -40.5 28.5t-38 18t-48.5 8.5q-60 0 -100 -43.5t-40 -109.5h-86q1 101 67 165t167 64q53 0 91.5 -18t84.5 -53l49 -37q80 -62 148 -62q61 0 96 44t35 112h88q0 -103 -61 -166.5
t-167 -63.5zM342 0h-106v1126h102v-231h4q78 135 207 199.5t289 64.5q76 0 144 -13t134 -46t114 -83t77.5 -130t29.5 -182v-705h-106v664q0 93 -24.5 166t-64 118t-94 74.5t-110 41t-117.5 11.5q-92 0 -171.5 -26t-134.5 -69.5t-95 -100t-59 -116.5t-19 -120v-643z" />
    <glyph glyph-name="ograve" unicode="&#xf2;" horiz-adv-x="1587" 
d="M848 1278h-96l-373 395h166zM795 -35q-295 0 -482.5 167t-187.5 429q0 174 85 310.5t238 212t347 75.5q145 0 269 -44t211.5 -122.5t137 -190t49.5 -241.5q0 -262 -187 -429t-480 -167zM795 49q245 0 398 143t153 369q0 227 -153 370.5t-398 143.5q-244 0 -398.5 -144
t-154.5 -370t154.5 -369t398.5 -143z" />
    <glyph glyph-name="oacute" unicode="&#xf3;" horiz-adv-x="1587" 
d="M1210 1673l-372 -395h-97l303 395h166zM795 -35q-295 0 -482.5 167t-187.5 429q0 174 85 310.5t238 212t347 75.5q145 0 269 -44t211.5 -122.5t137 -190t49.5 -241.5q0 -262 -187 -429t-480 -167zM795 49q245 0 398 143t153 369q0 227 -153 370.5t-398 143.5
q-244 0 -398.5 -144t-154.5 -370t154.5 -369t398.5 -143z" />
    <glyph glyph-name="ocircumflex" unicode="&#xf4;" horiz-adv-x="1587" 
d="M455 1278h-103l357 354h170l356 -354h-102q-216 177 -338 285q-207 -179 -340 -285zM795 -35q-295 0 -482.5 167t-187.5 429q0 174 85 310.5t238 212t347 75.5q145 0 269 -44t211.5 -122.5t137 -190t49.5 -241.5q0 -262 -187 -429t-480 -167zM795 49q245 0 398 143
t153 369q0 227 -153 370.5t-398 143.5q-244 0 -398.5 -144t-154.5 -370t154.5 -369t398.5 -143z" />
    <glyph glyph-name="otilde" unicode="&#xf5;" horiz-adv-x="1587" 
d="M979 1343q-23 0 -42.5 2t-37 8t-29.5 10t-28 14t-22.5 14.5t-24 17.5t-21.5 16l-41 31q-26 19 -40.5 28.5t-38 18t-48.5 8.5q-60 0 -99.5 -43.5t-39.5 -109.5h-86q1 101 66.5 165t166.5 64q53 0 92 -18t85 -53l49 -37q80 -62 147 -62q61 0 96 44t35 112h88
q0 -103 -60.5 -166.5t-166.5 -63.5zM795 -35q-295 0 -482.5 167t-187.5 429q0 174 85 310.5t238 212t347 75.5q145 0 269 -44t211.5 -122.5t137 -190t49.5 -241.5q0 -262 -187 -429t-480 -167zM795 49q245 0 398 143t153 369q0 227 -153 370.5t-398 143.5
q-244 0 -398.5 -144t-154.5 -370t154.5 -369t398.5 -143z" />
    <glyph glyph-name="odieresis" unicode="&#xf6;" horiz-adv-x="1587" 
d="M596 1391q-44 0 -75.5 27t-31.5 65q0 36 31.5 62t75.5 26q43 0 72.5 -26t29.5 -62q0 -39 -29 -65.5t-73 -26.5zM993 1391q-45 0 -74.5 26.5t-29.5 65.5q0 36 29.5 62t74.5 26q43 0 74 -26.5t31 -61.5q0 -38 -31 -65t-74 -27zM795 -35q-295 0 -482.5 167t-187.5 429
q0 174 85 310.5t238 212t347 75.5q145 0 269 -44t211.5 -122.5t137 -190t49.5 -241.5q0 -262 -187 -429t-480 -167zM795 49q245 0 398 143t153 369q0 227 -153 370.5t-398 143.5q-244 0 -398.5 -144t-154.5 -370t154.5 -369t398.5 -143z" />
    <glyph glyph-name="divide" unicode="&#xf7;" horiz-adv-x="1226" 
d="M621 817q-46 0 -78.5 28t-32.5 68q0 38 32.5 65.5t78.5 27.5q44 0 76 -27.5t32 -65.5q0 -40 -32 -68t-76 -28zM1028 578h-829v94h829v-94zM621 242q-46 0 -78.5 28t-32.5 68q0 38 32.5 65t78.5 27q44 0 76 -27t32 -65q0 -40 -32 -68t-76 -28z" />
    <glyph glyph-name="oslash" unicode="&#xf8;" horiz-adv-x="1587" 
d="M1403 1180l-150 -168q100 -81 154.5 -197t54.5 -254q0 -262 -187 -429t-480 -167q-214 0 -383 94l-103 -114h-123l150 168q-101 81 -156 195.5t-55 252.5q0 174 85 310.5t238 212t347 75.5q223 0 385 -98l106 119h117zM242 561q0 -114 41.5 -210.5t117.5 -164.5l715 803
q-138 86 -321 86q-244 0 -398.5 -144t-154.5 -370zM795 49q245 0 398 143t153 369q0 233 -158 375l-713 -803q139 -84 320 -84z" />
    <glyph glyph-name="ugrave" unicode="&#xf9;" horiz-adv-x="1527" 
d="M786 1278h-96l-373 395h166zM698 -35q-70 0 -135 13t-130 46t-112.5 83t-77.5 130.5t-30 182.5v706h106v-665q0 -115 36.5 -199t97.5 -128.5t128 -64.5t142 -20q108 0 198 40t146 103.5t86.5 138.5t30.5 150v645h106v-774q0 -122 10 -197t35 -155h-110q-37 121 -37 229
h-4q-79 -136 -205.5 -200t-280.5 -64z" />
    <glyph glyph-name="uacute" unicode="&#xfa;" horiz-adv-x="1527" 
d="M1149 1673l-373 -395h-96l303 395h166zM698 -35q-70 0 -135 13t-130 46t-112.5 83t-77.5 130.5t-30 182.5v706h106v-665q0 -115 36.5 -199t97.5 -128.5t128 -64.5t142 -20q108 0 198 40t146 103.5t86.5 138.5t30.5 150v645h106v-774q0 -122 10 -197t35 -155h-110
q-37 121 -37 229h-4q-79 -136 -205.5 -200t-280.5 -64z" />
    <glyph glyph-name="ucircumflex" unicode="&#xfb;" horiz-adv-x="1527" 
d="M393 1278h-102l356 354h170l357 -354h-103q-216 177 -338 285q-207 -179 -340 -285zM698 -35q-70 0 -135 13t-130 46t-112.5 83t-77.5 130.5t-30 182.5v706h106v-665q0 -115 36.5 -199t97.5 -128.5t128 -64.5t142 -20q108 0 198 40t146 103.5t86.5 138.5t30.5 150v645
h106v-774q0 -122 10 -197t35 -155h-110q-37 121 -37 229h-4q-79 -136 -205.5 -200t-280.5 -64z" />
    <glyph glyph-name="udieresis" unicode="&#xfc;" horiz-adv-x="1527" 
d="M535 1391q-44 0 -75.5 27t-31.5 65q0 36 31.5 62t75.5 26q43 0 72.5 -26t29.5 -62q0 -39 -29 -65.5t-73 -26.5zM932 1391q-45 0 -75 26.5t-30 65.5q0 36 30 62t75 26q43 0 73.5 -26.5t30.5 -61.5q0 -38 -30.5 -65t-73.5 -27zM698 -35q-70 0 -135 13t-130 46t-112.5 83
t-77.5 130.5t-30 182.5v706h106v-665q0 -115 36.5 -199t97.5 -128.5t128 -64.5t142 -20q108 0 198 40t146 103.5t86.5 138.5t30.5 150v645h106v-774q0 -122 10 -197t35 -155h-110q-37 121 -37 229h-4q-79 -136 -205.5 -200t-280.5 -64z" />
    <glyph glyph-name="yacute" unicode="&#xfd;" horiz-adv-x="1302" 
d="M1049 1673l-373 -395h-96l303 395h166zM479 -451h-88l213 445l-557 1132h117q95 -191 263.5 -544t223.5 -467h4q50 104 220 462.5t264 548.5h116z" />
    <glyph glyph-name="thorn" unicode="&#xfe;" horiz-adv-x="1648" 
d="M342 -451h-106v2089h106v-768h6q84 142 228 215.5t315 73.5q176 0 320.5 -75t228.5 -212t84 -309q0 -173 -83.5 -310t-227.5 -212.5t-322 -75.5q-174 0 -317.5 73t-225.5 208h-6v-697zM883 49q227 0 375.5 146t148.5 368q0 146 -68.5 263.5t-188.5 183t-267 65.5
q-145 0 -268.5 -64t-198 -183t-74.5 -267t74.5 -266.5t197.5 -182t269 -63.5z" />
    <glyph glyph-name="ydieresis" unicode="&#xff;" horiz-adv-x="1302" 
d="M434 1391q-44 0 -75 27t-31 65q0 36 31 62t75 26t73.5 -26t29.5 -62q0 -39 -29.5 -65.5t-73.5 -26.5zM831 1391q-45 0 -74.5 26.5t-29.5 65.5q0 36 29.5 62t74.5 26q43 0 74 -26.5t31 -61.5q0 -38 -31 -65t-74 -27zM479 -451h-88l213 445l-557 1132h117
q95 -191 263.5 -544t223.5 -467h4q50 104 220 462.5t264 548.5h116z" />
    <glyph glyph-name="Amacron" unicode="&#x100;" horiz-adv-x="1789" 
d="M1282 1847h-774v88h774v-88zM166 0h-121l793 1597h114l793 -1597h-119q-206 408 -301 600h-864q-52 -106 -120.5 -245t-112 -227.5t-62.5 -127.5zM504 690h778q-270 547 -383 797h-6q-34 -71 -173.5 -355.5t-215.5 -441.5z" />
    <glyph glyph-name="amacron" unicode="&#x101;" horiz-adv-x="1400" 
d="M1124 1438h-825v88h825v-88zM547 -35q-117 0 -210 30.5t-151.5 95.5t-58.5 157q0 63 27.5 114.5t73 88t113 65.5t137 47.5t155.5 32.5q32 5 84.5 13t82.5 12.5t72.5 13.5t67 17.5t53 22.5t43.5 31t25 41t10 54q0 109 -109 191.5t-276 82.5q-149 0 -254.5 -69.5
t-146.5 -184.5l-109 33q37 101 122.5 172t186 102t209.5 31q86 0 168.5 -20.5t157 -61.5t120.5 -115.5t46 -170.5v-439q0 -131 10 -204.5t33 -147.5h-109q-37 115 -37 260h-6q-71 -134 -204 -214.5t-326 -80.5zM549 47q116 0 217.5 41.5t166 104t101.5 133.5t37 133v172
q-58 -42 -119.5 -61.5t-218.5 -43.5q-54 -8 -83.5 -13t-89 -18t-96 -25.5t-84 -34.5t-74.5 -46.5t-46.5 -60t-19.5 -76.5q0 -93 85 -149t224 -56z" />
    <glyph glyph-name="Abreve" unicode="&#x102;" horiz-adv-x="1789" 
d="M895 1729q-101 0 -186 29t-138.5 75.5t-84.5 100.5t-35 108h102q8 -88 107.5 -157.5t234.5 -69.5t233.5 69.5t106.5 157.5h102q-3 -53 -33.5 -107t-84 -100.5t-138.5 -76t-186 -29.5zM166 0h-121l793 1597h114l793 -1597h-119q-206 408 -301 600h-864
q-52 -106 -120.5 -245t-112 -227.5t-62.5 -127.5zM504 690h778q-270 547 -383 797h-6q-34 -71 -173.5 -355.5t-215.5 -441.5z" />
    <glyph glyph-name="abreve" unicode="&#x103;" horiz-adv-x="1400" 
d="M713 1278q-203 0 -320 111t-125 284h105q6 -140 99 -224.5t241 -84.5q144 0 238.5 83t101.5 226h104q-8 -173 -125 -284t-319 -111zM547 -35q-117 0 -210 30.5t-151.5 95.5t-58.5 157q0 63 27.5 114.5t73 88t113 65.5t137 47.5t155.5 32.5q32 5 84.5 13t82.5 12.5
t72.5 13.5t67 17.5t53 22.5t43.5 31t25 41t10 54q0 109 -109 191.5t-276 82.5q-149 0 -254.5 -69.5t-146.5 -184.5l-109 33q37 101 122.5 172t186 102t209.5 31q86 0 168.5 -20.5t157 -61.5t120.5 -115.5t46 -170.5v-439q0 -131 10 -204.5t33 -147.5h-109q-37 115 -37 260
h-6q-71 -134 -204 -214.5t-326 -80.5zM549 47q116 0 217.5 41.5t166 104t101.5 133.5t37 133v172q-58 -42 -119.5 -61.5t-218.5 -43.5q-54 -8 -83.5 -13t-89 -18t-96 -25.5t-84 -34.5t-74.5 -46.5t-46.5 -60t-19.5 -76.5q0 -93 85 -149t224 -56z" />
    <glyph glyph-name="Aogonek" unicode="&#x104;" horiz-adv-x="1789" 
d="M1761 -389q45 0 105 14v-74q-66 -14 -109 -14q-136 0 -224.5 63t-88.5 169q0 133 188 231h-6q-206 408 -301 600h-864q-52 -106 -120.5 -245t-112 -227.5t-62.5 -127.5h-121l793 1597h114l793 -1597h4q-213 -102 -213 -223q0 -75 65.5 -120.5t159.5 -45.5zM504 690h778
q-270 547 -383 797h-6q-34 -71 -173.5 -355.5t-215.5 -441.5z" />
    <glyph glyph-name="aogonek" unicode="&#x105;" horiz-adv-x="1400" 
d="M1243 -389q45 0 105 14v-74q-63 -14 -115 -14q-131 0 -219 62.5t-88 164.5q0 75 50.5 131t143.5 105q-37 115 -37 260h-6q-71 -134 -204 -214.5t-326 -80.5q-117 0 -210 30.5t-151.5 95.5t-58.5 157q0 63 27.5 114.5t73 88t113 65.5t137 47.5t155.5 32.5q32 5 84.5 13
t82.5 12.5t72.5 13.5t67 17.5t53 22.5t43.5 31t25 41t10 54q0 109 -109 191.5t-276 82.5q-149 0 -254.5 -69.5t-146.5 -184.5l-109 33q37 101 122.5 172t186 102t209.5 31q86 0 168.5 -20.5t157 -61.5t120.5 -115.5t46 -170.5v-439q0 -131 10 -204.5t33 -147.5
q-104 -50 -157.5 -103.5t-53.5 -119.5q0 -75 65.5 -120.5t159.5 -45.5zM1071 459v172q-58 -42 -119.5 -61.5t-218.5 -43.5q-54 -8 -83.5 -13t-89 -18t-96 -25.5t-84 -34.5t-74.5 -46.5t-46.5 -60t-19.5 -76.5q0 -93 85 -149t224 -56q116 0 217.5 41.5t166 104t101.5 133.5
t37 133z" />
    <glyph glyph-name="Cacute" unicode="&#x106;" horiz-adv-x="2072" 
d="M1464 2034l-411 -314h-101l324 314h188zM1102 -35q-209 0 -388 61.5t-305 170t-197 262t-71 332.5q0 182 73.5 339.5t201 266.5t302.5 171t374 62q131 0 256.5 -27t239 -80.5t202 -143.5t133.5 -205l-98 -37q-61 128 -175.5 219t-256 135.5t-299.5 44.5
q-165 0 -314.5 -51t-264.5 -144t-183 -235.5t-68 -314.5q0 -142 47.5 -263t129.5 -206.5t191.5 -145.5t233.5 -88.5t256 -28.5q161 0 296.5 42t229.5 114.5t157.5 161.5t97.5 192l100 -32q-34 -94 -87 -176.5t-132.5 -156t-177.5 -126t-227 -83t-277 -30.5z" />
    <glyph glyph-name="cacute" unicode="&#x107;" horiz-adv-x="1492" 
d="M1167 1673l-372 -395h-97l303 395h166zM786 -35q-293 0 -477 166t-184 430q0 265 185.5 431.5t480.5 166.5q87 0 167.5 -16.5t157 -52t139.5 -97t103 -145.5l-107 -33q-54 121 -178.5 190.5t-290.5 69.5q-245 0 -392.5 -145t-147.5 -369q0 -229 153.5 -370.5
t399.5 -141.5q195 0 329.5 88.5t202.5 231.5l96 -27q-80 -183 -249.5 -280t-387.5 -97z" />
    <glyph glyph-name="Cdotaccent" unicode="&#x10a;" horiz-adv-x="2072" 
d="M1036 1794q-47 0 -79.5 28.5t-32.5 69.5q0 39 32.5 67t79.5 28q46 0 78.5 -28.5t32.5 -66.5q0 -41 -32.5 -69.5t-78.5 -28.5zM1102 -35q-209 0 -388 61.5t-305 170t-197 262t-71 332.5q0 182 73.5 339.5t201 266.5t302.5 171t374 62q131 0 256.5 -27t239 -80.5
t202 -143.5t133.5 -205l-98 -37q-61 128 -175.5 219t-256 135.5t-299.5 44.5q-165 0 -314.5 -51t-264.5 -144t-183 -235.5t-68 -314.5q0 -142 47.5 -263t129.5 -206.5t191.5 -145.5t233.5 -88.5t256 -28.5q161 0 296.5 42t229.5 114.5t157.5 161.5t97.5 192l100 -32
q-34 -94 -87 -176.5t-132.5 -156t-177.5 -126t-227 -83t-277 -30.5z" />
    <glyph glyph-name="cdotaccent" unicode="&#x10b;" horiz-adv-x="1492" 
d="M754 1446q-47 0 -80 28.5t-33 69.5q0 38 33 66t80 28q46 0 78 -28t32 -66q0 -41 -32 -69.5t-78 -28.5zM786 -35q-293 0 -477 166t-184 430q0 265 185.5 431.5t480.5 166.5q87 0 167.5 -16.5t157 -52t139.5 -97t103 -145.5l-107 -33q-54 121 -178.5 190.5t-290.5 69.5
q-245 0 -392.5 -145t-147.5 -369q0 -229 153.5 -370.5t399.5 -141.5q195 0 329.5 88.5t202.5 231.5l96 -27q-80 -183 -249.5 -280t-387.5 -97z" />
    <glyph glyph-name="Ccaron" unicode="&#x10c;" horiz-adv-x="2072" 
d="M1331 2013h101l-314 -293h-166l-313 293h100q200 -151 297 -233q115 97 295 233zM1102 -35q-209 0 -388 61.5t-305 170t-197 262t-71 332.5q0 182 73.5 339.5t201 266.5t302.5 171t374 62q131 0 256.5 -27t239 -80.5t202 -143.5t133.5 -205l-98 -37q-61 128 -175.5 219
t-256 135.5t-299.5 44.5q-165 0 -314.5 -51t-264.5 -144t-183 -235.5t-68 -314.5q0 -142 47.5 -263t129.5 -206.5t191.5 -145.5t233.5 -88.5t256 -28.5q161 0 296.5 42t229.5 114.5t157.5 161.5t97.5 192l100 -32q-34 -94 -87 -176.5t-132.5 -156t-177.5 -126t-227 -83
t-277 -30.5z" />
    <glyph glyph-name="ccaron" unicode="&#x10d;" horiz-adv-x="1492" 
d="M836 1278h-170l-357 354h103q226 -184 340 -284q103 92 338 284h102zM786 -35q-293 0 -477 166t-184 430q0 265 185.5 431.5t480.5 166.5q87 0 167.5 -16.5t157 -52t139.5 -97t103 -145.5l-107 -33q-54 121 -178.5 190.5t-290.5 69.5q-245 0 -392.5 -145t-147.5 -369
q0 -229 153.5 -370.5t399.5 -141.5q195 0 329.5 88.5t202.5 231.5l96 -27q-80 -183 -249.5 -280t-387.5 -97z" />
    <glyph glyph-name="Dcaron" unicode="&#x10e;" horiz-adv-x="1984" 
d="M1214 2013h101l-314 -293h-165l-314 293h101q200 -151 297 -233q124 104 294 233zM952 0h-676v1597h654q187 0 339.5 -40.5t257 -112t176 -171.5t104 -216t32.5 -248q0 -178 -61 -327t-173 -256t-280 -166.5t-373 -59.5zM391 90h588q174 0 314 52t233.5 145.5
t143.5 223.5t50 286q0 158 -51 287.5t-150.5 224t-255.5 146.5t-356 52h-516v-1417z" />
    <glyph glyph-name="dcaron" unicode="&#x10f;" horiz-adv-x="1646" 
d="M756 -35q-178 0 -322 75.5t-227.5 212t-83.5 308.5q0 173 84.5 310.5t229.5 212.5t323 75q168 0 310.5 -71.5t227.5 -208.5h7v759h106v-1286q0 -129 10 -204t33 -148h-108q-37 121 -37 252h-6q-82 -138 -227.5 -212.5t-319.5 -74.5zM1665 1204h-78l139 244
q-36 9 -55.5 33.5t-19.5 56.5q0 38 32 65t78 27q44 0 76.5 -27t32.5 -65q0 -33 -37.5 -93t-167.5 -241zM762 49q146 0 270 64t198.5 183t74.5 267t-74.5 266.5t-198.5 182t-270 63.5q-226 0 -374 -146.5t-148 -367.5t149.5 -366.5t372.5 -145.5z" />
    <glyph glyph-name="Dcroat" unicode="&#x110;" horiz-adv-x="1984" 
d="M276 1597h654q187 0 339.5 -40.5t257 -112t176 -171.5t104 -216t32.5 -248q0 -178 -61 -327t-173 -256t-280 -166.5t-373 -59.5h-676v756h-192v84h192v757zM979 90q174 0 314 52t233.5 145.5t143.5 223.5t50 286q0 158 -51 287.5t-150.5 224t-255.5 146.5t-356 52h-516
v-667h715v-84h-715v-666h588z" />
    <glyph glyph-name="dcroat" unicode="&#x111;" horiz-adv-x="1646" 
d="M1731 1432v-84h-320v-996q0 -129 10 -204t33 -148h-108q-37 121 -37 252h-6q-82 -138 -227.5 -212.5t-319.5 -74.5q-178 0 -322 75.5t-227.5 212t-83.5 308.5q0 173 84.5 310.5t229.5 212.5t323 75q168 0 310.5 -71.5t227.5 -208.5h7v469h-357v84h357v206h106v-206h320z
M762 49q146 0 270 64t198.5 183t74.5 267t-74.5 266.5t-198.5 182t-270 63.5q-226 0 -374 -146.5t-148 -367.5t149.5 -366.5t372.5 -145.5z" />
    <glyph glyph-name="Emacron" unicode="&#x112;" horiz-adv-x="1624" 
d="M1212 1847h-774v88h774v-88zM1491 0h-1215v1597h1190v-90h-1075v-639h1026v-90h-1026v-682h1100v-96z" />
    <glyph glyph-name="emacron" unicode="&#x113;" horiz-adv-x="1525" 
d="M1180 1438h-826v88h826v-88zM780 -35q-187 0 -336 74.5t-234 211t-85 310.5q0 173 84.5 310t234 212.5t338.5 75.5q53 0 105.5 -6t114 -23t115 -43t104.5 -69.5t87.5 -99.5t58.5 -136t22 -176v-55h-1147q0 -225 151.5 -363.5t392.5 -138.5q191 0 327.5 90t203.5 230
l94 -27q-78 -181 -247 -279t-384 -98zM246 645h1024q0 93 -30 168t-78.5 123t-114 80t-132.5 45.5t-137 13.5q-214 0 -357.5 -118.5t-174.5 -311.5z" />
    <glyph glyph-name="Edotaccent" unicode="&#x116;" horiz-adv-x="1624" 
d="M825 1794q-47 0 -79.5 28.5t-32.5 69.5q0 39 32.5 67t79.5 28q46 0 78.5 -28.5t32.5 -66.5q0 -41 -32.5 -69.5t-78.5 -28.5zM1491 0h-1215v1597h1190v-90h-1075v-639h1026v-90h-1026v-682h1100v-96z" />
    <glyph glyph-name="edotaccent" unicode="&#x117;" horiz-adv-x="1525" 
d="M770 1446q-47 0 -80 28.5t-33 69.5q0 38 33 66t80 28q46 0 78.5 -28t32.5 -66q0 -41 -32.5 -69.5t-78.5 -28.5zM780 -35q-187 0 -336 74.5t-234 211t-85 310.5q0 173 84.5 310t234 212.5t338.5 75.5q53 0 105.5 -6t114 -23t115 -43t104.5 -69.5t87.5 -99.5t58.5 -136
t22 -176v-55h-1147q0 -225 151.5 -363.5t392.5 -138.5q191 0 327.5 90t203.5 230l94 -27q-78 -181 -247 -279t-384 -98zM246 645h1024q0 93 -30 168t-78.5 123t-114 80t-132.5 45.5t-137 13.5q-214 0 -357.5 -118.5t-174.5 -311.5z" />
    <glyph glyph-name="Eogonek" unicode="&#x118;" horiz-adv-x="1624" 
d="M1503 -389q45 0 105 14v-74q-66 -14 -109 -14q-136 0 -224.5 63t-88.5 169q0 133 188 231h-1098v1597h1190v-90h-1075v-639h1026v-90h-1026v-682h1100v-96q-213 -102 -213 -223q0 -75 65.5 -120.5t159.5 -45.5z" />
    <glyph glyph-name="eogonek" unicode="&#x119;" horiz-adv-x="1525" 
d="M1010 -2q-101 -50 -153 -103t-52 -118q0 -75 65.5 -120.5t159.5 -45.5q46 0 105 14v-74q-63 -14 -115 -14q-131 0 -219 62.5t-88 164.5q0 119 139 203q-25 -2 -72 -2q-187 0 -336 74.5t-234 211t-85 310.5q0 173 84.5 310t234 212.5t338.5 75.5q53 0 105.5 -6t114 -23
t115 -43t104.5 -69.5t87.5 -99.5t58.5 -136t22 -176v-55h-1147q0 -225 151.5 -363.5t392.5 -138.5q191 0 327.5 90t203.5 230l94 -27q-56 -130 -160 -217.5t-241 -126.5zM778 1075q-214 0 -357.5 -118.5t-174.5 -311.5h1024q0 93 -30 168t-78.5 123t-114 80t-132.5 45.5
t-137 13.5z" />
    <glyph glyph-name="Ecaron" unicode="&#x11a;" horiz-adv-x="1624" 
d="M1120 2013h101l-314 -293h-166l-313 293h100q200 -151 297 -233q115 97 295 233zM1491 0h-1215v1597h1190v-90h-1075v-639h1026v-90h-1026v-682h1100v-96z" />
    <glyph glyph-name="ecaron" unicode="&#x11b;" horiz-adv-x="1525" 
d="M852 1278h-170l-356 354h102q226 -184 340 -284q103 92 338 284h102zM780 -35q-187 0 -336 74.5t-234 211t-85 310.5q0 173 84.5 310t234 212.5t338.5 75.5q53 0 105.5 -6t114 -23t115 -43t104.5 -69.5t87.5 -99.5t58.5 -136t22 -176v-55h-1147q0 -225 151.5 -363.5
t392.5 -138.5q191 0 327.5 90t203.5 230l94 -27q-78 -181 -247 -279t-384 -98zM246 645h1024q0 93 -30 168t-78.5 123t-114 80t-132.5 45.5t-137 13.5q-214 0 -357.5 -118.5t-174.5 -311.5z" />
    <glyph glyph-name="Gbreve" unicode="&#x11e;" horiz-adv-x="2166" 
d="M1036 1729q-101 0 -186 29t-138.5 75.5t-84.5 100.5t-35 108h102q8 -88 107.5 -157.5t234.5 -69.5t233.5 69.5t106.5 157.5h103q-3 -53 -34 -107t-84.5 -100.5t-138.5 -76t-186 -29.5zM1094 -35q-274 0 -491.5 105t-339.5 294t-122 427q0 182 73.5 339.5t201 266.5
t302.5 171t374 62q131 0 256.5 -27t239 -80.5t202 -143.5t133.5 -205l-98 -37q-61 128 -175.5 219t-256 135.5t-299.5 44.5q-165 0 -314.5 -51t-264.5 -144t-183 -235.5t-68 -314.5q0 -142 47 -262.5t127.5 -206t188.5 -145.5t230 -89t251 -29q218 0 390.5 82t269 221.5
t108.5 313.5h-717v90h832v-766h-101v395h-12q-97 -204 -298 -317t-486 -113z" />
    <glyph glyph-name="gbreve" unicode="&#x11f;" horiz-adv-x="1644" 
d="M788 1278q-203 0 -319.5 111t-124.5 284h105q6 -140 98.5 -224.5t240.5 -84.5q144 0 238.5 83t101.5 226h105q-8 -173 -125.5 -284t-319.5 -111zM801 -483q-227 0 -377 79.5t-223 251.5l100 29q50 -129 174.5 -202.5t329.5 -73.5q77 0 144.5 13.5t134 49.5t113.5 93
t76.5 150.5t29.5 215.5v164h-7q-82 -138 -226 -212.5t-318 -74.5q-132 0 -248.5 44.5t-200.5 122t-133 186t-49 231.5q0 166 84.5 298t229.5 204.5t321 72.5q170 0 316 -73.5t231 -215.5h4v256h102v-979q0 -630 -608 -630zM760 84q146 0 270 64.5t198.5 180.5t74.5 257
t-74.5 254t-198.5 174t-270 61q-224 0 -373 -141.5t-149 -349.5q0 -211 150.5 -355.5t371.5 -144.5z" />
    <glyph glyph-name="Gdotaccent" unicode="&#x120;" horiz-adv-x="2166" 
d="M1036 1794q-47 0 -79.5 28.5t-32.5 69.5q0 39 32.5 67t79.5 28q46 0 78.5 -28.5t32.5 -66.5q0 -41 -32.5 -69.5t-78.5 -28.5zM1094 -35q-274 0 -491.5 105t-339.5 294t-122 427q0 182 73.5 339.5t201 266.5t302.5 171t374 62q131 0 256.5 -27t239 -80.5t202 -143.5
t133.5 -205l-98 -37q-61 128 -175.5 219t-256 135.5t-299.5 44.5q-165 0 -314.5 -51t-264.5 -144t-183 -235.5t-68 -314.5q0 -142 47 -262.5t127.5 -206t188.5 -145.5t230 -89t251 -29q218 0 390.5 82t269 221.5t108.5 313.5h-717v90h832v-766h-101v395h-12
q-97 -204 -298 -317t-486 -113z" />
    <glyph glyph-name="gdotaccent" unicode="&#x121;" horiz-adv-x="1644" 
d="M791 1446q-47 0 -80 28.5t-33 69.5q0 38 33 66t80 28q46 0 78 -28t32 -66q0 -41 -32 -69.5t-78 -28.5zM801 -483q-227 0 -377 79.5t-223 251.5l100 29q50 -129 174.5 -202.5t329.5 -73.5q77 0 144.5 13.5t134 49.5t113.5 93t76.5 150.5t29.5 215.5v164h-7
q-82 -138 -226 -212.5t-318 -74.5q-132 0 -248.5 44.5t-200.5 122t-133 186t-49 231.5q0 166 84.5 298t229.5 204.5t321 72.5q170 0 316 -73.5t231 -215.5h4v256h102v-979q0 -630 -608 -630zM760 84q146 0 270 64.5t198.5 180.5t74.5 257t-74.5 254t-198.5 174t-270 61
q-224 0 -373 -141.5t-149 -349.5q0 -211 150.5 -355.5t371.5 -144.5z" />
    <glyph glyph-name="uni0122" unicode="&#x122;" horiz-adv-x="2166" 
d="M1094 -35q-274 0 -491.5 105t-339.5 294t-122 427q0 182 73.5 339.5t201 266.5t302.5 171t374 62q131 0 256.5 -27t239 -80.5t202 -143.5t133.5 -205l-98 -37q-61 128 -175.5 219t-256 135.5t-299.5 44.5q-165 0 -314.5 -51t-264.5 -144t-183 -235.5t-68 -314.5
q0 -142 47 -262.5t127.5 -206t188.5 -145.5t230 -89t251 -29q218 0 390.5 82t269 221.5t108.5 313.5h-717v90h832v-766h-101v395h-12q-97 -204 -298 -317t-486 -113zM1004 -483h-54l107 182q-101 16 -101 90q0 38 32.5 65t78.5 27q44 0 76.5 -27t32.5 -65q0 -35 -33 -85.5
t-139 -186.5z" />
    <glyph glyph-name="uni0123" unicode="&#x123;" horiz-adv-x="1644" 
d="M645 1339q0 36 35.5 93t169.5 241h80l-142 -243q36 -9 56 -33.5t20 -57.5q0 -38 -32 -65t-78 -27q-44 0 -76.5 27t-32.5 65zM801 -483q-227 0 -377 79.5t-223 251.5l100 29q50 -129 174.5 -202.5t329.5 -73.5q77 0 144.5 13.5t134 49.5t113.5 93t76.5 150.5t29.5 215.5
v164h-7q-82 -138 -226 -212.5t-318 -74.5q-132 0 -248.5 44.5t-200.5 122t-133 186t-49 231.5q0 166 84.5 298t229.5 204.5t321 72.5q170 0 316 -73.5t231 -215.5h4v256h102v-979q0 -630 -608 -630zM760 84q146 0 270 64.5t198.5 180.5t74.5 257t-74.5 254t-198.5 174
t-270 61q-224 0 -373 -141.5t-149 -349.5q0 -211 150.5 -355.5t371.5 -144.5z" />
    <glyph glyph-name="Hbar" unicode="&#x126;" horiz-adv-x="1984" 
d="M1708 1270h162v-84h-162v-1186h-115v764h-1202v-764h-115v1186h-161v84h161v327h115v-327h1202v327h115v-327zM391 854h1202v332h-1202v-332z" />
    <glyph glyph-name="hbar" unicode="&#x127;" horiz-adv-x="1550" 
d="M836 1159q75 0 143 -13t135 -46t115 -83t78 -130t30 -182v-705h-106v664q0 93 -24.5 166t-64 118t-94 74.5t-110 41t-117.5 11.5q-92 0 -171.5 -26.5t-134.5 -70t-95 -100t-59 -116.5t-19 -119v-643h-106v1348h-218v84h218v206h106v-206h459v-84h-459v-453h6
q76 134 201.5 199t286.5 65z" />
    <glyph glyph-name="Imacron" unicode="&#x12a;" horiz-adv-x="667" 
d="M723 1847h-774v88h774v-88zM391 0h-115v1597h115v-1597z" />
    <glyph glyph-name="imacron" unicode="&#x12b;" horiz-adv-x="577" 
d="M700 1438h-825v88h825v-88zM342 0h-106v1126h106v-1126z" />
    <glyph glyph-name="Iogonek" unicode="&#x12e;" horiz-adv-x="667" 
d="M403 -389q45 0 105 14v-74q-66 -14 -109 -14q-136 0 -224.5 63t-88.5 169q0 133 188 231h2v1597h115v-1597q-213 -102 -213 -223q0 -75 65.5 -120.5t159.5 -45.5z" />
    <glyph glyph-name="iogonek" unicode="&#x12f;" horiz-adv-x="577" 
d="M291 1446q-47 0 -80 28.5t-33 69.5q0 38 33 66t80 28q46 0 78 -28t32 -66q0 -41 -32 -69.5t-78 -28.5zM356 -389q46 0 105 14v-74q-63 -14 -115 -14q-131 0 -219 62.5t-88 164.5q0 75 50.5 131t143.5 105h3v1126h106v-1126q-104 -50 -157.5 -103.5t-53.5 -119.5
q0 -75 65.5 -120.5t159.5 -45.5z" />
    <glyph glyph-name="Idotaccent" unicode="&#x130;" horiz-adv-x="667" 
d="M336 1794q-47 0 -80 28.5t-33 69.5q0 39 33 67t80 28q45 0 77.5 -28t32.5 -67q0 -41 -32 -69.5t-78 -28.5zM391 0h-115v1597h115v-1597z" />
    <glyph glyph-name="dotlessi" unicode="&#x131;" horiz-adv-x="577" 
d="M342 0h-106v1126h106v-1126z" />
    <glyph glyph-name="uni0136" unicode="&#x136;" horiz-adv-x="1601" 
d="M391 0h-115v1597h115v-903h4q97 90 195 178.5t220 196t187 165t220 193t196 170.5h139q-154 -135 -435.5 -384.5t-358.5 -317.5q141 -150 422.5 -447.5t421.5 -447.5h-140q-98 101 -144 148.5t-74.5 77.5t-175 182.5t-396.5 410.5q-151 -135 -281 -248v-571zM797 -483
h-54l107 182q-100 16 -100 90q0 38 32 65t78 27q44 0 76.5 -27t32.5 -65q0 -35 -33 -85.5t-139 -186.5z" />
    <glyph glyph-name="uni0137" unicode="&#x137;" horiz-adv-x="1241" 
d="M1157 1126l-514 -436l610 -690h-120l-566 623l-225 -191v-432h-106v1638h106v-1089h6l674 577h135zM666 -119q44 0 76 -27t32 -65q0 -35 -33 -85.5t-139 -186.5h-53l106 182q-100 16 -100 90q0 38 32.5 65t78.5 27z" />
    <glyph glyph-name="Lacute" unicode="&#x139;" horiz-adv-x="1456" 
d="M633 2034h188l-411 -314h-101zM391 1597v-1501h1026v-96h-1141v1597h115z" />
    <glyph glyph-name="lacute" unicode="&#x13a;" horiz-adv-x="577" 
d="M768 2075l-412 -314h-100l324 314h188zM342 0h-106v1638h106v-1638z" />
    <glyph glyph-name="uni013B" unicode="&#x13b;" horiz-adv-x="1456" 
d="M391 1597v-1501h1026v-96h-1141v1597h115zM778 -119q44 0 76.5 -27t32.5 -65q0 -35 -33 -85.5t-139 -186.5h-53l106 182q-100 16 -100 90q0 38 32 65t78 27z" />
    <glyph glyph-name="uni013C" unicode="&#x13c;" horiz-adv-x="577" 
d="M342 0h-106v1638h106v-1638zM231 -483h-53l107 182q-101 16 -101 90q0 38 32.5 65t78.5 27q44 0 76 -27t32 -65q0 -35 -33 -85.5t-139 -186.5z" />
    <glyph glyph-name="Lcaron" unicode="&#x13d;" horiz-adv-x="1456" 
d="M936 1204h-78l139 244q-36 9 -55.5 33.5t-19.5 56.5q0 38 32 65t78 27q44 0 76.5 -27t32.5 -65q0 -33 -37.5 -93t-167.5 -241zM391 1597v-1501h1026v-96h-1141v1597h115z" />
    <glyph glyph-name="lcaron" unicode="&#x13e;" horiz-adv-x="577" 
d="M342 0h-106v1638h106v-1638zM657 1204h-77l139 244q-36 9 -56 33.5t-20 56.5q0 38 32.5 65t78.5 27q44 0 76 -27t32 -65q0 -33 -37.5 -93t-167.5 -241z" />
    <glyph glyph-name="Lslash" unicode="&#x141;" horiz-adv-x="1456" 
d="M391 842v-746h1026v-96h-1141v797l-210 -82v88l210 82v712h115v-667l397 155v-88z" />
    <glyph glyph-name="lslash" unicode="&#x142;" horiz-adv-x="577" 
d="M342 999l242 146v-88l-242 -146v-911h-106v848l-248 -150v88l248 150v702h106v-639z" />
    <glyph glyph-name="Nacute" unicode="&#x143;" horiz-adv-x="2033" 
d="M1421 2034l-411 -314h-101l324 314h188zM391 0h-115v1597h130q916 -1073 1232 -1454h7v1454h112v-1597h-129q-139 162 -386 448t-456 529t-393 461h-2v-1438z" />
    <glyph glyph-name="nacute" unicode="&#x144;" horiz-adv-x="1550" 
d="M1188 1673l-373 -395h-96l303 395h166zM342 0h-106v1126h102v-231h4q78 135 207 199.5t289 64.5q76 0 144 -13t134 -46t114 -83t77.5 -130t29.5 -182v-705h-106v664q0 93 -24.5 166t-64 118t-94 74.5t-110 41t-117.5 11.5q-92 0 -171.5 -26t-134.5 -69.5t-95 -100
t-59 -116.5t-19 -120v-643z" />
    <glyph glyph-name="uni0145" unicode="&#x145;" horiz-adv-x="2033" 
d="M391 0h-115v1597h130q916 -1073 1232 -1454h7v1454h112v-1597h-129q-139 162 -386 448t-456 529t-393 461h-2v-1438zM985 -483h-53l106 182q-100 16 -100 90q0 38 32.5 65t78.5 27q44 0 76 -27t32 -65q0 -35 -33 -85.5t-139 -186.5z" />
    <glyph glyph-name="uni0146" unicode="&#x146;" horiz-adv-x="1550" 
d="M342 0h-106v1126h102v-231h4q78 135 207 199.5t289 64.5q76 0 144 -13t134 -46t114 -83t77.5 -130t29.5 -182v-705h-106v664q0 93 -24.5 166t-64 118t-94 74.5t-110 41t-117.5 11.5q-92 0 -171.5 -26t-134.5 -69.5t-95 -100t-59 -116.5t-19 -120v-643zM737 -483h-53
l107 182q-101 16 -101 90q0 38 32.5 65t78.5 27q44 0 76 -27t32 -65q0 -35 -33 -85.5t-139 -186.5z" />
    <glyph glyph-name="Ncaron" unicode="&#x147;" horiz-adv-x="2033" 
d="M1288 2013h101l-314 -293h-166l-313 293h100q200 -151 297 -233q115 97 295 233zM391 0h-115v1597h130q916 -1073 1232 -1454h7v1454h112v-1597h-129q-139 162 -386 448t-456 529t-393 461h-2v-1438z" />
    <glyph glyph-name="ncaron" unicode="&#x148;" horiz-adv-x="1550" 
d="M856 1278h-170l-356 354h102q226 -184 340 -284q103 92 338 284h102zM342 0h-106v1126h102v-231h4q78 135 207 199.5t289 64.5q76 0 144 -13t134 -46t114 -83t77.5 -130t29.5 -182v-705h-106v664q0 93 -24.5 166t-64 118t-94 74.5t-110 41t-117.5 11.5q-92 0 -171.5 -26
t-134.5 -69.5t-95 -100t-59 -116.5t-19 -120v-643z" />
    <glyph glyph-name="Eng" unicode="&#x14a;" horiz-adv-x="2033" 
d="M1307 -483q-146 0 -254 59v100q115 -69 239 -69q162 0 256 103.5t94 273.5q-31 37 -521 605.5t-730 852.5v-1442h-115v1597h130q916 -1073 1232 -1454h7v1454h112v-1536q0 -85 -11.5 -159t-43 -147t-80.5 -124t-129.5 -82.5t-185.5 -31.5z" />
    <glyph glyph-name="eng" unicode="&#x14b;" horiz-adv-x="1550" 
d="M979 -483q-149 0 -252 59v94q117 -69 236 -69q55 0 99 15.5t71.5 38t47.5 60.5t29.5 68.5t14.5 78.5t5.5 73t0.5 69v660q0 93 -24.5 166t-64 118t-94 74.5t-110 41t-117.5 11.5q-92 0 -171.5 -26t-134.5 -69.5t-95 -100t-59 -116.5t-19 -120v-643h-106v1126h102v-231h4
q78 135 207 199.5t289 64.5q75 0 143 -12.5t134.5 -44.5t114.5 -81t77.5 -127t29.5 -177v-731q0 -49 -1 -78t-7.5 -84.5t-19.5 -91t-39 -80.5t-63 -71.5t-95.5 -45t-132.5 -18.5z" />
    <glyph glyph-name="Omacron" unicode="&#x14c;" horiz-adv-x="2197" 
d="M1485 1847h-774v88h774v-88zM1098 -35q-194 0 -370 63.5t-305.5 172.5t-206.5 264.5t-77 331.5q0 175 76 330.5t205.5 265.5t306.5 173.5t373 63.5q199 0 377 -65.5t305.5 -177t201.5 -265.5t74 -325q0 -230 -128.5 -421.5t-349 -301t-482.5 -109.5zM1102 59
q164 0 315 56t264.5 152t181.5 234.5t68 295.5t-68 296t-181.5 235.5t-264.5 152t-315 55.5q-166 0 -319.5 -55.5t-268 -152t-183.5 -235.5t-69 -296t69 -295.5t183.5 -234.5t268 -152t319.5 -56z" />
    <glyph glyph-name="omacron" unicode="&#x14d;" horiz-adv-x="1587" 
d="M1206 1438h-825v88h825v-88zM795 -35q-295 0 -482.5 167t-187.5 429q0 174 85 310.5t238 212t347 75.5q145 0 269 -44t211.5 -122.5t137 -190t49.5 -241.5q0 -262 -187 -429t-480 -167zM795 49q245 0 398 143t153 369q0 227 -153 370.5t-398 143.5q-244 0 -398.5 -144
t-154.5 -370t154.5 -369t398.5 -143z" />
    <glyph glyph-name="Ohungarumlaut" unicode="&#x150;" horiz-adv-x="2197" 
d="M1264 2034l-324 -314h-100l254 314h170zM1597 2034l-348 -314h-102l278 314h172zM1098 -35q-194 0 -370 63.5t-305.5 172.5t-206.5 264.5t-77 331.5q0 175 76 330.5t205.5 265.5t306.5 173.5t373 63.5q199 0 377 -65.5t305.5 -177t201.5 -265.5t74 -325
q0 -230 -128.5 -421.5t-349 -301t-482.5 -109.5zM1102 59q164 0 315 56t264.5 152t181.5 234.5t68 295.5t-68 296t-181.5 235.5t-264.5 152t-315 55.5q-166 0 -319.5 -55.5t-268 -152t-183.5 -235.5t-69 -296t69 -295.5t183.5 -234.5t268 -152t319.5 -56z" />
    <glyph glyph-name="ohungarumlaut" unicode="&#x151;" horiz-adv-x="1587" 
d="M965 1673l-322 -395h-96l252 395h166zM1305 1673l-349 -395h-96l277 395h168zM795 -35q-295 0 -482.5 167t-187.5 429q0 174 85 310.5t238 212t347 75.5q145 0 269 -44t211.5 -122.5t137 -190t49.5 -241.5q0 -262 -187 -429t-480 -167zM795 49q245 0 398 143t153 369
q0 227 -153 370.5t-398 143.5q-244 0 -398.5 -144t-154.5 -370t154.5 -369t398.5 -143z" />
    <glyph glyph-name="OE" unicode="&#x152;" horiz-adv-x="3293" 
d="M1098 -35q-194 0 -370 63.5t-305.5 172.5t-206.5 264.5t-77 331.5q0 175 76.5 330.5t206 265.5t306.5 173.5t372 63.5q273 0 497 -115t349 -309v391h1189v-90h-1077v-639h1028v-90h-1028v-682h1102v-96h-1214v389q-126 -195 -351.5 -309.5t-496.5 -114.5zM1102 59
q164 0 315.5 56t265.5 152t182 234.5t68 295.5q0 126 -44 241.5t-122.5 205t-182 156t-227.5 101.5t-255 35q-166 0 -319.5 -55.5t-268 -152t-183.5 -235.5t-69 -296t69 -295.5t183.5 -234.5t268 -152t319.5 -56z" />
    <glyph glyph-name="oe" unicode="&#x153;" horiz-adv-x="2748" 
d="M795 -35q-295 0 -482.5 167t-187.5 429q0 174 85 310.5t238 212t347 75.5q212 0 373 -89t237 -243q77 154 236 243t366 89q52 0 104.5 -6t113.5 -23t114.5 -43t104.5 -69.5t87 -99.5t58 -136t22 -176v-45h-1149q0 -227 154 -369.5t395 -142.5q191 0 326.5 90t202.5 230
l94 -27q-79 -183 -248.5 -280t-382.5 -97q-208 0 -365 88t-233 242q-76 -153 -237.5 -241.5t-372.5 -88.5zM795 49q245 0 398 143t153 369q0 227 -153 370.5t-398 143.5q-244 0 -398.5 -144t-154.5 -370t154.5 -369t398.5 -143zM1470 645h1022q1 91 -28 165t-76.5 122.5
t-112.5 81.5t-133 47t-141 14q-214 0 -357.5 -118.5t-173.5 -311.5z" />
    <glyph glyph-name="Racute" unicode="&#x154;" horiz-adv-x="1695" 
d="M1225 2034l-412 -314h-100l323 314h189zM391 0h-115v1597h652q150 0 268.5 -35.5t194 -98.5t114.5 -146.5t39 -181.5q0 -203 -141.5 -334t-374.5 -144v-2q87 -109 263 -327t263 -328h-124l-531 655h-508v-655zM391 745h539q239 0 367 100.5t128 278.5q0 176 -140 279.5
t-380 103.5h-514v-762z" />
    <glyph glyph-name="racute" unicode="&#x155;" horiz-adv-x="989" 
d="M971 1673l-373 -395h-96l303 395h166zM342 0h-106v1126h102v-249h10q51 128 176.5 205t278.5 77q95 0 162 -22v-101q-73 29 -168 29q-134 0 -240 -70t-160.5 -179t-54.5 -234v-582z" />
    <glyph glyph-name="uni0156" unicode="&#x156;" horiz-adv-x="1695" 
d="M391 0h-115v1597h652q150 0 268.5 -35.5t194 -98.5t114.5 -146.5t39 -181.5q0 -203 -141.5 -334t-374.5 -144v-2q87 -109 263 -327t263 -328h-124l-531 655h-508v-655zM391 745h539q239 0 367 100.5t128 278.5q0 176 -140 279.5t-380 103.5h-514v-762zM813 -483h-53
l106 182q-100 16 -100 90q0 38 32.5 65t78.5 27q44 0 76 -27t32 -65q0 -35 -33 -85.5t-139 -186.5z" />
    <glyph glyph-name="uni0157" unicode="&#x157;" horiz-adv-x="989" 
d="M342 0h-106v1126h102v-249h10q51 128 176.5 205t278.5 77q95 0 162 -22v-101q-73 29 -168 29q-134 0 -240 -70t-160.5 -179t-54.5 -234v-582zM221 -483h-53l106 182q-100 16 -100 90q0 38 32.5 65t78.5 27q44 0 76 -27t32 -65q0 -35 -33 -85.5t-139 -186.5z" />
    <glyph glyph-name="Rcaron" unicode="&#x158;" horiz-adv-x="1695" 
d="M1092 2013h100l-313 -293h-166l-314 293h101q200 -151 297 -233q115 97 295 233zM391 0h-115v1597h652q150 0 268.5 -35.5t194 -98.5t114.5 -146.5t39 -181.5q0 -203 -141.5 -334t-374.5 -144v-2q87 -109 263 -327t263 -328h-124l-531 655h-508v-655zM391 745h539
q239 0 367 100.5t128 278.5q0 176 -140 279.5t-380 103.5h-514v-762z" />
    <glyph glyph-name="rcaron" unicode="&#x159;" horiz-adv-x="989" 
d="M639 1278h-170l-356 354h102q226 -184 340 -284q103 92 338 284h102zM342 0h-106v1126h102v-249h10q51 128 176.5 205t278.5 77q95 0 162 -22v-101q-73 29 -168 29q-134 0 -240 -70t-160.5 -179t-54.5 -234v-582z" />
    <glyph glyph-name="Sacute" unicode="&#x15a;" horiz-adv-x="1576" 
d="M1137 2034l-412 -314h-100l323 314h189zM813 -35q-67 0 -133.5 9.5t-137 30.5t-135 58t-122 87t-104 122t-75.5 160l105 35q62 -193 226.5 -300.5t379.5 -107.5q71 0 141 11.5t137 38.5t117.5 65.5t81.5 97.5t31 131q0 52 -15 94t-46 72.5t-64 52.5t-84 40t-88.5 29
t-94.5 25q-30 7 -44 11l-180 47q-52 14 -86.5 24t-96 32t-103 44t-92.5 58t-81.5 75t-52 93.5t-21.5 116.5q0 83 35.5 152t95 116.5t138.5 81t164.5 48.5t174.5 15q142 0 264 -40.5t218 -129t141 -215.5l-100 -37q-56 150 -200.5 239t-342.5 89q-197 0 -334 -85.5
t-137 -225.5q0 -37 11 -71t27.5 -60.5t44 -51.5t52 -43t60.5 -36t61 -28.5t62 -22.5t54.5 -17t46.5 -13q8 -2 11 -3l182 -50q186 -50 231 -65q214 -74 280 -199q34 -64 34 -145q0 -103 -54 -190.5t-143.5 -144.5t-203.5 -88.5t-236 -31.5z" />
    <glyph glyph-name="sacute" unicode="&#x15b;" horiz-adv-x="1202" 
d="M1016 1673l-373 -395h-96l303 395h166zM637 -35q-189 0 -339.5 87.5t-207.5 228.5l100 28q54 -113 181 -186.5t268 -73.5q40 0 83.5 7t92 24t86 42.5t62 67.5t24.5 93q0 31 -10.5 57t-25.5 45t-41.5 36t-50 28t-60 22.5t-61.5 17.5t-64 15l-127 28q-148 35 -223 75
q-169 91 -170 249q0 77 40.5 137.5t105 95t136.5 52.5t144 18q161 0 290.5 -77.5t176.5 -194.5l-107 -33q-40 93 -140.5 157t-238.5 64q-129 0 -213 -57t-84 -152q0 -46 23 -84.5t55 -63t83 -46.5t88 -33t89 -23l137 -32q31 -8 41.5 -10.5t44 -11.5t49 -15.5t46.5 -18
t47.5 -23t41 -28t38 -34.5t27.5 -40t20 -48.5t6 -55.5q0 -139 -132 -236.5t-331 -97.5z" />
    <glyph glyph-name="Scedilla" unicode="&#x15e;" horiz-adv-x="1576" 
d="M1450 420q0 -100 -51 -185.5t-137 -143t-195.5 -90.5t-228.5 -36l-115 -137q42 20 113 20q94 0 154.5 -43t60.5 -112q0 -77 -72.5 -126.5t-181.5 -49.5q-81 0 -159.5 29t-131.5 77l55 43q38 -40 102 -65t128 -25q73 0 123.5 32t50.5 81q0 45 -45 74.5t-113 29.5
q-66 0 -119 -24l-55 47l119 151q-77 5 -150.5 22t-150 52.5t-140.5 86.5t-118.5 129t-86.5 175l105 35q62 -193 226.5 -300.5t379.5 -107.5q71 0 141 11.5t137 38.5t117.5 65.5t81.5 97.5t31 131q0 52 -15 94t-46 72.5t-64 52.5t-84 40t-88.5 29t-94.5 25q-30 7 -44 11
l-180 47q-52 14 -86.5 24t-96 32t-103 44t-92.5 58t-81.5 75t-52 93.5t-21.5 116.5q0 83 35.5 152t95 116.5t138.5 81t164.5 48.5t174.5 15q142 0 264 -40.5t218 -129t141 -215.5l-100 -37q-56 150 -200.5 239t-342.5 89q-197 0 -334 -85.5t-137 -225.5q0 -37 11 -71
t27.5 -60.5t44 -51.5t52 -43t60.5 -36t61 -28.5t62 -22.5t54.5 -17t46.5 -13q8 -2 11 -3l182 -50q186 -50 231 -65q214 -74 280 -199q34 -64 34 -145z" />
    <glyph glyph-name="scedilla" unicode="&#x15f;" horiz-adv-x="1202" 
d="M1100 299q0 -135 -125 -231.5t-318 -102.5l-114 -137q42 20 112 20q94 0 154.5 -43t60.5 -112q0 -77 -72.5 -126.5t-181.5 -49.5q-81 0 -159 29t-131 77l55 43q38 -40 101.5 -65t127.5 -25q73 0 123.5 32t50.5 81q0 46 -44.5 75t-112.5 29q-66 0 -119 -24l-55 47l120 151
q-169 15 -300 100t-183 214l100 28q54 -113 181 -186.5t268 -73.5q40 0 83.5 7t92 24t86 42.5t62 67.5t24.5 93q0 31 -10.5 57t-25.5 45t-41.5 36t-50 28t-60 22.5t-61.5 17.5t-64 15l-127 28q-148 35 -223 75q-169 91 -170 249q0 77 40.5 137.5t105 95t136.5 52.5t144 18
q161 0 290.5 -77.5t176.5 -194.5l-107 -33q-40 93 -140.5 157t-238.5 64q-129 0 -213 -57t-84 -152q0 -46 23 -84.5t55 -63t83 -46.5t88 -33t89 -23l137 -32q31 -8 41.5 -10.5t44 -11.5t49 -15.5t46.5 -18t47.5 -23t41 -28t38 -34.5t27.5 -40t20 -48.5t6 -55.5z" />
    <glyph glyph-name="Scaron" unicode="&#x160;" horiz-adv-x="1576" 
d="M1075 2013h101l-314 -293h-166l-313 293h100q200 -151 297 -233q115 97 295 233zM813 -35q-67 0 -133.5 9.5t-137 30.5t-135 58t-122 87t-104 122t-75.5 160l105 35q62 -193 226.5 -300.5t379.5 -107.5q71 0 141 11.5t137 38.5t117.5 65.5t81.5 97.5t31 131q0 52 -15 94
t-46 72.5t-64 52.5t-84 40t-88.5 29t-94.5 25q-30 7 -44 11l-180 47q-52 14 -86.5 24t-96 32t-103 44t-92.5 58t-81.5 75t-52 93.5t-21.5 116.5q0 83 35.5 152t95 116.5t138.5 81t164.5 48.5t174.5 15q142 0 264 -40.5t218 -129t141 -215.5l-100 -37q-56 150 -200.5 239
t-342.5 89q-197 0 -334 -85.5t-137 -225.5q0 -37 11 -71t27.5 -60.5t44 -51.5t52 -43t60.5 -36t61 -28.5t62 -22.5t54.5 -17t46.5 -13q8 -2 11 -3l182 -50q186 -50 231 -65q214 -74 280 -199q34 -64 34 -145q0 -103 -54 -190.5t-143.5 -144.5t-203.5 -88.5t-236 -31.5z" />
    <glyph glyph-name="scaron" unicode="&#x161;" horiz-adv-x="1202" 
d="M684 1278h-170l-356 354h102q226 -184 340 -284q103 92 338 284h102zM637 -35q-189 0 -339.5 87.5t-207.5 228.5l100 28q54 -113 181 -186.5t268 -73.5q40 0 83.5 7t92 24t86 42.5t62 67.5t24.5 93q0 31 -10.5 57t-25.5 45t-41.5 36t-50 28t-60 22.5t-61.5 17.5t-64 15
l-127 28q-148 35 -223 75q-169 91 -170 249q0 77 40.5 137.5t105 95t136.5 52.5t144 18q161 0 290.5 -77.5t176.5 -194.5l-107 -33q-40 93 -140.5 157t-238.5 64q-129 0 -213 -57t-84 -152q0 -46 23 -84.5t55 -63t83 -46.5t88 -33t89 -23l137 -32q31 -8 41.5 -10.5t44 -11.5
t49 -15.5t46.5 -18t47.5 -23t41 -28t38 -34.5t27.5 -40t20 -48.5t6 -55.5q0 -139 -132 -236.5t-331 -97.5z" />
    <glyph glyph-name="uni0162" unicode="&#x162;" horiz-adv-x="1554" 
d="M834 0h-15l-143 -172q42 20 112 20q94 0 155 -43t61 -112q0 -77 -72.5 -126.5t-181.5 -49.5q-81 0 -159.5 29t-131.5 77l55 43q38 -40 101.5 -65t127.5 -25q73 0 124 32t51 81q0 45 -45 74.5t-113 29.5q-66 0 -119 -24l-55 47l145 184h-10v1507h-682v90h1477v-90h-682
v-1507z" />
    <glyph glyph-name="uni0163" unicode="&#x163;" horiz-adv-x="888" 
d="M836 1126v-82h-430v-692v-46t2 -45.5t5 -47t9.5 -42t16 -40.5t24.5 -32.5t34 -27t45 -16t58 -6.5q114 0 236 70v-94q-108 -60 -248 -60q-33 0 -47 2l-117 -139q42 20 113 20q94 0 154.5 -43t60.5 -112q0 -77 -72.5 -126.5t-181.5 -49.5q-81 0 -159.5 29t-131.5 77l55 43
q38 -40 102 -65t128 -25q73 0 123.5 32t50.5 81q0 45 -45 74.5t-113 29.5q-66 0 -119 -24l-55 47l131 168q-34 11 -61 31t-44.5 41.5t-29.5 53t-18 55t-9 59.5t-3.5 55t-0.5 53v712h-270v82h270v340h107v-340h430z" />
    <glyph glyph-name="Tcaron" unicode="&#x164;" horiz-adv-x="1554" 
d="M1073 2013h101l-314 -293h-166l-313 293h100q200 -151 297 -233q115 97 295 233zM834 0h-113v1507h-682v90h1477v-90h-682v-1507z" />
    <glyph glyph-name="tcaron" unicode="&#x165;" horiz-adv-x="888" 
d="M864 1204h-78l140 244q-36 9 -56 33.5t-20 56.5q0 38 32.5 65t78.5 27q44 0 76 -27t32 -65q0 -33 -37.5 -93t-167.5 -241zM588 -35q-47 0 -86 8.5t-67 21.5t-50 35.5t-36.5 42.5t-24.5 51t-14.5 52.5t-7 55.5t-3 51.5t-0.5 48.5v712h-270v82h270v340h107v-340h430v-82
h-430v-692v-46t2 -45.5t5 -47t9.5 -42t16 -40.5t24.5 -32.5t34 -27t45 -16t58 -6.5q114 0 236 70v-94q-108 -60 -248 -60z" />
    <glyph glyph-name="Tbar" unicode="&#x166;" horiz-adv-x="1554" 
d="M1516 1597v-90h-682v-667h454v-84h-454v-756h-113v756h-455v84h455v667h-682v90h1477z" />
    <glyph glyph-name="tbar" unicode="&#x167;" horiz-adv-x="888" 
d="M836 1126v-82h-430v-358h407v-84h-407v-250v-46t2 -45.5t5 -47t9.5 -42t16 -40.5t24.5 -32.5t34 -27t45 -16t58 -6.5q114 0 236 70v-94q-108 -60 -248 -60q-47 0 -86 8.5t-67 21.5t-50 35.5t-36.5 42.5t-24.5 51t-14.5 52.5t-7 55.5t-3 51.5t-0.5 48.5v270h-268v84h268
v358h-270v82h270v340h107v-340h430z" />
    <glyph glyph-name="Umacron" unicode="&#x16a;" horiz-adv-x="1853" 
d="M1313 1847h-774v88h774v-88zM920 -35q-117 0 -216 21t-183.5 67.5t-143.5 116t-92 170t-33 225.5v1032h115v-1028q0 -137 41 -238t117 -160.5t175.5 -87.5t225.5 -28q127 0 227 28t176 87.5t117 160.5t41 238v1028h115v-1032q0 -280 -177.5 -440t-504.5 -160z" />
    <glyph glyph-name="umacron" unicode="&#x16b;" horiz-adv-x="1527" 
d="M1145 1438h-826v88h826v-88zM698 -35q-70 0 -135 13t-130 46t-112.5 83t-77.5 130.5t-30 182.5v706h106v-665q0 -115 36.5 -199t97.5 -128.5t128 -64.5t142 -20q108 0 198 40t146 103.5t86.5 138.5t30.5 150v645h106v-774q0 -122 10 -197t35 -155h-110q-37 121 -37 229
h-4q-79 -136 -205.5 -200t-280.5 -64z" />
    <glyph glyph-name="Uring" unicode="&#x16e;" horiz-adv-x="1853" 
d="M926 1716q-113 0 -186.5 60t-73.5 153q0 91 73.5 150t186.5 59q109 0 182.5 -59.5t73.5 -149.5q0 -93 -73 -153t-183 -60zM926 1794q72 0 120 36.5t48 98.5q0 60 -48.5 95.5t-119.5 35.5q-74 0 -123 -35.5t-49 -95.5q0 -63 49 -99t123 -36zM920 -35q-117 0 -216 21
t-183.5 67.5t-143.5 116t-92 170t-33 225.5v1032h115v-1028q0 -137 41 -238t117 -160.5t175.5 -87.5t225.5 -28q127 0 227 28t176 87.5t117 160.5t41 238v1028h115v-1032q0 -280 -177.5 -440t-504.5 -160z" />
    <glyph glyph-name="uring" unicode="&#x16f;" horiz-adv-x="1527" 
d="M733 1245q-113 0 -186.5 60t-73.5 153q0 91 73.5 150t186.5 59q109 0 182.5 -59.5t73.5 -149.5q0 -93 -73 -153t-183 -60zM733 1323q72 0 120 36.5t48 98.5q0 60 -48.5 95.5t-119.5 35.5q-74 0 -123 -35.5t-49 -95.5q0 -63 49 -99t123 -36zM698 -35q-70 0 -135 13
t-130 46t-112.5 83t-77.5 130.5t-30 182.5v706h106v-665q0 -115 36.5 -199t97.5 -128.5t128 -64.5t142 -20q108 0 198 40t146 103.5t86.5 138.5t30.5 150v645h106v-774q0 -122 10 -197t35 -155h-110q-37 121 -37 229h-4q-79 -136 -205.5 -200t-280.5 -64z" />
    <glyph glyph-name="Uhungarumlaut" unicode="&#x170;" horiz-adv-x="1853" 
d="M1092 2034l-324 -314h-100l254 314h170zM1425 2034l-348 -314h-102l278 314h172zM920 -35q-117 0 -216 21t-183.5 67.5t-143.5 116t-92 170t-33 225.5v1032h115v-1028q0 -137 41 -238t117 -160.5t175.5 -87.5t225.5 -28q127 0 227 28t176 87.5t117 160.5t41 238v1028h115
v-1032q0 -280 -177.5 -440t-504.5 -160z" />
    <glyph glyph-name="uhungarumlaut" unicode="&#x171;" horiz-adv-x="1527" 
d="M903 1673l-321 -395h-97l252 395h166zM1243 1673l-348 -395h-96l276 395h168zM698 -35q-70 0 -135 13t-130 46t-112.5 83t-77.5 130.5t-30 182.5v706h106v-665q0 -115 36.5 -199t97.5 -128.5t128 -64.5t142 -20q108 0 198 40t146 103.5t86.5 138.5t30.5 150v645h106v-774
q0 -122 10 -197t35 -155h-110q-37 121 -37 229h-4q-79 -136 -205.5 -200t-280.5 -64z" />
    <glyph glyph-name="Uogonek" unicode="&#x172;" horiz-adv-x="1853" 
d="M1487 569v1028h115v-1032q0 -256 -148.5 -412t-425.5 -184q-156 -89 -156 -192q0 -75 66 -120.5t160 -45.5q44 0 104 14v-74q-66 -14 -108 -14q-136 0 -225 63t-89 169q0 111 129 196q-144 2 -261.5 37t-207 105.5t-139 187t-49.5 270.5v1032h115v-1028q0 -137 41 -238
t117 -160.5t175.5 -87.5t225.5 -28q127 0 227 28t176 87.5t117 160.5t41 238z" />
    <glyph glyph-name="uogonek" unicode="&#x173;" horiz-adv-x="1527" 
d="M1348 -389q44 0 104 14v-74q-63 -14 -115 -14q-131 0 -219 62.5t-88 164.5q0 75 51 131t144 105q-37 121 -37 229h-4q-79 -136 -205.5 -200t-280.5 -64q-70 0 -135 13t-130 46t-112.5 83t-77.5 130.5t-30 182.5v706h106v-665q0 -115 36.5 -199t97.5 -128.5t128 -64.5
t142 -20q108 0 198 40t146 103.5t86.5 138.5t30.5 150v645h106v-774q0 -122 10 -197t35 -155h-2q-104 -50 -157.5 -103.5t-53.5 -119.5q0 -75 66 -120.5t160 -45.5z" />
    <glyph glyph-name="Wcircumflex" unicode="&#x174;" horiz-adv-x="2777" 
d="M1470 2013l314 -293h-101q-169 128 -294 234q-130 -108 -297 -234h-101l314 293h165zM825 0h-131l-641 1597h115q357 -853 594 -1472h4q67 176 261 684.5t298 787.5h125q94 -246 283.5 -736t283.5 -736h6q358 925 586 1472h115l-641 -1597h-133q-228 567 -559 1466h-5
q-368 -997 -561 -1466z" />
    <glyph glyph-name="wcircumflex" unicode="&#x175;" horiz-adv-x="2209" 
d="M762 1278h-103l357 354h170l356 -354h-102q-216 177 -338 285q-207 -179 -340 -285zM659 0h-100l-506 1126h115l442 -993h6l431 993h118l445 -993h6l426 993h115l-504 -1126h-101q-293 652 -444 1026h-6q-166 -415 -443 -1026z" />
    <glyph glyph-name="Ycircumflex" unicode="&#x176;" horiz-adv-x="1681" 
d="M924 2013l313 -293h-100q-178 134 -295 234q-130 -108 -297 -234h-101l314 293h166zM897 0h-113v596q-121 167 -363.5 500.5t-363.5 500.5h125l658 -909h4q64 88 183 251t478 658h121l-729 -1001v-596z" />
    <glyph glyph-name="ycircumflex" unicode="&#x177;" horiz-adv-x="1302" 
d="M293 1278h-103l357 354h170l356 -354h-102q-216 177 -338 285q-207 -179 -340 -285zM479 -451h-88l213 445l-557 1132h117q95 -191 263.5 -544t223.5 -467h4q50 104 220 462.5t264 548.5h116z" />
    <glyph glyph-name="Ydieresis" unicode="&#x178;" horiz-adv-x="1681" 
d="M616 1800q-43 0 -73.5 27t-30.5 65q0 35 30.5 61.5t73.5 26.5q44 0 74.5 -26t30.5 -62q0 -38 -30.5 -65t-74.5 -27zM1067 1800q-45 0 -75.5 26.5t-30.5 65.5q0 36 30.5 62t75.5 26q41 0 71.5 -26.5t30.5 -61.5q0 -38 -30 -65t-72 -27zM897 0h-113v596
q-121 167 -363.5 500.5t-363.5 500.5h125l658 -909h4q64 88 183 251t478 658h121l-729 -1001v-596z" />
    <glyph glyph-name="Zacute" unicode="&#x179;" horiz-adv-x="1605" 
d="M1188 2034l-412 -314h-100l323 314h189zM1530 0h-1458v102q526 568 1300 1401v4h-1249v90h1386v-96q-1210 -1302 -1302 -1401v-4h1323v-96z" />
    <glyph glyph-name="zacute" unicode="&#x17a;" horiz-adv-x="1161" 
d="M997 1673l-372 -395h-97l303 395h166zM1102 0h-1034v66l831 974h-778v86h923v-65l-835 -975h893v-86z" />
    <glyph glyph-name="Zdotaccent" unicode="&#x17b;" horiz-adv-x="1605" 
d="M786 1794q-47 0 -79.5 28.5t-32.5 69.5q0 39 32.5 67t79.5 28q46 0 78.5 -28.5t32.5 -66.5q0 -41 -32.5 -69.5t-78.5 -28.5zM1530 0h-1458v102q526 568 1300 1401v4h-1249v90h1386v-96q-1210 -1302 -1302 -1401v-4h1323v-96z" />
    <glyph glyph-name="zdotaccent" unicode="&#x17c;" horiz-adv-x="1161" 
d="M584 1446q-47 0 -80 28.5t-33 69.5q0 38 33 66t80 28q46 0 78 -28t32 -66q0 -41 -32 -69.5t-78 -28.5zM1102 0h-1034v66l831 974h-778v86h923v-65l-835 -975h893v-86z" />
    <glyph glyph-name="Zcaron" unicode="&#x17d;" horiz-adv-x="1605" 
d="M1055 2013h100l-313 -293h-166l-314 293h101q200 -151 297 -233q115 97 295 233zM1530 0h-1458v102q526 568 1300 1401v4h-1249v90h1386v-96q-1210 -1302 -1302 -1401v-4h1323v-96z" />
    <glyph glyph-name="zcaron" unicode="&#x17e;" horiz-adv-x="1161" 
d="M666 1278h-170l-357 354h103q226 -184 340 -284q103 92 338 284h102zM1102 0h-1034v66l831 974h-778v86h923v-65l-835 -975h893v-86z" />
    <glyph glyph-name="uni0218" unicode="&#x218;" horiz-adv-x="1576" 
d="M813 -35q-67 0 -133.5 9.5t-137 30.5t-135 58t-122 87t-104 122t-75.5 160l105 35q62 -193 226.5 -300.5t379.5 -107.5q71 0 141 11.5t137 38.5t117.5 65.5t81.5 97.5t31 131q0 52 -15 94t-46 72.5t-64 52.5t-84 40t-88.5 29t-94.5 25q-30 7 -44 11l-180 47
q-52 14 -86.5 24t-96 32t-103 44t-92.5 58t-81.5 75t-52 93.5t-21.5 116.5q0 83 35.5 152t95 116.5t138.5 81t164.5 48.5t174.5 15q142 0 264 -40.5t218 -129t141 -215.5l-100 -37q-56 150 -200.5 239t-342.5 89q-197 0 -334 -85.5t-137 -225.5q0 -37 11 -71t27.5 -60.5
t44 -51.5t52 -43t60.5 -36t61 -28.5t62 -22.5t54.5 -17t46.5 -13q8 -2 11 -3l182 -50q186 -50 231 -65q214 -74 280 -199q34 -64 34 -145q0 -103 -54 -190.5t-143.5 -144.5t-203.5 -88.5t-236 -31.5zM748 -483h-54l107 182q-101 16 -101 90q0 38 32.5 65t78.5 27
q44 0 76.5 -27t32.5 -65q0 -35 -33 -85.5t-139 -186.5z" />
    <glyph glyph-name="uni0219" unicode="&#x219;" horiz-adv-x="1202" 
d="M637 -35q-189 0 -339.5 87.5t-207.5 228.5l100 28q54 -113 181 -186.5t268 -73.5q40 0 83.5 7t92 24t86 42.5t62 67.5t24.5 93q0 31 -10.5 57t-25.5 45t-41.5 36t-50 28t-60 22.5t-61.5 17.5t-64 15l-127 28q-148 35 -223 75q-169 91 -170 249q0 77 40.5 137.5t105 95
t136.5 52.5t144 18q161 0 290.5 -77.5t176.5 -194.5l-107 -33q-40 93 -140.5 157t-238.5 64q-129 0 -213 -57t-84 -152q0 -46 23 -84.5t55 -63t83 -46.5t88 -33t89 -23l137 -32q31 -8 41.5 -10.5t44 -11.5t49 -15.5t46.5 -18t47.5 -23t41 -28t38 -34.5t27.5 -40t20 -48.5
t6 -55.5q0 -139 -132 -236.5t-331 -97.5zM567 -483h-53l107 182q-101 16 -101 90q0 38 32.5 65t78.5 27q44 0 76 -27t32 -65q0 -35 -33 -85.5t-139 -186.5z" />
    <glyph glyph-name="uni021A" unicode="&#x21a;" horiz-adv-x="1554" 
d="M834 0h-113v1507h-682v90h1477v-90h-682v-1507zM700 -483h-53l107 182q-101 16 -101 90q0 38 32.5 65t78.5 27q44 0 76 -27t32 -65q0 -35 -33 -85.5t-139 -186.5z" />
    <glyph glyph-name="uni021B" unicode="&#x21b;" horiz-adv-x="888" 
d="M588 -35q-47 0 -86 8.5t-67 21.5t-50 35.5t-36.5 42.5t-24.5 51t-14.5 52.5t-7 55.5t-3 51.5t-0.5 48.5v712h-270v82h270v340h107v-340h430v-82h-430v-692v-46t2 -45.5t5 -47t9.5 -42t16 -40.5t24.5 -32.5t34 -27t45 -16t58 -6.5q114 0 236 70v-94q-108 -60 -248 -60z
M449 -483h-54l107 182q-101 16 -101 90q0 38 32.5 65t78.5 27q44 0 76.5 -27t32.5 -65q0 -35 -33 -85.5t-139 -186.5z" />
    <glyph glyph-name="gravecomb" unicode="&#x300;" horiz-adv-x="0" 
d="M-135 1278h-96l-373 395h166z" />
    <glyph glyph-name="acutecomb" unicode="&#x301;" horiz-adv-x="0" 
d="M141 1673l-372 -395h-97l303 395h166z" />
    <glyph glyph-name="uni0302" unicode="&#x302;" horiz-adv-x="0" 
d="M-819 1278h-103l357 354h170l356 -354h-102q-216 177 -338 285q-207 -179 -340 -285z" />
    <glyph glyph-name="tildecomb" unicode="&#x303;" horiz-adv-x="0" 
d="M-381 1343q-23 0 -42.5 2t-37 8t-29.5 10t-28 14t-22.5 14.5t-24 17.5t-21.5 16l-41 31q-26 19 -40.5 28.5t-38 18t-48.5 8.5q-60 0 -99.5 -43.5t-39.5 -109.5h-86q1 101 67 165t167 64q53 0 91.5 -18t84.5 -53l49 -37q80 -62 147 -62q61 0 96 44t35 112h88
q0 -103 -60.5 -166.5t-166.5 -63.5z" />
    <glyph glyph-name="uni0304" unicode="&#x304;" horiz-adv-x="0" 
d="M-109 1438h-825v88h825v-88z" />
    <glyph glyph-name="uni0306" unicode="&#x306;" horiz-adv-x="0" 
d="M-481 1278q-203 0 -320 111t-125 284h105q6 -140 99 -224.5t241 -84.5q144 0 238.5 83t101.5 226h104q-8 -173 -125 -284t-319 -111z" />
    <glyph glyph-name="uni0307" unicode="&#x307;" horiz-adv-x="0" 
d="M-295 1446q-47 0 -80 28.5t-33 69.5q0 38 33 66t80 28q46 0 78.5 -28t32.5 -66q0 -41 -32.5 -69.5t-78.5 -28.5z" />
    <glyph glyph-name="uni0308" unicode="&#x308;" horiz-adv-x="0" 
d="M-1032 1391q-44 0 -75.5 27t-31.5 65q0 36 31.5 62t75.5 26q43 0 72.5 -26t29.5 -62q0 -39 -29 -65.5t-73 -26.5zM-635 1391q-45 0 -74.5 26.5t-29.5 65.5q0 36 29.5 62t74.5 26q43 0 74 -26.5t31 -61.5q0 -38 -31 -65t-74 -27z" />
    <glyph glyph-name="uni030A" unicode="&#x30a;" horiz-adv-x="0" 
d="M-274 1245q-113 0 -187 60t-74 153q0 91 74 150t187 59q109 0 182.5 -59.5t73.5 -149.5q0 -93 -73 -153t-183 -60zM-274 1323q72 0 120 36.5t48 98.5q0 60 -48.5 95.5t-119.5 35.5q-74 0 -123 -35.5t-49 -95.5q0 -63 49 -99t123 -36z" />
    <glyph glyph-name="uni030B" unicode="&#x30b;" horiz-adv-x="0" 
d="M-100 1673l-322 -395h-96l252 395h166zM240 1673l-349 -395h-96l277 395h168z" />
    <glyph glyph-name="uni030C" unicode="&#x30c;" horiz-adv-x="0" 
d="M-395 1278h-170l-357 354h103q226 -184 340 -284q103 92 338 284h102z" />
    <glyph glyph-name="uni0312" unicode="&#x312;" horiz-adv-x="0" 
d="M-518 1339q0 36 35.5 93t169.5 241h80l-142 -243q36 -9 56 -33.5t20 -57.5q0 -38 -32.5 -65t-78.5 -27q-44 0 -76 27t-32 65z" />
    <glyph glyph-name="uni0326" unicode="&#x326;" horiz-adv-x="0" 
d="M-403 -483h-54l107 182q-101 16 -101 90q0 38 32.5 65t78.5 27q44 0 76.5 -27t32.5 -65q0 -35 -33 -85.5t-139 -186.5z" />
    <glyph glyph-name="uni0327" unicode="&#x327;" horiz-adv-x="0" 
d="M-768 -483q-81 0 -159.5 29t-131.5 77l55 43q38 -40 102 -65t128 -25q73 0 123.5 32t50.5 81q0 45 -45 74.5t-113 29.5q-66 0 -119 -24l-55 47l146 184h88l-144 -172q42 20 113 20q94 0 154.5 -43t60.5 -112q0 -77 -72.5 -126.5t-181.5 -49.5z" />
    <glyph glyph-name="uni0328" unicode="&#x328;" horiz-adv-x="0" 
d="M-772 -483q-131 0 -219 62.5t-88 164.5q0 75 50.5 131t143.5 105h109q-104 -50 -157.5 -104t-53.5 -120q0 -75 65.5 -120.5t159.5 -45.5q41 0 105 15v-74q-63 -14 -115 -14z" />
    <glyph glyph-name="uni0335" unicode="&#x335;" horiz-adv-x="0" 
d="M-854 604h782v-84h-782v84z" />
    <glyph glyph-name="uni0337" unicode="&#x337;" horiz-adv-x="0" 
d="M-563 547v88l596 358v-88z" />
    <glyph glyph-name="uni0338" unicode="&#x338;" horiz-adv-x="0" 
d="M-1251 -55h-123l1100 1235h116z" />
    <glyph glyph-name="Wgrave" unicode="&#x1e80;" horiz-adv-x="2777" 
d="M1473 1720h-101l-411 314h188zM825 0h-131l-641 1597h115q357 -853 594 -1472h4q67 176 261 684.5t298 787.5h125q94 -246 283.5 -736t283.5 -736h6q358 925 586 1472h115l-641 -1597h-133q-228 567 -559 1466h-5q-368 -997 -561 -1466z" />
    <glyph glyph-name="wgrave" unicode="&#x1e81;" horiz-adv-x="2209" 
d="M1155 1278h-96l-373 395h166zM659 0h-100l-506 1126h115l442 -993h6l431 993h118l445 -993h6l426 993h115l-504 -1126h-101q-293 652 -444 1026h-6q-166 -415 -443 -1026z" />
    <glyph glyph-name="Wacute" unicode="&#x1e82;" horiz-adv-x="2777" 
d="M1817 2034l-412 -314h-100l323 314h189zM825 0h-131l-641 1597h115q357 -853 594 -1472h4q67 176 261 684.5t298 787.5h125q94 -246 283.5 -736t283.5 -736h6q358 925 586 1472h115l-641 -1597h-133q-228 567 -559 1466h-5q-368 -997 -561 -1466z" />
    <glyph glyph-name="wacute" unicode="&#x1e83;" horiz-adv-x="2209" 
d="M1518 1673l-373 -395h-96l303 395h166zM659 0h-100l-506 1126h115l442 -993h6l431 993h118l445 -993h6l426 993h115l-504 -1126h-101q-293 652 -444 1026h-6q-166 -415 -443 -1026z" />
    <glyph glyph-name="Wdieresis" unicode="&#x1e84;" horiz-adv-x="2777" 
d="M1163 1800q-43 0 -73.5 27t-30.5 65q0 35 30.5 61.5t73.5 26.5q44 0 74.5 -26t30.5 -62q0 -38 -30.5 -65t-74.5 -27zM1614 1800q-45 0 -76 26.5t-31 65.5q0 36 31 62t76 26q41 0 71.5 -26.5t30.5 -61.5q0 -38 -30 -65t-72 -27zM825 0h-131l-641 1597h115
q357 -853 594 -1472h4q67 176 261 684.5t298 787.5h125q94 -246 283.5 -736t283.5 -736h6q358 925 586 1472h115l-641 -1597h-133q-228 567 -559 1466h-5q-368 -997 -561 -1466z" />
    <glyph glyph-name="wdieresis" unicode="&#x1e85;" horiz-adv-x="2209" 
d="M903 1391q-44 0 -75 27t-31 65q0 36 31 62t75 26t73.5 -26t29.5 -62q0 -39 -29.5 -65.5t-73.5 -26.5zM1300 1391q-45 0 -74.5 26.5t-29.5 65.5q0 36 29.5 62t74.5 26q43 0 74 -26.5t31 -61.5q0 -38 -31 -65t-74 -27zM659 0h-100l-506 1126h115l442 -993h6l431 993h118
l445 -993h6l426 993h115l-504 -1126h-101q-293 652 -444 1026h-6q-166 -415 -443 -1026z" />
    <glyph glyph-name="uni1E9E" unicode="&#x1e9e;" horiz-adv-x="1818" 
d="M367 0h-115v954q0 62 1.5 101t14.5 117.5t37 131.5t74.5 120t120.5 108t181.5 69.5t252.5 28.5q197 0 346 -51t233 -152t84 -241q0 -152 -97.5 -252t-262.5 -125v-2q87 -4 166 -32.5t140.5 -77.5t97.5 -122.5t36 -160.5q0 -60 -17 -115t-62 -111t-115.5 -96.5t-188 -66
t-268.5 -25.5h-195v90h224q112 0 200.5 18.5t145 49.5t93.5 74.5t52 89.5t15 98q0 109 -66 187t-179 116.5t-259 38.5h-127v90h155q26 0 54.5 2.5t69 10.5t76.5 21.5t73 38t64 56t44 80t17 106.5q0 179 -146.5 279t-400.5 100q-117 0 -210.5 -24t-152 -58t-100.5 -90
t-62 -100.5t-30.5 -110t-12 -97.5t-1.5 -84v-3v-979z" />
    <glyph glyph-name="Ygrave" unicode="&#x1ef2;" horiz-adv-x="1681" 
d="M926 1720h-101l-411 314h188zM897 0h-113v596q-121 167 -363.5 500.5t-363.5 500.5h125l658 -909h4q64 88 183 251t478 658h121l-729 -1001v-596z" />
    <glyph glyph-name="ygrave" unicode="&#x1ef3;" horiz-adv-x="1302" 
d="M686 1278h-96l-373 395h166zM479 -451h-88l213 445l-557 1132h117q95 -191 263.5 -544t223.5 -467h4q50 104 220 462.5t264 548.5h116z" />
    <glyph glyph-name="uni2000" unicode="&#x2000;" horiz-adv-x="1228" 
 />
    <glyph glyph-name="uni2001" unicode="&#x2001;" 
 />
    <glyph glyph-name="uni2002" unicode="&#x2002;" horiz-adv-x="1228" 
 />
    <glyph glyph-name="uni2003" unicode="&#x2003;" 
 />
    <glyph glyph-name="uni2004" unicode="&#x2004;" horiz-adv-x="819" 
 />
    <glyph glyph-name="uni2005" unicode="&#x2005;" horiz-adv-x="614" 
 />
    <glyph glyph-name="uni2006" unicode="&#x2006;" horiz-adv-x="409" 
 />
    <glyph glyph-name="uni2007" unicode="&#x2007;" horiz-adv-x="694" 
 />
    <glyph glyph-name="uni2008" unicode="&#x2008;" horiz-adv-x="550" 
 />
    <glyph glyph-name="uni2009" unicode="&#x2009;" horiz-adv-x="307" 
 />
    <glyph glyph-name="uni200A" unicode="&#x200a;" horiz-adv-x="102" 
 />
    <glyph glyph-name="uni200B" unicode="&#x200b;" horiz-adv-x="0" 
 />
    <glyph glyph-name="endash" unicode="&#x2013;" horiz-adv-x="1214" 
d="M1069 582h-924v84h924v-84z" />
    <glyph glyph-name="emdash" unicode="&#x2014;" horiz-adv-x="1730" 
d="M1585 582h-1440v84h1440v-84z" />
    <glyph glyph-name="quoteleft" unicode="&#x2018;" horiz-adv-x="528" 
d="M336 1630h78l-140 -244q36 -9 56 -33.5t20 -56.5q0 -38 -32 -65t-78 -27q-44 0 -76.5 27t-32.5 65q0 33 37.5 93t167.5 241z" />
    <glyph glyph-name="quoteright" unicode="&#x2019;" horiz-adv-x="536" 
d="M227 1204h-77l139 244q-36 9 -56 33.5t-20 56.5q0 38 32.5 65t78.5 27q44 0 76 -27t32 -65q0 -33 -37.5 -93t-167.5 -241z" />
    <glyph glyph-name="quotesinglbase" unicode="&#x201a;" horiz-adv-x="507" 
d="M168 -252h-78l139 244q-36 9 -55.5 33.5t-19.5 56.5q0 38 32 65t78 27q44 0 76.5 -27t32.5 -65q0 -33 -37.5 -93t-167.5 -241z" />
    <glyph glyph-name="quotedblleft" unicode="&#x201c;" horiz-adv-x="866" 
d="M336 1630h78l-140 -244q36 -9 56 -33.5t20 -56.5q0 -38 -32 -65t-78 -27q-44 0 -76.5 27t-32.5 65q0 33 37.5 93t167.5 241zM623 1630h77l-139 -244q36 -9 56 -33.5t20 -56.5q0 -38 -32.5 -65t-78.5 -27q-44 0 -76 27t-32 65q0 33 37.5 93t167.5 241z" />
    <glyph glyph-name="quotedblright" unicode="&#x201d;" horiz-adv-x="874" 
d="M227 1204h-77l139 244q-36 9 -56 33.5t-20 56.5q0 38 32.5 65t78.5 27q44 0 76 -27t32 -65q0 -33 -37.5 -93t-167.5 -241zM567 1204h-78l138 244q-35 9 -54.5 33t-19.5 57q0 38 32.5 65t78.5 27q43 0 74.5 -27t31.5 -65q0 -36 -33 -88.5t-170 -245.5z" />
    <glyph glyph-name="quotedblbase" unicode="&#x201e;" horiz-adv-x="845" 
d="M168 -252h-78l139 244q-36 9 -55.5 33.5t-19.5 56.5q0 38 32 65t78 27q44 0 76.5 -27t32.5 -65q0 -33 -37.5 -93t-167.5 -241zM508 -252h-80l139 244q-35 9 -54 33t-19 57q0 38 32 65t78 27q43 0 75 -27t32 -65q0 -35 -34.5 -90t-168.5 -244z" />
    <glyph glyph-name="dagger" unicode="&#x2020;" horiz-adv-x="1177" 
d="M649 1286h418v-96h-418v-760h-117v760h-421v96h421v352h117v-352z" />
    <glyph glyph-name="daggerdbl" unicode="&#x2021;" horiz-adv-x="1310" 
d="M1135 1286v-96h-418v-313h418v-97h-418v-350h-117v350h-422v97h422v313h-422v96h422v352h117v-352h418z" />
    <glyph glyph-name="bullet" unicode="&#x2022;" horiz-adv-x="897" 
d="M451 424q-83 0 -141 51t-58 123q0 68 58 116t141 48q78 0 134 -48.5t56 -115.5q0 -72 -56 -123t-134 -51z" />
    <glyph glyph-name="ellipsis" unicode="&#x2026;" horiz-adv-x="1525" 
d="M276 -14q-46 0 -78 28t-32 68q0 38 32 65t78 27q44 0 75.5 -27t31.5 -65q0 -40 -31.5 -68t-75.5 -28zM686 -14q-46 0 -78.5 28t-32.5 68q0 38 32.5 65t78.5 27q44 0 75.5 -27t31.5 -65q0 -40 -31.5 -68t-75.5 -28zM1253 -14q-46 0 -78 28t-32 68q0 38 32 65t78 27
q44 0 75.5 -27t31.5 -65q0 -40 -31.5 -68t-75.5 -28z" />
    <glyph glyph-name="uni202F" unicode="&#x202f;" horiz-adv-x="497" 
 />
    <glyph glyph-name="perthousand" unicode="&#x2030;" horiz-adv-x="2734" 
d="M408 811q-135 0 -220.5 98.5t-85.5 253.5q0 157 85.5 257t220.5 100q134 0 219.5 -100.5t85.5 -256.5q0 -154 -85 -253t-220 -99zM344 0h-104l1366 1468h96zM408 883q94 0 151 76.5t57 203.5q0 128 -57 205.5t-151 77.5t-151.5 -78t-57.5 -205t57.5 -203.5t151.5 -76.5z
M1511 -29q-135 0 -220 99t-85 254q0 157 85 256.5t220 99.5t220.5 -100t85.5 -256q0 -154 -85.5 -253.5t-220.5 -99.5zM2327 -29q-135 0 -220.5 99t-85.5 254q0 157 85.5 256.5t220.5 99.5t220 -100t85 -256q0 -154 -85.5 -253.5t-219.5 -99.5zM1511 43q94 0 151.5 77
t57.5 204t-57.5 204.5t-151.5 77.5t-151 -77.5t-57 -204.5t57 -204t151 -77zM2327 43q94 0 151 77t57 204t-57 204.5t-151 77.5t-151.5 -77.5t-57.5 -204.5t57.5 -204t151.5 -77z" />
    <glyph glyph-name="guilsinglleft" unicode="&#x2039;" horiz-adv-x="860" 
d="M688 164h-133l-416 405v9l416 405h133l-416 -405v-9z" />
    <glyph glyph-name="guilsinglright" unicode="&#x203a;" horiz-adv-x="860" 
d="M305 164h-133l416 405v9l-416 405h133l416 -405v-9z" />
    <glyph glyph-name="fraction" unicode="&#x2044;" horiz-adv-x="288" 
d="M-471 0h-104l1366 1468h96z" />
    <glyph glyph-name="uni205F" unicode="&#x205f;" horiz-adv-x="544" 
 />
    <glyph glyph-name="uni2070" unicode="&#x2070;" horiz-adv-x="815" 
d="M408 811q-135 0 -220.5 98.5t-85.5 253.5q0 157 85.5 257t220.5 100q134 0 219.5 -100.5t85.5 -256.5q0 -154 -85 -253t-220 -99zM408 883q94 0 151 76.5t57 203.5q0 128 -57 205.5t-151 77.5t-151.5 -78t-57.5 -205t57.5 -203.5t151.5 -76.5z" />
    <glyph glyph-name="uni2074" unicode="&#x2074;" horiz-adv-x="757" 
d="M559 825h-88v162h-412v72l412 446h88v-450h117v-68h-117v-162zM471 1399l-319 -344h319v344z" />
    <glyph glyph-name="uni2075" unicode="&#x2075;" horiz-adv-x="747" 
d="M365 811q-106 0 -186.5 42.5t-108.5 113.5l77 34q24 -56 85.5 -89t132.5 -33q83 0 139.5 45t56.5 116q0 69 -54.5 113.5t-133.5 44.5q-59 0 -107.5 -24t-75.5 -62l-71 23l92 370h399v-67h-336l-61 -246q24 30 77 49t107 19q104 0 182 -60t78 -158q0 -101 -85 -166
t-207 -65z" />
    <glyph glyph-name="uni2076" unicode="&#x2076;" horiz-adv-x="782" 
d="M401 811q-134 0 -216.5 85t-82.5 232q0 170 106 281t267 111q115 0 187 -56l-50 -53q-59 39 -143 39q-118 0 -197 -79.5t-82 -223.5h3q24 54 88.5 86.5t138.5 32.5q108 0 189 -63.5t81 -160.5q0 -99 -83.5 -165t-205.5 -66zM403 879q80 0 138.5 46.5t58.5 118.5
q0 69 -57 115.5t-135 46.5q-85 0 -141 -48.5t-56 -117.5q0 -68 57 -114.5t135 -46.5z" />
    <glyph glyph-name="uni2077" unicode="&#x2077;" horiz-adv-x="657" 
d="M276 825h-92q0 138 96 321.5t240 299.5h-471v70h572v-74q-149 -112 -247 -293.5t-98 -323.5z" />
    <glyph glyph-name="uni2078" unicode="&#x2078;" horiz-adv-x="765" 
d="M383 811q-124 0 -204.5 56.5t-80.5 140.5q0 65 45 111.5t113 60.5v4q-60 22 -93.5 61t-33.5 88q0 78 73 132.5t181 54.5q107 0 180.5 -52.5t73.5 -130.5q0 -48 -31.5 -89.5t-95.5 -63.5v-4q71 -15 114.5 -61.5t43.5 -108.5q0 -85 -80.5 -142t-204.5 -57zM385 1210
q70 0 119 36t49 91q0 52 -49 85.5t-119 33.5q-73 0 -120.5 -34t-47.5 -85q0 -54 47.5 -90.5t120.5 -36.5zM385 879q80 0 135 38.5t55 100.5t-51 99.5t-139 37.5q-91 0 -141.5 -37t-50.5 -100q0 -61 54.5 -100t137.5 -39z" />
    <glyph glyph-name="uni2079" unicode="&#x2079;" horiz-adv-x="790" 
d="M358 811q-156 0 -256 100l58 50q80 -82 194 -82q119 0 181.5 86t60.5 217q-22 -60 -87.5 -94.5t-141.5 -34.5q-110 0 -189.5 64.5t-79.5 162.5q0 103 83 171.5t210 68.5q60 0 111 -17.5t93 -53.5t66.5 -100t24.5 -149q0 -105 -34 -191t-110 -142t-184 -56zM379 1110
q84 0 142.5 53t58.5 127t-57 119t-136 45q-86 0 -143.5 -48t-57.5 -124q0 -73 55.5 -122.5t137.5 -49.5z" />
    <glyph glyph-name="uni2080" unicode="&#x2080;" horiz-adv-x="815" 
d="M408 -285q-135 0 -220.5 99t-85.5 254q0 157 85.5 256.5t220.5 99.5t220 -100t85 -256q0 -154 -85.5 -253.5t-219.5 -99.5zM408 -213q94 0 151 77t57 204t-57 204.5t-151 77.5t-151.5 -77.5t-57.5 -204.5t57.5 -204t151.5 -77z" />
    <glyph glyph-name="uni2081" unicode="&#x2081;" horiz-adv-x="505" 
d="M332 -270h-88v530q-65 -69 -183 -84v76q82 15 134.5 59.5t52.5 98.5h84v-680z" />
    <glyph glyph-name="uni2082" unicode="&#x2082;" horiz-adv-x="735" 
d="M637 -270h-533v6q6 59 23 101t52 75.5t74.5 59.5t108.5 65q10 5 15 8q32 19 55.5 35t50 40t40.5 51.5t14 57.5q0 53 -46.5 88t-119.5 35q-87 0 -142 -48t-55 -126l-82 12q0 102 78 168t199 66q112 0 186 -55t74 -142q0 -68 -43 -116.5t-119 -94.5q-22 -14 -64.5 -37.5
t-65 -38t-51 -36.5t-45 -46.5t-24.5 -54.5h420v-73z" />
    <glyph glyph-name="uni2083" unicode="&#x2083;" horiz-adv-x="749" 
d="M369 -285q-103 0 -182 43t-105 113l78 33q24 -56 78.5 -88.5t130.5 -32.5q79 0 131.5 37t52.5 98q0 58 -52.5 93.5t-148.5 35.5h-82v62h90q80 0 126 34t46 88q0 56 -50 89.5t-124 33.5q-70 0 -120 -34t-60 -93l-80 15q13 82 89.5 132t179.5 50q106 0 181 -49.5t75 -128.5
q0 -54 -36.5 -99.5t-101.5 -62.5q71 -12 116.5 -56t45.5 -108q0 -84 -76.5 -144.5t-201.5 -60.5z" />
    <glyph glyph-name="uni2084" unicode="&#x2084;" horiz-adv-x="757" 
d="M559 -270h-88v161h-412v72l412 447h88v-451h117v-68h-117v-161zM471 303l-319 -344h319v344z" />
    <glyph glyph-name="uni2085" unicode="&#x2085;" horiz-adv-x="747" 
d="M365 -285q-106 0 -186.5 42.5t-108.5 113.5l77 35q24 -57 86 -90t132 -33q83 0 139.5 45.5t56.5 116.5q0 69 -54 113t-134 44q-59 0 -107.5 -24t-75.5 -62l-71 23l92 371h399v-68h-336l-61 -246q24 30 77 49t107 19q104 0 182 -59.5t78 -157.5q0 -101 -85 -166.5
t-207 -65.5z" />
    <glyph glyph-name="uni2086" unicode="&#x2086;" horiz-adv-x="782" 
d="M401 -285q-134 0 -216.5 85.5t-82.5 232.5q0 170 105.5 280.5t267.5 110.5q117 0 187 -55l-50 -54q-59 39 -143 39q-118 0 -197 -79.5t-82 -223.5h3q24 54 88.5 86.5t138.5 32.5q108 0 189 -63t81 -160q0 -99 -83.5 -165.5t-205.5 -66.5zM403 -217q80 0 138.5 47
t58.5 119q0 69 -57 115.5t-135 46.5q-85 0 -141 -48.5t-56 -117.5q0 -68 57 -115t135 -47z" />
    <glyph glyph-name="uni2087" unicode="&#x2087;" horiz-adv-x="657" 
d="M276 -270h-92q0 138 96 321t240 299h-471v70h572v-74q-149 -112 -247 -293t-98 -323z" />
    <glyph glyph-name="uni2088" unicode="&#x2088;" horiz-adv-x="765" 
d="M383 -285q-124 0 -204.5 56.5t-80.5 140.5q0 65 45 111.5t113 60.5v4q-60 22 -93.5 61.5t-33.5 88.5q0 78 73 132t181 54t181 -52t73 -130q0 -48 -31.5 -90t-95.5 -64v-4q71 -15 114.5 -61.5t43.5 -108.5q0 -85 -80.5 -142t-204.5 -57zM385 115q70 0 119 36t49 91
q0 52 -49 85t-119 33q-73 0 -120.5 -33.5t-47.5 -84.5q0 -54 47.5 -90.5t120.5 -36.5zM385 -217q80 0 135 38.5t55 100.5t-51 99.5t-139 37.5q-91 0 -141.5 -37t-50.5 -100q0 -61 54.5 -100t137.5 -39z" />
    <glyph glyph-name="uni2089" unicode="&#x2089;" horiz-adv-x="790" 
d="M358 -285q-155 0 -256 101l58 49q80 -82 194 -82q119 0 181.5 86t60.5 217q-22 -60 -87.5 -94.5t-141.5 -34.5q-110 0 -189.5 64.5t-79.5 162.5q0 103 83 171.5t210 68.5q60 0 111 -17.5t93 -53.5t66.5 -100t24.5 -149q0 -105 -34 -191t-110 -142t-184 -56zM379 14
q84 0 142.5 53.5t58.5 127.5t-57 118.5t-136 44.5q-86 0 -143.5 -48t-57.5 -124q0 -73 55.5 -122.5t137.5 -49.5z" />
    <glyph glyph-name="Euro" unicode="&#x20ac;" horiz-adv-x="1929" 
d="M1729 190l81 -73q-216 -152 -544 -152q-346 0 -566 156t-286 422h-262v94h243q-8 55 -8 129q0 70 8 125h-243v94h260q31 129 97.5 234.5t168 186t246.5 125t321 44.5q322 0 541 -152l-82 -73q-187 135 -463 135q-284 0 -467 -135.5t-244 -364.5h848v-94h-866
q-8 -55 -8 -125q0 -47 8 -129h866v-94h-846q65 -229 256 -358.5t472 -129.5q282 0 469 135z" />
    <glyph glyph-name="trademark" unicode="&#x2122;" horiz-adv-x="1849" 
d="M469 946h-98v592h-275v78h641v-78h-268v-592zM983 946h-98v670h96l276 -541q248 496 271 541h96v-670h-98v475q-47 -91 -230 -458h-84q-190 385 -229 462v-479z" />
    <glyph glyph-name="oneeighth" unicode="&#x215b;" horiz-adv-x="1560" 
d="M332 825h-88v531q-65 -69 -183 -84v76q82 15 134.5 59t52.5 98h84v-680zM35 0h-105l1366 1468h97zM1178 -29q-124 0 -204.5 56.5t-80.5 140.5q0 65 45 111.5t113 60.5v4q-60 22 -93.5 61.5t-33.5 88.5q0 78 73 132t181 54t181 -52t73 -130q0 -48 -31.5 -90t-95.5 -64v-4
q71 -15 114 -61t43 -109q0 -85 -80 -142t-204 -57zM1180 371q70 0 119 36t49 91q0 52 -49 85t-119 33q-73 0 -120.5 -33.5t-47.5 -84.5q0 -54 47.5 -90.5t120.5 -36.5zM1180 39q80 0 135 38.5t55 100.5t-51 99.5t-139 37.5q-91 0 -142 -37.5t-51 -99.5q0 -61 55 -100
t138 -39z" />
    <glyph glyph-name="threeeighths" unicode="&#x215c;" horiz-adv-x="1804" 
d="M369 811q-103 0 -182 43t-105 113l78 32q24 -55 78.5 -87.5t130.5 -32.5q79 0 131.5 37t52.5 98q0 58 -52.5 93.5t-148.5 35.5h-82v61h90q80 0 126 34.5t46 88.5q0 56 -50 89.5t-124 33.5q-70 0 -120 -34t-60 -93l-80 14q13 82 89.5 132.5t179.5 50.5q106 0 181 -50
t75 -129q0 -54 -36.5 -99t-101.5 -62q71 -12 116.5 -56t45.5 -108q0 -84 -76.5 -144.5t-201.5 -60.5zM279 0h-105l1366 1468h96zM1421 -29q-123 0 -203.5 56.5t-80.5 140.5q0 65 45 111.5t112 60.5v4q-60 22 -93.5 61.5t-33.5 88.5q0 78 73 132t181 54t181 -52t73 -130
q0 -48 -31.5 -90t-95.5 -64v-4q71 -15 114.5 -61.5t43.5 -108.5q0 -85 -80.5 -142t-204.5 -57zM1423 371q70 0 119 36t49 91q0 52 -49 85t-119 33q-73 0 -120.5 -33.5t-47.5 -84.5q0 -54 47.5 -90.5t120.5 -36.5zM1423 39q80 0 135.5 38.5t55.5 100.5t-51.5 99.5
t-139.5 37.5q-91 0 -141.5 -37t-50.5 -100q0 -61 54.5 -100t137.5 -39z" />
    <glyph glyph-name="fiveeighths" unicode="&#x215d;" horiz-adv-x="1802" 
d="M365 811q-106 0 -186.5 42.5t-108.5 113.5l77 34q24 -56 85.5 -89t132.5 -33q83 0 139.5 45t56.5 116q0 69 -54.5 113.5t-133.5 44.5q-59 0 -107.5 -24t-75.5 -62l-71 23l92 370h399v-67h-336l-61 -246q24 30 77 49t107 19q104 0 182 -60t78 -158q0 -101 -85 -166
t-207 -65zM276 0h-104l1366 1468h96zM1419 -29q-123 0 -203.5 56.5t-80.5 140.5q0 65 45 111.5t112 60.5v4q-60 22 -93.5 61.5t-33.5 88.5q0 78 73 132t181 54t181 -52t73 -130q0 -48 -31.5 -90t-95.5 -64v-4q71 -15 114.5 -61.5t43.5 -108.5q0 -85 -80.5 -142t-204.5 -57z
M1421 371q70 0 119 36t49 91q0 52 -49 85t-119 33q-73 0 -120.5 -33.5t-47.5 -84.5q0 -54 47.5 -90.5t120.5 -36.5zM1421 39q80 0 135.5 38.5t55.5 100.5t-51.5 99.5t-139.5 37.5q-91 0 -141.5 -37t-50.5 -100q0 -61 54.5 -100t137.5 -39z" />
    <glyph glyph-name="seveneighths" unicode="&#x215e;" horiz-adv-x="1712" 
d="M276 825h-92q0 138 96 321.5t240 299.5h-471v70h572v-74q-149 -112 -247 -293.5t-98 -323.5zM186 0h-104l1366 1468h96zM1329 -29q-124 0 -204.5 56.5t-80.5 140.5q0 65 45 111.5t113 60.5v4q-60 22 -93.5 61.5t-33.5 88.5q0 78 73 132t181 54t181 -52t73 -130
q0 -48 -31.5 -90t-95.5 -64v-4q71 -15 114.5 -61.5t43.5 -108.5q0 -85 -80.5 -142t-204.5 -57zM1331 371q70 0 119 36t49 91q0 52 -49 85t-119 33q-73 0 -120.5 -33.5t-47.5 -84.5q0 -54 47.5 -90.5t120.5 -36.5zM1331 39q80 0 135.5 38.5t55.5 100.5t-51.5 99.5
t-139.5 37.5q-91 0 -141.5 -37t-50.5 -100q0 -61 54.5 -100t137.5 -39z" />
    <glyph glyph-name="arrowleft" unicode="&#x2190;" horiz-adv-x="1720" 
d="M330 694h1235v-100h-1233l366 -358h-143l-408 405v8l408 406h143zM283 649v-8l2 -2v12z" />
    <glyph glyph-name="arrowup" unicode="&#x2191;" horiz-adv-x="1183" 
d="M596 1202l487 -340v-123l-432 308v-1027h-116v1029l-435 -310v123l488 340h8z" />
    <glyph glyph-name="arrowright" unicode="&#x2192;" horiz-adv-x="1720" 
d="M1022 1055h143l408 -406v-8l-408 -405h-143l367 358h-1233v100h1235zM1436 639l2 2v8l-2 2v-12z" />
    <glyph glyph-name="arrowdown" unicode="&#x2193;" horiz-adv-x="1187" 
d="M653 1202v-1026l432 307v-123l-487 -340h-8l-488 340v123l435 -309v1028h116z" />
    <glyph glyph-name="arrowboth" unicode="&#x2194;" horiz-adv-x="2150" 
d="M696 231h-143l-408 406v8l408 406h143l-370 -361h1499l-371 361h143l408 -406v-8l-408 -406h-143l369 359h-1495z" />
    <glyph glyph-name="arrowupdn" unicode="&#x2195;" horiz-adv-x="1314" 
d="M662 0h-9l-487 340v123l434 -307v1075l-434 -307v123l487 339h9l487 -339v-123l-432 305v-1071l432 305v-123z" />
    <glyph glyph-name="uni2196" unicode="&#x2196;" horiz-adv-x="1245" 
d="M1071 1036l62 -106l-531 49l514 -889l-100 -57l-514 889l-221 -484l-62 107l252 538l8 4z" />
    <glyph glyph-name="uni2197" unicode="&#x2197;" horiz-adv-x="1245" 
d="M776 1083l252 -538l-61 -107l-222 484l-514 -889l-100 57l514 889l-530 -49l61 106l592 51z" />
    <glyph glyph-name="uni2198" unicode="&#x2198;" horiz-adv-x="1243" 
d="M743 301l222 483l61 -106l-252 -539l-8 -4l-592 51l-61 107l530 -49l-514 889l100 57z" />
    <glyph glyph-name="uni2199" unicode="&#x2199;" horiz-adv-x="1243" 
d="M1116 1133l-514 -889l531 49l-62 -107l-592 -51l-8 4l-252 539l62 106l221 -483l514 889z" />
    <glyph glyph-name="emptyset" unicode="&#x2205;" horiz-adv-x="1695" 
d="M1452 1200l-149 -174q111 -82 172 -201.5t61 -259.5q0 -166 -85.5 -302.5t-244.5 -217t-360 -80.5q-207 0 -373 88l-149 -176l-80 51l149 176q-111 82 -172 202t-61 259q0 126 50.5 236t139.5 190t218.5 126t281.5 46q210 0 373 -86l149 174zM268 563q0 -114 49.5 -214
t139.5 -171l702 823q-135 74 -309 74q-168 0 -302 -68.5t-207 -185t-73 -258.5zM850 53q254 0 415.5 146.5t161.5 363.5q0 116 -49 216t-139 171l-702 -823q139 -74 313 -74z" />
    <glyph glyph-name="minus" unicode="&#x2212;" horiz-adv-x="1183" 
d="M1008 578h-832v94h832v-94z" />
    <glyph glyph-name="infinity" unicode="&#x221e;" horiz-adv-x="2232" 
d="M590 287q-114 0 -210 43t-153 121t-57 174t57 174t153 121t210 43q67 0 126 -15.5t124.5 -54t123.5 -82t152 -121.5q94 78 152 121.5t123.5 82t124.5 54t126 15.5q114 0 210 -43t153 -121t57 -174t-57 -174t-153 -121t-210 -43q-67 0 -125.5 15.5t-124 53t-124.5 82
t-152 121.5q-93 -78 -151.5 -121.5t-124 -82t-124.5 -53.5t-126 -15zM575 379q56 0 105 12t99.5 40.5t82.5 51t93.5 71t93.5 71.5q-28 20 -95 72.5t-96 72t-81 49t-99.5 40.5t-102.5 11q-131 0 -208.5 -66t-77.5 -179q0 -116 79 -181t207 -65zM1657 379q129 0 208 65t79 181
q0 113 -78 179t-209 66q-47 0 -91.5 -10.5t-78 -24.5t-76.5 -41.5t-70 -48.5t-76 -59.5t-79 -60.5q30 -23 78.5 -61t76 -59t70.5 -49t76.5 -42t78 -24.5t91.5 -10.5z" />
    <glyph glyph-name="approxequal" unicode="&#x2248;" horiz-adv-x="1251" 
d="M309 741h-106q0 77 40 131.5t97 77.5t123 23q61 0 114 -23t84 -50t73.5 -50t84.5 -23q62 0 93.5 41.5t31.5 104.5h107q0 -115 -69.5 -173.5t-172.5 -58.5q-51 0 -95 15t-74.5 36.5t-59.5 43t-63.5 36.5t-72.5 15q-67 0 -101 -41.5t-34 -104.5zM309 332h-106q0 77 40 131
t97 77t123 23q50 0 93.5 -15t74 -36t59 -42.5t61.5 -36.5t68 -15q62 0 93.5 41t31.5 104h107q0 -115 -69.5 -173t-172.5 -58q-51 0 -95 15t-74.5 36t-59.5 42.5t-63.5 36.5t-72.5 15q-67 0 -101 -41t-34 -104z" />
    <glyph glyph-name="notequal" unicode="&#x2260;" horiz-adv-x="1226" 
d="M1026 877v-95h-283l-137 -315h420v-94h-459l-82 -187h-108l82 187h-264v94h301l139 315h-440v95h481l76 178h108l-76 -178h242z" />
    <glyph glyph-name="lessequal" unicode="&#x2264;" horiz-adv-x="1239" 
d="M1034 373h-833v84h587l-587 182v94l833 185v-95l-680 -145l680 -221v-84z" />
    <glyph glyph-name="greaterequal" unicode="&#x2265;" horiz-adv-x="1239" 
d="M1036 373h-831v84l680 221l-680 145v95l833 -185v-94l-587 -182h585v-84z" />
    <glyph glyph-name="lozenge" unicode="&#x25ca;" horiz-adv-x="1398" 
d="M754 0h-109l-493 694l493 692h109l493 -692zM285 694l409 -577h11l407 577l-407 576h-11z" />
    <glyph glyph-name="A.ss01" horiz-adv-x="1802" 
d="M172 0h-121l744 1597h213l743 -1597h-121q-46 101 -136 300t-136 300h-909q-46 -102 -110 -239t-167 -361zM487 690h834q-28 61 -363 797h-104q-60 -133 -183 -398.5t-184 -398.5z" />
    <glyph glyph-name="Aacute.ss01" horiz-adv-x="1802" 
d="M1329 2034l-411 -314h-101l324 314h188zM172 0h-121l744 1597h213l743 -1597h-121q-46 101 -136 300t-136 300h-909q-46 -102 -110 -239t-167 -361zM487 690h834q-28 61 -363 797h-104q-60 -133 -183 -398.5t-184 -398.5z" />
    <glyph glyph-name="Abreve.ss01" horiz-adv-x="1802" 
d="M901 1729q-101 0 -186 29t-138.5 75.5t-84.5 100.5t-35 108h102q8 -88 107.5 -157.5t234.5 -69.5t233.5 69.5t106.5 157.5h102q-3 -53 -33.5 -107t-84 -100.5t-138.5 -76t-186 -29.5zM172 0h-121l744 1597h213l743 -1597h-121q-46 101 -136 300t-136 300h-909
q-46 -102 -110 -239t-167 -361zM487 690h834q-28 61 -363 797h-104q-60 -133 -183 -398.5t-184 -398.5z" />
    <glyph glyph-name="Acircumflex.ss01" horiz-adv-x="1802" 
d="M983 2013l313 -293h-100q-178 134 -295 234q-130 -108 -297 -234h-100l313 293h166zM172 0h-121l744 1597h213l743 -1597h-121q-46 101 -136 300t-136 300h-909q-46 -102 -110 -239t-167 -361zM487 690h834q-28 61 -363 797h-104q-60 -133 -183 -398.5t-184 -398.5z" />
    <glyph glyph-name="Adieresis.ss01" horiz-adv-x="1802" 
d="M676 1800q-43 0 -74 27t-31 65q0 35 31 61.5t74 26.5q44 0 74 -26t30 -62q0 -38 -30 -65t-74 -27zM1126 1800q-45 0 -75.5 26.5t-30.5 65.5q0 36 30.5 62t75.5 26q41 0 72 -26.5t31 -61.5q0 -38 -30.5 -65t-72.5 -27zM172 0h-121l744 1597h213l743 -1597h-121
q-46 101 -136 300t-136 300h-909q-46 -102 -110 -239t-167 -361zM487 690h834q-28 61 -363 797h-104q-60 -133 -183 -398.5t-184 -398.5z" />
    <glyph glyph-name="Agrave.ss01" horiz-adv-x="1802" 
d="M985 1720h-100l-412 314h189zM172 0h-121l744 1597h213l743 -1597h-121q-46 101 -136 300t-136 300h-909q-46 -102 -110 -239t-167 -361zM487 690h834q-28 61 -363 797h-104q-60 -133 -183 -398.5t-184 -398.5z" />
    <glyph glyph-name="Amacron.ss01" horiz-adv-x="1802" 
d="M1288 1847h-774v88h774v-88zM172 0h-121l744 1597h213l743 -1597h-121q-46 101 -136 300t-136 300h-909q-46 -102 -110 -239t-167 -361zM487 690h834q-28 61 -363 797h-104q-60 -133 -183 -398.5t-184 -398.5z" />
    <glyph glyph-name="Aogonek.ss01" horiz-adv-x="1802" 
d="M1767 -389q45 0 105 14v-74q-66 -14 -109 -14q-136 0 -224.5 63t-88.5 169q0 133 188 231h-8q-46 101 -136 300t-136 300h-909q-46 -102 -110 -239t-167 -361h-121l744 1597h213l743 -1597h4q-213 -102 -213 -223q0 -75 65.5 -120.5t159.5 -45.5zM487 690h834
q-28 61 -363 797h-104q-60 -133 -183 -398.5t-184 -398.5z" />
    <glyph glyph-name="Aring.ss01" horiz-adv-x="1802" 
d="M901 1716q-113 0 -186.5 60t-73.5 153q0 91 73.5 150t186.5 59q109 0 182.5 -59.5t73.5 -149.5q0 -93 -73 -153t-183 -60zM901 1794q72 0 120 36.5t48 98.5q0 60 -48.5 95.5t-119.5 35.5q-74 0 -123 -35.5t-49 -95.5q0 -63 49 -99t123 -36zM172 0h-121l744 1597h213
l743 -1597h-121q-46 101 -136 300t-136 300h-909q-46 -102 -110 -239t-167 -361zM487 690h834q-28 61 -363 797h-104q-60 -133 -183 -398.5t-184 -398.5z" />
    <glyph glyph-name="Atilde.ss01" horiz-adv-x="1802" 
d="M1085 1753q-26 0 -50 4t-38.5 7.5t-35.5 15.5t-26.5 15.5t-28.5 20.5t-25 19l-41 31q-26 19 -40.5 28.5t-38 18t-48.5 8.5q-60 0 -100 -44t-40 -110h-86q1 101 67 165.5t167 64.5q37 0 71 -11.5t54 -24.5t51 -36l49 -37q79 -61 148 -61q61 0 96 43.5t35 111.5h88
q0 -103 -61 -166t-167 -63zM172 0h-121l744 1597h213l743 -1597h-121q-46 101 -136 300t-136 300h-909q-46 -102 -110 -239t-167 -361zM487 690h834q-28 61 -363 797h-104q-60 -133 -183 -398.5t-184 -398.5z" />
    <glyph glyph-name="B.ss01" horiz-adv-x="1751" 
d="M1038 0h-762v1597h650q146 0 265 -35t195 -93.5t117 -132.5t41 -156q0 -58 -21 -113.5t-62.5 -106t-112 -89.5t-160.5 -58v-4q109 -15 192.5 -55t131 -94t71 -113.5t23.5 -122.5q0 -83 -40 -159.5t-112 -135.5t-180.5 -94t-235.5 -35zM391 848h539q233 0 364 92t131 231
q0 148 -145.5 242t-376.5 94h-512v-659zM391 90h600q234 0 365 92.5t131 233.5q0 148 -141.5 245t-378.5 97h-576v-668z" />
    <glyph glyph-name="C.ss01" horiz-adv-x="2072" 
d="M1102 -35q-209 0 -388 61.5t-305 170t-197 262t-71 332.5q0 182 73.5 339.5t201 266.5t302.5 171t374 62q131 0 256.5 -27t239 -80.5t202 -143.5t133.5 -205l-98 -37q-61 128 -175.5 219t-256 135.5t-299.5 44.5q-165 0 -314.5 -51t-264.5 -144t-183 -235.5t-68 -314.5
q0 -142 47.5 -263t129.5 -206.5t191.5 -145.5t233.5 -88.5t256 -28.5q161 0 296.5 42t229.5 114.5t157.5 161.5t97.5 192l100 -32q-34 -94 -87 -176.5t-132.5 -156t-177.5 -126t-227 -83t-277 -30.5z" />
    <glyph glyph-name="D.ss01" horiz-adv-x="1984" 
d="M952 0h-676v1597h654q187 0 339.5 -40.5t257 -112t176 -171.5t104 -216t32.5 -248q0 -178 -61 -327t-173 -256t-280 -166.5t-373 -59.5zM391 90h588q174 0 314 52t233.5 145.5t143.5 223.5t50 286q0 158 -51 287.5t-150.5 224t-255.5 146.5t-356 52h-516v-1417z" />
    <glyph glyph-name="E.ss01" horiz-adv-x="1624" 
d="M1491 0h-1215v1597h1190v-90h-1075v-639h1026v-90h-1026v-682h1100v-96z" />
    <glyph glyph-name="F.ss01" horiz-adv-x="1527" 
d="M1442 1597v-98h-1051v-641h1002v-90h-1002v-768h-115v1597h1166z" />
    <glyph glyph-name="G.ss01" horiz-adv-x="2117" 
d="M1096 -35q-210 0 -389 63t-302.5 172.5t-193.5 262t-70 328.5q0 182 73.5 339.5t201 266.5t302.5 171t374 62q131 0 256.5 -27t239 -80.5t202 -143.5t133.5 -205l-98 -37q-61 128 -175.5 219t-256 135.5t-299.5 44.5q-165 0 -314.5 -51t-264.5 -144t-183 -235t-68 -313
q0 -216 106.5 -383t302.5 -259t453 -92q351 0 548 166.5t216 450.5h-731v90h832v-35q0 -161 -51.5 -292t-137 -218t-202.5 -145.5t-242.5 -84.5t-261.5 -26z" />
    <glyph glyph-name="H.ss01" horiz-adv-x="1984" 
d="M1593 854v743h115v-1597h-115v764h-1202v-764h-115v1597h115v-743h1202z" />
    <glyph glyph-name="I.ss01" horiz-adv-x="1298" 
d="M1202 0h-1106v90h496v1417h-508v90h1130v-90h-507v-1417h495v-90z" />
    <glyph glyph-name="Iacute.ss01" horiz-adv-x="1298" 
d="M1077 2034l-411 -314h-101l324 314h188zM1202 0h-1106v90h496v1417h-508v90h1130v-90h-507v-1417h495v-90z" />
    <glyph glyph-name="Icircumflex.ss01" horiz-adv-x="1298" 
d="M731 2013l313 -293h-100q-178 134 -295 234q-130 -108 -297 -234h-100l313 293h166zM1202 0h-1106v90h496v1417h-508v90h1130v-90h-507v-1417h495v-90z" />
    <glyph glyph-name="Idieresis.ss01" horiz-adv-x="1298" 
d="M424 1800q-43 0 -74 27t-31 65q0 35 31 61.5t74 26.5q44 0 74 -26t30 -62q0 -38 -30 -65t-74 -27zM874 1800q-45 0 -75.5 26.5t-30.5 65.5q0 36 30.5 62t75.5 26q41 0 72 -26.5t31 -61.5q0 -38 -30.5 -65t-72.5 -27zM1202 0h-1106v90h496v1417h-508v90h1130v-90h-507
v-1417h495v-90z" />
    <glyph glyph-name="Idotaccent.ss01" horiz-adv-x="1298" 
d="M649 1794q-47 0 -79.5 28.5t-32.5 69.5q0 39 32.5 67t79.5 28q46 0 78.5 -28.5t32.5 -66.5q0 -41 -32.5 -69.5t-78.5 -28.5zM1202 0h-1106v90h496v1417h-508v90h1130v-90h-507v-1417h495v-90z" />
    <glyph glyph-name="Igrave.ss01" horiz-adv-x="1298" 
d="M733 1720h-100l-412 314h189zM1202 0h-1106v90h496v1417h-508v90h1130v-90h-507v-1417h495v-90z" />
    <glyph glyph-name="Imacron.ss01" horiz-adv-x="1298" 
d="M1036 1847h-774v88h774v-88zM1202 0h-1106v90h496v1417h-508v90h1130v-90h-507v-1417h495v-90z" />
    <glyph glyph-name="J.ss01" horiz-adv-x="1404" 
d="M633 -35q-79 0 -151.5 14t-146.5 51t-127.5 95t-87.5 152.5t-34 216.5v18l100 12v-18q0 -106 29.5 -188t74.5 -130.5t106 -79.5t117 -42t114 -11q189 0 299 115.5t110 316.5v1020h-657v90h772v-1073q0 -36 -1 -64t-11 -90.5t-28 -109.5t-57 -106t-91.5 -97.5t-138 -65
t-191.5 -26.5z" />
    <glyph glyph-name="K.ss01" horiz-adv-x="1595" 
d="M391 0h-115v1597h115v-768h4l1008 768h147q-187 -146 -541 -417.5t-511 -393.5l1104 -786h-158q-123 87 -344.5 241t-708.5 494v-735z" />
    <glyph glyph-name="L.ss01" horiz-adv-x="1456" 
d="M391 1597v-1501h1026v-96h-1141v1597h115z" />
    <glyph glyph-name="M.ss01" horiz-adv-x="2275" 
d="M1868 1597h131v-1597h-113v1442l-688 -1073h-121l-686 1071v-1440h-115v1597h134q356 -530 725 -1124h6q9 15 69.5 111.5t77.5 122.5t73 115t81.5 129t77.5 121t86.5 133.5t82 124.5t91 137t88.5 130z" />
    <glyph glyph-name="N.ss01" horiz-adv-x="2033" 
d="M391 0h-115v1597h205l1116 -1474h48v1474h112v-1597h-203l-1110 1456h-53v-1456z" />
    <glyph glyph-name="O.ss01" horiz-adv-x="2197" 
d="M1098 -35q-194 0 -370 63.5t-305.5 172.5t-206.5 264.5t-77 331.5q0 175 76 330.5t205.5 265.5t306.5 173.5t373 63.5q199 0 377 -65.5t305.5 -177t201.5 -265.5t74 -325q0 -230 -128.5 -421.5t-349 -301t-482.5 -109.5zM1102 59q164 0 315 56t264.5 152t181.5 234.5
t68 295.5t-68 296t-181.5 235.5t-264.5 152t-315 55.5q-166 0 -319.5 -55.5t-268 -152t-183.5 -235.5t-69 -296t69 -295.5t183.5 -234.5t268 -152t319.5 -56z" />
    <glyph glyph-name="P.ss01" horiz-adv-x="1634" 
d="M276 1597h652q150 0 268.5 -35.5t194 -98.5t114.5 -146.5t39 -181.5q0 -214 -155.5 -347t-413.5 -133h-584v-655h-115v1597zM391 745h539q239 0 367 100.5t128 278.5q0 176 -140 279.5t-380 103.5h-514v-762z" />
    <glyph glyph-name="Q.ss01" horiz-adv-x="2213" 
d="M575 -274v-5h1293v-88h-1516l389 390q-271 87 -431 290.5t-160 483.5q0 245 124 435.5t342 294t494 103.5q278 0 497 -107t340 -297t121 -429q0 -241 -123.5 -430.5t-342 -294.5t-494.5 -105q-137 0 -260 27q-230 -225 -273 -268zM266 797q0 -257 151 -442t402 -257
l531 529l77 -60q-55 -55 -156.5 -155.5t-184.5 -182.5t-158 -155q100 -17 184 -17q174 0 327 53t266.5 148t179 234.5t65.5 304.5t-65.5 305.5t-179 235.5t-266.5 148.5t-327 53.5q-176 0 -331 -53.5t-269 -148.5t-180 -235t-66 -306z" />
    <glyph glyph-name="R.ss01" horiz-adv-x="1687" 
d="M975 655h-410l1037 -655h-172l-1037 655h-2v-655h-115v1597h652q150 0 268.5 -35.5t194 -98.5t114.5 -146.5t39 -181.5q0 -214 -155.5 -347t-413.5 -133zM391 1507v-762h539q238 0 366.5 101t128.5 278q0 175 -140.5 279t-379.5 104h-514z" />
    <glyph glyph-name="S.ss01" horiz-adv-x="1576" 
d="M813 -35q-67 0 -133.5 9.5t-137 30.5t-135 58t-122 87t-104 122t-75.5 160l105 35q62 -193 226.5 -300.5t379.5 -107.5q71 0 141 11.5t137 38.5t117.5 65.5t81.5 97.5t31 131q0 52 -15 94t-46 72.5t-64 52.5t-84 40t-88.5 29t-94.5 25q-30 7 -44 11l-180 47
q-52 14 -86.5 24t-96 32t-103 44t-92.5 58t-81.5 75t-52 93.5t-21.5 116.5q0 83 35.5 152t95 116.5t138.5 81t164.5 48.5t174.5 15q142 0 264 -40.5t218 -129t141 -215.5l-100 -37q-56 150 -200.5 239t-342.5 89q-197 0 -334 -85.5t-137 -225.5q0 -37 11 -71t27.5 -60.5
t44 -51.5t52 -43t60.5 -36t61 -28.5t62 -22.5t54.5 -17t46.5 -13q8 -2 11 -3l182 -50q186 -50 231 -65q214 -74 280 -199q34 -64 34 -145q0 -103 -54 -190.5t-143.5 -144.5t-203.5 -88.5t-236 -31.5z" />
    <glyph glyph-name="U.ss01" horiz-adv-x="1878" 
d="M920 -35q-117 0 -216 21t-183.5 67.5t-143.5 116t-92 170t-33 225.5v1032h115v-1028q0 -137 41 -238t117 -160.5t175.5 -87.5t225.5 -28q127 0 227 28t176 87.5t117 160.5t41 238v1028h115v-1597h-115v219h-2q-161 -254 -565 -254z" />
    <glyph glyph-name="Uacute.ss01" horiz-adv-x="1878" 
d="M1190 2034l-412 -314h-100l323 314h189zM920 -35q-117 0 -216 21t-183.5 67.5t-143.5 116t-92 170t-33 225.5v1032h115v-1028q0 -137 41 -238t117 -160.5t175.5 -87.5t225.5 -28q127 0 227 28t176 87.5t117 160.5t41 238v1028h115v-1597h-115v219h-2q-161 -254 -565 -254
z" />
    <glyph glyph-name="Ucircumflex.ss01" horiz-adv-x="1878" 
d="M1001 2013l314 -293h-101q-169 128 -294 234q-130 -108 -297 -234h-101l314 293h165zM920 -35q-117 0 -216 21t-183.5 67.5t-143.5 116t-92 170t-33 225.5v1032h115v-1028q0 -137 41 -238t117 -160.5t175.5 -87.5t225.5 -28q127 0 227 28t176 87.5t117 160.5t41 238v1028
h115v-1597h-115v219h-2q-161 -254 -565 -254z" />
    <glyph glyph-name="Udieresis.ss01" horiz-adv-x="1878" 
d="M694 1800q-43 0 -73.5 27t-30.5 65q0 35 30.5 61.5t73.5 26.5q44 0 74.5 -26t30.5 -62q0 -38 -30.5 -65t-74.5 -27zM1145 1800q-45 0 -76 26.5t-31 65.5q0 36 31 62t76 26q41 0 71.5 -26.5t30.5 -61.5q0 -38 -30 -65t-72 -27zM920 -35q-117 0 -216 21t-183.5 67.5
t-143.5 116t-92 170t-33 225.5v1032h115v-1028q0 -137 41 -238t117 -160.5t175.5 -87.5t225.5 -28q127 0 227 28t176 87.5t117 160.5t41 238v1028h115v-1597h-115v219h-2q-161 -254 -565 -254z" />
    <glyph glyph-name="Ugrave.ss01" horiz-adv-x="1878" 
d="M1004 1720h-101l-411 314h188zM920 -35q-117 0 -216 21t-183.5 67.5t-143.5 116t-92 170t-33 225.5v1032h115v-1028q0 -137 41 -238t117 -160.5t175.5 -87.5t225.5 -28q127 0 227 28t176 87.5t117 160.5t41 238v1028h115v-1597h-115v219h-2q-161 -254 -565 -254z" />
    <glyph glyph-name="Uhungarumlaut.ss01" horiz-adv-x="1878" 
d="M1085 2034l-323 -314h-100l253 314h170zM1419 2034l-348 -314h-102l278 314h172zM920 -35q-117 0 -216 21t-183.5 67.5t-143.5 116t-92 170t-33 225.5v1032h115v-1028q0 -137 41 -238t117 -160.5t175.5 -87.5t225.5 -28q127 0 227 28t176 87.5t117 160.5t41 238v1028h115
v-1597h-115v219h-2q-161 -254 -565 -254z" />
    <glyph glyph-name="Umacron.ss01" horiz-adv-x="1878" 
d="M1307 1847h-775v88h775v-88zM920 -35q-117 0 -216 21t-183.5 67.5t-143.5 116t-92 170t-33 225.5v1032h115v-1028q0 -137 41 -238t117 -160.5t175.5 -87.5t225.5 -28q127 0 227 28t176 87.5t117 160.5t41 238v1028h115v-1597h-115v219h-2q-161 -254 -565 -254z" />
    <glyph glyph-name="Uogonek.ss01" horiz-adv-x="1878" 
d="M1614 -389q44 0 104 14v-74q-66 -14 -108 -14q-136 0 -225 63t-89 169q0 132 189 231h2v219h-2q-161 -254 -565 -254q-117 0 -216 21t-183.5 67.5t-143.5 116t-92 170t-33 225.5v1032h115v-1028q0 -137 41 -238t117 -160.5t175.5 -87.5t225.5 -28q127 0 227 28t176 87.5
t117 160.5t41 238v1028h115v-1597q-213 -102 -213 -223q0 -75 65.5 -120.5t159.5 -45.5z" />
    <glyph glyph-name="Uring.ss01" horiz-adv-x="1878" 
d="M920 1716q-113 0 -187 60t-74 153q0 91 74 150t187 59q109 0 182.5 -59.5t73.5 -149.5q0 -93 -73 -153t-183 -60zM920 1794q72 0 119.5 36.5t47.5 98.5q0 60 -48 95.5t-119 35.5q-74 0 -123 -35.5t-49 -95.5q0 -63 49 -99t123 -36zM920 -35q-117 0 -216 21t-183.5 67.5
t-143.5 116t-92 170t-33 225.5v1032h115v-1028q0 -137 41 -238t117 -160.5t175.5 -87.5t225.5 -28q127 0 227 28t176 87.5t117 160.5t41 238v1028h115v-1597h-115v219h-2q-161 -254 -565 -254z" />
    <glyph glyph-name="V.ss01" horiz-adv-x="1794" 
d="M1006 0h-215l-744 1597h121q91 -199 203.5 -443.5t478.5 -1042.5h104q112 248 335.5 743t336.5 743h121z" />
    <glyph glyph-name="W.ss01" horiz-adv-x="2777" 
d="M831 0h-137l-641 1597h115l594 -1472h4l512 1472h246l493 -1472h6l586 1472h115l-641 -1597h-137l-494 1503h-102z" />
    <glyph glyph-name="Wacute.ss01" horiz-adv-x="2777" 
d="M1817 2034l-412 -314h-100l323 314h189zM831 0h-137l-641 1597h115l594 -1472h4l512 1472h246l493 -1472h6l586 1472h115l-641 -1597h-137l-494 1503h-102z" />
    <glyph glyph-name="Wcircumflex.ss01" horiz-adv-x="2777" 
d="M1470 2013l314 -293h-101q-169 128 -294 234q-130 -108 -297 -234h-101l314 293h165zM831 0h-137l-641 1597h115l594 -1472h4l512 1472h246l493 -1472h6l586 1472h115l-641 -1597h-137l-494 1503h-102z" />
    <glyph glyph-name="Wdieresis.ss01" horiz-adv-x="2777" 
d="M1163 1800q-43 0 -73.5 27t-30.5 65q0 35 30.5 61.5t73.5 26.5q44 0 74.5 -26t30.5 -62q0 -38 -30.5 -65t-74.5 -27zM1614 1800q-45 0 -76 26.5t-31 65.5q0 36 31 62t76 26q41 0 71.5 -26.5t30.5 -61.5q0 -38 -30 -65t-72 -27zM831 0h-137l-641 1597h115l594 -1472h4
l512 1472h246l493 -1472h6l586 1472h115l-641 -1597h-137l-494 1503h-102z" />
    <glyph glyph-name="Wgrave.ss01" horiz-adv-x="2777" 
d="M1473 1720h-101l-411 314h188zM831 0h-137l-641 1597h115l594 -1472h4l512 1472h246l493 -1472h6l586 1472h115l-641 -1597h-137l-494 1503h-102z" />
    <glyph glyph-name="X.ss01" horiz-adv-x="1667" 
d="M168 0h-127l664 811v25l-644 761h127q356 -429 594 -727h103q37 45 189 232.5t405 494.5h127l-641 -761v-25l661 -811h-125q-602 762 -616 780h-103q-397 -507 -614 -780z" />
    <glyph glyph-name="Y.ss01" horiz-adv-x="1640" 
d="M479 0h-112l430 596l-725 1001h125l657 -909h4l662 909h120z" />
    <glyph glyph-name="Yacute.ss01" horiz-adv-x="1640" 
d="M1284 2034l-412 -314h-100l324 314h188zM479 0h-112l430 596l-725 1001h125l657 -909h4l662 909h120z" />
    <glyph glyph-name="Ycircumflex.ss01" horiz-adv-x="1640" 
d="M938 2013l313 -293h-100q-178 134 -295 234q-130 -108 -297 -234h-100l313 293h166zM479 0h-112l430 596l-725 1001h125l657 -909h4l662 909h120z" />
    <glyph glyph-name="Ydieresis.ss01" horiz-adv-x="1640" 
d="M631 1800q-43 0 -74 27t-31 65q0 35 31 61.5t74 26.5q44 0 74 -26t30 -62q0 -38 -30 -65t-74 -27zM1081 1800q-45 0 -75.5 26.5t-30.5 65.5q0 36 30.5 62t75.5 26q41 0 72 -26.5t31 -61.5q0 -38 -30.5 -65t-72.5 -27zM479 0h-112l430 596l-725 1001h125l657 -909h4
l662 909h120z" />
    <glyph glyph-name="Ygrave.ss01" horiz-adv-x="1640" 
d="M940 1720h-100l-412 314h188zM479 0h-112l430 596l-725 1001h125l657 -909h4l662 909h120z" />
    <glyph glyph-name="Z.ss01" horiz-adv-x="1656" 
d="M1559 0h-1551l1399 1507h-1253v90h1468l-1395 -1501h1332v-96z" />
    <glyph glyph-name="Zacute.ss01" horiz-adv-x="1656" 
d="M1243 2034l-412 -314h-100l324 314h188zM1559 0h-1551l1399 1507h-1253v90h1468l-1395 -1501h1332v-96z" />
    <glyph glyph-name="Zcaron.ss01" horiz-adv-x="1656" 
d="M1110 2013h100l-313 -293h-166l-313 293h100q200 -151 297 -233q115 97 295 233zM1559 0h-1551l1399 1507h-1253v90h1468l-1395 -1501h1332v-96z" />
    <glyph glyph-name="Zdotaccent.ss01" horiz-adv-x="1656" 
d="M815 1794q-47 0 -80 28.5t-33 69.5q0 39 33 67t80 28q46 0 78.5 -28.5t32.5 -66.5q0 -41 -32.5 -69.5t-78.5 -28.5zM1559 0h-1551l1399 1507h-1253v90h1468l-1395 -1501h1332v-96z" />
    <glyph glyph-name="Q.ss02" horiz-adv-x="2197" 
d="M1161 -33v-243h686v-91h-796v332q-149 6 -287.5 49t-251 119t-196.5 175.5t-130.5 225.5t-46.5 263q0 175 76 330.5t205.5 265.5t306.5 173.5t373 63.5q199 0 377 -65.5t305.5 -177t201.5 -265.5t74 -325q0 -166 -70 -315.5t-190 -259t-285.5 -177.5t-351.5 -78zM262 797
q0 -151 64 -285t171.5 -229.5t251.5 -154t302 -67.5v506h110v-506q208 14 383 110t281 261t106 365q0 157 -68 296t-181.5 235.5t-264.5 152t-315 55.5q-166 0 -319.5 -55.5t-268 -152t-183.5 -235.5t-69 -296z" />
    <glyph glyph-name="A.ss07" 
d="M1225 -315q-237 0 -446.5 71t-359 193.5t-236.5 294t-87 364.5q0 198 87 372.5t236.5 298.5t359 195.5t446.5 71.5q239 0 449 -71.5t360 -195.5t236.5 -298.5t86.5 -372.5q0 -156 -55 -298t-157.5 -255t-241 -196.5t-313 -128.5t-365.5 -45zM1186 1096l-477 -963h92
l176 356h498q22 -45 84 -167.5t94 -188.5h92l-477 963h-82zM1442 559h-432q172 353 217 442q79 -169 215 -442z" />
    <glyph glyph-name="B.ss07" horiz-adv-x="2459" 
d="M1225 -315q-237 0 -446.5 71t-359 193.5t-236.5 294t-87 364.5q0 198 87 372.5t236.5 298.5t359 195.5t446.5 71.5q239 0 449 -71.5t360 -195.5t236.5 -298.5t86.5 -372.5q0 -156 -55 -298t-157.5 -255t-241 -196.5t-313 -128.5t-365.5 -45zM864 1096v-963h461
q148 0 247 75t99 185q0 84 -59.5 146t-159.5 84q84 26 134 85.5t50 133.5q0 110 -106 182t-270 72h-396zM950 651v375h297q131 0 214 -53t83 -137t-77 -134.5t-205 -50.5h-312zM1298 203h-348v379h334q131 0 214 -54.5t83 -140.5q0 -83 -77.5 -133.5t-205.5 -50.5z" />
    <glyph glyph-name="C.ss07" 
d="M1227 -315q-237 0 -446.5 71t-359 193.5t-236.5 294t-87 364.5q0 198 87 372.5t236.5 298.5t359 195.5t446.5 71.5q239 0 449 -71.5t360 -195.5t236.5 -298.5t86.5 -372.5q0 -156 -55 -298t-157.5 -255t-241 -196.5t-313 -128.5t-365.5 -45zM1270 113q200 0 344 92.5
t201 259.5l-78 24q-24 -83 -79.5 -149.5t-154 -111t-223.5 -44.5q-97 0 -184.5 27t-158.5 78t-113 134t-42 187q0 190 137 312t347 122q147 0 262 -64.5t162 -174.5l77 26q-33 95 -116.5 161.5t-182 95t-206.5 28.5q-246 0 -409 -144t-163 -362q0 -219 162.5 -358
t417.5 -139z" />
    <glyph glyph-name="D.ss07" 
d="M1225 -315q-237 0 -446.5 71t-359 193.5t-236.5 294t-87 364.5q0 198 87 372.5t236.5 298.5t359 195.5t446.5 71.5q239 0 449 -71.5t360 -195.5t236.5 -298.5t86.5 -372.5q0 -156 -55 -298t-157.5 -255t-241 -196.5t-313 -128.5t-365.5 -45zM819 1096v-963h412
q243 0 389.5 133t146.5 355q0 224 -146.5 349.5t-403.5 125.5h-398zM1247 203h-340v823h295q225 0 349 -109t124 -303q0 -189 -116.5 -300t-311.5 -111z" />
    <glyph glyph-name="E.ss07" 
d="M1225 -315q-237 0 -446.5 71t-359 193.5t-236.5 294t-87 364.5q0 198 87 372.5t236.5 298.5t359 195.5t446.5 71.5q239 0 449 -71.5t360 -195.5t236.5 -298.5t86.5 -372.5q0 -156 -55 -298t-157.5 -255t-241 -196.5t-313 -128.5t-365.5 -45zM893 1096v-963h739v74h-651
v387h608v70h-608v362h639v70h-727z" />
    <glyph glyph-name="F.ss07" horiz-adv-x="2459" 
d="M1225 -315q-237 0 -446.5 71t-359 193.5t-236.5 294t-87 364.5q0 198 87 372.5t236.5 298.5t359 195.5t446.5 71.5q239 0 449 -71.5t360 -195.5t236.5 -298.5t86.5 -372.5q0 -156 -55 -298t-157.5 -255t-241 -196.5t-313 -128.5t-365.5 -45zM915 1096v-963h89v455h593v69
h-593v365h624v74h-713z" />
    <glyph glyph-name="G.ss07" 
d="M1227 -315q-237 0 -446.5 71t-359 193.5t-236.5 294t-87 364.5q0 198 87 372.5t236.5 298.5t359 195.5t446.5 71.5q239 0 449 -71.5t360 -195.5t236.5 -298.5t86.5 -372.5q0 -156 -55 -298t-157.5 -255t-241 -196.5t-313 -128.5t-365.5 -45zM1264 113q163 0 281.5 61.5
t180.5 177.5v-219h78v471h-512v-69h426q-15 -158 -139 -254.5t-307 -96.5q-95 0 -181.5 27t-156 78.5t-111 134.5t-41.5 186q0 190 137 312t347 122q147 0 262 -64.5t162 -174.5l77 26q-50 139 -192.5 212t-312.5 73q-246 0 -409 -144t-163 -362t161.5 -357.5t412.5 -139.5z
" />
    <glyph glyph-name="H.ss07" 
d="M1225 -315q-237 0 -446.5 71t-359 193.5t-236.5 294t-87 364.5q0 198 87 372.5t236.5 298.5t359 195.5t446.5 71.5q239 0 449 -71.5t360 -195.5t236.5 -298.5t86.5 -372.5q0 -156 -55 -298t-157.5 -255t-241 -196.5t-313 -128.5t-365.5 -45zM795 1096v-963h88v453h692
v-453h88v963h-88v-441h-692v441h-88z" />
    <glyph glyph-name="I.ss07" 
d="M1225 -315q-237 0 -446.5 71t-359 193.5t-236.5 294t-87 364.5q0 198 87 372.5t236.5 298.5t359 195.5t446.5 71.5q239 0 449 -71.5t360 -195.5t236.5 -298.5t86.5 -372.5q0 -156 -55 -298t-157.5 -255t-241 -196.5t-313 -128.5t-365.5 -45zM1184 1096v-963h88v963h-88z
" />
    <glyph glyph-name="J.ss07" 
d="M1225 -315q-237 0 -446.5 71t-359 193.5t-236.5 294t-87 364.5q0 198 87 372.5t236.5 298.5t359 195.5t446.5 71.5q239 0 449 -71.5t360 -195.5t236.5 -298.5t86.5 -372.5q0 -156 -55 -298t-157.5 -255t-241 -196.5t-313 -128.5t-365.5 -45zM1182 123q65 0 116.5 16.5
t84 39.5t55.5 61t34 68.5t17.5 76t7 68t0.5 59.5v594h-86v-617q0 -30 -0.5 -48t-5 -53t-12.5 -57.5t-25 -51t-40.5 -45.5t-61 -29t-84.5 -12q-38 0 -72.5 6.5t-70.5 24t-62 44.5t-42.5 72t-16.5 102v29l-80 -8v-33q0 -84 31 -146.5t83 -96t109.5 -49t120.5 -15.5z" />
    <glyph glyph-name="K.ss07" 
d="M1225 -315q-237 0 -446.5 71t-359 193.5t-236.5 294t-87 364.5q0 198 87 372.5t236.5 298.5t359 195.5t446.5 71.5q239 0 449 -71.5t360 -195.5t236.5 -298.5t86.5 -372.5q0 -156 -55 -298t-157.5 -255t-241 -196.5t-313 -128.5t-365.5 -45zM885 1096v-963h86v344l78 69
t79 68q81 -85 243.5 -252.5t221.5 -228.5h109l-510 539q53 47 221 195.5t262 228.5h-112q-383 -335 -592 -523v523h-86z" />
    <glyph glyph-name="L.ss07" 
d="M1225 -315q-237 0 -446.5 71t-359 193.5t-236.5 294t-87 364.5q0 198 87 372.5t236.5 298.5t359 195.5t446.5 71.5q239 0 449 -71.5t360 -195.5t236.5 -298.5t86.5 -372.5q0 -156 -55 -298t-157.5 -255t-241 -196.5t-313 -128.5t-365.5 -45zM979 1096v-963h696v74h-608
v889h-88z" />
    <glyph glyph-name="M.ss07" horiz-adv-x="2459" 
d="M1225 -315q-237 0 -446.5 71t-359 193.5t-236.5 294t-87 364.5q0 198 87 372.5t236.5 298.5t359 195.5t446.5 71.5q239 0 449 -71.5t360 -195.5t236.5 -298.5t86.5 -372.5q0 -156 -55 -298t-157.5 -255t-241 -196.5t-313 -128.5t-365.5 -45zM653 1096v-963h86v805
q150 -277 445 -805h90q286 515 444 809v-809h88v963h-96q-70 -131 -146.5 -268.5t-185.5 -332.5t-149 -266q-225 417 -481 867h-95z" />
    <glyph glyph-name="N.ss07" 
d="M1225 -315q-237 0 -446.5 71t-359 193.5t-236.5 294t-87 364.5q0 198 87 372.5t236.5 298.5t359 195.5t446.5 71.5q239 0 449 -71.5t360 -195.5t236.5 -298.5t86.5 -372.5q0 -156 -55 -298t-157.5 -255t-241 -196.5t-313 -128.5t-365.5 -45zM795 1096v-963h88v838
q129 -154 370 -434t346 -404h93v963h-86v-846q-117 140 -719 846h-92z" />
    <glyph glyph-name="O.ss07" 
d="M1225 -315q-237 0 -446.5 71t-359 193.5t-236.5 294t-87 364.5q0 198 87 372.5t236.5 298.5t359 195.5t446.5 71.5q239 0 449 -71.5t360 -195.5t236.5 -298.5t86.5 -372.5q0 -156 -55 -298t-157.5 -255t-241 -196.5t-313 -128.5t-365.5 -45zM1229 113q120 0 227 39
t184.5 106t122.5 159.5t45 196.5q0 138 -76.5 253.5t-209 182t-291.5 66.5q-161 0 -294 -66t-209.5 -181.5t-76.5 -254.5t76.5 -254.5t209 -181t292.5 -65.5zM743 614q0 118 65.5 217t177.5 156t245 57q200 0 341.5 -125.5t141.5 -304.5t-141.5 -304.5t-341.5 -125.5
q-202 0 -345 125t-143 305z" />
    <glyph glyph-name="P.ss07" 
d="M1225 -315q-237 0 -446.5 71t-359 193.5t-236.5 294t-87 364.5q0 198 87 372.5t236.5 298.5t359 195.5t446.5 71.5q239 0 449 -71.5t360 -195.5t236.5 -298.5t86.5 -372.5q0 -156 -55 -298t-157.5 -255t-241 -196.5t-313 -128.5t-365.5 -45zM893 1096v-963h86v389h338
q156 0 252 81t96 210t-102.5 206t-272.5 77h-397zM1290 592h-311v434h297q137 0 217 -58.5t80 -158.5q0 -104 -73.5 -160.5t-209.5 -56.5z" />
    <glyph glyph-name="Q.ss07" 
d="M1225 -315q-237 0 -446.5 71t-359 193.5t-236.5 294t-87 364.5q0 198 87 372.5t236.5 298.5t359 195.5t446.5 71.5q239 0 449 -71.5t360 -195.5t236.5 -298.5t86.5 -372.5q0 -156 -55 -298t-157.5 -255t-241 -196.5t-313 -128.5t-365.5 -45zM1698 68l61 47
q-13 12 -160 157q98 70 151.5 171t53.5 214q0 138 -76.5 253.5t-209 182t-291.5 66.5q-161 0 -294 -66t-209.5 -181.5t-76.5 -254.5t76.5 -254.5t209 -181t292.5 -65.5q172 0 309 73q20 -20 77 -75t87 -86zM739 657q0 118 65.5 217t177.5 156t245 57q200 0 341.5 -125.5
t141.5 -304.5q0 -197 -170 -325q-22 22 -68 67.5t-88 86t-86 81.5l-59 -45l238 -233q-118 -62 -250 -62q-202 0 -345 125t-143 305z" />
    <glyph glyph-name="R.ss07" 
d="M1225 -315q-237 0 -446.5 71t-359 193.5t-236.5 294t-87 364.5q0 198 87 372.5t236.5 298.5t359 195.5t446.5 71.5q239 0 449 -71.5t360 -195.5t236.5 -298.5t86.5 -372.5q0 -156 -55 -298t-157.5 -255t-241 -196.5t-313 -128.5t-365.5 -45zM901 1096v-963h86v389h289
l313 -389h99q-49 63 -154.5 192t-159.5 199q135 12 217 90.5t82 198.5q0 129 -101.5 206t-273.5 77h-397zM1298 592h-311v434h297q137 0 217 -58.5t80 -158.5q0 -104 -73.5 -160.5t-209.5 -56.5z" />
    <glyph glyph-name="S.ss07" 
d="M1225 -315q-237 0 -446.5 71t-359 193.5t-236.5 294t-87 364.5q0 198 87 372.5t236.5 298.5t359 195.5t446.5 71.5q239 0 449 -71.5t360 -195.5t236.5 -298.5t86.5 -372.5q0 -156 -55 -298t-157.5 -255t-241 -196.5t-313 -128.5t-365.5 -45zM1249 113q164 0 275.5 79.5
t111.5 198.5q0 47 -22 86t-44 60.5t-77.5 45t-75.5 29t-85 22.5q-17 5 -25 7l-109 29q-24 6 -36 9.5t-42.5 14t-48.5 19.5t-44 25.5t-40.5 34t-25.5 42.5t-11 53q0 77 75.5 126.5t193.5 49.5q116 0 200 -53t115 -145l78 28q-37 114 -138.5 178t-244.5 64q-90 0 -171.5 -26
t-139.5 -86t-58 -142q0 -190 324 -270l106 -27q9 -2 34 -8.5t36 -9t34 -9.5t34 -12t30 -14t28.5 -17.5t22 -20.5t18.5 -25.5t10.5 -30.5t4.5 -37q0 -51 -26.5 -90t-69.5 -61.5t-93 -34t-102 -11.5q-130 0 -225 65.5t-129 180.5l-80 -27q25 -80 74 -139.5t110.5 -90.5
t123 -45.5t124.5 -14.5z" />
    <glyph glyph-name="T.ss07" 
d="M1225 -315q-237 0 -446.5 71t-359 193.5t-236.5 294t-87 364.5q0 198 87 372.5t236.5 298.5t359 195.5t446.5 71.5q239 0 449 -71.5t360 -195.5t236.5 -298.5t86.5 -372.5q0 -156 -55 -298t-157.5 -255t-241 -196.5t-313 -128.5t-365.5 -45zM1186 1026v-893h86v893h401
v70h-893v-70h406z" />
    <glyph glyph-name="U.ss07" 
d="M1225 -315q-237 0 -446.5 71t-359 193.5t-236.5 294t-87 364.5q0 198 87 372.5t236.5 298.5t359 195.5t446.5 71.5q239 0 449 -71.5t360 -195.5t236.5 -298.5t86.5 -372.5q0 -156 -55 -298t-157.5 -255t-241 -196.5t-313 -128.5t-365.5 -45zM1225 123q194 0 303.5 95.5
t109.5 268.5v619h-88v-617q0 -296 -321 -296q-324 0 -324 296v617h-86v-619q0 -175 105.5 -269.5t300.5 -94.5z" />
    <glyph glyph-name="V.ss07" 
d="M1225 -315q-237 0 -446.5 71t-359 193.5t-236.5 294t-87 364.5q0 198 87 372.5t236.5 298.5t359 195.5t446.5 71.5q239 0 449 -71.5t360 -195.5t236.5 -298.5t86.5 -372.5q0 -156 -55 -298t-157.5 -255t-241 -196.5t-313 -128.5t-365.5 -45zM709 1096l477 -963h82
l477 963h-92q-61 -126 -203 -417.5t-219 -453.5q-311 642 -430 871h-92z" />
    <glyph glyph-name="W.ss07" 
d="M1225 -315q-237 0 -446.5 71t-359 193.5t-236.5 294t-87 364.5q0 198 87 372.5t236.5 298.5t359 195.5t446.5 71.5q239 0 449 -71.5t360 -195.5t236.5 -298.5t86.5 -372.5q0 -156 -55 -298t-157.5 -255t-241 -196.5t-313 -128.5t-365.5 -45zM424 1096l387 -963h90
q138 335 328 856q176 -488 327 -856h91l387 963h-88q-217 -531 -342 -856q-57 149 -165.5 429t-164.5 427h-90q-26 -69 -101.5 -268.5t-224.5 -587.5q-142 370 -346 856h-88z" />
    <glyph glyph-name="X.ss07" 
d="M1225 -315q-237 0 -446.5 71t-359 193.5t-236.5 294t-87 364.5q0 198 87 372.5t236.5 298.5t359 195.5t446.5 71.5q239 0 449 -71.5t360 -195.5t236.5 -298.5t86.5 -372.5q0 -156 -55 -298t-157.5 -255t-241 -196.5t-313 -128.5t-365.5 -45zM768 133h98q74 89 205 247
t158 191q51 -61 172 -210t188 -228h99q-70 82 -206 248t-206 248q68 80 200.5 235.5t196.5 231.5h-98q-159 -182 -348 -408q-58 68 -173.5 204.5t-174.5 203.5h-101q75 -89 213 -248t189 -219q-110 -130 -412 -496z" />
    <glyph glyph-name="Y.ss07" 
d="M1225 -315q-237 0 -446.5 71t-359 193.5t-236.5 294t-87 364.5q0 198 87 372.5t236.5 298.5t359 195.5t446.5 71.5q239 0 449 -71.5t360 -195.5t236.5 -298.5t86.5 -372.5q0 -156 -55 -298t-157.5 -255t-241 -196.5t-313 -128.5t-365.5 -45zM1184 492v-359h88v359
q56 78 164.5 227.5t189.5 261t84 115.5h-94q-285 -388 -387 -533q-72 99 -206 283.5t-181 249.5h-97q59 -82 209 -287t230 -317z" />
    <glyph glyph-name="Z.ss07" 
d="M1225 -315q-237 0 -446.5 71t-359 193.5t-236.5 294t-87 364.5q0 198 87 372.5t236.5 298.5t359 195.5t446.5 71.5q239 0 449 -71.5t360 -195.5t236.5 -298.5t86.5 -372.5q0 -156 -55 -298t-157.5 -255t-241 -196.5t-313 -128.5t-365.5 -45zM809 205v-72h885v74h-779
q49 53 329.5 352t436.5 469v68h-839v-70h729q-119 -127 -762 -821z" />
    <glyph glyph-name="A.ss08" 
d="M1225 1546q239 0 449 -71.5t360 -195.5t236.5 -298.5t86.5 -372.5q0 -156 -55 -298t-157.5 -255t-241 -196.5t-313 -128.5t-365.5 -45q-237 0 -446.5 71t-359 193.5t-236.5 294t-87 364.5q0 198 87 372.5t236.5 298.5t359 195.5t446.5 71.5zM1225 -244q220 0 414 65
t333 178t219 271.5t80 339.5q0 243 -136.5 441t-376 310t-533.5 112q-292 0 -531 -112t-375.5 -310t-136.5 -441q0 -179 80.5 -337.5t218.5 -272t331.5 -179t412.5 -65.5zM852 266l346 697h64l346 -697h-74q-19 41 -64 130t-63 126h-356q-37 -75 -80 -161.5t-47 -94.5h-72z
M1077 578h303q-92 180 -151 309q-111 -223 -152 -309z" />
    <glyph glyph-name="B.ss08" 
d="M1225 1546q239 0 449 -71.5t360 -195.5t236.5 -298.5t86.5 -372.5q0 -156 -55 -298t-157.5 -255t-241 -196.5t-313 -128.5t-365.5 -45q-237 0 -446.5 71t-359 193.5t-236.5 294t-87 364.5q0 198 87 372.5t236.5 298.5t359 195.5t446.5 71.5zM1225 -244q220 0 414 65
t333 178t219 271.5t80 339.5q0 243 -136.5 441t-376 310t-533.5 112q-292 0 -531 -112t-375.5 -310t-136.5 -441q0 -179 80.5 -337.5t218.5 -272t331.5 -179t412.5 -65.5zM1393 621q72 -17 114.5 -61.5t42.5 -102.5q0 -82 -72.5 -136.5t-179.5 -54.5h-335v697h286
q120 0 197.5 -52.5t77.5 -134.5q0 -51 -35 -93t-96 -62zM1032 907v-264h219q91 0 147 36t56 95q0 58 -60 95.5t-153 37.5h-209zM1278 322q91 0 146 35.5t55 93.5q0 61 -59 100t-152 39h-236v-268h246z" />
    <glyph glyph-name="C.ss08" 
d="M1225 -315q-237 0 -446.5 71t-359 193.5t-236.5 294t-87 364.5q0 198 87 372.5t236.5 298.5t359 195.5t446.5 71.5q239 0 449 -71.5t360 -195.5t236.5 -298.5t86.5 -372.5q0 -156 -55 -298t-157.5 -255t-241 -196.5t-313 -128.5t-365.5 -45zM1225 -244q220 0 414 65
t333 178t219 271.5t80 339.5q0 243 -136.5 441t-376 310t-533.5 112q-292 0 -531 -112t-375.5 -310t-136.5 -441q0 -179 80.5 -337.5t218.5 -272t331.5 -179t412.5 -65.5zM1257 252q-185 0 -303 100t-118 258t118 262.5t297 104.5q135 0 235 -56.5t134 -150.5l-59 -22
q-35 79 -119.5 125.5t-186.5 46.5q-151 0 -248.5 -87t-97.5 -223q0 -97 52 -167.5t131 -103t172 -32.5q123 0 210.5 59t116.5 162l62 -20q-40 -121 -145 -188.5t-251 -67.5z" />
    <glyph glyph-name="D.ss08" horiz-adv-x="2459" 
d="M1225 -315q-237 0 -446.5 71t-359 193.5t-236.5 294t-87 364.5q0 198 87 372.5t236.5 298.5t359 195.5t446.5 71.5q239 0 449 -71.5t360 -195.5t236.5 -298.5t86.5 -372.5q0 -156 -55 -298t-157.5 -255t-241 -196.5t-313 -128.5t-365.5 -45zM1225 -244q220 0 414 65
t333 178t219 271.5t80 339.5q0 243 -136.5 441t-376 310t-533.5 112q-292 0 -531 -112t-375.5 -310t-136.5 -441q0 -179 80.5 -337.5t218.5 -272t331.5 -179t412.5 -65.5zM1233 266h-301v697h291q186 0 291.5 -92t105.5 -253q0 -159 -106.5 -255.5t-280.5 -96.5zM1001 322
h242q140 0 223.5 79t83.5 213q0 139 -89.5 216t-248.5 77h-211v-585z" />
    <glyph glyph-name="E.ss08" 
d="M1225 -315q-237 0 -446.5 71t-359 193.5t-236.5 294t-87 364.5q0 198 87 372.5t236.5 298.5t359 195.5t446.5 71.5q239 0 449 -71.5t360 -195.5t236.5 -298.5t86.5 -372.5q0 -156 -55 -298t-157.5 -255t-241 -196.5t-313 -128.5t-365.5 -45zM1225 -244q220 0 414 65
t333 178t219 271.5t80 339.5q0 243 -136.5 441t-376 310t-533.5 112q-292 0 -531 -112t-375.5 -310t-136.5 -441q0 -179 80.5 -337.5t218.5 -272t331.5 -179t412.5 -65.5zM1522 266h-539v697h530v-56h-460v-254h438v-55h-438v-274h469v-58z" />
    <glyph glyph-name="F.ss08" 
d="M1225 -315q-237 0 -446.5 71t-359 193.5t-236.5 294t-87 364.5q0 198 87 372.5t236.5 298.5t359 195.5t446.5 71.5q239 0 449 -71.5t360 -195.5t236.5 -298.5t86.5 -372.5q0 -156 -55 -298t-157.5 -255t-241 -196.5t-313 -128.5t-365.5 -45zM1225 -244q220 0 414 65
t333 178t219 271.5t80 339.5q0 243 -136.5 441t-376 310t-533.5 112q-292 0 -531 -112t-375.5 -310t-136.5 -441q0 -179 80.5 -337.5t218.5 -272t331.5 -179t412.5 -65.5zM1069 266h-70v697h519v-58h-449v-258h428v-53h-428v-328z" />
    <glyph glyph-name="G.ss08" 
d="M1225 1546q239 0 449 -71.5t360 -195.5t236.5 -298.5t86.5 -372.5q0 -156 -55 -298t-157.5 -255t-241 -196.5t-313 -128.5t-365.5 -45q-237 0 -446.5 71t-359 193.5t-236.5 294t-87 364.5q0 198 87 372.5t236.5 298.5t359 195.5t446.5 71.5zM1225 -244q220 0 414 65
t333 178t219 271.5t80 339.5q0 243 -136.5 441t-376 310t-533.5 112q-292 0 -531 -112t-375.5 -310t-136.5 -441q0 -179 80.5 -337.5t218.5 -272t331.5 -179t412.5 -65.5zM1272 555v53h375v-342h-64q0 26 1 78t1 74q-44 -78 -129 -122t-203 -44q-183 0 -300 100.5
t-117 257.5q0 158 118 262.5t297 104.5q135 0 235 -56.5t134 -150.5l-59 -22q-35 79 -119.5 125.5t-186.5 46.5q-151 0 -248.5 -87t-97.5 -223q0 -97 51.5 -167.5t129.5 -103t170 -32.5q132 0 219 68.5t98 179.5h-305z" />
    <glyph glyph-name="H.ss08" 
d="M1225 1546q239 0 449 -71.5t360 -195.5t236.5 -298.5t86.5 -372.5q0 -156 -55 -298t-157.5 -255t-241 -196.5t-313 -128.5t-365.5 -45q-237 0 -446.5 71t-359 193.5t-236.5 294t-87 364.5q0 198 87 372.5t236.5 298.5t359 195.5t446.5 71.5zM1225 -244q220 0 414 65
t333 178t219 271.5t80 339.5q0 243 -136.5 441t-376 310t-533.5 112q-292 0 -531 -112t-375.5 -310t-136.5 -441q0 -179 80.5 -337.5t218.5 -272t331.5 -179t412.5 -65.5zM983 647h494v316h69v-697h-69v326h-494v-326h-70v697h70v-316z" />
    <glyph glyph-name="I.ss08" horiz-adv-x="2459" 
d="M1227 -315q-237 0 -446.5 71t-359 193.5t-236.5 294t-87 364.5q0 198 87 372.5t236.5 298.5t359 195.5t446.5 71.5q239 0 449 -71.5t360 -195.5t236.5 -298.5t86.5 -372.5q0 -156 -55 -298t-157.5 -255t-241 -196.5t-313 -128.5t-365.5 -45zM1227 -244q220 0 414 65
t333 178t219 271.5t80 339.5q0 243 -136.5 441t-376 310t-533.5 112q-292 0 -531 -112t-375.5 -310t-136.5 -441q0 -179 80.5 -337.5t218.5 -272t331.5 -179t412.5 -65.5zM1264 266h-70v697h70v-697z" />
    <glyph glyph-name="J.ss08" 
d="M1225 -315q-237 0 -446.5 71t-359 193.5t-236.5 294t-87 364.5q0 198 87 372.5t236.5 298.5t359 195.5t446.5 71.5q239 0 449 -71.5t360 -195.5t236.5 -298.5t86.5 -372.5q0 -156 -55 -298t-157.5 -255t-241 -196.5t-313 -128.5t-365.5 -45zM1225 -244q220 0 414 65
t333 178t219 271.5t80 339.5q0 243 -136.5 441t-376 310t-533.5 112q-292 0 -531 -112t-375.5 -310t-136.5 -441q0 -179 80.5 -337.5t218.5 -272t331.5 -179t412.5 -65.5zM1196 258q-117 0 -184.5 59.5t-67.5 163.5v25l64 8v-25q0 -83 50 -130.5t136 -47.5q33 0 59.5 8.5
t43.5 20.5t29 32.5t17.5 36.5t8.5 41t3.5 38t0.5 34v447h69v-430q0 -26 -0.5 -42.5t-5 -49.5t-12.5 -54.5t-25 -49.5t-40.5 -44.5t-61 -28.5t-84.5 -12z" />
    <glyph glyph-name="K.ss08" 
d="M1225 1546q239 0 449 -71.5t360 -195.5t236.5 -298.5t86.5 -372.5q0 -156 -55 -298t-157.5 -255t-241 -196.5t-313 -128.5t-365.5 -45q-237 0 -446.5 71t-359 193.5t-236.5 294t-87 364.5q0 198 87 372.5t236.5 298.5t359 195.5t446.5 71.5zM1225 -244q220 0 414 65
t333 178t219 271.5t80 339.5q0 243 -136.5 441t-376 310t-533.5 112q-292 0 -531 -112t-375.5 -310t-136.5 -441q0 -179 80.5 -337.5t218.5 -272t331.5 -179t412.5 -65.5zM1470 963h89q-45 -40 -82 -71.5t-92.5 -80.5t-176.5 -156l367 -389h-86q-42 45 -124 130t-144 148
t-64 66l-108 -96v-248h-70v697h70v-373q239 214 421 373z" />
    <glyph glyph-name="L.ss08" 
d="M1225 1546q239 0 449 -71.5t360 -195.5t236.5 -298.5t86.5 -372.5q0 -156 -55 -298t-157.5 -255t-241 -196.5t-313 -128.5t-365.5 -45q-237 0 -446.5 71t-359 193.5t-236.5 294t-87 364.5q0 198 87 372.5t236.5 298.5t359 195.5t446.5 71.5zM1225 -244q220 0 414 65
t333 178t219 271.5t80 339.5q0 243 -136.5 441t-376 310t-533.5 112q-292 0 -531 -112t-375.5 -310t-136.5 -441q0 -179 80.5 -337.5t218.5 -272t331.5 -179t412.5 -65.5zM1047 963h69v-639h438v-58h-507v697z" />
    <glyph glyph-name="M.ss08" horiz-adv-x="2459" 
d="M1225 1546q239 0 449 -71.5t360 -195.5t236.5 -298.5t86.5 -372.5q0 -156 -55 -298t-157.5 -255t-241 -196.5t-313 -128.5t-365.5 -45q-237 0 -446.5 71t-359 193.5t-236.5 294t-87 364.5q0 198 87 372.5t236.5 298.5t359 195.5t446.5 71.5zM1225 -244q220 0 414 65
t333 178t219 271.5t80 339.5q0 243 -136.5 441t-376 310t-533.5 112q-292 0 -531 -112t-375.5 -310t-136.5 -441q0 -179 80.5 -337.5t218.5 -272t331.5 -179t412.5 -65.5zM1229 344q113 198 346 619h72v-697h-68v572q-58 -109 -169.5 -309.5t-145.5 -262.5h-68
q-210 376 -315 572v-572h-70v697h74q181 -318 344 -619z" />
    <glyph glyph-name="N.ss08" 
d="M1225 1546q239 0 449 -71.5t360 -195.5t236.5 -298.5t86.5 -372.5q0 -156 -55 -298t-157.5 -255t-241 -196.5t-313 -128.5t-365.5 -45q-237 0 -446.5 71t-359 193.5t-236.5 294t-87 364.5q0 198 87 372.5t236.5 298.5t359 195.5t446.5 71.5zM1225 -244q220 0 414 65
t333 178t219 271.5t80 339.5q0 243 -136.5 441t-376 310t-533.5 112q-292 0 -531 -112t-375.5 -310t-136.5 -441q0 -179 80.5 -337.5t218.5 -272t331.5 -179t412.5 -65.5zM1497 358v605h70v-697h-70l-514 596v-596h-70v697h72q230 -269 512 -605z" />
    <glyph glyph-name="O.ss08" horiz-adv-x="2455" 
d="M1225 -315q-237 0 -446.5 71t-359 193.5t-236.5 294t-87 364.5q0 198 87 372.5t236.5 298.5t359 195.5t446.5 71.5q239 0 449 -71.5t360 -195.5t236.5 -298.5t86.5 -372.5q0 -156 -55 -298t-157.5 -255t-241 -196.5t-313 -128.5t-365.5 -45zM1225 -244q220 0 414 65
t333 178t219 271.5t80 339.5q0 243 -136.5 441t-376 310t-533.5 112q-292 0 -531 -112t-375.5 -310t-136.5 -441q0 -179 80.5 -337.5t218.5 -272t331.5 -179t412.5 -65.5zM1229 252q-176 0 -298 104.5t-122 257.5q0 152 122.5 257.5t299.5 105.5q175 0 296.5 -105.5
t121.5 -257.5t-121.5 -257t-298.5 -105zM1231 307q143 0 243.5 90t100.5 217t-100.5 216.5t-243.5 89.5q-145 0 -246.5 -89.5t-101.5 -216.5q0 -128 101.5 -217.5t246.5 -89.5z" />
    <glyph glyph-name="P.ss08" 
d="M1225 1546q239 0 449 -71.5t360 -195.5t236.5 -298.5t86.5 -372.5q0 -156 -55 -298t-157.5 -255t-241 -196.5t-313 -128.5t-365.5 -45q-237 0 -446.5 71t-359 193.5t-236.5 294t-87 364.5q0 198 87 372.5t236.5 298.5t359 195.5t446.5 71.5zM1225 -244q220 0 414 65
t333 178t219 271.5t80 339.5q0 243 -136.5 441t-376 310t-533.5 112q-292 0 -531 -112t-375.5 -310t-136.5 -441q0 -179 80.5 -337.5t218.5 -272t331.5 -179t412.5 -65.5zM983 963h287q126 0 200 -55.5t74 -149.5q0 -96 -69.5 -154.5t-184.5 -58.5h-237v-279h-70v697z
M1053 600h219q97 0 150 40.5t53 113.5q0 71 -57.5 112t-155.5 41h-209v-307z" />
    <glyph glyph-name="Q.ss08" 
d="M1225 -315q-237 0 -446.5 71t-359 193.5t-236.5 294t-87 364.5q0 198 87 372.5t236.5 298.5t359 195.5t446.5 71.5q239 0 449 -71.5t360 -195.5t236.5 -298.5t86.5 -372.5q0 -156 -55 -298t-157.5 -255t-241 -196.5t-313 -128.5t-365.5 -45zM1225 -244q220 0 414 65
t333 178t219 271.5t80 339.5q0 243 -136.5 441t-376 310t-533.5 112q-292 0 -531 -112t-375.5 -310t-136.5 -441q0 -179 80.5 -337.5t218.5 -272t331.5 -179t412.5 -65.5zM1612 254l-47 -35q-10 10 -25.5 25l-31 30t-29.5 28.5t-23 22.5l-10 9q-102 -51 -221 -51
q-176 0 -298 104.5t-122 257.5q0 152 122.5 257.5t299.5 105.5q174 0 296 -105.5t122 -257.5q0 -81 -38.5 -153t-107.5 -123q19 -20 57 -57.5t56 -57.5zM1227 338q93 0 174 43l-40 40t-45 44t-41.5 39t-32 30t-13.5 13l51 37q56 -56 174 -170q117 93 117 231q0 127 -101 216
t-243 89q-145 0 -246.5 -89t-101.5 -216q0 -128 101.5 -217.5t246.5 -89.5z" />
    <glyph glyph-name="R.ss08" 
d="M1225 1546q239 0 449 -71.5t360 -195.5t236.5 -298.5t86.5 -372.5q0 -156 -55 -298t-157.5 -255t-241 -196.5t-313 -128.5t-365.5 -45q-237 0 -446.5 71t-359 193.5t-236.5 294t-87 364.5q0 198 87 372.5t236.5 298.5t359 195.5t446.5 71.5zM1225 -244q220 0 414 65
t333 178t219 271.5t80 339.5q0 243 -136.5 441t-376 310t-533.5 112q-292 0 -531 -112t-375.5 -310t-136.5 -441q0 -179 80.5 -337.5t218.5 -272t331.5 -179t412.5 -65.5zM1548 758q0 -86 -58 -143t-155 -66q109 -138 228 -283h-78l-225 279h-203v-279h-70v697h287
q126 0 200 -55.5t74 -149.5zM1057 600h219q97 0 150 40.5t53 113.5q0 71 -57.5 112t-155.5 41h-209v-307z" />
    <glyph glyph-name="S.ss08" 
d="M1225 -315q-237 0 -446.5 71t-359 193.5t-236.5 294t-87 364.5q0 198 87 372.5t236.5 298.5t359 195.5t446.5 71.5q239 0 449 -71.5t360 -195.5t236.5 -298.5t86.5 -372.5q0 -156 -55 -298t-157.5 -255t-241 -196.5t-313 -128.5t-365.5 -45zM1225 -244q220 0 414 65
t333 178t219 271.5t80 339.5q0 243 -136.5 441t-376 310t-533.5 112q-292 0 -531 -112t-375.5 -310t-136.5 -441q0 -179 80.5 -337.5t218.5 -272t331.5 -179t412.5 -65.5zM1243 252q-117 0 -200 55t-115 156l63 20q25 -82 93.5 -129t160.5 -47q81 0 144 35t63 104
q0 17 -5 31.5t-10.5 24.5t-19.5 19.5t-22 14.5t-29 12.5t-29 9.5t-33 8.5t-32 8.5l-78 21q-30 8 -52 14.5t-59 23.5t-61 36.5t-42.5 52t-18.5 70.5q0 88 82.5 136t187.5 48q104 0 177 -47t101 -129l-61 -23q-23 66 -83.5 104t-143.5 38t-137 -34.5t-54 -88.5q0 -97 178 -142
l78 -20q108 -28 145 -46q95 -47 95 -136q0 -86 -82 -143.5t-201 -57.5z" />
    <glyph glyph-name="T.ss08" horiz-adv-x="2455" 
d="M1225 -315q-237 0 -446.5 71t-359 193.5t-236.5 294t-87 364.5q0 198 87 372.5t236.5 298.5t359 195.5t446.5 71.5q239 0 449 -71.5t360 -195.5t236.5 -298.5t86.5 -372.5q0 -156 -55 -298t-157.5 -255t-241 -196.5t-313 -128.5t-365.5 -45zM1225 -244q220 0 414 65
t333 178t219 271.5t80 339.5q0 243 -136.5 441t-376 310t-533.5 112q-292 0 -531 -112t-375.5 -310t-136.5 -441q0 -179 80.5 -337.5t218.5 -272t331.5 -179t412.5 -65.5zM1262 266h-70v641h-289v56h647v-56h-288v-641z" />
    <glyph glyph-name="U.ss08" horiz-adv-x="2459" 
d="M1225 -315q-237 0 -446.5 71t-359 193.5t-236.5 294t-87 364.5q0 198 87 372.5t236.5 298.5t359 195.5t446.5 71.5q239 0 449 -71.5t360 -195.5t236.5 -298.5t86.5 -372.5q0 -156 -55 -298t-157.5 -255t-241 -196.5t-313 -128.5t-365.5 -45zM1225 -244q220 0 414 65
t333 178t219 271.5t80 339.5q0 243 -136.5 441t-376 310t-533.5 112q-292 0 -531 -112t-375.5 -310t-136.5 -441q0 -179 80.5 -337.5t218.5 -272t331.5 -179t412.5 -65.5zM1227 258q-140 0 -217.5 68.5t-77.5 195.5v447h69v-447q0 -104 57.5 -157.5t170.5 -53.5
q229 0 229 211v447h70v-447q0 -125 -80 -194.5t-221 -69.5z" />
    <glyph glyph-name="V.ss08" 
d="M1225 1546q239 0 449 -71.5t360 -195.5t236.5 -298.5t86.5 -372.5q0 -156 -55 -298t-157.5 -255t-241 -196.5t-313 -128.5t-365.5 -45q-237 0 -446.5 71t-359 193.5t-236.5 294t-87 364.5q0 198 87 372.5t236.5 298.5t359 195.5t446.5 71.5zM1225 -244q220 0 414 65
t333 178t219 271.5t80 339.5q0 243 -136.5 441t-376 310t-533.5 112q-292 0 -531 -112t-375.5 -310t-136.5 -441q0 -179 80.5 -337.5t218.5 -272t331.5 -179t412.5 -65.5zM1231 342q44 92 147.5 300.5t155.5 320.5h74l-346 -697h-64l-346 697h72q134 -261 307 -621z" />
    <glyph glyph-name="W.ss08" 
d="M1225 1546q239 0 449 -71.5t360 -195.5t236.5 -298.5t86.5 -372.5q0 -156 -55 -298t-157.5 -255t-241 -196.5t-313 -128.5t-365.5 -45q-237 0 -446.5 71t-359 193.5t-236.5 294t-87 364.5q0 198 87 372.5t236.5 298.5t359 195.5t446.5 71.5zM1225 -244q220 0 414 65
t333 178t219 271.5t80 339.5q0 243 -136.5 441t-376 310t-533.5 112q-292 0 -531 -112t-375.5 -310t-136.5 -441q0 -179 80.5 -337.5t218.5 -272t331.5 -179t412.5 -65.5zM1499 348q195 497 246 615h67l-278 -697h-72q-42 102 -80 199.5t-86.5 228.5t-66.5 178
q-129 -349 -234 -606h-71l-279 697h72q164 -402 246 -609q27 70 95 246.5t138 362.5h68q170 -448 235 -615z" />
    <glyph glyph-name="X.ss08" 
d="M1225 1546q239 0 449 -71.5t360 -195.5t236.5 -298.5t86.5 -372.5q0 -156 -55 -298t-157.5 -255t-241 -196.5t-313 -128.5t-365.5 -45q-237 0 -446.5 71t-359 193.5t-236.5 294t-87 364.5q0 198 87 372.5t236.5 298.5t359 195.5t446.5 71.5zM1225 -244q220 0 414 65
t333 178t219 271.5t80 339.5q0 243 -136.5 441t-376 310t-533.5 112q-292 0 -531 -112t-375.5 -310t-136.5 -441q0 -179 80.5 -337.5t218.5 -272t331.5 -179t412.5 -65.5zM1477 963h77q-50 -60 -148.5 -174.5t-139.5 -163.5q146 -173 297 -359h-76q-39 46 -125.5 150.5
t-134.5 161.5q-132 -159 -258 -312h-78q31 37 115.5 140.5t181.5 218.5q-32 37 -108.5 125.5t-180.5 212.5h78l250 -293q166 200 250 293z" />
    <glyph glyph-name="Y.ss08" 
d="M1225 1546q239 0 449 -71.5t360 -195.5t236.5 -298.5t86.5 -372.5q0 -156 -55 -298t-157.5 -255t-241 -196.5t-313 -128.5t-365.5 -45q-237 0 -446.5 71t-359 193.5t-236.5 294t-87 364.5q0 198 87 372.5t236.5 298.5t359 195.5t446.5 71.5zM1225 -244q220 0 414 65
t333 178t219 271.5t80 339.5q0 243 -136.5 441t-376 310t-533.5 112q-292 0 -531 -112t-375.5 -310t-136.5 -441q0 -179 80.5 -337.5t218.5 -272t331.5 -179t412.5 -65.5zM1229 582q35 47 77.5 106t87.5 120.5t113 154.5h74l-319 -437v-260h-68v260q-47 64 -99 135t-221 302
h80q48 -67 140 -194t135 -187z" />
    <glyph glyph-name="Z.ss08" 
d="M1225 1546q239 0 449 -71.5t360 -195.5t236.5 -298.5t86.5 -372.5q0 -156 -55 -298t-157.5 -255t-241 -196.5t-313 -128.5t-365.5 -45q-237 0 -446.5 71t-359 193.5t-236.5 294t-87 364.5q0 198 87 372.5t236.5 298.5t359 195.5t446.5 71.5zM1225 -244q220 0 414 65
t333 178t219 271.5t80 339.5q0 243 -136.5 441t-376 310t-533.5 112q-292 0 -531 -112t-375.5 -310t-136.5 -441q0 -179 80.5 -337.5t218.5 -272t331.5 -179t412.5 -65.5zM1559 963v-52q-268 -291 -549 -587h559v-58h-643v56q72 77 122.5 132.5t137.5 148.5t287 304h-525v56
h611z" />
    <glyph glyph-name="i.loclTRK" horiz-adv-x="577" 
d="M291 1446q-47 0 -80 28.5t-33 69.5q0 38 33 66t80 28q46 0 78 -28t32 -66q0 -41 -32 -69.5t-78 -28.5zM342 0h-106v1126h106v-1126z" />
    <glyph glyph-name="a.ss01" horiz-adv-x="1652" 
d="M756 -35q-178 0 -322 75.5t-227.5 212t-83.5 308.5q0 173 84.5 310.5t229.5 212.5t323 75q169 0 315.5 -74t231.5 -215h4v256h106v-1126h-106v252h-8q-82 -138 -226.5 -212.5t-320.5 -74.5zM766 49q150 0 273.5 69t193.5 187.5t70 261.5q0 144 -72.5 261t-196.5 182
t-272 65q-226 0 -374 -146.5t-148 -367.5q0 -222 150.5 -367t375.5 -145z" />
    <glyph glyph-name="aacute.ss01" horiz-adv-x="1652" 
d="M1243 1673l-373 -395h-96l303 395h166zM756 -35q-178 0 -322 75.5t-227.5 212t-83.5 308.5q0 173 84.5 310.5t229.5 212.5t323 75q169 0 315.5 -74t231.5 -215h4v256h106v-1126h-106v252h-8q-82 -138 -226.5 -212.5t-320.5 -74.5zM766 49q150 0 273.5 69t193.5 187.5
t70 261.5q0 144 -72.5 261t-196.5 182t-272 65q-226 0 -374 -146.5t-148 -367.5q0 -222 150.5 -367t375.5 -145z" />
    <glyph glyph-name="abreve.ss01" horiz-adv-x="1652" 
d="M827 1278q-203 0 -319.5 111t-124.5 284h104q6 -140 99 -224.5t241 -84.5q144 0 238.5 83t101.5 226h105q-8 -173 -125.5 -284t-319.5 -111zM756 -35q-178 0 -322 75.5t-227.5 212t-83.5 308.5q0 173 84.5 310.5t229.5 212.5t323 75q169 0 315.5 -74t231.5 -215h4v256
h106v-1126h-106v252h-8q-82 -138 -226.5 -212.5t-320.5 -74.5zM766 49q150 0 273.5 69t193.5 187.5t70 261.5q0 144 -72.5 261t-196.5 182t-272 65q-226 0 -374 -146.5t-148 -367.5q0 -222 150.5 -367t375.5 -145z" />
    <glyph glyph-name="acircumflex.ss01" horiz-adv-x="1652" 
d="M487 1278h-102l356 354h170l357 -354h-103q-216 177 -338 285q-207 -179 -340 -285zM756 -35q-178 0 -322 75.5t-227.5 212t-83.5 308.5q0 173 84.5 310.5t229.5 212.5t323 75q169 0 315.5 -74t231.5 -215h4v256h106v-1126h-106v252h-8q-82 -138 -226.5 -212.5
t-320.5 -74.5zM766 49q150 0 273.5 69t193.5 187.5t70 261.5q0 144 -72.5 261t-196.5 182t-272 65q-226 0 -374 -146.5t-148 -367.5q0 -222 150.5 -367t375.5 -145z" />
    <glyph glyph-name="adieresis.ss01" horiz-adv-x="1652" 
d="M629 1391q-44 0 -75.5 27t-31.5 65q0 36 31.5 62t75.5 26q43 0 72.5 -26t29.5 -62q0 -39 -29 -65.5t-73 -26.5zM1026 1391q-45 0 -74.5 26.5t-29.5 65.5q0 36 29.5 62t74.5 26q43 0 73.5 -26.5t30.5 -61.5q0 -38 -30.5 -65t-73.5 -27zM756 -35q-178 0 -322 75.5
t-227.5 212t-83.5 308.5q0 173 84.5 310.5t229.5 212.5t323 75q169 0 315.5 -74t231.5 -215h4v256h106v-1126h-106v252h-8q-82 -138 -226.5 -212.5t-320.5 -74.5zM766 49q150 0 273.5 69t193.5 187.5t70 261.5q0 144 -72.5 261t-196.5 182t-272 65q-226 0 -374 -146.5
t-148 -367.5q0 -222 150.5 -367t375.5 -145z" />
    <glyph glyph-name="agrave.ss01" horiz-adv-x="1652" 
d="M881 1278h-97l-372 395h166zM756 -35q-178 0 -322 75.5t-227.5 212t-83.5 308.5q0 173 84.5 310.5t229.5 212.5t323 75q169 0 315.5 -74t231.5 -215h4v256h106v-1126h-106v252h-8q-82 -138 -226.5 -212.5t-320.5 -74.5zM766 49q150 0 273.5 69t193.5 187.5t70 261.5
q0 144 -72.5 261t-196.5 182t-272 65q-226 0 -374 -146.5t-148 -367.5q0 -222 150.5 -367t375.5 -145z" />
    <glyph glyph-name="amacron.ss01" horiz-adv-x="1652" 
d="M1239 1438h-825v88h825v-88zM756 -35q-178 0 -322 75.5t-227.5 212t-83.5 308.5q0 173 84.5 310.5t229.5 212.5t323 75q169 0 315.5 -74t231.5 -215h4v256h106v-1126h-106v252h-8q-82 -138 -226.5 -212.5t-320.5 -74.5zM766 49q150 0 273.5 69t193.5 187.5t70 261.5
q0 144 -72.5 261t-196.5 182t-272 65q-226 0 -374 -146.5t-148 -367.5q0 -222 150.5 -367t375.5 -145z" />
    <glyph glyph-name="aogonek.ss01" horiz-adv-x="1652" 
d="M1434 -389q44 0 104 14v-74q-63 -14 -115 -14q-131 0 -219 62.5t-88 164.5q0 75 51 131t144 105v252h-8q-82 -138 -226.5 -212.5t-320.5 -74.5q-178 0 -322 75.5t-227.5 212t-83.5 308.5q0 173 84.5 310.5t229.5 212.5t323 75q169 0 315.5 -74t231.5 -215h4v256h106
v-1126h2q-104 -50 -157.5 -103.5t-53.5 -119.5q0 -75 66 -120.5t160 -45.5zM766 49q150 0 273.5 69t193.5 187.5t70 261.5q0 144 -72.5 261t-196.5 182t-272 65q-226 0 -374 -146.5t-148 -367.5q0 -222 150.5 -367t375.5 -145z" />
    <glyph glyph-name="aring.ss01" horiz-adv-x="1652" 
d="M827 1245q-113 0 -186.5 60t-73.5 153q0 91 73.5 150t186.5 59q109 0 182.5 -59.5t73.5 -149.5q0 -93 -73 -153t-183 -60zM827 1323q72 0 120 36.5t48 98.5q0 60 -48.5 95.5t-119.5 35.5q-74 0 -123 -35.5t-49 -95.5q0 -63 49 -99t123 -36zM756 -35q-178 0 -322 75.5
t-227.5 212t-83.5 308.5q0 173 84.5 310.5t229.5 212.5t323 75q169 0 315.5 -74t231.5 -215h4v256h106v-1126h-106v252h-8q-82 -138 -226.5 -212.5t-320.5 -74.5zM766 49q150 0 273.5 69t193.5 187.5t70 261.5q0 144 -72.5 261t-196.5 182t-272 65q-226 0 -374 -146.5
t-148 -367.5q0 -222 150.5 -367t375.5 -145z" />
    <glyph glyph-name="atilde.ss01" horiz-adv-x="1652" 
d="M1012 1343q-23 0 -42.5 2t-37 8t-29.5 10t-28 14t-22.5 14.5t-24 17.5t-21.5 16l-41 31q-26 19 -40.5 28.5t-38 18t-48.5 8.5q-60 0 -99.5 -43.5t-39.5 -109.5h-86q1 101 66.5 165t166.5 64q53 0 91.5 -18t84.5 -53l49 -37q80 -62 148 -62q61 0 96 44t35 112h88
q0 -103 -60.5 -166.5t-166.5 -63.5zM756 -35q-178 0 -322 75.5t-227.5 212t-83.5 308.5q0 173 84.5 310.5t229.5 212.5t323 75q169 0 315.5 -74t231.5 -215h4v256h106v-1126h-106v252h-8q-82 -138 -226.5 -212.5t-320.5 -74.5zM766 49q150 0 273.5 69t193.5 187.5t70 261.5
q0 144 -72.5 261t-196.5 182t-272 65q-226 0 -374 -146.5t-148 -367.5q0 -222 150.5 -367t375.5 -145z" />
    <glyph glyph-name="b.ss01" horiz-adv-x="1386" 
d="M782 -35q-149 0 -263 53.5t-177 153.5h-4v-172h-102v1638h106v-1009h6q64 91 178.5 138.5t255.5 47.5q154 0 273 -57.5t182 -154.5t63 -216q0 -180 -144 -301t-374 -121zM784 45q172 0 291 98t119 246q0 140 -110.5 241t-299.5 101q-195 0 -308.5 -99.5t-113.5 -234.5
q0 -143 121.5 -247.5t300.5 -104.5z" />
    <glyph glyph-name="d.ss01" horiz-adv-x="1644" 
d="M756 -35q-178 0 -322 75.5t-227.5 212t-83.5 308.5q0 173 84.5 310.5t229.5 212.5t323 75q168 0 310.5 -71.5t227.5 -210.5h7v761h106v-1638h-102v252h-6q-82 -138 -227.5 -212.5t-319.5 -74.5zM762 49q146 0 269.5 64t197.5 182.5t74 267.5t-74 267t-197.5 181.5
t-269.5 63.5q-226 0 -374 -146.5t-148 -367.5t149.5 -366.5t372.5 -145.5z" />
    <glyph glyph-name="dcaron.ss01" horiz-adv-x="1644" 
d="M756 -35q-178 0 -322 75.5t-227.5 212t-83.5 308.5q0 173 84.5 310.5t229.5 212.5t323 75q168 0 310.5 -71.5t227.5 -210.5h7v761h106v-1638h-102v252h-6q-82 -138 -227.5 -212.5t-319.5 -74.5zM1665 1204h-78l139 244q-36 9 -55.5 33.5t-19.5 56.5q0 38 32 65t78 27
q44 0 76.5 -27t32.5 -65q0 -33 -37.5 -93t-167.5 -241zM762 49q146 0 269.5 64t197.5 182.5t74 267.5t-74 267t-197.5 181.5t-269.5 63.5q-226 0 -374 -146.5t-148 -367.5t149.5 -366.5t372.5 -145.5z" />
    <glyph glyph-name="dcroat.ss01" horiz-adv-x="1644" 
d="M1411 1432h320v-84h-320v-1348h-102v252h-6q-82 -138 -227.5 -212.5t-319.5 -74.5q-178 0 -322 75.5t-227.5 212t-83.5 308.5q0 173 84.5 310.5t229.5 212.5t323 75q168 0 310.5 -71.5t227.5 -210.5h7v471h-357v84h357v206h106v-206zM762 49q146 0 269.5 64t197.5 182.5
t74 267.5t-74 267t-197.5 181.5t-269.5 63.5q-226 0 -374 -146.5t-148 -367.5t149.5 -366.5t372.5 -145.5z" />
    <glyph glyph-name="g.ss01" horiz-adv-x="1644" 
d="M1409 -451h-1210v86h1104v652h-7q-82 -138 -226 -212.5t-318 -74.5q-132 0 -248.5 44.5t-200.5 122t-133 186t-49 231.5q0 166 84.5 298t229.5 204.5t321 72.5q170 0 316 -73.5t231 -215.5h4v256h102v-1577zM760 84q146 0 270 64.5t198.5 180.5t74.5 257t-74.5 254
t-198.5 174t-270 61q-224 0 -373 -141.5t-149 -349.5q0 -211 150.5 -355.5t371.5 -144.5z" />
    <glyph glyph-name="gbreve.ss01" horiz-adv-x="1644" 
d="M823 1278q-203 0 -319.5 111t-124.5 284h104q6 -140 99 -224.5t241 -84.5q144 0 238.5 83t101.5 226h105q-8 -173 -125.5 -284t-319.5 -111zM1409 -451h-1210v86h1104v652h-7q-82 -138 -226 -212.5t-318 -74.5q-132 0 -248.5 44.5t-200.5 122t-133 186t-49 231.5
q0 166 84.5 298t229.5 204.5t321 72.5q170 0 316 -73.5t231 -215.5h4v256h102v-1577zM760 84q146 0 270 64.5t198.5 180.5t74.5 257t-74.5 254t-198.5 174t-270 61q-224 0 -373 -141.5t-149 -349.5q0 -211 150.5 -355.5t371.5 -144.5z" />
    <glyph glyph-name="uni0123.ss01" horiz-adv-x="1644" 
d="M680 1339q0 36 35.5 93t169.5 241h80l-142 -243q36 -9 56 -33.5t20 -57.5q0 -38 -32.5 -65t-78.5 -27q-44 0 -76 27t-32 65zM1409 -451h-1210v86h1104v652h-7q-82 -138 -226 -212.5t-318 -74.5q-132 0 -248.5 44.5t-200.5 122t-133 186t-49 231.5q0 166 84.5 298
t229.5 204.5t321 72.5q170 0 316 -73.5t231 -215.5h4v256h102v-1577zM760 84q146 0 270 64.5t198.5 180.5t74.5 257t-74.5 254t-198.5 174t-270 61q-224 0 -373 -141.5t-149 -349.5q0 -211 150.5 -355.5t371.5 -144.5z" />
    <glyph glyph-name="gdotaccent.ss01" horiz-adv-x="1644" 
d="M825 1446q-47 0 -79.5 28.5t-32.5 69.5q0 39 32.5 66.5t79.5 27.5q46 0 78.5 -28t32.5 -66q0 -41 -32.5 -69.5t-78.5 -28.5zM1409 -451h-1210v86h1104v652h-7q-82 -138 -226 -212.5t-318 -74.5q-132 0 -248.5 44.5t-200.5 122t-133 186t-49 231.5q0 166 84.5 298
t229.5 204.5t321 72.5q170 0 316 -73.5t231 -215.5h4v256h102v-1577zM760 84q146 0 270 64.5t198.5 180.5t74.5 257t-74.5 254t-198.5 174t-270 61q-224 0 -373 -141.5t-149 -349.5q0 -211 150.5 -355.5t371.5 -144.5z" />
    <glyph glyph-name="i.ss01" horiz-adv-x="808" 
d="M424 1446q-47 0 -80 28.5t-33 69.5q0 38 33 66t80 28q46 0 78.5 -28t32.5 -66q0 -41 -32.5 -69.5t-78.5 -28.5zM780 0h-409v1040h-346v86h452v-1040h303v-86z" />
    <glyph glyph-name="dotlessi.ss01" horiz-adv-x="808" 
d="M780 0h-409v1040h-346v86h452v-1040h303v-86z" />
    <glyph glyph-name="iacute.ss01" horiz-adv-x="808" 
d="M764 1673l-373 -395h-96l303 395h166zM780 0h-409v1040h-346v86h452v-1040h303v-86z" />
    <glyph glyph-name="icircumflex.ss01" horiz-adv-x="808" 
d="M8 1278h-102l356 354h170l356 -354h-102q-216 177 -338 285q-207 -179 -340 -285zM780 0h-409v1040h-346v86h452v-1040h303v-86z" />
    <glyph glyph-name="idieresis.ss01" horiz-adv-x="808" 
d="M150 1391q-44 0 -75.5 27t-31.5 65q0 36 31.5 62t75.5 26q43 0 72.5 -26t29.5 -62q0 -39 -29 -65.5t-73 -26.5zM547 1391q-45 0 -75 26.5t-30 65.5q0 36 30 62t75 26q43 0 73.5 -26.5t30.5 -61.5q0 -38 -30.5 -65t-73.5 -27zM780 0h-409v1040h-346v86h452v-1040h303v-86z
" />
    <glyph glyph-name="i.loclTRK.ss01" horiz-adv-x="808" 
d="M383 1446q-47 0 -80 28.5t-33 69.5q0 38 33 66t80 28q46 0 78.5 -28t32.5 -66q0 -41 -32.5 -69.5t-78.5 -28.5zM780 0h-409v1040h-346v86h452v-1040h303v-86z" />
    <glyph glyph-name="igrave.ss01" horiz-adv-x="808" 
d="M401 1278h-96l-373 395h166zM780 0h-409v1040h-346v86h452v-1040h303v-86z" />
    <glyph glyph-name="imacron.ss01" horiz-adv-x="808" 
d="M760 1438h-826v88h826v-88zM780 0h-409v1040h-346v86h452v-1040h303v-86z" />
    <glyph glyph-name="iogonek.ss01" horiz-adv-x="808" 
d="M350 1446q-47 0 -79.5 28.5t-32.5 69.5q0 39 32.5 66.5t79.5 27.5q46 0 78.5 -28t32.5 -66q0 -41 -32.5 -69.5t-78.5 -28.5zM780 0h-301q-104 -50 -157.5 -103.5t-53.5 -119.5q0 -75 66 -120.5t160 -45.5q45 0 104 14v-74q-63 -14 -115 -14q-131 0 -219 62.5t-88 164.5
q0 75 51 131t144 105v1040h-346v86h452v-1040h303v-86z" />
    <glyph glyph-name="j.ss01" horiz-adv-x="710" 
d="M422 1446q-47 0 -80 28.5t-33 69.5q0 38 33 66t80 28q46 0 78 -28t32 -66q0 -41 -32 -69.5t-78 -28.5zM475 -451h-608v86h502v1405h-344v86h450v-1577z" />
    <glyph glyph-name="l.ss01" horiz-adv-x="886" 
d="M881 0h-635v1638h106v-1552h529v-86z" />
    <glyph glyph-name="lacute.ss01" horiz-adv-x="886" 
d="M854 2075l-412 -314h-100l324 314h188zM881 0h-635v1638h106v-1552h529v-86z" />
    <glyph glyph-name="lcaron.ss01" horiz-adv-x="886" 
d="M881 0h-635v1638h106v-1552h529v-86zM666 1204h-78l139 244q-36 9 -56 33.5t-20 56.5q0 38 32.5 65t78.5 27q44 0 76 -27t32 -65q0 -33 -38 -94t-166 -240z" />
    <glyph glyph-name="uni013C.ss01" horiz-adv-x="886" 
d="M881 0h-635v1638h106v-1552h529v-86zM393 -483h-53l106 182q-100 16 -100 90q0 38 32.5 65t78.5 27q44 0 76 -27t32 -65q0 -35 -33 -85.5t-139 -186.5z" />
    <glyph glyph-name="lslash.ss01" horiz-adv-x="886" 
d="M352 918v-832h529v-86h-635v854l-258 -156v88l258 156v696h106v-632l232 139v-88z" />
    <glyph glyph-name="m.ss01" horiz-adv-x="2514" 
d="M342 0h-106v1126h106v-538l815 538h154v-538l815 538h153v-1126h-106v1040h-14l-848 -555v-485h-107v1040h-14l-848 -555v-485z" />
    <glyph glyph-name="n.ss01" horiz-adv-x="1570" 
d="M342 582l838 544h155v-1126h-106v1040h-15l-872 -555v-485h-106v1126h106v-544z" />
    <glyph glyph-name="nacute.ss01" horiz-adv-x="1570" 
d="M1034 1673h166l-373 -395h-96zM342 582l838 544h155v-1126h-106v1040h-15l-872 -555v-485h-106v1126h106v-544z" />
    <glyph glyph-name="ncaron.ss01" horiz-adv-x="1570" 
d="M1225 1632l-357 -354h-170l-356 354h102q226 -184 340 -284q103 92 338 284h103zM342 582l838 544h155v-1126h-106v1040h-15l-872 -555v-485h-106v1126h106v-544z" />
    <glyph glyph-name="uni0146.ss01" horiz-adv-x="1570" 
d="M342 582l838 544h155v-1126h-106v1040h-15l-872 -555v-485h-106v1126h106v-544zM815 -119q44 0 76.5 -27t32.5 -65q0 -35 -33 -85.5t-139 -186.5h-54l107 182q-100 16 -100 90q0 38 32 65t78 27z" />
    <glyph glyph-name="eng.ss01" horiz-adv-x="1570" 
d="M977 -483q-149 0 -252 59v94q117 -69 236 -69q43 0 79.5 9.5t62.5 24t46.5 39t33.5 46.5t22.5 56t14 57t6.5 60.5t2.5 56t0.5 52.5v1038h-15l-872 -555v-485h-106v1126h106v-540l838 540h155v-1140q0 -49 -1 -78t-7.5 -84.5t-19.5 -91t-39 -80.5t-63 -71.5t-95.5 -45
t-132.5 -18.5z" />
    <glyph glyph-name="ntilde.ss01" horiz-adv-x="1570" 
d="M596 1511q-60 0 -99.5 -43.5t-39.5 -109.5h-86q1 101 66.5 165t166.5 64q53 0 91.5 -18t84.5 -53l49 -37q80 -62 148 -62q61 0 96 44t35 112h88q0 -103 -60.5 -166.5t-166.5 -63.5q-23 0 -42.5 2t-37 8t-29.5 10t-28 14t-22.5 14.5t-24 17.5t-21.5 16l-41 31
q-26 19 -40.5 28.5t-38 18t-48.5 8.5zM342 582l838 544h155v-1126h-106v1040h-15l-872 -555v-485h-106v1126h106v-544z" />
    <glyph glyph-name="p.ss01" horiz-adv-x="1648" 
d="M342 -451h-106v1577h102v-256h4q85 143 231.5 216t317.5 73q176 0 320.5 -75t228.5 -212t84 -309q0 -173 -83.5 -310t-227.5 -212.5t-322 -75.5q-174 0 -319.5 74.5t-229.5 212.5v-703zM883 49q227 0 375.5 146t148.5 368q0 146 -68.5 263.5t-188.5 183t-267 65.5
q-145 0 -268.5 -64t-198 -183t-74.5 -267t74.5 -266.5t197.5 -182t269 -63.5z" />
    <glyph glyph-name="q.ss01" horiz-adv-x="1646" 
d="M1411 -451h-106v703q-81 -136 -227 -211.5t-322 -75.5q-178 0 -322 75.5t-227.5 212t-83.5 308.5q0 173 84.5 310.5t229 212.5t321.5 75q170 0 316 -73.5t231 -215.5h4v256h102v-1577zM762 49q146 0 269.5 64t197.5 182.5t74 267.5t-74 267t-197.5 181.5t-269.5 63.5
q-226 0 -374 -146.5t-148 -367.5t149.5 -366.5t372.5 -145.5z" />
    <glyph glyph-name="r.ss01" horiz-adv-x="966" 
d="M342 0h-106v1126h706v-86h-600v-1040z" />
    <glyph glyph-name="racute.ss01" horiz-adv-x="966" 
d="M897 1673l-373 -395h-96l303 395h166zM342 0h-106v1126h706v-86h-600v-1040z" />
    <glyph glyph-name="rcaron.ss01" horiz-adv-x="966" 
d="M565 1278h-170l-356 354h102q226 -184 340 -284q103 92 338 284h103zM342 0h-106v1126h706v-86h-600v-1040z" />
    <glyph glyph-name="uni0157.ss01" horiz-adv-x="966" 
d="M342 0h-106v1126h706v-86h-600v-1040zM229 -483h-53l107 182q-101 16 -101 90q0 38 32.5 65t78.5 27q44 0 76 -27t32 -65q0 -35 -33 -85.5t-139 -186.5z" />
    <glyph glyph-name="s.ss01" horiz-adv-x="1134" 
d="M977 0h-821v88h714v449h-714v589h821v-86h-715v-417h715v-623z" />
    <glyph glyph-name="sacute.ss01" horiz-adv-x="1134" 
d="M942 1673l-373 -395h-96l303 395h166zM977 0h-821v88h714v449h-714v589h821v-86h-715v-417h715v-623z" />
    <glyph glyph-name="scaron.ss01" horiz-adv-x="1134" 
d="M610 1278h-170l-356 354h102q226 -184 340 -284q103 92 338 284h103zM977 0h-821v88h714v449h-714v589h821v-86h-715v-417h715v-623z" />
    <glyph glyph-name="scedilla.ss01" horiz-adv-x="1134" 
d="M977 1126v-86h-715v-417h715v-623h-365l-143 -172q42 20 113 20q94 0 154.5 -43t60.5 -112q0 -77 -72.5 -126.5t-181.5 -49.5q-81 0 -159.5 29t-131.5 77l55 43q38 -40 102 -65t128 -25q73 0 123.5 32t50.5 81q0 45 -45 74.5t-113 29.5q-66 0 -119 -24l-55 47l145 184
h-368v88h714v449h-714v589h821z" />
    <glyph glyph-name="uni0219.ss01" horiz-adv-x="1134" 
d="M977 0h-821v88h714v449h-714v589h821v-86h-715v-417h715v-623zM494 -483h-54l107 182q-101 16 -101 90q0 38 32.5 65t78.5 27q44 0 76.5 -27t32.5 -65q0 -35 -33 -85.5t-139 -186.5z" />
    <glyph glyph-name="t.ss01" horiz-adv-x="911" 
d="M410 1044v-958h479v-86h-586v1044h-270v82h270v340h107v-340h430v-82h-430z" />
    <glyph glyph-name="tbar.ss01" horiz-adv-x="911" 
d="M410 602v-516h479v-86h-586v602h-268v84h268v358h-270v82h270v340h107v-340h430v-82h-430v-358h407v-84h-407z" />
    <glyph glyph-name="tcaron.ss01" horiz-adv-x="911" 
d="M866 1204h-78l140 244q-36 9 -56 33.5t-20 56.5q0 38 32.5 65t78.5 27q44 0 76 -27t32 -65q0 -33 -37.5 -93t-167.5 -241zM840 1044h-430v-958h479v-86h-586v1044h-270v82h270v340h107v-340h430v-82z" />
    <glyph glyph-name="uni0163.ss01" horiz-adv-x="911" 
d="M889 86v-86h-320l-143 -172q42 20 113 20q94 0 154.5 -43t60.5 -112q0 -77 -72.5 -126.5t-181.5 -49.5q-81 0 -159.5 29t-131.5 77l55 43q38 -40 102 -65t128 -25q73 0 123.5 32t50.5 81q0 45 -45 74.5t-113 29.5q-66 0 -119 -24l-55 47l145 184h-178v1044h-270v82h270
v340h107v-340h430v-82h-430v-958h479z" />
    <glyph glyph-name="uni021B.ss01" horiz-adv-x="911" 
d="M410 1044v-958h479v-86h-586v1044h-270v82h270v340h107v-340h430v-82h-430zM514 -119q44 0 76.5 -27t32.5 -65q0 -35 -33 -85.5t-139 -186.5h-54l107 182q-101 16 -101 90q0 38 32.5 65t78.5 27z" />
    <glyph glyph-name="yacute.ss01" horiz-adv-x="1304" 
d="M1069 1673l-373 -395h-96l303 395h166zM618 -451h-108l180 451h-188l-434 1126h106l412 -1036h133l411 1036h107z" />
    <glyph glyph-name="ycircumflex.ss01" horiz-adv-x="1304" 
d="M313 1278h-102l356 354h170l357 -354h-103q-216 177 -338 285q-207 -179 -340 -285zM618 -451h-108l180 451h-188l-434 1126h106l412 -1036h133l411 1036h107z" />
    <glyph glyph-name="ydieresis.ss01" horiz-adv-x="1304" 
d="M455 1391q-44 0 -75.5 27t-31.5 65q0 36 31.5 62t75.5 26q43 0 72.5 -26t29.5 -62q0 -39 -29 -65.5t-73 -26.5zM852 1391q-45 0 -74.5 26.5t-29.5 65.5q0 36 29.5 62t74.5 26q43 0 73.5 -26.5t30.5 -61.5q0 -38 -30.5 -65t-73.5 -27zM618 -451h-108l180 451h-188
l-434 1126h106l412 -1036h133l411 1036h107z" />
    <glyph glyph-name="ygrave.ss01" horiz-adv-x="1304" 
d="M707 1278h-97l-372 395h165zM618 -451h-108l180 451h-188l-434 1126h106l412 -1036h133l411 1036h107z" />
    <glyph glyph-name="a.ss02" horiz-adv-x="1400" 
d="M547 -35q-186 0 -304 73t-118 210q0 78 40 138t114 100.5t158.5 66t193.5 43.5q30 5 75.5 12t74 11t67 11t62.5 14t52.5 17.5t45.5 23t32 29.5t22 38.5t7 48.5q0 109 -109 191.5t-276 82.5q-149 0 -254.5 -69.5t-146.5 -184.5l-109 33q37 101 122.5 172t186 102t209.5 31
q67 0 134 -12t133 -40t116.5 -69.5t81.5 -105t31 -141.5v-791h-107v260h-6q-156 -295 -528 -295zM545 47q112 0 213.5 41.5t167.5 104t104.5 133.5t38.5 133v172q-61 -43 -121 -62t-219 -43q-43 -7 -63 -10t-67.5 -12t-74.5 -16.5t-70 -21t-69 -27t-57 -33.5t-48.5 -41.5
t-29.5 -50t-12 -60.5q0 -93 85 -150t222 -57z" />
    <glyph glyph-name="aacute.ss02" horiz-adv-x="1400" 
d="M1126 1673l-372 -395h-97l304 395h165zM547 -35q-186 0 -304 73t-118 210q0 78 40 138t114 100.5t158.5 66t193.5 43.5q30 5 75.5 12t74 11t67 11t62.5 14t52.5 17.5t45.5 23t32 29.5t22 38.5t7 48.5q0 109 -109 191.5t-276 82.5q-149 0 -254.5 -69.5t-146.5 -184.5
l-109 33q37 101 122.5 172t186 102t209.5 31q67 0 134 -12t133 -40t116.5 -69.5t81.5 -105t31 -141.5v-791h-107v260h-6q-156 -295 -528 -295zM545 47q112 0 213.5 41.5t167.5 104t104.5 133.5t38.5 133v172q-61 -43 -121 -62t-219 -43q-43 -7 -63 -10t-67.5 -12
t-74.5 -16.5t-70 -21t-69 -27t-57 -33.5t-48.5 -41.5t-29.5 -50t-12 -60.5q0 -93 85 -150t222 -57z" />
    <glyph glyph-name="abreve.ss02" horiz-adv-x="1400" 
d="M711 1278q-203 0 -320 111t-125 284h105q6 -140 99 -224.5t241 -84.5q144 0 238.5 83t101.5 226h104q-8 -173 -125 -284t-319 -111zM547 -35q-186 0 -304 73t-118 210q0 78 40 138t114 100.5t158.5 66t193.5 43.5q30 5 75.5 12t74 11t67 11t62.5 14t52.5 17.5t45.5 23
t32 29.5t22 38.5t7 48.5q0 109 -109 191.5t-276 82.5q-149 0 -254.5 -69.5t-146.5 -184.5l-109 33q37 101 122.5 172t186 102t209.5 31q67 0 134 -12t133 -40t116.5 -69.5t81.5 -105t31 -141.5v-791h-107v260h-6q-156 -295 -528 -295zM545 47q112 0 213.5 41.5t167.5 104
t104.5 133.5t38.5 133v172q-61 -43 -121 -62t-219 -43q-43 -7 -63 -10t-67.5 -12t-74.5 -16.5t-70 -21t-69 -27t-57 -33.5t-48.5 -41.5t-29.5 -50t-12 -60.5q0 -93 85 -150t222 -57z" />
    <glyph glyph-name="acircumflex.ss02" horiz-adv-x="1167" 
d="M301 1278h-102l356 354h170l356 -354h-102q-216 177 -338 285q-207 -179 -340 -285zM547 -35q-186 0 -304 73t-118 210q0 78 40 138t114 100.5t158.5 66t193.5 43.5q30 5 75.5 12t74 11t67 11t62.5 14t52.5 17.5t45.5 23t32 29.5t22 38.5t7 48.5q0 109 -109 191.5
t-276 82.5q-149 0 -254.5 -69.5t-146.5 -184.5l-109 33q37 101 122.5 172t186 102t209.5 31q67 0 134 -12t133 -40t116.5 -69.5t81.5 -105t31 -141.5v-791h-107v260h-6q-156 -295 -528 -295zM545 47q112 0 213.5 41.5t167.5 104t104.5 133.5t38.5 133v172q-61 -43 -121 -62
t-219 -43q-43 -7 -63 -10t-67.5 -12t-74.5 -16.5t-70 -21t-69 -27t-57 -33.5t-48.5 -41.5t-29.5 -50t-12 -60.5q0 -93 85 -150t222 -57z" />
    <glyph glyph-name="adieresis.ss02" horiz-adv-x="1400" 
d="M512 1391q-44 0 -75 27t-31 65q0 36 31 62t75 26q43 0 72.5 -26t29.5 -62q0 -39 -29 -65.5t-73 -26.5zM909 1391q-45 0 -74.5 26.5t-29.5 65.5q0 36 29.5 62t74.5 26q43 0 74 -26.5t31 -61.5q0 -38 -31 -65t-74 -27zM547 -35q-186 0 -304 73t-118 210q0 78 40 138
t114 100.5t158.5 66t193.5 43.5q30 5 75.5 12t74 11t67 11t62.5 14t52.5 17.5t45.5 23t32 29.5t22 38.5t7 48.5q0 109 -109 191.5t-276 82.5q-149 0 -254.5 -69.5t-146.5 -184.5l-109 33q37 101 122.5 172t186 102t209.5 31q67 0 134 -12t133 -40t116.5 -69.5t81.5 -105
t31 -141.5v-791h-107v260h-6q-156 -295 -528 -295zM545 47q112 0 213.5 41.5t167.5 104t104.5 133.5t38.5 133v172q-61 -43 -121 -62t-219 -43q-43 -7 -63 -10t-67.5 -12t-74.5 -16.5t-70 -21t-69 -27t-57 -33.5t-48.5 -41.5t-29.5 -50t-12 -60.5q0 -93 85 -150t222 -57z
" />
    <glyph glyph-name="agrave.ss02" horiz-adv-x="1400" 
d="M764 1278h-96l-373 395h166zM547 -35q-186 0 -304 73t-118 210q0 78 40 138t114 100.5t158.5 66t193.5 43.5q30 5 75.5 12t74 11t67 11t62.5 14t52.5 17.5t45.5 23t32 29.5t22 38.5t7 48.5q0 109 -109 191.5t-276 82.5q-149 0 -254.5 -69.5t-146.5 -184.5l-109 33
q37 101 122.5 172t186 102t209.5 31q67 0 134 -12t133 -40t116.5 -69.5t81.5 -105t31 -141.5v-791h-107v260h-6q-156 -295 -528 -295zM545 47q112 0 213.5 41.5t167.5 104t104.5 133.5t38.5 133v172q-61 -43 -121 -62t-219 -43q-43 -7 -63 -10t-67.5 -12t-74.5 -16.5
t-70 -21t-69 -27t-57 -33.5t-48.5 -41.5t-29.5 -50t-12 -60.5q0 -93 85 -150t222 -57z" />
    <glyph glyph-name="amacron.ss02" horiz-adv-x="1167" 
d="M1137 1458h-826v88h826v-88zM547 -35q-186 0 -304 73t-118 210q0 78 40 138t114 100.5t158.5 66t193.5 43.5q30 5 75.5 12t74 11t67 11t62.5 14t52.5 17.5t45.5 23t32 29.5t22 38.5t7 48.5q0 109 -109 191.5t-276 82.5q-149 0 -254.5 -69.5t-146.5 -184.5l-109 33
q37 101 122.5 172t186 102t209.5 31q67 0 134 -12t133 -40t116.5 -69.5t81.5 -105t31 -141.5v-791h-107v260h-6q-156 -295 -528 -295zM545 47q112 0 213.5 41.5t167.5 104t104.5 133.5t38.5 133v172q-61 -43 -121 -62t-219 -43q-43 -7 -63 -10t-67.5 -12t-74.5 -16.5
t-70 -21t-69 -27t-57 -33.5t-48.5 -41.5t-29.5 -50t-12 -60.5q0 -93 85 -150t222 -57z" />
    <glyph glyph-name="aogonek.ss02" horiz-adv-x="1400" 
d="M1204 -389q46 0 105 14v-74q-63 -14 -115 -14q-131 0 -219 62.5t-88 164.5q0 75 50.5 131t143.5 105v260h-6q-156 -295 -528 -295q-186 0 -304 73t-118 210q0 78 40 138t114 100.5t158.5 66t193.5 43.5q30 5 75.5 12t74 11t67 11t62.5 14t52.5 17.5t45.5 23t32 29.5
t22 38.5t7 48.5q0 109 -109 191.5t-276 82.5q-149 0 -254.5 -69.5t-146.5 -184.5l-109 33q37 101 122.5 172t186 102t209.5 31q67 0 134 -12t133 -40t116.5 -69.5t81.5 -105t31 -141.5v-791h2q-104 -50 -157.5 -103.5t-53.5 -119.5q0 -75 65.5 -120.5t159.5 -45.5zM1069 459
v172q-61 -43 -121 -62t-219 -43q-43 -7 -63 -10t-67.5 -12t-74.5 -16.5t-70 -21t-69 -27t-57 -33.5t-48.5 -41.5t-29.5 -50t-12 -60.5q0 -93 85 -150t222 -57q112 0 213.5 41.5t167.5 104t104.5 133.5t38.5 133z" />
    </font>
</defs>
</svg>
