<?xml version="1.0" standalone="no"?>
<!DOCTYPE svg PUBLIC "-//W3C//DTD SVG 1.1//EN" "http://www.w3.org/Graphics/SVG/1.1/DTD/svg11.dtd" >
<svg xmlns="http://www.w3.org/2000/svg" xmlns:xlink="http://www.w3.org/1999/xlink" version="1.1">
<metadata>
Created by FontForge 20170731 at Mon Mar 15 14:20:58 2021
 By Aleksey,,,
Copyright (c) 2020 by Matthieu Salvaggio x Blaze Type. All rights reserved.
</metadata>
<defs>
<font id="Area-LightExtended" horiz-adv-x="2457" >
  <font-face 
    font-family="Area Light Extended"
    font-weight="300"
    font-stretch="normal"
    units-per-em="2048"
    panose-1="0 0 4 0 0 0 0 0 0 0"
    ascent="1638"
    descent="-410"
    x-height="1128"
    cap-height="1597"
    bbox="-1976 -508 3127 2148"
    underline-thickness="102"
    underline-position="-307"
    unicode-range="U+0020-25CA"
  />
<missing-glyph horiz-adv-x="1753" 
d="M1509 0h-1265v1597h1265v-1597zM375 1493v-1319l948 1319h-948zM1378 1384l-913 -1273h913v1273z" />
    <glyph glyph-name=".notdef" horiz-adv-x="1753" 
d="M1509 0h-1265v1597h1265v-1597zM375 1493v-1319l948 1319h-948zM1378 1384l-913 -1273h913v1273z" />
    <glyph glyph-name=".null" horiz-adv-x="0" 
 />
    <glyph glyph-name="nonmarkingreturn" horiz-adv-x="682" 
 />
    <glyph glyph-name="space" unicode=" " horiz-adv-x="655" 
 />
    <glyph glyph-name="exclam" unicode="!" horiz-adv-x="622" 
d="M354 379h-84l-43 1122v96h168v-96zM313 -14q-52 0 -87.5 32t-35.5 78q0 43 35.5 74t87.5 31q49 0 84 -31t35 -74q0 -46 -35 -78t-84 -32z" />
    <glyph glyph-name="quotedbl" unicode="&#x22;" horiz-adv-x="786" 
d="M317 1167h-141v430h141v-430zM610 1167h-139v430h139v-430z" />
    <glyph glyph-name="numbersign" unicode="#" horiz-adv-x="1658" 
d="M1561 1075l-25 -102h-291l-94 -393h291l-23 -105h-293l-112 -475h-127l112 475h-493l-113 -475h-125l113 475h-285l25 105h285l94 393h-285l27 102h282l123 522h125l-123 -522h494l123 522h127l-123 -522h291zM530 580h494l94 393h-493z" />
    <glyph glyph-name="dollar" unicode="$" horiz-adv-x="1398" 
d="M1247 483q0 -156 -132.5 -260t-360.5 -108v-197h-103v201q-181 14 -317 101t-199 249l121 41q109 -247 395 -279v514q-35 7 -68.5 15.5t-81 25t-88 35.5t-82.5 49t-71.5 64.5t-48 81.5t-18.5 100q0 79 40 145t106 108t146 66.5t166 28.5v174h103v-178q165 -18 295 -101.5
t170 -205.5l-117 -51q-40 96 -130 162.5t-218 83.5v-504l6 -2q45 -10 73 -17t73 -20t74.5 -24t68.5 -29t64.5 -36t53.5 -43t43.5 -52.5t26 -63t10.5 -74.5zM330 1122q0 -37 13.5 -68.5t39 -56.5t54.5 -44.5t69 -35.5t72 -27t73 -22v484q-138 -6 -229.5 -67t-91.5 -163z
M754 723v-496q64 2 124 17t113.5 42t86 74.5t32.5 108.5q0 41 -13.5 74.5t-40.5 58t-57 43t-75 33.5t-81.5 24.5t-88.5 20.5z" />
    <glyph glyph-name="percent" unicode="%" horiz-adv-x="1974" 
d="M414 797q-141 0 -228.5 101t-87.5 261t88 262.5t228 102.5q139 0 227 -103t88 -262t-88 -260.5t-227 -101.5zM383 0h-131l1366 1468h123zM414 889q88 0 141 72.5t53 197.5q0 124 -53 197.5t-141 73.5t-142.5 -73.5t-54.5 -197.5q0 -125 54 -197.5t143 -72.5zM1561 -29
q-141 0 -228.5 101.5t-87.5 261.5t88 262t228 102q139 0 227 -102.5t88 -261.5t-88 -261t-227 -102zM1561 63q88 0 141 73t53 198q0 124 -53 197t-141 73t-142.5 -73.5t-54.5 -196.5q0 -125 54 -198t143 -73z" />
    <glyph glyph-name="ampersand" unicode="&#x26;" horiz-adv-x="1662" 
d="M664 -35q-143 0 -264 45.5t-198 136.5t-77 211q0 49 14 95.5t36.5 84t58.5 75t71 66t84 59.5t88 53t92 49q-51 45 -84 76t-80 82t-74.5 94t-48 97t-20.5 105q0 145 130 240.5t319 95.5q194 0 317 -103.5t123 -244.5q0 -70 -32.5 -137t-89.5 -125t-123 -105.5t-146 -89.5
l446 -387q84 153 135 340l127 -24q-78 -252 -172 -402l398 -350h-166l-297 252q-222 -289 -567 -289zM680 901q85 50 132.5 82t97.5 78t72 95.5t22 109.5q0 118 -84 184t-215 66q-126 0 -211.5 -59.5t-85.5 -164.5q0 -51 21 -101.5t63.5 -102.5t84 -92.5t103.5 -94.5z
M666 82q289 0 477 256l-486 418q-56 -29 -85 -45t-77.5 -44.5t-74.5 -49t-59 -51t-50 -58.5t-29 -63.5t-12 -73.5q0 -88 55.5 -155t144.5 -100.5t196 -33.5z" />
    <glyph glyph-name="quotesingle" unicode="'" horiz-adv-x="493" 
d="M317 1167h-141v430h141v-430z" />
    <glyph glyph-name="parenleft" unicode="(" horiz-adv-x="722" 
d="M684 -307h-141q-201 198 -307.5 445t-106.5 507q0 262 106 507.5t308 444.5h141q-195 -195 -300 -442.5t-105 -509.5q0 -260 104 -507.5t301 -444.5z" />
    <glyph glyph-name="parenright" unicode=")" horiz-adv-x="722" 
d="M178 -307h-139q196 196 299.5 445t103.5 507q0 259 -103 507t-300 445h139q204 -201 309 -447.5t105 -504.5q0 -257 -105.5 -504.5t-308.5 -447.5z" />
    <glyph glyph-name="asterisk" unicode="*" horiz-adv-x="1017" 
d="M559 1024h-100v211l-226 -107l-49 76l226 107l-226 106l49 76l226 -107v211h100l-2 -211l225 107l49 -76l-223 -106l223 -107l-49 -76l-225 107z" />
    <glyph glyph-name="plus" unicode="+" horiz-adv-x="1198" 
d="M664 682h360v-115h-360v-311h-132v311h-360v115h360v311h132v-311z" />
    <glyph glyph-name="comma" unicode="," horiz-adv-x="524" 
d="M178 -256h-92l145 250q-40 10 -62 38t-22 64q0 43 36.5 74t88.5 31q49 0 85 -31t36 -74q0 -36 -36.5 -94.5t-178.5 -257.5z" />
    <glyph glyph-name="hyphen" unicode="-" horiz-adv-x="935" 
d="M791 569h-646v109h646v-109z" />
    <glyph glyph-name="period" unicode="." horiz-adv-x="561" 
d="M283 -14q-51 0 -87 32t-36 78q0 43 36 74t87 31q50 0 84 -31t34 -74q0 -46 -33.5 -78t-84.5 -32z" />
    <glyph glyph-name="slash" unicode="/" horiz-adv-x="999" 
d="M231 -135h-133l668 1773h135z" />
    <glyph glyph-name="zero" unicode="0" horiz-adv-x="1726" 
d="M864 -35q-208 0 -370.5 105t-252 294t-89.5 431q0 243 89.5 433.5t252 296t370.5 105.5q207 0 368.5 -105.5t251 -296t89.5 -433.5q0 -242 -89.5 -431t-251 -294t-368.5 -105zM866 88q163 0 288.5 88t194 248.5t68.5 370.5q0 320 -152 516t-399 196q-250 0 -404.5 -196
t-154.5 -516q0 -318 154.5 -512.5t404.5 -194.5z" />
    <glyph glyph-name="one" unicode="1" horiz-adv-x="937" 
d="M666 0h-146v1315q-72 -86 -191 -140t-266 -69v125q205 28 335 131t130 235h138v-1597z" />
    <glyph glyph-name="two" unicode="2" horiz-adv-x="1515" 
d="M1386 0h-1234v8q11 89 31.5 158.5t61.5 129.5t75.5 100.5t110 93t125.5 83t158 93.5q59 35 91 53q45 27 69 42t73.5 49.5t79 60t68.5 65.5t61 76.5t38 82.5t16 93q0 141 -123.5 233t-320.5 92q-225 0 -365.5 -122t-140.5 -316l-129 23q0 232 176 382t459 150
q259 0 424.5 -124.5t165.5 -321.5q0 -82 -30 -156t-87.5 -136.5t-120 -111t-147.5 -100.5q-66 -41 -157 -92.5t-145 -82t-118.5 -75t-103 -84.5t-72.5 -96.5t-51 -124.5h1062v-125z" />
    <glyph glyph-name="three" unicode="3" horiz-adv-x="1558" 
d="M776 -35q-238 0 -418 99.5t-241 265.5l121 57q57 -134 203 -218.5t339 -84.5q207 0 342 96t135 252q0 149 -133 241.5t-391 92.5h-190v111h209q215 0 332.5 90.5t117.5 226.5q0 146 -127 231.5t-325 85.5q-184 0 -312 -84t-155 -233l-129 23q33 188 203 300.5t409 112.5
q158 0 290.5 -49t214 -145t81.5 -222q0 -136 -92 -242.5t-244 -144.5v-2q174 -26 283.5 -126.5t109.5 -258.5q0 -96 -44.5 -182t-124 -151.5t-200 -103.5t-264.5 -38z" />
    <glyph glyph-name="four" unicode="4" horiz-adv-x="1585" 
d="M1200 0h-143v399h-991v133l993 1065h141v-1079h291v-119h-291v-399zM1057 1417l-840 -899h840v899z" />
    <glyph glyph-name="five" unicode="5" horiz-adv-x="1548" 
d="M760 -35q-154 0 -291 43.5t-240 127.5t-149 196l119 59q68 -144 222 -226.5t341 -82.5q142 0 259.5 52t187 148.5t69.5 217.5q0 177 -140 290t-352 113q-152 0 -276.5 -60t-194.5 -159l-116 47l223 866h899v-116h-801l-166 -635h4q57 70 180.5 118t272.5 48
q166 0 305.5 -60t226.5 -177.5t87 -268.5q0 -155 -90 -279.5t-243 -193t-337 -68.5z" />
    <glyph glyph-name="six" unicode="6" horiz-adv-x="1624" 
d="M842 -35q-314 0 -503 200.5t-189 549.5q0 200 65.5 371t180 290t275.5 186.5t347 67.5q244 0 416 -112l-97 -95q-139 90 -340 90q-149 0 -278 -54.5t-224 -153.5t-150 -248t-56 -330h6q35 89 123 159.5t205.5 109t242.5 38.5q123 0 238 -39t202.5 -107t140 -168
t52.5 -216q0 -153 -87 -276.5t-237 -193t-333 -69.5zM844 82q135 0 250.5 52.5t185.5 150t70 219.5t-69 219t-183.5 149t-251.5 52q-218 0 -364 -124t-146 -300q0 -117 69 -213.5t185.5 -150.5t253.5 -54z" />
    <glyph glyph-name="seven" unicode="7" horiz-adv-x="1439" 
d="M518 0h-145q0 156 68.5 362t183 412t275.5 403t333 330h-1192v119h1352v-129q-178 -136 -341.5 -330t-279.5 -396.5t-185 -407t-69 -363.5z" />
    <glyph glyph-name="eight" unicode="8" horiz-adv-x="1597" 
d="M801 -35q-188 0 -338.5 61t-234 166t-83.5 234q0 150 103 260t278 152v4q-149 51 -230 145.5t-81 214.5q0 118 74.5 216t210 155t303.5 57q250 0 414.5 -119.5t164.5 -298.5q0 -120 -81 -220t-230 -150v-4q174 -42 277.5 -152.5t103.5 -259.5q0 -130 -84.5 -235.5
t-233.5 -165.5t-333 -60zM801 887q187 0 311.5 91.5t124.5 231.5q0 136 -124.5 223t-311.5 87q-190 0 -316.5 -87t-126.5 -223q0 -141 126 -232t317 -91zM799 78q213 0 356 100.5t143 261.5q0 157 -128.5 251.5t-368.5 94.5q-243 0 -373.5 -94t-130.5 -252
q0 -161 143.5 -261.5t358.5 -100.5z" />
    <glyph glyph-name="nine" unicode="9" horiz-adv-x="1654" 
d="M754 -35q-160 0 -315 58.5t-279 181.5l98 84q210 -207 481 -207q125 0 227.5 40t174 111t120.5 169.5t72 214t23 245.5h-4q-52 -152 -213.5 -245t-360.5 -93q-170 0 -314.5 69.5t-231.5 197t-87 284.5q0 156 86 283t240.5 199.5t347.5 72.5q108 0 204 -23.5t184.5 -79
t152 -139.5t101.5 -214.5t38 -294.5q0 -146 -28 -279t-88 -249.5t-146.5 -202t-210.5 -134.5t-272 -49zM791 635q145 0 264 62.5t185.5 169t66.5 233.5q0 126 -69.5 222.5t-182.5 146t-248 49.5q-142 0 -258 -54t-185 -156t-69 -233q0 -189 140.5 -314.5t355.5 -125.5z" />
    <glyph glyph-name="colon" unicode=":" horiz-adv-x="606" 
d="M305 944q-52 0 -87.5 32.5t-35.5 78.5q0 43 35.5 73.5t87.5 30.5q49 0 84 -30.5t35 -73.5q0 -46 -35 -78.5t-84 -32.5zM305 -14q-52 0 -87.5 32t-35.5 78q0 43 35.5 74t87.5 31q49 0 84 -31t35 -74q0 -46 -35 -78t-84 -32z" />
    <glyph glyph-name="semicolon" unicode=";" horiz-adv-x="696" 
d="M362 944q-51 0 -86.5 32.5t-35.5 78.5q0 43 35.5 73.5t86.5 30.5t86 -30.5t35 -73.5q0 -46 -35 -78.5t-86 -32.5zM266 -258h-92l145 252q-37 10 -58 38t-21 64q0 43 35 74t87 31q49 0 85 -31t36 -74q0 -37 -36 -94t-181 -260z" />
    <glyph glyph-name="less" unicode="&#x3c;" horiz-adv-x="1230" 
d="M1026 428v-111l-848 242v127l848 244v-113l-698 -194z" />
    <glyph glyph-name="equal" unicode="=" horiz-adv-x="1241" 
d="M1047 772h-854v115h854v-115zM1047 358h-854v113h854v-113z" />
    <glyph glyph-name="greater" unicode="&#x3e;" horiz-adv-x="1230" 
d="M1051 559l-846 -242v111l696 195l-696 194v113l846 -244v-127z" />
    <glyph glyph-name="question" unicode="?" horiz-adv-x="1275" 
d="M614 373h-133q-14 60 -14 114q0 47 14 88t34 71.5t61.5 66.5t76 60.5t97.5 66.5q66 44 112.5 83t86 85t59.5 96.5t20 105.5q0 92 -57 163t-146.5 107t-193.5 36q-107 0 -199 -38t-151.5 -116t-59.5 -180q0 -32 6 -66l-127 21q-6 37 -6 65q0 129 77 228t199.5 149.5
t266.5 50.5q140 0 261 -48t198.5 -143.5t77.5 -219.5q0 -59 -20.5 -115.5t-51.5 -101.5t-79.5 -91t-93.5 -80t-104 -73q-49 -32 -75 -50.5t-60 -47.5t-50 -53.5t-28 -58.5t-12 -73q0 -47 14 -102zM571 -14q-51 0 -86.5 32t-35.5 78q0 43 35.5 74t86.5 31q48 0 84.5 -31.5
t36.5 -75.5t-35.5 -76t-85.5 -32z" />
    <glyph glyph-name="at" unicode="@" horiz-adv-x="2365" 
d="M1090 -195q-222 0 -407 64t-307.5 173t-189.5 254.5t-67 309.5q0 157 60.5 309.5t173.5 280.5t262 226t338 153t390 55q266 0 479 -93.5t337.5 -269t124.5 -403.5q0 -177 -74.5 -326t-203 -235t-280.5 -86q-136 0 -201 68t-46 172q-87 -109 -215 -165t-256 -56
q-181 0 -294.5 110t-113.5 275q0 109 51.5 215t135.5 184.5t196 127t227 48.5q129 0 228.5 -58t144.5 -161l37 192h113l-127 -604q-4 -22 -6.5 -36.5t-5 -44t0 -50t11.5 -46t25 -41.5t44.5 -27t67.5 -11q107 0 199.5 69.5t149 193.5t56.5 274q0 199 -99 354.5t-283 242.5
t-425 87q-221 0 -423 -75.5t-347 -201t-231 -295.5t-86 -352q0 -150 59 -278t167.5 -221.5t270.5 -146t359 -52.5q186 0 359 46.5t300 131.5l66 -82q-154 -99 -350.5 -149t-394.5 -50zM1044 338q131 0 241.5 68.5t170.5 175t60 223.5q0 130 -79 208.5t-225 78.5
q-132 0 -241.5 -66t-169.5 -171.5t-60 -223.5q0 -132 78.5 -212.5t224.5 -80.5z" />
    <glyph glyph-name="A" unicode="A" horiz-adv-x="1802" 
d="M193 0h-152l784 1597h152l784 -1597h-151l-287 573h-850q-63 -128 -160 -327.5t-120 -245.5zM530 694h736q-265 539 -361 754h-6q-34 -71 -166 -339.5t-203 -414.5z" />
    <glyph glyph-name="B" unicode="B" horiz-adv-x="1751" 
d="M1034 0h-766v1597h668q144 0 262.5 -34t194 -92.5t116.5 -133t41 -157.5q0 -123 -89 -226t-261 -139v-4q105 -16 186.5 -54.5t129.5 -91.5t72 -113.5t24 -125.5q0 -181 -162.5 -303.5t-415.5 -122.5zM412 862h514q219 0 346 84.5t127 218.5q0 140 -140 227t-358 87h-489
v-617zM412 119h571q222 0 349.5 85t127.5 220q0 142 -137 231.5t-360 89.5h-551v-626z" />
    <glyph glyph-name="C" unicode="C" horiz-adv-x="2068" 
d="M1100 -35q-279 0 -499.5 105t-343 294t-122.5 429q0 184 75 342t203.5 265.5t304 168.5t372.5 61q133 0 260 -28.5t240.5 -83.5t202.5 -145.5t134 -205.5l-127 -49q-90 185 -282 287t-428 102q-160 0 -304 -49t-254.5 -139t-175.5 -227t-65 -301q0 -138 46 -255
t125 -198.5t185 -138.5t225 -84t246 -27q154 0 284 39.5t222 109t155 155.5t97 188l129 -43q-36 -97 -91 -181.5t-135.5 -157t-179 -124t-226.5 -80.5t-273 -29z" />
    <glyph glyph-name="D" unicode="D" horiz-adv-x="1980" 
d="M954 0h-686v1597h664q187 0 339.5 -40.5t257 -112t176 -171.5t104 -216t32.5 -248q0 -178 -61 -327t-173 -256t-280 -166.5t-373 -59.5zM412 119h561q333 0 525 183t192 495q0 321 -205.5 501.5t-583.5 180.5h-489v-1360z" />
    <glyph glyph-name="E" unicode="E" horiz-adv-x="1619" 
d="M1489 0h-1221v1597h1196v-118h-1052v-596h1003v-121h-1003v-637h1077v-125z" />
    <glyph glyph-name="F" unicode="F" horiz-adv-x="1527" 
d="M1442 1597v-124h-1030v-605h981v-120h-981v-748h-144v1597h1174z" />
    <glyph glyph-name="G" unicode="G" horiz-adv-x="2162" 
d="M1087 -35q-205 0 -382 61.5t-302.5 170t-196.5 262t-71 332.5q0 184 74.5 342t203 266.5t304 169.5t373.5 61q133 0 261 -28.5t241.5 -84t201.5 -146t133 -204.5l-127 -49q-90 185 -282 287t-426 102q-161 0 -305 -49t-255 -138.5t-176 -226.5t-65 -302q0 -138 46 -255
t124 -198.5t183 -138.5t222.5 -84t241.5 -27q156 0 290 44t228.5 120.5t152 182t66.5 227.5h-690v114h836v-776h-121q-1 61 -2 186t-2 187h-13q-97 -194 -293 -301t-473 -107z" />
    <glyph glyph-name="H" unicode="H" horiz-adv-x="1984" 
d="M1573 866v731h145v-1597h-145v745h-1161v-745h-144v1597h144v-731h1161z" />
    <glyph glyph-name="I" unicode="I" horiz-adv-x="679" 
d="M412 0h-144v1597h144v-1597z" />
    <glyph glyph-name="J" unicode="J" horiz-adv-x="1423" 
d="M651 -35q-87 0 -167 16t-156.5 54t-133 95t-90.5 146.5t-34 200.5v43l131 17v-35q0 -93 27.5 -167t72 -120t104.5 -76.5t120 -42.5t124 -12q62 0 114 12t89 30.5t67 49t48.5 59t32 69t20 70t10 72.5t4 66t0.5 59v1026h144v-987q0 -60 -1.5 -98.5t-11.5 -113.5
t-28.5 -125.5t-57.5 -113.5t-93 -101.5t-140.5 -65.5t-194.5 -27z" />
    <glyph glyph-name="K" unicode="K" horiz-adv-x="1619" 
d="M412 0h-144v1597h144v-874h6q324 299 985 874h174q-128 -113 -391.5 -347t-397.5 -353q376 -407 836 -897h-176q-91 95 -232 243.5t-534 555.5q-132 -120 -270 -240v-559z" />
    <glyph glyph-name="L" unicode="L" horiz-adv-x="1454" 
d="M412 1597v-1472h1005v-125h-1149v1597h144z" />
    <glyph glyph-name="M" unicode="M" horiz-adv-x="2469" 
d="M414 0h-146v1597h174q471 -830 791 -1423h4q627 1121 793 1423h174v-1597h-148v1339h-10q-265 -498 -739 -1339h-146q-565 1016 -739 1339h-8v-1339z" />
    <glyph glyph-name="N" unicode="N" horiz-adv-x="2029" 
d="M412 0h-144v1597h158q85 -100 274 -319.5t312 -363.5t293.5 -345t308.5 -366h6v1394h143v-1597h-159q-97 112 -526 607t-662 771h-4v-1378z" />
    <glyph glyph-name="O" unicode="O" horiz-adv-x="2189" 
d="M1094 -35q-194 0 -370 63t-306.5 172t-207.5 265t-77 332t76.5 331.5t206 265t307 173t373.5 63.5q199 0 377.5 -65t306 -176t202 -265.5t74.5 -326.5q0 -173 -75.5 -328t-204.5 -265t-306.5 -174.5t-375.5 -64.5zM1098 88q159 0 305 53.5t255 146t173.5 225.5t64.5 284
t-65 284t-173.5 226t-254.5 146.5t-305 53.5q-161 0 -308.5 -53.5t-258 -146t-176.5 -225.5t-66 -285q0 -151 66 -284t176.5 -225.5t258 -146t308.5 -53.5z" />
    <glyph glyph-name="P" unicode="P" horiz-adv-x="1638" 
d="M268 1597h662q285 0 453.5 -126.5t168.5 -342.5q0 -151 -78.5 -263t-209 -168t-293.5 -56h-559v-641h-144v1597zM412 762h512q226 0 351.5 93t125.5 263q0 169 -136 265t-364 96h-489v-717z" />
    <glyph glyph-name="Q" unicode="Q" horiz-adv-x="2193" 
d="M1980 -106l-100 -78q-45 45 -137 135t-137 135q-228 -121 -510 -121q-194 0 -371 63t-307.5 172t-207.5 265t-77 332t76.5 331.5t206 265t307.5 173t375 63.5q199 0 377.5 -65t306 -176t202 -265.5t74.5 -326.5q0 -193 -91.5 -359t-254.5 -282q46 -44 132 -129t136 -133z
M1100 88q216 0 411 100q-62 58 -194 185.5t-189 181.5l101 78q65 -62 195 -188t196 -189q132 99 207.5 238t75.5 303q0 201 -111 365t-294.5 254.5t-397.5 90.5q-162 0 -310.5 -53.5t-259.5 -146t-177 -225.5t-66 -285q0 -151 66 -284t177 -225.5t259.5 -146t310.5 -53.5z
" />
    <glyph glyph-name="R" unicode="R" horiz-adv-x="1699" 
d="M412 0h-144v1597h662q283 0 452.5 -127t169.5 -344q0 -203 -139 -331.5t-366 -145.5v-2q97 -122 276.5 -344.5t243.5 -302.5h-160l-522 643h-473v-643zM412 760h512q226 0 351.5 94t125.5 264q0 167 -136.5 264t-363.5 97h-489v-719z" />
    <glyph glyph-name="S" unicode="S" horiz-adv-x="1581" 
d="M815 -35q-85 0 -167 14.5t-167 49t-156 86.5t-130.5 133.5t-92.5 183.5l134 45q60 -187 217.5 -289t363.5 -102q88 0 171 19t155 56t116 101.5t44 147.5q0 58 -25.5 104.5t-53 73t-93 53.5t-96 36t-112.5 29q-28 7 -42 11l-181 47q-40 10 -66 17.5t-72 22.5t-78.5 29
t-76.5 36.5t-74.5 45t-63 54.5t-52 67t-32.5 79t-13 93q0 103 53.5 185.5t142 133t196 77t222.5 26.5q222 0 392.5 -99.5t234.5 -283.5l-129 -49q-55 142 -191 226.5t-325 84.5q-123 0 -224.5 -35t-163 -101.5t-61.5 -153.5q0 -45 18 -85.5t43.5 -69.5t68 -56.5t75 -43.5
t82.5 -33t72 -23.5t61 -16.5l185 -49q183 -49 243 -72q219 -82 273 -226q20 -53 20 -116q0 -104 -53.5 -192t-143 -146.5t-206 -91.5t-242.5 -33z" />
    <glyph glyph-name="T" unicode="T" horiz-adv-x="1556" 
d="M850 0h-143v1479h-668v118h1481v-118h-670v-1479z" />
    <glyph glyph-name="U" unicode="U" horiz-adv-x="1851" 
d="M920 -35q-316 0 -496 156t-180 454v1022h145v-1015q0 -254 142 -376t393 -122q123 0 220 28.5t169 87.5t110.5 155.5t38.5 226.5v1015h146v-1022q0 -134 -42.5 -244.5t-126 -193t-216 -127.5t-303.5 -45z" />
    <glyph glyph-name="V" unicode="V" horiz-adv-x="1802" 
d="M977 0h-152l-784 1597h152q102 -196 214 -423t275 -566t221 -458h6q113 233 350 723.5t351 723.5h151z" />
    <glyph glyph-name="W" unicode="W" horiz-adv-x="2785" 
d="M850 0h-172l-629 1597h152q355 -867 565 -1427h4q64 171 252 664t289 763h162q91 -238 274 -713t274 -714h7q345 909 557 1427h151l-629 -1597h-172q-241 597 -540 1413h-4q-320 -870 -541 -1413z" />
    <glyph glyph-name="X" unicode="X" horiz-adv-x="1583" 
d="M201 0h-164q86 104 314.5 385t355.5 432v4q-379 448 -652 776h164l572 -673h6q283 346 569 673h164l-653 -776v-4q130 -153 359.5 -437t309.5 -380h-164q-91 109 -285 348.5t-302 368.5h-7q-87 -109 -184 -227.5t-218.5 -266t-184.5 -223.5z" />
    <glyph glyph-name="Y" unicode="Y" horiz-adv-x="1687" 
d="M915 0h-143v590l-325 455t-396 552h158l633 -884h4q474 659 637 884h153q-121 -168 -360.5 -503.5t-360.5 -503.5v-590z" />
    <glyph glyph-name="Z" unicode="Z" horiz-adv-x="1611" 
d="M1536 0h-1462v129q674 720 1265 1346v4h-1216v118h1393v-124q-968 -1025 -1268 -1344v-4h1288v-125z" />
    <glyph glyph-name="bracketleft" unicode="[" horiz-adv-x="774" 
d="M713 -326h-469v1923h469v-110h-334v-1698h334v-115z" />
    <glyph glyph-name="backslash" unicode="\" horiz-adv-x="999" 
d="M901 -135h-133l-668 1773h131z" />
    <glyph glyph-name="bracketright" unicode="]" horiz-adv-x="774" 
d="M530 -326h-469v115h334v1698h-334v110h469v-1923z" />
    <glyph glyph-name="asciicircum" unicode="^" horiz-adv-x="1034" 
d="M281 1055h-134l299 542h142l297 -542h-133l-232 438h-6z" />
    <glyph glyph-name="underscore" unicode="_" horiz-adv-x="1224" 
d="M1186 -221h-1145v104h1145v-104z" />
    <glyph glyph-name="a" unicode="a" horiz-adv-x="1404" 
d="M547 -35q-118 0 -212.5 31t-154 98t-59.5 162q0 63 27 114.5t71.5 87.5t111 64.5t134.5 46.5t153 33q32 5 84.5 13t82 13t72.5 13.5t67 17t52.5 22t43.5 30t25 39.5t10 51q0 101 -103 177.5t-262 76.5q-142 0 -244 -65.5t-141 -176.5l-135 41q37 103 123.5 174t189 102
t215.5 31q72 0 141 -12.5t134.5 -42t115 -71.5t79.5 -106.5t30 -142.5v-434q0 -130 10 -204t33 -148h-137q-37 107 -37 244h-6q-69 -127 -199 -203t-315 -76zM559 68q110 0 206.5 38.5t158 97t96.5 125t35 126.5v159q-59 -38 -120.5 -56.5t-209.5 -41.5q-200 -33 -290 -69
q-169 -67 -169 -187q0 -88 80.5 -140t212.5 -52z" />
    <glyph glyph-name="b" unicode="b" horiz-adv-x="1646" 
d="M895 -35q-170 0 -311 71.5t-222 201.5h-4v-238h-131v1638h135v-751q86 135 227 204.5t310 69.5q132 0 248 -44.5t200 -122.5t132.5 -189.5t48.5 -239.5q0 -174 -84.5 -312t-228.5 -213t-320 -75zM879 78q218 0 360.5 137.5t142.5 347.5q0 211 -143.5 348.5t-359.5 137.5
q-140 0 -258 -61t-188.5 -173t-70.5 -252q0 -141 71 -253t189 -172t257 -60z" />
    <glyph glyph-name="c" unicode="c" horiz-adv-x="1492" 
d="M788 -35q-295 0 -481 166t-186 432t186.5 432t483.5 166q122 0 228 -30t200.5 -103t146.5 -184l-133 -45q-52 118 -171.5 184t-279.5 66q-232 0 -374 -137.5t-142 -348.5q0 -217 147.5 -351t381.5 -134q187 0 315.5 82t194.5 219l122 -37q-78 -182 -248.5 -279.5
t-390.5 -97.5z" />
    <glyph glyph-name="d" unicode="d" horiz-adv-x="1646" 
d="M750 -35q-178 0 -322 76t-226.5 213t-82.5 309q0 174 84.5 311.5t229 212t321.5 74.5q165 0 302.5 -68.5t219.5 -197.5h6v743h135v-1286q0 -129 10 -204t33 -148h-135q-37 115 -37 236h-6q-81 -130 -221.5 -200.5t-310.5 -70.5zM764 78q141 0 259.5 60.5t189.5 173
t71 253.5t-71 252.5t-189.5 171.5t-259.5 60q-216 0 -358 -138t-142 -348t143.5 -347.5t356.5 -137.5z" />
    <glyph glyph-name="e" unicode="e" horiz-adv-x="1525" 
d="M782 -35q-189 0 -339.5 74.5t-236 211t-85.5 310.5q0 263 185.5 431.5t473.5 168.5q55 0 110.5 -7t117 -24.5t116 -45t105 -72t87 -101t58 -136.5t21.5 -175v-57h-1131q3 -210 148.5 -338.5t373.5 -128.5q182 0 311.5 83.5t194.5 215.5l123 -39q-79 -176 -247.5 -273.5
t-385.5 -97.5zM270 651h977q-1 86 -29.5 156t-75 115t-108.5 75.5t-126.5 43t-131.5 12.5q-203 0 -339 -110.5t-167 -291.5z" />
    <glyph glyph-name="f" unicode="f" horiz-adv-x="837" 
d="M412 0h-136v1022h-204v106h204v156q0 50 2.5 86.5t10.5 79.5t22.5 73.5t40 60.5t61.5 48t88.5 29.5t119.5 11.5q152 0 256 -55v-117q-117 64 -240 64q-65 0 -109.5 -16t-67 -36t-34 -63.5t-13 -73t-1.5 -90.5v-158h409v-106h-409v-1022z" />
    <glyph glyph-name="g" unicode="g" horiz-adv-x="1644" 
d="M799 -483q-465 0 -606 331l124 37q110 -260 484 -260q76 0 141.5 13.5t129.5 49t108.5 90t72 143t27.5 202.5v147h-6q-80 -131 -219 -200.5t-307 -69.5q-178 0 -323 77t-226.5 210.5t-81.5 296.5q0 125 49.5 233t134 183t201.5 118t248 43q167 0 308 -70t222 -202h4v239
h131v-985q0 -136 -30 -242.5t-83.5 -178t-131.5 -118t-169.5 -67t-201.5 -20.5zM762 113q140 0 259.5 61.5t190 171t70.5 242.5q0 132 -71 238.5t-189.5 164.5t-259.5 58q-215 0 -357.5 -133.5t-142.5 -329.5q0 -200 144 -336.5t356 -136.5z" />
    <glyph glyph-name="h" unicode="h" horiz-adv-x="1552" 
d="M362 0h-135v1638h135v-731h7q76 129 199 191.5t280 62.5q75 0 143.5 -13.5t135 -47t114.5 -84t77.5 -130t29.5 -179.5v-707h-136v653q0 106 -33 185.5t-90 124t-124 65.5t-144 21q-108 0 -197 -36.5t-145 -96.5t-86.5 -133t-30.5 -148v-635z" />
    <glyph glyph-name="i" unicode="i" horiz-adv-x="589" 
d="M295 1423q-52 0 -88.5 32.5t-36.5 78.5q0 44 36.5 75t88.5 31t87.5 -31.5t35.5 -74.5q0 -46 -35.5 -78.5t-87.5 -32.5zM362 0h-135v1128h135v-1128z" />
    <glyph glyph-name="j" unicode="j" horiz-adv-x="587" 
d="M293 1423q-52 0 -88.5 32.5t-36.5 78.5q0 43 36.5 74.5t88.5 31.5t87.5 -31t35.5 -75q0 -46 -35.5 -78.5t-87.5 -32.5zM-8 -483q-148 0 -256 57v117q118 -64 233 -64q53 0 94.5 14.5t68 35t45.5 56t28 63.5t14 72.5t5.5 68.5t0.5 65v1126h137v-1142v-1q0 -39 -0.5 -61
t-3.5 -65t-9.5 -70t-19 -67t-30.5 -65.5t-46.5 -54.5t-64.5 -46t-86 -28t-110 -11z" />
    <glyph glyph-name="k" unicode="k" horiz-adv-x="1261" 
d="M674 686l604 -686h-156l-544 602l-216 -184v-418h-135v1638h135v-1065h7l649 555h168z" />
    <glyph glyph-name="l" unicode="l" horiz-adv-x="589" 
d="M362 0h-135v1638h135v-1638z" />
    <glyph glyph-name="m" unicode="m" horiz-adv-x="2488" 
d="M362 0h-135v1128h131v-221h4q76 129 203.5 191.5t278.5 62.5q71 0 137.5 -14.5t130.5 -45.5t113 -88t73 -134h5q169 282 495 282q72 0 138 -13.5t130 -47t111 -84t75.5 -130t28.5 -179.5v-707h-135v653q0 107 -32.5 186.5t-88.5 123.5t-120 65t-136 21
q-103 0 -189.5 -36.5t-141 -96t-85 -132.5t-30.5 -149v-635h-135v653q0 86 -22 155t-58.5 113t-86 73.5t-102 42t-110.5 12.5q-102 0 -188.5 -36.5t-142 -96t-86 -132.5t-30.5 -149v-635z" />
    <glyph glyph-name="n" unicode="n" horiz-adv-x="1552" 
d="M362 0h-135v1128h131v-221h4q79 130 205 192t283 62q76 0 144.5 -13.5t134 -47t113.5 -84t77 -130t29 -179.5v-707h-136v653q0 106 -33 185.5t-90 124t-124 65.5t-144 21q-108 0 -197 -36.5t-145 -96t-86.5 -132.5t-30.5 -149v-635z" />
    <glyph glyph-name="o" unicode="o" horiz-adv-x="1587" 
d="M795 -35q-147 0 -272.5 44t-213.5 122.5t-138 190t-50 241.5t50 241.5t138 190t213.5 122.5t272.5 44q194 0 347 -75.5t238.5 -212t85.5 -310.5t-85.5 -310.5t-238.5 -212t-347 -75.5zM795 78q234 0 380 134.5t146 350.5q0 214 -146 350t-380 136q-233 0 -381 -136
t-148 -350q0 -215 147.5 -350t381.5 -135z" />
    <glyph glyph-name="p" unicode="p" horiz-adv-x="1646" 
d="M362 -451h-135v1579h131v-243h4q86 137 228 206.5t309 69.5q132 0 248 -44.5t200 -122.5t132.5 -189.5t48.5 -239.5q0 -174 -84.5 -312t-228.5 -213t-320 -75q-170 0 -311 71.5t-222 201.5v-689zM879 78q218 0 360.5 137.5t142.5 347.5q0 211 -144 348.5t-359 137.5
q-139 0 -257 -60.5t-189 -172.5t-71 -253t71 -253t189 -172t257 -60z" />
    <glyph glyph-name="q" unicode="q" horiz-adv-x="1646" 
d="M1417 -451h-135v691q-81 -131 -222.5 -203t-311.5 -72q-177 0 -321 76.5t-226 213.5t-82 308q0 174 84.5 311.5t228.5 212t320 74.5q167 0 308 -70t222 -202h4v239h131v-1579zM764 78q141 0 259 60.5t188.5 173t70.5 253.5t-70.5 252.5t-188.5 171.5t-259 60
q-216 0 -358 -138t-142 -348t143.5 -347.5t356.5 -137.5z" />
    <glyph glyph-name="r" unicode="r" horiz-adv-x="999" 
d="M362 0h-135v1128h131v-237h11q51 122 173 196t273 74q91 0 158 -22v-133q-70 28 -168 28q-82 0 -154 -27t-124.5 -73t-90 -106.5t-56 -128.5t-18.5 -138v-561z" />
    <glyph glyph-name="s" unicode="s" horiz-adv-x="1210" 
d="M639 -35q-194 0 -345.5 87t-207.5 229l127 38q52 -109 172.5 -178t255.5 -69q49 0 101.5 11t105.5 34t87 67t34 103q0 39 -19 71t-44.5 52t-71.5 37.5t-78 26t-86 20.5l-129 30l-58 14.5t-68 21t-76.5 31t-69.5 42t-62.5 56t-40 71.5t-16.5 90q0 77 40 138.5t105 98
t140 55.5t151 19q167 0 297.5 -78t177.5 -196l-133 -41q-38 88 -133 148.5t-226 60.5q-122 0 -201 -52.5t-79 -140.5q0 -36 14 -67t41.5 -53.5t56.5 -40t70.5 -32t71.5 -22.5t71 -18l134 -33q35 -9 46.5 -11.5t49.5 -13.5t55.5 -18.5t51.5 -22.5t52 -29t42 -35.5t36.5 -44
t21.5 -52.5t9 -64q0 -143 -134 -241.5t-339 -98.5z" />
    <glyph glyph-name="t" unicode="t" horiz-adv-x="913" 
d="M608 -35q-88 0 -150.5 28t-92.5 63t-46 95t-18 94t-2 91v684h-270v108h270v338h135v-338h424v-108h-424v-651q0 -38 0.5 -58t4 -56t10.5 -56.5t21.5 -47t34.5 -40.5t51.5 -24.5t72.5 -10.5q112 0 229 65v-118q-104 -58 -250 -58z" />
    <glyph glyph-name="u" unicode="u" horiz-adv-x="1529" 
d="M692 -35q-60 0 -116 10t-111.5 31t-101 57.5t-81 85.5t-55.5 118.5t-20 152.5v708h135v-657q0 -87 23 -156t60 -112.5t88 -72.5t103.5 -40.5t110.5 -11.5q102 0 187.5 37t139 97t82.5 131.5t29 143.5v641h135v-776q0 -120 10.5 -195t35.5 -157h-140q-35 118 -35 215h-4
q-77 -127 -200 -188.5t-275 -61.5z" />
    <glyph glyph-name="v" unicode="v" horiz-adv-x="1318" 
d="M729 0h-139l-547 1128h147q116 -239 469 -981h7q219 472 462 981h148z" />
    <glyph glyph-name="w" unicode="w" horiz-adv-x="2222" 
d="M686 0h-137l-500 1128h148l424 -960h6l413 960h142l428 -960h6l409 960h148l-498 -1128h-139q-27 60 -95 214t-106.5 241t-100.5 234t-120 290h-6q-164 -404 -422 -979z" />
    <glyph glyph-name="x" unicode="x" horiz-adv-x="1239" 
d="M195 0h-152q280 321 492 567v4q-61 69 -119.5 136t-137.5 155.5l-237 265.5h158l419 -473h5q79 91 224.5 254.5t194.5 218.5h156q-70 -80 -235 -265.5t-258 -291.5v-4q227 -261 491 -567h-149q-46 53 -195 222.5t-229 262.5h-5q-45 -52 -194 -222t-229 -263z" />
    <glyph glyph-name="y" unicode="y" horiz-adv-x="1318" 
d="M508 -451h-121l209 439l-553 1140h147q95 -191 271 -563.5t198 -417.5h5q39 82 205.5 438.5t258.5 542.5h148z" />
    <glyph glyph-name="z" unicode="z" horiz-adv-x="1179" 
d="M1118 0h-1048v92l809 924h-760v112h944v-92l-813 -923h868v-113z" />
    <glyph glyph-name="braceleft" unicode="{" horiz-adv-x="882" 
d="M831 -307h-88q-142 0 -239 29.5t-151 89.5t-76.5 137.5t-22.5 185.5v170q0 41 -1.5 74t-5.5 59.5t-7 46.5t-11.5 34.5t-13.5 24.5t-17.5 16.5t-20 10t-24.5 5t-26.5 2t-30.5 0.5v135h2q23 0 33.5 0.5t28 2.5t25.5 7t20.5 14t18 23t13 34t10.5 47.5t5 63.5t2 82v168
q0 47 2.5 81t13 83.5t29 85t55 74t87 62.5t128 40t174.5 16h88v-110h-81q-189 0 -275 -70.5t-86 -220.5v-205q0 -123 -18.5 -196.5t-47.5 -103t-79 -44.5v-4q50 -15 79 -44t47.5 -102.5t18.5 -197.5v-205q0 -46 7 -83t29.5 -78t60.5 -68t105.5 -44.5t158.5 -17.5h81v-110z
" />
    <glyph glyph-name="bar" unicode="|" horiz-adv-x="624" 
d="M381 -451h-137v2089h137v-2089z" />
    <glyph glyph-name="braceright" unicode="}" horiz-adv-x="882" 
d="M137 -307h-84v110h82q186 0 271.5 70.5t85.5 220.5v205q0 121 17 193t47.5 103.5t82.5 47.5v4q-52 15 -82.5 48t-47.5 104.5t-17 191.5v205q0 65 -14.5 113t-52 90.5t-110.5 65t-180 22.5h-82v110h84q142 0 239.5 -29.5t152 -89t77.5 -137t23 -186.5v-168q0 -51 2 -90.5
t8 -68t11 -48.5t17.5 -33t21 -20t27.5 -10t30.5 -3.5t37.5 -0.5h2v-135q-30 0 -43 -1t-34 -5.5t-30 -14.5t-21 -29.5t-17 -49t-8.5 -72.5t-3.5 -101v-170q0 -51 -4 -92.5t-16.5 -89t-34 -83.5t-58.5 -70.5t-88 -57t-125 -36t-166 -13.5z" />
    <glyph glyph-name="asciitilde" unicode="~" horiz-adv-x="1267" 
d="M825 580q-52 0 -96.5 14.5t-76.5 35t-61 41.5t-64 35.5t-72 14.5q-64 0 -97.5 -40t-33.5 -101h-127q0 121 80.5 185t191.5 64q50 0 93 -14.5t74 -35.5t60 -41.5t63 -35t70 -14.5q61 0 90 39.5t29 101.5h127q0 -124 -70.5 -186.5t-179.5 -62.5z" />
    <glyph glyph-name="uni00A0" unicode="&#xa0;" horiz-adv-x="655" 
 />
    <glyph glyph-name="exclamdown" unicode="&#xa1;" horiz-adv-x="581" 
d="M293 946q-51 0 -87 31.5t-36 75.5t36 76t87 32t86 -31.5t35 -76.5q0 -44 -35.5 -75.5t-85.5 -31.5zM375 -449h-168v95l45 1120h82l41 -1120v-95z" />
    <glyph glyph-name="cent" unicode="&#xa2;" horiz-adv-x="1370" 
d="M1139 575l102 -32q-62 -141 -190.5 -220t-296.5 -87v-236h-103v238q-216 20 -349.5 154t-133.5 337q0 204 133.5 338t349.5 154v245h103v-243q143 -8 260.5 -71.5t175.5 -186.5l-109 -39q-38 86 -125 139.5t-202 60.5v-794q139 7 237 72.5t148 170.5zM291 729
q0 -159 99 -265t261 -128v788q-165 -19 -262.5 -127.5t-97.5 -267.5z" />
    <glyph glyph-name="sterling" unicode="&#xa3;" horiz-adv-x="1441" 
d="M358 123h983v-123h-1220v123q220 72 348.5 190t128.5 250q0 84 -57 174h-381v103h301q-12 14 -45.5 52.5t-49 57.5t-43 54.5t-41 61.5t-30 60.5t-23 69t-6.5 70.5q0 113 68 197t179.5 125.5t250.5 41.5q54 0 107 -7t112 -23t112 -45.5t100.5 -70.5t85 -102t58.5 -137
l-127 -49q-31 89 -81.5 153t-112 98.5t-124.5 50t-132 15.5q-145 0 -244.5 -65t-99.5 -182q0 -57 28 -117t61 -101t90 -106.5t85 -101.5h524v-103h-461q39 -76 39 -157q0 -133 -101 -254.5t-282 -202.5z" />
    <glyph glyph-name="currency" unicode="&#xa4;" horiz-adv-x="1622" 
d="M1266 821q0 -154 -103 -260l326 -325l-94 -74l-330 325q-108 -57 -252 -57q-147 0 -256 59l-330 -327l-94 74l328 325q-103 106 -103 260q0 152 101 258l-326 328l94 74l330 -326q109 59 256 59q148 0 254 -59l328 326l94 -74l-326 -324q103 -106 103 -262zM487 821
q0 -129 89.5 -210t236.5 -81t234.5 81t87.5 210q0 131 -87.5 212t-234.5 81t-236.5 -81.5t-89.5 -211.5z" />
    <glyph glyph-name="yen" unicode="&#xa5;" horiz-adv-x="1736" 
d="M940 0h-145v279h-445v108h445v199h-445v108h379l-651 903h158q97 -134 307.5 -428t322.5 -448h6q54 75 178 247.5t455 628.5h154l-653 -903h385v-108h-451v-199h451v-108h-451v-279z" />
    <glyph glyph-name="brokenbar" unicode="&#xa6;" horiz-adv-x="624" 
d="M381 838h-137v800h137v-800zM381 -451h-137v793h137v-793z" />
    <glyph glyph-name="section" unicode="&#xa7;" horiz-adv-x="1304" 
d="M670 -301q-201 0 -356 96t-208 246l125 35q52 -115 176.5 -194t262.5 -79q49 0 100 11t100.5 34t81 66t31.5 100q0 28 -8.5 52t-20.5 41.5t-36.5 33.5t-43.5 26t-55.5 22t-58.5 18l-66 18l-127 35q-38 11 -57.5 17t-65.5 23.5t-74 33t-66 42.5t-60 55.5t-38 69t-16 85.5
q0 99 69 169t179 101v4q-98 42 -161.5 110.5t-63.5 164.5q0 79 40 140.5t106 97.5t143.5 54.5t159.5 18.5q76 0 144.5 -15.5t132.5 -49t114 -94.5t77 -144l-135 -37q-43 122 -124 178.5t-220 56.5q-134 0 -217.5 -52.5t-83.5 -141.5q0 -24 7.5 -46t17 -38.5t30.5 -34t35 -28
t44 -24t44.5 -20t49 -18t45 -14.5l45.5 -13l153 -41q39 -11 60 -17.5t61 -21.5t64 -28.5t55 -36t48 -47t29.5 -58.5t12.5 -73q0 -97 -68 -177.5t-180 -117.5v-4q227 -84 227 -256q0 -140 -131.5 -237t-328.5 -97zM639 365l66 -19q52 3 101 16t96.5 37t76.5 67t29 99
q0 39 -17.5 69.5t-37 49t-65 37t-70 26t-84.5 22.5q-7 2 -11 3l-100 25q-62 16 -116 4.5t-93.5 -41.5t-62.5 -72.5t-23 -87.5q0 -41 21.5 -76.5t51 -58.5t76 -44t81.5 -32.5t81 -23.5z" />
    <glyph glyph-name="copyright" unicode="&#xa9;" horiz-adv-x="2330" 
d="M1165 -35q-220 0 -408.5 65.5t-317 178.5t-201 265.5t-72.5 324.5q0 171 72.5 323.5t201 264.5t317 177.5t408.5 65.5t408.5 -65.5t317.5 -177.5t201.5 -264.5t72.5 -323.5q0 -172 -72.5 -324.5t-201.5 -265.5t-317.5 -178.5t-408.5 -65.5zM1165 76q194 0 358.5 57
t276.5 155t175 230t63 281q0 148 -63 280t-175 230t-277 155.5t-358 57.5t-357.5 -57t-276 -155.5t-174 -230.5t-62.5 -280q0 -149 62.5 -281t174 -230t275.5 -155t358 -57zM1174 350q-224 0 -364 124.5t-140 322.5q0 201 140.5 325.5t363.5 124.5q158 0 275 -66.5
t169 -189.5l-125 -39q-36 93 -121 143t-203 50q-160 0 -262 -97t-102 -251q0 -156 105 -250t270 -94q128 0 223.5 59.5t142.5 169.5l115 -31q-55 -142 -184 -221.5t-303 -79.5z" />
    <glyph glyph-name="guillemotleft" unicode="&#xab;" horiz-adv-x="1335" 
d="M707 164h-162l-410 405v9l410 405h162l-410 -405v-9zM1167 164h-159l-412 405v9l412 405h159l-409 -405v-9z" />
    <glyph glyph-name="logicalnot" unicode="&#xac;" horiz-adv-x="1241" 
d="M1044 264h-131v309h-723v113h854v-422z" />
    <glyph glyph-name="registered" unicode="&#xae;" horiz-adv-x="1404" 
d="M700 739q-230 0 -383 128.5t-153 320.5q0 193 152.5 319.5t383.5 126.5q232 0 384.5 -127t152.5 -319t-153 -320.5t-384 -128.5zM700 817q194 0 320.5 105t126.5 266q0 160 -127 266.5t-320 106.5q-195 0 -321.5 -105.5t-126.5 -267.5t126.5 -266.5t321.5 -104.5z
M604 944h-88v494h213q90 0 146.5 -40.5t56.5 -111.5q0 -55 -35.5 -95t-95.5 -54l155 -193h-102l-149 184h-101v-184zM604 1366v-168h125q111 0 111 86q0 39 -32 60.5t-87 21.5h-117z" />
    <glyph glyph-name="degree" unicode="&#xb0;" horiz-adv-x="946" 
d="M471 1055q-151 0 -249.5 85.5t-98.5 213.5q0 126 99 210.5t249 84.5t251 -85t101 -210q0 -126 -101 -212.5t-251 -86.5zM471 1143q103 0 170.5 60t67.5 151q0 87 -68 147t-170 60q-100 0 -169 -60.5t-69 -146.5q0 -89 68.5 -150t169.5 -61z" />
    <glyph glyph-name="plusminus" unicode="&#xb1;" horiz-adv-x="1243" 
d="M1051 774v-108h-365v-213h365v-103h-858v103h362v213h-362v108h362v250h131v-250h365z" />
    <glyph glyph-name="uni00B2" unicode="&#xb2;" horiz-adv-x="753" 
d="M655 811h-553v10q4 51 18 90t31.5 66.5t56.5 58t71.5 50.5t97.5 57q35 21 55 35t48 37.5t41.5 49.5t13.5 54q0 48 -44 80.5t-112 32.5q-84 0 -136.5 -46t-52.5 -122l-102 16q0 107 81.5 175.5t207.5 68.5q118 0 195 -58t77 -149q0 -69 -43 -118.5t-117 -92.5
q-20 -12 -61.5 -34.5t-63 -36t-49.5 -34.5t-44.5 -44.5t-24.5 -51.5h409v-94z" />
    <glyph glyph-name="uni00B3" unicode="&#xb3;" horiz-adv-x="765" 
d="M375 797q-107 0 -189 43.5t-110 115.5l98 43q24 -54 76.5 -85t124.5 -31q75 0 124.5 35t49.5 92q0 56 -50.5 88t-140.5 32h-82v76h91q74 0 118.5 32t44.5 83q0 52 -46.5 83.5t-116.5 31.5q-67 0 -114.5 -33t-57.5 -90l-101 20q13 84 93 137.5t190 53.5q111 0 188.5 -51.5
t77.5 -133.5q0 -54 -36.5 -100.5t-100.5 -60.5q71 -12 116.5 -57t45.5 -111q0 -87 -80 -150t-213 -63z" />
    <glyph glyph-name="paragraph" unicode="&#xb6;" horiz-adv-x="1718" 
d="M1098 -287h-146v942h-293q-254 0 -411.5 133.5t-157.5 346.5q0 201 163 331.5t454 130.5h391v-1884zM1430 -287h-146v1884h146v-1884z" />
    <glyph glyph-name="periodcentered" unicode="&#xb7;" horiz-adv-x="655" 
d="M330 477q-63 0 -107.5 39.5t-44.5 95.5q0 54 44.5 91.5t107.5 37.5q60 0 102.5 -37.5t42.5 -91.5q0 -56 -42.5 -95.5t-102.5 -39.5z" />
    <glyph glyph-name="uni00B9" unicode="&#xb9;" horiz-adv-x="522" 
d="M354 811h-110v520q-66 -66 -185 -84v103q84 17 136.5 61t52.5 98h106v-698z" />
    <glyph glyph-name="guillemotright" unicode="&#xbb;" horiz-adv-x="1335" 
d="M330 164h-162l410 405v9l-410 405h162l409 -405v-9zM791 164h-162l411 405v9l-411 405h162l409 -405v-9z" />
    <glyph glyph-name="onequarter" unicode="&#xbc;" horiz-adv-x="1552" 
d="M354 811h-110v520q-66 -66 -185 -84v103q84 17 136.5 61t52.5 98h106v-698zM78 0h-131l1366 1468h123zM1358 -14h-111v159h-413v86l415 453h109v-453h115v-86h-115v-159zM1247 551l-301 -320h301v320z" />
    <glyph glyph-name="onehalf" unicode="&#xbd;" horiz-adv-x="1595" 
d="M354 811h-110v520q-66 -66 -185 -84v103q84 17 136.5 61t52.5 98h106v-698zM78 0h-131l1366 1468h123zM1497 -14h-553v10q3 42 11.5 75t27 61.5t36 48.5t53.5 45.5t64 42.5t83 48q34 20 55 34.5t48 38t40.5 50t13.5 54.5q0 48 -43.5 80t-111.5 32q-84 0 -136.5 -46
t-52.5 -122l-102 17q0 107 81.5 175t207.5 68q118 0 195 -57.5t77 -148.5q0 -69 -43 -118.5t-117 -92.5q-21 -12 -62 -34.5t-63 -36t-50 -34.5t-44.5 -44.5t-24.5 -51.5h410v-94z" />
    <glyph glyph-name="threequarters" unicode="&#xbe;" horiz-adv-x="1796" 
d="M375 797q-107 0 -189 43.5t-110 115.5l98 43q24 -54 76.5 -85t124.5 -31q75 0 124.5 35t49.5 92q0 56 -50.5 88t-140.5 32h-82v76h91q74 0 118.5 32t44.5 83q0 52 -46.5 83.5t-116.5 31.5q-67 0 -114.5 -33t-57.5 -90l-101 20q13 84 93 137.5t190 53.5q111 0 188.5 -51.5
t77.5 -133.5q0 -54 -36.5 -100.5t-100.5 -60.5q71 -12 116.5 -57t45.5 -111q0 -87 -80 -150t-213 -63zM322 0h-132l1366 1468h123zM1602 -14h-111v159h-414v86l416 453h109v-453h114v-86h-114v-159zM1491 551l-301 -320h301v320z" />
    <glyph glyph-name="questiondown" unicode="&#xbf;" horiz-adv-x="1255" 
d="M694 946q-50 0 -85.5 31.5t-35.5 75.5q0 45 35 76.5t86 31.5q52 0 88.5 -31.5t36.5 -76.5q0 -44 -36.5 -75.5t-88.5 -31.5zM629 -483q-140 0 -261.5 48t-199.5 143.5t-78 219.5q0 73 28 140t81.5 125t108.5 102.5t130 93.5q38 25 59 38.5t50.5 35.5t44 38t32.5 39t25 46
t12.5 52t2.5 62.5t-11 73.5h131q10 -46 13.5 -84.5t-2.5 -72.5t-14 -60t-30 -54.5t-40 -48t-54.5 -47.5t-64 -46.5t-76.5 -51.5q-135 -91 -206.5 -178t-71.5 -192q0 -139 117 -223.5t280 -84.5q86 0 164.5 27t138 76t87.5 126.5t11 170.5l129 -21q16 -109 -21.5 -203
t-113 -156.5t-180 -98t-221.5 -35.5z" />
    <glyph glyph-name="Agrave" unicode="&#xc0;" horiz-adv-x="1802" 
d="M999 1720h-127l-409 322h217zM193 0h-152l784 1597h152l784 -1597h-151l-287 573h-850q-63 -128 -160 -327.5t-120 -245.5zM530 694h736q-265 539 -361 754h-6q-34 -71 -166 -339.5t-203 -414.5z" />
    <glyph glyph-name="Aacute" unicode="&#xc1;" horiz-adv-x="1802" 
d="M1343 2042l-409 -322h-125l317 322h217zM193 0h-152l784 1597h152l784 -1597h-151l-287 573h-850q-63 -128 -160 -327.5t-120 -245.5zM530 694h736q-265 539 -361 754h-6q-34 -71 -166 -339.5t-203 -414.5z" />
    <glyph glyph-name="Acircumflex" unicode="&#xc2;" horiz-adv-x="1802" 
d="M991 2023l320 -303h-127q-190 146 -285 224q-77 -65 -285 -224h-127l318 303h186zM193 0h-152l784 1597h152l784 -1597h-151l-287 573h-850q-63 -128 -160 -327.5t-120 -245.5zM530 694h736q-265 539 -361 754h-6q-34 -71 -166 -339.5t-203 -414.5z" />
    <glyph glyph-name="Atilde" unicode="&#xc3;" horiz-adv-x="1802" 
d="M1085 1749q-25 0 -48 4t-37 7t-35 14.5t-26.5 15t-28.5 20t-25 17.5l-43 31q-36 27 -63 40t-62 13q-57 0 -95 -42.5t-38 -105.5h-105q1 108 69.5 176t174.5 68q52 0 90.5 -17t85.5 -51l51 -36q77 -58 140 -58q58 0 91 41.5t33 106.5h107q0 -111 -62.5 -177.5
t-173.5 -66.5zM193 0h-152l784 1597h152l784 -1597h-151l-287 573h-850q-63 -128 -160 -327.5t-120 -245.5zM530 694h736q-265 539 -361 754h-6q-34 -71 -166 -339.5t-203 -414.5z" />
    <glyph glyph-name="Adieresis" unicode="&#xc4;" horiz-adv-x="1802" 
d="M670 1790q-49 0 -83 30.5t-34 73.5q0 42 34 71.5t83 29.5t82.5 -29.5t33.5 -71.5q0 -43 -33.5 -73.5t-82.5 -30.5zM1133 1790q-51 0 -85 30.5t-34 73.5q0 42 34.5 71.5t84.5 29.5q47 0 80.5 -30t33.5 -71q0 -43 -33.5 -73.5t-80.5 -30.5zM193 0h-152l784 1597h152
l784 -1597h-151l-287 573h-850q-63 -128 -160 -327.5t-120 -245.5zM530 694h736q-265 539 -361 754h-6q-34 -71 -166 -339.5t-203 -414.5z" />
    <glyph glyph-name="Aring" unicode="&#xc5;" horiz-adv-x="1802" 
d="M901 1716q-116 0 -192 61t-76 156q0 93 76 154t192 61q111 0 186.5 -61t75.5 -154q0 -94 -75.5 -155.5t-186.5 -61.5zM901 1806q68 0 114 34.5t46 92.5q0 57 -46 91t-114 34q-72 0 -119 -34t-47 -91q0 -59 47 -93t119 -34zM193 0h-152l784 1597h152l784 -1597h-151
l-287 573h-850q-63 -128 -160 -327.5t-120 -245.5zM530 694h736q-265 539 -361 754h-6q-34 -71 -166 -339.5t-203 -414.5z" />
    <glyph glyph-name="AE" unicode="&#xc6;" horiz-adv-x="2523" 
d="M109 0h-156l1139 1597h1275v-118h-1052v-596h1003v-121h-1003v-637h1077v-125h-1221v571h-649q-89 -121 -413 -571zM600 692h571v787h-4q-95 -131 -283.5 -393.5t-283.5 -393.5z" />
    <glyph glyph-name="Ccedilla" unicode="&#xc7;" horiz-adv-x="2068" 
d="M1876 580l129 -43q-45 -122 -122 -223.5t-187 -181t-262 -123.5t-332 -44l-109 -127q47 19 107 19q96 0 157.5 -45t61.5 -117q0 -82 -75 -133t-189 -51q-85 0 -164.5 30t-132.5 80l61 53q40 -41 102.5 -65.5t127.5 -24.5q70 0 119 30.5t49 76.5q0 44 -43.5 72t-110.5 28
q-64 0 -117 -24l-61 49l119 153q-255 17 -452.5 125.5t-307 290t-109.5 408.5q0 184 75 342t203.5 265.5t304 168.5t372.5 61q133 0 260 -28.5t240.5 -83.5t202.5 -145.5t134 -205.5l-127 -49q-90 185 -282 287t-428 102q-160 0 -304 -49t-254.5 -139t-175.5 -227t-65 -301
q0 -138 46 -255t125 -198.5t185 -138.5t225 -84t246 -27q154 0 284 39.5t222 109t155 155.5t97 188z" />
    <glyph glyph-name="Egrave" unicode="&#xc8;" horiz-adv-x="1619" 
d="M924 1720h-127l-410 322h217zM1489 0h-1221v1597h1196v-118h-1052v-596h1003v-121h-1003v-637h1077v-125z" />
    <glyph glyph-name="Eacute" unicode="&#xc9;" horiz-adv-x="1619" 
d="M1268 2042l-410 -322h-125l318 322h217zM1489 0h-1221v1597h1196v-118h-1052v-596h1003v-121h-1003v-637h1077v-125z" />
    <glyph glyph-name="Ecircumflex" unicode="&#xca;" horiz-adv-x="1619" 
d="M918 2023l319 -303h-127q-190 146 -285 224q-87 -73 -284 -224h-127l317 303h187zM1489 0h-1221v1597h1196v-118h-1052v-596h1003v-121h-1003v-637h1077v-125z" />
    <glyph glyph-name="Edieresis" unicode="&#xcb;" horiz-adv-x="1619" 
d="M594 1790q-49 0 -83 30.5t-34 73.5q0 42 34 71.5t83 29.5t83 -29.5t34 -71.5q0 -43 -34 -73.5t-83 -30.5zM1057 1790q-51 0 -85 30.5t-34 73.5q0 42 34.5 71.5t84.5 29.5q47 0 80.5 -30t33.5 -71q0 -43 -33.5 -73.5t-80.5 -30.5zM1489 0h-1221v1597h1196v-118h-1052v-596
h1003v-121h-1003v-637h1077v-125z" />
    <glyph glyph-name="Igrave" unicode="&#xcc;" horiz-adv-x="679" 
d="M438 1720h-127l-409 322h217zM412 0h-144v1597h144v-1597z" />
    <glyph glyph-name="Iacute" unicode="&#xcd;" horiz-adv-x="679" 
d="M784 2042l-409 -322h-125l317 322h217zM412 0h-144v1597h144v-1597z" />
    <glyph glyph-name="Icircumflex" unicode="&#xce;" horiz-adv-x="679" 
d="M432 2023l320 -303h-127q-190 146 -285 224q-77 -65 -285 -224h-127l318 303h186zM412 0h-144v1597h144v-1597z" />
    <glyph glyph-name="Idieresis" unicode="&#xcf;" horiz-adv-x="679" 
d="M111 1790q-49 0 -83 30.5t-34 73.5q0 42 34 71.5t83 29.5t82.5 -29.5t33.5 -71.5q0 -43 -33.5 -73.5t-82.5 -30.5zM573 1790q-50 0 -84 30.5t-34 73.5q0 42 34 71.5t84 29.5q47 0 81 -30t34 -71q0 -43 -34 -73.5t-81 -30.5zM412 0h-144v1597h144v-1597z" />
    <glyph glyph-name="Eth" unicode="&#xd0;" horiz-adv-x="1980" 
d="M268 1597h664q187 0 339.5 -40.5t257 -112t176 -171.5t104 -216t32.5 -248q0 -178 -61 -327t-173 -256t-280 -166.5t-373 -59.5h-686v743h-200v109h200v745zM973 119q333 0 525 183t192 495q0 321 -205.5 501.5t-583.5 180.5h-489v-627h678v-109h-678v-624h561z" />
    <glyph glyph-name="Ntilde" unicode="&#xd1;" horiz-adv-x="2029" 
d="M1178 1802q-22 0 -40.5 2t-36 7.5t-29 9t-27.5 13.5t-22.5 14t-24 16.5t-21.5 15.5l-43 31q-36 27 -63 40t-62 13q-57 0 -95 -42t-38 -105h-105q1 108 69.5 175.5t174.5 67.5q52 0 91 -17t85 -50l51 -37q77 -58 140 -58q58 0 91.5 41.5t33.5 106.5h106q0 -111 -62 -177.5
t-173 -66.5zM412 0h-144v1597h158q85 -100 274 -319.5t312 -363.5t293.5 -345t308.5 -366h6v1394h143v-1597h-159q-97 112 -526 607t-662 771h-4v-1378z" />
    <glyph glyph-name="Ograve" unicode="&#xd2;" horiz-adv-x="2189" 
d="M1192 1720h-127l-410 322h217zM1094 -35q-194 0 -370 63t-306.5 172t-207.5 265t-77 332t76.5 331.5t206 265t307 173t373.5 63.5q199 0 377.5 -65t306 -176t202 -265.5t74.5 -326.5q0 -173 -75.5 -328t-204.5 -265t-306.5 -174.5t-375.5 -64.5zM1098 88q159 0 305 53.5
t255 146t173.5 225.5t64.5 284t-65 284t-173.5 226t-254.5 146.5t-305 53.5q-161 0 -308.5 -53.5t-258 -146t-176.5 -225.5t-66 -285q0 -151 66 -284t176.5 -225.5t258 -146t308.5 -53.5z" />
    <glyph glyph-name="Oacute" unicode="&#xd3;" horiz-adv-x="2189" 
d="M1536 2042l-410 -322h-125l318 322h217zM1094 -35q-194 0 -370 63t-306.5 172t-207.5 265t-77 332t76.5 331.5t206 265t307 173t373.5 63.5q199 0 377.5 -65t306 -176t202 -265.5t74.5 -326.5q0 -173 -75.5 -328t-204.5 -265t-306.5 -174.5t-375.5 -64.5zM1098 88
q159 0 305 53.5t255 146t173.5 225.5t64.5 284t-65 284t-173.5 226t-254.5 146.5t-305 53.5q-161 0 -308.5 -53.5t-258 -146t-176.5 -225.5t-66 -285q0 -151 66 -284t176.5 -225.5t258 -146t308.5 -53.5z" />
    <glyph glyph-name="Ocircumflex" unicode="&#xd4;" horiz-adv-x="2189" 
d="M1186 2023l319 -303h-127q-176 135 -284 224q-77 -65 -285 -224h-127l317 303h187zM1094 -35q-194 0 -370 63t-306.5 172t-207.5 265t-77 332t76.5 331.5t206 265t307 173t373.5 63.5q199 0 377.5 -65t306 -176t202 -265.5t74.5 -326.5q0 -173 -75.5 -328t-204.5 -265
t-306.5 -174.5t-375.5 -64.5zM1098 88q159 0 305 53.5t255 146t173.5 225.5t64.5 284t-65 284t-173.5 226t-254.5 146.5t-305 53.5q-161 0 -308.5 -53.5t-258 -146t-176.5 -225.5t-66 -285q0 -151 66 -284t176.5 -225.5t258 -146t308.5 -53.5z" />
    <glyph glyph-name="Otilde" unicode="&#xd5;" horiz-adv-x="2189" 
d="M1278 1802q-22 0 -40.5 2t-36 7.5t-29 9t-27.5 13.5t-22.5 14t-24 16.5t-21.5 15.5l-43 31q-36 27 -63 40t-62 13q-57 0 -95 -42t-38 -105h-104q1 108 69 175.5t174 67.5q52 0 92 -17t85 -50l51 -37q77 -58 139 -58q58 0 91.5 41.5t33.5 106.5h106q0 -111 -62 -177.5
t-173 -66.5zM1094 -35q-194 0 -370 63t-306.5 172t-207.5 265t-77 332t76.5 331.5t206 265t307 173t373.5 63.5q199 0 377.5 -65t306 -176t202 -265.5t74.5 -326.5q0 -173 -75.5 -328t-204.5 -265t-306.5 -174.5t-375.5 -64.5zM1098 88q159 0 305 53.5t255 146t173.5 225.5
t64.5 284t-65 284t-173.5 226t-254.5 146.5t-305 53.5q-161 0 -308.5 -53.5t-258 -146t-176.5 -225.5t-66 -285q0 -151 66 -284t176.5 -225.5t258 -146t308.5 -53.5z" />
    <glyph glyph-name="Odieresis" unicode="&#xd6;" horiz-adv-x="2189" 
d="M862 1790q-49 0 -83 30.5t-34 73.5q0 42 34 71.5t83 29.5t83 -29.5t34 -71.5q0 -43 -34 -73.5t-83 -30.5zM1325 1790q-51 0 -85 30.5t-34 73.5q0 42 34.5 71.5t84.5 29.5q47 0 81 -30t34 -71q0 -43 -34 -73.5t-81 -30.5zM1094 -35q-194 0 -370 63t-306.5 172t-207.5 265
t-77 332t76.5 331.5t206 265t307 173t373.5 63.5q199 0 377.5 -65t306 -176t202 -265.5t74.5 -326.5q0 -173 -75.5 -328t-204.5 -265t-306.5 -174.5t-375.5 -64.5zM1098 88q159 0 305 53.5t255 146t173.5 225.5t64.5 284t-65 284t-173.5 226t-254.5 146.5t-305 53.5
q-161 0 -308.5 -53.5t-258 -146t-176.5 -225.5t-66 -285q0 -151 66 -284t176.5 -225.5t258 -146t308.5 -53.5z" />
    <glyph glyph-name="multiply" unicode="&#xd7;" horiz-adv-x="1091" 
d="M459 625l-271 225l93 80l270 -225l258 219l88 -80l-258 -217l268 -228l-92 -80l-266 226l-262 -219l-88 80z" />
    <glyph glyph-name="Oslash" unicode="&#xd8;" horiz-adv-x="2189" 
d="M1882 1661l-176 -215q164 -116 257 -285t93 -364q0 -173 -75.5 -328t-204.5 -265t-306.5 -174.5t-375.5 -64.5q-278 0 -506 121l-125 -152h-160l178 218q-163 116 -255.5 282.5t-92.5 362.5q0 176 76.5 331.5t206 265t307 173t373.5 63.5q274 0 501 -119l123 150h162z
M289 797q0 -163 74.5 -302t205.5 -237l942 1149q-195 100 -413 100q-161 0 -308.5 -53.5t-258 -146t-176.5 -225.5t-66 -285zM1098 88q159 0 305 53.5t255 146t173.5 225.5t64.5 284q0 163 -74 303.5t-204 238.5l-944 -1149q193 -102 424 -102z" />
    <glyph glyph-name="Ugrave" unicode="&#xd9;" horiz-adv-x="1851" 
d="M1022 1720h-127l-410 322h217zM920 -35q-316 0 -496 156t-180 454v1022h145v-1015q0 -254 142 -376t393 -122q123 0 220 28.5t169 87.5t110.5 155.5t38.5 226.5v1015h146v-1022q0 -134 -42.5 -244.5t-126 -193t-216 -127.5t-303.5 -45z" />
    <glyph glyph-name="Uacute" unicode="&#xda;" horiz-adv-x="1851" 
d="M1210 2040l-409 -320h-125l317 320h217zM920 -35q-316 0 -496 156t-180 454v1022h145v-1015q0 -254 142 -376t393 -122q123 0 220 28.5t169 87.5t110.5 155.5t38.5 226.5v1015h146v-1022q0 -134 -42.5 -244.5t-126 -193t-216 -127.5t-303.5 -45z" />
    <glyph glyph-name="Ucircumflex" unicode="&#xdb;" horiz-adv-x="1851" 
d="M1016 2023l319 -303h-127q-176 135 -284 224q-77 -65 -285 -224h-127l317 303h187zM920 -35q-316 0 -496 156t-180 454v1022h145v-1015q0 -254 142 -376t393 -122q123 0 220 28.5t169 87.5t110.5 155.5t38.5 226.5v1015h146v-1022q0 -134 -42.5 -244.5t-126 -193
t-216 -127.5t-303.5 -45z" />
    <glyph glyph-name="Udieresis" unicode="&#xdc;" horiz-adv-x="1851" 
d="M692 1790q-49 0 -83 30.5t-34 73.5q0 42 34 71.5t83 29.5t83 -29.5t34 -71.5q0 -43 -34 -73.5t-83 -30.5zM1155 1790q-51 0 -85 30.5t-34 73.5q0 42 34.5 71.5t84.5 29.5q47 0 81 -30t34 -71q0 -43 -34 -73.5t-81 -30.5zM920 -35q-316 0 -496 156t-180 454v1022h145
v-1015q0 -254 142 -376t393 -122q123 0 220 28.5t169 87.5t110.5 155.5t38.5 226.5v1015h146v-1022q0 -134 -42.5 -244.5t-126 -193t-216 -127.5t-303.5 -45z" />
    <glyph glyph-name="Yacute" unicode="&#xdd;" horiz-adv-x="1687" 
d="M1270 2040l-408 -320h-127l318 320h217zM915 0h-143v590l-325 455t-396 552h158l633 -884h4q474 659 637 884h153q-121 -168 -360.5 -503.5t-360.5 -503.5v-590z" />
    <glyph glyph-name="Thorn" unicode="&#xde;" horiz-adv-x="1673" 
d="M412 0h-144v1597h144v-284h518q285 0 453.5 -126.5t168.5 -342.5q0 -114 -45.5 -207t-124.5 -154t-184.5 -94t-226.5 -33h-559v-356zM412 1194v-717h512q226 0 351.5 94t125.5 265q0 168 -136 263t-364 95h-489z" />
    <glyph glyph-name="germandbls" unicode="&#xdf;" horiz-adv-x="1495" 
d="M362 0h-135v1176q0 34 2 63.5t13 83.5t31 97t60.5 92.5t95.5 82.5t142 55.5t195 22.5q260 0 407.5 -119.5t147.5 -308.5q0 -153 -95.5 -261t-242.5 -130v-2q177 -21 286 -125t109 -262q0 -94 -43.5 -178t-122 -148t-199 -101.5t-265.5 -37.5h-175v106h185
q206 0 340.5 100t134.5 255q0 142 -115 237t-295 95h-116v106h110q161 0 260 89t99 239q0 68 -23 127t-70.5 106.5t-128 75t-186.5 27.5q-100 0 -176.5 -26.5t-119 -65.5t-68.5 -91t-34 -94t-8 -84v-1202z" />
    <glyph glyph-name="agrave" unicode="&#xe0;" horiz-adv-x="1404" 
d="M782 1278h-120l-373 393h194zM547 -35q-118 0 -212.5 31t-154 98t-59.5 162q0 63 27 114.5t71.5 87.5t111 64.5t134.5 46.5t153 33q32 5 84.5 13t82 13t72.5 13.5t67 17t52.5 22t43.5 30t25 39.5t10 51q0 101 -103 177.5t-262 76.5q-142 0 -244 -65.5t-141 -176.5
l-135 41q37 103 123.5 174t189 102t215.5 31q72 0 141 -12.5t134.5 -42t115 -71.5t79.5 -106.5t30 -142.5v-434q0 -130 10 -204t33 -148h-137q-37 107 -37 244h-6q-69 -127 -199 -203t-315 -76zM559 68q110 0 206.5 38.5t158 97t96.5 125t35 126.5v159q-59 -38 -120.5 -56.5
t-209.5 -41.5q-200 -33 -290 -69q-169 -67 -169 -187q0 -88 80.5 -140t212.5 -52z" />
    <glyph glyph-name="aacute" unicode="&#xe1;" horiz-adv-x="1404" 
d="M1141 1671l-373 -393h-121l299 393h195zM547 -35q-118 0 -212.5 31t-154 98t-59.5 162q0 63 27 114.5t71.5 87.5t111 64.5t134.5 46.5t153 33q32 5 84.5 13t82 13t72.5 13.5t67 17t52.5 22t43.5 30t25 39.5t10 51q0 101 -103 177.5t-262 76.5q-142 0 -244 -65.5
t-141 -176.5l-135 41q37 103 123.5 174t189 102t215.5 31q72 0 141 -12.5t134.5 -42t115 -71.5t79.5 -106.5t30 -142.5v-434q0 -130 10 -204t33 -148h-137q-37 107 -37 244h-6q-69 -127 -199 -203t-315 -76zM559 68q110 0 206.5 38.5t158 97t96.5 125t35 126.5v159
q-59 -38 -120.5 -56.5t-209.5 -41.5q-200 -33 -290 -69q-169 -67 -169 -187q0 -88 80.5 -140t212.5 -52z" />
    <glyph glyph-name="acircumflex" unicode="&#xe2;" horiz-adv-x="1404" 
d="M391 1278h-129l356 356h193l356 -356h-129q-187 151 -323 272q-179 -157 -324 -272zM547 -35q-118 0 -212.5 31t-154 98t-59.5 162q0 63 27 114.5t71.5 87.5t111 64.5t134.5 46.5t153 33q32 5 84.5 13t82 13t72.5 13.5t67 17t52.5 22t43.5 30t25 39.5t10 51
q0 101 -103 177.5t-262 76.5q-142 0 -244 -65.5t-141 -176.5l-135 41q37 103 123.5 174t189 102t215.5 31q72 0 141 -12.5t134.5 -42t115 -71.5t79.5 -106.5t30 -142.5v-434q0 -130 10 -204t33 -148h-137q-37 107 -37 244h-6q-69 -127 -199 -203t-315 -76zM559 68
q110 0 206.5 38.5t158 97t96.5 125t35 126.5v159q-59 -38 -120.5 -56.5t-209.5 -41.5q-200 -33 -290 -69q-169 -67 -169 -187q0 -88 80.5 -140t212.5 -52z" />
    <glyph glyph-name="atilde" unicode="&#xe3;" horiz-adv-x="1404" 
d="M901 1333q-22 0 -40.5 2t-36 7.5t-29 9t-27.5 13.5t-22.5 14t-24 16.5t-21.5 15.5l-43 31q-36 27 -63 40t-62 13q-57 0 -95 -42t-38 -105h-104q1 108 69.5 175.5t174.5 67.5q52 0 91 -17t85 -50l51 -37q75 -57 139 -57q59 0 92 41t33 106h107q0 -111 -62.5 -177.5
t-173.5 -66.5zM547 -35q-118 0 -212.5 31t-154 98t-59.5 162q0 63 27 114.5t71.5 87.5t111 64.5t134.5 46.5t153 33q32 5 84.5 13t82 13t72.5 13.5t67 17t52.5 22t43.5 30t25 39.5t10 51q0 101 -103 177.5t-262 76.5q-142 0 -244 -65.5t-141 -176.5l-135 41
q37 103 123.5 174t189 102t215.5 31q72 0 141 -12.5t134.5 -42t115 -71.5t79.5 -106.5t30 -142.5v-434q0 -130 10 -204t33 -148h-137q-37 107 -37 244h-6q-69 -127 -199 -203t-315 -76zM559 68q110 0 206.5 38.5t158 97t96.5 125t35 126.5v159q-59 -38 -120.5 -56.5
t-209.5 -41.5q-200 -33 -290 -69q-169 -67 -169 -187q0 -88 80.5 -140t212.5 -52z" />
    <glyph glyph-name="adieresis" unicode="&#xe4;" horiz-adv-x="1404" 
d="M506 1376q-49 0 -83 31t-34 74q0 40 34 69t83 29t82 -29t33 -69q0 -43 -33 -74t-82 -31zM924 1376q-50 0 -83.5 31t-33.5 74q0 40 33.5 69t83.5 29q47 0 80.5 -29t33.5 -69q0 -43 -33.5 -74t-80.5 -31zM547 -35q-118 0 -212.5 31t-154 98t-59.5 162q0 63 27 114.5
t71.5 87.5t111 64.5t134.5 46.5t153 33q32 5 84.5 13t82 13t72.5 13.5t67 17t52.5 22t43.5 30t25 39.5t10 51q0 101 -103 177.5t-262 76.5q-142 0 -244 -65.5t-141 -176.5l-135 41q37 103 123.5 174t189 102t215.5 31q72 0 141 -12.5t134.5 -42t115 -71.5t79.5 -106.5
t30 -142.5v-434q0 -130 10 -204t33 -148h-137q-37 107 -37 244h-6q-69 -127 -199 -203t-315 -76zM559 68q110 0 206.5 38.5t158 97t96.5 125t35 126.5v159q-59 -38 -120.5 -56.5t-209.5 -41.5q-200 -33 -290 -69q-169 -67 -169 -187q0 -88 80.5 -140t212.5 -52z" />
    <glyph glyph-name="aring" unicode="&#xe5;" horiz-adv-x="1404" 
d="M717 1247q-116 0 -192 61t-76 156q0 93 76 154t192 61q111 0 186.5 -61t75.5 -154q0 -94 -75.5 -155.5t-186.5 -61.5zM717 1337q68 0 114 34.5t46 92.5q0 57 -46 91t-114 34q-72 0 -119 -34t-47 -91q0 -59 47 -93t119 -34zM547 -35q-118 0 -212.5 31t-154 98t-59.5 162
q0 63 27 114.5t71.5 87.5t111 64.5t134.5 46.5t153 33q32 5 84.5 13t82 13t72.5 13.5t67 17t52.5 22t43.5 30t25 39.5t10 51q0 101 -103 177.5t-262 76.5q-142 0 -244 -65.5t-141 -176.5l-135 41q37 103 123.5 174t189 102t215.5 31q72 0 141 -12.5t134.5 -42t115 -71.5
t79.5 -106.5t30 -142.5v-434q0 -130 10 -204t33 -148h-137q-37 107 -37 244h-6q-69 -127 -199 -203t-315 -76zM559 68q110 0 206.5 38.5t158 97t96.5 125t35 126.5v159q-59 -38 -120.5 -56.5t-209.5 -41.5q-200 -33 -290 -69q-169 -67 -169 -187q0 -88 80.5 -140t212.5 -52z
" />
    <glyph glyph-name="ae" unicode="&#xe6;" horiz-adv-x="2463" 
d="M539 -35q-184 0 -301 76.5t-117 216.5q0 77 37.5 135.5t108.5 98.5t156 65.5t198 44.5q32 5 84.5 13t82 13t72 13.5t67 17t53 22t43 30t24.5 39.5t10 51q0 101 -103 177.5t-262 76.5q-143 0 -244.5 -66t-142.5 -176l-133 41q38 102 124 173t189 102.5t217 31.5
q72 0 142.5 -13.5t136.5 -41.5t117.5 -76.5t75.5 -111.5q86 115 227.5 179t316.5 64q56 0 111 -7t117 -24.5t116.5 -45t105 -72t86.5 -101t57.5 -136.5t21.5 -175v-49h-1133q0 -212 148 -343.5t376 -131.5q181 0 311 83.5t193 215.5l125 -39q-77 -176 -246.5 -273.5
t-386.5 -97.5q-136 0 -253 35.5t-208 111.5t-133 183h-4q-70 -144 -224 -237t-359 -93zM1206 653h977q-1 86 -29.5 156t-75 114.5t-108.5 74.5t-125.5 42.5t-130.5 12.5q-202 0 -339.5 -109t-168.5 -291zM561 68q86 0 165 25.5t137.5 67t102.5 92.5t66.5 103.5t22.5 98.5
v161q-67 -43 -125 -59.5t-201 -38.5q-55 -8 -95.5 -15.5t-100.5 -21t-102 -32.5t-82.5 -44.5t-61.5 -61.5t-21 -79q0 -90 83 -143t212 -53z" />
    <glyph glyph-name="ccedilla" unicode="&#xe7;" horiz-adv-x="1492" 
d="M1305 379l122 -37q-76 -177 -239 -274t-375 -103l-108 -127q47 19 106 19q96 0 157.5 -45t61.5 -117q0 -82 -75 -133t-189 -51q-85 0 -164.5 30t-132.5 80l61 53q40 -41 102.5 -65.5t127.5 -24.5q70 0 119 30.5t49 76.5q0 44 -43.5 72t-110.5 28q-64 0 -117 -24l-61 49
l119 151q-267 22 -430.5 184.5t-163.5 411.5q0 266 186.5 432t483.5 166q122 0 228 -30t200.5 -103t146.5 -184l-133 -45q-52 118 -171.5 184t-279.5 66q-232 0 -374 -137.5t-142 -348.5q0 -217 147.5 -351t381.5 -134q187 0 315.5 82t194.5 219z" />
    <glyph glyph-name="egrave" unicode="&#xe8;" horiz-adv-x="1525" 
d="M834 1278h-121l-373 393h195zM782 -35q-189 0 -339.5 74.5t-236 211t-85.5 310.5q0 263 185.5 431.5t473.5 168.5q55 0 110.5 -7t117 -24.5t116 -45t105 -72t87 -101t58 -136.5t21.5 -175v-57h-1131q3 -210 148.5 -338.5t373.5 -128.5q182 0 311.5 83.5t194.5 215.5
l123 -39q-79 -176 -247.5 -273.5t-385.5 -97.5zM270 651h977q-1 86 -29.5 156t-75 115t-108.5 75.5t-126.5 43t-131.5 12.5q-203 0 -339 -110.5t-167 -291.5z" />
    <glyph glyph-name="eacute" unicode="&#xe9;" horiz-adv-x="1525" 
d="M1194 1671l-373 -393h-121l299 393h195zM782 -35q-189 0 -339.5 74.5t-236 211t-85.5 310.5q0 263 185.5 431.5t473.5 168.5q55 0 110.5 -7t117 -24.5t116 -45t105 -72t87 -101t58 -136.5t21.5 -175v-57h-1131q3 -210 148.5 -338.5t373.5 -128.5q182 0 311.5 83.5
t194.5 215.5l123 -39q-79 -176 -247.5 -273.5t-385.5 -97.5zM270 651h977q-1 86 -29.5 156t-75 115t-108.5 75.5t-126.5 43t-131.5 12.5q-203 0 -339 -110.5t-167 -291.5z" />
    <glyph glyph-name="ecircumflex" unicode="&#xea;" horiz-adv-x="1525" 
d="M444 1278h-129l357 356h192l357 -356h-129q-199 161 -324 272q-179 -157 -324 -272zM782 -35q-189 0 -339.5 74.5t-236 211t-85.5 310.5q0 263 185.5 431.5t473.5 168.5q55 0 110.5 -7t117 -24.5t116 -45t105 -72t87 -101t58 -136.5t21.5 -175v-57h-1131
q3 -210 148.5 -338.5t373.5 -128.5q182 0 311.5 83.5t194.5 215.5l123 -39q-79 -176 -247.5 -273.5t-385.5 -97.5zM270 651h977q-1 86 -29.5 156t-75 115t-108.5 75.5t-126.5 43t-131.5 12.5q-203 0 -339 -110.5t-167 -291.5z" />
    <glyph glyph-name="edieresis" unicode="&#xeb;" horiz-adv-x="1525" 
d="M559 1376q-49 0 -83 31t-34 74q0 40 34 69t83 29t82 -29t33 -69q0 -43 -33 -74t-82 -31zM977 1376q-50 0 -83.5 31t-33.5 74q0 40 33.5 69t83.5 29q47 0 81 -29t34 -69q0 -43 -34 -74t-81 -31zM782 -35q-189 0 -339.5 74.5t-236 211t-85.5 310.5q0 263 185.5 431.5
t473.5 168.5q55 0 110.5 -7t117 -24.5t116 -45t105 -72t87 -101t58 -136.5t21.5 -175v-57h-1131q3 -210 148.5 -338.5t373.5 -128.5q182 0 311.5 83.5t194.5 215.5l123 -39q-79 -176 -247.5 -273.5t-385.5 -97.5zM270 651h977q-1 86 -29.5 156t-75 115t-108.5 75.5
t-126.5 43t-131.5 12.5q-203 0 -339 -110.5t-167 -291.5z" />
    <glyph glyph-name="igrave" unicode="&#xec;" horiz-adv-x="589" 
d="M362 1276h-120l-373 393h194zM362 0h-135v1128h135v-1128z" />
    <glyph glyph-name="iacute" unicode="&#xed;" horiz-adv-x="589" 
d="M721 1669l-373 -393h-121l299 393h195zM362 0h-135v1128h135v-1128z" />
    <glyph glyph-name="icircumflex" unicode="&#xee;" horiz-adv-x="589" 
d="M-29 1276h-129l357 356h192l357 -356h-130q-187 151 -323 272q-179 -157 -324 -272zM362 0h-135v1128h135v-1128z" />
    <glyph glyph-name="idieresis" unicode="&#xef;" horiz-adv-x="589" 
d="M86 1374q-49 0 -83 31t-34 74q0 40 34 69t83 29t82 -29t33 -69q0 -43 -33 -74t-82 -31zM504 1374q-50 0 -83.5 31t-33.5 74q0 40 33.5 69t83.5 29q47 0 80.5 -29t33.5 -69q0 -43 -33.5 -74t-80.5 -31zM362 0h-135v1128h135v-1128z" />
    <glyph glyph-name="eth" unicode="&#xf0;" horiz-adv-x="1583" 
d="M1225 1575l-244 -117q461 -290 461 -799q0 -331 -180 -512.5t-480 -181.5q-150 0 -276.5 46.5t-210.5 125.5t-131 183.5t-47 220.5q0 162 85.5 293t235 204.5t332.5 73.5q155 0 273.5 -53t216.5 -166h4q-45 160 -145.5 283t-268.5 219l-375 -178l-45 73l324 156
q-153 72 -363 131l35 106q268 -68 463 -172l285 138zM778 76q145 0 263 58t185.5 164.5t67.5 240.5q0 136 -68.5 243t-185.5 164.5t-260 57.5q-222 0 -370 -133t-148 -330q0 -95 37.5 -180t104 -148t164 -100t210.5 -37z" />
    <glyph glyph-name="ntilde" unicode="&#xf1;" horiz-adv-x="1552" 
d="M958 1333q-25 0 -48 4t-37 7t-35 14.5t-26.5 15t-28.5 20t-25 17.5l-43 31q-36 27 -63 40t-62 13q-57 0 -95 -42t-38 -105h-105q1 108 69.5 175.5t174.5 67.5q52 0 91 -17t85 -50l51 -37q75 -57 140 -57q58 0 91 41t33 106h107q0 -111 -62.5 -177.5t-173.5 -66.5zM362 0
h-135v1128h131v-221h4q79 130 205 192t283 62q76 0 144.5 -13.5t134 -47t113.5 -84t77 -130t29 -179.5v-707h-136v653q0 106 -33 185.5t-90 124t-124 65.5t-144 21q-108 0 -197 -36.5t-145 -96t-86.5 -132.5t-30.5 -149v-635z" />
    <glyph glyph-name="ograve" unicode="&#xf2;" horiz-adv-x="1587" 
d="M860 1278h-121l-372 393h194zM795 -35q-147 0 -272.5 44t-213.5 122.5t-138 190t-50 241.5t50 241.5t138 190t213.5 122.5t272.5 44q194 0 347 -75.5t238.5 -212t85.5 -310.5t-85.5 -310.5t-238.5 -212t-347 -75.5zM795 78q234 0 380 134.5t146 350.5q0 214 -146 350
t-380 136q-233 0 -381 -136t-148 -350q0 -215 147.5 -350t381.5 -135z" />
    <glyph glyph-name="oacute" unicode="&#xf3;" horiz-adv-x="1587" 
d="M1221 1671l-373 -393h-121l299 393h195zM795 -35q-147 0 -272.5 44t-213.5 122.5t-138 190t-50 241.5t50 241.5t138 190t213.5 122.5t272.5 44q194 0 347 -75.5t238.5 -212t85.5 -310.5t-85.5 -310.5t-238.5 -212t-347 -75.5zM795 78q234 0 380 134.5t146 350.5
q0 214 -146 350t-380 136q-233 0 -381 -136t-148 -350q0 -215 147.5 -350t381.5 -135z" />
    <glyph glyph-name="ocircumflex" unicode="&#xf4;" horiz-adv-x="1587" 
d="M471 1278h-129l356 356h193l356 -356h-129q-187 151 -323 272q-179 -157 -324 -272zM795 -35q-147 0 -272.5 44t-213.5 122.5t-138 190t-50 241.5t50 241.5t138 190t213.5 122.5t272.5 44q194 0 347 -75.5t238.5 -212t85.5 -310.5t-85.5 -310.5t-238.5 -212t-347 -75.5z
M795 78q234 0 380 134.5t146 350.5q0 214 -146 350t-380 136q-233 0 -381 -136t-148 -350q0 -215 147.5 -350t381.5 -135z" />
    <glyph glyph-name="otilde" unicode="&#xf5;" horiz-adv-x="1587" 
d="M979 1333q-22 0 -40.5 2t-36 7.5t-29 9t-27.5 13.5t-22.5 14t-24 16.5t-21.5 15.5l-43 31q-36 27 -63 40t-62 13q-57 0 -95 -42t-38 -105h-104q1 108 69 175.5t174 67.5q52 0 92 -17t85 -50l51 -37q75 -57 139 -57q59 0 92 41t33 106h106q0 -111 -62 -177.5t-173 -66.5z
M795 -35q-147 0 -272.5 44t-213.5 122.5t-138 190t-50 241.5t50 241.5t138 190t213.5 122.5t272.5 44q194 0 347 -75.5t238.5 -212t85.5 -310.5t-85.5 -310.5t-238.5 -212t-347 -75.5zM795 78q234 0 380 134.5t146 350.5q0 214 -146 350t-380 136q-233 0 -381 -136
t-148 -350q0 -215 147.5 -350t381.5 -135z" />
    <glyph glyph-name="odieresis" unicode="&#xf6;" horiz-adv-x="1587" 
d="M586 1376q-49 0 -83 31t-34 74q0 40 34 69t83 29t81.5 -29t32.5 -69q0 -43 -32.5 -74t-81.5 -31zM1004 1376q-50 0 -83.5 31t-33.5 74q0 40 33.5 69t83.5 29q47 0 80.5 -29t33.5 -69q0 -43 -33.5 -74t-80.5 -31zM795 -35q-147 0 -272.5 44t-213.5 122.5t-138 190
t-50 241.5t50 241.5t138 190t213.5 122.5t272.5 44q194 0 347 -75.5t238.5 -212t85.5 -310.5t-85.5 -310.5t-238.5 -212t-347 -75.5zM795 78q234 0 380 134.5t146 350.5q0 214 -146 350t-380 136q-233 0 -381 -136t-148 -350q0 -215 147.5 -350t381.5 -135z" />
    <glyph glyph-name="divide" unicode="&#xf7;" horiz-adv-x="1241" 
d="M627 823q-49 0 -84 31.5t-35 75.5q0 42 34 71t85 29q48 0 82 -30t34 -72q0 -43 -34.5 -74t-81.5 -31zM1051 569h-861v113h861v-113zM627 219q-49 0 -84 31t-35 74t34 72.5t85 29.5q48 0 82 -30t34 -72q0 -43 -34.5 -74t-81.5 -31z" />
    <glyph glyph-name="oslash" unicode="&#xf8;" horiz-adv-x="1587" 
d="M1419 1182l-155 -176q96 -79 149 -193.5t53 -249.5q0 -174 -85.5 -310.5t-238.5 -212t-347 -75.5q-214 0 -375 88l-96 -108h-154l156 174q-98 81 -151.5 194.5t-53.5 249.5q0 130 50 241.5t138 190t213.5 122.5t272.5 44q214 0 376 -92l101 113h147zM266 563
q0 -212 146 -348l678 762q-131 72 -295 72q-233 0 -381 -136t-148 -350zM795 78q234 0 380 134.5t146 350.5q0 212 -143 346l-674 -762q126 -69 291 -69z" />
    <glyph glyph-name="ugrave" unicode="&#xf9;" horiz-adv-x="1529" 
d="M805 1278h-121l-373 393h195zM692 -35q-60 0 -116 10t-111.5 31t-101 57.5t-81 85.5t-55.5 118.5t-20 152.5v708h135v-657q0 -87 23 -156t60 -112.5t88 -72.5t103.5 -40.5t110.5 -11.5q102 0 187.5 37t139 97t82.5 131.5t29 143.5v641h135v-776q0 -120 10.5 -195
t35.5 -157h-140q-35 118 -35 215h-4q-77 -127 -200 -188.5t-275 -61.5z" />
    <glyph glyph-name="uacute" unicode="&#xfa;" horiz-adv-x="1529" 
d="M1165 1671l-372 -393h-121l299 393h194zM692 -35q-60 0 -116 10t-111.5 31t-101 57.5t-81 85.5t-55.5 118.5t-20 152.5v708h135v-657q0 -87 23 -156t60 -112.5t88 -72.5t103.5 -40.5t110.5 -11.5q102 0 187.5 37t139 97t82.5 131.5t29 143.5v641h135v-776
q0 -120 10.5 -195t35.5 -157h-140q-35 118 -35 215h-4q-77 -127 -200 -188.5t-275 -61.5z" />
    <glyph glyph-name="ucircumflex" unicode="&#xfb;" horiz-adv-x="1529" 
d="M414 1278h-129l356 356h193l356 -356h-129q-199 161 -324 272q-188 -165 -323 -272zM692 -35q-60 0 -116 10t-111.5 31t-101 57.5t-81 85.5t-55.5 118.5t-20 152.5v708h135v-657q0 -87 23 -156t60 -112.5t88 -72.5t103.5 -40.5t110.5 -11.5q102 0 187.5 37t139 97
t82.5 131.5t29 143.5v641h135v-776q0 -120 10.5 -195t35.5 -157h-140q-35 118 -35 215h-4q-77 -127 -200 -188.5t-275 -61.5z" />
    <glyph glyph-name="udieresis" unicode="&#xfc;" horiz-adv-x="1529" 
d="M530 1376q-49 0 -82.5 31t-33.5 74q0 40 33.5 69t82.5 29t82 -29t33 -69q0 -43 -33 -74t-82 -31zM948 1376q-50 0 -83.5 31t-33.5 74q0 40 33.5 69t83.5 29q47 0 81 -29t34 -69q0 -43 -34 -74t-81 -31zM692 -35q-60 0 -116 10t-111.5 31t-101 57.5t-81 85.5t-55.5 118.5
t-20 152.5v708h135v-657q0 -87 23 -156t60 -112.5t88 -72.5t103.5 -40.5t110.5 -11.5q102 0 187.5 37t139 97t82.5 131.5t29 143.5v641h135v-776q0 -120 10.5 -195t35.5 -157h-140q-35 118 -35 215h-4q-77 -127 -200 -188.5t-275 -61.5z" />
    <glyph glyph-name="yacute" unicode="&#xfd;" horiz-adv-x="1318" 
d="M1069 1671l-373 -393h-121l299 393h195zM508 -451h-121l209 439l-553 1140h147q95 -191 271 -563.5t198 -417.5h5q39 82 205.5 438.5t258.5 542.5h148z" />
    <glyph glyph-name="thorn" unicode="&#xfe;" horiz-adv-x="1646" 
d="M362 -451h-135v2089h135v-751h7q84 135 223.5 204.5t306.5 69.5q176 0 319.5 -76t226.5 -213t83 -309q0 -173 -84 -310.5t-228 -212.5t-321 -75q-168 0 -306.5 68.5t-219.5 197.5h-7v-682zM879 78q218 0 360.5 137.5t142.5 347.5q0 211 -144 348.5t-359 137.5
q-140 0 -258 -61t-188.5 -173t-70.5 -252q0 -106 41.5 -198t112 -154t165 -97.5t198.5 -35.5z" />
    <glyph glyph-name="ydieresis" unicode="&#xff;" horiz-adv-x="1318" 
d="M434 1376q-49 0 -83 31t-34 74q0 40 34 69t83 29t82 -29t33 -69q0 -43 -33 -74t-82 -31zM852 1376q-50 0 -83.5 31t-33.5 74q0 40 33.5 69t83.5 29q47 0 81 -29t34 -69q0 -43 -34 -74t-81 -31zM508 -451h-121l209 439l-553 1140h147q95 -191 271 -563.5t198 -417.5h5
q39 82 205.5 438.5t258.5 542.5h148z" />
    <glyph glyph-name="Amacron" unicode="&#x100;" horiz-adv-x="1802" 
d="M1296 1835h-790v107h790v-107zM193 0h-152l784 1597h152l784 -1597h-151l-287 573h-850q-63 -128 -160 -327.5t-120 -245.5zM530 694h736q-265 539 -361 754h-6q-34 -71 -166 -339.5t-203 -414.5z" />
    <glyph glyph-name="amacron" unicode="&#x101;" horiz-adv-x="1404" 
d="M1126 1421h-825v105h825v-105zM547 -35q-118 0 -212.5 31t-154 98t-59.5 162q0 63 27 114.5t71.5 87.5t111 64.5t134.5 46.5t153 33q32 5 84.5 13t82 13t72.5 13.5t67 17t52.5 22t43.5 30t25 39.5t10 51q0 101 -103 177.5t-262 76.5q-142 0 -244 -65.5t-141 -176.5
l-135 41q37 103 123.5 174t189 102t215.5 31q72 0 141 -12.5t134.5 -42t115 -71.5t79.5 -106.5t30 -142.5v-434q0 -130 10 -204t33 -148h-137q-37 107 -37 244h-6q-69 -127 -199 -203t-315 -76zM559 68q110 0 206.5 38.5t158 97t96.5 125t35 126.5v159q-59 -38 -120.5 -56.5
t-209.5 -41.5q-200 -33 -290 -69q-169 -67 -169 -187q0 -88 80.5 -140t212.5 -52z" />
    <glyph glyph-name="Abreve" unicode="&#x102;" horiz-adv-x="1802" 
d="M901 1726q-101 0 -186.5 29t-140 76t-86 103t-35.5 114h125q8 -85 101 -151t222 -66t222.5 66t99.5 151h125q-2 -56 -33.5 -112.5t-86 -103.5t-140.5 -76.5t-187 -29.5zM193 0h-152l784 1597h152l784 -1597h-151l-287 573h-850q-63 -128 -160 -327.5t-120 -245.5z
M530 694h736q-265 539 -361 754h-6q-34 -71 -166 -339.5t-203 -414.5z" />
    <glyph glyph-name="abreve" unicode="&#x103;" horiz-adv-x="1404" 
d="M713 1276q-204 0 -321.5 111t-125.5 284h127q5 -130 93.5 -210.5t228.5 -80.5q138 0 226.5 78.5t94.5 212.5h127q-8 -173 -126.5 -284t-323.5 -111zM547 -35q-118 0 -212.5 31t-154 98t-59.5 162q0 63 27 114.5t71.5 87.5t111 64.5t134.5 46.5t153 33q32 5 84.5 13t82 13
t72.5 13.5t67 17t52.5 22t43.5 30t25 39.5t10 51q0 101 -103 177.5t-262 76.5q-142 0 -244 -65.5t-141 -176.5l-135 41q37 103 123.5 174t189 102t215.5 31q72 0 141 -12.5t134.5 -42t115 -71.5t79.5 -106.5t30 -142.5v-434q0 -130 10 -204t33 -148h-137q-37 107 -37 244h-6
q-69 -127 -199 -203t-315 -76zM559 68q110 0 206.5 38.5t158 97t96.5 125t35 126.5v159q-59 -38 -120.5 -56.5t-209.5 -41.5q-200 -33 -290 -69q-169 -67 -169 -187q0 -88 80.5 -140t212.5 -52z" />
    <glyph glyph-name="Aogonek" unicode="&#x104;" horiz-adv-x="1802" 
d="M1755 -373q44 0 105 15v-91q-66 -14 -115 -14q-138 0 -229 62.5t-91 169.5q0 136 191 231h-6l-287 573h-850q-63 -128 -160 -327.5t-120 -245.5h-152l784 1597h152l784 -1597h-14q-211 -89 -211 -213q0 -72 62.5 -116t156.5 -44zM530 694h736q-265 539 -361 754h-6
q-34 -71 -166 -339.5t-203 -414.5z" />
    <glyph glyph-name="aogonek" unicode="&#x105;" horiz-adv-x="1404" 
d="M1235 -371q43 0 104 15v-93q-63 -14 -116 -14q-135 0 -225.5 63t-90.5 167q0 139 197 233q-37 107 -37 244h-6q-69 -127 -199 -203t-315 -76q-118 0 -212.5 31t-154 98t-59.5 162q0 63 27 114.5t71.5 87.5t111 64.5t134.5 46.5t153 33q32 5 84.5 13t82 13t72.5 13.5
t67 17t52.5 22t43.5 30t25 39.5t10 51q0 101 -103 177.5t-262 76.5q-142 0 -244 -65.5t-141 -176.5l-135 41q37 103 123.5 174t189 102t215.5 31q72 0 141 -12.5t134.5 -42t115 -71.5t79.5 -106.5t30 -142.5v-434q0 -130 10 -204t33 -148h-14q-209 -93 -209 -213
q0 -72 62.5 -115t154.5 -43zM1055 455v159q-59 -38 -120.5 -56.5t-209.5 -41.5q-200 -33 -290 -69q-169 -67 -169 -187q0 -88 80.5 -140t212.5 -52q110 0 206.5 38.5t158 97t96.5 125t35 126.5z" />
    <glyph glyph-name="Cacute" unicode="&#x106;" horiz-adv-x="2068" 
d="M1481 2042l-410 -322h-125l318 322h217zM1100 -35q-279 0 -499.5 105t-343 294t-122.5 429q0 184 75 342t203.5 265.5t304 168.5t372.5 61q133 0 260 -28.5t240.5 -83.5t202.5 -145.5t134 -205.5l-127 -49q-90 185 -282 287t-428 102q-160 0 -304 -49t-254.5 -139
t-175.5 -227t-65 -301q0 -138 46 -255t125 -198.5t185 -138.5t225 -84t246 -27q154 0 284 39.5t222 109t155 155.5t97 188l129 -43q-36 -97 -91 -181.5t-135.5 -157t-179 -124t-226.5 -80.5t-273 -29z" />
    <glyph glyph-name="cacute" unicode="&#x107;" horiz-adv-x="1492" 
d="M1178 1671l-373 -393h-121l299 393h195zM788 -35q-295 0 -481 166t-186 432t186.5 432t483.5 166q122 0 228 -30t200.5 -103t146.5 -184l-133 -45q-52 118 -171.5 184t-279.5 66q-232 0 -374 -137.5t-142 -348.5q0 -217 147.5 -351t381.5 -134q187 0 315.5 82t194.5 219
l122 -37q-78 -182 -248.5 -279.5t-390.5 -97.5z" />
    <glyph glyph-name="Cdotaccent" unicode="&#x10a;" horiz-adv-x="2068" 
d="M1038 1788q-52 0 -88.5 32t-36.5 78q0 43 36.5 75t88.5 32q51 0 87 -32t36 -75q0 -46 -36 -78t-87 -32zM1100 -35q-279 0 -499.5 105t-343 294t-122.5 429q0 184 75 342t203.5 265.5t304 168.5t372.5 61q133 0 260 -28.5t240.5 -83.5t202.5 -145.5t134 -205.5l-127 -49
q-90 185 -282 287t-428 102q-160 0 -304 -49t-254.5 -139t-175.5 -227t-65 -301q0 -138 46 -255t125 -198.5t185 -138.5t225 -84t246 -27q154 0 284 39.5t222 109t155 155.5t97 188l129 -43q-36 -97 -91 -181.5t-135.5 -157t-179 -124t-226.5 -80.5t-273 -29z" />
    <glyph glyph-name="cdotaccent" unicode="&#x10b;" horiz-adv-x="1492" 
d="M754 1425q-53 0 -89 32.5t-36 78.5q0 43 36 74.5t89 31.5q51 0 87 -31.5t36 -74.5q0 -46 -36 -78.5t-87 -32.5zM788 -35q-295 0 -481 166t-186 432t186.5 432t483.5 166q122 0 228 -30t200.5 -103t146.5 -184l-133 -45q-52 118 -171.5 184t-279.5 66q-232 0 -374 -137.5
t-142 -348.5q0 -217 147.5 -351t381.5 -134q187 0 315.5 82t194.5 219l122 -37q-78 -182 -248.5 -279.5t-390.5 -97.5z" />
    <glyph glyph-name="Ccaron" unicode="&#x10c;" horiz-adv-x="2068" 
d="M1321 2023h127l-315 -303h-189l-317 303h127q164 -123 284 -225q103 87 283 225zM1100 -35q-279 0 -499.5 105t-343 294t-122.5 429q0 184 75 342t203.5 265.5t304 168.5t372.5 61q133 0 260 -28.5t240.5 -83.5t202.5 -145.5t134 -205.5l-127 -49q-90 185 -282 287
t-428 102q-160 0 -304 -49t-254.5 -139t-175.5 -227t-65 -301q0 -138 46 -255t125 -198.5t185 -138.5t225 -84t246 -27q154 0 284 39.5t222 109t155 155.5t97 188l129 -43q-36 -97 -91 -181.5t-135.5 -157t-179 -124t-226.5 -80.5t-273 -29z" />
    <glyph glyph-name="ccaron" unicode="&#x10d;" horiz-adv-x="1492" 
d="M846 1280h-193l-356 358h129q214 -172 324 -270q193 167 323 270h129zM788 -35q-295 0 -481 166t-186 432t186.5 432t483.5 166q122 0 228 -30t200.5 -103t146.5 -184l-133 -45q-52 118 -171.5 184t-279.5 66q-232 0 -374 -137.5t-142 -348.5q0 -217 147.5 -351
t381.5 -134q187 0 315.5 82t194.5 219l122 -37q-78 -182 -248.5 -279.5t-390.5 -97.5z" />
    <glyph glyph-name="Dcaron" unicode="&#x10e;" horiz-adv-x="1980" 
d="M1200 2023h127l-315 -303h-189l-317 303h127q172 -128 285 -225q112 95 282 225zM954 0h-686v1597h664q187 0 339.5 -40.5t257 -112t176 -171.5t104 -216t32.5 -248q0 -178 -61 -327t-173 -256t-280 -166.5t-373 -59.5zM412 119h561q333 0 525 183t192 495
q0 321 -205.5 501.5t-583.5 180.5h-489v-1360z" />
    <glyph glyph-name="dcaron" unicode="&#x10f;" horiz-adv-x="1646" 
d="M1673 1188h-92l148 250q-40 12 -62 39.5t-22 62.5q0 43 35.5 74t86.5 31t87 -31t36 -74q0 -36 -37.5 -95t-179.5 -257zM750 -35q-178 0 -322 76t-226.5 213t-82.5 309q0 174 84.5 311.5t229 212t321.5 74.5q165 0 302.5 -68.5t219.5 -197.5h6v743h135v-1286
q0 -129 10 -204t33 -148h-135q-37 115 -37 236h-6q-81 -130 -221.5 -200.5t-310.5 -70.5zM764 78q141 0 259.5 60.5t189.5 173t71 253.5t-71 252.5t-189.5 171.5t-259.5 60q-216 0 -358 -138t-142 -348t143.5 -347.5t356.5 -137.5z" />
    <glyph glyph-name="Dcroat" unicode="&#x110;" horiz-adv-x="1980" 
d="M268 1597h664q187 0 339.5 -40.5t257 -112t176 -171.5t104 -216t32.5 -248q0 -178 -61 -327t-173 -256t-280 -166.5t-373 -59.5h-686v743h-200v109h200v745zM973 119q333 0 525 183t192 495q0 321 -205.5 501.5t-583.5 180.5h-489v-627h678v-109h-678v-624h561z" />
    <glyph glyph-name="dcroat" unicode="&#x111;" horiz-adv-x="1646" 
d="M1739 1440v-105h-322v-983q0 -129 10 -204t33 -148h-135q-37 115 -37 236h-6q-81 -130 -221.5 -200.5t-310.5 -70.5q-178 0 -322 76t-226.5 213t-82.5 309q0 174 84.5 311.5t229 212t321.5 74.5q165 0 302.5 -68.5t219.5 -197.5h6v440h-350v105h350v198h135v-198h322z
M764 78q141 0 259.5 60.5t189.5 173t71 253.5t-71 252.5t-189.5 171.5t-259.5 60q-216 0 -358 -138t-142 -348t143.5 -347.5t356.5 -137.5z" />
    <glyph glyph-name="Emacron" unicode="&#x112;" horiz-adv-x="1619" 
d="M1221 1835h-791v107h791v-107zM1489 0h-1221v1597h1196v-118h-1052v-596h1003v-121h-1003v-637h1077v-125z" />
    <glyph glyph-name="emacron" unicode="&#x113;" horiz-adv-x="1525" 
d="M1180 1421h-826v105h826v-105zM782 -35q-189 0 -339.5 74.5t-236 211t-85.5 310.5q0 263 185.5 431.5t473.5 168.5q55 0 110.5 -7t117 -24.5t116 -45t105 -72t87 -101t58 -136.5t21.5 -175v-57h-1131q3 -210 148.5 -338.5t373.5 -128.5q182 0 311.5 83.5t194.5 215.5
l123 -39q-79 -176 -247.5 -273.5t-385.5 -97.5zM270 651h977q-1 86 -29.5 156t-75 115t-108.5 75.5t-126.5 43t-131.5 12.5q-203 0 -339 -110.5t-167 -291.5z" />
    <glyph glyph-name="Edotaccent" unicode="&#x116;" horiz-adv-x="1619" 
d="M825 1788q-52 0 -88.5 32t-36.5 78q0 43 36.5 75t88.5 32q51 0 87 -32t36 -75q0 -46 -36 -78t-87 -32zM1489 0h-1221v1597h1196v-118h-1052v-596h1003v-121h-1003v-637h1077v-125z" />
    <glyph glyph-name="edotaccent" unicode="&#x117;" horiz-adv-x="1525" 
d="M770 1425q-53 0 -89 32.5t-36 78.5q0 43 36 74.5t89 31.5q51 0 87 -31.5t36 -74.5q0 -46 -36 -78.5t-87 -32.5zM782 -35q-189 0 -339.5 74.5t-236 211t-85.5 310.5q0 263 185.5 431.5t473.5 168.5q55 0 110.5 -7t117 -24.5t116 -45t105 -72t87 -101t58 -136.5t21.5 -175
v-57h-1131q3 -210 148.5 -338.5t373.5 -128.5q182 0 311.5 83.5t194.5 215.5l123 -39q-79 -176 -247.5 -273.5t-385.5 -97.5zM270 651h977q-1 86 -29.5 156t-75 115t-108.5 75.5t-126.5 43t-131.5 12.5q-203 0 -339 -110.5t-167 -291.5z" />
    <glyph glyph-name="Eogonek" unicode="&#x118;" horiz-adv-x="1619" 
d="M1497 -373q44 0 105 15v-91q-66 -14 -115 -14q-138 0 -229 62.5t-91 169.5q0 136 191 231h-1090v1597h1196v-118h-1052v-596h1003v-121h-1003v-637h1077v-125q-211 -89 -211 -213q0 -72 62.5 -116t156.5 -44z" />
    <glyph glyph-name="eogonek" unicode="&#x119;" horiz-adv-x="1525" 
d="M1014 -2q-203 -93 -203 -211q0 -72 62.5 -115t154.5 -43q44 0 105 15v-93q-63 -14 -117 -14q-135 0 -225.5 63t-90.5 167q0 115 136 200q-16 -2 -54 -2q-189 0 -339.5 74.5t-236 211t-85.5 310.5q0 263 185.5 431.5t473.5 168.5q55 0 110.5 -7t117 -24.5t116 -45t105 -72
t87 -101t58 -136.5t21.5 -175v-57h-1131q3 -210 148.5 -338.5t373.5 -128.5q182 0 311.5 83.5t194.5 215.5l123 -39q-56 -126 -160 -212.5t-241 -125.5zM776 1053q-203 0 -339 -110.5t-167 -291.5h977q-1 86 -29.5 156t-75 115t-108.5 75.5t-126.5 43t-131.5 12.5z" />
    <glyph glyph-name="Ecaron" unicode="&#x11a;" horiz-adv-x="1619" 
d="M1108 2023h127l-315 -303h-189l-317 303h127q164 -123 284 -225q103 87 283 225zM1489 0h-1221v1597h1196v-118h-1052v-596h1003v-121h-1003v-637h1077v-125z" />
    <glyph glyph-name="ecaron" unicode="&#x11b;" horiz-adv-x="1525" 
d="M864 1280h-192l-357 358h129q214 -172 324 -270q181 156 324 270h129zM782 -35q-189 0 -339.5 74.5t-236 211t-85.5 310.5q0 263 185.5 431.5t473.5 168.5q55 0 110.5 -7t117 -24.5t116 -45t105 -72t87 -101t58 -136.5t21.5 -175v-57h-1131q3 -210 148.5 -338.5
t373.5 -128.5q182 0 311.5 83.5t194.5 215.5l123 -39q-79 -176 -247.5 -273.5t-385.5 -97.5zM270 651h977q-1 86 -29.5 156t-75 115t-108.5 75.5t-126.5 43t-131.5 12.5q-203 0 -339 -110.5t-167 -291.5z" />
    <glyph glyph-name="Gbreve" unicode="&#x11e;" horiz-adv-x="2162" 
d="M1038 1726q-101 0 -186.5 29t-140 76t-86 103t-35.5 114h125q8 -85 101 -151t222 -66t222.5 66t99.5 151h125q-2 -56 -33.5 -112.5t-86 -103.5t-140.5 -76.5t-187 -29.5zM1087 -35q-205 0 -382 61.5t-302.5 170t-196.5 262t-71 332.5q0 184 74.5 342t203 266.5t304 169.5
t373.5 61q133 0 261 -28.5t241.5 -84t201.5 -146t133 -204.5l-127 -49q-90 185 -282 287t-426 102q-161 0 -305 -49t-255 -138.5t-176 -226.5t-65 -302q0 -138 46 -255t124 -198.5t183 -138.5t222.5 -84t241.5 -27q156 0 290 44t228.5 120.5t152 182t66.5 227.5h-690v114
h836v-776h-121q-1 61 -2 186t-2 187h-13q-97 -194 -293 -301t-473 -107z" />
    <glyph glyph-name="gbreve" unicode="&#x11f;" horiz-adv-x="1644" 
d="M791 1276q-204 0 -321.5 111t-125.5 284h127q5 -130 93.5 -210.5t228.5 -80.5q138 0 226.5 78.5t94.5 212.5h127q-8 -173 -126.5 -284t-323.5 -111zM799 -483q-465 0 -606 331l124 37q110 -260 484 -260q76 0 141.5 13.5t129.5 49t108.5 90t72 143t27.5 202.5v147h-6
q-80 -131 -219 -200.5t-307 -69.5q-178 0 -323 77t-226.5 210.5t-81.5 296.5q0 125 49.5 233t134 183t201.5 118t248 43q167 0 308 -70t222 -202h4v239h131v-985q0 -136 -30 -242.5t-83.5 -178t-131.5 -118t-169.5 -67t-201.5 -20.5zM762 113q140 0 259.5 61.5t190 171
t70.5 242.5q0 132 -71 238.5t-189.5 164.5t-259.5 58q-215 0 -357.5 -133.5t-142.5 -329.5q0 -200 144 -336.5t356 -136.5z" />
    <glyph glyph-name="Gdotaccent" unicode="&#x120;" horiz-adv-x="2162" 
d="M1038 1788q-52 0 -88.5 32t-36.5 78q0 43 36.5 75t88.5 32q51 0 87 -32t36 -75q0 -46 -36 -78t-87 -32zM1087 -35q-205 0 -382 61.5t-302.5 170t-196.5 262t-71 332.5q0 184 74.5 342t203 266.5t304 169.5t373.5 61q133 0 261 -28.5t241.5 -84t201.5 -146t133 -204.5
l-127 -49q-90 185 -282 287t-426 102q-161 0 -305 -49t-255 -138.5t-176 -226.5t-65 -302q0 -138 46 -255t124 -198.5t183 -138.5t222.5 -84t241.5 -27q156 0 290 44t228.5 120.5t152 182t66.5 227.5h-690v114h836v-776h-121q-1 61 -2 186t-2 187h-13q-97 -194 -293 -301
t-473 -107z" />
    <glyph glyph-name="gdotaccent" unicode="&#x121;" horiz-adv-x="1644" 
d="M795 1425q-53 0 -89 32.5t-36 78.5q0 43 36 74.5t89 31.5q51 0 87 -31.5t36 -74.5q0 -46 -36 -78.5t-87 -32.5zM799 -483q-465 0 -606 331l124 37q110 -260 484 -260q76 0 141.5 13.5t129.5 49t108.5 90t72 143t27.5 202.5v147h-6q-80 -131 -219 -200.5t-307 -69.5
q-178 0 -323 77t-226.5 210.5t-81.5 296.5q0 125 49.5 233t134 183t201.5 118t248 43q167 0 308 -70t222 -202h4v239h131v-985q0 -136 -30 -242.5t-83.5 -178t-131.5 -118t-169.5 -67t-201.5 -20.5zM762 113q140 0 259.5 61.5t190 171t70.5 242.5q0 132 -71 238.5
t-189.5 164.5t-259.5 58q-215 0 -357.5 -133.5t-142.5 -329.5q0 -200 144 -336.5t356 -136.5z" />
    <glyph glyph-name="uni0122" unicode="&#x122;" horiz-adv-x="2162" 
d="M1087 -35q-205 0 -382 61.5t-302.5 170t-196.5 262t-71 332.5q0 184 74.5 342t203 266.5t304 169.5t373.5 61q133 0 261 -28.5t241.5 -84t201.5 -146t133 -204.5l-127 -49q-90 185 -282 287t-426 102q-161 0 -305 -49t-255 -138.5t-176 -226.5t-65 -302q0 -138 46 -255
t124 -198.5t183 -138.5t222.5 -84t241.5 -27q156 0 290 44t228.5 120.5t152 182t66.5 227.5h-690v114h836v-776h-121q-1 61 -2 186t-2 187h-13q-97 -194 -293 -301t-473 -107zM1012 -508h-70l113 191q-53 10 -78 36t-25 62q0 43 34.5 72.5t84.5 29.5t84.5 -29.5t34.5 -72.5
q0 -37 -32.5 -87.5t-145.5 -201.5z" />
    <glyph glyph-name="uni0123" unicode="&#x123;" horiz-adv-x="1644" 
d="M641 1354q0 39 34 93t177 251h92l-143 -246q38 -10 59 -36t21 -62q0 -43 -35 -73t-86 -30q-49 0 -84 30t-35 73zM799 -483q-465 0 -606 331l124 37q110 -260 484 -260q76 0 141.5 13.5t129.5 49t108.5 90t72 143t27.5 202.5v147h-6q-80 -131 -219 -200.5t-307 -69.5
q-178 0 -323 77t-226.5 210.5t-81.5 296.5q0 125 49.5 233t134 183t201.5 118t248 43q167 0 308 -70t222 -202h4v239h131v-985q0 -136 -30 -242.5t-83.5 -178t-131.5 -118t-169.5 -67t-201.5 -20.5zM762 113q140 0 259.5 61.5t190 171t70.5 242.5q0 132 -71 238.5
t-189.5 164.5t-259.5 58q-215 0 -357.5 -133.5t-142.5 -329.5q0 -200 144 -336.5t356 -136.5z" />
    <glyph glyph-name="Hbar" unicode="&#x126;" horiz-adv-x="1984" 
d="M1718 1280h164v-104h-164v-1176h-145v745h-1161v-745h-144v1176h-166v104h166v317h144v-317h1161v317h145v-317zM412 866h1161v310h-1161v-310z" />
    <glyph glyph-name="hbar" unicode="&#x127;" horiz-adv-x="1552" 
d="M848 1161q75 0 143.5 -13.5t135 -47t114.5 -84t77.5 -130t29.5 -179.5v-707h-136v653q0 106 -33 185.5t-90 124t-124 65.5t-144 21q-108 0 -197 -36.5t-145 -96.5t-86.5 -133t-30.5 -148v-635h-135v1333h-223v105h223v200h135v-200h449v-105h-449v-426h7
q76 129 199 191.5t280 62.5z" />
    <glyph glyph-name="Imacron" unicode="&#x12a;" horiz-adv-x="679" 
d="M737 1835h-790v107h790v-107zM412 0h-144v1597h144v-1597z" />
    <glyph glyph-name="imacron" unicode="&#x12b;" horiz-adv-x="589" 
d="M707 1419h-826v105h826v-105zM362 0h-135v1128h135v-1128z" />
    <glyph glyph-name="Iogonek" unicode="&#x12e;" horiz-adv-x="679" 
d="M422 -373q43 0 104 15v-91q-66 -14 -114 -14q-138 0 -229 62.5t-91 169.5q0 136 191 231h-15v1597h144v-1597h2q-211 -89 -211 -213q0 -72 62.5 -116t156.5 -44z" />
    <glyph glyph-name="iogonek" unicode="&#x12f;" horiz-adv-x="589" 
d="M297 1423q-53 0 -89 32.5t-36 78.5q0 43 36 74.5t89 31.5q51 0 87 -31.5t36 -74.5q0 -46 -36 -78.5t-87 -32.5zM367 -371q43 0 104 15v-93q-63 -14 -117 -14q-134 0 -224.5 63t-90.5 167q0 139 197 233h-9v1128h135v-1128h-4q-208 -92 -208 -213q0 -72 62.5 -115
t154.5 -43z" />
    <glyph glyph-name="Idotaccent" unicode="&#x130;" horiz-adv-x="679" 
d="M342 1788q-52 0 -88.5 32t-36.5 78q0 43 36.5 75t88.5 32q51 0 87 -32t36 -75q0 -46 -36 -78t-87 -32zM412 0h-144v1597h144v-1597z" />
    <glyph glyph-name="dotlessi" unicode="&#x131;" horiz-adv-x="589" 
d="M362 0h-135v1128h135v-1128z" />
    <glyph glyph-name="uni0136" unicode="&#x136;" horiz-adv-x="1619" 
d="M412 0h-144v1597h144v-874h6q324 299 985 874h174q-128 -113 -391.5 -347t-397.5 -353q376 -407 836 -897h-176q-91 95 -232 243.5t-534 555.5q-132 -120 -270 -240v-559zM811 -508h-70l113 191q-102 19 -102 98q0 43 34.5 72.5t83.5 29.5q50 0 84.5 -29.5t34.5 -72.5
q0 -37 -32.5 -87.5t-145.5 -201.5z" />
    <glyph glyph-name="uni0137" unicode="&#x137;" horiz-adv-x="1261" 
d="M1186 1128l-512 -442l604 -686h-156l-544 602l-216 -184v-418h-135v1638h135v-1065h7l649 555h168zM674 -117q50 0 84.5 -29.5t34.5 -72.5q0 -37 -32 -86.5t-147 -202.5h-69l112 191q-102 19 -102 98q0 43 34.5 72.5t84.5 29.5z" />
    <glyph glyph-name="Lacute" unicode="&#x139;" horiz-adv-x="1454" 
d="M623 2042h217l-410 -322h-125zM412 1597v-1472h1005v-125h-1149v1597h144z" />
    <glyph glyph-name="lacute" unicode="&#x13a;" horiz-adv-x="589" 
d="M784 2083l-409 -322h-125l317 322h217zM362 0h-135v1638h135v-1638z" />
    <glyph glyph-name="uni013B" unicode="&#x13b;" horiz-adv-x="1454" 
d="M412 1597v-1472h1005v-125h-1149v1597h144zM778 -117q50 0 84.5 -29.5t34.5 -72.5q0 -37 -32.5 -87.5t-145.5 -201.5h-70l113 191q-53 10 -78 36t-25 62q0 43 34.5 72.5t84.5 29.5z" />
    <glyph glyph-name="uni013C" unicode="&#x13c;" horiz-adv-x="589" 
d="M362 0h-135v1638h135v-1638zM242 -508h-70l113 191q-53 10 -78 36t-25 62q0 43 34.5 72.5t84.5 29.5t84.5 -29.5t34.5 -72.5q0 -37 -32.5 -87.5t-145.5 -201.5z" />
    <glyph glyph-name="Lcaron" unicode="&#x13d;" horiz-adv-x="1454" 
d="M934 1178h-92l145 252q-39 10 -60.5 37.5t-21.5 62.5q0 44 36 74t87 30t87 -30t36 -74q0 -36 -37.5 -95t-179.5 -257zM412 1597v-1472h1005v-125h-1149v1597h144z" />
    <glyph glyph-name="lcaron" unicode="&#x13e;" horiz-adv-x="589" 
d="M362 0h-135v1638h135v-1638zM672 1178h-92l147 252q-40 10 -62 37.5t-22 62.5q0 44 36 74t89 30q50 0 85.5 -30t35.5 -74q0 -36 -37.5 -95t-179.5 -257z" />
    <glyph glyph-name="Lslash" unicode="&#x141;" horiz-adv-x="1454" 
d="M412 838v-713h1005v-125h-1149v782l-209 -82v113l209 82v702h144v-645l381 150v-115z" />
    <glyph glyph-name="lslash" unicode="&#x142;" horiz-adv-x="589" 
d="M362 1020l242 147v-110l-242 -148v-909h-135v827l-243 -147v111l243 147v700h135v-618z" />
    <glyph glyph-name="Nacute" unicode="&#x143;" horiz-adv-x="2029" 
d="M1434 2042l-410 -322h-125l318 322h217zM412 0h-144v1597h158q85 -100 274 -319.5t312 -363.5t293.5 -345t308.5 -366h6v1394h143v-1597h-159q-97 112 -526 607t-662 771h-4v-1378z" />
    <glyph glyph-name="nacute" unicode="&#x144;" horiz-adv-x="1552" 
d="M1198 1671l-373 -393h-120l299 393h194zM362 0h-135v1128h131v-221h4q79 130 205 192t283 62q76 0 144.5 -13.5t134 -47t113.5 -84t77 -130t29 -179.5v-707h-136v653q0 106 -33 185.5t-90 124t-124 65.5t-144 21q-108 0 -197 -36.5t-145 -96t-86.5 -132.5t-30.5 -149
v-635z" />
    <glyph glyph-name="uni0145" unicode="&#x145;" horiz-adv-x="2029" 
d="M412 0h-144v1597h158q85 -100 274 -319.5t312 -363.5t293.5 -345t308.5 -366h6v1394h143v-1597h-159q-97 112 -526 607t-662 771h-4v-1378zM987 -508h-69l112 191q-102 19 -102 98q0 43 34.5 72.5t84.5 29.5q49 0 83.5 -29.5t34.5 -72.5q0 -37 -32.5 -87.5t-145.5 -201.5
z" />
    <glyph glyph-name="uni0146" unicode="&#x146;" horiz-adv-x="1552" 
d="M362 0h-135v1128h131v-221h4q79 130 205 192t283 62q76 0 144.5 -13.5t134 -47t113.5 -84t77 -130t29 -179.5v-707h-136v653q0 106 -33 185.5t-90 124t-124 65.5t-144 21q-108 0 -197 -36.5t-145 -96t-86.5 -132.5t-30.5 -149v-635zM750 -508h-70l113 191q-53 10 -78 36
t-25 62q0 43 34.5 72.5t84.5 29.5t84.5 -29.5t34.5 -72.5q0 -37 -32.5 -87.5t-145.5 -201.5z" />
    <glyph glyph-name="Ncaron" unicode="&#x147;" horiz-adv-x="2029" 
d="M1274 2023h127l-316 -303h-188l-317 303h127q164 -123 284 -225q103 87 283 225zM412 0h-144v1597h158q85 -100 274 -319.5t312 -363.5t293.5 -345t308.5 -366h6v1394h143v-1597h-159q-97 112 -526 607t-662 771h-4v-1378z" />
    <glyph glyph-name="ncaron" unicode="&#x148;" horiz-adv-x="1552" 
d="M868 1280h-192l-357 358h130q202 -163 323 -270q181 156 324 270h129zM362 0h-135v1128h131v-221h4q79 130 205 192t283 62q76 0 144.5 -13.5t134 -47t113.5 -84t77 -130t29 -179.5v-707h-136v653q0 106 -33 185.5t-90 124t-124 65.5t-144 21q-108 0 -197 -36.5t-145 -96
t-86.5 -132.5t-30.5 -149v-635z" />
    <glyph glyph-name="Eng" unicode="&#x14a;" horiz-adv-x="2029" 
d="M1296 -483q-159 0 -270 57v123q110 -66 244 -66q162 0 254 96.5t92 258.5q-124 144 -373 431t-453.5 524t-377.5 441v-1382h-144v1597h158q85 -100 274 -319.5t312 -363.5t293.5 -345t308.5 -366h6v1394h143v-1536q0 -83 -11 -154.5t-42.5 -146t-81.5 -126t-135 -84.5
t-197 -33z" />
    <glyph glyph-name="eng" unicode="&#x14b;" horiz-adv-x="1552" 
d="M977 -483q-149 0 -254 57v117q115 -64 231 -64q42 0 77 9t60 22t44.5 36t32 43t21.5 51.5t13.5 53.5t6.5 56.5t2.5 52t0.5 49.5v653q0 106 -33 185.5t-90 124t-124 65.5t-144 21q-108 0 -197 -36.5t-145 -96t-86.5 -132.5t-30.5 -149v-635h-135v1128h131v-221h4
q79 130 205 192t283 62q75 0 143.5 -13.5t134.5 -46t113.5 -82t77 -127t29.5 -175.5v-731q0 -50 -1 -79.5t-8 -85t-20 -91t-40.5 -80t-65.5 -70.5t-98.5 -44.5t-137.5 -18.5z" />
    <glyph glyph-name="Omacron" unicode="&#x14c;" horiz-adv-x="2189" 
d="M1489 1835h-791v107h791v-107zM1094 -35q-194 0 -370 63t-306.5 172t-207.5 265t-77 332t76.5 331.5t206 265t307 173t373.5 63.5q199 0 377.5 -65t306 -176t202 -265.5t74.5 -326.5q0 -173 -75.5 -328t-204.5 -265t-306.5 -174.5t-375.5 -64.5zM1098 88q159 0 305 53.5
t255 146t173.5 225.5t64.5 284t-65 284t-173.5 226t-254.5 146.5t-305 53.5q-161 0 -308.5 -53.5t-258 -146t-176.5 -225.5t-66 -285q0 -151 66 -284t176.5 -225.5t258 -146t308.5 -53.5z" />
    <glyph glyph-name="omacron" unicode="&#x14d;" horiz-adv-x="1587" 
d="M1206 1421h-825v105h825v-105zM795 -35q-147 0 -272.5 44t-213.5 122.5t-138 190t-50 241.5t50 241.5t138 190t213.5 122.5t272.5 44q194 0 347 -75.5t238.5 -212t85.5 -310.5t-85.5 -310.5t-238.5 -212t-347 -75.5zM795 78q234 0 380 134.5t146 350.5q0 214 -146 350
t-380 136q-233 0 -381 -136t-148 -350q0 -215 147.5 -350t381.5 -135z" />
    <glyph glyph-name="Ohungarumlaut" unicode="&#x150;" horiz-adv-x="2189" 
d="M1266 2042l-330 -322h-125l256 322h199zM1626 2042l-350 -322h-127l276 322h201zM1094 -35q-194 0 -370 63t-306.5 172t-207.5 265t-77 332t76.5 331.5t206 265t307 173t373.5 63.5q199 0 377.5 -65t306 -176t202 -265.5t74.5 -326.5q0 -173 -75.5 -328t-204.5 -265
t-306.5 -174.5t-375.5 -64.5zM1098 88q159 0 305 53.5t255 146t173.5 225.5t64.5 284t-65 284t-173.5 226t-254.5 146.5t-305 53.5q-161 0 -308.5 -53.5t-258 -146t-176.5 -225.5t-66 -285q0 -151 66 -284t176.5 -225.5t258 -146t308.5 -53.5z" />
    <glyph glyph-name="ohungarumlaut" unicode="&#x151;" horiz-adv-x="1587" 
d="M967 1673l-330 -395h-119l254 395h195zM1333 1673l-352 -395h-121l277 395h196zM795 -35q-147 0 -272.5 44t-213.5 122.5t-138 190t-50 241.5t50 241.5t138 190t213.5 122.5t272.5 44q194 0 347 -75.5t238.5 -212t85.5 -310.5t-85.5 -310.5t-238.5 -212t-347 -75.5z
M795 78q234 0 380 134.5t146 350.5q0 214 -146 350t-380 136q-233 0 -381 -136t-148 -350q0 -215 147.5 -350t381.5 -135z" />
    <glyph glyph-name="OE" unicode="&#x152;" horiz-adv-x="3258" 
d="M1094 -35q-194 0 -370.5 63t-306 172t-206 264.5t-76.5 332.5q0 176 76 331.5t205.5 265t306.5 173t373 63.5q261 0 475.5 -105.5t339.5 -287.5v360h1192v-118h-1053v-596h1004v-121h-1004v-637h1077v-125h-1216v356q-125 -181 -341 -286t-476 -105zM1098 88
q158 0 304.5 53.5t255.5 146t174.5 225.5t65.5 284t-65.5 284.5t-174.5 226t-255.5 146t-304.5 53.5q-161 0 -308.5 -53.5t-258 -146t-176.5 -225.5t-66 -285q0 -151 66 -284t176.5 -225.5t258 -146t308.5 -53.5z" />
    <glyph glyph-name="oe" unicode="&#x153;" horiz-adv-x="2727" 
d="M795 -35q-147 0 -272.5 44t-213.5 122.5t-138 190t-50 241.5t50 241.5t138 190t213.5 122.5t272.5 44q205 0 363 -83.5t235 -227.5q79 144 235.5 227.5t356.5 83.5q79 0 156.5 -14t162 -52.5t147.5 -99t104.5 -162.5t41.5 -233v-45h-1133q1 -141 69.5 -250.5t188 -169
t269.5 -59.5q180 0 309 83.5t194 215.5l123 -39q-78 -179 -248.5 -275t-386.5 -96q-202 0 -357 82.5t-232 226.5q-77 -144 -235.5 -226.5t-362.5 -82.5zM1473 653h976q-1 105 -43.5 185.5t-111.5 126t-149 68t-167 22.5q-203 0 -339 -111t-166 -291zM795 78q234 0 380 134.5
t146 350.5q0 214 -146 350t-380 136q-233 0 -381 -136t-148 -350q0 -215 147.5 -350t381.5 -135z" />
    <glyph glyph-name="Racute" unicode="&#x154;" horiz-adv-x="1699" 
d="M1235 2042l-410 -322h-125l318 322h217zM412 0h-144v1597h662q283 0 452.5 -127t169.5 -344q0 -203 -139 -331.5t-366 -145.5v-2q97 -122 276.5 -344.5t243.5 -302.5h-160l-522 643h-473v-643zM412 760h512q226 0 351.5 94t125.5 264q0 167 -136.5 264t-363.5 97h-489
v-719z" />
    <glyph glyph-name="racute" unicode="&#x155;" horiz-adv-x="999" 
d="M985 1671l-373 -393h-120l299 393h194zM362 0h-135v1128h131v-237h11q51 122 173 196t273 74q91 0 158 -22v-133q-70 28 -168 28q-82 0 -154 -27t-124.5 -73t-90 -106.5t-56 -128.5t-18.5 -138v-561z" />
    <glyph glyph-name="uni0156" unicode="&#x156;" horiz-adv-x="1699" 
d="M412 0h-144v1597h662q283 0 452.5 -127t169.5 -344q0 -203 -139 -331.5t-366 -145.5v-2q97 -122 276.5 -344.5t243.5 -302.5h-160l-522 643h-473v-643zM412 760h512q226 0 351.5 94t125.5 264q0 167 -136.5 264t-363.5 97h-489v-719zM813 -508h-70l113 191
q-102 19 -102 98q0 43 34.5 72.5t83.5 29.5q50 0 84.5 -29.5t34.5 -72.5q0 -37 -32.5 -87.5t-145.5 -201.5z" />
    <glyph glyph-name="uni0157" unicode="&#x157;" horiz-adv-x="999" 
d="M362 0h-135v1128h131v-237h11q51 122 173 196t273 74q91 0 158 -22v-133q-70 28 -168 28q-82 0 -154 -27t-124.5 -73t-90 -106.5t-56 -128.5t-18.5 -138v-561zM231 -508h-69l112 191q-102 19 -102 98q0 43 34.5 72.5t84.5 29.5t84.5 -29.5t34.5 -72.5q0 -37 -32 -86.5
t-147 -202.5z" />
    <glyph glyph-name="Rcaron" unicode="&#x158;" horiz-adv-x="1699" 
d="M1075 2023h127l-315 -303h-189l-317 303h127q172 -128 285 -225q112 95 282 225zM412 0h-144v1597h662q283 0 452.5 -127t169.5 -344q0 -203 -139 -331.5t-366 -145.5v-2q97 -122 276.5 -344.5t243.5 -302.5h-160l-522 643h-473v-643zM412 760h512q226 0 351.5 94
t125.5 264q0 167 -136.5 264t-363.5 97h-489v-719z" />
    <glyph glyph-name="rcaron" unicode="&#x159;" horiz-adv-x="999" 
d="M653 1280h-192l-357 358h129q214 -172 324 -270q181 156 324 270h129zM362 0h-135v1128h131v-237h11q51 122 173 196t273 74q91 0 158 -22v-133q-70 28 -168 28q-82 0 -154 -27t-124.5 -73t-90 -106.5t-56 -128.5t-18.5 -138v-561z" />
    <glyph glyph-name="Sacute" unicode="&#x15a;" horiz-adv-x="1581" 
d="M1153 2040l-410 -320h-125l318 320h217zM815 -35q-85 0 -167 14.5t-167 49t-156 86.5t-130.5 133.5t-92.5 183.5l134 45q60 -187 217.5 -289t363.5 -102q88 0 171 19t155 56t116 101.5t44 147.5q0 58 -25.5 104.5t-53 73t-93 53.5t-96 36t-112.5 29q-28 7 -42 11l-181 47
q-40 10 -66 17.5t-72 22.5t-78.5 29t-76.5 36.5t-74.5 45t-63 54.5t-52 67t-32.5 79t-13 93q0 103 53.5 185.5t142 133t196 77t222.5 26.5q222 0 392.5 -99.5t234.5 -283.5l-129 -49q-55 142 -191 226.5t-325 84.5q-123 0 -224.5 -35t-163 -101.5t-61.5 -153.5
q0 -45 18 -85.5t43.5 -69.5t68 -56.5t75 -43.5t82.5 -33t72 -23.5t61 -16.5l185 -49q183 -49 243 -72q219 -82 273 -226q20 -53 20 -116q0 -104 -53.5 -192t-143 -146.5t-206 -91.5t-242.5 -33z" />
    <glyph glyph-name="sacute" unicode="&#x15b;" horiz-adv-x="1210" 
d="M1028 1671l-373 -393h-120l299 393h194zM639 -35q-194 0 -345.5 87t-207.5 229l127 38q52 -109 172.5 -178t255.5 -69q49 0 101.5 11t105.5 34t87 67t34 103q0 39 -19 71t-44.5 52t-71.5 37.5t-78 26t-86 20.5l-129 30l-58 14.5t-68 21t-76.5 31t-69.5 42t-62.5 56
t-40 71.5t-16.5 90q0 77 40 138.5t105 98t140 55.5t151 19q167 0 297.5 -78t177.5 -196l-133 -41q-38 88 -133 148.5t-226 60.5q-122 0 -201 -52.5t-79 -140.5q0 -36 14 -67t41.5 -53.5t56.5 -40t70.5 -32t71.5 -22.5t71 -18l134 -33q35 -9 46.5 -11.5t49.5 -13.5
t55.5 -18.5t51.5 -22.5t52 -29t42 -35.5t36.5 -44t21.5 -52.5t9 -64q0 -143 -134 -241.5t-339 -98.5z" />
    <glyph glyph-name="Scedilla" unicode="&#x15e;" horiz-adv-x="1581" 
d="M1460 428q0 -101 -50.5 -187t-135 -144.5t-195.5 -93t-233 -38.5l-109 -127q47 19 107 19q96 0 157.5 -45t61.5 -117q0 -82 -75 -133t-189 -51q-85 0 -164.5 30t-132.5 80l61 53q40 -41 102.5 -65.5t127.5 -24.5q70 0 119 30.5t49 76.5q0 44 -43.5 72t-110.5 28
q-64 0 -117 -24l-61 49l119 151q-101 7 -195 35.5t-183.5 81.5t-160 142t-107.5 206l134 45q60 -187 217.5 -289t363.5 -102q88 0 171 19t155 56t116 101.5t44 147.5q0 58 -25.5 104.5t-53 73t-93 53.5t-96 36t-112.5 29q-28 7 -42 11l-181 47q-40 10 -66 17.5t-72 22.5
t-78.5 29t-76.5 36.5t-74.5 45t-63 54.5t-52 67t-32.5 79t-13 93q0 103 53.5 185.5t142 133t196 77t222.5 26.5q222 0 392.5 -99.5t234.5 -283.5l-129 -49q-55 142 -191 226.5t-325 84.5q-123 0 -224.5 -35t-163 -101.5t-61.5 -153.5q0 -45 18 -85.5t43.5 -69.5t68 -56.5
t75 -43.5t82.5 -33t72 -23.5t61 -16.5l185 -49q183 -49 243 -72q219 -82 273 -226q20 -53 20 -116z" />
    <glyph glyph-name="scedilla" unicode="&#x15f;" horiz-adv-x="1210" 
d="M1112 305q0 -138 -125.5 -235.5t-320.5 -104.5l-109 -127q47 19 107 19q96 0 157.5 -45t61.5 -117q0 -82 -75.5 -133t-189.5 -51q-85 0 -164 30t-132 80l61 53q40 -41 102 -65.5t127 -24.5q70 0 119 30.5t49 76.5q0 44 -43.5 72t-109.5 28q-64 0 -117 -24l-61 49l118 153
q-170 15 -300 99.5t-181 212.5l127 38q52 -109 172.5 -178t255.5 -69q49 0 101.5 11t105.5 34t87 67t34 103q0 39 -19 71t-44.5 52t-71.5 37.5t-78 26t-86 20.5l-129 30l-58 14.5t-68 21t-76.5 31t-69.5 42t-62.5 56t-40 71.5t-16.5 90q0 77 40 138.5t105 98t140 55.5
t151 19q167 0 297.5 -78t177.5 -196l-133 -41q-38 88 -133 148.5t-226 60.5q-122 0 -201 -52.5t-79 -140.5q0 -36 14 -67t41.5 -53.5t56.5 -40t70.5 -32t71.5 -22.5t71 -18l134 -33q35 -9 46.5 -11.5t49.5 -13.5t55.5 -18.5t51.5 -22.5t52 -29t42 -35.5t36.5 -44t21.5 -52.5
t9 -64z" />
    <glyph glyph-name="Scaron" unicode="&#x160;" horiz-adv-x="1581" 
d="M1063 2023h127l-316 -303h-188l-317 303h127q164 -123 284 -225q103 87 283 225zM815 -35q-85 0 -167 14.5t-167 49t-156 86.5t-130.5 133.5t-92.5 183.5l134 45q60 -187 217.5 -289t363.5 -102q88 0 171 19t155 56t116 101.5t44 147.5q0 58 -25.5 104.5t-53 73t-93 53.5
t-96 36t-112.5 29q-28 7 -42 11l-181 47q-40 10 -66 17.5t-72 22.5t-78.5 29t-76.5 36.5t-74.5 45t-63 54.5t-52 67t-32.5 79t-13 93q0 103 53.5 185.5t142 133t196 77t222.5 26.5q222 0 392.5 -99.5t234.5 -283.5l-129 -49q-55 142 -191 226.5t-325 84.5q-123 0 -224.5 -35
t-163 -101.5t-61.5 -153.5q0 -45 18 -85.5t43.5 -69.5t68 -56.5t75 -43.5t82.5 -33t72 -23.5t61 -16.5l185 -49q183 -49 243 -72q219 -82 273 -226q20 -53 20 -116q0 -104 -53.5 -192t-143 -146.5t-206 -91.5t-242.5 -33z" />
    <glyph glyph-name="scaron" unicode="&#x161;" horiz-adv-x="1210" 
d="M698 1280h-192l-356 358h129q202 -163 323 -270q181 156 324 270h129zM639 -35q-194 0 -345.5 87t-207.5 229l127 38q52 -109 172.5 -178t255.5 -69q49 0 101.5 11t105.5 34t87 67t34 103q0 39 -19 71t-44.5 52t-71.5 37.5t-78 26t-86 20.5l-129 30l-58 14.5t-68 21
t-76.5 31t-69.5 42t-62.5 56t-40 71.5t-16.5 90q0 77 40 138.5t105 98t140 55.5t151 19q167 0 297.5 -78t177.5 -196l-133 -41q-38 88 -133 148.5t-226 60.5q-122 0 -201 -52.5t-79 -140.5q0 -36 14 -67t41.5 -53.5t56.5 -40t70.5 -32t71.5 -22.5t71 -18l134 -33
q35 -9 46.5 -11.5t49.5 -13.5t55.5 -18.5t51.5 -22.5t52 -29t42 -35.5t36.5 -44t21.5 -52.5t9 -64q0 -143 -134 -241.5t-339 -98.5z" />
    <glyph glyph-name="uni0162" unicode="&#x162;" horiz-adv-x="1556" 
d="M850 0h-23l-137 -162q48 19 107 19q96 0 157.5 -45t61.5 -117q0 -82 -75 -133t-189 -51q-85 0 -164.5 30t-132.5 80l61 53q40 -41 102 -65.5t127 -24.5q70 0 119 30.5t49 76.5q0 44 -43.5 72t-109.5 28q-64 0 -117 -24l-61 49l143 184h-18v1479h-668v118h1481v-118h-670
v-1479z" />
    <glyph glyph-name="uni0163" unicode="&#x163;" horiz-adv-x="913" 
d="M858 1128v-108h-424v-651q0 -38 0.5 -58t4 -56t10.5 -56.5t21.5 -47t34.5 -40.5t51.5 -24.5t72.5 -10.5q112 0 229 65v-118q-104 -58 -250 -58q-33 0 -49 2l-108 -129q47 19 106 19q96 0 157.5 -45t61.5 -117q0 -82 -75 -133t-189 -51q-85 0 -164.5 30t-132.5 80l61 53
q40 -41 102.5 -65.5t127.5 -24.5q70 0 119 30.5t49 76.5q0 44 -43.5 72t-110.5 28q-64 0 -117 -24l-61 49l131 170q-36 12 -64.5 33t-46.5 42.5t-30.5 53.5t-19 55.5t-9.5 59.5t-3.5 54.5t-0.5 51.5v684h-270v108h270v338h135v-338h424z" />
    <glyph glyph-name="Tcaron" unicode="&#x164;" horiz-adv-x="1556" 
d="M1061 2023h127l-316 -303h-188l-317 303h127q164 -123 284 -225q103 87 283 225zM850 0h-143v1479h-668v118h1481v-118h-670v-1479z" />
    <glyph glyph-name="tcaron" unicode="&#x165;" horiz-adv-x="913" 
d="M909 1180h-92l146 252q-39 10 -60.5 37.5t-21.5 62.5q0 44 36 75t87 31t86.5 -30.5t35.5 -73.5q0 -37 -37.5 -96.5t-179.5 -257.5zM608 -35q-88 0 -150.5 28t-92.5 63t-46 95t-18 94t-2 91v684h-270v108h270v338h135v-338h424v-108h-424v-651q0 -38 0.5 -58t4 -56
t10.5 -56.5t21.5 -47t34.5 -40.5t51.5 -24.5t72.5 -10.5q112 0 229 65v-118q-104 -58 -250 -58z" />
    <glyph glyph-name="Tbar" unicode="&#x166;" horiz-adv-x="1556" 
d="M1520 1597v-118h-670v-627h440v-109h-440v-743h-143v743h-439v109h439v627h-668v118h1481z" />
    <glyph glyph-name="tbar" unicode="&#x167;" horiz-adv-x="913" 
d="M858 1128v-108h-424v-332h404v-104h-404v-215q0 -38 0.5 -58t4 -56t10.5 -56.5t21.5 -47t34.5 -40.5t51.5 -24.5t72.5 -10.5q112 0 229 65v-118q-104 -58 -250 -58q-88 0 -150.5 28t-92.5 63t-46 95t-18 94t-2 91v248h-268v104h268v332h-270v108h270v338h135v-338h424z
" />
    <glyph glyph-name="Umacron" unicode="&#x16a;" horiz-adv-x="1851" 
d="M1319 1835h-791v107h791v-107zM920 -35q-316 0 -496 156t-180 454v1022h145v-1015q0 -254 142 -376t393 -122q123 0 220 28.5t169 87.5t110.5 155.5t38.5 226.5v1015h146v-1022q0 -134 -42.5 -244.5t-126 -193t-216 -127.5t-303.5 -45z" />
    <glyph glyph-name="umacron" unicode="&#x16b;" horiz-adv-x="1529" 
d="M1151 1421h-825v105h825v-105zM692 -35q-60 0 -116 10t-111.5 31t-101 57.5t-81 85.5t-55.5 118.5t-20 152.5v708h135v-657q0 -87 23 -156t60 -112.5t88 -72.5t103.5 -40.5t110.5 -11.5q102 0 187.5 37t139 97t82.5 131.5t29 143.5v641h135v-776q0 -120 10.5 -195
t35.5 -157h-140q-35 118 -35 215h-4q-77 -127 -200 -188.5t-275 -61.5z" />
    <glyph glyph-name="Uring" unicode="&#x16e;" horiz-adv-x="1851" 
d="M926 1716q-116 0 -192.5 61t-76.5 156q0 93 76.5 154t192.5 61q111 0 186.5 -61t75.5 -154q0 -94 -75.5 -155.5t-186.5 -61.5zM926 1806q68 0 113.5 34.5t45.5 92.5q0 57 -45.5 91t-113.5 34q-72 0 -119 -34t-47 -91q0 -59 47 -93t119 -34zM920 -35q-316 0 -496 156
t-180 454v1022h145v-1015q0 -254 142 -376t393 -122q123 0 220 28.5t169 87.5t110.5 155.5t38.5 226.5v1015h146v-1022q0 -134 -42.5 -244.5t-126 -193t-216 -127.5t-303.5 -45z" />
    <glyph glyph-name="uring" unicode="&#x16f;" horiz-adv-x="1529" 
d="M739 1247q-116 0 -192 61t-76 156q0 93 76 154t192 61q111 0 186.5 -61t75.5 -154q0 -94 -75.5 -155.5t-186.5 -61.5zM739 1337q68 0 114 34.5t46 92.5q0 57 -46 91t-114 34q-72 0 -119 -34t-47 -91q0 -59 47 -93t119 -34zM692 -35q-60 0 -116 10t-111.5 31t-101 57.5
t-81 85.5t-55.5 118.5t-20 152.5v708h135v-657q0 -87 23 -156t60 -112.5t88 -72.5t103.5 -40.5t110.5 -11.5q102 0 187.5 37t139 97t82.5 131.5t29 143.5v641h135v-776q0 -120 10.5 -195t35.5 -157h-140q-35 118 -35 215h-4q-77 -127 -200 -188.5t-275 -61.5z" />
    <glyph glyph-name="Uhungarumlaut" unicode="&#x170;" horiz-adv-x="1851" 
d="M1096 2042l-330 -322h-125l256 322h199zM1456 2042l-350 -322h-127l276 322h201zM920 -35q-316 0 -496 156t-180 454v1022h145v-1015q0 -254 142 -376t393 -122q123 0 220 28.5t169 87.5t110.5 155.5t38.5 226.5v1015h146v-1022q0 -134 -42.5 -244.5t-126 -193
t-216 -127.5t-303.5 -45z" />
    <glyph glyph-name="uhungarumlaut" unicode="&#x171;" horiz-adv-x="1529" 
d="M911 1673l-329 -395h-119l254 395h194zM1278 1673l-352 -395h-121l276 395h197zM692 -35q-60 0 -116 10t-111.5 31t-101 57.5t-81 85.5t-55.5 118.5t-20 152.5v708h135v-657q0 -87 23 -156t60 -112.5t88 -72.5t103.5 -40.5t110.5 -11.5q102 0 187.5 37t139 97t82.5 131.5
t29 143.5v641h135v-776q0 -120 10.5 -195t35.5 -157h-140q-35 118 -35 215h-4q-77 -127 -200 -188.5t-275 -61.5z" />
    <glyph glyph-name="Uogonek" unicode="&#x172;" horiz-adv-x="1851" 
d="M1462 582v1015h146v-1022q0 -123 -35.5 -226t-105 -182.5t-179.5 -130.5t-252 -65q-149 -82 -149 -184q0 -72 62.5 -116t156.5 -44q43 0 104 15v-91q-66 -14 -114 -14q-138 0 -229 62.5t-91 169.5q0 114 129 196q-309 3 -485 159t-176 451v1022h145v-1015
q0 -254 142 -376t393 -122q123 0 220 28.5t169 87.5t110.5 155.5t38.5 226.5z" />
    <glyph glyph-name="uogonek" unicode="&#x173;" horiz-adv-x="1529" 
d="M1339 -371q44 0 105 15v-93q-63 -14 -117 -14q-134 0 -224.5 63t-90.5 167q0 139 196 233h-2q-35 118 -35 215h-4q-77 -127 -200 -188.5t-275 -61.5q-60 0 -116 10t-111.5 31t-101 57.5t-81 85.5t-55.5 118.5t-20 152.5v708h135v-657q0 -87 23 -156t60 -112.5t88 -72.5
t103.5 -40.5t110.5 -11.5q102 0 187.5 37t139 97t82.5 131.5t29 143.5v641h135v-776q0 -120 10.5 -195t35.5 -157h-15q-209 -93 -209 -213q0 -72 62.5 -115t154.5 -43z" />
    <glyph glyph-name="Wcircumflex" unicode="&#x174;" horiz-adv-x="2785" 
d="M1485 2023l319 -303h-127q-176 135 -284 224q-77 -65 -285 -224h-127l317 303h187zM850 0h-172l-629 1597h152q355 -867 565 -1427h4q64 171 252 664t289 763h162q91 -238 274 -713t274 -714h7q345 909 557 1427h151l-629 -1597h-172q-241 597 -540 1413h-4
q-320 -870 -541 -1413z" />
    <glyph glyph-name="wcircumflex" unicode="&#x175;" horiz-adv-x="2222" 
d="M782 1278h-129l357 356h192l357 -356h-129q-199 161 -324 272q-179 -157 -324 -272zM686 0h-137l-500 1128h148l424 -960h6l413 960h142l428 -960h6l409 960h148l-498 -1128h-139q-27 60 -95 214t-106.5 241t-100.5 234t-120 290h-6q-164 -404 -422 -979z" />
    <glyph glyph-name="Ycircumflex" unicode="&#x176;" horiz-adv-x="1687" 
d="M936 2023l319 -303h-127q-176 135 -284 224q-77 -65 -285 -224h-127l318 303h186zM915 0h-143v590l-325 455t-396 552h158l633 -884h4q474 659 637 884h153q-121 -168 -360.5 -503.5t-360.5 -503.5v-590z" />
    <glyph glyph-name="ycircumflex" unicode="&#x177;" horiz-adv-x="1318" 
d="M319 1278h-129l357 356h192l357 -356h-129q-199 161 -324 272q-179 -157 -324 -272zM508 -451h-121l209 439l-553 1140h147q95 -191 271 -563.5t198 -417.5h5q39 82 205.5 438.5t258.5 542.5h148z" />
    <glyph glyph-name="Ydieresis" unicode="&#x178;" horiz-adv-x="1687" 
d="M612 1790q-49 0 -82.5 30.5t-33.5 73.5q0 42 33.5 71.5t82.5 29.5t83 -29.5t34 -71.5q0 -43 -34 -73.5t-83 -30.5zM1075 1790q-51 0 -85 30.5t-34 73.5q0 42 34.5 71.5t84.5 29.5q47 0 81 -30t34 -71q0 -43 -34 -73.5t-81 -30.5zM915 0h-143v590l-325 455t-396 552h158
l633 -884h4q474 659 637 884h153q-121 -168 -360.5 -503.5t-360.5 -503.5v-590z" />
    <glyph glyph-name="Zacute" unicode="&#x179;" horiz-adv-x="1611" 
d="M1212 2042l-409 -322h-125l317 322h217zM1536 0h-1462v129q674 720 1265 1346v4h-1216v118h1393v-124q-968 -1025 -1268 -1344v-4h1288v-125z" />
    <glyph glyph-name="zacute" unicode="&#x17a;" horiz-adv-x="1179" 
d="M1016 1671l-373 -393h-121l299 393h195zM1118 0h-1048v92l809 924h-760v112h944v-92l-813 -923h868v-113z" />
    <glyph glyph-name="Zdotaccent" unicode="&#x17b;" horiz-adv-x="1611" 
d="M786 1788q-52 0 -88 32t-36 78q0 43 36 75t88 32q51 0 87 -32t36 -75q0 -46 -36 -78t-87 -32zM1536 0h-1462v129q674 720 1265 1346v4h-1216v118h1393v-124q-968 -1025 -1268 -1344v-4h1288v-125z" />
    <glyph glyph-name="zdotaccent" unicode="&#x17c;" horiz-adv-x="1179" 
d="M594 1425q-53 0 -89 32.5t-36 78.5q0 43 36 74.5t89 31.5q51 0 87 -31.5t36 -74.5q0 -46 -36 -78.5t-87 -32.5zM1118 0h-1048v92l809 924h-760v112h944v-92l-813 -923h868v-113z" />
    <glyph glyph-name="Zcaron" unicode="&#x17d;" horiz-adv-x="1611" 
d="M1051 2023h127l-316 -303h-188l-318 303h127q172 -128 285 -225q103 87 283 225zM1536 0h-1462v129q674 720 1265 1346v4h-1216v118h1393v-124q-968 -1025 -1268 -1344v-4h1288v-125z" />
    <glyph glyph-name="zcaron" unicode="&#x17e;" horiz-adv-x="1179" 
d="M686 1280h-192l-357 358h129q214 -172 324 -270q193 167 323 270h129zM1118 0h-1048v92l809 924h-760v112h944v-92l-813 -923h868v-113z" />
    <glyph glyph-name="uni0218" unicode="&#x218;" horiz-adv-x="1581" 
d="M815 -35q-85 0 -167 14.5t-167 49t-156 86.5t-130.5 133.5t-92.5 183.5l134 45q60 -187 217.5 -289t363.5 -102q88 0 171 19t155 56t116 101.5t44 147.5q0 58 -25.5 104.5t-53 73t-93 53.5t-96 36t-112.5 29q-28 7 -42 11l-181 47q-40 10 -66 17.5t-72 22.5t-78.5 29
t-76.5 36.5t-74.5 45t-63 54.5t-52 67t-32.5 79t-13 93q0 103 53.5 185.5t142 133t196 77t222.5 26.5q222 0 392.5 -99.5t234.5 -283.5l-129 -49q-55 142 -191 226.5t-325 84.5q-123 0 -224.5 -35t-163 -101.5t-61.5 -153.5q0 -45 18 -85.5t43.5 -69.5t68 -56.5t75 -43.5
t82.5 -33t72 -23.5t61 -16.5l185 -49q183 -49 243 -72q219 -82 273 -226q20 -53 20 -116q0 -104 -53.5 -192t-143 -146.5t-206 -91.5t-242.5 -33zM754 -508h-70l113 191q-53 10 -78 36t-25 62q0 43 34.5 72.5t84.5 29.5t84.5 -29.5t34.5 -72.5q0 -37 -32.5 -87.5
t-145.5 -201.5z" />
    <glyph glyph-name="uni0219" unicode="&#x219;" horiz-adv-x="1210" 
d="M639 -35q-194 0 -345.5 87t-207.5 229l127 38q52 -109 172.5 -178t255.5 -69q49 0 101.5 11t105.5 34t87 67t34 103q0 39 -19 71t-44.5 52t-71.5 37.5t-78 26t-86 20.5l-129 30l-58 14.5t-68 21t-76.5 31t-69.5 42t-62.5 56t-40 71.5t-16.5 90q0 77 40 138.5t105 98
t140 55.5t151 19q167 0 297.5 -78t177.5 -196l-133 -41q-38 88 -133 148.5t-226 60.5q-122 0 -201 -52.5t-79 -140.5q0 -36 14 -67t41.5 -53.5t56.5 -40t70.5 -32t71.5 -22.5t71 -18l134 -33q35 -9 46.5 -11.5t49.5 -13.5t55.5 -18.5t51.5 -22.5t52 -29t42 -35.5t36.5 -44
t21.5 -52.5t9 -64q0 -143 -134 -241.5t-339 -98.5zM573 -508h-69l112 191q-102 19 -102 98q0 43 34.5 72.5t84.5 29.5t84.5 -29.5t34.5 -72.5q0 -37 -32 -86.5t-147 -202.5z" />
    <glyph glyph-name="uni021A" unicode="&#x21a;" horiz-adv-x="1556" 
d="M850 0h-143v1479h-668v118h1481v-118h-670v-1479zM709 -508h-70l113 191q-53 10 -78 36t-25 62q0 43 34.5 72.5t84.5 29.5t84.5 -29.5t34.5 -72.5q0 -37 -32.5 -87.5t-145.5 -201.5z" />
    <glyph glyph-name="uni021B" unicode="&#x21b;" horiz-adv-x="913" 
d="M608 -35q-88 0 -150.5 28t-92.5 63t-46 95t-18 94t-2 91v684h-270v108h270v338h135v-338h424v-108h-424v-651q0 -38 0.5 -58t4 -56t10.5 -56.5t21.5 -47t34.5 -40.5t51.5 -24.5t72.5 -10.5q112 0 229 65v-118q-104 -58 -250 -58zM467 -508h-70l113 191q-102 19 -102 98
q0 43 34.5 72.5t83.5 29.5q50 0 84.5 -29.5t34.5 -72.5q0 -37 -32.5 -87.5t-145.5 -201.5z" />
    <glyph glyph-name="gravecomb" unicode="&#x300;" horiz-adv-x="0" 
d="M-127 1278h-121l-373 393h195z" />
    <glyph glyph-name="acutecomb" unicode="&#x301;" horiz-adv-x="0" 
d="M129 1671l-373 -393h-121l299 393h195z" />
    <glyph glyph-name="uni0302" unicode="&#x302;" horiz-adv-x="0" 
d="M-813 1278h-129l356 356h193l356 -356h-129q-187 151 -323 272q-179 -157 -324 -272z" />
    <glyph glyph-name="tildecomb" unicode="&#x303;" horiz-adv-x="0" 
d="M-381 1339q-22 0 -40.5 2t-36 7.5t-29 9t-27.5 13.5t-22.5 14t-24 16.5t-21.5 15.5l-43 31q-36 27 -63 40t-62 13q-57 0 -95 -42t-38 -105h-104q1 108 69.5 175.5t174.5 67.5q52 0 91 -17t85 -50l51 -37q75 -57 139 -57q59 0 92 41t33 106h107q0 -111 -62.5 -177.5
t-173.5 -66.5z" />
    <glyph glyph-name="uni0304" unicode="&#x304;" horiz-adv-x="0" 
d="M-109 1419h-825v105h825v-105z" />
    <glyph glyph-name="uni0306" unicode="&#x306;" horiz-adv-x="0" 
d="M-485 1276q-204 0 -321.5 111t-125.5 284h127q5 -130 93.5 -210.5t228.5 -80.5q138 0 226.5 78.5t94.5 212.5h127q-8 -173 -126.5 -284t-323.5 -111z" />
    <glyph glyph-name="uni0307" unicode="&#x307;" horiz-adv-x="0" 
d="M-295 1423q-53 0 -89 32.5t-36 78.5q0 43 36 74.5t89 31.5q51 0 87 -31.5t36 -74.5q0 -46 -36 -78.5t-87 -32.5z" />
    <glyph glyph-name="uni0308" unicode="&#x308;" horiz-adv-x="0" 
d="M-1018 1376q-49 0 -83 31t-34 74q0 40 34 69t83 29t82 -29t33 -69q0 -43 -33 -74t-82 -31zM-600 1376q-50 0 -83.5 31t-33.5 74q0 40 33.5 69t83.5 29q47 0 81 -29t34 -69q0 -43 -34 -74t-81 -31z" />
    <glyph glyph-name="uni030A" unicode="&#x30a;" horiz-adv-x="0" 
d="M-283 1247q-116 0 -192 61t-76 156q0 93 76 154t192 61q111 0 187 -61t76 -154q0 -94 -76 -155.5t-187 -61.5zM-283 1337q68 0 114 34.5t46 92.5q0 57 -46 91t-114 34q-72 0 -119 -34t-47 -91q0 -59 47 -93t119 -34z" />
    <glyph glyph-name="uni030B" unicode="&#x30b;" horiz-adv-x="0" 
d="M-147 1673l-330 -395h-119l254 395h195zM219 1673l-352 -395h-121l277 395h196z" />
    <glyph glyph-name="uni030C" unicode="&#x30c;" horiz-adv-x="0" 
d="M-393 1278h-193l-356 358h129q214 -172 324 -270q193 167 323 270h129z" />
    <glyph glyph-name="uni0312" unicode="&#x312;" horiz-adv-x="0" 
d="M-514 1329q0 39 34 93t177 251h92l-143 -246q38 -10 59 -36t21 -62q0 -43 -35 -72.5t-86 -29.5q-50 0 -84.5 29.5t-34.5 72.5z" />
    <glyph glyph-name="uni0326" unicode="&#x326;" horiz-adv-x="0" 
d="M-399 -508h-70l113 191q-53 10 -78 36t-25 62q0 43 34.5 72.5t84.5 29.5t84.5 -29.5t34.5 -72.5q0 -37 -32.5 -87.5t-145.5 -201.5z" />
    <glyph glyph-name="uni0327" unicode="&#x327;" horiz-adv-x="0" 
d="M-768 -489q-85 0 -164.5 30t-132.5 80l61 53q40 -41 102.5 -65.5t127.5 -24.5q70 0 119 30.5t49 76.5q0 44 -43.5 72t-110.5 28q-64 0 -117 -24l-61 49l143 184h103l-137 -162q47 19 106 19q96 0 157.5 -45t61.5 -117q0 -82 -75 -133t-189 -51z" />
    <glyph glyph-name="uni0328" unicode="&#x328;" horiz-adv-x="0" 
d="M-770 -483q-135 0 -225 62.5t-90 166.5q0 140 196 234h123q-209 -93 -209 -213q0 -72 62.5 -115t154.5 -43q48 0 105 14v-92q-63 -14 -117 -14z" />
    <glyph glyph-name="uni0335" unicode="&#x335;" horiz-adv-x="0" 
d="M-872 616h806v-104h-806v104z" />
    <glyph glyph-name="uni0337" unicode="&#x337;" horiz-adv-x="0" 
d="M-573 528v111l620 377v-111z" />
    <glyph glyph-name="uni0338" unicode="&#x338;" horiz-adv-x="0" 
d="M-1237 -57h-154l1102 1237h148z" />
    <glyph glyph-name="Wgrave" unicode="&#x1e80;" horiz-adv-x="2785" 
d="M1491 1720h-127l-410 322h217zM850 0h-172l-629 1597h152q355 -867 565 -1427h4q64 171 252 664t289 763h162q91 -238 274 -713t274 -714h7q345 909 557 1427h151l-629 -1597h-172q-241 597 -540 1413h-4q-320 -870 -541 -1413z" />
    <glyph glyph-name="wgrave" unicode="&#x1e81;" horiz-adv-x="2222" 
d="M1174 1278h-121l-373 393h194zM686 0h-137l-500 1128h148l424 -960h6l413 960h142l428 -960h6l409 960h148l-498 -1128h-139q-27 60 -95 214t-106.5 241t-100.5 234t-120 290h-6q-164 -404 -422 -979z" />
    <glyph glyph-name="Wacute" unicode="&#x1e82;" horiz-adv-x="2785" 
d="M1835 2042l-410 -322h-125l318 322h217zM850 0h-172l-629 1597h152q355 -867 565 -1427h4q64 171 252 664t289 763h162q91 -238 274 -713t274 -714h7q345 909 557 1427h151l-629 -1597h-172q-241 597 -540 1413h-4q-320 -870 -541 -1413z" />
    <glyph glyph-name="wacute" unicode="&#x1e83;" horiz-adv-x="2222" 
d="M1534 1671l-373 -393h-121l299 393h195zM686 0h-137l-500 1128h148l424 -960h6l413 960h142l428 -960h6l409 960h148l-498 -1128h-139q-27 60 -95 214t-106.5 241t-100.5 234t-120 290h-6q-164 -404 -422 -979z" />
    <glyph glyph-name="Wdieresis" unicode="&#x1e84;" horiz-adv-x="2785" 
d="M1161 1790q-49 0 -83 30.5t-34 73.5q0 42 34 71.5t83 29.5t83 -29.5t34 -71.5q0 -43 -34 -73.5t-83 -30.5zM1624 1790q-51 0 -85 30.5t-34 73.5q0 42 34.5 71.5t84.5 29.5q47 0 81 -30t34 -71q0 -43 -34 -73.5t-81 -30.5zM850 0h-172l-629 1597h152q355 -867 565 -1427h4
q64 171 252 664t289 763h162q91 -238 274 -713t274 -714h7q345 909 557 1427h151l-629 -1597h-172q-241 597 -540 1413h-4q-320 -870 -541 -1413z" />
    <glyph glyph-name="wdieresis" unicode="&#x1e85;" horiz-adv-x="2222" 
d="M899 1376q-49 0 -83 31t-34 74q0 40 34 69t83 29t82 -29t33 -69q0 -43 -33 -74t-82 -31zM1317 1376q-50 0 -83.5 31t-33.5 74q0 40 33.5 69t83.5 29q47 0 81 -29t34 -69q0 -43 -34 -74t-81 -31zM686 0h-137l-500 1128h148l424 -960h6l413 960h142l428 -960h6l409 960h148
l-498 -1128h-139q-27 60 -95 214t-106.5 241t-100.5 234t-120 290h-6q-164 -404 -422 -979z" />
    <glyph glyph-name="uni1E9E" unicode="&#x1e9e;" horiz-adv-x="1826" 
d="M389 0h-145v944q0 47 1.5 82.5t8.5 93t19.5 101.5t37.5 99.5t59 97t87 83.5t119.5 68.5t158.5 43.5t201 17q306 0 490 -120t184 -330q0 -149 -96 -247.5t-257 -123.5v-2q86 -4 164 -32t138.5 -76.5t96.5 -122t36 -160.5q0 -60 -17 -114.5t-62.5 -111t-116.5 -97.5
t-189.5 -67t-270.5 -26h-205v119h234q131 0 226.5 25t148.5 69.5t77.5 96.5t24.5 114q0 151 -131.5 234t-345.5 83h-129v119h147q30 0 63.5 4t79 14.5t85 32.5t75 53.5t56 82.5t20.5 114q0 167 -141.5 262t-382.5 95q-515 0 -546 -446q-3 -36 -3 -97v-975z" />
    <glyph glyph-name="Ygrave" unicode="&#x1ef2;" horiz-adv-x="1687" 
d="M942 1720h-127l-409 322h217zM915 0h-143v590l-325 455t-396 552h158l633 -884h4q474 659 637 884h153q-121 -168 -360.5 -503.5t-360.5 -503.5v-590z" />
    <glyph glyph-name="ygrave" unicode="&#x1ef3;" horiz-adv-x="1318" 
d="M709 1278h-121l-373 393h195zM508 -451h-121l209 439l-553 1140h147q95 -191 271 -563.5t198 -417.5h5q39 82 205.5 438.5t258.5 542.5h148z" />
    <glyph glyph-name="uni2000" unicode="&#x2000;" horiz-adv-x="1228" 
 />
    <glyph glyph-name="uni2001" unicode="&#x2001;" 
 />
    <glyph glyph-name="uni2002" unicode="&#x2002;" horiz-adv-x="1228" 
 />
    <glyph glyph-name="uni2003" unicode="&#x2003;" 
 />
    <glyph glyph-name="uni2004" unicode="&#x2004;" horiz-adv-x="819" 
 />
    <glyph glyph-name="uni2005" unicode="&#x2005;" horiz-adv-x="614" 
 />
    <glyph glyph-name="uni2006" unicode="&#x2006;" horiz-adv-x="409" 
 />
    <glyph glyph-name="uni2007" unicode="&#x2007;" horiz-adv-x="681" 
 />
    <glyph glyph-name="uni2008" unicode="&#x2008;" horiz-adv-x="563" 
 />
    <glyph glyph-name="uni2009" unicode="&#x2009;" horiz-adv-x="307" 
 />
    <glyph glyph-name="uni200A" unicode="&#x200a;" horiz-adv-x="102" 
 />
    <glyph glyph-name="uni200B" unicode="&#x200b;" horiz-adv-x="0" 
 />
    <glyph glyph-name="endash" unicode="&#x2013;" horiz-adv-x="1214" 
d="M1069 569h-924v109h924v-109z" />
    <glyph glyph-name="emdash" unicode="&#x2014;" horiz-adv-x="1730" 
d="M1585 571h-1440v105h1440v-105z" />
    <glyph glyph-name="quoteleft" unicode="&#x2018;" horiz-adv-x="542" 
d="M342 1630h90l-145 -250q40 -10 62 -37.5t22 -62.5q0 -44 -36.5 -75t-88.5 -31q-50 0 -85.5 30.5t-35.5 73.5q0 38 37.5 97.5t179.5 254.5z" />
    <glyph glyph-name="quoteright" unicode="&#x2019;" horiz-adv-x="552" 
d="M236 1178h-93l148 252q-40 10 -62 37.5t-22 62.5q0 44 36 74t89 30q50 0 85.5 -30t35.5 -74q0 -36 -37.5 -95t-179.5 -257z" />
    <glyph glyph-name="quotesinglbase" unicode="&#x201a;" horiz-adv-x="524" 
d="M178 -256h-92l145 250q-40 10 -62 38t-22 64q0 43 36.5 74t88.5 31q49 0 85 -31t36 -74q0 -36 -36.5 -94.5t-178.5 -257.5z" />
    <glyph glyph-name="quotedblleft" unicode="&#x201c;" horiz-adv-x="905" 
d="M342 1630h90l-145 -250q40 -10 62 -37.5t22 -62.5q0 -44 -36.5 -75t-88.5 -31q-50 0 -85.5 30.5t-35.5 73.5q0 38 37.5 97.5t179.5 254.5zM651 1630h92l-145 -250q39 -10 61.5 -38t22.5 -62q0 -44 -37 -75t-88 -31q-50 0 -85.5 30.5t-35.5 73.5q0 38 38.5 100t176.5 252z
" />
    <glyph glyph-name="quotedblright" unicode="&#x201d;" horiz-adv-x="913" 
d="M236 1178h-93l146 252q-39 10 -60.5 37.5t-21.5 62.5q0 44 36 74t87 30t87 -30t36 -74q0 -36 -37.5 -95t-179.5 -257zM600 1178h-92l143 252q-38 10 -60 37.5t-22 62.5q0 44 36 74t89 30q48 0 83.5 -30t35.5 -74q0 -37 -30 -87t-147 -214q-7 -11 -11.5 -17t-11.5 -16
t-13 -18z" />
    <glyph glyph-name="quotedblbase" unicode="&#x201e;" horiz-adv-x="886" 
d="M178 -252h-92l145 250q-40 10 -62 37.5t-22 62.5q0 44 36.5 75.5t88.5 31.5q49 0 85 -31t36 -74q0 -37 -37 -96t-178 -256zM541 -252h-92l143 250q-38 10 -59 37t-21 63q0 44 36 75.5t87 31.5q49 0 85 -31t36 -74q0 -41 -49 -116q-25 -39 -166 -236z" />
    <glyph glyph-name="dagger" unicode="&#x2020;" horiz-adv-x="1183" 
d="M662 1292h413v-112h-413v-750h-138v750h-415v112h415v346h138v-346z" />
    <glyph glyph-name="daggerdbl" unicode="&#x2021;" horiz-adv-x="1308" 
d="M1137 1292v-112h-412v-301h412v-115h-412v-344h-137v344h-414v115h414v301h-414v112h414v346h137v-346h412z" />
    <glyph glyph-name="bullet" unicode="&#x2022;" horiz-adv-x="921" 
d="M463 428q-92 0 -156.5 56.5t-64.5 138.5q0 77 64.5 131.5t156.5 54.5q88 0 149.5 -54.5t61.5 -131.5q0 -82 -61.5 -138.5t-149.5 -56.5z" />
    <glyph glyph-name="ellipsis" unicode="&#x2026;" horiz-adv-x="1570" 
d="M283 -14q-51 0 -87 32t-36 78q0 43 36 74t87 31q50 0 84 -31t34 -74q0 -46 -33.5 -78t-84.5 -32zM709 -14q-52 0 -87.5 32t-35.5 78q0 43 35.5 74t87.5 31q49 0 83.5 -31t34.5 -74q0 -46 -34.5 -78t-83.5 -32zM1292 -14q-52 0 -88.5 32t-36.5 78q0 43 36.5 74t88.5 31
q49 0 84 -31t35 -74q0 -46 -35 -78t-84 -32z" />
    <glyph glyph-name="uni202F" unicode="&#x202f;" horiz-adv-x="491" 
 />
    <glyph glyph-name="perthousand" unicode="&#x2030;" horiz-adv-x="2801" 
d="M414 797q-141 0 -228.5 101t-87.5 261t88 262.5t228 102.5q139 0 227 -103t88 -262t-88 -260.5t-227 -101.5zM383 0h-131l1366 1468h123zM414 889q88 0 141 72.5t53 197.5q0 124 -53 197.5t-141 73.5t-142.5 -73.5t-54.5 -197.5q0 -125 54 -197.5t143 -72.5zM1561 -29
q-141 0 -228.5 101.5t-87.5 261.5t88 262t228 102q139 0 227 -102.5t88 -261.5t-88 -261t-227 -102zM2388 -29q-140 0 -227.5 101.5t-87.5 261.5q0 161 87.5 262.5t227.5 101.5q139 0 227 -102.5t88 -261.5t-88 -261t-227 -102zM1561 63q88 0 141 73t53 198q0 124 -53 197
t-141 73t-142.5 -73.5t-54.5 -196.5q0 -125 54 -198t143 -73zM2388 63q88 0 141.5 73t53.5 198q0 124 -53.5 197t-141.5 73t-142.5 -73.5t-54.5 -196.5q0 -125 54 -198t143 -73z" />
    <glyph glyph-name="guilsinglleft" unicode="&#x2039;" horiz-adv-x="882" 
d="M715 164h-164l-416 405v9l416 405h164l-416 -405v-9z" />
    <glyph glyph-name="guilsinglright" unicode="&#x203a;" horiz-adv-x="882" 
d="M332 164h-164l416 405v9l-416 405h164l416 -405v-9z" />
    <glyph glyph-name="fraction" unicode="&#x2044;" horiz-adv-x="319" 
d="M-444 0h-131l1366 1468h122z" />
    <glyph glyph-name="uni205F" unicode="&#x205f;" horiz-adv-x="544" 
 />
    <glyph glyph-name="uni2070" unicode="&#x2070;" horiz-adv-x="827" 
d="M414 797q-141 0 -228.5 101t-87.5 261t88 262.5t228 102.5q139 0 227 -103t88 -262t-88 -260.5t-227 -101.5zM414 889q88 0 141 72.5t53 197.5q0 124 -53 197.5t-141 73.5t-142.5 -73.5t-54.5 -197.5q0 -125 54 -197.5t143 -72.5z" />
    <glyph glyph-name="uni2074" unicode="&#x2074;" horiz-adv-x="776" 
d="M582 811h-111v160h-414v86l416 452h109v-452h114v-86h-114v-160zM471 1376l-301 -319h301v319z" />
    <glyph glyph-name="uni2075" unicode="&#x2075;" horiz-adv-x="763" 
d="M371 797q-109 0 -192.5 42.5t-112.5 116.5l98 45q24 -55 82 -86.5t127 -31.5q79 0 131.5 42.5t52.5 108.5q0 67 -51 108.5t-127 41.5q-56 0 -102 -23t-72 -59l-90 24l96 383h418v-86h-340l-58 -227q26 29 78 46.5t105 17.5q105 0 184.5 -60t79.5 -162q0 -106 -89 -173.5
t-218 -67.5z" />
    <glyph glyph-name="uni2076" unicode="&#x2076;" horiz-adv-x="798" 
d="M410 797q-141 0 -226.5 86t-85.5 239q0 175 109 288.5t276 113.5q126 0 201 -62l-59 -67q-61 41 -148 41q-112 0 -188 -74.5t-80 -206.5h2q26 50 89 79.5t134 29.5q111 0 194 -64.5t83 -163.5q0 -102 -86.5 -170.5t-214.5 -68.5zM414 883q76 0 131 44t55 111
q0 66 -54.5 110t-129.5 44q-81 0 -134 -46t-53 -112q0 -63 55 -107t130 -44z" />
    <glyph glyph-name="uni2077" unicode="&#x2077;" horiz-adv-x="667" 
d="M299 811h-117q0 138 90.5 320.5t231.5 298.5h-457v88h584v-93q-147 -109 -239.5 -288.5t-92.5 -325.5z" />
    <glyph glyph-name="uni2078" unicode="&#x2078;" horiz-adv-x="782" 
d="M391 797q-130 0 -213.5 58t-83.5 144q0 66 46 114.5t112 62.5v4q-60 22 -92.5 61t-32.5 90q0 82 76 137.5t188 55.5t188 -53.5t76 -137.5q0 -48 -30.5 -89.5t-94.5 -63.5v-4q70 -15 114 -62t44 -110q0 -89 -83 -148t-214 -59zM393 1214q67 0 112.5 33.5t45.5 85.5
q0 49 -45.5 81t-112.5 32q-69 0 -114.5 -32.5t-45.5 -80.5q0 -51 45.5 -85t114.5 -34zM393 885q77 0 128.5 36t51.5 95t-48 94t-132 35q-85 0 -133.5 -35t-48.5 -94q0 -58 52 -94.5t130 -36.5z" />
    <glyph glyph-name="uni2079" unicode="&#x2079;" horiz-adv-x="806" 
d="M362 797q-72 0 -142.5 24.5t-121.5 75.5l68 66q76 -80 194 -80q114 0 174 80t60 202q-24 -56 -87 -87t-138 -31q-112 0 -193.5 65.5t-81.5 165.5q0 106 86 176t219 70q63 0 116.5 -18t97.5 -55.5t69 -102.5t25 -152q0 -81 -21 -151.5t-62.5 -126.5t-108.5 -88.5
t-153 -32.5zM387 1118q79 0 135 49.5t56 118.5t-55 112.5t-130 43.5q-81 0 -135.5 -45.5t-54.5 -116.5q0 -69 53 -115.5t131 -46.5z" />
    <glyph glyph-name="uni2080" unicode="&#x2080;" horiz-adv-x="827" 
d="M414 -285q-141 0 -228.5 101.5t-87.5 261.5t88 262t228 102q139 0 227 -102.5t88 -261.5t-88 -261t-227 -102zM414 -193q88 0 141 73t53 198q0 124 -53 197t-141 73t-142.5 -73.5t-54.5 -196.5q0 -125 54 -198t143 -73z" />
    <glyph glyph-name="uni2081" unicode="&#x2081;" horiz-adv-x="522" 
d="M354 -270h-110v520q-66 -66 -185 -84v102q84 17 136.5 61.5t52.5 98.5h106v-698z" />
    <glyph glyph-name="uni2082" unicode="&#x2082;" horiz-adv-x="753" 
d="M655 -270h-553v10q3 42 11.5 75t27 61.5t36 48.5t53.5 45.5t64 42.5t83 48q34 20 55 34.5t48.5 38t41 50t13.5 54.5q0 48 -44 80t-112 32q-84 0 -136.5 -46t-52.5 -122l-102 17q0 107 81.5 175t207.5 68q118 0 195 -57.5t77 -148.5q0 -69 -43 -118.5t-117 -92.5
q-20 -12 -61.5 -34.5t-63 -36t-49.5 -34.5t-44.5 -44.5t-24.5 -51.5h409v-94z" />
    <glyph glyph-name="uni2083" unicode="&#x2083;" horiz-adv-x="765" 
d="M375 -285q-107 0 -189 44t-110 116l98 43q24 -54 76.5 -85.5t124.5 -31.5q75 0 124.5 35t49.5 92q0 56 -50.5 88.5t-140.5 32.5h-82v76h91q74 0 118.5 32t44.5 83q0 52 -46.5 83t-116.5 31q-67 0 -114.5 -33t-57.5 -90l-101 21q13 84 93 137t190 53q111 0 188.5 -51
t77.5 -133q0 -54 -36.5 -101t-100.5 -61q71 -12 116.5 -57t45.5 -111q0 -87 -80 -150t-213 -63z" />
    <glyph glyph-name="uni2084" unicode="&#x2084;" horiz-adv-x="776" 
d="M582 -270h-111v159h-414v86l416 453h109v-453h114v-86h-114v-159zM471 295l-301 -320h301v320z" />
    <glyph glyph-name="uni2085" unicode="&#x2085;" horiz-adv-x="763" 
d="M371 -285q-109 0 -192.5 43t-112.5 117l98 45q24 -55 82.5 -87t126.5 -32q78 0 131 43t53 109t-51 107.5t-127 41.5q-56 0 -102 -23t-72 -59l-90 25l96 383h418v-86h-340l-58 -227q25 28 77.5 45.5t105.5 17.5q106 0 185 -59.5t79 -161.5q0 -107 -89 -174.5t-218 -67.5z
" />
    <glyph glyph-name="uni2086" unicode="&#x2086;" horiz-adv-x="798" 
d="M410 -285q-141 0 -226.5 86.5t-85.5 239.5q0 175 109 288t276 113q127 0 201 -61l-59 -68q-61 41 -148 41q-112 0 -188 -74t-80 -206h2q25 50 88.5 79t134.5 29q112 0 194.5 -64t82.5 -163q0 -102 -86.5 -171t-214.5 -69zM414 -199q76 0 131 44.5t55 111.5
q0 66 -54.5 110t-129.5 44q-81 0 -134 -46t-53 -112q0 -64 55 -108t130 -44z" />
    <glyph glyph-name="uni2087" unicode="&#x2087;" horiz-adv-x="667" 
d="M299 -270h-117q0 138 90.5 320t231.5 298h-457v88h584v-92q-147 -109 -239.5 -288.5t-92.5 -325.5z" />
    <glyph glyph-name="uni2088" unicode="&#x2088;" horiz-adv-x="782" 
d="M391 -285q-130 0 -213.5 58.5t-83.5 144.5q0 66 46 114t112 62v4q-60 22 -92.5 61.5t-32.5 90.5q0 82 76 137t188 55t188 -53t76 -137q0 -48 -31 -90t-94 -64v-4q70 -15 114 -62t44 -110q0 -89 -83 -148t-214 -59zM393 133q67 0 112.5 33.5t45.5 85.5q0 49 -45.5 81
t-112.5 32q-69 0 -114.5 -32.5t-45.5 -80.5q0 -51 45.5 -85t114.5 -34zM393 -197q77 0 128.5 36t51.5 95t-48 94t-132 35q-85 0 -133.5 -35t-48.5 -94q0 -58 52 -94.5t130 -36.5z" />
    <glyph glyph-name="uni2089" unicode="&#x2089;" horiz-adv-x="806" 
d="M362 -285q-71 0 -142 25t-122 76l68 65q76 -80 194 -80q114 0 174 80.5t60 202.5q-24 -56 -87.5 -87.5t-137.5 -31.5q-112 0 -193.5 66t-81.5 166q0 106 86 175.5t219 69.5q63 0 116 -18t97.5 -55t69.5 -102t25 -152q0 -81 -21 -152t-62.5 -127t-108.5 -88.5t-153 -32.5z
M387 37q79 0 135 49.5t56 118.5t-55 112t-130 43q-81 0 -135.5 -45t-54.5 -116q0 -69 53 -115.5t131 -46.5z" />
    <glyph glyph-name="Euro" unicode="&#x20ac;" horiz-adv-x="1941" 
d="M1731 215l96 -92q-220 -158 -557 -158q-344 0 -566 155.5t-290 420.5h-267v102h246q-8 55 -8 127q0 67 8 119h-246v100h263q32 129 100.5 235.5t172 187t248.5 125t320 44.5q337 0 553 -158l-102 -94q-182 133 -453 133q-273 0 -449.5 -127t-236.5 -346h821v-100h-841
q-8 -52 -8 -119q0 -72 8 -127h841v-102h-819q65 -216 248.5 -336.5t452.5 -120.5q276 0 465 131z" />
    <glyph glyph-name="trademark" unicode="&#x2122;" horiz-adv-x="1859" 
d="M473 942h-108v586h-271v88h645v-88h-266v-586zM993 942h-110v674h108q45 -87 136.5 -265.5t136.5 -265.5q45 87 134 265.5t134 265.5h108v-674h-108v461q-31 -59 -84 -163.5t-95.5 -189.5t-47.5 -94h-86l-226 451v-465z" />
    <glyph glyph-name="oneeighth" unicode="&#x215b;" horiz-adv-x="1624" 
d="M354 811h-110v520q-66 -66 -185 -84v103q84 17 136.5 61t52.5 98h106v-698zM78 0h-131l1366 1468h123zM1233 -29q-130 0 -213.5 58.5t-83.5 144.5q0 66 46 114t112 62v4q-60 22 -92.5 61.5t-32.5 90.5q0 82 76 137t188 55t188 -53t76 -137q0 -48 -31 -90t-94 -64v-4
q70 -15 114 -62t44 -110q0 -89 -83 -148t-214 -59zM1235 389q67 0 112.5 33.5t45.5 85.5q0 49 -45.5 81t-112.5 32q-69 0 -114.5 -32.5t-45.5 -80.5q0 -51 45.5 -85t114.5 -34zM1235 59q77 0 128.5 36t51.5 95t-48 94t-132 35q-85 0 -133.5 -35t-48.5 -94q0 -58 52 -94.5
t130 -36.5z" />
    <glyph glyph-name="threeeighths" unicode="&#x215c;" horiz-adv-x="1867" 
d="M375 797q-107 0 -189 43.5t-110 115.5l98 43q24 -54 76.5 -85t124.5 -31q75 0 124.5 35t49.5 92q0 56 -50.5 88t-140.5 32h-82v76h91q74 0 118.5 32t44.5 83q0 52 -46.5 83.5t-116.5 31.5q-67 0 -114.5 -33t-57.5 -90l-101 20q13 84 93 137.5t190 53.5q111 0 188.5 -51.5
t77.5 -133.5q0 -54 -36.5 -100.5t-100.5 -60.5q71 -12 116.5 -57t45.5 -111q0 -87 -80 -150t-213 -63zM322 0h-132l1366 1468h123zM1477 -29q-130 0 -213.5 58.5t-83.5 144.5q0 66 45.5 114t111.5 62v4q-60 22 -92.5 61.5t-32.5 90.5q0 82 76 137t189 55q112 0 188 -53
t76 -137q0 -48 -31 -90t-94 -64v-4q70 -15 114 -62t44 -110q0 -89 -83 -148t-214 -59zM1479 389q67 0 112 33.5t45 85.5q0 49 -45 81t-112 32q-69 0 -114.5 -32.5t-45.5 -80.5q0 -51 45.5 -85t114.5 -34zM1479 59q77 0 128.5 36t51.5 95t-48 94t-132 35q-85 0 -134 -35
t-49 -94q0 -58 52.5 -94.5t130.5 -36.5z" />
    <glyph glyph-name="fiveeighths" unicode="&#x215d;" horiz-adv-x="1865" 
d="M371 797q-109 0 -192.5 42.5t-112.5 116.5l98 45q24 -55 82 -86.5t127 -31.5q79 0 131.5 42.5t52.5 108.5q0 67 -51 108.5t-127 41.5q-56 0 -102 -23t-72 -59l-90 24l96 383h418v-86h-340l-58 -227q26 29 78 46.5t105 17.5q105 0 184.5 -60t79.5 -162q0 -106 -89 -173.5
t-218 -67.5zM319 0h-131l1366 1468h123zM1475 -29q-130 0 -213.5 58.5t-83.5 144.5q0 66 45.5 114t111.5 62v4q-60 22 -92.5 61.5t-32.5 90.5q0 82 76 137t189 55q112 0 188 -53t76 -137q0 -48 -31 -90t-94 -64v-4q70 -15 114 -62t44 -110q0 -89 -83 -148t-214 -59z
M1477 389q67 0 112 33.5t45 85.5q0 49 -45 81t-112 32q-69 0 -114.5 -32.5t-45.5 -80.5q0 -51 45.5 -85t114.5 -34zM1477 59q77 0 128.5 36t51.5 95t-48 94t-132 35q-85 0 -134 -35t-49 -94q0 -58 52.5 -94.5t130.5 -36.5z" />
    <glyph glyph-name="seveneighths" unicode="&#x215e;" horiz-adv-x="1769" 
d="M299 811h-117q0 138 90.5 320.5t231.5 298.5h-457v88h584v-93q-147 -109 -239.5 -288.5t-92.5 -325.5zM223 0h-131l1366 1468h123zM1378 -29q-130 0 -213.5 58.5t-83.5 144.5q0 66 46 114t112 62v4q-60 22 -92.5 61.5t-32.5 90.5q0 82 76 137t188 55t188 -53t76 -137
q0 -49 -30.5 -90.5t-93.5 -63.5v-4q70 -15 113.5 -61.5t43.5 -110.5q0 -89 -83 -148t-214 -59zM1380 389q67 0 112.5 33.5t45.5 85.5q0 49 -45.5 81t-112.5 32q-68 0 -113.5 -32.5t-45.5 -80.5q0 -51 45 -85t114 -34zM1380 59q77 0 129 36t52 95t-48.5 94t-132.5 35
q-85 0 -133.5 -35t-48.5 -94q0 -58 52 -94.5t130 -36.5z" />
    <glyph glyph-name="arrowleft" unicode="&#x2190;" horiz-adv-x="1712" 
d="M356 705h1205v-121h-1203l357 -348h-164l-408 405v8l408 406h164z" />
    <glyph glyph-name="arrowup" unicode="&#x2191;" horiz-adv-x="1185" 
d="M596 1202l487 -340v-143l-421 299v-998h-136v1002l-426 -303v143l488 340h8z" />
    <glyph glyph-name="arrowright" unicode="&#x2192;" horiz-adv-x="1712" 
d="M997 1055h164l408 -406v-8l-408 -405h-164l357 348h-1202v121h1204z" />
    <glyph glyph-name="arrowdown" unicode="&#x2193;" horiz-adv-x="1187" 
d="M664 1202v-997l421 299v-144l-487 -340h-8l-488 340v144l424 -301v999h138z" />
    <glyph glyph-name="arrowboth" unicode="&#x2194;" horiz-adv-x="2142" 
d="M713 231h-166l-408 406v8l408 406h166l-365 -353h1446l-364 353h165l408 -406v-8l-408 -406h-165l362 351h-1442z" />
    <glyph glyph-name="arrowupdn" unicode="&#x2195;" horiz-adv-x="1310" 
d="M659 2h-8l-487 334v141l424 -293v1022l-424 -297v142l487 335h8l488 -335v-142l-424 295v-1020l424 293v-141z" />
    <glyph glyph-name="uni2196" unicode="&#x2196;" horiz-adv-x="1245" 
d="M1067 1036l72 -125l-516 47l497 -864l-116 -67l-500 864l-215 -471l-74 125l252 538l8 4z" />
    <glyph glyph-name="uni2197" unicode="&#x2197;" horiz-adv-x="1245" 
d="M780 1083l252 -538l-71 -125l-218 471l-497 -864l-119 67l500 864l-518 -47l71 125l592 51z" />
    <glyph glyph-name="uni2198" unicode="&#x2198;" horiz-adv-x="1243" 
d="M741 332l217 471l72 -125l-252 -539l-8 -4l-592 51l-72 125l519 -47l-500 862l119 70z" />
    <glyph glyph-name="uni2199" unicode="&#x2199;" horiz-adv-x="1243" 
d="M1120 1126l-497 -862l516 47l-72 -125l-592 -51l-8 4l-252 539l74 125l215 -471l500 864z" />
    <glyph glyph-name="emptyset" unicode="&#x2205;" horiz-adv-x="1699" 
d="M1464 1198l-149 -174q109 -82 169 -201t60 -258q0 -125 -51 -235.5t-141 -191t-221 -127t-283 -46.5q-201 0 -365 82l-151 -176l-94 61l149 174q-110 84 -170.5 202.5t-60.5 256.5q0 169 87 305.5t246.5 215.5t362.5 79q209 0 367 -82l149 174zM295 563
q0 -106 45.5 -198.5t128.5 -159.5l668 780q-128 64 -285 64q-244 0 -400.5 -139.5t-156.5 -346.5zM852 82q243 0 398 138t155 343q0 108 -45.5 202.5t-128.5 160.5l-666 -781q126 -63 287 -63z" />
    <glyph glyph-name="minus" unicode="&#x2212;" horiz-adv-x="1198" 
d="M1024 569h-852v113h852v-113z" />
    <glyph glyph-name="infinity" unicode="&#x221e;" horiz-adv-x="2220" 
d="M588 287q-177 0 -300.5 96t-123.5 242q0 145 124.5 241.5t299.5 96.5q87 0 168.5 -31t155.5 -82t198 -152q124 101 198 152t155.5 82t168.5 31q177 0 300.5 -96t123.5 -242t-123.5 -242t-300.5 -96q-126 0 -234 58t-288 206q-179 -149 -286.5 -206.5t-235.5 -57.5z
M578 393q45 0 87 9.5t74 23t72.5 39t67 45.5t74 56.5t77.5 58.5q-28 21 -78.5 59.5t-75.5 57t-67 45t-73 38.5t-72.5 21.5t-85.5 9.5q-125 0 -201 -62.5t-76 -168.5q0 -109 77.5 -170.5t199.5 -61.5zM1642 393q125 0 201 61t76 171q0 106 -76 168.5t-201 62.5
q-44 0 -86 -9.5t-73.5 -22.5t-73 -39t-67 -45t-74 -56.5t-76.5 -58.5q28 -21 88.5 -68t90 -67t78.5 -47.5t95 -38.5t98 -11z" />
    <glyph glyph-name="approxequal" unicode="&#x2248;" horiz-adv-x="1265" 
d="M322 729h-125q0 120 79.5 184t188.5 64q50 0 93.5 -14.5t74.5 -34.5t59.5 -40.5t62 -35t68.5 -14.5q61 0 91 39t30 100h127q0 -121 -71 -184.5t-179 -63.5q-63 0 -117 22t-86 48.5t-75.5 48.5t-87.5 22q-66 0 -99.5 -40t-33.5 -101zM322 313h-125q0 80 40 138t99.5 84
t128.5 26q50 0 93.5 -14.5t74.5 -35.5t59.5 -41.5t62 -35t68.5 -14.5q61 0 91 39.5t30 99.5h127q0 -121 -71 -184.5t-179 -63.5q-52 0 -96.5 14.5t-75.5 35.5t-60 42t-63 35.5t-71 14.5q-65 0 -99 -40t-34 -100z" />
    <glyph glyph-name="notequal" unicode="&#x2260;" horiz-adv-x="1241" 
d="M1044 887v-113h-288l-133 -303h421v-113h-466l-82 -184h-125l82 184h-263v113h306l135 303h-441v113h488l74 174h125l-74 -174h241z" />
    <glyph glyph-name="lessequal" unicode="&#x2264;" horiz-adv-x="1243" 
d="M1044 354h-849v101h579l-577 180v113l847 182v-111l-677 -139l677 -225v-101z" />
    <glyph glyph-name="greaterequal" unicode="&#x2265;" horiz-adv-x="1243" 
d="M1047 354h-848v101l675 225l-675 139v111l848 -182v-113l-578 -180h578v-101z" />
    <glyph glyph-name="lozenge" unicode="&#x25ca;" horiz-adv-x="1394" 
d="M752 0h-109l-496 694l496 692h109l495 -692zM299 694l393 -549h10l392 549l-392 547h-10z" />
    <glyph glyph-name="A.ss01" horiz-adv-x="1814" 
d="M201 0h-156l739 1597h248l737 -1597h-153q-147 322 -258 573h-895q-67 -149 -262 -573zM510 690h801q-68 147 -190 416t-156 344h-103q-244 -526 -352 -760z" />
    <glyph glyph-name="Aacute.ss01" horiz-adv-x="1814" 
d="M1350 2042l-410 -322h-125l318 322h217zM201 0h-156l739 1597h248l737 -1597h-153q-147 322 -258 573h-895q-67 -149 -262 -573zM510 690h801q-68 147 -190 416t-156 344h-103q-244 -526 -352 -760z" />
    <glyph glyph-name="Abreve.ss01" horiz-adv-x="1814" 
d="M907 1726q-101 0 -186.5 29t-140 76t-86 103t-35.5 114h125q8 -85 101 -151t222 -66t222.5 66t99.5 151h125q-2 -56 -33.5 -112.5t-86 -103.5t-140.5 -76.5t-187 -29.5zM201 0h-156l739 1597h248l737 -1597h-153q-147 322 -258 573h-895q-67 -149 -262 -573zM510 690h801
q-68 147 -190 416t-156 344h-103q-244 -526 -352 -760z" />
    <glyph glyph-name="Acircumflex.ss01" horiz-adv-x="1814" 
d="M997 2023l320 -303h-127q-190 146 -285 224q-87 -73 -284 -224h-127l317 303h186zM201 0h-156l739 1597h248l737 -1597h-153q-147 322 -258 573h-895q-67 -149 -262 -573zM510 690h801q-68 147 -190 416t-156 344h-103q-244 -526 -352 -760z" />
    <glyph glyph-name="Adieresis.ss01" horiz-adv-x="1814" 
d="M676 1790q-49 0 -83 30.5t-34 73.5q0 42 34 71.5t83 29.5t83 -29.5t34 -71.5q0 -43 -34 -73.5t-83 -30.5zM1139 1790q-51 0 -85 30.5t-34 73.5q0 42 34.5 71.5t84.5 29.5q47 0 80.5 -30t33.5 -71q0 -43 -33.5 -73.5t-80.5 -30.5zM201 0h-156l739 1597h248l737 -1597h-153
q-147 322 -258 573h-895q-67 -149 -262 -573zM510 690h801q-68 147 -190 416t-156 344h-103q-244 -526 -352 -760z" />
    <glyph glyph-name="Agrave.ss01" horiz-adv-x="1814" 
d="M1004 1720h-127l-410 322h217zM201 0h-156l739 1597h248l737 -1597h-153q-147 322 -258 573h-895q-67 -149 -262 -573zM510 690h801q-68 147 -190 416t-156 344h-103q-244 -526 -352 -760z" />
    <glyph glyph-name="Amacron.ss01" horiz-adv-x="1814" 
d="M1303 1835h-791v107h791v-107zM201 0h-156l739 1597h248l737 -1597h-153q-147 322 -258 573h-895q-67 -149 -262 -573zM510 690h801q-68 147 -190 416t-156 344h-103q-244 -526 -352 -760z" />
    <glyph glyph-name="Aogonek.ss01" horiz-adv-x="1814" 
d="M1763 -373q44 0 105 15v-91q-66 -14 -115 -14q-138 0 -228.5 62.5t-90.5 169.5q0 137 190 231h-8q-147 322 -258 573h-895q-67 -149 -262 -573h-156l739 1597h248l737 -1597h-14q-211 -89 -211 -213q0 -72 62.5 -116t156.5 -44zM510 690h801q-68 147 -190 416t-156 344
h-103q-244 -526 -352 -760z" />
    <glyph glyph-name="Aring.ss01" horiz-adv-x="1814" 
d="M907 1716q-116 0 -192 61t-76 156q0 93 76 154t192 61q111 0 186.5 -61t75.5 -154q0 -94 -75.5 -155.5t-186.5 -61.5zM907 1806q68 0 114 34.5t46 92.5q0 57 -46 91t-114 34q-72 0 -119 -34t-47 -91q0 -59 47 -93t119 -34zM201 0h-156l739 1597h248l737 -1597h-153
q-147 322 -258 573h-895q-67 -149 -262 -573zM510 690h801q-68 147 -190 416t-156 344h-103q-244 -526 -352 -760z" />
    <glyph glyph-name="Atilde.ss01" horiz-adv-x="1814" 
d="M1092 1749q-22 0 -40.5 2t-36 7.5t-29 9t-27.5 13.5t-22.5 14t-24 16.5t-21.5 15.5l-43 31q-36 27 -63 40t-62 13q-57 0 -95 -42.5t-38 -105.5h-105q1 108 69.5 176t174.5 68q52 0 90.5 -17t85.5 -51l51 -36q77 -58 140 -58q58 0 91.5 41.5t33.5 106.5h106
q0 -111 -62 -177.5t-173 -66.5zM201 0h-156l739 1597h248l737 -1597h-153q-147 322 -258 573h-895q-67 -149 -262 -573zM510 690h801q-68 147 -190 416t-156 344h-103q-244 -526 -352 -760z" />
    <glyph glyph-name="B.ss01" horiz-adv-x="1751" 
d="M1034 0h-766v1597h668q144 0 262.5 -34t194 -92.5t116.5 -133t41 -157.5q0 -123 -89 -226t-261 -139v-4q105 -16 186.5 -54.5t129.5 -91.5t72 -113.5t24 -125.5q0 -181 -162.5 -303.5t-415.5 -122.5zM412 862h514q219 0 346 84.5t127 218.5q0 140 -140 227t-358 87h-489
v-617zM412 119h571q222 0 349.5 85t127.5 220q0 142 -137 231.5t-360 89.5h-551v-626z" />
    <glyph glyph-name="C.ss01" horiz-adv-x="2068" 
d="M1100 -35q-279 0 -499.5 105t-343 294t-122.5 429q0 184 75 342t203.5 265.5t304 168.5t372.5 61q133 0 260 -28.5t240.5 -83.5t202.5 -145.5t134 -205.5l-127 -49q-90 185 -282 287t-428 102q-160 0 -304 -49t-254.5 -139t-175.5 -227t-65 -301q0 -138 46 -255
t125 -198.5t185 -138.5t225 -84t246 -27q154 0 284 39.5t222 109t155 155.5t97 188l129 -43q-36 -97 -91 -181.5t-135.5 -157t-179 -124t-226.5 -80.5t-273 -29z" />
    <glyph glyph-name="D.ss01" horiz-adv-x="1980" 
d="M954 0h-686v1597h664q187 0 339.5 -40.5t257 -112t176 -171.5t104 -216t32.5 -248q0 -178 -61 -327t-173 -256t-280 -166.5t-373 -59.5zM412 119h561q333 0 525 183t192 495q0 321 -205.5 501.5t-583.5 180.5h-489v-1360z" />
    <glyph glyph-name="E.ss01" horiz-adv-x="1619" 
d="M1489 0h-1221v1597h1196v-118h-1052v-596h1003v-121h-1003v-637h1077v-125z" />
    <glyph glyph-name="F.ss01" horiz-adv-x="1527" 
d="M1442 1597v-124h-1030v-605h981v-120h-981v-748h-144v1597h1174z" />
    <glyph glyph-name="G.ss01" horiz-adv-x="2113" 
d="M1094 -35q-211 0 -390.5 62.5t-304 172t-194.5 262.5t-70 329q0 185 75 343t203.5 266t304 169t372.5 61q133 0 261 -28.5t241.5 -84t201.5 -146t133 -204.5l-127 -49q-90 185 -282 287t-426 102q-128 0 -247 -30.5t-219.5 -91.5t-175 -145.5t-117 -199.5t-42.5 -247
q0 -210 103.5 -370t293 -247.5t438.5 -87.5q333 0 522 154t210 420h-703v114h836v-45q0 -159 -50 -288.5t-135 -217t-201 -147t-243.5 -86.5t-267.5 -27z" />
    <glyph glyph-name="H.ss01" horiz-adv-x="1984" 
d="M1573 866v731h145v-1597h-145v745h-1161v-745h-144v1597h144v-731h1161z" />
    <glyph glyph-name="I.ss01" horiz-adv-x="1314" 
d="M1219 0h-1121v119h488v1360h-500v118h1145v-118h-500v-1360h488v-119z" />
    <glyph glyph-name="Iacute.ss01" horiz-adv-x="1314" 
d="M1087 2040l-409 -320h-125l317 320h217zM1219 0h-1121v119h488v1360h-500v118h1145v-118h-500v-1360h488v-119z" />
    <glyph glyph-name="Icircumflex.ss01" horiz-adv-x="1314" 
d="M750 2023l319 -303h-127q-190 146 -285 224q-87 -73 -284 -224h-127l317 303h187zM1219 0h-1121v119h488v1360h-500v118h1145v-118h-500v-1360h488v-119z" />
    <glyph glyph-name="Idieresis.ss01" horiz-adv-x="1314" 
d="M426 1790q-49 0 -83 30.5t-34 73.5q0 42 34 71.5t83 29.5t83 -29.5t34 -71.5q0 -43 -34 -73.5t-83 -30.5zM889 1790q-51 0 -85 30.5t-34 73.5q0 42 34.5 71.5t84.5 29.5q47 0 81 -30t34 -71q0 -43 -34 -73.5t-81 -30.5zM1219 0h-1121v119h488v1360h-500v118h1145v-118
h-500v-1360h488v-119z" />
    <glyph glyph-name="Idotaccent.ss01" horiz-adv-x="1314" 
d="M657 1788q-52 0 -88.5 32t-36.5 78q0 43 36.5 75t88.5 32q51 0 87 -32t36 -75q0 -46 -36 -78t-87 -32zM1219 0h-1121v119h488v1360h-500v118h1145v-118h-500v-1360h488v-119z" />
    <glyph glyph-name="Igrave.ss01" horiz-adv-x="1314" 
d="M756 1720h-127l-410 322h217zM1219 0h-1121v119h488v1360h-500v118h1145v-118h-500v-1360h488v-119z" />
    <glyph glyph-name="Imacron.ss01" horiz-adv-x="1314" 
d="M1053 1835h-791v107h791v-107zM1219 0h-1121v119h488v1360h-500v118h1145v-118h-500v-1360h488v-119z" />
    <glyph glyph-name="J.ss01" horiz-adv-x="1423" 
d="M647 -35q-84 0 -160.5 15t-152 53.5t-130 97.5t-88.5 153t-34 214v22l133 17v-23q0 -98 27.5 -175.5t70 -124t100.5 -77t113 -42t113 -11.5q184 0 288.5 112t104.5 302v981h-657v118h803v-1060q0 -29 -0.5 -49.5t-5.5 -66.5t-13.5 -82t-27.5 -85.5t-44.5 -87t-66.5 -77.5
t-92 -65.5t-123.5 -42t-157.5 -16.5z" />
    <glyph glyph-name="K.ss01" horiz-adv-x="1615" 
d="M412 0h-144v1597h144v-743h6l973 743h188q-183 -145 -533.5 -416t-508.5 -395q964 -696 1089 -786h-201q-142 99 -1013 711v-711z" />
    <glyph glyph-name="L.ss01" horiz-adv-x="1454" 
d="M412 1597v-1472h1005v-125h-1149v1597h144z" />
    <glyph glyph-name="M.ss01" horiz-adv-x="2293" 
d="M1858 1597h167v-1597h-143v1384l-668 -1030h-135l-665 1024v-1378h-146v1597h170q405 -606 705 -1089h6q439 695 709 1089z" />
    <glyph glyph-name="N.ss01" horiz-adv-x="2029" 
d="M412 0h-144v1597h228l1073 -1400h51v1400h143v-1597h-227l-1069 1386h-55v-1386z" />
    <glyph glyph-name="O.ss01" horiz-adv-x="2189" 
d="M1094 -35q-194 0 -370 63t-306.5 172t-207.5 265t-77 332t76.5 331.5t206 265t307 173t373.5 63.5q199 0 377.5 -65t306 -176t202 -265.5t74.5 -326.5q0 -173 -75.5 -328t-204.5 -265t-306.5 -174.5t-375.5 -64.5zM1098 88q159 0 305 53.5t255 146t173.5 225.5t64.5 284
t-65 284t-173.5 226t-254.5 146.5t-305 53.5q-161 0 -308.5 -53.5t-258 -146t-176.5 -225.5t-66 -285q0 -151 66 -284t176.5 -225.5t258 -146t308.5 -53.5z" />
    <glyph glyph-name="P.ss01" horiz-adv-x="1638" 
d="M268 1597h662q285 0 453.5 -126.5t168.5 -342.5q0 -151 -78.5 -263t-209 -168t-293.5 -56h-559v-641h-144v1597zM412 762h512q226 0 351.5 93t125.5 263q0 169 -136 265t-364 96h-489v-717z" />
    <glyph glyph-name="Q.ss01" horiz-adv-x="2203" 
d="M610 -256v-4h1262v-115h-1546l403 400q-268 88 -427 291.5t-159 480.5q0 184 72.5 340t200.5 264t306 168.5t384 60.5q207 0 385.5 -62.5t304 -172.5t197 -264.5t71.5 -333.5q0 -181 -72.5 -335.5t-199 -263t-304.5 -170t-384 -61.5q-115 0 -240 23q-86 -82 -254 -246z
M293 797q0 -248 147 -426.5t389 -247.5l476 469l102 -76l-434 -422q57 -8 135 -8q224 0 407.5 87.5t291.5 251t108 372.5q0 158 -63 292.5t-172 226.5t-257 143.5t-315 51.5q-227 0 -412 -87.5t-294 -251.5t-109 -375z" />
    <glyph glyph-name="R.ss01" horiz-adv-x="1693" 
d="M627 643l985 -643h-203l-987 643h-10v-643h-144v1597h662q285 0 453.5 -126.5t168.5 -342.5q0 -151 -78.5 -262.5t-209 -167t-293.5 -55.5h-344zM901 1483h-489v-723h512q229 0 353 96t124 264q0 167 -135 265t-365 98z" />
    <glyph glyph-name="S.ss01" horiz-adv-x="1581" 
d="M815 -35q-85 0 -167 14.5t-167 49t-156 86.5t-130.5 133.5t-92.5 183.5l134 45q60 -187 217.5 -289t363.5 -102q88 0 171 19t155 56t116 101.5t44 147.5q0 58 -25.5 104.5t-53 73t-93 53.5t-96 36t-112.5 29q-28 7 -42 11l-181 47q-40 10 -66 17.5t-72 22.5t-78.5 29
t-76.5 36.5t-74.5 45t-63 54.5t-52 67t-32.5 79t-13 93q0 103 53.5 185.5t142 133t196 77t222.5 26.5q222 0 392.5 -99.5t234.5 -283.5l-129 -49q-55 142 -191 226.5t-325 84.5q-123 0 -224.5 -35t-163 -101.5t-61.5 -153.5q0 -45 18 -85.5t43.5 -69.5t68 -56.5t75 -43.5
t82.5 -33t72 -23.5t61 -16.5l185 -49q183 -49 243 -72q219 -82 273 -226q20 -53 20 -116q0 -104 -53.5 -192t-143 -146.5t-206 -91.5t-242.5 -33z" />
    <glyph glyph-name="U.ss01" horiz-adv-x="1873" 
d="M913 -35q-311 0 -490 160t-179 450v1022h145v-1015q0 -248 142 -373t391 -125q253 0 396.5 125t143.5 373v1015h146v-1597h-144v207h-2q-82 -126 -217 -184t-332 -58z" />
    <glyph glyph-name="Uacute.ss01" horiz-adv-x="1873" 
d="M1204 2040l-409 -320h-127l317 320h219zM913 -35q-311 0 -490 160t-179 450v1022h145v-1015q0 -248 142 -373t391 -125q253 0 396.5 125t143.5 373v1015h146v-1597h-144v207h-2q-82 -126 -217 -184t-332 -58z" />
    <glyph glyph-name="Ucircumflex.ss01" horiz-adv-x="1873" 
d="M1010 2023l319 -303h-127q-176 135 -284 224q-77 -65 -285 -224h-127l317 303h187zM913 -35q-311 0 -490 160t-179 450v1022h145v-1015q0 -248 142 -373t391 -125q253 0 396.5 125t143.5 373v1015h146v-1597h-144v207h-2q-82 -126 -217 -184t-332 -58z" />
    <glyph glyph-name="Udieresis.ss01" horiz-adv-x="1873" 
d="M686 1790q-49 0 -83 30.5t-34 73.5q0 42 34 71.5t83 29.5t83 -29.5t34 -71.5q0 -43 -34 -73.5t-83 -30.5zM1149 1790q-51 0 -85 30.5t-34 73.5q0 42 34.5 71.5t84.5 29.5q47 0 81 -30t34 -71q0 -43 -34 -73.5t-81 -30.5zM913 -35q-311 0 -490 160t-179 450v1022h145
v-1015q0 -248 142 -373t391 -125q253 0 396.5 125t143.5 373v1015h146v-1597h-144v207h-2q-82 -126 -217 -184t-332 -58z" />
    <glyph glyph-name="Ugrave.ss01" horiz-adv-x="1873" 
d="M1016 1720h-127l-410 322h217zM913 -35q-311 0 -490 160t-179 450v1022h145v-1015q0 -248 142 -373t391 -125q253 0 396.5 125t143.5 373v1015h146v-1597h-144v207h-2q-82 -126 -217 -184t-332 -58z" />
    <glyph glyph-name="Uhungarumlaut.ss01" horiz-adv-x="1873" 
d="M1090 2042l-330 -322h-125l256 322h199zM1450 2042l-350 -322h-127l276 322h201zM913 -35q-311 0 -490 160t-179 450v1022h145v-1015q0 -248 142 -373t391 -125q253 0 396.5 125t143.5 373v1015h146v-1597h-144v207h-2q-82 -126 -217 -184t-332 -58z" />
    <glyph glyph-name="Umacron.ss01" horiz-adv-x="1873" 
d="M1313 1835h-791v107h791v-107zM913 -35q-311 0 -490 160t-179 450v1022h145v-1015q0 -248 142 -373t391 -125q253 0 396.5 125t143.5 373v1015h146v-1597h-144v207h-2q-82 -126 -217 -184t-332 -58z" />
    <glyph glyph-name="Uogonek.ss01" horiz-adv-x="1873" 
d="M1608 -373q43 0 104 15v-91q-66 -14 -115 -14q-138 0 -228.5 62.5t-90.5 169.5q0 137 190 231h-4v207h-2q-82 -126 -217 -184t-332 -58q-311 0 -490 160t-179 450v1022h145v-1015q0 -248 142 -373t391 -125q253 0 396.5 125t143.5 373v1015h146v-1597h-9
q-210 -89 -210 -213q0 -72 62.5 -116t156.5 -44z" />
    <glyph glyph-name="Uring.ss01" horiz-adv-x="1873" 
d="M918 1716q-116 0 -192.5 61t-76.5 156q0 93 76.5 154t192.5 61q111 0 186.5 -61t75.5 -154q0 -94 -75.5 -155.5t-186.5 -61.5zM918 1806q68 0 113.5 34.5t45.5 92.5q0 57 -45.5 91t-113.5 34q-72 0 -119 -34t-47 -91q0 -59 47 -93t119 -34zM913 -35q-311 0 -490 160
t-179 450v1022h145v-1015q0 -248 142 -373t391 -125q253 0 396.5 125t143.5 373v1015h146v-1597h-144v207h-2q-82 -126 -217 -184t-332 -58z" />
    <glyph glyph-name="V.ss01" horiz-adv-x="1808" 
d="M1028 0h-248l-737 1597h152q445 -968 663 -1443h100q109 240 326.5 721t327.5 722h153z" />
    <glyph glyph-name="W.ss01" horiz-adv-x="2785" 
d="M856 0h-178l-629 1597h152l565 -1427h4l492 1427h284l475 -1427h7l557 1427h151l-629 -1597h-176l-475 1458h-102z" />
    <glyph glyph-name="Wacute.ss01" horiz-adv-x="2785" 
d="M1835 2042l-410 -322h-125l318 322h217zM856 0h-178l-629 1597h152l565 -1427h4l492 1427h284l475 -1427h7l557 1427h151l-629 -1597h-176l-475 1458h-102z" />
    <glyph glyph-name="Wcircumflex.ss01" horiz-adv-x="2785" 
d="M1485 2023l319 -303h-127q-176 135 -284 224q-77 -65 -285 -224h-127l317 303h187zM856 0h-178l-629 1597h152l565 -1427h4l492 1427h284l475 -1427h7l557 1427h151l-629 -1597h-176l-475 1458h-102z" />
    <glyph glyph-name="Wdieresis.ss01" horiz-adv-x="2785" 
d="M1161 1790q-49 0 -83 30.5t-34 73.5q0 42 34 71.5t83 29.5t83 -29.5t34 -71.5q0 -43 -34 -73.5t-83 -30.5zM1624 1790q-51 0 -85 30.5t-34 73.5q0 42 34.5 71.5t84.5 29.5q47 0 81 -30t34 -71q0 -43 -34 -73.5t-81 -30.5zM856 0h-178l-629 1597h152l565 -1427h4l492 1427
h284l475 -1427h7l557 1427h151l-629 -1597h-176l-475 1458h-102z" />
    <glyph glyph-name="Wgrave.ss01" horiz-adv-x="2785" 
d="M1491 1720h-127l-410 322h217zM856 0h-178l-629 1597h152l565 -1427h4l492 1427h284l475 -1427h7l557 1427h151l-629 -1597h-176l-475 1458h-102z" />
    <glyph glyph-name="X.ss01" horiz-adv-x="1681" 
d="M199 0h-162l657 811v23l-639 763h160q286 -342 578 -708h96q71 86 214 263t363 445h160l-637 -763v-23l656 -811h-160q-27 35 -252.5 320.5t-343.5 435.5h-96q-415 -530 -594 -756z" />
    <glyph glyph-name="Y.ss01" horiz-adv-x="1656" 
d="M510 0h-145l423 592l-720 1005h157l635 -880h4l641 880h154z" />
    <glyph glyph-name="Yacute.ss01" horiz-adv-x="1656" 
d="M1292 2040l-409 -320h-127l319 320h217zM510 0h-145l423 592l-720 1005h157l635 -880h4l641 880h154z" />
    <glyph glyph-name="Ycircumflex.ss01" horiz-adv-x="1656" 
d="M954 2023l320 -303h-127q-190 146 -285 224q-87 -73 -284 -224h-127l317 303h186zM510 0h-145l423 592l-720 1005h157l635 -880h4l641 880h154z" />
    <glyph glyph-name="Ydieresis.ss01" horiz-adv-x="1656" 
d="M633 1790q-49 0 -83 30.5t-34 73.5q0 42 34 71.5t83 29.5t83 -29.5t34 -71.5q0 -43 -34 -73.5t-83 -30.5zM1096 1790q-51 0 -85 30.5t-34 73.5q0 42 34.5 71.5t84.5 29.5q47 0 80.5 -30t33.5 -71q0 -43 -33.5 -73.5t-80.5 -30.5zM510 0h-145l423 592l-720 1005h157
l635 -880h4l641 880h154z" />
    <glyph glyph-name="Ygrave.ss01" horiz-adv-x="1656" 
d="M961 1720h-127l-410 322h217zM510 0h-145l423 592l-720 1005h157l635 -880h4l641 880h154z" />
    <glyph glyph-name="Z.ss01" horiz-adv-x="1662" 
d="M1565 0h-1561l1360 1479h-1210v118h1478l-1353 -1472h1286v-125z" />
    <glyph glyph-name="Zacute.ss01" horiz-adv-x="1662" 
d="M1264 2042l-410 -322h-125l318 322h217zM1565 0h-1561l1360 1479h-1210v118h1478l-1353 -1472h1286v-125z" />
    <glyph glyph-name="Zcaron.ss01" horiz-adv-x="1662" 
d="M1102 2023h127l-316 -303h-188l-317 303h127q164 -123 284 -225q103 87 283 225zM1565 0h-1561l1360 1479h-1210v118h1478l-1353 -1472h1286v-125z" />
    <glyph glyph-name="Zdotaccent.ss01" horiz-adv-x="1662" 
d="M823 1788q-52 0 -88.5 32t-36.5 78q0 43 36.5 75t88.5 32q51 0 87 -32t36 -75q0 -46 -36 -78t-87 -32zM1565 0h-1561l1360 1479h-1210v118h1478l-1353 -1472h1286v-125z" />
    <glyph glyph-name="Q.ss02" horiz-adv-x="2189" 
d="M1174 -33v-225h671v-117h-811v342q-184 9 -349.5 75.5t-287 174.5t-193 259t-71.5 321q0 176 76.5 331.5t206 265t307 173t373.5 63.5q199 0 377.5 -65t306 -176t202 -265.5t74.5 -326.5q0 -132 -43.5 -254t-124 -221t-188.5 -175.5t-243 -123t-283 -56.5zM289 797
q0 -143 59.5 -271t160.5 -219.5t237.5 -149t287.5 -67.5v490h140v-488q147 12 279 69.5t230 149t155.5 218t57.5 268.5q0 151 -65 284t-173.5 226t-254.5 146.5t-305 53.5q-161 0 -308.5 -53.5t-258 -146t-176.5 -225.5t-66 -285z" />
    <glyph glyph-name="A.ss07" 
d="M1225 -315q-237 0 -446.5 71t-359 193.5t-236.5 294t-87 364.5q0 198 87 372.5t236.5 298.5t359 195.5t446.5 71.5q239 0 449 -71.5t360 -195.5t236.5 -298.5t86.5 -372.5q0 -156 -55 -298t-157.5 -255t-241 -196.5t-313 -128.5t-365.5 -45zM1176 1096l-474 -963h111
q67 129 168 340h489q16 -33 77 -153.5t93 -186.5h111l-471 963h-104zM1432 559h-412l207 420q59 -127 205 -420z" />
    <glyph glyph-name="B.ss07" horiz-adv-x="2459" 
d="M1225 -315q-237 0 -446.5 71t-359 193.5t-236.5 294t-87 364.5q0 198 87 372.5t236.5 298.5t359 195.5t446.5 71.5q239 0 449 -71.5t360 -195.5t236.5 -298.5t86.5 -372.5q0 -156 -55 -298t-157.5 -255t-241 -196.5t-313 -128.5t-365.5 -45zM860 1096v-963h463
q149 0 251.5 72.5t102.5 187.5q0 85 -59 146.5t-158 83.5q82 26 131 85t49 134q0 112 -104.5 183t-269.5 71h-406zM965 659v351h282q126 0 204.5 -49.5t78.5 -129.5q0 -79 -74 -125.5t-196 -46.5h-295zM1294 219h-329v356h317q126 0 205.5 -51t79.5 -131q0 -78 -74.5 -126
t-198.5 -48z" />
    <glyph glyph-name="C.ss07" 
d="M1227 -315q-237 0 -446.5 71t-359 193.5t-236.5 294t-87 364.5q0 198 87 372.5t236.5 298.5t359 195.5t446.5 71.5q239 0 449 -71.5t360 -195.5t236.5 -298.5t86.5 -372.5q0 -156 -55 -298t-157.5 -255t-241 -196.5t-313 -128.5t-365.5 -45zM1268 113q200 0 344.5 92.5
t202.5 259.5l-97 31q-37 -127 -150.5 -211t-291.5 -84q-93 0 -177.5 25.5t-152.5 74t-108.5 128.5t-40.5 181q0 182 131.5 300t333.5 118q142 0 253.5 -63.5t157.5 -169.5l94 32q-33 95 -116 162.5t-182.5 97t-208.5 29.5q-162 0 -293 -64t-206 -179.5t-75 -260.5
q0 -221 162.5 -360t419.5 -139z" />
    <glyph glyph-name="D.ss07" 
d="M1225 -315q-237 0 -446.5 71t-359 193.5t-236.5 294t-87 364.5q0 198 87 372.5t236.5 298.5t359 195.5t446.5 71.5q239 0 449 -71.5t360 -195.5t236.5 -298.5t86.5 -372.5q0 -156 -55 -298t-157.5 -255t-241 -196.5t-313 -128.5t-365.5 -45zM815 1096v-963h418
q243 0 389.5 133t146.5 355q0 224 -146.5 349.5t-403.5 125.5h-404zM1245 219h-323v791h278q215 0 337 -102.5t122 -293.5q0 -182 -112 -288.5t-302 -106.5z" />
    <glyph glyph-name="E.ss07" 
d="M1225 -315q-237 0 -446.5 71t-359 193.5t-236.5 294t-87 364.5q0 198 87 372.5t236.5 298.5t359 195.5t446.5 71.5q239 0 449 -71.5t360 -195.5t236.5 -298.5t86.5 -372.5q0 -156 -55 -298t-157.5 -255t-241 -196.5t-313 -128.5t-365.5 -45zM887 1096v-963h745v90h-639
v361h596v88h-596v338h625v86h-731z" />
    <glyph glyph-name="F.ss07" horiz-adv-x="2459" 
d="M1225 -315q-237 0 -446.5 71t-359 193.5t-236.5 294t-87 364.5q0 198 87 372.5t236.5 298.5t359 195.5t446.5 71.5q239 0 449 -71.5t360 -195.5t236.5 -298.5t86.5 -372.5q0 -156 -55 -298t-157.5 -255t-241 -196.5t-313 -128.5t-365.5 -45zM911 1096v-963h107v442h579
v89h-579v342h610v90h-717z" />
    <glyph glyph-name="G.ss07" 
d="M1227 -315q-237 0 -446.5 71t-359 193.5t-236.5 294t-87 364.5q0 198 87 372.5t236.5 298.5t359 195.5t446.5 71.5q239 0 449 -71.5t360 -195.5t236.5 -298.5t86.5 -372.5q0 -156 -55 -298t-157.5 -255t-241 -196.5t-313 -128.5t-365.5 -45zM1257 113q159 0 275 59
t178 168l2 -207h90v477h-514v-84h410q-15 -148 -134 -236.5t-294 -88.5q-91 0 -174 25.5t-150.5 74.5t-108 129t-40.5 180q0 182 131.5 300t333.5 118q141 0 252.5 -63t158.5 -170l94 32q-34 95 -115.5 162t-181.5 97t-210 30q-247 0 -410.5 -143t-163.5 -363
q0 -218 161 -357.5t410 -139.5z" />
    <glyph glyph-name="H.ss07" 
d="M1225 -315q-237 0 -446.5 71t-359 193.5t-236.5 294t-87 364.5q0 198 87 372.5t236.5 298.5t359 195.5t446.5 71.5q239 0 449 -71.5t360 -195.5t236.5 -298.5t86.5 -372.5q0 -156 -55 -298t-157.5 -255t-241 -196.5t-313 -128.5t-365.5 -45zM788 1096v-963h107v442h668
v-442h106v963h-106v-432h-668v432h-107z" />
    <glyph glyph-name="I.ss07" 
d="M1225 -315q-237 0 -446.5 71t-359 193.5t-236.5 294t-87 364.5q0 198 87 372.5t236.5 298.5t359 195.5t446.5 71.5q239 0 449 -71.5t360 -195.5t236.5 -298.5t86.5 -372.5q0 -156 -55 -298t-157.5 -255t-241 -196.5t-313 -128.5t-365.5 -45zM1176 1096v-963h106v963h-106
z" />
    <glyph glyph-name="J.ss07" 
d="M1225 -315q-237 0 -446.5 71t-359 193.5t-236.5 294t-87 364.5q0 198 87 372.5t236.5 298.5t359 195.5t446.5 71.5q239 0 449 -71.5t360 -195.5t236.5 -298.5t86.5 -372.5q0 -156 -55 -298t-157.5 -255t-241 -196.5t-313 -128.5t-365.5 -45zM1184 123q52 0 96 10
t75.5 25.5t56.5 41t40.5 48t26.5 56.5t16.5 57t8 58t3 51t0.5 44v592h-104v-617q0 -28 -0.5 -46t-5 -50.5t-12.5 -54.5t-24.5 -48.5t-39 -42.5t-58.5 -27t-81 -11q-47 0 -88.5 12t-80 38t-61 75t-22.5 115v30l-99 -10v-35q0 -67 21 -121t55.5 -88.5t81 -58t95 -33.5
t100.5 -10z" />
    <glyph glyph-name="K.ss07" 
d="M1225 -315q-237 0 -446.5 71t-359 193.5t-236.5 294t-87 364.5q0 198 87 372.5t236.5 298.5t359 195.5t446.5 71.5q239 0 449 -71.5t360 -195.5t236.5 -298.5t86.5 -372.5q0 -156 -55 -298t-157.5 -255t-241 -196.5t-313 -128.5t-365.5 -45zM874 1096v-963h105v336
q26 21 76 65l75 66q28 -29 195 -202t254 -265h131q-62 66 -226.5 240.5t-279.5 298.5q54 47 221 195.5t261 228.5h-136q-253 -219 -571 -506v506h-105z" />
    <glyph glyph-name="L.ss07" 
d="M1225 -315q-237 0 -446.5 71t-359 193.5t-236.5 294t-87 364.5q0 198 87 372.5t236.5 298.5t359 195.5t446.5 71.5q239 0 449 -71.5t360 -195.5t236.5 -298.5t86.5 -372.5q0 -156 -55 -298t-157.5 -255t-241 -196.5t-313 -128.5t-365.5 -45zM975 1096v-963h702v90h-596
v873h-106z" />
    <glyph glyph-name="M.ss07" horiz-adv-x="2459" 
d="M1225 -315q-237 0 -446.5 71t-359 193.5t-236.5 294t-87 364.5q0 198 87 372.5t236.5 298.5t359 195.5t446.5 71.5q239 0 449 -71.5t360 -195.5t236.5 -298.5t86.5 -372.5q0 -156 -55 -298t-157.5 -255t-241 -196.5t-313 -128.5t-365.5 -45zM647 1096v-963h105v770
q68 -124 215.5 -387.5t212.5 -382.5h98q308 551 428 774v-774h106v963h-118q-67 -126 -143 -263t-176 -314t-146 -259q-213 390 -465 836h-117z" />
    <glyph glyph-name="N.ss07" 
d="M1225 -315q-237 0 -446.5 71t-359 193.5t-236.5 294t-87 364.5q0 198 87 372.5t236.5 298.5t359 195.5t446.5 71.5q239 0 449 -71.5t360 -195.5t236.5 -298.5t86.5 -372.5q0 -156 -55 -298t-157.5 -255t-241 -196.5t-313 -128.5t-365.5 -45zM791 1096v-963h106v803
q124 -149 356.5 -417.5t331.5 -385.5h111v963h-105v-811q-90 108 -690 811h-110z" />
    <glyph glyph-name="O.ss07" 
d="M1225 -315q-237 0 -446.5 71t-359 193.5t-236.5 294t-87 364.5q0 198 87 372.5t236.5 298.5t359 195.5t446.5 71.5q239 0 449 -71.5t360 -195.5t236.5 -298.5t86.5 -372.5q0 -156 -55 -298t-157.5 -255t-241 -196.5t-313 -128.5t-365.5 -45zM1229 113q120 0 227.5 39
t184.5 106t122 159.5t45 196.5q0 138 -76 253.5t-209 182t-292 66.5q-161 0 -294 -66t-209.5 -181.5t-76.5 -254.5t76.5 -254.5t209 -181t292.5 -65.5zM762 614q0 173 137 293.5t332 120.5q194 0 329.5 -120.5t135.5 -293.5t-135.5 -293t-329.5 -120q-127 0 -235 54
t-171 149.5t-63 209.5z" />
    <glyph glyph-name="P.ss07" 
d="M1225 -315q-237 0 -446.5 71t-359 193.5t-236.5 294t-87 364.5q0 198 87 372.5t236.5 298.5t359 195.5t446.5 71.5q239 0 449 -71.5t360 -195.5t236.5 -298.5t86.5 -372.5q0 -156 -55 -298t-157.5 -255t-241 -196.5t-313 -128.5t-365.5 -45zM889 1096v-963h104v381h324
q151 0 252.5 79.5t101.5 215.5t-107 211.5t-272 75.5h-403zM1288 602h-295v408h283q130 0 207.5 -54t77.5 -151q0 -100 -71.5 -151.5t-201.5 -51.5z" />
    <glyph glyph-name="Q.ss07" 
d="M1225 -315q-237 0 -446.5 71t-359 193.5t-236.5 294t-87 364.5q0 198 87 372.5t236.5 298.5t359 195.5t446.5 71.5q239 0 449 -71.5t360 -195.5t236.5 -298.5t86.5 -372.5q0 -156 -55 -298t-157.5 -255t-241 -196.5t-313 -128.5t-365.5 -45zM1688 66l75 57
q-17 15 -25 23.5t-14.5 15.5t-37 37.5t-80.5 79.5q96 70 148 169.5t52 210.5q0 139 -76.5 254.5t-209.5 181.5t-293 66q-246 0 -414 -144.5t-168 -357.5q0 -139 76.5 -254.5t209.5 -181t294 -65.5q170 0 299 69q20 -20 77 -75t87 -86zM756 659q0 173 137 293.5t334 120.5
q127 0 234.5 -55t170 -150t62.5 -209q0 -187 -160 -309q-19 19 -63.5 63t-83.5 81.5t-84 78.5l-72 -55q218 -212 223 -217q-103 -53 -227 -53q-197 0 -334 118.5t-137 292.5z" />
    <glyph glyph-name="R.ss07" 
d="M1225 -315q-237 0 -446.5 71t-359 193.5t-236.5 294t-87 364.5q0 198 87 372.5t236.5 298.5t359 195.5t446.5 71.5q239 0 449 -71.5t360 -195.5t236.5 -298.5t86.5 -372.5q0 -156 -55 -298t-157.5 -255t-241 -196.5t-313 -128.5t-365.5 -45zM895 1096v-963h104v381h269
l307 -381h119q-41 53 -149.5 186.5t-160.5 200.5q134 14 213.5 91.5t79.5 197.5q0 136 -107 211.5t-272 75.5h-403zM1294 600h-295v410h283q129 0 207 -54.5t78 -150.5q0 -100 -72.5 -152.5t-200.5 -52.5z" />
    <glyph glyph-name="S.ss07" 
d="M1225 -315q-237 0 -446.5 71t-359 193.5t-236.5 294t-87 364.5q0 198 87 372.5t236.5 298.5t359 195.5t446.5 71.5q239 0 449 -71.5t360 -195.5t236.5 -298.5t86.5 -372.5q0 -156 -55 -298t-157.5 -255t-241 -196.5t-313 -128.5t-365.5 -45zM1249 113q166 0 278.5 80.5
t112.5 201.5q0 27 -7 51.5t-15.5 43t-28 37t-32 30t-41 25t-41 19.5t-47.5 16.5t-44 13l-45 12.5q-15 4 -22 6l-111 29q-26 7 -42.5 12t-49.5 16.5t-54.5 25t-45 32.5t-35.5 44.5t-12 55.5q0 71 71 117.5t183 46.5q109 0 189.5 -50.5t109.5 -137.5l96 37q-36 110 -139 174.5
t-248 64.5q-68 0 -133 -16.5t-119.5 -47t-87.5 -82t-33 -114.5q0 -194 322 -270l106 -27q9 -2 33.5 -8.5t35 -9t33 -9.5t33 -11.5t28.5 -13t27.5 -16.5t21.5 -19.5t17.5 -24t10 -28.5t4.5 -34q0 -62 -44 -105t-104.5 -61t-128.5 -18q-125 0 -216.5 62.5t-123.5 172.5
l-98 -33q20 -63 56 -114t79.5 -83t96 -53.5t102.5 -30.5t102 -9z" />
    <glyph glyph-name="T.ss07" 
d="M1225 -315q-237 0 -446.5 71t-359 193.5t-236.5 294t-87 364.5q0 198 87 372.5t236.5 298.5t359 195.5t446.5 71.5q239 0 449 -71.5t360 -195.5t236.5 -298.5t86.5 -372.5q0 -156 -55 -298t-157.5 -255t-241 -196.5t-313 -128.5t-365.5 -45zM1178 1010v-877h102v877h395
v86h-897v-86h400z" />
    <glyph glyph-name="U.ss07" 
d="M1225 -315q-237 0 -446.5 71t-359 193.5t-236.5 294t-87 364.5q0 198 87 372.5t236.5 298.5t359 195.5t446.5 71.5q239 0 449 -71.5t360 -195.5t236.5 -298.5t86.5 -372.5q0 -156 -55 -298t-157.5 -255t-241 -196.5t-313 -128.5t-365.5 -45zM1225 123q201 0 309 100.5
t108 270.5v612h-106v-608q0 -289 -307 -289q-309 0 -309 289v608h-105v-612q0 -172 104 -271.5t306 -99.5z" />
    <glyph glyph-name="V.ss07" 
d="M1225 -315q-237 0 -446.5 71t-359 193.5t-236.5 294t-87 364.5q0 198 87 372.5t236.5 298.5t359 195.5t446.5 71.5q239 0 449 -71.5t360 -195.5t236.5 -298.5t86.5 -372.5q0 -156 -55 -298t-157.5 -255t-241 -196.5t-313 -128.5t-365.5 -45zM705 1096l473 -963h104
l473 963h-113q-86 -176 -409 -848q-38 78 -133.5 277t-158 326.5t-124.5 244.5h-112z" />
    <glyph glyph-name="W.ss07" 
d="M1225 -315q-237 0 -446.5 71t-359 193.5t-236.5 294t-87 364.5q0 198 87 372.5t236.5 298.5t359 195.5t446.5 71.5q239 0 449 -71.5t360 -195.5t236.5 -298.5t86.5 -372.5q0 -156 -55 -298t-157.5 -255t-241 -196.5t-313 -128.5t-365.5 -45zM420 1096l379 -963h114
q154 375 316 823q178 -488 315 -823h115l379 963h-109q-147 -363 -325 -830q-47 123 -155 399.5t-165 430.5h-110q-29 -76 -104.5 -276t-211.5 -554q-104 275 -330 830h-108z" />
    <glyph glyph-name="X.ss07" 
d="M1225 -315q-237 0 -446.5 71t-359 193.5t-236.5 294t-87 364.5q0 198 87 372.5t236.5 298.5t359 195.5t446.5 71.5q239 0 449 -71.5t360 -195.5t236.5 -298.5t86.5 -372.5q0 -156 -55 -298t-157.5 -255t-241 -196.5t-313 -128.5t-365.5 -45zM762 133h121q69 81 186 224
t162 196q36 -44 156 -192t188 -228h121q-68 82 -202.5 247t-203.5 247q100 121 393 469h-120q-68 -78 -334 -394q-5 5 -334 394h-123q248 -295 397 -469q-81 -96 -233.5 -282t-173.5 -212z" />
    <glyph glyph-name="Y.ss07" 
d="M1225 -315q-237 0 -446.5 71t-359 193.5t-236.5 294t-87 364.5q0 198 87 372.5t236.5 298.5t359 195.5t446.5 71.5q239 0 449 -71.5t360 -195.5t236.5 -298.5t86.5 -372.5q0 -156 -55 -298t-157.5 -255t-241 -196.5t-313 -128.5t-365.5 -45zM1176 487v-354h104v354
q51 72 159 223t186.5 261t88.5 125h-112q-224 -307 -373 -518q-69 97 -197 274.5t-176 243.5h-115q75 -106 221 -309.5t214 -299.5z" />
    <glyph glyph-name="Z.ss07" 
d="M1225 -315q-237 0 -446.5 71t-359 193.5t-236.5 294t-87 364.5q0 198 87 372.5t236.5 298.5t359 195.5t446.5 71.5q239 0 449 -71.5t360 -195.5t236.5 -298.5t86.5 -372.5q0 -156 -55 -298t-157.5 -255t-241 -196.5t-313 -128.5t-365.5 -45zM805 221v-88h887v90h-758
q665 704 745 789v84h-843v-86h710q-110 -116 -234 -248t-273 -291t-234 -250z" />
    <glyph glyph-name="A.ss08" 
d="M1225 1546q239 0 449 -71.5t360 -195.5t236.5 -298.5t86.5 -372.5q0 -156 -55 -298t-157.5 -255t-241 -196.5t-313 -128.5t-365.5 -45q-237 0 -446.5 71t-359 193.5t-236.5 294t-87 364.5q0 198 87 372.5t236.5 298.5t359 195.5t446.5 71.5zM1225 -231q174 0 333.5 41
t286 117t220 179t144 232.5t50.5 271.5q0 179 -79 337t-216 271t-329 178.5t-410 65.5q-216 0 -407 -65.5t-327.5 -178t-216 -271t-79.5 -337.5q0 -176 79.5 -332t216 -267.5t327.5 -176.5t407 -65zM854 272l338 684h76l338 -684h-84q-19 40 -60.5 121.5t-60.5 120.5h-344
q-25 -49 -52 -103.5t-43 -87t-26 -51.5h-82zM1085 578h287q-95 186 -143 290l-56 -111q-56 -111 -88 -179z" />
    <glyph glyph-name="B.ss08" 
d="M1225 1546q239 0 449 -71.5t360 -195.5t236.5 -298.5t86.5 -372.5q0 -156 -55 -298t-157.5 -255t-241 -196.5t-313 -128.5t-365.5 -45q-237 0 -446.5 71t-359 193.5t-236.5 294t-87 364.5q0 198 87 372.5t236.5 298.5t359 195.5t446.5 71.5zM1225 -231q174 0 333.5 41
t286 117t220 179t144 232.5t50.5 271.5q0 179 -79 337t-216 271t-329 178.5t-410 65.5q-216 0 -407 -65.5t-327.5 -178t-216 -271t-79.5 -337.5q0 -176 79.5 -332t216 -267.5t327.5 -176.5t407 -65zM1395 621q71 -17 112 -60t41 -100q0 -83 -73 -136t-179 -53h-333v684h290
q117 0 193 -51.5t76 -130.5q0 -51 -33.5 -92t-93.5 -61zM1042 891v-244h207q86 0 139.5 33.5t53.5 87.5q0 55 -56.5 89t-144.5 34h-199zM1274 338q86 0 138 32t52 87q0 57 -55 93t-143 36h-224v-248h232z" />
    <glyph glyph-name="C.ss08" 
d="M1225 -315q-237 0 -446.5 71t-359 193.5t-236.5 294t-87 364.5q0 198 87 372.5t236.5 298.5t359 195.5t446.5 71.5q239 0 449 -71.5t360 -195.5t236.5 -298.5t86.5 -372.5q0 -156 -55 -298t-157.5 -255t-241 -196.5t-313 -128.5t-365.5 -45zM1225 -231q174 0 333.5 41
t286 117t220 179t144 232.5t50.5 271.5q0 179 -79 337t-216 271t-329 178.5t-410 65.5q-216 0 -407 -65.5t-327.5 -178t-216 -271t-79.5 -337.5q0 -176 79.5 -332t216 -267.5t327.5 -176.5t407 -65zM1255 258q-183 0 -299 98.5t-116 253.5q0 157 117 259t292 102
q133 0 232 -56.5t133 -150.5l-68 -25q-35 76 -115 120t-178 44q-145 0 -237 -82t-92 -211q0 -92 49.5 -159t124.5 -97t164 -30q117 0 200.5 56.5t112.5 154.5l72 -25q-39 -119 -143.5 -185.5t-248.5 -66.5z" />
    <glyph glyph-name="D.ss08" horiz-adv-x="2459" 
d="M1225 -315q-237 0 -446.5 71t-359 193.5t-236.5 294t-87 364.5q0 198 87 372.5t236.5 298.5t359 195.5t446.5 71.5q239 0 449 -71.5t360 -195.5t236.5 -298.5t86.5 -372.5q0 -156 -55 -298t-157.5 -255t-241 -196.5t-313 -128.5t-365.5 -45zM1225 -231q174 0 333.5 41
t286 117t220 179t144 232.5t50.5 271.5q0 179 -79 337t-216 271t-329 178.5t-410 65.5q-216 0 -407 -65.5t-327.5 -178t-216 -271t-79.5 -337.5q0 -176 79.5 -332t216 -267.5t327.5 -176.5t407 -65zM1235 272h-301v684h291q183 0 287 -90t104 -248q0 -156 -105 -251
t-276 -95zM1014 338h227q136 0 215.5 74t79.5 202q0 134 -87.5 205.5t-238.5 71.5h-196v-553z" />
    <glyph glyph-name="E.ss08" 
d="M1225 -315q-237 0 -446.5 71t-359 193.5t-236.5 294t-87 364.5q0 198 87 372.5t236.5 298.5t359 195.5t446.5 71.5q239 0 449 -71.5t360 -195.5t236.5 -298.5t86.5 -372.5q0 -156 -55 -298t-157.5 -255t-241 -196.5t-313 -128.5t-365.5 -45zM1225 -231q174 0 333.5 41
t286 117t220 179t144 232.5t50.5 271.5q0 179 -79 337t-216 271t-329 178.5t-410 65.5q-216 0 -407 -65.5t-327.5 -178t-216 -271t-79.5 -337.5q0 -176 79.5 -332t216 -267.5t327.5 -176.5t407 -65zM1518 272h-535v684h526v-65h-446v-234h424v-65h-424v-252h455v-68z" />
    <glyph glyph-name="F.ss08" 
d="M1225 -315q-237 0 -446.5 71t-359 193.5t-236.5 294t-87 364.5q0 198 87 372.5t236.5 298.5t359 195.5t446.5 71.5q239 0 449 -71.5t360 -195.5t236.5 -298.5t86.5 -372.5q0 -156 -55 -298t-157.5 -255t-241 -196.5t-313 -128.5t-365.5 -45zM1225 -231q174 0 333.5 41
t286 117t220 179t144 232.5t50.5 271.5q0 179 -79 337t-216 271t-329 178.5t-410 65.5q-216 0 -407 -65.5t-327.5 -178t-216 -271t-79.5 -337.5q0 -176 79.5 -332t216 -267.5t327.5 -176.5t407 -65zM1079 272h-80v684h514v-67h-434v-238h414v-63h-414v-316z" />
    <glyph glyph-name="G.ss08" 
d="M1225 1546q239 0 449 -71.5t360 -195.5t236.5 -298.5t86.5 -372.5q0 -156 -55 -298t-157.5 -255t-241 -196.5t-313 -128.5t-365.5 -45q-237 0 -446.5 71t-359 193.5t-236.5 294t-87 364.5q0 198 87 372.5t236.5 298.5t359 195.5t446.5 71.5zM1225 -231q174 0 333.5 41
t286 117t220 179t144 232.5t50.5 271.5q0 179 -79 337t-216 271t-329 178.5t-410 65.5q-216 0 -407 -65.5t-327.5 -178t-216 -271t-79.5 -337.5q0 -176 79.5 -332t216 -267.5t327.5 -176.5t407 -65zM1268 551v61h372v-340h-71q0 24 1 73t1 71q-44 -75 -126.5 -116.5
t-195.5 -41.5q-180 0 -294.5 99t-114.5 253q0 155 116 258t293 103q133 0 232 -56.5t133 -150.5l-68 -25q-35 76 -115 120t-178 44q-145 0 -237 -82t-92 -211q0 -93 49 -159.5t122.5 -96.5t161.5 -30q124 0 207.5 63t94.5 164h-291z" />
    <glyph glyph-name="H.ss08" 
d="M1225 1546q239 0 449 -71.5t360 -195.5t236.5 -298.5t86.5 -372.5q0 -156 -55 -298t-157.5 -255t-241 -196.5t-313 -128.5t-365.5 -45q-237 0 -446.5 71t-359 193.5t-236.5 294t-87 364.5q0 198 87 372.5t236.5 298.5t359 195.5t446.5 71.5zM1225 -231q174 0 333.5 41
t286 117t220 179t144 232.5t50.5 271.5q0 179 -79 337t-216 271t-329 178.5t-410 65.5q-216 0 -407 -65.5t-327.5 -178t-216 -271t-79.5 -337.5q0 -176 79.5 -332t216 -267.5t327.5 -176.5t407 -65zM993 651h471v305h80v-684h-80v314h-471v-314h-78v684h78v-305z" />
    <glyph glyph-name="I.ss08" horiz-adv-x="2459" 
d="M1227 -315q-237 0 -446.5 71t-359 193.5t-236.5 294t-87 364.5q0 198 87 372.5t236.5 298.5t359 195.5t446.5 71.5q239 0 449 -71.5t360 -195.5t236.5 -298.5t86.5 -372.5q0 -156 -55 -298t-157.5 -255t-241 -196.5t-313 -128.5t-365.5 -45zM1227 -231q174 0 333.5 41
t286 117t220 179t144 232.5t50.5 271.5q0 179 -79 337t-216 271t-329 178.5t-410 65.5q-216 0 -407 -65.5t-327.5 -178t-216 -271t-79.5 -337.5q0 -176 79.5 -332t216 -267.5t327.5 -176.5t407 -65zM1270 272h-80v684h80v-684z" />
    <glyph glyph-name="J.ss08" 
d="M1225 -315q-237 0 -446.5 71t-359 193.5t-236.5 294t-87 364.5q0 198 87 372.5t236.5 298.5t359 195.5t446.5 71.5q239 0 449 -71.5t360 -195.5t236.5 -298.5t86.5 -372.5q0 -156 -55 -298t-157.5 -255t-241 -196.5t-313 -128.5t-365.5 -45zM1225 -231q174 0 333.5 41
t286 117t220 179t144 232.5t50.5 271.5q0 179 -79 337t-216 271t-329 178.5t-410 65.5q-216 0 -407 -65.5t-327.5 -178t-216 -271t-79.5 -337.5q0 -176 79.5 -332t216 -267.5t327.5 -176.5t407 -65zM1198 264q-118 0 -186 59t-68 162v27l74 8v-24q0 -78 47.5 -123t130.5 -45
q36 0 64 9t44 27t26 35.5t14 44t5 42t1 38.5v439h80v-422q0 -25 -0.5 -41t-5 -48t-13 -54t-25.5 -49.5t-41 -44.5t-61.5 -28.5t-85.5 -11.5z" />
    <glyph glyph-name="K.ss08" 
d="M1225 1546q239 0 449 -71.5t360 -195.5t236.5 -298.5t86.5 -372.5q0 -156 -55 -298t-157.5 -255t-241 -196.5t-313 -128.5t-365.5 -45q-237 0 -446.5 71t-359 193.5t-236.5 294t-87 364.5q0 198 87 372.5t236.5 298.5t359 195.5t446.5 71.5zM1225 -231q174 0 333.5 41
t286 117t220 179t144 232.5t50.5 271.5q0 179 -79 337t-216 271t-329 178.5t-410 65.5q-216 0 -407 -65.5t-327.5 -178t-216 -271t-79.5 -337.5q0 -176 79.5 -332t216 -267.5t327.5 -176.5t407 -65zM1460 956h99q-151 -132 -342 -301l358 -383h-98q-40 44 -116.5 123
t-136.5 140t-65 67l-102 -90v-240h-80v684h80v-354q195 174 403 354z" />
    <glyph glyph-name="L.ss08" 
d="M1225 1546q239 0 449 -71.5t360 -195.5t236.5 -298.5t86.5 -372.5q0 -156 -55 -298t-157.5 -255t-241 -196.5t-313 -128.5t-365.5 -45q-237 0 -446.5 71t-359 193.5t-236.5 294t-87 364.5q0 198 87 372.5t236.5 298.5t359 195.5t446.5 71.5zM1225 -231q174 0 333.5 41
t286 117t220 179t144 232.5t50.5 271.5q0 179 -79 337t-216 271t-329 178.5t-410 65.5q-216 0 -407 -65.5t-327.5 -178t-216 -271t-79.5 -337.5q0 -176 79.5 -332t216 -267.5t327.5 -176.5t407 -65zM1047 956h79v-616h424v-68h-503v684z" />
    <glyph glyph-name="M.ss08" horiz-adv-x="2459" 
d="M1225 1546q239 0 449 -71.5t360 -195.5t236.5 -298.5t86.5 -372.5q0 -156 -55 -298t-157.5 -255t-241 -196.5t-313 -128.5t-365.5 -45q-237 0 -446.5 71t-359 193.5t-236.5 294t-87 364.5q0 198 87 372.5t236.5 298.5t359 195.5t446.5 71.5zM1225 -231q174 0 333.5 41
t286 117t220 179t144 232.5t50.5 271.5q0 179 -79 337t-216 271t-329 178.5t-410 65.5q-216 0 -407 -65.5t-327.5 -178t-216 -271t-79.5 -337.5q0 -176 79.5 -332t216 -267.5t327.5 -176.5t407 -65zM1229 369q161 278 330 587h86v-684h-78v541q-49 -90 -150.5 -270.5
t-150.5 -270.5h-72q-251 448 -301 541v-541h-80v684h88q204 -359 328 -587z" />
    <glyph glyph-name="N.ss08" 
d="M1225 1546q239 0 449 -71.5t360 -195.5t236.5 -298.5t86.5 -372.5q0 -156 -55 -298t-157.5 -255t-241 -196.5t-313 -128.5t-365.5 -45q-237 0 -446.5 71t-359 193.5t-236.5 294t-87 364.5q0 198 87 372.5t236.5 298.5t359 195.5t446.5 71.5zM1225 -231q174 0 333.5 41
t286 117t220 179t144 232.5t50.5 271.5q0 179 -79 337t-216 271t-329 178.5t-410 65.5q-216 0 -407 -65.5t-327.5 -178t-216 -271t-79.5 -337.5q0 -176 79.5 -332t216 -267.5t327.5 -176.5t407 -65zM1485 385v571h80v-684h-80q-443 510 -490 564v-564h-80v684h82
q47 -55 212 -248t276 -323z" />
    <glyph glyph-name="O.ss08" horiz-adv-x="2455" 
d="M1225 -315q-237 0 -446.5 71t-359 193.5t-236.5 294t-87 364.5q0 198 87 372.5t236.5 298.5t359 195.5t446.5 71.5q239 0 449 -71.5t360 -195.5t236.5 -298.5t86.5 -372.5q0 -156 -55 -298t-157.5 -255t-241 -196.5t-313 -128.5t-365.5 -45zM1225 -231q174 0 333.5 41
t286 117t220 179t144 232.5t50.5 271.5q0 179 -79 337t-216 271t-329 178.5t-410 65.5q-216 0 -407 -65.5t-327.5 -178t-216 -271t-79.5 -337.5q0 -176 79.5 -332t216 -267.5t327.5 -176.5t407 -65zM1229 258q-173 0 -293.5 103t-120.5 253q0 149 121.5 253t294.5 104
t292 -103.5t119 -253.5t-119.5 -253t-293.5 -103zM1231 324q137 0 232.5 84.5t95.5 205.5t-95.5 205t-232.5 84q-138 0 -235 -84t-97 -205t97 -205.5t235 -84.5z" />
    <glyph glyph-name="P.ss08" 
d="M1225 1546q239 0 449 -71.5t360 -195.5t236.5 -298.5t86.5 -372.5q0 -156 -55 -298t-157.5 -255t-241 -196.5t-313 -128.5t-365.5 -45q-237 0 -446.5 71t-359 193.5t-236.5 294t-87 364.5q0 198 87 372.5t236.5 298.5t359 195.5t446.5 71.5zM1225 -231q174 0 333.5 41
t286 117t220 179t144 232.5t50.5 271.5q0 179 -79 337t-216 271t-329 178.5t-410 65.5q-216 0 -407 -65.5t-327.5 -178t-216 -271t-79.5 -337.5q0 -176 79.5 -332t216 -267.5t327.5 -176.5t407 -65zM985 956h285q122 0 198 -52.5t76 -149.5q0 -98 -73 -155.5t-181 -57.5
h-225v-269h-80v684zM1065 606h205q90 0 141 37t51 107q0 67 -54 104t-146 37h-197v-285z" />
    <glyph glyph-name="Q.ss08" 
d="M1225 -315q-237 0 -446.5 71t-359 193.5t-236.5 294t-87 364.5q0 198 87 372.5t236.5 298.5t359 195.5t446.5 71.5q239 0 449 -71.5t360 -195.5t236.5 -298.5t86.5 -372.5q0 -156 -55 -298t-157.5 -255t-241 -196.5t-313 -128.5t-365.5 -45zM1225 -231q174 0 333.5 41
t286 117t220 179t144 232.5t50.5 271.5q0 179 -79 337t-216 271t-329 178.5t-410 65.5q-216 0 -407 -65.5t-327.5 -178t-216 -271t-79.5 -337.5q0 -176 79.5 -332t216 -267.5t327.5 -176.5t407 -65zM1608 266l-54 -41l-116 113q-96 -47 -213 -47q-174 0 -295 102t-121 252
t121.5 253t296.5 103q172 0 291.5 -103t119.5 -253q0 -78 -36.5 -148t-102.5 -120q17 -19 54.5 -56t54.5 -55zM1227 354q84 0 157 39q-43 43 -99 96t-62 56l59 43q52 -52 166 -158q108 87 108 215q0 121 -96.5 206t-232.5 85q-138 0 -236 -85t-98 -206q0 -122 97.5 -206.5
t236.5 -84.5z" />
    <glyph glyph-name="R.ss08" 
d="M1225 1546q239 0 449 -71.5t360 -195.5t236.5 -298.5t86.5 -372.5q0 -156 -55 -298t-157.5 -255t-241 -196.5t-313 -128.5t-365.5 -45q-237 0 -446.5 71t-359 193.5t-236.5 294t-87 364.5q0 198 87 372.5t236.5 298.5t359 195.5t446.5 71.5zM1225 -231q174 0 333.5 41
t286 117t220 179t144 232.5t50.5 271.5q0 179 -79 337t-216 271t-329 178.5t-410 65.5q-216 0 -407 -65.5t-327.5 -178t-216 -271t-79.5 -337.5q0 -176 79.5 -332t216 -267.5t327.5 -176.5t407 -65zM1546 752q0 -83 -55.5 -138.5t-149.5 -66.5q11 -14 222 -275h-90l-220 269
h-186v-269h-80v684h287q120 0 196 -53t76 -151zM1067 606h207q90 0 141 37t51 107q0 65 -55 103t-147 38h-197v-285z" />
    <glyph glyph-name="S.ss08" 
d="M1225 -315q-237 0 -446.5 71t-359 193.5t-236.5 294t-87 364.5q0 198 87 372.5t236.5 298.5t359 195.5t446.5 71.5q239 0 449 -71.5t360 -195.5t236.5 -298.5t86.5 -372.5q0 -156 -55 -298t-157.5 -255t-241 -196.5t-313 -128.5t-365.5 -45zM1225 -231q174 0 333.5 41
t286 117t220 179t144 232.5t50.5 271.5q0 179 -79 337t-216 271t-329 178.5t-410 65.5q-216 0 -407 -65.5t-327.5 -178t-216 -271t-79.5 -337.5q0 -176 79.5 -332t216 -267.5t327.5 -176.5t407 -65zM1243 258q-116 0 -198.5 55t-114.5 154l74 22q23 -77 87.5 -121t153.5 -44
q47 0 89.5 12.5t74 43t31.5 73.5q0 12 -3 23t-6.5 19.5t-12.5 16.5t-14.5 13t-19 11t-20 9t-23.5 7.5t-23.5 6.5t-25.5 6.5t-24 5.5l-76 21q-30 8 -51.5 14.5t-58 23t-60 36t-41.5 51t-18 69.5q0 59 41.5 102.5t100.5 63t126 19.5q102 0 176 -46.5t100 -125.5l-71 -27
q-22 61 -79.5 96t-135.5 35q-77 0 -127 -31.5t-50 -80.5q0 -90 170 -132l76 -20q114 -28 158 -54q76 -46 76 -126q0 -86 -81 -143.5t-200 -57.5z" />
    <glyph glyph-name="T.ss08" horiz-adv-x="2455" 
d="M1225 -315q-237 0 -446.5 71t-359 193.5t-236.5 294t-87 364.5q0 198 87 372.5t236.5 298.5t359 195.5t446.5 71.5q239 0 449 -71.5t360 -195.5t236.5 -298.5t86.5 -372.5q0 -156 -55 -298t-157.5 -255t-241 -196.5t-313 -128.5t-365.5 -45zM1225 -231q174 0 333.5 41
t286 117t220 179t144 232.5t50.5 271.5q0 179 -79 337t-216 271t-329 178.5t-410 65.5q-216 0 -407 -65.5t-327.5 -178t-216 -271t-79.5 -337.5q0 -176 79.5 -332t216 -267.5t327.5 -176.5t407 -65zM1266 272h-78v619h-281v65h639v-65h-280v-619z" />
    <glyph glyph-name="U.ss08" horiz-adv-x="2459" 
d="M1225 -315q-237 0 -446.5 71t-359 193.5t-236.5 294t-87 364.5q0 198 87 372.5t236.5 298.5t359 195.5t446.5 71.5q239 0 449 -71.5t360 -195.5t236.5 -298.5t86.5 -372.5q0 -156 -55 -298t-157.5 -255t-241 -196.5t-313 -128.5t-365.5 -45zM1225 -231q174 0 333.5 41
t286 117t220 179t144 232.5t50.5 271.5q0 179 -79 337t-216 271t-329 178.5t-410 65.5q-216 0 -407 -65.5t-327.5 -178t-216 -271t-79.5 -337.5q0 -176 79.5 -332t216 -267.5t327.5 -176.5t407 -65zM1227 264q-142 0 -217.5 70t-75.5 192v437h80v-435q0 -200 215 -200
q217 0 217 200v435h80v-437q0 -121 -78.5 -191.5t-220.5 -70.5z" />
    <glyph glyph-name="V.ss08" 
d="M1225 1546q239 0 449 -71.5t360 -195.5t236.5 -298.5t86.5 -372.5q0 -156 -55 -298t-157.5 -255t-241 -196.5t-313 -128.5t-365.5 -45q-237 0 -446.5 71t-359 193.5t-236.5 294t-87 364.5q0 198 87 372.5t236.5 298.5t359 195.5t446.5 71.5zM1225 -231q174 0 333.5 41
t286 117t220 179t144 232.5t50.5 271.5q0 179 -79 337t-216 271t-329 178.5t-410 65.5q-216 0 -407 -65.5t-327.5 -178t-216 -271t-79.5 -337.5q0 -176 79.5 -332t216 -267.5t327.5 -176.5t407 -65zM1233 362q65 135 172.5 353t118.5 241h84l-338 -684h-76l-338 684h82
q39 -74 88 -173.5t110.5 -225t96.5 -195.5z" />
    <glyph glyph-name="W.ss08" 
d="M1225 1546q239 0 449 -71.5t360 -195.5t236.5 -298.5t86.5 -372.5q0 -156 -55 -298t-157.5 -255t-241 -196.5t-313 -128.5t-365.5 -45q-237 0 -446.5 71t-359 193.5t-236.5 294t-87 364.5q0 198 87 372.5t236.5 298.5t359 195.5t446.5 71.5zM1225 -231q174 0 333.5 41
t286 117t220 179t144 232.5t50.5 271.5q0 179 -79 337t-216 271t-329 178.5t-410 65.5q-216 0 -407 -65.5t-327.5 -178t-216 -271t-79.5 -337.5q0 -176 79.5 -332t216 -267.5t327.5 -176.5t407 -65zM1495 371q181 469 231 585h80l-270 -684h-84q-40 96 -77.5 193.5
t-79.5 209.5t-66 173q-153 -407 -223 -576h-84l-271 684h84q133 -324 232 -579l223 579h80q41 -109 225 -585z" />
    <glyph glyph-name="X.ss08" 
d="M1225 1546q239 0 449 -71.5t360 -195.5t236.5 -298.5t86.5 -372.5q0 -156 -55 -298t-157.5 -255t-241 -196.5t-313 -128.5t-365.5 -45q-237 0 -446.5 71t-359 193.5t-236.5 294t-87 364.5q0 198 87 372.5t236.5 298.5t359 195.5t446.5 71.5zM1225 -231q174 0 333.5 41
t286 117t220 179t144 232.5t50.5 271.5q0 179 -79 337t-216 271t-329 178.5t-410 65.5q-216 0 -407 -65.5t-327.5 -178t-216 -271t-79.5 -337.5q0 -176 79.5 -332t216 -267.5t327.5 -176.5t407 -65zM1466 956h90q-170 -201 -284 -331q62 -75 168 -204t123 -149h-88
q-45 53 -128.5 153.5t-119.5 143.5q-96 -119 -244 -297h-90q32 40 79.5 99t93 114.5t118.5 139.5q-33 39 -76.5 88t-87.5 100.5t-119 142.5h90l236 -278q171 202 239 278z" />
    <glyph glyph-name="Y.ss08" 
d="M1225 1546q239 0 449 -71.5t360 -195.5t236.5 -298.5t86.5 -372.5q0 -156 -55 -298t-157.5 -255t-241 -196.5t-313 -128.5t-365.5 -45q-237 0 -446.5 71t-359 193.5t-236.5 294t-87 364.5q0 198 87 372.5t236.5 298.5t359 195.5t446.5 71.5zM1225 -231q174 0 333.5 41
t286 117t220 179t144 232.5t50.5 271.5q0 179 -79 337t-216 271t-329 178.5t-410 65.5q-216 0 -407 -65.5t-327.5 -178t-216 -271t-79.5 -337.5q0 -176 79.5 -332t216 -267.5t327.5 -176.5t407 -65zM1229 592q187 260 264 364h86q-263 -366 -313 -430v-254h-76v254
q-283 389 -313 430h90q47 -66 135.5 -188.5t126.5 -175.5z" />
    <glyph glyph-name="Z.ss08" 
d="M1225 1546q239 0 449 -71.5t360 -195.5t236.5 -298.5t86.5 -372.5q0 -156 -55 -298t-157.5 -255t-241 -196.5t-313 -128.5t-365.5 -45q-237 0 -446.5 71t-359 193.5t-236.5 294t-87 364.5q0 198 87 372.5t236.5 298.5t359 195.5t446.5 71.5zM1225 -231q174 0 333.5 41
t286 117t220 179t144 232.5t50.5 271.5q0 179 -79 337t-216 271t-329 178.5t-410 65.5q-216 0 -407 -65.5t-327.5 -178t-216 -271t-79.5 -337.5q0 -176 79.5 -332t216 -267.5t327.5 -176.5t407 -65zM1552 956v-61q-248 -263 -526 -555h537v-68h-635v64q68 72 184 193.5
t342 361.5h-506v65h604z" />
    <glyph glyph-name="i.loclTRK" horiz-adv-x="589" 
d="M297 1423q-53 0 -89 32.5t-36 78.5q0 43 36 74.5t89 31.5q51 0 87 -31.5t36 -74.5q0 -46 -36 -78.5t-87 -32.5zM362 0h-135v1128h135v-1128z" />
    <glyph glyph-name="a.ss01" horiz-adv-x="1650" 
d="M750 -35q-179 0 -323 76.5t-226 213.5t-82 308q0 174 85 311.5t229.5 212t320.5 74.5q166 0 307.5 -70t224.5 -202h4v239h133v-1128h-133v236h-8q-80 -131 -221 -201t-311 -70zM768 78q144 0 262 65t185 177.5t67 246.5q0 138 -69.5 249t-188 172t-260.5 61
q-216 0 -358 -138t-142 -348q0 -211 143.5 -348t360.5 -137z" />
    <glyph glyph-name="aacute.ss01" horiz-adv-x="1650" 
d="M1255 1671l-372 -393h-121l299 393h194zM750 -35q-179 0 -323 76.5t-226 213.5t-82 308q0 174 85 311.5t229.5 212t320.5 74.5q166 0 307.5 -70t224.5 -202h4v239h133v-1128h-133v236h-8q-80 -131 -221 -201t-311 -70zM768 78q144 0 262 65t185 177.5t67 246.5
q0 138 -69.5 249t-188 172t-260.5 61q-216 0 -358 -138t-142 -348q0 -211 143.5 -348t360.5 -137z" />
    <glyph glyph-name="abreve.ss01" horiz-adv-x="1650" 
d="M827 1276q-204 0 -321 111t-125 284h127q5 -130 93 -210.5t228 -80.5q138 0 227 79t95 212h127q-8 -173 -127 -284t-324 -111zM750 -35q-179 0 -323 76.5t-226 213.5t-82 308q0 174 85 311.5t229.5 212t320.5 74.5q166 0 307.5 -70t224.5 -202h4v239h133v-1128h-133v236
h-8q-80 -131 -221 -201t-311 -70zM768 78q144 0 262 65t185 177.5t67 246.5q0 138 -69.5 249t-188 172t-260.5 61q-216 0 -358 -138t-142 -348q0 -211 143.5 -348t360.5 -137z" />
    <glyph glyph-name="acircumflex.ss01" horiz-adv-x="1650" 
d="M504 1278h-129l356 356h193l356 -356h-129q-199 161 -324 272q-188 -165 -323 -272zM750 -35q-179 0 -323 76.5t-226 213.5t-82 308q0 174 85 311.5t229.5 212t320.5 74.5q166 0 307.5 -70t224.5 -202h4v239h133v-1128h-133v236h-8q-80 -131 -221 -201t-311 -70zM768 78
q144 0 262 65t185 177.5t67 246.5q0 138 -69.5 249t-188 172t-260.5 61q-216 0 -358 -138t-142 -348q0 -211 143.5 -348t360.5 -137z" />
    <glyph glyph-name="adieresis.ss01" horiz-adv-x="1650" 
d="M621 1376q-49 0 -83 31t-34 74q0 40 34 69t83 29t81.5 -29t32.5 -69q0 -43 -32.5 -74t-81.5 -31zM1038 1376q-50 0 -83 30.5t-33 74.5q0 41 33 69.5t83 28.5q47 0 81 -29t34 -69q0 -43 -34 -74t-81 -31zM750 -35q-179 0 -323 76.5t-226 213.5t-82 308q0 174 85 311.5
t229.5 212t320.5 74.5q166 0 307.5 -70t224.5 -202h4v239h133v-1128h-133v236h-8q-80 -131 -221 -201t-311 -70zM768 78q144 0 262 65t185 177.5t67 246.5q0 138 -69.5 249t-188 172t-260.5 61q-216 0 -358 -138t-142 -348q0 -211 143.5 -348t360.5 -137z" />
    <glyph glyph-name="agrave.ss01" horiz-adv-x="1650" 
d="M895 1278h-121l-373 393h195zM750 -35q-179 0 -323 76.5t-226 213.5t-82 308q0 174 85 311.5t229.5 212t320.5 74.5q166 0 307.5 -70t224.5 -202h4v239h133v-1128h-133v236h-8q-80 -131 -221 -201t-311 -70zM768 78q144 0 262 65t185 177.5t67 246.5q0 138 -69.5 249
t-188 172t-260.5 61q-216 0 -358 -138t-142 -348q0 -211 143.5 -348t360.5 -137z" />
    <glyph glyph-name="amacron.ss01" horiz-adv-x="1650" 
d="M1241 1421h-825v105h825v-105zM750 -35q-179 0 -323 76.5t-226 213.5t-82 308q0 174 85 311.5t229.5 212t320.5 74.5q166 0 307.5 -70t224.5 -202h4v239h133v-1128h-133v236h-8q-80 -131 -221 -201t-311 -70zM768 78q144 0 262 65t185 177.5t67 246.5q0 138 -69.5 249
t-188 172t-260.5 61q-216 0 -358 -138t-142 -348q0 -211 143.5 -348t360.5 -137z" />
    <glyph glyph-name="aogonek.ss01" horiz-adv-x="1650" 
d="M1423 -371q44 0 105 15v-93q-63 -14 -117 -14q-134 0 -224.5 63t-90.5 167q0 139 196 233h-2v236h-8q-80 -131 -221 -201t-311 -70q-179 0 -323 76.5t-226 213.5t-82 308q0 174 85 311.5t229.5 212t320.5 74.5q166 0 307.5 -70t224.5 -202h4v239h133v-1128h-8
q-209 -93 -209 -213q0 -72 62.5 -115t154.5 -43zM768 78q144 0 262 65t185 177.5t67 246.5q0 138 -69.5 249t-188 172t-260.5 61q-216 0 -358 -138t-142 -348q0 -211 143.5 -348t360.5 -137z" />
    <glyph glyph-name="aring.ss01" horiz-adv-x="1650" 
d="M829 1247q-116 0 -192 61t-76 156q0 93 76 154t192 61q111 0 187 -61t76 -154q0 -94 -76 -155.5t-187 -61.5zM829 1337q68 0 114 34.5t46 92.5q0 57 -46 91t-114 34q-72 0 -118.5 -34t-46.5 -91q0 -59 46.5 -93t118.5 -34zM750 -35q-179 0 -323 76.5t-226 213.5t-82 308
q0 174 85 311.5t229.5 212t320.5 74.5q166 0 307.5 -70t224.5 -202h4v239h133v-1128h-133v236h-8q-80 -131 -221 -201t-311 -70zM768 78q144 0 262 65t185 177.5t67 246.5q0 138 -69.5 249t-188 172t-260.5 61q-216 0 -358 -138t-142 -348q0 -211 143.5 -348t360.5 -137z
" />
    <glyph glyph-name="atilde.ss01" horiz-adv-x="1650" 
d="M1014 1333q-22 0 -40.5 2t-36 7.5t-29 9t-27.5 13.5t-22.5 14t-24 16.5t-21.5 15.5l-43 31q-36 27 -63 40t-62 13q-57 0 -95 -42t-38 -105h-104q1 108 69 175.5t174 67.5q52 0 91 -17t85 -50l52 -37q75 -57 139 -57q58 0 91.5 41t33.5 106h106q0 -111 -62 -177.5
t-173 -66.5zM750 -35q-179 0 -323 76.5t-226 213.5t-82 308q0 174 85 311.5t229.5 212t320.5 74.5q166 0 307.5 -70t224.5 -202h4v239h133v-1128h-133v236h-8q-80 -131 -221 -201t-311 -70zM768 78q144 0 262 65t185 177.5t67 246.5q0 138 -69.5 249t-188 172t-260.5 61
q-216 0 -358 -138t-142 -348q0 -211 143.5 -348t360.5 -137z" />
    <glyph glyph-name="b.ss01" horiz-adv-x="1388" 
d="M791 -35q-146 0 -258 51.5t-173 149.5h-4v-166h-129v1638h135v-1003h7q63 86 175 131t247 45q229 0 372.5 -122t143.5 -304q0 -180 -144 -300t-372 -120zM786 70q162 0 273.5 90t111.5 227q0 130 -104 224t-281 94q-184 0 -290.5 -92.5t-106.5 -217.5q0 -134 114 -229.5
t283 -95.5z" />
    <glyph glyph-name="d.ss01" horiz-adv-x="1644" 
d="M750 -35q-179 0 -323 76.5t-226 213.5t-82 308q0 174 85 311.5t229.5 212t320.5 74.5q165 0 302.5 -68.5t219.5 -199.5h6v745h135v-1638h-129v236h-6q-80 -130 -221.5 -200.5t-310.5 -70.5zM764 78q141 0 259 60.5t188.5 173t70.5 253.5t-70.5 252.5t-188.5 171.5
t-259 60q-216 0 -358 -138t-142 -348q0 -211 143 -348t357 -137z" />
    <glyph glyph-name="dcaron.ss01" horiz-adv-x="1650" 
d="M1673 1188h-92l148 250q-40 12 -62 39.5t-22 62.5q0 43 35.5 74t86.5 31t87 -31t36 -74q0 -36 -37.5 -95t-179.5 -257zM750 -35q-179 0 -323 76.5t-226 213.5t-82 308q0 174 85 311.5t229.5 212t320.5 74.5q165 0 302.5 -68.5t219.5 -199.5h6v745h135v-1638h-129v236h-6
q-80 -130 -221.5 -200.5t-310.5 -70.5zM764 78q141 0 259 60.5t188.5 173t70.5 253.5t-70.5 252.5t-188.5 171.5t-259 60q-216 0 -358 -138t-142 -348q0 -211 143 -348t357 -137z" />
    <glyph glyph-name="dcroat.ss01" horiz-adv-x="1644" 
d="M1417 1440h322v-105h-322v-1335h-129v236h-6q-80 -130 -221.5 -200.5t-310.5 -70.5q-179 0 -323 76.5t-226 213.5t-82 308q0 174 85 311.5t229.5 212t320.5 74.5q165 0 302.5 -68.5t219.5 -199.5h6v442h-350v105h350v198h135v-198zM764 78q141 0 259 60.5t188.5 173
t70.5 253.5t-70.5 252.5t-188.5 171.5t-259 60q-216 0 -358 -138t-142 -348q0 -211 143 -348t357 -137z" />
    <glyph glyph-name="g.ss01" horiz-adv-x="1644" 
d="M1415 -451h-1212v113h1077v608h-6q-80 -131 -219 -200.5t-307 -69.5q-178 0 -323 77t-226.5 210.5t-81.5 296.5q0 125 49.5 233t134 183t201.5 118t248 43q167 0 308 -70t222 -202h4v239h131v-1579zM762 113q140 0 259.5 61.5t190 171t70.5 242.5q0 132 -71 238.5
t-189.5 164.5t-259.5 58q-215 0 -357.5 -133.5t-142.5 -329.5q0 -200 144 -336.5t356 -136.5z" />
    <glyph glyph-name="gbreve.ss01" horiz-adv-x="1644" 
d="M823 1276q-204 0 -321 111t-125 284h127q5 -130 93 -210.5t228 -80.5q138 0 227 79t95 212h127q-8 -173 -127 -284t-324 -111zM1415 -451h-1212v113h1077v608h-6q-80 -131 -219 -200.5t-307 -69.5q-178 0 -323 77t-226.5 210.5t-81.5 296.5q0 125 49.5 233t134 183
t201.5 118t248 43q167 0 308 -70t222 -202h4v239h131v-1579zM762 113q140 0 259.5 61.5t190 171t70.5 242.5q0 132 -71 238.5t-189.5 164.5t-259.5 58q-215 0 -357.5 -133.5t-142.5 -329.5q0 -200 144 -336.5t356 -136.5z" />
    <glyph glyph-name="uni0123.ss01" horiz-adv-x="1644" 
d="M674 1354q0 39 34 93t177 251h92l-143 -246q38 -10 58.5 -36t20.5 -62q0 -43 -34.5 -73t-85.5 -30q-49 0 -84 30t-35 73zM1415 -451h-1212v113h1077v608h-6q-80 -131 -219 -200.5t-307 -69.5q-178 0 -323 77t-226.5 210.5t-81.5 296.5q0 125 49.5 233t134 183t201.5 118
t248 43q167 0 308 -70t222 -202h4v239h131v-1579zM762 113q140 0 259.5 61.5t190 171t70.5 242.5q0 132 -71 238.5t-189.5 164.5t-259.5 58q-215 0 -357.5 -133.5t-142.5 -329.5q0 -200 144 -336.5t356 -136.5z" />
    <glyph glyph-name="gdotaccent.ss01" horiz-adv-x="1644" 
d="M827 1425q-53 0 -89 32.5t-36 78.5q0 43 36 74.5t89 31.5q51 0 87 -31.5t36 -74.5q0 -46 -36 -78.5t-87 -32.5zM1415 -451h-1212v113h1077v608h-6q-80 -131 -219 -200.5t-307 -69.5q-178 0 -323 77t-226.5 210.5t-81.5 296.5q0 125 49.5 233t134 183t201.5 118t248 43
q167 0 308 -70t222 -202h4v239h131v-1579zM762 113q140 0 259.5 61.5t190 171t70.5 242.5q0 132 -71 238.5t-189.5 164.5t-259.5 58q-215 0 -357.5 -133.5t-142.5 -329.5q0 -200 144 -336.5t356 -136.5z" />
    <glyph glyph-name="i.ss01" horiz-adv-x="827" 
d="M430 1423q-53 0 -89 32.5t-36 78.5q0 43 36 74.5t89 31.5q50 0 85.5 -31.5t35.5 -74.5q0 -46 -35 -78.5t-86 -32.5zM797 0h-432v1016h-340v112h475v-1015h297v-113z" />
    <glyph glyph-name="dotlessi.ss01" horiz-adv-x="827" 
d="M797 0h-432v1016h-340v112h475v-1015h297v-113z" />
    <glyph glyph-name="iacute.ss01" horiz-adv-x="827" 
d="M788 1671l-372 -393h-121l299 393h194zM797 0h-432v1016h-340v112h475v-1015h297v-113z" />
    <glyph glyph-name="icircumflex.ss01" horiz-adv-x="827" 
d="M37 1278h-129l356 356h193l356 -356h-129q-199 161 -324 272q-188 -165 -323 -272zM797 0h-432v1016h-340v112h475v-1015h297v-113z" />
    <glyph glyph-name="idieresis.ss01" horiz-adv-x="827" 
d="M154 1376q-49 0 -83 31t-34 74q0 40 34 69t83 29t81.5 -29t32.5 -69q0 -43 -32.5 -74t-81.5 -31zM571 1376q-50 0 -83 30.5t-33 74.5q0 41 33 69.5t83 28.5q47 0 81 -29t34 -69q0 -43 -34 -74t-81 -31zM797 0h-432v1016h-340v112h475v-1015h297v-113z" />
    <glyph glyph-name="i.loclTRK.ss01" horiz-adv-x="827" 
d="M393 1425q-54 0 -90.5 33t-36.5 80q0 43 36.5 73.5t90.5 30.5q51 0 86 -30.5t35 -73.5q0 -47 -35 -80t-86 -33zM797 0h-432v1016h-340v112h475v-1015h297v-113z" />
    <glyph glyph-name="igrave.ss01" horiz-adv-x="827" 
d="M428 1278h-121l-373 393h195zM797 0h-432v1016h-340v112h475v-1015h297v-113z" />
    <glyph glyph-name="imacron.ss01" horiz-adv-x="827" 
d="M774 1421h-825v105h825v-105zM797 0h-432v1016h-340v112h475v-1015h297v-113z" />
    <glyph glyph-name="iogonek.ss01" horiz-adv-x="827" 
d="M365 1425q-53 0 -89 32.5t-36 78.5q0 43 36 74.5t89 31.5q51 0 86.5 -31.5t35.5 -74.5q0 -46 -35.5 -78.5t-86.5 -32.5zM797 0h-310q-208 -92 -208 -213q0 -72 62.5 -115t154.5 -43q43 0 104 15v-93q-63 -14 -117 -14q-134 0 -224.5 63t-90.5 167q0 139 197 233v1016
h-340v112h475v-1015h297v-113z" />
    <glyph glyph-name="j.ss01" horiz-adv-x="731" 
d="M434 1423q-53 0 -89 32.5t-36 78.5q0 43 36 74.5t89 31.5q51 0 87 -31.5t36 -74.5q0 -46 -36 -78.5t-87 -32.5zM504 -451h-637v113h502v1354h-344v112h479v-1579z" />
    <glyph glyph-name="l.ss01" horiz-adv-x="894" 
d="M887 0h-649v1638h135v-1525h514v-113z" />
    <glyph glyph-name="lacute.ss01" horiz-adv-x="894" 
d="M866 2083l-409 -322h-125l317 322h217zM887 0h-649v1638h135v-1525h514v-113z" />
    <glyph glyph-name="lcaron.ss01" horiz-adv-x="894" 
d="M887 0h-649v1638h135v-1525h514v-113zM684 1178h-92l145 252q-39 10 -60.5 37.5t-21.5 62.5q0 44 36 74t87 30t87 -30t36 -74q0 -36 -37.5 -95t-179.5 -257z" />
    <glyph glyph-name="uni013C.ss01" horiz-adv-x="894" 
d="M887 0h-649v1638h135v-1525h514v-113zM395 -508h-69l112 191q-102 19 -102 98q0 43 34.5 72.5t84.5 29.5q49 0 83.5 -29.5t34.5 -72.5q0 -37 -32.5 -87.5t-145.5 -201.5z" />
    <glyph glyph-name="lslash.ss01" horiz-adv-x="894" 
d="M373 915v-802h514v-113h-649v834l-254 -154v111l254 153v694h135v-612l231 141v-110z" />
    <glyph glyph-name="m.ss01" horiz-adv-x="2498" 
d="M362 0h-135v1128h135v-507l773 507h182v-507l772 507h182v-1128h-135v1012h-14l-805 -527v-485h-135v1012h-15l-805 -527v-485z" />
    <glyph glyph-name="n.ss01" horiz-adv-x="1570" 
d="M362 602l807 526h174v-1128h-135v1004h-14l-832 -521v-483h-135v1128h135v-526z" />
    <glyph glyph-name="nacute.ss01" horiz-adv-x="1570" 
d="M1016 1671h194l-372 -393h-121zM362 602l807 526h174v-1128h-135v1004h-14l-832 -521v-483h-135v1128h135v-526z" />
    <glyph glyph-name="ncaron.ss01" horiz-adv-x="1570" 
d="M1237 1638l-356 -358h-193l-356 358h129q202 -163 323 -270q181 156 324 270h129zM362 602l807 526h174v-1128h-135v1004h-14l-832 -521v-483h-135v1128h135v-526z" />
    <glyph glyph-name="uni0146.ss01" horiz-adv-x="1570" 
d="M362 602l807 526h174v-1128h-135v1004h-14l-832 -521v-483h-135v1128h135v-526zM815 -117q50 0 84.5 -29.5t34.5 -72.5q0 -37 -32.5 -87.5t-145.5 -201.5h-70l113 191q-53 10 -78 36t-25 62q0 43 34.5 72.5t84.5 29.5z" />
    <glyph glyph-name="eng.ss01" horiz-adv-x="1570" 
d="M973 -483q-149 0 -254 57v117q112 -64 231 -64q74 0 125.5 27.5t77 61.5t39 94t15 94.5t1.5 93.5v1006h-14l-832 -521v-483h-135v1128h135v-518l807 518h174v-1142v-1q0 -39 -0.5 -61t-3.5 -65t-9.5 -70t-19 -67t-30.5 -65.5t-46.5 -54.5t-64.5 -46t-86 -28t-110 -11z
" />
    <glyph glyph-name="ntilde.ss01" horiz-adv-x="1570" 
d="M600 1495q-57 0 -95 -42t-38 -105h-105q1 108 69.5 175.5t174.5 67.5q52 0 91 -17t85 -50l52 -37q75 -57 139 -57q59 0 92 41t33 106h106q0 -111 -62 -177.5t-173 -66.5q-22 0 -40.5 2t-36 7.5t-29 9t-27.5 13.5t-22.5 14t-24 16.5t-21.5 15.5l-43 31q-36 27 -63 40
t-62 13zM362 602l807 526h174v-1128h-135v1004h-14l-832 -521v-483h-135v1128h135v-526z" />
    <glyph glyph-name="p.ss01" horiz-adv-x="1646" 
d="M362 -451h-135v1579h131v-243h4q86 137 228 206.5t309 69.5q132 0 248 -44.5t200 -122.5t132.5 -189.5t48.5 -239.5q0 -174 -84.5 -312t-228.5 -213t-320 -75q-170 0 -311 71.5t-222 201.5v-689zM879 78q218 0 360.5 137.5t142.5 347.5q0 211 -144 348.5t-359 137.5
q-139 0 -257 -60.5t-189 -172.5t-71 -253t71 -253t189 -172t257 -60z" />
    <glyph glyph-name="q.ss01" horiz-adv-x="1646" 
d="M1417 -451h-135v691q-81 -131 -222.5 -203t-311.5 -72q-177 0 -321 76.5t-226 213.5t-82 308q0 174 84.5 311.5t228.5 212t320 74.5q167 0 308 -70t222 -202h4v239h131v-1579zM764 78q141 0 259 60.5t188.5 173t70.5 253.5t-70.5 252.5t-188.5 171.5t-259 60
q-216 0 -358 -138t-142 -348t143.5 -347.5t356.5 -137.5z" />
    <glyph glyph-name="r.ss01" horiz-adv-x="974" 
d="M362 0h-135v1128h723v-112h-588v-1016z" />
    <glyph glyph-name="racute.ss01" horiz-adv-x="974" 
d="M915 1671l-372 -393h-121l299 393h194zM362 0h-135v1128h723v-112h-588v-1016z" />
    <glyph glyph-name="rcaron.ss01" horiz-adv-x="974" 
d="M584 1280h-193l-356 358h129q202 -163 323 -270q181 156 324 270h129zM362 0h-135v1128h723v-112h-588v-1016z" />
    <glyph glyph-name="uni0157.ss01" horiz-adv-x="974" 
d="M362 0h-135v1128h723v-112h-588v-1016zM242 -508h-70l113 191q-53 10 -78 36t-25 62q0 43 34.5 72.5t84.5 29.5t84.5 -29.5t34.5 -72.5q0 -37 -32.5 -87.5t-145.5 -201.5z" />
    <glyph glyph-name="s.ss01" horiz-adv-x="1148" 
d="M993 0h-841v115h708v411h-708v602h841v-112h-706v-385h706v-631z" />
    <glyph glyph-name="sacute.ss01" horiz-adv-x="1148" 
d="M965 1671l-373 -393h-121l299 393h195zM993 0h-841v115h708v411h-708v602h841v-112h-706v-385h706v-631z" />
    <glyph glyph-name="scaron.ss01" horiz-adv-x="1148" 
d="M635 1280h-193l-356 358h129q214 -172 324 -270q193 167 323 270h129zM993 0h-841v115h708v411h-708v602h841v-112h-706v-385h706v-631z" />
    <glyph glyph-name="scedilla.ss01" horiz-adv-x="1148" 
d="M993 1128v-112h-706v-385h706v-631h-362l-137 -162q48 19 106 19q96 0 157.5 -45t61.5 -117q0 -82 -75 -133t-189 -51q-85 0 -164.5 30t-132.5 80l61 53q40 -41 102.5 -65.5t127.5 -24.5q70 0 119 30.5t49 76.5q0 44 -43.5 72t-110.5 28q-64 0 -117 -24l-61 49l143 184
h-376v115h708v411h-708v602h841z" />
    <glyph glyph-name="uni0219.ss01" horiz-adv-x="1148" 
d="M993 0h-841v115h708v411h-708v602h841v-112h-706v-385h706v-631zM510 -508h-70l113 191q-102 19 -102 98q0 43 34.5 72.5t83.5 29.5q50 0 84.5 -29.5t34.5 -72.5q0 -37 -32.5 -87.5t-145.5 -201.5z" />
    <glyph glyph-name="t.ss01" horiz-adv-x="933" 
d="M438 1020v-907h467v-113h-602v1020h-270v108h270v338h135v-338h424v-108h-424z" />
    <glyph glyph-name="tbar.ss01" horiz-adv-x="933" 
d="M438 584v-471h467v-113h-602v584h-268v104h268v332h-270v108h270v338h135v-338h424v-108h-424v-332h404v-104h-404z" />
    <glyph glyph-name="tcaron.ss01" horiz-adv-x="933" 
d="M1008 1638q49 0 84.5 -30.5t35.5 -73.5q0 -37 -37.5 -96.5t-179.5 -257.5h-92l148 252q-40 10 -62 37.5t-22 62.5q0 44 36.5 75t88.5 31zM862 1020h-424v-907h467v-113h-602v1020h-270v108h270v338h135v-338h424v-108z" />
    <glyph glyph-name="uni0163.ss01" horiz-adv-x="933" 
d="M905 113v-113h-315l-137 -162q48 19 106 19q96 0 157.5 -45t61.5 -117q0 -82 -75 -133t-189 -51q-85 0 -164.5 30t-132.5 80l62 53q40 -41 102 -65.5t127 -24.5q70 0 119 30.5t49 76.5q0 44 -43.5 72t-110.5 28q-63 0 -116 -24l-62 49l143 184h-184v1020h-270v108h270
v338h135v-338h424v-108h-424v-907h467z" />
    <glyph glyph-name="uni021B.ss01" horiz-adv-x="933" 
d="M438 1020v-907h467v-113h-602v1020h-270v108h270v338h135v-338h424v-108h-424zM530 -117q50 0 84.5 -29.5t34.5 -72.5q0 -37 -32.5 -87.5t-145.5 -201.5h-70l113 191q-102 19 -102 98q0 43 34.5 72.5t83.5 29.5z" />
    <glyph glyph-name="yacute.ss01" horiz-adv-x="1327" 
d="M1094 1671l-373 -393h-121l299 393h195zM641 -451h-139l182 445h-182l-441 1134h140l399 -1003h127l401 1003h140z" />
    <glyph glyph-name="ycircumflex.ss01" horiz-adv-x="1327" 
d="M344 1278h-129l356 356h193l356 -356h-129q-187 151 -323 272q-179 -157 -324 -272zM641 -451h-139l182 445h-182l-441 1134h140l399 -1003h127l401 1003h140z" />
    <glyph glyph-name="ydieresis.ss01" horiz-adv-x="1327" 
d="M459 1376q-49 0 -83 31t-34 74q0 40 34 69t83 29t81.5 -29t32.5 -69q0 -43 -32.5 -74t-81.5 -31zM877 1376q-50 0 -83.5 31t-33.5 74q0 40 33.5 69t83.5 29q47 0 80.5 -29t33.5 -69q0 -43 -33.5 -74t-80.5 -31zM641 -451h-139l182 445h-182l-441 1134h140l399 -1003h127
l401 1003h140z" />
    <glyph glyph-name="ygrave.ss01" horiz-adv-x="1327" 
d="M735 1278h-121l-372 393h194zM641 -451h-139l182 445h-182l-441 1134h140l399 -1003h127l401 1003h140z" />
    <glyph glyph-name="a.ss02" horiz-adv-x="1404" 
d="M547 -35q-187 0 -307.5 75t-120.5 216q0 78 40 138.5t113.5 100.5t156 64.5t189.5 42.5q31 5 84.5 13t82.5 13t72 13.5t66.5 17t52 22t43 30t24.5 39.5t10 51q0 101 -103 177.5t-262 76.5q-142 0 -244 -65.5t-141 -176.5l-135 41q37 103 123.5 174t189 102t215.5 31
q71 0 140 -12.5t135.5 -42t116 -71.5t80 -106.5t30.5 -142.5v-786h-131v244h-6q-70 -128 -197.5 -203.5t-316.5 -75.5zM555 68q107 0 203.5 38.5t159 97.5t99 125.5t36.5 125.5v159q-59 -39 -120 -57t-212 -41q-39 -7 -59.5 -10t-63.5 -12t-69 -16t-65.5 -19.5t-63.5 -25.5
t-53 -31.5t-45 -38.5t-27 -46t-11 -55q0 -88 80.5 -141t210.5 -53z" />
    <glyph glyph-name="aacute.ss02" horiz-adv-x="1404" 
d="M1139 1671l-373 -393h-121l299 393h195zM547 -35q-187 0 -307.5 75t-120.5 216q0 78 40 138.5t113.5 100.5t156 64.5t189.5 42.5q31 5 84.5 13t82.5 13t72 13.5t66.5 17t52 22t43 30t24.5 39.5t10 51q0 101 -103 177.5t-262 76.5q-142 0 -244 -65.5t-141 -176.5l-135 41
q37 103 123.5 174t189 102t215.5 31q71 0 140 -12.5t135.5 -42t116 -71.5t80 -106.5t30.5 -142.5v-786h-131v244h-6q-70 -128 -197.5 -203.5t-316.5 -75.5zM555 68q107 0 203.5 38.5t159 97.5t99 125.5t36.5 125.5v159q-59 -39 -120 -57t-212 -41q-39 -7 -59.5 -10
t-63.5 -12t-69 -16t-65.5 -19.5t-63.5 -25.5t-53 -31.5t-45 -38.5t-27 -46t-11 -55q0 -88 80.5 -141t210.5 -53z" />
    <glyph glyph-name="abreve.ss02" horiz-adv-x="1404" 
d="M711 1276q-204 0 -321.5 111t-125.5 284h127q5 -130 93.5 -210.5t228.5 -80.5q138 0 226.5 78.5t94.5 212.5h127q-8 -173 -126.5 -284t-323.5 -111zM547 -35q-187 0 -307.5 75t-120.5 216q0 78 40 138.5t113.5 100.5t156 64.5t189.5 42.5q31 5 84.5 13t82.5 13t72 13.5
t66.5 17t52 22t43 30t24.5 39.5t10 51q0 101 -103 177.5t-262 76.5q-142 0 -244 -65.5t-141 -176.5l-135 41q37 103 123.5 174t189 102t215.5 31q71 0 140 -12.5t135.5 -42t116 -71.5t80 -106.5t30.5 -142.5v-786h-131v244h-6q-70 -128 -197.5 -203.5t-316.5 -75.5zM555 68
q107 0 203.5 38.5t159 97.5t99 125.5t36.5 125.5v159q-59 -39 -120 -57t-212 -41q-39 -7 -59.5 -10t-63.5 -12t-69 -16t-65.5 -19.5t-63.5 -25.5t-53 -31.5t-45 -38.5t-27 -46t-11 -55q0 -88 80.5 -141t210.5 -53z" />
    <glyph glyph-name="acircumflex.ss02" horiz-adv-x="1171" 
d="M328 1278h-129l356 356h193l356 -356h-131q-241 199 -322 272q-160 -140 -323 -272zM547 -35q-187 0 -307.5 75t-120.5 216q0 78 40 138.5t113.5 100.5t156 64.5t189.5 42.5q31 5 84.5 13t82.5 13t72 13.5t66.5 17t52 22t43 30t24.5 39.5t10 51q0 101 -103 177.5
t-262 76.5q-142 0 -244 -65.5t-141 -176.5l-135 41q37 103 123.5 174t189 102t215.5 31q71 0 140 -12.5t135.5 -42t116 -71.5t80 -106.5t30.5 -142.5v-786h-131v244h-6q-70 -128 -197.5 -203.5t-316.5 -75.5zM555 68q107 0 203.5 38.5t159 97.5t99 125.5t36.5 125.5v159
q-59 -39 -120 -57t-212 -41q-39 -7 -59.5 -10t-63.5 -12t-69 -16t-65.5 -19.5t-63.5 -25.5t-53 -31.5t-45 -38.5t-27 -46t-11 -55q0 -88 80.5 -141t210.5 -53z" />
    <glyph glyph-name="adieresis.ss02" horiz-adv-x="1404" 
d="M504 1376q-49 0 -83 31t-34 74q0 40 34 69t83 29t81.5 -29t32.5 -69q0 -43 -32.5 -74t-81.5 -31zM922 1376q-50 0 -83.5 31t-33.5 74q0 40 33.5 69t83.5 29q47 0 80.5 -29t33.5 -69q0 -43 -33.5 -74t-80.5 -31zM547 -35q-187 0 -307.5 75t-120.5 216q0 78 40 138.5
t113.5 100.5t156 64.5t189.5 42.5q31 5 84.5 13t82.5 13t72 13.5t66.5 17t52 22t43 30t24.5 39.5t10 51q0 101 -103 177.5t-262 76.5q-142 0 -244 -65.5t-141 -176.5l-135 41q37 103 123.5 174t189 102t215.5 31q71 0 140 -12.5t135.5 -42t116 -71.5t80 -106.5t30.5 -142.5
v-786h-131v244h-6q-70 -128 -197.5 -203.5t-316.5 -75.5zM555 68q107 0 203.5 38.5t159 97.5t99 125.5t36.5 125.5v159q-59 -39 -120 -57t-212 -41q-39 -7 -59.5 -10t-63.5 -12t-69 -16t-65.5 -19.5t-63.5 -25.5t-53 -31.5t-45 -38.5t-27 -46t-11 -55q0 -88 80.5 -141
t210.5 -53z" />
    <glyph glyph-name="agrave.ss02" horiz-adv-x="1404" 
d="M778 1278h-121l-372 393h194zM547 -35q-187 0 -307.5 75t-120.5 216q0 78 40 138.5t113.5 100.5t156 64.5t189.5 42.5q31 5 84.5 13t82.5 13t72 13.5t66.5 17t52 22t43 30t24.5 39.5t10 51q0 101 -103 177.5t-262 76.5q-142 0 -244 -65.5t-141 -176.5l-135 41
q37 103 123.5 174t189 102t215.5 31q71 0 140 -12.5t135.5 -42t116 -71.5t80 -106.5t30.5 -142.5v-786h-131v244h-6q-70 -128 -197.5 -203.5t-316.5 -75.5zM555 68q107 0 203.5 38.5t159 97.5t99 125.5t36.5 125.5v159q-59 -39 -120 -57t-212 -41q-39 -7 -59.5 -10
t-63.5 -12t-69 -16t-65.5 -19.5t-63.5 -25.5t-53 -31.5t-45 -38.5t-27 -46t-11 -55q0 -88 80.5 -141t210.5 -53z" />
    <glyph glyph-name="amacron.ss02" horiz-adv-x="1171" 
d="M1139 1440h-826v104h826v-104zM547 -35q-187 0 -307.5 75t-120.5 216q0 78 40 138.5t113.5 100.5t156 64.5t189.5 42.5q31 5 84.5 13t82.5 13t72 13.5t66.5 17t52 22t43 30t24.5 39.5t10 51q0 101 -103 177.5t-262 76.5q-142 0 -244 -65.5t-141 -176.5l-135 41
q37 103 123.5 174t189 102t215.5 31q71 0 140 -12.5t135.5 -42t116 -71.5t80 -106.5t30.5 -142.5v-786h-131v244h-6q-70 -128 -197.5 -203.5t-316.5 -75.5zM555 68q107 0 203.5 38.5t159 97.5t99 125.5t36.5 125.5v159q-59 -39 -120 -57t-212 -41q-39 -7 -59.5 -10
t-63.5 -12t-69 -16t-65.5 -19.5t-63.5 -25.5t-53 -31.5t-45 -38.5t-27 -46t-11 -55q0 -88 80.5 -141t210.5 -53z" />
    <glyph glyph-name="aogonek.ss02" horiz-adv-x="1404" 
d="M1198 -371q44 0 105 15v-93q-63 -14 -117 -14q-135 0 -225.5 63t-90.5 167q0 139 197 233v244h-6q-70 -128 -197.5 -203.5t-316.5 -75.5q-187 0 -307.5 75t-120.5 216q0 78 40 138.5t113.5 100.5t156 64.5t189.5 42.5q31 5 84.5 13t82.5 13t72 13.5t66.5 17t52 22t43 30
t24.5 39.5t10 51q0 101 -103 177.5t-262 76.5q-142 0 -244 -65.5t-141 -176.5l-135 41q37 103 123.5 174t189 102t215.5 31q71 0 140 -12.5t135.5 -42t116 -71.5t80 -106.5t30.5 -142.5v-786h-8q-209 -93 -209 -213q0 -72 62.5 -115t154.5 -43zM1053 455v159
q-59 -39 -120 -57t-212 -41q-39 -7 -59.5 -10t-63.5 -12t-69 -16t-65.5 -19.5t-63.5 -25.5t-53 -31.5t-45 -38.5t-27 -46t-11 -55q0 -88 80.5 -141t210.5 -53q107 0 203.5 38.5t159 97.5t99 125.5t36.5 125.5z" />
    <glyph glyph-name="aring.ss02" horiz-adv-x="1404" 
d="M713 1247q-116 0 -192.5 61t-76.5 156q0 93 76.5 154t192.5 61q111 0 186.5 -61t75.5 -154q0 -94 -75.5 -155.5t-186.5 -61.5zM713 1337q68 0 113.5 34.5t45.5 92.5q0 57 -45.5 91t-113.5 34q-72 0 -119 -34t-47 -91q0 -59 47 -93t119 -34zM547 -35q-187 0 -307.5 75
t-120.5 216q0 78 40 138.5t113.5 100.5t156 64.5t189.5 42.5q31 5 84.5 13t82.5 13t72 13.5t66.5 17t52 22t43 30t24.5 39.5t10 51q0 101 -103 177.5t-262 76.5q-142 0 -244 -65.5t-141 -176.5l-135 41q37 103 123.5 174t189 102t215.5 31q71 0 140 -12.5t135.5 -42
t116 -71.5t80 -106.5t30.5 -142.5v-786h-131v244h-6q-70 -128 -197.5 -203.5t-316.5 -75.5zM555 68q107 0 203.5 38.5t159 97.5t99 125.5t36.5 125.5v159q-59 -39 -120 -57t-212 -41q-39 -7 -59.5 -10t-63.5 -12t-69 -16t-65.5 -19.5t-63.5 -25.5t-53 -31.5t-45 -38.5
t-27 -46t-11 -55q0 -88 80.5 -141t210.5 -53z" />
    </font>
</defs>
</svg>
