<?xml version="1.0" standalone="no"?>
<!DOCTYPE svg PUBLIC "-//W3C//DTD SVG 1.1//EN" "http://www.w3.org/Graphics/SVG/1.1/DTD/svg11.dtd" >
<svg xmlns="http://www.w3.org/2000/svg" xmlns:xlink="http://www.w3.org/1999/xlink" version="1.1">
<metadata>
Created by FontForge 20170731 at Mon Mar 15 14:20:48 2021
 By Aleksey,,,
Copyright (c) 2020 by Matthieu Salvaggio x Blaze Type. All rights reserved.
</metadata>
<defs>
<font id="Area-LightItalicExtended" horiz-adv-x="2457" >
  <font-face 
    font-family="Area Light Italic Extended"
    font-weight="300"
    font-style="italic"
    font-stretch="normal"
    units-per-em="2048"
    panose-1="0 0 4 0 0 0 0 0 0 0"
    ascent="1638"
    descent="-410"
    x-height="1128"
    cap-height="1597"
    bbox="-1870 -508 3283 2148"
    underline-thickness="102"
    underline-position="-307"
    slope="-10"
    unicode-range="U+0020-25CA"
  />
<missing-glyph horiz-adv-x="1753" 
d="M1411 0h-1266l283 1597h1266zM543 1493l-240 -1319l1188 1319h-948zM1526 1384l-1141 -1273h911z" />
    <glyph glyph-name=".notdef" horiz-adv-x="1753" 
d="M1411 0h-1266l283 1597h1266zM543 1493l-240 -1319l1188 1319h-948zM1526 1384l-1141 -1273h911z" />
    <glyph glyph-name=".null" horiz-adv-x="0" 
 />
    <glyph glyph-name="nonmarkingreturn" horiz-adv-x="682" 
 />
    <glyph glyph-name="space" unicode=" " horiz-adv-x="655" 
 />
    <glyph glyph-name="exclam" unicode="!" horiz-adv-x="622" 
d="M322 379h-84l157 1122l15 96h168l-17 -96zM211 -14q-45 0 -76 26.5t-31 65.5q0 49 43.5 86t100.5 37q44 0 73 -26t29 -64q0 -47 -42.5 -86t-96.5 -39z" />
    <glyph glyph-name="quotedbl" unicode="&#x22;" horiz-adv-x="780" 
d="M418 1167h-139l73 430h142zM713 1167h-142l74 430h141z" />
    <glyph glyph-name="numbersign" unicode="#" horiz-adv-x="1667" 
d="M1655 1075l-41 -102h-295l-162 -393h289l-39 -105h-293l-196 -475h-125l196 475h-493l-197 -475h-127l197 475h-283l41 105h285l161 393h-280l41 102h282l215 522h127l-215 -522h494l215 522h125l-215 -522h293zM539 580h493l162 393h-494z" />
    <glyph glyph-name="dollar" unicode="$" horiz-adv-x="1406" 
d="M809 844l4 -2q166 -40 235 -70q195 -85 195 -252q0 -162 -161.5 -280t-401.5 -125l-35 -197h-102l35 199q-174 15 -297 101.5t-158 250.5l129 41q32 -131 125.5 -198.5t220.5 -80.5l90 514q-39 8 -74.5 18.5t-85 28.5t-88.5 43t-75 58t-56 79t-20 99q0 101 70.5 190
t192 144t263.5 59l31 174h102l-30 -178q161 -19 276 -102.5t133 -204.5l-125 -51q-24 96 -103 162.5t-202 83.5zM430 1096q0 -41 18.5 -75t45 -57t67 -43t74 -31t76.5 -22l84 484q-156 -7 -260.5 -80.5t-104.5 -175.5zM786 723l-86 -496q173 6 287.5 84t114.5 187
q0 31 -10.5 58t-26 46.5t-43 37t-50.5 28.5t-60.5 22.5t-61.5 17.5t-64 15z" />
    <glyph glyph-name="percent" unicode="%" horiz-adv-x="1961" 
d="M451 797q-119 0 -190 76.5t-71 207.5q0 82 29.5 162t80.5 142.5t124 100.5t154 38q120 0 190 -78t70 -211q0 -111 -49.5 -211.5t-139.5 -163.5t-198 -63zM276 0h-129l1625 1468h120zM463 889q68 0 127.5 49t94 128t34.5 165q0 93 -40.5 146t-111.5 53q-68 0 -127.5 -49.5
t-94 -128.5t-34.5 -165q0 -94 40 -146t112 -52zM1446 -29q-119 0 -189.5 77t-70.5 208q0 111 49.5 212t139.5 165.5t198 64.5q120 0 190 -77.5t70 -210.5q0 -111 -49.5 -211.5t-139.5 -164t-198 -63.5zM1458 63q68 0 127.5 49.5t94 128.5t34.5 165q0 93 -40 145.5t-111 52.5
q-68 0 -127.5 -49t-94 -128t-34.5 -165q0 -94 39.5 -146.5t111.5 -52.5z" />
    <glyph glyph-name="ampersand" unicode="&#x26;" horiz-adv-x="1644" 
d="M555 -35q-129 0 -235 38t-173 118t-67 188q0 74 37 146t89 124t132 106t138.5 85.5t137.5 69.5q-48 50 -81 89t-70 93t-56.5 109.5t-19.5 109.5q0 105 69 195t185.5 142t251.5 52q176 0 281.5 -86t105.5 -215q0 -135 -124.5 -264t-352.5 -240l377 -387q117 163 196 340
l121 -24q-115 -243 -240 -402l336 -350h-166l-251 252q-273 -289 -621 -289zM733 901q69 35 118.5 63.5t105.5 69t90.5 79.5t57.5 89t23 103q0 100 -68 155.5t-190 55.5q-147 0 -242.5 -76t-95.5 -191q0 -83 52 -164t149 -184zM575 82q289 0 527 256l-412 418
q-58 -27 -88.5 -42t-87 -45.5t-89 -53t-75 -57.5t-65.5 -67t-39.5 -73t-16.5 -84q0 -119 99.5 -185.5t246.5 -66.5z" />
    <glyph glyph-name="quotesingle" unicode="'" horiz-adv-x="487" 
d="M418 1167h-139l73 430h142z" />
    <glyph glyph-name="parenleft" unicode="(" horiz-adv-x="722" 
d="M528 -307h-141q-128 153 -196 341.5t-68 391.5q0 312 158.5 623t441.5 548h141q-277 -237 -433.5 -548.5t-156.5 -628.5q0 -203 65 -390t189 -337z" />
    <glyph glyph-name="parenright" unicode=")" horiz-adv-x="720" 
d="M29 -307h-142q279 238 436.5 550t157.5 627q0 199 -65.5 386t-192.5 341h142q131 -155 197.5 -343.5t66.5 -389.5q0 -309 -157.5 -621t-442.5 -550z" />
    <glyph glyph-name="asterisk" unicode="*" horiz-adv-x="1013" 
d="M635 1024h-100l38 211l-243 -107l-37 76l244 107l-207 106l63 76l207 -107l35 211h100l-37 -211l244 107l35 -76l-240 -106l203 -107l-63 -76l-203 107z" />
    <glyph glyph-name="plus" unicode="+" horiz-adv-x="1181" 
d="M678 682h358l-16 -115h-363l-55 -311h-129l55 311h-360l18 115h361l55 311h131z" />
    <glyph glyph-name="comma" unicode="," horiz-adv-x="516" 
d="M49 -256h-92l190 250q-67 19 -67 84q0 48 42 85.5t101 37.5q43 0 73 -26.5t30 -65.5q0 -38 -48.5 -101.5t-228.5 -263.5z" />
    <glyph glyph-name="hyphen" unicode="-" horiz-adv-x="923" 
d="M786 569h-647l19 109h645z" />
    <glyph glyph-name="period" unicode="." horiz-adv-x="552" 
d="M199 -14q-46 0 -76.5 26t-30.5 66q0 50 42 86.5t99 36.5q44 0 74.5 -26t30.5 -64q0 -47 -42.5 -86t-96.5 -39z" />
    <glyph glyph-name="slash" unicode="/" horiz-adv-x="1013" 
d="M117 -135h-133l981 1773h135z" />
    <glyph glyph-name="zero" unicode="0" horiz-adv-x="1722" 
d="M754 -35q-267 0 -423.5 174t-156.5 473q0 189 67 373t182 326.5t281 230.5t351 88q266 0 421.5 -175.5t155.5 -475.5q0 -151 -41.5 -299.5t-120.5 -276.5t-185 -226.5t-243.5 -155t-287.5 -56.5zM774 88q121 0 231.5 50t194.5 137t147 199t95.5 241.5t32.5 259.5
q0 250 -116.5 391t-320.5 141q-120 0 -230.5 -50t-196 -136.5t-149.5 -198.5t-98 -241t-34 -258q0 -250 119 -392.5t325 -142.5z" />
    <glyph glyph-name="one" unicode="1" horiz-adv-x="929" 
d="M559 0h-145l233 1315q-83 -83 -210.5 -137.5t-280.5 -71.5l18 125q209 28 357 130.5t171 235.5h138z" />
    <glyph glyph-name="two" unicode="2" horiz-adv-x="1509" 
d="M1290 0h-1235v8q27 89 58 157t88 131.5t92 100.5t133 97t144.5 86t187.5 101q15 8 23 12.5t20.5 11t23.5 12.5q44 23 77.5 41t89 52.5t97 65.5t89 74.5t78 86t51 94t20.5 102.5q0 126 -106 203t-283 77q-224 0 -386.5 -122t-197.5 -316l-127 23q42 232 245.5 382
t485.5 150q235 0 376 -105t141 -280q0 -307 -480 -563q-69 -38 -168 -89t-158 -81.5t-133 -76t-121 -86.5t-93 -98.5t-76 -125.5h1063z" />
    <glyph glyph-name="three" unicode="3" horiz-adv-x="1552" 
d="M664 -35q-237 0 -399 100t-193 265l131 57q32 -134 162.5 -218.5t322.5 -84.5q156 0 283.5 55.5t196.5 146t69 193.5q0 134 -119.5 210.5t-351.5 76.5h-188l14 111h211q219 0 365.5 103.5t146.5 254.5q0 129 -108 202.5t-285 73.5q-189 0 -333.5 -84t-197.5 -233l-127 23
q67 188 256.5 300.5t427.5 112.5q143 0 260 -41t188.5 -123t71.5 -192q0 -148 -117.5 -277t-291.5 -170l-2 -2q160 -26 246 -109.5t86 -215.5q0 -102 -54.5 -199t-148.5 -171.5t-231 -119.5t-291 -45z" />
    <glyph glyph-name="four" unicode="4" horiz-adv-x="1581" 
d="M1100 0h-144l70 399h-991l24 133l1180 1065h141l-190 -1079h289l-19 -119h-289zM1208 1417l-1001 -899h840z" />
    <glyph glyph-name="five" unicode="5" horiz-adv-x="1548" 
d="M653 -35q-230 0 -402.5 99.5t-211.5 267.5l129 59q42 -143 181 -226t321 -83q126 0 239.5 40.5t192 107.5t124.5 154t46 179q0 154 -116.5 247t-307.5 93q-151 0 -287 -60t-225 -159l-107 47l375 866h899l-18 -116h-803l-276 -635h4q68 70 199.5 118t281.5 48
q148 0 268 -49.5t193 -148t73 -230.5q0 -117 -59.5 -229.5t-160.5 -198.5t-246.5 -138.5t-305.5 -52.5z" />
    <glyph glyph-name="six" unicode="6" horiz-adv-x="1622" 
d="M735 -35q-275 0 -425 154t-150 436q0 133 36.5 266.5t102.5 252t162 221t209.5 176.5t252 116.5t283.5 42.5q244 0 396 -112l-109 -95q-131 90 -326 90q-148 0 -287 -54.5t-252.5 -153.5t-195 -248.5t-113.5 -329.5h5q77 135 254.5 221t367.5 86q107 0 204.5 -30.5
t175 -86t123.5 -143.5t46 -194q0 -118 -60 -230.5t-160.5 -197t-242.5 -136t-297 -51.5zM758 82q155 0 292 68t217.5 180.5t80.5 238.5q0 156 -123 255.5t-314 99.5q-157 0 -295 -69t-218.5 -180.5t-80.5 -234.5q0 -156 125.5 -257t315.5 -101z" />
    <glyph glyph-name="seven" unicode="7" horiz-adv-x="1427" 
d="M408 0h-148q38 209 203.5 492t415.5 560.5t510 454.5h-1192l18 119h1352l-19 -129q-268 -180 -518.5 -451t-416.5 -550.5t-205 -495.5z" />
    <glyph glyph-name="eight" unicode="8" horiz-adv-x="1591" 
d="M694 -35q-162 0 -293 46.5t-209.5 139.5t-78.5 216q0 161 129 293t329 178v4q-121 44 -184 123.5t-63 185.5q0 124 86.5 234t240.5 177.5t336 67.5q226 0 369 -100.5t143 -261.5q0 -135 -105.5 -253.5t-275.5 -172.5v-4q147 -37 230.5 -129t83.5 -222q0 -104 -57.5 -200
t-155 -166.5t-235 -113t-290.5 -42.5zM854 887q137 0 253.5 51t182.5 134.5t66 176.5q0 121 -108 196t-283 75q-137 0 -252 -47.5t-180.5 -129t-65.5 -176.5q0 -130 110 -205t277 -75zM709 78q123 0 231 34.5t182 92t117 133t43 156.5q0 137 -116 214.5t-322 77.5
q-257 0 -416.5 -109.5t-159.5 -277.5q0 -151 123.5 -236t317.5 -85z" />
    <glyph glyph-name="nine" unicode="9" horiz-adv-x="1654" 
d="M641 -35q-157 0 -302 60t-245 180l111 84q176 -207 448 -207q124 0 233 40t193.5 111t151 169.5t110.5 214t68 245.5h-6q-51 -101 -152 -179t-226.5 -118.5t-254.5 -40.5q-236 0 -389.5 130.5t-153.5 336.5q0 122 58.5 237.5t160 204.5t249.5 143t315 54q128 0 229.5 -33
t178 -100.5t118 -180t41.5 -263.5q0 -153 -42.5 -308.5t-126 -295t-195 -248t-260.5 -172.5t-312 -64zM799 635q121 0 235 46t195.5 120t130.5 171t49 195q0 164 -124 257.5t-310 93.5q-164 0 -303 -72.5t-218 -190.5t-79 -251q0 -170 120.5 -269.5t303.5 -99.5z" />
    <glyph glyph-name="colon" unicode=":" horiz-adv-x="604" 
d="M373 944q-44 0 -74.5 27t-30.5 65q0 50 43 86.5t101 36.5q42 0 72 -25.5t30 -64.5q0 -48 -43 -86.5t-98 -38.5zM203 -14q-45 0 -76 26.5t-31 65.5q0 49 43 86t99 37q45 0 74.5 -25.5t29.5 -64.5q0 -47 -42.5 -86t-96.5 -39z" />
    <glyph glyph-name="semicolon" unicode=";" horiz-adv-x="686" 
d="M428 944q-44 0 -75 27t-31 65q0 50 43.5 86.5t99.5 36.5q44 0 74 -26t30 -64q0 -48 -43 -86.5t-98 -38.5zM121 -258h-94l190 252q-30 9 -47.5 31.5t-17.5 52.5q0 50 42 86.5t99 36.5q46 0 75 -25.5t29 -66.5q0 -38 -48 -102t-228 -265z" />
    <glyph glyph-name="less" unicode="&#x3c;" horiz-adv-x="1228" 
d="M1001 428l-20 -111l-803 242l19 127l890 244l-18 -113l-729 -194z" />
    <glyph glyph-name="equal" unicode="=" horiz-adv-x="1241" 
d="M1085 772h-852l17 115h854zM1016 358h-856l18 113h854z" />
    <glyph glyph-name="greater" unicode="&#x3e;" horiz-adv-x="1228" 
d="M1055 559l-891 -242l18 111l729 195l-661 194l18 113l805 -244z" />
    <glyph glyph-name="question" unicode="?" horiz-adv-x="1280" 
d="M582 373h-133q-3 9 -3 37q0 51 8 92t30 78t45.5 65t70 63t88 61.5t113.5 70.5q39 24 61.5 38.5t64 44.5t67.5 53t58.5 57.5t51 66.5t32 71.5t13.5 79.5q0 123 -100.5 194t-247.5 71q-106 0 -204.5 -38t-171.5 -115.5t-91 -178.5q-6 -46 -4 -68l-125 21q0 34 4 71
q21 121 113.5 218.5t226 150.5t278.5 53q94 0 178.5 -23.5t150 -66.5t104 -111.5t38.5 -152.5q0 -61 -21 -119.5t-61 -109.5t-80.5 -92t-97.5 -81.5t-93 -63.5t-85 -52q-46 -28 -68 -41.5t-58.5 -38.5t-54 -42t-41 -44.5t-34 -53t-18.5 -59.5t-8 -73q0 -21 4 -33zM471 -14
q-45 0 -74.5 26.5t-29.5 65.5q0 48 42 85.5t97 37.5q44 0 74 -26t30 -64q0 -48 -42 -86.5t-97 -38.5z" />
    <glyph glyph-name="at" unicode="@" horiz-adv-x="2359" 
d="M954 -195q-195 0 -354.5 50t-265.5 139.5t-163.5 213t-57.5 269.5q0 141 54.5 284t149.5 269.5t229.5 237.5t289 190.5t334.5 125.5t360 46q172 0 320.5 -43t259 -122.5t174 -202t63.5 -273.5q0 -142 -57 -283t-150 -248t-219.5 -174t-257.5 -67q-133 0 -187 68.5
t-16 171.5q-108 -109 -246.5 -165t-265.5 -56q-156 0 -250 86.5t-94 228.5q0 112 64 229.5t164 208.5t231.5 149t257.5 58q129 0 217 -58t113 -161l75 192h113l-235 -604q-39 -106 -34 -159q8 -97 128 -97q125 0 244.5 96t193.5 250t74 314q0 258 -188.5 409.5t-508.5 151.5
q-162 0 -323.5 -42t-299.5 -114t-257.5 -172.5t-203 -215t-131.5 -243t-48 -254.5q0 -268 197 -424.5t544 -156.5q188 0 369 46.5t326 131.5l51 -82q-174 -100 -381 -149.5t-402 -49.5zM999 338q108 0 213.5 48t181.5 123t123.5 169.5t47.5 183.5q0 109 -67.5 169.5
t-188.5 60.5q-109 0 -214 -47.5t-181.5 -121.5t-123.5 -168t-47 -184q0 -110 67 -171.5t189 -61.5z" />
    <glyph glyph-name="A" unicode="A" horiz-adv-x="1798" 
d="M92 0h-153l1069 1597h151l502 -1597h-152q-102 317 -182 573h-850q-149 -220 -385 -573zM553 694h735q-29 97 -77.5 253.5t-84.5 274.5t-67 226h-4q-39 -60 -217 -325t-285 -429z" />
    <glyph glyph-name="B" unicode="B" horiz-adv-x="1751" 
d="M936 0h-768l283 1597h669q256 0 399.5 -101.5t143.5 -260.5q0 -146 -117.5 -264t-300.5 -156v-4q174 -27 261 -115.5t87 -214.5q0 -94 -51.5 -182t-139 -154t-210 -105.5t-256.5 -39.5zM463 862h514q238 0 385 100t147 240q0 128 -120.5 202.5t-321.5 74.5h-492
q-87 -506 -112 -617zM332 119h573q240 0 387.5 100.5t147.5 243.5q0 130 -120.5 206t-324.5 76h-549q-11 -64 -33 -179t-81 -447z" />
    <glyph glyph-name="C" unicode="C" horiz-adv-x="2066" 
d="M995 -35q-251 0 -439.5 84.5t-291 242t-102.5 367.5q0 124 39.5 246.5t110 229.5t173 198.5t224 157t267.5 102.5t300 37q133 0 255.5 -28.5t227 -83.5t178.5 -145.5t99 -205.5l-140 -49q-54 183 -229.5 286t-411.5 103q-156 0 -301.5 -45.5t-259.5 -125.5t-199.5 -184.5
t-131.5 -228.5t-46 -251q0 -118 39 -216t106.5 -165.5t159.5 -113.5t195 -67.5t215 -21.5q124 0 238.5 26.5t206 72t169.5 109t135 134.5t97 150l123 -43q-52 -96 -121 -180t-162 -156.5t-201 -124.5t-242 -81.5t-280 -29.5z" />
    <glyph glyph-name="D" unicode="D" horiz-adv-x="1980" 
d="M856 0h-688l283 1597h665q393 0 589 -170t196 -475q0 -147 -47 -287.5t-138 -260.5t-216 -210.5t-291.5 -142t-352.5 -51.5zM332 119h559q153 0 290 44t239 120.5t177 178t113.5 220t38.5 242.5q0 277 -176.5 416t-505.5 139h-492q-21 -120 -87 -483t-156 -877z" />
    <glyph glyph-name="E" unicode="E" horiz-adv-x="1613" 
d="M1391 0h-1223l283 1597h1198l-19 -118h-1055q-5 -29 -33 -179.5t-75 -416.5h1006l-19 -121h-1005q-16 -85 -35 -191.5t-82 -445.5h1079z" />
    <glyph glyph-name="F" unicode="F" horiz-adv-x="1529" 
d="M1624 1597l-18 -124h-1033l-106 -605h979l-19 -120h-981l-133 -748h-145l283 1597h1173z" />
    <glyph glyph-name="G" unicode="G" horiz-adv-x="2156" 
d="M981 -35q-247 0 -433 84.5t-287 241t-101 364.5q0 188 86.5 366t233.5 312t355.5 215.5t438.5 81.5q134 0 257 -28.5t227 -84t176.5 -146t97.5 -204.5l-138 -49q-36 123 -130.5 212t-225 133t-285.5 44q-157 0 -302.5 -45.5t-259.5 -125.5t-199.5 -184.5t-131 -228.5
t-45.5 -251q0 -119 39 -217t105.5 -165t157 -113.5t190.5 -67.5t209 -21q315 0 548.5 162.5t299.5 411.5h-693l19 114h838l-138 -776h-123q20 120 66 373h-12q-133 -194 -347.5 -301t-492.5 -107z" />
    <glyph glyph-name="H" unicode="H" horiz-adv-x="1984" 
d="M1628 866l129 731h146l-283 -1597h-145l131 745h-1162l-131 -745h-145l283 1597h145l-129 -731h1161z" />
    <glyph glyph-name="I" unicode="I" horiz-adv-x="679" 
d="M313 0h-145l283 1597h145z" />
    <glyph glyph-name="J" unicode="J" horiz-adv-x="1419" 
d="M543 -35q-71 0 -137 11.5t-129.5 36.5t-111 64.5t-82 96.5t-41.5 132t9 171l8 43l136 17l-7 -35q-20 -95 -4.5 -165.5t49.5 -118.5t89 -78t113 -43t122 -13q79 0 146 19.5t112 48.5t82 75t58 85t38.5 94t24 87t14.5 78l182 1026h144l-174 -987q-35 -194 -87 -307
q-158 -338 -554 -338z" />
    <glyph glyph-name="K" unicode="K" horiz-adv-x="1615" 
d="M313 0h-145l283 1597h145q-112 -625 -156 -874h4q332 263 1143 874h174q-166 -126 -473 -362t-440 -338q399 -532 678 -897h-176q-152 197 -623 799q-51 -38 -158.5 -120.5t-156.5 -119.5q-11 -59 -29.5 -167.5t-69.5 -391.5z" />
    <glyph glyph-name="L" unicode="L" horiz-adv-x="1445" 
d="M596 1597l-260 -1472h1001l-20 -125h-1149l283 1597h145z" />
    <glyph glyph-name="M" unicode="M" horiz-adv-x="2469" 
d="M315 0h-147l283 1597h174q379 -986 536 -1423h4q647 877 1047 1423h174l-283 -1597h-145q31 174 78.5 432t86 472.5t75.5 434.5h-9q-74 -104 -143 -199.5t-119.5 -165t-142.5 -194t-145 -196.5t-197 -267.5t-234 -316.5h-145q-348 909 -500 1339h-8
q-31 -165 -46.5 -252.5t-25 -144t-52.5 -298.5t-116 -644z" />
    <glyph glyph-name="N" unicode="N" horiz-adv-x="2029" 
d="M313 0h-145l283 1597h159q590 -867 936 -1394h6q35 196 119.5 659t132.5 735h142l-283 -1597h-156q-91 134 -426 619.5t-516 758.5h-4q-29 -164 -113.5 -624t-134.5 -754z" />
    <glyph glyph-name="O" unicode="O" horiz-adv-x="2181" 
d="M987 -35q-239 0 -427.5 89.5t-294 250.5t-105.5 365q0 123 41 244.5t114 227t178 196t227 155t266.5 101t293.5 36.5q239 0 427.5 -90t294 -251.5t105.5 -364.5q0 -123 -41.5 -244.5t-115 -226.5t-178.5 -195.5t-227.5 -155t-266.5 -101t-291 -36.5zM1010 88
q184 0 357.5 69t299.5 182t202.5 263.5t76.5 306.5q0 172 -88 308.5t-244.5 213t-353.5 76.5q-181 0 -355 -68.5t-302.5 -180.5t-207 -263t-78.5 -309q0 -173 90.5 -310t248.5 -212.5t354 -75.5z" />
    <glyph glyph-name="P" unicode="P" horiz-adv-x="1634" 
d="M451 1597h663q26 0 51.5 -1t84.5 -9t107.5 -21.5t107 -43.5t99 -70.5t68 -105.5t27.5 -146q0 -110 -51 -212.5t-138.5 -178.5t-214 -122t-268.5 -46h-561l-113 -641h-145zM449 762h509q240 0 393.5 114.5t153.5 290.5q0 153 -115.5 232.5t-324.5 79.5h-492z" />
    <glyph glyph-name="Q" unicode="Q" horiz-adv-x="2185" 
d="M1858 -106l-113 -78q-3 4 -227 270q-251 -121 -529 -121q-240 0 -429 89.5t-294.5 251t-105.5 366.5q0 123 41.5 245t115 227t178.5 195t227.5 154t267 100.5t292.5 36.5q238 0 426.5 -89.5t294.5 -250t106 -362.5q0 -221 -126 -427.5t-345 -344.5q55 -62 220 -262z
M1010 88q222 0 430 100q-47 55 -120.5 139.5t-195.5 227.5l115 78q11 -13 320 -377q184 119 288.5 295.5t104.5 361.5q0 170 -88.5 305.5t-246 212t-355.5 76.5q-183 0 -358 -68.5t-303.5 -180.5t-207 -263t-78.5 -309q0 -181 96.5 -319t253.5 -208.5t345 -70.5z" />
    <glyph glyph-name="R" unicode="R" horiz-adv-x="1699" 
d="M313 0h-145l283 1597h663q160 0 280.5 -42.5t192.5 -133.5t72 -221q0 -100 -43.5 -195.5t-120.5 -170.5t-189.5 -125t-242.5 -60l-2 -2q38 -61 120 -187t150.5 -235.5t136.5 -224.5h-159l-410 643h-471q-16 -85 -34 -191.5t-81 -451.5zM444 760h514q242 0 394.5 115.5
t152.5 289.5q0 153 -115 233.5t-325 80.5h-490q-82 -454 -131 -719z" />
    <glyph glyph-name="S" unicode="S" horiz-adv-x="1574" 
d="M711 -35q-85 0 -165 14.5t-159 49t-141 86.5t-107.5 133.5t-60.5 183.5l139 45q27 -189 169 -290t353 -101q148 0 271.5 49t194.5 132.5t71 181.5q0 49 -19.5 88.5t-50.5 64.5t-76.5 45.5t-89 33t-95.5 26.5q-27 6 -40 10l-172 47q-38 11 -67 19.5t-73 24t-77.5 32.5
t-72 40t-66.5 50.5t-52 60.5t-36.5 74.5t-12.5 87.5q0 76 33.5 148t96.5 131t147 103.5t190.5 69.5t221.5 25q243 0 390.5 -104.5t176.5 -278.5l-135 -49q-30 142 -152.5 226.5t-312.5 84.5q-212 0 -356 -97t-144 -230q0 -40 15.5 -75.5t37 -61.5t57.5 -50t64 -38t70 -29.5
t62.5 -21.5t54.5 -15l176 -49q170 -47 228 -70q197 -78 234 -218q9 -34 9 -73q0 -131 -95.5 -249.5t-265 -192.5t-368.5 -74z" />
    <glyph glyph-name="T" unicode="T" horiz-adv-x="1546" 
d="M745 0h-145q26 149 40 227.5t26 144t63.5 353t134.5 754.5h-667l20 118h1479l-19 -118h-669q-29 -163 -46.5 -266.5t-28 -163t-56.5 -316.5t-132 -733z" />
    <glyph glyph-name="U" unicode="U" horiz-adv-x="1853" 
d="M819 -35q-315 0 -468.5 156t-100.5 454l182 1022h143l-180 -1015q-44 -252 74.5 -375t372.5 -123q255 0 419 125t207 373l183 1015h143l-182 -1022q-24 -135 -85.5 -245t-159 -192.5t-237.5 -127.5t-311 -45z" />
    <glyph glyph-name="V" unicode="V" horiz-adv-x="1800" 
d="M874 0h-153l-502 1597h154q85 -264 252.5 -804t199.5 -643h4q96 144 306 463.5t364.5 552t290.5 431.5h154z" />
    <glyph glyph-name="W" unicode="W" horiz-adv-x="2781" 
d="M750 0h-172l-347 1597h152q221 -965 309 -1427h4q547 972 797 1427h162q23 -112 130.5 -630.5t162.5 -796.5h6q452 809 813 1427h151l-911 -1597h-172q-140 629 -287 1413h-4q-29 -53 -109 -199t-113 -205.5t-102 -185t-113 -204t-107.5 -190t-124 -215.5t-125.5 -214z
" />
    <glyph glyph-name="X" unicode="X" horiz-adv-x="1576" 
d="M100 0h-163q57 57 354 357.5t461 459.5v4q-383 577 -514 776h163q46 -68 128 -195t323 -478h4q489 481 692 673h162q-95 -93 -190.5 -191t-224 -224t-375.5 -361v-4q102 -151 280 -432t246 -385h-164q-56 87 -213.5 333t-247.5 384h-4z" />
    <glyph glyph-name="Y" unicode="Y" horiz-adv-x="1681" 
d="M813 0h-143q10 55 29 169t75 421q-19 36 -220.5 398.5t-322.5 608.5h158l477 -884h4q90 99 144.5 163t86.5 102.5t171 192.5t391 426h154q-114 -127 -421.5 -472.5t-477.5 -534.5z" />
    <glyph glyph-name="Z" unicode="Z" horiz-adv-x="1603" 
d="M1432 0h-1463l23 129q280 253 791.5 709.5t711.5 636.5l2 4h-1214l20 118h1391l-23 -124q-666 -596 -1509 -1344v-4h1290z" />
    <glyph glyph-name="bracketleft" unicode="[" horiz-adv-x="770" 
d="M557 -326h-467l338 1923h469l-18 -110h-334l-301 -1698h331z" />
    <glyph glyph-name="backslash" unicode="\" horiz-adv-x="1005" 
d="M782 -135h-135l-354 1773h133z" />
    <glyph glyph-name="bracketright" unicode="]" horiz-adv-x="772" 
d="M371 -326h-469l18 115h332l305 1698h-334l19 110h467z" />
    <glyph glyph-name="asciicircum" unicode="^" horiz-adv-x="1026" 
d="M371 1055h-133l393 542h141l203 -542h-133l-156 438h-6z" />
    <glyph glyph-name="underscore" unicode="_" horiz-adv-x="1212" 
d="M1044 -221h-1144l18 104h1145z" />
    <glyph glyph-name="a" unicode="a" horiz-adv-x="1404" 
d="M442 -35q-177 0 -278 66t-101 190q0 283 562 381q35 6 96.5 15.5t98 16t86.5 17.5t79.5 25t58.5 34.5t42.5 50t13.5 66.5q0 97 -88.5 162.5t-233.5 65.5q-140 0 -254.5 -66t-173.5 -176l-127 41q55 103 154 174t208 102t224 31q72 0 138 -13t125.5 -42t100.5 -71
t59.5 -106.5t4.5 -142.5l-76 -434q-10 -59 -14.5 -90t-9.5 -80t-3.5 -92.5t7.5 -89.5h-135q-15 119 6 244h-6q-91 -127 -233 -203t-331 -76zM471 68q109 0 212 38.5t175 97t119.5 125t58.5 126.5l29 159q-70 -41 -130.5 -57.5t-217.5 -40.5q-50 -8 -82 -13.5t-91 -19
t-98.5 -27t-88 -35.5t-78 -47t-50 -60.5t-20.5 -75.5q0 -78 70.5 -124t191.5 -46z" />
    <glyph glyph-name="b" unicode="b" horiz-adv-x="1640" 
d="M791 -35q-170 0 -297.5 71.5t-184.5 201.5h-6l-43 -238h-131l289 1638h135l-133 -751q110 135 263.5 204.5t322.5 69.5q239 0 385.5 -135.5t146.5 -355.5q0 -135 -58 -263.5t-156.5 -226t-238.5 -156.5t-294 -59zM793 78q121 0 233 48t191 126.5t126.5 183t47.5 213.5
q0 180 -116.5 290t-307.5 110q-122 0 -236 -48t-196 -126t-131.5 -182.5t-49.5 -213.5q0 -180 124 -290.5t315 -110.5z" />
    <glyph glyph-name="c" unicode="c" horiz-adv-x="1484" 
d="M680 -35q-264 0 -419 134.5t-155 363.5q0 135 59 261.5t160.5 223t250 155t315.5 58.5q87 0 166 -17t151 -52.5t126.5 -99t80.5 -148.5l-143 -45q-32 119 -139.5 184.5t-264.5 65.5q-132 0 -248 -48.5t-195.5 -128.5t-125 -184t-45.5 -213q0 -184 121.5 -290.5
t329.5 -106.5q184 0 328.5 82.5t234.5 218.5l116 -37q-112 -185 -299.5 -281t-404.5 -96z" />
    <glyph glyph-name="d" unicode="d" horiz-adv-x="1644" 
d="M641 -35q-241 0 -388 135.5t-147 358.5q0 135 58.5 263.5t157.5 225t238.5 155t293.5 58.5q166 0 292 -68t185 -198h4l135 743h136l-228 -1286q-22 -128 -25 -209t9 -143h-137q-14 117 4 236h-4q-104 -129 -260 -200t-324 -71zM676 78q164 0 306.5 81t225 212t82.5 276
q0 182 -124 292t-314 110q-123 0 -235 -48.5t-191 -127.5t-125.5 -184t-46.5 -214q0 -178 116 -287.5t306 -109.5z" />
    <glyph glyph-name="e" unicode="e" horiz-adv-x="1515" 
d="M672 -35q-258 0 -412 135t-154 361q0 135 59 262t160.5 224t248 155.5t311.5 58.5q50 0 98 -5.5t100 -19t96.5 -35t87 -53t71 -74t49.5 -97.5t22 -124t-12 -153l-11 -57h-1128q-36 -210 87 -338.5t351 -128.5q181 0 325 83.5t232 215.5l117 -39q-107 -176 -294 -273.5
t-404 -97.5zM281 651h976q15 86 -1 156t-54.5 115t-95 75.5t-118 43t-128.5 12.5q-202 0 -358.5 -110.5t-220.5 -291.5z" />
    <glyph glyph-name="f" unicode="f" horiz-adv-x="839" 
d="M313 0h-135l182 1022h-204l18 106h203l29 156q12 71 25.5 120t43 104t71 88t110.5 55t161 22q150 0 248 -55l-21 -117q-104 64 -227 64q-64 0 -110 -14.5t-71.5 -32.5t-44.5 -59.5t-26 -68t-18 -84.5q-3 -13 -4 -20l-31 -158h412l-19 -106h-407z" />
    <glyph glyph-name="g" unicode="g" horiz-adv-x="1640" 
d="M606 -483q-456 0 -540 331l131 37q29 -121 135 -190.5t291 -69.5q80 0 152 15t142.5 51t125.5 91.5t97 142.5t62 198l27 147h-4q-104 -131 -256 -200.5t-320 -69.5q-235 0 -386.5 132t-151.5 355q0 131 59 254.5t158 215.5t237 148t287 56q167 0 296.5 -70t186.5 -202h6
l43 239h129l-172 -985q-111 -626 -735 -626zM680 113q120 0 233.5 46.5t196 122.5t132.5 176t50 204q0 173 -125 280t-317 107q-120 0 -230.5 -45.5t-189 -120.5t-125.5 -174.5t-47 -204.5q0 -172 117.5 -281.5t304.5 -109.5z" />
    <glyph glyph-name="h" unicode="h" horiz-adv-x="1552" 
d="M264 0h-135l289 1638h135l-129 -731h4q196 254 526 254q77 0 143.5 -14.5t127 -47t97.5 -85t54.5 -129t-2.5 -178.5l-125 -707h-137l117 653q19 106 -0.5 185.5t-69 124t-111.5 65.5t-137 21q-108 0 -204 -36t-163 -95.5t-111 -132.5t-58 -150z" />
    <glyph glyph-name="i" unicode="i" horiz-adv-x="589" 
d="M446 1423q-44 0 -75 27.5t-31 67.5q0 49 43 85.5t102 36.5q45 0 76 -26t31 -64q0 -50 -44.5 -88.5t-101.5 -38.5zM264 0h-135l199 1128h135z" />
    <glyph glyph-name="j" unicode="j" horiz-adv-x="589" 
d="M451 1423q-47 0 -77 27.5t-30 67.5q0 49 43 85.5t100 36.5q45 0 75 -26t30 -64q0 -50 -42 -88.5t-99 -38.5zM-190 -483q-147 0 -244 57l18 117q103 -64 221 -64q42 0 79 9.5t64.5 22.5t52 37.5t40 43.5t30 53t22 53.5t16.5 57t11.5 51t8.5 47.5l199 1126h135l-201 -1142
q-28 -158 -65 -239q-107 -230 -387 -230z" />
    <glyph glyph-name="k" unicode="k" horiz-adv-x="1253" 
d="M1118 1128h168l-590 -442l484 -686h-156l-438 604l-248 -186l-74 -418h-135l289 1638h135l-188 -1065h4q103 76 355.5 263.5t393.5 291.5z" />
    <glyph glyph-name="l" unicode="l" horiz-adv-x="589" 
d="M264 0h-135l289 1638h135z" />
    <glyph glyph-name="m" unicode="m" horiz-adv-x="2488" 
d="M264 0h-135l199 1128h131l-39 -221h4q98 129 237 191.5t289 62.5q70 0 133.5 -14.5t122.5 -45.5t98 -88t48 -134h6q219 282 547 282q60 0 115 -10t107 -32t90 -57t65.5 -85.5t33 -117.5t-7.5 -152l-125 -707h-135l117 653q17 89 4.5 155.5t-40 112.5t-73 74.5t-95.5 41
t-106 12.5q-103 0 -196 -36.5t-158.5 -96t-109 -132.5t-56.5 -149l-110 -635h-138l117 653q19 107 0 186.5t-67 123.5t-109 65t-133 21q-102 0 -194.5 -36.5t-158.5 -96t-109.5 -132.5t-57.5 -149z" />
    <glyph glyph-name="n" unicode="n" horiz-adv-x="1552" 
d="M264 0h-135l199 1128h131l-39 -221h4q99 130 237 192t295 62q78 0 144.5 -14.5t126.5 -47t96.5 -85t53.5 -129t-3 -178.5l-125 -707h-137l117 653q19 106 -0.5 185.5t-69 124t-113.5 65.5t-141 21q-107 0 -202 -36.5t-161 -96t-109.5 -132.5t-57.5 -149z" />
    <glyph glyph-name="o" unicode="o" horiz-adv-x="1579" 
d="M684 -35q-264 0 -421 135.5t-157 364.5q0 133 59 259t161 222.5t251 155.5t318 59q264 0 422 -135.5t158 -363.5q0 -133 -59 -259t-161 -223t-252 -156t-319 -59zM702 78q134 0 252.5 48.5t199 128t127 182.5t46.5 212q0 184 -121 292t-327 108q-134 0 -252 -48.5
t-199 -128t-127.5 -183t-46.5 -212.5q0 -183 121.5 -291t326.5 -108z" />
    <glyph glyph-name="p" unicode="p" horiz-adv-x="1640" 
d="M184 -451h-135l279 1579h131l-43 -243h4q109 136 264 206t322 70q239 0 385.5 -135t146.5 -356q0 -136 -58.5 -264.5t-157 -225.5t-238 -156t-293.5 -59q-169 0 -298.5 72t-187.5 201zM793 78q121 0 232.5 48t190.5 126.5t126 183t47 213.5q0 180 -116 290t-306 110
q-123 0 -237 -48t-196 -126.5t-131 -183t-49 -212.5q0 -179 123 -290t316 -111z" />
    <glyph glyph-name="q" unicode="q" horiz-adv-x="1640" 
d="M1237 -451h-135l121 691q-104 -132 -259 -203.5t-325 -71.5q-239 0 -386 136.5t-147 357.5q0 134 58 262t157 225t239 156t294 59q167 0 295.5 -70t185.5 -202h4l43 239h131zM676 78q164 0 306.5 81t225 212t82.5 276q0 183 -124.5 292.5t-315.5 109.5
q-122 0 -233.5 -48.5t-190.5 -127.5t-125.5 -184t-46.5 -214q0 -178 116.5 -287.5t305.5 -109.5z" />
    <glyph glyph-name="r" unicode="r" horiz-adv-x="997" 
d="M264 0h-135l199 1128h131l-45 -237h10q74 122 210.5 196t287.5 74q88 0 153 -22l-22 -133q-64 28 -170 28q-98 0 -189 -41t-157 -108t-111 -151.5t-61 -172.5z" />
    <glyph glyph-name="s" unicode="s" horiz-adv-x="1196" 
d="M526 -35q-193 0 -328.5 87t-166.5 229l133 38q35 -112 142.5 -179.5t246.5 -67.5q147 0 256 70.5t109 168.5q0 90 -106 135q-43 19 -161 48l-121 30q-29 7 -38.5 9.5t-43.5 12.5t-51 17.5t-49 22t-50 28.5t-41.5 35.5t-36 44t-21.5 52.5t-9 63q0 94 66 175t179.5 129
t244.5 48q170 0 287 -76.5t145 -197.5l-139 -41q-24 89 -107 149t-215 60q-134 0 -225.5 -63t-91.5 -152q0 -39 20 -72t47 -53.5t71 -39t74.5 -27.5t74.5 -19l124 -33q40 -10 57 -14.5t58 -18t62 -25t52.5 -32.5t47.5 -43t28.5 -54t12.5 -69q0 -69 -41 -137t-111 -120.5
t-171.5 -85t-213.5 -32.5z" />
    <glyph glyph-name="t" unicode="t" horiz-adv-x="892" 
d="M492 -35q-63 0 -110 14.5t-75 35.5t-45 55.5t-23.5 64t-5 71.5t4.5 67.5t10 62.5l123 684h-271l17 108h270l59 338h138l-60 -338h422l-16 -108h-422l-119 -651q-6 -30 -8 -43.5t-6 -43.5t-3.5 -45.5t2.5 -41t8.5 -39.5t18.5 -31.5t29 -26.5t42.5 -15.5t57.5 -6.5
q115 0 240 65l-18 -118q-110 -58 -260 -58z" />
    <glyph glyph-name="u" unicode="u" horiz-adv-x="1529" 
d="M590 -35q-73 0 -137.5 14.5t-124.5 47t-96.5 85t-54 129t2.5 179.5l127 708h135l-116 -657q-11 -76 -7.5 -135t26 -102.5t52 -73.5t70.5 -48t82.5 -26t87.5 -8q84 0 161.5 24.5t136 65.5t105 94t74.5 110.5t39 114.5l113 641h135l-137 -776q-39 -214 -17 -352h-139
q-13 131 6 215h-6q-198 -250 -518 -250z" />
    <glyph glyph-name="v" unicode="v" horiz-adv-x="1314" 
d="M629 0h-140l-348 1128h148l295 -981h4l639 981h147z" />
    <glyph glyph-name="w" unicode="w" horiz-adv-x="2215" 
d="M584 0h-138l-299 1128h148l250 -960h6l588 960h141l256 -960h4l584 960h147l-696 -1128h-139q-159 587 -248 979h-4q-269 -456 -600 -979z" />
    <glyph glyph-name="x" unicode="x" horiz-adv-x="1232" 
d="M92 0h-149q275 266 592 567v4l-396 557h158q39 -56 155 -219t179 -254h4q220 207 506 473h153q-524 -494 -589 -557v-4q130 -192 391 -567h-150q-314 449 -338 485h-6q-77 -76 -248.5 -236t-261.5 -249z" />
    <glyph glyph-name="y" unicode="y" horiz-adv-x="1314" 
d="M328 -451h-121l287 439l-353 1140h148q59 -191 167.5 -557t125.5 -424h6q72 111 202 312t236 364t201 305h147z" />
    <glyph glyph-name="z" unicode="z" horiz-adv-x="1171" 
d="M1018 0h-1049l17 92l972 924h-759l18 112h944l-14 -92l-979 -923h866z" />
    <glyph glyph-name="braceleft" unicode="{" horiz-adv-x="870" 
d="M674 -307h-86q-264 0 -357 107.5t-55 334.5l31 170q13 75 16 122.5t-1 79t-21.5 46t-40.5 20t-64 5.5l25 135h30.5t27 2t25 5.5t21.5 9.5t21 16.5t18 25t17.5 34.5t15 46.5t15.5 60t14 74.5l30 168q9 53 20.5 96.5t33 90t49.5 83t71.5 70t98 55t130 34.5t165.5 13h86
l-17 -110h-82q-180 0 -279.5 -66.5t-129.5 -224.5l-39 -205q-32 -169 -77.5 -244t-129.5 -100v-4q49 -14 72.5 -46t30 -104.5t-18.5 -193.5l-37 -205q-7 -49 -8 -92.5t17 -80t52 -63t95.5 -41t148.5 -14.5h82z" />
    <glyph glyph-name="bar" unicode="|" horiz-adv-x="624" 
d="M203 -451h-137l368 2089h137z" />
    <glyph glyph-name="braceright" unicode="}" horiz-adv-x="870" 
d="M-23 -307h-83l14 110h84q188 0 285.5 70.5t123.5 220.5l37 205q29 162 74.5 241t134.5 103v4q-36 12 -58 31.5t-35.5 57.5t-11.5 100.5t19 154.5l37 205q7 40 8 71.5t-5 67t-26.5 61t-54.5 47.5t-92 33t-135 11h-80l14 110h86q263 0 359.5 -106t54.5 -336l-31 -168
q-12 -66 -17 -111t-1.5 -75.5t10.5 -48t26 -26.5t38 -11t53 -2l-23 -135q-67 0 -100 -18.5t-56.5 -74.5t-47.5 -180l-33 -170q-11 -55 -23 -98t-34 -90.5t-50 -83t-71 -69t-97 -54.5t-128.5 -34t-164.5 -13z" />
    <glyph glyph-name="asciitilde" unicode="~" horiz-adv-x="1263" 
d="M825 580q-52 0 -94 14.5t-70 35t-53.5 41.5t-57.5 35.5t-69 14.5q-65 0 -105.5 -40t-51.5 -101h-127q15 81 66 139t114.5 84t132.5 26q50 0 91 -14.5t68.5 -35.5t53 -41.5t56 -35t65.5 -14.5q62 0 99.5 39.5t47.5 101.5h127q-22 -123 -104.5 -186t-188.5 -63z" />
    <glyph glyph-name="uni00A0" unicode="&#xa0;" horiz-adv-x="655" 
 />
    <glyph glyph-name="exclamdown" unicode="&#xa1;" horiz-adv-x="581" 
d="M360 946q-44 0 -74 26.5t-30 63.5q0 48 43.5 86.5t99.5 38.5q43 0 73 -26.5t30 -65.5q0 -49 -42.5 -86t-99.5 -37zM197 -449h-168l16 95l244 1120h82l-158 -1120z" />
    <glyph glyph-name="cent" unicode="&#xa2;" horiz-adv-x="1372" 
d="M856 1126l-141 -794q137 7 247.5 73.5t178.5 169.5l100 -32q-86 -140 -231 -219.5t-314 -87.5l-41 -236h-102l43 240q-187 17 -296.5 125t-109.5 280q0 139 72 264.5t206.5 210t301.5 99.5l43 247h102l-43 -243q142 -7 248 -70t144 -188l-117 -39q-22 87 -99.5 139.5
t-191.5 60.5zM315 659q0 -134 80 -219t217 -104l140 788q-189 -23 -313 -159t-124 -306z" />
    <glyph glyph-name="sterling" unicode="&#xa3;" horiz-adv-x="1447" 
d="M893 1513q-167 0 -279 -82.5t-112 -209.5q0 -51 21 -105t47 -91.5t66.5 -93.5t61.5 -91h523l-19 -103h-457q15 -58 15 -98q0 -145 -128 -285.5t-345 -230.5h983l-21 -123h-1220l18 123q261 81 412 213t151 274q0 59 -28 127h-383l18 103h303q-6 9 -44 62.5t-49.5 73.5
t-34.5 65t-31.5 84t-8.5 83q0 179 159 300.5t404 121.5q55 0 107 -7t108 -23t104 -45.5t88.5 -70.5t67.5 -102t35 -137l-135 -49q-15 88 -54.5 152t-95.5 98.5t-117 50.5t-130 16z" />
    <glyph glyph-name="currency" unicode="&#xa4;" horiz-adv-x="1615" 
d="M1315 883q0 -92 -41.5 -176t-116.5 -146l270 -325l-108 -74l-272 327q-118 -59 -265 -59q-146 0 -241 59l-387 -327l-84 74l387 327q-62 81 -62 195q0 89 40 172.5t112 148.5l-268 328l106 74l274 -326q121 59 267 59t241 -59l385 326l84 -74l-385 -326q64 -83 64 -198z
M524 776q0 -114 74.5 -180t202.5 -66q160 0 271.5 100t111.5 240q0 114 -73.5 179t-199.5 65q-162 0 -274.5 -99.5t-112.5 -238.5z" />
    <glyph glyph-name="yen" unicode="&#xa5;" horiz-adv-x="1742" 
d="M840 0h-146l49 279h-444l16 108h449l37 199h-447l19 108h379l-492 903h158l475 -876h4q89 98 144 161t86.5 100t169.5 189t391 426h153l-813 -903h387l-18 -108h-453l-37 -199h451l-17 -108h-452z" />
    <glyph glyph-name="brokenbar" unicode="&#xa6;" horiz-adv-x="624" 
d="M430 838h-137l141 800h137zM203 -451h-137l139 793h137z" />
    <glyph glyph-name="section" unicode="&#xa7;" horiz-adv-x="1302" 
d="M516 -301q-199 0 -337 96t-165 246l129 35q36 -121 144.5 -197t251.5 -76q140 0 245 70t105 166q0 33 -13.5 59t-31.5 42.5t-54 32.5t-61.5 24t-74.5 22l-21 6l-117 35q-46 14 -80.5 26t-84.5 37.5t-82 53.5t-55.5 72.5t-23.5 95.5q0 103 81.5 189t222.5 122l-2 4
q-78 35 -130.5 93.5t-52.5 142.5q0 143 145 246.5t363 103.5q77 0 142.5 -15.5t124 -49t97 -94.5t50.5 -144l-137 -37q-23 121 -95 178t-206 57q-149 0 -245.5 -62t-96.5 -153q0 -28 10.5 -53.5t24 -43.5t40 -35t45 -27.5t54 -23t52 -17.5t52.5 -15l143 -41
q35 -10 51.5 -15.5t53 -19t56 -25t47.5 -31.5t42.5 -40.5t25.5 -50t11 -63.5q0 -103 -86.5 -197t-218.5 -135l-4 -4q40 -15 71 -33t59.5 -43.5t44 -61.5t15.5 -79q0 -70 -41 -138t-110 -120t-167 -83.5t-206 -31.5zM602 365l66 -19q156 10 250 82.5t94 163.5q0 32 -13 57.5
t-32 42t-52 31t-60 23t-69 19.5q-17 5 -26 7l-94 25q-75 20 -154.5 -7.5t-130.5 -86.5t-51 -125q0 -142 272 -213z" />
    <glyph glyph-name="copyright" unicode="&#xa9;" horiz-adv-x="2336" 
d="M1065 -35q-256 0 -452.5 88.5t-304 249t-107.5 369.5q0 187 90.5 362.5t244 306.5t370 210t454.5 79q256 0 452.5 -87.5t304 -247.5t107.5 -369q0 -187 -90.5 -363t-244 -307.5t-370 -211t-454.5 -79.5zM1083 76q209 0 398 69t323 183t212.5 266.5t78.5 314.5
q0 182 -94.5 321.5t-265.5 215.5t-394 76q-209 0 -398 -69t-322.5 -183t-212 -266.5t-78.5 -315.5q0 -276 207 -444t546 -168zM1141 350q-199 0 -316.5 101t-117.5 272q0 101 44.5 196.5t121.5 168t189 116t238 43.5q157 0 263 -66.5t135 -189.5l-131 -39q-20 93 -96 143
t-191 50q-96 0 -179.5 -36.5t-138 -95t-85.5 -132t-31 -148.5q0 -132 86 -206t233 -74q127 0 233 60t175 169l108 -31q-79 -142 -222.5 -221.5t-317.5 -79.5z" />
    <glyph glyph-name="guillemotleft" unicode="&#xab;" horiz-adv-x="1345" 
d="M641 164h-162l-338 405l2 9l484 405h159l-481 -405l-2 -9zM1102 164h-160l-340 405l4 9l481 405h162l-483 -405l-2 -9z" />
    <glyph glyph-name="logicalnot" unicode="&#xac;" horiz-adv-x="1236" 
d="M991 264h-129l53 309h-722l20 113h850z" />
    <glyph glyph-name="registered" unicode="&#xae;" horiz-adv-x="1409" 
d="M735 739q-208 0 -336.5 106t-128.5 275q0 99 48.5 193t130.5 164.5t198.5 113.5t245.5 43q205 0 335 -105t130 -274q0 -99 -48.5 -193t-131 -165t-199 -114.5t-244.5 -43.5zM750 817q110 0 208 36.5t164.5 96t105 137t38.5 158.5q0 140 -106.5 228t-278.5 88
q-107 0 -204.5 -36t-166.5 -95t-109.5 -138t-40.5 -162q0 -141 107.5 -227t282.5 -86zM674 944h-88l86 494h213q84 0 132 -34t48 -93t-46.5 -109t-117.5 -65l125 -193h-102l-115 184h-102zM745 1366l-26 -168h125q57 0 93 27.5t36 68.5q0 72 -109 72h-119z" />
    <glyph glyph-name="degree" unicode="&#xb0;" horiz-adv-x="940" 
d="M553 1055q-135 0 -218 70.5t-83 183.5q0 135 119 237.5t286 102.5q133 0 218.5 -70t85.5 -182q0 -134 -121 -238t-287 -104zM569 1143q113 0 196 73.5t83 169.5q0 77 -57.5 126t-147.5 49q-113 0 -195.5 -74t-82.5 -168q0 -78 56.5 -127t147.5 -49z" />
    <glyph glyph-name="plusminus" unicode="&#xb1;" horiz-adv-x="1239" 
d="M1085 774l-16 -108h-364l-39 -213h364l-16 -103h-858l18 103h363l38 213h-364l18 108h365l41 250h129l-43 -250h364z" />
    <glyph glyph-name="uni00B2" unicode="&#xb2;" horiz-adv-x="745" 
d="M700 811h-555l2 10q32 116 91.5 173t238.5 149q191 97 191 190q0 44 -38 71.5t-100 27.5q-81 0 -142.5 -46.5t-74.5 -121.5l-100 16q19 107 113 175.5t219 68.5q106 0 172.5 -47.5t66.5 -128.5q0 -136 -200 -242q-29 -15 -77 -39.5t-70.5 -37t-52 -32.5t-47.5 -42
t-32 -50h410z" />
    <glyph glyph-name="uni00B3" unicode="&#xb3;" horiz-adv-x="759" 
d="M418 797q-109 0 -185.5 43.5t-89.5 115.5l105 43q15 -54 61 -85t119 -31q85 0 143 41.5t58 99.5q0 51 -46 78.5t-126 27.5h-82l10 76h90q80 0 135.5 37.5t55.5 93.5q0 45 -41 72t-103 27q-70 0 -122 -32.5t-74 -90.5l-99 20q27 85 118 138t200 53q98 0 166.5 -43.5
t68.5 -114.5q0 -63 -49.5 -118t-120.5 -70q61 -11 99.5 -49t38.5 -93q0 -97 -97.5 -168t-232.5 -71z" />
    <glyph glyph-name="paragraph" unicode="&#xb6;" horiz-adv-x="1720" 
d="M946 -287h-145l166 942h-291q-227 0 -360.5 109t-133.5 295q0 108 50.5 206t140.5 171.5t224 117t292 43.5h389zM1280 -287h-145l331 1884h146z" />
    <glyph glyph-name="periodcentered" unicode="&#xb7;" horiz-adv-x="647" 
d="M336 477q-54 0 -91.5 33t-37.5 80q0 60 52.5 105.5t121.5 45.5q54 0 90.5 -31.5t36.5 -78.5q0 -58 -52.5 -106t-119.5 -48z" />
    <glyph glyph-name="uni00B9" unicode="&#xb9;" horiz-adv-x="514" 
d="M395 811h-110l92 520q-92 -68 -199 -84l17 103q84 18 145 61.5t70 97.5h106z" />
    <glyph glyph-name="guillemotright" unicode="&#xbb;" horiz-adv-x="1345" 
d="M264 164h-162l482 405l2 9l-338 405h162l338 -405l-3 -9zM725 164h-164l486 405l2 9l-340 405h161l340 -405l-4 -9z" />
    <glyph glyph-name="onequarter" unicode="&#xbc;" horiz-adv-x="1538" 
d="M395 811h-110l92 520q-92 -68 -199 -84l17 103q84 18 145 61.5t70 97.5h106zM-31 0h-129l1624 1468h121zM1243 -14h-108l28 159h-413l14 86l496 453h106l-80 -453h117l-14 -86h-117zM1235 551l-361 -320h304z" />
    <glyph glyph-name="onehalf" unicode="&#xbd;" horiz-adv-x="1579" 
d="M395 811h-110l92 520q-92 -68 -199 -84l17 103q84 18 145 61.5t70 97.5h106zM-31 0h-129l1624 1468h121zM1389 -14h-555l2 10q32 116 91 172.5t238 148.5q191 97 191 191q0 44 -37.5 71t-99.5 27q-81 0 -143 -46.5t-75 -121.5l-100 17q19 107 113 175t219 68
q106 0 173 -47.5t67 -128.5q0 -135 -201 -241q-29 -15 -77 -39.5t-70.5 -37t-52 -32.5t-47.5 -42t-32 -50h410z" />
    <glyph glyph-name="threequarters" unicode="&#xbe;" horiz-adv-x="1783" 
d="M418 797q-109 0 -185.5 43.5t-89.5 115.5l105 43q15 -54 61 -85t119 -31q85 0 143 41.5t58 99.5q0 51 -46 78.5t-126 27.5h-82l10 76h90q80 0 135.5 37.5t55.5 93.5q0 45 -41 72t-103 27q-70 0 -122 -32.5t-74 -90.5l-99 20q27 85 118 138t200 53q98 0 166.5 -43.5
t68.5 -114.5q0 -63 -49.5 -118t-120.5 -70q61 -11 99.5 -49t38.5 -93q0 -97 -97.5 -168t-232.5 -71zM215 0h-129l1624 1468h121zM1489 -14h-109l29 159h-414l15 86l495 453h107l-80 -453h117l-15 -86h-116zM1481 551l-361 -320h303z" />
    <glyph glyph-name="questiondown" unicode="&#xbf;" horiz-adv-x="1255" 
d="M768 946q-45 0 -75.5 26.5t-30.5 63.5q0 49 42.5 87t96.5 38q46 0 77 -26t31 -66q0 -48 -42.5 -85.5t-98.5 -37.5zM446 -483q-94 0 -178.5 23.5t-150 67.5t-104 112.5t-38.5 152.5q0 53 18 106t43.5 94.5t69 86t77 73.5t85 64.5t76.5 51t68 40.5q57 33 86.5 51t69 47.5
t58.5 54t38.5 60t25.5 77.5t4 95h131q2 -46 -1 -84t-15 -72t-24.5 -60.5t-38.5 -54.5t-48.5 -48t-63 -47.5t-72 -47t-85.5 -51.5q-49 -29 -87.5 -54t-91 -68t-87.5 -84.5t-60.5 -97t-25.5 -111.5q0 -122 100.5 -192.5t247.5 -70.5q85 0 168 27t151.5 76.5t111 127
t42.5 169.5l123 -21q-1 -109 -55.5 -203.5t-142 -156.5t-198.5 -97.5t-227 -35.5z" />
    <glyph glyph-name="Agrave" unicode="&#xc0;" horiz-adv-x="1798" 
d="M1202 1720h-127l-352 322h217zM92 0h-153l1069 1597h151l502 -1597h-152q-102 317 -182 573h-850q-149 -220 -385 -573zM553 694h735q-29 97 -77.5 253.5t-84.5 274.5t-67 226h-4q-39 -60 -217 -325t-285 -429z" />
    <glyph glyph-name="Aacute" unicode="&#xc1;" horiz-adv-x="1798" 
d="M1602 2042l-463 -322h-127l374 322h216zM92 0h-153l1069 1597h151l502 -1597h-152q-102 317 -182 573h-850q-149 -220 -385 -573zM553 694h735q-29 97 -77.5 253.5t-84.5 274.5t-67 226h-4q-39 -60 -217 -325t-285 -429z" />
    <glyph glyph-name="Acircumflex" unicode="&#xc2;" horiz-adv-x="1798" 
d="M1249 2023l267 -303h-127q-181 162 -244 224q-25 -18 -65 -47t-61.5 -44t-72.5 -49.5t-125 -83.5h-127l369 303h186zM92 0h-153l1069 1597h151l502 -1597h-152q-102 317 -182 573h-850q-149 -220 -385 -573zM553 694h735q-29 97 -77.5 253.5t-84.5 274.5t-67 226h-4
q-39 -60 -217 -325t-285 -429z" />
    <glyph glyph-name="Atilde" unicode="&#xc3;" horiz-adv-x="1798" 
d="M1307 1749q-42 0 -77 12t-54 25.5t-50 40.5l-41 31q-1 1 -12.5 10.5t-14.5 11.5t-13 9t-16 9.5t-15.5 6t-19.5 5t-21 1.5q-60 0 -103 -41.5t-57 -106.5h-104q20 108 100 176t186 68q50 0 87 -17.5t77 -50.5l45 -36q67 -58 127 -58q57 0 98.5 41.5t53.5 106.5h108
q-21 -110 -97 -177t-187 -67zM92 0h-153l1069 1597h151l502 -1597h-152q-102 317 -182 573h-850q-149 -220 -385 -573zM553 694h735q-29 97 -77.5 253.5t-84.5 274.5t-67 226h-4q-39 -60 -217 -325t-285 -429z" />
    <glyph glyph-name="Adieresis" unicode="&#xc4;" horiz-adv-x="1798" 
d="M887 1790q-43 0 -73 25t-30 63q0 46 41 81.5t95 35.5q42 0 70 -24t28 -60q0 -48 -39.5 -84.5t-91.5 -36.5zM1350 1790q-45 0 -75 25t-30 61q0 49 41 84t94 35q43 0 73 -25.5t30 -60.5q0 -45 -40.5 -82t-92.5 -37zM92 0h-153l1069 1597h151l502 -1597h-152
q-102 317 -182 573h-850q-149 -220 -385 -573zM553 694h735q-29 97 -77.5 253.5t-84.5 274.5t-67 226h-4q-39 -60 -217 -325t-285 -429z" />
    <glyph glyph-name="Aring" unicode="&#xc5;" horiz-adv-x="1798" 
d="M1104 1716q-102 0 -166 51.5t-64 133.5q0 100 90.5 173.5t215.5 73.5q103 0 166 -51t63 -133q0 -100 -89 -174t-216 -74zM1120 1806q77 0 131 43.5t54 106.5q0 48 -39.5 75t-100.5 27q-80 0 -133 -42t-53 -105q0 -50 39 -77.5t102 -27.5zM92 0h-153l1069 1597h151
l502 -1597h-152q-102 317 -182 573h-850q-149 -220 -385 -573zM553 694h735q-29 97 -77.5 253.5t-84.5 274.5t-67 226h-4q-39 -60 -217 -325t-285 -429z" />
    <glyph glyph-name="AE" unicode="&#xc6;" horiz-adv-x="2527" 
d="M18 0h-155l1421 1597h1278l-20 -118h-1055q-13 -78 -107 -596h1004l-19 -121h-1005q-84 -454 -117 -637h1079l-20 -125h-1223q14 69 33 180.5t72 390.5h-649q-61 -67 -166.5 -181t-187 -204t-163.5 -186zM631 692h571q15 86 41 225.5t100 561.5h-4q-73 -81 -323 -359.5
t-385 -427.5z" />
    <glyph glyph-name="Ccedilla" unicode="&#xc7;" horiz-adv-x="2066" 
d="M1032 88q124 0 238.5 26.5t206 72t169.5 109t135 134.5t97 150l123 -43q-65 -121 -159 -222t-218 -180.5t-285 -124.5t-342 -45l-129 -127q48 19 105 19q89 0 141.5 -38.5t52.5 -101.5q0 -85 -85 -145.5t-212 -60.5q-80 0 -156.5 29.5t-121.5 80.5l72 53q32 -41 90 -65.5
t120 -24.5q80 0 135.5 35t55.5 86q0 39 -38.5 62.5t-96.5 23.5q-66 0 -123 -24l-51 49l143 153q-339 23 -538 208t-199 482q0 124 39.5 246.5t110 229.5t173 198.5t224 157t267.5 102.5t300 37q133 0 255.5 -28.5t227 -83.5t178.5 -145.5t99 -205.5l-140 -49
q-54 183 -229.5 286t-411.5 103q-156 0 -301.5 -45.5t-259.5 -125.5t-199.5 -184.5t-131.5 -228.5t-46 -251q0 -118 39 -216t106.5 -165.5t159.5 -113.5t195 -67.5t215 -21.5z" />
    <glyph glyph-name="Egrave" unicode="&#xc8;" horiz-adv-x="1613" 
d="M1130 1720h-126l-353 322h217zM1391 0h-1223l283 1597h1198l-19 -118h-1055q-5 -29 -33 -179.5t-75 -416.5h1006l-19 -121h-1005q-16 -85 -35 -191.5t-82 -445.5h1079z" />
    <glyph glyph-name="Eacute" unicode="&#xc9;" horiz-adv-x="1613" 
d="M1530 2042l-463 -322h-127l375 322h215zM1391 0h-1223l283 1597h1198l-19 -118h-1055q-5 -29 -33 -179.5t-75 -416.5h1006l-19 -121h-1005q-16 -85 -35 -191.5t-82 -445.5h1079z" />
    <glyph glyph-name="Ecircumflex" unicode="&#xca;" horiz-adv-x="1613" 
d="M1178 2023l266 -303h-127q-181 162 -244 224q-27 -20 -65.5 -47.5t-60 -43.5t-72.5 -50t-125 -83h-127l368 303h187zM1391 0h-1223l283 1597h1198l-19 -118h-1055q-5 -29 -33 -179.5t-75 -416.5h1006l-19 -121h-1005q-16 -85 -35 -191.5t-82 -445.5h1079z" />
    <glyph glyph-name="Edieresis" unicode="&#xcb;" horiz-adv-x="1613" 
d="M815 1790q-43 0 -72.5 25t-29.5 63q0 46 40.5 81.5t94.5 35.5q42 0 70 -24t28 -60q0 -48 -39.5 -84.5t-91.5 -36.5zM1278 1790q-45 0 -74.5 25t-29.5 61q0 49 41 84t94 35q43 0 72.5 -25.5t29.5 -60.5q0 -45 -40.5 -82t-92.5 -37zM1391 0h-1223l283 1597h1198l-19 -118
h-1055q-5 -29 -33 -179.5t-75 -416.5h1006l-19 -121h-1005q-16 -85 -35 -191.5t-82 -445.5h1079z" />
    <glyph glyph-name="Igrave" unicode="&#xcc;" horiz-adv-x="679" 
d="M645 1720h-127l-352 322h217zM313 0h-145l283 1597h145z" />
    <glyph glyph-name="Iacute" unicode="&#xcd;" horiz-adv-x="679" 
d="M1044 2042l-462 -322h-127l374 322h215zM313 0h-145l283 1597h145z" />
    <glyph glyph-name="Icircumflex" unicode="&#xce;" horiz-adv-x="679" 
d="M692 2023l266 -303h-127q-169 151 -243 224q-25 -18 -65 -47t-61.5 -44t-72.5 -49.5t-125 -83.5h-127l369 303h186zM313 0h-145l283 1597h145z" />
    <glyph glyph-name="Idieresis" unicode="&#xcf;" horiz-adv-x="679" 
d="M330 1790q-43 0 -73 25t-30 63q0 46 40.5 81.5t94.5 35.5q42 0 70.5 -24.5t28.5 -59.5q0 -48 -39.5 -84.5t-91.5 -36.5zM793 1790q-45 0 -75 25t-30 61q0 49 41 84t94 35q43 0 73 -25.5t30 -60.5q0 -45 -40.5 -82t-92.5 -37zM313 0h-145l283 1597h145z" />
    <glyph glyph-name="Eth" unicode="&#xd0;" horiz-adv-x="1980" 
d="M451 1597h665q393 0 589 -170t196 -475q0 -147 -47 -287.5t-138 -260.5t-216 -210.5t-291.5 -142t-352.5 -51.5h-688l131 743h-197l19 109h198zM891 119q153 0 290 44t239 120.5t177 178t113.5 220t38.5 242.5q0 277 -176.5 416t-505.5 139h-492q-86 -481 -114 -627h682
l-19 -109h-682q-12 -64 -27 -151t-39.5 -226.5t-43.5 -246.5h559z" />
    <glyph glyph-name="Ntilde" unicode="&#xd1;" horiz-adv-x="2029" 
d="M1393 1802q-42 0 -77 12t-54 25.5t-50 40.5l-41 31q-1 1 -12.5 10.5t-14.5 11.5t-13 9t-16 9.5t-15.5 6t-19.5 5t-21 1.5q-60 0 -103 -41t-57 -106h-104q20 108 100 175.5t186 67.5q82 0 164 -67l45 -37q67 -58 127 -58q57 0 98.5 41.5t53.5 106.5h108q-21 -110 -97 -177
t-187 -67zM313 0h-145l283 1597h159q590 -867 936 -1394h6q35 196 119.5 659t132.5 735h142l-283 -1597h-156q-91 134 -426 619.5t-516 758.5h-4q-29 -164 -113.5 -624t-134.5 -754z" />
    <glyph glyph-name="Ograve" unicode="&#xd2;" horiz-adv-x="2181" 
d="M1393 1720h-127l-353 322h217zM987 -35q-239 0 -427.5 89.5t-294 250.5t-105.5 365q0 123 41 244.5t114 227t178 196t227 155t266.5 101t293.5 36.5q239 0 427.5 -90t294 -251.5t105.5 -364.5q0 -123 -41.5 -244.5t-115 -226.5t-178.5 -195.5t-227.5 -155t-266.5 -101
t-291 -36.5zM1010 88q184 0 357.5 69t299.5 182t202.5 263.5t76.5 306.5q0 172 -88 308.5t-244.5 213t-353.5 76.5q-181 0 -355 -68.5t-302.5 -180.5t-207 -263t-78.5 -309q0 -173 90.5 -310t248.5 -212.5t354 -75.5z" />
    <glyph glyph-name="Oacute" unicode="&#xd3;" horiz-adv-x="2181" 
d="M1794 2042l-463 -322h-127l375 322h215zM987 -35q-239 0 -427.5 89.5t-294 250.5t-105.5 365q0 123 41 244.5t114 227t178 196t227 155t266.5 101t293.5 36.5q239 0 427.5 -90t294 -251.5t105.5 -364.5q0 -123 -41.5 -244.5t-115 -226.5t-178.5 -195.5t-227.5 -155
t-266.5 -101t-291 -36.5zM1010 88q184 0 357.5 69t299.5 182t202.5 263.5t76.5 306.5q0 172 -88 308.5t-244.5 213t-353.5 76.5q-181 0 -355 -68.5t-302.5 -180.5t-207 -263t-78.5 -309q0 -173 90.5 -310t248.5 -212.5t354 -75.5z" />
    <glyph glyph-name="Ocircumflex" unicode="&#xd4;" horiz-adv-x="2181" 
d="M1440 2023l266 -303h-127q-181 162 -244 224q-27 -20 -65.5 -47.5t-60 -43.5t-72.5 -50t-125 -83h-127l368 303h187zM987 -35q-239 0 -427.5 89.5t-294 250.5t-105.5 365q0 123 41 244.5t114 227t178 196t227 155t266.5 101t293.5 36.5q239 0 427.5 -90t294 -251.5
t105.5 -364.5q0 -123 -41.5 -244.5t-115 -226.5t-178.5 -195.5t-227.5 -155t-266.5 -101t-291 -36.5zM1010 88q184 0 357.5 69t299.5 182t202.5 263.5t76.5 306.5q0 172 -88 308.5t-244.5 213t-353.5 76.5q-181 0 -355 -68.5t-302.5 -180.5t-207 -263t-78.5 -309
q0 -173 90.5 -310t248.5 -212.5t354 -75.5z" />
    <glyph glyph-name="Otilde" unicode="&#xd5;" horiz-adv-x="2181" 
d="M1491 1802q-42 0 -77 12t-53.5 25.5t-49.5 40.5l-41 31q-1 1 -11 9l-12.5 10t-11.5 8.5t-13.5 8.5t-13.5 6.5t-15.5 6t-16 3t-19.5 1.5q-60 0 -103 -41t-57 -106h-104q20 108 100.5 175.5t186.5 67.5q50 0 86.5 -17.5t76.5 -49.5l46 -37q67 -58 127 -58q57 0 98 41.5
t53 106.5h109q-21 -110 -97.5 -177t-187.5 -67zM987 -35q-239 0 -427.5 89.5t-294 250.5t-105.5 365q0 123 41 244.5t114 227t178 196t227 155t266.5 101t293.5 36.5q239 0 427.5 -90t294 -251.5t105.5 -364.5q0 -123 -41.5 -244.5t-115 -226.5t-178.5 -195.5t-227.5 -155
t-266.5 -101t-291 -36.5zM1010 88q184 0 357.5 69t299.5 182t202.5 263.5t76.5 306.5q0 172 -88 308.5t-244.5 213t-353.5 76.5q-181 0 -355 -68.5t-302.5 -180.5t-207 -263t-78.5 -309q0 -173 90.5 -310t248.5 -212.5t354 -75.5z" />
    <glyph glyph-name="Odieresis" unicode="&#xd6;" horiz-adv-x="2181" 
d="M1079 1790q-43 0 -72.5 25t-29.5 63q0 46 40.5 81.5t94.5 35.5q42 0 70 -24t28 -60q0 -48 -39.5 -84.5t-91.5 -36.5zM1542 1790q-45 0 -74.5 25t-29.5 61q0 49 41 84t94 35q43 0 72.5 -25.5t29.5 -60.5q0 -45 -40.5 -82t-92.5 -37zM987 -35q-239 0 -427.5 89.5
t-294 250.5t-105.5 365q0 123 41 244.5t114 227t178 196t227 155t266.5 101t293.5 36.5q239 0 427.5 -90t294 -251.5t105.5 -364.5q0 -123 -41.5 -244.5t-115 -226.5t-178.5 -195.5t-227.5 -155t-266.5 -101t-291 -36.5zM1010 88q184 0 357.5 69t299.5 182t202.5 263.5
t76.5 306.5q0 172 -88 308.5t-244.5 213t-353.5 76.5q-181 0 -355 -68.5t-302.5 -180.5t-207 -263t-78.5 -309q0 -173 90.5 -310t248.5 -212.5t354 -75.5z" />
    <glyph glyph-name="multiply" unicode="&#xd7;" horiz-adv-x="1093" 
d="M471 625l-231 225l106 80l229 -225l297 219l76 -80l-295 -217l226 -228l-105 -80l-227 226l-299 -219l-76 80z" />
    <glyph glyph-name="Oslash" unicode="&#xd8;" horiz-adv-x="2181" 
d="M2075 1661l-215 -217q118 -95 182.5 -228.5t64.5 -291.5q0 -123 -41.5 -244.5t-115 -226.5t-178.5 -195.5t-227.5 -155t-266.5 -101t-291 -36.5q-279 0 -485 121l-152 -152h-160l216 218q-117 95 -181.5 228t-64.5 290q0 123 41 244.5t114 227t178 196t227 155t266.5 101
t293.5 36.5q277 0 483 -121l150 152h162zM317 686q0 -128 51.5 -238t143.5 -190l1147 1149q-176 100 -399 100q-181 0 -355 -68.5t-302.5 -180.5t-207 -263t-78.5 -309zM1010 88q184 0 357.5 69t299.5 182t202.5 263.5t76.5 306.5q0 129 -50.5 239t-142.5 191l-1147 -1149
q175 -102 404 -102z" />
    <glyph glyph-name="Ugrave" unicode="&#xd9;" horiz-adv-x="1853" 
d="M1233 1720h-127l-352 322h217zM819 -35q-315 0 -468.5 156t-100.5 454l182 1022h143l-180 -1015q-44 -252 74.5 -375t372.5 -123q255 0 419 125t207 373l183 1015h143l-182 -1022q-24 -135 -85.5 -245t-159 -192.5t-237.5 -127.5t-311 -45z" />
    <glyph glyph-name="Uacute" unicode="&#xda;" horiz-adv-x="1853" 
d="M1417 2040l-463 -320h-127l375 320h215zM819 -35q-315 0 -468.5 156t-100.5 454l182 1022h143l-180 -1015q-44 -252 74.5 -375t372.5 -123q255 0 419 125t207 373l183 1015h143l-182 -1022q-24 -135 -85.5 -245t-159 -192.5t-237.5 -127.5t-311 -45z" />
    <glyph glyph-name="Ucircumflex" unicode="&#xdb;" horiz-adv-x="1853" 
d="M1280 2023l266 -303h-127q-169 151 -243 224q-25 -18 -65 -47t-61.5 -44t-72.5 -49.5t-125 -83.5h-127l369 303h186zM819 -35q-315 0 -468.5 156t-100.5 454l182 1022h143l-180 -1015q-44 -252 74.5 -375t372.5 -123q255 0 419 125t207 373l183 1015h143l-182 -1022
q-24 -135 -85.5 -245t-159 -192.5t-237.5 -127.5t-311 -45z" />
    <glyph glyph-name="Udieresis" unicode="&#xdc;" horiz-adv-x="1853" 
d="M918 1790q-43 0 -73 25t-30 63q0 46 40.5 81.5t94.5 35.5q42 0 70.5 -24.5t28.5 -59.5q0 -48 -39.5 -84.5t-91.5 -36.5zM1380 1790q-45 0 -74.5 25t-29.5 61q0 49 41 84t94 35q43 0 72.5 -25.5t29.5 -60.5q0 -45 -40.5 -82t-92.5 -37zM819 -35q-315 0 -468.5 156
t-100.5 454l182 1022h143l-180 -1015q-44 -252 74.5 -375t372.5 -123q255 0 419 125t207 373l183 1015h143l-182 -1022q-24 -135 -85.5 -245t-159 -192.5t-237.5 -127.5t-311 -45z" />
    <glyph glyph-name="Yacute" unicode="&#xdd;" horiz-adv-x="1681" 
d="M1520 2040l-463 -320h-125l373 320h215zM813 0h-143q10 55 29 169t75 421q-19 36 -220.5 398.5t-322.5 608.5h158l477 -884h4q90 99 144.5 163t86.5 102.5t171 192.5t391 426h154q-114 -127 -421.5 -472.5t-477.5 -534.5z" />
    <glyph glyph-name="Thorn" unicode="&#xde;" horiz-adv-x="1667" 
d="M313 0h-145l283 1597h145l-51 -284h518q254 0 399.5 -104.5t145.5 -295.5q0 -106 -50 -207t-136.5 -178.5t-213 -124.5t-270.5 -47h-559zM526 1194l-131 -717h510q243 0 398 114.5t155 289.5q0 154 -117 233.5t-325 79.5h-490z" />
    <glyph glyph-name="germandbls" unicode="&#xdf;" horiz-adv-x="1488" 
d="M264 0h-135l209 1176q4 25 9 47.5t17 60.5t27 71.5t41.5 74t59 73.5t79.5 66t102 55t129 35.5t159 13.5q231 0 359 -96t128 -260q0 -166 -119.5 -301.5t-292.5 -161.5v-2q157 -19 245.5 -106t88.5 -222q0 -101 -54 -196.5t-147.5 -168t-229.5 -116t-290 -43.5h-174
l19 106h184q149 0 274.5 56t197 149t71.5 199q0 128 -98 205.5t-259 77.5h-116l16 106h113q94 0 174.5 32.5t134 87t84 124t30.5 143.5q0 128 -86.5 202.5t-263.5 74.5q-100 0 -181.5 -26.5t-131 -65t-85 -90.5t-51 -94.5t-22.5 -84.5z" />
    <glyph glyph-name="agrave" unicode="&#xe0;" horiz-adv-x="1404" 
d="M909 1278h-121l-303 393h195zM442 -35q-177 0 -278 66t-101 190q0 283 562 381q35 6 96.5 15.5t98 16t86.5 17.5t79.5 25t58.5 34.5t42.5 50t13.5 66.5q0 97 -88.5 162.5t-233.5 65.5q-140 0 -254.5 -66t-173.5 -176l-127 41q55 103 154 174t208 102t224 31q72 0 138 -13
t125.5 -42t100.5 -71t59.5 -106.5t4.5 -142.5l-76 -434q-10 -59 -14.5 -90t-9.5 -80t-3.5 -92.5t7.5 -89.5h-135q-15 119 6 244h-6q-91 -127 -233 -203t-331 -76zM471 68q109 0 212 38.5t175 97t119.5 125t58.5 126.5l29 159q-70 -41 -130.5 -57.5t-217.5 -40.5
q-50 -8 -82 -13.5t-91 -19t-98.5 -27t-88 -35.5t-78 -47t-50 -60.5t-20.5 -75.5q0 -78 70.5 -124t191.5 -46z" />
    <glyph glyph-name="aacute" unicode="&#xe1;" horiz-adv-x="1404" 
d="M1337 1671l-442 -393h-121l367 393h196zM442 -35q-177 0 -278 66t-101 190q0 283 562 381q35 6 96.5 15.5t98 16t86.5 17.5t79.5 25t58.5 34.5t42.5 50t13.5 66.5q0 97 -88.5 162.5t-233.5 65.5q-140 0 -254.5 -66t-173.5 -176l-127 41q55 103 154 174t208 102t224 31
q72 0 138 -13t125.5 -42t100.5 -71t59.5 -106.5t4.5 -142.5l-76 -434q-10 -59 -14.5 -90t-9.5 -80t-3.5 -92.5t7.5 -89.5h-135q-15 119 6 244h-6q-91 -127 -233 -203t-331 -76zM471 68q109 0 212 38.5t175 97t119.5 125t58.5 126.5l29 159q-70 -41 -130.5 -57.5
t-217.5 -40.5q-50 -8 -82 -13.5t-91 -19t-98.5 -27t-88 -35.5t-78 -47t-50 -60.5t-20.5 -75.5q0 -78 70.5 -124t191.5 -46z" />
    <glyph glyph-name="acircumflex" unicode="&#xe2;" horiz-adv-x="1404" 
d="M518 1278h-131l422 356h192l293 -356h-129q-23 23 -77 74t-103 100t-92 98q-57 -46 -111 -86t-142.5 -101.5t-121.5 -84.5zM442 -35q-177 0 -278 66t-101 190q0 283 562 381q35 6 96.5 15.5t98 16t86.5 17.5t79.5 25t58.5 34.5t42.5 50t13.5 66.5q0 97 -88.5 162.5
t-233.5 65.5q-140 0 -254.5 -66t-173.5 -176l-127 41q55 103 154 174t208 102t224 31q72 0 138 -13t125.5 -42t100.5 -71t59.5 -106.5t4.5 -142.5l-76 -434q-10 -59 -14.5 -90t-9.5 -80t-3.5 -92.5t7.5 -89.5h-135q-15 119 6 244h-6q-91 -127 -233 -203t-331 -76zM471 68
q109 0 212 38.5t175 97t119.5 125t58.5 126.5l29 159q-70 -41 -130.5 -57.5t-217.5 -40.5q-50 -8 -82 -13.5t-91 -19t-98.5 -27t-88 -35.5t-78 -47t-50 -60.5t-20.5 -75.5q0 -78 70.5 -124t191.5 -46z" />
    <glyph glyph-name="atilde" unicode="&#xe3;" horiz-adv-x="1404" 
d="M1032 1333q-42 0 -77 12t-53.5 25.5t-49.5 40.5l-41 31q-1 1 -11 9l-12.5 10t-11.5 8.5t-13.5 8.5t-13.5 6.5t-15.5 6t-16 3t-19.5 1.5q-60 0 -102.5 -41t-56.5 -106h-105q20 108 100.5 175.5t186.5 67.5q82 0 164 -67l45 -37q66 -57 127 -57q57 0 98 41t53 106h109
q-21 -110 -97.5 -177t-187.5 -67zM442 -35q-177 0 -278 66t-101 190q0 283 562 381q35 6 96.5 15.5t98 16t86.5 17.5t79.5 25t58.5 34.5t42.5 50t13.5 66.5q0 97 -88.5 162.5t-233.5 65.5q-140 0 -254.5 -66t-173.5 -176l-127 41q55 103 154 174t208 102t224 31
q72 0 138 -13t125.5 -42t100.5 -71t59.5 -106.5t4.5 -142.5l-76 -434q-10 -59 -14.5 -90t-9.5 -80t-3.5 -92.5t7.5 -89.5h-135q-15 119 6 244h-6q-91 -127 -233 -203t-331 -76zM471 68q109 0 212 38.5t175 97t119.5 125t58.5 126.5l29 159q-70 -41 -130.5 -57.5
t-217.5 -40.5q-50 -8 -82 -13.5t-91 -19t-98.5 -27t-88 -35.5t-78 -47t-50 -60.5t-20.5 -75.5q0 -78 70.5 -124t191.5 -46z" />
    <glyph glyph-name="adieresis" unicode="&#xe4;" horiz-adv-x="1404" 
d="M651 1376q-43 0 -71.5 25.5t-28.5 62.5q0 45 40.5 80t92.5 35q42 0 70 -24t28 -60q0 -47 -39 -83t-92 -36zM1071 1376q-45 0 -73.5 24.5t-28.5 61.5q0 47 39.5 82t93.5 35q42 0 71 -25t29 -61q0 -44 -40.5 -80.5t-90.5 -36.5zM442 -35q-177 0 -278 66t-101 190
q0 283 562 381q35 6 96.5 15.5t98 16t86.5 17.5t79.5 25t58.5 34.5t42.5 50t13.5 66.5q0 97 -88.5 162.5t-233.5 65.5q-140 0 -254.5 -66t-173.5 -176l-127 41q55 103 154 174t208 102t224 31q72 0 138 -13t125.5 -42t100.5 -71t59.5 -106.5t4.5 -142.5l-76 -434
q-10 -59 -14.5 -90t-9.5 -80t-3.5 -92.5t7.5 -89.5h-135q-15 119 6 244h-6q-91 -127 -233 -203t-331 -76zM471 68q109 0 212 38.5t175 97t119.5 125t58.5 126.5l29 159q-70 -41 -130.5 -57.5t-217.5 -40.5q-50 -8 -82 -13.5t-91 -19t-98.5 -27t-88 -35.5t-78 -47t-50 -60.5
t-20.5 -75.5q0 -78 70.5 -124t191.5 -46z" />
    <glyph glyph-name="aring" unicode="&#xe5;" horiz-adv-x="1404" 
d="M836 1247q-102 0 -166 51.5t-64 133.5q0 101 89 174t216 73q103 0 166.5 -51t63.5 -133q0 -100 -89 -174t-216 -74zM850 1337q78 0 132 43.5t54 106.5q0 48 -39 75t-100 27q-80 0 -133 -42t-53 -105q0 -50 38.5 -77.5t100.5 -27.5zM442 -35q-177 0 -278 66t-101 190
q0 283 562 381q35 6 96.5 15.5t98 16t86.5 17.5t79.5 25t58.5 34.5t42.5 50t13.5 66.5q0 97 -88.5 162.5t-233.5 65.5q-140 0 -254.5 -66t-173.5 -176l-127 41q55 103 154 174t208 102t224 31q72 0 138 -13t125.5 -42t100.5 -71t59.5 -106.5t4.5 -142.5l-76 -434
q-10 -59 -14.5 -90t-9.5 -80t-3.5 -92.5t7.5 -89.5h-135q-15 119 6 244h-6q-91 -127 -233 -203t-331 -76zM471 68q109 0 212 38.5t175 97t119.5 125t58.5 126.5l29 159q-70 -41 -130.5 -57.5t-217.5 -40.5q-50 -8 -82 -13.5t-91 -19t-98.5 -27t-88 -35.5t-78 -47t-50 -60.5
t-20.5 -75.5q0 -78 70.5 -124t191.5 -46z" />
    <glyph glyph-name="ae" unicode="&#xe6;" 
d="M430 -35q-166 0 -266.5 65t-100.5 193q0 67 32.5 124t85.5 97t129 72t152.5 52t166.5 34q31 5 85.5 13.5t86.5 13.5t78 14.5t74 19t59.5 25t49 34t29 45t11.5 58.5q0 98 -88 164t-234 66q-144 0 -257 -67t-171 -175l-129 41q85 151 246.5 229t339.5 78q72 0 139.5 -13.5
t128.5 -41.5t103 -76.5t53 -111.5q106 114 262 178.5t330 64.5q42 0 84 -4t88 -14t87.5 -26t82.5 -39.5t72 -55.5t58 -73.5t39 -93.5t15.5 -115.5t-12.5 -139.5l-8 -49h-1133q-36 -212 87.5 -343.5t352.5 -131.5q182 0 325.5 83t231.5 216l117 -39q-107 -176 -294 -273.5
t-404 -97.5q-135 0 -245 35.5t-188 111.5t-102 183h-4q-94 -144 -266 -237t-379 -93zM1223 653h977q14 86 -2.5 156t-55 114.5t-95 74.5t-117.5 42.5t-128 12.5q-202 0 -359.5 -110.5t-219.5 -289.5zM471 68q108 0 211 38.5t175 97.5t120 125.5t59 125.5l29 161
q-75 -43 -136.5 -59.5t-209.5 -38.5q-510 -71 -510 -276q0 -80 71 -127t191 -47z" />
    <glyph glyph-name="ccedilla" unicode="&#xe7;" horiz-adv-x="1484" 
d="M705 78q184 0 328.5 82.5t234.5 218.5l116 -37q-109 -179 -289 -275t-390 -102l-130 -127q47 19 105 19q89 0 141.5 -38.5t52.5 -101.5q0 -85 -84.5 -145.5t-211.5 -60.5q-80 0 -157 29.5t-122 80.5l72 53q32 -41 90.5 -65.5t120.5 -24.5q80 0 135 35t55 86
q0 39 -38.5 62.5t-96.5 23.5q-66 0 -123 -24l-51 49l143 151q-232 20 -366 152t-134 344q0 135 59 261.5t160.5 223t250 155t315.5 58.5q87 0 166 -17t151 -52.5t126.5 -99t80.5 -148.5l-143 -45q-32 119 -139.5 184.5t-264.5 65.5q-132 0 -248 -48.5t-195.5 -128.5
t-125 -184t-45.5 -213q0 -184 121.5 -290.5t329.5 -106.5z" />
    <glyph glyph-name="egrave" unicode="&#xe8;" horiz-adv-x="1515" 
d="M954 1278h-120l-304 393h195zM672 -35q-258 0 -412 135t-154 361q0 135 59 262t160.5 224t248 155.5t311.5 58.5q50 0 98 -5.5t100 -19t96.5 -35t87 -53t71 -74t49.5 -97.5t22 -124t-12 -153l-11 -57h-1128q-36 -210 87 -338.5t351 -128.5q181 0 325 83.5t232 215.5
l117 -39q-107 -176 -294 -273.5t-404 -97.5zM281 651h976q15 86 -1 156t-54.5 115t-95 75.5t-118 43t-128.5 12.5q-202 0 -358.5 -110.5t-220.5 -291.5z" />
    <glyph glyph-name="eacute" unicode="&#xe9;" horiz-adv-x="1515" 
d="M1384 1671l-442 -393h-121l367 393h196zM672 -35q-258 0 -412 135t-154 361q0 135 59 262t160.5 224t248 155.5t311.5 58.5q50 0 98 -5.5t100 -19t96.5 -35t87 -53t71 -74t49.5 -97.5t22 -124t-12 -153l-11 -57h-1128q-36 -210 87 -338.5t351 -128.5q181 0 325 83.5
t232 215.5l117 -39q-107 -176 -294 -273.5t-404 -97.5zM281 651h976q15 86 -1 156t-54.5 115t-95 75.5t-118 43t-128.5 12.5q-202 0 -358.5 -110.5t-220.5 -291.5z" />
    <glyph glyph-name="ecircumflex" unicode="&#xea;" horiz-adv-x="1515" 
d="M565 1278h-131l422 356h193l292 -356h-129q-23 23 -77 74t-103 100t-92 98q-57 -46 -111 -86t-142.5 -101.5t-121.5 -84.5zM672 -35q-258 0 -412 135t-154 361q0 135 59 262t160.5 224t248 155.5t311.5 58.5q50 0 98 -5.5t100 -19t96.5 -35t87 -53t71 -74t49.5 -97.5
t22 -124t-12 -153l-11 -57h-1128q-36 -210 87 -338.5t351 -128.5q181 0 325 83.5t232 215.5l117 -39q-107 -176 -294 -273.5t-404 -97.5zM281 651h976q15 86 -1 156t-54.5 115t-95 75.5t-118 43t-128.5 12.5q-202 0 -358.5 -110.5t-220.5 -291.5z" />
    <glyph glyph-name="edieresis" unicode="&#xeb;" horiz-adv-x="1515" 
d="M698 1376q-43 0 -71.5 25.5t-28.5 62.5q0 45 40.5 80t92.5 35q42 0 70 -24t28 -60q0 -47 -39 -83t-92 -36zM1118 1376q-45 0 -73.5 24.5t-28.5 61.5q0 47 39.5 82t93.5 35q42 0 71 -25t29 -61q0 -44 -40.5 -80.5t-90.5 -36.5zM672 -35q-258 0 -412 135t-154 361
q0 135 59 262t160.5 224t248 155.5t311.5 58.5q50 0 98 -5.5t100 -19t96.5 -35t87 -53t71 -74t49.5 -97.5t22 -124t-12 -153l-11 -57h-1128q-36 -210 87 -338.5t351 -128.5q181 0 325 83.5t232 215.5l117 -39q-107 -176 -294 -273.5t-404 -97.5zM281 651h976q15 86 -1 156
t-54.5 115t-95 75.5t-118 43t-128.5 12.5q-202 0 -358.5 -110.5t-220.5 -291.5z" />
    <glyph glyph-name="igrave" unicode="&#xec;" horiz-adv-x="589" 
d="M487 1276h-120l-304 393h195zM264 0h-135l199 1128h135z" />
    <glyph glyph-name="iacute" unicode="&#xed;" horiz-adv-x="589" 
d="M918 1669l-443 -393h-121l367 393h197zM264 0h-135l199 1128h135z" />
    <glyph glyph-name="icircumflex" unicode="&#xee;" horiz-adv-x="589" 
d="M96 1276h-131l422 356h193l292 -356h-129q-23 23 -77 74t-103 100t-92 98q-57 -46 -111 -86t-142.5 -101.5t-121.5 -84.5zM264 0h-135l199 1128h135z" />
    <glyph glyph-name="idieresis" unicode="&#xef;" horiz-adv-x="589" 
d="M231 1374q-43 0 -71.5 25.5t-28.5 62.5q0 45 40.5 80t92.5 35q42 0 70 -24t28 -60q0 -47 -39 -83t-92 -36zM651 1374q-45 0 -73.5 24.5t-28.5 61.5q0 47 39.5 82t93.5 35q42 0 71 -25t29 -61q0 -44 -40.5 -80.5t-90.5 -36.5zM264 0h-135l199 1128h135z" />
    <glyph glyph-name="eth" unicode="&#xf0;" horiz-adv-x="1576" 
d="M1401 1575l-262 -117q336 -233 336 -641q0 -132 -34.5 -257t-103 -232.5t-163 -188.5t-223 -127.5t-275.5 -46.5q-258 0 -417 133.5t-159 350.5q0 127 60 247.5t162 212.5t246.5 147.5t303.5 55.5q151 0 258 -52.5t185 -166.5h6q-19 160 -97.5 283.5t-228.5 218.5
l-403 -178l-37 73l350 156q-132 70 -336 131l52 106q267 -74 434 -172l307 138zM690 76q126 0 240 45.5t193.5 120t126 173.5t46.5 203q0 175 -122 280.5t-316 105.5q-124 0 -237 -45t-194 -119t-129 -173t-48 -204q0 -171 120 -279t320 -108z" />
    <glyph glyph-name="ntilde" unicode="&#xf1;" horiz-adv-x="1552" 
d="M1090 1333q-42 0 -77 12t-54 25.5t-50 40.5l-41 31q-1 1 -12.5 10.5t-14.5 11.5t-13 9t-16 9.5t-15.5 6t-19.5 5t-21 1.5q-60 0 -103 -41t-57 -106h-104q20 108 100 175.5t186 67.5q82 0 164 -67l45 -37q66 -57 127 -57q57 0 98.5 41t53.5 106h108q-21 -110 -97 -177
t-187 -67zM264 0h-135l199 1128h131l-39 -221h4q99 130 237 192t295 62q78 0 144.5 -14.5t126.5 -47t96.5 -85t53.5 -129t-3 -178.5l-125 -707h-137l117 653q19 106 -0.5 185.5t-69 124t-113.5 65.5t-141 21q-107 0 -202 -36.5t-161 -96t-109.5 -132.5t-57.5 -149z" />
    <glyph glyph-name="ograve" unicode="&#xf2;" horiz-adv-x="1579" 
d="M981 1278h-121l-303 393h195zM684 -35q-264 0 -421 135.5t-157 364.5q0 133 59 259t161 222.5t251 155.5t318 59q264 0 422 -135.5t158 -363.5q0 -133 -59 -259t-161 -223t-252 -156t-319 -59zM702 78q134 0 252.5 48.5t199 128t127 182.5t46.5 212q0 184 -121 292
t-327 108q-134 0 -252 -48.5t-199 -128t-127.5 -183t-46.5 -212.5q0 -183 121.5 -291t326.5 -108z" />
    <glyph glyph-name="oacute" unicode="&#xf3;" horiz-adv-x="1579" 
d="M1411 1671l-442 -393h-121l366 393h197zM684 -35q-264 0 -421 135.5t-157 364.5q0 133 59 259t161 222.5t251 155.5t318 59q264 0 422 -135.5t158 -363.5q0 -133 -59 -259t-161 -223t-252 -156t-319 -59zM702 78q134 0 252.5 48.5t199 128t127 182.5t46.5 212
q0 184 -121 292t-327 108q-134 0 -252 -48.5t-199 -128t-127.5 -183t-46.5 -212.5q0 -183 121.5 -291t326.5 -108z" />
    <glyph glyph-name="ocircumflex" unicode="&#xf4;" horiz-adv-x="1579" 
d="M590 1278h-131l422 356h192l293 -356h-129q-23 23 -77 74t-103 100t-92 98q-57 -46 -111 -86t-142.5 -101.5t-121.5 -84.5zM684 -35q-264 0 -421 135.5t-157 364.5q0 133 59 259t161 222.5t251 155.5t318 59q264 0 422 -135.5t158 -363.5q0 -133 -59 -259t-161 -223
t-252 -156t-319 -59zM702 78q134 0 252.5 48.5t199 128t127 182.5t46.5 212q0 184 -121 292t-327 108q-134 0 -252 -48.5t-199 -128t-127.5 -183t-46.5 -212.5q0 -183 121.5 -291t326.5 -108z" />
    <glyph glyph-name="otilde" unicode="&#xf5;" horiz-adv-x="1579" 
d="M1106 1333q-42 0 -77 12t-53.5 25.5t-49.5 40.5l-41 31q-1 1 -11 9l-12.5 10t-11.5 8.5t-13.5 8.5t-13.5 6.5t-15.5 6t-16 3t-19.5 1.5q-60 0 -103 -41t-57 -106h-104q20 108 100.5 175.5t186.5 67.5q50 0 86.5 -17.5t76.5 -49.5l46 -37q66 -57 126 -57q57 0 98.5 41
t53.5 106h109q-21 -110 -97.5 -177t-187.5 -67zM684 -35q-264 0 -421 135.5t-157 364.5q0 133 59 259t161 222.5t251 155.5t318 59q264 0 422 -135.5t158 -363.5q0 -133 -59 -259t-161 -223t-252 -156t-319 -59zM702 78q134 0 252.5 48.5t199 128t127 182.5t46.5 212
q0 184 -121 292t-327 108q-134 0 -252 -48.5t-199 -128t-127.5 -183t-46.5 -212.5q0 -183 121.5 -291t326.5 -108z" />
    <glyph glyph-name="odieresis" unicode="&#xf6;" horiz-adv-x="1579" 
d="M725 1376q-43 0 -71.5 25.5t-28.5 62.5q0 45 40.5 80t92.5 35q42 0 70 -24t28 -60q0 -47 -39 -83t-92 -36zM1145 1376q-45 0 -74 24.5t-29 61.5q0 47 40 82t94 35q42 0 71 -25t29 -61q0 -44 -40.5 -80.5t-90.5 -36.5zM684 -35q-264 0 -421 135.5t-157 364.5q0 133 59 259
t161 222.5t251 155.5t318 59q264 0 422 -135.5t158 -363.5q0 -133 -59 -259t-161 -223t-252 -156t-319 -59zM702 78q134 0 252.5 48.5t199 128t127 182.5t46.5 212q0 184 -121 292t-327 108q-134 0 -252 -48.5t-199 -128t-127.5 -183t-46.5 -212.5q0 -183 121.5 -291
t326.5 -108z" />
    <glyph glyph-name="divide" unicode="&#xf7;" horiz-adv-x="1228" 
d="M666 823q-44 0 -73.5 26.5t-29.5 63.5q0 46 41.5 81.5t97.5 35.5q44 0 74.5 -25.5t30.5 -60.5q0 -46 -43 -83.5t-98 -37.5zM1047 569h-861l21 113h858zM563 219q-45 0 -73.5 25.5t-28.5 62.5q0 47 41.5 83t95.5 36q43 0 72.5 -25.5t29.5 -60.5q0 -47 -42 -84t-95 -37z
" />
    <glyph glyph-name="oslash" unicode="&#xf8;" horiz-adv-x="1579" 
d="M1524 1182l-187 -176q138 -132 138 -344q0 -133 -59 -259t-161 -223t-252 -156t-319 -59q-211 0 -356 88l-117 -108h-154l187 174q-138 135 -138 346q0 133 59 259t161 222.5t251 155.5t318 59q212 0 362 -92l119 113h148zM254 477q0 -156 92 -262l811 762
q-110 72 -278 72q-134 0 -252 -48.5t-199 -128t-127.5 -183t-46.5 -212.5zM702 78q134 0 252.5 48.5t199 128t127 182.5t46.5 212q0 155 -90 262l-811 -764q113 -69 276 -69z" />
    <glyph glyph-name="ugrave" unicode="&#xf9;" horiz-adv-x="1529" 
d="M932 1278h-121l-303 393h194zM590 -35q-73 0 -137.5 14.5t-124.5 47t-96.5 85t-54 129t2.5 179.5l127 708h135l-116 -657q-11 -76 -7.5 -135t26 -102.5t52 -73.5t70.5 -48t82.5 -26t87.5 -8q84 0 161.5 24.5t136 65.5t105 94t74.5 110.5t39 114.5l113 641h135l-137 -776
q-39 -214 -17 -352h-139q-13 131 6 215h-6q-198 -250 -518 -250z" />
    <glyph glyph-name="uacute" unicode="&#xfa;" horiz-adv-x="1529" 
d="M1360 1671l-442 -393h-121l366 393h197zM590 -35q-73 0 -137.5 14.5t-124.5 47t-96.5 85t-54 129t2.5 179.5l127 708h135l-116 -657q-11 -76 -7.5 -135t26 -102.5t52 -73.5t70.5 -48t82.5 -26t87.5 -8q84 0 161.5 24.5t136 65.5t105 94t74.5 110.5t39 114.5l113 641h135
l-137 -776q-39 -214 -17 -352h-139q-13 131 6 215h-6q-198 -250 -518 -250z" />
    <glyph glyph-name="ucircumflex" unicode="&#xfb;" horiz-adv-x="1529" 
d="M541 1278h-131l421 356h193l293 -356h-129q-23 23 -77 73.5t-103.5 100t-92.5 98.5q-44 -36 -93.5 -73t-85 -62t-97.5 -68t-98 -69zM590 -35q-73 0 -137.5 14.5t-124.5 47t-96.5 85t-54 129t2.5 179.5l127 708h135l-116 -657q-11 -76 -7.5 -135t26 -102.5t52 -73.5
t70.5 -48t82.5 -26t87.5 -8q84 0 161.5 24.5t136 65.5t105 94t74.5 110.5t39 114.5l113 641h135l-137 -776q-39 -214 -17 -352h-139q-13 131 6 215h-6q-198 -250 -518 -250z" />
    <glyph glyph-name="udieresis" unicode="&#xfc;" horiz-adv-x="1529" 
d="M674 1376q-43 0 -72 25.5t-29 62.5q0 44 41 79.5t93 35.5q42 0 70 -24t28 -60q0 -47 -39 -83t-92 -36zM1094 1376q-45 0 -74 24.5t-29 61.5q0 47 39.5 82t93.5 35q42 0 71.5 -25t29.5 -61q0 -44 -40.5 -80.5t-90.5 -36.5zM590 -35q-73 0 -137.5 14.5t-124.5 47t-96.5 85
t-54 129t2.5 179.5l127 708h135l-116 -657q-11 -76 -7.5 -135t26 -102.5t52 -73.5t70.5 -48t82.5 -26t87.5 -8q84 0 161.5 24.5t136 65.5t105 94t74.5 110.5t39 114.5l113 641h135l-137 -776q-39 -214 -17 -352h-139q-13 131 6 215h-6q-198 -250 -518 -250z" />
    <glyph glyph-name="yacute" unicode="&#xfd;" horiz-adv-x="1314" 
d="M1264 1671l-443 -393h-121l367 393h197zM328 -451h-121l287 439l-353 1140h148q59 -191 167.5 -557t125.5 -424h6q72 111 202 312t236 364t201 305h147z" />
    <glyph glyph-name="thorn" unicode="&#xfe;" horiz-adv-x="1640" 
d="M184 -451h-135l369 2089h135l-133 -751h4q109 135 261.5 204.5t318.5 69.5q239 0 386.5 -136t147.5 -357q0 -135 -58.5 -263.5t-157.5 -225t-238.5 -155.5t-292.5 -59q-166 0 -294.5 69t-185.5 197h-6zM793 78q121 0 232.5 48t190.5 126.5t126 183t47 213.5
q0 180 -116 290t-306 110q-123 0 -237 -48t-196 -126.5t-131 -183t-49 -212.5q0 -179 123 -290t316 -111z" />
    <glyph glyph-name="ydieresis" unicode="&#xff;" horiz-adv-x="1314" 
d="M578 1376q-43 0 -72 25.5t-29 62.5q0 45 40.5 80t92.5 35q42 0 70.5 -24.5t28.5 -59.5q0 -47 -39 -83t-92 -36zM997 1376q-45 0 -73.5 24.5t-28.5 61.5q0 47 39.5 82t93.5 35q42 0 71 -25t29 -61q0 -44 -40.5 -80.5t-90.5 -36.5zM328 -451h-121l287 439l-353 1140h148
q59 -191 167.5 -557t125.5 -424h6q72 111 202 312t236 364t201 305h147z" />
    <glyph glyph-name="Amacron" unicode="&#x100;" horiz-adv-x="1798" 
d="M1522 1835h-791l21 107h786zM92 0h-153l1069 1597h151l502 -1597h-152q-102 317 -182 573h-850q-149 -220 -385 -573zM553 694h735q-29 97 -77.5 253.5t-84.5 274.5t-67 226h-4q-39 -60 -217 -325t-285 -429z" />
    <glyph glyph-name="amacron" unicode="&#x101;" horiz-adv-x="1404" 
d="M1282 1421h-825l18 105h825zM442 -35q-177 0 -278 66t-101 190q0 283 562 381q35 6 96.5 15.5t98 16t86.5 17.5t79.5 25t58.5 34.5t42.5 50t13.5 66.5q0 97 -88.5 162.5t-233.5 65.5q-140 0 -254.5 -66t-173.5 -176l-127 41q55 103 154 174t208 102t224 31q72 0 138 -13
t125.5 -42t100.5 -71t59.5 -106.5t4.5 -142.5l-76 -434q-10 -59 -14.5 -90t-9.5 -80t-3.5 -92.5t7.5 -89.5h-135q-15 119 6 244h-6q-91 -127 -233 -203t-331 -76zM471 68q109 0 212 38.5t175 97t119.5 125t58.5 126.5l29 159q-70 -41 -130.5 -57.5t-217.5 -40.5
q-50 -8 -82 -13.5t-91 -19t-98.5 -27t-88 -35.5t-78 -47t-50 -60.5t-20.5 -75.5q0 -78 70.5 -124t191.5 -46z" />
    <glyph glyph-name="Abreve" unicode="&#x102;" horiz-adv-x="1798" 
d="M1104 1726q-99 0 -179 29t-127.5 76t-70 103.5t-16.5 113.5h125q-8 -85 73 -151t209 -66q130 0 235.5 66t129.5 151h125q-13 -57 -55 -113.5t-105 -103.5t-153.5 -76t-190.5 -29zM92 0h-153l1069 1597h151l502 -1597h-152q-102 317 -182 573h-850q-149 -220 -385 -573z
M553 694h735q-29 97 -77.5 253.5t-84.5 274.5t-67 226h-4q-39 -60 -217 -325t-285 -429z" />
    <glyph glyph-name="abreve" unicode="&#x103;" horiz-adv-x="1404" 
d="M842 1276q-204 0 -303 110.5t-76 284.5h127q-20 -132 55.5 -211.5t210.5 -79.5q138 0 242.5 79t134.5 212h127q-39 -174 -178.5 -284.5t-339.5 -110.5zM442 -35q-177 0 -278 66t-101 190q0 283 562 381q35 6 96.5 15.5t98 16t86.5 17.5t79.5 25t58.5 34.5t42.5 50
t13.5 66.5q0 97 -88.5 162.5t-233.5 65.5q-140 0 -254.5 -66t-173.5 -176l-127 41q55 103 154 174t208 102t224 31q72 0 138 -13t125.5 -42t100.5 -71t59.5 -106.5t4.5 -142.5l-76 -434q-10 -59 -14.5 -90t-9.5 -80t-3.5 -92.5t7.5 -89.5h-135q-15 119 6 244h-6
q-91 -127 -233 -203t-331 -76zM471 68q109 0 212 38.5t175 97t119.5 125t58.5 126.5l29 159q-70 -41 -130.5 -57.5t-217.5 -40.5q-50 -8 -82 -13.5t-91 -19t-98.5 -27t-88 -35.5t-78 -47t-50 -60.5t-20.5 -75.5q0 -78 70.5 -124t191.5 -46z" />
    <glyph glyph-name="Aogonek" unicode="&#x104;" horiz-adv-x="1798" 
d="M1585 -373q45 0 111 15l-17 -91q-69 -14 -116 -14q-124 0 -203.5 52t-79.5 145q0 155 236 266h-7q-102 317 -182 573h-850q-149 -220 -385 -573h-153l1069 1597h151l502 -1597h-14q-64 -25 -115.5 -55t-94 -79.5t-42.5 -103.5q0 -62 54.5 -98.5t135.5 -36.5zM553 694h735
q-29 97 -77.5 253.5t-84.5 274.5t-67 226h-4q-39 -60 -217 -325t-285 -429z" />
    <glyph glyph-name="aogonek" unicode="&#x105;" horiz-adv-x="1404" 
d="M1237 786l-76 -434q-10 -59 -14.5 -90t-9.5 -80t-3.5 -92.5t7.5 -89.5h-13q-106 -41 -177.5 -101.5t-71.5 -136.5q0 -62 54.5 -97.5t137.5 -35.5q45 0 109 15l-19 -93q-63 -14 -117 -14q-129 0 -204.5 54t-75.5 145q0 152 240 264h2q-15 119 6 244h-6q-91 -127 -233 -203
t-331 -76q-177 0 -278 66t-101 190q0 283 562 381q35 6 96.5 15.5t98 16t86.5 17.5t79.5 25t58.5 34.5t42.5 50t13.5 66.5q0 97 -88.5 162.5t-233.5 65.5q-140 0 -254.5 -66t-173.5 -176l-127 41q55 103 154 174t208 102t224 31q72 0 138 -13t125.5 -42t100.5 -71
t59.5 -106.5t4.5 -142.5zM471 68q109 0 212 38.5t175 97t119.5 125t58.5 126.5l29 159q-70 -41 -130.5 -57.5t-217.5 -40.5q-50 -8 -82 -13.5t-91 -19t-98.5 -27t-88 -35.5t-78 -47t-50 -60.5t-20.5 -75.5q0 -78 70.5 -124t191.5 -46z" />
    <glyph glyph-name="Cacute" unicode="&#x106;" horiz-adv-x="2066" 
d="M1741 2042l-463 -322h-127l375 322h215zM995 -35q-251 0 -439.5 84.5t-291 242t-102.5 367.5q0 124 39.5 246.5t110 229.5t173 198.5t224 157t267.5 102.5t300 37q133 0 255.5 -28.5t227 -83.5t178.5 -145.5t99 -205.5l-140 -49q-54 183 -229.5 286t-411.5 103
q-156 0 -301.5 -45.5t-259.5 -125.5t-199.5 -184.5t-131.5 -228.5t-46 -251q0 -118 39 -216t106.5 -165.5t159.5 -113.5t195 -67.5t215 -21.5q124 0 238.5 26.5t206 72t169.5 109t135 134.5t97 150l123 -43q-52 -96 -121 -180t-162 -156.5t-201 -124.5t-242 -81.5
t-280 -29.5z" />
    <glyph glyph-name="cacute" unicode="&#x107;" horiz-adv-x="1484" 
d="M1368 1671l-442 -393h-121l366 393h197zM680 -35q-264 0 -419 134.5t-155 363.5q0 135 59 261.5t160.5 223t250 155t315.5 58.5q87 0 166 -17t151 -52.5t126.5 -99t80.5 -148.5l-143 -45q-32 119 -139.5 184.5t-264.5 65.5q-132 0 -248 -48.5t-195.5 -128.5t-125 -184
t-45.5 -213q0 -184 121.5 -290.5t329.5 -106.5q184 0 328.5 82.5t234.5 218.5l116 -37q-112 -185 -299.5 -281t-404.5 -96z" />
    <glyph glyph-name="Cdotaccent" unicode="&#x10a;" horiz-adv-x="2066" 
d="M1255 1788q-46 0 -77 26t-31 66q0 51 44 88t101 37q45 0 76 -26t31 -64q0 -51 -44 -89t-100 -38zM995 -35q-251 0 -439.5 84.5t-291 242t-102.5 367.5q0 124 39.5 246.5t110 229.5t173 198.5t224 157t267.5 102.5t300 37q133 0 255.5 -28.5t227 -83.5t178.5 -145.5
t99 -205.5l-140 -49q-54 183 -229.5 286t-411.5 103q-156 0 -301.5 -45.5t-259.5 -125.5t-199.5 -184.5t-131.5 -228.5t-46 -251q0 -118 39 -216t106.5 -165.5t159.5 -113.5t195 -67.5t215 -21.5q124 0 238.5 26.5t206 72t169.5 109t135 134.5t97 150l123 -43
q-52 -96 -121 -180t-162 -156.5t-201 -124.5t-242 -81.5t-280 -29.5z" />
    <glyph glyph-name="cdotaccent" unicode="&#x10b;" horiz-adv-x="1484" 
d="M901 1425q-45 0 -75.5 27.5t-30.5 67.5q0 49 43 85.5t102 36.5q45 0 76 -26t31 -64q0 -50 -44.5 -88.5t-101.5 -38.5zM680 -35q-264 0 -419 134.5t-155 363.5q0 135 59 261.5t160.5 223t250 155t315.5 58.5q87 0 166 -17t151 -52.5t126.5 -99t80.5 -148.5l-143 -45
q-32 119 -139.5 184.5t-264.5 65.5q-132 0 -248 -48.5t-195.5 -128.5t-125 -184t-45.5 -213q0 -184 121.5 -290.5t329.5 -106.5q184 0 328.5 82.5t234.5 218.5l116 -37q-112 -185 -299.5 -281t-404.5 -96z" />
    <glyph glyph-name="Ccaron" unicode="&#x10c;" horiz-adv-x="2066" 
d="M1577 2023h127l-369 -303h-188l-264 303h127q160 -140 245 -225q198 143 322 225zM995 -35q-251 0 -439.5 84.5t-291 242t-102.5 367.5q0 124 39.5 246.5t110 229.5t173 198.5t224 157t267.5 102.5t300 37q133 0 255.5 -28.5t227 -83.5t178.5 -145.5t99 -205.5l-140 -49
q-54 183 -229.5 286t-411.5 103q-156 0 -301.5 -45.5t-259.5 -125.5t-199.5 -184.5t-131.5 -228.5t-46 -251q0 -118 39 -216t106.5 -165.5t159.5 -113.5t195 -67.5t215 -21.5q124 0 238.5 26.5t206 72t169.5 109t135 134.5t97 150l123 -43q-52 -96 -121 -180t-162 -156.5
t-201 -124.5t-242 -81.5t-280 -29.5z" />
    <glyph glyph-name="ccaron" unicode="&#x10d;" horiz-adv-x="1484" 
d="M969 1280h-193l-293 358h129q28 -27 75.5 -71.5t73 -69t61 -60t65.5 -69.5q53 42 111 84t138 98t124 88h129zM680 -35q-264 0 -419 134.5t-155 363.5q0 135 59 261.5t160.5 223t250 155t315.5 58.5q87 0 166 -17t151 -52.5t126.5 -99t80.5 -148.5l-143 -45
q-32 119 -139.5 184.5t-264.5 65.5q-132 0 -248 -48.5t-195.5 -128.5t-125 -184t-45.5 -213q0 -184 121.5 -290.5t329.5 -106.5q184 0 328.5 82.5t234.5 218.5l116 -37q-112 -185 -299.5 -281t-404.5 -96z" />
    <glyph glyph-name="Dcaron" unicode="&#x10e;" horiz-adv-x="1980" 
d="M1460 2023h127l-368 -303h-189l-264 303h127q168 -147 246 -225q209 151 321 225zM856 0h-688l283 1597h665q393 0 589 -170t196 -475q0 -147 -47 -287.5t-138 -260.5t-216 -210.5t-291.5 -142t-352.5 -51.5zM332 119h559q153 0 290 44t239 120.5t177 178t113.5 220
t38.5 242.5q0 277 -176.5 416t-505.5 139h-492q-21 -120 -87 -483t-156 -877z" />
    <glyph glyph-name="dcaron" unicode="&#x10f;" horiz-adv-x="1644" 
d="M1720 1188h-92l191 250q-32 9 -50 31.5t-18 52.5q0 49 43 86t100 37q44 0 73.5 -25.5t29.5 -65.5q0 -39 -48 -102t-229 -264zM641 -35q-241 0 -388 135.5t-147 358.5q0 135 58.5 263.5t157.5 225t238.5 155t293.5 58.5q166 0 292 -68t185 -198h4l135 743h136l-228 -1286
q-22 -128 -25 -209t9 -143h-137q-14 117 4 236h-4q-104 -129 -260 -200t-324 -71zM676 78q164 0 306.5 81t225 212t82.5 276q0 182 -124 292t-314 110q-123 0 -235 -48.5t-191 -127.5t-125.5 -184t-46.5 -214q0 -178 116 -287.5t306 -109.5z" />
    <glyph glyph-name="Dcroat" unicode="&#x110;" horiz-adv-x="1980" 
d="M451 1597h665q393 0 589 -170t196 -475q0 -147 -47 -287.5t-138 -260.5t-216 -210.5t-291.5 -142t-352.5 -51.5h-688l131 743h-197l19 109h198zM891 119q153 0 290 44t239 120.5t177 178t113.5 220t38.5 242.5q0 277 -176.5 416t-505.5 139h-492q-86 -481 -114 -627h682
l-19 -109h-682q-12 -64 -27 -151t-39.5 -226.5t-43.5 -246.5h559z" />
    <glyph glyph-name="dcroat" unicode="&#x111;" horiz-adv-x="1644" 
d="M1571 1440h313l-14 -105h-318l-174 -983q-22 -128 -25 -209t9 -143h-137q-14 117 4 236h-4q-104 -129 -260 -200t-324 -71q-241 0 -388 135.5t-147 358.5q0 135 58.5 263.5t157.5 225t238.5 155t293.5 58.5q166 0 292 -68t185 -198h4l80 440h-350l16 105h353l36 198h136z
M676 78q164 0 306.5 81t225 212t82.5 276q0 182 -124 292t-314 110q-123 0 -235 -48.5t-191 -127.5t-125.5 -184t-46.5 -214q0 -178 116 -287.5t306 -109.5z" />
    <glyph glyph-name="Emacron" unicode="&#x112;" horiz-adv-x="1613" 
d="M1450 1835h-791l21 107h786zM1391 0h-1223l283 1597h1198l-19 -118h-1055q-5 -29 -33 -179.5t-75 -416.5h1006l-19 -121h-1005q-16 -85 -35 -191.5t-82 -445.5h1079z" />
    <glyph glyph-name="emacron" unicode="&#x113;" horiz-adv-x="1515" 
d="M1329 1421h-825l18 105h826zM672 -35q-258 0 -412 135t-154 361q0 135 59 262t160.5 224t248 155.5t311.5 58.5q50 0 98 -5.5t100 -19t96.5 -35t87 -53t71 -74t49.5 -97.5t22 -124t-12 -153l-11 -57h-1128q-36 -210 87 -338.5t351 -128.5q181 0 325 83.5t232 215.5
l117 -39q-107 -176 -294 -273.5t-404 -97.5zM281 651h976q15 86 -1 156t-54.5 115t-95 75.5t-118 43t-128.5 12.5q-202 0 -358.5 -110.5t-220.5 -291.5z" />
    <glyph glyph-name="Edotaccent" unicode="&#x116;" horiz-adv-x="1613" 
d="M1042 1788q-46 0 -77 26t-31 66q0 51 44 88t101 37q45 0 76 -26t31 -64q0 -51 -44 -89t-100 -38zM1391 0h-1223l283 1597h1198l-19 -118h-1055q-5 -29 -33 -179.5t-75 -416.5h1006l-19 -121h-1005q-16 -85 -35 -191.5t-82 -445.5h1079z" />
    <glyph glyph-name="edotaccent" unicode="&#x117;" horiz-adv-x="1515" 
d="M915 1425q-45 0 -75.5 27.5t-30.5 67.5q0 49 43 85.5t102 36.5q45 0 76 -26t31 -64q0 -50 -44.5 -88.5t-101.5 -38.5zM672 -35q-258 0 -412 135t-154 361q0 135 59 262t160.5 224t248 155.5t311.5 58.5q50 0 98 -5.5t100 -19t96.5 -35t87 -53t71 -74t49.5 -97.5t22 -124
t-12 -153l-11 -57h-1128q-36 -210 87 -338.5t351 -128.5q181 0 325 83.5t232 215.5l117 -39q-107 -176 -294 -273.5t-404 -97.5zM281 651h976q15 86 -1 156t-54.5 115t-95 75.5t-118 43t-128.5 12.5q-202 0 -358.5 -110.5t-220.5 -291.5z" />
    <glyph glyph-name="Eogonek" unicode="&#x118;" horiz-adv-x="1613" 
d="M1649 1597l-19 -118h-1055q-5 -29 -33 -179.5t-75 -416.5h1006l-19 -121h-1005q-16 -85 -35 -191.5t-82 -445.5h1079l-20 -125q-64 -25 -115.5 -55t-94 -79.5t-42.5 -103.5q0 -62 54.5 -98.5t135.5 -36.5q45 0 111 15l-17 -91q-69 -14 -116 -14q-124 0 -203.5 52
t-79.5 145q0 155 236 266h-1092l283 1597h1198z" />
    <glyph glyph-name="eogonek" unicode="&#x119;" horiz-adv-x="1515" 
d="M885 1161q50 0 98 -5.5t100 -19t96.5 -35t87 -53t71 -74t49.5 -97.5t22 -124t-12 -153l-11 -57h-1128q-36 -210 87 -338.5t351 -128.5q181 0 325 83.5t232 215.5l117 -39q-75 -124 -194 -210.5t-263 -127.5q-105 -41 -175 -101t-70 -135q0 -62 54.5 -97.5t137.5 -35.5
q45 0 109 15l-19 -93q-63 -14 -116 -14q-129 0 -205 54t-76 145q0 128 176 231q-18 -2 -57 -2q-258 0 -412 135t-154 361q0 135 59 262t160.5 224t248 155.5t311.5 58.5zM281 651h976q15 86 -1 156t-54.5 115t-95 75.5t-118 43t-128.5 12.5q-202 0 -358.5 -110.5
t-220.5 -291.5z" />
    <glyph glyph-name="Ecaron" unicode="&#x11a;" horiz-adv-x="1613" 
d="M1366 2023h127l-369 -303h-188l-264 303h127q160 -140 245 -225q198 143 322 225zM1391 0h-1223l283 1597h1198l-19 -118h-1055q-5 -29 -33 -179.5t-75 -416.5h1006l-19 -121h-1005q-16 -85 -35 -191.5t-82 -445.5h1079z" />
    <glyph glyph-name="ecaron" unicode="&#x11b;" horiz-adv-x="1515" 
d="M985 1280h-192l-293 358h129q26 -25 75.5 -71.5t73.5 -69.5t59.5 -59t65.5 -70q53 42 111 84t138 98t124 88h129zM672 -35q-258 0 -412 135t-154 361q0 135 59 262t160.5 224t248 155.5t311.5 58.5q50 0 98 -5.5t100 -19t96.5 -35t87 -53t71 -74t49.5 -97.5t22 -124
t-12 -153l-11 -57h-1128q-36 -210 87 -338.5t351 -128.5q181 0 325 83.5t232 215.5l117 -39q-107 -176 -294 -273.5t-404 -97.5zM281 651h976q15 86 -1 156t-54.5 115t-95 75.5t-118 43t-128.5 12.5q-202 0 -358.5 -110.5t-220.5 -291.5z" />
    <glyph glyph-name="Gbreve" unicode="&#x11e;" horiz-adv-x="2156" 
d="M1243 1726q-99 0 -179 29t-127.5 76t-70 103.5t-16.5 113.5h125q-8 -85 73 -151t209 -66q130 0 235.5 66t129.5 151h125q-13 -57 -55 -113.5t-105 -103.5t-153.5 -76t-190.5 -29zM981 -35q-247 0 -433 84.5t-287 241t-101 364.5q0 188 86.5 366t233.5 312t355.5 215.5
t438.5 81.5q134 0 257 -28.5t227 -84t176.5 -146t97.5 -204.5l-138 -49q-36 123 -130.5 212t-225 133t-285.5 44q-157 0 -302.5 -45.5t-259.5 -125.5t-199.5 -184.5t-131 -228.5t-45.5 -251q0 -119 39 -217t105.5 -165t157 -113.5t190.5 -67.5t209 -21q315 0 548.5 162.5
t299.5 411.5h-693l19 114h838l-138 -776h-123q20 120 66 373h-12q-133 -194 -347.5 -301t-492.5 -107z" />
    <glyph glyph-name="gbreve" unicode="&#x11f;" horiz-adv-x="1640" 
d="M918 1276q-204 0 -303 110.5t-76 284.5h127q-20 -132 55.5 -211.5t210.5 -79.5q138 0 242.5 79t134.5 212h127q-39 -174 -178.5 -284.5t-339.5 -110.5zM606 -483q-456 0 -540 331l131 37q29 -121 135 -190.5t291 -69.5q80 0 152 15t142.5 51t125.5 91.5t97 142.5t62 198
l27 147h-4q-104 -131 -256 -200.5t-320 -69.5q-235 0 -386.5 132t-151.5 355q0 131 59 254.5t158 215.5t237 148t287 56q167 0 296.5 -70t186.5 -202h6l43 239h129l-172 -985q-111 -626 -735 -626zM680 113q120 0 233.5 46.5t196 122.5t132.5 176t50 204q0 173 -125 280
t-317 107q-120 0 -230.5 -45.5t-189 -120.5t-125.5 -174.5t-47 -204.5q0 -172 117.5 -281.5t304.5 -109.5z" />
    <glyph glyph-name="Gdotaccent" unicode="&#x120;" horiz-adv-x="2156" 
d="M1253 1788q-46 0 -77 26t-31 66q0 51 44 88t101 37q45 0 76 -26t31 -64q0 -51 -44 -89t-100 -38zM981 -35q-247 0 -433 84.5t-287 241t-101 364.5q0 188 86.5 366t233.5 312t355.5 215.5t438.5 81.5q134 0 257 -28.5t227 -84t176.5 -146t97.5 -204.5l-138 -49
q-36 123 -130.5 212t-225 133t-285.5 44q-157 0 -302.5 -45.5t-259.5 -125.5t-199.5 -184.5t-131 -228.5t-45.5 -251q0 -119 39 -217t105.5 -165t157 -113.5t190.5 -67.5t209 -21q315 0 548.5 162.5t299.5 411.5h-693l19 114h838l-138 -776h-123q20 120 66 373h-12
q-133 -194 -347.5 -301t-492.5 -107z" />
    <glyph glyph-name="gdotaccent" unicode="&#x121;" horiz-adv-x="1640" 
d="M944 1425q-45 0 -75.5 27.5t-30.5 67.5q0 49 43 85.5t102 36.5q45 0 76 -26t31 -64q0 -50 -44.5 -88.5t-101.5 -38.5zM606 -483q-456 0 -540 331l131 37q29 -121 135 -190.5t291 -69.5q80 0 152 15t142.5 51t125.5 91.5t97 142.5t62 198l27 147h-4q-104 -131 -256 -200.5
t-320 -69.5q-235 0 -386.5 132t-151.5 355q0 131 59 254.5t158 215.5t237 148t287 56q167 0 296.5 -70t186.5 -202h6l43 239h129l-172 -985q-111 -626 -735 -626zM680 113q120 0 233.5 46.5t196 122.5t132.5 176t50 204q0 173 -125 280t-317 107q-120 0 -230.5 -45.5
t-189 -120.5t-125.5 -174.5t-47 -204.5q0 -172 117.5 -281.5t304.5 -109.5z" />
    <glyph glyph-name="uni0122" unicode="&#x122;" horiz-adv-x="2156" 
d="M981 -35q-247 0 -433 84.5t-287 241t-101 364.5q0 188 86.5 366t233.5 312t355.5 215.5t438.5 81.5q134 0 257 -28.5t227 -84t176.5 -146t97.5 -204.5l-138 -49q-36 123 -130.5 212t-225 133t-285.5 44q-157 0 -302.5 -45.5t-259.5 -125.5t-199.5 -184.5t-131 -228.5
t-45.5 -251q0 -119 39 -217t105.5 -165t157 -113.5t190.5 -67.5t209 -21q315 0 548.5 162.5t299.5 411.5h-693l19 114h838l-138 -776h-123q20 120 66 373h-12q-133 -194 -347.5 -301t-492.5 -107zM819 -508h-69l147 191q-88 17 -88 81q0 46 41.5 82.5t97.5 36.5
q42 0 72.5 -25t30.5 -61q0 -40 -38.5 -90t-162.5 -182q-20 -21 -31 -33z" />
    <glyph glyph-name="uni0123" unicode="&#x123;" horiz-adv-x="1640" 
d="M780 1341q0 38 49 102t220 255h92l-185 -246q30 -8 48 -29t18 -51q0 -49 -41.5 -85t-97.5 -36q-43 0 -73 25.5t-30 64.5zM606 -483q-456 0 -540 331l131 37q29 -121 135 -190.5t291 -69.5q80 0 152 15t142.5 51t125.5 91.5t97 142.5t62 198l27 147h-4
q-104 -131 -256 -200.5t-320 -69.5q-235 0 -386.5 132t-151.5 355q0 131 59 254.5t158 215.5t237 148t287 56q167 0 296.5 -70t186.5 -202h6l43 239h129l-172 -985q-111 -626 -735 -626zM680 113q120 0 233.5 46.5t196 122.5t132.5 176t50 204q0 173 -125 280t-317 107
q-120 0 -230.5 -45.5t-189 -120.5t-125.5 -174.5t-47 -204.5q0 -172 117.5 -281.5t304.5 -109.5z" />
    <glyph glyph-name="Hbar" unicode="&#x126;" horiz-adv-x="1984" 
d="M1847 1280h160l-16 -104h-162l-209 -1176h-145l131 745h-1162l-131 -745h-145l209 1176h-166l18 104h166l56 317h145l-57 -317h1161l57 317h146zM467 866h1161l53 310h-1161z" />
    <glyph glyph-name="hbar" unicode="&#x127;" horiz-adv-x="1552" 
d="M954 1161q77 0 143.5 -14.5t127 -47t97.5 -85t54.5 -129t-2.5 -178.5l-125 -707h-137l117 653q19 106 -0.5 185.5t-69 124t-111.5 65.5t-137 21q-108 0 -204 -36t-163 -95.5t-111 -132.5t-58 -150l-111 -635h-135l236 1333h-224l17 105h225l35 200h135l-35 -200h443
l-15 -105h-446l-76 -426h4q196 254 526 254z" />
    <glyph glyph-name="Imacron" unicode="&#x12a;" horiz-adv-x="679" 
d="M965 1835h-791l21 107h786zM313 0h-145l283 1597h145z" />
    <glyph glyph-name="imacron" unicode="&#x12b;" horiz-adv-x="589" 
d="M862 1419h-825l18 105h826zM264 0h-135l199 1128h135z" />
    <glyph glyph-name="Iogonek" unicode="&#x12e;" horiz-adv-x="679" 
d="M63 -238q0 -62 55 -98.5t136 -36.5q45 0 111 15l-17 -91q-69 -14 -117 -14q-123 0 -202.5 51.5t-79.5 145.5q0 156 235 266h-16l283 1597h145l-283 -1597h2q-64 -25 -115.5 -55t-94 -79.5t-42.5 -103.5z" />
    <glyph glyph-name="iogonek" unicode="&#x12f;" horiz-adv-x="589" 
d="M487 1640q45 0 76 -26t31 -64q0 -50 -44 -88.5t-101 -38.5q-46 0 -76.5 27.5t-30.5 67.5q0 49 43 85.5t102 36.5zM264 0h-4q-106 -41 -178 -101.5t-72 -136.5q0 -62 55 -97.5t138 -35.5q44 0 108 15l-18 -93q-63 -14 -117 -14q-129 0 -204.5 54t-75.5 145q0 152 239 264
h-6l199 1128h135z" />
    <glyph glyph-name="Idotaccent" unicode="&#x130;" horiz-adv-x="679" 
d="M557 1788q-46 0 -77 26t-31 66q0 51 44 88t101 37q44 0 75 -26t31 -64q0 -51 -43.5 -89t-99.5 -38zM313 0h-145l283 1597h145z" />
    <glyph glyph-name="dotlessi" unicode="&#x131;" horiz-adv-x="589" 
d="M264 0h-135l199 1128h135z" />
    <glyph glyph-name="uni0136" unicode="&#x136;" horiz-adv-x="1615" 
d="M313 0h-145l283 1597h145q-112 -625 -156 -874h4q332 263 1143 874h174q-166 -126 -473 -362t-440 -338q399 -532 678 -897h-176q-152 197 -623 799q-51 -38 -158.5 -120.5t-156.5 -119.5q-11 -59 -29.5 -167.5t-69.5 -391.5zM590 -508h-70l148 191q-88 17 -88 81
q0 46 41.5 82.5t97.5 36.5q42 0 72 -25t30 -61q0 -41 -38.5 -90.5t-168.5 -188.5q-16 -17 -24 -26z" />
    <glyph glyph-name="uni0137" unicode="&#x137;" horiz-adv-x="1253" 
d="M1118 1128h168l-590 -442l484 -686h-156l-438 604l-248 -186l-74 -418h-135l289 1638h135l-188 -1065h4q103 76 355.5 263.5t393.5 291.5zM555 -117q42 0 72 -25t30 -61q0 -41 -38.5 -90.5t-168.5 -188.5q-16 -17 -24 -26h-70l148 191q-88 17 -88 81q0 46 41.5 82.5
t97.5 36.5z" />
    <glyph glyph-name="Lacute" unicode="&#x139;" horiz-adv-x="1445" 
d="M887 2042h215l-463 -322h-127zM596 1597l-260 -1472h1001l-20 -125h-1149l283 1597h145z" />
    <glyph glyph-name="lacute" unicode="&#x13a;" horiz-adv-x="589" 
d="M1053 2083l-463 -322h-127l375 322h215zM264 0h-135l289 1638h135z" />
    <glyph glyph-name="uni013B" unicode="&#x13b;" horiz-adv-x="1445" 
d="M596 1597l-260 -1472h1001l-20 -125h-1149l283 1597h145zM659 -117q42 0 72.5 -25t30.5 -61q0 -40 -38.5 -90t-162.5 -182q-20 -21 -31 -33h-69l147 191q-88 17 -88 81q0 46 41.5 82.5t97.5 36.5z" />
    <glyph glyph-name="uni013C" unicode="&#x13c;" horiz-adv-x="589" 
d="M264 0h-135l289 1638h135zM53 -508h-69l147 191q-88 17 -88 81q0 46 41.5 82.5t97.5 36.5q42 0 72.5 -25t30.5 -61q0 -40 -38.5 -90t-162.5 -182q-20 -21 -31 -33z" />
    <glyph glyph-name="Lcaron" unicode="&#x13d;" horiz-adv-x="1445" 
d="M1085 1178h-92l191 252q-68 19 -68 81q0 49 43.5 86t100.5 37q44 0 73 -25t29 -65q0 -38 -49 -102.5t-228 -263.5zM451 1597h145l-260 -1472h1001l-20 -125h-1149z" />
    <glyph glyph-name="lcaron" unicode="&#x13e;" horiz-adv-x="589" 
d="M264 0h-135l289 1638h135zM823 1178h-92l191 252q-68 19 -68 81q0 50 43.5 86.5t101.5 36.5q43 0 72 -25.5t29 -64.5q0 -38 -49 -102.5t-228 -263.5z" />
    <glyph glyph-name="Lslash" unicode="&#x141;" horiz-adv-x="1445" 
d="M461 838l-125 -713h1001l-20 -125h-1149l137 780l-219 -80l18 113l222 82l125 702h145l-115 -645l406 150l-19 -115z" />
    <glyph glyph-name="lslash" unicode="&#x142;" horiz-adv-x="589" 
d="M444 1020l267 147l-17 -110l-270 -148l-160 -909h-135l145 825l-266 -145l19 111l268 147l123 700h135z" />
    <glyph glyph-name="Nacute" unicode="&#x143;" horiz-adv-x="2029" 
d="M1696 2042l-463 -322h-127l375 322h215zM313 0h-145l283 1597h159q590 -867 936 -1394h6q35 196 119.5 659t132.5 735h142l-283 -1597h-156q-91 134 -426 619.5t-516 758.5h-4q-29 -164 -113.5 -624t-134.5 -754z" />
    <glyph glyph-name="nacute" unicode="&#x144;" horiz-adv-x="1552" 
d="M1395 1671l-443 -393h-121l367 393h197zM264 0h-135l199 1128h131l-39 -221h4q99 130 237 192t295 62q78 0 144.5 -14.5t126.5 -47t96.5 -85t53.5 -129t-3 -178.5l-125 -707h-137l117 653q19 106 -0.5 185.5t-69 124t-113.5 65.5t-141 21q-107 0 -202 -36.5t-161 -96
t-109.5 -132.5t-57.5 -149z" />
    <glyph glyph-name="uni0145" unicode="&#x145;" horiz-adv-x="2029" 
d="M313 0h-145l283 1597h159q590 -867 936 -1394h6q35 196 119.5 659t132.5 735h142l-283 -1597h-156q-91 134 -426 619.5t-516 758.5h-4q-29 -164 -113.5 -624t-134.5 -754zM799 -508h-70l148 191q-89 18 -89 81q0 46 42 82.5t98 36.5q42 0 72 -25t30 -61
q0 -41 -38.5 -90.5t-168.5 -188.5q-16 -17 -24 -26z" />
    <glyph glyph-name="uni0146" unicode="&#x146;" horiz-adv-x="1552" 
d="M264 0h-135l199 1128h131l-39 -221h4q99 130 237 192t295 62q78 0 144.5 -14.5t126.5 -47t96.5 -85t53.5 -129t-3 -178.5l-125 -707h-137l117 653q19 106 -0.5 185.5t-69 124t-113.5 65.5t-141 21q-107 0 -202 -36.5t-161 -96t-109.5 -132.5t-57.5 -149zM559 -508h-70
l148 191q-88 17 -88 81q0 46 41.5 82.5t97.5 36.5q42 0 72.5 -25t30.5 -61q0 -40 -38.5 -90t-162.5 -182q-20 -21 -31 -33z" />
    <glyph glyph-name="Ncaron" unicode="&#x147;" horiz-adv-x="2029" 
d="M1532 2023h127l-369 -303h-188l-264 303h127q160 -140 245 -225q198 143 322 225zM313 0h-145l283 1597h159q590 -867 936 -1394h6q35 196 119.5 659t132.5 735h142l-283 -1597h-156q-91 134 -426 619.5t-516 758.5h-4q-29 -164 -113.5 -624t-134.5 -754z" />
    <glyph glyph-name="ncaron" unicode="&#x148;" horiz-adv-x="1552" 
d="M995 1280h-192l-293 358h129q26 -25 75.5 -71.5t73.5 -69.5t59.5 -59t65.5 -70q53 42 111 84t138 98t124 88h129zM264 0h-135l199 1128h131l-39 -221h4q99 130 237 192t295 62q78 0 144.5 -14.5t126.5 -47t96.5 -85t53.5 -129t-3 -178.5l-125 -707h-137l117 653
q19 106 -0.5 185.5t-69 124t-113.5 65.5t-141 21q-107 0 -202 -36.5t-161 -96t-109.5 -132.5t-57.5 -149z" />
    <glyph glyph-name="Eng" unicode="&#x14a;" horiz-adv-x="2029" 
d="M1112 -483q-164 0 -258 57l16 123q105 -66 234 -66q162 0 271.5 96.5t140.5 258.5q-127 187 -450 655.5t-505 740.5l-248 -1382h-145l283 1597h159q590 -867 936 -1394h6l252 1394h142l-273 -1536q-15 -83 -38.5 -154.5t-67.5 -146t-103 -126t-149.5 -84.5t-202.5 -33z
" />
    <glyph glyph-name="eng" unicode="&#x14b;" horiz-adv-x="1552" 
d="M793 -483q-150 0 -244 57l18 117q104 -64 221 -64q42 0 78.5 9t63.5 22t51 36t40 42.5t30.5 52t22.5 53.5t17 56.5t12 52l9 49.5l117 653q17 88 6 154.5t-38.5 112.5t-74 74.5t-98.5 41.5t-113 13q-109 0 -205 -36.5t-163 -96t-110.5 -132.5t-57.5 -149l-111 -635h-135
l199 1128h131l-39 -221h4q99 130 237 192t295 62q76 0 142.5 -14.5t127 -46.5t97.5 -83.5t54.5 -126t-1.5 -173.5l-129 -731q-7 -40 -11.5 -60.5t-16 -65t-22 -71t-31 -67t-42.5 -65.5t-56 -54.5t-72.5 -46t-90.5 -28t-112 -11.5z" />
    <glyph glyph-name="Omacron" unicode="&#x14c;" horiz-adv-x="2181" 
d="M1712 1835h-790l20 107h787zM987 -35q-239 0 -427.5 89.5t-294 250.5t-105.5 365q0 123 41 244.5t114 227t178 196t227 155t266.5 101t293.5 36.5q239 0 427.5 -90t294 -251.5t105.5 -364.5q0 -123 -41.5 -244.5t-115 -226.5t-178.5 -195.5t-227.5 -155t-266.5 -101
t-291 -36.5zM1010 88q184 0 357.5 69t299.5 182t202.5 263.5t76.5 306.5q0 172 -88 308.5t-244.5 213t-353.5 76.5q-181 0 -355 -68.5t-302.5 -180.5t-207 -263t-78.5 -309q0 -173 90.5 -310t248.5 -212.5t354 -75.5z" />
    <glyph glyph-name="omacron" unicode="&#x14d;" horiz-adv-x="1579" 
d="M1356 1421h-826l19 105h825zM684 -35q-264 0 -421 135.5t-157 364.5q0 133 59 259t161 222.5t251 155.5t318 59q264 0 422 -135.5t158 -363.5q0 -133 -59 -259t-161 -223t-252 -156t-319 -59zM702 78q134 0 252.5 48.5t199 128t127 182.5t46.5 212q0 184 -121 292
t-327 108q-134 0 -252 -48.5t-199 -128t-127.5 -183t-46.5 -212.5q0 -183 121.5 -291t326.5 -108z" />
    <glyph glyph-name="Ohungarumlaut" unicode="&#x150;" horiz-adv-x="2181" 
d="M1522 2042l-385 -322h-125l309 322h201zM1882 2042l-405 -322h-127l333 322h199zM987 -35q-239 0 -427.5 89.5t-294 250.5t-105.5 365q0 123 41 244.5t114 227t178 196t227 155t266.5 101t293.5 36.5q239 0 427.5 -90t294 -251.5t105.5 -364.5q0 -123 -41.5 -244.5
t-115 -226.5t-178.5 -195.5t-227.5 -155t-266.5 -101t-291 -36.5zM1010 88q184 0 357.5 69t299.5 182t202.5 263.5t76.5 306.5q0 172 -88 308.5t-244.5 213t-353.5 76.5q-181 0 -355 -68.5t-302.5 -180.5t-207 -263t-78.5 -309q0 -173 90.5 -310t248.5 -212.5t354 -75.5z
" />
    <glyph glyph-name="ohungarumlaut" unicode="&#x151;" horiz-adv-x="1579" 
d="M1157 1673l-399 -395h-119l324 395h194zM1522 1673l-420 -395h-121l346 395h195zM684 -35q-264 0 -421 135.5t-157 364.5q0 133 59 259t161 222.5t251 155.5t318 59q264 0 422 -135.5t158 -363.5q0 -133 -59 -259t-161 -223t-252 -156t-319 -59zM702 78q134 0 252.5 48.5
t199 128t127 182.5t46.5 212q0 184 -121 292t-327 108q-134 0 -252 -48.5t-199 -128t-127.5 -183t-46.5 -212.5q0 -183 121.5 -291t326.5 -108z" />
    <glyph glyph-name="OE" unicode="&#x152;" horiz-adv-x="3248" 
d="M987 -35q-237 0 -425 88.5t-295 249.5t-107 367q0 148 57.5 292t163 263.5t243 211t308 142.5t348.5 51q260 0 456 -106t287 -287l68 360h1192l-18 -118h-1053l-109 -596h1004l-21 -121h-1001l-115 -637h1077l-22 -125h-1219l68 356q-159 -181 -393 -286t-494 -105z
M1008 88q185 0 358.5 69t300 182t203 264t76.5 308q0 171 -87.5 307t-244.5 212.5t-354 76.5q-182 0 -356 -68.5t-302 -180.5t-206.5 -263t-78.5 -309q0 -173 90 -310t247.5 -212.5t353.5 -75.5z" />
    <glyph glyph-name="oe" unicode="&#x153;" horiz-adv-x="2719" 
d="M684 -35q-264 0 -421 135.5t-157 364.5q0 133 59.5 259.5t161.5 223t251 155t317 58.5q205 0 348.5 -83.5t196.5 -227.5q102 144 274 227.5t371 83.5q43 0 85 -4t88.5 -14t87.5 -26t82 -39.5t72.5 -55.5t58.5 -73.5t39 -93.5t15.5 -115.5t-12.5 -139.5l-8 -45h-1133
q-25 -143 25 -253t159 -168t257 -58q182 0 324.5 83t230.5 216l118 -39q-109 -176 -296.5 -273.5t-405.5 -97.5q-201 0 -341.5 82.5t-191.5 226.5q-104 -144 -276 -226.5t-379 -82.5zM1483 653h977q15 86 -1.5 156t-55 115t-95 75.5t-118 43t-128.5 12.5q-202 0 -358.5 -111
t-220.5 -291zM702 78q134 0 252.5 48.5t199 128t127 182.5t46.5 212q0 184 -121 292t-327 108q-134 0 -252 -48.5t-199 -128t-127.5 -183t-46.5 -212.5q0 -183 121.5 -291t326.5 -108z" />
    <glyph glyph-name="Racute" unicode="&#x154;" horiz-adv-x="1699" 
d="M1497 2042l-463 -322h-127l375 322h215zM313 0h-145l283 1597h663q160 0 280.5 -42.5t192.5 -133.5t72 -221q0 -100 -43.5 -195.5t-120.5 -170.5t-189.5 -125t-242.5 -60l-2 -2q38 -61 120 -187t150.5 -235.5t136.5 -224.5h-159l-410 643h-471q-16 -85 -34 -191.5
t-81 -451.5zM444 760h514q242 0 394.5 115.5t152.5 289.5q0 153 -115 233.5t-325 80.5h-490q-82 -454 -131 -719z" />
    <glyph glyph-name="racute" unicode="&#x155;" horiz-adv-x="997" 
d="M1180 1671l-443 -393h-121l367 393h197zM264 0h-135l199 1128h131l-45 -237h10q74 122 210.5 196t287.5 74q88 0 153 -22l-22 -133q-64 28 -170 28q-98 0 -189 -41t-157 -108t-111 -151.5t-61 -172.5z" />
    <glyph glyph-name="uni0156" unicode="&#x156;" horiz-adv-x="1699" 
d="M313 0h-145l283 1597h663q160 0 280.5 -42.5t192.5 -133.5t72 -221q0 -100 -43.5 -195.5t-120.5 -170.5t-189.5 -125t-242.5 -60l-2 -2q38 -61 120 -187t150.5 -235.5t136.5 -224.5h-159l-410 643h-471q-16 -85 -34 -191.5t-81 -451.5zM444 760h514q242 0 394.5 115.5
t152.5 289.5q0 153 -115 233.5t-325 80.5h-490q-82 -454 -131 -719zM625 -508h-70l147 191q-88 17 -88 81q0 46 42 82.5t98 36.5q42 0 72 -25t30 -61q0 -41 -38.5 -90.5t-168.5 -188.5q-16 -17 -24 -26z" />
    <glyph glyph-name="uni0157" unicode="&#x157;" horiz-adv-x="997" 
d="M264 0h-135l199 1128h131l-45 -237h10q74 122 210.5 196t287.5 74q88 0 153 -22l-22 -133q-64 28 -170 28q-98 0 -189 -41t-157 -108t-111 -151.5t-61 -172.5zM43 -508h-70l148 191q-88 17 -88 81q0 46 41.5 82.5t97.5 36.5q42 0 72 -25t30 -61q0 -41 -38.5 -90.5
t-168.5 -188.5q-16 -17 -24 -26z" />
    <glyph glyph-name="Rcaron" unicode="&#x158;" horiz-adv-x="1699" 
d="M1333 2023h127l-368 -303h-189l-264 303h127q168 -147 246 -225q209 151 321 225zM313 0h-145l283 1597h663q160 0 280.5 -42.5t192.5 -133.5t72 -221q0 -100 -43.5 -195.5t-120.5 -170.5t-189.5 -125t-242.5 -60l-2 -2q38 -61 120 -187t150.5 -235.5t136.5 -224.5h-159
l-410 643h-471q-16 -85 -34 -191.5t-81 -451.5zM444 760h514q242 0 394.5 115.5t152.5 289.5q0 153 -115 233.5t-325 80.5h-490q-82 -454 -131 -719z" />
    <glyph glyph-name="rcaron" unicode="&#x159;" horiz-adv-x="997" 
d="M780 1280h-192l-293 358h129q26 -25 75.5 -71.5t73.5 -69.5t59.5 -59t65.5 -70q53 42 111 84t138 98t124 88h129zM264 0h-135l199 1128h131l-45 -237h10q74 122 210.5 196t287.5 74q88 0 153 -22l-22 -133q-64 28 -170 28q-98 0 -189 -41t-157 -108t-111 -151.5
t-61 -172.5z" />
    <glyph glyph-name="Sacute" unicode="&#x15a;" horiz-adv-x="1574" 
d="M1403 2040l-465 -320h-125l373 320h217zM711 -35q-85 0 -165 14.5t-159 49t-141 86.5t-107.5 133.5t-60.5 183.5l139 45q27 -189 169 -290t353 -101q148 0 271.5 49t194.5 132.5t71 181.5q0 49 -19.5 88.5t-50.5 64.5t-76.5 45.5t-89 33t-95.5 26.5q-27 6 -40 10l-172 47
q-38 11 -67 19.5t-73 24t-77.5 32.5t-72 40t-66.5 50.5t-52 60.5t-36.5 74.5t-12.5 87.5q0 76 33.5 148t96.5 131t147 103.5t190.5 69.5t221.5 25q243 0 390.5 -104.5t176.5 -278.5l-135 -49q-30 142 -152.5 226.5t-312.5 84.5q-212 0 -356 -97t-144 -230q0 -40 15.5 -75.5
t37 -61.5t57.5 -50t64 -38t70 -29.5t62.5 -21.5t54.5 -15l176 -49q170 -47 228 -70q197 -78 234 -218q9 -34 9 -73q0 -131 -95.5 -249.5t-265 -192.5t-368.5 -74z" />
    <glyph glyph-name="sacute" unicode="&#x15b;" horiz-adv-x="1196" 
d="M1219 1671l-443 -393h-121l367 393h197zM526 -35q-193 0 -328.5 87t-166.5 229l133 38q35 -112 142.5 -179.5t246.5 -67.5q147 0 256 70.5t109 168.5q0 90 -106 135q-43 19 -161 48l-121 30q-29 7 -38.5 9.5t-43.5 12.5t-51 17.5t-49 22t-50 28.5t-41.5 35.5t-36 44
t-21.5 52.5t-9 63q0 94 66 175t179.5 129t244.5 48q170 0 287 -76.5t145 -197.5l-139 -41q-24 89 -107 149t-215 60q-134 0 -225.5 -63t-91.5 -152q0 -39 20 -72t47 -53.5t71 -39t74.5 -27.5t74.5 -19l124 -33q40 -10 57 -14.5t58 -18t62 -25t52.5 -32.5t47.5 -43t28.5 -54
t12.5 -69q0 -69 -41 -137t-111 -120.5t-171.5 -85t-213.5 -32.5z" />
    <glyph glyph-name="Scedilla" unicode="&#x15e;" horiz-adv-x="1574" 
d="M793 891l176 -49q170 -47 228 -70q197 -78 234 -218q9 -34 9 -73q0 -96 -54.5 -188t-147 -162.5t-224 -116t-275.5 -49.5l-129 -127q48 19 105 19q89 0 141.5 -38.5t52.5 -101.5q0 -85 -85 -145.5t-212 -60.5q-80 0 -156.5 29.5t-121.5 80.5l72 53q32 -41 90 -65.5
t120 -24.5q80 0 135.5 35t55.5 86q0 39 -38.5 62.5t-96.5 23.5q-66 0 -123 -24l-51 49l143 151q-100 7 -188.5 36t-168 82t-134 142t-72.5 205l139 45q27 -189 169 -290t353 -101q148 0 271.5 49t194.5 132.5t71 181.5q0 49 -19.5 88.5t-50.5 64.5t-76.5 45.5t-89 33
t-95.5 26.5q-27 6 -40 10l-172 47q-38 11 -67 19.5t-73 24t-77.5 32.5t-72 40t-66.5 50.5t-52 60.5t-36.5 74.5t-12.5 87.5q0 76 33.5 148t96.5 131t147 103.5t190.5 69.5t221.5 25q243 0 390.5 -104.5t176.5 -278.5l-135 -49q-30 142 -152.5 226.5t-312.5 84.5
q-212 0 -356 -97t-144 -230q0 -40 15.5 -75.5t37 -61.5t57.5 -50t64 -38t70 -29.5t62.5 -21.5t54.5 -15z" />
    <glyph glyph-name="scedilla" unicode="&#x15f;" horiz-adv-x="1196" 
d="M621 629l124 -33q40 -10 57 -14.5t58 -18t62 -25t52.5 -32.5t47.5 -43t28.5 -54t12.5 -69q0 -90 -64.5 -173.5t-182.5 -139.5t-261 -62l-129 -127q47 19 104 19q89 0 142 -38.5t53 -101.5q0 -85 -85 -145.5t-212 -60.5q-80 0 -156.5 29.5t-121.5 80.5l71 53
q32 -41 90.5 -65.5t120.5 -24.5q80 0 135.5 35t55.5 86q0 39 -39 62.5t-97 23.5q-65 0 -122 -24l-52 49l144 153q-168 15 -283 99t-143 213l133 38q35 -112 142.5 -179.5t246.5 -67.5q147 0 256 70.5t109 168.5q0 90 -106 135q-43 19 -161 48l-121 30q-29 7 -38.5 9.5
t-43.5 12.5t-51 17.5t-49 22t-50 28.5t-41.5 35.5t-36 44t-21.5 52.5t-9 63q0 94 66 175t179.5 129t244.5 48q170 0 287 -76.5t145 -197.5l-139 -41q-24 89 -107 149t-215 60q-134 0 -225.5 -63t-91.5 -152q0 -39 20 -72t47 -53.5t71 -39t74.5 -27.5t74.5 -19z" />
    <glyph glyph-name="Scaron" unicode="&#x160;" horiz-adv-x="1574" 
d="M1319 2023h127l-369 -303h-188l-264 303h127q160 -140 245 -225q198 143 322 225zM711 -35q-85 0 -165 14.5t-159 49t-141 86.5t-107.5 133.5t-60.5 183.5l139 45q27 -189 169 -290t353 -101q148 0 271.5 49t194.5 132.5t71 181.5q0 49 -19.5 88.5t-50.5 64.5t-76.5 45.5
t-89 33t-95.5 26.5q-27 6 -40 10l-172 47q-38 11 -67 19.5t-73 24t-77.5 32.5t-72 40t-66.5 50.5t-52 60.5t-36.5 74.5t-12.5 87.5q0 76 33.5 148t96.5 131t147 103.5t190.5 69.5t221.5 25q243 0 390.5 -104.5t176.5 -278.5l-135 -49q-30 142 -152.5 226.5t-312.5 84.5
q-212 0 -356 -97t-144 -230q0 -40 15.5 -75.5t37 -61.5t57.5 -50t64 -38t70 -29.5t62.5 -21.5t54.5 -15l176 -49q170 -47 228 -70q197 -78 234 -218q9 -34 9 -73q0 -131 -95.5 -249.5t-265 -192.5t-368.5 -74z" />
    <glyph glyph-name="scaron" unicode="&#x161;" horiz-adv-x="1196" 
d="M819 1280h-192l-293 358h129q26 -25 75.5 -71.5t73.5 -69.5t59.5 -59t65.5 -70q53 42 111 84t138 98t124 88h129zM526 -35q-193 0 -328.5 87t-166.5 229l133 38q35 -112 142.5 -179.5t246.5 -67.5q147 0 256 70.5t109 168.5q0 90 -106 135q-43 19 -161 48l-121 30
q-29 7 -38.5 9.5t-43.5 12.5t-51 17.5t-49 22t-50 28.5t-41.5 35.5t-36 44t-21.5 52.5t-9 63q0 94 66 175t179.5 129t244.5 48q170 0 287 -76.5t145 -197.5l-139 -41q-24 89 -107 149t-215 60q-134 0 -225.5 -63t-91.5 -152q0 -39 20 -72t47 -53.5t71 -39t74.5 -27.5
t74.5 -19l124 -33q40 -10 57 -14.5t58 -18t62 -25t52.5 -32.5t47.5 -43t28.5 -54t12.5 -69q0 -69 -41 -137t-111 -120.5t-171.5 -85t-213.5 -32.5z" />
    <glyph glyph-name="uni0162" unicode="&#x162;" horiz-adv-x="1546" 
d="M197 1479l20 118h1479l-19 -118h-669q-29 -163 -46.5 -266.5t-28 -163t-56.5 -316.5t-132 -733h-20l-164 -162q47 19 105 19q89 0 141.5 -38.5t52.5 -101.5q0 -85 -85 -145.5t-212 -60.5q-80 0 -156.5 29.5t-121.5 80.5l71 53q32 -41 90.5 -65.5t120.5 -24.5
q80 0 135.5 35t55.5 86q0 39 -38.5 62.5t-96.5 23.5q-66 0 -123 -24l-51 49l174 184h-23q26 149 40 227.5t26 144t63.5 353t134.5 754.5h-667z" />
    <glyph glyph-name="uni0163" unicode="&#x163;" horiz-adv-x="892" 
d="M930 1020h-422l-119 -651q-6 -30 -8 -43.5t-6 -43.5t-3.5 -45.5t2.5 -41t8.5 -39.5t18.5 -31.5t29 -26.5t42.5 -15.5t57.5 -6.5q115 0 240 65l-18 -118q-110 -58 -260 -58q-34 0 -48 2l-131 -129q47 19 105 19q89 0 141.5 -38.5t52.5 -101.5q0 -85 -85 -145.5t-212 -60.5
q-80 0 -156.5 29.5t-121.5 80.5l72 53q32 -41 90 -65.5t120 -24.5q80 0 135.5 35t55.5 86q0 39 -38.5 62.5t-96.5 23.5q-66 0 -123 -24l-51 49l159 170q-33 13 -57.5 34t-38.5 42.5t-21 53.5t-9 55t0.5 59t5.5 54.5t8 51.5l123 684h-271l17 108h270l59 338h138l-60 -338h422
z" />
    <glyph glyph-name="Tcaron" unicode="&#x164;" horiz-adv-x="1546" 
d="M1313 2023h127l-369 -303h-188l-265 303h127q168 -147 246 -225q198 143 322 225zM745 0h-145q26 149 40 227.5t26 144t63.5 353t134.5 754.5h-667l20 118h1479l-19 -118h-669q-29 -163 -46.5 -266.5t-28 -163t-56.5 -316.5t-132 -733z" />
    <glyph glyph-name="tcaron" unicode="&#x165;" horiz-adv-x="892" 
d="M1051 1180h-93l191 252q-68 19 -68 81q0 50 44 87.5t102 37.5q43 0 71.5 -26t28.5 -66q0 -38 -49 -103.5t-227 -262.5zM492 -35q-63 0 -110 14.5t-75 35.5t-45 55.5t-23.5 64t-5 71.5t4.5 67.5t10 62.5l123 684h-271l17 108h270l59 338h138l-60 -338h422l-16 -108h-422
l-119 -651q-6 -30 -8 -43.5t-6 -43.5t-3.5 -45.5t2.5 -41t8.5 -39.5t18.5 -31.5t29 -26.5t42.5 -15.5t57.5 -6.5q115 0 240 65l-18 -118q-110 -58 -260 -58z" />
    <glyph glyph-name="Tbar" unicode="&#x166;" horiz-adv-x="1546" 
d="M1696 1597l-19 -118h-669q-6 -31 -109 -627h436l-18 -109h-438q-15 -83 -59 -328t-75 -415h-145q20 116 32.5 185.5t19.5 108t28.5 156t52.5 293.5h-438l18 109h439q25 132 112 627h-667l20 118h1479z" />
    <glyph glyph-name="tbar" unicode="&#x167;" horiz-adv-x="892" 
d="M946 1128l-16 -108h-422l-62 -332h400l-15 -104h-403l-39 -215q-6 -30 -8 -43.5t-6 -43.5t-3.5 -45.5t2.5 -41t8.5 -39.5t18.5 -31.5t29 -26.5t42.5 -15.5t57.5 -6.5q115 0 240 65l-18 -118q-110 -58 -260 -58q-63 0 -110 14.5t-75 35.5t-45 55.5t-23.5 64t-5 71.5
t4.5 67.5t10 62.5l45 248h-266l16 104h268l60 332h-271l17 108h270l59 338h138l-60 -338h422z" />
    <glyph glyph-name="Umacron" unicode="&#x16a;" horiz-adv-x="1853" 
d="M1552 1835h-790l20 107h787zM819 -35q-315 0 -468.5 156t-100.5 454l182 1022h143l-180 -1015q-44 -252 74.5 -375t372.5 -123q255 0 419 125t207 373l183 1015h143l-182 -1022q-24 -135 -85.5 -245t-159 -192.5t-237.5 -127.5t-311 -45z" />
    <glyph glyph-name="umacron" unicode="&#x16b;" horiz-adv-x="1529" 
d="M1307 1421h-826l19 105h825zM590 -35q-73 0 -137.5 14.5t-124.5 47t-96.5 85t-54 129t2.5 179.5l127 708h135l-116 -657q-11 -76 -7.5 -135t26 -102.5t52 -73.5t70.5 -48t82.5 -26t87.5 -8q84 0 161.5 24.5t136 65.5t105 94t74.5 110.5t39 114.5l113 641h135l-137 -776
q-39 -214 -17 -352h-139q-13 131 6 215h-6q-198 -250 -518 -250z" />
    <glyph glyph-name="Uring" unicode="&#x16e;" horiz-adv-x="1853" 
d="M1133 1716q-102 0 -166 51.5t-64 133.5q0 100 90 173.5t215 73.5q103 0 166.5 -51t63.5 -133q0 -100 -89 -174t-216 -74zM1149 1806q77 0 130.5 43.5t53.5 106.5q0 48 -39 75t-100 27q-80 0 -133 -42t-53 -105q0 -50 39 -77.5t102 -27.5zM819 -35q-315 0 -468.5 156
t-100.5 454l182 1022h143l-180 -1015q-44 -252 74.5 -375t372.5 -123q255 0 419 125t207 373l183 1015h143l-182 -1022q-24 -135 -85.5 -245t-159 -192.5t-237.5 -127.5t-311 -45z" />
    <glyph glyph-name="uring" unicode="&#x16f;" horiz-adv-x="1529" 
d="M860 1247q-102 0 -165.5 51.5t-63.5 133.5q0 101 89 174t216 73q103 0 166 -51t63 -133q0 -100 -89 -174t-216 -74zM874 1337q78 0 132.5 43.5t54.5 106.5q0 48 -39 75t-100 27q-80 0 -133.5 -42t-53.5 -105q0 -50 38.5 -77.5t100.5 -27.5zM590 -35q-73 0 -137.5 14.5
t-124.5 47t-96.5 85t-54 129t2.5 179.5l127 708h135l-116 -657q-11 -76 -7.5 -135t26 -102.5t52 -73.5t70.5 -48t82.5 -26t87.5 -8q84 0 161.5 24.5t136 65.5t105 94t74.5 110.5t39 114.5l113 641h135l-137 -776q-39 -214 -17 -352h-139q-13 131 6 215h-6
q-198 -250 -518 -250z" />
    <glyph glyph-name="Uhungarumlaut" unicode="&#x170;" horiz-adv-x="1853" 
d="M1362 2042l-385 -322h-125l309 322h201zM1722 2042l-405 -322h-127l334 322h198zM819 -35q-315 0 -468.5 156t-100.5 454l182 1022h143l-180 -1015q-44 -252 74.5 -375t372.5 -123q255 0 419 125t207 373l183 1015h143l-182 -1022q-24 -135 -85.5 -245t-159 -192.5
t-237.5 -127.5t-311 -45z" />
    <glyph glyph-name="uhungarumlaut" unicode="&#x171;" horiz-adv-x="1529" 
d="M1108 1673l-399 -395h-119l323 395h195zM1473 1673l-420 -395h-121l346 395h195zM590 -35q-73 0 -137.5 14.5t-124.5 47t-96.5 85t-54 129t2.5 179.5l127 708h135l-116 -657q-11 -76 -7.5 -135t26 -102.5t52 -73.5t70.5 -48t82.5 -26t87.5 -8q84 0 161.5 24.5t136 65.5
t105 94t74.5 110.5t39 114.5l113 641h135l-137 -776q-39 -214 -17 -352h-139q-13 131 6 215h-6q-198 -250 -518 -250z" />
    <glyph glyph-name="Uogonek" unicode="&#x172;" horiz-adv-x="1853" 
d="M1468 582l183 1015h143l-182 -1022q-22 -123 -75 -226t-136.5 -182.5t-201.5 -130.5t-263 -65q-186 -93 -186 -209q0 -62 54.5 -98.5t135.5 -36.5q45 0 111 15l-17 -91q-69 -14 -116 -14q-124 0 -203.5 52t-79.5 145q0 134 170 231q-308 3 -458 159.5t-97 450.5l182 1022
h143l-180 -1015q-44 -252 74.5 -375t372.5 -123q255 0 419 125t207 373z" />
    <glyph glyph-name="uogonek" unicode="&#x173;" horiz-adv-x="1529" 
d="M983 -238q0 -62 55 -97.5t138 -35.5q44 0 108 15l-18 -93q-63 -14 -117 -14q-129 0 -205 54t-76 145q0 152 240 264q-13 131 6 215h-6q-198 -250 -518 -250q-73 0 -137.5 14.5t-124.5 47t-96.5 85t-54 129t2.5 179.5l127 708h135l-116 -657q-11 -76 -7.5 -135t26 -102.5
t52 -73.5t70.5 -48t82.5 -26t87.5 -8q84 0 161.5 24.5t136 65.5t105 94t74.5 110.5t39 114.5l113 641h135l-137 -776q-39 -214 -17 -352h-14q-106 -41 -178 -101.5t-72 -136.5z" />
    <glyph glyph-name="Wcircumflex" unicode="&#x174;" horiz-adv-x="2781" 
d="M1743 2023l266 -303h-127q-181 162 -244 224q-27 -20 -65.5 -47.5t-60 -43.5t-72.5 -50t-125 -83h-127l368 303h187zM750 0h-172l-347 1597h152q221 -965 309 -1427h4q547 972 797 1427h162q23 -112 130.5 -630.5t162.5 -796.5h6q452 809 813 1427h151l-911 -1597h-172
q-140 629 -287 1413h-4q-29 -53 -109 -199t-113 -205.5t-102 -185t-113 -204t-107.5 -190t-124 -215.5t-125.5 -214z" />
    <glyph glyph-name="wcircumflex" unicode="&#x175;" horiz-adv-x="2215" 
d="M909 1278h-131l422 356h193l293 -356h-130q-23 23 -77 74t-103 100t-92 98q-57 -46 -111 -86t-142.5 -101.5t-121.5 -84.5zM584 0h-138l-299 1128h148l250 -960h6l588 960h141l256 -960h4l584 960h147l-696 -1128h-139q-159 587 -248 979h-4q-269 -456 -600 -979z" />
    <glyph glyph-name="Ycircumflex" unicode="&#x176;" horiz-adv-x="1681" 
d="M1192 2023l266 -303h-127q-181 162 -244 224q-27 -20 -65.5 -47.5t-60 -43.5t-72.5 -50t-125 -83h-127l369 303h186zM813 0h-143q10 55 29 169t75 421q-19 36 -220.5 398.5t-322.5 608.5h158l477 -884h4q90 99 144.5 163t86.5 102.5t171 192.5t391 426h154
q-114 -127 -421.5 -472.5t-477.5 -534.5z" />
    <glyph glyph-name="ycircumflex" unicode="&#x177;" horiz-adv-x="1314" 
d="M442 1278h-131l422 356h193l293 -356h-129q-23 23 -77 73.5t-103.5 100t-92.5 98.5q-57 -46 -111 -86t-142.5 -101.5t-121.5 -84.5zM328 -451h-121l287 439l-353 1140h148q59 -191 167.5 -557t125.5 -424h6q72 111 202 312t236 364t201 305h147z" />
    <glyph glyph-name="Ydieresis" unicode="&#x178;" horiz-adv-x="1681" 
d="M829 1790q-43 0 -72.5 25t-29.5 63q0 46 40.5 81.5t94.5 35.5q42 0 70.5 -24.5t28.5 -59.5q0 -47 -40 -84t-92 -37zM1292 1790q-45 0 -74.5 25t-29.5 61q0 49 41 84t94 35q43 0 72.5 -25.5t29.5 -60.5q0 -45 -40.5 -82t-92.5 -37zM813 0h-143q10 55 29 169t75 421
q-19 36 -220.5 398.5t-322.5 608.5h158l477 -884h4q90 99 144.5 163t86.5 102.5t171 192.5t391 426h154q-114 -127 -421.5 -472.5t-477.5 -534.5z" />
    <glyph glyph-name="Zacute" unicode="&#x179;" horiz-adv-x="1603" 
d="M1468 2042l-462 -322h-127l374 322h215zM1432 0h-1463l23 129q280 253 791.5 709.5t711.5 636.5l2 4h-1214l20 118h1391l-23 -124q-666 -596 -1509 -1344v-4h1290z" />
    <glyph glyph-name="zacute" unicode="&#x17a;" horiz-adv-x="1171" 
d="M1210 1671l-442 -393h-121l367 393h196zM1018 0h-1049l17 92l972 924h-759l18 112h944l-14 -92l-979 -923h866z" />
    <glyph glyph-name="Zdotaccent" unicode="&#x17b;" horiz-adv-x="1603" 
d="M997 1788q-46 0 -77 26t-31 66q0 51 44 88t101 37q45 0 76 -26t31 -64q0 -51 -44 -89t-100 -38zM1432 0h-1463l23 129q280 253 791.5 709.5t711.5 636.5l2 4h-1214l20 118h1391l-23 -124q-666 -596 -1509 -1344v-4h1290z" />
    <glyph glyph-name="zdotaccent" unicode="&#x17c;" horiz-adv-x="1171" 
d="M743 1425q-45 0 -75.5 27.5t-30.5 67.5q0 49 43 85.5t102 36.5q45 0 76 -26t31 -64q0 -50 -44.5 -88.5t-101.5 -38.5zM1018 0h-1049l17 92l972 924h-759l18 112h944l-14 -92l-979 -923h866z" />
    <glyph glyph-name="Zcaron" unicode="&#x17d;" horiz-adv-x="1603" 
d="M1307 2023h127l-369 -303h-188l-265 303h127q168 -147 246 -225q198 143 322 225zM1432 0h-1463l23 129q280 253 791.5 709.5t711.5 636.5l2 4h-1214l20 118h1391l-23 -124q-666 -596 -1509 -1344v-4h1290z" />
    <glyph glyph-name="zcaron" unicode="&#x17e;" horiz-adv-x="1171" 
d="M811 1280h-193l-292 358h129q26 -25 75.5 -71.5t73.5 -69.5t59.5 -59t65.5 -70q53 42 111 84t138 98t124 88h129zM1018 0h-1049l17 92l972 924h-759l18 112h944l-14 -92l-979 -923h866z" />
    <glyph glyph-name="uni0218" unicode="&#x218;" horiz-adv-x="1574" 
d="M711 -35q-85 0 -165 14.5t-159 49t-141 86.5t-107.5 133.5t-60.5 183.5l139 45q27 -189 169 -290t353 -101q148 0 271.5 49t194.5 132.5t71 181.5q0 49 -19.5 88.5t-50.5 64.5t-76.5 45.5t-89 33t-95.5 26.5q-27 6 -40 10l-172 47q-38 11 -67 19.5t-73 24t-77.5 32.5
t-72 40t-66.5 50.5t-52 60.5t-36.5 74.5t-12.5 87.5q0 76 33.5 148t96.5 131t147 103.5t190.5 69.5t221.5 25q243 0 390.5 -104.5t176.5 -278.5l-135 -49q-30 142 -152.5 226.5t-312.5 84.5q-212 0 -356 -97t-144 -230q0 -40 15.5 -75.5t37 -61.5t57.5 -50t64 -38t70 -29.5
t62.5 -21.5t54.5 -15l176 -49q170 -47 228 -70q197 -78 234 -218q9 -34 9 -73q0 -131 -95.5 -249.5t-265 -192.5t-368.5 -74zM563 -508h-69l147 191q-88 17 -88 81q0 46 41.5 82.5t97.5 36.5q42 0 72.5 -25t30.5 -61q0 -40 -38.5 -90t-162.5 -182q-20 -21 -31 -33z" />
    <glyph glyph-name="uni0219" unicode="&#x219;" horiz-adv-x="1196" 
d="M526 -35q-193 0 -328.5 87t-166.5 229l133 38q35 -112 142.5 -179.5t246.5 -67.5q147 0 256 70.5t109 168.5q0 90 -106 135q-43 19 -161 48l-121 30q-29 7 -38.5 9.5t-43.5 12.5t-51 17.5t-49 22t-50 28.5t-41.5 35.5t-36 44t-21.5 52.5t-9 63q0 94 66 175t179.5 129
t244.5 48q170 0 287 -76.5t145 -197.5l-139 -41q-24 89 -107 149t-215 60q-134 0 -225.5 -63t-91.5 -152q0 -39 20 -72t47 -53.5t71 -39t74.5 -27.5t74.5 -19l124 -33q40 -10 57 -14.5t58 -18t62 -25t52.5 -32.5t47.5 -43t28.5 -54t12.5 -69q0 -69 -41 -137t-111 -120.5
t-171.5 -85t-213.5 -32.5zM379 -508h-70l148 191q-88 17 -88 81q0 46 41.5 82.5t97.5 36.5q42 0 72 -25t30 -61q0 -41 -38.5 -90.5t-168.5 -188.5q-16 -17 -24 -26z" />
    <glyph glyph-name="uni021A" unicode="&#x21a;" horiz-adv-x="1546" 
d="M745 0h-145q26 149 40 227.5t26 144t63.5 353t134.5 754.5h-667l20 118h1479l-19 -118h-669q-29 -163 -46.5 -266.5t-28 -163t-56.5 -316.5t-132 -733zM514 -508h-70l148 191q-88 17 -88 81q0 46 41.5 82.5t97.5 36.5q42 0 72 -25t30 -61q0 -41 -38.5 -90.5
t-168.5 -188.5q-16 -17 -24 -26z" />
    <glyph glyph-name="uni021B" unicode="&#x21b;" horiz-adv-x="892" 
d="M492 -35q-63 0 -110 14.5t-75 35.5t-45 55.5t-23.5 64t-5 71.5t4.5 67.5t10 62.5l123 684h-271l17 108h270l59 338h138l-60 -338h422l-16 -108h-422l-119 -651q-6 -30 -8 -43.5t-6 -43.5t-3.5 -45.5t2.5 -41t8.5 -39.5t18.5 -31.5t29 -26.5t42.5 -15.5t57.5 -6.5
q115 0 240 65l-18 -118q-110 -58 -260 -58zM266 -508h-69l147 191q-88 17 -88 81q0 46 41.5 82.5t97.5 36.5q42 0 72.5 -25t30.5 -61q0 -40 -38.5 -90t-162.5 -182q-10 -10 -17 -17.5t-14 -15.5z" />
    <glyph glyph-name="gravecomb" unicode="&#x300;" horiz-adv-x="0" 
d="M119 1278h-121l-303 393h194z" />
    <glyph glyph-name="acutecomb" unicode="&#x301;" horiz-adv-x="0" 
d="M442 1671l-442 -393h-121l367 393h196z" />
    <glyph glyph-name="uni0302" unicode="&#x302;" horiz-adv-x="0" 
d="M-569 1278h-131l421 356h193l293 -356h-129q-23 23 -77 73.5t-103.5 100t-92.5 98.5q-44 -36 -93.5 -73t-85 -62t-97.5 -68t-98 -69z" />
    <glyph glyph-name="tildecomb" unicode="&#x303;" horiz-adv-x="0" 
d="M-131 1339q-42 0 -77 12t-53.5 25.5t-49.5 40.5l-41 31q-1 1 -11 9l-12.5 10t-11.5 8.5t-13.5 8.5t-13.5 6.5t-15.5 6t-16 3t-19.5 1.5q-60 0 -103 -41t-57 -106h-104q20 108 100.5 175.5t186.5 67.5q50 0 86.5 -17.5t76.5 -49.5l46 -37q66 -57 127 -57q57 0 98 41
t53 106h109q-21 -110 -97.5 -177t-187.5 -67z" />
    <glyph glyph-name="uni0304" unicode="&#x304;" horiz-adv-x="0" 
d="M164 1419h-826l19 105h825z" />
    <glyph glyph-name="uni0306" unicode="&#x306;" horiz-adv-x="0" 
d="M-238 1276q-204 0 -302.5 110.5t-75.5 284.5h127q-20 -132 55.5 -211.5t210.5 -79.5q138 0 242.5 79t134.5 212h127q-39 -174 -179 -284.5t-340 -110.5z" />
    <glyph glyph-name="uni0307" unicode="&#x307;" horiz-adv-x="0" 
d="M-25 1423q-45 0 -75.5 27.5t-30.5 67.5q0 49 43 85.5t102 36.5q45 0 76 -26t31 -64q0 -50 -44.5 -88.5t-101.5 -38.5z" />
    <glyph glyph-name="uni0308" unicode="&#x308;" horiz-adv-x="0" 
d="M-756 1376q-43 0 -71.5 25.5t-28.5 62.5q0 45 40.5 80t92.5 35q42 0 70 -24t28 -60q0 -47 -39 -83t-92 -36zM-336 1376q-45 0 -73.5 24.5t-28.5 61.5q0 47 39.5 82t93.5 35q42 0 71 -25t29 -61q0 -44 -40.5 -80.5t-90.5 -36.5z" />
    <glyph glyph-name="uni030A" unicode="&#x30a;" horiz-adv-x="0" 
d="M-45 1247q-102 0 -165.5 51.5t-63.5 133.5q0 101 89 174t216 73q103 0 166 -51t63 -133q0 -100 -89 -174t-216 -74zM-31 1337q78 0 132.5 43.5t54.5 106.5q0 48 -39.5 75t-100.5 27q-80 0 -133 -42t-53 -105q0 -50 38.5 -77.5t100.5 -27.5z" />
    <glyph glyph-name="uni030B" unicode="&#x30b;" horiz-adv-x="0" 
d="M170 1673l-399 -395h-119l323 395h195zM535 1673l-420 -395h-121l346 395h195z" />
    <glyph glyph-name="uni030C" unicode="&#x30c;" horiz-adv-x="0" 
d="M-150 1278h-192l-293 358h129q28 -27 75.5 -71.5t73 -69t61 -60t65.5 -69.5q53 42 110 83.5t138.5 99t123.5 87.5h129z" />
    <glyph glyph-name="uni0312" unicode="&#x312;" horiz-adv-x="0" 
d="M-256 1317q0 38 48.5 102t219.5 254h92l-184 -246q30 -8 48 -28.5t18 -50.5q0 -49 -42 -85t-98 -36q-43 0 -72.5 25.5t-29.5 64.5z" />
    <glyph glyph-name="uni0326" unicode="&#x326;" horiz-adv-x="0" 
d="M-469 -508h-70l148 191q-88 17 -88 81q0 46 41.5 82.5t97.5 36.5q42 0 72 -25t30 -61q0 -41 -38.5 -90.5t-168.5 -188.5q-16 -17 -24 -26z" />
    <glyph glyph-name="uni0327" unicode="&#x327;" horiz-adv-x="0" 
d="M-831 -489q-80 0 -157 29.5t-122 80.5l72 53q32 -41 90.5 -65.5t120.5 -24.5q80 0 135 35t55 86q0 39 -38.5 62.5t-96.5 23.5q-66 0 -123 -24l-51 49l174 184h102l-164 -162q48 19 105 19q89 0 141.5 -38.5t52.5 -101.5q0 -85 -84.5 -145.5t-211.5 -60.5z" />
    <glyph glyph-name="uni0328" unicode="&#x328;" horiz-adv-x="0" 
d="M-831 -483q-129 0 -205 53.5t-76 144.5q0 153 240 265h124q-106 -41 -177.5 -101.5t-71.5 -136.5q0 -62 54.5 -97.5t137.5 -35.5q49 0 109 14l-19 -92q-63 -14 -116 -14z" />
    <glyph glyph-name="uni0335" unicode="&#x335;" horiz-adv-x="0" 
d="M-743 616h802l-14 -104h-805z" />
    <glyph glyph-name="uni0337" unicode="&#x337;" horiz-adv-x="0" 
d="M-457 528l19 111l684 377l-17 -111z" />
    <glyph glyph-name="uni0338" unicode="&#x338;" horiz-adv-x="0" 
d="M-1229 -57h-153l1319 1237h147z" />
    <glyph glyph-name="Wgrave" unicode="&#x1e80;" horiz-adv-x="2781" 
d="M1696 1720h-127l-352 322h217zM750 0h-172l-347 1597h152q221 -965 309 -1427h4q547 972 797 1427h162q23 -112 130.5 -630.5t162.5 -796.5h6q452 809 813 1427h151l-911 -1597h-172q-140 629 -287 1413h-4q-29 -53 -109 -199t-113 -205.5t-102 -185t-113 -204
t-107.5 -190t-124 -215.5t-125.5 -214z" />
    <glyph glyph-name="wgrave" unicode="&#x1e81;" horiz-adv-x="2215" 
d="M1300 1278h-120l-303 393h194zM584 0h-138l-299 1128h148l250 -960h6l588 960h141l256 -960h4l584 960h147l-696 -1128h-139q-159 587 -248 979h-4q-269 -456 -600 -979z" />
    <glyph glyph-name="Wacute" unicode="&#x1e82;" horiz-adv-x="2781" 
d="M2095 2042l-463 -322h-127l375 322h215zM750 0h-172l-347 1597h152q221 -965 309 -1427h4q547 972 797 1427h162q23 -112 130.5 -630.5t162.5 -796.5h6q452 809 813 1427h151l-911 -1597h-172q-140 629 -287 1413h-4q-29 -53 -109 -199t-113 -205.5t-102 -185t-113 -204
t-107.5 -190t-124 -215.5t-125.5 -214z" />
    <glyph glyph-name="wacute" unicode="&#x1e83;" horiz-adv-x="2215" 
d="M1731 1671l-443 -393h-121l367 393h197zM584 0h-138l-299 1128h148l250 -960h6l588 960h141l256 -960h4l584 960h147l-696 -1128h-139q-159 587 -248 979h-4q-269 -456 -600 -979z" />
    <glyph glyph-name="Wdieresis" unicode="&#x1e84;" horiz-adv-x="2781" 
d="M1380 1790q-43 0 -72.5 25t-29.5 63q0 46 40.5 81.5t94.5 35.5q42 0 70 -24t28 -60q0 -48 -39.5 -84.5t-91.5 -36.5zM1843 1790q-45 0 -74.5 25t-29.5 61q0 49 41 84t94 35q43 0 72.5 -25.5t29.5 -60.5q0 -45 -40.5 -82t-92.5 -37zM750 0h-172l-347 1597h152
q221 -965 309 -1427h4q547 972 797 1427h162q23 -112 130.5 -630.5t162.5 -796.5h6q452 809 813 1427h151l-911 -1597h-172q-140 629 -287 1413h-4q-29 -53 -109 -199t-113 -205.5t-102 -185t-113 -204t-107.5 -190t-124 -215.5t-125.5 -214z" />
    <glyph glyph-name="wdieresis" unicode="&#x1e85;" horiz-adv-x="2215" 
d="M1044 1376q-43 0 -71.5 25.5t-28.5 62.5q0 45 40.5 80t92.5 35q42 0 70.5 -24.5t28.5 -59.5q0 -46 -39.5 -82.5t-92.5 -36.5zM1464 1376q-45 0 -73.5 24.5t-28.5 61.5q0 47 39.5 82t93.5 35q42 0 71 -25t29 -61q0 -44 -40.5 -80.5t-90.5 -36.5zM584 0h-138l-299 1128h148
l250 -960h6l588 960h141l256 -960h4l584 960h147l-696 -1128h-139q-159 587 -248 979h-4q-269 -456 -600 -979z" />
    <glyph glyph-name="uni1E9E" unicode="&#x1e9e;" horiz-adv-x="1828" 
d="M289 0h-146l168 944q8 47 16 83.5t25.5 93.5t38 101.5t55.5 99.5t77 96.5t102.5 83t132 68.5t166.5 43.5t204 16.5q285 0 441.5 -102.5t156.5 -282.5q0 -163 -121 -285.5t-305 -150.5l-2 -2q162 -8 268.5 -94t106.5 -238q0 -97 -47.5 -182.5t-137 -151t-232 -103.5
t-320.5 -38h-203l21 119h233q247 0 391 96.5t144 251.5q0 131 -109.5 202.5t-310.5 71.5h-129l16 119h146q191 0 314.5 101.5t123.5 252.5q0 144 -120 224t-341 80q-90 0 -168.5 -14.5t-136 -36.5t-107 -58t-82 -69t-60 -80t-42 -79.5t-27.5 -79.5t-17.5 -68.5t-10.5 -57.5z
" />
    <glyph glyph-name="Ygrave" unicode="&#x1ef2;" horiz-adv-x="1681" 
d="M1145 1720h-127l-352 322h217zM813 0h-143q10 55 29 169t75 421q-19 36 -220.5 398.5t-322.5 608.5h158l477 -884h4q90 99 144.5 163t86.5 102.5t171 192.5t391 426h154q-114 -127 -421.5 -472.5t-477.5 -534.5z" />
    <glyph glyph-name="ygrave" unicode="&#x1ef3;" horiz-adv-x="1314" 
d="M834 1278h-121l-303 393h194zM328 -451h-121l287 439l-353 1140h148q59 -191 167.5 -557t125.5 -424h6q72 111 202 312t236 364t201 305h147z" />
    <glyph glyph-name="uni2000" unicode="&#x2000;" horiz-adv-x="1228" 
 />
    <glyph glyph-name="uni2001" unicode="&#x2001;" 
 />
    <glyph glyph-name="uni2002" unicode="&#x2002;" horiz-adv-x="1228" 
 />
    <glyph glyph-name="uni2003" unicode="&#x2003;" 
 />
    <glyph glyph-name="uni2004" unicode="&#x2004;" horiz-adv-x="819" 
 />
    <glyph glyph-name="uni2005" unicode="&#x2005;" horiz-adv-x="614" 
 />
    <glyph glyph-name="uni2006" unicode="&#x2006;" horiz-adv-x="409" 
 />
    <glyph glyph-name="uni2007" unicode="&#x2007;" horiz-adv-x="686" 
 />
    <glyph glyph-name="uni2008" unicode="&#x2008;" horiz-adv-x="552" 
 />
    <glyph glyph-name="uni2009" unicode="&#x2009;" horiz-adv-x="307" 
 />
    <glyph glyph-name="uni200A" unicode="&#x200a;" horiz-adv-x="102" 
 />
    <glyph glyph-name="uni200B" unicode="&#x200b;" horiz-adv-x="0" 
 />
    <glyph glyph-name="endash" unicode="&#x2013;" horiz-adv-x="1202" 
d="M1063 569h-924l19 109h923z" />
    <glyph glyph-name="emdash" unicode="&#x2014;" horiz-adv-x="1718" 
d="M1579 571h-1440l19 105h1439z" />
    <glyph glyph-name="quoteleft" unicode="&#x2018;" horiz-adv-x="544" 
d="M506 1630h90l-188 -250q67 -19 67 -82q0 -48 -43 -86t-102 -38q-43 0 -72 26t-29 66q0 38 49 102.5t228 261.5z" />
    <glyph glyph-name="quoteright" unicode="&#x2019;" horiz-adv-x="552" 
d="M344 1178h-94l190 252q-67 19 -67 81q0 50 43.5 86.5t101.5 36.5q43 0 73 -25.5t30 -64.5q0 -38 -49 -102.5t-228 -263.5z" />
    <glyph glyph-name="quotesinglbase" unicode="&#x201a;" horiz-adv-x="516" 
d="M70 -256h-93l191 250q-68 19 -68 84q0 48 42.5 85.5t101.5 37.5q43 0 72.5 -26.5t29.5 -65.5q0 -38 -48.5 -102.5t-227.5 -262.5z" />
    <glyph glyph-name="quotedblleft" unicode="&#x201c;" horiz-adv-x="905" 
d="M526 1630h90l-188 -250q68 -19 68 -82q0 -48 -43.5 -86t-102.5 -38q-43 0 -71.5 26t-28.5 66q0 38 49 103t227 261zM815 1630h92l-190 -250q67 -19 67 -82q0 -48 -42 -86t-101 -38q-43 0 -72.5 26.5t-29.5 65.5q0 38 49 103t227 261z" />
    <glyph glyph-name="quotedblright" unicode="&#x201d;" horiz-adv-x="915" 
d="M342 1178h-90l188 252q-67 19 -67 81q0 48 43 85.5t102 37.5q43 0 71.5 -25.5t28.5 -64.5t-48 -102.5t-228 -263.5zM707 1178h-95l191 252q-31 9 -48.5 30.5t-17.5 50.5q0 49 42.5 86t99.5 37q44 0 74 -26t30 -64t-49 -103.5t-227 -262.5z" />
    <glyph glyph-name="quotedblbase" unicode="&#x201e;" horiz-adv-x="878" 
d="M47 -252h-92l190 250q-67 19 -67 82q0 48 42.5 86.5t100.5 38.5q44 0 73.5 -26t29.5 -66q0 -38 -49.5 -103.5t-227.5 -261.5zM412 -252h-93l187 250q-31 9 -48.5 31t-17.5 51q0 50 43 87.5t101 37.5q44 0 74 -27t30 -65q0 -37 -50 -103.5t-226 -261.5z" />
    <glyph glyph-name="dagger" unicode="&#x2020;" horiz-adv-x="1193" 
d="M793 1292h415l-18 -112h-416l-131 -750h-137l133 750h-416l19 112h415l62 346h135z" />
    <glyph glyph-name="daggerdbl" unicode="&#x2021;" horiz-adv-x="1306" 
d="M1264 1292l-21 -112h-412l-55 -301h414l-19 -115h-411l-60 -344h-137l60 344h-414l18 115h414l53 301h-413l20 112h416l59 346h135l-59 -346h412z" />
    <glyph glyph-name="bullet" unicode="&#x2022;" horiz-adv-x="921" 
d="M473 428q-79 0 -132.5 46.5t-53.5 115.5q0 88 75.5 153.5t176.5 65.5q77 0 130.5 -45.5t53.5 -112.5q0 -85 -76 -154t-174 -69z" />
    <glyph glyph-name="ellipsis" unicode="&#x2026;" horiz-adv-x="1562" 
d="M219 -14q-46 0 -76 26t-30 66q0 50 42 86.5t99 36.5q44 0 74 -26t30 -64q0 -47 -42.5 -86t-96.5 -39zM623 -14q-45 0 -75 26t-30 66q0 50 42 86.5t99 36.5q43 0 74 -26t31 -64q0 -47 -43 -86t-98 -39zM1225 -14q-45 0 -75 26t-30 66q0 49 42.5 86t99.5 37q43 0 73.5 -26
t30.5 -64q0 -47 -43 -86t-98 -39z" />
    <glyph glyph-name="uni202F" unicode="&#x202f;" horiz-adv-x="491" 
 />
    <glyph glyph-name="perthousand" unicode="&#x2030;" horiz-adv-x="2783" 
d="M451 797q-119 0 -190 76.5t-71 207.5q0 82 29.5 162t80.5 142.5t124 100.5t154 38q120 0 190 -78t70 -211q0 -111 -49.5 -211.5t-139.5 -163.5t-198 -63zM276 0h-129l1625 1468h120zM463 889q68 0 127.5 49t94 128t34.5 165q0 93 -40.5 146t-111.5 53q-68 0 -127.5 -49.5
t-94 -128.5t-34.5 -165q0 -94 40 -146t112 -52zM1446 -29q-119 0 -189.5 77t-70.5 208q0 111 49.5 212t139.5 165.5t198 64.5q120 0 190 -77.5t70 -210.5q0 -111 -49.5 -211.5t-139.5 -164t-198 -63.5zM2267 -29q-119 0 -189.5 77t-70.5 208q0 111 49.5 212t139.5 165.5
t198 64.5q120 0 190 -77.5t70 -210.5q0 -111 -49.5 -211.5t-139.5 -164t-198 -63.5zM1458 63q68 0 127.5 49.5t94 128.5t34.5 165q0 93 -40 145.5t-111 52.5q-68 0 -127.5 -49t-94 -128t-34.5 -165q0 -94 39.5 -146.5t111.5 -52.5zM2279 63q68 0 127.5 49.5t94 128.5
t34.5 165q0 93 -40 145.5t-111 52.5q-68 0 -127.5 -49t-94 -128t-34.5 -165q0 -94 39.5 -146.5t111.5 -52.5z" />
    <glyph glyph-name="guilsinglleft" unicode="&#x2039;" horiz-adv-x="890" 
d="M649 164h-166l-344 405l2 9l488 405h166l-488 -405l-2 -9z" />
    <glyph glyph-name="guilsinglright" unicode="&#x203a;" horiz-adv-x="892" 
d="M717 522l-486 -358l-94 47l453 358l-27 56l-280 358l157 -47l316 -358z" />
    <glyph glyph-name="fraction" unicode="&#x2044;" horiz-adv-x="319" 
d="M-545 0h-129l1624 1468h121z" />
    <glyph glyph-name="uni205F" unicode="&#x205f;" horiz-adv-x="544" 
 />
    <glyph glyph-name="uni2070" unicode="&#x2070;" horiz-adv-x="821" 
d="M451 797q-119 0 -190 76.5t-71 207.5q0 82 29.5 162t80.5 142.5t124 100.5t154 38q120 0 190 -78t70 -211q0 -111 -49.5 -211.5t-139.5 -163.5t-198 -63zM463 889q68 0 127.5 49t94 128t34.5 165q0 93 -40.5 146t-111.5 53q-68 0 -127.5 -49.5t-94 -128.5t-34.5 -165
q0 -94 40 -146t112 -52z" />
    <glyph glyph-name="uni2074" unicode="&#x2074;" horiz-adv-x="772" 
d="M623 811h-109l29 160h-414l14 86l496 452h106l-79 -452h116l-14 -86h-117zM614 1376l-360 -319h303z" />
    <glyph glyph-name="uni2075" unicode="&#x2075;" horiz-adv-x="757" 
d="M412 797q-108 0 -185 42.5t-94 116.5l105 45q14 -55 67.5 -86.5t120.5 -31.5q90 0 153.5 53.5t63.5 122.5q0 56 -44 90.5t-112 34.5q-113 0 -188 -82l-88 24l164 383h418l-13 -86h-340l-102 -227q31 28 88.5 46t108.5 18q93 0 160 -49.5t67 -139.5q0 -112 -103.5 -193
t-246.5 -81z" />
    <glyph glyph-name="uni2076" unicode="&#x2076;" horiz-adv-x="790" 
d="M446 797q-124 0 -193 68.5t-69 191.5q0 116 61.5 223.5t169 175.5t230.5 68q128 0 195 -62l-74 -67q-49 41 -139 41q-112 0 -201 -74.5t-117 -206.5h2q33 49 102.5 79t139.5 30q97 0 167.5 -53t70.5 -142q0 -107 -100.5 -189.5t-244.5 -82.5zM467 883q85 0 150 54t65 124
q0 57 -46 94t-116 37q-84 0 -149.5 -54.5t-65.5 -123.5q0 -56 47 -93.5t115 -37.5z" />
    <glyph glyph-name="uni2077" unicode="&#x2077;" horiz-adv-x="661" 
d="M338 811h-117q23 138 146 320.5t284 298.5h-456l14 88h584l-13 -93q-166 -110 -292 -290t-150 -324z" />
    <glyph glyph-name="uni2078" unicode="&#x2078;" horiz-adv-x="776" 
d="M430 797q-118 0 -191 50t-73 128q0 68 54.5 126t133.5 75l4 4q-48 19 -75 52.5t-27 74.5q0 85 88 151t213 66q101 0 167.5 -45.5t66.5 -118.5q0 -58 -41 -107.5t-111 -72.5l-2 -4q60 -14 95.5 -53.5t35.5 -94.5q0 -95 -98.5 -163t-239.5 -68zM504 1214q73 0 127.5 40
t54.5 92q0 43 -39.5 71.5t-101.5 28.5q-73 0 -125.5 -38t-52.5 -91q0 -45 38 -74t99 -29zM446 885q86 0 145.5 45t59.5 108q0 50 -42 78.5t-115 28.5q-89 0 -149 -41.5t-60 -102.5q0 -53 44 -84.5t117 -31.5z" />
    <glyph glyph-name="uni2079" unicode="&#x2079;" horiz-adv-x="802" 
d="M399 797q-159 0 -241 100l75 66q67 -80 181 -80q115 0 189 79.5t97 202.5q-35 -57 -104 -87.5t-141 -30.5q-101 0 -169.5 54t-68.5 144q0 114 103.5 196.5t248.5 82.5q125 0 190.5 -66.5t65.5 -195.5q0 -119 -56.5 -226t-155.5 -173t-214 -66zM481 1118q89 0 156.5 60
t67.5 135q0 58 -46 93.5t-114 35.5q-90 0 -154.5 -56.5t-64.5 -130.5q0 -60 43 -98.5t112 -38.5z" />
    <glyph glyph-name="uni2080" unicode="&#x2080;" horiz-adv-x="821" 
d="M260 -285q-119 0 -189.5 77t-70.5 208q0 111 49.5 212t139.5 165.5t198 64.5q120 0 190 -77.5t70 -210.5q0 -111 -49.5 -211.5t-139.5 -164t-198 -63.5zM272 -193q68 0 127.5 49.5t94 128.5t34.5 165q0 93 -40 145.5t-111 52.5q-68 0 -127.5 -49t-94 -128t-34.5 -165
q0 -94 39.5 -146.5t111.5 -52.5z" />
    <glyph glyph-name="uni2081" unicode="&#x2081;" horiz-adv-x="514" 
d="M205 -270h-111l92 520q-92 -68 -198 -84l16 102q84 18 145 62t70 98h107z" />
    <glyph glyph-name="uni2082" unicode="&#x2082;" horiz-adv-x="745" 
d="M510 -270h-555l2 10q32 115 91 172t239 149q190 97 190 191q0 44 -37.5 71t-99.5 27q-81 0 -142.5 -46.5t-74.5 -121.5l-100 17q19 107 112.5 175t218.5 68q106 0 173 -47.5t67 -128.5q0 -135 -201 -241q-28 -15 -76.5 -39.5t-70.5 -37t-51.5 -32.5t-47.5 -42t-32 -50
h409z" />
    <glyph glyph-name="uni2083" unicode="&#x2083;" horiz-adv-x="759" 
d="M227 -285q-109 0 -185 44t-89 116l104 43q16 -54 62 -85.5t119 -31.5q85 0 142.5 42t57.5 100q0 51 -46 78.5t-126 27.5h-82l11 76h90q80 0 135 37.5t55 93.5q0 45 -40.5 71.5t-102.5 26.5q-70 0 -122.5 -32.5t-74.5 -90.5l-98 21q27 85 117.5 137.5t199.5 52.5
q98 0 167 -43t69 -114q0 -63 -50 -118.5t-120 -70.5q61 -11 99 -48.5t38 -92.5q0 -97 -97.5 -168.5t-232.5 -71.5z" />
    <glyph glyph-name="uni2084" unicode="&#x2084;" horiz-adv-x="772" 
d="M432 -270h-108l28 159h-413l14 86l496 453h106l-80 -453h117l-14 -86h-117zM424 295l-361 -320h304z" />
    <glyph glyph-name="uni2085" unicode="&#x2085;" horiz-adv-x="757" 
d="M221 -285q-108 0 -184.5 43t-93.5 117l104 45q14 -55 68 -87t121 -32q90 0 153.5 53.5t63.5 122.5q0 56 -44 90.5t-112 34.5q-113 0 -188 -82l-89 25l164 383h418l-12 -86h-340l-103 -227q31 28 88 45.5t109 17.5q93 0 160 -49t67 -139q0 -112 -103.5 -193.5
t-246.5 -81.5z" />
    <glyph glyph-name="uni2086" unicode="&#x2086;" horiz-adv-x="790" 
d="M256 -285q-124 0 -193 68.5t-69 191.5q0 116 61.5 223.5t169 175.5t230.5 68q128 0 194 -61l-74 -68q-49 41 -139 41q-112 0 -200.5 -74t-116.5 -206h2q33 49 101.5 78.5t139.5 29.5q97 0 167.5 -53t70.5 -141q0 -107 -100 -190t-244 -83zM276 -199q85 0 150.5 54.5
t65.5 124.5q0 57 -46 94t-116 37q-84 0 -149.5 -55t-65.5 -124q0 -57 46.5 -94t114.5 -37z" />
    <glyph glyph-name="uni2087" unicode="&#x2087;" horiz-adv-x="661" 
d="M147 -270h-116q23 138 146 320t284 298h-457l14 88h584l-12 -92q-166 -110 -292.5 -290t-150.5 -324z" />
    <glyph glyph-name="uni2088" unicode="&#x2088;" horiz-adv-x="776" 
d="M240 -285q-118 0 -191.5 50.5t-73.5 128.5q0 68 55 125.5t134 74.5l4 4q-48 19 -75 52.5t-27 74.5q0 85 88 151t213 66q101 0 167 -45t66 -118q0 -58 -41 -108t-110 -73l-3 -4q61 -14 96.5 -53t35.5 -94q0 -95 -98.5 -163.5t-239.5 -68.5zM313 133q73 0 128 40t55 91
q0 43 -40 72t-102 29q-73 0 -125.5 -38t-52.5 -91q0 -45 38 -74t99 -29zM256 -197q86 0 145.5 45.5t59.5 108.5q0 49 -42 77.5t-116 28.5q-89 0 -149 -41t-60 -102q0 -54 44.5 -85.5t117.5 -31.5z" />
    <glyph glyph-name="uni2089" unicode="&#x2089;" horiz-adv-x="802" 
d="M209 -285q-69 0 -134 24.5t-108 76.5l76 65q67 -80 180 -80q115 0 189.5 80t97.5 203q-35 -57 -105 -88t-141 -31q-101 0 -169 54.5t-68 144.5q0 114 103.5 196t248.5 82q125 0 190.5 -66.5t65.5 -195.5q0 -119 -56.5 -226t-155.5 -173t-214 -66zM291 37q89 0 156 59.5
t67 134.5q0 58 -46 93.5t-114 35.5q-90 0 -154.5 -56t-64.5 -130q0 -60 43.5 -98.5t112.5 -38.5z" />
    <glyph glyph-name="Euro" unicode="&#x20ac;" horiz-adv-x="1939" 
d="M1411 1462q-270 0 -473 -130.5t-303 -342.5h825l-16 -100h-850q-39 -125 -39 -246h846l-19 -102h-821q29 -222 191 -339.5t438 -117.5q260 0 477 131l82 -92q-246 -158 -586 -158q-331 0 -527 151.5t-224 424.5h-267l17 102h246q3 135 38 246h-239l16 100h260
q54 126 144.5 233t210 187.5t274.5 126t326 45.5q329 0 520 -158l-119 -94q-159 133 -428 133z" />
    <glyph glyph-name="trademark" unicode="&#x2122;" horiz-adv-x="1863" 
d="M539 942h-111l107 586h-273l17 88h645l-17 -88h-264zM1057 942h-109l119 674h109q27 -87 87.5 -265.5t88.5 -265.5q68 96 190.5 277t173.5 254h109l-119 -674h-111l84 461q-14 -20 -77.5 -116t-231.5 -331h-84q-20 59 -47.5 149.5t-99.5 301.5z" />
    <glyph glyph-name="oneeighth" unicode="&#x215b;" horiz-adv-x="1609" 
d="M395 811h-110l92 520q-92 -68 -199 -84l17 103q84 18 145 61.5t70 97.5h106zM-31 0h-129l1624 1468h121zM1118 -29q-118 0 -191 50t-73 129q0 68 54.5 125.5t133.5 74.5l5 4q-48 19 -75.5 52.5t-27.5 74.5q0 85 88 151t213 66q101 0 167.5 -45t66.5 -118
q0 -58 -41.5 -108t-110.5 -73l-2 -4q60 -14 95.5 -53t35.5 -94q0 -95 -98.5 -163.5t-239.5 -68.5zM1192 389q73 0 127.5 40t54.5 91q0 43 -39.5 72t-101.5 29q-73 0 -125.5 -38t-52.5 -91q0 -45 38 -74t99 -29zM1135 59q86 0 145 45.5t59 108.5q0 50 -42 78t-115 28
q-89 0 -149 -41t-60 -102q0 -54 44.5 -85.5t117.5 -31.5z" />
    <glyph glyph-name="threeeighths" unicode="&#x215c;" horiz-adv-x="1855" 
d="M418 797q-109 0 -185.5 43.5t-89.5 115.5l105 43q15 -54 61 -85t119 -31q85 0 143 41.5t58 99.5q0 51 -46 78.5t-126 27.5h-82l10 76h90q80 0 135.5 37.5t55.5 93.5q0 45 -41 72t-103 27q-70 0 -122 -32.5t-74 -90.5l-99 20q27 85 118 138t200 53q98 0 166.5 -43.5
t68.5 -114.5q0 -63 -49.5 -118t-120.5 -70q61 -11 99.5 -49t38.5 -93q0 -97 -97.5 -168t-232.5 -71zM215 0h-129l1624 1468h121zM1364 -29q-118 0 -191 50t-73 129q0 68 54.5 125.5t133.5 74.5l4 4q-48 19 -75 52.5t-27 74.5q0 85 88 151t213 66q101 0 167 -45t66 -118
q0 -58 -41 -108t-110 -73l-2 -4q60 -14 95.5 -53t35.5 -94q0 -95 -98.5 -163.5t-239.5 -68.5zM1438 389q73 0 127.5 40t54.5 91q0 43 -39.5 72t-101.5 29q-73 0 -126 -38t-53 -91q0 -45 38.5 -74t99.5 -29zM1380 59q86 0 145.5 45.5t59.5 108.5q0 49 -42 77.5t-116 28.5
q-89 0 -148.5 -41t-59.5 -102q0 -54 44 -85.5t117 -31.5z" />
    <glyph glyph-name="fiveeighths" unicode="&#x215d;" horiz-adv-x="1853" 
d="M412 797q-108 0 -185 42.5t-94 116.5l105 45q14 -55 67.5 -86.5t120.5 -31.5q90 0 153.5 53.5t63.5 122.5q0 56 -44 90.5t-112 34.5q-113 0 -188 -82l-88 24l164 383h418l-13 -86h-340l-102 -227q31 28 88.5 46t108.5 18q93 0 160 -49.5t67 -139.5q0 -112 -103.5 -193
t-246.5 -81zM213 0h-129l1624 1468h121zM1362 -29q-118 0 -191 50t-73 129q0 68 54.5 125.5t133.5 74.5l4 4q-48 19 -75 52.5t-27 74.5q0 85 88 151t213 66q101 0 167 -45t66 -118q0 -58 -41 -108t-110 -73l-2 -4q60 -14 95.5 -53t35.5 -94q0 -95 -98.5 -163.5t-239.5 -68.5
zM1436 389q73 0 127.5 40t54.5 91q0 43 -39.5 72t-101.5 29q-73 0 -126 -38t-53 -91q0 -45 38.5 -74t99.5 -29zM1378 59q86 0 145.5 45.5t59.5 108.5q0 49 -42 77.5t-116 28.5q-89 0 -148.5 -41t-59.5 -102q0 -54 44 -85.5t117 -31.5z" />
    <glyph glyph-name="seveneighths" unicode="&#x215e;" horiz-adv-x="1757" 
d="M338 811h-117q23 138 146 320.5t284 298.5h-456l14 88h584l-13 -93q-166 -110 -292 -290t-150 -324zM117 0h-129l1624 1468h121zM1266 -29q-118 0 -191.5 50.5t-73.5 128.5q0 68 55 125.5t134 74.5l4 4q-48 19 -75 52.5t-27 74.5q0 85 88 151t213 66q101 0 167 -45
t66 -118q0 -58 -41 -108t-110 -73l-2 -4q60 -14 95.5 -53t35.5 -94q0 -95 -98.5 -163.5t-239.5 -68.5zM1339 389q73 0 128 40t55 91q0 43 -40 72t-102 29q-73 0 -125.5 -38t-52.5 -91q0 -45 38 -74t99 -29zM1282 59q86 0 145.5 45.5t59.5 108.5q0 49 -42 77.5t-116 28.5
q-89 0 -149 -41t-60 -102q0 -54 44.5 -85.5t117.5 -31.5z" />
    <glyph glyph-name="arrowleft" unicode="&#x2190;" horiz-adv-x="1714" 
d="M383 705h1204l-18 -121h-1204l294 -348h-163l-336 405l2 8l479 406h164z" />
    <glyph glyph-name="arrowup" unicode="&#x2191;" horiz-adv-x="1193" 
d="M715 1202l428 -340l-25 -143l-368 301l-179 -1000h-137l176 1000l-475 -301l25 143l545 340h10z" />
    <glyph glyph-name="arrowright" unicode="&#x2192;" horiz-adv-x="1708" 
d="M1083 1055h164l336 -406l-2 -8l-479 -405h-164l418 348h-1200l20 121h1204z" />
    <glyph glyph-name="arrowdown" unicode="&#x2193;" horiz-adv-x="1200" 
d="M782 1202l-176 -999l475 301l-24 -144l-547 -340h-8l-428 340l24 144l371 -301l176 999h137z" />
    <glyph glyph-name="arrowboth" unicode="&#x2194;" horiz-adv-x="2142" 
d="M655 231h-166l-335 406l2 8l479 406h166l-426 -353h1444l-301 353h163l336 -406l-2 -8l-479 -406h-164l424 351h-1440z" />
    <glyph glyph-name="arrowupdn" unicode="&#x2195;" horiz-adv-x="1308" 
d="M563 2h-8l-430 334l25 141l372 -293l185 1022l-480 -297l25 142l545 335h10l428 -335l-25 -142l-368 295l-187 -1020l478 293l-25 -141z" />
    <glyph glyph-name="uni2196" unicode="&#x2196;" horiz-adv-x="1462" 
d="M621 866l653 -774l-117 -69l-653 776l-170 -445l-94 113l200 508l11 4l641 -21l94 -112z" />
    <glyph glyph-name="uni2197" unicode="&#x2197;" horiz-adv-x="1347" 
d="M922 975l198 -508l-92 -113l-170 445l-653 -776l-117 69l653 774l-565 -20l94 112l641 21z" />
    <glyph glyph-name="uni2198" unicode="&#x2198;" horiz-adv-x="1470" 
d="M975 422l170 444l94 -112l-201 -508l-8 -4l-643 20l-94 113l565 -21l-653 776l119 68z" />
    <glyph glyph-name="uni2199" unicode="&#x2199;" horiz-adv-x="1347" 
d="M1159 1198l119 -68l-655 -776l565 21l-94 -113l-641 -20l-9 4l-200 508l94 112l170 -444z" />
    <glyph glyph-name="emptyset" unicode="&#x2205;" horiz-adv-x="1708" 
d="M1579 1198l-180 -176q157 -135 157 -360q0 -136 -62.5 -263.5t-169.5 -223t-258 -153t-318 -57.5q-202 0 -351 82l-180 -176l-86 61l180 177q-159 137 -159 362q0 135 63 262t169.5 222t258 152.5t318.5 57.5q207 0 354 -84l180 176zM293 485q0 -170 119 -280l805 782
q-121 62 -273 62q-132 0 -253.5 -47t-208 -124.5t-138 -181t-51.5 -211.5zM770 82q132 0 253 46.5t207 123.5t136.5 180t50.5 211q0 172 -117 283l-802 -783q116 -61 272 -61z" />
    <glyph glyph-name="minus" unicode="&#x2212;" horiz-adv-x="1181" 
d="M1020 569h-852l18 113h850z" />
    <glyph glyph-name="infinity" unicode="&#x221e;" horiz-adv-x="2226" 
d="M543 287q-161 0 -265 82t-104 209q0 101 67 190t180 142t241 53q87 0 163 -31t141.5 -82.5t168.5 -151.5q207 147 328 206t245 59q156 0 260.5 -79t104.5 -210q0 -155 -143.5 -271t-342.5 -116q-66 0 -121.5 14.5t-113.5 50.5t-110.5 80t-129.5 119
q-206 -148 -325.5 -206t-243.5 -58zM547 393q54 0 102 10.5t103.5 38.5t86.5 46.5t103 68t102 68.5q-24 20 -77.5 68.5t-78.5 67.5t-69 46.5t-88 38t-96 10.5q-139 0 -231.5 -77.5t-92.5 -190.5q0 -92 63.5 -143.5t172.5 -51.5zM1614 393q138 0 230.5 78t92.5 191
q0 92 -62 143t-173 51q-45 0 -89.5 -10t-78 -22t-82 -39.5t-75.5 -45t-85 -57t-86 -57.5q21 -18 64.5 -58t64 -57.5t59 -45t67 -39.5t69 -22t84.5 -10z" />
    <glyph glyph-name="approxequal" unicode="&#x2248;" horiz-adv-x="1257" 
d="M350 729h-127q14 81 65 139t115 83.5t132 25.5q50 0 91 -14.5t68.5 -34.5t52 -40.5t55.5 -35t66 -14.5q63 0 99.5 40t46.5 99h125q-21 -122 -102.5 -185t-190.5 -63q-52 0 -93.5 14.5t-68.5 35.5t-52 41.5t-56 35t-68 14.5q-66 0 -107 -40t-51 -101zM276 313h-126
q15 80 65.5 138t114.5 84t133 26q50 0 91 -14.5t68 -35.5t51.5 -41.5t55 -35t66.5 -14.5q61 0 97.5 39t47.5 100h127q-22 -122 -103.5 -185t-189.5 -63q-51 0 -93 14.5t-69.5 35.5t-52.5 42t-56.5 35.5t-68.5 14.5q-65 0 -106 -40t-52 -100z" />
    <glyph glyph-name="notequal" unicode="&#x2260;" horiz-adv-x="1241" 
d="M1102 887l-21 -113h-286l-189 -303h422l-16 -113h-469l-113 -184h-125l115 184h-262l18 113h305l189 303h-441l17 113h487l109 174h125l-109 -174h244z" />
    <glyph glyph-name="lessequal" unicode="&#x2264;" horiz-adv-x="1236" 
d="M1004 354h-846l16 101h578l-545 180l18 113l879 182l-19 -111l-700 -139l637 -225z" />
    <glyph glyph-name="greaterequal" unicode="&#x2265;" horiz-adv-x="1241" 
d="M1012 354h-846l16 101l713 225l-647 139l16 111l815 -182l-18 -113l-610 -180h577z" />
    <glyph glyph-name="lozenge" unicode="&#x25ca;" horiz-adv-x="1394" 
d="M653 0h-108l-373 694l619 692h108l373 -692zM324 694l292 -549h11l491 549l-293 547h-8z" />
    <glyph glyph-name="A.ss01" horiz-adv-x="1806" 
d="M96 0h-153l1020 1597h249l455 -1597h-154q-135 500 -155 573h-895q-184 -291 -367 -573zM528 690h801q-197 713 -209 760h-102q-92 -142 -262 -405.5t-228 -354.5z" />
    <glyph glyph-name="Aacute.ss01" horiz-adv-x="1806" 
d="M1606 2042l-463 -322h-127l375 322h215zM96 0h-153l1020 1597h249l455 -1597h-154q-135 500 -155 573h-895q-184 -291 -367 -573zM528 690h801q-197 713 -209 760h-102q-92 -142 -262 -405.5t-228 -354.5z" />
    <glyph glyph-name="Abreve.ss01" horiz-adv-x="1806" 
d="M1108 1726q-99 0 -179 29t-127.5 76t-70 103.5t-16.5 113.5h125q-8 -85 73 -151t209 -66q130 0 235.5 66t129.5 151h125q-13 -57 -55 -113.5t-105 -103.5t-153.5 -76t-190.5 -29zM96 0h-153l1020 1597h249l455 -1597h-154q-135 500 -155 573h-895q-184 -291 -367 -573z
M528 690h801q-197 713 -209 760h-102q-92 -142 -262 -405.5t-228 -354.5z" />
    <glyph glyph-name="Acircumflex.ss01" horiz-adv-x="1806" 
d="M1253 2023l267 -303h-127q-181 162 -244 224q-25 -18 -65 -47t-61.5 -44t-72.5 -49.5t-125 -83.5h-127l369 303h186zM96 0h-153l1020 1597h249l455 -1597h-154q-135 500 -155 573h-895q-184 -291 -367 -573zM528 690h801q-197 713 -209 760h-102q-92 -142 -262 -405.5
t-228 -354.5z" />
    <glyph glyph-name="Adieresis.ss01" horiz-adv-x="1806" 
d="M891 1790q-43 0 -73 25t-30 63q0 46 41 81.5t95 35.5q42 0 70 -24t28 -60q0 -48 -39.5 -84.5t-91.5 -36.5zM1354 1790q-45 0 -75 25t-30 61q0 49 41 84t94 35q43 0 73 -25.5t30 -60.5q0 -45 -40.5 -82t-92.5 -37zM96 0h-153l1020 1597h249l455 -1597h-154
q-135 500 -155 573h-895q-184 -291 -367 -573zM528 690h801q-197 713 -209 760h-102q-92 -142 -262 -405.5t-228 -354.5z" />
    <glyph glyph-name="Agrave.ss01" horiz-adv-x="1806" 
d="M1206 1720h-127l-352 322h217zM96 0h-153l1020 1597h249l455 -1597h-154q-135 500 -155 573h-895q-184 -291 -367 -573zM528 690h801q-197 713 -209 760h-102q-92 -142 -262 -405.5t-228 -354.5z" />
    <glyph glyph-name="Amacron.ss01" horiz-adv-x="1806" 
d="M1526 1835h-791l21 107h786zM96 0h-153l1020 1597h249l455 -1597h-154q-135 500 -155 573h-895q-184 -291 -367 -573zM528 690h801q-197 713 -209 760h-102q-92 -142 -262 -405.5t-228 -354.5z" />
    <glyph glyph-name="Aogonek.ss01" horiz-adv-x="1806" 
d="M1591 -373q45 0 111 15l-16 -91q-69 -14 -117 -14q-124 0 -203.5 52t-79.5 145q0 155 236 266h-9q-135 500 -155 573h-895q-184 -291 -367 -573h-153l1020 1597h249l455 -1597h-14q-64 -25 -115.5 -55t-94 -79.5t-42.5 -103.5q0 -62 54.5 -98.5t135.5 -36.5zM528 690h801
q-197 713 -209 760h-102q-92 -142 -262 -405.5t-228 -354.5z" />
    <glyph glyph-name="Aring.ss01" horiz-adv-x="1806" 
d="M1106 1716q-102 0 -165.5 51.5t-63.5 133.5q0 100 90 173.5t215 73.5q103 0 166 -51t63 -133q0 -100 -89 -174t-216 -74zM1122 1806q77 0 131 43.5t54 106.5q0 48 -39.5 75t-100.5 27q-80 0 -133 -42t-53 -105q0 -50 39 -77.5t102 -27.5zM96 0h-153l1020 1597h249
l455 -1597h-154q-135 500 -155 573h-895q-184 -291 -367 -573zM528 690h801q-197 713 -209 760h-102q-92 -142 -262 -405.5t-228 -354.5z" />
    <glyph glyph-name="Atilde.ss01" horiz-adv-x="1806" 
d="M1311 1749q-42 0 -77 12t-54 25.5t-50 40.5l-40 31q-1 1 -11 9l-12.5 10t-11.5 8.5t-13.5 8.5t-13.5 6.5t-15.5 6t-16 3t-19.5 1.5q-60 0 -103 -41.5t-57 -106.5h-104q20 108 100 176t186 68q50 0 87 -17.5t77 -50.5l45 -36q67 -58 127 -58q57 0 98.5 41.5t53.5 106.5
h108q-21 -110 -97 -177t-187 -67zM96 0h-153l1020 1597h249l455 -1597h-154q-135 500 -155 573h-895q-184 -291 -367 -573zM528 690h801q-197 713 -209 760h-102q-92 -142 -262 -405.5t-228 -354.5z" />
    <glyph glyph-name="B.ss01" horiz-adv-x="1751" 
d="M936 0h-768l283 1597h669q256 0 399.5 -101.5t143.5 -260.5q0 -146 -117.5 -264t-300.5 -156v-4q174 -27 261 -115.5t87 -214.5q0 -94 -51.5 -182t-139 -154t-210 -105.5t-256.5 -39.5zM463 862h514q238 0 385 100t147 240q0 128 -120.5 202.5t-321.5 74.5h-492
q-87 -506 -112 -617zM332 119h573q240 0 387.5 100.5t147.5 243.5q0 130 -120.5 206t-324.5 76h-549q-11 -64 -33 -179t-81 -447z" />
    <glyph glyph-name="C.ss01" horiz-adv-x="2066" 
d="M995 -35q-251 0 -439.5 84.5t-291 242t-102.5 367.5q0 124 39.5 246.5t110 229.5t173 198.5t224 157t267.5 102.5t300 37q133 0 255.5 -28.5t227 -83.5t178.5 -145.5t99 -205.5l-140 -49q-54 183 -229.5 286t-411.5 103q-156 0 -301.5 -45.5t-259.5 -125.5t-199.5 -184.5
t-131.5 -228.5t-46 -251q0 -118 39 -216t106.5 -165.5t159.5 -113.5t195 -67.5t215 -21.5q124 0 238.5 26.5t206 72t169.5 109t135 134.5t97 150l123 -43q-52 -96 -121 -180t-162 -156.5t-201 -124.5t-242 -81.5t-280 -29.5z" />
    <glyph glyph-name="D.ss01" horiz-adv-x="1980" 
d="M856 0h-688l283 1597h665q393 0 589 -170t196 -475q0 -147 -47 -287.5t-138 -260.5t-216 -210.5t-291.5 -142t-352.5 -51.5zM332 119h559q153 0 290 44t239 120.5t177 178t113.5 220t38.5 242.5q0 277 -176.5 416t-505.5 139h-492q-21 -120 -87 -483t-156 -877z" />
    <glyph glyph-name="E.ss01" horiz-adv-x="1613" 
d="M1391 0h-1223l283 1597h1198l-19 -118h-1055q-5 -29 -33 -179.5t-75 -416.5h1006l-19 -121h-1005q-16 -85 -35 -191.5t-82 -445.5h1079z" />
    <glyph glyph-name="F.ss01" horiz-adv-x="1529" 
d="M1624 1597l-18 -124h-1033l-106 -605h979l-19 -120h-981l-133 -748h-145l283 1597h1173z" />
    <glyph glyph-name="G.ss01" horiz-adv-x="2105" 
d="M987 -35q-378 0 -602.5 187.5t-224.5 502.5q0 189 87 367t234.5 312t355.5 215t437 81q133 0 255.5 -28.5t227 -84t177.5 -146t98 -204.5l-138 -49q-36 123 -130.5 212t-225 133t-285.5 44q-193 0 -368 -69.5t-298.5 -184t-196.5 -266.5t-73 -313q0 -273 192 -429.5
t527 -156.5q333 0 551 154.5t287 419.5h-703l15 114h839l-8 -45q-28 -159 -100.5 -288.5t-172 -217t-225.5 -147t-258.5 -86.5t-273.5 -27z" />
    <glyph glyph-name="H.ss01" horiz-adv-x="1984" 
d="M1628 866l129 731h146l-283 -1597h-145l131 745h-1162l-131 -745h-145l283 1597h145l-129 -731h1161z" />
    <glyph glyph-name="I.ss01" horiz-adv-x="1298" 
d="M1112 0h-1120l18 119h488l245 1360h-499l18 118h1145l-21 -118h-499l-246 -1360h489z" />
    <glyph glyph-name="Iacute.ss01" horiz-adv-x="1298" 
d="M1335 2040l-463 -320h-127l375 320h215zM1112 0h-1120l18 119h488l245 1360h-499l18 118h1145l-21 -118h-499l-246 -1360h489z" />
    <glyph glyph-name="Icircumflex.ss01" horiz-adv-x="1298" 
d="M1004 2023l266 -303h-127q-181 162 -244 224q-25 -18 -65 -47t-61.5 -44t-72.5 -49.5t-125 -83.5h-126l368 303h187zM1112 0h-1120l18 119h488l245 1360h-499l18 118h1145l-21 -118h-499l-246 -1360h489z" />
    <glyph glyph-name="Idieresis.ss01" horiz-adv-x="1298" 
d="M641 1790q-43 0 -72.5 25t-29.5 63q0 46 40.5 81.5t94.5 35.5q42 0 70 -24t28 -60q0 -48 -39.5 -84.5t-91.5 -36.5zM1104 1790q-45 0 -75 25t-30 61q0 49 41.5 84t94.5 35q43 0 72.5 -25.5t29.5 -60.5q0 -45 -40.5 -82t-92.5 -37zM1112 0h-1120l18 119h488l245 1360h-499
l18 118h1145l-21 -118h-499l-246 -1360h489z" />
    <glyph glyph-name="Idotaccent.ss01" horiz-adv-x="1298" 
d="M866 1788q-46 0 -77 26t-31 66q0 51 44 88t101 37q45 0 76 -26t31 -64q0 -51 -44 -89t-100 -38zM1112 0h-1120l18 119h488l245 1360h-499l18 118h1145l-21 -118h-499l-246 -1360h489z" />
    <glyph glyph-name="Igrave.ss01" horiz-adv-x="1298" 
d="M956 1720h-127l-352 322h217zM1112 0h-1120l18 119h488l245 1360h-499l18 118h1145l-21 -118h-499l-246 -1360h489z" />
    <glyph glyph-name="Imacron.ss01" horiz-adv-x="1298" 
d="M1276 1835h-791l21 107h786zM1112 0h-1120l18 119h488l245 1360h-499l18 118h1145l-21 -118h-499l-246 -1360h489z" />
    <glyph glyph-name="J.ss01" horiz-adv-x="1411" 
d="M532 -35q-58 0 -112 7.5t-110 25t-100.5 45.5t-83 69.5t-58 97t-25 127.5t15.5 161l7 22l135 17l-6 -23q-19 -76 -14 -135.5t20.5 -104.5t47 -78t65.5 -54.5t76 -34.5t78 -18t73 -5q184 0 309.5 112.5t159.5 301.5l176 981h-660l21 118h803l-187 -1060q-7 -39 -13.5 -68
t-28 -93t-48.5 -112t-77 -107.5t-111 -98.5t-153 -66t-200 -27z" />
    <glyph glyph-name="K.ss01" horiz-adv-x="1609" 
d="M313 0h-145l283 1597h145l-135 -743h6q41 28 463.5 312t644.5 431h190q-85 -58 -508 -345t-679 -466q163 -135 474 -393.5t474 -392.5h-199q-102 81 -163 131.5t-96.5 81t-191.5 155t-436 343.5z" />
    <glyph glyph-name="L.ss01" horiz-adv-x="1445" 
d="M596 1597l-260 -1472h1001l-20 -125h-1149l283 1597h145z" />
    <glyph glyph-name="M.ss01" horiz-adv-x="2293" 
d="M2042 1597h168l-283 -1597h-143l246 1382l-850 -1028h-136l-483 1026l-246 -1380h-147l283 1597h172q196 -394 512 -1089h4q32 39 137 168t153.5 189t145 177.5t161.5 195t149 176.5t157 183z" />
    <glyph glyph-name="N.ss01" horiz-adv-x="2029" 
d="M313 0h-145l283 1597h229l821 -1400h49l254 1400h142l-283 -1597h-225l-822 1386h-55z" />
    <glyph glyph-name="O.ss01" horiz-adv-x="2181" 
d="M987 -35q-239 0 -427.5 89.5t-294 250.5t-105.5 365q0 123 41 244.5t114 227t178 196t227 155t266.5 101t293.5 36.5q239 0 427.5 -90t294 -251.5t105.5 -364.5q0 -123 -41.5 -244.5t-115 -226.5t-178.5 -195.5t-227.5 -155t-266.5 -101t-291 -36.5zM1010 88
q184 0 357.5 69t299.5 182t202.5 263.5t76.5 306.5q0 172 -88 308.5t-244.5 213t-353.5 76.5q-181 0 -355 -68.5t-302.5 -180.5t-207 -263t-78.5 -309q0 -173 90.5 -310t248.5 -212.5t354 -75.5z" />
    <glyph glyph-name="P.ss01" horiz-adv-x="1634" 
d="M451 1597h663q26 0 51.5 -1t84.5 -9t107.5 -21.5t107 -43.5t99 -70.5t68 -105.5t27.5 -146q0 -110 -51 -212.5t-138.5 -178.5t-214 -122t-268.5 -46h-561l-113 -641h-145zM449 762h509q240 0 393.5 114.5t153.5 290.5q0 153 -115.5 232.5t-324.5 79.5h-492z" />
    <glyph glyph-name="Q.ss01" horiz-adv-x="2197" 
d="M758 -10q-147 -123 -297 -246v-4h1261l-18 -115h-1546l475 398q-220 76 -343.5 242.5t-123.5 396.5q0 187 85 363t231.5 309.5t357.5 214.5t448 81q249 0 436.5 -86t289.5 -244.5t102 -367.5q0 -188 -85.5 -364t-232 -308.5t-357 -212.5t-446.5 -80q-115 0 -237 23z
M315 678q0 -207 116.5 -352t318.5 -203l561 469l88 -76q-85 -71 -256 -211.5t-256 -210.5q55 -8 131 -8q198 0 375 69.5t300.5 184t196 266.5t72.5 312q0 268 -189 430.5t-501 162.5q-198 0 -377.5 -69.5t-305.5 -184.5t-200 -267t-74 -312z" />
    <glyph glyph-name="R.ss01" horiz-adv-x="1687" 
d="M987 643h-348l874 -643h-204l-873 643h-8l-115 -643h-145l283 1597h663q28 0 55.5 -1t85.5 -9.5t107 -22.5t106.5 -44t97 -70.5t66.5 -105.5t27 -146q0 -110 -51 -211t-139 -177t-214 -121.5t-268 -45.5zM1067 1483h-489l-134 -723h514q242 0 395.5 117t153.5 292
q0 152 -114.5 233t-325.5 81z" />
    <glyph glyph-name="S.ss01" horiz-adv-x="1574" 
d="M711 -35q-85 0 -165 14.5t-159 49t-141 86.5t-107.5 133.5t-60.5 183.5l139 45q27 -189 169 -290t353 -101q148 0 271.5 49t194.5 132.5t71 181.5q0 49 -19.5 88.5t-50.5 64.5t-76.5 45.5t-89 33t-95.5 26.5q-27 6 -40 10l-172 47q-38 11 -67 19.5t-73 24t-77.5 32.5
t-72 40t-66.5 50.5t-52 60.5t-36.5 74.5t-12.5 87.5q0 76 33.5 148t96.5 131t147 103.5t190.5 69.5t221.5 25q243 0 390.5 -104.5t176.5 -278.5l-135 -49q-30 142 -152.5 226.5t-312.5 84.5q-212 0 -356 -97t-144 -230q0 -40 15.5 -75.5t37 -61.5t57.5 -50t64 -38t70 -29.5
t62.5 -21.5t54.5 -15l176 -49q170 -47 228 -70q197 -78 234 -218q9 -34 9 -73q0 -131 -95.5 -249.5t-265 -192.5t-368.5 -74z" />
    <glyph glyph-name="U.ss01" horiz-adv-x="1878" 
d="M813 -35q-310 0 -462.5 160t-100.5 450l182 1022h143l-182 -1015q-44 -248 76.5 -373t370.5 -125q253 0 419 125.5t209 372.5l183 1015h143l-283 -1597h-141l37 207h-2q-198 -242 -592 -242z" />
    <glyph glyph-name="Uacute.ss01" horiz-adv-x="1878" 
d="M1403 2040l-465 -320h-125l375 320h215zM813 -35q-310 0 -462.5 160t-100.5 450l182 1022h143l-182 -1015q-44 -248 76.5 -373t370.5 -125q253 0 419 125.5t209 372.5l183 1015h143l-283 -1597h-141l37 207h-2q-198 -242 -592 -242z" />
    <glyph glyph-name="Ucircumflex.ss01" horiz-adv-x="1878" 
d="M1272 2023l266 -303h-127q-181 162 -244 224q-27 -20 -65.5 -47.5t-60 -43.5t-72.5 -50t-125 -83h-127l368 303h187zM813 -35q-310 0 -462.5 160t-100.5 450l182 1022h143l-182 -1015q-44 -248 76.5 -373t370.5 -125q253 0 419 125.5t209 372.5l183 1015h143l-283 -1597
h-141l37 207h-2q-198 -242 -592 -242z" />
    <glyph glyph-name="Udieresis.ss01" horiz-adv-x="1878" 
d="M911 1790q-43 0 -72.5 25t-29.5 63q0 46 40.5 81.5t94.5 35.5q42 0 70 -24t28 -60q0 -48 -39.5 -84.5t-91.5 -36.5zM1374 1790q-45 0 -74.5 25t-29.5 61q0 49 41 84t94 35q43 0 72.5 -25.5t29.5 -60.5q0 -45 -40.5 -82t-92.5 -37zM813 -35q-310 0 -462.5 160t-100.5 450
l182 1022h143l-182 -1015q-44 -248 76.5 -373t370.5 -125q253 0 419 125.5t209 372.5l183 1015h143l-283 -1597h-141l37 207h-2q-198 -242 -592 -242z" />
    <glyph glyph-name="Ugrave.ss01" horiz-adv-x="1878" 
d="M1225 1720h-127l-353 322h218zM813 -35q-310 0 -462.5 160t-100.5 450l182 1022h143l-182 -1015q-44 -248 76.5 -373t370.5 -125q253 0 419 125.5t209 372.5l183 1015h143l-283 -1597h-141l37 207h-2q-198 -242 -592 -242z" />
    <glyph glyph-name="Uhungarumlaut.ss01" horiz-adv-x="1878" 
d="M1354 2042l-385 -322h-125l309 322h201zM1714 2042l-405 -322h-127l334 322h198zM813 -35q-310 0 -462.5 160t-100.5 450l182 1022h143l-182 -1015q-44 -248 76.5 -373t370.5 -125q253 0 419 125.5t209 372.5l183 1015h143l-283 -1597h-141l37 207h-2
q-198 -242 -592 -242z" />
    <glyph glyph-name="Umacron.ss01" horiz-adv-x="1878" 
d="M1544 1835h-790l20 107h787zM813 -35q-310 0 -462.5 160t-100.5 450l182 1022h143l-182 -1015q-44 -248 76.5 -373t370.5 -125q253 0 419 125.5t209 372.5l183 1015h143l-283 -1597h-141l37 207h-2q-198 -242 -592 -242z" />
    <glyph glyph-name="Uogonek.ss01" horiz-adv-x="1878" 
d="M1253 -238q0 -62 55 -98.5t136 -36.5q44 0 110 15l-16 -91q-69 -14 -117 -14q-123 0 -202.5 51.5t-79.5 145.5q0 156 235 266h-4l37 207h-2q-198 -242 -592 -242q-310 0 -462.5 160t-100.5 450l182 1022h143l-182 -1015q-44 -248 76.5 -373t370.5 -125q253 0 419 125.5
t209 372.5l183 1015h143l-283 -1597h-6q-64 -25 -115.5 -55t-94 -79.5t-42.5 -103.5z" />
    <glyph glyph-name="Uring.ss01" horiz-adv-x="1878" 
d="M1126 1716q-102 0 -165.5 51.5t-63.5 133.5q0 100 90 173.5t215 73.5q103 0 166.5 -51t63.5 -133q0 -100 -89.5 -174t-216.5 -74zM1143 1806q77 0 130.5 43.5t53.5 106.5q0 48 -39 75t-100 27q-80 0 -133.5 -42t-53.5 -105q0 -50 39.5 -77.5t102.5 -27.5zM813 -35
q-310 0 -462.5 160t-100.5 450l182 1022h143l-182 -1015q-44 -248 76.5 -373t370.5 -125q253 0 419 125.5t209 372.5l183 1015h143l-283 -1597h-141l37 207h-2q-198 -242 -592 -242z" />
    <glyph glyph-name="V.ss01" horiz-adv-x="1802" 
d="M926 0h-246l-457 1597h154q41 -144 115 -418.5t290 -1024.5h101q152 241 455.5 722t455.5 721h154z" />
    <glyph glyph-name="W.ss01" horiz-adv-x="2781" 
d="M756 0h-178l-347 1597h152l309 -1427h4l748 1427h285l219 -1427h6l813 1427h151l-911 -1597h-176l-215 1458h-103z" />
    <glyph glyph-name="Wacute.ss01" horiz-adv-x="2781" 
d="M2095 2042l-463 -322h-127l375 322h215zM756 0h-178l-347 1597h152l309 -1427h4l748 1427h285l219 -1427h6l813 1427h151l-911 -1597h-176l-215 1458h-103z" />
    <glyph glyph-name="Wcircumflex.ss01" horiz-adv-x="2781" 
d="M1743 2023l266 -303h-127q-181 162 -244 224q-27 -20 -65.5 -47.5t-60 -43.5t-72.5 -50t-125 -83h-127l368 303h187zM756 0h-178l-347 1597h152l309 -1427h4l748 1427h285l219 -1427h6l813 1427h151l-911 -1597h-176l-215 1458h-103z" />
    <glyph glyph-name="Wdieresis.ss01" horiz-adv-x="2781" 
d="M1380 1790q-43 0 -72.5 25t-29.5 63q0 46 40.5 81.5t94.5 35.5q42 0 70 -24t28 -60q0 -48 -39.5 -84.5t-91.5 -36.5zM1843 1790q-45 0 -74.5 25t-29.5 61q0 49 41 84t94 35q43 0 72.5 -25.5t29.5 -60.5q0 -45 -40.5 -82t-92.5 -37zM756 0h-178l-347 1597h152l309 -1427h4
l748 1427h285l219 -1427h6l813 1427h151l-911 -1597h-176l-215 1458h-103z" />
    <glyph glyph-name="Wgrave.ss01" horiz-adv-x="2781" 
d="M1696 1720h-127l-352 322h217zM756 0h-178l-347 1597h152l309 -1427h4l748 1427h285l219 -1427h6l813 1427h151l-911 -1597h-176l-215 1458h-103z" />
    <glyph glyph-name="X.ss01" horiz-adv-x="1675" 
d="M98 0h-161l798 811l4 23l-501 763h159q152 -230 451 -708h96q83 83 190 193t217 220t298 295h159l-772 -763l-4 -23l512 -811h-160q-435 702 -460 756h-97q-48 -50 -238 -251t-491 -505z" />
    <glyph glyph-name="Y.ss01" horiz-adv-x="1648" 
d="M401 0h-147l528 592l-542 1005h159l475 -880h5l798 880h154z" />
    <glyph glyph-name="Yacute.ss01" horiz-adv-x="1648" 
d="M1534 2040l-463 -320h-127l375 320h215zM401 0h-147l528 592l-542 1005h159l475 -880h5l798 880h154z" />
    <glyph glyph-name="Ycircumflex.ss01" horiz-adv-x="1648" 
d="M1202 2023l266 -303h-127q-169 151 -243 224q-25 -18 -65 -47t-61.5 -44t-72.5 -49.5t-125 -83.5h-127l369 303h186zM401 0h-147l528 592l-542 1005h159l475 -880h5l798 880h154z" />
    <glyph glyph-name="Ydieresis.ss01" horiz-adv-x="1648" 
d="M842 1790q-43 0 -73 25t-30 63q0 46 40.5 81.5t94.5 35.5q42 0 70.5 -24.5t28.5 -59.5q0 -48 -39.5 -84.5t-91.5 -36.5zM1305 1790q-45 0 -75 25t-30 61q0 49 41 84t94 35q43 0 73 -25.5t30 -60.5q0 -45 -40.5 -82t-92.5 -37zM401 0h-147l528 592l-542 1005h159l475 -880
h5l798 880h154z" />
    <glyph glyph-name="Ygrave.ss01" horiz-adv-x="1648" 
d="M1155 1720h-127l-352 322h217zM401 0h-147l528 592l-542 1005h159l475 -880h5l798 880h154z" />
    <glyph glyph-name="Z.ss01" horiz-adv-x="1665" 
d="M1466 0h-1560l1624 1479h-1213l21 118h1479l-1616 -1472h1286z" />
    <glyph glyph-name="Zacute.ss01" horiz-adv-x="1665" 
d="M1526 2042l-463 -322h-127l375 322h215zM1466 0h-1560l1624 1479h-1213l21 118h1479l-1616 -1472h1286z" />
    <glyph glyph-name="Zcaron.ss01" horiz-adv-x="1665" 
d="M1362 2023h127l-369 -303h-188l-264 303h127q160 -140 245 -225q198 143 322 225zM1466 0h-1560l1624 1479h-1213l21 118h1479l-1616 -1472h1286z" />
    <glyph glyph-name="Zdotaccent.ss01" horiz-adv-x="1665" 
d="M1040 1788q-46 0 -77 26t-31 66q0 51 44 88t101 37q45 0 76 -26t31 -64q0 -51 -44 -89t-100 -38zM1466 0h-1560l1624 1479h-1213l21 118h1479l-1616 -1472h1286z" />
    <glyph glyph-name="Q.ss02" horiz-adv-x="2181" 
d="M2107 924q0 -176 -84 -345.5t-224.5 -299t-334 -214t-401.5 -98.5l-39 -225h674l-19 -117h-813l60 342q-223 11 -397.5 103t-271.5 248.5t-97 351.5q0 123 41 244.5t114 227t178 196t227 155t266.5 101t293.5 36.5q239 0 427.5 -90t294 -251.5t105.5 -364.5zM317 686
q0 -164 81.5 -296t224.5 -210t323 -90l86 490h137l-84 -490q230 18 429 137t315.5 301.5t116.5 380.5q0 172 -88 308.5t-244.5 213t-353.5 76.5q-181 0 -355 -68.5t-302.5 -180.5t-207 -263t-78.5 -309z" />
    <glyph glyph-name="A.ss07" 
d="M1094 -315q-216 0 -398.5 58t-310.5 160.5t-200 249.5t-72 320q0 165 65 325t186 294t280.5 236.5t360.5 160t414 57.5q205 0 383.5 -54.5t312 -154t210.5 -250.5t77 -333q0 -140 -46.5 -276t-130.5 -253.5t-204.5 -217.5t-263.5 -171t-314 -111t-349 -40zM1270 1096
l-643 -963h110q41 59 119.5 176.5t110.5 163.5h491q44 -145 107 -340h110l-301 963h-104zM1432 559h-412q211 319 280 420q11 -35 31 -102.5t44 -144.5t57 -173z" />
    <glyph glyph-name="B.ss07" horiz-adv-x="2459" 
d="M1094 -315q-216 0 -398.5 58t-310.5 160.5t-200 249.5t-72 320q0 165 65 325t186 294t280.5 236.5t360.5 160t414 57.5q205 0 383.5 -54.5t312 -154t210.5 -250.5t77 -333q0 -140 -46.5 -276t-130.5 -253.5t-204.5 -217.5t-263.5 -171t-314 -111t-349 -40zM954 1096
l-170 -963h463q167 0 284.5 88.5t117.5 208.5q0 70 -46.5 121.5t-132.5 71.5q98 29 161 100t63 154q0 98 -92.5 158.5t-241.5 60.5h-406zM981 659l66 351h280q114 0 184 -42.5t70 -115.5q0 -79 -84.5 -136t-218.5 -57h-297zM1235 219h-332q4 25 66 356h317q112 0 182 -43.5
t70 -117.5q0 -83 -85.5 -139t-217.5 -56z" />
    <glyph glyph-name="C.ss07" 
d="M1094 -315q-216 0 -398.5 58t-310.5 160.5t-200 249.5t-72 320q0 165 65 325t186 294t280.5 236.5t360.5 160t414 57.5q205 0 383.5 -54.5t312 -154t210.5 -250.5t77 -333q0 -140 -46.5 -276t-130.5 -253.5t-204.5 -217.5t-263.5 -171t-314 -111t-349 -40zM1188 113
q201 0 361.5 93t248.5 259l-90 31q-60 -127 -190 -211t-308 -84q-82 0 -154.5 20t-131.5 60t-93 106.5t-34 151.5q0 94 42 182.5t113.5 156.5t174 109t216.5 41q142 0 242.5 -63.5t128.5 -169.5l103 32q-19 95 -91 162.5t-167 97t-203 29.5q-137 0 -261.5 -48.5t-213.5 -129
t-142 -188.5t-53 -222q0 -189 136.5 -302t365.5 -113z" />
    <glyph glyph-name="D.ss07" 
d="M1094 -315q-216 0 -398.5 58t-310.5 160.5t-200 249.5t-72 320q0 165 65 325t186 294t280.5 236.5t360.5 160t414 57.5q205 0 383.5 -54.5t312 -154t210.5 -250.5t77 -333q0 -140 -46.5 -276t-130.5 -253.5t-204.5 -217.5t-263.5 -171t-314 -111t-349 -40zM909 1096
l-170 -963h418q141 0 261.5 48.5t200 129t124.5 184t45 214.5q0 187 -123 287t-352 100h-404zM1182 219h-324q20 107 44 248t99 543h279q192 0 293.5 -81t101.5 -243q0 -194 -141.5 -330.5t-351.5 -136.5z" />
    <glyph glyph-name="E.ss07" 
d="M1094 -315q-216 0 -398.5 58t-310.5 160.5t-200 249.5t-72 320q0 165 65 325t186 294t280.5 236.5t360.5 160t414 57.5q205 0 383.5 -54.5t312 -154t210.5 -250.5t77 -333q0 -140 -46.5 -276t-130.5 -253.5t-204.5 -217.5t-263.5 -171t-314 -111t-349 -40zM981 1096
l-170 -963h743l15 90h-639q13 60 67 361h598l13 88h-596q10 49 19 106.5t42 231.5h625l14 86h-731z" />
    <glyph glyph-name="F.ss07" horiz-adv-x="2459" 
d="M1094 -315q-216 0 -398.5 58t-310.5 160.5t-200 249.5t-72 320q0 165 65 325t186 294t280.5 236.5t360.5 160t414 57.5q205 0 383.5 -54.5t312 -154t210.5 -250.5t77 -333q0 -140 -46.5 -276t-130.5 -253.5t-204.5 -217.5t-263.5 -171t-314 -111t-349 -40zM1006 1096
l-170 -963h104l78 442h581l15 89h-582l64 342h612l14 90h-716z" />
    <glyph glyph-name="G.ss07" 
d="M1094 -315q-216 0 -398.5 58t-310.5 160.5t-200 249.5t-72 320q0 165 65 325t186 294t280.5 236.5t360.5 160t414 57.5q205 0 383.5 -54.5t312 -154t210.5 -250.5t77 -333q0 -140 -46.5 -276t-130.5 -253.5t-204.5 -217.5t-263.5 -171t-314 -111t-349 -40zM1178 113
q155 0 283.5 58.5t209.5 168.5l-33 -207h91l83 477h-518l-14 -84h414q-43 -145 -178 -235t-312 -90q-80 0 -151.5 20.5t-129.5 60.5t-92 107t-34 152q0 93 42 181.5t113.5 156t174 108.5t216.5 41q141 0 242 -63t129 -170l103 32q-19 95 -91 162.5t-167 97t-203 29.5
q-136 0 -261.5 -49t-214 -130t-141.5 -188.5t-53 -220.5q0 -189 134.5 -302t357.5 -113z" />
    <glyph glyph-name="H.ss07" 
d="M1094 -315q-216 0 -398.5 58t-310.5 160.5t-200 249.5t-72 320q0 165 65 325t186 294t280.5 236.5t360.5 160t414 57.5q205 0 383.5 -54.5t312 -154t210.5 -250.5t77 -333q0 -140 -46.5 -276t-130.5 -253.5t-204.5 -217.5t-263.5 -171t-314 -111t-349 -40zM883 1096
l-170 -963h106l78 442h668l-78 -442h106l170 963h-106l-78 -432h-668l78 432h-106z" />
    <glyph glyph-name="I.ss07" 
d="M1094 -315q-216 0 -398.5 58t-310.5 160.5t-200 249.5t-72 320q0 165 65 325t186 294t280.5 236.5t360.5 160t414 57.5q205 0 383.5 -54.5t312 -154t210.5 -250.5t77 -333q0 -140 -46.5 -276t-130.5 -253.5t-204.5 -217.5t-263.5 -171t-314 -111t-349 -40zM1270 1096
l-170 -963h106l170 963h-106z" />
    <glyph glyph-name="J.ss07" 
d="M1094 -315q-216 0 -398.5 58t-310.5 160.5t-200 249.5t-72 320q0 165 65 325t186 294t280.5 236.5t360.5 160t414 57.5q205 0 383.5 -54.5t312 -154t210.5 -250.5t77 -333q0 -140 -46.5 -276t-130.5 -253.5t-204.5 -217.5t-263.5 -171t-314 -111t-349 -40zM1108 123
q66 0 122 16.5t93 40t67.5 62t47.5 69.5t31 76t19 68t11 59l105 592h-105l-108 -617q-6 -38 -13.5 -68t-27.5 -72t-47 -70.5t-74.5 -49t-108.5 -20.5q-35 0 -67.5 6.5t-65.5 23t-52.5 44t-29.5 68.5t4 98l6 30l-100 -10l-6 -35q-15 -72 -1.5 -124.5t40.5 -88.5t71.5 -57.5
t90.5 -31t98 -9.5z" />
    <glyph glyph-name="K.ss07" horiz-adv-x="2459" 
d="M1094 -315q-216 0 -398.5 58t-310.5 160.5t-200 249.5t-72 320q0 165 65 325t186 294t280.5 236.5t360.5 160t414 57.5q205 0 383.5 -54.5t312 -154t210.5 -250.5t77 -333q0 -140 -46.5 -276t-130.5 -253.5t-204.5 -217.5t-263.5 -171t-314 -111t-349 -40zM969 1096
l-170 -963h104q8 50 62 336q11 8 75.5 57t96.5 74q39 -49 81 -104.5t103.5 -133.5t181.5 -229h131q-26 35 -172.5 222.5t-238.5 316.5q25 19 235 180.5t320 243.5h-133q-553 -418 -662 -506l90 506h-104z" />
    <glyph glyph-name="L.ss07" 
d="M1094 -315q-216 0 -398.5 58t-310.5 160.5t-200 249.5t-72 320q0 165 65 325t186 294t280.5 236.5t360.5 160t414 57.5q205 0 383.5 -54.5t312 -154t210.5 -250.5t77 -333q0 -140 -46.5 -276t-130.5 -253.5t-204.5 -217.5t-263.5 -171t-314 -111t-349 -40zM1069 1096
l-170 -963h703l14 90h-598l158 873h-107z" />
    <glyph glyph-name="M.ss07" horiz-adv-x="2459" 
d="M1094 -315q-216 0 -398.5 58t-310.5 160.5t-200 249.5t-72 320q0 165 65 325t186 294t280.5 236.5t360.5 160t414 57.5q205 0 383.5 -54.5t312 -154t210.5 -250.5t77 -333q0 -140 -46.5 -276t-130.5 -253.5t-204.5 -217.5t-263.5 -171t-314 -111t-349 -40zM741 1096
l-170 -963h105l137 770q57 -153 159 -421.5t132 -348.5h98q230 315 570 774l-142 -774h107l170 963h-119q-111 -153 -319.5 -435.5t-294.5 -400.5q-183 495 -316 836h-117z" />
    <glyph glyph-name="N.ss07" 
d="M1094 -315q-216 0 -398.5 58t-310.5 160.5t-200 249.5t-72 320q0 165 65 325t186 294t280.5 236.5t360.5 160t414 57.5q205 0 383.5 -54.5t312 -154t210.5 -250.5t77 -333q0 -140 -46.5 -276t-130.5 -253.5t-204.5 -217.5t-263.5 -171t-314 -111t-349 -40zM885 1096
l-170 -963h106l142 803q92 -139 276 -405.5t270 -397.5h111l170 963h-104l-146 -811q-109 166 -545 811h-110z" />
    <glyph glyph-name="O.ss07" 
d="M1094 -315q-216 0 -398.5 58t-310.5 160.5t-200 249.5t-72 320q0 165 65 325t186 294t280.5 236.5t360.5 160t414 57.5q205 0 383.5 -54.5t312 -154t210.5 -250.5t77 -333q0 -140 -46.5 -276t-130.5 -253.5t-204.5 -217.5t-263.5 -171t-314 -111t-349 -40zM1151 113
q178 0 335 81t249 214.5t92 281.5q0 185 -140.5 305.5t-357.5 120.5q-132 0 -256.5 -48t-216 -126.5t-146.5 -185t-55 -217.5q0 -188 140 -307t356 -119zM768 551q0 122 75.5 232.5t203 177.5t270.5 67q172 0 284.5 -98.5t112.5 -249.5q0 -122 -75.5 -233t-202.5 -178.5
t-269 -67.5q-174 0 -286.5 99t-112.5 251z" />
    <glyph glyph-name="P.ss07" 
d="M1094 -315q-216 0 -398.5 58t-310.5 160.5t-200 249.5t-72 320q0 165 65 325t186 294t280.5 236.5t360.5 160t414 57.5q205 0 383.5 -54.5t312 -154t210.5 -250.5t77 -333q0 -140 -46.5 -276t-130.5 -253.5t-204.5 -217.5t-263.5 -171t-314 -111t-349 -40zM983 1096
l-170 -963h107l67 381h322q177 0 294 102t117 236q0 119 -92.5 181.5t-241.5 62.5h-403zM1292 602h-293l76 408h279q121 0 186.5 -45.5t65.5 -133.5q0 -101 -88.5 -165t-225.5 -64z" />
    <glyph glyph-name="Q.ss07" horiz-adv-x="2455" 
d="M1094 -315q-216 0 -398.5 58t-310.5 160.5t-200 249.5t-72 320q0 165 65 325t186 294t280.5 236.5t360.5 160t414 57.5q205 0 383.5 -54.5t312 -154t210.5 -250.5t77 -333q0 -140 -46.5 -276t-130.5 -253.5t-204.5 -217.5t-263.5 -171t-314 -111t-349 -40zM1599 66l84 57
q-69 80 -131 156q125 79 200 203t75 257q0 184 -141 303t-359 119q-133 0 -257.5 -48t-215.5 -126.5t-146 -184.5t-55 -218q0 -188 140 -307t358 -119q170 0 311 69q64 -71 137 -161zM766 594q0 93 45 181t119.5 153.5t176.5 105t210 39.5q172 0 284.5 -97.5t112.5 -248.5
q0 -107 -59.5 -208t-161.5 -169q-98 119 -188 223l-84 -55q24 -27 69 -80.5t78.5 -94t36.5 -42.5q-112 -53 -242 -53q-108 0 -198 41t-144.5 121t-54.5 184z" />
    <glyph glyph-name="R.ss07" 
d="M1094 -315q-216 0 -398.5 58t-310.5 160.5t-200 249.5t-72 320q0 165 65 325t186 294t280.5 236.5t360.5 160t414 57.5q205 0 383.5 -54.5t312 -154t210.5 -250.5t77 -333q0 -140 -46.5 -276t-130.5 -253.5t-204.5 -217.5t-263.5 -171t-314 -111t-349 -40zM989 1096
l-170 -963h107q9 48 21 120.5t48 260.5h265l239 -381h119q-31 52 -112 180t-128 207q148 15 248 110.5t100 217.5q0 121 -92 184.5t-241 63.5h-404zM1300 600h-294q10 51 28 152t31.5 175.5t15.5 82.5h281q120 0 186 -46t66 -133q0 -100 -87.5 -165.5t-226.5 -65.5z" />
    <glyph glyph-name="S.ss07" 
d="M1094 -315q-216 0 -398.5 58t-310.5 160.5t-200 249.5t-72 320q0 165 65 325t186 294t280.5 236.5t360.5 160t414 57.5q205 0 383.5 -54.5t312 -154t210.5 -250.5t77 -333q0 -140 -46.5 -276t-130.5 -253.5t-204.5 -217.5t-263.5 -171t-314 -111t-349 -40zM1174 113
q120 0 223 45t162 117.5t59 152.5q0 23 -5.5 43t-12.5 35.5t-22.5 30.5t-26.5 25t-33.5 21t-35 17t-39 14.5t-38 12t-40 11t-36.5 9.5l-102 31q-99 28 -141 55q-65 45 -66 109q0 76 81.5 131t201.5 55q109 0 182 -50.5t86 -137.5l100 37q-15 109 -108 174t-238 65
q-176 0 -298 -87t-122 -206q0 -169 279 -237l102 -27q8 -2 32.5 -8.5t34.5 -9.5t31.5 -10t32 -12.5t27 -14t24.5 -18t17 -21.5t12.5 -27t3.5 -32q0 -83 -90 -144t-221 -61q-126 0 -207 62t-94 173l-103 -33q9 -63 36.5 -114t65.5 -83t87 -53.5t98 -30.5t101 -9z" />
    <glyph glyph-name="T.ss07" 
d="M1094 -315q-216 0 -398.5 58t-310.5 160.5t-200 249.5t-72 320q0 165 65 325t186 294t280.5 236.5t360.5 160t414 57.5q205 0 383.5 -54.5t312 -154t210.5 -250.5t77 -333q0 -140 -46.5 -276t-130.5 -253.5t-204.5 -217.5t-263.5 -171t-314 -111t-349 -40zM1255 1010
l-155 -877h104q9 50 39.5 218.5t116.5 658.5h395l14 86h-897l-14 -86h397z" />
    <glyph glyph-name="U.ss07" 
d="M1094 -315q-216 0 -398.5 58t-310.5 160.5t-200 249.5t-72 320q0 165 65 325t186 294t280.5 236.5t360.5 160t414 57.5q205 0 383.5 -54.5t312 -154t210.5 -250.5t77 -333q0 -140 -46.5 -276t-130.5 -253.5t-204.5 -217.5t-263.5 -171t-314 -111t-349 -40zM1149 123
q202 0 326.5 101.5t154.5 269.5l109 612h-107l-108 -608q-25 -140 -114.5 -214.5t-242.5 -74.5q-156 0 -220.5 75t-39.5 214l109 608h-105l-108 -612q-30 -173 56 -272t290 -99z" />
    <glyph glyph-name="V.ss07" 
d="M1094 -315q-216 0 -398.5 58t-310.5 160.5t-200 249.5t-72 320q0 165 65 325t186 294t280.5 236.5t360.5 160t414 57.5q205 0 383.5 -54.5t312 -154t210.5 -250.5t77 -333q0 -140 -46.5 -276t-130.5 -253.5t-204.5 -217.5t-263.5 -171t-314 -111t-349 -40zM799 1096
l303 -963h104l643 963h-112q-56 -84 -87.5 -132t-61.5 -93.5t-139 -211.5t-271 -411q-20 64 -64 207t-69.5 224.5t-63.5 200t-72 216.5h-110z" />
    <glyph glyph-name="W.ss07" 
d="M1094 -315q-216 0 -398.5 58t-310.5 160.5t-200 249.5t-72 320q0 165 65 325t186 294t280.5 236.5t360.5 160t414 57.5q205 0 383.5 -54.5t312 -154t210.5 -250.5t77 -333q0 -140 -46.5 -276t-130.5 -253.5t-204.5 -217.5t-263.5 -171t-314 -111t-349 -40zM514 1096
l209 -963h115q168 283 465 823q70 -397 165 -823h115l549 963h-109q-124 -215 -475 -830q-24 119 -82 398.5t-88 431.5h-110q-65 -117 -138.5 -250t-144 -259t-182.5 -321q-80 394 -180 830h-109z" />
    <glyph glyph-name="X.ss07" 
d="M1094 -315q-216 0 -398.5 58t-310.5 160.5t-200 249.5t-72 320q0 165 65 325t186 294t280.5 236.5t360.5 160t414 57.5q205 0 383.5 -54.5t312 -154t210.5 -250.5t77 -333q0 -140 -46.5 -276t-130.5 -253.5t-204.5 -217.5t-263.5 -171t-314 -111t-349 -40zM686 133h121
q74 71 226 222.5t198 197.5q220 -347 268 -420h121q-49 73 -154.5 239.5t-165.5 254.5q233 230 478 469h-121q-403 -391 -406 -394q-41 60 -129 192.5t-135 201.5h-121q48 -75 165 -245.5t151 -223.5q-88 -85 -285 -283t-211 -211z" />
    <glyph glyph-name="Y.ss07" 
d="M1094 -315q-216 0 -398.5 58t-310.5 160.5t-200 249.5t-72 320q0 165 65 325t186 294t280.5 236.5t360.5 160t414 57.5q205 0 383.5 -54.5t312 -154t210.5 -250.5t77 -333q0 -140 -46.5 -276t-130.5 -253.5t-204.5 -217.5t-263.5 -171t-314 -111t-349 -40zM1161 487
l-61 -354h104q22 116 64 354q89 101 270 304t270 305h-112q-245 -269 -465 -518q-31 57 -51 95t-32.5 61t-61 112.5t-136.5 249.5h-114q281 -527 325 -609z" />
    <glyph glyph-name="Z.ss07" 
d="M1094 -315q-216 0 -398.5 58t-310.5 160.5t-200 249.5t-72 320q0 165 65 325t186 294t280.5 236.5t360.5 160t414 57.5q205 0 383.5 -54.5t312 -154t210.5 -250.5t77 -333q0 -140 -46.5 -276t-130.5 -253.5t-204.5 -217.5t-263.5 -171t-314 -111t-349 -40zM743 221
l-14 -88h887l12 90h-758q506 448 889 789l15 84h-844l-15 -86h709q-160 -143 -458 -410t-423 -379z" />
    <glyph glyph-name="A.ss08" 
d="M1419 1546q205 0 383.5 -54.5t312 -154t210.5 -250.5t77 -333q0 -140 -46.5 -276t-130.5 -253.5t-204.5 -217.5t-263.5 -171t-314 -111t-349 -40q-216 0 -398.5 58t-310.5 160.5t-200 249.5t-72 320q0 165 65 325t186 294t280.5 236.5t360.5 160t414 57.5zM1108 -231
q193 0 375.5 50.5t329 142t257.5 211.5t171.5 266.5t60.5 299.5q0 219 -120 385t-322.5 252t-454.5 86q-193 0 -376 -52.5t-329 -145.5t-256.5 -214.5t-170.5 -267t-60 -295.5q0 -210 113 -374t317 -254t465 -90zM803 272l461 684h75l217 -684h-86q-18 64 -75 242h-346
q-50 -72 -103.5 -152t-60.5 -90h-82zM1090 578h286q-66 201 -90 290q-19 -29 -87.5 -129t-108.5 -161z" />
    <glyph glyph-name="B.ss08" horiz-adv-x="2459" 
d="M1421 1546q205 0 383.5 -54.5t312 -154t210.5 -250.5t77 -333q0 -140 -46.5 -276t-130.5 -253.5t-204.5 -217.5t-263.5 -171t-314 -111t-349 -40q-216 0 -398.5 58t-310.5 160.5t-200 249.5t-72 320q0 165 65 325t186 294t280.5 236.5t360.5 160t414 57.5zM1110 -231
q193 0 375.5 50.5t329 142t257.5 211.5t171.5 266.5t60.5 299.5q0 219 -120 385t-322.5 252t-454.5 86q-193 0 -376 -52.5t-329 -145.5t-256.5 -214.5t-170.5 -267t-60 -295.5q0 -210 113 -374t317 -254t465 -90zM1563 801q0 -58 -43 -107.5t-113 -72.5q60 -15 93.5 -51.5
t33.5 -86.5q0 -83 -85 -147t-204 -64h-332l121 684h289q106 0 173 -43t67 -112zM1264 647q91 0 154 39.5t63 97.5q0 47 -50.5 77t-132.5 30h-196q-11 -69 -45 -244h207zM1450 473q0 52 -49.5 82.5t-128.5 30.5h-223q-14 -74 -45 -248h231q92 0 153.5 38t61.5 97z" />
    <glyph glyph-name="C.ss08" 
d="M1094 -315q-216 0 -398.5 58t-310.5 160.5t-200 249.5t-72 320q0 165 65 325t186 294t280.5 236.5t360.5 160t414 57.5q205 0 383.5 -54.5t312 -154t210.5 -250.5t77 -333q0 -140 -46.5 -276t-130.5 -253.5t-204.5 -217.5t-263.5 -171t-314 -111t-349 -40zM1108 -231
q193 0 375.5 50.5t329 142t257.5 211.5t171.5 266.5t60.5 299.5q0 219 -120 385t-322.5 252t-454.5 86q-193 0 -376 -52.5t-329 -145.5t-256.5 -214.5t-170.5 -267t-60 -295.5q0 -210 113 -374t317 -254t465 -90zM1198 258q-160 0 -258 81t-98 216q0 78 37 153.5t99.5 133.5
t152.5 93.5t190 35.5q131 0 222 -57t106 -150l-74 -25q-22 76 -92.5 120t-171.5 44q-160 0 -272.5 -103t-112.5 -239q0 -117 84.5 -177t208.5 -60q116 0 209.5 56.5t140.5 154.5l67 -25q-59 -117 -174.5 -184.5t-263.5 -67.5z" />
    <glyph glyph-name="D.ss08" 
d="M1096 -315q-216 0 -398.5 58t-310.5 160.5t-200 249.5t-72 320q0 165 65 325t186 294t280.5 236.5t360.5 160t414 57.5q205 0 383.5 -54.5t312 -154t210.5 -250.5t77 -333q0 -140 -47 -276t-131 -253.5t-204.5 -217.5t-263.5 -171t-313.5 -111t-348.5 -40zM1108 -231
q194 0 377 50.5t329.5 142t257.5 211.5t171.5 266.5t60.5 299.5q0 219 -120 385t-322.5 252t-454.5 86q-193 0 -376 -52.5t-329 -145.5t-256.5 -214.5t-170.5 -267t-60 -295.5q0 -210 113 -374t316.5 -254t463.5 -90zM1184 272h-301l123 684h288q163 0 250.5 -71.5
t87.5 -204.5q0 -168 -129 -288t-319 -120zM975 338h225q149 0 249.5 96t100.5 232q0 113 -71.5 169t-206.5 56h-199q-35 -190 -98 -553z" />
    <glyph glyph-name="E.ss08" 
d="M1094 -315q-216 0 -398.5 58t-310.5 160.5t-200 249.5t-72 320q0 165 65 325t186 294t280.5 236.5t360.5 160t414 57.5q205 0 383.5 -54.5t312 -154t210.5 -250.5t77 -333q0 -140 -46.5 -276t-130.5 -253.5t-204.5 -217.5t-263.5 -171t-314 -111t-349 -40zM1108 -231
q193 0 375.5 50.5t329 142t257.5 211.5t171.5 266.5t60.5 299.5q0 219 -120 385t-322.5 252t-454.5 86q-193 0 -376 -52.5t-329 -145.5t-256.5 -214.5t-170.5 -267t-60 -295.5q0 -210 113 -374t317 -254t465 -90zM1466 272h-532l121 684h524l-10 -65h-447q-3 -18 -43 -234
h424l-10 -65h-422q-11 -55 -23.5 -123t-23.5 -129h455z" />
    <glyph glyph-name="F.ss08" 
d="M1094 -315q-216 0 -398.5 58t-310.5 160.5t-200 249.5t-72 320q0 165 65 325t186 294t280.5 236.5t360.5 160t414 57.5q205 0 383.5 -54.5t312 -154t210.5 -250.5t77 -333q0 -140 -46.5 -276t-130.5 -253.5t-204.5 -217.5t-263.5 -171t-314 -111t-349 -40zM1108 -231
q193 0 375.5 50.5t329 142t257.5 211.5t171.5 266.5t60.5 299.5q0 219 -120 385t-322.5 252t-454.5 86q-193 0 -376 -52.5t-329 -145.5t-256.5 -214.5t-170.5 -267t-60 -295.5q0 -210 113 -374t317 -254t465 -90zM1028 272h-78l121 684h512l-10 -67h-434l-43 -238h413
l-12 -63h-412z" />
    <glyph glyph-name="G.ss08" 
d="M1419 1546q205 0 383.5 -54.5t312 -154t210.5 -250.5t77 -333q0 -140 -46.5 -276t-130.5 -253.5t-204.5 -217.5t-263.5 -171t-314 -111t-349 -40q-216 0 -398.5 58t-310.5 160.5t-200 249.5t-72 320q0 165 65 325t186 294t280.5 236.5t360.5 160t414 57.5zM1108 -231
q193 0 375.5 50.5t329 142t257.5 211.5t171.5 266.5t60.5 299.5q0 219 -120 385t-322.5 252t-454.5 86q-193 0 -376 -52.5t-329 -145.5t-256.5 -214.5t-170.5 -267t-60 -295.5q0 -210 113 -374t317 -254t465 -90zM1311 903q-160 0 -272.5 -102.5t-112.5 -239.5
q0 -61 24 -107.5t65 -74t90 -41.5t105 -14q126 0 223 63.5t126 163.5h-291l8 61h371l-60 -340h-69q3 22 12 70.5t12 71.5q-122 -156 -348 -156q-160 0 -256 81t-96 216q0 80 37.5 155.5t100.5 133t153.5 92.5t189.5 35q130 0 220.5 -57t105.5 -150l-74 -25q-22 76 -93 120
t-171 44z" />
    <glyph glyph-name="H.ss08" 
d="M1419 1546q205 0 383.5 -54.5t312 -154t210.5 -250.5t77 -333q0 -140 -46.5 -276t-130.5 -253.5t-204.5 -217.5t-263.5 -171t-314 -111t-349 -40q-216 0 -398.5 58t-310.5 160.5t-200 249.5t-72 320q0 165 65 325t186 294t280.5 236.5t360.5 160t414 57.5zM1108 -231
q193 0 375.5 50.5t329 142t257.5 211.5t171.5 266.5t60.5 299.5q0 219 -120 385t-322.5 252t-454.5 86q-193 0 -376 -52.5t-329 -145.5t-256.5 -214.5t-170.5 -267t-60 -295.5q0 -210 113 -374t317 -254t465 -90zM1010 651h471l55 305h80l-121 -684h-80l55 314h-471
l-55 -314h-80l121 684h80z" />
    <glyph glyph-name="I.ss08" 
d="M1094 -315q-216 0 -398.5 58t-310 160.5t-199 249.5t-71.5 320q0 165 65 325t185.5 294t279.5 236.5t360 160t414 57.5q205 0 383.5 -54.5t312 -154t210.5 -250.5t77 -333q0 -140 -46.5 -276t-130.5 -253.5t-204.5 -217.5t-263.5 -171t-314 -111t-349 -40zM1108 -231
q193 0 375.5 50.5t329 142t257.5 211.5t171.5 266.5t60.5 299.5q0 219 -120 385t-322.5 252t-454.5 86q-193 0 -376 -52.5t-329 -145.5t-256.5 -214.5t-170.5 -267t-60 -295.5q0 -210 113 -374t317 -254t465 -90zM1217 272h-80l120 684h80z" />
    <glyph glyph-name="J.ss08" 
d="M1094 -315q-216 0 -398.5 58t-310.5 160.5t-200 249.5t-72 320q0 165 65 325t186 294t280.5 236.5t360.5 160t414 57.5q205 0 383.5 -54.5t312 -154t210.5 -250.5t77 -333q0 -140 -46.5 -276t-130.5 -253.5t-204.5 -217.5t-263.5 -171t-314 -111t-349 -40zM1108 -231
q193 0 375.5 50.5t329 142t257.5 211.5t171.5 266.5t60.5 299.5q0 219 -120 385t-322.5 252t-454.5 86q-193 0 -376 -52.5t-329 -145.5t-256.5 -214.5t-170.5 -267t-60 -295.5q0 -210 113 -374t317 -254t465 -90zM1145 264q-117 0 -174.5 59t-40.5 162l4 27l76 8l-4 -24
q-12 -78 27 -123t120 -45q43 0 76.5 15t52 34.5t32.5 50t19 50t10 46.5l76 439h80l-74 -422q-4 -24 -8 -41t-14 -48.5t-22 -54t-34 -49.5t-49 -44t-66.5 -28.5t-86.5 -11.5z" />
    <glyph glyph-name="K.ss08" 
d="M1419 1546q205 0 383.5 -54.5t312 -154t210.5 -250.5t77 -333q0 -140 -46.5 -276t-130.5 -253.5t-204.5 -217.5t-263.5 -171t-314 -111t-349 -40q-216 0 -398.5 58t-310.5 160.5t-200 249.5t-72 320q0 165 65 325t186 294t280.5 236.5t360.5 160t414 57.5zM1108 -231
q193 0 375.5 50.5t329 142t257.5 211.5t171.5 266.5t60.5 299.5q0 219 -120 385t-322.5 252t-454.5 86q-193 0 -376 -52.5t-329 -145.5t-256.5 -214.5t-170.5 -267t-60 -295.5q0 -210 113 -374t317 -254t465 -90zM1530 956h100q-370 -273 -395 -301q54 -74 154 -205
t135 -178h-99q-24 32 -42 57t-29.5 40t-56 71t-130.5 162l-60 -45l-60 -45q-30 -183 -41 -240h-80l121 684h79q-10 -60 -31.5 -178t-31.5 -178q357 274 467 356z" />
    <glyph glyph-name="L.ss08" 
d="M1419 1546q205 0 383.5 -54.5t312 -154t210.5 -250.5t77 -333q0 -140 -46.5 -276t-130.5 -253.5t-204.5 -217.5t-263.5 -171t-314 -111t-349 -40q-216 0 -398.5 58t-310.5 160.5t-200 249.5t-72 320q0 165 65 325t186 294t280.5 236.5t360.5 160t414 57.5zM1108 -231
q193 0 375.5 50.5t329 142t257.5 211.5t171.5 266.5t60.5 299.5q0 219 -120 385t-322.5 252t-454.5 86q-193 0 -376 -52.5t-329 -145.5t-256.5 -214.5t-170.5 -267t-60 -295.5q0 -210 113 -374t317 -254t465 -90zM1118 956h80l-111 -616h424l-12 -68h-502z" />
    <glyph glyph-name="M.ss08" horiz-adv-x="2459" 
d="M1419 1546q205 0 383.5 -54.5t312 -154t210.5 -250.5t77 -333q0 -140 -46.5 -276t-130.5 -253.5t-204.5 -217.5t-263.5 -171t-314 -111t-349 -40q-216 0 -398.5 58t-310.5 160.5t-200 249.5t-72 320q0 165 65 325t186 294t280.5 236.5t360.5 160t414 57.5zM1108 -231
q193 0 375.5 50.5t329 142t257.5 211.5t171.5 266.5t60.5 299.5q0 219 -120 385t-322.5 252t-454.5 86q-193 0 -376 -52.5t-329 -145.5t-256.5 -214.5t-170.5 -267t-60 -295.5q0 -210 113 -374t317 -254t465 -90zM1196 369q73 100 180.5 244.5t177 238.5t76.5 104h86
l-121 -684h-79q14 82 46.5 259t49.5 282q-71 -100 -208 -284t-190 -257h-69q-19 49 -50.5 130t-67 173t-89.5 238q-4 -20 -22.5 -131t-71.5 -410h-80l121 684h86q106 -268 225 -587z" />
    <glyph glyph-name="N.ss08" 
d="M1419 1546q205 0 383.5 -54.5t312 -154t210.5 -250.5t77 -333q0 -140 -46.5 -276t-130.5 -253.5t-204.5 -217.5t-263.5 -171t-314 -111t-349 -40q-216 0 -398.5 58t-310.5 160.5t-200 249.5t-72 320q0 165 65 325t186 294t280.5 236.5t360.5 160t414 57.5zM1108 -231
q193 0 375.5 50.5t329 142t257.5 211.5t171.5 266.5t60.5 299.5q0 219 -120 385t-322.5 252t-454.5 86q-193 0 -376 -52.5t-329 -145.5t-256.5 -214.5t-170.5 -267t-60 -295.5q0 -210 113 -374t317 -254t465 -90zM1452 387q56 290 102 569h80l-121 -684h-79q-28 41 -168 242
t-222 324q-2 -13 -28.5 -158.5t-71.5 -407.5h-80l123 684h80q233 -340 385 -569z" />
    <glyph glyph-name="O.ss08" 
d="M1094 -315q-216 0 -398.5 58t-310.5 160.5t-200 249.5t-72 320q0 165 65 325t186 294t280.5 236.5t360.5 160t414 57.5q205 0 383.5 -54.5t312 -154t210.5 -250.5t77 -333q0 -140 -46.5 -276t-130.5 -253.5t-204.5 -217.5t-263.5 -171t-314 -111t-349 -40zM1108 -231
q193 0 375.5 50.5t329 142t257.5 211.5t171.5 266.5t60.5 299.5q0 219 -120 385t-322.5 252t-454.5 86q-193 0 -376 -52.5t-329 -145.5t-256.5 -214.5t-170.5 -267t-60 -295.5q0 -210 113 -374t317 -254t465 -90zM1176 258q-154 0 -254.5 85.5t-100.5 215.5q0 105 65 200
t177.5 153.5t241.5 58.5q154 0 255 -85.5t101 -215.5q0 -106 -66 -201t-178.5 -153t-240.5 -58zM1190 324q99 0 189 47t144 125t54 163q0 104 -81 174t-202 70q-153 0 -271 -101.5t-118 -232.5q0 -106 81 -175.5t204 -69.5z" />
    <glyph glyph-name="P.ss08" 
d="M1419 1546q205 0 383.5 -54.5t312 -154t210.5 -250.5t77 -333q0 -140 -46.5 -276t-130.5 -253.5t-204.5 -217.5t-263.5 -171t-314 -111t-349 -40q-216 0 -398.5 58t-310.5 160.5t-200 249.5t-72 320q0 165 65 325t186 294t280.5 236.5t360.5 160t414 57.5zM1108 -231
q193 0 375.5 50.5t329 142t257.5 211.5t171.5 266.5t60.5 299.5q0 219 -120 385t-322.5 252t-454.5 86q-193 0 -376 -52.5t-329 -145.5t-256.5 -214.5t-170.5 -267t-60 -295.5q0 -210 113 -374t317 -254t465 -90zM1055 956h288q108 0 173 -44.5t65 -129.5q0 -99 -86.5 -170
t-208.5 -71h-223l-49 -269h-80zM1073 606h205q97 0 159 46t62 114q0 62 -46.5 93.5t-131.5 31.5h-197z" />
    <glyph glyph-name="Q.ss08" 
d="M1094 -315q-216 0 -398.5 58t-310.5 160.5t-200 249.5t-72 320q0 165 65 325t186 294t280.5 236.5t360.5 160t414 57.5q205 0 383.5 -54.5t312 -154t210.5 -250.5t77 -333q0 -140 -46.5 -276t-130.5 -253.5t-204.5 -217.5t-263.5 -171t-314 -111t-349 -40zM1108 -231
q193 0 375.5 50.5t329 142t257.5 211.5t171.5 266.5t60.5 299.5q0 219 -120 385t-322.5 252t-454.5 86q-193 0 -376 -52.5t-329 -145.5t-256.5 -214.5t-170.5 -267t-60 -295.5q0 -210 113 -374t317 -254t465 -90zM1559 266l-62 -41q-16 20 -48 56.5t-48 56.5
q-109 -47 -223 -47q-156 0 -256.5 84.5t-100.5 216.5q0 104 65 198.5t177.5 152.5t241.5 58q155 0 255.5 -85t100.5 -214q0 -93 -52 -179t-143 -146q50 -55 93 -111zM1192 354q84 0 164 39q-29 36 -131 152l63 43q102 -121 135 -158q72 50 113 119.5t41 142.5
q0 105 -80 174.5t-201 69.5q-100 0 -191 -47t-145.5 -124.5t-54.5 -162.5q0 -107 81.5 -177.5t205.5 -70.5z" />
    <glyph glyph-name="R.ss08" 
d="M1419 1546q205 0 383.5 -54.5t312 -154t210.5 -250.5t77 -333q0 -140 -46.5 -276t-130.5 -253.5t-204.5 -217.5t-263.5 -171t-314 -111t-349 -40q-216 0 -398.5 58t-310.5 160.5t-200 249.5t-72 320q0 165 65 325t186 294t280.5 236.5t360.5 160t414 57.5zM1108 -231
q193 0 375.5 50.5t329 142t257.5 211.5t171.5 266.5t60.5 299.5q0 219 -120 385t-322.5 252t-454.5 86q-193 0 -376 -52.5t-329 -145.5t-256.5 -214.5t-170.5 -267t-60 -295.5q0 -210 113 -374t317 -254t465 -90zM1059 956h289q107 0 172 -44.5t65 -129.5
q0 -88 -72.5 -155.5t-173.5 -79.5q25 -40 66.5 -106.5t70.5 -113.5t35 -55h-90l-170 269h-186q-3 -16 -49 -269h-78zM1282 606q98 0 158.5 45.5t60.5 114.5q0 62 -47 93.5t-131 31.5h-197q-9 -47 -25.5 -142.5t-25.5 -142.5h207z" />
    <glyph glyph-name="S.ss08" 
d="M1094 -315q-216 0 -398.5 58t-310.5 160.5t-200 249.5t-72 320q0 165 65 325t186 294t280.5 236.5t360.5 160t414 57.5q205 0 383.5 -54.5t312 -154t210.5 -250.5t77 -333q0 -140 -46.5 -276t-130.5 -253.5t-204.5 -217.5t-263.5 -171t-314 -111t-349 -40zM1108 -231
q193 0 375.5 50.5t329 142t257.5 211.5t171.5 266.5t60.5 299.5q0 219 -120 385t-322.5 252t-454.5 86q-193 0 -376 -52.5t-329 -145.5t-256.5 -214.5t-170.5 -267t-60 -295.5q0 -210 113 -374t317 -254t465 -90zM1190 258q-115 0 -188.5 54t-88.5 155l78 22
q9 -76 67 -120.5t148 -44.5q92 0 154.5 42.5t62.5 100.5q0 57 -69 82q-18 6 -82 22l-76 21q-197 54 -197 170q0 84 88 146.5t213 62.5q102 0 170 -46.5t80 -125.5l-75 -27q-10 62 -62 96.5t-131 34.5q-83 0 -140 -36.5t-57 -90.5q0 -78 148 -117l74 -20q5 -1 27.5 -7.5
t31 -9t29.5 -9.5t30.5 -12.5t26 -15t25 -19t17.5 -22t13 -28t4 -33.5q0 -90 -95.5 -157.5t-225.5 -67.5z" />
    <glyph glyph-name="T.ss08" 
d="M1096 -315q-216 0 -398.5 58t-310.5 160.5t-200 249.5t-72 320q0 165 65 325t186 294t280.5 236.5t360.5 160t414 57.5q205 0 383.5 -54.5t312 -154t210.5 -250.5t77 -333q0 -140 -47 -276t-131 -253.5t-204.5 -217.5t-263.5 -171t-313.5 -111t-348.5 -40zM1108 -231
q194 0 377 50.5t329.5 142t257.5 211.5t171.5 266.5t60.5 299.5q0 219 -120 385t-322.5 252t-454.5 86q-193 0 -376 -52.5t-329 -145.5t-256.5 -214.5t-170.5 -267t-60 -295.5q0 -210 113 -374t316.5 -254t463.5 -90zM1219 272h-80l108 619h-278l10 65h639l-10 -65h-281
q-19 -104 -108 -619z" />
    <glyph glyph-name="U.ss08" 
d="M1094 -315q-216 0 -398.5 58t-310.5 160.5t-200 249.5t-72 320q0 165 65 325t186 294t280.5 236.5t360.5 160t414 57.5q205 0 383.5 -54.5t312 -154t210.5 -250.5t77 -333q0 -140 -46.5 -276t-130.5 -253.5t-204.5 -217.5t-263.5 -171t-314 -111t-349 -40zM1108 -231
q193 0 375.5 50.5t329 142t257.5 211.5t171.5 266.5t60.5 299.5q0 219 -120 385t-322.5 252t-454.5 86q-193 0 -376 -52.5t-329 -145.5t-256.5 -214.5t-170.5 -267t-60 -295.5q0 -210 113 -374t317 -254t465 -90zM1174 264q-144 0 -205.5 71.5t-40.5 190.5l76 437h79
l-75 -435q-17 -98 28.5 -149t153.5 -51q214 0 250 200l78 435h77l-75 -437q-21 -120 -112 -191t-234 -71z" />
    <glyph glyph-name="V.ss08" 
d="M1419 1546q205 0 383.5 -54.5t312 -154t210.5 -250.5t77 -333q0 -140 -46.5 -276t-130.5 -253.5t-204.5 -217.5t-263.5 -171t-314 -111t-349 -40q-216 0 -398.5 58t-310.5 160.5t-200 249.5t-72 320q0 165 65 325t186 294t280.5 236.5t360.5 160t414 57.5zM1108 -231
q193 0 375.5 50.5t329 142t257.5 211.5t171.5 266.5t60.5 299.5q0 219 -120 385t-322.5 252t-454.5 86q-193 0 -376 -52.5t-329 -145.5t-256.5 -214.5t-170.5 -267t-60 -295.5q0 -210 113 -374t317 -254t465 -90zM1196 360q88 135 237.5 358t159.5 238h84l-458 -684h-76
l-217 684h82q21 -59 188 -596z" />
    <glyph glyph-name="W.ss08" 
d="M1419 1546q205 0 383.5 -54.5t312 -154t210.5 -250.5t77 -333q0 -140 -46.5 -276t-130.5 -253.5t-204.5 -217.5t-263.5 -171t-314 -111t-349 -40q-216 0 -398.5 58t-310.5 160.5t-200 249.5t-72 320q0 165 65 325t186 294t280.5 236.5t360.5 160t414 57.5zM1108 -231
q193 0 375.5 50.5t329 142t257.5 211.5t171.5 266.5t60.5 299.5q0 219 -120 385t-322.5 252t-454.5 86q-193 0 -376 -52.5t-329 -145.5t-256.5 -214.5t-170.5 -267t-60 -295.5q0 -210 113 -374t317 -254t465 -90zM1460 375q165 291 336 581h82l-395 -684h-82
q-58 249 -119 578q-28 -51 -71.5 -130t-69.5 -127t-75.5 -133.5t-109.5 -187.5h-86l-149 684h84q101 -452 127 -581q288 507 330 581h77q23 -113 121 -581z" />
    <glyph glyph-name="X.ss08" horiz-adv-x="2455" 
d="M1419 1546q205 0 383.5 -54.5t312 -154t210.5 -250.5t77 -333q0 -140 -46.5 -276t-130.5 -253.5t-204.5 -217.5t-263.5 -171t-314 -111t-349 -40q-216 0 -398.5 58t-310.5 160.5t-200 249.5t-72 320q0 165 65 325t186 294t280.5 236.5t360.5 160t414 57.5zM1108 -231
q193 0 375.5 50.5t329 142t257.5 211.5t171.5 266.5t60.5 299.5q0 219 -120 385t-322.5 252t-454.5 86q-193 0 -376 -52.5t-329 -145.5t-256.5 -214.5t-170.5 -267t-60 -295.5q0 -210 113 -374t317 -254t465 -90zM1249 676q30 29 68 68t86 86.5t133 125.5h90
q-29 -29 -62 -64t-85 -84.5t-195 -182.5q36 -55 74.5 -114.5t83 -129.5t69.5 -109h-88q-39 58 -113.5 174t-78.5 121q-45 -45 -126 -124t-173 -171h-90q46 46 151.5 154t200.5 201q-116 167 -223 329h90q127 -187 188 -280z" />
    <glyph glyph-name="Y.ss08" 
d="M1419 1546q205 0 383.5 -54.5t312 -154t210.5 -250.5t77 -333q0 -140 -46.5 -276t-130.5 -253.5t-204.5 -217.5t-263.5 -171t-314 -111t-349 -40q-216 0 -398.5 58t-310.5 160.5t-200 249.5t-72 320q0 165 65 325t186 294t280.5 236.5t360.5 160t414 57.5zM1108 -231
q193 0 375.5 50.5t329 142t257.5 211.5t171.5 266.5t60.5 299.5q0 219 -120 385t-322.5 252t-454.5 86q-193 0 -376 -52.5t-329 -145.5t-256.5 -214.5t-170.5 -267t-60 -295.5q0 -210 113 -374t317 -254t465 -90zM1235 590q33 38 71.5 83.5t91.5 103.5t167 179h84
q-43 -48 -71 -81t-44 -52t-83.5 -92.5t-190.5 -204.5q-17 -94 -43 -254h-80q6 36 15 86.5t28 167.5q-26 46 -67.5 128.5t-164.5 301.5h88q43 -81 199 -366z" />
    <glyph glyph-name="Z.ss08" horiz-adv-x="2455" 
d="M1419 1546q205 0 383.5 -54.5t312 -154t210.5 -250.5t77 -333q0 -140 -46.5 -276t-130.5 -253.5t-204.5 -217.5t-263.5 -171t-314 -111t-349 -40q-216 0 -398.5 58t-310.5 160.5t-200 249.5t-72 320q0 165 65 325t186 294t280.5 236.5t360.5 160t414 57.5zM1108 -231
q193 0 375.5 50.5t329 142t257.5 211.5t171.5 266.5t60.5 299.5q0 219 -120 385t-322.5 252t-454.5 86q-193 0 -376 -52.5t-329 -145.5t-256.5 -214.5t-170.5 -267t-60 -295.5q0 -210 113 -374t317 -254t465 -90zM1008 891l12 65h604l-8 -61q-556 -489 -631 -555h539
l-13 -68h-634l12 64q251 229 624 555h-505z" />
    <glyph glyph-name="i.loclTRK" horiz-adv-x="589" 
d="M449 1423q-46 0 -76.5 27.5t-30.5 67.5q0 49 43 85.5t102 36.5q45 0 76 -26t31 -64q0 -50 -44 -88.5t-101 -38.5zM264 0h-135l199 1128h135z" />
    <glyph glyph-name="a.ss01" horiz-adv-x="1646" 
d="M641 -35q-242 0 -388.5 136t-146.5 358q0 135 58.5 263.5t158 225t239 155t292.5 58.5q167 0 296.5 -70t186.5 -202h4l45 239h134l-195 -1128h-135l41 236h-6q-104 -131 -259 -201t-325 -70zM678 78q164 0 306.5 82.5t224 214.5t81.5 276q0 175 -122.5 286.5
t-317.5 111.5q-123 0 -235 -49t-190.5 -128.5t-124.5 -183.5t-46 -211q0 -180 116.5 -289.5t307.5 -109.5z" />
    <glyph glyph-name="aacute.ss01" horiz-adv-x="1646" 
d="M1446 1671l-442 -393h-121l366 393h197zM641 -35q-242 0 -388.5 136t-146.5 358q0 135 58.5 263.5t158 225t239 155t292.5 58.5q167 0 296.5 -70t186.5 -202h4l45 239h134l-195 -1128h-135l41 236h-6q-104 -131 -259 -201t-325 -70zM678 78q164 0 306.5 82.5t224 214.5
t81.5 276q0 175 -122.5 286.5t-317.5 111.5q-123 0 -235 -49t-190.5 -128.5t-124.5 -183.5t-46 -211q0 -180 116.5 -289.5t307.5 -109.5z" />
    <glyph glyph-name="abreve.ss01" horiz-adv-x="1646" 
d="M952 1276q-204 0 -303 110.5t-76 284.5h127q-20 -132 56 -211.5t211 -79.5q138 0 242 79t134 212h127q-39 -174 -178.5 -284.5t-339.5 -110.5zM641 -35q-242 0 -388.5 136t-146.5 358q0 135 58.5 263.5t158 225t239 155t292.5 58.5q167 0 296.5 -70t186.5 -202h4l45 239
h134l-195 -1128h-135l41 236h-6q-104 -131 -259 -201t-325 -70zM678 78q164 0 306.5 82.5t224 214.5t81.5 276q0 175 -122.5 286.5t-317.5 111.5q-123 0 -235 -49t-190.5 -128.5t-124.5 -183.5t-46 -211q0 -180 116.5 -289.5t307.5 -109.5z" />
    <glyph glyph-name="acircumflex.ss01" horiz-adv-x="1646" 
d="M627 1278h-131l422 356h192l293 -356h-129q-23 23 -77 73.5t-103.5 100t-92.5 98.5q-44 -36 -93.5 -73t-85 -62t-97.5 -68t-98 -69zM641 -35q-242 0 -388.5 136t-146.5 358q0 135 58.5 263.5t158 225t239 155t292.5 58.5q167 0 296.5 -70t186.5 -202h4l45 239h134
l-195 -1128h-135l41 236h-6q-104 -131 -259 -201t-325 -70zM678 78q164 0 306.5 82.5t224 214.5t81.5 276q0 175 -122.5 286.5t-317.5 111.5q-123 0 -235 -49t-190.5 -128.5t-124.5 -183.5t-46 -211q0 -180 116.5 -289.5t307.5 -109.5z" />
    <glyph glyph-name="adieresis.ss01" horiz-adv-x="1646" 
d="M760 1376q-43 0 -72 25.5t-29 62.5q0 44 41 79.5t93 35.5q42 0 70 -24t28 -60q0 -47 -39 -83t-92 -36zM1180 1376q-45 0 -74 24.5t-29 61.5q0 47 39.5 82t93.5 35q42 0 71.5 -25t29.5 -61q0 -44 -40.5 -80.5t-90.5 -36.5zM641 -35q-242 0 -388.5 136t-146.5 358
q0 135 58.5 263.5t158 225t239 155t292.5 58.5q167 0 296.5 -70t186.5 -202h4l45 239h134l-195 -1128h-135l41 236h-6q-104 -131 -259 -201t-325 -70zM678 78q164 0 306.5 82.5t224 214.5t81.5 276q0 175 -122.5 286.5t-317.5 111.5q-123 0 -235 -49t-190.5 -128.5
t-124.5 -183.5t-46 -211q0 -180 116.5 -289.5t307.5 -109.5z" />
    <glyph glyph-name="agrave.ss01" horiz-adv-x="1646" 
d="M1018 1278h-121l-303 393h194zM641 -35q-242 0 -388.5 136t-146.5 358q0 135 58.5 263.5t158 225t239 155t292.5 58.5q167 0 296.5 -70t186.5 -202h4l45 239h134l-195 -1128h-135l41 236h-6q-104 -131 -259 -201t-325 -70zM678 78q164 0 306.5 82.5t224 214.5t81.5 276
q0 175 -122.5 286.5t-317.5 111.5q-123 0 -235 -49t-190.5 -128.5t-124.5 -183.5t-46 -211q0 -180 116.5 -289.5t307.5 -109.5z" />
    <glyph glyph-name="amacron.ss01" horiz-adv-x="1646" 
d="M1393 1421h-826l19 105h825zM641 -35q-242 0 -388.5 136t-146.5 358q0 135 58.5 263.5t158 225t239 155t292.5 58.5q167 0 296.5 -70t186.5 -202h4l45 239h134l-195 -1128h-135l41 236h-6q-104 -131 -259 -201t-325 -70zM678 78q164 0 306.5 82.5t224 214.5t81.5 276
q0 175 -122.5 286.5t-317.5 111.5q-123 0 -235 -49t-190.5 -128.5t-124.5 -183.5t-46 -211q0 -180 116.5 -289.5t307.5 -109.5z" />
    <glyph glyph-name="aogonek.ss01" horiz-adv-x="1646" 
d="M1061 -238q0 -62 54.5 -97.5t137.5 -35.5q45 0 109 15l-19 -93q-63 -14 -116 -14q-129 0 -205 54t-76 145q0 152 240 264h4l41 236h-6q-104 -131 -259 -201t-325 -70q-242 0 -388.5 136t-146.5 358q0 135 58.5 263.5t158 225t239 155t292.5 58.5q167 0 296.5 -70
t186.5 -202h4l45 239h134l-195 -1128h-14q-106 -41 -178 -101.5t-72 -136.5zM678 78q164 0 306.5 82.5t224 214.5t81.5 276q0 175 -122.5 286.5t-317.5 111.5q-123 0 -235 -49t-190.5 -128.5t-124.5 -183.5t-46 -211q0 -180 116.5 -289.5t307.5 -109.5z" />
    <glyph glyph-name="aring.ss01" horiz-adv-x="1646" 
d="M946 1247q-102 0 -165.5 51.5t-63.5 133.5q0 101 89 174t216 73q103 0 166 -51t63 -133q0 -100 -89 -174t-216 -74zM961 1337q78 0 132 43.5t54 106.5q0 48 -39 75t-100 27q-80 0 -133.5 -42t-53.5 -105q0 -50 39 -77.5t101 -27.5zM641 -35q-242 0 -388.5 136t-146.5 358
q0 135 58.5 263.5t158 225t239 155t292.5 58.5q167 0 296.5 -70t186.5 -202h4l45 239h134l-195 -1128h-135l41 236h-6q-104 -131 -259 -201t-325 -70zM678 78q164 0 306.5 82.5t224 214.5t81.5 276q0 175 -122.5 286.5t-317.5 111.5q-123 0 -235 -49t-190.5 -128.5
t-124.5 -183.5t-46 -211q0 -180 116.5 -289.5t307.5 -109.5z" />
    <glyph glyph-name="atilde.ss01" horiz-adv-x="1646" 
d="M1141 1333q-42 0 -77 12t-53.5 25.5t-49.5 40.5l-41 31q-1 1 -11 9l-12.5 10t-11.5 8.5t-13.5 8.5t-13.5 6.5t-15.5 6t-16 3t-19.5 1.5q-60 0 -103 -41t-57 -106h-104q20 108 100 175.5t186 67.5q82 0 164 -67l45 -37q66 -57 127 -57q57 0 98.5 41t53.5 106h108
q-21 -110 -97 -177t-187 -67zM641 -35q-242 0 -388.5 136t-146.5 358q0 135 58.5 263.5t158 225t239 155t292.5 58.5q167 0 296.5 -70t186.5 -202h4l45 239h134l-195 -1128h-135l41 236h-6q-104 -131 -259 -201t-325 -70zM678 78q164 0 306.5 82.5t224 214.5t81.5 276
q0 175 -122.5 286.5t-317.5 111.5q-123 0 -235 -49t-190.5 -128.5t-124.5 -183.5t-46 -211q0 -180 116.5 -289.5t307.5 -109.5z" />
    <glyph glyph-name="b.ss01" horiz-adv-x="1382" 
d="M686 -35q-146 0 -248.5 51.5t-144.5 149.5h-6l-29 -166h-129l289 1638h135l-178 -1003h4q80 85 201 130.5t254 45.5q204 0 327 -100t123 -265q0 -94 -46 -181.5t-124.5 -153.5t-190.5 -106t-237 -40zM696 70q183 0 316 110.5t133 257.5q0 120 -91 193.5t-241 73.5
q-189 0 -323 -107t-134 -250q0 -120 95.5 -199t244.5 -79z" />
    <glyph glyph-name="d.ss01" horiz-adv-x="1640" 
d="M641 -35q-241 0 -388 135.5t-147 358.5q0 135 58.5 263.5t158 225t239 155t292.5 58.5q166 0 292 -68.5t185 -199.5h6l133 745h136l-289 -1638h-129l41 236h-4q-104 -131 -259 -201t-325 -70zM676 78q123 0 237 48t196.5 126.5t131.5 183t49 213.5q0 181 -125 290.5
t-315 109.5q-122 0 -233.5 -48.5t-190.5 -127.5t-125.5 -184t-46.5 -214q0 -179 116 -288t306 -109z" />
    <glyph glyph-name="dcaron.ss01" horiz-adv-x="1648" 
d="M1667 1188h-94l190 250q-32 9 -49.5 31.5t-17.5 52.5q0 50 43.5 86.5t101.5 36.5q43 0 73 -26t30 -65t-48 -102t-229 -264zM643 -35q-241 0 -387.5 135.5t-146.5 358.5q0 135 58.5 263.5t157.5 225t238.5 155t292.5 58.5q166 0 292.5 -68.5t186.5 -199.5h4l134 745h135
l-289 -1638h-129l41 236h-4q-104 -131 -259 -201t-325 -70zM678 78q123 0 237 48t196.5 126.5t131.5 183t49 213.5q0 181 -125 290.5t-315 109.5q-122 0 -233.5 -48.5t-190.5 -127.5t-125.5 -184t-46.5 -214q0 -178 116.5 -287.5t305.5 -109.5z" />
    <glyph glyph-name="dcroat.ss01" horiz-adv-x="1640" 
d="M1571 1440h313l-14 -105h-318l-235 -1335h-129l41 236h-4q-104 -131 -259 -201t-325 -70q-241 0 -388 135.5t-147 358.5q0 135 58.5 263.5t158 225t239 155t292.5 58.5q166 0 292 -68.5t185 -199.5h6l80 442h-352l16 105h355l34 198h136zM676 78q123 0 237 48
t196.5 126.5t131.5 183t49 213.5q0 181 -125 290.5t-315 109.5q-122 0 -233.5 -48.5t-190.5 -127.5t-125.5 -184t-46.5 -214q0 -179 116 -288t306 -109z" />
    <glyph glyph-name="g.ss01" horiz-adv-x="1642" 
d="M1235 -451h-1212l16 113h1077l111 608h-4q-101 -128 -252.5 -199t-321.5 -71q-242 0 -390 135.5t-148 353.5q0 130 59 253t158 215t237.5 148t288.5 56q169 0 296 -70.5t185 -201.5h6l43 239h132zM680 113q121 0 234.5 47t196 123t132 176t49.5 203q0 170 -124 278.5
t-318 108.5q-120 0 -230.5 -46t-190 -121t-126.5 -174.5t-47 -203.5q0 -172 118.5 -281.5t305.5 -109.5z" />
    <glyph glyph-name="gbreve.ss01" horiz-adv-x="1642" 
d="M950 1276q-204 0 -303 110.5t-76 284.5h127q-20 -132 56 -211.5t211 -79.5q138 0 242 79t134 212h127q-39 -174 -178.5 -284.5t-339.5 -110.5zM1235 -451h-1212l16 113h1077l111 608h-4q-101 -128 -252.5 -199t-321.5 -71q-242 0 -390 135.5t-148 353.5q0 130 59 253
t158 215t237.5 148t288.5 56q169 0 296 -70.5t185 -201.5h6l43 239h132zM680 113q121 0 234.5 47t196 123t132 176t49.5 203q0 170 -124 278.5t-318 108.5q-120 0 -230.5 -46t-190 -121t-126.5 -174.5t-47 -203.5q0 -172 118.5 -281.5t305.5 -109.5z" />
    <glyph glyph-name="uni0123.ss01" horiz-adv-x="1642" 
d="M811 1341q0 39 49 103.5t219 253.5h92l-184 -246q30 -8 48 -29t18 -51q0 -49 -42 -85t-98 -36q-43 0 -72.5 25.5t-29.5 64.5zM1235 -451h-1212l16 113h1077l111 608h-4q-101 -128 -252.5 -199t-321.5 -71q-242 0 -390 135.5t-148 353.5q0 130 59 253t158 215t237.5 148
t288.5 56q169 0 296 -70.5t185 -201.5h6l43 239h132zM680 113q121 0 234.5 47t196 123t132 176t49.5 203q0 170 -124 278.5t-318 108.5q-120 0 -230.5 -46t-190 -121t-126.5 -174.5t-47 -203.5q0 -172 118.5 -281.5t305.5 -109.5z" />
    <glyph glyph-name="gdotaccent.ss01" horiz-adv-x="1642" 
d="M977 1425q-46 0 -76.5 27.5t-30.5 67.5q0 49 43.5 85.5t102.5 36.5q44 0 75 -26t31 -64q0 -50 -44 -88.5t-101 -38.5zM1235 -451h-1212l16 113h1077l111 608h-4q-101 -128 -252.5 -199t-321.5 -71q-242 0 -390 135.5t-148 353.5q0 130 59 253t158 215t237.5 148t288.5 56
q169 0 296 -70.5t185 -201.5h6l43 239h132zM680 113q121 0 234.5 47t196 123t132 176t49.5 203q0 170 -124 278.5t-318 108.5q-120 0 -230.5 -46t-190 -121t-126.5 -174.5t-47 -203.5q0 -172 118.5 -281.5t305.5 -109.5z" />
    <glyph glyph-name="i.ss01" horiz-adv-x="806" 
d="M571 1423q-47 0 -76.5 27.5t-29.5 67.5q0 49 43 85.5t100 36.5q45 0 76 -26t31 -64q0 -50 -43.5 -88.5t-100.5 -38.5zM686 0h-434l184 1016h-340l17 112h475l-180 -1015h297z" />
    <glyph glyph-name="dotlessi.ss01" horiz-adv-x="806" 
d="M686 0h-434l184 1016h-340l17 112h475l-180 -1015h297z" />
    <glyph glyph-name="iacute.ss01" horiz-adv-x="806" 
d="M973 1671l-443 -393h-120l366 393h197zM686 0h-434l184 1016h-340l17 112h475l-180 -1015h297z" />
    <glyph glyph-name="icircumflex.ss01" horiz-adv-x="806" 
d="M152 1278h-132l422 356h193l293 -356h-129q-23 23 -77 73.5t-103.5 100t-92.5 98.5q-44 -36 -93.5 -73t-85 -62t-97.5 -68t-98 -69zM686 0h-434l184 1016h-340l17 112h475l-180 -1015h297z" />
    <glyph glyph-name="idieresis.ss01" horiz-adv-x="806" 
d="M287 1376q-43 0 -72 25.5t-29 62.5q0 45 40.5 80t92.5 35q42 0 70.5 -24.5t28.5 -59.5q0 -47 -39 -83t-92 -36zM707 1376q-45 0 -74 24.5t-29 61.5q0 47 39.5 82t93.5 35q42 0 71.5 -25t29.5 -61q0 -44 -40.5 -80.5t-90.5 -36.5zM686 0h-434l184 1016h-340l17 112h475
l-180 -1015h297z" />
    <glyph glyph-name="i.loclTRK.ss01" horiz-adv-x="806" 
d="M553 1425q-46 0 -76.5 27.5t-30.5 67.5q0 49 43.5 85.5t102.5 36.5q44 0 75 -26t31 -64q0 -50 -44 -88.5t-101 -38.5zM686 0h-434l184 1016h-340l17 112h475l-180 -1015h297z" />
    <glyph glyph-name="igrave.ss01" horiz-adv-x="806" 
d="M543 1278h-121l-303 393h194zM686 0h-434l184 1016h-340l17 112h475l-180 -1015h297z" />
    <glyph glyph-name="imacron.ss01" horiz-adv-x="806" 
d="M918 1421h-826l19 105h825zM686 0h-434l184 1016h-340l17 112h475l-180 -1015h297z" />
    <glyph glyph-name="iogonek.ss01" horiz-adv-x="806" 
d="M504 1425q-46 0 -76.5 27.5t-30.5 67.5q0 49 43.5 85.5t102.5 36.5q44 0 75 -26t31 -64q0 -50 -44 -88.5t-101 -38.5zM686 0h-309q-106 -41 -178 -101.5t-72 -136.5q0 -62 54.5 -97.5t137.5 -35.5q45 0 109 15l-18 -93q-63 -14 -117 -14q-129 0 -205 54t-76 145
q0 152 240 264l184 1016h-340l17 112h475l-180 -1015h297z" />
    <glyph glyph-name="j.ss01" horiz-adv-x="720" 
d="M578 1423q-47 0 -78 27.5t-31 67.5q0 49 43 85.5t102 36.5q44 0 74.5 -26t30.5 -64q0 -50 -42 -88.5t-99 -38.5zM315 -451h-637l17 113h502l243 1354h-344l19 112h481z" />
    <glyph glyph-name="l.ss01" horiz-adv-x="884" 
d="M788 0h-651l289 1638h135l-270 -1525h516z" />
    <glyph glyph-name="lacute.ss01" horiz-adv-x="884" 
d="M1135 2083l-463 -322h-127l375 322h215zM788 0h-651l289 1638h135l-270 -1525h516z" />
    <glyph glyph-name="lcaron.ss01" horiz-adv-x="884" 
d="M788 0h-651l289 1638h135l-270 -1525h516zM836 1178h-93l191 252q-68 19 -68 81q0 49 43.5 86t100.5 37q44 0 73 -25t29 -65q0 -38 -49 -103.5t-227 -262.5z" />
    <glyph glyph-name="uni013C.ss01" horiz-adv-x="884" 
d="M788 0h-651l289 1638h135l-270 -1525h516zM207 -508h-70l148 191q-88 17 -88 81q0 46 41.5 82.5t97.5 36.5q42 0 72 -25t30 -61q0 -41 -38.5 -90.5t-168.5 -188.5q-5 -6 -8 -9t-7.5 -8t-8.5 -9z" />
    <glyph glyph-name="lslash.ss01" horiz-adv-x="884" 
d="M432 913l-141 -800h516l-19 -113h-651l148 831l-277 -151l19 111l276 151l123 696h135l-108 -612l258 141l-17 -110z" />
    <glyph glyph-name="m.ss01" horiz-adv-x="2496" 
d="M264 0h-135l199 1128h135l-90 -507l862 507h182l-90 -507l862 507h183l-199 -1128h-135l182 1012h-14l-901 -527l-86 -485h-136l183 1012h-15l-901 -527z" />
    <glyph glyph-name="n.ss01" horiz-adv-x="1568" 
d="M371 602l899 526h174l-201 -1128h-135l182 1004h-14l-926 -521l-86 -483h-135l90 514l109 614h135z" />
    <glyph glyph-name="nacute.ss01" horiz-adv-x="1568" 
d="M1210 1671h197l-442 -393h-121zM371 602l899 526h174l-201 -1128h-135l182 1004h-14l-926 -521l-86 -483h-135l90 514l109 614h135z" />
    <glyph glyph-name="ncaron.ss01" horiz-adv-x="1568" 
d="M1427 1638l-419 -358h-193l-293 358h129q28 -27 75.5 -71.5t73 -69t61 -60t65.5 -69.5q53 42 110 83.5t138.5 99t123.5 87.5h129zM371 602l899 526h174l-201 -1128h-135l182 1004h-14l-926 -521l-86 -483h-135l90 514l109 614h135z" />
    <glyph glyph-name="uni0146.ss01" horiz-adv-x="1568" 
d="M371 602l899 526h174l-201 -1128h-135l182 1004h-14l-926 -521l-86 -483h-135l90 514l109 614h135zM696 -117q42 0 72.5 -25t30.5 -61q0 -40 -38.5 -90t-162.5 -182q-20 -21 -31 -33h-69l147 191q-88 17 -88 81q0 46 41.5 82.5t97.5 36.5z" />
    <glyph glyph-name="eng.ss01" horiz-adv-x="1568" 
d="M788 -483q-149 0 -243 57l18 117q104 -64 221 -64q42 0 78.5 9t63.5 21.5t51 35.5t40 43t30.5 52t22.5 52.5t16.5 56t12 52t9.5 49.5l182 1006h-14l-926 -521l-86 -483h-135l199 1128h135l-92 -518l899 518h174l-203 -1142q-9 -50 -15 -79.5t-22.5 -85t-36 -91t-54.5 -80
t-78 -70.5t-106.5 -44.5t-140.5 -18.5z" />
    <glyph glyph-name="ntilde.ss01" horiz-adv-x="1568" 
d="M768 1495q-60 0 -103 -41t-57 -106h-104q20 108 100.5 175.5t186.5 67.5q50 0 86.5 -17.5t76.5 -49.5l45 -37q66 -57 127 -57q57 0 98.5 41t53.5 106h108q-21 -110 -97 -177t-187 -67q-42 0 -77 12t-53.5 25.5t-49.5 40.5l-41 31q-1 1 -11 9l-12.5 10t-11.5 8.5
t-13.5 8.5t-13.5 6.5t-15.5 6t-16 3t-19.5 1.5zM371 602l899 526h174l-201 -1128h-135l182 1004h-14l-926 -521l-86 -483h-135l90 514l109 614h135z" />
    </font>
</defs>
</svg>
