<?xml version="1.0" standalone="no"?>
<!DOCTYPE svg PUBLIC "-//W3C//DTD SVG 1.1//EN" "http://www.w3.org/Graphics/SVG/1.1/DTD/svg11.dtd" >
<svg xmlns="http://www.w3.org/2000/svg" xmlns:xlink="http://www.w3.org/1999/xlink" version="1.1">
<metadata>
Created by FontForge 20170731 at Mon Mar 15 14:20:57 2021
 By Aleksey,,,
Copyright (c) 2020 by Matthieu Salvaggio x Blaze Type. All rights reserved.
</metadata>
<defs>
<font id="Area-MediumExtended" horiz-adv-x="2457" >
  <font-face 
    font-family="Area Medium Extended"
    font-weight="500"
    font-stretch="normal"
    units-per-em="2048"
    panose-1="0 0 6 0 0 0 0 0 0 0"
    ascent="1638"
    descent="-410"
    x-height="1133"
    cap-height="1597"
    bbox="-1989 -537 3090 2163"
    underline-thickness="102"
    underline-position="-307"
    unicode-range="U+0020-25CA"
  />
<missing-glyph horiz-adv-x="1740" 
d="M1503 0h-1265v1597h1265v-1597zM385 1475v-1248l907 1248h-907zM1356 1350l-885 -1223h885v1223z" />
    <glyph glyph-name=".notdef" horiz-adv-x="1740" 
d="M1503 0h-1265v1597h1265v-1597zM385 1475v-1248l907 1248h-907zM1356 1350l-885 -1223h885v1223z" />
    <glyph glyph-name=".null" horiz-adv-x="0" 
 />
    <glyph glyph-name="nonmarkingreturn" horiz-adv-x="682" 
 />
    <glyph glyph-name="space" unicode=" " horiz-adv-x="645" 
 />
    <glyph glyph-name="exclam" unicode="!" horiz-adv-x="634" 
d="M369 403h-99l-51 1080v114h199v-114zM319 -14q-57 0 -97 36.5t-40 88.5q0 51 40 85.5t97 34.5q56 0 96 -34.5t40 -85.5q0 -52 -39.5 -88.5t-96.5 -36.5z" />
    <glyph glyph-name="quotedbl" unicode="&#x22;" horiz-adv-x="841" 
d="M342 1143h-170v454h170v-454zM670 1143h-170v454h170v-454z" />
    <glyph glyph-name="numbersign" unicode="#" horiz-adv-x="1703" 
d="M1608 1085l-29 -129h-297l-88 -368h293l-29 -129h-295l-108 -459h-154l109 459h-475l-109 -459h-154l109 459h-285l29 129h287l88 368h-283l31 129h282l121 512h154l-121 -512h475l121 512h154l-121 -512h295zM565 588h475l88 368h-475z" />
    <glyph glyph-name="dollar" unicode="$" horiz-adv-x="1419" 
d="M1272 487q0 -160 -135 -267t-367 -114v-188h-113v193q-187 16 -325 106t-199 252l154 51q102 -234 370 -266v477l-10 2q-43 9 -82.5 20t-96.5 31.5t-102.5 49.5t-88 67t-66 91.5t-23.5 115.5q0 108 69 190t173.5 124t226.5 48v168h113v-172q168 -19 298.5 -104.5
t170.5 -204.5l-145 -63q-38 88 -122.5 150t-201.5 79v-467l25 -6q43 -10 70.5 -17t71 -20t72.5 -24.5t67.5 -29.5t64 -36.5t52.5 -44t42.5 -53t26 -63t10.5 -75.5zM362 1120q0 -39 18 -72.5t45.5 -57t68.5 -44.5t78.5 -33.5t84.5 -25.5v442q-129 -8 -212 -63.5t-83 -145.5z
M770 705v-455q83 4 153.5 26.5t122.5 73t52 121.5q0 43 -18.5 77.5t-47.5 58t-74.5 43t-88 31.5t-99.5 24z" />
    <glyph glyph-name="percent" unicode="%" horiz-adv-x="2035" 
d="M420 780q-147 0 -236.5 104t-89.5 269q0 167 89.5 272t236.5 105t237.5 -105.5t90.5 -271.5q0 -164 -90.5 -268.5t-237.5 -104.5zM424 0h-160l1366 1468h152zM420 897q81 0 130.5 67.5t49.5 188.5t-49.5 189.5t-130.5 68.5t-130.5 -68.5t-49.5 -189.5t49.5 -188.5
t130.5 -67.5zM1616 -29q-147 0 -236.5 104t-89.5 269q0 167 89.5 272t236.5 105t237.5 -105.5t90.5 -271.5q0 -164 -90.5 -268.5t-237.5 -104.5zM1616 88q81 0 130.5 67.5t49.5 188.5t-49.5 189.5t-130.5 68.5t-130.5 -68.5t-49.5 -189.5t49.5 -188.5t130.5 -67.5z" />
    <glyph glyph-name="ampersand" unicode="&#x26;" horiz-adv-x="1687" 
d="M670 -35q-147 0 -271.5 47t-202 139.5t-77.5 213.5q0 48 13.5 93t35 81.5t56 73.5t68.5 65t81.5 59t86 52.5t89.5 48.5q-49 44 -80.5 73.5t-76.5 79t-71 91t-45.5 94t-19.5 102.5q0 150 134 251t331 101q103 0 190.5 -30.5t145.5 -81.5t90.5 -116t32.5 -134t-32.5 -135.5
t-90 -123t-122.5 -102.5t-144 -88l415 -352q75 132 129 321l160 -32q-87 -265 -174 -400l401 -354h-211l-278 231q-224 -268 -563 -268zM690 913q64 36 103 61t82.5 59t67 64.5t39 70.5t15.5 85q0 109 -79 171.5t-203 62.5q-117 0 -197 -56.5t-80 -152.5q0 -47 19.5 -94.5
t58.5 -95.5t77.5 -86t96.5 -89zM676 113q265 0 446 227l-467 395q-49 -25 -79 -41t-72 -41.5t-67.5 -45t-55 -47t-45.5 -53t-26.5 -58t-10.5 -66.5q0 -123 109 -196.5t268 -73.5z" />
    <glyph glyph-name="quotesingle" unicode="'" horiz-adv-x="516" 
d="M342 1143h-170v454h170v-454z" />
    <glyph glyph-name="parenleft" unicode="(" horiz-adv-x="747" 
d="M715 -307h-176q-201 198 -307.5 445t-106.5 507q0 262 106 507.5t308 444.5h176q-196 -196 -301 -443t-105 -509q0 -258 104.5 -506.5t301.5 -445.5z" />
    <glyph glyph-name="parenright" unicode=")" horiz-adv-x="747" 
d="M209 -307h-176q197 197 302 446t105 506q0 258 -105 506.5t-302 445.5h176q203 -200 308.5 -446.5t105.5 -505.5q0 -258 -106 -505.5t-308 -446.5z" />
    <glyph glyph-name="asterisk" unicode="*" horiz-adv-x="1005" 
d="M557 1024h-111l3 203l-218 -103l-55 84l219 103l-219 102l55 84l218 -100l-3 200h111v-200l217 100l55 -84l-219 -102l219 -103l-55 -84l-217 103v-203z" />
    <glyph glyph-name="plus" unicode="+" horiz-adv-x="1214" 
d="M684 692h360v-135h-360v-313h-154v313h-362v135h362v314h154v-314z" />
    <glyph glyph-name="comma" unicode="," horiz-adv-x="544" 
d="M188 -262h-108l153 258q-43 13 -67.5 45t-24.5 70q0 51 41 85.5t99 34.5q57 0 97 -34.5t40 -83.5q0 -38 -32.5 -91.5t-158.5 -228.5q-8 -12 -12.5 -18.5t-12.5 -17t-14 -19.5z" />
    <glyph glyph-name="hyphen" unicode="-" horiz-adv-x="962" 
d="M817 557h-672v135h672v-135z" />
    <glyph glyph-name="period" unicode="." horiz-adv-x="575" 
d="M291 -14q-58 0 -98.5 36t-40.5 89q0 51 40 85.5t99 34.5q56 0 94.5 -34.5t38.5 -85.5q0 -52 -38.5 -88.5t-94.5 -36.5z" />
    <glyph glyph-name="slash" unicode="/" horiz-adv-x="1019" 
d="M256 -135h-164l668 1773h166z" />
    <glyph glyph-name="zero" unicode="0" horiz-adv-x="1724" 
d="M864 -35q-210 0 -373.5 105t-253.5 294t-90 431q0 244 90 434t253.5 295.5t373.5 105.5q209 0 372 -105.5t253 -296t90 -433.5q0 -242 -90 -431t-253 -294t-372 -105zM864 121q234 0 377 184t143 490q0 309 -143 494.5t-377 185.5q-235 0 -380.5 -185t-145.5 -495
q0 -307 145.5 -490.5t380.5 -183.5z" />
    <glyph glyph-name="one" unicode="1" horiz-adv-x="952" 
d="M688 0h-180v1272q-70 -79 -187.5 -132.5t-257.5 -70.5v162q200 32 326.5 134.5t126.5 231.5h172v-1597z" />
    <glyph glyph-name="two" unicode="2" horiz-adv-x="1523" 
d="M1393 0h-1243v14q10 91 32.5 164t59.5 132.5t83.5 108t113 96t139.5 92.5t170 102q32 18 49 28q46 27 71 42.5t72.5 47.5t76 56t65.5 61.5t57.5 71t35.5 76.5t15 86q0 132 -116 217.5t-304 85.5q-216 0 -348.5 -116.5t-132.5 -303.5l-164 26q0 238 179.5 390.5
t467.5 152.5q263 0 432.5 -126.5t169.5 -327.5q0 -66 -21 -127.5t-55 -111t-85.5 -97.5t-103 -85t-116.5 -77q-62 -38 -148.5 -85.5t-138.5 -76.5t-114.5 -70.5t-101 -79.5t-72.5 -92t-51 -118h1026v-156z" />
    <glyph glyph-name="three" unicode="3" horiz-adv-x="1566" 
d="M780 -35q-243 0 -426.5 99.5t-244.5 265.5l151 71q54 -121 193.5 -202.5t328.5 -81.5q198 0 326.5 88.5t128.5 232.5q0 140 -126.5 226t-367.5 86h-192v139h205q203 0 314.5 83t111.5 212q0 135 -120.5 216t-307.5 81q-175 0 -297.5 -80.5t-149.5 -224.5l-160 30
q32 190 205 307t420 117q160 0 294 -49.5t217 -146.5t83 -224q0 -134 -90.5 -238t-239.5 -141v-2q170 -26 278.5 -126.5t108.5 -256.5q0 -96 -44 -182.5t-124 -153t-203 -106t-272 -39.5z" />
    <glyph glyph-name="four" unicode="4" horiz-adv-x="1599" 
d="M1221 0h-177v387h-981v156l984 1054h174v-1062h284v-148h-284v-387zM1044 1372l-794 -837h794v837z" />
    <glyph glyph-name="five" unicode="5" horiz-adv-x="1560" 
d="M764 -35q-238 0 -428.5 99.5t-261.5 269.5l147 80q44 -95 129.5 -163.5t192 -102t223.5 -33.5q135 0 246.5 48.5t178 138.5t66.5 204q0 166 -134 272.5t-335 106.5q-147 0 -265.5 -58t-184.5 -153l-145 51l225 872h917v-145h-792l-156 -584h2q58 65 176 108.5t258 43.5
q96 0 186.5 -21t169.5 -63t138.5 -101.5t94 -142t34.5 -178.5q0 -159 -91.5 -285t-246.5 -195t-344 -69z" />
    <glyph glyph-name="six" unicode="6" horiz-adv-x="1632" 
d="M846 -35q-318 0 -509.5 199.5t-191.5 550.5q0 200 65.5 371t181 290t278 186.5t350.5 67.5q254 0 432 -121l-113 -118q-139 90 -340 90q-143 0 -266.5 -51.5t-213.5 -144.5t-142 -229t-53 -298h6q55 123 210 200.5t339 77.5q167 0 310.5 -65t232.5 -187.5t89 -277.5
q0 -153 -86.5 -277t-239 -194t-339.5 -70zM848 115q128 0 236.5 47.5t175.5 138.5t67 205q0 113 -65.5 203.5t-174 139t-237.5 48.5q-205 0 -343 -115.5t-138 -279.5q0 -166 140.5 -276.5t338.5 -110.5z" />
    <glyph glyph-name="seven" unicode="7" horiz-adv-x="1441" 
d="M551 0h-184q0 205 105.5 476t297 543.5t420.5 455.5h-1149v147h1352v-156q-180 -137 -339 -327.5t-268 -388.5t-172 -395.5t-63 -354.5z" />
    <glyph glyph-name="eight" unicode="8" horiz-adv-x="1605" 
d="M805 -35q-290 0 -478 134t-188 331q0 149 103 259t272 149v4q-145 51 -224 144t-79 212q0 184 169 308t427 124q166 0 300.5 -54.5t211 -152t76.5 -217.5q0 -119 -79 -217.5t-224 -146.5v-4q169 -39 271.5 -149t102.5 -259q0 -131 -84.5 -237t-236.5 -167t-340 -61z
M805 901q175 0 292 85.5t117 215.5q0 125 -116.5 207t-292.5 82q-178 0 -296 -82t-118 -207q0 -130 117.5 -215.5t296.5 -85.5zM803 109q202 0 338.5 94.5t136.5 247.5q0 148 -123 236.5t-350 88.5q-229 0 -353 -88t-124 -237q0 -153 136 -247.5t339 -94.5z" />
    <glyph glyph-name="nine" unicode="9" horiz-adv-x="1660" 
d="M752 -35q-164 0 -320.5 58t-277.5 176l114 108q201 -196 467 -196q119 0 218 38t168 104.5t116 158.5t69.5 199t22.5 227h-4q-51 -139 -205.5 -224.5t-347.5 -85.5q-127 0 -242.5 40.5t-202.5 111t-138.5 173.5t-51.5 222q0 116 51 218.5t140 176.5t216.5 117t274.5 43
q111 0 209 -24t188 -81t154.5 -142t102.5 -215.5t38 -293.5q0 -147 -29 -280t-90.5 -248.5t-150 -200t-214 -132.5t-275.5 -48zM795 666q208 0 347.5 125t139.5 305q0 118 -66.5 208t-173 135.5t-233.5 45.5q-132 0 -242 -49.5t-176.5 -144t-66.5 -216.5
q0 -176 134.5 -292.5t336.5 -116.5z" />
    <glyph glyph-name="colon" unicode=":" horiz-adv-x="624" 
d="M315 913q-58 0 -98.5 37t-40.5 90q0 50 40.5 84.5t98.5 34.5q56 0 95 -35t39 -84q0 -53 -39.5 -90t-94.5 -37zM315 -14q-58 0 -98.5 37t-40.5 90q0 50 40.5 84t98.5 34q56 0 95 -34.5t39 -83.5q0 -53 -39.5 -90t-94.5 -37z" />
    <glyph glyph-name="semicolon" unicode=";" horiz-adv-x="704" 
d="M365 913q-57 0 -97.5 37.5t-40.5 89.5q0 49 40.5 84t97.5 35t97 -34.5t40 -84.5q0 -53 -40 -90t-97 -37zM270 -266h-108l151 262q-40 13 -64 45t-24 70q0 51 41 85.5t99 34.5q57 0 97 -34.5t40 -85.5q0 -40 -49 -116q-25 -39 -183 -261z" />
    <glyph glyph-name="less" unicode="&#x3c;" horiz-adv-x="1234" 
d="M1036 430v-131l-864 242v161l864 240v-131l-702 -190z" />
    <glyph glyph-name="equal" unicode="=" horiz-adv-x="1257" 
d="M1069 762h-883v135h883v-135zM1069 340h-883v135h883v-135z" />
    <glyph glyph-name="greater" unicode="&#x3e;" horiz-adv-x="1234" 
d="M1061 541l-862 -242v131l700 191l-700 190v131l862 -240v-161z" />
    <glyph glyph-name="question" unicode="?" horiz-adv-x="1310" 
d="M655 391h-172q-14 72 -14 115q0 46 14 86.5t35.5 71.5t61.5 65.5t77.5 59.5t98.5 63q130 83 199 164t69 182q0 85 -53 151t-139 100t-187 34q-104 0 -192.5 -38t-144.5 -113.5t-56 -174.5q0 -39 4 -59l-158 26q-8 31 -8 60q0 135 80 238.5t207.5 155.5t277.5 52
q146 0 270.5 -49t203.5 -146.5t79 -224.5q0 -73 -27.5 -139t-81 -122.5t-105.5 -97.5t-126 -89q-50 -33 -74.5 -49.5t-60 -46t-51.5 -52.5t-28.5 -56t-12.5 -69q0 -46 14 -98zM592 -14q-58 0 -98.5 37t-40.5 88t40 85.5t97 34.5q56 0 95.5 -34.5t39.5 -85.5
q0 -52 -38.5 -88.5t-94.5 -36.5z" />
    <glyph glyph-name="at" unicode="@" horiz-adv-x="2361" 
d="M1100 -195q-228 0 -416 64t-311 174.5t-189.5 256t-66.5 310.5q0 157 60 309t171.5 279.5t260 225t337.5 152t391 54.5q161 0 305 -35t260.5 -102t201.5 -160t131 -214t46 -259q0 -176 -72 -322.5t-199 -231.5t-281 -85q-136 0 -204.5 66.5t-54.5 167.5
q-86 -109 -211 -164t-253 -55q-183 0 -295.5 110t-112.5 275q0 109 51.5 214.5t135 184t195.5 126.5t228 48q127 0 222.5 -54.5t138.5 -152.5l37 180h133l-125 -587q-5 -26 -7.5 -43.5t-4.5 -51.5t5 -57t21 -47.5t45 -37.5t74 -13q157 0 270 146.5t113 365.5
q0 303 -216.5 487t-576.5 184q-221 0 -420 -73t-341 -195.5t-225 -288.5t-83 -346q0 -151 58 -277.5t165.5 -217t268.5 -141t358 -50.5q185 0 355 44t299 128l73 -94q-152 -99 -349.5 -148t-395.5 -49zM1053 360q94 0 179 38t143 100t92 141t34 160q0 122 -75.5 196
t-213.5 74q-126 0 -230.5 -62.5t-162 -161.5t-57.5 -210q0 -124 76 -199.5t215 -75.5z" />
    <glyph glyph-name="A" unicode="A" horiz-adv-x="1816" 
d="M223 0h-188l776 1597h195l776 -1597h-189q-104 205 -270 541h-834q-67 -133 -159.5 -323t-106.5 -218zM563 698h686q-230 468 -338 707h-6q-29 -63 -83 -174.5t-131 -269.5t-128 -263z" />
    <glyph glyph-name="B" unicode="B" horiz-adv-x="1751" 
d="M1028 0h-770v1597h688q144 0 261.5 -33.5t192.5 -91t115.5 -132t40.5 -158.5q0 -79 -34.5 -150.5t-114.5 -131.5t-195 -85v-4q201 -29 304.5 -134.5t103.5 -248.5q0 -189 -169 -308.5t-423 -119.5zM438 877h482q206 0 327 76.5t121 203.5q0 132 -132 210.5t-335 78.5
h-463v-569zM438 152h537q207 0 331 77.5t124 206.5q0 133 -132 214t-340 81h-520v-579z" />
    <glyph glyph-name="C" unicode="C" horiz-adv-x="2064" 
d="M1100 -35q-280 0 -501 105t-344.5 294.5t-123.5 430.5q0 186 75.5 344t205 264.5t304.5 166.5t371 60q136 0 265.5 -30t243 -87t201.5 -148t134 -206l-162 -61q-87 178 -270 277.5t-412 99.5q-155 0 -293.5 -47.5t-243.5 -133.5t-166.5 -216.5t-61.5 -286.5
q0 -133 44.5 -245t121 -189.5t178.5 -131.5t215.5 -79t234.5 -25q117 0 220 24t183 66.5t145 102.5t109 129t72 149l162 -53q-97 -264 -327.5 -419t-579.5 -155z" />
    <glyph glyph-name="D" unicode="D" horiz-adv-x="1976" 
d="M956 0h-698v1597h676q187 0 339.5 -40.5t257 -112t176 -171.5t104 -216t32.5 -248q0 -178 -61 -327t-173 -256t-280 -166.5t-373 -59.5zM438 152h527q318 0 504 170.5t186 474.5q0 317 -202 483t-560 166h-455v-1294z" />
    <glyph glyph-name="E" unicode="E" horiz-adv-x="1615" 
d="M1489 0h-1231v1597h1206v-151h-1026v-549h977v-156h-977v-585h1051v-156z" />
    <glyph glyph-name="F" unicode="F" horiz-adv-x="1525" 
d="M1440 1597v-157h-1002v-559h953v-158h-953v-723h-180v1597h1182z" />
    <glyph glyph-name="G" unicode="G" horiz-adv-x="2158" 
d="M1079 -35q-205 0 -381 62t-300.5 170.5t-195.5 262.5t-71 333q0 186 74.5 343.5t203.5 265t304.5 168t373.5 60.5q137 0 267 -30.5t243.5 -88t201 -148.5t132.5 -204l-162 -61q-87 178 -270 277.5t-412 99.5q-154 0 -292.5 -47t-243.5 -133t-167 -216.5t-62 -287.5
q0 -134 45 -246t121 -189.5t177.5 -131t213 -78.5t229.5 -25q295 0 487.5 147.5t214.5 376.5h-661v141h842v-786h-146l-6 346h-12q-98 -182 -289.5 -281.5t-458.5 -99.5z" />
    <glyph glyph-name="H" unicode="H" horiz-adv-x="1986" 
d="M1550 881v716h181v-1597h-181v725h-1112v-725h-180v1597h180v-716h1112z" />
    <glyph glyph-name="I" unicode="I" horiz-adv-x="694" 
d="M438 0h-180v1597h180v-1597z" />
    <glyph glyph-name="J" unicode="J" horiz-adv-x="1441" 
d="M666 -35q-92 0 -176 17t-162.5 56.5t-135.5 98.5t-91.5 148t-34.5 200v45l167 23v-39q0 -106 38 -185.5t101.5 -123.5t135.5 -65t151 -21q53 0 99 8t80 25t61.5 36t47 47.5t34 53t23 59t14 60t7.5 60.5t2.5 55t0.5 50v1024h178v-983q0 -47 -0.5 -74t-5.5 -84.5t-13.5 -96
t-27.5 -94.5t-45 -94t-67.5 -80t-94 -67t-125.5 -42t-161 -17z" />
    <glyph glyph-name="K" unicode="K" horiz-adv-x="1642" 
d="M438 0h-180v1597h180v-841h4q290 268 949 841h215q-386 -343 -781 -700q90 -98 271 -295t320.5 -348.5t234.5 -253.5h-217q-109 113 -255.5 269t-482.5 507q-129 -117 -258 -231v-545z" />
    <glyph glyph-name="L" unicode="L" horiz-adv-x="1452" 
d="M438 1597v-1441h977v-156h-1157v1597h180z" />
    <glyph glyph-name="M" unicode="M" horiz-adv-x="2476" 
d="M438 0h-180v1597h217q469 -820 760 -1361h4q650 1161 760 1361h219v-1597h-182v1278h-8q-218 -412 -709 -1278h-164q-476 842 -709 1278h-8v-1278z" />
    <glyph glyph-name="N" unicode="N" horiz-adv-x="2025" 
d="M438 0h-180v1597h195q54 -63 327.5 -380.5t454 -530t350.5 -416.5h6v1327h178v-1597h-194q-76 88 -493.5 567t-641.5 744h-2v-1311z" />
    <glyph glyph-name="O" unicode="O" horiz-adv-x="2181" 
d="M1090 -35q-194 0 -370.5 62.5t-306.5 171.5t-207 265t-77 333q0 236 129.5 427.5t349.5 298.5t484 107q200 0 378 -64.5t305.5 -175t202 -265t74.5 -328.5t-75.5 -329t-204.5 -265t-306.5 -174t-375.5 -64zM1094 121q205 0 379.5 86.5t279.5 242.5t105 347t-104.5 347.5
t-279 243.5t-380.5 87q-207 0 -384 -86.5t-284 -243t-107 -348.5t107 -348t284 -242t384 -86z" />
    <glyph glyph-name="P" unicode="P" horiz-adv-x="1642" 
d="M258 1597h674q131 0 243 -29.5t199 -87t137 -150t50 -210.5q0 -99 -33.5 -182t-91 -139.5t-133.5 -96t-160.5 -57.5t-173.5 -18h-531v-627h-180v1597zM438 782h477q212 0 334.5 84.5t122.5 247.5q0 159 -131 245.5t-342 86.5h-461v-664z" />
    <glyph glyph-name="Q" unicode="Q" horiz-adv-x="2189" 
d="M1987 -94l-127 -101l-273 271q-227 -111 -491 -111q-197 0 -374.5 62.5t-308 171.5t-207.5 265t-77 333q0 236 129.5 427.5t350.5 298.5t487 107q269 0 490 -109.5t347.5 -300.5t126.5 -423q0 -190 -89 -354.5t-249 -280.5q39 -36 78 -74t92 -90t95 -92zM1098 121
q196 0 370 86q-56 51 -356 336l125 98q63 -59 185.5 -176t185.5 -176q123 94 193.5 224.5t70.5 283.5q0 143 -62 270t-166.5 216t-247 140.5t-298.5 51.5q-158 0 -301.5 -51t-249 -140t-168 -216t-62.5 -271t62.5 -271t168.5 -215t249.5 -139t300.5 -51z" />
    <glyph glyph-name="R" unicode="R" horiz-adv-x="1703" 
d="M438 0h-180v1597h674q102 0 194.5 -18t172 -57t138 -94.5t91.5 -135t33 -174.5q0 -206 -136 -332t-358 -147v-2q85 -106 257 -318t257 -319h-201l-510 629h-432v-629zM438 776h477q211 0 334 86t123 248q0 160 -131.5 249t-341.5 89h-461v-672z" />
    <glyph glyph-name="S" unicode="S" horiz-adv-x="1587" 
d="M817 -35q-113 0 -219 25.5t-205.5 79t-177.5 147t-119 217.5l166 55q59 -182 210 -276t347 -94q83 0 162 17.5t147 51.5t109 93t41 135q0 54 -24.5 97.5t-52.5 69t-89.5 50.5t-94.5 34t-108 28q-26 7 -39 10l-178 47q-51 13 -87 23.5t-95 32.5t-101.5 44.5t-91.5 58.5
t-79.5 75.5t-51 94.5t-20.5 117q0 104 53 188t141.5 136t198.5 80t229 28q227 0 399 -101.5t234 -279.5l-161 -61q-54 135 -182 213t-308 78q-176 0 -297 -74t-121 -193q0 -42 17.5 -79.5t41 -64.5t65 -52.5t71.5 -40.5t79 -31.5t69.5 -22t60.5 -16.5l188 -51
q182 -49 249 -76q219 -87 264 -246q13 -44 13 -94q0 -139 -90 -248.5t-238 -167t-325 -57.5z" />
    <glyph glyph-name="T" unicode="T" horiz-adv-x="1560" 
d="M870 0h-178v1446h-655v151h1487v-151h-654v-1446z" />
    <glyph glyph-name="U" unicode="U" horiz-adv-x="1847" 
d="M918 -35q-328 0 -506.5 166t-178.5 455v1011h181v-1001q0 -240 134 -358.5t376 -118.5t376 118t134 359v1001h180v-1011q0 -103 -24.5 -193.5t-78 -170t-133.5 -136t-197.5 -89t-262.5 -32.5z" />
    <glyph glyph-name="V" unicode="V" horiz-adv-x="1816" 
d="M1008 0h-199l-774 1597h188q93 -175 202 -396t273 -564.5t211 -441.5h6q95 195 331.5 690t344.5 712h191z" />
    <glyph glyph-name="W" unicode="W" horiz-adv-x="2795" 
d="M879 0h-217l-617 1597h193q325 -804 534 -1374h4q446 1176 520 1374h201l528 -1374h7q367 977 526 1374h192l-616 -1597h-217q-219 544 -516 1354h-4q-312 -847 -518 -1354z" />
    <glyph glyph-name="X" unicode="X" horiz-adv-x="1599" 
d="M240 0h-209q102 123 321.5 396t339.5 417v6q-45 54 -643 778h205q178 -209 545 -649h6q276 338 543 649h206q-64 -77 -206.5 -250t-242 -292t-198.5 -236v-6q130 -155 359.5 -440.5t300.5 -372.5h-207q-87 106 -271 334t-284 350h-6z" />
    <glyph glyph-name="Y" unicode="Y" horiz-adv-x="1693" 
d="M936 0h-178v582q-617 882 -713 1015h195q101 -142 302.5 -428t303.5 -428h4q305 435 608 856h191l-713 -1015v-582z" />
    <glyph glyph-name="Z" unicode="Z" horiz-adv-x="1622" 
d="M1542 0h-1466v162l1224 1282v4q-393 -2 -1179 -2v151h1401v-157q-900 -935 -1229 -1280v-4h1249v-156z" />
    <glyph glyph-name="bracketleft" unicode="[" horiz-adv-x="811" 
d="M748 -348h-510v1945h510v-139h-342v-1655h342v-151z" />
    <glyph glyph-name="backslash" unicode="\" horiz-adv-x="1019" 
d="M928 -135h-166l-668 1773h164z" />
    <glyph glyph-name="bracketright" unicode="]" horiz-adv-x="811" 
d="M573 -348h-510v151h343v1655h-343v139h510v-1945z" />
    <glyph glyph-name="asciicircum" unicode="^" horiz-adv-x="1052" 
d="M291 1042h-152l303 555h168l303 -555h-153l-230 439h-6z" />
    <glyph glyph-name="underscore" unicode="_" horiz-adv-x="1243" 
d="M1194 -227h-1145v129h1145v-129z" />
    <glyph glyph-name="a" unicode="a" horiz-adv-x="1411" 
d="M547 -35q-118 0 -214 32t-157 101t-61 166q0 64 27 116t70.5 87.5t109 64t132 46t150.5 32.5q32 5 83 13t80.5 13t71.5 13.5t66 16.5t52 21t42.5 28.5t24.5 37t10 48.5q0 93 -95.5 162t-244.5 69q-135 0 -232 -61t-134 -168l-166 51q38 105 126 177t192.5 103t221.5 31
q97 0 185.5 -23t162 -67.5t117 -119.5t43.5 -171v-430q0 -131 10 -204.5t33 -149.5h-170q-32 95 -32 225h-7q-67 -119 -193 -189.5t-304 -70.5zM573 92q83 0 158 23t129.5 61t95 85t60.5 96t20 94v147q-59 -36 -121 -54.5t-200 -39.5q-47 -8 -72.5 -12.5t-76 -16t-81 -22.5
t-70.5 -29.5t-62.5 -39.5t-39 -51t-16.5 -65q0 -81 76 -128.5t200 -47.5z" />
    <glyph glyph-name="b" unicode="b" horiz-adv-x="1646" 
d="M901 -35q-165 0 -301 67.5t-213 186.5h-4v-219h-164v1638h168v-735q84 129 221 195.5t301 66.5q177 0 319.5 -77t223 -213.5t80.5 -307.5q0 -177 -85 -315.5t-228 -212.5t-318 -74zM874 111q207 0 342.5 128.5t135.5 325.5q0 196 -136.5 325.5t-341.5 129.5
q-99 0 -188.5 -34t-156 -93t-105.5 -145t-39 -185q0 -131 67 -235t178 -160.5t244 -56.5z" />
    <glyph glyph-name="c" unicode="c" horiz-adv-x="1495" 
d="M788 -35q-195 0 -348 74.5t-239 211t-86 312.5q0 177 86.5 314.5t240 212.5t349.5 75q194 0 351.5 -81t233.5 -244l-164 -58q-49 113 -163.5 175.5t-266.5 62.5q-220 0 -354.5 -129t-134.5 -326q0 -204 140.5 -329t363.5 -125q174 0 297 76.5t184 205.5l156 -53
q-78 -180 -250 -277.5t-396 -97.5z" />
    <glyph glyph-name="d" unicode="d" horiz-adv-x="1644" 
d="M743 -35q-180 0 -324 76.5t-225 213.5t-81 310q0 176 84.5 314t228 212t319.5 74q161 0 294 -65.5t212 -184.5h6v723h170v-1284q0 -129 10.5 -205t32.5 -149h-170q-35 114 -32 217h-6q-80 -122 -218 -187t-301 -65zM768 111q135 0 247 57t178.5 162t66.5 237
q0 197 -143.5 325t-348.5 128t-340 -129t-135 -326q0 -196 136 -325t339 -129z" />
    <glyph glyph-name="e" unicode="e" horiz-adv-x="1333" 
d="M686 -35q-168 0 -301.5 74t-210 211t-76.5 313q0 264 164.5 433t419.5 169q74 0 145 -15.5t145 -56.5t129.5 -103.5t90.5 -164.5t35 -231v-72h-965q6 -192 125 -305t303 -113q144 0 249 76.5t157 200.5l145 -53q-66 -170 -214 -266.5t-341 -96.5zM270 659h789
q-2 79 -25.5 143t-60.5 105.5t-86.5 69t-101.5 39.5t-107 12q-163 0 -273 -102t-135 -267z" />
    <glyph glyph-name="f" unicode="f" horiz-adv-x="858" 
d="M444 0h-168v993h-204v140h204v145q0 73 8 128t31 107.5t62.5 86t105.5 53.5t156 20q150 0 252 -51v-141q-109 57 -225 57q-36 0 -65.5 -5t-51.5 -12t-39 -21t-28 -25.5t-18.5 -33t-11 -36t-5.5 -41.5t-2.5 -43t-0.5 -47v-141h396v-140h-396v-993z" />
    <glyph glyph-name="g" unicode="g" horiz-adv-x="1642" 
d="M797 -483q-472 0 -615 329l156 50q107 -244 459 -244q74 0 138.5 13.5t124.5 47.5t102 86.5t67.5 135t25.5 188.5v129h-6q-78 -123 -211.5 -186.5t-296.5 -63.5q-182 0 -326.5 77.5t-224 210.5t-79.5 296q0 167 84 300t227.5 206t318.5 73q164 0 300 -66.5t214 -189.5h5
v224h165v-996q0 -169 -47 -291.5t-134 -193t-197 -103t-250 -32.5zM766 147q204 0 347.5 127.5t143.5 313.5t-143.5 309t-347.5 123t-339.5 -124.5t-135.5 -307.5q0 -186 136.5 -313.5t338.5 -127.5z" />
    <glyph glyph-name="h" unicode="h" horiz-adv-x="1556" 
d="M387 0h-168v1638h168v-716h6q75 123 196.5 183t272.5 60q75 0 144 -14.5t134 -48.5t112.5 -85t76.5 -129.5t29 -176.5v-711h-168v641q0 97 -29.5 171t-81.5 118.5t-117.5 67t-142.5 22.5q-100 0 -183.5 -33t-137 -88t-82.5 -125.5t-29 -146.5v-627z" />
    <glyph glyph-name="i" unicode="i" horiz-adv-x="604" 
d="M303 1399q-60 0 -99.5 36t-39.5 89q0 51 40 86t99 35q57 0 97 -35.5t40 -85.5q0 -52 -40 -88.5t-97 -36.5zM387 0h-168v1133h168v-1133z" />
    <glyph glyph-name="j" unicode="j" horiz-adv-x="602" 
d="M301 1399q-60 0 -99.5 36t-39.5 89q0 50 40 85.5t99 35.5q57 0 97 -35.5t40 -85.5q0 -52 -40 -88.5t-97 -36.5zM2 -483q-146 0 -258 53v143q114 -57 227 -57q51 0 91 13t65.5 31.5t43.5 50.5t26.5 57t13.5 66t5.5 62.5t0.5 59.5v1137h170v-1147q0 -52 -1 -81.5t-8 -85.5
t-21 -91t-42 -79.5t-68 -70t-102.5 -43.5t-142.5 -18z" />
    <glyph glyph-name="k" unicode="k" horiz-adv-x="1288" 
d="M709 684l598 -684h-197l-520 580l-203 -179v-401h-168v1638h168v-1038h6q48 42 271 234t348 299h207z" />
    <glyph glyph-name="l" unicode="l" horiz-adv-x="604" 
d="M387 0h-168v1638h168v-1638z" />
    <glyph glyph-name="m" unicode="m" horiz-adv-x="2478" 
d="M387 0h-168v1133h164v-211h4q75 122 200 182.5t271 60.5q70 0 136 -14.5t128 -44.5t110.5 -84.5t72.5 -126.5h4q173 270 489 270q71 0 137.5 -14.5t130 -49t111 -85.5t76 -129.5t28.5 -175.5v-711h-167v641q0 97 -29.5 171.5t-80.5 119t-114 66.5t-135 22q-95 0 -176 -33
t-134 -88t-82.5 -125.5t-29.5 -146.5v-627h-168v641q0 97 -29 171.5t-79.5 119t-113 66.5t-134.5 22q-95 0 -176 -33t-134 -88t-82.5 -125.5t-29.5 -146.5v-627z" />
    <glyph glyph-name="n" unicode="n" horiz-adv-x="1556" 
d="M387 0h-168v1133h164v-211h4q76 124 200.5 183.5t276.5 59.5q76 0 144.5 -14.5t133.5 -48.5t112 -85t75.5 -129.5t28.5 -176.5v-711h-168v641q0 97 -29.5 171t-81.5 118.5t-117.5 67t-142.5 22.5q-100 0 -183.5 -33t-137 -88t-82.5 -125.5t-29 -146.5v-627z" />
    <glyph glyph-name="o" unicode="o" horiz-adv-x="1587" 
d="M795 -35q-197 0 -352 75.5t-241.5 212t-86.5 310.5q0 265 190.5 433.5t489.5 168.5q298 0 488 -168.5t190 -433.5q0 -130 -50.5 -241.5t-139.5 -190t-215 -122.5t-273 -44zM795 111q221 0 359 126t138 326q0 202 -138 329.5t-359 127.5t-360.5 -128t-139.5 -329
q0 -200 139.5 -326t360.5 -126z" />
    <glyph glyph-name="p" unicode="p" horiz-adv-x="1646" 
d="M387 -451h-168v1584h164v-230h4q86 131 223 196.5t297 65.5q270 0 447.5 -169.5t177.5 -428.5q0 -177 -85 -315.5t-228 -212.5t-318 -74q-166 0 -301.5 67.5t-212.5 186.5v-670zM874 111q207 0 342.5 128.5t135.5 325.5t-136.5 326t-341.5 129q-99 0 -188.5 -34t-156 -93
t-105.5 -145t-39 -185q0 -131 67 -235t178 -160.5t244 -56.5z" />
    <glyph glyph-name="q" unicode="q" horiz-adv-x="1644" 
d="M1427 -451h-170v676q-81 -125 -217.5 -192.5t-302.5 -67.5q-177 0 -319.5 77.5t-223.5 215t-81 309.5q0 175 84.5 312.5t227.5 211.5t318 74q164 0 300 -66.5t214 -189.5h5v224h165v-1584zM768 111q135 0 247 57t178.5 162t66.5 237q0 197 -143.5 325t-348.5 128
t-340 -129t-135 -326q0 -196 136 -325t339 -129z" />
    <glyph glyph-name="r" unicode="r" horiz-adv-x="1011" 
d="M387 0h-168v1133h164v-228h10q52 117 170 188.5t266 71.5q87 0 154 -22v-172q-68 26 -168 26q-105 0 -189 -41t-135 -108t-77.5 -147t-26.5 -164v-537z" />
    <glyph glyph-name="s" unicode="s" horiz-adv-x="1220" 
d="M641 -35q-199 0 -352 87.5t-207 230.5l158 47q50 -104 163 -168t238 -64q47 0 96 10t98 31t80 60.5t31 91.5q0 37 -18 66.5t-42 47.5t-67.5 34.5t-73.5 24.5t-81 19l-132 31q-36 9 -61 16t-69 23t-75 32t-68 42.5t-60 56.5t-38.5 71.5t-15.5 88.5q0 78 40 141
t105.5 101.5t144 58.5t159.5 20q171 0 303.5 -79t177.5 -199l-160 -49q-37 82 -125.5 138t-211.5 56q-113 0 -187 -48t-74 -128q0 -39 21.5 -71.5t50 -53.5t76 -40t81 -28.5t83.5 -21.5l129 -31q38 -9 61.5 -14.5t66.5 -19.5t71 -28t62.5 -38t55 -51t35 -65.5t14.5 -82.5
q0 -149 -135 -247.5t-348 -98.5z" />
    <glyph glyph-name="t" unicode="t" horiz-adv-x="940" 
d="M633 -35q-54 0 -99.5 9t-77.5 23t-58 37.5t-42 44.5t-27.5 53t-17 54.5t-8.5 56.5t-3.5 51.5t-0.5 47.5v651h-270v140h270v333h168v-333h416v-140h-416v-604v-43t2 -42.5t5 -44t9.5 -39.5t16 -37.5t24 -30.5t33.5 -25.5t45 -14.5t57 -6q110 0 224 60v-146
q-104 -55 -250 -55z" />
    <glyph glyph-name="u" unicode="u" horiz-adv-x="1533" 
d="M686 -35q-75 0 -143.5 14.5t-132 49t-110 86t-74 130.5t-27.5 177v711h168v-652q0 -99 31 -173t84 -115.5t115 -61.5t132 -20q97 0 178 34.5t132 90.5t78.5 124t27.5 138v635h168v-779q0 -124 10 -199.5t35 -154.5h-170q-35 109 -35 201h-4q-74 -119 -193.5 -177.5
t-269.5 -58.5z" />
    <glyph glyph-name="v" unicode="v" horiz-adv-x="1335" 
d="M760 0h-185l-536 1133h184q89 -185 246 -521t199 -426h6q298 648 440 947h182z" />
    <glyph glyph-name="w" unicode="w" horiz-adv-x="2234" 
d="M715 0h-178l-494 1133h186l402 -924h6l397 924h168l408 -924h6l389 924h186l-489 -1133h-184q-14 33 -86.5 195t-100.5 226.5t-89 209.5t-122 295h-6q-180 -443 -399 -926z" />
    <glyph glyph-name="x" unicode="x" horiz-adv-x="1261" 
d="M229 0h-192q405 475 485 569v4q-59 68 -122 142.5t-141 164.5t-222 253h194q313 -356 400 -455h4q75 89 212 244t185 211h193q-220 -256 -486 -560v-4q343 -399 484 -569h-187q-77 90 -220 254.5t-181 208.5h-4q-41 -47 -184 -210t-218 -253z" />
    <glyph glyph-name="y" unicode="y" horiz-adv-x="1339" 
d="M543 -451h-160l205 431l-551 1153h186q68 -139 447 -947h4q64 135 213 456.5t231 490.5h185z" />
    <glyph glyph-name="z" unicode="z" horiz-adv-x="1202" 
d="M1139 0h-1065v123l782 866h-739v144h966v-123l-786 -867h842v-143z" />
    <glyph glyph-name="braceleft" unicode="{" horiz-adv-x="919" 
d="M862 -305h-96q-145 0 -245.5 29t-157 88t-81 137t-24.5 186v170q0 64 -3.5 108.5t-14.5 73t-21 44t-33 23t-39 8.5t-50 1h-3v166q75 0 100 13q48 24 59 132q5 46 5 113v172q0 46 2.5 81t14 83t31.5 83.5t58 73.5t90.5 62t132 39.5t179.5 15.5h96v-139h-86
q-181 0 -266.5 -65.5t-85.5 -212.5v-189q0 -124 -19 -196t-50.5 -102t-86.5 -46v-4q56 -15 87 -44t50 -101.5t19 -196.5v-188q0 -47 7.5 -84t30 -75t60 -63t102.5 -41t152 -16h86v-139z" />
    <glyph glyph-name="bar" unicode="|" horiz-adv-x="636" 
d="M399 -451h-161v2089h161v-2089z" />
    <glyph glyph-name="braceright" unicode="}" horiz-adv-x="919" 
d="M152 -305h-97v139h88q178 0 263.5 65.5t85.5 213.5v188q0 121 17.5 191.5t49.5 103t90 47.5v4q-58 16 -90.5 50t-49.5 104.5t-17 189.5v189q0 65 -15 112t-52 86.5t-107.5 59.5t-174.5 20h-88v139h97q145 0 245.5 -29t158 -88t82 -136.5t24.5 -184.5v-172q0 -39 1 -70.5
t5.5 -56t7.5 -43.5t11.5 -33t14 -23.5t18.5 -15.5t20.5 -9.5t25.5 -5t27.5 -1.5h31.5v-166h-31.5t-27.5 -1.5t-25.5 -5t-20.5 -9.5t-18.5 -15.5t-14 -23.5t-11.5 -33t-7.5 -43.5t-5.5 -56t-1 -70.5v-170q0 -51 -4 -92t-17 -88t-35 -83t-60.5 -70.5t-91.5 -57t-129.5 -36
t-172.5 -13.5z" />
    <glyph glyph-name="asciitilde" unicode="~" horiz-adv-x="1288" 
d="M844 557q-64 0 -120 21.5t-90 47t-79.5 47t-89.5 21.5q-63 0 -95 -38.5t-32 -96.5h-150q0 128 83.5 199t197.5 71q50 0 94.5 -14t77 -33.5t63 -39.5t65.5 -34t71 -14q58 0 86 37t28 96h150q0 -132 -73 -201t-187 -69z" />
    <glyph glyph-name="uni00A0" unicode="&#xa0;" horiz-adv-x="645" 
 />
    <glyph glyph-name="exclamdown" unicode="&#xa1;" horiz-adv-x="598" 
d="M301 920q-58 0 -98.5 34t-40.5 84q0 53 40.5 90t98.5 37q56 0 95.5 -37.5t39.5 -89.5q0 -49 -39.5 -83.5t-95.5 -34.5zM399 -446h-200v112l51 1077h100l49 -1077v-112z" />
    <glyph glyph-name="cent" unicode="&#xa2;" horiz-adv-x="1368" 
d="M1118 584l127 -43q-61 -136 -189 -214.5t-294 -86.5v-240h-113v242q-216 21 -350.5 154t-134.5 337t135.5 338.5t349.5 155.5v239h113v-237q145 -8 262 -73t174 -189l-131 -47q-35 80 -116 129.5t-189 58.5v-748q126 7 218 67.5t138 156.5zM313 733q0 -151 92.5 -249
t243.5 -119v741q-153 -20 -244.5 -121.5t-91.5 -251.5z" />
    <glyph glyph-name="sterling" unicode="&#xa3;" horiz-adv-x="1468" 
d="M403 150h963v-150h-1243v150q214 67 337.5 180t123.5 237q0 78 -52 160h-380v111h294q-8 10 -42.5 50t-46 55t-39 51t-39 59.5t-27 57.5t-21.5 67.5t-6 68.5q0 176 147 279.5t369 103.5q68 0 133 -10t138.5 -37t133 -70t110 -115t75.5 -165l-160 -62q-30 88 -79 151.5
t-108.5 97t-118.5 48.5t-124 15q-139 0 -234 -63t-95 -175q0 -55 26.5 -112.5t58 -96.5t85 -100.5t80.5 -97.5h520v-111h-451q31 -74 31 -141q0 -125 -94.5 -239.5t-264.5 -196.5z" />
    <glyph glyph-name="currency" unicode="&#xa4;" horiz-adv-x="1626" 
d="M1276 823q0 -150 -96 -254l319 -319l-113 -90l-323 321q-106 -53 -248 -53q-137 0 -250 55l-323 -323l-115 90l322 321q-97 105 -97 252q0 146 94 254l-319 320l115 90l323 -320q112 56 250 56q140 0 250 -58l321 322l113 -90l-319 -318q96 -107 96 -256zM508 823
q0 -120 84.5 -196t222.5 -76q139 0 222 76t83 196q0 123 -83.5 200t-221.5 77t-222.5 -77t-84.5 -200z" />
    <glyph glyph-name="yen" unicode="&#xa5;" horiz-adv-x="1744" 
d="M963 0h-181v268h-446v127h446v183h-446v127h379l-639 892h194q87 -120 188 -261.5t221 -311t189 -266.5h6q49 68 179 250.5t424 588.5h190l-641 -892h385v-127h-448v-183h448v-127h-448v-268z" />
    <glyph glyph-name="brokenbar" unicode="&#xa6;" horiz-adv-x="636" 
d="M399 838h-161v800h161v-800zM399 -451h-161v795h161v-795z" />
    <glyph glyph-name="section" unicode="&#xa7;" horiz-adv-x="1312" 
d="M672 -301q-203 0 -359 94t-209 244l152 43q51 -110 169.5 -182t248.5 -72q46 0 93.5 10t93.5 31t75 60.5t29 90.5q0 30 -9 54t-30.5 43.5t-41.5 32.5t-59 27t-63.5 21.5t-73.5 20.5l-129 37q-34 10 -59.5 18t-67 24.5t-72.5 33.5t-66 43t-57.5 54t-37.5 66.5t-15 81.5
q0 98 69 168t181 101v2q-229 99 -229 278q0 80 40 143.5t107 101.5t147.5 57.5t166.5 19.5q108 0 198.5 -28t167 -97.5t111.5 -175.5l-164 -47q-41 113 -117 167t-207 54q-126 0 -203 -49t-77 -131q0 -28 11.5 -53t26 -43t44 -36t49.5 -28.5t59 -24t56.5 -18.5t56.5 -16
l149 -41q52 -15 87 -26.5t87 -36.5t83.5 -52.5t55 -72.5t23.5 -99q0 -97 -68.5 -176t-181.5 -113v-4q230 -83 230 -264q0 -142 -132.5 -239t-338.5 -97zM645 379l62 -17q48 2 95 14t91.5 34.5t72 62t27.5 90.5q0 36 -14 64t-37 46.5t-57 33t-68.5 24.5t-76.5 21q-11 3 -17 4
l-94 24q-111 29 -195 -31.5t-84 -150.5q0 -39 20.5 -72t48 -54.5t72 -41t77 -29.5t77.5 -22z" />
    <glyph glyph-name="copyright" unicode="&#xa9;" horiz-adv-x="2320" 
d="M1159 -35q-220 0 -408.5 65.5t-317 178.5t-201 265.5t-72.5 324.5q0 171 72.5 323.5t201 264.5t317 177.5t408.5 65.5t408.5 -65.5t317.5 -177.5t201.5 -264.5t72.5 -323.5q0 -172 -72.5 -324.5t-201.5 -265.5t-317.5 -178.5t-408.5 -65.5zM1159 84q192 0 355.5 56.5
t274 153t172.5 227.5t62 278t-62 277.5t-172.5 227t-274 153t-355.5 56.5q-191 0 -354 -56.5t-273.5 -153t-172.5 -227t-62 -277.5t62 -278t172.5 -227.5t273.5 -153t354 -56.5zM1169 350q-226 0 -366.5 124.5t-140.5 324.5q0 201 143 324.5t364 123.5q160 0 279 -68.5
t170 -193.5l-137 -43q-37 90 -119.5 139t-196.5 49q-156 0 -255 -93t-99 -240q0 -152 103.5 -240t261.5 -88q125 0 217.5 58t138.5 165l129 -37q-55 -146 -184.5 -225.5t-307.5 -79.5z" />
    <glyph glyph-name="guillemotleft" unicode="&#xab;" horiz-adv-x="1378" 
d="M727 164h-192l-404 405v9l404 405h192l-403 -405v-9zM1214 164h-190l-406 405v9l406 405h190l-403 -405v-9z" />
    <glyph glyph-name="logicalnot" unicode="&#xac;" horiz-adv-x="1249" 
d="M1059 244h-154v321h-723v135h877v-456z" />
    <glyph glyph-name="registered" unicode="&#xae;" horiz-adv-x="1396" 
d="M696 737q-152 0 -275 58t-192 161t-69 230t69 229.5t192 160.5t275 58q232 0 385.5 -128t153.5 -320q0 -193 -153.5 -321t-385.5 -128zM696 819q192 0 317.5 104.5t125.5 262.5q0 159 -125.5 263.5t-317.5 104.5q-193 0 -318.5 -104t-125.5 -264t125.5 -263.5
t318.5 -103.5zM604 944h-94v492h217q86 0 145.5 -40t59.5 -114q0 -56 -36.5 -95.5t-96.5 -51.5l155 -191h-108l-148 180h-94v-180zM604 1362v-162h119q108 0 108 82q0 39 -31 59.5t-83 20.5h-113z" />
    <glyph glyph-name="degree" unicode="&#xb0;" horiz-adv-x="937" 
d="M467 1055q-152 0 -251 84.5t-99 212.5q0 126 100 211.5t250 85.5q151 0 252.5 -86t101.5 -211q0 -126 -101 -211.5t-253 -85.5zM467 1155q98 0 162.5 56.5t64.5 140.5q0 82 -64.5 138t-162.5 56q-95 0 -160 -56t-65 -138q0 -83 65 -140t160 -57z" />
    <glyph glyph-name="plusminus" unicode="&#xb1;" horiz-adv-x="1261" 
d="M1075 791v-132h-368v-208h368v-125h-889v125h367v208h-367v132h367v243h154v-243h368z" />
    <glyph glyph-name="uni00B2" unicode="&#xb2;" horiz-adv-x="774" 
d="M678 797h-578v12q4 65 20.5 111t55 85.5t80.5 68t123 73.5q33 19 52 32t46.5 35.5t41 47t13.5 51.5q0 44 -40 73t-105 29q-79 0 -128.5 -44.5t-49.5 -117.5l-127 19q0 114 87 186t220 72q123 0 205 -60.5t82 -156.5q0 -124 -162 -213q-19 -11 -57.5 -31.5t-60 -33.5
t-48 -32t-43 -41.5t-24.5 -48.5h397v-116z" />
    <glyph glyph-name="uni00B3" unicode="&#xb3;" horiz-adv-x="786" 
d="M383 780q-113 0 -199 45.5t-112 118.5l121 55q24 -52 73 -82t117 -30q71 0 117.5 31.5t46.5 85.5q0 53 -47.5 81.5t-132.5 28.5h-84v92h90q70 0 113.5 30.5t43.5 76.5q0 48 -44 77t-109 29q-64 0 -108.5 -31t-53.5 -85l-125 24q12 88 96.5 145.5t202.5 57.5
q116 0 197.5 -53t81.5 -138q0 -57 -37 -103.5t-101 -59.5v-2q70 -11 116 -56.5t46 -111.5q0 -91 -83 -158.5t-226 -67.5z" />
    <glyph glyph-name="paragraph" unicode="&#xb6;" horiz-adv-x="1753" 
d="M1104 -287h-178v942h-269q-254 0 -411.5 133.5t-157.5 346.5q0 201 163 331.5t454 130.5h399v-1884zM1473 -287h-179v1884h179v-1884z" />
    <glyph glyph-name="periodcentered" unicode="&#xb7;" horiz-adv-x="671" 
d="M338 477q-70 0 -120 45.5t-50 108.5q0 61 49.5 104t120.5 43q69 0 116.5 -42.5t47.5 -104.5q0 -63 -47.5 -108.5t-116.5 -45.5z" />
    <glyph glyph-name="uni00B9" unicode="&#xb9;" horiz-adv-x="542" 
d="M381 797h-135v508q-73 -66 -187 -84v129q85 20 137 65t52 98h133v-716z" />
    <glyph glyph-name="guillemotright" unicode="&#xbb;" horiz-adv-x="1378" 
d="M356 164h-192l403 405v9l-403 405h192l404 -405v-9zM844 164h-193l406 405v9l-406 405h193l403 -405v-9z" />
    <glyph glyph-name="onequarter" unicode="&#xbc;" horiz-adv-x="1622" 
d="M381 797h-135v508q-73 -66 -187 -84v129q85 20 137 65t52 98h133v-716zM127 0h-162l1368 1468h152zM1432 -14h-134v155h-417v107l419 457h132v-457h114v-107h-114v-155zM1298 541l-280 -293h280v293z" />
    <glyph glyph-name="onehalf" unicode="&#xbd;" horiz-adv-x="1671" 
d="M381 797h-135v508q-73 -66 -187 -84v129q85 20 137 65t52 98h133v-716zM127 0h-162l1368 1468h152zM1577 -14h-578v14q4 65 20.5 111t55 85.5t80.5 68t123 73.5q34 20 52.5 32t46.5 35t41.5 47.5t13.5 51.5q0 44 -40.5 73t-105.5 29q-79 0 -128.5 -44.5t-49.5 -117.5
l-127 19q0 114 87 186t220 72q123 0 205 -60.5t82 -156.5q0 -124 -162 -213q-19 -11 -57.5 -31.5t-60 -33.5t-48 -32t-43 -41.5t-24.5 -48.5h397v-118z" />
    <glyph glyph-name="threequarters" unicode="&#xbe;" horiz-adv-x="1865" 
d="M383 780q-113 0 -199 45.5t-112 118.5l121 55q24 -52 73 -82t117 -30q71 0 117.5 31.5t46.5 85.5q0 53 -47.5 81.5t-132.5 28.5h-84v92h90q70 0 113.5 30.5t43.5 76.5q0 48 -44 77t-109 29q-64 0 -108.5 -31t-53.5 -85l-125 24q12 88 96.5 145.5t202.5 57.5
q116 0 197.5 -53t81.5 -138q0 -57 -37 -103.5t-101 -59.5v-2q70 -11 116 -56.5t46 -111.5q0 -91 -83 -158.5t-226 -67.5zM371 0h-160l1366 1468h152zM1675 -14h-133v155h-418v107l420 457h131v-457h115v-107h-115v-155zM1542 541l-280 -293h280v293z" />
    <glyph glyph-name="questiondown" unicode="&#xbf;" horiz-adv-x="1288" 
d="M711 920q-57 0 -97.5 34.5t-40.5 85.5t39.5 88t96.5 37q58 0 98.5 -37t40.5 -88t-40 -85.5t-97 -34.5zM643 -481q-145 0 -269.5 49.5t-204 147.5t-79.5 225q0 73 27.5 139t79.5 122t106 98.5t127 88.5q40 26 60 38.5t50.5 35t44.5 37t32.5 37.5t25 44t12 49t2.5 60
t-12 70h172q13 -61 14.5 -109t-13 -89t-34 -72t-60 -65.5t-78 -60t-101.5 -65.5q-64 -41 -108.5 -76.5t-84 -78.5t-59 -90.5t-19.5 -100.5q0 -86 53.5 -152t139 -99.5t186.5 -33.5q84 0 160 26t133 73t84 121t12 163l160 -26q15 -113 -24 -209.5t-117.5 -160.5t-187 -100
t-230.5 -36z" />
    <glyph glyph-name="Agrave" unicode="&#xc0;" horiz-adv-x="1816" 
d="M1020 1722h-156l-407 328h252zM223 0h-188l776 1597h195l776 -1597h-189q-104 205 -270 541h-834q-67 -133 -159.5 -323t-106.5 -218zM563 698h686q-230 468 -338 707h-6q-29 -63 -83 -174.5t-131 -269.5t-128 -263z" />
    <glyph glyph-name="Aacute" unicode="&#xc1;" horiz-adv-x="1816" 
d="M1368 2050l-407 -328h-156l311 328h252zM223 0h-188l776 1597h195l776 -1597h-189q-104 205 -270 541h-834q-67 -133 -159.5 -323t-106.5 -218zM563 698h686q-230 468 -338 707h-6q-29 -63 -83 -174.5t-131 -269.5t-128 -263z" />
    <glyph glyph-name="Acircumflex" unicode="&#xc2;" horiz-adv-x="1816" 
d="M1012 2036l321 -314h-157q-223 172 -269 211q-90 -75 -270 -211h-158l322 314h211zM223 0h-188l776 1597h195l776 -1597h-189q-104 205 -270 541h-834q-67 -133 -159.5 -323t-106.5 -218zM563 698h686q-230 468 -338 707h-6q-29 -63 -83 -174.5t-131 -269.5t-128 -263z
" />
    <glyph glyph-name="Atilde" unicode="&#xc3;" horiz-adv-x="1816" 
d="M1094 1745q-36 0 -64.5 5t-55.5 19t-37.5 20.5t-39.5 27.5l-49 32q-64 49 -119 49t-90 -39t-35 -98h-129q1 115 73 186.5t183 71.5q51 0 90 -16t88 -49l52 -35q69 -51 131 -51q54 0 84 38t30 99h131q0 -121 -64 -190.5t-179 -69.5zM223 0h-188l776 1597h195l776 -1597
h-189q-104 205 -270 541h-834q-67 -133 -159.5 -323t-106.5 -218zM563 698h686q-230 468 -338 707h-6q-29 -63 -83 -174.5t-131 -269.5t-128 -263z" />
    <glyph glyph-name="Adieresis" unicode="&#xc4;" horiz-adv-x="1816" 
d="M670 1780q-56 0 -94.5 33.5t-38.5 84.5q0 46 39 80.5t94 34.5t93 -34.5t38 -80.5q0 -51 -37.5 -84.5t-93.5 -33.5zM1149 1780q-58 0 -96.5 33.5t-38.5 84.5q0 47 39 81t96 34q52 0 90.5 -34.5t38.5 -80.5q0 -50 -38 -84t-91 -34zM223 0h-188l776 1597h195l776 -1597h-189
q-104 205 -270 541h-834q-67 -133 -159.5 -323t-106.5 -218zM563 698h686q-230 468 -338 707h-6q-29 -63 -83 -174.5t-131 -269.5t-128 -263z" />
    <glyph glyph-name="Aring" unicode="&#xc5;" horiz-adv-x="1816" 
d="M907 1716q-119 0 -196.5 63t-77.5 160t78 160.5t196 63.5q115 0 193 -64t78 -160q0 -97 -78 -160t-193 -63zM907 1819q65 0 108.5 33t43.5 87q0 53 -44 86t-108 33q-67 0 -111 -33t-44 -86q0 -54 44 -87t111 -33zM223 0h-188l776 1597h195l776 -1597h-189
q-104 205 -270 541h-834q-67 -133 -159.5 -323t-106.5 -218zM563 698h686q-230 468 -338 707h-6q-29 -63 -83 -174.5t-131 -269.5t-128 -263z" />
    <glyph glyph-name="AE" unicode="&#xc6;" horiz-adv-x="2539" 
d="M145 0h-196l1130 1597h1307v-151h-1026v-549h977v-156h-977v-585h1050v-156h-1230v539h-643q-374 -515 -392 -539zM635 694h545v752h-4z" />
    <glyph glyph-name="Ccedilla" unicode="&#xc7;" horiz-adv-x="2064" 
d="M1845 592l162 -53q-96 -262 -323.5 -416.5t-571.5 -157.5l-98 -117q34 17 96 17q98 0 161.5 -47t63.5 -123q0 -85 -78 -138t-198 -53q-89 0 -170.5 31t-134.5 84l69 66q39 -43 101.5 -68t126.5 -25q68 0 114.5 28.5t46.5 72.5q0 42 -41.5 69t-105.5 27q-62 0 -117 -25
l-67 54l118 151q-255 18 -452 126.5t-306.5 290.5t-109.5 409q0 186 75.5 344t205 264.5t304.5 166.5t371 60q136 0 265.5 -30t243 -87t201.5 -148t134 -206l-162 -61q-87 178 -270 277.5t-412 99.5q-155 0 -293.5 -47.5t-243.5 -133.5t-166.5 -216.5t-61.5 -286.5
q0 -133 44.5 -245t121 -189.5t178.5 -131.5t215.5 -79t234.5 -25q117 0 220 24t183 66.5t145 102.5t109 129t72 149z" />
    <glyph glyph-name="Egrave" unicode="&#xc8;" horiz-adv-x="1615" 
d="M938 1722h-156l-407 328h252zM1489 0h-1231v1597h1206v-151h-1026v-549h977v-156h-977v-585h1051v-156z" />
    <glyph glyph-name="Eacute" unicode="&#xc9;" horiz-adv-x="1615" 
d="M1288 2050l-407 -328h-156l311 328h252zM1489 0h-1231v1597h1206v-151h-1026v-549h977v-156h-977v-585h1051v-156z" />
    <glyph glyph-name="Ecircumflex" unicode="&#xca;" horiz-adv-x="1615" 
d="M932 2036l321 -314h-157q-223 172 -269 211q-90 -75 -270 -211h-158l322 314h211zM1489 0h-1231v1597h1206v-151h-1026v-549h977v-156h-977v-585h1051v-156z" />
    <glyph glyph-name="Edieresis" unicode="&#xcb;" horiz-adv-x="1615" 
d="M588 1780q-56 0 -94.5 33.5t-38.5 84.5q0 46 39 80.5t94 34.5t93 -34.5t38 -80.5q0 -51 -37.5 -84.5t-93.5 -33.5zM1067 1780q-58 0 -96.5 33.5t-38.5 84.5q0 47 39 81t96 34q52 0 90.5 -34.5t38.5 -80.5q0 -50 -38 -84t-91 -34zM1489 0h-1231v1597h1206v-151h-1026v-549
h977v-156h-977v-585h1051v-156z" />
    <glyph glyph-name="Igrave" unicode="&#xcc;" horiz-adv-x="694" 
d="M459 1722h-156l-407 328h251zM438 0h-180v1597h180v-1597z" />
    <glyph glyph-name="Iacute" unicode="&#xcd;" horiz-adv-x="694" 
d="M809 2050l-408 -328h-155l311 328h252zM438 0h-180v1597h180v-1597z" />
    <glyph glyph-name="Icircumflex" unicode="&#xce;" horiz-adv-x="694" 
d="M453 2036l321 -314h-158q-211 163 -268 211q-90 -75 -270 -211h-158l322 314h211zM438 0h-180v1597h180v-1597z" />
    <glyph glyph-name="Idieresis" unicode="&#xcf;" horiz-adv-x="694" 
d="M109 1780q-56 0 -95 33.5t-39 84.5q0 46 39.5 80.5t94.5 34.5t93 -34.5t38 -80.5q0 -51 -37.5 -84.5t-93.5 -33.5zM588 1780q-58 0 -96.5 33.5t-38.5 84.5q0 47 39 81t96 34q52 0 90.5 -34.5t38.5 -80.5q0 -50 -38 -84t-91 -34zM438 0h-180v1597h180v-1597z" />
    <glyph glyph-name="Eth" unicode="&#xd0;" horiz-adv-x="1976" 
d="M258 1597h676q187 0 339.5 -40.5t257 -112t176 -171.5t104 -216t32.5 -248q0 -178 -61 -327t-173 -256t-280 -166.5t-373 -59.5h-698v731h-209v135h209v731zM965 152q318 0 504 170.5t186 474.5q0 317 -202 483t-560 166h-455v-580h633v-135h-633v-579h527z" />
    <glyph glyph-name="Ntilde" unicode="&#xd1;" horiz-adv-x="2025" 
d="M1178 1790q-36 0 -64.5 5t-55.5 19t-37.5 20.5t-39.5 27.5l-49 32q-65 50 -119 50q-55 0 -90 -39.5t-35 -98.5h-129q1 115 73 186.5t183 71.5q51 0 90 -16t88 -49l51 -35q69 -51 132 -51q54 0 84 38t30 99h131q0 -121 -64 -190.5t-179 -69.5zM438 0h-180v1597h195
q54 -63 327.5 -380.5t454 -530t350.5 -416.5h6v1327h178v-1597h-194q-76 88 -493.5 567t-641.5 744h-2v-1311z" />
    <glyph glyph-name="Ograve" unicode="&#xd2;" horiz-adv-x="2181" 
d="M1200 1722h-156l-407 328h252zM1090 -35q-194 0 -370.5 62.5t-306.5 171.5t-207 265t-77 333q0 236 129.5 427.5t349.5 298.5t484 107q200 0 378 -64.5t305.5 -175t202 -265t74.5 -328.5t-75.5 -329t-204.5 -265t-306.5 -174t-375.5 -64zM1094 121q205 0 379.5 86.5
t279.5 242.5t105 347t-104.5 347.5t-279 243.5t-380.5 87q-207 0 -384 -86.5t-284 -243t-107 -348.5t107 -348t284 -242t384 -86z" />
    <glyph glyph-name="Oacute" unicode="&#xd3;" horiz-adv-x="2181" 
d="M1550 2050l-407 -328h-156l311 328h252zM1090 -35q-194 0 -370.5 62.5t-306.5 171.5t-207 265t-77 333q0 236 129.5 427.5t349.5 298.5t484 107q200 0 378 -64.5t305.5 -175t202 -265t74.5 -328.5t-75.5 -329t-204.5 -265t-306.5 -174t-375.5 -64zM1094 121
q205 0 379.5 86.5t279.5 242.5t105 347t-104.5 347.5t-279 243.5t-380.5 87q-207 0 -384 -86.5t-284 -243t-107 -348.5t107 -348t284 -242t384 -86z" />
    <glyph glyph-name="Ocircumflex" unicode="&#xd4;" horiz-adv-x="2181" 
d="M1194 2036l322 -314h-158q-211 163 -268 211q-80 -67 -271 -211h-157l321 314h211zM1090 -35q-194 0 -370.5 62.5t-306.5 171.5t-207 265t-77 333q0 236 129.5 427.5t349.5 298.5t484 107q200 0 378 -64.5t305.5 -175t202 -265t74.5 -328.5t-75.5 -329t-204.5 -265
t-306.5 -174t-375.5 -64zM1094 121q205 0 379.5 86.5t279.5 242.5t105 347t-104.5 347.5t-279 243.5t-380.5 87q-207 0 -384 -86.5t-284 -243t-107 -348.5t107 -348t284 -242t384 -86z" />
    <glyph glyph-name="Otilde" unicode="&#xd5;" horiz-adv-x="2181" 
d="M1276 1790q-36 0 -64.5 5t-55.5 19t-37.5 20.5t-39.5 27.5l-49 32q-65 50 -119 50q-55 0 -90 -39.5t-35 -98.5h-129q1 115 73 186.5t183 71.5q51 0 91 -16t88 -49l51 -35q69 -51 131 -51q54 0 84.5 38.5t30.5 98.5h131q0 -121 -64.5 -190.5t-179.5 -69.5zM1090 -35
q-194 0 -370.5 62.5t-306.5 171.5t-207 265t-77 333q0 236 129.5 427.5t349.5 298.5t484 107q200 0 378 -64.5t305.5 -175t202 -265t74.5 -328.5t-75.5 -329t-204.5 -265t-306.5 -174t-375.5 -64zM1094 121q205 0 379.5 86.5t279.5 242.5t105 347t-104.5 347.5t-279 243.5
t-380.5 87q-207 0 -384 -86.5t-284 -243t-107 -348.5t107 -348t284 -242t384 -86z" />
    <glyph glyph-name="Odieresis" unicode="&#xd6;" horiz-adv-x="2181" 
d="M850 1780q-56 0 -94.5 33.5t-38.5 84.5q0 46 39 80.5t94 34.5t93 -34.5t38 -80.5q0 -51 -37.5 -84.5t-93.5 -33.5zM1329 1780q-58 0 -96.5 33.5t-38.5 84.5q0 47 39 81t96 34q52 0 90.5 -34.5t38.5 -80.5q0 -50 -38 -84t-91 -34zM1090 -35q-194 0 -370.5 62.5
t-306.5 171.5t-207 265t-77 333q0 236 129.5 427.5t349.5 298.5t484 107q200 0 378 -64.5t305.5 -175t202 -265t74.5 -328.5t-75.5 -329t-204.5 -265t-306.5 -174t-375.5 -64zM1094 121q205 0 379.5 86.5t279.5 242.5t105 347t-104.5 347.5t-279 243.5t-380.5 87
q-207 0 -384 -86.5t-284 -243t-107 -348.5t107 -348t284 -242t384 -86z" />
    <glyph glyph-name="multiply" unicode="&#xd7;" horiz-adv-x="1114" 
d="M455 625l-277 231l107 96l276 -231l266 225l105 -96l-266 -223l274 -234l-106 -94l-275 231l-268 -227l-105 94z" />
    <glyph glyph-name="Oslash" unicode="&#xd8;" horiz-adv-x="2181" 
d="M1890 1661l-180 -219q161 -116 251.5 -283t90.5 -362q0 -174 -75.5 -329t-204.5 -265t-306.5 -174t-375.5 -64q-275 0 -498 117l-121 -148h-188l184 224q-159 115 -248.5 279.5t-89.5 359.5q0 236 129.5 427.5t349.5 298.5t484 107q269 0 491 -112l117 143h190zM319 797
q0 -152 68 -282.5t188 -223.5l900 1095q-176 89 -381 89q-207 0 -384 -86.5t-284 -243t-107 -348.5zM1094 121q205 0 379.5 86.5t279.5 242.5t105 347q0 153 -69 285t-190 225l-899 -1094q182 -92 394 -92z" />
    <glyph glyph-name="Ugrave" unicode="&#xd9;" horiz-adv-x="1847" 
d="M1036 1722h-155l-408 328h252zM918 -35q-328 0 -506.5 166t-178.5 455v1011h181v-1001q0 -240 134 -358.5t376 -118.5t376 118t134 359v1001h180v-1011q0 -103 -24.5 -193.5t-78 -170t-133.5 -136t-197.5 -89t-262.5 -32.5z" />
    <glyph glyph-name="Uacute" unicode="&#xda;" horiz-adv-x="1847" 
d="M1251 2050l-407 -330h-156l311 330h252zM918 -35q-328 0 -506.5 166t-178.5 455v1011h181v-1001q0 -240 134 -358.5t376 -118.5t376 118t134 359v1001h180v-1011q0 -103 -24.5 -193.5t-78 -170t-133.5 -136t-197.5 -89t-262.5 -32.5z" />
    <glyph glyph-name="Ucircumflex" unicode="&#xdb;" horiz-adv-x="1847" 
d="M1028 2036l322 -314h-158q-211 163 -268 211q-80 -67 -271 -211h-157l321 314h211zM918 -35q-328 0 -506.5 166t-178.5 455v1011h181v-1001q0 -240 134 -358.5t376 -118.5t376 118t134 359v1001h180v-1011q0 -103 -24.5 -193.5t-78 -170t-133.5 -136t-197.5 -89
t-262.5 -32.5z" />
    <glyph glyph-name="Udieresis" unicode="&#xdc;" horiz-adv-x="1847" 
d="M686 1780q-56 0 -94.5 33.5t-38.5 84.5q0 46 39 80.5t94 34.5t93 -34.5t38 -80.5q0 -51 -37.5 -84.5t-93.5 -33.5zM1165 1780q-58 0 -96.5 33.5t-38.5 84.5q0 47 39 81t96 34q52 0 90.5 -34.5t38.5 -80.5q0 -50 -38 -84t-91 -34zM918 -35q-328 0 -506.5 166t-178.5 455
v1011h181v-1001q0 -240 134 -358.5t376 -118.5t376 118t134 359v1001h180v-1011q0 -103 -24.5 -193.5t-78 -170t-133.5 -136t-197.5 -89t-262.5 -32.5z" />
    <glyph glyph-name="Yacute" unicode="&#xdd;" horiz-adv-x="1693" 
d="M1272 2050l-406 -330h-155l311 330h250zM936 0h-178v582q-617 882 -713 1015h195q101 -142 302.5 -428t303.5 -428h4q305 435 608 856h191l-713 -1015v-582z" />
    <glyph glyph-name="Thorn" unicode="&#xde;" horiz-adv-x="1677" 
d="M438 0h-180v1597h180v-280h494q131 0 243 -29.5t199 -87t137 -150t50 -210.5q0 -100 -33.5 -183.5t-91 -140.5t-133.5 -96.5t-160.5 -57.5t-173.5 -18h-531v-344zM438 1165v-665h477q211 0 334 84.5t123 246.5q0 108 -62 184.5t-167.5 113t-243.5 36.5h-461z" />
    <glyph glyph-name="germandbls" unicode="&#xdf;" horiz-adv-x="1517" 
d="M387 0h-168v1143q0 40 3 76.5t16 92.5t34.5 102t63.5 96t99 84t145 56.5t196 22.5q266 0 418 -123t152 -315q0 -151 -94 -257t-238 -128v-4q174 -21 283.5 -124t109.5 -261q0 -93 -42 -176t-120.5 -146.5t-202 -101t-274.5 -37.5h-176v137h192q194 0 318.5 92t124.5 232
q0 132 -108.5 218.5t-278.5 86.5h-119v137h106q151 0 245.5 84t94.5 225q0 139 -97.5 229.5t-293.5 90.5q-71 0 -129 -14t-97.5 -37t-70 -55t-47.5 -64t-27.5 -68.5t-14 -64.5t-3.5 -55v-1174z" />
    <glyph glyph-name="agrave" unicode="&#xe0;" horiz-adv-x="1411" 
d="M799 1278h-150l-373 391h228zM547 -35q-118 0 -214 32t-157 101t-61 166q0 64 27 116t70.5 87.5t109 64t132 46t150.5 32.5q32 5 83 13t80.5 13t71.5 13.5t66 16.5t52 21t42.5 28.5t24.5 37t10 48.5q0 93 -95.5 162t-244.5 69q-135 0 -232 -61t-134 -168l-166 51
q38 105 126 177t192.5 103t221.5 31q97 0 185.5 -23t162 -67.5t117 -119.5t43.5 -171v-430q0 -131 10 -204.5t33 -149.5h-170q-32 95 -32 225h-7q-67 -119 -193 -189.5t-304 -70.5zM573 92q83 0 158 23t129.5 61t95 85t60.5 96t20 94v147q-59 -36 -121 -54.5t-200 -39.5
q-47 -8 -72.5 -12.5t-76 -16t-81 -22.5t-70.5 -29.5t-62.5 -39.5t-39 -51t-16.5 -65q0 -81 76 -128.5t200 -47.5z" />
    <glyph glyph-name="aacute" unicode="&#xe1;" horiz-adv-x="1411" 
d="M1155 1669l-373 -391h-149l293 391h229zM547 -35q-118 0 -214 32t-157 101t-61 166q0 64 27 116t70.5 87.5t109 64t132 46t150.5 32.5q32 5 83 13t80.5 13t71.5 13.5t66 16.5t52 21t42.5 28.5t24.5 37t10 48.5q0 93 -95.5 162t-244.5 69q-135 0 -232 -61t-134 -168
l-166 51q38 105 126 177t192.5 103t221.5 31q97 0 185.5 -23t162 -67.5t117 -119.5t43.5 -171v-430q0 -131 10 -204.5t33 -149.5h-170q-32 95 -32 225h-7q-67 -119 -193 -189.5t-304 -70.5zM573 92q83 0 158 23t129.5 61t95 85t60.5 96t20 94v147q-59 -36 -121 -54.5
t-200 -39.5q-47 -8 -72.5 -12.5t-76 -16t-81 -22.5t-70.5 -29.5t-62.5 -39.5t-39 -51t-16.5 -65q0 -81 76 -128.5t200 -47.5z" />
    <glyph glyph-name="acircumflex" unicode="&#xe2;" horiz-adv-x="1411" 
d="M412 1278h-160l356 360h217l357 -360h-160q-239 198 -305 256q-156 -136 -305 -256zM547 -35q-118 0 -214 32t-157 101t-61 166q0 64 27 116t70.5 87.5t109 64t132 46t150.5 32.5q32 5 83 13t80.5 13t71.5 13.5t66 16.5t52 21t42.5 28.5t24.5 37t10 48.5q0 93 -95.5 162
t-244.5 69q-135 0 -232 -61t-134 -168l-166 51q38 105 126 177t192.5 103t221.5 31q97 0 185.5 -23t162 -67.5t117 -119.5t43.5 -171v-430q0 -131 10 -204.5t33 -149.5h-170q-32 95 -32 225h-7q-67 -119 -193 -189.5t-304 -70.5zM573 92q83 0 158 23t129.5 61t95 85t60.5 96
t20 94v147q-59 -36 -121 -54.5t-200 -39.5q-47 -8 -72.5 -12.5t-76 -16t-81 -22.5t-70.5 -29.5t-62.5 -39.5t-39 -51t-16.5 -65q0 -81 76 -128.5t200 -47.5z" />
    <glyph glyph-name="atilde" unicode="&#xe3;" horiz-adv-x="1411" 
d="M905 1323q-45 0 -83.5 11.5t-54.5 21t-49 33.5l-9 6l-50 32q-65 50 -118 50q-55 0 -90 -39.5t-35 -98.5h-129q1 115 73 186.5t183 71.5q51 0 90 -16t88 -49l51 -35q69 -51 131 -51q54 0 84.5 38.5t30.5 98.5h131q0 -121 -64.5 -190.5t-179.5 -69.5zM547 -35
q-118 0 -214 32t-157 101t-61 166q0 64 27 116t70.5 87.5t109 64t132 46t150.5 32.5q32 5 83 13t80.5 13t71.5 13.5t66 16.5t52 21t42.5 28.5t24.5 37t10 48.5q0 93 -95.5 162t-244.5 69q-135 0 -232 -61t-134 -168l-166 51q38 105 126 177t192.5 103t221.5 31
q97 0 185.5 -23t162 -67.5t117 -119.5t43.5 -171v-430q0 -131 10 -204.5t33 -149.5h-170q-32 95 -32 225h-7q-67 -119 -193 -189.5t-304 -70.5zM573 92q83 0 158 23t129.5 61t95 85t60.5 96t20 94v147q-59 -36 -121 -54.5t-200 -39.5q-47 -8 -72.5 -12.5t-76 -16t-81 -22.5
t-70.5 -29.5t-62.5 -39.5t-39 -51t-16.5 -65q0 -81 76 -128.5t200 -47.5z" />
    <glyph glyph-name="adieresis" unicode="&#xe4;" horiz-adv-x="1411" 
d="M498 1362q-54 0 -91.5 34t-37.5 83q0 45 37.5 77.5t91.5 32.5t90.5 -32.5t36.5 -77.5q0 -50 -36 -83.5t-91 -33.5zM938 1362q-56 0 -92.5 33.5t-36.5 83.5q0 45 36.5 77.5t92.5 32.5q52 0 89.5 -32.5t37.5 -77.5q0 -49 -37 -83t-90 -34zM547 -35q-118 0 -214 32t-157 101
t-61 166q0 64 27 116t70.5 87.5t109 64t132 46t150.5 32.5q32 5 83 13t80.5 13t71.5 13.5t66 16.5t52 21t42.5 28.5t24.5 37t10 48.5q0 93 -95.5 162t-244.5 69q-135 0 -232 -61t-134 -168l-166 51q38 105 126 177t192.5 103t221.5 31q97 0 185.5 -23t162 -67.5t117 -119.5
t43.5 -171v-430q0 -131 10 -204.5t33 -149.5h-170q-32 95 -32 225h-7q-67 -119 -193 -189.5t-304 -70.5zM573 92q83 0 158 23t129.5 61t95 85t60.5 96t20 94v147q-59 -36 -121 -54.5t-200 -39.5q-47 -8 -72.5 -12.5t-76 -16t-81 -22.5t-70.5 -29.5t-62.5 -39.5t-39 -51
t-16.5 -65q0 -81 76 -128.5t200 -47.5z" />
    <glyph glyph-name="aring" unicode="&#xe5;" horiz-adv-x="1411" 
d="M719 1249q-119 0 -197 63.5t-78 160.5t78 160t197 63q115 0 192.5 -63.5t77.5 -159.5q0 -97 -77.5 -160.5t-192.5 -63.5zM719 1352q65 0 108 33.5t43 87.5q0 53 -43.5 85.5t-107.5 32.5q-67 0 -111.5 -32.5t-44.5 -85.5q0 -55 44.5 -88t111.5 -33zM547 -35
q-118 0 -214 32t-157 101t-61 166q0 64 27 116t70.5 87.5t109 64t132 46t150.5 32.5q32 5 83 13t80.5 13t71.5 13.5t66 16.5t52 21t42.5 28.5t24.5 37t10 48.5q0 93 -95.5 162t-244.5 69q-135 0 -232 -61t-134 -168l-166 51q38 105 126 177t192.5 103t221.5 31
q97 0 185.5 -23t162 -67.5t117 -119.5t43.5 -171v-430q0 -131 10 -204.5t33 -149.5h-170q-32 95 -32 225h-7q-67 -119 -193 -189.5t-304 -70.5zM573 92q83 0 158 23t129.5 61t95 85t60.5 96t20 94v147q-59 -36 -121 -54.5t-200 -39.5q-47 -8 -72.5 -12.5t-76 -16t-81 -22.5
t-70.5 -29.5t-62.5 -39.5t-39 -51t-16.5 -65q0 -81 76 -128.5t200 -47.5z" />
    <glyph glyph-name="ae" unicode="&#xe6;" horiz-adv-x="2453" 
d="M541 -35q-121 0 -216 33t-152.5 102.5t-57.5 165.5q0 63 26 114.5t69 87.5t108.5 64t133 45.5t152.5 32.5q30 5 75 12t73 11.5t66 11t62 13.5t51.5 16.5t44.5 21t32 26.5t21.5 34.5t6.5 42.5q0 93 -96 163t-244 70q-135 0 -232 -61.5t-136 -167.5l-164 51
q39 104 126.5 176t193 103.5t223.5 31.5q154 0 286 -56.5t181 -168.5q86 106 224.5 165.5t307.5 59.5q83 0 164 -15.5t166 -56.5t148.5 -103.5t104 -164.5t40.5 -231v-55h-1117q3 -128 69 -227t178.5 -152.5t252.5 -53.5q171 0 295 76t182 199l156 -53q-76 -170 -246 -266.5
t-389 -96.5q-205 0 -365 79.5t-227 229.5h-4q-75 -138 -225.5 -223.5t-347.5 -85.5zM1221 662h925q-3 79 -31 143t-72 104.5t-102.5 68t-118 39t-122.5 11.5q-189 0 -318.5 -99.5t-160.5 -266.5zM573 92q100 0 190 36t148 90t91.5 116t33.5 117v147q-70 -39 -126 -54.5
t-187 -35.5q-52 -8 -90.5 -15t-93 -20.5t-93 -31t-75 -41t-55.5 -56.5t-19 -72q0 -84 77 -132t199 -48z" />
    <glyph glyph-name="ccedilla" unicode="&#xe7;" horiz-adv-x="1495" 
d="M1278 393l156 -53q-75 -174 -238 -270.5t-377 -104.5l-98 -117q34 17 96 17q98 0 161.5 -47t63.5 -123q0 -85 -78 -138t-198 -53q-89 0 -170.5 31t-134.5 84l69 66q39 -43 101.5 -68t126.5 -25q68 0 115 28.5t47 72.5q0 42 -42 69t-106 27q-62 0 -117 -25l-67 54l119 151
q-265 23 -428.5 184.5t-163.5 409.5q0 177 86.5 314.5t240 212.5t349.5 75q194 0 351.5 -81t233.5 -244l-164 -58q-49 113 -163.5 175.5t-266.5 62.5q-220 0 -354.5 -129t-134.5 -326q0 -204 140.5 -329t363.5 -125q174 0 297 76.5t184 205.5z" />
    <glyph glyph-name="egrave" unicode="&#xe8;" horiz-adv-x="1333" 
d="M754 1278h-150l-373 391h228zM686 -35q-168 0 -301.5 74t-210 211t-76.5 313q0 264 164.5 433t419.5 169q74 0 145 -15.5t145 -56.5t129.5 -103.5t90.5 -164.5t35 -231v-72h-965q6 -192 125 -305t303 -113q144 0 249 76.5t157 200.5l145 -53q-66 -170 -214 -266.5
t-341 -96.5zM270 659h789q-2 79 -25.5 143t-60.5 105.5t-86.5 69t-101.5 39.5t-107 12q-163 0 -273 -102t-135 -267z" />
    <glyph glyph-name="eacute" unicode="&#xe9;" horiz-adv-x="1333" 
d="M1110 1669l-373 -391h-149l293 391h229zM686 -35q-168 0 -301.5 74t-210 211t-76.5 313q0 264 164.5 433t419.5 169q74 0 145 -15.5t145 -56.5t129.5 -103.5t90.5 -164.5t35 -231v-72h-965q6 -192 125 -305t303 -113q144 0 249 76.5t157 200.5l145 -53
q-66 -170 -214 -266.5t-341 -96.5zM270 659h789q-2 79 -25.5 143t-60.5 105.5t-86.5 69t-101.5 39.5t-107 12q-163 0 -273 -102t-135 -267z" />
    <glyph glyph-name="ecircumflex" unicode="&#xea;" horiz-adv-x="1333" 
d="M367 1278h-160l356 360h217l357 -360h-160q-239 198 -305 256q-156 -136 -305 -256zM686 -35q-168 0 -301.5 74t-210 211t-76.5 313q0 264 164.5 433t419.5 169q74 0 145 -15.5t145 -56.5t129.5 -103.5t90.5 -164.5t35 -231v-72h-965q6 -192 125 -305t303 -113
q144 0 249 76.5t157 200.5l145 -53q-66 -170 -214 -266.5t-341 -96.5zM270 659h789q-2 79 -25.5 143t-60.5 105.5t-86.5 69t-101.5 39.5t-107 12q-163 0 -273 -102t-135 -267z" />
    <glyph glyph-name="edieresis" unicode="&#xeb;" horiz-adv-x="1333" 
d="M453 1362q-54 0 -91.5 34t-37.5 83q0 45 37.5 77.5t91.5 32.5t90.5 -32.5t36.5 -77.5q0 -50 -36 -83.5t-91 -33.5zM893 1362q-56 0 -92.5 33.5t-36.5 83.5q0 45 36.5 77.5t92.5 32.5q52 0 89.5 -32.5t37.5 -77.5q0 -49 -37 -83t-90 -34zM686 -35q-168 0 -301.5 74
t-210 211t-76.5 313q0 264 164.5 433t419.5 169q74 0 145 -15.5t145 -56.5t129.5 -103.5t90.5 -164.5t35 -231v-72h-965q6 -192 125 -305t303 -113q144 0 249 76.5t157 200.5l145 -53q-66 -170 -214 -266.5t-341 -96.5zM270 659h789q-2 79 -25.5 143t-60.5 105.5t-86.5 69
t-101.5 39.5t-107 12q-163 0 -273 -102t-135 -267z" />
    <glyph glyph-name="igrave" unicode="&#xec;" horiz-adv-x="604" 
d="M385 1272h-149l-373 391h227zM387 0h-168v1133h168v-1133z" />
    <glyph glyph-name="iacute" unicode="&#xed;" horiz-adv-x="604" 
d="M741 1663l-372 -391h-150l293 391h229zM387 0h-168v1133h168v-1133z" />
    <glyph glyph-name="icircumflex" unicode="&#xee;" horiz-adv-x="604" 
d="M-4 1272h-160l357 360h217l356 -360h-160q-239 198 -305 256q-156 -136 -305 -256zM387 0h-168v1133h168v-1133z" />
    <glyph glyph-name="idieresis" unicode="&#xef;" horiz-adv-x="604" 
d="M82 1356q-54 0 -91.5 34t-37.5 83q0 45 37.5 77.5t91.5 32.5t90.5 -32.5t36.5 -77.5q0 -50 -36 -83.5t-91 -33.5zM522 1356q-56 0 -92.5 33.5t-36.5 83.5q0 45 36.5 77.5t92.5 32.5q52 0 89.5 -32.5t37.5 -77.5q0 -49 -37 -83t-90 -34zM387 0h-168v1133h168v-1133z" />
    <glyph glyph-name="eth" unicode="&#xf0;" horiz-adv-x="1589" 
d="M1235 1563l-227 -109q448 -289 448 -788q0 -330 -183.5 -515.5t-490.5 -185.5q-151 0 -278 46t-212.5 124.5t-133 183.5t-47.5 222q0 162 86.5 291.5t236 200.5t332.5 71q149 0 264 -49t211 -156h4q-89 296 -397 479l-363 -174l-55 86l305 148q-152 71 -352 127l45 129
q272 -70 473 -176l275 131zM778 106q211 0 350.5 120.5t139.5 310.5t-140 310t-348 120q-212 0 -351.5 -122.5t-139.5 -307.5q0 -181 137.5 -306t351.5 -125z" />
    <glyph glyph-name="ntilde" unicode="&#xf1;" horiz-adv-x="1556" 
d="M963 1323q-36 0 -64.5 5t-55.5 19t-37.5 20.5t-39.5 27.5l-49 32q-65 50 -119 50q-55 0 -90 -39.5t-35 -98.5h-129q1 115 73 186.5t183 71.5q51 0 90 -16t88 -49l51 -35q69 -51 132 -51q54 0 84 38t30 99h131q0 -121 -64 -190.5t-179 -69.5zM387 0h-168v1133h164v-211h4
q76 124 200.5 183.5t276.5 59.5q76 0 144.5 -14.5t133.5 -48.5t112 -85t75.5 -129.5t28.5 -176.5v-711h-168v641q0 97 -29.5 171t-81.5 118.5t-117.5 67t-142.5 22.5q-100 0 -183.5 -33t-137 -88t-82.5 -125.5t-29 -146.5v-627z" />
    <glyph glyph-name="ograve" unicode="&#xf2;" horiz-adv-x="1587" 
d="M877 1278h-150l-373 391h228zM795 -35q-197 0 -352 75.5t-241.5 212t-86.5 310.5q0 265 190.5 433.5t489.5 168.5q298 0 488 -168.5t190 -433.5q0 -130 -50.5 -241.5t-139.5 -190t-215 -122.5t-273 -44zM795 111q221 0 359 126t138 326q0 202 -138 329.5t-359 127.5
t-360.5 -128t-139.5 -329q0 -200 139.5 -326t360.5 -126z" />
    <glyph glyph-name="oacute" unicode="&#xf3;" horiz-adv-x="1587" 
d="M1233 1669l-373 -391h-149l293 391h229zM795 -35q-197 0 -352 75.5t-241.5 212t-86.5 310.5q0 265 190.5 433.5t489.5 168.5q298 0 488 -168.5t190 -433.5q0 -130 -50.5 -241.5t-139.5 -190t-215 -122.5t-273 -44zM795 111q221 0 359 126t138 326q0 202 -138 329.5
t-359 127.5t-360.5 -128t-139.5 -329q0 -200 139.5 -326t360.5 -126z" />
    <glyph glyph-name="ocircumflex" unicode="&#xf4;" horiz-adv-x="1587" 
d="M489 1278h-159l356 360h217l357 -360h-160q-239 198 -305 256q-143 -124 -306 -256zM795 -35q-197 0 -352 75.5t-241.5 212t-86.5 310.5q0 265 190.5 433.5t489.5 168.5q298 0 488 -168.5t190 -433.5q0 -130 -50.5 -241.5t-139.5 -190t-215 -122.5t-273 -44zM795 111
q221 0 359 126t138 326q0 202 -138 329.5t-359 127.5t-360.5 -128t-139.5 -329q0 -200 139.5 -326t360.5 -126z" />
    <glyph glyph-name="otilde" unicode="&#xf5;" horiz-adv-x="1587" 
d="M983 1323q-36 0 -64.5 5t-55.5 19t-37.5 20.5t-39.5 27.5l-49 32q-65 50 -119 50q-55 0 -89.5 -39.5t-34.5 -98.5h-129q1 115 73 186.5t183 71.5q51 0 90 -16t88 -49l51 -35q69 -51 131 -51q54 0 84.5 38.5t30.5 98.5h131q0 -121 -64.5 -190.5t-179.5 -69.5zM795 -35
q-197 0 -352 75.5t-241.5 212t-86.5 310.5q0 265 190.5 433.5t489.5 168.5q298 0 488 -168.5t190 -433.5q0 -130 -50.5 -241.5t-139.5 -190t-215 -122.5t-273 -44zM795 111q221 0 359 126t138 326q0 202 -138 329.5t-359 127.5t-360.5 -128t-139.5 -329q0 -200 139.5 -326
t360.5 -126z" />
    <glyph glyph-name="odieresis" unicode="&#xf6;" horiz-adv-x="1587" 
d="M575 1362q-54 0 -91.5 34t-37.5 83q0 45 37.5 77.5t91.5 32.5t90.5 -32.5t36.5 -77.5q0 -50 -36 -83.5t-91 -33.5zM1016 1362q-56 0 -92.5 33.5t-36.5 83.5q0 45 36.5 77.5t92.5 32.5q52 0 89.5 -32.5t37.5 -77.5q0 -49 -37 -83t-90 -34zM795 -35q-197 0 -352 75.5
t-241.5 212t-86.5 310.5q0 265 190.5 433.5t489.5 168.5q298 0 488 -168.5t190 -433.5q0 -130 -50.5 -241.5t-139.5 -190t-215 -122.5t-273 -44zM795 111q221 0 359 126t138 326q0 202 -138 329.5t-359 127.5t-360.5 -128t-139.5 -329q0 -200 139.5 -326t360.5 -126z" />
    <glyph glyph-name="divide" unicode="&#xf7;" horiz-adv-x="1255" 
d="M633 831q-54 0 -91.5 34t-37.5 81t37.5 80t91.5 33t91.5 -33t37.5 -80t-37.5 -81t-91.5 -34zM1075 559h-895v133h895v-133zM633 193q-54 0 -91.5 33.5t-37.5 80.5t37.5 80t91.5 33t91.5 -33t37.5 -80t-37.5 -80.5t-91.5 -33.5z" />
    <glyph glyph-name="oslash" unicode="&#xf8;" horiz-adv-x="1587" 
d="M1438 1182l-160 -181q94 -81 144.5 -193t50.5 -245q0 -130 -50.5 -241.5t-139.5 -190t-215 -122.5t-273 -44q-205 0 -363 82l-92 -104h-188l161 182q-95 79 -146.5 191.5t-51.5 246.5q0 265 190.5 433.5t489.5 168.5q207 0 370 -86l92 103h181zM295 563q0 -192 129 -315
l635 710q-118 62 -264 62q-221 0 -360.5 -128t-139.5 -329zM795 111q221 0 359 126t138 326q0 190 -123 316l-630 -713q116 -55 256 -55z" />
    <glyph glyph-name="ugrave" unicode="&#xf9;" horiz-adv-x="1533" 
d="M825 1278h-149l-373 391h227zM686 -35q-75 0 -143.5 14.5t-132 49t-110 86t-74 130.5t-27.5 177v711h168v-652q0 -99 31 -173t84 -115.5t115 -61.5t132 -20q97 0 178 34.5t132 90.5t78.5 124t27.5 138v635h168v-779q0 -124 10 -199.5t35 -154.5h-170q-35 109 -35 201h-4
q-74 -119 -193.5 -177.5t-269.5 -58.5z" />
    <glyph glyph-name="uacute" unicode="&#xfa;" horiz-adv-x="1533" 
d="M1182 1669l-373 -391h-150l293 391h230zM686 -35q-75 0 -143.5 14.5t-132 49t-110 86t-74 130.5t-27.5 177v711h168v-652q0 -99 31 -173t84 -115.5t115 -61.5t132 -20q97 0 178 34.5t132 90.5t78.5 124t27.5 138v635h168v-779q0 -124 10 -199.5t35 -154.5h-170
q-35 109 -35 201h-4q-74 -119 -193.5 -177.5t-269.5 -58.5z" />
    <glyph glyph-name="ucircumflex" unicode="&#xfb;" horiz-adv-x="1533" 
d="M438 1278h-159l356 360h217l356 -360h-159q-255 211 -306 256q-156 -136 -305 -256zM686 -35q-75 0 -143.5 14.5t-132 49t-110 86t-74 130.5t-27.5 177v711h168v-652q0 -99 31 -173t84 -115.5t115 -61.5t132 -20q97 0 178 34.5t132 90.5t78.5 124t27.5 138v635h168v-779
q0 -124 10 -199.5t35 -154.5h-170q-35 109 -35 201h-4q-74 -119 -193.5 -177.5t-269.5 -58.5z" />
    <glyph glyph-name="udieresis" unicode="&#xfc;" horiz-adv-x="1533" 
d="M524 1362q-54 0 -91.5 34t-37.5 83q0 45 37.5 77.5t91.5 32.5t90.5 -32.5t36.5 -77.5q0 -50 -36 -83.5t-91 -33.5zM965 1362q-56 0 -92.5 33.5t-36.5 83.5q0 45 36.5 77.5t92.5 32.5q52 0 89.5 -32.5t37.5 -77.5q0 -49 -37 -83t-90 -34zM686 -35q-75 0 -143.5 14.5
t-132 49t-110 86t-74 130.5t-27.5 177v711h168v-652q0 -99 31 -173t84 -115.5t115 -61.5t132 -20q97 0 178 34.5t132 90.5t78.5 124t27.5 138v635h168v-779q0 -124 10 -199.5t35 -154.5h-170q-35 109 -35 201h-4q-74 -119 -193.5 -177.5t-269.5 -58.5z" />
    <glyph glyph-name="yacute" unicode="&#xfd;" horiz-adv-x="1339" 
d="M1094 1669l-373 -391h-150l293 391h230zM543 -451h-160l205 431l-551 1153h186q68 -139 447 -947h4q64 135 213 456.5t231 490.5h185z" />
    <glyph glyph-name="thorn" unicode="&#xfe;" horiz-adv-x="1646" 
d="M387 -451h-168v2089h168v-735h6q83 129 217.5 195.5t296.5 66.5q176 0 319 -77.5t224.5 -215t81.5 -307.5q0 -175 -84.5 -313t-228 -212.5t-318.5 -74.5q-162 0 -295.5 65t-212.5 185h-6v-666zM874 111q207 0 342.5 128.5t135.5 325.5t-136.5 326t-341.5 129
q-99 0 -188.5 -34t-156 -93t-105.5 -145t-39 -185q0 -131 67.5 -235.5t178.5 -160.5t243 -56z" />
    <glyph glyph-name="ydieresis" unicode="&#xff;" horiz-adv-x="1339" 
d="M436 1362q-54 0 -91.5 34t-37.5 83q0 45 37.5 77.5t91.5 32.5t90.5 -32.5t36.5 -77.5q0 -50 -36 -83.5t-91 -33.5zM877 1362q-56 0 -92.5 33.5t-36.5 83.5q0 45 36.5 77.5t92.5 32.5q52 0 89.5 -32.5t37.5 -77.5q0 -49 -37 -83t-90 -34zM543 -451h-160l205 431l-551 1153
h186q68 -139 447 -947h4q64 135 213 456.5t231 490.5h185z" />
    <glyph glyph-name="Amacron" unicode="&#x100;" horiz-adv-x="1816" 
d="M1311 1821h-807v129h807v-129zM223 0h-188l776 1597h195l776 -1597h-189q-104 205 -270 541h-834q-67 -133 -159.5 -323t-106.5 -218zM563 698h686q-230 468 -338 707h-6q-29 -63 -83 -174.5t-131 -269.5t-128 -263z" />
    <glyph glyph-name="amacron" unicode="&#x101;" horiz-adv-x="1411" 
d="M1130 1405h-825v125h825v-125zM547 -35q-118 0 -214 32t-157 101t-61 166q0 64 27 116t70.5 87.5t109 64t132 46t150.5 32.5q32 5 83 13t80.5 13t71.5 13.5t66 16.5t52 21t42.5 28.5t24.5 37t10 48.5q0 93 -95.5 162t-244.5 69q-135 0 -232 -61t-134 -168l-166 51
q38 105 126 177t192.5 103t221.5 31q97 0 185.5 -23t162 -67.5t117 -119.5t43.5 -171v-430q0 -131 10 -204.5t33 -149.5h-170q-32 95 -32 225h-7q-67 -119 -193 -189.5t-304 -70.5zM573 92q83 0 158 23t129.5 61t95 85t60.5 96t20 94v147q-59 -36 -121 -54.5t-200 -39.5
q-47 -8 -72.5 -12.5t-76 -16t-81 -22.5t-70.5 -29.5t-62.5 -39.5t-39 -51t-16.5 -65q0 -81 76 -128.5t200 -47.5z" />
    <glyph glyph-name="Abreve" unicode="&#x102;" horiz-adv-x="1816" 
d="M907 1724q-101 0 -187 29t-142 76.5t-88.5 105.5t-36.5 119h153q6 -80 93 -143.5t208 -63.5q123 0 209 63.5t92 143.5h152q-2 -61 -34.5 -119.5t-88.5 -105.5t-142 -76t-188 -29zM223 0h-188l776 1597h195l776 -1597h-189q-104 205 -270 541h-834q-67 -133 -159.5 -323
t-106.5 -218zM563 698h686q-230 468 -338 707h-6q-29 -63 -83 -174.5t-131 -269.5t-128 -263z" />
    <glyph glyph-name="abreve" unicode="&#x103;" horiz-adv-x="1411" 
d="M717 1274q-204 0 -322.5 110.5t-126.5 284.5h150q5 -119 87 -194.5t214 -75.5q130 0 213.5 74t89.5 196h149q-8 -174 -127.5 -284.5t-326.5 -110.5zM547 -35q-118 0 -214 32t-157 101t-61 166q0 64 27 116t70.5 87.5t109 64t132 46t150.5 32.5q32 5 83 13t80.5 13
t71.5 13.5t66 16.5t52 21t42.5 28.5t24.5 37t10 48.5q0 93 -95.5 162t-244.5 69q-135 0 -232 -61t-134 -168l-166 51q38 105 126 177t192.5 103t221.5 31q97 0 185.5 -23t162 -67.5t117 -119.5t43.5 -171v-430q0 -131 10 -204.5t33 -149.5h-170q-32 95 -32 225h-7
q-67 -119 -193 -189.5t-304 -70.5zM573 92q83 0 158 23t129.5 61t95 85t60.5 96t20 94v147q-59 -36 -121 -54.5t-200 -39.5q-47 -8 -72.5 -12.5t-76 -16t-81 -22.5t-70.5 -29.5t-62.5 -39.5t-39 -51t-16.5 -65q0 -81 76 -128.5t200 -47.5z" />
    <glyph glyph-name="Aogonek" unicode="&#x104;" horiz-adv-x="1816" 
d="M1749 -354q50 0 104 12v-107q-66 -14 -120 -14q-141 0 -234.5 62t-93.5 172q0 137 192 229h-4q-104 205 -270 541h-834q-67 -133 -159.5 -323t-106.5 -218h-188l776 1597h195l776 -1597h-37q-102 -37 -155.5 -90.5t-53.5 -112.5q0 -66 60.5 -108.5t152.5 -42.5zM563 698
h686q-230 468 -338 707h-6q-29 -63 -83 -174.5t-131 -269.5t-128 -263z" />
    <glyph glyph-name="aogonek" unicode="&#x105;" horiz-adv-x="1411" 
d="M1225 -350q51 0 106 14v-113q-63 -14 -123 -14q-137 0 -229 62.5t-92 169.5q0 141 198 231h-2q-32 95 -32 225h-7q-67 -119 -193 -189.5t-304 -70.5q-118 0 -214 32t-157 101t-61 166q0 64 27 116t70.5 87.5t109 64t132 46t150.5 32.5q32 5 83 13t80.5 13t71.5 13.5
t66 16.5t52 21t42.5 28.5t24.5 37t10 48.5q0 93 -95.5 162t-244.5 69q-135 0 -232 -61t-134 -168l-166 51q38 105 126 177t192.5 103t221.5 31q97 0 185.5 -23t162 -67.5t117 -119.5t43.5 -171v-430q0 -131 10 -204.5t33 -149.5h-30q-205 -80 -205 -203q0 -66 59.5 -106.5
t147.5 -40.5zM1036 451v147q-59 -36 -121 -54.5t-200 -39.5q-47 -8 -72.5 -12.5t-76 -16t-81 -22.5t-70.5 -29.5t-62.5 -39.5t-39 -51t-16.5 -65q0 -81 76 -128.5t200 -47.5q83 0 158 23t129.5 61t95 85t60.5 96t20 94z" />
    <glyph glyph-name="Cacute" unicode="&#x106;" horiz-adv-x="2064" 
d="M1503 2050l-407 -328h-156l311 328h252zM1100 -35q-280 0 -501 105t-344.5 294.5t-123.5 430.5q0 186 75.5 344t205 264.5t304.5 166.5t371 60q136 0 265.5 -30t243 -87t201.5 -148t134 -206l-162 -61q-87 178 -270 277.5t-412 99.5q-155 0 -293.5 -47.5t-243.5 -133.5
t-166.5 -216.5t-61.5 -286.5q0 -133 44.5 -245t121 -189.5t178.5 -131.5t215.5 -79t234.5 -25q117 0 220 24t183 66.5t145 102.5t109 129t72 149l162 -53q-97 -264 -327.5 -419t-579.5 -155z" />
    <glyph glyph-name="cacute" unicode="&#x107;" horiz-adv-x="1495" 
d="M1188 1669l-373 -391h-149l292 391h230zM788 -35q-195 0 -348 74.5t-239 211t-86 312.5q0 177 86.5 314.5t240 212.5t349.5 75q194 0 351.5 -81t233.5 -244l-164 -58q-49 113 -163.5 175.5t-266.5 62.5q-220 0 -354.5 -129t-134.5 -326q0 -204 140.5 -329t363.5 -125
q174 0 297 76.5t184 205.5l156 -53q-78 -180 -250 -277.5t-396 -97.5z" />
    <glyph glyph-name="Cdotaccent" unicode="&#x10a;" horiz-adv-x="2064" 
d="M1042 1782q-58 0 -98.5 36t-40.5 89q0 50 40.5 84t98.5 34t98 -34t40 -84q0 -53 -40 -89t-98 -36zM1100 -35q-280 0 -501 105t-344.5 294.5t-123.5 430.5q0 186 75.5 344t205 264.5t304.5 166.5t371 60q136 0 265.5 -30t243 -87t201.5 -148t134 -206l-162 -61
q-87 178 -270 277.5t-412 99.5q-155 0 -293.5 -47.5t-243.5 -133.5t-166.5 -216.5t-61.5 -286.5q0 -133 44.5 -245t121 -189.5t178.5 -131.5t215.5 -79t234.5 -25q117 0 220 24t183 66.5t145 102.5t109 129t72 149l162 -53q-97 -264 -327.5 -419t-579.5 -155z" />
    <glyph glyph-name="cdotaccent" unicode="&#x10b;" horiz-adv-x="1495" 
d="M752 1405q-60 0 -100 36t-40 89q0 50 40.5 85.5t99.5 35.5q57 0 96 -35.5t39 -85.5q0 -53 -39 -89t-96 -36zM788 -35q-195 0 -348 74.5t-239 211t-86 312.5q0 177 86.5 314.5t240 212.5t349.5 75q194 0 351.5 -81t233.5 -244l-164 -58q-49 113 -163.5 175.5t-266.5 62.5
q-220 0 -354.5 -129t-134.5 -326q0 -204 140.5 -329t363.5 -125q174 0 297 76.5t184 205.5l156 -53q-78 -180 -250 -277.5t-396 -97.5z" />
    <glyph glyph-name="Ccaron" unicode="&#x10c;" horiz-adv-x="2064" 
d="M1311 2036h157l-321 -314h-213l-320 314h158q232 -182 270 -215q145 121 269 215zM1100 -35q-280 0 -501 105t-344.5 294.5t-123.5 430.5q0 186 75.5 344t205 264.5t304.5 166.5t371 60q136 0 265.5 -30t243 -87t201.5 -148t134 -206l-162 -61q-87 178 -270 277.5
t-412 99.5q-155 0 -293.5 -47.5t-243.5 -133.5t-166.5 -216.5t-61.5 -286.5q0 -133 44.5 -245t121 -189.5t178.5 -131.5t215.5 -79t234.5 -25q117 0 220 24t183 66.5t145 102.5t109 129t72 149l162 -53q-97 -264 -327.5 -419t-579.5 -155z" />
    <glyph glyph-name="ccaron" unicode="&#x10d;" horiz-adv-x="1495" 
d="M858 1284h-217l-356 365h159q185 -150 306 -256q68 60 305 256h159zM788 -35q-195 0 -348 74.5t-239 211t-86 312.5q0 177 86.5 314.5t240 212.5t349.5 75q194 0 351.5 -81t233.5 -244l-164 -58q-49 113 -163.5 175.5t-266.5 62.5q-220 0 -354.5 -129t-134.5 -326
q0 -204 140.5 -329t363.5 -125q174 0 297 76.5t184 205.5l156 -53q-78 -180 -250 -277.5t-396 -97.5z" />
    <glyph glyph-name="Dcaron" unicode="&#x10e;" horiz-adv-x="1976" 
d="M1186 2036h157l-321 -314h-213l-320 314h158q27 -22 85 -66.5t101 -78.5t85 -70q154 129 268 215zM956 0h-698v1597h676q187 0 339.5 -40.5t257 -112t176 -171.5t104 -216t32.5 -248q0 -178 -61 -327t-173 -256t-280 -166.5t-373 -59.5zM438 152h527q318 0 504 170.5
t186 474.5q0 317 -202 483t-560 166h-455v-1294z" />
    <glyph glyph-name="dcaron" unicode="&#x10f;" horiz-adv-x="1644" 
d="M1683 1169h-108l154 258q-43 13 -67 44.5t-24 70.5q0 50 41 84.5t99 34.5q56 0 95.5 -35t39.5 -84q0 -42 -39.5 -104.5t-190.5 -268.5zM743 -35q-180 0 -324 76.5t-225 213.5t-81 310q0 176 84.5 314t228 212t319.5 74q161 0 294 -65.5t212 -184.5h6v723h170v-1284
q0 -129 10.5 -205t32.5 -149h-170q-35 114 -32 217h-6q-80 -122 -218 -187t-301 -65zM768 111q135 0 247 57t178.5 162t66.5 237q0 197 -143.5 325t-348.5 128t-340 -129t-135 -326q0 -196 136 -325t339 -129z" />
    <glyph glyph-name="Dcroat" unicode="&#x110;" horiz-adv-x="1976" 
d="M258 1597h676q187 0 339.5 -40.5t257 -112t176 -171.5t104 -216t32.5 -248q0 -178 -61 -327t-173 -256t-280 -166.5t-373 -59.5h-698v731h-209v135h209v731zM965 152q318 0 504 170.5t186 474.5q0 317 -202 483t-560 166h-455v-580h633v-135h-633v-579h527z" />
    <glyph glyph-name="dcroat" unicode="&#x111;" horiz-adv-x="1644" 
d="M1745 1448v-125h-318v-969q0 -129 10.5 -205t32.5 -149h-170q-35 114 -32 217h-6q-80 -122 -218 -187t-301 -65q-180 0 -324 76.5t-225 213.5t-81 310q0 176 84.5 314t228 212t319.5 74q161 0 294 -65.5t212 -184.5h6v408h-344v125h344v190h170v-190h318zM768 111
q135 0 247 57t178.5 162t66.5 237q0 197 -143.5 325t-348.5 128t-340 -129t-135 -326q0 -196 136 -325t339 -129z" />
    <glyph glyph-name="Emacron" unicode="&#x112;" horiz-adv-x="1615" 
d="M1229 1821h-807v129h807v-129zM1489 0h-1231v1597h1206v-151h-1026v-549h977v-156h-977v-585h1051v-156z" />
    <glyph glyph-name="emacron" unicode="&#x113;" horiz-adv-x="1333" 
d="M1083 1405h-825v125h825v-125zM686 -35q-168 0 -301.5 74t-210 211t-76.5 313q0 264 164.5 433t419.5 169q74 0 145 -15.5t145 -56.5t129.5 -103.5t90.5 -164.5t35 -231v-72h-965q6 -192 125 -305t303 -113q144 0 249 76.5t157 200.5l145 -53q-66 -170 -214 -266.5
t-341 -96.5zM270 659h789q-2 79 -25.5 143t-60.5 105.5t-86.5 69t-101.5 39.5t-107 12q-163 0 -273 -102t-135 -267z" />
    <glyph glyph-name="Edotaccent" unicode="&#x116;" horiz-adv-x="1615" 
d="M827 1782q-58 0 -98.5 36t-40.5 89q0 50 40.5 84t98.5 34t98 -34t40 -84q0 -53 -40 -89t-98 -36zM1489 0h-1231v1597h1206v-151h-1026v-549h977v-156h-977v-585h1051v-156z" />
    <glyph glyph-name="edotaccent" unicode="&#x117;" horiz-adv-x="1333" 
d="M674 1405q-60 0 -99.5 36t-39.5 89q0 50 40 85.5t99 35.5q57 0 96 -35.5t39 -85.5q0 -53 -39 -89t-96 -36zM686 -35q-168 0 -301.5 74t-210 211t-76.5 313q0 264 164.5 433t419.5 169q74 0 145 -15.5t145 -56.5t129.5 -103.5t90.5 -164.5t35 -231v-72h-965
q6 -192 125 -305t303 -113q144 0 249 76.5t157 200.5l145 -53q-66 -170 -214 -266.5t-341 -96.5zM270 659h789q-2 79 -25.5 143t-60.5 105.5t-86.5 69t-101.5 39.5t-107 12q-163 0 -273 -102t-135 -267z" />
    <glyph glyph-name="Eogonek" unicode="&#x118;" horiz-adv-x="1615" 
d="M1493 -354q50 0 104 12v-107q-66 -14 -120 -14q-141 0 -234.5 62t-93.5 172q0 137 192 229h-1083v1597h1206v-151h-1026v-549h977v-156h-977v-585h1051v-156q-102 -37 -155.5 -90.5t-53.5 -112.5q0 -66 60.5 -108.5t152.5 -42.5z" />
    <glyph glyph-name="eogonek" unicode="&#x119;" horiz-adv-x="1333" 
d="M862 -12q-176 -77 -176 -191q0 -66 59.5 -106.5t147.5 -40.5q51 0 106 14v-113q-63 -14 -122 -14q-137 0 -229.5 62.5t-92.5 169.5q0 117 133 196h-2q-168 0 -301.5 74t-210 211t-76.5 313q0 264 164.5 433t419.5 169q74 0 145 -15.5t145 -56.5t129.5 -103.5t90.5 -164.5
t35 -231v-72h-965q6 -192 125 -305t303 -113q144 0 249 76.5t157 200.5l145 -53q-51 -128 -149 -215.5t-230 -124.5zM678 1028q-163 0 -273 -102t-135 -267h789q-2 79 -25.5 143t-60.5 105.5t-86.5 69t-101.5 39.5t-107 12z" />
    <glyph glyph-name="Ecaron" unicode="&#x11a;" horiz-adv-x="1615" 
d="M1096 2036h157l-321 -314h-213l-320 314h158q232 -182 270 -215q145 121 269 215zM1489 0h-1231v1597h1206v-151h-1026v-549h977v-156h-977v-585h1051v-156z" />
    <glyph glyph-name="ecaron" unicode="&#x11b;" horiz-adv-x="1333" 
d="M780 1284h-217l-356 365h160q171 -139 305 -256q68 60 305 256h160zM686 -35q-168 0 -301.5 74t-210 211t-76.5 313q0 264 164.5 433t419.5 169q74 0 145 -15.5t145 -56.5t129.5 -103.5t90.5 -164.5t35 -231v-72h-965q6 -192 125 -305t303 -113q144 0 249 76.5t157 200.5
l145 -53q-66 -170 -214 -266.5t-341 -96.5zM270 659h789q-2 79 -25.5 143t-60.5 105.5t-86.5 69t-101.5 39.5t-107 12q-163 0 -273 -102t-135 -267z" />
    <glyph glyph-name="Gbreve" unicode="&#x11e;" horiz-adv-x="2158" 
d="M1042 1724q-101 0 -187 29t-142 76.5t-88.5 105.5t-36.5 119h153q6 -80 93 -143.5t208 -63.5q123 0 209 63.5t92 143.5h152q-2 -61 -34.5 -119.5t-88.5 -105.5t-142 -76t-188 -29zM1079 -35q-205 0 -381 62t-300.5 170.5t-195.5 262.5t-71 333q0 186 74.5 343.5
t203.5 265t304.5 168t373.5 60.5q137 0 267 -30.5t243.5 -88t201 -148.5t132.5 -204l-162 -61q-87 178 -270 277.5t-412 99.5q-154 0 -292.5 -47t-243.5 -133t-167 -216.5t-62 -287.5q0 -134 45 -246t121 -189.5t177.5 -131t213 -78.5t229.5 -25q295 0 487.5 147.5
t214.5 376.5h-661v141h842v-786h-146l-6 346h-12q-98 -182 -289.5 -281.5t-458.5 -99.5z" />
    <glyph glyph-name="gbreve" unicode="&#x11f;" horiz-adv-x="1642" 
d="M795 1274q-204 0 -322.5 110.5t-126.5 284.5h150q5 -119 87 -194.5t214 -75.5q130 0 213.5 74t89.5 196h149q-8 -174 -127.5 -284.5t-326.5 -110.5zM797 -483q-472 0 -615 329l156 50q107 -244 459 -244q74 0 138.5 13.5t124.5 47.5t102 86.5t67.5 135t25.5 188.5v129h-6
q-78 -123 -211.5 -186.5t-296.5 -63.5q-182 0 -326.5 77.5t-224 210.5t-79.5 296q0 167 84 300t227.5 206t318.5 73q164 0 300 -66.5t214 -189.5h5v224h165v-996q0 -169 -47 -291.5t-134 -193t-197 -103t-250 -32.5zM766 147q204 0 347.5 127.5t143.5 313.5t-143.5 309
t-347.5 123t-339.5 -124.5t-135.5 -307.5q0 -186 136.5 -313.5t338.5 -127.5z" />
    <glyph glyph-name="Gdotaccent" unicode="&#x120;" horiz-adv-x="2158" 
d="M1042 1782q-58 0 -98.5 36t-40.5 89q0 50 40.5 84t98.5 34t98 -34t40 -84q0 -53 -40 -89t-98 -36zM1079 -35q-205 0 -381 62t-300.5 170.5t-195.5 262.5t-71 333q0 186 74.5 343.5t203.5 265t304.5 168t373.5 60.5q137 0 267 -30.5t243.5 -88t201 -148.5t132.5 -204
l-162 -61q-87 178 -270 277.5t-412 99.5q-154 0 -292.5 -47t-243.5 -133t-167 -216.5t-62 -287.5q0 -134 45 -246t121 -189.5t177.5 -131t213 -78.5t229.5 -25q295 0 487.5 147.5t214.5 376.5h-661v141h842v-786h-146l-6 346h-12q-98 -182 -289.5 -281.5t-458.5 -99.5z" />
    <glyph glyph-name="gdotaccent" unicode="&#x121;" horiz-adv-x="1642" 
d="M799 1405q-60 0 -100 36t-40 89q0 50 40.5 85.5t99.5 35.5q57 0 96 -35.5t39 -85.5q0 -53 -39 -89t-96 -36zM797 -483q-472 0 -615 329l156 50q107 -244 459 -244q74 0 138.5 13.5t124.5 47.5t102 86.5t67.5 135t25.5 188.5v129h-6q-78 -123 -211.5 -186.5t-296.5 -63.5
q-182 0 -326.5 77.5t-224 210.5t-79.5 296q0 167 84 300t227.5 206t318.5 73q164 0 300 -66.5t214 -189.5h5v224h165v-996q0 -169 -47 -291.5t-134 -193t-197 -103t-250 -32.5zM766 147q204 0 347.5 127.5t143.5 313.5t-143.5 309t-347.5 123t-339.5 -124.5t-135.5 -307.5
q0 -186 136.5 -313.5t338.5 -127.5z" />
    <glyph glyph-name="uni0122" unicode="&#x122;" horiz-adv-x="2158" 
d="M1079 -35q-205 0 -381 62t-300.5 170.5t-195.5 262.5t-71 333q0 186 74.5 343.5t203.5 265t304.5 168t373.5 60.5q137 0 267 -30.5t243.5 -88t201 -148.5t132.5 -204l-162 -61q-87 178 -270 277.5t-412 99.5q-154 0 -292.5 -47t-243.5 -133t-167 -216.5t-62 -287.5
q0 -134 45 -246t121 -189.5t177.5 -131t213 -78.5t229.5 -25q295 0 487.5 147.5t214.5 376.5h-661v141h842v-786h-146l-6 346h-12q-98 -182 -289.5 -281.5t-458.5 -99.5zM1016 -537h-86l119 199q-105 26 -105 111q0 47 38 79.5t93 32.5q54 0 91.5 -32.5t37.5 -79.5
q0 -39 -29.5 -86.5t-130.5 -185.5q-18 -25 -28 -38z" />
    <glyph glyph-name="uni0123" unicode="&#x123;" horiz-adv-x="1642" 
d="M639 1368q0 39 29.5 88.5t134.5 198.5q10 14 16 22t15.5 21.5t17.5 25.5h109l-148 -245q40 -14 63 -42.5t23 -66.5q0 -47 -38 -80t-93 -33q-54 0 -91.5 32.5t-37.5 78.5zM797 -483q-472 0 -615 329l156 50q107 -244 459 -244q74 0 138.5 13.5t124.5 47.5t102 86.5
t67.5 135t25.5 188.5v129h-6q-78 -123 -211.5 -186.5t-296.5 -63.5q-182 0 -326.5 77.5t-224 210.5t-79.5 296q0 167 84 300t227.5 206t318.5 73q164 0 300 -66.5t214 -189.5h5v224h165v-996q0 -169 -47 -291.5t-134 -193t-197 -103t-250 -32.5zM766 147q204 0 347.5 127.5
t143.5 313.5t-143.5 309t-347.5 123t-339.5 -124.5t-135.5 -307.5q0 -186 136.5 -313.5t338.5 -127.5z" />
    <glyph glyph-name="Hbar" unicode="&#x126;" horiz-adv-x="1986" 
d="M1731 1294h165v-133h-165v-1161h-181v725h-1112v-725h-180v1161h-168v133h168v303h180v-303h1112v303h181v-303zM438 881h1112v280h-1112v-280z" />
    <glyph glyph-name="hbar" unicode="&#x127;" horiz-adv-x="1556" 
d="M862 1165q75 0 144 -14.5t134 -48.5t112.5 -85t76.5 -129.5t29 -176.5v-711h-168v641q0 97 -29.5 171t-81.5 118.5t-117.5 67t-142.5 22.5q-100 0 -183.5 -33t-137 -88t-82.5 -125.5t-29 -146.5v-627h-168v1321h-231v125h231v192h168v-192h434v-125h-434v-399h6
q75 123 196.5 183t272.5 60z" />
    <glyph glyph-name="Imacron" unicode="&#x12a;" horiz-adv-x="694" 
d="M750 1821h-807v129h807v-129zM438 0h-180v1597h180v-1597z" />
    <glyph glyph-name="imacron" unicode="&#x12b;" horiz-adv-x="604" 
d="M715 1399h-826v125h826v-125zM387 0h-168v1133h168v-1133z" />
    <glyph glyph-name="Iogonek" unicode="&#x12e;" horiz-adv-x="694" 
d="M442 -354q51 0 105 12v-107q-66 -14 -121 -14q-141 0 -234.5 62t-93.5 172q0 137 193 229h-33v1597h180v-1597q-102 -37 -155.5 -90.5t-53.5 -112.5q0 -66 60.5 -108.5t152.5 -42.5z" />
    <glyph glyph-name="iogonek" unicode="&#x12f;" horiz-adv-x="604" 
d="M305 1399q-60 0 -99.5 36t-39.5 89q0 50 40 85.5t99 35.5q57 0 96 -35.5t39 -85.5q0 -53 -39 -89t-96 -36zM379 -350q51 0 106 14v-113q-63 -14 -123 -14q-137 0 -229 62.5t-92 169.5q0 141 199 231h-21v1133h168v-1133h-10q-205 -80 -205 -203q0 -66 59.5 -106.5
t147.5 -40.5z" />
    <glyph glyph-name="Idotaccent" unicode="&#x130;" horiz-adv-x="694" 
d="M348 1782q-58 0 -98.5 36t-40.5 89q0 50 40.5 84t98.5 34t97.5 -34t39.5 -84q0 -53 -39.5 -89t-97.5 -36zM438 0h-180v1597h180v-1597z" />
    <glyph glyph-name="dotlessi" unicode="&#x131;" horiz-adv-x="604" 
d="M387 0h-168v1133h168v-1133z" />
    <glyph glyph-name="uni0136" unicode="&#x136;" horiz-adv-x="1642" 
d="M438 0h-180v1597h180v-841h4q290 268 949 841h215q-386 -343 -781 -700q90 -98 271 -295t320.5 -348.5t234.5 -253.5h-217q-109 113 -255.5 269t-482.5 507q-129 -117 -258 -231v-545zM825 -537h-86l119 199q-53 13 -78.5 42.5t-25.5 68.5q0 47 38 79.5t93 32.5
q54 0 91.5 -32.5t37.5 -79.5q0 -38 -30 -86.5t-123 -175.5q-8 -10 -12 -15.5t-11 -15t-13 -17.5z" />
    <glyph glyph-name="uni0137" unicode="&#x137;" horiz-adv-x="1288" 
d="M1219 1133l-510 -449l598 -684h-197l-520 580l-203 -179v-401h-168v1638h168v-1038h6q48 42 271 234t348 299h207zM688 -115q54 0 91.5 -32.5t37.5 -79.5q0 -39 -29.5 -86.5t-130.5 -185.5q-6 -8 -9.5 -12.5t-8.5 -12t-10 -13.5h-86l119 199q-105 26 -105 111
q0 47 38 79.5t93 32.5z" />
    <glyph glyph-name="Lacute" unicode="&#x139;" horiz-adv-x="1452" 
d="M614 2050h252l-407 -328h-156zM438 1597v-1441h977v-156h-1157v1597h180z" />
    <glyph glyph-name="lacute" unicode="&#x13a;" horiz-adv-x="604" 
d="M807 2091l-408 -328h-155l311 328h252zM387 0h-168v1638h168v-1638z" />
    <glyph glyph-name="uni013B" unicode="&#x13b;" horiz-adv-x="1452" 
d="M438 1597v-1441h977v-156h-1157v1597h180zM780 -115q54 0 91.5 -32.5t37.5 -79.5q0 -39 -29.5 -86.5t-130.5 -185.5q-6 -8 -9.5 -12.5t-8.5 -12t-10 -13.5h-86l119 199q-105 26 -105 111q0 47 38 79.5t93 32.5z" />
    <glyph glyph-name="uni013C" unicode="&#x13c;" horiz-adv-x="604" 
d="M387 0h-168v1638h168v-1638zM252 -537h-86l119 199q-105 26 -105 111q0 47 38 79.5t93 32.5q54 0 91.5 -32.5t37.5 -79.5q0 -39 -29.5 -86.5t-130.5 -185.5q-18 -25 -28 -38z" />
    <glyph glyph-name="Lcaron" unicode="&#x13d;" horiz-adv-x="1452" 
d="M932 1149h-109l154 258q-43 13 -67.5 44.5t-24.5 70.5q0 49 41 83.5t98 34.5t97 -34.5t40 -83.5q0 -42 -40 -105.5t-189 -267.5zM438 1597v-1441h977v-156h-1157v1597h180z" />
    <glyph glyph-name="lcaron" unicode="&#x13e;" horiz-adv-x="604" 
d="M690 1149h-110l155 258q-43 13 -67.5 44.5t-24.5 70.5q0 49 41 83.5t98 34.5t97.5 -34.5t40.5 -83.5q0 -39 -34.5 -94t-159.5 -229q-8 -11 -12 -17t-11 -15.5t-13 -17.5zM387 0h-168v1638h168v-1638z" />
    <glyph glyph-name="Lslash" unicode="&#x141;" horiz-adv-x="1452" 
d="M438 836v-680h977v-156h-1157v766l-207 -82v141l207 82v690h180v-620l359 141v-141z" />
    <glyph glyph-name="lslash" unicode="&#x142;" horiz-adv-x="604" 
d="M387 1047l244 149v-139l-244 -150v-907h-168v805l-239 -148v140l239 147v694h168v-591z" />
    <glyph glyph-name="Nacute" unicode="&#x143;" horiz-adv-x="2025" 
d="M1452 2050l-408 -328h-155l311 328h252zM438 0h-180v1597h195q54 -63 327.5 -380.5t454 -530t350.5 -416.5h6v1327h178v-1597h-194q-76 88 -493.5 567t-641.5 744h-2v-1311z" />
    <glyph glyph-name="nacute" unicode="&#x144;" horiz-adv-x="1556" 
d="M1212 1669l-372 -391h-150l293 391h229zM387 0h-168v1133h164v-211h4q76 124 200.5 183.5t276.5 59.5q76 0 144.5 -14.5t133.5 -48.5t112 -85t75.5 -129.5t28.5 -176.5v-711h-168v641q0 97 -29.5 171t-81.5 118.5t-117.5 67t-142.5 22.5q-100 0 -183.5 -33t-137 -88
t-82.5 -125.5t-29 -146.5v-627z" />
    <glyph glyph-name="uni0145" unicode="&#x145;" horiz-adv-x="2025" 
d="M438 0h-180v1597h195q54 -63 327.5 -380.5t454 -530t350.5 -416.5h6v1327h178v-1597h-194q-76 88 -493.5 567t-641.5 744h-2v-1311zM989 -537h-86l119 199q-53 13 -78.5 42.5t-25.5 68.5q0 47 38 79.5t93 32.5q54 0 91.5 -32.5t37.5 -79.5q0 -38 -30 -86.5t-123 -175.5
q-8 -10 -12 -15.5t-11 -15t-13 -17.5z" />
    <glyph glyph-name="uni0146" unicode="&#x146;" horiz-adv-x="1556" 
d="M387 0h-168v1133h164v-211h4q76 124 200.5 183.5t276.5 59.5q76 0 144.5 -14.5t133.5 -48.5t112 -85t75.5 -129.5t28.5 -176.5v-711h-168v641q0 97 -29.5 171t-81.5 118.5t-117.5 67t-142.5 22.5q-100 0 -183.5 -33t-137 -88t-82.5 -125.5t-29 -146.5v-627zM760 -537h-86
l119 199q-105 26 -105 111q0 47 38 79.5t93 32.5q54 0 91.5 -32.5t37.5 -79.5q0 -39 -29.5 -86.5t-130.5 -185.5q-6 -8 -9.5 -12.5t-8.5 -12t-10 -13.5z" />
    <glyph glyph-name="Ncaron" unicode="&#x147;" horiz-adv-x="2025" 
d="M1257 2036h158l-321 -314h-213l-320 314h158q232 -182 270 -215q154 129 268 215zM438 0h-180v1597h195q54 -63 327.5 -380.5t454 -530t350.5 -416.5h6v1327h178v-1597h-194q-76 88 -493.5 567t-641.5 744h-2v-1311z" />
    <glyph glyph-name="ncaron" unicode="&#x148;" horiz-adv-x="1556" 
d="M883 1284h-217l-357 365h160q171 -139 305 -256q68 60 305 256h160zM387 0h-168v1133h164v-211h4q76 124 200.5 183.5t276.5 59.5q76 0 144.5 -14.5t133.5 -48.5t112 -85t75.5 -129.5t28.5 -176.5v-711h-168v641q0 97 -29.5 171t-81.5 118.5t-117.5 67t-142.5 22.5
q-100 0 -183.5 -33t-137 -88t-82.5 -125.5t-29 -146.5v-627z" />
    <glyph glyph-name="Eng" unicode="&#x14a;" horiz-adv-x="2025" 
d="M1284 -483q-173 0 -289 53v149q107 -59 250 -59q162 0 251 87.5t89 240.5q-83 96 -506.5 582.5t-640.5 744.5v-1315h-180v1597h195q54 -63 327.5 -380.5t454 -530t350.5 -416.5h6v1327h178v-1536q0 -80 -10 -149t-42 -144.5t-83 -128.5t-141 -87.5t-209 -34.5z" />
    <glyph glyph-name="eng" unicode="&#x14b;" horiz-adv-x="1556" 
d="M977 -483q-149 0 -258 53v143q111 -57 225 -57q51 0 91 13t65.5 31.5t43.5 50.5t26.5 57t13.5 65.5t5.5 61.5t0.5 59v647q0 97 -29.5 171t-81.5 118.5t-117.5 67t-142.5 22.5q-100 0 -183.5 -33t-137 -88t-82.5 -125.5t-29 -146.5v-627h-168v1133h164v-211h4
q76 124 200.5 183.5t276.5 59.5q75 0 144 -14t133.5 -47.5t112 -83.5t76 -127.5t28.5 -173.5v-733q0 -52 -1 -81.5t-8 -85.5t-20.5 -91t-41.5 -79.5t-67.5 -70t-101.5 -43.5t-141 -18z" />
    <glyph glyph-name="Omacron" unicode="&#x14c;" horiz-adv-x="2181" 
d="M1491 1821h-807v129h807v-129zM1090 -35q-194 0 -370.5 62.5t-306.5 171.5t-207 265t-77 333q0 236 129.5 427.5t349.5 298.5t484 107q200 0 378 -64.5t305.5 -175t202 -265t74.5 -328.5t-75.5 -329t-204.5 -265t-306.5 -174t-375.5 -64zM1094 121q205 0 379.5 86.5
t279.5 242.5t105 347t-104.5 347.5t-279 243.5t-380.5 87q-207 0 -384 -86.5t-284 -243t-107 -348.5t107 -348t284 -242t384 -86z" />
    <glyph glyph-name="omacron" unicode="&#x14d;" horiz-adv-x="1587" 
d="M1206 1405h-825v125h825v-125zM795 -35q-197 0 -352 75.5t-241.5 212t-86.5 310.5q0 265 190.5 433.5t489.5 168.5q298 0 488 -168.5t190 -433.5q0 -130 -50.5 -241.5t-139.5 -190t-215 -122.5t-273 -44zM795 111q221 0 359 126t138 326q0 202 -138 329.5t-359 127.5
t-360.5 -128t-139.5 -329q0 -200 139.5 -326t360.5 -126z" />
    <glyph glyph-name="Ohungarumlaut" unicode="&#x150;" horiz-adv-x="2181" 
d="M1268 2050l-336 -328h-154l256 328h234zM1661 2050l-356 -328h-154l274 328h236zM1090 -35q-194 0 -370.5 62.5t-306.5 171.5t-207 265t-77 333q0 236 129.5 427.5t349.5 298.5t484 107q200 0 378 -64.5t305.5 -175t202 -265t74.5 -328.5t-75.5 -329t-204.5 -265
t-306.5 -174t-375.5 -64zM1094 121q205 0 379.5 86.5t279.5 242.5t105 347t-104.5 347.5t-279 243.5t-380.5 87q-207 0 -384 -86.5t-284 -243t-107 -348.5t107 -348t284 -242t384 -86z" />
    <glyph glyph-name="ohungarumlaut" unicode="&#x151;" horiz-adv-x="1587" 
d="M967 1673l-336 -395h-148l258 395h226zM1366 1673l-358 -395h-148l279 395h227zM795 -35q-197 0 -352 75.5t-241.5 212t-86.5 310.5q0 265 190.5 433.5t489.5 168.5q298 0 488 -168.5t190 -433.5q0 -130 -50.5 -241.5t-139.5 -190t-215 -122.5t-273 -44zM795 111
q221 0 359 126t138 326q0 202 -138 329.5t-359 127.5t-360.5 -128t-139.5 -329q0 -200 139.5 -326t360.5 -126z" />
    <glyph glyph-name="OE" unicode="&#x152;" horiz-adv-x="3219" 
d="M1087 -35q-194 0 -370 62.5t-305.5 171.5t-206 265t-76.5 333t76.5 332.5t206 265t306 172.5t372.5 63q248 0 452.5 -95t329.5 -261v323h1194v-151h-1024v-549h975v-156h-975v-585h1048v-156h-1218v322q-125 -166 -331 -261.5t-454 -95.5zM1092 121q205 0 380 86.5
t280.5 243t105.5 348.5t-105.5 348t-280 242t-378.5 86q-208 0 -385 -86.5t-283.5 -243t-106.5 -348.5q0 -191 107 -347.5t283.5 -242.5t382.5 -86z" />
    <glyph glyph-name="oe" unicode="&#x153;" horiz-adv-x="2703" 
d="M795 -35q-197 0 -352 75.5t-241.5 212t-86.5 310.5q0 265 190.5 433.5t489.5 168.5q198 0 352 -78t233 -213q79 135 231.5 213t348.5 78q83 0 163.5 -15.5t165 -56.5t147.5 -103.5t103.5 -164.5t40.5 -231v-45h-1116q3 -131 69 -232.5t179 -157t254 -55.5q171 0 294 76.5
t183 200.5l154 -53q-77 -171 -247 -267t-388 -96q-198 0 -350.5 76t-231.5 211q-79 -133 -233.5 -210t-351.5 -77zM1475 662h925q-4 97 -44.5 170.5t-106 115.5t-140.5 62t-157 20q-190 0 -318.5 -101.5t-158.5 -266.5zM795 111q221 0 359 126t138 326q0 202 -138 329.5
t-359 127.5t-360.5 -128t-139.5 -329q0 -200 139.5 -326t360.5 -126z" />
    <glyph glyph-name="Racute" unicode="&#x154;" horiz-adv-x="1703" 
d="M1249 2050l-407 -328h-156l311 328h252zM438 0h-180v1597h674q102 0 194.5 -18t172 -57t138 -94.5t91.5 -135t33 -174.5q0 -206 -136 -332t-358 -147v-2q85 -106 257 -318t257 -319h-201l-510 629h-432v-629zM438 776h477q211 0 334 86t123 248q0 160 -131.5 249
t-341.5 89h-461v-672z" />
    <glyph glyph-name="racute" unicode="&#x155;" horiz-adv-x="1011" 
d="M999 1669l-372 -391h-150l293 391h229zM387 0h-168v1133h164v-228h10q52 117 170 188.5t266 71.5q87 0 154 -22v-172q-68 26 -168 26q-105 0 -189 -41t-135 -108t-77.5 -147t-26.5 -164v-537z" />
    <glyph glyph-name="uni0156" unicode="&#x156;" horiz-adv-x="1703" 
d="M438 0h-180v1597h674q102 0 194.5 -18t172 -57t138 -94.5t91.5 -135t33 -174.5q0 -206 -136 -332t-358 -147v-2q85 -106 257 -318t257 -319h-201l-510 629h-432v-629zM438 776h477q211 0 334 86t123 248q0 160 -131.5 249t-341.5 89h-461v-672zM811 -537h-86l119 199
q-105 26 -105 111q0 47 38 79.5t93 32.5q54 0 91.5 -32.5t37.5 -79.5q0 -39 -29.5 -86.5t-130.5 -185.5q-6 -8 -9.5 -12.5t-8.5 -12t-10 -13.5z" />
    <glyph glyph-name="uni0157" unicode="&#x157;" horiz-adv-x="1011" 
d="M387 0h-168v1133h164v-228h10q52 117 170 188.5t266 71.5q87 0 154 -22v-172q-68 26 -168 26q-105 0 -189 -41t-135 -108t-77.5 -147t-26.5 -164v-537zM242 -537h-86l118 199q-53 13 -78.5 42.5t-25.5 68.5q0 47 38 79.5t93 32.5q54 0 91.5 -32.5t37.5 -79.5
q0 -39 -29.5 -86.5t-130.5 -185.5q-18 -25 -28 -38z" />
    <glyph glyph-name="Rcaron" unicode="&#x158;" horiz-adv-x="1703" 
d="M1057 2036h157l-321 -314h-213l-320 314h158q232 -182 270 -215q145 121 269 215zM438 0h-180v1597h674q102 0 194.5 -18t172 -57t138 -94.5t91.5 -135t33 -174.5q0 -206 -136 -332t-358 -147v-2q85 -106 257 -318t257 -319h-201l-510 629h-432v-629zM438 776h477
q211 0 334 86t123 248q0 160 -131.5 249t-341.5 89h-461v-672z" />
    <glyph glyph-name="rcaron" unicode="&#x159;" horiz-adv-x="1011" 
d="M670 1284h-217l-357 365h160q171 -139 305 -256q68 60 305 256h160zM387 0h-168v1133h164v-228h10q52 117 170 188.5t266 71.5q87 0 154 -22v-172q-68 26 -168 26q-105 0 -189 -41t-135 -108t-77.5 -147t-26.5 -164v-537z" />
    <glyph glyph-name="Sacute" unicode="&#x15a;" horiz-adv-x="1587" 
d="M1171 2050l-405 -330h-156l312 330h249zM817 -35q-113 0 -219 25.5t-205.5 79t-177.5 147t-119 217.5l166 55q59 -182 210 -276t347 -94q83 0 162 17.5t147 51.5t109 93t41 135q0 54 -24.5 97.5t-52.5 69t-89.5 50.5t-94.5 34t-108 28q-26 7 -39 10l-178 47
q-51 13 -87 23.5t-95 32.5t-101.5 44.5t-91.5 58.5t-79.5 75.5t-51 94.5t-20.5 117q0 104 53 188t141.5 136t198.5 80t229 28q227 0 399 -101.5t234 -279.5l-161 -61q-54 135 -182 213t-308 78q-176 0 -297 -74t-121 -193q0 -42 17.5 -79.5t41 -64.5t65 -52.5t71.5 -40.5
t79 -31.5t69.5 -22t60.5 -16.5l188 -51q182 -49 249 -76q219 -87 264 -246q13 -44 13 -94q0 -139 -90 -248.5t-238 -167t-325 -57.5z" />
    <glyph glyph-name="sacute" unicode="&#x15b;" horiz-adv-x="1220" 
d="M1044 1671l-372 -391h-150l293 391h229zM641 -35q-199 0 -352 87.5t-207 230.5l158 47q50 -104 163 -168t238 -64q47 0 96 10t98 31t80 60.5t31 91.5q0 37 -18 66.5t-42 47.5t-67.5 34.5t-73.5 24.5t-81 19l-132 31q-36 9 -61 16t-69 23t-75 32t-68 42.5t-60 56.5
t-38.5 71.5t-15.5 88.5q0 78 40 141t105.5 101.5t144 58.5t159.5 20q171 0 303.5 -79t177.5 -199l-160 -49q-37 82 -125.5 138t-211.5 56q-113 0 -187 -48t-74 -128q0 -39 21.5 -71.5t50 -53.5t76 -40t81 -28.5t83.5 -21.5l129 -31q38 -9 61.5 -14.5t66.5 -19.5t71 -28
t62.5 -38t55 -51t35 -65.5t14.5 -82.5q0 -149 -135 -247.5t-348 -98.5z" />
    <glyph glyph-name="Scedilla" unicode="&#x15e;" horiz-adv-x="1587" 
d="M1470 438q0 -101 -48.5 -188t-132.5 -147t-195.5 -96.5t-237.5 -41.5l-98 -117q34 17 96 17q98 0 161.5 -47t63.5 -123q0 -85 -78 -138t-198 -53q-89 0 -170.5 31t-134.5 84l69 66q39 -43 101.5 -68t126.5 -25q68 0 114.5 28.5t46.5 72.5q0 42 -41.5 69t-105.5 27
q-62 0 -117 -25l-67 54l118 149q-104 8 -200 38t-184 84t-157 142.5t-106 202.5l166 55q59 -182 210 -276t347 -94q83 0 162 17.5t147 51.5t109 93t41 135q0 54 -24.5 97.5t-52.5 69t-89.5 50.5t-94.5 34t-108 28q-26 7 -39 10l-178 47q-51 13 -87 23.5t-95 32.5
t-101.5 44.5t-91.5 58.5t-79.5 75.5t-51 94.5t-20.5 117q0 104 53 188t141.5 136t198.5 80t229 28q227 0 399 -101.5t234 -279.5l-161 -61q-54 135 -182 213t-308 78q-176 0 -297 -74t-121 -193q0 -42 17.5 -79.5t41 -64.5t65 -52.5t71.5 -40.5t79 -31.5t69.5 -22
t60.5 -16.5l188 -51q182 -49 249 -76q219 -87 264 -246q13 -44 13 -94z" />
    <glyph glyph-name="scedilla" unicode="&#x15f;" horiz-adv-x="1220" 
d="M1124 311q0 -144 -125.5 -241.5t-326.5 -104.5l-99 -117q34 17 97 17q98 0 161.5 -47t63.5 -123q0 -85 -78.5 -138t-198.5 -53q-89 0 -170.5 31t-134.5 84l70 66q39 -43 101 -68t126 -25q68 0 115 28.5t47 72.5q0 42 -41.5 69t-105.5 27q-62 0 -117 -25l-68 54l119 151
q-172 17 -301 102t-176 212l158 47q50 -104 163 -168t238 -64q47 0 96 10t98 31t80 60.5t31 91.5q0 37 -18 66.5t-42 47.5t-67.5 34.5t-73.5 24.5t-81 19l-132 31q-36 9 -61 16t-69 23t-75 32t-68 42.5t-60 56.5t-38.5 71.5t-15.5 88.5q0 78 40 141t105.5 101.5t144 58.5
t159.5 20q171 0 303.5 -79t177.5 -199l-160 -49q-37 82 -125.5 138t-211.5 56q-113 0 -187 -48t-74 -128q0 -39 21.5 -71.5t50 -53.5t76 -40t81 -28.5t83.5 -21.5l129 -31q38 -9 61.5 -14.5t66.5 -19.5t71 -28t62.5 -38t55 -51t35 -65.5t14.5 -82.5z" />
    <glyph glyph-name="Scaron" unicode="&#x160;" horiz-adv-x="1587" 
d="M1053 2036h157l-321 -314h-213l-320 314h158q232 -182 270 -215q145 121 269 215zM817 -35q-113 0 -219 25.5t-205.5 79t-177.5 147t-119 217.5l166 55q59 -182 210 -276t347 -94q83 0 162 17.5t147 51.5t109 93t41 135q0 54 -24.5 97.5t-52.5 69t-89.5 50.5t-94.5 34
t-108 28q-26 7 -39 10l-178 47q-51 13 -87 23.5t-95 32.5t-101.5 44.5t-91.5 58.5t-79.5 75.5t-51 94.5t-20.5 117q0 104 53 188t141.5 136t198.5 80t229 28q227 0 399 -101.5t234 -279.5l-161 -61q-54 135 -182 213t-308 78q-176 0 -297 -74t-121 -193q0 -42 17.5 -79.5
t41 -64.5t65 -52.5t71.5 -40.5t79 -31.5t69.5 -22t60.5 -16.5l188 -51q182 -49 249 -76q219 -87 264 -246q13 -44 13 -94q0 -139 -90 -248.5t-238 -167t-325 -57.5z" />
    <glyph glyph-name="scaron" unicode="&#x161;" horiz-adv-x="1220" 
d="M715 1284h-217l-357 365h160q171 -139 305 -256q68 60 305 256h160zM641 -35q-199 0 -352 87.5t-207 230.5l158 47q50 -104 163 -168t238 -64q47 0 96 10t98 31t80 60.5t31 91.5q0 37 -18 66.5t-42 47.5t-67.5 34.5t-73.5 24.5t-81 19l-132 31q-36 9 -61 16t-69 23
t-75 32t-68 42.5t-60 56.5t-38.5 71.5t-15.5 88.5q0 78 40 141t105.5 101.5t144 58.5t159.5 20q171 0 303.5 -79t177.5 -199l-160 -49q-37 82 -125.5 138t-211.5 56q-113 0 -187 -48t-74 -128q0 -39 21.5 -71.5t50 -53.5t76 -40t81 -28.5t83.5 -21.5l129 -31
q38 -9 61.5 -14.5t66.5 -19.5t71 -28t62.5 -38t55 -51t35 -65.5t14.5 -82.5q0 -149 -135 -247.5t-348 -98.5z" />
    <glyph glyph-name="uni0162" unicode="&#x162;" horiz-adv-x="1560" 
d="M870 0h-32l-127 -152q34 17 96 17q98 0 161.5 -47t63.5 -123q0 -85 -78 -138t-198 -53q-89 0 -170.5 31t-134.5 84l69 66q39 -43 101.5 -68t126.5 -25q68 0 114.5 28.5t46.5 72.5q0 42 -41.5 69t-105.5 27q-62 0 -117 -25l-67 54l143 182h-29v1446h-655v151h1487v-151
h-654v-1446z" />
    <glyph glyph-name="uni0163" unicode="&#x163;" horiz-adv-x="940" 
d="M883 1133v-140h-416v-604v-43t2 -42.5t5 -44t9.5 -39.5t16 -37.5t24 -30.5t33.5 -25.5t45 -14.5t57 -6q110 0 224 60v-146q-104 -55 -250 -55q-35 0 -49 2l-101 -119q34 17 97 17q98 0 161.5 -47t63.5 -123q0 -85 -78.5 -138t-198.5 -53q-89 0 -170.5 31t-134.5 84l70 66
q39 -43 101 -68t126 -25q68 0 115 28.5t47 72.5q0 42 -41.5 69t-105.5 27q-62 0 -117 -25l-68 54l133 170q-38 13 -68 34.5t-49 44t-32.5 54.5t-20 56t-10 60t-4 54.5t-0.5 50.5v651h-270v140h270v333h168v-333h416z" />
    <glyph glyph-name="Tcaron" unicode="&#x164;" horiz-adv-x="1560" 
d="M1051 2036h157l-321 -314h-213l-320 314h158q232 -182 270 -215q145 121 269 215zM870 0h-178v1446h-655v151h1487v-151h-654v-1446z" />
    <glyph glyph-name="tcaron" unicode="&#x165;" horiz-adv-x="940" 
d="M963 1153h-111l156 258q-43 13 -68 45t-25 70q0 51 41.5 86t98.5 35t97 -34.5t40 -84.5q0 -39 -37 -99.5t-162 -234.5q-20 -27 -30 -41zM633 -35q-54 0 -99.5 9t-77.5 23t-58 37.5t-42 44.5t-27.5 53t-17 54.5t-8.5 56.5t-3.5 51.5t-0.5 47.5v651h-270v140h270v333h168
v-333h416v-140h-416v-604v-43t2 -42.5t5 -44t9.5 -39.5t16 -37.5t24 -30.5t33.5 -25.5t45 -14.5t57 -6q110 0 224 60v-146q-104 -55 -250 -55z" />
    <glyph glyph-name="Tbar" unicode="&#x166;" horiz-adv-x="1560" 
d="M1524 1597v-151h-654v-580h422v-135h-422v-731h-178v731h-422v135h422v580h-655v151h1487z" />
    <glyph glyph-name="tbar" unicode="&#x167;" horiz-adv-x="940" 
d="M883 1133v-140h-416v-305h397v-125h-397v-174v-43t2 -42.5t5 -44t9.5 -39.5t16 -37.5t24 -30.5t33.5 -25.5t45 -14.5t57 -6q110 0 224 60v-146q-104 -55 -250 -55q-54 0 -99.5 9t-77.5 23t-58 37.5t-42 44.5t-27.5 53t-17 54.5t-8.5 56.5t-3.5 51.5t-0.5 47.5v221h-266
v125h266v305h-270v140h270v333h168v-333h416z" />
    <glyph glyph-name="Umacron" unicode="&#x16a;" horiz-adv-x="1847" 
d="M1327 1821h-807v129h807v-129zM918 -35q-328 0 -506.5 166t-178.5 455v1011h181v-1001q0 -240 134 -358.5t376 -118.5t376 118t134 359v1001h180v-1011q0 -103 -24.5 -193.5t-78 -170t-133.5 -136t-197.5 -89t-262.5 -32.5z" />
    <glyph glyph-name="umacron" unicode="&#x16b;" horiz-adv-x="1533" 
d="M1157 1405h-825v125h825v-125zM686 -35q-75 0 -143.5 14.5t-132 49t-110 86t-74 130.5t-27.5 177v711h168v-652q0 -99 31 -173t84 -115.5t115 -61.5t132 -20q97 0 178 34.5t132 90.5t78.5 124t27.5 138v635h168v-779q0 -124 10 -199.5t35 -154.5h-170q-35 109 -35 201h-4
q-74 -119 -193.5 -177.5t-269.5 -58.5z" />
    <glyph glyph-name="Uring" unicode="&#x16e;" horiz-adv-x="1847" 
d="M924 1716q-119 0 -197 63t-78 160t78 160.5t197 63.5q115 0 192.5 -64t77.5 -160q0 -97 -77.5 -160t-192.5 -63zM924 1819q65 0 108 33t43 87q0 53 -43.5 86t-107.5 33q-67 0 -111.5 -33t-44.5 -86q0 -54 44.5 -87t111.5 -33zM918 -35q-328 0 -506.5 166t-178.5 455v1011
h181v-1001q0 -240 134 -358.5t376 -118.5t376 118t134 359v1001h180v-1011q0 -103 -24.5 -193.5t-78 -170t-133.5 -136t-197.5 -89t-262.5 -32.5z" />
    <glyph glyph-name="uring" unicode="&#x16f;" horiz-adv-x="1533" 
d="M745 1249q-118 0 -196 63.5t-78 160.5t77.5 160t196.5 63q115 0 193 -63.5t78 -159.5q0 -97 -78 -160.5t-193 -63.5zM745 1352q65 0 108.5 33.5t43.5 87.5q0 53 -43.5 85.5t-108.5 32.5q-67 0 -111 -32.5t-44 -85.5q0 -55 44 -88t111 -33zM686 -35q-75 0 -143.5 14.5
t-132 49t-110 86t-74 130.5t-27.5 177v711h168v-652q0 -99 31 -173t84 -115.5t115 -61.5t132 -20q97 0 178 34.5t132 90.5t78.5 124t27.5 138v635h168v-779q0 -124 10 -199.5t35 -154.5h-170q-35 109 -35 201h-4q-74 -119 -193.5 -177.5t-269.5 -58.5z" />
    <glyph glyph-name="Uhungarumlaut" unicode="&#x170;" horiz-adv-x="1847" 
d="M1102 2050l-336 -328h-154l256 328h234zM1495 2050l-356 -328h-154l275 328h235zM918 -35q-328 0 -506.5 166t-178.5 455v1011h181v-1001q0 -240 134 -358.5t376 -118.5t376 118t134 359v1001h180v-1011q0 -103 -24.5 -193.5t-78 -170t-133.5 -136t-197.5 -89
t-262.5 -32.5z" />
    <glyph glyph-name="uhungarumlaut" unicode="&#x171;" horiz-adv-x="1533" 
d="M918 1673l-336 -395h-148l258 395h226zM1317 1673l-359 -395h-147l279 395h227zM686 -35q-75 0 -143.5 14.5t-132 49t-110 86t-74 130.5t-27.5 177v711h168v-652q0 -99 31 -173t84 -115.5t115 -61.5t132 -20q97 0 178 34.5t132 90.5t78.5 124t27.5 138v635h168v-779
q0 -124 10 -199.5t35 -154.5h-170q-35 109 -35 201h-4q-74 -119 -193.5 -177.5t-269.5 -58.5z" />
    <glyph glyph-name="Uogonek" unicode="&#x172;" horiz-adv-x="1847" 
d="M1434 596v1001h180v-1011q0 -117 -33 -218.5t-99.5 -185t-177 -138.5t-255.5 -71q-71 -36 -108.5 -82t-37.5 -94q0 -66 60.5 -108.5t152.5 -42.5q51 0 105 12v-107q-66 -14 -121 -14q-141 0 -234.5 62t-93.5 172q0 112 129 194q-321 4 -494.5 170t-173.5 451v1011h181
v-1001q0 -240 134 -358.5t376 -118.5t376 118t134 359z" />
    <glyph glyph-name="uogonek" unicode="&#x173;" horiz-adv-x="1533" 
d="M1329 -350q52 0 107 14v-113q-63 -14 -123 -14q-137 0 -229.5 62.5t-92.5 169.5q0 141 199 231h-2q-35 109 -35 201h-4q-74 -119 -193.5 -177.5t-269.5 -58.5q-75 0 -143.5 14.5t-132 49t-110 86t-74 130.5t-27.5 177v711h168v-652q0 -99 31 -173t84 -115.5t115 -61.5
t132 -20q97 0 178 34.5t132 90.5t78.5 124t27.5 138v635h168v-779q0 -124 10 -199.5t35 -154.5h-31q-205 -80 -205 -203q0 -66 59.5 -106.5t147.5 -40.5z" />
    <glyph glyph-name="Wcircumflex" unicode="&#x174;" horiz-adv-x="2795" 
d="M1503 2036l322 -314h-158q-211 163 -268 211q-80 -67 -271 -211h-157l321 314h211zM879 0h-217l-617 1597h193q325 -804 534 -1374h4q446 1176 520 1374h201l528 -1374h7q367 977 526 1374h192l-616 -1597h-217q-219 544 -516 1354h-4q-312 -847 -518 -1354z" />
    <glyph glyph-name="wcircumflex" unicode="&#x175;" horiz-adv-x="2234" 
d="M809 1278h-160l357 360h217l356 -360h-160q-239 198 -305 256q-156 -136 -305 -256zM715 0h-178l-494 1133h186l402 -924h6l397 924h168l408 -924h6l389 924h186l-489 -1133h-184q-14 33 -86.5 195t-100.5 226.5t-89 209.5t-122 295h-6q-180 -443 -399 -926z" />
    <glyph glyph-name="Ycircumflex" unicode="&#x176;" horiz-adv-x="1693" 
d="M952 2036l322 -314h-158q-211 163 -268 211q-90 -75 -270 -211h-158l321 314h211zM936 0h-178v582q-617 882 -713 1015h195q101 -142 302.5 -428t303.5 -428h4q305 435 608 856h191l-713 -1015v-582z" />
    <glyph glyph-name="ycircumflex" unicode="&#x177;" horiz-adv-x="1339" 
d="M350 1278h-160l357 360h217l356 -360h-159q-255 211 -306 256q-156 -136 -305 -256zM543 -451h-160l205 431l-551 1153h186q68 -139 447 -947h4q64 135 213 456.5t231 490.5h185z" />
    <glyph glyph-name="Ydieresis" unicode="&#x178;" horiz-adv-x="1693" 
d="M608 1780q-56 0 -94.5 33.5t-38.5 84.5q0 46 39 80.5t94 34.5t93 -34.5t38 -80.5q0 -51 -37.5 -84.5t-93.5 -33.5zM1087 1780q-58 0 -96.5 33.5t-38.5 84.5q0 47 39 81t96 34q52 0 91 -34.5t39 -80.5q0 -50 -38.5 -84t-91.5 -34zM936 0h-178v582q-617 882 -713 1015h195
q101 -142 302.5 -428t303.5 -428h4q305 435 608 856h191l-713 -1015v-582z" />
    <glyph glyph-name="Zacute" unicode="&#x179;" horiz-adv-x="1622" 
d="M1241 2050l-407 -328h-156l311 328h252zM1542 0h-1466v162l1224 1282v4q-393 -2 -1179 -2v151h1401v-157q-900 -935 -1229 -1280v-4h1249v-156z" />
    <glyph glyph-name="zacute" unicode="&#x17a;" horiz-adv-x="1202" 
d="M1038 1669l-372 -391h-150l293 391h229zM1139 0h-1065v123l782 866h-739v144h966v-123l-786 -867h842v-143z" />
    <glyph glyph-name="Zdotaccent" unicode="&#x17b;" horiz-adv-x="1622" 
d="M788 1782q-58 0 -98.5 36t-40.5 89q0 50 40.5 84t98.5 34t98 -34t40 -84q0 -53 -40 -89t-98 -36zM1542 0h-1466v162l1224 1282v4q-393 -2 -1179 -2v151h1401v-157q-900 -935 -1229 -1280v-4h1249v-156z" />
    <glyph glyph-name="zdotaccent" unicode="&#x17c;" horiz-adv-x="1202" 
d="M604 1405q-60 0 -99.5 36t-39.5 89q0 50 40 85.5t99 35.5q57 0 96 -35.5t39 -85.5q0 -53 -39 -89t-96 -36zM1139 0h-1065v123l782 866h-739v144h966v-123l-786 -867h842v-143z" />
    <glyph glyph-name="Zcaron" unicode="&#x17d;" horiz-adv-x="1622" 
d="M1049 2036h157l-321 -314h-213l-320 314h158q232 -182 270 -215q145 121 269 215zM1542 0h-1466v162l1224 1282v4q-393 -2 -1179 -2v151h1401v-157q-900 -935 -1229 -1280v-4h1249v-156z" />
    <glyph glyph-name="zcaron" unicode="&#x17e;" horiz-adv-x="1202" 
d="M709 1284h-217l-357 365h160q171 -139 305 -256q68 60 305 256h160zM1139 0h-1065v123l782 866h-739v144h966v-123l-786 -867h842v-143z" />
    <glyph glyph-name="uni0218" unicode="&#x218;" horiz-adv-x="1587" 
d="M817 -35q-113 0 -219 25.5t-205.5 79t-177.5 147t-119 217.5l166 55q59 -182 210 -276t347 -94q83 0 162 17.5t147 51.5t109 93t41 135q0 54 -24.5 97.5t-52.5 69t-89.5 50.5t-94.5 34t-108 28q-26 7 -39 10l-178 47q-51 13 -87 23.5t-95 32.5t-101.5 44.5t-91.5 58.5
t-79.5 75.5t-51 94.5t-20.5 117q0 104 53 188t141.5 136t198.5 80t229 28q227 0 399 -101.5t234 -279.5l-161 -61q-54 135 -182 213t-308 78q-176 0 -297 -74t-121 -193q0 -42 17.5 -79.5t41 -64.5t65 -52.5t71.5 -40.5t79 -31.5t69.5 -22t60.5 -16.5l188 -51
q182 -49 249 -76q219 -87 264 -246q13 -44 13 -94q0 -139 -90 -248.5t-238 -167t-325 -57.5zM760 -537h-86l119 199q-105 26 -105 111q0 47 38 79.5t93 32.5q54 0 91.5 -32.5t37.5 -79.5q0 -39 -29.5 -86.5t-130.5 -185.5q-6 -8 -9.5 -12.5t-8.5 -12t-10 -13.5z" />
    <glyph glyph-name="uni0219" unicode="&#x219;" horiz-adv-x="1220" 
d="M641 -35q-199 0 -352 87.5t-207 230.5l158 47q50 -104 163 -168t238 -64q47 0 96 10t98 31t80 60.5t31 91.5q0 37 -18 66.5t-42 47.5t-67.5 34.5t-73.5 24.5t-81 19l-132 31q-36 9 -61 16t-69 23t-75 32t-68 42.5t-60 56.5t-38.5 71.5t-15.5 88.5q0 78 40 141
t105.5 101.5t144 58.5t159.5 20q171 0 303.5 -79t177.5 -199l-160 -49q-37 82 -125.5 138t-211.5 56q-113 0 -187 -48t-74 -128q0 -39 21.5 -71.5t50 -53.5t76 -40t81 -28.5t83.5 -21.5l129 -31q38 -9 61.5 -14.5t66.5 -19.5t71 -28t62.5 -38t55 -51t35 -65.5t14.5 -82.5
q0 -149 -135 -247.5t-348 -98.5zM578 -537h-86l118 199q-53 13 -78.5 42.5t-25.5 68.5q0 47 38 79.5t93 32.5q54 0 91.5 -32.5t37.5 -79.5q0 -39 -29.5 -86.5t-130.5 -185.5q-6 -8 -9.5 -12.5t-8.5 -12t-10 -13.5z" />
    <glyph glyph-name="uni021A" unicode="&#x21a;" horiz-adv-x="1560" 
d="M870 0h-178v1446h-655v151h1487v-151h-654v-1446zM715 -537h-86l119 199q-105 26 -105 111q0 47 38 79.5t93 32.5q54 0 91.5 -32.5t37.5 -79.5q0 -39 -29.5 -86.5t-130.5 -185.5q-6 -8 -9.5 -12.5t-8.5 -12t-10 -13.5z" />
    <glyph glyph-name="uni021B" unicode="&#x21b;" horiz-adv-x="940" 
d="M633 -35q-54 0 -99.5 9t-77.5 23t-58 37.5t-42 44.5t-27.5 53t-17 54.5t-8.5 56.5t-3.5 51.5t-0.5 47.5v651h-270v140h270v333h168v-333h416v-140h-416v-604v-43t2 -42.5t5 -44t9.5 -39.5t16 -37.5t24 -30.5t33.5 -25.5t45 -14.5t57 -6q110 0 224 60v-146
q-104 -55 -250 -55zM485 -537h-86l119 199q-53 13 -78.5 42.5t-25.5 68.5q0 47 38 79.5t93 32.5q54 0 91.5 -32.5t37.5 -79.5q0 -38 -30 -86.5t-123 -175.5q-8 -10 -12 -15.5t-11 -15t-13 -17.5z" />
    <glyph glyph-name="gravecomb" unicode="&#x300;" horiz-adv-x="0" 
d="M-117 1278h-149l-373 391h227z" />
    <glyph glyph-name="acutecomb" unicode="&#x301;" horiz-adv-x="0" 
d="M115 1669l-375 -391h-150l293 391h232z" />
    <glyph glyph-name="uni0302" unicode="&#x302;" horiz-adv-x="0" 
d="M-805 1278h-160l357 360h217l356 -360h-160q-239 198 -305 256q-156 -136 -305 -256z" />
    <glyph glyph-name="tildecomb" unicode="&#x303;" horiz-adv-x="0" 
d="M-379 1335q-45 0 -83.5 11.5t-54.5 21t-49 33.5l-9 6l-50 33q-64 49 -118 49q-55 0 -90 -39t-35 -98h-129q1 115 73 186.5t183 71.5q50 0 89 -16.5t89 -49.5l51 -35q69 -51 131 -51q54 0 84.5 38.5t30.5 98.5h131q0 -121 -64.5 -190.5t-179.5 -69.5z" />
    <glyph glyph-name="uni0304" unicode="&#x304;" horiz-adv-x="0" 
d="M-109 1399h-825v125h825v-125z" />
    <glyph glyph-name="uni0306" unicode="&#x306;" horiz-adv-x="0" 
d="M-489 1274q-204 0 -322.5 110.5t-126.5 284.5h150q5 -119 87 -194.5t214 -75.5q130 0 213.5 74t89.5 196h149q-8 -174 -127.5 -284.5t-326.5 -110.5z" />
    <glyph glyph-name="uni0307" unicode="&#x307;" horiz-adv-x="0" 
d="M-295 1399q-60 0 -99.5 36t-39.5 89q0 50 40 85.5t99 35.5q57 0 96 -35.5t39 -85.5q0 -53 -39 -89t-96 -36z" />
    <glyph glyph-name="uni0308" unicode="&#x308;" horiz-adv-x="0" 
d="M-1001 1362q-54 0 -91.5 34t-37.5 83q0 45 37.5 77.5t91.5 32.5t90.5 -32.5t36.5 -77.5q0 -50 -36 -83.5t-91 -33.5zM-561 1362q-56 0 -92.5 33.5t-36.5 83.5q0 45 36.5 77.5t92.5 32.5q52 0 89.5 -32.5t37.5 -77.5q0 -49 -37 -83t-90 -34z" />
    <glyph glyph-name="uni030A" unicode="&#x30a;" horiz-adv-x="0" 
d="M-293 1249q-118 0 -196 63.5t-78 160.5t77.5 160t196.5 63q115 0 192.5 -63.5t77.5 -159.5q0 -97 -77.5 -160.5t-192.5 -63.5zM-293 1352q65 0 108.5 33.5t43.5 87.5q0 53 -43.5 85.5t-108.5 32.5q-67 0 -111.5 -32.5t-44.5 -85.5q0 -55 44.5 -88t111.5 -33z" />
    <glyph glyph-name="uni030B" unicode="&#x30b;" horiz-adv-x="0" 
d="M-205 1673l-336 -395h-147l258 395h225zM197 1673l-361 -395h-147l278 395h230z" />
    <glyph glyph-name="uni030C" unicode="&#x30c;" horiz-adv-x="0" 
d="M-391 1278h-217l-357 364h160q171 -139 305 -256q68 60 305 256h160z" />
    <glyph glyph-name="uni0312" unicode="&#x312;" horiz-adv-x="0" 
d="M-508 1317q0 39 29.5 88.5t134.5 198.5q10 14 16 22t15.5 21.5t17.5 25.5h109l-148 -246q40 -14 63 -42t23 -66q0 -47 -38 -80t-93 -33q-54 0 -91.5 32.5t-37.5 78.5z" />
    <glyph glyph-name="uni0326" unicode="&#x326;" horiz-adv-x="0" 
d="M-397 -537h-86l118 199q-53 13 -78.5 42.5t-25.5 68.5q0 47 38 79.5t93 32.5q54 0 91.5 -32.5t37.5 -79.5q0 -39 -29.5 -86.5t-130.5 -185.5q-18 -25 -28 -38z" />
    <glyph glyph-name="uni0327" unicode="&#x327;" horiz-adv-x="0" 
d="M-768 -496q-89 0 -170.5 31t-134.5 84l69 66q39 -43 101.5 -68t126.5 -25q68 0 115 28.5t47 72.5q0 42 -42 69t-106 27q-62 0 -117 -25l-67 54l143 182h117l-127 -152q34 17 96 17q98 0 161.5 -47t63.5 -123q0 -85 -78 -138t-198 -53z" />
    <glyph glyph-name="uni0328" unicode="&#x328;" horiz-adv-x="0" 
d="M-770 -483q-137 0 -229.5 62t-92.5 169q0 142 199 232h137q-205 -80 -205 -203q0 -66 59.5 -107t147.5 -41q48 0 107 15v-113q-63 -14 -123 -14z" />
    <glyph glyph-name="uni0335" unicode="&#x335;" horiz-adv-x="0" 
d="M-893 629h832v-125h-832v125z" />
    <glyph glyph-name="uni0337" unicode="&#x337;" horiz-adv-x="0" 
d="M-586 506v139l652 399v-139z" />
    <glyph glyph-name="uni0338" unicode="&#x338;" horiz-adv-x="0" 
d="M-1221 -59h-188l1106 1239h180z" />
    <glyph glyph-name="Wgrave" unicode="&#x1e80;" horiz-adv-x="2795" 
d="M1511 1722h-155l-408 328h252zM879 0h-217l-617 1597h193q325 -804 534 -1374h4q446 1176 520 1374h201l528 -1374h7q367 977 526 1374h192l-616 -1597h-217q-219 544 -516 1354h-4q-312 -847 -518 -1354z" />
    <glyph glyph-name="wgrave" unicode="&#x1e81;" horiz-adv-x="2234" 
d="M1196 1278h-149l-373 391h227zM715 0h-178l-494 1133h186l402 -924h6l397 924h168l408 -924h6l389 924h186l-489 -1133h-184q-14 33 -86.5 195t-100.5 226.5t-89 209.5t-122 295h-6q-180 -443 -399 -926z" />
    <glyph glyph-name="Wacute" unicode="&#x1e82;" horiz-adv-x="2795" 
d="M1860 2050l-408 -328h-156l312 328h252zM879 0h-217l-617 1597h193q325 -804 534 -1374h4q446 1176 520 1374h201l528 -1374h7q367 977 526 1374h192l-616 -1597h-217q-219 544 -516 1354h-4q-312 -847 -518 -1354z" />
    <glyph glyph-name="wacute" unicode="&#x1e83;" horiz-adv-x="2234" 
d="M1552 1669l-372 -391h-150l293 391h229zM715 0h-178l-494 1133h186l402 -924h6l397 924h168l408 -924h6l389 924h186l-489 -1133h-184q-14 33 -86.5 195t-100.5 226.5t-89 209.5t-122 295h-6q-180 -443 -399 -926z" />
    <glyph glyph-name="Wdieresis" unicode="&#x1e84;" horiz-adv-x="2795" 
d="M1159 1780q-56 0 -94.5 33.5t-38.5 84.5q0 46 39 80.5t94 34.5t93 -34.5t38 -80.5q0 -51 -37.5 -84.5t-93.5 -33.5zM1638 1780q-58 0 -96.5 33.5t-38.5 84.5q0 47 39 81t96 34q52 0 90.5 -34.5t38.5 -80.5q0 -50 -38 -84t-91 -34zM879 0h-217l-617 1597h193
q325 -804 534 -1374h4q446 1176 520 1374h201l528 -1374h7q367 977 526 1374h192l-616 -1597h-217q-219 544 -516 1354h-4q-312 -847 -518 -1354z" />
    <glyph glyph-name="wdieresis" unicode="&#x1e85;" horiz-adv-x="2234" 
d="M895 1362q-54 0 -91.5 34t-37.5 83q0 45 37.5 77.5t91.5 32.5t90.5 -32.5t36.5 -77.5q0 -50 -36 -83.5t-91 -33.5zM1335 1362q-56 0 -92.5 33.5t-36.5 83.5q0 45 36.5 77.5t92.5 32.5q52 0 89.5 -32.5t37.5 -77.5q0 -49 -37 -83t-90 -34zM715 0h-178l-494 1133h186
l402 -924h6l397 924h168l408 -924h6l389 924h186l-489 -1133h-184q-14 33 -86.5 195t-100.5 226.5t-89 209.5t-122 295h-6q-180 -443 -399 -926z" />
    <glyph glyph-name="uni1E9E" unicode="&#x1e9e;" horiz-adv-x="1837" 
d="M414 0h-181v934q0 64 4 116.5t20 128t43.5 133.5t80.5 120.5t125.5 103.5t183 67.5t248.5 26.5q313 0 498.5 -122.5t185.5 -331.5q0 -146 -92.5 -243t-249.5 -124v-2q84 -5 160.5 -33t137 -75.5t96.5 -120t36 -158.5q0 -60 -16.5 -115t-62.5 -112t-118 -98.5t-191.5 -68
t-274.5 -26.5h-213v152h243q121 0 210.5 23t139 63t72.5 87.5t23 104.5q0 137 -123 213t-322 76h-131v151h137q28 0 60 4.5t74.5 14.5t79.5 31t70 50.5t52 77t19 105.5q0 156 -134.5 244t-363.5 88q-85 0 -156.5 -13.5t-122.5 -33.5t-91.5 -53.5t-65.5 -64t-43.5 -74.5
t-27 -75t-13.5 -75.5t-5.5 -66t-0.5 -57.5v-3v-969z" />
    <glyph glyph-name="Ygrave" unicode="&#x1ef2;" horiz-adv-x="1693" 
d="M961 1722h-156l-408 328h252zM936 0h-178v582q-617 882 -713 1015h195q101 -142 302.5 -428t303.5 -428h4q305 435 608 856h191l-713 -1015v-582z" />
    <glyph glyph-name="ygrave" unicode="&#x1ef3;" horiz-adv-x="1339" 
d="M737 1278h-149l-373 391h227zM543 -451h-160l205 431l-551 1153h186q68 -139 447 -947h4q64 135 213 456.5t231 490.5h185z" />
    <glyph glyph-name="uni2000" unicode="&#x2000;" horiz-adv-x="1228" 
 />
    <glyph glyph-name="uni2001" unicode="&#x2001;" 
 />
    <glyph glyph-name="uni2002" unicode="&#x2002;" horiz-adv-x="1228" 
 />
    <glyph glyph-name="uni2003" unicode="&#x2003;" 
 />
    <glyph glyph-name="uni2004" unicode="&#x2004;" horiz-adv-x="819" 
 />
    <glyph glyph-name="uni2005" unicode="&#x2005;" horiz-adv-x="614" 
 />
    <glyph glyph-name="uni2006" unicode="&#x2006;" horiz-adv-x="409" 
 />
    <glyph glyph-name="uni2007" unicode="&#x2007;" horiz-adv-x="667" 
 />
    <glyph glyph-name="uni2008" unicode="&#x2008;" horiz-adv-x="577" 
 />
    <glyph glyph-name="uni2009" unicode="&#x2009;" horiz-adv-x="307" 
 />
    <glyph glyph-name="uni200A" unicode="&#x200a;" horiz-adv-x="102" 
 />
    <glyph glyph-name="uni200B" unicode="&#x200b;" horiz-adv-x="0" 
 />
    <glyph glyph-name="endash" unicode="&#x2013;" horiz-adv-x="1214" 
d="M1069 557h-924v135h924v-135z" />
    <glyph glyph-name="emdash" unicode="&#x2014;" horiz-adv-x="1728" 
d="M1585 559h-1440v129h1440v-129z" />
    <glyph glyph-name="quoteleft" unicode="&#x2018;" horiz-adv-x="559" 
d="M348 1632h107l-152 -258q43 -13 67.5 -44t24.5 -70q0 -49 -41 -84t-98 -35t-97 34.5t-40 84.5q0 42 39.5 104.5t189.5 267.5z" />
    <glyph glyph-name="quoteright" unicode="&#x2019;" horiz-adv-x="571" 
d="M248 1149h-111l156 258q-44 13 -68 44t-24 71q0 50 40.5 84t98.5 34q56 0 96.5 -34.5t40.5 -83.5q0 -40 -36 -98t-167 -239q-17 -24 -26 -36z" />
    <glyph glyph-name="quotesinglbase" unicode="&#x201a;" horiz-adv-x="544" 
d="M188 -262h-108l153 258q-43 13 -67.5 45t-24.5 70q0 51 41 85.5t99 34.5q57 0 97 -34.5t40 -83.5q0 -38 -32.5 -91.5t-158.5 -228.5q-8 -12 -12.5 -18.5t-12.5 -17t-14 -19.5z" />
    <glyph glyph-name="quotedblleft" unicode="&#x201c;" horiz-adv-x="948" 
d="M348 1632h107l-152 -258q43 -13 67.5 -44t24.5 -70q0 -49 -41 -84t-98 -35t-97 34.5t-40 84.5q0 42 39.5 104.5t189.5 267.5zM686 1632h107l-152 -258q43 -13 66.5 -44t23.5 -70q0 -50 -40.5 -84.5t-98.5 -34.5q-56 0 -95.5 35t-39.5 84q0 42 39.5 104.5t189.5 267.5z
" />
    <glyph glyph-name="quotedblright" unicode="&#x201d;" horiz-adv-x="958" 
d="M246 1149h-109l154 258q-43 13 -67.5 44.5t-24.5 70.5q0 49 41 83.5t98 34.5t97 -34.5t40 -83.5q0 -40 -36 -98t-167 -239q-17 -24 -26 -36zM637 1149h-109l152 258q-42 13 -66 44t-24 71q0 49 41 83.5t98 34.5q56 0 95.5 -34.5t39.5 -83.5q0 -44 -49 -120
q-22 -35 -178 -253z" />
    <glyph glyph-name="quotedblbase" unicode="&#x201e;" horiz-adv-x="933" 
d="M188 -254h-108l153 258q-43 13 -67.5 44.5t-24.5 70.5q0 49 41.5 85t98.5 36t97 -34.5t40 -84.5q0 -41 -39 -103t-191 -272zM580 -254h-109l152 258q-43 13 -67 44t-24 71q0 49 41.5 85t98.5 36q56 0 95.5 -35t39.5 -84q0 -41 -32.5 -94.5t-152.5 -221.5q-27 -38 -42 -59
z" />
    <glyph glyph-name="dagger" unicode="&#x2020;" horiz-adv-x="1191" 
d="M676 1300h409v-133h-409v-737h-162v737h-405v133h405v338h162v-338z" />
    <glyph glyph-name="daggerdbl" unicode="&#x2021;" horiz-adv-x="1304" 
d="M1139 1300v-133h-404v-288h404v-134h-404v-335h-160v335h-407v134h407v288h-407v133h407v338h160v-338h404z" />
    <glyph glyph-name="bullet" unicode="&#x2022;" horiz-adv-x="950" 
d="M477 430q-103 0 -174.5 64.5t-71.5 156.5q0 88 71.5 149.5t174.5 61.5q98 0 168 -61.5t70 -149.5q0 -92 -69.5 -156.5t-168.5 -64.5z" />
    <glyph glyph-name="ellipsis" unicode="&#x2026;" horiz-adv-x="1622" 
d="M291 -14q-58 0 -98.5 36t-40.5 89q0 51 40 85.5t99 34.5q56 0 94.5 -34.5t38.5 -85.5q0 -52 -38.5 -88.5t-94.5 -36.5zM735 -14q-58 0 -98.5 36t-40.5 89q0 51 40 85.5t99 34.5q56 0 94.5 -34.5t38.5 -85.5q0 -52 -38.5 -88.5t-94.5 -36.5zM1337 -14q-58 0 -98.5 36
t-40.5 89q0 51 40 85.5t99 34.5q56 0 94.5 -34.5t38.5 -85.5q0 -52 -38.5 -88.5t-94.5 -36.5z" />
    <glyph glyph-name="uni202F" unicode="&#x202f;" horiz-adv-x="483" 
 />
    <glyph glyph-name="perthousand" unicode="&#x2030;" horiz-adv-x="2875" 
d="M420 780q-147 0 -236.5 104t-89.5 269q0 167 89.5 272t236.5 105t237.5 -105.5t90.5 -271.5q0 -164 -90.5 -268.5t-237.5 -104.5zM424 0h-160l1366 1468h152zM420 897q81 0 130.5 67.5t49.5 188.5t-49.5 189.5t-130.5 68.5t-130.5 -68.5t-49.5 -189.5t49.5 -188.5
t130.5 -67.5zM1616 -29q-147 0 -236.5 104t-89.5 269q0 167 89.5 272t236.5 105t237.5 -105.5t90.5 -271.5q0 -164 -90.5 -268.5t-237.5 -104.5zM2456 -29q-147 0 -236.5 104t-89.5 269q0 167 89.5 272t236.5 105t237 -105.5t90 -271.5q0 -164 -90 -268.5t-237 -104.5z
M1616 88q81 0 130.5 67.5t49.5 188.5t-49.5 189.5t-130.5 68.5t-130.5 -68.5t-49.5 -189.5t49.5 -188.5t130.5 -67.5zM2456 88q81 0 130.5 67.5t49.5 188.5t-49.5 189.5t-130.5 68.5t-131 -68.5t-50 -189.5t50 -188.5t131 -67.5z" />
    <glyph glyph-name="guilsinglleft" unicode="&#x2039;" horiz-adv-x="911" 
d="M748 164h-201l-416 405v9l416 405h201l-416 -405v-9z" />
    <glyph glyph-name="guilsinglright" unicode="&#x203a;" horiz-adv-x="911" 
d="M365 164h-201l416 405v9l-416 405h201l415 -405v-9z" />
    <glyph glyph-name="fraction" unicode="&#x2044;" horiz-adv-x="356" 
d="M-416 0h-162l1369 1468h151z" />
    <glyph glyph-name="uni205F" unicode="&#x205f;" horiz-adv-x="544" 
 />
    <glyph glyph-name="uni2070" unicode="&#x2070;" horiz-adv-x="839" 
d="M420 780q-147 0 -236.5 104t-89.5 269q0 167 89.5 272t236.5 105t237.5 -105.5t90.5 -271.5q0 -164 -90.5 -268.5t-237.5 -104.5zM420 897q81 0 130.5 67.5t49.5 188.5t-49.5 189.5t-130.5 68.5t-130.5 -68.5t-49.5 -189.5t49.5 -188.5t130.5 -67.5z" />
    <glyph glyph-name="uni2074" unicode="&#x2074;" horiz-adv-x="798" 
d="M606 797h-133v153h-418v107l420 456h131v-456h115v-107h-115v-153zM473 1350l-280 -293h280v293z" />
    <glyph glyph-name="uni2075" unicode="&#x2075;" horiz-adv-x="784" 
d="M379 780q-112 0 -199.5 43.5t-118.5 120.5l121 57q24 -53 79 -82.5t120 -29.5q75 0 124.5 40t49.5 101t-48.5 99t-119.5 38q-55 0 -98 -21.5t-66 -55.5l-112 28l98 395h442v-104h-344l-55 -209q27 28 78.5 45t103.5 17q68 0 127.5 -24.5t100 -78.5t40.5 -127
q0 -113 -93.5 -182.5t-229.5 -69.5z" />
    <glyph glyph-name="uni2076" unicode="&#x2076;" horiz-adv-x="819" 
d="M418 780q-146 0 -236 88.5t-90 245.5q0 181 114 298.5t290 117.5q137 0 215 -70l-74 -84q-60 43 -148 43q-109 0 -181 -67.5t-79 -188.5h2q27 46 89 73.5t129 27.5q116 0 200 -65.5t84 -168.5q0 -107 -90 -178.5t-225 -71.5zM424 887q72 0 124 41t52 104q0 62 -50.5 102
t-121.5 40q-77 0 -127.5 -41.5t-50.5 -102.5t51 -102t123 -41z" />
    <glyph glyph-name="uni2077" unicode="&#x2077;" horiz-adv-x="679" 
d="M326 797h-146q0 136 84 317t221 297h-440v109h600v-111q-147 -108 -233 -285.5t-86 -326.5z" />
    <glyph glyph-name="uni2078" unicode="&#x2078;" horiz-adv-x="802" 
d="M401 780q-139 0 -226 61.5t-87 151.5q0 67 46 115.5t112 62.5v5q-123 50 -123 151q0 87 79.5 145t198.5 58q117 0 197 -56.5t80 -146.5q0 -47 -30 -87t-93 -64v-5q68 -16 113 -63.5t45 -112.5q0 -91 -87 -153t-225 -62zM403 1219q62 0 105 31.5t43 78.5q0 45 -43 75
t-105 30q-64 0 -106.5 -30t-42.5 -75q0 -46 42.5 -78t106.5 -32zM403 891q71 0 119.5 34.5t48.5 88.5q0 55 -45.5 88t-122.5 33q-81 0 -126.5 -33t-45.5 -88q0 -53 49.5 -88t122.5 -35z" />
    <glyph glyph-name="uni2079" unicode="&#x2079;" horiz-adv-x="825" 
d="M369 780q-77 0 -150.5 25.5t-124.5 77.5l80 82q78 -78 195 -78q108 0 165.5 74.5t57.5 185.5q-25 -50 -87.5 -78.5t-133.5 -28.5q-116 0 -198.5 65.5t-82.5 168.5q0 110 90 183t230 73q66 0 122 -19t101.5 -58t71.5 -106.5t26 -156.5q0 -83 -22 -156t-65.5 -130.5
t-114 -90.5t-160.5 -33zM395 1128q75 0 127.5 45.5t52.5 110.5q0 64 -51 103.5t-123 39.5q-77 0 -128.5 -42t-51.5 -107q0 -64 50 -107t124 -43z" />
    <glyph glyph-name="uni2080" unicode="&#x2080;" horiz-adv-x="839" 
d="M420 -285q-147 0 -236.5 104t-89.5 269q0 167 89.5 272t236.5 105t237.5 -105.5t90.5 -271.5q0 -164 -90.5 -268.5t-237.5 -104.5zM420 -168q81 0 130.5 67.5t49.5 188.5t-49.5 189.5t-130.5 68.5t-130.5 -68.5t-49.5 -189.5t49.5 -188.5t130.5 -67.5z" />
    <glyph glyph-name="uni2081" unicode="&#x2081;" horiz-adv-x="542" 
d="M381 -270h-135v510q-73 -66 -187 -84v129q84 20 136.5 65.5t52.5 98.5h133v-719z" />
    <glyph glyph-name="uni2082" unicode="&#x2082;" horiz-adv-x="774" 
d="M678 -270h-578v14q4 65 20.5 111t55 85.5t80.5 68t123 73.5q33 19 52 32t46.5 35.5t41 47t13.5 51.5q0 44 -40 73t-105 29q-79 0 -128.5 -44.5t-49.5 -117.5l-127 19q0 114 87 186t220 72q123 0 205 -60.5t82 -156.5q0 -124 -162 -213q-18 -11 -57.5 -32t-60 -33.5
t-47.5 -32.5t-43.5 -41.5t-24.5 -47.5h397v-118z" />
    <glyph glyph-name="uni2083" unicode="&#x2083;" horiz-adv-x="786" 
d="M383 -285q-114 0 -199.5 45t-111.5 119l121 55q24 -53 73 -82.5t117 -29.5q71 0 117.5 31.5t46.5 85.5q0 53 -47.5 81.5t-132.5 28.5h-84v92h90q70 0 113.5 30.5t43.5 76.5q0 48 -44 77t-109 29q-64 0 -108.5 -31t-53.5 -85l-125 24q12 88 96.5 145.5t202.5 57.5
q116 0 197.5 -53t81.5 -138q0 -57 -37 -103.5t-101 -59.5v-2q70 -11 116 -57t46 -113q0 -90 -83 -157t-226 -67z" />
    <glyph glyph-name="uni2084" unicode="&#x2084;" horiz-adv-x="798" 
d="M606 -270h-133v155h-418v107l420 457h131v-457h115v-107h-115v-155zM473 285l-280 -293h280v293z" />
    <glyph glyph-name="uni2085" unicode="&#x2085;" horiz-adv-x="784" 
d="M379 -285q-112 0 -199.5 43.5t-118.5 120.5l121 58q24 -53 79.5 -83t119.5 -30q75 0 124.5 39t49.5 100q0 63 -48.5 101t-119.5 38q-55 0 -98 -21.5t-66 -55.5l-112 28l98 396h442v-105h-344l-55 -209q27 28 78.5 45t103.5 17q68 0 127.5 -24.5t100 -78.5t40.5 -127
q0 -114 -93.5 -183t-229.5 -69z" />
    <glyph glyph-name="uni2086" unicode="&#x2086;" horiz-adv-x="819" 
d="M418 -285q-146 0 -236 88.5t-90 245.5q0 181 114 298.5t290 117.5q137 0 215 -70l-74 -84q-60 43 -148 43q-109 0 -181 -67.5t-79 -188.5h2q27 46 89 73.5t129 27.5q116 0 200 -66t84 -170q0 -106 -90 -177t-225 -71zM424 -178q72 0 124 41t52 104q0 62 -50.5 102
t-121.5 40q-77 0 -127.5 -42t-50.5 -104q0 -59 51.5 -100t122.5 -41z" />
    <glyph glyph-name="uni2087" unicode="&#x2087;" horiz-adv-x="679" 
d="M326 -270h-146q0 138 84 319t221 297h-440v109h600v-111q-99 -73 -173.5 -185t-110 -223t-35.5 -206z" />
    <glyph glyph-name="uni2088" unicode="&#x2088;" horiz-adv-x="802" 
d="M401 -285q-139 0 -226 61t-87 150q0 69 46 117.5t112 62.5v5q-123 50 -123 151q0 87 79.5 145t198.5 58q117 0 197 -56.5t80 -146.5q0 -47 -30 -87t-93 -64v-5q68 -16 113 -63.5t45 -112.5q0 -91 -87 -153t-225 -62zM403 154q62 0 105 31.5t43 78.5q0 45 -43 75t-105 30
q-64 0 -106.5 -30t-42.5 -75q0 -46 42.5 -78t106.5 -32zM403 -174q70 0 119 34t49 87q0 56 -45.5 89.5t-122.5 33.5q-81 0 -126.5 -33.5t-45.5 -89.5q0 -53 49.5 -87t122.5 -34z" />
    <glyph glyph-name="uni2089" unicode="&#x2089;" horiz-adv-x="825" 
d="M369 -285q-77 0 -150.5 25.5t-124.5 77.5l80 82q80 -80 195 -80q108 0 165.5 75t57.5 187q-25 -50 -87.5 -78.5t-133.5 -28.5q-116 0 -198.5 65.5t-82.5 168.5q0 110 90 183t230 73q66 0 122 -19t101.5 -58t71.5 -106.5t26 -156.5q0 -84 -22 -157t-65.5 -130t-114 -90
t-160.5 -33zM395 63q75 0 127.5 45.5t52.5 110.5q0 64 -51 103.5t-123 39.5q-77 0 -128.5 -42t-51.5 -107q0 -64 50 -107t124 -43z" />
    <glyph glyph-name="Euro" unicode="&#x20ac;" horiz-adv-x="1955" 
d="M1731 246l114 -117q-225 -164 -569 -164q-342 0 -567 155.5t-297 420.5h-269v110h248q-8 52 -8 123q0 56 6 111h-246v110h267q33 130 103.5 237.5t175.5 187.5t251.5 124.5t319.5 44.5q351 0 567 -164l-127 -118q-177 129 -443 129q-259 0 -429 -118t-228 -323h793v-110
h-818q-6 -53 -6 -111q0 -64 9 -123h815v-110h-789q65 -201 239 -311.5t429 -110.5q276 0 459 127z" />
    <glyph glyph-name="trademark" unicode="&#x2122;" horiz-adv-x="1871" 
d="M479 936h-121v580h-266v100h649v-100h-262v-580zM1004 936h-123v680h123q155 -302 270 -520q236 467 264 520h123v-680h-123v446l-223 -434h-90q-203 403 -221 438v-450z" />
    <glyph glyph-name="oneeighth" unicode="&#x215b;" horiz-adv-x="1699" 
d="M381 797h-135v508q-73 -66 -187 -84v129q85 20 137 65t52 98h133v-716zM127 0h-162l1368 1468h152zM1300 -29q-139 0 -226 61.5t-87 151.5q0 67 46 115.5t112 62.5v5q-123 50 -123 151q0 87 79.5 145t198.5 58q117 0 197 -56.5t80 -146.5q0 -47 -30 -87t-93 -64v-5
q68 -16 113 -63.5t45 -112.5q0 -91 -87 -153t-225 -62zM1303 410q62 0 104.5 31.5t42.5 78.5q0 45 -42.5 75t-104.5 30q-64 0 -107 -30.5t-43 -74.5q0 -46 43 -78t107 -32zM1303 82q71 0 119 34.5t48 88.5q0 55 -45 88t-122 33q-81 0 -127 -33t-46 -88q0 -53 50 -88t123 -35
z" />
    <glyph glyph-name="threeeighths" unicode="&#x215c;" horiz-adv-x="1943" 
d="M383 780q-113 0 -199 45.5t-112 118.5l121 55q24 -52 73 -82t117 -30q71 0 117.5 31.5t46.5 85.5q0 53 -47.5 81.5t-132.5 28.5h-84v92h90q70 0 113.5 30.5t43.5 76.5q0 48 -44 77t-109 29q-64 0 -108.5 -31t-53.5 -85l-125 24q12 88 96.5 145.5t202.5 57.5
q116 0 197.5 -53t81.5 -138q0 -57 -37 -103.5t-101 -59.5v-2q70 -11 116 -56.5t46 -111.5q0 -91 -83 -158.5t-226 -67.5zM371 0h-160l1366 1468h152zM1544 -29q-139 0 -226 61.5t-87 151.5q0 67 46 115.5t112 62.5v5q-123 50 -123 151q0 87 79.5 145t198.5 58
q117 0 197 -56.5t80 -146.5q0 -47 -30 -87t-93 -64v-5q68 -16 112.5 -63t44.5 -113q0 -91 -86.5 -153t-224.5 -62zM1546 410q62 0 105 31.5t43 78.5q0 45 -43 75t-105 30q-64 0 -106.5 -30t-42.5 -75q0 -46 42.5 -78t106.5 -32zM1546 82q71 0 119.5 34.5t48.5 88.5
q0 55 -45.5 88t-122.5 33q-81 0 -126.5 -33t-45.5 -88q0 -53 49.5 -88t122.5 -35z" />
    <glyph glyph-name="fiveeighths" unicode="&#x215d;" horiz-adv-x="1941" 
d="M379 780q-112 0 -199.5 43.5t-118.5 120.5l121 57q24 -53 79 -82.5t120 -29.5q75 0 124.5 40t49.5 101t-48.5 99t-119.5 38q-55 0 -98 -21.5t-66 -55.5l-112 28l98 395h442v-104h-344l-55 -209q27 28 78.5 45t103.5 17q68 0 127.5 -24.5t100 -78.5t40.5 -127
q0 -113 -93.5 -182.5t-229.5 -69.5zM369 0h-160l1366 1468h151zM1542 -29q-139 0 -226 61.5t-87 151.5q0 67 46 115.5t111 62.5v5q-122 50 -122 151q0 87 79.5 145t198.5 58q117 0 197 -56.5t80 -146.5q0 -47 -30 -87t-93 -64v-5q68 -16 112.5 -63t44.5 -113
q0 -91 -86.5 -153t-224.5 -62zM1544 410q62 0 105 31.5t43 78.5q0 45 -43 75t-105 30q-64 0 -106.5 -30t-42.5 -75q0 -46 42.5 -78t106.5 -32zM1544 82q71 0 119.5 34.5t48.5 88.5q0 55 -45.5 88t-122.5 33q-81 0 -126.5 -33t-45.5 -88q0 -53 49.5 -88t122.5 -35z" />
    <glyph glyph-name="seveneighths" unicode="&#x215e;" horiz-adv-x="1837" 
d="M326 797h-146q0 136 84 317t221 297h-440v109h600v-111q-147 -108 -233 -285.5t-86 -326.5zM264 0h-160l1366 1468h152zM1438 -29q-139 0 -226.5 61.5t-87.5 151.5q0 67 46 115.5t112 62.5v5q-123 50 -123 151q0 87 80 145t199 58q117 0 196.5 -56.5t79.5 -146.5
q0 -47 -30 -87t-93 -64v-5q68 -16 113 -63.5t45 -112.5q0 -91 -86.5 -153t-224.5 -62zM1440 410q62 0 104.5 31.5t42.5 78.5q0 45 -42.5 75t-104.5 30q-64 0 -107 -30.5t-43 -74.5q0 -46 43 -78t107 -32zM1440 82q71 0 119.5 34.5t48.5 88.5q0 55 -45.5 88t-122.5 33
q-81 0 -126.5 -33t-45.5 -88q0 -53 49.5 -88t122.5 -35z" />
    <glyph glyph-name="arrowleft" unicode="&#x2190;" horiz-adv-x="1703" 
d="M387 715h1167v-142h-1165l346 -337h-190l-408 405v8l408 406h190z" />
    <glyph glyph-name="arrowup" unicode="&#x2191;" horiz-adv-x="1187" 
d="M598 1202l487 -340v-168l-411 293v-967h-158v967l-414 -293v168l488 340h8z" />
    <glyph glyph-name="arrowright" unicode="&#x2192;" horiz-adv-x="1703" 
d="M969 1055h190l408 -406v-8l-408 -405h-190l346 337h-1165v142h1167z" />
    <glyph glyph-name="arrowdown" unicode="&#x2193;" horiz-adv-x="1189" 
d="M676 1202v-964l411 292v-170l-487 -340h-8l-488 340v170l412 -292v964h160z" />
    <glyph glyph-name="arrowboth" unicode="&#x2194;" horiz-adv-x="2134" 
d="M731 233h-188l-408 406v8l408 406h188l-356 -344h1382l-354 344h188l408 -406v-8l-408 -406h-188l354 340h-1380z" />
    <glyph glyph-name="arrowupdn" unicode="&#x2195;" horiz-adv-x="1304" 
d="M657 4h-8l-487 330v160l411 -279v961l-411 -281v162l487 329h8l488 -329v-162l-412 281v-959l412 277v-160z" />
    <glyph glyph-name="uni2196" unicode="&#x2196;" horiz-adv-x="1247" 
d="M1063 1036l84 -145l-506 47l483 -838l-135 -77l-483 835l-211 -459l-84 146l252 538l8 4z" />
    <glyph glyph-name="uni2197" unicode="&#x2197;" horiz-adv-x="1247" 
d="M786 1083l252 -538l-84 -146l-211 459l-483 -835l-137 77l485 838l-506 -47l84 145l592 51z" />
    <glyph glyph-name="uni2198" unicode="&#x2198;" horiz-adv-x="1245" 
d="M741 365l211 458l84 -145l-252 -539l-8 -4l-592 51l-84 146l504 -47l-483 837l137 78z" />
    <glyph glyph-name="uni2199" unicode="&#x2199;" horiz-adv-x="1245" 
d="M1124 1122l-481 -837l504 47l-84 -146l-592 -51l-8 4l-252 539l84 145l211 -458l483 835z" />
    <glyph glyph-name="emptyset" unicode="&#x2205;" horiz-adv-x="1705" 
d="M1477 1196l-150 -176q108 -82 166.5 -199t58.5 -254q0 -169 -87.5 -306t-248 -216.5t-364.5 -79.5q-200 0 -358 76l-152 -178l-113 71l152 177q-109 84 -168 201t-59 255q0 170 87.5 306.5t248 215t364.5 78.5q200 0 360 -77l150 176zM326 565q0 -99 41.5 -184.5
t117.5 -147.5l625 734q-112 53 -256 53q-230 0 -379 -131t-149 -324zM854 113q230 0 377 129.5t147 322.5q0 202 -155 332l-625 -733q114 -51 256 -51z" />
    <glyph glyph-name="minus" unicode="&#x2212;" horiz-adv-x="1214" 
d="M1044 559h-876v133h876v-133z" />
    <glyph glyph-name="infinity" unicode="&#x221e;" horiz-adv-x="2205" 
d="M586 287q-181 0 -303.5 95.5t-122.5 242.5q0 145 125.5 242.5t300.5 97.5q124 0 230.5 -55.5t287.5 -200.5q181 145 287.5 200.5t228.5 55.5q181 0 304.5 -96.5t123.5 -243.5q0 -146 -123 -242t-305 -96q-126 0 -233 55.5t-283 198.5q-175 -144 -282.5 -199t-235.5 -55z
M580 408q42 0 82 9t69 20t69.5 36.5t64 42.5t71.5 53.5t74 55.5q-18 14 -74.5 57t-74 55.5t-62 40.5t-71 37t-67 18t-81.5 9q-118 0 -191.5 -59t-73.5 -158q0 -100 74.5 -158.5t190.5 -58.5zM1626 410q118 0 191 57t73 158q0 99 -72.5 158t-191.5 59q-41 0 -80.5 -9
t-68 -19.5t-69.5 -36.5t-63 -42t-72 -54t-75 -56q24 -18 72.5 -54.5t71.5 -53t64 -41.5t70.5 -36.5t69 -20.5t80.5 -9z" />
    <glyph glyph-name="approxequal" unicode="&#x2248;" horiz-adv-x="1280" 
d="M336 717h-148q0 126 82.5 196t196.5 70q50 0 93.5 -14t75 -33.5t60.5 -39.5t62 -34t67 -14q61 0 91 38t30 95h148q0 -130 -72.5 -198t-187.5 -68q-63 0 -118 21.5t-88 47t-76.5 47t-86.5 21.5q-64 0 -96.5 -39t-32.5 -96zM336 291h-148q0 126 82.5 196t196.5 70
q50 0 93.5 -14t75 -33.5t60.5 -39.5t62 -34t67 -14q61 0 91 38t30 97h148q0 -131 -72.5 -199.5t-187.5 -68.5q-63 0 -118 21.5t-88 47t-76.5 47t-86.5 21.5q-64 0 -96.5 -39t-32.5 -96z" />
    <glyph glyph-name="notequal" unicode="&#x2260;" horiz-adv-x="1257" 
d="M1067 899v-135h-299l-127 -287h426v-135h-479l-80 -180h-141l77 180h-260v135h314l127 287h-441v135h496l72 168h143l-72 -168h244z" />
    <glyph glyph-name="lessequal" unicode="&#x2264;" horiz-adv-x="1247" 
d="M1055 334h-867v117h570l-568 178v137l865 178v-129l-672 -135l672 -225v-121z" />
    <glyph glyph-name="greaterequal" unicode="&#x2265;" horiz-adv-x="1247" 
d="M1057 334h-864v121l671 225l-671 135v129l864 -178v-137l-568 -178h568v-117z" />
    <glyph glyph-name="lozenge" unicode="&#x25ca;" horiz-adv-x="1390" 
d="M750 0h-109l-500 694l500 692h109l497 -692zM315 694l375 -516h10l373 516l-373 516h-10z" />
    <glyph glyph-name="A.ss01" horiz-adv-x="1830" 
d="M233 0h-192l731 1597h287l731 -1597h-188q-131 282 -244 541h-879q-71 -163 -246 -541zM539 690h761q-66 142 -188 410t-141 309h-101q-43 -93 -156.5 -339t-174.5 -380z" />
    <glyph glyph-name="Aacute.ss01" horiz-adv-x="1830" 
d="M1374 2050l-407 -328h-156l311 328h252zM233 0h-192l731 1597h287l731 -1597h-188q-131 282 -244 541h-879q-71 -163 -246 -541zM539 690h761q-66 142 -188 410t-141 309h-101q-43 -93 -156.5 -339t-174.5 -380z" />
    <glyph glyph-name="Abreve.ss01" horiz-adv-x="1830" 
d="M911 1724q-101 0 -187 29t-142 76.5t-88.5 105.5t-36.5 119h153q6 -80 93 -143.5t208 -63.5q123 0 209 63.5t92 143.5h152q-2 -61 -34.5 -119.5t-88.5 -105.5t-142 -76t-188 -29zM233 0h-192l731 1597h287l731 -1597h-188q-131 282 -244 541h-879q-71 -163 -246 -541z
M539 690h761q-66 142 -188 410t-141 309h-101q-43 -93 -156.5 -339t-174.5 -380z" />
    <glyph glyph-name="Acircumflex.ss01" horiz-adv-x="1830" 
d="M1018 2036l321 -314h-157q-223 172 -269 211q-90 -75 -270 -211h-158l322 314h211zM233 0h-192l731 1597h287l731 -1597h-188q-131 282 -244 541h-879q-71 -163 -246 -541zM539 690h761q-66 142 -188 410t-141 309h-101q-43 -93 -156.5 -339t-174.5 -380z" />
    <glyph glyph-name="Adieresis.ss01" horiz-adv-x="1830" 
d="M674 1780q-56 0 -94.5 33.5t-38.5 84.5q0 46 39 80.5t94 34.5t93 -34.5t38 -80.5q0 -51 -37.5 -84.5t-93.5 -33.5zM1153 1780q-58 0 -96.5 33.5t-38.5 84.5q0 47 39 81t96 34q52 0 90.5 -34.5t38.5 -80.5q0 -50 -38 -84t-91 -34zM233 0h-192l731 1597h287l731 -1597h-188
q-131 282 -244 541h-879q-71 -163 -246 -541zM539 690h761q-66 142 -188 410t-141 309h-101q-43 -93 -156.5 -339t-174.5 -380z" />
    <glyph glyph-name="Agrave.ss01" horiz-adv-x="1830" 
d="M1026 1722h-156l-407 328h252zM233 0h-192l731 1597h287l731 -1597h-188q-131 282 -244 541h-879q-71 -163 -246 -541zM539 690h761q-66 142 -188 410t-141 309h-101q-43 -93 -156.5 -339t-174.5 -380z" />
    <glyph glyph-name="Amacron.ss01" horiz-adv-x="1830" 
d="M1317 1821h-807v129h807v-129zM233 0h-192l731 1597h287l731 -1597h-188q-131 282 -244 541h-879q-71 -163 -246 -541zM539 690h761q-66 142 -188 410t-141 309h-101q-43 -93 -156.5 -339t-174.5 -380z" />
    <glyph glyph-name="Aogonek.ss01" horiz-adv-x="1830" 
d="M1759 -354q51 0 105 12v-107q-66 -14 -121 -14q-141 0 -234.5 62t-93.5 172q0 137 193 229h-6q-131 282 -244 541h-879q-71 -163 -246 -541h-192l731 1597h287l731 -1597h-35q-102 -37 -155.5 -90.5t-53.5 -112.5q0 -66 60.5 -108.5t152.5 -42.5zM539 690h761
q-66 142 -188 410t-141 309h-101q-43 -93 -156.5 -339t-174.5 -380z" />
    <glyph glyph-name="Aring.ss01" horiz-adv-x="1830" 
d="M913 1716q-119 0 -196.5 63t-77.5 160t78 160.5t196 63.5q115 0 193 -64t78 -160q0 -97 -78 -160t-193 -63zM913 1819q65 0 108.5 33t43.5 87q0 53 -44 86t-108 33q-67 0 -111 -33t-44 -86q0 -54 44 -87t111 -33zM233 0h-192l731 1597h287l731 -1597h-188
q-131 282 -244 541h-879q-71 -163 -246 -541zM539 690h761q-66 142 -188 410t-141 309h-101q-43 -93 -156.5 -339t-174.5 -380z" />
    <glyph glyph-name="Atilde.ss01" horiz-adv-x="1830" 
d="M1100 1745q-36 0 -64.5 5t-55.5 19t-37.5 20.5t-39.5 27.5l-49 32q-64 49 -119 49t-90 -39t-35 -98h-129q1 115 73 186.5t183 71.5q51 0 90 -16t88 -49l52 -35q69 -51 131 -51q54 0 84 38t30 99h131q0 -121 -64 -190.5t-179 -69.5zM233 0h-192l731 1597h287l731 -1597
h-188q-131 282 -244 541h-879q-71 -163 -246 -541zM539 690h761q-66 142 -188 410t-141 309h-101q-43 -93 -156.5 -339t-174.5 -380z" />
    <glyph glyph-name="B.ss01" horiz-adv-x="1751" 
d="M1028 0h-770v1597h688q144 0 261.5 -33.5t192.5 -91t115.5 -132t40.5 -158.5q0 -79 -34.5 -150.5t-114.5 -131.5t-195 -85v-4q201 -29 304.5 -134.5t103.5 -248.5q0 -189 -169 -308.5t-423 -119.5zM438 877h482q206 0 327 76.5t121 203.5q0 132 -132 210.5t-335 78.5
h-463v-569zM438 152h537q207 0 331 77.5t124 206.5q0 133 -132 214t-340 81h-520v-579z" />
    <glyph glyph-name="C.ss01" horiz-adv-x="2064" 
d="M1100 -35q-280 0 -501 105t-344.5 294.5t-123.5 430.5q0 186 75.5 344t205 264.5t304.5 166.5t371 60q136 0 265.5 -30t243 -87t201.5 -148t134 -206l-162 -61q-87 178 -270 277.5t-412 99.5q-155 0 -293.5 -47.5t-243.5 -133.5t-166.5 -216.5t-61.5 -286.5
q0 -133 44.5 -245t121 -189.5t178.5 -131.5t215.5 -79t234.5 -25q117 0 220 24t183 66.5t145 102.5t109 129t72 149l162 -53q-97 -264 -327.5 -419t-579.5 -155z" />
    <glyph glyph-name="D.ss01" horiz-adv-x="1976" 
d="M956 0h-698v1597h676q187 0 339.5 -40.5t257 -112t176 -171.5t104 -216t32.5 -248q0 -178 -61 -327t-173 -256t-280 -166.5t-373 -59.5zM438 152h527q318 0 504 170.5t186 474.5q0 317 -202 483t-560 166h-455v-1294z" />
    <glyph glyph-name="E.ss01" horiz-adv-x="1615" 
d="M1489 0h-1231v1597h1206v-151h-1026v-549h977v-156h-977v-585h1051v-156z" />
    <glyph glyph-name="F.ss01" horiz-adv-x="1525" 
d="M1440 1597v-157h-1002v-559h953v-158h-953v-723h-180v1597h1182z" />
    <glyph glyph-name="G.ss01" horiz-adv-x="2109" 
d="M1094 -35q-213 0 -393.5 62t-305 171t-194.5 262t-70 331q0 151 48.5 283.5t136.5 233.5t206.5 174t262.5 110.5t302 37.5q136 0 266 -30t243.5 -87.5t201.5 -148.5t133 -205l-162 -61q-87 178 -270 277.5t-412 99.5q-154 0 -292.5 -47t-243.5 -132.5t-167 -216
t-62 -286.5q0 -202 100.5 -354.5t282 -235t419.5 -82.5q312 0 493 140t206 384h-674v141h842v-53q0 -156 -48.5 -285t-132.5 -217t-198.5 -149t-244.5 -89t-273 -28z" />
    <glyph glyph-name="H.ss01" horiz-adv-x="1986" 
d="M1550 881v716h181v-1597h-181v725h-1112v-725h-180v1597h180v-716h1112z" />
    <glyph glyph-name="I.ss01" horiz-adv-x="1335" 
d="M1235 0h-1137v152h480v1294h-492v151h1161v-151h-489v-1294h477v-152z" />
    <glyph glyph-name="Iacute.ss01" horiz-adv-x="1335" 
d="M1100 2050l-406 -330h-155l311 330h250zM1235 0h-1137v152h480v1294h-492v151h1161v-151h-489v-1294h477v-152z" />
    <glyph glyph-name="Icircumflex.ss01" horiz-adv-x="1335" 
d="M772 2036l322 -314h-158q-211 163 -268 211q-80 -67 -271 -211h-157l321 314h211zM1235 0h-1137v152h480v1294h-492v151h1161v-151h-489v-1294h477v-152z" />
    <glyph glyph-name="Idieresis.ss01" horiz-adv-x="1335" 
d="M430 1780q-56 0 -94.5 33.5t-38.5 84.5q0 46 39 80.5t94 34.5t93 -34.5t38 -80.5q0 -51 -37.5 -84.5t-93.5 -33.5zM909 1780q-58 0 -96.5 33.5t-38.5 84.5q0 47 39 81t96 34q52 0 90.5 -34.5t38.5 -80.5q0 -50 -38 -84t-91 -34zM1235 0h-1137v152h480v1294h-492v151h1161
v-151h-489v-1294h477v-152z" />
    <glyph glyph-name="Idotaccent.ss01" horiz-adv-x="1335" 
d="M668 1782q-59 0 -99.5 36.5t-40.5 88.5q0 49 40.5 83.5t99.5 34.5q58 0 97.5 -34t39.5 -84q0 -53 -39.5 -89t-97.5 -36zM1235 0h-1137v152h480v1294h-492v151h1161v-151h-489v-1294h477v-152z" />
    <glyph glyph-name="Igrave.ss01" horiz-adv-x="1335" 
d="M780 1722h-155l-408 328h252zM1235 0h-1137v152h480v1294h-492v151h1161v-151h-489v-1294h477v-152z" />
    <glyph glyph-name="Imacron.ss01" horiz-adv-x="1335" 
d="M1071 1821h-807v129h807v-129zM1235 0h-1137v152h480v1294h-492v151h1161v-151h-489v-1294h477v-152z" />
    <glyph glyph-name="J.ss01" horiz-adv-x="1443" 
d="M662 -35q-88 0 -169 16.5t-158 56t-133 99.5t-90 153.5t-34 211.5v28l168 23v-29q0 -90 25.5 -162t66 -116.5t95 -74t109 -41t111.5 -11.5q179 0 277 108t98 285v934h-659v151h839v-1044q0 -32 -0.5 -53.5t-5.5 -70t-14 -84.5t-28 -87t-45 -89t-68.5 -78.5t-95 -66
t-127 -42.5t-162.5 -17z" />
    <glyph glyph-name="K.ss01" horiz-adv-x="1640" 
d="M438 0h-180v1597h180v-714h4l936 714h234q-62 -49 -1030 -809l1071 -788h-248q-183 130 -967 682v-682z" />
    <glyph glyph-name="L.ss01" horiz-adv-x="1452" 
d="M438 1597v-1441h977v-156h-1157v1597h180z" />
    <glyph glyph-name="M.ss01" horiz-adv-x="2314" 
d="M1845 1597h211v-1597h-180v1313l-643 -975h-154l-641 975v-1313h-180v1597h213q322 -478 682 -1048h6q456 714 686 1048z" />
    <glyph glyph-name="N.ss01" horiz-adv-x="2025" 
d="M438 0h-180v1597h254l1026 -1316h53v1316h178v-1597h-253l-1020 1305h-58v-1305z" />
    <glyph glyph-name="O.ss01" horiz-adv-x="2181" 
d="M1090 -35q-194 0 -370.5 62.5t-306.5 171.5t-207 265t-77 333q0 236 129.5 427.5t349.5 298.5t484 107q200 0 378 -64.5t305.5 -175t202 -265t74.5 -328.5t-75.5 -329t-204.5 -265t-306.5 -174t-375.5 -64zM1094 121q205 0 379.5 86.5t279.5 242.5t105 347t-104.5 347.5
t-279 243.5t-380.5 87q-207 0 -384 -86.5t-284 -243t-107 -348.5t107 -348t284 -242t384 -86z" />
    <glyph glyph-name="P.ss01" horiz-adv-x="1642" 
d="M258 1597h674q131 0 243 -29.5t199 -87t137 -150t50 -210.5q0 -99 -33.5 -182t-91 -139.5t-133.5 -96t-160.5 -57.5t-173.5 -18h-531v-627h-180v1597zM438 782h477q212 0 334.5 84.5t122.5 247.5q0 159 -131 245.5t-342 86.5h-461v-664z" />
    <glyph glyph-name="Q.ss01" horiz-adv-x="2193" 
d="M649 -236v-4h1229v-143h-1583l422 410q-266 91 -423 293.5t-157 476.5q0 245 125.5 435.5t344.5 294t493 103.5q207 0 385.5 -62.5t304.5 -172t198 -264.5t72 -334q0 -181 -72.5 -335.5t-200 -263t-305.5 -170t-384 -61.5q-105 0 -213 19zM324 797q0 -238 143.5 -408
t378.5 -235l407 397l131 -94q-51 -49 -110 -105t-130 -123t-112 -106q23 -2 70 -2q215 0 390 83.5t278.5 239t103.5 353.5q0 199 -103 355t-278.5 240.5t-390.5 84.5q-218 0 -394.5 -83.5t-280 -240t-103.5 -356.5z" />
    <glyph glyph-name="R.ss01" horiz-adv-x="1699" 
d="M692 631l930 -631h-238l-933 631h-13v-631h-180v1597h674q131 0 243 -29.5t199 -87t137 -150t50 -210.5q0 -99 -34 -181.5t-91 -138.5t-134 -95t-160.5 -56.5t-172.5 -17.5h-277zM899 1456h-461v-678h477q220 0 338.5 90t118.5 248q0 157 -127.5 248.5t-345.5 91.5z" />
    <glyph glyph-name="S.ss01" horiz-adv-x="1587" 
d="M817 -35q-113 0 -219 25.5t-205.5 79t-177.5 147t-119 217.5l166 55q59 -182 210 -276t347 -94q83 0 162 17.5t147 51.5t109 93t41 135q0 54 -24.5 97.5t-52.5 69t-89.5 50.5t-94.5 34t-108 28q-26 7 -39 10l-178 47q-51 13 -87 23.5t-95 32.5t-101.5 44.5t-91.5 58.5
t-79.5 75.5t-51 94.5t-20.5 117q0 104 53 188t141.5 136t198.5 80t229 28q227 0 399 -101.5t234 -279.5l-161 -61q-54 135 -182 213t-308 78q-176 0 -297 -74t-121 -193q0 -42 17.5 -79.5t41 -64.5t65 -52.5t71.5 -40.5t79 -31.5t69.5 -22t60.5 -16.5l188 -51
q182 -49 249 -76q219 -87 264 -246q13 -44 13 -94q0 -139 -90 -248.5t-238 -167t-325 -57.5z" />
    <glyph glyph-name="U.ss01" horiz-adv-x="1871" 
d="M907 -35q-162 0 -291.5 48t-212.5 132.5t-126.5 196.5t-43.5 244v1011h181v-1001q0 -226 133.5 -351.5t372.5 -125.5q242 0 378 126t136 351v1001h180v-1597h-174v195h-4q-81 -120 -210 -175t-319 -55z" />
    <glyph glyph-name="Uacute.ss01" horiz-adv-x="1871" 
d="M1219 2050l-406 -330h-156l312 330h250zM907 -35q-162 0 -291.5 48t-212.5 132.5t-126.5 196.5t-43.5 244v1011h181v-1001q0 -226 133.5 -351.5t372.5 -125.5q242 0 378 126t136 351v1001h180v-1597h-174v195h-4q-81 -120 -210 -175t-319 -55z" />
    <glyph glyph-name="Ucircumflex.ss01" horiz-adv-x="1871" 
d="M1022 2036l321 -314h-157q-211 163 -268 211q-80 -67 -271 -211h-158l322 314h211zM907 -35q-162 0 -291.5 48t-212.5 132.5t-126.5 196.5t-43.5 244v1011h181v-1001q0 -226 133.5 -351.5t372.5 -125.5q242 0 378 126t136 351v1001h180v-1597h-174v195h-4
q-81 -120 -210 -175t-319 -55z" />
    <glyph glyph-name="Udieresis.ss01" horiz-adv-x="1871" 
d="M678 1780q-56 0 -94.5 33.5t-38.5 84.5q0 46 39 80.5t94 34.5t93 -34.5t38 -80.5q0 -51 -37.5 -84.5t-93.5 -33.5zM1157 1780q-58 0 -96.5 33.5t-38.5 84.5q0 47 39 81t96 34q52 0 90.5 -34.5t38.5 -80.5q0 -50 -38 -84t-91 -34zM907 -35q-162 0 -291.5 48t-212.5 132.5
t-126.5 196.5t-43.5 244v1011h181v-1001q0 -226 133.5 -351.5t372.5 -125.5q242 0 378 126t136 351v1001h180v-1597h-174v195h-4q-81 -120 -210 -175t-319 -55z" />
    <glyph glyph-name="Ugrave.ss01" horiz-adv-x="1871" 
d="M1028 1722h-156l-407 328h252zM907 -35q-162 0 -291.5 48t-212.5 132.5t-126.5 196.5t-43.5 244v1011h181v-1001q0 -226 133.5 -351.5t372.5 -125.5q242 0 378 126t136 351v1001h180v-1597h-174v195h-4q-81 -120 -210 -175t-319 -55z" />
    <glyph glyph-name="Uhungarumlaut.ss01" horiz-adv-x="1871" 
d="M1096 2050l-336 -328h-154l256 328h234zM1489 2050l-356 -328h-154l274 328h236zM907 -35q-162 0 -291.5 48t-212.5 132.5t-126.5 196.5t-43.5 244v1011h181v-1001q0 -226 133.5 -351.5t372.5 -125.5q242 0 378 126t136 351v1001h180v-1597h-174v195h-4
q-81 -120 -210 -175t-319 -55z" />
    <glyph glyph-name="Umacron.ss01" horiz-adv-x="1871" 
d="M1319 1821h-807v129h807v-129zM907 -35q-162 0 -291.5 48t-212.5 132.5t-126.5 196.5t-43.5 244v1011h181v-1001q0 -226 133.5 -351.5t372.5 -125.5q242 0 378 126t136 351v1001h180v-1597h-174v195h-4q-81 -120 -210 -175t-319 -55z" />
    <glyph glyph-name="Uogonek.ss01" horiz-adv-x="1871" 
d="M1604 -354q50 0 104 12v-107q-66 -14 -121 -14q-141 0 -234 62t-93 172q0 137 192 229h-12v195h-4q-81 -120 -210 -175t-319 -55q-162 0 -291.5 48t-212.5 132.5t-126.5 196.5t-43.5 244v1011h181v-1001q0 -226 133.5 -351.5t372.5 -125.5q242 0 378 126t136 351v1001
h180v-1597h-15q-102 -37 -155 -90.5t-53 -112.5q0 -66 60.5 -108.5t152.5 -42.5z" />
    <glyph glyph-name="Uring.ss01" horiz-adv-x="1871" 
d="M915 1716q-119 0 -196.5 63t-77.5 160t78 160.5t196 63.5q115 0 193 -64t78 -160q0 -97 -78 -160t-193 -63zM915 1819q65 0 108.5 33t43.5 87q0 53 -44 86t-108 33q-67 0 -111 -33t-44 -86q0 -54 44 -87t111 -33zM907 -35q-162 0 -291.5 48t-212.5 132.5t-126.5 196.5
t-43.5 244v1011h181v-1001q0 -226 133.5 -351.5t372.5 -125.5q242 0 378 126t136 351v1001h180v-1597h-174v195h-4q-81 -120 -210 -175t-319 -55z" />
    <glyph glyph-name="V.ss01" horiz-adv-x="1822" 
d="M1055 0h-287l-731 1597h188q546 -1186 641 -1394h99q29 64 267.5 591.5t364.5 802.5h191z" />
    <glyph glyph-name="W.ss01" horiz-adv-x="2795" 
d="M883 0h-221l-617 1597h193l534 -1374h4l469 1374h326l454 -1374h7l526 1374h192l-616 -1597h-219l-457 1407h-102z" />
    <glyph glyph-name="Wacute.ss01" horiz-adv-x="2795" 
d="M1860 2050l-408 -328h-156l312 328h252zM883 0h-221l-617 1597h193l534 -1374h4l469 1374h326l454 -1374h7l526 1374h192l-616 -1597h-219l-457 1407h-102z" />
    <glyph glyph-name="Wcircumflex.ss01" horiz-adv-x="2795" 
d="M1503 2036l322 -314h-158q-211 163 -268 211q-80 -67 -271 -211h-157l321 314h211zM883 0h-221l-617 1597h193l534 -1374h4l469 1374h326l454 -1374h7l526 1374h192l-616 -1597h-219l-457 1407h-102z" />
    <glyph glyph-name="Wdieresis.ss01" horiz-adv-x="2795" 
d="M1159 1780q-56 0 -94.5 33.5t-38.5 84.5q0 46 39 80.5t94 34.5t93 -34.5t38 -80.5q0 -51 -37.5 -84.5t-93.5 -33.5zM1638 1780q-58 0 -96.5 33.5t-38.5 84.5q0 47 39 81t96 34q52 0 90.5 -34.5t38.5 -80.5q0 -50 -38 -84t-91 -34zM883 0h-221l-617 1597h193l534 -1374h4
l469 1374h326l454 -1374h7l526 1374h192l-616 -1597h-219l-457 1407h-102z" />
    <glyph glyph-name="Wgrave.ss01" horiz-adv-x="2795" 
d="M1511 1722h-155l-408 328h252zM883 0h-221l-617 1597h193l534 -1374h4l469 1374h326l454 -1374h7l526 1374h192l-616 -1597h-219l-457 1407h-102z" />
    <glyph glyph-name="X.ss01" horiz-adv-x="1695" 
d="M233 0h-200l647 811v20l-633 766h201q290 -352 555 -688h92q42 52 194.5 242t362.5 446h197l-631 -766v-20l647 -811h-197q-103 128 -305 385.5t-268 341.5h-92q-245 -315 -570 -727z" />
    <glyph glyph-name="Y.ss01" horiz-adv-x="1677" 
d="M547 0h-187l420 588l-717 1009h197l610 -847h4l615 847h192z" />
    <glyph glyph-name="Yacute.ss01" horiz-adv-x="1677" 
d="M1300 2050l-405 -330h-156l312 330h249zM547 0h-187l420 588l-717 1009h197l610 -847h4l615 847h192z" />
    <glyph glyph-name="Ycircumflex.ss01" horiz-adv-x="1677" 
d="M977 2036l321 -314h-157q-223 172 -269 211q-90 -75 -270 -211h-158l322 314h211zM547 0h-187l420 588l-717 1009h197l610 -847h4l615 847h192z" />
    <glyph glyph-name="Ydieresis.ss01" horiz-adv-x="1677" 
d="M633 1780q-56 0 -94.5 33.5t-38.5 84.5q0 46 39 80.5t94 34.5t93 -34.5t38 -80.5q0 -51 -37.5 -84.5t-93.5 -33.5zM1112 1780q-58 0 -96.5 33.5t-38.5 84.5q0 47 39 81t96 34q52 0 90.5 -34.5t38.5 -80.5q0 -50 -38 -84t-91 -34zM547 0h-187l420 588l-717 1009h197
l610 -847h4l615 847h192z" />
    <glyph glyph-name="Ygrave.ss01" horiz-adv-x="1677" 
d="M985 1722h-156l-407 328h252zM547 0h-187l420 588l-717 1009h197l610 -847h4l615 847h192z" />
    <glyph glyph-name="Z.ss01" horiz-adv-x="1673" 
d="M1573 0h-1571l1315 1446h-1163v151h1491l-1309 -1441h1237v-156z" />
    <glyph glyph-name="Zacute.ss01" horiz-adv-x="1673" 
d="M1288 2050l-407 -328h-156l311 328h252zM1573 0h-1571l1315 1446h-1163v151h1491l-1309 -1441h1237v-156z" />
    <glyph glyph-name="Zcaron.ss01" horiz-adv-x="1673" 
d="M1096 2036h157l-321 -314h-213l-320 314h158q232 -182 270 -215q145 121 269 215zM1573 0h-1571l1315 1446h-1163v151h1491l-1309 -1441h1237v-156z" />
    <glyph glyph-name="Zdotaccent.ss01" horiz-adv-x="1673" 
d="M831 1782q-58 0 -98.5 36t-40.5 89q0 50 40.5 84t98.5 34t98 -34t40 -84q0 -53 -40 -89t-98 -36zM1573 0h-1571l1315 1446h-1163v151h1491l-1309 -1441h1237v-156z" />
    <glyph glyph-name="Q.ss02" horiz-adv-x="2181" 
d="M1186 -31v-207h659v-145h-831v350q-146 10 -279.5 54.5t-243.5 119.5t-191 173.5t-126 222.5t-45 260q0 236 129.5 427.5t349.5 298.5t484 107q200 0 378 -64.5t305.5 -175t202 -265t74.5 -328.5q0 -164 -67 -311t-182.5 -255.5t-275.5 -178t-341 -83.5zM319 797
q0 -180 94.5 -329t252 -237.5t348.5 -105.5v469h172v-469q138 15 261 71.5t214 143t144 205.5t53 252q0 191 -104.5 347.5t-279 243.5t-380.5 87q-207 0 -384 -86.5t-284 -243t-107 -348.5z" />
    <glyph glyph-name="A.ss07" 
d="M1225 -315q-237 0 -446.5 71t-359 193.5t-236.5 294t-87 364.5q0 198 87 372.5t236.5 298.5t359 195.5t446.5 71.5q239 0 449 -71.5t360 -195.5t236.5 -298.5t86.5 -372.5q0 -156 -55 -298t-157.5 -255t-241 -196.5t-313 -128.5t-365.5 -45zM1163 1096l-467 -963h133
q44 88 158 322h477q129 -254 162 -322h135l-467 963h-131zM1421 559h-389q162 326 197 393q61 -137 192 -393z" />
    <glyph glyph-name="B.ss07" horiz-adv-x="2459" 
d="M1225 -315q-237 0 -446.5 71t-359 193.5t-236.5 294t-87 364.5q0 198 87 372.5t236.5 298.5t359 195.5t446.5 71.5q239 0 449 -71.5t360 -195.5t236.5 -298.5t86.5 -372.5q0 -156 -55 -298t-157.5 -255t-241 -196.5t-313 -128.5t-365.5 -45zM856 1096v-963h467
q96 0 177 30t132 91t51 141q0 84 -58 146t-157 84q80 27 129.5 85.5t49.5 131.5q0 112 -104 183t-267 71h-420zM981 670v319h268q119 0 191.5 -44.5t72.5 -117.5q0 -75 -70 -116t-183 -41h-279zM1292 240h-311v327h301q120 0 194 -46.5t74 -121.5q0 -73 -69.5 -116
t-188.5 -43z" />
    <glyph glyph-name="C.ss07" 
d="M1227 -315q-237 0 -446.5 71t-359 193.5t-236.5 294t-87 364.5q0 198 87 372.5t236.5 298.5t359 195.5t446.5 71.5q239 0 449 -71.5t360 -195.5t236.5 -298.5t86.5 -372.5q0 -156 -55 -298t-157.5 -255t-241 -196.5t-313 -128.5t-365.5 -45zM1266 113q202 0 346.5 93
t202.5 261l-115 35q-38 -123 -147.5 -202t-278.5 -79q-70 0 -136 14.5t-125.5 45.5t-103.5 76t-70 110t-26 143q0 174 126.5 286t320.5 112q136 0 242.5 -61.5t152.5 -164.5l114 41q-35 95 -117 162.5t-183.5 99t-213.5 31.5q-245 0 -410 -141t-165 -363q0 -221 164 -360
t422 -139z" />
    <glyph glyph-name="D.ss07" 
d="M1225 -315q-237 0 -446.5 71t-359 193.5t-236.5 294t-87 364.5q0 198 87 372.5t236.5 298.5t359 195.5t446.5 71.5q239 0 449 -71.5t360 -195.5t236.5 -298.5t86.5 -372.5q0 -156 -55 -298t-157.5 -255t-241 -196.5t-313 -128.5t-365.5 -45zM811 1096v-963h426
q244 0 390.5 133t146.5 355q0 223 -147 349t-404 126h-412zM1243 240h-305v749h260q204 0 323 -93.5t119 -281.5q0 -174 -106.5 -274t-290.5 -100z" />
    <glyph glyph-name="E.ss07" 
d="M1225 -315q-237 0 -446.5 71t-359 193.5t-236.5 294t-87 364.5q0 198 87 372.5t236.5 298.5t359 195.5t446.5 71.5q239 0 449 -71.5t360 -195.5t236.5 -298.5t86.5 -372.5q0 -156 -55 -298t-157.5 -255t-241 -196.5t-313 -128.5t-365.5 -45zM881 1096v-963h749v109h-622
v331h579v109h-579v307h610v107h-737z" />
    <glyph glyph-name="F.ss07" horiz-adv-x="2459" 
d="M1225 -315q-237 0 -446.5 71t-359 193.5t-236.5 294t-87 364.5q0 198 87 372.5t236.5 298.5t359 195.5t446.5 71.5q239 0 449 -71.5t360 -195.5t236.5 -298.5t86.5 -372.5q0 -156 -55 -298t-157.5 -255t-241 -196.5t-313 -128.5t-365.5 -45zM905 1096v-963h127v428h565
v109h-565v317h596v109h-723z" />
    <glyph glyph-name="G.ss07" 
d="M1227 -315q-237 0 -446.5 71t-359 193.5t-236.5 294t-87 364.5q0 198 87 372.5t236.5 298.5t359 195.5t446.5 71.5q239 0 449 -71.5t360 -195.5t236.5 -298.5t86.5 -372.5q0 -156 -55 -298t-157.5 -255t-241 -196.5t-313 -128.5t-365.5 -45zM1253 113q153 0 266 55
t175 158l2 -193h106v483h-518v-100h391q-17 -133 -129 -214t-278 -81q-86 0 -165.5 23.5t-145 69.5t-105 122.5t-39.5 173.5q0 174 126.5 286t320.5 112q136 0 242 -60.5t153 -165.5l114 41q-52 140 -196 216.5t-318 76.5q-161 0 -292 -63.5t-207 -179t-76 -261.5
q0 -219 161 -359t412 -140z" />
    <glyph glyph-name="H.ss07" 
d="M1225 -315q-237 0 -446.5 71t-359 193.5t-236.5 294t-87 364.5q0 198 87 372.5t236.5 298.5t359 195.5t446.5 71.5q239 0 449 -71.5t360 -195.5t236.5 -298.5t86.5 -372.5q0 -156 -55 -298t-157.5 -255t-241 -196.5t-313 -128.5t-365.5 -45zM782 1096v-963h127v430h639
v-430h127v963h-127v-424h-639v424h-127z" />
    <glyph glyph-name="I.ss07" 
d="M1225 -315q-237 0 -446.5 71t-359 193.5t-236.5 294t-87 364.5q0 198 87 372.5t236.5 298.5t359 195.5t446.5 71.5q239 0 449 -71.5t360 -195.5t236.5 -298.5t86.5 -372.5q0 -156 -55 -298t-157.5 -255t-241 -196.5t-313 -128.5t-365.5 -45zM1165 1096v-963h127v963h-127
z" />
    <glyph glyph-name="J.ss07" 
d="M1225 -315q-237 0 -446.5 71t-359 193.5t-236.5 294t-87 364.5q0 198 87 372.5t236.5 298.5t359 195.5t446.5 71.5q239 0 449 -71.5t360 -195.5t236.5 -298.5t86.5 -372.5q0 -156 -55 -298t-157.5 -255t-241 -196.5t-313 -128.5t-365.5 -45zM1186 123q54 0 99.5 10
t77.5 25.5t58 41t42 49t27.5 57t17 57t8.5 58t3.5 51t0.5 44.5v590h-125v-614q0 -38 -2 -65.5t-14 -67.5t-33 -66t-62.5 -45t-99.5 -19q-45 0 -86 11.5t-77 36.5t-57.5 71.5t-21.5 108.5v30l-119 -12v-37q0 -82 31 -144.5t84 -98.5t115.5 -54t132.5 -18z" />
    <glyph glyph-name="K.ss07" 
d="M1225 -315q-237 0 -446.5 71t-359 193.5t-236.5 294t-87 364.5q0 198 87 372.5t236.5 298.5t359 195.5t446.5 71.5q239 0 449 -71.5t360 -195.5t236.5 -298.5t86.5 -372.5q0 -156 -55 -298t-157.5 -255t-241 -196.5t-313 -128.5t-365.5 -45zM862 1096v-963h125v328
q24 20 72.5 62t73.5 63q63 -66 209.5 -219.5t222.5 -233.5h155q-53 58 -142.5 153.5t-169.5 182.5t-187 205q48 42 214.5 192t260.5 230h-158q-257 -221 -551 -486v486h-125z" />
    <glyph glyph-name="L.ss07" 
d="M1225 -315q-237 0 -446.5 71t-359 193.5t-236.5 294t-87 364.5q0 198 87 372.5t236.5 298.5t359 195.5t446.5 71.5q239 0 449 -71.5t360 -195.5t236.5 -298.5t86.5 -372.5q0 -156 -55 -298t-157.5 -255t-241 -196.5t-313 -128.5t-365.5 -45zM973 1096v-963h706v109h-579
v854h-127z" />
    <glyph glyph-name="M.ss07" horiz-adv-x="2459" 
d="M1225 -315q-237 0 -446.5 71t-359 193.5t-236.5 294t-87 364.5q0 198 87 372.5t236.5 298.5t359 195.5t446.5 71.5q239 0 449 -71.5t360 -195.5t236.5 -298.5t86.5 -372.5q0 -156 -55 -298t-157.5 -255t-241 -196.5t-313 -128.5t-365.5 -45zM639 1096v-963h125v731
q71 -129 221 -393.5t191 -337.5h106q44 79 185.5 328.5t226.5 406.5v-735h127v963h-146q-64 -120 -135.5 -247.5t-172.5 -306.5t-138 -245q-182 336 -447 799h-143z" />
    <glyph glyph-name="N.ss07" 
d="M1225 -315q-237 0 -446.5 71t-359 193.5t-236.5 294t-87 364.5q0 198 87 372.5t236.5 298.5t359 195.5t446.5 71.5q239 0 449 -71.5t360 -195.5t236.5 -298.5t86.5 -372.5q0 -156 -55 -298t-157.5 -255t-241 -196.5t-313 -128.5t-365.5 -45zM786 1096v-963h125v764
q113 -134 334 -387t326 -377h131v963h-125v-770q-133 158 -376.5 441.5t-282.5 328.5h-132z" />
    <glyph glyph-name="O.ss07" 
d="M1225 -315q-237 0 -446.5 71t-359 193.5t-236.5 294t-87 364.5q0 198 87 372.5t236.5 298.5t359 195.5t446.5 71.5q239 0 449 -71.5t360 -195.5t236.5 -298.5t86.5 -372.5q0 -156 -55 -298t-157.5 -255t-241 -196.5t-313 -128.5t-365.5 -45zM1229 113q162 0 295 66
t209.5 181t76.5 254t-76 254.5t-209 181.5t-294 66q-162 0 -295 -65.5t-209 -181t-76 -255.5t76 -255t208.5 -180.5t293.5 -65.5zM782 614q0 165 130.5 279.5t318.5 114.5q186 0 316 -114.5t130 -279.5t-130 -279t-316 -114q-187 0 -318 114t-131 279z" />
    <glyph glyph-name="P.ss07" 
d="M1225 -315q-237 0 -446.5 71t-359 193.5t-236.5 294t-87 364.5q0 198 87 372.5t236.5 298.5t359 195.5t446.5 71.5q239 0 449 -71.5t360 -195.5t236.5 -298.5t86.5 -372.5q0 -156 -55 -298t-157.5 -255t-241 -196.5t-313 -128.5t-365.5 -45zM885 1096v-963h125v371h307
q68 0 131 18t115 53.5t83 95t31 134.5t-32.5 133t-87.5 91.5t-121 50t-140 16.5h-411zM1284 614h-274v375h266q121 0 195.5 -48t74.5 -138q0 -95 -70 -142t-192 -47z" />
    <glyph glyph-name="Q.ss07" 
d="M1225 -315q-237 0 -446.5 71t-359 193.5t-236.5 294t-87 364.5q0 198 87 372.5t236.5 298.5t359 195.5t446.5 71.5q239 0 449 -71.5t360 -195.5t236.5 -298.5t86.5 -372.5q0 -156 -55 -298t-157.5 -255t-241 -196.5t-313 -128.5t-365.5 -45zM1677 63l90 70l-155 152
q95 70 145.5 169t50.5 210q0 139 -77 254.5t-210 181t-294 65.5q-163 0 -297 -66t-210.5 -181t-76.5 -254q0 -213 168 -357.5t414 -144.5q160 0 288 61q26 -26 81.5 -79.5t82.5 -80.5zM774 664q0 109 60 199t164 142t229 52q188 0 318 -114t130 -279q0 -175 -147 -291
q-24 22 -92.5 89.5t-126.5 119.5l-88 -70q41 -37 110.5 -104.5t95.5 -92.5q-92 -45 -200 -45q-191 0 -322 113t-131 281z" />
    <glyph glyph-name="R.ss07" 
d="M1225 -315q-237 0 -446.5 71t-359 193.5t-236.5 294t-87 364.5q0 198 87 372.5t236.5 298.5t359 195.5t446.5 71.5q239 0 449 -71.5t360 -195.5t236.5 -298.5t86.5 -372.5q0 -156 -55 -298t-157.5 -255t-241 -196.5t-313 -128.5t-365.5 -45zM891 1096v-963h125v373h244
l301 -373h143q-48 61 -157 194.5t-150 186.5q133 19 209.5 96t76.5 193q0 61 -22 111t-58.5 83.5t-86.5 56t-104 32.5t-112 10h-409zM1290 610h-274v381h264q120 0 195 -50t75 -140q0 -96 -71 -143.5t-189 -47.5z" />
    <glyph glyph-name="S.ss07" 
d="M1225 -315q-237 0 -446.5 71t-359 193.5t-236.5 294t-87 364.5q0 198 87 372.5t236.5 298.5t359 195.5t446.5 71.5q239 0 449 -71.5t360 -195.5t236.5 -298.5t86.5 -372.5q0 -156 -55 -298t-157.5 -255t-241 -196.5t-313 -128.5t-365.5 -45zM1249 113q171 0 284.5 81.5
t113.5 206.5q0 50 -22.5 90.5t-46 63.5t-77.5 46t-77 29.5t-83 22.5q-9 3 -14 4l-110 29q-32 8 -53 14t-58.5 21.5t-60.5 32.5t-41.5 45t-18.5 61q0 64 66.5 106t169.5 42q105 0 180 -45.5t104 -128.5l113 43q-33 108 -136.5 173.5t-250.5 65.5q-96 0 -180.5 -29
t-141.5 -90.5t-57 -144.5q0 -198 322 -274l104 -27l24 -6q40 -10 61 -16t54 -19.5t49.5 -28t29.5 -38.5t13 -54q0 -56 -40.5 -95.5t-97 -56t-122.5 -16.5q-119 0 -205 58.5t-118 162.5l-115 -36q31 -102 105 -170.5t157.5 -95.5t175.5 -27z" />
    <glyph glyph-name="T.ss07" 
d="M1225 -315q-237 0 -446.5 71t-359 193.5t-236.5 294t-87 364.5q0 198 87 372.5t236.5 298.5t359 195.5t446.5 71.5q239 0 449 -71.5t360 -195.5t236.5 -298.5t86.5 -372.5q0 -156 -55 -298t-157.5 -255t-241 -196.5t-313 -128.5t-365.5 -45zM1167 989v-856h125v856h385
v107h-899v-107h389z" />
    <glyph glyph-name="U.ss07" 
d="M1225 -315q-237 0 -446.5 71t-359 193.5t-236.5 294t-87 364.5q0 198 87 372.5t236.5 298.5t359 195.5t446.5 71.5q239 0 449 -71.5t360 -195.5t236.5 -298.5t86.5 -372.5q0 -156 -55 -298t-157.5 -255t-241 -196.5t-313 -128.5t-365.5 -45zM1225 123q107 0 189 29
t132.5 81t75.5 119.5t25 147.5v606h-127v-600q0 -277 -291 -277q-293 0 -293 277v600h-127v-606q0 -169 103.5 -273t312.5 -104z" />
    <glyph glyph-name="V.ss07" 
d="M1225 -315q-237 0 -446.5 71t-359 193.5t-236.5 294t-87 364.5q0 198 87 372.5t236.5 298.5t359 195.5t446.5 71.5q239 0 449 -71.5t360 -195.5t236.5 -298.5t86.5 -372.5q0 -156 -55 -298t-157.5 -255t-241 -196.5t-313 -128.5t-365.5 -45zM700 1096l467 -963h131
l467 963h-133q-67 -132 -214 -441.5t-181 -378.5q-28 59 -100.5 211t-110.5 229.5t-93.5 188.5t-98.5 191h-134z" />
    <glyph glyph-name="W.ss07" 
d="M1225 -315q-237 0 -446.5 71t-359 193.5t-236.5 294t-87 364.5q0 198 87 372.5t236.5 298.5t359 195.5t446.5 71.5q239 0 449 -71.5t360 -195.5t236.5 -298.5t86.5 -372.5q0 -156 -55 -298t-157.5 -255t-241 -196.5t-313 -128.5t-365.5 -45zM414 1096l372 -963h142
q149 363 301 789q148 -408 303 -789h141l371 963h-133q-95 -237 -307 -797q-272 700 -308 797h-135q-269 -714 -301 -797q-61 163 -311 797h-135z" />
    <glyph glyph-name="X.ss07" 
d="M1225 -315q-237 0 -446.5 71t-359 193.5t-236.5 294t-87 364.5q0 198 87 372.5t236.5 298.5t359 195.5t446.5 71.5q239 0 449 -71.5t360 -195.5t236.5 -298.5t86.5 -372.5q0 -156 -55 -298t-157.5 -255t-241 -196.5t-313 -128.5t-365.5 -45zM758 133h145q101 121 330 399
q45 -54 154.5 -190t171.5 -209h147q-75 89 -208 255.5t-191 236.5q98 120 389 471h-146q-93 -108 -319 -379q-25 30 -140.5 168t-179.5 211h-145q359 -433 391 -471q-60 -72 -126.5 -154t-147.5 -182.5t-125 -155.5z" />
    <glyph glyph-name="Y.ss07" 
d="M1225 -315q-237 0 -446.5 71t-359 193.5t-236.5 294t-87 364.5q0 198 87 372.5t236.5 298.5t359 195.5t446.5 71.5q239 0 449 -71.5t360 -195.5t236.5 -298.5t86.5 -372.5q0 -156 -55 -298t-157.5 -255t-241 -196.5t-313 -128.5t-365.5 -45zM1165 483v-350h127v350
q51 73 153.5 219t180 257t94.5 137h-135q-232 -323 -356 -500q-23 32 -155 216.5t-202 283.5h-137q246 -349 430 -613z" />
    <glyph glyph-name="Z.ss07" 
d="M1225 -315q-237 0 -446.5 71t-359 193.5t-236.5 294t-87 364.5q0 198 87 372.5t236.5 298.5t359 195.5t446.5 71.5q239 0 449 -71.5t360 -195.5t236.5 -298.5t86.5 -372.5q0 -156 -55 -298t-157.5 -255t-241 -196.5t-313 -128.5t-365.5 -45zM801 240v-107h889v109h-736
q17 18 295.5 306t427.5 443v105h-848v-107q229 2 687 2z" />
    <glyph glyph-name="A.ss08" 
d="M1225 1546q239 0 449 -71.5t360 -195.5t236.5 -298.5t86.5 -372.5q0 -156 -55 -298t-157.5 -255t-241 -196.5t-313 -128.5t-365.5 -45q-237 0 -446.5 71t-359 193.5t-236.5 294t-87 364.5q0 198 87 372.5t236.5 298.5t359 195.5t446.5 71.5zM1225 -217q287 0 520.5 107.5
t366.5 297t133 422.5q0 176 -78 331.5t-213 266.5t-324.5 175.5t-404.5 64.5q-285 0 -518 -109.5t-365.5 -301.5t-132.5 -427q0 -232 132.5 -421.5t365.5 -297.5t518 -108zM856 281l330 669h90l328 -669h-97q-6 12 -112 225h-332q-55 -115 -113 -225h-94zM1096 580h266
q-75 139 -133 266q-74 -146 -133 -266z" />
    <glyph glyph-name="B.ss08" 
d="M1225 1546q239 0 449 -71.5t360 -195.5t236.5 -298.5t86.5 -372.5q0 -156 -55 -298t-157.5 -255t-241 -196.5t-313 -128.5t-365.5 -45q-237 0 -446.5 71t-359 193.5t-236.5 294t-87 364.5q0 198 87 372.5t236.5 298.5t359 195.5t446.5 71.5zM1225 -217q287 0 520.5 107.5
t366.5 297t133 422.5q0 176 -78 331.5t-213 266.5t-324.5 175.5t-404.5 64.5q-285 0 -518 -109.5t-365.5 -301.5t-132.5 -427q0 -232 132.5 -421.5t365.5 -297.5t518 -108zM1399 623q69 -20 108 -61.5t39 -96.5q0 -84 -73.5 -134t-178.5 -50h-329v669h292q116 0 189.5 -50.5
t73.5 -129.5q0 -48 -32 -87.5t-89 -59.5zM1057 874v-221h190q82 0 130 29.5t48 79.5q0 51 -51 81.5t-133 30.5h-184zM1272 356q79 0 128.5 29t49.5 80q0 52 -51.5 84.5t-134.5 32.5h-207v-226h215z" />
    <glyph glyph-name="C.ss08" 
d="M1225 -315q-237 0 -446.5 71t-359 193.5t-236.5 294t-87 364.5q0 198 87 372.5t236.5 298.5t359 195.5t446.5 71.5q239 0 449 -71.5t360 -195.5t236.5 -298.5t86.5 -372.5q0 -156 -55 -298t-157.5 -255t-241 -196.5t-313 -128.5t-365.5 -45zM1225 -217q287 0 520.5 107.5
t366.5 297t133 422.5q0 176 -78 331.5t-213 266.5t-324.5 175.5t-404.5 64.5q-285 0 -518 -109.5t-365.5 -301.5t-132.5 -427q0 -232 132.5 -421.5t365.5 -297.5t518 -108zM1253 266q-180 0 -294.5 97t-114.5 249q0 154 116 252.5t287 98.5q131 0 229 -55.5t132 -149.5
l-80 -29q-33 73 -109 114.5t-170 41.5q-136 0 -223.5 -77t-87.5 -198q0 -87 47.5 -149.5t118 -90.5t153.5 -28q113 0 192 52.5t107 146.5l82 -27q-40 -118 -141.5 -183t-243.5 -65z" />
    <glyph glyph-name="D.ss08" horiz-adv-x="2459" 
d="M1225 -315q-237 0 -446.5 71t-359 193.5t-236.5 294t-87 364.5q0 198 87 372.5t236.5 298.5t359 195.5t446.5 71.5q239 0 449 -71.5t360 -195.5t236.5 -298.5t86.5 -372.5q0 -156 -55 -298t-157.5 -255t-241 -196.5t-313 -128.5t-365.5 -45zM1225 -217q287 0 520.5 107.5
t366.5 297t133 422.5q0 176 -78 331.5t-213 266.5t-324.5 175.5t-404.5 64.5q-285 0 -518 -109.5t-365.5 -301.5t-132.5 -427q0 -232 132.5 -421.5t365.5 -297.5t518 -108zM1235 281h-299v669h291q180 0 281.5 -88.5t101.5 -243.5q0 -153 -103 -245t-272 -92zM1028 356h211
q130 0 204.5 68.5t74.5 189.5q0 130 -83.5 195t-224.5 65h-182v-518z" />
    <glyph glyph-name="E.ss08" 
d="M1225 -315q-237 0 -446.5 71t-359 193.5t-236.5 294t-87 364.5q0 198 87 372.5t236.5 298.5t359 195.5t446.5 71.5q239 0 449 -71.5t360 -195.5t236.5 -298.5t86.5 -372.5q0 -156 -55 -298t-157.5 -255t-241 -196.5t-313 -128.5t-365.5 -45zM1225 -217q287 0 520.5 107.5
t366.5 297t133 422.5q0 176 -78 331.5t-213 266.5t-324.5 175.5t-404.5 64.5q-285 0 -518 -109.5t-365.5 -301.5t-132.5 -427q0 -232 132.5 -421.5t365.5 -297.5t518 -108zM1511 281h-526v669h518v-76h-428v-210h408v-78h-408v-228h436v-77z" />
    <glyph glyph-name="F.ss08" 
d="M1225 -315q-237 0 -446.5 71t-359 193.5t-236.5 294t-87 364.5q0 198 87 372.5t236.5 298.5t359 195.5t446.5 71.5q239 0 449 -71.5t360 -195.5t236.5 -298.5t86.5 -372.5q0 -156 -55 -298t-157.5 -255t-241 -196.5t-313 -128.5t-365.5 -45zM1225 -217q287 0 520.5 107.5
t366.5 297t133 422.5q0 176 -78 331.5t-213 266.5t-324.5 175.5t-404.5 64.5q-285 0 -518 -109.5t-365.5 -301.5t-132.5 -427q0 -232 132.5 -421.5t365.5 -297.5t518 -108zM1092 281h-91v669h508v-78h-417v-217h397v-75h-397v-299z" />
    <glyph glyph-name="G.ss08" 
d="M1225 1546q239 0 449 -71.5t360 -195.5t236.5 -298.5t86.5 -372.5q0 -156 -55 -298t-157.5 -255t-241 -196.5t-313 -128.5t-365.5 -45q-237 0 -446.5 71t-359 193.5t-236.5 294t-87 364.5q0 198 87 372.5t236.5 298.5t359 195.5t446.5 71.5zM1225 -217q287 0 520.5 107.5
t366.5 297t133 422.5q0 176 -78 331.5t-213 266.5t-324.5 175.5t-404.5 64.5q-285 0 -518 -109.5t-365.5 -301.5t-132.5 -427q0 -232 132.5 -421.5t365.5 -297.5t518 -108zM1264 547v69h368v-335h-80v129q-91 -144 -307 -144q-175 0 -288 97t-113 249t114.5 251.5
t288.5 99.5q131 0 229 -55.5t132 -149.5l-80 -29q-33 72 -109 114t-168 42q-137 0 -225 -77t-88 -198q0 -129 94.5 -198.5t224.5 -69.5q115 0 193 56.5t90 148.5h-276z" />
    <glyph glyph-name="H.ss08" 
d="M1225 1546q239 0 449 -71.5t360 -195.5t236.5 -298.5t86.5 -372.5q0 -156 -55 -298t-157.5 -255t-241 -196.5t-313 -128.5t-365.5 -45q-237 0 -446.5 71t-359 193.5t-236.5 294t-87 364.5q0 198 87 372.5t236.5 298.5t359 195.5t446.5 71.5zM1225 -217q287 0 520.5 107.5
t366.5 297t133 422.5q0 176 -78 331.5t-213 266.5t-324.5 175.5t-404.5 64.5q-285 0 -518 -109.5t-365.5 -301.5t-132.5 -427q0 -232 132.5 -421.5t365.5 -297.5t518 -108zM1008 655h444v295h90v-669h-90v299h-444v-299h-93v669h93v-295z" />
    <glyph glyph-name="I.ss08" horiz-adv-x="2459" 
d="M1227 -315q-237 0 -446.5 71t-359 193.5t-236.5 294t-87 364.5q0 198 87 372.5t236.5 298.5t359 195.5t446.5 71.5q239 0 449 -71.5t360 -195.5t236.5 -298.5t86.5 -372.5q0 -156 -55 -298t-157.5 -255t-241 -196.5t-313 -128.5t-365.5 -45zM1227 -217q287 0 520.5 107.5
t366.5 297t133 422.5q0 176 -78 331.5t-213 266.5t-324.5 175.5t-404.5 64.5q-285 0 -518 -109.5t-365.5 -301.5t-132.5 -427q0 -232 132.5 -421.5t365.5 -297.5t518 -108zM1276 281h-92v669h92v-669z" />
    <glyph glyph-name="J.ss08" 
d="M1225 -315q-237 0 -446.5 71t-359 193.5t-236.5 294t-87 364.5q0 198 87 372.5t236.5 298.5t359 195.5t446.5 71.5q239 0 449 -71.5t360 -195.5t236.5 -298.5t86.5 -372.5q0 -156 -55 -298t-157.5 -255t-241 -196.5t-313 -128.5t-365.5 -45zM1225 -217q287 0 520.5 107.5
t366.5 297t133 422.5q0 176 -78 331.5t-213 266.5t-324.5 175.5t-404.5 64.5q-285 0 -518 -109.5t-365.5 -301.5t-132.5 -427q0 -232 132.5 -421.5t365.5 -297.5t518 -108zM1200 272q-118 0 -187 59.5t-69 160.5v26l86 10v-24q0 -73 44.5 -114.5t121.5 -41.5q40 0 69 13
t43 30.5t22 45.5t9.5 46.5t1.5 44.5v428h91v-411q0 -24 -0.5 -40t-5 -47.5t-13 -53.5t-25.5 -48.5t-41 -43.5t-61.5 -28.5t-85.5 -11.5z" />
    <glyph glyph-name="K.ss08" 
d="M1225 1546q239 0 449 -71.5t360 -195.5t236.5 -298.5t86.5 -372.5q0 -156 -55 -298t-157.5 -255t-241 -196.5t-313 -128.5t-365.5 -45q-237 0 -446.5 71t-359 193.5t-236.5 294t-87 364.5q0 198 87 372.5t236.5 298.5t359 195.5t446.5 71.5zM1225 -217q287 0 520.5 107.5
t366.5 297t133 422.5q0 176 -78 331.5t-213 266.5t-324.5 175.5t-404.5 64.5q-285 0 -518 -109.5t-365.5 -301.5t-132.5 -427q0 -232 132.5 -421.5t365.5 -297.5t518 -108zM1448 950h113q-29 -26 -115 -101t-219 -194l348 -374h-113q-52 57 -175 183.5t-126 129.5
q-29 -27 -96 -86v-227h-92v669h92v-334q41 36 119 104.5t142.5 125t121.5 104.5z" />
    <glyph glyph-name="L.ss08" 
d="M1225 1546q239 0 449 -71.5t360 -195.5t236.5 -298.5t86.5 -372.5q0 -156 -55 -298t-157.5 -255t-241 -196.5t-313 -128.5t-365.5 -45q-237 0 -446.5 71t-359 193.5t-236.5 294t-87 364.5q0 198 87 372.5t236.5 298.5t359 195.5t446.5 71.5zM1225 -217q287 0 520.5 107.5
t366.5 297t133 422.5q0 176 -78 331.5t-213 266.5t-324.5 175.5t-404.5 64.5q-285 0 -518 -109.5t-365.5 -301.5t-132.5 -427q0 -232 132.5 -421.5t365.5 -297.5t518 -108zM1049 950h90v-592h407v-77h-497v669z" />
    <glyph glyph-name="M.ss08" horiz-adv-x="2459" 
d="M1225 1546q239 0 449 -71.5t360 -195.5t236.5 -298.5t86.5 -372.5q0 -156 -55 -298t-157.5 -255t-241 -196.5t-313 -128.5t-365.5 -45q-237 0 -446.5 71t-359 193.5t-236.5 294t-87 364.5q0 198 87 372.5t236.5 298.5t359 195.5t446.5 71.5zM1225 -217q287 0 520.5 107.5
t366.5 297t133 422.5q0 176 -78 331.5t-213 266.5t-324.5 175.5t-404.5 64.5q-285 0 -518 -109.5t-365.5 -301.5t-132.5 -427q0 -232 132.5 -421.5t365.5 -297.5t518 -108zM1229 395q57 99 313 555h100v-669h-90v503q-49 -90 -146 -259t-138 -244h-76q-28 50 -82.5 144
t-104.5 182t-98 177v-503h-90v669h101q216 -377 311 -555z" />
    <glyph glyph-name="N.ss08" 
d="M1225 1546q239 0 449 -71.5t360 -195.5t236.5 -298.5t86.5 -372.5q0 -156 -55 -298t-157.5 -255t-241 -196.5t-313 -128.5t-365.5 -45q-237 0 -446.5 71t-359 193.5t-236.5 294t-87 364.5q0 198 87 372.5t236.5 298.5t359 195.5t446.5 71.5zM1225 -217q287 0 520.5 107.5
t366.5 297t133 422.5q0 176 -78 331.5t-213 266.5t-324.5 175.5t-404.5 64.5q-285 0 -518 -109.5t-365.5 -301.5t-132.5 -427q0 -232 132.5 -421.5t365.5 -297.5t518 -108zM1470 416v534h91v-669h-91q-18 21 -192.5 219.5t-267.5 306.5v-526h-92v669h94q433 -505 458 -534z
" />
    <glyph glyph-name="O.ss08" horiz-adv-x="2455" 
d="M1225 -315q-237 0 -446.5 71t-359 193.5t-236.5 294t-87 364.5q0 198 87 372.5t236.5 298.5t359 195.5t446.5 71.5q239 0 449 -71.5t360 -195.5t236.5 -298.5t86.5 -372.5q0 -156 -55 -298t-157.5 -255t-241 -196.5t-313 -128.5t-365.5 -45zM1225 -217q287 0 520.5 107.5
t366.5 297t133 422.5q0 176 -78 331.5t-213 266.5t-324.5 175.5t-404.5 64.5q-285 0 -518 -109.5t-365.5 -301.5t-132.5 -427q0 -232 132.5 -421.5t365.5 -297.5t518 -108zM1229 266q-171 0 -288.5 100.5t-117.5 247.5q0 148 118 248.5t290 100.5q171 0 288 -100.5
t117 -248.5q0 -146 -117.5 -247t-289.5 -101zM1231 342q129 0 219 79t90 193t-90 192.5t-219 78.5q-131 0 -222 -78.5t-91 -192.5t91 -193t222 -79z" />
    <glyph glyph-name="P.ss08" 
d="M1225 1546q239 0 449 -71.5t360 -195.5t236.5 -298.5t86.5 -372.5q0 -156 -55 -298t-157.5 -255t-241 -196.5t-313 -128.5t-365.5 -45q-237 0 -446.5 71t-359 193.5t-236.5 294t-87 364.5q0 198 87 372.5t236.5 298.5t359 195.5t446.5 71.5zM1225 -217q287 0 520.5 107.5
t366.5 297t133 422.5q0 176 -78 331.5t-213 266.5t-324.5 175.5t-404.5 64.5q-285 0 -518 -109.5t-365.5 -301.5t-132.5 -427q0 -232 132.5 -421.5t365.5 -297.5t518 -108zM987 950h285q54 0 101 -12t85.5 -36t61 -63.5t22.5 -90.5q0 -102 -75 -156.5t-179 -54.5h-211v-256
h-90v669zM1077 614h191q85 0 133.5 32.5t48.5 96.5q0 63 -52 97t-136 34h-185v-260z" />
    <glyph glyph-name="Q.ss08" 
d="M1225 -315q-237 0 -446.5 71t-359 193.5t-236.5 294t-87 364.5q0 198 87 372.5t236.5 298.5t359 195.5t446.5 71.5q239 0 449 -71.5t360 -195.5t236.5 -298.5t86.5 -372.5q0 -156 -55 -298t-157.5 -255t-241 -196.5t-313 -128.5t-365.5 -45zM1225 -217q287 0 520.5 107.5
t366.5 297t133 422.5q0 176 -78 331.5t-213 266.5t-324.5 175.5t-404.5 64.5q-285 0 -518 -109.5t-365.5 -301.5t-132.5 -427q0 -232 132.5 -421.5t365.5 -297.5t518 -108zM1606 281l-64 -50q-70 66 -115 111q-90 -43 -202 -43q-173 0 -291.5 100t-118.5 248
q0 147 119 247.5t293 100.5q171 0 289 -100.5t118 -247.5q0 -77 -35.5 -145t-99.5 -115q43 -45 107 -106zM1227 375q71 0 139 33q-22 21 -57.5 54t-61 56.5t-28.5 26.5l65 49q19 -18 156 -145q98 82 98 198q0 114 -91 192.5t-220 78.5q-132 0 -224 -78.5t-92 -192.5
q0 -115 91.5 -193.5t224.5 -78.5z" />
    <glyph glyph-name="R.ss08" 
d="M1225 1546q239 0 449 -71.5t360 -195.5t236.5 -298.5t86.5 -372.5q0 -156 -55 -298t-157.5 -255t-241 -196.5t-313 -128.5t-365.5 -45q-237 0 -446.5 71t-359 193.5t-236.5 294t-87 364.5q0 198 87 372.5t236.5 298.5t359 195.5t446.5 71.5zM1225 -217q287 0 520.5 107.5
t366.5 297t133 422.5q0 176 -78 331.5t-213 266.5t-324.5 175.5t-404.5 64.5q-285 0 -518 -109.5t-365.5 -301.5t-132.5 -427q0 -232 132.5 -421.5t365.5 -297.5t518 -108zM1544 745q0 -79 -53.5 -133.5t-142.5 -66.5q115 -145 215 -264h-105l-209 258h-170v-258h-90v669
h285q72 0 131 -20.5t99 -68.5t40 -116zM1079 612h191q84 0 133 33.5t49 97.5q0 62 -52 96.5t-136 34.5h-185v-262z" />
    <glyph glyph-name="S.ss08" 
d="M1225 -315q-237 0 -446.5 71t-359 193.5t-236.5 294t-87 364.5q0 198 87 372.5t236.5 298.5t359 195.5t446.5 71.5q239 0 449 -71.5t360 -195.5t236.5 -298.5t86.5 -372.5q0 -156 -55 -298t-157.5 -255t-241 -196.5t-313 -128.5t-365.5 -45zM1225 -217q287 0 520.5 107.5
t366.5 297t133 422.5q0 176 -78 331.5t-213 266.5t-324.5 175.5t-404.5 64.5q-285 0 -518 -109.5t-365.5 -301.5t-132.5 -427q0 -232 132.5 -421.5t365.5 -297.5t518 -108zM1243 266q-116 0 -197 53.5t-112 151.5l84 27q22 -72 82 -114t143 -42q72 0 127 30t55 87
q0 12 -2.5 23t-9 19.5t-12.5 15t-18 12.5t-19.5 9.5t-23.5 8.5t-24 7t-26.5 6.5t-25.5 6.5l-76 21q-223 54 -223 190q0 59 40.5 102t99.5 63t126 20q101 0 174.5 -45.5t99.5 -122.5l-82 -31q-22 58 -74.5 89.5t-125.5 31.5q-71 0 -117.5 -28.5t-46.5 -72.5q0 -21 12 -39.5
t26.5 -30t40 -22.5t39 -15t37.5 -11q2 -1 3.5 -1.5t3.5 -0.5l75 -19q106 -28 147 -51q81 -46 81 -127q0 -87 -81 -144t-200 -57z" />
    <glyph glyph-name="T.ss08" horiz-adv-x="2455" 
d="M1225 -315q-237 0 -446.5 71t-359 193.5t-236.5 294t-87 364.5q0 198 87 372.5t236.5 298.5t359 195.5t446.5 71.5q239 0 449 -71.5t360 -195.5t236.5 -298.5t86.5 -372.5q0 -156 -55 -298t-157.5 -255t-241 -196.5t-313 -128.5t-365.5 -45zM1225 -217q287 0 520.5 107.5
t366.5 297t133 422.5q0 176 -78 331.5t-213 266.5t-324.5 175.5t-404.5 64.5q-285 0 -518 -109.5t-365.5 -301.5t-132.5 -427q0 -232 132.5 -421.5t365.5 -297.5t518 -108zM1272 281h-90v593h-271v76h631v-76h-270v-593z" />
    <glyph glyph-name="U.ss08" horiz-adv-x="2459" 
d="M1225 -315q-237 0 -446.5 71t-359 193.5t-236.5 294t-87 364.5q0 198 87 372.5t236.5 298.5t359 195.5t446.5 71.5q239 0 449 -71.5t360 -195.5t236.5 -298.5t86.5 -372.5q0 -156 -55 -298t-157.5 -255t-241 -196.5t-313 -128.5t-365.5 -45zM1225 -217q287 0 520.5 107.5
t366.5 297t133 422.5q0 176 -78 331.5t-213 266.5t-324.5 175.5t-404.5 64.5q-285 0 -518 -109.5t-365.5 -301.5t-132.5 -427q0 -232 132.5 -421.5t365.5 -297.5t518 -108zM1227 272q-144 0 -217.5 72t-73.5 188v424h92v-419q0 -189 201 -189q203 0 203 189v419h92v-424
q0 -115 -75.5 -187.5t-221.5 -72.5z" />
    <glyph glyph-name="V.ss08" 
d="M1225 1546q239 0 449 -71.5t360 -195.5t236.5 -298.5t86.5 -372.5q0 -156 -55 -298t-157.5 -255t-241 -196.5t-313 -128.5t-365.5 -45q-237 0 -446.5 71t-359 193.5t-236.5 294t-87 364.5q0 198 87 372.5t236.5 298.5t359 195.5t446.5 71.5zM1225 -217q287 0 520.5 107.5
t366.5 297t133 422.5q0 176 -78 331.5t-213 266.5t-324.5 175.5t-404.5 64.5q-285 0 -518 -109.5t-365.5 -301.5t-132.5 -427q0 -232 132.5 -421.5t365.5 -297.5t518 -108zM1235 383q107 234 276 567h97l-328 -669h-92l-328 669h94q36 -65 80.5 -154.5t111.5 -229t89 -183.5
z" />
    <glyph glyph-name="W.ss08" 
d="M1225 1546q239 0 449 -71.5t360 -195.5t236.5 -298.5t86.5 -372.5q0 -156 -55 -298t-157.5 -255t-241 -196.5t-313 -128.5t-365.5 -45q-237 0 -446.5 71t-359 193.5t-236.5 294t-87 364.5q0 198 87 372.5t236.5 298.5t359 195.5t446.5 71.5zM1225 -217q287 0 520.5 107.5
t366.5 297t133 422.5q0 176 -78 331.5t-213 266.5t-324.5 175.5t-404.5 64.5q-285 0 -518 -109.5t-365.5 -301.5t-132.5 -427q0 -232 132.5 -421.5t365.5 -297.5t518 -108zM1489 395q20 50 96.5 249.5t120.5 305.5h94l-260 -669h-100q-53 126 -211 540q-114 -307 -209 -540
h-100l-263 669h99q19 -47 217 -551q33 88 94.5 247t116.5 304h92z" />
    <glyph glyph-name="X.ss08" 
d="M1225 1546q239 0 449 -71.5t360 -195.5t236.5 -298.5t86.5 -372.5q0 -156 -55 -298t-157.5 -255t-241 -196.5t-313 -128.5t-365.5 -45q-237 0 -446.5 71t-359 193.5t-236.5 294t-87 364.5q0 198 87 372.5t236.5 298.5t359 195.5t446.5 71.5zM1225 -217q287 0 520.5 107.5
t366.5 297t133 422.5q0 176 -78 331.5t-213 266.5t-324.5 175.5t-404.5 64.5q-285 0 -518 -109.5t-365.5 -301.5t-132.5 -427q0 -232 132.5 -421.5t365.5 -297.5t518 -108zM1454 950h102q-176 -212 -274 -327q116 -137 281 -342h-103q-26 30 -231 276q-78 -96 -230 -276
h-104q196 241 283 342q-128 149 -277 327h105q137 -165 223 -264q24 27 102 120.5t123 143.5z" />
    <glyph glyph-name="Y.ss08" 
d="M1225 1546q239 0 449 -71.5t360 -195.5t236.5 -298.5t86.5 -372.5q0 -156 -55 -298t-157.5 -255t-241 -196.5t-313 -128.5t-365.5 -45q-237 0 -446.5 71t-359 193.5t-236.5 294t-87 364.5q0 198 87 372.5t236.5 298.5t359 195.5t446.5 71.5zM1225 -217q287 0 520.5 107.5
t366.5 297t133 422.5q0 176 -78 331.5t-213 266.5t-324.5 175.5t-404.5 64.5q-285 0 -518 -109.5t-365.5 -301.5t-132.5 -427q0 -232 132.5 -421.5t365.5 -297.5t518 -108zM1229 602q220 307 250 348h98q-106 -149 -305 -426v-243h-88v243q-222 313 -303 426h102
q41 -61 124 -176t122 -172z" />
    <glyph glyph-name="Z.ss08" 
d="M1225 1546q239 0 449 -71.5t360 -195.5t236.5 -298.5t86.5 -372.5q0 -156 -55 -298t-157.5 -255t-241 -196.5t-313 -128.5t-365.5 -45q-237 0 -446.5 71t-359 193.5t-236.5 294t-87 364.5q0 198 87 372.5t236.5 298.5t359 195.5t446.5 71.5zM1225 -217q287 0 520.5 107.5
t366.5 297t133 422.5q0 176 -78 331.5t-213 266.5t-324.5 175.5t-404.5 64.5q-285 0 -518 -109.5t-365.5 -301.5t-132.5 -427q0 -232 132.5 -421.5t365.5 -297.5t518 -108zM1546 950v-73q-353 -367 -502 -519h510v-77h-624v73q29 30 165.5 169.5t336.5 350.5h-482v76h596z
" />
    <glyph glyph-name="i.loclTRK" horiz-adv-x="604" 
d="M305 1399q-60 0 -99.5 36t-39.5 89q0 50 40 85.5t99 35.5q57 0 96 -35.5t39 -85.5q0 -53 -39 -89t-96 -36zM387 0h-168v1133h168v-1133z" />
    <glyph glyph-name="a.ss01" horiz-adv-x="1650" 
d="M743 -35q-181 0 -325 77.5t-224.5 214t-80.5 306.5q0 177 86 315.5t230 212.5t319 74q161 0 298.5 -67t215.5 -189h4v224h166v-1133h-164v217h-6q-80 -123 -217.5 -187.5t-301.5 -64.5zM772 111q208 0 348 132.5t140 325.5q0 194 -143 322.5t-349 128.5q-205 0 -340 -129
t-135 -326t136.5 -325.5t342.5 -128.5z" />
    <glyph glyph-name="aacute.ss01" horiz-adv-x="1650" 
d="M1268 1669l-373 -391h-150l293 391h230zM743 -35q-181 0 -325 77.5t-224.5 214t-80.5 306.5q0 177 86 315.5t230 212.5t319 74q161 0 298.5 -67t215.5 -189h4v224h166v-1133h-164v217h-6q-80 -123 -217.5 -187.5t-301.5 -64.5zM772 111q208 0 348 132.5t140 325.5
q0 194 -143 322.5t-349 128.5q-205 0 -340 -129t-135 -326t136.5 -325.5t342.5 -128.5z" />
    <glyph glyph-name="abreve.ss01" horiz-adv-x="1650" 
d="M829 1274q-204 0 -322 110.5t-126 284.5h149q5 -119 87 -194.5t214 -75.5q131 0 214.5 74.5t89.5 195.5h149q-8 -174 -128 -284.5t-327 -110.5zM743 -35q-181 0 -325 77.5t-224.5 214t-80.5 306.5q0 177 86 315.5t230 212.5t319 74q161 0 298.5 -67t215.5 -189h4v224h166
v-1133h-164v217h-6q-80 -123 -217.5 -187.5t-301.5 -64.5zM772 111q208 0 348 132.5t140 325.5q0 194 -143 322.5t-349 128.5q-205 0 -340 -129t-135 -326t136.5 -325.5t342.5 -128.5z" />
    <glyph glyph-name="acircumflex.ss01" horiz-adv-x="1650" 
d="M524 1278h-159l356 360h217l356 -360h-159q-255 211 -306 256q-156 -136 -305 -256zM743 -35q-181 0 -325 77.5t-224.5 214t-80.5 306.5q0 177 86 315.5t230 212.5t319 74q161 0 298.5 -67t215.5 -189h4v224h166v-1133h-164v217h-6q-80 -123 -217.5 -187.5t-301.5 -64.5z
M772 111q208 0 348 132.5t140 325.5q0 194 -143 322.5t-349 128.5q-205 0 -340 -129t-135 -326t136.5 -325.5t342.5 -128.5z" />
    <glyph glyph-name="adieresis.ss01" horiz-adv-x="1650" 
d="M610 1362q-54 0 -91.5 34t-37.5 83q0 45 37.5 77.5t91.5 32.5t90.5 -32.5t36.5 -77.5q0 -50 -36 -83.5t-91 -33.5zM1051 1362q-56 0 -92.5 33.5t-36.5 83.5q0 45 36.5 77.5t92.5 32.5q52 0 89.5 -32.5t37.5 -77.5q0 -49 -37 -83t-90 -34zM743 -35q-181 0 -325 77.5
t-224.5 214t-80.5 306.5q0 177 86 315.5t230 212.5t319 74q161 0 298.5 -67t215.5 -189h4v224h166v-1133h-164v217h-6q-80 -123 -217.5 -187.5t-301.5 -64.5zM772 111q208 0 348 132.5t140 325.5q0 194 -143 322.5t-349 128.5q-205 0 -340 -129t-135 -326t136.5 -325.5
t342.5 -128.5z" />
    <glyph glyph-name="agrave.ss01" horiz-adv-x="1650" 
d="M911 1278h-149l-373 391h227zM743 -35q-181 0 -325 77.5t-224.5 214t-80.5 306.5q0 177 86 315.5t230 212.5t319 74q161 0 298.5 -67t215.5 -189h4v224h166v-1133h-164v217h-6q-80 -123 -217.5 -187.5t-301.5 -64.5zM772 111q208 0 348 132.5t140 325.5q0 194 -143 322.5
t-349 128.5q-205 0 -340 -129t-135 -326t136.5 -325.5t342.5 -128.5z" />
    <glyph glyph-name="amacron.ss01" horiz-adv-x="1650" 
d="M1243 1405h-825v125h825v-125zM743 -35q-181 0 -325 77.5t-224.5 214t-80.5 306.5q0 177 86 315.5t230 212.5t319 74q161 0 298.5 -67t215.5 -189h4v224h166v-1133h-164v217h-6q-80 -123 -217.5 -187.5t-301.5 -64.5zM772 111q208 0 348 132.5t140 325.5
q0 194 -143 322.5t-349 128.5q-205 0 -340 -129t-135 -326t136.5 -325.5t342.5 -128.5z" />
    <glyph glyph-name="aogonek.ss01" horiz-adv-x="1650" 
d="M1409 -350q52 0 107 14v-113q-63 -14 -123 -14q-137 0 -229.5 62.5t-92.5 169.5q0 141 199 231h-2v217h-6q-80 -123 -217.5 -187.5t-301.5 -64.5q-181 0 -325 77.5t-224.5 214t-80.5 306.5q0 177 86 315.5t230 212.5t319 74q161 0 298.5 -67t215.5 -189h4v224h166v-1133
h-25q-205 -80 -205 -203q0 -66 59.5 -106.5t147.5 -40.5zM772 111q208 0 348 132.5t140 325.5q0 194 -143 322.5t-349 128.5q-205 0 -340 -129t-135 -326t136.5 -325.5t342.5 -128.5z" />
    <glyph glyph-name="aring.ss01" horiz-adv-x="1650" 
d="M831 1249q-118 0 -196 63.5t-78 160.5t77.5 160t196.5 63q115 0 193 -63.5t78 -159.5q0 -97 -78 -160.5t-193 -63.5zM831 1352q65 0 108.5 33.5t43.5 87.5q0 53 -43.5 85.5t-108.5 32.5q-67 0 -111 -32.5t-44 -85.5q0 -55 44 -88t111 -33zM743 -35q-181 0 -325 77.5
t-224.5 214t-80.5 306.5q0 177 86 315.5t230 212.5t319 74q161 0 298.5 -67t215.5 -189h4v224h166v-1133h-164v217h-6q-80 -123 -217.5 -187.5t-301.5 -64.5zM772 111q208 0 348 132.5t140 325.5q0 194 -143 322.5t-349 128.5q-205 0 -340 -129t-135 -326t136.5 -325.5
t342.5 -128.5z" />
    <glyph glyph-name="atilde.ss01" horiz-adv-x="1650" 
d="M1018 1323q-36 0 -64.5 5t-55.5 19t-37.5 20.5t-39.5 27.5l-49 32q-65 50 -119 50q-55 0 -90 -39.5t-35 -98.5h-129q1 115 73 186.5t183 71.5q51 0 91 -16t88 -49l51 -35q69 -51 131 -51q54 0 84 38t30 99h132q0 -121 -64.5 -190.5t-179.5 -69.5zM743 -35
q-181 0 -325 77.5t-224.5 214t-80.5 306.5q0 177 86 315.5t230 212.5t319 74q161 0 298.5 -67t215.5 -189h4v224h166v-1133h-164v217h-6q-80 -123 -217.5 -187.5t-301.5 -64.5zM772 111q208 0 348 132.5t140 325.5q0 194 -143 322.5t-349 128.5q-205 0 -340 -129t-135 -326
t136.5 -325.5t342.5 -128.5z" />
    <glyph glyph-name="b.ss01" horiz-adv-x="1390" 
d="M801 -35q-140 0 -249 50t-169 143h-4v-158h-160v1638h168v-995h6q60 80 167.5 121t238.5 41q228 0 372 -121t144 -303q0 -177 -144 -296.5t-370 -119.5zM786 96q152 0 255.5 82t103.5 207q0 120 -96.5 204.5t-260.5 84.5q-170 0 -269 -83.5t-99 -199.5q0 -122 105 -208.5
t261 -86.5z" />
    <glyph glyph-name="d.ss01" horiz-adv-x="1642" 
d="M743 -35q-182 0 -326 77.5t-224 214t-80 306.5q0 177 86 315.5t230 212.5t319 74q159 0 291.5 -65.5t211.5 -186.5h6v725h170v-1638h-159v217h-6q-80 -122 -218 -187t-301 -65zM768 111q135 0 247 57t178.5 162t66.5 237q0 197 -143.5 325t-348.5 128t-340 -129
t-135 -326t135.5 -325.5t339.5 -128.5z" />
    <glyph glyph-name="dcaron.ss01" horiz-adv-x="1656" 
d="M1683 1169h-108l154 258q-43 13 -67 44.5t-24 70.5q0 50 41 84.5t99 34.5q56 0 95.5 -35t39.5 -84q0 -42 -39.5 -104.5t-190.5 -268.5zM743 -35q-182 0 -326 77.5t-224 214t-80 306.5q0 177 86 315.5t230 212.5t319 74q159 0 291.5 -65.5t211.5 -186.5h6v725h170v-1638
h-159v217h-6q-80 -122 -218 -187t-301 -65zM768 111q135 0 247 57t178.5 162t66.5 237q0 197 -143.5 325t-348.5 128t-340 -129t-135 -326t135.5 -325.5t339.5 -128.5z" />
    <glyph glyph-name="dcroat.ss01" horiz-adv-x="1642" 
d="M1427 1448h318v-125h-318v-1323h-159v217h-6q-80 -122 -218 -187t-301 -65q-182 0 -326 77.5t-224 214t-80 306.5q0 177 86 315.5t230 212.5t319 74q159 0 291.5 -65.5t211.5 -186.5h6v410h-344v125h344v190h170v-190zM768 111q135 0 247 57t178.5 162t66.5 237
q0 197 -143.5 325t-348.5 128t-340 -129t-135 -326t135.5 -325.5t339.5 -128.5z" />
    <glyph glyph-name="g.ss01" horiz-adv-x="1642" 
d="M1425 -451h-1218v142h1048v561h-6q-78 -123 -211.5 -186.5t-296.5 -63.5q-182 0 -326.5 77.5t-224 210.5t-79.5 296q0 167 84 300t227.5 206t318.5 73q164 0 300 -66.5t214 -189.5h5v224h165v-1584zM766 147q204 0 347.5 127.5t143.5 313.5t-143.5 309t-347.5 123
t-339.5 -124.5t-135.5 -307.5q0 -186 136.5 -313.5t338.5 -127.5z" />
    <glyph glyph-name="gbreve.ss01" horiz-adv-x="1642" 
d="M825 1274q-204 0 -322 110.5t-126 284.5h149q5 -119 87 -194.5t214 -75.5q130 0 213.5 74t89.5 196h150q-8 -174 -128 -284.5t-327 -110.5zM1425 -451h-1218v142h1048v561h-6q-78 -123 -211.5 -186.5t-296.5 -63.5q-182 0 -326.5 77.5t-224 210.5t-79.5 296q0 167 84 300
t227.5 206t318.5 73q164 0 300 -66.5t214 -189.5h5v224h165v-1584zM766 147q204 0 347.5 127.5t143.5 313.5t-143.5 309t-347.5 123t-339.5 -124.5t-135.5 -307.5q0 -186 136.5 -313.5t338.5 -127.5z" />
    <glyph glyph-name="uni0123.ss01" horiz-adv-x="1642" 
d="M670 1368q0 39 29.5 88.5t134.5 198.5q10 14 16 22t15.5 21.5t17.5 25.5h108l-147 -245q40 -14 63 -42.5t23 -66.5q0 -47 -38 -80t-93 -33q-54 0 -91.5 32.5t-37.5 78.5zM1425 -451h-1218v142h1048v561h-6q-78 -123 -211.5 -186.5t-296.5 -63.5q-182 0 -326.5 77.5
t-224 210.5t-79.5 296q0 167 84 300t227.5 206t318.5 73q164 0 300 -66.5t214 -189.5h5v224h165v-1584zM766 147q204 0 347.5 127.5t143.5 313.5t-143.5 309t-347.5 123t-339.5 -124.5t-135.5 -307.5q0 -186 136.5 -313.5t338.5 -127.5z" />
    <glyph glyph-name="gdotaccent.ss01" horiz-adv-x="1642" 
d="M829 1405q-60 0 -99.5 36t-39.5 89q0 50 40 85.5t99 35.5q57 0 96.5 -35.5t39.5 -85.5q0 -52 -39.5 -88.5t-96.5 -36.5zM1425 -451h-1218v142h1048v561h-6q-78 -123 -211.5 -186.5t-296.5 -63.5q-182 0 -326.5 77.5t-224 210.5t-79.5 296q0 167 84 300t227.5 206
t318.5 73q164 0 300 -66.5t214 -189.5h5v224h165v-1584zM766 147q204 0 347.5 127.5t143.5 313.5t-143.5 309t-347.5 123t-339.5 -124.5t-135.5 -307.5q0 -186 136.5 -313.5t338.5 -127.5z" />
    <glyph glyph-name="i.ss01" horiz-adv-x="847" 
d="M436 1399q-60 0 -99.5 36t-39.5 89q0 50 40 85.5t99 35.5q57 0 96 -35.5t39 -85.5q0 -53 -39 -89t-96 -36zM813 0h-455v989h-331v144h499v-990h287v-143z" />
    <glyph glyph-name="dotlessi.ss01" horiz-adv-x="847" 
d="M813 0h-455v989h-331v144h499v-990h287v-143z" />
    <glyph glyph-name="iacute.ss01" horiz-adv-x="847" 
d="M815 1669l-373 -391h-149l293 391h229zM813 0h-455v989h-331v144h499v-990h287v-143z" />
    <glyph glyph-name="icircumflex.ss01" horiz-adv-x="847" 
d="M70 1278h-160l356 360h217l357 -360h-160q-239 198 -305 256q-156 -136 -305 -256zM813 0h-455v989h-331v144h499v-990h287v-143z" />
    <glyph glyph-name="idieresis.ss01" horiz-adv-x="847" 
d="M156 1362q-54 0 -91.5 34t-37.5 83q0 45 37.5 77.5t91.5 32.5t90.5 -32.5t36.5 -77.5q0 -50 -36 -83.5t-91 -33.5zM596 1362q-56 0 -92.5 33.5t-36.5 83.5q0 45 36.5 77.5t92.5 32.5q52 0 89.5 -32.5t37.5 -77.5q0 -49 -37 -83t-90 -34zM813 0h-455v989h-331v144h499
v-990h287v-143z" />
    <glyph glyph-name="i.loclTRK.ss01" horiz-adv-x="847" 
d="M403 1405q-60 0 -99.5 35.5t-39.5 89.5q0 48 40 83.5t99 35.5q57 0 97.5 -35.5t40.5 -83.5q0 -53 -40 -89t-98 -36zM813 0h-455v989h-331v144h499v-990h287v-143z" />
    <glyph glyph-name="igrave.ss01" horiz-adv-x="847" 
d="M459 1278h-150l-372 391h227zM813 0h-455v989h-331v144h499v-990h287v-143z" />
    <glyph glyph-name="imacron.ss01" horiz-adv-x="847" 
d="M788 1405h-825v125h825v-125zM813 0h-455v989h-331v144h499v-990h287v-143z" />
    <glyph glyph-name="iogonek.ss01" horiz-adv-x="847" 
d="M379 1405q-60 0 -99.5 36t-39.5 89q0 50 40 85.5t99 35.5q57 0 96 -35.5t39 -85.5q0 -53 -39 -89t-96 -36zM813 0h-324q-198 -80 -198 -201q0 -66 59.5 -106.5t147.5 -40.5q51 0 106 14v-112q-68 -15 -123 -15q-137 0 -229 62.5t-92 169.5q0 141 198 231v987h-331v144
h499v-990h287v-143z" />
    <glyph glyph-name="j.ss01" horiz-adv-x="755" 
d="M449 1399q-60 0 -100 36t-40 89q0 50 40.5 85.5t99.5 35.5q57 0 97 -35.5t40 -85.5q0 -52 -40 -88.5t-97 -36.5zM539 -451h-672v142h504v1298h-344v144h512v-1584z" />
    <glyph glyph-name="l.ss01" horiz-adv-x="903" 
d="M895 0h-668v1638h168v-1495h500v-143z" />
    <glyph glyph-name="lacute.ss01" horiz-adv-x="903" 
d="M885 2091l-408 -328h-155l311 328h252zM895 0h-668v1638h168v-1495h500v-143z" />
    <glyph glyph-name="lcaron.ss01" horiz-adv-x="903" 
d="M707 1149h-111l156 258q-43 13 -68 44.5t-25 70.5q0 49 41.5 83.5t98.5 34.5t97 -34.5t40 -83.5q0 -40 -36 -98t-167 -239q-17 -24 -26 -36zM895 0h-668v1638h168v-1495h500v-143z" />
    <glyph glyph-name="uni013C.ss01" horiz-adv-x="903" 
d="M895 0h-668v1638h168v-1495h500v-143zM397 -537h-86l119 199q-53 13 -78.5 42.5t-25.5 68.5q0 47 38 79.5t93 32.5q54 0 91.5 -32.5t37.5 -79.5q0 -38 -30 -86.5t-123 -175.5q-8 -10 -12 -15.5t-11 -15t-13 -17.5z" />
    <glyph glyph-name="lslash.ss01" horiz-adv-x="903" 
d="M395 911v-768h500v-143h-668v809l-247 -152v140l247 151v690h168v-587l236 145v-139z" />
    <glyph glyph-name="m.ss01" horiz-adv-x="2480" 
d="M387 0h-168v1133h168v-476l723 476h215v-474l721 474h217v-1133h-170v979h-14l-754 -494v-485h-168v979h-14l-756 -494v-485z" />
    <glyph glyph-name="n.ss01" horiz-adv-x="1568" 
d="M387 629l772 504h193v-1133h-168v963h-15l-782 -484v-479h-168v1133h168v-504z" />
    <glyph glyph-name="nacute.ss01" horiz-adv-x="1568" 
d="M993 1669h230l-373 -391h-150zM387 629l772 504h193v-1133h-168v963h-15l-782 -484v-479h-168v1133h168v-504z" />
    <glyph glyph-name="ncaron.ss01" horiz-adv-x="1568" 
d="M1249 1649l-356 -365h-217l-357 365h160q171 -139 305 -256q53 47 306 256h159zM387 629l772 504h193v-1133h-168v963h-15l-782 -484v-479h-168v1133h168v-504z" />
    <glyph glyph-name="uni0146.ss01" horiz-adv-x="1568" 
d="M387 629l772 504h193v-1133h-168v963h-15l-782 -484v-479h-168v1133h168v-504zM817 -115q54 0 91.5 -32.5t37.5 -79.5q0 -39 -29.5 -86.5t-130.5 -185.5q-6 -8 -9.5 -12.5t-8.5 -12t-10 -13.5h-86l119 199q-105 26 -105 111q0 47 38 79.5t93 32.5z" />
    <glyph glyph-name="eng.ss01" horiz-adv-x="1568" 
d="M969 -483q-149 0 -258 53v143q111 -57 227 -57q51 0 91 13t65.5 31t43.5 50t26.5 56.5t13.5 65t5.5 62t0.5 58.5v971h-15l-782 -484v-479h-168v1133h168v-492l772 492h193v-1147q0 -40 -0.5 -62t-4 -65.5t-9.5 -71t-19.5 -67t-32 -65t-48 -54.5t-66.5 -45.5t-89 -27.5
t-114 -11z" />
    <glyph glyph-name="ntilde.ss01" horiz-adv-x="1568" 
d="M608 1477q-55 0 -90 -39.5t-35 -98.5h-129q1 115 73 186.5t183 71.5q51 0 90 -16t88 -49l52 -35q69 -51 131 -51q54 0 84 38t30 99h132q0 -121 -64.5 -190.5t-179.5 -69.5q-36 0 -64.5 5t-55.5 19t-37.5 20.5t-39.5 27.5l-49 32q-65 50 -119 50zM387 629l772 504h193
v-1133h-168v963h-15l-782 -484v-479h-168v1133h168v-504z" />
    <glyph glyph-name="p.ss01" horiz-adv-x="1646" 
d="M387 -451h-168v1584h164v-230h4q86 131 223 196.5t297 65.5q270 0 447.5 -169.5t177.5 -428.5q0 -177 -85 -315.5t-228 -212.5t-318 -74q-166 0 -301.5 67.5t-212.5 186.5v-670zM874 111q207 0 342.5 128.5t135.5 325.5t-136.5 326t-341.5 129q-99 0 -188.5 -34t-156 -93
t-105.5 -145t-39 -185q0 -131 67 -235t178 -160.5t244 -56.5z" />
    <glyph glyph-name="q.ss01" horiz-adv-x="1644" 
d="M1427 -451h-170v676q-81 -125 -217.5 -192.5t-302.5 -67.5q-177 0 -319.5 77.5t-223.5 215t-81 309.5q0 175 84.5 312.5t227.5 211.5t318 74q164 0 300 -66.5t214 -189.5h5v224h165v-1584zM768 111q135 0 247 57t178.5 162t66.5 237q0 197 -143.5 325t-348.5 128
t-340 -129t-135 -326q0 -196 136 -325t339 -129z" />
    <glyph glyph-name="r.ss01" horiz-adv-x="985" 
d="M387 0h-168v1133h739v-144h-571v-989z" />
    <glyph glyph-name="racute.ss01" horiz-adv-x="985" 
d="M936 1669l-373 -391h-149l293 391h229zM387 0h-168v1133h739v-144h-571v-989z" />
    <glyph glyph-name="rcaron.ss01" horiz-adv-x="985" 
d="M606 1284h-217l-356 365h160q171 -139 305 -256q68 60 305 256h160zM387 0h-168v1133h739v-144h-571v-989z" />
    <glyph glyph-name="uni0157.ss01" horiz-adv-x="985" 
d="M387 0h-168v1133h739v-144h-571v-989zM252 -537h-86l119 199q-105 26 -105 111q0 47 38 79.5t93 32.5q54 0 91.5 -32.5t37.5 -79.5q0 -39 -29.5 -86.5t-130.5 -185.5q-18 -25 -28 -38z" />
    <glyph glyph-name="s.ss01" horiz-adv-x="1163" 
d="M1014 0h-867v143h701v373h-701v617h867v-144h-699v-348h699v-641z" />
    <glyph glyph-name="sacute.ss01" horiz-adv-x="1163" 
d="M991 1669l-373 -391h-149l293 391h229zM1014 0h-867v143h701v373h-701v617h867v-144h-699v-348h699v-641z" />
    <glyph glyph-name="scaron.ss01" horiz-adv-x="1163" 
d="M662 1284h-218l-356 365h160q171 -139 305 -256q68 60 305 256h160zM1014 0h-867v143h701v373h-701v617h867v-144h-699v-348h699v-641z" />
    <glyph glyph-name="scedilla.ss01" horiz-adv-x="1163" 
d="M1014 1133v-144h-699v-348h699v-641h-365l-127 -152q34 17 96 17q98 0 162 -47t64 -123q0 -85 -78.5 -138t-198.5 -53q-89 0 -170.5 31t-134.5 84l70 66q39 -43 101 -68t126 -25q68 0 115 28.5t47 72.5q0 42 -42 69t-106 27q-61 0 -116 -25l-68 54l143 182h-385v143h701
v373h-701v617h867z" />
    <glyph glyph-name="uni0219.ss01" horiz-adv-x="1163" 
d="M1014 0h-867v143h701v373h-701v617h867v-144h-699v-348h699v-641zM526 -537h-86l119 199q-53 13 -78.5 42.5t-25.5 68.5q0 47 38 79.5t93 32.5q54 0 91.5 -32.5t37.5 -79.5q0 -38 -30 -86.5t-123 -175.5q-8 -10 -12 -15.5t-11 -15t-13 -17.5z" />
    <glyph glyph-name="t.ss01" horiz-adv-x="960" 
d="M473 993v-850h453v-143h-623v993h-270v140h270v333h170v-333h414v-140h-414z" />
    <glyph glyph-name="tbar.ss01" horiz-adv-x="960" 
d="M473 565v-422h453v-143h-623v565h-266v125h266v303h-270v140h270v333h170v-333h414v-140h-414v-303h395v-125h-395z" />
    <glyph glyph-name="tcaron.ss01" horiz-adv-x="960" 
d="M1057 1647q57 0 97 -34.5t40 -84.5q0 -42 -40 -105.5t-189 -269.5h-109l154 258q-43 13 -67.5 45t-24.5 70q0 51 41 86t98 35zM887 993h-414v-850h453v-143h-623v993h-270v140h270v333h170v-333h414v-140z" />
    <glyph glyph-name="uni0163.ss01" horiz-adv-x="960" 
d="M926 143v-143h-312l-127 -152q34 17 97 17q98 0 161.5 -47t63.5 -123q0 -85 -78.5 -138t-198.5 -53q-89 0 -170.5 31t-134.5 84l70 66q39 -43 101 -68t126 -25q68 0 115 28.5t47 72.5q0 42 -41.5 69t-105.5 27q-62 0 -117 -25l-68 54l144 182h-195v993h-270v140h270v333
h170v-333h414v-140h-414v-850h453z" />
    <glyph glyph-name="uni021B.ss01" horiz-adv-x="960" 
d="M473 993v-850h453v-143h-623v993h-270v140h270v333h170v-333h414v-140h-414zM549 -115q54 0 91.5 -32.5t37.5 -79.5q0 -38 -30 -86.5t-123 -175.5q-8 -10 -12 -15.5t-11 -15t-13 -17.5h-86l119 199q-53 13 -78.5 42.5t-25.5 68.5q0 47 38 79.5t93 32.5z" />
    <glyph glyph-name="yacute.ss01" horiz-adv-x="1355" 
d="M1124 1669l-372 -391h-150l293 391h229zM668 -451h-174l182 435h-172l-449 1149h174l387 -967h121l389 967h174z" />
    <glyph glyph-name="ycircumflex.ss01" horiz-adv-x="1355" 
d="M381 1278h-160l357 360h217l356 -360h-160q-239 198 -305 256q-156 -136 -305 -256zM668 -451h-174l182 435h-172l-449 1149h174l387 -967h121l389 967h174z" />
    <glyph glyph-name="ydieresis.ss01" horiz-adv-x="1355" 
d="M467 1362q-54 0 -91.5 34t-37.5 83q0 45 37.5 77.5t91.5 32.5t90.5 -32.5t36.5 -77.5q0 -50 -36 -83.5t-91 -33.5zM907 1362q-56 0 -92.5 33.5t-36.5 83.5q0 45 36.5 77.5t92.5 32.5q52 0 89.5 -32.5t37.5 -77.5q0 -49 -37 -83t-90 -34zM668 -451h-174l182 435h-172
l-449 1149h174l387 -967h121l389 967h174z" />
    <glyph glyph-name="ygrave.ss01" horiz-adv-x="1355" 
d="M768 1278h-150l-372 391h227zM668 -451h-174l182 435h-172l-449 1149h174l387 -967h121l389 967h174z" />
    <glyph glyph-name="a.ss02" horiz-adv-x="1409" 
d="M547 -35q-187 0 -309.5 77.5t-122.5 221.5q0 65 28 118t72 88.5t110 64t131 45.5t146 30q34 6 85.5 14t82 13t72 13t65.5 16t51.5 21t42 28t24 36.5t9.5 47.5q0 93 -96.5 163t-245.5 70q-134 0 -230.5 -61t-135.5 -168l-164 51q37 105 125 177t193 103t222 31
q96 0 184 -22.5t162.5 -67t119 -120t44.5 -171.5v-784h-163v225h-7q-68 -119 -191.5 -189.5t-303.5 -70.5zM569 92q101 0 191 36t148.5 90t92 116t33.5 117v145q-57 -34 -120.5 -52t-200.5 -40q-44 -7 -72.5 -12t-77 -16.5t-80.5 -22.5t-71 -29.5t-62 -39t-39 -49.5t-16 -63
q0 -83 76 -131.5t198 -48.5z" />
    <glyph glyph-name="aacute.ss02" horiz-adv-x="1409" 
d="M1151 1669l-373 -391h-149l293 391h229zM547 -35q-187 0 -309.5 77.5t-122.5 221.5q0 65 28 118t72 88.5t110 64t131 45.5t146 30q34 6 85.5 14t82 13t72 13t65.5 16t51.5 21t42 28t24 36.5t9.5 47.5q0 93 -96.5 163t-245.5 70q-134 0 -230.5 -61t-135.5 -168l-164 51
q37 105 125 177t193 103t222 31q96 0 184 -22.5t162.5 -67t119 -120t44.5 -171.5v-784h-163v225h-7q-68 -119 -191.5 -189.5t-303.5 -70.5zM569 92q101 0 191 36t148.5 90t92 116t33.5 117v145q-57 -34 -120.5 -52t-200.5 -40q-44 -7 -72.5 -12t-77 -16.5t-80.5 -22.5
t-71 -29.5t-62 -39t-39 -49.5t-16 -63q0 -83 76 -131.5t198 -48.5z" />
    <glyph glyph-name="abreve.ss02" horiz-adv-x="1409" 
d="M711 1274q-204 0 -322.5 110.5t-126.5 284.5h150q5 -119 87 -194.5t214 -75.5q130 0 213.5 74t89.5 196h149q-8 -174 -127.5 -284.5t-326.5 -110.5zM547 -35q-187 0 -309.5 77.5t-122.5 221.5q0 65 28 118t72 88.5t110 64t131 45.5t146 30q34 6 85.5 14t82 13t72 13
t65.5 16t51.5 21t42 28t24 36.5t9.5 47.5q0 93 -96.5 163t-245.5 70q-134 0 -230.5 -61t-135.5 -168l-164 51q37 105 125 177t193 103t222 31q96 0 184 -22.5t162.5 -67t119 -120t44.5 -171.5v-784h-163v225h-7q-68 -119 -191.5 -189.5t-303.5 -70.5zM569 92q101 0 191 36
t148.5 90t92 116t33.5 117v145q-57 -34 -120.5 -52t-200.5 -40q-44 -7 -72.5 -12t-77 -16.5t-80.5 -22.5t-71 -29.5t-62 -39t-39 -49.5t-16 -63q0 -83 76 -131.5t198 -48.5z" />
    <glyph glyph-name="acircumflex.ss02" horiz-adv-x="1175" 
d="M358 1278h-159l356 360h217l356 -360h-159q-239 198 -305 256q-143 -124 -306 -256zM547 -35q-187 0 -309.5 77.5t-122.5 221.5q0 65 28 118t72 88.5t110 64t131 45.5t146 30q34 6 85.5 14t82 13t72 13t65.5 16t51.5 21t42 28t24 36.5t9.5 47.5q0 93 -96.5 163t-245.5 70
q-134 0 -230.5 -61t-135.5 -168l-164 51q37 105 125 177t193 103t222 31q96 0 184 -22.5t162.5 -67t119 -120t44.5 -171.5v-784h-163v225h-7q-68 -119 -191.5 -189.5t-303.5 -70.5zM569 92q101 0 191 36t148.5 90t92 116t33.5 117v145q-57 -34 -120.5 -52t-200.5 -40
q-44 -7 -72.5 -12t-77 -16.5t-80.5 -22.5t-71 -29.5t-62 -39t-39 -49.5t-16 -63q0 -83 76 -131.5t198 -48.5z" />
    <glyph glyph-name="adieresis.ss02" horiz-adv-x="1409" 
d="M494 1362q-54 0 -91.5 34t-37.5 83q0 45 37.5 77.5t91.5 32.5t90.5 -32.5t36.5 -77.5q0 -50 -36 -83.5t-91 -33.5zM934 1362q-56 0 -92.5 33.5t-36.5 83.5q0 45 36.5 77.5t92.5 32.5q52 0 89.5 -32.5t37.5 -77.5q0 -49 -37 -83t-90 -34zM547 -35q-187 0 -309.5 77.5
t-122.5 221.5q0 65 28 118t72 88.5t110 64t131 45.5t146 30q34 6 85.5 14t82 13t72 13t65.5 16t51.5 21t42 28t24 36.5t9.5 47.5q0 93 -96.5 163t-245.5 70q-134 0 -230.5 -61t-135.5 -168l-164 51q37 105 125 177t193 103t222 31q96 0 184 -22.5t162.5 -67t119 -120
t44.5 -171.5v-784h-163v225h-7q-68 -119 -191.5 -189.5t-303.5 -70.5zM569 92q101 0 191 36t148.5 90t92 116t33.5 117v145q-57 -34 -120.5 -52t-200.5 -40q-44 -7 -72.5 -12t-77 -16.5t-80.5 -22.5t-71 -29.5t-62 -39t-39 -49.5t-16 -63q0 -83 76 -131.5t198 -48.5z" />
    <glyph glyph-name="agrave.ss02" horiz-adv-x="1409" 
d="M795 1278h-150l-373 391h228zM547 -35q-187 0 -309.5 77.5t-122.5 221.5q0 65 28 118t72 88.5t110 64t131 45.5t146 30q34 6 85.5 14t82 13t72 13t65.5 16t51.5 21t42 28t24 36.5t9.5 47.5q0 93 -96.5 163t-245.5 70q-134 0 -230.5 -61t-135.5 -168l-164 51
q37 105 125 177t193 103t222 31q96 0 184 -22.5t162.5 -67t119 -120t44.5 -171.5v-784h-163v225h-7q-68 -119 -191.5 -189.5t-303.5 -70.5zM569 92q101 0 191 36t148.5 90t92 116t33.5 117v145q-57 -34 -120.5 -52t-200.5 -40q-44 -7 -72.5 -12t-77 -16.5t-80.5 -22.5
t-71 -29.5t-62 -39t-39 -49.5t-16 -63q0 -83 76 -131.5t198 -48.5z" />
    <glyph glyph-name="amacron.ss02" horiz-adv-x="1175" 
d="M1141 1419h-826v125h826v-125zM547 -35q-187 0 -309.5 77.5t-122.5 221.5q0 65 28 118t72 88.5t110 64t131 45.5t146 30q34 6 85.5 14t82 13t72 13t65.5 16t51.5 21t42 28t24 36.5t9.5 47.5q0 93 -96.5 163t-245.5 70q-134 0 -230.5 -61t-135.5 -168l-164 51
q37 105 125 177t193 103t222 31q96 0 184 -22.5t162.5 -67t119 -120t44.5 -171.5v-784h-163v225h-7q-68 -119 -191.5 -189.5t-303.5 -70.5zM569 92q101 0 191 36t148.5 90t92 116t33.5 117v145q-57 -34 -120.5 -52t-200.5 -40q-44 -7 -72.5 -12t-77 -16.5t-80.5 -22.5
t-71 -29.5t-62 -39t-39 -49.5t-16 -63q0 -83 76 -131.5t198 -48.5z" />
    <glyph glyph-name="aogonek.ss02" horiz-adv-x="1409" 
d="M1190 -350q51 0 106 14v-113q-63 -14 -122 -14q-137 0 -229.5 62.5t-92.5 169.5q0 141 199 231h-2v225h-7q-68 -119 -191.5 -189.5t-303.5 -70.5q-187 0 -309.5 77.5t-122.5 221.5q0 65 28 118t72 88.5t110 64t131 45.5t146 30q34 6 85.5 14t82 13t72 13t65.5 16t51.5 21
t42 28t24 36.5t9.5 47.5q0 93 -96.5 163t-245.5 70q-134 0 -230.5 -61t-135.5 -168l-164 51q37 105 125 177t193 103t222 31q96 0 184 -22.5t162.5 -67t119 -120t44.5 -171.5v-784h-24q-205 -80 -205 -203q0 -66 59.5 -106.5t147.5 -40.5zM1034 451v145q-57 -34 -120.5 -52
t-200.5 -40q-44 -7 -72.5 -12t-77 -16.5t-80.5 -22.5t-71 -29.5t-62 -39t-39 -49.5t-16 -63q0 -83 76 -131.5t198 -48.5q101 0 191 36t148.5 90t92 116t33.5 117z" />
    <glyph glyph-name="aring.ss02" horiz-adv-x="1409" 
d="M713 1249q-119 0 -197 63.5t-78 160.5t78 160t197 63q115 0 192.5 -63.5t77.5 -159.5q0 -97 -77.5 -160.5t-192.5 -63.5zM713 1352q65 0 108 33.5t43 87.5q0 53 -43.5 85.5t-107.5 32.5q-67 0 -111.5 -32.5t-44.5 -85.5q0 -55 44.5 -88t111.5 -33zM547 -35
q-187 0 -309.5 77.5t-122.5 221.5q0 65 28 118t72 88.5t110 64t131 45.5t146 30q34 6 85.5 14t82 13t72 13t65.5 16t51.5 21t42 28t24 36.5t9.5 47.5q0 93 -96.5 163t-245.5 70q-134 0 -230.5 -61t-135.5 -168l-164 51q37 105 125 177t193 103t222 31q96 0 184 -22.5
t162.5 -67t119 -120t44.5 -171.5v-784h-163v225h-7q-68 -119 -191.5 -189.5t-303.5 -70.5zM569 92q101 0 191 36t148.5 90t92 116t33.5 117v145q-57 -34 -120.5 -52t-200.5 -40q-44 -7 -72.5 -12t-77 -16.5t-80.5 -22.5t-71 -29.5t-62 -39t-39 -49.5t-16 -63
q0 -83 76 -131.5t198 -48.5z" />
    <glyph glyph-name="atilde.ss02" horiz-adv-x="1409" 
d="M901 1323q-45 0 -83.5 11.5t-54.5 21t-49 33.5l-9 6l-50 32q-65 50 -118 50q-55 0 -90 -39.5t-35 -98.5h-129q1 115 73 186.5t183 71.5q51 0 90 -16t88 -49l51 -35q69 -51 131 -51q54 0 84.5 38.5t30.5 98.5h131q0 -121 -64.5 -190.5t-179.5 -69.5zM547 -35
q-187 0 -309.5 77.5t-122.5 221.5q0 65 28 118t72 88.5t110 64t131 45.5t146 30q34 6 85.5 14t82 13t72 13t65.5 16t51.5 21t42 28t24 36.5t9.5 47.5q0 93 -96.5 163t-245.5 70q-134 0 -230.5 -61t-135.5 -168l-164 51q37 105 125 177t193 103t222 31q96 0 184 -22.5
t162.5 -67t119 -120t44.5 -171.5v-784h-163v225h-7q-68 -119 -191.5 -189.5t-303.5 -70.5zM569 92q101 0 191 36t148.5 90t92 116t33.5 117v145q-57 -34 -120.5 -52t-200.5 -40q-44 -7 -72.5 -12t-77 -16.5t-80.5 -22.5t-71 -29.5t-62 -39t-39 -49.5t-16 -63
q0 -83 76 -131.5t198 -48.5z" />
    <glyph glyph-name="h.ss02" horiz-adv-x="1568" 
d="M387 0h-168v1638h168v-997l772 492h193v-1133h-168v963h-15l-782 -484v-479z" />
    <glyph glyph-name="hbar.ss02" horiz-adv-x="1568" 
d="M387 641l772 492h193v-1133h-168v963h-15l-782 -484v-479h-168v1323h-235v125h235v190h168v-190h430v-125h-430v-682z" />
    <glyph glyph-name="t.ss02" horiz-adv-x="905" 
d="M473 0h-170v993h-270v140h270v333h170v-333h414v-140h-414v-993z" />
    <glyph glyph-name="tbar.ss02" horiz-adv-x="905" 
d="M887 1133v-140h-414v-303h395v-125h-395v-565h-170v565h-266v125h266v303h-270v140h270v333h170v-333h414z" />
    <glyph glyph-name="tcaron.ss02" horiz-adv-x="905" 
d="M965 1153h-111l156 258q-43 13 -67.5 45t-24.5 70q0 51 41 86t98 35t97 -34.5t40 -84.5q0 -39 -37 -99.5t-162 -234.5q-20 -27 -30 -41zM473 0h-170v993h-270v140h270v333h170v-333h414v-140h-414v-993z" />
    <glyph glyph-name="uni0163.ss02" horiz-adv-x="905" 
d="M473 993v-993h-31l-127 -152q34 17 97 17q98 0 161.5 -47t63.5 -123q0 -85 -78.5 -138t-198.5 -53q-89 0 -170.5 31t-134.5 84l70 66q39 -43 101 -68t126 -25q68 0 115 28.5t47 72.5q0 42 -41.5 69t-105.5 27q-62 0 -117 -25l-68 54l144 182h-23v993h-270v140h270v333
h170v-333h414v-140h-414z" />
    </font>
</defs>
</svg>
