<?xml version="1.0" standalone="no"?>
<!DOCTYPE svg PUBLIC "-//W3C//DTD SVG 1.1//EN" "http://www.w3.org/Graphics/SVG/1.1/DTD/svg11.dtd" >
<svg xmlns="http://www.w3.org/2000/svg" xmlns:xlink="http://www.w3.org/1999/xlink" version="1.1">
<metadata>
Created by FontForge 20170731 at Mon Mar 15 14:20:51 2021
 By Aleksey,,,
Copyright (c) 2020 by Matthieu Salvaggio x Blaze Type. All rights reserved.
</metadata>
<defs>
<font id="Area-MediumItalicExtended" horiz-adv-x="2457" >
  <font-face 
    font-family="Area Medium Italic Extended"
    font-weight="500"
    font-style="italic"
    font-stretch="normal"
    units-per-em="2048"
    panose-1="0 0 6 0 0 0 0 0 0 0"
    ascent="1638"
    descent="-410"
    x-height="1133"
    cap-height="1597"
    bbox="-1886 -537 3244 2163"
    underline-thickness="102"
    underline-position="-307"
    slope="-10"
    unicode-range="U+0020-25CA"
  />
<missing-glyph horiz-adv-x="1740" 
d="M1405 0h-1266l283 1597h1266zM549 1475l-227 -1248l1134 1248h-907zM1497 1350l-1104 -1223h883z" />
    <glyph glyph-name=".notdef" horiz-adv-x="1740" 
d="M1405 0h-1266l283 1597h1266zM549 1475l-227 -1248l1134 1248h-907zM1497 1350l-1104 -1223h883z" />
    <glyph glyph-name=".null" horiz-adv-x="0" 
 />
    <glyph glyph-name="nonmarkingreturn" horiz-adv-x="682" 
 />
    <glyph glyph-name="space" unicode=" " horiz-adv-x="645" 
 />
    <glyph glyph-name="exclam" unicode="!" horiz-adv-x="634" 
d="M340 403h-102l145 1080l16 114h201l-18 -114zM217 -14q-51 0 -85 30t-34 74q0 57 48.5 99t111.5 42q49 0 83 -29.5t34 -72.5q0 -55 -48 -99t-110 -44z" />
    <glyph glyph-name="quotedbl" unicode="&#x22;" horiz-adv-x="835" 
d="M440 1143h-170l78 454h170zM768 1143h-170l76 454h172z" />
    <glyph glyph-name="numbersign" unicode="#" horiz-adv-x="1712" 
d="M1704 1085l-51 -129h-297l-154 -368h291l-49 -129h-295l-188 -459h-156l188 459h-475l-188 -459h-154l189 459h-283l49 129h287l153 368h-280l51 129h283l211 512h153l-211 -512h475l211 512h156l-211 -512h295zM571 588h476l153 368h-475z" />
    <glyph glyph-name="dollar" unicode="$" horiz-adv-x="1427" 
d="M825 856l25 -6q160 -40 227 -71q191 -86 191 -255q0 -167 -164.5 -288t-411.5 -130l-33 -188h-110l33 193q-180 14 -304.5 104t-158.5 254l162 51q16 -64 48 -113t77 -79.5t94.5 -48.5t107.5 -25l84 477l-10 2q-397 91 -397 330q0 103 71 194.5t195.5 149t271.5 63.5
l29 168h111l-31 -172q166 -19 281.5 -104t134.5 -205l-154 -63q-24 89 -98 150.5t-189 78.5zM461 1096q0 -36 16 -66.5t40 -51.5t60.5 -39.5t68 -29t73.5 -22.5l78 442q-145 -7 -240.5 -74t-95.5 -159zM799 705l-80 -455q160 8 265.5 78t105.5 170q0 39 -18 70.5t-43.5 51.5
t-68.5 37.5t-76.5 27t-84.5 20.5z" />
    <glyph glyph-name="percent" unicode="%" horiz-adv-x="2023" 
d="M455 780q-124 0 -196.5 79t-72.5 216q0 115 51.5 219.5t145 170t205.5 65.5q123 0 195.5 -80.5t72.5 -218.5q0 -115 -51 -218.5t-144.5 -168t-205.5 -64.5zM319 0h-161l1624 1468h153zM471 897q63 0 119.5 49t88.5 125.5t32 157.5q0 86 -37 134t-103 48
q-96 0 -167.5 -102.5t-71.5 -229.5q0 -86 36.5 -134t102.5 -48zM1501 -29q-124 0 -196 79t-72 216q0 115 51 219.5t144.5 170t205.5 65.5q123 0 196 -80.5t73 -218.5q0 -115 -51.5 -218.5t-145 -168t-205.5 -64.5zM1518 88q63 0 119 49t88 125.5t32 157.5q0 86 -36.5 134
t-102.5 48q-96 0 -168 -102.5t-72 -229.5q0 -86 37 -134t103 -48z" />
    <glyph glyph-name="ampersand" unicode="&#x26;" horiz-adv-x="1669" 
d="M561 -35q-134 0 -242.5 39t-175.5 119.5t-67 189.5q0 61 23 119t66 108t90.5 92t112.5 82t114 66.5t112 57.5q-97 102 -156 196t-59 191q0 109 70.5 202t191.5 148t262 55q183 0 292.5 -89.5t109.5 -223.5q0 -138 -126 -265.5t-348 -232.5l353 -352q110 150 188 321
l152 -32q-117 -244 -242 -400l340 -354h-213l-235 231q-271 -268 -613 -268zM748 913q65 33 111 59t99 64t85.5 74t54.5 83t22 97q0 92 -64.5 144.5t-178.5 52.5q-137 0 -227.5 -72t-90.5 -180q0 -76 49.5 -152t139.5 -170zM590 113q267 0 491 227l-397 395
q-45 -22 -63.5 -31t-63 -32t-66 -36t-59.5 -37.5t-57.5 -43t-45.5 -45t-39 -51t-22.5 -54t-9.5 -59.5q0 -110 95 -171.5t237 -61.5z" />
    <glyph glyph-name="quotesingle" unicode="'" horiz-adv-x="509" 
d="M440 1143h-170l78 454h170z" />
    <glyph glyph-name="parenleft" unicode="(" horiz-adv-x="747" 
d="M559 -307h-176q-128 153 -196 341.5t-68 391.5q0 313 159 624t441 547h176q-277 -237 -434.5 -548t-157.5 -627q0 -202 65.5 -389.5t190.5 -339.5z" />
    <glyph glyph-name="parenright" unicode=")" horiz-adv-x="745" 
d="M57 -307h-176q279 237 436.5 549t157.5 626q0 201 -65.5 388.5t-192.5 340.5h176q131 -155 197.5 -343.5t66.5 -389.5q0 -309 -157.5 -621t-442.5 -550z" />
    <glyph glyph-name="asterisk" unicode="*" horiz-adv-x="1003" 
d="M635 1024h-111l37 203l-235 -103l-41 84l239 103l-202 102l69 84l199 -100l35 200h110l-35 -200l234 100l41 -84l-238 -102l201 -103l-70 -84l-196 103z" />
    <glyph glyph-name="plus" unicode="+" horiz-adv-x="1198" 
d="M700 692h359l-21 -135h-360l-55 -313h-156l55 313h-360l22 135h363l55 314h154z" />
    <glyph glyph-name="comma" unicode="," horiz-adv-x="536" 
d="M57 -262h-106l196 258q-73 25 -73 94q0 56 48.5 98.5t113.5 42.5q50 0 82 -29t32 -75q0 -43 -51.5 -111t-241.5 -278z" />
    <glyph glyph-name="hyphen" unicode="-" horiz-adv-x="950" 
d="M809 557h-670l21 135h669z" />
    <glyph glyph-name="period" unicode="." horiz-adv-x="567" 
d="M205 -14q-51 0 -85 30t-34 74q0 57 47.5 99t110.5 42q50 0 83 -29t33 -73q0 -55 -47 -99t-108 -44z" />
    <glyph glyph-name="slash" unicode="/" horiz-adv-x="1034" 
d="M141 -135h-164l981 1773h166z" />
    <glyph glyph-name="zero" unicode="0" horiz-adv-x="1720" 
d="M752 -35q-269 0 -426.5 174.5t-157.5 474.5q0 151 42.5 300t122.5 277t187 227t246 155.5t289 56.5q269 0 425 -175.5t156 -477.5q0 -150 -41.5 -298.5t-120.5 -276t-185.5 -226t-245.5 -155t-291 -56.5zM778 121q114 0 219 48t185 131.5t140 191.5t91 232t31 249
q0 236 -108.5 369t-301.5 133q-114 0 -219.5 -48t-187 -131t-142.5 -190.5t-93 -231.5t-32 -249q0 -236 111.5 -370t306.5 -134z" />
    <glyph glyph-name="one" unicode="1" horiz-adv-x="944" 
d="M582 0h-181l230 1272q-84 -79 -209.5 -132.5t-271.5 -70.5l24 162q206 32 350 134.5t166 231.5h172z" />
    <glyph glyph-name="two" unicode="2" horiz-adv-x="1517" 
d="M1296 0h-1245l2 14q16 56 34 103.5t43.5 91t47.5 78t59 71.5t64.5 63t78 60t85 56.5t100.5 59t109.5 60t125.5 66.5q12 7 19 10q48 25 80 42.5t87.5 51.5t94 62.5t85 70t74.5 80t47.5 86.5t19.5 95q0 117 -101 188.5t-268 71.5q-216 0 -370.5 -116.5t-188.5 -303.5
l-160 26q27 156 130 279.5t264 193.5t352 70q239 0 382.5 -107t143.5 -284q0 -60 -19 -118.5t-48 -105t-73.5 -93.5t-84 -80t-91 -67.5t-84 -53.5t-73.5 -41q-60 -32 -140 -72t-132.5 -66t-116 -60.5t-108.5 -66t-90 -71t-79 -86.5t-59 -102h1028z" />
    <glyph glyph-name="three" unicode="3" horiz-adv-x="1560" 
d="M668 -35q-240 0 -407 100t-198 265l164 71q29 -121 154 -202.5t313 -81.5q224 0 372 108t148 258q0 125 -112 196t-330 71h-188l20 139h203q209 0 347 96.5t138 237.5q0 120 -102.5 189t-269.5 69q-179 0 -317 -81t-189 -224l-158 30q66 190 259.5 307t438.5 117
q146 0 265 -41.5t191.5 -124.5t72.5 -194q0 -147 -116.5 -274t-287.5 -165l-2 -2q157 -27 242.5 -109.5t85.5 -213.5q0 -104 -55.5 -202t-151 -173t-234.5 -120.5t-296 -45.5z" />
    <glyph glyph-name="four" unicode="4" horiz-adv-x="1593" 
d="M1120 0h-176l68 387h-981l26 156l1170 1054h174l-189 -1062h283l-22 -148h-285zM1188 1372l-946 -837h792z" />
    <glyph glyph-name="five" unicode="5" horiz-adv-x="1558" 
d="M657 -35q-233 0 -408 100t-214 269l158 80q42 -141 176 -220t311 -79q120 0 227.5 37.5t182.5 100t119 144t44 168.5q0 144 -111.5 232t-293.5 88q-147 0 -276 -58t-214 -153l-135 51l377 872h918l-23 -145h-795l-262 -584h4q70 65 195.5 108.5t267.5 43.5q86 0 165 -17
t147 -52t118.5 -85t79.5 -120.5t29 -153.5q0 -119 -60.5 -232.5t-163 -200.5t-251 -140.5t-312.5 -53.5z" />
    <glyph glyph-name="six" unicode="6" horiz-adv-x="1632" 
d="M739 -35q-280 0 -432.5 154.5t-152.5 435.5q0 160 51.5 318t147.5 293t224 239.5t292 164.5t339 60q255 0 410 -121l-129 -118q-124 90 -326 90q-189 0 -357.5 -88t-288 -254t-159.5 -381h4q77 123 245.5 200.5t350.5 77.5q108 0 206.5 -30.5t175.5 -86t123 -142.5
t46 -193q0 -119 -60 -232t-161.5 -198.5t-245.5 -137t-303 -51.5zM768 115q146 0 274.5 62.5t204.5 166.5t76 221q0 148 -116.5 240t-297.5 92q-110 0 -214 -38t-179 -100.5t-120.5 -145t-45.5 -167.5q0 -146 119 -238.5t299 -92.5z" />
    <glyph glyph-name="seven" unicode="7" horiz-adv-x="1429" 
d="M442 0h-186q28 154 126.5 352t241.5 397.5t332.5 393.5t386.5 332h-1148l22 147h1352l-25 -156q-202 -135 -394 -325t-337 -387.5t-244 -396t-127 -357.5z" />
    <glyph glyph-name="eight" unicode="8" horiz-adv-x="1599" 
d="M698 -35q-167 0 -300 48.5t-211 141.5t-78 216q0 160 126.5 291.5t323.5 175.5v4q-117 43 -179.5 121t-62.5 182q0 95 52.5 183.5t141.5 155t215 106.5t265 40q229 0 374.5 -102t145.5 -264q0 -136 -103 -252.5t-269 -169.5v-4q143 -36 225 -126.5t82 -219.5
q0 -140 -97.5 -261t-270.5 -193.5t-380 -72.5zM860 901q194 0 332.5 102.5t138.5 235.5q0 113 -100.5 182.5t-263.5 69.5q-128 0 -236.5 -45t-170.5 -121t-62 -164q0 -118 103.5 -189t258.5 -71zM717 109q232 0 388.5 116.5t156.5 274.5q0 129 -110 202.5t-306 73.5
q-243 0 -395 -103.5t-152 -262.5q0 -142 117.5 -221.5t300.5 -79.5z" />
    <glyph glyph-name="nine" unicode="9" horiz-adv-x="1660" 
d="M639 -35q-162 0 -308 59.5t-243 174.5l129 108q172 -196 434 -196q148 0 274.5 57.5t216 158.5t150 230.5t88.5 280.5h-6q-76 -138 -248 -224t-362 -86q-154 0 -278 57.5t-195.5 164t-71.5 241.5q0 122 59.5 237.5t161.5 204.5t251.5 143t318.5 54q129 0 232.5 -33
t181.5 -101t120.5 -182t42.5 -267q0 -127 -31 -256.5t-88 -249.5t-142 -225.5t-188 -183t-232 -122.5t-267 -45zM807 666q152 0 286 71.5t211.5 185t77.5 236.5q0 102 -56.5 177.5t-148 112t-204.5 36.5q-116 0 -222 -39.5t-181 -104.5t-119.5 -152t-44.5 -179
q0 -158 114.5 -251t286.5 -93z" />
    <glyph glyph-name="colon" unicode=":" horiz-adv-x="622" 
d="M377 913q-50 0 -83.5 31t-33.5 76q0 56 48 97.5t112 41.5q48 0 82.5 -29t34.5 -73q0 -56 -48.5 -100t-111.5 -44zM211 -14q-51 0 -85 30.5t-34 75.5q0 55 48.5 97t111.5 42q50 0 83.5 -29t33.5 -73q0 -55 -48 -99t-110 -44z" />
    <glyph glyph-name="semicolon" unicode=";" horiz-adv-x="696" 
d="M426 913q-51 0 -85 31t-34 76q0 56 49 97.5t111 41.5q49 0 83 -29.5t34 -72.5q0 -55 -48 -99.5t-110 -44.5zM123 -266h-111l199 262q-32 12 -51 37.5t-19 56.5q0 57 47.5 99t110.5 42q51 0 85 -29.5t34 -74.5q0 -43 -49.5 -108t-245.5 -285z" />
    <glyph glyph-name="less" unicode="&#x3c;" horiz-adv-x="1232" 
d="M1012 430l-21 -131l-821 242l25 161l907 240l-23 -131l-733 -190z" />
    <glyph glyph-name="equal" unicode="=" horiz-adv-x="1257" 
d="M1106 762h-881l21 135h880zM1034 340h-882l22 135h879z" />
    <glyph glyph-name="greater" unicode="&#x3e;" horiz-adv-x="1232" 
d="M1061 541l-907 -242l22 131l733 191l-667 190l20 131l823 -240z" />
    <glyph glyph-name="question" unicode="?" horiz-adv-x="1314" 
d="M625 391h-170q-2 4 -2 33q0 61 13.5 109.5t37.5 87t70.5 78.5t98 73.5t134.5 81.5q51 29 85.5 51t86.5 62.5t84 78t56 88.5t24 103q0 113 -95 179.5t-235 66.5q-104 0 -200 -38t-166 -113t-87 -173q-6 -35 -4 -61l-157 26q0 33 6 66q21 127 117 229t234 156.5t290 54.5
q131 0 239.5 -40.5t177 -124t68.5 -197.5q0 -52 -17 -104t-42 -93t-65 -83.5t-74 -71.5t-82.5 -62.5t-76.5 -50.5t-69 -41q-47 -27 -68.5 -40t-58.5 -38t-54 -41t-40.5 -42t-34 -50.5t-18.5 -56.5t-8 -68zM492 -14q-52 0 -85.5 30.5t-33.5 73.5q0 56 47 98.5t108 42.5
q51 0 85 -29.5t34 -72.5q0 -56 -47 -99.5t-108 -43.5z" />
    <glyph glyph-name="at" unicode="@" horiz-adv-x="2355" 
d="M965 -195q-201 0 -363 50.5t-269 140.5t-164.5 214t-57.5 271q0 141 54 284t148 269t228 236.5t288.5 189.5t335 124.5t361.5 45.5q175 0 324.5 -43.5t260 -124t173.5 -203t63 -272.5q0 -113 -35.5 -226.5t-100.5 -209t-148.5 -170.5t-187 -117.5t-208.5 -42.5
q-135 0 -191.5 67t-23.5 167q-107 -109 -242.5 -164t-263.5 -55q-157 0 -251.5 87t-94.5 228q0 89 40.5 183.5t112 175t161 145.5t195.5 102t208 37q127 0 212.5 -54.5t108.5 -152.5l72 180h133l-227 -587q-102 -250 88 -250q121 0 234.5 93t183 241t69.5 303
q0 253 -184 399.5t-502 146.5q-162 0 -322 -41t-295.5 -111.5t-252 -169t-198 -210t-127.5 -237.5t-46 -250q0 -266 194.5 -418t542.5 -152q389 0 689 172l57 -94q-172 -101 -379.5 -149t-402.5 -48zM1012 360q102 0 202 45.5t172 116t117 159t45 171.5q0 103 -64 160
t-179 57q-103 0 -203.5 -44.5t-173.5 -114.5t-117.5 -158t-44.5 -172q0 -104 64 -162t182 -58z" />
    <glyph glyph-name="A" unicode="A" horiz-adv-x="1812" 
d="M123 0h-191l1059 1597h197l493 -1597h-188q-33 101 -98 304.5t-76 236.5h-834q-95 -139 -229 -340zM584 698h686q-172 570 -211 707h-6q-48 -74 -217 -327t-252 -380z" />
    <glyph glyph-name="B" unicode="B" horiz-adv-x="1751" 
d="M930 0h-772l282 1597h690q254 0 396.5 -100t142.5 -260q0 -145 -115.5 -263.5t-296.5 -158.5v-4q169 -26 257 -112t88 -214q0 -129 -88 -240t-243.5 -178t-340.5 -67zM489 877h486q225 0 364.5 91t139.5 224q0 120 -114.5 187t-303.5 67h-465q-100 -545 -107 -569z
M362 152h537q231 0 371.5 92.5t140.5 226.5q0 122 -115.5 191t-306.5 69h-520q-81 -437 -107 -579z" />
    <glyph glyph-name="C" unicode="C" horiz-adv-x="2062" 
d="M993 -35q-381 0 -609 189.5t-228 507.5q0 125 39.5 247.5t110 228.5t173 197.5t224.5 156.5t269 101.5t302 36.5q136 0 260.5 -30t228.5 -87t177 -148t98 -206l-174 -61q-52 176 -219.5 276.5t-397.5 100.5q-187 0 -356 -67.5t-287 -178.5t-187 -256t-69 -297
q0 -113 38 -206.5t102.5 -157t152.5 -107.5t186 -64t205 -20q148 0 280 37.5t233 104t177 149t127 180.5l154 -53q-139 -260 -399 -417t-611 -157z" />
    <glyph glyph-name="D" unicode="D" horiz-adv-x="1976" 
d="M856 0h-698l282 1597h676q393 0 589 -170t196 -475q0 -147 -47 -287.5t-138 -260.5t-216 -210.5t-291.5 -142t-352.5 -51.5zM362 152h527q183 0 340 64t261.5 170.5t163 244.5t58.5 287q0 528 -659 528h-457q-15 -85 -79 -430.5t-155 -863.5z" />
    <glyph glyph-name="E" unicode="E" horiz-adv-x="1611" 
d="M1389 0h-1231l282 1597h1207l-23 -151h-1028q-5 -26 -31.5 -163t-70.5 -386h979l-23 -156h-979q-18 -94 -109 -585h1051z" />
    <glyph glyph-name="F" unicode="F" horiz-adv-x="1529" 
d="M1624 1597l-25 -157h-1005l-98 -559h950l-23 -158h-956l-129 -723h-180l282 1597h1184z" />
    <glyph glyph-name="G" unicode="G" horiz-adv-x="2152" 
d="M973 -35q-372 0 -595.5 188.5t-223.5 503.5q0 188 87 366t234.5 311.5t356.5 214.5t440 81q137 0 262 -30.5t228.5 -88t175.5 -148.5t98 -204l-172 -61q-55 178 -222 277.5t-397 99.5q-187 0 -356 -67.5t-287 -178t-187 -256t-69 -297.5q0 -142 57.5 -251.5t154.5 -174
t214 -97t248 -32.5q298 0 519.5 147.5t287.5 376.5h-664l23 141h842l-138 -786h-147q6 39 25 151.5t32 194.5h-12q-132 -182 -339 -281.5t-476 -99.5z" />
    <glyph glyph-name="H" unicode="H" horiz-adv-x="1986" 
d="M1606 881l127 716h180l-283 -1597h-180l129 725h-1112l-129 -725h-180l282 1597h181l-127 -716h1112z" />
    <glyph glyph-name="I" unicode="I" horiz-adv-x="694" 
d="M338 0h-180l282 1597h181z" />
    <glyph glyph-name="J" unicode="J" horiz-adv-x="1437" 
d="M557 -35q-76 0 -145.5 12t-134.5 38.5t-113.5 67.5t-82.5 99t-42 133t8 170l8 45l172 23l-6 -39q-19 -87 -5 -153t46 -112t83 -75t108 -42t120 -13q75 0 137.5 18t105.5 44.5t78.5 69t56 79.5t37 87.5t23.5 81.5t15 74l182 1024h178l-174 -983q-8 -45 -13.5 -74t-20 -85
t-30.5 -95.5t-44.5 -94.5t-61.5 -93.5t-82 -80.5t-106 -67.5t-133 -42t-164 -16.5z" />
    <glyph glyph-name="K" unicode="K" horiz-adv-x="1638" 
d="M338 0h-180l282 1597h181q-26 -147 -79.5 -447.5t-70.5 -393.5h4q425 337 1100 841h215q-206 -158 -907 -700q663 -890 669 -897h-219q-597 775 -598 776q-47 -36 -149.5 -114t-151.5 -117q-10 -56 -29.5 -173t-66.5 -372z" />
    <glyph glyph-name="L" unicode="L" horiz-adv-x="1443" 
d="M621 1597l-256 -1441h976l-24 -156h-1159l282 1597h181z" />
    <glyph glyph-name="M" unicode="M" horiz-adv-x="2476" 
d="M340 0h-182l282 1597h219q365 -952 512 -1361h5q903 1221 1007 1361h219l-282 -1597h-183q20 109 99.5 537t132.5 741h-10q-243 -342 -938 -1278h-166q-340 890 -475 1278h-9q-28 -151 -72 -408t-159 -870z" />
    <glyph glyph-name="N" unicode="N" horiz-adv-x="2025" 
d="M338 0h-180l282 1597h195q568 -833 891 -1327h6q11 63 100.5 545t141.5 782h178l-283 -1597h-192q-39 57 -379.5 550t-517.5 761h-2q-12 -69 -97.5 -518.5t-142.5 -792.5z" />
    <glyph glyph-name="O" unicode="O" horiz-adv-x="2172" 
d="M983 -35q-240 0 -429 89.5t-294.5 250.5t-105.5 365q0 148 57.5 291.5t162.5 263t243 211t309 143t350 51.5t333 -52.5t262.5 -145t170 -224t61.5 -284.5q0 -147 -58 -291t-163 -263t-243 -211t-308.5 -143t-347.5 -51zM1010 121q177 0 343.5 66t287 173.5t193.5 251
t73 293.5q0 249 -184.5 409.5t-471.5 160.5q-175 0 -341.5 -65.5t-289.5 -173t-197.5 -252.5t-74.5 -296q0 -164 85.5 -294t236.5 -201.5t340 -71.5z" />
    <glyph glyph-name="P" unicode="P" horiz-adv-x="1638" 
d="M440 1597h676q28 0 53.5 -1t85 -9t108.5 -22t108 -44t99.5 -71t68.5 -107.5t28 -148.5q0 -111 -51.5 -214.5t-140.5 -181.5t-217.5 -124.5t-274.5 -46.5h-534l-111 -627h-180zM475 782h477q229 0 377 104.5t148 270.5q0 146 -111 217.5t-309 71.5h-463z" />
    <glyph glyph-name="Q" unicode="Q" horiz-adv-x="2181" 
d="M1866 -94l-142 -101q-138 163 -227 271q-247 -111 -510 -111q-241 0 -431 89.5t-296 251t-106 366.5q0 186 91 362t242.5 306.5t360 210t432.5 79.5q240 0 429.5 -89t295.5 -249t106 -362q0 -218 -123.5 -423.5t-338.5 -344.5q44 -49 119.5 -139.5t97.5 -116.5zM1012 121
q197 0 387 86q-38 44 -109.5 124.5t-185.5 211.5l143 98q51 -59 151.5 -176t151.5 -176q171 114 270 280t99 340q0 162 -84.5 291.5t-236 202t-343.5 72.5q-179 0 -347.5 -65.5t-291.5 -173t-197.5 -252t-74.5 -296.5q0 -129 53.5 -236.5t145 -179.5t212.5 -111.5t257 -39.5
z" />
    <glyph glyph-name="R" unicode="R" horiz-adv-x="1703" 
d="M338 0h-180l282 1597h676q88 0 166.5 -13.5t149.5 -44t122.5 -76.5t82 -115.5t30.5 -155.5q0 -134 -72.5 -253.5t-208 -201t-305.5 -98.5l-2 -2q28 -43 111.5 -169t148 -229t142.5 -239h-199l-399 629h-432q-15 -83 -33.5 -188t-79.5 -441zM473 776h479q232 0 378.5 108
t146.5 271q0 144 -111.5 218.5t-308.5 74.5h-461q-11 -61 -123 -672z" />
    <glyph glyph-name="S" unicode="S" horiz-adv-x="1581" 
d="M713 -35q-89 0 -172 15.5t-162.5 51t-141.5 88.5t-106 133.5t-59 180.5l174 55q27 -183 161.5 -276.5t335.5 -93.5q213 0 360.5 97.5t147.5 234.5q0 47 -20 84.5t-49.5 61.5t-75.5 44t-87 32t-94 26q-7 2 -11 3l-10 2.5t-11 2.5l-170 45q-37 10 -67 19t-73 24t-76.5 32
t-72 39.5t-66.5 51t-51.5 61.5t-36 75t-12.5 89q0 128 91 239.5t252.5 179.5t355.5 68q245 0 395.5 -106t177.5 -275l-170 -61q-30 134 -144.5 212.5t-293.5 78.5q-198 0 -334.5 -88.5t-136.5 -210.5q0 -37 14.5 -70t35 -57t55 -46.5t61 -36t69 -28.5t62.5 -21t55 -16
l178 -51q167 -46 229 -72q199 -83 227 -234q5 -27 5 -56q0 -100 -57 -195.5t-154 -168.5t-236 -118t-292 -45z" />
    <glyph glyph-name="T" unicode="T" horiz-adv-x="1550" 
d="M766 0h-180q26 150 39.5 224t25.5 138.5t63 348t132 735.5h-656l25 151h1485l-23 -151h-653q-29 -159 -75.5 -429.5t-182.5 -1016.5z" />
    <glyph glyph-name="U" unicode="U" horiz-adv-x="1851" 
d="M817 -35q-329 0 -479 166.5t-98 454.5l182 1011h178l-178 -1001q-41 -232 68.5 -354.5t355.5 -122.5q245 0 400 124.5t196 352.5l178 1001h180l-182 -1011q-18 -103 -58 -193.5t-107 -170t-156.5 -136t-212 -89t-267.5 -32.5z" />
    <glyph glyph-name="V" unicode="V" horiz-adv-x="1812" 
d="M903 0h-196l-492 1597h188q74 -227 230.5 -735t206.5 -667h4q58 88 412.5 628.5t515.5 773.5h192z" />
    <glyph glyph-name="W" unicode="W" horiz-adv-x="2791" 
d="M776 0h-215l-334 1597h193q17 -77 57 -260t61.5 -282.5t54 -253.5t59.5 -294.5t53 -283.5h6q727 1299 768 1374h200q253 -1243 279 -1374h6q533 961 776 1374h193l-899 -1597h-217q-154 704 -271 1354h-4q-176 -320 -255 -463.5t-225.5 -400.5t-285.5 -490z" />
    <glyph glyph-name="X" unicode="X" horiz-adv-x="1595" 
d="M139 0h-209q120 120 387 392t418 421l2 6q-501 768 -508 778h207q39 -57 123.5 -195.5t304.5 -453.5h4q49 49 158.5 157.5t165.5 164t150.5 147.5t187.5 180h207q-67 -65 -274 -279t-511 -499l-2 -6q102 -153 277.5 -434t238.5 -379h-206q-71 110 -214.5 337.5
t-220.5 346.5h-4q-457 -457 -682 -684z" />
    <glyph glyph-name="Y" unicode="Y" horiz-adv-x="1687" 
d="M834 0h-179q59 334 105 582q-57 109 -154 278.5t-187 340.5t-194 396h195q76 -142 226 -427.5t226 -428.5h5q87 95 143.5 164t91 113.5t166 190t360.5 388.5h191q-69 -79 -392.5 -448t-498.5 -567q-15 -83 -40.5 -227t-41.5 -234t-22 -121z" />
    <glyph glyph-name="Z" unicode="Z" horiz-adv-x="1611" 
d="M1438 0h-1467l27 162q91 80 629.5 554t824.5 728l2 4q-391 -2 -1178 -2l25 151h1399l-27 -157q-184 -162 -685.5 -600.5t-774.5 -679.5l-2 -4h1251z" />
    <glyph glyph-name="bracketleft" unicode="[" horiz-adv-x="806" 
d="M590 -348h-510l342 1945h510l-23 -139h-342l-297 -1655h342z" />
    <glyph glyph-name="backslash" unicode="\" horiz-adv-x="1024" 
d="M807 -135h-166l-354 1773h164z" />
    <glyph glyph-name="bracketright" unicode="]" horiz-adv-x="808" 
d="M412 -348h-510l20 151h344l297 1655h-342l23 139h510z" />
    <glyph glyph-name="asciicircum" unicode="^" horiz-adv-x="1046" 
d="M379 1042h-152l402 555h166l204 -555h-151l-154 439h-6z" />
    <glyph glyph-name="underscore" unicode="_" horiz-adv-x="1230" 
d="M1053 -227h-1145l20 129h1147z" />
    <glyph glyph-name="a" unicode="a" horiz-adv-x="1411" 
d="M440 -35q-177 0 -280 68.5t-103 195.5q0 81 43 146t122.5 109.5t173.5 74.5t214 51q34 6 84.5 14t84.5 13t78 14t73.5 18t60.5 23.5t49 32t29.5 42.5t11.5 56q0 90 -82.5 149.5t-218.5 59.5q-134 0 -243 -61.5t-166 -167.5l-156 51q57 105 157.5 177t211 103t229.5 31
q96 0 179.5 -22.5t148.5 -67t95 -119.5t13 -172l-75 -430q-10 -68 -14 -96t-9 -79.5t-3.5 -93t7.5 -85.5h-170q-15 109 6 225h-6q-88 -119 -226.5 -189.5t-318.5 -70.5zM487 92q103 0 199 35t163 89.5t111.5 116.5t55.5 118l26 145q-66 -37 -124 -52.5t-211 -39.5
q-53 -9 -93.5 -17t-100 -23t-102.5 -34t-84 -44.5t-63 -61t-22 -76.5q0 -72 65 -114t180 -42z" />
    <glyph glyph-name="b" unicode="b" horiz-adv-x="1638" 
d="M797 -35q-165 0 -289 67.5t-178 186.5h-6l-41 -219h-164l289 1638h167l-129 -735q106 129 256 195.5t314 66.5q237 0 381.5 -135.5t144.5 -355.5q0 -136 -58.5 -265.5t-157 -227t-237.5 -157t-292 -59.5zM793 111q115 0 221 45t182 118.5t121 171t45 199.5
q0 168 -111.5 271.5t-292.5 103.5q-155 0 -289.5 -75t-213 -198.5t-78.5 -261.5q0 -168 117 -271t299 -103z" />
    <glyph glyph-name="c" unicode="c" horiz-adv-x="1486" 
d="M682 -35q-268 0 -425 135.5t-157 364.5q0 135 59.5 262t162.5 224t252 155.5t317 58.5q90 0 172 -18.5t154.5 -56t126.5 -101.5t79 -149l-174 -58q-30 114 -132.5 176t-250.5 62q-125 0 -235 -45.5t-185.5 -120t-119 -172t-43.5 -199.5q0 -173 115.5 -272.5t312.5 -99.5
q172 0 309 76.5t223 205.5l148 -53q-111 -181 -300.5 -278t-408.5 -97z" />
    <glyph glyph-name="d" unicode="d" horiz-adv-x="1644" 
d="M635 -35q-243 0 -389 135.5t-146 358.5q0 136 58.5 265t157 226t238 156t292.5 59q162 0 284.5 -65.5t180.5 -184.5h4l131 723h168l-228 -1284q-22 -127 -24.5 -211t8.5 -143h-170q-14 109 4 217h-4q-100 -121 -251 -186.5t-314 -65.5zM684 111q116 0 224 45t186 118.5
t125 171t47 199.5q0 169 -117.5 272t-298.5 103q-116 0 -222 -45.5t-181 -119.5t-119.5 -172t-44.5 -200q0 -166 110 -269t291 -103z" />
    <glyph glyph-name="e" unicode="e" horiz-adv-x="1325" 
d="M575 -35q-224 0 -358.5 130t-134.5 345q0 144 55.5 277.5t149 232t223.5 157t272 58.5q45 0 88.5 -6t90 -20t85.5 -36.5t76 -55t61.5 -75.5t41.5 -99t17 -125.5t-13 -153.5l-12 -72h-965q-29 -192 69.5 -305t282.5 -113q144 0 262 76.5t191 200.5l139 -53
q-95 -169 -261.5 -266t-359.5 -97zM283 659h788q14 82 0.5 143.5t-42 104.5t-74 70t-94.5 39t-103 12q-163 0 -290.5 -101.5t-184.5 -267.5z" />
    <glyph glyph-name="f" unicode="f" horiz-adv-x="858" 
d="M346 0h-170l180 993h-204l22 140h203l24 145q13 73 31.5 128t51 107.5t78.5 86t115 53.5t159 20q145 0 241 -51l-22 -141q-103 57 -215 57q-52 0 -92 -7t-67.5 -28.5t-43.5 -35.5t-30 -53.5t-18 -55t-14 -66.5q-3 -12 -4 -18l-26 -141h395l-22 -140h-394z" />
    <glyph glyph-name="g" unicode="g" horiz-adv-x="1640" 
d="M604 -483q-464 0 -549 329l164 50q29 -115 130.5 -179.5t275.5 -64.5q100 0 187.5 27t162 82t127.5 147.5t76 214.5l24 129h-4q-102 -123 -248 -186.5t-307 -63.5q-238 0 -388.5 131.5t-150.5 353.5q0 176 99 332t270.5 251t370.5 95q164 0 289 -66.5t180 -189.5h6
l41 224h164l-174 -996q-110 -620 -746 -620zM688 147q114 0 221.5 43.5t185.5 114t125.5 164t47.5 190.5q0 160 -118 260.5t-300 100.5q-114 0 -219 -43t-180 -113t-119.5 -162.5t-44.5 -189.5q0 -162 111.5 -263.5t289.5 -101.5z" />
    <glyph glyph-name="h" unicode="h" horiz-adv-x="1554" 
d="M287 0h-168l289 1638h167l-126 -716h4q195 243 516 243q63 0 119.5 -10.5t109.5 -33t92 -58t66.5 -86t34 -117t-6.5 -149.5l-124 -711h-168l114 641q17 96 0 170.5t-61 119t-104.5 67t-135.5 22.5q-198 0 -338.5 -116t-169.5 -277z" />
    <glyph glyph-name="i" unicode="i" horiz-adv-x="604" 
d="M451 1399q-51 0 -85 30t-34 74q0 57 48.5 99.5t113.5 42.5q49 0 83.5 -30t34.5 -73q0 -57 -49 -100t-112 -43zM287 0h-168l200 1133h168z" />
    <glyph glyph-name="j" unicode="j" horiz-adv-x="604" 
d="M455 1399q-52 0 -85.5 29.5t-33.5 74.5q0 57 48 99.5t112 42.5q50 0 83 -30t33 -73q0 -57 -47 -100t-110 -43zM-180 -483q-147 0 -248 53l22 143q103 -57 218 -57q52 0 95 13.5t72 32t52.5 51t37 58t25 66t15.5 62t10 57.5l198 1137h170l-202 -1147q-27 -157 -64 -238
q-108 -231 -401 -231z" />
    <glyph glyph-name="k" unicode="k" horiz-adv-x="1277" 
d="M1112 1133h207l-590 -451l477 -682h-194l-418 580l-234 -179l-71 -401h-170l289 1638h170l-187 -1038h4q96 71 337.5 250t379.5 283z" />
    <glyph glyph-name="l" unicode="l" horiz-adv-x="604" 
d="M287 0h-168l289 1638h167z" />
    <glyph glyph-name="m" unicode="m" horiz-adv-x="2478" 
d="M287 0h-168l200 1133h164l-39 -211h5q97 121 234 182t282 61q68 0 131 -14.5t119.5 -44.5t95.5 -84.5t49 -126.5h6q220 270 539 270q72 0 136.5 -15.5t122.5 -49t94 -86.5t52.5 -128.5t-2.5 -174.5l-127 -711h-168l115 641q15 101 0 172.5t-59 117.5t-102.5 67.5
t-129.5 21.5q-189 0 -326 -117.5t-165 -275.5l-111 -627h-168l115 641q17 97 0 171.5t-60 119t-101.5 66.5t-129.5 22q-126 0 -234.5 -57t-174.5 -145.5t-85 -190.5z" />
    <glyph glyph-name="n" unicode="n" horiz-adv-x="1554" 
d="M287 0h-168l200 1133h164l-39 -211h5q98 122 234 182.5t288 60.5q78 0 145 -15t125.5 -48.5t94.5 -86.5t51.5 -128.5t-3.5 -175.5l-124 -711h-168l114 641q33 188 -56 283.5t-249 95.5q-100 0 -189.5 -33t-153 -88t-105.5 -125.5t-56 -146.5z" />
    <glyph glyph-name="o" unicode="o" horiz-adv-x="1579" 
d="M684 -35q-267 0 -425.5 136t-158.5 364q0 134 59.5 260.5t162 224t253 156.5t320.5 59q267 0 426.5 -136t159.5 -365q0 -134 -59.5 -260.5t-162.5 -223.5t-253.5 -156t-321.5 -59zM707 111q127 0 238.5 45t188 119.5t120.5 171.5t44 200q0 170 -115 271.5t-309 101.5
q-127 0 -238.5 -45.5t-188 -120.5t-120.5 -172t-44 -199q0 -170 115 -271t309 -101z" />
    <glyph glyph-name="p" unicode="p" horiz-adv-x="1638" 
d="M207 -451h-168l280 1584h164l-43 -230h6q106 130 256.5 196t311.5 66q238 0 383 -135t145 -356q0 -137 -58.5 -266.5t-157.5 -227t-238 -156.5t-291 -59q-165 0 -289.5 67.5t-181.5 186.5zM793 111q116 0 222 45t181 119t119.5 171t44.5 199q0 169 -110.5 272t-291.5 103
q-116 0 -224 -45t-186 -118.5t-124.5 -171.5t-46.5 -200q0 -166 116.5 -270t299.5 -104z" />
    <glyph glyph-name="q" unicode="q" horiz-adv-x="1640" 
d="M1245 -451h-168l119 676q-102 -125 -252.5 -192.5t-314.5 -67.5q-238 0 -383.5 136.5t-145.5 359.5q0 135 58 263.5t156.5 225.5t238.5 156t293 59q163 0 287 -66.5t180 -189.5h6l39 224h166zM682 111q117 0 225.5 45t186.5 118.5t125 171t47 199.5q0 169 -117.5 272
t-298.5 103q-116 0 -222 -45.5t-181 -119.5t-119.5 -172t-44.5 -200q0 -167 110 -269.5t289 -102.5z" />
    <glyph glyph-name="r" unicode="r" horiz-adv-x="1007" 
d="M287 0h-168l200 1133h164l-45 -228h11q73 115 206.5 187.5t280.5 72.5q84 0 149 -22l-26 -172q-62 26 -170 26q-101 0 -191 -40.5t-152.5 -107t-104 -147t-56.5 -165.5z" />
    <glyph glyph-name="s" unicode="s" horiz-adv-x="1206" 
d="M526 -35q-197 0 -333.5 87.5t-165.5 230.5l163 47q35 -107 136 -169.5t231 -62.5q137 0 237.5 63.5t100.5 151.5q0 31 -15.5 56.5t-30.5 40t-57 30.5t-59 20.5t-73 18.5q-10 3 -15 4l-125 31q-33 8 -50 13t-58 19t-65.5 27t-58.5 36.5t-53.5 49.5t-34 63t-14.5 79
q0 97 66 181t182 133.5t254 49.5q175 0 293 -77.5t145 -200.5l-170 -49q-20 82 -98 138t-201 56q-126 0 -211.5 -57t-85.5 -139q0 -30 11.5 -55t36 -44t47.5 -33t61 -27t60.5 -19.5t60.5 -16.5l121 -31q36 -9 56.5 -14t59 -18t62 -25t53.5 -33t47 -44t29 -56t12 -72
q0 -73 -42 -142t-113.5 -122.5t-175.5 -86t-220 -32.5z" />
    <glyph glyph-name="t" unicode="t" horiz-adv-x="921" 
d="M518 -35q-68 0 -119.5 14.5t-82.5 37t-49.5 57t-25.5 65.5t-6 72.5t4.5 68t10.5 62.5l119 651h-271l21 140h270l60 333h169l-59 -333h414l-21 -140h-415l-111 -604q-7 -34 -10 -53.5t-6 -54t0 -55t12.5 -46t27 -40t47.5 -24.5t70 -10q108 0 234 60l-25 -146
q-110 -55 -258 -55z" />
    <glyph glyph-name="u" unicode="u" horiz-adv-x="1533" 
d="M582 -35q-77 0 -143 15t-124 48.5t-94 86.5t-52 129.5t3 177.5l127 711h168l-117 -652q-18 -100 0.5 -174.5t64.5 -115.5t103.5 -60.5t126.5 -19.5q98 0 185.5 34t148.5 90t101 124t53 139l112 635h168l-137 -779q-20 -120 -24 -197.5t8 -156.5h-173q-10 131 7 201h-7
q-194 -236 -505 -236z" />
    <glyph glyph-name="v" unicode="v" horiz-adv-x="1331" 
d="M659 0h-184l-338 1133h185q46 -153 276 -947h4q372 577 612 947h181z" />
    <glyph glyph-name="w" unicode="w" horiz-adv-x="2228" 
d="M614 0h-180l-293 1133h187l233 -924h6l566 924h167l242 -924h4l557 924h187l-691 -1133h-182q-147 553 -229 926h-6q-196 -335 -568 -926z" />
    <glyph glyph-name="x" unicode="x" horiz-adv-x="1255" 
d="M127 0h-190q52 50 114.5 113t160.5 158t310 298v4q-54 77 -387 560h195l315 -455h6q80 77 479 455h193q-33 -32 -158.5 -150.5t-221.5 -211t-204 -198.5v-4q148 -225 383 -569h-186q-274 396 -320 463h-4q-43 -41 -215.5 -203t-269.5 -260z" />
    <glyph glyph-name="y" unicode="y" horiz-adv-x="1335" 
d="M362 -451h-161l282 431l-348 1153h187q51 -168 142 -485.5t134 -461.5h6q74 113 285.5 442t327.5 505h184z" />
    <glyph glyph-name="z" unicode="z" horiz-adv-x="1193" 
d="M1038 0h-1067l21 123l940 866h-739l22 144h967l-19 -123l-944 -867h840z" />
    <glyph glyph-name="braceleft" unicode="{" horiz-adv-x="907" 
d="M707 -305h-97q-270 0 -369.5 105.5t-60.5 334.5l29 170q13 71 15.5 116.5t-2 75t-23 43.5t-42 18.5t-65.5 4.5l29 166q76 0 103 13q53 25 83 136q12 45 23 109l30 172q9 52 20.5 94.5t33 89t50.5 82t73.5 69t101 55.5t135 35t172.5 13h96l-22 -139h-86q-174 0 -272 -62
t-127 -216l-35 -189q-32 -170 -79.5 -244.5t-139.5 -99.5v-4q56 -14 82 -47.5t31 -105.5t-19 -189l-33 -188q-15 -61 -6.5 -112.5t37.5 -88.5t96.5 -57.5t171.5 -20.5h86z" />
    <glyph glyph-name="bar" unicode="|" horiz-adv-x="636" 
d="M219 -451h-160l369 2089h160z" />
    <glyph glyph-name="braceright" unicode="}" horiz-adv-x="907" 
d="M-8 -305h-96l20 139h88q181 0 278 66t124 213l32 188q31 165 76.5 241.5t142.5 100.5v4q-55 16 -80.5 48.5t-32.5 104.5t17 191l35 189q7 40 7.5 71t-6 65t-27 58t-54 44t-89 30t-130.5 10h-86l20 139h97q270 0 372 -105.5t60 -332.5l-33 -172q-10 -54 -14 -92.5t-4 -67
t7.5 -46.5t16.5 -28.5t28.5 -15.5t36.5 -6.5t48 -1.5l-27 -166q-52 0 -80.5 -7t-54 -34.5t-41.5 -77.5t-33 -139l-35 -170q-15 -78 -35.5 -136t-62.5 -118.5t-102.5 -98.5t-157.5 -62.5t-225 -24.5z" />
    <glyph glyph-name="asciitilde" unicode="~" horiz-adv-x="1286" 
d="M840 557q-51 0 -94.5 14t-73 34.5t-56.5 40.5t-59 34t-68 14q-64 0 -103.5 -38.5t-49.5 -96.5h-150q22 128 118 199t210 71q49 0 90.5 -14t70.5 -33.5t55 -39.5t57.5 -34t66.5 -14q61 0 97 37.5t46 95.5h150q-22 -131 -108 -200.5t-199 -69.5z" />
    <glyph glyph-name="uni00A0" unicode="&#xa0;" horiz-adv-x="645" 
 />
    <glyph glyph-name="exclamdown" unicode="&#xa1;" horiz-adv-x="595" 
d="M365 920q-51 0 -85 29.5t-34 72.5q0 56 49 99.5t113 43.5q49 0 81.5 -30.5t32.5 -75.5q0 -55 -47.5 -97t-109.5 -42zM221 -446h-201l19 112l246 1077h98l-143 -1077z" />
    <glyph glyph-name="cent" unicode="&#xa2;" horiz-adv-x="1370" 
d="M860 1108l-133 -748q127 7 230 67.5t165 156.5l121 -43q-84 -136 -226 -215t-310 -88l-43 -238h-111l43 242q-188 18 -299 125.5t-111 281.5q0 140 73.5 266t208 211t300.5 101l43 239h113l-43 -237q143 -8 249 -73t142 -189l-139 -47q-21 82 -94.5 131t-178.5 57z
M338 668q0 -126 75.5 -206.5t202.5 -99.5l132 744q-179 -24 -294.5 -151.5t-115.5 -286.5z" />
    <glyph glyph-name="sterling" unicode="&#xa3;" horiz-adv-x="1474" 
d="M780 645q0 -138 -119.5 -272t-324.5 -223h962l-22 -150h-1243l20 150q250 74 396.5 200.5t146.5 261.5q0 53 -27 115h-381l19 111h297q-2 3 -29.5 41.5t-33 47.5t-27 43t-28 52t-18.5 48.5t-16 58t-4 57.5q0 122 75 223.5t209.5 161t301.5 59.5q68 0 132 -10t133 -37
t121 -70t90.5 -115t47.5 -165l-170 -62q-13 88 -51 151t-92.5 97t-112.5 49t-123 15q-159 0 -265.5 -80.5t-106.5 -202.5q0 -63 26.5 -120.5t83 -134t74.5 -107.5h518l-20 -111h-449q10 -45 10 -82z" />
    <glyph glyph-name="currency" unicode="&#xa4;" horiz-adv-x="1619" 
d="M1325 885q0 -183 -149 -316l264 -319l-129 -90l-269 323q-119 -55 -258 -55t-237 55l-381 -323l-98 90l378 321q-57 82 -57 191q0 87 38 168.5t108 146.5l-263 320l127 90l269 -320q122 56 260 56t239 -56l377 320l101 -90l-377 -320q57 -82 57 -192zM545 782
q0 -106 70.5 -168.5t191.5 -62.5q151 0 256.5 94t105.5 225q0 106 -70 168t-190 62q-151 0 -257.5 -94t-106.5 -224z" />
    <glyph glyph-name="yen" unicode="&#xa5;" horiz-adv-x="1748" 
d="M860 0h-180l49 268h-444l18 127h447l34 183h-444l20 127h379l-481 892h195l448 -839h4q84 93 140.5 160.5t90.5 108.5t163 182.5t360 387.5h190l-798 -892h385l-21 -127h-450l-35 -183h448l-18 -127h-451z" />
    <glyph glyph-name="brokenbar" unicode="&#xa6;" horiz-adv-x="636" 
d="M446 838h-159l141 800h162zM221 -451h-162l140 795h161z" />
    <glyph glyph-name="section" unicode="&#xa7;" horiz-adv-x="1310" 
d="M520 -301q-202 0 -343 94.5t-167 243.5l160 43q34 -115 137.5 -184.5t237.5 -69.5q132 0 228.5 63.5t96.5 151.5q0 30 -13 54t-29 39t-50.5 30.5t-57.5 23.5t-70 22q-5 1 -7.5 2t-7 2.5t-8.5 2.5l-121 37q-48 15 -84 29t-84 39.5t-79 53.5t-53 70t-22 91q0 102 81.5 187
t221.5 120l-2 2q-184 82 -184 237q0 149 147.5 256t372.5 107q107 0 193.5 -28t150.5 -97.5t80 -175.5l-170 -47q-21 112 -88 166.5t-194 54.5q-138 0 -228 -57.5t-90 -141.5q0 -26 9.5 -48.5t21.5 -39t37 -32.5t41 -25t49.5 -21.5t47 -16.5t48.5 -14q7 -2 10 -3l142 -41
q38 -11 62.5 -19t63.5 -24t64.5 -34t51 -43t38.5 -58t13 -72q0 -104 -88 -196.5t-220 -129.5l-2 -4q191 -71 191 -223q0 -96 -69 -182.5t-193.5 -140.5t-272.5 -54zM610 379l60 -17q148 9 237.5 75.5t89.5 152.5q0 30 -14 54.5t-28.5 38.5t-52 29t-54.5 20t-66 18
q-5 2 -7.5 2.5t-7 1.5t-7.5 2l-92 24q-69 19 -144 -6.5t-123.5 -80t-48.5 -115.5q0 -36 19 -66.5t44 -50t64.5 -37.5t66.5 -26.5t64 -18.5z" />
    <glyph glyph-name="copyright" unicode="&#xa9;" horiz-adv-x="2326" 
d="M1059 -35q-256 0 -452.5 88.5t-304 249t-107.5 369.5q0 187 90.5 362.5t244 306.5t370 210t454.5 79q256 0 452.5 -87.5t304 -247.5t107.5 -369q0 -187 -90.5 -363t-244 -307.5t-370 -211t-454.5 -79.5zM1079 84q166 0 320.5 44t277 122t214 180.5t141 226t49.5 252.5
q0 179 -93.5 316.5t-263 212.5t-389.5 75q-207 0 -394 -68t-319 -180.5t-210 -263t-78 -311.5q0 -274 205 -440t540 -166zM1137 350q-201 0 -320 102t-119 273q0 101 45 196t122.5 167t190 115.5t238.5 43.5q160 0 268 -68.5t138 -193.5l-148 -43q-20 90 -94 139t-184 49
q-123 0 -221.5 -58.5t-149.5 -147.5t-51 -187q0 -128 86.5 -198t224.5 -70q124 0 227 58t169 165l122 -37q-82 -146 -224 -225.5t-320 -79.5z" />
    <glyph glyph-name="guillemotleft" unicode="&#xab;" horiz-adv-x="1386" 
d="M659 164h-192l-332 405l2 9l477 405h191l-475 -405l-2 -9zM1149 164h-193l-331 405l4 9l473 405h194l-477 -405l-2 -9z" />
    <glyph glyph-name="logicalnot" unicode="&#xac;" horiz-adv-x="1247" 
d="M1004 244h-154l55 321h-723l23 135h876z" />
    <glyph glyph-name="registered" unicode="&#xae;" horiz-adv-x="1400" 
d="M729 737q-207 0 -336 105.5t-129 275.5q0 134 82 252.5t227 191t316 72.5q205 0 335 -104.5t130 -276.5q0 -79 -31 -156t-88 -141.5t-133.5 -114t-173 -77t-199.5 -27.5zM745 819q109 0 205.5 36t163 95t105 136t38.5 157q0 138 -106 224.5t-277 86.5q-141 0 -260 -59.5
t-186.5 -156.5t-67.5 -208q0 -140 106 -225.5t279 -85.5zM672 944h-94l86 492h217q86 0 134 -34t48 -93q0 -61 -45.5 -110t-116.5 -64l121 -191h-107l-114 180h-96zM745 1362l-26 -162h119q56 0 90.5 25.5t34.5 64.5q0 72 -105 72h-113z" />
    <glyph glyph-name="degree" unicode="&#xb0;" horiz-adv-x="931" 
d="M549 1055q-135 0 -219 70t-84 182q0 136 119.5 239t287.5 103q134 0 218.5 -71t84.5 -183q0 -134 -120.5 -237t-286.5 -103zM567 1155q106 0 185 69t79 158q0 72 -54 118t-140 46q-107 0 -185.5 -68t-78.5 -157q0 -74 53.5 -120t140.5 -46z" />
    <glyph glyph-name="plusminus" unicode="&#xb1;" horiz-adv-x="1257" 
d="M1114 791l-20 -132h-371l-37 -208h369l-21 -125h-889l21 125h366l37 208h-366l20 132h369l41 243h153l-43 -243h371z" />
    <glyph glyph-name="uni00B2" unicode="&#xb2;" horiz-adv-x="765" 
d="M721 797h-580l2 12q32 121 94 183.5t242 154.5q98 52 137 89q48 45 48 89q0 40 -35 65t-92 25q-77 0 -135.5 -44.5t-71.5 -117.5l-123 19q19 114 118 186t232 72q111 0 181.5 -51.5t70.5 -135.5q0 -44 -20 -84t-53 -70.5t-64.5 -51.5t-65.5 -37q-29 -16 -71 -37
t-65.5 -33.5t-51 -30.5t-46 -38.5t-32.5 -47.5h397z" />
    <glyph glyph-name="uni00B3" unicode="&#xb3;" horiz-adv-x="778" 
d="M422 780q-115 0 -193 45.5t-92 118.5l127 55q15 -53 59.5 -82.5t114.5 -29.5q78 0 131.5 38.5t53.5 92.5q0 96 -160 96h-84l12 92h90q76 0 128.5 35t52.5 88q0 41 -38 65.5t-96 24.5q-67 0 -116 -30.5t-68 -85.5l-123 24q29 89 123.5 146t210.5 57q104 0 176 -45.5
t72 -120.5q0 -63 -49 -118t-121 -70v-2q60 -9 98.5 -47.5t38.5 -94.5q0 -100 -102 -176t-246 -76z" />
    <glyph glyph-name="paragraph" unicode="&#xb6;" horiz-adv-x="1755" 
d="M952 -287h-178l166 942h-266q-227 0 -360.5 109t-133.5 295q0 108 50.5 206t140.5 171.5t224 117t292 43.5h397zM1323 -287h-178l332 1884h178z" />
    <glyph glyph-name="periodcentered" unicode="&#xb7;" horiz-adv-x="665" 
d="M344 477q-61 0 -103 37.5t-42 91.5q0 68 59 120t135 52q62 0 103 -35.5t41 -89.5q0 -67 -58.5 -121.5t-134.5 -54.5z" />
    <glyph glyph-name="uni00B9" unicode="&#xb9;" horiz-adv-x="534" 
d="M420 797h-135l88 508q-88 -68 -199 -84l21 129q86 21 147 65.5t70 97.5h131z" />
    <glyph glyph-name="guillemotright" unicode="&#xbb;" horiz-adv-x="1388" 
d="M289 164h-193l475 405l2 9l-331 405h192l332 -405l-2 -9zM778 164h-194l477 405l2 9l-332 405h193l331 -405l-4 -9z" />
    <glyph glyph-name="onequarter" unicode="&#xbc;" horiz-adv-x="1607" 
d="M420 797h-135l88 508q-88 -68 -199 -84l21 129q86 21 147 65.5t70 97.5h131zM20 0h-161l1624 1468h153zM1317 -14h-133l28 155h-417l18 107l500 457h129l-80 -457h117l-17 -107h-116zM1282 541l-334 -293h281z" />
    <glyph glyph-name="onehalf" unicode="&#xbd;" horiz-adv-x="1654" 
d="M420 797h-135l88 508q-88 -68 -199 -84l21 129q86 21 147 65.5t70 97.5h131zM20 0h-161l1624 1468h153zM1468 -14h-579l2 14q32 121 94 183.5t242 154.5q100 53 139 92q45 43 45 86q0 40 -35 65t-92 25q-77 0 -135.5 -44.5t-71.5 -117.5l-123 19q19 114 118 186t233 72
q111 0 181 -51t70 -135q0 -44 -20 -84.5t-52.5 -71t-64 -51.5t-65.5 -37q-30 -17 -86 -44.5t-80.5 -42t-54 -41t-46.5 -59.5h398z" />
    <glyph glyph-name="threequarters" unicode="&#xbe;" horiz-adv-x="1851" 
d="M422 780q-115 0 -193 45.5t-92 118.5l127 55q15 -53 59.5 -82.5t114.5 -29.5q78 0 131.5 38.5t53.5 92.5q0 96 -160 96h-84l12 92h90q76 0 128.5 35t52.5 88q0 41 -38 65.5t-96 24.5q-67 0 -116 -30.5t-68 -85.5l-123 24q29 89 123.5 146t210.5 57q104 0 176 -45.5
t72 -120.5q0 -63 -49 -118t-121 -70v-2q60 -9 98.5 -47.5t38.5 -94.5q0 -100 -102 -176t-246 -76zM264 0h-162l1624 1468h154zM1561 -14h-134l29 155h-418l19 107l499 457h130l-80 -457h116l-16 -107h-117zM1526 541l-334 -293h281z" />
    <glyph glyph-name="questiondown" unicode="&#xbf;" horiz-adv-x="1290" 
d="M778 920q-51 0 -85 29.5t-34 72.5q0 56 48.5 99.5t109.5 43.5q51 0 85 -30.5t34 -75.5q0 -56 -47 -97.5t-111 -41.5zM463 -481q-132 0 -241.5 41.5t-178 125.5t-68.5 197q0 53 17.5 105.5t43 94t67 84.5t75.5 72t82.5 62t76 49.5t66.5 38.5q41 23 59.5 34t51 31.5
t47.5 33t38.5 33t33.5 36.5t23.5 39.5t18.5 47t8 53t1 63.5h172q3 -71 -10 -126.5t-36.5 -97.5t-72 -84t-99 -74t-134.5 -79q-48 -28 -83.5 -50t-88 -62.5t-85.5 -78.5t-58 -90.5t-25 -105.5q0 -113 95 -178.5t237 -65.5q84 0 164.5 26t145.5 73.5t106 121.5t42 162l154 -26
q-5 -150 -99.5 -267.5t-238.5 -178t-307 -60.5z" />
    <glyph glyph-name="Agrave" unicode="&#xc0;" horiz-adv-x="1812" 
d="M1223 1722h-156l-348 328h250zM123 0h-191l1059 1597h197l493 -1597h-188q-33 101 -98 304.5t-76 236.5h-834q-95 -139 -229 -340zM584 698h686q-172 570 -211 707h-6q-48 -74 -217 -327t-252 -380z" />
    <glyph glyph-name="Aacute" unicode="&#xc1;" horiz-adv-x="1812" 
d="M1628 2050l-463 -328h-155l370 328h248zM123 0h-191l1059 1597h197l493 -1597h-188q-33 101 -98 304.5t-76 236.5h-834q-95 -139 -229 -340zM584 698h686q-172 570 -211 707h-6q-48 -74 -217 -327t-252 -380z" />
    <glyph glyph-name="Acircumflex" unicode="&#xc2;" horiz-adv-x="1812" 
d="M1270 2036l270 -314h-158q-116 98 -231 211q-16 -11 -51 -37t-48 -35t-45 -31.5t-70 -47t-95 -60.5h-158l377 314h209zM123 0h-191l1059 1597h197l493 -1597h-188q-33 101 -98 304.5t-76 236.5h-834q-95 -139 -229 -340zM584 698h686q-172 570 -211 707h-6
q-48 -74 -217 -327t-252 -380z" />
    <glyph glyph-name="Atilde" unicode="&#xc3;" horiz-adv-x="1812" 
d="M1315 1745q-59 0 -96.5 17.5t-81.5 54.5l-45 32q-21 17 -31.5 24.5t-33 16t-46.5 8.5q-56 0 -97 -38.5t-53 -98.5h-126q22 115 105.5 186.5t193.5 71.5q89 0 165 -65l48 -35q60 -51 118 -51q54 0 93 38.5t51 98.5h129q-22 -121 -100 -190.5t-193 -69.5zM123 0h-191
l1059 1597h197l493 -1597h-188q-33 101 -98 304.5t-76 236.5h-834q-95 -139 -229 -340zM584 698h686q-172 570 -211 707h-6q-48 -74 -217 -327t-252 -380z" />
    <glyph glyph-name="Adieresis" unicode="&#xc4;" horiz-adv-x="1812" 
d="M885 1780q-50 0 -82.5 28t-32.5 72q0 52 46 92.5t106 40.5q47 0 78.5 -28t31.5 -68q0 -54 -43.5 -95.5t-103.5 -41.5zM1362 1780q-50 0 -82.5 28t-32.5 70q0 55 45.5 95t106.5 40q47 0 79.5 -28.5t32.5 -69.5q0 -53 -44.5 -94t-104.5 -41zM123 0h-191l1059 1597h197
l493 -1597h-188q-33 101 -98 304.5t-76 236.5h-834q-95 -139 -229 -340zM584 698h686q-172 570 -211 707h-6q-48 -74 -217 -327t-252 -380z" />
    <glyph glyph-name="Aring" unicode="&#xc5;" horiz-adv-x="1812" 
d="M1108 1716q-104 0 -170 53t-66 138q0 102 93.5 179t222.5 77q104 0 169.5 -54t65.5 -139q0 -101 -92.5 -177.5t-222.5 -76.5zM1126 1819q73 0 125 41t52 100q0 45 -38.5 71.5t-95.5 26.5q-75 0 -125.5 -40t-50.5 -99q0 -46 37.5 -73t95.5 -27zM123 0h-191l1059 1597h197
l493 -1597h-188q-33 101 -98 304.5t-76 236.5h-834q-95 -139 -229 -340zM584 698h686q-172 570 -211 707h-6q-48 -74 -217 -327t-252 -380z" />
    <glyph glyph-name="AE" unicode="&#xc6;" horiz-adv-x="2543" 
d="M53 0h-194l1411 1597h1308l-24 -151h-1028q-10 -57 -101 -549h977l-22 -156h-979q-8 -45 -32 -170t-77 -415h1053l-27 -156h-1231q11 56 31.5 175t69.5 364h-645q-54 -59 -150.5 -161.5t-174 -188t-165.5 -189.5zM666 694h544q12 66 39 203t99 549h-7
q-164 -184 -675 -752z" />
    <glyph glyph-name="Ccedilla" unicode="&#xc7;" horiz-adv-x="2062" 
d="M1032 121q148 0 280 37.5t233 104t177 149t127 180.5l154 -53q-137 -257 -393.5 -414t-601.5 -160l-119 -117q39 17 98 17q89 0 143 -39t54 -105q0 -90 -89 -153.5t-221 -63.5q-86 0 -163.5 31t-122.5 84l82 66q31 -43 89 -68t120 -25q76 0 129 33.5t53 81.5
q0 37 -37 59.5t-94 22.5q-60 0 -119 -25l-59 54l143 151q-339 25 -539 211.5t-200 481.5q0 125 39.5 247.5t110 228.5t173 197.5t224.5 156.5t269 101.5t302 36.5q136 0 260.5 -30t228.5 -87t177 -148t98 -206l-174 -61q-52 176 -219.5 276.5t-397.5 100.5
q-187 0 -356 -67.5t-287 -178.5t-187 -256t-69 -297q0 -113 38 -206.5t102.5 -157t152.5 -107.5t186 -64t205 -20z" />
    <glyph glyph-name="Egrave" unicode="&#xc8;" horiz-adv-x="1611" 
d="M1145 1722h-156l-348 328h250zM1389 0h-1231l282 1597h1207l-23 -151h-1028q-5 -26 -31.5 -163t-70.5 -386h979l-23 -156h-979q-18 -94 -109 -585h1051z" />
    <glyph glyph-name="Eacute" unicode="&#xc9;" horiz-adv-x="1611" 
d="M1548 2050l-463 -328h-155l370 328h248zM1389 0h-1231l282 1597h1207l-23 -151h-1028q-5 -26 -31.5 -163t-70.5 -386h979l-23 -156h-979q-18 -94 -109 -585h1051z" />
    <glyph glyph-name="Ecircumflex" unicode="&#xca;" horiz-adv-x="1611" 
d="M1190 2036l270 -314h-157q-123 105 -232 211q-16 -11 -51 -37t-48 -35t-45 -31.5t-70 -47t-95 -60.5h-158l377 314h209zM1389 0h-1231l282 1597h1207l-23 -151h-1028q-5 -26 -31.5 -163t-70.5 -386h979l-23 -156h-979q-18 -94 -109 -585h1051z" />
    <glyph glyph-name="Edieresis" unicode="&#xcb;" horiz-adv-x="1611" 
d="M807 1780q-50 0 -82.5 28t-32.5 72q0 52 46 92.5t106 40.5q47 0 78.5 -28t31.5 -68q0 -54 -43.5 -95.5t-103.5 -41.5zM1284 1780q-50 0 -82.5 28t-32.5 70q0 55 45.5 95t106.5 40q47 0 80 -28.5t33 -69.5q0 -53 -45 -94t-105 -41zM1389 0h-1231l282 1597h1207l-23 -151
h-1028q-5 -26 -31.5 -163t-70.5 -386h979l-23 -156h-979q-18 -94 -109 -585h1051z" />
    <glyph glyph-name="Igrave" unicode="&#xcc;" horiz-adv-x="694" 
d="M666 1722h-156l-348 328h250zM338 0h-180l282 1597h181z" />
    <glyph glyph-name="Iacute" unicode="&#xcd;" horiz-adv-x="694" 
d="M1071 2050l-463 -328h-155l370 328h248zM338 0h-180l282 1597h181z" />
    <glyph glyph-name="Icircumflex" unicode="&#xce;" horiz-adv-x="694" 
d="M711 2036l270 -314h-158q-116 98 -231 211q-16 -11 -51 -37t-48 -35t-45 -31.5t-70 -47t-95 -60.5h-158l377 314h209zM338 0h-180l282 1597h181z" />
    <glyph glyph-name="Idieresis" unicode="&#xcf;" horiz-adv-x="694" 
d="M328 1780q-50 0 -82.5 28t-32.5 72q0 52 46 92.5t106 40.5q47 0 78.5 -28t31.5 -68q0 -54 -43.5 -95.5t-103.5 -41.5zM805 1780q-50 0 -82.5 28t-32.5 70q0 55 45.5 95t106.5 40q47 0 79.5 -28.5t32.5 -69.5q0 -53 -44.5 -94t-104.5 -41zM338 0h-180l282 1597h181z" />
    <glyph glyph-name="Eth" unicode="&#xd0;" horiz-adv-x="1976" 
d="M440 1597h676q393 0 589 -170t196 -475q0 -147 -47 -287.5t-138 -260.5t-216 -210.5t-291.5 -142t-352.5 -51.5h-698l129 731h-205l22 135h207zM889 152q183 0 340 64t261.5 170.5t163 244.5t58.5 287q0 528 -659 528h-457q-28 -158 -107 -580h637l-22 -135h-639
q-11 -60 -25.5 -141t-37.5 -210.5t-40 -227.5h527z" />
    <glyph glyph-name="Ntilde" unicode="&#xd1;" horiz-adv-x="2025" 
d="M1393 1790q-59 0 -97 17.5t-82 54.5l-45 32q-46 36 -71 44q-19 6 -39 6q-56 0 -97 -39t-53 -99h-127q22 115 105.5 186.5t193.5 71.5q90 0 166 -65l47 -35q60 -51 119 -51q54 0 92.5 38.5t50.5 98.5h130q-22 -121 -100 -190.5t-193 -69.5zM338 0h-180l282 1597h195
q568 -833 891 -1327h6q11 63 100.5 545t141.5 782h178l-283 -1597h-192q-39 57 -379.5 550t-517.5 761h-2q-12 -69 -97.5 -518.5t-142.5 -792.5z" />
    <glyph glyph-name="Ograve" unicode="&#xd2;" horiz-adv-x="2172" 
d="M1403 1722h-156l-348 328h250zM983 -35q-240 0 -429 89.5t-294.5 250.5t-105.5 365q0 148 57.5 291.5t162.5 263t243 211t309 143t350 51.5t333 -52.5t262.5 -145t170 -224t61.5 -284.5q0 -147 -58 -291t-163 -263t-243 -211t-308.5 -143t-347.5 -51zM1010 121
q177 0 343.5 66t287 173.5t193.5 251t73 293.5q0 249 -184.5 409.5t-471.5 160.5q-175 0 -341.5 -65.5t-289.5 -173t-197.5 -252.5t-74.5 -296q0 -164 85.5 -294t236.5 -201.5t340 -71.5z" />
    <glyph glyph-name="Oacute" unicode="&#xd3;" horiz-adv-x="2172" 
d="M1806 2050l-463 -328h-155l371 328h247zM983 -35q-240 0 -429 89.5t-294.5 250.5t-105.5 365q0 148 57.5 291.5t162.5 263t243 211t309 143t350 51.5t333 -52.5t262.5 -145t170 -224t61.5 -284.5q0 -147 -58 -291t-163 -263t-243 -211t-308.5 -143t-347.5 -51zM1010 121
q177 0 343.5 66t287 173.5t193.5 251t73 293.5q0 249 -184.5 409.5t-471.5 160.5q-175 0 -341.5 -65.5t-289.5 -173t-197.5 -252.5t-74.5 -296q0 -164 85.5 -294t236.5 -201.5t340 -71.5z" />
    <glyph glyph-name="Ocircumflex" unicode="&#xd4;" horiz-adv-x="2172" 
d="M1448 2036l270 -314h-157q-123 105 -232 211q-16 -11 -51 -37t-48 -35t-45 -31.5t-70 -47t-95 -60.5h-158l377 314h209zM983 -35q-240 0 -429 89.5t-294.5 250.5t-105.5 365q0 148 57.5 291.5t162.5 263t243 211t309 143t350 51.5t333 -52.5t262.5 -145t170 -224
t61.5 -284.5q0 -147 -58 -291t-163 -263t-243 -211t-308.5 -143t-347.5 -51zM1010 121q177 0 343.5 66t287 173.5t193.5 251t73 293.5q0 249 -184.5 409.5t-471.5 160.5q-175 0 -341.5 -65.5t-289.5 -173t-197.5 -252.5t-74.5 -296q0 -164 85.5 -294t236.5 -201.5t340 -71.5
z" />
    <glyph glyph-name="Otilde" unicode="&#xd5;" horiz-adv-x="2172" 
d="M1487 1790q-59 0 -96.5 17.5t-81.5 54.5l-45 32q-22 18 -32 25t-32.5 16t-46.5 9q-56 0 -96.5 -39t-52.5 -99h-127q22 115 105.5 186.5t193.5 71.5q89 0 165 -65l48 -35q60 -51 118 -51q54 0 93 38.5t51 98.5h129q-22 -121 -100 -190.5t-193 -69.5zM983 -35
q-240 0 -429 89.5t-294.5 250.5t-105.5 365q0 148 57.5 291.5t162.5 263t243 211t309 143t350 51.5t333 -52.5t262.5 -145t170 -224t61.5 -284.5q0 -147 -58 -291t-163 -263t-243 -211t-308.5 -143t-347.5 -51zM1010 121q177 0 343.5 66t287 173.5t193.5 251t73 293.5
q0 249 -184.5 409.5t-471.5 160.5q-175 0 -341.5 -65.5t-289.5 -173t-197.5 -252.5t-74.5 -296q0 -164 85.5 -294t236.5 -201.5t340 -71.5z" />
    <glyph glyph-name="Odieresis" unicode="&#xd6;" horiz-adv-x="2172" 
d="M1065 1780q-50 0 -82.5 28t-32.5 72q0 52 46 92.5t106 40.5q47 0 78.5 -28t31.5 -68q0 -54 -43.5 -95.5t-103.5 -41.5zM1542 1780q-50 0 -82.5 28t-32.5 70q0 55 45.5 95t106.5 40q47 0 80 -28.5t33 -69.5q0 -53 -45 -94t-105 -41zM983 -35q-240 0 -429 89.5
t-294.5 250.5t-105.5 365q0 148 57.5 291.5t162.5 263t243 211t309 143t350 51.5t333 -52.5t262.5 -145t170 -224t61.5 -284.5q0 -147 -58 -291t-163 -263t-243 -211t-308.5 -143t-347.5 -51zM1010 121q177 0 343.5 66t287 173.5t193.5 251t73 293.5q0 249 -184.5 409.5
t-471.5 160.5q-175 0 -341.5 -65.5t-289.5 -173t-197.5 -252.5t-74.5 -296q0 -164 85.5 -294t236.5 -201.5t340 -71.5z" />
    <glyph glyph-name="multiply" unicode="&#xd7;" horiz-adv-x="1114" 
d="M465 625l-236 231l123 96l236 -231l305 225l90 -96l-305 -223l231 -234l-121 -94l-233 231l-309 -227l-88 94z" />
    <glyph glyph-name="Oslash" unicode="&#xd8;" horiz-adv-x="2172" 
d="M2083 1661l-221 -221q115 -95 178 -227.5t63 -288.5q0 -147 -58 -291t-163 -263t-243 -211t-308.5 -143t-347.5 -51q-272 0 -479 115l-146 -146h-188l223 224q-115 95 -177 226t-62 286q0 148 57.5 291.5t162.5 263t243 211t309 143t350 51.5q269 0 473 -112l143 143h191
zM348 688q0 -240 176 -399l1094 1097q-159 89 -367 89q-175 0 -341.5 -65.5t-289.5 -173t-197.5 -252.5t-74.5 -296zM1010 121q177 0 343.5 66t287 173.5t193.5 251t73 293.5q0 120 -46 224t-130 180l-1096 -1098q164 -90 375 -90z" />
    <glyph glyph-name="Ugrave" unicode="&#xd9;" horiz-adv-x="1851" 
d="M1245 1722h-155l-349 328h250zM817 -35q-329 0 -479 166.5t-98 454.5l182 1011h178l-178 -1001q-41 -232 68.5 -354.5t355.5 -122.5q245 0 400 124.5t196 352.5l178 1001h180l-182 -1011q-18 -103 -58 -193.5t-107 -170t-156.5 -136t-212 -89t-267.5 -32.5z" />
    <glyph glyph-name="Uacute" unicode="&#xda;" horiz-adv-x="1851" 
d="M1466 2050l-462 -330h-156l371 330h247zM817 -35q-329 0 -479 166.5t-98 454.5l182 1011h178l-178 -1001q-41 -232 68.5 -354.5t355.5 -122.5q245 0 400 124.5t196 352.5l178 1001h180l-182 -1011q-18 -103 -58 -193.5t-107 -170t-156.5 -136t-212 -89t-267.5 -32.5z" />
    <glyph glyph-name="Ucircumflex" unicode="&#xdb;" horiz-adv-x="1851" 
d="M1290 2036l271 -314h-158q-123 105 -232 211q-16 -11 -51 -37t-48 -35t-45 -31.5t-70 -47t-95 -60.5h-157l376 314h209zM817 -35q-329 0 -479 166.5t-98 454.5l182 1011h178l-178 -1001q-41 -232 68.5 -354.5t355.5 -122.5q245 0 400 124.5t196 352.5l178 1001h180
l-182 -1011q-18 -103 -58 -193.5t-107 -170t-156.5 -136t-212 -89t-267.5 -32.5z" />
    <glyph glyph-name="Udieresis" unicode="&#xdc;" horiz-adv-x="1851" 
d="M907 1780q-50 0 -82 28t-32 72q0 53 45.5 93t105.5 40q47 0 79 -28t32 -68q0 -54 -44 -95.5t-104 -41.5zM1384 1780q-50 0 -82 28t-32 70q0 55 45.5 95t105.5 40q47 0 80 -28.5t33 -69.5q0 -53 -45 -94t-105 -41zM817 -35q-329 0 -479 166.5t-98 454.5l182 1011h178
l-178 -1001q-41 -232 68.5 -354.5t355.5 -122.5q245 0 400 124.5t196 352.5l178 1001h180l-182 -1011q-18 -103 -58 -193.5t-107 -170t-156.5 -136t-212 -89t-267.5 -32.5z" />
    <glyph glyph-name="Yacute" unicode="&#xdd;" horiz-adv-x="1687" 
d="M1516 2050l-463 -330h-156l369 330h250zM834 0h-179q59 334 105 582q-57 109 -154 278.5t-187 340.5t-194 396h195q76 -142 226 -427.5t226 -428.5h5q87 95 143.5 164t91 113.5t166 190t360.5 388.5h191q-69 -79 -392.5 -448t-498.5 -567q-15 -83 -40.5 -227t-41.5 -234
t-22 -121z" />
    <glyph glyph-name="Thorn" unicode="&#xde;" horiz-adv-x="1671" 
d="M338 0h-180l282 1597h181l-50 -280h494q117 0 215 -24t174.5 -72t119 -127t42.5 -183q0 -109 -50 -211.5t-138 -181.5t-217 -126.5t-277 -47.5h-533zM547 1165l-125 -665h479q231 0 378.5 104.5t147.5 269.5q0 146 -111.5 218.5t-307.5 72.5h-461z" />
    <glyph glyph-name="germandbls" unicode="&#xdf;" horiz-adv-x="1511" 
d="M287 0h-168l203 1143q7 40 16.5 75.5t32.5 92t52.5 102.5t80.5 96.5t113.5 84.5t154 56.5t199.5 22.5q235 0 367 -99t132 -267q0 -167 -117 -299.5t-288 -157.5l-2 -4q157 -19 245.5 -106t88.5 -222q0 -102 -53.5 -196t-147.5 -165t-232 -114t-296 -43h-174l22 137h191
q212 0 359.5 109.5t147.5 259.5q0 117 -92 188.5t-243 71.5h-121l20 137h109q176 0 289.5 110.5t113.5 256.5q0 120 -84.5 191t-251.5 71q-98 0 -177 -27t-126.5 -66.5t-81.5 -91.5t-48.5 -92.5t-20.5 -80.5z" />
    <glyph glyph-name="agrave" unicode="&#xe0;" horiz-adv-x="1411" 
d="M926 1278h-150l-303 391h227zM440 -35q-177 0 -280 68.5t-103 195.5q0 81 43 146t122.5 109.5t173.5 74.5t214 51q34 6 84.5 14t84.5 13t78 14t73.5 18t60.5 23.5t49 32t29.5 42.5t11.5 56q0 90 -82.5 149.5t-218.5 59.5q-134 0 -243 -61.5t-166 -167.5l-156 51
q57 105 157.5 177t211 103t229.5 31q96 0 179.5 -22.5t148.5 -67t95 -119.5t13 -172l-75 -430q-10 -68 -14 -96t-9 -79.5t-3.5 -93t7.5 -85.5h-170q-15 109 6 225h-6q-88 -119 -226.5 -189.5t-318.5 -70.5zM487 92q103 0 199 35t163 89.5t111.5 116.5t55.5 118l26 145
q-66 -37 -124 -52.5t-211 -39.5q-53 -9 -93.5 -17t-100 -23t-102.5 -34t-84 -44.5t-63 -61t-22 -76.5q0 -72 65 -114t180 -42z" />
    <glyph glyph-name="aacute" unicode="&#xe1;" horiz-adv-x="1411" 
d="M1350 1669l-441 -391h-149l362 391h228zM440 -35q-177 0 -280 68.5t-103 195.5q0 81 43 146t122.5 109.5t173.5 74.5t214 51q34 6 84.5 14t84.5 13t78 14t73.5 18t60.5 23.5t49 32t29.5 42.5t11.5 56q0 90 -82.5 149.5t-218.5 59.5q-134 0 -243 -61.5t-166 -167.5
l-156 51q57 105 157.5 177t211 103t229.5 31q96 0 179.5 -22.5t148.5 -67t95 -119.5t13 -172l-75 -430q-10 -68 -14 -96t-9 -79.5t-3.5 -93t7.5 -85.5h-170q-15 109 6 225h-6q-88 -119 -226.5 -189.5t-318.5 -70.5zM487 92q103 0 199 35t163 89.5t111.5 116.5t55.5 118
l26 145q-66 -37 -124 -52.5t-211 -39.5q-53 -9 -93.5 -17t-100 -23t-102.5 -34t-84 -44.5t-63 -61t-22 -76.5q0 -72 65 -114t180 -42z" />
    <glyph glyph-name="acircumflex" unicode="&#xe2;" horiz-adv-x="1411" 
d="M539 1278h-162l422 360h217l293 -360h-160q-23 23 -71.5 68t-94.5 90.5t-90 97.5q-63 -50 -174.5 -127t-179.5 -129zM440 -35q-177 0 -280 68.5t-103 195.5q0 81 43 146t122.5 109.5t173.5 74.5t214 51q34 6 84.5 14t84.5 13t78 14t73.5 18t60.5 23.5t49 32t29.5 42.5
t11.5 56q0 90 -82.5 149.5t-218.5 59.5q-134 0 -243 -61.5t-166 -167.5l-156 51q57 105 157.5 177t211 103t229.5 31q96 0 179.5 -22.5t148.5 -67t95 -119.5t13 -172l-75 -430q-10 -68 -14 -96t-9 -79.5t-3.5 -93t7.5 -85.5h-170q-15 109 6 225h-6q-88 -119 -226.5 -189.5
t-318.5 -70.5zM487 92q103 0 199 35t163 89.5t111.5 116.5t55.5 118l26 145q-66 -37 -124 -52.5t-211 -39.5q-53 -9 -93.5 -17t-100 -23t-102.5 -34t-84 -44.5t-63 -61t-22 -76.5q0 -72 65 -114t180 -42z" />
    <glyph glyph-name="atilde" unicode="&#xe3;" horiz-adv-x="1411" 
d="M1038 1323q-59 0 -96.5 17.5t-81.5 54.5l-45 32q-46 36 -71 44q-19 6 -39 6q-56 0 -97 -39t-53 -99h-127q22 115 105.5 186.5t193.5 71.5q90 0 166 -65l47 -35q60 -51 119 -51q54 0 92.5 38.5t50.5 98.5h129q-22 -121 -100 -190.5t-193 -69.5zM440 -35q-177 0 -280 68.5
t-103 195.5q0 81 43 146t122.5 109.5t173.5 74.5t214 51q34 6 84.5 14t84.5 13t78 14t73.5 18t60.5 23.5t49 32t29.5 42.5t11.5 56q0 90 -82.5 149.5t-218.5 59.5q-134 0 -243 -61.5t-166 -167.5l-156 51q57 105 157.5 177t211 103t229.5 31q96 0 179.5 -22.5t148.5 -67
t95 -119.5t13 -172l-75 -430q-10 -68 -14 -96t-9 -79.5t-3.5 -93t7.5 -85.5h-170q-15 109 6 225h-6q-88 -119 -226.5 -189.5t-318.5 -70.5zM487 92q103 0 199 35t163 89.5t111.5 116.5t55.5 118l26 145q-66 -37 -124 -52.5t-211 -39.5q-53 -9 -93.5 -17t-100 -23t-102.5 -34
t-84 -44.5t-63 -61t-22 -76.5q0 -72 65 -114t180 -42z" />
    <glyph glyph-name="adieresis" unicode="&#xe4;" horiz-adv-x="1411" 
d="M641 1362q-47 0 -79 28.5t-32 69.5q0 50 45 89.5t103 39.5q47 0 78.5 -27.5t31.5 -66.5q0 -53 -44.5 -93t-102.5 -40zM1081 1362q-49 0 -79.5 27t-30.5 69q0 54 43.5 92.5t103.5 38.5q46 0 78.5 -28t32.5 -68q0 -51 -45.5 -91t-102.5 -40zM440 -35q-177 0 -280 68.5
t-103 195.5q0 81 43 146t122.5 109.5t173.5 74.5t214 51q34 6 84.5 14t84.5 13t78 14t73.5 18t60.5 23.5t49 32t29.5 42.5t11.5 56q0 90 -82.5 149.5t-218.5 59.5q-134 0 -243 -61.5t-166 -167.5l-156 51q57 105 157.5 177t211 103t229.5 31q96 0 179.5 -22.5t148.5 -67
t95 -119.5t13 -172l-75 -430q-10 -68 -14 -96t-9 -79.5t-3.5 -93t7.5 -85.5h-170q-15 109 6 225h-6q-88 -119 -226.5 -189.5t-318.5 -70.5zM487 92q103 0 199 35t163 89.5t111.5 116.5t55.5 118l26 145q-66 -37 -124 -52.5t-211 -39.5q-53 -9 -93.5 -17t-100 -23t-102.5 -34
t-84 -44.5t-63 -61t-22 -76.5q0 -72 65 -114t180 -42z" />
    <glyph glyph-name="aring" unicode="&#xe5;" horiz-adv-x="1411" 
d="M838 1249q-104 0 -170 53t-66 138q0 102 93.5 179t222.5 77q104 0 169.5 -54t65.5 -139q0 -101 -92.5 -177.5t-222.5 -76.5zM856 1352q73 0 124.5 41t51.5 100q0 45 -38 71.5t-95 26.5q-75 0 -125.5 -40t-50.5 -99q0 -46 37.5 -73t95.5 -27zM440 -35q-177 0 -280 68.5
t-103 195.5q0 81 43 146t122.5 109.5t173.5 74.5t214 51q34 6 84.5 14t84.5 13t78 14t73.5 18t60.5 23.5t49 32t29.5 42.5t11.5 56q0 90 -82.5 149.5t-218.5 59.5q-134 0 -243 -61.5t-166 -167.5l-156 51q57 105 157.5 177t211 103t229.5 31q96 0 179.5 -22.5t148.5 -67
t95 -119.5t13 -172l-75 -430q-10 -68 -14 -96t-9 -79.5t-3.5 -93t7.5 -85.5h-170q-15 109 6 225h-6q-88 -119 -226.5 -189.5t-318.5 -70.5zM487 92q103 0 199 35t163 89.5t111.5 116.5t55.5 118l26 145q-66 -37 -124 -52.5t-211 -39.5q-53 -9 -93.5 -17t-100 -23t-102.5 -34
t-84 -44.5t-63 -61t-22 -76.5q0 -72 65 -114t180 -42z" />
    <glyph glyph-name="ae" unicode="&#xe6;" horiz-adv-x="2447" 
d="M432 -35q-167 0 -271 67t-104 199q0 287 557 379q32 5 85.5 13.5t85.5 13t77.5 14t72.5 18.5t58 23.5t48 32t28.5 42t11.5 54.5q0 90 -83 150.5t-218 60.5q-136 0 -243.5 -63t-163.5 -166l-158 51q86 154 250 232.5t348 78.5q72 0 139 -13t126.5 -39t102 -70.5
t56.5 -102.5q106 106 256.5 165.5t318.5 59.5q58 0 114.5 -8t116 -26.5t108.5 -49t93 -74.5t67.5 -103.5t33 -136.5t-9.5 -173l-11 -55h-1114q-31 -194 87 -313.5t333 -119.5q171 0 308 75.5t221 199.5l145 -53q-107 -170 -294 -266.5t-406 -96.5q-203 0 -349 79.5
t-186 229.5h-4q-99 -138 -267 -223.5t-366 -85.5zM1237 662h926q12 79 -4.5 143t-53 104.5t-90 68t-111 39t-120.5 11.5q-190 0 -338 -100.5t-209 -265.5zM485 92q102 0 198.5 35.5t164.5 90t113 116.5t55 117l26 147q-82 -41 -140.5 -56.5t-190.5 -33.5q-469 -68 -469 -256
q0 -75 65 -117.5t178 -42.5z" />
    <glyph glyph-name="ccedilla" unicode="&#xe7;" horiz-adv-x="1486" 
d="M711 111q172 0 309 76.5t223 205.5l148 -53q-106 -175 -288 -272t-392 -103l-119 -117q39 17 98 17q89 0 143 -39t54 -105q0 -90 -88.5 -153.5t-220.5 -63.5q-86 0 -164 31t-123 84l82 66q31 -43 89 -68t120 -25q76 0 129 33.5t53 81.5q0 37 -37 59.5t-94 22.5
q-60 0 -119 -25l-59 54l143 151q-232 20 -365 152.5t-133 343.5q0 135 59.5 262t162.5 224t252 155.5t317 58.5q90 0 172 -18.5t154.5 -56t126.5 -101.5t79 -149l-174 -58q-30 114 -132.5 176t-250.5 62q-125 0 -235 -45.5t-185.5 -120t-119 -172t-43.5 -199.5
q0 -173 115.5 -272.5t312.5 -99.5z" />
    <glyph glyph-name="egrave" unicode="&#xe8;" horiz-adv-x="1325" 
d="M874 1278h-149l-303 391h227zM575 -35q-224 0 -358.5 130t-134.5 345q0 144 55.5 277.5t149 232t223.5 157t272 58.5q45 0 88.5 -6t90 -20t85.5 -36.5t76 -55t61.5 -75.5t41.5 -99t17 -125.5t-13 -153.5l-12 -72h-965q-29 -192 69.5 -305t282.5 -113q144 0 262 76.5
t191 200.5l139 -53q-95 -169 -261.5 -266t-359.5 -97zM283 659h788q14 82 0.5 143.5t-42 104.5t-74 70t-94.5 39t-103 12q-163 0 -290.5 -101.5t-184.5 -267.5z" />
    <glyph glyph-name="eacute" unicode="&#xe9;" horiz-adv-x="1325" 
d="M1296 1669l-440 -391h-149l362 391h227zM575 -35q-224 0 -358.5 130t-134.5 345q0 144 55.5 277.5t149 232t223.5 157t272 58.5q45 0 88.5 -6t90 -20t85.5 -36.5t76 -55t61.5 -75.5t41.5 -99t17 -125.5t-13 -153.5l-12 -72h-965q-29 -192 69.5 -305t282.5 -113
q144 0 262 76.5t191 200.5l139 -53q-95 -169 -261.5 -266t-359.5 -97zM283 659h788q14 82 0.5 143.5t-42 104.5t-74 70t-94.5 39t-103 12q-163 0 -290.5 -101.5t-184.5 -267.5z" />
    <glyph glyph-name="ecircumflex" unicode="&#xea;" horiz-adv-x="1325" 
d="M485 1278h-161l421 360h218l292 -360h-159q-23 23 -71.5 68t-94.5 90.5t-90 97.5q-62 -49 -174 -126.5t-181 -129.5zM575 -35q-224 0 -358.5 130t-134.5 345q0 144 55.5 277.5t149 232t223.5 157t272 58.5q45 0 88.5 -6t90 -20t85.5 -36.5t76 -55t61.5 -75.5t41.5 -99
t17 -125.5t-13 -153.5l-12 -72h-965q-29 -192 69.5 -305t282.5 -113q144 0 262 76.5t191 200.5l139 -53q-95 -169 -261.5 -266t-359.5 -97zM283 659h788q14 82 0.5 143.5t-42 104.5t-74 70t-94.5 39t-103 12q-163 0 -290.5 -101.5t-184.5 -267.5z" />
    <glyph glyph-name="edieresis" unicode="&#xeb;" horiz-adv-x="1325" 
d="M588 1362q-47 0 -79 28.5t-32 69.5q0 50 45 89.5t103 39.5q47 0 78.5 -27.5t31.5 -66.5q0 -53 -44.5 -93t-102.5 -40zM1028 1362q-49 0 -79.5 27t-30.5 69q0 54 43.5 92.5t103.5 38.5q46 0 78.5 -28t32.5 -68q0 -51 -45.5 -91t-102.5 -40zM575 -35q-224 0 -358.5 130
t-134.5 345q0 144 55.5 277.5t149 232t223.5 157t272 58.5q45 0 88.5 -6t90 -20t85.5 -36.5t76 -55t61.5 -75.5t41.5 -99t17 -125.5t-13 -153.5l-12 -72h-965q-29 -192 69.5 -305t282.5 -113q144 0 262 76.5t191 200.5l139 -53q-95 -169 -261.5 -266t-359.5 -97zM283 659
h788q14 82 0.5 143.5t-42 104.5t-74 70t-94.5 39t-103 12q-163 0 -290.5 -101.5t-184.5 -267.5z" />
    <glyph glyph-name="igrave" unicode="&#xec;" horiz-adv-x="604" 
d="M510 1272h-150l-303 391h228zM287 0h-168l200 1133h168z" />
    <glyph glyph-name="iacute" unicode="&#xed;" horiz-adv-x="604" 
d="M932 1663l-440 -391h-150l363 391h227zM287 0h-168l200 1133h168z" />
    <glyph glyph-name="icircumflex" unicode="&#xee;" horiz-adv-x="604" 
d="M121 1272h-162l422 360h217l293 -360h-160q-23 23 -71.5 68t-94.5 90.5t-90 97.5q-63 -50 -174.5 -127t-179.5 -129zM287 0h-168l200 1133h168z" />
    <glyph glyph-name="idieresis" unicode="&#xef;" horiz-adv-x="604" 
d="M225 1356q-47 0 -78.5 28.5t-31.5 69.5q0 50 44.5 89.5t102.5 39.5q47 0 79 -27.5t32 -66.5q0 -53 -45 -93t-103 -40zM666 1356q-49 0 -80 27t-31 69q0 54 43.5 92.5t103.5 38.5q46 0 78.5 -28t32.5 -68q0 -51 -45 -91t-102 -40zM287 0h-168l200 1133h168z" />
    <glyph glyph-name="eth" unicode="&#xf0;" horiz-adv-x="1583" 
d="M1409 1563l-246 -109q324 -233 324 -633q0 -166 -56.5 -319.5t-158 -273.5t-256.5 -191.5t-340 -71.5q-260 0 -420 133t-160 351q0 126 59.5 245.5t161 209.5t246 145t303.5 55q146 0 249 -49t181 -156h7q-38 297 -312 479l-393 -174l-43 86l332 148q-143 73 -328 127
l64 129q262 -71 444 -176l297 131zM694 106q159 0 293 71.5t208.5 187t74.5 245.5q0 162 -116 259.5t-300 97.5q-117 0 -224.5 -41.5t-184.5 -110t-123 -160t-46 -188.5q0 -160 114 -260.5t304 -100.5z" />
    <glyph glyph-name="ntilde" unicode="&#xf1;" horiz-adv-x="1554" 
d="M1094 1323q-59 0 -97 17.5t-82 54.5l-45 32q-46 36 -71 44q-19 6 -39 6q-56 0 -97 -39t-53 -99h-127q22 115 105.5 186.5t193.5 71.5q90 0 166 -65l47 -35q60 -51 119 -51q54 0 92.5 38.5t50.5 98.5h129q-22 -121 -99.5 -190.5t-192.5 -69.5zM287 0h-168l200 1133h164
l-39 -211h5q98 122 234 182.5t288 60.5q78 0 145 -15t125.5 -48.5t94.5 -86.5t51.5 -128.5t-3.5 -175.5l-124 -711h-168l114 641q33 188 -56 283.5t-249 95.5q-100 0 -189.5 -33t-153 -88t-105.5 -125.5t-56 -146.5z" />
    <glyph glyph-name="ograve" unicode="&#xf2;" horiz-adv-x="1579" 
d="M997 1278h-149l-303 391h227zM684 -35q-267 0 -425.5 136t-158.5 364q0 134 59.5 260.5t162 224t253 156.5t320.5 59q267 0 426.5 -136t159.5 -365q0 -134 -59.5 -260.5t-162.5 -223.5t-253.5 -156t-321.5 -59zM707 111q127 0 238.5 45t188 119.5t120.5 171.5t44 200
q0 170 -115 271.5t-309 101.5q-127 0 -238.5 -45.5t-188 -120.5t-120.5 -172t-44 -199q0 -170 115 -271t309 -101z" />
    <glyph glyph-name="oacute" unicode="&#xf3;" horiz-adv-x="1579" 
d="M1419 1669l-440 -391h-150l363 391h227zM684 -35q-267 0 -425.5 136t-158.5 364q0 134 59.5 260.5t162 224t253 156.5t320.5 59q267 0 426.5 -136t159.5 -365q0 -134 -59.5 -260.5t-162.5 -223.5t-253.5 -156t-321.5 -59zM707 111q127 0 238.5 45t188 119.5t120.5 171.5
t44 200q0 170 -115 271.5t-309 101.5q-127 0 -238.5 -45.5t-188 -120.5t-120.5 -172t-44 -199q0 -170 115 -271t309 -101z" />
    <glyph glyph-name="ocircumflex" unicode="&#xf4;" horiz-adv-x="1579" 
d="M608 1278h-162l422 360h217l293 -360h-159q-23 23 -71.5 68t-94.5 90.5t-90 97.5q-62 -49 -174 -126.5t-181 -129.5zM684 -35q-267 0 -425.5 136t-158.5 364q0 134 59.5 260.5t162 224t253 156.5t320.5 59q267 0 426.5 -136t159.5 -365q0 -134 -59.5 -260.5
t-162.5 -223.5t-253.5 -156t-321.5 -59zM707 111q127 0 238.5 45t188 119.5t120.5 171.5t44 200q0 170 -115 271.5t-309 101.5q-127 0 -238.5 -45.5t-188 -120.5t-120.5 -172t-44 -199q0 -170 115 -271t309 -101z" />
    <glyph glyph-name="otilde" unicode="&#xf5;" horiz-adv-x="1579" 
d="M1108 1323q-59 0 -96.5 17.5t-81.5 54.5l-45 32q-22 18 -32 25t-32.5 16t-46.5 9q-56 0 -96.5 -39t-52.5 -99h-127q22 115 105.5 186.5t193.5 71.5q90 0 166 -65l47 -35q60 -51 118 -51q54 0 93 38.5t51 98.5h129q-22 -121 -100 -190.5t-193 -69.5zM684 -35
q-267 0 -425.5 136t-158.5 364q0 134 59.5 260.5t162 224t253 156.5t320.5 59q267 0 426.5 -136t159.5 -365q0 -134 -59.5 -260.5t-162.5 -223.5t-253.5 -156t-321.5 -59zM707 111q127 0 238.5 45t188 119.5t120.5 171.5t44 200q0 170 -115 271.5t-309 101.5
q-127 0 -238.5 -45.5t-188 -120.5t-120.5 -172t-44 -199q0 -170 115 -271t309 -101z" />
    <glyph glyph-name="odieresis" unicode="&#xf6;" horiz-adv-x="1579" 
d="M713 1362q-47 0 -79 28.5t-32 69.5q0 50 45 89.5t103 39.5q47 0 78.5 -27.5t31.5 -66.5q0 -53 -44.5 -93t-102.5 -40zM1153 1362q-49 0 -80 27t-31 69q0 54 44 92.5t104 38.5q46 0 78 -28t32 -68q0 -51 -45 -91t-102 -40zM684 -35q-267 0 -425.5 136t-158.5 364
q0 134 59.5 260.5t162 224t253 156.5t320.5 59q267 0 426.5 -136t159.5 -365q0 -134 -59.5 -260.5t-162.5 -223.5t-253.5 -156t-321.5 -59zM707 111q127 0 238.5 45t188 119.5t120.5 171.5t44 200q0 170 -115 271.5t-309 101.5q-127 0 -238.5 -45.5t-188 -120.5t-120.5 -172
t-44 -199q0 -170 115 -271t309 -101z" />
    <glyph glyph-name="divide" unicode="&#xf7;" horiz-adv-x="1245" 
d="M676 831q-49 0 -81 28.5t-32 70.5q0 51 45.5 90t106.5 39q47 0 79.5 -27.5t32.5 -68.5q0 -50 -46.5 -91t-104.5 -41zM1071 559h-895l23 133h893zM565 193q-47 0 -78.5 28t-31.5 68q0 52 45 91.5t104 39.5q47 0 80 -28t33 -68q0 -51 -46.5 -91t-105.5 -40z" />
    <glyph glyph-name="oslash" unicode="&#xf8;" horiz-adv-x="1579" 
d="M1362 1182h180l-190 -181q129 -135 129 -337q0 -134 -59.5 -260.5t-162.5 -223.5t-253.5 -156t-321.5 -59q-203 0 -348 82l-111 -104h-186l194 182q-133 133 -133 340q0 134 59.5 260.5t162 224t253 156.5t320.5 59q209 0 356 -86zM283 483q0 -139 79 -237l762 715
q-103 59 -250 59q-127 0 -238.5 -45.5t-188 -120.5t-120.5 -172t-44 -199zM1298 647q0 143 -77 232l-758 -713q104 -55 244 -55q127 0 238.5 45t188 119.5t120.5 171.5t44 200z" />
    <glyph glyph-name="ugrave" unicode="&#xf9;" horiz-adv-x="1533" 
d="M952 1278h-149l-303 391h227zM582 -35q-77 0 -143 15t-124 48.5t-94 86.5t-52 129.5t3 177.5l127 711h168l-117 -652q-18 -100 0.5 -174.5t64.5 -115.5t103.5 -60.5t126.5 -19.5q98 0 185.5 34t148.5 90t101 124t53 139l112 635h168l-137 -779q-20 -120 -24 -197.5
t8 -156.5h-173q-10 131 7 201h-7q-194 -236 -505 -236z" />
    <glyph glyph-name="uacute" unicode="&#xfa;" horiz-adv-x="1533" 
d="M1376 1669l-440 -391h-150l363 391h227zM582 -35q-77 0 -143 15t-124 48.5t-94 86.5t-52 129.5t3 177.5l127 711h168l-117 -652q-18 -100 0.5 -174.5t64.5 -115.5t103.5 -60.5t126.5 -19.5q98 0 185.5 34t148.5 90t101 124t53 139l112 635h168l-137 -779
q-20 -120 -24 -197.5t8 -156.5h-173q-10 131 7 201h-7q-194 -236 -505 -236z" />
    <glyph glyph-name="ucircumflex" unicode="&#xfb;" horiz-adv-x="1533" 
d="M565 1278h-162l422 360h217l293 -360h-159q-23 23 -71.5 68t-94.5 90.5t-90 97.5q-62 -49 -174 -126.5t-181 -129.5zM582 -35q-77 0 -143 15t-124 48.5t-94 86.5t-52 129.5t3 177.5l127 711h168l-117 -652q-18 -100 0.5 -174.5t64.5 -115.5t103.5 -60.5t126.5 -19.5
q98 0 185.5 34t148.5 90t101 124t53 139l112 635h168l-137 -779q-20 -120 -24 -197.5t8 -156.5h-173q-10 131 7 201h-7q-194 -236 -505 -236z" />
    <glyph glyph-name="udieresis" unicode="&#xfc;" horiz-adv-x="1533" 
d="M668 1362q-47 0 -79 28.5t-32 69.5q0 50 45 89.5t103 39.5q47 0 78.5 -27.5t31.5 -66.5q0 -53 -44.5 -93t-102.5 -40zM1108 1362q-49 0 -80 27t-31 69q0 54 44 92.5t104 38.5q46 0 78 -28t32 -68q0 -51 -45 -91t-102 -40zM582 -35q-77 0 -143 15t-124 48.5t-94 86.5
t-52 129.5t3 177.5l127 711h168l-117 -652q-18 -100 0.5 -174.5t64.5 -115.5t103.5 -60.5t126.5 -19.5q98 0 185.5 34t148.5 90t101 124t53 139l112 635h168l-137 -779q-20 -120 -24 -197.5t8 -156.5h-173q-10 131 7 201h-7q-194 -236 -505 -236z" />
    <glyph glyph-name="yacute" unicode="&#xfd;" horiz-adv-x="1335" 
d="M1284 1669l-440 -391h-150l363 391h227zM362 -451h-161l282 431l-348 1153h187q51 -168 142 -485.5t134 -461.5h6q74 113 285.5 442t327.5 505h184z" />
    <glyph glyph-name="thorn" unicode="&#xfe;" horiz-adv-x="1638" 
d="M207 -451h-168l369 2089h167l-129 -735h5q106 130 253.5 196t309.5 66q236 0 382 -136t146 -357q0 -137 -58.5 -266t-157.5 -226t-238 -156t-291 -59q-160 0 -284 64.5t-181 185.5h-6zM793 111q115 0 221 45t181 118.5t120 171t45 199.5q0 168 -110.5 271.5t-291.5 103.5
q-116 0 -224 -45t-186 -118.5t-124.5 -171.5t-46.5 -200q0 -167 116 -270.5t300 -103.5z" />
    <glyph glyph-name="ydieresis" unicode="&#xff;" horiz-adv-x="1335" 
d="M575 1362q-47 0 -78.5 28.5t-31.5 69.5q0 50 44.5 89.5t102.5 39.5q47 0 79 -27.5t32 -66.5q0 -53 -45 -93t-103 -40zM1016 1362q-49 0 -80 27t-31 69q0 54 44 92.5t104 38.5q46 0 78 -28t32 -68q0 -51 -45 -91t-102 -40zM362 -451h-161l282 431l-348 1153h187
q51 -168 142 -485.5t134 -461.5h6q74 113 285.5 442t327.5 505h184z" />
    <glyph glyph-name="Amacron" unicode="&#x100;" horiz-adv-x="1812" 
d="M1536 1821h-809l23 129h804zM123 0h-191l1059 1597h197l493 -1597h-188q-33 101 -98 304.5t-76 236.5h-834q-95 -139 -229 -340zM584 698h686q-172 570 -211 707h-6q-48 -74 -217 -327t-252 -380z" />
    <glyph glyph-name="amacron" unicode="&#x101;" horiz-adv-x="1411" 
d="M1282 1405h-825l20 125h826zM440 -35q-177 0 -280 68.5t-103 195.5q0 81 43 146t122.5 109.5t173.5 74.5t214 51q34 6 84.5 14t84.5 13t78 14t73.5 18t60.5 23.5t49 32t29.5 42.5t11.5 56q0 90 -82.5 149.5t-218.5 59.5q-134 0 -243 -61.5t-166 -167.5l-156 51
q57 105 157.5 177t211 103t229.5 31q96 0 179.5 -22.5t148.5 -67t95 -119.5t13 -172l-75 -430q-10 -68 -14 -96t-9 -79.5t-3.5 -93t7.5 -85.5h-170q-15 109 6 225h-6q-88 -119 -226.5 -189.5t-318.5 -70.5zM487 92q103 0 199 35t163 89.5t111.5 116.5t55.5 118l26 145
q-66 -37 -124 -52.5t-211 -39.5q-53 -9 -93.5 -17t-100 -23t-102.5 -34t-84 -44.5t-63 -61t-22 -76.5q0 -72 65 -114t180 -42z" />
    <glyph glyph-name="Abreve" unicode="&#x102;" horiz-adv-x="1812" 
d="M1110 1724q-100 0 -180.5 29t-129 76t-71.5 105.5t-16 119.5h151q-8 -80 66.5 -143.5t197.5 -63.5t220 63t120 144h152q-28 -129 -170 -229.5t-340 -100.5zM123 0h-191l1059 1597h197l493 -1597h-188q-33 101 -98 304.5t-76 236.5h-834q-95 -139 -229 -340zM584 698h686
q-172 570 -211 707h-6q-48 -74 -217 -327t-252 -380z" />
    <glyph glyph-name="abreve" unicode="&#x103;" horiz-adv-x="1411" 
d="M844 1274q-204 0 -304 111t-77 284h151q-19 -121 51.5 -195.5t198.5 -74.5q130 0 227.5 74.5t125.5 195.5h151q-39 -175 -180.5 -285t-343.5 -110zM440 -35q-177 0 -280 68.5t-103 195.5q0 81 43 146t122.5 109.5t173.5 74.5t214 51q34 6 84.5 14t84.5 13t78 14t73.5 18
t60.5 23.5t49 32t29.5 42.5t11.5 56q0 90 -82.5 149.5t-218.5 59.5q-134 0 -243 -61.5t-166 -167.5l-156 51q57 105 157.5 177t211 103t229.5 31q96 0 179.5 -22.5t148.5 -67t95 -119.5t13 -172l-75 -430q-10 -68 -14 -96t-9 -79.5t-3.5 -93t7.5 -85.5h-170q-15 109 6 225
h-6q-88 -119 -226.5 -189.5t-318.5 -70.5zM487 92q103 0 199 35t163 89.5t111.5 116.5t55.5 118l26 145q-66 -37 -124 -52.5t-211 -39.5q-53 -9 -93.5 -17t-100 -23t-102.5 -34t-84 -44.5t-63 -61t-22 -76.5q0 -72 65 -114t180 -42z" />
    <glyph glyph-name="Aogonek" unicode="&#x104;" horiz-adv-x="1812" 
d="M1583 -354q50 0 111 12l-19 -107q-69 -14 -125 -14q-127 0 -208.5 52t-81.5 147q0 47 21.5 89.5t59 75t75 56t81.5 43.5h-4q-33 101 -98 304.5t-76 236.5h-834q-95 -139 -229 -340l-133 -201h-191l1059 1597h197l493 -1597h-36q-101 -34 -175.5 -93.5t-74.5 -131.5
q0 -58 52.5 -93.5t135.5 -35.5zM584 698h686q-172 570 -211 707h-6q-48 -74 -217 -327t-252 -380z" />
    <glyph glyph-name="aogonek" unicode="&#x105;" horiz-adv-x="1411" 
d="M813 1165q96 0 179.5 -22.5t148.5 -67t95 -119.5t13 -172l-75 -430q-10 -68 -14 -96t-9 -79.5t-3.5 -93t7.5 -85.5h-31q-104 -36 -173.5 -94.5t-69.5 -130.5q0 -58 51.5 -91.5t130.5 -33.5q54 0 111 14l-21 -113q-63 -14 -121 -14q-132 0 -210.5 54t-78.5 145
q0 47 23 90.5t61.5 76t76.5 56t81 41.5q-15 109 6 225h-6q-88 -119 -226.5 -189.5t-318.5 -70.5q-177 0 -280 68.5t-103 195.5q0 81 43 146t122.5 109.5t173.5 74.5t214 51q34 6 84.5 14t84.5 13t78 14t73.5 18t60.5 23.5t49 32t29.5 42.5t11.5 56q0 90 -82.5 149.5
t-218.5 59.5q-134 0 -243 -61.5t-166 -167.5l-156 51q57 105 157.5 177t211 103t229.5 31zM487 92q103 0 199 35t163 89.5t111.5 116.5t55.5 118l26 145q-66 -37 -124 -52.5t-211 -39.5q-53 -9 -93.5 -17t-100 -23t-102.5 -34t-84 -44.5t-63 -61t-22 -76.5q0 -72 65 -114
t180 -42z" />
    <glyph glyph-name="Cacute" unicode="&#x106;" horiz-adv-x="2062" 
d="M1763 2050l-463 -328h-155l371 328h247zM993 -35q-381 0 -609 189.5t-228 507.5q0 125 39.5 247.5t110 228.5t173 197.5t224.5 156.5t269 101.5t302 36.5q136 0 260.5 -30t228.5 -87t177 -148t98 -206l-174 -61q-52 176 -219.5 276.5t-397.5 100.5q-187 0 -356 -67.5
t-287 -178.5t-187 -256t-69 -297q0 -113 38 -206.5t102.5 -157t152.5 -107.5t186 -64t205 -20q148 0 280 37.5t233 104t177 149t127 180.5l154 -53q-139 -260 -399 -417t-611 -157z" />
    <glyph glyph-name="cacute" unicode="&#x107;" horiz-adv-x="1486" 
d="M1376 1669l-440 -391h-150l363 391h227zM682 -35q-268 0 -425 135.5t-157 364.5q0 135 59.5 262t162.5 224t252 155.5t317 58.5q90 0 172 -18.5t154.5 -56t126.5 -101.5t79 -149l-174 -58q-30 114 -132.5 176t-250.5 62q-125 0 -235 -45.5t-185.5 -120t-119 -172
t-43.5 -199.5q0 -173 115.5 -272.5t312.5 -99.5q172 0 309 76.5t223 205.5l148 -53q-111 -181 -300.5 -278t-408.5 -97z" />
    <glyph glyph-name="Cdotaccent" unicode="&#x10a;" horiz-adv-x="2062" 
d="M1255 1782q-51 0 -84.5 30t-33.5 74q0 57 48 98t113 41q51 0 85 -29t34 -73q0 -55 -49.5 -98t-112.5 -43zM993 -35q-381 0 -609 189.5t-228 507.5q0 125 39.5 247.5t110 228.5t173 197.5t224.5 156.5t269 101.5t302 36.5q136 0 260.5 -30t228.5 -87t177 -148t98 -206
l-174 -61q-52 176 -219.5 276.5t-397.5 100.5q-187 0 -356 -67.5t-287 -178.5t-187 -256t-69 -297q0 -113 38 -206.5t102.5 -157t152.5 -107.5t186 -64t205 -20q148 0 280 37.5t233 104t177 149t127 180.5l154 -53q-139 -260 -399 -417t-611 -157z" />
    <glyph glyph-name="cdotaccent" unicode="&#x10b;" horiz-adv-x="1486" 
d="M895 1405q-51 0 -85 30t-34 74q0 57 48.5 99.5t113.5 42.5q51 0 85 -30t34 -73q0 -57 -49.5 -100t-112.5 -43zM682 -35q-268 0 -425 135.5t-157 364.5q0 135 59.5 262t162.5 224t252 155.5t317 58.5q90 0 172 -18.5t154.5 -56t126.5 -101.5t79 -149l-174 -58
q-30 114 -132.5 176t-250.5 62q-125 0 -235 -45.5t-185.5 -120t-119 -172t-43.5 -199.5q0 -173 115.5 -272.5t312.5 -99.5q172 0 309 76.5t223 205.5l148 -53q-111 -181 -300.5 -278t-408.5 -97z" />
    <glyph glyph-name="Ccaron" unicode="&#x10c;" horiz-adv-x="2062" 
d="M1569 2036h157l-374 -314h-213l-269 314h158q148 -129 234 -215q212 153 307 215zM993 -35q-381 0 -609 189.5t-228 507.5q0 125 39.5 247.5t110 228.5t173 197.5t224.5 156.5t269 101.5t302 36.5q136 0 260.5 -30t228.5 -87t177 -148t98 -206l-174 -61
q-52 176 -219.5 276.5t-397.5 100.5q-187 0 -356 -67.5t-287 -178.5t-187 -256t-69 -297q0 -113 38 -206.5t102.5 -157t152.5 -107.5t186 -64t205 -20q148 0 280 37.5t233 104t177 149t127 180.5l154 -53q-139 -260 -399 -417t-611 -157z" />
    <glyph glyph-name="ccaron" unicode="&#x10d;" horiz-adv-x="1486" 
d="M981 1284h-217l-291 365h160q33 -32 86 -82t91.5 -88t80.5 -86q59 47 170 125t180 131h160zM682 -35q-268 0 -425 135.5t-157 364.5q0 135 59.5 262t162.5 224t252 155.5t317 58.5q90 0 172 -18.5t154.5 -56t126.5 -101.5t79 -149l-174 -58q-30 114 -132.5 176t-250.5 62
q-125 0 -235 -45.5t-185.5 -120t-119 -172t-43.5 -199.5q0 -173 115.5 -272.5t312.5 -99.5q172 0 309 76.5t223 205.5l148 -53q-111 -181 -300.5 -278t-408.5 -97z" />
    <glyph glyph-name="Dcaron" unicode="&#x10e;" horiz-adv-x="1976" 
d="M1448 2036h158l-375 -314h-213l-268 314h157q148 -129 234 -215q212 153 307 215zM856 0h-698l282 1597h676q393 0 589 -170t196 -475q0 -147 -47 -287.5t-138 -260.5t-216 -210.5t-291.5 -142t-352.5 -51.5zM362 152h527q183 0 340 64t261.5 170.5t163 244.5t58.5 287
q0 528 -659 528h-457q-15 -85 -79 -430.5t-155 -863.5z" />
    <glyph glyph-name="dcaron" unicode="&#x10f;" horiz-adv-x="1644" 
d="M1737 1169h-109l199 258q-35 10 -54.5 36t-19.5 59q0 55 48.5 97t113.5 42q50 0 82.5 -29t32.5 -73t-53 -114.5t-240 -275.5zM635 -35q-243 0 -389 135.5t-146 358.5q0 136 58.5 265t157 226t238 156t292.5 59q162 0 284.5 -65.5t180.5 -184.5h4l131 723h168l-228 -1284
q-22 -127 -24.5 -211t8.5 -143h-170q-14 109 4 217h-4q-100 -121 -251 -186.5t-314 -65.5zM684 111q116 0 224 45t186 118.5t125 171t47 199.5q0 169 -117.5 272t-298.5 103q-116 0 -222 -45.5t-181 -119.5t-119.5 -172t-44.5 -200q0 -166 110 -269t291 -103z" />
    <glyph glyph-name="Dcroat" unicode="&#x110;" horiz-adv-x="1976" 
d="M440 1597h676q393 0 589 -170t196 -475q0 -147 -47 -287.5t-138 -260.5t-216 -210.5t-291.5 -142t-352.5 -51.5h-698l129 731h-205l22 135h207zM889 152q183 0 340 64t261.5 170.5t163 244.5t58.5 287q0 528 -659 528h-457q-28 -158 -107 -580h637l-22 -135h-639
q-11 -60 -25.5 -141t-37.5 -210.5t-40 -227.5h527z" />
    <glyph glyph-name="dcroat" unicode="&#x111;" horiz-adv-x="1644" 
d="M1581 1448h315l-18 -125h-319l-173 -969q-22 -127 -24.5 -211t8.5 -143h-170q-14 109 4 217h-4q-100 -121 -251 -186.5t-314 -65.5q-243 0 -389 135.5t-146 358.5q0 136 58.5 265t157 226t238 156t292.5 59q162 0 284.5 -65.5t180.5 -184.5h4l74 408h-345l21 125h346
l35 190h168zM684 111q116 0 224 45t186 118.5t125 171t47 199.5q0 169 -117.5 272t-298.5 103q-116 0 -222 -45.5t-181 -119.5t-119.5 -172t-44.5 -200q0 -166 110 -269t291 -103z" />
    <glyph glyph-name="Emacron" unicode="&#x112;" horiz-adv-x="1611" 
d="M1458 1821h-809l23 129h805zM1389 0h-1231l282 1597h1207l-23 -151h-1028q-5 -26 -31.5 -163t-70.5 -386h979l-23 -156h-979q-18 -94 -109 -585h1051z" />
    <glyph glyph-name="emacron" unicode="&#x113;" horiz-adv-x="1325" 
d="M1229 1405h-826l21 125h825zM575 -35q-224 0 -358.5 130t-134.5 345q0 144 55.5 277.5t149 232t223.5 157t272 58.5q45 0 88.5 -6t90 -20t85.5 -36.5t76 -55t61.5 -75.5t41.5 -99t17 -125.5t-13 -153.5l-12 -72h-965q-29 -192 69.5 -305t282.5 -113q144 0 262 76.5
t191 200.5l139 -53q-95 -169 -261.5 -266t-359.5 -97zM283 659h788q14 82 0.5 143.5t-42 104.5t-74 70t-94.5 39t-103 12q-163 0 -290.5 -101.5t-184.5 -267.5z" />
    <glyph glyph-name="Edotaccent" unicode="&#x116;" horiz-adv-x="1611" 
d="M1040 1782q-51 0 -84.5 30t-33.5 74q0 57 48 98t113 41q51 0 85 -29t34 -73q0 -55 -49.5 -98t-112.5 -43zM1389 0h-1231l282 1597h1207l-23 -151h-1028q-5 -26 -31.5 -163t-70.5 -386h979l-23 -156h-979q-18 -94 -109 -585h1051z" />
    <glyph glyph-name="edotaccent" unicode="&#x117;" horiz-adv-x="1325" 
d="M817 1405q-51 0 -85 30t-34 74q0 57 48.5 99.5t113.5 42.5q51 0 85 -30t34 -73q0 -57 -49.5 -100t-112.5 -43zM575 -35q-224 0 -358.5 130t-134.5 345q0 144 55.5 277.5t149 232t223.5 157t272 58.5q45 0 88.5 -6t90 -20t85.5 -36.5t76 -55t61.5 -75.5t41.5 -99
t17 -125.5t-13 -153.5l-12 -72h-965q-29 -192 69.5 -305t282.5 -113q144 0 262 76.5t191 200.5l139 -53q-95 -169 -261.5 -266t-359.5 -97zM283 659h788q14 82 0.5 143.5t-42 104.5t-74 70t-94.5 39t-103 12q-163 0 -290.5 -101.5t-184.5 -267.5z" />
    <glyph glyph-name="Eogonek" unicode="&#x118;" horiz-adv-x="1611" 
d="M1647 1597l-23 -151h-1028q-5 -26 -31.5 -163t-70.5 -386h979l-23 -156h-979q-18 -94 -109 -585h1051l-24 -156q-101 -34 -175.5 -93.5t-74.5 -131.5q0 -58 52.5 -93.5t135.5 -35.5q50 0 111 12l-19 -107q-69 -14 -125 -14q-127 0 -208.5 52t-81.5 147q0 47 21.5 89.5
t59 75t75 56t81.5 43.5h-1083l282 1597h1207z" />
    <glyph glyph-name="eogonek" unicode="&#x119;" horiz-adv-x="1325" 
d="M782 1165q45 0 88.5 -6t90 -20t85.5 -36.5t76 -55t61.5 -75.5t41.5 -99t17 -125.5t-13 -153.5l-12 -72h-965q-29 -192 69.5 -305t282.5 -113q144 0 262 76.5t191 200.5l139 -53q-71 -128 -187 -216t-257 -124q-91 -37 -150 -92.5t-59 -120.5q0 -58 51.5 -91.5
t130.5 -33.5q54 0 111 14l-21 -113q-63 -14 -121 -14q-132 0 -210 54t-78 145q0 131 172 229h-3q-224 0 -358.5 130t-134.5 345q0 144 55.5 277.5t149 232t223.5 157t272 58.5zM283 659h788q14 82 0.5 143.5t-42 104.5t-74 70t-94.5 39t-103 12q-163 0 -290.5 -101.5
t-184.5 -267.5z" />
    <glyph glyph-name="Ecaron" unicode="&#x11a;" horiz-adv-x="1611" 
d="M1356 2036h157l-374 -314h-213l-269 314h158q148 -129 234 -215q212 153 307 215zM1389 0h-1231l282 1597h1207l-23 -151h-1028q-5 -26 -31.5 -163t-70.5 -386h979l-23 -156h-979q-18 -94 -109 -585h1051z" />
    <glyph glyph-name="ecaron" unicode="&#x11b;" horiz-adv-x="1325" 
d="M901 1284h-217l-291 365h160q33 -32 86 -82t91.5 -88t80.5 -86q59 47 170 125t180 131h160zM575 -35q-224 0 -358.5 130t-134.5 345q0 144 55.5 277.5t149 232t223.5 157t272 58.5q45 0 88.5 -6t90 -20t85.5 -36.5t76 -55t61.5 -75.5t41.5 -99t17 -125.5t-13 -153.5
l-12 -72h-965q-29 -192 69.5 -305t282.5 -113q144 0 262 76.5t191 200.5l139 -53q-95 -169 -261.5 -266t-359.5 -97zM283 659h788q14 82 0.5 143.5t-42 104.5t-74 70t-94.5 39t-103 12q-163 0 -290.5 -101.5t-184.5 -267.5z" />
    <glyph glyph-name="Gbreve" unicode="&#x11e;" horiz-adv-x="2152" 
d="M1245 1724q-100 0 -180.5 29t-129 76t-71.5 105.5t-16 119.5h151q-8 -80 67 -143.5t198 -63.5t220 63t120 144h151q-28 -129 -170 -229.5t-340 -100.5zM973 -35q-372 0 -595.5 188.5t-223.5 503.5q0 188 87 366t234.5 311.5t356.5 214.5t440 81q137 0 262 -30.5
t228.5 -88t175.5 -148.5t98 -204l-172 -61q-55 178 -222 277.5t-397 99.5q-187 0 -356 -67.5t-287 -178t-187 -256t-69 -297.5q0 -142 57.5 -251.5t154.5 -174t214 -97t248 -32.5q298 0 519.5 147.5t287.5 376.5h-664l23 141h842l-138 -786h-147q6 39 25 151.5t32 194.5h-12
q-132 -182 -339 -281.5t-476 -99.5z" />
    <glyph glyph-name="gbreve" unicode="&#x11f;" horiz-adv-x="1640" 
d="M920 1274q-204 0 -304 111t-77 284h151q-19 -121 51.5 -195.5t198.5 -74.5q129 0 226.5 74.5t125.5 195.5h152q-39 -175 -180.5 -285t-343.5 -110zM604 -483q-464 0 -549 329l164 50q29 -115 130.5 -179.5t275.5 -64.5q100 0 187.5 27t162 82t127.5 147.5t76 214.5
l24 129h-4q-102 -123 -248 -186.5t-307 -63.5q-238 0 -388.5 131.5t-150.5 353.5q0 176 99 332t270.5 251t370.5 95q164 0 289 -66.5t180 -189.5h6l41 224h164l-174 -996q-110 -620 -746 -620zM688 147q114 0 221.5 43.5t185.5 114t125.5 164t47.5 190.5q0 160 -118 260.5
t-300 100.5q-114 0 -219 -43t-180 -113t-119.5 -162.5t-44.5 -189.5q0 -162 111.5 -263.5t289.5 -101.5z" />
    <glyph glyph-name="Gdotaccent" unicode="&#x120;" horiz-adv-x="2152" 
d="M1253 1782q-51 0 -84.5 30t-33.5 74q0 57 48 98t113 41q51 0 85 -29t34 -73q0 -55 -49.5 -98t-112.5 -43zM973 -35q-372 0 -595.5 188.5t-223.5 503.5q0 188 87 366t234.5 311.5t356.5 214.5t440 81q137 0 262 -30.5t228.5 -88t175.5 -148.5t98 -204l-172 -61
q-55 178 -222 277.5t-397 99.5q-187 0 -356 -67.5t-287 -178t-187 -256t-69 -297.5q0 -142 57.5 -251.5t154.5 -174t214 -97t248 -32.5q298 0 519.5 147.5t287.5 376.5h-664l23 141h842l-138 -786h-147q6 39 25 151.5t32 194.5h-12q-132 -182 -339 -281.5t-476 -99.5z" />
    <glyph glyph-name="gdotaccent" unicode="&#x121;" horiz-adv-x="1640" 
d="M944 1405q-51 0 -85 30t-34 74q0 57 48.5 99.5t113.5 42.5q51 0 85 -30t34 -73q0 -57 -49.5 -100t-112.5 -43zM604 -483q-464 0 -549 329l164 50q29 -115 130.5 -179.5t275.5 -64.5q100 0 187.5 27t162 82t127.5 147.5t76 214.5l24 129h-4q-102 -123 -248 -186.5
t-307 -63.5q-238 0 -388.5 131.5t-150.5 353.5q0 176 99 332t270.5 251t370.5 95q164 0 289 -66.5t180 -189.5h6l41 224h164l-174 -996q-110 -620 -746 -620zM688 147q114 0 221.5 43.5t185.5 114t125.5 164t47.5 190.5q0 160 -118 260.5t-300 100.5q-114 0 -219 -43
t-180 -113t-119.5 -162.5t-44.5 -189.5q0 -162 111.5 -263.5t289.5 -101.5z" />
    <glyph glyph-name="uni0122" unicode="&#x122;" horiz-adv-x="2152" 
d="M973 -35q-372 0 -595.5 188.5t-223.5 503.5q0 188 87 366t234.5 311.5t356.5 214.5t440 81q137 0 262 -30.5t228.5 -88t175.5 -148.5t98 -204l-172 -61q-55 178 -222 277.5t-397 99.5q-187 0 -356 -67.5t-287 -178t-187 -256t-69 -297.5q0 -142 57.5 -251.5t154.5 -174
t214 -97t248 -32.5q298 0 519.5 147.5t287.5 376.5h-664l23 141h842l-138 -786h-147q6 39 25 151.5t32 194.5h-12q-132 -182 -339 -281.5t-476 -99.5zM823 -537h-88l156 199q-88 23 -88 92q0 52 44 91.5t105 39.5q48 0 80.5 -27.5t32.5 -68.5q0 -40 -34.5 -87t-143.5 -168
q-41 -45 -64 -71z" />
    <glyph glyph-name="uni0123" unicode="&#x123;" horiz-adv-x="1640" 
d="M778 1354q0 42 48.5 105t228.5 265h106l-188 -245q69 -25 69 -90q0 -54 -45.5 -93t-107.5 -39q-46 0 -78.5 27.5t-32.5 69.5zM604 -483q-464 0 -549 329l164 50q29 -115 130.5 -179.5t275.5 -64.5q100 0 187.5 27t162 82t127.5 147.5t76 214.5l24 129h-4
q-102 -123 -248 -186.5t-307 -63.5q-238 0 -388.5 131.5t-150.5 353.5q0 176 99 332t270.5 251t370.5 95q164 0 289 -66.5t180 -189.5h6l41 224h164l-174 -996q-110 -620 -746 -620zM688 147q114 0 221.5 43.5t185.5 114t125.5 164t47.5 190.5q0 160 -118 260.5t-300 100.5
q-114 0 -219 -43t-180 -113t-119.5 -162.5t-44.5 -189.5q0 -162 111.5 -263.5t289.5 -101.5z" />
    <glyph glyph-name="Hbar" unicode="&#x126;" horiz-adv-x="1986" 
d="M1860 1294h163l-20 -133h-168l-205 -1161h-180l129 725h-1112l-129 -725h-180l204 1161h-165l20 133h170l53 303h181l-54 -303h1112l54 303h180zM494 881h1112l49 280h-1112z" />
    <glyph glyph-name="hbar" unicode="&#x127;" horiz-adv-x="1554" 
d="M969 1165q63 0 119.5 -10.5t109.5 -33t92 -58t66.5 -86t34 -117t-6.5 -149.5l-124 -711h-168l114 641q17 96 0 170.5t-61 119t-104.5 67t-135.5 22.5q-198 0 -338.5 -116t-169.5 -277l-110 -627h-168l233 1321h-229l20 125h230l35 192h167l-34 -192h434l-19 -125h-436
l-71 -399h4q195 243 516 243z" />
    <glyph glyph-name="Imacron" unicode="&#x12a;" horiz-adv-x="694" 
d="M979 1821h-809l23 129h804zM338 0h-180l282 1597h181z" />
    <glyph glyph-name="imacron" unicode="&#x12b;" horiz-adv-x="604" 
d="M864 1399h-825l20 125h826zM287 0h-168l200 1133h168z" />
    <glyph glyph-name="Iogonek" unicode="&#x12e;" horiz-adv-x="694" 
d="M90 -225q0 -58 53 -93.5t136 -35.5q49 0 110 12l-18 -107q-69 -14 -125 -14q-127 0 -209 52t-82 147q0 156 238 264h-35l282 1597h181l-283 -1597h2q-101 -34 -175.5 -93.5t-74.5 -131.5z" />
    <glyph glyph-name="iogonek" unicode="&#x12f;" horiz-adv-x="604" 
d="M496 1645q51 0 84.5 -30t33.5 -73q0 -57 -49 -100t-112 -43q-51 0 -85 30t-34 74q0 57 48.5 99.5t113.5 42.5zM287 0h-11q-104 -36 -173.5 -94.5t-69.5 -130.5q0 -58 51.5 -91.5t130.5 -33.5q54 0 111 14l-21 -113q-63 -14 -121 -14q-132 0 -210 54t-78 145q0 47 23 90.5
t61 76t76 56t81 41.5h-18l200 1133h168z" />
    <glyph glyph-name="Idotaccent" unicode="&#x130;" horiz-adv-x="694" 
d="M561 1782q-51 0 -85 30t-34 74q0 57 48.5 98t113.5 41q51 0 85 -29t34 -73q0 -55 -49.5 -98t-112.5 -43zM338 0h-180l282 1597h181z" />
    <glyph glyph-name="dotlessi" unicode="&#x131;" horiz-adv-x="604" 
d="M287 0h-168l200 1133h168z" />
    <glyph glyph-name="uni0136" unicode="&#x136;" horiz-adv-x="1638" 
d="M338 0h-180l282 1597h181q-26 -147 -79.5 -447.5t-70.5 -393.5h4q425 337 1100 841h215q-206 -158 -907 -700q663 -890 669 -897h-219q-597 775 -598 776q-47 -36 -149.5 -114t-151.5 -117q-10 -56 -29.5 -173t-66.5 -372zM563 -537h-88l156 199q-88 23 -88 92
q0 52 44 91.5t105 39.5q48 0 80.5 -27.5t32.5 -68.5q0 -40 -34.5 -87t-143.5 -168q-41 -45 -64 -71z" />
    <glyph glyph-name="uni0137" unicode="&#x137;" horiz-adv-x="1277" 
d="M1112 1133h207l-590 -451l477 -682h-194l-418 580l-234 -179l-71 -401h-170l289 1638h170l-187 -1038h4q96 71 337.5 250t379.5 283zM565 -115q48 0 80.5 -27.5t32.5 -68.5q0 -40 -34.5 -87t-143.5 -168q-41 -45 -64 -71h-88l156 199q-88 23 -88 92q0 52 44 91.5
t105 39.5z" />
    <glyph glyph-name="Lacute" unicode="&#x139;" horiz-adv-x="1443" 
d="M879 2050h247l-462 -328h-156zM621 1597l-256 -1441h976l-24 -156h-1159l282 1597h181z" />
    <glyph glyph-name="lacute" unicode="&#x13a;" horiz-adv-x="604" 
d="M1073 2091l-463 -328h-155l370 328h248zM287 0h-168l289 1638h167z" />
    <glyph glyph-name="uni013B" unicode="&#x13b;" horiz-adv-x="1443" 
d="M621 1597l-256 -1441h976l-24 -156h-1159l282 1597h181zM657 -115q48 0 80.5 -27.5t32.5 -68.5q0 -40 -34.5 -87t-143.5 -168q-41 -45 -64 -71h-88l156 199q-88 23 -88 92q0 52 44 91.5t105 39.5z" />
    <glyph glyph-name="uni013C" unicode="&#x13c;" horiz-adv-x="604" 
d="M287 0h-168l289 1638h167zM59 -537h-88l156 199q-88 23 -88 92q0 52 44 91.5t105 39.5q48 0 80.5 -27.5t32.5 -68.5q0 -40 -34.5 -87t-143.5 -168q-41 -45 -64 -71z" />
    <glyph glyph-name="Lcaron" unicode="&#x13d;" horiz-adv-x="1443" 
d="M1079 1149h-110l200 258q-35 10 -54 35.5t-19 58.5q0 56 48.5 97.5t112.5 41.5q50 0 82.5 -29t32.5 -73q0 -43 -52 -111.5t-241 -277.5zM440 1597h181l-256 -1441h976l-24 -156h-1159z" />
    <glyph glyph-name="lcaron" unicode="&#x13e;" horiz-adv-x="604" 
d="M836 1149h-109l199 258q-35 10 -54.5 35.5t-19.5 58.5q0 55 48.5 97t113.5 42q49 0 81.5 -29t32.5 -73t-52.5 -114t-239.5 -275zM287 0h-168l289 1638h167z" />
    <glyph glyph-name="Lslash" unicode="&#x141;" horiz-adv-x="1443" 
d="M485 836l-120 -680h976l-24 -156h-1159l135 764l-219 -80l22 141l221 82l123 690h181l-109 -618l379 139l-23 -141z" />
    <glyph glyph-name="lslash" unicode="&#x142;" horiz-adv-x="604" 
d="M471 1047l268 149l-20 -139l-273 -152l-159 -905h-168l141 803l-262 -146l25 140l262 145l123 696h167z" />
    <glyph glyph-name="Nacute" unicode="&#x143;" horiz-adv-x="2025" 
d="M1712 2050l-463 -328h-155l370 328h248zM338 0h-180l282 1597h195q568 -833 891 -1327h6q11 63 100.5 545t141.5 782h178l-283 -1597h-192q-39 57 -379.5 550t-517.5 761h-2q-12 -69 -97.5 -518.5t-142.5 -792.5z" />
    <glyph glyph-name="nacute" unicode="&#x144;" horiz-adv-x="1554" 
d="M1405 1669l-440 -391h-150l363 391h227zM287 0h-168l200 1133h164l-39 -211h5q98 122 234 182.5t288 60.5q78 0 145 -15t125.5 -48.5t94.5 -86.5t51.5 -128.5t-3.5 -175.5l-124 -711h-168l114 641q33 188 -56 283.5t-249 95.5q-100 0 -189.5 -33t-153 -88t-105.5 -125.5
t-56 -146.5z" />
    <glyph glyph-name="uni0145" unicode="&#x145;" horiz-adv-x="2025" 
d="M338 0h-180l282 1597h195q568 -833 891 -1327h6q11 63 100.5 545t141.5 782h178l-283 -1597h-192q-39 57 -379.5 550t-517.5 761h-2q-12 -69 -97.5 -518.5t-142.5 -792.5zM797 -537h-88l155 199q-88 23 -88 92q0 52 44.5 91.5t105.5 39.5q47 0 79.5 -27.5t32.5 -68.5
t-34 -87t-149 -174q-37 -42 -58 -65z" />
    <glyph glyph-name="uni0146" unicode="&#x146;" horiz-adv-x="1554" 
d="M287 0h-168l200 1133h164l-39 -211h5q98 122 234 182.5t288 60.5q78 0 145 -15t125.5 -48.5t94.5 -86.5t51.5 -128.5t-3.5 -175.5l-124 -711h-168l114 641q33 188 -56 283.5t-249 95.5q-100 0 -189.5 -33t-153 -88t-105.5 -125.5t-56 -146.5zM567 -537h-88l156 199
q-88 23 -88 92q0 52 44 91.5t105 39.5q48 0 80.5 -27.5t32.5 -68.5q0 -40 -34.5 -87t-143.5 -168q-41 -45 -64 -71z" />
    <glyph glyph-name="Ncaron" unicode="&#x147;" horiz-adv-x="2025" 
d="M1520 2036h157l-374 -314h-213l-269 314h158q140 -122 233 -215q202 145 308 215zM338 0h-180l282 1597h195q568 -833 891 -1327h6q11 63 100.5 545t141.5 782h178l-283 -1597h-192q-39 57 -379.5 550t-517.5 761h-2q-12 -69 -97.5 -518.5t-142.5 -792.5z" />
    <glyph glyph-name="ncaron" unicode="&#x148;" horiz-adv-x="1554" 
d="M1008 1284h-217l-291 365h159q34 -33 86.5 -82t91.5 -88t81 -86q59 47 170 125t180 131h159zM287 0h-168l200 1133h164l-39 -211h5q98 122 234 182.5t288 60.5q78 0 145 -15t125.5 -48.5t94.5 -86.5t51.5 -128.5t-3.5 -175.5l-124 -711h-168l114 641q33 188 -56 283.5
t-249 95.5q-100 0 -189.5 -33t-153 -88t-105.5 -125.5t-56 -146.5z" />
    <glyph glyph-name="Eng" unicode="&#x14a;" horiz-adv-x="2025" 
d="M1098 -483q-79 0 -154.5 14.5t-120.5 38.5l21 149q99 -59 239 -59q161 0 267 87t135 241q-91 133 -410 596t-497 731l-240 -1315h-180l282 1597h195q568 -833 891 -1327h6l242 1327h178l-273 -1536q-14 -80 -36 -149t-67 -144.5t-105.5 -128.5t-156.5 -87.5t-216 -34.5z
" />
    <glyph glyph-name="eng" unicode="&#x14b;" horiz-adv-x="1554" 
d="M791 -483q-151 0 -246 53l20 143q103 -57 217 -57q51 0 93.5 13t71 31t52.5 50.5t37.5 57.5t25.5 65.5t16.5 61.5t11.5 59l116 647q16 100 0.5 171.5t-59.5 117.5t-105 68t-137 22q-101 0 -191 -33t-154 -88t-106.5 -125.5t-56.5 -146.5l-110 -627h-168l200 1133h164
l-39 -211h5q98 122 234 182.5t288 60.5q76 0 142.5 -15t125.5 -47.5t96 -84.5t53.5 -126.5t-2.5 -172.5l-129 -733q-7 -40 -11.5 -62.5t-16 -65.5t-22.5 -70.5t-31.5 -67t-43.5 -65t-57.5 -54.5t-74.5 -45.5t-93.5 -27.5t-115.5 -11z" />
    <glyph glyph-name="Omacron" unicode="&#x14c;" horiz-adv-x="2172" 
d="M1716 1821h-809l23 129h805zM983 -35q-240 0 -429 89.5t-294.5 250.5t-105.5 365q0 148 57.5 291.5t162.5 263t243 211t309 143t350 51.5t333 -52.5t262.5 -145t170 -224t61.5 -284.5q0 -147 -58 -291t-163 -263t-243 -211t-308.5 -143t-347.5 -51zM1010 121
q177 0 343.5 66t287 173.5t193.5 251t73 293.5q0 249 -184.5 409.5t-471.5 160.5q-175 0 -341.5 -65.5t-289.5 -173t-197.5 -252.5t-74.5 -296q0 -164 85.5 -294t236.5 -201.5t340 -71.5z" />
    <glyph glyph-name="omacron" unicode="&#x14d;" horiz-adv-x="1579" 
d="M1352 1405h-826l21 125h825zM684 -35q-267 0 -425.5 136t-158.5 364q0 134 59.5 260.5t162 224t253 156.5t320.5 59q267 0 426.5 -136t159.5 -365q0 -134 -59.5 -260.5t-162.5 -223.5t-253.5 -156t-321.5 -59zM707 111q127 0 238.5 45t188 119.5t120.5 171.5t44 200
q0 170 -115 271.5t-309 101.5q-127 0 -238.5 -45.5t-188 -120.5t-120.5 -172t-44 -199q0 -170 115 -271t309 -101z" />
    <glyph glyph-name="Ohungarumlaut" unicode="&#x150;" horiz-adv-x="2172" 
d="M1526 2050l-393 -328h-152l311 328h234zM1917 2050l-412 -328h-153l334 328h231zM983 -35q-240 0 -429 89.5t-294.5 250.5t-105.5 365q0 148 57.5 291.5t162.5 263t243 211t309 143t350 51.5t333 -52.5t262.5 -145t170 -224t61.5 -284.5q0 -147 -58 -291t-163 -263
t-243 -211t-308.5 -143t-347.5 -51zM1010 121q177 0 343.5 66t287 173.5t193.5 251t73 293.5q0 249 -184.5 409.5t-471.5 160.5q-175 0 -341.5 -65.5t-289.5 -173t-197.5 -252.5t-74.5 -296q0 -164 85.5 -294t236.5 -201.5t340 -71.5z" />
    <glyph glyph-name="ohungarumlaut" unicode="&#x151;" horiz-adv-x="1579" 
d="M1157 1673l-405 -395h-148l328 395h225zM1554 1673l-426 -395h-147l348 395h225zM684 -35q-267 0 -425.5 136t-158.5 364q0 134 59.5 260.5t162 224t253 156.5t320.5 59q267 0 426.5 -136t159.5 -365q0 -134 -59.5 -260.5t-162.5 -223.5t-253.5 -156t-321.5 -59zM707 111
q127 0 238.5 45t188 119.5t120.5 171.5t44 200q0 170 -115 271.5t-309 101.5q-127 0 -238.5 -45.5t-188 -120.5t-120.5 -172t-44 -199q0 -170 115 -271t309 -101z" />
    <glyph glyph-name="OE" unicode="&#x152;" horiz-adv-x="3209" 
d="M981 -35q-235 0 -423 87t-296 248t-108 368q0 186 90.5 362.5t241 308t358 211.5t430.5 80q247 0 435 -95.5t280 -260.5l61 323h1194l-22 -151h-1022l-103 -549h975l-27 -156h-972l-107 -585h1049l-27 -156h-1223l64 322q-156 -167 -378.5 -262t-469.5 -95zM1008 121
q177 0 343.5 66t287 174.5t193.5 253t73 294.5q0 247 -184 406.5t-470 159.5q-176 0 -342.5 -66t-289 -173.5t-197 -252t-74.5 -295.5q0 -164 85.5 -294t236 -201.5t338.5 -71.5z" />
    <glyph glyph-name="oe" unicode="&#x153;" horiz-adv-x="2695" 
d="M684 -35q-266 0 -425 136.5t-159 365.5q0 134 59.5 260.5t162.5 223.5t253 155.5t320 58.5q198 0 338.5 -78t196.5 -213q102 135 269 213t361 78q59 0 115.5 -8t116.5 -26.5t109 -49t92.5 -74.5t67 -103.5t33 -136.5t-10.5 -173l-9 -45h-1114q-33 -199 87 -322t333 -123
q170 0 305.5 76t220.5 201l148 -53q-107 -169 -295.5 -266t-407.5 -97q-196 0 -335.5 77t-192.5 210q-105 -135 -272.5 -211t-366.5 -76zM1487 662h926q15 98 -13 172t-87 115.5t-129.5 61t-151.5 19.5q-189 0 -336.5 -101.5t-208.5 -266.5zM707 111q127 0 238.5 45t188 119
t120.5 171t44 199q0 172 -115 273.5t-309 101.5q-167 0 -304.5 -77.5t-212 -200t-74.5 -259.5q0 -170 115 -271t309 -101z" />
    <glyph glyph-name="Racute" unicode="&#x154;" horiz-adv-x="1703" 
d="M1511 2050l-462 -328h-156l371 328h247zM338 0h-180l282 1597h676q88 0 166.5 -13.5t149.5 -44t122.5 -76.5t82 -115.5t30.5 -155.5q0 -134 -72.5 -253.5t-208 -201t-305.5 -98.5l-2 -2q28 -43 111.5 -169t148 -229t142.5 -239h-199l-399 629h-432q-15 -83 -33.5 -188
t-79.5 -441zM473 776h479q232 0 378.5 108t146.5 271q0 144 -111.5 218.5t-308.5 74.5h-461q-11 -61 -123 -672z" />
    <glyph glyph-name="racute" unicode="&#x155;" horiz-adv-x="1007" 
d="M1192 1669l-440 -391h-150l363 391h227zM287 0h-168l200 1133h164l-45 -228h11q73 115 206.5 187.5t280.5 72.5q84 0 149 -22l-26 -172q-62 26 -170 26q-101 0 -191 -40.5t-152.5 -107t-104 -147t-56.5 -165.5z" />
    <glyph glyph-name="uni0156" unicode="&#x156;" horiz-adv-x="1703" 
d="M338 0h-180l282 1597h676q88 0 166.5 -13.5t149.5 -44t122.5 -76.5t82 -115.5t30.5 -155.5q0 -134 -72.5 -253.5t-208 -201t-305.5 -98.5l-2 -2q28 -43 111.5 -169t148 -229t142.5 -239h-199l-399 629h-432q-15 -83 -33.5 -188t-79.5 -441zM473 776h479q232 0 378.5 108
t146.5 271q0 144 -111.5 218.5t-308.5 74.5h-461q-11 -61 -123 -672zM621 -537h-89l156 199q-88 23 -88 92q0 52 44.5 91.5t105.5 39.5q47 0 79.5 -27.5t32.5 -68.5t-34 -87t-149 -174q-37 -42 -58 -65z" />
    <glyph glyph-name="uni0157" unicode="&#x157;" horiz-adv-x="1007" 
d="M287 0h-168l200 1133h164l-45 -228h11q73 115 206.5 187.5t280.5 72.5q84 0 149 -22l-26 -172q-62 26 -170 26q-101 0 -191 -40.5t-152.5 -107t-104 -147t-56.5 -165.5zM49 -537h-88l156 199q-88 23 -88 92q0 52 44 91.5t105 39.5q48 0 80.5 -27.5t32.5 -68.5
q0 -40 -34.5 -87t-143.5 -168q-41 -45 -64 -71z" />
    <glyph glyph-name="Rcaron" unicode="&#x158;" horiz-adv-x="1703" 
d="M1317 2036h158l-375 -314h-213l-269 314h158q148 -129 234 -215q212 153 307 215zM338 0h-180l282 1597h676q88 0 166.5 -13.5t149.5 -44t122.5 -76.5t82 -115.5t30.5 -155.5q0 -134 -72.5 -253.5t-208 -201t-305.5 -98.5l-2 -2q28 -43 111.5 -169t148 -229t142.5 -239
h-199l-399 629h-432q-15 -83 -33.5 -188t-79.5 -441zM473 776h479q232 0 378.5 108t146.5 271q0 144 -111.5 218.5t-308.5 74.5h-461q-11 -61 -123 -672z" />
    <glyph glyph-name="rcaron" unicode="&#x159;" horiz-adv-x="1007" 
d="M797 1284h-217l-291 365h160q33 -32 86 -82t91.5 -88t80.5 -86q59 47 170 125t180 131h160zM287 0h-168l200 1133h164l-45 -228h11q73 115 206.5 187.5t280.5 72.5q84 0 149 -22l-26 -172q-62 26 -170 26q-101 0 -191 -40.5t-152.5 -107t-104 -147t-56.5 -165.5z" />
    <glyph glyph-name="Sacute" unicode="&#x15a;" horiz-adv-x="1581" 
d="M1425 2050l-462 -330h-156l369 330h249zM713 -35q-89 0 -172 15.5t-162.5 51t-141.5 88.5t-106 133.5t-59 180.5l174 55q27 -183 161.5 -276.5t335.5 -93.5q213 0 360.5 97.5t147.5 234.5q0 47 -20 84.5t-49.5 61.5t-75.5 44t-87 32t-94 26q-7 2 -11 3l-10 2.5t-11 2.5
l-170 45q-37 10 -67 19t-73 24t-76.5 32t-72 39.5t-66.5 51t-51.5 61.5t-36 75t-12.5 89q0 128 91 239.5t252.5 179.5t355.5 68q245 0 395.5 -106t177.5 -275l-170 -61q-30 134 -144.5 212.5t-293.5 78.5q-198 0 -334.5 -88.5t-136.5 -210.5q0 -37 14.5 -70t35 -57t55 -46.5
t61 -36t69 -28.5t62.5 -21t55 -16l178 -51q167 -46 229 -72q199 -83 227 -234q5 -27 5 -56q0 -100 -57 -195.5t-154 -168.5t-236 -118t-292 -45z" />
    <glyph glyph-name="sacute" unicode="&#x15b;" horiz-adv-x="1206" 
d="M1231 1671l-440 -391h-150l363 391h227zM526 -35q-197 0 -333.5 87.5t-165.5 230.5l163 47q35 -107 136 -169.5t231 -62.5q137 0 237.5 63.5t100.5 151.5q0 31 -15.5 56.5t-30.5 40t-57 30.5t-59 20.5t-73 18.5q-10 3 -15 4l-125 31q-33 8 -50 13t-58 19t-65.5 27
t-58.5 36.5t-53.5 49.5t-34 63t-14.5 79q0 97 66 181t182 133.5t254 49.5q175 0 293 -77.5t145 -200.5l-170 -49q-20 82 -98 138t-201 56q-126 0 -211.5 -57t-85.5 -139q0 -30 11.5 -55t36 -44t47.5 -33t61 -27t60.5 -19.5t60.5 -16.5l121 -31q36 -9 56.5 -14t59 -18t62 -25
t53.5 -33t47 -44t29 -56t12 -72q0 -73 -42 -142t-113.5 -122.5t-175.5 -86t-220 -32.5z" />
    <glyph glyph-name="Scedilla" unicode="&#x15e;" horiz-adv-x="1581" 
d="M813 905l178 -51q167 -46 229 -72q199 -83 227 -234q5 -27 5 -56q0 -97 -54 -190t-146 -165.5t-224.5 -119.5t-279.5 -52l-119 -117q39 17 98 17q89 0 143 -39t54 -105q0 -90 -89 -153.5t-221 -63.5q-86 0 -163.5 31t-122.5 84l82 66q31 -43 88.5 -68t119.5 -25
q76 0 129.5 34t53.5 81q0 37 -37 59.5t-94 22.5q-60 0 -119 -25l-59 54l143 151q-81 6 -154.5 25.5t-143 57t-122.5 89.5t-91 127t-52 166l174 55q27 -183 161.5 -276.5t335.5 -93.5q213 0 360.5 97.5t147.5 234.5q0 47 -20 84.5t-49.5 61.5t-75.5 44t-87 32t-94 26
q-7 2 -11 3l-10 2.5t-11 2.5l-170 45q-37 10 -67 19t-73 24t-76.5 32t-72 39.5t-66.5 51t-51.5 61.5t-36 75t-12.5 89q0 128 91 239.5t252.5 179.5t355.5 68q245 0 395.5 -106t177.5 -275l-170 -61q-30 134 -144.5 212.5t-293.5 78.5q-198 0 -334.5 -88.5t-136.5 -210.5
q0 -37 14.5 -70t35 -57t55 -46.5t61 -36t69 -28.5t62.5 -21t55 -16z" />
    <glyph glyph-name="scedilla" unicode="&#x15f;" horiz-adv-x="1206" 
d="M637 641l121 -31q36 -9 56.5 -14t59 -18t62 -25t53.5 -33t47 -44t29 -56t12 -72q0 -69 -39 -136t-106 -120t-164 -87.5t-207 -39.5l-119 -117q39 17 99 17q89 0 142.5 -39t53.5 -105q0 -90 -88.5 -153.5t-220.5 -63.5q-86 0 -164 31t-123 84l82 66q31 -43 89 -68t120 -25
q76 0 129 33.5t53 81.5q0 37 -37 59.5t-94 22.5q-59 0 -118 -25l-60 54l144 151q-168 17 -282 101.5t-140 212.5l163 47q35 -107 136 -169.5t231 -62.5q137 0 237.5 63.5t100.5 151.5q0 31 -15.5 56.5t-30.5 40t-57 30.5t-59 20.5t-73 18.5q-10 3 -15 4l-125 31
q-33 8 -50 13t-58 19t-65.5 27t-58.5 36.5t-53.5 49.5t-34 63t-14.5 79q0 97 66 181t182 133.5t254 49.5q175 0 293 -77.5t145 -200.5l-170 -49q-20 82 -98 138t-201 56q-126 0 -211.5 -57t-85.5 -139q0 -30 11.5 -55t36 -44t47.5 -33t61 -27t60.5 -19.5t60.5 -16.5z" />
    <glyph glyph-name="Scaron" unicode="&#x160;" horiz-adv-x="1581" 
d="M1309 2036h157l-374 -314h-213l-269 314h158q140 -122 233 -215q202 145 308 215zM713 -35q-89 0 -172 15.5t-162.5 51t-141.5 88.5t-106 133.5t-59 180.5l174 55q27 -183 161.5 -276.5t335.5 -93.5q213 0 360.5 97.5t147.5 234.5q0 47 -20 84.5t-49.5 61.5t-75.5 44
t-87 32t-94 26q-7 2 -11 3l-10 2.5t-11 2.5l-170 45q-37 10 -67 19t-73 24t-76.5 32t-72 39.5t-66.5 51t-51.5 61.5t-36 75t-12.5 89q0 128 91 239.5t252.5 179.5t355.5 68q245 0 395.5 -106t177.5 -275l-170 -61q-30 134 -144.5 212.5t-293.5 78.5q-198 0 -334.5 -88.5
t-136.5 -210.5q0 -37 14.5 -70t35 -57t55 -46.5t61 -36t69 -28.5t62.5 -21t55 -16l178 -51q167 -46 229 -72q199 -83 227 -234q5 -27 5 -56q0 -100 -57 -195.5t-154 -168.5t-236 -118t-292 -45z" />
    <glyph glyph-name="scaron" unicode="&#x161;" horiz-adv-x="1206" 
d="M836 1284h-218l-290 365h159q33 -32 86 -82t91.5 -88t80.5 -86q58 46 169.5 124.5t181.5 131.5h159zM526 -35q-197 0 -333.5 87.5t-165.5 230.5l163 47q35 -107 136 -169.5t231 -62.5q137 0 237.5 63.5t100.5 151.5q0 31 -15.5 56.5t-30.5 40t-57 30.5t-59 20.5t-73 18.5
q-10 3 -15 4l-125 31q-33 8 -50 13t-58 19t-65.5 27t-58.5 36.5t-53.5 49.5t-34 63t-14.5 79q0 97 66 181t182 133.5t254 49.5q175 0 293 -77.5t145 -200.5l-170 -49q-20 82 -98 138t-201 56q-126 0 -211.5 -57t-85.5 -139q0 -30 11.5 -55t36 -44t47.5 -33t61 -27
t60.5 -19.5t60.5 -16.5l121 -31q36 -9 56.5 -14t59 -18t62 -25t53.5 -33t47 -44t29 -56t12 -72q0 -73 -42 -142t-113.5 -122.5t-175.5 -86t-220 -32.5z" />
    <glyph glyph-name="uni0162" unicode="&#x162;" horiz-adv-x="1550" 
d="M190 1446l25 151h1485l-23 -151h-653q-29 -159 -75.5 -429.5t-182.5 -1016.5h-33l-153 -152q39 17 98 17q89 0 142.5 -39t53.5 -105q0 -90 -88.5 -153.5t-220.5 -63.5q-86 0 -163.5 31t-122.5 84l81 66q31 -43 89 -68t120 -25q76 0 129.5 34t53.5 81q0 37 -37 59.5
t-94 22.5q-60 0 -119 -25l-60 54l174 182h-30q26 150 39.5 224t25.5 138.5t63 348t132 735.5h-656z" />
    <glyph glyph-name="uni0163" unicode="&#x163;" horiz-adv-x="921" 
d="M952 993h-415l-111 -604q-7 -34 -10 -53.5t-6 -54t0 -55t12.5 -46t27 -40t47.5 -24.5t70 -10q108 0 234 60l-25 -146q-110 -55 -258 -55q-35 0 -51 2l-121 -119q39 17 98 17q90 0 143.5 -39t53.5 -105q0 -90 -88.5 -153.5t-220.5 -63.5q-86 0 -164 31t-123 84l82 66
q31 -43 89 -68t120 -25q76 0 129 33.5t53 81.5q0 37 -37 59.5t-94 22.5q-60 0 -119 -25l-59 54l162 170q-49 18 -79.5 52t-42.5 69t-13.5 83t2.5 78.5t12 71.5l119 651h-271l21 140h270l60 333h169l-59 -333h414z" />
    <glyph glyph-name="Tcaron" unicode="&#x164;" horiz-adv-x="1550" 
d="M1305 2036h157l-375 -314h-213l-268 314h158q140 -122 233 -215q202 145 308 215zM766 0h-180q26 150 39.5 224t25.5 138.5t63 348t132 735.5h-656l25 151h1485l-23 -151h-653q-29 -159 -75.5 -429.5t-182.5 -1016.5z" />
    <glyph glyph-name="tcaron" unicode="&#x165;" horiz-adv-x="921" 
d="M1100 1153h-109l199 258q-35 12 -54.5 37t-19.5 57q0 57 48.5 99.5t113.5 42.5q50 0 82.5 -29.5t32.5 -75.5q0 -43 -51.5 -111t-241.5 -278zM518 -35q-68 0 -119.5 14.5t-82.5 37t-49.5 57t-25.5 65.5t-6 72.5t4.5 68t10.5 62.5l119 651h-271l21 140h270l60 333h169
l-59 -333h414l-21 -140h-415l-111 -604q-7 -34 -10 -53.5t-6 -54t0 -55t12.5 -46t27 -40t47.5 -24.5t70 -10q108 0 234 60l-25 -146q-110 -55 -258 -55z" />
    <glyph glyph-name="Tbar" unicode="&#x166;" horiz-adv-x="1550" 
d="M1700 1597l-23 -151h-653q-32 -181 -56 -318t-46 -262h417l-22 -135h-418l-133 -731h-180q18 104 131 731h-422l22 135h424q69 374 105 580h-656l25 151h1485z" />
    <glyph glyph-name="tbar" unicode="&#x167;" horiz-adv-x="921" 
d="M973 1133l-21 -140h-415l-56 -305h393l-18 -125h-397l-33 -174q-7 -34 -10 -53.5t-6 -54t0 -55t12.5 -46t27 -40t47.5 -24.5t70 -10q108 0 234 60l-25 -146q-110 -55 -258 -55q-68 0 -119.5 14.5t-82.5 37t-49.5 57t-25.5 65.5t-6 72.5t4.5 68t10.5 62.5l41 221h-268
l20 125h270l56 305h-271l21 140h270l60 333h169l-59 -333h414z" />
    <glyph glyph-name="Umacron" unicode="&#x16a;" horiz-adv-x="1851" 
d="M1559 1821h-809l22 129h805zM817 -35q-329 0 -479 166.5t-98 454.5l182 1011h178l-178 -1001q-41 -232 68.5 -354.5t355.5 -122.5q245 0 400 124.5t196 352.5l178 1001h180l-182 -1011q-18 -103 -58 -193.5t-107 -170t-156.5 -136t-212 -89t-267.5 -32.5z" />
    <glyph glyph-name="umacron" unicode="&#x16b;" horiz-adv-x="1533" 
d="M1309 1405h-826l21 125h825zM582 -35q-77 0 -143 15t-124 48.5t-94 86.5t-52 129.5t3 177.5l127 711h168l-117 -652q-18 -100 0.5 -174.5t64.5 -115.5t103.5 -60.5t126.5 -19.5q98 0 185.5 34t148.5 90t101 124t53 139l112 635h168l-137 -779q-20 -120 -24 -197.5
t8 -156.5h-173q-10 131 7 201h-7q-194 -236 -505 -236z" />
    <glyph glyph-name="Uring" unicode="&#x16e;" horiz-adv-x="1851" 
d="M1130 1716q-104 0 -169.5 53t-65.5 138q0 102 93 179t222 77q104 0 170 -54t66 -139q0 -101 -93 -177.5t-223 -76.5zM1149 1819q73 0 124.5 41t51.5 100q0 45 -38 71.5t-95 26.5q-75 0 -125.5 -40t-50.5 -99q0 -46 37.5 -73t95.5 -27zM817 -35q-329 0 -479 166.5
t-98 454.5l182 1011h178l-178 -1001q-41 -232 68.5 -354.5t355.5 -122.5q245 0 400 124.5t196 352.5l178 1001h180l-182 -1011q-18 -103 -58 -193.5t-107 -170t-156.5 -136t-212 -89t-267.5 -32.5z" />
    <glyph glyph-name="uring" unicode="&#x16f;" horiz-adv-x="1533" 
d="M864 1249q-104 0 -169.5 53t-65.5 138q0 102 93 179t222 77q104 0 170 -54t66 -139q0 -101 -93 -177.5t-223 -76.5zM883 1352q73 0 124.5 41t51.5 100q0 45 -38 71.5t-95 26.5q-75 0 -125.5 -40t-50.5 -99q0 -46 37.5 -73t95.5 -27zM582 -35q-77 0 -143 15t-124 48.5
t-94 86.5t-52 129.5t3 177.5l127 711h168l-117 -652q-18 -100 0.5 -174.5t64.5 -115.5t103.5 -60.5t126.5 -19.5q98 0 185.5 34t148.5 90t101 124t53 139l112 635h168l-137 -779q-20 -120 -24 -197.5t8 -156.5h-173q-10 131 7 201h-7q-194 -236 -505 -236z" />
    <glyph glyph-name="Uhungarumlaut" unicode="&#x170;" horiz-adv-x="1851" 
d="M1368 2050l-393 -328h-152l312 328h233zM1759 2050l-411 -328h-154l334 328h231zM817 -35q-329 0 -479 166.5t-98 454.5l182 1011h178l-178 -1001q-41 -232 68.5 -354.5t355.5 -122.5q245 0 400 124.5t196 352.5l178 1001h180l-182 -1011q-18 -103 -58 -193.5t-107 -170
t-156.5 -136t-212 -89t-267.5 -32.5z" />
    <glyph glyph-name="uhungarumlaut" unicode="&#x171;" horiz-adv-x="1533" 
d="M1114 1673l-405 -395h-148l328 395h225zM1511 1673l-426 -395h-147l348 395h225zM582 -35q-77 0 -143 15t-124 48.5t-94 86.5t-52 129.5t3 177.5l127 711h168l-117 -652q-18 -100 0.5 -174.5t64.5 -115.5t103.5 -60.5t126.5 -19.5q98 0 185.5 34t148.5 90t101 124t53 139
l112 635h168l-137 -779q-20 -120 -24 -197.5t8 -156.5h-173q-10 131 7 201h-7q-194 -236 -505 -236z" />
    <glyph glyph-name="Uogonek" unicode="&#x172;" horiz-adv-x="1851" 
d="M1442 596l178 1001h180l-182 -1011q-20 -118 -70.5 -219t-131 -185t-201 -139.5t-269.5 -71.5q-78 -36 -129 -86.5t-51 -109.5q0 -58 52.5 -93.5t135.5 -35.5q50 0 111 12l-18 -107q-69 -14 -125 -14q-127 0 -209 52t-82 147q0 128 170 229q-320 4 -466.5 170t-94.5 451
l182 1011h178l-178 -1001q-41 -232 68.5 -354.5t355.5 -122.5q245 0 400 124.5t196 352.5z" />
    <glyph glyph-name="uogonek" unicode="&#x173;" horiz-adv-x="1533" 
d="M985 -225q0 -58 51.5 -91.5t130.5 -33.5q54 0 111 14l-21 -113q-63 -14 -120 -14q-132 0 -210.5 54t-78.5 145q0 47 23 90.5t61.5 76t76.5 56t81 41.5h-3q-10 131 7 201h-7q-194 -236 -505 -236q-77 0 -143 15t-124 48.5t-94 86.5t-52 129.5t3 177.5l127 711h168
l-117 -652q-18 -100 0.5 -174.5t64.5 -115.5t103.5 -60.5t126.5 -19.5q98 0 185.5 34t148.5 90t101 124t53 139l112 635h168l-137 -779q-20 -120 -24 -197.5t8 -156.5h-31q-104 -36 -174 -94.5t-70 -130.5z" />
    <glyph glyph-name="Wcircumflex" unicode="&#x174;" horiz-adv-x="2791" 
d="M1761 2036l271 -314h-158q-123 105 -232 211q-16 -11 -51 -37t-48 -35t-45 -31.5t-70 -47t-95 -60.5h-157l376 314h209zM776 0h-215l-334 1597h193q17 -77 57 -260t61.5 -282.5t54 -253.5t59.5 -294.5t53 -283.5h6q727 1299 768 1374h200q253 -1243 279 -1374h6
q533 961 776 1374h193l-899 -1597h-217q-154 704 -271 1354h-4q-176 -320 -255 -463.5t-225.5 -400.5t-285.5 -490z" />
    <glyph glyph-name="wcircumflex" unicode="&#x175;" horiz-adv-x="2228" 
d="M934 1278h-162l422 360h217l293 -360h-160q-23 23 -71.5 68t-94.5 90.5t-90 97.5q-63 -50 -174.5 -127t-179.5 -129zM614 0h-180l-293 1133h187l233 -924h6l566 924h167l242 -924h4l557 924h187l-691 -1133h-182q-147 553 -229 926h-6q-196 -335 -568 -926z" />
    <glyph glyph-name="Ycircumflex" unicode="&#x176;" horiz-adv-x="1687" 
d="M1208 2036l271 -314h-158q-116 98 -231 211q-152 -111 -310 -211h-157l376 314h209zM834 0h-179q59 334 105 582q-57 109 -154 278.5t-187 340.5t-194 396h195q76 -142 226 -427.5t226 -428.5h5q87 95 143.5 164t91 113.5t166 190t360.5 388.5h191q-69 -79 -392.5 -448
t-498.5 -567q-15 -83 -40.5 -227t-41.5 -234t-22 -121z" />
    <glyph glyph-name="ycircumflex" unicode="&#x177;" horiz-adv-x="1335" 
d="M473 1278h-162l422 360h217l293 -360h-160q-23 23 -71.5 68t-94.5 90.5t-90 97.5q-63 -50 -174.5 -127t-179.5 -129zM362 -451h-161l282 431l-348 1153h187q51 -168 142 -485.5t134 -461.5h6q74 113 285.5 442t327.5 505h184z" />
    <glyph glyph-name="Ydieresis" unicode="&#x178;" horiz-adv-x="1687" 
d="M823 1780q-50 0 -82 28t-32 72q0 53 45.5 93t105.5 40q47 0 79 -28t32 -68q0 -54 -44 -95.5t-104 -41.5zM1300 1780q-50 0 -82 28t-32 70q0 55 45.5 95t105.5 40q47 0 80 -28.5t33 -69.5q0 -53 -45 -94t-105 -41zM834 0h-179q59 334 105 582q-57 109 -154 278.5
t-187 340.5t-194 396h195q76 -142 226 -427.5t226 -428.5h5q87 95 143.5 164t91 113.5t166 190t360.5 388.5h191q-69 -79 -392.5 -448t-498.5 -567q-15 -83 -40.5 -227t-41.5 -234t-22 -121z" />
    <glyph glyph-name="Zacute" unicode="&#x179;" horiz-adv-x="1611" 
d="M1499 2050l-463 -328h-155l370 328h248zM1438 0h-1467l27 162q91 80 629.5 554t824.5 728l2 4q-391 -2 -1178 -2l25 151h1399l-27 -157q-184 -162 -685.5 -600.5t-774.5 -679.5l-2 -4h1251z" />
    <glyph glyph-name="zacute" unicode="&#x17a;" horiz-adv-x="1193" 
d="M1231 1669l-440 -391h-150l363 391h227zM1038 0h-1067l21 123l940 866h-739l22 144h967l-19 -123l-944 -867h840z" />
    <glyph glyph-name="Zdotaccent" unicode="&#x17b;" horiz-adv-x="1611" 
d="M997 1782q-51 0 -84.5 30t-33.5 74q0 57 48 98t113 41q51 0 85 -29t34 -73q0 -55 -49.5 -98t-112.5 -43zM1438 0h-1467l27 162q91 80 629.5 554t824.5 728l2 4q-391 -2 -1178 -2l25 151h1399l-27 -157q-184 -162 -685.5 -600.5t-774.5 -679.5l-2 -4h1251z" />
    <glyph glyph-name="zdotaccent" unicode="&#x17c;" horiz-adv-x="1193" 
d="M750 1405q-51 0 -85 30t-34 74q0 57 48.5 99.5t113.5 42.5q51 0 84.5 -30t33.5 -73q0 -57 -49 -100t-112 -43zM1038 0h-1067l21 123l940 866h-739l22 144h967l-19 -123l-944 -867h840z" />
    <glyph glyph-name="Zcaron" unicode="&#x17d;" horiz-adv-x="1611" 
d="M1305 2036h157l-375 -314h-213l-268 314h158q140 -122 233 -215q202 145 308 215zM1438 0h-1467l27 162q91 80 629.5 554t824.5 728l2 4q-391 -2 -1178 -2l25 151h1399l-27 -157q-184 -162 -685.5 -600.5t-774.5 -679.5l-2 -4h1251z" />
    <glyph glyph-name="zcaron" unicode="&#x17e;" horiz-adv-x="1193" 
d="M834 1284h-218l-290 365h159q33 -32 86 -82t91.5 -88t80.5 -86q58 46 169.5 124.5t181.5 131.5h159zM1038 0h-1067l21 123l940 866h-739l22 144h967l-19 -123l-944 -867h840z" />
    <glyph glyph-name="uni0218" unicode="&#x218;" horiz-adv-x="1581" 
d="M713 -35q-89 0 -172 15.5t-162.5 51t-141.5 88.5t-106 133.5t-59 180.5l174 55q27 -183 161.5 -276.5t335.5 -93.5q213 0 360.5 97.5t147.5 234.5q0 47 -20 84.5t-49.5 61.5t-75.5 44t-87 32t-94 26q-7 2 -11 3l-10 2.5t-11 2.5l-170 45q-37 10 -67 19t-73 24t-76.5 32
t-72 39.5t-66.5 51t-51.5 61.5t-36 75t-12.5 89q0 128 91 239.5t252.5 179.5t355.5 68q245 0 395.5 -106t177.5 -275l-170 -61q-30 134 -144.5 212.5t-293.5 78.5q-198 0 -334.5 -88.5t-136.5 -210.5q0 -37 14.5 -70t35 -57t55 -46.5t61 -36t69 -28.5t62.5 -21t55 -16
l178 -51q167 -46 229 -72q199 -83 227 -234q5 -27 5 -56q0 -100 -57 -195.5t-154 -168.5t-236 -118t-292 -45zM567 -537h-88l156 199q-88 23 -88 92q0 52 44 91.5t105 39.5q48 0 80.5 -27.5t32.5 -68.5q0 -40 -34.5 -87t-143.5 -168q-41 -45 -64 -71z" />
    <glyph glyph-name="uni0219" unicode="&#x219;" horiz-adv-x="1206" 
d="M526 -35q-197 0 -333.5 87.5t-165.5 230.5l163 47q35 -107 136 -169.5t231 -62.5q137 0 237.5 63.5t100.5 151.5q0 31 -15.5 56.5t-30.5 40t-57 30.5t-59 20.5t-73 18.5q-10 3 -15 4l-125 31q-33 8 -50 13t-58 19t-65.5 27t-58.5 36.5t-53.5 49.5t-34 63t-14.5 79
q0 97 66 181t182 133.5t254 49.5q175 0 293 -77.5t145 -200.5l-170 -49q-20 82 -98 138t-201 56q-126 0 -211.5 -57t-85.5 -139q0 -30 11.5 -55t36 -44t47.5 -33t61 -27t60.5 -19.5t60.5 -16.5l121 -31q36 -9 56.5 -14t59 -18t62 -25t53.5 -33t47 -44t29 -56t12 -72
q0 -73 -42 -142t-113.5 -122.5t-175.5 -86t-220 -32.5zM381 -537h-88l156 199q-89 23 -89 92q0 52 44.5 91.5t105.5 39.5q48 0 80.5 -27.5t32.5 -68.5q0 -40 -34.5 -87t-143.5 -168q-41 -45 -64 -71z" />
    <glyph glyph-name="uni021A" unicode="&#x21a;" horiz-adv-x="1550" 
d="M766 0h-180q26 150 39.5 224t25.5 138.5t63 348t132 735.5h-656l25 151h1485l-23 -151h-653q-29 -159 -75.5 -429.5t-182.5 -1016.5zM518 -537h-88l156 199q-88 23 -88 92q0 52 44 91.5t105 39.5q48 0 80.5 -27.5t32.5 -68.5q0 -40 -34.5 -87t-143.5 -168
q-41 -45 -64 -71z" />
    <glyph glyph-name="uni021B" unicode="&#x21b;" horiz-adv-x="921" 
d="M518 -35q-68 0 -119.5 14.5t-82.5 37t-49.5 57t-25.5 65.5t-6 72.5t4.5 68t10.5 62.5l119 651h-271l21 140h270l60 333h169l-59 -333h414l-21 -140h-415l-111 -604q-7 -34 -10 -53.5t-6 -54t0 -55t12.5 -46t27 -40t47.5 -24.5t70 -10q108 0 234 60l-25 -146
q-110 -55 -258 -55zM285 -537h-88l155 199q-88 23 -88 92q0 52 44.5 91.5t105.5 39.5q47 0 79.5 -27.5t32.5 -68.5t-34 -87t-149 -174q-37 -42 -58 -65z" />
    <glyph glyph-name="gravecomb" unicode="&#x300;" horiz-adv-x="0" 
d="M129 1278h-149l-304 391h228z" />
    <glyph glyph-name="acutecomb" unicode="&#x301;" horiz-adv-x="0" 
d="M426 1669l-440 -391h-150l363 391h227z" />
    <glyph glyph-name="uni0302" unicode="&#x302;" horiz-adv-x="0" 
d="M-561 1278h-162l422 360h217l293 -360h-160q-23 23 -71.5 68t-94.5 90.5t-90 97.5q-63 -50 -174.5 -127t-179.5 -129z" />
    <glyph glyph-name="tildecomb" unicode="&#x303;" horiz-adv-x="0" 
d="M-129 1335q-59 0 -96.5 17.5t-81.5 54.5l-45 33q-21 17 -31.5 24.5t-33 16t-46.5 8.5q-56 0 -96.5 -38.5t-52.5 -98.5h-127q22 115 105.5 186.5t193.5 71.5q89 0 166 -66l47 -35q60 -51 118 -51q54 0 94 38.5t52 98.5h129q-22 -121 -100.5 -190.5t-194.5 -69.5z" />
    <glyph glyph-name="uni0304" unicode="&#x304;" horiz-adv-x="0" 
d="M160 1399h-826l21 125h825z" />
    <glyph glyph-name="uni0306" unicode="&#x306;" horiz-adv-x="0" 
d="M-244 1274q-204 0 -304 111t-77 284h152q-19 -121 51.5 -195.5t198.5 -74.5q129 0 226.5 74.5t125.5 195.5h152q-39 -175 -181 -285t-344 -110z" />
    <glyph glyph-name="uni0307" unicode="&#x307;" horiz-adv-x="0" 
d="M-29 1399q-51 0 -84.5 30t-33.5 74q0 57 48 99.5t113 42.5q51 0 85 -30t34 -73q0 -57 -49.5 -100t-112.5 -43z" />
    <glyph glyph-name="uni0308" unicode="&#x308;" horiz-adv-x="0" 
d="M-741 1362q-47 0 -79 28.5t-32 69.5q0 50 44.5 89.5t102.5 39.5q47 0 79 -27.5t32 -66.5q0 -53 -44.5 -93t-102.5 -40zM-301 1362q-49 0 -80 27t-31 69q0 54 44 92.5t104 38.5q46 0 78 -28t32 -68q0 -51 -45 -91t-102 -40z" />
    <glyph glyph-name="uni030A" unicode="&#x30a;" horiz-adv-x="0" 
d="M-55 1249q-104 0 -170 53t-66 138q0 102 93.5 179t222.5 77q104 0 169.5 -54t65.5 -139q0 -101 -92.5 -177.5t-222.5 -76.5zM-37 1352q73 0 124.5 41t51.5 100q0 45 -38 71.5t-95 26.5q-75 0 -125.5 -40t-50.5 -99q0 -46 37.5 -73t95.5 -27z" />
    <glyph glyph-name="uni030B" unicode="&#x30b;" horiz-adv-x="0" 
d="M115 1673l-408 -395h-147l327 395h228zM512 1673l-426 -395h-149l350 395h225z" />
    <glyph glyph-name="uni030C" unicode="&#x30c;" horiz-adv-x="0" 
d="M-147 1278h-218l-290 364h159q33 -32 86 -82t91.5 -88t80.5 -86q60 48 172.5 126.5t180.5 129.5h159z" />
    <glyph glyph-name="uni0312" unicode="&#x312;" horiz-adv-x="0" 
d="M-254 1303q0 42 48.5 105t228.5 265h106l-188 -246q69 -25 69 -90q0 -54 -45.5 -92.5t-107.5 -38.5q-46 0 -78.5 27.5t-32.5 69.5z" />
    <glyph glyph-name="uni0326" unicode="&#x326;" horiz-adv-x="0" 
d="M-469 -537h-88l156 199q-88 23 -88 92q0 52 44 91.5t105 39.5q48 0 80.5 -27.5t32.5 -68.5q0 -40 -34.5 -87t-143.5 -168q-41 -45 -64 -71z" />
    <glyph glyph-name="uni0327" unicode="&#x327;" horiz-adv-x="0" 
d="M-831 -496q-86 0 -164 31t-123 84l82 66q31 -43 89 -68t120 -25q76 0 129 33.5t53 81.5q0 37 -37 59.5t-94 22.5q-60 0 -119 -25l-59 54l174 182h116l-153 -152q39 17 98 17q89 0 143 -39t54 -105q0 -90 -88.5 -153.5t-220.5 -63.5z" />
    <glyph glyph-name="uni0328" unicode="&#x328;" horiz-adv-x="0" 
d="M-829 -483q-132 0 -210.5 53.5t-78.5 144.5q0 47 23 90.5t61 76.5t76.5 56.5t80.5 41.5h140q-104 -36 -174 -95t-70 -131q0 -58 51.5 -91.5t130.5 -33.5q50 0 111 15l-21 -113q-63 -14 -120 -14z" />
    <glyph glyph-name="uni0335" unicode="&#x335;" horiz-adv-x="0" 
d="M-764 629h832l-19 -125h-833z" />
    <glyph glyph-name="uni0337" unicode="&#x337;" horiz-adv-x="0" 
d="M-471 506l22 139l717 399l-20 -139z" />
    <glyph glyph-name="uni0338" unicode="&#x338;" horiz-adv-x="0" 
d="M-1214 -59h-187l1323 1239h180z" />
    <glyph glyph-name="Wgrave" unicode="&#x1e80;" horiz-adv-x="2791" 
d="M1714 1722h-155l-349 328h250zM776 0h-215l-334 1597h193q17 -77 57 -260t61.5 -282.5t54 -253.5t59.5 -294.5t53 -283.5h6q727 1299 768 1374h200q253 -1243 279 -1374h6q533 961 776 1374h193l-899 -1597h-217q-154 704 -271 1354h-4q-176 -320 -255 -463.5
t-225.5 -400.5t-285.5 -490z" />
    <glyph glyph-name="wgrave" unicode="&#x1e81;" horiz-adv-x="2228" 
d="M1323 1278h-149l-304 391h228zM614 0h-180l-293 1133h187l233 -924h6l566 924h167l242 -924h4l557 924h187l-691 -1133h-182q-147 553 -229 926h-6q-196 -335 -568 -926z" />
    <glyph glyph-name="Wacute" unicode="&#x1e82;" horiz-adv-x="2791" 
d="M2120 2050l-463 -328h-156l371 328h248zM776 0h-215l-334 1597h193q17 -77 57 -260t61.5 -282.5t54 -253.5t59.5 -294.5t53 -283.5h6q727 1299 768 1374h200q253 -1243 279 -1374h6q533 961 776 1374h193l-899 -1597h-217q-154 704 -271 1354h-4q-176 -320 -255 -463.5
t-225.5 -400.5t-285.5 -490z" />
    <glyph glyph-name="wacute" unicode="&#x1e83;" horiz-adv-x="2228" 
d="M1745 1669l-440 -391h-150l363 391h227zM614 0h-180l-293 1133h187l233 -924h6l566 924h167l242 -924h4l557 924h187l-691 -1133h-182q-147 553 -229 926h-6q-196 -335 -568 -926z" />
    <glyph glyph-name="Wdieresis" unicode="&#x1e84;" horiz-adv-x="2791" 
d="M1376 1780q-50 0 -82 28t-32 72q0 53 45.5 93t105.5 40q47 0 79 -28t32 -68q0 -54 -44 -95.5t-104 -41.5zM1853 1780q-50 0 -82 28t-32 70q0 55 45.5 95t105.5 40q47 0 80 -28.5t33 -69.5q0 -53 -45 -94t-105 -41zM776 0h-215l-334 1597h193q17 -77 57 -260t61.5 -282.5
t54 -253.5t59.5 -294.5t53 -283.5h6q727 1299 768 1374h200q253 -1243 279 -1374h6q533 961 776 1374h193l-899 -1597h-217q-154 704 -271 1354h-4q-176 -320 -255 -463.5t-225.5 -400.5t-285.5 -490z" />
    <glyph glyph-name="wdieresis" unicode="&#x1e85;" horiz-adv-x="2228" 
d="M1038 1362q-47 0 -78.5 28.5t-31.5 69.5q0 50 44.5 89.5t102.5 39.5q47 0 79 -27.5t32 -66.5q0 -53 -45 -93t-103 -40zM1479 1362q-49 0 -80 27t-31 69q0 54 44 92.5t104 38.5q46 0 78 -28t32 -68q0 -51 -45 -91t-102 -40zM614 0h-180l-293 1133h187l233 -924h6l566 924
h167l242 -924h4l557 924h187l-691 -1133h-182q-147 553 -229 926h-6q-196 -335 -568 -926z" />
    <glyph glyph-name="uni1E9E" unicode="&#x1e9e;" horiz-adv-x="1839" 
d="M313 0h-180l166 934q8 48 17.5 90t28 98.5t41.5 103.5t59 100.5t79.5 96t104.5 82.5t133 66.5t166 42.5t202 16q290 0 449.5 -104.5t159.5 -286.5q0 -160 -117.5 -280.5t-298.5 -149.5l-2 -2q102 -6 184 -42.5t134.5 -110.5t52.5 -175q0 -97 -47 -182.5t-137 -152
t-234.5 -105.5t-325.5 -39h-213l25 152h244q228 0 362.5 88.5t134.5 228.5q0 120 -102 185t-291 65h-131l22 151h136q178 0 294.5 96t116.5 236q0 135 -113.5 209t-322.5 74q-87 0 -162.5 -14t-131 -35t-103 -55t-78.5 -65.5t-57.5 -76t-40.5 -75.5t-26 -75.5t-16 -65
t-10 -54.5z" />
    <glyph glyph-name="Ygrave" unicode="&#x1ef2;" horiz-adv-x="1687" 
d="M1161 1722h-155l-349 328h250zM834 0h-179q59 334 105 582q-57 109 -154 278.5t-187 340.5t-194 396h195q76 -142 226 -427.5t226 -428.5h5q87 95 143.5 164t91 113.5t166 190t360.5 388.5h191q-69 -79 -392.5 -448t-498.5 -567q-15 -83 -40.5 -227t-41.5 -234t-22 -121z
" />
    <glyph glyph-name="ygrave" unicode="&#x1ef3;" horiz-adv-x="1335" 
d="M862 1278h-149l-303 391h227zM362 -451h-161l282 431l-348 1153h187q51 -168 142 -485.5t134 -461.5h6q74 113 285.5 442t327.5 505h184z" />
    <glyph glyph-name="uni2000" unicode="&#x2000;" horiz-adv-x="1228" 
 />
    <glyph glyph-name="uni2001" unicode="&#x2001;" 
 />
    <glyph glyph-name="uni2002" unicode="&#x2002;" horiz-adv-x="1228" 
 />
    <glyph glyph-name="uni2003" unicode="&#x2003;" 
 />
    <glyph glyph-name="uni2004" unicode="&#x2004;" horiz-adv-x="819" 
 />
    <glyph glyph-name="uni2005" unicode="&#x2005;" horiz-adv-x="614" 
 />
    <glyph glyph-name="uni2006" unicode="&#x2006;" horiz-adv-x="409" 
 />
    <glyph glyph-name="uni2007" unicode="&#x2007;" horiz-adv-x="671" 
 />
    <glyph glyph-name="uni2008" unicode="&#x2008;" horiz-adv-x="567" 
 />
    <glyph glyph-name="uni2009" unicode="&#x2009;" horiz-adv-x="307" 
 />
    <glyph glyph-name="uni200A" unicode="&#x200a;" horiz-adv-x="102" 
 />
    <glyph glyph-name="uni200B" unicode="&#x200b;" horiz-adv-x="0" 
 />
    <glyph glyph-name="endash" unicode="&#x2013;" horiz-adv-x="1204" 
d="M1063 557h-924l21 135h923z" />
    <glyph glyph-name="emdash" unicode="&#x2014;" horiz-adv-x="1718" 
d="M1579 559h-1440l21 129h1439z" />
    <glyph glyph-name="quoteleft" unicode="&#x2018;" horiz-adv-x="561" 
d="M512 1632h106l-196 -258q35 -10 54.5 -35t19.5 -59q0 -55 -48.5 -97t-113.5 -42q-50 0 -82.5 29t-32.5 73t52.5 113.5t240.5 275.5z" />
    <glyph glyph-name="quoteright" unicode="&#x2019;" horiz-adv-x="569" 
d="M350 1149h-110l200 258q-35 10 -55 35.5t-20 58.5q0 56 48.5 97.5t112.5 41.5q50 0 83.5 -29t33.5 -73q0 -43 -52 -111.5t-241 -277.5z" />
    <glyph glyph-name="quotesinglbase" unicode="&#x201a;" horiz-adv-x="536" 
d="M78 -262h-107l197 258q-74 25 -74 94q0 56 48.5 98.5t113.5 42.5q50 0 82.5 -29t32.5 -75q0 -43 -51.5 -111t-241.5 -278z" />
    <glyph glyph-name="quotedblleft" unicode="&#x201c;" horiz-adv-x="950" 
d="M532 1632h107l-197 -258q35 -10 54.5 -35t19.5 -59q0 -55 -48.5 -97t-113.5 -42q-49 0 -81.5 29t-32.5 73t52.5 114t239.5 275zM850 1632h106l-196 -258q35 -10 54.5 -35t19.5 -59q0 -55 -48.5 -97t-113.5 -42q-50 0 -82.5 29t-32.5 73t52.5 113.5t240.5 275.5z" />
    <glyph glyph-name="quotedblright" unicode="&#x201d;" horiz-adv-x="960" 
d="M348 1149h-106l196 258q-35 10 -54 35.5t-19 58.5q0 55 48 97t113 42q50 0 82.5 -29t32.5 -73q0 -45 -51.5 -113t-241.5 -276zM739 1149h-108l196 258q-34 10 -52.5 35t-18.5 59q0 56 47.5 97.5t111.5 41.5q51 0 84 -29.5t33 -72.5t-52 -111.5t-241 -277.5z" />
    <glyph glyph-name="quotedblbase" unicode="&#x201e;" horiz-adv-x="925" 
d="M57 -254h-108l198 258q-35 10 -54 35.5t-19 58.5q0 55 48.5 98.5t113.5 43.5q49 0 81.5 -30t32.5 -75q0 -43 -51.5 -111t-241.5 -278zM449 -254h-109l197 258q-35 10 -54.5 35.5t-19.5 58.5q0 56 49 99t113 43q49 0 82.5 -30.5t33.5 -74.5t-52 -112.5t-240 -276.5z" />
    <glyph glyph-name="dagger" unicode="&#x2020;" horiz-adv-x="1200" 
d="M809 1300h410l-23 -133h-412l-129 -737h-159l129 737h-406l23 133h407l60 338h159z" />
    <glyph glyph-name="daggerdbl" unicode="&#x2021;" horiz-adv-x="1304" 
d="M1268 1300l-25 -133h-403l-52 -288h404l-23 -134h-401l-59 -335h-162l59 335h-405l20 134h408l51 288h-406l23 133h405l62 338h158l-60 -338h406z" />
    <glyph glyph-name="bullet" unicode="&#x2022;" horiz-adv-x="952" 
d="M487 430q-89 0 -148.5 53t-59.5 133q0 97 85 171.5t195 74.5q88 0 147.5 -51t59.5 -129q0 -96 -85 -174t-194 -78z" />
    <glyph glyph-name="ellipsis" unicode="&#x2026;" horiz-adv-x="1613" 
d="M225 -14q-51 0 -85 30t-34 74q0 57 47.5 99t110.5 42q50 0 83.5 -29t33.5 -73q0 -55 -47.5 -99t-108.5 -44zM649 -14q-51 0 -85 30t-34 74q0 57 47.5 99t110.5 42q50 0 83.5 -29t33.5 -73q0 -55 -47.5 -99t-108.5 -44zM1270 -14q-51 0 -85 30t-34 74q0 57 47.5 99
t110.5 42q50 0 83 -29t33 -73q0 -55 -47 -99t-108 -44z" />
    <glyph glyph-name="uni202F" unicode="&#x202f;" horiz-adv-x="483" 
 />
    <glyph glyph-name="perthousand" unicode="&#x2030;" horiz-adv-x="2856" 
d="M455 780q-124 0 -196.5 79t-72.5 216q0 115 51.5 219.5t145 170t205.5 65.5q123 0 195.5 -80.5t72.5 -218.5q0 -115 -51 -218.5t-144.5 -168t-205.5 -64.5zM319 0h-161l1624 1468h153zM471 897q63 0 119.5 49t88.5 125.5t32 157.5q0 86 -37 134t-103 48
q-96 0 -167.5 -102.5t-71.5 -229.5q0 -86 36.5 -134t102.5 -48zM1501 -29q-124 0 -196 79t-72 216q0 115 51 219.5t144.5 170t205.5 65.5q123 0 196 -80.5t73 -218.5q0 -115 -51.5 -218.5t-145 -168t-205.5 -64.5zM2335 -29q-124 0 -196.5 79t-72.5 216q0 115 51.5 219.5
t145 170t205.5 65.5q123 0 195.5 -80.5t72.5 -218.5q0 -115 -51 -218.5t-144.5 -168t-205.5 -64.5zM1518 88q63 0 119 49t88 125.5t32 157.5q0 86 -36.5 134t-102.5 48q-96 0 -168 -102.5t-72 -229.5q0 -86 37 -134t103 -48zM2351 88q63 0 119.5 49t88.5 125.5t32 157.5
q0 86 -37 134t-103 48q-96 0 -167.5 -102.5t-71.5 -229.5q0 -86 36.5 -134t102.5 -48z" />
    <glyph glyph-name="guilsinglleft" unicode="&#x2039;" horiz-adv-x="915" 
d="M680 164h-201l-344 405l2 9l488 405h200l-487 -405l-2 -9z" />
    <glyph glyph-name="guilsinglright" unicode="&#x203a;" horiz-adv-x="917" 
d="M694 469l-483 -305l-25 102l398 305l-64 109l-190 303l180 -100l276 -308z" />
    <glyph glyph-name="fraction" unicode="&#x2044;" horiz-adv-x="356" 
d="M-514 0h-162l1624 1468h154z" />
    <glyph glyph-name="uni205F" unicode="&#x205f;" horiz-adv-x="544" 
 />
    <glyph glyph-name="uni2070" unicode="&#x2070;" horiz-adv-x="833" 
d="M455 780q-124 0 -196.5 79t-72.5 216q0 115 51.5 219.5t145 170t205.5 65.5q123 0 195.5 -80.5t72.5 -218.5q0 -115 -51 -218.5t-144.5 -168t-205.5 -64.5zM471 897q63 0 119.5 49t88.5 125.5t32 157.5q0 86 -37 134t-103 48q-96 0 -167.5 -102.5t-71.5 -229.5
q0 -86 36.5 -134t102.5 -48z" />
    <glyph glyph-name="uni2074" unicode="&#x2074;" horiz-adv-x="792" 
d="M645 797h-133l29 153h-418l18 107l500 456h129l-80 -456h117l-16 -107h-117zM610 1350l-334 -293h281z" />
    <glyph glyph-name="uni2075" unicode="&#x2075;" horiz-adv-x="778" 
d="M416 780q-111 0 -191 42.5t-98 121.5l129 57q14 -52 64.5 -82t113.5 -30q86 0 144.5 48.5t58.5 113.5q0 53 -40 84.5t-105 31.5q-55 0 -101.5 -21.5t-75.5 -55.5l-110 28l168 395h442l-16 -104h-342l-99 -209q34 28 90 45t107 17q94 0 161.5 -49.5t67.5 -143.5
q0 -119 -108 -204t-260 -85z" />
    <glyph glyph-name="uni2076" unicode="&#x2076;" horiz-adv-x="811" 
d="M455 780q-132 0 -204.5 70.5t-72.5 198.5q0 120 63 230.5t174.5 180.5t241.5 70q140 0 207 -70l-86 -84q-51 43 -141 43q-109 0 -193 -67.5t-112 -188.5h4q31 46 98.5 73.5t134.5 27.5q100 0 173 -55t73 -146q0 -112 -105 -197.5t-255 -85.5zM477 887q81 0 143 50.5
t62 115.5q0 53 -43 87t-109 34q-81 0 -142.5 -49.5t-61.5 -114.5q0 -53 43.5 -88t107.5 -35z" />
    <glyph glyph-name="uni2077" unicode="&#x2077;" horiz-adv-x="673" 
d="M362 797h-145q23 138 139.5 318t274.5 296h-441l17 109h600l-16 -111q-111 -73 -206 -184.5t-151 -223t-72 -204.5z" />
    <glyph glyph-name="uni2078" unicode="&#x2078;" horiz-adv-x="794" 
d="M436 780q-124 0 -200 52.5t-76 134.5q0 70 55.5 128.5t134.5 75.5l2 5q-98 43 -98 129q0 89 91.5 157t221.5 68q105 0 174.5 -48t69.5 -126q0 -59 -40 -108t-109 -72l-3 -5q60 -14 96 -54t36 -97q0 -98 -103 -169t-252 -71zM514 1219q68 0 119 37t51 85q0 40 -36.5 66.5
t-94.5 26.5q-68 0 -118 -35.5t-50 -83.5q0 -43 36 -69.5t93 -26.5zM457 891q79 0 134.5 42t55.5 101q0 46 -38.5 73.5t-106.5 27.5q-84 0 -140.5 -39.5t-56.5 -96.5q0 -49 42 -78.5t110 -29.5z" />
    <glyph glyph-name="uni2079" unicode="&#x2079;" horiz-adv-x="821" 
d="M403 780q-73 0 -141 25.5t-110 77.5l90 82q67 -78 180 -78q109 0 179.5 74t92.5 186q-35 -51 -102.5 -79t-136.5 -28q-103 0 -173.5 55t-70.5 148q0 117 109 202t262 85q129 0 197.5 -70t68.5 -203q0 -124 -59 -233.5t-162 -176.5t-224 -67zM492 1128q84 0 147 55t63 124
q0 55 -43 87.5t-108 32.5q-84 0 -145.5 -52t-61.5 -122q0 -54 41 -89.5t107 -35.5z" />
    <glyph glyph-name="uni2080" unicode="&#x2080;" horiz-adv-x="833" 
d="M266 -285q-124 0 -196 79t-72 216q0 115 51 219.5t144.5 170t205.5 65.5q123 0 196 -80.5t73 -218.5q0 -115 -51.5 -218.5t-145 -168t-205.5 -64.5zM283 -168q63 0 119 49t88 125.5t32 157.5q0 86 -36.5 134t-102.5 48q-96 0 -168 -102.5t-72 -229.5q0 -87 37 -134.5
t103 -47.5z" />
    <glyph glyph-name="uni2081" unicode="&#x2081;" horiz-adv-x="534" 
d="M231 -270h-135l88 510q-88 -68 -200 -84l22 129q85 21 146.5 66t70.5 98h131z" />
    <glyph glyph-name="uni2082" unicode="&#x2082;" horiz-adv-x="765" 
d="M532 -270h-579l2 14q31 120 93.5 183t242.5 155q100 53 139 92q45 43 45 86q0 40 -35 65t-92 25q-77 0 -135.5 -44.5t-71.5 -117.5l-123 19q19 114 118 186t233 72q111 0 181.5 -51t70.5 -135q0 -44 -20 -84.5t-53 -71t-64.5 -51.5t-65.5 -37q-29 -16 -71 -37
t-65.5 -33.5t-51 -30.5t-46 -38.5t-32.5 -47.5h397z" />
    <glyph glyph-name="uni2083" unicode="&#x2083;" horiz-adv-x="778" 
d="M233 -285q-115 0 -193.5 45t-92.5 119l129 55q32 -112 174 -112q78 0 131 38.5t53 92.5q0 96 -160 96h-84l13 92h90q76 0 128 35t52 88q0 41 -37.5 65.5t-95.5 24.5q-67 0 -116 -30.5t-68 -85.5l-123 24q29 89 123.5 146t210.5 57q104 0 175.5 -45.5t71.5 -120.5
q0 -63 -49 -118t-121 -70v-2q60 -9 99 -48t39 -96q0 -100 -102.5 -175t-246.5 -75z" />
    <glyph glyph-name="uni2084" unicode="&#x2084;" horiz-adv-x="792" 
d="M457 -270h-133l28 155h-418l17 107l502 457h129l-80 -457h116l-16 -107h-117zM422 285l-334 -293h281z" />
    <glyph glyph-name="uni2085" unicode="&#x2085;" horiz-adv-x="778" 
d="M227 -285q-111 0 -190.5 42.5t-97.5 121.5l129 58q14 -53 64.5 -83t113.5 -30q86 0 144.5 48.5t58.5 113.5q0 53 -40.5 84.5t-105.5 31.5q-54 0 -100.5 -21.5t-75.5 -55.5l-111 28l168 396h443l-17 -105h-342l-98 -209q34 28 90 45t107 17q94 0 161.5 -49.5t67.5 -143.5
q0 -120 -108.5 -204.5t-260.5 -84.5z" />
    <glyph glyph-name="uni2086" unicode="&#x2086;" horiz-adv-x="811" 
d="M266 -285q-132 0 -204 70.5t-72 198.5q0 120 63 230.5t174.5 180.5t241.5 70q140 0 207 -70l-86 -84q-51 43 -141 43q-109 0 -193.5 -67.5t-112.5 -188.5h4q31 45 98.5 73t135.5 28q100 0 173 -55t73 -146q0 -113 -105 -198t-256 -85zM289 -178q81 0 143 50.5t62 115.5
q0 53 -43 87t-109 34q-82 0 -143.5 -50t-61.5 -116q0 -52 44 -86.5t108 -34.5z" />
    <glyph glyph-name="uni2087" unicode="&#x2087;" horiz-adv-x="673" 
d="M174 -270h-145q23 139 139 319.5t274 296.5h-440l16 109h600l-16 -111q-111 -73 -205.5 -184.5t-150.5 -223.5t-72 -206z" />
    <glyph glyph-name="uni2088" unicode="&#x2088;" horiz-adv-x="794" 
d="M248 -285q-124 0 -200.5 51.5t-76.5 133.5q0 71 56 129.5t135 76.5l2 5q-98 43 -98 129q0 89 91.5 157t221.5 68q105 0 174.5 -48t69.5 -126q0 -59 -40.5 -108t-109.5 -72l-2 -5q60 -14 95.5 -54t35.5 -97q0 -98 -102.5 -169t-251.5 -71zM326 154q68 0 119 37t51 85
q0 40 -36.5 66.5t-94.5 26.5q-68 0 -118 -35.5t-50 -83.5q0 -43 36 -69.5t93 -26.5zM268 -174q80 0 135.5 41.5t55.5 101.5q0 46 -39 73.5t-107 27.5q-84 0 -140 -39.5t-56 -96.5q0 -49 41.5 -78.5t109.5 -29.5z" />
    <glyph glyph-name="uni2089" unicode="&#x2089;" horiz-adv-x="821" 
d="M215 -285q-74 0 -142.5 25t-109.5 78l90 82q67 -80 180 -80q109 0 180 75t93 187q-35 -51 -103 -79t-137 -28q-103 0 -173 55t-70 148q0 118 108.5 202.5t261.5 84.5q129 0 197.5 -69.5t68.5 -202.5q0 -124 -58.5 -234t-161.5 -177t-224 -67zM303 63q84 0 147.5 55
t63.5 124q0 55 -43.5 87.5t-108.5 32.5q-84 0 -145 -52t-61 -122q0 -55 41 -90t106 -35z" />
    <glyph glyph-name="Euro" unicode="&#x20ac;" horiz-adv-x="1953" 
d="M1417 1436q-255 0 -450.5 -121.5t-294.5 -319.5h798l-18 -110h-825q-37 -119 -37 -234h819l-18 -110h-795q64 -422 621 -422q114 0 222 28t234 99l96 -117q-254 -164 -600 -164q-331 0 -530.5 152.5t-228.5 423.5h-271l19 110h248q3 125 36 234h-241l18 110h264
q55 126 146.5 233t212.5 188t277.5 127t330.5 46q338 0 528 -164l-145 -118q-153 129 -416 129z" />
    <glyph glyph-name="trademark" unicode="&#x2122;" horiz-adv-x="1875" 
d="M545 936h-123l104 580h-266l16 100h650l-17 -100h-262zM1067 936h-121l119 680h123q28 -90 88.5 -267t85.5 -253q70 98 197.5 283.5t162.5 236.5h123l-121 -680h-122l79 446q-26 -38 -56.5 -86.5t-79 -118t-165.5 -229.5h-88q-20 58 -49 153t-94 285z" />
    <glyph glyph-name="oneeighth" unicode="&#x215b;" horiz-adv-x="1685" 
d="M420 797h-135l88 508q-88 -68 -199 -84l21 129q86 21 147 65.5t70 97.5h131zM20 0h-161l1624 1468h153zM1184 -29q-124 0 -200.5 52.5t-76.5 134.5q0 69 56 127.5t135 76.5l2 5q-99 44 -99 129q0 88 91.5 156.5t222.5 68.5q105 0 174.5 -48t69.5 -126q0 -59 -40.5 -108
t-109.5 -72l-2 -5q60 -14 95.5 -54t35.5 -97q0 -98 -102.5 -169t-251.5 -71zM1262 410q68 0 119 37t51 85q0 40 -37 66.5t-95 26.5q-68 0 -117.5 -35.5t-49.5 -83.5q0 -43 36 -69.5t93 -26.5zM1204 82q79 0 135 42t56 101q0 46 -39 73.5t-107 27.5q-84 0 -140 -39.5
t-56 -96.5q0 -49 41.5 -78.5t109.5 -29.5z" />
    <glyph glyph-name="threeeighths" unicode="&#x215c;" horiz-adv-x="1929" 
d="M422 780q-115 0 -193 45.5t-92 118.5l127 55q15 -53 59.5 -82.5t114.5 -29.5q78 0 131.5 38.5t53.5 92.5q0 96 -160 96h-84l12 92h90q76 0 128.5 35t52.5 88q0 41 -38 65.5t-96 24.5q-67 0 -116 -30.5t-68 -85.5l-123 24q29 89 123.5 146t210.5 57q104 0 176 -45.5
t72 -120.5q0 -63 -49 -118t-121 -70v-2q60 -9 98.5 -47.5t38.5 -94.5q0 -100 -102 -176t-246 -76zM264 0h-162l1624 1468h154zM1427 -29q-124 0 -200 52.5t-76 134.5q0 70 55.5 128.5t134.5 75.5l2 5q-98 43 -98 129q0 88 91.5 156.5t222.5 68.5q105 0 174 -48t69 -126
q0 -59 -40 -108t-109 -72l-2 -5q60 -14 95.5 -54t35.5 -97q0 -98 -103 -169t-252 -71zM1505 410q68 0 119 37t51 85q0 40 -36.5 66.5t-94.5 26.5q-68 0 -118 -35.5t-50 -83.5q0 -43 36 -69.5t93 -26.5zM1448 82q79 0 134.5 42t55.5 101q0 46 -38.5 73.5t-106.5 27.5
q-84 0 -140.5 -39.5t-56.5 -96.5q0 -49 42 -78.5t110 -29.5z" />
    <glyph glyph-name="fiveeighths" unicode="&#x215d;" horiz-adv-x="1929" 
d="M416 780q-111 0 -191 42.5t-98 121.5l129 57q14 -52 64.5 -82t113.5 -30q86 0 144.5 48.5t58.5 113.5q0 53 -40 84.5t-105 31.5q-55 0 -101.5 -21.5t-75.5 -55.5l-110 28l168 395h442l-16 -104h-342l-99 -209q34 28 90 45t107 17q94 0 161.5 -49.5t67.5 -143.5
q0 -119 -108 -204t-260 -85zM264 0h-162l1624 1468h154zM1427 -29q-124 0 -200 52.5t-76 134.5q0 70 55.5 128.5t134.5 75.5l2 5q-98 43 -98 129q0 88 91.5 156.5t222.5 68.5q105 0 174 -48t69 -126q0 -59 -40 -108t-109 -72l-2 -5q60 -14 95.5 -54t35.5 -97
q0 -98 -103 -169t-252 -71zM1505 410q68 0 119 37t51 85q0 40 -36.5 66.5t-94.5 26.5q-68 0 -118 -35.5t-50 -83.5q0 -43 36 -69.5t93 -26.5zM1448 82q79 0 134.5 42t55.5 101q0 46 -38.5 73.5t-106.5 27.5q-84 0 -140.5 -39.5t-56.5 -96.5q0 -49 42 -78.5t110 -29.5z" />
    <glyph glyph-name="seveneighths" unicode="&#x215e;" horiz-adv-x="1824" 
d="M362 797h-145q23 138 139.5 318t274.5 296h-441l17 109h600l-16 -111q-111 -73 -206 -184.5t-151 -223t-72 -204.5zM160 0h-162l1624 1468h154zM1323 -29q-124 0 -200 52.5t-76 134.5q0 70 55.5 128.5t134.5 75.5l2 5q-98 43 -98 129q0 89 91.5 157t221.5 68
q105 0 174.5 -48t69.5 -126q0 -59 -40.5 -108t-109.5 -72l-2 -5q60 -14 95.5 -54t35.5 -97q0 -98 -102.5 -169t-251.5 -71zM1401 410q68 0 119 37t51 85q0 40 -36.5 66.5t-94.5 26.5q-68 0 -118 -35.5t-50 -83.5q0 -43 36 -69.5t93 -26.5zM1343 82q79 0 135 42t56 101
q0 46 -38.5 73.5t-106.5 27.5q-84 0 -140.5 -39.5t-56.5 -96.5q0 -49 41.5 -78.5t109.5 -29.5z" />
    <glyph glyph-name="arrowleft" unicode="&#x2190;" horiz-adv-x="1705" 
d="M416 715h1169l-22 -142h-1170l287 -337h-191l-335 405l2 8l479 406h190z" />
    <glyph glyph-name="arrowup" unicode="&#x2191;" horiz-adv-x="1196" 
d="M715 1202l428 -340l-29 -168l-360 293l-172 -967h-158l172 967l-465 -293l29 168l545 340h10z" />
    <glyph glyph-name="arrowright" unicode="&#x2192;" horiz-adv-x="1699" 
d="M1055 1055h190l336 -406l-2 -8l-479 -405h-191l406 337h-1165l24 142h1169z" />
    <glyph glyph-name="arrowdown" unicode="&#x2193;" horiz-adv-x="1200" 
d="M793 1202l-170 -964l462 292l-28 -170l-547 -340h-8l-428 340l28 170l363 -294l170 966h158z" />
    <glyph glyph-name="arrowboth" unicode="&#x2194;" horiz-adv-x="2134" 
d="M674 233h-191l-336 406l3 8l479 406h190l-418 -344h1383l-295 344h190l336 -406l-2 -8l-479 -406h-191l416 340h-1376z" />
    <glyph glyph-name="arrowupdn" unicode="&#x2195;" horiz-adv-x="1302" 
d="M559 4h-8l-428 330l27 160l362 -279l176 961l-467 -281l29 162l545 329h8l430 -329l-29 -162l-358 281l-178 -959l465 277l-27 -160z" />
    <glyph glyph-name="uni2196" unicode="&#x2196;" horiz-adv-x="1464" 
d="M647 848l631 -752l-135 -78l-633 750l-166 -434l-108 133l200 508l8 4l643 -21l109 -133z" />
    <glyph glyph-name="uni2197" unicode="&#x2197;" horiz-adv-x="1345" 
d="M926 975l198 -508l-108 -133l-164 436l-633 -752l-137 78l631 752l-549 -23l110 133l641 21z" />
    <glyph glyph-name="uni2198" unicode="&#x2198;" horiz-adv-x="1472" 
d="M969 453l166 434l110 -133l-201 -508l-8 -4l-643 20l-108 133l544 -20l-628 749l137 78z" />
    <glyph glyph-name="uni2199" unicode="&#x2199;" horiz-adv-x="1347" 
d="M1145 1202l135 -78l-629 -749l547 20l-111 -133l-641 -20l-8 4l-200 508l108 133l166 -434z" />
    <glyph glyph-name="emptyset" unicode="&#x2205;" horiz-adv-x="1712" 
d="M1591 1196l-180 -176q156 -140 156 -358q0 -135 -63 -262.5t-170.5 -223t-260.5 -153.5t-323 -58q-196 0 -342 76l-183 -178l-102 71l182 177q-155 139 -155 360q0 136 62.5 263.5t169.5 222.5t259.5 152.5t321.5 57.5q203 0 348 -77l180 176zM324 492q0 -156 106 -259
l756 736q-105 51 -244 51q-126 0 -241.5 -44t-197.5 -117t-130.5 -169.5t-48.5 -197.5zM776 113q127 0 242 44t196 116.5t129 169t48 198.5q0 156 -105 258l-754 -735q108 -51 244 -51z" />
    <glyph glyph-name="minus" unicode="&#x2212;" horiz-adv-x="1198" 
d="M1038 559h-876l22 133h875z" />
    <glyph glyph-name="infinity" unicode="&#x221e;" horiz-adv-x="2211" 
d="M543 287q-167 0 -271 81t-104 210q0 102 69 192t183 142.5t242 52.5q84 0 158.5 -29.5t140.5 -79.5t169 -147q203 143 323 199.5t241 56.5q159 0 264.5 -79.5t105.5 -211.5q0 -101 -65 -190t-178 -143t-246 -54q-125 0 -222.5 55.5t-248.5 198.5q-202 -143 -319 -198.5
t-242 -55.5zM551 408q50 0 95 9.5t98.5 36t82 43t100 64t97.5 64.5q-20 17 -64 56t-62.5 54.5t-55 41.5t-63 36.5t-65 19.5t-79.5 9q-131 0 -220 -73t-89 -177q0 -87 60.5 -135.5t164.5 -48.5zM1602 410q130 0 217.5 72t87.5 175q0 86 -60 135.5t-164 49.5q-42 0 -84.5 -9.5
t-71.5 -18.5t-79 -37.5t-69.5 -40.5t-83.5 -55.5t-83 -55.5q16 -14 62.5 -54.5t63 -54t55.5 -40.5t65 -37t64.5 -19.5t79.5 -9.5z" />
    <glyph glyph-name="approxequal" unicode="&#x2248;" horiz-adv-x="1273" 
d="M362 717h-149q15 86 68 148t119.5 90t138.5 28q50 0 91 -14t69 -33.5t53.5 -39.5t56 -34t65.5 -14q61 0 96.5 38.5t45.5 94.5h147q-22 -130 -106.5 -198t-198.5 -68q-53 0 -95.5 14t-70.5 34.5t-53 40.5t-56 34t-67 14q-64 0 -104 -39t-50 -96zM289 291h-150
q22 126 117 196t209 70q50 0 91 -14t68.5 -33.5t52.5 -39.5t56 -34t66 -14q60 0 95.5 38t47.5 97h148q-22 -131 -106.5 -199.5t-199.5 -68.5q-52 0 -94.5 14t-70.5 34t-53.5 40.5t-56.5 34.5t-67 14q-64 0 -103.5 -39t-49.5 -96z" />
    <glyph glyph-name="notequal" unicode="&#x2260;" horiz-adv-x="1257" 
d="M1124 899l-22 -135h-297l-180 -287h426l-21 -135h-479l-111 -180h-143l113 180h-260l20 135h313l179 287h-441l23 135h493l107 168h141l-104 -168h243z" />
    <glyph glyph-name="lessequal" unicode="&#x2264;" horiz-adv-x="1241" 
d="M1012 334h-862l18 117h567l-534 178l20 137l897 178l-22 -129l-697 -135l633 -225z" />
    <glyph glyph-name="greaterequal" unicode="&#x2265;" horiz-adv-x="1245" 
d="M1020 334h-864l18 121l711 225l-645 135l18 129l834 -178l-23 -137l-598 -178h567z" />
    <glyph glyph-name="lozenge" unicode="&#x25ca;" horiz-adv-x="1390" 
d="M651 0h-108l-377 694l622 692h109l375 -692zM338 694l280 -516h11l469 516l-281 516h-6z" />
    <glyph glyph-name="A.ss01" horiz-adv-x="1822" 
d="M129 0h-192l1013 1597h289l449 -1597h-191q-105 387 -145 541h-877q-75 -119 -196.5 -308t-149.5 -233zM555 690h764q-23 84 -56 198t-66 233t-77 288h-100z" />
    <glyph glyph-name="Aacute.ss01" horiz-adv-x="1822" 
d="M1630 2050l-463 -328h-155l370 328h248zM129 0h-192l1013 1597h289l449 -1597h-191q-105 387 -145 541h-877q-75 -119 -196.5 -308t-149.5 -233zM555 690h764q-23 84 -56 198t-66 233t-77 288h-100z" />
    <glyph glyph-name="Abreve.ss01" horiz-adv-x="1822" 
d="M1114 1724q-100 0 -180.5 29t-129 76t-71.5 105.5t-16 119.5h151q-8 -80 67 -143.5t198 -63.5t220 63t120 144h151q-28 -129 -170 -229.5t-340 -100.5zM129 0h-192l1013 1597h289l449 -1597h-191q-105 387 -145 541h-877q-75 -119 -196.5 -308t-149.5 -233zM555 690h764
q-23 84 -56 198t-66 233t-77 288h-100z" />
    <glyph glyph-name="Acircumflex.ss01" horiz-adv-x="1822" 
d="M1272 2036l270 -314h-158q-116 98 -231 211q-16 -11 -51 -37t-48 -35t-45 -31.5t-70 -47t-95 -60.5h-158l377 314h209zM129 0h-192l1013 1597h289l449 -1597h-191q-105 387 -145 541h-877q-75 -119 -196.5 -308t-149.5 -233zM555 690h764q-23 84 -56 198t-66 233t-77 288
h-100z" />
    <glyph glyph-name="Adieresis.ss01" horiz-adv-x="1822" 
d="M889 1780q-50 0 -82.5 28t-32.5 72q0 52 46 92.5t106 40.5q47 0 78.5 -28t31.5 -68q0 -54 -43.5 -95.5t-103.5 -41.5zM1366 1780q-50 0 -82.5 28t-32.5 70q0 55 45.5 95t106.5 40q47 0 80 -28.5t33 -69.5q0 -53 -45 -94t-105 -41zM129 0h-192l1013 1597h289l449 -1597
h-191q-105 387 -145 541h-877q-75 -119 -196.5 -308t-149.5 -233zM555 690h764q-23 84 -56 198t-66 233t-77 288h-100z" />
    <glyph glyph-name="Agrave.ss01" horiz-adv-x="1822" 
d="M1227 1722h-156l-348 328h250zM129 0h-192l1013 1597h289l449 -1597h-191q-105 387 -145 541h-877q-75 -119 -196.5 -308t-149.5 -233zM555 690h764q-23 84 -56 198t-66 233t-77 288h-100z" />
    <glyph glyph-name="Amacron.ss01" horiz-adv-x="1822" 
d="M1540 1821h-809l23 129h805zM129 0h-192l1013 1597h289l449 -1597h-191q-105 387 -145 541h-877q-75 -119 -196.5 -308t-149.5 -233zM555 690h764q-23 84 -56 198t-66 233t-77 288h-100z" />
    <glyph glyph-name="Aogonek.ss01" horiz-adv-x="1822" 
d="M1589 -354q50 0 111 12l-19 -107q-69 -14 -125 -14q-127 0 -208.5 52t-81.5 147q0 47 21.5 89.5t59 75t75 56t81.5 43.5h-6q-105 387 -145 541h-877q-75 -119 -196.5 -308t-149.5 -233h-192l1013 1597h289l449 -1597h-37q-101 -34 -175.5 -93.5t-74.5 -131.5
q0 -58 52.5 -93.5t135.5 -35.5zM555 690h764q-23 84 -56 198t-66 233t-77 288h-100z" />
    <glyph glyph-name="Aring.ss01" horiz-adv-x="1822" 
d="M1112 1716q-104 0 -169.5 53t-65.5 138q0 102 93 179t222 77q104 0 169.5 -54t65.5 -139q0 -101 -92.5 -177.5t-222.5 -76.5zM1130 1819q73 0 125 41t52 100q0 45 -38 71.5t-95 26.5q-75 0 -126 -40t-51 -99q0 -46 37.5 -73t95.5 -27zM129 0h-192l1013 1597h289
l449 -1597h-191q-105 387 -145 541h-877q-75 -119 -196.5 -308t-149.5 -233zM555 690h764q-23 84 -56 198t-66 233t-77 288h-100z" />
    <glyph glyph-name="Atilde.ss01" horiz-adv-x="1822" 
d="M1319 1745q-59 0 -96.5 17.5t-81.5 54.5l-45 32q-21 17 -31.5 24.5t-33 16t-46.5 8.5q-56 0 -96.5 -38.5t-52.5 -98.5h-127q22 115 105.5 186.5t193.5 71.5q90 0 166 -65l47 -35q60 -51 118 -51q54 0 93 38.5t51 98.5h129q-22 -121 -100 -190.5t-193 -69.5zM129 0h-192
l1013 1597h289l449 -1597h-191q-105 387 -145 541h-877q-75 -119 -196.5 -308t-149.5 -233zM555 690h764q-23 84 -56 198t-66 233t-77 288h-100z" />
    <glyph glyph-name="B.ss01" horiz-adv-x="1751" 
d="M930 0h-772l282 1597h690q254 0 396.5 -100t142.5 -260q0 -145 -115.5 -263.5t-296.5 -158.5v-4q169 -26 257 -112t88 -214q0 -129 -88 -240t-243.5 -178t-340.5 -67zM489 877h486q225 0 364.5 91t139.5 224q0 120 -114.5 187t-303.5 67h-465q-100 -545 -107 -569z
M362 152h537q231 0 371.5 92.5t140.5 226.5q0 122 -115.5 191t-306.5 69h-520q-81 -437 -107 -579z" />
    <glyph glyph-name="C.ss01" horiz-adv-x="2062" 
d="M993 -35q-381 0 -609 189.5t-228 507.5q0 125 39.5 247.5t110 228.5t173 197.5t224.5 156.5t269 101.5t302 36.5q136 0 260.5 -30t228.5 -87t177 -148t98 -206l-174 -61q-52 176 -219.5 276.5t-397.5 100.5q-187 0 -356 -67.5t-287 -178.5t-187 -256t-69 -297
q0 -113 38 -206.5t102.5 -157t152.5 -107.5t186 -64t205 -20q148 0 280 37.5t233 104t177 149t127 180.5l154 -53q-139 -260 -399 -417t-611 -157z" />
    <glyph glyph-name="D.ss01" horiz-adv-x="1976" 
d="M856 0h-698l282 1597h676q393 0 589 -170t196 -475q0 -147 -47 -287.5t-138 -260.5t-216 -210.5t-291.5 -142t-352.5 -51.5zM362 152h527q183 0 340 64t261.5 170.5t163 244.5t58.5 287q0 528 -659 528h-457q-15 -85 -79 -430.5t-155 -863.5z" />
    <glyph glyph-name="E.ss01" horiz-adv-x="1611" 
d="M1389 0h-1231l282 1597h1207l-23 -151h-1028q-5 -26 -31.5 -163t-70.5 -386h979l-23 -156h-979q-18 -94 -109 -585h1051z" />
    <glyph glyph-name="F.ss01" horiz-adv-x="1529" 
d="M1624 1597l-25 -157h-1005l-98 -559h950l-23 -158h-956l-129 -723h-180l282 1597h1184z" />
    <glyph glyph-name="G.ss01" horiz-adv-x="2101" 
d="M987 -35q-382 0 -607.5 186.5t-225.5 503.5q0 189 87 367t235 312t357 215t439 81q136 0 261 -30t228.5 -87.5t176 -148.5t98.5 -205l-172 -61q-55 177 -222.5 277t-396.5 100q-149 0 -288 -43t-248 -119t-191 -175t-126 -217.5t-44 -240.5q0 -261 184 -410t508 -149
q311 0 518.5 140.5t276.5 383.5h-672l21 141h844l-11 -53q-35 -194 -134.5 -344.5t-241 -241t-307.5 -136.5t-347 -46z" />
    <glyph glyph-name="H.ss01" horiz-adv-x="1986" 
d="M1606 881l127 716h180l-283 -1597h-180l129 725h-1112l-129 -725h-180l282 1597h181l-127 -716h1112z" />
    <glyph glyph-name="I.ss01" horiz-adv-x="1318" 
d="M1128 0h-1136l24 152h480l235 1294h-491l22 151h1161l-24 -151h-490l-235 -1294h479z" />
    <glyph glyph-name="Iacute.ss01" horiz-adv-x="1318" 
d="M1341 2050l-462 -330h-156l371 330h247zM1128 0h-1136l24 152h480l235 1294h-491l22 151h1161l-24 -151h-490l-235 -1294h479z" />
    <glyph glyph-name="Icircumflex.ss01" horiz-adv-x="1318" 
d="M1026 2036l270 -314h-157q-123 105 -232 211q-16 -11 -51 -37t-48 -35t-45 -31.5t-70 -47t-95 -60.5h-158l377 314h209zM1128 0h-1136l24 152h480l235 1294h-491l22 151h1161l-24 -151h-490l-235 -1294h479z" />
    <glyph glyph-name="Idieresis.ss01" horiz-adv-x="1318" 
d="M641 1780q-50 0 -82.5 28t-32.5 72q0 52 46 92.5t106 40.5q47 0 78.5 -28t31.5 -68q0 -54 -43.5 -95.5t-103.5 -41.5zM1118 1780q-50 0 -82 28t-32 70q0 55 45.5 95t105.5 40q47 0 80 -28.5t33 -69.5q0 -53 -45 -94t-105 -41zM1128 0h-1136l24 152h480l235 1294h-491
l22 151h1161l-24 -151h-490l-235 -1294h479z" />
    <glyph glyph-name="Idotaccent.ss01" horiz-adv-x="1318" 
d="M874 1782q-51 0 -84.5 30t-33.5 74q0 57 48.5 98t113.5 41q51 0 84.5 -29t33.5 -73q0 -55 -49.5 -98t-112.5 -43zM1128 0h-1136l24 152h480l235 1294h-491l22 151h1161l-24 -151h-490l-235 -1294h479z" />
    <glyph glyph-name="Igrave.ss01" horiz-adv-x="1318" 
d="M981 1722h-156l-348 328h250zM1128 0h-1136l24 152h480l235 1294h-491l22 151h1161l-24 -151h-490l-235 -1294h479z" />
    <glyph glyph-name="Imacron.ss01" horiz-adv-x="1318" 
d="M1292 1821h-809l23 129h805zM1128 0h-1136l24 152h480l235 1294h-491l22 151h1161l-24 -151h-490l-235 -1294h479z" />
    <glyph glyph-name="J.ss01" horiz-adv-x="1433" 
d="M549 -35q-62 0 -119.5 8.5t-115 27t-103.5 47.5t-84.5 71t-58.5 98t-25.5 127t14.5 158l6 28l173 23l-7 -29q-15 -81 -11.5 -142.5t29.5 -106.5t60 -75t80 -48t88 -25.5t86 -7.5q178 0 296.5 108.5t150.5 284.5l170 934h-662l27 151h839l-184 -1044q-6 -33 -10.5 -54
t-18 -70t-29 -84.5t-44 -87t-61 -89t-82 -78t-106.5 -66t-133.5 -42.5t-164.5 -17z" />
    <glyph glyph-name="K.ss01" horiz-adv-x="1634" 
d="M338 0h-180l282 1597h181l-132 -714h7q349 235 1065 714h237q-131 -90 -346.5 -237t-415 -284t-413.5 -288q113 -96 302.5 -256.5t340 -288t288.5 -243.5h-249q-95 76 -158.5 131.5t-102 90t-183.5 149.5t-400 311z" />
    <glyph glyph-name="L.ss01" horiz-adv-x="1443" 
d="M621 1597l-256 -1441h976l-24 -156h-1159l282 1597h181z" />
    <glyph glyph-name="M.ss01" horiz-adv-x="2314" 
d="M2030 1597h211l-283 -1597h-180l237 1313l-819 -975h-152l-466 973l-238 -1311h-182l282 1597h213q197 -395 496 -1048h4q638 776 877 1048z" />
    <glyph glyph-name="N.ss01" horiz-adv-x="2025" 
d="M338 0h-180l282 1597h256l785 -1316h51l242 1316h178l-283 -1597h-252l-784 1305h-58z" />
    <glyph glyph-name="O.ss01" horiz-adv-x="2172" 
d="M983 -35q-240 0 -429 89.5t-294.5 250.5t-105.5 365q0 148 57.5 291.5t162.5 263t243 211t309 143t350 51.5t333 -52.5t262.5 -145t170 -224t61.5 -284.5q0 -147 -58 -291t-163 -263t-243 -211t-308.5 -143t-347.5 -51zM1010 121q177 0 343.5 66t287 173.5t193.5 251
t73 293.5q0 249 -184.5 409.5t-471.5 160.5q-175 0 -341.5 -65.5t-289.5 -173t-197.5 -252.5t-74.5 -296q0 -164 85.5 -294t236.5 -201.5t340 -71.5z" />
    <glyph glyph-name="P.ss01" horiz-adv-x="1638" 
d="M440 1597h676q28 0 53.5 -1t85 -9t108.5 -22t108 -44t99.5 -71t68.5 -107.5t28 -148.5q0 -111 -51.5 -214.5t-140.5 -181.5t-217.5 -124.5t-274.5 -46.5h-534l-111 -627h-180zM475 782h477q229 0 377 104.5t148 270.5q0 146 -111 217.5t-309 71.5h-463z" />
    <glyph glyph-name="Q.ss01" horiz-adv-x="2187" 
d="M778 -14l-274 -222v-4h1227l-23 -143h-1583l493 410q-217 77 -337.5 243t-120.5 394q0 149 54 293t156 264.5t238 212.5t311 144t365 52q248 0 435.5 -86t289.5 -245t102 -369q0 -150 -54.5 -293.5t-156 -263.5t-238 -211.5t-310.5 -143t-363 -51.5q-107 0 -211 19z
M346 684q0 -199 114 -338t312 -194l481 399l113 -94q-125 -102 -416 -334q20 -2 66 -2q189 0 359 66t288.5 175t188 253t69.5 296q0 256 -180.5 411t-478.5 155q-190 0 -361.5 -66t-292 -175.5t-191.5 -254t-71 -297.5z" />
    <glyph glyph-name="R.ss01" horiz-adv-x="1693" 
d="M981 631h-279l822 -631h-240l-823 631h-10l-113 -631h-180l282 1597h676q30 0 60.5 -1.5t89 -10t107.5 -23.5t106 -45.5t96 -72t65.5 -106.5t26.5 -146q0 -112 -52 -214.5t-141.5 -179t-218.5 -122t-274 -45.5zM1059 1456h-461l-125 -678h479q231 0 378 109.5t147 275.5
q0 141 -108.5 217t-309.5 76z" />
    <glyph glyph-name="S.ss01" horiz-adv-x="1581" 
d="M713 -35q-89 0 -172 15.5t-162.5 51t-141.5 88.5t-106 133.5t-59 180.5l174 55q27 -183 161.5 -276.5t335.5 -93.5q213 0 360.5 97.5t147.5 234.5q0 47 -20 84.5t-49.5 61.5t-75.5 44t-87 32t-94 26q-7 2 -11 3l-10 2.5t-11 2.5l-170 45q-37 10 -67 19t-73 24t-76.5 32
t-72 39.5t-66.5 51t-51.5 61.5t-36 75t-12.5 89q0 128 91 239.5t252.5 179.5t355.5 68q245 0 395.5 -106t177.5 -275l-170 -61q-30 134 -144.5 212.5t-293.5 78.5q-198 0 -334.5 -88.5t-136.5 -210.5q0 -37 14.5 -70t35 -57t55 -46.5t61 -36t69 -28.5t62.5 -21t55 -16
l178 -51q167 -46 229 -72q199 -83 227 -234q5 -27 5 -56q0 -100 -57 -195.5t-154 -168.5t-236 -118t-292 -45z" />
    <glyph glyph-name="U.ss01" horiz-adv-x="1873" 
d="M805 -35q-161 0 -282 48t-189 132t-92.5 197t-1.5 244l182 1011h178l-180 -1001q-41 -226 70 -351.5t352 -125.5q243 0 401.5 126.5t198.5 350.5l178 1001h180l-282 -1597h-175l35 195h-2q-194 -230 -571 -230z" />
    <glyph glyph-name="Uacute.ss01" horiz-adv-x="1873" 
d="M1419 2050l-463 -330h-155l368 330h250zM805 -35q-161 0 -282 48t-189 132t-92.5 197t-1.5 244l182 1011h178l-180 -1001q-41 -226 70 -351.5t352 -125.5q243 0 401.5 126.5t198.5 350.5l178 1001h180l-282 -1597h-175l35 195h-2q-194 -230 -571 -230z" />
    <glyph glyph-name="Ucircumflex.ss01" horiz-adv-x="1873" 
d="M1282 2036l270 -314h-157q-123 105 -232 211q-16 -11 -51 -37t-48 -35t-45 -31.5t-70 -47t-95 -60.5h-158l377 314h209zM805 -35q-161 0 -282 48t-189 132t-92.5 197t-1.5 244l182 1011h178l-180 -1001q-41 -226 70 -351.5t352 -125.5q243 0 401.5 126.5t198.5 350.5
l178 1001h180l-282 -1597h-175l35 195h-2q-194 -230 -571 -230z" />
    <glyph glyph-name="Udieresis.ss01" horiz-adv-x="1873" 
d="M899 1780q-50 0 -82.5 28t-32.5 72q0 52 46 92.5t106 40.5q47 0 79 -28t32 -68q0 -54 -44 -95.5t-104 -41.5zM1376 1780q-50 0 -82 28t-32 70q0 55 45.5 95t105.5 40q47 0 80 -28.5t33 -69.5q0 -53 -45 -94t-105 -41zM805 -35q-161 0 -282 48t-189 132t-92.5 197
t-1.5 244l182 1011h178l-180 -1001q-41 -226 70 -351.5t352 -125.5q243 0 401.5 126.5t198.5 350.5l178 1001h180l-282 -1597h-175l35 195h-2q-194 -230 -571 -230z" />
    <glyph glyph-name="Ugrave.ss01" horiz-adv-x="1873" 
d="M1237 1722h-156l-348 328h250zM805 -35q-161 0 -282 48t-189 132t-92.5 197t-1.5 244l182 1011h178l-180 -1001q-41 -226 70 -351.5t352 -125.5q243 0 401.5 126.5t198.5 350.5l178 1001h180l-282 -1597h-175l35 195h-2q-194 -230 -571 -230z" />
    <glyph glyph-name="Uhungarumlaut.ss01" horiz-adv-x="1873" 
d="M1360 2050l-393 -328h-152l311 328h234zM1751 2050l-412 -328h-153l334 328h231zM805 -35q-161 0 -282 48t-189 132t-92.5 197t-1.5 244l182 1011h178l-180 -1001q-41 -226 70 -351.5t352 -125.5q243 0 401.5 126.5t198.5 350.5l178 1001h180l-282 -1597h-175l35 195h-2
q-194 -230 -571 -230z" />
    <glyph glyph-name="Umacron.ss01" horiz-adv-x="1873" 
d="M1550 1821h-809l23 129h805zM805 -35q-161 0 -282 48t-189 132t-92.5 197t-1.5 244l182 1011h178l-180 -1001q-41 -226 70 -351.5t352 -125.5q243 0 401.5 126.5t198.5 350.5l178 1001h180l-282 -1597h-175l35 195h-2q-194 -230 -571 -230z" />
    <glyph glyph-name="Uogonek.ss01" horiz-adv-x="1873" 
d="M1253 -225q0 -58 53 -93.5t136 -35.5q49 0 110 12l-18 -107q-69 -14 -125 -14q-127 0 -209 52t-82 147q0 156 238 264h-13l35 195h-2q-194 -230 -571 -230q-161 0 -282 48t-189 132t-92.5 197t-1.5 244l182 1011h178l-180 -1001q-41 -226 70 -351.5t352 -125.5
q243 0 401.5 126.5t198.5 350.5l178 1001h180l-282 -1597h-15q-101 -34 -175.5 -93.5t-74.5 -131.5z" />
    <glyph glyph-name="Uring.ss01" horiz-adv-x="1873" 
d="M1122 1716q-104 0 -169.5 53t-65.5 138q0 102 93 179t222 77q104 0 170 -54t66 -139q0 -101 -93 -177.5t-223 -76.5zM1141 1819q73 0 124.5 41t51.5 100q0 45 -38 71.5t-95 26.5q-75 0 -125.5 -40t-50.5 -99q0 -46 37.5 -73t95.5 -27zM805 -35q-161 0 -282 48t-189 132
t-92.5 197t-1.5 244l182 1011h178l-180 -1001q-41 -226 70 -351.5t352 -125.5q243 0 401.5 126.5t198.5 350.5l178 1001h180l-282 -1597h-175l35 195h-2q-194 -230 -571 -230z" />
    <glyph glyph-name="V.ss01" horiz-adv-x="1818" 
d="M950 0h-284l-449 1597h191q36 -126 114 -424t275 -970h98q827 1304 885 1394h188z" />
    <glyph glyph-name="W.ss01" horiz-adv-x="2791" 
d="M782 0h-221l-334 1597h193l285 -1374h6l714 1374h328l205 -1374h6l776 1374h193l-899 -1597h-219l-201 1407h-105z" />
    <glyph glyph-name="Wacute.ss01" horiz-adv-x="2791" 
d="M2120 2050l-463 -328h-156l371 328h248zM782 0h-221l-334 1597h193l285 -1374h6l714 1374h328l205 -1374h6l776 1374h193l-899 -1597h-219l-201 1407h-105z" />
    <glyph glyph-name="Wcircumflex.ss01" horiz-adv-x="2791" 
d="M1761 2036l271 -314h-158q-123 105 -232 211q-16 -11 -51 -37t-48 -35t-45 -31.5t-70 -47t-95 -60.5h-157l376 314h209zM782 0h-221l-334 1597h193l285 -1374h6l714 1374h328l205 -1374h6l776 1374h193l-899 -1597h-219l-201 1407h-105z" />
    <glyph glyph-name="Wdieresis.ss01" horiz-adv-x="2791" 
d="M1376 1780q-50 0 -82 28t-32 72q0 53 45.5 93t105.5 40q47 0 79 -28t32 -68q0 -54 -44 -95.5t-104 -41.5zM1853 1780q-50 0 -82 28t-32 70q0 55 45.5 95t105.5 40q47 0 80 -28.5t33 -69.5q0 -53 -45 -94t-105 -41zM782 0h-221l-334 1597h193l285 -1374h6l714 1374h328
l205 -1374h6l776 1374h193l-899 -1597h-219l-201 1407h-105z" />
    <glyph glyph-name="Wgrave.ss01" horiz-adv-x="2791" 
d="M1714 1722h-155l-349 328h250zM782 0h-221l-334 1597h193l285 -1374h6l714 1374h328l205 -1374h6l776 1374h193l-899 -1597h-219l-201 1407h-105z" />
    <glyph glyph-name="X.ss01" horiz-adv-x="1689" 
d="M131 0h-201l793 811l4 20l-498 766h201q141 -220 432 -688h90q59 59 256 263t426 425h197l-766 -766l-4 -20l504 -811h-197q-137 217 -280 451.5t-162 275.5h-92q-61 -62 -244 -258t-459 -469z" />
    <glyph glyph-name="Y.ss01" horiz-adv-x="1669" 
d="M438 0h-186l522 588l-536 1009h194l455 -847h4l770 847h192z" />
    <glyph glyph-name="Yacute.ss01" horiz-adv-x="1669" 
d="M1538 2050l-463 -330h-155l368 330h250zM438 0h-186l522 588l-536 1009h194l455 -847h4l770 847h192z" />
    <glyph glyph-name="Ycircumflex.ss01" horiz-adv-x="1669" 
d="M1225 2036l270 -314h-158q-116 98 -231 211q-16 -11 -51 -37t-48 -35t-45 -31.5t-70 -47t-95 -60.5h-158l377 314h209zM438 0h-186l522 588l-536 1009h194l455 -847h4l770 847h192z" />
    <glyph glyph-name="Ydieresis.ss01" horiz-adv-x="1669" 
d="M842 1780q-50 0 -82.5 28t-32.5 72q0 52 46 92.5t106 40.5q47 0 78.5 -28t31.5 -68q0 -54 -43.5 -95.5t-103.5 -41.5zM1319 1780q-50 0 -82.5 28t-32.5 70q0 55 45.5 95t106.5 40q47 0 79.5 -28.5t32.5 -69.5q0 -53 -44.5 -94t-104.5 -41zM438 0h-186l522 588l-536 1009
h194l455 -847h4l770 847h192z" />
    <glyph glyph-name="Ygrave.ss01" horiz-adv-x="1669" 
d="M1180 1722h-156l-348 328h250zM438 0h-186l522 588l-536 1009h194l455 -847h4l770 847h192z" />
    <glyph glyph-name="Z.ss01" horiz-adv-x="1673" 
d="M1475 0h-1573l1575 1446h-1166l27 151h1491l-1567 -1441h1239z" />
    <glyph glyph-name="Zacute.ss01" horiz-adv-x="1673" 
d="M1550 2050l-463 -328h-155l371 328h247zM1475 0h-1573l1575 1446h-1166l27 151h1491l-1567 -1441h1239z" />
    <glyph glyph-name="Zcaron.ss01" horiz-adv-x="1673" 
d="M1356 2036h157l-374 -314h-213l-269 314h158q148 -129 234 -215q212 153 307 215zM1475 0h-1573l1575 1446h-1166l27 151h1491l-1567 -1441h1239z" />
    <glyph glyph-name="Zdotaccent.ss01" horiz-adv-x="1673" 
d="M1047 1782q-51 0 -85 30t-34 74q0 57 48.5 98t113.5 41q51 0 84.5 -29t33.5 -73q0 -55 -49 -98t-112 -43zM1475 0h-1573l1575 1446h-1166l27 151h1491l-1567 -1441h1239z" />
    <glyph glyph-name="Q.ss02" horiz-adv-x="2172" 
d="M2103 924q0 -174 -82 -342t-219.5 -297t-327.5 -214.5t-397 -101.5l-37 -207h658l-21 -145h-831l61 350q-220 14 -391 106.5t-266.5 248t-95.5 348.5q0 148 57.5 291.5t162.5 263t243 211t309 143t350 51.5t333 -52.5t262.5 -145t170 -224t61.5 -284.5zM348 688
q0 -231 163.5 -386t422.5 -177l82 469h170l-82 -469q163 17 311.5 88t256 176.5t171.5 240.5t64 275q0 249 -184.5 409.5t-471.5 160.5q-175 0 -341.5 -65.5t-289.5 -173t-197.5 -252.5t-74.5 -296z" />
    <glyph glyph-name="A.ss07" 
d="M1094 -315q-216 0 -398.5 58t-310.5 160.5t-200 249.5t-72 320q0 165 65 325t186 294t280.5 236.5t360.5 160t414 57.5q205 0 383.5 -54.5t312 -154t210.5 -250.5t77 -333q0 -140 -47 -276t-131 -253.5t-204.5 -217.5t-263.5 -171t-313.5 -111t-348.5 -40zM1257 1096
l-636 -963h131q40 55 120 174.5t99 147.5h479q10 -32 17.5 -60.5t24.5 -83.5t58 -178h133l-297 963h-129zM1419 559h-387q175 263 266 393q10 -34 29.5 -103t41 -137t50.5 -153z" />
    <glyph glyph-name="B.ss07" horiz-adv-x="2459" 
d="M1094 -315q-216 0 -398.5 58t-310.5 160.5t-200 249.5t-72 320q0 165 65 325t186 294t280.5 236.5t360.5 160t414 57.5q205 0 383.5 -54.5t312 -154t210.5 -250.5t77 -333q0 -140 -47 -276t-131 -253.5t-204.5 -217.5t-263.5 -171t-313.5 -111t-348.5 -40zM950 1096
l-170 -963h467q171 0 289.5 88.5t118.5 210.5q0 70 -45.5 121.5t-130.5 71.5q97 29 159 100t62 154q0 98 -92 157.5t-240 59.5h-418zM999 670l60 319h266q106 0 172 -37.5t66 -105.5q0 -74 -79.5 -125t-205.5 -51h-279zM1233 240h-309q32 189 61 327h297q106 0 174 -39
t68 -110q0 -76 -81.5 -127t-209.5 -51z" />
    <glyph glyph-name="C.ss07" 
d="M1094 -315q-216 0 -398.5 58t-310.5 160.5t-200 249.5t-72 320q0 165 65 325t186 294t280.5 236.5t360.5 160t414 57.5q205 0 383.5 -54.5t312 -154t210.5 -250.5t77 -333q0 -140 -47 -276t-131 -253.5t-204.5 -217.5t-263.5 -171t-313.5 -111t-348.5 -40zM1186 113
q201 0 362 93t250 261l-110 35q-60 -122 -184.5 -201.5t-293.5 -79.5q-79 0 -148.5 19t-126 56.5t-89.5 101t-33 145.5q0 89 40 173.5t108.5 149t167 103.5t208.5 39q138 0 233.5 -61t123.5 -165l123 41q-28 141 -160.5 217t-304.5 76q-137 0 -262.5 -48.5t-214.5 -129
t-142 -187.5t-53 -221q0 -190 138 -303.5t368 -113.5z" />
    <glyph glyph-name="D.ss07" 
d="M1094 -315q-216 0 -398.5 58t-310.5 160.5t-200 249.5t-72 320q0 165 65 325t186 294t280.5 236.5t360.5 160t414 57.5q205 0 383.5 -54.5t312 -154t210.5 -250.5t77 -333q0 -140 -47 -276t-131 -253.5t-204.5 -217.5t-263.5 -171t-313.5 -111t-348.5 -40zM905 1096
l-170 -963h426q141 0 261.5 48.5t200 129t124.5 184t45 214.5q0 187 -123 287t-352 100h-412zM1182 240h-303q14 76 39.5 229.5t95.5 519.5h260q383 0 383 -307q0 -185 -136 -313.5t-339 -128.5z" />
    <glyph glyph-name="E.ss07" 
d="M1094 -315q-216 0 -398.5 58t-310.5 160.5t-200 249.5t-72 320q0 165 65 325t186 294t280.5 236.5t360.5 160t414 57.5q205 0 383.5 -54.5t312 -154t210.5 -250.5t77 -333q0 -140 -47 -276t-131 -253.5t-204.5 -217.5t-263.5 -171t-313.5 -111t-348.5 -40zM975 1096
l-170 -963h749l17 109h-623q8 48 26.5 141.5t35.5 189.5h581l17 109h-582q9 39 12.5 59t5.5 34t12 70t27 144h611l18 107h-737z" />
    <glyph glyph-name="F.ss07" horiz-adv-x="2459" 
d="M1094 -315q-216 0 -398.5 58t-310.5 160.5t-200 249.5t-72 320q0 165 65 325t186 294t280.5 236.5t360.5 160t414 57.5q205 0 383.5 -54.5t312 -154t210.5 -250.5t77 -333q0 -140 -47 -276t-131 -253.5t-204.5 -217.5t-263.5 -171t-313.5 -111t-348.5 -40zM999 1096
l-170 -963h127l76 428h565l19 109h-567l59 317h596l18 109h-723z" />
    <glyph glyph-name="G.ss07" 
d="M1094 -315q-216 0 -398.5 58t-310.5 160.5t-200 249.5t-72 320q0 165 65 325t186 294t280.5 236.5t360.5 160t414 57.5q205 0 383.5 -54.5t312 -154t210.5 -250.5t77 -333q0 -140 -47 -276t-131 -253.5t-204.5 -217.5t-263.5 -171t-313.5 -111t-348.5 -40zM1171 113
q150 0 275.5 55t206.5 158l-31 -193h104l84 483h-520l-16 -100h395q-41 -131 -170 -213t-293 -82q-77 0 -145 19t-124.5 56.5t-90 101.5t-33.5 147q0 88 40.5 172.5t109 148.5t167 103t207.5 39q136 0 232.5 -60.5t124.5 -165.5l123 41q-28 141 -160.5 217t-304.5 76
q-137 0 -262.5 -49t-214.5 -129.5t-142 -188t-53 -221.5q0 -189 134 -302t357 -113z" />
    <glyph glyph-name="H.ss07" 
d="M1094 -315q-216 0 -398.5 58t-310.5 160.5t-200 249.5t-72 320q0 165 65 325t186 294t280.5 236.5t360.5 160t414 57.5q205 0 383.5 -54.5t312 -154t210.5 -250.5t77 -333q0 -140 -47 -276t-131 -253.5t-204.5 -217.5t-263.5 -171t-313.5 -111t-348.5 -40zM877 1096
l-170 -963h127l75 430h639l-75 -430h126l170 963h-127l-75 -424h-641l78 424h-127z" />
    <glyph glyph-name="I.ss07" 
d="M1094 -315q-216 0 -398.5 58t-310.5 160.5t-200 249.5t-72 320q0 165 65 325t186 294t280.5 236.5t360.5 160t414 57.5q205 0 383.5 -54.5t312 -154t210.5 -250.5t77 -333q0 -140 -47 -276t-131 -253.5t-204.5 -217.5t-263.5 -171t-313.5 -111t-348.5 -40zM1260 1096
l-170 -963h127l169 963h-126z" />
    <glyph glyph-name="J.ss07" 
d="M1094 -315q-216 0 -398.5 58t-310.5 160.5t-200 249.5t-72 320q0 165 65 325t186 294t280.5 236.5t360.5 160t414 57.5q205 0 383.5 -54.5t312 -154t210.5 -250.5t77 -333q0 -140 -47 -276t-131 -253.5t-204.5 -217.5t-263.5 -171t-313.5 -111t-348.5 -40zM1110 123
q68 0 125 16.5t95.5 40.5t69.5 62.5t48.5 70t32 76t19.5 68.5t11 59l103 590h-125l-109 -614q-6 -37 -13.5 -66.5t-26.5 -68.5t-44.5 -65t-70 -44.5t-101.5 -18.5q-44 0 -83 11.5t-71.5 36t-45.5 71t0 109.5l6 30l-123 -12l-6 -37q-15 -84 5.5 -147t68 -98.5t107 -52.5
t128.5 -17z" />
    <glyph glyph-name="K.ss07" horiz-adv-x="2459" 
d="M1094 -315q-216 0 -398.5 58t-310.5 160.5t-200 249.5t-72 320q0 165 65 325t186 294t280.5 236.5t360.5 160t414 57.5q205 0 383.5 -54.5t312 -154t210.5 -250.5t77 -333q0 -140 -47 -276t-131 -253.5t-204.5 -217.5t-263.5 -171t-313.5 -111t-348.5 -40zM956 1096
l-170 -963h127q9 54 58 328q29 21 87.5 65.5t78.5 59.5q38 -49 80 -106t102 -134.5t170 -212.5h153q-44 59 -115.5 149.5t-140.5 182.5t-147 209q64 49 254.5 196t296.5 226h-158q-476 -353 -639 -486l90 486h-127z" />
    <glyph glyph-name="L.ss07" 
d="M1094 -315q-216 0 -398.5 58t-310.5 160.5t-200 249.5t-72 320q0 165 65 325t186 294t280.5 236.5t360.5 160t414 57.5q205 0 383.5 -54.5t312 -154t210.5 -250.5t77 -333q0 -140 -47 -276t-131 -253.5t-204.5 -217.5t-263.5 -171t-313.5 -111t-348.5 -40zM1065 1096
l-170 -963h707l18 109h-582l154 854h-127z" />
    <glyph glyph-name="M.ss07" horiz-adv-x="2459" 
d="M1094 -315q-216 0 -398.5 58t-310.5 160.5t-200 249.5t-72 320q0 165 65 325t186 294t280.5 236.5t360.5 160t414 57.5q205 0 383.5 -54.5t312 -154t210.5 -250.5t77 -333q0 -140 -47 -276t-131 -253.5t-204.5 -217.5t-263.5 -171t-313.5 -111t-348.5 -40zM733 1096
l-170 -963h125l133 731q51 -139 150 -392.5t129 -338.5h106q228 314 545 735l-135 -735h129l170 963h-146q-241 -328 -591 -799q-133 366 -301 799h-144z" />
    <glyph glyph-name="N.ss07" 
d="M1094 -315q-216 0 -398.5 58t-310.5 160.5t-200 249.5t-72 320q0 165 65 325t186 294t280.5 236.5t360.5 160t414 57.5q205 0 383.5 -54.5t312 -154t210.5 -250.5t77 -333q0 -140 -47 -276t-131 -253.5t-204.5 -217.5t-263.5 -171t-313.5 -111t-348.5 -40zM879 1096
l-170 -963h127l137 764q88 -133 263 -386t257 -378h131l170 963h-125l-139 -770q-158 244 -520 770h-131z" />
    <glyph glyph-name="O.ss07" 
d="M1094 -315q-216 0 -398.5 58t-310.5 160.5t-200 249.5t-72 320q0 165 65 325t186 294t280.5 236.5t360.5 160t414 57.5q205 0 383.5 -54.5t312 -154t210.5 -250.5t77 -333q0 -140 -47 -276t-131 -253.5t-204.5 -217.5t-263.5 -171t-313.5 -111t-348.5 -40zM1151 113
q179 0 336.5 81.5t249.5 215t92 280.5q0 186 -141 306t-359 120q-133 0 -258 -48t-216.5 -126.5t-146.5 -185t-55 -217.5q0 -190 140.5 -308t357.5 -118zM788 553q0 116 72 221.5t194 169.5t259 64q165 0 273 -93.5t108 -236.5q0 -117 -72 -223t-193.5 -170t-257.5 -64
q-167 0 -275 93.5t-108 238.5z" />
    <glyph glyph-name="P.ss07" 
d="M1094 -315q-216 0 -398.5 58t-310.5 160.5t-200 249.5t-72 320q0 165 65 325t186 294t280.5 236.5t360.5 160t414 57.5q205 0 383.5 -54.5t312 -154t210.5 -250.5t77 -333q0 -140 -47 -276t-131 -253.5t-204.5 -217.5t-263.5 -171t-313.5 -111t-348.5 -40zM979 1096
l-170 -963h127l65 371h306q181 0 300 104t119 242q0 64 -27.5 113t-75.5 77t-106.5 42t-127.5 14h-410zM1292 614h-274l69 375h265q239 0 239 -164q0 -96 -86 -153.5t-213 -57.5z" />
    <glyph glyph-name="Q.ss07" horiz-adv-x="2455" 
d="M1094 -315q-216 0 -398.5 58t-310.5 160.5t-200 249.5t-72 320q0 165 65 325t186 294t280.5 236.5t360.5 160t414 57.5q205 0 383.5 -54.5t312 -154t210.5 -250.5t77 -333q0 -140 -47 -276t-131 -253.5t-204.5 -217.5t-263.5 -171t-313.5 -111t-348.5 -40zM1589 63
l101 70l-129 152q123 81 196.5 203.5t73.5 254.5q0 183 -142.5 302.5t-361.5 119.5q-134 0 -259.5 -48t-216.5 -127.5t-145.5 -185.5t-54.5 -218q0 -189 140.5 -306.5t359.5 -117.5q160 0 301 61q74 -83 137 -160zM784 600q0 118 72 223.5t195.5 169.5t263.5 64
q166 0 274.5 -93t108.5 -235q0 -100 -56 -195.5t-151 -160.5q-13 15 -180 209l-101 -70q23 -24 63.5 -71t72 -85t34.5 -41q-98 -45 -213 -45q-163 0 -273 90t-110 240z" />
    <glyph glyph-name="R.ss07" 
d="M1094 -315q-216 0 -398.5 58t-310.5 160.5t-200 249.5t-72 320q0 165 65 325t186 294t280.5 236.5t360.5 160t414 57.5q205 0 383.5 -54.5t312 -154t210.5 -250.5t77 -333q0 -140 -47 -276t-131 -253.5t-204.5 -217.5t-263.5 -171t-313.5 -111t-348.5 -40zM983 1096
l-170 -963h127q9 46 13.5 71.5t7.5 42t15 83.5t32 176h241l236 -373h141q-35 58 -112.5 180t-124.5 201q146 19 244 114t98 218q0 66 -28 115.5t-76.5 78t-106.5 42.5t-125 14h-412zM1296 610h-274q10 49 27 139.5t30 160.5t15 81h264q111 0 174 -42t63 -124q0 -93 -83 -154
t-216 -61z" />
    <glyph glyph-name="S.ss07" 
d="M1094 -315q-216 0 -398.5 58t-310.5 160.5t-200 249.5t-72 320q0 165 65 325t186 294t280.5 236.5t360.5 160t414 57.5q205 0 383.5 -54.5t312 -154t210.5 -250.5t77 -333q0 -140 -47 -276t-131 -253.5t-204.5 -217.5t-263.5 -171t-313.5 -111t-348.5 -40zM1171 113
q186 0 319.5 96.5t133.5 224.5q0 23 -5.5 43.5t-12.5 36.5t-22 31t-25.5 25t-33.5 21.5t-34 17.5t-38.5 15t-37 12t-39 11t-35.5 10l-102 29q-29 8 -44.5 12.5t-50 19t-54 29t-36 39.5t-16.5 54q0 69 75 118.5t187 49.5q105 0 173 -46.5t81 -127.5l121 43
q-14 107 -107.5 173t-242.5 66q-179 0 -302.5 -88.5t-123.5 -210.5q0 -170 277 -239l102 -27q104 -27 134 -42q70 -36 71 -101q0 -76 -84 -131.5t-207 -55.5q-121 0 -197.5 58t-89.5 163l-123 -36q10 -77 48 -136t93.5 -92t117.5 -49t130 -16z" />
    <glyph glyph-name="T.ss07" 
d="M1094 -315q-216 0 -398.5 58t-310.5 160.5t-200 249.5t-72 320q0 165 65 325t186 294t280.5 236.5t360.5 160t414 57.5q205 0 383.5 -54.5t312 -154t210.5 -250.5t77 -333q0 -140 -47 -276t-131 -253.5t-204.5 -217.5t-263.5 -171t-313.5 -111t-348.5 -40zM1243 989
l-153 -856h124q17 96 45 247t109 609h385l19 107h-902l-16 -107h389z" />
    <glyph glyph-name="U.ss07" 
d="M1094 -315q-216 0 -398.5 58t-310.5 160.5t-200 249.5t-72 320q0 165 65 325t186 294t280.5 236.5t360.5 160t414 57.5q205 0 383.5 -54.5t312 -154t210.5 -250.5t77 -333q0 -140 -47 -276t-131 -253.5t-204.5 -217.5t-263.5 -171t-313.5 -111t-348.5 -40zM1149 123
q108 0 196 31t146 84.5t93.5 119.5t49.5 142l109 606h-127l-107 -600q-24 -132 -108.5 -204.5t-231.5 -72.5q-149 0 -208.5 74.5t-36.5 202.5l108 600h-127l-106 -606q-10 -64 -7 -120.5t28.5 -103.5t67 -81t108 -53t153.5 -19z" />
    <glyph glyph-name="V.ss07" 
d="M1094 -315q-216 0 -398.5 58t-310.5 160.5t-200 249.5t-72 320q0 165 65 325t186 294t280.5 236.5t360.5 160t414 57.5q205 0 383.5 -54.5t312 -154t210.5 -250.5t77 -333q0 -140 -47 -276t-131 -253.5t-204.5 -217.5t-263.5 -171t-313.5 -111t-348.5 -40zM795 1096
l297 -963h131l637 963h-134q-50 -72 -86 -126t-70.5 -107.5t-138.5 -212t-247 -374.5q-25 81 -79 259.5t-97 315.5t-80 245h-133z" />
    <glyph glyph-name="W.ss07" 
d="M1094 -315q-216 0 -398.5 58t-310.5 160.5t-200 249.5t-72 320q0 165 65 325t186 294t280.5 236.5t360.5 160t414 57.5q205 0 383.5 -54.5t312 -154t210.5 -250.5t77 -333q0 -140 -47 -276t-131 -253.5t-204.5 -217.5t-263.5 -171t-313.5 -111t-348.5 -40zM508 1096
l203 -963h141q58 99 121.5 210t102 180.5t113.5 205.5t107 193q76 -428 160 -789h139l543 963h-135q-38 -68 -100.5 -180t-143 -254t-207.5 -363q-157 776 -161 797h-136q-45 -80 -177.5 -321t-268.5 -476q-12 60 -30.5 155.5t-27 137t-24.5 120.5t-35.5 167.5t-48.5 216.5
h-135z" />
    <glyph glyph-name="X.ss07" 
d="M1094 -315q-216 0 -398.5 58t-310.5 160.5t-200 249.5t-72 320q0 165 65 325t186 294t280.5 236.5t360.5 160t414 57.5q205 0 383.5 -54.5t312 -154t210.5 -250.5t77 -333q0 -140 -47 -276t-131 -253.5t-204.5 -217.5t-263.5 -171t-313.5 -111t-348.5 -40zM680 133h147
q208 209 402 399q24 -37 113.5 -179.5t140.5 -219.5h145q-53 82 -155.5 246t-155.5 246q392 392 473 471h-145q-173 -165 -390 -379q-42 63 -124.5 190t-124.5 189h-148q12 -19 136 -205t173 -266q-86 -86 -277 -279.5t-210 -212.5z" />
    <glyph glyph-name="Y.ss07" 
d="M1094 -315q-216 0 -398.5 58t-310.5 160.5t-200 249.5t-72 320q0 165 65 325t186 294t280.5 236.5t360.5 160t414 57.5q205 0 383.5 -54.5t312 -154t210.5 -250.5t77 -333q0 -140 -47 -276t-131 -253.5t-204.5 -217.5t-263.5 -171t-313.5 -111t-348.5 -40zM1151 483
l-61 -350h124q45 241 64 350q24 28 537 613h-136q-124 -136 -446 -500q-33 62 -86 163t-180 337h-138q216 -415 322 -613z" />
    <glyph glyph-name="Z.ss07" 
d="M1094 -315q-216 0 -398.5 58t-310.5 160.5t-200 249.5t-72 320q0 165 65 325t186 294t280.5 236.5t360.5 160t414 57.5q205 0 383.5 -54.5t312 -154t210.5 -250.5t77 -333q0 -140 -47 -276t-131 -253.5t-204.5 -217.5t-263.5 -171t-313.5 -111t-348.5 -40zM741 240
l-18 -107h891l14 109h-733q197 173 484 423t374 326l19 105h-848l-19 -107q231 2 688 2q-349 -306 -852 -751z" />
    <glyph glyph-name="A.ss08" 
d="M1419 1546q205 0 383.5 -54.5t312 -154t210.5 -250.5t77 -333q0 -140 -47 -276t-131 -253.5t-204.5 -217.5t-263.5 -171t-313.5 -111t-348.5 -40q-216 0 -398.5 58t-310.5 160.5t-200 249.5t-72 320q0 165 65 325t186 294t280.5 236.5t360.5 160t414 57.5zM1110 -217
q159 0 311.5 35.5t281.5 98.5t238.5 152.5t185.5 194t118.5 226.5t42.5 247q0 162 -68.5 297t-188 225t-281 139.5t-347.5 49.5q-191 0 -371.5 -51.5t-324.5 -143t-253 -211t-168 -263t-59 -290.5q0 -207 111.5 -367.5t312.5 -249.5t459 -89zM807 281l448 669h91l208 -669
h-96q-1 3 -72 225h-331q-46 -66 -92 -134t-62 -91h-94zM1100 580h266q-69 209 -84 268q-6 -9 -74 -107.5t-108 -160.5z" />
    <glyph glyph-name="B.ss08" horiz-adv-x="2459" 
d="M1421 1546q205 0 383.5 -54.5t312 -154t210.5 -250.5t77 -333q0 -140 -47 -276t-131 -253.5t-204.5 -217.5t-263.5 -171t-313.5 -111t-348.5 -40q-216 0 -398.5 58t-310.5 160.5t-200 249.5t-72 320q0 165 65 325t186 294t280.5 236.5t360.5 160t414 57.5zM1112 -217
q159 0 311.5 35.5t281.5 98.5t238.5 152.5t185.5 194t118.5 226.5t42.5 247q0 162 -68.5 297t-188 225t-281 139.5t-347.5 49.5q-191 0 -371.5 -51.5t-324.5 -143t-253 -211t-168 -263t-59 -290.5q0 -207 111.5 -367.5t312.5 -249.5t459 -89zM1556 797q0 -56 -40.5 -104.5
t-106.5 -71.5q56 -15 88.5 -51t32.5 -83q0 -83 -84 -144.5t-205 -61.5h-330l121 669h291q104 0 168.5 -42t64.5 -111zM1260 653q86 0 144 35t58 88q0 44 -46.5 71t-121.5 27h-184q-27 -150 -41 -221h191zM1231 356q86 0 143.5 33.5t57.5 89.5q0 47 -46 75t-120 28h-209
q-4 -22 -15.5 -85.5t-25.5 -140.5h215z" />
    <glyph glyph-name="C.ss08" 
d="M1094 -315q-216 0 -398.5 58t-310.5 160.5t-200 249.5t-72 320q0 165 65 325t186 294t280.5 236.5t360.5 160t414 57.5q205 0 383.5 -54.5t312 -154t210.5 -250.5t77 -333q0 -140 -47 -276t-131 -253.5t-204.5 -217.5t-263.5 -171t-313.5 -111t-348.5 -40zM1110 -217
q159 0 311.5 35.5t281.5 98.5t238.5 152.5t185.5 194t118.5 226.5t42.5 247q0 162 -68.5 297t-188 225t-281 139.5t-347.5 49.5q-191 0 -371.5 -51.5t-324.5 -143t-253 -211t-168 -263t-59 -290.5q0 -207 111.5 -367.5t312.5 -249.5t459 -89zM1198 266q-160 0 -256 79.5
t-96 211.5q0 104 61 197t170.5 151t239.5 58t219 -56t104 -149l-84 -29q-22 73 -88.5 114.5t-162.5 41.5q-151 0 -258 -96.5t-107 -223.5q0 -111 80.5 -167t198.5 -56q109 0 198 53t133 146l78 -27q-59 -116 -172 -182t-258 -66z" />
    <glyph glyph-name="D.ss08" 
d="M1094 -315q-215 0 -397.5 58t-310 160.5t-199.5 249.5t-72 320q0 165 65 325t186 294t280 236.5t359.5 160t413.5 57.5q163 0 311.5 -34t271 -101.5t212.5 -162t140 -221.5t50 -273q0 -140 -47 -276t-131 -253.5t-205 -217.5t-264 -171t-314 -111t-349 -40zM1110 -217
q191 0 371 50t324.5 140t254 208t169 262t59.5 294q0 215 -118 378.5t-317.5 248t-447.5 84.5q-191 0 -371.5 -51.5t-324.5 -143t-253 -211t-168 -263t-59 -290.5q0 -207 111 -367.5t312 -249.5t458 -89zM1186 281h-299l119 669h290q159 0 244.5 -70.5t85.5 -201.5
q0 -163 -126.5 -280t-313.5 -117zM991 356h211q141 0 236.5 89.5t95.5 216.5q0 212 -266 212h-185q-27 -144 -92 -518z" />
    <glyph glyph-name="E.ss08" 
d="M1094 -315q-216 0 -398.5 58t-310.5 160.5t-200 249.5t-72 320q0 165 65 325t186 294t280.5 236.5t360.5 160t414 57.5q205 0 383.5 -54.5t312 -154t210.5 -250.5t77 -333q0 -140 -47 -276t-131 -253.5t-204.5 -217.5t-263.5 -171t-313.5 -111t-348.5 -40zM1110 -217
q159 0 311.5 35.5t281.5 98.5t238.5 152.5t185.5 194t118.5 226.5t42.5 247q0 162 -68.5 297t-188 225t-281 139.5t-347.5 49.5q-191 0 -371.5 -51.5t-324.5 -143t-253 -211t-168 -263t-59 -290.5q0 -207 111.5 -367.5t312.5 -249.5t459 -89zM1462 281h-528l121 669h518
l-12 -76h-428q-5 -27 -16 -84t-23 -126h405l-12 -78h-406q-2 -12 -43 -228h437z" />
    <glyph glyph-name="F.ss08" 
d="M1094 -315q-216 0 -398.5 58t-310.5 160.5t-200 249.5t-72 320q0 165 65 325t186 294t280.5 236.5t360.5 160t414 57.5q205 0 383.5 -54.5t312 -154t210.5 -250.5t77 -333q0 -140 -47 -276t-131 -253.5t-204.5 -217.5t-263.5 -171t-313.5 -111t-348.5 -40zM1110 -217
q159 0 311.5 35.5t281.5 98.5t238.5 152.5t185.5 194t118.5 226.5t42.5 247q0 162 -68.5 297t-188 225t-281 139.5t-347.5 49.5q-191 0 -371.5 -51.5t-324.5 -143t-253 -211t-168 -263t-59 -290.5q0 -207 111.5 -367.5t312.5 -249.5t459 -89zM1042 281h-92l121 669h508
l-14 -78h-416l-41 -217h397l-12 -75h-397z" />
    <glyph glyph-name="G.ss08" 
d="M1419 1546q205 0 383.5 -54.5t312 -154t210.5 -250.5t77 -333q0 -140 -47 -276t-131 -253.5t-204.5 -217.5t-263.5 -171t-313.5 -111t-348.5 -40q-216 0 -398.5 58t-310.5 160.5t-200 249.5t-72 320q0 165 65 325t186 294t280.5 236.5t360.5 160t414 57.5zM1110 -217
q159 0 311.5 35.5t281.5 98.5t238.5 152.5t185.5 194t118.5 226.5t42.5 247q0 162 -68.5 297t-188 225t-281 139.5t-347.5 49.5q-191 0 -371.5 -51.5t-324.5 -143t-253 -211t-168 -263t-59 -290.5q0 -207 111.5 -367.5t312.5 -249.5t459 -89zM1305 885q-151 0 -257 -96
t-106 -224q0 -58 23 -102t62 -70t85.5 -38.5t99.5 -12.5q117 0 207 57t119 148h-274l10 69h364l-57 -335h-78q15 92 23 129q-122 -144 -336 -144q-155 0 -249.5 79.5t-94.5 211.5q0 161 138.5 283.5t334.5 122.5q129 0 217.5 -56t103.5 -149l-84 -29q-22 74 -88.5 115
t-162.5 41z" />
    <glyph glyph-name="H.ss08" 
d="M1419 1546q205 0 383.5 -54.5t312 -154t210.5 -250.5t77 -333q0 -140 -47 -276t-131 -253.5t-204.5 -217.5t-263.5 -171t-313.5 -111t-348.5 -40q-216 0 -398.5 58t-310.5 160.5t-200 249.5t-72 320q0 165 65 325t186 294t280.5 236.5t360.5 160t414 57.5zM1110 -217
q159 0 311.5 35.5t281.5 98.5t238.5 152.5t185.5 194t118.5 226.5t42.5 247q0 162 -68.5 297t-188 225t-281 139.5t-347.5 49.5q-191 0 -371.5 -51.5t-324.5 -143t-253 -211t-168 -263t-59 -290.5q0 -207 111.5 -367.5t312.5 -249.5t459 -89zM1026 655h444l52 295h90
l-119 -669h-90l51 299h-444l-52 -299h-92l119 669h92z" />
    <glyph glyph-name="I.ss08" 
d="M1094 -315q-216 0 -398.5 58t-310 160.5t-199 249.5t-71.5 320q0 165 65 325t185.5 294t279.5 236.5t360 160t414 57.5q205 0 383.5 -54.5t312 -154t210.5 -250.5t77 -333q0 -140 -46.5 -276t-130.5 -253.5t-204.5 -217.5t-263.5 -171t-314 -111t-349 -40zM1110 -217
q191 0 371 50t324.5 140t254 208t169 262t59.5 294q0 162 -68.5 297t-188 225t-281 139.5t-347.5 49.5q-191 0 -371.5 -51.5t-324.5 -143t-253 -211t-168 -263t-59 -290.5q0 -207 111.5 -367.5t312.5 -249.5t459 -89zM1225 281h-92l118 669h92z" />
    <glyph glyph-name="J.ss08" 
d="M1094 -315q-216 0 -398.5 58t-310.5 160.5t-200 249.5t-72 320q0 165 65 325t186 294t280.5 236.5t360.5 160t414 57.5q205 0 383.5 -54.5t312 -154t210.5 -250.5t77 -333q0 -140 -47 -276t-131 -253.5t-204.5 -217.5t-263.5 -171t-313.5 -111t-348.5 -40zM1110 -217
q159 0 311.5 35.5t281.5 98.5t238.5 152.5t185.5 194t118.5 226.5t42.5 247q0 162 -68.5 297t-188 225t-281 139.5t-347.5 49.5q-191 0 -371.5 -51.5t-324.5 -143t-253 -211t-168 -263t-59 -290.5q0 -207 111.5 -367.5t312.5 -249.5t459 -89zM1149 272q-118 0 -176 59
t-41 161l4 26l88 10l-4 -24q-12 -72 24 -114t111 -42q150 0 180 180l76 428h90l-74 -411q-5 -33 -11.5 -59.5t-26 -69.5t-47 -71.5t-78 -50.5t-115.5 -22z" />
    <glyph glyph-name="K.ss08" 
d="M1419 1546q205 0 383.5 -54.5t312 -154t210.5 -250.5t77 -333q0 -140 -47 -276t-131 -253.5t-204.5 -217.5t-263.5 -171t-313.5 -111t-348.5 -40q-216 0 -398.5 58t-310.5 160.5t-200 249.5t-72 320q0 165 65 325t186 294t280.5 236.5t360.5 160t414 57.5zM1110 -217
q159 0 311.5 35.5t281.5 98.5t238.5 152.5t185.5 194t118.5 226.5t42.5 247q0 162 -68.5 297t-188 225t-281 139.5t-347.5 49.5q-191 0 -371.5 -51.5t-324.5 -143t-253 -211t-168 -263t-59 -290.5q0 -207 111.5 -367.5t312.5 -249.5t459 -89zM1518 950h112
q-33 -25 -142 -106.5t-170.5 -129t-72.5 -59.5q50 -68 143 -190t138 -184h-113q-27 34 -47 63.5t-60 80.5t-137 169q-15 -12 -52 -39.5t-62 -46.5q-7 -48 -39 -227h-92l118 669h93q-10 -60 -31 -172t-29 -162q45 33 170 128.5t273 205.5z" />
    <glyph glyph-name="L.ss08" 
d="M1419 1546q205 0 383.5 -54.5t312 -154t210.5 -250.5t77 -333q0 -140 -47 -276t-131 -253.5t-204.5 -217.5t-263.5 -171t-313.5 -111t-348.5 -40q-216 0 -398.5 58t-310.5 160.5t-200 249.5t-72 320q0 165 65 325t186 294t280.5 236.5t360.5 160t414 57.5zM1110 -217
q159 0 311.5 35.5t281.5 98.5t238.5 152.5t185.5 194t118.5 226.5t42.5 247q0 162 -68.5 297t-188 225t-281 139.5t-347.5 49.5q-191 0 -371.5 -51.5t-324.5 -143t-253 -211t-168 -263t-59 -290.5q0 -207 111.5 -367.5t312.5 -249.5t459 -89zM1118 950h90l-104 -592h405
l-14 -77h-498z" />
    <glyph glyph-name="M.ss08" horiz-adv-x="2459" 
d="M1419 1546q205 0 383.5 -54.5t312 -154t210.5 -250.5t77 -333q0 -140 -47 -276t-131 -253.5t-204.5 -217.5t-263.5 -171t-313.5 -111t-348.5 -40q-216 0 -398.5 58t-310.5 160.5t-200 249.5t-72 320q0 165 65 325t186 294t280.5 236.5t360.5 160t414 57.5zM1110 -217
q159 0 311.5 35.5t281.5 98.5t238.5 152.5t185.5 194t118.5 226.5t42.5 247q0 162 -68.5 297t-188 225t-281 139.5t-347.5 49.5q-191 0 -371.5 -51.5t-324.5 -143t-253 -211t-168 -263t-59 -290.5q0 -207 111.5 -367.5t312.5 -249.5t459 -89zM1198 395q55 74 165.5 221
t174 232t74.5 102h102l-121 -669h-90q14 79 43 234.5t47 268.5q-59 -81 -185 -249t-189 -254h-76q-22 58 -76 196t-117 307q-7 -37 -24 -134.5t-68 -368.5h-92l121 669h100q142 -359 211 -555z" />
    <glyph glyph-name="N.ss08" 
d="M1419 1546q205 0 383.5 -54.5t312 -154t210.5 -250.5t77 -333q0 -140 -47 -276t-131 -253.5t-204.5 -217.5t-263.5 -171t-313.5 -111t-348.5 -40q-216 0 -398.5 58t-310.5 160.5t-200 249.5t-72 320q0 165 65 325t186 294t280.5 236.5t360.5 160t414 57.5zM1110 -217
q159 0 311.5 35.5t281.5 98.5t238.5 152.5t185.5 194t118.5 226.5t42.5 247q0 162 -68.5 297t-188 225t-281 139.5t-347.5 49.5q-191 0 -371.5 -51.5t-324.5 -143t-253 -211t-168 -263t-59 -290.5q0 -207 111.5 -367.5t312.5 -249.5t459 -89zM1442 418q33 162 98 532h90
l-119 -669h-92q-30 43 -106 152t-137.5 199t-120.5 179q-6 -32 -18 -93.5t-28 -154.5t-48 -282h-93l119 669h94q74 -111 189.5 -279.5t171.5 -252.5z" />
    <glyph glyph-name="O.ss08" 
d="M1094 -315q-216 0 -398.5 58t-310.5 160.5t-200 249.5t-72 320q0 165 65 325t186 294t280.5 236.5t360.5 160t414 57.5q205 0 383.5 -54.5t312 -154t210.5 -250.5t77 -333q0 -140 -47 -276t-131 -253.5t-204.5 -217.5t-263.5 -171t-313.5 -111t-348.5 -40zM1110 -217
q159 0 311.5 35.5t281.5 98.5t238.5 152.5t185.5 194t118.5 226.5t42.5 247q0 162 -68.5 297t-188 225t-281 139.5t-347.5 49.5q-191 0 -371.5 -51.5t-324.5 -143t-253 -211t-168 -263t-59 -290.5q0 -207 111.5 -367.5t312.5 -249.5t459 -89zM1178 266q-153 0 -252 83
t-99 212q0 157 142 279.5t334 122.5q153 0 252.5 -83t99.5 -212q0 -77 -38.5 -150.5t-102.5 -129t-153 -89t-183 -33.5zM1192 342q144 0 254 96.5t110 218.5q0 98 -75 163t-189 65q-145 0 -256.5 -95.5t-111.5 -218.5q0 -98 76.5 -163.5t191.5 -65.5z" />
    <glyph glyph-name="P.ss08" 
d="M1419 1546q205 0 383.5 -54.5t312 -154t210.5 -250.5t77 -333q0 -140 -47 -276t-131 -253.5t-204.5 -217.5t-263.5 -171t-313.5 -111t-348.5 -40q-216 0 -398.5 58t-310.5 160.5t-200 249.5t-72 320q0 165 65 325t186 294t280.5 236.5t360.5 160t414 57.5zM1110 -217
q159 0 311.5 35.5t281.5 98.5t238.5 152.5t185.5 194t118.5 226.5t42.5 247q0 162 -68.5 297t-188 225t-281 139.5t-347.5 49.5q-191 0 -371.5 -51.5t-324.5 -143t-253 -211t-168 -263t-59 -290.5q0 -207 111.5 -367.5t312.5 -249.5t459 -89zM1057 950h286q102 0 169 -43
t67 -131q0 -99 -85.5 -169t-207.5 -70h-213l-45 -256h-92zM1087 614h191q91 0 149 41t58 105q0 57 -45 85.5t-123 28.5h-184z" />
    <glyph glyph-name="Q.ss08" 
d="M1094 -315q-216 0 -398.5 58t-310.5 160.5t-200 249.5t-72 320q0 165 65 325t186 294t280.5 236.5t360.5 160t414 57.5q205 0 383.5 -54.5t312 -154t210.5 -250.5t77 -333q0 -140 -47 -276t-131 -253.5t-204.5 -217.5t-263.5 -171t-313.5 -111t-348.5 -40zM1110 -217
q159 0 311.5 35.5t281.5 98.5t238.5 152.5t185.5 194t118.5 226.5t42.5 247q0 162 -68.5 297t-188 225t-281 139.5t-347.5 49.5q-191 0 -371.5 -51.5t-324.5 -143t-253 -211t-168 -263t-59 -290.5q0 -207 111.5 -367.5t312.5 -249.5t459 -89zM1556 281l-71 -50
q-16 20 -47 55.5t-47 55.5q-101 -43 -213 -43q-154 0 -252.5 83t-98.5 212q0 157 142 279t336 122q152 0 251 -83t99 -210q0 -91 -50 -173.5t-139 -141.5zM1194 375q67 0 145 33q-20 24 -60 68.5t-60 68.5l71 49q10 -11 55 -62t72 -83q67 46 105.5 110t38.5 131
q0 98 -76 163t-193 65q-146 0 -257 -94.5t-111 -219.5q0 -100 76 -164.5t194 -64.5z" />
    <glyph glyph-name="R.ss08" 
d="M1419 1546q205 0 383.5 -54.5t312 -154t210.5 -250.5t77 -333q0 -140 -47 -276t-131 -253.5t-204.5 -217.5t-263.5 -171t-313.5 -111t-348.5 -40q-216 0 -398.5 58t-310.5 160.5t-200 249.5t-72 320q0 165 65 325t186 294t280.5 236.5t360.5 160t414 57.5zM1110 -217
q159 0 311.5 35.5t281.5 98.5t238.5 152.5t185.5 194t118.5 226.5t42.5 247q0 162 -68.5 297t-188 225t-281 139.5t-347.5 49.5q-191 0 -371.5 -51.5t-324.5 -143t-253 -211t-168 -263t-59 -290.5q0 -207 111.5 -367.5t312.5 -249.5t459 -89zM1059 950h287q102 0 168.5 -43
t66.5 -131q0 -87 -68.5 -152t-169.5 -79q26 -41 91 -142.5t77 -121.5h-102l-164 258h-170q-2 -14 -45 -258h-92zM1280 612q92 0 149.5 42t57.5 106q0 56 -45.5 85t-122.5 29h-182q-8 -44 -23.5 -131t-23.5 -131h190z" />
    <glyph glyph-name="S.ss08" 
d="M1094 -315q-216 0 -398.5 58t-310.5 160.5t-200 249.5t-72 320q0 165 65 325t186 294t280.5 236.5t360.5 160t414 57.5q205 0 383.5 -54.5t312 -154t210.5 -250.5t77 -333q0 -140 -47 -276t-131 -253.5t-204.5 -217.5t-263.5 -171t-313.5 -111t-348.5 -40zM1110 -217
q159 0 311.5 35.5t281.5 98.5t238.5 152.5t185.5 194t118.5 226.5t42.5 247q0 162 -68.5 297t-188 225t-281 139.5t-347.5 49.5q-191 0 -371.5 -51.5t-324.5 -143t-253 -211t-168 -263t-59 -290.5q0 -207 111.5 -367.5t312.5 -249.5t459 -89zM1192 266q-114 0 -187.5 53.5
t-86.5 151.5l88 27q9 -72 63 -114t139 -42t143 38.5t58 90.5q0 12 -4 23t-8.5 18.5t-15 14.5t-17.5 11t-22.5 9t-23 7t-27 6.5t-25.5 6.5l-72 21q-193 47 -193 168q0 84 87 145.5t212 61.5q101 0 168.5 -45.5t77.5 -122.5l-86 -31q-10 59 -58 90t-120 31q-77 0 -129.5 -33
t-52.5 -82q0 -69 139 -106l74 -21q95 -25 130 -46q66 -39 66 -108q0 -90 -93.5 -156.5t-223.5 -66.5z" />
    <glyph glyph-name="T.ss08" 
d="M1094 -315q-215 0 -397.5 58t-310 160.5t-199.5 249.5t-72 320q0 165 65 325t186 294t280 236.5t359.5 160t413.5 57.5q163 0 311.5 -34t271 -101.5t212.5 -162t140 -221.5t50 -273q0 -140 -47 -276t-131 -253.5t-205 -217.5t-264 -171t-314 -111t-349 -40zM1110 -217
q191 0 371 50t324.5 140t254 208t169 262t59.5 294q0 215 -118 378.5t-317.5 248t-447.5 84.5q-191 0 -371.5 -51.5t-324.5 -143t-253 -211t-168 -263t-59 -290.5q0 -207 111 -367.5t312 -249.5t458 -89zM1225 281h-92q21 113 106 593h-268l12 76h631l-15 -76h-268
q-34 -184 -106 -593z" />
    <glyph glyph-name="U.ss08" 
d="M1094 -315q-216 0 -398.5 58t-310.5 160.5t-200 249.5t-72 320q0 165 65 325t186 294t280.5 236.5t360.5 160t414 57.5q205 0 383.5 -54.5t312 -154t210.5 -250.5t77 -333q0 -140 -47 -276t-131 -253.5t-204.5 -217.5t-263.5 -171t-313.5 -111t-348.5 -40zM1110 -217
q159 0 311.5 35.5t281.5 98.5t238.5 152.5t185.5 194t118.5 226.5t42.5 247q0 162 -68.5 297t-188 225t-281 139.5t-347.5 49.5q-191 0 -371.5 -51.5t-324.5 -143t-253 -211t-168 -263t-59 -290.5q0 -207 111.5 -367.5t312.5 -249.5t459 -89zM1176 272q-147 0 -206.5 73
t-37.5 187l74 424h92l-76 -419q-32 -189 170 -189q102 0 161 49.5t74 139.5l74 419h92l-75 -424q-20 -114 -109.5 -187t-232.5 -73z" />
    <glyph glyph-name="V.ss08" 
d="M1419 1546q205 0 383.5 -54.5t312 -154t210.5 -250.5t77 -333q0 -140 -47 -276t-131 -253.5t-204.5 -217.5t-263.5 -171t-313.5 -111t-348.5 -40q-216 0 -398.5 58t-310.5 160.5t-200 249.5t-72 320q0 165 65 325t186 294t280.5 236.5t360.5 160t414 57.5zM1110 -217
q159 0 311.5 35.5t281.5 98.5t238.5 152.5t185.5 194t118.5 226.5t42.5 247q0 162 -68.5 297t-188 225t-281 139.5t-347.5 49.5q-191 0 -371.5 -51.5t-324.5 -143t-253 -211t-168 -263t-59 -290.5q0 -207 111.5 -367.5t312.5 -249.5t459 -89zM1200 383q173 273 381 567h96
l-448 -669h-90l-211 669h96q21 -59 176 -567z" />
    <glyph glyph-name="W.ss08" 
d="M1419 1546q205 0 383.5 -54.5t312 -154t210.5 -250.5t77 -333q0 -140 -47 -276t-131 -253.5t-204.5 -217.5t-263.5 -171t-313.5 -111t-348.5 -40q-216 0 -398.5 58t-310.5 160.5t-200 249.5t-72 320q0 165 65 325t186 294t280.5 236.5t360.5 160t414 57.5zM1110 -217
q159 0 311.5 35.5t281.5 98.5t238.5 152.5t185.5 194t118.5 226.5t42.5 247q0 162 -68.5 297t-188 225t-281 139.5t-347.5 49.5q-191 0 -371.5 -51.5t-324.5 -143t-253 -211t-168 -263t-59 -290.5q0 -207 111.5 -367.5t312.5 -249.5t459 -89zM1458 399q100 176 318 551h94
l-383 -669h-98q-43 189 -111 542q-17 -30 -66.5 -122t-70 -128.5t-68 -118t-104.5 -173.5h-101l-141 669h98q11 -51 51.5 -243t63.5 -308q6 11 313 551h93q73 -367 112 -551z" />
    <glyph glyph-name="X.ss08" horiz-adv-x="2455" 
d="M1419 1546q205 0 383.5 -54.5t312 -154t210.5 -250.5t77 -333q0 -140 -47 -276t-131 -253.5t-204.5 -217.5t-263.5 -171t-313.5 -111t-348.5 -40q-216 0 -398.5 58t-310.5 160.5t-200 249.5t-72 320q0 165 65 325t186 294t280.5 236.5t360.5 160t414 57.5zM1110 -217
q159 0 311.5 35.5t281.5 98.5t238.5 152.5t185.5 194t118.5 226.5t42.5 247q0 162 -68.5 297t-188 225t-281 139.5t-347.5 49.5q-191 0 -371.5 -51.5t-324.5 -143t-253 -211t-168 -263t-59 -290.5q0 -207 111.5 -367.5t312.5 -249.5t459 -89zM1524 950h102
q-34 -34 -66 -69.5t-86 -88t-182 -169.5q47 -69 129.5 -198.5t91.5 -143.5h-104q-153 236 -178 278q-53 -53 -281 -278h-104q47 47 107 108.5t112.5 113.5t122.5 120q-74 109 -217 327h104l176 -264q18 18 52.5 53t52.5 53t62 59.5t106 98.5z" />
    <glyph glyph-name="Y.ss08" 
d="M1419 1546q205 0 383.5 -54.5t312 -154t210.5 -250.5t77 -333q0 -140 -47 -276t-131 -253.5t-204.5 -217.5t-263.5 -171t-313.5 -111t-348.5 -40q-216 0 -398.5 58t-310.5 160.5t-200 249.5t-72 320q0 165 65 325t186 294t280.5 236.5t360.5 160t414 57.5zM1110 -217
q159 0 311.5 35.5t281.5 98.5t238.5 152.5t185.5 194t118.5 226.5t42.5 247q0 162 -68.5 297t-188 225t-281 139.5t-347.5 49.5q-191 0 -371.5 -51.5t-324.5 -143t-253 -211t-168 -263t-59 -290.5q0 -207 111.5 -367.5t312.5 -249.5t459 -89zM1235 602q33 37 71.5 85t90 105
t151.5 158h97q-48 -54 -81 -97t-93.5 -111t-204.5 -218l-43 -243h-93q38 199 46 243q-24 43 -69.5 136t-158.5 290h103q122 -234 184 -348z" />
    <glyph glyph-name="Z.ss08" horiz-adv-x="2455" 
d="M1419 1546q205 0 383.5 -54.5t312 -154t210.5 -250.5t77 -333q0 -140 -47 -276t-131 -253.5t-204.5 -217.5t-263.5 -171t-313.5 -111t-348.5 -40q-216 0 -398.5 58t-310.5 160.5t-200 249.5t-72 320q0 165 65 325t186 294t280.5 236.5t360.5 160t414 57.5zM1110 -217
q159 0 311.5 35.5t281.5 98.5t238.5 152.5t185.5 194t118.5 226.5t42.5 247q0 162 -68.5 297t-188 225t-281 139.5t-347.5 49.5q-191 0 -371.5 -51.5t-324.5 -143t-253 -211t-168 -263t-59 -290.5q0 -207 111.5 -367.5t312.5 -249.5t459 -89zM1006 874l14 76h596l-10 -73
q-37 -32 -154.5 -135t-443.5 -384h510l-13 -77h-624l12 73q96 86 596 520h-483z" />
    <glyph glyph-name="i.loclTRK" horiz-adv-x="604" 
d="M453 1399q-51 0 -85 30t-34 74q0 57 48.5 99.5t113.5 42.5q51 0 84.5 -30t33.5 -73q0 -57 -49 -100t-112 -43zM287 0h-168l200 1133h168z" />
    <glyph glyph-name="a.ss01" horiz-adv-x="1644" 
d="M635 -35q-243 0 -389 136.5t-146 357.5q0 136 58.5 265t157.5 226t238.5 156t291.5 59q164 0 289.5 -66.5t181.5 -189.5h4l41 224h166l-195 -1133h-166l39 217h-6q-101 -123 -251.5 -187.5t-313.5 -64.5zM686 111q117 0 225 45.5t185 119.5t123.5 172t46.5 199
q0 165 -116.5 269t-299.5 104q-118 0 -224.5 -46t-181 -121t-118 -172.5t-43.5 -197.5q0 -167 111 -269.5t292 -102.5z" />
    <glyph glyph-name="aacute.ss01" horiz-adv-x="1644" 
d="M1456 1669l-440 -391h-150l363 391h227zM635 -35q-243 0 -389 136.5t-146 357.5q0 136 58.5 265t157.5 226t238.5 156t291.5 59q164 0 289.5 -66.5t181.5 -189.5h4l41 224h166l-195 -1133h-166l39 217h-6q-101 -123 -251.5 -187.5t-313.5 -64.5zM686 111q117 0 225 45.5
t185 119.5t123.5 172t46.5 199q0 165 -116.5 269t-299.5 104q-118 0 -224.5 -46t-181 -121t-118 -172.5t-43.5 -197.5q0 -167 111 -269.5t292 -102.5z" />
    <glyph glyph-name="abreve.ss01" horiz-adv-x="1644" 
d="M950 1274q-204 0 -304 111t-77 284h152q-19 -121 51.5 -195.5t198.5 -74.5q129 0 226.5 74.5t125.5 195.5h152q-39 -175 -181 -285t-344 -110zM635 -35q-243 0 -389 136.5t-146 357.5q0 136 58.5 265t157.5 226t238.5 156t291.5 59q164 0 289.5 -66.5t181.5 -189.5h4
l41 224h166l-195 -1133h-166l39 217h-6q-101 -123 -251.5 -187.5t-313.5 -64.5zM686 111q117 0 225 45.5t185 119.5t123.5 172t46.5 199q0 165 -116.5 269t-299.5 104q-118 0 -224.5 -46t-181 -121t-118 -172.5t-43.5 -197.5q0 -167 111 -269.5t292 -102.5z" />
    <glyph glyph-name="acircumflex.ss01" horiz-adv-x="1644" 
d="M645 1278h-162l422 360h217l293 -360h-160q-23 23 -71.5 68t-94.5 90.5t-90 97.5q-63 -50 -174.5 -127t-179.5 -129zM635 -35q-243 0 -389 136.5t-146 357.5q0 136 58.5 265t157.5 226t238.5 156t291.5 59q164 0 289.5 -66.5t181.5 -189.5h4l41 224h166l-195 -1133h-166
l39 217h-6q-101 -123 -251.5 -187.5t-313.5 -64.5zM686 111q117 0 225 45.5t185 119.5t123.5 172t46.5 199q0 165 -116.5 269t-299.5 104q-118 0 -224.5 -46t-181 -121t-118 -172.5t-43.5 -197.5q0 -167 111 -269.5t292 -102.5z" />
    <glyph glyph-name="adieresis.ss01" horiz-adv-x="1644" 
d="M750 1362q-47 0 -79 28.5t-32 69.5q0 50 44.5 89.5t102.5 39.5q47 0 79 -27.5t32 -66.5q0 -53 -44.5 -93t-102.5 -40zM1190 1362q-49 0 -80 27t-31 69q0 54 44 92.5t104 38.5q46 0 78 -28t32 -68q0 -51 -45 -91t-102 -40zM635 -35q-243 0 -389 136.5t-146 357.5
q0 136 58.5 265t157.5 226t238.5 156t291.5 59q164 0 289.5 -66.5t181.5 -189.5h4l41 224h166l-195 -1133h-166l39 217h-6q-101 -123 -251.5 -187.5t-313.5 -64.5zM686 111q117 0 225 45.5t185 119.5t123.5 172t46.5 199q0 165 -116.5 269t-299.5 104q-118 0 -224.5 -46
t-181 -121t-118 -172.5t-43.5 -197.5q0 -167 111 -269.5t292 -102.5z" />
    <glyph glyph-name="agrave.ss01" horiz-adv-x="1644" 
d="M1034 1278h-149l-303 391h227zM635 -35q-243 0 -389 136.5t-146 357.5q0 136 58.5 265t157.5 226t238.5 156t291.5 59q164 0 289.5 -66.5t181.5 -189.5h4l41 224h166l-195 -1133h-166l39 217h-6q-101 -123 -251.5 -187.5t-313.5 -64.5zM686 111q117 0 225 45.5t185 119.5
t123.5 172t46.5 199q0 165 -116.5 269t-299.5 104q-118 0 -224.5 -46t-181 -121t-118 -172.5t-43.5 -197.5q0 -167 111 -269.5t292 -102.5z" />
    <glyph glyph-name="amacron.ss01" horiz-adv-x="1644" 
d="M1389 1405h-826l21 125h825zM635 -35q-243 0 -389 136.5t-146 357.5q0 136 58.5 265t157.5 226t238.5 156t291.5 59q164 0 289.5 -66.5t181.5 -189.5h4l41 224h166l-195 -1133h-166l39 217h-6q-101 -123 -251.5 -187.5t-313.5 -64.5zM686 111q117 0 225 45.5t185 119.5
t123.5 172t46.5 199q0 165 -116.5 269t-299.5 104q-118 0 -224.5 -46t-181 -121t-118 -172.5t-43.5 -197.5q0 -167 111 -269.5t292 -102.5z" />
    <glyph glyph-name="aogonek.ss01" horiz-adv-x="1644" 
d="M1061 -225q0 -58 51.5 -91.5t130.5 -33.5q54 0 111 14l-21 -113q-63 -14 -121 -14q-132 0 -210 54t-78 145q0 47 23 90.5t61 76t76 56t81 41.5h2l39 217h-6q-101 -123 -251.5 -187.5t-313.5 -64.5q-243 0 -389 136.5t-146 357.5q0 136 58.5 265t157.5 226t238.5 156
t291.5 59q164 0 289.5 -66.5t181.5 -189.5h4l41 224h166l-195 -1133h-28q-104 -36 -174 -94.5t-70 -130.5zM686 111q117 0 225 45.5t185 119.5t123.5 172t46.5 199q0 165 -116.5 269t-299.5 104q-118 0 -224.5 -46t-181 -121t-118 -172.5t-43.5 -197.5q0 -167 111 -269.5
t292 -102.5z" />
    <glyph glyph-name="aring.ss01" horiz-adv-x="1644" 
d="M946 1249q-104 0 -169.5 53t-65.5 138q0 102 93 179t222 77q104 0 170 -54t66 -139q0 -101 -93 -177.5t-223 -76.5zM965 1352q73 0 124.5 41t51.5 100q0 45 -38 71.5t-95 26.5q-75 0 -126 -40t-51 -99q0 -46 37.5 -73t96.5 -27zM635 -35q-243 0 -389 136.5t-146 357.5
q0 136 58.5 265t157.5 226t238.5 156t291.5 59q164 0 289.5 -66.5t181.5 -189.5h4l41 224h166l-195 -1133h-166l39 217h-6q-101 -123 -251.5 -187.5t-313.5 -64.5zM686 111q117 0 225 45.5t185 119.5t123.5 172t46.5 199q0 165 -116.5 269t-299.5 104q-118 0 -224.5 -46
t-181 -121t-118 -172.5t-43.5 -197.5q0 -167 111 -269.5t292 -102.5z" />
    <glyph glyph-name="atilde.ss01" horiz-adv-x="1644" 
d="M1145 1323q-59 0 -96.5 17.5t-81.5 54.5l-45 32q-22 18 -32 25t-32.5 16t-46.5 9q-56 0 -96.5 -39t-52.5 -99h-127q22 115 105.5 186.5t193.5 71.5q89 0 165 -65l48 -35q60 -51 118 -51q54 0 93 38.5t51 98.5h129q-22 -121 -100 -190.5t-193 -69.5zM635 -35
q-243 0 -389 136.5t-146 357.5q0 136 58.5 265t157.5 226t238.5 156t291.5 59q164 0 289.5 -66.5t181.5 -189.5h4l41 224h166l-195 -1133h-166l39 217h-6q-101 -123 -251.5 -187.5t-313.5 -64.5zM686 111q117 0 225 45.5t185 119.5t123.5 172t46.5 199q0 165 -116.5 269
t-299.5 104q-118 0 -224.5 -46t-181 -121t-118 -172.5t-43.5 -197.5q0 -167 111 -269.5t292 -102.5z" />
    <glyph glyph-name="b.ss01" horiz-adv-x="1384" 
d="M696 -35q-140 0 -240.5 50t-142.5 143h-6l-28 -158h-160l289 1638h167l-176 -995h4q76 79 193 120.5t246 41.5q202 0 325 -99.5t123 -261.5q0 -93 -45.5 -180t-123.5 -153t-189.5 -106t-235.5 -40zM700 96q170 0 294 100.5t124 235.5q0 109 -84.5 175.5t-224.5 66.5
q-176 0 -300 -96.5t-124 -227.5q0 -110 88.5 -182t226.5 -72z" />
    <glyph glyph-name="d.ss01" horiz-adv-x="1638" 
d="M635 -35q-243 0 -389 135.5t-146 358.5q0 136 58.5 265t157.5 226t238.5 156t291.5 59q162 0 284 -65.5t179 -186.5h6l131 725h168l-289 -1638h-160l39 217h-4q-101 -122 -252 -187t-313 -65zM684 111q116 0 224 45t186 118.5t125 171t47 199.5q0 170 -117.5 272.5
t-298.5 102.5q-117 0 -223.5 -45.5t-181 -120t-118.5 -172t-44 -199.5q0 -168 110 -270t291 -102z" />
    <glyph glyph-name="dcaron.ss01" horiz-adv-x="1654" 
d="M1692 1169h-111l201 258q-35 10 -54.5 36t-19.5 59q0 55 48.5 97t113.5 42q50 0 82.5 -29t32.5 -73q0 -43 -52.5 -112.5t-240.5 -277.5zM639 -35q-241 0 -388 135.5t-147 358.5q0 136 59 265t158.5 226t239 156t291.5 59q161 0 283 -65.5t180 -186.5h6l129 725h168
l-289 -1638h-160l39 217h-4q-101 -123 -251.5 -187.5t-313.5 -64.5zM688 111q116 0 224 45t186 118.5t125 171t47 199.5q0 170 -117.5 272.5t-298.5 102.5q-116 0 -222.5 -45.5t-181 -120t-119 -172t-44.5 -199.5q0 -167 110.5 -269.5t290.5 -102.5z" />
    <glyph glyph-name="dcroat.ss01" horiz-adv-x="1638" 
d="M1581 1448h315l-18 -125h-319l-234 -1323h-160l39 217h-4q-101 -122 -252 -187t-313 -65q-243 0 -389 135.5t-146 358.5q0 136 58.5 265t157.5 226t238.5 156t291.5 59q162 0 284 -65.5t179 -186.5h6l74 410h-345l21 125h346l35 190h168zM684 111q116 0 224 45t186 118.5
t125 171t47 199.5q0 170 -117.5 272.5t-298.5 102.5q-117 0 -223.5 -45.5t-181 -120t-118.5 -172t-44 -199.5q0 -168 110 -270t291 -102z" />
    <glyph glyph-name="g.ss01" horiz-adv-x="1640" 
d="M1243 -451h-1216l20 142h1049l104 561h-4q-98 -121 -243.5 -185.5t-309.5 -64.5q-244 0 -391.5 134.5t-147.5 350.5q0 175 99 331t271 251.5t372 95.5q166 0 289 -67t180 -189h4l41 224h164zM688 147q114 0 221.5 43.5t185.5 114t125.5 163.5t47.5 189
q0 160 -117.5 261.5t-302.5 101.5q-113 0 -218 -43t-180 -112.5t-120 -162.5t-45 -190q0 -161 112.5 -263t290.5 -102z" />
    <glyph glyph-name="gbreve.ss01" horiz-adv-x="1640" 
d="M950 1274q-204 0 -304 111t-77 284h152q-19 -121 51.5 -195.5t198.5 -74.5q129 0 226.5 74.5t125.5 195.5h152q-39 -175 -181 -285t-344 -110zM1243 -451h-1216l20 142h1049l104 561h-4q-98 -121 -243.5 -185.5t-309.5 -64.5q-244 0 -391.5 134.5t-147.5 350.5
q0 175 99 331t271 251.5t372 95.5q166 0 289 -67t180 -189h4l41 224h164zM688 147q114 0 221.5 43.5t185.5 114t125.5 163.5t47.5 189q0 160 -117.5 261.5t-302.5 101.5q-113 0 -218 -43t-180 -112.5t-120 -162.5t-45 -190q0 -161 112.5 -263t290.5 -102z" />
    <glyph glyph-name="uni0123.ss01" horiz-adv-x="1640" 
d="M807 1354q0 42 49 106t227 264h107l-189 -245q31 -11 50.5 -34.5t19.5 -55.5q0 -54 -45.5 -93t-107.5 -39q-46 0 -78.5 27.5t-32.5 69.5zM1243 -451h-1216l20 142h1049l104 561h-4q-98 -121 -243.5 -185.5t-309.5 -64.5q-244 0 -391.5 134.5t-147.5 350.5q0 175 99 331
t271 251.5t372 95.5q166 0 289 -67t180 -189h4l41 224h164zM688 147q114 0 221.5 43.5t185.5 114t125.5 163.5t47.5 189q0 160 -117.5 261.5t-302.5 101.5q-113 0 -218 -43t-180 -112.5t-120 -162.5t-45 -190q0 -161 112.5 -263t290.5 -102z" />
    <glyph glyph-name="gdotaccent.ss01" horiz-adv-x="1640" 
d="M975 1405q-51 0 -85 30t-34 74q0 57 48.5 99.5t113.5 42.5q51 0 85 -30t34 -73q0 -57 -49.5 -100t-112.5 -43zM1243 -451h-1216l20 142h1049l104 561h-4q-98 -121 -243.5 -185.5t-309.5 -64.5q-244 0 -391.5 134.5t-147.5 350.5q0 175 99 331t271 251.5t372 95.5
q166 0 289 -67t180 -189h4l41 224h164zM688 147q114 0 221.5 43.5t185.5 114t125.5 163.5t47.5 189q0 160 -117.5 261.5t-302.5 101.5q-113 0 -218 -43t-180 -112.5t-120 -162.5t-45 -190q0 -161 112.5 -263t290.5 -102z" />
    <glyph glyph-name="i.ss01" horiz-adv-x="829" 
d="M575 1399q-53 0 -86.5 30t-33.5 74q0 57 48 99.5t111 42.5q51 0 85 -30t34 -73q0 -57 -47.5 -100t-110.5 -43zM705 0h-459l180 989h-332l21 144h499l-176 -990h289z" />
    <glyph glyph-name="dotlessi.ss01" horiz-adv-x="829" 
d="M705 0h-459l180 989h-332l21 144h499l-176 -990h289z" />
    <glyph glyph-name="iacute.ss01" horiz-adv-x="829" 
d="M997 1669l-440 -391h-149l362 391h227zM705 0h-459l180 989h-332l21 144h499l-176 -990h289z" />
    <glyph glyph-name="icircumflex.ss01" horiz-adv-x="829" 
d="M186 1278h-161l421 360h218l292 -360h-159q-23 23 -71.5 68t-94.5 90.5t-90 97.5q-62 -49 -174 -126.5t-181 -129.5zM705 0h-459l180 989h-332l21 144h499l-176 -990h289z" />
    <glyph glyph-name="idieresis.ss01" horiz-adv-x="829" 
d="M289 1362q-47 0 -79 28.5t-32 69.5q0 50 45 89.5t103 39.5q47 0 78.5 -27.5t31.5 -66.5q0 -53 -44.5 -93t-102.5 -40zM729 1362q-49 0 -80 27t-31 69q0 54 44 92.5t104 38.5q46 0 78.5 -28t32.5 -68q0 -51 -45.5 -91t-102.5 -40zM705 0h-459l180 989h-332l21 144h499
l-176 -990h289z" />
    <glyph glyph-name="i.loclTRK.ss01" horiz-adv-x="829" 
d="M559 1405q-52 0 -85.5 29t-33.5 75q0 56 48 98t112 42q51 0 85 -29.5t34 -73.5q0 -56 -48.5 -98.5t-111.5 -42.5zM705 0h-459l180 989h-332l21 144h499l-176 -990h289z" />
    <glyph glyph-name="igrave.ss01" horiz-adv-x="829" 
d="M573 1278h-149l-303 391h227zM705 0h-459l180 989h-332l21 144h499l-176 -990h289z" />
    <glyph glyph-name="imacron.ss01" horiz-adv-x="829" 
d="M930 1405h-826l21 125h825zM705 0h-459l180 989h-332l21 144h499l-176 -990h289z" />
    <glyph glyph-name="iogonek.ss01" horiz-adv-x="829" 
d="M516 1405q-51 0 -85 30t-34 74q0 57 48.5 99.5t113.5 42.5q51 0 85 -30t34 -73q0 -57 -49.5 -100t-112.5 -43zM705 0h-326q-101 -35 -169.5 -94t-68.5 -129q0 -58 52 -91.5t131 -33.5q53 0 110 14l-20 -112q-68 -15 -121 -15q-132 0 -210.5 54t-78.5 145q0 47 23 90.5
t61.5 76t76.5 56t81 41.5l180 987h-332l21 144h499l-176 -990h289z" />
    <glyph glyph-name="j.ss01" horiz-adv-x="745" 
d="M588 1399q-52 0 -86.5 30t-34.5 74q0 57 48.5 99.5t113.5 42.5q50 0 83 -30t33 -73q0 -56 -47 -99.5t-110 -43.5zM350 -451h-672l23 142h502l233 1298h-344l25 144h512z" />
    <glyph glyph-name="l.ss01" horiz-adv-x="894" 
d="M795 0h-668l289 1638h168l-267 -1495h500z" />
    <glyph glyph-name="lacute.ss01" horiz-adv-x="894" 
d="M1151 2091l-463 -328h-156l371 328h248zM795 0h-668l289 1638h168l-267 -1495h500z" />
    <glyph glyph-name="lcaron.ss01" horiz-adv-x="894" 
d="M852 1149h-109l199 258q-35 10 -54.5 35.5t-19.5 58.5q0 55 48.5 97t113.5 42q50 0 82.5 -29t32.5 -73t-52.5 -113.5t-240.5 -275.5zM795 0h-668l289 1638h168l-267 -1495h500z" />
    <glyph glyph-name="uni013C.ss01" horiz-adv-x="894" 
d="M795 0h-668l289 1638h168l-267 -1495h500zM205 -537h-88l155 199q-88 23 -88 92q0 52 44.5 91.5t105.5 39.5q47 0 79.5 -27.5t32.5 -68.5t-34 -87t-149 -174q-37 -42 -58 -65z" />
    <glyph glyph-name="lslash.ss01" horiz-adv-x="894" 
d="M455 909l-138 -766h500l-22 -143h-668l143 807l-272 -150l25 140l272 151l121 690h168l-105 -587l260 145l-20 -139z" />
    <glyph glyph-name="m.ss01" horiz-adv-x="2478" 
d="M287 0h-168l200 1133h168l-86 -476l809 476h215l-86 -474l807 474h217l-200 -1133h-168l176 979h-14l-846 -494l-86 -485h-168l178 979h-14l-848 -494z" />
    <glyph glyph-name="n.ss01" horiz-adv-x="1566" 
d="M397 629l863 504h192l-201 -1133h-168l177 963h-15l-872 -484l-86 -479h-168l200 1133h168z" />
    <glyph glyph-name="nacute.ss01" horiz-adv-x="1566" 
d="M1188 1669h227l-440 -391h-150zM397 629l863 504h192l-201 -1133h-168l177 963h-15l-872 -484l-86 -479h-168l200 1133h168z" />
    <glyph glyph-name="ncaron.ss01" horiz-adv-x="1566" 
d="M1440 1649l-420 -365h-217l-291 365h160q33 -32 86 -82t91.5 -88t80.5 -86q59 47 170 125t180 131h160zM397 629l863 504h192l-201 -1133h-168l177 963h-15l-872 -484l-86 -479h-168l200 1133h168z" />
    <glyph glyph-name="uni0146.ss01" horiz-adv-x="1566" 
d="M397 629l863 504h192l-201 -1133h-168l177 963h-15l-872 -484l-86 -479h-168l200 1133h168zM696 -115q48 0 80.5 -27.5t32.5 -68.5q0 -40 -34.5 -87t-143.5 -168q-41 -45 -64 -71h-88l156 199q-88 23 -88 92q0 52 44 91.5t105 39.5z" />
    <glyph glyph-name="eng.ss01" horiz-adv-x="1568" 
d="M784 -483q-149 0 -247 53l22 143q103 -57 217 -57q69 0 122 24t82 52.5t52.5 83t30.5 83t18 84.5q1 6 2 9l177 971h-15l-872 -484l-86 -479h-168l200 1133h168l-90 -492l863 492h192l-203 -1147q-7 -38 -11 -61.5t-15 -66t-22.5 -70.5t-31.5 -67t-43 -65t-57.5 -54.5
t-74.5 -45.5t-94 -28t-116 -11z" />
    <glyph glyph-name="ntilde.ss01" horiz-adv-x="1566" 
d="M770 1477q-56 0 -96.5 -39t-52.5 -99h-127q22 115 105.5 186.5t193.5 71.5q89 0 165 -65l48 -35q60 -51 118 -51q54 0 93 38.5t51 98.5h129q-22 -121 -100 -190.5t-193 -69.5q-59 0 -96.5 17.5t-81.5 54.5l-45 32q-22 18 -32 25t-32.5 16t-46.5 9zM397 629l863 504h192
l-201 -1133h-168l177 963h-15l-872 -484l-86 -479h-168l200 1133h168z" />
    <glyph glyph-name="p.ss01" horiz-adv-x="1638" 
d="M207 -451h-168l280 1584h164l-43 -230h6q106 130 256.5 196t311.5 66q238 0 383 -135t145 -356q0 -137 -58.5 -266.5t-157.5 -227t-238 -156.5t-291 -59q-165 0 -289.5 67.5t-181.5 186.5zM793 111q116 0 222 45t181 119t119.5 171t44.5 199q0 169 -110.5 272t-291.5 103
q-116 0 -224 -45t-186 -118.5t-124.5 -171.5t-46.5 -200q0 -166 116.5 -270t299.5 -104z" />
    <glyph glyph-name="q.ss01" horiz-adv-x="1640" 
d="M1245 -451h-168l119 676q-102 -125 -252.5 -192.5t-314.5 -67.5q-238 0 -383.5 136.5t-145.5 359.5q0 135 58 263.5t156.5 225.5t238.5 156t293 59q163 0 287 -66.5t180 -189.5h6l39 224h166zM682 111q117 0 225.5 45t186.5 118.5t125 171t47 199.5q0 169 -117.5 272
t-298.5 103q-116 0 -222 -45.5t-181 -119.5t-119.5 -172t-44.5 -200q0 -167 110 -269.5t289 -102.5z" />
    <glyph glyph-name="r.ss01" horiz-adv-x="985" 
d="M287 0h-168l200 1133h740l-21 -144h-571z" />
    <glyph glyph-name="racute.ss01" horiz-adv-x="985" 
d="M1128 1669l-440 -391h-149l362 391h227zM287 0h-168l200 1133h740l-21 -144h-571z" />
    <glyph glyph-name="rcaron.ss01" horiz-adv-x="985" 
d="M731 1284h-217l-291 365h160q33 -32 86 -82t91.5 -88t80.5 -86q59 47 170 125t180 131h160zM287 0h-168l200 1133h740l-21 -144h-571z" />
    <glyph glyph-name="uni0157.ss01" horiz-adv-x="985" 
d="M287 0h-168l200 1133h740l-21 -144h-571zM59 -537h-88l156 199q-88 23 -88 92q0 52 44 91.5t105 39.5q48 0 80.5 -27.5t32.5 -68.5q0 -40 -34.5 -87t-143.5 -168q-41 -45 -64 -71z" />
    </font>
</defs>
</svg>
