<?xml version="1.0" standalone="no"?>
<!DOCTYPE svg PUBLIC "-//W3C//DTD SVG 1.1//EN" "http://www.w3.org/Graphics/SVG/1.1/DTD/svg11.dtd" >
<svg xmlns="http://www.w3.org/2000/svg" xmlns:xlink="http://www.w3.org/1999/xlink" version="1.1">
<metadata>
Created by FontForge 20170731 at Mon Mar 15 14:21:11 2021
 By Aleksey,,,
Copyright (c) 2020 by Matthieu Salvaggio x Blaze Type. All rights reserved.
</metadata>
<defs>
<font id="Area-RegularExtended" horiz-adv-x="2457" >
  <font-face 
    font-family="Area Extended"
    font-weight="400"
    font-stretch="normal"
    units-per-em="2048"
    panose-1="0 0 5 0 0 0 0 0 0 0"
    ascent="1638"
    descent="-410"
    x-height="1130"
    cap-height="1597"
    bbox="-1982 -520 3111 2154"
    underline-thickness="102"
    underline-position="-307"
    unicode-range="U+0020-25CA"
  />
<missing-glyph horiz-adv-x="1748" 
d="M1507 0h-1265v1597h1265v-1597zM379 1485v-1286l930 1286h-930zM1368 1368l-901 -1249h901v1249z" />
    <glyph glyph-name=".notdef" horiz-adv-x="1748" 
d="M1507 0h-1265v1597h1265v-1597zM379 1485v-1286l930 1286h-930zM1368 1368l-901 -1249h901v1249z" />
    <glyph glyph-name=".null" horiz-adv-x="0" 
 />
    <glyph glyph-name="nonmarkingreturn" horiz-adv-x="682" 
 />
    <glyph glyph-name="space" unicode=" " horiz-adv-x="651" 
 />
    <glyph glyph-name="exclam" unicode="!" horiz-adv-x="628" 
d="M360 391h-90l-47 1102v104h183v-104zM315 -14q-54 0 -91.5 33.5t-37.5 82.5q0 46 37.5 79.5t91.5 33.5q52 0 89.5 -33.5t37.5 -79.5q0 -49 -36.5 -82.5t-90.5 -33.5z" />
    <glyph glyph-name="quotedbl" unicode="&#x22;" horiz-adv-x="811" 
d="M328 1155h-154v442h154v-442zM637 1155h-154v442h154v-442z" />
    <glyph glyph-name="numbersign" unicode="#" horiz-adv-x="1679" 
d="M1581 1081l-27 -116h-292l-91 -381h291l-26 -117h-293l-111 -467h-139l111 467h-486l-110 -467h-140l111 467h-283l27 117h285l90 381h-283l29 116h280l123 516h139l-122 -516h485l123 516h139l-123 -516h293zM547 584h485l90 381h-485z" />
    <glyph glyph-name="dollar" unicode="$" horiz-adv-x="1409" 
d="M1257 485q0 -157 -132.5 -262.5t-362.5 -111.5v-193h-109v197q-183 16 -319.5 104.5t-200.5 249.5l137 45q108 -240 383 -272v497h-4q-36 8 -68.5 16.5t-81 25t-88.5 36t-82.5 49.5t-71.5 64.5t-48 81.5t-19 100q0 80 40 146.5t106.5 109.5t148 68t168.5 30v172h109v-176
q166 -17 296 -102t171 -207l-131 -55q-38 92 -125.5 156t-210.5 81v-485l14 -4q45 -11 72 -17.5t71.5 -19.5t73.5 -24t68 -29t64 -36t52.5 -43.5t43 -53t26 -63t10.5 -75.5zM344 1122q0 -42 19.5 -78t48.5 -60.5t73 -46t82 -34.5t86 -26v464q-134 -6 -221.5 -65t-87.5 -154z
M762 715v-477q62 2 120 16t110 40.5t83 71.5t31 103q0 46 -20 83.5t-50 61.5t-79 44.5t-91.5 32t-103.5 24.5z" />
    <glyph glyph-name="percent" unicode="%" horiz-adv-x="1998" 
d="M416 788q-142 0 -231 102.5t-89 264.5q0 163 89 267t231 104q144 0 232.5 -104t88.5 -267q0 -161 -88.5 -264t-232.5 -103zM399 0h-143l1366 1468h135zM416 893q86 0 137 69.5t51 192.5t-51 193.5t-137 70.5t-137.5 -70.5t-51.5 -193.5t51.5 -192.5t137.5 -69.5z
M1583 -29q-142 0 -230.5 102.5t-88.5 264.5q0 163 88.5 267t230.5 104q144 0 233 -104t89 -267q0 -161 -89 -264t-233 -103zM1583 76q86 0 137.5 69.5t51.5 192.5t-51.5 193.5t-137.5 70.5t-137 -70.5t-51 -193.5t51 -192.5t137 -69.5z" />
    <glyph glyph-name="ampersand" unicode="&#x26;" horiz-adv-x="1675" 
d="M666 -35q-145 0 -267 46t-199 138t-77 213q0 67 27 128.5t65.5 107t102 93t115 78t126.5 69.5q-50 44 -82 74.5t-77.5 81t-72.5 92.5t-47 95.5t-20 104.5q0 147 131 245.5t324 98.5q198 0 323 -105.5t125 -248.5q0 -69 -32 -136.5t-89.5 -124.5t-123 -104t-144.5 -90
l432 -370q82 147 131 331l144 -28q-87 -265 -174 -400l399 -352h-186l-287 244q-224 -281 -567 -281zM684 907q82 46 130 78.5t96 76.5t69.5 92.5t21.5 107.5q0 113 -81.5 176t-210.5 63q-121 0 -204 -57.5t-83 -157.5q0 -49 20.5 -98.5t61.5 -99.5t80.5 -89t99.5 -92z
M672 94q273 0 463 244l-478 410q-52 -27 -82.5 -43.5t-75.5 -43t-71 -47t-57.5 -50t-48 -56.5t-28 -61.5t-11.5 -71.5q0 -84 54 -149t142 -98.5t193 -33.5z" />
    <glyph glyph-name="quotesingle" unicode="'" horiz-adv-x="503" 
d="M328 1155h-154v442h154v-442z" />
    <glyph glyph-name="parenleft" unicode="(" horiz-adv-x="733" 
d="M698 -307h-157q-201 198 -307.5 445t-106.5 507q0 262 106 507.5t308 444.5h157q-196 -196 -300.5 -443t-104.5 -509q0 -260 104 -507.5t301 -444.5z" />
    <glyph glyph-name="parenright" unicode=")" horiz-adv-x="733" 
d="M193 -307h-156q197 197 301 446t104 506q0 259 -104 507t-301 445h156q203 -200 308 -446.5t105 -505.5q0 -258 -105.5 -505.5t-307.5 -446.5z" />
    <glyph glyph-name="asterisk" unicode="*" horiz-adv-x="1011" 
d="M557 1024h-104l2 207l-222 -105l-53 80l223 105l-223 104l53 80l222 -104l-2 206h104v-206l221 104l53 -80l-223 -104l223 -105l-53 -80l-221 105v-207z" />
    <glyph glyph-name="plus" unicode="+" horiz-adv-x="1204" 
d="M672 686h362v-123h-362v-313h-140v313h-362v123h362v313h140v-313z" />
    <glyph glyph-name="comma" unicode="," horiz-adv-x="534" 
d="M182 -258h-98l147 254q-40 12 -63 41t-23 65q0 46 38 79.5t93 33.5q52 0 89.5 -33.5t37.5 -79.5q0 -39 -38 -99.5t-183 -260.5z" />
    <glyph glyph-name="hyphen" unicode="-" horiz-adv-x="948" 
d="M803 563h-658v121h658v-121z" />
    <glyph glyph-name="period" unicode="." horiz-adv-x="567" 
d="M287 -14q-56 0 -93.5 33.5t-37.5 82.5q0 46 38 79.5t93 33.5q52 0 88.5 -33.5t36.5 -79.5q0 -49 -36 -82.5t-89 -33.5z" />
    <glyph glyph-name="slash" unicode="/" horiz-adv-x="1009" 
d="M242 -135h-146l668 1773h147z" />
    <glyph glyph-name="zero" unicode="0" horiz-adv-x="1724" 
d="M864 -35q-209 0 -372 105t-252.5 294t-89.5 431q0 244 89.5 434t252.5 295.5t372 105.5q155 0 287.5 -61.5t225.5 -171t145.5 -265t52.5 -337.5q0 -242 -89.5 -431t-251.5 -294t-370 -105zM864 102q242 0 390.5 190t148.5 503q0 314 -148.5 506t-390.5 192
q-243 0 -392.5 -191.5t-149.5 -506.5q0 -314 149.5 -503.5t392.5 -189.5z" />
    <glyph glyph-name="one" unicode="1" horiz-adv-x="944" 
d="M676 0h-162v1296q-71 -84 -189 -137.5t-262 -68.5v141q202 29 330.5 132t128.5 234h154v-1597z" />
    <glyph glyph-name="two" unicode="2" horiz-adv-x="1517" 
d="M1389 0h-1239v12q14 106 48.5 190.5t69 139.5t121.5 122t142 101.5t194 116.5q16 10 25.5 15.5t24 14t26.5 15.5q42 25 70 42t74 48.5t77 58t67.5 64t58.5 73.5t37 81t15 90q0 137 -119.5 226t-312.5 89q-221 0 -358.5 -119.5t-137.5 -310.5l-143 23q0 237 177 387.5
t464 150.5q171 0 306 -56t211.5 -159t76.5 -235q0 -66 -21 -127.5t-55 -111t-86.5 -98.5t-104 -86.5t-118.5 -78.5q-64 -40 -152.5 -89.5t-141.5 -79t-116.5 -73t-102 -82t-72.5 -94t-52 -121.5h1047v-139z" />
    <glyph glyph-name="three" unicode="3" horiz-adv-x="1562" 
d="M778 -35q-241 0 -422 99.5t-243 265.5l135 63q55 -128 198 -211.5t334 -83.5q204 0 336.5 93t132.5 243q0 145 -130.5 235.5t-381.5 90.5h-190v121h207q210 0 324 87.5t114 221.5q0 140 -123.5 223.5t-316.5 83.5q-181 0 -306.5 -81.5t-152.5 -229.5l-141 26
q32 189 202.5 303.5t413.5 114.5q159 0 292 -49t215.5 -145.5t82.5 -223.5q0 -134 -92 -240t-242 -143v-2q173 -28 282 -127.5t109 -255.5q0 -96 -44 -182.5t-124 -152.5t-201.5 -105t-267.5 -39z" />
    <glyph glyph-name="four" unicode="4" horiz-adv-x="1591" 
d="M1210 0h-159v393h-985v144l987 1060h157v-1071h287v-133h-287v-393zM1051 1397l-820 -871h820v871z" />
    <glyph glyph-name="five" unicode="5" horiz-adv-x="1554" 
d="M762 -35q-236 0 -425.5 99.5t-260.5 269.5l133 67q67 -143 219.5 -224t335.5 -81q139 0 253.5 50.5t182.5 144.5t68 213q0 170 -137 280.5t-343 110.5q-151 0 -273 -59t-189 -156l-129 47l223 870h907v-129h-797l-161 -612h4q57 68 178 114t266 46q122 0 233 -34.5
t197 -98t137.5 -161t51.5 -214.5q0 -156 -90 -281t-244 -193.5t-340 -68.5z" />
    <glyph glyph-name="six" unicode="6" horiz-adv-x="1626" 
d="M842 -35q-315 0 -505 200t-190 550q0 200 65.5 371t181 290t277 186.5t349.5 67.5q246 0 422 -117l-105 -104q-139 90 -340 90q-145 0 -271.5 -53.5t-219.5 -150t-146.5 -239.5t-54.5 -315h6q53 129 212.5 211t348.5 82q123 0 238 -39t202.5 -107t140 -168t52.5 -216
q0 -153 -87 -276.5t-239 -193t-337 -69.5zM844 96q133 0 245.5 51t181 145.5t68.5 213.5q0 118 -67.5 212t-179.5 144.5t-246 50.5q-211 0 -353.5 -121t-142.5 -292q0 -113 68 -206.5t181 -145.5t245 -52z" />
    <glyph glyph-name="seven" unicode="7" horiz-adv-x="1439" 
d="M532 0h-161q0 207 110.5 485t307 553t425.5 455h-1173v131h1352v-141q-239 -181 -439 -451.5t-311 -545t-111 -486.5z" />
    <glyph glyph-name="eight" unicode="8" horiz-adv-x="1601" 
d="M803 -35q-288 0 -474 132.5t-186 330.5q0 149 102.5 259.5t274.5 150.5v4q-147 51 -227 144.5t-80 213.5q0 183 167 306.5t423 123.5q251 0 417 -120t166 -300q0 -120 -80 -219t-227 -149v-4q172 -40 275.5 -150.5t103.5 -259.5q0 -130 -84.5 -236t-234.5 -166.5
t-336 -60.5zM803 893q182 0 303 88.5t121 224.5q0 131 -120.5 216t-303.5 85q-185 0 -307.5 -85t-122.5 -216q0 -136 122 -224.5t308 -88.5zM801 92q135 0 246 43t177 124t66 185q0 153 -126.5 245.5t-360.5 92.5q-237 0 -364.5 -91.5t-127.5 -246.5q0 -104 66 -185
t177 -124t247 -43z" />
    <glyph glyph-name="nine" unicode="9" horiz-adv-x="1658" 
d="M754 -35q-161 0 -317.5 59t-278.5 179l104 94q210 -203 475 -203q122 0 223 39t171.5 108t118.5 165t70.5 207t22.5 237h-4q-33 -96 -117.5 -170t-201.5 -114t-246 -40q-170 0 -314 69t-231.5 196t-87.5 284q0 156 86 282.5t241.5 199.5t350.5 73q109 0 206 -23.5
t186.5 -80t153.5 -141t102 -214.5t38 -294q0 -146 -28.5 -279.5t-89.5 -249.5t-148 -201t-211.5 -133.5t-273.5 -48.5zM791 649q215 0 360 130.5t145 318.5q0 123 -68.5 216.5t-178 141t-240.5 47.5q-211 0 -356.5 -119t-145.5 -309q0 -184 138 -305t346 -121z" />
    <glyph glyph-name="colon" unicode=":" horiz-adv-x="614" 
d="M309 930q-54 0 -92.5 35t-38.5 82t38.5 79.5t92.5 32.5q53 0 90 -32.5t37 -79.5q0 -48 -37.5 -82.5t-89.5 -34.5zM309 -14q-54 0 -92.5 34.5t-38.5 81.5q0 46 38.5 79.5t92.5 33.5q52 0 89.5 -33.5t37.5 -79.5q0 -47 -37.5 -81.5t-89.5 -34.5z" />
    <glyph glyph-name="semicolon" unicode=";" horiz-adv-x="700" 
d="M365 930q-55 0 -93.5 34.5t-38.5 82.5q0 47 38 79.5t94 32.5q53 0 90 -32.5t37 -79.5q0 -48 -37.5 -82.5t-89.5 -34.5zM268 -262h-100l149 258q-39 12 -61.5 41t-22.5 65q0 46 37.5 79.5t91.5 33.5t92 -33.5t38 -79.5q0 -37 -34.5 -93t-157.5 -227q-21 -29 -32 -44z" />
    <glyph glyph-name="less" unicode="&#x3c;" horiz-adv-x="1232" 
d="M1030 428v-119l-856 242v141l856 242v-119l-700 -192z" />
    <glyph glyph-name="equal" unicode="=" horiz-adv-x="1249" 
d="M1057 768h-867v123h867v-123zM1057 350h-867v123h867v-123z" />
    <glyph glyph-name="greater" unicode="&#x3e;" horiz-adv-x="1232" 
d="M1055 551l-852 -242v119l696 195l-696 192v119l852 -242v-141z" />
    <glyph glyph-name="question" unicode="?" horiz-adv-x="1292" 
d="M633 381h-150q-14 57 -14 115q0 46 14 86.5t34.5 71.5t61 66t76 60.5t97.5 65.5q132 84 203 169.5t71 188.5q0 90 -55.5 158.5t-143 102.5t-190.5 34q-106 0 -196 -37.5t-147.5 -113.5t-57.5 -177q0 -23 4 -63l-140 22q-8 33 -8 64q0 98 45.5 181.5t122 138.5t176.5 85.5
t209 30.5q107 0 205 -28.5t173.5 -80.5t121 -132t45.5 -175q0 -73 -28 -139.5t-82.5 -124t-107 -99t-128.5 -91.5q-51 -34 -74.5 -50.5t-59 -46.5t-51.5 -53.5t-28.5 -57t-12.5 -71.5q0 -41 15 -100zM582 -14q-55 0 -93 34t-38 82q0 46 37.5 79.5t91.5 33.5q51 0 89 -33.5
t38 -79.5q0 -49 -36.5 -82.5t-88.5 -33.5z" />
    <glyph glyph-name="at" unicode="@" horiz-adv-x="2363" 
d="M1094 -195q-224 0 -410 64t-308.5 173.5t-189.5 255t-67 310.5q0 156 60.5 308.5t172.5 280t261 225.5t337.5 153t390.5 55q267 0 480 -93.5t336.5 -269.5t123.5 -405q0 -176 -73 -324t-200 -233.5t-279 -85.5q-137 0 -204.5 67t-49.5 169q-86 -108 -213 -163.5
t-256 -55.5q-181 0 -293.5 110t-112.5 275q0 109 51.5 214.5t135 184t195.5 126.5t228 48q127 0 225 -56t140 -155l39 184h121l-127 -596q-51 -254 137 -254q161 0 278 151.5t117 375.5q0 304 -219 492t-582 188q-221 0 -422 -75t-344 -199.5t-228 -292.5t-85 -349
q0 -150 59 -277t167 -219t269.5 -144t358.5 -52q186 0 357 45t301 129l69 -88q-155 -98 -352 -147.5t-395 -49.5zM1049 348q128 0 235.5 67t166 170.5t58.5 215.5q0 128 -77 204t-220 76q-129 0 -236.5 -64.5t-166.5 -167.5t-59 -216q0 -129 77.5 -207t221.5 -78z" />
    <glyph glyph-name="A" unicode="A" horiz-adv-x="1808" 
d="M207 0h-170l780 1597h174l781 -1597h-168q-148 290 -281 559h-842zM545 694h712q-231 473 -350 736h-6q-18 -38 -356 -736z" />
    <glyph glyph-name="B" unicode="B" horiz-adv-x="1751" 
d="M1032 0h-770v1597h678q144 0 262 -34t193.5 -91.5t116 -132t40.5 -157.5q0 -80 -35 -151t-115.5 -131t-197.5 -85v-4q204 -31 308 -138t104 -247q0 -184 -166 -305t-418 -121zM424 868h498q215 0 338.5 81t123.5 212q0 138 -135.5 220.5t-347.5 82.5h-477v-596zM424 133
h555q215 0 341 82t126 215q0 137 -134.5 223t-350.5 86h-537v-606z" />
    <glyph glyph-name="C" unicode="C" horiz-adv-x="2066" 
d="M1100 -35q-280 0 -500.5 105t-343.5 293.5t-123 429.5q0 186 75 344t204 265t303.5 167.5t371.5 60.5q134 0 263 -29.5t242.5 -85.5t202.5 -146.5t134 -205.5l-143 -53q-88 180 -276.5 281.5t-419.5 101.5q-158 0 -300 -48.5t-250.5 -136.5t-172.5 -222.5t-64 -294.5
q0 -136 45.5 -250.5t123.5 -194.5t182.5 -135.5t222 -82t241.5 -26.5q150 0 277 38.5t217.5 106t153 153t96.5 186.5l143 -47q-46 -126 -124 -228.5t-189 -181t-262 -121.5t-330 -43z" />
    <glyph glyph-name="D" unicode="D" horiz-adv-x="1978" 
d="M954 0h-692v1597h670q187 0 339.5 -40.5t257 -112t176 -171.5t104 -216t32.5 -248q0 -178 -61 -327t-173 -256t-280 -166.5t-373 -59.5zM424 133h545q326 0 515 177.5t189 486.5q0 319 -203 493t-573 174h-473v-1331z" />
    <glyph glyph-name="E" unicode="E" horiz-adv-x="1617" 
d="M1489 0h-1227v1597h1202v-133h-1040v-575h991v-137h-991v-613h1065v-139z" />
    <glyph glyph-name="F" unicode="F" horiz-adv-x="1525" 
d="M1440 1597v-139h-1016v-586h967v-135h-967v-737h-162v1597h1178z" />
    <glyph glyph-name="G" unicode="G" horiz-adv-x="2160" 
d="M1083 -35q-205 0 -381.5 61.5t-301.5 170t-196 263t-71 333.5q0 245 127.5 437.5t344.5 296t482 103.5q135 0 264 -29.5t242.5 -86t201.5 -147t134 -204.5l-143 -53q-88 180 -276.5 281.5t-419.5 101.5q-157 0 -299 -48.5t-251 -136t-173 -222t-64 -295.5
q0 -136 45.5 -251t123.5 -194.5t181.5 -135.5t218.5 -82t236 -26q306 0 504 155.5t219 395.5h-678v127h838v-780h-133q0 62 -5 360h-12q-99 -188 -292 -291.5t-466 -103.5z" />
    <glyph glyph-name="H" unicode="H" horiz-adv-x="1986" 
d="M1563 872v725h159v-1597h-159v737h-1139v-737h-162v1597h162v-725h1139z" />
    <glyph glyph-name="I" unicode="I" horiz-adv-x="686" 
d="M424 0h-162v1597h162v-1597z" />
    <glyph glyph-name="J" unicode="J" horiz-adv-x="1431" 
d="M657 -35q-89 0 -171 16.5t-159 55.5t-134 96.5t-91 147t-34 200.5v45l147 19v-37q0 -90 26.5 -161.5t70 -117t102 -75.5t117.5 -42t122 -12q61 0 112 11.5t87.5 29.5t65.5 47.5t47.5 57t32 66.5t20 68t10 70t4 63.5t0.5 57.5v1026h158v-987q0 -60 -1.5 -98t-11.5 -113
t-29 -125.5t-58.5 -114t-94 -102t-141.5 -65.5t-197 -27z" />
    <glyph glyph-name="K" unicode="K" horiz-adv-x="1630" 
d="M424 0h-162v1597h162v-860h4q356 328 969 860h192q-378 -336 -784 -700q463 -502 831 -897h-194q-92 95 -144.5 150t-88 93t-170.5 179t-351 366l-264 -237v-551z" />
    <glyph glyph-name="L" unicode="L" horiz-adv-x="1454" 
d="M424 1597v-1458h991v-139h-1153v1597h162z" />
    <glyph glyph-name="M" unicode="M" horiz-adv-x="2471" 
d="M424 0h-162v1597h195q527 -931 778 -1396h4q524 939 776 1396h195v-1597h-162v1311h-10q-265 -496 -725 -1311h-156q-64 115 -184.5 330.5t-187 334.5t-165.5 299t-188 347h-8v-1311z" />
    <glyph glyph-name="N" unicode="N" horiz-adv-x="2027" 
d="M424 0h-162v1597h176q35 -41 208.5 -243t250 -291.5t219 -256.5t258 -304.5t225.5 -270.5h7v1366h159v-1597h-176q-124 145 -531.5 614t-631.5 734h-2v-1348z" />
    <glyph glyph-name="O" unicode="O" horiz-adv-x="2185" 
d="M1092 -35q-194 0 -370.5 63t-306.5 172t-207 264.5t-77 332.5q0 235 130 427t350 299t483 107q199 0 377.5 -65t306 -176t202 -265.5t74.5 -326.5q0 -174 -75.5 -329t-204.5 -265t-306.5 -174t-375.5 -64zM1096 102q156 0 299.5 53t250.5 144t170.5 221t63.5 277
t-63.5 277.5t-170 221.5t-250 144t-300.5 53q-211 0 -392.5 -89t-291 -250t-109.5 -357q0 -148 64.5 -278t172.5 -221t253.5 -143.5t302.5 -52.5z" />
    <glyph glyph-name="P" unicode="P" horiz-adv-x="1640" 
d="M262 1597h668q183 0 323 -54t221.5 -162t81.5 -257q0 -118 -48 -213t-130 -154.5t-186 -90.5t-221 -31h-547v-635h-162v1597zM424 772h496q220 0 344.5 89t124.5 255q0 165 -133.5 256.5t-354.5 91.5h-477v-692z" />
    <glyph glyph-name="Q" unicode="Q" horiz-adv-x="2191" 
d="M1982 -100l-112 -88q-45 45 -136.5 134t-136.5 134q-235 -115 -501 -115q-262 0 -482.5 106.5t-351.5 298.5t-131 427q0 177 76.5 332.5t206 265t308 172.5t376.5 63q199 0 377.5 -65t306.5 -176t203 -265.5t75 -326.5q0 -192 -90.5 -357.5t-251.5 -281.5
q45 -43 128.5 -125.5t135.5 -132.5zM1100 102q203 0 391 95q-162 151 -371 354l113 86q65 -62 191 -183.5t190 -183.5q129 97 201.5 232t72.5 295q0 196 -108 356.5t-288 250t-392 89.5q-215 0 -397.5 -89t-292 -249.5t-109.5 -357.5q0 -148 64.5 -278t173 -221t255 -143.5
t306.5 -52.5z" />
    <glyph glyph-name="R" unicode="R" horiz-adv-x="1701" 
d="M424 0h-162v1597h668q181 0 321 -54t222.5 -162.5t82.5 -258.5q0 -204 -138 -332t-363 -147v-2q27 -34 221.5 -274t296.5 -367h-178l-516 637h-455v-637zM424 768h496q220 0 344.5 89.5t124.5 256.5q0 164 -134 257t-354 93h-477v-696z" />
    <glyph glyph-name="S" unicode="S" horiz-adv-x="1583" 
d="M815 -35q-109 0 -213.5 25t-204 77.5t-178 146.5t-119.5 220l148 49q60 -186 214.5 -284.5t356.5 -98.5q85 0 166 18.5t151 54t113 98t43 141.5q0 41 -14 76t-28.5 59t-53 48t-57.5 35.5t-75.5 29.5t-72 22t-79.5 20q-24 6 -35 9l-181 47q-51 13 -86.5 23.5t-95 32.5
t-102 44.5t-92 58.5t-80 75.5t-51.5 94.5t-21 117q0 103 53.5 186t142.5 134.5t197.5 78.5t224.5 27q225 0 396.5 -100.5t234.5 -282.5l-143 -53q-55 139 -188 220t-318 81q-119 0 -217 -34t-157.5 -98.5t-59.5 -148.5q0 -43 18 -82.5t42 -67t67 -54.5t72.5 -41.5t81 -32
t70.5 -23t60 -16.5l187 -51q184 -48 250 -74q219 -85 267 -238q15 -47 15 -102q0 -138 -91 -246t-238 -164.5t-320 -56.5z" />
    <glyph glyph-name="T" unicode="T" horiz-adv-x="1558" 
d="M858 0h-158v1464h-663v133h1485v-133h-664v-1464z" />
    <glyph glyph-name="U" unicode="U" horiz-adv-x="1849" 
d="M918 -35q-321 0 -499.5 160.5t-178.5 454.5v1017h159v-1009q0 -248 138.5 -368t386.5 -120q249 0 387.5 120t138.5 368v1009h160v-1017q0 -132 -41.5 -242.5t-124 -194.5t-217 -131t-309.5 -47z" />
    <glyph glyph-name="V" unicode="V" horiz-adv-x="1808" 
d="M991 0h-174l-780 1597h170q76 -146 174 -343.5t165 -336t189.5 -394.5t169.5 -353h6q91 186 332.5 687.5t358.5 739.5h170z" />
    <glyph glyph-name="W" unicode="W" horiz-adv-x="2789" 
d="M862 0h-190l-625 1597h170q339 -833 551 -1402h4q483 1266 533 1402h178q526 -1371 538 -1402h7q355 933 544 1402h170l-622 -1597h-193q-231 573 -530 1386h-4q-304 -834 -531 -1386z" />
    <glyph glyph-name="X" unicode="X" horiz-adv-x="1591" 
d="M219 0h-184q89 108 314 386.5t351 428.5v6q-166 196 -649 776h185q173 -205 557 -663h6q323 392 559 663h182q-461 -552 -649 -776v-6q119 -142 339.5 -415.5t325.5 -399.5h-184q-60 74 -177.5 219t-212 261t-183.5 222h-6q-109 -134 -306.5 -375t-267.5 -327z" />
    <glyph glyph-name="Y" unicode="Y" horiz-adv-x="1689" 
d="M924 0h-158v586q-109 152 -360 507.5t-357 503.5h174l621 -872h4q157 222 625 872h169l-718 -1011v-586z" />
    <glyph glyph-name="Z" unicode="Z" horiz-adv-x="1615" 
d="M1538 0h-1464v143l1247 1317v4h-1200v133h1397v-139q-90 -95 -548 -576t-702 -739v-4h1270v-139z" />
    <glyph glyph-name="bracketleft" unicode="[" horiz-adv-x="790" 
d="M729 -336h-487v1933h487v-122h-338v-1680h338v-131z" />
    <glyph glyph-name="backslash" unicode="\" horiz-adv-x="1009" 
d="M913 -135h-149l-668 1773h148z" />
    <glyph glyph-name="bracketright" unicode="]" horiz-adv-x="790" 
d="M549 -336h-488v131h338v1680h-338v122h488v-1933z" />
    <glyph glyph-name="asciicircum" unicode="^" horiz-adv-x="1042" 
d="M287 1049h-144l301 548h154l299 -548h-141l-232 438h-6z" />
    <glyph glyph-name="underscore" unicode="_" horiz-adv-x="1232" 
d="M1188 -225h-1145v116h1145v-116z" />
    <glyph glyph-name="a" unicode="a" horiz-adv-x="1406" 
d="M547 -35q-118 0 -213 31.5t-155 99.5t-60 164q0 63 27 115t71 88t110 64.5t133.5 46t151.5 32.5q33 6 84 13.5t81 12t71.5 13t66 16.5t52.5 21.5t42.5 29.5t24.5 38.5t10 50.5q0 98 -99 170.5t-253 72.5q-139 0 -239 -63.5t-140 -173.5l-147 47q38 104 125 175.5
t190 102.5t217 31q95 0 181.5 -22t160.5 -65.5t118 -118.5t44 -171v-432q0 -131 10 -205.5t33 -148.5h-151q-33 100 -33 236h-6q-69 -123 -197.5 -197t-310.5 -74zM565 78q106 0 199.5 37t153.5 93.5t94.5 121.5t34.5 123v153q-60 -36 -121.5 -54.5t-204.5 -41.5
q-47 -7 -76 -12t-80.5 -16.5t-85 -23.5t-74.5 -31.5t-65.5 -41.5t-41.5 -53.5t-17 -67.5q0 -85 78.5 -135.5t205.5 -50.5z" />
    <glyph glyph-name="b" unicode="b" horiz-adv-x="1646" 
d="M899 -35q-169 0 -308 69t-218 195h-4v-229h-146v1638h150v-745q86 133 225 201.5t305 68.5q176 0 319.5 -76.5t225.5 -213.5t82 -308q0 -175 -84.5 -313t-228 -212.5t-318.5 -74.5zM877 92q213 0 352 134.5t139 338.5t-140 337.5t-351 133.5q-137 0 -251.5 -59.5
t-183.5 -168.5t-69 -245q0 -137 69.5 -245.5t184 -167t250.5 -58.5z" />
    <glyph glyph-name="c" unicode="c" horiz-adv-x="1495" 
d="M788 -35q-195 0 -347.5 74.5t-238 211t-85.5 312.5q0 177 86 313.5t239 211.5t349 75q123 0 231 -31.5t202 -105.5t146 -184l-145 -51q-52 116 -169.5 180.5t-273.5 64.5q-228 0 -365.5 -134t-137.5 -339q0 -211 143.5 -341t372.5 -130q181 0 307 80t190 213l138 -45
q-78 -181 -249 -278t-393 -97z" />
    <glyph glyph-name="d" unicode="d" horiz-adv-x="1644" 
d="M748 -35q-179 0 -323 76t-226 213t-82 309q0 176 84.5 314t228 212t320.5 74q163 0 298.5 -66.5t217.5 -191.5h6v733h149v-1284q0 -130 10 -205.5t33 -148.5h-151q-36 119 -33 227h-6q-82 -127 -221 -194.5t-305 -67.5zM766 92q138 0 253.5 59.5t185 168.5t69.5 245
q0 137 -69.5 245.5t-185 167t-253.5 58.5q-212 0 -351 -134.5t-139 -338.5q0 -203 140 -337t350 -134z" />
    <glyph glyph-name="e" unicode="e" horiz-adv-x="1314" 
d="M676 -35q-123 0 -230 43.5t-183.5 121t-120.5 189.5t-44 244q0 262 161.5 431t412.5 169q71 0 140 -14.5t142 -54.5t127.5 -101t89.5 -163t35 -232v-72h-960q4 -201 124.5 -319.5t309.5 -118.5q148 0 254.5 80.5t159.5 208.5l129 -45q-67 -173 -213 -270t-334 -97z
M252 655h805q-1 103 -36.5 181t-93 121t-123 64t-136.5 21q-166 0 -278.5 -107t-137.5 -280z" />
    <glyph glyph-name="f" unicode="f" horiz-adv-x="845" 
d="M426 0h-150v1010h-204v120h204v150q0 73 6 124.5t27.5 105.5t59 87.5t103 54.5t157.5 21q148 0 254 -53v-127q-115 59 -234 59q-37 0 -66.5 -5t-51.5 -11.5t-39 -20.5t-28 -25.5t-18.5 -33.5t-11.5 -36.5t-5.5 -43t-2 -45t-0.5 -49.5v-152h403v-120h-403v-1010z" />
    <glyph glyph-name="g" unicode="g" horiz-adv-x="1642" 
d="M797 -483q-468 0 -609 329l140 45q104 -253 471 -253q76 0 141 13.5t127 48t106 88t70.5 139t26.5 196.5v139h-6q-80 -128 -217 -194t-304 -66q-179 0 -323.5 77t-224.5 210.5t-80 296.5q0 166 83.5 298.5t227 205.5t319.5 73q164 0 303.5 -69t221.5 -197h4v233h145v-991
q0 -622 -622 -622zM764 129q137 0 253.5 59.5t185.5 165.5t69 234t-69.5 231.5t-185.5 160t-253 56.5q-211 0 -350.5 -129t-139.5 -321t141.5 -324.5t348.5 -132.5z" />
    <glyph glyph-name="h" unicode="h" horiz-adv-x="1554" 
d="M373 0h-150v1638h150v-725h6q76 126 199 188t276 62q75 0 144 -14t134.5 -47.5t113.5 -84.5t77 -130t29 -178v-709h-150v647q0 82 -21 148.5t-57 111t-85.5 74t-104 42.5t-115.5 13q-104 0 -190 -35t-141 -93t-85 -129.5t-30 -147.5v-631z" />
    <glyph glyph-name="i" unicode="i" horiz-adv-x="595" 
d="M299 1413q-57 0 -94 33.5t-37 83.5q0 46 38 79t93 33q54 0 91.5 -33t37.5 -79q0 -49 -37.5 -83t-91.5 -34zM373 0h-150v1130h150v-1130z" />
    <glyph glyph-name="j" unicode="j" horiz-adv-x="593" 
d="M297 1413q-57 0 -94 33.5t-37 83.5q0 46 37.5 79t93.5 33q54 0 91.5 -33t37.5 -79q0 -49 -37.5 -83t-91.5 -34zM-4 -483q-146 0 -256 55v129q119 -61 231 -61q52 0 92.5 14t66.5 33.5t44.5 53.5t27 60.5t13.5 69t5.5 65.5t0.5 62v1132h152v-1144q0 -51 -1 -80.5t-8 -85.5
t-20.5 -91t-41 -79.5t-66.5 -70.5t-100.5 -44t-139.5 -18z" />
    <glyph glyph-name="k" unicode="k" horiz-adv-x="1273" 
d="M688 684l602 -684h-174l-534 592l-207 -180v-412h-152v1638h152v-1054h6q234 204 633 546h186z" />
    <glyph glyph-name="l" unicode="l" horiz-adv-x="595" 
d="M373 0h-150v1638h150v-1638z" />
    <glyph glyph-name="m" unicode="m" horiz-adv-x="2484" 
d="M373 0h-150v1130h146v-217h4q76 126 202 188t275 62q71 0 137 -14.5t129 -45t111.5 -86.5t72.5 -132h5q173 278 493 278q71 0 137.5 -14t130.5 -48t111 -85t75.5 -130t28.5 -177v-709h-149v647q0 83 -21 149.5t-56 110.5t-83 73.5t-100 42.5t-109 13q-99 0 -183 -35
t-138.5 -92.5t-84.5 -129.5t-30 -148v-631h-149v647q0 83 -21 149.5t-56 110.5t-83 73.5t-100 42.5t-109 13q-99 0 -183 -35t-138.5 -92.5t-84.5 -129.5t-30 -148v-631z" />
    <glyph glyph-name="n" unicode="n" horiz-adv-x="1554" 
d="M373 0h-150v1130h146v-217h4q79 127 204.5 188.5t278.5 61.5q75 0 144 -14t134 -47.5t112.5 -84.5t76.5 -130t29 -178v-709h-150v647q0 82 -21 148.5t-57 111t-85.5 74t-104 42.5t-115.5 13q-104 0 -190 -35t-141 -92.5t-85 -129.5t-30 -148v-631z" />
    <glyph glyph-name="o" unicode="o" horiz-adv-x="1587" 
d="M795 -35q-147 0 -273 44t-215 122.5t-139.5 190t-50.5 241.5t50.5 242t139.5 190.5t215 123t273 44.5q195 0 348.5 -76t239 -213t85.5 -311t-85.5 -310.5t-239 -212t-348.5 -75.5zM795 92q228 0 371 131.5t143 339.5t-143 340.5t-371 132.5q-227 0 -371.5 -133
t-144.5 -340t144.5 -339t371.5 -132z" />
    <glyph glyph-name="p" unicode="p" horiz-adv-x="1646" 
d="M373 -451h-150v1581h146v-237h4q86 135 226 202.5t304 67.5q176 0 319.5 -76.5t225.5 -213.5t82 -308q0 -175 -84.5 -313t-228 -212.5t-318.5 -74.5q-169 0 -308 69t-218 195v-680zM877 92q213 0 352 134.5t139 338.5t-140 337.5t-351 133.5q-136 0 -250.5 -59t-184 -168
t-69.5 -246t69.5 -245.5t184 -167t250.5 -58.5z" />
    <glyph glyph-name="q" unicode="q" horiz-adv-x="1644" 
d="M1421 -451h-149v684q-81 -128 -221.5 -198t-307.5 -70q-178 0 -321 77t-224 214t-81 309q0 175 84.5 312.5t228 211.5t318.5 74q164 0 303 -69t221 -197h4v233h145v-1581zM766 92q138 0 253 59.5t184 168.5t69 245q0 137 -69 245.5t-184 167t-253 58.5
q-212 0 -351 -134.5t-139 -338.5q0 -203 140 -337t350 -134z" />
    <glyph glyph-name="r" unicode="r" horiz-adv-x="1003" 
d="M373 0h-150v1130h146v-233h10q51 119 172.5 192.5t269.5 73.5q91 0 158 -22v-150q-83 27 -168 27q-104 0 -189.5 -41t-138.5 -108.5t-81.5 -150t-28.5 -169.5v-549z" />
    <glyph glyph-name="s" unicode="s" horiz-adv-x="1214" 
d="M639 -35q-196 0 -347.5 87.5t-207.5 230.5l141 41q52 -106 169 -173t247 -67q48 0 99 10.5t102 32.5t83.5 64t32.5 98q0 28 -10 51.5t-23.5 40.5t-39 33t-46 25t-56 20t-56 16t-59.5 14l-131 31q-33 8 -59 14.5t-69 21.5t-75.5 31.5t-69.5 43t-61 56.5t-40 71.5t-16 89.5
q0 62 26.5 115t71 89t102 61.5t119.5 37.5t124 12q168 0 299 -78.5t178 -197.5l-145 -45q-36 86 -128.5 144t-220.5 58q-119 0 -195.5 -50.5t-76.5 -133.5q0 -41 22 -75.5t51.5 -56.5t79 -42.5t82.5 -30t85 -22.5l131 -31q38 -9 61.5 -14.5t66.5 -19.5t71 -28t62.5 -37.5
t55 -50t35 -64t14.5 -81.5q0 -146 -134.5 -244t-344.5 -98z" />
    <glyph glyph-name="t" unicode="t" horiz-adv-x="925" 
d="M621 -35q-52 0 -95.5 9t-75 22.5t-56 36.5t-40.5 44t-27 52.5t-16.5 53.5t-8 56.5t-3 52t-0.5 48.5v668h-270v122h270v336h150v-336h419v-122h-419v-629v-43.5t2 -43.5t5 -45t9.5 -40.5t16 -38.5t24.5 -31t34 -26t45 -15t58 -6q107 0 225 62v-132q-104 -55 -247 -55z" />
    <glyph glyph-name="u" unicode="u" horiz-adv-x="1531" 
d="M690 -35q-74 0 -141.5 14.5t-131.5 48.5t-111 85t-75 130.5t-28 178.5v708h149v-655q0 -104 32.5 -181t88 -119.5t119 -62.5t135.5 -20q100 0 184 36t136.5 94.5t81 128.5t28.5 141v638h150v-776q0 -126 10 -201t35 -153h-154q-35 115 -35 209h-4q-75 -124 -196.5 -184
t-272.5 -60z" />
    <glyph glyph-name="v" unicode="v" horiz-adv-x="1325" 
d="M743 0h-159l-543 1130h164q64 -131 457 -964h6q263 565 454 964h162z" />
    <glyph glyph-name="w" unicode="w" horiz-adv-x="2226" 
d="M698 0h-155l-498 1130h166l414 -944h6l407 944h154l418 -944h6l399 944h166l-493 -1130h-160q-16 36 -90.5 203t-105.5 238.5t-94 219t-122 293.5h-6q-171 -421 -412 -954z" />
    <glyph glyph-name="x" unicode="x" horiz-adv-x="1249" 
d="M209 0h-168q53 62 224 261t263 308v2q-31 35 -159 183.5t-330 375.5h174l410 -464h6q75 88 213.5 244.5t193.5 219.5h174q-81 -92 -242 -275t-249 -284v-2q297 -341 489 -569h-166l-413 475h-6z" />
    <glyph glyph-name="y" unicode="y" horiz-adv-x="1329" 
d="M524 -451h-139l207 435l-551 1146h164q91 -186 258.5 -539.5t202.5 -426.5h4q50 107 143 307.5t167.5 359.5t143.5 299h164z" />
    <glyph glyph-name="z" unicode="z" horiz-adv-x="1189" 
d="M1128 0h-1056v106l796 898h-751v126h954v-106l-801 -897h858v-127z" />
    <glyph glyph-name="braceleft" unicode="{" horiz-adv-x="899" 
d="M846 -305h-92q-144 0 -242.5 29t-153.5 88t-78.5 136.5t-23.5 186.5v170q0 40 -1.5 72.5t-5.5 58t-7 45t-12 34t-14 24t-18 16t-20.5 10t-24.5 5t-26 1.5h-31v150h31t26 1.5t24.5 5t20.5 10t18 16t14 24t12 34t7 45t5.5 58t1.5 72.5v170q0 47 2.5 81.5t13.5 83t30.5 84
t56.5 74t88.5 62.5t129.5 39.5t177 15.5h92v-122h-86q-184 0 -269 -69t-85 -218v-197q0 -124 -19 -197t-49.5 -102.5t-83.5 -44.5v-4q53 -15 83.5 -44t49.5 -101.5t19 -196.5v-199q0 -38 5 -69.5t18 -65.5t38.5 -59.5t63 -46.5t96 -32t133.5 -11h86v-123z" />
    <glyph glyph-name="bar" unicode="|" horiz-adv-x="630" 
d="M389 -451h-147v2089h147v-2089z" />
    <glyph glyph-name="braceright" unicode="}" horiz-adv-x="899" 
d="M143 -305h-90v123h84q184 0 269.5 67t85.5 217v199q0 120 17.5 191t49 103.5t86.5 47.5v4q-55 16 -86.5 49.5t-49 104.5t-17.5 190v197q0 51 -8.5 91.5t-32 78.5t-62.5 62.5t-102.5 39.5t-149.5 15h-84v122h90q144 0 242.5 -29.5t154.5 -88.5t79.5 -136.5t23.5 -185.5
v-170q0 -40 1.5 -72.5t5.5 -58t7 -45t12 -34t14 -24t18 -16t20.5 -10t24.5 -5t26 -1.5h31v-150h-31t-26 -1.5t-24.5 -5t-20.5 -10t-18 -16t-14 -24t-12 -34t-7 -45t-5.5 -58t-1.5 -72.5v-170q0 -51 -4 -92t-16.5 -88t-34 -83t-59.5 -70.5t-89.5 -57t-127 -36t-169.5 -13.5z
" />
    <glyph glyph-name="asciitilde" unicode="~" horiz-adv-x="1275" 
d="M834 569q-63 0 -118.5 22t-88 48t-77.5 48t-89 22q-65 0 -98 -39.5t-33 -98.5h-135q0 123 81 190.5t193 67.5q50 0 93.5 -14.5t75.5 -34.5t61.5 -40.5t64.5 -35t72 -14.5q58 0 87 38.5t29 98.5h135q0 -127 -71 -192.5t-182 -65.5z" />
    <glyph glyph-name="uni00A0" unicode="&#xa0;" horiz-adv-x="651" 
 />
    <glyph glyph-name="exclamdown" unicode="&#xa1;" horiz-adv-x="589" 
d="M297 934q-55 0 -93 33.5t-38 79.5q0 48 38 82t93 34q52 0 88.5 -34t36.5 -82q0 -46 -36.5 -79.5t-88.5 -33.5zM385 -446h-182v102l47 1100h90l45 -1100v-102z" />
    <glyph glyph-name="cent" unicode="&#xa2;" horiz-adv-x="1368" 
d="M1128 580l115 -39q-62 -139 -190 -217t-295 -86v-238h-109v242q-216 20 -349.5 153t-133.5 336t134 337.5t349 154.5v243h109v-239q93 -5 174 -32.5t152 -86t110 -143.5l-119 -41q-38 84 -121.5 134.5t-195.5 59.5v-774q134 9 228 72.5t142 163.5zM301 731
q0 -155 96 -258t252 -125v768q-157 -19 -252.5 -125.5t-95.5 -259.5z" />
    <glyph glyph-name="sterling" unicode="&#xa3;" horiz-adv-x="1454" 
d="M379 133h973v-133h-1231v135q218 71 344.5 186t126.5 244q0 80 -55 168h-379v105h299q-12 15 -44.5 52t-48 55.5t-42 53t-40 60t-29 59.5t-22 68.5t-6.5 70.5q0 115 68 200.5t181 129t255 43.5q55 0 109 -7t114 -23.5t113.5 -46.5t101.5 -71.5t85.5 -103.5t58.5 -139
l-142 -53q-30 89 -79.5 152.5t-110 97t-121.5 48.5t-129 15q-143 0 -240.5 -64t-97.5 -180q0 -56 27.5 -115t60.5 -99t88.5 -103t83.5 -100h520v-105h-454q35 -82 35 -151q0 -129 -98 -247.5t-275 -201.5z" />
    <glyph glyph-name="currency" unicode="&#xa4;" horiz-adv-x="1624" 
d="M1270 823q0 -151 -101 -260l324 -321l-102 -82l-326 323q-110 -55 -250 -55q-146 0 -254 57l-328 -325l-104 82l326 323q-101 109 -101 258t99 256l-324 322l104 84l326 -324q113 58 254 58q144 0 254 -58l324 324l102 -84l-322 -320q99 -107 99 -258zM813 539
q144 0 229.5 79t85.5 205t-85.5 205.5t-229.5 79.5q-143 0 -230 -79.5t-87 -205.5q0 -125 87.5 -204.5t229.5 -79.5z" />
    <glyph glyph-name="yen" unicode="&#xa5;" horiz-adv-x="1740" 
d="M950 0h-162v274h-444v117h444v191h-444v116h379l-645 899h172q123 -170 616 -860h6q14 19 155.5 216.5t465.5 643.5h170l-647 -899h385v-116h-451v-191h451v-117h-451v-274z" />
    <glyph glyph-name="brokenbar" unicode="&#xa6;" horiz-adv-x="630" 
d="M389 838h-147v800h147v-800zM389 -451h-147v793h147v-793z" />
    <glyph glyph-name="section" unicode="&#xa7;" horiz-adv-x="1308" 
d="M670 -301q-201 0 -356 95t-210 245l138 39q53 -114 174 -189t256 -75q48 0 97.5 10.5t97.5 32.5t78 63t30 96q0 27 -8.5 50t-20 39.5t-35 32.5t-42.5 25.5t-54.5 21.5t-57.5 18.5t-65 17.5l-127 37q-34 10 -59 17.5t-67 23.5t-73 32.5t-66.5 43t-58 55t-38 68.5t-15.5 84
q0 98 69 167.5t179 100.5v4q-100 41 -163.5 109.5t-63.5 164.5q0 80 40 143t106.5 100t145.5 56t163 19q78 0 148 -16t134 -50t113.5 -94.5t77.5 -142.5l-148 -41q-43 119 -122.5 174t-215.5 55q-129 0 -209 -50.5t-80 -137.5q0 -30 11.5 -56t27 -45t45 -38t51 -29.5
t60.5 -24t57.5 -19t57.5 -16.5l151 -43q36 -9 61 -16.5t63 -21.5t64 -28.5t55.5 -36.5t48 -47t30.5 -59t12 -73q0 -97 -68.5 -177.5t-181.5 -115.5v-4q228 -81 228 -260q0 -140 -132 -237t-333 -97zM641 371l66 -17q49 2 97 14.5t94 35.5t74.5 64.5t28.5 94.5q0 22 -5.5 41
t-13 34t-23.5 29t-27.5 23t-36 19.5t-38 16t-44 14.5t-43.5 12.5t-47 11.5l-96 24q-116 31 -203.5 -32.5t-87.5 -157.5q0 -49 28.5 -88.5t80 -66.5t95 -42t101.5 -30z" />
    <glyph glyph-name="copyright" unicode="&#xa9;" horiz-adv-x="2324" 
d="M1163 -35q-220 0 -408.5 65.5t-317 178.5t-201 265.5t-72.5 324.5q0 171 72.5 323.5t201 264.5t317 177.5t408.5 65.5t408.5 -65.5t317.5 -177.5t201.5 -264.5t72.5 -323.5q0 -172 -72.5 -324.5t-201.5 -265.5t-317.5 -178.5t-408.5 -65.5zM1163 80q192 0 356 56.5
t275.5 154t174.5 229t63 279.5q0 147 -63 278.5t-174.5 229t-275.5 154.5t-356 57q-193 0 -357 -57t-275 -154.5t-173.5 -229t-62.5 -278.5q0 -148 62.5 -279.5t173.5 -229t275 -154t357 -56.5zM1171 350q-224 0 -364.5 125t-140.5 324q0 201 141.5 324.5t363.5 123.5
q159 0 277 -67t170 -191l-131 -41q-37 92 -120.5 141.5t-199.5 49.5q-158 0 -259 -95.5t-101 -246.5q0 -154 104.5 -245t266.5 -91q126 0 220.5 58.5t141.5 166.5l121 -33q-55 -144 -184.5 -223.5t-305.5 -79.5z" />
    <glyph glyph-name="guillemotleft" unicode="&#xab;" horiz-adv-x="1353" 
d="M717 164h-176l-408 405v9l408 405h176l-408 -405v-9zM1188 164h-174l-408 405v9l408 405h174l-406 -405v-9z" />
    <glyph glyph-name="logicalnot" unicode="&#xac;" horiz-adv-x="1245" 
d="M1051 254h-142v315h-723v123h865v-438z" />
    <glyph glyph-name="registered" unicode="&#xae;" horiz-adv-x="1400" 
d="M698 739q-152 0 -275 58t-192 161t-69 230q0 192 152 319t384 127q231 0 384 -127.5t153 -318.5q0 -127 -69.5 -230t-192.5 -161t-275 -58zM698 817q193 0 319 105t126 266q0 159 -126 263.5t-319 104.5q-194 0 -320 -104t-126 -264q0 -162 126 -266.5t320 -104.5z
M604 944h-90v494h215q87 0 145 -41t58 -113q0 -56 -36 -95.5t-97 -53.5l155 -191h-104l-148 182h-98v-182zM604 1364v-164h121q111 0 111 82q0 40 -31.5 61t-85.5 21h-115z" />
    <glyph glyph-name="degree" unicode="&#xb0;" horiz-adv-x="942" 
d="M469 1055q-152 0 -251 84.5t-99 212.5q0 126 100 211.5t250 85.5q151 0 251.5 -86t100.5 -211q0 -127 -100 -212t-252 -85zM469 1149q101 0 167 58t66 145t-66 144.5t-167 57.5q-97 0 -164 -58t-67 -144t66.5 -144.5t164.5 -58.5z" />
    <glyph glyph-name="plusminus" unicode="&#xb1;" horiz-adv-x="1251" 
d="M1061 782v-118h-367v-211h367v-115h-873v115h367v211h-367v118h367v246h139v-246h367z" />
    <glyph glyph-name="uni00B2" unicode="&#xb2;" horiz-adv-x="761" 
d="M666 803h-564v12q3 43 11 77t26 63.5t36 50.5t54 46.5t66 43.5t84 49q32 19 52 32.5t47 36t40.5 48t13.5 53.5q0 47 -41.5 77.5t-107.5 30.5q-82 0 -133 -45t-51 -118l-113 16q0 110 84 180t213 70q120 0 199.5 -59t79.5 -152q0 -121 -162 -213q-19 -11 -60 -32.5
t-62 -34.5t-48.5 -33.5t-43.5 -43t-24 -49.5h404v-106z" />
    <glyph glyph-name="uni00B3" unicode="&#xb3;" horiz-adv-x="774" 
d="M379 788q-110 0 -194.5 45t-110.5 117l108 49q24 -53 75 -83.5t122 -30.5q74 0 122 32.5t48 88.5q0 55 -49.5 85.5t-137.5 30.5h-83v82h90q73 0 117 31.5t44 81.5t-45.5 80t-113.5 30q-66 0 -112 -32t-56 -88l-111 22q13 86 94.5 141.5t194.5 55.5q114 0 193 -51.5
t79 -135.5q0 -56 -36 -102.5t-101 -60.5q70 -12 117 -58t47 -110q0 -89 -81.5 -154.5t-219.5 -65.5z" />
    <glyph glyph-name="paragraph" unicode="&#xb6;" horiz-adv-x="1734" 
d="M1100 -287h-160v942h-283q-254 0 -411.5 133.5t-157.5 346.5q0 201 163 331.5t454 130.5h395v-1884zM1448 -287h-160v1884h160v-1884z" />
    <glyph glyph-name="periodcentered" unicode="&#xb7;" horiz-adv-x="661" 
d="M334 477q-67 0 -113.5 42t-46.5 102q0 57 46.5 97t113.5 40q63 0 108 -40t45 -97q0 -60 -45 -102t-108 -42z" />
    <glyph glyph-name="uni00B9" unicode="&#xb9;" horiz-adv-x="532" 
d="M367 803h-123v516q-69 -66 -185 -84v113q85 19 137 64t52 99h119v-708z" />
    <glyph glyph-name="guillemotright" unicode="&#xbb;" horiz-adv-x="1353" 
d="M342 164h-176l407 405v9l-407 405h176l406 -405v-9zM815 164h-176l408 405v9l-408 405h176l406 -405v-9z" />
    <glyph glyph-name="onequarter" unicode="&#xbc;" horiz-adv-x="1587" 
d="M367 803h-123v516q-69 -66 -185 -84v113q85 19 137 64t52 99h119v-708zM100 0h-143l1366 1468h135zM1393 -14h-121v157h-414v97l416 454h119v-456h116v-95h-116v-157zM1272 545l-291 -307h291v307z" />
    <glyph glyph-name="onehalf" unicode="&#xbd;" horiz-adv-x="1630" 
d="M367 803h-123v516q-69 -66 -185 -84v113q85 19 137 64t52 99h119v-708zM100 0h-143l1366 1468h135zM1534 -14h-563v12q4 52 17 92t31 68.5t56 59t72.5 52t99.5 58.5q32 19 52 32.5t47 36t41 48t14 53.5q0 46 -41.5 77t-108.5 31q-82 0 -133 -45.5t-51 -118.5l-113 17
q0 110 84 180t213 70q120 0 199.5 -59t79.5 -152q0 -121 -162 -213q-19 -11 -60 -32.5t-62 -34.5t-48.5 -33.5t-43.5 -43t-24 -49.5h404v-106z" />
    <glyph glyph-name="threequarters" unicode="&#xbe;" horiz-adv-x="1828" 
d="M379 788q-110 0 -194.5 45t-110.5 117l108 49q24 -53 75 -83.5t122 -30.5q74 0 122 32.5t48 88.5q0 55 -49.5 85.5t-137.5 30.5h-83v82h90q73 0 117 31.5t44 81.5t-45.5 80t-113.5 30q-66 0 -112 -32t-56 -88l-111 22q13 86 94.5 141.5t194.5 55.5q114 0 193 -51.5
t79 -135.5q0 -56 -36 -102.5t-101 -60.5q70 -12 117 -58t47 -110q0 -89 -81.5 -154.5t-219.5 -65.5zM342 0h-143l1366 1468h135zM1634 -14h-121v157h-413v97l416 454h118v-456h117v-95h-117v-157zM1513 545l-290 -307h290v307z" />
    <glyph glyph-name="questiondown" unicode="&#xbf;" horiz-adv-x="1269" 
d="M702 934q-54 0 -91.5 33t-37.5 80t37.5 81.5t89.5 34.5q54 0 92.5 -34.5t38.5 -81.5q0 -46 -37.5 -79.5t-91.5 -33.5zM635 -481q-143 0 -265.5 48t-201 144.5t-78.5 222.5q0 73 28 139.5t80.5 123.5t107 100.5t128.5 91.5q45 28 68 43.5t55.5 40.5t47 43.5t31.5 46.5
t21 56.5t3 66t-11 82.5h150q14 -61 15.5 -109.5t-13.5 -90t-33.5 -71.5t-60.5 -66t-78 -61t-101 -67q-87 -57 -143 -107t-93.5 -115.5t-37.5 -135.5q0 -90 55.5 -159t143 -103.5t190.5 -34.5q85 0 162.5 26.5t136 74.5t86.5 124t12 168l142 -25q21 -147 -51.5 -262.5
t-204 -175t-291.5 -59.5z" />
    <glyph glyph-name="Agrave" unicode="&#xc0;" horiz-adv-x="1808" 
d="M1008 1720h-140l-407 324h231zM207 0h-170l780 1597h174l781 -1597h-168q-148 290 -281 559h-842zM545 694h712q-231 473 -350 736h-6q-18 -38 -356 -736z" />
    <glyph glyph-name="Aacute" unicode="&#xc1;" horiz-adv-x="1808" 
d="M1356 2044l-410 -324h-139l315 324h234zM207 0h-170l780 1597h174l781 -1597h-168q-148 290 -281 559h-842zM545 694h712q-231 473 -350 736h-6q-18 -38 -356 -736z" />
    <glyph glyph-name="Acircumflex" unicode="&#xc2;" horiz-adv-x="1808" 
d="M1001 2028l320 -308h-141q-175 133 -277 217q-72 -60 -278 -217h-140l320 308h196zM207 0h-170l780 1597h174l781 -1597h-168q-148 290 -281 559h-842zM545 694h712q-231 473 -350 736h-6q-18 -38 -356 -736z" />
    <glyph glyph-name="Atilde" unicode="&#xc3;" horiz-adv-x="1808" 
d="M1087 1747q-19 0 -36.5 2t-30 4.5t-28 8t-23.5 9t-22.5 12t-19 11.5t-20 14t-18.5 13l-45 32q-66 52 -121 52q-58 0 -94.5 -40.5t-36.5 -101.5h-115q1 110 71 180t177 70q52 0 91 -16.5t87 -50.5l51 -37q77 -54 136 -54q57 0 88.5 40t31.5 104h117q0 -117 -63.5 -184.5
t-176.5 -67.5zM207 0h-170l780 1597h174l781 -1597h-168q-148 290 -281 559h-842zM545 694h712q-231 473 -350 736h-6q-18 -38 -356 -736z" />
    <glyph glyph-name="Adieresis" unicode="&#xc4;" horiz-adv-x="1808" 
d="M668 1784q-51 0 -87 32.5t-36 79.5q0 43 36 75t87 32q52 0 88.5 -32t36.5 -75q0 -47 -36 -79.5t-89 -32.5zM1139 1784q-54 0 -89.5 32t-35.5 80q0 44 36 75.5t89 31.5q49 0 85 -32t36 -75q0 -47 -35.5 -79.5t-85.5 -32.5zM207 0h-170l780 1597h174l781 -1597h-168
q-148 290 -281 559h-842zM545 694h712q-231 473 -350 736h-6q-18 -38 -356 -736z" />
    <glyph glyph-name="Aring" unicode="&#xc5;" horiz-adv-x="1808" 
d="M903 1714q-117 0 -193.5 63t-76.5 158q0 94 76.5 156.5t193.5 62.5q113 0 189.5 -62t76.5 -157q0 -96 -76.5 -158.5t-189.5 -62.5zM903 1810q67 0 111.5 34t44.5 91q0 54 -45 87.5t-111 33.5q-70 0 -116 -33t-46 -88q0 -57 45.5 -91t116.5 -34zM207 0h-170l780 1597h174
l781 -1597h-168q-148 290 -281 559h-842zM545 694h712q-231 473 -350 736h-6q-18 -38 -356 -736z" />
    <glyph glyph-name="AE" unicode="&#xc6;" horiz-adv-x="2531" 
d="M125 0h-174l1134 1597h1291v-133h-1041v-575h992v-137h-992v-613h1065v-139h-1226v555h-646q-16 -22 -403 -555zM616 692h558v772h-5z" />
    <glyph glyph-name="Ccedilla" unicode="&#xc7;" horiz-adv-x="2066" 
d="M1862 586l143 -47q-46 -125 -123.5 -227.5t-187.5 -180.5t-260.5 -121.5t-327.5 -44.5l-102 -123q38 19 100 19q98 0 160.5 -46t62.5 -120q0 -82 -76.5 -134.5t-193.5 -52.5q-86 0 -167 30.5t-134 80.5l65 59q39 -42 101.5 -67t126.5 -25q70 0 117.5 30t47.5 77
q0 43 -43 70.5t-108 27.5t-117 -27l-63 54l118 151q-255 18 -452 126.5t-306.5 289.5t-109.5 408q0 186 75 344t204 265t303.5 167.5t371.5 60.5q134 0 263 -29.5t242.5 -85.5t202.5 -146.5t134 -205.5l-143 -53q-88 180 -276.5 281.5t-419.5 101.5q-158 0 -300 -48.5
t-250.5 -136.5t-172.5 -222.5t-64 -294.5q0 -136 45.5 -250.5t123.5 -194.5t182.5 -135.5t222 -82t241.5 -26.5q150 0 277 38.5t217.5 106t153 153t96.5 186.5z" />
    <glyph glyph-name="Egrave" unicode="&#xc8;" horiz-adv-x="1617" 
d="M930 1720h-139l-408 324h231zM1489 0h-1227v1597h1202v-133h-1040v-575h991v-137h-991v-613h1065v-139z" />
    <glyph glyph-name="Eacute" unicode="&#xc9;" horiz-adv-x="1617" 
d="M1278 2044l-410 -324h-139l315 324h234zM1489 0h-1227v1597h1202v-133h-1040v-575h991v-137h-991v-613h1065v-139z" />
    <glyph glyph-name="Ecircumflex" unicode="&#xca;" horiz-adv-x="1617" 
d="M924 2028l319 -308h-141q-175 133 -277 217q-72 -60 -278 -217h-139l319 308h197zM1489 0h-1227v1597h1202v-133h-1040v-575h991v-137h-991v-613h1065v-139z" />
    <glyph glyph-name="Edieresis" unicode="&#xcb;" horiz-adv-x="1617" 
d="M590 1784q-51 0 -87 32.5t-36 79.5q0 43 36 75t87 32q52 0 88.5 -32t36.5 -75q0 -47 -36 -79.5t-89 -32.5zM1061 1784q-54 0 -89.5 32t-35.5 80q0 44 36 75.5t89 31.5q49 0 85 -32t36 -75q0 -47 -35.5 -79.5t-85.5 -32.5zM1489 0h-1227v1597h1202v-133h-1040v-575h991
v-137h-991v-613h1065v-139z" />
    <glyph glyph-name="Igrave" unicode="&#xcc;" horiz-adv-x="686" 
d="M449 1720h-140l-407 324h231zM424 0h-162v1597h162v-1597z" />
    <glyph glyph-name="Iacute" unicode="&#xcd;" horiz-adv-x="686" 
d="M797 2044l-410 -324h-139l315 324h234zM424 0h-162v1597h162v-1597z" />
    <glyph glyph-name="Icircumflex" unicode="&#xce;" horiz-adv-x="686" 
d="M442 2028l320 -308h-141q-175 133 -277 217q-72 -60 -278 -217h-140l320 308h196zM424 0h-162v1597h162v-1597z" />
    <glyph glyph-name="Idieresis" unicode="&#xcf;" horiz-adv-x="686" 
d="M109 1784q-51 0 -87 32.5t-36 79.5q0 43 36 75t87 32q52 0 88 -32t36 -75q0 -47 -36 -79.5t-88 -32.5zM580 1784q-54 0 -89.5 32t-35.5 80q0 44 36 75.5t89 31.5q49 0 84.5 -32t35.5 -75q0 -47 -35 -79.5t-85 -32.5zM424 0h-162v1597h162v-1597z" />
    <glyph glyph-name="Eth" unicode="&#xd0;" horiz-adv-x="1978" 
d="M262 1597h670q187 0 339.5 -40.5t257 -112t176 -171.5t104 -216t32.5 -248q0 -178 -61 -327t-173 -256t-280 -166.5t-373 -59.5h-692v737h-203v121h203v739zM969 133q326 0 515 177.5t189 486.5q0 319 -203 493t-573 174h-473v-606h657v-121h-657v-604h545z" />
    <glyph glyph-name="Ntilde" unicode="&#xd1;" horiz-adv-x="2027" 
d="M1176 1796q-19 0 -36.5 2t-30 4t-28.5 8.5t-23 9t-23 12t-19.5 11.5t-20 14t-18.5 13l-45 33q-65 51 -121 51q-58 0 -94.5 -40.5t-36.5 -101.5h-115q1 110 71 180t177 70q52 0 91 -16.5t87 -50.5l51 -37q76 -53 136 -53q57 0 88.5 39.5t31.5 103.5h117q0 -117 -63 -184.5
t-176 -67.5zM424 0h-162v1597h176q35 -41 208.5 -243t250 -291.5t219 -256.5t258 -304.5t225.5 -270.5h7v1366h159v-1597h-176q-124 145 -531.5 614t-631.5 734h-2v-1348z" />
    <glyph glyph-name="Ograve" unicode="&#xd2;" horiz-adv-x="2185" 
d="M1194 1720h-139l-408 324h232zM1092 -35q-194 0 -370.5 63t-306.5 172t-207 264.5t-77 332.5q0 235 130 427t350 299t483 107q199 0 377.5 -65t306 -176t202 -265.5t74.5 -326.5q0 -174 -75.5 -329t-204.5 -265t-306.5 -174t-375.5 -64zM1096 102q156 0 299.5 53
t250.5 144t170.5 221t63.5 277t-63.5 277.5t-170 221.5t-250 144t-300.5 53q-211 0 -392.5 -89t-291 -250t-109.5 -357q0 -148 64.5 -278t172.5 -221t253.5 -143.5t302.5 -52.5z" />
    <glyph glyph-name="Oacute" unicode="&#xd3;" horiz-adv-x="2185" 
d="M1542 2044l-409 -324h-140l316 324h233zM1092 -35q-194 0 -370.5 63t-306.5 172t-207 264.5t-77 332.5q0 235 130 427t350 299t483 107q199 0 377.5 -65t306 -176t202 -265.5t74.5 -326.5q0 -174 -75.5 -329t-204.5 -265t-306.5 -174t-375.5 -64zM1096 102
q156 0 299.5 53t250.5 144t170.5 221t63.5 277t-63.5 277.5t-170 221.5t-250 144t-300.5 53q-211 0 -392.5 -89t-291 -250t-109.5 -357q0 -148 64.5 -278t172.5 -221t253.5 -143.5t302.5 -52.5z" />
    <glyph glyph-name="Ocircumflex" unicode="&#xd4;" horiz-adv-x="2185" 
d="M1190 2028l319 -308h-141q-162 123 -276 217q-62 -52 -279 -217h-139l319 308h197zM1092 -35q-194 0 -370.5 63t-306.5 172t-207 264.5t-77 332.5q0 235 130 427t350 299t483 107q199 0 377.5 -65t306 -176t202 -265.5t74.5 -326.5q0 -174 -75.5 -329t-204.5 -265
t-306.5 -174t-375.5 -64zM1096 102q156 0 299.5 53t250.5 144t170.5 221t63.5 277t-63.5 277.5t-170 221.5t-250 144t-300.5 53q-211 0 -392.5 -89t-291 -250t-109.5 -357q0 -148 64.5 -278t172.5 -221t253.5 -143.5t302.5 -52.5z" />
    <glyph glyph-name="Otilde" unicode="&#xd5;" horiz-adv-x="2185" 
d="M1276 1796q-19 0 -36.5 2t-30 4t-28.5 8.5t-23 9t-23 12t-19.5 11.5t-20 14t-18.5 13l-45 33q-65 51 -121 51q-58 0 -94.5 -40.5t-36.5 -101.5h-114q1 110 70.5 180t176.5 70q52 0 91.5 -17t87.5 -50l51 -37q76 -53 135 -53q57 0 89 40t32 103h117q0 -117 -63.5 -184.5
t-176.5 -67.5zM1092 -35q-194 0 -370.5 63t-306.5 172t-207 264.5t-77 332.5q0 235 130 427t350 299t483 107q199 0 377.5 -65t306 -176t202 -265.5t74.5 -326.5q0 -174 -75.5 -329t-204.5 -265t-306.5 -174t-375.5 -64zM1096 102q156 0 299.5 53t250.5 144t170.5 221
t63.5 277t-63.5 277.5t-170 221.5t-250 144t-300.5 53q-211 0 -392.5 -89t-291 -250t-109.5 -357q0 -148 64.5 -278t172.5 -221t253.5 -143.5t302.5 -52.5z" />
    <glyph glyph-name="Odieresis" unicode="&#xd6;" horiz-adv-x="2185" 
d="M856 1784q-51 0 -87 32.5t-36 79.5q0 43 36 75t87 32q52 0 88.5 -32t36.5 -75q0 -47 -36 -79.5t-89 -32.5zM1327 1784q-54 0 -89.5 32t-35.5 80q0 44 36 75.5t89 31.5q49 0 85 -32t36 -75q0 -47 -35.5 -79.5t-85.5 -32.5zM1092 -35q-194 0 -370.5 63t-306.5 172
t-207 264.5t-77 332.5q0 235 130 427t350 299t483 107q199 0 377.5 -65t306 -176t202 -265.5t74.5 -326.5q0 -174 -75.5 -329t-204.5 -265t-306.5 -174t-375.5 -64zM1096 102q156 0 299.5 53t250.5 144t170.5 221t63.5 277t-63.5 277.5t-170 221.5t-250 144t-300.5 53
q-211 0 -392.5 -89t-291 -250t-109.5 -357q0 -148 64.5 -278t172.5 -221t253.5 -143.5t302.5 -52.5z" />
    <glyph glyph-name="multiply" unicode="&#xd7;" horiz-adv-x="1101" 
d="M457 625l-273 227l97 88l274 -227l262 219l96 -86l-262 -219l271 -230l-99 -88l-270 230l-264 -224l-96 86z" />
    <glyph glyph-name="Oslash" unicode="&#xd8;" horiz-adv-x="2185" 
d="M1886 1661l-178 -217q163 -116 254.5 -284t91.5 -363q0 -174 -75.5 -329t-204.5 -265t-306.5 -174t-375.5 -64q-272 0 -502 119l-123 -150h-174l180 222q-160 113 -251 279t-91 362q0 235 130 427t350 299t483 107q269 0 495 -117l121 148h176zM303 797q0 -158 71 -293.5
t197 -229.5l924 1125q-190 94 -399 94q-211 0 -392.5 -89t-291 -250t-109.5 -357zM1096 102q156 0 299.5 53t250.5 144t170.5 221t63.5 277q0 159 -72 295.5t-198 232.5l-924 -1124q190 -99 410 -99z" />
    <glyph glyph-name="Ugrave" unicode="&#xd9;" horiz-adv-x="1849" 
d="M1028 1720h-139l-408 324h232zM918 -35q-321 0 -499.5 160.5t-178.5 454.5v1017h159v-1009q0 -248 138.5 -368t386.5 -120q249 0 387.5 120t138.5 368v1009h160v-1017q0 -132 -41.5 -242.5t-124 -194.5t-217 -131t-309.5 -47z" />
    <glyph glyph-name="Uacute" unicode="&#xda;" horiz-adv-x="1849" 
d="M1229 2044l-410 -324h-139l315 324h234zM918 -35q-321 0 -499.5 160.5t-178.5 454.5v1017h159v-1009q0 -248 138.5 -368t386.5 -120q249 0 387.5 120t138.5 368v1009h160v-1017q0 -132 -41.5 -242.5t-124 -194.5t-217 -131t-309.5 -47z" />
    <glyph glyph-name="Ucircumflex" unicode="&#xdb;" horiz-adv-x="1849" 
d="M1022 2028l319 -308h-141q-162 123 -276 217q-62 -52 -279 -217h-139l319 308h197zM918 -35q-321 0 -499.5 160.5t-178.5 454.5v1017h159v-1009q0 -248 138.5 -368t386.5 -120q249 0 387.5 120t138.5 368v1009h160v-1017q0 -132 -41.5 -242.5t-124 -194.5t-217 -131
t-309.5 -47z" />
    <glyph glyph-name="Udieresis" unicode="&#xdc;" horiz-adv-x="1849" 
d="M688 1784q-51 0 -87 32.5t-36 79.5q0 43 36 75t87 32q52 0 88.5 -32t36.5 -75q0 -47 -36 -79.5t-89 -32.5zM1159 1784q-54 0 -89.5 32t-35.5 80q0 44 36 75.5t89 31.5q49 0 85 -32t36 -75q0 -47 -35.5 -79.5t-85.5 -32.5zM918 -35q-321 0 -499.5 160.5t-178.5 454.5v1017
h159v-1009q0 -248 138.5 -368t386.5 -120q249 0 387.5 120t138.5 368v1009h160v-1017q0 -132 -41.5 -242.5t-124 -194.5t-217 -131t-309.5 -47z" />
    <glyph glyph-name="Yacute" unicode="&#xdd;" horiz-adv-x="1689" 
d="M1272 2044l-410 -324h-139l315 324h234zM924 0h-158v586q-109 152 -360 507.5t-357 503.5h174l621 -872h4q157 222 625 872h169l-718 -1011v-586z" />
    <glyph glyph-name="Thorn" unicode="&#xde;" horiz-adv-x="1675" 
d="M424 0h-162v1597h162v-282h506q182 0 322.5 -54.5t222 -162.5t81.5 -256q0 -118 -48 -213t-130 -154.5t-186 -91t-221 -31.5h-547v-352zM424 1182v-695h496q220 0 344.5 90t124.5 257q0 164 -134 256t-354 92h-477z" />
    <glyph glyph-name="germandbls" unicode="&#xdf;" horiz-adv-x="1505" 
d="M373 0h-150v1161q0 37 2.5 69.5t14.5 87.5t32.5 99.5t61.5 94t97 83t143.5 56t195.5 22.5q263 0 412 -121t149 -311q0 -153 -94.5 -260t-239.5 -129v-2q176 -21 286 -125t110 -262q0 -93 -43 -177t-122.5 -147.5t-201 -101t-268.5 -37.5h-176v121h188q201 0 330 95.5
t129 244.5q0 137 -111.5 228t-286.5 91h-118v121h108q157 0 253.5 87t96.5 233q0 142 -99 234.5t-300 92.5q-99 0 -174.5 -27t-117 -65.5t-67 -91t-33 -93.5t-7.5 -83v-1188z" />
    <glyph glyph-name="agrave" unicode="&#xe0;" horiz-adv-x="1406" 
d="M788 1278h-133l-372 391h211zM547 -35q-118 0 -213 31.5t-155 99.5t-60 164q0 63 27 115t71 88t110 64.5t133.5 46t151.5 32.5q33 6 84 13.5t81 12t71.5 13t66 16.5t52.5 21.5t42.5 29.5t24.5 38.5t10 50.5q0 98 -99 170.5t-253 72.5q-139 0 -239 -63.5t-140 -173.5
l-147 47q38 104 125 175.5t190 102.5t217 31q95 0 181.5 -22t160.5 -65.5t118 -118.5t44 -171v-432q0 -131 10 -205.5t33 -148.5h-151q-33 100 -33 236h-6q-69 -123 -197.5 -197t-310.5 -74zM565 78q106 0 199.5 37t153.5 93.5t94.5 121.5t34.5 123v153
q-60 -36 -121.5 -54.5t-204.5 -41.5q-47 -7 -76 -12t-80.5 -16.5t-85 -23.5t-74.5 -31.5t-65.5 -41.5t-41.5 -53.5t-17 -67.5q0 -85 78.5 -135.5t205.5 -50.5z" />
    <glyph glyph-name="aacute" unicode="&#xe1;" horiz-adv-x="1406" 
d="M1147 1669l-373 -391h-135l297 391h211zM547 -35q-118 0 -213 31.5t-155 99.5t-60 164q0 63 27 115t71 88t110 64.5t133.5 46t151.5 32.5q33 6 84 13.5t81 12t71.5 13t66 16.5t52.5 21.5t42.5 29.5t24.5 38.5t10 50.5q0 98 -99 170.5t-253 72.5q-139 0 -239 -63.5
t-140 -173.5l-147 47q38 104 125 175.5t190 102.5t217 31q95 0 181.5 -22t160.5 -65.5t118 -118.5t44 -171v-432q0 -131 10 -205.5t33 -148.5h-151q-33 100 -33 236h-6q-69 -123 -197.5 -197t-310.5 -74zM565 78q106 0 199.5 37t153.5 93.5t94.5 121.5t34.5 123v153
q-60 -36 -121.5 -54.5t-204.5 -41.5q-47 -7 -76 -12t-80.5 -16.5t-85 -23.5t-74.5 -31.5t-65.5 -41.5t-41.5 -53.5t-17 -67.5q0 -85 78.5 -135.5t205.5 -50.5z" />
    <glyph glyph-name="acircumflex" unicode="&#xe2;" horiz-adv-x="1406" 
d="M401 1278h-143l354 358h205l357 -358h-144q-258 214 -313 264q-99 -84 -316 -264zM547 -35q-118 0 -213 31.5t-155 99.5t-60 164q0 63 27 115t71 88t110 64.5t133.5 46t151.5 32.5q33 6 84 13.5t81 12t71.5 13t66 16.5t52.5 21.5t42.5 29.5t24.5 38.5t10 50.5
q0 98 -99 170.5t-253 72.5q-139 0 -239 -63.5t-140 -173.5l-147 47q38 104 125 175.5t190 102.5t217 31q95 0 181.5 -22t160.5 -65.5t118 -118.5t44 -171v-432q0 -131 10 -205.5t33 -148.5h-151q-33 100 -33 236h-6q-69 -123 -197.5 -197t-310.5 -74zM565 78q106 0 199.5 37
t153.5 93.5t94.5 121.5t34.5 123v153q-60 -36 -121.5 -54.5t-204.5 -41.5q-47 -7 -76 -12t-80.5 -16.5t-85 -23.5t-74.5 -31.5t-65.5 -41.5t-41.5 -53.5t-17 -67.5q0 -85 78.5 -135.5t205.5 -50.5z" />
    <glyph glyph-name="atilde" unicode="&#xe3;" horiz-adv-x="1406" 
d="M901 1329q-19 0 -36.5 2t-30 4t-28.5 8.5t-23 9t-23 12t-19.5 11.5t-20 14t-18.5 13l-45 33q-65 51 -120 51q-58 0 -94.5 -40t-36.5 -101h-115q1 110 71 179.5t177 69.5q52 0 91 -16.5t87 -50.5l51 -37q76 -53 135 -53q57 0 89 40t32 103h117q0 -117 -63.5 -184.5
t-176.5 -67.5zM547 -35q-118 0 -213 31.5t-155 99.5t-60 164q0 63 27 115t71 88t110 64.5t133.5 46t151.5 32.5q33 6 84 13.5t81 12t71.5 13t66 16.5t52.5 21.5t42.5 29.5t24.5 38.5t10 50.5q0 98 -99 170.5t-253 72.5q-139 0 -239 -63.5t-140 -173.5l-147 47
q38 104 125 175.5t190 102.5t217 31q95 0 181.5 -22t160.5 -65.5t118 -118.5t44 -171v-432q0 -131 10 -205.5t33 -148.5h-151q-33 100 -33 236h-6q-69 -123 -197.5 -197t-310.5 -74zM565 78q106 0 199.5 37t153.5 93.5t94.5 121.5t34.5 123v153q-60 -36 -121.5 -54.5
t-204.5 -41.5q-47 -7 -76 -12t-80.5 -16.5t-85 -23.5t-74.5 -31.5t-65.5 -41.5t-41.5 -53.5t-17 -67.5q0 -85 78.5 -135.5t205.5 -50.5z" />
    <glyph glyph-name="adieresis" unicode="&#xe4;" horiz-adv-x="1406" 
d="M502 1370q-51 0 -87 32.5t-36 76.5q0 42 36.5 73t86.5 31q51 0 85 -31t34 -73q0 -45 -33.5 -77t-85.5 -32zM928 1370q-52 0 -86.5 32t-34.5 77q0 42 35 73t86 31q50 0 85.5 -31t35.5 -73q0 -45 -35 -77t-86 -32zM547 -35q-118 0 -213 31.5t-155 99.5t-60 164q0 63 27 115
t71 88t110 64.5t133.5 46t151.5 32.5q33 6 84 13.5t81 12t71.5 13t66 16.5t52.5 21.5t42.5 29.5t24.5 38.5t10 50.5q0 98 -99 170.5t-253 72.5q-139 0 -239 -63.5t-140 -173.5l-147 47q38 104 125 175.5t190 102.5t217 31q95 0 181.5 -22t160.5 -65.5t118 -118.5t44 -171
v-432q0 -131 10 -205.5t33 -148.5h-151q-33 100 -33 236h-6q-69 -123 -197.5 -197t-310.5 -74zM565 78q106 0 199.5 37t153.5 93.5t94.5 121.5t34.5 123v153q-60 -36 -121.5 -54.5t-204.5 -41.5q-47 -7 -76 -12t-80.5 -16.5t-85 -23.5t-74.5 -31.5t-65.5 -41.5t-41.5 -53.5
t-17 -67.5q0 -85 78.5 -135.5t205.5 -50.5z" />
    <glyph glyph-name="aring" unicode="&#xe5;" horiz-adv-x="1406" 
d="M717 1247q-117 0 -194 63t-77 158q0 94 77 157t194 63q113 0 189.5 -62.5t76.5 -157.5q0 -96 -76.5 -158.5t-189.5 -62.5zM717 1343q66 0 110.5 34t44.5 91q0 54 -44.5 87.5t-110.5 33.5q-69 0 -114.5 -33.5t-45.5 -87.5q0 -57 45.5 -91t114.5 -34zM547 -35
q-118 0 -213 31.5t-155 99.5t-60 164q0 63 27 115t71 88t110 64.5t133.5 46t151.5 32.5q33 6 84 13.5t81 12t71.5 13t66 16.5t52.5 21.5t42.5 29.5t24.5 38.5t10 50.5q0 98 -99 170.5t-253 72.5q-139 0 -239 -63.5t-140 -173.5l-147 47q38 104 125 175.5t190 102.5t217 31
q95 0 181.5 -22t160.5 -65.5t118 -118.5t44 -171v-432q0 -131 10 -205.5t33 -148.5h-151q-33 100 -33 236h-6q-69 -123 -197.5 -197t-310.5 -74zM565 78q106 0 199.5 37t153.5 93.5t94.5 121.5t34.5 123v153q-60 -36 -121.5 -54.5t-204.5 -41.5q-47 -7 -76 -12t-80.5 -16.5
t-85 -23.5t-74.5 -31.5t-65.5 -41.5t-41.5 -53.5t-17 -67.5q0 -85 78.5 -135.5t205.5 -50.5z" />
    <glyph glyph-name="ae" unicode="&#xe6;" horiz-adv-x="2459" 
d="M541 -35q-186 0 -304 77t-118 218q0 78 37.5 137.5t109 99t154.5 65t194 44.5q33 6 84.5 13.5t81.5 12t71.5 13t66 16.5t52.5 21t42.5 29t24.5 38t10 50q0 98 -99.5 171.5t-255.5 73.5q-138 0 -238 -64t-139 -173l-147 47q39 103 126 174.5t191 103t220 31.5
q98 0 188.5 -22.5t169.5 -77.5t111 -135q86 111 225.5 173t312.5 62q82 0 161 -14.5t164 -54.5t148.5 -101t104.5 -163t41 -232v-53h-1125q1 -134 68 -238.5t183 -161.5t261 -57q177 0 304 80.5t188 208.5l139 -45q-78 -172 -247.5 -269.5t-387.5 -97.5q-134 0 -250 34.5
t-207 108t-135 177.5h-4q-71 -140 -223.5 -230t-353.5 -90zM1212 657h955q-2 84 -30.5 151t-73.5 110t-105 71.5t-122 40.5t-128 12q-196 0 -330.5 -105t-165.5 -280zM567 78q103 0 196 37.5t153.5 94t95.5 121.5t35 122v155q-68 -42 -126 -58t-196 -36q-53 -8 -93 -15.5
t-96.5 -21t-97 -31.5t-79 -43t-58.5 -59.5t-20 -75.5q0 -87 80 -138.5t206 -51.5z" />
    <glyph glyph-name="ccedilla" unicode="&#xe7;" horiz-adv-x="1495" 
d="M1292 385l138 -45q-75 -175 -239 -272t-376 -103l-102 -123q38 19 100 19q98 0 160.5 -46t62.5 -120q0 -82 -76.5 -134.5t-193.5 -52.5q-86 0 -167 30.5t-134 80.5l65 59q39 -42 101.5 -67t126.5 -25q70 0 118 30t48 77q0 42 -43.5 70t-108.5 28t-117 -27l-63 54l119 151
q-266 22 -430 184.5t-164 409.5q0 177 86 313.5t239 211.5t349 75q123 0 231 -31.5t202 -105.5t146 -184l-145 -51q-52 116 -169.5 180.5t-273.5 64.5q-228 0 -365.5 -134t-137.5 -339q0 -211 143.5 -341t372.5 -130q181 0 307 80t190 213z" />
    <glyph glyph-name="egrave" unicode="&#xe8;" horiz-adv-x="1314" 
d="M733 1278h-133l-373 391h211zM676 -35q-123 0 -230 43.5t-183.5 121t-120.5 189.5t-44 244q0 262 161.5 431t412.5 169q71 0 140 -14.5t142 -54.5t127.5 -101t89.5 -163t35 -232v-72h-960q4 -201 124.5 -319.5t309.5 -118.5q148 0 254.5 80.5t159.5 208.5l129 -45
q-67 -173 -213 -270t-334 -97zM252 655h805q-1 103 -36.5 181t-93 121t-123 64t-136.5 21q-166 0 -278.5 -107t-137.5 -280z" />
    <glyph glyph-name="eacute" unicode="&#xe9;" horiz-adv-x="1314" 
d="M1094 1669l-373 -391h-135l297 391h211zM676 -35q-123 0 -230 43.5t-183.5 121t-120.5 189.5t-44 244q0 262 161.5 431t412.5 169q71 0 140 -14.5t142 -54.5t127.5 -101t89.5 -163t35 -232v-72h-960q4 -201 124.5 -319.5t309.5 -118.5q148 0 254.5 80.5t159.5 208.5
l129 -45q-67 -173 -213 -270t-334 -97zM252 655h805q-1 103 -36.5 181t-93 121t-123 64t-136.5 21q-166 0 -278.5 -107t-137.5 -280z" />
    <glyph glyph-name="ecircumflex" unicode="&#xea;" horiz-adv-x="1314" 
d="M348 1278h-143l354 358h205l356 -358h-143q-258 214 -313 264q-99 -84 -316 -264zM676 -35q-123 0 -230 43.5t-183.5 121t-120.5 189.5t-44 244q0 262 161.5 431t412.5 169q71 0 140 -14.5t142 -54.5t127.5 -101t89.5 -163t35 -232v-72h-960q4 -201 124.5 -319.5
t309.5 -118.5q148 0 254.5 80.5t159.5 208.5l129 -45q-67 -173 -213 -270t-334 -97zM252 655h805q-1 103 -36.5 181t-93 121t-123 64t-136.5 21q-166 0 -278.5 -107t-137.5 -280z" />
    <glyph glyph-name="edieresis" unicode="&#xeb;" horiz-adv-x="1314" 
d="M449 1370q-51 0 -87 32.5t-36 76.5q0 42 36.5 73t86.5 31q51 0 84.5 -31t33.5 -73q0 -45 -33.5 -77t-84.5 -32zM874 1370q-52 0 -86 32t-34 77q0 42 34.5 73t85.5 31q50 0 85.5 -31t35.5 -73q0 -45 -35 -77t-86 -32zM676 -35q-123 0 -230 43.5t-183.5 121t-120.5 189.5
t-44 244q0 262 161.5 431t412.5 169q71 0 140 -14.5t142 -54.5t127.5 -101t89.5 -163t35 -232v-72h-960q4 -201 124.5 -319.5t309.5 -118.5q148 0 254.5 80.5t159.5 208.5l129 -45q-67 -173 -213 -270t-334 -97zM252 655h805q-1 103 -36.5 181t-93 121t-123 64t-136.5 21
q-166 0 -278.5 -107t-137.5 -280z" />
    <glyph glyph-name="igrave" unicode="&#xec;" horiz-adv-x="595" 
d="M371 1274h-133l-373 391h211zM373 0h-150v1130h150v-1130z" />
    <glyph glyph-name="iacute" unicode="&#xed;" horiz-adv-x="595" 
d="M731 1665l-373 -391h-135l297 391h211zM373 0h-150v1130h150v-1130z" />
    <glyph glyph-name="icircumflex" unicode="&#xee;" horiz-adv-x="595" 
d="M-16 1274h-144l355 358h204l357 -358h-144q-258 214 -313 264q-129 -110 -315 -264zM373 0h-150v1130h150v-1130z" />
    <glyph glyph-name="idieresis" unicode="&#xef;" horiz-adv-x="595" 
d="M86 1366q-51 0 -87 32.5t-36 76.5q0 42 36.5 73t86.5 31q51 0 85 -31t34 -73q0 -45 -33.5 -77t-85.5 -32zM512 1366q-52 0 -86.5 32t-34.5 77q0 42 35 73t86 31q50 0 85.5 -31t35.5 -73q0 -45 -35 -77t-86 -32zM373 0h-150v1130h150v-1130z" />
    <glyph glyph-name="eth" unicode="&#xf0;" horiz-adv-x="1585" 
d="M1229 1569l-236 -113q455 -290 455 -794q0 -329 -181.5 -513t-484.5 -184q-150 0 -277 46.5t-212 125t-132.5 183.5t-47.5 221q0 162 86.5 292t236 202.5t332.5 72.5q151 0 268 -51t215 -160h4q-92 308 -405 489l-371 -176l-49 80l315 152q-157 72 -356 129l37 117
q273 -71 467 -175l283 136zM778 90q218 0 361 125t143 322q0 199 -144 324.5t-358 125.5q-218 0 -362 -128.5t-144 -319.5q0 -188 141.5 -318.5t362.5 -130.5z" />
    <glyph glyph-name="ntilde" unicode="&#xf1;" horiz-adv-x="1554" 
d="M958 1329q-19 0 -36.5 2t-30 4.5t-28 8t-23.5 9t-22.5 12t-19 11.5t-20 14t-18.5 13l-45 33q-65 51 -121 51q-58 0 -94.5 -40t-36.5 -101h-115q1 110 70.5 179.5t177.5 69.5q52 0 91 -16.5t87 -50.5l51 -37q76 -53 136 -53q57 0 88.5 39.5t31.5 103.5h117
q0 -117 -63.5 -184.5t-176.5 -67.5zM373 0h-150v1130h146v-217h4q79 127 204.5 188.5t278.5 61.5q75 0 144 -14t134 -47.5t112.5 -84.5t76.5 -130t29 -178v-709h-150v647q0 82 -21 148.5t-57 111t-85.5 74t-104 42.5t-115.5 13q-104 0 -190 -35t-141 -92.5t-85 -129.5
t-30 -148v-631z" />
    <glyph glyph-name="ograve" unicode="&#xf2;" horiz-adv-x="1587" 
d="M866 1278h-133l-373 391h211zM795 -35q-147 0 -273 44t-215 122.5t-139.5 190t-50.5 241.5t50.5 242t139.5 190.5t215 123t273 44.5q195 0 348.5 -76t239 -213t85.5 -311t-85.5 -310.5t-239 -212t-348.5 -75.5zM795 92q228 0 371 131.5t143 339.5t-143 340.5t-371 132.5
q-227 0 -371.5 -133t-144.5 -340t144.5 -339t371.5 -132z" />
    <glyph glyph-name="oacute" unicode="&#xf3;" horiz-adv-x="1587" 
d="M1227 1669l-373 -391h-135l297 391h211zM795 -35q-147 0 -273 44t-215 122.5t-139.5 190t-50.5 241.5t50.5 242t139.5 190.5t215 123t273 44.5q195 0 348.5 -76t239 -213t85.5 -311t-85.5 -310.5t-239 -212t-348.5 -75.5zM795 92q228 0 371 131.5t143 339.5t-143 340.5
t-371 132.5q-227 0 -371.5 -133t-144.5 -340t144.5 -339t371.5 -132z" />
    <glyph glyph-name="ocircumflex" unicode="&#xf4;" horiz-adv-x="1587" 
d="M479 1278h-143l354 358h205l356 -358h-143q-258 214 -313 264q-99 -84 -316 -264zM795 -35q-147 0 -273 44t-215 122.5t-139.5 190t-50.5 241.5t50.5 242t139.5 190.5t215 123t273 44.5q195 0 348.5 -76t239 -213t85.5 -311t-85.5 -310.5t-239 -212t-348.5 -75.5zM795 92
q228 0 371 131.5t143 339.5t-143 340.5t-371 132.5q-227 0 -371.5 -133t-144.5 -340t144.5 -339t371.5 -132z" />
    <glyph glyph-name="otilde" unicode="&#xf5;" horiz-adv-x="1587" 
d="M981 1329q-19 0 -36.5 2t-30 4t-28.5 8.5t-23 9t-23 12t-19.5 11.5t-20 14t-18.5 13l-45 33q-65 51 -121 51q-58 0 -94.5 -40t-36.5 -101h-114q1 110 70.5 179.5t176.5 69.5q52 0 91.5 -17t87.5 -50l51 -37q76 -53 135 -53q57 0 89 40t32 103h117q0 -117 -63.5 -184.5
t-176.5 -67.5zM795 -35q-147 0 -273 44t-215 122.5t-139.5 190t-50.5 241.5t50.5 242t139.5 190.5t215 123t273 44.5q195 0 348.5 -76t239 -213t85.5 -311t-85.5 -310.5t-239 -212t-348.5 -75.5zM795 92q228 0 371 131.5t143 339.5t-143 340.5t-371 132.5
q-227 0 -371.5 -133t-144.5 -340t144.5 -339t371.5 -132z" />
    <glyph glyph-name="odieresis" unicode="&#xf6;" horiz-adv-x="1587" 
d="M582 1370q-51 0 -87 32.5t-36 76.5q0 42 36.5 73t86.5 31q51 0 84.5 -31t33.5 -73q0 -45 -33.5 -77t-84.5 -32zM1008 1370q-52 0 -86.5 32t-34.5 77q0 42 35 73t86 31q50 0 85 -31t35 -73q0 -45 -35 -77t-85 -32zM795 -35q-147 0 -273 44t-215 122.5t-139.5 190
t-50.5 241.5t50.5 242t139.5 190.5t215 123t273 44.5q195 0 348.5 -76t239 -213t85.5 -311t-85.5 -310.5t-239 -212t-348.5 -75.5zM795 92q228 0 371 131.5t143 339.5t-143 340.5t-371 132.5q-227 0 -371.5 -133t-144.5 -340t144.5 -339t371.5 -132z" />
    <glyph glyph-name="divide" unicode="&#xf7;" horiz-adv-x="1247" 
d="M629 827q-51 0 -87 32.5t-36 76.5t36 75t87 31t87 -31t36 -75t-36 -76.5t-87 -32.5zM1061 563h-875v123h875v-123zM629 207q-51 0 -87 32t-36 78q0 43 36 74t87 31t87 -31.5t36 -75.5t-36 -76t-87 -32z" />
    <glyph glyph-name="oslash" unicode="&#xf8;" horiz-adv-x="1587" 
d="M1427 1182l-157 -178q95 -80 146.5 -193.5t51.5 -247.5q0 -174 -85.5 -310.5t-239 -212t-348.5 -75.5q-208 0 -371 86l-94 -106h-168l157 176q-97 81 -149.5 194t-52.5 248q0 130 50.5 242t139.5 190.5t215 123t273 44.5q210 0 374 -90l97 109h161zM279 563
q0 -200 137 -334l659 740q-122 67 -280 67q-227 0 -371.5 -133t-144.5 -340zM795 92q228 0 371 131.5t143 339.5q0 203 -135 332l-656 -737q120 -66 277 -66z" />
    <glyph glyph-name="ugrave" unicode="&#xf9;" horiz-adv-x="1531" 
d="M813 1278h-133l-373 391h211zM690 -35q-74 0 -141.5 14.5t-131.5 48.5t-111 85t-75 130.5t-28 178.5v708h149v-655q0 -104 32.5 -181t88 -119.5t119 -62.5t135.5 -20q100 0 184 36t136.5 94.5t81 128.5t28.5 141v638h150v-776q0 -126 10 -201t35 -153h-154
q-35 115 -35 209h-4q-75 -124 -196.5 -184t-272.5 -60z" />
    <glyph glyph-name="uacute" unicode="&#xfa;" horiz-adv-x="1531" 
d="M1171 1669l-372 -391h-135l297 391h210zM690 -35q-74 0 -141.5 14.5t-131.5 48.5t-111 85t-75 130.5t-28 178.5v708h149v-655q0 -104 32.5 -181t88 -119.5t119 -62.5t135.5 -20q100 0 184 36t136.5 94.5t81 128.5t28.5 141v638h150v-776q0 -126 10 -201t35 -153h-154
q-35 115 -35 209h-4q-75 -124 -196.5 -184t-272.5 -60z" />
    <glyph glyph-name="ucircumflex" unicode="&#xfb;" horiz-adv-x="1531" 
d="M426 1278h-143l354 358h205l356 -358h-143q-25 21 -97 79.5t-120.5 100t-96.5 84.5q-129 -110 -315 -264zM690 -35q-74 0 -141.5 14.5t-131.5 48.5t-111 85t-75 130.5t-28 178.5v708h149v-655q0 -104 32.5 -181t88 -119.5t119 -62.5t135.5 -20q100 0 184 36t136.5 94.5
t81 128.5t28.5 141v638h150v-776q0 -126 10 -201t35 -153h-154q-35 115 -35 209h-4q-75 -124 -196.5 -184t-272.5 -60z" />
    <glyph glyph-name="udieresis" unicode="&#xfc;" horiz-adv-x="1531" 
d="M526 1370q-51 0 -87 32.5t-36 76.5q0 42 36.5 73t86.5 31q51 0 85 -31t34 -73q0 -45 -33.5 -77t-85.5 -32zM952 1370q-52 0 -86.5 32t-34.5 77q0 42 35 73t86 31q50 0 85.5 -31t35.5 -73q0 -45 -35 -77t-86 -32zM690 -35q-74 0 -141.5 14.5t-131.5 48.5t-111 85
t-75 130.5t-28 178.5v708h149v-655q0 -104 32.5 -181t88 -119.5t119 -62.5t135.5 -20q100 0 184 36t136.5 94.5t81 128.5t28.5 141v638h150v-776q0 -126 10 -201t35 -153h-154q-35 115 -35 209h-4q-75 -124 -196.5 -184t-272.5 -60z" />
    <glyph glyph-name="yacute" unicode="&#xfd;" horiz-adv-x="1329" 
d="M1079 1669l-372 -391h-136l297 391h211zM524 -451h-139l207 435l-551 1146h164q91 -186 258.5 -539.5t202.5 -426.5h4q50 107 143 307.5t167.5 359.5t143.5 299h164z" />
    <glyph glyph-name="thorn" unicode="&#xfe;" horiz-adv-x="1646" 
d="M373 -451h-150v2089h150v-745h8q83 133 219.5 201.5t300.5 68.5q176 0 320 -76.5t226.5 -213.5t82.5 -308q0 -174 -84 -312t-228 -213t-319 -75q-166 0 -302.5 66.5t-217.5 191.5h-6v-674zM877 92q213 0 352 134.5t139 338.5t-140 337.5t-351 133.5q-137 0 -251.5 -59.5
t-183.5 -168.5t-69 -245q0 -137 69.5 -245.5t184 -167t250.5 -58.5z" />
    <glyph glyph-name="ydieresis" unicode="&#xff;" horiz-adv-x="1329" 
d="M434 1370q-51 0 -87 32.5t-36 76.5q0 42 36.5 73t86.5 31q51 0 85 -31t34 -73q0 -45 -33.5 -77t-85.5 -32zM860 1370q-52 0 -86.5 32t-34.5 77q0 42 35 73t86 31q50 0 85.5 -31t35.5 -73q0 -45 -35 -77t-86 -32zM524 -451h-139l207 435l-551 1146h164
q91 -186 258.5 -539.5t202.5 -426.5h4q50 107 143 307.5t167.5 359.5t143.5 299h164z" />
    <glyph glyph-name="Amacron" unicode="&#x100;" horiz-adv-x="1808" 
d="M1303 1829h-799v117h799v-117zM207 0h-170l780 1597h174l781 -1597h-168q-148 290 -281 559h-842zM545 694h712q-231 473 -350 736h-6q-18 -38 -356 -736z" />
    <glyph glyph-name="amacron" unicode="&#x101;" horiz-adv-x="1406" 
d="M1128 1413h-825v115h825v-115zM547 -35q-118 0 -213 31.5t-155 99.5t-60 164q0 63 27 115t71 88t110 64.5t133.5 46t151.5 32.5q33 6 84 13.5t81 12t71.5 13t66 16.5t52.5 21.5t42.5 29.5t24.5 38.5t10 50.5q0 98 -99 170.5t-253 72.5q-139 0 -239 -63.5t-140 -173.5
l-147 47q38 104 125 175.5t190 102.5t217 31q95 0 181.5 -22t160.5 -65.5t118 -118.5t44 -171v-432q0 -131 10 -205.5t33 -148.5h-151q-33 100 -33 236h-6q-69 -123 -197.5 -197t-310.5 -74zM565 78q106 0 199.5 37t153.5 93.5t94.5 121.5t34.5 123v153
q-60 -36 -121.5 -54.5t-204.5 -41.5q-47 -7 -76 -12t-80.5 -16.5t-85 -23.5t-74.5 -31.5t-65.5 -41.5t-41.5 -53.5t-17 -67.5q0 -85 78.5 -135.5t205.5 -50.5z" />
    <glyph glyph-name="Abreve" unicode="&#x102;" horiz-adv-x="1808" 
d="M903 1726q-101 0 -187 29t-141 75.5t-87 103.5t-35 116h137q6 -82 96.5 -147.5t216.5 -65.5q125 0 215.5 65.5t98.5 147.5h137q-3 -58 -35 -115t-87.5 -104t-141.5 -76t-187 -29zM207 0h-170l780 1597h174l781 -1597h-168q-148 290 -281 559h-842zM545 694h712
q-231 473 -350 736h-6q-18 -38 -356 -736z" />
    <glyph glyph-name="abreve" unicode="&#x103;" horiz-adv-x="1406" 
d="M715 1276q-204 0 -322.5 110.5t-126.5 284.5h137q5 -125 91 -203.5t223 -78.5q133 0 219 77t92 205h137q-8 -174 -127 -284.5t-323 -110.5zM547 -35q-118 0 -213 31.5t-155 99.5t-60 164q0 63 27 115t71 88t110 64.5t133.5 46t151.5 32.5q33 6 84 13.5t81 12t71.5 13
t66 16.5t52.5 21.5t42.5 29.5t24.5 38.5t10 50.5q0 98 -99 170.5t-253 72.5q-139 0 -239 -63.5t-140 -173.5l-147 47q38 104 125 175.5t190 102.5t217 31q95 0 181.5 -22t160.5 -65.5t118 -118.5t44 -171v-432q0 -131 10 -205.5t33 -148.5h-151q-33 100 -33 236h-6
q-69 -123 -197.5 -197t-310.5 -74zM565 78q106 0 199.5 37t153.5 93.5t94.5 121.5t34.5 123v153q-60 -36 -121.5 -54.5t-204.5 -41.5q-47 -7 -76 -12t-80.5 -16.5t-85 -23.5t-74.5 -31.5t-65.5 -41.5t-41.5 -53.5t-17 -67.5q0 -85 78.5 -135.5t205.5 -50.5z" />
    <glyph glyph-name="Aogonek" unicode="&#x104;" horiz-adv-x="1808" 
d="M1753 -365q46 0 105 15v-99q-66 -14 -117 -14q-139 0 -231.5 62.5t-92.5 171.5q0 136 191 229h-4q-148 290 -281 559h-842l-274 -559h-170l780 1597h174l781 -1597h-25q-103 -41 -157 -95t-54 -114q0 -68 62 -112t155 -44zM545 694h712q-231 473 -350 736h-6
q-18 -38 -356 -736z" />
    <glyph glyph-name="aogonek" unicode="&#x105;" horiz-adv-x="1406" 
d="M1231 -362q49 0 106 14v-101q-63 -14 -120 -14q-135 0 -226.5 63t-91.5 167q0 139 197 233h-2q-33 100 -33 236h-6q-69 -123 -197.5 -197t-310.5 -74q-118 0 -213 31.5t-155 99.5t-60 164q0 63 27 115t71 88t110 64.5t133.5 46t151.5 32.5q33 6 84 13.5t81 12t71.5 13
t66 16.5t52.5 21.5t42.5 29.5t24.5 38.5t10 50.5q0 98 -99 170.5t-253 72.5q-139 0 -239 -63.5t-140 -173.5l-147 47q38 104 125 175.5t190 102.5t217 31q95 0 181.5 -22t160.5 -65.5t118 -118.5t44 -171v-432q0 -131 10 -205.5t33 -148.5h-20q-207 -86 -207 -209
q0 -69 61.5 -111t151.5 -42zM1047 453v153q-60 -36 -121.5 -54.5t-204.5 -41.5q-47 -7 -76 -12t-80.5 -16.5t-85 -23.5t-74.5 -31.5t-65.5 -41.5t-41.5 -53.5t-17 -67.5q0 -85 78.5 -135.5t205.5 -50.5q106 0 199.5 37t153.5 93.5t94.5 121.5t34.5 123z" />
    <glyph glyph-name="Cacute" unicode="&#x106;" horiz-adv-x="2066" 
d="M1493 2044l-410 -324h-139l316 324h233zM1100 -35q-280 0 -500.5 105t-343.5 293.5t-123 429.5q0 186 75 344t204 265t303.5 167.5t371.5 60.5q134 0 263 -29.5t242.5 -85.5t202.5 -146.5t134 -205.5l-143 -53q-88 180 -276.5 281.5t-419.5 101.5q-158 0 -300 -48.5
t-250.5 -136.5t-172.5 -222.5t-64 -294.5q0 -136 45.5 -250.5t123.5 -194.5t182.5 -135.5t222 -82t241.5 -26.5q150 0 277 38.5t217.5 106t153 153t96.5 186.5l143 -47q-46 -126 -124 -228.5t-189 -181t-262 -121.5t-330 -43z" />
    <glyph glyph-name="cacute" unicode="&#x107;" horiz-adv-x="1495" 
d="M1182 1669l-373 -391h-135l297 391h211zM788 -35q-195 0 -347.5 74.5t-238 211t-85.5 312.5q0 177 86 313.5t239 211.5t349 75q123 0 231 -31.5t202 -105.5t146 -184l-145 -51q-52 116 -169.5 180.5t-273.5 64.5q-228 0 -365.5 -134t-137.5 -339q0 -211 143.5 -341
t372.5 -130q181 0 307 80t190 213l138 -45q-78 -181 -249 -278t-393 -97z" />
    <glyph glyph-name="Cdotaccent" unicode="&#x10a;" horiz-adv-x="2066" 
d="M1040 1786q-55 0 -93 33.5t-38 83.5q0 46 38 79t93 33q54 0 91.5 -33t37.5 -79q0 -49 -37.5 -83t-91.5 -34zM1100 -35q-280 0 -500.5 105t-343.5 293.5t-123 429.5q0 186 75 344t204 265t303.5 167.5t371.5 60.5q134 0 263 -29.5t242.5 -85.5t202.5 -146.5t134 -205.5
l-143 -53q-88 180 -276.5 281.5t-419.5 101.5q-158 0 -300 -48.5t-250.5 -136.5t-172.5 -222.5t-64 -294.5q0 -136 45.5 -250.5t123.5 -194.5t182.5 -135.5t222 -82t241.5 -26.5q150 0 277 38.5t217.5 106t153 153t96.5 186.5l143 -47q-46 -126 -124 -228.5t-189 -181
t-262 -121.5t-330 -43z" />
    <glyph glyph-name="cdotaccent" unicode="&#x10b;" horiz-adv-x="1495" 
d="M752 1417q-57 0 -95.5 33.5t-38.5 83.5q0 46 39 79.5t95 33.5q54 0 91.5 -33.5t37.5 -79.5q0 -49 -37.5 -83t-91.5 -34zM788 -35q-195 0 -347.5 74.5t-238 211t-85.5 312.5q0 177 86 313.5t239 211.5t349 75q123 0 231 -31.5t202 -105.5t146 -184l-145 -51
q-52 116 -169.5 180.5t-273.5 64.5q-228 0 -365.5 -134t-137.5 -339q0 -211 143.5 -341t372.5 -130q181 0 307 80t190 213l138 -45q-78 -181 -249 -278t-393 -97z" />
    <glyph glyph-name="Ccaron" unicode="&#x10c;" horiz-adv-x="2066" 
d="M1317 2028h141l-319 -308h-199l-317 308h139q159 -121 278 -220q147 121 277 220zM1100 -35q-280 0 -500.5 105t-343.5 293.5t-123 429.5q0 186 75 344t204 265t303.5 167.5t371.5 60.5q134 0 263 -29.5t242.5 -85.5t202.5 -146.5t134 -205.5l-143 -53
q-88 180 -276.5 281.5t-419.5 101.5q-158 0 -300 -48.5t-250.5 -136.5t-172.5 -222.5t-64 -294.5q0 -136 45.5 -250.5t123.5 -194.5t182.5 -135.5t222 -82t241.5 -26.5q150 0 277 38.5t217.5 106t153 153t96.5 186.5l143 -47q-46 -126 -124 -228.5t-189 -181t-262 -121.5
t-330 -43z" />
    <glyph glyph-name="ccaron" unicode="&#x10d;" horiz-adv-x="1495" 
d="M852 1282h-205l-354 363h143q247 -206 316 -267q110 99 313 267h143zM788 -35q-195 0 -347.5 74.5t-238 211t-85.5 312.5q0 177 86 313.5t239 211.5t349 75q123 0 231 -31.5t202 -105.5t146 -184l-145 -51q-52 116 -169.5 180.5t-273.5 64.5q-228 0 -365.5 -134
t-137.5 -339q0 -211 143.5 -341t372.5 -130q181 0 307 80t190 213l138 -45q-78 -181 -249 -278t-393 -97z" />
    <glyph glyph-name="Dcaron" unicode="&#x10e;" horiz-adv-x="1978" 
d="M1194 2028h141l-319 -308h-199l-317 308h139q170 -130 279 -220q160 131 276 220zM954 0h-692v1597h670q187 0 339.5 -40.5t257 -112t176 -171.5t104 -216t32.5 -248q0 -178 -61 -327t-173 -256t-280 -166.5t-373 -59.5zM424 133h545q326 0 515 177.5t189 486.5
q0 319 -203 493t-573 174h-473v-1331z" />
    <glyph glyph-name="dcaron" unicode="&#x10f;" horiz-adv-x="1644" 
d="M1679 1180h-100l150 254q-42 12 -65.5 41t-23.5 65q0 46 39 79.5t93 33.5t91.5 -32.5t37.5 -78.5q0 -39 -39 -101t-183 -261zM748 -35q-179 0 -323 76t-226 213t-82 309q0 176 84.5 314t228 212t320.5 74q163 0 298.5 -66.5t217.5 -191.5h6v733h149v-1284
q0 -130 10 -205.5t33 -148.5h-151q-36 119 -33 227h-6q-82 -127 -221 -194.5t-305 -67.5zM766 92q138 0 253.5 59.5t185 168.5t69.5 245q0 137 -69.5 245.5t-185 167t-253.5 58.5q-212 0 -351 -134.5t-139 -338.5q0 -203 140 -337t350 -134z" />
    <glyph glyph-name="Dcroat" unicode="&#x110;" horiz-adv-x="1978" 
d="M262 1597h670q187 0 339.5 -40.5t257 -112t176 -171.5t104 -216t32.5 -248q0 -178 -61 -327t-173 -256t-280 -166.5t-373 -59.5h-692v737h-203v121h203v739zM969 133q326 0 515 177.5t189 486.5q0 319 -203 493t-573 174h-473v-606h657v-121h-657v-604h545z" />
    <glyph glyph-name="dcroat" unicode="&#x111;" horiz-adv-x="1644" 
d="M1741 1444v-115h-320v-975q0 -130 10 -205.5t33 -148.5h-151q-36 119 -33 227h-6q-82 -127 -221 -194.5t-305 -67.5q-179 0 -323 76t-226 213t-82 309q0 176 84.5 314t228 212t320.5 74q163 0 298.5 -66.5t217.5 -191.5h6v424h-348v115h348v194h149v-194h320zM766 92
q138 0 253.5 59.5t185 168.5t69.5 245q0 137 -69.5 245.5t-185 167t-253.5 58.5q-212 0 -351 -134.5t-139 -338.5q0 -203 140 -337t350 -134z" />
    <glyph glyph-name="Emacron" unicode="&#x112;" horiz-adv-x="1617" 
d="M1225 1829h-799v117h799v-117zM1489 0h-1227v1597h1202v-133h-1040v-575h991v-137h-991v-613h1065v-139z" />
    <glyph glyph-name="emacron" unicode="&#x113;" horiz-adv-x="1314" 
d="M1073 1413h-825v115h825v-115zM676 -35q-123 0 -230 43.5t-183.5 121t-120.5 189.5t-44 244q0 262 161.5 431t412.5 169q71 0 140 -14.5t142 -54.5t127.5 -101t89.5 -163t35 -232v-72h-960q4 -201 124.5 -319.5t309.5 -118.5q148 0 254.5 80.5t159.5 208.5l129 -45
q-67 -173 -213 -270t-334 -97zM252 655h805q-1 103 -36.5 181t-93 121t-123 64t-136.5 21q-166 0 -278.5 -107t-137.5 -280z" />
    <glyph glyph-name="Edotaccent" unicode="&#x116;" horiz-adv-x="1617" 
d="M825 1786q-55 0 -93 33.5t-38 83.5q0 46 38 79t93 33q54 0 91.5 -33t37.5 -79q0 -49 -37.5 -83t-91.5 -34zM1489 0h-1227v1597h1202v-133h-1040v-575h991v-137h-991v-613h1065v-139z" />
    <glyph glyph-name="edotaccent" unicode="&#x117;" horiz-adv-x="1314" 
d="M664 1417q-57 0 -95.5 33.5t-38.5 83.5q0 46 39 79.5t95 33.5q54 0 91.5 -33.5t37.5 -79.5q0 -49 -37.5 -83t-91.5 -34zM676 -35q-123 0 -230 43.5t-183.5 121t-120.5 189.5t-44 244q0 262 161.5 431t412.5 169q71 0 140 -14.5t142 -54.5t127.5 -101t89.5 -163t35 -232
v-72h-960q4 -201 124.5 -319.5t309.5 -118.5q148 0 254.5 80.5t159.5 208.5l129 -45q-67 -173 -213 -270t-334 -97zM252 655h805q-1 103 -36.5 181t-93 121t-123 64t-136.5 21q-166 0 -278.5 -107t-137.5 -280z" />
    <glyph glyph-name="Eogonek" unicode="&#x118;" horiz-adv-x="1617" 
d="M1495 -365q45 0 104 15v-99q-66 -14 -116 -14q-139 0 -231.5 62.5t-92.5 171.5q0 136 191 229h-1088v1597h1202v-133h-1040v-575h991v-137h-991v-613h1065v-139q-103 -41 -157 -95t-54 -114q0 -68 62 -112t155 -44z" />
    <glyph glyph-name="eogonek" unicode="&#x119;" horiz-adv-x="1314" 
d="M852 -10q-182 -82 -182 -199q0 -69 61.5 -111t151.5 -42q49 0 106 14v-101q-63 -14 -121 -14q-135 0 -226 63t-91 167q0 117 133 198h-8q-123 0 -230 43.5t-183.5 121t-120.5 189.5t-44 244q0 262 161.5 431t412.5 169q71 0 140 -14.5t142 -54.5t127.5 -101t89.5 -163
t35 -232v-72h-960q4 -201 124.5 -319.5t309.5 -118.5q148 0 254.5 80.5t159.5 208.5l129 -45q-51 -130 -147.5 -218t-223.5 -124zM668 1042q-166 0 -278.5 -107t-137.5 -280h805q-1 103 -36.5 181t-93 121t-123 64t-136.5 21z" />
    <glyph glyph-name="Ecaron" unicode="&#x11a;" horiz-adv-x="1617" 
d="M1102 2028h141l-319 -308h-199l-317 308h139q159 -121 278 -220q147 121 277 220zM1489 0h-1227v1597h1202v-133h-1040v-575h991v-137h-991v-613h1065v-139z" />
    <glyph glyph-name="ecaron" unicode="&#x11b;" horiz-adv-x="1314" 
d="M764 1282h-205l-354 363h143q247 -206 316 -267q110 99 313 267h143zM676 -35q-123 0 -230 43.5t-183.5 121t-120.5 189.5t-44 244q0 262 161.5 431t412.5 169q71 0 140 -14.5t142 -54.5t127.5 -101t89.5 -163t35 -232v-72h-960q4 -201 124.5 -319.5t309.5 -118.5
q148 0 254.5 80.5t159.5 208.5l129 -45q-67 -173 -213 -270t-334 -97zM252 655h805q-1 103 -36.5 181t-93 121t-123 64t-136.5 21q-166 0 -278.5 -107t-137.5 -280z" />
    <glyph glyph-name="Gbreve" unicode="&#x11e;" horiz-adv-x="2160" 
d="M1040 1726q-101 0 -187 29t-141 75.5t-87 103.5t-35 116h137q6 -82 96.5 -147.5t216.5 -65.5q125 0 215.5 65.5t98.5 147.5h137q-3 -58 -35 -115t-87.5 -104t-141.5 -76t-187 -29zM1083 -35q-205 0 -381.5 61.5t-301.5 170t-196 263t-71 333.5q0 245 127.5 437.5
t344.5 296t482 103.5q135 0 264 -29.5t242.5 -86t201.5 -147t134 -204.5l-143 -53q-88 180 -276.5 281.5t-419.5 101.5q-157 0 -299 -48.5t-251 -136t-173 -222t-64 -295.5q0 -136 45.5 -251t123.5 -194.5t181.5 -135.5t218.5 -82t236 -26q306 0 504 155.5t219 395.5h-678
v127h838v-780h-133q0 62 -5 360h-12q-99 -188 -292 -291.5t-466 -103.5z" />
    <glyph glyph-name="gbreve" unicode="&#x11f;" horiz-adv-x="1642" 
d="M793 1276q-204 0 -322.5 110.5t-126.5 284.5h137q5 -125 91 -203.5t223 -78.5q133 0 219 77t92 205h137q-8 -174 -127 -284.5t-323 -110.5zM797 -483q-468 0 -609 329l140 45q104 -253 471 -253q76 0 141 13.5t127 48t106 88t70.5 139t26.5 196.5v139h-6
q-80 -128 -217 -194t-304 -66q-179 0 -323.5 77t-224.5 210.5t-80 296.5q0 166 83.5 298.5t227 205.5t319.5 73q164 0 303.5 -69t221.5 -197h4v233h145v-991q0 -622 -622 -622zM764 129q137 0 253.5 59.5t185.5 165.5t69 234t-69.5 231.5t-185.5 160t-253 56.5
q-211 0 -350.5 -129t-139.5 -321t141.5 -324.5t348.5 -132.5z" />
    <glyph glyph-name="Gdotaccent" unicode="&#x120;" horiz-adv-x="2160" 
d="M1040 1786q-55 0 -93 33.5t-38 83.5q0 46 38 79t93 33q54 0 91.5 -33t37.5 -79q0 -49 -37.5 -83t-91.5 -34zM1083 -35q-205 0 -381.5 61.5t-301.5 170t-196 263t-71 333.5q0 245 127.5 437.5t344.5 296t482 103.5q135 0 264 -29.5t242.5 -86t201.5 -147t134 -204.5
l-143 -53q-88 180 -276.5 281.5t-419.5 101.5q-157 0 -299 -48.5t-251 -136t-173 -222t-64 -295.5q0 -136 45.5 -251t123.5 -194.5t181.5 -135.5t218.5 -82t236 -26q306 0 504 155.5t219 395.5h-678v127h838v-780h-133q0 62 -5 360h-12q-99 -188 -292 -291.5t-466 -103.5z
" />
    <glyph glyph-name="gdotaccent" unicode="&#x121;" horiz-adv-x="1642" 
d="M797 1417q-57 0 -95 33.5t-38 83.5q0 46 38.5 79.5t94.5 33.5q54 0 91.5 -33.5t37.5 -79.5q0 -49 -37.5 -83t-91.5 -34zM797 -483q-468 0 -609 329l140 45q104 -253 471 -253q76 0 141 13.5t127 48t106 88t70.5 139t26.5 196.5v139h-6q-80 -128 -217 -194t-304 -66
q-179 0 -323.5 77t-224.5 210.5t-80 296.5q0 166 83.5 298.5t227 205.5t319.5 73q164 0 303.5 -69t221.5 -197h4v233h145v-991q0 -622 -622 -622zM764 129q137 0 253.5 59.5t185.5 165.5t69 234t-69.5 231.5t-185.5 160t-253 56.5q-211 0 -350.5 -129t-139.5 -321
t141.5 -324.5t348.5 -132.5z" />
    <glyph glyph-name="uni0122" unicode="&#x122;" horiz-adv-x="2160" 
d="M1083 -35q-205 0 -381.5 61.5t-301.5 170t-196 263t-71 333.5q0 245 127.5 437.5t344.5 296t482 103.5q135 0 264 -29.5t242.5 -86t201.5 -147t134 -204.5l-143 -53q-88 180 -276.5 281.5t-419.5 101.5q-157 0 -299 -48.5t-251 -136t-173 -222t-64 -295.5
q0 -136 45.5 -251t123.5 -194.5t181.5 -135.5t218.5 -82t236 -26q306 0 504 155.5t219 395.5h-678v127h838v-780h-133q0 62 -5 360h-12q-99 -188 -292 -291.5t-466 -103.5zM1012 -520h-78l117 194q-53 10 -79 38.5t-26 64.5q0 44 36.5 75t90.5 31q51 0 87 -30.5t36 -73.5
q0 -40 -33.5 -92.5t-150.5 -206.5z" />
    <glyph glyph-name="uni0123" unicode="&#x123;" horiz-adv-x="1642" 
d="M641 1360q0 41 34 96t177 254h100l-147 -246q39 -12 61.5 -39.5t22.5 -62.5q0 -46 -36 -76.5t-89 -30.5q-52 0 -87.5 30.5t-35.5 74.5zM797 -483q-468 0 -609 329l140 45q104 -253 471 -253q76 0 141 13.5t127 48t106 88t70.5 139t26.5 196.5v139h-6q-80 -128 -217 -194
t-304 -66q-179 0 -323.5 77t-224.5 210.5t-80 296.5q0 166 83.5 298.5t227 205.5t319.5 73q164 0 303.5 -69t221.5 -197h4v233h145v-991q0 -622 -622 -622zM764 129q137 0 253.5 59.5t185.5 165.5t69 234t-69.5 231.5t-185.5 160t-253 56.5q-211 0 -350.5 -129t-139.5 -321
t141.5 -324.5t348.5 -132.5z" />
    <glyph glyph-name="Hbar" unicode="&#x126;" horiz-adv-x="1986" 
d="M1722 1286h166v-117h-166v-1169h-159v737h-1139v-737h-162v1169h-166v117h166v311h162v-311h1139v311h159v-311zM424 872h1139v297h-1139v-297z" />
    <glyph glyph-name="hbar" unicode="&#x127;" horiz-adv-x="1554" 
d="M854 1163q75 0 144 -14t134.5 -47.5t113.5 -84.5t77 -130t29 -178v-709h-150v647q0 82 -21 148.5t-57 111t-85.5 74t-104 42.5t-115.5 13q-104 0 -190 -35t-141 -93t-85 -129.5t-30 -147.5v-631h-150v1327h-225v115h225v196h150v-196h442v-115h-442v-414h6
q76 126 199 188t276 62z" />
    <glyph glyph-name="Imacron" unicode="&#x12a;" horiz-adv-x="686" 
d="M743 1829h-798v117h798v-117zM424 0h-162v1597h162v-1597z" />
    <glyph glyph-name="imacron" unicode="&#x12b;" horiz-adv-x="595" 
d="M711 1409h-826v115h826v-115zM373 0h-150v1130h150v-1130z" />
    <glyph glyph-name="Iogonek" unicode="&#x12e;" horiz-adv-x="686" 
d="M430 -365q46 0 105 15v-99q-66 -14 -117 -14q-139 0 -231.5 62.5t-92.5 171.5q0 136 191 229h-23v1597h162v-1597q-103 -41 -157 -95t-54 -114q0 -68 62 -112t155 -44z" />
    <glyph glyph-name="iogonek" unicode="&#x12f;" horiz-adv-x="595" 
d="M301 1413q-57 0 -95 33.5t-38 83.5q0 46 38.5 79t94.5 33q54 0 91.5 -33t37.5 -79q0 -49 -37.5 -83t-91.5 -34zM373 -362q49 0 106 14v-101q-63 -14 -121 -14q-135 0 -226 63t-91 167q0 139 197 233h-15v1130h150v-1130h-6q-207 -86 -207 -209q0 -69 61.5 -111t151.5 -42
z" />
    <glyph glyph-name="Idotaccent" unicode="&#x130;" horiz-adv-x="686" 
d="M344 1786q-55 0 -93 33.5t-38 83.5q0 46 38 79t93 33q54 0 91.5 -33t37.5 -79q0 -49 -37.5 -83t-91.5 -34zM424 0h-162v1597h162v-1597z" />
    <glyph glyph-name="dotlessi" unicode="&#x131;" horiz-adv-x="595" 
d="M373 0h-150v1130h150v-1130z" />
    <glyph glyph-name="uni0136" unicode="&#x136;" horiz-adv-x="1630" 
d="M424 0h-162v1597h162v-860h4q356 328 969 860h192q-378 -336 -784 -700q463 -502 831 -897h-194q-92 95 -144.5 150t-88 93t-170.5 179t-351 366l-264 -237v-551zM817 -520h-78l117 194q-52 10 -78 38t-26 65q0 44 36.5 75t90.5 31q51 0 86.5 -30.5t35.5 -73.5
q0 -40 -33.5 -92.5t-150.5 -206.5z" />
    <glyph glyph-name="uni0137" unicode="&#x137;" horiz-adv-x="1273" 
d="M1200 1130l-512 -446l602 -684h-174l-534 592l-207 -180v-412h-152v1638h152v-1054h6q234 204 633 546h186zM682 -117q51 0 87 -30.5t36 -73.5q0 -40 -33.5 -92.5t-150.5 -206.5h-78l116 194q-52 10 -78 38t-26 65q0 44 36.5 75t90.5 31z" />
    <glyph glyph-name="Lacute" unicode="&#x139;" horiz-adv-x="1454" 
d="M618 2044h234l-410 -324h-139zM424 1597v-1458h991v-139h-1153v1597h162z" />
    <glyph glyph-name="lacute" unicode="&#x13a;" horiz-adv-x="595" 
d="M795 2085l-410 -324h-139l315 324h234zM373 0h-150v1638h150v-1638z" />
    <glyph glyph-name="uni013B" unicode="&#x13b;" horiz-adv-x="1454" 
d="M424 1597v-1458h991v-139h-1153v1597h162zM780 -117q51 0 87 -30.5t36 -73.5q0 -40 -33.5 -92.5t-150.5 -206.5h-78l117 194q-53 10 -79 38.5t-26 64.5q0 44 36.5 75t90.5 31z" />
    <glyph glyph-name="uni013C" unicode="&#x13c;" horiz-adv-x="595" 
d="M373 0h-150v1638h150v-1638zM246 -520h-78l117 194q-53 10 -79 38.5t-26 64.5q0 44 36.5 75t90.5 31q51 0 87 -30.5t36 -73.5q0 -40 -33.5 -92.5t-150.5 -206.5z" />
    <glyph glyph-name="Lcaron" unicode="&#x13d;" horiz-adv-x="1454" 
d="M934 1165h-100l149 254q-42 12 -65 41.5t-23 65.5q0 46 38.5 79t92.5 33t91.5 -32.5t37.5 -77.5q0 -39 -40 -103.5t-181 -259.5zM424 1597v-1458h991v-139h-1153v1597h162z" />
    <glyph glyph-name="lcaron" unicode="&#x13e;" horiz-adv-x="595" 
d="M373 0h-150v1638h150v-1638zM680 1165h-100l149 254q-40 12 -63 41.5t-23 65.5q0 46 38.5 79t92.5 33q52 0 90.5 -33t38.5 -77q0 -39 -39 -101t-184 -262z" />
    <glyph glyph-name="Lslash" unicode="&#x141;" horiz-adv-x="1454" 
d="M424 838v-699h991v-139h-1153v774l-209 -82v127l209 82v696h162v-632l369 143v-125z" />
    <glyph glyph-name="lslash" unicode="&#x142;" horiz-adv-x="595" 
d="M373 1032l243 148v-123l-243 -150v-907h-150v817l-241 -147v125l241 147v696h150v-606z" />
    <glyph glyph-name="Nacute" unicode="&#x143;" horiz-adv-x="2027" 
d="M1442 2044l-410 -324h-139l315 324h234zM424 0h-162v1597h176q35 -41 208.5 -243t250 -291.5t219 -256.5t258 -304.5t225.5 -270.5h7v1366h159v-1597h-176q-124 145 -531.5 614t-631.5 734h-2v-1348z" />
    <glyph glyph-name="nacute" unicode="&#x144;" horiz-adv-x="1554" 
d="M1204 1669l-373 -391h-135l297 391h211zM373 0h-150v1130h146v-217h4q79 127 204.5 188.5t278.5 61.5q75 0 144 -14t134 -47.5t112.5 -84.5t76.5 -130t29 -178v-709h-150v647q0 82 -21 148.5t-57 111t-85.5 74t-104 42.5t-115.5 13q-104 0 -190 -35t-141 -92.5
t-85 -129.5t-30 -148v-631z" />
    <glyph glyph-name="uni0145" unicode="&#x145;" horiz-adv-x="2027" 
d="M424 0h-162v1597h176q35 -41 208.5 -243t250 -291.5t219 -256.5t258 -304.5t225.5 -270.5h7v1366h159v-1597h-176q-124 145 -531.5 614t-631.5 734h-2v-1348zM987 -520h-78l117 194q-52 10 -78 38t-26 65q0 44 36.5 75t90.5 31q51 0 86.5 -30.5t35.5 -73.5
q0 -40 -33.5 -92.5t-150.5 -206.5z" />
    <glyph glyph-name="uni0146" unicode="&#x146;" horiz-adv-x="1554" 
d="M373 0h-150v1130h146v-217h4q79 127 204.5 188.5t278.5 61.5q75 0 144 -14t134 -47.5t112.5 -84.5t76.5 -130t29 -178v-709h-150v647q0 82 -21 148.5t-57 111t-85.5 74t-104 42.5t-115.5 13q-104 0 -190 -35t-141 -92.5t-85 -129.5t-30 -148v-631zM752 -520h-78l117 194
q-53 10 -79 38.5t-26 64.5q0 44 36.5 75t90.5 31q51 0 87 -30.5t36 -73.5q0 -40 -33.5 -92.5t-150.5 -206.5z" />
    <glyph glyph-name="Ncaron" unicode="&#x147;" horiz-adv-x="2027" 
d="M1266 2028h141l-320 -308h-198l-318 308h140q159 -121 278 -220q147 121 277 220zM424 0h-162v1597h176q35 -41 208.5 -243t250 -291.5t219 -256.5t258 -304.5t225.5 -270.5h7v1366h159v-1597h-176q-124 145 -531.5 614t-631.5 734h-2v-1348z" />
    <glyph glyph-name="ncaron" unicode="&#x148;" horiz-adv-x="1554" 
d="M874 1282h-204l-355 363h144q228 -191 315 -267q110 99 313 267h144zM373 0h-150v1130h146v-217h4q79 127 204.5 188.5t278.5 61.5q75 0 144 -14t134 -47.5t112.5 -84.5t76.5 -130t29 -178v-709h-150v647q0 82 -21 148.5t-57 111t-85.5 74t-104 42.5t-115.5 13
q-104 0 -190 -35t-141 -92.5t-85 -129.5t-30 -148v-631z" />
    <glyph glyph-name="Eng" unicode="&#x14a;" horiz-adv-x="2027" 
d="M1290 -483q-165 0 -278 55v135q108 -61 248 -61q161 0 251.5 91.5t90.5 248.5q-82 95 -518 598t-660 768v-1352h-162v1597h176q35 -41 208.5 -243t250 -291.5t219 -256.5t258 -304.5t225.5 -270.5h7v1366h159v-1536q0 -57 -5 -108t-19.5 -107t-37 -102.5t-59.5 -89.5
t-85.5 -72.5t-117 -47t-151.5 -17.5z" />
    <glyph glyph-name="eng" unicode="&#x14b;" horiz-adv-x="1554" 
d="M977 -483q-149 0 -256 55v129q117 -61 229 -61q41 0 75 8.5t58.5 21t44 34.5t31.5 41t21 49.5t13 51t6 54t2.5 50.5t0.5 48v649q0 82 -21 148.5t-57 111t-85.5 74t-104 42.5t-115.5 13q-104 0 -190 -35t-141 -92.5t-85 -129.5t-30 -148v-631h-150v1130h146v-217h4
q79 127 204.5 188.5t278.5 61.5q75 0 144 -13.5t134 -46.5t112.5 -83t76.5 -127t29 -174v-733q0 -39 -0.5 -61.5t-4 -65.5t-9.5 -70.5t-19 -67.5t-31 -65.5t-47 -54t-65.5 -45.5t-87 -28t-111.5 -11z" />
    <glyph glyph-name="Omacron" unicode="&#x14c;" horiz-adv-x="2185" 
d="M1491 1829h-799v117h799v-117zM1092 -35q-194 0 -370.5 63t-306.5 172t-207 264.5t-77 332.5q0 235 130 427t350 299t483 107q199 0 377.5 -65t306 -176t202 -265.5t74.5 -326.5q0 -174 -75.5 -329t-204.5 -265t-306.5 -174t-375.5 -64zM1096 102q156 0 299.5 53
t250.5 144t170.5 221t63.5 277t-63.5 277.5t-170 221.5t-250 144t-300.5 53q-211 0 -392.5 -89t-291 -250t-109.5 -357q0 -148 64.5 -278t172.5 -221t253.5 -143.5t302.5 -52.5z" />
    <glyph glyph-name="omacron" unicode="&#x14d;" horiz-adv-x="1587" 
d="M1206 1413h-825v115h825v-115zM795 -35q-147 0 -273 44t-215 122.5t-139.5 190t-50.5 241.5t50.5 242t139.5 190.5t215 123t273 44.5q195 0 348.5 -76t239 -213t85.5 -311t-85.5 -310.5t-239 -212t-348.5 -75.5zM795 92q228 0 371 131.5t143 339.5t-143 340.5t-371 132.5
q-227 0 -371.5 -133t-144.5 -340t144.5 -339t371.5 -132z" />
    <glyph glyph-name="Ohungarumlaut" unicode="&#x150;" horiz-adv-x="2185" 
d="M1264 2044l-332 -324h-137l256 324h213zM1640 2044l-354 -324h-137l276 324h215zM1092 -35q-194 0 -370.5 63t-306.5 172t-207 264.5t-77 332.5q0 235 130 427t350 299t483 107q199 0 377.5 -65t306 -176t202 -265.5t74.5 -326.5q0 -174 -75.5 -329t-204.5 -265
t-306.5 -174t-375.5 -64zM1096 102q156 0 299.5 53t250.5 144t170.5 221t63.5 277t-63.5 277.5t-170 221.5t-250 144t-300.5 53q-211 0 -392.5 -89t-291 -250t-109.5 -357q0 -148 64.5 -278t172.5 -221t253.5 -143.5t302.5 -52.5z" />
    <glyph glyph-name="ohungarumlaut" unicode="&#x151;" horiz-adv-x="1587" 
d="M967 1673l-332 -395h-133l256 395h209zM1348 1673l-355 -395h-133l279 395h209zM795 -35q-147 0 -273 44t-215 122.5t-139.5 190t-50.5 241.5t50.5 242t139.5 190.5t215 123t273 44.5q195 0 348.5 -76t239 -213t85.5 -311t-85.5 -310.5t-239 -212t-348.5 -75.5zM795 92
q228 0 371 131.5t143 339.5t-143 340.5t-371 132.5q-227 0 -371.5 -133t-144.5 -340t144.5 -339t371.5 -132z" />
    <glyph glyph-name="OE" unicode="&#x152;" horiz-adv-x="3239" 
d="M1092 -35q-194 0 -370.5 63t-306.5 172t-207 264.5t-77 332.5t76.5 332.5t206 265t306 172.5t372.5 63q256 0 466 -101t334 -276v344h1194v-133h-1038v-575h989v-137h-989v-613h1063v-139h-1219v340q-125 -173 -336 -274t-464 -101zM1094 102q209 0 388.5 88.5
t288.5 249.5t109 357q0 149 -63.5 279.5t-170.5 221t-250.5 143t-299.5 52.5q-158 0 -303.5 -52.5t-253 -143.5t-172 -221.5t-64.5 -278.5t64 -278t172 -221t253 -143.5t302 -52.5z" />
    <glyph glyph-name="oe" unicode="&#x153;" horiz-adv-x="2717" 
d="M795 -35q-147 0 -273 44t-215 122.5t-139.5 190t-50.5 241.5t50.5 242t139.5 190.5t215 123t273 44.5q202 0 358.5 -81t235.5 -222q77 141 231 222t352 81q82 0 161 -14.5t163.5 -54.5t147.5 -101t104 -163t41 -232v-47h-1125q3 -205 148 -334t366 -129q177 0 304 80.5
t190 208.5l135 -45q-77 -175 -246.5 -271t-386.5 -96q-200 0 -354 79.5t-231 219.5q-79 -139 -235.5 -219t-358.5 -80zM1473 657h954q-2 82 -30 148.5t-73 109.5t-105 72.5t-123 42t-130 12.5q-197 0 -330 -106t-163 -279zM795 92q228 0 371 131.5t143 339.5t-143 340.5
t-371 132.5q-227 0 -371.5 -133t-144.5 -340t144.5 -339t371.5 -132z" />
    <glyph glyph-name="Racute" unicode="&#x154;" horiz-adv-x="1701" 
d="M1243 2044l-409 -324h-140l316 324h233zM424 0h-162v1597h668q181 0 321 -54t222.5 -162.5t82.5 -258.5q0 -204 -138 -332t-363 -147v-2q27 -34 221.5 -274t296.5 -367h-178l-516 637h-455v-637zM424 768h496q220 0 344.5 89.5t124.5 256.5q0 164 -134 257t-354 93h-477
v-696z" />
    <glyph glyph-name="racute" unicode="&#x155;" horiz-adv-x="1003" 
d="M991 1669l-373 -391h-135l297 391h211zM373 0h-150v1130h146v-233h10q51 119 172.5 192.5t269.5 73.5q91 0 158 -22v-150q-83 27 -168 27q-104 0 -189.5 -41t-138.5 -108.5t-81.5 -150t-28.5 -169.5v-549z" />
    <glyph glyph-name="uni0156" unicode="&#x156;" horiz-adv-x="1701" 
d="M424 0h-162v1597h668q181 0 321 -54t222.5 -162.5t82.5 -258.5q0 -204 -138 -332t-363 -147v-2q27 -34 221.5 -274t296.5 -367h-178l-516 637h-455v-637zM424 768h496q220 0 344.5 89.5t124.5 256.5q0 164 -134 257t-354 93h-477v-696zM811 -520h-78l117 194
q-53 10 -79 38.5t-26 64.5q0 44 36.5 75t90.5 31q51 0 87 -30.5t36 -73.5q0 -40 -33.5 -92.5t-150.5 -206.5z" />
    <glyph glyph-name="uni0157" unicode="&#x157;" horiz-adv-x="1003" 
d="M373 0h-150v1130h146v-233h10q51 119 172.5 192.5t269.5 73.5q91 0 158 -22v-150q-83 27 -168 27q-104 0 -189.5 -41t-138.5 -108.5t-81.5 -150t-28.5 -169.5v-549zM236 -520h-78l116 194q-52 10 -78 38t-26 65q0 44 36.5 75t90.5 31q51 0 87 -30.5t36 -73.5
q0 -40 -33.5 -92.5t-150.5 -206.5z" />
    <glyph glyph-name="Rcaron" unicode="&#x158;" horiz-adv-x="1701" 
d="M1067 2028h141l-319 -308h-199l-317 308h139q170 -130 279 -220q160 131 276 220zM424 0h-162v1597h668q181 0 321 -54t222.5 -162.5t82.5 -258.5q0 -204 -138 -332t-363 -147v-2q27 -34 221.5 -274t296.5 -367h-178l-516 637h-455v-637zM424 768h496q220 0 344.5 89.5
t124.5 256.5q0 164 -134 257t-354 93h-477v-696z" />
    <glyph glyph-name="rcaron" unicode="&#x159;" horiz-adv-x="1003" 
d="M662 1282h-205l-355 363h144q228 -191 315 -267q110 99 313 267h144zM373 0h-150v1130h146v-233h10q51 119 172.5 192.5t269.5 73.5q91 0 158 -22v-150q-83 27 -168 27q-104 0 -189.5 -41t-138.5 -108.5t-81.5 -150t-28.5 -169.5v-549z" />
    <glyph glyph-name="Sacute" unicode="&#x15a;" horiz-adv-x="1583" 
d="M1161 2044l-407 -324h-140l316 324h231zM815 -35q-109 0 -213.5 25t-204 77.5t-178 146.5t-119.5 220l148 49q60 -186 214.5 -284.5t356.5 -98.5q85 0 166 18.5t151 54t113 98t43 141.5q0 41 -14 76t-28.5 59t-53 48t-57.5 35.5t-75.5 29.5t-72 22t-79.5 20q-24 6 -35 9
l-181 47q-51 13 -86.5 23.5t-95 32.5t-102 44.5t-92 58.5t-80 75.5t-51.5 94.5t-21 117q0 103 53.5 186t142.5 134.5t197.5 78.5t224.5 27q225 0 396.5 -100.5t234.5 -282.5l-143 -53q-55 139 -188 220t-318 81q-119 0 -217 -34t-157.5 -98.5t-59.5 -148.5q0 -43 18 -82.5
t42 -67t67 -54.5t72.5 -41.5t81 -32t70.5 -23t60 -16.5l187 -51q184 -48 250 -74q219 -85 267 -238q15 -47 15 -102q0 -138 -91 -246t-238 -164.5t-320 -56.5z" />
    <glyph glyph-name="sacute" unicode="&#x15b;" horiz-adv-x="1214" 
d="M1036 1669l-372 -391h-136l297 391h211zM639 -35q-196 0 -347.5 87.5t-207.5 230.5l141 41q52 -106 169 -173t247 -67q48 0 99 10.5t102 32.5t83.5 64t32.5 98q0 28 -10 51.5t-23.5 40.5t-39 33t-46 25t-56 20t-56 16t-59.5 14l-131 31q-33 8 -59 14.5t-69 21.5
t-75.5 31.5t-69.5 43t-61 56.5t-40 71.5t-16 89.5q0 62 26.5 115t71 89t102 61.5t119.5 37.5t124 12q168 0 299 -78.5t178 -197.5l-145 -45q-36 86 -128.5 144t-220.5 58q-119 0 -195.5 -50.5t-76.5 -133.5q0 -41 22 -75.5t51.5 -56.5t79 -42.5t82.5 -30t85 -22.5l131 -31
q38 -9 61.5 -14.5t66.5 -19.5t71 -28t62.5 -37.5t55 -50t35 -64t14.5 -81.5q0 -146 -134.5 -244t-344.5 -98z" />
    <glyph glyph-name="Scedilla" unicode="&#x15e;" horiz-adv-x="1583" 
d="M1464 432q0 -133 -85 -239t-224 -164t-305 -64l-102 -123q38 19 100 19q98 0 160.5 -46t62.5 -120q0 -82 -76.5 -134.5t-193.5 -52.5q-86 0 -167 30.5t-134 80.5l65 59q39 -42 101.5 -67t126.5 -25q70 0 117.5 30t47.5 77q0 43 -43 70.5t-108 27.5t-117 -27l-63 54
l118 149q-103 8 -197.5 37t-183.5 82.5t-158 142.5t-106 205l148 49q60 -186 214.5 -284.5t356.5 -98.5q85 0 166 18.5t151 54t113 98t43 141.5q0 41 -14 76t-28.5 59t-53 48t-57.5 35.5t-75.5 29.5t-72 22t-79.5 20q-24 6 -35 9l-181 47q-51 13 -86.5 23.5t-95 32.5
t-102 44.5t-92 58.5t-80 75.5t-51.5 94.5t-21 117q0 103 53.5 186t142.5 134.5t197.5 78.5t224.5 27q225 0 396.5 -100.5t234.5 -282.5l-143 -53q-55 139 -188 220t-318 81q-119 0 -217 -34t-157.5 -98.5t-59.5 -148.5q0 -43 18 -82.5t42 -67t67 -54.5t72.5 -41.5t81 -32
t70.5 -23t60 -16.5l187 -51q184 -48 250 -74q219 -85 267 -238q15 -47 15 -102z" />
    <glyph glyph-name="scedilla" unicode="&#x15f;" horiz-adv-x="1214" 
d="M1118 307q0 -141 -126 -238t-324 -104l-103 -123q38 19 101 19q98 0 160.5 -46t62.5 -120q0 -82 -77 -134.5t-194 -52.5q-86 0 -167 30.5t-134 80.5l66 59q39 -42 101 -67t126 -25q70 0 118 30t48 77q0 43 -43 70.5t-108 27.5t-117 -27l-64 54l119 151
q-170 15 -299.5 100t-179.5 214l141 41q52 -106 169 -173t247 -67q48 0 99 10.5t102 32.5t83.5 64t32.5 98q0 28 -10 51.5t-23.5 40.5t-39 33t-46 25t-56 20t-56 16t-59.5 14l-131 31q-33 8 -59 14.5t-69 21.5t-75.5 31.5t-69.5 43t-61 56.5t-40 71.5t-16 89.5
q0 62 26.5 115t71 89t102 61.5t119.5 37.5t124 12q168 0 299 -78.5t178 -197.5l-145 -45q-36 86 -128.5 144t-220.5 58q-119 0 -195.5 -50.5t-76.5 -133.5q0 -41 22 -75.5t51.5 -56.5t79 -42.5t82.5 -30t85 -22.5l131 -31q38 -9 61.5 -14.5t66.5 -19.5t71 -28t62.5 -37.5
t55 -50t35 -64t14.5 -81.5z" />
    <glyph glyph-name="Scaron" unicode="&#x160;" horiz-adv-x="1583" 
d="M1059 2028h141l-319 -308h-199l-317 308h139q159 -121 278 -220q147 121 277 220zM815 -35q-109 0 -213.5 25t-204 77.5t-178 146.5t-119.5 220l148 49q60 -186 214.5 -284.5t356.5 -98.5q85 0 166 18.5t151 54t113 98t43 141.5q0 41 -14 76t-28.5 59t-53 48t-57.5 35.5
t-75.5 29.5t-72 22t-79.5 20q-24 6 -35 9l-181 47q-51 13 -86.5 23.5t-95 32.5t-102 44.5t-92 58.5t-80 75.5t-51.5 94.5t-21 117q0 103 53.5 186t142.5 134.5t197.5 78.5t224.5 27q225 0 396.5 -100.5t234.5 -282.5l-143 -53q-55 139 -188 220t-318 81q-119 0 -217 -34
t-157.5 -98.5t-59.5 -148.5q0 -43 18 -82.5t42 -67t67 -54.5t72.5 -41.5t81 -32t70.5 -23t60 -16.5l187 -51q184 -48 250 -74q219 -85 267 -238q15 -47 15 -102q0 -138 -91 -246t-238 -164.5t-320 -56.5z" />
    <glyph glyph-name="scaron" unicode="&#x161;" horiz-adv-x="1214" 
d="M705 1282h-205l-355 363h144q228 -191 315 -267q99 89 314 267h143zM639 -35q-196 0 -347.5 87.5t-207.5 230.5l141 41q52 -106 169 -173t247 -67q48 0 99 10.5t102 32.5t83.5 64t32.5 98q0 28 -10 51.5t-23.5 40.5t-39 33t-46 25t-56 20t-56 16t-59.5 14l-131 31
q-33 8 -59 14.5t-69 21.5t-75.5 31.5t-69.5 43t-61 56.5t-40 71.5t-16 89.5q0 62 26.5 115t71 89t102 61.5t119.5 37.5t124 12q168 0 299 -78.5t178 -197.5l-145 -45q-36 86 -128.5 144t-220.5 58q-119 0 -195.5 -50.5t-76.5 -133.5q0 -41 22 -75.5t51.5 -56.5t79 -42.5
t82.5 -30t85 -22.5l131 -31q38 -9 61.5 -14.5t66.5 -19.5t71 -28t62.5 -37.5t55 -50t35 -64t14.5 -81.5q0 -146 -134.5 -244t-344.5 -98z" />
    <glyph glyph-name="uni0162" unicode="&#x162;" horiz-adv-x="1558" 
d="M858 0h-27l-131 -158q38 19 101 19q98 0 160.5 -46t62.5 -120q0 -82 -76.5 -134.5t-193.5 -52.5q-86 0 -167 30.5t-134 80.5l65 59q39 -42 101 -67t126 -25q70 0 118 30t48 77q0 43 -43 70.5t-108 27.5t-117 -27l-63 54l143 182h-23v1464h-663v133h1485v-133h-664v-1464z
" />
    <glyph glyph-name="uni0163" unicode="&#x163;" horiz-adv-x="925" 
d="M868 1130v-122h-419v-629v-43.5t2 -43.5t5 -45t9.5 -40.5t16 -38.5t24.5 -31t34 -26t45 -15t58 -6q107 0 225 62v-132q-104 -55 -247 -55q-36 0 -52 2l-104 -125q38 19 100 19q98 0 160.5 -46t62.5 -120q0 -82 -76.5 -134.5t-193.5 -52.5q-86 0 -167 30.5t-134 80.5
l66 59q39 -42 101 -67t126 -25q70 0 118 30t48 77q0 42 -43.5 70t-108.5 28q-64 0 -116 -27l-64 54l133 168q-37 13 -66 34.5t-47.5 43.5t-31.5 54t-19 56t-9.5 60t-4 54.5t-0.5 51.5v668h-270v122h270v336h150v-336h419z" />
    <glyph glyph-name="Tcaron" unicode="&#x164;" horiz-adv-x="1558" 
d="M1057 2028h141l-319 -308h-199l-318 308h140q159 -121 278 -220q147 121 277 220zM858 0h-158v1464h-663v133h1485v-133h-664v-1464z" />
    <glyph glyph-name="tcaron" unicode="&#x165;" horiz-adv-x="925" 
d="M934 1169h-100l149 252q-41 12 -63.5 42t-22.5 67q0 46 37.5 78t91.5 32t91.5 -32t37.5 -78q0 -39 -38.5 -101t-182.5 -260zM621 -35q-52 0 -95.5 9t-75 22.5t-56 36.5t-40.5 44t-27 52.5t-16.5 53.5t-8 56.5t-3 52t-0.5 48.5v668h-270v122h270v336h150v-336h419v-122
h-419v-629v-43.5t2 -43.5t5 -45t9.5 -40.5t16 -38.5t24.5 -31t34 -26t45 -15t58 -6q107 0 225 62v-132q-104 -55 -247 -55z" />
    <glyph glyph-name="Tbar" unicode="&#x166;" horiz-adv-x="1558" 
d="M1522 1597v-133h-664v-606h432v-121h-432v-737h-158v737h-432v121h432v606h-663v133h1485z" />
    <glyph glyph-name="tbar" unicode="&#x167;" horiz-adv-x="925" 
d="M868 1130v-122h-419v-320h401v-115h-401v-194v-43.5t2 -43.5t5 -45t9.5 -40.5t16 -38.5t24.5 -31t34 -26t45 -15t58 -6q107 0 225 62v-132q-104 -55 -247 -55q-52 0 -95.5 9t-75 22.5t-56 36.5t-40.5 44t-27 52.5t-16.5 53.5t-8 56.5t-3 52t-0.5 48.5v233h-266v115h266
v320h-270v122h270v336h150v-336h419z" />
    <glyph glyph-name="Umacron" unicode="&#x16a;" horiz-adv-x="1849" 
d="M1323 1829h-799v117h799v-117zM918 -35q-321 0 -499.5 160.5t-178.5 454.5v1017h159v-1009q0 -248 138.5 -368t386.5 -120q249 0 387.5 120t138.5 368v1009h160v-1017q0 -132 -41.5 -242.5t-124 -194.5t-217 -131t-309.5 -47z" />
    <glyph glyph-name="umacron" unicode="&#x16b;" horiz-adv-x="1531" 
d="M1153 1413h-825v115h825v-115zM690 -35q-74 0 -141.5 14.5t-131.5 48.5t-111 85t-75 130.5t-28 178.5v708h149v-655q0 -104 32.5 -181t88 -119.5t119 -62.5t135.5 -20q100 0 184 36t136.5 94.5t81 128.5t28.5 141v638h150v-776q0 -126 10 -201t35 -153h-154
q-35 115 -35 209h-4q-75 -124 -196.5 -184t-272.5 -60z" />
    <glyph glyph-name="Uring" unicode="&#x16e;" horiz-adv-x="1849" 
d="M926 1714q-117 0 -194 63t-77 158q0 94 77 156.5t194 62.5q113 0 189.5 -62t76.5 -157q0 -96 -76.5 -158.5t-189.5 -62.5zM926 1810q66 0 110.5 34t44.5 91q0 54 -44.5 87.5t-110.5 33.5q-70 0 -116 -33t-46 -88q0 -57 45.5 -91t116.5 -34zM918 -35q-321 0 -499.5 160.5
t-178.5 454.5v1017h159v-1009q0 -248 138.5 -368t386.5 -120q249 0 387.5 120t138.5 368v1009h160v-1017q0 -132 -41.5 -242.5t-124 -194.5t-217 -131t-309.5 -47z" />
    <glyph glyph-name="uring" unicode="&#x16f;" horiz-adv-x="1531" 
d="M741 1247q-117 0 -193.5 63t-76.5 158q0 94 76.5 157t193.5 63q113 0 190 -62.5t77 -157.5q0 -96 -76.5 -158.5t-190.5 -62.5zM741 1343q67 0 111.5 34t44.5 91q0 54 -45 87.5t-111 33.5q-69 0 -114 -33t-45 -88q0 -57 45 -91t114 -34zM690 -35q-74 0 -141.5 14.5
t-131.5 48.5t-111 85t-75 130.5t-28 178.5v708h149v-655q0 -104 32.5 -181t88 -119.5t119 -62.5t135.5 -20q100 0 184 36t136.5 94.5t81 128.5t28.5 141v638h150v-776q0 -126 10 -201t35 -153h-154q-35 115 -35 209h-4q-75 -124 -196.5 -184t-272.5 -60z" />
    <glyph glyph-name="Uhungarumlaut" unicode="&#x170;" horiz-adv-x="1849" 
d="M1098 2044l-332 -324h-137l256 324h213zM1475 2044l-355 -324h-137l277 324h215zM918 -35q-321 0 -499.5 160.5t-178.5 454.5v1017h159v-1009q0 -248 138.5 -368t386.5 -120q249 0 387.5 120t138.5 368v1009h160v-1017q0 -132 -41.5 -242.5t-124 -194.5t-217 -131
t-309.5 -47z" />
    <glyph glyph-name="uhungarumlaut" unicode="&#x171;" horiz-adv-x="1531" 
d="M913 1673l-331 -395h-133l256 395h208zM1294 1673l-354 -395h-133l278 395h209zM690 -35q-74 0 -141.5 14.5t-131.5 48.5t-111 85t-75 130.5t-28 178.5v708h149v-655q0 -104 32.5 -181t88 -119.5t119 -62.5t135.5 -20q100 0 184 36t136.5 94.5t81 128.5t28.5 141v638h150
v-776q0 -126 10 -201t35 -153h-154q-35 115 -35 209h-4q-75 -124 -196.5 -184t-272.5 -60z" />
    <glyph glyph-name="Uogonek" unicode="&#x172;" horiz-adv-x="1849" 
d="M1450 588v1009h160v-1017q0 -120 -34.5 -222.5t-102.5 -184t-178 -134t-253 -68.5q-149 -78 -149 -180q0 -68 62 -112t155 -44q45 0 104 15v-99q-66 -14 -116 -14q-139 0 -231.5 62.5t-92.5 171.5q0 112 129 194q-315 3 -489 163.5t-174 451.5v1017h159v-1009
q0 -248 138.5 -368t386.5 -120q249 0 387.5 120t138.5 368z" />
    <glyph glyph-name="uogonek" unicode="&#x173;" horiz-adv-x="1531" 
d="M1333 -362q50 0 107 14v-101q-63 -14 -121 -14q-135 0 -226.5 63t-91.5 167q0 139 197 233q-35 115 -35 209h-4q-75 -124 -196.5 -184t-272.5 -60q-74 0 -141.5 14.5t-131.5 48.5t-111 85t-75 130.5t-28 178.5v708h149v-655q0 -104 32.5 -181t88 -119.5t119 -62.5
t135.5 -20q100 0 184 36t136.5 94.5t81 128.5t28.5 141v638h150v-776q0 -126 10 -201t35 -153h-25q-207 -86 -207 -209q0 -69 61.5 -111t151.5 -42z" />
    <glyph glyph-name="Wcircumflex" unicode="&#x174;" horiz-adv-x="2789" 
d="M1493 2028l319 -308h-141q-162 123 -276 217q-62 -52 -279 -217h-139l319 308h197zM862 0h-190l-625 1597h170q339 -833 551 -1402h4q483 1266 533 1402h178q526 -1371 538 -1402h7q355 933 544 1402h170l-622 -1597h-193q-231 573 -530 1386h-4q-304 -834 -531 -1386z
" />
    <glyph glyph-name="wcircumflex" unicode="&#x175;" horiz-adv-x="2226" 
d="M797 1278h-144l355 358h204l357 -358h-144q-258 214 -313 264q-129 -110 -315 -264zM698 0h-155l-498 1130h166l414 -944h6l407 944h154l418 -944h6l399 944h166l-493 -1130h-160q-16 36 -90.5 203t-105.5 238.5t-94 219t-122 293.5h-6q-171 -421 -412 -954z" />
    <glyph glyph-name="Ycircumflex" unicode="&#x176;" horiz-adv-x="1689" 
d="M944 2028l320 -308h-142q-162 123 -276 217q-62 -52 -279 -217h-139l320 308h196zM924 0h-158v586q-109 152 -360 507.5t-357 503.5h174l621 -872h4q157 222 625 872h169l-718 -1011v-586z" />
    <glyph glyph-name="ycircumflex" unicode="&#x177;" horiz-adv-x="1329" 
d="M334 1278h-144l355 358h205l356 -358h-143q-25 21 -97 79.5t-120.5 100t-96.5 84.5q-129 -110 -315 -264zM524 -451h-139l207 435l-551 1146h164q91 -186 258.5 -539.5t202.5 -426.5h4q50 107 143 307.5t167.5 359.5t143.5 299h164z" />
    <glyph glyph-name="Ydieresis" unicode="&#x178;" horiz-adv-x="1689" 
d="M610 1784q-51 0 -87 32.5t-36 79.5q0 43 36 75t87 32q52 0 88.5 -32t36.5 -75q0 -47 -36 -79.5t-89 -32.5zM1081 1784q-54 0 -89.5 32t-35.5 80q0 44 36 75.5t89 31.5q49 0 85 -32t36 -75q0 -47 -35.5 -79.5t-85.5 -32.5zM924 0h-158v586q-109 152 -360 507.5t-357 503.5
h174l621 -872h4q157 222 625 872h169l-718 -1011v-586z" />
    <glyph glyph-name="Zacute" unicode="&#x179;" horiz-adv-x="1615" 
d="M1225 2044l-410 -324h-139l315 324h234zM1538 0h-1464v143l1247 1317v4h-1200v133h1397v-139q-90 -95 -548 -576t-702 -739v-4h1270v-139z" />
    <glyph glyph-name="zacute" unicode="&#x17a;" horiz-adv-x="1189" 
d="M1026 1669l-373 -391h-135l297 391h211zM1128 0h-1056v106l796 898h-751v126h954v-106l-801 -897h858v-127z" />
    <glyph glyph-name="Zdotaccent" unicode="&#x17b;" horiz-adv-x="1615" 
d="M788 1786q-55 0 -93 33.5t-38 83.5q0 46 38 79t93 33q54 0 92 -33t38 -79q0 -49 -38 -83t-92 -34zM1538 0h-1464v143l1247 1317v4h-1200v133h1397v-139q-90 -95 -548 -576t-702 -739v-4h1270v-139z" />
    <glyph glyph-name="zdotaccent" unicode="&#x17c;" horiz-adv-x="1189" 
d="M598 1417q-57 0 -95 33.5t-38 83.5q0 46 38.5 79.5t94.5 33.5q54 0 91.5 -33.5t37.5 -79.5q0 -49 -37.5 -83t-91.5 -34zM1128 0h-1056v106l796 898h-751v126h954v-106l-801 -897h858v-127z" />
    <glyph glyph-name="Zcaron" unicode="&#x17d;" horiz-adv-x="1615" 
d="M1049 2028h141l-320 -308h-198l-318 308h140q159 -121 278 -220q147 121 277 220zM1538 0h-1464v143l1247 1317v4h-1200v133h1397v-139q-90 -95 -548 -576t-702 -739v-4h1270v-139z" />
    <glyph glyph-name="zcaron" unicode="&#x17e;" horiz-adv-x="1189" 
d="M696 1282h-204l-355 363h144q228 -191 315 -267q110 99 313 267h144zM1128 0h-1056v106l796 898h-751v126h954v-106l-801 -897h858v-127z" />
    <glyph glyph-name="uni0218" unicode="&#x218;" horiz-adv-x="1583" 
d="M815 -35q-109 0 -213.5 25t-204 77.5t-178 146.5t-119.5 220l148 49q60 -186 214.5 -284.5t356.5 -98.5q85 0 166 18.5t151 54t113 98t43 141.5q0 41 -14 76t-28.5 59t-53 48t-57.5 35.5t-75.5 29.5t-72 22t-79.5 20q-24 6 -35 9l-181 47q-51 13 -86.5 23.5t-95 32.5
t-102 44.5t-92 58.5t-80 75.5t-51.5 94.5t-21 117q0 103 53.5 186t142.5 134.5t197.5 78.5t224.5 27q225 0 396.5 -100.5t234.5 -282.5l-143 -53q-55 139 -188 220t-318 81q-119 0 -217 -34t-157.5 -98.5t-59.5 -148.5q0 -43 18 -82.5t42 -67t67 -54.5t72.5 -41.5t81 -32
t70.5 -23t60 -16.5l187 -51q184 -48 250 -74q219 -85 267 -238q15 -47 15 -102q0 -138 -91 -246t-238 -164.5t-320 -56.5zM756 -520h-78l117 194q-53 10 -79 38.5t-26 64.5q0 44 36.5 75t90.5 31q51 0 87 -30.5t36 -73.5q0 -40 -33.5 -92.5t-150.5 -206.5z" />
    <glyph glyph-name="uni0219" unicode="&#x219;" horiz-adv-x="1214" 
d="M639 -35q-196 0 -347.5 87.5t-207.5 230.5l141 41q52 -106 169 -173t247 -67q48 0 99 10.5t102 32.5t83.5 64t32.5 98q0 28 -10 51.5t-23.5 40.5t-39 33t-46 25t-56 20t-56 16t-59.5 14l-131 31q-33 8 -59 14.5t-69 21.5t-75.5 31.5t-69.5 43t-61 56.5t-40 71.5t-16 89.5
q0 62 26.5 115t71 89t102 61.5t119.5 37.5t124 12q168 0 299 -78.5t178 -197.5l-145 -45q-36 86 -128.5 144t-220.5 58q-119 0 -195.5 -50.5t-76.5 -133.5q0 -41 22 -75.5t51.5 -56.5t79 -42.5t82.5 -30t85 -22.5l131 -31q38 -9 61.5 -14.5t66.5 -19.5t71 -28t62.5 -37.5
t55 -50t35 -64t14.5 -81.5q0 -146 -134.5 -244t-344.5 -98zM573 -520h-77l116 194q-52 10 -78 38t-26 65q0 44 36.5 75t90.5 31q51 0 87 -30.5t36 -73.5q0 -40 -33 -91.5t-152 -207.5z" />
    <glyph glyph-name="uni021A" unicode="&#x21a;" horiz-adv-x="1558" 
d="M858 0h-158v1464h-663v133h1485v-133h-664v-1464zM709 -520h-78l117 194q-53 10 -79 38.5t-26 64.5q0 44 36.5 75t90.5 31q51 0 87 -30.5t36 -73.5q0 -40 -33.5 -92.5t-150.5 -206.5z" />
    <glyph glyph-name="uni021B" unicode="&#x21b;" horiz-adv-x="925" 
d="M621 -35q-52 0 -95.5 9t-75 22.5t-56 36.5t-40.5 44t-27 52.5t-16.5 53.5t-8 56.5t-3 52t-0.5 48.5v668h-270v122h270v336h150v-336h419v-122h-419v-629v-43.5t2 -43.5t5 -45t9.5 -40.5t16 -38.5t24.5 -31t34 -26t45 -15t58 -6q107 0 225 62v-132q-104 -55 -247 -55z
M475 -520h-78l117 194q-52 10 -78 38t-26 65q0 44 36.5 75t90.5 31q51 0 86.5 -30.5t35.5 -73.5q0 -40 -33.5 -92.5t-150.5 -206.5z" />
    <glyph glyph-name="gravecomb" unicode="&#x300;" horiz-adv-x="0" 
d="M-123 1278h-133l-373 391h211z" />
    <glyph glyph-name="acutecomb" unicode="&#x301;" horiz-adv-x="0" 
d="M123 1669l-373 -391h-135l297 391h211z" />
    <glyph glyph-name="uni0302" unicode="&#x302;" horiz-adv-x="0" 
d="M-807 1278h-143l354 358h205l356 -358h-143q-25 21 -97 79.5t-120.5 100t-96.5 84.5q-129 -110 -315 -264z" />
    <glyph glyph-name="tildecomb" unicode="&#x303;" horiz-adv-x="0" 
d="M-381 1337q-19 0 -36.5 2t-30 4t-28.5 8.5t-23 9t-23 12t-19.5 11.5t-20 14t-18.5 13l-45 33q-65 51 -120 51q-58 0 -95 -40t-37 -101h-114q1 110 71 180t177 70q51 0 90 -17t88 -51l51 -37q76 -53 135 -53q57 0 89 40t32 103h117q0 -117 -63.5 -184.5t-176.5 -67.5z" />
    <glyph glyph-name="uni0304" unicode="&#x304;" horiz-adv-x="0" 
d="M-109 1409h-825v115h825v-115z" />
    <glyph glyph-name="uni0306" unicode="&#x306;" horiz-adv-x="0" 
d="M-485 1276q-204 0 -322.5 110.5t-126.5 284.5h137q5 -125 91 -203.5t223 -78.5q133 0 219 77t92 205h137q-8 -174 -127 -284.5t-323 -110.5z" />
    <glyph glyph-name="uni0307" unicode="&#x307;" horiz-adv-x="0" 
d="M-295 1413q-57 0 -95 33.5t-38 83.5q0 46 38.5 79t94.5 33q54 0 91.5 -33t37.5 -79q0 -49 -37.5 -83t-91.5 -34z" />
    <glyph glyph-name="uni0308" unicode="&#x308;" horiz-adv-x="0" 
d="M-1010 1370q-51 0 -87 32.5t-36 76.5q0 42 36.5 73t86.5 31q51 0 85 -31t34 -73q0 -45 -33.5 -77t-85.5 -32zM-584 1370q-52 0 -86.5 32t-34.5 77q0 42 35 73t86 31q50 0 85.5 -31t35.5 -73q0 -45 -35 -77t-86 -32z" />
    <glyph glyph-name="uni030A" unicode="&#x30a;" horiz-adv-x="0" 
d="M-289 1247q-117 0 -193.5 63t-76.5 158q0 94 76.5 157t193.5 63q113 0 189.5 -62.5t76.5 -157.5q0 -96 -76.5 -158.5t-189.5 -62.5zM-289 1343q67 0 111.5 34t44.5 91q0 54 -45 87.5t-111 33.5q-69 0 -114.5 -33.5t-45.5 -87.5q0 -57 45.5 -91t114.5 -34z" />
    <glyph glyph-name="uni030B" unicode="&#x30b;" horiz-adv-x="0" 
d="M-172 1673l-332 -395h-133l256 395h209zM209 1673l-354 -395h-134l279 395h209z" />
    <glyph glyph-name="uni030C" unicode="&#x30c;" horiz-adv-x="0" 
d="M-391 1278h-205l-354 362h143q250 -209 315 -266q86 78 314 266h143z" />
    <glyph glyph-name="uni0312" unicode="&#x312;" horiz-adv-x="0" 
d="M-512 1323q0 41 34 96t177 254h100l-147 -246q39 -12 61.5 -39.5t22.5 -62.5q0 -45 -36 -75.5t-89 -30.5q-52 0 -87.5 30t-35.5 74z" />
    <glyph glyph-name="uni0326" unicode="&#x326;" horiz-adv-x="0" 
d="M-399 -520h-78l117 194q-53 10 -79 38.5t-26 64.5q0 44 36.5 75t90.5 31q51 0 87 -30.5t36 -73.5q0 -40 -33.5 -92.5t-150.5 -206.5z" />
    <glyph glyph-name="uni0327" unicode="&#x327;" horiz-adv-x="0" 
d="M-768 -492q-86 0 -167 30.5t-134 80.5l65 59q39 -42 101.5 -67t126.5 -25q70 0 118 30t48 77q0 42 -43.5 70t-108.5 28t-117 -27l-63 54l143 182h109l-131 -158q38 19 100 19q98 0 160.5 -46t62.5 -120q0 -82 -76.5 -134.5t-193.5 -52.5z" />
    <glyph glyph-name="uni0328" unicode="&#x328;" horiz-adv-x="0" 
d="M-770 -483q-135 0 -226 62.5t-91 166.5q0 140 196 234h129q-207 -86 -207 -209q0 -69 61.5 -111.5t151.5 -42.5q50 0 107 14v-100q-63 -14 -121 -14z" />
    <glyph glyph-name="uni0335" unicode="&#x335;" horiz-adv-x="0" 
d="M-881 623h818v-115h-818v115z" />
    <glyph glyph-name="uni0337" unicode="&#x337;" horiz-adv-x="0" 
d="M-580 518v125l635 385v-123z" />
    <glyph glyph-name="uni0338" unicode="&#x338;" horiz-adv-x="0" 
d="M-1231 -57h-168l1104 1237h162z" />
    <glyph glyph-name="Wgrave" unicode="&#x1e80;" horiz-adv-x="2789" 
d="M1499 1720h-139l-408 324h232zM862 0h-190l-625 1597h170q339 -833 551 -1402h4q483 1266 533 1402h178q526 -1371 538 -1402h7q355 933 544 1402h170l-622 -1597h-193q-231 573 -530 1386h-4q-304 -834 -531 -1386z" />
    <glyph glyph-name="wgrave" unicode="&#x1e81;" horiz-adv-x="2226" 
d="M1182 1278h-133l-373 391h211zM698 0h-155l-498 1130h166l414 -944h6l407 944h154l418 -944h6l399 944h166l-493 -1130h-160q-16 36 -90.5 203t-105.5 238.5t-94 219t-122 293.5h-6q-171 -421 -412 -954z" />
    <glyph glyph-name="Wacute" unicode="&#x1e82;" horiz-adv-x="2789" 
d="M1847 2044l-409 -324h-140l316 324h233zM862 0h-190l-625 1597h170q339 -833 551 -1402h4q483 1266 533 1402h178q526 -1371 538 -1402h7q355 933 544 1402h170l-622 -1597h-193q-231 573 -530 1386h-4q-304 -834 -531 -1386z" />
    <glyph glyph-name="wacute" unicode="&#x1e83;" horiz-adv-x="2226" 
d="M1542 1669l-373 -391h-135l297 391h211zM698 0h-155l-498 1130h166l414 -944h6l407 944h154l418 -944h6l399 944h166l-493 -1130h-160q-16 36 -90.5 203t-105.5 238.5t-94 219t-122 293.5h-6q-171 -421 -412 -954z" />
    <glyph glyph-name="Wdieresis" unicode="&#x1e84;" horiz-adv-x="2789" 
d="M1159 1784q-51 0 -87 32.5t-36 79.5q0 43 36 75t87 32q52 0 88.5 -32t36.5 -75q0 -47 -36 -79.5t-89 -32.5zM1630 1784q-54 0 -89.5 32t-35.5 80q0 44 36 75.5t89 31.5q49 0 85 -32t36 -75q0 -47 -35.5 -79.5t-85.5 -32.5zM862 0h-190l-625 1597h170q339 -833 551 -1402
h4q483 1266 533 1402h178q526 -1371 538 -1402h7q355 933 544 1402h170l-622 -1597h-193q-231 573 -530 1386h-4q-304 -834 -531 -1386z" />
    <glyph glyph-name="wdieresis" unicode="&#x1e85;" horiz-adv-x="2226" 
d="M897 1370q-51 0 -87 32.5t-36 76.5q0 42 36.5 73t86.5 31q51 0 85 -31t34 -73q0 -45 -33.5 -77t-85.5 -32zM1323 1370q-52 0 -86.5 32t-34.5 77q0 42 35 73t86 31q50 0 85.5 -31t35.5 -73q0 -45 -35 -77t-86 -32zM698 0h-155l-498 1130h166l414 -944h6l407 944h154
l418 -944h6l399 944h166l-493 -1130h-160q-16 36 -90.5 203t-105.5 238.5t-94 219t-122 293.5h-6q-171 -421 -412 -954z" />
    <glyph glyph-name="uni1E9E" unicode="&#x1e9e;" horiz-adv-x="1830" 
d="M399 0h-161v940q0 47 1.5 85t9.5 95t21 102t38.5 100t60.5 97t88.5 83t120 68t158 43.5t200.5 16.5q310 0 494 -121.5t184 -330.5q0 -147 -93.5 -244.5t-252.5 -124.5v-2q85 -5 162 -33t137.5 -76t96.5 -121t36 -159q0 -49 -12.5 -95t-40 -94.5t-78.5 -88.5t-121 -72
t-174.5 -50t-233.5 -18h-206v133h237q102 0 182.5 16.5t132 43.5t86 65.5t48.5 80t14 89.5q0 145 -128 224t-335 79h-131v133h143q36 0 76.5 5.5t94.5 24.5t95.5 49t71 85.5t29.5 128.5q0 163 -138 254.5t-374 91.5q-87 0 -160 -14t-125.5 -34.5t-94 -55t-67.5 -66
t-44.5 -77t-27.5 -77t-14 -78t-5.5 -68.5t-0.5 -59v-3v-971z" />
    <glyph glyph-name="Ygrave" unicode="&#x1ef2;" horiz-adv-x="1689" 
d="M950 1720h-139l-408 324h232zM924 0h-158v586q-109 152 -360 507.5t-357 503.5h174l621 -872h4q157 222 625 872h169l-718 -1011v-586z" />
    <glyph glyph-name="ygrave" unicode="&#x1ef3;" horiz-adv-x="1329" 
d="M721 1278h-133l-373 391h211zM524 -451h-139l207 435l-551 1146h164q91 -186 258.5 -539.5t202.5 -426.5h4q50 107 143 307.5t167.5 359.5t143.5 299h164z" />
    <glyph glyph-name="uni2000" unicode="&#x2000;" horiz-adv-x="1228" 
 />
    <glyph glyph-name="uni2001" unicode="&#x2001;" 
 />
    <glyph glyph-name="uni2002" unicode="&#x2002;" horiz-adv-x="1228" 
 />
    <glyph glyph-name="uni2003" unicode="&#x2003;" 
 />
    <glyph glyph-name="uni2004" unicode="&#x2004;" horiz-adv-x="819" 
 />
    <glyph glyph-name="uni2005" unicode="&#x2005;" horiz-adv-x="614" 
 />
    <glyph glyph-name="uni2006" unicode="&#x2006;" horiz-adv-x="409" 
 />
    <glyph glyph-name="uni2007" unicode="&#x2007;" horiz-adv-x="673" 
 />
    <glyph glyph-name="uni2008" unicode="&#x2008;" horiz-adv-x="569" 
 />
    <glyph glyph-name="uni2009" unicode="&#x2009;" horiz-adv-x="307" 
 />
    <glyph glyph-name="uni200A" unicode="&#x200a;" horiz-adv-x="102" 
 />
    <glyph glyph-name="uni200B" unicode="&#x200b;" horiz-adv-x="0" 
 />
    <glyph glyph-name="endash" unicode="&#x2013;" horiz-adv-x="1214" 
d="M1069 563h-924v121h924v-121z" />
    <glyph glyph-name="emdash" unicode="&#x2014;" horiz-adv-x="1728" 
d="M1585 565h-1440v115h1440v-115z" />
    <glyph glyph-name="quoteleft" unicode="&#x2018;" horiz-adv-x="550" 
d="M344 1632h98l-147 -254q41 -12 63.5 -41.5t22.5 -66.5q0 -46 -38 -78.5t-93 -32.5q-52 0 -89.5 32.5t-37.5 78.5q0 39 38 99t183 263z" />
    <glyph glyph-name="quoteright" unicode="&#x2019;" horiz-adv-x="561" 
d="M242 1165h-101l150 254q-41 12 -63.5 41t-22.5 66q0 46 37.5 79t91.5 33t91.5 -32.5t37.5 -77.5q0 -39 -40 -103.5t-181 -259.5z" />
    <glyph glyph-name="quotesinglbase" unicode="&#x201a;" horiz-adv-x="534" 
d="M182 -258h-98l147 254q-40 12 -63 41t-23 65q0 46 38 79.5t93 33.5q52 0 89.5 -33.5t37.5 -79.5q0 -39 -38 -99.5t-183 -260.5z" />
    <glyph glyph-name="quotedblleft" unicode="&#x201c;" horiz-adv-x="923" 
d="M344 1632h98l-147 -254q41 -12 63.5 -41.5t22.5 -66.5q0 -46 -38 -78.5t-93 -32.5q-52 0 -89.5 32.5t-37.5 78.5q0 39 38 99t183 263zM668 1632h98l-150 -254q42 -12 65.5 -41t23.5 -67q0 -46 -39 -78.5t-93 -32.5t-91.5 32.5t-37.5 78.5q0 36 33.5 90t148.5 214
q27 37 42 58z" />
    <glyph glyph-name="quotedblright" unicode="&#x201d;" horiz-adv-x="933" 
d="M240 1165h-99l150 254q-42 12 -65 41.5t-23 65.5q0 46 38.5 79t92.5 33q52 0 90.5 -33t38.5 -77q0 -39 -39 -101t-184 -262zM616 1165h-98l146 254q-40 12 -62 40.5t-22 66.5q0 46 38 79t93 33q51 0 88 -33t37 -77q0 -40 -31.5 -92t-148.5 -215q-26 -36 -40 -56z" />
    <glyph glyph-name="quotedblbase" unicode="&#x201e;" horiz-adv-x="907" 
d="M182 -254h-98l147 254q-40 12 -63 41.5t-23 67.5q0 46 38 78t93 32q53 0 90 -32t37 -78q0 -39 -38.5 -100.5t-182.5 -262.5zM557 -254h-100l149 254q-41 12 -63.5 41t-22.5 68q0 46 38.5 78t92.5 32q53 0 90 -32t37 -78q0 -37 -31 -88.5t-137 -200.5q-34 -47 -53 -74z
" />
    <glyph glyph-name="dagger" unicode="&#x2020;" horiz-adv-x="1187" 
d="M668 1296h411v-122h-411v-744h-148v744h-411v122h411v342h148v-342z" />
    <glyph glyph-name="daggerdbl" unicode="&#x2021;" horiz-adv-x="1306" 
d="M1137 1296v-122h-406v-295h406v-123h-406v-340h-149v340h-410v123h410v295h-410v122h410v342h149v-342h406z" />
    <glyph glyph-name="bullet" unicode="&#x2022;" horiz-adv-x="933" 
d="M469 428q-97 0 -164 60.5t-67 146.5q0 83 67 141t164 58q92 0 157.5 -58t65.5 -141q0 -86 -65.5 -146.5t-157.5 -60.5z" />
    <glyph glyph-name="ellipsis" unicode="&#x2026;" horiz-adv-x="1593" 
d="M287 -14q-56 0 -93.5 33.5t-37.5 82.5q0 46 38 79.5t93 33.5q52 0 88.5 -33.5t36.5 -79.5q0 -49 -36 -82.5t-89 -33.5zM721 -14q-56 0 -93.5 33.5t-37.5 82.5q0 46 38 79.5t93 33.5q52 0 88.5 -33.5t36.5 -79.5q0 -49 -36 -82.5t-89 -33.5zM1313 -14q-56 0 -93.5 33.5
t-37.5 82.5q0 46 38 79.5t93 33.5q52 0 88.5 -33.5t36.5 -79.5q0 -49 -36 -82.5t-89 -33.5z" />
    <glyph glyph-name="uni202F" unicode="&#x202f;" horiz-adv-x="487" 
 />
    <glyph glyph-name="perthousand" unicode="&#x2030;" horiz-adv-x="2830" 
d="M416 788q-142 0 -231 102.5t-89 264.5q0 163 89 267t231 104q144 0 232.5 -104t88.5 -267q0 -161 -88.5 -264t-232.5 -103zM399 0h-143l1366 1468h135zM416 893q86 0 137 69.5t51 192.5t-51 193.5t-137 70.5t-137.5 -70.5t-51.5 -193.5t51.5 -192.5t137.5 -69.5z
M1583 -29q-142 0 -230.5 102.5t-88.5 264.5q0 163 88.5 267t230.5 104q144 0 233 -104t89 -267q0 -161 -89 -264t-233 -103zM2415 -29q-142 0 -231 102.5t-89 264.5q0 163 89 267t231 104q144 0 232.5 -104t88.5 -267q0 -161 -88.5 -264t-232.5 -103zM1583 76
q86 0 137.5 69.5t51.5 192.5t-51.5 193.5t-137.5 70.5t-137 -70.5t-51 -193.5t51 -192.5t137 -69.5zM2415 76q86 0 137 69.5t51 192.5t-51 193.5t-137 70.5t-137.5 -70.5t-51.5 -193.5t51.5 -192.5t137.5 -69.5z" />
    <glyph glyph-name="guilsinglleft" unicode="&#x2039;" horiz-adv-x="894" 
d="M729 164h-180l-416 405v9l416 405h180l-416 -405v-9z" />
    <glyph glyph-name="guilsinglright" unicode="&#x203a;" horiz-adv-x="894" 
d="M346 164h-180l416 405v9l-416 405h180l416 -405v-9z" />
    <glyph glyph-name="fraction" unicode="&#x2044;" horiz-adv-x="335" 
d="M-432 0h-143l1366 1468h135z" />
    <glyph glyph-name="uni205F" unicode="&#x205f;" horiz-adv-x="544" 
 />
    <glyph glyph-name="uni2070" unicode="&#x2070;" horiz-adv-x="831" 
d="M416 788q-142 0 -231 102.5t-89 264.5q0 163 89 267t231 104q144 0 232.5 -104t88.5 -267q0 -161 -88.5 -264t-232.5 -103zM416 893q86 0 137 69.5t51 192.5t-51 193.5t-137 70.5t-137.5 -70.5t-51.5 -193.5t51.5 -192.5t137.5 -69.5z" />
    <glyph glyph-name="uni2074" unicode="&#x2074;" horiz-adv-x="786" 
d="M592 803h-121v158h-414v96l416 454h119v-456h117v-94h-117v-158zM471 1362l-291 -307h291v307z" />
    <glyph glyph-name="uni2075" unicode="&#x2075;" horiz-adv-x="774" 
d="M375 788q-111 0 -196.5 43.5t-115.5 118.5l109 49q24 -54 80.5 -84t122.5 -30q77 0 129.5 41.5t52.5 105.5q0 63 -50.5 103.5t-123.5 40.5q-56 0 -101 -22t-69 -58l-100 26l96 389h430v-94h-342l-57 -221q25 30 77.5 47t106.5 17q107 0 185.5 -60t78.5 -166
q0 -110 -91 -178t-222 -68z" />
    <glyph glyph-name="uni2076" unicode="&#x2076;" horiz-adv-x="808" 
d="M414 788q-142 0 -230 88t-88 242q0 177 111 292.5t282 115.5q52 0 109 -16t98 -50l-67 -76q-60 43 -146 43q-111 0 -185.5 -71t-80.5 -199h4q24 49 86.5 78t132.5 29q113 0 197 -65.5t84 -166.5q0 -104 -88 -174t-219 -70zM418 885q75 0 128.5 42t53.5 107
q0 63 -53 105.5t-125 42.5q-78 0 -130 -44t-52 -106t52.5 -104.5t125.5 -42.5z" />
    <glyph glyph-name="uni2077" unicode="&#x2077;" horiz-adv-x="671" 
d="M311 803h-129q0 138 87.5 319.5t226.5 298.5h-449v97h590v-101q-146 -109 -236 -288t-90 -326z" />
    <glyph glyph-name="uni2078" unicode="&#x2078;" horiz-adv-x="790" 
d="M395 788q-134 0 -218.5 59.5t-84.5 147.5q0 68 46 116.5t112 62.5v2q-125 50 -125 153q0 85 77 141t193 56q114 0 192.5 -55.5t78.5 -141.5q0 -48 -30.5 -89t-94.5 -64v-2q70 -15 114.5 -63t44.5 -114q0 -89 -85 -149t-220 -60zM397 1214q65 0 109.5 33t44.5 84
q0 47 -44.5 77t-109.5 30q-67 0 -110 -30.5t-43 -76.5q0 -50 43 -83.5t110 -33.5zM397 887q74 0 125 35.5t51 91.5t-47.5 90.5t-128.5 34.5q-83 0 -129.5 -34t-46.5 -91q0 -56 50 -91.5t126 -35.5z" />
    <glyph glyph-name="uni2079" unicode="&#x2079;" horiz-adv-x="815" 
d="M367 788q-75 0 -147.5 25.5t-123.5 77.5l74 72q77 -80 195 -80q111 0 170 78t59 194h-2q-24 -53 -87 -83t-136 -30q-113 0 -195 66t-82 168q0 107 88 178.5t223 71.5q65 0 119.5 -18.5t99 -56.5t70 -104.5t25.5 -154.5q0 -82 -21.5 -153.5t-63 -128t-110 -89.5
t-155.5 -33zM389 1122q79 0 132.5 47.5t53.5 114.5t-52.5 108.5t-125.5 41.5q-79 0 -132.5 -44t-53.5 -112q0 -67 51.5 -111.5t126.5 -44.5z" />
    <glyph glyph-name="uni2080" unicode="&#x2080;" horiz-adv-x="831" 
d="M416 -285q-142 0 -231 102.5t-89 264.5q0 163 89 267t231 104q144 0 232.5 -104t88.5 -267q0 -161 -88.5 -264t-232.5 -103zM416 -180q86 0 137 69.5t51 192.5t-51 193.5t-137 70.5t-137.5 -70.5t-51.5 -193.5t51.5 -192.5t137.5 -69.5z" />
    <glyph glyph-name="uni2081" unicode="&#x2081;" horiz-adv-x="532" 
d="M367 -270h-123v516q-69 -66 -185 -84v112q84 19 136.5 64.5t52.5 99.5h119v-708z" />
    <glyph glyph-name="uni2082" unicode="&#x2082;" horiz-adv-x="761" 
d="M666 -270h-564v12q3 43 11 77t26 63.5t36 50.5t54 46.5t66 43.5t84 49q32 19 52 32.5t47 36t40.5 48t13.5 53.5q0 47 -41.5 77.5t-107.5 30.5q-82 0 -133 -45.5t-51 -118.5l-113 17q0 110 84 180t213 70q120 0 199.5 -59t79.5 -152q0 -121 -162 -213q-19 -11 -60 -32.5
t-62 -34.5t-48.5 -33.5t-43.5 -43t-24 -49.5h404v-106z" />
    <glyph glyph-name="uni2083" unicode="&#x2083;" horiz-adv-x="774" 
d="M379 -285q-110 0 -194.5 45t-110.5 117l108 49q24 -53 75 -83.5t122 -30.5q74 0 122 32t48 88q0 55 -49.5 86t-137.5 31h-83v82h90q73 0 117 31.5t44 81.5t-45.5 80t-113.5 30q-66 0 -112 -32.5t-56 -88.5l-111 23q13 86 94.5 141.5t194.5 55.5q114 0 193 -51.5
t79 -135.5q0 -56 -36.5 -103t-100.5 -61q70 -12 117 -58t47 -110q0 -89 -81.5 -154t-219.5 -65z" />
    <glyph glyph-name="uni2084" unicode="&#x2084;" horiz-adv-x="786" 
d="M592 -270h-121v157h-414v97l416 454h119v-456h117v-95h-117v-157zM471 289l-291 -307h291v307z" />
    <glyph glyph-name="uni2085" unicode="&#x2085;" horiz-adv-x="774" 
d="M375 -285q-111 0 -196.5 43.5t-115.5 118.5l109 49q24 -54 80.5 -84t122.5 -30q77 0 129.5 41.5t52.5 105.5q0 63 -50 103t-124 40q-56 0 -101 -22t-69 -57l-100 26l96 389h430v-94h-342l-57 -221q25 29 77.5 46t106.5 17q107 0 185.5 -59.5t78.5 -165.5q0 -110 -91 -178
t-222 -68z" />
    <glyph glyph-name="uni2086" unicode="&#x2086;" horiz-adv-x="808" 
d="M414 -285q-142 0 -230 88t-88 242q0 177 111 292.5t282 115.5q52 0 109 -16t98 -50l-67 -76q-60 43 -146 43q-111 0 -185.5 -71t-80.5 -199h4q24 49 86 77.5t133 28.5q113 0 197 -65t84 -166q0 -104 -88 -174t-219 -70zM418 -188q75 0 128.5 42t53.5 107q0 63 -53 105.5
t-125 42.5q-78 0 -130 -44t-52 -106t52.5 -104.5t125.5 -42.5z" />
    <glyph glyph-name="uni2087" unicode="&#x2087;" horiz-adv-x="671" 
d="M311 -270h-129q0 138 87.5 319.5t226.5 298.5h-449v96h590v-100q-146 -109 -236 -288t-90 -326z" />
    <glyph glyph-name="uni2088" unicode="&#x2088;" horiz-adv-x="790" 
d="M395 -285q-134 0 -218.5 59.5t-84.5 147.5q0 68 45.5 116t112.5 62v2q-59 24 -92 64t-33 90q0 85 77 141t193 56q114 0 192.5 -55.5t78.5 -141.5q0 -48 -30.5 -89.5t-94.5 -64.5v-2q70 -15 114.5 -62.5t44.5 -113.5q0 -89 -85 -149t-220 -60zM397 141q65 0 109.5 33
t44.5 84q0 47 -44.5 77t-109.5 30q-67 0 -110 -30.5t-43 -76.5q0 -50 43 -83.5t110 -33.5zM397 -186q74 0 125 35.5t51 91.5t-47.5 90.5t-128.5 34.5q-83 0 -129.5 -34t-46.5 -91q0 -56 50 -91.5t126 -35.5z" />
    <glyph glyph-name="uni2089" unicode="&#x2089;" horiz-adv-x="815" 
d="M367 -285q-75 0 -147.5 25.5t-123.5 77.5l74 71q76 -79 195 -79q111 0 170 78t59 194h-2q-24 -53 -87 -83t-136 -30q-113 0 -195 66t-82 168q0 107 88 178.5t223 71.5q65 0 119.5 -18.5t99 -56.5t70 -104.5t25.5 -154.5q0 -82 -21.5 -153.5t-63 -128t-110 -89.5
t-155.5 -33zM389 49q79 0 132.5 47.5t53.5 114.5t-52.5 108t-125.5 41q-79 0 -132.5 -43.5t-53.5 -111.5q0 -67 51.5 -111.5t126.5 -44.5z" />
    <glyph glyph-name="Euro" unicode="&#x20ac;" horiz-adv-x="1947" 
d="M1731 229l104 -104q-223 -160 -561 -160q-344 0 -568.5 155.5t-293.5 420.5h-267v106h246q-8 52 -8 123q0 58 6 117h-244v106h265q33 129 102.5 236t173.5 187t249.5 124.5t319.5 44.5q339 0 560 -160l-115 -106q-180 131 -449 131q-265 0 -439 -123t-234 -334h811v-106
h-832q-8 -49 -8 -115q0 -73 8 -125h832v-106h-807q65 -210 244.5 -325.5t441.5 -115.5q277 0 463 129z" />
    <glyph glyph-name="trademark" unicode="&#x2122;" horiz-adv-x="1865" 
d="M477 938h-115v584h-270v94h649v-94h-264v-584zM997 938h-114v678h112q81 -155 273 -526q209 413 268 526h113v-678h-115v457l-223 -443h-90q-72 145 -224 445v-459z" />
    <glyph glyph-name="oneeighth" unicode="&#x215b;" horiz-adv-x="1658" 
d="M367 803h-123v516q-69 -66 -185 -84v113q85 19 137 64t52 99h119v-708zM100 0h-143l1366 1468h135zM1264 -29q-134 0 -218.5 59.5t-84.5 147.5q0 68 45.5 116t111.5 62v2q-59 24 -92 64t-33 90q0 85 77.5 141t193.5 56q114 0 192 -55.5t78 -141.5q0 -48 -30.5 -89.5
t-94.5 -64.5v-2q70 -16 115 -63t45 -113q0 -89 -85 -149t-220 -60zM1266 397q65 0 109 33t44 84q0 47 -44 77t-109 30q-67 0 -110.5 -30.5t-43.5 -76.5q0 -50 43.5 -83.5t110.5 -33.5zM1266 70q74 0 125 35.5t51 91.5t-47.5 90.5t-128.5 34.5q-83 0 -129.5 -34t-46.5 -91
q0 -56 50 -91.5t126 -35.5z" />
    <glyph glyph-name="threeeighths" unicode="&#x215c;" horiz-adv-x="1900" 
d="M379 788q-110 0 -194.5 45t-110.5 117l108 49q24 -53 75 -83.5t122 -30.5q74 0 122 32.5t48 88.5q0 55 -49.5 85.5t-137.5 30.5h-83v82h90q73 0 117 31.5t44 81.5t-45.5 80t-113.5 30q-66 0 -112 -32t-56 -88l-111 22q13 86 94.5 141.5t194.5 55.5q114 0 193 -51.5
t79 -135.5q0 -56 -36 -102.5t-101 -60.5q70 -12 117 -58t47 -110q0 -89 -81.5 -154.5t-219.5 -65.5zM342 0h-143l1366 1468h135zM1505 -29q-134 0 -218.5 59.5t-84.5 147.5q0 68 45.5 116t112.5 62v2q-59 24 -92 64t-33 90q0 85 77 141t193 56q114 0 192.5 -55.5
t78.5 -141.5q0 -48 -30.5 -89.5t-94.5 -64.5v-2q70 -15 114.5 -62.5t44.5 -113.5q0 -89 -85 -149t-220 -60zM1507 397q65 0 109.5 33t44.5 84q0 47 -44.5 77t-109.5 30q-67 0 -110 -30.5t-43 -76.5q0 -50 43 -83.5t110 -33.5zM1507 70q74 0 125 35.5t51 91.5t-47.5 90.5
t-128.5 34.5q-83 0 -129.5 -34t-46.5 -91q0 -56 50 -91.5t126 -35.5z" />
    <glyph glyph-name="fiveeighths" unicode="&#x215d;" horiz-adv-x="1900" 
d="M375 788q-111 0 -196.5 43.5t-115.5 118.5l109 49q24 -54 80.5 -84t122.5 -30q77 0 129.5 41.5t52.5 105.5q0 63 -50.5 103.5t-123.5 40.5q-56 0 -101 -22t-69 -58l-100 26l96 389h430v-94h-342l-57 -221q25 30 77.5 47t106.5 17q107 0 185.5 -60t78.5 -166
q0 -110 -91 -178t-222 -68zM342 0h-143l1366 1468h135zM1505 -29q-134 0 -218.5 59.5t-84.5 147.5q0 68 45.5 116t112.5 62v2q-59 24 -92 64t-33 90q0 85 77 141t193 56q114 0 192.5 -55.5t78.5 -141.5q0 -48 -30.5 -89.5t-94.5 -64.5v-2q70 -15 114.5 -62.5t44.5 -113.5
q0 -89 -85 -149t-220 -60zM1507 397q65 0 109.5 33t44.5 84q0 47 -44.5 77t-109.5 30q-67 0 -110 -30.5t-43 -76.5q0 -50 43 -83.5t110 -33.5zM1507 70q74 0 125 35.5t51 91.5t-47.5 90.5t-128.5 34.5q-83 0 -129.5 -34t-46.5 -91q0 -56 50 -91.5t126 -35.5z" />
    <glyph glyph-name="seveneighths" unicode="&#x215e;" horiz-adv-x="1798" 
d="M311 803h-129q0 138 87.5 319.5t226.5 298.5h-449v97h590v-101q-146 -109 -236 -288t-90 -326zM240 0h-144l1366 1468h135zM1403 -29q-134 0 -218.5 59.5t-84.5 147.5q0 68 45.5 116t111.5 62v2q-59 23 -91.5 63t-32.5 91q0 85 77 141t193 56q114 0 192 -55.5t78 -141.5
q0 -48 -30.5 -89.5t-94.5 -64.5v-2q70 -16 115 -63t45 -113q0 -89 -85 -149t-220 -60zM1405 397q65 0 109.5 33t44.5 84q0 47 -44.5 77t-109.5 30q-67 0 -110.5 -30.5t-43.5 -76.5q0 -50 43.5 -83.5t110.5 -33.5zM1405 70q74 0 125 35.5t51 91.5t-47.5 90.5t-128.5 34.5
q-83 0 -129.5 -34t-46.5 -91q0 -56 50 -91.5t126 -35.5z" />
    <glyph glyph-name="arrowleft" unicode="&#x2190;" horiz-adv-x="1708" 
d="M371 709h1188v-129h-1186l352 -344h-176l-408 405v8l408 406h176z" />
    <glyph glyph-name="arrowup" unicode="&#x2191;" horiz-adv-x="1185" 
d="M598 1202l487 -340v-155l-417 297v-984h-148v984l-418 -297v155l488 340h8z" />
    <glyph glyph-name="arrowright" unicode="&#x2192;" horiz-adv-x="1708" 
d="M985 1055h176l408 -406v-8l-408 -405h-176l352 344h-1185v129h1187z" />
    <glyph glyph-name="arrowdown" unicode="&#x2193;" horiz-adv-x="1189" 
d="M668 1202v-983l417 297v-156l-487 -340h-8l-488 340v156l420 -297v983h146z" />
    <glyph glyph-name="arrowboth" unicode="&#x2194;" horiz-adv-x="2138" 
d="M721 231h-176l-408 406v8l408 406h176l-361 -346h1418l-361 346h176l408 -406v-8l-408 -406h-176l359 347h-1414z" />
    <glyph glyph-name="arrowupdn" unicode="&#x2195;" horiz-adv-x="1306" 
d="M657 2h-8l-487 334v147l420 -284v993l-420 -289v152l487 331h8l488 -331v-152l-418 287v-991l418 284v-147z" />
    <glyph glyph-name="uni2196" unicode="&#x2196;" horiz-adv-x="1247" 
d="M1065 1036l78 -135l-514 49l493 -852l-127 -73l-491 852l-213 -467l-78 135l252 538l8 4z" />
    <glyph glyph-name="uni2197" unicode="&#x2197;" horiz-adv-x="1247" 
d="M782 1083l252 -538l-78 -135l-213 467l-491 -852l-127 73l493 852l-512 -49l78 135l592 51z" />
    <glyph glyph-name="uni2198" unicode="&#x2198;" horiz-adv-x="1245" 
d="M741 346l213 467l78 -135l-252 -539l-6 -4l-592 51l-78 136l512 -50l-493 852l127 74z" />
    <glyph glyph-name="uni2199" unicode="&#x2199;" horiz-adv-x="1245" 
d="M1122 1124l-493 -852l514 50l-78 -136l-592 -51l-8 4l-252 539l78 135l213 -467l491 852z" />
    <glyph glyph-name="emptyset" unicode="&#x2205;" horiz-adv-x="1701" 
d="M1468 1196l-147 -174q107 -83 166 -200.5t59 -254.5q0 -126 -51 -237t-141.5 -191.5t-221 -127t-282.5 -46.5q-203 0 -363 80l-151 -178l-103 65l152 177q-110 84 -169.5 202t-59.5 256q0 169 87 305t247 214.5t364 78.5q203 0 363 -80l149 177zM309 565
q0 -103 44 -192.5t124 -153.5l647 760q-120 57 -270 57q-238 0 -391.5 -136t-153.5 -335zM854 96q237 0 388 134.5t151 334.5q0 103 -43.5 193t-122.5 155l-647 -759q125 -58 274 -58z" />
    <glyph glyph-name="minus" unicode="&#x2212;" horiz-adv-x="1204" 
d="M1034 563h-864v123h864v-123z" />
    <glyph glyph-name="infinity" unicode="&#x221e;" horiz-adv-x="2213" 
d="M588 287q-180 0 -303 96t-123 242q0 145 125.5 241.5t300.5 96.5q125 0 232.5 -57t285.5 -204q182 147 289 204t231 57q180 0 303 -96t123 -242t-123 -242t-303 -96q-86 0 -166.5 29.5t-156 81t-195.5 149.5q-176 -146 -284 -203t-236 -57zM580 399q43 0 83.5 9.5
t71.5 22t71.5 38t66 44.5t73 55t76.5 57q-24 18 -77.5 59t-75 56.5t-64.5 42.5t-72 37.5t-70 20t-83 9.5q-123 0 -198 -61.5t-75 -163.5q0 -105 76.5 -165.5t196.5 -60.5zM1636 399q120 0 194.5 60.5t74.5 165.5q0 102 -73.5 163.5t-195.5 61.5q-43 0 -84 -9.5t-71 -21
t-72 -37.5t-65.5 -43.5t-73.5 -56t-76 -57.5q27 -20 75 -56.5t73 -55t66 -44.5t72 -38.5t72 -22t84 -9.5z" />
    <glyph glyph-name="approxequal" unicode="&#x2248;" horiz-adv-x="1271" 
d="M328 723h-135q0 123 81 190.5t191 67.5q50 0 94 -14.5t75 -34.5t59.5 -40.5t61.5 -35t68 -14.5q62 0 91.5 38t29.5 99h137q0 -126 -72 -192t-184 -66q-51 0 -95.5 14.5t-76 35.5t-61 41.5t-63.5 35t-70 14.5q-64 0 -97.5 -39.5t-33.5 -99.5zM328 303h-135q0 83 40.5 143
t101 86.5t130.5 26.5q61 0 114.5 -21.5t85.5 -47t74 -47t84 -21.5q62 0 91.5 38t29.5 99h137q0 -126 -72 -192t-184 -66q-51 0 -95.5 14.5t-76 34.5t-61 40.5t-63.5 35t-70 14.5q-64 0 -97.5 -39.5t-33.5 -97.5z" />
    <glyph glyph-name="notequal" unicode="&#x2260;" horiz-adv-x="1247" 
d="M1055 891v-123h-295l-129 -295h424v-123h-473l-80 -182h-133l80 182h-261v123h308l133 295h-441v123h490l74 172h133l-74 -172h244z" />
    <glyph glyph-name="lessequal" unicode="&#x2264;" horiz-adv-x="1245" 
d="M1049 346h-856v107h573l-573 178v125l856 180v-119l-674 -137l674 -225v-109z" />
    <glyph glyph-name="greaterequal" unicode="&#x2265;" horiz-adv-x="1245" 
d="M1051 346h-854v109l673 225l-673 137v119l854 -180v-125l-574 -178h574v-107z" />
    <glyph glyph-name="lozenge" unicode="&#x25ca;" horiz-adv-x="1392" 
d="M750 0h-109l-496 694l496 692h109l497 -692zM305 694l387 -534h8l385 534l-385 533h-8z" />
    <glyph glyph-name="A.ss01" horiz-adv-x="1822" 
d="M215 0h-172l735 1597h266l736 -1597h-170q-116 250 -252 559h-887q-55 -123 -256 -559zM522 690h785q-66 143 -186 405.5t-154 336.5h-101q-49 -107 -166 -357t-178 -385z" />
    <glyph glyph-name="Aacute.ss01" horiz-adv-x="1822" 
d="M1362 2044l-410 -324h-139l315 324h234zM215 0h-172l735 1597h266l736 -1597h-170q-116 250 -252 559h-887q-55 -123 -256 -559zM522 690h785q-66 143 -186 405.5t-154 336.5h-101q-49 -107 -166 -357t-178 -385z" />
    <glyph glyph-name="Abreve.ss01" horiz-adv-x="1822" 
d="M909 1726q-101 0 -187 29t-141 75.5t-87 103.5t-35 116h137q6 -82 96.5 -147.5t216.5 -65.5q125 0 215.5 65.5t98.5 147.5h137q-3 -58 -35 -115t-87.5 -104t-141.5 -76t-187 -29zM215 0h-172l735 1597h266l736 -1597h-170q-116 250 -252 559h-887q-55 -123 -256 -559z
M522 690h785q-66 143 -186 405.5t-154 336.5h-101q-49 -107 -166 -357t-178 -385z" />
    <glyph glyph-name="Acircumflex.ss01" horiz-adv-x="1822" 
d="M1008 2028l319 -308h-141q-175 133 -277 217q-72 -60 -278 -217h-139l319 308h197zM215 0h-172l735 1597h266l736 -1597h-170q-116 250 -252 559h-887q-55 -123 -256 -559zM522 690h785q-66 143 -186 405.5t-154 336.5h-101q-49 -107 -166 -357t-178 -385z" />
    <glyph glyph-name="Adieresis.ss01" horiz-adv-x="1822" 
d="M674 1784q-51 0 -87 32.5t-36 79.5q0 43 36 75t87 32q52 0 88.5 -32t36.5 -75q0 -47 -36 -79.5t-89 -32.5zM1145 1784q-54 0 -89.5 32t-35.5 80q0 44 36 75.5t89 31.5q49 0 85 -32t36 -75q0 -47 -35.5 -79.5t-85.5 -32.5zM215 0h-172l735 1597h266l736 -1597h-170
q-116 250 -252 559h-887q-55 -123 -256 -559zM522 690h785q-66 143 -186 405.5t-154 336.5h-101q-49 -107 -166 -357t-178 -385z" />
    <glyph glyph-name="Agrave.ss01" horiz-adv-x="1822" 
d="M1014 1720h-140l-407 324h231zM215 0h-172l735 1597h266l736 -1597h-170q-116 250 -252 559h-887q-55 -123 -256 -559zM522 690h785q-66 143 -186 405.5t-154 336.5h-101q-49 -107 -166 -357t-178 -385z" />
    <glyph glyph-name="Amacron.ss01" horiz-adv-x="1822" 
d="M1309 1829h-799v117h799v-117zM215 0h-172l735 1597h266l736 -1597h-170q-116 250 -252 559h-887q-55 -123 -256 -559zM522 690h785q-66 143 -186 405.5t-154 336.5h-101q-49 -107 -166 -357t-178 -385z" />
    <glyph glyph-name="Aogonek.ss01" horiz-adv-x="1822" 
d="M1761 -365q46 0 105 15v-99q-66 -14 -117 -14q-139 0 -231.5 62.5t-92.5 171.5q0 136 191 229h-6q-116 250 -252 559h-887q-55 -123 -256 -559h-172l735 1597h266l736 -1597h-25q-103 -41 -157 -95t-54 -114q0 -68 62 -112t155 -44zM522 690h785q-66 143 -186 405.5
t-154 336.5h-101q-49 -107 -166 -357t-178 -385z" />
    <glyph glyph-name="Aring.ss01" horiz-adv-x="1822" 
d="M909 1714q-117 0 -193.5 63t-76.5 158q0 94 76.5 156.5t193.5 62.5q113 0 190 -62t77 -157q0 -96 -76.5 -158.5t-190.5 -62.5zM909 1810q67 0 111.5 34t44.5 91q0 54 -45 87.5t-111 33.5q-70 0 -115.5 -33t-45.5 -88q0 -57 45 -91t116 -34zM215 0h-172l735 1597h266
l736 -1597h-170q-116 250 -252 559h-887q-55 -123 -256 -559zM522 690h785q-66 143 -186 405.5t-154 336.5h-101q-49 -107 -166 -357t-178 -385z" />
    <glyph glyph-name="Atilde.ss01" horiz-adv-x="1822" 
d="M1094 1747q-19 0 -36.5 2t-30 4t-28.5 8.5t-23 9t-23 12t-19.5 11.5t-20 14t-18.5 13l-45 32q-66 52 -121 52q-58 0 -94.5 -40.5t-36.5 -101.5h-115q1 110 71 180t177 70q52 0 91 -16.5t87 -50.5l52 -37q77 -54 135 -54q57 0 89 40.5t32 103.5h116q0 -117 -63 -184.5
t-176 -67.5zM215 0h-172l735 1597h266l736 -1597h-170q-116 250 -252 559h-887q-55 -123 -256 -559zM522 690h785q-66 143 -186 405.5t-154 336.5h-101q-49 -107 -166 -357t-178 -385z" />
    <glyph glyph-name="B.ss01" horiz-adv-x="1751" 
d="M1032 0h-770v1597h678q144 0 262 -34t193.5 -91.5t116 -132t40.5 -157.5q0 -80 -35 -151t-115.5 -131t-197.5 -85v-4q204 -31 308 -138t104 -247q0 -184 -166 -305t-418 -121zM424 868h498q215 0 338.5 81t123.5 212q0 138 -135.5 220.5t-347.5 82.5h-477v-596zM424 133
h555q215 0 341 82t126 215q0 137 -134.5 223t-350.5 86h-537v-606z" />
    <glyph glyph-name="C.ss01" horiz-adv-x="2066" 
d="M1100 -35q-280 0 -500.5 105t-343.5 293.5t-123 429.5q0 186 75 344t204 265t303.5 167.5t371.5 60.5q134 0 263 -29.5t242.5 -85.5t202.5 -146.5t134 -205.5l-143 -53q-88 180 -276.5 281.5t-419.5 101.5q-158 0 -300 -48.5t-250.5 -136.5t-172.5 -222.5t-64 -294.5
q0 -136 45.5 -250.5t123.5 -194.5t182.5 -135.5t222 -82t241.5 -26.5q150 0 277 38.5t217.5 106t153 153t96.5 186.5l143 -47q-46 -126 -124 -228.5t-189 -181t-262 -121.5t-330 -43z" />
    <glyph glyph-name="D.ss01" horiz-adv-x="1978" 
d="M954 0h-692v1597h670q187 0 339.5 -40.5t257 -112t176 -171.5t104 -216t32.5 -248q0 -178 -61 -327t-173 -256t-280 -166.5t-373 -59.5zM424 133h545q326 0 515 177.5t189 486.5q0 319 -203 493t-573 174h-473v-1331z" />
    <glyph glyph-name="E.ss01" horiz-adv-x="1617" 
d="M1489 0h-1227v1597h1202v-133h-1040v-575h991v-137h-991v-613h1065v-139z" />
    <glyph glyph-name="F.ss01" horiz-adv-x="1525" 
d="M1440 1597v-139h-1016v-586h967v-135h-967v-737h-162v1597h1178z" />
    <glyph glyph-name="G.ss01" horiz-adv-x="2111" 
d="M1094 -35q-212 0 -392 62.5t-304.5 171.5t-194.5 262t-70 330q0 186 75 344t204 266t303.5 168.5t371.5 60.5q135 0 264 -29.5t242.5 -85.5t202 -146.5t133.5 -205.5l-143 -53q-88 181 -276 282t-420 101q-157 0 -299 -48.5t-251 -136t-173 -221.5t-64 -294
q0 -206 102 -363t288.5 -242.5t430.5 -85.5q324 0 509.5 147.5t207.5 403.5h-688v127h838v-49q0 -158 -49.5 -287t-134 -217t-200 -148t-244 -87t-269.5 -27z" />
    <glyph glyph-name="H.ss01" horiz-adv-x="1986" 
d="M1563 872v725h159v-1597h-159v737h-1139v-737h-162v1597h162v-725h1139z" />
    <glyph glyph-name="I.ss01" horiz-adv-x="1323" 
d="M1225 0h-1127v133h484v1331h-496v133h1151v-133h-496v-1331h484v-133z" />
    <glyph glyph-name="Iacute.ss01" horiz-adv-x="1323" 
d="M1094 2044l-408 -324h-139l315 324h232zM1225 0h-1127v133h484v1331h-496v133h1151v-133h-496v-1331h484v-133z" />
    <glyph glyph-name="Icircumflex.ss01" horiz-adv-x="1323" 
d="M760 2028l319 -308h-141q-162 123 -276 217q-62 -52 -279 -217h-139l319 308h197zM1225 0h-1127v133h484v1331h-496v133h1151v-133h-496v-1331h484v-133z" />
    <glyph glyph-name="Idieresis.ss01" horiz-adv-x="1323" 
d="M426 1784q-51 0 -87 32.5t-36 79.5q0 43 36 75t87 32q52 0 88.5 -32t36.5 -75q0 -47 -36 -79.5t-89 -32.5zM897 1784q-54 0 -89.5 32t-35.5 80q0 44 36 75.5t89 31.5q49 0 85 -32t36 -75q0 -47 -35.5 -79.5t-85.5 -32.5zM1225 0h-1127v133h484v1331h-496v133h1151v-133
h-496v-1331h484v-133z" />
    <glyph glyph-name="Idotaccent.ss01" horiz-adv-x="1323" 
d="M662 1786q-56 0 -94 34t-38 83q0 46 38.5 79t93.5 33q54 0 91.5 -33t37.5 -79q0 -49 -37.5 -83t-91.5 -34zM1225 0h-1127v133h484v1331h-496v133h1151v-133h-496v-1331h484v-133z" />
    <glyph glyph-name="Igrave.ss01" horiz-adv-x="1323" 
d="M766 1720h-139l-408 324h232zM1225 0h-1127v133h484v1331h-496v133h1151v-133h-496v-1331h484v-133z" />
    <glyph glyph-name="Imacron.ss01" horiz-adv-x="1323" 
d="M1061 1829h-799v117h799v-117zM1225 0h-1127v133h484v1331h-496v133h1151v-133h-496v-1331h484v-133z" />
    <glyph glyph-name="J.ss01" horiz-adv-x="1433" 
d="M653 -35q-86 0 -164 15.5t-154 54.5t-131.5 98t-89.5 153.5t-34 213.5v26l149 19v-25q0 -96 26.5 -171t68.5 -120.5t98.5 -75.5t111 -41.5t111.5 -11.5q183 0 284 110t101 294v960h-659v133h821v-1052q0 -30 -0.5 -51t-5.5 -68.5t-14 -83.5t-27.5 -86.5t-44.5 -88
t-68 -77.5t-93.5 -66t-125 -42.5t-160.5 -16.5z" />
    <glyph glyph-name="K.ss01" horiz-adv-x="1628" 
d="M424 0h-162v1597h162v-731h4q38 29 403 307.5t553 423.5h209q-194 -155 -555 -435t-481 -374q782 -572 1079 -788h-221q-301 213 -991 696v-696z" />
    <glyph glyph-name="L.ss01" horiz-adv-x="1454" 
d="M424 1597v-1458h991v-139h-1153v1597h162z" />
    <glyph glyph-name="M.ss01" horiz-adv-x="2301" 
d="M1851 1597h189v-1597h-160v1352l-657 -1006h-144l-655 1004v-1350h-162v1597h191q356 -530 696 -1071h6q442 702 696 1071z" />
    <glyph glyph-name="N.ss01" horiz-adv-x="2027" 
d="M424 0h-162v1597h242l1050 -1364h52v1364h159v-1597h-237l-1049 1350h-55v-1350z" />
    <glyph glyph-name="O.ss01" horiz-adv-x="2185" 
d="M1092 -35q-194 0 -370.5 63t-306.5 172t-207 264.5t-77 332.5q0 235 130 427t350 299t483 107q199 0 377.5 -65t306 -176t202 -265.5t74.5 -326.5q0 -174 -75.5 -329t-204.5 -265t-306.5 -174t-375.5 -64zM1096 102q156 0 299.5 53t250.5 144t170.5 221t63.5 277
t-63.5 277.5t-170 221.5t-250 144t-300.5 53q-211 0 -392.5 -89t-291 -250t-109.5 -357q0 -148 64.5 -278t172.5 -221t253.5 -143.5t302.5 -52.5z" />
    <glyph glyph-name="P.ss01" horiz-adv-x="1640" 
d="M262 1597h668q183 0 323 -54t221.5 -162t81.5 -257q0 -118 -48 -213t-130 -154.5t-186 -90.5t-221 -31h-547v-635h-162v1597zM424 772h496q220 0 344.5 89t124.5 255q0 165 -133.5 256.5t-354.5 91.5h-477v-692z" />
    <glyph glyph-name="Q.ss01" horiz-adv-x="2199" 
d="M629 -246v-4h1245v-127h-1563l412 404q-267 88 -425.5 291t-158.5 479q0 245 125.5 435.5t344.5 294t493 103.5q207 0 386 -62.5t305 -172t197.5 -264.5t71.5 -334q0 -181 -72.5 -335.5t-200 -263t-305.5 -170t-384 -61.5q-117 0 -228 21q-120 -117 -243 -234zM305 797
q0 -243 146.5 -417.5t386.5 -242.5l444 436l115 -84q-58 -56 -124.5 -119.5t-147.5 -140.5t-126 -120q61 -7 105 -7q221 0 400.5 85t285.5 245t106 365t-106 365.5t-285.5 246.5t-400.5 86q-166 0 -312 -50.5t-254 -140t-170.5 -221t-62.5 -286.5z" />
    <glyph glyph-name="R.ss01" horiz-adv-x="1695" 
d="M657 637l959 -637h-219l-961 637h-12v-637h-162v1597h668q183 0 323 -54t221.5 -162t81.5 -257q0 -95 -31.5 -175.5t-86.5 -137t-129.5 -96.5t-159.5 -59t-178 -19h-314zM901 1470h-477v-702h496q226 0 347.5 93t121.5 257q0 163 -131.5 257.5t-356.5 94.5z" />
    <glyph glyph-name="S.ss01" horiz-adv-x="1583" 
d="M815 -35q-109 0 -213.5 25t-204 77.5t-178 146.5t-119.5 220l148 49q60 -186 214.5 -284.5t356.5 -98.5q85 0 166 18.5t151 54t113 98t43 141.5q0 41 -14 76t-28.5 59t-53 48t-57.5 35.5t-75.5 29.5t-72 22t-79.5 20q-24 6 -35 9l-181 47q-51 13 -86.5 23.5t-95 32.5
t-102 44.5t-92 58.5t-80 75.5t-51.5 94.5t-21 117q0 103 53.5 186t142.5 134.5t197.5 78.5t224.5 27q225 0 396.5 -100.5t234.5 -282.5l-143 -53q-55 139 -188 220t-318 81q-119 0 -217 -34t-157.5 -98.5t-59.5 -148.5q0 -43 18 -82.5t42 -67t67 -54.5t72.5 -41.5t81 -32
t70.5 -23t60 -16.5l187 -51q184 -48 250 -74q219 -85 267 -238q15 -47 15 -102q0 -138 -91 -246t-238 -164.5t-320 -56.5z" />
    <glyph glyph-name="U.ss01" horiz-adv-x="1873" 
d="M911 -35q-316 0 -493.5 166.5t-177.5 448.5v1017h159v-1009q0 -239 138.5 -363.5t384.5 -124.5t387 125.5t141 362.5v1009h160v-1597h-158v201h-2q-82 -123 -214 -179.5t-325 -56.5z" />
    <glyph glyph-name="Uacute.ss01" horiz-adv-x="1873" 
d="M1210 2044l-407 -324h-139l315 324h231zM911 -35q-316 0 -493.5 166.5t-177.5 448.5v1017h159v-1009q0 -239 138.5 -363.5t384.5 -124.5t387 125.5t141 362.5v1009h160v-1597h-158v201h-2q-82 -123 -214 -179.5t-325 -56.5z" />
    <glyph glyph-name="Ucircumflex.ss01" horiz-adv-x="1873" 
d="M1014 2028l319 -308h-141q-175 133 -277 217q-72 -60 -278 -217h-139l319 308h197zM911 -35q-316 0 -493.5 166.5t-177.5 448.5v1017h159v-1009q0 -239 138.5 -363.5t384.5 -124.5t387 125.5t141 362.5v1009h160v-1597h-158v201h-2q-82 -123 -214 -179.5t-325 -56.5z" />
    <glyph glyph-name="Udieresis.ss01" horiz-adv-x="1873" 
d="M680 1784q-51 0 -87 32.5t-36 79.5q0 43 36 75t87 32q52 0 88.5 -32t36.5 -75q0 -47 -36 -79.5t-89 -32.5zM1151 1784q-54 0 -89.5 32t-35.5 80q0 44 36 75.5t89 31.5q49 0 85 -32t36 -75q0 -47 -35.5 -79.5t-85.5 -32.5zM911 -35q-316 0 -493.5 166.5t-177.5 448.5v1017
h159v-1009q0 -239 138.5 -363.5t384.5 -124.5t387 125.5t141 362.5v1009h160v-1597h-158v201h-2q-82 -123 -214 -179.5t-325 -56.5z" />
    <glyph glyph-name="Ugrave.ss01" horiz-adv-x="1873" 
d="M1020 1720h-139l-408 324h232zM911 -35q-316 0 -493.5 166.5t-177.5 448.5v1017h159v-1009q0 -239 138.5 -363.5t384.5 -124.5t387 125.5t141 362.5v1009h160v-1597h-158v201h-2q-82 -123 -214 -179.5t-325 -56.5z" />
    <glyph glyph-name="Uhungarumlaut.ss01" horiz-adv-x="1873" 
d="M1090 2044l-332 -324h-137l256 324h213zM1466 2044l-354 -324h-137l276 324h215zM911 -35q-316 0 -493.5 166.5t-177.5 448.5v1017h159v-1009q0 -239 138.5 -363.5t384.5 -124.5t387 125.5t141 362.5v1009h160v-1597h-158v201h-2q-82 -123 -214 -179.5t-325 -56.5z" />
    <glyph glyph-name="Umacron.ss01" horiz-adv-x="1873" 
d="M1317 1829h-799v117h799v-117zM911 -35q-316 0 -493.5 166.5t-177.5 448.5v1017h159v-1009q0 -239 138.5 -363.5t384.5 -124.5t387 125.5t141 362.5v1009h160v-1597h-158v201h-2q-82 -123 -214 -179.5t-325 -56.5z" />
    <glyph glyph-name="Uogonek.ss01" horiz-adv-x="1873" 
d="M1606 -365q45 0 104 15v-99q-66 -14 -117 -14q-139 0 -231 62.5t-92 171.5q0 136 190 229h-8v201h-2q-82 -123 -214 -179.5t-325 -56.5q-316 0 -493.5 166.5t-177.5 448.5v1017h159v-1009q0 -239 138.5 -363.5t384.5 -124.5t387 125.5t141 362.5v1009h160v-1597h-11
q-102 -41 -156 -95t-54 -114q0 -68 62 -112t155 -44z" />
    <glyph glyph-name="Uring.ss01" horiz-adv-x="1873" 
d="M918 1714q-117 0 -194 63t-77 158q0 94 77 156.5t194 62.5q113 0 189.5 -62t76.5 -157q0 -96 -76.5 -158.5t-189.5 -62.5zM918 1810q66 0 110.5 34t44.5 91q0 54 -44.5 87.5t-110.5 33.5q-70 0 -116 -33t-46 -88q0 -57 45.5 -91t116.5 -34zM911 -35q-316 0 -493.5 166.5
t-177.5 448.5v1017h159v-1009q0 -239 138.5 -363.5t384.5 -124.5t387 125.5t141 362.5v1009h160v-1597h-158v201h-2q-82 -123 -214 -179.5t-325 -56.5z" />
    <glyph glyph-name="V.ss01" horiz-adv-x="1814" 
d="M1040 0h-266l-735 1597h170q88 -192 212 -460.5t441 -960.5h99q127 277 360.5 793t284.5 628h170z" />
    <glyph glyph-name="W.ss01" horiz-adv-x="2789" 
d="M868 0h-196l-625 1597h170l551 -1402h4l481 1402h303l465 -1402h7l544 1402h170l-622 -1597h-197l-467 1436h-102z" />
    <glyph glyph-name="Wacute.ss01" horiz-adv-x="2789" 
d="M1847 2044l-409 -324h-140l316 324h233zM868 0h-196l-625 1597h170l551 -1402h4l481 1402h303l465 -1402h7l544 1402h170l-622 -1597h-197l-467 1436h-102z" />
    <glyph glyph-name="Wcircumflex.ss01" horiz-adv-x="2789" 
d="M1493 2028l319 -308h-141q-162 123 -276 217q-62 -52 -279 -217h-139l319 308h197zM868 0h-196l-625 1597h170l551 -1402h4l481 1402h303l465 -1402h7l544 1402h170l-622 -1597h-197l-467 1436h-102z" />
    <glyph glyph-name="Wdieresis.ss01" horiz-adv-x="2789" 
d="M1159 1784q-51 0 -87 32.5t-36 79.5q0 43 36 75t87 32q52 0 88.5 -32t36.5 -75q0 -47 -36 -79.5t-89 -32.5zM1630 1784q-54 0 -89.5 32t-35.5 80q0 44 36 75.5t89 31.5q49 0 85 -32t36 -75q0 -47 -35.5 -79.5t-85.5 -32.5zM868 0h-196l-625 1597h170l551 -1402h4
l481 1402h303l465 -1402h7l544 1402h170l-622 -1597h-197l-467 1436h-102z" />
    <glyph glyph-name="Wgrave.ss01" horiz-adv-x="2789" 
d="M1499 1720h-139l-408 324h232zM868 0h-196l-625 1597h170l551 -1402h4l481 1402h303l465 -1402h7l544 1402h170l-622 -1597h-197l-467 1436h-102z" />
    <glyph glyph-name="X.ss01" horiz-adv-x="1687" 
d="M213 0h-178l653 811v20l-637 766h178q319 -386 568 -698h96q65 78 208.5 257.5t358.5 440.5h176l-632 -766v-20l649 -811h-174q-315 397 -586 741h-96q-384 -488 -584 -741z" />
    <glyph glyph-name="Y.ss01" horiz-adv-x="1667" 
d="M526 0h-164l422 590l-718 1007h176l622 -866h4l629 866h172z" />
    <glyph glyph-name="Yacute.ss01" horiz-adv-x="1667" 
d="M1296 2044l-407 -324h-139l313 324h233zM526 0h-164l422 590l-718 1007h176l622 -866h4l629 866h172z" />
    <glyph glyph-name="Ycircumflex.ss01" horiz-adv-x="1667" 
d="M965 2028l319 -308h-141q-175 133 -277 217q-72 -60 -278 -217h-139l319 308h197zM526 0h-164l422 590l-718 1007h176l622 -866h4l629 866h172z" />
    <glyph glyph-name="Ydieresis.ss01" horiz-adv-x="1667" 
d="M631 1784q-51 0 -87 32.5t-36 79.5q0 43 36 75t87 32q52 0 88.5 -32t36.5 -75q0 -47 -36 -79.5t-89 -32.5zM1102 1784q-54 0 -89.5 32t-35.5 80q0 44 36 75.5t89 31.5q49 0 85 -32t36 -75q0 -47 -35.5 -79.5t-85.5 -32.5zM526 0h-164l422 590l-718 1007h176l622 -866h4
l629 866h172z" />
    <glyph glyph-name="Ygrave.ss01" horiz-adv-x="1667" 
d="M971 1720h-140l-407 324h231zM526 0h-164l422 590l-718 1007h176l622 -866h4l629 866h172z" />
    <glyph glyph-name="Z.ss01" horiz-adv-x="1667" 
d="M1569 0h-1565l1339 1464h-1189v133h1482l-1333 -1458h1266v-139z" />
    <glyph glyph-name="Zacute.ss01" horiz-adv-x="1667" 
d="M1276 2044l-410 -324h-139l315 324h234zM1569 0h-1565l1339 1464h-1189v133h1482l-1333 -1458h1266v-139z" />
    <glyph glyph-name="Zcaron.ss01" horiz-adv-x="1667" 
d="M1100 2028h141l-319 -308h-199l-317 308h139q159 -121 278 -220q147 121 277 220zM1569 0h-1565l1339 1464h-1189v133h1482l-1333 -1458h1266v-139z" />
    <glyph glyph-name="Zdotaccent.ss01" horiz-adv-x="1667" 
d="M827 1786q-55 0 -93 33.5t-38 83.5q0 46 38 79t93 33q54 0 91.5 -33t37.5 -79q0 -49 -37.5 -83t-91.5 -34zM1569 0h-1565l1339 1464h-1189v133h1482l-1333 -1458h1266v-139z" />
    <glyph glyph-name="Q.ss02" horiz-adv-x="2185" 
d="M1180 -31v-217h665v-129h-821v344q-184 11 -348 78t-284 174.5t-190.5 258t-70.5 319.5q0 235 130 427t350 299t483 107q199 0 377.5 -65t306 -176t202 -265.5t74.5 -326.5q0 -219 -115 -402.5t-314.5 -295.5t-444.5 -130zM303 797q0 -140 57.5 -264.5t155.5 -214
t229.5 -146t278.5 -68.5v482h156v-480q191 17 350.5 109.5t254.5 245.5t95 336q0 147 -63.5 277.5t-170 221.5t-250 144t-300.5 53q-211 0 -392.5 -89t-291 -250t-109.5 -357z" />
    <glyph glyph-name="A.ss07" 
d="M1225 -315q-237 0 -446.5 71t-359 193.5t-236.5 294t-87 364.5q0 198 87 372.5t236.5 298.5t359 195.5t446.5 71.5q239 0 449 -71.5t360 -195.5t236.5 -298.5t86.5 -372.5q0 -156 -55 -298t-157.5 -255t-241 -196.5t-313 -128.5t-365.5 -45zM1169 1096l-469 -963h121
q30 58 89 179t75 153h483q98 -193 166 -332h121l-469 963h-117zM1427 559h-401q158 323 201 408q78 -172 200 -408z" />
    <glyph glyph-name="B.ss07" horiz-adv-x="2459" 
d="M1225 -315q-237 0 -446.5 71t-359 193.5t-236.5 294t-87 364.5q0 198 87 372.5t236.5 298.5t359 195.5t446.5 71.5q239 0 449 -71.5t360 -195.5t236.5 -298.5t86.5 -372.5q0 -156 -55 -298t-157.5 -255t-241 -196.5t-313 -128.5t-365.5 -45zM858 1096v-963h465
q148 0 252 72t104 190q0 84 -58 145.5t-157 84.5q81 25 131 84t50 133q0 112 -105 183t-270 71h-412zM973 664v335h276q122 0 197.5 -47t75.5 -123q0 -77 -71.5 -121t-190.5 -44h-287zM1294 229h-321v342h309q123 0 200 -49t77 -127q0 -75 -72.5 -120.5t-192.5 -45.5z" />
    <glyph glyph-name="C.ss07" 
d="M1227 -315q-237 0 -446.5 71t-359 193.5t-236.5 294t-87 364.5q0 198 87 372.5t236.5 298.5t359 195.5t446.5 71.5q239 0 449 -71.5t360 -195.5t236.5 -298.5t86.5 -372.5q0 -156 -55 -298t-157.5 -255t-241 -196.5t-313 -128.5t-365.5 -45zM1266 113q201 0 346 92.5
t203 259.5l-105 33q-37 -123 -149 -205t-285 -82q-73 0 -141 15t-128.5 47.5t-105.5 78.5t-71.5 112.5t-26.5 145.5q0 179 130 293.5t329 114.5q140 0 248.5 -62.5t154.5 -167.5l104 37q-35 95 -117.5 162.5t-183.5 98t-211 30.5q-161 0 -292 -63.5t-207 -179t-76 -261.5
q0 -221 163.5 -360t420.5 -139z" />
    <glyph glyph-name="D.ss07" 
d="M1225 -315q-237 0 -446.5 71t-359 193.5t-236.5 294t-87 364.5q0 198 87 372.5t236.5 298.5t359 195.5t446.5 71.5q239 0 449 -71.5t360 -195.5t236.5 -298.5t86.5 -372.5q0 -156 -55 -298t-157.5 -255t-241 -196.5t-313 -128.5t-365.5 -45zM813 1096v-963h422
q244 0 390.5 133t146.5 355q0 223 -147 349t-404 126h-408zM1243 229h-313v770h268q210 0 331.5 -97.5t121.5 -287.5q0 -179 -110 -282t-298 -103z" />
    <glyph glyph-name="E.ss07" 
d="M1225 -315q-237 0 -446.5 71t-359 193.5t-236.5 294t-87 364.5q0 198 87 372.5t236.5 298.5t359 195.5t446.5 71.5q239 0 449 -71.5t360 -195.5t236.5 -298.5t86.5 -372.5q0 -156 -55 -298t-157.5 -255t-241 -196.5t-313 -128.5t-365.5 -45zM885 1096v-963h745v98h-631
v349h588v96h-588v323h619v97h-733z" />
    <glyph glyph-name="F.ss07" horiz-adv-x="2459" 
d="M1225 -315q-237 0 -446.5 71t-359 193.5t-236.5 294t-87 364.5q0 198 87 372.5t236.5 298.5t359 195.5t446.5 71.5q239 0 449 -71.5t360 -195.5t236.5 -298.5t86.5 -372.5q0 -156 -55 -298t-157.5 -255t-241 -196.5t-313 -128.5t-365.5 -45zM907 1096v-963h117v436h573
v97h-573v331h604v99h-721z" />
    <glyph glyph-name="G.ss07" 
d="M1227 -315q-237 0 -446.5 71t-359 193.5t-236.5 294t-87 364.5q0 198 87 372.5t236.5 298.5t359 195.5t446.5 71.5q239 0 449 -71.5t360 -195.5t236.5 -298.5t86.5 -372.5q0 -156 -55 -298t-157.5 -255t-241 -196.5t-313 -128.5t-365.5 -45zM1255 113q156 0 271.5 57.5
t175.5 163.5l2 -201h98v479h-516v-92h402q-17 -140 -132.5 -224.5t-285.5 -84.5q-71 0 -137.5 15t-126.5 47t-105 78t-71.5 112.5t-26.5 146.5q0 179 130 293.5t329 114.5q139 0 247.5 -61.5t155.5 -168.5l104 37q-35 94 -116.5 161.5t-182.5 98.5t-213 31q-162 0 -293 -64
t-206.5 -180t-75.5 -262q0 -218 161 -357.5t412 -139.5z" />
    <glyph glyph-name="H.ss07" 
d="M1225 -315q-237 0 -446.5 71t-359 193.5t-236.5 294t-87 364.5q0 198 87 372.5t236.5 298.5t359 195.5t446.5 71.5q239 0 449 -71.5t360 -195.5t236.5 -298.5t86.5 -372.5q0 -156 -55 -298t-157.5 -255t-241 -196.5t-313 -128.5t-365.5 -45zM786 1096v-963h115v436h655
v-436h115v963h-115v-428h-655v428h-115z" />
    <glyph glyph-name="I.ss07" 
d="M1225 -315q-237 0 -446.5 71t-359 193.5t-236.5 294t-87 364.5q0 198 87 372.5t236.5 298.5t359 195.5t446.5 71.5q239 0 449 -71.5t360 -195.5t236.5 -298.5t86.5 -372.5q0 -156 -55 -298t-157.5 -255t-241 -196.5t-313 -128.5t-365.5 -45zM1171 1096v-963h115v963h-115
z" />
    <glyph glyph-name="J.ss07" 
d="M1225 -315q-237 0 -446.5 71t-359 193.5t-236.5 294t-87 364.5q0 198 87 372.5t236.5 298.5t359 195.5t446.5 71.5q239 0 449 -71.5t360 -195.5t236.5 -298.5t86.5 -372.5q0 -156 -55 -298t-157.5 -255t-241 -196.5t-313 -128.5t-365.5 -45zM1186 123q53 0 97 10
t75.5 25.5t56.5 41t40.5 48t27 56.5t17 57t8 58t3 51t0.5 44v592h-112v-614q0 -28 -0.5 -46.5t-5 -50t-12.5 -53t-24 -46.5t-38 -40.5t-56.5 -26t-78.5 -10.5q-47 0 -88 11.5t-78.5 36.5t-59.5 73t-22 113v30l-109 -12v-35q0 -83 31.5 -146t84.5 -98t114 -52t129 -17z" />
    <glyph glyph-name="K.ss07" 
d="M1225 -315q-237 0 -446.5 71t-359 193.5t-236.5 294t-87 364.5q0 198 87 372.5t236.5 298.5t359 195.5t446.5 71.5q239 0 449 -71.5t360 -195.5t236.5 -298.5t86.5 -372.5q0 -156 -55 -298t-157.5 -255t-241 -196.5t-313 -128.5t-365.5 -45zM868 1096v-963h113v332
q20 17 70.5 61.5t78.5 67.5q27 -29 192.5 -199.5t250.5 -261.5h141q-39 42 -207 221t-295 320q55 48 151.5 134t175.5 156t151 132h-144q-198 -169 -565 -496v496h-113z" />
    <glyph glyph-name="L.ss07" 
d="M1225 -315q-237 0 -446.5 71t-359 193.5t-236.5 294t-87 364.5q0 198 87 372.5t236.5 298.5t359 195.5t446.5 71.5q239 0 449 -71.5t360 -195.5t236.5 -298.5t86.5 -372.5q0 -156 -55 -298t-157.5 -255t-241 -196.5t-313 -128.5t-365.5 -45zM975 1096v-963h702v98h-587
v865h-115z" />
    <glyph glyph-name="M.ss07" horiz-adv-x="2459" 
d="M1225 -315q-237 0 -446.5 71t-359 193.5t-236.5 294t-87 364.5q0 198 87 372.5t236.5 298.5t359 195.5t446.5 71.5q239 0 449 -71.5t360 -195.5t236.5 -298.5t86.5 -372.5q0 -156 -55 -298t-157.5 -255t-241 -196.5t-313 -128.5t-365.5 -45zM643 1096v-963h115v754
q75 -138 420 -754h102q54 97 135.5 242t149.5 267.5t135 246.5v-756h117v963h-131q-94 -175 -457 -820q-212 388 -457 820h-129z" />
    <glyph glyph-name="N.ss07" 
d="M1225 -315q-237 0 -446.5 71t-359 193.5t-236.5 294t-87 364.5q0 198 87 372.5t236.5 298.5t359 195.5t446.5 71.5q239 0 449 -71.5t360 -195.5t236.5 -298.5t86.5 -372.5q0 -156 -55 -298t-157.5 -255t-241 -196.5t-313 -128.5t-365.5 -45zM788 1096v-963h115v785
q122 -146 350.5 -408.5t325.5 -376.5h119v963h-113v-793q-243 290 -678 793h-119z" />
    <glyph glyph-name="O.ss07" 
d="M1225 -315q-237 0 -446.5 71t-359 193.5t-236.5 294t-87 364.5q0 198 87 372.5t236.5 298.5t359 195.5t446.5 71.5q239 0 449 -71.5t360 -195.5t236.5 -298.5t86.5 -372.5q0 -156 -55 -298t-157.5 -255t-241 -196.5t-313 -128.5t-365.5 -45zM1229 113q161 0 294 65.5
t210 181t77 254.5t-76.5 254.5t-209.5 181.5t-293 66q-162 0 -295 -66t-209 -181.5t-76 -254.5q0 -140 76 -255t208.5 -180.5t293.5 -65.5zM772 614q0 169 133.5 286.5t325.5 117.5q189 0 323 -118t134 -286t-133.5 -285.5t-323.5 -117.5q-125 0 -230.5 53t-167 146
t-61.5 204z" />
    <glyph glyph-name="P.ss07" 
d="M1225 -315q-237 0 -446.5 71t-359 193.5t-236.5 294t-87 364.5q0 198 87 372.5t236.5 298.5t359 195.5t446.5 71.5q239 0 449 -71.5t360 -195.5t236.5 -298.5t86.5 -372.5q0 -156 -55 -298t-157.5 -255t-241 -196.5t-313 -128.5t-365.5 -45zM887 1096v-963h114v377h316
q70 0 133.5 19t113.5 54.5t79.5 93.5t29.5 130q0 141 -108.5 215t-270.5 74h-407zM1286 606h-285v393h275q125 0 200.5 -50.5t75.5 -143.5q0 -98 -70 -148.5t-196 -50.5z" />
    <glyph glyph-name="Q.ss07" 
d="M1225 -315q-237 0 -446.5 71t-359 193.5t-236.5 294t-87 364.5q0 198 87 372.5t236.5 298.5t359 195.5t446.5 71.5q239 0 449 -71.5t360 -195.5t236.5 -298.5t86.5 -372.5q0 -156 -55 -298t-157.5 -255t-241 -196.5t-313 -128.5t-365.5 -45zM1683 63l82 64l-157 154
q95 70 146.5 170t51.5 211q0 104 -45 196.5t-122 159.5t-184.5 106t-227.5 39q-163 0 -297 -66t-210.5 -181t-76.5 -254q0 -213 168 -357.5t414 -144.5q162 0 295 65q13 -13 72.5 -71.5t90.5 -90.5zM764 662q0 170 134 286.5t329 116.5q192 0 325.5 -116.5t133.5 -286.5
q0 -180 -154 -302q-26 24 -97.5 95t-127.5 123l-80 -62l215 -209q-104 -51 -215 -51q-194 0 -328.5 117.5t-134.5 288.5z" />
    <glyph glyph-name="R.ss07" 
d="M1225 -315q-237 0 -446.5 71t-359 193.5t-236.5 294t-87 364.5q0 198 87 372.5t236.5 298.5t359 195.5t446.5 71.5q239 0 449 -71.5t360 -195.5t236.5 -298.5t86.5 -372.5q0 -156 -55 -298t-157.5 -255t-241 -196.5t-313 -128.5t-365.5 -45zM893 1096v-963h115v377h256
l305 -377h129q-48 63 -155.5 194.5t-151.5 188.5q133 17 210.5 95t77.5 196q0 141 -108.5 215t-270.5 74h-407zM1292 604h-284v397h274q124 0 200.5 -52.5t76.5 -145.5q0 -98 -71.5 -148.5t-195.5 -50.5z" />
    <glyph glyph-name="S.ss07" 
d="M1225 -315q-237 0 -446.5 71t-359 193.5t-236.5 294t-87 364.5q0 198 87 372.5t236.5 298.5t359 195.5t446.5 71.5q239 0 449 -71.5t360 -195.5t236.5 -298.5t86.5 -372.5q0 -156 -55 -298t-157.5 -255t-241 -196.5t-313 -128.5t-365.5 -45zM1249 113q168 0 282 81
t114 205q0 49 -20 88t-51 63.5t-72.5 43.5t-81.5 31t-81 22q-6 1 -10 2l-8 2l-111 31q-27 7 -42.5 11.5t-48.5 16t-53.5 24.5t-44 31t-35 43t-11.5 54q0 69 69 112.5t177 43.5q106 0 184.5 -48t107.5 -132l103 39q-34 109 -137 174t-250 65q-69 0 -135 -17t-120 -48.5
t-87 -82.5t-33 -114q0 -191 322 -272l106 -27q7 -2 32 -8t34 -8.5t31.5 -9t32.5 -11t28.5 -13t27 -16t20.5 -19t17.5 -24t10 -28t4.5 -33.5q0 -85 -81.5 -129.5t-189.5 -44.5q-122 0 -210.5 60t-120.5 167l-105 -35q24 -78 71.5 -136.5t109 -90.5t125 -47.5t130.5 -15.5z
" />
    <glyph glyph-name="T.ss07" 
d="M1225 -315q-237 0 -446.5 71t-359 193.5t-236.5 294t-87 364.5q0 198 87 372.5t236.5 298.5t359 195.5t446.5 71.5q239 0 449 -71.5t360 -195.5t236.5 -298.5t86.5 -372.5q0 -156 -55 -298t-157.5 -255t-241 -196.5t-313 -128.5t-365.5 -45zM1171 999v-866h115v866h389
v97h-897v-97h393z" />
    <glyph glyph-name="U.ss07" 
d="M1225 -315q-237 0 -446.5 71t-359 193.5t-236.5 294t-87 364.5q0 198 87 372.5t236.5 298.5t359 195.5t446.5 71.5q239 0 449 -71.5t360 -195.5t236.5 -298.5t86.5 -372.5q0 -156 -55 -298t-157.5 -255t-241 -196.5t-313 -128.5t-365.5 -45zM1225 123q205 0 312.5 102.5
t107.5 270.5v610h-117v-606q0 -281 -299 -281q-303 0 -303 281v606h-113v-610q0 -170 103.5 -271.5t308.5 -101.5z" />
    <glyph glyph-name="V.ss07" 
d="M1225 -315q-237 0 -446.5 71t-359 193.5t-236.5 294t-87 364.5q0 198 87 372.5t236.5 298.5t359 195.5t446.5 71.5q239 0 449 -71.5t360 -195.5t236.5 -298.5t86.5 -372.5q0 -156 -55 -298t-157.5 -255t-241 -196.5t-313 -128.5t-365.5 -45zM702 1096l472 -963h116
l469 963h-121q-55 -109 -122 -249t-152 -318t-129 -269q-23 48 -83 173t-89.5 186t-77 157.5t-86 172.5t-76.5 147h-121z" />
    <glyph glyph-name="W.ss07" 
d="M1225 -315q-237 0 -446.5 71t-359 193.5t-236.5 294t-87 364.5q0 198 87 372.5t236.5 298.5t359 195.5t446.5 71.5q239 0 449 -71.5t360 -195.5t236.5 -298.5t86.5 -372.5q0 -156 -55 -298t-157.5 -255t-241 -196.5t-313 -128.5t-365.5 -45zM416 1096l377 -963h127
q147 359 309 807q160 -441 311 -807h125l377 963h-121q-143 -354 -317 -815q-28 72 -141 364t-173 451h-123q-302 -797 -309 -815q-104 280 -319 815h-123z" />
    <glyph glyph-name="X.ss07" 
d="M1225 -315q-237 0 -446.5 71t-359 193.5t-236.5 294t-87 364.5q0 198 87 372.5t236.5 298.5t359 195.5t446.5 71.5q239 0 449 -71.5t360 -195.5t236.5 -298.5t86.5 -372.5q0 -156 -55 -298t-157.5 -255t-241 -196.5t-313 -128.5t-365.5 -45zM760 133h133q12 14 338 412
q45 -54 158.5 -195t177.5 -217h133q-61 73 -195.5 239t-208.5 253q162 196 394 471h-134q-83 -96 -327 -387q-52 61 -161.5 190.5t-166.5 196.5h-133l395 -469q-75 -90 -211.5 -258.5t-191.5 -235.5z" />
    <glyph glyph-name="Y.ss07" 
d="M1225 -315q-237 0 -446.5 71t-359 193.5t-236.5 294t-87 364.5q0 198 87 372.5t236.5 298.5t359 195.5t446.5 71.5q239 0 449 -71.5t360 -195.5t236.5 -298.5t86.5 -372.5q0 -156 -55 -298t-157.5 -255t-241 -196.5t-313 -128.5t-365.5 -45zM1169 485v-352h117v352
q53 75 156.5 221.5t183 258t92.5 131.5h-125q-253 -350 -364 -510q-64 91 -188 263t-177 247h-127q247 -346 432 -611z" />
    <glyph glyph-name="Z.ss07" 
d="M1225 -315q-237 0 -446.5 71t-359 193.5t-236.5 294t-87 364.5q0 198 87 372.5t236.5 298.5t359 195.5t446.5 71.5q239 0 449 -71.5t360 -195.5t236.5 -298.5t86.5 -372.5q0 -156 -55 -298t-157.5 -255t-241 -196.5t-313 -128.5t-365.5 -45zM803 229v-96h887v98h-746
q117 124 365.5 384t367.5 386v95h-843v-97q233 2 698 2z" />
    <glyph glyph-name="A.ss08" 
d="M1225 1546q239 0 449 -71.5t360 -195.5t236.5 -298.5t86.5 -372.5q0 -156 -55 -298t-157.5 -255t-241 -196.5t-313 -128.5t-365.5 -45q-237 0 -446.5 71t-359 193.5t-236.5 294t-87 364.5q0 198 87 372.5t236.5 298.5t359 195.5t446.5 71.5zM1225 -225q216 0 407 64
t327 174.5t215 265.5t79 331q0 178 -79 335.5t-215 269.5t-327 176.5t-407 64.5q-287 0 -521.5 -110t-368.5 -304t-134 -432q0 -175 78.5 -330t214.5 -266t326 -175t405 -64zM854 276l334 676h84l334 -676h-90q-17 36 -56.5 113.5t-60.5 120.5h-340q-79 -166 -117 -234h-88z
M1092 580h274q-98 191 -137 278q-9 -19 -36 -72t-53 -106.5t-48 -99.5z" />
    <glyph glyph-name="B.ss08" 
d="M1225 1546q239 0 449 -71.5t360 -195.5t236.5 -298.5t86.5 -372.5q0 -156 -55 -298t-157.5 -255t-241 -196.5t-313 -128.5t-365.5 -45q-237 0 -446.5 71t-359 193.5t-236.5 294t-87 364.5q0 198 87 372.5t236.5 298.5t359 195.5t446.5 71.5zM1225 -225q216 0 407 64
t327 174.5t215 265.5t79 331q0 178 -79 335.5t-215 269.5t-327 176.5t-407 64.5q-287 0 -521.5 -110t-368.5 -304t-134 -432q0 -175 78.5 -330t214.5 -266t326 -175t405 -64zM1397 621q69 -17 109 -59.5t40 -98.5q0 -84 -73 -135.5t-179 -51.5h-329v676h288q117 0 192 -50.5
t75 -129.5q0 -50 -32.5 -90.5t-90.5 -60.5zM1049 883v-234h200q83 0 134 32t51 85q0 52 -54 84.5t-139 32.5h-192zM1274 346q81 0 132.5 31t51.5 84q0 55 -53.5 89t-138.5 34h-217v-238h225z" />
    <glyph glyph-name="C.ss08" 
d="M1225 -315q-237 0 -446.5 71t-359 193.5t-236.5 294t-87 364.5q0 198 87 372.5t236.5 298.5t359 195.5t446.5 71.5q239 0 449 -71.5t360 -195.5t236.5 -298.5t86.5 -372.5q0 -156 -55 -298t-157.5 -255t-241 -196.5t-313 -128.5t-365.5 -45zM1225 -225q216 0 407 64
t327 174.5t215 265.5t79 331q0 178 -79 335.5t-215 269.5t-327 176.5t-407 64.5q-287 0 -521.5 -110t-368.5 -304t-134 -432q0 -175 78.5 -330t214.5 -266t326 -175t405 -64zM1255 262q-182 0 -298.5 97.5t-116.5 252.5t117.5 255t289.5 100q133 0 232 -55.5t133 -149.5
l-74 -29q-35 76 -113 119t-174 43q-140 0 -230.5 -80t-90.5 -205q0 -68 28 -122.5t75 -87.5t105 -50.5t122 -17.5q115 0 197 55t110 150l75 -25q-40 -118 -142.5 -184t-244.5 -66z" />
    <glyph glyph-name="D.ss08" horiz-adv-x="2459" 
d="M1225 -315q-237 0 -446.5 71t-359 193.5t-236.5 294t-87 364.5q0 198 87 372.5t236.5 298.5t359 195.5t446.5 71.5q239 0 449 -71.5t360 -195.5t236.5 -298.5t86.5 -372.5q0 -156 -55 -298t-157.5 -255t-241 -196.5t-313 -128.5t-365.5 -45zM1225 -225q216 0 407 64
t327 174.5t215 265.5t79 331q0 178 -79 335.5t-215 269.5t-327 176.5t-407 64.5q-287 0 -521.5 -110t-368.5 -304t-134 -432q0 -175 78.5 -330t214.5 -266t326 -175t405 -64zM1235 276h-299v676h289q182 0 285.5 -88.5t103.5 -245.5q0 -155 -104.5 -248.5t-274.5 -93.5z
M1020 346h221q132 0 209.5 71.5t77.5 196.5q0 133 -85.5 201t-232.5 68h-190v-537z" />
    <glyph glyph-name="E.ss08" 
d="M1225 -315q-237 0 -446.5 71t-359 193.5t-236.5 294t-87 364.5q0 198 87 372.5t236.5 298.5t359 195.5t446.5 71.5q239 0 449 -71.5t360 -195.5t236.5 -298.5t86.5 -372.5q0 -156 -55 -298t-157.5 -255t-241 -196.5t-313 -128.5t-365.5 -45zM1225 -225q216 0 407 64
t327 174.5t215 265.5t79 331q0 178 -79 335.5t-215 269.5t-327 176.5t-407 64.5q-287 0 -521.5 -110t-368.5 -304t-134 -432q0 -175 78.5 -330t214.5 -266t326 -175t405 -64zM1513 276h-530v676h522v-69h-436v-224h416v-69h-416v-242h444v-72z" />
    <glyph glyph-name="F.ss08" 
d="M1225 -315q-237 0 -446.5 71t-359 193.5t-236.5 294t-87 364.5q0 198 87 372.5t236.5 298.5t359 195.5t446.5 71.5q239 0 449 -71.5t360 -195.5t236.5 -298.5t86.5 -372.5q0 -156 -55 -298t-157.5 -255t-241 -196.5t-313 -128.5t-365.5 -45zM1225 -225q216 0 407 64
t327 174.5t215 265.5t79 331q0 178 -79 335.5t-215 269.5t-327 176.5t-407 64.5q-287 0 -521.5 -110t-368.5 -304t-134 -432q0 -175 78.5 -330t214.5 -266t326 -175t405 -64zM1085 276h-86v676h512v-69h-426v-232h406v-67h-406v-308z" />
    <glyph glyph-name="G.ss08" 
d="M1225 1546q239 0 449 -71.5t360 -195.5t236.5 -298.5t86.5 -372.5q0 -156 -55 -298t-157.5 -255t-241 -196.5t-313 -128.5t-365.5 -45q-237 0 -446.5 71t-359 193.5t-236.5 294t-87 364.5q0 198 87 372.5t236.5 298.5t359 195.5t446.5 71.5zM1225 -225q216 0 407 64
t327 174.5t215 265.5t79 331q0 178 -79 335.5t-215 269.5t-327 176.5t-407 64.5q-287 0 -521.5 -110t-368.5 -304t-134 -432q0 -175 78.5 -330t214.5 -266t326 -175t405 -64zM1266 549v65h370v-338h-75q0 23 1 69.5t1 66.5q-43 -72 -124 -111t-192 -39q-178 0 -292.5 98
t-114.5 250q0 154 116.5 255.5t290.5 101.5q133 0 232 -55.5t133 -149.5l-74 -29q-35 76 -113 119t-174 43q-140 0 -230.5 -80t-90.5 -205q0 -91 48.5 -155.5t120.5 -93.5t158 -29q121 0 201 60t92 157h-284z" />
    <glyph glyph-name="H.ss08" 
d="M1225 1546q239 0 449 -71.5t360 -195.5t236.5 -298.5t86.5 -372.5q0 -156 -55 -298t-157.5 -255t-241 -196.5t-313 -128.5t-365.5 -45q-237 0 -446.5 71t-359 193.5t-236.5 294t-87 364.5q0 198 87 372.5t236.5 298.5t359 195.5t446.5 71.5zM1225 -225q216 0 407 64
t327 174.5t215 265.5t79 331q0 178 -79 335.5t-215 269.5t-327 176.5t-407 64.5q-287 0 -521.5 -110t-368.5 -304t-134 -432q0 -175 78.5 -330t214.5 -266t326 -175t405 -64zM999 653h459v299h86v-676h-86v306h-459v-306h-84v676h84v-299z" />
    <glyph glyph-name="I.ss08" horiz-adv-x="2459" 
d="M1227 -315q-237 0 -446.5 71t-359 193.5t-236.5 294t-87 364.5q0 198 87 372.5t236.5 298.5t359 195.5t446.5 71.5q239 0 449 -71.5t360 -195.5t236.5 -298.5t86.5 -372.5q0 -156 -55 -298t-157.5 -255t-241 -196.5t-313 -128.5t-365.5 -45zM1227 -225q216 0 407 64
t327 174.5t215 265.5t79 331q0 178 -79 335.5t-215 269.5t-327 176.5t-407 64.5q-287 0 -521.5 -110t-368.5 -304t-134 -432q0 -175 78.5 -330t214.5 -266t326 -175t405 -64zM1272 276h-86v676h86v-676z" />
    <glyph glyph-name="J.ss08" 
d="M1225 -315q-237 0 -446.5 71t-359 193.5t-236.5 294t-87 364.5q0 198 87 372.5t236.5 298.5t359 195.5t446.5 71.5q239 0 449 -71.5t360 -195.5t236.5 -298.5t86.5 -372.5q0 -156 -55 -298t-157.5 -255t-241 -196.5t-313 -128.5t-365.5 -45zM1225 -225q216 0 407 64
t327 174.5t215 265.5t79 331q0 178 -79 335.5t-215 269.5t-327 176.5t-407 64.5q-287 0 -521.5 -110t-368.5 -304t-134 -432q0 -175 78.5 -330t214.5 -266t326 -175t405 -64zM1198 268q-117 0 -185.5 59t-68.5 162v25l80 10v-24q0 -76 46 -120t126 -44q42 0 72 14t44.5 32.5
t22.5 48t9.5 48.5t1.5 47v432h84v-415q0 -25 -0.5 -41t-5 -48t-13 -53.5t-25.5 -48.5t-41 -44t-61.5 -28.5t-85.5 -11.5z" />
    <glyph glyph-name="K.ss08" 
d="M1225 1546q239 0 449 -71.5t360 -195.5t236.5 -298.5t86.5 -372.5q0 -156 -55 -298t-157.5 -255t-241 -196.5t-313 -128.5t-365.5 -45q-237 0 -446.5 71t-359 193.5t-236.5 294t-87 364.5q0 198 87 372.5t236.5 298.5t359 195.5t446.5 71.5zM1225 -225q216 0 407 64
t327 174.5t215 265.5t79 331q0 178 -79 335.5t-215 269.5t-327 176.5t-407 64.5q-287 0 -521.5 -110t-368.5 -304t-134 -432q0 -175 78.5 -330t214.5 -266t326 -175t405 -64zM1454 952h107q-276 -241 -340 -297l354 -379h-105q-40 42 -114 119t-132 136t-65 67
q-18 -17 -55 -49t-45 -39v-234h-84v676h84v-344q325 285 395 344z" />
    <glyph glyph-name="L.ss08" 
d="M1225 1546q239 0 449 -71.5t360 -195.5t236.5 -298.5t86.5 -372.5q0 -156 -55 -298t-157.5 -255t-241 -196.5t-313 -128.5t-365.5 -45q-237 0 -446.5 71t-359 193.5t-236.5 294t-87 364.5q0 198 87 372.5t236.5 298.5t359 195.5t446.5 71.5zM1225 -225q216 0 407 64
t327 174.5t215 265.5t79 331q0 178 -79 335.5t-215 269.5t-327 176.5t-407 64.5q-287 0 -521.5 -110t-368.5 -304t-134 -432q0 -175 78.5 -330t214.5 -266t326 -175t405 -64zM1047 952h86v-604h415v-72h-501v676z" />
    <glyph glyph-name="M.ss08" horiz-adv-x="2459" 
d="M1225 1546q239 0 449 -71.5t360 -195.5t236.5 -298.5t86.5 -372.5q0 -156 -55 -298t-157.5 -255t-241 -196.5t-313 -128.5t-365.5 -45q-237 0 -446.5 71t-359 193.5t-236.5 294t-87 364.5q0 198 87 372.5t236.5 298.5t359 195.5t446.5 71.5zM1225 -225q216 0 407 64
t327 174.5t215 265.5t79 331q0 178 -79 335.5t-215 269.5t-327 176.5t-407 64.5q-287 0 -521.5 -110t-368.5 -304t-134 -432q0 -175 78.5 -330t214.5 -266t326 -175t405 -64zM1229 381q128 222 323 571h90v-676h-81v523q-54 -100 -159 -283.5t-136 -239.5h-72
q-212 373 -295 523v-523h-84v676h92q205 -354 322 -571z" />
    <glyph glyph-name="N.ss08" 
d="M1225 1546q239 0 449 -71.5t360 -195.5t236.5 -298.5t86.5 -372.5q0 -156 -55 -298t-157.5 -255t-241 -196.5t-313 -128.5t-365.5 -45q-237 0 -446.5 71t-359 193.5t-236.5 294t-87 364.5q0 198 87 372.5t236.5 298.5t359 195.5t446.5 71.5zM1225 -225q216 0 407 64
t327 174.5t215 265.5t79 331q0 178 -79 335.5t-215 269.5t-327 176.5t-407 64.5q-287 0 -521.5 -110t-368.5 -304t-134 -432q0 -175 78.5 -330t214.5 -266t326 -175t405 -64zM1479 397v555h84v-676h-86q-73 86 -232.5 267t-243.5 280v-547h-83v676h86q343 -398 475 -555z
" />
    <glyph glyph-name="O.ss08" horiz-adv-x="2455" 
d="M1225 -315q-237 0 -446.5 71t-359 193.5t-236.5 294t-87 364.5q0 198 87 372.5t236.5 298.5t359 195.5t446.5 71.5q239 0 449 -71.5t360 -195.5t236.5 -298.5t86.5 -372.5q0 -156 -55 -298t-157.5 -255t-241 -196.5t-313 -128.5t-365.5 -45zM1225 -225q216 0 407 64
t327 174.5t215 265.5t79 331q0 178 -79 335.5t-215 269.5t-327 176.5t-407 64.5q-287 0 -521.5 -110t-368.5 -304t-134 -432q0 -175 78.5 -330t214.5 -266t326 -175t405 -64zM1229 262q-173 0 -291.5 101t-118.5 251q0 149 119.5 251t292.5 102q172 0 290.5 -102t118.5 -251
t-119 -250.5t-292 -101.5zM1231 332q134 0 226.5 82t92.5 200t-92.5 199.5t-226.5 81.5t-229 -81.5t-95 -199.5t95 -200t229 -82z" />
    <glyph glyph-name="P.ss08" 
d="M1225 1546q239 0 449 -71.5t360 -195.5t236.5 -298.5t86.5 -372.5q0 -156 -55 -298t-157.5 -255t-241 -196.5t-313 -128.5t-365.5 -45q-237 0 -446.5 71t-359 193.5t-236.5 294t-87 364.5q0 198 87 372.5t236.5 298.5t359 195.5t446.5 71.5zM1225 -225q216 0 407 64
t327 174.5t215 265.5t79 331q0 178 -79 335.5t-215 269.5t-327 176.5t-407 64.5q-287 0 -521.5 -110t-368.5 -304t-134 -432q0 -175 78.5 -330t214.5 -266t326 -175t405 -64zM985 952h287q117 0 193.5 -52t76.5 -150q0 -100 -73.5 -155.5t-180.5 -55.5h-219v-263h-84v676z
M1069 610h201q88 0 137 35t49 103q0 63 -53 99t-141 36h-193v-273z" />
    <glyph glyph-name="Q.ss08" 
d="M1225 -315q-237 0 -446.5 71t-359 193.5t-236.5 294t-87 364.5q0 198 87 372.5t236.5 298.5t359 195.5t446.5 71.5q239 0 449 -71.5t360 -195.5t236.5 -298.5t86.5 -372.5q0 -156 -55 -298t-157.5 -255t-241 -196.5t-313 -128.5t-365.5 -45zM1225 -225q216 0 407 64
t327 174.5t215 265.5t79 331q0 178 -79 335.5t-215 269.5t-327 176.5t-407 64.5q-287 0 -521.5 -110t-368.5 -304t-134 -432q0 -175 78.5 -330t214.5 -266t326 -175t405 -64zM1608 272l-60 -45q-91 91 -116 111q-95 -45 -207 -45q-173 0 -292.5 102t-119.5 252
q0 148 120.5 250t293.5 102q171 0 290 -102.5t119 -249.5q0 -78 -35.5 -147.5t-101.5 -118.5l34 -34l40.5 -40.5zM1227 365q82 0 149 34q-36 36 -92 88.5t-63 57.5l61 45q46 -44 162 -152q104 84 104 209q0 118 -93.5 199.5t-227.5 81.5q-137 0 -231.5 -81.5t-94.5 -199.5
t94.5 -200t231.5 -82z" />
    <glyph glyph-name="R.ss08" 
d="M1225 1546q239 0 449 -71.5t360 -195.5t236.5 -298.5t86.5 -372.5q0 -156 -55 -298t-157.5 -255t-241 -196.5t-313 -128.5t-365.5 -45q-237 0 -446.5 71t-359 193.5t-236.5 294t-87 364.5q0 198 87 372.5t236.5 298.5t359 195.5t446.5 71.5zM1225 -225q216 0 407 64
t327 174.5t215 265.5t79 331q0 178 -79 335.5t-215 269.5t-327 176.5t-407 64.5q-287 0 -521.5 -110t-368.5 -304t-134 -432q0 -175 78.5 -330t214.5 -266t326 -175t405 -64zM1546 750q0 -83 -55 -138t-148 -67q45 -57 118.5 -145.5t101.5 -123.5h-97l-215 265h-178v-265
h-86v676h287q117 0 194.5 -52t77.5 -150zM1073 608h199q88 0 137 35t49 102q0 65 -52.5 102.5t-141.5 37.5h-191v-277z" />
    <glyph glyph-name="S.ss08" 
d="M1225 -315q-237 0 -446.5 71t-359 193.5t-236.5 294t-87 364.5q0 198 87 372.5t236.5 298.5t359 195.5t446.5 71.5q239 0 449 -71.5t360 -195.5t236.5 -298.5t86.5 -372.5q0 -156 -55 -298t-157.5 -255t-241 -196.5t-313 -128.5t-365.5 -45zM1225 -225q216 0 407 64
t327 174.5t215 265.5t79 331q0 178 -79 335.5t-215 269.5t-327 176.5t-407 64.5q-287 0 -521.5 -110t-368.5 -304t-134 -432q0 -175 78.5 -330t214.5 -266t326 -175t405 -64zM1243 262q-116 0 -198 53.5t-113 151.5l78 27q23 -75 85.5 -118.5t147.5 -43.5q75 0 132 31t57 92
q0 13 -2.5 24.5t-9.5 20.5t-13 16t-18.5 13.5t-20 10.5t-24.5 9t-24.5 7t-27 6.5t-26.5 6.5l-76 21q-26 7 -41.5 11.5t-47 16t-51.5 25.5t-42.5 33.5t-33.5 46.5t-11 59q0 59 41 102t100.5 63t126.5 20q102 0 175 -45.5t99 -124.5l-75 -29q-22 60 -77 93.5t-130 33.5
t-123.5 -30.5t-48.5 -76.5q0 -85 166 -126l77 -21q106 -27 145 -48q84 -47 85 -130q0 -87 -81 -144t-200 -57z" />
    <glyph glyph-name="T.ss08" horiz-adv-x="2455" 
d="M1225 -315q-237 0 -446.5 71t-359 193.5t-236.5 294t-87 364.5q0 198 87 372.5t236.5 298.5t359 195.5t446.5 71.5q239 0 449 -71.5t360 -195.5t236.5 -298.5t86.5 -372.5q0 -156 -55 -298t-157.5 -255t-241 -196.5t-313 -128.5t-365.5 -45zM1225 -225q216 0 407 64
t327 174.5t215 265.5t79 331q0 178 -79 335.5t-215 269.5t-327 176.5t-407 64.5q-287 0 -521.5 -110t-368.5 -304t-134 -432q0 -175 78.5 -330t214.5 -266t326 -175t405 -64zM1270 276h-86v607h-275v69h635v-69h-274v-607z" />
    <glyph glyph-name="U.ss08" horiz-adv-x="2459" 
d="M1225 -315q-237 0 -446.5 71t-359 193.5t-236.5 294t-87 364.5q0 198 87 372.5t236.5 298.5t359 195.5t446.5 71.5q239 0 449 -71.5t360 -195.5t236.5 -298.5t86.5 -372.5q0 -156 -55 -298t-157.5 -255t-241 -196.5t-313 -128.5t-365.5 -45zM1225 -225q216 0 407 64
t327 174.5t215 265.5t79 331q0 178 -79 335.5t-215 269.5t-327 176.5t-407 64.5q-287 0 -521.5 -110t-368.5 -304t-134 -432q0 -175 78.5 -330t214.5 -266t326 -175t405 -64zM1227 268q-144 0 -218.5 70.5t-74.5 191.5v428h86v-426q0 -196 209 -196q211 0 211 196v426h84
v-428q0 -119 -76.5 -190.5t-220.5 -71.5z" />
    <glyph glyph-name="V.ss08" 
d="M1225 1546q239 0 449 -71.5t360 -195.5t236.5 -298.5t86.5 -372.5q0 -156 -55 -298t-157.5 -255t-241 -196.5t-313 -128.5t-365.5 -45q-237 0 -446.5 71t-359 193.5t-236.5 294t-87 364.5q0 198 87 372.5t236.5 298.5t359 195.5t446.5 71.5zM1225 -225q216 0 407 64
t327 174.5t215 265.5t79 331q0 178 -79 335.5t-215 269.5t-327 176.5t-407 64.5q-287 0 -521.5 -110t-368.5 -304t-134 -432q0 -175 78.5 -330t214.5 -266t326 -175t405 -64zM1233 369q79 170 285 583h90l-334 -676h-84l-334 676h88q39 -71 83 -158.5t117 -239.5t89 -185z
" />
    <glyph glyph-name="W.ss08" 
d="M1225 1546q239 0 449 -71.5t360 -195.5t236.5 -298.5t86.5 -372.5q0 -156 -55 -298t-157.5 -255t-241 -196.5t-313 -128.5t-365.5 -45q-237 0 -446.5 71t-359 193.5t-236.5 294t-87 364.5q0 198 87 372.5t236.5 298.5t359 195.5t446.5 71.5zM1225 -225q216 0 407 64
t327 174.5t215 265.5t79 331q0 178 -79 335.5t-215 269.5t-327 176.5t-407 64.5q-287 0 -521.5 -110t-368.5 -304t-134 -432q0 -175 78.5 -330t214.5 -266t326 -175t405 -64zM1493 381q24 61 69 180.5t82 214t72 176.5h88l-266 -676h-92q-39 94 -75 186.5t-78.5 206.5
t-63.5 167q-121 -327 -217 -560h-92l-267 676h90q83 -202 226 -565l219 565h84q28 -73 103 -268t118 -303z" />
    <glyph glyph-name="X.ss08" 
d="M1225 1546q239 0 449 -71.5t360 -195.5t236.5 -298.5t86.5 -372.5q0 -156 -55 -298t-157.5 -255t-241 -196.5t-313 -128.5t-365.5 -45q-237 0 -446.5 71t-359 193.5t-236.5 294t-87 364.5q0 198 87 372.5t236.5 298.5t359 195.5t446.5 71.5zM1225 -225q216 0 407 64
t327 174.5t215 265.5t79 331q0 178 -79 335.5t-215 269.5t-327 176.5t-407 64.5q-287 0 -521.5 -110t-368.5 -304t-134 -432q0 -175 78.5 -330t214.5 -266t326 -175t405 -64zM1460 952h96l-278 -329q53 -62 147 -178.5t138 -168.5h-97l-237 287q-49 -58 -138 -166t-100 -121
h-98q24 29 110.5 135.5t176.5 211.5l-279 329h96q117 -140 232 -272q22 27 71 85.5t86.5 103t73.5 83.5z" />
    <glyph glyph-name="Y.ss08" 
d="M1225 1546q239 0 449 -71.5t360 -195.5t236.5 -298.5t86.5 -372.5q0 -156 -55 -298t-157.5 -255t-241 -196.5t-313 -128.5t-365.5 -45q-237 0 -446.5 71t-359 193.5t-236.5 294t-87 364.5q0 198 87 372.5t236.5 298.5t359 195.5t446.5 71.5zM1225 -225q216 0 407 64
t327 174.5t215 265.5t79 331q0 178 -79 335.5t-215 269.5t-327 176.5t-407 64.5q-287 0 -521.5 -110t-368.5 -304t-134 -432q0 -175 78.5 -330t214.5 -266t326 -175t405 -64zM1229 596q116 164 258 356h90q-302 -421 -307 -428v-248h-84v248q-87 124 -307 428h96
q48 -70 141.5 -199.5t112.5 -156.5z" />
    <glyph glyph-name="Z.ss08" 
d="M1225 1546q239 0 449 -71.5t360 -195.5t236.5 -298.5t86.5 -372.5q0 -156 -55 -298t-157.5 -255t-241 -196.5t-313 -128.5t-365.5 -45q-237 0 -446.5 71t-359 193.5t-236.5 294t-87 364.5q0 198 87 372.5t236.5 298.5t359 195.5t446.5 71.5zM1225 -225q216 0 407 64
t327 174.5t215 265.5t79 331q0 178 -79 335.5t-215 269.5t-327 176.5t-407 64.5q-287 0 -521.5 -110t-368.5 -304t-134 -432q0 -175 78.5 -330t214.5 -266t326 -175t405 -64zM1548 952v-65q-207 -221 -514 -539h525v-72h-631v68q56 58 126.5 130.5t146 152t243.5 258.5
q-168 -2 -496 -2v69h600z" />
    <glyph glyph-name="i.loclTRK" horiz-adv-x="595" 
d="M301 1413q-57 0 -95 33.5t-38 83.5q0 46 38.5 79t94.5 33q54 0 91.5 -33t37.5 -79q0 -49 -37.5 -83t-91.5 -34zM373 0h-150v1130h150v-1130z" />
    <glyph glyph-name="a.ss01" horiz-adv-x="1650" 
d="M748 -35q-274 0 -452.5 169.5t-178.5 428.5q0 176 85 314t228.5 212t319.5 74q164 0 304 -69t220 -197h4v233h149v-1130h-147v227h-6q-80 -126 -220 -194t-306 -68zM770 92q214 0 358 138t144 339q0 132 -67.5 239.5t-183.5 167.5t-255 60q-212 0 -351 -134t-139 -337
q0 -135 64.5 -243.5t177.5 -169t252 -60.5z" />
    <glyph glyph-name="aacute.ss01" horiz-adv-x="1650" 
d="M1262 1669l-373 -391h-135l297 391h211zM748 -35q-274 0 -452.5 169.5t-178.5 428.5q0 176 85 314t228.5 212t319.5 74q164 0 304 -69t220 -197h4v233h149v-1130h-147v227h-6q-80 -126 -220 -194t-306 -68zM770 92q214 0 358 138t144 339q0 132 -67.5 239.5t-183.5 167.5
t-255 60q-212 0 -351 -134t-139 -337q0 -135 64.5 -243.5t177.5 -169t252 -60.5z" />
    <glyph glyph-name="abreve.ss01" horiz-adv-x="1650" 
d="M829 1276q-204 0 -322 110.5t-126 284.5h137q5 -125 90.5 -203.5t222.5 -78.5q133 0 219.5 77t92.5 205h137q-8 -173 -127.5 -284t-323.5 -111zM748 -35q-274 0 -452.5 169.5t-178.5 428.5q0 176 85 314t228.5 212t319.5 74q164 0 304 -69t220 -197h4v233h149v-1130h-147
v227h-6q-80 -126 -220 -194t-306 -68zM770 92q214 0 358 138t144 339q0 132 -67.5 239.5t-183.5 167.5t-255 60q-212 0 -351 -134t-139 -337q0 -135 64.5 -243.5t177.5 -169t252 -60.5z" />
    <glyph glyph-name="acircumflex.ss01" horiz-adv-x="1650" 
d="M514 1278h-143l354 358h205l356 -358h-143q-25 21 -97 79.5t-120.5 100t-96.5 84.5q-129 -110 -315 -264zM748 -35q-274 0 -452.5 169.5t-178.5 428.5q0 176 85 314t228.5 212t319.5 74q164 0 304 -69t220 -197h4v233h149v-1130h-147v227h-6q-80 -126 -220 -194t-306 -68
zM770 92q214 0 358 138t144 339q0 132 -67.5 239.5t-183.5 167.5t-255 60q-212 0 -351 -134t-139 -337q0 -135 64.5 -243.5t177.5 -169t252 -60.5z" />
    <glyph glyph-name="adieresis.ss01" horiz-adv-x="1650" 
d="M616 1370q-51 0 -86.5 32t-35.5 77q0 42 36 73t86 31q51 0 85 -31t34 -73q0 -45 -33.5 -77t-85.5 -32zM1042 1370q-52 0 -86 32t-34 77q0 42 34.5 73t85.5 31q50 0 85.5 -31t35.5 -73q0 -45 -35 -77t-86 -32zM748 -35q-274 0 -452.5 169.5t-178.5 428.5q0 176 85 314
t228.5 212t319.5 74q164 0 304 -69t220 -197h4v233h149v-1130h-147v227h-6q-80 -126 -220 -194t-306 -68zM770 92q214 0 358 138t144 339q0 132 -67.5 239.5t-183.5 167.5t-255 60q-212 0 -351 -134t-139 -337q0 -135 64.5 -243.5t177.5 -169t252 -60.5z" />
    <glyph glyph-name="agrave.ss01" horiz-adv-x="1650" 
d="M901 1278h-133l-373 391h211zM748 -35q-274 0 -452.5 169.5t-178.5 428.5q0 176 85 314t228.5 212t319.5 74q164 0 304 -69t220 -197h4v233h149v-1130h-147v227h-6q-80 -126 -220 -194t-306 -68zM770 92q214 0 358 138t144 339q0 132 -67.5 239.5t-183.5 167.5t-255 60
q-212 0 -351 -134t-139 -337q0 -135 64.5 -243.5t177.5 -169t252 -60.5z" />
    <glyph glyph-name="amacron.ss01" horiz-adv-x="1650" 
d="M1241 1413h-825v115h825v-115zM748 -35q-274 0 -452.5 169.5t-178.5 428.5q0 176 85 314t228.5 212t319.5 74q164 0 304 -69t220 -197h4v233h149v-1130h-147v227h-6q-80 -126 -220 -194t-306 -68zM770 92q214 0 358 138t144 339q0 132 -67.5 239.5t-183.5 167.5t-255 60
q-212 0 -351 -134t-139 -337q0 -135 64.5 -243.5t177.5 -169t252 -60.5z" />
    <glyph glyph-name="aogonek.ss01" horiz-adv-x="1650" 
d="M1417 -362q50 0 107 14v-101q-63 -14 -121 -14q-135 0 -226.5 63t-91.5 167q0 139 197 233h-2v227h-6q-80 -126 -220 -194t-306 -68q-274 0 -452.5 169.5t-178.5 428.5q0 176 85 314t228.5 212t319.5 74q164 0 304 -69t220 -197h4v233h149v-1130h-16q-207 -86 -207 -209
q0 -69 61.5 -111t151.5 -42zM770 92q214 0 358 138t144 339q0 132 -67.5 239.5t-183.5 167.5t-255 60q-212 0 -351 -134t-139 -337q0 -135 64.5 -243.5t177.5 -169t252 -60.5z" />
    <glyph glyph-name="aring.ss01" horiz-adv-x="1650" 
d="M829 1247q-117 0 -193.5 63t-76.5 158q0 94 76.5 157t193.5 63q113 0 190 -62.5t77 -157.5q0 -96 -76.5 -158.5t-190.5 -62.5zM829 1343q67 0 111.5 34t44.5 91q0 54 -45 87.5t-111 33.5q-69 0 -114 -33t-45 -88q0 -57 45 -91t114 -34zM748 -35q-274 0 -452.5 169.5
t-178.5 428.5q0 176 85 314t228.5 212t319.5 74q164 0 304 -69t220 -197h4v233h149v-1130h-147v227h-6q-80 -126 -220 -194t-306 -68zM770 92q214 0 358 138t144 339q0 132 -67.5 239.5t-183.5 167.5t-255 60q-212 0 -351 -134t-139 -337q0 -135 64.5 -243.5t177.5 -169
t252 -60.5z" />
    <glyph glyph-name="atilde.ss01" horiz-adv-x="1650" 
d="M1016 1329q-19 0 -36.5 2t-30 4t-28.5 8.5t-23 9t-23 12t-19.5 11.5t-20 14t-18.5 13l-45 33q-65 51 -121 51q-58 0 -94.5 -40t-36.5 -101h-114q1 110 70.5 179.5t176.5 69.5q52 0 91 -16.5t87 -50.5l52 -37q76 -53 135 -53q57 0 89 40t32 103h116q0 -117 -63 -184.5
t-176 -67.5zM748 -35q-274 0 -452.5 169.5t-178.5 428.5q0 176 85 314t228.5 212t319.5 74q164 0 304 -69t220 -197h4v233h149v-1130h-147v227h-6q-80 -126 -220 -194t-306 -68zM770 92q214 0 358 138t144 339q0 132 -67.5 239.5t-183.5 167.5t-255 60q-212 0 -351 -134
t-139 -337q0 -135 64.5 -243.5t177.5 -169t252 -60.5z" />
    <glyph glyph-name="b.ss01" horiz-adv-x="1388" 
d="M797 -35q-145 0 -254.5 51t-171.5 146h-4v-162h-144v1638h150v-999h6q61 82 171 125t243 43q230 0 374 -120.5t144 -303.5q0 -179 -144 -298.5t-370 -119.5zM786 80q157 0 265 87.5t108 219.5q0 125 -100.5 214t-272.5 89q-177 0 -281 -88t-104 -209q0 -128 111 -220.5
t274 -92.5z" />
    <glyph glyph-name="d.ss01" horiz-adv-x="1642" 
d="M748 -35q-181 0 -325.5 77t-225 213.5t-80.5 307.5q0 176 85 314t228.5 212t319.5 74q162 0 298 -67t218 -193h6v735h149v-1638h-141v227h-6q-82 -127 -221 -194.5t-305 -67.5zM766 92q138 0 253 59.5t184 168.5t69 245q0 137 -69 245.5t-184 167t-253 58.5
q-212 0 -351 -134t-139 -337q0 -204 141 -338.5t349 -134.5z" />
    <glyph glyph-name="dcaron.ss01" horiz-adv-x="1652" 
d="M1679 1180h-100l150 254q-42 12 -65.5 41t-23.5 65q0 46 39 79.5t93 33.5t91.5 -32.5t37.5 -78.5q0 -39 -39 -101t-183 -261zM748 -35q-181 0 -325.5 77t-225 213.5t-80.5 307.5q0 176 85 314t228.5 212t319.5 74q162 0 298 -67t218 -193h6v735h149v-1638h-141v227h-6
q-82 -127 -221 -194.5t-305 -67.5zM766 92q138 0 253 59.5t184 168.5t69 245q0 137 -69 245.5t-184 167t-253 58.5q-212 0 -351 -134t-139 -337q0 -204 141 -338.5t349 -134.5z" />
    <glyph glyph-name="dcroat.ss01" horiz-adv-x="1642" 
d="M1421 1444h320v-115h-320v-1329h-141v227h-6q-82 -127 -221 -194.5t-305 -67.5q-181 0 -325.5 77t-225 213.5t-80.5 307.5q0 176 85 314t228.5 212t319.5 74q162 0 298 -67t218 -193h6v426h-348v115h348v194h149v-194zM766 92q138 0 253 59.5t184 168.5t69 245
q0 137 -69 245.5t-184 167t-253 58.5q-212 0 -351 -134t-139 -337q0 -204 141 -338.5t349 -134.5z" />
    <glyph glyph-name="g.ss01" horiz-adv-x="1642" 
d="M1419 -451h-1214v125h1065v588h-6q-80 -128 -217 -194t-304 -66q-179 0 -323.5 77t-224.5 210.5t-80 296.5q0 166 83.5 298.5t227 205.5t319.5 73q164 0 303.5 -69t221.5 -197h4v233h145v-1581zM764 129q137 0 253.5 59.5t185.5 165.5t69 234t-69.5 231.5t-185.5 160
t-253 56.5q-211 0 -350.5 -129t-139.5 -321t141.5 -324.5t348.5 -132.5z" />
    <glyph glyph-name="gbreve.ss01" horiz-adv-x="1642" 
d="M825 1276q-204 0 -322 110.5t-126 284.5h137q5 -125 90.5 -203.5t222.5 -78.5q133 0 219.5 77t92.5 205h137q-8 -173 -127.5 -284t-323.5 -111zM1419 -451h-1214v125h1065v588h-6q-80 -128 -217 -194t-304 -66q-179 0 -323.5 77t-224.5 210.5t-80 296.5q0 166 83.5 298.5
t227 205.5t319.5 73q164 0 303.5 -69t221.5 -197h4v233h145v-1581zM764 129q137 0 253.5 59.5t185.5 165.5t69 234t-69.5 231.5t-185.5 160t-253 56.5q-211 0 -350.5 -129t-139.5 -321t141.5 -324.5t348.5 -132.5z" />
    <glyph glyph-name="uni0123.ss01" horiz-adv-x="1642" 
d="M672 1360q0 41 34 96t177 254h100l-147 -246q39 -12 61.5 -39.5t22.5 -62.5q0 -46 -36 -76.5t-89 -30.5q-52 0 -87.5 30.5t-35.5 74.5zM1419 -451h-1214v125h1065v588h-6q-80 -128 -217 -194t-304 -66q-179 0 -323.5 77t-224.5 210.5t-80 296.5q0 166 83.5 298.5
t227 205.5t319.5 73q164 0 303.5 -69t221.5 -197h4v233h145v-1581zM764 129q137 0 253.5 59.5t185.5 165.5t69 234t-69.5 231.5t-185.5 160t-253 56.5q-211 0 -350.5 -129t-139.5 -321t141.5 -324.5t348.5 -132.5z" />
    <glyph glyph-name="gdotaccent.ss01" horiz-adv-x="1642" 
d="M827 1417q-57 0 -95 33.5t-38 83.5q0 46 38.5 79.5t94.5 33.5q54 0 91.5 -33.5t37.5 -79.5q0 -49 -37.5 -83t-91.5 -34zM1419 -451h-1214v125h1065v588h-6q-80 -128 -217 -194t-304 -66q-179 0 -323.5 77t-224.5 210.5t-80 296.5q0 166 83.5 298.5t227 205.5t319.5 73
q164 0 303.5 -69t221.5 -197h4v233h145v-1581zM764 129q137 0 253.5 59.5t185.5 165.5t69 234t-69.5 231.5t-185.5 160t-253 56.5q-211 0 -350.5 -129t-139.5 -321t141.5 -324.5t348.5 -132.5z" />
    <glyph glyph-name="i.ss01" horiz-adv-x="835" 
d="M432 1413q-55 0 -93 33.5t-38 83.5q0 46 38 79t93 33q54 0 91.5 -33t37.5 -79q0 -49 -37.5 -83t-91.5 -34zM803 0h-443v1004h-333v126h485v-1005h291v-125z" />
    <glyph glyph-name="dotlessi.ss01" horiz-adv-x="835" 
d="M803 0h-443v1004h-333v126h485v-1005h291v-125z" />
    <glyph glyph-name="iacute.ss01" horiz-adv-x="835" 
d="M799 1669l-373 -391h-135l297 391h211zM803 0h-443v1004h-333v126h485v-1005h291v-125z" />
    <glyph glyph-name="icircumflex.ss01" horiz-adv-x="835" 
d="M53 1278h-143l354 358h205l356 -358h-143q-258 214 -313 264q-99 -84 -316 -264zM803 0h-443v1004h-333v126h485v-1005h291v-125z" />
    <glyph glyph-name="idieresis.ss01" horiz-adv-x="835" 
d="M154 1370q-51 0 -87 32.5t-36 76.5q0 42 36.5 73t86.5 31q51 0 84.5 -31t33.5 -73q0 -45 -33.5 -77t-84.5 -32zM580 1370q-52 0 -86.5 32t-34.5 77q0 42 35 73t86 31q50 0 85 -31t35 -73q0 -45 -35 -77t-85 -32zM803 0h-443v1004h-333v126h485v-1005h291v-125z" />
    <glyph glyph-name="i.loclTRK.ss01" horiz-adv-x="835" 
d="M397 1417q-55 0 -93 33.5t-38 83.5q0 45 38 79t93 34q53 0 91 -34t38 -79q0 -49 -37.5 -83t-91.5 -34zM803 0h-443v1004h-333v126h485v-1005h291v-125z" />
    <glyph glyph-name="igrave.ss01" horiz-adv-x="835" 
d="M440 1278h-133l-373 391h211zM803 0h-443v1004h-333v126h485v-1005h291v-125z" />
    <glyph glyph-name="imacron.ss01" horiz-adv-x="835" 
d="M780 1413h-825v115h825v-115zM803 0h-443v1004h-333v126h485v-1005h291v-125z" />
    <glyph glyph-name="iogonek.ss01" horiz-adv-x="835" 
d="M371 1417q-57 0 -95 33.5t-38 83.5q0 46 38.5 79.5t94.5 33.5q54 0 91.5 -33.5t37.5 -79.5q0 -49 -37.5 -83t-91.5 -34zM803 0h-311q-207 -86 -207 -209q0 -69 61.5 -111t151.5 -42q49 0 106 14v-101q-63 -14 -121 -14q-135 0 -226 63t-91 167q0 139 196 233h-2v1004
h-333v126h485v-1005h291v-125z" />
    <glyph glyph-name="j.ss01" horiz-adv-x="743" 
d="M440 1413q-55 0 -93 33.5t-38 83.5q0 46 38 79t93 33q54 0 91.5 -33t37.5 -79q0 -49 -37.5 -83t-91.5 -34zM520 -451h-653v125h502v1330h-344v126h495v-1581z" />
    <glyph glyph-name="l.ss01" horiz-adv-x="899" 
d="M891 0h-660v1638h152v-1513h508v-125z" />
    <glyph glyph-name="lacute.ss01" horiz-adv-x="899" 
d="M874 2085l-409 -324h-139l315 324h233zM891 0h-660v1638h152v-1513h508v-125z" />
    <glyph glyph-name="lcaron.ss01" horiz-adv-x="899" 
d="M891 0h-660v1638h152v-1513h508v-125zM694 1165h-100l149 254q-40 12 -63 41.5t-23 65.5q0 46 38 79t93 33q52 0 89.5 -32.5t37.5 -77.5q0 -39 -40 -103.5t-181 -259.5z" />
    <glyph glyph-name="uni013C.ss01" horiz-adv-x="899" 
d="M891 0h-660v1638h152v-1513h508v-125zM395 -520h-78l117 194q-52 10 -78 38t-26 65q0 44 36.5 75t90.5 31q51 0 87 -30.5t36 -73.5q0 -40 -33 -91.5t-152 -207.5z" />
    <glyph glyph-name="lslash.ss01" horiz-adv-x="899" 
d="M383 913v-788h508v-125h-660v821l-249 -151v125l249 151v692h152v-600l233 142v-123z" />
    <glyph glyph-name="m.ss01" horiz-adv-x="2490" 
d="M373 0h-150v1130h150v-493l749 493h199v-493l750 493h196v-1130h-149v995h-15l-782 -510v-485h-152v995h-14l-782 -510v-485z" />
    <glyph glyph-name="n.ss01" horiz-adv-x="1568" 
d="M373 614l792 516h181v-1130h-150v985h-14l-809 -504v-481h-150v1130h150v-516z" />
    <glyph glyph-name="nacute.ss01" horiz-adv-x="1568" 
d="M1006 1669h211l-373 -391h-135zM373 614l792 516h181v-1130h-150v985h-14l-809 -504v-481h-150v1130h150v-516z" />
    <glyph glyph-name="ncaron.ss01" horiz-adv-x="1568" 
d="M1241 1645l-356 -363h-205l-354 363h143q228 -191 315 -267q99 89 314 267h143zM373 614l792 516h181v-1130h-150v985h-14l-809 -504v-481h-150v1130h150v-516z" />
    <glyph glyph-name="uni0146.ss01" horiz-adv-x="1568" 
d="M373 614l792 516h181v-1130h-150v985h-14l-809 -504v-481h-150v1130h150v-516zM817 -117q51 0 87 -30.5t36 -73.5q0 -40 -33.5 -92.5t-150.5 -206.5h-78l117 194q-53 10 -79 38.5t-26 64.5q0 44 36.5 75t90.5 31z" />
    <glyph glyph-name="eng.ss01" horiz-adv-x="1568" 
d="M971 -483q-149 0 -256 55v129q117 -61 229 -61q41 0 75 8.5t58.5 21t44 34.5t31.5 41t21 49t13 51t6 54t2.5 50t0.5 47v989h-14l-809 -504v-481h-150v1130h150v-505l792 505h181v-1144q0 -39 -0.5 -61.5t-4 -65.5t-9.5 -70.5t-19 -67.5t-31 -65.5t-47 -54t-65.5 -45.5
t-87 -28t-111.5 -11z" />
    <glyph glyph-name="ntilde.ss01" horiz-adv-x="1568" 
d="M606 1487q-58 0 -94.5 -40t-36.5 -101h-115q1 110 70.5 179.5t177.5 69.5q52 0 91 -16.5t87 -50.5l52 -37q76 -53 135 -53q57 0 89 40t32 103h116q0 -117 -63 -184.5t-176 -67.5q-19 0 -36.5 2t-30 4t-28.5 8.5t-23 9t-23 12t-19.5 11.5t-20 14t-18.5 13l-45 33
q-65 51 -121 51zM373 614l792 516h181v-1130h-150v985h-14l-809 -504v-481h-150v1130h150v-516z" />
    <glyph glyph-name="p.ss01" horiz-adv-x="1646" 
d="M373 -451h-150v1581h146v-237h4q86 135 226 202.5t304 67.5q176 0 319.5 -76.5t225.5 -213.5t82 -308q0 -175 -84.5 -313t-228 -212.5t-318.5 -74.5q-169 0 -308 69t-218 195v-680zM877 92q213 0 352 134.5t139 338.5t-140 337.5t-351 133.5q-136 0 -250.5 -59t-184 -168
t-69.5 -246t69.5 -245.5t184 -167t250.5 -58.5z" />
    <glyph glyph-name="q.ss01" horiz-adv-x="1644" 
d="M1421 -451h-149v684q-81 -128 -221.5 -198t-307.5 -70q-178 0 -321 77t-224 214t-81 309q0 175 84.5 312.5t228 211.5t318.5 74q164 0 303 -69t221 -197h4v233h145v-1581zM766 92q138 0 253 59.5t184 168.5t69 245q0 137 -69 245.5t-184 167t-253 58.5
q-212 0 -351 -134.5t-139 -338.5q0 -203 140 -337t350 -134z" />
    <glyph glyph-name="r.ss01" horiz-adv-x="978" 
d="M373 0h-150v1130h731v-126h-581v-1004z" />
    <glyph glyph-name="racute.ss01" horiz-adv-x="978" 
d="M924 1669l-373 -391h-135l297 391h211zM373 0h-150v1130h731v-126h-581v-1004z" />
    <glyph glyph-name="rcaron.ss01" horiz-adv-x="978" 
d="M594 1282h-205l-354 363h143q247 -206 316 -267q110 99 313 267h143zM373 0h-150v1130h731v-126h-581v-1004z" />
    <glyph glyph-name="uni0157.ss01" horiz-adv-x="978" 
d="M373 0h-150v1130h731v-126h-581v-1004zM246 -520h-78l117 194q-53 10 -79 38.5t-26 64.5q0 44 36.5 75t90.5 31q51 0 87 -30.5t36 -73.5q0 -40 -33.5 -92.5t-150.5 -206.5z" />
    <glyph glyph-name="s.ss01" horiz-adv-x="1155" 
d="M1004 0h-854v127h704v395h-704v608h854v-126h-705v-369h705v-635z" />
    <glyph glyph-name="sacute.ss01" horiz-adv-x="1155" 
d="M977 1669l-373 -391h-135l297 391h211zM1004 0h-854v127h704v395h-704v608h854v-126h-705v-369h705v-635z" />
    <glyph glyph-name="scaron.ss01" horiz-adv-x="1155" 
d="M647 1282h-205l-354 363h143q247 -206 316 -267q110 99 313 267h144zM1004 0h-854v127h704v395h-704v608h854v-126h-705v-369h705v-635z" />
    <glyph glyph-name="scedilla.ss01" horiz-adv-x="1155" 
d="M1004 1130v-126h-705v-369h705v-635h-365l-131 -158q38 19 100 19q98 0 160.5 -46t62.5 -120q0 -82 -76.5 -134.5t-193.5 -52.5q-86 0 -167 30.5t-134 80.5l66 59q39 -42 101 -67t126 -25q70 0 118 30t48 77q0 42 -43.5 70t-108.5 28q-64 0 -116 -27l-64 54l143 182h-380
v127h704v395h-704v608h854z" />
    <glyph glyph-name="uni0219.ss01" horiz-adv-x="1155" 
d="M1004 0h-854v127h704v395h-704v608h854v-126h-705v-369h705v-635zM516 -520h-78l117 194q-52 10 -78 38t-26 65q0 44 36.5 75t90.5 31q51 0 86.5 -30.5t35.5 -73.5q0 -40 -33.5 -92.5t-150.5 -206.5z" />
    <glyph glyph-name="t.ss01" horiz-adv-x="946" 
d="M455 1008v-883h460v-125h-612v1008h-270v122h270v336h152v-336h417v-122h-417z" />
    <glyph glyph-name="tbar.ss01" horiz-adv-x="946" 
d="M455 575v-450h460v-125h-612v575h-266v115h266v318h-270v122h270v336h152v-336h417v-122h-417v-318h399v-115h-399z" />
    <glyph glyph-name="tcaron.ss01" horiz-adv-x="946" 
d="M1030 1640q53 0 90 -32t37 -78q0 -39 -38.5 -101t-182.5 -260h-100l149 252q-41 12 -63.5 42t-22.5 67q0 46 38 78t93 32zM872 1008h-417v-883h460v-125h-612v1008h-270v122h270v336h152v-336h417v-122z" />
    <glyph glyph-name="uni0163.ss01" horiz-adv-x="946" 
d="M915 125v-125h-315l-131 -158q38 19 100 19q98 0 161 -46t63 -120q0 -82 -77 -134.5t-194 -52.5q-86 0 -167 30.5t-134 80.5l66 59q39 -42 101 -67t126 -25q70 0 118 30t48 77q0 42 -43.5 70t-108.5 28q-64 0 -116 -27l-64 54l144 182h-189v1008h-270v122h270v336h152
v-336h417v-122h-417v-883h460z" />
    <glyph glyph-name="uni021B.ss01" horiz-adv-x="946" 
d="M455 1008v-883h460v-125h-612v1008h-270v122h270v336h152v-336h417v-122h-417zM539 -117q51 0 87 -30.5t36 -73.5q0 -40 -33 -91.5t-152 -207.5h-78l117 194q-52 10 -78 38t-26 65q0 44 36.5 75t90.5 31z" />
    <glyph glyph-name="yacute.ss01" horiz-adv-x="1339" 
d="M1108 1669l-373 -391h-135l297 391h211zM653 -451h-153l180 441h-176l-447 1140h156l395 -987h125l395 987h154z" />
    <glyph glyph-name="ycircumflex.ss01" horiz-adv-x="1339" 
d="M362 1278h-143l354 358h205l357 -358h-144q-258 214 -313 264q-99 -84 -316 -264zM653 -451h-153l180 441h-176l-447 1140h156l395 -987h125l395 987h154z" />
    <glyph glyph-name="ydieresis.ss01" horiz-adv-x="1339" 
d="M463 1370q-51 0 -87 32.5t-36 76.5q0 42 36.5 73t86.5 31q51 0 85 -31t34 -73q0 -45 -33.5 -77t-85.5 -32zM889 1370q-52 0 -86.5 32t-34.5 77q0 42 35 73t86 31q50 0 85.5 -31t35.5 -73q0 -45 -35 -77t-86 -32zM653 -451h-153l180 441h-176l-447 1140h156l395 -987h125
l395 987h154z" />
    <glyph glyph-name="ygrave.ss01" horiz-adv-x="1339" 
d="M748 1278h-134l-372 391h211zM653 -451h-153l180 441h-176l-447 1140h156l395 -987h125l395 987h154z" />
    <glyph glyph-name="a.ss02" horiz-adv-x="1406" 
d="M547 -35q-121 0 -216.5 31.5t-154.5 99.5t-59 164q0 64 28 116t72.5 88t111 64.5t133 46t148.5 31.5q30 5 76.5 12t74 11.5t66 11.5t62 13.5t51.5 16.5t44.5 21.5t31.5 27t21.5 35.5t6.5 44q0 98 -100 171.5t-254 73.5q-139 0 -238.5 -63.5t-138.5 -173.5l-149 47
q38 104 125.5 175.5t190.5 102.5t218 31q93 0 180 -22t161.5 -65.5t119.5 -118.5t45 -171v-786h-145v236h-6q-69 -124 -195 -197.5t-311 -73.5zM561 78q105 0 198.5 37.5t154 94t95.5 121.5t35 122v153q-57 -37 -118.5 -55t-208.5 -41q-45 -7 -75 -12.5t-80 -17t-84.5 -23
t-75 -31t-65 -41.5t-41.5 -52.5t-17 -66.5q0 -87 78 -137.5t204 -50.5z" />
    <glyph glyph-name="aacute.ss02" horiz-adv-x="1406" 
d="M1143 1669l-373 -391h-135l297 391h211zM547 -35q-121 0 -216.5 31.5t-154.5 99.5t-59 164q0 64 28 116t72.5 88t111 64.5t133 46t148.5 31.5q30 5 76.5 12t74 11.5t66 11.5t62 13.5t51.5 16.5t44.5 21.5t31.5 27t21.5 35.5t6.5 44q0 98 -100 171.5t-254 73.5
q-139 0 -238.5 -63.5t-138.5 -173.5l-149 47q38 104 125.5 175.5t190.5 102.5t218 31q93 0 180 -22t161.5 -65.5t119.5 -118.5t45 -171v-786h-145v236h-6q-69 -124 -195 -197.5t-311 -73.5zM561 78q105 0 198.5 37.5t154 94t95.5 121.5t35 122v153q-57 -37 -118.5 -55
t-208.5 -41q-45 -7 -75 -12.5t-80 -17t-84.5 -23t-75 -31t-65 -41.5t-41.5 -52.5t-17 -66.5q0 -87 78 -137.5t204 -50.5z" />
    <glyph glyph-name="abreve.ss02" horiz-adv-x="1406" 
d="M711 1276q-204 0 -322.5 110.5t-126.5 284.5h137q5 -125 91 -203.5t223 -78.5q133 0 219 77t92 205h137q-8 -174 -127 -284.5t-323 -110.5zM547 -35q-121 0 -216.5 31.5t-154.5 99.5t-59 164q0 64 28 116t72.5 88t111 64.5t133 46t148.5 31.5q30 5 76.5 12t74 11.5
t66 11.5t62 13.5t51.5 16.5t44.5 21.5t31.5 27t21.5 35.5t6.5 44q0 98 -100 171.5t-254 73.5q-139 0 -238.5 -63.5t-138.5 -173.5l-149 47q38 104 125.5 175.5t190.5 102.5t218 31q93 0 180 -22t161.5 -65.5t119.5 -118.5t45 -171v-786h-145v236h-6q-69 -124 -195 -197.5
t-311 -73.5zM561 78q105 0 198.5 37.5t154 94t95.5 121.5t35 122v153q-57 -37 -118.5 -55t-208.5 -41q-45 -7 -75 -12.5t-80 -17t-84.5 -23t-75 -31t-65 -41.5t-41.5 -52.5t-17 -66.5q0 -87 78 -137.5t204 -50.5z" />
    <glyph glyph-name="acircumflex.ss02" horiz-adv-x="1173" 
d="M342 1278h-143l356 358h203l356 -358h-143q-248 206 -314 264q-197 -168 -315 -264zM547 -35q-121 0 -216.5 31.5t-154.5 99.5t-59 164q0 64 28 116t72.5 88t111 64.5t133 46t148.5 31.5q30 5 76.5 12t74 11.5t66 11.5t62 13.5t51.5 16.5t44.5 21.5t31.5 27t21.5 35.5
t6.5 44q0 98 -100 171.5t-254 73.5q-139 0 -238.5 -63.5t-138.5 -173.5l-149 47q38 104 125.5 175.5t190.5 102.5t218 31q93 0 180 -22t161.5 -65.5t119.5 -118.5t45 -171v-786h-145v236h-6q-69 -124 -195 -197.5t-311 -73.5zM561 78q105 0 198.5 37.5t154 94t95.5 121.5
t35 122v153q-57 -37 -118.5 -55t-208.5 -41q-45 -7 -75 -12.5t-80 -17t-84.5 -23t-75 -31t-65 -41.5t-41.5 -52.5t-17 -66.5q0 -87 78 -137.5t204 -50.5z" />
    <glyph glyph-name="adieresis.ss02" horiz-adv-x="1406" 
d="M498 1370q-51 0 -87 32.5t-36 76.5q0 42 36.5 73t86.5 31q51 0 84.5 -31t33.5 -73q0 -45 -33.5 -77t-84.5 -32zM924 1370q-52 0 -86.5 32t-34.5 77q0 42 35 73t86 31q50 0 85 -31t35 -73q0 -45 -35 -77t-85 -32zM547 -35q-121 0 -216.5 31.5t-154.5 99.5t-59 164
q0 64 28 116t72.5 88t111 64.5t133 46t148.5 31.5q30 5 76.5 12t74 11.5t66 11.5t62 13.5t51.5 16.5t44.5 21.5t31.5 27t21.5 35.5t6.5 44q0 98 -100 171.5t-254 73.5q-139 0 -238.5 -63.5t-138.5 -173.5l-149 47q38 104 125.5 175.5t190.5 102.5t218 31q93 0 180 -22
t161.5 -65.5t119.5 -118.5t45 -171v-786h-145v236h-6q-69 -124 -195 -197.5t-311 -73.5zM561 78q105 0 198.5 37.5t154 94t95.5 121.5t35 122v153q-57 -37 -118.5 -55t-208.5 -41q-45 -7 -75 -12.5t-80 -17t-84.5 -23t-75 -31t-65 -41.5t-41.5 -52.5t-17 -66.5
q0 -87 78 -137.5t204 -50.5z" />
    <glyph glyph-name="agrave.ss02" horiz-adv-x="1406" 
d="M784 1278h-133l-372 391h210zM547 -35q-121 0 -216.5 31.5t-154.5 99.5t-59 164q0 64 28 116t72.5 88t111 64.5t133 46t148.5 31.5q30 5 76.5 12t74 11.5t66 11.5t62 13.5t51.5 16.5t44.5 21.5t31.5 27t21.5 35.5t6.5 44q0 98 -100 171.5t-254 73.5q-139 0 -238.5 -63.5
t-138.5 -173.5l-149 47q38 104 125.5 175.5t190.5 102.5t218 31q93 0 180 -22t161.5 -65.5t119.5 -118.5t45 -171v-786h-145v236h-6q-69 -124 -195 -197.5t-311 -73.5zM561 78q105 0 198.5 37.5t154 94t95.5 121.5t35 122v153q-57 -37 -118.5 -55t-208.5 -41
q-45 -7 -75 -12.5t-80 -17t-84.5 -23t-75 -31t-65 -41.5t-41.5 -52.5t-17 -66.5q0 -87 78 -137.5t204 -50.5z" />
    <glyph glyph-name="amacron.ss02" horiz-adv-x="1173" 
d="M1139 1430h-826v114h826v-114zM547 -35q-121 0 -216.5 31.5t-154.5 99.5t-59 164q0 64 28 116t72.5 88t111 64.5t133 46t148.5 31.5q30 5 76.5 12t74 11.5t66 11.5t62 13.5t51.5 16.5t44.5 21.5t31.5 27t21.5 35.5t6.5 44q0 98 -100 171.5t-254 73.5q-139 0 -238.5 -63.5
t-138.5 -173.5l-149 47q38 104 125.5 175.5t190.5 102.5t218 31q93 0 180 -22t161.5 -65.5t119.5 -118.5t45 -171v-786h-145v236h-6q-69 -124 -195 -197.5t-311 -73.5zM561 78q105 0 198.5 37.5t154 94t95.5 121.5t35 122v153q-57 -37 -118.5 -55t-208.5 -41
q-45 -7 -75 -12.5t-80 -17t-84.5 -23t-75 -31t-65 -41.5t-41.5 -52.5t-17 -66.5q0 -87 78 -137.5t204 -50.5z" />
    <glyph glyph-name="aogonek.ss02" horiz-adv-x="1406" 
d="M1194 -362q49 0 106 14v-101q-63 -14 -120 -14q-135 0 -226.5 63t-91.5 167q0 139 197 233v236h-6q-69 -124 -195 -197.5t-311 -73.5q-121 0 -216.5 31.5t-154.5 99.5t-59 164q0 64 28 116t72.5 88t111 64.5t133 46t148.5 31.5q30 5 76.5 12t74 11.5t66 11.5t62 13.5
t51.5 16.5t44.5 21.5t31.5 27t21.5 35.5t6.5 44q0 98 -100 171.5t-254 73.5q-139 0 -238.5 -63.5t-138.5 -173.5l-149 47q38 104 125.5 175.5t190.5 102.5t218 31q93 0 180 -22t161.5 -65.5t119.5 -118.5t45 -171v-786h-16q-207 -86 -207 -209q0 -69 61.5 -111t151.5 -42z
M1044 453v153q-57 -37 -118.5 -55t-208.5 -41q-45 -7 -75 -12.5t-80 -17t-84.5 -23t-75 -31t-65 -41.5t-41.5 -52.5t-17 -66.5q0 -87 78 -137.5t204 -50.5q105 0 198.5 37.5t154 94t95.5 121.5t35 122z" />
    <glyph glyph-name="aring.ss02" horiz-adv-x="1406" 
d="M713 1247q-117 0 -194 63t-77 158q0 94 77 157t194 63q113 0 189.5 -62.5t76.5 -157.5q0 -96 -76.5 -158.5t-189.5 -62.5zM713 1343q66 0 110.5 34t44.5 91q0 54 -44.5 87.5t-110.5 33.5q-69 0 -114.5 -33.5t-45.5 -87.5q0 -57 45.5 -91t114.5 -34zM547 -35
q-121 0 -216.5 31.5t-154.5 99.5t-59 164q0 64 28 116t72.5 88t111 64.5t133 46t148.5 31.5q30 5 76.5 12t74 11.5t66 11.5t62 13.5t51.5 16.5t44.5 21.5t31.5 27t21.5 35.5t6.5 44q0 98 -100 171.5t-254 73.5q-139 0 -238.5 -63.5t-138.5 -173.5l-149 47
q38 104 125.5 175.5t190.5 102.5t218 31q93 0 180 -22t161.5 -65.5t119.5 -118.5t45 -171v-786h-145v236h-6q-69 -124 -195 -197.5t-311 -73.5zM561 78q105 0 198.5 37.5t154 94t95.5 121.5t35 122v153q-57 -37 -118.5 -55t-208.5 -41q-45 -7 -75 -12.5t-80 -17t-84.5 -23
t-75 -31t-65 -41.5t-41.5 -52.5t-17 -66.5q0 -87 78 -137.5t204 -50.5z" />
    <glyph glyph-name="atilde.ss02" horiz-adv-x="1406" 
d="M897 1329q-19 0 -36.5 2t-30 4t-28.5 8.5t-23 9t-23 12t-19.5 11.5t-20 14t-18.5 13l-45 33q-65 51 -121 51q-58 0 -94.5 -40t-36.5 -101h-114q1 110 71 179.5t177 69.5q52 0 91 -16.5t87 -50.5l51 -37q76 -53 135 -53q57 0 89 40t32 103h117q0 -117 -63.5 -184.5
t-176.5 -67.5zM547 -35q-121 0 -216.5 31.5t-154.5 99.5t-59 164q0 64 28 116t72.5 88t111 64.5t133 46t148.5 31.5q30 5 76.5 12t74 11.5t66 11.5t62 13.5t51.5 16.5t44.5 21.5t31.5 27t21.5 35.5t6.5 44q0 98 -100 171.5t-254 73.5q-139 0 -238.5 -63.5t-138.5 -173.5
l-149 47q38 104 125.5 175.5t190.5 102.5t218 31q93 0 180 -22t161.5 -65.5t119.5 -118.5t45 -171v-786h-145v236h-6q-69 -124 -195 -197.5t-311 -73.5zM561 78q105 0 198.5 37.5t154 94t95.5 121.5t35 122v153q-57 -37 -118.5 -55t-208.5 -41q-45 -7 -75 -12.5t-80 -17
t-84.5 -23t-75 -31t-65 -41.5t-41.5 -52.5t-17 -66.5q0 -87 78 -137.5t204 -50.5z" />
    <glyph glyph-name="h.ss02" horiz-adv-x="1568" 
d="M373 0h-150v1638h150v-1013l792 505h181v-1130h-150v985h-14l-809 -504v-481z" />
    <glyph glyph-name="hbar.ss02" horiz-adv-x="1568" 
d="M373 625l792 505h181v-1130h-150v985h-14l-809 -504v-481h-150v1329h-227v115h227v194h150v-194h440v-115h-440v-704z" />
    <glyph glyph-name="t.ss02" horiz-adv-x="888" 
d="M455 0h-152v1008h-270v122h270v336h152v-336h417v-122h-417v-1008z" />
    <glyph glyph-name="tbar.ss02" horiz-adv-x="888" 
d="M872 1130v-122h-417v-318h399v-115h-399v-575h-152v575h-266v115h266v318h-270v122h270v336h152v-336h417z" />
    </font>
</defs>
</svg>
