<?xml version="1.0" standalone="no"?>
<!DOCTYPE svg PUBLIC "-//W3C//DTD SVG 1.1//EN" "http://www.w3.org/Graphics/SVG/1.1/DTD/svg11.dtd" >
<svg xmlns="http://www.w3.org/2000/svg" xmlns:xlink="http://www.w3.org/1999/xlink" version="1.1">
<metadata>
Created by FontForge 20170731 at Mon Mar 15 14:20:52 2021
 By Aleksey,,,
Copyright (c) 2020 by Matthieu Salvaggio x Blaze Type. All rights reserved.
</metadata>
<defs>
<font id="Area-RegularItalicExtended" horiz-adv-x="2457" >
  <font-face 
    font-family="Area Italic Extended"
    font-weight="400"
    font-style="italic"
    font-stretch="normal"
    units-per-em="2048"
    panose-1="0 0 5 0 0 0 0 0 0 0"
    ascent="1638"
    descent="-410"
    x-height="1130"
    cap-height="1597"
    bbox="-1878 -520 3267 2154"
    underline-thickness="102"
    underline-position="-307"
    slope="-10"
    unicode-range="U+0020-25CA"
  />
<missing-glyph horiz-adv-x="1746" 
d="M1407 0h-1266l283 1597h1266zM545 1485l-234 -1286l1164 1286h-930zM1513 1368l-1126 -1249h899z" />
    <glyph glyph-name=".notdef" horiz-adv-x="1746" 
d="M1407 0h-1266l283 1597h1266zM545 1485l-234 -1286l1164 1286h-930zM1513 1368l-1126 -1249h899z" />
    <glyph glyph-name=".null" horiz-adv-x="0" 
 />
    <glyph glyph-name="nonmarkingreturn" horiz-adv-x="682" 
 />
    <glyph glyph-name="space" unicode=" " horiz-adv-x="651" 
 />
    <glyph glyph-name="exclam" unicode="!" horiz-adv-x="628" 
d="M330 391h-92l151 1102l17 104h182l-19 -104zM213 -14q-47 0 -79 28.5t-32 69.5q0 52 46 91.5t106 39.5q45 0 76.5 -27.5t31.5 -68.5q0 -50 -45.5 -91.5t-103.5 -41.5z" />
    <glyph glyph-name="quotedbl" unicode="&#x22;" horiz-adv-x="804" 
d="M428 1155h-154l76 442h154zM737 1155h-153l73 442h156z" />
    <glyph glyph-name="numbersign" unicode="#" horiz-adv-x="1687" 
d="M1677 1081l-45 -116h-299l-155 -381h288l-43 -117h-295l-192 -467h-137l192 467h-485l-193 -467h-139l193 467h-283l45 117h287l155 381h-278l45 116h283l213 516h139l-213 -516h485l213 516h137l-213 -516h295zM555 584h485l156 381h-485z" />
    <glyph glyph-name="dollar" unicode="$" horiz-adv-x="1417" 
d="M815 850l14 -4q164 -41 234 -72q190 -86 190 -252q0 -165 -162 -283.5t-405 -127.5l-35 -193h-106l35 197q-85 7 -158.5 31t-135 66t-104.5 107.5t-61 149.5l143 45q32 -127 122 -192t216 -80l88 497h-4q-399 91 -399 328q0 102 71 192t193 146t266 61l31 172h106
l-30 -176q163 -19 278 -103t133 -206l-137 -55q-24 93 -101 157.5t-196 81.5zM442 1096q0 -47 24 -84.5t68.5 -63t84 -41t94.5 -30.5l82 464q-151 -7 -252 -77.5t-101 -167.5zM793 717l-84 -479q166 6 276.5 80.5t110.5 179.5q0 35 -12 63.5t-36.5 50t-49.5 37t-64.5 29
t-68 21.5t-72.5 18z" />
    <glyph glyph-name="percent" unicode="%" horiz-adv-x="1990" 
d="M453 788q-123 0 -194 78t-71 213q0 112 50 214t142 167.5t202 65.5q122 0 193 -79t71 -214q0 -113 -50.5 -215t-142 -166t-200.5 -64zM297 0h-145l1624 1468h137zM465 893q66 0 124 49t91 126.5t33 160.5q0 91 -38.5 140.5t-107.5 49.5q-66 0 -123.5 -48.5t-91 -126
t-33.5 -161.5q0 -91 38.5 -140.5t107.5 -49.5zM1473 -29q-123 0 -194 78t-71 213q0 112 50 214t142 167.5t202 65.5q122 0 193 -79t71 -214q0 -113 -50.5 -215t-142 -166t-200.5 -64zM1485 76q66 0 124 49t91 126.5t33 160.5q0 91 -38.5 140.5t-107.5 49.5
q-66 0 -123.5 -48.5t-91 -126t-33.5 -161.5q0 -91 38.5 -140.5t107.5 -49.5z" />
    <glyph glyph-name="ampersand" unicode="&#x26;" horiz-adv-x="1656" 
d="M557 -35q-131 0 -238 38.5t-174 118.5t-67 189q0 53 19 105t48.5 94.5t75 85t89 74t101 65.5t99.5 55.5t96 47.5q-48 51 -80 90t-69 92t-55.5 107t-18.5 106q0 107 69.5 198.5t188 145t256.5 53.5q180 0 286.5 -87t106.5 -220q0 -136 -125 -265t-350 -237l367 -370
q111 153 192 331l135 -28q-119 -247 -241 -400l338 -352h-187l-243 244q-275 -281 -619 -281zM739 907q68 34 115.5 61t102.5 66.5t88.5 77t56 86t22.5 100.5q0 95 -67 149t-185 54q-142 0 -235.5 -73.5t-93.5 -184.5q0 -80 52 -160t144 -176zM582 94q276 0 512 244
l-408 410q-185 -90 -260 -141q-184 -126 -184 -269q0 -114 97.5 -179t242.5 -65z" />
    <glyph glyph-name="quotesingle" unicode="'" horiz-adv-x="497" 
d="M428 1155h-154l76 442h154z" />
    <glyph glyph-name="parenleft" unicode="(" horiz-adv-x="735" 
d="M541 -307h-156q-128 153 -196 341.5t-68 391.5q0 313 159 623.5t441 547.5h156q-276 -237 -433 -548.5t-157 -628.5q0 -201 65.5 -388t188.5 -339z" />
    <glyph glyph-name="parenright" unicode=")" horiz-adv-x="733" 
d="M41 -307h-156q279 238 436.5 550t157.5 627q0 198 -66 385.5t-192 341.5h156q131 -155 197.5 -343.5t66.5 -389.5q0 -309 -157.5 -621t-442.5 -550z" />
    <glyph glyph-name="asterisk" unicode="*" horiz-adv-x="1009" 
d="M635 1024h-105l37 207l-239 -105l-39 80l241 105l-204 104l67 80l203 -104l35 206h104l-37 -206l240 104l39 -80l-240 -104l203 -105l-68 -80l-198 105z" />
    <glyph glyph-name="plus" unicode="+" horiz-adv-x="1189" 
d="M688 686h359l-19 -123h-362l-56 -313h-139l55 313h-362l20 123h363l55 313h141z" />
    <glyph glyph-name="comma" unicode="," horiz-adv-x="524" 
d="M53 -258h-98l192 254q-34 9 -52.5 32.5t-18.5 55.5q0 51 45.5 91t107.5 40q46 0 76.5 -27.5t30.5 -70.5q0 -41 -49.5 -106t-233.5 -269z" />
    <glyph glyph-name="hyphen" unicode="-" horiz-adv-x="935" 
d="M797 563h-658l21 121h655z" />
    <glyph glyph-name="period" unicode="." horiz-adv-x="559" 
d="M201 -14q-47 0 -80 28.5t-33 69.5q0 51 46 91t106 40q45 0 76.5 -27.5t31.5 -68.5q0 -51 -44.5 -92t-102.5 -41z" />
    <glyph glyph-name="slash" unicode="/" horiz-adv-x="1024" 
d="M127 -135h-145l981 1773h147z" />
    <glyph glyph-name="zero" unicode="0" horiz-adv-x="1720" 
d="M752 -35q-267 0 -423.5 174.5t-156.5 474.5q0 189 67 372t181.5 325.5t281.5 230.5t353 88q267 0 423 -175.5t156 -477.5q0 -188 -66 -370.5t-180 -324.5t-281 -229.5t-355 -87.5zM776 102q98 0 190 35t166.5 96t136.5 144.5t103.5 180t64.5 203t23 212.5
q0 245 -112.5 382.5t-311.5 137.5q-146 0 -276.5 -76t-220.5 -198.5t-142.5 -278.5t-52.5 -315q0 -244 115.5 -383.5t316.5 -139.5z" />
    <glyph glyph-name="one" unicode="1" horiz-adv-x="935" 
d="M569 0h-161l231 1296q-83 -82 -209 -135.5t-276 -70.5l20 141q207 31 353.5 133.5t168.5 232.5h154z" />
    <glyph glyph-name="two" unicode="2" horiz-adv-x="1511" 
d="M1292 0h-1239v12q33 109 83.5 194t97 141.5t149.5 125t172 107t234 125.5q23 12 34 18q49 26 78.5 42.5t87.5 52t96.5 64t87 72t77 83.5t49 90t20.5 100q0 123 -104.5 197.5t-276.5 74.5q-221 0 -379.5 -119.5t-193.5 -310.5l-142 23q27 155 129 277.5t261 191.5t348 69
q238 0 380 -106t142 -283q0 -60 -19.5 -118t-48.5 -105t-73.5 -93.5t-84 -80t-92 -68.5t-85.5 -54t-74 -42q-67 -36 -165.5 -85.5t-156 -78.5t-131 -74t-120 -84.5t-92 -96t-75.5 -122.5h1049z" />
    <glyph glyph-name="three" unicode="3" horiz-adv-x="1556" 
d="M666 -35q-238 0 -402 100t-196 265l145 63q32 -128 159.5 -211.5t317.5 -83.5q153 0 277.5 54t192 141.5t67.5 187.5q0 130 -116.5 204.5t-342.5 74.5h-188l18 121h207q215 0 357.5 101t142.5 247q0 126 -105 197t-280 71q-184 0 -325 -82t-196 -229l-139 26
q67 189 258 303.5t434 114.5q145 0 262 -41t189 -123.5t72 -193.5q0 -147 -117 -275t-291 -168l-2 -2q159 -26 244.5 -110t85.5 -215q0 -102 -55 -199.5t-149 -172t-232 -120t-293 -45.5z" />
    <glyph glyph-name="four" unicode="4" horiz-adv-x="1585" 
d="M1110 0h-160l70 393h-987l24 144l1176 1060h158l-191 -1071h285l-19 -133h-288zM1200 1397l-979 -871h819z" />
    <glyph glyph-name="five" unicode="5" horiz-adv-x="1552" 
d="M653 -35q-230 0 -403.5 100t-212.5 269l141 67q43 -143 180 -224t316 -81q123 0 234 39.5t188.5 104t122.5 149.5t45 174q0 150 -114.5 241t-301.5 91q-149 0 -282.5 -59t-219.5 -156l-119 47l375 870h907l-20 -129h-799l-270 -612h4q68 68 197.5 114t275.5 46
q147 0 267 -47.5t195 -146.5t75 -234q0 -118 -60 -231t-162.5 -199.5t-249 -139.5t-309.5 -53z" />
    <glyph glyph-name="six" unicode="6" horiz-adv-x="1626" 
d="M737 -35q-277 0 -428 154.5t-151 435.5q0 133 36.5 266t102.5 251.5t162 221t210 177t252.5 117t284.5 42.5q248 0 404 -117l-119 -104q-131 90 -326 90t-367.5 -91t-296 -265t-165.5 -402h4q77 129 250.5 211t361.5 82q107 0 205 -30t175 -85.5t123 -143t46 -193.5
q0 -118 -60 -230.5t-161 -197.5t-244 -137t-299 -52zM762 96q150 0 283 65.5t211.5 174.5t78.5 231q0 153 -119.5 249.5t-306.5 96.5q-152 0 -286 -67t-212.5 -176t-78.5 -228q0 -151 122 -248.5t308 -97.5z" />
    <glyph glyph-name="seven" unicode="7" horiz-adv-x="1429" 
d="M424 0h-166q38 207 198.5 485t406 553t505.5 455h-1171l18 131h1352l-21 -141q-201 -135 -396 -326.5t-344 -391.5t-251.5 -402.5t-130.5 -362.5z" />
    <glyph glyph-name="eight" unicode="8" horiz-adv-x="1595" 
d="M694 -35q-163 0 -294.5 47.5t-210 140t-78.5 214.5q0 161 128 293t326 178v4q-119 44 -181 122.5t-62 184.5q0 125 87 235.5t241 178t337 67.5q229 0 373.5 -101.5t144.5 -262.5q0 -135 -105.5 -253.5t-273.5 -170.5v-4q145 -35 228.5 -128t83.5 -221
q0 -140 -97.5 -260.5t-269.5 -192t-377 -71.5zM856 893q202 0 344.5 106.5t142.5 245.5q0 117 -104.5 189.5t-273.5 72.5q-132 0 -244 -47t-176 -126t-64 -171q0 -124 107 -197t268 -73zM713 92q119 0 224.5 33.5t178 89t114.5 129t42 152.5q0 134 -112.5 210t-315.5 76
q-249 0 -405 -108t-156 -271q0 -147 120 -229t310 -82z" />
    <glyph glyph-name="nine" unicode="9" horiz-adv-x="1656" 
d="M641 -35q-161 0 -305.5 59.5t-243.5 178.5l119 94q172 -203 440 -203q122 0 230.5 39t191.5 108t149 165t109 207.5t66 236.5h-6q-77 -145 -253 -234.5t-372 -89.5q-234 0 -388.5 130t-154.5 335q0 122 59 237.5t161 204.5t250.5 143t316.5 54q128 0 230.5 -33t180 -101
t119 -181.5t41.5 -265.5q0 -127 -31 -257t-87.5 -250t-141 -225.5t-186 -183.5t-229.5 -123t-265 -45zM801 649q119 0 230 44.5t190.5 116t127.5 165t48 188.5q0 159 -121 249.5t-301 90.5q-120 0 -229.5 -41.5t-188 -109.5t-124.5 -159t-46 -187q0 -164 119 -260.5
t295 -96.5z" />
    <glyph glyph-name="colon" unicode=":" horiz-adv-x="612" 
d="M375 930q-47 0 -79 28.5t-32 69.5q0 53 45.5 92t104.5 39q45 0 77.5 -27.5t32.5 -66.5q0 -53 -45.5 -94t-103.5 -41zM207 -14q-47 0 -80 28.5t-33 69.5q0 52 45 91.5t105 39.5q46 0 78 -27.5t32 -68.5q0 -50 -44.5 -91.5t-102.5 -41.5z" />
    <glyph glyph-name="semicolon" unicode=";" horiz-adv-x="690" 
d="M428 930q-47 0 -80 28.5t-33 69.5q0 53 45.5 92t104.5 39q47 0 78.5 -27.5t31.5 -66.5q0 -53 -44.5 -94t-102.5 -41zM121 -262h-101l195 258q-32 9 -50 33t-18 55q0 52 44.5 91.5t105.5 39.5q46 0 77.5 -28t31.5 -70q0 -41 -49.5 -106t-235.5 -273z" />
    <glyph glyph-name="less" unicode="&#x3c;" horiz-adv-x="1230" 
d="M1006 428l-21 -119l-811 242l23 141l897 242l-21 -119l-731 -192z" />
    <glyph glyph-name="equal" unicode="=" horiz-adv-x="1249" 
d="M1094 768h-865l19 123h866zM1024 350h-868l20 123h866z" />
    <glyph glyph-name="greater" unicode="&#x3e;" horiz-adv-x="1228" 
d="M1057 551l-897 -242l18 119l733 195l-663 192l16 119l813 -242z" />
    <glyph glyph-name="question" unicode="?" horiz-adv-x="1296" 
d="M600 381h-149q-2 4 -2 35q0 61 14 110t37.5 87t71.5 78t97 72.5t134 82.5q52 31 87.5 54t88.5 65.5t86 81t57.5 91.5t24.5 107q0 118 -98.5 186t-241.5 68q-164 0 -299 -89t-162 -239q-6 -37 -4 -63l-141 22q5 58 6 70q32 186 216.5 308t412.5 122q129 0 235.5 -40
t174 -123t67.5 -195q0 -52 -17.5 -104t-42.5 -93.5t-66 -84.5t-75.5 -72.5t-83.5 -64t-77.5 -52t-69.5 -41.5q-44 -26 -68 -40.5t-59 -38.5t-54 -41.5t-41.5 -44t-33.5 -51.5t-19 -58t-8 -70zM481 -14q-49 0 -80.5 28t-31.5 70q0 51 44.5 91t102.5 40q47 0 79 -28t32 -68
q0 -51 -44.5 -92t-101.5 -41z" />
    <glyph glyph-name="at" unicode="@" horiz-adv-x="2357" 
d="M958 -195q-198 0 -358 50t-266.5 139.5t-163.5 212.5t-57 270q0 141 54 284.5t148.5 270t229 237.5t289 190.5t334.5 125t360 45.5q233 0 416.5 -73.5t293 -220.5t109.5 -347q0 -142 -57 -282.5t-149.5 -247.5t-218.5 -173.5t-257 -66.5q-134 0 -189.5 67.5t-19.5 168.5
q-109 -109 -245.5 -164t-264.5 -55q-156 0 -250 87.5t-94 227.5q0 112 64 229t164 207.5t231.5 148.5t257.5 58q128 0 215.5 -56t112.5 -155l73 184h121l-231 -596q-101 -254 92 -254q92 0 184 56.5t161 147t112 209.5t43 237q0 257 -187 407t-506 150q-162 0 -323 -41.5
t-297.5 -113.5t-254.5 -171.5t-201 -213t-130 -242t-47 -253.5q0 -265 196 -419t543 -154q189 0 368 45t323 129l55 -88q-173 -100 -380 -148.5t-403 -48.5zM1006 348q105 0 207.5 46.5t176.5 119.5t120 165t46 179q0 106 -64.5 164.5t-184.5 58.5q-106 0 -209.5 -46
t-177.5 -118t-120 -163.5t-46 -178.5q0 -108 65.5 -167.5t186.5 -59.5z" />
    <glyph glyph-name="A" unicode="A" horiz-adv-x="1804" 
d="M104 0h-167l1062 1597h172l500 -1597h-170q-60 183 -178 559h-844q-64 -95 -149.5 -223.5t-141 -211t-84.5 -124.5zM567 694h713q-147 477 -221 736h-4q-27 -40 -117 -175.5t-188.5 -283.5t-182.5 -277z" />
    <glyph glyph-name="B" unicode="B" horiz-adv-x="1751" 
d="M932 0h-768l282 1597h678q255 0 398 -101t143 -261q0 -145 -117 -263.5t-299 -156.5v-4q174 -27 261 -114t87 -214q0 -95 -51.5 -184t-139.5 -154.5t-212.5 -105t-261.5 -39.5zM475 868h502q231 0 374.5 96t143.5 234q0 124 -117.5 195t-312.5 71h-479
q-11 -61 -38 -207.5t-47.5 -256.5t-25.5 -132zM346 133h557q236 0 380 97t144 237q0 127 -118 199.5t-318 72.5h-536q-13 -73 -33.5 -184t-75.5 -422z" />
    <glyph glyph-name="C" unicode="C" horiz-adv-x="2064" 
d="M995 -35q-381 0 -608 188t-227 506q0 125 39.5 247.5t110 229.5t173 198.5t224.5 156.5t268.5 102t300.5 37q134 0 257.5 -29.5t227 -85.5t177 -146.5t98.5 -205.5l-154 -53q-53 180 -224.5 281.5t-404.5 101.5q-154 0 -297.5 -44.5t-255.5 -123t-196 -181t-129 -224
t-45 -246.5q0 -116 39 -212t105 -162t156.5 -111t191 -66t210.5 -21q151 0 286.5 39t238.5 107.5t180 153.5t129 184l135 -47q-66 -124 -161.5 -226t-220.5 -181t-285 -123t-339 -44z" />
    <glyph glyph-name="D" unicode="D" horiz-adv-x="1978" 
d="M856 0h-692l282 1597h670q393 0 589 -170t196 -475q0 -147 -47 -287.5t-138 -260.5t-216 -210.5t-291.5 -142t-352.5 -51.5zM346 133h545q187 0 347.5 66t267.5 175.5t167 251.5t60 294q0 275 -174.5 409.5t-497.5 134.5h-475q-29 -163 -62.5 -341t-71 -388t-106.5 -602z
" />
    <glyph glyph-name="E" unicode="E" horiz-adv-x="1613" 
d="M1391 0h-1227l282 1597h1203l-21 -133h-1042q-2 -13 -31 -163.5t-76 -411.5h994l-21 -137h-993q-10 -52 -113 -613h1067z" />
    <glyph glyph-name="F" unicode="F" horiz-adv-x="1529" 
d="M1624 1597l-22 -139h-1018l-105 -586h967l-21 -135h-968l-131 -737h-162l282 1597h1178z" />
    <glyph glyph-name="G" unicode="G" horiz-adv-x="2154" 
d="M977 -35q-374 0 -596.5 188t-222.5 504q0 150 55 295t157 266.5t238 214.5t308.5 145t357.5 52q135 0 259 -29.5t227 -86t176 -147t98 -204.5l-154 -53q-55 180 -226.5 281.5t-404.5 101.5q-153 0 -296 -44.5t-255 -123t-196 -181t-129 -224t-45 -246.5q0 -117 38.5 -213
t104.5 -162t155 -111t187.5 -65.5t204.5 -20.5q307 0 535 155.5t294 395.5h-680l21 127h840l-138 -780h-133q12 78 62 360h-13q-133 -188 -344.5 -291.5t-484.5 -103.5z" />
    <glyph glyph-name="H" unicode="H" horiz-adv-x="1986" 
d="M1618 872l129 725h160l-283 -1597h-160l129 737h-1138l-129 -737h-162l282 1597h162l-129 -725h1139z" />
    <glyph glyph-name="I" unicode="I" horiz-adv-x="686" 
d="M326 0h-162l282 1597h162z" />
    <glyph glyph-name="J" unicode="J" horiz-adv-x="1427" 
d="M549 -35q-74 0 -141.5 11.5t-131.5 37t-111.5 66t-82 97.5t-42 132.5t8.5 171.5l8 45l152 19l-6 -37q-13 -77 -8 -137t30 -105.5t60 -77t82 -51t96 -28.5t102 -9q77 0 142 19t109 46t80.5 72t56.5 82t37.5 91.5t24 84t15.5 76.5l180 1026h160l-174 -987
q-8 -44 -13.5 -73.5t-20 -85t-30.5 -95.5t-44 -94t-61 -92.5t-81 -79.5t-104.5 -66.5t-131.5 -42t-161 -16.5z" />
    <glyph glyph-name="K" unicode="K" horiz-adv-x="1624" 
d="M326 0h-162l282 1597h162q-35 -192 -89 -494t-66 -366h6q400 319 1122 860h193q-435 -332 -910 -700q325 -438 674 -897h-197q-55 71 -243 315t-367 473q-172 -129 -309 -237q-11 -58 -29 -169.5t-67 -381.5z" />
    <glyph glyph-name="L" unicode="L" horiz-adv-x="1445" 
d="M608 1597l-258 -1458h989l-22 -139h-1153l282 1597h162z" />
    <glyph glyph-name="M" unicode="M" horiz-adv-x="2471" 
d="M326 0h-162l282 1597h195q346 -901 524 -1396h4l1031 1396h194l-283 -1597h-161q38 215 113 625.5t122 685.5h-10q-86 -121 -156 -218t-167.5 -229.5t-155 -210t-220.5 -298t-262 -355.5h-155q-391 1031 -490 1311h-6q-31 -168 -73.5 -414t-163.5 -897z" />
    <glyph glyph-name="N" unicode="N" horiz-adv-x="2027" 
d="M326 0h-162l282 1597h177q630 -931 913 -1366h6q29 158 78 424t90 493t80 449h160l-283 -1597h-174q-46 67 -393 570.5t-529 777.5h-2q-15 -87 -102 -555.5t-141 -792.5z" />
    <glyph glyph-name="O" unicode="O" horiz-adv-x="2177" 
d="M985 -35q-239 0 -427.5 89.5t-294 250.5t-105.5 365q0 148 57.5 291.5t162.5 263t242.5 211t308 143t349.5 51.5q239 0 427.5 -89.5t294 -251t105.5 -365.5q0 -123 -41.5 -244.5t-115 -226.5t-178 -195.5t-227 -155t-266.5 -101t-292 -36.5zM1010 102q181 0 351.5 67.5
t294 178.5t198.5 258.5t75 300.5q0 168 -86.5 302t-240.5 209t-347 75q-178 0 -348 -67.5t-296 -177.5t-202.5 -258.5t-76.5 -303.5q0 -169 88 -303t242.5 -207.5t347.5 -73.5z" />
    <glyph glyph-name="P" unicode="P" horiz-adv-x="1636" 
d="M446 1597h668q20 0 37.5 -0.5t59 -4t76.5 -10.5t83 -21t86.5 -33t78.5 -50t67 -69.5t44 -92.5t17 -118q0 -111 -51.5 -214t-140 -180t-215.5 -123t-271 -46h-547l-112 -635h-162zM463 772h493q235 0 386 109.5t151 279.5q0 150 -113.5 226.5t-316.5 76.5h-479z" />
    <glyph glyph-name="Q" unicode="Q" horiz-adv-x="2183" 
d="M1862 -100l-127 -88q-185 218 -228 268q-252 -115 -518 -115q-241 0 -430.5 89.5t-295 251t-105.5 366.5q0 124 41.5 245.5t114.5 226.5t178 195t227.5 154t267 100.5t293.5 36.5q239 0 428 -89.5t295 -249.5t106 -361q0 -221 -125 -426.5t-342 -345.5q41 -46 112.5 -131
t107.5 -127zM1012 102q204 0 409 95q-46 55 -119 138t-186 216l125 86q64 -72 177 -205t138 -162q178 118 279.5 289.5t101.5 351.5q0 166 -86.5 299t-241 208t-349.5 75q-181 0 -353 -67.5t-298 -177.5t-202.5 -258.5t-76.5 -303.5q0 -132 54.5 -243t148 -185t217.5 -115
t262 -41z" />
    <glyph glyph-name="R" unicode="R" horiz-adv-x="1701" 
d="M326 0h-162l282 1597h668q92 0 172.5 -14.5t150 -45.5t119.5 -77.5t78.5 -113.5t28.5 -150q0 -100 -43.5 -195t-120 -170t-188 -125.5t-240.5 -62.5l-2 -2q25 -39 114.5 -175t154 -238.5t137.5 -227.5h-179l-403 637h-457q-14 -75 -20 -113t-10 -62t-24.5 -142
t-55.5 -320zM457 768h497q239 0 389 112t150 281q0 148 -113.5 225.5t-316.5 77.5h-477q-110 -593 -129 -696z" />
    <glyph glyph-name="S" unicode="S" horiz-adv-x="1576" 
d="M713 -35q-88 0 -169.5 15t-161 50t-141.5 87.5t-107 133.5t-60 183l157 49q17 -125 89 -213t178.5 -129t240.5 -41q220 0 373.5 103t153.5 246q0 48 -21.5 87t-47 62t-80 46t-84.5 32t-97 27q-8 2 -13 3.5t-11.5 3t-12.5 3.5l-170 45q-44 12 -78 22.5t-84.5 30t-88 40
t-78.5 51.5t-67 65.5t-43.5 81.5t-17.5 100q0 95 53.5 183t145 153.5t221 105t273.5 39.5q244 0 393 -105.5t178 -277.5l-152 -53q-30 138 -148.5 219.5t-303.5 81.5q-206 0 -347 -92.5t-141 -220.5q0 -38 15.5 -73t36 -59.5t57 -48t62.5 -37.5t70 -30t62.5 -21t55.5 -16
l176 -51q172 -46 239 -74q203 -86 225 -244q3 -21 3 -43q0 -99 -57 -193.5t-153.5 -166.5t-234 -116t-288.5 -44z" />
    <glyph glyph-name="T" unicode="T" horiz-adv-x="1548" 
d="M754 0h-160q26 153 39.5 227.5t25.5 139.5t63.5 352t133.5 745h-663l22 133h1483l-21 -133h-661q-29 -163 -47 -267t-28.5 -164.5t-56.5 -316t-130 -716.5z" />
    <glyph glyph-name="U" unicode="U" horiz-adv-x="1853" 
d="M819 -35q-322 0 -474.5 161t-98.5 454l180 1017h162l-180 -1009q-43 -243 71 -365.5t365 -122.5t410.5 124.5t201.5 363.5l180 1009h162l-184 -1017q-19 -105 -60 -196.5t-108.5 -169t-157 -132.5t-209 -86t-260.5 -31z" />
    <glyph glyph-name="V" unicode="V" horiz-adv-x="1806" 
d="M889 0h-174l-498 1597h170q81 -250 245.5 -784t198.5 -643h5q94 140 436 661.5t510 765.5h170z" />
    <glyph glyph-name="W" unicode="W" horiz-adv-x="2785" 
d="M762 0h-193l-340 1597h170q14 -61 50 -222.5t52.5 -236t48 -218.5t52 -242.5t47 -229.5t49.5 -253h4q706 1259 785 1402h178q258 -1255 287 -1402h6q497 891 797 1402h170l-906 -1597h-192q-150 674 -279 1386h-4q-34 -61 -180.5 -326t-204 -369t-173.5 -306.5
t-224 -384.5z" />
    <glyph glyph-name="X" unicode="X" horiz-adv-x="1585" 
d="M119 0h-187q120 120 390.5 393t422.5 422v6q-164 247 -512 776h183q44 -64 127 -196.5t315 -466.5h4q387 387 678 663h182q-100 -97 -194.5 -195.5t-225 -227.5t-368.5 -353v-6q99 -148 272 -424.5t248 -390.5h-182q-81 125 -230.5 360t-218.5 342h-4
q-469 -469 -700 -702z" />
    <glyph glyph-name="Y" unicode="Y" horiz-adv-x="1683" 
d="M821 0h-157q63 362 104 586q-58 109 -160 289t-192.5 350t-186.5 372h174q190 -358 465 -872h4q88 97 144 163.5t89.5 107.5t169.5 191.5t378 409.5h170q-797 -901 -895 -1011q-25 -141 -107 -586z" />
    <glyph glyph-name="Z" unicode="Z" horiz-adv-x="1607" 
d="M1434 0h-1465l25 143q293 261 1483 1317v4h-1198l22 133h1395l-25 -139q-333 -295 -1487 -1315v-4h1272z" />
    <glyph glyph-name="bracketleft" unicode="[" horiz-adv-x="786" 
d="M571 -336h-487l340 1933h487l-18 -122h-338l-299 -1680h336z" />
    <glyph glyph-name="backslash" unicode="\" horiz-adv-x="1013" 
d="M793 -135h-148l-354 1773h145z" />
    <glyph glyph-name="bracketright" unicode="]" horiz-adv-x="788" 
d="M389 -336h-487l18 131h338l301 1680h-338l21 122h487z" />
    <glyph glyph-name="asciicircum" unicode="^" horiz-adv-x="1036" 
d="M373 1049h-142l398 548h153l203 -548h-141l-154 438h-6z" />
    <glyph glyph-name="underscore" unicode="_" horiz-adv-x="1220" 
d="M1049 -225h-1145l18 116h1145z" />
    <glyph glyph-name="a" unicode="a" horiz-adv-x="1406" 
d="M440 -35q-177 0 -279 67.5t-102 192.5q0 283 557 381q34 6 85 14t85.5 13t79 14t74 18.5t61 24.5t49.5 33t30 44t12 58q0 93 -85.5 156t-226.5 63q-138 0 -250.5 -63.5t-171.5 -173.5l-139 47q83 153 246.5 231t345.5 78q74 0 141 -13t127 -42.5t101 -72.5t59 -107
t4 -142l-78 -432q-10 -59 -14.5 -92.5t-8.5 -82t-2.5 -91.5t7.5 -88h-152q-15 113 9 236h-7q-91 -124 -231.5 -197.5t-325.5 -73.5zM477 78q107 0 207 37t169.5 93.5t115.5 121.5t57 123l29 153q-67 -39 -128 -55.5t-214 -40.5q-47 -8 -81 -14t-89 -18.5t-94.5 -26t-85 -35
t-74 -45.5t-47.5 -57.5t-19 -71.5q0 -75 68 -119.5t186 -44.5z" />
    <glyph glyph-name="b" unicode="b" horiz-adv-x="1640" 
d="M795 -35q-170 0 -296.5 69.5t-181.5 194.5h-6l-41 -229h-145l289 1638h149l-131 -745q107 133 259.5 201.5t318.5 68.5q239 0 383.5 -135.5t144.5 -357.5q0 -134 -58 -262.5t-156 -226t-237 -157t-292 -59.5zM793 92q118 0 227.5 46.5t187 123t124 178t46.5 207.5
q0 173 -114.5 281t-298.5 108q-120 0 -231.5 -46.5t-192 -122.5t-128.5 -177.5t-48 -208.5q0 -175 120.5 -282t307.5 -107z" />
    <glyph glyph-name="c" unicode="c" horiz-adv-x="1486" 
d="M682 -35q-267 0 -423.5 134.5t-156.5 363.5q0 109 37.5 213t108.5 191.5t166.5 154t218.5 104t258 37.5q89 0 169 -17.5t152 -54t126 -100.5t79 -149l-155 -51q-32 117 -136.5 181t-257.5 64q-129 0 -243 -47.5t-191.5 -125t-122.5 -178t-45 -206.5q0 -179 119 -283
t322 -104q179 0 320 80.5t228 212.5l131 -45q-111 -182 -299.5 -278.5t-404.5 -96.5z" />
    <glyph glyph-name="d" unicode="d" horiz-adv-x="1644" 
d="M637 -35q-241 0 -388 135.5t-147 358.5q0 135 58.5 263.5t157.5 225.5t239 156t293 59q164 0 289 -67t184 -191h4l133 733h150l-228 -1284q-22 -130 -25 -211t9 -143h-154q-12 122 7 227h-5q-102 -126 -256 -194t-321 -68zM680 92q119 0 230.5 46.5t191.5 123t128 178
t48 207.5q0 176 -121 282.5t-307 106.5q-120 0 -229 -47t-186.5 -124t-123 -178.5t-45.5 -207.5q0 -173 114 -280t300 -107z" />
    <glyph glyph-name="e" unicode="e" horiz-adv-x="1306" 
d="M565 -35q-220 0 -351.5 129t-131.5 344q0 144 55 277.5t147.5 232t221 157t268.5 58.5q50 0 97.5 -7.5t98.5 -25t92.5 -47t78 -73t55.5 -102.5t25.5 -136t-13.5 -174l-12 -72h-960q-32 -201 67 -319.5t287 -118.5q149 0 269.5 80t197.5 209l121 -45q-96 -172 -260 -269.5
t-353 -97.5zM264 655h805q17 103 -4.5 181t-71.5 121t-111 64t-132 21q-166 0 -298 -107t-188 -280z" />
    <glyph glyph-name="f" unicode="f" horiz-adv-x="847" 
d="M328 0h-150l180 1010h-204l20 120h203l26 150q13 72 29 124t47 106t74.5 87.5t112 54.5t159.5 21q146 0 246 -53l-20 -127q-108 59 -224 59q-64 0 -109.5 -14t-71 -33.5t-43.5 -56.5t-25.5 -67t-17.5 -82q-2 -11 -3 -17l-31 -152h406l-21 -120h-403z" />
    <glyph glyph-name="g" unicode="g" horiz-adv-x="1640" 
d="M606 -483q-461 0 -545 329l146 45q27 -118 131.5 -185.5t284.5 -67.5q101 0 189 26t166 81t133.5 151t80.5 227l25 139h-5q-103 -127 -252 -193.5t-315 -66.5q-154 0 -275.5 57.5t-192.5 168.5t-71 259q0 105 37.5 206t106.5 185t160 148.5t204.5 100.5t233.5 36
q166 0 293.5 -69t183.5 -197h6l41 233h146l-172 -991q-110 -622 -740 -622zM684 129q117 0 227.5 45.5t190.5 119t129 171t49 197.5q0 166 -122 270t-308 104q-117 0 -224.5 -44.5t-184.5 -117.5t-123 -169t-46 -197q0 -168 114.5 -273.5t297.5 -105.5z" />
    <glyph glyph-name="h" unicode="h" horiz-adv-x="1554" 
d="M274 0h-149l289 1638h149l-129 -725h4q199 250 523 250q63 0 119.5 -10t110 -32.5t92.5 -58t67 -86t34.5 -117t-6.5 -150.5l-125 -709h-149l115 647q18 102 -1 179.5t-66 122t-109 66t-136 21.5q-105 0 -198 -35t-158.5 -92.5t-108.5 -129.5t-57 -148z" />
    <glyph glyph-name="i" unicode="i" horiz-adv-x="595" 
d="M449 1413q-48 0 -80.5 28t-32.5 70q0 53 46 92t107 39q46 0 78.5 -27.5t32.5 -68.5q0 -53 -45.5 -93t-105.5 -40zM274 0h-149l199 1130h149z" />
    <glyph glyph-name="j" unicode="j" horiz-adv-x="595" 
d="M453 1413q-49 0 -81 27.5t-32 70.5q0 52 46 91.5t106 39.5q47 0 78.5 -27.5t31.5 -68.5q0 -53 -44.5 -93t-104.5 -40zM-184 -483q-149 0 -248 55l22 129q105 -61 217 -61q72 0 127.5 25t86.5 60.5t53.5 87.5t31.5 90.5t18 86.5q1 5 1 8l199 1132h149l-201 -1144
q-28 -152 -60 -226q-105 -243 -396 -243z" />
    <glyph glyph-name="k" unicode="k" horiz-adv-x="1265" 
d="M1114 1130h186l-589 -444l481 -686h-174l-430 594l-240 -182l-74 -412h-149l289 1638h149l-186 -1054h4q116 87 359 267t374 279z" />
    <glyph glyph-name="l" unicode="l" horiz-adv-x="595" 
d="M274 0h-149l289 1638h149z" />
    <glyph glyph-name="m" unicode="m" horiz-adv-x="2482" 
d="M274 0h-149l199 1130h145l-39 -217h4q98 125 236.5 187.5t285.5 62.5q70 0 133 -14.5t121 -45t97 -86.5t49 -132h6q218 278 543 278q60 0 114.5 -10t106.5 -32.5t90 -58t65.5 -86t33.5 -117t-7 -150.5l-125 -709h-151l116 647q16 85 5 150t-37.5 110t-70 74t-92.5 42
t-106 13q-100 0 -190 -35t-154 -92.5t-107 -129.5t-57 -148l-110 -631h-150l115 647q16 107 0 181t-63.5 120.5t-106.5 67t-131 20.5q-99 0 -189 -35t-154.5 -92.5t-107.5 -129.5t-57 -148z" />
    <glyph glyph-name="n" unicode="n" horiz-adv-x="1554" 
d="M274 0h-149l199 1130h145l-39 -217h4q99 126 237 188t292 62q78 0 145 -15t126 -47.5t95 -85.5t52.5 -129t-3.5 -177l-125 -709h-149l115 647q16 85 5 149.5t-38.5 110t-72.5 74t-97.5 42t-112.5 13.5q-104 0 -196 -35t-157 -92.5t-108 -129.5t-57 -148z" />
    <glyph glyph-name="o" unicode="o" horiz-adv-x="1579" 
d="M684 -35q-266 0 -424 135.5t-158 364.5q0 134 59.5 260t162 223t252.5 156t319 59q265 0 423.5 -136t158.5 -363q0 -134 -59 -260.5t-161.5 -223.5t-252.5 -156t-320 -59zM705 92q130 0 245 47t193.5 124t124 178t45.5 208q0 177 -118.5 282t-317.5 105
q-130 0 -245.5 -47t-194.5 -124.5t-125 -178.5t-46 -207q0 -177 119 -282t320 -105z" />
    <glyph glyph-name="p" unicode="p" horiz-adv-x="1640" 
d="M195 -451h-150l279 1581h145l-43 -237h6q106 133 260 201.5t318 68.5q238 0 383 -135t145 -356q0 -136 -58.5 -265t-157 -226.5t-237.5 -156.5t-292 -59q-167 0 -294 69.5t-184 194.5zM793 92q119 0 228 47t186 123.5t123 177.5t46 207q0 175 -113 282t-298 107
q-121 0 -232.5 -46.5t-191.5 -123t-128 -178t-48 -207.5q0 -173 120 -281t308 -108z" />
    <glyph glyph-name="q" unicode="q" horiz-adv-x="1640" 
d="M1241 -451h-149l118 684q-104 -130 -256 -199t-321 -69q-238 0 -384.5 136.5t-146.5 357.5q0 135 58.5 263.5t157.5 225.5t239 156t293 59q165 0 291.5 -69t183.5 -197h6l41 233h146zM678 92q121 0 232.5 46.5t191.5 123t128 178t48 207.5q0 176 -120.5 282.5
t-307.5 106.5q-120 0 -229 -47t-186.5 -124t-123 -178.5t-45.5 -207.5q0 -173 114 -280t298 -107z" />
    <glyph glyph-name="r" unicode="r" horiz-adv-x="1001" 
d="M274 0h-149l199 1130h145l-45 -233h10q74 118 210 192t284 74q86 0 151 -22l-24 -150q-69 27 -168 27q-101 0 -191.5 -41t-155.5 -108t-108 -150t-59 -170z" />
    <glyph glyph-name="s" unicode="s" horiz-adv-x="1202" 
d="M526 -35q-194 0 -330 87.5t-167 230.5l145 41q36 -109 141 -174.5t240 -65.5q143 0 247.5 67.5t104.5 161.5q0 17 -3 32t-12 28t-16 23.5t-23.5 20.5t-25.5 16.5t-32.5 14t-33 11.5t-37.5 11t-37 9.5t-40 9.5l-121 31q-35 9 -51 13t-58.5 18.5t-66.5 27t-59 36t-54.5 49
t-34 62.5t-14.5 79q0 96 66.5 178.5t181 131t248.5 48.5q171 0 289 -77.5t145 -198.5l-153 -45q-22 86 -102.5 144t-207.5 58q-131 0 -221 -60.5t-90 -145.5q0 -31 12 -58t37.5 -47.5t49 -35t62.5 -28t61 -20t61 -16.5l125 -31q42 -10 66.5 -17t68 -22t70.5 -33t55.5 -44
t42.5 -62t14 -80q0 -71 -41 -139.5t-111.5 -121.5t-173 -85.5t-217.5 -32.5z" />
    <glyph glyph-name="t" unicode="t" horiz-adv-x="905" 
d="M504 -35q-65 0 -114 14.5t-78.5 36t-47.5 56t-24 64.5t-5 72t4.5 68.5t10.5 63.5l121 668h-271l19 122h270l57 336h154l-59 -336h417l-18 -122h-420l-114 -629q-5 -29 -7.5 -42.5t-6.5 -43t-3.5 -45t2.5 -40.5t8.5 -38.5t18.5 -31t29 -26.5t42.5 -15.5t57.5 -6.5
q107 0 237 62l-22 -132q-110 -55 -258 -55z" />
    <glyph glyph-name="u" unicode="u" horiz-adv-x="1531" 
d="M586 -35q-62 0 -118 10t-108 32.5t-90.5 58t-66 86t-33 118t7.5 152.5l125 708h150l-117 -655q-11 -73 -7.5 -130t25 -99.5t50.5 -72t69 -47.5t81.5 -26t86.5 -8q101 0 191.5 36t153 94t103.5 128t54 142l114 638h150l-137 -776q-40 -210 -17 -354h-153q-13 126 4 209h-6
q-194 -244 -512 -244z" />
    <glyph glyph-name="v" unicode="v" horiz-adv-x="1320" 
d="M643 0h-160l-344 1130h164q48 -158 145 -487t142 -477h4l627 964h161z" />
    <glyph glyph-name="w" unicode="w" horiz-adv-x="2220" 
d="M598 0h-156l-299 1130h166l244 -944h6l578 944h153l248 -944h4l572 944h165l-694 -1130h-158q-146 545 -239 954h-6q-263 -446 -584 -954z" />
    <glyph glyph-name="x" unicode="x" horiz-adv-x="1243" 
d="M106 0h-167q53 51 97 94.5t76.5 75.5t137.5 133t278 266v2q-32 47 -391 559h174l326 -464h6q41 39 195.5 184t296.5 280h172q-31 -30 -239.5 -226.5t-348.5 -332.5v-2q153 -230 389 -569h-166q-193 277 -332 475h-4q-63 -61 -234 -221t-266 -254z" />
    <glyph glyph-name="y" unicode="y" horiz-adv-x="1323" 
d="M344 -451h-141l284 435l-348 1146h164q4 -12 287 -966h6q56 86 280.5 434.5t346.5 531.5h163z" />
    <glyph glyph-name="z" unicode="z" horiz-adv-x="1181" 
d="M1028 0h-1057l17 106l958 898h-749l18 126h956l-16 -106l-965 -897h854z" />
    <glyph glyph-name="braceleft" unicode="{" horiz-adv-x="886" 
d="M688 -305h-90q-268 0 -363.5 106t-56.5 334l29 170q13 74 16 120t-1 77t-22 45t-41 19t-65 5l27 150h31.5t27.5 1.5t25.5 5t21.5 10t21 16t18 24t17.5 34l15 45t15.5 58t14 72.5l28 170q13 76 32.5 133.5t61.5 118t101.5 99.5t157 64t225.5 25h90l-18 -122h-84
q-178 0 -277 -65t-129 -222l-37 -197q-32 -169 -78.5 -244t-134.5 -100v-4q53 -14 77.5 -46.5t30.5 -104.5t-18 -191l-37 -199q-14 -61 -5.5 -113t37.5 -90t97.5 -59.5t174.5 -21.5h84z" />
    <glyph glyph-name="bar" unicode="|" horiz-adv-x="630" 
d="M211 -451h-148l369 2089h148z" />
    <glyph glyph-name="braceright" unicode="}" horiz-adv-x="886" 
d="M-16 -305h-90l18 123h84q186 0 282.5 67.5t124.5 216.5l35 199q29 162 75 240t138 102l2 4q-52 15 -77 46.5t-32 104.5t17 193l35 197q6 34 8 61.5t-1.5 58.5t-15 54t-34.5 45t-56.5 36.5t-85 23t-116.5 8.5h-84l18 122h90q266 0 365 -106t57 -334l-30 -170
q-10 -55 -14.5 -95t-5.5 -69.5t6.5 -48t15.5 -29.5t27 -16t36 -6.5t47 -1.5l-24 -150q-51 0 -79 -7.5t-53 -36.5t-41 -79.5t-34 -142.5l-33 -170q-15 -78 -35 -135.5t-62 -118t-101 -99t-155 -63t-222 -24.5z" />
    <glyph glyph-name="asciitilde" unicode="~" horiz-adv-x="1273" 
d="M831 569q-51 0 -93.5 14.5t-71 35t-55 41t-58.5 35t-68 14.5q-65 0 -105 -39.5t-50 -98.5h-137q22 123 114.5 190.5t204.5 67.5q50 0 91 -14.5t69.5 -34.5t54 -40.5t57 -35t66.5 -14.5q61 0 97.5 38.5t47.5 98.5h135q-22 -127 -105.5 -192.5t-193.5 -65.5z" />
    <glyph glyph-name="uni00A0" unicode="&#xa0;" horiz-adv-x="651" 
 />
    <glyph glyph-name="exclamdown" unicode="&#xa1;" horiz-adv-x="587" 
d="M362 934q-47 0 -79.5 28t-32.5 68q0 51 46.5 92t106.5 41q46 0 76.5 -28.5t30.5 -69.5q0 -52 -44.5 -91.5t-103.5 -39.5zM207 -446h-182l18 102l244 1100h90l-152 -1100z" />
    <glyph glyph-name="cent" unicode="&#xa2;" horiz-adv-x="1370" 
d="M858 1118l-137 -774q133 9 241 72.5t171 163.5l110 -39q-87 -138 -230 -216.5t-311 -86.5l-43 -238h-106l43 242q-188 17 -298 124.5t-110 280.5q0 139 72.5 265t207 211t300.5 100l43 243h109l-43 -241q142 -6 247.5 -70.5t143.5 -189.5l-127 -41q-21 84 -97.5 135
t-185.5 59zM326 664q0 -131 77.5 -214t210.5 -102l136 768q-185 -24 -304.5 -155.5t-119.5 -296.5z" />
    <glyph glyph-name="sterling" unicode="&#xa3;" horiz-adv-x="1460" 
d="M901 1499q-164 0 -273.5 -81.5t-109.5 -205.5q0 -51 21 -103.5t46 -89.5t65 -92t61 -89h518l-19 -105h-452q12 -43 12 -92q0 -142 -125 -280t-336 -228h973l-20 -133h-1231l18 135q256 77 405.5 207t149.5 268q0 60 -29 123h-380l18 105h301q-6 8 -36.5 51t-40 57.5
t-32 53t-30.5 63.5t-16.5 62t-8.5 73q0 182 163 307t411 125q67 0 130 -10t131 -37t119.5 -69t89 -113t46.5 -162l-150 -53q-12 71 -40.5 126t-65.5 89.5t-85.5 57t-96.5 31.5t-101 9z" />
    <glyph glyph-name="currency" unicode="&#xa4;" horiz-adv-x="1617" 
d="M1319 885q0 -187 -154 -322l267 -321l-117 -82l-271 325q-120 -57 -262 -57t-239 57l-383 -325l-90 82l381 325q-60 78 -60 193q0 87 39.5 170.5t110.5 146.5l-267 324l117 84l273 -324q119 58 262 58q142 0 241 -58l381 324l92 -84l-380 -322q59 -80 59 -194zM535 778
q0 -109 72 -174t196 -65q157 0 266 97.5t109 233.5q0 110 -73 174t-196 64q-156 0 -265 -97t-109 -233z" />
    <glyph glyph-name="yen" unicode="&#xa5;" horiz-adv-x="1744" 
d="M850 0h-162l49 274h-444l16 117h449l35 191h-445l19 116h381l-488 899h172l463 -860h4q57 62 210 239t566 621h170l-807 -899h385l-18 -116h-451l-39 -191h451l-16 -117h-451z" />
    <glyph glyph-name="brokenbar" unicode="&#xa6;" horiz-adv-x="630" 
d="M438 838h-147l141 800h148zM211 -451h-148l140 793h147z" />
    <glyph glyph-name="section" unicode="&#xa7;" horiz-adv-x="1306" 
d="M516 -301q-199 0 -338 95.5t-166 244.5l144 39q34 -117 141 -190.5t246 -73.5q136 0 237 67t101 160q0 31 -14 56t-29 40t-54 32t-58 23t-72 22q-15 5 -23 7l-119 37q-47 14 -83 27t-84 38t-80 53t-54.5 71.5t-22.5 93.5q0 102 81 188.5t220 120.5v4q-79 35 -130.5 93.5
t-51.5 142.5q0 146 145 251t365 105q78 0 145.5 -16t126 -50t97.5 -94.5t51 -142.5l-152 -41q-24 118 -93 173.5t-199 55.5q-145 0 -238.5 -60t-93.5 -149q0 -45 24 -80t66.5 -58t81.5 -37.5t88 -28.5l12 -3l144 -43q31 -9 52 -15t54 -18.5t55.5 -25t48.5 -32t41.5 -41
t26 -50.5t10.5 -63q0 -103 -86.5 -196.5t-218.5 -133.5l-4 -4q191 -72 191 -219q0 -146 -155.5 -260.5t-375.5 -114.5zM606 371l62 -17q153 9 245.5 78.5t92.5 157.5q0 31 -12.5 56t-32 41t-50 29.5t-58.5 22t-66 18.5q-6 1 -9.5 2t-8.5 2.5t-9 2.5l-94 24q-73 20 -150 -6
t-126.5 -83t-49.5 -121q0 -37 19.5 -69.5t45.5 -53t66.5 -38.5t69 -27t65.5 -19z" />
    <glyph glyph-name="copyright" unicode="&#xa9;" horiz-adv-x="2330" 
d="M1061 -35q-256 0 -452.5 88.5t-304 249t-107.5 369.5q0 187 90.5 362.5t244 306.5t370 210t454.5 79q256 0 452.5 -87.5t304 -247.5t107.5 -369q0 -187 -90.5 -363t-244 -307.5t-370 -211t-454.5 -79.5zM1081 80q208 0 396.5 68.5t321.5 182t211.5 265.5t78.5 313
q0 273 -207.5 441t-542.5 168q-208 0 -396.5 -68.5t-321.5 -182t-211 -264.5t-78 -313q0 -276 206 -443t543 -167zM1139 350q-200 0 -318.5 101.5t-118.5 273.5q0 101 44.5 195.5t122 167t189.5 116t238 43.5q160 0 266.5 -67.5t135.5 -190.5l-137 -41q-20 91 -95.5 141
t-187.5 50q-95 0 -177 -35.5t-136.5 -93t-85.5 -129.5t-31 -146q0 -130 86.5 -202t228.5 -72q126 0 231 59t173 166l114 -33q-81 -144 -224 -223.5t-318 -79.5z" />
    <glyph glyph-name="guillemotleft" unicode="&#xab;" horiz-adv-x="1363" 
d="M649 164h-176l-334 405l2 9l480 405h174l-480 -405l-2 -9zM1122 164h-174l-338 405l4 9l480 405h176l-482 -405l-2 -9z" />
    <glyph glyph-name="logicalnot" unicode="&#xac;" horiz-adv-x="1241" 
d="M997 254h-141l55 315h-723l21 123h862z" />
    <glyph glyph-name="registered" unicode="&#xae;" horiz-adv-x="1404" 
d="M731 739q-207 0 -335 105t-128 274q0 134 81.5 252.5t226 191t315.5 72.5q205 0 335 -105t130 -276q0 -99 -48.5 -192.5t-131 -164.5t-199.5 -114t-246 -43zM748 817q109 0 206.5 36.5t164 96t105 136.5t38.5 157q0 140 -106 226.5t-279 86.5q-215 0 -366 -127.5
t-151 -298.5q0 -141 107 -227t281 -86zM672 944h-90l86 494h215q84 0 132 -34t48 -93q0 -60 -45 -109.5t-117 -66.5l123 -191h-104l-115 182h-100zM745 1364l-26 -164h121q58 0 93.5 26t35.5 66q0 37 -29 54.5t-78 17.5h-117z" />
    <glyph glyph-name="degree" unicode="&#xb0;" horiz-adv-x="935" 
d="M551 1055q-135 0 -219 70t-84 182q0 136 119.5 239t287.5 103q134 0 218.5 -71t84.5 -183q0 -134 -120.5 -237t-286.5 -103zM567 1149q111 0 192 71t81 164q0 75 -55.5 122.5t-143.5 47.5q-112 0 -192 -71t-80 -164q0 -75 54.5 -122.5t143.5 -47.5z" />
    <glyph glyph-name="plusminus" unicode="&#xb1;" horiz-adv-x="1247" 
d="M1098 782l-19 -118h-366l-37 -211h366l-18 -115h-872l18 115h365l36 211h-364l18 118h367l41 246h141l-43 -246h367z" />
    <glyph glyph-name="uni00B2" unicode="&#xb2;" horiz-adv-x="753" 
d="M709 803h-568l4 12q32 118 92.5 177.5t239.5 152.5q99 53 139 90q50 48 50 94q0 41 -37 67.5t-97 26.5q-79 0 -139.5 -45t-73.5 -118l-110 16q19 110 115.5 180t224.5 70q109 0 177.5 -49.5t68.5 -133.5q0 -139 -203 -241q-30 -16 -74.5 -38.5t-68 -35t-51.5 -31.5
t-46.5 -40t-32.5 -48h404z" />
    <glyph glyph-name="uni00B3" unicode="&#xb3;" horiz-adv-x="768" 
d="M418 788q-112 0 -188.5 45t-90.5 117l115 49q33 -114 178 -114q81 0 137 39.5t56 95.5q0 51 -44.5 76.5t-121.5 25.5h-82l10 82h90q78 0 131.5 37t53.5 92q0 42 -39.5 68t-100.5 26q-68 0 -119 -31.5t-71 -88.5l-109 22q29 87 121.5 142t204.5 55q101 0 170 -44t69 -118
q0 -63 -49 -118t-121 -70q61 -11 99.5 -49.5t38.5 -92.5q0 -99 -100 -172.5t-238 -73.5z" />
    <glyph glyph-name="paragraph" unicode="&#xb6;" horiz-adv-x="1736" 
d="M948 -287h-160l166 942h-280q-227 0 -360.5 109t-133.5 295q0 108 50.5 206t140.5 171.5t224 117t292 43.5h393zM1298 -287h-159l331 1884h160z" />
    <glyph glyph-name="periodcentered" unicode="&#xb7;" horiz-adv-x="655" 
d="M340 477q-58 0 -96.5 35t-38.5 86q0 63 54.5 111.5t127.5 48.5q57 0 95 -33t38 -84q0 -62 -54.5 -113t-125.5 -51z" />
    <glyph glyph-name="uni00B9" unicode="&#xb9;" horiz-adv-x="524" 
d="M406 803h-123l90 516q-88 -68 -199 -84l21 113q85 21 145.5 65t69.5 98h116z" />
    <glyph glyph-name="guillemotright" unicode="&#xbb;" horiz-adv-x="1363" 
d="M274 164h-176l480 405l2 9l-336 405h176l336 -405l-2 -9zM748 164h-177l482 405l2 9l-336 405h174l338 -405l-4 -9z" />
    <glyph glyph-name="onequarter" unicode="&#xbc;" horiz-adv-x="1568" 
d="M406 803h-123l90 516q-88 -68 -199 -84l21 113q85 21 145.5 65t69.5 98h116zM-6 0h-146l1625 1468h137zM1276 -14h-119l29 157h-416l16 97l498 454h117l-80 -456h117l-17 -95h-114zM1255 545l-348 -307h295z" />
    <glyph glyph-name="onehalf" unicode="&#xbd;" horiz-adv-x="1613" 
d="M406 803h-123l90 516q-88 -68 -199 -84l21 113q85 21 145.5 65t69.5 98h116zM-6 0h-146l1625 1468h137zM1425 -14h-567l4 12q32 118 92.5 177.5t239.5 152.5q101 54 141 93q47 46 47 91q0 42 -36.5 68t-96.5 26q-79 0 -139.5 -45.5t-73.5 -118.5l-110 17
q19 110 115.5 180t224.5 70q109 0 177 -49.5t68 -133.5q0 -43 -20 -83t-54 -70.5t-64 -50.5t-64 -37q-30 -16 -74.5 -38.5t-68 -35t-51.5 -31.5t-46.5 -40t-32.5 -48h404z" />
    <glyph glyph-name="threequarters" unicode="&#xbe;" horiz-adv-x="1812" 
d="M418 788q-112 0 -188.5 45t-90.5 117l115 49q33 -114 178 -114q81 0 137 39.5t56 95.5q0 51 -44.5 76.5t-121.5 25.5h-82l10 82h90q78 0 131.5 37t53.5 92q0 42 -39.5 68t-100.5 26q-68 0 -119 -31.5t-71 -88.5l-109 22q29 87 121.5 142t204.5 55q101 0 170 -44t69 -118
q0 -63 -49 -118t-121 -70q61 -11 99.5 -49.5t38.5 -92.5q0 -99 -100 -172.5t-238 -73.5zM238 0h-146l1624 1468h137zM1520 -14h-119l29 157h-416l16 97l498 454h117l-80 -456h116l-16 -95h-115zM1499 545l-348 -307h295z" />
    <glyph glyph-name="questiondown" unicode="&#xbf;" horiz-adv-x="1269" 
d="M772 934q-47 0 -80 28t-33 68q0 52 46.5 92.5t103.5 40.5q47 0 80 -28.5t33 -71.5q0 -51 -45 -90t-105 -39zM453 -481q-129 0 -236 40.5t-174.5 123.5t-67.5 194q0 54 18 107t43.5 94t68.5 85.5t75.5 72.5t84.5 63.5t76 50t67 39.5q49 28 74.5 43.5t62 41t55 44t40 46.5
t31 56.5t15.5 66t4 81.5h150q2 -60 -5 -107.5t-28 -88.5t-45.5 -72t-70.5 -66t-89 -62t-113 -67q-49 -28 -86 -52.5t-90 -66.5t-87.5 -82t-59.5 -94t-25 -108q0 -117 98.5 -185.5t243.5 -68.5q84 0 166 26.5t149.5 75t109 124.5t42.5 167l135 -25q-2 -111 -57 -206
t-143.5 -157.5t-201 -98t-230.5 -35.5z" />
    <glyph glyph-name="Agrave" unicode="&#xc0;" horiz-adv-x="1804" 
d="M1210 1720h-139l-352 324h233zM104 0h-167l1062 1597h172l500 -1597h-170q-60 183 -178 559h-844q-64 -95 -149.5 -223.5t-141 -211t-84.5 -124.5zM567 694h713q-147 477 -221 736h-4q-27 -40 -117 -175.5t-188.5 -283.5t-182.5 -277z" />
    <glyph glyph-name="Aacute" unicode="&#xc1;" horiz-adv-x="1804" 
d="M1612 2044l-463 -324h-139l372 324h230zM104 0h-167l1062 1597h172l500 -1597h-170q-60 183 -178 559h-844q-64 -95 -149.5 -223.5t-141 -211t-84.5 -124.5zM567 694h713q-147 477 -221 736h-4q-27 -40 -117 -175.5t-188.5 -283.5t-182.5 -277z" />
    <glyph glyph-name="Acircumflex" unicode="&#xc2;" horiz-adv-x="1804" 
d="M1257 2028l267 -308h-140q-133 116 -237 217q-20 -15 -53 -38.5t-48.5 -34.5t-46.5 -32.5t-71 -47.5t-99 -64h-141l373 308h196zM104 0h-167l1062 1597h172l500 -1597h-170q-60 183 -178 559h-844q-64 -95 -149.5 -223.5t-141 -211t-84.5 -124.5zM567 694h713
q-147 477 -221 736h-4q-27 -40 -117 -175.5t-188.5 -283.5t-182.5 -277z" />
    <glyph glyph-name="Atilde" unicode="&#xc3;" horiz-adv-x="1804" 
d="M1311 1747q-32 0 -57 5t-49.5 18.5t-35.5 21.5t-39 29l-40 32q-46 37 -70 45q-20 7 -43 7q-57 0 -99.5 -40.5t-54.5 -101.5h-116q22 110 103.5 180t188.5 70q53 0 89.5 -17t76.5 -50l45 -37q68 -54 125 -54q56 0 96 40.5t52 103.5h116q-20 -116 -96.5 -184t-191.5 -68z
M104 0h-167l1062 1597h172l500 -1597h-170q-60 183 -178 559h-844q-64 -95 -149.5 -223.5t-141 -211t-84.5 -124.5zM567 694h713q-147 477 -221 736h-4q-27 -40 -117 -175.5t-188.5 -283.5t-182.5 -277z" />
    <glyph glyph-name="Adieresis" unicode="&#xc4;" horiz-adv-x="1804" 
d="M885 1784q-46 0 -77.5 26.5t-31.5 67.5q0 49 43.5 87t100.5 38q45 0 74.5 -26.5t29.5 -63.5q0 -51 -42 -90t-97 -39zM1354 1784q-47 0 -78 26.5t-31 65.5q0 52 43 89.5t101 37.5q44 0 75 -27t31 -65q0 -50 -43 -88.5t-98 -38.5zM104 0h-167l1062 1597h172l500 -1597h-170
q-60 183 -178 559h-844q-64 -95 -149.5 -223.5t-141 -211t-84.5 -124.5zM567 694h713q-147 477 -221 736h-4q-27 -40 -117 -175.5t-188.5 -283.5t-182.5 -277z" />
    <glyph glyph-name="Aring" unicode="&#xc5;" horiz-adv-x="1804" 
d="M1106 1714q-103 0 -168.5 53t-65.5 136q0 101 92 176t220 75q103 0 167 -52.5t64 -135.5q0 -101 -90 -176.5t-219 -75.5zM1122 1810q75 0 129 43t54 103q0 46 -39.5 73t-98.5 27q-78 0 -130 -41.5t-52 -101.5q0 -48 38.5 -75.5t98.5 -27.5zM104 0h-167l1062 1597h172
l500 -1597h-170q-60 183 -178 559h-844q-64 -95 -149.5 -223.5t-141 -211t-84.5 -124.5zM567 694h713q-147 477 -221 736h-4q-27 -40 -117 -175.5t-188.5 -283.5t-182.5 -277z" />
    <glyph glyph-name="AE" unicode="&#xc6;" horiz-adv-x="2535" 
d="M35 0h-174l1417 1597h1292l-22 -133h-1043q-13 -76 -104 -575h991l-20 -137h-994q-8 -43 -112 -613h1067l-23 -139h-1227q11 53 30.5 169.5t72.5 385.5h-647q-56 -62 -159 -171.5t-182 -196.5t-163 -187zM647 692h557q8 44 37 192.5t105 579.5h-7z" />
    <glyph glyph-name="Ccedilla" unicode="&#xc7;" horiz-adv-x="2064" 
d="M1032 102q151 0 286.5 39t238.5 107.5t180 153.5t129 184l135 -47q-66 -123 -161.5 -224.5t-219.5 -180.5t-282.5 -123.5t-336.5 -45.5l-124 -123q47 19 102 19q89 0 143 -39t54 -103q0 -86 -87.5 -148.5t-216.5 -62.5q-83 0 -160 29.5t-120 81.5l74 59q32 -42 91 -67
t120 -25q78 0 132 34.5t54 84.5q0 39 -37.5 62.5t-95.5 23.5q-65 0 -121 -27l-55 54l143 151q-339 25 -538 210t-199 480q0 125 39.5 247.5t110 229.5t173 198.5t224.5 156.5t268.5 102t300.5 37q134 0 257.5 -29.5t227 -85.5t177 -146.5t98.5 -205.5l-154 -53
q-53 180 -224.5 281.5t-404.5 101.5q-154 0 -297.5 -44.5t-255.5 -123t-196 -181t-129 -224t-45 -246.5q0 -116 39 -212t105 -162t156.5 -111t191 -66t210.5 -21z" />
    <glyph glyph-name="Egrave" unicode="&#xc8;" horiz-adv-x="1613" 
d="M1137 1720h-140l-352 324h234zM1391 0h-1227l282 1597h1203l-21 -133h-1042q-2 -13 -31 -163.5t-76 -411.5h994l-21 -137h-993q-10 -52 -113 -613h1067z" />
    <glyph glyph-name="Eacute" unicode="&#xc9;" horiz-adv-x="1613" 
d="M1538 2044l-463 -324h-139l373 324h229zM1391 0h-1227l282 1597h1203l-21 -133h-1042q-2 -13 -31 -163.5t-76 -411.5h994l-21 -137h-993q-10 -52 -113 -613h1067z" />
    <glyph glyph-name="Ecircumflex" unicode="&#xca;" horiz-adv-x="1613" 
d="M1184 2028l266 -308h-139q-142 124 -238 217q-21 -15 -63.5 -46t-62 -44.5t-69.5 -47t-122 -79.5h-142l373 308h197zM1391 0h-1227l282 1597h1203l-21 -133h-1042q-2 -13 -31 -163.5t-76 -411.5h994l-21 -137h-993q-10 -52 -113 -613h1067z" />
    <glyph glyph-name="Edieresis" unicode="&#xcb;" horiz-adv-x="1613" 
d="M811 1784q-46 0 -77.5 26.5t-31.5 67.5q0 49 43.5 87t100.5 38q45 0 74.5 -26.5t29.5 -63.5q0 -51 -42 -90t-97 -39zM1280 1784q-47 0 -78 26.5t-31 65.5q0 52 43 89.5t101 37.5q44 0 75 -27t31 -65q0 -50 -43 -88.5t-98 -38.5zM1391 0h-1227l282 1597h1203l-21 -133
h-1042q-2 -13 -31 -163.5t-76 -411.5h994l-21 -137h-993q-10 -52 -113 -613h1067z" />
    <glyph glyph-name="Igrave" unicode="&#xcc;" horiz-adv-x="686" 
d="M653 1720h-139l-352 324h233zM326 0h-162l282 1597h162z" />
    <glyph glyph-name="Iacute" unicode="&#xcd;" horiz-adv-x="686" 
d="M1055 2044l-463 -324h-139l372 324h230zM326 0h-162l282 1597h162z" />
    <glyph glyph-name="Icircumflex" unicode="&#xce;" horiz-adv-x="686" 
d="M700 2028l267 -308h-140q-133 116 -237 217q-20 -15 -53 -38.5t-48.5 -34.5t-46.5 -32.5t-71 -47.5t-99 -64h-141l373 308h196zM326 0h-162l282 1597h162z" />
    <glyph glyph-name="Idieresis" unicode="&#xcf;" horiz-adv-x="686" 
d="M328 1784q-46 0 -77.5 26.5t-31.5 67.5q0 50 43 87.5t100 37.5q45 0 75 -26.5t30 -63.5q0 -51 -42 -90t-97 -39zM797 1784q-47 0 -78 26.5t-31 65.5q0 52 43 89.5t100 37.5q44 0 75.5 -27t31.5 -65q0 -50 -43 -88.5t-98 -38.5zM326 0h-162l282 1597h162z" />
    <glyph glyph-name="Eth" unicode="&#xd0;" horiz-adv-x="1978" 
d="M446 1597h670q393 0 589 -170t196 -475q0 -147 -47 -287.5t-138 -260.5t-216 -210.5t-291.5 -142t-352.5 -51.5h-692l131 737h-201l19 121h202zM891 133q187 0 347.5 66t267.5 175.5t167 251.5t60 294q0 275 -174.5 409.5t-497.5 134.5h-475q-29 -161 -63 -345t-48 -261
h660l-19 -121h-663l-107 -604h545z" />
    <glyph glyph-name="Ntilde" unicode="&#xd1;" horiz-adv-x="2027" 
d="M1391 1796q-32 0 -57 5t-49.5 18.5t-35.5 21.5t-39 29l-41 33q-1 0 -9 7t-9.5 8t-9 7t-10 7t-10 5.5t-11.5 6t-11 4t-13 3.5t-13.5 2t-15.5 1q-57 0 -99.5 -40.5t-54.5 -101.5h-117q22 110 104 180t189 70q53 0 89.5 -17t76.5 -50l45 -37q67 -53 125 -53q56 0 96 40
t52 103h116q-20 -116 -96.5 -184t-191.5 -68zM326 0h-162l282 1597h177q630 -931 913 -1366h6q29 158 78 424t90 493t80 449h160l-283 -1597h-174q-46 67 -393 570.5t-529 777.5h-2q-15 -87 -102 -555.5t-141 -792.5z" />
    <glyph glyph-name="Ograve" unicode="&#xd2;" horiz-adv-x="2177" 
d="M1397 1720h-140l-352 324h234zM985 -35q-239 0 -427.5 89.5t-294 250.5t-105.5 365q0 148 57.5 291.5t162.5 263t242.5 211t308 143t349.5 51.5q239 0 427.5 -89.5t294 -251t105.5 -365.5q0 -123 -41.5 -244.5t-115 -226.5t-178 -195.5t-227 -155t-266.5 -101t-292 -36.5
zM1010 102q181 0 351.5 67.5t294 178.5t198.5 258.5t75 300.5q0 168 -86.5 302t-240.5 209t-347 75q-178 0 -348 -67.5t-296 -177.5t-202.5 -258.5t-76.5 -303.5q0 -169 88 -303t242.5 -207.5t347.5 -73.5z" />
    <glyph glyph-name="Oacute" unicode="&#xd3;" horiz-adv-x="2177" 
d="M1798 2044l-463 -324h-139l373 324h229zM985 -35q-239 0 -427.5 89.5t-294 250.5t-105.5 365q0 148 57.5 291.5t162.5 263t242.5 211t308 143t349.5 51.5q239 0 427.5 -89.5t294 -251t105.5 -365.5q0 -123 -41.5 -244.5t-115 -226.5t-178 -195.5t-227 -155t-266.5 -101
t-292 -36.5zM1010 102q181 0 351.5 67.5t294 178.5t198.5 258.5t75 300.5q0 168 -86.5 302t-240.5 209t-347 75q-178 0 -348 -67.5t-296 -177.5t-202.5 -258.5t-76.5 -303.5q0 -169 88 -303t242.5 -207.5t347.5 -73.5z" />
    <glyph glyph-name="Ocircumflex" unicode="&#xd4;" horiz-adv-x="2177" 
d="M1444 2028l266 -308h-139q-142 124 -238 217q-21 -15 -63.5 -46t-62 -44.5t-69.5 -47t-122 -79.5h-142l373 308h197zM985 -35q-239 0 -427.5 89.5t-294 250.5t-105.5 365q0 148 57.5 291.5t162.5 263t242.5 211t308 143t349.5 51.5q239 0 427.5 -89.5t294 -251
t105.5 -365.5q0 -123 -41.5 -244.5t-115 -226.5t-178 -195.5t-227 -155t-266.5 -101t-292 -36.5zM1010 102q181 0 351.5 67.5t294 178.5t198.5 258.5t75 300.5q0 168 -86.5 302t-240.5 209t-347 75q-178 0 -348 -67.5t-296 -177.5t-202.5 -258.5t-76.5 -303.5
q0 -169 88 -303t242.5 -207.5t347.5 -73.5z" />
    <glyph glyph-name="Otilde" unicode="&#xd5;" horiz-adv-x="2177" 
d="M1487 1796q-41 0 -76.5 12.5t-51.5 23t-52 38.5l-41 33q-23 19 -33 26t-32.5 16t-47.5 9q-57 0 -99.5 -40.5t-54.5 -101.5h-116q22 110 104 180t189 70q53 0 89 -17t76 -50l45 -37q67 -53 125 -53q56 0 96 40t52 103h117q-20 -116 -97 -184t-192 -68zM985 -35
q-239 0 -427.5 89.5t-294 250.5t-105.5 365q0 148 57.5 291.5t162.5 263t242.5 211t308 143t349.5 51.5q239 0 427.5 -89.5t294 -251t105.5 -365.5q0 -123 -41.5 -244.5t-115 -226.5t-178 -195.5t-227 -155t-266.5 -101t-292 -36.5zM1010 102q181 0 351.5 67.5t294 178.5
t198.5 258.5t75 300.5q0 168 -86.5 302t-240.5 209t-347 75q-178 0 -348 -67.5t-296 -177.5t-202.5 -258.5t-76.5 -303.5q0 -169 88 -303t242.5 -207.5t347.5 -73.5z" />
    <glyph glyph-name="Odieresis" unicode="&#xd6;" horiz-adv-x="2177" 
d="M1071 1784q-46 0 -77 26.5t-31 67.5q0 50 43 87.5t100 37.5q45 0 74.5 -26.5t29.5 -63.5q0 -51 -42 -90t-97 -39zM1540 1784q-47 0 -77.5 26.5t-30.5 65.5q0 52 43 89.5t100 37.5q44 0 75 -27t31 -65q0 -50 -43 -88.5t-98 -38.5zM985 -35q-239 0 -427.5 89.5t-294 250.5
t-105.5 365q0 148 57.5 291.5t162.5 263t242.5 211t308 143t349.5 51.5q239 0 427.5 -89.5t294 -251t105.5 -365.5q0 -123 -41.5 -244.5t-115 -226.5t-178 -195.5t-227 -155t-266.5 -101t-292 -36.5zM1010 102q181 0 351.5 67.5t294 178.5t198.5 258.5t75 300.5
q0 168 -86.5 302t-240.5 209t-347 75q-178 0 -348 -67.5t-296 -177.5t-202.5 -258.5t-76.5 -303.5q0 -169 88 -303t242.5 -207.5t347.5 -73.5z" />
    <glyph glyph-name="multiply" unicode="&#xd7;" horiz-adv-x="1101" 
d="M467 625l-231 227l112 88l234 -227l299 219l84 -86l-301 -219l229 -230l-113 -88l-229 230l-305 -224l-80 86z" />
    <glyph glyph-name="Oslash" unicode="&#xd8;" horiz-adv-x="2177" 
d="M2079 1661l-219 -219q118 -95 181.5 -227.5t63.5 -290.5q0 -123 -41.5 -244.5t-115 -226.5t-178 -195.5t-227 -155t-266.5 -101t-292 -36.5q-276 0 -481 119l-150 -150h-174l219 220q-115 95 -178 227.5t-63 288.5q0 148 57.5 291.5t162.5 263t242.5 211t308 143
t349.5 51.5q275 0 477 -117l148 148h176zM332 686q0 -124 48 -230t136 -184l1124 1125q-167 96 -385 96q-178 0 -348 -67.5t-296 -177.5t-202.5 -258.5t-76.5 -303.5zM1010 102q181 0 351.5 67.5t294 178.5t198.5 258.5t75 300.5q0 124 -48.5 231.5t-137.5 186.5
l-1125 -1126q173 -97 392 -97z" />
    <glyph glyph-name="Ugrave" unicode="&#xd9;" horiz-adv-x="1853" 
d="M1237 1720h-139l-353 324h234zM819 -35q-322 0 -474.5 161t-98.5 454l180 1017h162l-180 -1009q-43 -243 71 -365.5t365 -122.5t410.5 124.5t201.5 363.5l180 1009h162l-184 -1017q-19 -105 -60 -196.5t-108.5 -169t-157 -132.5t-209 -86t-260.5 -31z" />
    <glyph glyph-name="Uacute" unicode="&#xda;" horiz-adv-x="1853" 
d="M1440 2044l-463 -324h-139l370 324h232zM819 -35q-322 0 -474.5 161t-98.5 454l180 1017h162l-180 -1009q-43 -243 71 -365.5t365 -122.5t410.5 124.5t201.5 363.5l180 1009h162l-184 -1017q-19 -105 -60 -196.5t-108.5 -169t-157 -132.5t-209 -86t-260.5 -31z" />
    <glyph glyph-name="Ucircumflex" unicode="&#xdb;" horiz-adv-x="1853" 
d="M1284 2028l266 -308h-139q-133 116 -237 217q-20 -15 -53 -38.5t-48.5 -34.5t-46.5 -32.5t-71 -47.5t-99 -64h-141l372 308h197zM819 -35q-322 0 -474.5 161t-98.5 454l180 1017h162l-180 -1009q-43 -243 71 -365.5t365 -122.5t410.5 124.5t201.5 363.5l180 1009h162
l-184 -1017q-19 -105 -60 -196.5t-108.5 -169t-157 -132.5t-209 -86t-260.5 -31z" />
    <glyph glyph-name="Udieresis" unicode="&#xdc;" horiz-adv-x="1853" 
d="M911 1784q-46 0 -77 26.5t-31 67.5q0 50 43 87.5t100 37.5q45 0 75 -26.5t30 -63.5q0 -51 -42.5 -90t-97.5 -39zM1380 1784q-47 0 -77.5 26.5t-30.5 65.5q0 52 43 89.5t100 37.5q44 0 75.5 -27t31.5 -65q0 -50 -43.5 -88.5t-98.5 -38.5zM819 -35q-322 0 -474.5 161
t-98.5 454l180 1017h162l-180 -1009q-43 -243 71 -365.5t365 -122.5t410.5 124.5t201.5 363.5l180 1009h162l-184 -1017q-19 -105 -60 -196.5t-108.5 -169t-157 -132.5t-209 -86t-260.5 -31z" />
    <glyph glyph-name="Yacute" unicode="&#xdd;" horiz-adv-x="1683" 
d="M1518 2044l-463 -324h-140l373 324h230zM821 0h-157q63 362 104 586q-58 109 -160 289t-192.5 350t-186.5 372h174q190 -358 465 -872h4q88 97 144 163.5t89.5 107.5t169.5 191.5t378 409.5h170q-797 -901 -895 -1011q-25 -141 -107 -586z" />
    <glyph glyph-name="Thorn" unicode="&#xde;" horiz-adv-x="1669" 
d="M326 0h-162l282 1597h162l-51 -282h506q250 0 399.5 -103t149.5 -299q0 -108 -50 -209.5t-137.5 -179.5t-215.5 -125t-273 -47h-549zM535 1182l-127 -695h495q237 0 389 110.5t152 279.5q0 152 -114 228.5t-318 76.5h-477z" />
    <glyph glyph-name="germandbls" unicode="&#xdf;" horiz-adv-x="1499" 
d="M274 0h-149l205 1161q7 37 15 69t29.5 87t50 99.5t78.5 94.5t111.5 83.5t153 56t199.5 22.5q232 0 361.5 -97.5t129.5 -262.5q0 -167 -118.5 -301t-290.5 -160v-2q156 -20 244.5 -107t88.5 -221q0 -101 -54 -196t-147.5 -167t-230.5 -115.5t-293 -43.5h-174l19 121h188
q145 0 267.5 53.5t192 142.5t69.5 191q0 123 -96 197.5t-253 74.5h-118l18 121h111q92 0 170.5 32t131 85t82 121.5t29.5 140.5q0 123 -85 195.5t-259 72.5q-99 0 -179 -27t-128.5 -65.5t-83.5 -90.5t-50 -94t-22 -83z" />
    <glyph glyph-name="agrave" unicode="&#xe0;" horiz-adv-x="1406" 
d="M918 1278h-136l-303 391h211zM440 -35q-177 0 -279 67.5t-102 192.5q0 283 557 381q34 6 85 14t85.5 13t79 14t74 18.5t61 24.5t49.5 33t30 44t12 58q0 93 -85.5 156t-226.5 63q-138 0 -250.5 -63.5t-171.5 -173.5l-139 47q83 153 246.5 231t345.5 78q74 0 141 -13
t127 -42.5t101 -72.5t59 -107t4 -142l-78 -432q-10 -59 -14.5 -92.5t-8.5 -82t-2.5 -91.5t7.5 -88h-152q-15 113 9 236h-7q-91 -124 -231.5 -197.5t-325.5 -73.5zM477 78q107 0 207 37t169.5 93.5t115.5 121.5t57 123l29 153q-67 -39 -128 -55.5t-214 -40.5q-47 -8 -81 -14
t-89 -18.5t-94.5 -26t-85 -35t-74 -45.5t-47.5 -57.5t-19 -71.5q0 -75 68 -119.5t186 -44.5z" />
    <glyph glyph-name="aacute" unicode="&#xe1;" horiz-adv-x="1406" 
d="M1341 1669l-440 -391h-135l367 391h208zM440 -35q-177 0 -279 67.5t-102 192.5q0 283 557 381q34 6 85 14t85.5 13t79 14t74 18.5t61 24.5t49.5 33t30 44t12 58q0 93 -85.5 156t-226.5 63q-138 0 -250.5 -63.5t-171.5 -173.5l-139 47q83 153 246.5 231t345.5 78
q74 0 141 -13t127 -42.5t101 -72.5t59 -107t4 -142l-78 -432q-10 -59 -14.5 -92.5t-8.5 -82t-2.5 -91.5t7.5 -88h-152q-15 113 9 236h-7q-91 -124 -231.5 -197.5t-325.5 -73.5zM477 78q107 0 207 37t169.5 93.5t115.5 121.5t57 123l29 153q-67 -39 -128 -55.5t-214 -40.5
q-47 -8 -81 -14t-89 -18.5t-94.5 -26t-85 -35t-74 -45.5t-47.5 -57.5t-19 -71.5q0 -75 68 -119.5t186 -44.5z" />
    <glyph glyph-name="acircumflex" unicode="&#xe2;" horiz-adv-x="1406" 
d="M528 1278h-145l422 358h203l292 -358h-143q-15 14 -73 68.5t-102.5 99.5t-88.5 96q-70 -56 -193 -142t-172 -122zM440 -35q-177 0 -279 67.5t-102 192.5q0 283 557 381q34 6 85 14t85.5 13t79 14t74 18.5t61 24.5t49.5 33t30 44t12 58q0 93 -85.5 156t-226.5 63
q-138 0 -250.5 -63.5t-171.5 -173.5l-139 47q83 153 246.5 231t345.5 78q74 0 141 -13t127 -42.5t101 -72.5t59 -107t4 -142l-78 -432q-10 -59 -14.5 -92.5t-8.5 -82t-2.5 -91.5t7.5 -88h-152q-15 113 9 236h-7q-91 -124 -231.5 -197.5t-325.5 -73.5zM477 78q107 0 207 37
t169.5 93.5t115.5 121.5t57 123l29 153q-67 -39 -128 -55.5t-214 -40.5q-47 -8 -81 -14t-89 -18.5t-94.5 -26t-85 -35t-74 -45.5t-47.5 -57.5t-19 -71.5q0 -75 68 -119.5t186 -44.5z" />
    <glyph glyph-name="atilde" unicode="&#xe3;" horiz-adv-x="1406" 
d="M1034 1329q-41 0 -76.5 12.5t-51.5 23t-52 38.5l-41 33q-23 19 -33 26t-32.5 16t-47.5 9q-57 0 -99 -40t-54 -101h-117q22 110 104 179.5t189 69.5q53 0 89.5 -17t76.5 -50l45 -37q67 -53 125 -53q56 0 95.5 40t51.5 103h117q-20 -116 -97 -184t-192 -68zM440 -35
q-177 0 -279 67.5t-102 192.5q0 283 557 381q34 6 85 14t85.5 13t79 14t74 18.5t61 24.5t49.5 33t30 44t12 58q0 93 -85.5 156t-226.5 63q-138 0 -250.5 -63.5t-171.5 -173.5l-139 47q83 153 246.5 231t345.5 78q74 0 141 -13t127 -42.5t101 -72.5t59 -107t4 -142l-78 -432
q-10 -59 -14.5 -92.5t-8.5 -82t-2.5 -91.5t7.5 -88h-152q-15 113 9 236h-7q-91 -124 -231.5 -197.5t-325.5 -73.5zM477 78q107 0 207 37t169.5 93.5t115.5 121.5t57 123l29 153q-67 -39 -128 -55.5t-214 -40.5q-47 -8 -81 -14t-89 -18.5t-94.5 -26t-85 -35t-74 -45.5
t-47.5 -57.5t-19 -71.5q0 -75 68 -119.5t186 -44.5z" />
    <glyph glyph-name="adieresis" unicode="&#xe4;" horiz-adv-x="1406" 
d="M647 1370q-45 0 -75.5 26.5t-30.5 65.5q0 47 42 84t97 37q45 0 74.5 -25.5t29.5 -62.5q0 -48 -41 -86.5t-96 -38.5zM1075 1370q-47 0 -76.5 25.5t-29.5 64.5q0 51 41.5 87t97.5 36q43 0 73.5 -26t30.5 -64q0 -47 -42 -85t-95 -38zM440 -35q-177 0 -279 67.5t-102 192.5
q0 283 557 381q34 6 85 14t85.5 13t79 14t74 18.5t61 24.5t49.5 33t30 44t12 58q0 93 -85.5 156t-226.5 63q-138 0 -250.5 -63.5t-171.5 -173.5l-139 47q83 153 246.5 231t345.5 78q74 0 141 -13t127 -42.5t101 -72.5t59 -107t4 -142l-78 -432q-10 -59 -14.5 -92.5t-8.5 -82
t-2.5 -91.5t7.5 -88h-152q-15 113 9 236h-7q-91 -124 -231.5 -197.5t-325.5 -73.5zM477 78q107 0 207 37t169.5 93.5t115.5 121.5t57 123l29 153q-67 -39 -128 -55.5t-214 -40.5q-47 -8 -81 -14t-89 -18.5t-94.5 -26t-85 -35t-74 -45.5t-47.5 -57.5t-19 -71.5
q0 -75 68 -119.5t186 -44.5z" />
    <glyph glyph-name="aring" unicode="&#xe5;" horiz-adv-x="1406" 
d="M838 1247q-103 0 -167.5 53t-64.5 136q0 101 91 176.5t218 75.5q104 0 169 -53t65 -136q0 -101 -91 -176.5t-220 -75.5zM854 1343q76 0 129 43t53 103q0 46 -39 73t-98 27q-76 0 -129 -41.5t-53 -101.5q0 -48 38.5 -75.5t98.5 -27.5zM440 -35q-177 0 -279 67.5
t-102 192.5q0 283 557 381q34 6 85 14t85.5 13t79 14t74 18.5t61 24.5t49.5 33t30 44t12 58q0 93 -85.5 156t-226.5 63q-138 0 -250.5 -63.5t-171.5 -173.5l-139 47q83 153 246.5 231t345.5 78q74 0 141 -13t127 -42.5t101 -72.5t59 -107t4 -142l-78 -432
q-10 -59 -14.5 -92.5t-8.5 -82t-2.5 -91.5t7.5 -88h-152q-15 113 9 236h-7q-91 -124 -231.5 -197.5t-325.5 -73.5zM477 78q107 0 207 37t169.5 93.5t115.5 121.5t57 123l29 153q-67 -39 -128 -55.5t-214 -40.5q-47 -8 -81 -14t-89 -18.5t-94.5 -26t-85 -35t-74 -45.5
t-47.5 -57.5t-19 -71.5q0 -75 68 -119.5t186 -44.5z" />
    <glyph glyph-name="ae" unicode="&#xe6;" horiz-adv-x="2453" 
d="M430 -35q-108 0 -190 27.5t-131.5 87.5t-49.5 147q0 285 564 379q32 5 86 13.5t86 13.5t77.5 14t73 18.5t59.5 24.5t49 33t28.5 43.5t11.5 56.5q0 95 -86 158t-228 63q-140 0 -251.5 -65.5t-168.5 -171.5l-141 47q86 153 248.5 231t343.5 78q97 0 183.5 -22.5t155 -77.5
t85.5 -135q107 111 260 173t326 62q49 0 96.5 -5.5t99.5 -19t97 -35t88 -53t72.5 -74.5t51 -98.5t23 -125t-11.5 -154.5l-8 -53h-1127q-22 -134 26 -238.5t154 -161.5t252 -57q178 0 319 80t226 209l129 -45q-108 -172 -294.5 -269.5t-403.5 -97.5q-134 0 -244 34.5
t-188 108t-103 177.5h-4q-97 -141 -267 -230.5t-374 -89.5zM1229 657h954q13 84 -3.5 151t-54 110t-92.5 71.5t-114.5 40.5t-124.5 12q-196 0 -349.5 -106.5t-215.5 -278.5zM477 78q105 0 205.5 37.5t170.5 94t116.5 121.5t56.5 122l29 155q-77 -42 -137.5 -58t-200.5 -36
q-45 -7 -79.5 -13t-89 -18.5t-95.5 -26t-86.5 -34.5t-75 -45t-49 -57.5t-19.5 -71.5q0 -79 68.5 -124.5t185.5 -45.5z" />
    <glyph glyph-name="ccedilla" unicode="&#xe7;" horiz-adv-x="1486" 
d="M707 92q179 0 320 80.5t228 212.5l131 -45q-107 -176 -288 -272.5t-391 -102.5l-125 -123q48 19 102 19q89 0 143 -39t54 -103q0 -86 -87.5 -148.5t-215.5 -62.5q-83 0 -160.5 29.5t-120.5 81.5l74 59q32 -42 91 -67t120 -25q78 0 132 34.5t54 84.5q0 39 -37.5 62.5
t-95.5 23.5q-65 0 -121 -27l-55 54l143 151q-233 20 -366.5 151.5t-133.5 342.5q0 109 37.5 213t108.5 191.5t166.5 154t218.5 104t258 37.5q89 0 169 -17.5t152 -54t126 -100.5t79 -149l-155 -51q-32 117 -136.5 181t-257.5 64q-129 0 -243 -47.5t-191.5 -125t-122.5 -178
t-45 -206.5q0 -179 119 -283t322 -104z" />
    <glyph glyph-name="egrave" unicode="&#xe8;" horiz-adv-x="1306" 
d="M856 1278h-135l-303 391h211zM565 -35q-220 0 -351.5 129t-131.5 344q0 144 55 277.5t147.5 232t221 157t268.5 58.5q50 0 97.5 -7.5t98.5 -25t92.5 -47t78 -73t55.5 -102.5t25.5 -136t-13.5 -174l-12 -72h-960q-32 -201 67 -319.5t287 -118.5q149 0 269.5 80t197.5 209
l121 -45q-96 -172 -260 -269.5t-353 -97.5zM264 655h805q17 103 -4.5 181t-71.5 121t-111 64t-132 21q-166 0 -298 -107t-188 -280z" />
    <glyph glyph-name="eacute" unicode="&#xe9;" horiz-adv-x="1306" 
d="M1282 1669l-440 -391h-135l366 391h209zM565 -35q-220 0 -351.5 129t-131.5 344q0 144 55 277.5t147.5 232t221 157t268.5 58.5q50 0 97.5 -7.5t98.5 -25t92.5 -47t78 -73t55.5 -102.5t25.5 -136t-13.5 -174l-12 -72h-960q-32 -201 67 -319.5t287 -118.5q149 0 269.5 80
t197.5 209l121 -45q-96 -172 -260 -269.5t-353 -97.5zM264 655h805q17 103 -4.5 181t-71.5 121t-111 64t-132 21q-166 0 -298 -107t-188 -280z" />
    <glyph glyph-name="ecircumflex" unicode="&#xea;" horiz-adv-x="1306" 
d="M467 1278h-145l421 358h203l293 -358h-143q-17 16 -73.5 69t-102 98.5t-89.5 96.5q-70 -56 -193.5 -143t-170.5 -121zM565 -35q-220 0 -351.5 129t-131.5 344q0 144 55 277.5t147.5 232t221 157t268.5 58.5q50 0 97.5 -7.5t98.5 -25t92.5 -47t78 -73t55.5 -102.5
t25.5 -136t-13.5 -174l-12 -72h-960q-32 -201 67 -319.5t287 -118.5q149 0 269.5 80t197.5 209l121 -45q-96 -172 -260 -269.5t-353 -97.5zM264 655h805q17 103 -4.5 181t-71.5 121t-111 64t-132 21q-166 0 -298 -107t-188 -280z" />
    <glyph glyph-name="edieresis" unicode="&#xeb;" horiz-adv-x="1306" 
d="M588 1370q-45 0 -76 26.5t-31 65.5q0 47 42.5 84t97.5 37q45 0 74.5 -25.5t29.5 -62.5q0 -48 -41 -86.5t-96 -38.5zM1016 1370q-47 0 -77 25.5t-30 64.5q0 50 42 86.5t98 36.5q43 0 73.5 -26t30.5 -64q0 -47 -42 -85t-95 -38zM565 -35q-220 0 -351.5 129t-131.5 344
q0 144 55 277.5t147.5 232t221 157t268.5 58.5q50 0 97.5 -7.5t98.5 -25t92.5 -47t78 -73t55.5 -102.5t25.5 -136t-13.5 -174l-12 -72h-960q-32 -201 67 -319.5t287 -118.5q149 0 269.5 80t197.5 209l121 -45q-96 -172 -260 -269.5t-353 -97.5zM264 655h805q17 103 -4.5 181
t-71.5 121t-111 64t-132 21q-166 0 -298 -107t-188 -280z" />
    <glyph glyph-name="igrave" unicode="&#xec;" horiz-adv-x="595" 
d="M498 1274h-136l-303 391h211zM274 0h-149l199 1130h149z" />
    <glyph glyph-name="iacute" unicode="&#xed;" horiz-adv-x="595" 
d="M924 1665l-441 -391h-135l367 391h209zM274 0h-149l199 1130h149z" />
    <glyph glyph-name="icircumflex" unicode="&#xee;" horiz-adv-x="595" 
d="M111 1274h-146l422 358h203l293 -358h-144q-15 14 -73 68.5t-102.5 99.5t-88.5 96q-70 -56 -193.5 -143t-170.5 -121zM274 0h-149l199 1130h149z" />
    <glyph glyph-name="idieresis" unicode="&#xef;" horiz-adv-x="595" 
d="M229 1366q-45 0 -75.5 26.5t-30.5 65.5q0 47 42 84t97 37q45 0 75 -25.5t30 -62.5q0 -48 -41.5 -86.5t-96.5 -38.5zM657 1366q-47 0 -76.5 25.5t-29.5 64.5q0 51 41.5 87t97.5 36q43 0 74 -26t31 -64q0 -47 -42.5 -85t-95.5 -38zM274 0h-149l199 1130h149z" />
    <glyph glyph-name="eth" unicode="&#xf0;" horiz-adv-x="1579" 
d="M1405 1569l-254 -113q330 -238 330 -637q0 -132 -35 -257.5t-104 -233.5t-164.5 -189t-225 -127.5t-276.5 -46.5q-259 0 -418.5 133t-159.5 351q0 127 59.5 247t161 211t246 146t303.5 55q149 0 255 -51t184 -160h6q-19 154 -97 274.5t-223 214.5l-399 -176l-39 80
l342 152q-128 67 -334 129l58 117q261 -71 440 -175l303 136zM692 90q123 0 234 44t188.5 116t123.5 167.5t46 196.5q0 170 -119 271.5t-309 101.5q-121 0 -231.5 -43.5t-189.5 -115t-126 -167t-47 -196.5q0 -166 117 -270.5t313 -104.5z" />
    <glyph glyph-name="ntilde" unicode="&#xf1;" horiz-adv-x="1554" 
d="M1090 1329q-32 0 -57 5t-49.5 18.5t-35.5 21.5t-39 29l-41 33q-1 0 -9 7t-9.5 8t-9 7t-10 7t-10 5.5t-11.5 6t-11 4t-13 3.5t-13.5 2t-15.5 1q-57 0 -99.5 -40t-54.5 -101h-117q22 110 104 179.5t189 69.5q53 0 89.5 -17t76.5 -50l45 -37q67 -53 125 -53q56 0 96 40
t52 103h116q-20 -116 -96.5 -184t-191.5 -68zM274 0h-149l199 1130h145l-39 -217h4q99 126 237 188t292 62q78 0 145 -15t126 -47.5t95 -85.5t52.5 -129t-3.5 -177l-125 -709h-149l115 647q16 85 5 149.5t-38.5 110t-72.5 74t-97.5 42t-112.5 13.5q-104 0 -196 -35
t-157 -92.5t-108 -129.5t-57 -148z" />
    <glyph glyph-name="ograve" unicode="&#xf2;" horiz-adv-x="1579" 
d="M989 1278h-135l-303 391h211zM684 -35q-266 0 -424 135.5t-158 364.5q0 134 59.5 260t162 223t252.5 156t319 59q265 0 423.5 -136t158.5 -363q0 -134 -59 -260.5t-161.5 -223.5t-252.5 -156t-320 -59zM705 92q130 0 245 47t193.5 124t124 178t45.5 208q0 177 -118.5 282
t-317.5 105q-130 0 -245.5 -47t-194.5 -124.5t-125 -178.5t-46 -207q0 -177 119 -282t320 -105z" />
    <glyph glyph-name="oacute" unicode="&#xf3;" horiz-adv-x="1579" 
d="M1413 1669l-440 -391h-135l366 391h209zM684 -35q-266 0 -424 135.5t-158 364.5q0 134 59.5 260t162 223t252.5 156t319 59q265 0 423.5 -136t158.5 -363q0 -134 -59 -260.5t-161.5 -223.5t-252.5 -156t-320 -59zM705 92q130 0 245 47t193.5 124t124 178t45.5 208
q0 177 -118.5 282t-317.5 105q-130 0 -245.5 -47t-194.5 -124.5t-125 -178.5t-46 -207q0 -177 119 -282t320 -105z" />
    <glyph glyph-name="ocircumflex" unicode="&#xf4;" horiz-adv-x="1579" 
d="M600 1278h-145l422 358h202l293 -358h-143q-15 14 -73 68.5t-102.5 99.5t-88.5 96q-70 -56 -193 -142t-172 -122zM684 -35q-266 0 -424 135.5t-158 364.5q0 134 59.5 260t162 223t252.5 156t319 59q265 0 423.5 -136t158.5 -363q0 -134 -59 -260.5t-161.5 -223.5
t-252.5 -156t-320 -59zM705 92q130 0 245 47t193.5 124t124 178t45.5 208q0 177 -118.5 282t-317.5 105q-130 0 -245.5 -47t-194.5 -124.5t-125 -178.5t-46 -207q0 -177 119 -282t320 -105z" />
    <glyph glyph-name="otilde" unicode="&#xf5;" horiz-adv-x="1579" 
d="M1106 1329q-41 0 -76.5 12.5t-51.5 23t-52 38.5l-41 33q-23 19 -33 26t-32.5 16t-47.5 9q-57 0 -99.5 -40t-54.5 -101h-116q22 110 104 179.5t189 69.5q53 0 89.5 -17t76.5 -50l45 -37q67 -53 124 -53q56 0 96 40t52 103h117q-20 -116 -97 -184t-192 -68zM684 -35
q-266 0 -424 135.5t-158 364.5q0 134 59.5 260t162 223t252.5 156t319 59q265 0 423.5 -136t158.5 -363q0 -134 -59 -260.5t-161.5 -223.5t-252.5 -156t-320 -59zM705 92q130 0 245 47t193.5 124t124 178t45.5 208q0 177 -118.5 282t-317.5 105q-130 0 -245.5 -47
t-194.5 -124.5t-125 -178.5t-46 -207q0 -177 119 -282t320 -105z" />
    <glyph glyph-name="odieresis" unicode="&#xf6;" horiz-adv-x="1579" 
d="M721 1370q-45 0 -76 26.5t-31 65.5q0 47 42.5 84t97.5 37q45 0 74.5 -25.5t29.5 -62.5q0 -48 -41 -86.5t-96 -38.5zM1149 1370q-47 0 -77 25.5t-30 64.5q0 50 42 86.5t98 36.5q43 0 73.5 -26t30.5 -64q0 -47 -42 -85t-95 -38zM684 -35q-266 0 -424 135.5t-158 364.5
q0 134 59.5 260t162 223t252.5 156t319 59q265 0 423.5 -136t158.5 -363q0 -134 -59 -260.5t-161.5 -223.5t-252.5 -156t-320 -59zM705 92q130 0 245 47t193.5 124t124 178t45.5 208q0 177 -118.5 282t-317.5 105q-130 0 -245.5 -47t-194.5 -124.5t-125 -178.5t-46 -207
q0 -177 119 -282t320 -105z" />
    <glyph glyph-name="divide" unicode="&#xf7;" horiz-adv-x="1236" 
d="M670 827q-46 0 -76.5 27.5t-30.5 67.5q0 48 43 84t101 36q47 0 77.5 -25.5t30.5 -64.5q0 -48 -44 -86.5t-101 -38.5zM1059 563h-877l21 123h874zM563 207q-45 0 -75.5 26.5t-30.5 65.5q0 49 43.5 86t99.5 37q46 0 76.5 -26t30.5 -64q0 -49 -44 -87t-100 -38z" />
    <glyph glyph-name="oslash" unicode="&#xf8;" horiz-adv-x="1579" 
d="M1532 1182l-189 -178q134 -131 134 -340q0 -134 -59 -260.5t-161.5 -223.5t-252.5 -156t-320 -59q-207 0 -354 86l-113 -106h-168l189 176q-136 136 -136 344q0 134 59.5 260t162 223t252.5 156t319 59q208 0 360 -90l115 109h162zM266 479q0 -147 86 -250l791 740
q-109 67 -266 67q-130 0 -245.5 -47t-194.5 -124.5t-125 -178.5t-46 -207zM705 92q130 0 245 47t193.5 124t124 178t45.5 208q0 143 -84 248l-787 -741q109 -64 263 -64z" />
    <glyph glyph-name="ugrave" unicode="&#xf9;" horiz-adv-x="1531" 
d="M942 1278h-135l-303 391h211zM586 -35q-62 0 -118 10t-108 32.5t-90.5 58t-66 86t-33 118t7.5 152.5l125 708h150l-117 -655q-11 -73 -7.5 -130t25 -99.5t50.5 -72t69 -47.5t81.5 -26t86.5 -8q101 0 191.5 36t153 94t103.5 128t54 142l114 638h150l-137 -776
q-40 -210 -17 -354h-153q-13 126 4 209h-6q-194 -244 -512 -244z" />
    <glyph glyph-name="uacute" unicode="&#xfa;" horiz-adv-x="1531" 
d="M1366 1669l-440 -391h-135l366 391h209zM586 -35q-62 0 -118 10t-108 32.5t-90.5 58t-66 86t-33 118t7.5 152.5l125 708h150l-117 -655q-11 -73 -7.5 -130t25 -99.5t50.5 -72t69 -47.5t81.5 -26t86.5 -8q101 0 191.5 36t153 94t103.5 128t54 142l114 638h150l-137 -776
q-40 -210 -17 -354h-153q-13 126 4 209h-6q-194 -244 -512 -244z" />
    <glyph glyph-name="ucircumflex" unicode="&#xfb;" horiz-adv-x="1531" 
d="M553 1278h-145l421 358h203l293 -358h-143q-15 14 -73 68.5t-102.5 99.5t-88.5 96q-70 -56 -193 -142t-172 -122zM586 -35q-62 0 -118 10t-108 32.5t-90.5 58t-66 86t-33 118t7.5 152.5l125 708h150l-117 -655q-11 -73 -7.5 -130t25 -99.5t50.5 -72t69 -47.5t81.5 -26
t86.5 -8q101 0 191.5 36t153 94t103.5 128t54 142l114 638h150l-137 -776q-40 -210 -17 -354h-153q-13 126 4 209h-6q-194 -244 -512 -244z" />
    <glyph glyph-name="udieresis" unicode="&#xfc;" horiz-adv-x="1531" 
d="M672 1370q-45 0 -76 26.5t-31 65.5q0 47 42.5 84t97.5 37q45 0 74.5 -25.5t29.5 -62.5q0 -48 -41 -86.5t-96 -38.5zM1100 1370q-47 0 -77 25.5t-30 64.5q0 50 42 86.5t98 36.5q43 0 73.5 -26t30.5 -64q0 -47 -42 -85t-95 -38zM586 -35q-62 0 -118 10t-108 32.5t-90.5 58
t-66 86t-33 118t7.5 152.5l125 708h150l-117 -655q-11 -73 -7.5 -130t25 -99.5t50.5 -72t69 -47.5t81.5 -26t86.5 -8q101 0 191.5 36t153 94t103.5 128t54 142l114 638h150l-137 -776q-40 -210 -17 -354h-153q-13 126 4 209h-6q-194 -244 -512 -244z" />
    <glyph glyph-name="yacute" unicode="&#xfd;" horiz-adv-x="1323" 
d="M1272 1669l-441 -391h-135l367 391h209zM344 -451h-141l284 435l-348 1146h164q4 -12 287 -966h6q56 86 280.5 434.5t346.5 531.5h163z" />
    <glyph glyph-name="thorn" unicode="&#xfe;" horiz-adv-x="1640" 
d="M195 -451h-150l369 2089h149l-131 -745h4q107 134 257.5 202t314.5 68q239 0 384.5 -135.5t145.5 -357.5q0 -136 -58 -265t-156.5 -225.5t-237.5 -155.5t-291 -59q-164 0 -290.5 67t-185.5 191h-4zM793 92q118 0 227 46.5t186.5 123t123.5 178t46 207.5
q0 174 -113.5 281.5t-299.5 107.5q-120 0 -231.5 -46.5t-191 -123t-127.5 -178t-48 -207.5q0 -173 120 -281t308 -108z" />
    <glyph glyph-name="ydieresis" unicode="&#xff;" horiz-adv-x="1323" 
d="M578 1370q-45 0 -76 26.5t-31 65.5q0 47 42 84t97 37q45 0 75 -25.5t30 -62.5q0 -48 -41 -86.5t-96 -38.5zM1006 1370q-47 0 -77 25.5t-30 64.5q0 51 41.5 87t97.5 36q43 0 74 -26t31 -64q0 -47 -42 -85t-95 -38zM344 -451h-141l284 435l-348 1146h164q4 -12 287 -966h6
q56 86 280.5 434.5t346.5 531.5h163z" />
    <glyph glyph-name="Amacron" unicode="&#x100;" horiz-adv-x="1804" 
d="M1528 1829h-799l21 117h796zM104 0h-167l1062 1597h172l500 -1597h-170q-60 183 -178 559h-844q-64 -95 -149.5 -223.5t-141 -211t-84.5 -124.5zM567 694h713q-147 477 -221 736h-4q-27 -40 -117 -175.5t-188.5 -283.5t-182.5 -277z" />
    <glyph glyph-name="amacron" unicode="&#x101;" horiz-adv-x="1406" 
d="M1282 1413h-825l18 115h825zM440 -35q-177 0 -279 67.5t-102 192.5q0 283 557 381q34 6 85 14t85.5 13t79 14t74 18.5t61 24.5t49.5 33t30 44t12 58q0 93 -85.5 156t-226.5 63q-138 0 -250.5 -63.5t-171.5 -173.5l-139 47q83 153 246.5 231t345.5 78q74 0 141 -13
t127 -42.5t101 -72.5t59 -107t4 -142l-78 -432q-10 -59 -14.5 -92.5t-8.5 -82t-2.5 -91.5t7.5 -88h-152q-15 113 9 236h-7q-91 -124 -231.5 -197.5t-325.5 -73.5zM477 78q107 0 207 37t169.5 93.5t115.5 121.5t57 123l29 153q-67 -39 -128 -55.5t-214 -40.5q-47 -8 -81 -14
t-89 -18.5t-94.5 -26t-85 -35t-74 -45.5t-47.5 -57.5t-19 -71.5q0 -75 68 -119.5t186 -44.5z" />
    <glyph glyph-name="Abreve" unicode="&#x102;" horiz-adv-x="1804" 
d="M1108 1726q-100 0 -180 29t-127.5 75.5t-70.5 103.5t-17 116h137q-8 -82 70 -147.5t204 -65.5q127 0 228.5 65.5t124.5 147.5h137q-13 -59 -55 -116t-105.5 -103.5t-154 -75.5t-191.5 -29zM104 0h-167l1062 1597h172l500 -1597h-170q-60 183 -178 559h-844
q-64 -95 -149.5 -223.5t-141 -211t-84.5 -124.5zM567 694h713q-147 477 -221 736h-4q-27 -40 -117 -175.5t-188.5 -283.5t-182.5 -277z" />
    <glyph glyph-name="abreve" unicode="&#x103;" horiz-adv-x="1406" 
d="M842 1276q-204 0 -303 110.5t-76 284.5h137q-19 -128 54 -205t206 -77t233.5 77t131.5 205h137q-38 -174 -178.5 -284.5t-341.5 -110.5zM440 -35q-177 0 -279 67.5t-102 192.5q0 283 557 381q34 6 85 14t85.5 13t79 14t74 18.5t61 24.5t49.5 33t30 44t12 58
q0 93 -85.5 156t-226.5 63q-138 0 -250.5 -63.5t-171.5 -173.5l-139 47q83 153 246.5 231t345.5 78q74 0 141 -13t127 -42.5t101 -72.5t59 -107t4 -142l-78 -432q-10 -59 -14.5 -92.5t-8.5 -82t-2.5 -91.5t7.5 -88h-152q-15 113 9 236h-7q-91 -124 -231.5 -197.5
t-325.5 -73.5zM477 78q107 0 207 37t169.5 93.5t115.5 121.5t57 123l29 153q-67 -39 -128 -55.5t-214 -40.5q-47 -8 -81 -14t-89 -18.5t-94.5 -26t-85 -35t-74 -45.5t-47.5 -57.5t-19 -71.5q0 -75 68 -119.5t186 -44.5z" />
    <glyph glyph-name="Aogonek" unicode="&#x104;" horiz-adv-x="1804" 
d="M1583 -365q47 0 111 15l-17 -99q-69 -14 -121 -14q-125 0 -205.5 52t-80.5 147q0 154 235 264h-4q-60 183 -178 559h-844q-64 -95 -149.5 -223.5t-141 -211t-84.5 -124.5h-167l1062 1597h172l500 -1597h-26q-103 -37 -177.5 -96.5t-74.5 -134.5q0 -60 54.5 -97t135.5 -37
zM567 694h713q-147 477 -221 736h-4q-27 -40 -117 -175.5t-188.5 -283.5t-182.5 -277z" />
    <glyph glyph-name="aogonek" unicode="&#x105;" horiz-adv-x="1406" 
d="M1243 786l-78 -432q-10 -59 -14.5 -92.5t-8.5 -82t-2.5 -91.5t7.5 -88h-21q-104 -38 -174.5 -97.5t-70.5 -133.5q0 -61 52.5 -96t133.5 -35q52 0 109 14l-17 -101q-63 -14 -121 -14q-129 0 -205.5 54t-76.5 145q0 48 23 91.5t61.5 76t75.5 55t79 41.5q-15 113 9 236h-7
q-91 -124 -231.5 -197.5t-325.5 -73.5q-177 0 -279 67.5t-102 192.5q0 283 557 381q34 6 85 14t85.5 13t79 14t74 18.5t61 24.5t49.5 33t30 44t12 58q0 93 -85.5 156t-226.5 63q-138 0 -250.5 -63.5t-171.5 -173.5l-139 47q83 153 246.5 231t345.5 78q74 0 141 -13
t127 -42.5t101 -72.5t59 -107t4 -142zM477 78q107 0 207 37t169.5 93.5t115.5 121.5t57 123l29 153q-67 -39 -128 -55.5t-214 -40.5q-47 -8 -81 -14t-89 -18.5t-94.5 -26t-85 -35t-74 -45.5t-47.5 -57.5t-19 -71.5q0 -75 68 -119.5t186 -44.5z" />
    <glyph glyph-name="Cacute" unicode="&#x106;" horiz-adv-x="2064" 
d="M1749 2044l-463 -324h-139l373 324h229zM995 -35q-381 0 -608 188t-227 506q0 125 39.5 247.5t110 229.5t173 198.5t224.5 156.5t268.5 102t300.5 37q134 0 257.5 -29.5t227 -85.5t177 -146.5t98.5 -205.5l-154 -53q-53 180 -224.5 281.5t-404.5 101.5
q-154 0 -297.5 -44.5t-255.5 -123t-196 -181t-129 -224t-45 -246.5q0 -116 39 -212t105 -162t156.5 -111t191 -66t210.5 -21q151 0 286.5 39t238.5 107.5t180 153.5t129 184l135 -47q-66 -124 -161.5 -226t-220.5 -181t-285 -123t-339 -44z" />
    <glyph glyph-name="cacute" unicode="&#x107;" horiz-adv-x="1486" 
d="M1372 1669l-440 -391h-135l366 391h209zM682 -35q-267 0 -423.5 134.5t-156.5 363.5q0 109 37.5 213t108.5 191.5t166.5 154t218.5 104t258 37.5q89 0 169 -17.5t152 -54t126 -100.5t79 -149l-155 -51q-32 117 -136.5 181t-257.5 64q-129 0 -243 -47.5t-191.5 -125
t-122.5 -178t-45 -206.5q0 -179 119 -283t322 -104q179 0 320 80.5t228 212.5l131 -45q-111 -182 -299.5 -278.5t-404.5 -96.5z" />
    <glyph glyph-name="Cdotaccent" unicode="&#x10a;" horiz-adv-x="2064" 
d="M1255 1786q-47 0 -78.5 27.5t-31.5 70.5q0 53 45 92t106 39q47 0 80 -28t33 -68q0 -52 -47 -92.5t-107 -40.5zM995 -35q-381 0 -608 188t-227 506q0 125 39.5 247.5t110 229.5t173 198.5t224.5 156.5t268.5 102t300.5 37q134 0 257.5 -29.5t227 -85.5t177 -146.5
t98.5 -205.5l-154 -53q-53 180 -224.5 281.5t-404.5 101.5q-154 0 -297.5 -44.5t-255.5 -123t-196 -181t-129 -224t-45 -246.5q0 -116 39 -212t105 -162t156.5 -111t191 -66t210.5 -21q151 0 286.5 39t238.5 107.5t180 153.5t129 184l135 -47q-66 -124 -161.5 -226
t-220.5 -181t-285 -123t-339 -44z" />
    <glyph glyph-name="cdotaccent" unicode="&#x10b;" horiz-adv-x="1486" 
d="M897 1417q-48 0 -80.5 28.5t-32.5 70.5q0 52 46 91.5t108 39.5q47 0 80 -28t33 -69q0 -52 -47 -92.5t-107 -40.5zM682 -35q-267 0 -423.5 134.5t-156.5 363.5q0 109 37.5 213t108.5 191.5t166.5 154t218.5 104t258 37.5q89 0 169 -17.5t152 -54t126 -100.5t79 -149
l-155 -51q-32 117 -136.5 181t-257.5 64q-129 0 -243 -47.5t-191.5 -125t-122.5 -178t-45 -206.5q0 -179 119 -283t322 -104q179 0 320 80.5t228 212.5l131 -45q-111 -182 -299.5 -278.5t-404.5 -96.5z" />
    <glyph glyph-name="Ccaron" unicode="&#x10c;" horiz-adv-x="2064" 
d="M1575 2028h139l-371 -308h-198l-266 308h139q128 -108 242 -220q35 25 82.5 59.5t73.5 53t68.5 47.5t90.5 60zM995 -35q-381 0 -608 188t-227 506q0 125 39.5 247.5t110 229.5t173 198.5t224.5 156.5t268.5 102t300.5 37q134 0 257.5 -29.5t227 -85.5t177 -146.5
t98.5 -205.5l-154 -53q-53 180 -224.5 281.5t-404.5 101.5q-154 0 -297.5 -44.5t-255.5 -123t-196 -181t-129 -224t-45 -246.5q0 -116 39 -212t105 -162t156.5 -111t191 -66t210.5 -21q151 0 286.5 39t238.5 107.5t180 153.5t129 184l135 -47q-66 -124 -161.5 -226
t-220.5 -181t-285 -123t-339 -44z" />
    <glyph glyph-name="ccaron" unicode="&#x10d;" horiz-adv-x="1486" 
d="M975 1282h-205l-291 363h144q27 -26 89 -85.5t99 -97.5t78 -84q65 51 185 137.5t177 129.5h144zM682 -35q-267 0 -423.5 134.5t-156.5 363.5q0 109 37.5 213t108.5 191.5t166.5 154t218.5 104t258 37.5q89 0 169 -17.5t152 -54t126 -100.5t79 -149l-155 -51
q-32 117 -136.5 181t-257.5 64q-129 0 -243 -47.5t-191.5 -125t-122.5 -178t-45 -206.5q0 -179 119 -283t322 -104q179 0 320 80.5t228 212.5l131 -45q-111 -182 -299.5 -278.5t-404.5 -96.5z" />
    <glyph glyph-name="Dcaron" unicode="&#x10e;" horiz-adv-x="1978" 
d="M1454 2028h139l-370 -308h-199l-266 308h139q128 -108 242 -220q35 25 82.5 59.5t73.5 53t68.5 47.5t90.5 60zM856 0h-692l282 1597h670q393 0 589 -170t196 -475q0 -147 -47 -287.5t-138 -260.5t-216 -210.5t-291.5 -142t-352.5 -51.5zM346 133h545q187 0 347.5 66
t267.5 175.5t167 251.5t60 294q0 275 -174.5 409.5t-497.5 134.5h-475q-29 -163 -62.5 -341t-71 -388t-106.5 -602z" />
    <glyph glyph-name="dcaron" unicode="&#x10f;" horiz-adv-x="1644" 
d="M1729 1180h-101l195 254q-33 9 -52.5 33t-19.5 55q0 52 46 91.5t108 39.5q46 0 76 -28t30 -71q0 -40 -50 -106.5t-232 -267.5zM637 -35q-241 0 -388 135.5t-147 358.5q0 135 58.5 263.5t157.5 225.5t239 156t293 59q164 0 289 -67t184 -191h4l133 733h150l-228 -1284
q-22 -130 -25 -211t9 -143h-154q-12 122 7 227h-5q-102 -126 -256 -194t-321 -68zM680 92q119 0 230.5 46.5t191.5 123t128 178t48 207.5q0 176 -121 282.5t-307 106.5q-120 0 -229 -47t-186.5 -124t-123 -178.5t-45.5 -207.5q0 -173 114 -280t300 -107z" />
    <glyph glyph-name="Dcroat" unicode="&#x110;" horiz-adv-x="1978" 
d="M446 1597h670q393 0 589 -170t196 -475q0 -147 -47 -287.5t-138 -260.5t-216 -210.5t-291.5 -142t-352.5 -51.5h-692l131 737h-201l19 121h202zM891 133q187 0 347.5 66t267.5 175.5t167 251.5t60 294q0 275 -174.5 409.5t-497.5 134.5h-475q-29 -161 -63 -345t-48 -261
h660l-19 -121h-663l-107 -604h545z" />
    <glyph glyph-name="dcroat" unicode="&#x111;" horiz-adv-x="1644" 
d="M1575 1444h315l-16 -115h-320l-172 -975q-22 -130 -25 -211t9 -143h-154q-12 122 7 227h-5q-102 -126 -256 -194t-321 -68q-241 0 -388 135.5t-147 358.5q0 135 58.5 263.5t157.5 225.5t239 156t293 59q164 0 289 -67t184 -191h4l78 424h-348l18 115h350l35 194h150z
M680 92q119 0 230.5 46.5t191.5 123t128 178t48 207.5q0 176 -121 282.5t-307 106.5q-120 0 -229 -47t-186.5 -124t-123 -178.5t-45.5 -207.5q0 -173 114 -280t300 -107z" />
    <glyph glyph-name="Emacron" unicode="&#x112;" horiz-adv-x="1613" 
d="M1454 1829h-799l21 117h797zM1391 0h-1227l282 1597h1203l-21 -133h-1042q-2 -13 -31 -163.5t-76 -411.5h994l-21 -137h-993q-10 -52 -113 -613h1067z" />
    <glyph glyph-name="emacron" unicode="&#x113;" horiz-adv-x="1306" 
d="M1221 1413h-826l19 115h825zM565 -35q-220 0 -351.5 129t-131.5 344q0 144 55 277.5t147.5 232t221 157t268.5 58.5q50 0 97.5 -7.5t98.5 -25t92.5 -47t78 -73t55.5 -102.5t25.5 -136t-13.5 -174l-12 -72h-960q-32 -201 67 -319.5t287 -118.5q149 0 269.5 80t197.5 209
l121 -45q-96 -172 -260 -269.5t-353 -97.5zM264 655h805q17 103 -4.5 181t-71.5 121t-111 64t-132 21q-166 0 -298 -107t-188 -280z" />
    <glyph glyph-name="Edotaccent" unicode="&#x116;" horiz-adv-x="1613" 
d="M1040 1786q-47 0 -78.5 27.5t-31.5 70.5q0 53 45 92t106 39q47 0 80 -28t33 -68q0 -52 -47 -92.5t-107 -40.5zM1391 0h-1227l282 1597h1203l-21 -133h-1042q-2 -13 -31 -163.5t-76 -411.5h994l-21 -137h-993q-10 -52 -113 -613h1067z" />
    <glyph glyph-name="edotaccent" unicode="&#x117;" horiz-adv-x="1306" 
d="M809 1417q-48 0 -80.5 28.5t-32.5 70.5q0 52 46 91.5t108 39.5q47 0 80 -28t33 -69q0 -52 -47 -92.5t-107 -40.5zM565 -35q-220 0 -351.5 129t-131.5 344q0 144 55 277.5t147.5 232t221 157t268.5 58.5q50 0 97.5 -7.5t98.5 -25t92.5 -47t78 -73t55.5 -102.5t25.5 -136
t-13.5 -174l-12 -72h-960q-32 -201 67 -319.5t287 -118.5q149 0 269.5 80t197.5 209l121 -45q-96 -172 -260 -269.5t-353 -97.5zM264 655h805q17 103 -4.5 181t-71.5 121t-111 64t-132 21q-166 0 -298 -107t-188 -280z" />
    <glyph glyph-name="Eogonek" unicode="&#x118;" horiz-adv-x="1613" 
d="M1649 1597l-21 -133h-1042q-2 -13 -31 -163.5t-76 -411.5h994l-21 -137h-993q-10 -52 -113 -613h1067l-22 -139q-103 -37 -177.5 -96.5t-74.5 -134.5q0 -60 54.5 -97t135.5 -37q47 0 111 15l-17 -99q-69 -14 -120 -14q-125 0 -206 52t-81 147q0 154 235 264h-1087
l282 1597h1203z" />
    <glyph glyph-name="eogonek" unicode="&#x119;" horiz-adv-x="1306" 
d="M774 1163q50 0 97.5 -7.5t98.5 -25t92.5 -47t78 -73t55.5 -102.5t25.5 -136t-13.5 -174l-12 -72h-960q-32 -201 67 -319.5t287 -118.5q149 0 269.5 80t197.5 209l121 -45q-72 -130 -186 -218.5t-251 -125.5q-93 -38 -154 -94.5t-61 -124.5q0 -61 53 -96t134 -35
q51 0 108 14l-16 -101q-63 -14 -121 -14q-129 0 -206 54t-77 145q0 129 172 229h-8q-220 0 -351.5 129t-131.5 344q0 144 55 277.5t147.5 232t221 157t268.5 58.5zM264 655h805q17 103 -4.5 181t-71.5 121t-111 64t-132 21q-166 0 -298 -107t-188 -280z" />
    <glyph glyph-name="Ecaron" unicode="&#x11a;" horiz-adv-x="1613" 
d="M1362 2028h139l-371 -308h-198l-266 308h139q128 -108 242 -220q35 25 82.5 59.5t73.5 53t68.5 47.5t90.5 60zM1391 0h-1227l282 1597h1203l-21 -133h-1042q-2 -13 -31 -163.5t-76 -411.5h994l-21 -137h-993q-10 -52 -113 -613h1067z" />
    <glyph glyph-name="ecaron" unicode="&#x11b;" horiz-adv-x="1306" 
d="M885 1282h-205l-291 363h143q30 -30 89.5 -86.5t98 -95.5t79.5 -85q65 51 185 137.5t177 129.5h144zM565 -35q-220 0 -351.5 129t-131.5 344q0 144 55 277.5t147.5 232t221 157t268.5 58.5q50 0 97.5 -7.5t98.5 -25t92.5 -47t78 -73t55.5 -102.5t25.5 -136t-13.5 -174
l-12 -72h-960q-32 -201 67 -319.5t287 -118.5q149 0 269.5 80t197.5 209l121 -45q-96 -172 -260 -269.5t-353 -97.5zM264 655h805q17 103 -4.5 181t-71.5 121t-111 64t-132 21q-166 0 -298 -107t-188 -280z" />
    <glyph glyph-name="Gbreve" unicode="&#x11e;" horiz-adv-x="2154" 
d="M1245 1726q-100 0 -180 29t-127.5 75.5t-70.5 103.5t-17 116h137q-8 -82 70.5 -147.5t204.5 -65.5q127 0 228 65.5t124 147.5h137q-13 -59 -55 -116t-105.5 -103.5t-154 -75.5t-191.5 -29zM977 -35q-374 0 -596.5 188t-222.5 504q0 150 55 295t157 266.5t238 214.5
t308.5 145t357.5 52q135 0 259 -29.5t227 -86t176 -147t98 -204.5l-154 -53q-55 180 -226.5 281.5t-404.5 101.5q-153 0 -296 -44.5t-255 -123t-196 -181t-129 -224t-45 -246.5q0 -117 38.5 -213t104.5 -162t155 -111t187.5 -65.5t204.5 -20.5q307 0 535 155.5t294 395.5
h-680l21 127h840l-138 -780h-133q12 78 62 360h-13q-133 -188 -344.5 -291.5t-484.5 -103.5z" />
    <glyph glyph-name="gbreve" unicode="&#x11f;" horiz-adv-x="1640" 
d="M918 1276q-204 0 -303 110.5t-76 284.5h137q-19 -128 54 -205t206 -77t233 77t131 205h138q-38 -174 -178.5 -284.5t-341.5 -110.5zM606 -483q-461 0 -545 329l146 45q27 -118 131.5 -185.5t284.5 -67.5q101 0 189 26t166 81t133.5 151t80.5 227l25 139h-5
q-103 -127 -252 -193.5t-315 -66.5q-154 0 -275.5 57.5t-192.5 168.5t-71 259q0 105 37.5 206t106.5 185t160 148.5t204.5 100.5t233.5 36q166 0 293.5 -69t183.5 -197h6l41 233h146l-172 -991q-110 -622 -740 -622zM684 129q117 0 227.5 45.5t190.5 119t129 171t49 197.5
q0 166 -122 270t-308 104q-117 0 -224.5 -44.5t-184.5 -117.5t-123 -169t-46 -197q0 -168 114.5 -273.5t297.5 -105.5z" />
    <glyph glyph-name="Gdotaccent" unicode="&#x120;" horiz-adv-x="2154" 
d="M1253 1786q-47 0 -78.5 27.5t-31.5 70.5q0 53 45 92t106 39q47 0 80 -28t33 -68q0 -52 -47 -92.5t-107 -40.5zM977 -35q-374 0 -596.5 188t-222.5 504q0 150 55 295t157 266.5t238 214.5t308.5 145t357.5 52q135 0 259 -29.5t227 -86t176 -147t98 -204.5l-154 -53
q-55 180 -226.5 281.5t-404.5 101.5q-153 0 -296 -44.5t-255 -123t-196 -181t-129 -224t-45 -246.5q0 -117 38.5 -213t104.5 -162t155 -111t187.5 -65.5t204.5 -20.5q307 0 535 155.5t294 395.5h-680l21 127h840l-138 -780h-133q12 78 62 360h-13q-133 -188 -344.5 -291.5
t-484.5 -103.5z" />
    <glyph glyph-name="gdotaccent" unicode="&#x121;" horiz-adv-x="1640" 
d="M944 1417q-48 0 -80.5 28.5t-32.5 70.5q0 52 46 91.5t108 39.5q47 0 80 -28t33 -69q0 -52 -47 -92.5t-107 -40.5zM606 -483q-461 0 -545 329l146 45q27 -118 131.5 -185.5t284.5 -67.5q101 0 189 26t166 81t133.5 151t80.5 227l25 139h-5q-103 -127 -252 -193.5
t-315 -66.5q-154 0 -275.5 57.5t-192.5 168.5t-71 259q0 105 37.5 206t106.5 185t160 148.5t204.5 100.5t233.5 36q166 0 293.5 -69t183.5 -197h6l41 233h146l-172 -991q-110 -622 -740 -622zM684 129q117 0 227.5 45.5t190.5 119t129 171t49 197.5q0 166 -122 270t-308 104
q-117 0 -224.5 -44.5t-184.5 -117.5t-123 -169t-46 -197q0 -168 114.5 -273.5t297.5 -105.5z" />
    <glyph glyph-name="uni0122" unicode="&#x122;" horiz-adv-x="2154" 
d="M977 -35q-374 0 -596.5 188t-222.5 504q0 150 55 295t157 266.5t238 214.5t308.5 145t357.5 52q135 0 259 -29.5t227 -86t176 -147t98 -204.5l-154 -53q-55 180 -226.5 281.5t-404.5 101.5q-153 0 -296 -44.5t-255 -123t-196 -181t-129 -224t-45 -246.5q0 -117 38.5 -213
t104.5 -162t155 -111t187.5 -65.5t204.5 -20.5q307 0 535 155.5t294 395.5h-680l21 127h840l-138 -780h-133q12 78 62 360h-13q-133 -188 -344.5 -291.5t-484.5 -103.5zM821 -520h-78l150 194q-86 17 -86 86q0 48 42.5 85.5t100.5 37.5q45 0 76 -25.5t31 -64.5
q0 -41 -40 -93t-161 -183q-8 -8 -12 -12.5t-10.5 -11.5t-12.5 -13z" />
    <glyph glyph-name="uni0123" unicode="&#x123;" horiz-adv-x="1640" 
d="M776 1348q0 39 46.5 98.5t228.5 263.5h98l-188 -246q32 -9 50.5 -31.5t18.5 -54.5q0 -51 -44 -87t-103 -36q-45 0 -76 26t-31 67zM606 -483q-461 0 -545 329l146 45q27 -118 131.5 -185.5t284.5 -67.5q101 0 189 26t166 81t133.5 151t80.5 227l25 139h-5
q-103 -127 -252 -193.5t-315 -66.5q-154 0 -275.5 57.5t-192.5 168.5t-71 259q0 105 37.5 206t106.5 185t160 148.5t204.5 100.5t233.5 36q166 0 293.5 -69t183.5 -197h6l41 233h146l-172 -991q-110 -622 -740 -622zM684 129q117 0 227.5 45.5t190.5 119t129 171t49 197.5
q0 166 -122 270t-308 104q-117 0 -224.5 -44.5t-184.5 -117.5t-123 -169t-46 -197q0 -168 114.5 -273.5t297.5 -105.5z" />
    <glyph glyph-name="Hbar" unicode="&#x126;" horiz-adv-x="1986" 
d="M1851 1286h162l-16 -117h-166l-207 -1169h-160l129 737h-1138l-129 -737h-162l207 1169h-166l18 117h168l55 311h162l-55 -311h1139l55 311h160zM479 872h1139l53 297h-1139z" />
    <glyph glyph-name="hbar" unicode="&#x127;" horiz-adv-x="1554" 
d="M961 1163q63 0 119.5 -10t110 -32.5t92.5 -58t67 -86t34.5 -117t-6.5 -150.5l-125 -709h-149l115 647q18 102 -1 179.5t-66 122t-109 66t-136 21.5q-105 0 -198 -35t-158.5 -92.5t-108.5 -129.5t-57 -148l-111 -631h-149l233 1327h-225l19 115h227l35 196h149l-35 -196
h439l-17 -115h-442l-74 -414h4q199 250 523 250z" />
    <glyph glyph-name="Imacron" unicode="&#x12a;" horiz-adv-x="686" 
d="M971 1829h-799l21 117h796zM326 0h-162l282 1597h162z" />
    <glyph glyph-name="imacron" unicode="&#x12b;" horiz-adv-x="595" 
d="M864 1409h-825l18 115h826zM274 0h-149l199 1130h149z" />
    <glyph glyph-name="Iogonek" unicode="&#x12e;" horiz-adv-x="686" 
d="M74 -231q0 -60 54.5 -97t135.5 -37q47 0 111 15l-17 -99q-69 -14 -120 -14q-125 0 -206 52t-81 147q0 154 235 264h-22l282 1597h162l-282 -1597q-103 -37 -177.5 -96.5t-74.5 -134.5z" />
    <glyph glyph-name="iogonek" unicode="&#x12f;" horiz-adv-x="595" 
d="M492 1642q47 0 79.5 -27.5t32.5 -68.5q0 -52 -46.5 -92.5t-106.5 -40.5q-48 0 -80.5 28t-32.5 70q0 52 46 91.5t108 39.5zM274 0h-8q-66 -24 -119 -56t-90 -78.5t-37 -96.5q0 -61 53 -96t134 -35q51 0 108 14l-16 -101q-63 -14 -121 -14q-129 0 -205.5 54t-76.5 145
q0 48 23 91.5t61.5 76t75.5 55t79 41.5h-10l199 1130h149z" />
    <glyph glyph-name="Idotaccent" unicode="&#x130;" horiz-adv-x="686" 
d="M559 1786q-47 0 -78.5 27.5t-31.5 70.5q0 53 45 92t106 39q47 0 80 -28t33 -68q0 -52 -47 -92.5t-107 -40.5zM326 0h-162l282 1597h162z" />
    <glyph glyph-name="dotlessi" unicode="&#x131;" horiz-adv-x="595" 
d="M274 0h-149l199 1130h149z" />
    <glyph glyph-name="uni0136" unicode="&#x136;" horiz-adv-x="1624" 
d="M326 0h-162l282 1597h162q-35 -192 -89 -494t-66 -366h6q400 319 1122 860h193q-435 -332 -910 -700q325 -438 674 -897h-197q-55 71 -243 315t-367 473q-172 -129 -309 -237q-11 -58 -29 -169.5t-67 -381.5zM578 -520h-78l149 194q-86 17 -86 86q0 48 43 85.5t101 37.5
q45 0 75.5 -25.5t30.5 -64.5q0 -42 -39.5 -93.5t-167.5 -189.5q-18 -20 -28 -30z" />
    <glyph glyph-name="uni0137" unicode="&#x137;" horiz-adv-x="1265" 
d="M1114 1130h186l-589 -444l481 -686h-174l-430 594l-240 -182l-74 -412h-149l289 1638h149l-186 -1054h4q116 87 359 267t374 279zM559 -117q45 0 76 -25.5t31 -64.5q0 -41 -40 -93t-161 -183q-23 -24 -35 -37h-78l150 194q-86 17 -86 86q0 48 42.5 85.5t100.5 37.5z" />
    <glyph glyph-name="Lacute" unicode="&#x139;" horiz-adv-x="1445" 
d="M883 2044h229l-463 -324h-139zM608 1597l-258 -1458h989l-22 -139h-1153l282 1597h162z" />
    <glyph glyph-name="lacute" unicode="&#x13a;" horiz-adv-x="595" 
d="M1061 2085l-463 -324h-139l372 324h230zM274 0h-149l289 1638h149z" />
    <glyph glyph-name="uni013B" unicode="&#x13b;" horiz-adv-x="1445" 
d="M608 1597l-258 -1458h989l-22 -139h-1153l282 1597h162zM657 -117q45 0 76 -25.5t31 -64.5q0 -41 -40 -93t-161 -183q-8 -8 -12 -12.5t-10.5 -11.5t-12.5 -13h-77l149 194q-86 17 -86 86q0 48 42.5 85.5t100.5 37.5z" />
    <glyph glyph-name="uni013C" unicode="&#x13c;" horiz-adv-x="595" 
d="M274 0h-149l289 1638h149zM55 -520h-78l150 194q-86 17 -86 86q0 48 42.5 85.5t100.5 37.5q45 0 76 -25.5t31 -64.5q0 -41 -40 -93t-161 -183q-23 -24 -35 -37z" />
    <glyph glyph-name="Lcaron" unicode="&#x13d;" horiz-adv-x="1445" 
d="M1083 1165h-100l195 254q-33 9 -52.5 33t-19.5 55q0 52 46 91.5t108 39.5q45 0 75.5 -28t30.5 -70q0 -41 -49.5 -106t-233.5 -269zM446 1597h162l-258 -1458h989l-22 -139h-1153z" />
    <glyph glyph-name="lcaron" unicode="&#x13e;" horiz-adv-x="595" 
d="M274 0h-149l289 1638h149zM829 1165h-100l195 254q-33 9 -51.5 33t-18.5 55q0 53 45.5 92t106.5 39q46 0 77 -28t31 -70q0 -40 -49 -104t-236 -271z" />
    <glyph glyph-name="Lslash" unicode="&#x141;" horiz-adv-x="1445" 
d="M473 838l-123 -699h989l-22 -139h-1153l137 774l-221 -82l20 127l224 82l122 696h162l-112 -632l393 143l-21 -125z" />
    <glyph glyph-name="lslash" unicode="&#x142;" horiz-adv-x="595" 
d="M457 1032l268 148l-18 -123l-273 -150l-160 -907h-149l143 815l-264 -145l23 125l264 145l123 698h149z" />
    <glyph glyph-name="Nacute" unicode="&#x143;" horiz-adv-x="2027" 
d="M1702 2044l-463 -324h-139l373 324h229zM326 0h-162l282 1597h177q630 -931 913 -1366h6q29 158 78 424t90 493t80 449h160l-283 -1597h-174q-46 67 -393 570.5t-529 777.5h-2q-15 -87 -102 -555.5t-141 -792.5z" />
    <glyph glyph-name="nacute" unicode="&#x144;" horiz-adv-x="1554" 
d="M1399 1669l-441 -391h-135l367 391h209zM274 0h-149l199 1130h145l-39 -217h4q99 126 237 188t292 62q78 0 145 -15t126 -47.5t95 -85.5t52.5 -129t-3.5 -177l-125 -709h-149l115 647q16 85 5 149.5t-38.5 110t-72.5 74t-97.5 42t-112.5 13.5q-104 0 -196 -35t-157 -92.5
t-108 -129.5t-57 -148z" />
    <glyph glyph-name="uni0145" unicode="&#x145;" horiz-adv-x="2027" 
d="M326 0h-162l282 1597h177q630 -931 913 -1366h6q29 158 78 424t90 493t80 449h160l-283 -1597h-174q-46 67 -393 570.5t-529 777.5h-2q-15 -87 -102 -555.5t-141 -792.5zM799 -520h-78l149 194q-86 17 -86 86q0 48 43 85.5t101 37.5q45 0 75.5 -25.5t30.5 -64.5
q0 -42 -39.5 -93.5t-167.5 -189.5q-18 -20 -28 -30z" />
    <glyph glyph-name="uni0146" unicode="&#x146;" horiz-adv-x="1554" 
d="M274 0h-149l199 1130h145l-39 -217h4q99 126 237 188t292 62q78 0 145 -15t126 -47.5t95 -85.5t52.5 -129t-3.5 -177l-125 -709h-149l115 647q16 85 5 149.5t-38.5 110t-72.5 74t-97.5 42t-112.5 13.5q-104 0 -196 -35t-157 -92.5t-108 -129.5t-57 -148zM563 -520h-78
l150 194q-86 17 -86 86q0 48 42.5 85.5t100.5 37.5q45 0 76 -25.5t31 -64.5q0 -41 -40 -93t-161 -183q-8 -8 -12 -12.5t-10.5 -11.5t-12.5 -13z" />
    <glyph glyph-name="Ncaron" unicode="&#x147;" horiz-adv-x="2027" 
d="M1528 2028h139l-371 -308h-198l-267 308h140q120 -102 241 -220q33 24 82.5 59.5t74.5 53.5t67.5 47t91.5 60zM326 0h-162l282 1597h177q630 -931 913 -1366h6q29 158 78 424t90 493t80 449h160l-283 -1597h-174q-46 67 -393 570.5t-529 777.5h-2q-15 -87 -102 -555.5
t-141 -792.5z" />
    <glyph glyph-name="ncaron" unicode="&#x148;" horiz-adv-x="1554" 
d="M1001 1282h-204l-291 363h143q27 -26 89 -85.5t99 -97.5t78 -84q64 51 184 137t179 130h143zM274 0h-149l199 1130h145l-39 -217h4q99 126 237 188t292 62q78 0 145 -15t126 -47.5t95 -85.5t52.5 -129t-3.5 -177l-125 -709h-149l115 647q16 85 5 149.5t-38.5 110
t-72.5 74t-97.5 42t-112.5 13.5q-104 0 -196 -35t-157 -92.5t-108 -129.5t-57 -148z" />
    <glyph glyph-name="Eng" unicode="&#x14a;" horiz-adv-x="2027" 
d="M1106 -483q-170 0 -266 55l18 135q103 -61 238 -61q161 0 268 91.5t137 248.5q-113 166 -300.5 437.5t-339.5 494.5t-292 434l-243 -1352h-162l282 1597h177q630 -931 913 -1366h6l248 1366h160l-273 -1536q-100 -544 -571 -544z" />
    <glyph glyph-name="eng" unicode="&#x14b;" horiz-adv-x="1554" 
d="M793 -483q-153 0 -246 55l20 129q106 -61 219 -61q41 0 76.5 8.5t62 20.5t50 35t39 41t29.5 49.5t21.5 51t16.5 54.5t12 50t9 48l117 649q18 102 0 179.5t-64.5 122t-108.5 66t-139 21.5q-105 0 -198 -35t-158.5 -92.5t-108.5 -129.5t-57 -148l-111 -631h-149l199 1130
h145l-39 -217h4q99 126 237 188t292 62q63 0 119.5 -10t110 -32t92.5 -56.5t67 -84t34.5 -114t-6.5 -147.5l-129 -733q-8 -50 -14.5 -80.5t-23.5 -85.5t-36.5 -91t-55 -80t-79 -70t-107.5 -44t-142 -18z" />
    <glyph glyph-name="Omacron" unicode="&#x14c;" horiz-adv-x="2177" 
d="M1714 1829h-799l21 117h797zM985 -35q-239 0 -427.5 89.5t-294 250.5t-105.5 365q0 148 57.5 291.5t162.5 263t242.5 211t308 143t349.5 51.5q239 0 427.5 -89.5t294 -251t105.5 -365.5q0 -123 -41.5 -244.5t-115 -226.5t-178 -195.5t-227 -155t-266.5 -101t-292 -36.5z
M1010 102q181 0 351.5 67.5t294 178.5t198.5 258.5t75 300.5q0 168 -86.5 302t-240.5 209t-347 75q-178 0 -348 -67.5t-296 -177.5t-202.5 -258.5t-76.5 -303.5q0 -169 88 -303t242.5 -207.5t347.5 -73.5z" />
    <glyph glyph-name="omacron" unicode="&#x14d;" horiz-adv-x="1579" 
d="M1354 1413h-826l19 115h825zM684 -35q-266 0 -424 135.5t-158 364.5q0 134 59.5 260t162 223t252.5 156t319 59q265 0 423.5 -136t158.5 -363q0 -134 -59 -260.5t-161.5 -223.5t-252.5 -156t-320 -59zM705 92q130 0 245 47t193.5 124t124 178t45.5 208q0 177 -118.5 282
t-317.5 105q-130 0 -245.5 -47t-194.5 -124.5t-125 -178.5t-46 -207q0 -177 119 -282t320 -105z" />
    <glyph glyph-name="Ohungarumlaut" unicode="&#x150;" horiz-adv-x="2177" 
d="M1524 2044l-389 -324h-136l310 324h215zM1898 2044l-407 -324h-139l331 324h215zM985 -35q-239 0 -427.5 89.5t-294 250.5t-105.5 365q0 148 57.5 291.5t162.5 263t242.5 211t308 143t349.5 51.5q239 0 427.5 -89.5t294 -251t105.5 -365.5q0 -123 -41.5 -244.5
t-115 -226.5t-178 -195.5t-227 -155t-266.5 -101t-292 -36.5zM1010 102q181 0 351.5 67.5t294 178.5t198.5 258.5t75 300.5q0 168 -86.5 302t-240.5 209t-347 75q-178 0 -348 -67.5t-296 -177.5t-202.5 -258.5t-76.5 -303.5q0 -169 88 -303t242.5 -207.5t347.5 -73.5z" />
    <glyph glyph-name="ohungarumlaut" unicode="&#x151;" horiz-adv-x="1579" 
d="M1157 1673l-401 -395h-133l325 395h209zM1536 1673l-422 -395h-133l348 395h207zM684 -35q-266 0 -424 135.5t-158 364.5q0 134 59.5 260t162 223t252.5 156t319 59q265 0 423.5 -136t158.5 -363q0 -134 -59 -260.5t-161.5 -223.5t-252.5 -156t-320 -59zM705 92
q130 0 245 47t193.5 124t124 178t45.5 208q0 177 -118.5 282t-317.5 105q-130 0 -245.5 -47t-194.5 -124.5t-125 -178.5t-46 -207q0 -177 119 -282t320 -105z" />
    <glyph glyph-name="OE" unicode="&#x152;" horiz-adv-x="3229" 
d="M983 -35q-236 0 -423.5 87.5t-294.5 248.5t-107 367q0 149 57.5 293t162.5 263.5t242.5 211.5t308 143t347.5 51q255 0 447.5 -101.5t283.5 -275.5l66 344h1194l-21 -133h-1040l-105 -575h989l-22 -137h-989l-111 -613h1063l-22 -139h-1221l65 340q-158 -173 -387 -274
t-483 -101zM1008 102q181 0 351.5 68t294 179t198.5 259t75 301q0 168 -86 301.5t-239.5 208t-346.5 74.5q-179 0 -349 -67.5t-295.5 -177.5t-202 -258.5t-76.5 -303.5q0 -169 88 -303t242 -207.5t346 -73.5z" />
    <glyph glyph-name="oe" unicode="&#x153;" horiz-adv-x="2709" 
d="M684 -35q-265 0 -423.5 136t-158.5 364q0 134 59.5 260.5t162.5 223.5t252.5 155.5t318.5 58.5q202 0 344 -81t197 -222q102 141 271.5 222t367.5 81q44 0 86.5 -4.5t89 -14.5t88 -26.5t82.5 -41t72 -56.5t57.5 -74t39 -94t15.5 -115.5t-12 -138.5l-8 -47h-1125
q-36 -209 86.5 -336t343.5 -127q177 0 317.5 80.5t225.5 208.5l131 -45q-107 -172 -294.5 -269.5t-405.5 -97.5q-199 0 -339.5 80t-193.5 219q-104 -139 -274.5 -219t-372.5 -80zM1485 657h954q14 83 -2.5 150t-54 110t-93 72t-115.5 41t-126 12q-197 0 -349 -106t-214 -279
zM705 92q130 0 245 46.5t193.5 124t124 178t45.5 206.5q0 178 -118 283.5t-318 105.5q-130 0 -245 -47t-194.5 -124.5t-125.5 -178.5t-46 -207q0 -177 119 -282t320 -105z" />
    <glyph glyph-name="Racute" unicode="&#x154;" horiz-adv-x="1701" 
d="M1501 2044l-463 -324h-139l373 324h229zM326 0h-162l282 1597h668q92 0 172.5 -14.5t150 -45.5t119.5 -77.5t78.5 -113.5t28.5 -150q0 -100 -43.5 -195t-120 -170t-188 -125.5t-240.5 -62.5l-2 -2q25 -39 114.5 -175t154 -238.5t137.5 -227.5h-179l-403 637h-457
q-14 -75 -20 -113t-10 -62t-24.5 -142t-55.5 -320zM457 768h497q239 0 389 112t150 281q0 148 -113.5 225.5t-316.5 77.5h-477q-110 -593 -129 -696z" />
    <glyph glyph-name="racute" unicode="&#x155;" horiz-adv-x="1001" 
d="M1186 1669l-441 -391h-135l367 391h209zM274 0h-149l199 1130h145l-45 -233h10q74 118 210 192t284 74q86 0 151 -22l-24 -150q-69 27 -168 27q-101 0 -191.5 -41t-155.5 -108t-108 -150t-59 -170z" />
    <glyph glyph-name="uni0156" unicode="&#x156;" horiz-adv-x="1701" 
d="M326 0h-162l282 1597h668q92 0 172.5 -14.5t150 -45.5t119.5 -77.5t78.5 -113.5t28.5 -150q0 -100 -43.5 -195t-120 -170t-188 -125.5t-240.5 -62.5l-2 -2q25 -39 114.5 -175t154 -238.5t137.5 -227.5h-179l-403 637h-457q-14 -75 -20 -113t-10 -62t-24.5 -142
t-55.5 -320zM457 768h497q239 0 389 112t150 281q0 148 -113.5 225.5t-316.5 77.5h-477q-110 -593 -129 -696zM623 -520h-78l149 194q-86 17 -86 86q0 48 43 85.5t101 37.5q45 0 75.5 -25.5t30.5 -64.5q0 -42 -39.5 -93.5t-167.5 -189.5q-18 -20 -28 -30z" />
    <glyph glyph-name="uni0157" unicode="&#x157;" horiz-adv-x="1001" 
d="M274 0h-149l199 1130h145l-45 -233h10q74 118 210 192t284 74q86 0 151 -22l-24 -150q-69 27 -168 27q-101 0 -191.5 -41t-155.5 -108t-108 -150t-59 -170zM47 -520h-78l150 194q-86 17 -86 86q0 48 42.5 85.5t100.5 37.5q45 0 76 -25.5t31 -64.5q0 -41 -40 -93
t-161 -183q-23 -24 -35 -37z" />
    <glyph glyph-name="Rcaron" unicode="&#x158;" horiz-adv-x="1701" 
d="M1327 2028h139l-370 -308h-199l-266 308h139q128 -108 242 -220q35 25 82.5 59.5t73.5 53t68.5 47.5t90.5 60zM326 0h-162l282 1597h668q92 0 172.5 -14.5t150 -45.5t119.5 -77.5t78.5 -113.5t28.5 -150q0 -100 -43.5 -195t-120 -170t-188 -125.5t-240.5 -62.5l-2 -2
q25 -39 114.5 -175t154 -238.5t137.5 -227.5h-179l-403 637h-457q-14 -75 -20 -113t-10 -62t-24.5 -142t-55.5 -320zM457 768h497q239 0 389 112t150 281q0 148 -113.5 225.5t-316.5 77.5h-477q-110 -593 -129 -696z" />
    <glyph glyph-name="rcaron" unicode="&#x159;" horiz-adv-x="1001" 
d="M788 1282h-204l-291 363h143q27 -26 89 -85.5t99 -97.5t78 -84q64 51 184 137t179 130h143zM274 0h-149l199 1130h145l-45 -233h10q74 118 210 192t284 74q86 0 151 -22l-24 -150q-69 27 -168 27q-101 0 -191.5 -41t-155.5 -108t-108 -150t-59 -170z" />
    <glyph glyph-name="Sacute" unicode="&#x15a;" horiz-adv-x="1576" 
d="M1411 2044l-461 -324h-141l373 324h229zM713 -35q-88 0 -169.5 15t-161 50t-141.5 87.5t-107 133.5t-60 183l157 49q17 -125 89 -213t178.5 -129t240.5 -41q220 0 373.5 103t153.5 246q0 48 -21.5 87t-47 62t-80 46t-84.5 32t-97 27q-8 2 -13 3.5t-11.5 3t-12.5 3.5
l-170 45q-44 12 -78 22.5t-84.5 30t-88 40t-78.5 51.5t-67 65.5t-43.5 81.5t-17.5 100q0 95 53.5 183t145 153.5t221 105t273.5 39.5q244 0 393 -105.5t178 -277.5l-152 -53q-30 138 -148.5 219.5t-303.5 81.5q-206 0 -347 -92.5t-141 -220.5q0 -38 15.5 -73t36 -59.5
t57 -48t62.5 -37.5t70 -30t62.5 -21t55.5 -16l176 -51q172 -46 239 -74q203 -86 225 -244q3 -21 3 -43q0 -99 -57 -193.5t-153.5 -166.5t-234 -116t-288.5 -44z" />
    <glyph glyph-name="sacute" unicode="&#x15b;" horiz-adv-x="1202" 
d="M1225 1669l-441 -391h-135l367 391h209zM526 -35q-194 0 -330 87.5t-167 230.5l145 41q36 -109 141 -174.5t240 -65.5q143 0 247.5 67.5t104.5 161.5q0 17 -3 32t-12 28t-16 23.5t-23.5 20.5t-25.5 16.5t-32.5 14t-33 11.5t-37.5 11t-37 9.5t-40 9.5l-121 31
q-35 9 -51 13t-58.5 18.5t-66.5 27t-59 36t-54.5 49t-34 62.5t-14.5 79q0 96 66.5 178.5t181 131t248.5 48.5q171 0 289 -77.5t145 -198.5l-153 -45q-22 86 -102.5 144t-207.5 58q-131 0 -221 -60.5t-90 -145.5q0 -31 12 -58t37.5 -47.5t49 -35t62.5 -28t61 -20t61 -16.5
l125 -31q42 -10 66.5 -17t68 -22t70.5 -33t55.5 -44t42.5 -62t14 -80q0 -71 -41 -139.5t-111.5 -121.5t-173 -85.5t-217.5 -32.5z" />
    <glyph glyph-name="Scedilla" unicode="&#x15e;" horiz-adv-x="1576" 
d="M803 897l176 -51q172 -46 239 -74q203 -86 225 -244q3 -21 3 -43q0 -96 -54.5 -189t-147 -164.5t-224 -117t-277.5 -49.5l-125 -123q48 19 103 19q89 0 143 -39t54 -103q0 -86 -87.5 -148.5t-216.5 -62.5q-83 0 -160 29.5t-120 81.5l74 59q32 -42 90.5 -67t119.5 -25
q78 0 132.5 34.5t54.5 84.5q0 39 -37.5 62.5t-95.5 23.5q-65 0 -121 -27l-55 54l143 149q-80 6 -153 25t-143 56t-123.5 89t-92.5 128t-53 169l157 49q17 -125 89 -213t178.5 -129t240.5 -41q220 0 373.5 103t153.5 246q0 48 -21.5 87t-47 62t-80 46t-84.5 32t-97 27
q-8 2 -13 3.5t-11.5 3t-12.5 3.5l-170 45q-44 12 -78 22.5t-84.5 30t-88 40t-78.5 51.5t-67 65.5t-43.5 81.5t-17.5 100q0 95 53.5 183t145 153.5t221 105t273.5 39.5q244 0 393 -105.5t178 -277.5l-152 -53q-30 138 -148.5 219.5t-303.5 81.5q-206 0 -347 -92.5
t-141 -220.5q0 -38 15.5 -73t36 -59.5t57 -48t62.5 -37.5t70 -30t62.5 -21t55.5 -16z" />
    <glyph glyph-name="scedilla" unicode="&#x15f;" horiz-adv-x="1202" 
d="M627 633l125 -31q42 -10 66.5 -17t68 -22t70.5 -33t55.5 -44t42.5 -62t14 -80q0 -142 -147 -256t-365 -123l-125 -123q48 19 103 19q89 0 142.5 -38.5t53.5 -103.5q0 -86 -87.5 -148.5t-215.5 -62.5q-83 0 -160.5 29.5t-120.5 81.5l74 59q32 -42 91 -67t120 -25
q78 0 132 34.5t54 84.5q0 39 -37.5 62.5t-95.5 23.5q-64 0 -120 -27l-56 54l144 151q-167 15 -281.5 100t-142.5 214l145 41q36 -109 141 -174.5t240 -65.5q143 0 247.5 67.5t104.5 161.5q0 17 -3 32t-12 28t-16 23.5t-23.5 20.5t-25.5 16.5t-32.5 14t-33 11.5t-37.5 11
t-37 9.5t-40 9.5l-121 31q-35 9 -51 13t-58.5 18.5t-66.5 27t-59 36t-54.5 49t-34 62.5t-14.5 79q0 96 66.5 178.5t181 131t248.5 48.5q171 0 289 -77.5t145 -198.5l-153 -45q-22 86 -102.5 144t-207.5 58q-131 0 -221 -60.5t-90 -145.5q0 -31 12 -58t37.5 -47.5t49 -35
t62.5 -28t61 -20t61 -16.5z" />
    <glyph glyph-name="Scaron" unicode="&#x160;" horiz-adv-x="1576" 
d="M1315 2028h139l-371 -308h-198l-267 308h140q120 -102 241 -220q33 24 82.5 59.5t74.5 53.5t67.5 47t91.5 60zM713 -35q-88 0 -169.5 15t-161 50t-141.5 87.5t-107 133.5t-60 183l157 49q17 -125 89 -213t178.5 -129t240.5 -41q220 0 373.5 103t153.5 246q0 48 -21.5 87
t-47 62t-80 46t-84.5 32t-97 27q-8 2 -13 3.5t-11.5 3t-12.5 3.5l-170 45q-44 12 -78 22.5t-84.5 30t-88 40t-78.5 51.5t-67 65.5t-43.5 81.5t-17.5 100q0 95 53.5 183t145 153.5t221 105t273.5 39.5q244 0 393 -105.5t178 -277.5l-152 -53q-30 138 -148.5 219.5
t-303.5 81.5q-206 0 -347 -92.5t-141 -220.5q0 -38 15.5 -73t36 -59.5t57 -48t62.5 -37.5t70 -30t62.5 -21t55.5 -16l176 -51q172 -46 239 -74q203 -86 225 -244q3 -21 3 -43q0 -99 -57 -193.5t-153.5 -166.5t-234 -116t-288.5 -44z" />
    <glyph glyph-name="scaron" unicode="&#x161;" horiz-adv-x="1202" 
d="M827 1282h-204l-291 363h143q27 -26 89 -85.5t99 -97.5t78 -84q64 51 184 137t179 130h143zM526 -35q-194 0 -330 87.5t-167 230.5l145 41q36 -109 141 -174.5t240 -65.5q143 0 247.5 67.5t104.5 161.5q0 17 -3 32t-12 28t-16 23.5t-23.5 20.5t-25.5 16.5t-32.5 14
t-33 11.5t-37.5 11t-37 9.5t-40 9.5l-121 31q-35 9 -51 13t-58.5 18.5t-66.5 27t-59 36t-54.5 49t-34 62.5t-14.5 79q0 96 66.5 178.5t181 131t248.5 48.5q171 0 289 -77.5t145 -198.5l-153 -45q-22 86 -102.5 144t-207.5 58q-131 0 -221 -60.5t-90 -145.5q0 -31 12 -58
t37.5 -47.5t49 -35t62.5 -28t61 -20t61 -16.5l125 -31q42 -10 66.5 -17t68 -22t70.5 -33t55.5 -44t42.5 -62t14 -80q0 -71 -41 -139.5t-111.5 -121.5t-173 -85.5t-217.5 -32.5z" />
    <glyph glyph-name="uni0162" unicode="&#x162;" horiz-adv-x="1548" 
d="M193 1464l22 133h1483l-21 -133h-661q-29 -163 -47 -267t-28.5 -164.5t-56.5 -316t-130 -716.5h-27l-160 -158q47 19 103 19q89 0 142.5 -38.5t53.5 -103.5q0 -86 -87.5 -148.5t-215.5 -62.5q-83 0 -160 29.5t-120 81.5l73 59q32 -42 91 -67t120 -25q78 0 132.5 34.5
t54.5 84.5q0 39 -37.5 62.5t-95.5 23.5q-65 0 -121 -27l-56 54l174 182h-24q26 153 39.5 227.5t25.5 139.5t63.5 352t133.5 745h-663z" />
    <glyph glyph-name="uni0163" unicode="&#x163;" horiz-adv-x="905" 
d="M940 1008h-420l-114 -629q-5 -29 -7.5 -42.5t-6.5 -43t-3.5 -45t2.5 -40.5t8.5 -38.5t18.5 -31t29 -26.5t42.5 -15.5t57.5 -6.5q107 0 237 62l-22 -132q-110 -55 -258 -55q-35 0 -49 2l-127 -125q48 19 102 19q89 0 143 -39t54 -103q0 -86 -87.5 -148.5t-215.5 -62.5
q-83 0 -160.5 29.5t-120.5 81.5l74 59q32 -42 91 -67t120 -25q78 0 132 34.5t54 84.5q0 39 -37.5 62.5t-95.5 23.5q-65 0 -121 -27l-55 54l162 168q-34 13 -59.5 34t-40 44t-22.5 54t-10 56t0.5 59.5t5.5 55.5t9 51l121 668h-271l19 122h270l57 336h154l-59 -336h417z" />
    <glyph glyph-name="Tcaron" unicode="&#x164;" horiz-adv-x="1548" 
d="M1311 2028h139l-371 -308h-198l-267 308h140q120 -102 241 -220q33 24 82.5 59.5t74.5 53.5t67.5 47t91.5 60zM754 0h-160q26 153 39.5 227.5t25.5 139.5t63.5 352t133.5 745h-663l22 133h1483l-21 -133h-661q-29 -163 -47 -267t-28.5 -164.5t-56.5 -316t-130 -716.5z
" />
    <glyph glyph-name="tcaron" unicode="&#x165;" horiz-adv-x="905" 
d="M1073 1169h-100l194 252q-33 10 -51 34.5t-18 55.5q0 51 45 90t106 39q46 0 77.5 -27t31.5 -69q0 -41 -50.5 -107t-234.5 -268zM504 -35q-65 0 -114 14.5t-78.5 36t-47.5 56t-24 64.5t-5 72t4.5 68.5t10.5 63.5l121 668h-271l19 122h270l57 336h154l-59 -336h417
l-18 -122h-420l-114 -629q-5 -29 -7.5 -42.5t-6.5 -43t-3.5 -45t2.5 -40.5t8.5 -38.5t18.5 -31t29 -26.5t42.5 -15.5t57.5 -6.5q107 0 237 62l-22 -132q-110 -55 -258 -55z" />
    <glyph glyph-name="Tbar" unicode="&#x166;" horiz-adv-x="1548" 
d="M1698 1597l-21 -133h-661q-36 -200 -61.5 -346.5t-45.5 -259.5h426l-18 -121h-430q-12 -65 -55 -304.5t-78 -432.5h-160q22 127 131 737h-430l18 121h435q22 118 108 606h-663l22 133h1483z" />
    <glyph glyph-name="tbar" unicode="&#x167;" horiz-adv-x="905" 
d="M958 1130l-18 -122h-420l-57 -320h397l-16 -115h-404l-34 -194q-5 -29 -7.5 -42.5t-6.5 -43t-3.5 -45t2.5 -40.5t8.5 -38.5t18.5 -31t29 -26.5t42.5 -15.5t57.5 -6.5q107 0 237 62l-22 -132q-110 -55 -258 -55q-65 0 -114 14.5t-78.5 36t-47.5 56t-24 64.5t-5 72
t4.5 68.5t10.5 63.5l43 233h-266l18 115h268l58 320h-271l19 122h270l57 336h154l-59 -336h417z" />
    <glyph glyph-name="Umacron" unicode="&#x16a;" horiz-adv-x="1853" 
d="M1554 1829h-798l20 117h797zM819 -35q-322 0 -474.5 161t-98.5 454l180 1017h162l-180 -1009q-43 -243 71 -365.5t365 -122.5t410.5 124.5t201.5 363.5l180 1009h162l-184 -1017q-19 -105 -60 -196.5t-108.5 -169t-157 -132.5t-209 -86t-260.5 -31z" />
    <glyph glyph-name="umacron" unicode="&#x16b;" horiz-adv-x="1531" 
d="M1307 1413h-826l19 115h825zM586 -35q-62 0 -118 10t-108 32.5t-90.5 58t-66 86t-33 118t7.5 152.5l125 708h150l-117 -655q-11 -73 -7.5 -130t25 -99.5t50.5 -72t69 -47.5t81.5 -26t86.5 -8q101 0 191.5 36t153 94t103.5 128t54 142l114 638h150l-137 -776
q-40 -210 -17 -354h-153q-13 126 4 209h-6q-194 -244 -512 -244z" />
    <glyph glyph-name="Uring" unicode="&#x16e;" horiz-adv-x="1853" 
d="M1133 1714q-103 0 -168.5 53t-65.5 136q0 101 91.5 176t219.5 75q103 0 167.5 -52.5t64.5 -135.5q0 -101 -90 -176.5t-219 -75.5zM1149 1810q75 0 128.5 43t53.5 103q0 46 -39 73t-98 27q-78 0 -130 -41.5t-52 -101.5q0 -48 38.5 -75.5t98.5 -27.5zM819 -35
q-322 0 -474.5 161t-98.5 454l180 1017h162l-180 -1009q-43 -243 71 -365.5t365 -122.5t410.5 124.5t201.5 363.5l180 1009h162l-184 -1017q-19 -105 -60 -196.5t-108.5 -169t-157 -132.5t-209 -86t-260.5 -31z" />
    <glyph glyph-name="uring" unicode="&#x16f;" horiz-adv-x="1531" 
d="M860 1247q-103 0 -167 53t-64 136q0 101 91 176.5t218 75.5q104 0 168.5 -52.5t64.5 -136.5q0 -101 -91 -176.5t-220 -75.5zM877 1343q76 0 129 43t53 103q0 46 -39 73t-98 27q-77 0 -130 -41.5t-53 -101.5q0 -48 39 -75.5t99 -27.5zM586 -35q-62 0 -118 10t-108 32.5
t-90.5 58t-66 86t-33 118t7.5 152.5l125 708h150l-117 -655q-11 -73 -7.5 -130t25 -99.5t50.5 -72t69 -47.5t81.5 -26t86.5 -8q101 0 191.5 36t153 94t103.5 128t54 142l114 638h150l-137 -776q-40 -210 -17 -354h-153q-13 126 4 209h-6q-194 -244 -512 -244z" />
    <glyph glyph-name="Uhungarumlaut" unicode="&#x170;" horiz-adv-x="1853" 
d="M1364 2044l-389 -324h-135l309 324h215zM1739 2044l-408 -324h-139l332 324h215zM819 -35q-322 0 -474.5 161t-98.5 454l180 1017h162l-180 -1009q-43 -243 71 -365.5t365 -122.5t410.5 124.5t201.5 363.5l180 1009h162l-184 -1017q-19 -105 -60 -196.5t-108.5 -169
t-157 -132.5t-209 -86t-260.5 -31z" />
    <glyph glyph-name="uhungarumlaut" unicode="&#x171;" horiz-adv-x="1531" 
d="M1110 1673l-401 -395h-134l326 395h209zM1489 1673l-422 -395h-133l348 395h207zM586 -35q-62 0 -118 10t-108 32.5t-90.5 58t-66 86t-33 118t7.5 152.5l125 708h150l-117 -655q-11 -73 -7.5 -130t25 -99.5t50.5 -72t69 -47.5t81.5 -26t86.5 -8q101 0 191.5 36t153 94
t103.5 128t54 142l114 638h150l-137 -776q-40 -210 -17 -354h-153q-13 126 4 209h-6q-194 -244 -512 -244z" />
    <glyph glyph-name="Uogonek" unicode="&#x172;" horiz-adv-x="1853" 
d="M1456 588l180 1009h162l-184 -1017q-21 -120 -73 -222.5t-134 -184.5t-202 -134.5t-267 -67.5q-182 -89 -182 -202q0 -60 54.5 -97t135.5 -37q47 0 111 15l-17 -99q-69 -14 -120 -14q-125 0 -206 52t-81 147q0 132 170 229q-314 5 -462.5 166t-94.5 449l180 1017h162
l-180 -1009q-43 -243 71 -365.5t365 -122.5t410.5 124.5t201.5 363.5z" />
    <glyph glyph-name="uogonek" unicode="&#x173;" horiz-adv-x="1531" 
d="M985 -231q0 -61 52.5 -96t133.5 -35q52 0 109 14l-16 -101q-63 -14 -121 -14q-129 0 -206 54t-77 145q0 156 240 264q-13 126 4 209h-6q-194 -244 -512 -244q-62 0 -118 10t-108 32.5t-90.5 58t-66 86t-33 118t7.5 152.5l125 708h150l-117 -655q-11 -73 -7.5 -130
t25 -99.5t50.5 -72t69 -47.5t81.5 -26t86.5 -8q101 0 191.5 36t153 94t103.5 128t54 142l114 638h150l-137 -776q-40 -210 -17 -354h-22q-66 -24 -119 -56t-90 -78.5t-37 -96.5z" />
    <glyph glyph-name="Wcircumflex" unicode="&#x174;" horiz-adv-x="2785" 
d="M1751 2028l266 -308h-139q-142 124 -238 217q-21 -15 -63.5 -46t-62 -44.5t-69.5 -47t-122 -79.5h-141l372 308h197zM762 0h-193l-340 1597h170q14 -61 50 -222.5t52.5 -236t48 -218.5t52 -242.5t47 -229.5t49.5 -253h4q706 1259 785 1402h178q258 -1255 287 -1402h6
q497 891 797 1402h170l-906 -1597h-192q-150 674 -279 1386h-4q-34 -61 -180.5 -326t-204 -369t-173.5 -306.5t-224 -384.5z" />
    <glyph glyph-name="wcircumflex" unicode="&#x175;" horiz-adv-x="2220" 
d="M922 1278h-146l422 358h203l293 -358h-144q-15 14 -73 68.5t-102.5 99.5t-88.5 96q-70 -56 -193.5 -143t-170.5 -121zM598 0h-156l-299 1130h166l244 -944h6l578 944h153l248 -944h4l572 944h165l-694 -1130h-158q-146 545 -239 954h-6q-263 -446 -584 -954z" />
    <glyph glyph-name="Ycircumflex" unicode="&#x176;" horiz-adv-x="1683" 
d="M1198 2028l266 -308h-139q-142 124 -238 217q-21 -15 -63.5 -46t-62 -44.5t-69.5 -47t-122 -79.5h-141l372 308h197zM821 0h-157q63 362 104 586q-58 109 -160 289t-192.5 350t-186.5 372h174q190 -358 465 -872h4q88 97 144 163.5t89.5 107.5t169.5 191.5t378 409.5h170
q-797 -901 -895 -1011q-25 -141 -107 -586z" />
    <glyph glyph-name="ycircumflex" unicode="&#x177;" horiz-adv-x="1323" 
d="M459 1278h-146l422 358h203l293 -358h-144q-15 14 -73 68.5t-102.5 99.5t-88.5 96q-70 -56 -193.5 -143t-170.5 -121zM344 -451h-141l284 435l-348 1146h164q4 -12 287 -966h6q56 86 280.5 434.5t346.5 531.5h163z" />
    <glyph glyph-name="Ydieresis" unicode="&#x178;" horiz-adv-x="1683" 
d="M825 1784q-46 0 -77 26.5t-31 67.5q0 50 43 87.5t100 37.5q45 0 75 -26.5t30 -63.5q0 -51 -42.5 -90t-97.5 -39zM1294 1784q-47 0 -77.5 26.5t-30.5 65.5q0 52 43 89.5t100 37.5q44 0 75.5 -27t31.5 -65q0 -50 -43.5 -88.5t-98.5 -38.5zM821 0h-157q63 362 104 586
q-58 109 -160 289t-192.5 350t-186.5 372h174q190 -358 465 -872h4q88 97 144 163.5t89.5 107.5t169.5 191.5t378 409.5h170q-797 -901 -895 -1011q-25 -141 -107 -586z" />
    <glyph glyph-name="Zacute" unicode="&#x179;" horiz-adv-x="1607" 
d="M1481 2044l-463 -324h-139l372 324h230zM1434 0h-1465l25 143q293 261 1483 1317v4h-1198l22 133h1395l-25 -139q-333 -295 -1487 -1315v-4h1272z" />
    <glyph glyph-name="zacute" unicode="&#x17a;" horiz-adv-x="1181" 
d="M1219 1669l-441 -391h-135l367 391h209zM1028 0h-1057l17 106l958 898h-749l18 126h956l-16 -106l-965 -897h854z" />
    <glyph glyph-name="Zdotaccent" unicode="&#x17b;" horiz-adv-x="1607" 
d="M997 1786q-47 0 -78.5 27.5t-31.5 70.5q0 53 45 92t106 39q47 0 80 -28t33 -68q0 -52 -47 -92.5t-107 -40.5zM1434 0h-1465l25 143q293 261 1483 1317v4h-1198l22 133h1395l-25 -139q-333 -295 -1487 -1315v-4h1272z" />
    <glyph glyph-name="zdotaccent" unicode="&#x17c;" horiz-adv-x="1181" 
d="M745 1417q-48 0 -80 28t-32 71q0 53 46 92t107 39q47 0 80 -28t33 -69q0 -52 -47 -92.5t-107 -40.5zM1028 0h-1057l17 106l958 898h-749l18 126h956l-16 -106l-965 -897h854z" />
    <glyph glyph-name="Zcaron" unicode="&#x17d;" horiz-adv-x="1607" 
d="M1307 2028h139l-371 -308h-198l-267 308h140q120 -102 241 -220q33 24 82.5 59.5t74.5 53.5t67.5 47t91.5 60zM1434 0h-1465l25 143q293 261 1483 1317v4h-1198l22 133h1395l-25 -139q-333 -295 -1487 -1315v-4h1272z" />
    <glyph glyph-name="zcaron" unicode="&#x17e;" horiz-adv-x="1181" 
d="M821 1282h-205l-290 363h143q27 -26 89 -85.5t99 -97.5t78 -84q64 51 184 137t179 130h143zM1028 0h-1057l17 106l958 898h-749l18 126h956l-16 -106l-965 -897h854z" />
    <glyph glyph-name="uni0218" unicode="&#x218;" horiz-adv-x="1576" 
d="M713 -35q-88 0 -169.5 15t-161 50t-141.5 87.5t-107 133.5t-60 183l157 49q17 -125 89 -213t178.5 -129t240.5 -41q220 0 373.5 103t153.5 246q0 48 -21.5 87t-47 62t-80 46t-84.5 32t-97 27q-8 2 -13 3.5t-11.5 3t-12.5 3.5l-170 45q-44 12 -78 22.5t-84.5 30t-88 40
t-78.5 51.5t-67 65.5t-43.5 81.5t-17.5 100q0 95 53.5 183t145 153.5t221 105t273.5 39.5q244 0 393 -105.5t178 -277.5l-152 -53q-30 138 -148.5 219.5t-303.5 81.5q-206 0 -347 -92.5t-141 -220.5q0 -38 15.5 -73t36 -59.5t57 -48t62.5 -37.5t70 -30t62.5 -21t55.5 -16
l176 -51q172 -46 239 -74q203 -86 225 -244q3 -21 3 -43q0 -99 -57 -193.5t-153.5 -166.5t-234 -116t-288.5 -44zM565 -520h-78l150 194q-86 17 -86 86q0 48 42.5 85.5t100.5 37.5q45 0 76 -25.5t31 -64.5q0 -41 -40 -93t-161 -183q-8 -8 -12 -12.5t-10.5 -11.5t-12.5 -13z
" />
    <glyph glyph-name="uni0219" unicode="&#x219;" horiz-adv-x="1202" 
d="M526 -35q-194 0 -330 87.5t-167 230.5l145 41q36 -109 141 -174.5t240 -65.5q143 0 247.5 67.5t104.5 161.5q0 17 -3 32t-12 28t-16 23.5t-23.5 20.5t-25.5 16.5t-32.5 14t-33 11.5t-37.5 11t-37 9.5t-40 9.5l-121 31q-35 9 -51 13t-58.5 18.5t-66.5 27t-59 36t-54.5 49
t-34 62.5t-14.5 79q0 96 66.5 178.5t181 131t248.5 48.5q171 0 289 -77.5t145 -198.5l-153 -45q-22 86 -102.5 144t-207.5 58q-131 0 -221 -60.5t-90 -145.5q0 -31 12 -58t37.5 -47.5t49 -35t62.5 -28t61 -20t61 -16.5l125 -31q42 -10 66.5 -17t68 -22t70.5 -33t55.5 -44
t42.5 -62t14 -80q0 -71 -41 -139.5t-111.5 -121.5t-173 -85.5t-217.5 -32.5zM379 -520h-78l150 194q-86 17 -86 86q0 48 42.5 85.5t100.5 37.5q45 0 75.5 -25.5t30.5 -64.5q0 -42 -39.5 -93.5t-167.5 -189.5q-18 -20 -28 -30z" />
    <glyph glyph-name="uni021A" unicode="&#x21a;" horiz-adv-x="1548" 
d="M754 0h-160q26 153 39.5 227.5t25.5 139.5t63.5 352t133.5 745h-663l22 133h1483l-21 -133h-661q-29 -163 -47 -267t-28.5 -164.5t-56.5 -316t-130 -716.5zM514 -520h-78l150 194q-86 17 -86 86q0 48 42.5 85.5t100.5 37.5q45 0 76 -25.5t31 -64.5q0 -41 -40 -93
t-161 -183q-8 -8 -12 -12.5t-10.5 -11.5t-12.5 -13z" />
    <glyph glyph-name="uni021B" unicode="&#x21b;" horiz-adv-x="905" 
d="M504 -35q-65 0 -114 14.5t-78.5 36t-47.5 56t-24 64.5t-5 72t4.5 68.5t10.5 63.5l121 668h-271l19 122h270l57 336h154l-59 -336h417l-18 -122h-420l-114 -629q-5 -29 -7.5 -42.5t-6.5 -43t-3.5 -45t2.5 -40.5t8.5 -38.5t18.5 -31t29 -26.5t42.5 -15.5t57.5 -6.5
q107 0 237 62l-22 -132q-110 -55 -258 -55zM274 -520h-77l149 194q-86 17 -86 86q0 48 42.5 85.5t100.5 37.5q45 0 76 -25.5t31 -64.5q0 -41 -40 -93t-161 -183q-23 -24 -35 -37z" />
    <glyph glyph-name="gravecomb" unicode="&#x300;" horiz-adv-x="0" 
d="M125 1278h-135l-303 391h211z" />
    <glyph glyph-name="acutecomb" unicode="&#x301;" horiz-adv-x="0" 
d="M434 1669l-440 -391h-135l366 391h209z" />
    <glyph glyph-name="uni0302" unicode="&#x302;" horiz-adv-x="0" 
d="M-563 1278h-146l422 358h203l293 -358h-143q-17 16 -73.5 69t-102 98.5t-89.5 96.5q-70 -56 -193.5 -143t-170.5 -121z" />
    <glyph glyph-name="tildecomb" unicode="&#x303;" horiz-adv-x="0" 
d="M-131 1337q-41 0 -76.5 12.5t-51.5 23t-52 38.5l-41 33q-23 19 -33 26t-32.5 16t-47.5 9q-57 0 -99 -40t-54 -101h-117q22 110 104 180t189 70q37 0 69 -11t51 -23t46 -34l45 -37q67 -53 125 -53q56 0 95.5 40t51.5 103h117q-20 -116 -97 -184t-192 -68z" />
    <glyph glyph-name="uni0304" unicode="&#x304;" horiz-adv-x="0" 
d="M162 1409h-826l19 115h825z" />
    <glyph glyph-name="uni0306" unicode="&#x306;" horiz-adv-x="0" 
d="M-240 1276q-204 0 -302.5 110.5t-75.5 284.5h137q-19 -128 54 -205t206 -77t233 77t131 205h138q-38 -174 -179 -284.5t-342 -110.5z" />
    <glyph glyph-name="uni0307" unicode="&#x307;" horiz-adv-x="0" 
d="M-27 1413q-48 0 -80 28t-32 70q0 53 46 92t107 39q48 0 80.5 -27.5t32.5 -68.5q0 -52 -47 -92.5t-107 -40.5z" />
    <glyph glyph-name="uni0308" unicode="&#x308;" horiz-adv-x="0" 
d="M-748 1370q-45 0 -75.5 26.5t-30.5 65.5q0 47 42 84t97 37q45 0 75 -25.5t30 -62.5q0 -48 -41.5 -86.5t-96.5 -38.5zM-319 1370q-47 0 -77 25.5t-30 64.5q0 51 41.5 87t97.5 36q43 0 74 -26t31 -64q0 -47 -42 -85t-95 -38z" />
    <glyph glyph-name="uni030A" unicode="&#x30a;" horiz-adv-x="0" 
d="M-51 1247q-103 0 -167.5 53t-64.5 136q0 101 91 176.5t219 75.5q104 0 168.5 -52.5t64.5 -136.5q0 -101 -91 -176.5t-220 -75.5zM-35 1343q76 0 129 43t53 103q0 46 -39 73t-98 27q-76 0 -129 -41.5t-53 -101.5q0 -48 38.5 -75.5t98.5 -27.5z" />
    <glyph glyph-name="uni030B" unicode="&#x30b;" horiz-adv-x="0" 
d="M145 1673l-401 -395h-133l326 395h208zM524 1673l-422 -395h-133l348 395h207z" />
    <glyph glyph-name="uni030C" unicode="&#x30c;" horiz-adv-x="0" 
d="M-147 1278h-205l-291 362h143q32 -32 90 -86.5t97.5 -94t79.5 -85.5q64 51 183.5 136.5t178.5 129.5h143z" />
    <glyph glyph-name="uni0312" unicode="&#x312;" horiz-adv-x="0" 
d="M-256 1311q0 39 47 99.5t227 262.5h99l-189 -246q32 -9 51 -32t19 -54q0 -50 -44.5 -86t-103.5 -36q-45 0 -75.5 25.5t-30.5 66.5z" />
    <glyph glyph-name="uni0326" unicode="&#x326;" horiz-adv-x="0" 
d="M-469 -520h-78l150 194q-86 17 -86 86q0 48 42.5 85.5t100.5 37.5q45 0 76 -25.5t31 -64.5q0 -41 -40 -93t-161 -183q-23 -24 -35 -37z" />
    <glyph glyph-name="uni0327" unicode="&#x327;" horiz-adv-x="0" 
d="M-831 -492q-83 0 -160.5 29.5t-120.5 81.5l74 59q32 -42 91 -67t120 -25q78 0 132 34.5t54 84.5q0 39 -37.5 62.5t-95.5 23.5q-65 0 -121 -27l-55 54l174 182h108l-159 -158q47 19 102 19q89 0 143 -39t54 -103q0 -86 -87.5 -148.5t-215.5 -62.5z" />
    <glyph glyph-name="uni0328" unicode="&#x328;" horiz-adv-x="0" 
d="M-831 -483q-129 0 -206 53.5t-77 144.5q0 48 23 91.5t62 76.5t76 55.5t79 41.5h131q-104 -38 -175 -98t-71 -134q0 -61 52.5 -96t133.5 -35q52 0 109 14l-17 -100q-63 -14 -120 -14z" />
    <glyph glyph-name="uni0335" unicode="&#x335;" horiz-adv-x="0" 
d="M-752 623h815l-16 -115h-817z" />
    <glyph glyph-name="uni0337" unicode="&#x337;" horiz-adv-x="0" 
d="M-465 518l23 125l698 385l-18 -123z" />
    <glyph glyph-name="uni0338" unicode="&#x338;" horiz-adv-x="0" 
d="M-1223 -57h-168l1321 1237h162z" />
    <glyph glyph-name="Wgrave" unicode="&#x1e80;" horiz-adv-x="2785" 
d="M1704 1720h-139l-353 324h234zM762 0h-193l-340 1597h170q14 -61 50 -222.5t52.5 -236t48 -218.5t52 -242.5t47 -229.5t49.5 -253h4q706 1259 785 1402h178q258 -1255 287 -1402h6q497 891 797 1402h170l-906 -1597h-192q-150 674 -279 1386h-4q-34 -61 -180.5 -326
t-204 -369t-173.5 -306.5t-224 -384.5z" />
    <glyph glyph-name="wgrave" unicode="&#x1e81;" horiz-adv-x="2220" 
d="M1311 1278h-135l-304 391h211zM598 0h-156l-299 1130h166l244 -944h6l578 944h153l248 -944h4l572 944h165l-694 -1130h-158q-146 545 -239 954h-6q-263 -446 -584 -954z" />
    <glyph glyph-name="Wacute" unicode="&#x1e82;" horiz-adv-x="2785" 
d="M2105 2044l-463 -324h-139l373 324h229zM762 0h-193l-340 1597h170q14 -61 50 -222.5t52.5 -236t48 -218.5t52 -242.5t47 -229.5t49.5 -253h4q706 1259 785 1402h178q258 -1255 287 -1402h6q497 891 797 1402h170l-906 -1597h-192q-150 674 -279 1386h-4
q-34 -61 -180.5 -326t-204 -369t-173.5 -306.5t-224 -384.5z" />
    <glyph glyph-name="wacute" unicode="&#x1e83;" horiz-adv-x="2220" 
d="M1737 1669l-441 -391h-135l367 391h209zM598 0h-156l-299 1130h166l244 -944h6l578 944h153l248 -944h4l572 944h165l-694 -1130h-158q-146 545 -239 954h-6q-263 -446 -584 -954z" />
    <glyph glyph-name="Wdieresis" unicode="&#x1e84;" horiz-adv-x="2785" 
d="M1378 1784q-46 0 -77 26.5t-31 67.5q0 50 43 87.5t100 37.5q45 0 75 -26.5t30 -63.5q0 -51 -42.5 -90t-97.5 -39zM1847 1784q-47 0 -77.5 26.5t-30.5 65.5q0 52 43 89.5t100 37.5q44 0 75.5 -27t31.5 -65q0 -50 -43.5 -88.5t-98.5 -38.5zM762 0h-193l-340 1597h170
q14 -61 50 -222.5t52.5 -236t48 -218.5t52 -242.5t47 -229.5t49.5 -253h4q706 1259 785 1402h178q258 -1255 287 -1402h6q497 891 797 1402h170l-906 -1597h-192q-150 674 -279 1386h-4q-34 -61 -180.5 -326t-204 -369t-173.5 -306.5t-224 -384.5z" />
    <glyph glyph-name="wdieresis" unicode="&#x1e85;" horiz-adv-x="2220" 
d="M1042 1370q-45 0 -75.5 26.5t-30.5 65.5q0 47 42 84t97 37q45 0 75 -25.5t30 -62.5q0 -48 -41.5 -86.5t-96.5 -38.5zM1470 1370q-47 0 -76.5 25.5t-29.5 64.5q0 51 41.5 87t97.5 36q43 0 74 -26t31 -64q0 -47 -42.5 -85t-95.5 -38zM598 0h-156l-299 1130h166l244 -944h6
l578 944h153l248 -944h4l572 944h165l-694 -1130h-158q-146 545 -239 954h-6q-263 -446 -584 -954z" />
    <glyph glyph-name="uni1E9E" unicode="&#x1e9e;" horiz-adv-x="1832" 
d="M301 0h-162l166 940q8 47 17 86t26.5 95.5t39.5 102.5t57.5 100.5t78 96t104 82.5t133 67.5t166 43t203.5 16.5q286 0 444.5 -103.5t158.5 -285.5q0 -161 -119.5 -281.5t-302.5 -150.5l-2 -2q160 -10 266 -94.5t106 -235.5q0 -97 -47 -182.5t-137 -151.5t-233 -104.5
t-322 -38.5h-209l23 133h237q239 0 379.5 93.5t140.5 240.5q0 127 -106 195.5t-303 68.5h-129l18 133h142q186 0 306 99t120 245q0 140 -116.5 217.5t-332.5 77.5q-89 0 -166 -14.5t-134 -35.5t-105.5 -56.5t-80.5 -67.5t-59 -78t-41.5 -77.5t-27 -78.5t-17 -67.5
t-10.5 -56.5z" />
    <glyph glyph-name="Ygrave" unicode="&#x1ef2;" horiz-adv-x="1683" 
d="M1151 1720h-139l-353 324h234zM821 0h-157q63 362 104 586q-58 109 -160 289t-192.5 350t-186.5 372h174q190 -358 465 -872h4q88 97 144 163.5t89.5 107.5t169.5 191.5t378 409.5h170q-797 -901 -895 -1011q-25 -141 -107 -586z" />
    <glyph glyph-name="ygrave" unicode="&#x1ef3;" horiz-adv-x="1323" 
d="M848 1278h-135l-303 391h211zM344 -451h-141l284 435l-348 1146h164q4 -12 287 -966h6q56 86 280.5 434.5t346.5 531.5h163z" />
    <glyph glyph-name="uni2000" unicode="&#x2000;" horiz-adv-x="1228" 
 />
    <glyph glyph-name="uni2001" unicode="&#x2001;" 
 />
    <glyph glyph-name="uni2002" unicode="&#x2002;" horiz-adv-x="1228" 
 />
    <glyph glyph-name="uni2003" unicode="&#x2003;" 
 />
    <glyph glyph-name="uni2004" unicode="&#x2004;" horiz-adv-x="819" 
 />
    <glyph glyph-name="uni2005" unicode="&#x2005;" horiz-adv-x="614" 
 />
    <glyph glyph-name="uni2006" unicode="&#x2006;" horiz-adv-x="409" 
 />
    <glyph glyph-name="uni2007" unicode="&#x2007;" horiz-adv-x="679" 
 />
    <glyph glyph-name="uni2008" unicode="&#x2008;" horiz-adv-x="559" 
 />
    <glyph glyph-name="uni2009" unicode="&#x2009;" horiz-adv-x="307" 
 />
    <glyph glyph-name="uni200A" unicode="&#x200a;" horiz-adv-x="102" 
 />
    <glyph glyph-name="uni200B" unicode="&#x200b;" horiz-adv-x="0" 
 />
    <glyph glyph-name="endash" unicode="&#x2013;" horiz-adv-x="1204" 
d="M1063 563h-924l21 121h923z" />
    <glyph glyph-name="emdash" unicode="&#x2014;" horiz-adv-x="1718" 
d="M1579 565h-1440l19 115h1439z" />
    <glyph glyph-name="quoteleft" unicode="&#x2018;" horiz-adv-x="552" 
d="M508 1632h98l-192 -254q69 -21 69 -88q0 -52 -44.5 -91.5t-106.5 -39.5q-46 0 -77.5 27t-31.5 69q0 41 50 107t235 270z" />
    <glyph glyph-name="quoteright" unicode="&#x2019;" horiz-adv-x="559" 
d="M346 1165h-100l194 254q-33 9 -51 32.5t-18 55.5q0 53 45 92t106 39q46 0 76.5 -27.5t30.5 -70.5q0 -41 -49.5 -106t-233.5 -269z" />
    <glyph glyph-name="quotesinglbase" unicode="&#x201a;" horiz-adv-x="524" 
d="M74 -258h-99l193 254q-34 9 -53 32.5t-19 55.5q0 50 46 90.5t108 40.5q46 0 76 -27.5t30 -70.5q0 -41 -49.5 -107t-232.5 -268z" />
    <glyph glyph-name="quotedblleft" unicode="&#x201c;" horiz-adv-x="925" 
d="M528 1632h99l-193 -254q70 -22 70 -88q0 -52 -45 -91.5t-107 -39.5q-46 0 -77 27t-31 69q0 41 50.5 107.5t233.5 269.5zM831 1632h99l-195 -254q72 -22 72 -88q0 -51 -45.5 -91t-106.5 -40q-46 0 -77 27t-31 69q0 41 51 109t233 268z" />
    <glyph glyph-name="quotedblright" unicode="&#x201d;" horiz-adv-x="935" 
d="M346 1165h-100l194 254q-33 9 -52 33t-19 55q0 52 45 91.5t106 39.5q46 0 77.5 -28t31.5 -70q0 -41 -49.5 -106t-233.5 -269zM721 1165h-100l192 254q-31 9 -49.5 33t-18.5 55q0 53 44.5 92t105.5 39q47 0 79 -28.5t32 -69.5q0 -40 -51.5 -107.5t-233.5 -267.5z" />
    <glyph glyph-name="quotedblbase" unicode="&#x201e;" horiz-adv-x="899" 
d="M51 -254h-98l192 254q-33 10 -51 33.5t-18 54.5q0 52 44.5 91.5t106.5 39.5q46 0 77.5 -27t31.5 -69q0 -41 -50 -107t-235 -270zM428 -254h-98l190 254q-33 10 -51 33.5t-18 54.5q0 53 45 92t106 39q46 0 77.5 -27.5t31.5 -68.5t-50 -106.5t-233 -270.5z" />
    <glyph glyph-name="dagger" unicode="&#x2020;" horiz-adv-x="1198" 
d="M801 1296h411l-20 -122h-414l-129 -744h-147l131 744h-412l21 122h413l60 342h145z" />
    <glyph glyph-name="daggerdbl" unicode="&#x2021;" horiz-adv-x="1304" 
d="M1266 1296l-23 -122h-409l-52 -295h408l-21 -123h-405l-62 -340h-147l61 340h-411l20 123h410l53 295h-412l23 122h412l59 342h148l-62 -342h410z" />
    <glyph glyph-name="bullet" unicode="&#x2022;" horiz-adv-x="935" 
d="M481 428q-84 0 -141 50t-57 124q0 92 80 162t186 70q82 0 137 -48t55 -120q0 -90 -79 -164t-181 -74z" />
    <glyph glyph-name="ellipsis" unicode="&#x2026;" horiz-adv-x="1585" 
d="M221 -14q-47 0 -79.5 28.5t-32.5 69.5q0 51 45.5 91t105.5 40q45 0 77 -27.5t32 -68.5q0 -51 -45 -92t-103 -41zM635 -14q-47 0 -80 28.5t-33 69.5q0 51 46 91t106 40q45 0 76.5 -27.5t31.5 -68.5q0 -51 -44.5 -92t-102.5 -41zM1245 -14q-47 0 -79.5 28.5t-32.5 69.5
q0 51 45.5 91t103.5 40q46 0 78.5 -27.5t32.5 -68.5q0 -51 -45 -92t-103 -41z" />
    <glyph glyph-name="uni202F" unicode="&#x202f;" horiz-adv-x="487" 
 />
    <glyph glyph-name="perthousand" unicode="&#x2030;" horiz-adv-x="2818" 
d="M453 788q-123 0 -194 78t-71 213q0 112 50 214t142 167.5t202 65.5q122 0 193 -79t71 -214q0 -113 -50.5 -215t-142 -166t-200.5 -64zM297 0h-145l1624 1468h137zM465 893q66 0 124 49t91 126.5t33 160.5q0 91 -38.5 140.5t-107.5 49.5q-66 0 -123.5 -48.5t-91 -126
t-33.5 -161.5q0 -91 38.5 -140.5t107.5 -49.5zM1473 -29q-123 0 -194 78t-71 213q0 112 50 214t142 167.5t202 65.5q122 0 193 -79t71 -214q0 -113 -50.5 -215t-142 -166t-200.5 -64zM2300 -29q-123 0 -193.5 78t-70.5 213q0 112 50 214t141.5 167.5t201.5 65.5
q122 0 193 -79t71 -214q0 -113 -50.5 -215t-142 -166t-200.5 -64zM1485 76q66 0 124 49t91 126.5t33 160.5q0 91 -38.5 140.5t-107.5 49.5q-66 0 -123.5 -48.5t-91 -126t-33.5 -161.5q0 -91 38.5 -140.5t107.5 -49.5zM2312 76q66 0 124 49t91 126.5t33 160.5q0 91 -38 140.5
t-107 49.5q-66 0 -123.5 -48.5t-91 -126t-33.5 -161.5q0 -91 38 -140.5t107 -49.5z" />
    <glyph glyph-name="guilsinglleft" unicode="&#x2039;" horiz-adv-x="901" 
d="M664 164h-183l-344 405l2 9l488 405h182l-487 -405l-3 -9z" />
    <glyph glyph-name="guilsinglright" unicode="&#x203a;" horiz-adv-x="903" 
d="M707 498l-486 -334l-61 72l426 335l-43 78l-240 334l168 -72l299 -336z" />
    <glyph glyph-name="fraction" unicode="&#x2044;" horiz-adv-x="335" 
d="M-530 0h-146l1624 1468h137z" />
    <glyph glyph-name="uni205F" unicode="&#x205f;" horiz-adv-x="544" 
 />
    <glyph glyph-name="uni2070" unicode="&#x2070;" horiz-adv-x="827" 
d="M453 788q-123 0 -194 78t-71 213q0 112 50 214t142 167.5t202 65.5q122 0 193 -79t71 -214q0 -113 -50.5 -215t-142 -166t-200.5 -64zM465 893q66 0 124 49t91 126.5t33 160.5q0 91 -38.5 140.5t-107.5 49.5q-66 0 -123.5 -48.5t-91 -126t-33.5 -161.5q0 -91 38.5 -140.5
t107.5 -49.5z" />
    <glyph glyph-name="uni2074" unicode="&#x2074;" horiz-adv-x="782" 
d="M631 803h-119l29 158h-416l16 96l498 454h117l-80 -456h117l-17 -94h-114zM610 1362l-348 -307h295z" />
    <glyph glyph-name="uni2075" unicode="&#x2075;" horiz-adv-x="768" 
d="M412 788q-109 0 -187.5 43t-95.5 119l115 49q14 -53 66.5 -83.5t117.5 -30.5q89 0 150 51t61 119q0 54 -43 87.5t-109 33.5q-55 0 -103 -22.5t-79 -57.5l-98 26l166 389h430l-15 -94h-342l-100 -221q32 29 88.5 46.5t108.5 17.5q94 0 160.5 -49t66.5 -142
q0 -116 -105 -198.5t-253 -82.5z" />
    <glyph glyph-name="uni2076" unicode="&#x2076;" horiz-adv-x="800" 
d="M449 788q-128 0 -198.5 69.5t-70.5 195.5q0 117 62 226t171.5 178t235.5 69q54 0 110 -16t91 -50l-80 -76q-51 43 -139 43q-111 0 -197.5 -71t-114.5 -199h3q31 49 99 78t138 29q99 0 170.5 -54.5t71.5 -144.5q0 -109 -102.5 -193t-249.5 -84zM471 885q83 0 147 52
t64 120q0 54 -45 89.5t-113 35.5q-84 0 -147.5 -51.5t-63.5 -120.5q0 -54 45.5 -89.5t112.5 -35.5z" />
    <glyph glyph-name="uni2077" unicode="&#x2077;" horiz-adv-x="667" 
d="M348 803h-129q15 88 72 200t150.5 226t199.5 192h-451l17 97h592l-15 -101q-166 -109 -288.5 -288.5t-147.5 -325.5z" />
    <glyph glyph-name="uni2078" unicode="&#x2078;" horiz-adv-x="784" 
d="M430 788q-119 0 -193.5 51.5t-74.5 131.5q0 68 55.5 127t134.5 76l2 2q-47 20 -73.5 54t-26.5 75q0 87 89.5 154t215.5 67q103 0 171.5 -47t68.5 -121q0 -59 -41 -108t-111 -74l-2 -2q59 -14 95 -54t36 -96q0 -97 -100 -166.5t-246 -69.5zM508 1214q71 0 123.5 39.5
t52.5 89.5q0 41 -38.5 68t-98.5 27q-72 0 -122 -36t-50 -87q0 -45 36.5 -73t96.5 -28zM451 887q83 0 139.5 43.5t56.5 105.5q0 48 -40 75.5t-111 27.5q-87 0 -145 -40.5t-58 -99.5q0 -51 43.5 -81.5t114.5 -30.5z" />
    <glyph glyph-name="uni2079" unicode="&#x2079;" horiz-adv-x="811" 
d="M399 788q-70 0 -137 25t-108 78l82 72q70 -80 180 -80q112 0 184 77t96 195q-35 -54 -103.5 -83.5t-139.5 -29.5q-102 0 -171 55t-69 146q0 116 106 199.5t254 83.5q128 0 194.5 -68t66.5 -198q0 -122 -57.5 -230.5t-158.5 -175t-219 -66.5zM485 1122q86 0 151.5 57.5
t65.5 129.5q0 57 -44.5 91t-110.5 34q-87 0 -151 -54.5t-64 -126.5q0 -57 43 -94t110 -37z" />
    <glyph glyph-name="uni2080" unicode="&#x2080;" horiz-adv-x="827" 
d="M264 -285q-123 0 -193.5 78t-70.5 213q0 112 50 214t141.5 167.5t201.5 65.5q122 0 193 -79t71 -214q0 -113 -50.5 -215t-142 -166t-200.5 -64zM276 -180q66 0 124 49t91 126.5t33 160.5q0 91 -38 140.5t-107 49.5q-66 0 -123.5 -48.5t-91 -126t-33.5 -161.5
q0 -91 38 -140.5t107 -49.5z" />
    <glyph glyph-name="uni2081" unicode="&#x2081;" horiz-adv-x="524" 
d="M217 -270h-123l90 516q-88 -68 -198 -84l20 112q85 21 145.5 65.5t69.5 98.5h117z" />
    <glyph glyph-name="uni2082" unicode="&#x2082;" horiz-adv-x="753" 
d="M520 -270h-567l4 12q32 118 92.5 177.5t239.5 152.5q101 54 141 93q47 46 47 91q0 42 -36.5 68t-96.5 26q-79 0 -139.5 -45.5t-73.5 -118.5l-111 17q19 110 115.5 180t224.5 70q109 0 177.5 -49.5t68.5 -133.5q0 -43 -20.5 -83t-54.5 -70.5t-64 -50.5t-64 -37
q-30 -16 -74.5 -38.5t-67.5 -35t-51.5 -31.5t-46.5 -40t-32 -48h404z" />
    <glyph glyph-name="uni2083" unicode="&#x2083;" horiz-adv-x="768" 
d="M229 -285q-112 0 -188 45t-90 117l115 49q33 -114 178 -114q81 0 136.5 39.5t55.5 95.5q0 51 -44.5 76.5t-121.5 25.5h-82l11 82h90q78 0 131 37t53 92q0 42 -39 68t-100 26q-68 0 -119.5 -32t-71.5 -89l-108 23q29 87 121.5 142t203.5 55q101 0 170.5 -44t69.5 -118
q0 -63 -49.5 -118.5t-120.5 -70.5q61 -11 99 -48.5t38 -92.5q0 -99 -100 -172.5t-238 -73.5z" />
    <glyph glyph-name="uni2084" unicode="&#x2084;" horiz-adv-x="782" 
d="M442 -270h-118l28 157h-415l16 97l498 454h116l-80 -456h117l-16 -95h-115zM422 289l-348 -307h295z" />
    <glyph glyph-name="uni2085" unicode="&#x2085;" horiz-adv-x="768" 
d="M223 -285q-109 0 -187 43t-95 119l114 49q14 -53 67 -83.5t118 -30.5q89 0 150 51t61 119q0 54 -42.5 87t-109.5 33q-55 0 -103 -22t-79 -57l-99 26l166 389h430l-14 -94h-342l-100 -221q32 29 87.5 46t108.5 17q94 0 161 -49t67 -141q0 -116 -105.5 -198.5t-253.5 -82.5
z" />
    <glyph glyph-name="uni2086" unicode="&#x2086;" horiz-adv-x="800" 
d="M260 -285q-127 0 -197.5 69.5t-70.5 195.5q0 117 62 226t171.5 178t235.5 69q54 0 110 -16t91 -50l-80 -76q-51 43 -140 43q-111 0 -197 -71t-114 -199h2q31 49 99.5 77.5t138.5 28.5q99 0 170 -54t71 -144q0 -109 -102.5 -193t-249.5 -84zM283 -188q83 0 147 52t64 120
q0 54 -45 89.5t-113 35.5q-84 0 -147.5 -51.5t-63.5 -120.5q0 -54 45.5 -89.5t112.5 -35.5z" />
    <glyph glyph-name="uni2087" unicode="&#x2087;" horiz-adv-x="667" 
d="M160 -270h-129q15 88 72 200t150.5 226t199.5 192h-451l16 96h592l-14 -100q-166 -109 -288.5 -288.5t-147.5 -325.5z" />
    <glyph glyph-name="uni2088" unicode="&#x2088;" horiz-adv-x="784" 
d="M242 -285q-119 0 -194 51.5t-75 131.5q0 68 56 126.5t135 75.5l2 2q-47 20 -73.5 54t-26.5 75q0 87 89.5 154.5t215.5 67.5q103 0 171 -47t68 -121q0 -59 -40.5 -108.5t-110.5 -74.5l-2 -2q60 -14 95.5 -53.5t35.5 -95.5q0 -97 -100 -166.5t-246 -69.5zM319 141
q71 0 124 39.5t53 89.5q0 41 -39 68t-99 27q-72 0 -122 -36t-50 -87q0 -45 36.5 -73t96.5 -28zM262 -186q83 0 140 43.5t57 105.5q0 48 -40.5 75.5t-111.5 27.5q-87 0 -145 -40.5t-58 -99.5q0 -51 43.5 -81.5t114.5 -30.5z" />
    <glyph glyph-name="uni2089" unicode="&#x2089;" horiz-adv-x="811" 
d="M211 -285q-71 0 -138 25t-108 78l82 71q69 -79 180 -79q112 0 185 77.5t96 194.5q-35 -54 -104 -83.5t-140 -29.5q-101 0 -170 55t-69 146q0 116 106 199.5t254 83.5q127 0 193.5 -68t66.5 -199q0 -122 -57.5 -230.5t-158 -174.5t-218.5 -66zM297 49q86 0 151.5 57.5
t65.5 129.5q0 57 -44.5 90.5t-111.5 33.5q-87 0 -151 -54t-64 -126q0 -57 43.5 -94t110.5 -37z" />
    <glyph glyph-name="Euro" unicode="&#x20ac;" horiz-adv-x="1945" 
d="M1415 1450q-262 0 -462.5 -126t-299.5 -331h811l-16 -106h-838q-39 -122 -39 -240h834l-19 -106h-808q31 -219 190 -330t434 -111q245 0 467 129l88 -104q-249 -160 -592 -160q-334 0 -530.5 151t-224.5 425h-269l19 106h246q3 131 38 240h-241l18 106h262
q55 126 146 233t211.5 187.5t275.5 126t326 45.5q333 0 526 -160l-133 -106q-155 131 -420 131z" />
    <glyph glyph-name="trademark" unicode="&#x2122;" horiz-adv-x="1869" 
d="M541 938h-115l104 584h-268l14 94h650l-17 -94h-264zM1063 938h-117l121 678h113q26 -78 87 -255.5t91 -270.5q51 74 173.5 253t188.5 273h113l-119 -678h-117l82 457q-26 -39 -54.5 -83.5t-78.5 -116t-172 -243.5h-86q-14 42 -43.5 139.5t-101.5 305.5z" />
    <glyph glyph-name="oneeighth" unicode="&#x215b;" horiz-adv-x="1644" 
d="M406 803h-123l90 516q-88 -68 -199 -84l21 113q85 21 145.5 65t69.5 98h116zM-6 0h-146l1625 1468h137zM1147 -29q-119 0 -193.5 51.5t-74.5 131.5q0 68 55.5 126.5t134.5 75.5l2 2q-47 20 -73.5 54t-26.5 75q0 87 89.5 154.5t215.5 67.5q103 0 171.5 -47t68.5 -121
q0 -59 -41 -108.5t-111 -74.5l-2 -2q60 -14 95.5 -53.5t35.5 -95.5q0 -97 -100 -166.5t-246 -69.5zM1225 397q71 0 123.5 39.5t52.5 89.5q0 41 -38.5 68t-98.5 27q-72 0 -122 -36t-50 -87q0 -45 36.5 -73t96.5 -28zM1167 70q83 0 140 43.5t57 105.5q0 48 -40.5 75.5
t-111.5 27.5q-87 0 -144.5 -40.5t-57.5 -99.5q0 -51 43 -81.5t114 -30.5z" />
    <glyph glyph-name="threeeighths" unicode="&#x215c;" horiz-adv-x="1888" 
d="M418 788q-112 0 -188.5 45t-90.5 117l115 49q33 -114 178 -114q81 0 137 39.5t56 95.5q0 51 -44.5 76.5t-121.5 25.5h-82l10 82h90q78 0 131.5 37t53.5 92q0 42 -39.5 68t-100.5 26q-68 0 -119 -31.5t-71 -88.5l-109 22q29 87 121.5 142t204.5 55q101 0 170 -44t69 -118
q0 -63 -49 -118t-121 -70q61 -11 99.5 -49.5t38.5 -92.5q0 -99 -100 -172.5t-238 -73.5zM238 0h-146l1624 1468h137zM1391 -29q-119 0 -194 51.5t-75 131.5q0 68 56 126.5t135 75.5l2 2q-48 20 -74.5 54t-26.5 75q0 87 90 154.5t216 67.5q103 0 171 -47t68 -121
q0 -59 -40.5 -108.5t-110.5 -74.5l-2 -2q60 -14 95.5 -53.5t35.5 -95.5q0 -97 -100 -166.5t-246 -69.5zM1468 397q71 0 124 39.5t53 89.5q0 41 -39 68t-99 27q-72 0 -122 -36t-50 -87q0 -45 36.5 -73t96.5 -28zM1411 70q83 0 140 43.5t57 105.5q0 48 -40.5 75.5t-111.5 27.5
q-87 0 -145 -40.5t-58 -99.5q0 -51 43.5 -81.5t114.5 -30.5z" />
    <glyph glyph-name="fiveeighths" unicode="&#x215d;" horiz-adv-x="1888" 
d="M412 788q-109 0 -187.5 43t-95.5 119l115 49q14 -53 66.5 -83.5t117.5 -30.5q89 0 150 51t61 119q0 54 -43 87.5t-109 33.5q-55 0 -103 -22.5t-79 -57.5l-98 26l166 389h430l-15 -94h-342l-100 -221q32 29 88.5 46.5t108.5 17.5q94 0 160.5 -49t66.5 -142
q0 -116 -105 -198.5t-253 -82.5zM238 0h-146l1624 1468h137zM1391 -29q-119 0 -194 51.5t-75 131.5q0 68 56 126.5t135 75.5l2 2q-48 20 -74.5 54t-26.5 75q0 87 90 154.5t216 67.5q103 0 171 -47t68 -121q0 -59 -40.5 -108.5t-110.5 -74.5l-2 -2q60 -14 95.5 -53.5
t35.5 -95.5q0 -97 -100 -166.5t-246 -69.5zM1468 397q71 0 124 39.5t53 89.5q0 41 -39 68t-99 27q-72 0 -122 -36t-50 -87q0 -45 36.5 -73t96.5 -28zM1411 70q83 0 140 43.5t57 105.5q0 48 -40.5 75.5t-111.5 27.5q-87 0 -145 -40.5t-58 -99.5q0 -51 43.5 -81.5t114.5 -30.5
z" />
    <glyph glyph-name="seveneighths" unicode="&#x215e;" horiz-adv-x="1787" 
d="M348 803h-129q15 88 72 200t150.5 226t199.5 192h-451l17 97h592l-15 -101q-166 -109 -288.5 -288.5t-147.5 -325.5zM137 0h-145l1624 1468h137zM1290 -29q-119 0 -193.5 51.5t-74.5 131.5q0 68 55.5 126.5t134.5 75.5l2 2q-47 20 -73.5 54t-26.5 75q0 87 89.5 154.5
t215.5 67.5q103 0 171.5 -47t68.5 -121q0 -59 -41 -108.5t-111 -74.5l-2 -2q60 -14 95.5 -53.5t35.5 -95.5q0 -97 -100 -166.5t-246 -69.5zM1368 397q71 0 123.5 39.5t52.5 89.5q0 41 -38.5 68t-98.5 27q-72 0 -122 -36t-50 -87q0 -45 36.5 -73t96.5 -28zM1311 70
q83 0 139.5 43.5t56.5 105.5q0 48 -40 75.5t-111 27.5q-87 0 -145 -40.5t-58 -99.5q0 -51 43.5 -81.5t114.5 -30.5z" />
    <glyph glyph-name="arrowleft" unicode="&#x2190;" horiz-adv-x="1710" 
d="M397 709h1190l-22 -129h-1190l293 -344h-176l-336 405l2 8l479 406h176z" />
    <glyph glyph-name="arrowup" unicode="&#x2191;" horiz-adv-x="1196" 
d="M715 1202l428 -340l-27 -155l-364 297l-177 -984h-145l174 984l-471 -297l27 155l545 340h10z" />
    <glyph glyph-name="arrowright" unicode="&#x2192;" horiz-adv-x="1705" 
d="M1071 1055h176l336 -406l-2 -8l-479 -405h-176l413 344h-1187l22 129h1190z" />
    <glyph glyph-name="arrowdown" unicode="&#x2193;" horiz-adv-x="1200" 
d="M786 1202l-174 -983l471 297l-26 -156l-547 -340h-8l-428 340l26 156l367 -299l174 985h145z" />
    <glyph glyph-name="arrowboth" unicode="&#x2194;" horiz-adv-x="2138" 
d="M664 231h-177l-335 406l2 8l479 406h176l-422 -346h1417l-299 346h176l336 -406l-2 -8l-479 -406h-176l420 347h-1411z" />
    <glyph glyph-name="arrowupdn" unicode="&#x2195;" horiz-adv-x="1304" 
d="M561 2h-8l-428 334l25 147l366 -284l182 993l-475 -289l27 152l547 331h8l428 -331l-27 -152l-362 287l-182 -991l471 284l-25 -147z" />
    <glyph glyph-name="uni2196" unicode="&#x2196;" horiz-adv-x="1464" 
d="M633 858l643 -764l-125 -74l-645 764l-166 -438l-102 121l200 508l8 4l644 -21l100 -120z" />
    <glyph glyph-name="uni2197" unicode="&#x2197;" horiz-adv-x="1345" 
d="M924 975l198 -508l-100 -121l-168 440l-643 -766l-127 74l643 764l-557 -20l102 120l641 21z" />
    <glyph glyph-name="uni2198" unicode="&#x2198;" horiz-adv-x="1472" 
d="M973 436l168 441l100 -123l-201 -508l-8 -4l-641 20l-102 123l557 -23l-643 764l127 74z" />
    <glyph glyph-name="uni2199" unicode="&#x2199;" horiz-adv-x="1347" 
d="M1153 1200l125 -74l-643 -764l557 23l-100 -123l-641 -20l-11 4l-200 508l102 123l168 -443z" />
    <glyph glyph-name="emptyset" unicode="&#x2205;" horiz-adv-x="1710" 
d="M1585 1196l-180 -176q156 -137 156 -358q0 -135 -63 -262.5t-170 -223t-259 -153.5t-321 -58q-198 0 -345 80l-182 -178l-94 65l182 177q-157 138 -157 362q0 136 62.5 263t169.5 222t258.5 152t320.5 57q199 0 350 -80l180 177zM307 487q0 -163 113 -270l782 762
q-111 57 -260 57q-130 0 -248.5 -45.5t-202.5 -121t-134 -176t-50 -206.5zM772 96q130 0 248.5 45.5t202 120.5t133 175t49.5 206q0 159 -111 270l-780 -761q115 -56 258 -56z" />
    <glyph glyph-name="minus" unicode="&#x2212;" horiz-adv-x="1189" 
d="M1028 563h-864l20 123h863z" />
    <glyph glyph-name="infinity" unicode="&#x221e;" horiz-adv-x="2220" 
d="M543 287q-164 0 -267.5 81t-103.5 210q0 102 67.5 191t180.5 141.5t242 52.5q125 0 222.5 -57.5t248.5 -203.5q204 145 325 203t244 58q157 0 263 -79t106 -210q0 -101 -65.5 -190.5t-178.5 -143t-244 -53.5q-88 0 -164 29.5t-142 80.5t-169 150q-204 -146 -322 -203
t-243 -57zM549 399q44 0 87.5 9.5t76.5 21.5t79.5 38.5t73.5 44t83 55.5t85 57q-23 19 -65.5 57.5t-63 56t-57 43.5t-64.5 37.5t-67 21t-82 9.5q-135 0 -226.5 -76t-91.5 -184q0 -90 62 -140.5t170 -50.5zM1608 399q134 0 224.5 76t90.5 184q0 89 -61 140t-168 51
q-38 0 -73 -5.5t-71.5 -19t-64 -25t-68 -36.5t-64 -40.5t-72 -49t-73.5 -49.5q24 -20 65 -56.5t63 -55t58 -44.5t64.5 -38.5t68 -22t81.5 -9.5z" />
    <glyph glyph-name="approxequal" unicode="&#x2248;" horiz-adv-x="1265" 
d="M354 723h-135q15 84 66.5 144t116.5 87t135 27q50 0 91 -14.5t68.5 -34.5t53 -40.5t56.5 -35t66 -14.5q60 0 96 40t46 97h137q-22 -126 -104.5 -192t-194.5 -66q-52 0 -94 14.5t-69.5 35.5t-53 41.5t-57 35t-68.5 14.5q-64 0 -104.5 -39.5t-51.5 -99.5zM283 303h-138
q22 123 114 189.5t204 66.5q61 0 110.5 -21.5t76.5 -47t66 -47t81 -21.5q61 0 97 38.5t46 98.5h137q-22 -126 -105 -192t-192 -66q-52 0 -94 14.5t-70 34.5t-53.5 40.5t-57 35t-67.5 14.5q-65 0 -105 -39.5t-50 -97.5z" />
    <glyph glyph-name="notequal" unicode="&#x2260;" horiz-adv-x="1249" 
d="M1112 891l-20 -123h-293l-185 -295h424l-18 -123h-473l-113 -182h-133l113 182h-260l20 123h307l185 295h-441l21 123h489l107 172h133l-107 -172h244z" />
    <glyph glyph-name="lessequal" unicode="&#x2264;" horiz-adv-x="1239" 
d="M1008 346h-854l18 107h571l-538 178l18 125l887 180l-18 -119l-701 -137l635 -225z" />
    <glyph glyph-name="greaterequal" unicode="&#x2265;" horiz-adv-x="1243" 
d="M1016 346h-856l18 109l713 225l-647 137l18 119l821 -180l-20 -125l-602 -178h571z" />
    <glyph glyph-name="lozenge" unicode="&#x25ca;" horiz-adv-x="1392" 
d="M651 0h-108l-375 694l620 692h109l375 -692zM330 694l286 -534h11l481 534l-287 533h-8z" />
    <glyph glyph-name="A.ss01" horiz-adv-x="1814" 
d="M111 0h-170l1017 1597h265l452 -1597h-170q-16 61 -66.5 245.5t-84.5 313.5h-887q-79 -126 -356 -559zM541 690h784q-161 574 -205 742h-100z" />
    <glyph glyph-name="Aacute.ss01" horiz-adv-x="1814" 
d="M1616 2044l-463 -324h-139l372 324h230zM111 0h-170l1017 1597h265l452 -1597h-170q-16 61 -66.5 245.5t-84.5 313.5h-887q-79 -126 -356 -559zM541 690h784q-161 574 -205 742h-100z" />
    <glyph glyph-name="Abreve.ss01" horiz-adv-x="1814" 
d="M1112 1726q-100 0 -180 29t-127.5 75.5t-70.5 103.5t-17 116h137q-8 -82 70 -147.5t204 -65.5q127 0 228.5 65.5t124.5 147.5h137q-13 -59 -55 -116t-105.5 -103.5t-154 -75.5t-191.5 -29zM111 0h-170l1017 1597h265l452 -1597h-170q-16 61 -66.5 245.5t-84.5 313.5h-887
q-79 -126 -356 -559zM541 690h784q-161 574 -205 742h-100z" />
    <glyph glyph-name="Acircumflex.ss01" horiz-adv-x="1814" 
d="M1262 2028l266 -308h-139q-142 124 -238 217q-21 -15 -63.5 -46t-62 -44.5t-69.5 -47t-122 -79.5h-142l373 308h197zM111 0h-170l1017 1597h265l452 -1597h-170q-16 61 -66.5 245.5t-84.5 313.5h-887q-79 -126 -356 -559zM541 690h784q-161 574 -205 742h-100z" />
    <glyph glyph-name="Adieresis.ss01" horiz-adv-x="1814" 
d="M889 1784q-46 0 -77.5 26.5t-31.5 67.5q0 49 43.5 87t100.5 38q45 0 74.5 -26.5t29.5 -63.5q0 -51 -42 -90t-97 -39zM1358 1784q-47 0 -78 26.5t-31 65.5q0 52 43 89.5t101 37.5q44 0 75 -27t31 -65q0 -50 -43 -88.5t-98 -38.5zM111 0h-170l1017 1597h265l452 -1597h-170
q-16 61 -66.5 245.5t-84.5 313.5h-887q-79 -126 -356 -559zM541 690h784q-161 574 -205 742h-100z" />
    <glyph glyph-name="Agrave.ss01" horiz-adv-x="1814" 
d="M1214 1720h-139l-352 324h233zM111 0h-170l1017 1597h265l452 -1597h-170q-16 61 -66.5 245.5t-84.5 313.5h-887q-79 -126 -356 -559zM541 690h784q-161 574 -205 742h-100z" />
    <glyph glyph-name="Amacron.ss01" horiz-adv-x="1814" 
d="M1532 1829h-799l21 117h796zM111 0h-170l1017 1597h265l452 -1597h-170q-16 61 -66.5 245.5t-84.5 313.5h-887q-79 -126 -356 -559zM541 690h784q-161 574 -205 742h-100z" />
    <glyph glyph-name="Aogonek.ss01" horiz-adv-x="1814" 
d="M1589 -365q47 0 111 15l-17 -99q-69 -14 -120 -14q-125 0 -206 52t-81 147q0 154 235 264h-6q-16 61 -66.5 245.5t-84.5 313.5h-887q-79 -126 -356 -559h-170l1017 1597h265l452 -1597h-24q-103 -37 -177.5 -96.5t-74.5 -134.5q0 -60 54.5 -97t135.5 -37zM541 690h784
q-161 574 -205 742h-100z" />
    <glyph glyph-name="Aring.ss01" horiz-adv-x="1814" 
d="M1110 1714q-103 0 -168 53t-65 136q0 101 91.5 176t219.5 75q103 0 167 -52.5t64 -135.5q0 -101 -90 -176.5t-219 -75.5zM1126 1810q75 0 129 43t54 103q0 46 -39.5 73t-98.5 27q-78 0 -130 -41.5t-52 -101.5q0 -48 38.5 -75.5t98.5 -27.5zM111 0h-170l1017 1597h265
l452 -1597h-170q-16 61 -66.5 245.5t-84.5 313.5h-887q-79 -126 -356 -559zM541 690h784q-161 574 -205 742h-100z" />
    <glyph glyph-name="Atilde.ss01" horiz-adv-x="1814" 
d="M1315 1747q-41 0 -76.5 12.5t-51.5 23t-52 38.5l-41 32q-46 37 -70 45q-20 7 -43 7q-57 0 -99.5 -40.5t-54.5 -101.5h-116q22 110 104 180t189 70q53 0 89 -17t76 -50l45 -37q68 -54 125 -54q56 0 96 40.5t52 103.5h117q-20 -116 -97 -184t-192 -68zM111 0h-170
l1017 1597h265l452 -1597h-170q-16 61 -66.5 245.5t-84.5 313.5h-887q-79 -126 -356 -559zM541 690h784q-161 574 -205 742h-100z" />
    <glyph glyph-name="B.ss01" horiz-adv-x="1751" 
d="M932 0h-768l282 1597h678q255 0 398 -101t143 -261q0 -145 -117 -263.5t-299 -156.5v-4q174 -27 261 -114t87 -214q0 -95 -51.5 -184t-139.5 -154.5t-212.5 -105t-261.5 -39.5zM475 868h502q231 0 374.5 96t143.5 234q0 124 -117.5 195t-312.5 71h-479
q-11 -61 -38 -207.5t-47.5 -256.5t-25.5 -132zM346 133h557q236 0 380 97t144 237q0 127 -118 199.5t-318 72.5h-536q-13 -73 -33.5 -184t-75.5 -422z" />
    <glyph glyph-name="C.ss01" horiz-adv-x="2064" 
d="M995 -35q-381 0 -608 188t-227 506q0 125 39.5 247.5t110 229.5t173 198.5t224.5 156.5t268.5 102t300.5 37q134 0 257.5 -29.5t227 -85.5t177 -146.5t98.5 -205.5l-154 -53q-53 180 -224.5 281.5t-404.5 101.5q-154 0 -297.5 -44.5t-255.5 -123t-196 -181t-129 -224
t-45 -246.5q0 -116 39 -212t105 -162t156.5 -111t191 -66t210.5 -21q151 0 286.5 39t238.5 107.5t180 153.5t129 184l135 -47q-66 -124 -161.5 -226t-220.5 -181t-285 -123t-339 -44z" />
    <glyph glyph-name="D.ss01" horiz-adv-x="1978" 
d="M856 0h-692l282 1597h670q393 0 589 -170t196 -475q0 -147 -47 -287.5t-138 -260.5t-216 -210.5t-291.5 -142t-352.5 -51.5zM346 133h545q187 0 347.5 66t267.5 175.5t167 251.5t60 294q0 275 -174.5 409.5t-497.5 134.5h-475q-29 -163 -62.5 -341t-71 -388t-106.5 -602z
" />
    <glyph glyph-name="E.ss01" horiz-adv-x="1613" 
d="M1391 0h-1227l282 1597h1203l-21 -133h-1042q-2 -13 -31 -163.5t-76 -411.5h994l-21 -137h-993q-10 -52 -113 -613h1067z" />
    <glyph glyph-name="F.ss01" horiz-adv-x="1529" 
d="M1624 1597l-22 -139h-1018l-105 -586h967l-21 -135h-968l-131 -737h-162l282 1597h1178z" />
    <glyph glyph-name="G.ss01" horiz-adv-x="2103" 
d="M987 -35q-379 0 -604 187.5t-225 502.5q0 126 39.5 249t110.5 230.5t173.5 199t224.5 157t268 102.5t300 37q134 0 257.5 -29.5t227 -85.5t177 -146.5t98.5 -205.5l-154 -53q-36 121 -128 208t-221 131t-282 44q-189 0 -361 -68.5t-293.5 -181t-193 -261.5t-71.5 -306
q0 -267 189 -420.5t519 -153.5q323 0 537 148t283 403h-691l19 127h839l-8 -49q-28 -157 -99.5 -286t-171 -217t-224.5 -148t-259 -87.5t-276 -27.5z" />
    <glyph glyph-name="H.ss01" horiz-adv-x="1986" 
d="M1618 872l129 725h160l-283 -1597h-160l129 737h-1138l-129 -737h-162l282 1597h162l-129 -725h1139z" />
    <glyph glyph-name="I.ss01" horiz-adv-x="1308" 
d="M1118 0h-1126l22 133h484l239 1331h-495l20 133h1151l-20 -133h-498l-240 -1331h484z" />
    <glyph glyph-name="Iacute.ss01" horiz-adv-x="1308" 
d="M1337 2044l-463 -324h-139l373 324h229zM1118 0h-1126l22 133h484l239 1331h-495l20 133h1151l-20 -133h-498l-240 -1331h484z" />
    <glyph glyph-name="Icircumflex.ss01" horiz-adv-x="1308" 
d="M1014 2028l266 -308h-139q-142 124 -238 217q-21 -15 -63.5 -46t-62 -44.5t-69.5 -47t-122 -79.5h-142l373 308h197zM1118 0h-1126l22 133h484l239 1331h-495l20 133h1151l-20 -133h-498l-240 -1331h484z" />
    <glyph glyph-name="Idieresis.ss01" horiz-adv-x="1308" 
d="M641 1784q-46 0 -77.5 26.5t-31.5 67.5q0 49 43.5 87t100.5 38q45 0 74.5 -26.5t29.5 -63.5q0 -51 -42 -90t-97 -39zM1110 1784q-47 0 -78 26.5t-31 65.5q0 52 43 89.5t101 37.5q44 0 75 -27t31 -65q0 -50 -43 -88.5t-98 -38.5zM1118 0h-1126l22 133h484l239 1331h-495
l20 133h1151l-20 -133h-498l-240 -1331h484z" />
    <glyph glyph-name="Idotaccent.ss01" horiz-adv-x="1308" 
d="M868 1786q-47 0 -78.5 27.5t-31.5 70.5q0 53 45 92t106 39q47 0 80 -28t33 -68q0 -52 -47 -92.5t-107 -40.5zM1118 0h-1126l22 133h484l239 1331h-495l20 133h1151l-20 -133h-498l-240 -1331h484z" />
    <glyph glyph-name="Igrave.ss01" horiz-adv-x="1308" 
d="M967 1720h-140l-352 324h234zM1118 0h-1126l22 133h484l239 1331h-495l20 133h1151l-20 -133h-498l-240 -1331h484z" />
    <glyph glyph-name="Imacron.ss01" horiz-adv-x="1308" 
d="M1284 1829h-799l21 117h797zM1118 0h-1126l22 133h484l239 1331h-495l20 133h1151l-20 -133h-498l-240 -1331h484z" />
    <glyph glyph-name="J.ss01" horiz-adv-x="1421" 
d="M539 -35q-59 0 -115 8t-112 25.5t-101 46.5t-83.5 70.5t-58.5 97t-25.5 127.5t15.5 160l4 26l152 19l-4 -25q-16 -85 -12.5 -149.5t31 -111.5t62 -77.5t82 -48.5t90 -25.5t85.5 -7.5q182 0 305 110.5t156 293.5l174 960h-662l23 133h819l-184 -1052q-7 -34 -10.5 -52
t-17.5 -68.5t-29 -83.5t-43 -85.5t-60 -88.5t-81 -77t-105 -66t-132 -42t-163 -17z" />
    <glyph glyph-name="K.ss01" horiz-adv-x="1619" 
d="M326 0h-162l282 1597h162l-135 -731h6q628 422 1090 731h211q-106 -73 -511.5 -348.5t-670.5 -460.5q619 -521 940 -788h-221q-52 41 -229 189.5t-639 506.5z" />
    <glyph glyph-name="L.ss01" horiz-adv-x="1445" 
d="M608 1597l-258 -1458h989l-22 -139h-1153l282 1597h162z" />
    <glyph glyph-name="M.ss01" horiz-adv-x="2301" 
d="M2036 1597h188l-282 -1597h-162l243 1352l-837 -1006h-142l-475 1004l-243 -1350h-162l282 1597h191q182 -369 504 -1071h4q638 779 891 1071z" />
    <glyph glyph-name="N.ss01" horiz-adv-x="2027" 
d="M326 0h-162l282 1597h240l807 -1364h49l248 1364h160l-283 -1597h-240l-802 1350h-58z" />
    <glyph glyph-name="O.ss01" horiz-adv-x="2177" 
d="M985 -35q-239 0 -427.5 89.5t-294 250.5t-105.5 365q0 148 57.5 291.5t162.5 263t242.5 211t308 143t349.5 51.5q239 0 427.5 -89.5t294 -251t105.5 -365.5q0 -123 -41.5 -244.5t-115 -226.5t-178 -195.5t-227 -155t-266.5 -101t-292 -36.5zM1010 102q181 0 351.5 67.5
t294 178.5t198.5 258.5t75 300.5q0 168 -86.5 302t-240.5 209t-347 75q-178 0 -348 -67.5t-296 -177.5t-202.5 -258.5t-76.5 -303.5q0 -169 88 -303t242.5 -207.5t347.5 -73.5z" />
    <glyph glyph-name="P.ss01" horiz-adv-x="1636" 
d="M446 1597h668q20 0 37.5 -0.5t59 -4t76.5 -10.5t83 -21t86.5 -33t78.5 -50t67 -69.5t44 -92.5t17 -118q0 -111 -51.5 -214t-140 -180t-215.5 -123t-271 -46h-547l-112 -635h-162zM463 772h493q235 0 386 109.5t151 279.5q0 150 -113.5 226.5t-316.5 76.5h-479z" />
    <glyph glyph-name="Q.ss01" horiz-adv-x="2193" 
d="M766 -12q-47 -39 -287 -234v-4h1247l-22 -127h-1561l484 402q-219 77 -342 243.5t-123 393.5q0 149 54 293t156 265t238 213.5t311 144.5t365 52q376 0 602 -191t226 -509q0 -125 -38.5 -246.5t-109 -227.5t-172.5 -196.5t-224.5 -155t-271.5 -101t-307 -36.5
q-120 0 -225 21zM330 680q0 -204 115 -345t315 -198l524 436l100 -84q-79 -65 -235.5 -192t-235.5 -191q66 -4 103 -4q194 0 368.5 68t296 180t192.5 260t71 305q0 262 -186 421t-492 159q-194 0 -369 -68t-298.5 -180t-196 -261t-72.5 -306z" />
    <glyph glyph-name="R.ss01" horiz-adv-x="1689" 
d="M983 637h-313l848 -637h-220l-849 637h-13l-110 -637h-162l282 1597h668q29 0 58.5 -1.5t87.5 -10t107 -23t106 -44.5t97 -71t66.5 -106t26.5 -145q0 -111 -51.5 -213.5t-140.5 -178.5t-216.5 -121.5t-271.5 -45.5zM1063 1470h-477l-129 -702h497q237 0 388 113t151 284
q0 147 -112 226t-318 79z" />
    <glyph glyph-name="S.ss01" horiz-adv-x="1576" 
d="M713 -35q-88 0 -169.5 15t-161 50t-141.5 87.5t-107 133.5t-60 183l157 49q17 -125 89 -213t178.5 -129t240.5 -41q220 0 373.5 103t153.5 246q0 48 -21.5 87t-47 62t-80 46t-84.5 32t-97 27q-8 2 -13 3.5t-11.5 3t-12.5 3.5l-170 45q-44 12 -78 22.5t-84.5 30t-88 40
t-78.5 51.5t-67 65.5t-43.5 81.5t-17.5 100q0 95 53.5 183t145 153.5t221 105t273.5 39.5q244 0 393 -105.5t178 -277.5l-152 -53q-30 138 -148.5 219.5t-303.5 81.5q-206 0 -347 -92.5t-141 -220.5q0 -38 15.5 -73t36 -59.5t57 -48t62.5 -37.5t70 -30t62.5 -21t55.5 -16
l176 -51q172 -46 239 -74q203 -86 225 -244q3 -21 3 -43q0 -99 -57 -193.5t-153.5 -166.5t-234 -116t-288.5 -44z" />
    <glyph glyph-name="U.ss01" horiz-adv-x="1875" 
d="M809 -35q-314 0 -464 166.5t-99 448.5l180 1017h162l-182 -1009q-44 -238 72 -363t362 -125q249 0 411.5 126t204.5 362l180 1009h162l-282 -1597h-158l37 201h-4q-194 -236 -582 -236z" />
    <glyph glyph-name="Uacute.ss01" horiz-adv-x="1875" 
d="M1409 2044l-463 -324h-139l373 324h229zM809 -35q-314 0 -464 166.5t-99 448.5l180 1017h162l-182 -1009q-44 -238 72 -363t362 -125q249 0 411.5 126t204.5 362l180 1009h162l-282 -1597h-158l37 201h-4q-194 -236 -582 -236z" />
    <glyph glyph-name="Ucircumflex.ss01" horiz-adv-x="1875" 
d="M1278 2028l266 -308h-139q-142 124 -238 217q-21 -15 -63.5 -46t-62 -44.5t-69.5 -47t-122 -79.5h-141l372 308h197zM809 -35q-314 0 -464 166.5t-99 448.5l180 1017h162l-182 -1009q-44 -238 72 -363t362 -125q249 0 411.5 126t204.5 362l180 1009h162l-282 -1597h-158
l37 201h-4q-194 -236 -582 -236z" />
    <glyph glyph-name="Udieresis.ss01" horiz-adv-x="1875" 
d="M905 1784q-46 0 -77 26.5t-31 67.5q0 50 43 87.5t100 37.5q45 0 74.5 -26.5t29.5 -63.5q0 -51 -42 -90t-97 -39zM1374 1784q-47 0 -77.5 26.5t-30.5 65.5q0 52 43 89.5t100 37.5q44 0 75.5 -27t31.5 -65q0 -50 -43.5 -88.5t-98.5 -38.5zM809 -35q-314 0 -464 166.5
t-99 448.5l180 1017h162l-182 -1009q-44 -238 72 -363t362 -125q249 0 411.5 126t204.5 362l180 1009h162l-282 -1597h-158l37 201h-4q-194 -236 -582 -236z" />
    <glyph glyph-name="Ugrave.ss01" horiz-adv-x="1875" 
d="M1231 1720h-139l-353 324h234zM809 -35q-314 0 -464 166.5t-99 448.5l180 1017h162l-182 -1009q-44 -238 72 -363t362 -125q249 0 411.5 126t204.5 362l180 1009h162l-282 -1597h-158l37 201h-4q-194 -236 -582 -236z" />
    <glyph glyph-name="Uhungarumlaut.ss01" horiz-adv-x="1875" 
d="M1358 2044l-389 -324h-135l309 324h215zM1733 2044l-408 -324h-139l332 324h215zM809 -35q-314 0 -464 166.5t-99 448.5l180 1017h162l-182 -1009q-44 -238 72 -363t362 -125q249 0 411.5 126t204.5 362l180 1009h162l-282 -1597h-158l37 201h-4q-194 -236 -582 -236z
" />
    <glyph glyph-name="Umacron.ss01" horiz-adv-x="1875" 
d="M1548 1829h-798l20 117h797zM809 -35q-314 0 -464 166.5t-99 448.5l180 1017h162l-182 -1009q-44 -238 72 -363t362 -125q249 0 411.5 126t204.5 362l180 1009h162l-282 -1597h-158l37 201h-4q-194 -236 -582 -236z" />
    <glyph glyph-name="Uogonek.ss01" horiz-adv-x="1875" 
d="M1251 -231q0 -60 55 -97t136 -37q46 0 110 15l-16 -99q-69 -14 -121 -14q-125 0 -206 52t-81 147q0 153 236 264h-6l37 201h-4q-194 -236 -582 -236q-314 0 -464 166.5t-99 448.5l180 1017h162l-182 -1009q-44 -238 72 -363t362 -125q249 0 411.5 126t204.5 362l180 1009
h162l-282 -1597h-13q-103 -37 -177.5 -96.5t-74.5 -134.5z" />
    <glyph glyph-name="Uring.ss01" horiz-adv-x="1875" 
d="M1124 1714q-103 0 -168 53t-65 136q0 101 91.5 176t219.5 75q103 0 167.5 -52.5t64.5 -135.5q0 -101 -90.5 -176.5t-219.5 -75.5zM1141 1810q75 0 128.5 43t53.5 103q0 46 -39 73t-98 27q-78 0 -130 -41.5t-52 -101.5q0 -48 38.5 -75.5t98.5 -27.5zM809 -35
q-314 0 -464 166.5t-99 448.5l180 1017h162l-182 -1009q-44 -238 72 -363t362 -125q249 0 411.5 126t204.5 362l180 1009h162l-282 -1597h-158l37 201h-4q-194 -236 -582 -236z" />
    <glyph glyph-name="V.ss01" horiz-adv-x="1810" 
d="M936 0h-262l-453 1597h170q26 -93 106.5 -394.5t290.5 -1026.5h99q150 236 450 710t451 711h168z" />
    <glyph glyph-name="W.ss01" horiz-adv-x="2785" 
d="M766 0h-197l-340 1597h170l299 -1402h4l734 1402h303l213 -1402h6l797 1402h170l-906 -1597h-196l-207 1436h-105z" />
    <glyph glyph-name="Wacute.ss01" horiz-adv-x="2785" 
d="M2105 2044l-463 -324h-139l373 324h229zM766 0h-197l-340 1597h170l299 -1402h4l734 1402h303l213 -1402h6l797 1402h170l-906 -1597h-196l-207 1436h-105z" />
    <glyph glyph-name="Wcircumflex.ss01" horiz-adv-x="2785" 
d="M1751 2028l266 -308h-139q-142 124 -238 217q-21 -15 -63.5 -46t-62 -44.5t-69.5 -47t-122 -79.5h-141l372 308h197zM766 0h-197l-340 1597h170l299 -1402h4l734 1402h303l213 -1402h6l797 1402h170l-906 -1597h-196l-207 1436h-105z" />
    <glyph glyph-name="Wdieresis.ss01" horiz-adv-x="2785" 
d="M1378 1784q-46 0 -77 26.5t-31 67.5q0 50 43 87.5t100 37.5q45 0 75 -26.5t30 -63.5q0 -51 -42.5 -90t-97.5 -39zM1847 1784q-47 0 -77.5 26.5t-30.5 65.5q0 52 43 89.5t100 37.5q44 0 75.5 -27t31.5 -65q0 -50 -43.5 -88.5t-98.5 -38.5zM766 0h-197l-340 1597h170
l299 -1402h4l734 1402h303l213 -1402h6l797 1402h170l-906 -1597h-196l-207 1436h-105z" />
    <glyph glyph-name="Wgrave.ss01" horiz-adv-x="2785" 
d="M1704 1720h-139l-353 324h234zM766 0h-197l-340 1597h170l299 -1402h4l734 1402h303l213 -1402h6l797 1402h170l-906 -1597h-196l-207 1436h-105z" />
    <glyph glyph-name="X.ss01" horiz-adv-x="1681" 
d="M113 0h-179l797 811l2 20l-500 766h179q159 -243 442 -698h94q65 65 260 266.5t432 431.5h179l-770 -766l-5 -20l508 -811h-176q-409 660 -452 741h-95q-70 -72 -249.5 -263t-466.5 -478z" />
    <glyph glyph-name="Y.ss01" horiz-adv-x="1658" 
d="M418 0h-166l526 590l-538 1007h174l467 -866h4l786 866h170z" />
    <glyph glyph-name="Yacute.ss01" horiz-adv-x="1658" 
d="M1536 2044l-463 -324h-139l371 324h231zM418 0h-166l526 590l-538 1007h174l467 -866h4l786 866h170z" />
    <glyph glyph-name="Ycircumflex.ss01" horiz-adv-x="1658" 
d="M1212 2028l267 -308h-140q-133 116 -237 217q-20 -15 -53 -38.5t-48.5 -34.5t-46.5 -32.5t-71 -47.5t-99 -64h-141l373 308h196zM418 0h-166l526 590l-538 1007h174l467 -866h4l786 866h170z" />
    <glyph glyph-name="Ydieresis.ss01" horiz-adv-x="1658" 
d="M840 1784q-46 0 -77.5 26.5t-31.5 67.5q0 50 43 87.5t100 37.5q45 0 75 -26.5t30 -63.5q0 -51 -42 -90t-97 -39zM1309 1784q-47 0 -78 26.5t-31 65.5q0 52 43 89.5t100 37.5q44 0 75.5 -27t31.5 -65q0 -50 -43 -88.5t-98 -38.5zM418 0h-166l526 590l-538 1007h174
l467 -866h4l786 866h170z" />
    <glyph glyph-name="Ygrave.ss01" horiz-adv-x="1658" 
d="M1165 1720h-139l-352 324h233zM418 0h-166l526 590l-538 1007h174l467 -866h4l786 866h170z" />
    <glyph glyph-name="Z.ss01" horiz-adv-x="1669" 
d="M1470 0h-1564l1599 1464h-1192l25 133h1483l-1594 -1458h1266z" />
    <glyph glyph-name="Zacute.ss01" horiz-adv-x="1669" 
d="M1534 2044l-463 -324h-139l373 324h229zM1470 0h-1564l1599 1464h-1192l25 133h1483l-1594 -1458h1266z" />
    <glyph glyph-name="Zcaron.ss01" horiz-adv-x="1669" 
d="M1360 2028h139l-371 -308h-198l-266 308h139q120 -102 241 -220q33 24 82.5 59.5t74.5 53.5t67.5 47t91.5 60zM1470 0h-1564l1599 1464h-1192l25 133h1483l-1594 -1458h1266z" />
    <glyph glyph-name="Zdotaccent.ss01" horiz-adv-x="1669" 
d="M1042 1786q-47 0 -78.5 27.5t-31.5 70.5q0 53 45 92t106 39q47 0 80 -28t33 -68q0 -52 -47 -92.5t-107 -40.5zM1470 0h-1564l1599 1464h-1192l25 133h1483l-1594 -1458h1266z" />
    <glyph glyph-name="Q.ss02" horiz-adv-x="2177" 
d="M2105 924q0 -176 -83 -344.5t-222.5 -298t-331 -214.5t-399.5 -100l-39 -215h668l-21 -129h-819l60 344q-221 12 -394 104t-269.5 248t-96.5 351q0 148 57.5 291.5t162.5 263t242.5 211t308 143t349.5 51.5q239 0 427.5 -89.5t294 -251t105.5 -365.5zM332 686
q0 -159 78.5 -287.5t217 -205t314.5 -89.5l84 482h152l-84 -480q168 15 322.5 87.5t266.5 180.5t179 248t67 285q0 168 -86.5 302t-240.5 209t-347 75q-178 0 -348 -67.5t-296 -177.5t-202.5 -258.5t-76.5 -303.5z" />
    <glyph glyph-name="A.ss07" 
d="M1094 -315q-216 0 -398.5 58t-310.5 160.5t-200 249.5t-72 320q0 165 65 325t186 294t280.5 236.5t360.5 160t414 57.5q205 0 383.5 -54.5t312 -154t210.5 -250.5t77 -333q0 -140 -47 -276t-131 -253.5t-204.5 -217.5t-263.5 -171t-313.5 -111t-348.5 -40zM1264 1096
l-641 -963h120q42 59 123.5 180t102.5 152h485q1 -2 24 -78.5t81 -253.5h120l-299 963h-116zM1425 559h-399q151 230 274 408q7 -25 23 -80.5t26.5 -91t30.5 -100t45 -136.5z" />
    <glyph glyph-name="B.ss07" horiz-adv-x="2459" 
d="M1094 -315q-216 0 -398.5 58t-310.5 160.5t-200 249.5t-72 320q0 165 65 325t186 294t280.5 236.5t360.5 160t414 57.5q205 0 383.5 -54.5t312 -154t210.5 -250.5t77 -333q0 -140 -47 -276t-131 -253.5t-204.5 -217.5t-263.5 -171t-313.5 -111t-348.5 -40zM952 1096
l-170 -963h465q168 0 286 88.5t118 208.5q0 72 -45.5 123.5t-130.5 71.5q98 29 159.5 99.5t61.5 154.5q0 97 -92 157t-240 60h-412zM989 664l62 335h276q109 0 177.5 -40t68.5 -109q0 -77 -82.5 -131.5t-212.5 -54.5h-289zM1233 229h-322q45 242 66 342h307q109 0 178.5 -41
t69.5 -114q0 -79 -84.5 -133t-214.5 -54z" />
    <glyph glyph-name="C.ss07" 
d="M1094 -315q-216 0 -398.5 58t-310.5 160.5t-200 249.5t-72 320q0 165 65 325t186 294t280.5 236.5t360.5 160t414 57.5q205 0 383.5 -54.5t312 -154t210.5 -250.5t77 -333q0 -140 -47 -276t-131 -253.5t-204.5 -217.5t-263.5 -171t-313.5 -111t-348.5 -40zM1186 113
q201 0 362.5 92.5t249.5 259.5l-100 33q-60 -124 -187 -205.5t-301 -81.5q-80 0 -151.5 19.5t-129.5 58.5t-92 103.5t-34 148.5q0 91 41 178t111.5 153t171.5 106t214 40q140 0 238.5 -62.5t126.5 -167.5l111 37q-19 95 -91 163t-167.5 98t-204.5 30q-137 0 -262 -48.5
t-214.5 -129t-142.5 -188t-53 -220.5q0 -190 137.5 -303.5t366.5 -113.5z" />
    <glyph glyph-name="D.ss07" 
d="M1094 -315q-216 0 -398.5 58t-310.5 160.5t-200 249.5t-72 320q0 165 65 325t186 294t280.5 236.5t360.5 160t414 57.5q205 0 383.5 -54.5t312 -154t210.5 -250.5t77 -333q0 -140 -47 -276t-131 -253.5t-204.5 -217.5t-263.5 -171t-313.5 -111t-348.5 -40zM907 1096
l-170 -963h422q141 0 261.5 48.5t200 129t124.5 184t45 214.5q0 187 -123 287t-352 100h-408zM1182 229h-314q15 82 40 230.5t100 539.5h268q391 0 391 -315q0 -190 -139 -322.5t-346 -132.5z" />
    <glyph glyph-name="E.ss07" 
d="M1094 -315q-216 0 -398.5 58t-310.5 160.5t-200 249.5t-72 320q0 165 65 325t186 294t280.5 236.5t360.5 160t414 57.5q205 0 383.5 -54.5t312 -154t210.5 -250.5t77 -333q0 -140 -47 -276t-131 -253.5t-204.5 -217.5t-263.5 -171t-313.5 -111t-348.5 -40zM979 1096
l-170 -963h745l15 98h-631q7 35 17 87.5t21.5 113.5t27.5 148h589l15 96h-590q8 41 12 62t6 34.5t12.5 71.5t28.5 155h619l16 97h-733z" />
    <glyph glyph-name="F.ss07" horiz-adv-x="2459" 
d="M1094 -315q-216 0 -398.5 58t-310.5 160.5t-200 249.5t-72 320q0 165 65 325t186 294t280.5 236.5t360.5 160t414 57.5q205 0 383.5 -54.5t312 -154t210.5 -250.5t77 -333q0 -140 -47 -276t-131 -253.5t-204.5 -217.5t-263.5 -171t-313.5 -111t-348.5 -40zM1001 1096
l-170 -963h117l76 436h575l17 97h-578l64 331h604l16 99h-721z" />
    <glyph glyph-name="G.ss07" 
d="M1094 -315q-216 0 -398.5 58t-310.5 160.5t-200 249.5t-72 320q0 165 65 325t186 294t280.5 236.5t360.5 160t414 57.5q205 0 383.5 -54.5t312 -154t210.5 -250.5t77 -333q0 -140 -47 -276t-131 -253.5t-204.5 -217.5t-263.5 -171t-313.5 -111t-348.5 -40zM1176 113
q154 0 280 56.5t207 164.5l-33 -201h99l81 479h-518l-14 -92h403q-41 -137 -173.5 -223t-303.5 -86q-78 0 -148 19.5t-127.5 58.5t-91.5 104.5t-34 149.5q0 91 41.5 177t112 152t171.5 106t213 40q139 0 237.5 -61.5t127.5 -168.5l111 37q-19 95 -91 163t-167.5 98
t-204.5 30q-137 0 -262.5 -49t-214.5 -129.5t-142 -188t-53 -221.5q0 -189 135.5 -302t358.5 -113z" />
    <glyph glyph-name="H.ss07" 
d="M1094 -315q-216 0 -398.5 58t-310.5 160.5t-200 249.5t-72 320q0 165 65 325t186 294t280.5 236.5t360.5 160t414 57.5q205 0 383.5 -54.5t312 -154t210.5 -250.5t77 -333q0 -140 -47 -276t-131 -253.5t-204.5 -217.5t-263.5 -171t-313.5 -111t-348.5 -40zM881 1096
l-170 -963h114l78 436h656l-78 -436h114l170 963h-114l-76 -428h-657l77 428h-114z" />
    <glyph glyph-name="I.ss07" 
d="M1094 -315q-216 0 -398.5 58t-310.5 160.5t-200 249.5t-72 320q0 165 65 325t186 294t280.5 236.5t360.5 160t414 57.5q205 0 383.5 -54.5t312 -154t210.5 -250.5t77 -333q0 -140 -47 -276t-131 -253.5t-204.5 -217.5t-263.5 -171t-313.5 -111t-348.5 -40zM1266 1096
l-170 -963h114l170 963h-114z" />
    <glyph glyph-name="J.ss07" 
d="M1094 -315q-216 0 -398.5 58t-310.5 160.5t-200 249.5t-72 320q0 165 65 325t186 294t280.5 236.5t360.5 160t414 57.5q205 0 383.5 -54.5t312 -154t210.5 -250.5t77 -333q0 -140 -47 -276t-131 -253.5t-204.5 -217.5t-263.5 -171t-313.5 -111t-348.5 -40zM1108 123
q67 0 123.5 16.5t94.5 40.5t68.5 61.5t48 69.5t31 75.5t19 69t10.5 58.5l105 592h-113l-109 -614q-6 -38 -13.5 -67.5t-27 -70.5t-46 -68.5t-72.5 -47t-105 -19.5q-45 0 -84.5 11.5t-74 36t-48.5 73t0 113.5l7 30l-111 -12l-6 -35q-16 -85 4.5 -148.5t68.5 -98t105.5 -50.5
t124.5 -16z" />
    <glyph glyph-name="K.ss07" horiz-adv-x="2459" 
d="M1094 -315q-216 0 -398.5 58t-310.5 160.5t-200 249.5t-72 320q0 165 65 325t186 294t280.5 236.5t360.5 160t414 57.5q205 0 383.5 -54.5t312 -154t210.5 -250.5t77 -333q0 -140 -47 -276t-131 -253.5t-204.5 -217.5t-263.5 -171t-313.5 -111t-348.5 -40zM963 1096
l-170 -963h114q9 55 25 140.5t35 191.5q28 20 87.5 66t82.5 63q29 -38 66.5 -88t60.5 -79.5t82 -104t151 -189.5h141q-42 56 -120 154.5t-146 189t-141 197.5q88 66 271.5 207.5t281.5 214.5h-146q-524 -395 -651 -496l90 496h-114z" />
    <glyph glyph-name="L.ss07" 
d="M1094 -315q-216 0 -398.5 58t-310.5 160.5t-200 249.5t-72 320q0 165 65 325t186 294t280.5 236.5t360.5 160t414 57.5q205 0 383.5 -54.5t312 -154t210.5 -250.5t77 -333q0 -140 -47 -276t-131 -253.5t-204.5 -217.5t-263.5 -171t-313.5 -111t-348.5 -40zM1067 1096
l-170 -963h705l16 98h-590l156 865h-117z" />
    <glyph glyph-name="M.ss07" horiz-adv-x="2459" 
d="M1094 -315q-216 0 -398.5 58t-310.5 160.5t-200 249.5t-72 320q0 165 65 325t186 294t280.5 236.5t360.5 160t414 57.5q205 0 383.5 -54.5t312 -154t210.5 -250.5t77 -333q0 -140 -47 -276t-131 -253.5t-204.5 -217.5t-263.5 -171t-313.5 -111t-348.5 -40zM737 1096
l-170 -963h113l137 754q60 -165 167.5 -446t117.5 -308h100q280 382 559 756l-137 -756h117l170 963h-131q-25 -34 -604 -820q-132 359 -310 820h-129z" />
    <glyph glyph-name="N.ss07" 
d="M1094 -315q-216 0 -398.5 58t-310.5 160.5t-200 249.5t-72 320q0 165 65 325t186 294t280.5 236.5t360.5 160t414 57.5q205 0 383.5 -54.5t312 -154t210.5 -250.5t77 -333q0 -140 -47 -276t-131 -253.5t-204.5 -217.5t-263.5 -171t-313.5 -111t-348.5 -40zM883 1096
l-170 -963h114l140 785q91 -137 271 -397.5t265 -387.5h119l170 963h-113l-145 -793q-123 192 -533 793h-118z" />
    <glyph glyph-name="O.ss07" 
d="M1094 -315q-216 0 -398.5 58t-310.5 160.5t-200 249.5t-72 320q0 165 65 325t186 294t280.5 236.5t360.5 160t414 57.5q205 0 383.5 -54.5t312 -154t210.5 -250.5t77 -333q0 -140 -47 -276t-131 -253.5t-204.5 -217.5t-263.5 -171t-313.5 -111t-348.5 -40zM1151 113
q178 0 335.5 81t250 214.5t92.5 281.5q0 186 -141 306t-359 120q-132 0 -257 -48t-216.5 -126.5t-147 -185t-55.5 -217.5q0 -189 140.5 -307.5t357.5 -118.5zM776 551q0 90 44 175.5t116.5 149.5t172.5 103t206 39q170 0 279.5 -96t109.5 -244q0 -119 -73.5 -227t-198 -174
t-263.5 -66q-172 0 -282.5 96t-110.5 244z" />
    <glyph glyph-name="P.ss07" 
d="M1094 -315q-216 0 -398.5 58t-310.5 160.5t-200 249.5t-72 320q0 165 65 325t186 294t280.5 236.5t360.5 160t414 57.5q205 0 383.5 -54.5t312 -154t210.5 -250.5t77 -333q0 -140 -47 -276t-131 -253.5t-204.5 -217.5t-263.5 -171t-313.5 -111t-348.5 -40zM981 1096
l-170 -963h115l67 377h316q118 0 214 49t147.5 127t51.5 166q0 121 -93.5 182.5t-239.5 61.5h-408zM1292 606h-284l71 393h275q118 0 181.5 -42.5t63.5 -127.5q0 -100 -87 -161.5t-220 -61.5z" />
    <glyph glyph-name="Q.ss07" horiz-adv-x="2455" 
d="M1094 -315q-216 0 -398.5 58t-310.5 160.5t-200 249.5t-72 320q0 165 65 325t186 294t280.5 236.5t360.5 160t414 57.5q205 0 383.5 -54.5t312 -154t210.5 -250.5t77 -333q0 -140 -47 -276t-131 -253.5t-204.5 -217.5t-263.5 -171t-313.5 -111t-348.5 -40zM1595 63l91 64
q-6 7 -130 154q124 81 198.5 204t74.5 256q0 183 -141.5 302.5t-360.5 119.5q-178 0 -335 -81t-249 -214.5t-92 -281.5q0 -189 141 -307.5t359 -118.5q168 0 307 65q57 -64 137 -162zM774 598q0 120 74 228t199.5 173.5t267.5 65.5q170 0 280.5 -95t110.5 -241
q0 -105 -57.5 -203.5t-155.5 -165.5q-30 35 -79 92.5t-107 125.5l-90 -62q21 -24 65 -77t76.5 -91t36.5 -41q-115 -51 -230 -51q-165 0 -278 93.5t-113 248.5z" />
    <glyph glyph-name="R.ss07" 
d="M1094 -315q-216 0 -398.5 58t-310.5 160.5t-200 249.5t-72 320q0 165 65 325t186 294t280.5 236.5t360.5 160t414 57.5q205 0 383.5 -54.5t312 -154t210.5 -250.5t77 -333q0 -140 -47 -276t-131 -253.5t-204.5 -217.5t-263.5 -171t-313.5 -111t-348.5 -40zM987 1096
l-170 -963h115q11 56 22 125.5t45 251.5h256l238 -377h129q-37 61 -116 184.5t-124 198.5q147 17 247 113t100 219q0 84 -47 141t-120 82t-167 25h-408zM1298 604h-286q11 51 28.5 146.5t31 168.5t15.5 82h273q116 0 181 -43.5t65 -128.5q0 -98 -85.5 -161.5t-222.5 -63.5z
" />
    <glyph glyph-name="S.ss07" 
d="M1094 -315q-216 0 -398.5 58t-310.5 160.5t-200 249.5t-72 320q0 165 65 325t186 294t280.5 236.5t360.5 160t414 57.5q205 0 383.5 -54.5t312 -154t210.5 -250.5t77 -333q0 -140 -47 -276t-131 -253.5t-204.5 -217.5t-263.5 -171t-313.5 -111t-348.5 -40zM1171 113
q184 0 316.5 96.5t132.5 222.5q0 40 -17 73t-40 53.5t-62 38t-68 26.5t-72 21q-17 5 -26 7l-102 31q-28 8 -37 10.5t-41 13.5t-48 21.5t-37.5 27.5t-31.5 39t-10 48q0 72 78.5 124t193.5 52q108 0 179 -48t84 -132l110 39q-15 109 -108 174t-240 65q-178 0 -300 -87.5
t-122 -207.5q0 -46 21 -84t48.5 -61.5t71.5 -44.5t71 -30t65 -19l102 -27q105 -27 136 -42q75 -36 75 -107q0 -79 -87 -137t-214 -58q-124 0 -204 59.5t-93 167.5l-111 -35q8 -63 35 -113.5t65 -83t86.5 -54t98 -30.5t102.5 -9z" />
    <glyph glyph-name="T.ss07" 
d="M1094 -315q-216 0 -398.5 58t-310.5 160.5t-200 249.5t-72 320q0 165 65 325t186 294t280.5 236.5t360.5 160t414 57.5q205 0 383.5 -54.5t312 -154t210.5 -250.5t77 -333q0 -140 -47 -276t-131 -253.5t-204.5 -217.5t-263.5 -171t-313.5 -111t-348.5 -40zM1249 999
l-155 -866h116q17 100 25 145.5t15 82t36.5 203.5t77.5 435h389l16 97h-897l-16 -97h393z" />
    <glyph glyph-name="U.ss07" 
d="M1094 -315q-216 0 -398.5 58t-310.5 160.5t-200 249.5t-72 320q0 165 65 325t186 294t280.5 236.5t360.5 160t414 57.5q205 0 383.5 -54.5t312 -154t210.5 -250.5t77 -333q0 -140 -47 -276t-131 -253.5t-204.5 -217.5t-263.5 -171t-313.5 -111t-348.5 -40zM1149 123
q105 0 191 29t145 80t96 118t51 146l109 610h-117l-106 -606q-24 -135 -112 -208t-239 -73q-152 0 -214 74t-38 207l109 606h-117l-106 -610q-31 -171 55 -272t293 -101z" />
    <glyph glyph-name="V.ss07" 
d="M1094 -315q-216 0 -398.5 58t-310.5 160.5t-200 249.5t-72 320q0 165 65 325t186 294t280.5 236.5t360.5 160t414 57.5q205 0 383.5 -54.5t312 -154t210.5 -250.5t77 -333q0 -140 -47 -276t-131 -253.5t-204.5 -217.5t-263.5 -171t-313.5 -111t-348.5 -40zM797 1096
l301 -963h116l639 963h-120q-56 -81 -88.5 -130t-64 -97.5t-140.5 -214.5t-260 -394q-18 59 -62 203t-69 225.5t-62 198.5t-69 209h-121z" />
    <glyph glyph-name="W.ss07" 
d="M1094 -315q-216 0 -398.5 58t-310.5 160.5t-200 249.5t-72 320q0 165 65 325t186 294t280.5 236.5t360.5 160t414 57.5q205 0 383.5 -54.5t312 -154t210.5 -250.5t77 -333q0 -140 -47 -276t-131 -253.5t-204.5 -217.5t-263.5 -171t-313.5 -111t-348.5 -40zM510 1096
l207 -963h127q148 249 454 807q68 -374 164 -807h127l547 963h-123q-390 -685 -465 -815q-25 128 -80.5 400.5t-83.5 414.5h-122q-49 -87 -111 -200t-96 -174t-99 -176t-151 -265q-4 21 -12 59q-62 324 -139 658q-11 44 -23 98h-121z" />
    <glyph glyph-name="X.ss07" 
d="M1094 -315q-216 0 -398.5 58t-310.5 160.5t-200 249.5t-72 320q0 165 65 325t186 294t280.5 236.5t360.5 160t414 57.5q205 0 383.5 -54.5t312 -154t210.5 -250.5t77 -333q0 -140 -47 -276t-131 -253.5t-204.5 -217.5t-263.5 -171t-313.5 -111t-348.5 -40zM684 133h133
q200 196 412 412q32 -50 121.5 -192.5t140.5 -219.5h133q-52 78 -155 243t-160 249q313 313 473 471h-131q-42 -41 -134 -129.5t-264 -257.5q-47 68 -132.5 198.5t-125.5 188.5h-133q40 -61 156.5 -232t157.5 -237q-67 -66 -176.5 -176t-206.5 -208t-109 -110z" />
    <glyph glyph-name="Y.ss07" 
d="M1094 -315q-216 0 -398.5 58t-310.5 160.5t-200 249.5t-72 320q0 165 65 325t186 294t280.5 236.5t360.5 160t414 57.5q205 0 383.5 -54.5t312 -154t210.5 -250.5t77 -333q0 -140 -47 -276t-131 -253.5t-204.5 -217.5t-263.5 -171t-313.5 -111t-348.5 -40zM1157 485
l-63 -352h116q38 210 62 352q158 180 540 611h-124q-130 -144 -457 -510q-22 40 -77.5 146t-197.5 364h-125q178 -337 326 -611z" />
    <glyph glyph-name="Z.ss07" 
d="M1094 -315q-216 0 -398.5 58t-310.5 160.5t-200 249.5t-72 320q0 165 65 325t186 294t280.5 236.5t360.5 160t414 57.5q205 0 383.5 -54.5t312 -154t210.5 -250.5t77 -333q0 -140 -47 -276t-131 -253.5t-204.5 -217.5t-263.5 -171t-313.5 -111t-348.5 -40zM741 229
l-14 -96h887l14 98h-747l876 770l15 95h-846l-15 -97q236 2 699 2z" />
    <glyph glyph-name="A.ss08" 
d="M1419 1546q205 0 383.5 -54.5t312 -154t210.5 -250.5t77 -333q0 -140 -47 -276t-131 -253.5t-204.5 -217.5t-263.5 -171t-313.5 -111t-348.5 -40q-216 0 -398.5 58t-310.5 160.5t-200 249.5t-72 320q0 165 65 325t186 294t280.5 236.5t360.5 160t414 57.5zM1108 -225
q160 0 314.5 36t284 99.5t240 153.5t187 195.5t119.5 228.5t43 249q0 217 -119.5 382.5t-320.5 251t-451 85.5q-193 0 -375 -52t-327 -144.5t-255 -213t-169.5 -265.5t-59.5 -294q0 -208 112.5 -370.5t315 -252t461.5 -89.5zM805 276l455 676h81l213 -676h-90
q-11 39 -37.5 121t-35.5 113h-340q-133 -198 -158 -234h-88zM1096 580h274q-7 23 -26.5 82t-33 103.5t-26.5 94.5q-20 -31 -86 -128.5t-102 -151.5z" />
    <glyph glyph-name="B.ss08" horiz-adv-x="2459" 
d="M1421 1546q205 0 383.5 -54.5t312 -154t210.5 -250.5t77 -333q0 -140 -47 -276t-131 -253.5t-204.5 -217.5t-263.5 -171t-313.5 -111t-348.5 -40q-216 0 -398.5 58t-310.5 160.5t-200 249.5t-72 320q0 165 65 325t186 294t280.5 236.5t360.5 160t414 57.5zM1110 -225
q160 0 314.5 36t284 99.5t240 153.5t187 195.5t119.5 228.5t43 249q0 217 -119.5 382.5t-320.5 251t-451 85.5q-193 0 -375 -52t-327 -144.5t-255 -213t-169.5 -265.5t-59.5 -294q0 -208 112.5 -370.5t315 -252t461.5 -89.5zM1559 799q0 -57 -41.5 -106t-110.5 -72
q59 -15 92 -51t33 -85q0 -83 -84 -146t-205 -63h-332l121 676h291q106 0 171 -42t65 -111zM1262 649q89 0 150 38t61 93q0 46 -49.5 74.5t-127.5 28.5h-190q-1 -4 -43 -234h199zM1442 477q0 49 -48.5 78t-125.5 29h-215q-6 -32 -17.5 -95t-25.5 -143h223q90 0 149.5 36
t59.5 95z" />
    <glyph glyph-name="C.ss08" 
d="M1094 -315q-216 0 -398.5 58t-310.5 160.5t-200 249.5t-72 320q0 165 65 325t186 294t280.5 236.5t360.5 160t414 57.5q205 0 383.5 -54.5t312 -154t210.5 -250.5t77 -333q0 -140 -47 -276t-131 -253.5t-204.5 -217.5t-263.5 -171t-313.5 -111t-348.5 -40zM1108 -225
q160 0 314.5 36t284 99.5t240 153.5t187 195.5t119.5 228.5t43 249q0 217 -119.5 382.5t-320.5 251t-451 85.5q-193 0 -375 -52t-327 -144.5t-255 -213t-169.5 -265.5t-59.5 -294q0 -208 112.5 -370.5t315 -252t461.5 -89.5zM1198 262q-160 0 -258 80.5t-98 212.5
q0 105 62 199.5t173 153.5t242 59t221 -56t105 -149l-78 -29q-22 76 -91 119t-169 43q-155 0 -265 -100t-110 -232q0 -114 83 -172.5t204 -58.5q113 0 204.5 55t137.5 150l71 -25q-59 -117 -173.5 -183.5t-260.5 -66.5z" />
    <glyph glyph-name="D.ss08" 
d="M1096 -315q-216 0 -398.5 58t-310.5 160.5t-200 249.5t-72 320q0 165 65 325t186 294t280.5 236.5t360.5 160t414 57.5q163 0 310.5 -34t270 -101.5t212.5 -162t140 -221.5t50 -273q0 -140 -47 -276t-131 -253.5t-204.5 -217.5t-263.5 -171t-313.5 -111t-348.5 -40z
M1110 -225q240 0 460 79t378.5 209.5t253 307.5t94.5 366q0 218 -119 383t-320 250.5t-452 85.5q-161 0 -315 -37t-283.5 -102t-239 -156.5t-185.5 -198t-118.5 -229t-42.5 -246.5q0 -209 112 -371t314.5 -251.5t462.5 -89.5zM1184 276h-299l121 676h288q163 0 248.5 -70
t85.5 -204q0 -165 -127.5 -283.5t-316.5 -118.5zM981 346h219q146 0 244 93t98 225q0 219 -272 219h-193q-7 -41 -31.5 -174t-64.5 -363z" />
    <glyph glyph-name="E.ss08" 
d="M1094 -315q-216 0 -398.5 58t-310.5 160.5t-200 249.5t-72 320q0 165 65 325t186 294t280.5 236.5t360.5 160t414 57.5q205 0 383.5 -54.5t312 -154t210.5 -250.5t77 -333q0 -140 -47 -276t-131 -253.5t-204.5 -217.5t-263.5 -171t-313.5 -111t-348.5 -40zM1108 -225
q160 0 314.5 36t284 99.5t240 153.5t187 195.5t119.5 228.5t43 249q0 217 -119.5 382.5t-320.5 251t-451 85.5q-193 0 -375 -52t-327 -144.5t-255 -213t-169.5 -265.5t-59.5 -294q0 -208 112.5 -370.5t315 -252t461.5 -89.5zM1464 276h-530l121 676h522l-12 -69h-439
q-7 -41 -18 -98t-23 -126h416l-10 -69h-416q-36 -193 -45 -242h447z" />
    <glyph glyph-name="F.ss08" 
d="M1094 -315q-216 0 -398.5 58t-310.5 160.5t-200 249.5t-72 320q0 165 65 325t186 294t280.5 236.5t360.5 160t414 57.5q205 0 383.5 -54.5t312 -154t210.5 -250.5t77 -333q0 -140 -47 -276t-131 -253.5t-204.5 -217.5t-263.5 -171t-313.5 -111t-348.5 -40zM1108 -225
q160 0 314.5 36t284 99.5t240 153.5t187 195.5t119.5 228.5t43 249q0 217 -119.5 382.5t-320.5 251t-451 85.5q-193 0 -375 -52t-327 -144.5t-255 -213t-169.5 -265.5t-59.5 -294q0 -208 112.5 -370.5t315 -252t461.5 -89.5zM1034 276h-84l121 676h510l-12 -69h-426
l-41 -232h405l-12 -67h-405z" />
    <glyph glyph-name="G.ss08" 
d="M1419 1546q205 0 383.5 -54.5t312 -154t210.5 -250.5t77 -333q0 -140 -47 -276t-131 -253.5t-204.5 -217.5t-263.5 -171t-313.5 -111t-348.5 -40q-216 0 -398.5 58t-310.5 160.5t-200 249.5t-72 320q0 165 65 325t186 294t280.5 236.5t360.5 160t414 57.5zM1108 -225
q160 0 314.5 36t284 99.5t240 153.5t187 195.5t119.5 228.5t43 249q0 217 -119.5 382.5t-320.5 251t-451 85.5q-193 0 -375 -52t-327 -144.5t-255 -213t-169.5 -265.5t-59.5 -294q0 -208 112.5 -370.5t315 -252t461.5 -89.5zM1309 895q-157 0 -267 -99.5t-110 -232.5
q0 -78 42 -132t103 -76.5t135 -22.5q121 0 214 60.5t122 156.5h-282l10 65h366l-59 -338h-72q3 28 12 74.5t11 59.5q-58 -72 -146.5 -110t-195.5 -38q-157 0 -253.5 80.5t-96.5 212.5q0 79 37.5 154t100.5 132t152.5 91.5t188.5 34.5q130 0 219.5 -56t104.5 -149l-78 -29
q-22 76 -90.5 119t-167.5 43z" />
    <glyph glyph-name="H.ss08" 
d="M1419 1546q205 0 383.5 -54.5t312 -154t210.5 -250.5t77 -333q0 -140 -47 -276t-131 -253.5t-204.5 -217.5t-263.5 -171t-313.5 -111t-348.5 -40q-216 0 -398.5 58t-310.5 160.5t-200 249.5t-72 320q0 165 65 325t186 294t280.5 236.5t360.5 160t414 57.5zM1108 -225
q160 0 314.5 36t284 99.5t240 153.5t187 195.5t119.5 228.5t43 249q0 217 -119.5 382.5t-320.5 251t-451 85.5q-193 0 -375 -52t-327 -144.5t-255 -213t-169.5 -265.5t-59.5 -294q0 -208 112.5 -370.5t315 -252t461.5 -89.5zM1018 653h459l53 299h84l-121 -676h-84l53 306
h-458l-54 -306h-86l121 676h86z" />
    <glyph glyph-name="I.ss08" 
d="M1094 -315q-216 0 -398.5 58t-310 160.5t-199 249.5t-71.5 320q0 165 65 325t185.5 294t279.5 236.5t360 160t414 57.5q205 0 383.5 -54.5t312 -154t210.5 -250.5t77 -333q0 -140 -46.5 -276t-130.5 -253.5t-204.5 -217.5t-263.5 -171t-314 -111t-349 -40zM1108 -225
q240 0 461 79t379.5 209.5t253 307.5t94.5 366q0 217 -119.5 382.5t-320.5 251t-451 85.5q-193 0 -375 -52t-327 -144.5t-255 -213t-169.5 -265.5t-59.5 -294q0 -208 112.5 -370.5t315 -252t461.5 -89.5zM1221 276h-86l120 676h84z" />
    <glyph glyph-name="J.ss08" 
d="M1094 -315q-216 0 -398.5 58t-310.5 160.5t-200 249.5t-72 320q0 165 65 325t186 294t280.5 236.5t360.5 160t414 57.5q205 0 383.5 -54.5t312 -154t210.5 -250.5t77 -333q0 -140 -47 -276t-131 -253.5t-204.5 -217.5t-263.5 -171t-313.5 -111t-348.5 -40zM1108 -225
q160 0 314.5 36t284 99.5t240 153.5t187 195.5t119.5 228.5t43 249q0 217 -119.5 382.5t-320.5 251t-451 85.5q-193 0 -375 -52t-327 -144.5t-255 -213t-169.5 -265.5t-59.5 -294q0 -208 112.5 -370.5t315 -252t461.5 -89.5zM1147 268q-118 0 -175 59t-42 162l4 25l82 10
l-4 -24q-12 -75 25.5 -119.5t115.5 -44.5q42 0 74.5 14.5t51 33.5t32 49t18.5 48.5t10 44.5l76 432h86l-76 -415q-4 -25 -7.5 -41t-13.5 -48t-22 -53.5t-34 -48.5t-48.5 -44t-66 -28.5t-86.5 -11.5z" />
    <glyph glyph-name="K.ss08" 
d="M1419 1546q205 0 383.5 -54.5t312 -154t210.5 -250.5t77 -333q0 -140 -47 -276t-131 -253.5t-204.5 -217.5t-263.5 -171t-313.5 -111t-348.5 -40q-216 0 -398.5 58t-310.5 160.5t-200 249.5t-72 320q0 165 65 325t186 294t280.5 236.5t360.5 160t414 57.5zM1108 -225
q160 0 314.5 36t284 99.5t240 153.5t187 195.5t119.5 228.5t43 249q0 217 -119.5 382.5t-320.5 251t-451 85.5q-193 0 -375 -52t-327 -144.5t-255 -213t-169.5 -265.5t-59.5 -294q0 -208 112.5 -370.5t315 -252t461.5 -89.5zM1524 952h106q-106 -78 -241.5 -180.5
t-149.5 -116.5q38 -52 135 -179t150 -200h-103q-10 13 -63 84t-189 238q-66 -46 -118 -88l-41 -234h-84l118 676h86q-6 -34 -28.5 -156.5t-32.5 -187.5q44 33 172 130.5t283 213.5z" />
    <glyph glyph-name="L.ss08" 
d="M1419 1546q205 0 383.5 -54.5t312 -154t210.5 -250.5t77 -333q0 -140 -47 -276t-131 -253.5t-204.5 -217.5t-263.5 -171t-313.5 -111t-348.5 -40q-216 0 -398.5 58t-310.5 160.5t-200 249.5t-72 320q0 165 65 325t186 294t280.5 236.5t360.5 160t414 57.5zM1108 -225
q160 0 314.5 36t284 99.5t240 153.5t187 195.5t119.5 228.5t43 249q0 217 -119.5 382.5t-320.5 251t-451 85.5q-193 0 -375 -52t-327 -144.5t-255 -213t-169.5 -265.5t-59.5 -294q0 -208 112.5 -370.5t315 -252t461.5 -89.5zM1118 952h84l-108 -604h415l-12 -72h-500z" />
    <glyph glyph-name="M.ss08" horiz-adv-x="2459" 
d="M1419 1546q205 0 383.5 -54.5t312 -154t210.5 -250.5t77 -333q0 -140 -47 -276t-131 -253.5t-204.5 -217.5t-263.5 -171t-313.5 -111t-348.5 -40q-216 0 -398.5 58t-310.5 160.5t-200 249.5t-72 320q0 165 65 325t186 294t280.5 236.5t360.5 160t414 57.5zM1108 -225
q160 0 314.5 36t284 99.5t240 153.5t187 195.5t119.5 228.5t43 249q0 217 -119.5 382.5t-320.5 251t-451 85.5q-193 0 -375 -52t-327 -144.5t-255 -213t-169.5 -265.5t-59.5 -294q0 -208 112.5 -370.5t315 -252t461.5 -89.5zM1196 381l171.5 227.5t184.5 246t70 97.5h94
l-121 -676h-86q13 72 44.5 242t50.5 281q-74 -101 -214 -289.5t-173 -233.5h-74q-23 61 -78 204.5t-121 318.5q-6 -35 -24 -136.5t-70 -386.5h-86l121 676h94q157 -401 217 -571z" />
    <glyph glyph-name="N.ss08" 
d="M1419 1546q205 0 383.5 -54.5t312 -154t210.5 -250.5t77 -333q0 -140 -47 -276t-131 -253.5t-204.5 -217.5t-263.5 -171t-313.5 -111t-348.5 -40q-216 0 -398.5 58t-310.5 160.5t-200 249.5t-72 320q0 165 65 325t186 294t280.5 236.5t360.5 160t414 57.5zM1108 -225
q160 0 314.5 36t284 99.5t240 153.5t187 195.5t119.5 228.5t43 249q0 217 -119.5 382.5t-320.5 251t-451 85.5q-193 0 -375 -52t-327 -144.5t-255 -213t-169.5 -265.5t-59.5 -294q0 -208 112.5 -370.5t315 -252t461.5 -89.5zM1446 399q52 261 102 553h84l-119 -676h-86
q-35 51 -110.5 159t-141 203.5t-126.5 186.5q-7 -41 -18.5 -98.5t-29 -158t-49.5 -292.5h-86l121 676h86q46 -68 125.5 -184t135 -198.5t112.5 -170.5z" />
    <glyph glyph-name="O.ss08" 
d="M1094 -315q-216 0 -398.5 58t-310.5 160.5t-200 249.5t-72 320q0 165 65 325t186 294t280.5 236.5t360.5 160t414 57.5q205 0 383.5 -54.5t312 -154t210.5 -250.5t77 -333q0 -140 -47 -276t-131 -253.5t-204.5 -217.5t-263.5 -171t-313.5 -111t-348.5 -40zM1108 -225
q160 0 314.5 36t284 99.5t240 153.5t187 195.5t119.5 228.5t43 249q0 217 -119.5 382.5t-320.5 251t-451 85.5q-193 0 -375 -52t-327 -144.5t-255 -213t-169.5 -265.5t-59.5 -294q0 -208 112.5 -370.5t315 -252t461.5 -89.5zM1178 262q-155 0 -255 84t-100 215q0 103 65 197
t176.5 151.5t238.5 57.5q154 0 254 -84.5t100 -214.5q0 -78 -39 -152.5t-103.5 -130t-153.5 -89.5t-183 -34zM1192 332q147 0 261 99.5t114 227.5q0 101 -78.5 168.5t-196.5 67.5q-149 0 -264 -98.5t-115 -227.5q0 -103 79 -170t200 -67z" />
    <glyph glyph-name="P.ss08" 
d="M1419 1546q205 0 383.5 -54.5t312 -154t210.5 -250.5t77 -333q0 -140 -47 -276t-131 -253.5t-204.5 -217.5t-263.5 -171t-313.5 -111t-348.5 -40q-216 0 -398.5 58t-310.5 160.5t-200 249.5t-72 320q0 165 65 325t186 294t280.5 236.5t360.5 160t414 57.5zM1108 -225
q160 0 314.5 36t284 99.5t240 153.5t187 195.5t119.5 228.5t43 249q0 217 -119.5 382.5t-320.5 251t-451 85.5q-193 0 -375 -52t-327 -144.5t-255 -213t-169.5 -265.5t-59.5 -294q0 -208 112.5 -370.5t315 -252t461.5 -89.5zM1055 952h288q106 0 172 -43.5t66 -130.5
q0 -97 -86.5 -168t-208.5 -71h-221l-45 -263h-84zM1079 610h199q95 0 154 43t59 111q0 59 -45.5 89t-126.5 30h-193z" />
    <glyph glyph-name="Q.ss08" 
d="M1094 -315q-216 0 -398.5 58t-310.5 160.5t-200 249.5t-72 320q0 165 65 325t186 294t280.5 236.5t360.5 160t414 57.5q205 0 383.5 -54.5t312 -154t210.5 -250.5t77 -333q0 -140 -47 -276t-131 -253.5t-204.5 -217.5t-263.5 -171t-313.5 -111t-348.5 -40zM1108 -225
q160 0 314.5 36t284 99.5t240 153.5t187 195.5t119.5 228.5t43 249q0 217 -119.5 382.5t-320.5 251t-451 85.5q-193 0 -375 -52t-327 -144.5t-255 -213t-169.5 -265.5t-59.5 -294q0 -208 112.5 -370.5t315 -252t461.5 -89.5zM1556 272l-65 -45q-18 22 -51 59.5t-45 51.5
q-109 -45 -217 -45q-154 0 -254.5 85t-100.5 214q0 104 65 198t177 151.5t240 57.5q154 0 254 -84t100 -213q0 -92 -51 -176.5t-142 -144.5q81 -97 90 -109zM1192 365q84 0 156 34q-23 29 -66 78t-59 68l65 45l133 -152q69 47 108.5 115t39.5 137q0 103 -77.5 170.5
t-197.5 67.5q-151 0 -266 -98.5t-115 -227.5q0 -103 79 -170t200 -67z" />
    <glyph glyph-name="R.ss08" 
d="M1419 1546q205 0 383.5 -54.5t312 -154t210.5 -250.5t77 -333q0 -140 -47 -276t-131 -253.5t-204.5 -217.5t-263.5 -171t-313.5 -111t-348.5 -40q-216 0 -398.5 58t-310.5 160.5t-200 249.5t-72 320q0 165 65 325t186 294t280.5 236.5t360.5 160t414 57.5zM1108 -225
q160 0 314.5 36t284 99.5t240 153.5t187 195.5t119.5 228.5t43 249q0 217 -119.5 382.5t-320.5 251t-451 85.5q-193 0 -375 -52t-327 -144.5t-255 -213t-169.5 -265.5t-59.5 -294q0 -208 112.5 -370.5t315 -252t461.5 -89.5zM1059 952h287q106 0 171.5 -43.5t65.5 -130.5
q0 -88 -70 -153.5t-172 -79.5q33 -54 99 -157t71 -112h-94l-168 265h-180q-2 -17 -47 -265h-84zM1280 608q95 0 155 44t60 110q0 60 -47 91.5t-127 31.5h-191q-8 -46 -24.5 -138.5t-24.5 -138.5h199z" />
    <glyph glyph-name="S.ss08" 
d="M1094 -315q-216 0 -398.5 58t-310.5 160.5t-200 249.5t-72 320q0 165 65 325t186 294t280.5 236.5t360.5 160t414 57.5q205 0 383.5 -54.5t312 -154t210.5 -250.5t77 -333q0 -140 -47 -276t-131 -253.5t-204.5 -217.5t-263.5 -171t-313.5 -111t-348.5 -40zM1108 -225
q160 0 314.5 36t284 99.5t240 153.5t187 195.5t119.5 228.5t43 249q0 217 -119.5 382.5t-320.5 251t-451 85.5q-193 0 -375 -52t-327 -144.5t-255 -213t-169.5 -265.5t-59.5 -294q0 -208 112.5 -370.5t315 -252t461.5 -89.5zM1190 262q-113 0 -187.5 53.5t-87.5 151.5l82 27
q9 -75 66 -118.5t145 -43.5t148.5 41t60.5 96q0 12 -2.5 22t-8.5 18t-11 14t-16 11.5l-18 9t-22 7.5t-22 6t-25 6t-24 6l-72 21q-197 46 -197 168q0 84 88 146.5t213 62.5q101 0 169.5 -46.5t78.5 -123.5l-82 -29q-10 61 -59.5 94t-124.5 33q-80 0 -135 -35t-55 -86
q0 -74 143 -112l74 -21q97 -25 133 -46q66 -40 67 -110q0 -90 -94.5 -156.5t-224.5 -66.5z" />
    <glyph glyph-name="T.ss08" 
d="M1096 -315q-216 0 -398.5 58t-310.5 160.5t-200 249.5t-72 320q0 165 65 325t186 294t280.5 236.5t360.5 160t414 57.5q163 0 310.5 -34t270 -101.5t212.5 -162t140 -221.5t50 -273q0 -140 -47 -276t-131 -253.5t-204.5 -217.5t-263.5 -171t-313.5 -111t-348.5 -40z
M1110 -225q240 0 460 79t378.5 209.5t253 307.5t94.5 366q0 218 -119 383t-320 250.5t-452 85.5q-161 0 -315 -37t-283.5 -102t-239 -156.5t-185.5 -198t-118.5 -229t-42.5 -246.5q0 -209 112 -371t314.5 -251.5t462.5 -89.5zM1221 276h-84q8 42 27.5 157t78.5 450h-274
l12 69h635l-12 -69h-275q-7 -36 -108 -607z" />
    <glyph glyph-name="U.ss08" 
d="M1094 -315q-216 0 -398.5 58t-310.5 160.5t-200 249.5t-72 320q0 165 65 325t186 294t280.5 236.5t360.5 160t414 57.5q205 0 383.5 -54.5t312 -154t210.5 -250.5t77 -333q0 -140 -47 -276t-131 -253.5t-204.5 -217.5t-263.5 -171t-313.5 -111t-348.5 -40zM1108 -225
q160 0 314.5 36t284 99.5t240 153.5t187 195.5t119.5 228.5t43 249q0 217 -119.5 382.5t-320.5 251t-451 85.5q-193 0 -375 -52t-327 -144.5t-255 -213t-169.5 -265.5t-59.5 -294q0 -208 112.5 -370.5t315 -252t461.5 -89.5zM1176 268q-147 0 -207 71.5t-39 190.5l76 428h84
l-76 -426q-17 -95 27 -145.5t149 -50.5q106 0 167.5 50.5t76.5 145.5l75 426h86l-75 -428q-21 -119 -111 -190.5t-233 -71.5z" />
    <glyph glyph-name="V.ss08" 
d="M1419 1546q205 0 383.5 -54.5t312 -154t210.5 -250.5t77 -333q0 -140 -47 -276t-131 -253.5t-204.5 -217.5t-263.5 -171t-313.5 -111t-348.5 -40q-216 0 -398.5 58t-310.5 160.5t-200 249.5t-72 320q0 165 65 325t186 294t280.5 236.5t360.5 160t414 57.5zM1108 -225
q160 0 314.5 36t284 99.5t240 153.5t187 195.5t119.5 228.5t43 249q0 217 -119.5 382.5t-320.5 251t-451 85.5q-193 0 -375 -52t-327 -144.5t-255 -213t-169.5 -265.5t-59.5 -294q0 -208 112.5 -370.5t315 -252t461.5 -89.5zM1198 369q164 260 389 583h90l-454 -676h-82
l-213 676h88q21 -61 45.5 -139.5t65 -211.5t71.5 -232z" />
    <glyph glyph-name="W.ss08" 
d="M1419 1546q205 0 383.5 -54.5t312 -154t210.5 -250.5t77 -333q0 -140 -47 -276t-131 -253.5t-204.5 -217.5t-263.5 -171t-313.5 -111t-348.5 -40q-216 0 -398.5 58t-310.5 160.5t-200 249.5t-72 320q0 165 65 325t186 294t280.5 236.5t360.5 160t414 57.5zM1108 -225
q160 0 314.5 36t284 99.5t240 153.5t187 195.5t119.5 228.5t43 249q0 217 -119.5 382.5t-320.5 251t-451 85.5q-193 0 -375 -52t-327 -144.5t-255 -213t-169.5 -265.5t-59.5 -294q0 -208 112.5 -370.5t315 -252t461.5 -89.5zM1460 385q156 277 328 567h86l-389 -676h-90
q-45 206 -115 562q-15 -28 -67 -125t-72.5 -133t-70 -121.5t-109.5 -182.5h-91l-145 676h90q115 -536 121 -567q57 99 167 294l154 273h84q65 -318 119 -567z" />
    <glyph glyph-name="X.ss08" horiz-adv-x="2455" 
d="M1419 1546q205 0 383.5 -54.5t312 -154t210.5 -250.5t77 -333q0 -140 -47 -276t-131 -253.5t-204.5 -217.5t-263.5 -171t-313.5 -111t-348.5 -40q-216 0 -398.5 58t-310.5 160.5t-200 249.5t-72 320q0 165 65 325t186 294t280.5 236.5t360.5 160t414 57.5zM1108 -225
q160 0 314.5 36t284 99.5t240 153.5t187 195.5t119.5 228.5t43 249q0 217 -119.5 382.5t-320.5 251t-451 85.5q-193 0 -375 -52t-327 -144.5t-255 -213t-169.5 -265.5t-59.5 -294q0 -208 112.5 -370.5t315 -252t461.5 -89.5zM1249 680q27 27 66 67t86 85t129 120h96
q-36 -35 -64.5 -66t-84 -85.5t-189.5 -177.5q46 -68 123 -189t102 -158h-96q-75 109 -186 289q-129 -129 -291 -289h-96q61 60 160.5 161.5t187.5 187.5q-144 207 -221 327h96q47 -68 182 -272z" />
    <glyph glyph-name="Y.ss08" 
d="M1419 1546q205 0 383.5 -54.5t312 -154t210.5 -250.5t77 -333q0 -140 -47 -276t-131 -253.5t-204.5 -217.5t-263.5 -171t-313.5 -111t-348.5 -40q-216 0 -398.5 58t-310.5 160.5t-200 249.5t-72 320q0 165 65 325t186 294t280.5 236.5t360.5 160t414 57.5zM1108 -225
q160 0 314.5 36t284 99.5t240 153.5t187 195.5t119.5 228.5t43 249q0 217 -119.5 382.5t-320.5 251t-451 85.5q-193 0 -375 -52t-327 -144.5t-255 -213t-169.5 -265.5t-59.5 -294q0 -208 112.5 -370.5t315 -252t461.5 -89.5zM1235 596q33 38 70.5 84t90.5 104t160 168h91
q-43 -48 -71.5 -82t-45.5 -55.5t-83.5 -94t-184.5 -196.5q-6 -36 -19.5 -115.5t-23.5 -132.5h-84q7 45 16 94.5t27 153.5q-15 27 -62 121.5t-168 306.5h94q120 -225 193 -356z" />
    <glyph glyph-name="Z.ss08" horiz-adv-x="2455" 
d="M1419 1546q205 0 383.5 -54.5t312 -154t210.5 -250.5t77 -333q0 -140 -47 -276t-131 -253.5t-204.5 -217.5t-263.5 -171t-313.5 -111t-348.5 -40q-216 0 -398.5 58t-310.5 160.5t-200 249.5t-72 320q0 165 65 325t186 294t280.5 236.5t360.5 160t414 57.5zM1108 -225
q160 0 314.5 36t284 99.5t240 153.5t187 195.5t119.5 228.5t43 249q0 217 -119.5 382.5t-320.5 251t-451 85.5q-193 0 -375 -52t-327 -144.5t-255 -213t-169.5 -265.5t-59.5 -294q0 -208 112.5 -370.5t315 -252t461.5 -89.5zM1008 883l12 69h600l-10 -65
q-87 -75 -191 -167.5t-424 -371.5h527l-13 -72h-630l12 68q105 95 201 180t226.5 199t184.5 162q-168 -2 -495 -2z" />
    <glyph glyph-name="i.loclTRK" horiz-adv-x="595" 
d="M451 1413q-48 0 -80.5 28t-32.5 70q0 52 46 91.5t108 39.5q47 0 79.5 -27.5t32.5 -68.5q0 -52 -46.5 -92.5t-106.5 -40.5zM274 0h-149l199 1130h149z" />
    <glyph glyph-name="a.ss01" horiz-adv-x="1646" 
d="M637 -35q-242 0 -388.5 136t-146.5 358q0 135 59 263.5t158 225.5t238.5 156t292.5 59q166 0 294 -69t185 -197h4l41 233h150l-195 -1130h-149l39 227h-7q-102 -126 -255 -194t-320 -68zM682 92q120 0 231 47.5t190.5 124.5t127 178.5t47.5 206.5q0 172 -119.5 279.5
t-308.5 107.5q-121 0 -231 -47.5t-186.5 -125.5t-121.5 -179t-45 -205q0 -173 115 -280t301 -107z" />
    <glyph glyph-name="aacute.ss01" horiz-adv-x="1646" 
d="M1450 1669l-440 -391h-136l367 391h209zM637 -35q-242 0 -388.5 136t-146.5 358q0 135 59 263.5t158 225.5t238.5 156t292.5 59q166 0 294 -69t185 -197h4l41 233h150l-195 -1130h-149l39 227h-7q-102 -126 -255 -194t-320 -68zM682 92q120 0 231 47.5t190.5 124.5
t127 178.5t47.5 206.5q0 172 -119.5 279.5t-308.5 107.5q-121 0 -231 -47.5t-186.5 -125.5t-121.5 -179t-45 -205q0 -173 115 -280t301 -107z" />
    <glyph glyph-name="abreve.ss01" horiz-adv-x="1646" 
d="M950 1276q-204 0 -303 110.5t-76 284.5h138q-19 -128 54 -205t206 -77t233 77t131 205h137q-38 -174 -178.5 -284.5t-341.5 -110.5zM637 -35q-242 0 -388.5 136t-146.5 358q0 135 59 263.5t158 225.5t238.5 156t292.5 59q166 0 294 -69t185 -197h4l41 233h150l-195 -1130
h-149l39 227h-7q-102 -126 -255 -194t-320 -68zM682 92q120 0 231 47.5t190.5 124.5t127 178.5t47.5 206.5q0 172 -119.5 279.5t-308.5 107.5q-121 0 -231 -47.5t-186.5 -125.5t-121.5 -179t-45 -205q0 -173 115 -280t301 -107z" />
    <glyph glyph-name="acircumflex.ss01" horiz-adv-x="1646" 
d="M637 1278h-145l421 358h203l293 -358h-143q-17 16 -73.5 69t-102 98.5t-89.5 96.5q-70 -56 -193.5 -143t-170.5 -121zM637 -35q-242 0 -388.5 136t-146.5 358q0 135 59 263.5t158 225.5t238.5 156t292.5 59q166 0 294 -69t185 -197h4l41 233h150l-195 -1130h-149l39 227
h-7q-102 -126 -255 -194t-320 -68zM682 92q120 0 231 47.5t190.5 124.5t127 178.5t47.5 206.5q0 172 -119.5 279.5t-308.5 107.5q-121 0 -231 -47.5t-186.5 -125.5t-121.5 -179t-45 -205q0 -173 115 -280t301 -107z" />
    <glyph glyph-name="adieresis.ss01" horiz-adv-x="1646" 
d="M756 1370q-45 0 -76 26.5t-31 65.5q0 47 42 84t97 37q45 0 75 -25.5t30 -62.5q0 -48 -41 -86.5t-96 -38.5zM1184 1370q-47 0 -77 25.5t-30 64.5q0 50 42 86.5t98 36.5q43 0 73.5 -26t30.5 -64q0 -47 -42 -85t-95 -38zM637 -35q-242 0 -388.5 136t-146.5 358
q0 135 59 263.5t158 225.5t238.5 156t292.5 59q166 0 294 -69t185 -197h4l41 233h150l-195 -1130h-149l39 227h-7q-102 -126 -255 -194t-320 -68zM682 92q120 0 231 47.5t190.5 124.5t127 178.5t47.5 206.5q0 172 -119.5 279.5t-308.5 107.5q-121 0 -231 -47.5
t-186.5 -125.5t-121.5 -179t-45 -205q0 -173 115 -280t301 -107z" />
    <glyph glyph-name="agrave.ss01" horiz-adv-x="1646" 
d="M1026 1278h-135l-303 391h211zM637 -35q-242 0 -388.5 136t-146.5 358q0 135 59 263.5t158 225.5t238.5 156t292.5 59q166 0 294 -69t185 -197h4l41 233h150l-195 -1130h-149l39 227h-7q-102 -126 -255 -194t-320 -68zM682 92q120 0 231 47.5t190.5 124.5t127 178.5
t47.5 206.5q0 172 -119.5 279.5t-308.5 107.5q-121 0 -231 -47.5t-186.5 -125.5t-121.5 -179t-45 -205q0 -173 115 -280t301 -107z" />
    <glyph glyph-name="amacron.ss01" horiz-adv-x="1646" 
d="M1391 1413h-826l19 115h825zM637 -35q-242 0 -388.5 136t-146.5 358q0 135 59 263.5t158 225.5t238.5 156t292.5 59q166 0 294 -69t185 -197h4l41 233h150l-195 -1130h-149l39 227h-7q-102 -126 -255 -194t-320 -68zM682 92q120 0 231 47.5t190.5 124.5t127 178.5
t47.5 206.5q0 172 -119.5 279.5t-308.5 107.5q-121 0 -231 -47.5t-186.5 -125.5t-121.5 -179t-45 -205q0 -173 115 -280t301 -107z" />
    <glyph glyph-name="aogonek.ss01" horiz-adv-x="1646" 
d="M1063 -231q0 -61 52.5 -96t133.5 -35q52 0 109 14l-17 -101q-63 -14 -120 -14q-129 0 -206 54t-77 145q0 156 240 264h2l39 227h-7q-102 -126 -255 -194t-320 -68q-242 0 -388.5 136t-146.5 358q0 135 59 263.5t158 225.5t238.5 156t292.5 59q166 0 294 -69t185 -197h4
l41 233h150l-195 -1130h-20q-66 -24 -119 -56t-90 -78.5t-37 -96.5zM682 92q120 0 231 47.5t190.5 124.5t127 178.5t47.5 206.5q0 172 -119.5 279.5t-308.5 107.5q-121 0 -231 -47.5t-186.5 -125.5t-121.5 -179t-45 -205q0 -173 115 -280t301 -107z" />
    <glyph glyph-name="aring.ss01" horiz-adv-x="1646" 
d="M944 1247q-103 0 -167 53t-64 136q0 101 91 176.5t218 75.5q104 0 168.5 -52.5t64.5 -136.5q0 -101 -91 -176.5t-220 -75.5zM961 1343q76 0 129 43t53 103q0 46 -39 73t-98 27q-77 0 -130 -41.5t-53 -101.5q0 -48 39 -75.5t99 -27.5zM637 -35q-242 0 -388.5 136
t-146.5 358q0 135 59 263.5t158 225.5t238.5 156t292.5 59q166 0 294 -69t185 -197h4l41 233h150l-195 -1130h-149l39 227h-7q-102 -126 -255 -194t-320 -68zM682 92q120 0 231 47.5t190.5 124.5t127 178.5t47.5 206.5q0 172 -119.5 279.5t-308.5 107.5q-121 0 -231 -47.5
t-186.5 -125.5t-121.5 -179t-45 -205q0 -173 115 -280t301 -107z" />
    <glyph glyph-name="atilde.ss01" horiz-adv-x="1646" 
d="M1143 1329q-41 0 -76.5 12.5t-51.5 23t-52 38.5l-41 33q-23 19 -33 26t-32.5 16t-47.5 9q-57 0 -99.5 -40t-54.5 -101h-116q22 110 103.5 179.5t188.5 69.5q53 0 89.5 -17t76.5 -50l45 -37q67 -53 125 -53q56 0 96 40t52 103h117q-20 -116 -97 -184t-192 -68zM637 -35
q-242 0 -388.5 136t-146.5 358q0 135 59 263.5t158 225.5t238.5 156t292.5 59q166 0 294 -69t185 -197h4l41 233h150l-195 -1130h-149l39 227h-7q-102 -126 -255 -194t-320 -68zM682 92q120 0 231 47.5t190.5 124.5t127 178.5t47.5 206.5q0 172 -119.5 279.5t-308.5 107.5
q-121 0 -231 -47.5t-186.5 -125.5t-121.5 -179t-45 -205q0 -173 115 -280t301 -107z" />
    <glyph glyph-name="b.ss01" horiz-adv-x="1384" 
d="M690 -35q-142 0 -244 51.5t-143 145.5h-6l-31 -162h-141l289 1638h149l-176 -999h4q77 82 196 125t251 43q202 0 325 -99t123 -262q0 -94 -45.5 -181.5t-123.5 -153.5t-190 -106t-237 -40zM698 80q177 0 306 107t129 249q0 115 -87.5 184.5t-234.5 69.5
q-184 0 -313 -101.5t-129 -238.5q0 -117 92 -193.5t237 -76.5z" />
    <glyph glyph-name="d.ss01" horiz-adv-x="1640" 
d="M639 -35q-243 0 -390 135.5t-147 358.5q0 136 59 264.5t158.5 225.5t239 155.5t291.5 58.5q164 0 288.5 -67t182.5 -193h6l131 735h152l-289 -1638h-143l41 227h-7q-102 -127 -254.5 -194.5t-318.5 -67.5zM680 92q119 0 230.5 46.5t191.5 123t128 178t48 207.5
q0 177 -121.5 283t-306.5 106q-120 0 -229.5 -47t-186.5 -124.5t-122.5 -178.5t-45.5 -207q0 -173 114 -280t300 -107z" />
    <glyph glyph-name="dcaron.ss01" horiz-adv-x="1650" 
d="M1677 1180h-100l195 254q-33 9 -51.5 33t-18.5 55q0 53 45 92t106 39q46 0 77.5 -28.5t31.5 -70.5q0 -39 -50 -104t-235 -270zM641 -35q-241 0 -388 135.5t-147 358.5q0 136 58.5 264.5t158 225.5t239 155.5t292.5 58.5q164 0 288 -67t183 -193h6l131 735h152l-289 -1638
h-143l39 227h-4q-102 -127 -255 -194.5t-321 -67.5zM684 92q119 0 230.5 46.5t191.5 123t128 178t48 207.5q0 177 -121.5 283t-306.5 106q-120 0 -229.5 -47t-186.5 -124.5t-122.5 -178.5t-45.5 -207q0 -174 113.5 -280.5t300.5 -106.5z" />
    <glyph glyph-name="dcroat.ss01" horiz-adv-x="1640" 
d="M1575 1444h315l-16 -115h-320l-233 -1329h-143l41 227h-7q-102 -127 -254.5 -194.5t-318.5 -67.5q-243 0 -390 135.5t-147 358.5q0 136 59 264.5t158.5 225.5t239 155.5t291.5 58.5q164 0 288.5 -67t182.5 -193h6l76 426h-346l18 115h348l35 194h152zM680 92
q119 0 230.5 46.5t191.5 123t128 178t48 207.5q0 177 -121.5 283t-306.5 106q-120 0 -229.5 -47t-186.5 -124.5t-122.5 -178.5t-45.5 -207q0 -173 114 -280t300 -107z" />
    <glyph glyph-name="g.ss01" horiz-adv-x="1640" 
d="M1239 -451h-1216l18 125h1067l106 588h-4q-100 -125 -248 -192.5t-317 -67.5q-243 0 -391 134.5t-148 350.5q0 105 37.5 206t106.5 185t160.5 148.5t205.5 100.5t234 36q169 0 294 -69t183 -197h4l41 233h146zM684 129q157 0 295.5 76t219.5 198.5t81 255.5
q0 166 -121 271.5t-311 105.5q-117 0 -224.5 -44.5t-184.5 -117.5t-123 -169t-46 -197q0 -167 115.5 -273t298.5 -106z" />
    <glyph glyph-name="gbreve.ss01" horiz-adv-x="1640" 
d="M950 1276q-204 0 -303 110.5t-76 284.5h138q-19 -128 54 -205t206 -77t233 77t131 205h137q-38 -174 -178.5 -284.5t-341.5 -110.5zM1239 -451h-1216l18 125h1067l106 588h-4q-100 -125 -248 -192.5t-317 -67.5q-243 0 -391 134.5t-148 350.5q0 105 37.5 206t106.5 185
t160.5 148.5t205.5 100.5t234 36q169 0 294 -69t183 -197h4l41 233h146zM684 129q157 0 295.5 76t219.5 198.5t81 255.5q0 166 -121 271.5t-311 105.5q-117 0 -224.5 -44.5t-184.5 -117.5t-123 -169t-46 -197q0 -167 115.5 -273t298.5 -106z" />
    <glyph glyph-name="uni0123.ss01" horiz-adv-x="1640" 
d="M809 1348q0 39 47 99.5t227 262.5h99l-189 -246q32 -9 51 -32t19 -54q0 -50 -44.5 -86.5t-103.5 -36.5q-45 0 -75.5 26t-30.5 67zM1239 -451h-1216l18 125h1067l106 588h-4q-100 -125 -248 -192.5t-317 -67.5q-243 0 -391 134.5t-148 350.5q0 105 37.5 206t106.5 185
t160.5 148.5t205.5 100.5t234 36q169 0 294 -69t183 -197h4l41 233h146zM684 129q157 0 295.5 76t219.5 198.5t81 255.5q0 166 -121 271.5t-311 105.5q-117 0 -224.5 -44.5t-184.5 -117.5t-123 -169t-46 -197q0 -167 115.5 -273t298.5 -106z" />
    <glyph glyph-name="gdotaccent.ss01" horiz-adv-x="1640" 
d="M975 1417q-48 0 -80.5 28.5t-32.5 70.5q0 52 46 91.5t108 39.5q47 0 79.5 -28t32.5 -69q0 -52 -46.5 -92.5t-106.5 -40.5zM1239 -451h-1216l18 125h1067l106 588h-4q-100 -125 -248 -192.5t-317 -67.5q-243 0 -391 134.5t-148 350.5q0 105 37.5 206t106.5 185
t160.5 148.5t205.5 100.5t234 36q169 0 294 -69t183 -197h4l41 233h146zM684 129q157 0 295.5 76t219.5 198.5t81 255.5q0 166 -121 271.5t-311 105.5q-117 0 -224.5 -44.5t-184.5 -117.5t-123 -169t-46 -197q0 -167 115.5 -273t298.5 -106z" />
    <glyph glyph-name="i.ss01" horiz-adv-x="815" 
d="M573 1413q-50 0 -81 28t-31 70q0 52 45 91.5t104 39.5q48 0 80.5 -27.5t32.5 -68.5q0 -52 -45.5 -92.5t-104.5 -40.5zM694 0h-444l180 1004h-334l19 126h483l-176 -1005h293z" />
    <glyph glyph-name="dotlessi.ss01" horiz-adv-x="815" 
d="M694 0h-444l180 1004h-334l19 126h483l-176 -1005h293z" />
    <glyph glyph-name="iacute.ss01" horiz-adv-x="815" 
d="M983 1669l-440 -391h-135l366 391h209zM694 0h-444l180 1004h-334l19 126h483l-176 -1005h293z" />
    <glyph glyph-name="icircumflex.ss01" horiz-adv-x="815" 
d="M170 1278h-145l421 358h203l293 -358h-143q-15 14 -73 68.5t-102.5 99.5t-88.5 96q-70 -56 -193 -142t-172 -122zM694 0h-444l180 1004h-334l19 126h483l-176 -1005h293z" />
    <glyph glyph-name="idieresis.ss01" horiz-adv-x="815" 
d="M289 1370q-45 0 -76 26.5t-31 65.5q0 47 42.5 84t97.5 37q45 0 74.5 -25.5t29.5 -62.5q0 -48 -41 -86.5t-96 -38.5zM717 1370q-47 0 -77 25.5t-30 64.5q0 50 42 86.5t98 36.5q43 0 73.5 -26t30.5 -64q0 -47 -42 -85t-95 -38zM694 0h-444l180 1004h-334l19 126h483
l-176 -1005h293z" />
    <glyph glyph-name="i.loclTRK.ss01" horiz-adv-x="815" 
d="M555 1417q-48 0 -80.5 27.5t-32.5 68.5q0 54 46 94t108 40q47 0 80 -28.5t33 -68.5q0 -54 -46.5 -93.5t-107.5 -39.5zM694 0h-444l180 1004h-334l19 126h483l-176 -1005h293z" />
    <glyph glyph-name="igrave.ss01" horiz-adv-x="815" 
d="M557 1278h-135l-303 391h211zM694 0h-444l180 1004h-334l19 126h483l-176 -1005h293z" />
    <glyph glyph-name="imacron.ss01" horiz-adv-x="815" 
d="M924 1413h-826l19 115h825zM694 0h-444l180 1004h-334l19 126h483l-176 -1005h293z" />
    <glyph glyph-name="iogonek.ss01" horiz-adv-x="815" 
d="M510 1417q-48 0 -80.5 28.5t-32.5 70.5q0 52 46 91.5t108 39.5q47 0 80 -28t33 -69q0 -52 -47 -92.5t-107 -40.5zM694 0h-315q-66 -24 -119 -56t-90 -78.5t-37 -96.5q0 -61 52.5 -96t133.5 -35q52 0 109 14l-16 -101q-63 -14 -121 -14q-129 0 -206 54t-77 145
q0 156 240 264h2l180 1004h-334l19 126h483l-176 -1005h293z" />
    <glyph glyph-name="j.ss01" horiz-adv-x="733" 
d="M584 1413q-51 0 -83 27.5t-32 70.5q0 52 46 91.5t106 39.5q47 0 78.5 -27.5t31.5 -68.5q0 -51 -44.5 -92t-102.5 -41zM332 -451h-654l19 125h502l239 1330h-344l23 126h493z" />
    <glyph glyph-name="l.ss01" horiz-adv-x="888" 
d="M791 0h-658l289 1638h149l-268 -1513h508z" />
    <glyph glyph-name="lacute.ss01" horiz-adv-x="888" 
d="M1141 2085l-463 -324h-139l372 324h230zM791 0h-658l289 1638h149l-268 -1513h508z" />
    <glyph glyph-name="lcaron.ss01" horiz-adv-x="888" 
d="M791 0h-658l289 1638h149l-268 -1513h508zM844 1165h-101l195 254q-33 9 -52.5 33t-19.5 55q0 52 46 91.5t108 39.5q46 0 76 -27.5t30 -70.5q0 -41 -49.5 -107t-232.5 -268z" />
    <glyph glyph-name="uni013C.ss01" horiz-adv-x="888" 
d="M791 0h-658l289 1638h149l-268 -1513h508zM207 -520h-78l150 194q-86 17 -86 86q0 48 42.5 85.5t100.5 37.5q45 0 75.5 -25.5t30.5 -64.5q0 -42 -39.5 -93.5t-167.5 -189.5q-18 -20 -28 -30z" />
    <glyph glyph-name="lslash.ss01" horiz-adv-x="888" 
d="M442 911l-139 -786h508l-20 -125h-658l146 821l-275 -151l23 125l272 151l123 692h149l-106 -602l260 144l-18 -123z" />
    <glyph glyph-name="m.ss01" horiz-adv-x="2488" 
d="M274 0h-149l199 1130h149l-88 -493l838 493h198l-88 -493l838 493h196l-198 -1130h-152l181 995h-15l-876 -510l-86 -485h-150l180 995h-14l-877 -510z" />
    <glyph glyph-name="n.ss01" horiz-adv-x="1566" 
d="M383 614l883 516h180l-199 -1130h-149l178 985h-14l-902 -504l-86 -481h-149l90 516l109 614h149z" />
    <glyph glyph-name="nacute.ss01" horiz-adv-x="1566" 
d="M1200 1669h209l-440 -391h-135zM383 614l883 516h180l-199 -1130h-149l178 985h-14l-902 -504l-86 -481h-149l90 516l109 614h149z" />
    <glyph glyph-name="ncaron.ss01" horiz-adv-x="1566" 
d="M1432 1645l-420 -363h-205l-291 363h143q30 -30 89.5 -86.5t98 -95.5t79.5 -85q65 51 185 137.5t177 129.5h144zM383 614l883 516h180l-199 -1130h-149l178 985h-14l-902 -504l-86 -481h-149l90 516l109 614h149z" />
    <glyph glyph-name="uni0146.ss01" horiz-adv-x="1566" 
d="M383 614l883 516h180l-199 -1130h-149l178 985h-14l-902 -504l-86 -481h-149l90 516l109 614h149zM696 -117q45 0 76 -25.5t31 -64.5q0 -41 -40 -93t-161 -183q-8 -8 -12 -12.5t-10.5 -11.5t-12.5 -13h-78l150 194q-86 17 -86 86q0 48 42.5 85.5t100.5 37.5z" />
    <glyph glyph-name="eng.ss01" horiz-adv-x="1568" 
d="M786 -483q-150 0 -243 55l18 129q106 -61 219 -61q37 0 69.5 6t58.5 19t47.5 27t39 36t30 40t23.5 46.5t17.5 46.5t13 48t9.5 45t8 42l180 989h-14l-902 -504l-86 -481h-149l199 1130h149l-90 -505l883 505h180l-201 -1144q-6 -38 -11 -61t-15.5 -65t-22 -70.5
t-31.5 -67.5t-43 -65.5t-57 -55t-73.5 -45.5t-92 -28t-113.5 -11z" />
    <glyph glyph-name="ntilde.ss01" horiz-adv-x="1566" 
d="M768 1487q-57 0 -99.5 -40t-54.5 -101h-116q22 110 104 179.5t189 69.5q53 0 89 -17t76 -50l45 -37q67 -53 125 -53q56 0 96 40t52 103h117q-20 -116 -97 -184t-192 -68q-41 0 -76.5 12.5t-51.5 23t-52 38.5l-41 33q-23 19 -33 26t-32.5 16t-47.5 9zM383 614l883 516h180
l-199 -1130h-149l178 985h-14l-902 -504l-86 -481h-149l90 516l109 614h149z" />
    <glyph glyph-name="p.ss01" horiz-adv-x="1640" 
d="M195 -451h-150l279 1581h145l-43 -237h6q106 133 260 201.5t318 68.5q238 0 383 -135t145 -356q0 -136 -58.5 -265t-157 -226.5t-237.5 -156.5t-292 -59q-167 0 -294 69.5t-184 194.5zM793 92q119 0 228 47t186 123.5t123 177.5t46 207q0 175 -113 282t-298 107
q-121 0 -232.5 -46.5t-191.5 -123t-128 -178t-48 -207.5q0 -173 120 -281t308 -108z" />
    </font>
</defs>
</svg>
