<?xml version="1.0" standalone="no"?>
<!DOCTYPE svg PUBLIC "-//W3C//DTD SVG 1.1//EN" "http://www.w3.org/Graphics/SVG/1.1/DTD/svg11.dtd" >
<svg xmlns="http://www.w3.org/2000/svg" xmlns:xlink="http://www.w3.org/1999/xlink" version="1.1">
<metadata>
Created by FontForge 20170731 at Mon Mar 15 14:21:10 2021
 By Aleksey,,,
Copyright (c) 2020 by Matthieu Salvaggio x Blaze Type. All rights reserved.
</metadata>
<defs>
<font id="Area-SemiboldExtended" horiz-adv-x="2457" >
  <font-face 
    font-family="Area Semibold Extended"
    font-weight="600"
    font-stretch="normal"
    units-per-em="2048"
    panose-1="0 0 7 0 0 0 0 0 0 0"
    ascent="1638"
    descent="-410"
    x-height="1133"
    cap-height="1597"
    bbox="-1999 -557 3064 2169"
    underline-thickness="102"
    underline-position="-307"
    unicode-range="U+0020-25CA"
  />
<missing-glyph horiz-adv-x="1732" 
d="M1499 0h-1266v1597h1266v-1597zM391 1462v-1198l879 1198h-879zM1339 1325l-864 -1186h864v1186z" />
    <glyph glyph-name=".notdef" horiz-adv-x="1732" 
d="M1499 0h-1266v1597h1266v-1597zM391 1462v-1198l879 1198h-879zM1339 1325l-864 -1186h864v1186z" />
    <glyph glyph-name=".null" horiz-adv-x="0" 
 />
    <glyph glyph-name="nonmarkingreturn" horiz-adv-x="682" 
 />
    <glyph glyph-name="space" unicode=" " horiz-adv-x="636" 
 />
    <glyph glyph-name="exclam" unicode="!" horiz-adv-x="645" 
d="M379 420h-111l-57 1050v127h223v-127zM326 -14q-63 0 -106.5 40t-43.5 97q0 53 43.5 91t106.5 38q58 0 100.5 -38t42.5 -91q0 -57 -41.5 -97t-101.5 -40z" />
    <glyph glyph-name="quotedbl" unicode="&#x22;" horiz-adv-x="880" 
d="M360 1126h-190v471h190v-471zM711 1126h-191v471h191v-471z" />
    <glyph glyph-name="numbersign" unicode="#" horiz-adv-x="1736" 
d="M1640 1094l-34 -150h-299l-82 -350h293l-33 -150h-297l-105 -444h-174l105 444h-461l-104 -444h-175l105 444h-285l33 150h289l82 350h-281l35 150h283l118 503h174l-118 -503h460l119 503h174l-119 -503h297zM590 594h461l82 350h-461z" />
    <glyph glyph-name="dollar" unicode="$" horiz-adv-x="1433" 
d="M1290 489q0 -164 -136.5 -273t-375.5 -116v-182h-116v186q-193 15 -332 107.5t-199 257.5l174 55q100 -222 357 -254v449l-19 4q-44 10 -82.5 21.5t-96 32.5t-102.5 50t-87 67.5t-65.5 92t-23.5 115.5q0 82 40 151.5t107.5 115t152 72.5t176.5 32v165h116v-168
q173 -19 305 -105.5t170 -205.5l-163 -72q-39 83 -120 143t-192 77v-441l41 -12q43 -11 68.5 -17.5t69.5 -20t72 -24.5t67 -29.5t63.5 -36.5t51.5 -44t42.5 -53.5t26 -63.5t10.5 -76zM383 1116q0 -36 17 -67t42 -52.5t64.5 -41.5t74 -32.5t81.5 -25.5v414
q-123 -6 -201 -58.5t-78 -136.5zM778 692v-428q79 4 147 26.5t116.5 69.5t48.5 111q0 40 -18 73t-44.5 54.5t-71 40t-83 29.5t-95.5 24z" />
    <glyph glyph-name="percent" unicode="%" horiz-adv-x="2076" 
d="M424 768q-150 0 -242 105.5t-92 275.5t92 276.5t242 106.5q151 0 243.5 -107.5t92.5 -275.5q0 -167 -92.5 -274t-243.5 -107zM453 0h-183l1366 1468h174zM424 901q77 0 122.5 64.5t45.5 183.5t-45.5 183.5t-122.5 64.5t-122.5 -64.5t-45.5 -183.5t45.5 -183.5
t122.5 -64.5zM1653 -29q-150 0 -242 105.5t-92 275.5t92 276.5t242 106.5q151 0 243.5 -107.5t92.5 -275.5q0 -167 -92.5 -274t-243.5 -107zM1653 104q77 0 122.5 64.5t45.5 183.5t-45.5 183.5t-122.5 64.5t-122.5 -64.5t-45.5 -183.5t45.5 -183.5t122.5 -64.5z" />
    <glyph glyph-name="ampersand" unicode="&#x26;" horiz-adv-x="1703" 
d="M674 -35q-151 0 -277 47.5t-204 141t-78 215.5q0 64 25 124t63 105.5t97.5 91.5t112 77.5t122.5 68.5q-59 53 -99 92.5t-87.5 98t-72 119t-24.5 120.5q0 154 137 259t340 105q106 0 195.5 -31.5t148.5 -83.5t92 -118.5t33 -136.5q0 -240 -387 -445l393 -330
q72 122 127 310l180 -37q-77 -249 -174 -402l406 -354h-246l-264 217q-223 -254 -559 -254zM698 922q77 44 122 74t88.5 69.5t63 83t19.5 96.5q0 103 -75.5 162t-192.5 59q-113 0 -188.5 -54t-75.5 -146q0 -45 18.5 -89.5t55.5 -90t73.5 -81t91.5 -83.5zM684 133
q252 0 424 207l-455 381q-64 -33 -104 -55.5t-89 -56t-76.5 -64t-47 -71.5t-19.5 -85q0 -116 106 -186t261 -70z" />
    <glyph glyph-name="quotesingle" unicode="'" horiz-adv-x="530" 
d="M360 1126h-190v471h190v-471z" />
    <glyph glyph-name="parenleft" unicode="(" horiz-adv-x="765" 
d="M735 -307h-198q-201 198 -307.5 445t-106.5 507q0 262 106 507.5t308 444.5h198q-196 -196 -301.5 -444t-105.5 -508q0 -258 105 -506.5t302 -445.5z" />
    <glyph glyph-name="parenright" unicode=")" horiz-adv-x="765" 
d="M229 -307h-200q197 197 302 446t105 506q0 258 -105 506.5t-302 445.5h200q203 -200 308.5 -446.5t105.5 -505.5q0 -258 -106 -505.5t-308 -446.5z" />
    <glyph glyph-name="asterisk" unicode="*" horiz-adv-x="997" 
d="M557 1024h-119l2 199l-211 -101l-59 90l217 99l-217 98l59 92l211 -100l-2 196h119l-2 -196l213 100l59 -90l-217 -100l217 -99l-59 -90l-213 101z" />
    <glyph glyph-name="plus" unicode="+" horiz-adv-x="1224" 
d="M698 698h361v-149h-361v-313h-170v313h-362v149h362v316h170v-316z" />
    <glyph glyph-name="comma" unicode="," horiz-adv-x="557" 
d="M195 -266h-119l157 264q-46 15 -71 48.5t-25 76.5q0 53 44.5 91t105.5 38q60 0 103.5 -37.5t43.5 -91.5q0 -44 -40 -106.5t-199 -282.5z" />
    <glyph glyph-name="hyphen" unicode="-" horiz-adv-x="978" 
d="M834 547h-689v153h689v-153z" />
    <glyph glyph-name="period" unicode="." horiz-adv-x="585" 
d="M295 -14q-62 0 -106 40t-44 97q0 53 44.5 91t105.5 38q60 0 102.5 -38t42.5 -91q0 -57 -42.5 -97t-102.5 -40z" />
    <glyph glyph-name="slash" unicode="/" horiz-adv-x="1032" 
d="M272 -135h-184l668 1773h186z" />
    <glyph glyph-name="zero" unicode="0" horiz-adv-x="1724" 
d="M862 -35q-212 0 -376.5 105t-254.5 294t-90 431q0 244 90 434t254.5 295.5t376.5 105.5q211 0 375 -105.5t254 -295.5t90 -434q0 -242 -90 -431t-254 -294t-375 -105zM864 143q226 0 362 176.5t136 475.5q0 301 -136.5 479t-361.5 178q-227 0 -366.5 -178t-139.5 -479
q0 -299 139.5 -475.5t366.5 -176.5z" />
    <glyph glyph-name="one" unicode="1" horiz-adv-x="960" 
d="M702 0h-202v1243q-70 -78 -185.5 -131t-251.5 -70v191q195 32 320 134.5t125 229.5h194v-1597z" />
    <glyph glyph-name="two" unicode="2" horiz-adv-x="1529" 
d="M1399 0h-1252v18q23 225 135 366q85 106 274 225q64 41 235 141q47 27 72.5 42.5t72 46.5t74.5 54t63.5 58t55 67t33.5 72t14 81q0 126 -111 206.5t-293 80.5q-211 0 -338 -112t-127 -295l-188 28q0 160 82 285t232 195.5t343 70.5q174 0 312 -57t217 -162.5t79 -241.5
q0 -82 -29.5 -155t-85 -133t-117.5 -107.5t-144 -95.5q-59 -35 -142.5 -80.5t-134.5 -73t-112.5 -68t-99 -77t-71.5 -88.5t-51 -113h1002v-178z" />
    <glyph glyph-name="three" unicode="3" horiz-adv-x="1572" 
d="M782 -35q-245 0 -432 100t-248 265l174 84q50 -114 185 -194.5t321 -80.5q193 0 316 83.5t123 219.5q0 132 -121 214.5t-350 82.5h-193v156h201q193 0 300 79.5t107 201.5q0 129 -114.5 205.5t-294.5 76.5q-170 0 -288 -78.5t-142 -218.5l-185 37q32 191 208 311.5
t427 120.5q161 0 296.5 -50t219.5 -147.5t84 -224.5q0 -134 -89 -236.5t-236 -137.5v-3q168 -26 275.5 -125.5t107.5 -254.5q0 -95 -44 -182t-125 -155t-206.5 -108.5t-276.5 -40.5z" />
    <glyph glyph-name="four" unicode="4" horiz-adv-x="1607" 
d="M1235 0h-201v379h-971v172l975 1046h197v-1052h281v-166h-281v-379zM1034 1339l-762 -794h762v794z" />
    <glyph glyph-name="five" unicode="5" horiz-adv-x="1566" 
d="M766 -35q-157 0 -297.5 44t-245.5 129t-153 198l168 94q43 -95 127.5 -163t187 -100t215.5 -32q131 0 239 46t172 132.5t64 196.5q0 160 -129.5 261t-325.5 101q-144 0 -257.5 -56t-176.5 -148l-166 53l226 876h929v-167h-786l-149 -547h4q56 62 170 102.5t249 40.5
q94 0 183.5 -20t170 -61.5t140.5 -100.5t95.5 -142.5t35.5 -181.5q0 -161 -92.5 -289t-249.5 -197t-348 -69z" />
    <glyph glyph-name="six" unicode="6" horiz-adv-x="1638" 
d="M848 -35q-158 0 -289 50.5t-224 145t-144.5 236t-51.5 316.5q0 200 66.5 371t183 291t280 187.5t353.5 67.5q263 0 442 -127l-123 -137q-141 92 -340 92q-282 0 -466 -189.5t-187 -492.5h6q56 117 205 189.5t328 72.5q167 0 311 -65t234 -188t90 -277
q0 -153 -87.5 -277.5t-242 -195t-344.5 -70.5zM850 135q122 0 227 45.5t169.5 131.5t64.5 194t-63.5 194.5t-168 132.5t-227.5 46q-196 0 -329.5 -110t-133.5 -267t136 -262t325 -105z" />
    <glyph glyph-name="seven" unicode="7" horiz-adv-x="1441" 
d="M573 0h-211q0 151 59 343t161.5 387.5t254 388t324.5 333.5h-1120v168h1352v-174q-181 -137 -337.5 -325.5t-260.5 -383.5t-163 -388t-59 -349z" />
    <glyph glyph-name="eight" unicode="8" horiz-adv-x="1611" 
d="M807 -35q-194 0 -349 62.5t-239 169t-84 235.5q0 148 102.5 257.5t268.5 148.5v4q-142 49 -219.5 142t-77.5 212q0 122 77 221t214.5 156t308.5 57q167 0 303 -55t213.5 -153.5t77.5 -221.5q0 -117 -77 -213.5t-220 -144.5v-4q166 -39 268.5 -148.5t102.5 -257.5
q0 -131 -85 -237.5t-239 -168t-346 -61.5zM807 911q168 0 280.5 80.5t112.5 204.5q0 119 -112 195.5t-281 76.5q-170 0 -282.5 -76.5t-112.5 -195.5q0 -123 113 -204t282 -81zM805 131q126 0 229.5 39t166.5 114t63 173q0 142 -119.5 227.5t-337.5 85.5q-217 0 -338 -85.5
t-121 -227.5q0 -147 130.5 -236.5t326.5 -89.5z" />
    <glyph glyph-name="nine" unicode="9" horiz-adv-x="1665" 
d="M748 -35q-165 0 -323 57.5t-275 170.5l124 129q194 -191 457 -191q144 0 257 55t182.5 150.5t105 218t35.5 264.5h-4q-51 -129 -201 -209t-338 -80q-169 0 -314 67.5t-234 193.5t-89 282q0 116 51 218.5t140.5 177t218.5 118t278 43.5q112 0 212 -25t191 -82t156 -143
t103.5 -216t38.5 -292q0 -147 -30 -280.5t-93 -248t-153 -198.5t-217 -132t-279 -48zM797 688q198 0 332.5 118t134.5 288q0 112 -64 197t-166.5 128t-224.5 43q-127 0 -232 -46.5t-169 -135.5t-64 -205q0 -168 130 -277.5t323 -109.5z" />
    <glyph glyph-name="colon" unicode=":" horiz-adv-x="636" 
d="M322 893q-63 0 -106.5 40t-43.5 97q0 53 43.5 91t106.5 38q60 0 101.5 -38t41.5 -91q0 -57 -41.5 -97t-101.5 -40zM322 -14q-63 0 -106.5 40t-43.5 97q0 54 43.5 91.5t106.5 37.5q60 0 101.5 -37.5t41.5 -91.5q0 -57 -41.5 -97t-101.5 -40z" />
    <glyph glyph-name="semicolon" unicode=";" horiz-adv-x="710" 
d="M367 893q-62 0 -106 40t-44 97q0 53 44.5 91t105.5 38q60 0 103.5 -38t43.5 -91q0 -57 -43.5 -97t-103.5 -40zM272 -272h-120l157 270q-42 15 -67 49t-25 76q0 53 43.5 91t106.5 38q60 0 103.5 -38t43.5 -91q0 -43 -40 -106.5t-202 -288.5z" />
    <glyph glyph-name="less" unicode="&#x3c;" horiz-adv-x="1236" 
d="M1044 432v-145l-876 239v187l876 237v-143l-704 -189z" />
    <glyph glyph-name="equal" unicode="=" horiz-adv-x="1269" 
d="M1083 754h-901v149h901v-149zM1083 328h-901v149h901v-149z" />
    <glyph glyph-name="greater" unicode="&#x3e;" horiz-adv-x="1236" 
d="M1067 526l-874 -239v145l704 186l-704 189v143l874 -237v-187z" />
    <glyph glyph-name="question" unicode="?" horiz-adv-x="1333" 
d="M684 401h-199q-14 57 -14 117q0 57 18.5 103.5t60.5 88.5t88 74.5t122 77.5q126 78 194 154t68 172q0 122 -107.5 196t-259.5 74q-103 0 -189.5 -37t-141 -110.5t-54.5 -169.5q0 -16 4 -56l-180 31q-6 30 -6 53q0 140 82 246.5t212.5 160.5t285.5 54q150 0 277 -50
t207.5 -149t80.5 -227q0 -60 -20 -116t-50 -99t-77 -86.5t-89.5 -74t-99.5 -66.5q-61 -38 -92 -59.5t-67.5 -55.5t-52 -69.5t-15.5 -79.5q0 -48 14 -97zM604 -14q-61 0 -105 39.5t-44 95.5q0 54 44 92.5t105 38.5q59 0 102.5 -38.5t43.5 -94.5q0 -54 -43 -93.5t-103 -39.5z
" />
    <glyph glyph-name="at" unicode="@" horiz-adv-x="2357" 
d="M1106 -195q-233 0 -423 64.5t-313.5 175t-190 256.5t-66.5 311q0 197 94.5 382.5t255 325.5t389 225t481.5 85q202 0 377 -55.5t301 -155t198 -244.5t72 -317q0 -175 -71 -320t-197.5 -229t-281.5 -84q-137 0 -206.5 65t-58.5 163q-86 -109 -209.5 -162t-250.5 -53
q-186 0 -298 109t-112 274q0 110 51.5 215.5t135 183.5t195 126t226.5 48q124 0 219 -53.5t136 -145.5l34 172h148l-121 -579q-51 -246 129 -246q152 0 260.5 142t108.5 356q0 304 -213.5 483.5t-573.5 179.5q-219 0 -415.5 -71.5t-335.5 -192.5t-220 -284.5t-81 -342.5
q0 -307 225 -492.5t620 -185.5q184 0 352.5 42.5t297.5 125.5l79 -102q-152 -100 -350 -147.5t-397 -47.5zM1059 377q120 0 221 62t156 157.5t55 198.5q0 117 -73.5 187.5t-207.5 70.5q-182 0 -308 -126.5t-126 -289.5q0 -118 74 -189t209 -71z" />
    <glyph glyph-name="A" unicode="A" horiz-adv-x="1824" 
d="M244 0h-213l770 1597h225l770 -1597h-215q-25 50 -77 153.5t-97.5 194t-85.5 172.5h-823zM584 700h651q-191 387 -320 674h-6q-72 -157 -325 -674z" />
    <glyph glyph-name="B" unicode="B" horiz-adv-x="1751" 
d="M1024 0h-774v1597h704q282 0 444.5 -120t162.5 -295q0 -79 -34.5 -150.5t-113.5 -131t-192 -83.5v-4q197 -30 300 -134t103 -249q0 -131 -82 -230t-217 -149.5t-301 -50.5zM455 889h460q197 0 315 70t118 192q0 85 -60.5 148t-161 93.5t-227.5 30.5h-444v-534zM455 174
h512q200 0 321 71t121 197q0 129 -128 204t-327 75h-499v-547z" />
    <glyph glyph-name="C" unicode="C" horiz-adv-x="2062" 
d="M1098 -35q-210 0 -390.5 61t-309 169.5t-201 263.5t-72.5 338q0 187 76.5 345t207 264t305.5 165t371 59q186 0 353.5 -53t300 -162.5t194.5 -261.5l-184 -70q-86 171 -264 270t-400 99q-151 0 -285.5 -45.5t-236.5 -129t-161.5 -209.5t-59.5 -277q0 -130 44 -238.5
t118 -183t173.5 -126.5t209.5 -76t227 -24q275 0 456 126t253 331l186 -61q-98 -268 -331 -421t-580 -153z" />
    <glyph glyph-name="D" unicode="D" horiz-adv-x="1972" 
d="M956 0h-706v1597h684q187 0 339.5 -40.5t257 -112t176 -171.5t104 -216t32.5 -248q0 -178 -61 -327t-173 -256t-280 -166.5t-373 -59.5zM455 174h503q308 0 490 161t182 460q0 160 -54 281.5t-153 196.5t-233.5 112.5t-302.5 37.5h-432v-1249z" />
    <glyph glyph-name="E" unicode="E" horiz-adv-x="1613" 
d="M1487 0h-1237v1597h1212v-174h-1007v-514h958v-182h-958v-549h1032v-178z" />
    <glyph glyph-name="F" unicode="F" horiz-adv-x="1525" 
d="M1440 1597v-180h-985v-530h936v-180h-936v-707h-205v1597h1190z" />
    <glyph glyph-name="G" unicode="G" horiz-adv-x="2156" 
d="M1075 -35q-205 0 -381.5 62t-301.5 170.5t-196 262.5t-71 333q0 187 75.5 345t205.5 265t305.5 167t373.5 60q187 0 355.5 -54t300.5 -163.5t192 -259.5l-184 -70q-86 172 -263.5 270.5t-400.5 98.5q-150 0 -284.5 -45.5t-236.5 -128.5t-162 -209t-60 -278
q0 -131 44 -240.5t118.5 -183.5t174 -125.5t207.5 -75t222 -23.5q282 0 468.5 137.5t211.5 352.5h-643v160h846v-793h-164l-6 328h-13q-100 -173 -286.5 -268t-446.5 -95z" />
    <glyph glyph-name="H" unicode="H" horiz-adv-x="1986" 
d="M1534 891v706h203v-1597h-203v711h-1079v-711h-205v1597h205v-706h1079z" />
    <glyph glyph-name="I" unicode="I" horiz-adv-x="704" 
d="M455 0h-205v1597h205v-1597z" />
    <glyph glyph-name="J" unicode="J" horiz-adv-x="1456" 
d="M674 -35q-95 0 -182 18t-166.5 58.5t-137.5 100.5t-92.5 150t-34.5 200v47l193 24v-41q0 -81 24 -146.5t64 -108.5t94 -72t111.5 -41.5t118.5 -12.5q72 0 129.5 17t94.5 42.5t63.5 66t40 75t20.5 83t8.5 78t1.5 70.5v1024h203v-981q0 -46 -0.5 -73.5t-5.5 -84.5t-14 -96
t-28.5 -95t-46 -94t-69.5 -80.5t-96.5 -68t-128.5 -42.5t-164 -17z" />
    <glyph glyph-name="K" unicode="K" horiz-adv-x="1658" 
d="M455 0h-205v1597h205v-821h6q341 318 921 821h244q-358 -321 -776 -698q692 -763 819 -899h-248q-93 98 -247 265t-469 497q-96 -92 -250 -227v-535z" />
    <glyph glyph-name="L" unicode="L" horiz-adv-x="1449" 
d="M455 1597v-1419h960v-178h-1165v1597h205z" />
    <glyph glyph-name="M" unicode="M" horiz-adv-x="2478" 
d="M457 0h-207v1597h250q481 -845 737 -1321h4q115 207 351.5 629t385.5 692h250v-1597h-207v1233h-8q-239 -453 -686 -1233h-178q-475 836 -684 1233h-8v-1233z" />
    <glyph glyph-name="N" unicode="N" horiz-adv-x="2023" 
d="M455 0h-205v1597h219q804 -931 1096 -1282h6v1282h203v-1597h-220q-106 123 -494.5 567.5t-600.5 696.5h-4v-1264z" />
    <glyph glyph-name="O" unicode="O" horiz-adv-x="2174" 
d="M1087 -35q-195 0 -372 62.5t-307.5 171t-207.5 264.5t-77 334q0 177 76 333t206 265t307.5 172t374.5 63q200 0 378.5 -64t306.5 -174.5t203 -265.5t75 -329q0 -175 -75.5 -330t-204.5 -264.5t-307 -173.5t-376 -64zM1090 143q199 0 368.5 84t271 235t101.5 335
q0 138 -59.5 260.5t-159.5 208.5t-236.5 136t-285.5 50q-150 0 -287 -49.5t-239.5 -134.5t-163 -208t-60.5 -263q0 -186 103.5 -337t274.5 -234t372 -83z" />
    <glyph glyph-name="P" unicode="P" horiz-adv-x="1644" 
d="M250 1597h682q99 0 189 -16.5t172 -53.5t142.5 -92t96 -137.5t35.5 -183.5q0 -105 -36.5 -191.5t-96.5 -142.5t-139.5 -94.5t-161.5 -55t-166 -16.5h-512v-614h-205v1597zM455 795h454q203 0 324 78.5t121 234.5q0 155 -127.5 235t-329.5 80h-442v-628z" />
    <glyph glyph-name="Q" unicode="Q" horiz-adv-x="2187" 
d="M1991 -86l-144 -115q-45 45 -137 134.5t-137 134.5q-217 -103 -479 -103q-197 0 -375.5 62.5t-310 171t-208.5 264.5t-77 334t76.5 333.5t207 264.5t309.5 172t380 63t380 -64t307.5 -174.5t203.5 -265.5t75 -329q0 -189 -87.5 -352t-243.5 -277q28 -28 72.5 -72
t88.5 -87t99 -95zM1098 143q175 0 340 76q-77 70 -340 316l145 112q345 -328 354 -336q118 91 185 215.5t67 270.5q0 139 -59.5 261t-160.5 208t-239.5 136t-291.5 50q-209 0 -383 -83.5t-276.5 -234.5t-102.5 -337q0 -140 60.5 -262.5t163.5 -208t243 -134.5t295 -49z" />
    <glyph glyph-name="R" unicode="R" horiz-adv-x="1705" 
d="M455 0h-205v1597h682q96 0 185 -16.5t172 -54t144 -92.5t97.5 -137.5t36.5 -184.5q0 -206 -135 -331.5t-351 -149.5v-2q84 -105 254 -314.5t254 -314.5h-227l-504 618h-403v-618zM455 788h454q202 0 323.5 80t121.5 236q0 103 -62 177t-163.5 109t-231.5 35h-442v-637z
" />
    <glyph glyph-name="S" unicode="S" horiz-adv-x="1589" 
d="M819 -35q-116 0 -225 27t-208 81t-176.5 146.5t-117.5 214.5l191 64q58 -178 202 -268.5t334 -90.5q81 0 157 16.5t140.5 49.5t104 88.5t39.5 126.5q0 43 -13 78t-46 62t-57 44t-81 36t-79.5 25.5t-88.5 22.5q-21 5 -31 8l-178 47q-48 12 -86.5 23t-95.5 32.5
t-100.5 44.5t-91 59t-78.5 76.5t-51.5 95.5t-20.5 118q0 104 53 189t141.5 138.5t199.5 82t232 28.5q230 0 404 -103t235 -276l-184 -71q-52 128 -175.5 202t-295.5 74q-168 0 -283.5 -69.5t-115.5 -180.5q0 -44 19.5 -82.5t53 -67t72.5 -51.5t84.5 -40t82 -28t71.5 -21
l12 -3l190 -51q180 -48 253 -78q223 -93 260 -264q8 -37 8 -76q0 -140 -90 -250.5t-240 -169.5t-330 -59z" />
    <glyph glyph-name="T" unicode="T" horiz-adv-x="1562" 
d="M883 0h-203v1423h-643v174h1489v-174h-643v-1423z" />
    <glyph glyph-name="U" unicode="U" horiz-adv-x="1845" 
d="M918 -35q-173 0 -306 47t-216.5 132t-126 198t-42.5 250v1005h205v-991q0 -230 128 -347.5t362 -117.5q236 0 363.5 117t127.5 348v991h205v-1005q0 -100 -23 -189.5t-76 -171t-132 -139.5t-199 -92.5t-270 -34.5z" />
    <glyph glyph-name="V" unicode="V" horiz-adv-x="1824" 
d="M1026 0h-227l-768 1597h215q84 -157 198 -391t257 -536.5t212 -444.5h7q89 182 323.5 677.5t335.5 694.5h217z" />
    <glyph glyph-name="W" unicode="W" horiz-adv-x="2801" 
d="M897 0h-248l-608 1597h223q308 -781 512 -1339h4q84 223 253 669.5t253 669.5h230q85 -223 256 -669.5t256 -669.5h6q306 838 503 1339h224l-607 -1597h-249q-231 573 -502 1311h-4q-299 -816 -502 -1311z" />
    <glyph glyph-name="X" unicode="X" horiz-adv-x="1611" 
d="M266 0h-239q99 121 317 393.5t338 417.5v4q-124 149 -355 433t-284 349h236q113 -132 297 -354t229 -276h6q311 381 524 630h236q-493 -605 -641 -782v-4q128 -154 351.5 -435.5t299.5 -375.5h-238q-48 59 -237.5 294t-296.5 365h-6q-254 -315 -537 -659z" />
    <glyph glyph-name="Y" unicode="Y" horiz-adv-x="1697" 
d="M950 0h-202v575q-64 92 -232.5 337.5t-286 414t-190.5 270.5h221q99 -139 586 -837h4q60 85 120 172t162.5 232t307.5 433h217l-707 -1022v-575z" />
    <glyph glyph-name="Z" unicode="Z" horiz-adv-x="1626" 
d="M1546 0h-1468v182l1196 1239v4q-385 -2 -1153 -2v174h1405v-180q-159 -164 -568.5 -584.5t-631.5 -650.5v-4h1220v-178z" />
    <glyph glyph-name="bracketleft" unicode="[" horiz-adv-x="837" 
d="M772 -362h-539v1959h539v-161h-348v-1624h348v-174z" />
    <glyph glyph-name="backslash" unicode="\" horiz-adv-x="1032" 
d="M944 -135h-186l-668 1773h184z" />
    <glyph glyph-name="bracketright" unicode="]" horiz-adv-x="837" 
d="M604 -362h-541v174h351v1624h-351v161h541v-1959z" />
    <glyph glyph-name="asciicircum" unicode="^" horiz-adv-x="1064" 
d="M299 1034h-166l307 563h185l307 -563h-166l-229 436h-7z" />
    <glyph glyph-name="underscore" unicode="_" horiz-adv-x="1253" 
d="M1200 -231h-1145v147h1145v-147z" />
    <glyph glyph-name="a" unicode="a" horiz-adv-x="1415" 
d="M547 -35q-119 0 -215.5 32t-158.5 103t-62 170q0 64 26.5 116t69 87.5t107 64t130 46t148.5 32.5q30 5 74 12t72.5 11.5t65.5 11t61 13t51.5 15.5t44.5 20.5t32 25.5t22 33t7 41q0 88 -91.5 152.5t-234.5 64.5q-129 0 -223 -58.5t-131 -162.5l-184 57q38 107 127 179.5
t195 103t225 30.5q81 0 155 -14t140 -45t114.5 -75t76.5 -108t28 -141v-428q0 -130 10 -204t33 -150h-191q-33 90 -33 211h-6q-67 -112 -190.5 -179t-294.5 -67zM582 109q97 0 182.5 32.5t140 82.5t86 108.5t31.5 113.5v138q-61 -31 -123.5 -49t-189.5 -39
q-40 -7 -59.5 -10.5t-62 -12.5t-67 -17.5t-61 -21.5t-57.5 -28t-43 -34.5t-32 -44.5t-10 -53q0 -76 73.5 -120.5t191.5 -44.5z" />
    <glyph glyph-name="b" unicode="b" horiz-adv-x="1644" 
d="M905 -35q-162 0 -294 65t-208 177h-4v-207h-188v1638h192v-723q82 124 216 187t296 63q268 0 443.5 -170t175.5 -428q0 -178 -85 -316.5t-228 -212t-316 -73.5zM872 133q199 0 329 122t130 310q0 187 -131 310.5t-328 123.5q-129 0 -237 -55t-172 -155t-64 -224
q0 -126 64.5 -225.5t172 -153t236.5 -53.5z" />
    <glyph glyph-name="c" unicode="c" horiz-adv-x="1495" 
d="M791 -35q-196 0 -350.5 74t-242 211t-87.5 315q0 268 189.5 434t487.5 166q199 0 358.5 -82.5t235.5 -246.5l-184 -68q-49 111 -159 171t-257 60q-212 0 -340.5 -123t-128.5 -311q0 -193 135.5 -312.5t348.5 -119.5q166 0 285 72.5t178 195.5l178 -61
q-77 -179 -249.5 -277t-397.5 -98z" />
    <glyph glyph-name="d" unicode="d" horiz-adv-x="1644" 
d="M739 -35q-275 0 -452.5 169t-177.5 431q0 178 84.5 316t227.5 211t318 73q160 0 290 -61.5t206 -175.5h6v710h191v-1284q0 -129 10.5 -205t32.5 -149h-191q-33 103 -33 205h-6q-78 -117 -212 -178.5t-294 -61.5zM770 133q198 0 335.5 122.5t137.5 311.5q0 125 -64 224.5
t-171.5 153.5t-237.5 54q-198 0 -328.5 -123.5t-130.5 -310.5t131 -309.5t328 -122.5z" />
    <glyph glyph-name="e" unicode="e" horiz-adv-x="1355" 
d="M700 -35q-129 0 -240.5 43.5t-191.5 121t-126 189.5t-46 244q0 264 167.5 433t428.5 169q78 0 153 -17t150 -59t130.5 -105.5t90.5 -165.5t35 -230v-72h-966q7 -181 123 -286t294 -105q139 0 241.5 72t152.5 188l170 -63q-68 -165 -218.5 -261t-347.5 -96zM293 684h768
q-2 68 -25 124.5t-59.5 93.5t-84.5 62.5t-99 36.5t-105 11q-157 0 -263 -92.5t-132 -235.5z" />
    <glyph glyph-name="f" unicode="f" horiz-adv-x="870" 
d="M467 0h-193v975h-204v158h204v141q0 95 17 164t58 124t116.5 83t185.5 28q148 0 248 -47v-160q-107 52 -215 52q-45 0 -80 -8t-58 -18.5t-38.5 -32t-23.5 -38.5t-12 -48.5t-4.5 -50.5t-0.5 -56v-133h383v-158h-383v-975z" />
    <glyph glyph-name="g" unicode="g" horiz-adv-x="1642" 
d="M795 -483q-478 0 -619 329l176 58q102 -234 443 -234q92 0 168.5 23t140 73.5t99.5 141.5t36 215v115h-6q-76 -116 -207 -176t-289 -60q-138 0 -256.5 46t-200 124.5t-128 185.5t-46.5 228q0 167 83.5 300t227 206t318.5 73q161 0 294.5 -63t209.5 -178h4v209h187v-1000
q0 -136 -32 -241.5t-88 -175.5t-137 -115t-174 -64.5t-204 -19.5zM768 170q196 0 334.5 121.5t138.5 298.5q0 176 -137.5 292.5t-335.5 116.5q-197 0 -328 -118.5t-131 -292.5q0 -175 132.5 -296.5t326.5 -121.5z" />
    <glyph glyph-name="h" unicode="h" horiz-adv-x="1558" 
d="M403 0h-192v1638h192v-708h7q75 120 194.5 177.5t267.5 57.5q75 0 144.5 -14.5t134 -49t111.5 -85.5t75.5 -129.5t28.5 -175.5v-711h-190v633q0 177 -100 271.5t-257 94.5q-190 0 -303 -110.5t-113 -270.5v-618z" />
    <glyph glyph-name="i" unicode="i" horiz-adv-x="614" 
d="M307 1380q-63 0 -106 39.5t-43 96.5q0 55 43.5 92t105.5 37t105 -37.5t43 -91.5q0 -57 -43 -96.5t-105 -39.5zM403 0h-192v1133h192v-1133z" />
    <glyph glyph-name="j" unicode="j" horiz-adv-x="612" 
d="M305 1380q-62 0 -104.5 40t-42.5 96q0 54 42 91.5t105 37.5t105.5 -37.5t42.5 -91.5q0 -57 -42.5 -96.5t-105.5 -39.5zM10 -483q-148 0 -260 53v160q114 -54 223 -54q38 0 70 7.5t55 18.5t41 30t29.5 36t19.5 43.5t12 45t6 48t2.5 45t0.5 42.5v1141h194v-1147
q0 -53 -1 -83t-8.5 -86t-21.5 -90.5t-42.5 -79t-69.5 -69.5t-105 -43t-145 -18z" />
    <glyph glyph-name="k" unicode="k" horiz-adv-x="1304" 
d="M731 682l594 -682h-223l-504 563l-195 -172v-391h-192v1638h192v-1020h7q482 416 598 515h233z" />
    <glyph glyph-name="l" unicode="l" horiz-adv-x="614" 
d="M403 0h-192v1638h192v-1638z" />
    <glyph glyph-name="m" unicode="m" horiz-adv-x="2471" 
d="M403 0h-192v1133h188v-203h4q73 118 196.5 176.5t266.5 58.5q69 0 134.5 -14t127 -43t109 -81t72.5 -120h4q172 258 483 258q72 0 139 -15t130.5 -49.5t110.5 -86t75 -129.5t28 -174v-711h-190v633q0 178 -97 272t-245 94q-181 0 -293.5 -111t-112.5 -270v-618h-190v633
q0 178 -97 272t-245 94q-181 0 -293.5 -111t-112.5 -270v-618z" />
    <glyph glyph-name="n" unicode="n" horiz-adv-x="1558" 
d="M403 0h-192v1133h188v-203h4q75 120 198 177.5t273 57.5q75 0 144 -14.5t133.5 -49t111.5 -85.5t75 -129.5t28 -175.5v-711h-190v633q0 177 -100 271.5t-257 94.5q-190 0 -303 -110.5t-113 -270.5v-618z" />
    <glyph glyph-name="o" unicode="o" horiz-adv-x="1585" 
d="M795 -35q-198 0 -354 75.5t-243 212.5t-87 312q0 174 87 311t243 213t354 76q197 0 352.5 -76t242.5 -213t87 -311q0 -175 -87 -312t-242.5 -212.5t-352.5 -75.5zM795 133q212 0 344.5 120.5t132.5 311.5t-132.5 312.5t-344.5 121.5t-347 -121.5t-135 -312.5
q0 -190 135 -311t347 -121z" />
    <glyph glyph-name="p" unicode="p" horiz-adv-x="1644" 
d="M403 -451h-192v1584h188v-218h4q88 126 221 188t289 62q269 0 445 -169.5t176 -426.5q0 -179 -85 -318t-228 -212.5t-316 -73.5q-163 0 -294.5 65t-207.5 177v-658zM872 133q199 0 329 123t130 309q0 188 -131 311t-328 123q-129 0 -236.5 -54.5t-172 -154.5t-64.5 -225
t64.5 -224.5t172 -153.5t236.5 -54z" />
    <glyph glyph-name="q" unicode="q" horiz-adv-x="1644" 
d="M1432 -451h-191v666q-81 -120 -215.5 -185t-294.5 -65q-177 0 -319.5 78t-222.5 215.5t-80 308.5q0 177 84.5 314.5t227 210.5t316.5 73q161 0 294.5 -63t209.5 -178h4v209h187v-1584zM770 133q198 0 335.5 122.5t137.5 311.5q0 125 -64 224.5t-171.5 153.5t-237.5 54
q-198 0 -328.5 -123.5t-130.5 -310.5t131 -309.5t328 -122.5z" />
    <glyph glyph-name="r" unicode="r" horiz-adv-x="1017" 
d="M403 0h-192v1133h188v-218h11q52 111 168 180.5t260 69.5q92 0 153 -20v-197q-77 25 -168 25q-86 0 -157.5 -27.5t-119 -72.5t-80.5 -104.5t-48 -122t-15 -126.5v-520z" />
    <glyph glyph-name="s" unicode="s" horiz-adv-x="1226" 
d="M643 -35q-204 0 -357.5 87t-207.5 231l178 55q50 -103 157.5 -162t229.5 -59q44 0 90.5 9t92.5 28t75 56t29 85q0 25 -9 46.5t-22 36.5t-37 29.5t-43 23t-52.5 18.5t-52.5 15t-55 13l-133 31q-385 93 -385 330q0 78 40 142t106 103.5t147 60.5t166 21q176 0 308 -78
t179 -200l-182 -58q-35 80 -119 134.5t-202 54.5q-107 0 -177.5 -46t-70.5 -120q0 -36 20.5 -66.5t48 -50t74 -38t79 -27.5t81.5 -21l125 -28q155 -37 230 -80q140 -82 141 -226q0 -152 -137.5 -251t-354.5 -99z" />
    <glyph glyph-name="t" unicode="t" horiz-adv-x="958" 
d="M649 -35q-57 0 -104 9.5t-81 23.5t-61 38t-44 45.5t-29 54t-18 55t-9 57t-3.5 51.5t-0.5 47v627h-270v160h270v333h190v-333h410v-160h-410v-570q0 -31 0.5 -47.5t2.5 -47t7 -47.5t14 -41.5t23.5 -38.5t34 -28t48 -20t63.5 -6q109 0 217 57v-166q-100 -53 -250 -53z" />
    <glyph glyph-name="u" unicode="u" horiz-adv-x="1536" 
d="M680 -35q-77 0 -146 15.5t-132 50.5t-109 86.5t-73 129.5t-27 175v711h190v-644q0 -93 29 -164t79.5 -111.5t110.5 -60.5t129 -20q93 0 170.5 32t126.5 85t75.5 118t26.5 134v631h191v-779q0 -125 10 -200t35 -154h-192q-36 115 -33 190h-4q-72 -113 -189.5 -169
t-267.5 -56z" />
    <glyph glyph-name="v" unicode="v" horiz-adv-x="1345" 
d="M780 0h-215l-530 1133h209q67 -139 137 -288.5t158 -340.5t135 -291h6q251 553 426 920h205z" />
    <glyph glyph-name="w" unicode="w" horiz-adv-x="2242" 
d="M735 0h-209l-487 1133h213l385 -895h8l385 895h184l396 -895h6l375 895h213l-486 -1133h-213q-25 56 -84 188.5t-89.5 203t-88 207t-119.5 290.5h-4q-157 -382 -385 -889z" />
    <glyph glyph-name="x" unicode="x" horiz-adv-x="1277" 
d="M252 0h-219q55 65 152.5 180t178 211t150.5 180v4q-48 56 -176.5 207.5t-302.5 350.5h221q57 -65 120.5 -138.5t141 -163.5t119.5 -139h6q157 185 381 441h219q-137 -161 -481 -558v-4q322 -380 481 -571h-215q-72 85 -385 449h-6q-271 -315 -385 -449z" />
    <glyph glyph-name="y" unicode="y" horiz-adv-x="1351" 
d="M565 -451h-186l203 426l-549 1158h211q146 -296 434 -922h4q260 569 430 922h207z" />
    <glyph glyph-name="z" unicode="z" horiz-adv-x="1216" 
d="M1153 0h-1079v143l766 826h-725v164h983v-144l-768 -825h823v-164z" />
    <glyph glyph-name="braceleft" unicode="{" horiz-adv-x="944" 
d="M885 -305h-105q-119 0 -208 19.5t-148.5 55t-96 90.5t-52 121t-15.5 152v172q0 42 -2.5 74.5t-5.5 57.5t-10.5 43.5t-13.5 31.5t-19 21t-21.5 12.5t-27.5 6.5t-30 2.5t-35 0.5h-3v184q77 0 103 13q49 24 60 130q5 44 5 107v170q0 46 3 81.5t15 83.5t32.5 83.5t59.5 73
t92.5 61.5t135 39.5t182.5 15.5h105v-161h-90q-175 0 -260.5 -62t-85.5 -207v-176q0 -124 -19 -196t-51.5 -102t-91.5 -46v-4q59 -15 91.5 -44.5t51.5 -101t19 -196.5v-176q0 -47 8 -84t30.5 -72.5t60 -59t100 -38t147.5 -14.5h90v-162z" />
    <glyph glyph-name="bar" unicode="|" horiz-adv-x="643" 
d="M410 -451h-177v2089h177v-2089z" />
    <glyph glyph-name="braceright" unicode="}" horiz-adv-x="944" 
d="M160 -305h-103v162h93q173 0 257.5 61t84.5 207v176q0 121 17 190.5t51 102.5t97 49v4q-93 24 -129 96.5t-36 247.5v176q0 64 -15 110t-52 83.5t-105.5 56.5t-169.5 19h-93v161h103q119 0 209 -19.5t149 -55t96 -90.5t52.5 -121t15.5 -152v-170q0 -42 2.5 -74.5
t5.5 -57.5t10.5 -43.5t13.5 -31.5t19 -21t21.5 -12.5t27.5 -6.5t30 -2.5t35 -0.5h3v-184q-77 0 -103 -13q-49 -24 -60 -130q-5 -44 -5 -107v-172q0 -50 -4 -90.5t-17.5 -87.5t-35.5 -82.5t-62 -70.5t-93.5 -57.5t-132.5 -36t-177 -13.5z" />
    <glyph glyph-name="asciitilde" unicode="~" horiz-adv-x="1302" 
d="M856 543q-64 0 -121.5 21t-92.5 45.5t-80.5 45.5t-88.5 21q-62 0 -93.5 -37.5t-31.5 -93.5h-166q0 90 42 156t106.5 97t140.5 31q61 0 116 -20.5t89.5 -45t80.5 -45t91 -20.5q57 0 83.5 36t26.5 93h166q0 -140 -74.5 -212t-193.5 -72z" />
    <glyph glyph-name="uni00A0" unicode="&#xa0;" horiz-adv-x="636" 
 />
    <glyph glyph-name="exclamdown" unicode="&#xa1;" horiz-adv-x="606" 
d="M305 899q-61 0 -105 38.5t-44 92.5q0 57 43.5 96t105.5 39t104 -39t42 -96q0 -54 -43.5 -92.5t-102.5 -38.5zM414 -444h-221v125l57 1046h110l54 -1046v-125z" />
    <glyph glyph-name="cent" unicode="&#xa2;" horiz-adv-x="1368" 
d="M1104 590l141 -51q-58 -133 -185.5 -211.5t-293.5 -87.5v-240h-117v242q-216 21 -352.5 154t-136.5 339q0 207 136.5 341t352.5 155v235h117v-233q145 -8 262.5 -75t173.5 -189l-145 -54q-33 78 -111 125t-180 56v-719q120 9 207 65.5t131 147.5zM328 735q0 -143 89 -238
t232 -116v713q-146 -20 -233.5 -117.5t-87.5 -241.5z" />
    <glyph glyph-name="sterling" unicode="&#xa3;" horiz-adv-x="1486" 
d="M436 168h948v-168h-1259v168q209 63 328.5 172.5t119.5 228.5q0 74 -47 150h-381v117h291q-97 112 -127 156q-84 122 -84 241q0 121 71.5 212t191 138t266.5 47q69 0 135.5 -10t141 -38t135.5 -72t112 -118t76 -169l-183 -70q-102 307 -415 307q-135 0 -226.5 -60.5
t-91.5 -170.5q0 -53 25.5 -108.5t56 -93t82.5 -97t78 -94.5h516v-117h-446q26 -67 26 -131q0 -119 -89 -230t-251 -190z" />
    <glyph glyph-name="currency" unicode="&#xa4;" horiz-adv-x="1628" 
d="M1282 825q0 -146 -92 -252l315 -313l-125 -100l-321 317q-105 -51 -242 -51q-138 0 -246 51l-321 -317l-127 100l317 315q-92 106 -92 250t90 248l-315 316l127 102l319 -315q106 53 246 53q142 0 248 -53l317 315l125 -102l-313 -314q90 -104 90 -250zM520 825
q0 -115 82 -187.5t215 -72.5q132 0 212.5 72.5t80.5 187.5q0 117 -80.5 189.5t-214.5 72.5q-133 0 -214 -73t-81 -189z" />
    <glyph glyph-name="yen" unicode="&#xa5;" horiz-adv-x="1748" 
d="M977 0h-205v262h-444v139h444v168h-444v140h379l-631 888h217q117 -162 577 -815h7q42 58 176 249.5t405 565.5h215l-633 -888h385v-140h-448v-168h448v-139h-448v-262z" />
    <glyph glyph-name="brokenbar" unicode="&#xa6;" horiz-adv-x="643" 
d="M410 836h-177v802h177v-802zM410 -451h-177v795h177v-795z" />
    <glyph glyph-name="section" unicode="&#xa7;" horiz-adv-x="1316" 
d="M674 -301q-207 0 -363.5 93.5t-208.5 242.5l172 49q49 -106 162.5 -174t237.5 -68q46 0 92 9.5t89 29t70 56t27 83.5q0 33 -15.5 60.5t-35.5 44.5t-62 34.5t-70 26.5t-85 25l-131 37q-36 11 -61.5 19.5t-67.5 26t-72 34t-64.5 42.5t-56.5 54t-36.5 65.5t-14.5 79.5
q0 95 69.5 166t182.5 99v4q-106 43 -168.5 112.5t-62.5 165.5q0 81 40.5 146t107.5 104t149 59.5t170 20.5q111 0 204 -29.5t168.5 -98.5t110.5 -173l-182 -53q-39 107 -113 159t-199 52q-120 0 -193 -46.5t-73 -121.5q0 -31 12 -57.5t38 -47t50 -35.5t64.5 -29.5
t63.5 -21.5t65 -18l147 -41q37 -11 62.5 -19t64 -23t65.5 -30t57 -38t48.5 -48t30.5 -59.5t12 -73.5q0 -98 -68.5 -175.5t-182.5 -109.5v-4q103 -36 167 -102.5t64 -165.5q0 -143 -133.5 -240.5t-343.5 -97.5zM647 387l60 -16q37 3 72.5 10t72.5 22t65 35.5t46 53t18 71.5
q0 34 -15.5 61t-32.5 42.5t-58 32t-62 22.5t-75 20q-10 3 -15 4l-90 23q-106 28 -187 -29t-81 -143q0 -36 19.5 -67.5t46.5 -52.5t68.5 -39.5t74 -28.5t73.5 -21z" />
    <glyph glyph-name="copyright" unicode="&#xa9;" horiz-adv-x="2312" 
d="M1155 -35q-220 0 -408.5 65.5t-317 178.5t-201 265.5t-72.5 324.5q0 171 72.5 323.5t201 264.5t317 177.5t408.5 65.5t408.5 -65.5t317 -177.5t201 -264.5t72.5 -323.5q0 -172 -72.5 -324.5t-201 -265.5t-317 -178.5t-408.5 -65.5zM1155 90q191 0 353 56t272.5 152
t172.5 225.5t62 275.5q0 145 -62 274.5t-172.5 225.5t-272.5 152t-353 56q-190 0 -351.5 -56t-271.5 -152t-171.5 -225.5t-61.5 -274.5q0 -146 61.5 -275.5t171.5 -225.5t271.5 -152t351.5 -56zM1167 348q-227 0 -370.5 126t-143.5 325q0 135 68 238t183.5 156.5t260.5 53.5
q162 0 282.5 -69.5t172.5 -196.5l-147 -47q-38 90 -118.5 137t-191.5 47q-153 0 -250.5 -89.5t-97.5 -233.5q0 -148 103 -233t256 -85q121 0 211.5 57.5t134.5 161.5l141 -41q-57 -146 -187 -226.5t-307 -80.5z" />
    <glyph glyph-name="guillemotleft" unicode="&#xab;" horiz-adv-x="1406" 
d="M741 164h-215l-397 405v9l397 405h215l-399 -405v-9zM1247 164h-213l-399 405v9l399 405h213l-399 -405v-9z" />
    <glyph glyph-name="logicalnot" unicode="&#xac;" horiz-adv-x="1255" 
d="M1071 231h-172v328h-723v150h895v-478z" />
    <glyph glyph-name="registered" unicode="&#xae;" horiz-adv-x="1390" 
d="M694 735q-233 0 -386.5 128t-153.5 323q0 127 69.5 229.5t193.5 160.5t277 58q232 0 385.5 -128t153.5 -320q0 -195 -153.5 -323t-385.5 -128zM694 819q189 0 314 104.5t125 262.5q0 157 -125 260.5t-314 103.5q-192 0 -317 -103t-125 -261q0 -160 125 -263.5t317 -103.5
zM602 942h-98v494h221q83 0 144 -40t61 -116q0 -57 -36 -96t-95 -51l153 -191h-112l-146 180h-92v-180zM602 1356v-156h117q49 0 77.5 20t28.5 60q0 37 -30.5 56.5t-79.5 19.5h-113z" />
    <glyph glyph-name="degree" unicode="&#xb0;" horiz-adv-x="931" 
d="M465 1053q-153 0 -252.5 85.5t-99.5 213.5q0 127 100 212t252 85q151 0 252.5 -86t101.5 -211q0 -127 -101 -213t-253 -86zM465 1163q93 0 155 54.5t62 134.5q0 77 -62 131.5t-155 54.5q-92 0 -155.5 -54.5t-63.5 -131.5q0 -79 63 -134t156 -55z" />
    <glyph glyph-name="plusminus" unicode="&#xb1;" horiz-adv-x="1273" 
d="M1094 799v-144h-373v-206h373v-142h-914v142h371v206h-371v144h371v243h170v-243h373z" />
    <glyph glyph-name="uni00B2" unicode="&#xb2;" horiz-adv-x="786" 
d="M694 784h-594v17q4 67 19.5 114t53 87.5t81.5 70.5t125 76q35 20 51 30.5t45 32.5t42 45.5t13 49.5q0 40 -38 67t-99 27q-76 0 -123.5 -42.5t-48.5 -113.5l-143 21q0 119 89.5 192.5t227.5 73.5q128 0 212.5 -62.5t84.5 -162.5q0 -130 -162 -213q-18 -10 -55.5 -29.5
t-58 -31.5t-47 -30.5t-42.5 -39t-24 -45.5h391v-134z" />
    <glyph glyph-name="uni00B3" unicode="&#xb3;" horiz-adv-x="798" 
d="M389 768q-118 0 -206.5 46.5t-116.5 121.5l137 63q53 -110 186 -110q66 0 110 29t44 79q0 52 -46 79.5t-124 27.5h-86v102h90q66 0 108.5 28.5t42.5 72.5t-42 72t-103 28q-62 0 -104.5 -30.5t-51.5 -82.5l-141 29q12 90 99 149.5t210 59.5q121 0 205 -54t84 -141
q0 -57 -38 -105t-101 -61q70 -12 117 -59.5t47 -112.5q0 -92 -86 -161.5t-234 -69.5z" />
    <glyph glyph-name="paragraph" unicode="&#xb6;" horiz-adv-x="1777" 
d="M1110 -287h-205v942h-250q-254 0 -411.5 133.5t-157.5 346.5q0 201 162.5 331.5t453.5 130.5h408v-1884zM1503 -287h-203v1884h203v-1884z" />
    <glyph glyph-name="periodcentered" unicode="&#xb7;" horiz-adv-x="684" 
d="M344 477q-75 0 -128.5 49.5t-53.5 118.5q0 65 53.5 111.5t128.5 46.5q73 0 124.5 -46.5t51.5 -111.5q0 -69 -51.5 -118.5t-124.5 -49.5z" />
    <glyph glyph-name="uni00B9" unicode="&#xb9;" horiz-adv-x="555" 
d="M399 784h-153v500q-73 -64 -189 -84v150q86 22 138.5 67.5t52.5 98.5h151v-732z" />
    <glyph glyph-name="guillemotright" unicode="&#xbb;" horiz-adv-x="1406" 
d="M375 164h-215l399 405v9l-399 405h215l397 -405v-9zM881 164h-215l401 405v9l-401 405h215l399 -405v-9z" />
    <glyph glyph-name="onequarter" unicode="&#xbc;" horiz-adv-x="1667" 
d="M399 784h-153v500q-73 -64 -189 -84v150q86 22 138.5 67.5t52.5 98.5h151v-732zM160 0h-183l1366 1468h175zM1481 -12h-152v151h-420v119l422 461h150v-459h112v-121h-112v-151zM1329 532l-266 -272h266v272z" />
    <glyph glyph-name="onehalf" unicode="&#xbd;" horiz-adv-x="1722" 
d="M399 784h-153v500q-73 -64 -189 -84v150q86 22 138.5 67.5t52.5 98.5h151v-732zM160 0h-183l1366 1468h175zM1630 -12h-594v16q4 67 19.5 114t53 87.5t81.5 70.5t125 76q35 20 51 30.5t45 32.5t42 45.5t13 49.5q0 40 -38 67t-99 27q-76 0 -123.5 -42t-48.5 -113l-143 20
q0 119 89.5 192.5t227.5 73.5q128 0 212.5 -62.5t84.5 -162.5q0 -130 -162 -213q-18 -10 -55.5 -29.5t-58 -31.5t-47 -30.5t-42.5 -39t-24 -45.5h391v-133z" />
    <glyph glyph-name="threequarters" unicode="&#xbe;" horiz-adv-x="1910" 
d="M389 768q-118 0 -206.5 46.5t-116.5 121.5l137 63q53 -110 186 -110q66 0 110 29t44 79q0 52 -46 79.5t-124 27.5h-86v102h90q66 0 108.5 28.5t42.5 72.5t-42 72t-103 28q-62 0 -104.5 -30.5t-51.5 -82.5l-141 29q12 90 99 149.5t210 59.5q121 0 205 -54t84 -141
q0 -57 -38 -105t-101 -61q70 -12 117 -59.5t47 -112.5q0 -92 -86 -161.5t-234 -69.5zM403 0h-182l1366 1468h174zM1724 -12h-151v151h-420v119l422 461h149v-459h113v-121h-113v-151zM1573 532l-266 -272h266v272z" />
    <glyph glyph-name="questiondown" unicode="&#xbf;" horiz-adv-x="1312" 
d="M719 899q-59 0 -103.5 39t-44.5 94t43 94t105 39t105.5 -39t43.5 -96q0 -54 -44 -92.5t-105 -38.5zM653 -479q-149 0 -276 50t-208 149.5t-81 228.5q0 59 19 114t49.5 98.5t76.5 86.5t90 74.5t101 66.5q35 22 54 33.5t47 31t41.5 32t32.5 31.5t27 35.5t16.5 39t9 45.5
t-2 51.5t-10.5 61.5h199q13 -60 14.5 -108t-13 -89t-34 -72t-60 -65t-79.5 -60.5t-103 -64.5q-128 -80 -196 -155.5t-68 -172.5q0 -122 107.5 -196t259.5 -74q112 0 204 42t143.5 129t33.5 202l182 -31q13 -115 -27.5 -212.5t-121 -163t-191.5 -102t-236 -36.5z" />
    <glyph glyph-name="Agrave" unicode="&#xc0;" horiz-adv-x="1824" 
d="M1032 1720h-176l-403 336h272zM244 0h-213l770 1597h225l770 -1597h-215q-25 50 -77 153.5t-97.5 194t-85.5 172.5h-823zM584 700h651q-191 387 -320 674h-6q-72 -157 -325 -674z" />
    <glyph glyph-name="Aacute" unicode="&#xc1;" horiz-adv-x="1824" 
d="M1382 2056l-403 -336h-176l307 336h272zM244 0h-213l770 1597h225l770 -1597h-215q-25 50 -77 153.5t-97.5 194t-85.5 172.5h-823zM584 700h651q-191 387 -320 674h-6q-72 -157 -325 -674z" />
    <glyph glyph-name="Acircumflex" unicode="&#xc2;" horiz-adv-x="1824" 
d="M1024 2042l328 -322h-181q-26 21 -81 63t-97 76t-80 66q-53 -44 -145.5 -115t-116.5 -90h-178l326 322h225zM244 0h-213l770 1597h225l770 -1597h-215q-25 50 -77 153.5t-97.5 194t-85.5 172.5h-823zM584 700h651q-191 387 -320 674h-6q-72 -157 -325 -674z" />
    <glyph glyph-name="Atilde" unicode="&#xc3;" horiz-adv-x="1824" 
d="M1098 1743q-47 0 -85.5 10.5t-57.5 21.5t-50 33l-51 35q-63 45 -117 45q-53 0 -87 -37t-34 -92h-143q1 120 74.5 194.5t187.5 74.5q83 0 178 -64l56 -35q68 -47 123 -47q53 0 81.5 36t28.5 95h146q0 -126 -66 -198t-184 -72zM244 0h-213l770 1597h225l770 -1597h-215
q-25 50 -77 153.5t-97.5 194t-85.5 172.5h-823zM584 700h651q-191 387 -320 674h-6q-72 -157 -325 -674z" />
    <glyph glyph-name="Adieresis" unicode="&#xc4;" horiz-adv-x="1824" 
d="M668 1772q-60 0 -101 37t-41 92q0 51 41 86.5t101 35.5q58 0 98.5 -35.5t40.5 -86.5q0 -55 -40 -92t-99 -37zM1157 1772q-62 0 -102.5 37t-40.5 92q0 51 41 86.5t102 35.5q57 0 98 -35.5t41 -86.5q0 -55 -40.5 -92t-98.5 -37zM244 0h-213l770 1597h225l770 -1597h-215
q-25 50 -77 153.5t-97.5 194t-85.5 172.5h-823zM584 700h651q-191 387 -320 674h-6q-72 -157 -325 -674z" />
    <glyph glyph-name="Aring" unicode="&#xc5;" horiz-adv-x="1824" 
d="M911 1714q-120 0 -199 66t-79 164q0 97 79 161t199 64q118 0 197.5 -63.5t79.5 -161.5q0 -99 -79.5 -164.5t-197.5 -65.5zM911 1829q62 0 104 31.5t42 83.5q0 50 -42 81t-104 31q-64 0 -106.5 -31t-42.5 -81q0 -53 42 -84t107 -31zM244 0h-213l770 1597h225l770 -1597
h-215q-25 50 -77 153.5t-97.5 194t-85.5 172.5h-823zM584 700h651q-191 387 -320 674h-6q-72 -157 -325 -674z" />
    <glyph glyph-name="AE" unicode="&#xc6;" horiz-adv-x="2547" 
d="M170 0h-223l1122 1597h1329v-174h-1009v-516h960v-180h-960v-549h1034v-178h-1237v514h-639q-219 -297 -377 -514zM657 696h529v727h-4q-88 -121 -262.5 -363.5t-262.5 -363.5z" />
    <glyph glyph-name="Ccedilla" unicode="&#xc7;" horiz-adv-x="2062" 
d="M1823 600l186 -61q-97 -264 -325 -417t-568 -157l-92 -108q35 14 94 14q99 0 163.5 -48t64.5 -126q0 -88 -81 -142.5t-204 -54.5q-93 0 -175.5 31.5t-135.5 85.5l75 74q40 -43 102 -67.5t126 -24.5q67 0 111 27t44 69t-40.5 68t-102.5 26q-63 0 -115 -27l-73 56l118 151
q-254 18 -451.5 126.5t-308 291t-110.5 410.5q0 187 76.5 345t207 264t305.5 165t371 59q186 0 353.5 -53t300 -162.5t194.5 -261.5l-184 -70q-86 171 -264 270t-400 99q-151 0 -285.5 -45.5t-236.5 -129t-161.5 -209.5t-59.5 -277q0 -130 44 -238.5t118 -183t173.5 -126.5
t209.5 -76t227 -24q275 0 456 126t253 331z" />
    <glyph glyph-name="Egrave" unicode="&#xc8;" horiz-adv-x="1613" 
d="M948 1720h-176l-403 336h272zM1487 0h-1237v1597h1212v-174h-1007v-514h958v-182h-958v-549h1032v-178z" />
    <glyph glyph-name="Eacute" unicode="&#xc9;" horiz-adv-x="1613" 
d="M1298 2056l-403 -336h-176l307 336h272zM1487 0h-1237v1597h1212v-174h-1007v-514h958v-182h-958v-549h1032v-178z" />
    <glyph glyph-name="Ecircumflex" unicode="&#xca;" horiz-adv-x="1613" 
d="M938 2042l328 -322h-181q-26 21 -81 63t-97 76t-80 66q-53 -44 -145.5 -115t-116.5 -90h-178l326 322h225zM1487 0h-1237v1597h1212v-174h-1007v-514h958v-182h-958v-549h1032v-178z" />
    <glyph glyph-name="Edieresis" unicode="&#xcb;" horiz-adv-x="1613" 
d="M582 1772q-60 0 -101 37t-41 92q0 51 41 86.5t101 35.5q58 0 98.5 -35.5t40.5 -86.5q0 -55 -40 -92t-99 -37zM1071 1772q-62 0 -102.5 37t-40.5 92q0 51 41 86.5t102 35.5q57 0 98 -35.5t41 -86.5q0 -55 -40.5 -92t-98.5 -37zM1487 0h-1237v1597h1212v-174h-1007v-514
h958v-182h-958v-549h1032v-178z" />
    <glyph glyph-name="Igrave" unicode="&#xcc;" horiz-adv-x="704" 
d="M473 1720h-176l-403 336h272zM455 0h-205v1597h205v-1597z" />
    <glyph glyph-name="Iacute" unicode="&#xcd;" horiz-adv-x="704" 
d="M823 2056l-403 -336h-176l307 336h272zM455 0h-205v1597h205v-1597z" />
    <glyph glyph-name="Icircumflex" unicode="&#xce;" horiz-adv-x="704" 
d="M463 2042l328 -322h-181q-26 21 -81 63t-97 76t-80 66q-53 -44 -145.5 -115t-116.5 -90h-178l326 322h225zM455 0h-205v1597h205v-1597z" />
    <glyph glyph-name="Idieresis" unicode="&#xcf;" horiz-adv-x="704" 
d="M109 1772q-60 0 -101 37t-41 92q0 51 41 86.5t101 35.5q58 0 98.5 -35.5t40.5 -86.5q0 -55 -40 -92t-99 -37zM598 1772q-62 0 -102.5 37t-40.5 92q0 51 41 86.5t102 35.5q57 0 98 -35.5t41 -86.5q0 -55 -40.5 -92t-98.5 -37zM455 0h-205v1597h205v-1597z" />
    <glyph glyph-name="Eth" unicode="&#xd0;" horiz-adv-x="1972" 
d="M250 1597h684q187 0 339.5 -40.5t257 -112t176 -171.5t104 -216t32.5 -248q0 -178 -61 -327t-173 -256t-280 -166.5t-373 -59.5h-706v721h-213v153h213v723zM958 174q308 0 490 161t182 460q0 160 -54 281.5t-153 196.5t-233.5 112.5t-302.5 37.5h-432v-549h604v-153
h-604v-547h503z" />
    <glyph glyph-name="Ntilde" unicode="&#xd1;" horiz-adv-x="2023" 
d="M1178 1780q-47 0 -85.5 10.5t-57.5 21.5t-50 33l-51 35q-63 45 -117 45q-53 0 -87 -37t-34 -92h-143q1 120 74.5 194t187.5 74q84 0 178 -63l56 -35q68 -47 122 -47q53 0 82 36t29 95h145q0 -127 -65.5 -198.5t-183.5 -71.5zM455 0h-205v1597h219q804 -931 1096 -1282h6
v1282h203v-1597h-220q-106 123 -494.5 567.5t-600.5 696.5h-4v-1264z" />
    <glyph glyph-name="Ograve" unicode="&#xd2;" horiz-adv-x="2174" 
d="M1206 1720h-176l-403 336h272zM1087 -35q-195 0 -372 62.5t-307.5 171t-207.5 264.5t-77 334q0 177 76 333t206 265t307.5 172t374.5 63q200 0 378.5 -64t306.5 -174.5t203 -265.5t75 -329q0 -175 -75.5 -330t-204.5 -264.5t-307 -173.5t-376 -64zM1090 143
q199 0 368.5 84t271 235t101.5 335q0 138 -59.5 260.5t-159.5 208.5t-236.5 136t-285.5 50q-150 0 -287 -49.5t-239.5 -134.5t-163 -208t-60.5 -263q0 -186 103.5 -337t274.5 -234t372 -83z" />
    <glyph glyph-name="Oacute" unicode="&#xd3;" horiz-adv-x="2174" 
d="M1556 2056l-403 -336h-176l307 336h272zM1087 -35q-195 0 -372 62.5t-307.5 171t-207.5 264.5t-77 334q0 177 76 333t206 265t307.5 172t374.5 63q200 0 378.5 -64t306.5 -174.5t203 -265.5t75 -329q0 -175 -75.5 -330t-204.5 -264.5t-307 -173.5t-376 -64zM1090 143
q199 0 368.5 84t271 235t101.5 335q0 138 -59.5 260.5t-159.5 208.5t-236.5 136t-285.5 50q-150 0 -287 -49.5t-239.5 -134.5t-163 -208t-60.5 -263q0 -186 103.5 -337t274.5 -234t372 -83z" />
    <glyph glyph-name="Ocircumflex" unicode="&#xd4;" horiz-adv-x="2174" 
d="M1196 2042l328 -322h-181q-26 21 -81 63t-97 76t-80 66q-53 -44 -145.5 -115t-116.5 -90h-178l326 322h225zM1087 -35q-195 0 -372 62.5t-307.5 171t-207.5 264.5t-77 334q0 177 76 333t206 265t307.5 172t374.5 63q200 0 378.5 -64t306.5 -174.5t203 -265.5t75 -329
q0 -175 -75.5 -330t-204.5 -264.5t-307 -173.5t-376 -64zM1090 143q199 0 368.5 84t271 235t101.5 335q0 138 -59.5 260.5t-159.5 208.5t-236.5 136t-285.5 50q-150 0 -287 -49.5t-239.5 -134.5t-163 -208t-60.5 -263q0 -186 103.5 -337t274.5 -234t372 -83z" />
    <glyph glyph-name="Otilde" unicode="&#xd5;" horiz-adv-x="2174" 
d="M1274 1780q-47 0 -85.5 10.5t-57.5 21.5t-50 33l-51 35q-63 45 -117 45q-53 0 -86.5 -37t-33.5 -92h-144q1 120 74.5 194t187.5 74q85 0 179 -63l55 -35q68 -47 123 -47q53 0 81.5 36t28.5 95h146q0 -126 -66 -198t-184 -72zM1087 -35q-195 0 -372 62.5t-307.5 171
t-207.5 264.5t-77 334q0 177 76 333t206 265t307.5 172t374.5 63q200 0 378.5 -64t306.5 -174.5t203 -265.5t75 -329q0 -175 -75.5 -330t-204.5 -264.5t-307 -173.5t-376 -64zM1090 143q199 0 368.5 84t271 235t101.5 335q0 138 -59.5 260.5t-159.5 208.5t-236.5 136
t-285.5 50q-150 0 -287 -49.5t-239.5 -134.5t-163 -208t-60.5 -263q0 -186 103.5 -337t274.5 -234t372 -83z" />
    <glyph glyph-name="Odieresis" unicode="&#xd6;" horiz-adv-x="2174" 
d="M842 1772q-60 0 -101 37t-41 92q0 51 41 86.5t101 35.5q58 0 98.5 -35.5t40.5 -86.5q0 -55 -40 -92t-99 -37zM1331 1772q-62 0 -102.5 37t-40.5 92q0 51 41 86.5t102 35.5q57 0 98 -35.5t41 -86.5q0 -55 -40.5 -92t-98.5 -37zM1087 -35q-195 0 -372 62.5t-307.5 171
t-207.5 264.5t-77 334q0 177 76 333t206 265t307.5 172t374.5 63q200 0 378.5 -64t306.5 -174.5t203 -265.5t75 -329q0 -175 -75.5 -330t-204.5 -264.5t-307 -173.5t-376 -64zM1090 143q199 0 368.5 84t271 235t101.5 335q0 138 -59.5 260.5t-159.5 208.5t-236.5 136
t-285.5 50q-150 0 -287 -49.5t-239.5 -134.5t-163 -208t-60.5 -263q0 -186 103.5 -337t274.5 -234t372 -83z" />
    <glyph glyph-name="multiply" unicode="&#xd7;" horiz-adv-x="1128" 
d="M453 625l-283 237l117 107l282 -238l271 230l114 -105l-270 -231l277 -236l-117 -106l-277 235l-274 -231l-115 104z" />
    <glyph glyph-name="Oslash" unicode="&#xd8;" horiz-adv-x="2174" 
d="M1896 1661l-184 -223q160 -116 249 -282t89 -359q0 -175 -75.5 -330t-204.5 -264.5t-307 -173.5t-376 -64q-265 0 -493 113l-117 -144h-209l187 228q-156 113 -244 277t-88 358q0 177 76 333t206 265t307.5 172t374.5 63q266 0 484 -108l115 139h210zM340 797
q0 -145 64 -269t176 -215l868 1059q-166 80 -358 80q-150 0 -287 -49.5t-239.5 -134.5t-163 -208t-60.5 -263zM1090 143q199 0 368.5 84t271 235t101.5 335q0 146 -64.5 272t-179.5 217l-870 -1059q176 -84 373 -84z" />
    <glyph glyph-name="Ugrave" unicode="&#xd9;" horiz-adv-x="1845" 
d="M1044 1720h-176l-403 336h272zM918 -35q-173 0 -306 47t-216.5 132t-126 198t-42.5 250v1005h205v-991q0 -230 128 -347.5t362 -117.5q236 0 363.5 117t127.5 348v991h205v-1005q0 -100 -23 -189.5t-76 -171t-132 -139.5t-199 -92.5t-270 -34.5z" />
    <glyph glyph-name="Uacute" unicode="&#xda;" horiz-adv-x="1845" 
d="M1278 2054l-406 -334h-176l310 334h272zM918 -35q-173 0 -306 47t-216.5 132t-126 198t-42.5 250v1005h205v-991q0 -230 128 -347.5t362 -117.5q236 0 363.5 117t127.5 348v991h205v-1005q0 -100 -23 -189.5t-76 -171t-132 -139.5t-199 -92.5t-270 -34.5z" />
    <glyph glyph-name="Ucircumflex" unicode="&#xdb;" horiz-adv-x="1845" 
d="M1034 2042l328 -322h-180q-26 21 -81 63t-97 76t-80 66q-53 -44 -145.5 -115t-116.5 -90h-179l326 322h225zM918 -35q-173 0 -306 47t-216.5 132t-126 198t-42.5 250v1005h205v-991q0 -230 128 -347.5t362 -117.5q236 0 363.5 117t127.5 348v991h205v-1005
q0 -100 -23 -189.5t-76 -171t-132 -139.5t-199 -92.5t-270 -34.5z" />
    <glyph glyph-name="Udieresis" unicode="&#xdc;" horiz-adv-x="1845" 
d="M678 1772q-60 0 -100.5 37t-40.5 92q0 51 40.5 86.5t100.5 35.5q58 0 98.5 -35.5t40.5 -86.5q0 -55 -40 -92t-99 -37zM1167 1772q-62 0 -102.5 37t-40.5 92q0 51 41 86.5t102 35.5q57 0 98.5 -35.5t41.5 -86.5q0 -55 -41 -92t-99 -37zM918 -35q-173 0 -306 47t-216.5 132
t-126 198t-42.5 250v1005h205v-991q0 -230 128 -347.5t362 -117.5q236 0 363.5 117t127.5 348v991h205v-1005q0 -100 -23 -189.5t-76 -171t-132 -139.5t-199 -92.5t-270 -34.5z" />
    <glyph glyph-name="Yacute" unicode="&#xdd;" horiz-adv-x="1697" 
d="M1272 2054l-404 -334h-176l307 334h273zM950 0h-202v575q-64 92 -232.5 337.5t-286 414t-190.5 270.5h221q99 -139 586 -837h4q60 85 120 172t162.5 232t307.5 433h217l-707 -1022v-575z" />
    <glyph glyph-name="Thorn" unicode="&#xde;" horiz-adv-x="1679" 
d="M455 0h-205v1597h205v-280h477q99 0 189 -16.5t172 -53t142.5 -91.5t96 -137t35.5 -183q0 -106 -36.5 -192.5t-96.5 -142.5t-139.5 -94t-161 -54.5t-166.5 -16.5h-512v-336zM455 1143v-627h454q99 0 179 18.5t140 55.5t93 98t33 141q0 78 -35.5 139t-98 99t-144.5 57
t-179 19h-442z" />
    <glyph glyph-name="germandbls" unicode="&#xdf;" horiz-adv-x="1533" 
d="M403 0h-192v1122q0 44 3.5 84.5t18 98.5t37.5 106t66.5 98t102 85t146.5 57t197 22q271 0 426.5 -125.5t155.5 -320.5q0 -149 -93 -254t-237 -129v-4q173 -19 283 -122.5t110 -262.5q0 -91 -41.5 -172t-120 -144.5t-204 -101t-281.5 -37.5h-176v160h197q186 0 304 85
t118 216q0 123 -104.5 203.5t-266.5 80.5h-123v160h105q145 0 236 80.5t91 216.5q0 135 -95.5 221t-283.5 86q-95 0 -167.5 -28t-111.5 -67.5t-63 -92t-30.5 -91.5t-6.5 -77v-1153z" />
    <glyph glyph-name="agrave" unicode="&#xe0;" horiz-adv-x="1415" 
d="M811 1278h-170l-373 389h252zM547 -35q-119 0 -215.5 32t-158.5 103t-62 170q0 64 26.5 116t69 87.5t107 64t130 46t148.5 32.5q30 5 74 12t72.5 11.5t65.5 11t61 13t51.5 15.5t44.5 20.5t32 25.5t22 33t7 41q0 88 -91.5 152.5t-234.5 64.5q-129 0 -223 -58.5
t-131 -162.5l-184 57q38 107 127 179.5t195 103t225 30.5q81 0 155 -14t140 -45t114.5 -75t76.5 -108t28 -141v-428q0 -130 10 -204t33 -150h-191q-33 90 -33 211h-6q-67 -112 -190.5 -179t-294.5 -67zM582 109q97 0 182.5 32.5t140 82.5t86 108.5t31.5 113.5v138
q-61 -31 -123.5 -49t-189.5 -39q-40 -7 -59.5 -10.5t-62 -12.5t-67 -17.5t-61 -21.5t-57.5 -28t-43 -34.5t-32 -44.5t-10 -53q0 -76 73.5 -120.5t191.5 -44.5z" />
    <glyph glyph-name="aacute" unicode="&#xe1;" horiz-adv-x="1415" 
d="M1163 1667l-372 -389h-168l288 389h252zM547 -35q-119 0 -215.5 32t-158.5 103t-62 170q0 64 26.5 116t69 87.5t107 64t130 46t148.5 32.5q30 5 74 12t72.5 11.5t65.5 11t61 13t51.5 15.5t44.5 20.5t32 25.5t22 33t7 41q0 88 -91.5 152.5t-234.5 64.5q-129 0 -223 -58.5
t-131 -162.5l-184 57q38 107 127 179.5t195 103t225 30.5q81 0 155 -14t140 -45t114.5 -75t76.5 -108t28 -141v-428q0 -130 10 -204t33 -150h-191q-33 90 -33 211h-6q-67 -112 -190.5 -179t-294.5 -67zM582 109q97 0 182.5 32.5t140 82.5t86 108.5t31.5 113.5v138
q-61 -31 -123.5 -49t-189.5 -39q-40 -7 -59.5 -10.5t-62 -12.5t-67 -17.5t-61 -21.5t-57.5 -28t-43 -34.5t-32 -44.5t-10 -53q0 -76 73.5 -120.5t191.5 -44.5z" />
    <glyph glyph-name="acircumflex" unicode="&#xe2;" horiz-adv-x="1415" 
d="M426 1278h-182l356 360h234l356 -360h-180q-250 209 -291 246q-216 -183 -293 -246zM547 -35q-119 0 -215.5 32t-158.5 103t-62 170q0 64 26.5 116t69 87.5t107 64t130 46t148.5 32.5q30 5 74 12t72.5 11.5t65.5 11t61 13t51.5 15.5t44.5 20.5t32 25.5t22 33t7 41
q0 88 -91.5 152.5t-234.5 64.5q-129 0 -223 -58.5t-131 -162.5l-184 57q38 107 127 179.5t195 103t225 30.5q81 0 155 -14t140 -45t114.5 -75t76.5 -108t28 -141v-428q0 -130 10 -204t33 -150h-191q-33 90 -33 211h-6q-67 -112 -190.5 -179t-294.5 -67zM582 109
q97 0 182.5 32.5t140 82.5t86 108.5t31.5 113.5v138q-61 -31 -123.5 -49t-189.5 -39q-40 -7 -59.5 -10.5t-62 -12.5t-67 -17.5t-61 -21.5t-57.5 -28t-43 -34.5t-32 -44.5t-10 -53q0 -76 73.5 -120.5t191.5 -44.5z" />
    <glyph glyph-name="atilde" unicode="&#xe3;" horiz-adv-x="1415" 
d="M907 1317q-47 0 -85.5 11t-57 21.5t-49.5 32.5l-51 35q-63 45 -117 45q-53 0 -87 -37t-34 -92h-143q1 120 74.5 194.5t187.5 74.5q83 0 178 -64l55 -35q68 -47 123 -47q53 0 82 36t29 95h145q0 -126 -66 -198t-184 -72zM547 -35q-119 0 -215.5 32t-158.5 103t-62 170
q0 64 26.5 116t69 87.5t107 64t130 46t148.5 32.5q30 5 74 12t72.5 11.5t65.5 11t61 13t51.5 15.5t44.5 20.5t32 25.5t22 33t7 41q0 88 -91.5 152.5t-234.5 64.5q-129 0 -223 -58.5t-131 -162.5l-184 57q38 107 127 179.5t195 103t225 30.5q81 0 155 -14t140 -45t114.5 -75
t76.5 -108t28 -141v-428q0 -130 10 -204t33 -150h-191q-33 90 -33 211h-6q-67 -112 -190.5 -179t-294.5 -67zM582 109q97 0 182.5 32.5t140 82.5t86 108.5t31.5 113.5v138q-61 -31 -123.5 -49t-189.5 -39q-40 -7 -59.5 -10.5t-62 -12.5t-67 -17.5t-61 -21.5t-57.5 -28
t-43 -34.5t-32 -44.5t-10 -53q0 -76 73.5 -120.5t191.5 -44.5z" />
    <glyph glyph-name="adieresis" unicode="&#xe4;" horiz-adv-x="1415" 
d="M492 1352q-58 0 -98 36t-40 89q0 48 40 83t98 35q57 0 96 -35t39 -83q0 -53 -38.5 -89t-96.5 -36zM946 1352q-59 0 -98 36t-39 89q0 48 39 83t98 35q55 0 95 -35t40 -83q0 -52 -39.5 -88.5t-95.5 -36.5zM547 -35q-119 0 -215.5 32t-158.5 103t-62 170q0 64 26.5 116
t69 87.5t107 64t130 46t148.5 32.5q30 5 74 12t72.5 11.5t65.5 11t61 13t51.5 15.5t44.5 20.5t32 25.5t22 33t7 41q0 88 -91.5 152.5t-234.5 64.5q-129 0 -223 -58.5t-131 -162.5l-184 57q38 107 127 179.5t195 103t225 30.5q81 0 155 -14t140 -45t114.5 -75t76.5 -108
t28 -141v-428q0 -130 10 -204t33 -150h-191q-33 90 -33 211h-6q-67 -112 -190.5 -179t-294.5 -67zM582 109q97 0 182.5 32.5t140 82.5t86 108.5t31.5 113.5v138q-61 -31 -123.5 -49t-189.5 -39q-40 -7 -59.5 -10.5t-62 -12.5t-67 -17.5t-61 -21.5t-57.5 -28t-43 -34.5
t-32 -44.5t-10 -53q0 -76 73.5 -120.5t191.5 -44.5z" />
    <glyph glyph-name="aring" unicode="&#xe5;" horiz-adv-x="1415" 
d="M719 1249q-119 0 -199 66t-80 164q0 96 80 160.5t199 64.5q118 0 197 -63.5t79 -161.5q0 -99 -79 -164.5t-197 -65.5zM719 1364q63 0 104 31t41 84q0 50 -41 81t-104 31q-64 0 -107 -31t-43 -81q0 -53 42.5 -84t107.5 -31zM547 -35q-119 0 -215.5 32t-158.5 103t-62 170
q0 64 26.5 116t69 87.5t107 64t130 46t148.5 32.5q30 5 74 12t72.5 11.5t65.5 11t61 13t51.5 15.5t44.5 20.5t32 25.5t22 33t7 41q0 88 -91.5 152.5t-234.5 64.5q-129 0 -223 -58.5t-131 -162.5l-184 57q38 107 127 179.5t195 103t225 30.5q81 0 155 -14t140 -45t114.5 -75
t76.5 -108t28 -141v-428q0 -130 10 -204t33 -150h-191q-33 90 -33 211h-6q-67 -112 -190.5 -179t-294.5 -67zM582 109q97 0 182.5 32.5t140 82.5t86 108.5t31.5 113.5v138q-61 -31 -123.5 -49t-189.5 -39q-40 -7 -59.5 -10.5t-62 -12.5t-67 -17.5t-61 -21.5t-57.5 -28
t-43 -34.5t-32 -44.5t-10 -53q0 -76 73.5 -120.5t191.5 -44.5z" />
    <glyph glyph-name="ae" unicode="&#xe6;" horiz-adv-x="2445" 
d="M543 -35q-122 0 -218.5 33.5t-155 104.5t-58.5 169q0 64 26.5 115.5t69 87t107.5 64t130.5 45.5t149.5 32q30 5 75 12t73 11.5t65 11t61 13t51 15.5t43.5 20.5t31.5 25.5t21.5 33t6.5 41q0 87 -91 152t-233 65q-129 0 -223 -59.5t-131 -161.5l-186 57q39 105 128 177.5
t196 104t227 31.5q98 0 187 -20t166 -69.5t112 -121.5q85 101 220.5 156t301.5 55q86 0 169.5 -17t168 -59t147.5 -105.5t103 -165.5t40 -230v-58h-1101q6 -181 141.5 -292t339.5 -111q161 0 281 71.5t176 186.5l178 -63q-75 -165 -245 -261t-392 -96q-201 0 -360.5 76
t-229.5 219h-4q-78 -134 -226 -214.5t-339 -80.5zM1229 668h891q-3 75 -31 134.5t-70 97.5t-98 63.5t-113 36t-118 10.5q-180 0 -304.5 -92t-156.5 -250zM582 109q96 0 181 33t140 84t87 109.5t32 110.5v138q-71 -36 -126 -51t-177 -33q-48 -7 -87 -14.5t-88.5 -19.5
t-87 -29t-70.5 -39t-51 -52.5t-18 -66.5q0 -80 74.5 -125t190.5 -45z" />
    <glyph glyph-name="ccedilla" unicode="&#xe7;" horiz-adv-x="1495" 
d="M1260 401l178 -61q-74 -172 -238.5 -270.5t-378.5 -104.5l-94 -108q35 14 94 14q99 0 163.5 -48t64.5 -126q0 -88 -81 -142.5t-204 -54.5q-93 0 -175.5 31.5t-135.5 85.5l75 74q40 -43 102 -67.5t126 -24.5q67 0 111 27t44 69t-40.5 68t-102.5 26q-63 0 -115 -27l-73 56
l118 151q-263 27 -425 188t-162 408q0 268 189.5 434t487.5 166q199 0 358.5 -82.5t235.5 -246.5l-184 -68q-49 111 -159 171t-257 60q-212 0 -340.5 -123t-128.5 -311q0 -193 135.5 -312.5t348.5 -119.5q166 0 285 72.5t178 195.5z" />
    <glyph glyph-name="egrave" unicode="&#xe8;" horiz-adv-x="1355" 
d="M774 1278h-170l-373 389h252zM700 -35q-129 0 -240.5 43.5t-191.5 121t-126 189.5t-46 244q0 264 167.5 433t428.5 169q78 0 153 -17t150 -59t130.5 -105.5t90.5 -165.5t35 -230v-72h-966q7 -181 123 -286t294 -105q139 0 241.5 72t152.5 188l170 -63
q-68 -165 -218.5 -261t-347.5 -96zM293 684h768q-2 68 -25 124.5t-59.5 93.5t-84.5 62.5t-99 36.5t-105 11q-157 0 -263 -92.5t-132 -235.5z" />
    <glyph glyph-name="eacute" unicode="&#xe9;" horiz-adv-x="1355" 
d="M1128 1667l-372 -389h-168l289 389h251zM700 -35q-129 0 -240.5 43.5t-191.5 121t-126 189.5t-46 244q0 264 167.5 433t428.5 169q78 0 153 -17t150 -59t130.5 -105.5t90.5 -165.5t35 -230v-72h-966q7 -181 123 -286t294 -105q139 0 241.5 72t152.5 188l170 -63
q-68 -165 -218.5 -261t-347.5 -96zM293 684h768q-2 68 -25 124.5t-59.5 93.5t-84.5 62.5t-99 36.5t-105 11q-157 0 -263 -92.5t-132 -235.5z" />
    <glyph glyph-name="ecircumflex" unicode="&#xea;" horiz-adv-x="1355" 
d="M391 1278h-182l356 360h234l356 -360h-180q-250 209 -291 246q-216 -183 -293 -246zM700 -35q-129 0 -240.5 43.5t-191.5 121t-126 189.5t-46 244q0 264 167.5 433t428.5 169q78 0 153 -17t150 -59t130.5 -105.5t90.5 -165.5t35 -230v-72h-966q7 -181 123 -286t294 -105
q139 0 241.5 72t152.5 188l170 -63q-68 -165 -218.5 -261t-347.5 -96zM293 684h768q-2 68 -25 124.5t-59.5 93.5t-84.5 62.5t-99 36.5t-105 11q-157 0 -263 -92.5t-132 -235.5z" />
    <glyph glyph-name="edieresis" unicode="&#xeb;" horiz-adv-x="1355" 
d="M457 1352q-58 0 -98 36t-40 89q0 48 40 83t98 35q57 0 96 -35t39 -83q0 -53 -38.5 -89t-96.5 -36zM911 1352q-59 0 -98 36t-39 89q0 48 39 83t98 35q55 0 95.5 -35.5t40.5 -82.5q0 -52 -40 -88.5t-96 -36.5zM700 -35q-129 0 -240.5 43.5t-191.5 121t-126 189.5t-46 244
q0 264 167.5 433t428.5 169q78 0 153 -17t150 -59t130.5 -105.5t90.5 -165.5t35 -230v-72h-966q7 -181 123 -286t294 -105q139 0 241.5 72t152.5 188l170 -63q-68 -165 -218.5 -261t-347.5 -96zM293 684h768q-2 68 -25 124.5t-59.5 93.5t-84.5 62.5t-99 36.5t-105 11
q-157 0 -263 -92.5t-132 -235.5z" />
    <glyph glyph-name="igrave" unicode="&#xec;" horiz-adv-x="614" 
d="M399 1272h-170l-372 389h252zM403 0h-192v1133h192v-1133z" />
    <glyph glyph-name="iacute" unicode="&#xed;" horiz-adv-x="614" 
d="M752 1661l-373 -389h-168l289 389h252zM403 0h-192v1133h192v-1133z" />
    <glyph glyph-name="icircumflex" unicode="&#xee;" horiz-adv-x="614" 
d="M16 1272h-182l356 360h234l356 -360h-180q-250 209 -291 246q-216 -183 -293 -246zM403 0h-192v1133h192v-1133z" />
    <glyph glyph-name="idieresis" unicode="&#xef;" horiz-adv-x="614" 
d="M80 1346q-58 0 -97.5 35.5t-39.5 88.5q0 48 39.5 83.5t97.5 35.5q57 0 96 -35.5t39 -83.5q0 -53 -38.5 -88.5t-96.5 -35.5zM535 1346q-60 0 -99 35.5t-39 88.5q0 48 39.5 83.5t98.5 35.5q55 0 95 -35.5t40 -83.5q0 -52 -39.5 -88t-95.5 -36zM403 0h-192v1133h192v-1133z
" />
    <glyph glyph-name="eth" unicode="&#xf0;" horiz-adv-x="1593" 
d="M1241 1554l-215 -102q438 -292 438 -782q0 -329 -185 -517t-497 -188q-152 0 -280 45.5t-214 124t-134 183t-48 221.5q0 121 51 226.5t139 178.5t209 114.5t257 41.5q145 0 257.5 -47.5t207.5 -149.5h4q-86 283 -385 461l-357 -170l-59 96l291 140q-138 65 -344 124
l51 148q284 -75 481 -180l267 127zM778 129q203 0 336 113t133 293t-133.5 292.5t-333.5 112.5q-203 0 -337 -115.5t-134 -289.5q0 -171 131 -288.5t338 -117.5z" />
    <glyph glyph-name="ntilde" unicode="&#xf1;" horiz-adv-x="1558" 
d="M963 1317q-47 0 -85.5 10.5t-57.5 21.5t-50 33l-51 35q-63 45 -117 45q-53 0 -87 -37t-34 -92h-143q1 120 74.5 194.5t187.5 74.5q83 0 178 -64l56 -35q68 -47 122 -47q53 0 82 36t29 95h145q0 -127 -65.5 -198.5t-183.5 -71.5zM403 0h-192v1133h188v-203h4
q75 120 198 177.5t273 57.5q75 0 144 -14.5t133.5 -49t111.5 -85.5t75 -129.5t28 -175.5v-711h-190v633q0 177 -100 271.5t-257 94.5q-190 0 -303 -110.5t-113 -270.5v-618z" />
    <glyph glyph-name="ograve" unicode="&#xf2;" horiz-adv-x="1585" 
d="M885 1278h-170l-373 389h252zM795 -35q-198 0 -354 75.5t-243 212.5t-87 312q0 174 87 311t243 213t354 76q197 0 352.5 -76t242.5 -213t87 -311q0 -175 -87 -312t-242.5 -212.5t-352.5 -75.5zM795 133q212 0 344.5 120.5t132.5 311.5t-132.5 312.5t-344.5 121.5
t-347 -121.5t-135 -312.5q0 -190 135 -311t347 -121z" />
    <glyph glyph-name="oacute" unicode="&#xf3;" horiz-adv-x="1585" 
d="M1239 1667l-373 -389h-168l289 389h252zM795 -35q-198 0 -354 75.5t-243 212.5t-87 312q0 174 87 311t243 213t354 76q197 0 352.5 -76t242.5 -213t87 -311q0 -175 -87 -312t-242.5 -212.5t-352.5 -75.5zM795 133q212 0 344.5 120.5t132.5 311.5t-132.5 312.5
t-344.5 121.5t-347 -121.5t-135 -312.5q0 -190 135 -311t347 -121z" />
    <glyph glyph-name="ocircumflex" unicode="&#xf4;" horiz-adv-x="1585" 
d="M502 1278h-183l357 360h233l357 -360h-181q-235 197 -290 246q-216 -183 -293 -246zM795 -35q-198 0 -354 75.5t-243 212.5t-87 312q0 174 87 311t243 213t354 76q197 0 352.5 -76t242.5 -213t87 -311q0 -175 -87 -312t-242.5 -212.5t-352.5 -75.5zM795 133
q212 0 344.5 120.5t132.5 311.5t-132.5 312.5t-344.5 121.5t-347 -121.5t-135 -312.5q0 -190 135 -311t347 -121z" />
    <glyph glyph-name="otilde" unicode="&#xf5;" horiz-adv-x="1585" 
d="M983 1317q-47 0 -85.5 11t-57 21.5t-49.5 32.5l-52 35q-63 45 -116 45t-87 -37t-34 -92h-144q1 120 75 194.5t188 74.5q83 0 178 -64l55 -35q68 -47 123 -47q53 0 81.5 36t28.5 95h146q0 -126 -66 -198t-184 -72zM795 -35q-198 0 -354 75.5t-243 212.5t-87 312
q0 174 87 311t243 213t354 76q197 0 352.5 -76t242.5 -213t87 -311q0 -175 -87 -312t-242.5 -212.5t-352.5 -75.5zM795 133q212 0 344.5 120.5t132.5 311.5t-132.5 312.5t-344.5 121.5t-347 -121.5t-135 -312.5q0 -190 135 -311t347 -121z" />
    <glyph glyph-name="odieresis" unicode="&#xf6;" horiz-adv-x="1585" 
d="M567 1352q-58 0 -97.5 36t-39.5 89q0 48 39.5 83t97.5 35q57 0 96 -35t39 -83q0 -53 -38.5 -89t-96.5 -36zM1022 1352q-59 0 -98 36t-39 89q0 48 39 83t98 35q55 0 95 -35t40 -83q0 -52 -39.5 -88.5t-95.5 -36.5zM795 -35q-198 0 -354 75.5t-243 212.5t-87 312
q0 174 87 311t243 213t354 76q197 0 352.5 -76t242.5 -213t87 -311q0 -175 -87 -312t-242.5 -212.5t-352.5 -75.5zM795 133q212 0 344.5 120.5t132.5 311.5t-132.5 312.5t-344.5 121.5t-347 -121.5t-135 -312.5q0 -190 135 -311t347 -121z" />
    <glyph glyph-name="divide" unicode="&#xf7;" horiz-adv-x="1267" 
d="M639 836q-57 0 -97 35.5t-40 86.5q0 50 39.5 84.5t97.5 34.5q56 0 95.5 -35t39.5 -84q0 -51 -39.5 -86.5t-95.5 -35.5zM1094 551h-920v149h920v-149zM639 172q-57 0 -97 37t-40 88q0 50 39.5 84.5t97.5 34.5q56 0 95.5 -35t39.5 -86t-39.5 -87t-95.5 -36z" />
    <glyph glyph-name="oslash" unicode="&#xf8;" horiz-adv-x="1585" 
d="M1450 1184l-166 -187q92 -81 142.5 -191.5t50.5 -240.5q0 -175 -87 -312t-242.5 -212.5t-352.5 -75.5q-204 0 -357 78l-88 -98h-213l166 186q-92 81 -142 191.5t-50 242.5q0 174 87 311t243 213t354 76q204 0 362 -82l88 101h205zM313 565q0 -176 117 -293l604 676
q-105 51 -239 51q-212 0 -347 -121.5t-135 -312.5zM795 133q212 0 344.5 120.5t132.5 311.5q0 175 -113 291l-600 -676q106 -47 236 -47z" />
    <glyph glyph-name="ugrave" unicode="&#xf9;" horiz-adv-x="1536" 
d="M840 1278h-170l-373 389h252zM680 -35q-77 0 -146 15.5t-132 50.5t-109 86.5t-73 129.5t-27 175v711h190v-644q0 -93 29 -164t79.5 -111.5t110.5 -60.5t129 -20q93 0 170.5 32t126.5 85t75.5 118t26.5 134v631h191v-779q0 -125 10 -200t35 -154h-192q-36 115 -33 190h-4
q-72 -113 -189.5 -169t-267.5 -56z" />
    <glyph glyph-name="uacute" unicode="&#xfa;" horiz-adv-x="1536" 
d="M1192 1667l-373 -389h-168l289 389h252zM680 -35q-77 0 -146 15.5t-132 50.5t-109 86.5t-73 129.5t-27 175v711h190v-644q0 -93 29 -164t79.5 -111.5t110.5 -60.5t129 -20q93 0 170.5 32t126.5 85t75.5 118t26.5 134v631h191v-779q0 -125 10 -200t35 -154h-192
q-36 115 -33 190h-4q-72 -113 -189.5 -169t-267.5 -56z" />
    <glyph glyph-name="ucircumflex" unicode="&#xfb;" horiz-adv-x="1536" 
d="M457 1278h-183l357 360h233l357 -360h-181q-235 197 -290 246q-216 -183 -293 -246zM680 -35q-77 0 -146 15.5t-132 50.5t-109 86.5t-73 129.5t-27 175v711h190v-644q0 -93 29 -164t79.5 -111.5t110.5 -60.5t129 -20q93 0 170.5 32t126.5 85t75.5 118t26.5 134v631h191
v-779q0 -125 10 -200t35 -154h-192q-36 115 -33 190h-4q-72 -113 -189.5 -169t-267.5 -56z" />
    <glyph glyph-name="udieresis" unicode="&#xfc;" horiz-adv-x="1536" 
d="M520 1352q-58 0 -97.5 36t-39.5 89q0 48 39.5 83t97.5 35q57 0 96 -35t39 -83q0 -53 -38.5 -89t-96.5 -36zM975 1352q-59 0 -98 36t-39 89q0 48 39 83t98 35q55 0 95 -35t40 -83q0 -52 -39.5 -88.5t-95.5 -36.5zM680 -35q-77 0 -146 15.5t-132 50.5t-109 86.5t-73 129.5
t-27 175v711h190v-644q0 -93 29 -164t79.5 -111.5t110.5 -60.5t129 -20q93 0 170.5 32t126.5 85t75.5 118t26.5 134v631h191v-779q0 -125 10 -200t35 -154h-192q-36 115 -33 190h-4q-72 -113 -189.5 -169t-267.5 -56z" />
    <glyph glyph-name="yacute" unicode="&#xfd;" horiz-adv-x="1351" 
d="M1108 1667l-373 -389h-168l289 389h252zM565 -451h-186l203 426l-549 1158h211q146 -296 434 -922h4q260 569 430 922h207z" />
    <glyph glyph-name="thorn" unicode="&#xfe;" horiz-adv-x="1644" 
d="M403 -451h-192v2089h192v-723h7q82 124 212.5 187t290.5 63q132 0 247 -45.5t197 -125t129.5 -191t47.5 -238.5q0 -176 -84.5 -314t-227.5 -212t-317 -74q-159 0 -287.5 61t-207.5 177h-7v-654zM872 133q199 0 329 123t130 309q0 188 -131 311t-328 123q-129 0 -237 -55
t-172 -155t-64 -224q0 -126 65 -225.5t172.5 -153t235.5 -53.5z" />
    <glyph glyph-name="ydieresis" unicode="&#xff;" horiz-adv-x="1351" 
d="M436 1352q-58 0 -97.5 36t-39.5 89q0 48 39.5 83t97.5 35q57 0 96 -35t39 -83q0 -53 -38.5 -89t-96.5 -36zM891 1352q-59 0 -98 36t-39 89q0 48 39 83t98 35q55 0 95 -35t40 -83q0 -52 -39.5 -88.5t-95.5 -36.5zM565 -451h-186l203 426l-549 1158h211q146 -296 434 -922
h4q260 569 430 922h207z" />
    <glyph glyph-name="Amacron" unicode="&#x100;" horiz-adv-x="1824" 
d="M1321 1810h-819v144h819v-144zM244 0h-213l770 1597h225l770 -1597h-215q-25 50 -77 153.5t-97.5 194t-85.5 172.5h-823zM584 700h651q-191 387 -320 674h-6q-72 -157 -325 -674z" />
    <glyph glyph-name="amacron" unicode="&#x101;" horiz-adv-x="1415" 
d="M1130 1391h-825v137h825v-137zM547 -35q-119 0 -215.5 32t-158.5 103t-62 170q0 64 26.5 116t69 87.5t107 64t130 46t148.5 32.5q30 5 74 12t72.5 11.5t65.5 11t61 13t51.5 15.5t44.5 20.5t32 25.5t22 33t7 41q0 88 -91.5 152.5t-234.5 64.5q-129 0 -223 -58.5
t-131 -162.5l-184 57q38 107 127 179.5t195 103t225 30.5q81 0 155 -14t140 -45t114.5 -75t76.5 -108t28 -141v-428q0 -130 10 -204t33 -150h-191q-33 90 -33 211h-6q-67 -112 -190.5 -179t-294.5 -67zM582 109q97 0 182.5 32.5t140 82.5t86 108.5t31.5 113.5v138
q-61 -31 -123.5 -49t-189.5 -39q-40 -7 -59.5 -10.5t-62 -12.5t-67 -17.5t-61 -21.5t-57.5 -28t-43 -34.5t-32 -44.5t-10 -53q0 -76 73.5 -120.5t191.5 -44.5z" />
    <glyph glyph-name="Abreve" unicode="&#x102;" horiz-adv-x="1824" 
d="M911 1722q-102 0 -188 29t-143 76.5t-90 107.5t-37 125h172q6 -79 87.5 -139.5t198.5 -60.5q118 0 199.5 60.5t87.5 139.5h170q-5 -135 -130.5 -236.5t-326.5 -101.5zM244 0h-213l770 1597h225l770 -1597h-215q-25 50 -77 153.5t-97.5 194t-85.5 172.5h-823zM584 700h651
q-191 387 -320 674h-6q-72 -157 -325 -674z" />
    <glyph glyph-name="abreve" unicode="&#x103;" horiz-adv-x="1415" 
d="M717 1274q-205 0 -324 110.5t-127 284.5h168q3 -112 81.5 -185t205.5 -73q126 0 204 71t83 187h168q-8 -175 -129 -285t-330 -110zM547 -35q-119 0 -215.5 32t-158.5 103t-62 170q0 64 26.5 116t69 87.5t107 64t130 46t148.5 32.5q30 5 74 12t72.5 11.5t65.5 11t61 13
t51.5 15.5t44.5 20.5t32 25.5t22 33t7 41q0 88 -91.5 152.5t-234.5 64.5q-129 0 -223 -58.5t-131 -162.5l-184 57q38 107 127 179.5t195 103t225 30.5q81 0 155 -14t140 -45t114.5 -75t76.5 -108t28 -141v-428q0 -130 10 -204t33 -150h-191q-33 90 -33 211h-6
q-67 -112 -190.5 -179t-294.5 -67zM582 109q97 0 182.5 32.5t140 82.5t86 108.5t31.5 113.5v138q-61 -31 -123.5 -49t-189.5 -39q-40 -7 -59.5 -10.5t-62 -12.5t-67 -17.5t-61 -21.5t-57.5 -28t-43 -34.5t-32 -44.5t-10 -53q0 -76 73.5 -120.5t191.5 -44.5z" />
    <glyph glyph-name="Aogonek" unicode="&#x104;" horiz-adv-x="1824" 
d="M1745 -342q51 0 104 14v-118q-67 -17 -127 -17q-142 0 -237.5 62t-95.5 172q0 69 51.5 128t142.5 101h-2q-25 50 -77 153.5t-97.5 194t-85.5 172.5h-823l-254 -520h-213l770 1597h225l770 -1597h-53q-103 -34 -156 -86.5t-53 -108.5q0 -63 58.5 -105t152.5 -42zM584 700
h651q-191 387 -320 674h-6q-72 -157 -325 -674z" />
    <glyph glyph-name="aogonek" unicode="&#x105;" horiz-adv-x="1415" 
d="M1219 -336q55 0 108 14v-127q-63 -14 -125 -14q-140 0 -234 62.5t-94 169.5q0 144 199 231h-2q-33 90 -33 211h-6q-67 -112 -190.5 -179t-294.5 -67q-119 0 -215.5 32t-158.5 103t-62 170q0 64 26.5 116t69 87.5t107 64t130 46t148.5 32.5q30 5 74 12t72.5 11.5t65.5 11
t61 13t51.5 15.5t44.5 20.5t32 25.5t22 33t7 41q0 88 -91.5 152.5t-234.5 64.5q-129 0 -223 -58.5t-131 -162.5l-184 57q38 107 127 179.5t195 103t225 30.5q81 0 155 -14t140 -45t114.5 -75t76.5 -108t28 -141v-428q0 -130 10 -204t33 -150h-39q-101 -36 -153 -86.5
t-52 -108.5q0 -63 57.5 -102t143.5 -39zM1022 446v138q-61 -31 -123.5 -49t-189.5 -39q-40 -7 -59.5 -10.5t-62 -12.5t-67 -17.5t-61 -21.5t-57.5 -28t-43 -34.5t-32 -44.5t-10 -53q0 -76 73.5 -120.5t191.5 -44.5q97 0 182.5 32.5t140 82.5t86 108.5t31.5 113.5z" />
    <glyph glyph-name="Cacute" unicode="&#x106;" horiz-adv-x="2062" 
d="M1516 2056l-404 -336h-176l307 336h273zM1098 -35q-210 0 -390.5 61t-309 169.5t-201 263.5t-72.5 338q0 187 76.5 345t207 264t305.5 165t371 59q186 0 353.5 -53t300 -162.5t194.5 -261.5l-184 -70q-86 171 -264 270t-400 99q-151 0 -285.5 -45.5t-236.5 -129
t-161.5 -209.5t-59.5 -277q0 -130 44 -238.5t118 -183t173.5 -126.5t209.5 -76t227 -24q275 0 456 126t253 331l186 -61q-98 -268 -331 -421t-580 -153z" />
    <glyph glyph-name="cacute" unicode="&#x107;" horiz-adv-x="1495" 
d="M1194 1667l-373 -389h-168l289 389h252zM791 -35q-196 0 -350.5 74t-242 211t-87.5 315q0 268 189.5 434t487.5 166q199 0 358.5 -82.5t235.5 -246.5l-184 -68q-49 111 -159 171t-257 60q-212 0 -340.5 -123t-128.5 -311q0 -193 135.5 -312.5t348.5 -119.5
q166 0 285 72.5t178 195.5l178 -61q-77 -179 -249.5 -277t-397.5 -98z" />
    <glyph glyph-name="Cdotaccent" unicode="&#x10a;" horiz-adv-x="2062" 
d="M1044 1776q-63 0 -105 39t-42 96q0 53 42.5 91t104.5 38q61 0 104.5 -38t43.5 -91q0 -57 -43 -96t-105 -39zM1098 -35q-210 0 -390.5 61t-309 169.5t-201 263.5t-72.5 338q0 187 76.5 345t207 264t305.5 165t371 59q186 0 353.5 -53t300 -162.5t194.5 -261.5l-184 -70
q-86 171 -264 270t-400 99q-151 0 -285.5 -45.5t-236.5 -129t-161.5 -209.5t-59.5 -277q0 -130 44 -238.5t118 -183t173.5 -126.5t209.5 -76t227 -24q275 0 456 126t253 331l186 -61q-98 -268 -331 -421t-580 -153z" />
    <glyph glyph-name="cdotaccent" unicode="&#x10b;" horiz-adv-x="1495" 
d="M750 1386q-63 0 -105.5 39.5t-42.5 96.5q0 54 42.5 91.5t105.5 37.5q62 0 104.5 -37.5t42.5 -91.5q0 -57 -42.5 -96.5t-104.5 -39.5zM791 -35q-196 0 -350.5 74t-242 211t-87.5 315q0 268 189.5 434t487.5 166q199 0 358.5 -82.5t235.5 -246.5l-184 -68q-49 111 -159 171
t-257 60q-212 0 -340.5 -123t-128.5 -311q0 -193 135.5 -312.5t348.5 -119.5q166 0 285 72.5t178 195.5l178 -61q-77 -179 -249.5 -277t-397.5 -98z" />
    <glyph glyph-name="Ccaron" unicode="&#x10c;" horiz-adv-x="2062" 
d="M1303 2042h178l-324 -322h-229l-326 322h180q150 -114 260 -207q107 89 261 207zM1098 -35q-210 0 -390.5 61t-309 169.5t-201 263.5t-72.5 338q0 187 76.5 345t207 264t305.5 165t371 59q186 0 353.5 -53t300 -162.5t194.5 -261.5l-184 -70q-86 171 -264 270t-400 99
q-151 0 -285.5 -45.5t-236.5 -129t-161.5 -209.5t-59.5 -277q0 -130 44 -238.5t118 -183t173.5 -126.5t209.5 -76t227 -24q275 0 456 126t253 331l186 -61q-98 -268 -331 -421t-580 -153z" />
    <glyph glyph-name="ccaron" unicode="&#x10d;" horiz-adv-x="1495" 
d="M864 1284h-233l-357 369h183q51 -43 140.5 -118t152.5 -128q69 60 290 246h181zM791 -35q-196 0 -350.5 74t-242 211t-87.5 315q0 268 189.5 434t487.5 166q199 0 358.5 -82.5t235.5 -246.5l-184 -68q-49 111 -159 171t-257 60q-212 0 -340.5 -123t-128.5 -311
q0 -193 135.5 -312.5t348.5 -119.5q166 0 285 72.5t178 195.5l178 -61q-77 -179 -249.5 -277t-397.5 -98z" />
    <glyph glyph-name="Dcaron" unicode="&#x10e;" horiz-adv-x="1972" 
d="M1176 2042h178l-324 -322h-229l-326 322h180q150 -114 260 -207q107 89 261 207zM956 0h-706v1597h684q187 0 339.5 -40.5t257 -112t176 -171.5t104 -216t32.5 -248q0 -178 -61 -327t-173 -256t-280 -166.5t-373 -59.5zM455 174h503q308 0 490 161t182 460
q0 160 -54 281.5t-153 196.5t-233.5 112.5t-302.5 37.5h-432v-1249z" />
    <glyph glyph-name="dcaron" unicode="&#x10f;" horiz-adv-x="1644" 
d="M1692 1155h-123l162 264q-46 15 -72.5 48.5t-26.5 74.5q0 54 44 92.5t106 38.5t104.5 -37.5t42.5 -91.5q0 -42 -33 -97t-153 -221q-33 -46 -51 -71zM739 -35q-275 0 -452.5 169t-177.5 431q0 178 84.5 316t227.5 211t318 73q160 0 290 -61.5t206 -175.5h6v710h191v-1284
q0 -129 10.5 -205t32.5 -149h-191q-33 103 -33 205h-6q-78 -117 -212 -178.5t-294 -61.5zM770 133q198 0 335.5 122.5t137.5 311.5q0 125 -64 224.5t-171.5 153.5t-237.5 54q-198 0 -328.5 -123.5t-130.5 -310.5t131 -309.5t328 -122.5z" />
    <glyph glyph-name="Dcroat" unicode="&#x110;" horiz-adv-x="1972" 
d="M250 1597h684q187 0 339.5 -40.5t257 -112t176 -171.5t104 -216t32.5 -248q0 -178 -61 -327t-173 -256t-280 -166.5t-373 -59.5h-706v721h-213v153h213v723zM958 174q308 0 490 161t182 460q0 160 -54 281.5t-153 196.5t-233.5 112.5t-302.5 37.5h-432v-549h604v-153
h-604v-547h503z" />
    <glyph glyph-name="dcroat" unicode="&#x111;" horiz-adv-x="1644" 
d="M1749 1454v-141h-317v-959q0 -129 10.5 -205t32.5 -149h-191q-33 103 -33 205h-6q-78 -117 -212 -178.5t-294 -61.5q-275 0 -452.5 169t-177.5 431q0 178 84.5 316t227.5 211t318 73q160 0 290 -61.5t206 -175.5h6v385h-342v141h342v184h191v-184h317zM770 133
q198 0 335.5 122.5t137.5 311.5q0 125 -64 224.5t-171.5 153.5t-237.5 54q-198 0 -328.5 -123.5t-130.5 -310.5t131 -309.5t328 -122.5z" />
    <glyph glyph-name="Emacron" unicode="&#x112;" horiz-adv-x="1613" 
d="M1235 1810h-819v144h819v-144zM1487 0h-1237v1597h1212v-174h-1007v-514h958v-182h-958v-549h1032v-178z" />
    <glyph glyph-name="emacron" unicode="&#x113;" horiz-adv-x="1355" 
d="M1096 1391h-826v137h826v-137zM700 -35q-129 0 -240.5 43.5t-191.5 121t-126 189.5t-46 244q0 264 167.5 433t428.5 169q78 0 153 -17t150 -59t130.5 -105.5t90.5 -165.5t35 -230v-72h-966q7 -181 123 -286t294 -105q139 0 241.5 72t152.5 188l170 -63
q-68 -165 -218.5 -261t-347.5 -96zM293 684h768q-2 68 -25 124.5t-59.5 93.5t-84.5 62.5t-99 36.5t-105 11q-157 0 -263 -92.5t-132 -235.5z" />
    <glyph glyph-name="Edotaccent" unicode="&#x116;" horiz-adv-x="1613" 
d="M827 1776q-63 0 -105 39t-42 96q0 53 42.5 91t104.5 38q61 0 104.5 -38t43.5 -91q0 -57 -43 -96t-105 -39zM1487 0h-1237v1597h1212v-174h-1007v-514h958v-182h-958v-549h1032v-178z" />
    <glyph glyph-name="edotaccent" unicode="&#x117;" horiz-adv-x="1355" 
d="M684 1386q-63 0 -105 39.5t-42 96.5q0 54 42 91.5t105 37.5q62 0 104.5 -37.5t42.5 -91.5q0 -57 -42.5 -96.5t-104.5 -39.5zM700 -35q-129 0 -240.5 43.5t-191.5 121t-126 189.5t-46 244q0 264 167.5 433t428.5 169q78 0 153 -17t150 -59t130.5 -105.5t90.5 -165.5
t35 -230v-72h-966q7 -181 123 -286t294 -105q139 0 241.5 72t152.5 188l170 -63q-68 -165 -218.5 -261t-347.5 -96zM293 684h768q-2 68 -25 124.5t-59.5 93.5t-84.5 62.5t-99 36.5t-105 11q-157 0 -263 -92.5t-132 -235.5z" />
    <glyph glyph-name="Eogonek" unicode="&#x118;" horiz-adv-x="1613" 
d="M1489 -342q51 0 104 14v-118q-67 -17 -127 -17q-142 0 -237.5 62t-95.5 172q0 69 51.5 128t142.5 101h-1077v1597h1212v-174h-1007v-514h958v-182h-958v-549h1032v-178q-103 -34 -156 -86.5t-53 -108.5q0 -63 58.5 -105t152.5 -42z" />
    <glyph glyph-name="eogonek" unicode="&#x119;" horiz-adv-x="1355" 
d="M881 -12q-86 -35 -130 -82t-44 -101q0 -63 57 -102t143 -39q57 0 109 14v-127q-63 -14 -125 -14q-140 0 -234 62.5t-94 169.5q0 116 131 196q-259 2 -428.5 168t-169.5 430t167.5 433t428.5 169q78 0 153 -17t150 -59t130.5 -105.5t90.5 -165.5t35 -230v-72h-966
q7 -181 123 -286t294 -105q139 0 241.5 72t152.5 188l170 -63q-51 -125 -151.5 -212t-233.5 -122zM688 1012q-157 0 -263 -92.5t-132 -235.5h768q-2 68 -25 124.5t-59.5 93.5t-84.5 62.5t-99 36.5t-105 11z" />
    <glyph glyph-name="Ecaron" unicode="&#x11a;" horiz-adv-x="1613" 
d="M1085 2042h179l-324 -322h-229l-326 322h180q150 -114 260 -207q120 99 260 207zM1487 0h-1237v1597h1212v-174h-1007v-514h958v-182h-958v-549h1032v-178z" />
    <glyph glyph-name="ecaron" unicode="&#x11b;" horiz-adv-x="1355" 
d="M799 1284h-234l-356 369h182q51 -43 140.5 -118t152.5 -128q45 39 291 246h180zM700 -35q-129 0 -240.5 43.5t-191.5 121t-126 189.5t-46 244q0 264 167.5 433t428.5 169q78 0 153 -17t150 -59t130.5 -105.5t90.5 -165.5t35 -230v-72h-966q7 -181 123 -286t294 -105
q139 0 241.5 72t152.5 188l170 -63q-68 -165 -218.5 -261t-347.5 -96zM293 684h768q-2 68 -25 124.5t-59.5 93.5t-84.5 62.5t-99 36.5t-105 11q-157 0 -263 -92.5t-132 -235.5z" />
    <glyph glyph-name="Gbreve" unicode="&#x11e;" horiz-adv-x="2156" 
d="M1044 1722q-102 0 -188 29t-143 76.5t-90 107.5t-37 125h172q6 -79 87.5 -139.5t198.5 -60.5q118 0 199.5 60.5t87.5 139.5h170q-5 -135 -130.5 -236.5t-326.5 -101.5zM1075 -35q-205 0 -381.5 62t-301.5 170.5t-196 262.5t-71 333q0 187 75.5 345t205.5 265t305.5 167
t373.5 60q187 0 355.5 -54t300.5 -163.5t192 -259.5l-184 -70q-86 172 -263.5 270.5t-400.5 98.5q-150 0 -284.5 -45.5t-236.5 -128.5t-162 -209t-60 -278q0 -131 44 -240.5t118.5 -183.5t174 -125.5t207.5 -75t222 -23.5q282 0 468.5 137.5t211.5 352.5h-643v160h846v-793
h-164l-6 328h-13q-100 -173 -286.5 -268t-446.5 -95z" />
    <glyph glyph-name="gbreve" unicode="&#x11f;" horiz-adv-x="1642" 
d="M797 1274q-205 0 -324 110.5t-127 284.5h168q3 -112 81.5 -185t205.5 -73q125 0 203 71t83 187h168q-8 -175 -128.5 -285t-329.5 -110zM795 -483q-478 0 -619 329l176 58q102 -234 443 -234q92 0 168.5 23t140 73.5t99.5 141.5t36 215v115h-6q-76 -116 -207 -176
t-289 -60q-138 0 -256.5 46t-200 124.5t-128 185.5t-46.5 228q0 167 83.5 300t227 206t318.5 73q161 0 294.5 -63t209.5 -178h4v209h187v-1000q0 -136 -32 -241.5t-88 -175.5t-137 -115t-174 -64.5t-204 -19.5zM768 170q196 0 334.5 121.5t138.5 298.5q0 176 -137.5 292.5
t-335.5 116.5q-197 0 -328 -118.5t-131 -292.5q0 -175 132.5 -296.5t326.5 -121.5z" />
    <glyph glyph-name="Gdotaccent" unicode="&#x120;" horiz-adv-x="2156" 
d="M1044 1776q-63 0 -105 39t-42 96q0 53 42.5 91t104.5 38q61 0 104.5 -38t43.5 -91q0 -57 -43 -96t-105 -39zM1075 -35q-205 0 -381.5 62t-301.5 170.5t-196 262.5t-71 333q0 187 75.5 345t205.5 265t305.5 167t373.5 60q187 0 355.5 -54t300.5 -163.5t192 -259.5
l-184 -70q-86 172 -263.5 270.5t-400.5 98.5q-150 0 -284.5 -45.5t-236.5 -128.5t-162 -209t-60 -278q0 -131 44 -240.5t118.5 -183.5t174 -125.5t207.5 -75t222 -23.5q282 0 468.5 137.5t211.5 352.5h-643v160h846v-793h-164l-6 328h-13q-100 -173 -286.5 -268t-446.5 -95z
" />
    <glyph glyph-name="gdotaccent" unicode="&#x121;" horiz-adv-x="1642" 
d="M801 1386q-63 0 -105.5 39.5t-42.5 96.5q0 54 42.5 91.5t105.5 37.5q62 0 104.5 -37.5t42.5 -91.5q0 -57 -42.5 -96.5t-104.5 -39.5zM795 -483q-478 0 -619 329l176 58q102 -234 443 -234q92 0 168.5 23t140 73.5t99.5 141.5t36 215v115h-6q-76 -116 -207 -176t-289 -60
q-138 0 -256.5 46t-200 124.5t-128 185.5t-46.5 228q0 167 83.5 300t227 206t318.5 73q161 0 294.5 -63t209.5 -178h4v209h187v-1000q0 -136 -32 -241.5t-88 -175.5t-137 -115t-174 -64.5t-204 -19.5zM768 170q196 0 334.5 121.5t138.5 298.5q0 176 -137.5 292.5
t-335.5 116.5q-197 0 -328 -118.5t-131 -292.5q0 -175 132.5 -296.5t326.5 -121.5z" />
    <glyph glyph-name="uni0122" unicode="&#x122;" horiz-adv-x="2156" 
d="M1075 -35q-205 0 -381.5 62t-301.5 170.5t-196 262.5t-71 333q0 187 75.5 345t205.5 265t305.5 167t373.5 60q187 0 355.5 -54t300.5 -163.5t192 -259.5l-184 -70q-86 172 -263.5 270.5t-400.5 98.5q-150 0 -284.5 -45.5t-236.5 -128.5t-162 -209t-60 -278
q0 -131 44 -240.5t118.5 -183.5t174 -125.5t207.5 -75t222 -23.5q282 0 468.5 137.5t211.5 352.5h-643v160h846v-793h-164l-6 328h-13q-100 -173 -286.5 -268t-446.5 -95zM1020 -557h-98l122 207q-52 13 -79 45t-27 72q0 51 40 84.5t99 33.5t98 -33.5t39 -84.5
q0 -41 -29 -89t-130 -187q-23 -31 -35 -48z" />
    <glyph glyph-name="uni0123" unicode="&#x123;" horiz-adv-x="1642" 
d="M637 1378q0 11 1.5 21t6.5 23t9.5 23.5t16 30t21 34t29.5 43t35.5 50.5t44.5 64t53 76h121l-152 -248q41 -14 65.5 -44.5t24.5 -70.5q0 -52 -40 -86t-99 -34t-98 33.5t-39 84.5zM795 -483q-478 0 -619 329l176 58q102 -234 443 -234q92 0 168.5 23t140 73.5t99.5 141.5
t36 215v115h-6q-76 -116 -207 -176t-289 -60q-138 0 -256.5 46t-200 124.5t-128 185.5t-46.5 228q0 167 83.5 300t227 206t318.5 73q161 0 294.5 -63t209.5 -178h4v209h187v-1000q0 -136 -32 -241.5t-88 -175.5t-137 -115t-174 -64.5t-204 -19.5zM768 170q196 0 334.5 121.5
t138.5 298.5q0 176 -137.5 292.5t-335.5 116.5q-197 0 -328 -118.5t-131 -292.5q0 -175 132.5 -296.5t326.5 -121.5z" />
    <glyph glyph-name="Hbar" unicode="&#x126;" horiz-adv-x="1986" 
d="M1737 1303h170v-150h-170v-1153h-203v711h-1079v-711h-205v1153h-168v150h168v294h205v-294h1079v294h203v-294zM455 891h1079v262h-1079v-262z" />
    <glyph glyph-name="hbar" unicode="&#x127;" horiz-adv-x="1558" 
d="M872 1165q75 0 144.5 -14.5t134 -49t111.5 -85.5t75.5 -129.5t28.5 -175.5v-711h-190v633q0 177 -100 271.5t-257 94.5q-190 0 -303 -110.5t-113 -270.5v-618h-192v1309h-234v141h234v188h192v-188h424v-141h-424v-379h7q75 120 194.5 177.5t267.5 57.5z" />
    <glyph glyph-name="Imacron" unicode="&#x12a;" horiz-adv-x="704" 
d="M762 1810h-819v144h819v-144zM455 0h-205v1597h205v-1597z" />
    <glyph glyph-name="imacron" unicode="&#x12b;" horiz-adv-x="614" 
d="M721 1384h-825v138h825v-138zM403 0h-192v1133h192v-1133z" />
    <glyph glyph-name="Iogonek" unicode="&#x12e;" horiz-adv-x="704" 
d="M459 -342q51 0 104 14v-118q-67 -17 -127 -17q-92 0 -166.5 26t-121 80.5t-46.5 127.5q0 69 51.5 128t143.5 101h-47v1597h205v-1597h2q-103 -34 -156 -86.5t-53 -108.5q0 -63 58.5 -105t152.5 -42z" />
    <glyph glyph-name="iogonek" unicode="&#x12f;" horiz-adv-x="614" 
d="M309 1380q-63 0 -105 39.5t-42 96.5q0 54 42 91.5t105 37.5q62 0 105 -37.5t43 -91.5q0 -57 -43 -96.5t-105 -39.5zM385 -336q56 0 109 14v-127q-63 -14 -125 -14q-140 0 -234 62.5t-94 169.5q0 144 199 231h-29v1133h192v-1133h-14q-101 -36 -153 -86.5t-52 -108.5
q0 -63 57.5 -102t143.5 -39z" />
    <glyph glyph-name="Idotaccent" unicode="&#x130;" horiz-adv-x="704" 
d="M352 1776q-63 0 -105 39t-42 96q0 53 42.5 91t104.5 38q61 0 104.5 -38t43.5 -91q0 -57 -43 -96t-105 -39zM455 0h-205v1597h205v-1597z" />
    <glyph glyph-name="dotlessi" unicode="&#x131;" horiz-adv-x="614" 
d="M403 0h-192v1133h192v-1133z" />
    <glyph glyph-name="uni0136" unicode="&#x136;" horiz-adv-x="1658" 
d="M455 0h-205v1597h205v-821h6q341 318 921 821h244q-358 -321 -776 -698q692 -763 819 -899h-248q-93 98 -247 265t-469 497q-96 -92 -250 -227v-535zM836 -557h-99l123 207q-52 13 -79 45t-27 72q0 51 40 84.5t99 33.5t98 -33.5t39 -84.5q0 -41 -29 -89t-130 -187
q-23 -31 -35 -48z" />
    <glyph glyph-name="uni0137" unicode="&#x137;" horiz-adv-x="1304" 
d="M1241 1133l-510 -451l594 -682h-223l-504 563l-195 -172v-391h-192v1638h192v-1020h7q482 416 598 515h233zM694 -115q59 0 98 -33.5t39 -84.5q0 -41 -29 -89t-130 -187q-23 -31 -35 -48h-98l123 207q-52 13 -79.5 45t-27.5 72q0 51 40 84.5t99 33.5z" />
    <glyph glyph-name="Lacute" unicode="&#x139;" horiz-adv-x="1449" 
d="M606 2056h273l-404 -336h-176zM455 1597v-1419h960v-178h-1165v1597h205z" />
    <glyph glyph-name="lacute" unicode="&#x13a;" horiz-adv-x="614" 
d="M817 2097l-403 -336h-176l307 336h272zM403 0h-192v1638h192v-1638z" />
    <glyph glyph-name="uni013B" unicode="&#x13b;" horiz-adv-x="1449" 
d="M455 1597v-1419h960v-178h-1165v1597h205zM778 -115q59 0 98 -33.5t39 -84.5q0 -41 -29 -89t-130 -187q-23 -31 -35 -48h-98l122 207q-52 13 -79 45t-27 72q0 51 40 84.5t99 33.5z" />
    <glyph glyph-name="uni013C" unicode="&#x13c;" horiz-adv-x="614" 
d="M403 0h-192v1638h192v-1638zM258 -557h-98l123 207q-52 13 -79.5 45t-27.5 72q0 51 40 84.5t99 33.5t98.5 -33.5t39.5 -84.5q0 -40 -27 -85.5t-126 -180.5q-27 -37 -42 -58z" />
    <glyph glyph-name="Lcaron" unicode="&#x13d;" horiz-adv-x="1449" 
d="M930 1128h-121l160 263q-46 15 -71.5 49t-25.5 76q0 54 44 91.5t106 37.5q60 0 103.5 -37.5t43.5 -91.5q0 -44 -41 -108.5t-198 -279.5zM455 1597v-1419h960v-178h-1165v1597h205z" />
    <glyph glyph-name="lcaron" unicode="&#x13e;" horiz-adv-x="614" 
d="M702 1128h-122l161 263q-48 14 -73 48t-25 77q0 54 44 91.5t106 37.5q60 0 103.5 -37.5t43.5 -91.5q0 -42 -38 -103.5t-167 -239.5q-22 -29 -33 -45zM403 0h-192v1638h192v-1638z" />
    <glyph glyph-name="Lslash" unicode="&#x141;" horiz-adv-x="1449" 
d="M455 834v-656h960v-178h-1165v752l-205 -80v162l205 79v684h205v-602l344 135v-161z" />
    <glyph glyph-name="lslash" unicode="&#x142;" horiz-adv-x="614" 
d="M403 1063l246 151v-159l-246 -152v-903h-192v786l-234 -143v158l234 143v694h192v-575z" />
    <glyph glyph-name="Nacute" unicode="&#x143;" horiz-adv-x="2023" 
d="M1460 2056l-403 -336h-176l307 336h272zM455 0h-205v1597h219q804 -931 1096 -1282h6v1282h203v-1597h-220q-106 123 -494.5 567.5t-600.5 696.5h-4v-1264z" />
    <glyph glyph-name="nacute" unicode="&#x144;" horiz-adv-x="1558" 
d="M1219 1667l-373 -389h-168l289 389h252zM403 0h-192v1133h188v-203h4q75 120 198 177.5t273 57.5q75 0 144 -14.5t133.5 -49t111.5 -85.5t75 -129.5t28 -175.5v-711h-190v633q0 177 -100 271.5t-257 94.5q-190 0 -303 -110.5t-113 -270.5v-618z" />
    <glyph glyph-name="uni0145" unicode="&#x145;" horiz-adv-x="2023" 
d="M455 0h-205v1597h219q804 -931 1096 -1282h6v1282h203v-1597h-220q-106 123 -494.5 567.5t-600.5 696.5h-4v-1264zM989 -557h-98l123 207q-52 13 -79.5 45t-27.5 72q0 51 40.5 84.5t99.5 33.5t98 -33.5t39 -84.5q0 -40 -27 -85.5t-126 -180.5q-27 -37 -42 -58z" />
    <glyph glyph-name="uni0146" unicode="&#x146;" horiz-adv-x="1558" 
d="M403 0h-192v1133h188v-203h4q75 120 198 177.5t273 57.5q75 0 144 -14.5t133.5 -49t111.5 -85.5t75 -129.5t28 -175.5v-711h-190v633q0 177 -100 271.5t-257 94.5q-190 0 -303 -110.5t-113 -270.5v-618zM768 -557h-98l123 207q-52 13 -79.5 45t-27.5 72q0 51 40 84.5
t99 33.5t98.5 -33.5t39.5 -84.5q0 -40 -27 -85.5t-126 -180.5q-27 -37 -42 -58z" />
    <glyph glyph-name="Ncaron" unicode="&#x147;" horiz-adv-x="2023" 
d="M1247 2042h178l-323 -322h-230l-325 322h180q150 -114 260 -207q120 99 260 207zM455 0h-205v1597h219q804 -931 1096 -1282h6v1282h203v-1597h-220q-106 123 -494.5 567.5t-600.5 696.5h-4v-1264z" />
    <glyph glyph-name="ncaron" unicode="&#x148;" horiz-adv-x="1558" 
d="M889 1284h-234l-356 369h182q51 -43 140.5 -118t152.5 -128q45 39 291 246h180zM403 0h-192v1133h188v-203h4q75 120 198 177.5t273 57.5q75 0 144 -14.5t133.5 -49t111.5 -85.5t75 -129.5t28 -175.5v-711h-190v633q0 177 -100 271.5t-257 94.5q-190 0 -303 -110.5
t-113 -270.5v-618z" />
    <glyph glyph-name="Eng" unicode="&#x14a;" horiz-adv-x="2023" 
d="M1274 -483q-85 0 -167 14.5t-132 38.5v164q103 -53 254 -53q161 0 248.5 81t87.5 228q-118 136 -345.5 395.5t-416 476.5t-348.5 406v-1268h-205v1597h219q804 -931 1096 -1282h6v1282h203v-1538q0 -53 -4.5 -101t-18.5 -104.5t-36.5 -103t-61 -91t-89.5 -75t-125 -49
t-165 -18.5z" />
    <glyph glyph-name="eng" unicode="&#x14b;" horiz-adv-x="1558" 
d="M975 -483q-151 0 -260 53v160q114 -54 223 -54q49 0 88 12t63.5 29t42 46.5t26 53t13 61t5 57.5t0.5 55v643q0 177 -100 271.5t-257 94.5q-190 0 -303 -110.5t-113 -270.5v-618h-192v1133h188v-203h4q75 120 198 177.5t273 57.5q75 0 144 -14.5t133.5 -48t111.5 -83.5
t75 -127t28 -173v-733q0 -53 -1 -83t-8.5 -86t-21 -90.5t-42.5 -79t-69.5 -69.5t-104 -43t-144.5 -18z" />
    <glyph glyph-name="Omacron" unicode="&#x14c;" horiz-adv-x="2174" 
d="M1493 1810h-819v144h819v-144zM1087 -35q-195 0 -372 62.5t-307.5 171t-207.5 264.5t-77 334q0 177 76 333t206 265t307.5 172t374.5 63q200 0 378.5 -64t306.5 -174.5t203 -265.5t75 -329q0 -175 -75.5 -330t-204.5 -264.5t-307 -173.5t-376 -64zM1090 143
q199 0 368.5 84t271 235t101.5 335q0 138 -59.5 260.5t-159.5 208.5t-236.5 136t-285.5 50q-150 0 -287 -49.5t-239.5 -134.5t-163 -208t-60.5 -263q0 -186 103.5 -337t274.5 -234t372 -83z" />
    <glyph glyph-name="omacron" unicode="&#x14d;" horiz-adv-x="1585" 
d="M1206 1391h-825v137h825v-137zM795 -35q-198 0 -354 75.5t-243 212.5t-87 312q0 174 87 311t243 213t354 76q197 0 352.5 -76t242.5 -213t87 -311q0 -175 -87 -312t-242.5 -212.5t-352.5 -75.5zM795 133q212 0 344.5 120.5t132.5 311.5t-132.5 312.5t-344.5 121.5
t-347 -121.5t-135 -312.5q0 -190 135 -311t347 -121z" />
    <glyph glyph-name="Ohungarumlaut" unicode="&#x150;" horiz-adv-x="2174" 
d="M1266 2054l-340 -334h-170l256 334h254zM1681 2054l-358 -334h-172l274 334h256zM1087 -35q-195 0 -372 62.5t-307.5 171t-207.5 264.5t-77 334q0 177 76 333t206 265t307.5 172t374.5 63q200 0 378.5 -64t306.5 -174.5t203 -265.5t75 -329q0 -175 -75.5 -330
t-204.5 -264.5t-307 -173.5t-376 -64zM1090 143q199 0 368.5 84t271 235t101.5 335q0 138 -59.5 260.5t-159.5 208.5t-236.5 136t-285.5 50q-150 0 -287 -49.5t-239.5 -134.5t-163 -208t-60.5 -263q0 -186 103.5 -337t274.5 -234t372 -83z" />
    <glyph glyph-name="ohungarumlaut" unicode="&#x151;" horiz-adv-x="1585" 
d="M969 1673l-342 -395h-166l258 395h250zM1389 1673l-363 -395h-166l279 395h250zM795 -35q-198 0 -354 75.5t-243 212.5t-87 312q0 174 87 311t243 213t354 76q197 0 352.5 -76t242.5 -213t87 -311q0 -175 -87 -312t-242.5 -212.5t-352.5 -75.5zM795 133
q212 0 344.5 120.5t132.5 311.5t-132.5 312.5t-344.5 121.5t-347 -121.5t-135 -312.5q0 -190 135 -311t347 -121z" />
    <glyph glyph-name="OE" unicode="&#x152;" horiz-adv-x="3190" 
d="M1083 -35q-195 0 -370.5 62.5t-305 171t-206 264.5t-76.5 334q0 177 76 333t205 265t305.5 172t373.5 63q239 0 437 -87.5t321 -242.5v297h1196v-174h-1003v-514h954v-182h-954v-549h1028v-178h-1221v295q-123 -154 -322 -242t-438 -88zM1087 143q148 0 284 49.5t237 135
t161 208.5t60 263q0 139 -59.5 261.5t-160 207.5t-236 134.5t-283.5 49.5q-151 0 -288.5 -49.5t-239 -135t-162 -208t-60.5 -262.5t60.5 -262.5t162 -208t238 -134.5t286.5 -49z" />
    <glyph glyph-name="oe" unicode="&#x153;" horiz-adv-x="2686" 
d="M795 -35q-198 0 -354 75.5t-243 212.5t-87 312q0 174 87 311t243 213t354 76q194 0 345.5 -72.5t231.5 -199.5q79 127 228.5 199.5t341.5 72.5q86 0 168.5 -17t167 -59t147.5 -105.5t103 -165.5t40 -230v-45h-1102q6 -186 142.5 -302t341.5 -116q160 0 278.5 72
t177.5 188l177 -63q-76 -167 -247 -262t-390 -95q-194 0 -345 72.5t-229 200.5q-80 -127 -232 -200t-345 -73zM1475 668h890q-4 73 -31.5 132t-69.5 98t-97.5 65t-113.5 37.5t-120 11.5q-182 0 -305 -94t-153 -250zM795 133q212 0 344.5 120.5t132.5 311.5t-132.5 312.5
t-344.5 121.5t-347 -121.5t-135 -312.5q0 -190 135 -311t347 -121z" />
    <glyph glyph-name="Racute" unicode="&#x154;" horiz-adv-x="1705" 
d="M1255 2056l-403 -336h-176l307 336h272zM455 0h-205v1597h682q96 0 185 -16.5t172 -54t144 -92.5t97.5 -137.5t36.5 -184.5q0 -206 -135 -331.5t-351 -149.5v-2q84 -105 254 -314.5t254 -314.5h-227l-504 618h-403v-618zM455 788h454q202 0 323.5 80t121.5 236
q0 103 -62 177t-163.5 109t-231.5 35h-442v-637z" />
    <glyph glyph-name="racute" unicode="&#x155;" horiz-adv-x="1017" 
d="M1008 1667l-373 -389h-168l289 389h252zM403 0h-192v1133h188v-218h11q52 111 168 180.5t260 69.5q92 0 153 -20v-197q-77 25 -168 25q-86 0 -157.5 -27.5t-119 -72.5t-80.5 -104.5t-48 -122t-15 -126.5v-520z" />
    <glyph glyph-name="uni0156" unicode="&#x156;" horiz-adv-x="1705" 
d="M455 0h-205v1597h682q96 0 185 -16.5t172 -54t144 -92.5t97.5 -137.5t36.5 -184.5q0 -206 -135 -331.5t-351 -149.5v-2q84 -105 254 -314.5t254 -314.5h-227l-504 618h-403v-618zM455 788h454q202 0 323.5 80t121.5 236q0 103 -62 177t-163.5 109t-231.5 35h-442v-637z
M811 -557h-98l123 207q-52 13 -79.5 45t-27.5 72q0 51 40 84.5t99 33.5t98.5 -33.5t39.5 -84.5q0 -40 -27 -85.5t-126 -180.5q-27 -37 -42 -58z" />
    <glyph glyph-name="uni0157" unicode="&#x157;" horiz-adv-x="1017" 
d="M403 0h-192v1133h188v-218h11q52 111 168 180.5t260 69.5q92 0 153 -20v-197q-77 25 -168 25q-86 0 -157.5 -27.5t-119 -72.5t-80.5 -104.5t-48 -122t-15 -126.5v-520zM250 -557h-98l122 207q-52 13 -79 45t-27 72q0 51 40 84.5t99 33.5t98 -33.5t39 -84.5q0 -41 -29 -89
t-130 -187q-23 -31 -35 -48z" />
    <glyph glyph-name="Rcaron" unicode="&#x158;" horiz-adv-x="1705" 
d="M1042 2042h179l-324 -322h-229l-326 322h180q150 -114 260 -207q120 99 260 207zM455 0h-205v1597h682q96 0 185 -16.5t172 -54t144 -92.5t97.5 -137.5t36.5 -184.5q0 -206 -135 -331.5t-351 -149.5v-2q84 -105 254 -314.5t254 -314.5h-227l-504 618h-403v-618zM455 788
h454q202 0 323.5 80t121.5 236q0 103 -62 177t-163.5 109t-231.5 35h-442v-637z" />
    <glyph glyph-name="rcaron" unicode="&#x159;" horiz-adv-x="1017" 
d="M678 1284h-234l-356 369h182q51 -43 140.5 -118t152.5 -128q45 39 291 246h180zM403 0h-192v1133h188v-218h11q52 111 168 180.5t260 69.5q92 0 153 -20v-197q-77 25 -168 25q-86 0 -157.5 -27.5t-119 -72.5t-80.5 -104.5t-48 -122t-15 -126.5v-520z" />
    <glyph glyph-name="Sacute" unicode="&#x15a;" horiz-adv-x="1589" 
d="M1186 2054l-406 -334h-176l307 334h275zM819 -35q-116 0 -225 27t-208 81t-176.5 146.5t-117.5 214.5l191 64q58 -178 202 -268.5t334 -90.5q81 0 157 16.5t140.5 49.5t104 88.5t39.5 126.5q0 43 -13 78t-46 62t-57 44t-81 36t-79.5 25.5t-88.5 22.5q-21 5 -31 8l-178 47
q-48 12 -86.5 23t-95.5 32.5t-100.5 44.5t-91 59t-78.5 76.5t-51.5 95.5t-20.5 118q0 104 53 189t141.5 138.5t199.5 82t232 28.5q230 0 404 -103t235 -276l-184 -71q-52 128 -175.5 202t-295.5 74q-168 0 -283.5 -69.5t-115.5 -180.5q0 -44 19.5 -82.5t53 -67t72.5 -51.5
t84.5 -40t82 -28t71.5 -21l12 -3l190 -51q180 -48 253 -78q223 -93 260 -264q8 -37 8 -76q0 -140 -90 -250.5t-240 -169.5t-330 -59z" />
    <glyph glyph-name="sacute" unicode="&#x15b;" horiz-adv-x="1226" 
d="M1053 1669l-373 -389h-168l289 389h252zM643 -35q-204 0 -357.5 87t-207.5 231l178 55q50 -103 157.5 -162t229.5 -59q44 0 90.5 9t92.5 28t75 56t29 85q0 25 -9 46.5t-22 36.5t-37 29.5t-43 23t-52.5 18.5t-52.5 15t-55 13l-133 31q-385 93 -385 330q0 78 40 142
t106 103.5t147 60.5t166 21q176 0 308 -78t179 -200l-182 -58q-35 80 -119 134.5t-202 54.5q-107 0 -177.5 -46t-70.5 -120q0 -36 20.5 -66.5t48 -50t74 -38t79 -27.5t81.5 -21l125 -28q155 -37 230 -80q140 -82 141 -226q0 -152 -137.5 -251t-354.5 -99z" />
    <glyph glyph-name="Scedilla" unicode="&#x15e;" horiz-adv-x="1589" 
d="M1479 444q0 -135 -83.5 -242.5t-224 -168.5t-311.5 -68l-94 -108q35 14 94 14q98 0 162.5 -48t64.5 -126q0 -88 -80.5 -142.5t-203.5 -54.5q-93 0 -175.5 31.5t-135.5 85.5l75 74q40 -43 102 -67.5t126 -24.5q67 0 111 27t44 69t-40.5 68t-102.5 26q-63 0 -115 -27
l-74 56l119 151q-106 9 -202.5 40t-183.5 86t-155 141.5t-104 197.5l191 64q58 -178 202 -268.5t334 -90.5q81 0 157 16.5t140.5 49.5t104 88.5t39.5 126.5q0 43 -13 78t-46 62t-57 44t-81 36t-79.5 25.5t-88.5 22.5q-21 5 -31 8l-178 47q-48 12 -86.5 23t-95.5 32.5
t-100.5 44.5t-91 59t-78.5 76.5t-51.5 95.5t-20.5 118q0 104 53 189t141.5 138.5t199.5 82t232 28.5q230 0 404 -103t235 -276l-184 -71q-52 128 -175.5 202t-295.5 74q-168 0 -283.5 -69.5t-115.5 -180.5q0 -44 19.5 -82.5t53 -67t72.5 -51.5t84.5 -40t82 -28t71.5 -21
l12 -3l190 -51q180 -48 253 -78q223 -93 260 -264q8 -37 8 -76z" />
    <glyph glyph-name="scedilla" unicode="&#x15f;" horiz-adv-x="1226" 
d="M1135 315q0 -145 -127 -243t-330 -107l-94 -108q35 14 94 14q98 0 162.5 -48t64.5 -126q0 -88 -80.5 -142.5t-203.5 -54.5q-93 0 -176 31.5t-136 85.5l76 74q41 -43 102 -67.5t125 -24.5q67 0 111.5 27t44.5 69t-40.5 68t-102.5 26q-63 0 -115 -27l-74 56l119 151
q-174 19 -302 103t-175 211l178 55q50 -103 157.5 -162t229.5 -59q44 0 90.5 9t92.5 28t75 56t29 85q0 25 -9 46.5t-22 36.5t-37 29.5t-43 23t-52.5 18.5t-52.5 15t-55 13l-133 31q-385 93 -385 330q0 78 40 142t106 103.5t147 60.5t166 21q176 0 308 -78t179 -200l-182 -58
q-35 80 -119 134.5t-202 54.5q-107 0 -177.5 -46t-70.5 -120q0 -36 20.5 -66.5t48 -50t74 -38t79 -27.5t81.5 -21l125 -28q155 -37 230 -80q140 -82 141 -226z" />
    <glyph glyph-name="Scaron" unicode="&#x160;" horiz-adv-x="1589" 
d="M1042 2042h179l-324 -322h-229l-326 322h180q150 -114 260 -207q120 99 260 207zM819 -35q-116 0 -225 27t-208 81t-176.5 146.5t-117.5 214.5l191 64q58 -178 202 -268.5t334 -90.5q81 0 157 16.5t140.5 49.5t104 88.5t39.5 126.5q0 43 -13 78t-46 62t-57 44t-81 36
t-79.5 25.5t-88.5 22.5q-21 5 -31 8l-178 47q-48 12 -86.5 23t-95.5 32.5t-100.5 44.5t-91 59t-78.5 76.5t-51.5 95.5t-20.5 118q0 104 53 189t141.5 138.5t199.5 82t232 28.5q230 0 404 -103t235 -276l-184 -71q-52 128 -175.5 202t-295.5 74q-168 0 -283.5 -69.5
t-115.5 -180.5q0 -44 19.5 -82.5t53 -67t72.5 -51.5t84.5 -40t82 -28t71.5 -21l12 -3l190 -51q180 -48 253 -78q223 -93 260 -264q8 -37 8 -76q0 -140 -90 -250.5t-240 -169.5t-330 -59z" />
    <glyph glyph-name="scaron" unicode="&#x161;" horiz-adv-x="1226" 
d="M723 1286h-234l-356 369h182q51 -43 140.5 -118t152.5 -128q45 39 291 246h180zM643 -35q-204 0 -357.5 87t-207.5 231l178 55q50 -103 157.5 -162t229.5 -59q44 0 90.5 9t92.5 28t75 56t29 85q0 25 -9 46.5t-22 36.5t-37 29.5t-43 23t-52.5 18.5t-52.5 15t-55 13
l-133 31q-385 93 -385 330q0 78 40 142t106 103.5t147 60.5t166 21q176 0 308 -78t179 -200l-182 -58q-35 80 -119 134.5t-202 54.5q-107 0 -177.5 -46t-70.5 -120q0 -36 20.5 -66.5t48 -50t74 -38t79 -27.5t81.5 -21l125 -28q155 -37 230 -80q140 -82 141 -226
q0 -152 -137.5 -251t-354.5 -99z" />
    <glyph glyph-name="uni0162" unicode="&#x162;" horiz-adv-x="1562" 
d="M883 0h-39l-123 -143q35 14 94 14q98 0 162.5 -48t64.5 -126q0 -88 -80.5 -142.5t-203.5 -54.5q-93 0 -176 31.5t-136 85.5l76 74q40 -43 102 -67.5t126 -24.5q67 0 111 27t44 69t-40.5 68t-102.5 26q-63 0 -115 -27l-74 56l144 182h-37v1423h-643v174h1489v-174h-643
v-1423z" />
    <glyph glyph-name="uni0163" unicode="&#x163;" horiz-adv-x="958" 
d="M899 1133v-160h-410v-570q0 -31 0.5 -47.5t2.5 -47t7 -47.5t14 -41.5t23.5 -38.5t34 -28t48 -20t63.5 -6q109 0 217 57v-166q-100 -53 -250 -53q-37 0 -53 2l-94 -110q35 14 94 14q98 0 162.5 -48t64.5 -126q0 -88 -80.5 -142.5t-203.5 -54.5q-93 0 -176 31.5t-136 85.5
l76 74q41 -43 102 -67.5t125 -24.5q67 0 111.5 27t44.5 69t-40.5 68t-102.5 26q-63 0 -115 -27l-74 56l135 172q-39 14 -70 36t-50.5 44.5t-33.5 55t-21 56.5t-10.5 60t-4 54.5t-0.5 49.5v627h-270v160h270v333h190v-333h410z" />
    <glyph glyph-name="Tcaron" unicode="&#x164;" horiz-adv-x="1562" 
d="M1042 2042h179l-324 -322h-229l-326 322h180q150 -114 260 -207q120 99 260 207zM883 0h-203v1423h-643v174h1489v-174h-643v-1423z" />
    <glyph glyph-name="tcaron" unicode="&#x165;" horiz-adv-x="958" 
d="M997 1135h-120l159 264q-46 13 -71 47t-25 76q0 54 44 92.5t106 38.5q60 0 103.5 -38t43.5 -91q0 -43 -35 -100t-165 -234q-8 -12 -13 -18.5t-12.5 -17t-14.5 -19.5zM649 -35q-57 0 -104 9.5t-81 23.5t-61 38t-44 45.5t-29 54t-18 55t-9 57t-3.5 51.5t-0.5 47v627h-270
v160h270v333h190v-333h410v-160h-410v-570q0 -31 0.5 -47.5t2.5 -47t7 -47.5t14 -41.5t23.5 -38.5t34 -28t48 -20t63.5 -6q109 0 217 57v-166q-100 -53 -250 -53z" />
    <glyph glyph-name="Tbar" unicode="&#x166;" horiz-adv-x="1562" 
d="M1526 1597v-174h-643v-549h409v-153h-409v-721h-203v721h-410v153h410v549h-643v174h1489z" />
    <glyph glyph-name="tbar" unicode="&#x167;" horiz-adv-x="958" 
d="M899 1133v-160h-410v-283h392v-141h-392v-146q0 -31 0.5 -47.5t2.5 -47t7 -47.5t14 -41.5t23.5 -38.5t34 -28t48 -20t63.5 -6q109 0 217 57v-166q-100 -53 -250 -53q-57 0 -104 9.5t-81 23.5t-61 38t-44 45.5t-29 54t-18 55t-9 57t-3.5 51.5t-0.5 47v203h-268v141h268
v283h-270v160h270v333h190v-333h410z" />
    <glyph glyph-name="Umacron" unicode="&#x16a;" horiz-adv-x="1845" 
d="M1331 1810h-819v144h819v-144zM918 -35q-173 0 -306 47t-216.5 132t-126 198t-42.5 250v1005h205v-991q0 -230 128 -347.5t362 -117.5q236 0 363.5 117t127.5 348v991h205v-1005q0 -100 -23 -189.5t-76 -171t-132 -139.5t-199 -92.5t-270 -34.5z" />
    <glyph glyph-name="umacron" unicode="&#x16b;" horiz-adv-x="1536" 
d="M1161 1391h-825v137h825v-137zM680 -35q-77 0 -146 15.5t-132 50.5t-109 86.5t-73 129.5t-27 175v711h190v-644q0 -93 29 -164t79.5 -111.5t110.5 -60.5t129 -20q93 0 170.5 32t126.5 85t75.5 118t26.5 134v631h191v-779q0 -125 10 -200t35 -154h-192q-36 115 -33 190h-4
q-72 -113 -189.5 -169t-267.5 -56z" />
    <glyph glyph-name="Uring" unicode="&#x16e;" horiz-adv-x="1845" 
d="M922 1714q-120 0 -199.5 66t-79.5 164q0 97 79.5 161t199.5 64q118 0 197 -63.5t79 -161.5q0 -99 -79 -164.5t-197 -65.5zM922 1829q62 0 103.5 31t41.5 84q0 50 -42 81t-103 31q-64 0 -107 -31t-43 -81q0 -53 42.5 -84t107.5 -31zM918 -35q-173 0 -306 47t-216.5 132
t-126 198t-42.5 250v1005h205v-991q0 -230 128 -347.5t362 -117.5q236 0 363.5 117t127.5 348v991h205v-1005q0 -100 -23 -189.5t-76 -171t-132 -139.5t-199 -92.5t-270 -34.5z" />
    <glyph glyph-name="uring" unicode="&#x16f;" horiz-adv-x="1536" 
d="M748 1249q-119 0 -199 66t-80 164q0 96 80 160.5t199 64.5q118 0 197 -63.5t79 -161.5q0 -99 -79 -164.5t-197 -65.5zM748 1364q63 0 104 31t41 84q0 50 -41 81t-104 31q-64 0 -107 -31t-43 -81q0 -53 42.5 -84t107.5 -31zM680 -35q-77 0 -146 15.5t-132 50.5t-109 86.5
t-73 129.5t-27 175v711h190v-644q0 -93 29 -164t79.5 -111.5t110.5 -60.5t129 -20q93 0 170.5 32t126.5 85t75.5 118t26.5 134v631h191v-779q0 -125 10 -200t35 -154h-192q-36 115 -33 190h-4q-72 -113 -189.5 -169t-267.5 -56z" />
    <glyph glyph-name="Uhungarumlaut" unicode="&#x170;" horiz-adv-x="1845" 
d="M1104 2054l-340 -334h-170l256 334h254zM1520 2054l-359 -334h-172l275 334h256zM918 -35q-173 0 -306 47t-216.5 132t-126 198t-42.5 250v1005h205v-991q0 -230 128 -347.5t362 -117.5q236 0 363.5 117t127.5 348v991h205v-1005q0 -100 -23 -189.5t-76 -171t-132 -139.5
t-199 -92.5t-270 -34.5z" />
    <glyph glyph-name="uhungarumlaut" unicode="&#x171;" horiz-adv-x="1536" 
d="M924 1673l-342 -395h-166l258 395h250zM1343 1673l-362 -395h-166l279 395h249zM680 -35q-77 0 -146 15.5t-132 50.5t-109 86.5t-73 129.5t-27 175v711h190v-644q0 -93 29 -164t79.5 -111.5t110.5 -60.5t129 -20q93 0 170.5 32t126.5 85t75.5 118t26.5 134v631h191v-779
q0 -125 10 -200t35 -154h-192q-36 115 -33 190h-4q-72 -113 -189.5 -169t-267.5 -56z" />
    <glyph glyph-name="Uogonek" unicode="&#x172;" horiz-adv-x="1845" 
d="M1413 606v991h205v-1005q0 -114 -31 -214t-96 -186t-177 -143.5t-261 -75.5q-70 -34 -106 -78.5t-36 -89.5q0 -63 58.5 -105t152.5 -42q52 0 105 14v-118q-67 -17 -127 -17q-92 0 -166.5 26t-121 80.5t-46.5 127.5q0 113 131 194q-167 3 -296.5 51.5t-210.5 133t-122 196
t-41 246.5v1005h205v-991q0 -230 128 -347.5t362 -117.5q236 0 363.5 117t127.5 348z" />
    <glyph glyph-name="uogonek" unicode="&#x173;" horiz-adv-x="1536" 
d="M1321 -336q57 0 109 14v-127q-63 -14 -125 -14q-140 0 -234 62.5t-94 169.5q0 144 199 231h-2q-36 115 -33 190h-4q-72 -113 -189.5 -169t-267.5 -56q-77 0 -146 15.5t-132 50.5t-109 86.5t-73 129.5t-27 175v711h190v-644q0 -93 29 -164t79.5 -111.5t110.5 -60.5
t129 -20q93 0 170.5 32t126.5 85t75.5 118t26.5 134v631h191v-779q0 -125 10 -200t35 -154h-41q-101 -36 -153 -86.5t-52 -108.5q0 -63 57.5 -102t143.5 -39z" />
    <glyph glyph-name="Wcircumflex" unicode="&#x174;" horiz-adv-x="2801" 
d="M1513 2042l328 -322h-180q-26 21 -81 63t-97 76t-80 66q-53 -44 -145.5 -115t-116.5 -90h-178l325 322h225zM897 0h-248l-608 1597h223q308 -781 512 -1339h4q84 223 253 669.5t253 669.5h230q85 -223 256 -669.5t256 -669.5h6q306 838 503 1339h224l-607 -1597h-249
q-231 573 -502 1311h-4q-299 -816 -502 -1311z" />
    <glyph glyph-name="wcircumflex" unicode="&#x175;" horiz-adv-x="2242" 
d="M827 1278h-182l356 360h234l356 -360h-180q-250 209 -291 246q-216 -183 -293 -246zM735 0h-209l-487 1133h213l385 -895h8l385 895h184l396 -895h6l375 895h213l-486 -1133h-213q-25 56 -84 188.5t-89.5 203t-88 207t-119.5 290.5h-4q-157 -382 -385 -889z" />
    <glyph glyph-name="Ycircumflex" unicode="&#x176;" horiz-adv-x="1697" 
d="M961 2042l327 -322h-180q-26 21 -81 63t-97 76t-80 66q-53 -44 -145.5 -115t-116.5 -90h-178l325 322h226zM950 0h-202v575q-64 92 -232.5 337.5t-286 414t-190.5 270.5h221q99 -139 586 -837h4q60 85 120 172t162.5 232t307.5 433h217l-707 -1022v-575z" />
    <glyph glyph-name="ycircumflex" unicode="&#x177;" horiz-adv-x="1351" 
d="M371 1278h-183l357 360h233l357 -360h-181q-235 197 -290 246q-216 -183 -293 -246zM565 -451h-186l203 426l-549 1158h211q146 -296 434 -922h4q260 569 430 922h207z" />
    <glyph glyph-name="Ydieresis" unicode="&#x178;" horiz-adv-x="1697" 
d="M606 1772q-60 0 -100.5 37t-40.5 92q0 51 40.5 86.5t100.5 35.5q58 0 98.5 -35.5t40.5 -86.5q0 -55 -40 -92t-99 -37zM1096 1772q-62 0 -103 37t-41 92q0 51 41.5 86.5t102.5 35.5q57 0 98 -35.5t41 -86.5q0 -55 -40.5 -92t-98.5 -37zM950 0h-202v575
q-64 92 -232.5 337.5t-286 414t-190.5 270.5h221q99 -139 586 -837h4q60 85 120 172t162.5 232t307.5 433h217l-707 -1022v-575z" />
    <glyph glyph-name="Zacute" unicode="&#x179;" horiz-adv-x="1626" 
d="M1257 2056l-403 -336h-176l307 336h272zM1546 0h-1468v182l1196 1239v4q-385 -2 -1153 -2v174h1405v-180q-159 -164 -568.5 -584.5t-631.5 -650.5v-4h1220v-178z" />
    <glyph glyph-name="zacute" unicode="&#x17a;" horiz-adv-x="1216" 
d="M1053 1667l-373 -389h-168l289 389h252zM1153 0h-1079v143l766 826h-725v164h983v-144l-768 -825h823v-164z" />
    <glyph glyph-name="Zdotaccent" unicode="&#x17b;" horiz-adv-x="1626" 
d="M788 1776q-63 0 -105 39t-42 96q0 53 42.5 91t104.5 38q61 0 104.5 -38t43.5 -91q0 -57 -43 -96t-105 -39zM1546 0h-1468v182l1196 1239v4q-385 -2 -1153 -2v174h1405v-180q-159 -164 -568.5 -584.5t-631.5 -650.5v-4h1220v-178z" />
    <glyph glyph-name="zdotaccent" unicode="&#x17c;" horiz-adv-x="1216" 
d="M608 1386q-63 0 -105 39.5t-42 96.5q0 54 42 91.5t105 37.5q62 0 105 -37.5t43 -91.5q0 -57 -43 -96.5t-105 -39.5zM1153 0h-1079v143l766 826h-725v164h983v-144l-768 -825h823v-164z" />
    <glyph glyph-name="Zcaron" unicode="&#x17d;" horiz-adv-x="1626" 
d="M1047 2042h178l-324 -322h-229l-326 322h180q150 -114 260 -207q107 89 261 207zM1546 0h-1468v182l1196 1239v4q-385 -2 -1153 -2v174h1405v-180q-159 -164 -568.5 -584.5t-631.5 -650.5v-4h1220v-178z" />
    <glyph glyph-name="zcaron" unicode="&#x17e;" horiz-adv-x="1216" 
d="M723 1284h-234l-356 369h182q51 -43 140.5 -118t152.5 -128q45 39 291 246h180zM1153 0h-1079v143l766 826h-725v164h983v-144l-768 -825h823v-164z" />
    <glyph glyph-name="uni0218" unicode="&#x218;" horiz-adv-x="1589" 
d="M819 -35q-116 0 -225 27t-208 81t-176.5 146.5t-117.5 214.5l191 64q58 -178 202 -268.5t334 -90.5q81 0 157 16.5t140.5 49.5t104 88.5t39.5 126.5q0 43 -13 78t-46 62t-57 44t-81 36t-79.5 25.5t-88.5 22.5q-21 5 -31 8l-178 47q-48 12 -86.5 23t-95.5 32.5
t-100.5 44.5t-91 59t-78.5 76.5t-51.5 95.5t-20.5 118q0 104 53 189t141.5 138.5t199.5 82t232 28.5q230 0 404 -103t235 -276l-184 -71q-52 128 -175.5 202t-295.5 74q-168 0 -283.5 -69.5t-115.5 -180.5q0 -44 19.5 -82.5t53 -67t72.5 -51.5t84.5 -40t82 -28t71.5 -21
l12 -3l190 -51q180 -48 253 -78q223 -93 260 -264q8 -37 8 -76q0 -140 -90 -250.5t-240 -169.5t-330 -59zM764 -557h-98l122 207q-52 13 -79 45t-27 72q0 51 40 84.5t99 33.5t98 -33.5t39 -84.5q0 -41 -29 -89t-130 -187q-23 -31 -35 -48z" />
    <glyph glyph-name="uni0219" unicode="&#x219;" horiz-adv-x="1226" 
d="M643 -35q-204 0 -357.5 87t-207.5 231l178 55q50 -103 157.5 -162t229.5 -59q44 0 90.5 9t92.5 28t75 56t29 85q0 25 -9 46.5t-22 36.5t-37 29.5t-43 23t-52.5 18.5t-52.5 15t-55 13l-133 31q-385 93 -385 330q0 78 40 142t106 103.5t147 60.5t166 21q176 0 308 -78
t179 -200l-182 -58q-35 80 -119 134.5t-202 54.5q-107 0 -177.5 -46t-70.5 -120q0 -36 20.5 -66.5t48 -50t74 -38t79 -27.5t81.5 -21l125 -28q155 -37 230 -80q140 -82 141 -226q0 -152 -137.5 -251t-354.5 -99zM582 -557h-99l123 207q-52 13 -79 45t-27 72q0 51 40 84.5
t99 33.5t98 -33.5t39 -84.5q0 -41 -29 -89t-130 -187q-23 -31 -35 -48z" />
    <glyph glyph-name="uni021A" unicode="&#x21a;" horiz-adv-x="1562" 
d="M883 0h-203v1423h-643v174h1489v-174h-643v-1423zM719 -557h-98l122 207q-52 13 -79 45t-27 72q0 51 40 84.5t99 33.5t98 -33.5t39 -84.5q0 -41 -29 -89t-130 -187q-23 -31 -35 -48z" />
    <glyph glyph-name="uni021B" unicode="&#x21b;" horiz-adv-x="958" 
d="M649 -35q-57 0 -104 9.5t-81 23.5t-61 38t-44 45.5t-29 54t-18 55t-9 57t-3.5 51.5t-0.5 47v627h-270v160h270v333h190v-333h410v-160h-410v-570q0 -31 0.5 -47.5t2.5 -47t7 -47.5t14 -41.5t23.5 -38.5t34 -28t48 -20t63.5 -6q109 0 217 57v-166q-100 -53 -250 -53z
M500 -557h-99l123 207q-52 13 -79 45t-27 72q0 51 40 84.5t99 33.5t98 -33.5t39 -84.5q0 -41 -29 -89t-130 -187q-23 -31 -35 -48z" />
    <glyph glyph-name="gravecomb" unicode="&#x300;" horiz-adv-x="0" 
d="M-111 1278h-170l-372 389h252z" />
    <glyph glyph-name="acutecomb" unicode="&#x301;" horiz-adv-x="0" 
d="M102 1667l-372 -389h-168l288 389h252z" />
    <glyph glyph-name="uni0302" unicode="&#x302;" horiz-adv-x="0" 
d="M-799 1278h-182l356 360h234l356 -360h-180q-250 209 -291 246q-216 -183 -293 -246z" />
    <glyph glyph-name="tildecomb" unicode="&#x303;" horiz-adv-x="0" 
d="M-379 1333q-47 0 -85.5 11t-56.5 21.5t-50 33.5l-52 35q-63 45 -116 45t-87 -37t-34 -92h-144q1 120 75 194t188 74q83 0 178 -64l55 -34q68 -47 123 -47q53 0 82 36t29 95h145q0 -127 -66 -199t-184 -72z" />
    <glyph glyph-name="uni0304" unicode="&#x304;" horiz-adv-x="0" 
d="M-109 1384h-825v138h825v-138z" />
    <glyph glyph-name="uni0306" unicode="&#x306;" horiz-adv-x="0" 
d="M-494 1274q-205 0 -323.5 110t-126.5 285h168q3 -112 81.5 -185t205.5 -73q125 0 203 71t83 187h168q-8 -175 -129 -285t-330 -110z" />
    <glyph glyph-name="uni0307" unicode="&#x307;" horiz-adv-x="0" 
d="M-297 1380q-63 0 -105 39.5t-42 96.5q0 54 42 91.5t105 37.5q62 0 104.5 -37.5t42.5 -91.5q0 -57 -42.5 -96.5t-104.5 -39.5z" />
    <glyph glyph-name="uni0308" unicode="&#x308;" horiz-adv-x="0" 
d="M-989 1352q-58 0 -97.5 36t-39.5 89q0 48 39.5 83t97.5 35q57 0 96 -35t39 -83q0 -53 -38.5 -89t-96.5 -36zM-535 1352q-59 0 -98 36t-39 89q0 48 39 83t98 35q55 0 95.5 -35.5t40.5 -82.5q0 -52 -40 -88.5t-96 -36.5z" />
    <glyph glyph-name="uni030A" unicode="&#x30a;" horiz-adv-x="0" 
d="M-301 1249q-119 0 -199 66t-80 164q0 96 80 160.5t199 64.5q118 0 197 -63.5t79 -161.5q0 -99 -79 -164.5t-197 -65.5zM-301 1364q63 0 104 31t41 84q0 50 -41 81t-104 31q-64 0 -107 -31t-43 -81q0 -53 42.5 -84t107.5 -31z" />
    <glyph glyph-name="uni030B" unicode="&#x30b;" horiz-adv-x="0" 
d="M-242 1673l-342 -395h-166l258 395h250zM178 1673l-362 -395h-166l278 395h250z" />
    <glyph glyph-name="uni030C" unicode="&#x30c;" horiz-adv-x="0" 
d="M-391 1278h-234l-356 369h182q51 -43 140.5 -118t152.5 -128q45 39 291 246h180z" />
    <glyph glyph-name="uni0312" unicode="&#x312;" horiz-adv-x="0" 
d="M-506 1309q0 11 1.5 21t6 23t9.5 23.5t16.5 29.5t21 33.5t29 43t35.5 51t45 63.5t53 76h121l-151 -248q42 -14 66 -44t24 -70q0 -52 -40.5 -86.5t-99.5 -34.5t-98 34t-39 85z" />
    <glyph glyph-name="uni0326" unicode="&#x326;" horiz-adv-x="0" 
d="M-395 -557h-99l123 207q-52 13 -79 45t-27 72q0 51 40 84.5t99 33.5t98 -33.5t39 -84.5q0 -41 -29 -89t-130 -187q-23 -31 -35 -48z" />
    <glyph glyph-name="uni0327" unicode="&#x327;" horiz-adv-x="0" 
d="M-768 -500q-93 0 -175.5 31.5t-135.5 85.5l75 74q40 -43 102 -67.5t126 -24.5q67 0 111 27t44 69t-40.5 68t-102.5 26q-63 0 -115 -27l-73 56l143 182h127l-123 -143q35 14 94 14q99 0 163.5 -48t64.5 -126q0 -88 -81 -142.5t-204 -54.5z" />
    <glyph glyph-name="uni0328" unicode="&#x328;" horiz-adv-x="0" 
d="M-768 -483q-140 0 -234 62t-94 169q0 145 199 232h149q-101 -36 -152.5 -86.5t-51.5 -108.5q0 -63 57 -102t143 -39q56 0 109 14v-127q-63 -14 -125 -14z" />
    <glyph glyph-name="uni0335" unicode="&#x335;" horiz-adv-x="0" 
d="M-909 639h850v-141h-850v141z" />
    <glyph glyph-name="uni0337" unicode="&#x337;" horiz-adv-x="0" 
d="M-594 492v157l672 414v-160z" />
    <glyph glyph-name="uni0338" unicode="&#x338;" horiz-adv-x="0" 
d="M-1210 -59h-213l1108 1239h204z" />
    <glyph glyph-name="Wgrave" unicode="&#x1e80;" horiz-adv-x="2801" 
d="M1524 1720h-176l-404 336h273zM897 0h-248l-608 1597h223q308 -781 512 -1339h4q84 223 253 669.5t253 669.5h230q85 -223 256 -669.5t256 -669.5h6q306 838 503 1339h224l-607 -1597h-249q-231 573 -502 1311h-4q-299 -816 -502 -1311z" />
    <glyph glyph-name="wgrave" unicode="&#x1e81;" horiz-adv-x="2242" 
d="M1210 1278h-170l-372 389h252zM735 0h-209l-487 1133h213l385 -895h8l385 895h184l396 -895h6l375 895h213l-486 -1133h-213q-25 56 -84 188.5t-89.5 203t-88 207t-119.5 290.5h-4q-157 -382 -385 -889z" />
    <glyph glyph-name="Wacute" unicode="&#x1e82;" horiz-adv-x="2801" 
d="M1874 2056l-404 -336h-176l308 336h272zM897 0h-248l-608 1597h223q308 -781 512 -1339h4q84 223 253 669.5t253 669.5h230q85 -223 256 -669.5t256 -669.5h6q306 838 503 1339h224l-607 -1597h-249q-231 573 -502 1311h-4q-299 -816 -502 -1311z" />
    <glyph glyph-name="wacute" unicode="&#x1e83;" horiz-adv-x="2242" 
d="M1563 1667l-373 -389h-168l289 389h252zM735 0h-209l-487 1133h213l385 -895h8l385 895h184l396 -895h6l375 895h213l-486 -1133h-213q-25 56 -84 188.5t-89.5 203t-88 207t-119.5 290.5h-4q-157 -382 -385 -889z" />
    <glyph glyph-name="Wdieresis" unicode="&#x1e84;" horiz-adv-x="2801" 
d="M1157 1772q-60 0 -100.5 37t-40.5 92q0 51 40.5 86.5t100.5 35.5q58 0 98.5 -35.5t40.5 -86.5q0 -55 -40 -92t-99 -37zM1647 1772q-62 0 -103 37t-41 92q0 51 41.5 86.5t102.5 35.5q57 0 98 -35.5t41 -86.5q0 -55 -40.5 -92t-98.5 -37zM897 0h-248l-608 1597h223
q308 -781 512 -1339h4q84 223 253 669.5t253 669.5h230q85 -223 256 -669.5t256 -669.5h6q306 838 503 1339h224l-607 -1597h-249q-231 573 -502 1311h-4q-299 -816 -502 -1311z" />
    <glyph glyph-name="wdieresis" unicode="&#x1e85;" horiz-adv-x="2242" 
d="M891 1352q-58 0 -97.5 36t-39.5 89q0 48 39.5 83t97.5 35q57 0 96 -35t39 -83q0 -53 -38.5 -89t-96.5 -36zM1346 1352q-60 0 -99 36t-39 89q0 48 39.5 83t98.5 35q55 0 95 -35t40 -83q0 -52 -39.5 -88.5t-95.5 -36.5zM735 0h-209l-487 1133h213l385 -895h8l385 895h184
l396 -895h6l375 895h213l-486 -1133h-213q-25 56 -84 188.5t-89.5 203t-88 207t-119.5 290.5h-4q-157 -382 -385 -889z" />
    <glyph glyph-name="uni1E9E" unicode="&#x1e9e;" horiz-adv-x="1843" 
d="M430 0h-205v926q0 67 4.5 123.5t22 131.5t47 134.5t83.5 120.5t127 101.5t183 66.5t246 26q318 0 505 -125.5t187 -335.5q0 -143 -90.5 -238t-245.5 -122v-4q112 -5 207.5 -50t157 -132.5t61.5 -200.5q0 -60 -16.5 -115t-63 -112.5t-118 -99.5t-192 -68.5t-275.5 -26.5
h-221v172h251q92 0 164.5 14.5t120 39t79 58.5t45 71t13.5 79q0 129 -116 198.5t-308 69.5h-133v175h131q33 0 71.5 5.5t87.5 24t87.5 46.5t65 78.5t26.5 115.5q0 149 -129.5 232t-347.5 83q-83 0 -152.5 -13t-119.5 -33t-89 -52.5t-64 -62t-42.5 -72.5t-26 -72.5t-13 -73.5
t-5 -64t-0.5 -54v-965z" />
    <glyph glyph-name="Ygrave" unicode="&#x1ef2;" horiz-adv-x="1697" 
d="M971 1720h-176l-404 336h273zM950 0h-202v575q-64 92 -232.5 337.5t-286 414t-190.5 270.5h221q99 -139 586 -837h4q60 85 120 172t162.5 232t307.5 433h217l-707 -1022v-575z" />
    <glyph glyph-name="ygrave" unicode="&#x1ef3;" horiz-adv-x="1351" 
d="M756 1278h-170l-373 389h252zM565 -451h-186l203 426l-549 1158h211q146 -296 434 -922h4q260 569 430 922h207z" />
    <glyph glyph-name="uni2000" unicode="&#x2000;" horiz-adv-x="1228" 
 />
    <glyph glyph-name="uni2001" unicode="&#x2001;" 
 />
    <glyph glyph-name="uni2002" unicode="&#x2002;" horiz-adv-x="1228" 
 />
    <glyph glyph-name="uni2003" unicode="&#x2003;" 
 />
    <glyph glyph-name="uni2004" unicode="&#x2004;" horiz-adv-x="819" 
 />
    <glyph glyph-name="uni2005" unicode="&#x2005;" horiz-adv-x="614" 
 />
    <glyph glyph-name="uni2006" unicode="&#x2006;" horiz-adv-x="409" 
 />
    <glyph glyph-name="uni2007" unicode="&#x2007;" horiz-adv-x="657" 
 />
    <glyph glyph-name="uni2008" unicode="&#x2008;" horiz-adv-x="587" 
 />
    <glyph glyph-name="uni2009" unicode="&#x2009;" horiz-adv-x="307" 
 />
    <glyph glyph-name="uni200A" unicode="&#x200a;" horiz-adv-x="102" 
 />
    <glyph glyph-name="uni200B" unicode="&#x200b;" horiz-adv-x="0" 
 />
    <glyph glyph-name="endash" unicode="&#x2013;" horiz-adv-x="1214" 
d="M1069 547h-924v153h924v-153z" />
    <glyph glyph-name="emdash" unicode="&#x2014;" horiz-adv-x="1728" 
d="M1583 551h-1440v143h1440v-143z" />
    <glyph glyph-name="quoteleft" unicode="&#x2018;" horiz-adv-x="571" 
d="M352 1632h119l-158 -262q46 -15 71.5 -49t25.5 -76q0 -54 -43.5 -91.5t-106.5 -37.5q-60 0 -103.5 37.5t-43.5 91.5q0 44 40 107t199 280z" />
    <glyph glyph-name="quoteright" unicode="&#x2019;" horiz-adv-x="583" 
d="M254 1128h-121l160 263q-46 15 -72 49t-26 76q0 54 44 91.5t107 37.5q60 0 103 -37.5t43 -91.5q0 -44 -41.5 -109.5t-196.5 -278.5z" />
    <glyph glyph-name="quotesinglbase" unicode="&#x201a;" horiz-adv-x="557" 
d="M195 -266h-119l157 264q-46 15 -71 48.5t-25 76.5q0 53 44.5 91t105.5 38q60 0 103.5 -37.5t43.5 -91.5q0 -44 -40 -106.5t-199 -282.5z" />
    <glyph glyph-name="quotedblleft" unicode="&#x201c;" horiz-adv-x="978" 
d="M352 1632h119l-158 -262q46 -15 71.5 -49t25.5 -76q0 -54 -43.5 -91.5t-106.5 -37.5q-60 0 -103.5 37.5t-43.5 91.5q0 44 40 107t199 280zM709 1632h118l-157 -262q46 -15 71 -48.5t25 -76.5q0 -54 -44 -91.5t-106 -37.5q-60 0 -103.5 37.5t-43.5 91.5q0 42 36.5 100
t168.5 239q23 31 35 48z" />
    <glyph glyph-name="quotedblright" unicode="&#x201d;" horiz-adv-x="989" 
d="M252 1128h-119l158 263q-46 15 -72 49t-26 76q0 54 44 91.5t107 37.5q60 0 102.5 -37.5t42.5 -91.5q0 -45 -42 -111.5t-195 -276.5zM662 1128h-119l155 263q-45 15 -69.5 48t-24.5 77q0 54 44 91.5t106 37.5q59 0 102 -37.5t43 -91.5q0 -44 -31.5 -96.5t-144.5 -207.5
q-39 -53 -61 -84z" />
    <glyph glyph-name="quotedblbase" unicode="&#x201e;" horiz-adv-x="966" 
d="M195 -254h-119l157 262q-46 15 -71 48.5t-25 76.5q0 54 44 91.5t106 37.5q60 0 103.5 -37.5t43.5 -91.5q0 -44 -40 -107t-199 -280zM606 -254h-121l158 262q-46 15 -71 48t-25 77q0 54 43.5 91.5t105.5 37.5q59 0 102.5 -38t43.5 -91q0 -42 -29 -90.5t-140 -202.5
q-13 -19 -21 -30t-21 -29.5t-25 -34.5z" />
    <glyph glyph-name="dagger" unicode="&#x2020;" horiz-adv-x="1196" 
d="M684 1307h408v-148h-408v-729h-176v729h-402v148h402v331h176v-331z" />
    <glyph glyph-name="daggerdbl" unicode="&#x2021;" horiz-adv-x="1302" 
d="M1139 1307v-148h-396v-278h396v-148h-396v-332h-178v332h-401v148h401v278h-401v148h401v331h178v-331h396z" />
    <glyph glyph-name="bullet" unicode="&#x2022;" horiz-adv-x="970" 
d="M485 432q-107 0 -183.5 70t-76.5 170q0 94 76.5 160.5t183.5 66.5q106 0 181 -66.5t75 -160.5q0 -100 -75 -170t-181 -70z" />
    <glyph glyph-name="ellipsis" unicode="&#x2026;" horiz-adv-x="1656" 
d="M295 -14q-62 0 -106 40t-44 97q0 53 44.5 91t105.5 38q60 0 102.5 -38t42.5 -91q0 -57 -42.5 -97t-102.5 -40zM752 -14q-62 0 -106 40t-44 97q0 53 44.5 91t105.5 38q60 0 102.5 -38t42.5 -91q0 -57 -42.5 -97t-102.5 -40zM1366 -14q-61 0 -104 40t-43 97q0 53 43 91
t104 38t103 -38t42 -91q0 -57 -42 -97t-103 -40z" />
    <glyph glyph-name="uni202F" unicode="&#x202f;" horiz-adv-x="477" 
 />
    <glyph glyph-name="perthousand" unicode="&#x2030;" horiz-adv-x="2924" 
d="M424 768q-150 0 -242 105.5t-92 275.5t92 276.5t242 106.5q151 0 243.5 -107.5t92.5 -275.5q0 -167 -92.5 -274t-243.5 -107zM453 0h-183l1366 1468h174zM424 901q77 0 122.5 64.5t45.5 183.5t-45.5 183.5t-122.5 64.5t-122.5 -64.5t-45.5 -183.5t45.5 -183.5
t122.5 -64.5zM1653 -29q-150 0 -242 105.5t-92 275.5t92 276.5t242 106.5q151 0 243.5 -107.5t92.5 -275.5q0 -167 -92.5 -274t-243.5 -107zM2501 -29q-150 0 -242 105.5t-92 275.5t92 276.5t242 106.5q151 0 243 -107.5t92 -275.5t-92 -274.5t-243 -106.5zM1653 104
q77 0 122.5 64.5t45.5 183.5t-45.5 183.5t-122.5 64.5t-122.5 -64.5t-45.5 -183.5t45.5 -183.5t122.5 -64.5zM2501 104q77 0 122.5 64.5t45.5 183.5t-45.5 183.5t-122.5 64.5t-122.5 -64.5t-45.5 -183.5t45.5 -183.5t122.5 -64.5z" />
    <glyph glyph-name="guilsinglleft" unicode="&#x2039;" horiz-adv-x="929" 
d="M770 164h-227l-416 405v9l416 405h227l-416 -405v-9z" />
    <glyph glyph-name="guilsinglright" unicode="&#x203a;" horiz-adv-x="929" 
d="M387 164h-227l415 405v9l-415 405h227l416 -405v-9z" />
    <glyph glyph-name="fraction" unicode="&#x2044;" horiz-adv-x="380" 
d="M-395 0h-183l1366 1468h175z" />
    <glyph glyph-name="uni205F" unicode="&#x205f;" horiz-adv-x="544" 
 />
    <glyph glyph-name="uni2070" unicode="&#x2070;" horiz-adv-x="847" 
d="M424 768q-150 0 -242 105.5t-92 275.5t92 276.5t242 106.5q151 0 243.5 -107.5t92.5 -275.5q0 -167 -92.5 -274t-243.5 -107zM424 901q77 0 122.5 64.5t45.5 183.5t-45.5 183.5t-122.5 64.5t-122.5 -64.5t-45.5 -183.5t45.5 -183.5t122.5 -64.5z" />
    <glyph glyph-name="uni2074" unicode="&#x2074;" horiz-adv-x="813" 
d="M625 784h-152v152h-420v119l422 461h150v-459h112v-121h-112v-152zM473 1329l-266 -272h266v272z" />
    <glyph glyph-name="uni2075" unicode="&#x2075;" horiz-adv-x="798" 
d="M385 768q-116 0 -205.5 43.5t-120.5 124.5l138 63q23 -51 75.5 -79.5t114.5 -28.5q72 0 119 38t47 95q0 59 -46.5 95t-115.5 36q-52 0 -92.5 -21t-62.5 -53l-130 31l103 404h457v-119h-347l-55 -195h2q27 28 79 44t104 16q108 0 188 -61t80 -173q0 -118 -96 -189
t-236 -71z" />
    <glyph glyph-name="uni2076" unicode="&#x2076;" horiz-adv-x="831" 
d="M424 768q-151 0 -243.5 89.5t-92.5 250.5q0 185 116 304.5t298 119.5q146 0 225 -76l-82 -94q-61 45 -149 45q-104 0 -174.5 -63.5t-77.5 -174.5h2q27 42 88 66.5t127 24.5q117 0 203 -66t86 -170q0 -110 -92.5 -183t-233.5 -73zM430 889q70 0 120 39t50 98t-48.5 97
t-117.5 38q-73 0 -121.5 -39.5t-48.5 -97.5q0 -56 49.5 -95.5t116.5 -39.5z" />
    <glyph glyph-name="uni2077" unicode="&#x2077;" horiz-adv-x="686" 
d="M344 784h-164q0 137 79.5 317.5t213.5 297.5h-428v121h608v-125q-98 -72 -170.5 -184t-105.5 -221.5t-33 -205.5z" />
    <glyph glyph-name="uni2078" unicode="&#x2078;" horiz-adv-x="815" 
d="M408 768q-145 0 -234.5 63t-89.5 154q0 68 47 118t111 64v2q-121 54 -121 156q0 90 82 148.5t205 58.5q119 0 201.5 -58t82.5 -151q0 -106 -121 -154v-2q68 -16 113 -64t45 -114q0 -93 -88.5 -157t-232.5 -64zM410 1221q59 0 99 30t40 74q0 42 -40 70t-99 28
q-62 0 -102 -27.5t-40 -70.5q0 -44 40.5 -74t101.5 -30zM410 893q67 0 113 32.5t46 84.5q0 53 -43 83.5t-116 30.5q-76 0 -120 -30.5t-44 -83.5q0 -51 47 -84t117 -33z" />
    <glyph glyph-name="uni2079" unicode="&#x2079;" horiz-adv-x="837" 
d="M373 768q-79 0 -155.5 25t-125.5 77l86 95q41 -41 94 -59.5t101 -18.5q104 0 159.5 70.5t57.5 175.5q-25 -47 -86 -73t-131 -26q-118 0 -201.5 66t-83.5 172q0 112 91.5 186t236.5 74q69 0 127.5 -19.5t105 -59.5t73 -108t26.5 -159q0 -86 -23.5 -160.5t-68.5 -132.5
t-118 -91.5t-165 -33.5zM401 1135q72 0 122 42t50 103t-48 98t-117 37q-74 0 -123 -39.5t-49 -101.5q0 -60 46.5 -99.5t118.5 -39.5z" />
    <glyph glyph-name="uni2080" unicode="&#x2080;" horiz-adv-x="847" 
d="M424 -285q-150 0 -242 105.5t-92 275.5t92 276.5t242 106.5q151 0 243.5 -107.5t92.5 -275.5q0 -167 -92.5 -274t-243.5 -107zM424 -152q77 0 122.5 64.5t45.5 183.5t-45.5 183.5t-122.5 64.5t-122.5 -64.5t-45.5 -183.5t45.5 -183.5t122.5 -64.5z" />
    <glyph glyph-name="uni2081" unicode="&#x2081;" horiz-adv-x="555" 
d="M399 -268h-153v499q-73 -64 -189 -84v150q86 22 138.5 67.5t52.5 98.5h151v-731z" />
    <glyph glyph-name="uni2082" unicode="&#x2082;" horiz-adv-x="786" 
d="M694 -268h-594v16q4 67 19.5 114t53 87.5t81.5 70.5t125 76q35 20 51 30.5t45 32.5t42 45.5t13 49.5q0 40 -38 67t-99 27q-76 0 -123.5 -42t-48.5 -113l-143 20q0 119 89.5 192.5t227.5 73.5q128 0 212.5 -62.5t84.5 -162.5q0 -130 -162 -213q-18 -10 -55.5 -29.5
t-58 -31.5t-47 -30.5t-42.5 -39t-24 -45.5h391v-133z" />
    <glyph glyph-name="uni2083" unicode="&#x2083;" horiz-adv-x="798" 
d="M389 -285q-118 0 -206.5 46.5t-116.5 121.5l137 64q54 -111 186 -111q66 0 110 29.5t44 79.5q0 52 -46 79t-124 27h-86v103h90q66 0 108.5 28t42.5 72t-42 72t-103 28q-62 0 -104.5 -30t-51.5 -82l-141 28q12 90 99 149.5t210 59.5q121 0 205 -53.5t84 -140.5
q0 -57 -38 -105t-101 -61q70 -12 117 -59.5t47 -112.5q0 -92 -86 -162t-234 -70z" />
    <glyph glyph-name="uni2084" unicode="&#x2084;" horiz-adv-x="813" 
d="M625 -268h-152v151h-420v119l422 461h150v-459h112v-121h-112v-151zM473 276l-266 -272h266v272z" />
    <glyph glyph-name="uni2085" unicode="&#x2085;" horiz-adv-x="798" 
d="M385 -285q-116 0 -205.5 43.5t-120.5 124.5l138 64q23 -51 75.5 -80t114.5 -29q72 0 119 38t47 95q0 59 -46.5 95t-115.5 36q-104 0 -155 -73l-130 30l103 404h457v-119h-347l-55 -194h2q26 28 78 43.5t105 15.5q108 0 188 -61t80 -173q0 -118 -96 -189t-236 -71z" />
    <glyph glyph-name="uni2086" unicode="&#x2086;" horiz-adv-x="831" 
d="M424 -285q-151 0 -243.5 89.5t-92.5 250.5q0 185 116 304.5t298 119.5q146 0 225 -76l-82 -94q-61 45 -149 45q-104 0 -174.5 -63t-77.5 -174h2q27 42 87.5 66t127.5 24q117 0 203 -66t86 -170q0 -110 -92.5 -183t-233.5 -73zM430 -164q70 0 120 39t50 98t-48.5 97.5
t-117.5 38.5q-73 0 -121.5 -40t-48.5 -98q0 -56 49.5 -95.5t116.5 -39.5z" />
    <glyph glyph-name="uni2087" unicode="&#x2087;" horiz-adv-x="686" 
d="M344 -268h-164q0 137 79.5 317t213.5 297h-428v121h608v-125q-98 -72 -170.5 -184t-105.5 -221t-33 -205z" />
    <glyph glyph-name="uni2088" unicode="&#x2088;" horiz-adv-x="815" 
d="M408 -285q-145 0 -234.5 63t-89.5 154q0 68 47 118.5t111 64.5v2q-121 54 -121 155q0 90 82 148.5t205 58.5q119 0 201.5 -58t82.5 -151q0 -105 -121 -153v-2q68 -16 113 -64t45 -114q0 -93 -88.5 -157.5t-232.5 -64.5zM410 168q59 0 99 30t40 74q0 42 -40 70.5t-99 28.5
q-61 0 -101.5 -28t-40.5 -71q0 -44 40.5 -74t101.5 -30zM410 -160q67 0 113 32.5t46 84.5q0 53 -43 84t-116 31q-76 0 -120 -31t-44 -84q0 -51 47 -84t117 -33z" />
    <glyph glyph-name="uni2089" unicode="&#x2089;" horiz-adv-x="837" 
d="M373 -285q-79 0 -155.5 25.5t-125.5 77.5l86 94q41 -41 94 -59.5t101 -18.5q104 0 159.5 70.5t57.5 175.5q-25 -47 -86 -72.5t-131 -25.5q-118 0 -201.5 65.5t-83.5 171.5q0 112 91.5 186t236.5 74q69 0 127.5 -19.5t105 -59.5t73 -108t26.5 -159q0 -86 -23.5 -160.5
t-68.5 -132.5t-118 -91.5t-165 -33.5zM401 82q72 0 122 42t50 103t-48 98t-117 37q-74 0 -123 -39.5t-49 -101.5q0 -60 46.5 -99.5t118.5 -39.5z" />
    <glyph glyph-name="Euro" unicode="&#x20ac;" horiz-adv-x="1966" 
d="M1733 266l125 -131q-123 -92 -276 -131t-302 -39q-340 0 -567 155t-301 419h-273v116h250q-8 52 -8 121q0 54 6 107h-248v116h269q34 130 106.5 238t179.5 188t253.5 124t318.5 44q361 0 575 -168l-143 -135q-176 127 -434 127q-249 0 -414.5 -110.5t-226.5 -307.5h776
v-116h-801q-6 -53 -6 -107q0 -69 8 -121h799v-116h-770q64 -190 233 -294t414 -104q274 0 457 125z" />
    <glyph glyph-name="trademark" unicode="&#x2122;" horiz-adv-x="1880" 
d="M483 932h-129v575h-264v109h653v-109h-260v-575zM1010 932h-131v684h131l268 -514q227 443 264 514h131v-684h-131v436l-219 -426h-92l-221 428v-438z" />
    <glyph glyph-name="oneeighth" unicode="&#x215b;" horiz-adv-x="1751" 
d="M399 784h-153v500q-73 -64 -189 -84v150q86 22 138.5 67.5t52.5 98.5h151v-732zM160 0h-183l1366 1468h175zM1343 -29q-145 0 -234 63t-89 154q0 68 47 118.5t111 64.5v2q-121 54 -121 155q0 90 82 148.5t204 58.5q119 0 202 -58t83 -151q0 -105 -121 -153v-2
q68 -16 113 -64t45 -114q0 -93 -89 -157.5t-233 -64.5zM1346 424q59 0 99 30t40 74q0 42 -40 70.5t-99 28.5q-61 0 -101.5 -28t-40.5 -71q0 -44 40.5 -74t101.5 -30zM1346 96q67 0 113 32.5t46 84.5q0 53 -43 84t-116 31q-76 0 -120 -31t-44 -84q0 -51 47 -84t117 -33z" />
    <glyph glyph-name="threeeighths" unicode="&#x215c;" horiz-adv-x="1992" 
d="M389 768q-118 0 -206.5 46.5t-116.5 121.5l137 63q53 -110 186 -110q66 0 110 29t44 79q0 52 -46 79.5t-124 27.5h-86v102h90q66 0 108.5 28.5t42.5 72.5t-42 72t-103 28q-62 0 -104.5 -30.5t-51.5 -82.5l-141 29q12 90 99 149.5t210 59.5q121 0 205 -54t84 -141
q0 -57 -38 -105t-101 -61q70 -12 117 -59.5t47 -112.5q0 -92 -86 -161.5t-234 -69.5zM403 0h-182l1366 1468h174zM1587 -29q-145 0 -234 63t-89 154q0 69 46.5 119t110.5 64v2q-121 54 -121 155q0 90 82 148.5t205 58.5q119 0 202 -58t83 -151q0 -105 -121 -153v-2
q68 -16 113 -64t45 -114q0 -93 -89 -157.5t-233 -64.5zM1589 424q59 0 99.5 30t40.5 74q0 42 -40.5 70.5t-99.5 28.5q-61 0 -101 -28t-40 -71q0 -45 40 -74.5t101 -29.5zM1589 96q67 0 113.5 32.5t46.5 84.5q0 53 -43.5 84t-116.5 31q-76 0 -120 -31t-44 -84q0 -51 47 -84
t117 -33z" />
    <glyph glyph-name="fiveeighths" unicode="&#x215d;" horiz-adv-x="1994" 
d="M385 768q-116 0 -205.5 43.5t-120.5 124.5l138 63q23 -51 75.5 -79.5t114.5 -28.5q72 0 119 38t47 95q0 59 -46.5 95t-115.5 36q-52 0 -92.5 -21t-62.5 -53l-130 31l103 404h457v-119h-347l-55 -195h2q27 28 79 44t104 16q108 0 188 -61t80 -173q0 -118 -96 -189
t-236 -71zM403 0h-182l1366 1468h174zM1587 -29q-145 0 -234 63t-89 154q0 69 46.5 119t110.5 64v2q-121 54 -121 155q0 90 82 148.5t205 58.5q119 0 202 -58t83 -151q0 -105 -121 -153v-2q68 -16 113 -64t45 -114q0 -93 -89 -157.5t-233 -64.5zM1589 424q59 0 99.5 30
t40.5 74q0 42 -40.5 70.5t-99.5 28.5q-61 0 -101 -28t-40 -71q0 -45 40 -74.5t101 -29.5zM1589 96q67 0 113.5 32.5t46.5 84.5q0 53 -43.5 84t-116.5 31q-76 0 -120 -31t-44 -84q0 -51 47 -84t117 -33z" />
    <glyph glyph-name="seveneighths" unicode="&#x215e;" horiz-adv-x="1882" 
d="M344 784h-164q0 137 79.5 317.5t213.5 297.5h-428v121h608v-125q-98 -72 -170.5 -184t-105.5 -221.5t-33 -205.5zM291 0h-182l1366 1468h174zM1475 -29q-145 0 -234.5 63t-89.5 154q0 68 47 118.5t111 64.5v2q-121 54 -121 155q0 90 82 148.5t205 58.5q119 0 201.5 -58
t82.5 -151q0 -105 -121 -153v-2q68 -16 113 -64t45 -114q0 -93 -88.5 -157.5t-232.5 -64.5zM1477 424q59 0 99 30t40 74q0 42 -40 70.5t-99 28.5q-61 0 -101.5 -28t-40.5 -71q0 -44 40.5 -74t101.5 -30zM1477 96q67 0 113 32.5t46 84.5q0 53 -43 84t-116 31q-76 0 -120 -31
t-44 -84q0 -51 47 -84t117 -33z" />
    <glyph glyph-name="arrowleft" unicode="&#x2190;" horiz-adv-x="1697" 
d="M408 723h1142v-158h-1140l338 -329h-207l-408 405v8l408 406h207z" />
    <glyph glyph-name="arrowup" unicode="&#x2191;" horiz-adv-x="1187" 
d="M598 1202l487 -340v-186l-403 287v-943h-174v945l-406 -289v186l488 340h8z" />
    <glyph glyph-name="arrowright" unicode="&#x2192;" horiz-adv-x="1697" 
d="M948 1055h207l408 -406v-8l-408 -405h-207l338 329h-1141v158h1143z" />
    <glyph glyph-name="arrowdown" unicode="&#x2193;" horiz-adv-x="1189" 
d="M682 1202v-944l405 289v-187l-487 -340h-8l-488 340v187l406 -289v944h172z" />
    <glyph glyph-name="arrowboth" unicode="&#x2194;" horiz-adv-x="2125" 
d="M743 233h-206l-408 406v8l408 406h206l-350 -336h1340l-351 336h207l408 -406v-8l-408 -406h-207l349 334h-1336z" />
    <glyph glyph-name="arrowupdn" unicode="&#x2195;" horiz-adv-x="1300" 
d="M655 4h-8l-487 328v172l405 -266v917l-405 -272v178l487 325h8l488 -325v-178l-406 272v-917l406 266v-172z" />
    <glyph glyph-name="uni2196" unicode="&#x2196;" horiz-adv-x="1247" 
d="M1059 1036l92 -162l-494 46l471 -816l-149 -86l-471 816l-207 -451l-94 162l252 538l8 4z" />
    <glyph glyph-name="uni2197" unicode="&#x2197;" horiz-adv-x="1247" 
d="M791 1083l251 -538l-94 -162l-207 451l-471 -816l-149 86l471 816l-494 -46l92 162l592 51z" />
    <glyph glyph-name="uni2198" unicode="&#x2198;" horiz-adv-x="1245" 
d="M739 387l207 451l94 -160l-252 -539l-8 -4l-592 51l-92 160l496 -45l-473 817l149 86z" />
    <glyph glyph-name="uni2199" unicode="&#x2199;" horiz-adv-x="1245" 
d="M1128 1118l-473 -817l496 45l-92 -160l-592 -51l-8 4l-252 539l94 160l207 -451l471 817z" />
    <glyph glyph-name="emptyset" unicode="&#x2205;" horiz-adv-x="1708" 
d="M1485 1194l-150 -174q107 -83 165.5 -199.5t58.5 -253.5q0 -127 -52 -238t-144 -191.5t-224.5 -126.5t-286.5 -46q-193 0 -350 74l-154 -180l-123 80l150 176q-107 83 -165 199t-58 253q0 128 51.5 239t143 191t223.5 126t286 46q196 0 354 -73l150 176zM348 565
q0 -186 148 -309l594 698q-106 45 -234 45q-222 0 -365 -124.5t-143 -309.5zM856 135q222 0 363 123t141 307q0 190 -143 314l-596 -699q109 -45 235 -45z" />
    <glyph glyph-name="minus" unicode="&#x2212;" horiz-adv-x="1224" 
d="M1059 551h-893v149h893v-149z" />
    <glyph glyph-name="infinity" unicode="&#x221e;" horiz-adv-x="2197" 
d="M584 285q-184 0 -307 96.5t-123 243.5q0 145 127.5 242.5t302.5 97.5q122 0 228.5 -54t285.5 -196q181 142 287 196t227 54q183 0 306.5 -96.5t123.5 -243.5t-123.5 -243.5t-306.5 -96.5q-86 0 -164.5 27.5t-155 77.5t-194.5 145q-173 -142 -279.5 -196t-234.5 -54z
M582 420q39 0 77 8.5t65.5 18.5t66.5 34t61 39.5t70 51t73 53.5q-20 15 -73.5 55t-71.5 52.5t-59.5 38.5t-67.5 34.5t-63.5 17t-77.5 8.5q-115 0 -185.5 -56.5t-70.5 -149.5q0 -95 72.5 -150t183.5 -55zM1616 420q112 0 183 54.5t71 150.5q0 93 -69.5 148.5t-184.5 55.5
q-29 0 -58 -5t-51 -10t-51.5 -19.5t-46 -22.5t-50 -31.5t-46.5 -33.5t-54 -40.5t-55 -41.5q19 -14 69.5 -51.5t70 -51t61 -39.5t68.5 -35.5t65.5 -18.5t77.5 -9z" />
    <glyph glyph-name="approxequal" unicode="&#x2248;" horiz-adv-x="1292" 
d="M346 707h-164q0 131 83.5 205.5t201.5 74.5q61 0 115 -20.5t86.5 -45t75 -45t83.5 -20.5q61 0 90 36t29 93h164q0 -136 -74 -208t-194 -72q-63 0 -118.5 21t-88.5 45.5t-77 45.5t-87 21q-61 0 -93 -38t-32 -93zM346 276h-164q0 131 83.5 205t201.5 74q61 0 115 -20.5
t86.5 -45t75 -45t83.5 -20.5q61 0 90 36.5t29 92.5h164q0 -135 -74 -208t-194 -73q-52 0 -97.5 14t-77.5 34t-62 40t-64 34t-70 14q-61 0 -93 -39t-32 -93z" />
    <glyph glyph-name="notequal" unicode="&#x2260;" horiz-adv-x="1267" 
d="M1081 905v-149h-305l-121 -277h426v-149h-485l-80 -178h-156l80 178h-260v149h318l123 277h-441v149h502l70 166h155l-69 -166h243z" />
    <glyph glyph-name="lessequal" unicode="&#x2264;" horiz-adv-x="1249" 
d="M1061 319h-877v130h561l-559 176v151l875 178v-141l-668 -131l668 -229v-134z" />
    <glyph glyph-name="greaterequal" unicode="&#x2265;" horiz-adv-x="1249" 
d="M1063 319h-875v134l670 229l-670 131v141l875 -178v-151l-559 -176h559v-130z" />
    <glyph glyph-name="lozenge" unicode="&#x25ca;" horiz-adv-x="1386" 
d="M748 0h-109l-502 694l502 692h109l499 -692zM326 694l362 -495h10l361 495l-361 494h-10z" />
    <glyph glyph-name="A.ss01" horiz-adv-x="1841" 
d="M254 0h-219l727 1597h317l725 -1597h-215q-143 313 -233 520h-864q-38 -89 -238 -520zM557 690h735q-193 417 -317 690h-98q-52 -115 -160 -345.5t-160 -344.5z" />
    <glyph glyph-name="Aacute.ss01" horiz-adv-x="1841" 
d="M1389 2056l-404 -336h-176l307 336h273zM254 0h-219l727 1597h317l725 -1597h-215q-143 313 -233 520h-864q-38 -89 -238 -520zM557 690h735q-193 417 -317 690h-98q-52 -115 -160 -345.5t-160 -344.5z" />
    <glyph glyph-name="Abreve.ss01" horiz-adv-x="1841" 
d="M918 1722q-102 0 -188.5 29t-143.5 76.5t-90 108t-37 124.5h172q6 -78 88 -139t199 -61q118 0 199 60.5t87 139.5h170q-2 -64 -34.5 -124.5t-89.5 -108t-143.5 -76.5t-188.5 -29zM254 0h-219l727 1597h317l725 -1597h-215q-143 313 -233 520h-864q-38 -89 -238 -520z
M557 690h735q-193 417 -317 690h-98q-52 -115 -160 -345.5t-160 -344.5z" />
    <glyph glyph-name="Acircumflex.ss01" horiz-adv-x="1841" 
d="M1028 2042l328 -322h-180q-26 21 -81 63t-97 76t-80 66q-53 -44 -144.5 -114t-118.5 -91h-178l326 322h225zM254 0h-219l727 1597h317l725 -1597h-215q-143 313 -233 520h-864q-38 -89 -238 -520zM557 690h735q-193 417 -317 690h-98q-52 -115 -160 -345.5t-160 -344.5z
" />
    <glyph glyph-name="Adieresis.ss01" horiz-adv-x="1841" 
d="M674 1772q-60 0 -101 37t-41 92q0 51 41 86.5t101 35.5q58 0 98.5 -35.5t40.5 -86.5q0 -55 -40 -92t-99 -37zM1163 1772q-62 0 -102.5 37t-40.5 92q0 51 41 86.5t102 35.5q57 0 98.5 -35.5t41.5 -86.5q0 -55 -41 -92t-99 -37zM254 0h-219l727 1597h317l725 -1597h-215
q-143 313 -233 520h-864q-38 -89 -238 -520zM557 690h735q-193 417 -317 690h-98q-52 -115 -160 -345.5t-160 -344.5z" />
    <glyph glyph-name="Agrave.ss01" horiz-adv-x="1841" 
d="M1038 1720h-176l-403 336h272zM254 0h-219l727 1597h317l725 -1597h-215q-143 313 -233 520h-864q-38 -89 -238 -520zM557 690h735q-193 417 -317 690h-98q-52 -115 -160 -345.5t-160 -344.5z" />
    <glyph glyph-name="Amacron.ss01" horiz-adv-x="1841" 
d="M1327 1810h-819v144h819v-144zM254 0h-219l727 1597h317l725 -1597h-215q-143 313 -233 520h-864q-38 -89 -238 -520zM557 690h735q-193 417 -317 690h-98q-52 -115 -160 -345.5t-160 -344.5z" />
    <glyph glyph-name="Aogonek.ss01" horiz-adv-x="1841" 
d="M1757 -342q53 0 105 14v-118q-67 -17 -127 -17q-92 0 -166.5 26t-121 80.5t-46.5 127.5q0 69 51.5 128t142.5 101h-6q-143 313 -233 520h-864q-38 -89 -238 -520h-219l727 1597h317l725 -1597h-49q-103 -34 -156 -86.5t-53 -108.5q0 -63 58.5 -105t152.5 -42zM557 690
h735q-193 417 -317 690h-98q-52 -115 -160 -345.5t-160 -344.5z" />
    <glyph glyph-name="Aring.ss01" horiz-adv-x="1841" 
d="M915 1714q-120 0 -199 66t-79 164q0 97 79 161t199 64q118 0 197.5 -63.5t79.5 -161.5q0 -99 -79.5 -164.5t-197.5 -65.5zM915 1829q62 0 104 31.5t42 83.5q0 50 -42 81t-104 31q-64 0 -106.5 -31t-42.5 -81q0 -53 42 -84t107 -31zM254 0h-219l727 1597h317l725 -1597
h-215q-143 313 -233 520h-864q-38 -89 -238 -520zM557 690h735q-193 417 -317 690h-98q-52 -115 -160 -345.5t-160 -344.5z" />
    <glyph glyph-name="Atilde.ss01" horiz-adv-x="1841" 
d="M1104 1743q-47 0 -85.5 10.5t-57.5 21.5t-50 33l-51 35q-63 45 -117 45q-53 0 -86.5 -37t-33.5 -92h-144q1 120 74.5 194.5t187.5 74.5q84 0 179 -64l55 -35q68 -47 123 -47q53 0 81.5 36t28.5 95h146q0 -126 -66 -198t-184 -72zM254 0h-219l727 1597h317l725 -1597h-215
q-143 313 -233 520h-864q-38 -89 -238 -520zM557 690h735q-193 417 -317 690h-98q-52 -115 -160 -345.5t-160 -344.5z" />
    <glyph glyph-name="B.ss01" horiz-adv-x="1751" 
d="M1024 0h-774v1597h704q282 0 444.5 -120t162.5 -295q0 -79 -34.5 -150.5t-113.5 -131t-192 -83.5v-4q197 -30 300 -134t103 -249q0 -131 -82 -230t-217 -149.5t-301 -50.5zM455 889h460q197 0 315 70t118 192q0 85 -60.5 148t-161 93.5t-227.5 30.5h-444v-534zM455 174
h512q200 0 321 71t121 197q0 129 -128 204t-327 75h-499v-547z" />
    <glyph glyph-name="C.ss01" horiz-adv-x="2062" 
d="M1098 -35q-210 0 -390.5 61t-309 169.5t-201 263.5t-72.5 338q0 187 76.5 345t207 264t305.5 165t371 59q186 0 353.5 -53t300 -162.5t194.5 -261.5l-184 -70q-86 171 -264 270t-400 99q-151 0 -285.5 -45.5t-236.5 -129t-161.5 -209.5t-59.5 -277q0 -130 44 -238.5
t118 -183t173.5 -126.5t209.5 -76t227 -24q275 0 456 126t253 331l186 -61q-98 -268 -331 -421t-580 -153z" />
    <glyph glyph-name="D.ss01" horiz-adv-x="1972" 
d="M956 0h-706v1597h684q187 0 339.5 -40.5t257 -112t176 -171.5t104 -216t32.5 -248q0 -178 -61 -327t-173 -256t-280 -166.5t-373 -59.5zM455 174h503q308 0 490 161t182 460q0 160 -54 281.5t-153 196.5t-233.5 112.5t-302.5 37.5h-432v-1249z" />
    <glyph glyph-name="E.ss01" horiz-adv-x="1613" 
d="M1487 0h-1237v1597h1212v-174h-1007v-514h958v-182h-958v-549h1032v-178z" />
    <glyph glyph-name="F.ss01" horiz-adv-x="1525" 
d="M1440 1597v-180h-985v-530h936v-180h-936v-707h-205v1597h1190z" />
    <glyph glyph-name="G.ss01" horiz-adv-x="2107" 
d="M1092 -35q-286 0 -506.5 106t-340.5 293.5t-120 426.5q0 190 76.5 349t207 265.5t305.5 165.5t371 59q186 0 354.5 -53.5t301 -163t192.5 -260.5l-184 -70q-86 173 -263.5 271t-400.5 98q-150 0 -284.5 -45.5t-236.5 -128t-162 -208.5t-60 -277q0 -197 98.5 -345
t275.5 -226.5t408 -78.5q297 0 471 130.5t201 359.5h-651v160h846v-60q0 -154 -47.5 -282t-131 -217t-197.5 -150.5t-245.5 -90t-277.5 -28.5z" />
    <glyph glyph-name="H.ss01" horiz-adv-x="1986" 
d="M1534 891v706h203v-1597h-203v711h-1079v-711h-205v1597h205v-706h1079z" />
    <glyph glyph-name="I.ss01" horiz-adv-x="1347" 
d="M1247 0h-1147v174h471v1249h-483v174h1172v-174h-484v-1249h471v-174z" />
    <glyph glyph-name="Iacute.ss01" horiz-adv-x="1347" 
d="M1108 2054l-403 -334h-177l308 334h272zM1247 0h-1147v174h471v1249h-483v174h1172v-174h-484v-1249h471v-174z" />
    <glyph glyph-name="Icircumflex.ss01" horiz-adv-x="1347" 
d="M786 2042l328 -322h-180q-26 21 -81 63t-97 76t-80 66q-53 -44 -145.5 -115t-116.5 -90h-178l325 322h225zM1247 0h-1147v174h471v1249h-483v174h1172v-174h-484v-1249h471v-174z" />
    <glyph glyph-name="Idieresis.ss01" horiz-adv-x="1347" 
d="M430 1772q-60 0 -100.5 37t-40.5 92q0 51 40.5 86.5t100.5 35.5q58 0 98.5 -35.5t40.5 -86.5q0 -55 -40 -92t-99 -37zM920 1772q-62 0 -103 37t-41 92q0 51 41.5 86.5t102.5 35.5q57 0 98 -35.5t41 -86.5q0 -55 -40.5 -92t-98.5 -37zM1247 0h-1147v174h471v1249h-483v174
h1172v-174h-484v-1249h471v-174z" />
    <glyph glyph-name="Idotaccent.ss01" horiz-adv-x="1347" 
d="M674 1776q-63 0 -105.5 39t-42.5 96q0 53 43 91t105 38q61 0 104 -38t43 -91q0 -57 -42.5 -96t-104.5 -39zM1247 0h-1147v174h471v1249h-483v174h1172v-174h-484v-1249h471v-174z" />
    <glyph glyph-name="Igrave.ss01" horiz-adv-x="1347" 
d="M795 1720h-177l-403 336h272zM1247 0h-1147v174h471v1249h-483v174h1172v-174h-484v-1249h471v-174z" />
    <glyph glyph-name="Imacron.ss01" horiz-adv-x="1347" 
d="M1083 1810h-819v144h819v-144zM1247 0h-1147v174h471v1249h-483v174h1172v-174h-484v-1249h471v-174z" />
    <glyph glyph-name="J.ss01" horiz-adv-x="1458" 
d="M674 -35q-92 0 -175.5 17.5t-162 58t-135.5 101.5t-91 154.5t-34 209.5v33l192 24v-31q0 -85 24 -153.5t62.5 -112t91 -72.5t106 -41t110.5 -12q176 0 270 105t94 274v903h-661v174h864v-1036q0 -32 -0.5 -54.5t-5.5 -71.5t-14 -85.5t-28.5 -88.5t-46.5 -90t-69.5 -79
t-96 -67t-129 -43t-165.5 -17z" />
    <glyph glyph-name="K.ss01" horiz-adv-x="1656" 
d="M455 0h-205v1597h205v-696h6q893 686 907 696h266q-189 -151 -540.5 -428.5t-481.5 -380.5q177 -131 529.5 -394t529.5 -394h-282q-778 552 -934 662v-662z" />
    <glyph glyph-name="L.ss01" horiz-adv-x="1449" 
d="M455 1597v-1419h960v-178h-1165v1597h205z" />
    <glyph glyph-name="M.ss01" horiz-adv-x="2326" 
d="M1837 1597h240v-1597h-205v1264l-625 -938h-166l-624 938v-1264h-207v1597h242q350 -517 669 -1019h6q15 23 86.5 134.5t93.5 145.5t84 130.5t97.5 150t91.5 138.5t108.5 162t108.5 158z" />
    <glyph glyph-name="N.ss01" horiz-adv-x="2023" 
d="M455 0h-205v1597h274l992 -1259h55v1259h203v-1597h-273l-987 1249h-59v-1249z" />
    <glyph glyph-name="O.ss01" horiz-adv-x="2174" 
d="M1087 -35q-195 0 -372 62.5t-307.5 171t-207.5 264.5t-77 334q0 177 76 333t206 265t307.5 172t374.5 63q200 0 378.5 -64t306.5 -174.5t203 -265.5t75 -329q0 -175 -75.5 -330t-204.5 -264.5t-307 -173.5t-376 -64zM1090 143q199 0 368.5 84t271 235t101.5 335
q0 138 -59.5 260.5t-159.5 208.5t-236.5 136t-285.5 50q-150 0 -287 -49.5t-239.5 -134.5t-163 -208t-60.5 -263q0 -186 103.5 -337t274.5 -234t372 -83z" />
    <glyph glyph-name="P.ss01" horiz-adv-x="1644" 
d="M250 1597h682q99 0 189 -16.5t172 -53.5t142.5 -92t96 -137.5t35.5 -183.5q0 -105 -36.5 -191.5t-96.5 -142.5t-139.5 -94.5t-161.5 -55t-166 -16.5h-512v-614h-205v1597zM455 795h454q203 0 324 78.5t121 234.5q0 155 -127.5 235t-329.5 80h-442v-628z" />
    <glyph glyph-name="Q.ss01" horiz-adv-x="2185" 
d="M678 -221v-2h1202v-166h-1608l435 418q-263 91 -419.5 293.5t-156.5 474.5q0 244 126.5 435t346 294.5t492.5 103.5q206 0 385 -62.5t305.5 -172t199 -264.5t72.5 -334q0 -180 -73 -335.5t-201 -263.5t-306.5 -169.5t-383.5 -61.5q-104 0 -195 15zM344 797
q0 -231 140.5 -396.5t371.5 -226.5l363 350l149 -108q-91 -86 -295 -273h25q208 0 378 81t269.5 231.5t99.5 341.5q0 143 -58 266.5t-158 208.5t-237.5 133.5t-293.5 48.5q-210 0 -381.5 -81.5t-272 -232.5t-100.5 -343z" />
    <glyph glyph-name="R.ss01" horiz-adv-x="1703" 
d="M737 621l893 -621h-264l-897 621h-14v-621h-205v1597h682q99 0 189 -16.5t172 -53.5t142.5 -92t96 -136.5t35.5 -182.5q0 -106 -37 -192t-97 -141.5t-139.5 -92.5t-161 -53t-165.5 -16h-230zM897 1438h-442v-650h454q214 0 329.5 87t115.5 239q0 149 -123.5 236.5
t-333.5 87.5z" />
    <glyph glyph-name="S.ss01" horiz-adv-x="1589" 
d="M819 -35q-116 0 -225 27t-208 81t-176.5 146.5t-117.5 214.5l191 64q58 -178 202 -268.5t334 -90.5q81 0 157 16.5t140.5 49.5t104 88.5t39.5 126.5q0 43 -13 78t-46 62t-57 44t-81 36t-79.5 25.5t-88.5 22.5q-21 5 -31 8l-178 47q-48 12 -86.5 23t-95.5 32.5
t-100.5 44.5t-91 59t-78.5 76.5t-51.5 95.5t-20.5 118q0 104 53 189t141.5 138.5t199.5 82t232 28.5q230 0 404 -103t235 -276l-184 -71q-52 128 -175.5 202t-295.5 74q-168 0 -283.5 -69.5t-115.5 -180.5q0 -44 19.5 -82.5t53 -67t72.5 -51.5t84.5 -40t82 -28t71.5 -21
l12 -3l190 -51q180 -48 253 -78q223 -93 260 -264q8 -37 8 -76q0 -140 -90 -250.5t-240 -169.5t-330 -59z" />
    <glyph glyph-name="U.ss01" horiz-adv-x="1867" 
d="M901 -35q-136 0 -249 34.5t-190.5 94t-131 140t-78.5 170.5t-25 188v1005h205v-991q0 -211 127 -338t359 -127q233 0 364 127.5t131 337.5v991h205v-1597h-197v184h-4q-79 -114 -204 -166.5t-312 -52.5z" />
    <glyph glyph-name="Uacute.ss01" horiz-adv-x="1867" 
d="M1229 2054l-404 -334h-176l307 334h273zM901 -35q-136 0 -249 34.5t-190.5 94t-131 140t-78.5 170.5t-25 188v1005h205v-991q0 -211 127 -338t359 -127q233 0 364 127.5t131 337.5v991h205v-1597h-197v184h-4q-79 -114 -204 -166.5t-312 -52.5z" />
    <glyph glyph-name="Ucircumflex.ss01" horiz-adv-x="1867" 
d="M1026 2042l328 -322h-180q-28 22 -81.5 63.5t-97 75.5t-80.5 66q-53 -44 -145.5 -115t-116.5 -90h-178l326 322h225zM901 -35q-136 0 -249 34.5t-190.5 94t-131 140t-78.5 170.5t-25 188v1005h205v-991q0 -211 127 -338t359 -127q233 0 364 127.5t131 337.5v991h205
v-1597h-197v184h-4q-79 -114 -204 -166.5t-312 -52.5z" />
    <glyph glyph-name="Udieresis.ss01" horiz-adv-x="1867" 
d="M670 1772q-60 0 -101 37t-41 92q0 51 41 86.5t101 35.5q58 0 98.5 -35.5t40.5 -86.5q0 -55 -40 -92t-99 -37zM1159 1772q-62 0 -102.5 37t-40.5 92q0 51 41 86.5t102 35.5q57 0 98 -35.5t41 -86.5q0 -55 -40.5 -92t-98.5 -37zM901 -35q-136 0 -249 34.5t-190.5 94
t-131 140t-78.5 170.5t-25 188v1005h205v-991q0 -211 127 -338t359 -127q233 0 364 127.5t131 337.5v991h205v-1597h-197v184h-4q-79 -114 -204 -166.5t-312 -52.5z" />
    <glyph glyph-name="Ugrave.ss01" horiz-adv-x="1867" 
d="M1036 1720h-176l-403 336h272zM901 -35q-136 0 -249 34.5t-190.5 94t-131 140t-78.5 170.5t-25 188v1005h205v-991q0 -211 127 -338t359 -127q233 0 364 127.5t131 337.5v991h205v-1597h-197v184h-4q-79 -114 -204 -166.5t-312 -52.5z" />
    <glyph glyph-name="Uhungarumlaut.ss01" horiz-adv-x="1867" 
d="M1096 2054l-340 -334h-170l256 334h254zM1511 2054l-358 -334h-172l274 334h256zM901 -35q-136 0 -249 34.5t-190.5 94t-131 140t-78.5 170.5t-25 188v1005h205v-991q0 -211 127 -338t359 -127q233 0 364 127.5t131 337.5v991h205v-1597h-197v184h-4
q-79 -114 -204 -166.5t-312 -52.5z" />
    <glyph glyph-name="Umacron.ss01" horiz-adv-x="1867" 
d="M1323 1810h-819v144h819v-144zM901 -35q-136 0 -249 34.5t-190.5 94t-131 140t-78.5 170.5t-25 188v1005h205v-991q0 -211 127 -338t359 -127q233 0 364 127.5t131 337.5v991h205v-1597h-197v184h-4q-79 -114 -204 -166.5t-312 -52.5z" />
    <glyph glyph-name="Uogonek.ss01" horiz-adv-x="1867" 
d="M1599 -342q53 0 105 14v-118q-67 -17 -127 -17q-92 0 -166.5 26t-121 80.5t-46.5 127.5q0 69 51.5 128t143.5 101h-17v184h-4q-79 -114 -204 -166.5t-312 -52.5q-136 0 -249 34.5t-190.5 94t-131 140t-78.5 170.5t-25 188v1005h205v-991q0 -211 127 -338t359 -127
q233 0 364 127.5t131 337.5v991h205v-1597h-21q-102 -34 -155 -86.5t-53 -108.5q0 -63 58 -105t152 -42z" />
    <glyph glyph-name="Uring.ss01" horiz-adv-x="1867" 
d="M913 1714q-120 0 -199 66t-79 164q0 97 79 161t199 64q118 0 197.5 -63.5t79.5 -161.5q0 -99 -79.5 -164.5t-197.5 -65.5zM913 1829q62 0 104 31.5t42 83.5q0 50 -42 81t-104 31q-64 0 -106.5 -31t-42.5 -81q0 -53 42 -84t107 -31zM901 -35q-136 0 -249 34.5t-190.5 94
t-131 140t-78.5 170.5t-25 188v1005h205v-991q0 -211 127 -338t359 -127q233 0 364 127.5t131 337.5v991h205v-1597h-197v184h-4q-79 -114 -204 -166.5t-312 -52.5z" />
    <glyph glyph-name="V.ss01" horiz-adv-x="1835" 
d="M1071 0h-311l-727 1597h215q82 -179 216 -471.5t408 -887.5h95q110 237 316 691.5t304 667.5h215z" />
    <glyph glyph-name="W.ss01" horiz-adv-x="2801" 
d="M901 0h-252l-608 1597h223l512 -1339h4l451 1339h358l439 -1339h6l503 1339h224l-607 -1597h-251l-443 1370h-102z" />
    <glyph glyph-name="Wacute.ss01" horiz-adv-x="2801" 
d="M1874 2056l-404 -336h-176l308 336h272zM901 0h-252l-608 1597h223l512 -1339h4l451 1339h358l439 -1339h6l503 1339h224l-607 -1597h-251l-443 1370h-102z" />
    <glyph glyph-name="Wcircumflex.ss01" horiz-adv-x="2801" 
d="M1513 2042l328 -322h-180q-26 21 -81 63t-97 76t-80 66q-53 -44 -145.5 -115t-116.5 -90h-178l325 322h225zM901 0h-252l-608 1597h223l512 -1339h4l451 1339h358l439 -1339h6l503 1339h224l-607 -1597h-251l-443 1370h-102z" />
    <glyph glyph-name="Wdieresis.ss01" horiz-adv-x="2801" 
d="M1157 1772q-60 0 -100.5 37t-40.5 92q0 51 40.5 86.5t100.5 35.5q58 0 98.5 -35.5t40.5 -86.5q0 -55 -40 -92t-99 -37zM1647 1772q-62 0 -103 37t-41 92q0 51 41.5 86.5t102.5 35.5q57 0 98 -35.5t41 -86.5q0 -55 -40.5 -92t-98.5 -37zM901 0h-252l-608 1597h223
l512 -1339h4l451 1339h358l439 -1339h6l503 1339h224l-607 -1597h-251l-443 1370h-102z" />
    <glyph glyph-name="Wgrave.ss01" horiz-adv-x="2801" 
d="M1524 1720h-176l-404 336h273zM901 0h-252l-608 1597h223l512 -1339h4l451 1339h358l439 -1339h6l503 1339h224l-607 -1597h-251l-443 1370h-102z" />
    <glyph glyph-name="X.ss01" horiz-adv-x="1708" 
d="M256 0h-227l643 811v18l-631 768h229q158 -194 541 -673h88q48 59 198 247.5t345 425.5h223l-627 -768v-18l641 -811h-223q-239 301 -557 707h-88q-407 -521 -555 -707z" />
    <glyph glyph-name="Y.ss01" horiz-adv-x="1689" 
d="M571 0h-213l416 586l-713 1011h222l591 -825h5l598 825h219z" />
    <glyph glyph-name="Yacute.ss01" horiz-adv-x="1689" 
d="M1307 2054l-404 -334h-176l307 334h273zM571 0h-213l416 586l-713 1011h222l591 -825h5l598 825h219z" />
    <glyph glyph-name="Ycircumflex.ss01" horiz-adv-x="1689" 
d="M989 2042l328 -322h-180q-26 21 -81 63t-97 76t-80 66q-53 -44 -144.5 -114t-118.5 -91h-178l326 322h225zM571 0h-213l416 586l-713 1011h222l591 -825h5l598 825h219z" />
    <glyph glyph-name="Ydieresis.ss01" horiz-adv-x="1689" 
d="M633 1772q-60 0 -100.5 37t-40.5 92q0 51 40.5 86.5t100.5 35.5q58 0 98.5 -35.5t40.5 -86.5q0 -55 -40 -92t-99 -37zM1122 1772q-62 0 -102.5 37t-40.5 92q0 51 41 86.5t102 35.5q57 0 98.5 -35.5t41.5 -86.5q0 -55 -41 -92t-99 -37zM571 0h-213l416 586l-713 1011h222
l591 -825h5l598 825h219z" />
    <glyph glyph-name="Ygrave.ss01" horiz-adv-x="1689" 
d="M999 1720h-176l-403 336h272zM571 0h-213l416 586l-713 1011h222l591 -825h5l598 825h219z" />
    <glyph glyph-name="Z.ss01" horiz-adv-x="1677" 
d="M1579 0h-1581l1284 1423h-1130v174h1499l-1274 -1419h1202v-178z" />
    <glyph glyph-name="Zacute.ss01" horiz-adv-x="1677" 
d="M1303 2056l-404 -336h-176l307 336h273zM1579 0h-1581l1284 1423h-1130v174h1499l-1274 -1419h1202v-178z" />
    <glyph glyph-name="Zcaron.ss01" horiz-adv-x="1677" 
d="M1090 2042h178l-324 -322h-229l-326 322h180q150 -114 260 -207q107 89 261 207zM1579 0h-1581l1284 1423h-1130v174h1499l-1274 -1419h1202v-178z" />
    <glyph glyph-name="Zdotaccent.ss01" horiz-adv-x="1677" 
d="M838 1776q-63 0 -105.5 39t-42.5 96q0 53 43 91t105 38q61 0 104 -38t43 -91q0 -57 -42.5 -96t-104.5 -39zM1579 0h-1581l1284 1423h-1130v174h1499l-1274 -1419h1202v-178z" />
    <glyph glyph-name="Q.ss02" horiz-adv-x="2174" 
d="M1196 -31v-192h647v-166h-842v358q-243 17 -442.5 126t-317.5 293.5t-118 408.5q0 177 76 333t206 265t307.5 172t374.5 63q200 0 378.5 -64t306.5 -174.5t203 -265.5t75 -329q0 -217 -112.5 -399t-307 -294.5t-434.5 -134.5zM340 797q0 -172 89 -315t239.5 -230
t332.5 -105v455h195v-452q176 22 320 110t229.5 229t85.5 308q0 138 -59.5 260.5t-159.5 208.5t-236.5 136t-285.5 50q-150 0 -287 -49.5t-239.5 -134.5t-163 -208t-60.5 -263z" />
    <glyph glyph-name="A.ss07" 
d="M1225 -315q-237 0 -446.5 71t-359 193.5t-236.5 294t-87 364.5q0 198 87 372.5t236.5 298.5t359 195.5t446.5 71.5q239 0 449 -71.5t360 -195.5t236.5 -298.5t86.5 -372.5q0 -156 -55 -298t-157.5 -255t-241 -196.5t-313 -128.5t-365.5 -45zM1155 1096l-465 -963h148
q74 139 153 309h469q112 -214 156 -309h149l-462 963h-148zM1413 559h-373q120 241 189 375q68 -154 184 -375z" />
    <glyph glyph-name="B.ss07" horiz-adv-x="2459" 
d="M1225 -315q-237 0 -446.5 71t-359 193.5t-236.5 294t-87 364.5q0 198 87 372.5t236.5 298.5t359 195.5t446.5 71.5q239 0 449 -71.5t360 -195.5t236.5 -298.5t86.5 -372.5q0 -156 -55 -298t-157.5 -255t-241 -196.5t-313 -128.5t-365.5 -45zM854 1096v-963h467
q96 0 178 29t135.5 90t53.5 143q0 86 -57 147t-156 83q80 26 128 85t48 132q0 114 -103 184t-268 70h-426zM993 676v301h256q114 0 183 -41.5t69 -110.5q0 -73 -67 -111t-177 -38h-264zM1288 252h-295v309h287q117 0 187.5 -43.5t70.5 -114.5q0 -69 -67.5 -110t-182.5 -41z
" />
    <glyph glyph-name="C.ss07" 
d="M1227 -315q-237 0 -446.5 71t-359 193.5t-236.5 294t-87 364.5q0 198 87 372.5t236.5 298.5t359 195.5t446.5 71.5q239 0 449 -71.5t360 -195.5t236.5 -298.5t86.5 -372.5q0 -156 -55 -298t-157.5 -255t-241 -196.5t-313 -128.5t-365.5 -45zM1264 113q202 0 346 92.5
t202 261.5l-126 41q-38 -120 -145 -196t-271 -76q-86 0 -163.5 22.5t-142 66.5t-103 117.5t-38.5 167.5q0 168 122 275.5t310 107.5q135 0 237.5 -59.5t147.5 -159.5l129 47q-52 140 -196.5 217.5t-319.5 77.5q-159 0 -290 -61.5t-209 -177t-78 -263.5q0 -222 164.5 -361.5
t423.5 -139.5z" />
    <glyph glyph-name="D.ss07" 
d="M1225 -315q-237 0 -446.5 71t-359 193.5t-236.5 294t-87 364.5q0 198 87 372.5t236.5 298.5t359 195.5t446.5 71.5q239 0 449 -71.5t360 -195.5t236.5 -298.5t86.5 -372.5q0 -156 -55 -298t-157.5 -255t-241 -196.5t-313 -128.5t-365.5 -45zM809 1096v-963h430
q244 0 390.5 133t146.5 355q0 223 -147 349t-404 126h-416zM1241 252h-291v725h246q95 0 171.5 -20.5t135.5 -63t91 -114t32 -167.5q0 -169 -102.5 -264.5t-282.5 -95.5z" />
    <glyph glyph-name="E.ss07" 
d="M1225 -315q-237 0 -446.5 71t-359 193.5t-236.5 294t-87 364.5q0 198 87 372.5t236.5 298.5t359 195.5t446.5 71.5q239 0 449 -71.5t360 -195.5t236.5 -298.5t86.5 -372.5q0 -156 -55 -298t-157.5 -255t-241 -196.5t-313 -128.5t-365.5 -45zM877 1096v-963h753v123h-612
v309h569v123h-569v289h598v119h-739z" />
    <glyph glyph-name="F.ss07" horiz-adv-x="2459" 
d="M1225 -315q-237 0 -446.5 71t-359 193.5t-236.5 294t-87 364.5q0 198 87 372.5t236.5 298.5t359 195.5t446.5 71.5q239 0 449 -71.5t360 -195.5t236.5 -298.5t86.5 -372.5q0 -156 -55 -298t-157.5 -255t-241 -196.5t-313 -128.5t-365.5 -45zM901 1096v-963h141v420h555
v123h-555v297h586v123h-727z" />
    <glyph glyph-name="G.ss07" 
d="M1227 -315q-237 0 -446.5 71t-359 193.5t-236.5 294t-87 364.5q0 198 87 372.5t236.5 298.5t359 195.5t446.5 71.5q239 0 449 -71.5t360 -195.5t236.5 -298.5t86.5 -372.5q0 -156 -55 -298t-157.5 -255t-241 -196.5t-313 -128.5t-365.5 -45zM1247 113q152 0 262 51.5
t170 150.5l4 -182h117v488h-520v-113h381q-19 -124 -126.5 -198t-266.5 -74q-84 0 -161 22t-141.5 66t-103.5 118t-39 168q0 168 122 275.5t312 107.5q132 0 234 -58t149 -161l129 47q-52 139 -196.5 217t-319.5 78q-246 0 -411.5 -141.5t-165.5 -362.5q0 -219 160.5 -359
t410.5 -140z" />
    <glyph glyph-name="H.ss07" 
d="M1225 -315q-237 0 -446.5 71t-359 193.5t-236.5 294t-87 364.5q0 198 87 372.5t236.5 298.5t359 195.5t446.5 71.5q239 0 449 -71.5t360 -195.5t236.5 -298.5t86.5 -372.5q0 -156 -55 -298t-157.5 -255t-241 -196.5t-313 -128.5t-365.5 -45zM778 1096v-963h142v422h618
v-422h141v963h-141v-418h-618v418h-142z" />
    <glyph glyph-name="I.ss07" 
d="M1225 -315q-237 0 -446.5 71t-359 193.5t-236.5 294t-87 364.5q0 198 87 372.5t236.5 298.5t359 195.5t446.5 71.5q239 0 449 -71.5t360 -195.5t236.5 -298.5t86.5 -372.5q0 -156 -55 -298t-157.5 -255t-241 -196.5t-313 -128.5t-365.5 -45zM1159 1096v-963h141v963h-141
z" />
    <glyph glyph-name="J.ss07" 
d="M1225 -315q-237 0 -446.5 71t-359 193.5t-236.5 294t-87 364.5q0 198 87 372.5t236.5 298.5t359 195.5t446.5 71.5q239 0 449 -71.5t360 -195.5t236.5 -298.5t86.5 -372.5q0 -156 -55 -298t-157.5 -255t-241 -196.5t-313 -128.5t-365.5 -45zM1188 123q55 0 100.5 10.5
t78.5 26t59 41t42 49t28 57t17.5 57.5t8.5 58.5t3.5 51t0.5 44.5v588h-140v-614q0 -26 -1 -44.5t-5 -46.5t-12 -47.5t-23 -41.5t-35.5 -36t-53 -23t-72.5 -9q-44 0 -83.5 11.5t-74 35.5t-54.5 67.5t-20 102.5v33l-135 -15v-37q0 -81 31.5 -144t85 -100.5t118 -56
t136.5 -18.5z" />
    <glyph glyph-name="K.ss07" 
d="M1225 -315q-237 0 -446.5 71t-359 193.5t-236.5 294t-87 364.5q0 198 87 372.5t236.5 298.5t359 195.5t446.5 71.5q239 0 449 -71.5t360 -195.5t236.5 -298.5t86.5 -372.5q0 -156 -55 -298t-157.5 -255t-241 -196.5t-313 -128.5t-365.5 -45zM854 1096v-963h139v322
q23 19 69.5 59.5t70.5 60.5q46 -48 193.5 -203t225.5 -239h174q-37 40 -132.5 142.5t-169.5 183.5t-193 215q69 61 226 203.5t245 218.5h-172q-284 -244 -537 -471v471h-139z" />
    <glyph glyph-name="L.ss07" 
d="M1225 -315q-237 0 -446.5 71t-359 193.5t-236.5 294t-87 364.5q0 198 87 372.5t236.5 298.5t359 195.5t446.5 71.5q239 0 449 -71.5t360 -195.5t236.5 -298.5t86.5 -372.5q0 -156 -55 -298t-157.5 -255t-241 -196.5t-313 -128.5t-365.5 -45zM969 1096v-963h710v123h-569
v840h-141z" />
    <glyph glyph-name="M.ss07" horiz-adv-x="2459" 
d="M1225 -315q-237 0 -446.5 71t-359 193.5t-236.5 294t-87 364.5q0 198 87 372.5t236.5 298.5t359 195.5t446.5 71.5q239 0 449 -71.5t360 -195.5t236.5 -298.5t86.5 -372.5q0 -156 -55 -298t-157.5 -255t-241 -196.5t-313 -128.5t-365.5 -45zM633 1096v-963h141v705
q59 -108 400 -705h110q45 80 181.5 319t217.5 388v-707h144v963h-166q-81 -150 -238.5 -429.5t-193.5 -344.5q-252 458 -432 774h-164z" />
    <glyph glyph-name="N.ss07" 
d="M1225 -315q-237 0 -446.5 71t-359 193.5t-236.5 294t-87 364.5q0 198 87 372.5t236.5 298.5t359 195.5t446.5 71.5q239 0 449 -71.5t360 -195.5t236.5 -298.5t86.5 -372.5q0 -156 -55 -298t-157.5 -255t-241 -196.5t-313 -128.5t-365.5 -45zM782 1096v-963h142v735
q122 -146 344 -400.5t291 -334.5h145v963h-139v-744q-177 212 -637 744h-146z" />
    <glyph glyph-name="O.ss07" 
d="M1225 -315q-237 0 -446.5 71t-359 193.5t-236.5 294t-87 364.5q0 198 87 372.5t236.5 298.5t359 195.5t446.5 71.5q239 0 449 -71.5t360 -195.5t236.5 -298.5t86.5 -372.5q0 -156 -55 -298t-157.5 -255t-241 -196.5t-313 -128.5t-365.5 -45zM1229 113q162 0 295 66
t209.5 181t76.5 254t-76 254.5t-209 181.5t-294 66q-246 0 -414 -144.5t-168 -357.5q0 -140 76.5 -255t209.5 -180.5t294 -65.5zM797 614q0 159 126 269t308 110q180 0 306 -110t126 -269t-125.5 -268.5t-306.5 -109.5t-307.5 109t-126.5 269z" />
    <glyph glyph-name="P.ss07" 
d="M1225 -315q-237 0 -446.5 71t-359 193.5t-236.5 294t-87 364.5q0 198 87 372.5t236.5 298.5t359 195.5t446.5 71.5q239 0 449 -71.5t360 -195.5t236.5 -298.5t86.5 -372.5q0 -156 -55 -298t-157.5 -255t-241 -196.5t-313 -128.5t-365.5 -45zM883 1096v-963h139v365h295
q64 0 126 17t117 51.5t89 95.5t34 141q0 63 -23.5 114t-61.5 84t-89 55t-104 31t-109 9h-413zM1282 621h-260v356h252q116 0 189 -45t73 -133q0 -91 -69 -134.5t-185 -43.5z" />
    <glyph glyph-name="Q.ss07" 
d="M1225 -315q-237 0 -446.5 71t-359 193.5t-236.5 294t-87 364.5q0 198 87 372.5t236.5 298.5t359 195.5t446.5 71.5q239 0 449 -71.5t360 -195.5t236.5 -298.5t86.5 -372.5q0 -156 -55 -298t-157.5 -255t-241 -196.5t-313 -128.5t-365.5 -45zM1669 61l103 78l-156 152
q93 69 143.5 166.5t50.5 206.5q0 140 -77 255t-211 180.5t-297 65.5t-297 -65.5t-210.5 -180.5t-76.5 -255t76.5 -255.5t210.5 -181t297 -65.5q152 0 282 59zM786 664q0 162 127 271t314 109q184 0 310 -109t126 -271q0 -165 -141 -275q-17 16 -82.5 79.5t-126.5 117.5
l-99 -78q39 -35 106 -98.5t89 -83.5q-80 -41 -182 -41q-187 0 -314 108.5t-127 270.5z" />
    <glyph glyph-name="R.ss07" 
d="M1225 -315q-237 0 -446.5 71t-359 193.5t-236.5 294t-87 364.5q0 198 87 372.5t236.5 298.5t359 195.5t446.5 71.5q239 0 449 -71.5t360 -195.5t236.5 -298.5t86.5 -372.5q0 -156 -55 -298t-157.5 -255t-241 -196.5t-313 -128.5t-365.5 -45zM885 1096v-963h141v367h225
l299 -367h158q-40 51 -152 188.5t-151 188.5q131 20 207 97t76 192q0 80 -35.5 140t-94 93t-123.5 48.5t-135 15.5h-415zM1286 616h-260v361h252q114 0 187 -46.5t73 -133.5q0 -91 -70.5 -136t-181.5 -45z" />
    <glyph glyph-name="S.ss07" 
d="M1225 -315q-237 0 -446.5 71t-359 193.5t-236.5 294t-87 364.5q0 198 87 372.5t236.5 298.5t359 195.5t446.5 71.5q239 0 449 -71.5t360 -195.5t236.5 -298.5t86.5 -372.5q0 -156 -55 -298t-157.5 -255t-241 -196.5t-313 -128.5t-365.5 -45zM1249 113q172 0 287 83
t115 210q0 50 -20 90t-50.5 65.5t-73.5 45.5t-80 31.5t-79 22.5q-9 2 -13 3l-112 28q-30 8 -51.5 14t-57.5 21t-58 31t-39.5 42t-17.5 56q0 61 63 100t161 39t170.5 -44t101.5 -122l125 50q-32 104 -136.5 170.5t-252.5 66.5q-99 0 -184.5 -30t-142 -93t-56.5 -147
q0 -199 319 -275l107 -26q7 -2 23 -6q39 -10 59 -16t51.5 -19t47.5 -26.5t29 -36t13 -50.5q0 -76 -74.5 -117t-173.5 -41q-115 0 -197.5 57t-113.5 159l-131 -43q23 -76 70 -134t108.5 -92t127.5 -50.5t136 -16.5z" />
    <glyph glyph-name="T.ss07" 
d="M1225 -315q-237 0 -446.5 71t-359 193.5t-236.5 294t-87 364.5q0 198 87 372.5t236.5 298.5t359 195.5t446.5 71.5q239 0 449 -71.5t360 -195.5t236.5 -298.5t86.5 -372.5q0 -156 -55 -298t-157.5 -255t-241 -196.5t-313 -128.5t-365.5 -45zM1159 977v-844h139v844h379
v119h-901v-119h383z" />
    <glyph glyph-name="U.ss07" 
d="M1225 -315q-237 0 -446.5 71t-359 193.5t-236.5 294t-87 364.5q0 198 87 372.5t236.5 298.5t359 195.5t446.5 71.5q239 0 449 -71.5t360 -195.5t236.5 -298.5t86.5 -372.5q0 -156 -55 -298t-157.5 -255t-241 -196.5t-313 -128.5t-365.5 -45zM1225 123q110 0 194 31
t133 85t73 120.5t24 144.5v602h-142v-594q0 -268 -278 -268q-283 0 -283 268v594h-141v-602q0 -79 23.5 -145.5t71.5 -120.5t131 -84.5t194 -30.5z" />
    <glyph glyph-name="V.ss07" 
d="M1225 -315q-237 0 -446.5 71t-359 193.5t-236.5 294t-87 364.5q0 198 87 372.5t236.5 298.5t359 195.5t446.5 71.5q239 0 449 -71.5t360 -195.5t236.5 -298.5t86.5 -372.5q0 -156 -55 -298t-157.5 -255t-241 -196.5t-313 -128.5t-365.5 -45zM698 1096l463 -963h150
l463 963h-150q-59 -114 -197 -406.5t-188 -394.5q-36 75 -126.5 265t-153 317t-113.5 219h-148z" />
    <glyph glyph-name="W.ss07" 
d="M1225 -315q-237 0 -446.5 71t-359 193.5t-236.5 294t-87 364.5q0 198 87 372.5t236.5 298.5t359 195.5t446.5 71.5q239 0 449 -71.5t360 -195.5t236.5 -298.5t86.5 -372.5q0 -156 -55 -298t-157.5 -255t-241 -196.5t-313 -128.5t-365.5 -45zM410 1096l366 -963h160
q141 344 293 762q144 -395 295 -762h157l367 963h-152q-38 -97 -294 -777q-54 143 -152.5 399.5t-144.5 377.5h-152q-208 -556 -293 -777q-107 288 -299 777h-151z" />
    <glyph glyph-name="X.ss07" 
d="M1225 -315q-237 0 -446.5 71t-359 193.5t-236.5 294t-87 364.5q0 198 87 372.5t236.5 298.5t359 195.5t446.5 71.5q239 0 449 -71.5t360 -195.5t236.5 -298.5t86.5 -372.5q0 -156 -55 -298t-157.5 -255t-241 -196.5t-313 -128.5t-365.5 -45zM752 133h166q38 45 315 385
q59 -70 164.5 -201.5t148.5 -183.5h166q-73 88 -205 253.5t-190 236.5q334 409 387 473h-164q-171 -203 -307 -369q-58 68 -163 194.5t-146 174.5h-164q62 -75 191 -232t198 -241q-79 -96 -227.5 -280t-169.5 -210z" />
    <glyph glyph-name="Y.ss07" 
d="M1225 -315q-237 0 -446.5 71t-359 193.5t-236.5 294t-87 364.5q0 198 87 372.5t236.5 298.5t359 195.5t446.5 71.5q239 0 449 -71.5t360 -195.5t236.5 -298.5t86.5 -372.5q0 -156 -55 -298t-157.5 -255t-241 -196.5t-313 -128.5t-365.5 -45zM1157 479v-346h141v348
q44 64 148.5 212.5t179.5 257.5t98 145h-151q-152 -211 -344 -490q-65 94 -188 268.5t-156 221.5h-154q49 -72 197.5 -285.5t228.5 -331.5z" />
    <glyph glyph-name="Z.ss07" 
d="M1225 -315q-237 0 -446.5 71t-359 193.5t-236.5 294t-87 364.5q0 198 87 372.5t236.5 298.5t359 195.5t446.5 71.5q239 0 449 -71.5t360 -195.5t236.5 -298.5t86.5 -372.5q0 -156 -55 -298t-157.5 -255t-241 -196.5t-313 -128.5t-365.5 -45zM797 252v-119h891v123h-719
q423 431 706 723v117h-852v-119h672q-586 -610 -698 -725z" />
    <glyph glyph-name="A.ss08" 
d="M1225 1546q239 0 449 -71.5t360 -195.5t236.5 -298.5t86.5 -372.5q0 -156 -55 -298t-157.5 -255t-241 -196.5t-313 -128.5t-365.5 -45q-237 0 -446.5 71t-359 193.5t-236.5 294t-87 364.5q0 198 87 372.5t236.5 298.5t359 195.5t446.5 71.5zM1225 -207q214 0 401 62
t320.5 170t210.5 260t77 325q0 175 -77 328.5t-210.5 263t-321 173t-400.5 63.5q-211 0 -397.5 -63.5t-320 -173t-211 -263t-77.5 -328.5q0 -172 77.5 -323.5t211 -260t320 -171t397.5 -62.5zM858 285l322 659h100l324 -659h-107q-28 60 -106 213h-324q-29 -58 -60.5 -121.5
t-45.5 -91.5h-103zM1104 580h250q-84 159 -125 251q-7 -15 -53 -105.5t-72 -145.5z" />
    <glyph glyph-name="B.ss08" 
d="M1225 1546q239 0 449 -71.5t360 -195.5t236.5 -298.5t86.5 -372.5q0 -156 -55 -298t-157.5 -255t-241 -196.5t-313 -128.5t-365.5 -45q-237 0 -446.5 71t-359 193.5t-236.5 294t-87 364.5q0 198 87 372.5t236.5 298.5t359 195.5t446.5 71.5zM1225 -207q214 0 401 62
t320.5 170t210.5 260t77 325q0 175 -77 328.5t-210.5 263t-321 173t-400.5 63.5q-211 0 -397.5 -63.5t-320 -173t-211 -263t-77.5 -328.5q0 -172 77.5 -323.5t211 -260t320 -171t397.5 -62.5zM1401 623q67 -19 105 -60t38 -96q0 -85 -74.5 -133.5t-177.5 -48.5h-327v659h295
q114 0 186 -49t72 -127q0 -47 -31.5 -86t-85.5 -59zM1065 860v-203h180q78 0 124 27.5t46 73.5t-49 74t-127 28h-174zM1268 369q75 0 123.5 26t48.5 74q0 49 -49.5 79t-128.5 30h-197v-209h203z" />
    <glyph glyph-name="C.ss08" 
d="M1225 -315q-237 0 -446.5 71t-359 193.5t-236.5 294t-87 364.5q0 198 87 372.5t236.5 298.5t359 195.5t446.5 71.5q239 0 449 -71.5t360 -195.5t236.5 -298.5t86.5 -372.5q0 -156 -55 -298t-157.5 -255t-241 -196.5t-313 -128.5t-365.5 -45zM1225 -207q214 0 401 62
t320.5 170t210.5 260t77 325q0 175 -77 328.5t-210.5 263t-321 173t-400.5 63.5q-211 0 -397.5 -63.5t-320 -173t-211 -263t-77.5 -328.5q0 -172 77.5 -323.5t211 -260t320 -171t397.5 -62.5zM1251 272q-179 0 -292 94.5t-113 245.5q0 152 115 248t284 96q129 0 226.5 -55
t132.5 -147l-88 -33q-33 71 -105.5 111t-163.5 40q-131 0 -214 -72.5t-83 -189.5q0 -84 45.5 -143t112.5 -85t147 -26q108 0 184.5 50t102.5 139l90 -31q-38 -115 -139 -178.5t-242 -63.5z" />
    <glyph glyph-name="D.ss08" horiz-adv-x="2459" 
d="M1225 -315q-237 0 -446.5 71t-359 193.5t-236.5 294t-87 364.5q0 198 87 372.5t236.5 298.5t359 195.5t446.5 71.5q239 0 449 -71.5t360 -195.5t236.5 -298.5t86.5 -372.5q0 -156 -55 -298t-157.5 -255t-241 -196.5t-313 -128.5t-365.5 -45zM1225 -207q214 0 401 62
t320.5 170t210.5 260t77 325q0 175 -77 328.5t-210.5 263t-321 173t-400.5 63.5q-211 0 -397.5 -63.5t-320 -173t-211 -263t-77.5 -328.5q0 -172 77.5 -323.5t211 -260t320 -171t397.5 -62.5zM1237 285h-299v659h289q178 0 278.5 -86.5t100.5 -239.5q0 -152 -101.5 -242.5
t-267.5 -90.5zM1036 369h203q124 0 195 64.5t71 180.5q0 126 -80.5 186t-216.5 60h-172v-491z" />
    <glyph glyph-name="E.ss08" 
d="M1225 -315q-237 0 -446.5 71t-359 193.5t-236.5 294t-87 364.5q0 198 87 372.5t236.5 298.5t359 195.5t446.5 71.5q239 0 449 -71.5t360 -195.5t236.5 -298.5t86.5 -372.5q0 -156 -55 -298t-157.5 -255t-241 -196.5t-313 -128.5t-365.5 -45zM1225 -207q214 0 401 62
t320.5 170t210.5 260t77 325q0 175 -77 328.5t-210.5 263t-321 173t-400.5 63.5q-211 0 -397.5 -63.5t-320 -173t-211 -263t-77.5 -328.5q0 -172 77.5 -323.5t211 -260t320 -171t397.5 -62.5zM1507 285h-522v659h514v-84h-416v-194h396v-86h-396v-209h424v-86z" />
    <glyph glyph-name="F.ss08" 
d="M1225 -315q-237 0 -446.5 71t-359 193.5t-236.5 294t-87 364.5q0 198 87 372.5t236.5 298.5t359 195.5t446.5 71.5q239 0 449 -71.5t360 -195.5t236.5 -298.5t86.5 -372.5q0 -156 -55 -298t-157.5 -255t-241 -196.5t-313 -128.5t-365.5 -45zM1225 -207q214 0 401 62
t320.5 170t210.5 260t77 325q0 175 -77 328.5t-210.5 263t-321 173t-400.5 63.5q-211 0 -397.5 -63.5t-320 -173t-211 -263t-77.5 -328.5q0 -172 77.5 -323.5t211 -260t320 -171t397.5 -62.5zM1100 285h-99v659h504v-84h-405v-203h385v-84h-385v-288z" />
    <glyph glyph-name="G.ss08" 
d="M1225 1546q239 0 449 -71.5t360 -195.5t236.5 -298.5t86.5 -372.5q0 -156 -55 -298t-157.5 -255t-241 -196.5t-313 -128.5t-365.5 -45q-237 0 -446.5 71t-359 193.5t-236.5 294t-87 364.5q0 198 87 372.5t236.5 298.5t359 195.5t446.5 71.5zM1225 -207q214 0 401 62
t320.5 170t210.5 260t77 325q0 175 -77 328.5t-210.5 263t-321 173t-400.5 63.5q-211 0 -397.5 -63.5t-320 -173t-211 -263t-77.5 -328.5q0 -172 77.5 -323.5t211 -260t320 -171t397.5 -62.5zM1262 543v75h364v-333h-86v123q-90 -136 -297 -136q-173 0 -285 95.5t-112 244.5
q0 150 113.5 247t285.5 97q129 0 226.5 -55t132.5 -147l-88 -33q-33 71 -105.5 111t-161.5 40q-131 0 -215 -73t-84 -189q0 -85 46 -144t113 -84.5t146 -25.5q110 0 184.5 51t86.5 136h-264z" />
    <glyph glyph-name="H.ss08" 
d="M1225 1546q239 0 449 -71.5t360 -195.5t236.5 -298.5t86.5 -372.5q0 -156 -55 -298t-157.5 -255t-241 -196.5t-313 -128.5t-365.5 -45q-237 0 -446.5 71t-359 193.5t-236.5 294t-87 364.5q0 198 87 372.5t236.5 298.5t359 195.5t446.5 71.5zM1225 -207q214 0 401 62
t320.5 170t210.5 260t77 325q0 175 -77 328.5t-210.5 263t-321 173t-400.5 63.5q-211 0 -397.5 -63.5t-320 -173t-211 -263t-77.5 -328.5q0 -172 77.5 -323.5t211 -260t320 -171t397.5 -62.5zM1016 659h426v285h100v-659h-100v288h-426v-288h-98v659h98v-285z" />
    <glyph glyph-name="I.ss08" horiz-adv-x="2459" 
d="M1227 -315q-237 0 -446.5 71t-359 193.5t-236.5 294t-87 364.5q0 198 87 372.5t236.5 298.5t359 195.5t446.5 71.5q239 0 449 -71.5t360 -195.5t236.5 -298.5t86.5 -372.5q0 -156 -55 -298t-157.5 -255t-241 -196.5t-313 -128.5t-365.5 -45zM1227 -207q214 0 401 62
t320.5 170t210.5 260t77 325q0 175 -77 328.5t-210.5 263t-321 173t-400.5 63.5q-211 0 -397.5 -63.5t-320 -173t-211 -263t-77.5 -328.5q0 -172 77.5 -323.5t211 -260t320 -171t397.5 -62.5zM1280 285h-100v659h100v-659z" />
    <glyph glyph-name="J.ss08" 
d="M1225 -315q-237 0 -446.5 71t-359 193.5t-236.5 294t-87 364.5q0 198 87 372.5t236.5 298.5t359 195.5t446.5 71.5q239 0 449 -71.5t360 -195.5t236.5 -298.5t86.5 -372.5q0 -156 -55 -298t-157.5 -255t-241 -196.5t-313 -128.5t-365.5 -45zM1225 -207q214 0 401 62
t320.5 170t210.5 260t77 325q0 175 -77 328.5t-210.5 263t-321 173t-400.5 63.5q-211 0 -397.5 -63.5t-320 -173t-211 -263t-77.5 -328.5q0 -172 77.5 -323.5t211 -260t320 -171t397.5 -62.5zM1200 279q-119 0 -187.5 58t-68.5 159v26l94 13v-27q0 -69 43 -108.5t117 -39.5
q38 0 65 12t40.5 28t21 42.5t9 44t1.5 43.5v420h99v-403q0 -24 -0.5 -39.5t-5 -46.5t-13 -52t-26 -47.5t-41.5 -43t-62 -28t-86 -11.5z" />
    <glyph glyph-name="K.ss08" 
d="M1225 1546q239 0 449 -71.5t360 -195.5t236.5 -298.5t86.5 -372.5q0 -156 -55 -298t-157.5 -255t-241 -196.5t-313 -128.5t-365.5 -45q-237 0 -446.5 71t-359 193.5t-236.5 294t-87 364.5q0 198 87 372.5t236.5 298.5t359 195.5t446.5 71.5zM1225 -207q214 0 401 62
t320.5 170t210.5 260t77 325q0 175 -77 328.5t-210.5 263t-321 173t-400.5 63.5q-211 0 -397.5 -63.5t-320 -173t-211 -263t-77.5 -328.5q0 -172 77.5 -323.5t211 -260t320 -171t397.5 -62.5zM1440 944h121l-328 -289q10 -11 342 -370h-121q-51 55 -167.5 174t-123.5 127
q-2 -2 -92 -80v-221h-100v659h100v-319q23 20 159 139.5t210 179.5z" />
    <glyph glyph-name="L.ss08" 
d="M1225 1546q239 0 449 -71.5t360 -195.5t236.5 -298.5t86.5 -372.5q0 -156 -55 -298t-157.5 -255t-241 -196.5t-313 -128.5t-365.5 -45q-237 0 -446.5 71t-359 193.5t-236.5 294t-87 364.5q0 198 87 372.5t236.5 298.5t359 195.5t446.5 71.5zM1225 -207q214 0 401 62
t320.5 170t210.5 260t77 325q0 175 -77 328.5t-210.5 263t-321 173t-400.5 63.5q-211 0 -397.5 -63.5t-320 -173t-211 -263t-77.5 -328.5q0 -172 77.5 -323.5t211 -260t320 -171t397.5 -62.5zM1049 944h98v-573h395v-86h-493v659z" />
    <glyph glyph-name="M.ss08" horiz-adv-x="2459" 
d="M1225 1546q239 0 449 -71.5t360 -195.5t236.5 -298.5t86.5 -372.5q0 -156 -55 -298t-157.5 -255t-241 -196.5t-313 -128.5t-365.5 -45q-237 0 -446.5 71t-359 193.5t-236.5 294t-87 364.5q0 198 87 372.5t236.5 298.5t359 195.5t446.5 71.5zM1225 -207q214 0 401 62
t320.5 170t210.5 260t77 325q0 175 -77 328.5t-210.5 263t-321 173t-400.5 63.5q-211 0 -397.5 -63.5t-320 -173t-211 -263t-77.5 -328.5q0 -172 77.5 -323.5t211 -260t320 -171t397.5 -62.5zM1229 416q143 244 301 528h110v-659h-98v479q-52 -94 -153.5 -270t-120.5 -209
h-76q-20 35 -62.5 107t-69.5 118.5t-66.5 117t-75.5 136.5v-479h-101v659h113q219 -381 299 -528z" />
    <glyph glyph-name="N.ss08" 
d="M1225 1546q239 0 449 -71.5t360 -195.5t236.5 -298.5t86.5 -372.5q0 -156 -55 -298t-157.5 -255t-241 -196.5t-313 -128.5t-365.5 -45q-237 0 -446.5 71t-359 193.5t-236.5 294t-87 364.5q0 198 87 372.5t236.5 298.5t359 195.5t446.5 71.5zM1225 -207q214 0 401 62
t320.5 170t210.5 260t77 325q0 175 -77 328.5t-210.5 263t-321 173t-400.5 63.5q-211 0 -397.5 -63.5t-320 -173t-211 -263t-77.5 -328.5q0 -172 77.5 -323.5t211 -260t320 -171t397.5 -62.5zM1460 436v508h99v-659h-99q-72 82 -218.5 247.5t-223.5 253.5v-501h-98v659h100
q104 -119 440 -508z" />
    <glyph glyph-name="O.ss08" horiz-adv-x="2455" 
d="M1225 -315q-237 0 -446.5 71t-359 193.5t-236.5 294t-87 364.5q0 198 87 372.5t236.5 298.5t359 195.5t446.5 71.5q239 0 449 -71.5t360 -195.5t236.5 -298.5t86.5 -372.5q0 -156 -55 -298t-157.5 -255t-241 -196.5t-313 -128.5t-365.5 -45zM1225 -207q214 0 401 62
t320.5 170t210.5 260t77 325q0 175 -77 328.5t-210.5 263t-321 173t-400.5 63.5q-211 0 -397.5 -63.5t-320 -173t-211 -263t-77.5 -328.5q0 -172 77.5 -323.5t211 -260t320 -171t397.5 -62.5zM1229 272q-169 0 -285.5 98t-116.5 244q0 145 117 243.5t287 98.5
q169 0 285 -98.5t116 -243.5t-116.5 -243.5t-286.5 -98.5zM1231 356q125 0 211 74.5t86 183.5t-86 183.5t-211 74.5t-212 -75t-87 -183t87 -183t212 -75z" />
    <glyph glyph-name="P.ss08" 
d="M1225 1546q239 0 449 -71.5t360 -195.5t236.5 -298.5t86.5 -372.5q0 -156 -55 -298t-157.5 -255t-241 -196.5t-313 -128.5t-365.5 -45q-237 0 -446.5 71t-359 193.5t-236.5 294t-87 364.5q0 198 87 372.5t236.5 298.5t359 195.5t446.5 71.5zM1225 -207q214 0 401 62
t320.5 170t210.5 260t77 325q0 175 -77 328.5t-210.5 263t-321 173t-400.5 63.5q-211 0 -397.5 -63.5t-320 -173t-211 -263t-77.5 -328.5q0 -172 77.5 -323.5t211 -260t320 -171t397.5 -62.5zM987 944h285q70 0 128.5 -18.5t100 -65.5t41.5 -117q0 -72 -40.5 -121t-95.5 -68
t-118 -19h-203v-250h-98v659zM1085 618h181q80 0 127 30t47 91q0 59 -50 90t-130 31h-175v-242z" />
    <glyph glyph-name="Q.ss08" 
d="M1225 -315q-237 0 -446.5 71t-359 193.5t-236.5 294t-87 364.5q0 198 87 372.5t236.5 298.5t359 195.5t446.5 71.5q239 0 449 -71.5t360 -195.5t236.5 -298.5t86.5 -372.5q0 -156 -55 -298t-157.5 -255t-241 -196.5t-313 -128.5t-365.5 -45zM1225 -207q214 0 401 62
t320.5 170t210.5 260t77 325q0 175 -77 328.5t-210.5 263t-321 173t-400.5 63.5q-211 0 -397.5 -63.5t-320 -173t-211 -263t-77.5 -328.5q0 -172 77.5 -323.5t211 -260t320 -171t397.5 -62.5zM1602 289l-70 -53q-25 25 -113 108q-92 -39 -194 -39q-171 0 -288.5 98
t-117.5 244t118 244t290 98q169 0 285 -98t116 -244q0 -75 -34 -141t-97 -113q20 -22 58 -58.5t47 -45.5zM1227 389q63 0 125 27q-33 33 -81.5 76.5t-58.5 50.5l74 55q54 -54 148 -137q92 73 92 186q0 108 -87 183t-212 75q-128 0 -215.5 -74.5t-87.5 -183.5t87 -183.5
t216 -74.5z" />
    <glyph glyph-name="R.ss08" 
d="M1225 1546q239 0 449 -71.5t360 -195.5t236.5 -298.5t86.5 -372.5q0 -156 -55 -298t-157.5 -255t-241 -196.5t-313 -128.5t-365.5 -45q-237 0 -446.5 71t-359 193.5t-236.5 294t-87 364.5q0 198 87 372.5t236.5 298.5t359 195.5t446.5 71.5zM1225 -207q214 0 401 62
t320.5 170t210.5 260t77 325q0 175 -77 328.5t-210.5 263t-321 173t-400.5 63.5q-211 0 -397.5 -63.5t-320 -173t-211 -263t-77.5 -328.5q0 -172 77.5 -323.5t211 -260t320 -171t397.5 -62.5zM1542 741q0 -78 -51.5 -131t-138.5 -67q120 -153 209 -258h-111l-207 250h-156
v-250h-98v659h285q50 0 96 -11t85.5 -34t63 -63.5t23.5 -94.5zM1087 616h181q79 0 126.5 31t47.5 92q0 58 -50.5 90.5t-129.5 32.5h-175v-246z" />
    <glyph glyph-name="S.ss08" 
d="M1225 -315q-237 0 -446.5 71t-359 193.5t-236.5 294t-87 364.5q0 198 87 372.5t236.5 298.5t359 195.5t446.5 71.5q239 0 449 -71.5t360 -195.5t236.5 -298.5t86.5 -372.5q0 -156 -55 -298t-157.5 -255t-241 -196.5t-313 -128.5t-365.5 -45zM1225 -207q214 0 401 62
t320.5 170t210.5 260t77 325q0 175 -77 328.5t-210.5 263t-321 173t-400.5 63.5q-211 0 -397.5 -63.5t-320 -173t-211 -263t-77.5 -328.5q0 -172 77.5 -323.5t211 -260t320 -171t397.5 -62.5zM1243 272q-115 0 -196.5 52.5t-110.5 148.5l90 29q22 -69 80 -108.5t137 -39.5
q68 0 120 28t52 81q0 11 -2.5 21t-8.5 18t-12 14t-17 12t-18.5 9.5t-22.5 8t-23 6.5t-25.5 6.5t-25.5 6.5l-74 19q-221 54 -221 190q0 84 80 133t186 49q101 0 174 -44t98 -119l-90 -35q-20 55 -70 84.5t-120 29.5q-66 0 -110 -26t-44 -66q0 -75 156 -112l75 -21
q37 -9 57.5 -14.5t56.5 -20t56 -31.5t36 -45.5t16 -64.5q0 -86 -80 -142.5t-199 -56.5z" />
    <glyph glyph-name="T.ss08" horiz-adv-x="2455" 
d="M1225 -315q-237 0 -446.5 71t-359 193.5t-236.5 294t-87 364.5q0 198 87 372.5t236.5 298.5t359 195.5t446.5 71.5q239 0 449 -71.5t360 -195.5t236.5 -298.5t86.5 -372.5q0 -156 -55 -298t-157.5 -255t-241 -196.5t-313 -128.5t-365.5 -45zM1225 -207q214 0 401 62
t320.5 170t210.5 260t77 325q0 175 -77 328.5t-210.5 263t-321 173t-400.5 63.5q-211 0 -397.5 -63.5t-320 -173t-211 -263t-77.5 -328.5q0 -172 77.5 -323.5t211 -260t320 -171t397.5 -62.5zM1276 285h-98v575h-263v84h623v-84h-262v-575z" />
    <glyph glyph-name="U.ss08" horiz-adv-x="2459" 
d="M1225 -315q-237 0 -446.5 71t-359 193.5t-236.5 294t-87 364.5q0 198 87 372.5t236.5 298.5t359 195.5t446.5 71.5q239 0 449 -71.5t360 -195.5t236.5 -298.5t86.5 -372.5q0 -156 -55 -298t-157.5 -255t-241 -196.5t-313 -128.5t-365.5 -45zM1225 -207q214 0 401 62
t320.5 170t210.5 260t77 325q0 175 -77 328.5t-210.5 263t-321 173t-400.5 63.5q-211 0 -397.5 -63.5t-320 -173t-211 -263t-77.5 -328.5q0 -172 77.5 -323.5t211 -260t320 -171t397.5 -62.5zM1227 279q-146 0 -217.5 72.5t-71.5 185.5v413h98v-409q0 -181 193 -181
q194 0 194 181v409h99v-413q0 -111 -74 -184.5t-221 -73.5z" />
    <glyph glyph-name="V.ss08" 
d="M1225 1546q239 0 449 -71.5t360 -195.5t236.5 -298.5t86.5 -372.5q0 -156 -55 -298t-157.5 -255t-241 -196.5t-313 -128.5t-365.5 -45q-237 0 -446.5 71t-359 193.5t-236.5 294t-87 364.5q0 198 87 372.5t236.5 298.5t359 195.5t446.5 71.5zM1225 -207q214 0 401 62
t320.5 170t210.5 260t77 325q0 175 -77 328.5t-210.5 263t-321 173t-400.5 63.5q-211 0 -397.5 -63.5t-320 -173t-211 -263t-77.5 -328.5q0 -172 77.5 -323.5t211 -260t320 -171t397.5 -62.5zM1235 397q138 300 268 547h105l-322 -659h-102l-322 659h103q33 -56 77.5 -146
t105.5 -218.5t87 -182.5z" />
    <glyph glyph-name="W.ss08" 
d="M1225 1546q239 0 449 -71.5t360 -195.5t236.5 -298.5t86.5 -372.5q0 -156 -55 -298t-157.5 -255t-241 -196.5t-313 -128.5t-365.5 -45q-237 0 -446.5 71t-359 193.5t-236.5 294t-87 364.5q0 198 87 372.5t236.5 298.5t359 195.5t446.5 71.5zM1225 -207q214 0 401 62
t320.5 170t210.5 260t77 325q0 175 -77 328.5t-210.5 263t-321 173t-400.5 63.5q-211 0 -397.5 -63.5t-320 -173t-211 -263t-77.5 -328.5q0 -172 77.5 -323.5t211 -260t320 -171t397.5 -62.5zM1485 414q16 41 90 234.5t117 295.5h102l-254 -659h-108q-40 95 -203 516
q-135 -359 -201 -516h-110l-254 659h106q130 -327 205 -526q94 238 203 526h102q34 -89 102.5 -265t102.5 -265z" />
    <glyph glyph-name="X.ss08" 
d="M1225 1546q239 0 449 -71.5t360 -195.5t236.5 -298.5t86.5 -372.5q0 -156 -55 -298t-157.5 -255t-241 -196.5t-313 -128.5t-365.5 -45q-237 0 -446.5 71t-359 193.5t-236.5 294t-87 364.5q0 198 87 372.5t236.5 298.5t359 195.5t446.5 71.5zM1225 -207q214 0 401 62
t320.5 170t210.5 260t77 325q0 175 -77 328.5t-210.5 263t-321 173t-400.5 63.5q-211 0 -397.5 -63.5t-320 -173t-211 -263t-77.5 -328.5q0 -172 77.5 -323.5t211 -260t320 -171t397.5 -62.5zM1444 944h115q-45 -54 -135 -161t-136 -162q190 -231 275 -336h-113
q-8 9 -221 266q-90 -114 -217 -266h-117q42 50 121 148t155 188q-52 61 -268 323h113l213 -252q35 40 106 124.5t109 127.5z" />
    <glyph glyph-name="Y.ss08" 
d="M1225 1546q239 0 449 -71.5t360 -195.5t236.5 -298.5t86.5 -372.5q0 -156 -55 -298t-157.5 -255t-241 -196.5t-313 -128.5t-365.5 -45q-237 0 -446.5 71t-359 193.5t-236.5 294t-87 364.5q0 198 87 372.5t236.5 298.5t359 195.5t446.5 71.5zM1225 -207q214 0 401 62
t320.5 170t210.5 260t77 325q0 175 -77 328.5t-210.5 263t-321 173t-400.5 63.5q-211 0 -397.5 -63.5t-320 -173t-211 -263t-77.5 -328.5q0 -172 77.5 -323.5t211 -260t320 -171t397.5 -62.5zM1229 610q155 221 239 334h107q-240 -345 -299 -420v-239h-96v239
q-198 280 -299 420h110q34 -49 114.5 -160.5t123.5 -173.5z" />
    <glyph glyph-name="Z.ss08" 
d="M1225 1546q239 0 449 -71.5t360 -195.5t236.5 -298.5t86.5 -372.5q0 -156 -55 -298t-157.5 -255t-241 -196.5t-313 -128.5t-365.5 -45q-237 0 -446.5 71t-359 193.5t-236.5 294t-87 364.5q0 198 87 372.5t236.5 298.5t359 195.5t446.5 71.5zM1225 -207q214 0 401 62
t320.5 170t210.5 260t77 325q0 175 -77 328.5t-210.5 263t-321 173t-400.5 63.5q-211 0 -397.5 -63.5t-320 -173t-211 -263t-77.5 -328.5q0 -172 77.5 -323.5t211 -260t320 -171t397.5 -62.5zM1540 944v-80q-64 -64 -224.5 -228t-260.5 -265h493v-86h-616v82q60 61 130 130
t146 147t207 218q-158 -2 -465 -2v84h590z" />
    <glyph glyph-name="i.loclTRK" horiz-adv-x="614" 
d="M309 1380q-63 0 -105 39.5t-42 96.5q0 54 42 91.5t105 37.5q62 0 105 -37.5t43 -91.5q0 -57 -43 -96.5t-105 -39.5zM403 0h-192v1133h192v-1133z" />
    <glyph glyph-name="a.ss01" horiz-adv-x="1648" 
d="M737 -35q-182 0 -325.5 78t-223 215t-79.5 307q0 178 86 316t229.5 211t316.5 73q159 0 292.5 -63.5t209.5 -177.5h4v209h191v-1133h-185v205h-8q-77 -118 -212 -179t-296 -61zM774 133q200 0 334.5 126t134.5 310q0 186 -136.5 308t-336.5 122q-198 0 -328.5 -123
t-130.5 -309q0 -189 132 -311.5t331 -122.5z" />
    <glyph glyph-name="aacute.ss01" horiz-adv-x="1648" 
d="M1276 1667l-373 -389h-168l289 389h252zM737 -35q-182 0 -325.5 78t-223 215t-79.5 307q0 178 86 316t229.5 211t316.5 73q159 0 292.5 -63.5t209.5 -177.5h4v209h191v-1133h-185v205h-8q-77 -118 -212 -179t-296 -61zM774 133q200 0 334.5 126t134.5 310
q0 186 -136.5 308t-336.5 122q-198 0 -328.5 -123t-130.5 -309q0 -189 132 -311.5t331 -122.5z" />
    <glyph glyph-name="abreve.ss01" horiz-adv-x="1648" 
d="M827 1274q-205 0 -323.5 110t-126.5 285h168q3 -112 81 -185t205 -73q126 0 204 71t83 187h168q-8 -175 -129 -285t-330 -110zM737 -35q-182 0 -325.5 78t-223 215t-79.5 307q0 178 86 316t229.5 211t316.5 73q159 0 292.5 -63.5t209.5 -177.5h4v209h191v-1133h-185v205
h-8q-77 -118 -212 -179t-296 -61zM774 133q200 0 334.5 126t134.5 310q0 186 -136.5 308t-336.5 122q-198 0 -328.5 -123t-130.5 -309q0 -189 132 -311.5t331 -122.5z" />
    <glyph glyph-name="acircumflex.ss01" horiz-adv-x="1648" 
d="M539 1278h-183l357 360h233l357 -360h-181q-250 209 -291 246q-242 -205 -292 -246zM737 -35q-182 0 -325.5 78t-223 215t-79.5 307q0 178 86 316t229.5 211t316.5 73q159 0 292.5 -63.5t209.5 -177.5h4v209h191v-1133h-185v205h-8q-77 -118 -212 -179t-296 -61zM774 133
q200 0 334.5 126t134.5 310q0 186 -136.5 308t-336.5 122q-198 0 -328.5 -123t-130.5 -309q0 -189 132 -311.5t331 -122.5z" />
    <glyph glyph-name="adieresis.ss01" horiz-adv-x="1648" 
d="M604 1352q-58 0 -97.5 36t-39.5 89q0 48 39.5 83t97.5 35q57 0 96 -35t39 -83q0 -53 -38.5 -89t-96.5 -36zM1059 1352q-59 0 -98 36t-39 89q0 48 39 83t98 35q55 0 95 -35t40 -83q0 -52 -39.5 -88.5t-95.5 -36.5zM737 -35q-182 0 -325.5 78t-223 215t-79.5 307
q0 178 86 316t229.5 211t316.5 73q159 0 292.5 -63.5t209.5 -177.5h4v209h191v-1133h-185v205h-8q-77 -118 -212 -179t-296 -61zM774 133q200 0 334.5 126t134.5 310q0 186 -136.5 308t-336.5 122q-198 0 -328.5 -123t-130.5 -309q0 -189 132 -311.5t331 -122.5z" />
    <glyph glyph-name="agrave.ss01" horiz-adv-x="1648" 
d="M924 1278h-170l-373 389h252zM737 -35q-182 0 -325.5 78t-223 215t-79.5 307q0 178 86 316t229.5 211t316.5 73q159 0 292.5 -63.5t209.5 -177.5h4v209h191v-1133h-185v205h-8q-77 -118 -212 -179t-296 -61zM774 133q200 0 334.5 126t134.5 310q0 186 -136.5 308
t-336.5 122q-198 0 -328.5 -123t-130.5 -309q0 -189 132 -311.5t331 -122.5z" />
    <glyph glyph-name="amacron.ss01" horiz-adv-x="1648" 
d="M1243 1391h-825v137h825v-137zM737 -35q-182 0 -325.5 78t-223 215t-79.5 307q0 178 86 316t229.5 211t316.5 73q159 0 292.5 -63.5t209.5 -177.5h4v209h191v-1133h-185v205h-8q-77 -118 -212 -179t-296 -61zM774 133q200 0 334.5 126t134.5 310q0 186 -136.5 308
t-336.5 122q-198 0 -328.5 -123t-130.5 -309q0 -189 132 -311.5t331 -122.5z" />
    <glyph glyph-name="aogonek.ss01" horiz-adv-x="1648" 
d="M1399 -336q55 0 108 14v-127q-63 -14 -125 -14q-140 0 -233.5 62.5t-93.5 169.5q0 145 198 231v205h-8q-77 -118 -212 -179t-296 -61q-182 0 -325.5 78t-223 215t-79.5 307q0 178 86 316t229.5 211t316.5 73q159 0 292.5 -63.5t209.5 -177.5h4v209h191v-1133h-35
q-101 -36 -153 -86.5t-52 -108.5q0 -63 57.5 -102t143.5 -39zM774 133q200 0 334.5 126t134.5 310q0 186 -136.5 308t-336.5 122q-198 0 -328.5 -123t-130.5 -309q0 -189 132 -311.5t331 -122.5z" />
    <glyph glyph-name="aring.ss01" horiz-adv-x="1648" 
d="M829 1249q-119 0 -198.5 66t-79.5 164q0 97 79.5 161t198.5 64q118 0 197.5 -63.5t79.5 -161.5q0 -99 -79.5 -164.5t-197.5 -65.5zM829 1364q63 0 104.5 31t41.5 84q0 50 -41.5 81t-104.5 31q-64 0 -106.5 -31t-42.5 -81q0 -53 42 -84t107 -31zM737 -35q-182 0 -325.5 78
t-223 215t-79.5 307q0 178 86 316t229.5 211t316.5 73q159 0 292.5 -63.5t209.5 -177.5h4v209h191v-1133h-185v205h-8q-77 -118 -212 -179t-296 -61zM774 133q200 0 334.5 126t134.5 310q0 186 -136.5 308t-336.5 122q-198 0 -328.5 -123t-130.5 -309q0 -189 132 -311.5
t331 -122.5z" />
    <glyph glyph-name="atilde.ss01" horiz-adv-x="1648" 
d="M1020 1317q-47 0 -85.5 10.5t-57.5 21.5t-50 33l-51 35q-63 45 -117 45q-53 0 -86.5 -37t-33.5 -92h-144q1 120 74.5 194.5t187.5 74.5q84 0 179 -64l55 -35q68 -47 123 -47q53 0 81.5 36t28.5 95h146q0 -126 -66 -198t-184 -72zM737 -35q-182 0 -325.5 78t-223 215
t-79.5 307q0 178 86 316t229.5 211t316.5 73q159 0 292.5 -63.5t209.5 -177.5h4v209h191v-1133h-185v205h-8q-77 -118 -212 -179t-296 -61zM774 133q200 0 334.5 126t134.5 310q0 186 -136.5 308t-336.5 122q-198 0 -328.5 -123t-130.5 -309q0 -189 132 -311.5t331 -122.5z
" />
    <glyph glyph-name="b.ss01" horiz-adv-x="1392" 
d="M809 -35q-139 0 -246 48t-166 139h-4v-152h-182v1638h192v-989h7q59 74 163.5 113t231.5 39q226 0 370 -119.5t144 -302.5q0 -177 -143.5 -295.5t-366.5 -118.5zM788 115q143 0 239.5 76.5t96.5 193.5q0 110 -90.5 188t-245.5 78q-160 0 -254 -77.5t-94 -184.5
q0 -114 99.5 -194t248.5 -80z" />
    <glyph glyph-name="d.ss01" horiz-adv-x="1642" 
d="M739 -35q-183 0 -327.5 78.5t-223.5 215t-79 306.5q0 178 86 316.5t229.5 212t316.5 73.5q157 0 287.5 -62.5t206.5 -176.5h6v710h191v-1638h-181v205h-6q-78 -117 -212 -178.5t-294 -61.5zM770 133q198 0 335.5 122.5t137.5 311.5q0 125 -64 224.5t-171.5 153.5
t-237.5 54q-198 0 -328.5 -123t-130.5 -309q0 -189 131 -311.5t328 -122.5z" />
    <glyph glyph-name="dcaron.ss01" horiz-adv-x="1662" 
d="M1692 1155h-123l162 264q-46 15 -72.5 48.5t-26.5 74.5q0 54 44 92.5t106 38.5t104.5 -37.5t42.5 -91.5q0 -42 -33 -97t-153 -221q-33 -46 -51 -71zM739 -35q-183 0 -327.5 78.5t-223.5 215t-79 306.5q0 178 86 316.5t229.5 212t316.5 73.5q157 0 287.5 -62.5
t206.5 -176.5h6v710h191v-1638h-181v205h-6q-78 -117 -212 -178.5t-294 -61.5zM770 133q198 0 335.5 122.5t137.5 311.5q0 125 -64 224.5t-171.5 153.5t-237.5 54q-198 0 -328.5 -123t-130.5 -309q0 -189 131 -311.5t328 -122.5z" />
    <glyph glyph-name="dcroat.ss01" horiz-adv-x="1642" 
d="M1432 1454h317v-141h-317v-1313h-181v205h-6q-78 -117 -212 -178.5t-294 -61.5q-183 0 -327.5 78.5t-223.5 215t-79 306.5q0 178 86 316.5t229.5 212t316.5 73.5q157 0 287.5 -62.5t206.5 -176.5h6v385h-342v141h342v184h191v-184zM770 133q198 0 335.5 122.5
t137.5 311.5q0 125 -64 224.5t-171.5 153.5t-237.5 54q-198 0 -328.5 -123t-130.5 -309q0 -189 131 -311.5t328 -122.5z" />
    <glyph glyph-name="g.ss01" horiz-adv-x="1642" 
d="M1430 -451h-1221v164h1030v525h-6q-76 -116 -207 -176t-289 -60q-138 0 -256.5 46t-200 124.5t-128 185.5t-46.5 228q0 167 83.5 300t227 206t318.5 73q161 0 294.5 -63t209.5 -178h4v209h187v-1584zM768 170q196 0 334.5 121.5t138.5 298.5q0 176 -137.5 292.5
t-335.5 116.5q-197 0 -328 -118.5t-131 -292.5q0 -175 132.5 -296.5t326.5 -121.5z" />
    <glyph glyph-name="gbreve.ss01" horiz-adv-x="1642" 
d="M823 1274q-205 0 -323.5 110t-126.5 285h168q3 -112 81 -185t205 -73q126 0 204 71t83 187h168q-8 -175 -129 -285t-330 -110zM1430 -451h-1221v164h1030v525h-6q-76 -116 -207 -176t-289 -60q-138 0 -256.5 46t-200 124.5t-128 185.5t-46.5 228q0 167 83.5 300t227 206
t318.5 73q161 0 294.5 -63t209.5 -178h4v209h187v-1584zM768 170q196 0 334.5 121.5t138.5 298.5q0 176 -137.5 292.5t-335.5 116.5q-197 0 -328 -118.5t-131 -292.5q0 -175 132.5 -296.5t326.5 -121.5z" />
    <glyph glyph-name="uni0123.ss01" horiz-adv-x="1642" 
d="M664 1378q0 11 1.5 21t6.5 23t9.5 23.5t16 30t21 34t29.5 43t35.5 50.5t44.5 64t53 76h120l-151 -248q41 -14 65.5 -44.5t24.5 -70.5q0 -52 -40 -86t-99 -34t-98 33.5t-39 84.5zM1430 -451h-1221v164h1030v525h-6q-76 -116 -207 -176t-289 -60q-138 0 -256.5 46
t-200 124.5t-128 185.5t-46.5 228q0 167 83.5 300t227 206t318.5 73q161 0 294.5 -63t209.5 -178h4v209h187v-1584zM768 170q196 0 334.5 121.5t138.5 298.5q0 176 -137.5 292.5t-335.5 116.5q-197 0 -328 -118.5t-131 -292.5q0 -175 132.5 -296.5t326.5 -121.5z" />
    <glyph glyph-name="gdotaccent.ss01" horiz-adv-x="1642" 
d="M827 1386q-63 0 -105 39.5t-42 96.5q0 54 42 91.5t105 37.5q62 0 105 -37.5t43 -91.5q0 -57 -43 -96.5t-105 -39.5zM1430 -451h-1221v164h1030v525h-6q-76 -116 -207 -176t-289 -60q-138 0 -256.5 46t-200 124.5t-128 185.5t-46.5 228q0 167 83.5 300t227 206t318.5 73
q161 0 294.5 -63t209.5 -178h4v209h187v-1584zM768 170q196 0 334.5 121.5t138.5 298.5q0 176 -137.5 292.5t-335.5 116.5q-197 0 -328 -118.5t-131 -292.5q0 -175 132.5 -296.5t326.5 -121.5z" />
    <glyph glyph-name="i.ss01" horiz-adv-x="862" 
d="M440 1380q-64 0 -106.5 39.5t-42.5 96.5q0 54 42.5 91.5t106.5 37.5q60 0 103 -37.5t43 -91.5q0 -57 -43 -96.5t-103 -39.5zM825 0h-473v971h-325v162h518v-969h280v-164z" />
    <glyph glyph-name="dotlessi.ss01" horiz-adv-x="862" 
d="M825 0h-473v971h-325v162h518v-969h280v-164z" />
    <glyph glyph-name="iacute.ss01" horiz-adv-x="862" 
d="M831 1667l-372 -389h-168l289 389h251zM825 0h-473v971h-325v162h518v-969h280v-164z" />
    <glyph glyph-name="icircumflex.ss01" horiz-adv-x="862" 
d="M94 1278h-182l356 360h234l356 -360h-180q-250 209 -291 246q-216 -183 -293 -246zM825 0h-473v971h-325v162h518v-969h280v-164z" />
    <glyph glyph-name="idieresis.ss01" horiz-adv-x="862" 
d="M160 1352q-58 0 -97.5 36t-39.5 89q0 48 39.5 83t97.5 35q57 0 96 -35t39 -83q0 -53 -38.5 -89t-96.5 -36zM614 1352q-59 0 -98 36t-39 89q0 48 39 83t98 35q55 0 95.5 -35.5t40.5 -82.5q0 -52 -40 -88.5t-96 -36.5zM825 0h-473v971h-325v162h518v-969h280v-164z" />
    <glyph glyph-name="i.loclTRK.ss01" horiz-adv-x="862" 
d="M410 1389q-63 0 -105.5 39t-42.5 96q0 53 43 91t105 38q61 0 104 -38t43 -91q0 -57 -42.5 -96t-104.5 -39zM825 0h-473v971h-325v162h518v-969h280v-164z" />
    <glyph glyph-name="igrave.ss01" horiz-adv-x="862" 
d="M479 1278h-170l-372 389h251zM825 0h-473v971h-325v162h518v-969h280v-164z" />
    <glyph glyph-name="imacron.ss01" horiz-adv-x="862" 
d="M799 1391h-826v137h826v-137zM825 0h-473v971h-325v162h518v-969h280v-164z" />
    <glyph glyph-name="iogonek.ss01" horiz-adv-x="862" 
d="M389 1386q-63 0 -105 39.5t-42 96.5q0 54 42 91.5t105 37.5q62 0 105 -37.5t43 -91.5q0 -57 -43 -96.5t-105 -39.5zM825 0h-327q-98 -36 -148.5 -86t-50.5 -107q0 -63 57.5 -102t143.5 -39q52 0 108 15v-127q-68 -15 -125 -15q-140 0 -233.5 62.5t-93.5 169.5
q0 144 196 231v969h-325v162h518v-969h280v-164z" />
    <glyph glyph-name="j.ss01" horiz-adv-x="772" 
d="M457 1380q-63 0 -105.5 39.5t-42.5 96.5q0 54 42.5 91.5t105.5 37.5q62 0 104.5 -37.5t42.5 -91.5q0 -57 -42.5 -96.5t-104.5 -39.5zM561 -451h-692v164h502v1258h-344v162h534v-1584z" />
    <glyph glyph-name="l.ss01" horiz-adv-x="909" 
d="M899 0h-680v1638h191v-1474h489v-164z" />
    <glyph glyph-name="lacute.ss01" horiz-adv-x="909" 
d="M893 2097l-404 -336h-176l308 336h272zM899 0h-680v1638h191v-1474h489v-164z" />
    <glyph glyph-name="lcaron.ss01" horiz-adv-x="909" 
d="M721 1128h-121l160 263q-46 15 -72 49t-26 76q0 54 44 91.5t107 37.5q60 0 102.5 -37.5t42.5 -91.5q0 -45 -42 -111.5t-195 -276.5zM899 0h-680v1638h191v-1474h489v-164z" />
    <glyph glyph-name="uni013C.ss01" horiz-adv-x="909" 
d="M899 0h-680v1638h191v-1474h489v-164zM397 -557h-98l123 207q-52 13 -79.5 45t-27.5 72q0 51 40.5 84.5t99.5 33.5t98 -33.5t39 -84.5q0 -40 -27 -85.5t-126 -180.5q-27 -37 -42 -58z" />
    <glyph glyph-name="lslash.ss01" horiz-adv-x="909" 
d="M410 907v-743h489v-164h-680v791l-242 -148v158l242 149v688h191v-571l239 147v-159z" />
    <glyph glyph-name="m.ss01" horiz-adv-x="2467" 
d="M403 0h-192v1133h192v-449l689 449h237v-449l688 449h238v-1133h-191v954h-14l-721 -469v-485h-190v954h-15l-721 -469v-485z" />
    <glyph glyph-name="n.ss01" horiz-adv-x="1568" 
d="M403 643l748 490h207v-1133h-191v934h-14l-750 -457v-477h-192v1133h192v-490z" />
    <glyph glyph-name="nacute.ss01" horiz-adv-x="1568" 
d="M977 1667h252l-373 -389h-168zM403 643l748 490h207v-1133h-191v934h-14l-750 -457v-477h-192v1133h192v-490z" />
    <glyph glyph-name="ncaron.ss01" horiz-adv-x="1568" 
d="M1255 1653l-356 -369h-233l-357 369h183q51 -43 140.5 -118t151.5 -128q45 39 291 246h180zM403 643l748 490h207v-1133h-191v934h-14l-750 -457v-477h-192v1133h192v-490z" />
    <glyph glyph-name="uni0146.ss01" horiz-adv-x="1568" 
d="M403 643l748 490h207v-1133h-191v934h-14l-750 -457v-477h-192v1133h192v-490zM817 -115q59 0 98 -33.5t39 -84.5q0 -41 -29 -89t-130 -187q-23 -31 -35 -48h-98l122 207q-52 13 -79 45t-27 72q0 51 40 84.5t99 33.5z" />
    <glyph glyph-name="eng.ss01" horiz-adv-x="1568" 
d="M967 -483q-151 0 -260 53v160q114 -54 223 -54q39 0 71 7.5t55 18t41 30t29.5 36t20 43t12 44.5t6 48t2.5 44.5v42.5v944h-14l-750 -457v-477h-192v1133h192v-471l748 471h207v-1147q0 -53 -1 -83t-8.5 -86t-21 -90.5t-42.5 -79t-69.5 -69.5t-104 -43t-144.5 -18z" />
    <glyph glyph-name="ntilde.ss01" horiz-adv-x="1568" 
d="M612 1462q-53 0 -86.5 -37t-33.5 -92h-144q1 120 74.5 194.5t187.5 74.5q83 0 178 -64l56 -35q68 -47 123 -47q53 0 81.5 36t28.5 95h146q0 -126 -66 -198t-184 -72q-47 0 -85.5 10.5t-57.5 21.5t-50 33l-51 35q-63 45 -117 45zM403 643l748 490h207v-1133h-191v934h-14
l-750 -457v-477h-192v1133h192v-490z" />
    <glyph glyph-name="p.ss01" horiz-adv-x="1644" 
d="M403 -451h-192v1584h188v-218h4q88 126 221 188t289 62q269 0 445 -169.5t176 -426.5q0 -179 -85 -318t-228 -212.5t-316 -73.5q-163 0 -294.5 65t-207.5 177v-658zM872 133q199 0 329 123t130 309q0 188 -131 311t-328 123q-129 0 -236.5 -54.5t-172 -154.5t-64.5 -225
t64.5 -224.5t172 -153.5t236.5 -54z" />
    <glyph glyph-name="q.ss01" horiz-adv-x="1644" 
d="M1432 -451h-191v666q-81 -120 -215.5 -185t-294.5 -65q-177 0 -319.5 78t-222.5 215.5t-80 308.5q0 177 84.5 314.5t227 210.5t316.5 73q161 0 294.5 -63t209.5 -178h4v209h187v-1584zM770 133q198 0 335.5 122.5t137.5 311.5q0 125 -64 224.5t-171.5 153.5t-237.5 54
q-198 0 -328.5 -123.5t-130.5 -310.5t131 -309.5t328 -122.5z" />
    <glyph glyph-name="r.ss01" horiz-adv-x="991" 
d="M403 0h-192v1133h754v-162h-562v-971z" />
    <glyph glyph-name="racute.ss01" horiz-adv-x="991" 
d="M948 1667l-373 -389h-167l288 389h252zM403 0h-192v1133h754v-162h-562v-971z" />
    <glyph glyph-name="rcaron.ss01" horiz-adv-x="991" 
d="M618 1284h-233l-356 369h182q51 -43 140.5 -118t152.5 -128q45 39 291 246h180zM403 0h-192v1133h754v-162h-562v-971z" />
    <glyph glyph-name="uni0157.ss01" horiz-adv-x="991" 
d="M403 0h-192v1133h754v-162h-562v-971zM260 -557h-98l123 207q-52 13 -79.5 45t-27.5 72q0 51 40 84.5t99 33.5t98.5 -33.5t39.5 -84.5q0 -40 -27 -85.5t-126 -180.5q-27 -37 -42 -58z" />
    <glyph glyph-name="s.ss01" horiz-adv-x="1175" 
d="M1028 0h-883v164h695v344h-695v625h883v-162h-694v-324h694v-647z" />
    <glyph glyph-name="sacute.ss01" horiz-adv-x="1175" 
d="M1008 1667l-373 -389h-168l289 389h252zM1028 0h-883v164h695v344h-695v625h883v-162h-694v-324h694v-647z" />
    <glyph glyph-name="scaron.ss01" horiz-adv-x="1175" 
d="M678 1284h-234l-356 369h182q51 -43 140.5 -118t152.5 -128q45 39 291 246h180zM1028 0h-883v164h695v344h-695v625h883v-162h-694v-324h694v-647z" />
    <glyph glyph-name="scedilla.ss01" horiz-adv-x="1175" 
d="M1028 1133v-162h-694v-324h694v-647h-364l-123 -143q35 14 94 14q98 0 162.5 -48t64.5 -126q0 -88 -80.5 -142.5t-203.5 -54.5q-93 0 -176 31.5t-136 85.5l76 74q41 -43 102 -67.5t125 -24.5q67 0 111.5 27t44.5 69t-40.5 68t-102.5 26q-63 0 -115 -27l-74 56l144 182
h-392v164h695v344h-695v625h883z" />
    <glyph glyph-name="uni0219.ss01" horiz-adv-x="1175" 
d="M1028 0h-883v164h695v344h-695v625h883v-162h-694v-324h694v-647zM539 -557h-99l123 207q-52 13 -79 45t-27 72q0 51 40 84.5t99 33.5t98 -33.5t39 -84.5q0 -41 -29 -89t-130 -187q-23 -31 -35 -48z" />
    <glyph glyph-name="t.ss01" horiz-adv-x="976" 
d="M496 973v-809h444v-164h-637v973h-270v160h270v333h193v-333h409v-160h-409z" />
    <glyph glyph-name="tbar.ss01" horiz-adv-x="976" 
d="M496 551v-387h444v-164h-637v551h-268v141h268v281h-270v160h270v333h193v-333h409v-160h-409v-281h389v-141h-389z" />
    <glyph glyph-name="tcaron.ss01" horiz-adv-x="976" 
d="M1092 1653q61 0 104 -38t43 -91q0 -43 -34.5 -99t-159.5 -229q-9 -13 -14.5 -20t-14 -19t-15.5 -22h-120l159 264q-46 13 -72 47.5t-26 75.5q0 54 44 92.5t106 38.5zM905 973h-409v-809h444v-164h-637v973h-270v160h270v333h193v-333h409v-160z" />
    <glyph glyph-name="uni0163.ss01" horiz-adv-x="976" 
d="M940 164v-164h-309l-123 -143q35 14 94 14q98 0 162.5 -48t64.5 -126q0 -88 -80.5 -142.5t-203.5 -54.5q-93 0 -176 31.5t-136 85.5l76 74q40 -43 102 -67.5t126 -24.5q67 0 111 27t44 69t-40.5 68t-102.5 26q-63 0 -115 -27l-74 56l144 182h-201v973h-270v160h270v333
h193v-333h409v-160h-409v-809h444z" />
    <glyph glyph-name="uni021B.ss01" horiz-adv-x="976" 
d="M496 973v-809h444v-164h-637v973h-270v160h270v333h193v-333h409v-160h-409zM561 -115q59 0 98 -33.5t39 -84.5q0 -41 -29 -89t-130 -187q-23 -31 -35 -48h-98l122 207q-52 13 -79 45t-27 72q0 51 40 84.5t99 33.5z" />
    <glyph glyph-name="yacute.ss01" horiz-adv-x="1374" 
d="M1143 1667l-373 -389h-168l289 389h252zM686 -451h-199l183 431h-166l-455 1153h201l379 -940h116l381 940h199z" />
    <glyph glyph-name="ycircumflex.ss01" horiz-adv-x="1374" 
d="M406 1278h-183l357 360h233l356 -360h-180q-250 209 -291 246q-242 -205 -292 -246zM686 -451h-199l183 431h-166l-455 1153h201l379 -940h116l381 940h199z" />
    <glyph glyph-name="ydieresis.ss01" horiz-adv-x="1374" 
d="M471 1352q-58 0 -97.5 36t-39.5 89q0 48 39.5 83t97.5 35q57 0 96 -35t39 -83q0 -53 -38.5 -89t-96.5 -36zM926 1352q-60 0 -99 36t-39 89q0 48 39.5 83t98.5 35q55 0 95 -35t40 -83q0 -52 -39.5 -88.5t-95.5 -36.5zM686 -451h-199l183 431h-166l-455 1153h201l379 -940
h116l381 940h199z" />
    <glyph glyph-name="ygrave.ss01" horiz-adv-x="1374" 
d="M788 1278h-170l-372 389h252zM686 -451h-199l183 431h-166l-455 1153h201l379 -940h116l381 940h199z" />
    <glyph glyph-name="a.ss02" horiz-adv-x="1413" 
d="M547 -35q-122 0 -218.5 32t-158 102.5t-61.5 170.5q0 65 28 118.5t72 89t110 63.5t130 44.5t143 30.5q29 5 69.5 11t66.5 10t61 10t57 11t49 12.5t43.5 16t33.5 20t26.5 24.5t15.5 30.5t6 37.5q0 87 -91.5 152t-234.5 65q-129 0 -222.5 -58.5t-131.5 -162.5l-184 57
q38 107 127.5 179.5t196 103t225.5 30.5q80 0 153.5 -14t140 -44t115.5 -74t78 -108.5t29 -142.5v-782h-185v213h-6q-65 -114 -186.5 -181t-296.5 -67zM578 109q97 0 183 33.5t141 84.5t86.5 109t31.5 110v138q-55 -32 -119 -50t-196 -38q-47 -7 -80.5 -13.5t-84 -19
t-86 -28.5t-69.5 -38t-52 -52t-18 -66q0 -80 73 -125t190 -45z" />
    <glyph glyph-name="aacute.ss02" horiz-adv-x="1413" 
d="M1159 1667l-373 -389h-168l289 389h252zM547 -35q-122 0 -218.5 32t-158 102.5t-61.5 170.5q0 65 28 118.5t72 89t110 63.5t130 44.5t143 30.5q29 5 69.5 11t66.5 10t61 10t57 11t49 12.5t43.5 16t33.5 20t26.5 24.5t15.5 30.5t6 37.5q0 87 -91.5 152t-234.5 65
q-129 0 -222.5 -58.5t-131.5 -162.5l-184 57q38 107 127.5 179.5t196 103t225.5 30.5q80 0 153.5 -14t140 -44t115.5 -74t78 -108.5t29 -142.5v-782h-185v213h-6q-65 -114 -186.5 -181t-296.5 -67zM578 109q97 0 183 33.5t141 84.5t86.5 109t31.5 110v138q-55 -32 -119 -50
t-196 -38q-47 -7 -80.5 -13.5t-84 -19t-86 -28.5t-69.5 -38t-52 -52t-18 -66q0 -80 73 -125t190 -45z" />
    <glyph glyph-name="abreve.ss02" horiz-adv-x="1413" 
d="M711 1274q-205 0 -324 110.5t-127 284.5h168q3 -112 81.5 -185t205.5 -73q125 0 203 71t83 187h168q-8 -175 -128.5 -285t-329.5 -110zM547 -35q-122 0 -218.5 32t-158 102.5t-61.5 170.5q0 65 28 118.5t72 89t110 63.5t130 44.5t143 30.5q29 5 69.5 11t66.5 10t61 10
t57 11t49 12.5t43.5 16t33.5 20t26.5 24.5t15.5 30.5t6 37.5q0 87 -91.5 152t-234.5 65q-129 0 -222.5 -58.5t-131.5 -162.5l-184 57q38 107 127.5 179.5t196 103t225.5 30.5q80 0 153.5 -14t140 -44t115.5 -74t78 -108.5t29 -142.5v-782h-185v213h-6q-65 -114 -186.5 -181
t-296.5 -67zM578 109q97 0 183 33.5t141 84.5t86.5 109t31.5 110v138q-55 -32 -119 -50t-196 -38q-47 -7 -80.5 -13.5t-84 -19t-86 -28.5t-69.5 -38t-52 -52t-18 -66q0 -80 73 -125t190 -45z" />
    <glyph glyph-name="acircumflex.ss02" horiz-adv-x="1179" 
d="M381 1278h-182l356 360h233l357 -360h-182q-233 195 -291 246q-168 -145 -291 -246zM547 -35q-122 0 -218.5 32t-158 102.5t-61.5 170.5q0 65 28 118.5t72 89t110 63.5t130 44.5t143 30.5q29 5 69.5 11t66.5 10t61 10t57 11t49 12.5t43.5 16t33.5 20t26.5 24.5t15.5 30.5
t6 37.5q0 87 -91.5 152t-234.5 65q-129 0 -222.5 -58.5t-131.5 -162.5l-184 57q38 107 127.5 179.5t196 103t225.5 30.5q80 0 153.5 -14t140 -44t115.5 -74t78 -108.5t29 -142.5v-782h-185v213h-6q-65 -114 -186.5 -181t-296.5 -67zM578 109q97 0 183 33.5t141 84.5
t86.5 109t31.5 110v138q-55 -32 -119 -50t-196 -38q-47 -7 -80.5 -13.5t-84 -19t-86 -28.5t-69.5 -38t-52 -52t-18 -66q0 -80 73 -125t190 -45z" />
    <glyph glyph-name="adieresis.ss02" horiz-adv-x="1413" 
d="M487 1352q-58 0 -97.5 36t-39.5 89q0 48 39.5 83t97.5 35t97 -35t39 -83q0 -53 -39 -89t-97 -36zM942 1352q-59 0 -98 36t-39 89q0 48 39 83t98 35q55 0 95 -35t40 -83q0 -52 -39.5 -88.5t-95.5 -36.5zM547 -35q-122 0 -218.5 32t-158 102.5t-61.5 170.5q0 65 28 118.5
t72 89t110 63.5t130 44.5t143 30.5q29 5 69.5 11t66.5 10t61 10t57 11t49 12.5t43.5 16t33.5 20t26.5 24.5t15.5 30.5t6 37.5q0 87 -91.5 152t-234.5 65q-129 0 -222.5 -58.5t-131.5 -162.5l-184 57q38 107 127.5 179.5t196 103t225.5 30.5q80 0 153.5 -14t140 -44
t115.5 -74t78 -108.5t29 -142.5v-782h-185v213h-6q-65 -114 -186.5 -181t-296.5 -67zM578 109q97 0 183 33.5t141 84.5t86.5 109t31.5 110v138q-55 -32 -119 -50t-196 -38q-47 -7 -80.5 -13.5t-84 -19t-86 -28.5t-69.5 -38t-52 -52t-18 -66q0 -80 73 -125t190 -45z" />
    <glyph glyph-name="agrave.ss02" horiz-adv-x="1413" 
d="M805 1278h-170l-373 389h252zM547 -35q-122 0 -218.5 32t-158 102.5t-61.5 170.5q0 65 28 118.5t72 89t110 63.5t130 44.5t143 30.5q29 5 69.5 11t66.5 10t61 10t57 11t49 12.5t43.5 16t33.5 20t26.5 24.5t15.5 30.5t6 37.5q0 87 -91.5 152t-234.5 65
q-129 0 -222.5 -58.5t-131.5 -162.5l-184 57q38 107 127.5 179.5t196 103t225.5 30.5q80 0 153.5 -14t140 -44t115.5 -74t78 -108.5t29 -142.5v-782h-185v213h-6q-65 -114 -186.5 -181t-296.5 -67zM578 109q97 0 183 33.5t141 84.5t86.5 109t31.5 110v138q-55 -32 -119 -50
t-196 -38q-47 -7 -80.5 -13.5t-84 -19t-86 -28.5t-69.5 -38t-52 -52t-18 -66q0 -80 73 -125t190 -45z" />
    <glyph glyph-name="amacron.ss02" horiz-adv-x="1179" 
d="M1141 1405h-826v137h826v-137zM547 -35q-122 0 -218.5 32t-158 102.5t-61.5 170.5q0 65 28 118.5t72 89t110 63.5t130 44.5t143 30.5q29 5 69.5 11t66.5 10t61 10t57 11t49 12.5t43.5 16t33.5 20t26.5 24.5t15.5 30.5t6 37.5q0 87 -91.5 152t-234.5 65
q-129 0 -222.5 -58.5t-131.5 -162.5l-184 57q38 107 127.5 179.5t196 103t225.5 30.5q80 0 153.5 -14t140 -44t115.5 -74t78 -108.5t29 -142.5v-782h-185v213h-6q-65 -114 -186.5 -181t-296.5 -67zM578 109q97 0 183 33.5t141 84.5t86.5 109t31.5 110v138q-55 -32 -119 -50
t-196 -38q-47 -7 -80.5 -13.5t-84 -19t-86 -28.5t-69.5 -38t-52 -52t-18 -66q0 -80 73 -125t190 -45z" />
    <glyph glyph-name="aogonek.ss02" horiz-adv-x="1413" 
d="M1182 -336q56 0 108 14v-127q-63 -14 -125 -14q-140 0 -233.5 62.5t-93.5 169.5q0 145 198 231v213h-6q-65 -114 -186.5 -181t-296.5 -67q-122 0 -218.5 32t-158 102.5t-61.5 170.5q0 65 28 118.5t72 89t110 63.5t130 44.5t143 30.5q29 5 69.5 11t66.5 10t61 10t57 11
t49 12.5t43.5 16t33.5 20t26.5 24.5t15.5 30.5t6 37.5q0 87 -91.5 152t-234.5 65q-129 0 -222.5 -58.5t-131.5 -162.5l-184 57q38 107 127.5 179.5t196 103t225.5 30.5q80 0 153.5 -14t140 -44t115.5 -74t78 -108.5t29 -142.5v-782h-35q-101 -36 -153 -86.5t-52 -108.5
q0 -63 57.5 -102t143.5 -39zM1020 446v138q-55 -32 -119 -50t-196 -38q-47 -7 -80.5 -13.5t-84 -19t-86 -28.5t-69.5 -38t-52 -52t-18 -66q0 -80 73 -125t190 -45q97 0 183 33.5t141 84.5t86.5 109t31.5 110z" />
    <glyph glyph-name="aring.ss02" horiz-adv-x="1413" 
d="M713 1249q-119 0 -199 66t-80 164q0 96 80 160.5t199 64.5q118 0 197 -63.5t79 -161.5q0 -99 -79 -164.5t-197 -65.5zM713 1364q63 0 104 31t41 84q0 50 -41 81t-104 31q-64 0 -107 -31t-43 -81q0 -53 42.5 -84t107.5 -31zM547 -35q-122 0 -218.5 32t-158 102.5
t-61.5 170.5q0 65 28 118.5t72 89t110 63.5t130 44.5t143 30.5q29 5 69.5 11t66.5 10t61 10t57 11t49 12.5t43.5 16t33.5 20t26.5 24.5t15.5 30.5t6 37.5q0 87 -91.5 152t-234.5 65q-129 0 -222.5 -58.5t-131.5 -162.5l-184 57q38 107 127.5 179.5t196 103t225.5 30.5
q80 0 153.5 -14t140 -44t115.5 -74t78 -108.5t29 -142.5v-782h-185v213h-6q-65 -114 -186.5 -181t-296.5 -67zM578 109q97 0 183 33.5t141 84.5t86.5 109t31.5 110v138q-55 -32 -119 -50t-196 -38q-47 -7 -80.5 -13.5t-84 -19t-86 -28.5t-69.5 -38t-52 -52t-18 -66
q0 -80 73 -125t190 -45z" />
    <glyph glyph-name="atilde.ss02" horiz-adv-x="1413" 
d="M903 1317q-47 0 -85.5 11t-57 21.5t-49.5 32.5l-52 35q-63 45 -116 45t-87 -37t-34 -92h-143q1 120 74.5 194.5t187.5 74.5q83 0 178 -64l55 -35q68 -47 123 -47q53 0 82 36t29 95h145q0 -126 -66 -198t-184 -72zM547 -35q-122 0 -218.5 32t-158 102.5t-61.5 170.5
q0 65 28 118.5t72 89t110 63.5t130 44.5t143 30.5q29 5 69.5 11t66.5 10t61 10t57 11t49 12.5t43.5 16t33.5 20t26.5 24.5t15.5 30.5t6 37.5q0 87 -91.5 152t-234.5 65q-129 0 -222.5 -58.5t-131.5 -162.5l-184 57q38 107 127.5 179.5t196 103t225.5 30.5q80 0 153.5 -14
t140 -44t115.5 -74t78 -108.5t29 -142.5v-782h-185v213h-6q-65 -114 -186.5 -181t-296.5 -67zM578 109q97 0 183 33.5t141 84.5t86.5 109t31.5 110v138q-55 -32 -119 -50t-196 -38q-47 -7 -80.5 -13.5t-84 -19t-86 -28.5t-69.5 -38t-52 -52t-18 -66q0 -80 73 -125t190 -45z
" />
    <glyph glyph-name="h.ss02" horiz-adv-x="1568" 
d="M403 0h-192v1638h192v-976l748 471h207v-1133h-191v934h-14l-750 -457v-477z" />
    <glyph glyph-name="hbar.ss02" horiz-adv-x="1568" 
d="M403 662l748 471h207v-1133h-191v934h-14l-750 -457v-477h-192v1313h-238v141h238v184h192v-184h420v-141h-420v-651z" />
    <glyph glyph-name="t.ss02" horiz-adv-x="923" 
d="M496 0h-193v973h-270v160h270v333h193v-333h409v-160h-409v-973z" />
    <glyph glyph-name="tbar.ss02" horiz-adv-x="923" 
d="M905 1133v-160h-409v-281h389v-141h-389v-551h-193v551h-268v141h268v281h-270v160h270v333h193v-333h409z" />
    <glyph glyph-name="tcaron.ss02" horiz-adv-x="923" 
d="M999 1135h-120l159 264q-46 13 -71 47t-25 76q0 54 44 92.5t106 38.5q60 0 103.5 -38t43.5 -91q0 -43 -35 -100t-165 -234q-8 -12 -13 -18.5t-12.5 -17t-14.5 -19.5zM496 0h-193v973h-270v160h270v333h193v-333h409v-160h-409v-973z" />
    <glyph glyph-name="uni0163.ss02" horiz-adv-x="923" 
d="M496 973v-973h-37l-123 -143q35 14 94 14q98 0 162.5 -48t64.5 -126q0 -88 -80.5 -142.5t-203.5 -54.5q-93 0 -176 31.5t-136 85.5l76 74q40 -43 102 -67.5t126 -24.5q67 0 111 27t44 69t-40.5 68t-102.5 26q-63 0 -115 -27l-74 56l144 182h-29v973h-270v160h270v333h193
v-333h409v-160h-409z" />
    </font>
</defs>
</svg>
