<?xml version="1.0" standalone="no"?>
<!DOCTYPE svg PUBLIC "-//W3C//DTD SVG 1.1//EN" "http://www.w3.org/Graphics/SVG/1.1/DTD/svg11.dtd" >
<svg xmlns="http://www.w3.org/2000/svg" xmlns:xlink="http://www.w3.org/1999/xlink" version="1.1">
<metadata>
Created by FontForge 20170731 at Mon Mar 15 14:21:13 2021
 By Aleksey,,,
Copyright (c) 2020 by Matthieu Salvaggio x Blaze Type. All rights reserved.
</metadata>
<defs>
<font id="Area-SemiboldItalicExtended" horiz-adv-x="2457" >
  <font-face 
    font-family="Area Semibold Italic Extended"
    font-weight="600"
    font-style="italic"
    font-stretch="normal"
    units-per-em="2048"
    panose-1="0 0 7 0 0 0 0 0 0 0"
    ascent="1638"
    descent="-410"
    x-height="1133"
    cap-height="1597"
    bbox="-1898 -557 3217 2169"
    underline-thickness="102"
    underline-position="-307"
    slope="-10"
    unicode-range="U+0020-25CA"
  />
<missing-glyph horiz-adv-x="1730" 
d="M1399 0h-1266l283 1597h1265zM555 1462l-223 -1198l1102 1198h-879zM1477 1325l-1078 -1186h863z" />
    <glyph glyph-name=".notdef" horiz-adv-x="1730" 
d="M1399 0h-1266l283 1597h1265zM555 1462l-223 -1198l1102 1198h-879zM1477 1325l-1078 -1186h863z" />
    <glyph glyph-name=".null" horiz-adv-x="0" 
 />
    <glyph glyph-name="nonmarkingreturn" horiz-adv-x="682" 
 />
    <glyph glyph-name="space" unicode=" " horiz-adv-x="636" 
 />
    <glyph glyph-name="exclam" unicode="!" horiz-adv-x="645" 
d="M352 420h-112l135 1050l18 127h221l-20 -127zM221 -14q-54 0 -90.5 32.5t-36.5 81.5q0 61 52 106.5t120 45.5q52 0 88.5 -33t36.5 -80q0 -58 -51.5 -105.5t-118.5 -47.5z" />
    <glyph glyph-name="quotedbl" unicode="&#x22;" horiz-adv-x="874" 
d="M455 1126h-191l82 471h191zM807 1126h-191l78 471h193z" />
    <glyph glyph-name="numbersign" unicode="#" horiz-adv-x="1742" 
d="M1737 1094l-58 -150h-303l-143 -350h291l-56 -150h-297l-184 -444h-174l184 444h-460l-185 -444h-174l184 444h-282l55 150h289l143 350h-278l57 150h283l209 503h174l-209 -503h461l209 503h174l-209 -503h299zM598 594h461l143 350h-461z" />
    <glyph glyph-name="dollar" unicode="$" horiz-adv-x="1441" 
d="M836 864l38 -10q155 -40 220 -70q192 -87 192 -258q0 -111 -75.5 -206t-209.5 -154t-299 -66l-32 -182h-117l33 186q-183 14 -309.5 107t-159.5 258l184 55q29 -117 113 -179t200 -77l80 451l-16 4q-399 97 -399 334q0 161 160 285t388 133l29 163h117l-31 -168
q169 -20 285 -105.5t135 -205.5l-176 -72q-23 85 -93.5 144t-179.5 76zM481 1094q0 -42 20.5 -75t59 -56t75.5 -37t89 -29l74 416q-137 -9 -227.5 -71t-90.5 -148zM807 692l-76 -428q151 9 249.5 75.5t98.5 158.5q0 36 -17 65.5t-40 48t-64 35t-71.5 25t-79.5 20.5z" />
    <glyph glyph-name="percent" unicode="%" horiz-adv-x="2066" 
d="M457 768q-128 0 -201.5 81t-73.5 222q0 118 52 223.5t147.5 171.5t210.5 66q128 0 202 -82t74 -223q0 -88 -31.5 -172t-85 -147t-131 -101.5t-163.5 -38.5zM350 0h-182l1624 1468h174zM475 901q91 0 159 102.5t68 223.5q0 82 -33.5 126t-95.5 44q-90 0 -158.5 -101.5
t-68.5 -224.5q0 -82 33.5 -126t95.5 -44zM1540 -29q-128 0 -201 81t-73 222q0 88 31 171.5t84 147.5t130 103t164 39q128 0 202.5 -82t74.5 -223q0 -119 -53 -224t-148.5 -170t-210.5 -65zM1559 104q91 0 159 102.5t68 223.5q0 82 -33.5 126t-95.5 44q-90 0 -158.5 -101.5
t-68.5 -224.5q0 -82 33.5 -126t95.5 -44z" />
    <glyph glyph-name="ampersand" unicode="&#x26;" horiz-adv-x="1685" 
d="M565 -35q-212 0 -352.5 94.5t-140.5 257.5q0 71 34 139t83 119.5t122.5 104t133 86t135.5 70.5q-96 103 -151.5 192t-55.5 182q0 112 72.5 208.5t196.5 154t269 57.5q187 0 298.5 -91.5t111.5 -229.5q0 -141 -125.5 -266t-343.5 -228l334 -330q107 148 182 310l174 -37
q-126 -255 -244 -402l342 -354h-243l-223 217q-270 -254 -609 -254zM756 922q81 40 134 72t110 77t85.5 97.5t28.5 111.5q0 88 -62 137t-171 49q-130 0 -216.5 -68.5t-86.5 -170.5q0 -71 46.5 -143.5t131.5 -161.5zM600 133q254 0 467 207l-387 381q-50 -24 -78.5 -38
t-77 -40.5t-77.5 -47t-64.5 -50t-55.5 -57.5t-34 -63t-14 -71q0 -103 91.5 -162t229.5 -59z" />
    <glyph glyph-name="quotesingle" unicode="'" horiz-adv-x="524" 
d="M455 1126h-191l82 471h191z" />
    <glyph glyph-name="parenleft" unicode="(" horiz-adv-x="763" 
d="M580 -307h-199q-128 153 -196 341.5t-68 391.5q0 313 159 624t441 547h198q-278 -237 -434.5 -547.5t-156.5 -627.5q0 -201 66 -389t190 -340z" />
    <glyph glyph-name="parenright" unicode=")" horiz-adv-x="761" 
d="M76 -307h-199q280 239 437 550t157 625q0 199 -65.5 386t-192.5 343h199q131 -155 197.5 -343.5t66.5 -389.5q0 -309 -157.5 -621t-442.5 -550z" />
    <glyph glyph-name="asterisk" unicode="*" horiz-adv-x="995" 
d="M635 1024h-119l37 199l-229 -101l-45 90l237 99l-201 98l74 92l195 -100l32 196h119l-35 -196l228 100l45 -90l-234 -100l197 -99l-74 -90l-190 101z" />
    <glyph glyph-name="plus" unicode="+" horiz-adv-x="1210" 
d="M715 698h358l-22 -149h-361l-55 -313h-172l55 313h-360l24 149h363l55 316h170z" />
    <glyph glyph-name="comma" unicode="," horiz-adv-x="548" 
d="M63 -266h-118l205 264q-80 25 -80 102q0 59 52 105.5t122 46.5q54 0 89.5 -32t35.5 -81q0 -47 -51.5 -114t-254.5 -291z" />
    <glyph glyph-name="hyphen" unicode="-" horiz-adv-x="968" 
d="M825 547h-688l25 153h686z" />
    <glyph glyph-name="period" unicode="." horiz-adv-x="577" 
d="M209 -14q-56 0 -92.5 32.5t-36.5 81.5q0 60 51.5 106t120.5 46q53 0 89 -32t36 -79q0 -59 -51.5 -107t-116.5 -48z" />
    <glyph glyph-name="slash" unicode="/" horiz-adv-x="1048" 
d="M158 -135h-185l981 1773h187z" />
    <glyph glyph-name="zero" unicode="0" horiz-adv-x="1720" 
d="M752 -35q-272 0 -430 174.5t-158 474.5q0 151 42 299.5t122.5 277t187.5 227.5t246.5 155.5t290.5 56.5q272 0 429.5 -175.5t157.5 -477.5q0 -125 -29.5 -250t-84 -236.5t-134.5 -208.5t-176.5 -167t-216 -110t-247.5 -40zM778 143q137 0 259.5 72.5t205 189.5
t130.5 265.5t48 300.5q0 229 -102.5 355t-288.5 126q-110 0 -212 -46.5t-180 -127.5t-136.5 -185t-89.5 -224.5t-31 -241.5q0 -228 105.5 -356t291.5 -128z" />
    <glyph glyph-name="one" unicode="1" horiz-adv-x="952" 
d="M596 0h-203l223 1243q-83 -77 -207 -130.5t-264 -70.5l29 191q201 34 343.5 136t164.5 228h197z" />
    <glyph glyph-name="two" unicode="2" horiz-adv-x="1523" 
d="M1300 0h-1251l2 18q26 93 58.5 166t87.5 137.5t102.5 110t141.5 104t164.5 97.5t209.5 112q193 103 282 171q192 148 193 294q0 113 -96.5 180.5t-257.5 67.5q-210 0 -359.5 -112.5t-181.5 -294.5l-182 28q27 159 132 285t267.5 196t354.5 70q243 0 388.5 -108.5
t145.5 -288.5q0 -83 -36.5 -162.5t-86 -136t-121 -111.5t-120.5 -84.5t-105 -58.5q-63 -34 -156 -79.5t-148 -73t-125.5 -69t-115.5 -78.5t-88.5 -89t-72.5 -113h1001z" />
    <glyph glyph-name="three" unicode="3" horiz-adv-x="1566" 
d="M670 -35q-244 0 -413 100t-200 265l189 84q27 -113 146 -194t306 -81q216 0 358 102t142 244q0 118 -107 186t-313 68h-190l22 156h199q201 0 334 92t133 225q0 114 -98.5 180t-259.5 66q-173 0 -306.5 -78.5t-183.5 -218.5l-178 37q66 191 262.5 311.5t445.5 120.5
q147 0 267.5 -42t194 -125.5t73.5 -194.5q0 -148 -114.5 -272.5t-284.5 -161.5l-2 -3q153 -27 238 -109.5t85 -213.5q0 -104 -56 -202.5t-152.5 -174t-237 -121t-299.5 -45.5z" />
    <glyph glyph-name="four" unicode="4" horiz-adv-x="1601" 
d="M1133 0h-199l65 379h-970l28 172l1160 1046h196l-186 -1052h278l-24 -166h-281zM1174 1339l-910 -794h762z" />
    <glyph glyph-name="five" unicode="5" horiz-adv-x="1566" 
d="M659 -35q-153 0 -285 43.5t-224 128.5t-119 199l180 94q40 -140 171 -217.5t302 -77.5q154 0 283 61.5t200.5 160t71.5 208.5q0 139 -108 223t-285 84q-144 0 -267.5 -56t-203.5 -148l-158 53l379 876h932l-27 -167h-788l-250 -547h4q67 62 188.5 102.5t257.5 40.5
q105 0 200.5 -26.5t173 -77.5t123.5 -135t46 -189q0 -120 -61 -235t-165.5 -203t-254 -141.5t-316.5 -53.5z" />
    <glyph glyph-name="six" unicode="6" horiz-adv-x="1636" 
d="M741 -35q-284 0 -437.5 153.5t-153.5 436.5q0 133 37 266t103 251.5t163 221t212.5 177t256 117t288.5 42.5q264 0 420 -127l-143 -137q-124 92 -326 92q-184 0 -347 -84.5t-277 -241t-152 -356.5h4q77 117 239 189.5t339 72.5q109 0 207.5 -30.5t175.5 -86t122.5 -142.5
t45.5 -193q0 -119 -60 -232.5t-162.5 -199t-248 -137.5t-306.5 -52zM772 135q105 0 203.5 35t171 93.5t116.5 137.5t44 162q0 140 -113 228t-285 88q-141 0 -266 -61t-198.5 -160t-73.5 -207q0 -138 114.5 -227t286.5 -89z" />
    <glyph glyph-name="seven" unicode="7" horiz-adv-x="1429" 
d="M465 0h-213q28 151 121.5 343t231 387.5t323.5 388t383 333.5h-1118l24 168h1352l-27 -174q-203 -136 -391.5 -323t-328 -381.5t-234.5 -388.5t-123 -353z" />
    <glyph glyph-name="eight" unicode="8" horiz-adv-x="1605" 
d="M700 -35q-169 0 -304.5 49t-214.5 143t-79 216q0 158 127 289.5t322 175.5v4q-114 41 -176 118.5t-62 180.5q0 96 53 185.5t143 156t217 107t267 40.5q233 0 380 -103.5t147 -269.5q0 -135 -101.5 -249.5t-265.5 -165.5l-2 -4q141 -34 224 -125t83 -219q0 -105 -59 -202
t-159 -169t-241.5 -115t-298.5 -43zM864 911q187 0 319 96.5t132 223.5q0 107 -96 172t-252 65q-187 0 -318 -91.5t-131 -219.5q0 -113 98.5 -179.5t247.5 -66.5zM723 131q223 0 373.5 111t150.5 262q0 125 -105.5 195.5t-293.5 70.5q-234 0 -381.5 -101t-147.5 -253
q0 -134 114 -209.5t290 -75.5z" />
    <glyph glyph-name="nine" unicode="9" horiz-adv-x="1665" 
d="M635 -35q-164 0 -310 59t-241 169l141 129q167 -191 426 -191q144 0 266.5 55t210 150.5t146 218t86.5 264.5h-6q-74 -129 -240.5 -209t-353.5 -80q-153 0 -277.5 56.5t-197 162.5t-72.5 242q0 121 59.5 236.5t163 204.5t254 143.5t320.5 54.5q129 0 233 -33t183.5 -102
t123 -184t43.5 -269q0 -127 -31 -256.5t-88.5 -249t-143.5 -224t-189.5 -181.5t-234 -121.5t-271.5 -44.5zM813 688q145 0 273.5 67.5t203 175t74.5 222.5q0 97 -54.5 168.5t-142 106t-196.5 34.5q-111 0 -212.5 -37t-174 -98.5t-115.5 -143.5t-43 -169q0 -150 110.5 -238
t276.5 -88z" />
    <glyph glyph-name="colon" unicode=":" horiz-adv-x="634" 
d="M379 893q-54 0 -89.5 32.5t-35.5 82.5q0 61 51.5 106t120.5 45q52 0 88.5 -31.5t36.5 -78.5q0 -60 -52.5 -108t-119.5 -48zM217 -14q-55 0 -91 33t-36 81q0 60 51.5 106t118.5 46q54 0 90.5 -32t36.5 -79q0 -59 -51.5 -107t-118.5 -48z" />
    <glyph glyph-name="semicolon" unicode=";" horiz-adv-x="700" 
d="M424 893q-54 0 -90.5 33t-36.5 82q0 61 51.5 106t118.5 45q54 0 90.5 -32t36.5 -78q0 -60 -51.5 -108t-118.5 -48zM123 -272h-121l203 270q-33 12 -52.5 40t-19.5 62q0 60 51.5 106t118.5 46q54 0 90.5 -32t36.5 -81q0 -46 -51 -113t-256 -298z" />
    <glyph glyph-name="less" unicode="&#x3c;" horiz-adv-x="1234" 
d="M1018 432l-23 -145l-831 239l29 187l917 237l-25 -143l-735 -189z" />
    <glyph glyph-name="equal" unicode="=" horiz-adv-x="1265" 
d="M1118 754h-899l23 149h901zM1047 328h-902l23 149h899z" />
    <glyph glyph-name="greater" unicode="&#x3e;" horiz-adv-x="1234" 
d="M1065 526l-918 -239l23 145l737 186l-671 189l22 143l834 -237z" />
    <glyph glyph-name="question" unicode="?" horiz-adv-x="1337" 
d="M655 401h-198v33q0 75 18 131t64.5 106t108 92t165.5 99q51 30 82 49t83.5 58.5t82.5 73.5t54 83t24 99q0 109 -91 171t-229 62q-159 0 -288 -86.5t-154 -228.5q-4 -24 -4 -58l-178 31q0 29 4 60q23 133 122 238t240.5 160.5t296.5 55.5q135 0 246.5 -41t181.5 -126
t70 -201q0 -52 -17 -103.5t-41.5 -92t-64.5 -83t-73.5 -71t-82 -61.5t-75.5 -49.5t-68 -39.5q-47 -26 -68.5 -38.5t-58.5 -36.5t-54 -39.5t-41 -40.5t-34.5 -48.5t-18.5 -54.5t-8 -66q0 -25 4 -37zM504 -14q-55 0 -91 33t-36 81q0 60 51 106t117 46q54 0 91.5 -33t37.5 -80
q0 -59 -52 -106t-118 -47z" />
    <glyph glyph-name="at" unicode="@" horiz-adv-x="2353" 
d="M971 -195q-204 0 -368 50.5t-271.5 141t-165 214.5t-57.5 272q0 168 74.5 337.5t209 313.5t308.5 256t387.5 176t431.5 64q178 0 328.5 -43.5t261 -125t173 -204.5t62.5 -274q0 -140 -55 -278t-146.5 -243.5t-217.5 -171t-259 -65.5q-134 0 -192 65.5t-29 162.5
q-104 -109 -237.5 -162t-262.5 -53q-161 0 -254.5 86t-93.5 227q0 112 63.5 229t163 207.5t231 148.5t259.5 58q124 0 208 -53t107 -146l70 172h147l-225 -579q-8 -21 -12.5 -33t-12.5 -41t-9 -48.5t2 -45t16 -41t38.5 -26.5t63.5 -11q117 0 226.5 91t176 236t66.5 296
q0 251 -180.5 394.5t-497.5 143.5q-194 0 -381.5 -56.5t-337.5 -155.5t-265 -225.5t-178 -274.5t-63 -295q0 -264 193 -413t541 -149q388 0 684 168l61 -102q-171 -100 -379 -147.5t-403 -47.5zM1018 377q99 0 195.5 43t166 110.5t113 151.5t43.5 164q0 98 -62 152.5
t-174 54.5q-99 0 -196 -42.5t-167 -109.5t-113.5 -151t-43.5 -164q0 -99 62.5 -154t175.5 -55z" />
    <glyph glyph-name="A" unicode="A" horiz-adv-x="1820" 
d="M143 0h-215l1053 1597h227l486 -1597h-215l-166 520h-821q-131 -193 -349 -520zM606 700h651q-140 456 -200 674h-4q-45 -69 -202.5 -305.5t-244.5 -368.5z" />
    <glyph glyph-name="B" unicode="B" horiz-adv-x="1751" 
d="M926 0h-774l282 1597h703q253 0 394.5 -99t141.5 -259q0 -146 -114 -265t-293 -157v-4q168 -28 255 -112.5t87 -215.5q0 -130 -89 -241t-246.5 -177.5t-346.5 -66.5zM508 889h463q217 0 351 84.5t134 210.5q0 115 -110 177t-289 62h-447q-9 -47 -33.5 -182.5
t-42.5 -230.5t-26 -121zM381 174h514q224 0 360 87t136 214q0 118 -112 182t-296 64h-500q-13 -71 -34.5 -181t-67.5 -366z" />
    <glyph glyph-name="C" unicode="C" horiz-adv-x="2058" 
d="M991 -35q-253 0 -443 85.5t-293 243.5t-103 368q0 188 87 365t234.5 310t356.5 213t440 80q187 0 346.5 -53t274 -162.5t149.5 -261.5l-199 -70q-53 171 -214 270t-386 99q-182 0 -346 -65.5t-278 -173t-181 -247.5t-67 -286q0 -111 37 -202t99.5 -152t148 -103
t180.5 -61t198 -19q143 0 271 36.5t226.5 100.5t173 144.5t124.5 175.5l176 -61q-141 -265 -402 -419.5t-610 -154.5z" />
    <glyph glyph-name="D" unicode="D" horiz-adv-x="1972" 
d="M858 0h-706l282 1597h684q393 0 589 -170t196 -475q0 -147 -47 -287.5t-138 -260.5t-216 -210.5t-291.5 -142t-352.5 -51.5zM381 174h506q178 0 330.5 61t254 163.5t159 236t57.5 278.5q0 510 -644 510h-434q-23 -124 -56.5 -297t-68 -364t-104.5 -588z" />
    <glyph glyph-name="E" unicode="E" horiz-adv-x="1607" 
d="M1389 0h-1237l282 1597h1213l-27 -174h-1010q-8 -43 -20 -97t-29.5 -146.5t-48.5 -270.5h961l-27 -182h-961q-2 -13 -104 -549h1034z" />
    <glyph glyph-name="F" unicode="F" horiz-adv-x="1527" 
d="M1622 1597l-27 -180h-987l-96 -530h934l-27 -180h-938l-127 -707h-202l282 1597h1188z" />
    <glyph glyph-name="G" unicode="G" horiz-adv-x="2150" 
d="M967 -35q-372 0 -594.5 188.5t-222.5 503.5q0 151 55 296t157 266.5t238 214t309 144.5t359 52q188 0 348 -54t273 -163.5t147 -259.5l-195 -70q-54 171 -215.5 270t-384.5 99q-183 0 -347.5 -65.5t-278.5 -173t-181 -247.5t-67 -286q0 -112 37.5 -203.5t100.5 -152.5
t148 -102.5t178 -60t193 -18.5q284 0 497.5 137.5t278.5 352.5h-643l27 160h846l-140 -793h-166q36 208 56 328h-13q-134 -174 -336 -268.5t-464 -94.5z" />
    <glyph glyph-name="H" unicode="H" horiz-adv-x="1986" 
d="M1591 891l125 706h205l-283 -1597h-204l127 711h-1082l-125 -711h-202l282 1597h203l-125 -706h1079z" />
    <glyph glyph-name="I" unicode="I" horiz-adv-x="704" 
d="M354 0h-202l282 1597h203z" />
    <glyph glyph-name="J" unicode="J" horiz-adv-x="1449" 
d="M565 -35q-95 0 -179 18.5t-158 58t-120.5 101.5t-66.5 149t4 200l8 47l197 24l-8 -41q-18 -98 3 -173.5t73 -119.5t119.5 -66t146.5 -22q72 0 132.5 17t102 42.5t75.5 65.5t53.5 75.5t35.5 83t23 78t14 70.5l182 1024h203l-172 -981q-35 -189 -86 -299
q-163 -352 -582 -352z" />
    <glyph glyph-name="K" unicode="K" horiz-adv-x="1652" 
d="M354 0h-204l282 1597h205q-54 -297 -145 -821h6q367 295 1067 821h243q-169 -130 -477 -369.5t-424 -328.5q614 -833 664 -899h-250q-100 131 -269.5 354.5t-310.5 407.5l-292 -227q-47 -270 -95 -535z" />
    <glyph glyph-name="L" unicode="L" horiz-adv-x="1443" 
d="M637 1597l-252 -1419h958l-28 -178h-1163l282 1597h203z" />
    <glyph glyph-name="M" unicode="M" horiz-adv-x="2478" 
d="M358 0h-206l282 1597h248q358 -930 498 -1321h4q42 57 370 502t609 819h250l-283 -1597h-207q28 153 69.5 372t77.5 415.5t78 445.5h-10q-302 -424 -909 -1233h-178q-336 869 -461 1233h-6q-28 -148 -73.5 -411.5t-152.5 -821.5z" />
    <glyph glyph-name="N" unicode="N" horiz-adv-x="2023" 
d="M354 0h-202l282 1597h217q497 -725 860 -1282h7q13 69 97.5 523.5t137.5 758.5h203l-283 -1597h-217q-70 103 -383.5 556t-482.5 708h-4q-24 -137 -99 -525t-133 -739z" />
    <glyph glyph-name="O" unicode="O" horiz-adv-x="2166" 
d="M979 -35q-240 0 -429 89t-294.5 249.5t-105.5 364.5q0 148 57 292t162 264t243 211.5t309 143t351 51.5t334.5 -52.5t263 -145t170 -224t61.5 -284.5q0 -184 -91 -360t-242 -307.5t-359 -211.5t-430 -80zM1010 143q172 0 333.5 64t278.5 168.5t187.5 243.5t70.5 284
q0 158 -81 283t-226 195.5t-328 70.5q-170 0 -332 -63.5t-281 -168t-191 -244.5t-72 -286q0 -159 83 -284t229 -194t329 -69z" />
    <glyph glyph-name="P" unicode="P" horiz-adv-x="1640" 
d="M434 1597h682q29 0 54.5 -1t86 -9t109.5 -22t109 -44.5t101 -72t69 -108.5t28 -150q0 -112 -51.5 -216.5t-141.5 -184t-221.5 -127.5t-281.5 -48h-514l-109 -614h-202zM494 795h454q221 0 364.5 98t143.5 256q0 141 -108 207.5t-297 66.5h-445z" />
    <glyph glyph-name="Q" unicode="Q" horiz-adv-x="2179" 
d="M1872 -86l-162 -115q-190 225 -227 269q-240 -103 -498 -103q-243 0 -433.5 89t-296 249.5t-105.5 366.5q0 149 57.5 293.5t163 263.5t244.5 210t311 142t352 51q241 0 431.5 -89t297.5 -249t107 -362q0 -216 -123 -420t-336 -342q41 -45 109.5 -127.5t107.5 -126.5z
M1014 143q183 0 354 76q-40 47 -109.5 124.5t-168.5 191.5l163 112q16 -18 124.5 -144t166.5 -192q163 108 257.5 268.5t94.5 327.5q0 237 -180.5 391t-464.5 154q-175 0 -339.5 -63.5t-283.5 -168t-191 -244.5t-72 -286q0 -124 51 -227.5t139 -173t206.5 -108t252.5 -38.5z
" />
    <glyph glyph-name="R" unicode="R" horiz-adv-x="1705" 
d="M354 0h-202l282 1597h682q83 0 159 -12t149.5 -42t127 -75.5t86.5 -117t33 -162.5q0 -101 -42 -195.5t-117 -169t-183.5 -126t-234.5 -66.5v-2q37 -58 107.5 -162.5t137.5 -211.5t152 -255h-227l-394 618h-405q-15 -84 -33.5 -187t-77.5 -431zM492 788h456
q225 0 366.5 102t141.5 257q0 138 -109 208t-296 70h-441q-16 -86 -30.5 -164.5t-39 -211.5t-48.5 -261z" />
    <glyph glyph-name="S" unicode="S" horiz-adv-x="1583" 
d="M713 -35q-116 0 -220 27t-194.5 81t-151.5 147t-79 214l198 64q27 -180 156.5 -269.5t322.5 -89.5q204 0 346 92t142 222q0 37 -12 67.5t-37 53t-51 39t-67 31.5t-71 24t-76 21q-23 6 -34 9l-168 45q-43 11 -78 21.5t-84 29.5t-86.5 40t-77.5 52t-66.5 66t-43.5 82.5
t-17 100.5q0 130 90.5 243.5t253.5 182.5t359 69q248 0 399.5 -106.5t179.5 -272.5l-196 -71q-28 127 -137.5 201.5t-282.5 74.5q-189 0 -319 -82.5t-130 -197.5q0 -47 26 -88t60.5 -67t88.5 -50t88 -34.5t81 -23.5l183 -51q8 -2 24 -7q176 -47 256 -92q171 -96 172 -265
q0 -100 -57.5 -197t-155 -171t-238 -119.5t-296.5 -45.5z" />
    <glyph glyph-name="T" unicode="T" horiz-adv-x="1552" 
d="M778 0h-205q25 143 39 219.5t26 139t62 338.5t131 726h-645l29 174h1489l-27 -174h-645q-27 -154 -46 -265t-30 -176t-54.5 -305.5t-123.5 -676.5z" />
    <glyph glyph-name="U" unicode="U" horiz-adv-x="1847" 
d="M815 -35q-115 0 -210 21.5t-163 61t-117.5 96t-73.5 126t-30 151t12 171.5l181 1005h202l-176 -991q-39 -220 64.5 -342.5t341.5 -122.5q240 0 388.5 125t186.5 340l178 991h205l-180 -1005q-18 -101 -56.5 -190t-105.5 -170.5t-156 -139.5t-215 -92.5t-276 -34.5z" />
    <glyph glyph-name="V" unicode="V" horiz-adv-x="1822" 
d="M924 0h-228l-487 1597h215q71 -213 229 -734t195 -638h4q111 165 437 667.5t470 704.5h217z" />
    <glyph glyph-name="W" unicode="W" horiz-adv-x="2797" 
d="M797 0h-250l-324 1597h223q14 -67 53 -252t58 -276t49.5 -244t56 -289t50.5 -278h6q85 152 344.5 615.5t402.5 723.5h230q211 -1038 270 -1339h6q545 988 748 1339h223l-891 -1597h-248q-153 707 -262 1311h-4q-29 -53 -136.5 -248.5t-152.5 -275.5t-132 -235
t-162.5 -285t-157.5 -267z" />
    <glyph glyph-name="X" unicode="X" horiz-adv-x="1605" 
d="M166 0h-240q114 114 381 387.5t418 423.5v4q-45 71 -211 331.5t-289 450.5h234q42 -61 126 -202.5t287 -427.5h5q76 75 197 196t226 224t218 210h235q-100 -98 -201.5 -207.5t-231 -240.5t-347.5 -334v-4q92 -142 259.5 -413.5t248.5 -397.5h-238q-73 113 -210 332.5
t-206 326.5h-4z" />
    <glyph glyph-name="Y" unicode="Y" horiz-adv-x="1691" 
d="M848 0h-203q11 61 20.5 117.5t27 154t55.5 303.5q-56 107 -146 265t-179.5 331t-203.5 426h221l437 -837h4q82 92 141.5 165.5t96.5 121.5t162.5 187t338.5 363h217q-126 -145 -425 -490.5t-462 -531.5q-69 -403 -102 -575z" />
    <glyph glyph-name="Z" unicode="Z" horiz-adv-x="1617" 
d="M1442 0h-1469l29 182q257 226 730.5 637.5t690.5 601.5v4q-381 -2 -1151 -2l29 174h1403l-31 -180q-271 -236 -767.5 -665.5t-657.5 -569.5l-2 -4h1224z" />
    <glyph glyph-name="bracketleft" unicode="[" horiz-adv-x="831" 
d="M612 -362h-540l344 1959h538l-24 -161h-348l-291 -1624h346z" />
    <glyph glyph-name="backslash" unicode="\" horiz-adv-x="1036" 
d="M821 -135h-184l-354 1773h182z" />
    <glyph glyph-name="bracketright" unicode="]" horiz-adv-x="833" 
d="M440 -362h-540l26 174h348l293 1624h-348l25 161h538z" />
    <glyph glyph-name="asciicircum" unicode="^" horiz-adv-x="1060" 
d="M385 1034h-166l408 563h182l209 -563h-166l-152 436h-6z" />
    <glyph glyph-name="underscore" unicode="_" horiz-adv-x="1243" 
d="M1059 -231h-1145l23 147h1144z" />
    <glyph glyph-name="a" unicode="a" horiz-adv-x="1415" 
d="M440 -35q-178 0 -282.5 70t-104.5 198q0 67 29 122.5t78 96t121 73t148.5 53.5t170.5 38q37 7 96 16t96 15t85 16.5t78 23t58 31t41 44.5t13 59q0 84 -78.5 139.5t-208.5 55.5q-129 0 -234.5 -58.5t-160.5 -162.5l-176 57q84 157 250.5 235t355.5 78q101 0 186 -23
t149.5 -67.5t94 -120t12.5 -172.5l-75 -428q-20 -119 -25 -182.5t6 -171.5h-192q-15 104 6 211h-6q-87 -112 -222.5 -179t-308.5 -67zM498 109q98 0 189.5 32.5t155.5 83t106 109t52 112.5l27 136q-67 -33 -127.5 -48t-202.5 -38q-434 -71 -434 -242q0 -67 62.5 -106
t171.5 -39z" />
    <glyph glyph-name="b" unicode="b" horiz-adv-x="1638" 
d="M801 -35q-162 0 -283 65t-174 177h-6l-39 -207h-186l288 1638h191l-129 -723q106 124 251.5 187t307.5 63q237 0 379.5 -134.5t142.5 -354.5q0 -137 -58.5 -266.5t-156.5 -227.5t-237 -157.5t-291 -59.5zM793 133q111 0 213 42.5t174.5 112.5t115.5 162.5t43 190.5
q0 161 -106 259.5t-281 98.5q-149 0 -279 -71.5t-206 -189.5t-76 -249q0 -161 113 -258.5t289 -97.5z" />
    <glyph glyph-name="c" unicode="c" horiz-adv-x="1486" 
d="M682 -35q-270 0 -428 135.5t-158 364.5q0 136 60 263.5t163 224t252.5 154.5t317.5 58q126 0 232.5 -32.5t190.5 -108.5t118 -188l-197 -68q-30 113 -128.5 172t-240.5 59q-120 0 -226.5 -43t-179.5 -114t-115 -163.5t-42 -189.5q0 -165 111.5 -260.5t300.5 -95.5
q165 0 298 72.5t214 195.5l168 -61q-110 -180 -300 -277.5t-411 -97.5z" />
    <glyph glyph-name="d" unicode="d" horiz-adv-x="1642" 
d="M629 -35q-242 0 -387.5 135t-145.5 359q0 136 58 265t156.5 226t238 156t293.5 59q159 0 277 -61.5t175 -175.5h4l129 710h193l-227 -1284q-23 -128 -26 -210.5t9 -143.5h-194q-12 115 4 205h-4q-98 -117 -246 -178.5t-307 -61.5zM688 133q149 0 279 71.5t206 189.5
t76 249q0 160 -113 258t-286 98q-112 0 -214.5 -43t-174.5 -113t-115 -163t-43 -191q0 -160 106 -258t279 -98z" />
    <glyph glyph-name="e" unicode="e" horiz-adv-x="1347" 
d="M588 -35q-231 0 -369.5 130.5t-138.5 348.5q0 143 56.5 275.5t151.5 230.5t228 156.5t279 58.5q54 0 106 -8.5t105.5 -28t96.5 -50.5t80 -76.5t57 -105t26 -136.5t-13 -172l-12 -72h-969q-26 -181 71.5 -286t274.5 -105q137 0 253.5 72t187.5 188l160 -63
q-94 -164 -263.5 -260.5t-367.5 -96.5zM309 684h768q10 68 -2.5 124.5t-42 93.5t-73 62.5t-92 36.5t-101.5 11q-157 0 -280.5 -92.5t-176.5 -235.5z" />
    <glyph glyph-name="f" unicode="f" horiz-adv-x="870" 
d="M367 0h-191l174 975h-205l27 158h203l24 141q17 94 47 163.5t81 124.5t131.5 83t189.5 28q142 0 239 -47l-24 -160q-104 52 -207 52q-76 0 -125.5 -16.5t-76.5 -57.5t-36 -68.5t-22 -91.5q-3 -12 -4 -18l-27 -133h387l-26 -158h-383z" />
    <glyph glyph-name="g" unicode="g" horiz-adv-x="1638" 
d="M604 -483q-471 0 -555 329l184 58q29 -111 127 -172.5t265 -61.5q205 0 348.5 115.5t187.5 337.5l21 115h-4q-98 -116 -240.5 -176t-298.5 -60q-238 0 -388.5 131t-150.5 352q0 132 59 257t157.5 218t236.5 149t287 56q161 0 282 -63t176 -178h5l38 209h187l-174 -1000
q-109 -616 -750 -616zM694 170q109 0 212.5 41t178.5 108t120.5 156t45.5 180q0 154 -114 249t-289 95q-110 0 -211 -40.5t-173 -107t-114.5 -154.5t-42.5 -181q0 -154 107.5 -250t279.5 -96z" />
    <glyph glyph-name="h" unicode="h" horiz-adv-x="1556" 
d="M303 0h-190l288 1638h191l-125 -708h4q190 235 508 235q76 0 143 -15.5t125.5 -49t95 -86.5t53 -128.5t-2.5 -174.5l-127 -711h-191l115 633q31 177 -52 271.5t-237 94.5q-191 0 -325.5 -110t-163.5 -271z" />
    <glyph glyph-name="i" unicode="i" horiz-adv-x="612" 
d="M453 1380q-54 0 -90.5 33t-36.5 82q0 60 51.5 105t120.5 45q54 0 90.5 -32t36.5 -79q0 -60 -52.5 -107t-119.5 -47zM303 0h-190l198 1133h193z" />
    <glyph glyph-name="j" unicode="j" horiz-adv-x="612" 
d="M457 1380q-57 0 -93 32.5t-36 82.5q0 60 51.5 105t120.5 45q55 0 91 -31.5t36 -79.5q0 -60 -51.5 -107t-118.5 -47zM-172 -483q-151 0 -252 53l27 160q105 -54 213 -54q39 0 73 7.5t59.5 18.5t47.5 31.5t36 36.5t27.5 44t20 45t14 48t10 44t7.5 41l200 1141h193
l-203 -1147q-28 -153 -62 -230q-109 -239 -411 -239z" />
    <glyph glyph-name="k" unicode="k" horiz-adv-x="1294" 
d="M1108 1133h233l-589 -453l473 -680h-221l-406 563l-223 -172l-72 -391h-190l288 1638h191l-182 -1020h6q273 206 692 515z" />
    <glyph glyph-name="l" unicode="l" horiz-adv-x="612" 
d="M303 0h-190l288 1638h191z" />
    <glyph glyph-name="m" unicode="m" horiz-adv-x="2469" 
d="M303 0h-190l198 1133h187l-35 -203h4q94 117 229 176t277 59q68 0 130.5 -14t118.5 -43t94.5 -81t49.5 -120h6q217 258 531 258q73 0 138 -15.5t122.5 -49.5t93.5 -87.5t51.5 -128.5t-2.5 -173l-125 -711h-192l112 633q32 178 -48 272t-228 94q-181 0 -312.5 -111
t-160.5 -270l-111 -618h-190l114 633q32 177 -49.5 271.5t-228.5 94.5q-181 0 -313.5 -111t-161.5 -270z" />
    <glyph glyph-name="n" unicode="n" horiz-adv-x="1556" 
d="M303 0h-190l198 1133h187l-35 -203h4q95 118 229 176.5t285 58.5q77 0 143.5 -15.5t125 -49t94.5 -86.5t52 -128.5t-3 -174.5l-127 -711h-191l115 633q31 177 -52.5 271.5t-240.5 94.5q-189 0 -322.5 -110.5t-162.5 -270.5z" />
    <glyph glyph-name="o" unicode="o" horiz-adv-x="1576" 
d="M682 -35q-267 0 -426.5 136.5t-159.5 365.5q0 134 59.5 260t163 223t254.5 156t322 59q268 0 428 -136t160 -365q0 -134 -59.5 -260.5t-163 -223.5t-255 -156t-323.5 -59zM709 133q122 0 229.5 42.5t181 113.5t116 164t42.5 192q0 162 -111 258t-297 96
q-122 0 -229.5 -43.5t-181 -115t-116 -164t-42.5 -189.5q0 -162 111 -258t297 -96z" />
    <glyph glyph-name="p" unicode="p" horiz-adv-x="1638" 
d="M223 -451h-190l278 1584h187l-39 -218h4q109 125 254.5 187.5t302.5 62.5q238 0 381 -133t143 -356q0 -137 -58.5 -267t-157 -228t-237.5 -157t-290 -59q-162 0 -283.5 65t-177.5 177zM793 133q111 0 213.5 43t174.5 113.5t115 163.5t43 190q0 160 -107 258t-280 98
q-150 0 -280 -72t-205.5 -188.5t-75.5 -246.5q0 -160 113 -259.5t289 -99.5z" />
    <glyph glyph-name="q" unicode="q" horiz-adv-x="1638" 
d="M1251 -451h-192l119 666q-103 -121 -249.5 -185.5t-307.5 -64.5q-237 0 -381 136t-144 360q0 136 58 264.5t156 225.5t237 155.5t293 58.5q161 0 281.5 -63t174.5 -178h7l38 209h187zM688 133q150 0 280 71.5t205.5 189t75.5 247.5q0 162 -112.5 260t-288.5 98
q-111 0 -213.5 -43t-175 -113t-115.5 -163t-43 -191q0 -161 106.5 -258.5t280.5 -97.5z" />
    <glyph glyph-name="r" unicode="r" horiz-adv-x="1015" 
d="M303 0h-190l198 1133h187l-41 -218h10q72 110 202 180t275 70q89 0 148 -20l-31 -197q-67 25 -168 25q-102 0 -191 -40.5t-150 -107t-100.5 -145t-54.5 -160.5z" />
    <glyph glyph-name="s" unicode="s" horiz-adv-x="1214" 
d="M528 -35q-201 0 -338.5 87.5t-166.5 230.5l186 55q33 -104 129.5 -162.5t220.5 -58.5q132 0 227 57.5t95 140.5q0 36 -17.5 62t-52 43.5t-68.5 28t-83 23.5q-4 0 -5.5 0.5l-4.5 1.5t-6 1.5t-5 1.5l-125 31q-33 8 -50 13t-58 19t-65.5 27t-58.5 37t-53.5 50t-34 63
t-14.5 80q0 98 67.5 182.5t186.5 135t260 50.5q178 0 298 -77.5t145 -200.5l-191 -58q-20 80 -93.5 134.5t-190.5 54.5q-119 0 -201 -54t-82 -130q0 -28 11 -51.5t35 -41.5t45.5 -31.5t58.5 -26t58.5 -18.5t59.5 -16l119 -28q35 -8 56.5 -14t59 -18.5t62 -25.5t54.5 -34.5
t47.5 -45.5t29.5 -58t12 -73q0 -155 -160.5 -271t-398.5 -116z" />
    <glyph glyph-name="t" unicode="t" horiz-adv-x="942" 
d="M535 -35q-71 0 -125.5 15t-86.5 37.5t-52 58t-27.5 66.5t-7 73.5t3.5 68.5t10 62l117 627h-271l23 160h270l60 333h192l-59 -333h407l-22 -160h-410l-106 -570q-6 -33 -9.5 -53t-6 -52.5t0.5 -53t12.5 -45t27 -38.5t47 -24t69.5 -10q107 0 227 57l-26 -166
q-106 -53 -258 -53z" />
    <glyph glyph-name="u" unicode="u" horiz-adv-x="1533" 
d="M575 -35q-78 0 -145 15.5t-124.5 49.5t-93 87.5t-50.5 129.5t4 175l127 711h190l-114 -644q-15 -78 -5 -137t34.5 -100.5t65.5 -68t87.5 -38.5t99.5 -12q93 0 176.5 32t142 84.5t97 118t51.5 134.5l113 631h190l-137 -779q-21 -120 -24.5 -198.5t8.5 -155.5h-195
q-10 126 4 190h-6q-183 -225 -496 -225z" />
    <glyph glyph-name="v" unicode="v" horiz-adv-x="1341" 
d="M680 0h-215l-330 1133h209q35 -119 262 -920h4q67 104 185.5 288t218 338.5t190.5 293.5h205z" />
    <glyph glyph-name="w" unicode="w" horiz-adv-x="2236" 
d="M633 0h-207l-289 1133h213l223 -895h7l548 895h185l233 -895h4l539 895h213l-684 -1133h-215q-151 581 -217 889h-4q-232 -390 -549 -889z" />
    <glyph glyph-name="x" unicode="x" horiz-adv-x="1271" 
d="M150 0h-218q47 46 120.5 120.5t169 167.5t292.5 283v4q-190 276 -381 558h221l301 -441h4q338 323 463 441h219q-321 -302 -579 -558v-4q185 -285 379 -571h-213q-137 200 -305 449h-7q-65 -64 -220 -210t-246 -239z" />
    <glyph glyph-name="y" unicode="y" horiz-adv-x="1347" 
d="M385 -451h-188l278 426l-344 1158h211q41 -136 84.5 -286.5t97 -339.5t84.5 -296h4q41 63 260.5 404t337.5 518h207z" />
    <glyph glyph-name="z" unicode="z" horiz-adv-x="1208" 
d="M1051 0h-1078l23 143l917 826h-725l25 164h983l-20 -144l-922 -825h821z" />
    <glyph glyph-name="braceleft" unicode="{" horiz-adv-x="931" 
d="M727 -305h-102q-272 0 -376.5 105t-66.5 333l29 172q12 70 14.5 113.5t-2.5 72t-24 42t-42.5 18t-66.5 4.5l31 184q78 0 106 13q53 25 83 133q12 43 22 104l30 170q12 74 31.5 130.5t62.5 117t105 100t164.5 65t235.5 25.5h102l-23 -161h-92q-171 0 -267 -59t-124 -210
l-33 -176q-33 -169 -81 -244.5t-144 -99.5v-4q89 -22 110 -93.5t-10 -248.5l-30 -176q-14 -61 -5.5 -111t38.5 -84.5t95 -53.5t165 -19h92z" />
    <glyph glyph-name="bar" unicode="|" horiz-adv-x="643" 
d="M231 -451h-178l369 2089h178z" />
    <glyph glyph-name="braceright" unicode="}" horiz-adv-x="931" 
d="M0 -305h-102l24 162h90q177 0 272.5 61.5t121.5 206.5l32 176q31 165 78 241.5t148 100.5l2 4q-89 24 -112 93.5t7 250.5l33 176q7 40 8 71t-6 63.5t-27.5 55.5t-54 41.5t-88 28t-127.5 9.5h-88l22 161h103q277 0 381.5 -104.5t62.5 -333.5l-30 -170q-11 -61 -15 -102.5
t1 -69.5t12.5 -43.5t28.5 -23.5t40 -9.5t55 -1.5l-28 -184q-43 0 -68 -4.5t-49 -18t-39.5 -42t-29 -72t-27.5 -113.5l-33 -172q-12 -64 -29 -113.5t-45.5 -102t-72.5 -90.5t-105 -69t-148.5 -47t-197.5 -16z" />
    <glyph glyph-name="asciitilde" unicode="~" horiz-adv-x="1300" 
d="M850 543q-63 0 -116.5 21t-84 45.5t-72 45.5t-83.5 21q-62 0 -101 -38t-49 -93h-166q16 90 69.5 156t122.5 97t144 31q60 0 111.5 -20.5t82 -45t71.5 -45t83 -20.5q60 0 94.5 35.5t44.5 93.5h166q-24 -139 -112 -211.5t-205 -72.5z" />
    <glyph glyph-name="uni00A0" unicode="&#xa0;" horiz-adv-x="636" 
 />
    <glyph glyph-name="exclamdown" unicode="&#xa1;" horiz-adv-x="606" 
d="M365 899q-53 0 -90 33t-37 80q0 59 53 106t121 47q53 0 89 -32.5t36 -79.5q0 -61 -52.5 -107.5t-119.5 -46.5zM236 -444h-222l21 125l246 1046h110l-135 -1046z" />
    <glyph glyph-name="cent" unicode="&#xa2;" horiz-adv-x="1370" 
d="M862 1096l-127 -719q120 9 217.5 65.5t157.5 147.5l135 -51q-81 -132 -223 -211t-309 -88l-43 -240h-119l43 242q-187 19 -298.5 126.5t-111.5 282.5q0 141 74 267.5t209 211.5t303 101l41 235h117l-41 -233q142 -8 248.5 -74.5t142.5 -189.5l-156 -54q-20 77 -90 124.5
t-170 56.5zM354 674q0 -122 71.5 -198.5t192.5 -94.5l127 713q-171 -24 -281 -146.5t-110 -273.5z" />
    <glyph glyph-name="sterling" unicode="&#xa3;" horiz-adv-x="1492" 
d="M793 647q0 -133 -114 -262.5t-310 -216.5h950l-27 -168h-1259l26 168q242 69 383.5 191.5t141.5 252.5q0 53 -23 107h-379l19 117h291q-77 109 -101 156q-45 90 -45 179q0 125 76.5 230t215 167t308.5 62q70 0 135 -10t135.5 -38t123.5 -72t91.5 -117.5t47.5 -169.5
l-193 -70q-13 88 -49.5 151t-89 95.5t-107.5 46.5t-118 14q-155 0 -259 -77.5t-104 -196.5q0 -61 25 -115.5t79.5 -130.5t71.5 -104h516l-20 -117h-447q9 -35 9 -72z" />
    <glyph glyph-name="currency" unicode="&#xa4;" horiz-adv-x="1622" 
d="M1331 887q0 -88 -38 -169t-107 -145l260 -313l-141 -100l-267 319q-112 -53 -252 -53q-138 0 -233 53l-379 -319l-111 100l375 318q-53 77 -53 184q0 177 139 313l-258 314l142 102l266 -315q119 53 254 53q142 0 237 -53l373 315l113 -102l-373 -316q53 -77 53 -186z
M557 786q0 -102 68 -161.5t184 -59.5q145 0 246.5 90t101.5 215q0 101 -67 159t-181 58q-146 0 -249 -89t-103 -212z" />
    <glyph glyph-name="yen" unicode="&#xa5;" horiz-adv-x="1755" 
d="M874 0h-202l47 262h-445l21 139h446l33 168h-444l22 140h379l-475 888h219q73 -138 213.5 -403t218.5 -412h4q80 90 138 161t92.5 115t158 178.5t338.5 360.5h217l-790 -888h385l-23 -140h-448l-35 -168h449l-21 -139h-448z" />
    <glyph glyph-name="brokenbar" unicode="&#xa6;" horiz-adv-x="643" 
d="M459 836h-178l143 802h176zM231 -451h-176l140 795h176z" />
    <glyph glyph-name="section" unicode="&#xa7;" horiz-adv-x="1316" 
d="M522 -301q-205 0 -346.5 93.5t-167.5 242.5l180 49q33 -111 133 -176.5t228 -65.5q125 0 217 59t92 140q0 28 -13.5 52t-30 38.5t-52 30.5t-57.5 23.5t-69 21.5q-9 3 -13 4l-123 37q-50 16 -87.5 31t-84 40.5t-76.5 53.5t-51 69t-21 88q0 102 82.5 187t220.5 117l-2 4
q-186 80 -186 237q0 152 149.5 261.5t378.5 109.5q110 0 198.5 -29.5t152 -99t79.5 -172.5l-190 -53q-19 106 -84 158.5t-186 52.5q-131 0 -216 -54.5t-85 -132.5q0 -33 17 -61.5t37 -45.5t61 -35.5t61.5 -25t66.5 -20.5l4.5 -1.5t4 -1t4.5 -1.5l139 -39q48 -14 77 -24
t76 -33t73.5 -47t47.5 -63.5t21 -86.5q0 -104 -88 -195.5t-220 -126.5l-2 -4q191 -72 191 -225q0 -98 -69 -185.5t-194.5 -141.5t-277.5 -54zM614 387l58 -16q142 9 227.5 72.5t85.5 144.5q0 28 -12 50t-27.5 36t-47 27t-53 19.5t-61.5 17.5q-17 5 -26 7l-88 23
q-66 18 -138 -6t-118.5 -76t-46.5 -111q0 -33 18 -62t42 -47.5t62.5 -35.5t63 -25t61.5 -18z" />
    <glyph glyph-name="copyright" unicode="&#xa9;" horiz-adv-x="2318" 
d="M1055 -35q-256 0 -453 88.5t-304.5 249t-107.5 369.5q0 187 90.5 362.5t244.5 306.5t370.5 210t454.5 79q256 0 452.5 -87.5t304 -247.5t107.5 -369q0 -187 -90.5 -363t-244 -307.5t-370 -211t-454.5 -79.5zM1077 90q138 0 268.5 31t239 85.5t199.5 131t154 166.5
t98 193.5t35 209.5q0 178 -93 314.5t-261.5 211t-387.5 74.5q-165 0 -318 -43t-274.5 -120.5t-212 -179t-139.5 -224t-49 -250.5q0 -272 204 -436t537 -164zM1135 348q-202 0 -323.5 103t-121.5 274q0 101 45.5 196t124 167t191.5 115.5t239 43.5q161 0 270.5 -70
t139.5 -196l-156 -47q-21 89 -94 136.5t-182 47.5q-90 0 -168.5 -33t-131 -86.5t-82.5 -121.5t-30 -138q0 -126 86 -194t221 -68q121 0 221 57.5t164 161.5l133 -41q-82 -146 -225.5 -226.5t-320.5 -80.5z" />
    <glyph glyph-name="guillemotleft" unicode="&#xab;" horiz-adv-x="1415" 
d="M674 164h-215l-328 405l2 9l473 405h213l-471 -405l-2 -9zM1180 164h-213l-328 405l4 9l469 405h215l-473 -405l-2 -9z" />
    <glyph glyph-name="logicalnot" unicode="&#xac;" horiz-adv-x="1251" 
d="M1012 231h-170l57 328h-723l23 150h893z" />
    <glyph glyph-name="registered" unicode="&#xae;" horiz-adv-x="1394" 
d="M725 735q-209 0 -337 105t-128 276q0 134 81.5 253t226.5 192t317 73q205 0 336 -105t131 -276q0 -134 -82 -253t-227.5 -192t-317.5 -73zM741 819q108 0 204 36t162 94.5t104 135t38 156.5q0 138 -104.5 223.5t-274.5 85.5q-212 0 -362 -127t-150 -295
q0 -138 105.5 -223.5t277.5 -85.5zM672 942h-99l86 494h220q86 0 134 -34.5t48 -94.5q0 -61 -45.5 -110t-116.5 -64l121 -191h-111l-112 180h-92zM743 1356l-26 -156h117q54 0 88 25t34 63q0 68 -102 68h-111z" />
    <glyph glyph-name="degree" unicode="&#xb0;" horiz-adv-x="925" 
d="M545 1053q-135 0 -219 70.5t-84 183.5q0 136 120 239t289 103q134 0 218.5 -71t84.5 -183q0 -134 -121 -238t-288 -104zM565 1163q103 0 178.5 65.5t75.5 151.5q0 69 -51.5 113.5t-134.5 44.5q-104 0 -180 -66t-76 -151q0 -70 52 -114t136 -44z" />
    <glyph glyph-name="plusminus" unicode="&#xb1;" horiz-adv-x="1269" 
d="M1133 799l-25 -144h-371l-37 -206h371l-22 -142h-912l23 142h368l37 206h-368l22 144h371l41 243h170l-41 -243h373z" />
    <glyph glyph-name="uni00B2" unicode="&#xb2;" horiz-adv-x="778" 
d="M733 784h-596l4 17q29 124 92.5 189.5t245.5 158.5q1 0 21 10.5t28 15t29 17t32 21t27 23t24.5 26.5t15 27t6.5 30q0 37 -33.5 59.5t-87.5 22.5q-75 0 -131.5 -42.5t-69.5 -113.5l-139 21q20 118 122.5 192t239.5 74q116 0 188 -53t72 -142q0 -80 -61 -143t-139 -100
q-28 -15 -82 -40.5t-78.5 -39t-54 -39.5t-46.5 -57h392z" />
    <glyph glyph-name="uni00B3" unicode="&#xb3;" horiz-adv-x="790" 
d="M426 768q-120 0 -201.5 46.5t-95.5 121.5l145 63q37 -110 168 -110q74 0 125 36.5t51 86.5q0 92 -153 92h-84l14 102h90q72 0 123 32.5t51 82.5q0 39 -36 62.5t-91 23.5q-64 0 -111.5 -30t-66.5 -83l-137 29q28 90 126 149.5t220 59.5q107 0 181.5 -45.5t74.5 -122.5
q0 -65 -50 -121.5t-122 -71.5q60 -11 99.5 -50t39.5 -95q0 -102 -105.5 -180t-254.5 -78z" />
    <glyph glyph-name="paragraph" unicode="&#xb6;" horiz-adv-x="1779" 
d="M958 -287h-204l166 942h-248q-227 0 -360.5 109t-133.5 295q0 108 50.5 206t140.5 171.5t224 117t292 43.5h405zM1354 -287h-203l332 1884h203z" />
    <glyph glyph-name="periodcentered" unicode="&#xb7;" horiz-adv-x="677" 
d="M350 477q-66 0 -110.5 40.5t-44.5 100.5q0 74 62.5 129.5t145.5 55.5q65 0 109.5 -38.5t44.5 -96.5q0 -73 -63 -132t-144 -59z" />
    <glyph glyph-name="uni00B9" unicode="&#xb9;" horiz-adv-x="548" 
d="M436 784h-153l88 500q-93 -66 -201 -84l23 150q88 22 149 67.5t70 98.5h149z" />
    <glyph glyph-name="guillemotright" unicode="&#xbb;" horiz-adv-x="1415" 
d="M307 164h-215l471 405l2 9l-327 405h215l325 -405l-2 -9zM813 164h-215l473 405l2 9l-328 405h213l330 -405l-4 -9z" />
    <glyph glyph-name="onequarter" unicode="&#xbc;" horiz-adv-x="1654" 
d="M436 784h-153l88 500q-93 -66 -201 -84l23 150q88 22 149 67.5t70 98.5h149zM55 0h-182l1624 1468h174zM1366 -12h-149l28 151h-420l19 119l504 461h147l-82 -459h117l-21 -121h-114zM1315 532l-320 -272h269z" />
    <glyph glyph-name="onehalf" unicode="&#xbd;" horiz-adv-x="1708" 
d="M436 784h-153l88 500q-93 -66 -201 -84l23 150q88 22 149 67.5t70 98.5h149zM55 0h-182l1624 1468h174zM1522 -12h-596l4 16q29 124 92.5 189.5t245.5 158.5q2 1 18 9.5t24 13t25.5 14.5t28 17.5t25.5 19t24.5 22t18.5 22.5t13.5 25.5t4.5 26.5q0 37 -33.5 59.5
t-87.5 22.5q-75 0 -131.5 -42t-69.5 -113l-139 20q20 118 123 192t240 74q116 0 188 -52.5t72 -141.5q0 -80 -61.5 -143.5t-139.5 -100.5q-27 -15 -81.5 -40.5t-78.5 -39t-53.5 -39.5t-46.5 -57h391z" />
    <glyph glyph-name="threequarters" unicode="&#xbe;" horiz-adv-x="1896" 
d="M426 768q-120 0 -201.5 46.5t-95.5 121.5l145 63q37 -110 168 -110q74 0 125 36.5t51 86.5q0 92 -153 92h-84l14 102h90q72 0 123 32.5t51 82.5q0 39 -36 62.5t-91 23.5q-64 0 -111.5 -30t-66.5 -83l-137 29q28 90 126 149.5t220 59.5q107 0 181.5 -45.5t74.5 -122.5
q0 -65 -50 -121.5t-122 -71.5q60 -11 99.5 -50t39.5 -95q0 -102 -105.5 -180t-254.5 -78zM297 0h-182l1624 1468h174zM1608 -12h-150l29 151h-420l18 119l504 461h148l-82 -459h117l-21 -121h-115zM1556 532l-319 -272h268z" />
    <glyph glyph-name="questiondown" unicode="&#xbf;" horiz-adv-x="1312" 
d="M784 899q-54 0 -90.5 33t-36.5 80q0 60 51.5 106.5t116.5 46.5q56 0 93.5 -32.5t37.5 -81.5q0 -59 -52 -105.5t-120 -46.5zM473 -479q-137 0 -249 42.5t-180.5 128t-68.5 199.5q0 53 17.5 105.5t42 93t66 83t74 70t82 61t73.5 48t65 37.5q46 26 67 38t57 34t51.5 36
t39.5 37t33.5 43t20.5 47.5t13.5 58t0.5 67.5h196q3 -58 -3.5 -105t-26.5 -87t-45.5 -72t-70 -65.5t-90.5 -61.5t-116 -66q-41 -24 -67 -39.5t-71 -46t-74 -58.5t-59.5 -64t-45.5 -76.5t-15 -82.5q0 -107 92 -170t230 -63q111 0 210.5 42.5t167 129.5t71.5 201l174 -31
q-6 -115 -64 -213t-149.5 -163t-208 -101.5t-240.5 -36.5z" />
    <glyph glyph-name="Agrave" unicode="&#xc0;" horiz-adv-x="1820" 
d="M1237 1720h-176l-346 336h272zM143 0h-215l1053 1597h227l486 -1597h-215l-166 520h-821q-131 -193 -349 -520zM606 700h651q-140 456 -200 674h-4q-45 -69 -202.5 -305.5t-244.5 -368.5z" />
    <glyph glyph-name="Aacute" unicode="&#xc1;" horiz-adv-x="1820" 
d="M1642 2056l-460 -336h-176l366 336h270zM143 0h-215l1053 1597h227l486 -1597h-215l-166 520h-821q-131 -193 -349 -520zM606 700h651q-140 456 -200 674h-4q-45 -69 -202.5 -305.5t-244.5 -368.5z" />
    <glyph glyph-name="Acircumflex" unicode="&#xc2;" horiz-adv-x="1820" 
d="M1284 2042l270 -322h-178q-166 149 -223 205q-19 -14 -49 -36.5t-46.5 -34t-45.5 -32t-66.5 -45t-89.5 -57.5h-180l381 322h227zM143 0h-215l1053 1597h227l486 -1597h-215l-166 520h-821q-131 -193 -349 -520zM606 700h651q-140 456 -200 674h-4q-45 -69 -202.5 -305.5
t-244.5 -368.5z" />
    <glyph glyph-name="Atilde" unicode="&#xc3;" horiz-adv-x="1820" 
d="M1319 1743q-57 0 -95.5 16t-80.5 49l-47 35q-1 1 -10.5 7.5t-12 8t-11.5 7.5t-13 7.5t-13 5.5t-15.5 5t-15.5 2.5t-18 1.5q-54 0 -92.5 -36.5t-50.5 -92.5h-144q23 120 109.5 194.5t200.5 74.5q54 0 92 -17t76 -47l47 -35q59 -47 114 -47q52 0 88.5 36.5t47.5 94.5h143
q-22 -126 -101.5 -198t-197.5 -72zM143 0h-215l1053 1597h227l486 -1597h-215l-166 520h-821q-131 -193 -349 -520zM606 700h651q-140 456 -200 674h-4q-45 -69 -202.5 -305.5t-244.5 -368.5z" />
    <glyph glyph-name="Adieresis" unicode="&#xc4;" horiz-adv-x="1820" 
d="M881 1772q-53 0 -88 30.5t-35 77.5q0 57 49 100t115 43q52 0 86 -29.5t34 -74.5q0 -59 -48.5 -103t-112.5 -44zM1370 1772q-55 0 -90 30.5t-35 75.5q0 59 49.5 102t114.5 43q52 0 86.5 -30.5t34.5 -75.5q0 -56 -48.5 -100.5t-111.5 -44.5zM143 0h-215l1053 1597h227
l486 -1597h-215l-166 520h-821q-131 -193 -349 -520zM606 700h651q-140 456 -200 674h-4q-45 -69 -202.5 -305.5t-244.5 -368.5z" />
    <glyph glyph-name="Aring" unicode="&#xc5;" horiz-adv-x="1820" 
d="M1112 1714q-106 0 -174 55.5t-68 141.5q0 104 95 181t227 77q106 0 173 -54.5t67 -140.5q0 -103 -94 -181.5t-226 -78.5zM1130 1829q71 0 120.5 39t49.5 94q0 42 -37 68t-92 26q-71 0 -120.5 -39t-49.5 -94q0 -43 36 -68.5t93 -25.5zM143 0h-215l1053 1597h227l486 -1597
h-215l-166 520h-821q-131 -193 -349 -520zM606 700h651q-140 456 -200 674h-4q-45 -69 -202.5 -305.5t-244.5 -368.5z" />
    <glyph glyph-name="AE" unicode="&#xc6;" horiz-adv-x="2551" 
d="M78 0h-223l1405 1597h1331l-29 -174h-1010q-50 -283 -94 -516h959l-29 -180h-961q-63 -334 -102 -549h1034l-28 -178h-1237q8 39 28.5 166.5t67.5 347.5h-641q-46 -50 -139 -146t-166.5 -176.5t-165.5 -191.5zM688 696h529q7 41 35 181.5t98 545.5h-7
q-131 -148 -655 -727z" />
    <glyph glyph-name="Ccedilla" unicode="&#xc7;" horiz-adv-x="2058" 
d="M1032 143q143 0 271 36.5t226.5 100.5t173 144.5t124.5 175.5l176 -61q-140 -262 -394.5 -416t-596.5 -158l-113 -108q40 14 92 14q92 0 146.5 -39.5t54.5 -107.5q0 -93 -91.5 -158.5t-228.5 -65.5q-89 0 -167 31t-123 86l88 74q33 -43 90 -67.5t119 -24.5q75 0 126.5 32
t51.5 78q0 36 -37 58t-92 22q-63 0 -119 -27l-64 56l146 151q-340 25 -539.5 211t-199.5 482q0 188 87 365t234.5 310t356.5 213t440 80q187 0 346.5 -53t274 -162.5t149.5 -261.5l-199 -70q-53 171 -214 270t-386 99q-182 0 -346 -65.5t-278 -173t-181 -247.5t-67 -286
q0 -111 37 -202t99.5 -152t148 -103t180.5 -61t198 -19z" />
    <glyph glyph-name="Egrave" unicode="&#xc8;" horiz-adv-x="1607" 
d="M1155 1720h-176l-346 336h272zM1389 0h-1237l282 1597h1213l-27 -174h-1010q-8 -43 -20 -97t-29.5 -146.5t-48.5 -270.5h961l-27 -182h-961q-2 -13 -104 -549h1034z" />
    <glyph glyph-name="Eacute" unicode="&#xc9;" horiz-adv-x="1607" 
d="M1561 2056l-461 -336h-176l366 336h271zM1389 0h-1237l282 1597h1213l-27 -174h-1010q-8 -43 -20 -97t-29.5 -146.5t-48.5 -270.5h961l-27 -182h-961q-2 -13 -104 -549h1034z" />
    <glyph glyph-name="Ecircumflex" unicode="&#xca;" horiz-adv-x="1607" 
d="M1202 2042l271 -322h-179q-166 149 -223 205q-19 -14 -49 -36.5t-46.5 -34t-45.5 -32t-66.5 -45t-89.5 -57.5h-180l381 322h227zM1389 0h-1237l282 1597h1213l-27 -174h-1010q-8 -43 -20 -97t-29.5 -146.5t-48.5 -270.5h961l-27 -182h-961q-2 -13 -104 -549h1034z" />
    <glyph glyph-name="Edieresis" unicode="&#xcb;" horiz-adv-x="1607" 
d="M799 1772q-53 0 -88 30.5t-35 77.5q0 57 49 100t115 43q52 0 86.5 -30t34.5 -74q0 -59 -49 -103t-113 -44zM1288 1772q-55 0 -90 30.5t-35 75.5q0 59 49.5 102t114.5 43q52 0 86.5 -30.5t34.5 -75.5q0 -56 -48.5 -100.5t-111.5 -44.5zM1389 0h-1237l282 1597h1213
l-27 -174h-1010q-8 -43 -20 -97t-29.5 -146.5t-48.5 -270.5h961l-27 -182h-961q-2 -13 -104 -549h1034z" />
    <glyph glyph-name="Igrave" unicode="&#xcc;" horiz-adv-x="704" 
d="M680 1720h-176l-346 336h272zM354 0h-202l282 1597h203z" />
    <glyph glyph-name="Iacute" unicode="&#xcd;" horiz-adv-x="704" 
d="M1085 2056l-460 -336h-176l366 336h270zM354 0h-202l282 1597h203z" />
    <glyph glyph-name="Icircumflex" unicode="&#xce;" horiz-adv-x="704" 
d="M727 2042l270 -322h-178q-166 149 -223 205q-19 -14 -49 -36.5t-46.5 -34t-45.5 -32t-66.5 -45t-89.5 -57.5h-180l381 322h227zM354 0h-202l282 1597h203z" />
    <glyph glyph-name="Idieresis" unicode="&#xcf;" horiz-adv-x="704" 
d="M324 1772q-53 0 -88 30.5t-35 77.5q0 57 49 100t115 43q52 0 86 -29.5t34 -74.5q0 -59 -48.5 -103t-112.5 -44zM813 1772q-55 0 -90 30.5t-35 75.5q0 59 49.5 102t114.5 43q52 0 86.5 -30.5t34.5 -75.5q0 -56 -48.5 -100.5t-111.5 -44.5zM354 0h-202l282 1597h203z" />
    <glyph glyph-name="Eth" unicode="&#xd0;" horiz-adv-x="1972" 
d="M434 1597h684q393 0 589 -170t196 -475q0 -147 -47 -287.5t-138 -260.5t-216 -210.5t-291.5 -142t-352.5 -51.5h-706l127 721h-211l22 153h217zM887 174q178 0 330.5 61t254 163.5t159 236t57.5 278.5q0 510 -644 510h-434q-47 -249 -104 -549h606l-22 -153h-613
l-96 -547h506z" />
    <glyph glyph-name="Ntilde" unicode="&#xd1;" horiz-adv-x="2023" 
d="M1391 1780q-57 0 -96.5 16t-80.5 49l-47 35q-1 1 -12 8.5t-14 9.5t-13 8t-15.5 8t-15 5.5t-19 4.5t-19.5 1q-54 0 -93 -36.5t-51 -92.5h-143q23 120 109 194t200 74q90 0 168 -63l47 -35q59 -47 115 -47q51 0 87.5 36.5t47.5 94.5h144q-22 -126 -101.5 -198t-197.5 -72z
M354 0h-202l282 1597h217q497 -725 860 -1282h7q13 69 97.5 523.5t137.5 758.5h203l-283 -1597h-217q-70 103 -383.5 556t-482.5 708h-4q-24 -137 -99 -525t-133 -739z" />
    <glyph glyph-name="Ograve" unicode="&#xd2;" horiz-adv-x="2166" 
d="M1409 1720h-176l-346 336h272zM979 -35q-240 0 -429 89t-294.5 249.5t-105.5 364.5q0 148 57 292t162 264t243 211.5t309 143t351 51.5t334.5 -52.5t263 -145t170 -224t61.5 -284.5q0 -184 -91 -360t-242 -307.5t-359 -211.5t-430 -80zM1010 143q172 0 333.5 64
t278.5 168.5t187.5 243.5t70.5 284q0 158 -81 283t-226 195.5t-328 70.5q-170 0 -332 -63.5t-281 -168t-191 -244.5t-72 -286q0 -159 83 -284t229 -194t329 -69z" />
    <glyph glyph-name="Oacute" unicode="&#xd3;" horiz-adv-x="2166" 
d="M1815 2056l-461 -336h-176l366 336h271zM979 -35q-240 0 -429 89t-294.5 249.5t-105.5 364.5q0 148 57 292t162 264t243 211.5t309 143t351 51.5t334.5 -52.5t263 -145t170 -224t61.5 -284.5q0 -184 -91 -360t-242 -307.5t-359 -211.5t-430 -80zM1010 143q172 0 333.5 64
t278.5 168.5t187.5 243.5t70.5 284q0 158 -81 283t-226 195.5t-328 70.5q-170 0 -332 -63.5t-281 -168t-191 -244.5t-72 -286q0 -159 83 -284t229 -194t329 -69z" />
    <glyph glyph-name="Ocircumflex" unicode="&#xd4;" horiz-adv-x="2166" 
d="M1456 2042l270 -322h-178q-166 149 -223 205q-19 -14 -49 -36.5t-46.5 -34t-45.5 -32t-66.5 -45t-89.5 -57.5h-180l381 322h227zM979 -35q-240 0 -429 89t-294.5 249.5t-105.5 364.5q0 148 57 292t162 264t243 211.5t309 143t351 51.5t334.5 -52.5t263 -145t170 -224
t61.5 -284.5q0 -184 -91 -360t-242 -307.5t-359 -211.5t-430 -80zM1010 143q172 0 333.5 64t278.5 168.5t187.5 243.5t70.5 284q0 158 -81 283t-226 195.5t-328 70.5q-170 0 -332 -63.5t-281 -168t-191 -244.5t-72 -286q0 -159 83 -284t229 -194t329 -69z" />
    <glyph glyph-name="Otilde" unicode="&#xd5;" horiz-adv-x="2166" 
d="M1483 1780q-57 0 -95.5 16t-80.5 49l-47 35q-1 1 -10.5 7.5t-12 8t-11.5 7.5t-13 7.5t-13 5.5t-15.5 5t-15.5 2.5t-18 1.5q-54 0 -92.5 -36.5t-50.5 -92.5h-144q23 120 109.5 194t200.5 74q89 0 167 -63l48 -35q59 -47 114 -47q51 0 87.5 36.5t47.5 94.5h144
q-22 -126 -101.5 -198t-197.5 -72zM979 -35q-240 0 -429 89t-294.5 249.5t-105.5 364.5q0 148 57 292t162 264t243 211.5t309 143t351 51.5t334.5 -52.5t263 -145t170 -224t61.5 -284.5q0 -184 -91 -360t-242 -307.5t-359 -211.5t-430 -80zM1010 143q172 0 333.5 64
t278.5 168.5t187.5 243.5t70.5 284q0 158 -81 283t-226 195.5t-328 70.5q-170 0 -332 -63.5t-281 -168t-191 -244.5t-72 -286q0 -159 83 -284t229 -194t329 -69z" />
    <glyph glyph-name="Odieresis" unicode="&#xd6;" horiz-adv-x="2166" 
d="M1053 1772q-53 0 -88 30.5t-35 77.5q0 57 49 100t115 43q52 0 86 -29.5t34 -74.5q0 -59 -48.5 -103t-112.5 -44zM1542 1772q-55 0 -90 30.5t-35 75.5q0 59 49.5 102t114.5 43q52 0 86.5 -30.5t34.5 -75.5q0 -56 -48.5 -100.5t-111.5 -44.5zM979 -35q-240 0 -429 89
t-294.5 249.5t-105.5 364.5q0 148 57 292t162 264t243 211.5t309 143t351 51.5t334.5 -52.5t263 -145t170 -224t61.5 -284.5q0 -184 -91 -360t-242 -307.5t-359 -211.5t-430 -80zM1010 143q172 0 333.5 64t278.5 168.5t187.5 243.5t70.5 284q0 158 -81 283t-226 195.5
t-328 70.5q-170 0 -332 -63.5t-281 -168t-191 -244.5t-72 -286q0 -159 83 -284t229 -194t329 -69z" />
    <glyph glyph-name="multiply" unicode="&#xd7;" horiz-adv-x="1126" 
d="M461 625l-240 237l135 107l240 -238l311 230l99 -105l-312 -231l236 -236l-133 -106l-236 235l-315 -231l-99 104z" />
    <glyph glyph-name="Oslash" unicode="&#xd8;" horiz-adv-x="2166" 
d="M2089 1661l-225 -225q114 -95 175.5 -226t61.5 -286q0 -184 -91 -360t-242 -307.5t-359 -211.5t-430 -80q-265 0 -473 111l-141 -142h-209l227 228q-112 94 -172.5 223.5t-60.5 282.5q0 148 57 292t162 264t243 211.5t309 143t351 51.5q268 0 467 -108l139 139h211z
M369 690q0 -227 163 -377l1059 1059q-154 80 -346 80q-170 0 -332 -63.5t-281 -168t-191 -244.5t-72 -286zM1010 143q172 0 333.5 64t278.5 168.5t187.5 243.5t70.5 284q0 230 -166 383l-1059 -1061q155 -82 355 -82z" />
    <glyph glyph-name="Ugrave" unicode="&#xd9;" horiz-adv-x="1847" 
d="M1253 1720h-176l-346 336h273zM815 -35q-115 0 -210 21.5t-163 61t-117.5 96t-73.5 126t-30 151t12 171.5l181 1005h202l-176 -991q-39 -220 64.5 -342.5t341.5 -122.5q240 0 388.5 125t186.5 340l178 991h205l-180 -1005q-18 -101 -56.5 -190t-105.5 -170.5t-156 -139.5
t-215 -92.5t-276 -34.5z" />
    <glyph glyph-name="Uacute" unicode="&#xda;" horiz-adv-x="1847" 
d="M1499 2054l-461 -334h-176l367 334h270zM815 -35q-115 0 -210 21.5t-163 61t-117.5 96t-73.5 126t-30 151t12 171.5l181 1005h202l-176 -991q-39 -220 64.5 -342.5t341.5 -122.5q240 0 388.5 125t186.5 340l178 991h205l-180 -1005q-18 -101 -56.5 -190t-105.5 -170.5
t-156 -139.5t-215 -92.5t-276 -34.5z" />
    <glyph glyph-name="Ucircumflex" unicode="&#xdb;" horiz-adv-x="1847" 
d="M1300 2042l271 -322h-178q-179 161 -224 205q-19 -14 -49 -36.5t-46.5 -34t-45.5 -32t-66.5 -45t-89.5 -57.5h-180l381 322h227zM815 -35q-115 0 -210 21.5t-163 61t-117.5 96t-73.5 126t-30 151t12 171.5l181 1005h202l-176 -991q-39 -220 64.5 -342.5t341.5 -122.5
q240 0 388.5 125t186.5 340l178 991h205l-180 -1005q-18 -101 -56.5 -190t-105.5 -170.5t-156 -139.5t-215 -92.5t-276 -34.5z" />
    <glyph glyph-name="Udieresis" unicode="&#xdc;" horiz-adv-x="1847" 
d="M897 1772q-53 0 -88 30.5t-35 77.5q0 57 49 100t115 43q52 0 86.5 -30t34.5 -74q0 -59 -49 -103t-113 -44zM1386 1772q-55 0 -89.5 30.5t-34.5 75.5q0 59 49 102t114 43q52 0 86.5 -30.5t34.5 -75.5q0 -56 -48.5 -100.5t-111.5 -44.5zM815 -35q-115 0 -210 21.5t-163 61
t-117.5 96t-73.5 126t-30 151t12 171.5l181 1005h202l-176 -991q-39 -220 64.5 -342.5t341.5 -122.5q240 0 388.5 125t186.5 340l178 991h205l-180 -1005q-18 -101 -56.5 -190t-105.5 -170.5t-156 -139.5t-215 -92.5t-276 -34.5z" />
    <glyph glyph-name="Yacute" unicode="&#xdd;" horiz-adv-x="1691" 
d="M1509 2054l-458 -334h-177l365 334h270zM848 0h-203q11 61 20.5 117.5t27 154t55.5 303.5q-56 107 -146 265t-179.5 331t-203.5 426h221l437 -837h4q82 92 141.5 165.5t96.5 121.5t162.5 187t338.5 363h217q-126 -145 -425 -490.5t-462 -531.5q-69 -403 -102 -575z" />
    <glyph glyph-name="Thorn" unicode="&#xde;" horiz-adv-x="1671" 
d="M354 0h-202l282 1597h203l-49 -280h479q112 0 208 -22t175.5 -68t125.5 -127.5t46 -190.5q0 -110 -50.5 -213.5t-139.5 -183t-221 -128t-283 -48.5h-512zM559 1143l-117 -627h457q222 0 365 97t143 255q0 141 -108.5 208t-297.5 67h-442z" />
    <glyph glyph-name="germandbls" unicode="&#xdf;" horiz-adv-x="1527" 
d="M303 0h-190l198 1122q8 44 19 84t35 98t55.5 106t84 98.5t116.5 85t156.5 57t201.5 22.5q238 0 373 -102t135 -273q0 -164 -117 -296t-287 -158v-4q155 -17 243.5 -104.5t88.5 -223.5q0 -101 -53.5 -194t-147.5 -163.5t-232.5 -112.5t-299.5 -42h-176l24 160h197
q202 0 342.5 101.5t140.5 240.5q0 110 -88.5 176.5t-234.5 66.5h-123l22 160h107q86 0 160 29.5t123.5 79t77.5 112.5t28 131q0 117 -82 184.5t-244 67.5q-70 0 -130 -14.5t-103 -37.5t-78 -55.5t-57 -64.5t-39 -68t-25 -63t-12 -53z" />
    <glyph glyph-name="agrave" unicode="&#xe0;" horiz-adv-x="1415" 
d="M938 1278h-168l-305 389h252zM440 -35q-178 0 -282.5 70t-104.5 198q0 67 29 122.5t78 96t121 73t148.5 53.5t170.5 38q37 7 96 16t96 15t85 16.5t78 23t58 31t41 44.5t13 59q0 84 -78.5 139.5t-208.5 55.5q-129 0 -234.5 -58.5t-160.5 -162.5l-176 57q84 157 250.5 235
t355.5 78q101 0 186 -23t149.5 -67.5t94 -120t12.5 -172.5l-75 -428q-20 -119 -25 -182.5t6 -171.5h-192q-15 104 6 211h-6q-87 -112 -222.5 -179t-308.5 -67zM498 109q98 0 189.5 32.5t155.5 83t106 109t52 112.5l27 136q-67 -33 -127.5 -48t-202.5 -38q-434 -71 -434 -242
q0 -67 62.5 -106t171.5 -39z" />
    <glyph glyph-name="aacute" unicode="&#xe1;" horiz-adv-x="1415" 
d="M1358 1667l-440 -389h-168l358 389h250zM440 -35q-178 0 -282.5 70t-104.5 198q0 67 29 122.5t78 96t121 73t148.5 53.5t170.5 38q37 7 96 16t96 15t85 16.5t78 23t58 31t41 44.5t13 59q0 84 -78.5 139.5t-208.5 55.5q-129 0 -234.5 -58.5t-160.5 -162.5l-176 57
q84 157 250.5 235t355.5 78q101 0 186 -23t149.5 -67.5t94 -120t12.5 -172.5l-75 -428q-20 -119 -25 -182.5t6 -171.5h-192q-15 104 6 211h-6q-87 -112 -222.5 -179t-308.5 -67zM498 109q98 0 189.5 32.5t155.5 83t106 109t52 112.5l27 136q-67 -33 -127.5 -48t-202.5 -38
q-434 -71 -434 -242q0 -67 62.5 -106t171.5 -39z" />
    <glyph glyph-name="acircumflex" unicode="&#xe2;" horiz-adv-x="1415" 
d="M553 1278h-182l420 360h235l291 -360h-180q-6 6 -94.5 89.5t-149.5 156.5q-56 -44 -159 -114.5t-181 -131.5zM440 -35q-178 0 -282.5 70t-104.5 198q0 67 29 122.5t78 96t121 73t148.5 53.5t170.5 38q37 7 96 16t96 15t85 16.5t78 23t58 31t41 44.5t13 59
q0 84 -78.5 139.5t-208.5 55.5q-129 0 -234.5 -58.5t-160.5 -162.5l-176 57q84 157 250.5 235t355.5 78q101 0 186 -23t149.5 -67.5t94 -120t12.5 -172.5l-75 -428q-20 -119 -25 -182.5t6 -171.5h-192q-15 104 6 211h-6q-87 -112 -222.5 -179t-308.5 -67zM498 109
q98 0 189.5 32.5t155.5 83t106 109t52 112.5l27 136q-67 -33 -127.5 -48t-202.5 -38q-434 -71 -434 -242q0 -67 62.5 -106t171.5 -39z" />
    <glyph glyph-name="atilde" unicode="&#xe3;" horiz-adv-x="1415" 
d="M1038 1317q-57 0 -95.5 16t-80.5 49l-47 35q-1 1 -12 8.5t-14 9.5t-13 8t-15.5 8t-15 5.5t-19 4.5t-19.5 1q-54 0 -93 -36.5t-51 -92.5h-143q23 121 109.5 195t199.5 74q54 0 92 -17t76 -47l47 -35q59 -47 115 -47q51 0 87.5 36.5t47.5 94.5h143q-22 -126 -101.5 -198
t-197.5 -72zM440 -35q-178 0 -282.5 70t-104.5 198q0 67 29 122.5t78 96t121 73t148.5 53.5t170.5 38q37 7 96 16t96 15t85 16.5t78 23t58 31t41 44.5t13 59q0 84 -78.5 139.5t-208.5 55.5q-129 0 -234.5 -58.5t-160.5 -162.5l-176 57q84 157 250.5 235t355.5 78
q101 0 186 -23t149.5 -67.5t94 -120t12.5 -172.5l-75 -428q-20 -119 -25 -182.5t6 -171.5h-192q-15 104 6 211h-6q-87 -112 -222.5 -179t-308.5 -67zM498 109q98 0 189.5 32.5t155.5 83t106 109t52 112.5l27 136q-67 -33 -127.5 -48t-202.5 -38q-434 -71 -434 -242
q0 -67 62.5 -106t171.5 -39z" />
    <glyph glyph-name="adieresis" unicode="&#xe4;" horiz-adv-x="1415" 
d="M633 1352q-52 0 -85.5 29.5t-33.5 74.5q0 54 47.5 96.5t110.5 42.5q50 0 83 -29.5t33 -72.5q0 -56 -46 -98.5t-109 -42.5zM1090 1352q-53 0 -87 29.5t-34 74.5q0 57 47 98t110 41q50 0 84.5 -30t34.5 -74q0 -54 -47.5 -96.5t-107.5 -42.5zM440 -35q-178 0 -282.5 70
t-104.5 198q0 67 29 122.5t78 96t121 73t148.5 53.5t170.5 38q37 7 96 16t96 15t85 16.5t78 23t58 31t41 44.5t13 59q0 84 -78.5 139.5t-208.5 55.5q-129 0 -234.5 -58.5t-160.5 -162.5l-176 57q84 157 250.5 235t355.5 78q101 0 186 -23t149.5 -67.5t94 -120t12.5 -172.5
l-75 -428q-20 -119 -25 -182.5t6 -171.5h-192q-15 104 6 211h-6q-87 -112 -222.5 -179t-308.5 -67zM498 109q98 0 189.5 32.5t155.5 83t106 109t52 112.5l27 136q-67 -33 -127.5 -48t-202.5 -38q-434 -71 -434 -242q0 -67 62.5 -106t171.5 -39z" />
    <glyph glyph-name="aring" unicode="&#xe5;" horiz-adv-x="1415" 
d="M840 1249q-106 0 -174 55.5t-68 141.5q0 104 95 181t227 77q107 0 173 -54t66 -141q0 -103 -94 -181.5t-225 -78.5zM858 1364q71 0 120.5 39t49.5 94q0 42 -36.5 68t-92.5 26q-70 0 -119 -38.5t-49 -94.5q0 -44 35 -69t92 -25zM440 -35q-178 0 -282.5 70t-104.5 198
q0 67 29 122.5t78 96t121 73t148.5 53.5t170.5 38q37 7 96 16t96 15t85 16.5t78 23t58 31t41 44.5t13 59q0 84 -78.5 139.5t-208.5 55.5q-129 0 -234.5 -58.5t-160.5 -162.5l-176 57q84 157 250.5 235t355.5 78q101 0 186 -23t149.5 -67.5t94 -120t12.5 -172.5l-75 -428
q-20 -119 -25 -182.5t6 -171.5h-192q-15 104 6 211h-6q-87 -112 -222.5 -179t-308.5 -67zM498 109q98 0 189.5 32.5t155.5 83t106 109t52 112.5l27 136q-67 -33 -127.5 -48t-202.5 -38q-434 -71 -434 -242q0 -67 62.5 -106t171.5 -39z" />
    <glyph glyph-name="ae" unicode="&#xe6;" horiz-adv-x="2439" 
d="M434 -35q-110 0 -194 28t-135.5 90t-51.5 153q0 289 553 380q32 6 84.5 13.5t85 12.5t76.5 14t71 17.5t57.5 22.5t47.5 31t28 40t11 52q0 85 -78.5 141t-208.5 56q-131 0 -235.5 -60t-159.5 -161l-176 57q86 156 252 234.5t354 78.5q153 0 273 -52.5t149 -158.5
q105 100 253 155.5t314 55.5q70 0 137.5 -12t135.5 -39t120 -71t91 -108t48.5 -150t-7.5 -197l-11 -58h-1101q-26 -181 88 -292t319 -111q162 0 294.5 71t211.5 187l168 -63q-106 -165 -293.5 -261t-409.5 -96q-201 0 -345.5 76t-188.5 219h-4q-102 -133 -266.5 -214
t-356.5 -81zM1247 668h891q12 92 -16 161.5t-84.5 107t-123 55.5t-142.5 18q-182 0 -324 -94t-201 -248zM496 109q97 0 189 33t156.5 83.5t107 109t52.5 111.5l25 138q-83 -37 -140 -51.5t-181 -32.5q-441 -66 -441 -240q0 -71 62 -111t170 -40z" />
    <glyph glyph-name="ccedilla" unicode="&#xe7;" horiz-adv-x="1486" 
d="M713 133q165 0 298 72.5t214 195.5l168 -61q-104 -174 -286 -270.5t-394 -104.5l-113 -108q40 14 92 14q92 0 146.5 -39.5t54.5 -107.5q0 -93 -91.5 -158.5t-228.5 -65.5q-89 0 -167 31t-123 86l88 74q33 -43 90 -67.5t119 -24.5q75 0 126.5 32t51.5 78q0 36 -37 58
t-92 22q-63 0 -119 -27l-64 56l146 151q-231 23 -363.5 155t-132.5 341q0 136 60 263.5t163 224t252.5 154.5t317.5 58q126 0 232.5 -32.5t190.5 -108.5t118 -188l-197 -68q-30 113 -128.5 172t-240.5 59q-120 0 -226.5 -43t-179.5 -114t-115 -163.5t-42 -189.5
q0 -165 111.5 -260.5t300.5 -95.5z" />
    <glyph glyph-name="egrave" unicode="&#xe8;" horiz-adv-x="1347" 
d="M895 1278h-168l-305 389h252zM588 -35q-231 0 -369.5 130.5t-138.5 348.5q0 143 56.5 275.5t151.5 230.5t228 156.5t279 58.5q54 0 106 -8.5t105.5 -28t96.5 -50.5t80 -76.5t57 -105t26 -136.5t-13 -172l-12 -72h-969q-26 -181 71.5 -286t274.5 -105q137 0 253.5 72
t187.5 188l160 -63q-94 -164 -263.5 -260.5t-367.5 -96.5zM309 684h768q10 68 -2.5 124.5t-42 93.5t-73 62.5t-92 36.5t-101.5 11q-157 0 -280.5 -92.5t-176.5 -235.5z" />
    <glyph glyph-name="eacute" unicode="&#xe9;" horiz-adv-x="1347" 
d="M1315 1667l-441 -389h-167l358 389h250zM588 -35q-231 0 -369.5 130.5t-138.5 348.5q0 143 56.5 275.5t151.5 230.5t228 156.5t279 58.5q54 0 106 -8.5t105.5 -28t96.5 -50.5t80 -76.5t57 -105t26 -136.5t-13 -172l-12 -72h-969q-26 -181 71.5 -286t274.5 -105
q137 0 253.5 72t187.5 188l160 -63q-94 -164 -263.5 -260.5t-367.5 -96.5zM309 684h768q10 68 -2.5 124.5t-42 93.5t-73 62.5t-92 36.5t-101.5 11q-157 0 -280.5 -92.5t-176.5 -235.5z" />
    <glyph glyph-name="ecircumflex" unicode="&#xea;" horiz-adv-x="1347" 
d="M512 1278h-182l420 360h235l291 -360h-180q-6 6 -94.5 89.5t-149.5 156.5q-56 -44 -159 -114.5t-181 -131.5zM588 -35q-231 0 -369.5 130.5t-138.5 348.5q0 143 56.5 275.5t151.5 230.5t228 156.5t279 58.5q54 0 106 -8.5t105.5 -28t96.5 -50.5t80 -76.5t57 -105
t26 -136.5t-13 -172l-12 -72h-969q-26 -181 71.5 -286t274.5 -105q137 0 253.5 72t187.5 188l160 -63q-94 -164 -263.5 -260.5t-367.5 -96.5zM309 684h768q10 68 -2.5 124.5t-42 93.5t-73 62.5t-92 36.5t-101.5 11q-157 0 -280.5 -92.5t-176.5 -235.5z" />
    <glyph glyph-name="edieresis" unicode="&#xeb;" horiz-adv-x="1347" 
d="M592 1352q-52 0 -85.5 29.5t-33.5 74.5q0 54 47.5 96.5t110.5 42.5q51 0 84 -29.5t33 -72.5q0 -56 -46.5 -98.5t-109.5 -42.5zM1049 1352q-53 0 -87 29.5t-34 74.5q0 57 47 98t110 41q50 0 84.5 -30t34.5 -74q0 -54 -47.5 -96.5t-107.5 -42.5zM588 -35
q-231 0 -369.5 130.5t-138.5 348.5q0 143 56.5 275.5t151.5 230.5t228 156.5t279 58.5q54 0 106 -8.5t105.5 -28t96.5 -50.5t80 -76.5t57 -105t26 -136.5t-13 -172l-12 -72h-969q-26 -181 71.5 -286t274.5 -105q137 0 253.5 72t187.5 188l160 -63q-94 -164 -263.5 -260.5
t-367.5 -96.5zM309 684h768q10 68 -2.5 124.5t-42 93.5t-73 62.5t-92 36.5t-101.5 11q-157 0 -280.5 -92.5t-176.5 -235.5z" />
    <glyph glyph-name="igrave" unicode="&#xec;" horiz-adv-x="612" 
d="M524 1272h-168l-305 389h252zM303 0h-190l198 1133h193z" />
    <glyph glyph-name="iacute" unicode="&#xed;" horiz-adv-x="612" 
d="M944 1661l-440 -389h-168l358 389h250zM303 0h-190l198 1133h193z" />
    <glyph glyph-name="icircumflex" unicode="&#xee;" horiz-adv-x="612" 
d="M139 1272h-182l420 360h235l291 -360h-180q-6 6 -94.5 89.5t-149.5 156.5q-56 -44 -159 -114.5t-181 -131.5zM303 0h-190l198 1133h193z" />
    <glyph glyph-name="idieresis" unicode="&#xef;" horiz-adv-x="612" 
d="M219 1346q-52 0 -85.5 29.5t-33.5 74.5q0 54 47.5 96.5t110.5 42.5q51 0 84 -29.5t33 -72.5q0 -56 -46.5 -98.5t-109.5 -42.5zM676 1346q-53 0 -87 29.5t-34 74.5q0 57 47.5 98t110.5 41q50 0 84 -30t34 -74q0 -54 -47.5 -96.5t-107.5 -42.5zM303 0h-190l198 1133h193z
" />
    <glyph glyph-name="eth" unicode="&#xf0;" horiz-adv-x="1587" 
d="M1415 1554l-233 -104q315 -233 315 -625q0 -133 -35.5 -259.5t-106.5 -235t-168.5 -190.5t-229 -128.5t-281.5 -46.5q-263 0 -424.5 133t-161.5 351q0 125 59.5 244t161 208.5t246 144t303.5 54.5q143 0 244.5 -47t179.5 -150h6q-37 281 -305 461l-383 -170l-47 96
l317 142q-135 69 -321 122l74 148q269 -74 450 -180l289 127zM696 129q115 0 218.5 39t176.5 104.5t115.5 152t42.5 179.5q0 153 -111 244.5t-288 91.5q-112 0 -215.5 -39t-177.5 -103.5t-118 -150.5t-44 -178q0 -152 109 -246t292 -94z" />
    <glyph glyph-name="ntilde" unicode="&#xf1;" horiz-adv-x="1556" 
d="M1094 1317q-57 0 -95.5 16t-80.5 49l-48 35q-1 1 -12 8.5t-14 9.5t-13 8t-15.5 8t-15 5.5t-19 4.5t-19.5 1q-54 0 -93 -36.5t-51 -92.5h-143q23 121 109.5 195t199.5 74q54 0 92 -17t76 -47l47 -35q59 -47 115 -47q52 0 88 36.5t47 94.5h144q-22 -126 -101.5 -198
t-197.5 -72zM303 0h-190l198 1133h187l-35 -203h4q95 118 229 176.5t285 58.5q77 0 143.5 -15.5t125 -49t94.5 -86.5t52 -128.5t-3 -174.5l-127 -711h-191l115 633q31 177 -52.5 271.5t-240.5 94.5q-189 0 -322.5 -110.5t-162.5 -270.5z" />
    <glyph glyph-name="ograve" unicode="&#xf2;" horiz-adv-x="1576" 
d="M1006 1278h-168l-306 389h252zM682 -35q-267 0 -426.5 136.5t-159.5 365.5q0 134 59.5 260t163 223t254.5 156t322 59q268 0 428 -136t160 -365q0 -134 -59.5 -260.5t-163 -223.5t-255 -156t-323.5 -59zM709 133q122 0 229.5 42.5t181 113.5t116 164t42.5 192
q0 162 -111 258t-297 96q-122 0 -229.5 -43.5t-181 -115t-116 -164t-42.5 -189.5q0 -162 111 -258t297 -96z" />
    <glyph glyph-name="oacute" unicode="&#xf3;" horiz-adv-x="1576" 
d="M1427 1667l-440 -389h-168l359 389h249zM682 -35q-267 0 -426.5 136.5t-159.5 365.5q0 134 59.5 260t163 223t254.5 156t322 59q268 0 428 -136t160 -365q0 -134 -59.5 -260.5t-163 -223.5t-255 -156t-323.5 -59zM709 133q122 0 229.5 42.5t181 113.5t116 164t42.5 192
q0 162 -111 258t-297 96q-122 0 -229.5 -43.5t-181 -115t-116 -164t-42.5 -189.5q0 -162 111 -258t297 -96z" />
    <glyph glyph-name="ocircumflex" unicode="&#xf4;" horiz-adv-x="1576" 
d="M623 1278h-183l420 360h236l290 -360h-180q-4 4 -93 88t-150 158q-56 -44 -159 -114.5t-181 -131.5zM682 -35q-267 0 -426.5 136.5t-159.5 365.5q0 134 59.5 260t163 223t254.5 156t322 59q268 0 428 -136t160 -365q0 -134 -59.5 -260.5t-163 -223.5t-255 -156
t-323.5 -59zM709 133q122 0 229.5 42.5t181 113.5t116 164t42.5 192q0 162 -111 258t-297 96q-122 0 -229.5 -43.5t-181 -115t-116 -164t-42.5 -189.5q0 -162 111 -258t297 -96z" />
    <glyph glyph-name="otilde" unicode="&#xf5;" horiz-adv-x="1576" 
d="M1108 1317q-57 0 -95.5 16t-80.5 49l-47 35q-1 1 -10.5 7.5t-12 8t-11.5 7.5t-13 7.5t-13 5.5t-15.5 5t-15.5 2.5t-18 1.5q-54 0 -92.5 -36.5t-50.5 -92.5h-144q23 120 109.5 194.5t200.5 74.5q54 0 92 -17t76 -47l47 -35q59 -47 114 -47q52 0 88.5 36.5t47.5 94.5h143
q-22 -126 -101.5 -198t-197.5 -72zM682 -35q-267 0 -426.5 136.5t-159.5 365.5q0 134 59.5 260t163 223t254.5 156t322 59q268 0 428 -136t160 -365q0 -134 -59.5 -260.5t-163 -223.5t-255 -156t-323.5 -59zM709 133q122 0 229.5 42.5t181 113.5t116 164t42.5 192
q0 162 -111 258t-297 96q-122 0 -229.5 -43.5t-181 -115t-116 -164t-42.5 -189.5q0 -162 111 -258t297 -96z" />
    <glyph glyph-name="odieresis" unicode="&#xf6;" horiz-adv-x="1576" 
d="M702 1352q-52 0 -85 29.5t-33 74.5q0 54 47 96.5t110 42.5q51 0 84 -29.5t33 -72.5q0 -56 -46.5 -98.5t-109.5 -42.5zM1159 1352q-53 0 -87 29.5t-34 74.5q0 57 47.5 98t110.5 41q50 0 84.5 -30t34.5 -74q0 -54 -48 -96.5t-108 -42.5zM682 -35q-267 0 -426.5 136.5
t-159.5 365.5q0 134 59.5 260t163 223t254.5 156t322 59q268 0 428 -136t160 -365q0 -134 -59.5 -260.5t-163 -223.5t-255 -156t-323.5 -59zM709 133q122 0 229.5 42.5t181 113.5t116 164t42.5 192q0 162 -111 258t-297 96q-122 0 -229.5 -43.5t-181 -115t-116 -164
t-42.5 -189.5q0 -162 111 -258t297 -96z" />
    <glyph glyph-name="divide" unicode="&#xf7;" horiz-adv-x="1257" 
d="M680 836q-51 0 -84 30.5t-33 75.5q0 53 47.5 94t110.5 41q52 0 85.5 -28.5t33.5 -71.5q0 -54 -48.5 -97.5t-111.5 -43.5zM1087 551h-919l25 149h919zM567 172q-50 0 -83 30.5t-33 73.5q0 55 47.5 97.5t109.5 42.5q51 0 85 -30t34 -73q0 -55 -49 -98t-111 -43z" />
    <glyph glyph-name="oslash" unicode="&#xf8;" horiz-adv-x="1576" 
d="M1350 1184h204l-198 -187q127 -130 127 -333q0 -134 -59.5 -260.5t-163 -223.5t-255 -156t-323.5 -59q-199 0 -340 78l-104 -98h-213l198 186q-127 133 -127 336q0 134 59.5 260t163 223t254.5 156t322 59q203 0 348 -82zM301 487q0 -130 72 -217l727 680
q-100 49 -230 49q-122 0 -229.5 -43.5t-181 -115t-116 -164t-42.5 -189.5zM1278 645q0 126 -68 213l-723 -678q92 -47 222 -47q122 0 229.5 42.5t181 113.5t116 164t42.5 192z" />
    <glyph glyph-name="ugrave" unicode="&#xf9;" horiz-adv-x="1533" 
d="M967 1278h-168l-305 389h251zM575 -35q-78 0 -145 15.5t-124.5 49.5t-93 87.5t-50.5 129.5t4 175l127 711h190l-114 -644q-15 -78 -5 -137t34.5 -100.5t65.5 -68t87.5 -38.5t99.5 -12q93 0 176.5 32t142 84.5t97 118t51.5 134.5l113 631h190l-137 -779
q-21 -120 -24.5 -198.5t8.5 -155.5h-195q-10 126 4 190h-6q-183 -225 -496 -225z" />
    <glyph glyph-name="uacute" unicode="&#xfa;" horiz-adv-x="1533" 
d="M1386 1667l-440 -389h-168l359 389h249zM575 -35q-78 0 -145 15.5t-124.5 49.5t-93 87.5t-50.5 129.5t4 175l127 711h190l-114 -644q-15 -78 -5 -137t34.5 -100.5t65.5 -68t87.5 -38.5t99.5 -12q93 0 176.5 32t142 84.5t97 118t51.5 134.5l113 631h190l-137 -779
q-21 -120 -24.5 -198.5t8.5 -155.5h-195q-10 126 4 190h-6q-183 -225 -496 -225z" />
    <glyph glyph-name="ucircumflex" unicode="&#xfb;" horiz-adv-x="1533" 
d="M582 1278h-183l420 360h236l291 -360h-181q-4 4 -93 88t-150 158q-56 -44 -159 -114.5t-181 -131.5zM575 -35q-78 0 -145 15.5t-124.5 49.5t-93 87.5t-50.5 129.5t4 175l127 711h190l-114 -644q-15 -78 -5 -137t34.5 -100.5t65.5 -68t87.5 -38.5t99.5 -12q93 0 176.5 32
t142 84.5t97 118t51.5 134.5l113 631h190l-137 -779q-21 -120 -24.5 -198.5t8.5 -155.5h-195q-10 126 4 190h-6q-183 -225 -496 -225z" />
    <glyph glyph-name="udieresis" unicode="&#xfc;" horiz-adv-x="1533" 
d="M662 1352q-52 0 -85.5 29.5t-33.5 74.5q0 54 47 96.5t110 42.5q51 0 84 -29.5t33 -72.5q0 -56 -46 -98.5t-109 -42.5zM1118 1352q-53 0 -87 29.5t-34 74.5q0 57 47.5 98t110.5 41q50 0 84.5 -30t34.5 -74q0 -54 -48 -96.5t-108 -42.5zM575 -35q-78 0 -145 15.5
t-124.5 49.5t-93 87.5t-50.5 129.5t4 175l127 711h190l-114 -644q-15 -78 -5 -137t34.5 -100.5t65.5 -68t87.5 -38.5t99.5 -12q93 0 176.5 32t142 84.5t97 118t51.5 134.5l113 631h190l-137 -779q-21 -120 -24.5 -198.5t8.5 -155.5h-195q-10 126 4 190h-6
q-183 -225 -496 -225z" />
    <glyph glyph-name="yacute" unicode="&#xfd;" horiz-adv-x="1347" 
d="M1298 1667l-440 -389h-168l359 389h249zM385 -451h-188l278 426l-344 1158h211q41 -136 84.5 -286.5t97 -339.5t84.5 -296h4q41 63 260.5 404t337.5 518h207z" />
    <glyph glyph-name="thorn" unicode="&#xfe;" horiz-adv-x="1638" 
d="M223 -451h-190l368 2089h191l-129 -723h6q104 124 247 187t302 63q236 0 381 -135t145 -356q0 -137 -58.5 -267t-157 -227t-237.5 -156t-290 -59q-157 0 -277 61.5t-178 176.5h-6zM793 133q148 0 274.5 72t199 189t72.5 249q0 160 -107 258t-280 98q-150 0 -280 -72
t-205.5 -188.5t-75.5 -246.5q0 -160 112 -259.5t290 -99.5z" />
    <glyph glyph-name="ydieresis" unicode="&#xff;" horiz-adv-x="1347" 
d="M575 1352q-52 0 -85 29.5t-33 74.5q0 54 47 96.5t110 42.5q51 0 84 -29.5t33 -72.5q0 -56 -46.5 -98.5t-109.5 -42.5zM1032 1352q-53 0 -87 29.5t-34 74.5q0 57 47.5 98t110.5 41q50 0 84.5 -30t34.5 -74q0 -54 -48 -96.5t-108 -42.5zM385 -451h-188l278 426l-344 1158
h211q41 -136 84.5 -286.5t97 -339.5t84.5 -296h4q41 63 260.5 404t337.5 518h207z" />
    <glyph glyph-name="Amacron" unicode="&#x100;" horiz-adv-x="1820" 
d="M1544 1810h-821l25 144h819zM143 0h-215l1053 1597h227l486 -1597h-215l-166 520h-821q-131 -193 -349 -520zM606 700h651q-140 456 -200 674h-4q-45 -69 -202.5 -305.5t-244.5 -368.5z" />
    <glyph glyph-name="amacron" unicode="&#x101;" horiz-adv-x="1415" 
d="M1282 1391h-825l22 137h826zM440 -35q-178 0 -282.5 70t-104.5 198q0 67 29 122.5t78 96t121 73t148.5 53.5t170.5 38q37 7 96 16t96 15t85 16.5t78 23t58 31t41 44.5t13 59q0 84 -78.5 139.5t-208.5 55.5q-129 0 -234.5 -58.5t-160.5 -162.5l-176 57q84 157 250.5 235
t355.5 78q101 0 186 -23t149.5 -67.5t94 -120t12.5 -172.5l-75 -428q-20 -119 -25 -182.5t6 -171.5h-192q-15 104 6 211h-6q-87 -112 -222.5 -179t-308.5 -67zM498 109q98 0 189.5 32.5t155.5 83t106 109t52 112.5l27 136q-67 -33 -127.5 -48t-202.5 -38q-434 -71 -434 -242
q0 -67 62.5 -106t171.5 -39z" />
    <glyph glyph-name="Abreve" unicode="&#x102;" horiz-adv-x="1820" 
d="M1114 1722q-101 0 -182 29t-130 76.5t-72 108t-15 124.5h170q-8 -79 61.5 -139.5t186.5 -60.5q119 0 211.5 60.5t113.5 139.5h170q-28 -135 -171 -236.5t-343 -101.5zM143 0h-215l1053 1597h227l486 -1597h-215l-166 520h-821q-131 -193 -349 -520zM606 700h651
q-140 456 -200 674h-4q-45 -69 -202.5 -305.5t-244.5 -368.5z" />
    <glyph glyph-name="abreve" unicode="&#x103;" horiz-adv-x="1415" 
d="M846 1274q-205 0 -306 110.5t-77 284.5h166q-17 -116 49 -187t190 -71t217 71t119 187h168q-39 -177 -181.5 -286t-344.5 -109zM440 -35q-178 0 -282.5 70t-104.5 198q0 67 29 122.5t78 96t121 73t148.5 53.5t170.5 38q37 7 96 16t96 15t85 16.5t78 23t58 31t41 44.5
t13 59q0 84 -78.5 139.5t-208.5 55.5q-129 0 -234.5 -58.5t-160.5 -162.5l-176 57q84 157 250.5 235t355.5 78q101 0 186 -23t149.5 -67.5t94 -120t12.5 -172.5l-75 -428q-20 -119 -25 -182.5t6 -171.5h-192q-15 104 6 211h-6q-87 -112 -222.5 -179t-308.5 -67zM498 109
q98 0 189.5 32.5t155.5 83t106 109t52 112.5l27 136q-67 -33 -127.5 -48t-202.5 -38q-434 -71 -434 -242q0 -67 62.5 -106t171.5 -39z" />
    <glyph glyph-name="Aogonek" unicode="&#x104;" horiz-adv-x="1820" 
d="M1395 -215q0 -56 51.5 -91.5t132.5 -35.5q54 0 111 14l-21 -118q-69 -17 -129 -17q-128 0 -212.5 51.5t-84.5 147.5q0 47 22 89.5t59.5 75t75.5 56t83 43.5h-4l-166 520h-821q-131 -193 -349 -520h-215l1053 1597h227l486 -1597h-52q-101 -30 -174 -88.5t-73 -126.5z
M606 700h651q-140 456 -200 674h-4q-45 -69 -202.5 -305.5t-244.5 -368.5z" />
    <glyph glyph-name="aogonek" unicode="&#x105;" horiz-adv-x="1415" 
d="M815 1165q101 0 186 -23t149.5 -67.5t94 -120t12.5 -172.5l-75 -428q-20 -119 -25 -182.5t6 -171.5h-41q-103 -33 -172 -91t-69 -126q0 -54 50 -86.5t128 -32.5q53 0 110 14l-22 -127q-63 -14 -123 -14q-136 0 -215.5 54.5t-79.5 146.5q0 47 22.5 90t60 75.5t78 56
t83.5 40.5h-2q-15 104 6 211h-6q-87 -112 -222.5 -179t-308.5 -67q-178 0 -282.5 70t-104.5 198q0 67 29 122.5t78 96t121 73t148.5 53.5t170.5 38q37 7 96 16t96 15t85 16.5t78 23t58 31t41 44.5t13 59q0 84 -78.5 139.5t-208.5 55.5q-129 0 -234.5 -58.5t-160.5 -162.5
l-176 57q84 157 250.5 235t355.5 78zM498 109q98 0 189.5 32.5t155.5 83t106 109t52 112.5l27 136q-67 -33 -127.5 -48t-202.5 -38q-434 -71 -434 -242q0 -67 62.5 -106t171.5 -39z" />
    <glyph glyph-name="Cacute" unicode="&#x106;" horiz-adv-x="2058" 
d="M1776 2056l-461 -336h-176l366 336h271zM991 -35q-253 0 -443 85.5t-293 243.5t-103 368q0 188 87 365t234.5 310t356.5 213t440 80q187 0 346.5 -53t274 -162.5t149.5 -261.5l-199 -70q-53 171 -214 270t-386 99q-182 0 -346 -65.5t-278 -173t-181 -247.5t-67 -286
q0 -111 37 -202t99.5 -152t148 -103t180.5 -61t198 -19q143 0 271 36.5t226.5 100.5t173 144.5t124.5 175.5l176 -61q-141 -265 -402 -419.5t-610 -154.5z" />
    <glyph glyph-name="cacute" unicode="&#x107;" horiz-adv-x="1486" 
d="M1382 1667l-440 -389h-168l359 389h249zM682 -35q-270 0 -428 135.5t-158 364.5q0 136 60 263.5t163 224t252.5 154.5t317.5 58q126 0 232.5 -32.5t190.5 -108.5t118 -188l-197 -68q-30 113 -128.5 172t-240.5 59q-120 0 -226.5 -43t-179.5 -114t-115 -163.5t-42 -189.5
q0 -165 111.5 -260.5t300.5 -95.5q165 0 298 72.5t214 195.5l168 -61q-110 -180 -300 -277.5t-411 -97.5z" />
    <glyph glyph-name="Cdotaccent" unicode="&#x10a;" horiz-adv-x="2058" 
d="M1257 1776q-55 0 -91 32t-36 82q0 60 52 105t121 45q54 0 90.5 -32t36.5 -79q0 -60 -52.5 -106.5t-120.5 -46.5zM991 -35q-253 0 -443 85.5t-293 243.5t-103 368q0 188 87 365t234.5 310t356.5 213t440 80q187 0 346.5 -53t274 -162.5t149.5 -261.5l-199 -70
q-53 171 -214 270t-386 99q-182 0 -346 -65.5t-278 -173t-181 -247.5t-67 -286q0 -111 37 -202t99.5 -152t148 -103t180.5 -61t198 -19q143 0 271 36.5t226.5 100.5t173 144.5t124.5 175.5l176 -61q-141 -265 -402 -419.5t-610 -154.5z" />
    <glyph glyph-name="cdotaccent" unicode="&#x10b;" horiz-adv-x="1486" 
d="M893 1386q-56 0 -92.5 33t-36.5 82q0 60 52.5 105t121.5 45q54 0 90.5 -32t36.5 -79q0 -60 -52.5 -107t-119.5 -47zM682 -35q-270 0 -428 135.5t-158 364.5q0 136 60 263.5t163 224t252.5 154.5t317.5 58q126 0 232.5 -32.5t190.5 -108.5t118 -188l-197 -68
q-30 113 -128.5 172t-240.5 59q-120 0 -226.5 -43t-179.5 -114t-115 -163.5t-42 -189.5q0 -165 111.5 -260.5t300.5 -95.5q165 0 298 72.5t214 195.5l168 -61q-110 -180 -300 -277.5t-411 -97.5z" />
    <glyph glyph-name="Ccaron" unicode="&#x10c;" horiz-adv-x="2058" 
d="M1561 2042h180l-381 -322h-230l-268 322h178q128 -109 226 -207q28 21 76 56t71.5 51.5t63.5 44t84 55.5zM991 -35q-253 0 -443 85.5t-293 243.5t-103 368q0 188 87 365t234.5 310t356.5 213t440 80q187 0 346.5 -53t274 -162.5t149.5 -261.5l-199 -70q-53 171 -214 270
t-386 99q-182 0 -346 -65.5t-278 -173t-181 -247.5t-67 -286q0 -111 37 -202t99.5 -152t148 -103t180.5 -61t198 -19q143 0 271 36.5t226.5 100.5t173 144.5t124.5 175.5l176 -61q-141 -265 -402 -419.5t-610 -154.5z" />
    <glyph glyph-name="ccaron" unicode="&#x10d;" horiz-adv-x="1486" 
d="M987 1284h-233l-291 369h182q31 -31 80.5 -76t86 -81.5t79.5 -88.5q48 38 152.5 110.5t183.5 135.5h182zM682 -35q-270 0 -428 135.5t-158 364.5q0 136 60 263.5t163 224t252.5 154.5t317.5 58q126 0 232.5 -32.5t190.5 -108.5t118 -188l-197 -68q-30 113 -128.5 172
t-240.5 59q-120 0 -226.5 -43t-179.5 -114t-115 -163.5t-42 -189.5q0 -165 111.5 -260.5t300.5 -95.5q165 0 298 72.5t214 195.5l168 -61q-110 -180 -300 -277.5t-411 -97.5z" />
    <glyph glyph-name="Dcaron" unicode="&#x10e;" horiz-adv-x="1972" 
d="M1436 2042h180l-381 -322h-229l-269 322h178q128 -109 226 -207q28 21 76 56t71.5 51.5t63.5 44t84 55.5zM858 0h-706l282 1597h684q393 0 589 -170t196 -475q0 -147 -47 -287.5t-138 -260.5t-216 -210.5t-291.5 -142t-352.5 -51.5zM381 174h506q178 0 330.5 61
t254 163.5t159 236t57.5 278.5q0 510 -644 510h-434q-23 -124 -56.5 -297t-68 -364t-104.5 -588z" />
    <glyph glyph-name="dcaron" unicode="&#x10f;" horiz-adv-x="1642" 
d="M1749 1155h-121l205 264q-36 12 -57 39.5t-21 63.5q0 60 52.5 105.5t121.5 45.5q53 0 88 -31.5t35 -80.5q0 -48 -53 -118t-250 -288zM629 -35q-242 0 -387.5 135t-145.5 359q0 136 58 265t156.5 226t238 156t293.5 59q159 0 277 -61.5t175 -175.5h4l129 710h193
l-227 -1284q-23 -128 -26 -210.5t9 -143.5h-194q-12 115 4 205h-4q-98 -117 -246 -178.5t-307 -61.5zM688 133q149 0 279 71.5t206 189.5t76 249q0 160 -113 258t-286 98q-112 0 -214.5 -43t-174.5 -113t-115 -163t-43 -191q0 -160 106 -258t279 -98z" />
    <glyph glyph-name="Dcroat" unicode="&#x110;" horiz-adv-x="1972" 
d="M434 1597h684q393 0 589 -170t196 -475q0 -147 -47 -287.5t-138 -260.5t-216 -210.5t-291.5 -142t-352.5 -51.5h-706l127 721h-211l22 153h217zM887 174q178 0 330.5 61t254 163.5t159 236t57.5 278.5q0 510 -644 510h-434q-47 -249 -104 -549h606l-22 -153h-613
l-96 -547h506z" />
    <glyph glyph-name="dcroat" unicode="&#x111;" horiz-adv-x="1642" 
d="M1587 1454h314l-21 -141h-317l-170 -959q-23 -128 -26 -210.5t9 -143.5h-194q-12 115 4 205h-4q-98 -117 -246 -178.5t-307 -61.5q-242 0 -387.5 135t-145.5 359q0 136 58 265t156.5 226t238 156t293.5 59q159 0 277 -61.5t175 -175.5h4l70 385h-340l25 141h342l32 184
h193zM688 133q149 0 279 71.5t206 189.5t76 249q0 160 -113 258t-286 98q-112 0 -214.5 -43t-174.5 -113t-115 -163t-43 -191q0 -160 106 -258t279 -98z" />
    <glyph glyph-name="Emacron" unicode="&#x112;" horiz-adv-x="1607" 
d="M1460 1810h-821l25 144h819zM1389 0h-1237l282 1597h1213l-27 -174h-1010q-8 -43 -20 -97t-29.5 -146.5t-48.5 -270.5h961l-27 -182h-961q-2 -13 -104 -549h1034z" />
    <glyph glyph-name="emacron" unicode="&#x113;" horiz-adv-x="1347" 
d="M1239 1391h-825l22 137h826zM588 -35q-231 0 -369.5 130.5t-138.5 348.5q0 143 56.5 275.5t151.5 230.5t228 156.5t279 58.5q54 0 106 -8.5t105.5 -28t96.5 -50.5t80 -76.5t57 -105t26 -136.5t-13 -172l-12 -72h-969q-26 -181 71.5 -286t274.5 -105q137 0 253.5 72
t187.5 188l160 -63q-94 -164 -263.5 -260.5t-367.5 -96.5zM309 684h768q10 68 -2.5 124.5t-42 93.5t-73 62.5t-92 36.5t-101.5 11q-157 0 -280.5 -92.5t-176.5 -235.5z" />
    <glyph glyph-name="Edotaccent" unicode="&#x116;" horiz-adv-x="1607" 
d="M1040 1776q-55 0 -91 32t-36 82q0 60 51.5 105t120.5 45q54 0 90.5 -32t36.5 -79q0 -60 -52.5 -106.5t-119.5 -46.5zM1389 0h-1237l282 1597h1213l-27 -174h-1010q-8 -43 -20 -97t-29.5 -146.5t-48.5 -270.5h961l-27 -182h-961q-2 -13 -104 -549h1034z" />
    <glyph glyph-name="edotaccent" unicode="&#x117;" horiz-adv-x="1347" 
d="M827 1386q-56 0 -92.5 33t-36.5 82q0 60 52.5 105t121.5 45q54 0 90.5 -32t36.5 -79q0 -60 -52.5 -107t-119.5 -47zM588 -35q-231 0 -369.5 130.5t-138.5 348.5q0 143 56.5 275.5t151.5 230.5t228 156.5t279 58.5q54 0 106 -8.5t105.5 -28t96.5 -50.5t80 -76.5t57 -105
t26 -136.5t-13 -172l-12 -72h-969q-26 -181 71.5 -286t274.5 -105q137 0 253.5 72t187.5 188l160 -63q-94 -164 -263.5 -260.5t-367.5 -96.5zM309 684h768q10 68 -2.5 124.5t-42 93.5t-73 62.5t-92 36.5t-101.5 11q-157 0 -280.5 -92.5t-176.5 -235.5z" />
    <glyph glyph-name="Eogonek" unicode="&#x118;" horiz-adv-x="1607" 
d="M1647 1597l-27 -174h-1010q-8 -43 -20 -97t-29.5 -146.5t-48.5 -270.5h961l-27 -182h-961q-2 -13 -104 -549h1034l-26 -178q-101 -30 -174.5 -88.5t-73.5 -126.5q0 -56 51.5 -91.5t132.5 -35.5q54 0 111 14l-21 -118q-69 -17 -129 -17q-128 0 -212.5 51.5t-84.5 147.5
q0 47 22 89.5t59.5 75t75.5 56t83 43.5h-1077l282 1597h1213z" />
    <glyph glyph-name="eogonek" unicode="&#x119;" horiz-adv-x="1347" 
d="M795 1165q54 0 106 -8.5t105.5 -28t96.5 -50.5t80 -76.5t57 -105t26 -136.5t-13 -172l-12 -72h-969q-26 -181 71.5 -286t274.5 -105q137 0 253.5 72t187.5 188l160 -63q-70 -123 -186.5 -210t-258.5 -124q-91 -35 -150 -88.5t-59 -116.5q0 -54 50 -86.5t128 -32.5
q54 0 111 14l-23 -127q-63 -14 -122 -14q-136 0 -215.5 54.5t-79.5 146.5q0 132 170 227q-229 2 -366.5 132t-137.5 347q0 143 56.5 275.5t151.5 230.5t228 156.5t279 58.5zM309 684h768q10 68 -2.5 124.5t-42 93.5t-73 62.5t-92 36.5t-101.5 11q-157 0 -280.5 -92.5
t-176.5 -235.5z" />
    <glyph glyph-name="Ecaron" unicode="&#x11a;" horiz-adv-x="1607" 
d="M1346 2042h180l-381 -322h-230l-268 322h178q128 -109 226 -207q28 21 76 56t71.5 51.5t63.5 44t84 55.5zM1389 0h-1237l282 1597h1213l-27 -174h-1010q-8 -43 -20 -97t-29.5 -146.5t-48.5 -270.5h961l-27 -182h-961q-2 -13 -104 -549h1034z" />
    <glyph glyph-name="ecaron" unicode="&#x11b;" horiz-adv-x="1347" 
d="M920 1284h-234l-291 369h183q31 -30 80.5 -75.5t85.5 -82t79 -88.5q48 38 152.5 110.5t183.5 135.5h182zM588 -35q-231 0 -369.5 130.5t-138.5 348.5q0 143 56.5 275.5t151.5 230.5t228 156.5t279 58.5q54 0 106 -8.5t105.5 -28t96.5 -50.5t80 -76.5t57 -105t26 -136.5
t-13 -172l-12 -72h-969q-26 -181 71.5 -286t274.5 -105q137 0 253.5 72t187.5 188l160 -63q-94 -164 -263.5 -260.5t-367.5 -96.5zM309 684h768q10 68 -2.5 124.5t-42 93.5t-73 62.5t-92 36.5t-101.5 11q-157 0 -280.5 -92.5t-176.5 -235.5z" />
    <glyph glyph-name="Gbreve" unicode="&#x11e;" horiz-adv-x="2150" 
d="M1247 1722q-101 0 -182 29t-130 76.5t-72 108t-15 124.5h170q-8 -79 61.5 -139.5t186.5 -60.5q119 0 211.5 60.5t113.5 139.5h170q-28 -135 -171 -236.5t-343 -101.5zM967 -35q-372 0 -594.5 188.5t-222.5 503.5q0 151 55 296t157 266.5t238 214t309 144.5t359 52
q188 0 348 -54t273 -163.5t147 -259.5l-195 -70q-54 171 -215.5 270t-384.5 99q-183 0 -347.5 -65.5t-278.5 -173t-181 -247.5t-67 -286q0 -112 37.5 -203.5t100.5 -152.5t148 -102.5t178 -60t193 -18.5q284 0 497.5 137.5t278.5 352.5h-643l27 160h846l-140 -793h-166
q36 208 56 328h-13q-134 -174 -336 -268.5t-464 -94.5z" />
    <glyph glyph-name="gbreve" unicode="&#x11f;" horiz-adv-x="1638" 
d="M922 1274q-205 0 -306 110.5t-77 284.5h166q-17 -116 49 -187t190 -71t217 71t119 187h168q-39 -177 -181.5 -286t-344.5 -109zM604 -483q-471 0 -555 329l184 58q29 -111 127 -172.5t265 -61.5q205 0 348.5 115.5t187.5 337.5l21 115h-4q-98 -116 -240.5 -176
t-298.5 -60q-238 0 -388.5 131t-150.5 352q0 132 59 257t157.5 218t236.5 149t287 56q161 0 282 -63t176 -178h5l38 209h187l-174 -1000q-109 -616 -750 -616zM694 170q109 0 212.5 41t178.5 108t120.5 156t45.5 180q0 154 -114 249t-289 95q-110 0 -211 -40.5t-173 -107
t-114.5 -154.5t-42.5 -181q0 -154 107.5 -250t279.5 -96z" />
    <glyph glyph-name="Gdotaccent" unicode="&#x120;" horiz-adv-x="2150" 
d="M1255 1776q-55 0 -91 32t-36 82q0 60 51.5 105t120.5 45q54 0 90.5 -32t36.5 -79q0 -60 -52.5 -106.5t-119.5 -46.5zM967 -35q-372 0 -594.5 188.5t-222.5 503.5q0 151 55 296t157 266.5t238 214t309 144.5t359 52q188 0 348 -54t273 -163.5t147 -259.5l-195 -70
q-54 171 -215.5 270t-384.5 99q-183 0 -347.5 -65.5t-278.5 -173t-181 -247.5t-67 -286q0 -112 37.5 -203.5t100.5 -152.5t148 -102.5t178 -60t193 -18.5q284 0 497.5 137.5t278.5 352.5h-643l27 160h846l-140 -793h-166q36 208 56 328h-13q-134 -174 -336 -268.5
t-464 -94.5z" />
    <glyph glyph-name="gdotaccent" unicode="&#x121;" horiz-adv-x="1638" 
d="M946 1386q-56 0 -92.5 33t-36.5 82q0 60 52.5 105t121.5 45q54 0 90.5 -32t36.5 -79q0 -60 -52.5 -107t-119.5 -47zM604 -483q-471 0 -555 329l184 58q29 -111 127 -172.5t265 -61.5q205 0 348.5 115.5t187.5 337.5l21 115h-4q-98 -116 -240.5 -176t-298.5 -60
q-238 0 -388.5 131t-150.5 352q0 132 59 257t157.5 218t236.5 149t287 56q161 0 282 -63t176 -178h5l38 209h187l-174 -1000q-109 -616 -750 -616zM694 170q109 0 212.5 41t178.5 108t120.5 156t45.5 180q0 154 -114 249t-289 95q-110 0 -211 -40.5t-173 -107t-114.5 -154.5
t-42.5 -181q0 -154 107.5 -250t279.5 -96z" />
    <glyph glyph-name="uni0122" unicode="&#x122;" horiz-adv-x="2150" 
d="M967 -35q-372 0 -594.5 188.5t-222.5 503.5q0 151 55 296t157 266.5t238 214t309 144.5t359 52q188 0 348 -54t273 -163.5t147 -259.5l-195 -70q-54 171 -215.5 270t-384.5 99q-183 0 -347.5 -65.5t-278.5 -173t-181 -247.5t-67 -286q0 -112 37.5 -203.5t100.5 -152.5
t148 -102.5t178 -60t193 -18.5q284 0 497.5 137.5t278.5 352.5h-643l27 160h846l-140 -793h-166q36 208 56 328h-13q-134 -174 -336 -268.5t-464 -94.5zM825 -557h-100l160 207q-88 23 -88 98q0 55 47 96t112 41q52 0 85.5 -28.5t33.5 -73.5q0 -11 -2 -22t-8.5 -24.5
t-12.5 -24.5t-20.5 -30t-25.5 -32.5t-34 -40t-40 -45.5t-50 -56.5t-57 -64.5z" />
    <glyph glyph-name="uni0123" unicode="&#x123;" horiz-adv-x="1638" 
d="M774 1364q0 44 47 105t236 274h117l-191 -248q32 -11 53 -36t21 -60q0 -56 -49.5 -97.5t-114.5 -41.5q-51 0 -85 29.5t-34 74.5zM604 -483q-471 0 -555 329l184 58q29 -111 127 -172.5t265 -61.5q205 0 348.5 115.5t187.5 337.5l21 115h-4q-98 -116 -240.5 -176
t-298.5 -60q-238 0 -388.5 131t-150.5 352q0 132 59 257t157.5 218t236.5 149t287 56q161 0 282 -63t176 -178h5l38 209h187l-174 -1000q-109 -616 -750 -616zM694 170q109 0 212.5 41t178.5 108t120.5 156t45.5 180q0 154 -114 249t-289 95q-110 0 -211 -40.5t-173 -107
t-114.5 -154.5t-42.5 -181q0 -154 107.5 -250t279.5 -96z" />
    <glyph glyph-name="Hbar" unicode="&#x126;" horiz-adv-x="1986" 
d="M1870 1303h164l-23 -150h-168l-205 -1153h-204l127 711h-1082l-125 -711h-202l204 1153h-170l23 150h174l51 294h203l-51 -294h1079l51 294h205zM512 891h1079l47 262h-1079z" />
    <glyph glyph-name="hbar" unicode="&#x127;" horiz-adv-x="1556" 
d="M979 1165q76 0 143 -15.5t125.5 -49t95 -86.5t53 -128.5t-2.5 -174.5l-127 -711h-191l115 633q31 177 -52 271.5t-237 94.5q-191 0 -325.5 -110t-163.5 -271l-109 -618h-190l231 1309h-235l24 141h236l32 188h191l-33 -188h422l-20 -141h-426l-68 -379h4q190 235 508 235
z" />
    <glyph glyph-name="Imacron" unicode="&#x12a;" horiz-adv-x="704" 
d="M987 1810h-821l24 144h820zM354 0h-202l282 1597h203z" />
    <glyph glyph-name="imacron" unicode="&#x12b;" horiz-adv-x="612" 
d="M868 1384h-825l23 138h825zM303 0h-190l198 1133h193z" />
    <glyph glyph-name="Iogonek" unicode="&#x12e;" horiz-adv-x="704" 
d="M109 -215q0 -56 51.5 -91.5t132.5 -35.5q53 0 110 14l-20 -118q-69 -17 -129 -17q-128 0 -212.5 51.5t-84.5 147.5q0 47 22 89.5t59.5 75t75.5 56t83 43.5h-45l282 1597h203l-283 -1597h2q-101 -30 -174 -88.5t-73 -126.5z" />
    <glyph glyph-name="iogonek" unicode="&#x12f;" horiz-adv-x="612" 
d="M500 1645q54 0 90.5 -32t36.5 -79q0 -60 -52.5 -107t-119.5 -47q-56 0 -92.5 33t-36.5 82q0 60 52.5 105t121.5 45zM303 0h-12q-103 -33 -172.5 -91t-69.5 -126q0 -54 50 -86.5t128 -32.5q54 0 111 14l-23 -127q-63 -14 -122 -14q-136 0 -215.5 54.5t-79.5 146.5
q0 47 22.5 90t60 75.5t77.5 56t83 40.5h-28l198 1133h193z" />
    <glyph glyph-name="Idotaccent" unicode="&#x130;" horiz-adv-x="704" 
d="M565 1776q-55 0 -91 32t-36 82q0 60 51.5 105t120.5 45q54 0 90.5 -32t36.5 -79q0 -60 -52.5 -106.5t-119.5 -46.5zM354 0h-202l282 1597h203z" />
    <glyph glyph-name="dotlessi" unicode="&#x131;" horiz-adv-x="612" 
d="M303 0h-190l198 1133h193z" />
    <glyph glyph-name="uni0136" unicode="&#x136;" horiz-adv-x="1652" 
d="M354 0h-204l282 1597h205q-54 -297 -145 -821h6q367 295 1067 821h243q-169 -130 -477 -369.5t-424 -328.5q614 -833 664 -899h-250q-100 131 -269.5 354.5t-310.5 407.5l-292 -227q-47 -270 -95 -535zM545 -557h-101l160 207q-88 23 -88 98q0 55 47.5 96t112.5 41
q52 0 85.5 -28.5t33.5 -73.5q0 -11 -2 -22t-8.5 -24.5t-12.5 -24.5t-20.5 -30t-25.5 -32.5t-34 -40t-40 -45.5t-50 -56.5t-57 -64.5z" />
    <glyph glyph-name="uni0137" unicode="&#x137;" horiz-adv-x="1294" 
d="M1108 1133h233l-589 -453l473 -680h-221l-406 563l-223 -172l-72 -391h-190l288 1638h191l-182 -1020h6q273 206 692 515zM573 -115q52 0 85.5 -28.5t33.5 -73.5q0 -11 -2 -22t-8.5 -24.5t-12.5 -24.5t-20.5 -30t-25.5 -32.5t-34 -40t-40 -45.5t-50 -56.5t-57 -64.5h-100
l160 207q-88 23 -88 98q0 55 47 96t112 41z" />
    <glyph glyph-name="Lacute" unicode="&#x139;" horiz-adv-x="1443" 
d="M872 2056h271l-461 -336h-176zM637 1597l-252 -1419h958l-28 -178h-1163l282 1597h203z" />
    <glyph glyph-name="lacute" unicode="&#x13a;" horiz-adv-x="612" 
d="M1085 2097l-460 -336h-176l366 336h270zM303 0h-190l288 1638h191z" />
    <glyph glyph-name="uni013B" unicode="&#x13b;" horiz-adv-x="1443" 
d="M637 1597l-252 -1419h958l-28 -178h-1163l282 1597h203zM659 -115q52 0 85.5 -28.5t33.5 -73.5q0 -11 -2 -22t-8.5 -24.5t-12.5 -24.5t-20.5 -30t-25.5 -32.5t-34 -40t-40 -45.5t-50 -56.5t-57 -64.5h-100l160 207q-88 23 -88 98q0 55 47 96t112 41z" />
    <glyph glyph-name="uni013C" unicode="&#x13c;" horiz-adv-x="612" 
d="M303 0h-190l288 1638h191zM66 -557h-101l160 207q-88 23 -88 98q0 55 47.5 96t112.5 41q51 0 84.5 -28.5t33.5 -73.5q0 -41 -34 -88t-150 -178q-41 -47 -65 -74z" />
    <glyph glyph-name="Lcaron" unicode="&#x13d;" horiz-adv-x="1443" 
d="M1073 1128h-121l207 263q-38 12 -59 39t-21 63q0 60 52.5 106t121.5 46q54 0 89.5 -32t35.5 -81q0 -46 -54.5 -117.5t-250.5 -286.5zM434 1597h203l-252 -1419h958l-28 -178h-1163z" />
    <glyph glyph-name="lcaron" unicode="&#x13e;" horiz-adv-x="612" 
d="M844 1128h-121l207 263q-38 12 -59 39t-21 63q0 60 52.5 106t121.5 46q54 0 89.5 -32t35.5 -81q0 -46 -54.5 -117.5t-250.5 -286.5zM303 0h-190l288 1638h191z" />
    <glyph glyph-name="Lslash" unicode="&#x141;" horiz-adv-x="1443" 
d="M502 834l-117 -656h958l-28 -178h-1163l133 752l-219 -80l26 162l221 81l121 682h203l-107 -602l365 135l-25 -161z" />
    <glyph glyph-name="lslash" unicode="&#x142;" horiz-adv-x="612" 
d="M492 1063l268 151l-23 -159l-274 -154l-160 -901h-190l139 784l-256 -141l24 158l259 145l122 692h191z" />
    <glyph glyph-name="Nacute" unicode="&#x143;" horiz-adv-x="2023" 
d="M1722 2056l-460 -336h-177l367 336h270zM354 0h-202l282 1597h217q497 -725 860 -1282h7q13 69 97.5 523.5t137.5 758.5h203l-283 -1597h-217q-70 103 -383.5 556t-482.5 708h-4q-24 -137 -99 -525t-133 -739z" />
    <glyph glyph-name="nacute" unicode="&#x144;" horiz-adv-x="1556" 
d="M1411 1667l-440 -389h-168l358 389h250zM303 0h-190l198 1133h187l-35 -203h4q95 118 229 176.5t285 58.5q77 0 143.5 -15.5t125 -49t94.5 -86.5t52 -128.5t-3 -174.5l-127 -711h-191l115 633q31 177 -52.5 271.5t-240.5 94.5q-189 0 -322.5 -110.5t-162.5 -270.5z" />
    <glyph glyph-name="uni0145" unicode="&#x145;" horiz-adv-x="2023" 
d="M354 0h-202l282 1597h217q497 -725 860 -1282h7q13 69 97.5 523.5t137.5 758.5h203l-283 -1597h-217q-70 103 -383.5 556t-482.5 708h-4q-24 -137 -99 -525t-133 -739zM797 -557h-101l160 207q-88 23 -88 98q0 55 47.5 96t112.5 41q52 0 85.5 -28.5t33.5 -73.5
q0 -11 -2 -22t-8.5 -24.5t-12.5 -24.5t-20.5 -30t-25.5 -32.5t-34 -40t-40 -45.5t-50 -56.5t-57 -64.5z" />
    <glyph glyph-name="uni0146" unicode="&#x146;" horiz-adv-x="1556" 
d="M303 0h-190l198 1133h187l-35 -203h4q95 118 229 176.5t285 58.5q77 0 143.5 -15.5t125 -49t94.5 -86.5t52 -128.5t-3 -174.5l-127 -711h-191l115 633q31 177 -52.5 271.5t-240.5 94.5q-189 0 -322.5 -110.5t-162.5 -270.5zM573 -557h-100l160 207q-88 23 -88 98
q0 55 47.5 96t112.5 41q51 0 84.5 -28.5t33.5 -73.5q0 -11 -2 -22t-8.5 -24.5t-12.5 -24.5t-20.5 -30t-25.5 -32.5t-34 -40t-40 -45.5t-50 -56.5t-57 -64.5z" />
    <glyph glyph-name="Ncaron" unicode="&#x147;" horiz-adv-x="2023" 
d="M1507 2042h181l-381 -322h-230l-268 322h178q121 -103 225 -207q28 21 76 56t71.5 51.5t63.5 44t84 55.5zM354 0h-202l282 1597h217q497 -725 860 -1282h7q13 69 97.5 523.5t137.5 758.5h203l-283 -1597h-217q-70 103 -383.5 556t-482.5 708h-4q-24 -137 -99 -525
t-133 -739z" />
    <glyph glyph-name="ncaron" unicode="&#x148;" horiz-adv-x="1556" 
d="M1016 1284h-234l-290 369h182q31 -31 80.5 -76t86 -81.5t79.5 -88.5q48 38 152 110.5t183 135.5h183zM303 0h-190l198 1133h187l-35 -203h4q95 118 229 176.5t285 58.5q77 0 143.5 -15.5t125 -49t94.5 -86.5t52 -128.5t-3 -174.5l-127 -711h-191l115 633
q31 177 -52.5 271.5t-240.5 94.5q-189 0 -322.5 -110.5t-162.5 -270.5z" />
    <glyph glyph-name="Eng" unicode="&#x14a;" horiz-adv-x="2023" 
d="M1090 -483q-82 0 -162.5 15t-126.5 38l24 164q97 -53 244 -53q162 0 264 81t131 228q-95 139 -401 579t-477 699l-232 -1268h-202l282 1597h217q497 -725 860 -1282h7l235 1282h203l-273 -1538q-10 -54 -23 -101.5t-36.5 -104t-53.5 -102.5t-76.5 -91t-102.5 -75.5
t-133 -49t-168 -18.5z" />
    <glyph glyph-name="eng" unicode="&#x14b;" horiz-adv-x="1556" 
d="M788 -483q-151 0 -249 53l24 160q105 -54 215 -54q38 0 71.5 7.5t58.5 18t46.5 30.5t36 36t28 43.5t20.5 44.5t15 48t10.5 44t8.5 42l117 643q31 178 -51 272t-238 94q-190 0 -325 -110.5t-164 -270.5l-109 -618h-190l198 1133h187l-35 -203h4q95 118 229 176.5t285 58.5
q76 0 143 -15t125.5 -48t95 -85t53 -126.5t-2.5 -171.5l-129 -733q-7 -39 -12 -63t-16 -66.5t-23 -71t-32.5 -67t-44.5 -64.5t-59 -54t-76.5 -44.5t-96.5 -27.5t-118 -11z" />
    <glyph glyph-name="Omacron" unicode="&#x14c;" horiz-adv-x="2166" 
d="M1714 1810h-821l25 144h819zM979 -35q-240 0 -429 89t-294.5 249.5t-105.5 364.5q0 148 57 292t162 264t243 211.5t309 143t351 51.5t334.5 -52.5t263 -145t170 -224t61.5 -284.5q0 -184 -91 -360t-242 -307.5t-359 -211.5t-430 -80zM1010 143q172 0 333.5 64
t278.5 168.5t187.5 243.5t70.5 284q0 158 -81 283t-226 195.5t-328 70.5q-170 0 -332 -63.5t-281 -168t-191 -244.5t-72 -286q0 -159 83 -284t229 -194t329 -69z" />
    <glyph glyph-name="omacron" unicode="&#x14d;" horiz-adv-x="1576" 
d="M1350 1391h-826l23 137h825zM682 -35q-267 0 -426.5 136.5t-159.5 365.5q0 134 59.5 260t163 223t254.5 156t322 59q268 0 428 -136t160 -365q0 -134 -59.5 -260.5t-163 -223.5t-255 -156t-323.5 -59zM709 133q122 0 229.5 42.5t181 113.5t116 164t42.5 192
q0 162 -111 258t-297 96q-122 0 -229.5 -43.5t-181 -115t-116 -164t-42.5 -189.5q0 -162 111 -258t297 -96z" />
    <glyph glyph-name="Ohungarumlaut" unicode="&#x150;" horiz-adv-x="2166" 
d="M1528 2054l-398 -334h-172l314 334h256zM1942 2054l-414 -334h-174l332 334h256zM979 -35q-240 0 -429 89t-294.5 249.5t-105.5 364.5q0 148 57 292t162 264t243 211.5t309 143t351 51.5t334.5 -52.5t263 -145t170 -224t61.5 -284.5q0 -184 -91 -360t-242 -307.5
t-359 -211.5t-430 -80zM1010 143q172 0 333.5 64t278.5 168.5t187.5 243.5t70.5 284q0 158 -81 283t-226 195.5t-328 70.5q-170 0 -332 -63.5t-281 -168t-191 -244.5t-72 -286q0 -159 83 -284t229 -194t329 -69z" />
    <glyph glyph-name="ohungarumlaut" unicode="&#x151;" horiz-adv-x="1576" 
d="M1159 1673l-411 -395h-166l327 395h250zM1577 1673l-430 -395h-166l348 395h248zM682 -35q-267 0 -426.5 136.5t-159.5 365.5q0 134 59.5 260t163 223t254.5 156t322 59q268 0 428 -136t160 -365q0 -134 -59.5 -260.5t-163 -223.5t-255 -156t-323.5 -59zM709 133
q122 0 229.5 42.5t181 113.5t116 164t42.5 192q0 162 -111 258t-297 96q-122 0 -229.5 -43.5t-181 -115t-116 -164t-42.5 -189.5q0 -162 111 -258t297 -96z" />
    <glyph glyph-name="OE" unicode="&#x152;" horiz-adv-x="3180" 
d="M977 -35q-234 0 -421.5 85.5t-296.5 247t-109 370.5q0 186 90 362.5t240.5 308t358.5 211.5t431 80q237 0 419 -88t275 -242l57 297h1196l-24 -174h-1004l-96 -514h952l-28 -182h-953l-100 -549h1026l-29 -178h-1222l57 295q-153 -155 -367 -242.5t-452 -87.5zM1006 143
q115 0 227.5 29.5t207.5 81t176.5 124t138 156.5t88.5 180t32 193q0 238 -177.5 391.5t-455.5 153.5q-170 0 -332 -64t-280 -168.5t-190 -244.5t-72 -285q0 -160 82 -285t227 -193.5t328 -68.5z" />
    <glyph glyph-name="oe" unicode="&#x153;" horiz-adv-x="2678" 
d="M684 -35q-268 0 -428 136.5t-160 365.5q0 134 60 260.5t163.5 223.5t254.5 155.5t321 58.5q194 0 332 -72.5t196 -199.5q102 127 265.5 199.5t353.5 72.5q61 0 119 -8.5t118.5 -28t110 -50.5t92 -76.5t66.5 -105t32.5 -136.5t-10.5 -172l-8 -45h-1102
q-30 -187 86.5 -302.5t319.5 -115.5q161 0 292 71.5t212 188.5l167 -63q-105 -165 -292.5 -261t-409.5 -96q-194 0 -331 72.5t-193 200.5q-105 -129 -269.5 -201t-357.5 -72zM1487 668h891q13 92 -14.5 161t-83.5 107.5t-124 57t-145 18.5q-182 0 -322.5 -94t-201.5 -250z
M709 133q122 0 229.5 42.5t181 113t116 163.5t42.5 191q0 163 -110.5 259.5t-297.5 96.5q-121 0 -228.5 -43t-181 -114t-116.5 -163.5t-43 -189.5q0 -164 110.5 -260t297.5 -96z" />
    <glyph glyph-name="Racute" unicode="&#x154;" horiz-adv-x="1705" 
d="M1520 2056l-461 -336h-176l366 336h271zM354 0h-202l282 1597h682q83 0 159 -12t149.5 -42t127 -75.5t86.5 -117t33 -162.5q0 -101 -42 -195.5t-117 -169t-183.5 -126t-234.5 -66.5v-2q37 -58 107.5 -162.5t137.5 -211.5t152 -255h-227l-394 618h-405q-15 -84 -33.5 -187
t-77.5 -431zM492 788h456q225 0 366.5 102t141.5 257q0 138 -109 208t-296 70h-441q-16 -86 -30.5 -164.5t-39 -211.5t-48.5 -261z" />
    <glyph glyph-name="racute" unicode="&#x155;" horiz-adv-x="1015" 
d="M1202 1667l-440 -389h-168l358 389h250zM303 0h-190l198 1133h187l-41 -218h10q72 110 202 180t275 70q89 0 148 -20l-31 -197q-67 25 -168 25q-102 0 -191 -40.5t-150 -107t-100.5 -145t-54.5 -160.5z" />
    <glyph glyph-name="uni0156" unicode="&#x156;" horiz-adv-x="1705" 
d="M354 0h-202l282 1597h682q83 0 159 -12t149.5 -42t127 -75.5t86.5 -117t33 -162.5q0 -101 -42 -195.5t-117 -169t-183.5 -126t-234.5 -66.5v-2q37 -58 107.5 -162.5t137.5 -211.5t152 -255h-227l-394 618h-405q-15 -84 -33.5 -187t-77.5 -431zM492 788h456
q225 0 366.5 102t141.5 257q0 138 -109 208t-296 70h-441q-16 -86 -30.5 -164.5t-39 -211.5t-48.5 -261zM616 -557h-100l160 207q-88 23 -88 98q0 55 47.5 96t112.5 41q51 0 84.5 -28.5t33.5 -73.5q0 -11 -2 -22t-8.5 -24.5t-12.5 -24.5t-20.5 -30t-25.5 -32.5t-34 -40
t-40 -45.5t-50 -56.5t-57 -64.5z" />
    <glyph glyph-name="uni0157" unicode="&#x157;" horiz-adv-x="1015" 
d="M303 0h-190l198 1133h187l-41 -218h10q72 110 202 180t275 70q89 0 148 -20l-31 -197q-67 25 -168 25q-102 0 -191 -40.5t-150 -107t-100.5 -145t-54.5 -160.5zM55 -557h-100l160 207q-88 23 -88 98q0 55 47 96t112 41q52 0 85.5 -28.5t33.5 -73.5q0 -11 -2 -22
t-8.5 -24.5t-12.5 -24.5t-20.5 -30t-25.5 -32.5t-34 -40t-40 -45.5t-50 -56.5t-57 -64.5z" />
    <glyph glyph-name="Rcaron" unicode="&#x158;" horiz-adv-x="1705" 
d="M1303 2042h180l-381 -322h-230l-268 322h178q128 -109 226 -207q28 21 76 56t71.5 51.5t63.5 44t84 55.5zM354 0h-202l282 1597h682q83 0 159 -12t149.5 -42t127 -75.5t86.5 -117t33 -162.5q0 -101 -42 -195.5t-117 -169t-183.5 -126t-234.5 -66.5v-2
q37 -58 107.5 -162.5t137.5 -211.5t152 -255h-227l-394 618h-405q-15 -84 -33.5 -187t-77.5 -431zM492 788h456q225 0 366.5 102t141.5 257q0 138 -109 208t-296 70h-441q-16 -86 -30.5 -164.5t-39 -211.5t-48.5 -261z" />
    <glyph glyph-name="rcaron" unicode="&#x159;" horiz-adv-x="1015" 
d="M805 1284h-234l-290 369h182q31 -31 80.5 -76t86 -81.5t79.5 -88.5q48 38 152 110.5t183 135.5h183zM303 0h-190l198 1133h187l-41 -218h10q72 110 202 180t275 70q89 0 148 -20l-31 -197q-67 25 -168 25q-102 0 -191 -40.5t-150 -107t-100.5 -145t-54.5 -160.5z" />
    <glyph glyph-name="Sacute" unicode="&#x15a;" horiz-adv-x="1583" 
d="M1440 2054l-461 -334h-176l366 334h271zM713 -35q-116 0 -220 27t-194.5 81t-151.5 147t-79 214l198 64q27 -180 156.5 -269.5t322.5 -89.5q204 0 346 92t142 222q0 37 -12 67.5t-37 53t-51 39t-67 31.5t-71 24t-76 21q-23 6 -34 9l-168 45q-43 11 -78 21.5t-84 29.5
t-86.5 40t-77.5 52t-66.5 66t-43.5 82.5t-17 100.5q0 130 90.5 243.5t253.5 182.5t359 69q248 0 399.5 -106.5t179.5 -272.5l-196 -71q-28 127 -137.5 201.5t-282.5 74.5q-189 0 -319 -82.5t-130 -197.5q0 -47 26 -88t60.5 -67t88.5 -50t88 -34.5t81 -23.5l183 -51
q8 -2 24 -7q176 -47 256 -92q171 -96 172 -265q0 -100 -57.5 -197t-155 -171t-238 -119.5t-296.5 -45.5z" />
    <glyph glyph-name="sacute" unicode="&#x15b;" horiz-adv-x="1214" 
d="M1241 1669l-440 -389h-168l358 389h250zM528 -35q-201 0 -338.5 87.5t-166.5 230.5l186 55q33 -104 129.5 -162.5t220.5 -58.5q132 0 227 57.5t95 140.5q0 36 -17.5 62t-52 43.5t-68.5 28t-83 23.5q-4 0 -5.5 0.5l-4.5 1.5t-6 1.5t-5 1.5l-125 31q-33 8 -50 13t-58 19
t-65.5 27t-58.5 37t-53.5 50t-34 63t-14.5 80q0 98 67.5 182.5t186.5 135t260 50.5q178 0 298 -77.5t145 -200.5l-191 -58q-20 80 -93.5 134.5t-190.5 54.5q-119 0 -201 -54t-82 -130q0 -28 11 -51.5t35 -41.5t45.5 -31.5t58.5 -26t58.5 -18.5t59.5 -16l119 -28
q35 -8 56.5 -14t59 -18.5t62 -25.5t54.5 -34.5t47.5 -45.5t29.5 -58t12 -73q0 -155 -160.5 -271t-398.5 -116z" />
    <glyph glyph-name="Scedilla" unicode="&#x15e;" horiz-adv-x="1583" 
d="M825 913l183 -51q8 -2 24 -7q176 -47 256 -92q171 -96 172 -265q0 -97 -53.5 -191t-145.5 -167.5t-225 -121t-282 -53.5l-113 -108q40 14 92 14q92 0 146.5 -39.5t54.5 -107.5q0 -93 -91.5 -158.5t-228.5 -65.5q-89 0 -167 31t-123 86l88 74q33 -43 90 -67.5t119 -24.5
q75 0 126.5 32t51.5 78q0 36 -37 58t-92 22q-63 0 -119 -27l-64 56l144 151q-104 9 -195.5 40t-169 86t-130 141.5t-68.5 197.5l198 64q27 -180 156.5 -269.5t322.5 -89.5q204 0 346 92t142 222q0 37 -12 67.5t-37 53t-51 39t-67 31.5t-71 24t-76 21q-23 6 -34 9l-168 45
q-43 11 -78 21.5t-84 29.5t-86.5 40t-77.5 52t-66.5 66t-43.5 82.5t-17 100.5q0 130 90.5 243.5t253.5 182.5t359 69q248 0 399.5 -106.5t179.5 -272.5l-196 -71q-28 127 -137.5 201.5t-282.5 74.5q-189 0 -319 -82.5t-130 -197.5q0 -47 26 -88t60.5 -67t88.5 -50t88 -34.5
t81 -23.5z" />
    <glyph glyph-name="scedilla" unicode="&#x15f;" horiz-adv-x="1214" 
d="M647 649l119 -28q35 -8 56.5 -14t59 -18.5t62 -25.5t54.5 -34.5t47.5 -45.5t29.5 -58t12 -73q0 -148 -148 -262.5t-372 -124.5l-112 -108q40 14 92 14q92 0 146.5 -39.5t54.5 -107.5q0 -93 -91.5 -158.5t-228.5 -65.5q-89 0 -167.5 31t-123.5 86l88 74q33 -43 90 -67.5
t119 -24.5q75 0 126.5 32t51.5 78q0 36 -37 58t-92 22q-62 0 -118 -27l-64 56l145 151q-170 17 -283.5 101.5t-139.5 212.5l186 55q33 -104 129.5 -162.5t220.5 -58.5q132 0 227 57.5t95 140.5q0 36 -17.5 62t-52 43.5t-68.5 28t-83 23.5q-4 0 -5.5 0.5l-4.5 1.5t-6 1.5
t-5 1.5l-125 31q-33 8 -50 13t-58 19t-65.5 27t-58.5 37t-53.5 50t-34 63t-14.5 80q0 98 67.5 182.5t186.5 135t260 50.5q178 0 298 -77.5t145 -200.5l-191 -58q-20 80 -93.5 134.5t-190.5 54.5q-119 0 -201 -54t-82 -130q0 -28 11 -51.5t35 -41.5t45.5 -31.5t58.5 -26
t58.5 -18.5t59.5 -16z" />
    <glyph glyph-name="Scaron" unicode="&#x160;" horiz-adv-x="1583" 
d="M1298 2042h181l-381 -322h-230l-268 322h178q128 -109 226 -207q31 22 76.5 56t70 51.5t64 44.5t83.5 55zM713 -35q-116 0 -220 27t-194.5 81t-151.5 147t-79 214l198 64q27 -180 156.5 -269.5t322.5 -89.5q204 0 346 92t142 222q0 37 -12 67.5t-37 53t-51 39t-67 31.5
t-71 24t-76 21q-23 6 -34 9l-168 45q-43 11 -78 21.5t-84 29.5t-86.5 40t-77.5 52t-66.5 66t-43.5 82.5t-17 100.5q0 130 90.5 243.5t253.5 182.5t359 69q248 0 399.5 -106.5t179.5 -272.5l-196 -71q-28 127 -137.5 201.5t-282.5 74.5q-189 0 -319 -82.5t-130 -197.5
q0 -47 26 -88t60.5 -67t88.5 -50t88 -34.5t81 -23.5l183 -51q8 -2 24 -7q176 -47 256 -92q171 -96 172 -265q0 -100 -57.5 -197t-155 -171t-238 -119.5t-296.5 -45.5z" />
    <glyph glyph-name="scaron" unicode="&#x161;" horiz-adv-x="1214" 
d="M844 1286h-234l-291 369h183q31 -31 80.5 -76t86 -81.5t79.5 -88.5q48 38 152 110.5t183 135.5h183zM528 -35q-201 0 -338.5 87.5t-166.5 230.5l186 55q33 -104 129.5 -162.5t220.5 -58.5q132 0 227 57.5t95 140.5q0 36 -17.5 62t-52 43.5t-68.5 28t-83 23.5
q-4 0 -5.5 0.5l-4.5 1.5t-6 1.5t-5 1.5l-125 31q-33 8 -50 13t-58 19t-65.5 27t-58.5 37t-53.5 50t-34 63t-14.5 80q0 98 67.5 182.5t186.5 135t260 50.5q178 0 298 -77.5t145 -200.5l-191 -58q-20 80 -93.5 134.5t-190.5 54.5q-119 0 -201 -54t-82 -130q0 -28 11 -51.5
t35 -41.5t45.5 -31.5t58.5 -26t58.5 -18.5t59.5 -16l119 -28q35 -8 56.5 -14t59 -18.5t62 -25.5t54.5 -34.5t47.5 -45.5t29.5 -58t12 -73q0 -155 -160.5 -271t-398.5 -116z" />
    <glyph glyph-name="uni0162" unicode="&#x162;" horiz-adv-x="1552" 
d="M186 1423l29 174h1489l-27 -174h-645q-27 -154 -46 -265t-30 -176t-54.5 -305.5t-123.5 -676.5h-39l-147 -143q40 14 92 14q92 0 146.5 -39.5t54.5 -107.5q0 -93 -91.5 -158.5t-228.5 -65.5q-89 0 -167.5 31t-123.5 86l88 74q33 -43 90 -67.5t119 -24.5q75 0 127 32
t52 78q0 36 -37 58t-92 22q-63 0 -119 -27l-64 56l174 182h-39q25 143 39 219.5t26 139t62 338.5t131 726h-645z" />
    <glyph glyph-name="uni0163" unicode="&#x163;" horiz-adv-x="942" 
d="M967 973h-410l-106 -570q-6 -33 -9.5 -53t-6 -52.5t0.5 -53t12.5 -45t27 -38.5t47 -24t69.5 -10q107 0 227 57l-26 -166q-106 -53 -258 -53q-36 0 -52 2l-114 -110q40 14 92 14q92 0 146.5 -39.5t54.5 -107.5q0 -93 -91.5 -158.5t-228.5 -65.5q-89 0 -167.5 31t-123.5 86
l88 74q33 -43 90 -67.5t119 -24.5q75 0 126.5 32t51.5 78q0 36 -37 58t-92 22q-62 0 -118 -27l-64 56l164 172q-42 16 -72 41.5t-44 58.5t-21.5 63.5t-5.5 70.5t5 64t9 58l117 627h-271l23 160h270l60 333h192l-59 -333h407z" />
    <glyph glyph-name="Tcaron" unicode="&#x164;" horiz-adv-x="1552" 
d="M1294 2042h181l-381 -322h-230l-268 322h178q121 -103 225 -207q28 21 76 56t71.5 51.5t63.5 44t84 55.5zM778 0h-205q25 143 39 219.5t26 139t62 338.5t131 726h-645l29 174h1489l-27 -174h-645q-27 -154 -46 -265t-30 -176t-54.5 -305.5t-123.5 -676.5z" />
    <glyph glyph-name="tcaron" unicode="&#x165;" horiz-adv-x="942" 
d="M1133 1135h-121l207 264q-38 12 -59 39t-21 61q0 61 52.5 107.5t121.5 46.5q54 0 89.5 -32.5t35.5 -80.5t-53.5 -117.5t-251.5 -287.5zM535 -35q-71 0 -125.5 15t-86.5 37.5t-52 58t-27.5 66.5t-7 73.5t3.5 68.5t10 62l117 627h-271l23 160h270l60 333h192l-59 -333h407
l-22 -160h-410l-106 -570q-6 -33 -9.5 -53t-6 -52.5t0.5 -53t12.5 -45t27 -38.5t47 -24t69.5 -10q107 0 227 57l-26 -166q-106 -53 -258 -53z" />
    <glyph glyph-name="Tbar" unicode="&#x166;" horiz-adv-x="1552" 
d="M1704 1597l-27 -174h-645q-32 -181 -56 -323.5t-38 -225.5h401l-22 -153h-408q-23 -134 -131 -721h-205q2 10 132 721h-410l22 153h416q35 200 98 549h-645l29 174h1489z" />
    <glyph glyph-name="tbar" unicode="&#x167;" horiz-adv-x="942" 
d="M989 1133l-22 -160h-410l-53 -283h389l-21 -141h-395l-26 -146q-6 -33 -9.5 -53t-6 -52.5t0.5 -53t12.5 -45t27 -38.5t47 -24t69.5 -10q107 0 227 57l-26 -166q-106 -53 -258 -53q-71 0 -125.5 15t-86.5 37.5t-52 58t-27.5 66.5t-7 73.5t3.5 68.5t10 62l37 203h-267
l25 141h268l54 283h-271l23 160h270l60 333h192l-59 -333h407z" />
    <glyph glyph-name="Umacron" unicode="&#x16a;" horiz-adv-x="1847" 
d="M1561 1810h-822l25 144h819zM815 -35q-115 0 -210 21.5t-163 61t-117.5 96t-73.5 126t-30 151t12 171.5l181 1005h202l-176 -991q-39 -220 64.5 -342.5t341.5 -122.5q240 0 388.5 125t186.5 340l178 991h205l-180 -1005q-18 -101 -56.5 -190t-105.5 -170.5t-156 -139.5
t-215 -92.5t-276 -34.5z" />
    <glyph glyph-name="umacron" unicode="&#x16b;" horiz-adv-x="1533" 
d="M1311 1391h-826l23 137h825zM575 -35q-78 0 -145 15.5t-124.5 49.5t-93 87.5t-50.5 129.5t4 175l127 711h190l-114 -644q-15 -78 -5 -137t34.5 -100.5t65.5 -68t87.5 -38.5t99.5 -12q93 0 176.5 32t142 84.5t97 118t51.5 134.5l113 631h190l-137 -779
q-21 -120 -24.5 -198.5t8.5 -155.5h-195q-10 126 4 190h-6q-183 -225 -496 -225z" />
    <glyph glyph-name="Uring" unicode="&#x16e;" horiz-adv-x="1847" 
d="M1128 1714q-106 0 -173.5 55.5t-67.5 141.5q0 104 94.5 181t226.5 77q106 0 173 -54.5t67 -140.5q0 -103 -94 -181.5t-226 -78.5zM1147 1829q71 0 120.5 39t49.5 94q0 42 -37 68t-92 26q-71 0 -120.5 -39t-49.5 -94q0 -43 36 -68.5t93 -25.5zM815 -35q-115 0 -210 21.5
t-163 61t-117.5 96t-73.5 126t-30 151t12 171.5l181 1005h202l-176 -991q-39 -220 64.5 -342.5t341.5 -122.5q240 0 388.5 125t186.5 340l178 991h205l-180 -1005q-18 -101 -56.5 -190t-105.5 -170.5t-156 -139.5t-215 -92.5t-276 -34.5z" />
    <glyph glyph-name="uring" unicode="&#x16f;" horiz-adv-x="1533" 
d="M868 1249q-106 0 -173.5 55.5t-67.5 141.5q0 104 94.5 181t226.5 77q107 0 173.5 -54.5t66.5 -140.5q0 -103 -94 -181.5t-226 -78.5zM887 1364q71 0 120.5 39t49.5 94q0 42 -36.5 68t-92.5 26q-70 0 -119 -38.5t-49 -94.5q0 -44 35 -69t92 -25zM575 -35q-78 0 -145 15.5
t-124.5 49.5t-93 87.5t-50.5 129.5t4 175l127 711h190l-114 -644q-15 -78 -5 -137t34.5 -100.5t65.5 -68t87.5 -38.5t99.5 -12q93 0 176.5 32t142 84.5t97 118t51.5 134.5l113 631h190l-137 -779q-21 -120 -24.5 -198.5t8.5 -155.5h-195q-10 126 4 190h-6
q-183 -225 -496 -225z" />
    <glyph glyph-name="Uhungarumlaut" unicode="&#x170;" horiz-adv-x="1847" 
d="M1372 2054l-397 -334h-172l313 334h256zM1786 2054l-414 -334h-174l332 334h256zM815 -35q-115 0 -210 21.5t-163 61t-117.5 96t-73.5 126t-30 151t12 171.5l181 1005h202l-176 -991q-39 -220 64.5 -342.5t341.5 -122.5q240 0 388.5 125t186.5 340l178 991h205
l-180 -1005q-18 -101 -56.5 -190t-105.5 -170.5t-156 -139.5t-215 -92.5t-276 -34.5z" />
    <glyph glyph-name="uhungarumlaut" unicode="&#x171;" horiz-adv-x="1533" 
d="M1118 1673l-411 -395h-166l327 395h250zM1536 1673l-430 -395h-166l348 395h248zM575 -35q-78 0 -145 15.5t-124.5 49.5t-93 87.5t-50.5 129.5t4 175l127 711h190l-114 -644q-15 -78 -5 -137t34.5 -100.5t65.5 -68t87.5 -38.5t99.5 -12q93 0 176.5 32t142 84.5t97 118
t51.5 134.5l113 631h190l-137 -779q-21 -120 -24.5 -198.5t8.5 -155.5h-195q-10 126 4 190h-6q-183 -225 -496 -225z" />
    <glyph glyph-name="Uogonek" unicode="&#x172;" horiz-adv-x="1847" 
d="M1421 606l178 991h205l-180 -1005q-21 -115 -69.5 -215t-128 -186t-201.5 -143.5t-275 -74.5q-77 -35 -125.5 -84t-48.5 -104q0 -56 51.5 -91.5t133.5 -35.5q53 0 110 14l-20 -118q-69 -17 -129 -17q-128 0 -212.5 51.5t-84.5 147.5q0 128 170 229q-133 2 -238 34
t-173.5 87.5t-111 133t-50 171.5t10.5 201l181 1005h202l-176 -991q-39 -220 64.5 -342.5t341.5 -122.5q240 0 388.5 125t186.5 340z" />
    <glyph glyph-name="uogonek" unicode="&#x173;" horiz-adv-x="1533" 
d="M1231 1133h190l-137 -779q-21 -120 -24.5 -198.5t8.5 -155.5h-41q-103 -33 -172.5 -91t-69.5 -126q0 -54 50 -86.5t128 -32.5q54 0 111 14l-23 -127q-63 -14 -123 -14q-136 0 -215 54t-79 147q0 47 22.5 90t60 75.5t77.5 56t83 40.5h-4q-10 126 4 190h-6
q-183 -225 -496 -225q-78 0 -145 15.5t-124.5 49.5t-93 87.5t-50.5 129.5t4 175l127 711h190l-114 -644q-15 -78 -5 -137t34.5 -100.5t65.5 -68t87.5 -38.5t99.5 -12q93 0 176.5 32t142 84.5t97 118t51.5 134.5z" />
    <glyph glyph-name="Wcircumflex" unicode="&#x174;" horiz-adv-x="2797" 
d="M1774 2042l270 -322h-178q-179 161 -224 205q-19 -14 -59 -44t-59.5 -43.5t-66.5 -45t-111 -72.5h-181l381 322h228zM797 0h-250l-324 1597h223q14 -67 53 -252t58 -276t49.5 -244t56 -289t50.5 -278h6q85 152 344.5 615.5t402.5 723.5h230q211 -1038 270 -1339h6
q545 988 748 1339h223l-891 -1597h-248q-153 707 -262 1311h-4q-29 -53 -136.5 -248.5t-152.5 -275.5t-132 -235t-162.5 -285t-157.5 -267z" />
    <glyph glyph-name="wcircumflex" unicode="&#x175;" horiz-adv-x="2236" 
d="M952 1278h-182l420 360h235l291 -360h-180q-6 6 -94.5 89.5t-149.5 156.5q-56 -44 -159 -114.5t-181 -131.5zM633 0h-207l-289 1133h213l223 -895h7l548 895h185l233 -895h4l539 895h213l-684 -1133h-215q-151 581 -217 889h-4q-232 -390 -549 -889z" />
    <glyph glyph-name="Ycircumflex" unicode="&#x176;" horiz-adv-x="1691" 
d="M1221 2042l270 -322h-178q-166 149 -223 205q-19 -14 -49 -36.5t-46.5 -34t-45.5 -32t-66.5 -45t-89.5 -57.5h-181l381 322h228zM848 0h-203q11 61 20.5 117.5t27 154t55.5 303.5q-56 107 -146 265t-179.5 331t-203.5 426h221l437 -837h4q82 92 141.5 165.5t96.5 121.5
t162.5 187t338.5 363h217q-126 -145 -425 -490.5t-462 -531.5q-69 -403 -102 -575z" />
    <glyph glyph-name="ycircumflex" unicode="&#x177;" horiz-adv-x="1347" 
d="M494 1278h-183l420 360h236l290 -360h-180q-4 4 -93 88t-150 158q-56 -44 -159 -114.5t-181 -131.5zM385 -451h-188l278 426l-344 1158h211q41 -136 84.5 -286.5t97 -339.5t84.5 -296h4q41 63 260.5 404t337.5 518h207z" />
    <glyph glyph-name="Ydieresis" unicode="&#x178;" horiz-adv-x="1691" 
d="M817 1772q-53 0 -88 30.5t-35 77.5q0 57 49 100t115 43q52 0 86.5 -30t34.5 -74q0 -59 -49 -103t-113 -44zM1307 1772q-55 0 -90 30.5t-35 75.5q0 59 49.5 102t114.5 43q52 0 86 -30.5t34 -75.5q0 -56 -48 -100.5t-111 -44.5zM848 0h-203q11 61 20.5 117.5t27 154
t55.5 303.5q-56 107 -146 265t-179.5 331t-203.5 426h221l437 -837h4q82 92 141.5 165.5t96.5 121.5t162.5 187t338.5 363h217q-126 -145 -425 -490.5t-462 -531.5q-69 -403 -102 -575z" />
    <glyph glyph-name="Zacute" unicode="&#x179;" horiz-adv-x="1617" 
d="M1518 2056l-461 -336h-176l366 336h271zM1442 0h-1469l29 182q257 226 730.5 637.5t690.5 601.5v4q-381 -2 -1151 -2l29 174h1403l-31 -180q-271 -236 -767.5 -665.5t-657.5 -569.5l-2 -4h1224z" />
    <glyph glyph-name="zacute" unicode="&#x17a;" horiz-adv-x="1208" 
d="M1245 1667l-440 -389h-168l358 389h250zM1051 0h-1078l23 143l917 826h-725l25 164h983l-20 -144l-922 -825h821z" />
    <glyph glyph-name="Zdotaccent" unicode="&#x17b;" horiz-adv-x="1617" 
d="M997 1776q-55 0 -91 32t-36 82q0 60 51.5 105t120.5 45q54 0 90.5 -32t36.5 -79q0 -60 -52.5 -106.5t-119.5 -46.5zM1442 0h-1469l29 182q257 226 730.5 637.5t690.5 601.5v4q-381 -2 -1151 -2l29 174h1403l-31 -180q-271 -236 -767.5 -665.5t-657.5 -569.5l-2 -4h1224z
" />
    <glyph glyph-name="zdotaccent" unicode="&#x17c;" horiz-adv-x="1208" 
d="M756 1386q-56 0 -92.5 33t-36.5 82q0 60 52.5 105t121.5 45q54 0 90.5 -32t36.5 -79q0 -60 -52.5 -107t-119.5 -47zM1051 0h-1078l23 143l917 826h-725l25 164h983l-20 -144l-922 -825h821z" />
    <glyph glyph-name="Zcaron" unicode="&#x17d;" horiz-adv-x="1617" 
d="M1303 2042h180l-381 -322h-230l-268 322h178q128 -109 226 -207q28 21 76 56t71.5 51.5t63.5 44t84 55.5zM1442 0h-1469l29 182q257 226 730.5 637.5t690.5 601.5v4q-381 -2 -1151 -2l29 174h1403l-31 -180q-271 -236 -767.5 -665.5t-657.5 -569.5l-2 -4h1224z" />
    <glyph glyph-name="zcaron" unicode="&#x17e;" horiz-adv-x="1208" 
d="M848 1284h-234l-290 369h182q31 -31 80.5 -76t86 -81.5t79.5 -88.5q48 38 152 110.5t183 135.5h183zM1051 0h-1078l23 143l917 826h-725l25 164h983l-20 -144l-922 -825h821z" />
    <glyph glyph-name="uni0218" unicode="&#x218;" horiz-adv-x="1583" 
d="M713 -35q-116 0 -220 27t-194.5 81t-151.5 147t-79 214l198 64q27 -180 156.5 -269.5t322.5 -89.5q204 0 346 92t142 222q0 37 -12 67.5t-37 53t-51 39t-67 31.5t-71 24t-76 21q-23 6 -34 9l-168 45q-43 11 -78 21.5t-84 29.5t-86.5 40t-77.5 52t-66.5 66t-43.5 82.5
t-17 100.5q0 130 90.5 243.5t253.5 182.5t359 69q248 0 399.5 -106.5t179.5 -272.5l-196 -71q-28 127 -137.5 201.5t-282.5 74.5q-189 0 -319 -82.5t-130 -197.5q0 -47 26 -88t60.5 -67t88.5 -50t88 -34.5t81 -23.5l183 -51q8 -2 24 -7q176 -47 256 -92q171 -96 172 -265
q0 -100 -57.5 -197t-155 -171t-238 -119.5t-296.5 -45.5zM567 -557h-100l160 207q-88 23 -88 98q0 55 47 96t112 41q52 0 85.5 -28.5t33.5 -73.5q0 -11 -2 -22t-8.5 -24.5t-12.5 -24.5t-20.5 -30t-25.5 -32.5t-34 -40t-40 -45.5t-50 -56.5t-57 -64.5z" />
    <glyph glyph-name="uni0219" unicode="&#x219;" horiz-adv-x="1214" 
d="M528 -35q-201 0 -338.5 87.5t-166.5 230.5l186 55q33 -104 129.5 -162.5t220.5 -58.5q132 0 227 57.5t95 140.5q0 36 -17.5 62t-52 43.5t-68.5 28t-83 23.5q-4 0 -5.5 0.5l-4.5 1.5t-6 1.5t-5 1.5l-125 31q-33 8 -50 13t-58 19t-65.5 27t-58.5 37t-53.5 50t-34 63
t-14.5 80q0 98 67.5 182.5t186.5 135t260 50.5q178 0 298 -77.5t145 -200.5l-191 -58q-20 80 -93.5 134.5t-190.5 54.5q-119 0 -201 -54t-82 -130q0 -28 11 -51.5t35 -41.5t45.5 -31.5t58.5 -26t58.5 -18.5t59.5 -16l119 -28q35 -8 56.5 -14t59 -18.5t62 -25.5t54.5 -34.5
t47.5 -45.5t29.5 -58t12 -73q0 -155 -160.5 -271t-398.5 -116zM381 -557h-100l159 207q-88 23 -88 98q0 55 47.5 96t112.5 41q52 0 85.5 -28.5t33.5 -73.5q0 -11 -2 -22t-8.5 -24.5t-12.5 -24.5t-20.5 -30t-25.5 -32.5t-34 -40t-40 -45.5t-50 -56.5t-57 -64.5z" />
    <glyph glyph-name="uni021A" unicode="&#x21a;" horiz-adv-x="1552" 
d="M778 0h-205q25 143 39 219.5t26 139t62 338.5t131 726h-645l29 174h1489l-27 -174h-645q-27 -154 -46 -265t-30 -176t-54.5 -305.5t-123.5 -676.5zM520 -557h-100l160 207q-88 23 -88 98q0 55 47 96t112 41q52 0 85.5 -28.5t33.5 -73.5q0 -11 -2 -22t-8.5 -24.5
t-12.5 -24.5t-20.5 -30t-25.5 -32.5t-34 -40t-40 -45.5t-50 -56.5t-57 -64.5z" />
    <glyph glyph-name="uni021B" unicode="&#x21b;" horiz-adv-x="942" 
d="M535 -35q-71 0 -125.5 15t-86.5 37.5t-52 58t-27.5 66.5t-7 73.5t3.5 68.5t10 62l117 627h-271l23 160h270l60 333h192l-59 -333h407l-22 -160h-410l-106 -570q-6 -33 -9.5 -53t-6 -52.5t0.5 -53t12.5 -45t27 -38.5t47 -24t69.5 -10q107 0 227 57l-26 -166
q-106 -53 -258 -53zM295 -557h-100l159 207q-88 23 -88 98q0 55 47.5 96t112.5 41q52 0 85.5 -28.5t33.5 -73.5q0 -11 -2 -22t-8.5 -24.5t-12.5 -24.5t-20.5 -30t-25.5 -32.5t-34 -40t-40 -45.5t-50 -56.5t-57 -64.5z" />
    <glyph glyph-name="gravecomb" unicode="&#x300;" horiz-adv-x="0" 
d="M135 1278h-168l-305 389h252z" />
    <glyph glyph-name="acutecomb" unicode="&#x301;" horiz-adv-x="0" 
d="M414 1667l-441 -389h-168l359 389h250z" />
    <glyph glyph-name="uni0302" unicode="&#x302;" horiz-adv-x="0" 
d="M-555 1278h-182l420 360h235l291 -360h-180q-6 6 -94.5 89.5t-149.5 156.5q-56 -44 -159 -114.5t-181 -131.5z" />
    <glyph glyph-name="tildecomb" unicode="&#x303;" horiz-adv-x="0" 
d="M-127 1333q-57 0 -95.5 16t-80.5 50l-47 35q-1 1 -10.5 7.5t-12 8t-11.5 7.5t-13 7.5t-13 5.5t-15.5 5t-15.5 2.5t-18 1.5q-54 0 -92.5 -36.5t-50.5 -92.5h-143q23 120 109 194t200 74q54 0 92 -17t76 -47l47 -34q59 -47 115 -47q52 0 88 36.5t47 94.5h143
q-22 -126 -101.5 -198.5t-197.5 -72.5z" />
    <glyph glyph-name="uni0304" unicode="&#x304;" horiz-adv-x="0" 
d="M158 1384h-826l23 138h825z" />
    <glyph glyph-name="uni0306" unicode="&#x306;" horiz-adv-x="0" 
d="M-246 1274q-205 0 -306 110.5t-77 284.5h166q-17 -115 49 -186.5t191 -71.5q124 0 217 71t119 187h168q-39 -177 -182 -286t-345 -109z" />
    <glyph glyph-name="uni0307" unicode="&#x307;" horiz-adv-x="0" 
d="M-31 1380q-56 0 -92.5 33t-36.5 82q0 60 52.5 105t121.5 45q54 0 90.5 -32t36.5 -79q0 -60 -52.5 -107t-119.5 -47z" />
    <glyph glyph-name="uni0308" unicode="&#x308;" horiz-adv-x="0" 
d="M-731 1352q-52 0 -85.5 29.5t-33.5 74.5q0 54 47.5 96.5t110.5 42.5q51 0 84 -29.5t33 -72.5q0 -56 -46.5 -98.5t-109.5 -42.5zM-274 1352q-53 0 -87 29.5t-34 74.5q0 57 47 98t110 41q50 0 84.5 -30t34.5 -74q0 -54 -47.5 -96.5t-107.5 -42.5z" />
    <glyph glyph-name="uni030A" unicode="&#x30a;" horiz-adv-x="0" 
d="M-61 1249q-106 0 -174 55.5t-68 141.5q0 104 94.5 181t226.5 77q107 0 173.5 -54.5t66.5 -140.5q0 -103 -94 -181.5t-225 -78.5zM-43 1364q71 0 120.5 39t49.5 94q0 42 -36.5 68t-92.5 26q-70 0 -119 -38.5t-49 -94.5q0 -44 35 -69t92 -25z" />
    <glyph glyph-name="uni030B" unicode="&#x30b;" horiz-adv-x="0" 
d="M76 1673l-412 -395h-166l328 395h250zM494 1673l-431 -395h-165l348 395h248z" />
    <glyph glyph-name="uni030C" unicode="&#x30c;" horiz-adv-x="0" 
d="M-145 1278h-234l-291 369h183q31 -30 80.5 -75.5t85.5 -82t79 -88.5q48 38 152.5 110.5t183.5 135.5h182z" />
    <glyph glyph-name="uni0312" unicode="&#x312;" horiz-adv-x="0" 
d="M-254 1294q0 44 47 105t236 274h116l-190 -248q32 -11 53 -36t21 -60q0 -56 -49.5 -97.5t-114.5 -41.5q-51 0 -85 29.5t-34 74.5z" />
    <glyph glyph-name="uni0326" unicode="&#x326;" horiz-adv-x="0" 
d="M-469 -557h-100l159 207q-88 23 -88 98q0 55 47.5 96t112.5 41q52 0 85.5 -28.5t33.5 -73.5q0 -11 -2 -22t-8.5 -24.5t-12.5 -24.5t-20.5 -30t-25.5 -32.5t-34 -40t-40 -45.5t-50 -56.5t-57 -64.5z" />
    <glyph glyph-name="uni0327" unicode="&#x327;" horiz-adv-x="0" 
d="M-834 -500q-89 0 -167 31t-123 86l88 74q33 -43 90 -67.5t119 -24.5q75 0 126.5 32t51.5 78q0 36 -37 58t-92 22q-63 0 -119 -27l-64 56l175 182h127l-148 -143q40 14 92 14q92 0 146.5 -39.5t54.5 -107.5q0 -93 -91.5 -158.5t-228.5 -65.5z" />
    <glyph glyph-name="uni0328" unicode="&#x328;" horiz-adv-x="0" 
d="M-827 -483q-136 0 -215.5 54t-79.5 146q0 47 22.5 90t60 76t77.5 56.5t83 40.5h150q-103 -33 -172.5 -91.5t-69.5 -126.5q0 -54 50 -86t128 -32q54 0 111 14l-23 -127q-63 -14 -122 -14z" />
    <glyph glyph-name="uni0335" unicode="&#x335;" horiz-adv-x="0" 
d="M-776 639h848l-21 -141h-852z" />
    <glyph glyph-name="uni0337" unicode="&#x337;" horiz-adv-x="0" 
d="M-481 492l24 157l740 414l-23 -160z" />
    <glyph glyph-name="uni0338" unicode="&#x338;" horiz-adv-x="0" 
d="M-1202 -59h-213l1325 1239h205z" />
    <glyph glyph-name="Wgrave" unicode="&#x1e80;" horiz-adv-x="2797" 
d="M1729 1720h-177l-346 336h273zM797 0h-250l-324 1597h223q14 -67 53 -252t58 -276t49.5 -244t56 -289t50.5 -278h6q85 152 344.5 615.5t402.5 723.5h230q211 -1038 270 -1339h6q545 988 748 1339h223l-891 -1597h-248q-153 707 -262 1311h-4q-29 -53 -136.5 -248.5
t-152.5 -275.5t-132 -235t-162.5 -285t-157.5 -267z" />
    <glyph glyph-name="wgrave" unicode="&#x1e81;" horiz-adv-x="2236" 
d="M1337 1278h-168l-305 389h252zM633 0h-207l-289 1133h213l223 -895h7l548 895h185l233 -895h4l539 895h213l-684 -1133h-215q-151 581 -217 889h-4q-232 -390 -549 -889z" />
    <glyph glyph-name="Wacute" unicode="&#x1e82;" horiz-adv-x="2797" 
d="M2134 2056l-461 -336h-176l367 336h270zM797 0h-250l-324 1597h223q14 -67 53 -252t58 -276t49.5 -244t56 -289t50.5 -278h6q85 152 344.5 615.5t402.5 723.5h230q211 -1038 270 -1339h6q545 988 748 1339h223l-891 -1597h-248q-153 707 -262 1311h-4
q-29 -53 -136.5 -248.5t-152.5 -275.5t-132 -235t-162.5 -285t-157.5 -267z" />
    <glyph glyph-name="wacute" unicode="&#x1e83;" horiz-adv-x="2236" 
d="M1757 1667l-440 -389h-168l358 389h250zM633 0h-207l-289 1133h213l223 -895h7l548 895h185l233 -895h4l539 895h213l-684 -1133h-215q-151 581 -217 889h-4q-232 -390 -549 -889z" />
    <glyph glyph-name="Wdieresis" unicode="&#x1e84;" horiz-adv-x="2797" 
d="M1372 1772q-53 0 -88 30.5t-35 77.5q0 57 49 100t115 43q52 0 86.5 -30t34.5 -74q0 -59 -49 -103t-113 -44zM1862 1772q-55 0 -90 30.5t-35 75.5q0 59 49.5 102t114.5 43q52 0 86 -30.5t34 -75.5q0 -56 -48 -100.5t-111 -44.5zM797 0h-250l-324 1597h223q14 -67 53 -252
t58 -276t49.5 -244t56 -289t50.5 -278h6q85 152 344.5 615.5t402.5 723.5h230q211 -1038 270 -1339h6q545 988 748 1339h223l-891 -1597h-248q-153 707 -262 1311h-4q-29 -53 -136.5 -248.5t-152.5 -275.5t-132 -235t-162.5 -285t-157.5 -267z" />
    <glyph glyph-name="wdieresis" unicode="&#x1e85;" horiz-adv-x="2236" 
d="M1032 1352q-52 0 -85.5 29.5t-33.5 74.5q0 54 47.5 96.5t110.5 42.5q51 0 84 -29.5t33 -72.5q0 -56 -46.5 -98.5t-109.5 -42.5zM1489 1352q-53 0 -87 29.5t-34 74.5q0 57 47.5 98t110.5 41q50 0 84.5 -30t34.5 -74q0 -54 -48 -96.5t-108 -42.5zM633 0h-207l-289 1133h213
l223 -895h7l548 895h185l233 -895h4l539 895h213l-684 -1133h-215q-151 581 -217 889h-4q-232 -390 -549 -889z" />
    <glyph glyph-name="uni1E9E" unicode="&#x1e9e;" horiz-adv-x="1845" 
d="M330 0h-203l162 926q12 67 27 124t45.5 132t71 134.5t105.5 120t146 101.5t195.5 66.5t250.5 25.5q293 0 455 -106.5t162 -288.5q0 -158 -115 -277.5t-293 -148.5l-2 -4q74 -4 138.5 -26t116 -61t81 -100t29.5 -137q0 -96 -47 -181t-137 -153t-235.5 -107.5t-328.5 -39.5
h-219l29 172h250q216 0 344.5 83t128.5 214q0 113 -97 173t-278 60h-133l27 175h127q170 0 282.5 92t112.5 225q0 128 -111 198t-311 70q-105 0 -193 -20t-146.5 -52.5t-105 -77.5t-73 -89t-45 -93.5t-27.5 -86t-15 -70.5q-1 -5 -1 -8z" />
    <glyph glyph-name="Ygrave" unicode="&#x1ef2;" horiz-adv-x="1691" 
d="M1176 1720h-177l-346 336h273zM848 0h-203q11 61 20.5 117.5t27 154t55.5 303.5q-56 107 -146 265t-179.5 331t-203.5 426h221l437 -837h4q82 92 141.5 165.5t96.5 121.5t162.5 187t338.5 363h217q-126 -145 -425 -490.5t-462 -531.5q-69 -403 -102 -575z" />
    <glyph glyph-name="ygrave" unicode="&#x1ef3;" horiz-adv-x="1347" 
d="M879 1278h-168l-305 389h251zM385 -451h-188l278 426l-344 1158h211q41 -136 84.5 -286.5t97 -339.5t84.5 -296h4q41 63 260.5 404t337.5 518h207z" />
    <glyph glyph-name="uni2000" unicode="&#x2000;" horiz-adv-x="1228" 
 />
    <glyph glyph-name="uni2001" unicode="&#x2001;" 
 />
    <glyph glyph-name="uni2002" unicode="&#x2002;" horiz-adv-x="1228" 
 />
    <glyph glyph-name="uni2003" unicode="&#x2003;" 
 />
    <glyph glyph-name="uni2004" unicode="&#x2004;" horiz-adv-x="819" 
 />
    <glyph glyph-name="uni2005" unicode="&#x2005;" horiz-adv-x="614" 
 />
    <glyph glyph-name="uni2006" unicode="&#x2006;" horiz-adv-x="409" 
 />
    <glyph glyph-name="uni2007" unicode="&#x2007;" horiz-adv-x="661" 
 />
    <glyph glyph-name="uni2008" unicode="&#x2008;" horiz-adv-x="577" 
 />
    <glyph glyph-name="uni2009" unicode="&#x2009;" horiz-adv-x="307" 
 />
    <glyph glyph-name="uni200A" unicode="&#x200a;" horiz-adv-x="102" 
 />
    <glyph glyph-name="uni200B" unicode="&#x200b;" horiz-adv-x="0" 
 />
    <glyph glyph-name="endash" unicode="&#x2013;" horiz-adv-x="1204" 
d="M1061 547h-924l25 153h923z" />
    <glyph glyph-name="emdash" unicode="&#x2014;" horiz-adv-x="1718" 
d="M1577 551h-1440l23 143h1439z" />
    <glyph glyph-name="quoteleft" unicode="&#x2018;" horiz-adv-x="573" 
d="M516 1632h119l-205 -262q80 -25 80 -102q0 -59 -52 -105.5t-122 -46.5q-53 0 -89 32t-36 81q0 47 52 115t253 288z" />
    <glyph glyph-name="quoteright" unicode="&#x2019;" horiz-adv-x="581" 
d="M354 1128h-123l207 263q-38 12 -59 39t-21 63q0 60 52.5 106t121.5 46q54 0 89.5 -32t35.5 -81q0 -46 -54 -117t-249 -287z" />
    <glyph glyph-name="quotesinglbase" unicode="&#x201a;" horiz-adv-x="548" 
d="M84 -266h-119l205 264q-80 25 -80 102q0 59 52 105.5t122 46.5q54 0 89.5 -32t35.5 -81q0 -47 -52 -114.5t-253 -290.5z" />
    <glyph glyph-name="quotedblleft" unicode="&#x201c;" horiz-adv-x="978" 
d="M537 1632h118l-204 -262q79 -25 79 -102q0 -59 -52 -105.5t-122 -46.5q-53 0 -89 32t-36 81q0 47 52 114t254 289zM872 1632h119l-205 -262q80 -25 80 -102q0 -59 -52 -105.5t-122 -46.5q-54 0 -89.5 32t-35.5 81q0 47 52 115t253 288z" />
    <glyph glyph-name="quotedblright" unicode="&#x201d;" horiz-adv-x="991" 
d="M352 1128h-119l203 263q-37 12 -57.5 39.5t-20.5 62.5q0 59 52 105.5t122 46.5q53 0 88 -32t35 -81q0 -48 -53 -118t-250 -286zM762 1128h-121l205 263q-37 12 -57.5 39.5t-20.5 62.5q0 60 51.5 106t120.5 46q54 0 90.5 -33t36.5 -80t-51.5 -114t-253.5 -290z" />
    <glyph glyph-name="quotedblbase" unicode="&#x201e;" horiz-adv-x="958" 
d="M63 -254h-118l202 262q-36 12 -56.5 39.5t-20.5 63.5q0 59 52 105t122 46q53 0 89 -31.5t36 -80.5q0 -47 -52.5 -115t-253.5 -289zM473 -254h-119l203 262q-36 12 -57 39.5t-21 63.5q0 60 51.5 105.5t120.5 45.5q54 0 90.5 -32.5t36.5 -79.5t-51.5 -114t-253.5 -290z" />
    <glyph glyph-name="dagger" unicode="&#x2020;" horiz-adv-x="1204" 
d="M817 1307h408l-25 -148h-407l-129 -729h-177l129 729h-399l23 148h401l59 331h177z" />
    <glyph glyph-name="daggerdbl" unicode="&#x2021;" horiz-adv-x="1302" 
d="M1268 1307l-25 -148h-397l-51 -278h397l-23 -148h-397l-57 -332h-178l59 332h-401l22 148h401l52 278h-402l25 148h401l60 331h176l-60 -331h398z" />
    <glyph glyph-name="bullet" unicode="&#x2022;" horiz-adv-x="970" 
d="M498 432q-95 0 -159.5 58t-64.5 143q0 106 90 186t209 80q95 0 158.5 -55t63.5 -139q0 -104 -90 -188.5t-207 -84.5z" />
    <glyph glyph-name="ellipsis" unicode="&#x2026;" horiz-adv-x="1648" 
d="M229 -14q-56 0 -92.5 32.5t-36.5 81.5q0 60 51.5 106t120.5 46q53 0 89 -32t36 -79q0 -59 -51.5 -107t-116.5 -48zM666 -14q-56 0 -92.5 32.5t-36.5 81.5q0 60 52 106t120 46q54 0 89.5 -32t35.5 -79q0 -59 -51.5 -107t-116.5 -48zM1298 -14q-54 0 -90.5 32.5t-36.5 81.5
q0 60 51.5 106t118.5 46q54 0 90.5 -32t36.5 -79q0 -59 -51.5 -107t-118.5 -48z" />
    <glyph glyph-name="uni202F" unicode="&#x202f;" horiz-adv-x="477" 
 />
    <glyph glyph-name="perthousand" unicode="&#x2030;" horiz-adv-x="2910" 
d="M457 768q-128 0 -201.5 81t-73.5 222q0 118 52 223.5t147.5 171.5t210.5 66q128 0 202 -82t74 -223q0 -88 -31.5 -172t-85 -147t-131 -101.5t-163.5 -38.5zM350 0h-182l1624 1468h174zM475 901q91 0 159 102.5t68 223.5q0 82 -33.5 126t-95.5 44q-90 0 -158.5 -101.5
t-68.5 -224.5q0 -82 33.5 -126t95.5 -44zM1540 -29q-128 0 -201 81t-73 222q0 88 31 171.5t84 147.5t130 103t164 39q128 0 202.5 -82t74.5 -223q0 -119 -53 -224t-148.5 -170t-210.5 -65zM2382 -29q-128 0 -201.5 81t-73.5 222q0 118 52 223.5t147.5 171.5t210.5 66
q128 0 202 -82t74 -223q0 -88 -31.5 -172t-85 -147t-131 -101.5t-163.5 -38.5zM1559 104q91 0 159 102.5t68 223.5q0 82 -33.5 126t-95.5 44q-90 0 -158.5 -101.5t-68.5 -224.5q0 -82 33.5 -126t95.5 -44zM2400 104q91 0 159.5 102.5t68.5 223.5q0 82 -33.5 126t-95.5 44
q-90 0 -159 -101.5t-69 -224.5q0 -82 33.5 -126t95.5 -44z" />
    <glyph glyph-name="guilsinglleft" unicode="&#x2039;" horiz-adv-x="933" 
d="M700 164h-227l-344 405l2 9l487 405h228l-488 -405l-2 -9z" />
    <glyph glyph-name="guilsinglright" unicode="&#x203a;" horiz-adv-x="935" 
d="M678 430l-483 -266l24 139l361 268l-91 146l-129 266l197 -139l250 -269z" />
    <glyph glyph-name="fraction" unicode="&#x2044;" horiz-adv-x="380" 
d="M-494 0h-182l1624 1468h174z" />
    <glyph glyph-name="uni205F" unicode="&#x205f;" horiz-adv-x="544" 
 />
    <glyph glyph-name="uni2070" unicode="&#x2070;" horiz-adv-x="843" 
d="M457 768q-128 0 -201.5 81t-73.5 222q0 118 52 223.5t147.5 171.5t210.5 66q128 0 202 -82t74 -223q0 -88 -31.5 -172t-85 -147t-131 -101.5t-163.5 -38.5zM475 901q91 0 159 102.5t68 223.5q0 82 -33.5 126t-95.5 44q-90 0 -158.5 -101.5t-68.5 -224.5q0 -82 33.5 -126
t95.5 -44z" />
    <glyph glyph-name="uni2074" unicode="&#x2074;" horiz-adv-x="806" 
d="M659 784h-149l29 152h-420l18 119l504 461h147l-81 -459h116l-20 -121h-115zM608 1329l-319 -272h268z" />
    <glyph glyph-name="uni2075" unicode="&#x2075;" horiz-adv-x="790" 
d="M418 768q-113 0 -195 43t-100 125l145 63q15 -51 62 -79.5t108 -28.5q82 0 138.5 46.5t56.5 106.5q0 51 -38.5 81t-100.5 30q-51 0 -96 -21.5t-72 -52.5l-125 31l172 404h456l-18 -119h-346l-94 -195h2q34 28 88 44t106 16q96 0 164 -50t68 -147q0 -123 -111 -210
t-270 -87z" />
    <glyph glyph-name="uni2076" unicode="&#x2076;" horiz-adv-x="825" 
d="M457 768q-135 0 -209 71.5t-74 202.5q0 122 64.5 234.5t178.5 184t247 71.5q62 0 122 -18.5t97 -57.5l-99 -94q-53 45 -143 45q-104 0 -185 -63.5t-110 -174.5h4q32 42 97.5 66.5t132.5 24.5q104 0 176.5 -54.5t72.5 -148.5q0 -116 -107.5 -202.5t-264.5 -86.5zM485 889
q76 0 135.5 48t59.5 110q0 50 -41 82t-104 32q-77 0 -137 -47t-60 -110q0 -49 42.5 -82t104.5 -33z" />
    <glyph glyph-name="uni2077" unicode="&#x2077;" horiz-adv-x="681" 
d="M379 784h-166q25 139 136.5 319t264.5 296h-428l19 121h610l-18 -125q-110 -73 -202.5 -184t-146 -221.5t-69.5 -205.5z" />
    <glyph glyph-name="uni2078" unicode="&#x2078;" horiz-adv-x="808" 
d="M440 768q-129 0 -207.5 52.5t-78.5 137.5q0 71 56 131t134 78l4 2q-98 47 -98 131q0 91 93.5 161.5t227.5 70.5q109 0 181.5 -49t72.5 -131q0 -60 -40.5 -109t-108.5 -74l-2 -2q59 -14 95 -54.5t36 -98.5q0 -101 -105.5 -173.5t-259.5 -72.5zM520 1221q65 0 113.5 35.5
t48.5 80.5q0 37 -35 61.5t-90 24.5q-66 0 -113 -33t-47 -79q0 -40 34.5 -65t88.5 -25zM463 893q76 0 129 40.5t53 96.5q0 44 -37 69t-102 25q-80 0 -134.5 -37t-54.5 -92q0 -45 41 -73.5t105 -28.5z" />
    <glyph glyph-name="uni2079" unicode="&#x2079;" horiz-adv-x="833" 
d="M406 768q-77 0 -148.5 25t-112.5 77l101 95q70 -78 180 -78q106 0 174 70.5t90 175.5q-35 -48 -101 -73.5t-134 -25.5q-104 0 -176 55t-72 150q0 120 111.5 206.5t269.5 86.5q134 0 204 -71.5t70 -207.5q0 -127 -60 -238.5t-165.5 -179t-230.5 -67.5zM498 1135
q81 0 140.5 51.5t59.5 116.5q0 51 -40.5 81.5t-102.5 30.5q-83 0 -141 -48.5t-58 -115.5q0 -51 39.5 -83.5t102.5 -32.5z" />
    <glyph glyph-name="uni2080" unicode="&#x2080;" horiz-adv-x="843" 
d="M270 -285q-128 0 -201 81t-73 222q0 118 52 223.5t147.5 171.5t210.5 66q128 0 202 -82t74 -223q0 -119 -53 -224t-148.5 -170t-210.5 -65zM289 -152q91 0 159 102.5t68 223.5q0 82 -33.5 126t-95.5 44q-90 0 -158.5 -101.5t-68.5 -224.5q0 -82 33.5 -126t95.5 -44z" />
    <glyph glyph-name="uni2081" unicode="&#x2081;" horiz-adv-x="548" 
d="M250 -268h-154l88 499q-93 -66 -200 -84l22 150q88 22 149 67.5t70 98.5h150z" />
    <glyph glyph-name="uni2082" unicode="&#x2082;" horiz-adv-x="778" 
d="M547 -268h-596l4 16q29 124 92.5 189.5t245.5 158.5q2 1 18 9.5t24 13t25.5 14.5t28 17.5t25.5 19t24.5 22t18.5 22.5t13.5 25.5t4.5 26.5q0 37 -33.5 59.5t-87.5 22.5q-75 0 -131 -42t-69 -113l-140 20q20 118 123 192t240 74q116 0 188 -52.5t72 -141.5
q0 -80 -61.5 -143.5t-139.5 -100.5q-27 -15 -81.5 -40.5t-78.5 -39t-53.5 -39.5t-46.5 -57h391z" />
    <glyph glyph-name="uni2083" unicode="&#x2083;" horiz-adv-x="790" 
d="M240 -285q-120 0 -201.5 46.5t-95.5 121.5l145 64q38 -111 168 -111q74 0 125 36.5t51 86.5q0 92 -153 92h-84l14 103h90q72 0 123 32t51 82q0 39 -36 62.5t-91 23.5q-65 0 -112 -30t-66 -82l-137 28q28 90 126 149.5t220 59.5q107 0 181.5 -45.5t74.5 -122.5
q0 -65 -50 -121t-122 -71q60 -11 99.5 -50.5t39.5 -95.5q0 -102 -105.5 -180t-254.5 -78z" />
    <glyph glyph-name="uni2084" unicode="&#x2084;" horiz-adv-x="806" 
d="M473 -268h-149l28 151h-420l19 119l504 461h147l-82 -459h117l-21 -121h-114zM422 276l-320 -272h269z" />
    <glyph glyph-name="uni2085" unicode="&#x2085;" horiz-adv-x="790" 
d="M231 -285q-112 0 -194 43t-100 125l145 64q15 -51 62 -80t108 -29q82 0 138 46.5t56 107.5q0 50 -38.5 80t-100.5 30q-51 0 -96.5 -21t-71.5 -52l-125 30l172 404h457l-18 -119h-346l-95 -194h2q34 28 88.5 43.5t106.5 15.5q96 0 163.5 -50t67.5 -147q0 -123 -111 -210
t-270 -87z" />
    <glyph glyph-name="uni2086" unicode="&#x2086;" horiz-adv-x="825" 
d="M270 -285q-135 0 -208.5 72t-73.5 203q0 122 64 234t178 183.5t247 71.5q62 0 122 -18.5t97 -57.5l-98 -94q-53 45 -143 45q-104 0 -185 -63t-110 -174h4q32 42 97 66t132 24q104 0 177 -54.5t73 -148.5q0 -116 -108 -202.5t-265 -86.5zM299 -164q76 0 135.5 48t59.5 110
q0 50 -41.5 82.5t-104.5 32.5q-77 0 -136.5 -47.5t-59.5 -110.5q0 -49 42.5 -82t104.5 -33z" />
    <glyph glyph-name="uni2087" unicode="&#x2087;" horiz-adv-x="681" 
d="M193 -268h-166q25 139 136.5 318.5t264.5 295.5h-428l18 121h611l-19 -125q-110 -73 -202.5 -184t-145.5 -221t-69 -205z" />
    <glyph glyph-name="uni2088" unicode="&#x2088;" horiz-adv-x="808" 
d="M254 -285q-129 0 -208 53t-79 138q0 71 56.5 131t134.5 78l4 2q-99 47 -99 131q0 91 94 161t228 70q109 0 181.5 -49t72.5 -131q0 -59 -41 -108t-109 -74l-2 -2q59 -14 95 -55t36 -99q0 -101 -105 -173.5t-259 -72.5zM334 168q65 0 113.5 36t48.5 81q0 37 -35 61.5
t-90 24.5q-66 0 -113 -33.5t-47 -79.5q0 -40 34.5 -65t88.5 -25zM276 -160q76 0 129.5 40.5t53.5 96.5q0 44 -37.5 69.5t-102.5 25.5q-80 0 -134 -37t-54 -92q0 -46 41 -74.5t104 -28.5z" />
    <glyph glyph-name="uni2089" unicode="&#x2089;" horiz-adv-x="833" 
d="M219 -285q-76 0 -147.5 25.5t-112.5 77.5l100 94q70 -78 181 -78q106 0 174 70.5t90 175.5q-35 -48 -101 -73t-135 -25q-105 0 -176.5 54.5t-71.5 149.5q0 120 111.5 206.5t269.5 86.5q134 0 204.5 -71t70.5 -207q0 -127 -60 -238.5t-166 -179.5t-231 -68zM311 82
q81 0 141 51.5t60 116.5q0 51 -40.5 81.5t-102.5 30.5q-83 0 -141 -48t-58 -115q0 -51 39 -84t102 -33z" />
    <glyph glyph-name="Euro" unicode="&#x20ac;" horiz-adv-x="1964" 
d="M1421 1417q-247 0 -436.5 -114t-286.5 -304h777l-19 -116h-807q-35 -110 -35 -228h801l-20 -116h-772q62 -398 612 -398q107 0 208 27t232 98l107 -131q-256 -170 -611 -170q-331 0 -531.5 152t-229.5 422h-275l21 116h247q3 119 37 228h-243l18 116h268q56 126 148 233
t214 188t279.5 127t331.5 46q351 0 537 -168l-164 -135q-153 127 -408 127z" />
    <glyph glyph-name="trademark" unicode="&#x2122;" horiz-adv-x="1884" 
d="M549 932h-133l104 575h-264l18 109h654l-19 -109h-260zM1075 932h-131l121 684h129q23 -68 84.5 -244.5t91.5 -269.5q65 91 185.5 267t170.5 247h132l-121 -684h-131l77 436q-30 -44 -60 -91.5t-79.5 -118t-157.5 -216.5h-90q-17 48 -49 149t-94 279z" />
    <glyph glyph-name="oneeighth" unicode="&#x215b;" horiz-adv-x="1736" 
d="M436 784h-153l88 500q-93 -66 -201 -84l23 150q88 22 149 67.5t70 98.5h149zM55 0h-182l1624 1468h174zM1229 -29q-129 0 -208 53t-79 138q0 71 56.5 131t134.5 78l4 2q-99 47 -99 131q0 91 94 161t228 70q109 0 181.5 -49t72.5 -131q0 -59 -41 -108t-109 -74l-2 -2
q59 -14 95 -55t36 -99q0 -101 -105 -173.5t-259 -72.5zM1309 424q65 0 113 36t48 81q0 37 -34.5 61.5t-89.5 24.5q-66 0 -113 -33.5t-47 -79.5q0 -40 34.5 -65t88.5 -25zM1251 96q76 0 129.5 40.5t53.5 96.5q0 44 -37.5 69.5t-102.5 25.5q-80 0 -134 -37t-54 -92
q0 -46 41 -74.5t104 -28.5z" />
    <glyph glyph-name="threeeighths" unicode="&#x215c;" horiz-adv-x="1978" 
d="M426 768q-120 0 -201.5 46.5t-95.5 121.5l145 63q37 -110 168 -110q74 0 125 36.5t51 86.5q0 92 -153 92h-84l14 102h90q72 0 123 32.5t51 82.5q0 39 -36 62.5t-91 23.5q-64 0 -111.5 -30t-66.5 -83l-137 29q28 90 126 149.5t220 59.5q107 0 181.5 -45.5t74.5 -122.5
q0 -65 -50 -121.5t-122 -71.5q60 -11 99.5 -50t39.5 -95q0 -102 -105.5 -180t-254.5 -78zM297 0h-182l1624 1468h174zM1470 -29q-129 0 -207.5 53t-78.5 138q0 71 56 131t134 78l4 2q-98 47 -98 131q0 91 94 161t228 70q109 0 181 -48.5t72 -131.5q0 -59 -40.5 -108
t-108.5 -74l-2 -2q59 -14 95 -55t36 -99q0 -101 -105.5 -173.5t-259.5 -72.5zM1550 424q65 0 113.5 36t48.5 81q0 37 -35 61.5t-90 24.5q-66 0 -113 -33.5t-47 -79.5q0 -40 34.5 -65t88.5 -25zM1493 96q76 0 129 40.5t53 96.5q0 44 -37 69.5t-102 25.5q-80 0 -134 -37
t-54 -92q0 -46 41 -74.5t104 -28.5z" />
    <glyph glyph-name="fiveeighths" unicode="&#x215d;" horiz-adv-x="1978" 
d="M418 768q-113 0 -195 43t-100 125l145 63q15 -51 62 -79.5t108 -28.5q82 0 138.5 46.5t56.5 106.5q0 51 -38.5 81t-100.5 30q-51 0 -96 -21.5t-72 -52.5l-125 31l172 404h456l-18 -119h-346l-94 -195h2q34 28 88 44t106 16q96 0 164 -50t68 -147q0 -123 -111 -210
t-270 -87zM297 0h-182l1624 1468h174zM1470 -29q-129 0 -207.5 53t-78.5 138q0 71 56 131t134 78l4 2q-98 47 -98 131q0 91 94 161t228 70q109 0 181 -48.5t72 -131.5q0 -59 -40.5 -108t-108.5 -74l-2 -2q59 -14 95 -55t36 -99q0 -101 -105.5 -173.5t-259.5 -72.5zM1550 424
q65 0 113.5 36t48.5 81q0 37 -35 61.5t-90 24.5q-66 0 -113 -33.5t-47 -79.5q0 -40 34.5 -65t88.5 -25zM1493 96q76 0 129 40.5t53 96.5q0 44 -37 69.5t-102 25.5q-80 0 -134 -37t-54 -92q0 -46 41 -74.5t104 -28.5z" />
    <glyph glyph-name="seveneighths" unicode="&#x215e;" horiz-adv-x="1869" 
d="M379 784h-166q25 139 136.5 319t264.5 296h-428l19 121h610l-18 -125q-110 -73 -202.5 -184t-146 -221.5t-69.5 -205.5zM188 0h-182l1624 1468h174zM1362 -29q-129 0 -208 53t-79 138q0 71 56.5 131t134.5 78l4 2q-99 47 -99 131q0 91 94 161t228 70q109 0 181.5 -49
t72.5 -131q0 -59 -41 -108t-109 -74l-2 -2q59 -14 95 -55t36 -99q0 -101 -105 -173.5t-259 -72.5zM1442 424q65 0 113.5 36t48.5 81q0 37 -35 61.5t-90 24.5q-66 0 -113 -33.5t-47 -79.5q0 -40 34.5 -65t88.5 -25zM1384 96q76 0 129.5 40.5t53.5 96.5q0 44 -37.5 69.5
t-102.5 25.5q-80 0 -134 -37t-54 -92q0 -46 41 -74.5t104 -28.5z" />
    <glyph glyph-name="arrowleft" unicode="&#x2190;" horiz-adv-x="1697" 
d="M438 723h1143l-25 -158h-1144l280 -329h-207l-335 405l2 8l479 406h207z" />
    <glyph glyph-name="arrowup" unicode="&#x2191;" horiz-adv-x="1196" 
d="M715 1202l428 -340l-31 -186l-354 287l-168 -943h-174l168 943l-455 -287l31 186l545 340h10z" />
    <glyph glyph-name="arrowright" unicode="&#x2192;" horiz-adv-x="1693" 
d="M1034 1055h207l336 -406l-2 -8l-479 -405h-207l397 329h-1141l27 158h1143z" />
    <glyph glyph-name="arrowdown" unicode="&#x2193;" horiz-adv-x="1200" 
d="M801 1202l-168 -944l454 289l-30 -187l-547 -340h-8l-428 340l30 187l357 -289l166 944h174z" />
    <glyph glyph-name="arrowboth" unicode="&#x2194;" horiz-adv-x="2125" 
d="M686 233h-207l-336 406l2 8l480 406h206l-409 -336h1339l-291 336h207l336 -406l-2 -8l-479 -406h-207l408 334h-1334z" />
    <glyph glyph-name="arrowupdn" unicode="&#x2195;" horiz-adv-x="1298" 
d="M557 4h-8l-430 328l28 172l357 -266l170 917l-457 -272l31 178l545 325h8l430 -325l-31 -178l-352 272l-172 -917l454 266l-28 -172z" />
    <glyph glyph-name="uni2196" unicode="&#x2196;" horiz-adv-x="1464" 
d="M664 834l618 -734l-149 -86l-619 734l-162 -426l-121 145l201 508l8 6l643 -23l121 -145z" />
    <glyph glyph-name="uni2197" unicode="&#x2197;" horiz-adv-x="1345" 
d="M928 975l200 -508l-120 -145l-162 426l-619 -734l-149 86l618 734l-538 -21l118 145l644 23z" />
    <glyph glyph-name="uni2198" unicode="&#x2198;" horiz-adv-x="1472" 
d="M967 473l161 428l121 -147l-200 -508l-9 -4l-643 20l-121 148l541 -23l-618 733l149 86z" />
    <glyph glyph-name="uni2199" unicode="&#x2199;" horiz-adv-x="1345" 
d="M1133 1206l149 -86l-616 -733l538 23l-121 -148l-641 -20l-10 4l-199 508l119 147l164 -426z" />
    <glyph glyph-name="emptyset" unicode="&#x2205;" horiz-adv-x="1714" 
d="M1599 1194l-180 -176q152 -139 152 -356q0 -135 -63 -262.5t-170.5 -223t-261 -153.5t-324.5 -58q-194 0 -338 72l-183 -178l-112 80l180 176q-154 141 -154 358q0 108 40 212t114.5 191t174.5 153t227 103t264 37q196 0 342 -73l182 176zM344 496q0 -144 98 -242
l721 702q-100 43 -223 43q-162 0 -300 -71t-217 -186.5t-79 -245.5zM780 135q122 0 233 42t189 111t124 160.5t46 188.5q0 146 -96 242l-717 -701q93 -43 221 -43z" />
    <glyph glyph-name="minus" unicode="&#x2212;" horiz-adv-x="1210" 
d="M1051 551h-893l24 149h891z" />
    <glyph glyph-name="infinity" unicode="&#x221e;" horiz-adv-x="2201" 
d="M541 285q-168 0 -272.5 81t-104.5 209q0 105 69.5 195.5t183.5 142.5t242 52q84 0 157 -28t140 -78t168 -144q205 141 324 195.5t238 54.5q161 0 266.5 -80t105.5 -211q0 -156 -143.5 -272.5t-347.5 -116.5q-66 0 -120 13.5t-111 46.5t-109 75.5t-129 114.5
q-198 -141 -315 -195.5t-242 -54.5zM555 420q40 0 81 9t68.5 17.5t76 35t67.5 38.5t81 52.5t81 52.5q-20 17 -63 54t-60.5 51.5t-53 39.5t-61 34.5t-62 18t-75.5 8.5q-126 0 -212.5 -69.5t-86.5 -167.5q0 -82 59 -128t160 -46zM1591 420q125 0 210 68.5t85 166.5
q0 82 -58 128t-159 46q-27 0 -51.5 -2.5t-51.5 -10.5t-46 -13t-49.5 -21t-45 -23t-50 -30t-48 -30.5t-55 -36.5t-55.5 -37q15 -12 60.5 -52t61 -52t53 -38.5t62 -35.5t61.5 -18t76 -9z" />
    <glyph glyph-name="approxequal" unicode="&#x2248;" horiz-adv-x="1286" 
d="M371 707h-164q22 132 120 206t214 74q50 0 91.5 -13.5t69.5 -32.5t54 -38.5t57 -33t66 -13.5q60 0 93.5 36.5t43.5 92.5h164q-22 -136 -108.5 -208t-205.5 -72q-64 0 -116 21t-80 45.5t-67 45.5t-81 21q-62 0 -101.5 -38t-49.5 -93zM297 276h-166q24 131 120 205t214 74
q50 0 91.5 -13.5t69.5 -32.5t53.5 -38.5t56 -33t65.5 -13.5q60 0 94.5 36t46.5 93h164q-24 -135 -110 -208t-203 -73q-53 0 -96 14t-72 34t-55 40t-57.5 34t-66.5 14q-62 0 -100.5 -38.5t-48.5 -93.5z" />
    <glyph glyph-name="notequal" unicode="&#x2260;" horiz-adv-x="1267" 
d="M1141 905l-25 -149h-303l-174 -277h426l-21 -149h-487l-111 -178h-155l110 178h-258l23 149h317l174 277h-440l23 149h499l105 166h155l-104 -166h246z" />
    <glyph glyph-name="lessequal" unicode="&#x2264;" horiz-adv-x="1245" 
d="M1018 319h-877l21 130h561l-526 176l22 151l907 178l-22 -141l-694 -131l630 -229z" />
    <glyph glyph-name="greaterequal" unicode="&#x2265;" horiz-adv-x="1247" 
d="M1024 319h-877l23 134l707 229l-644 131l21 141l844 -178l-23 -151l-590 -176h559z" />
    <glyph glyph-name="lozenge" unicode="&#x25ca;" horiz-adv-x="1386" 
d="M649 0h-108l-379 694l624 692h109l377 -692zM350 694l271 -495h8l454 495l-270 494h-8z" />
    <glyph glyph-name="A.ss01" horiz-adv-x="1830" 
d="M152 0h-220l1010 1597h315l445 -1597h-217q-135 512 -137 520h-867q-107 -176 -329 -520zM573 690h738q-125 438 -191 690h-98z" />
    <glyph glyph-name="Aacute.ss01" horiz-adv-x="1830" 
d="M1647 2056l-461 -336h-176l366 336h271zM152 0h-220l1010 1597h315l445 -1597h-217q-135 512 -137 520h-867q-107 -176 -329 -520zM573 690h738q-125 438 -191 690h-98z" />
    <glyph glyph-name="Abreve.ss01" horiz-adv-x="1830" 
d="M1118 1722q-101 0 -182 29t-130 76.5t-72 108t-15 124.5h170q-8 -79 61.5 -139.5t186.5 -60.5q119 0 211.5 60.5t113.5 139.5h170q-28 -135 -171 -236.5t-343 -101.5zM152 0h-220l1010 1597h315l445 -1597h-217q-135 512 -137 520h-867q-107 -176 -329 -520zM573 690h738
q-125 438 -191 690h-98z" />
    <glyph glyph-name="Acircumflex.ss01" horiz-adv-x="1830" 
d="M1286 2042l270 -322h-178q-166 149 -223 205q-19 -14 -49 -36.5t-46.5 -34t-45.5 -32t-66.5 -45t-89.5 -57.5h-180l381 322h227zM152 0h-220l1010 1597h315l445 -1597h-217q-135 512 -137 520h-867q-107 -176 -329 -520zM573 690h738q-125 438 -191 690h-98z" />
    <glyph glyph-name="Adieresis.ss01" horiz-adv-x="1830" 
d="M885 1772q-53 0 -88 30.5t-35 77.5q0 57 49 100t115 43q52 0 86.5 -30t34.5 -74q0 -59 -49 -103t-113 -44zM1374 1772q-55 0 -90 30.5t-35 75.5q0 59 49.5 102t114.5 43q52 0 86.5 -30.5t34.5 -75.5q0 -56 -48.5 -100.5t-111.5 -44.5zM152 0h-220l1010 1597h315
l445 -1597h-217q-135 512 -137 520h-867q-107 -176 -329 -520zM573 690h738q-125 438 -191 690h-98z" />
    <glyph glyph-name="Agrave.ss01" horiz-adv-x="1830" 
d="M1241 1720h-176l-346 336h272zM152 0h-220l1010 1597h315l445 -1597h-217q-135 512 -137 520h-867q-107 -176 -329 -520zM573 690h738q-125 438 -191 690h-98z" />
    <glyph glyph-name="Amacron.ss01" horiz-adv-x="1830" 
d="M1546 1810h-821l25 144h819zM152 0h-220l1010 1597h315l445 -1597h-217q-135 512 -137 520h-867q-107 -176 -329 -520zM573 690h738q-125 438 -191 690h-98z" />
    <glyph glyph-name="Aogonek.ss01" horiz-adv-x="1830" 
d="M1403 -215q0 -56 51.5 -91.5t132.5 -35.5q54 0 111 14l-21 -118q-69 -17 -129 -17q-128 0 -212.5 51.5t-84.5 147.5q0 47 22 89.5t59.5 75t75.5 56t83 43.5h-6q-135 512 -137 520h-867q-107 -176 -329 -520h-220l1010 1597h315l445 -1597h-51q-101 -30 -174.5 -88.5
t-73.5 -126.5zM573 690h738q-125 438 -191 690h-98z" />
    <glyph glyph-name="Aring.ss01" horiz-adv-x="1830" 
d="M1116 1714q-106 0 -174 55.5t-68 141.5q0 104 95 181t227 77q106 0 173 -54.5t67 -140.5q0 -103 -94 -181.5t-226 -78.5zM1135 1829q71 0 120.5 39t49.5 94q0 42 -37 68t-92 26q-71 0 -120.5 -39t-49.5 -94q0 -43 36 -68.5t93 -25.5zM152 0h-220l1010 1597h315l445 -1597
h-217q-135 512 -137 520h-867q-107 -176 -329 -520zM573 690h738q-125 438 -191 690h-98z" />
    <glyph glyph-name="Atilde.ss01" horiz-adv-x="1830" 
d="M1323 1743q-57 0 -95.5 16t-80.5 49l-47 35q-1 1 -10.5 7.5t-12 8t-11.5 7.5t-13 7.5t-13 5.5t-15.5 5t-15.5 2.5t-18 1.5q-54 0 -92.5 -36.5t-50.5 -92.5h-143q23 121 109.5 195t199.5 74q54 0 92 -17t76 -47l47 -35q59 -47 114 -47q52 0 88.5 36.5t47.5 94.5h143
q-22 -126 -101.5 -198t-197.5 -72zM152 0h-220l1010 1597h315l445 -1597h-217q-135 512 -137 520h-867q-107 -176 -329 -520zM573 690h738q-125 438 -191 690h-98z" />
    <glyph glyph-name="B.ss01" horiz-adv-x="1751" 
d="M926 0h-774l282 1597h703q253 0 394.5 -99t141.5 -259q0 -146 -114 -265t-293 -157v-4q168 -28 255 -112.5t87 -215.5q0 -130 -89 -241t-246.5 -177.5t-346.5 -66.5zM508 889h463q217 0 351 84.5t134 210.5q0 115 -110 177t-289 62h-447q-9 -47 -33.5 -182.5
t-42.5 -230.5t-26 -121zM381 174h514q224 0 360 87t136 214q0 118 -112 182t-296 64h-500q-13 -71 -34.5 -181t-67.5 -366z" />
    <glyph glyph-name="C.ss01" horiz-adv-x="2058" 
d="M991 -35q-253 0 -443 85.5t-293 243.5t-103 368q0 188 87 365t234.5 310t356.5 213t440 80q187 0 346.5 -53t274 -162.5t149.5 -261.5l-199 -70q-53 171 -214 270t-386 99q-182 0 -346 -65.5t-278 -173t-181 -247.5t-67 -286q0 -111 37 -202t99.5 -152t148 -103
t180.5 -61t198 -19q143 0 271 36.5t226.5 100.5t173 144.5t124.5 175.5l176 -61q-141 -265 -402 -419.5t-610 -154.5z" />
    <glyph glyph-name="D.ss01" horiz-adv-x="1972" 
d="M858 0h-706l282 1597h684q393 0 589 -170t196 -475q0 -147 -47 -287.5t-138 -260.5t-216 -210.5t-291.5 -142t-352.5 -51.5zM381 174h506q178 0 330.5 61t254 163.5t159 236t57.5 278.5q0 510 -644 510h-434q-23 -124 -56.5 -297t-68 -364t-104.5 -588z" />
    <glyph glyph-name="E.ss01" horiz-adv-x="1607" 
d="M1389 0h-1237l282 1597h1213l-27 -174h-1010q-8 -43 -20 -97t-29.5 -146.5t-48.5 -270.5h961l-27 -182h-961q-2 -13 -104 -549h1034z" />
    <glyph glyph-name="F.ss01" horiz-adv-x="1527" 
d="M1622 1597l-27 -180h-987l-96 -530h934l-27 -180h-938l-127 -707h-202l282 1597h1188z" />
    <glyph glyph-name="G.ss01" horiz-adv-x="2099" 
d="M985 -35q-384 0 -609.5 186.5t-225.5 503.5q0 189 87 367t234.5 312t356.5 215t440 81q188 0 347.5 -53.5t273.5 -163t147 -260.5l-195 -70q-54 172 -215 270.5t-385 98.5q-181 0 -344.5 -64.5t-278 -171t-182 -247t-67.5 -287.5q0 -252 178.5 -395.5t492.5 -143.5
q298 0 499 130.5t269 359.5h-651l25 160h846l-11 -60q-27 -154 -97 -281.5t-168.5 -216.5t-222.5 -150.5t-261 -90.5t-283 -29z" />
    <glyph glyph-name="H.ss01" horiz-adv-x="1986" 
d="M1591 891l125 706h205l-283 -1597h-204l127 711h-1082l-125 -711h-202l282 1597h203l-125 -706h1079z" />
    <glyph glyph-name="I.ss01" horiz-adv-x="1333" 
d="M1141 0h-1147l26 174h474l227 1249h-483l26 174h1172l-27 -174h-485l-228 -1249h471z" />
    <glyph glyph-name="Iacute.ss01" horiz-adv-x="1333" 
d="M1346 2054l-461 -334h-176l364 334h273zM1141 0h-1147l26 174h474l227 1249h-483l26 174h1172l-27 -174h-485l-228 -1249h471z" />
    <glyph glyph-name="Icircumflex.ss01" horiz-adv-x="1333" 
d="M1044 2042l271 -322h-178q-179 161 -224 205q-19 -14 -49 -36.5t-46.5 -34t-45.5 -32t-66.5 -45t-89.5 -57.5h-180l381 322h227zM1141 0h-1147l26 174h474l227 1249h-483l26 174h1172l-27 -174h-485l-228 -1249h471z" />
    <glyph glyph-name="Idieresis.ss01" horiz-adv-x="1333" 
d="M641 1772q-53 0 -88 30.5t-35 77.5q0 57 49 100t115 43q52 0 86.5 -30t34.5 -74q0 -59 -49 -103t-113 -44zM1130 1772q-55 0 -89.5 30.5t-34.5 75.5q0 59 49 102t114 43q52 0 86.5 -30.5t34.5 -75.5q0 -56 -48.5 -100.5t-111.5 -44.5zM1141 0h-1147l26 174h474l227 1249
h-483l26 174h1172l-27 -174h-485l-228 -1249h471z" />
    <glyph glyph-name="Idotaccent.ss01" horiz-adv-x="1333" 
d="M881 1776q-55 0 -91 32t-36 82q0 60 51.5 105t120.5 45q54 0 90.5 -32t36.5 -79q0 -60 -52.5 -106.5t-119.5 -46.5zM1141 0h-1147l26 174h474l227 1249h-483l26 174h1172l-27 -174h-485l-228 -1249h471z" />
    <glyph glyph-name="Igrave.ss01" horiz-adv-x="1333" 
d="M997 1720h-176l-346 336h273zM1141 0h-1147l26 174h474l227 1249h-483l26 174h1172l-27 -174h-485l-228 -1249h471z" />
    <glyph glyph-name="Imacron.ss01" horiz-adv-x="1333" 
d="M1303 1810h-822l25 144h819zM1141 0h-1147l26 174h474l227 1249h-483l26 174h1172l-27 -174h-485l-228 -1249h471z" />
    <glyph glyph-name="J.ss01" horiz-adv-x="1447" 
d="M559 -35q-75 0 -144 12t-134.5 38.5t-114 69t-83 102.5t-40.5 139t12 180l6 33l197 24l-6 -31q-15 -76 -11.5 -134.5t28 -102t57 -73t76.5 -47.5t86 -26t85 -8q174 0 288.5 105.5t144.5 273.5l165 903h-661l29 174h864l-182 -1036q-36 -189 -108 -308
q-172 -288 -554 -288z" />
    <glyph glyph-name="K.ss01" horiz-adv-x="1650" 
d="M354 0h-202l282 1597h203l-127 -696h6q115 77 323 217.5t383.5 258.5t329.5 220h269q-62 -43 -462.5 -317.5t-705.5 -491.5q156 -132 457.5 -391.5t462.5 -396.5h-283q-91 73 -156 130.5t-105.5 94.5t-179 147.5t-374.5 289.5z" />
    <glyph glyph-name="L.ss01" horiz-adv-x="1443" 
d="M637 1597l-252 -1419h958l-28 -178h-1163l282 1597h203z" />
    <glyph glyph-name="M.ss01" horiz-adv-x="2326" 
d="M2021 1597h240l-283 -1597h-204l229 1266l-797 -940h-164l-454 938l-230 -1264h-206l282 1597h242q219 -443 485 -1019h4q12 15 129.5 157t149 180t131.5 158t154.5 184.5t136.5 160.5t155 179z" />
    <glyph glyph-name="N.ss01" horiz-adv-x="2023" 
d="M354 0h-202l282 1597h273l759 -1259h54l233 1259h203l-283 -1597h-270l-760 1249h-59z" />
    <glyph glyph-name="O.ss01" horiz-adv-x="2166" 
d="M979 -35q-240 0 -429 89t-294.5 249.5t-105.5 364.5q0 148 57 292t162 264t243 211.5t309 143t351 51.5t334.5 -52.5t263 -145t170 -224t61.5 -284.5q0 -184 -91 -360t-242 -307.5t-359 -211.5t-430 -80zM1010 143q172 0 333.5 64t278.5 168.5t187.5 243.5t70.5 284
q0 158 -81 283t-226 195.5t-328 70.5q-170 0 -332 -63.5t-281 -168t-191 -244.5t-72 -286q0 -159 83 -284t229 -194t329 -69z" />
    <glyph glyph-name="P.ss01" horiz-adv-x="1640" 
d="M434 1597h682q29 0 54.5 -1t86 -9t109.5 -22t109 -44.5t101 -72t69 -108.5t28 -150q0 -112 -51.5 -216.5t-141.5 -184t-221.5 -127.5t-281.5 -48h-514l-109 -614h-202zM494 795h454q221 0 364.5 98t143.5 256q0 141 -108 207.5t-297 66.5h-445z" />
    <glyph glyph-name="Q.ss01" horiz-adv-x="2179" 
d="M791 -18l-259 -203v-2h1205l-27 -166h-1608l508 418q-216 77 -336 242.5t-120 392.5q0 124 39 245.5t109 228t172.5 197.5t225 156t271.5 102t307 37q249 0 437.5 -86.5t291 -245.5t102.5 -368q0 -187 -86 -362.5t-233.5 -308t-358.5 -212.5t-446 -80q-103 0 -194 15z
M367 686q0 -193 111.5 -327.5t305.5 -186.5l428 352l134 -108q-69 -54 -198.5 -155.5t-150.5 -117.5h19q183 0 347 64t279 169.5t182.5 244.5t67.5 286q0 247 -175 397t-464 150q-183 0 -349 -64.5t-283 -170.5t-185.5 -246t-68.5 -287z" />
    <glyph glyph-name="R.ss01" horiz-adv-x="1697" 
d="M977 621h-229l784 -621h-264l-789 621h-14l-111 -621h-202l282 1597h682q33 0 66 -2t91.5 -11t108 -24t105.5 -46t95 -72.5t65 -107t26 -146.5q0 -114 -52.5 -218t-143.5 -181t-221.5 -122.5t-278.5 -45.5zM1053 1438h-441l-120 -650h456q223 0 365.5 106t142.5 263
q0 135 -104.5 208t-298.5 73z" />
    <glyph glyph-name="S.ss01" horiz-adv-x="1583" 
d="M713 -35q-116 0 -220 27t-194.5 81t-151.5 147t-79 214l198 64q27 -180 156.5 -269.5t322.5 -89.5q204 0 346 92t142 222q0 37 -12 67.5t-37 53t-51 39t-67 31.5t-71 24t-76 21q-23 6 -34 9l-168 45q-43 11 -78 21.5t-84 29.5t-86.5 40t-77.5 52t-66.5 66t-43.5 82.5
t-17 100.5q0 130 90.5 243.5t253.5 182.5t359 69q248 0 399.5 -106.5t179.5 -272.5l-196 -71q-28 127 -137.5 201.5t-282.5 74.5q-189 0 -319 -82.5t-130 -197.5q0 -47 26 -88t60.5 -67t88.5 -50t88 -34.5t81 -23.5l183 -51q8 -2 24 -7q176 -47 256 -92q171 -96 172 -265
q0 -100 -57.5 -197t-155 -171t-238 -119.5t-296.5 -45.5z" />
    <glyph glyph-name="U.ss01" horiz-adv-x="1869" 
d="M799 -35q-113 0 -206.5 24t-158.5 67.5t-113 102.5t-69.5 129t-28.5 148t10 158l181 1003h202l-178 -991q-39 -211 65.5 -338t338.5 -127t387.5 128t191.5 337l178 991h205l-282 -1597h-199l35 184h-2q-99 -113 -235 -166t-322 -53z" />
    <glyph glyph-name="Uacute.ss01" horiz-adv-x="1869" 
d="M1430 2054l-461 -334h-176l364 334h273zM799 -35q-113 0 -206.5 24t-158.5 67.5t-113 102.5t-69.5 129t-28.5 148t10 158l181 1003h202l-178 -991q-39 -211 65.5 -338t338.5 -127t387.5 128t191.5 337l178 991h205l-282 -1597h-199l35 184h-2q-99 -113 -235 -166
t-322 -53z" />
    <glyph glyph-name="Ucircumflex.ss01" horiz-adv-x="1869" 
d="M1292 2042l271 -322h-179q-166 149 -223 205q-19 -14 -49 -36.5t-46.5 -34t-45.5 -32t-66.5 -45t-89.5 -57.5h-180l381 322h227zM799 -35q-113 0 -206.5 24t-158.5 67.5t-113 102.5t-69.5 129t-28.5 148t10 158l181 1003h202l-178 -991q-39 -211 65.5 -338t338.5 -127
t387.5 128t191.5 337l178 991h205l-282 -1597h-199l35 184h-2q-99 -113 -235 -166t-322 -53z" />
    <glyph glyph-name="Udieresis.ss01" horiz-adv-x="1869" 
d="M889 1772q-53 0 -88 30.5t-35 77.5q0 57 49 100t115 43q52 0 86.5 -30t34.5 -74q0 -59 -49 -103t-113 -44zM1378 1772q-55 0 -90 30.5t-35 75.5q0 59 49.5 102t114.5 43q52 0 86.5 -30.5t34.5 -75.5q0 -56 -48.5 -100.5t-111.5 -44.5zM799 -35q-113 0 -206.5 24
t-158.5 67.5t-113 102.5t-69.5 129t-28.5 148t10 158l181 1003h202l-178 -991q-39 -211 65.5 -338t338.5 -127t387.5 128t191.5 337l178 991h205l-282 -1597h-199l35 184h-2q-99 -113 -235 -166t-322 -53z" />
    <glyph glyph-name="Ugrave.ss01" horiz-adv-x="1869" 
d="M1245 1720h-176l-346 336h272zM799 -35q-113 0 -206.5 24t-158.5 67.5t-113 102.5t-69.5 129t-28.5 148t10 158l181 1003h202l-178 -991q-39 -211 65.5 -338t338.5 -127t387.5 128t191.5 337l178 991h205l-282 -1597h-199l35 184h-2q-99 -113 -235 -166t-322 -53z" />
    <glyph glyph-name="Uhungarumlaut.ss01" horiz-adv-x="1869" 
d="M1362 2054l-397 -334h-172l313 334h256zM1776 2054l-414 -334h-174l332 334h256zM799 -35q-113 0 -206.5 24t-158.5 67.5t-113 102.5t-69.5 129t-28.5 148t10 158l181 1003h202l-178 -991q-39 -211 65.5 -338t338.5 -127t387.5 128t191.5 337l178 991h205l-282 -1597
h-199l35 184h-2q-99 -113 -235 -166t-322 -53z" />
    <glyph glyph-name="Umacron.ss01" horiz-adv-x="1869" 
d="M1550 1810h-821l25 144h819zM799 -35q-113 0 -206.5 24t-158.5 67.5t-113 102.5t-69.5 129t-28.5 148t10 158l181 1003h202l-178 -991q-39 -211 65.5 -338t338.5 -127t387.5 128t191.5 337l178 991h205l-282 -1597h-199l35 184h-2q-99 -113 -235 -166t-322 -53z" />
    <glyph glyph-name="Uogonek.ss01" horiz-adv-x="1869" 
d="M1253 -215q0 -56 51.5 -91.5t133.5 -35.5q53 0 110 14l-20 -118q-69 -17 -129 -17q-128 0 -212.5 51.5t-84.5 147.5q0 47 21.5 89.5t59 75t75.5 56t83 43.5h-18l35 184h-2q-99 -113 -235 -166t-322 -53q-113 0 -206.5 24t-158.5 67.5t-113 102.5t-69.5 129t-28.5 148
t10 158l181 1003h202l-178 -991q-39 -211 65.5 -338t338.5 -127t387.5 128t191.5 337l178 991h205l-282 -1597h-21q-101 -30 -174.5 -88.5t-73.5 -126.5z" />
    <glyph glyph-name="Uring.ss01" horiz-adv-x="1869" 
d="M1120 1714q-106 0 -173.5 55.5t-67.5 141.5q0 104 94.5 181t226.5 77q106 0 173 -54.5t67 -140.5q0 -103 -94 -181.5t-226 -78.5zM1139 1829q71 0 120.5 39t49.5 94q0 42 -37 68t-92 26q-71 0 -120.5 -39t-49.5 -94q0 -43 36 -68.5t93 -25.5zM799 -35q-113 0 -206.5 24
t-158.5 67.5t-113 102.5t-69.5 129t-28.5 148t10 158l181 1003h202l-178 -991q-39 -211 65.5 -338t338.5 -127t387.5 128t191.5 337l178 991h205l-282 -1597h-199l35 184h-2q-99 -113 -235 -166t-322 -53z" />
    <glyph glyph-name="V.ss01" horiz-adv-x="1828" 
d="M969 0h-312l-444 1597h215q23 -82 108.5 -409t270.5 -950h94q166 260 472 740.5t394 618.5h215z" />
    <glyph glyph-name="W.ss01" horiz-adv-x="2797" 
d="M801 0h-254l-324 1597h223l267 -1339h6l694 1339h356l197 -1339h6l748 1339h223l-891 -1597h-250l-192 1370h-103z" />
    <glyph glyph-name="Wacute.ss01" horiz-adv-x="2797" 
d="M2134 2056l-461 -336h-176l367 336h270zM801 0h-254l-324 1597h223l267 -1339h6l694 1339h356l197 -1339h6l748 1339h223l-891 -1597h-250l-192 1370h-103z" />
    <glyph glyph-name="Wcircumflex.ss01" horiz-adv-x="2797" 
d="M1774 2042l270 -322h-178q-179 161 -224 205q-19 -14 -59 -44t-59.5 -43.5t-66.5 -45t-111 -72.5h-181l381 322h228zM801 0h-254l-324 1597h223l267 -1339h6l694 1339h356l197 -1339h6l748 1339h223l-891 -1597h-250l-192 1370h-103z" />
    <glyph glyph-name="Wdieresis.ss01" horiz-adv-x="2797" 
d="M1372 1772q-53 0 -88 30.5t-35 77.5q0 57 49 100t115 43q52 0 86.5 -30t34.5 -74q0 -59 -49 -103t-113 -44zM1862 1772q-55 0 -90 30.5t-35 75.5q0 59 49.5 102t114.5 43q52 0 86 -30.5t34 -75.5q0 -56 -48 -100.5t-111 -44.5zM801 0h-254l-324 1597h223l267 -1339h6
l694 1339h356l197 -1339h6l748 1339h223l-891 -1597h-250l-192 1370h-103z" />
    <glyph glyph-name="Wgrave.ss01" horiz-adv-x="2797" 
d="M1729 1720h-177l-346 336h273zM801 0h-254l-324 1597h223l267 -1339h6l694 1339h356l197 -1339h6l748 1339h223l-891 -1597h-250l-192 1370h-103z" />
    <glyph glyph-name="X.ss01" horiz-adv-x="1701" 
d="M156 0h-230l789 811l2 18l-494 768h228q183 -287 419 -673h88q53 53 250 259t416 414h221l-762 -768l-2 -18l496 -811h-223q-389 624 -428 707h-88q-69 -70 -247.5 -263t-434.5 -444z" />
    <glyph glyph-name="Y.ss01" horiz-adv-x="1683" 
d="M463 0h-213l518 586l-532 1011h221l440 -825h4l750 825h219z" />
    <glyph glyph-name="Yacute.ss01" horiz-adv-x="1683" 
d="M1538 2054l-461 -334h-176l367 334h270zM463 0h-213l518 586l-532 1011h221l440 -825h4l750 825h219z" />
    <glyph glyph-name="Ycircumflex.ss01" horiz-adv-x="1683" 
d="M1243 2042l270 -322h-178q-166 149 -223 205q-19 -14 -49 -36.5t-46.5 -34t-45.5 -32t-66.5 -45t-89.5 -57.5h-180l381 322h227zM463 0h-213l518 586l-532 1011h221l440 -825h4l750 825h219z" />
    <glyph glyph-name="Ydieresis.ss01" horiz-adv-x="1683" 
d="M840 1772q-53 0 -88 30.5t-35 77.5q0 57 49 100t115 43q52 0 86 -29.5t34 -74.5q0 -59 -48.5 -103t-112.5 -44zM1329 1772q-55 0 -90 30.5t-35 75.5q0 59 49.5 102t114.5 43q52 0 86.5 -30.5t34.5 -75.5q0 -56 -48.5 -100.5t-111.5 -44.5zM463 0h-213l518 586l-532 1011
h221l440 -825h4l750 825h219z" />
    <glyph glyph-name="Ygrave.ss01" horiz-adv-x="1683" 
d="M1196 1720h-176l-346 336h272zM463 0h-213l518 586l-532 1011h221l440 -825h4l750 825h219z" />
    <glyph glyph-name="Z.ss01" horiz-adv-x="1679" 
d="M1481 0h-1581l1540 1423h-1133l29 174h1499l-1530 -1419h1204z" />
    <glyph glyph-name="Zacute.ss01" horiz-adv-x="1679" 
d="M1567 2056l-461 -336h-176l366 336h271zM1481 0h-1581l1540 1423h-1133l29 174h1499l-1530 -1419h1204z" />
    <glyph glyph-name="Zcaron.ss01" horiz-adv-x="1679" 
d="M1350 2042h180l-381 -322h-229l-269 322h178q128 -109 226 -207q28 21 76 56t71.5 51.5t63.5 44t84 55.5zM1481 0h-1581l1540 1423h-1133l29 174h1499l-1530 -1419h1204z" />
    <glyph glyph-name="Zdotaccent.ss01" horiz-adv-x="1679" 
d="M1053 1776q-55 0 -91 32t-36 82q0 60 51.5 105t120.5 45q54 0 90.5 -32t36.5 -79q0 -60 -52.5 -106.5t-119.5 -46.5zM1481 0h-1581l1540 1423h-1133l29 174h1499l-1530 -1419h1204z" />
    <glyph glyph-name="Q.ss02" horiz-adv-x="2166" 
d="M2101 924q0 -174 -81 -341t-217 -295.5t-324 -214.5t-394 -104l-34 -192h649l-25 -166h-844l62 356q-330 25 -536.5 218t-206.5 483q0 148 57 292t162 264t243 211.5t309 143t351 51.5t334.5 -52.5t263 -145t170 -224t61.5 -284.5zM369 690q0 -220 154.5 -369t400.5 -174
l80 455h192l-80 -452q155 19 297 88.5t244 171t162.5 231t60.5 262.5q0 158 -81 283t-226 195.5t-328 70.5q-170 0 -332 -63.5t-281 -168t-191 -244.5t-72 -286z" />
    <glyph glyph-name="A.ss07" 
d="M1094 -315q-216 0 -398.5 58t-310.5 160.5t-200 249.5t-72 320q0 165 65 325t186 294t280.5 236.5t360.5 160t414 57.5q163 0 310.5 -34t270 -101.5t212.5 -162t140 -221.5t50 -273q0 -140 -47 -276t-131 -253.5t-204.5 -217.5t-263.5 -171t-313.5 -111t-348.5 -40z
M1247 1096l-633 -963h148q27 38 60.5 87t77.5 114.5t73 107.5h471q9 -30 17 -60t24.5 -83t54.5 -166h150l-293 963h-150zM1411 559h-371q22 33 53 80.5t49.5 75.5t58.5 85t95 134q82 -279 115 -375z" />
    <glyph glyph-name="B.ss07" horiz-adv-x="2459" 
d="M1094 -315q-216 0 -398.5 58t-310.5 160.5t-200 249.5t-72 320q0 165 65 325t186 294t280.5 236.5t360.5 160t414 57.5q163 0 310.5 -34t270 -101.5t212.5 -162t140 -221.5t50 -273q0 -140 -47 -276t-131 -253.5t-204.5 -217.5t-263.5 -171t-313.5 -111t-348.5 -40z
M946 1096l-170 -963h469q175 0 294.5 88t119.5 211q0 72 -44.5 122.5t-129.5 70.5q97 29 158 100t61 154q0 98 -91 157.5t-239 59.5h-428zM1012 676l55 301h256q100 0 163.5 -35t63.5 -100q0 -71 -76 -118.5t-198 -47.5h-264zM1233 252h-297q44 246 57 309h287
q100 0 165.5 -36t65.5 -103q0 -73 -77.5 -121.5t-200.5 -48.5z" />
    <glyph glyph-name="C.ss07" 
d="M1094 -315q-216 0 -398.5 58t-310.5 160.5t-200 249.5t-72 320q0 165 65 325t186 294t280.5 236.5t360.5 160t414 57.5q163 0 310.5 -34t270 -101.5t212.5 -162t140 -221.5t50 -273q0 -140 -47 -276t-131 -253.5t-204.5 -217.5t-263.5 -171t-313.5 -111t-348.5 -40z
M1184 113q202 0 363.5 93t248.5 261l-121 41q-61 -120 -181.5 -196t-285.5 -76q-75 0 -142 17.5t-122.5 53.5t-88 97t-32.5 141q0 115 66 217.5t184.5 166.5t259.5 64q134 0 226 -59.5t120 -159.5l138 47q-20 95 -91.5 163t-168 100t-207.5 32q-184 0 -340 -82t-245 -216.5
t-89 -287.5q0 -190 138 -303.5t370 -113.5z" />
    <glyph glyph-name="D.ss07" 
d="M1094 -315q-216 0 -398.5 58t-310.5 160.5t-200 249.5t-72 320q0 165 65 325t186 294t280.5 236.5t360.5 160t414 57.5q163 0 310.5 -34t270 -101.5t212.5 -162t140 -221.5t50 -273q0 -140 -47 -276t-131 -253.5t-204.5 -217.5t-263.5 -171t-313.5 -111t-348.5 -40z
M903 1096l-170 -963h428q141 0 261.5 48.5t200 129t124.5 184t45 214.5q0 187 -123 287t-352 100h-414zM1182 252h-291q18 90 43.5 244t89.5 481h246q372 0 372 -297q0 -179 -131.5 -303.5t-328.5 -124.5z" />
    <glyph glyph-name="E.ss07" 
d="M1094 -315q-216 0 -398.5 58t-310.5 160.5t-200 249.5t-72 320q0 165 65 325t186 294t280.5 236.5t360.5 160t414 57.5q163 0 310.5 -34t270 -101.5t212.5 -162t140 -221.5t50 -273q0 -140 -47 -276t-131 -253.5t-204.5 -217.5t-263.5 -171t-313.5 -111t-348.5 -40z
M971 1096l-170 -963h751l19 123h-610q37 194 57 309h571l19 123h-570q4 22 15 84t39 205h600l18 119h-739z" />
    <glyph glyph-name="F.ss07" horiz-adv-x="2459" 
d="M1094 -315q-216 0 -398.5 58t-310.5 160.5t-200 249.5t-72 320q0 165 65 325t186 294t280.5 236.5t360.5 160t414 57.5q163 0 310.5 -34t270 -101.5t212.5 -162t140 -221.5t50 -273q0 -140 -47 -276t-131 -253.5t-204.5 -217.5t-263.5 -171t-313.5 -111t-348.5 -40z
M995 1096l-170 -963h142l73 420h555l21 123h-557l57 297h586l20 123h-727z" />
    <glyph glyph-name="G.ss07" 
d="M1094 -315q-216 0 -398.5 58t-310.5 160.5t-200 249.5t-72 320q0 165 65 325t186 294t280.5 236.5t360.5 160t414 57.5q163 0 310.5 -34t270 -101.5t212.5 -162t140 -221.5t50 -273q0 -140 -47 -276t-131 -253.5t-204.5 -217.5t-263.5 -171t-313.5 -111t-348.5 -40z
M1167 113q147 0 268.5 51.5t202.5 150.5l-28 -182h114l86 488h-522l-18 -113h381q-40 -121 -163.5 -196.5t-281.5 -75.5q-73 0 -139.5 18t-122 53.5t-88.5 97.5t-33 142q0 115 66 217t184.5 165.5t259.5 63.5q132 0 224.5 -58t121.5 -161l138 47q-20 95 -91.5 163t-168 100
t-207.5 32q-138 0 -264 -49t-215 -129.5t-142 -188t-53 -221.5q0 -189 134 -302t357 -113z" />
    <glyph glyph-name="H.ss07" 
d="M1094 -315q-216 0 -398.5 58t-310.5 160.5t-200 249.5t-72 320q0 165 65 325t186 294t280.5 236.5t360.5 160t414 57.5q163 0 310.5 -34t270 -101.5t212.5 -162t140 -221.5t50 -273q0 -140 -47 -276t-131 -253.5t-204.5 -217.5t-263.5 -171t-313.5 -111t-348.5 -40z
M870 1096l-170 -963h142l76 422h620l-76 -422h142l170 963h-142l-73 -418h-623l76 418h-142z" />
    <glyph glyph-name="I.ss07" 
d="M1094 -315q-216 0 -398.5 58t-310.5 160.5t-200 249.5t-72 320q0 165 65 325t186 294t280.5 236.5t360.5 160t414 57.5q163 0 310.5 -34t270 -101.5t212.5 -162t140 -221.5t50 -273q0 -140 -47 -276t-131 -253.5t-204.5 -217.5t-263.5 -171t-313.5 -111t-348.5 -40z
M1253 1096l-170 -963h142l170 963h-142z" />
    <glyph glyph-name="J.ss07" 
d="M1094 -315q-216 0 -398.5 58t-310.5 160.5t-200 249.5t-72 320q0 165 65 325t186 294t280.5 236.5t360.5 160t414 57.5q163 0 310.5 -34t270 -101.5t212.5 -162t140 -221.5t50 -273q0 -140 -47 -276t-131 -253.5t-204.5 -217.5t-263.5 -171t-313.5 -111t-348.5 -40z
M1110 123q70 0 128 16.5t97.5 41t71.5 62.5t49.5 70.5t31.5 76.5t19.5 69.5t10.5 58.5l104 588h-139l-109 -614q-40 -248 -248 -248q-43 0 -80.5 11t-69 34.5t-44 68t-0.5 103.5l6 33l-137 -15l-6 -37q-15 -83 5.5 -146.5t68 -100t109 -54.5t132.5 -18z" />
    <glyph glyph-name="K.ss07" horiz-adv-x="2459" 
d="M1094 -315q-216 0 -398.5 58t-310.5 160.5t-200 249.5t-72 320q0 165 65 325t186 294t280.5 236.5t360.5 160t414 57.5q163 0 310.5 -34t270 -101.5t212.5 -162t140 -221.5t50 -273q0 -140 -47 -276t-131 -253.5t-204.5 -217.5t-263.5 -171t-313.5 -111t-348.5 -40z
M946 1096l-170 -963h142q2 11 59 322q16 12 158 120q36 -46 80 -106t102 -135t160 -201h172q-42 57 -110 141.5t-136 176.5t-154 223q403 313 547 422h-174q-44 -33 -157 -116.5t-175.5 -130.5t-147 -112t-141.5 -112l86 471h-141z" />
    <glyph glyph-name="L.ss07" 
d="M1094 -315q-216 0 -398.5 58t-310.5 160.5t-200 249.5t-72 320q0 165 65 325t186 294t280.5 236.5t360.5 160t414 57.5q163 0 310.5 -34t270 -101.5t212.5 -162t140 -221.5t50 -273q0 -140 -47 -276t-131 -253.5t-204.5 -217.5t-263.5 -171t-313.5 -111t-348.5 -40z
M1063 1096l-170 -963h711l18 123h-569l151 840h-141z" />
    <glyph glyph-name="M.ss07" horiz-adv-x="2459" 
d="M1094 -315q-216 0 -398.5 58t-310.5 160.5t-200 249.5t-72 320q0 165 65 325t186 294t280.5 236.5t360.5 160t414 57.5q163 0 310.5 -34t270 -101.5t212.5 -162t140 -221.5t50 -273q0 -140 -47 -276t-131 -253.5t-204.5 -217.5t-263.5 -171t-313.5 -111t-348.5 -40z
M727 1096l-170 -963h139l131 705q49 -134 145 -378.5t126 -326.5h110q28 38 99.5 136t106.5 145.5t121.5 161.5t201.5 264l-129 -707h141l170 963h-164q-99 -136 -293 -396.5t-280 -377.5q-128 346 -293 774h-162z" />
    <glyph glyph-name="N.ss07" 
d="M1094 -315q-216 0 -398.5 58t-310.5 160.5t-200 249.5t-72 320q0 165 65 325t186 294t280.5 236.5t360.5 160t414 57.5q163 0 310.5 -34t270 -101.5t212.5 -162t140 -221.5t50 -273q0 -140 -47 -276t-131 -253.5t-204.5 -217.5t-263.5 -171t-313.5 -111t-348.5 -40z
M874 1096l-169 -963h143l131 735q91 -139 262.5 -385t241.5 -350h145l170 963h-139l-137 -744q-152 235 -500 744h-148z" />
    <glyph glyph-name="O.ss07" 
d="M1094 -315q-216 0 -398.5 58t-310.5 160.5t-200 249.5t-72 320q0 165 65 325t186 294t280.5 236.5t360.5 160t414 57.5q163 0 310.5 -34t270 -101.5t212.5 -162t140 -221.5t50 -273q0 -140 -47 -276t-131 -253.5t-204.5 -217.5t-263.5 -171t-313.5 -111t-348.5 -40z
M1151 113q135 0 261 48.5t217 127.5t145.5 185t54.5 216q0 186 -141 306t-359 120q-134 0 -259 -48t-216 -127t-146 -185.5t-55 -218.5q0 -126 65 -223t178 -149t255 -52zM803 553q0 113 69.5 214.5t187.5 163.5t251 62q161 0 264.5 -89.5t103.5 -227.5q0 -113 -69.5 -214.5
t-187.5 -163.5t-251 -62q-161 0 -264.5 89.5t-103.5 227.5z" />
    <glyph glyph-name="P.ss07" 
d="M1094 -315q-216 0 -398.5 58t-310.5 160.5t-200 249.5t-72 320q0 165 65 325t186 294t280.5 236.5t360.5 160t414 57.5q163 0 310.5 -34t270 -101.5t212.5 -162t140 -221.5t50 -273q0 -140 -47 -276t-131 -253.5t-204.5 -217.5t-263.5 -171t-313.5 -111t-348.5 -40z
M975 1096l-170 -963h141l66 365h295q181 0 302.5 104.5t121.5 245.5q0 67 -29.5 117.5t-79.5 77.5t-108 40t-123 13h-416zM1290 621h-260l66 356h254q229 0 229 -156q0 -93 -84.5 -146.5t-204.5 -53.5z" />
    <glyph glyph-name="Q.ss07" horiz-adv-x="2455" 
d="M1094 -315q-216 0 -398.5 58t-310.5 160.5t-200 249.5t-72 320q0 165 65 325t186 294t280.5 236.5t360.5 160t414 57.5q163 0 310.5 -34t270 -101.5t212.5 -162t140 -221.5t50 -273q0 -140 -47 -276t-131 -253.5t-204.5 -217.5t-263.5 -171t-313.5 -111t-348.5 -40z
M1581 61l113 78l-129 152q122 80 194 202t72 252q0 183 -141.5 301.5t-362.5 118.5q-135 0 -261 -48t-217 -126.5t-145.5 -184.5t-54.5 -218q0 -190 141.5 -308t360.5 -118q153 0 293 59q74 -83 137 -160zM797 604q0 114 70 215.5t190 163t256 61.5q163 0 266.5 -88.5
t103.5 -226.5q0 -97 -52.5 -187.5t-143.5 -152.5q-15 17 -62.5 70.5t-109.5 126.5l-111 -78q21 -22 58.5 -65.5t66.5 -77.5t35 -39q-90 -41 -195 -41q-160 0 -266 86.5t-106 232.5z" />
    <glyph glyph-name="R.ss07" 
d="M1094 -315q-216 0 -398.5 58t-310.5 160.5t-200 249.5t-72 320q0 165 65 325t186 294t280.5 236.5t360.5 160t414 57.5q163 0 310.5 -34t270 -101.5t212.5 -162t140 -221.5t50 -273q0 -140 -47 -276t-131 -253.5t-204.5 -217.5t-263.5 -171t-313.5 -111t-348.5 -40z
M979 1096l-170 -963h141q7 39 19 108.5t47 258.5h225l232 -367h159q-29 46 -107.5 168.5t-129.5 208.5q145 20 241.5 115t96.5 219q0 69 -30 120t-80.5 78.5t-107 40.5t-120.5 13h-416zM1294 616h-262q12 58 39 202t31 159h252q105 0 167 -39t62 -119q0 -89 -80 -146
t-209 -57z" />
    <glyph glyph-name="S.ss07" 
d="M1094 -315q-216 0 -398.5 58t-310.5 160.5t-200 249.5t-72 320q0 165 65 325t186 294t280.5 236.5t360.5 160t414 57.5q163 0 310.5 -34t270 -101.5t212.5 -162t140 -221.5t50 -273q0 -140 -47 -276t-131 -253.5t-204.5 -217.5t-263.5 -171t-313.5 -111t-348.5 -40z
M1171 113q188 0 322.5 98t134.5 227q0 42 -18 77t-38.5 55t-64.5 39.5t-65 26t-71 20.5l-21 6l-105 30q-21 6 -30 8.5t-34 10.5t-38 15t-33.5 19t-31 25t-19 30.5t-8.5 37.5q0 64 71 110.5t178 46.5q98 0 163 -44.5t79 -121.5l135 50q-12 104 -107 170.5t-245 66.5
q-180 0 -305 -90.5t-125 -212.5q0 -173 276 -242l101 -26q6 -2 31 -8t32.5 -8.5t29 -9t29.5 -11t24 -12.5t22.5 -16t15 -18.5t11.5 -23.5t3 -28q0 -72 -80 -124.5t-198 -52.5q-116 0 -190 57t-87 159l-135 -43q10 -76 47 -134t92.5 -92t119 -50.5t132.5 -16.5z" />
    <glyph glyph-name="T.ss07" 
d="M1094 -315q-216 0 -398.5 58t-310.5 160.5t-200 249.5t-72 320q0 165 65 325t186 294t280.5 236.5t360.5 160t414 57.5q163 0 310.5 -34t270 -101.5t212.5 -162t140 -221.5t50 -273q0 -140 -47 -276t-131 -253.5t-204.5 -217.5t-263.5 -171t-313.5 -111t-348.5 -40z
M1233 977l-152 -844h142q50 286 149 844h381l19 119h-902l-20 -119h383z" />
    <glyph glyph-name="U.ss07" 
d="M1094 -315q-216 0 -398.5 58t-310.5 160.5t-200 249.5t-72 320q0 165 65 325t186 294t280.5 236.5t360.5 160t414 57.5q163 0 310.5 -34t270 -101.5t212.5 -162t140 -221.5t50 -273q0 -140 -47 -276t-131 -253.5t-204.5 -217.5t-263.5 -171t-313.5 -111t-348.5 -40z
M1147 123q113 0 204 33t148.5 89t91.5 121t47 138l107 602h-141l-107 -594q-21 -126 -102.5 -197t-225.5 -71t-199.5 73.5t-33.5 194.5l106 594h-141l-106 -602q-9 -62 -7 -118t26.5 -104t65 -83.5t109 -55.5t158.5 -20z" />
    <glyph glyph-name="V.ss07" 
d="M1094 -315q-216 0 -398.5 58t-310.5 160.5t-200 249.5t-72 320q0 165 65 325t186 294t280.5 236.5t360.5 160t414 57.5q163 0 310.5 -34t270 -101.5t212.5 -162t140 -221.5t50 -273q0 -140 -47 -276t-131 -253.5t-204.5 -217.5t-263.5 -171t-313.5 -111t-348.5 -40z
M793 1096l292 -963h150l631 963h-148q-46 -64 -85 -122.5t-77 -118t-137.5 -211.5t-230.5 -349q-23 76 -76.5 256t-95 314t-76.5 231h-147z" />
    <glyph glyph-name="W.ss07" 
d="M1094 -315q-216 0 -398.5 58t-310.5 160.5t-200 249.5t-72 320q0 165 65 325t186 294t280.5 236.5t360.5 160t414 57.5q163 0 310.5 -34t270 -101.5t212.5 -162t140 -221.5t50 -273q0 -140 -47 -276t-131 -253.5t-204.5 -217.5t-263.5 -171t-313.5 -111t-348.5 -40z
M504 1096l196 -963h160q147 244 432 762q62 -348 154 -762h160l536 963h-151q-14 -24 -146.5 -263.5t-290.5 -513.5q-17 87 -49 243.5t-58 287.5t-48 246h-152q-46 -81 -177 -319t-259 -458q-85 453 -156 777h-151z" />
    <glyph glyph-name="X.ss07" 
d="M1094 -315q-216 0 -398.5 58t-310.5 160.5t-200 249.5t-72 320q0 165 65 325t186 294t280.5 236.5t360.5 160t414 57.5q163 0 310.5 -34t270 -101.5t212.5 -162t140 -221.5t50 -273q0 -140 -47 -276t-131 -253.5t-204.5 -217.5t-263.5 -171t-313.5 -111t-348.5 -40z
M676 133h166q59 58 192.5 191t194.5 194q21 -33 106.5 -171.5t134.5 -213.5h164q-53 81 -153.5 245t-153.5 245q390 394 469 473h-162q-69 -66 -377 -369q-37 56 -116.5 180t-122.5 189h-164q38 -60 146 -223t159 -250q-157 -155 -483 -490z" />
    <glyph glyph-name="Y.ss07" 
d="M1094 -315q-216 0 -398.5 58t-310.5 160.5t-200 249.5t-72 320q0 165 65 325t186 294t280.5 236.5t360.5 160t414 57.5q163 0 310.5 -34t270 -101.5t212.5 -162t140 -221.5t50 -273q0 -140 -47 -276t-131 -253.5t-204.5 -217.5t-263.5 -171t-313.5 -111t-348.5 -40z
M1143 479l-62 -346h142q55 313 61 348q103 120 297 342t238 273h-152q-49 -54 -434 -490q-28 55 -55.5 110.5t-68 132t-132.5 247.5h-152q33 -63 81 -157.5t103 -201.5t134 -258z" />
    <glyph glyph-name="Z.ss07" 
d="M1094 -315q-216 0 -398.5 58t-310.5 160.5t-200 249.5t-72 320q0 165 65 325t186 294t280.5 236.5t360.5 160t414 57.5q163 0 310.5 -34t270 -101.5t212.5 -162t140 -221.5t50 -273q0 -140 -47 -276t-131 -253.5t-204.5 -217.5t-263.5 -171t-313.5 -111t-348.5 -40z
M739 252l-20 -119h893l16 123h-717l838 723l20 117h-851l-19 -119h672q-238 -205 -832 -725z" />
    <glyph glyph-name="A.ss08" 
d="M1419 1546q163 0 310.5 -34t270 -101.5t212.5 -162t140 -221.5t50 -273q0 -140 -47 -276t-131 -253.5t-204.5 -217.5t-263.5 -171t-313.5 -111t-348.5 -40q-216 0 -398.5 58t-310.5 160.5t-200 249.5t-72 320q0 165 65 325t186 294t280.5 236.5t360.5 160t414 57.5z
M1110 -207q189 0 367.5 49.5t321.5 138t251.5 205.5t167.5 259t59 290q0 161 -67.5 294t-185.5 222t-278.5 138t-344.5 49q-189 0 -368 -50.5t-321 -141t-249.5 -208.5t-166 -259t-58.5 -287q0 -205 110 -364t308.5 -247t453.5 -88zM809 285l440 659h101l204 -659h-106
q-7 28 -68 213h-323q-33 -47 -146 -213h-102zM1108 580h250q-58 172 -78 251q-18 -27 -78.5 -113.5t-93.5 -137.5z" />
    <glyph glyph-name="B.ss08" horiz-adv-x="2459" 
d="M1421 1546q163 0 310.5 -34t270 -101.5t212.5 -162t140 -221.5t50 -273q0 -140 -47 -276t-131 -253.5t-204.5 -217.5t-263.5 -171t-313.5 -111t-348.5 -40q-216 0 -398.5 58t-310.5 160.5t-200 249.5t-72 320q0 165 65 325t186 294t280.5 236.5t360.5 160t414 57.5z
M1112 -207q189 0 367.5 49.5t321.5 138t251.5 205.5t167.5 259t59 290q0 161 -67.5 294t-185.5 222t-278.5 138t-344.5 49q-189 0 -368 -50.5t-321 -141t-249.5 -208.5t-166 -259t-58.5 -287q0 -205 110 -364t308.5 -247t453.5 -88zM1552 795q0 -55 -40 -102.5t-105 -69.5
q56 -17 87.5 -52t31.5 -82q0 -83 -84 -143.5t-205 -60.5h-326l119 659h293q103 0 166 -41t63 -108zM1257 657q82 0 136.5 32t54.5 81q0 41 -44 65.5t-116 24.5h-174q-21 -115 -39 -203h182zM1229 369q80 0 135 31t55 83q0 44 -43 69.5t-114 25.5h-199q-7 -39 -39 -209h205z
" />
    <glyph glyph-name="C.ss08" 
d="M1094 -315q-216 0 -398.5 58t-310.5 160.5t-200 249.5t-72 320q0 165 65 325t186 294t280.5 236.5t360.5 160t414 57.5q163 0 310.5 -34t270 -101.5t212.5 -162t140 -221.5t50 -273q0 -140 -47 -276t-131 -253.5t-204.5 -217.5t-263.5 -171t-313.5 -111t-348.5 -40z
M1110 -207q189 0 367.5 49.5t321.5 138t251.5 205.5t167.5 259t59 290q0 161 -67.5 294t-185.5 222t-278.5 138t-344.5 49q-189 0 -368 -50.5t-321 -141t-249.5 -208.5t-166 -259t-58.5 -287q0 -205 110 -364t308.5 -247t453.5 -88zM1196 272q-157 0 -252.5 78.5
t-95.5 208.5q0 157 136 277t331 120q128 0 216 -55t105 -147l-94 -33q-20 71 -84.5 111t-157.5 40q-145 0 -246.5 -92t-101.5 -213q0 -72 39 -121.5t96.5 -69.5t129.5 -20q106 0 191.5 50t129.5 139l86 -31q-59 -114 -171 -178t-257 -64z" />
    <glyph glyph-name="D.ss08" 
d="M1094 -315q-215 0 -397.5 58t-310 160.5t-199.5 249.5t-72 320q0 165 65 325t186 294t280 236.5t359.5 160t413.5 57.5q163 0 311.5 -34t271 -101.5t212.5 -162t140 -221.5t50 -273q0 -140 -47 -276t-131 -253.5t-205 -217.5t-264 -171t-314 -111t-349 -40zM1112 -207
q189 0 367.5 49.5t321 138t250.5 205.5t167 259t59 290q0 161 -68 294t-186 222t-277.5 138t-342.5 49q-189 0 -368 -50.5t-321.5 -141t-250.5 -208.5t-166.5 -259.5t-58.5 -286.5q0 -205 110.5 -364t309.5 -247t454 -88zM1188 285h-299l119 659h288q158 0 242 -69t84 -197
q0 -160 -124.5 -276.5t-309.5 -116.5zM1001 369h201q137 0 227.5 84.5t90.5 205.5q0 201 -254 201h-174q-5 -28 -30 -153t-61 -338z" />
    <glyph glyph-name="E.ss08" 
d="M1094 -315q-216 0 -398.5 58t-310.5 160.5t-200 249.5t-72 320q0 165 65 325t186 294t280.5 236.5t360.5 160t414 57.5q163 0 310.5 -34t270 -101.5t212.5 -162t140 -221.5t50 -273q0 -140 -47 -276t-131 -253.5t-204.5 -217.5t-263.5 -171t-313.5 -111t-348.5 -40z
M1110 -207q189 0 367.5 49.5t321.5 138t251.5 205.5t167.5 259t59 290q0 161 -67.5 294t-185.5 222t-278.5 138t-344.5 49q-189 0 -368 -50.5t-321 -141t-249.5 -208.5t-166 -259t-58.5 -287q0 -205 110 -364t308.5 -247t453.5 -88zM1458 285h-522l117 659h516l-15 -84h-415
q-28 -142 -37 -194h395l-14 -86h-396l-38 -209h424z" />
    <glyph glyph-name="F.ss08" 
d="M1094 -315q-216 0 -398.5 58t-310.5 160.5t-200 249.5t-72 320q0 165 65 325t186 294t280.5 236.5t360.5 160t414 57.5q163 0 310.5 -34t270 -101.5t212.5 -162t140 -221.5t50 -273q0 -140 -47 -276t-131 -253.5t-204.5 -217.5t-263.5 -171t-313.5 -111t-348.5 -40z
M1110 -207q189 0 367.5 49.5t321.5 138t251.5 205.5t167.5 259t59 290q0 161 -67.5 294t-185.5 222t-278.5 138t-344.5 49q-189 0 -368 -50.5t-321 -141t-249.5 -208.5t-166 -259t-58.5 -287q0 -205 110 -364t308.5 -247t453.5 -88zM1051 285h-99l117 659h504l-14 -84h-404
l-39 -203h387l-16 -84h-385z" />
    <glyph glyph-name="G.ss08" 
d="M1419 1546q163 0 310.5 -34t270 -101.5t212.5 -162t140 -221.5t50 -273q0 -140 -47 -276t-131 -253.5t-204.5 -217.5t-263.5 -171t-313.5 -111t-348.5 -40q-216 0 -398.5 58t-310.5 160.5t-200 249.5t-72 320q0 165 65 325t186 294t280.5 236.5t360.5 160t414 57.5z
M1110 -207q189 0 367.5 49.5t321.5 138t251.5 205.5t167.5 259t59 290q0 161 -67.5 294t-185.5 222t-278.5 138t-344.5 49q-189 0 -368 -50.5t-321 -141t-249.5 -208.5t-166 -259t-58.5 -287q0 -205 110 -364t308.5 -247t453.5 -88zM1300 872q-144 0 -246 -91.5t-102 -213.5
q0 -73 39.5 -122.5t96 -69t124.5 -19.5q112 0 197.5 51.5t114.5 135.5h-264l10 75h362l-57 -333h-84q4 28 11.5 72.5t8.5 48.5q-116 -134 -323 -134q-154 0 -247 78t-93 207q0 159 137 279t332 120q127 0 214.5 -55t104.5 -147l-94 -33q-22 73 -85.5 112t-156.5 39z" />
    <glyph glyph-name="H.ss08" 
d="M1419 1546q163 0 310.5 -34t270 -101.5t212.5 -162t140 -221.5t50 -273q0 -140 -47 -276t-131 -253.5t-204.5 -217.5t-263.5 -171t-313.5 -111t-348.5 -40q-216 0 -398.5 58t-310.5 160.5t-200 249.5t-72 320q0 165 65 325t186 294t280.5 236.5t360.5 160t414 57.5z
M1110 -207q189 0 367.5 49.5t321.5 138t251.5 205.5t167.5 259t59 290q0 161 -67.5 294t-185.5 222t-278.5 138t-344.5 49q-189 0 -368 -50.5t-321 -141t-249.5 -208.5t-166 -259t-58.5 -287q0 -205 110 -364t308.5 -247t453.5 -88zM1034 659h426l51 285h99l-117 -659h-100
l53 288h-428l-51 -288h-99l117 659h100z" />
    <glyph glyph-name="I.ss08" 
d="M1094 -315q-216 0 -398.5 58t-310 160.5t-199 249.5t-71.5 320q0 165 65 325t185.5 294t279.5 236.5t360 160t414 57.5q205 0 383.5 -54.5t312 -154t210.5 -250.5t77 -333q0 -140 -46.5 -276t-130.5 -253.5t-204.5 -217.5t-263.5 -171t-314 -111t-349 -40zM1112 -207
q188 0 366.5 49.5t321.5 138t251 205.5t167 259t59 290q0 161 -68 294t-186 222t-277.5 138t-342.5 49q-237 0 -454 -79t-372 -209t-247 -303t-92 -355q0 -205 110 -364t309 -247t455 -88zM1229 285h-99l117 659h101z" />
    <glyph glyph-name="J.ss08" 
d="M1094 -315q-216 0 -398.5 58t-310.5 160.5t-200 249.5t-72 320q0 165 65 325t186 294t280.5 236.5t360.5 160t414 57.5q163 0 310.5 -34t270 -101.5t212.5 -162t140 -221.5t50 -273q0 -140 -47 -276t-131 -253.5t-204.5 -217.5t-263.5 -171t-313.5 -111t-348.5 -40z
M1110 -207q189 0 367.5 49.5t321.5 138t251.5 205.5t167.5 259t59 290q0 161 -67.5 294t-185.5 222t-278.5 138t-344.5 49q-189 0 -368 -50.5t-321 -141t-249.5 -208.5t-166 -259t-58.5 -287q0 -205 110 -364t308.5 -247t453.5 -88zM1149 279q-119 0 -176.5 58t-40.5 159
l4 26l96 13l-4 -27q-12 -68 22.5 -108t106.5 -40q47 0 81.5 17.5t52 47.5t25.5 53t13 52l76 420h98l-73 -403q-3 -22 -7 -39t-13.5 -47t-22 -52t-34 -48t-49 -42.5t-67.5 -28t-88 -11.5z" />
    <glyph glyph-name="K.ss08" 
d="M1419 1546q163 0 310.5 -34t270 -101.5t212.5 -162t140 -221.5t50 -273q0 -140 -47 -276t-131 -253.5t-204.5 -217.5t-263.5 -171t-313.5 -111t-348.5 -40q-216 0 -398.5 58t-310.5 160.5t-200 249.5t-72 320q0 165 65 325t186 294t280.5 236.5t360.5 160t414 57.5z
M1110 -207q189 0 367.5 49.5t321.5 138t251.5 205.5t167.5 259t59 290q0 161 -67.5 294t-185.5 222t-278.5 138t-344.5 49q-189 0 -368 -50.5t-321 -141t-249.5 -208.5t-166 -259t-58.5 -287q0 -205 110 -364t308.5 -247t453.5 -88zM1507 944h123q-33 -25 -138 -103
t-165.5 -124.5t-75.5 -61.5q49 -69 139.5 -189t135.5 -181h-121q-27 34 -48 64.5t-60 80t-128 156.5q-8 -6 -45.5 -33t-62.5 -47q-23 -134 -39 -221h-100l118 659h99q-10 -53 -30 -160.5t-30 -160.5q39 29 164.5 124.5t263.5 196.5z" />
    <glyph glyph-name="L.ss08" 
d="M1419 1546q163 0 310.5 -34t270 -101.5t212.5 -162t140 -221.5t50 -273q0 -140 -47 -276t-131 -253.5t-204.5 -217.5t-263.5 -171t-313.5 -111t-348.5 -40q-216 0 -398.5 58t-310.5 160.5t-200 249.5t-72 320q0 165 65 325t186 294t280.5 236.5t360.5 160t414 57.5z
M1110 -207q189 0 367.5 49.5t321.5 138t251.5 205.5t167.5 259t59 290q0 161 -67.5 294t-185.5 222t-278.5 138t-344.5 49q-189 0 -368 -50.5t-321 -141t-249.5 -208.5t-166 -259t-58.5 -287q0 -205 110 -364t308.5 -247t453.5 -88zM1116 944h101l-103 -573h393l-14 -86
h-494z" />
    <glyph glyph-name="M.ss08" horiz-adv-x="2459" 
d="M1419 1546q163 0 310.5 -34t270 -101.5t212.5 -162t140 -221.5t50 -273q0 -140 -47 -276t-131 -253.5t-204.5 -217.5t-263.5 -171t-313.5 -111t-348.5 -40q-216 0 -398.5 58t-310.5 160.5t-200 249.5t-72 320q0 165 65 325t186 294t280.5 236.5t360.5 160t414 57.5z
M1110 -207q189 0 367.5 49.5t321.5 138t251.5 205.5t167.5 259t59 290q0 161 -67.5 294t-185.5 222t-278.5 138t-344.5 49q-189 0 -368 -50.5t-321 -141t-249.5 -208.5t-166 -259t-58.5 -287q0 -205 110 -364t308.5 -247t453.5 -88zM1200 416q366 477 397 528h113l-117 -659
h-100q8 46 38 201t50 278q-51 -68 -174.5 -230t-187.5 -249h-76q-15 40 -69.5 176.5t-117.5 302.5q-42 -234 -88 -479h-100l119 659h112q136 -345 201 -528z" />
    <glyph glyph-name="N.ss08" 
d="M1419 1546q163 0 310.5 -34t270 -101.5t212.5 -162t140 -221.5t50 -273q0 -140 -47 -276t-131 -253.5t-204.5 -217.5t-263.5 -171t-313.5 -111t-348.5 -40q-216 0 -398.5 58t-310.5 160.5t-200 249.5t-72 320q0 165 65 325t186 294t280.5 236.5t360.5 160t414 57.5z
M1110 -207q189 0 367.5 49.5t321.5 138t251.5 205.5t167.5 259t59 290q0 161 -67.5 294t-185.5 222t-278.5 138t-344.5 49q-189 0 -368 -50.5t-321 -141t-249.5 -208.5t-166 -259t-58.5 -287q0 -205 110 -364t308.5 -247t453.5 -88zM1434 438q43 206 94 506h100l-119 -659
h-98q-31 45 -102.5 146.5t-131.5 187.5t-116 169q-4 -23 -17.5 -85.5t-28.5 -148t-46 -269.5h-99l119 659h101q47 -70 163.5 -239t180.5 -267z" />
    <glyph glyph-name="O.ss08" 
d="M1094 -315q-216 0 -398.5 58t-310.5 160.5t-200 249.5t-72 320q0 165 65 325t186 294t280.5 236.5t360.5 160t414 57.5q163 0 310.5 -34t270 -101.5t212.5 -162t140 -221.5t50 -273q0 -140 -47 -276t-131 -253.5t-204.5 -217.5t-263.5 -171t-313.5 -111t-348.5 -40z
M1110 -207q189 0 367.5 49.5t321.5 138t251.5 205.5t167.5 259t59 290q0 161 -67.5 294t-185.5 222t-278.5 138t-344.5 49q-189 0 -368 -50.5t-321 -141t-249.5 -208.5t-166 -259t-58.5 -287q0 -205 110 -364t308.5 -247t453.5 -88zM1178 272q-151 0 -247.5 81.5
t-96.5 207.5q0 101 62.5 192t171.5 147t235 56q151 0 248.5 -81t97.5 -207q0 -102 -63.5 -193.5t-173 -147t-234.5 -55.5zM1194 356q138 0 244 91t106 208q0 94 -72.5 155.5t-181.5 61.5q-139 0 -245.5 -91t-106.5 -208q0 -95 72 -156t184 -61z" />
    <glyph glyph-name="P.ss08" 
d="M1419 1546q163 0 310.5 -34t270 -101.5t212.5 -162t140 -221.5t50 -273q0 -140 -47 -276t-131 -253.5t-204.5 -217.5t-263.5 -171t-313.5 -111t-348.5 -40q-216 0 -398.5 58t-310.5 160.5t-200 249.5t-72 320q0 165 65 325t186 294t280.5 236.5t360.5 160t414 57.5z
M1110 -207q189 0 367.5 49.5t321.5 138t251.5 205.5t167.5 259t59 290q0 161 -67.5 294t-185.5 222t-278.5 138t-344.5 49q-189 0 -368 -50.5t-321 -141t-249.5 -208.5t-166 -259t-58.5 -287q0 -205 110 -364t308.5 -247t453.5 -88zM1057 944h286q100 0 168 -41.5t68 -130.5
q0 -98 -86 -167.5t-209 -69.5h-203l-45 -250h-98zM1096 618h180q87 0 143 38t56 98q0 106 -160 106h-174z" />
    <glyph glyph-name="Q.ss08" 
d="M1094 -315q-216 0 -398.5 58t-310.5 160.5t-200 249.5t-72 320q0 165 65 325t186 294t280.5 236.5t360.5 160t414 57.5q163 0 310.5 -34t270 -101.5t212.5 -162t140 -221.5t50 -273q0 -140 -47 -276t-131 -253.5t-204.5 -217.5t-263.5 -171t-313.5 -111t-348.5 -40z
M1110 -207q189 0 367.5 49.5t321.5 138t251.5 205.5t167.5 259t59 290q0 161 -67.5 294t-185.5 222t-278.5 138t-344.5 49q-189 0 -368 -50.5t-321 -141t-249.5 -208.5t-166 -259t-58.5 -287q0 -205 110 -364t308.5 -247t453.5 -88zM1554 289l-77 -53q-16 20 -47.5 54
t-47.5 54q-103 -39 -204 -39q-152 0 -249.5 81.5t-97.5 209.5q0 100 63 191t172.5 146.5t236.5 55.5q152 0 250 -80.5t98 -206.5q0 -88 -49.5 -170t-135.5 -139q8 -9 40 -46.5t48 -57.5zM1194 389q62 0 131 27q-21 25 -59.5 67.5t-53.5 59.5l80 55l121 -137q63 43 98 103.5
t35 125.5q0 94 -72 154.5t-184 60.5q-141 0 -248.5 -90.5t-107.5 -208.5q0 -95 73 -156t187 -61z" />
    <glyph glyph-name="R.ss08" 
d="M1419 1546q163 0 310.5 -34t270 -101.5t212.5 -162t140 -221.5t50 -273q0 -140 -47 -276t-131 -253.5t-204.5 -217.5t-263.5 -171t-313.5 -111t-348.5 -40q-216 0 -398.5 58t-310.5 160.5t-200 249.5t-72 320q0 165 65 325t186 294t280.5 236.5t360.5 160t414 57.5z
M1110 -207q189 0 367.5 49.5t321.5 138t251.5 205.5t167.5 259t59 290q0 161 -67.5 294t-185.5 222t-278.5 138t-344.5 49q-189 0 -368 -50.5t-321 -141t-249.5 -208.5t-166 -259t-58.5 -287q0 -205 110 -364t308.5 -247t453.5 -88zM1057 944h289q97 0 165 -41.5t68 -130.5
q0 -84 -66.5 -149t-164.5 -80q138 -216 163 -258h-110l-162 250h-156q-1 -5 -45 -250h-98zM1278 616q88 0 142.5 39.5t54.5 98.5q0 54 -43 81t-115 27h-174q-24 -123 -45 -246h180z" />
    <glyph glyph-name="S.ss08" 
d="M1094 -315q-216 0 -398.5 58t-310.5 160.5t-200 249.5t-72 320q0 165 65 325t186 294t280.5 236.5t360.5 160t414 57.5q163 0 310.5 -34t270 -101.5t212.5 -162t140 -221.5t50 -273q0 -140 -47 -276t-131 -253.5t-204.5 -217.5t-263.5 -171t-313.5 -111t-348.5 -40z
M1110 -207q189 0 367.5 49.5t321.5 138t251.5 205.5t167.5 259t59 290q0 161 -67.5 294t-185.5 222t-278.5 138t-344.5 49q-189 0 -368 -50.5t-321 -141t-249.5 -208.5t-166 -259t-58.5 -287q0 -205 110 -364t308.5 -247t453.5 -88zM1192 272q-115 0 -187.5 52t-84.5 149
l96 29q9 -69 60.5 -108.5t131.5 -39.5t135.5 36.5t55.5 84.5q0 10 -2 18.5t-7.5 15.5t-10.5 12.5t-15 10.5t-16.5 8t-20 7t-20.5 6t-23 6t-22 6l-72 19q-189 50 -189 166q0 84 87 145t210 61q100 0 168 -44.5t78 -118.5l-94 -35q-10 55 -56 84.5t-114 29.5
q-73 0 -122.5 -30.5t-49.5 -75.5q0 -62 135 -98l74 -21q92 -25 124 -43q68 -39 68 -110q0 -89 -94 -155.5t-223 -66.5z" />
    <glyph glyph-name="T.ss08" 
d="M1094 -315q-215 0 -397.5 58t-310 160.5t-199.5 249.5t-72 320q0 165 65 325t186 294t280 236.5t359.5 160t413.5 57.5q163 0 311.5 -34t271 -101.5t212.5 -162t140 -221.5t50 -273q0 -140 -47 -276t-131 -253.5t-205 -217.5t-264 -171t-314 -111t-349 -40zM1112 -207
q189 0 367.5 49.5t321 138t250.5 205.5t167 259t59 290q0 161 -68 294t-186 222t-277.5 138t-342.5 49q-189 0 -368 -50.5t-321.5 -141t-250.5 -208.5t-166.5 -259.5t-58.5 -286.5q0 -205 110.5 -364t309.5 -247t454 -88zM1229 285h-101q36 189 105 575h-262l14 84h623
l-15 -84h-262q-48 -267 -102 -575z" />
    <glyph glyph-name="U.ss08" 
d="M1094 -315q-216 0 -398.5 58t-310.5 160.5t-200 249.5t-72 320q0 165 65 325t186 294t280.5 236.5t360.5 160t414 57.5q163 0 310.5 -34t270 -101.5t212.5 -162t140 -221.5t50 -273q0 -140 -47 -276t-131 -253.5t-204.5 -217.5t-263.5 -171t-313.5 -111t-348.5 -40z
M1110 -207q189 0 367.5 49.5t321.5 138t251.5 205.5t167.5 259t59 290q0 161 -67.5 294t-185.5 222t-278.5 138t-344.5 49q-189 0 -368 -50.5t-321 -141t-249.5 -208.5t-166 -259t-58.5 -287q0 -205 110 -364t308.5 -247t453.5 -88zM1176 279q-148 0 -206.5 73.5
t-37.5 184.5l74 413h100l-74 -409q-16 -86 24 -133.5t138 -47.5t153.5 48t69.5 133l74 409h100l-75 -413q-20 -112 -107 -185t-233 -73z" />
    <glyph glyph-name="V.ss08" 
d="M1419 1546q163 0 310.5 -34t270 -101.5t212.5 -162t140 -221.5t50 -273q0 -140 -47 -276t-131 -253.5t-204.5 -217.5t-263.5 -171t-313.5 -111t-348.5 -40q-216 0 -398.5 58t-310.5 160.5t-200 249.5t-72 320q0 165 65 325t186 294t280.5 236.5t360.5 160t414 57.5z
M1110 -207q189 0 367.5 49.5t321.5 138t251.5 205.5t167.5 259t59 290q0 161 -67.5 294t-185.5 222t-278.5 138t-344.5 49q-189 0 -368 -50.5t-321 -141t-249.5 -208.5t-166 -259t-58.5 -287q0 -205 110 -364t308.5 -247t453.5 -88zM1204 397q199 319 367 547h104l-440 -659
h-100l-205 659h102q19 -50 43 -125.5t63.5 -207.5t65.5 -214z" />
    <glyph glyph-name="W.ss08" 
d="M1419 1546q163 0 310.5 -34t270 -101.5t212.5 -162t140 -221.5t50 -273q0 -140 -47 -276t-131 -253.5t-204.5 -217.5t-263.5 -171t-313.5 -111t-348.5 -40q-216 0 -398.5 58t-310.5 160.5t-200 249.5t-72 320q0 165 65 325t186 294t280.5 236.5t360.5 160t414 57.5z
M1110 -207q189 0 367.5 49.5t321.5 138t251.5 205.5t167.5 259t59 290q0 161 -67.5 294t-185.5 222t-278.5 138t-344.5 49q-189 0 -368 -50.5t-321 -141t-249.5 -208.5t-166 -259t-58.5 -287q0 -205 110 -364t308.5 -247t453.5 -88zM1456 412q208 367 303 532h105l-375 -659
h-109q-26 112 -104 516q-24 -43 -67 -121t-66.5 -119.5t-68 -116.5t-97.5 -159h-111l-135 659h107q83 -391 108 -528q134 239 301 528h103q18 -90 53.5 -266t52.5 -266z" />
    <glyph glyph-name="X.ss08" horiz-adv-x="2455" 
d="M1419 1546q163 0 310.5 -34t270 -101.5t212.5 -162t140 -221.5t50 -273q0 -140 -47 -276t-131 -253.5t-204.5 -217.5t-263.5 -171t-313.5 -111t-348.5 -40q-216 0 -398.5 58t-310.5 160.5t-200 249.5t-72 320q0 165 65 325t186 294t280.5 236.5t360.5 160t414 57.5z
M1110 -207q189 0 367.5 49.5t321.5 138t251.5 205.5t167.5 259t59 290q0 161 -67.5 294t-185.5 222t-278.5 138t-344.5 49q-189 0 -368 -50.5t-321 -141t-249.5 -208.5t-166 -259t-58.5 -287q0 -205 110 -364t308.5 -247t453.5 -88zM1513 944h113q-31 -32 -67.5 -72.5
t-88.5 -91t-172 -159.5q43 -63 113.5 -176t101.5 -160h-112q-52 74 -172 264q-94 -92 -266 -264h-117q45 44 147.5 149.5t190.5 188.5q-18 26 -213 321h114q84 -122 168 -252q15 14 89.5 90t170.5 162z" />
    <glyph glyph-name="Y.ss08" 
d="M1419 1546q163 0 310.5 -34t270 -101.5t212.5 -162t140 -221.5t50 -273q0 -140 -47 -276t-131 -253.5t-204.5 -217.5t-263.5 -171t-313.5 -111t-348.5 -40q-216 0 -398.5 58t-310.5 160.5t-200 249.5t-72 320q0 165 65 325t186 294t280.5 236.5t360.5 160t414 57.5z
M1110 -207q189 0 367.5 49.5t321.5 138t251.5 205.5t167.5 259t59 290q0 161 -67.5 294t-185.5 222t-278.5 138t-344.5 49q-189 0 -368 -50.5t-321 -141t-249.5 -208.5t-166 -259t-58.5 -287q0 -205 110 -364t308.5 -247t453.5 -88zM1237 608q30 34 70 86t89 106.5
t140 143.5h106q-25 -27 -110.5 -132.5t-261.5 -287.5q-38 -213 -43 -239h-101q4 20 15 79.5t28 159.5q-19 35 -66.5 136t-152.5 284h109q21 -40 50 -96.5t57.5 -110.5t70.5 -129z" />
    <glyph glyph-name="Z.ss08" horiz-adv-x="2455" 
d="M1419 1546q163 0 310.5 -34t270 -101.5t212.5 -162t140 -221.5t50 -273q0 -140 -47 -276t-131 -253.5t-204.5 -217.5t-263.5 -171t-313.5 -111t-348.5 -40q-216 0 -398.5 58t-310.5 160.5t-200 249.5t-72 320q0 165 65 325t186 294t280.5 236.5t360.5 160t414 57.5z
M1110 -207q189 0 367.5 49.5t321.5 138t251.5 205.5t167.5 259t59 290q0 161 -67.5 294t-185.5 222t-278.5 138t-344.5 49q-189 0 -368 -50.5t-321 -141t-249.5 -208.5t-166 -259t-58.5 -287q0 -205 110 -364t308.5 -247t453.5 -88zM1006 860l12 84h592l-13 -80
q-245 -210 -577 -493h493l-14 -86h-616l12 82q135 119 575 495q-156 -2 -464 -2z" />
    <glyph glyph-name="i.loclTRK" horiz-adv-x="612" 
d="M455 1380q-56 0 -92.5 33t-36.5 82q0 60 52.5 105t121.5 45q54 0 90.5 -32t36.5 -79q0 -60 -52.5 -107t-119.5 -47zM303 0h-190l198 1133h193z" />
    <glyph glyph-name="a.ss01" horiz-adv-x="1644" 
d="M629 -35q-243 0 -388 136.5t-145 357.5q0 109 37 214.5t106 193.5t160 155.5t206 105t237 37.5q161 0 282 -63t176 -178h5l38 209h191l-197 -1133h-186l37 205h-6q-98 -118 -245.5 -179t-307.5 -61zM690 133q112 0 216 43.5t178 114t118.5 164t44.5 190.5q0 158 -111 256
t-288 98q-114 0 -217 -44t-174.5 -115t-113.5 -163.5t-42 -187.5q0 -161 107 -258.5t282 -97.5z" />
    <glyph glyph-name="aacute.ss01" horiz-adv-x="1644" 
d="M1464 1667l-440 -389h-168l358 389h250zM629 -35q-243 0 -388 136.5t-145 357.5q0 109 37 214.5t106 193.5t160 155.5t206 105t237 37.5q161 0 282 -63t176 -178h5l38 209h191l-197 -1133h-186l37 205h-6q-98 -118 -245.5 -179t-307.5 -61zM690 133q112 0 216 43.5
t178 114t118.5 164t44.5 190.5q0 158 -111 256t-288 98q-114 0 -217 -44t-174.5 -115t-113.5 -163.5t-42 -187.5q0 -161 107 -258.5t282 -97.5z" />
    <glyph glyph-name="abreve.ss01" horiz-adv-x="1644" 
d="M952 1274q-205 0 -306 110.5t-77 284.5h166q-17 -115 49 -186.5t191 -71.5q124 0 217 71t119 187h168q-39 -177 -182 -286t-345 -109zM629 -35q-243 0 -388 136.5t-145 357.5q0 109 37 214.5t106 193.5t160 155.5t206 105t237 37.5q161 0 282 -63t176 -178h5l38 209h191
l-197 -1133h-186l37 205h-6q-98 -118 -245.5 -179t-307.5 -61zM690 133q112 0 216 43.5t178 114t118.5 164t44.5 190.5q0 158 -111 256t-288 98q-114 0 -217 -44t-174.5 -115t-113.5 -163.5t-42 -187.5q0 -161 107 -258.5t282 -97.5z" />
    <glyph glyph-name="acircumflex.ss01" horiz-adv-x="1644" 
d="M659 1278h-182l420 360h236l290 -360h-180q-6 6 -94.5 89.5t-149.5 156.5q-56 -44 -159 -114.5t-181 -131.5zM629 -35q-243 0 -388 136.5t-145 357.5q0 109 37 214.5t106 193.5t160 155.5t206 105t237 37.5q161 0 282 -63t176 -178h5l38 209h191l-197 -1133h-186l37 205
h-6q-98 -118 -245.5 -179t-307.5 -61zM690 133q112 0 216 43.5t178 114t118.5 164t44.5 190.5q0 158 -111 256t-288 98q-114 0 -217 -44t-174.5 -115t-113.5 -163.5t-42 -187.5q0 -161 107 -258.5t282 -97.5z" />
    <glyph glyph-name="adieresis.ss01" horiz-adv-x="1644" 
d="M739 1352q-52 0 -85 29.5t-33 74.5q0 54 47 96.5t110 42.5q51 0 84 -29.5t33 -72.5q0 -56 -46.5 -98.5t-109.5 -42.5zM1196 1352q-53 0 -87 29.5t-34 74.5q0 57 47.5 98t110.5 41q50 0 84.5 -30t34.5 -74q0 -54 -48 -96.5t-108 -42.5zM629 -35q-243 0 -388 136.5
t-145 357.5q0 109 37 214.5t106 193.5t160 155.5t206 105t237 37.5q161 0 282 -63t176 -178h5l38 209h191l-197 -1133h-186l37 205h-6q-98 -118 -245.5 -179t-307.5 -61zM690 133q112 0 216 43.5t178 114t118.5 164t44.5 190.5q0 158 -111 256t-288 98q-114 0 -217 -44
t-174.5 -115t-113.5 -163.5t-42 -187.5q0 -161 107 -258.5t282 -97.5z" />
    <glyph glyph-name="agrave.ss01" horiz-adv-x="1644" 
d="M1044 1278h-167l-306 389h252zM629 -35q-243 0 -388 136.5t-145 357.5q0 109 37 214.5t106 193.5t160 155.5t206 105t237 37.5q161 0 282 -63t176 -178h5l38 209h191l-197 -1133h-186l37 205h-6q-98 -118 -245.5 -179t-307.5 -61zM690 133q112 0 216 43.5t178 114
t118.5 164t44.5 190.5q0 158 -111 256t-288 98q-114 0 -217 -44t-174.5 -115t-113.5 -163.5t-42 -187.5q0 -161 107 -258.5t282 -97.5z" />
    <glyph glyph-name="amacron.ss01" horiz-adv-x="1644" 
d="M1389 1391h-826l23 137h825zM629 -35q-243 0 -388 136.5t-145 357.5q0 109 37 214.5t106 193.5t160 155.5t206 105t237 37.5q161 0 282 -63t176 -178h5l38 209h191l-197 -1133h-186l37 205h-6q-98 -118 -245.5 -179t-307.5 -61zM690 133q112 0 216 43.5t178 114
t118.5 164t44.5 190.5q0 158 -111 256t-288 98q-114 0 -217 -44t-174.5 -115t-113.5 -163.5t-42 -187.5q0 -161 107 -258.5t282 -97.5z" />
    <glyph glyph-name="aogonek.ss01" horiz-adv-x="1644" 
d="M1059 -217q0 -54 50 -86.5t128 -32.5q54 0 111 14l-23 -127q-63 -14 -123 -14q-136 0 -215.5 54.5t-79.5 146.5q0 47 22.5 90t60 75.5t78 56t83.5 40.5l37 205h-6q-98 -118 -245.5 -179t-307.5 -61q-243 0 -388 136.5t-145 357.5q0 109 37 214.5t106 193.5t160 155.5
t206 105t237 37.5q161 0 282 -63t176 -178h5l38 209h191l-197 -1133h-37q-103 -33 -172 -91t-69 -126zM690 133q112 0 216 43.5t178 114t118.5 164t44.5 190.5q0 158 -111 256t-288 98q-114 0 -217 -44t-174.5 -115t-113.5 -163.5t-42 -187.5q0 -161 107 -258.5t282 -97.5z
" />
    <glyph glyph-name="aring.ss01" horiz-adv-x="1644" 
d="M946 1249q-106 0 -173.5 55.5t-67.5 141.5q0 104 94.5 181t226.5 77q107 0 173.5 -54.5t66.5 -140.5q0 -103 -94 -181.5t-226 -78.5zM965 1364q71 0 120.5 39t49.5 94q0 42 -36.5 68t-92.5 26q-70 0 -119 -38.5t-49 -94.5q0 -44 35 -69t92 -25zM629 -35
q-243 0 -388 136.5t-145 357.5q0 109 37 214.5t106 193.5t160 155.5t206 105t237 37.5q161 0 282 -63t176 -178h5l38 209h191l-197 -1133h-186l37 205h-6q-98 -118 -245.5 -179t-307.5 -61zM690 133q112 0 216 43.5t178 114t118.5 164t44.5 190.5q0 158 -111 256t-288 98
q-114 0 -217 -44t-174.5 -115t-113.5 -163.5t-42 -187.5q0 -161 107 -258.5t282 -97.5z" />
    <glyph glyph-name="atilde.ss01" horiz-adv-x="1644" 
d="M1145 1317q-57 0 -95.5 16t-80.5 49l-47 35q-1 1 -10.5 7.5t-12 8t-11.5 7.5t-13 7.5t-13 5.5t-15.5 5t-15.5 2.5t-18 1.5q-54 0 -92.5 -36.5t-50.5 -92.5h-144q23 120 109.5 194.5t200.5 74.5q54 0 92 -17t76 -47l47 -35q59 -47 114 -47q51 0 87.5 36.5t47.5 94.5h144
q-22 -126 -101.5 -198t-197.5 -72zM629 -35q-243 0 -388 136.5t-145 357.5q0 109 37 214.5t106 193.5t160 155.5t206 105t237 37.5q161 0 282 -63t176 -178h5l38 209h191l-197 -1133h-186l37 205h-6q-98 -118 -245.5 -179t-307.5 -61zM690 133q112 0 216 43.5t178 114
t118.5 164t44.5 190.5q0 158 -111 256t-288 98q-114 0 -217 -44t-174.5 -115t-113.5 -163.5t-42 -187.5q0 -161 107 -258.5t282 -97.5z" />
    <glyph glyph-name="b.ss01" horiz-adv-x="1386" 
d="M702 -35q-138 0 -235.5 48t-138.5 139h-6l-29 -152h-180l288 1638h191l-176 -989h4q75 73 188 112.5t238 39.5q202 0 325 -99.5t123 -259.5q0 -124 -76.5 -233.5t-214 -176.5t-301.5 -67zM702 115q162 0 279 93t117 218q0 103 -79 164t-212 61q-167 0 -284 -89.5
t-117 -211.5q0 -102 82.5 -168.5t213.5 -66.5z" />
    <glyph glyph-name="d.ss01" horiz-adv-x="1638" 
d="M629 -35q-243 0 -388 134.5t-145 357.5q0 137 58.5 267t157.5 227.5t238 156.5t290 59q160 0 278.5 -62.5t175.5 -176.5h4l129 710h191l-289 -1638h-180l37 205h-4q-99 -117 -246.5 -178.5t-306.5 -61.5zM688 133q149 0 278.5 71.5t205 189.5t75.5 249
q0 161 -112.5 258.5t-286.5 97.5q-113 0 -216 -43.5t-174.5 -114.5t-114 -164t-42.5 -190q0 -159 106.5 -256.5t280.5 -97.5z" />
    <glyph glyph-name="dcaron.ss01" horiz-adv-x="1658" 
d="M1708 1155h-121l207 264q-38 12 -59 39.5t-21 63.5q0 60 52.5 105.5t121.5 45.5q54 0 89.5 -31.5t35.5 -80.5q0 -48 -52.5 -116.5t-252.5 -289.5zM637 -35q-243 0 -389 134.5t-146 357.5q0 137 59 267t158 227.5t238 156.5t291 59q158 0 276.5 -62.5t175.5 -176.5h7
l127 710h192l-289 -1638h-182l39 205h-6q-99 -118 -246 -179t-305 -61zM696 133q111 0 214.5 42.5t179 112.5t120.5 163.5t45 191.5q0 161 -113.5 258.5t-287.5 97.5q-113 0 -215 -43.5t-174 -114.5t-114 -164t-42 -190q0 -160 106 -257t281 -97z" />
    <glyph glyph-name="dcroat.ss01" horiz-adv-x="1638" 
d="M1585 1454h316l-21 -141h-319l-232 -1313h-180l37 205h-4q-99 -117 -246.5 -178.5t-306.5 -61.5q-243 0 -388 134.5t-145 357.5q0 137 58.5 267t157.5 227.5t238 156.5t290 59q160 0 278.5 -62.5t175.5 -176.5h4l70 385h-340l25 141h342l32 184h191zM688 133
q149 0 278.5 71.5t205 189.5t75.5 249q0 161 -112.5 258.5t-286.5 97.5q-113 0 -216 -43.5t-174.5 -114.5t-114 -164t-42.5 -190q0 -159 106.5 -256.5t280.5 -97.5z" />
    <glyph glyph-name="g.ss01" horiz-adv-x="1640" 
d="M1249 -451h-1220l24 164h1028l99 525h-4q-96 -115 -237.5 -175.5t-299.5 -60.5q-246 0 -392.5 134.5t-146.5 350.5q0 175 98.5 331t270 251.5t371.5 95.5q163 0 282.5 -63t175.5 -178h5l38 209h189zM692 170q110 0 214 41t179 108t120.5 156t45.5 180q0 151 -113 247.5
t-290 96.5q-146 0 -272 -68t-198.5 -178.5t-72.5 -234.5q0 -154 107.5 -251t279.5 -97z" />
    <glyph glyph-name="gbreve.ss01" horiz-adv-x="1640" 
d="M950 1274q-205 0 -306 110.5t-77 284.5h166q-17 -115 49 -186.5t191 -71.5q124 0 217 71t119 187h168q-39 -177 -182 -286t-345 -109zM1249 -451h-1220l24 164h1028l99 525h-4q-96 -115 -237.5 -175.5t-299.5 -60.5q-246 0 -392.5 134.5t-146.5 350.5q0 175 98.5 331
t270 251.5t371.5 95.5q163 0 282.5 -63t175.5 -178h5l38 209h189zM692 170q110 0 214 41t179 108t120.5 156t45.5 180q0 151 -113 247.5t-290 96.5q-146 0 -272 -68t-198.5 -178.5t-72.5 -234.5q0 -154 107.5 -251t279.5 -97z" />
    <glyph glyph-name="uni0123.ss01" horiz-adv-x="1640" 
d="M803 1364q0 44 48 106.5t234 272.5h117l-190 -248q32 -11 52.5 -36t20.5 -60q0 -57 -49 -98t-114 -41q-51 0 -85 29.5t-34 74.5zM1249 -451h-1220l24 164h1028l99 525h-4q-96 -115 -237.5 -175.5t-299.5 -60.5q-246 0 -392.5 134.5t-146.5 350.5q0 175 98.5 331
t270 251.5t371.5 95.5q163 0 282.5 -63t175.5 -178h5l38 209h189zM692 170q110 0 214 41t179 108t120.5 156t45.5 180q0 151 -113 247.5t-290 96.5q-146 0 -272 -68t-198.5 -178.5t-72.5 -234.5q0 -154 107.5 -251t279.5 -97z" />
    <glyph glyph-name="gdotaccent.ss01" horiz-adv-x="1640" 
d="M975 1386q-56 0 -92.5 33t-36.5 82q0 60 52.5 105t121.5 45q54 0 90.5 -32t36.5 -79q0 -60 -52.5 -107t-119.5 -47zM1249 -451h-1220l24 164h1028l99 525h-4q-96 -115 -237.5 -175.5t-299.5 -60.5q-246 0 -392.5 134.5t-146.5 350.5q0 175 98.5 331t270 251.5t371.5 95.5
q163 0 282.5 -63t175.5 -178h5l38 209h189zM692 170q110 0 214 41t179 108t120.5 156t45.5 180q0 151 -113 247.5t-290 96.5q-146 0 -272 -68t-198.5 -178.5t-72.5 -234.5q0 -154 107.5 -251t279.5 -97z" />
    <glyph glyph-name="i.ss01" horiz-adv-x="843" 
d="M575 1380q-55 0 -90.5 33.5t-35.5 81.5q0 60 52 105t120 45q54 0 90.5 -32t36.5 -79q0 -60 -53 -107t-120 -47zM717 0h-475l176 971h-326l25 162h516l-172 -969h280z" />
    <glyph glyph-name="dotlessi.ss01" horiz-adv-x="843" 
d="M717 0h-475l176 971h-326l25 162h516l-172 -969h280z" />
    <glyph glyph-name="iacute.ss01" horiz-adv-x="843" 
d="M1016 1667l-441 -389h-167l358 389h250zM717 0h-475l176 971h-326l25 162h516l-172 -969h280z" />
    <glyph glyph-name="icircumflex.ss01" horiz-adv-x="843" 
d="M211 1278h-182l420 360h235l291 -360h-180q-6 6 -94.5 89.5t-149.5 156.5q-56 -44 -159 -114.5t-181 -131.5zM717 0h-475l176 971h-326l25 162h516l-172 -969h280z" />
    <glyph glyph-name="idieresis.ss01" horiz-adv-x="843" 
d="M291 1352q-52 0 -85.5 29.5t-33.5 74.5q0 54 47.5 96.5t110.5 42.5q50 0 83 -29.5t33 -72.5q0 -56 -46 -98.5t-109 -42.5zM748 1352q-53 0 -87 29.5t-34 74.5q0 57 47 98t110 41q50 0 84.5 -30t34.5 -74q0 -54 -47.5 -96.5t-107.5 -42.5zM717 0h-475l176 971h-326l25 162
h516l-172 -969h280z" />
    <glyph glyph-name="i.loclTRK.ss01" horiz-adv-x="843" 
d="M563 1389q-56 0 -92.5 31.5t-36.5 80.5q0 61 51.5 106.5t120.5 45.5q55 0 91 -31.5t36 -79.5q0 -60 -52 -106.5t-118 -46.5zM717 0h-475l176 971h-326l25 162h516l-172 -969h280z" />
    <glyph glyph-name="igrave.ss01" horiz-adv-x="843" 
d="M596 1278h-168l-305 389h252zM717 0h-475l176 971h-326l25 162h516l-172 -969h280z" />
    <glyph glyph-name="imacron.ss01" horiz-adv-x="843" 
d="M940 1391h-825l22 137h826zM717 0h-475l176 971h-326l25 162h516l-172 -969h280z" />
    <glyph glyph-name="iogonek.ss01" horiz-adv-x="843" 
d="M526 1386q-56 0 -92.5 33t-36.5 82q0 60 52.5 105t121.5 45q54 0 90.5 -32t36.5 -79q0 -60 -52.5 -107t-119.5 -47zM717 0h-330q-100 -33 -167.5 -90.5t-67.5 -124.5q0 -54 50 -86.5t128 -32.5q49 0 110 15l-22 -127q-67 -15 -123 -15q-136 0 -215.5 54.5t-79.5 146.5
q0 47 22.5 90t59.5 75.5t77 56t83 40.5l176 969h-326l25 162h516l-172 -969h280z" />
    <glyph glyph-name="j.ss01" horiz-adv-x="761" 
d="M596 1380q-57 0 -93 32.5t-36 82.5q0 60 51.5 105t120.5 45q54 0 89.5 -32t35.5 -79q0 -59 -50.5 -106.5t-117.5 -47.5zM373 -451h-692l24 164h500l229 1258h-344l27 162h536z" />
    <glyph glyph-name="l.ss01" horiz-adv-x="901" 
d="M799 0h-680l289 1638h192l-264 -1474h489z" />
    <glyph glyph-name="lacute.ss01" horiz-adv-x="901" 
d="M1161 2097l-461 -336h-176l367 336h270zM799 0h-680l289 1638h192l-264 -1474h489z" />
    <glyph glyph-name="lcaron.ss01" horiz-adv-x="901" 
d="M864 1128h-121l205 263q-37 12 -57.5 39.5t-20.5 62.5q0 60 52.5 106t121.5 46q53 0 88 -32t35 -81q0 -47 -54.5 -119t-248.5 -285zM799 0h-680l289 1638h192l-264 -1474h489z" />
    <glyph glyph-name="uni013C.ss01" horiz-adv-x="901" 
d="M799 0h-680l289 1638h192l-264 -1474h489zM203 -557h-101l160 207q-88 23 -88 98q0 55 47.5 96t112.5 41q52 0 85.5 -28.5t33.5 -73.5q0 -11 -2 -22t-8.5 -24.5t-12.5 -24.5t-20.5 -30t-25.5 -32.5t-34 -40t-40 -45.5t-50 -56.5t-57 -64.5z" />
    <glyph glyph-name="lslash.ss01" horiz-adv-x="901" 
d="M469 905l-133 -741h489l-26 -164h-680l139 788l-262 -145l24 158l267 149l121 688h192l-102 -571l262 147l-23 -159z" />
    <glyph glyph-name="m.ss01" horiz-adv-x="2463" 
d="M303 0h-190l198 1133h193l-82 -449l770 449h238l-82 -449l770 449h237l-198 -1133h-193l174 954h-14l-807 -469l-86 -485h-193l174 954h-14l-809 -469z" />
    <glyph glyph-name="n.ss01" horiz-adv-x="1566" 
d="M418 643l833 490h207l-201 -1133h-190l170 934h-14l-834 -457l-86 -477h-190l90 518l108 615h193z" />
    <glyph glyph-name="nacute.ss01" horiz-adv-x="1566" 
d="M1171 1667h250l-440 -389h-168zM418 643l833 490h207l-201 -1133h-190l170 934h-14l-834 -457l-86 -477h-190l90 518l108 615h193z" />
    <glyph glyph-name="ncaron.ss01" horiz-adv-x="1566" 
d="M1448 1653l-422 -369h-233l-291 369h182q31 -31 80.5 -76t86 -81.5t79.5 -88.5q48 38 152.5 110.5t183.5 135.5h182zM418 643l833 490h207l-201 -1133h-190l170 934h-14l-834 -457l-86 -477h-190l90 518l108 615h193z" />
    <glyph glyph-name="uni0146.ss01" horiz-adv-x="1566" 
d="M418 643l833 490h207l-201 -1133h-190l170 934h-14l-834 -457l-86 -477h-190l90 518l108 615h193zM698 -115q52 0 85.5 -28.5t33.5 -73.5q0 -11 -2 -22t-8.5 -24.5t-12.5 -24.5t-20.5 -30t-25.5 -32.5t-34 -40t-40 -45.5t-50 -56.5t-57 -64.5h-100l160 207q-88 23 -88 98
q0 55 47 96t112 41z" />
    <glyph glyph-name="eng.ss01" horiz-adv-x="1566" 
d="M780 -483q-152 0 -250 53l25 160q105 -54 215 -54q38 0 71 7t58 17.5t46.5 29.5t36 34.5t27.5 42.5t20.5 44t15.5 47t10.5 44t8.5 43q1 3 1 5l172 944h-14l-834 -457l-86 -477h-190l198 1133h193l-88 -471l835 471h207l-203 -1147q-28 -158 -66 -238q-110 -231 -409 -231
z" />
    <glyph glyph-name="ntilde.ss01" horiz-adv-x="1566" 
d="M772 1462q-54 0 -92.5 -36.5t-50.5 -92.5h-144q23 120 109.5 194.5t200.5 74.5q54 0 92 -17t76 -47l47 -35q59 -47 114 -47q52 0 88.5 36.5t47.5 94.5h143q-22 -126 -101.5 -198t-197.5 -72q-57 0 -95.5 16t-80.5 49l-47 35q-1 1 -10.5 7.5t-12 8t-11.5 7.5t-13 7.5
t-13 5.5t-15.5 5t-15.5 2.5t-18 1.5zM418 643l833 490h207l-201 -1133h-190l170 934h-14l-834 -457l-86 -477h-190l90 518l108 615h193z" />
    <glyph glyph-name="p.ss01" horiz-adv-x="1638" 
d="M223 -451h-190l278 1584h187l-39 -218h4q109 125 254.5 187.5t302.5 62.5q238 0 381 -133t143 -356q0 -137 -58.5 -267t-157 -228t-237.5 -157t-290 -59q-162 0 -283.5 65t-177.5 177zM793 133q111 0 213.5 43t174.5 113.5t115 163.5t43 190q0 160 -107 258t-280 98
q-150 0 -280 -72t-205.5 -188.5t-75.5 -246.5q0 -160 113 -259.5t289 -99.5z" />
    <glyph glyph-name="q.ss01" horiz-adv-x="1638" 
d="M1251 -451h-192l119 666q-103 -121 -249.5 -185.5t-307.5 -64.5q-237 0 -381 136t-144 360q0 136 58 264.5t156 225.5t237 155.5t293 58.5q161 0 281.5 -63t174.5 -178h7l38 209h187zM688 133q150 0 280 71.5t205.5 189t75.5 247.5q0 162 -112.5 260t-288.5 98
q-111 0 -213.5 -43t-175 -113t-115.5 -163t-43 -191q0 -161 106.5 -258.5t280.5 -97.5z" />
    <glyph glyph-name="r.ss01" horiz-adv-x="991" 
d="M303 0h-190l198 1133h754l-25 -162h-561z" />
    <glyph glyph-name="racute.ss01" horiz-adv-x="991" 
d="M1141 1667l-441 -389h-168l359 389h250zM303 0h-190l198 1133h754l-25 -162h-561z" />
    <glyph glyph-name="rcaron.ss01" horiz-adv-x="991" 
d="M745 1284h-233l-291 369h182q31 -31 80.5 -76t86 -81.5t79.5 -88.5q48 38 152.5 110.5t183.5 135.5h182zM303 0h-190l198 1133h754l-25 -162h-561z" />
    <glyph glyph-name="uni0157.ss01" horiz-adv-x="991" 
d="M303 0h-190l198 1133h754l-25 -162h-561zM66 -557h-101l160 207q-88 23 -88 98q0 55 47.5 96t112.5 41q51 0 84.5 -28.5t33.5 -73.5q0 -41 -34 -88t-150 -178q-41 -47 -65 -74z" />
    </font>
</defs>
</svg>
