<?xml version="1.0" standalone="no"?>
<!DOCTYPE svg PUBLIC "-//W3C//DTD SVG 1.1//EN" "http://www.w3.org/Graphics/SVG/1.1/DTD/svg11.dtd" >
<svg xmlns="http://www.w3.org/2000/svg" xmlns:xlink="http://www.w3.org/1999/xlink" version="1.1">
<metadata>
Created by FontForge 20170731 at Mon Mar 15 14:20:50 2021
 By Aleksey,,,
Copyright (c) 2020 by Matthieu Salvaggio x Blaze Type. All rights reserved.
</metadata>
<defs>
<font id="Area-ThinExtended" horiz-adv-x="2457" >
  <font-face 
    font-family="Area Thin Extended"
    font-weight="100"
    font-stretch="normal"
    units-per-em="2048"
    panose-1="0 0 2 0 0 0 0 0 0 0"
    ascent="1638"
    descent="-410"
    x-height="1126"
    cap-height="1597"
    bbox="-1968 -489 3152 2142"
    underline-thickness="102"
    underline-position="-307"
    unicode-range="U+0020-25CA"
  />
<missing-glyph horiz-adv-x="1763" 
d="M1513 0h-1265v1597h1265v-1597zM369 1503v-1362l972 1362h-972zM1393 1407l-932 -1307h932v1307z" />
    <glyph glyph-name=".notdef" horiz-adv-x="1763" 
d="M1513 0h-1265v1597h1265v-1597zM369 1503v-1362l972 1362h-972zM1393 1407l-932 -1307h932v1307z" />
    <glyph glyph-name=".null" horiz-adv-x="0" 
 />
    <glyph glyph-name="nonmarkingreturn" horiz-adv-x="682" 
 />
    <glyph glyph-name="space" unicode=" " horiz-adv-x="663" 
 />
    <glyph glyph-name="exclam" unicode="!" horiz-adv-x="614" 
d="M344 365h-72l-39 1146v86h148v-86zM309 -14q-47 0 -80.5 29.5t-33.5 70.5q0 40 33.5 67t80.5 27q46 0 78.5 -27t32.5 -67q0 -41 -32.5 -70.5t-78.5 -29.5z" />
    <glyph glyph-name="quotedbl" unicode="&#x22;" horiz-adv-x="751" 
d="M301 1182h-121v415h121v-415zM573 1182h-122v415h122v-415z" />
    <glyph glyph-name="numbersign" unicode="#" horiz-adv-x="1630" 
d="M1530 1069l-19 -86h-290l-99 -410h291l-20 -86h-291l-115 -487h-108l114 487h-506l-114 -487h-109l115 487h-281l19 86h282l99 410h-283l23 86h280l125 528h109l-125 -528h506l124 528h109l-125 -528h289zM508 573h506l98 410h-506z" />
    <glyph glyph-name="dollar" unicode="$" horiz-adv-x="1386" 
d="M1231 481q0 -152 -131 -254t-355 -106v-203h-98v207q-116 9 -212 46.5t-175 113t-123 184.5l101 37q113 -257 409 -289v539q-35 7 -68.5 15.5t-80 24.5t-86.5 35.5t-81 48.5t-69.5 63t-46.5 80.5t-18 98.5q0 78 39.5 142.5t105 105.5t144 64t161.5 26v178h98v-182
q161 -18 290 -101t169 -206l-98 -41q-41 99 -135 168t-226 86v-526q60 -14 95.5 -23t93 -27t93.5 -35t79 -45t67 -58.5t41 -73.5t17 -93zM311 1126q0 -48 22 -88.5t54.5 -67.5t81 -50.5t88.5 -36.5t90 -25v508q-143 -5 -239.5 -69.5t-96.5 -170.5zM745 735v-522
q66 2 128.5 16.5t119.5 42.5t92 78.5t35 116.5q0 51 -22.5 92.5t-55.5 68t-87.5 48.5t-99.5 34t-110 25z" />
    <glyph glyph-name="percent" unicode="%" horiz-adv-x="1935" 
d="M410 807q-136 0 -223 99.5t-87 254.5q0 158 86.5 258.5t223.5 100.5q136 0 221.5 -101t85.5 -258q0 -155 -85.5 -254.5t-221.5 -99.5zM354 0h-110l1366 1468h102zM410 885q92 0 148 75t56 201q0 127 -56 204t-148 77t-148.5 -77t-56.5 -204q0 -126 56 -201t149 -75z
M1526 -29q-136 0 -222.5 99.5t-86.5 255.5q0 158 86 258t223 100q136 0 221.5 -100.5t85.5 -257.5q0 -155 -85.5 -255t-221.5 -100zM1526 49q92 0 148.5 75.5t56.5 201.5q0 127 -56 203.5t-149 76.5t-149 -76.5t-56 -203.5q0 -126 56.5 -201.5t148.5 -75.5z" />
    <glyph glyph-name="ampersand" unicode="&#x26;" horiz-adv-x="1648" 
d="M659 -35q-140 0 -259.5 45t-196 136t-76.5 210q0 50 15 97t37.5 84.5t60.5 76t72.5 66t87 60t89.5 53t93 49.5q-51 45 -86 77t-83 84t-77 96t-50.5 99t-21.5 107q0 140 127.5 232.5t310.5 92.5q191 0 312 -101t121 -239q0 -70 -32.5 -137.5t-90 -126t-124 -106.5
t-147.5 -93l465 -405q80 136 137 350l109 -22q-81 -258 -170 -400l393 -348h-135l-309 266q-223 -303 -572 -303zM672 893q51 30 81 49t70 47t63.5 49t50 50t40 56t22.5 61t9 71q0 122 -87.5 190t-224.5 68q-130 0 -218.5 -61t-88.5 -170q0 -53 22 -106t67 -107.5t87 -96.5
t107 -100zM659 61q297 0 498 277l-498 432q-47 -25 -69 -36.5t-65 -36t-64.5 -39t-56 -39t-52 -43.5t-40 -45.5t-33.5 -51.5t-19 -55t-8 -62q0 -136 119.5 -218.5t287.5 -82.5z" />
    <glyph glyph-name="quotesingle" unicode="'" horiz-adv-x="479" 
d="M301 1182h-121v415h121v-415z" />
    <glyph glyph-name="parenleft" unicode="(" horiz-adv-x="706" 
d="M664 -307h-117q-201 198 -307.5 445t-106.5 507q0 262 106 507.5t308 444.5h117q-195 -195 -299.5 -442t-104.5 -510q0 -260 103.5 -507.5t300.5 -444.5z" />
    <glyph glyph-name="parenright" unicode=")" horiz-adv-x="706" 
d="M160 -307h-119q197 197 301 446t104 506q0 259 -104 507t-301 445h119q203 -200 308 -447t105 -505q0 -257 -105 -504.5t-308 -447.5z" />
    <glyph glyph-name="asterisk" unicode="*" horiz-adv-x="1026" 
d="M559 1024h-92v215l-229 -106l-48 69l228 109l-228 108l48 72l229 -109v215h92v-215l229 109l48 -70l-228 -110l228 -109l-48 -69l-229 106v-215z" />
    <glyph glyph-name="plus" unicode="+" horiz-adv-x="1187" 
d="M649 674h363v-99h-363v-311h-112v311h-361v99h361v311h112v-311z" />
    <glyph glyph-name="comma" unicode="," horiz-adv-x="512" 
d="M170 -254h-82l141 246q-36 10 -56.5 35.5t-20.5 58.5q0 40 33.5 67t80.5 27q46 0 79.5 -27.5t33.5 -66.5q0 -33 -36 -90t-173 -250z" />
    <glyph glyph-name="hyphen" unicode="-" horiz-adv-x="921" 
d="M776 578h-631v92h631v-92z" />
    <glyph glyph-name="period" unicode="." horiz-adv-x="552" 
d="M279 -14q-47 0 -81 29.5t-34 70.5q0 39 33.5 66.5t81.5 27.5q46 0 78 -27t32 -67q0 -41 -32 -70.5t-78 -29.5z" />
    <glyph glyph-name="slash" unicode="/" horiz-adv-x="987" 
d="M215 -135h-115l668 1773h117z" />
    <glyph glyph-name="zero" unicode="0" horiz-adv-x="1726" 
d="M864 -35q-207 0 -368 105t-250.5 294t-89.5 431q0 243 89.5 433.5t250.5 296t368 105.5q206 0 367 -105.5t250.5 -296t89.5 -433.5q0 -242 -89.5 -431t-250.5 -294t-367 -105zM866 68q169 0 299 91.5t200.5 256.5t70.5 379q0 215 -70.5 381.5t-200.5 259t-299 92.5
q-170 0 -301.5 -92t-203.5 -258.5t-72 -382.5q0 -325 159.5 -526t417.5 -201z" />
    <glyph glyph-name="one" unicode="1" horiz-adv-x="929" 
d="M651 0h-123v1341q-148 -179 -465 -211v99q210 28 342 130.5t132 237.5h114v-1597z" />
    <glyph glyph-name="two" unicode="2" horiz-adv-x="1509" 
d="M1382 0h-1228v6q12 86 30.5 153t64 128.5t71 96t109.5 92.5t117 78t153 90q72 42 110 65q48 28 81.5 49.5t88 60t92.5 77t75.5 85.5t57 101.5t19.5 111.5q0 148 -128 243t-333 95q-229 0 -373.5 -124.5t-144.5 -322.5l-109 19q0 231 173.5 378.5t455.5 147.5
q256 0 419 -123t163 -319q0 -67 -21.5 -129t-56 -111.5t-87.5 -99.5t-105 -87.5t-120 -80.5q-56 -35 -124 -74.5t-115.5 -66t-101.5 -60t-92 -60t-77 -62t-65.5 -71.5t-49 -82t-36.5 -100h1087v-104z" />
    <glyph glyph-name="three" unicode="3" horiz-adv-x="1552" 
d="M772 -35q-235 0 -412 99.5t-239 265.5l102 47q59 -142 209.5 -228t345.5 -86q215 0 354.5 100.5t139.5 264.5q0 156 -138 252t-407 96h-190v92h213q223 0 345 95.5t122 238.5q0 151 -132 240.5t-337 89.5q-189 0 -321 -86.5t-161 -239.5l-108 19q33 187 200.5 296
t403.5 109q156 0 286.5 -48t211.5 -143t81 -220q0 -137 -93.5 -245.5t-246.5 -148.5v-2q177 -27 287.5 -127.5t110.5 -257.5q0 -97 -44 -183t-123.5 -150.5t-198.5 -102t-261 -37.5z" />
    <glyph glyph-name="four" unicode="4" horiz-adv-x="1576" 
d="M1188 0h-123v408h-997v116l999 1073h121v-1087h295v-102h-295v-408zM1065 1448l-868 -938h868v938z" />
    <glyph glyph-name="five" unicode="5" horiz-adv-x="1542" 
d="M758 -35q-232 0 -418.5 98t-257.5 267l104 49q67 -146 224.5 -231t349.5 -85q224 0 378 122t154 313q0 182 -144 299.5t-362 117.5q-156 0 -285 -62t-200 -163l-98 43l221 864h889v-96h-807l-170 -670h4q55 73 182.5 124t280.5 51q168 0 308 -62t224 -178.5t84 -265.5
q0 -153 -88.5 -276.5t-239.5 -191t-333 -67.5z" />
    <glyph glyph-name="six" unicode="6" horiz-adv-x="1617" 
d="M838 -35q-309 0 -496.5 202t-187.5 550q0 200 65.5 370.5t179.5 289.5t273.5 186t343.5 67q235 0 405 -106l-86 -78q-144 86 -340 86q-153 0 -285.5 -56t-231 -159t-155.5 -260t-57 -348h6q52 142 220.5 232.5t365.5 90.5q123 0 238 -39t202.5 -107.5t140 -169
t52.5 -216.5q0 -153 -87 -276t-236 -191t-330 -68zM840 63q142 0 261.5 55.5t191 157t71.5 228.5q0 126 -70.5 227t-189.5 156t-262 55q-149 0 -270 -60.5t-188 -162t-67 -221.5q0 -121 70.5 -221.5t190.5 -157t262 -56.5z" />
    <glyph glyph-name="seven" unicode="7" horiz-adv-x="1439" 
d="M498 0h-123q0 211 121.5 501.5t328 572t435.5 452.5h-1219v104h1352v-112q-237 -181 -444.5 -456.5t-329 -561t-121.5 -500.5z" />
    <glyph glyph-name="eight" unicode="8" horiz-adv-x="1591" 
d="M799 -35q-186 0 -335 60t-231.5 164.5t-82.5 234.5q0 150 103.5 260.5t281.5 153.5v4q-152 52 -234 147t-82 217q0 178 164 301t416 123q249 0 412 -118.5t163 -294.5q0 -120 -83.5 -222t-233.5 -153v-4q178 -43 281.5 -154t103.5 -262q0 -129 -83.5 -234t-231 -164
t-328.5 -59zM799 877q194 0 323 96.5t129 243.5q0 142 -128.5 232.5t-323.5 90.5q-199 0 -329 -90.5t-130 -232.5q0 -148 130 -244t329 -96zM797 59q221 0 368.5 104t147.5 271q0 163 -133 261t-381 98q-252 0 -386 -98t-134 -261q0 -167 148 -271t370 -104z" />
    <glyph glyph-name="nine" unicode="9" horiz-adv-x="1652" 
d="M758 -35q-158 0 -313 59t-283 185l90 67q215 -215 489 -215q128 0 233.5 42t178.5 116.5t123 178t73 224t23 257.5h-4q-52 -160 -218 -258.5t-370 -98.5q-127 0 -242.5 42t-201 114.5t-136 176.5t-50.5 222q0 157 85.5 283t238.5 198t345 72q106 0 200 -23t182 -78
t151 -139t101 -214t38 -295q0 -145 -27.5 -278.5t-86.5 -250t-143.5 -202.5t-207 -135.5t-268.5 -49.5zM786 614q151 0 275 66.5t193 178t69 243.5q0 99 -42 182t-113 137.5t-164 84.5t-197 30q-148 0 -268.5 -56.5t-192.5 -162.5t-72 -242q0 -197 145 -329t367 -132z" />
    <glyph glyph-name="colon" unicode=":" horiz-adv-x="593" 
d="M299 965q-48 0 -81.5 28.5t-33.5 69.5q0 40 34 68t81 28q46 0 78.5 -28t32.5 -68q0 -41 -32.5 -69.5t-78.5 -28.5zM299 -14q-47 0 -81 29.5t-34 70.5q0 40 34 68t81 28q46 0 78.5 -28t32.5 -68q0 -41 -32.5 -70.5t-78.5 -29.5z" />
    <glyph glyph-name="semicolon" unicode=";" horiz-adv-x="692" 
d="M360 965q-47 0 -79.5 28.5t-32.5 69.5q0 40 32.5 68t79.5 28q46 0 79.5 -28t33.5 -68q0 -41 -33.5 -69.5t-79.5 -28.5zM264 -254h-82l142 246q-36 10 -56 35.5t-20 58.5q0 40 32.5 67t79.5 27q46 0 79.5 -27.5t33.5 -66.5q0 -37 -49 -112q-24 -37 -160 -228z" />
    <glyph glyph-name="less" unicode="&#x3c;" horiz-adv-x="1226" 
d="M1018 426v-98l-838 245v103l838 246v-101l-694 -196z" />
    <glyph glyph-name="equal" unicode="=" horiz-adv-x="1230" 
d="M1034 780h-839v99h839v-99zM1034 369h-839v98h839v-98z" />
    <glyph glyph-name="greater" unicode="&#x3e;" horiz-adv-x="1226" 
d="M1044 573l-835 -245v98l694 199l-694 196v101l835 -246v-103z" />
    <glyph glyph-name="question" unicode="?" horiz-adv-x="1255" 
d="M588 362h-109q-14 60 -14 115q0 39 7.5 72.5t28 65t38.5 54t58 54.5t66.5 51t81.5 57q139 92 212 185t73 203q0 97 -59 170.5t-150.5 110t-199.5 36.5q-79 0 -153.5 -23t-134 -64.5t-95 -107.5t-35.5 -145q0 -32 6 -70l-105 19q-8 33 -8 69q0 124 75 220.5t195 146
t259 49.5q102 0 196 -28t168 -78t118 -128t44 -171q0 -59 -20.5 -115.5t-52 -102t-80.5 -93t-94 -82.5t-105 -76q-61 -41 -93 -65t-67 -60t-49.5 -75t-14.5 -89q0 -52 13 -105zM559 -14q-47 0 -81 29.5t-34 70.5q0 39 33.5 66.5t81.5 27.5q45 0 78 -27.5t33 -66.5
q0 -41 -33 -70.5t-78 -29.5z" />
    <glyph glyph-name="at" unicode="@" horiz-adv-x="2367" 
d="M1083 -195q-219 0 -401.5 63t-303.5 172t-188 253.5t-67 308.5q0 157 61 310t174 281.5t262.5 227t338.5 154t389 55.5q264 0 476 -93t336 -268t124 -401q0 -179 -75.5 -329.5t-204.5 -237t-280 -86.5q-136 0 -199.5 69t-41.5 175q-90 -110 -219 -168t-256 -58
q-178 0 -291 111.5t-113 276.5q0 144 86.5 278t228.5 215.5t295 81.5q129 0 230.5 -59.5t146.5 -165.5l39 198h101l-132 -612q-4 -22 -6.5 -37t-5 -44.5t0.5 -50.5t12 -47t25.5 -42t46 -27.5t69.5 -11.5q110 0 206 72t155 200.5t59 280.5q0 149 -58 276t-163 218.5
t-258 143.5t-336 52q-222 0 -426 -76.5t-351 -204t-235 -299.5t-88 -356q0 -150 59.5 -279t168 -223.5t271 -148t359.5 -53.5q188 0 362.5 47.5t300.5 132.5l62 -74q-155 -100 -351 -150.5t-395 -50.5zM1040 324q102 0 193.5 41.5t155 109t100.5 155t37 177.5
q0 136 -81 217.5t-231 81.5q-103 0 -195 -40.5t-155 -106.5t-100 -152.5t-37 -177.5q0 -137 81 -221t232 -84z" />
    <glyph glyph-name="A" unicode="A" horiz-adv-x="1794" 
d="M172 0h-129l791 1597h124l791 -1597h-127q-142 278 -297 592h-860q-49 -99 -118 -239t-111.5 -226.5t-63.5 -126.5zM512 690h766q-277 562 -377 787h-6q-28 -59 -164 -336.5t-219 -450.5z" />
    <glyph glyph-name="B" unicode="B" horiz-adv-x="1751" 
d="M1036 0h-762v1597h654q146 0 265 -35t195 -93.5t117 -132.5t41 -156q0 -58 -21 -113.5t-62.5 -106t-111 -89.5t-159.5 -58v-4q108 -16 190.5 -55t130.5 -93t71.5 -114t23.5 -123q0 -84 -41 -161t-114 -135.5t-181.5 -93t-235.5 -34.5zM397 852h531q230 0 360.5 90
t130.5 227q0 146 -144 238t-372 92h-506v-647zM397 98h592q230 0 361 90.5t131 229.5q0 145 -141.5 240.5t-374.5 95.5h-568v-656z" />
    <glyph glyph-name="C" unicode="C" horiz-adv-x="2072" 
d="M1102 -35q-209 0 -388.5 61.5t-305.5 170t-197.5 262t-71.5 332.5q0 183 74 340.5t201.5 266.5t303 170.5t374.5 61.5q131 0 257 -27.5t239 -81.5t201.5 -144t133.5 -206l-104 -38q-91 188 -288.5 291.5t-436.5 103.5q-164 0 -312.5 -50.5t-262.5 -142.5t-181.5 -233.5
t-67.5 -310.5q0 -141 47.5 -261t128.5 -204t190 -143t232 -87t254 -28q158 0 292 41t227.5 113t156.5 159.5t96 189.5l109 -34q-34 -95 -87.5 -178.5t-133 -156.5t-178 -125t-227 -82t-275.5 -30z" />
    <glyph glyph-name="D" unicode="D" horiz-adv-x="1982" 
d="M952 0h-678v1597h656q187 0 339.5 -40.5t257 -112t176 -171.5t104 -216t32.5 -248q0 -178 -61 -327t-173 -256t-280 -166.5t-373 -59.5zM397 98h580q172 0 310.5 51t231.5 142.5t143 220.5t50 285q0 323 -207.5 512.5t-599.5 189.5h-508v-1401z" />
    <glyph glyph-name="E" unicode="E" horiz-adv-x="1624" 
d="M1491 0h-1217v1597h1192v-98h-1069v-627h1020v-98h-1020v-670h1094v-104z" />
    <glyph glyph-name="F" unicode="F" horiz-adv-x="1527" 
d="M1442 1597v-106h-1045v-631h996v-98h-996v-762h-123v1597h1168z" />
    <glyph glyph-name="G" unicode="G" horiz-adv-x="2166" 
d="M1092 -35q-274 0 -491.5 105t-339.5 294t-122 427q0 183 74 340.5t201.5 266.5t303 170.5t374.5 61.5q131 0 257 -27.5t239 -81.5t201.5 -144t133.5 -206l-104 -38q-91 188 -288.5 291.5t-436.5 103.5q-164 0 -312.5 -50.5t-262.5 -142t-181.5 -233t-67.5 -311.5
q0 -141 47 -260.5t127 -203.5t187.5 -143t228 -87.5t248.5 -28.5q324 0 533 171.5t227 432.5h-711v96h834v-768h-107v389h-12q-97 -201 -297 -312.5t-483 -111.5z" />
    <glyph glyph-name="H" unicode="H" horiz-adv-x="1984" 
d="M1587 858v739h123v-1597h-123v760h-1190v-760h-123v1597h123v-739h1190z" />
    <glyph glyph-name="I" unicode="I" horiz-adv-x="671" 
d="M397 0h-123v1597h123v-1597z" />
    <glyph glyph-name="J" unicode="J" horiz-adv-x="1411" 
d="M643 -35q-84 0 -162 15t-153.5 52t-131.5 93.5t-90 146t-34 201.5v41l110 14v-34q0 -97 29 -174t74.5 -124t107.5 -78t122.5 -43t125.5 -12q64 0 118 12.5t92.5 32t69 51.5t49.5 61t33 72t20.5 73t10 75.5t4 68t0.5 60.5v1028h121v-991q0 -46 -0.5 -74t-5 -84.5
t-13.5 -95t-26.5 -93t-42.5 -92t-65 -79t-90 -66t-120 -41t-153 -16.5z" />
    <glyph glyph-name="K" unicode="K" horiz-adv-x="1607" 
d="M397 0h-123v1597h123v-895h4q96 89 193 176.5t217.5 194t186 164t218.5 190.5t195 170h148l-793 -702q90 -96 388 -412t454 -483h-150q-77 80 -217 225.5t-567 587.5l-277 -246v-567z" />
    <glyph glyph-name="L" unicode="L" horiz-adv-x="1456" 
d="M397 1597v-1493h1020v-104h-1143v1597h123z" />
    <glyph glyph-name="M" unicode="M" horiz-adv-x="2467" 
d="M397 0h-123v1597h146q442 -781 811 -1462h4q457 813 813 1462h145v-1597h-122v1380h-11q-193 -359 -762 -1380h-133q-83 150 -244.5 441t-278 503t-236.5 436h-9v-1380z" />
    <glyph glyph-name="N" unicode="N" horiz-adv-x="2033" 
d="M397 0h-123v1597h138q108 -127 362.5 -425t465.5 -546.5t392 -465.5h6v1437h121v-1597h-137q-170 199 -583.5 677.5t-639.5 743.5h-2v-1421z" />
    <glyph glyph-name="O" unicode="O" horiz-adv-x="2195" 
d="M1098 -35q-194 0 -370.5 63.5t-306.5 172.5t-207 264.5t-77 331.5q0 175 76 330.5t205.5 265.5t306.5 173.5t373 63.5q199 0 377.5 -65.5t306 -177t202 -265.5t74.5 -325q0 -230 -128.5 -421.5t-349 -301t-482.5 -109.5zM1100 68q163 0 313 55t263 150t180 232t67 292
q0 156 -67 293.5t-180 232.5t-263 150t-313 55q-164 0 -316 -55t-266 -150t-182 -232.5t-68 -293.5q0 -155 68 -292t182 -232t266 -150t316 -55z" />
    <glyph glyph-name="P" unicode="P" horiz-adv-x="1636" 
d="M274 1597h654q293 0 455.5 -129t162.5 -335q0 -217 -158 -349.5t-413 -132.5h-578v-651h-123v1597zM397 750h531q236 0 363.5 98.5t127.5 273.5q0 174 -138.5 275.5t-375.5 101.5h-508v-749z" />
    <glyph glyph-name="Q" unicode="Q" horiz-adv-x="2195" 
d="M1976 -115l-84 -63q-45 45 -137 135t-137 135q-241 -127 -520 -127q-194 0 -370.5 63.5t-306.5 172.5t-207 264.5t-77 331.5q0 175 76 330.5t205.5 265.5t307 173.5t374.5 63.5q198 0 376 -65.5t305 -177t201 -265.5t74 -325q0 -195 -92.5 -362t-257.5 -283
q52 -49 143.5 -140.5zM1102 68q236 0 438 108q-213 206 -399 389l84 64q45 -44 185 -181t218 -212q137 102 216 246.5t79 314.5q0 125 -43 239t-120.5 202.5t-180 154.5t-225 100.5t-252.5 34.5q-132 0 -257 -34.5t-229 -100.5t-182 -154.5t-122 -202.5t-44 -239
q0 -155 68 -292t182 -232t266.5 -150t317.5 -55z" />
    <glyph glyph-name="R" unicode="R" horiz-adv-x="1695" 
d="M397 0h-123v1597h654q293 0 455.5 -129t162.5 -335q0 -204 -141 -334t-373 -144v-2q87 -109 263.5 -326.5t263.5 -326.5h-136l-528 651h-498v-651zM397 750h531q236 0 363.5 98.5t127.5 273.5q0 173 -139 275t-375 102h-508v-749z" />
    <glyph glyph-name="S" unicode="S" horiz-adv-x="1579" 
d="M813 -35q-82 0 -162 13.5t-165 47.5t-156 85.5t-131.5 134t-94.5 186.5l113 37q62 -191 225 -296t375 -105q90 0 175 19t160 57.5t121 106.5t46 155q0 44 -13.5 81t-29 63t-53.5 51t-59 37.5t-76 30.5t-73.5 23t-81.5 21q-31 8 -46 12l-180 47q-53 14 -87 24t-95.5 32
t-103 43.5t-92.5 57.5t-81.5 75t-52 93.5t-21.5 116.5q0 103 54 184.5t142.5 131t194.5 75t219 25.5q220 0 389 -98.5t236 -286.5l-109 -39q-57 147 -198.5 234.5t-337.5 87.5q-126 0 -230.5 -36.5t-168.5 -107t-64 -161.5q0 -46 17.5 -87.5t42.5 -71.5t66 -57.5t74 -44.5
t81 -34.5t72 -24.5t62 -17q8 -2 11 -3l182 -49l45 -12q45 -12 68.5 -18.5t67.5 -19.5t69.5 -23.5t64.5 -27t62.5 -33t53 -38.5t47 -46.5t34 -54t24 -65t7.5 -74.5q0 -83 -35 -156.5t-96 -128t-141.5 -93.5t-174.5 -59t-192 -20z" />
    <glyph glyph-name="T" unicode="T" horiz-adv-x="1554" 
d="M838 0h-121v1499h-678v98h1479v-98h-680v-1499z" />
    <glyph glyph-name="U" unicode="U" horiz-adv-x="1853" 
d="M920 -35q-149 0 -269.5 35.5t-211 107.5t-140 188.5t-49.5 270.5v1030h123v-1024q0 -136 40 -235.5t115.5 -159t174 -87.5t223.5 -28q126 0 225 28t174 87.5t115.5 159t40.5 235.5v1024h123v-1030q0 -279 -176.5 -440.5t-507.5 -161.5z" />
    <glyph glyph-name="V" unicode="V" horiz-adv-x="1794" 
d="M958 0h-124l-791 1597h131q212 -413 725 -1476h6q124 257 362 747.5t353 728.5h129z" />
    <glyph glyph-name="W" unicode="W" horiz-adv-x="2779" 
d="M831 0h-141l-639 1597h125q364 -875 588 -1460h4q53 141 250.5 659.5t302.5 800.5h135q93 -243 280.5 -729.5t280.5 -730.5h6q374 965 580 1460h125l-639 -1597h-143q-234 583 -553 1452h-4q-368 -989 -558 -1452z" />
    <glyph glyph-name="X" unicode="X" horiz-adv-x="1572" 
d="M176 0h-137q99 119 326.5 396.5t351.5 424.5v4q-411 478 -658 772h138q334 -391 587 -690h7q268 325 585 690h137q-142 -168 -375 -441t-282 -331v-4q135 -159 377 -455.5t299 -365.5h-135q-459 561 -606 739h-7q-115 -142 -324.5 -395t-283.5 -344z" />
    <glyph glyph-name="Y" unicode="Y" horiz-adv-x="1683" 
d="M901 0h-121v594q-408 568 -725 1003h133l652 -903h4q66 91 102.5 141t66.5 91.5t156 215.5t330 455h129q-693 -957 -727 -1003v-594z" />
    <glyph glyph-name="Z" unicode="Z" horiz-adv-x="1607" 
d="M1532 0h-1460v111q1148 1230 1292 1384v4h-1241v98h1388v-104q-578 -617 -1294 -1384v-5h1315v-104z" />
    <glyph glyph-name="bracketleft" unicode="[" horiz-adv-x="749" 
d="M690 -311h-442v1908h442v-90h-328v-1726h328v-92z" />
    <glyph glyph-name="backslash" unicode="\" horiz-adv-x="987" 
d="M887 -135h-117l-668 1773h115z" />
    <glyph glyph-name="bracketright" unicode="]" horiz-adv-x="749" 
d="M502 -311h-443v92h328v1726h-328v90h443v-1908z" />
    <glyph glyph-name="asciicircum" unicode="^" horiz-adv-x="1021" 
d="M274 1063h-120l295 534h124l295 -534h-120l-234 438h-6z" />
    <glyph glyph-name="underscore" unicode="_" horiz-adv-x="1214" 
d="M1180 -219h-1145v90h1145v-90z" />
    <glyph glyph-name="a" unicode="a" horiz-adv-x="1402" 
d="M547 -35q-117 0 -210.5 30t-152.5 96t-59 159q0 77 40 137.5t114.5 101t158 66t191.5 43.5q32 5 84 13t82.5 12.5t73 13.5t67 17.5t53 22.5t43.5 30.5t25 40.5t10 53q0 107 -107.5 187.5t-273.5 80.5q-146 0 -251 -68.5t-144 -181.5l-117 35q37 101 123 172t187 102
t210 31q69 0 136.5 -12t133.5 -40.5t115.5 -70t80 -105t30.5 -140.5v-439q0 -131 10 -204.5t33 -147.5h-117q-37 112 -37 256h-6q-71 -132 -203 -211.5t-323 -79.5zM551 53q114 0 214.5 40.5t164.5 102t100.5 131t36.5 130.5v170q-58 -41 -119.5 -60.5t-216.5 -42.5
q-53 -8 -82 -13t-88 -18t-94.5 -25.5t-82.5 -34t-73.5 -45.5t-45.5 -59t-19 -75q0 -91 84.5 -146t220.5 -55z" />
    <glyph glyph-name="b" unicode="b" horiz-adv-x="1648" 
d="M893 -35q-174 0 -318.5 74t-226.5 209h-4v-248h-111v1638h115v-764q85 141 229 213t316 72q176 0 320 -75t227.5 -212t83.5 -309q0 -173 -83.5 -310t-227 -212.5t-320.5 -75.5zM883 57q224 0 371 144t147 362q0 144 -68 260t-186.5 181t-263.5 65q-144 0 -266 -63.5
t-195.5 -180.5t-73.5 -264q0 -146 73.5 -262.5t195 -179t266.5 -62.5z" />
    <glyph glyph-name="c" unicode="c" horiz-adv-x="1492" 
d="M786 -35q-293 0 -478 166t-185 430q0 266 186 432t482 166q88 0 169 -17t157.5 -52.5t139.5 -97.5t103 -146l-113 -35q-55 120 -178 189t-287 69q-242 0 -388 -143.5t-146 -364.5q0 -225 152 -364.5t395 -139.5q193 0 325.5 86.5t200.5 227.5l104 -29q-80 -183 -250 -280
t-389 -97z" />
    <glyph glyph-name="d" unicode="d" horiz-adv-x="1646" 
d="M754 -35q-178 0 -322 75.5t-227.5 212t-83.5 308.5q0 174 84.5 311.5t229.5 212t323 74.5q168 0 309 -70t225 -206h6v755h115v-1286q0 -129 10 -204t33 -148h-117q-36 117 -36 248h-7q-80 -136 -224.5 -209.5t-317.5 -73.5zM762 57q145 0 267 63t195.5 179.5t73.5 263.5
t-73.5 263.5t-195.5 179.5t-267 63q-223 0 -369.5 -145t-146.5 -363t148 -361t368 -143z" />
    <glyph glyph-name="e" unicode="e" horiz-adv-x="1525" 
d="M780 -35q-187 0 -336.5 74.5t-235 211t-85.5 310.5q0 173 85 310t235 212.5t339 75.5q53 0 106.5 -6.5t115 -23.5t115.5 -43t105 -70t87 -100t58 -136t22 -176v-55h-1143q0 -221 150 -357.5t388 -136.5q188 0 323 89t202 227l100 -31q-77 -180 -245.5 -277.5
t-385.5 -97.5zM252 647h1012q0 91 -29.5 164.5t-77.5 120.5t-112.5 78.5t-131 45t-135.5 13.5q-211 0 -353 -116t-173 -306z" />
    <glyph glyph-name="f" unicode="f" horiz-adv-x="825" 
d="M393 0h-114v1040h-205v86h205v160q0 55 1 84t7 77t18 74t36 60t58.5 50.5t87 29t121.5 12.5q152 0 260 -57v-100q-120 67 -250 67q-66 0 -110 -16t-66.5 -36t-34 -65t-13 -75.5t-1.5 -94.5v-170h418v-86h-418v-1040z" />
    <glyph glyph-name="g" unicode="g" horiz-adv-x="1644" 
d="M801 -483q-226 0 -377.5 79t-224.5 252l106 31q50 -127 174 -199.5t326 -72.5q76 0 142.5 13.5t132.5 49.5t112.5 92t75 148.5t28.5 212.5v160h-6q-82 -136 -224.5 -209.5t-315.5 -73.5q-176 0 -320.5 76t-227.5 210.5t-83 297.5q0 166 84.5 298t229.5 204.5t321 72.5
q170 0 314 -72.5t228 -212.5h4v252h111v-981q0 -628 -610 -628zM760 92q144 0 267 63.5t196 177.5t73 253t-73.5 250.5t-195.5 172t-267 60.5q-221 0 -368.5 -140t-147.5 -345q0 -207 149 -349.5t367 -142.5z" />
    <glyph glyph-name="h" unicode="h" horiz-adv-x="1550" 
d="M348 0h-115v1638h115v-739h6q149 260 486 260q75 0 143 -13t134.5 -46t114.5 -83t77.5 -130t29.5 -182v-705h-112v662q0 112 -35.5 194.5t-96 127t-128.5 65t-146 20.5q-112 0 -205 -39.5t-150 -102.5t-87.5 -137.5t-30.5 -148.5v-641z" />
    <glyph glyph-name="i" unicode="i" horiz-adv-x="581" 
d="M291 1440q-49 0 -83 29.5t-34 72.5q0 40 34 68t83 28q47 0 79.5 -28t32.5 -68q0 -43 -32.5 -72.5t-79.5 -29.5zM348 0h-115v1126h115v-1126z" />
    <glyph glyph-name="j" unicode="j" horiz-adv-x="579" 
d="M289 1440q-49 0 -83 29.5t-34 72.5q0 40 34 68t83 28q47 0 79.5 -28t32.5 -68q0 -43 -32.5 -72.5t-79.5 -29.5zM-16 -483q-146 0 -252 59v100q117 -69 235 -69q43 0 78.5 9.5t61 24t46 39t33.5 46t22 55.5t13.5 57t6.5 59.5t2.5 55t0.5 51.5v1122h117v-1140v-1
q0 -39 -0.5 -60.5t-3.5 -64.5t-9 -70.5t-19 -67t-30.5 -65.5t-45.5 -55t-63 -45.5t-84.5 -28t-108.5 -11.5z" />
    <glyph glyph-name="k" unicode="k" horiz-adv-x="1247" 
d="M653 688l607 -688h-130l-561 616l-221 -188v-428h-115v1638h115v-1083h6q289 250 666 571h145z" />
    <glyph glyph-name="l" unicode="l" horiz-adv-x="581" 
d="M348 0h-115v1638h115v-1638z" />
    <glyph glyph-name="m" unicode="m" horiz-adv-x="2494" 
d="M348 0h-115v1126h111v-227h4q78 132 206 196t282 64q72 0 139 -15t132 -46.5t114.5 -91t72.5 -140.5h4q169 293 502 293q71 0 136.5 -13t130 -46t111.5 -83.5t76.5 -130.5t29.5 -181v-705h-115v662q0 90 -23.5 162t-61.5 117t-90 74.5t-105 41.5t-111 12q-107 0 -197 -39
t-146.5 -102t-88 -137.5t-31.5 -149.5v-641h-113v662q0 112 -35 194.5t-94 127t-125 65t-139 20.5q-107 0 -196.5 -39t-146 -102t-87.5 -137.5t-31 -149.5v-641z" />
    <glyph glyph-name="n" unicode="n" horiz-adv-x="1550" 
d="M348 0h-115v1126h111v-227h4q78 134 206 197t288 63q76 0 143.5 -13t133.5 -46t114 -83t77 -130t29 -182v-705h-112v662q0 112 -35.5 194.5t-96 127t-128.5 65t-146 20.5q-91 0 -169 -26t-133 -68.5t-94.5 -98.5t-58 -116t-18.5 -119v-641z" />
    <glyph glyph-name="o" unicode="o" horiz-adv-x="1587" 
d="M795 -35q-295 0 -483.5 167t-188.5 429q0 174 85.5 310.5t239 212t347.5 75.5q193 0 345.5 -75.5t238 -212t85.5 -310.5q0 -173 -85 -309t-238 -211.5t-346 -75.5zM795 57q242 0 393 140.5t151 363.5q0 224 -151 366t-393 142q-241 0 -394 -142.5t-153 -365.5
t152.5 -363.5t394.5 -140.5z" />
    <glyph glyph-name="p" unicode="p" horiz-adv-x="1648" 
d="M348 -451h-115v1577h111v-252h4q85 141 230 213t315 72q176 0 320 -75t227.5 -212t83.5 -309q0 -173 -83.5 -310t-227 -212.5t-320.5 -75.5q-174 0 -318.5 74t-226.5 209v-699zM883 57q224 0 371 144t147 362q0 144 -68 260t-186.5 181t-263.5 65q-144 0 -266 -63.5
t-195.5 -180.5t-73.5 -264q0 -146 73.5 -262.5t195 -179t266.5 -62.5z" />
    <glyph glyph-name="q" unicode="q" horiz-adv-x="1646" 
d="M1413 -451h-115v699q-81 -134 -225.5 -208.5t-318.5 -74.5q-177 0 -321.5 75.5t-228 212.5t-83.5 308q0 174 84.5 311.5t229 212t321.5 74.5q170 0 314 -72.5t228 -212.5h5v252h110v-1577zM762 57q145 0 266.5 63t194.5 179.5t73 263.5t-73 263.5t-194.5 179.5t-266.5 63
q-223 0 -369.5 -145t-146.5 -363t148 -361t368 -143z" />
    <glyph glyph-name="r" unicode="r" horiz-adv-x="991" 
d="M348 0h-115v1126h111v-245h10q51 127 175.5 202.5t277.5 75.5q93 0 160 -22v-109q-73 29 -168 29q-102 0 -188.5 -41t-143 -108.5t-88 -154t-31.5 -178.5v-575z" />
    <glyph glyph-name="s" unicode="s" horiz-adv-x="1204" 
d="M637 -35q-190 0 -341 87.5t-208 228.5l109 30q54 -111 179 -183.5t263 -72.5q39 0 82 6.5t90.5 23.5t84.5 42t61 66t24 92q0 41 -19.5 74.5t-46 54t-73.5 39t-80.5 27.5t-89.5 22l-127 28q-38 9 -56.5 13.5t-66.5 20t-77 30t-70 41.5t-64.5 56t-41 71.5t-17.5 91.5
q0 77 40.5 138t105.5 96t138 53t146 18q162 0 292 -77.5t177 -194.5l-115 -35q-38 91 -137 154t-236 63q-127 0 -210 -56t-83 -149q0 -45 23 -82.5t55 -61.5t81.5 -45t88 -32t88.5 -22l135 -33q150 -37 220 -74q143 -77 143 -213q0 -140 -133 -238t-334 -98z" />
    <glyph glyph-name="t" unicode="t" horiz-adv-x="894" 
d="M594 -35q-48 0 -88 8.5t-68.5 21.5t-51 36t-37 43t-24.5 51t-15 52.5t-7.5 56t-3 52t-0.5 48.5v704h-270v88h270v340h115v-340h428v-88h-428v-682v-45t2 -45t5 -46.5t9.5 -42t16 -40.5t24.5 -32.5t34 -27t45 -16t58 -6.5q112 0 234 70v-100q-108 -60 -248 -60z" />
    <glyph glyph-name="u" unicode="u" horiz-adv-x="1527" 
d="M696 -35q-70 0 -135.5 13.5t-130.5 46.5t-112.5 83t-77 130.5t-29.5 181.5v706h115v-663q0 -91 24 -163t63 -116.5t92 -74t106.5 -41t111.5 -11.5q107 0 196 39t144.5 102t86 137t30.5 148v643h112v-774q0 -119 10 -194.5t35 -157.5h-116q-37 118 -37 225h-4
q-80 -134 -205.5 -197t-278.5 -63z" />
    <glyph glyph-name="v" unicode="v" horiz-adv-x="1308" 
d="M711 0h-113l-553 1126h127q81 -168 240.5 -501.5t240.5 -501.5h6q356 748 478 1003h125z" />
    <glyph glyph-name="w" unicode="w" horiz-adv-x="2213" 
d="M666 0h-109l-506 1126h125l436 -983h6l426 983h125l441 -983h6l422 983h123l-502 -1126h-111q-300 674 -438 1014h-6q-177 -438 -438 -1014z" />
    <glyph glyph-name="x" unicode="x" horiz-adv-x="1226" 
d="M172 0h-127q426 482 498 565v4q-71 79 -179.5 201t-318.5 356h131q426 -475 434 -485h4q85 96 242 270t193 215h133q-212 -235 -500 -557v-4q294 -333 496 -565h-123q-60 69 -210.5 238t-230.5 262h-4q-40 -46 -197.5 -225t-240.5 -275z" />
    <glyph glyph-name="y" unicode="y" horiz-adv-x="1306" 
d="M487 -451h-98l213 443l-557 1134h127q95 -191 265.5 -550t215.5 -453h4q56 117 152 320t176 371t152 312h125z" />
    <glyph glyph-name="z" unicode="z" horiz-adv-x="1165" 
d="M1106 0h-1038v72l825 962h-772v92h928v-71l-830 -963h887v-92z" />
    <glyph glyph-name="braceleft" unicode="{" horiz-adv-x="860" 
d="M811 -307h-82q-140 0 -235 30t-147 90.5t-73.5 137.5t-21.5 186v168q0 60 -4 104.5t-8.5 75t-16.5 50t-21 30t-29.5 15.5t-33 5.5t-41.5 0.5v119h3q22 0 32 0.5t27 2.5t25 7t20 14.5t17.5 23.5t12.5 35t10 49t5 65t2 83v168q0 48 2 81.5t12 83.5t28 85t53.5 74.5t85 63.5
t125 40t171.5 16h82v-90h-80q-194 0 -279 -74t-85 -227v-215q0 -94 -9.5 -158t-29.5 -101t-43 -55.5t-58 -29.5v-4q35 -11 58 -29.5t43 -55.5t29.5 -101t9.5 -158v-215q0 -47 6 -83.5t28.5 -79t60.5 -70.5t106.5 -47t162.5 -19h80v-92z" />
    <glyph glyph-name="bar" unicode="|" horiz-adv-x="618" 
d="M371 -451h-123v2089h123v-2089z" />
    <glyph glyph-name="braceright" unicode="}" horiz-adv-x="860" 
d="M129 -307h-80v92h80q192 0 277.5 73t85.5 226v215q0 120 17.5 193t46 104t77.5 47v4q-48 16 -77 47.5t-46.5 104.5t-17.5 192v215q0 52 -8 92.5t-31.5 81t-62.5 67.5t-105.5 43.5t-155.5 16.5h-80v90h80q113 0 196.5 -20.5t137.5 -56.5t86.5 -93t45.5 -122.5t13 -151.5
v-168q0 -46 2 -83t5 -65t10 -49t12.5 -35t17.5 -23.5t20 -14.5t25 -7t27 -2.5t32 -0.5h3v-119q-29 0 -41.5 -0.5t-33 -5.5t-29.5 -15.5t-21 -30t-16.5 -50t-8.5 -75t-4 -104.5v-168q0 -53 -3.5 -94t-16 -89t-33 -84t-57 -71t-85.5 -57t-121.5 -35.5t-162.5 -13.5z" />
    <glyph glyph-name="asciitilde" unicode="~" horiz-adv-x="1253" 
d="M813 594q-51 0 -95 14.5t-74.5 36t-59 42.5t-63 35.5t-72.5 14.5q-65 0 -99.5 -41t-34.5 -102h-112q0 115 78.5 175t185.5 60q61 0 113 -22.5t83.5 -49t74 -49t85.5 -22.5q62 0 92.5 40t30.5 103h111q0 -118 -69 -176.5t-175 -58.5z" />
    <glyph glyph-name="uni00A0" unicode="&#xa0;" horiz-adv-x="663" 
 />
    <glyph glyph-name="exclamdown" unicode="&#xa1;" horiz-adv-x="573" 
d="M289 965q-47 0 -81 28t-34 68q0 41 33.5 69.5t81.5 28.5q46 0 78 -28.5t32 -69.5q0 -40 -32 -68t-78 -28zM360 -451h-147v84l39 1147h72l36 -1147v-84z" />
    <glyph glyph-name="cent" unicode="&#xa2;" horiz-adv-x="1370" 
d="M1151 571l88 -26q-62 -143 -190.5 -222t-298.5 -87v-236h-99v238q-216 20 -348.5 153.5t-132.5 333.5q0 203 133 337.5t348 154.5v249h99v-247q143 -7 259 -69t177 -189l-96 -31q-38 89 -128.5 144.5t-211.5 62.5v-822q146 7 246 76t155 180zM276 727
q0 -165 103.5 -276.5t271.5 -131.5v816q-170 -19 -272.5 -132t-102.5 -276z" />
    <glyph glyph-name="sterling" unicode="&#xa3;" horiz-adv-x="1425" 
d="M330 104h995v-104h-1208v104q228 77 359.5 198.5t131.5 258.5q0 92 -63 184h-379v97h305q-12 15 -55 64t-60 70t-49 66t-46 76t-26 75t-12 87q0 109 66 189.5t175 120.5t245 40q66 0 128 -9.5t132 -35.5t126.5 -66.5t105 -109t73.5 -156.5l-107 -41q-31 88 -82.5 152.5
t-114.5 99.5t-128.5 51.5t-136.5 16.5q-96 0 -175 -27t-129.5 -85.5t-50.5 -139.5q0 -59 29.5 -121t63.5 -104t93.5 -108.5t88.5 -104.5h526v-97h-465q43 -81 43 -167q0 -138 -105.5 -264t-293.5 -210z" />
    <glyph glyph-name="currency" unicode="&#xa4;" horiz-adv-x="1619" 
d="M1260 819q0 -160 -107 -264l330 -328l-84 -65l-332 330q-108 -60 -256 -60q-147 0 -258 62l-334 -332l-84 65l332 330q-107 104 -107 262q0 159 105 264l-330 330l84 66l334 -330q109 61 258 61t258 -61l330 330l84 -66l-330 -328q107 -107 107 -266zM475 819
q0 -133 92.5 -218t243.5 -85q153 0 243.5 84.5t90.5 218.5q0 135 -90.5 220t-243.5 85q-151 0 -243.5 -85t-92.5 -220z" />
    <glyph glyph-name="yen" unicode="&#xa5;" horiz-adv-x="1732" 
d="M926 0h-123v285h-445v98h445v209h-445v98h379l-657 907h133q219 -299 649 -901h6q75 101 105.5 142.5t61 84t161.5 223t328 451.5h129l-662 -907h387v-98h-452v-209h452v-98h-452v-285z" />
    <glyph glyph-name="brokenbar" unicode="&#xa6;" horiz-adv-x="618" 
d="M371 840h-123v798h123v-798zM371 -451h-123v791h123v-791z" />
    <glyph glyph-name="section" unicode="&#xa7;" horiz-adv-x="1300" 
d="M666 -301q-197 0 -349.5 97.5t-207.5 248.5l106 29q54 -120 182 -202.5t271 -82.5q51 0 104 11.5t105 35t85 69.5t33 107q0 26 -5.5 48t-19 40t-26 31.5t-38 26.5t-43 21.5t-52.5 19t-54.5 16t-60.5 16.5l-123 33q-31 9 -42.5 12t-48.5 15.5t-56.5 21.5t-55 26.5
t-56 33.5t-46.5 40.5t-40.5 50t-24.5 59t-10 69.5q0 101 69.5 170.5t179.5 101.5v4q-97 41 -161 108.5t-64 164.5q0 78 39.5 138.5t105 96t141.5 53t156 17.5q75 0 141.5 -15t130.5 -48t114 -94.5t77 -147.5l-116 -31q-45 129 -129 187.5t-230 58.5q-138 0 -224.5 -55
t-86.5 -150q0 -43 23 -80t48 -58.5t79 -45t78.5 -31.5t84.5 -25l4.5 -1.5t4 -1t4.5 -1.5l155 -43q36 -10 58.5 -17t61 -21t63 -27.5t54.5 -36t47.5 -46.5t29.5 -57.5t12 -72.5q0 -97 -67.5 -178t-180.5 -121v-4q227 -81 227 -254q0 -137 -131 -233.5t-325 -96.5zM637 356
l68 -18q41 3 81.5 11t83.5 25.5t75 42t52.5 63t20.5 85.5q0 21 -3.5 39.5t-13.5 34.5t-18.5 28.5t-26.5 24.5t-29.5 20t-36.5 17.5t-37.5 14.5t-42.5 13.5t-42 11.5t-45 11l-102 27q-124 32 -216 -36.5t-92 -168.5q0 -53 30.5 -96t84.5 -72t101.5 -46t107.5 -32z" />
    <glyph glyph-name="copyright" unicode="&#xa9;" horiz-adv-x="2336" 
d="M1167 -35q-220 0 -408.5 65.5t-317 178.5t-201 265.5t-72.5 324.5q0 171 72.5 323.5t201 264.5t317 177.5t408.5 65.5t408.5 -65.5t317.5 -177.5t201.5 -264.5t72.5 -323.5q0 -172 -72.5 -324.5t-201.5 -265.5t-317.5 -178.5t-408.5 -65.5zM1167 70q195 0 361 57.5
t278.5 156.5t176 232t63.5 283q0 149 -63.5 282t-176 232t-278.5 157t-361 58q-194 0 -359.5 -58t-278 -157t-175.5 -232t-63 -282q0 -150 63 -283t175.5 -232t278 -156.5t359.5 -57.5zM1176 350q-222 0 -361 124.5t-139 322.5q0 201 139 325.5t361 124.5q159 0 274.5 -65.5
t165.5 -188.5l-115 -32q-37 93 -122.5 143.5t-204.5 50.5q-164 0 -268.5 -100t-104.5 -258q0 -159 105.5 -256t275.5 -97q130 0 227.5 60.5t146.5 173.5l105 -29q-55 -141 -184 -220t-301 -79z" />
    <glyph glyph-name="guillemotleft" unicode="&#xab;" horiz-adv-x="1308" 
d="M694 164h-141l-414 405v9l414 405h141l-413 -405v-9zM1137 164h-140l-415 405v9l415 405h140l-414 -405v-9z" />
    <glyph glyph-name="logicalnot" unicode="&#xac;" horiz-adv-x="1234" 
d="M1034 276h-114v304h-723v98h837v-402z" />
    <glyph glyph-name="registered" unicode="&#xae;" horiz-adv-x="1411" 
d="M705 743q-231 0 -384 127.5t-153 319.5t152.5 318t384.5 126q230 0 382 -126.5t152 -317.5q0 -192 -152 -319.5t-382 -127.5zM705 815q194 0 321 106t127 269q0 161 -127 267t-321 106q-197 0 -325 -105t-128 -268q0 -164 128 -269.5t325 -105.5zM604 946h-84v494h213
q90 0 145.5 -42t55.5 -110q0 -55 -35.5 -95t-97.5 -54l157 -193h-100l-149 184h-105v-184zM604 1370v-172h127q56 0 85.5 22.5t29.5 65.5q0 41 -32.5 62.5t-88.5 21.5h-121z" />
    <glyph glyph-name="degree" unicode="&#xb0;" horiz-adv-x="950" 
d="M475 1057q-153 0 -251.5 84.5t-98.5 212.5q0 127 99 211t251 84q150 0 250 -85t100 -210q0 -126 -100 -211.5t-250 -85.5zM475 1135q105 0 174.5 62.5t69.5 156.5q0 91 -69.5 153t-174.5 62q-104 0 -175 -62t-71 -153q0 -93 70.5 -156t175.5 -63z" />
    <glyph glyph-name="plusminus" unicode="&#xb1;" horiz-adv-x="1230" 
d="M1034 766v-96h-362v-213h362v-90h-837v90h362v213h-362v96h362v250h113v-250h362z" />
    <glyph glyph-name="uni00B2" unicode="&#xb2;" horiz-adv-x="739" 
d="M643 821h-539v8q3 31 8.5 56.5t17 48.5t21 40t31 36.5t35.5 31.5t46 32t51.5 31.5t62.5 35.5q32 19 55.5 35t50 39.5t40.5 51t14 56.5q0 51 -46.5 86t-117.5 35q-85 0 -140 -48t-55 -124l-88 12q0 103 79 169.5t202 66.5q114 0 189 -55.5t75 -143.5q0 -68 -43 -116.5
t-119 -94.5q-22 -13 -64 -36.5t-64.5 -37.5t-50.5 -35.5t-44.5 -46t-24.5 -53.5h418v-80z" />
    <glyph glyph-name="uni00B3" unicode="&#xb3;" horiz-adv-x="753" 
d="M371 807q-105 0 -185 43t-106 115l84 34q24 -55 78 -87.5t129 -32.5q78 0 130 37t52 96q0 58 -52 92.5t-147 34.5h-82v65h90q78 0 124 34t46 87q0 54 -49.5 87.5t-122.5 33.5q-69 0 -118.5 -33.5t-59.5 -91.5l-86 14q13 83 90.5 134t182.5 51q108 0 184 -50t76 -129
q0 -54 -36.5 -100.5t-100.5 -60.5q71 -12 116 -57t45 -109q0 -84 -77.5 -145.5t-204.5 -61.5z" />
    <glyph glyph-name="paragraph" unicode="&#xb6;" horiz-adv-x="1695" 
d="M1094 -287h-123v942h-309q-254 0 -412 133.5t-158 346.5q0 201 163 331.5t454 130.5h385v-1884zM1401 -287h-123v1884h123v-1884z" />
    <glyph glyph-name="periodcentered" unicode="&#xb7;" horiz-adv-x="643" 
d="M324 477q-58 0 -99 36t-41 87q0 49 40.5 83t99.5 34q57 0 96 -34t39 -83q0 -51 -39 -87t-96 -36z" />
    <glyph glyph-name="uni00B9" unicode="&#xb9;" horiz-adv-x="509" 
d="M338 821h-94v529q-65 -69 -183 -84v82q81 15 134 59.5t53 97.5h90v-684z" />
    <glyph glyph-name="guillemotright" unicode="&#xbb;" horiz-adv-x="1308" 
d="M313 164h-143l416 405v9l-416 405h143l414 -405v-9zM756 164h-142l416 405v9l-416 405h142l413 -405v-9z" />
    <glyph glyph-name="onequarter" unicode="&#xbc;" horiz-adv-x="1511" 
d="M338 821h-94v529q-65 -69 -183 -84v82q81 15 134 59.5t53 97.5h90v-684zM45 0h-111l1366 1468h103zM1313 -14h-94v161h-412v76l412 447h94v-451h117v-72h-117v-161zM1219 557l-316 -338h316v338z" />
    <glyph glyph-name="onehalf" unicode="&#xbd;" horiz-adv-x="1546" 
d="M338 821h-94v529q-65 -69 -183 -84v82q81 15 134 59.5t53 97.5h90v-684zM45 0h-111l1366 1468h103zM1450 -14h-539v8q3 28 8.5 51.5t11.5 42.5t19.5 38.5l22.5 32.5t30.5 30.5t34.5 27t43 28t47 28.5t56 32q32 19 55.5 35t49.5 39.5t40 51t14 56.5q0 52 -46 86.5
t-117 34.5q-85 0 -140 -48t-55 -124l-88 13q0 103 79 169t202 66q114 0 189 -55.5t75 -143.5q0 -68 -43 -116.5t-119 -94.5q-22 -13 -63.5 -36t-64.5 -37t-51 -35.5t-44.5 -46t-24.5 -53.5h418v-80z" />
    <glyph glyph-name="threequarters" unicode="&#xbe;" horiz-adv-x="1755" 
d="M371 807q-105 0 -185 43t-106 115l84 34q24 -55 78 -87.5t129 -32.5q78 0 130 37t52 96q0 58 -52 92.5t-147 34.5h-82v65h90q78 0 124 34t46 87q0 54 -49.5 87.5t-122.5 33.5q-69 0 -118.5 -33.5t-59.5 -91.5l-86 14q13 83 90.5 134t182.5 51q108 0 184 -50t76 -129
q0 -54 -36.5 -100.5t-100.5 -60.5q71 -12 116 -57t45 -109q0 -84 -77.5 -145.5t-204.5 -61.5zM289 0h-111l1366 1468h103zM1556 -14h-94v161h-411v76l411 447h94v-451h117v-72h-117v-161zM1462 557l-315 -338h315v338z" />
    <glyph glyph-name="questiondown" unicode="&#xbf;" horiz-adv-x="1232" 
d="M686 965q-46 0 -79.5 28t-33.5 68q0 41 33.5 69.5t79.5 28.5q47 0 80 -28.5t33 -69.5q0 -40 -33 -68t-80 -28zM618 -485q-136 0 -254.5 47t-195 141.5t-76.5 216.5q0 73 28.5 141t81.5 127t110 105.5t132 95.5q45 30 66.5 45t54.5 41.5t47 45t31 48t21 58.5t3.5 68.5
t-10.5 86.5h109q10 -46 13 -84.5t-3 -72.5t-14 -60t-30 -54.5t-40 -48.5t-54.5 -48t-63 -47t-76.5 -52q-139 -95 -212 -187t-73 -200q0 -98 59 -172t151 -110.5t200 -36.5q87 0 167.5 27.5t142 77.5t90.5 129.5t11 174.5l107 -16q19 -108 -17.5 -201t-111.5 -154.5
t-177.5 -96.5t-216.5 -35z" />
    <glyph glyph-name="Agrave" unicode="&#xc0;" horiz-adv-x="1794" 
d="M983 1720h-106l-412 316h197zM172 0h-129l791 1597h124l791 -1597h-127q-142 278 -297 592h-860q-49 -99 -118 -239t-111.5 -226.5t-63.5 -126.5zM512 690h766q-277 562 -377 787h-6q-28 -59 -164 -336.5t-219 -450.5z" />
    <glyph glyph-name="Aacute" unicode="&#xc1;" horiz-adv-x="1794" 
d="M1329 2036l-411 -316h-107l322 316h196zM172 0h-129l791 1597h124l791 -1597h-127q-142 278 -297 592h-860q-49 -99 -118 -239t-111.5 -226.5t-63.5 -126.5zM512 690h766q-277 562 -377 787h-6q-28 -59 -164 -336.5t-219 -450.5z" />
    <glyph glyph-name="Acircumflex" unicode="&#xc2;" horiz-adv-x="1794" 
d="M981 2017l315 -297h-108q-213 164 -291 232q-164 -133 -295 -232h-106l313 297h172zM172 0h-129l791 1597h124l791 -1597h-127q-142 278 -297 592h-860q-49 -99 -118 -239t-111.5 -226.5t-63.5 -126.5zM512 690h766q-277 562 -377 787h-6q-28 -59 -164 -336.5
t-219 -450.5z" />
    <glyph glyph-name="Atilde" unicode="&#xc3;" horiz-adv-x="1794" 
d="M1081 1753q-20 0 -38.5 2.5t-31.5 4.5t-29 8.5t-23.5 9.5t-22.5 13t-18.5 12.5t-20 15.5t-18.5 14l-43 31q-26 19 -40.5 28.5t-37.5 18t-47 8.5q-60 0 -100 -43.5t-40 -108.5h-90q1 102 67.5 167t168.5 65q53 0 91.5 -18t84.5 -52l51 -37q72 -59 143 -59q61 0 96.5 43
t35.5 109h92q0 -104 -61.5 -168t-168.5 -64zM172 0h-129l791 1597h124l791 -1597h-127q-142 278 -297 592h-860q-49 -99 -118 -239t-111.5 -226.5t-63.5 -126.5zM512 690h766q-277 562 -377 787h-6q-28 -59 -164 -336.5t-219 -450.5z" />
    <glyph glyph-name="Adieresis" unicode="&#xc4;" horiz-adv-x="1794" 
d="M668 1798q-43 0 -75 28.5t-32 67.5q0 37 32 64t75 27q45 0 76.5 -27t31.5 -64q0 -40 -31 -68t-77 -28zM1122 1798q-47 0 -77.5 28t-30.5 68q0 37 31 64t77 27q43 0 75 -27t32 -64q0 -39 -32 -67.5t-75 -28.5zM172 0h-129l791 1597h124l791 -1597h-127q-142 278 -297 592
h-860q-49 -99 -118 -239t-111.5 -226.5t-63.5 -126.5zM512 690h766q-277 562 -377 787h-6q-28 -59 -164 -336.5t-219 -450.5z" />
    <glyph glyph-name="Aring" unicode="&#xc5;" horiz-adv-x="1794" 
d="M897 1716q-114 0 -188 60.5t-74 154.5q0 91 74 151t188 60q109 0 183.5 -60.5t74.5 -150.5q0 -93 -74 -154t-184 -61zM897 1798q70 0 118 36t48 97q0 58 -48 93.5t-118 35.5q-74 0 -122 -35t-48 -94q0 -61 48 -97t122 -36zM172 0h-129l791 1597h124l791 -1597h-127
q-142 278 -297 592h-860q-49 -99 -118 -239t-111.5 -226.5t-63.5 -126.5zM512 690h766q-277 562 -377 787h-6q-28 -59 -164 -336.5t-219 -450.5z" />
    <glyph glyph-name="AE" unicode="&#xc6;" horiz-adv-x="2514" 
d="M86 0h-129l1143 1597h1257v-98h-1069v-627h1020v-98h-1020v-670h1094v-104h-1217v592h-651q-310 -425 -428 -592zM580 690h585v809h-4q-108 -148 -304.5 -423t-276.5 -386z" />
    <glyph glyph-name="Ccedilla" unicode="&#xc7;" horiz-adv-x="2072" 
d="M1102 -35h-6l-113 -135q42 20 111 20q94 0 154.5 -43.5t60.5 -113.5q0 -77 -73 -127.5t-183 -50.5q-83 0 -161.5 29t-131.5 79l57 45q38 -40 102 -65t128 -25q72 0 122 32t50 79q0 45 -44.5 74.5t-111.5 29.5q-66 0 -119 -24l-57 47l121 153q-255 17 -452.5 125.5
t-307 289.5t-109.5 407q0 183 74 340.5t201.5 266.5t303 170.5t374.5 61.5q131 0 257 -27.5t239 -81.5t201.5 -144t133.5 -206l-104 -38q-91 188 -288.5 291.5t-436.5 103.5q-164 0 -312.5 -50.5t-262.5 -142.5t-181.5 -233.5t-67.5 -310.5q0 -141 47.5 -261t128.5 -204
t190 -143t232 -87t254 -28q158 0 292 41t227.5 113t156.5 159.5t96 189.5l109 -34q-34 -95 -87.5 -178.5t-133 -156.5t-178 -125t-227 -82t-275.5 -30z" />
    <glyph glyph-name="Egrave" unicode="&#xc8;" horiz-adv-x="1624" 
d="M913 1720h-106l-412 316h197zM1491 0h-1217v1597h1192v-98h-1069v-627h1020v-98h-1020v-670h1094v-104z" />
    <glyph glyph-name="Eacute" unicode="&#xc9;" horiz-adv-x="1624" 
d="M1257 2036l-411 -316h-107l322 316h196zM1491 0h-1217v1597h1192v-98h-1069v-627h1020v-98h-1020v-670h1094v-104z" />
    <glyph glyph-name="Ecircumflex" unicode="&#xca;" horiz-adv-x="1624" 
d="M909 2017l316 -297h-109q-213 164 -291 232q-164 -133 -295 -232h-106l313 297h172zM1491 0h-1217v1597h1192v-98h-1069v-627h1020v-98h-1020v-670h1094v-104z" />
    <glyph glyph-name="Edieresis" unicode="&#xcb;" horiz-adv-x="1624" 
d="M598 1798q-43 0 -74.5 28t-31.5 68q0 37 31.5 64t74.5 27q45 0 77 -27t32 -64q0 -40 -31.5 -68t-77.5 -28zM1053 1798q-47 0 -78 28t-31 68q0 37 31 64t78 27q43 0 74.5 -27t31.5 -64q0 -40 -31.5 -68t-74.5 -28zM1491 0h-1217v1597h1192v-98h-1069v-627h1020v-98h-1020
v-670h1094v-104z" />
    <glyph glyph-name="Igrave" unicode="&#xcc;" horiz-adv-x="671" 
d="M424 1720h-107l-411 316h196zM397 0h-123v1597h123v-1597z" />
    <glyph glyph-name="Iacute" unicode="&#xcd;" horiz-adv-x="671" 
d="M770 2036l-412 -316h-106l321 316h197zM397 0h-123v1597h123v-1597z" />
    <glyph glyph-name="Icircumflex" unicode="&#xce;" horiz-adv-x="671" 
d="M422 2017l315 -297h-108q-213 164 -291 232q-164 -133 -295 -232h-106l313 297h172zM397 0h-123v1597h123v-1597z" />
    <glyph glyph-name="Idieresis" unicode="&#xcf;" horiz-adv-x="671" 
d="M109 1798q-43 0 -75 28.5t-32 67.5q0 37 32 64t75 27q45 0 76.5 -27t31.5 -64q0 -40 -31 -68t-77 -28zM563 1798q-47 0 -77.5 28t-30.5 68q0 37 31 64t77 27q43 0 75 -27t32 -64q0 -39 -32 -67.5t-75 -28.5zM397 0h-123v1597h123v-1597z" />
    <glyph glyph-name="Eth" unicode="&#xd0;" horiz-adv-x="1982" 
d="M274 1597h656q187 0 339.5 -40.5t257 -112t176 -171.5t104 -216t32.5 -248q0 -178 -61 -327t-173 -256t-280 -166.5t-373 -59.5h-678v752h-194v92h194v753zM977 98q172 0 310.5 51t231.5 142.5t143 220.5t50 285q0 323 -207.5 512.5t-599.5 189.5h-508v-655h705v-92h-705
v-654h580z" />
    <glyph glyph-name="Ntilde" unicode="&#xd1;" horiz-adv-x="2033" 
d="M1178 1812q-18 0 -33.5 1t-30.5 4.5t-25.5 6t-23.5 9t-19.5 9.5t-19.5 12t-17 11.5t-18 13.5t-16 13l-43 31q-26 19 -40.5 28.5t-37.5 18t-47 8.5q-60 0 -99.5 -43t-39.5 -108h-90q1 102 67 166.5t168 64.5q53 0 92 -17.5t84 -51.5l51 -37q73 -60 144 -60q61 0 96 42.5
t35 109.5h92q0 -105 -61 -168.5t-168 -63.5zM397 0h-123v1597h138q108 -127 362.5 -425t465.5 -546.5t392 -465.5h6v1437h121v-1597h-137q-170 199 -583.5 677.5t-639.5 743.5h-2v-1421z" />
    <glyph glyph-name="Ograve" unicode="&#xd2;" horiz-adv-x="2195" 
d="M1184 1720h-107l-411 316h196zM1098 -35q-194 0 -370.5 63.5t-306.5 172.5t-207 264.5t-77 331.5q0 175 76 330.5t205.5 265.5t306.5 173.5t373 63.5q199 0 377.5 -65.5t306 -177t202 -265.5t74.5 -325q0 -230 -128.5 -421.5t-349 -301t-482.5 -109.5zM1100 68
q163 0 313 55t263 150t180 232t67 292q0 156 -67 293.5t-180 232.5t-263 150t-313 55q-164 0 -316 -55t-266 -150t-182 -232.5t-68 -293.5q0 -155 68 -292t182 -232t266 -150t316 -55z" />
    <glyph glyph-name="Oacute" unicode="&#xd3;" horiz-adv-x="2195" 
d="M1530 2036l-412 -316h-106l321 316h197zM1098 -35q-194 0 -370.5 63.5t-306.5 172.5t-207 264.5t-77 331.5q0 175 76 330.5t205.5 265.5t306.5 173.5t373 63.5q199 0 377.5 -65.5t306 -177t202 -265.5t74.5 -325q0 -230 -128.5 -421.5t-349 -301t-482.5 -109.5zM1100 68
q163 0 313 55t263 150t180 232t67 292q0 156 -67 293.5t-180 232.5t-263 150t-313 55q-164 0 -316 -55t-266 -150t-182 -232.5t-68 -293.5q0 -155 68 -292t182 -232t266 -150t316 -55z" />
    <glyph glyph-name="Ocircumflex" unicode="&#xd4;" horiz-adv-x="2195" 
d="M1182 2017l315 -297h-108q-213 164 -291 232q-164 -133 -295 -232h-107l314 297h172zM1098 -35q-194 0 -370.5 63.5t-306.5 172.5t-207 264.5t-77 331.5q0 175 76 330.5t205.5 265.5t306.5 173.5t373 63.5q199 0 377.5 -65.5t306 -177t202 -265.5t74.5 -325
q0 -230 -128.5 -421.5t-349 -301t-482.5 -109.5zM1100 68q163 0 313 55t263 150t180 232t67 292q0 156 -67 293.5t-180 232.5t-263 150t-313 55q-164 0 -316 -55t-266 -150t-182 -232.5t-68 -293.5q0 -155 68 -292t182 -232t266 -150t316 -55z" />
    <glyph glyph-name="Otilde" unicode="&#xd5;" horiz-adv-x="2195" 
d="M1282 1812q-18 0 -33.5 1t-30.5 4.5t-25.5 6t-23.5 9t-19.5 9.5t-19.5 12t-17 11.5t-18 13.5t-16 13l-43 31q-26 19 -40.5 28.5t-37.5 18t-47 8.5q-60 0 -99.5 -43t-39.5 -108h-90q1 102 67.5 166.5t168.5 64.5q53 0 92 -17.5t84 -51.5l51 -37q73 -60 143 -60
q61 0 96 42.5t35 109.5h92q0 -105 -61 -168.5t-168 -63.5zM1098 -35q-194 0 -370.5 63.5t-306.5 172.5t-207 264.5t-77 331.5q0 175 76 330.5t205.5 265.5t306.5 173.5t373 63.5q199 0 377.5 -65.5t306 -177t202 -265.5t74.5 -325q0 -230 -128.5 -421.5t-349 -301
t-482.5 -109.5zM1100 68q163 0 313 55t263 150t180 232t67 292q0 156 -67 293.5t-180 232.5t-263 150t-313 55q-164 0 -316 -55t-266 -150t-182 -232.5t-68 -293.5q0 -155 68 -292t182 -232t266 -150t316 -55z" />
    <glyph glyph-name="Odieresis" unicode="&#xd6;" horiz-adv-x="2195" 
d="M868 1798q-43 0 -74.5 28t-31.5 68q0 37 31.5 64t74.5 27q45 0 77 -27t32 -64q0 -40 -31.5 -68t-77.5 -28zM1323 1798q-47 0 -78 28t-31 68q0 37 31 64t78 27q43 0 75 -27t32 -64q0 -39 -32 -67.5t-75 -28.5zM1098 -35q-194 0 -370.5 63.5t-306.5 172.5t-207 264.5
t-77 331.5q0 175 76 330.5t205.5 265.5t306.5 173.5t373 63.5q199 0 377.5 -65.5t306 -177t202 -265.5t74.5 -325q0 -230 -128.5 -421.5t-349 -301t-482.5 -109.5zM1100 68q163 0 313 55t263 150t180 232t67 292q0 156 -67 293.5t-180 232.5t-263 150t-313 55
q-164 0 -316 -55t-266 -150t-182 -232.5t-68 -293.5q0 -155 68 -292t182 -232t266 -150t316 -55z" />
    <glyph glyph-name="multiply" unicode="&#xd7;" horiz-adv-x="1077" 
d="M463 625l-266 221l79 72l267 -222l254 213l80 -69l-254 -213l264 -224l-82 -69l-264 221l-256 -215l-78 70z" />
    <glyph glyph-name="Oslash" unicode="&#xd8;" horiz-adv-x="2195" 
d="M1876 1661l-174 -213q167 -116 261.5 -286t94.5 -365q0 -230 -128.5 -421.5t-349 -301t-482.5 -109.5q-280 0 -514 125l-127 -156h-142l174 213q-164 116 -258 284t-94 366q0 175 76 330.5t205.5 265.5t306.5 173.5t373 63.5q279 0 508 -123l127 154h143zM268 797
q0 -170 79 -314.5t216 -244.5l971 1181q-198 109 -434 109q-164 0 -316 -55t-266 -150t-182 -232.5t-68 -293.5zM1100 68q163 0 313 55t263 150t180 232t67 292q0 172 -78.5 317t-216.5 246l-971 -1182q197 -110 443 -110z" />
    <glyph glyph-name="Ugrave" unicode="&#xd9;" horiz-adv-x="1853" 
d="M1012 1720h-107l-411 316h196zM920 -35q-149 0 -269.5 35.5t-211 107.5t-140 188.5t-49.5 270.5v1030h123v-1024q0 -136 40 -235.5t115.5 -159t174 -87.5t223.5 -28q126 0 225 28t174 87.5t115.5 159t40.5 235.5v1024h123v-1030q0 -279 -176.5 -440.5t-507.5 -161.5z" />
    <glyph glyph-name="Uacute" unicode="&#xda;" horiz-adv-x="1853" 
d="M1186 2036l-412 -316h-106l321 316h197zM920 -35q-149 0 -269.5 35.5t-211 107.5t-140 188.5t-49.5 270.5v1030h123v-1024q0 -136 40 -235.5t115.5 -159t174 -87.5t223.5 -28q126 0 225 28t174 87.5t115.5 159t40.5 235.5v1024h123v-1030q0 -279 -176.5 -440.5
t-507.5 -161.5z" />
    <glyph glyph-name="Ucircumflex" unicode="&#xdb;" horiz-adv-x="1853" 
d="M1010 2017l315 -297h-108q-213 164 -291 232q-164 -133 -295 -232h-107l314 297h172zM920 -35q-149 0 -269.5 35.5t-211 107.5t-140 188.5t-49.5 270.5v1030h123v-1024q0 -136 40 -235.5t115.5 -159t174 -87.5t223.5 -28q126 0 225 28t174 87.5t115.5 159t40.5 235.5
v1024h123v-1030q0 -279 -176.5 -440.5t-507.5 -161.5z" />
    <glyph glyph-name="Udieresis" unicode="&#xdc;" horiz-adv-x="1853" 
d="M698 1798q-43 0 -74.5 28t-31.5 68q0 37 31.5 64t74.5 27q45 0 77 -27t32 -64q0 -40 -31.5 -68t-77.5 -28zM1153 1798q-47 0 -78 28t-31 68q0 37 31 64t78 27q43 0 75 -27t32 -64q0 -39 -32 -67.5t-75 -28.5zM920 -35q-149 0 -269.5 35.5t-211 107.5t-140 188.5
t-49.5 270.5v1030h123v-1024q0 -136 40 -235.5t115.5 -159t174 -87.5t223.5 -28q126 0 225 28t174 87.5t115.5 159t40.5 235.5v1024h123v-1030q0 -279 -176.5 -440.5t-507.5 -161.5z" />
    <glyph glyph-name="Yacute" unicode="&#xdd;" horiz-adv-x="1683" 
d="M1270 2036l-412 -316h-106l321 316h197zM901 0h-121v594q-408 568 -725 1003h133l652 -903h4q66 91 102.5 141t66.5 91.5t156 215.5t330 455h129q-693 -957 -727 -1003v-594z" />
    <glyph glyph-name="Thorn" unicode="&#xde;" horiz-adv-x="1671" 
d="M397 0h-123v1597h123v-286h531q292 0 455 -129.5t163 -335.5q0 -216 -158 -347.5t-413 -131.5h-578v-367zM397 1214v-749h531q236 0 363.5 98.5t127.5 274.5q0 173 -139 274.5t-375 101.5h-508z" />
    <glyph glyph-name="germandbls" unicode="&#xdf;" horiz-adv-x="1480" 
d="M348 0h-115v1194q0 32 1.5 56.5t11.5 78t28.5 94t57.5 90t92.5 82.5t139.5 55.5t194 22.5q257 0 402 -117t145 -303q0 -156 -96.5 -265t-243.5 -130v-2q178 -22 286.5 -126t108.5 -261q0 -96 -44 -181.5t-123.5 -149t-198 -101t-259.5 -37.5h-174v88h180
q215 0 354.5 104.5t139.5 268.5q0 150 -118.5 250t-303.5 100h-115v86h113q167 0 268 92t101 246q0 71 -23.5 131.5t-71.5 109.5t-130.5 77t-192.5 28q-102 0 -179.5 -26t-120.5 -64t-70 -89t-35.5 -94t-8.5 -87v-1221z" />
    <glyph glyph-name="agrave" unicode="&#xe0;" horiz-adv-x="1402" 
d="M770 1278h-102l-373 395h174zM547 -35q-117 0 -210.5 30t-152.5 96t-59 159q0 77 40 137.5t114.5 101t158 66t191.5 43.5q32 5 84 13t82.5 12.5t73 13.5t67 17.5t53 22.5t43.5 30.5t25 40.5t10 53q0 107 -107.5 187.5t-273.5 80.5q-146 0 -251 -68.5t-144 -181.5l-117 35
q37 101 123 172t187 102t210 31q69 0 136.5 -12t133.5 -40.5t115.5 -70t80 -105t30.5 -140.5v-439q0 -131 10 -204.5t33 -147.5h-117q-37 112 -37 256h-6q-71 -132 -203 -211.5t-323 -79.5zM551 53q114 0 214.5 40.5t164.5 102t100.5 131t36.5 130.5v170
q-58 -41 -119.5 -60.5t-216.5 -42.5q-53 -8 -82 -13t-88 -18t-94.5 -25.5t-82.5 -34t-73.5 -45.5t-45.5 -59t-19 -75q0 -91 84.5 -146t220.5 -55z" />
    <glyph glyph-name="aacute" unicode="&#xe1;" horiz-adv-x="1402" 
d="M1130 1673l-372 -395h-103l303 395h172zM547 -35q-117 0 -210.5 30t-152.5 96t-59 159q0 77 40 137.5t114.5 101t158 66t191.5 43.5q32 5 84 13t82.5 12.5t73 13.5t67 17.5t53 22.5t43.5 30.5t25 40.5t10 53q0 107 -107.5 187.5t-273.5 80.5q-146 0 -251 -68.5
t-144 -181.5l-117 35q37 101 123 172t187 102t210 31q69 0 136.5 -12t133.5 -40.5t115.5 -70t80 -105t30.5 -140.5v-439q0 -131 10 -204.5t33 -147.5h-117q-37 112 -37 256h-6q-71 -132 -203 -211.5t-323 -79.5zM551 53q114 0 214.5 40.5t164.5 102t100.5 131t36.5 130.5
v170q-58 -41 -119.5 -60.5t-216.5 -42.5q-53 -8 -82 -13t-88 -18t-94.5 -25.5t-82.5 -34t-73.5 -45.5t-45.5 -59t-19 -75q0 -91 84.5 -146t220.5 -55z" />
    <glyph glyph-name="acircumflex" unicode="&#xe2;" horiz-adv-x="1402" 
d="M377 1278h-109l357 354h176l356 -354h-110q-209 170 -334 281q-233 -201 -336 -281zM547 -35q-117 0 -210.5 30t-152.5 96t-59 159q0 77 40 137.5t114.5 101t158 66t191.5 43.5q32 5 84 13t82.5 12.5t73 13.5t67 17.5t53 22.5t43.5 30.5t25 40.5t10 53
q0 107 -107.5 187.5t-273.5 80.5q-146 0 -251 -68.5t-144 -181.5l-117 35q37 101 123 172t187 102t210 31q69 0 136.5 -12t133.5 -40.5t115.5 -70t80 -105t30.5 -140.5v-439q0 -131 10 -204.5t33 -147.5h-117q-37 112 -37 256h-6q-71 -132 -203 -211.5t-323 -79.5zM551 53
q114 0 214.5 40.5t164.5 102t100.5 131t36.5 130.5v170q-58 -41 -119.5 -60.5t-216.5 -42.5q-53 -8 -82 -13t-88 -18t-94.5 -25.5t-82.5 -34t-73.5 -45.5t-45.5 -59t-19 -75q0 -91 84.5 -146t220.5 -55z" />
    <glyph glyph-name="atilde" unicode="&#xe3;" horiz-adv-x="1402" 
d="M897 1341q-18 0 -33.5 1t-30.5 4.5t-25.5 6t-23.5 9t-19.5 9.5t-19.5 12t-17 11.5t-18 13.5t-16 13l-43 31q-26 19 -40.5 28.5t-37.5 18t-47 8.5q-60 0 -99.5 -43t-39.5 -108h-90q1 102 67 166.5t168 64.5q53 0 92.5 -17.5t84.5 -51.5l51 -37q73 -60 143 -60
q61 0 96 42.5t35 109.5h92q0 -105 -61 -168.5t-168 -63.5zM547 -35q-117 0 -210.5 30t-152.5 96t-59 159q0 77 40 137.5t114.5 101t158 66t191.5 43.5q32 5 84 13t82.5 12.5t73 13.5t67 17.5t53 22.5t43.5 30.5t25 40.5t10 53q0 107 -107.5 187.5t-273.5 80.5
q-146 0 -251 -68.5t-144 -181.5l-117 35q37 101 123 172t187 102t210 31q69 0 136.5 -12t133.5 -40.5t115.5 -70t80 -105t30.5 -140.5v-439q0 -131 10 -204.5t33 -147.5h-117q-37 112 -37 256h-6q-71 -132 -203 -211.5t-323 -79.5zM551 53q114 0 214.5 40.5t164.5 102
t100.5 131t36.5 130.5v170q-58 -41 -119.5 -60.5t-216.5 -42.5q-53 -8 -82 -13t-88 -18t-94.5 -25.5t-82.5 -34t-73.5 -45.5t-45.5 -59t-19 -75q0 -91 84.5 -146t220.5 -55z" />
    <glyph glyph-name="adieresis" unicode="&#xe4;" horiz-adv-x="1402" 
d="M512 1386q-46 0 -77.5 28.5t-31.5 68.5q0 36 32 63t77 27t74.5 -27t29.5 -63q0 -40 -29.5 -68.5t-74.5 -28.5zM913 1386q-45 0 -75.5 28.5t-30.5 68.5q0 36 30.5 63t75.5 27q44 0 76.5 -27t32.5 -63q0 -40 -32.5 -68.5t-76.5 -28.5zM547 -35q-117 0 -210.5 30t-152.5 96
t-59 159q0 77 40 137.5t114.5 101t158 66t191.5 43.5q32 5 84 13t82.5 12.5t73 13.5t67 17.5t53 22.5t43.5 30.5t25 40.5t10 53q0 107 -107.5 187.5t-273.5 80.5q-146 0 -251 -68.5t-144 -181.5l-117 35q37 101 123 172t187 102t210 31q69 0 136.5 -12t133.5 -40.5
t115.5 -70t80 -105t30.5 -140.5v-439q0 -131 10 -204.5t33 -147.5h-117q-37 112 -37 256h-6q-71 -132 -203 -211.5t-323 -79.5zM551 53q114 0 214.5 40.5t164.5 102t100.5 131t36.5 130.5v170q-58 -41 -119.5 -60.5t-216.5 -42.5q-53 -8 -82 -13t-88 -18t-94.5 -25.5
t-82.5 -34t-73.5 -45.5t-45.5 -59t-19 -75q0 -91 84.5 -146t220.5 -55z" />
    <glyph glyph-name="aring" unicode="&#xe5;" horiz-adv-x="1402" 
d="M713 1245q-113 0 -187.5 61t-74.5 154q0 91 74.5 151t187.5 60q110 0 184 -60t74 -151q0 -93 -73.5 -154t-184.5 -61zM713 1327q71 0 118.5 36t47.5 97q0 59 -47.5 94t-118.5 35q-73 0 -121.5 -35t-48.5 -94q0 -61 48.5 -97t121.5 -36zM547 -35q-117 0 -210.5 30
t-152.5 96t-59 159q0 77 40 137.5t114.5 101t158 66t191.5 43.5q32 5 84 13t82.5 12.5t73 13.5t67 17.5t53 22.5t43.5 30.5t25 40.5t10 53q0 107 -107.5 187.5t-273.5 80.5q-146 0 -251 -68.5t-144 -181.5l-117 35q37 101 123 172t187 102t210 31q69 0 136.5 -12
t133.5 -40.5t115.5 -70t80 -105t30.5 -140.5v-439q0 -131 10 -204.5t33 -147.5h-117q-37 112 -37 256h-6q-71 -132 -203 -211.5t-323 -79.5zM551 53q114 0 214.5 40.5t164.5 102t100.5 131t36.5 130.5v170q-58 -41 -119.5 -60.5t-216.5 -42.5q-53 -8 -82 -13t-88 -18
t-94.5 -25.5t-82.5 -34t-73.5 -45.5t-45.5 -59t-19 -75q0 -91 84.5 -146t220.5 -55z" />
    <glyph glyph-name="ae" unicode="&#xe6;" horiz-adv-x="2471" 
d="M537 -35q-118 0 -210 32t-147 98t-55 157q0 76 37 134.5t108.5 99t158 66.5t202.5 46q32 5 84 13t82.5 12.5t73 13.5t67 17.5t53 22.5t43.5 30.5t25 40.5t10 53q0 107 -107 187.5t-274 80.5q-146 0 -251 -68.5t-144 -181.5l-117 35q38 101 123.5 172t186.5 102t212 31
q73 0 144.5 -14.5t138.5 -43t118.5 -79.5t74.5 -117q86 120 229.5 187t322.5 67q53 0 106.5 -6.5t115 -23.5t115.5 -43t105 -70t87 -100t58 -136t22 -176v-45h-1143q-1 -224 151.5 -364t389.5 -140q189 0 323 89t197 227l104 -31q-78 -180 -246.5 -277.5t-384.5 -97.5
q-137 0 -255 36.5t-209 115t-132 190.5h-4q-65 -148 -221 -245t-368 -97zM1198 647h1010q0 91 -29.5 164.5t-77 120.5t-112 78.5t-131 45t-136.5 13.5q-210 0 -351.5 -114.5t-172.5 -307.5zM553 53q88 0 170.5 26.5t143.5 70t107 97t69.5 108t23.5 102.5v172
q-67 -47 -126 -64t-210 -39q-52 -8 -84 -13.5t-89 -18t-94 -25t-82 -33.5t-72 -45t-45.5 -58.5t-18.5 -74.5q0 -93 87 -149t220 -56z" />
    <glyph glyph-name="ccedilla" unicode="&#xe7;" horiz-adv-x="1492" 
d="M1321 371l104 -29q-76 -177 -239.5 -274t-374.5 -103l-113 -135q42 20 111 20q94 0 154.5 -43.5t60.5 -113.5q0 -77 -73 -127.5t-183 -50.5q-83 0 -161.5 29t-131.5 79l57 45q38 -40 102 -65t128 -25q72 0 122 32t50 79q0 45 -44.5 74.5t-111.5 29.5q-66 0 -119 -24
l-57 47l119 151q-267 19 -432.5 182.5t-165.5 411.5q0 266 186 432t482 166q88 0 169 -17t157.5 -52.5t139.5 -97.5t103 -146l-113 -35q-55 120 -178 189t-287 69q-242 0 -388 -143.5t-146 -364.5q0 -225 152 -364.5t395 -139.5q193 0 325.5 86.5t200.5 227.5z" />
    <glyph glyph-name="egrave" unicode="&#xe8;" horiz-adv-x="1525" 
d="M823 1278h-102l-373 395h174zM780 -35q-187 0 -336.5 74.5t-235 211t-85.5 310.5q0 173 85 310t235 212.5t339 75.5q53 0 106.5 -6.5t115 -23.5t115.5 -43t105 -70t87 -100t58 -136t22 -176v-55h-1143q0 -221 150 -357.5t388 -136.5q188 0 323 89t202 227l100 -31
q-77 -180 -245.5 -277.5t-385.5 -97.5zM252 647h1012q0 91 -29.5 164.5t-77.5 120.5t-112.5 78.5t-131 45t-135.5 13.5q-211 0 -353 -116t-173 -306z" />
    <glyph glyph-name="eacute" unicode="&#xe9;" horiz-adv-x="1525" 
d="M1186 1673l-373 -395h-102l303 395h172zM780 -35q-187 0 -336.5 74.5t-235 211t-85.5 310.5q0 173 85 310t235 212.5t339 75.5q53 0 106.5 -6.5t115 -23.5t115.5 -43t105 -70t87 -100t58 -136t22 -176v-55h-1143q0 -221 150 -357.5t388 -136.5q188 0 323 89t202 227
l100 -31q-77 -180 -245.5 -277.5t-385.5 -97.5zM252 647h1012q0 91 -29.5 164.5t-77.5 120.5t-112.5 78.5t-131 45t-135.5 13.5q-211 0 -353 -116t-173 -306z" />
    <glyph glyph-name="ecircumflex" unicode="&#xea;" horiz-adv-x="1525" 
d="M432 1278h-108l356 354h176l356 -354h-110q-209 170 -334 281q-233 -201 -336 -281zM780 -35q-187 0 -336.5 74.5t-235 211t-85.5 310.5q0 173 85 310t235 212.5t339 75.5q53 0 106.5 -6.5t115 -23.5t115.5 -43t105 -70t87 -100t58 -136t22 -176v-55h-1143
q0 -221 150 -357.5t388 -136.5q188 0 323 89t202 227l100 -31q-77 -180 -245.5 -277.5t-385.5 -97.5zM252 647h1012q0 91 -29.5 164.5t-77.5 120.5t-112.5 78.5t-131 45t-135.5 13.5q-211 0 -353 -116t-173 -306z" />
    <glyph glyph-name="edieresis" unicode="&#xeb;" horiz-adv-x="1525" 
d="M567 1386q-45 0 -76.5 28.5t-31.5 68.5q0 36 31.5 63t76.5 27t75 -27t30 -63q0 -40 -30 -68.5t-75 -28.5zM969 1386q-45 0 -76 28.5t-31 68.5q0 36 31 63t76 27q44 0 76 -27t32 -63q0 -40 -32 -68.5t-76 -28.5zM780 -35q-187 0 -336.5 74.5t-235 211t-85.5 310.5
q0 173 85 310t235 212.5t339 75.5q53 0 106.5 -6.5t115 -23.5t115.5 -43t105 -70t87 -100t58 -136t22 -176v-55h-1143q0 -221 150 -357.5t388 -136.5q188 0 323 89t202 227l100 -31q-77 -180 -245.5 -277.5t-385.5 -97.5zM252 647h1012q0 91 -29.5 164.5t-77.5 120.5
t-112.5 78.5t-131 45t-135.5 13.5q-211 0 -353 -116t-173 -306z" />
    <glyph glyph-name="igrave" unicode="&#xec;" horiz-adv-x="581" 
d="M346 1278h-102l-373 395h174zM348 0h-115v1126h115v-1126z" />
    <glyph glyph-name="iacute" unicode="&#xed;" horiz-adv-x="581" 
d="M709 1673l-373 -395h-103l304 395h172zM348 0h-115v1126h115v-1126z" />
    <glyph glyph-name="icircumflex" unicode="&#xee;" horiz-adv-x="581" 
d="M-45 1278h-109l357 354h176l356 -354h-110q-209 170 -334 281q-233 -201 -336 -281zM348 0h-115v1126h115v-1126z" />
    <glyph glyph-name="idieresis" unicode="&#xef;" horiz-adv-x="581" 
d="M90 1386q-46 0 -78 28.5t-32 68.5q0 36 32.5 63t77.5 27t75 -27t30 -63q0 -40 -30 -68.5t-75 -28.5zM492 1386q-45 0 -76 28.5t-31 68.5q0 36 31 63t76 27q44 0 76 -27t32 -63q0 -40 -32 -68.5t-76 -28.5zM348 0h-115v1126h115v-1126z" />
    <glyph glyph-name="eth" unicode="&#xf0;" horiz-adv-x="1579" 
d="M1219 1583l-254 -123q469 -287 469 -805q0 -167 -48 -298.5t-134.5 -217t-206 -130t-263.5 -44.5q-149 0 -275 47t-210 126.5t-131 184t-47 220.5q0 162 86 293.5t235.5 205.5t331.5 74q159 0 280 -54t220 -171h4q-47 166 -149 292t-277 224l-379 -182l-41 65l334 162
q-139 67 -367 133l29 90q268 -69 455 -168l293 142zM778 57q150 0 271 60t191.5 171t70.5 253t-71 253.5t-192 171.5t-268 60q-230 0 -383 -138.5t-153 -344.5q0 -98 39 -187t108 -155t169.5 -105t217.5 -39z" />
    <glyph glyph-name="ntilde" unicode="&#xf1;" horiz-adv-x="1550" 
d="M956 1341q-20 0 -38.5 2.5t-31.5 4.5t-29 8.5t-23.5 9.5t-22.5 13t-18.5 12.5t-20 15.5t-18.5 14l-43 31q-26 19 -40.5 28.5t-37.5 18t-47 8.5q-60 0 -100 -43t-40 -108h-90q1 102 67.5 166.5t168.5 64.5q53 0 92 -17.5t84 -51.5l51 -37q73 -60 144 -60q61 0 96 42.5
t35 109.5h92q0 -104 -61.5 -168t-168.5 -64zM348 0h-115v1126h111v-227h4q78 134 206 197t288 63q76 0 143.5 -13t133.5 -46t114 -83t77 -130t29 -182v-705h-112v662q0 112 -35.5 194.5t-96 127t-128.5 65t-146 20.5q-91 0 -169 -26t-133 -68.5t-94.5 -98.5t-58 -116
t-18.5 -119v-641z" />
    <glyph glyph-name="ograve" unicode="&#xf2;" horiz-adv-x="1587" 
d="M850 1278h-102l-373 395h174zM795 -35q-295 0 -483.5 167t-188.5 429q0 174 85.5 310.5t239 212t347.5 75.5q193 0 345.5 -75.5t238 -212t85.5 -310.5q0 -173 -85 -309t-238 -211.5t-346 -75.5zM795 57q242 0 393 140.5t151 363.5q0 224 -151 366t-393 142
q-241 0 -394 -142.5t-153 -365.5t152.5 -363.5t394.5 -140.5z" />
    <glyph glyph-name="oacute" unicode="&#xf3;" horiz-adv-x="1587" 
d="M1212 1673l-372 -395h-103l303 395h172zM795 -35q-295 0 -483.5 167t-188.5 429q0 174 85.5 310.5t239 212t347.5 75.5q193 0 345.5 -75.5t238 -212t85.5 -310.5q0 -173 -85 -309t-238 -211.5t-346 -75.5zM795 57q242 0 393 140.5t151 363.5q0 224 -151 366t-393 142
q-241 0 -394 -142.5t-153 -365.5t152.5 -363.5t394.5 -140.5z" />
    <glyph glyph-name="ocircumflex" unicode="&#xf4;" horiz-adv-x="1587" 
d="M459 1278h-109l357 354h176l356 -354h-111q-197 161 -333 281q-233 -201 -336 -281zM795 -35q-295 0 -483.5 167t-188.5 429q0 174 85.5 310.5t239 212t347.5 75.5q193 0 345.5 -75.5t238 -212t85.5 -310.5q0 -173 -85 -309t-238 -211.5t-346 -75.5zM795 57
q242 0 393 140.5t151 363.5q0 224 -151 366t-393 142q-241 0 -394 -142.5t-153 -365.5t152.5 -363.5t394.5 -140.5z" />
    <glyph glyph-name="otilde" unicode="&#xf5;" horiz-adv-x="1587" 
d="M979 1341q-18 0 -33.5 1t-30.5 4.5t-25.5 6t-23.5 9t-19.5 9.5t-19.5 12t-17 11.5t-18 13.5t-16 13l-43 31q-26 19 -40.5 28.5t-37.5 18t-47 8.5q-60 0 -99.5 -43t-39.5 -108h-90q1 102 67 166.5t168 64.5q53 0 92.5 -17.5t84.5 -51.5l51 -37q73 -60 143 -60
q61 0 96 42.5t35 109.5h92q0 -105 -61 -168.5t-168 -63.5zM795 -35q-295 0 -483.5 167t-188.5 429q0 174 85.5 310.5t239 212t347.5 75.5q193 0 345.5 -75.5t238 -212t85.5 -310.5q0 -173 -85 -309t-238 -211.5t-346 -75.5zM795 57q242 0 393 140.5t151 363.5
q0 224 -151 366t-393 142q-241 0 -394 -142.5t-153 -365.5t152.5 -363.5t394.5 -140.5z" />
    <glyph glyph-name="odieresis" unicode="&#xf6;" horiz-adv-x="1587" 
d="M594 1386q-46 0 -77.5 28.5t-31.5 68.5q0 36 32 63t77 27t74.5 -27t29.5 -63q0 -40 -29.5 -68.5t-74.5 -28.5zM995 1386q-45 0 -75.5 28.5t-30.5 68.5q0 36 30.5 63t75.5 27q44 0 76.5 -27t32.5 -63q0 -40 -32.5 -68.5t-76.5 -28.5zM795 -35q-295 0 -483.5 167
t-188.5 429q0 174 85.5 310.5t239 212t347.5 75.5q193 0 345.5 -75.5t238 -212t85.5 -310.5q0 -173 -85 -309t-238 -211.5t-346 -75.5zM795 57q242 0 393 140.5t151 363.5q0 224 -151 366t-393 142q-241 0 -394 -142.5t-153 -365.5t152.5 -363.5t394.5 -140.5z" />
    <glyph glyph-name="divide" unicode="&#xf7;" horiz-adv-x="1230" 
d="M623 819q-47 0 -80 29t-33 70q0 40 33 67t80 27q45 0 77.5 -27.5t32.5 -66.5q0 -41 -32.5 -70t-77.5 -29zM1034 575h-837v99h837v-99zM623 236q-47 0 -80 29t-33 69t33 67t80 27q45 0 77.5 -27.5t32.5 -66.5q0 -41 -32.5 -69.5t-77.5 -28.5z" />
    <glyph glyph-name="oslash" unicode="&#xf8;" horiz-adv-x="1587" 
d="M1407 1180l-152 -170q100 -81 154.5 -196t54.5 -253q0 -173 -85 -309t-238 -211.5t-346 -75.5q-218 0 -381 94l-101 -114h-131l150 170q-100 79 -154.5 193.5t-54.5 252.5q0 174 85.5 310.5t239 212t347.5 75.5q216 0 383 -96l104 117h125zM248 561q0 -227 158 -366
l704 792q-138 82 -315 82q-241 0 -394 -142.5t-153 -365.5zM795 57q242 0 393 140.5t151 363.5q0 111 -40 205.5t-113 163.5l-703 -793q135 -80 312 -80z" />
    <glyph glyph-name="ugrave" unicode="&#xf9;" horiz-adv-x="1527" 
d="M791 1278h-103l-373 395h174zM696 -35q-70 0 -135.5 13.5t-130.5 46.5t-112.5 83t-77 130.5t-29.5 181.5v706h115v-663q0 -91 24 -163t63 -116.5t92 -74t106.5 -41t111.5 -11.5q107 0 196 39t144.5 102t86 137t30.5 148v643h112v-774q0 -119 10 -194.5t35 -157.5h-116
q-37 118 -37 225h-4q-80 -134 -205.5 -197t-278.5 -63z" />
    <glyph glyph-name="uacute" unicode="&#xfa;" horiz-adv-x="1527" 
d="M1153 1673l-373 -395h-102l303 395h172zM696 -35q-70 0 -135.5 13.5t-130.5 46.5t-112.5 83t-77 130.5t-29.5 181.5v706h115v-663q0 -91 24 -163t63 -116.5t92 -74t106.5 -41t111.5 -11.5q107 0 196 39t144.5 102t86 137t30.5 148v643h112v-774q0 -119 10 -194.5
t35 -157.5h-116q-37 118 -37 225h-4q-80 -134 -205.5 -197t-278.5 -63z" />
    <glyph glyph-name="ucircumflex" unicode="&#xfb;" horiz-adv-x="1527" 
d="M399 1278h-108l356 354h176l357 -354h-111q-209 170 -334 281q-233 -201 -336 -281zM696 -35q-70 0 -135.5 13.5t-130.5 46.5t-112.5 83t-77 130.5t-29.5 181.5v706h115v-663q0 -91 24 -163t63 -116.5t92 -74t106.5 -41t111.5 -11.5q107 0 196 39t144.5 102t86 137
t30.5 148v643h112v-774q0 -119 10 -194.5t35 -157.5h-116q-37 118 -37 225h-4q-80 -134 -205.5 -197t-278.5 -63z" />
    <glyph glyph-name="udieresis" unicode="&#xfc;" horiz-adv-x="1527" 
d="M535 1386q-46 0 -77.5 28.5t-31.5 68.5q0 36 32 63t77 27t74.5 -27t29.5 -63q0 -40 -29.5 -68.5t-74.5 -28.5zM936 1386q-45 0 -76 28.5t-31 68.5q0 36 31 63t76 27q44 0 76 -27t32 -63q0 -40 -32 -68.5t-76 -28.5zM696 -35q-70 0 -135.5 13.5t-130.5 46.5t-112.5 83
t-77 130.5t-29.5 181.5v706h115v-663q0 -91 24 -163t63 -116.5t92 -74t106.5 -41t111.5 -11.5q107 0 196 39t144.5 102t86 137t30.5 148v643h112v-774q0 -119 10 -194.5t35 -157.5h-116q-37 118 -37 225h-4q-80 -134 -205.5 -197t-278.5 -63z" />
    <glyph glyph-name="yacute" unicode="&#xfd;" horiz-adv-x="1306" 
d="M1053 1673l-373 -395h-102l303 395h172zM487 -451h-98l213 443l-557 1134h127q95 -191 265.5 -550t215.5 -453h4q56 117 152 320t176 371t152 312h125z" />
    <glyph glyph-name="thorn" unicode="&#xfe;" horiz-adv-x="1648" 
d="M348 -451h-115v2089h115v-764h6q84 140 226.5 212.5t312.5 72.5q176 0 320 -75t227.5 -212t83.5 -309q0 -173 -83.5 -310t-227 -212.5t-320.5 -75.5q-173 0 -315 72t-224 205h-6v-693zM883 57q224 0 371 144t147 362q0 144 -68 260t-186.5 181t-263.5 65
q-144 0 -266 -63.5t-195.5 -180.5t-73.5 -264q0 -146 73.5 -262.5t195 -179t266.5 -62.5z" />
    <glyph glyph-name="ydieresis" unicode="&#xff;" horiz-adv-x="1306" 
d="M434 1386q-45 0 -76.5 28.5t-31.5 68.5q0 36 31.5 63t76.5 27t75 -27t30 -63q0 -40 -30 -68.5t-75 -28.5zM836 1386q-45 0 -76 28.5t-31 68.5q0 36 31 63t76 27q44 0 76 -27t32 -63q0 -40 -32 -68.5t-76 -28.5zM487 -451h-98l213 443l-557 1134h127q95 -191 265.5 -550
t215.5 -453h4q56 117 152 320t176 371t152 312h125z" />
    <glyph glyph-name="Amacron" unicode="&#x100;" horiz-adv-x="1794" 
d="M1286 1843h-778v94h778v-94zM172 0h-129l791 1597h124l791 -1597h-127q-142 278 -297 592h-860q-49 -99 -118 -239t-111.5 -226.5t-63.5 -126.5zM512 690h766q-277 562 -377 787h-6q-28 -59 -164 -336.5t-219 -450.5z" />
    <glyph glyph-name="amacron" unicode="&#x101;" horiz-adv-x="1402" 
d="M1124 1434h-825v92h825v-92zM547 -35q-117 0 -210.5 30t-152.5 96t-59 159q0 77 40 137.5t114.5 101t158 66t191.5 43.5q32 5 84 13t82.5 12.5t73 13.5t67 17.5t53 22.5t43.5 30.5t25 40.5t10 53q0 107 -107.5 187.5t-273.5 80.5q-146 0 -251 -68.5t-144 -181.5l-117 35
q37 101 123 172t187 102t210 31q69 0 136.5 -12t133.5 -40.5t115.5 -70t80 -105t30.5 -140.5v-439q0 -131 10 -204.5t33 -147.5h-117q-37 112 -37 256h-6q-71 -132 -203 -211.5t-323 -79.5zM551 53q114 0 214.5 40.5t164.5 102t100.5 131t36.5 130.5v170
q-58 -41 -119.5 -60.5t-216.5 -42.5q-53 -8 -82 -13t-88 -18t-94.5 -25.5t-82.5 -34t-73.5 -45.5t-45.5 -59t-19 -75q0 -91 84.5 -146t220.5 -55z" />
    <glyph glyph-name="Abreve" unicode="&#x102;" horiz-adv-x="1794" 
d="M897 1729q-101 0 -186 29t-139.5 75.5t-85.5 101t-35 109.5h108q8 -88 106 -156.5t232 -68.5t231 68.5t105 156.5h108q-3 -54 -34 -109t-85 -101.5t-139 -75.5t-186 -29zM172 0h-129l791 1597h124l791 -1597h-127q-142 278 -297 592h-860q-49 -99 -118 -239
t-111.5 -226.5t-63.5 -126.5zM512 690h766q-277 562 -377 787h-6q-28 -59 -164 -336.5t-219 -450.5z" />
    <glyph glyph-name="abreve" unicode="&#x103;" horiz-adv-x="1402" 
d="M713 1278q-203 0 -320 111t-125 284h111q6 -137 97 -221t237 -84q142 0 235.5 82.5t100.5 222.5h110q-8 -173 -126 -284t-320 -111zM547 -35q-117 0 -210.5 30t-152.5 96t-59 159q0 77 40 137.5t114.5 101t158 66t191.5 43.5q32 5 84 13t82.5 12.5t73 13.5t67 17.5
t53 22.5t43.5 30.5t25 40.5t10 53q0 107 -107.5 187.5t-273.5 80.5q-146 0 -251 -68.5t-144 -181.5l-117 35q37 101 123 172t187 102t210 31q69 0 136.5 -12t133.5 -40.5t115.5 -70t80 -105t30.5 -140.5v-439q0 -131 10 -204.5t33 -147.5h-117q-37 112 -37 256h-6
q-71 -132 -203 -211.5t-323 -79.5zM551 53q114 0 214.5 40.5t164.5 102t100.5 131t36.5 130.5v170q-58 -41 -119.5 -60.5t-216.5 -42.5q-53 -8 -82 -13t-88 -18t-94.5 -25.5t-82.5 -34t-73.5 -45.5t-45.5 -59t-19 -75q0 -91 84.5 -146t220.5 -55z" />
    <glyph glyph-name="Aogonek" unicode="&#x104;" horiz-adv-x="1794" 
d="M1761 -385q45 0 105 14v-78q-66 -14 -111 -14q-136 0 -225.5 63t-89.5 169q0 133 188 231h-6q-142 278 -297 592h-860q-49 -99 -118 -239t-111.5 -226.5t-63.5 -126.5h-129l791 1597h124l791 -1597q-213 -98 -213 -221q0 -74 65 -119t160 -45zM512 690h766
q-277 562 -377 787h-6q-28 -59 -164 -336.5t-219 -450.5z" />
    <glyph glyph-name="aogonek" unicode="&#x105;" horiz-adv-x="1402" 
d="M1241 -385q45 0 105 14v-78q-63 -14 -117 -14q-131 0 -220 62.5t-89 164.5q0 75 50.5 131t143.5 105h2q-37 112 -37 256h-6q-71 -132 -203 -211.5t-323 -79.5q-117 0 -210.5 30t-152.5 96t-59 159q0 77 40 137.5t114.5 101t158 66t191.5 43.5q32 5 84 13t82.5 12.5
t73 13.5t67 17.5t53 22.5t43.5 30.5t25 40.5t10 53q0 107 -107.5 187.5t-273.5 80.5q-146 0 -251 -68.5t-144 -181.5l-117 35q37 101 123 172t187 102t210 31q69 0 136.5 -12t133.5 -40.5t115.5 -70t80 -105t30.5 -140.5v-439q0 -131 10 -204.5t33 -147.5h-6
q-103 -48 -156 -101.5t-53 -119.5q0 -74 64.5 -119t158.5 -45zM1067 457v170q-58 -41 -119.5 -60.5t-216.5 -42.5q-53 -8 -82 -13t-88 -18t-94.5 -25.5t-82.5 -34t-73.5 -45.5t-45.5 -59t-19 -75q0 -91 84.5 -146t220.5 -55q114 0 214.5 40.5t164.5 102t100.5 131
t36.5 130.5z" />
    <glyph glyph-name="Cacute" unicode="&#x106;" horiz-adv-x="2072" 
d="M1470 2036l-411 -316h-107l322 316h196zM1102 -35q-209 0 -388.5 61.5t-305.5 170t-197.5 262t-71.5 332.5q0 183 74 340.5t201.5 266.5t303 170.5t374.5 61.5q131 0 257 -27.5t239 -81.5t201.5 -144t133.5 -206l-104 -38q-91 188 -288.5 291.5t-436.5 103.5
q-164 0 -312.5 -50.5t-262.5 -142.5t-181.5 -233.5t-67.5 -310.5q0 -141 47.5 -261t128.5 -204t190 -143t232 -87t254 -28q158 0 292 41t227.5 113t156.5 159.5t96 189.5l109 -34q-34 -95 -87.5 -178.5t-133 -156.5t-178 -125t-227 -82t-275.5 -30z" />
    <glyph glyph-name="cacute" unicode="&#x107;" horiz-adv-x="1492" 
d="M1169 1673l-372 -395h-103l303 395h172zM786 -35q-293 0 -478 166t-185 430q0 266 186 432t482 166q88 0 169 -17t157.5 -52.5t139.5 -97.5t103 -146l-113 -35q-55 120 -178 189t-287 69q-242 0 -388 -143.5t-146 -364.5q0 -225 152 -364.5t395 -139.5q193 0 325.5 86.5
t200.5 227.5l104 -29q-80 -183 -250 -280t-389 -97z" />
    <glyph glyph-name="Cdotaccent" unicode="&#x10a;" horiz-adv-x="2072" 
d="M1036 1792q-49 0 -82.5 29.5t-33.5 72.5q0 40 33.5 68.5t82.5 28.5q47 0 81 -28.5t34 -68.5q0 -43 -34 -72.5t-81 -29.5zM1102 -35q-209 0 -388.5 61.5t-305.5 170t-197.5 262t-71.5 332.5q0 183 74 340.5t201.5 266.5t303 170.5t374.5 61.5q131 0 257 -27.5t239 -81.5
t201.5 -144t133.5 -206l-104 -38q-91 188 -288.5 291.5t-436.5 103.5q-164 0 -312.5 -50.5t-262.5 -142.5t-181.5 -233.5t-67.5 -310.5q0 -141 47.5 -261t128.5 -204t190 -143t232 -87t254 -28q158 0 292 41t227.5 113t156.5 159.5t96 189.5l109 -34q-34 -95 -87.5 -178.5
t-133 -156.5t-178 -125t-227 -82t-275.5 -30z" />
    <glyph glyph-name="cdotaccent" unicode="&#x10b;" horiz-adv-x="1492" 
d="M754 1440q-49 0 -83 29.5t-34 72.5q0 40 34 68t83 28q47 0 80.5 -28t33.5 -68q0 -43 -33.5 -72.5t-80.5 -29.5zM786 -35q-293 0 -478 166t-185 430q0 266 186 432t482 166q88 0 169 -17t157.5 -52.5t139.5 -97.5t103 -146l-113 -35q-55 120 -178 189t-287 69
q-242 0 -388 -143.5t-146 -364.5q0 -225 152 -364.5t395 -139.5q193 0 325.5 86.5t200.5 227.5l104 -29q-80 -183 -250 -280t-389 -97z" />
    <glyph glyph-name="Ccaron" unicode="&#x10c;" horiz-adv-x="2072" 
d="M1329 2017h109l-316 -297h-172l-313 297h106q179 -135 295 -231q85 73 291 231zM1102 -35q-209 0 -388.5 61.5t-305.5 170t-197.5 262t-71.5 332.5q0 183 74 340.5t201.5 266.5t303 170.5t374.5 61.5q131 0 257 -27.5t239 -81.5t201.5 -144t133.5 -206l-104 -38
q-91 188 -288.5 291.5t-436.5 103.5q-164 0 -312.5 -50.5t-262.5 -142.5t-181.5 -233.5t-67.5 -310.5q0 -141 47.5 -261t128.5 -204t190 -143t232 -87t254 -28q158 0 292 41t227.5 113t156.5 159.5t96 189.5l109 -34q-34 -95 -87.5 -178.5t-133 -156.5t-178 -125t-227 -82
t-275.5 -30z" />
    <glyph glyph-name="ccaron" unicode="&#x10d;" horiz-adv-x="1492" 
d="M840 1278h-176l-357 356h109q28 -23 99.5 -82t120.5 -100t116 -100q61 55 333 282h111zM786 -35q-293 0 -478 166t-185 430q0 266 186 432t482 166q88 0 169 -17t157.5 -52.5t139.5 -97.5t103 -146l-113 -35q-55 120 -178 189t-287 69q-242 0 -388 -143.5t-146 -364.5
q0 -225 152 -364.5t395 -139.5q193 0 325.5 86.5t200.5 227.5l104 -29q-80 -183 -250 -280t-389 -97z" />
    <glyph glyph-name="Dcaron" unicode="&#x10e;" horiz-adv-x="1982" 
d="M1210 2017h109l-315 -297h-173l-313 297h107q179 -135 295 -231q95 81 290 231zM952 0h-678v1597h656q187 0 339.5 -40.5t257 -112t176 -171.5t104 -216t32.5 -248q0 -178 -61 -327t-173 -256t-280 -166.5t-373 -59.5zM397 98h580q172 0 310.5 51t231.5 142.5t143 220.5
t50 285q0 323 -207.5 512.5t-599.5 189.5h-508v-1401z" />
    <glyph glyph-name="dcaron" unicode="&#x10f;" horiz-adv-x="1646" 
d="M754 -35q-178 0 -322 75.5t-227.5 212t-83.5 308.5q0 174 84.5 311.5t229.5 212t323 74.5q168 0 309 -70t225 -206h6v755h115v-1286q0 -129 10 -204t33 -148h-117q-36 117 -36 248h-7q-80 -136 -224.5 -209.5t-317.5 -73.5zM1667 1200h-82l141 246q-36 9 -56.5 34.5
t-20.5 57.5q0 40 33.5 68t80.5 28q46 0 79.5 -28t33.5 -68q0 -34 -37 -92.5t-172 -245.5zM762 57q145 0 267 63t195.5 179.5t73.5 263.5t-73.5 263.5t-195.5 179.5t-267 63q-223 0 -369.5 -145t-146.5 -363t148 -361t368 -143z" />
    <glyph glyph-name="Dcroat" unicode="&#x110;" horiz-adv-x="1982" 
d="M274 1597h656q187 0 339.5 -40.5t257 -112t176 -171.5t104 -216t32.5 -248q0 -178 -61 -327t-173 -256t-280 -166.5t-373 -59.5h-678v752h-194v92h194v753zM977 98q172 0 310.5 51t231.5 142.5t143 220.5t50 285q0 323 -207.5 512.5t-599.5 189.5h-508v-655h705v-92h-705
v-654h580z" />
    <glyph glyph-name="dcroat" unicode="&#x111;" horiz-adv-x="1646" 
d="M1733 1434v-91h-320v-991q0 -129 10 -204t33 -148h-117q-36 117 -36 248h-7q-80 -136 -224.5 -209.5t-317.5 -73.5q-178 0 -322 75.5t-227.5 212t-83.5 308.5q0 174 84.5 311.5t229.5 212t323 74.5q168 0 309 -70t225 -206h6v460h-354v91h354v204h115v-204h320zM762 57
q145 0 267 63t195.5 179.5t73.5 263.5t-73.5 263.5t-195.5 179.5t-267 63q-223 0 -369.5 -145t-146.5 -363t148 -361t368 -143z" />
    <glyph glyph-name="Emacron" unicode="&#x112;" horiz-adv-x="1624" 
d="M1214 1843h-778v94h778v-94zM1491 0h-1217v1597h1192v-98h-1069v-627h1020v-98h-1020v-670h1094v-104z" />
    <glyph glyph-name="emacron" unicode="&#x113;" horiz-adv-x="1525" 
d="M1180 1434h-826v92h826v-92zM780 -35q-187 0 -336.5 74.5t-235 211t-85.5 310.5q0 173 85 310t235 212.5t339 75.5q53 0 106.5 -6.5t115 -23.5t115.5 -43t105 -70t87 -100t58 -136t22 -176v-55h-1143q0 -221 150 -357.5t388 -136.5q188 0 323 89t202 227l100 -31
q-77 -180 -245.5 -277.5t-385.5 -97.5zM252 647h1012q0 91 -29.5 164.5t-77.5 120.5t-112.5 78.5t-131 45t-135.5 13.5q-211 0 -353 -116t-173 -306z" />
    <glyph glyph-name="Edotaccent" unicode="&#x116;" horiz-adv-x="1624" 
d="M825 1792q-49 0 -82.5 29.5t-33.5 72.5q0 40 33.5 68.5t82.5 28.5q47 0 81 -28.5t34 -68.5q0 -43 -34 -72.5t-81 -29.5zM1491 0h-1217v1597h1192v-98h-1069v-627h1020v-98h-1020v-670h1094v-104z" />
    <glyph glyph-name="edotaccent" unicode="&#x117;" horiz-adv-x="1525" 
d="M770 1440q-49 0 -83 29.5t-34 72.5q0 40 34 68t83 28q47 0 81 -28t34 -68q0 -43 -34 -72.5t-81 -29.5zM780 -35q-187 0 -336.5 74.5t-235 211t-85.5 310.5q0 173 85 310t235 212.5t339 75.5q53 0 106.5 -6.5t115 -23.5t115.5 -43t105 -70t87 -100t58 -136t22 -176v-55
h-1143q0 -221 150 -357.5t388 -136.5q188 0 323 89t202 227l100 -31q-77 -180 -245.5 -277.5t-385.5 -97.5zM252 647h1012q0 91 -29.5 164.5t-77.5 120.5t-112.5 78.5t-131 45t-135.5 13.5q-211 0 -353 -116t-173 -306z" />
    <glyph glyph-name="Eogonek" unicode="&#x118;" horiz-adv-x="1624" 
d="M1503 -385q45 0 105 14v-78q-66 -14 -111 -14q-136 0 -225.5 63t-89.5 169q0 133 188 231h-1096v1597h1192v-98h-1069v-627h1020v-98h-1020v-670h1094v-104q-213 -98 -213 -221q0 -74 65 -119t160 -45z" />
    <glyph glyph-name="eogonek" unicode="&#x119;" horiz-adv-x="1525" 
d="M1008 -4q-100 -48 -150.5 -100t-50.5 -117q0 -74 64.5 -119t158.5 -45q46 0 105 14v-78q-63 -14 -117 -14q-131 0 -220 62.5t-89 164.5q0 119 139 203q-23 -2 -68 -2q-187 0 -336.5 74.5t-235 211t-85.5 310.5q0 173 85 310t235 212.5t339 75.5q53 0 106.5 -6.5
t115 -23.5t115.5 -43t105 -70t87 -100t58 -136t22 -176v-55h-1143q0 -221 150 -357.5t388 -136.5q188 0 323 89t202 227l100 -31q-56 -130 -160.5 -217.5t-242.5 -126.5zM778 1069q-211 0 -353 -116t-173 -306h1012q0 91 -29.5 164.5t-77.5 120.5t-112.5 78.5t-131 45
t-135.5 13.5z" />
    <glyph glyph-name="Ecaron" unicode="&#x11a;" horiz-adv-x="1624" 
d="M1116 2017h109l-316 -297h-172l-313 297h106q179 -135 295 -231q85 73 291 231zM1491 0h-1217v1597h1192v-98h-1069v-627h1020v-98h-1020v-670h1094v-104z" />
    <glyph glyph-name="ecaron" unicode="&#x11b;" horiz-adv-x="1525" 
d="M856 1278h-176l-356 356h108q28 -23 99.5 -82t120.5 -100t116 -100q50 45 101 88.5t129 107.5t104 86h110zM780 -35q-187 0 -336.5 74.5t-235 211t-85.5 310.5q0 173 85 310t235 212.5t339 75.5q53 0 106.5 -6.5t115 -23.5t115.5 -43t105 -70t87 -100t58 -136t22 -176
v-55h-1143q0 -221 150 -357.5t388 -136.5q188 0 323 89t202 227l100 -31q-77 -180 -245.5 -277.5t-385.5 -97.5zM252 647h1012q0 91 -29.5 164.5t-77.5 120.5t-112.5 78.5t-131 45t-135.5 13.5q-211 0 -353 -116t-173 -306z" />
    <glyph glyph-name="Gbreve" unicode="&#x11e;" horiz-adv-x="2166" 
d="M1036 1729q-101 0 -186 29t-139.5 75.5t-85.5 101t-35 109.5h108q8 -88 106 -156.5t232 -68.5t231 68.5t105 156.5h109q-2 -43 -22 -87t-58 -85t-89 -73t-123 -51t-153 -19zM1092 -35q-274 0 -491.5 105t-339.5 294t-122 427q0 183 74 340.5t201.5 266.5t303 170.5
t374.5 61.5q131 0 257 -27.5t239 -81.5t201.5 -144t133.5 -206l-104 -38q-91 188 -288.5 291.5t-436.5 103.5q-164 0 -312.5 -50.5t-262.5 -142t-181.5 -233t-67.5 -311.5q0 -141 47 -260.5t127 -203.5t187.5 -143t228 -87.5t248.5 -28.5q324 0 533 171.5t227 432.5h-711v96
h834v-768h-107v389h-12q-97 -201 -297 -312.5t-483 -111.5z" />
    <glyph glyph-name="gbreve" unicode="&#x11f;" horiz-adv-x="1644" 
d="M788 1278q-203 0 -319.5 111t-124.5 284h111q6 -137 97 -221t236 -84q142 0 235.5 82.5t100.5 222.5h111q-8 -172 -126.5 -283.5t-320.5 -111.5zM801 -483q-226 0 -377.5 79t-224.5 252l106 31q50 -127 174 -199.5t326 -72.5q76 0 142.5 13.5t132.5 49.5t112.5 92
t75 148.5t28.5 212.5v160h-6q-82 -136 -224.5 -209.5t-315.5 -73.5q-176 0 -320.5 76t-227.5 210.5t-83 297.5q0 166 84.5 298t229.5 204.5t321 72.5q170 0 314 -72.5t228 -212.5h4v252h111v-981q0 -628 -610 -628zM760 92q144 0 267 63.5t196 177.5t73 253t-73.5 250.5
t-195.5 172t-267 60.5q-221 0 -368.5 -140t-147.5 -345q0 -207 149 -349.5t367 -142.5z" />
    <glyph glyph-name="Gdotaccent" unicode="&#x120;" horiz-adv-x="2166" 
d="M1036 1792q-49 0 -82.5 29.5t-33.5 72.5q0 40 33.5 68.5t82.5 28.5q47 0 81 -28.5t34 -68.5q0 -43 -34 -72.5t-81 -29.5zM1092 -35q-274 0 -491.5 105t-339.5 294t-122 427q0 183 74 340.5t201.5 266.5t303 170.5t374.5 61.5q131 0 257 -27.5t239 -81.5t201.5 -144
t133.5 -206l-104 -38q-91 188 -288.5 291.5t-436.5 103.5q-164 0 -312.5 -50.5t-262.5 -142t-181.5 -233t-67.5 -311.5q0 -141 47 -260.5t127 -203.5t187.5 -143t228 -87.5t248.5 -28.5q324 0 533 171.5t227 432.5h-711v96h834v-768h-107v389h-12q-97 -201 -297 -312.5
t-483 -111.5z" />
    <glyph glyph-name="gdotaccent" unicode="&#x121;" horiz-adv-x="1644" 
d="M793 1440q-49 0 -83 29.5t-34 72.5q0 40 34 68t83 28q47 0 80.5 -28t33.5 -68q0 -43 -33.5 -72.5t-80.5 -29.5zM801 -483q-226 0 -377.5 79t-224.5 252l106 31q50 -127 174 -199.5t326 -72.5q76 0 142.5 13.5t132.5 49.5t112.5 92t75 148.5t28.5 212.5v160h-6
q-82 -136 -224.5 -209.5t-315.5 -73.5q-176 0 -320.5 76t-227.5 210.5t-83 297.5q0 166 84.5 298t229.5 204.5t321 72.5q170 0 314 -72.5t228 -212.5h4v252h111v-981q0 -628 -610 -628zM760 92q144 0 267 63.5t196 177.5t73 253t-73.5 250.5t-195.5 172t-267 60.5
q-221 0 -368.5 -140t-147.5 -345q0 -207 149 -349.5t367 -142.5z" />
    <glyph glyph-name="uni0122" unicode="&#x122;" horiz-adv-x="2166" 
d="M1092 -35q-274 0 -491.5 105t-339.5 294t-122 427q0 183 74 340.5t201.5 266.5t303 170.5t374.5 61.5q131 0 257 -27.5t239 -81.5t201.5 -144t133.5 -206l-104 -38q-91 188 -288.5 291.5t-436.5 103.5q-164 0 -312.5 -50.5t-262.5 -142t-181.5 -233t-67.5 -311.5
q0 -141 47 -260.5t127 -203.5t187.5 -143t228 -87.5t248.5 -28.5q324 0 533 171.5t227 432.5h-711v96h834v-768h-107v389h-12q-97 -201 -297 -312.5t-483 -111.5zM1004 -489h-58l109 184q-101 16 -101 92q0 40 33 67t80 27q46 0 78.5 -27t32.5 -67q0 -36 -33 -87t-141 -189z
" />
    <glyph glyph-name="uni0123" unicode="&#x123;" horiz-adv-x="1644" 
d="M643 1343q0 36 34.5 90t172.5 246h84l-143 -243q37 -9 57 -34.5t20 -58.5q0 -40 -33 -68t-79 -28t-79.5 28t-33.5 68zM801 -483q-226 0 -377.5 79t-224.5 252l106 31q50 -127 174 -199.5t326 -72.5q76 0 142.5 13.5t132.5 49.5t112.5 92t75 148.5t28.5 212.5v160h-6
q-82 -136 -224.5 -209.5t-315.5 -73.5q-176 0 -320.5 76t-227.5 210.5t-83 297.5q0 166 84.5 298t229.5 204.5t321 72.5q170 0 314 -72.5t228 -212.5h4v252h111v-981q0 -628 -610 -628zM760 92q144 0 267 63.5t196 177.5t73 253t-73.5 250.5t-195.5 172t-267 60.5
q-221 0 -368.5 -140t-147.5 -345q0 -207 149 -349.5t367 -142.5z" />
    <glyph glyph-name="Hbar" unicode="&#x126;" horiz-adv-x="1984" 
d="M1710 1272h164v-88h-164v-1184h-123v760h-1190v-760h-123v1184h-163v88h163v325h123v-325h1190v325h123v-325zM397 858h1190v326h-1190v-326z" />
    <glyph glyph-name="hbar" unicode="&#x127;" horiz-adv-x="1550" 
d="M840 1159q75 0 143 -13t134.5 -46t114.5 -83t77.5 -130t29.5 -182v-705h-112v662q0 112 -35.5 194.5t-96 127t-128.5 65t-146 20.5q-112 0 -205 -39.5t-150 -102.5t-87.5 -137.5t-30.5 -148.5v-641h-115v1343h-217v91h217v204h115v-204h457v-91h-457v-444h6
q149 260 486 260z" />
    <glyph glyph-name="Imacron" unicode="&#x12a;" horiz-adv-x="671" 
d="M727 1843h-778v94h778v-94zM397 0h-123v1597h123v-1597z" />
    <glyph glyph-name="imacron" unicode="&#x12b;" horiz-adv-x="581" 
d="M702 1434h-825v92h825v-92zM348 0h-115v1126h115v-1126z" />
    <glyph glyph-name="Iogonek" unicode="&#x12e;" horiz-adv-x="671" 
d="M410 -385q44 0 104 14v-78q-66 -14 -111 -14q-136 0 -225.5 63t-89.5 169q0 133 188 231h-2v1597h123v-1597q-213 -98 -213 -221q0 -74 65.5 -119t160.5 -45z" />
    <glyph glyph-name="iogonek" unicode="&#x12f;" horiz-adv-x="581" 
d="M293 1440q-49 0 -83 29.5t-34 72.5q0 40 34 68t83 28q47 0 81 -28t34 -68q0 -43 -34 -72.5t-81 -29.5zM360 -385q46 0 105 14v-78q-63 -14 -117 -14q-131 0 -220 62.5t-89 164.5q0 75 50.5 131t143.5 105v1126h115v-1126h-2q-103 -48 -156 -101.5t-53 -119.5
q0 -74 64.5 -119t158.5 -45z" />
    <glyph glyph-name="Idotaccent" unicode="&#x130;" horiz-adv-x="671" 
d="M338 1792q-49 0 -83 29.5t-34 72.5q0 40 34 68.5t83 28.5q47 0 81 -28.5t34 -68.5q0 -43 -34 -72.5t-81 -29.5zM397 0h-123v1597h123v-1597z" />
    <glyph glyph-name="dotlessi" unicode="&#x131;" horiz-adv-x="581" 
d="M348 0h-115v1126h115v-1126z" />
    <glyph glyph-name="uni0136" unicode="&#x136;" horiz-adv-x="1607" 
d="M397 0h-123v1597h123v-895h4q96 89 193 176.5t217.5 194t186 164t218.5 190.5t195 170h148l-793 -702q90 -96 388 -412t454 -483h-150q-77 80 -217 225.5t-567 587.5l-277 -246v-567zM799 -489h-58l109 184q-100 16 -100 92q0 40 32.5 67t79.5 27q46 0 78.5 -27t32.5 -67
q0 -36 -33 -87t-141 -189z" />
    <glyph glyph-name="uni0137" unicode="&#x137;" horiz-adv-x="1247" 
d="M1165 1126l-512 -438l607 -688h-130l-561 616l-221 -188v-428h-115v1638h115v-1083h6q289 250 666 571h145zM668 -119q46 0 78 -27t32 -67q0 -36 -33 -87t-141 -189h-57l108 184q-100 16 -100 92q0 40 33 67t80 27z" />
    <glyph glyph-name="Lacute" unicode="&#x139;" horiz-adv-x="1456" 
d="M631 2036h196l-411 -316h-107zM397 1597v-1493h1020v-104h-1143v1597h123z" />
    <glyph glyph-name="lacute" unicode="&#x13a;" horiz-adv-x="581" 
d="M774 2077l-412 -316h-106l322 316h196zM348 0h-115v1638h115v-1638z" />
    <glyph glyph-name="uni013B" unicode="&#x13b;" horiz-adv-x="1456" 
d="M397 1597v-1493h1020v-104h-1143v1597h123zM778 -119q46 0 78.5 -27t32.5 -67q0 -36 -33 -87t-141 -189h-58l109 184q-100 16 -100 92q0 40 32.5 67t79.5 27z" />
    <glyph glyph-name="uni013C" unicode="&#x13c;" horiz-adv-x="581" 
d="M348 0h-115v1638h115v-1638zM233 -489h-57l109 184q-101 16 -101 92q0 40 33 67t80 27q46 0 78.5 -27t32.5 -67q0 -36 -33 -86.5t-142 -189.5z" />
    <glyph glyph-name="Lcaron" unicode="&#x13d;" horiz-adv-x="1456" 
d="M936 1198h-82l141 244q-37 10 -57 35.5t-20 58.5q0 40 33.5 68t80.5 28q45 0 78 -28.5t33 -67.5q0 -34 -38 -95t-169 -243zM397 1597v-1493h1020v-104h-1143v1597h123z" />
    <glyph glyph-name="lcaron" unicode="&#x13e;" horiz-adv-x="581" 
d="M348 0h-115v1638h115v-1638zM662 1198h-82l141 244q-37 10 -57.5 35.5t-20.5 58.5q0 40 34 68t81 28q46 0 78 -28t32 -68q0 -34 -38 -96t-168 -242z" />
    <glyph glyph-name="Lslash" unicode="&#x141;" horiz-adv-x="1456" 
d="M397 842v-738h1020v-104h-1143v793l-211 -82v94l211 82v710h123v-661l394 154v-95z" />
    <glyph glyph-name="lslash" unicode="&#x142;" horiz-adv-x="581" 
d="M348 1006l242 145v-94l-242 -146v-911h-115v842l-245 -148v94l245 148v702h115v-632z" />
    <glyph glyph-name="Nacute" unicode="&#x143;" horiz-adv-x="2033" 
d="M1425 2036l-411 -316h-107l322 316h196zM397 0h-123v1597h138q108 -127 362.5 -425t465.5 -546.5t392 -465.5h6v1437h121v-1597h-137q-170 199 -583.5 677.5t-639.5 743.5h-2v-1421z" />
    <glyph glyph-name="nacute" unicode="&#x144;" horiz-adv-x="1550" 
d="M1190 1673l-373 -395h-102l303 395h172zM348 0h-115v1126h111v-227h4q78 134 206 197t288 63q76 0 143.5 -13t133.5 -46t114 -83t77 -130t29 -182v-705h-112v662q0 112 -35.5 194.5t-96 127t-128.5 65t-146 20.5q-91 0 -169 -26t-133 -68.5t-94.5 -98.5t-58 -116
t-18.5 -119v-641z" />
    <glyph glyph-name="uni0145" unicode="&#x145;" horiz-adv-x="2033" 
d="M397 0h-123v1597h138q108 -127 362.5 -425t465.5 -546.5t392 -465.5h6v1437h121v-1597h-137q-170 199 -583.5 677.5t-639.5 743.5h-2v-1421zM985 -489h-57l108 184q-100 16 -100 92q0 40 33 67t80 27q46 0 78 -27t32 -67q0 -36 -33 -87t-141 -189z" />
    <glyph glyph-name="uni0146" unicode="&#x146;" horiz-adv-x="1550" 
d="M348 0h-115v1126h111v-227h4q78 134 206 197t288 63q76 0 143.5 -13t133.5 -46t114 -83t77 -130t29 -182v-705h-112v662q0 112 -35.5 194.5t-96 127t-128.5 65t-146 20.5q-91 0 -169 -26t-133 -68.5t-94.5 -98.5t-58 -116t-18.5 -119v-641zM739 -489h-57l109 184
q-101 16 -101 92q0 40 33 67t80 27q46 0 78 -27t32 -67q0 -36 -33 -87t-141 -189z" />
    <glyph glyph-name="Ncaron" unicode="&#x147;" horiz-adv-x="2033" 
d="M1284 2017h109l-316 -297h-172l-313 297h106q179 -135 295 -231q85 73 291 231zM397 0h-123v1597h138q108 -127 362.5 -425t465.5 -546.5t392 -465.5h6v1437h121v-1597h-137q-170 199 -583.5 677.5t-639.5 743.5h-2v-1421z" />
    <glyph glyph-name="ncaron" unicode="&#x148;" horiz-adv-x="1550" 
d="M860 1278h-176l-356 356h108q28 -23 99.5 -82t120.5 -100t116 -100q50 45 101 88.5t129 107.5t104 86h111zM348 0h-115v1126h111v-227h4q78 134 206 197t288 63q76 0 143.5 -13t133.5 -46t114 -83t77 -130t29 -182v-705h-112v662q0 112 -35.5 194.5t-96 127t-128.5 65
t-146 20.5q-91 0 -169 -26t-133 -68.5t-94.5 -98.5t-58 -116t-18.5 -119v-641z" />
    <glyph glyph-name="Eng" unicode="&#x14a;" horiz-adv-x="2033" 
d="M1305 -483q-153 0 -258 59v107q114 -70 239 -70q162 0 256 102t94 269q-119 139 -382.5 443.5t-471 546t-385.5 451.5v-1425h-123v1597h138q108 -127 362.5 -425t465.5 -546.5t392 -465.5h6v1437h121v-1536q0 -85 -11.5 -158t-42.5 -146t-80.5 -124.5t-131 -83.5
t-188.5 -32z" />
    <glyph glyph-name="eng" unicode="&#x14b;" horiz-adv-x="1550" 
d="M979 -483q-151 0 -254 59v100q117 -69 236 -69q43 0 79 9.5t62 23.5t46.5 38.5t33 46t22 55t14 56.5t6.5 59.5t2.5 55t0.5 51.5v660q0 112 -35.5 194.5t-96 127t-128.5 65t-146 20.5q-91 0 -169 -26t-133 -68.5t-94.5 -98.5t-58 -116t-18.5 -119v-641h-115v1126h111v-227
h4q78 134 206 197t288 63q75 0 142.5 -13t134 -44.5t114 -80.5t77 -127t29.5 -177v-731q0 -38 -0.5 -60t-3.5 -65t-9 -70.5t-18.5 -67t-30 -65.5t-45 -55t-62.5 -46t-84 -28.5t-107 -11.5z" />
    <glyph glyph-name="Omacron" unicode="&#x14c;" horiz-adv-x="2195" 
d="M1485 1843h-778v94h778v-94zM1098 -35q-194 0 -370.5 63.5t-306.5 172.5t-207 264.5t-77 331.5q0 175 76 330.5t205.5 265.5t306.5 173.5t373 63.5q199 0 377.5 -65.5t306 -177t202 -265.5t74.5 -325q0 -230 -128.5 -421.5t-349 -301t-482.5 -109.5zM1100 68
q163 0 313 55t263 150t180 232t67 292q0 156 -67 293.5t-180 232.5t-263 150t-313 55q-164 0 -316 -55t-266 -150t-182 -232.5t-68 -293.5q0 -155 68 -292t182 -232t266 -150t316 -55z" />
    <glyph glyph-name="omacron" unicode="&#x14d;" horiz-adv-x="1587" 
d="M1206 1434h-825v92h825v-92zM795 -35q-295 0 -483.5 167t-188.5 429q0 174 85.5 310.5t239 212t347.5 75.5q193 0 345.5 -75.5t238 -212t85.5 -310.5q0 -173 -85 -309t-238 -211.5t-346 -75.5zM795 57q242 0 393 140.5t151 363.5q0 224 -151 366t-393 142
q-241 0 -394 -142.5t-153 -365.5t152.5 -363.5t394.5 -140.5z" />
    <glyph glyph-name="Ohungarumlaut" unicode="&#x150;" horiz-adv-x="2195" 
d="M1264 2036l-324 -316h-109l256 316h177zM1606 2036l-349 -316h-110l278 316h181zM1098 -35q-194 0 -370.5 63.5t-306.5 172.5t-207 264.5t-77 331.5q0 175 76 330.5t205.5 265.5t306.5 173.5t373 63.5q199 0 377.5 -65.5t306 -177t202 -265.5t74.5 -325
q0 -230 -128.5 -421.5t-349 -301t-482.5 -109.5zM1100 68q163 0 313 55t263 150t180 232t67 292q0 156 -67 293.5t-180 232.5t-263 150t-313 55q-164 0 -316 -55t-266 -150t-182 -232.5t-68 -293.5q0 -155 68 -292t182 -232t266 -150t316 -55z" />
    <glyph glyph-name="ohungarumlaut" unicode="&#x151;" horiz-adv-x="1587" 
d="M965 1673l-324 -395h-102l252 395h174zM1313 1673l-350 -395h-103l277 395h176zM795 -35q-295 0 -483.5 167t-188.5 429q0 174 85.5 310.5t239 212t347.5 75.5q193 0 345.5 -75.5t238 -212t85.5 -310.5q0 -173 -85 -309t-238 -211.5t-346 -75.5zM795 57q242 0 393 140.5
t151 363.5q0 224 -151 366t-393 142q-241 0 -394 -142.5t-153 -365.5t152.5 -363.5t394.5 -140.5z" />
    <glyph glyph-name="OE" unicode="&#x152;" horiz-adv-x="3282" 
d="M1096 -35q-194 0 -370 63.5t-305.5 172.5t-206.5 264.5t-77 331.5q0 175 76.5 330.5t206 265.5t306.5 173.5t372 63.5q271 0 492 -112.5t345 -303.5v383h1192v-98h-1071v-627h1022v-98h-1022v-670h1096v-104h-1217v381q-125 -191 -348 -303.5t-491 -112.5zM1100 68
q163 0 313 55t263 150t180 232t67 292q0 156 -67 293.5t-180 232.5t-263 150t-313 55q-164 0 -316 -55t-265 -150t-181 -232.5t-68 -293.5q0 -155 68 -292t181 -232t265 -150t316 -55z" />
    <glyph glyph-name="oe" unicode="&#x153;" horiz-adv-x="2742" 
d="M795 -35q-295 0 -483.5 167t-188.5 429q0 174 85.5 310.5t239 212t347.5 75.5q210 0 370.5 -87t237.5 -238q77 151 235 238t363 87q77 0 152 -13t159.5 -50.5t147.5 -96.5t105 -161t42 -234v-45h-1145q1 -223 153.5 -363.5t389.5 -140.5q188 0 321.5 88.5t200.5 227.5
l103 -31q-79 -182 -249 -278.5t-384 -96.5q-207 0 -362.5 86.5t-231.5 237.5q-77 -151 -238 -237.5t-370 -86.5zM795 57q242 0 393 140.5t151 363.5q0 224 -151 366t-393 142q-241 0 -394 -142.5t-153 -365.5t152.5 -363.5t394.5 -140.5zM1470 647h1010q1 89 -27.5 162
t-76 120.5t-111.5 79.5t-131.5 46t-138.5 14q-211 0 -353 -116t-172 -306z" />
    <glyph glyph-name="Racute" unicode="&#x154;" horiz-adv-x="1695" 
d="M1229 2036l-412 -316h-106l321 316h197zM397 0h-123v1597h654q293 0 455.5 -129t162.5 -335q0 -204 -141 -334t-373 -144v-2q87 -109 263.5 -326.5t263.5 -326.5h-136l-528 651h-498v-651zM397 750h531q236 0 363.5 98.5t127.5 273.5q0 173 -139 275t-375 102h-508v-749z
" />
    <glyph glyph-name="racute" unicode="&#x155;" horiz-adv-x="991" 
d="M973 1673l-373 -395h-102l303 395h172zM348 0h-115v1126h111v-245h10q51 127 175.5 202.5t277.5 75.5q93 0 160 -22v-109q-73 29 -168 29q-102 0 -188.5 -41t-143 -108.5t-88 -154t-31.5 -178.5v-575z" />
    <glyph glyph-name="uni0156" unicode="&#x156;" horiz-adv-x="1695" 
d="M397 0h-123v1597h654q293 0 455.5 -129t162.5 -335q0 -204 -141 -334t-373 -144v-2q87 -109 263.5 -326.5t263.5 -326.5h-136l-528 651h-498v-651zM397 750h531q236 0 363.5 98.5t127.5 273.5q0 173 -139 275t-375 102h-508v-749zM813 -489h-57l108 184q-100 16 -100 92
q0 40 33 67t80 27q46 0 78 -27t32 -67q0 -36 -33 -87t-141 -189z" />
    <glyph glyph-name="uni0157" unicode="&#x157;" horiz-adv-x="991" 
d="M348 0h-115v1126h111v-245h10q51 127 175.5 202.5t277.5 75.5q93 0 160 -22v-109q-73 29 -168 29q-102 0 -188.5 -41t-143 -108.5t-88 -154t-31.5 -178.5v-575zM223 -489h-57l108 184q-100 16 -100 92q0 40 33 67t80 27q46 0 78 -27t32 -67q0 -36 -33 -87t-141 -189z" />
    <glyph glyph-name="Rcaron" unicode="&#x158;" horiz-adv-x="1695" 
d="M1087 2017h109l-315 -297h-172l-314 297h107q179 -135 295 -231q95 81 290 231zM397 0h-123v1597h654q293 0 455.5 -129t162.5 -335q0 -204 -141 -334t-373 -144v-2q87 -109 263.5 -326.5t263.5 -326.5h-136l-528 651h-498v-651zM397 750h531q236 0 363.5 98.5
t127.5 273.5q0 173 -139 275t-375 102h-508v-749z" />
    <glyph glyph-name="rcaron" unicode="&#x159;" horiz-adv-x="991" 
d="M643 1278h-176l-356 356h108q28 -23 99.5 -82t120.5 -100t116 -100q50 45 101 88.5t129 107.5t104 86h110zM348 0h-115v1126h111v-245h10q51 127 175.5 202.5t277.5 75.5q93 0 160 -22v-109q-73 29 -168 29q-102 0 -188.5 -41t-143 -108.5t-88 -154t-31.5 -178.5v-575z
" />
    <glyph glyph-name="Sacute" unicode="&#x15a;" horiz-adv-x="1579" 
d="M1141 2036l-412 -316h-106l321 316h197zM813 -35q-82 0 -162 13.5t-165 47.5t-156 85.5t-131.5 134t-94.5 186.5l113 37q62 -191 225 -296t375 -105q90 0 175 19t160 57.5t121 106.5t46 155q0 44 -13.5 81t-29 63t-53.5 51t-59 37.5t-76 30.5t-73.5 23t-81.5 21
q-31 8 -46 12l-180 47q-53 14 -87 24t-95.5 32t-103 43.5t-92.5 57.5t-81.5 75t-52 93.5t-21.5 116.5q0 103 54 184.5t142.5 131t194.5 75t219 25.5q220 0 389 -98.5t236 -286.5l-109 -39q-57 147 -198.5 234.5t-337.5 87.5q-126 0 -230.5 -36.5t-168.5 -107t-64 -161.5
q0 -46 17.5 -87.5t42.5 -71.5t66 -57.5t74 -44.5t81 -34.5t72 -24.5t62 -17q8 -2 11 -3l182 -49l45 -12q45 -12 68.5 -18.5t67.5 -19.5t69.5 -23.5t64.5 -27t62.5 -33t53 -38.5t47 -46.5t34 -54t24 -65t7.5 -74.5q0 -83 -35 -156.5t-96 -128t-141.5 -93.5t-174.5 -59
t-192 -20z" />
    <glyph glyph-name="sacute" unicode="&#x15b;" horiz-adv-x="1204" 
d="M1018 1673l-373 -395h-102l303 395h172zM637 -35q-190 0 -341 87.5t-208 228.5l109 30q54 -111 179 -183.5t263 -72.5q39 0 82 6.5t90.5 23.5t84.5 42t61 66t24 92q0 41 -19.5 74.5t-46 54t-73.5 39t-80.5 27.5t-89.5 22l-127 28q-38 9 -56.5 13.5t-66.5 20t-77 30
t-70 41.5t-64.5 56t-41 71.5t-17.5 91.5q0 77 40.5 138t105.5 96t138 53t146 18q162 0 292 -77.5t177 -194.5l-115 -35q-38 91 -137 154t-236 63q-127 0 -210 -56t-83 -149q0 -45 23 -82.5t55 -61.5t81.5 -45t88 -32t88.5 -22l135 -33q150 -37 220 -74q143 -77 143 -213
q0 -140 -133 -238t-334 -98z" />
    <glyph glyph-name="Scedilla" unicode="&#x15e;" horiz-adv-x="1579" 
d="M1452 422q0 -100 -51 -185.5t-136.5 -143t-195 -91t-229.5 -37.5l-113 -135q42 20 111 20q94 0 154.5 -43.5t60.5 -113.5q0 -77 -73 -127.5t-183 -50.5q-83 0 -161.5 29t-131.5 79l57 45q38 -40 102 -65t128 -25q72 0 122 32t50 79q0 45 -44.5 74.5t-111.5 29.5
q-66 0 -119 -24l-57 47l119 151q-78 5 -152 22.5t-151 53t-140.5 86.5t-117 129t-85.5 174l113 37q62 -191 225 -296t375 -105q90 0 175 19t160 57.5t121 106.5t46 155q0 44 -13.5 81t-29 63t-53.5 51t-59 37.5t-76 30.5t-73.5 23t-81.5 21q-31 8 -46 12l-180 47
q-53 14 -87 24t-95.5 32t-103 43.5t-92.5 57.5t-81.5 75t-52 93.5t-21.5 116.5q0 103 54 184.5t142.5 131t194.5 75t219 25.5q220 0 389 -98.5t236 -286.5l-109 -39q-57 147 -198.5 234.5t-337.5 87.5q-126 0 -230.5 -36.5t-168.5 -107t-64 -161.5q0 -46 17.5 -87.5
t42.5 -71.5t66 -57.5t74 -44.5t81 -34.5t72 -24.5t62 -17q8 -2 11 -3l182 -49l45 -12q45 -12 68.5 -18.5t67.5 -19.5t69.5 -23.5t64.5 -27t62.5 -33t53 -38.5t47 -46.5t34 -54t24 -65t7.5 -74.5z" />
    <glyph glyph-name="scedilla" unicode="&#x15f;" horiz-adv-x="1204" 
d="M1104 301q0 -135 -126 -232.5t-319 -103.5l-112 -135q42 20 110 20q94 0 154.5 -43.5t60.5 -113.5q0 -77 -73 -127.5t-183 -50.5q-83 0 -161 29t-131 79l57 45q38 -40 101.5 -65t127.5 -25q72 0 122 32t50 79q0 45 -44 74.5t-111 29.5q-66 0 -119 -24l-57 47l120 151
q-169 15 -300 100t-183 214l109 30q54 -111 179 -183.5t263 -72.5q39 0 82 6.5t90.5 23.5t84.5 42t61 66t24 92q0 41 -19.5 74.5t-46 54t-73.5 39t-80.5 27.5t-89.5 22l-127 28q-38 9 -56.5 13.5t-66.5 20t-77 30t-70 41.5t-64.5 56t-41 71.5t-17.5 91.5q0 77 40.5 138
t105.5 96t138 53t146 18q162 0 292 -77.5t177 -194.5l-115 -35q-38 91 -137 154t-236 63q-127 0 -210 -56t-83 -149q0 -45 23 -82.5t55 -61.5t81.5 -45t88 -32t88.5 -22l135 -33q150 -37 220 -74q143 -77 143 -213z" />
    <glyph glyph-name="Scaron" unicode="&#x160;" horiz-adv-x="1579" 
d="M1073 2017h109l-316 -297h-172l-313 297h106q179 -135 295 -231q85 73 291 231zM813 -35q-82 0 -162 13.5t-165 47.5t-156 85.5t-131.5 134t-94.5 186.5l113 37q62 -191 225 -296t375 -105q90 0 175 19t160 57.5t121 106.5t46 155q0 44 -13.5 81t-29 63t-53.5 51
t-59 37.5t-76 30.5t-73.5 23t-81.5 21q-31 8 -46 12l-180 47q-53 14 -87 24t-95.5 32t-103 43.5t-92.5 57.5t-81.5 75t-52 93.5t-21.5 116.5q0 103 54 184.5t142.5 131t194.5 75t219 25.5q220 0 389 -98.5t236 -286.5l-109 -39q-57 147 -198.5 234.5t-337.5 87.5
q-126 0 -230.5 -36.5t-168.5 -107t-64 -161.5q0 -46 17.5 -87.5t42.5 -71.5t66 -57.5t74 -44.5t81 -34.5t72 -24.5t62 -17q8 -2 11 -3l182 -49l45 -12q45 -12 68.5 -18.5t67.5 -19.5t69.5 -23.5t64.5 -27t62.5 -33t53 -38.5t47 -46.5t34 -54t24 -65t7.5 -74.5
q0 -83 -35 -156.5t-96 -128t-141.5 -93.5t-174.5 -59t-192 -20z" />
    <glyph glyph-name="scaron" unicode="&#x161;" horiz-adv-x="1204" 
d="M688 1278h-176l-356 356h108q28 -23 99.5 -82t120.5 -100t116 -100q50 45 101 88.5t129 107.5t104 86h110zM637 -35q-190 0 -341 87.5t-208 228.5l109 30q54 -111 179 -183.5t263 -72.5q39 0 82 6.5t90.5 23.5t84.5 42t61 66t24 92q0 41 -19.5 74.5t-46 54t-73.5 39
t-80.5 27.5t-89.5 22l-127 28q-38 9 -56.5 13.5t-66.5 20t-77 30t-70 41.5t-64.5 56t-41 71.5t-17.5 91.5q0 77 40.5 138t105.5 96t138 53t146 18q162 0 292 -77.5t177 -194.5l-115 -35q-38 91 -137 154t-236 63q-127 0 -210 -56t-83 -149q0 -45 23 -82.5t55 -61.5t81.5 -45
t88 -32t88.5 -22l135 -33q150 -37 220 -74q143 -77 143 -213q0 -140 -133 -238t-334 -98z" />
    <glyph glyph-name="uni0162" unicode="&#x162;" horiz-adv-x="1554" 
d="M838 0h-17l-141 -170q42 20 111 20q94 0 154.5 -43.5t60.5 -113.5q0 -77 -73 -127.5t-183 -50.5q-83 0 -161.5 29t-131.5 79l57 45q38 -40 101.5 -65t127.5 -25q72 0 122 32t50 79q0 45 -44 74.5t-111 29.5q-66 0 -119 -24l-57 47l145 184h-12v1499h-678v98h1479v-98
h-680v-1499z" />
    <glyph glyph-name="uni0163" unicode="&#x163;" horiz-adv-x="894" 
d="M842 1126v-88h-428v-682v-45t2 -45t5 -46.5t9.5 -42t16 -40.5t24.5 -32.5t34 -27t45 -16t58 -6.5q112 0 234 70v-100q-108 -60 -248 -60q-33 0 -47 2l-115 -137q42 20 111 20q94 0 154.5 -43.5t60.5 -113.5q0 -77 -73 -127.5t-183 -50.5q-83 0 -161.5 29t-131.5 79l57 45
q38 -40 102 -65t128 -25q72 0 122 32t50 79q0 45 -44.5 74.5t-111.5 29.5q-66 0 -119 -24l-57 47l133 168q-41 14 -71.5 37t-48.5 55.5t-29 60.5t-15 70t-5 64.5t-1 62.5v704h-270v88h270v340h115v-340h428z" />
    <glyph glyph-name="Tcaron" unicode="&#x164;" horiz-adv-x="1554" 
d="M1071 2017h109l-316 -297h-172l-313 297h106q179 -135 295 -231q85 73 291 231zM838 0h-121v1499h-678v98h1479v-98h-680v-1499z" />
    <glyph glyph-name="tcaron" unicode="&#x165;" horiz-adv-x="894" 
d="M877 1198h-82l141 246q-37 9 -57.5 34.5t-20.5 57.5q0 40 34 68t81 28q46 0 78 -28t32 -68q0 -34 -38 -96t-168 -242zM594 -35q-48 0 -88 8.5t-68.5 21.5t-51 36t-37 43t-24.5 51t-15 52.5t-7.5 56t-3 52t-0.5 48.5v704h-270v88h270v340h115v-340h428v-88h-428v-682v-45
t2 -45t5 -46.5t9.5 -42t16 -40.5t24.5 -32.5t34 -27t45 -16t58 -6.5q112 0 234 70v-100q-108 -60 -248 -60z" />
    <glyph glyph-name="Tbar" unicode="&#x166;" horiz-adv-x="1554" 
d="M1518 1597v-98h-680v-655h450v-92h-450v-752h-121v752h-451v92h451v655h-678v98h1479z" />
    <glyph glyph-name="tbar" unicode="&#x167;" horiz-adv-x="894" 
d="M842 1126v-88h-428v-350h405v-90h-405v-242v-45t2 -45t5 -46.5t9.5 -42t16 -40.5t24.5 -32.5t34 -27t45 -16t58 -6.5q112 0 234 70v-100q-108 -60 -248 -60q-48 0 -88 8.5t-68.5 21.5t-51 36t-37 43t-24.5 51t-15 52.5t-7.5 56t-3 52t-0.5 48.5v264h-268v90h268v350h-270
v88h270v340h115v-340h428z" />
    <glyph glyph-name="Umacron" unicode="&#x16a;" horiz-adv-x="1853" 
d="M1315 1843h-778v94h778v-94zM920 -35q-149 0 -269.5 35.5t-211 107.5t-140 188.5t-49.5 270.5v1030h123v-1024q0 -136 40 -235.5t115.5 -159t174 -87.5t223.5 -28q126 0 225 28t174 87.5t115.5 159t40.5 235.5v1024h123v-1030q0 -279 -176.5 -440.5t-507.5 -161.5z" />
    <glyph glyph-name="umacron" unicode="&#x16b;" horiz-adv-x="1527" 
d="M1147 1434h-825v92h825v-92zM696 -35q-70 0 -135.5 13.5t-130.5 46.5t-112.5 83t-77 130.5t-29.5 181.5v706h115v-663q0 -91 24 -163t63 -116.5t92 -74t106.5 -41t111.5 -11.5q107 0 196 39t144.5 102t86 137t30.5 148v643h112v-774q0 -119 10 -194.5t35 -157.5h-116
q-37 118 -37 225h-4q-80 -134 -205.5 -197t-278.5 -63z" />
    <glyph glyph-name="Uring" unicode="&#x16e;" horiz-adv-x="1853" 
d="M926 1716q-114 0 -188 60.5t-74 154.5q0 91 74 151t188 60q109 0 183.5 -60.5t74.5 -150.5q0 -93 -74 -154t-184 -61zM926 1798q70 0 118 36t48 97q0 58 -48 93.5t-118 35.5q-74 0 -122 -35t-48 -94q0 -61 48 -97t122 -36zM920 -35q-149 0 -269.5 35.5t-211 107.5
t-140 188.5t-49.5 270.5v1030h123v-1024q0 -136 40 -235.5t115.5 -159t174 -87.5t223.5 -28q126 0 225 28t174 87.5t115.5 159t40.5 235.5v1024h123v-1030q0 -279 -176.5 -440.5t-507.5 -161.5z" />
    <glyph glyph-name="uring" unicode="&#x16f;" horiz-adv-x="1527" 
d="M733 1245q-113 0 -187.5 61t-74.5 154q0 91 74.5 151t187.5 60q110 0 184 -60t74 -151q0 -93 -73.5 -154t-184.5 -61zM733 1327q71 0 118.5 36t47.5 97q0 59 -47.5 94t-118.5 35q-73 0 -121.5 -35t-48.5 -94q0 -61 48.5 -97t121.5 -36zM696 -35q-70 0 -135.5 13.5
t-130.5 46.5t-112.5 83t-77 130.5t-29.5 181.5v706h115v-663q0 -91 24 -163t63 -116.5t92 -74t106.5 -41t111.5 -11.5q107 0 196 39t144.5 102t86 137t30.5 148v643h112v-774q0 -119 10 -194.5t35 -157.5h-116q-37 118 -37 225h-4q-80 -134 -205.5 -197t-278.5 -63z" />
    <glyph glyph-name="Uhungarumlaut" unicode="&#x170;" horiz-adv-x="1853" 
d="M1092 2036l-324 -316h-109l256 316h177zM1434 2036l-349 -316h-110l278 316h181zM920 -35q-149 0 -269.5 35.5t-211 107.5t-140 188.5t-49.5 270.5v1030h123v-1024q0 -136 40 -235.5t115.5 -159t174 -87.5t223.5 -28q126 0 225 28t174 87.5t115.5 159t40.5 235.5v1024
h123v-1030q0 -279 -176.5 -440.5t-507.5 -161.5z" />
    <glyph glyph-name="uhungarumlaut" unicode="&#x171;" horiz-adv-x="1527" 
d="M905 1673l-323 -395h-103l252 395h174zM1253 1673l-350 -395h-102l276 395h176zM696 -35q-70 0 -135.5 13.5t-130.5 46.5t-112.5 83t-77 130.5t-29.5 181.5v706h115v-663q0 -91 24 -163t63 -116.5t92 -74t106.5 -41t111.5 -11.5q107 0 196 39t144.5 102t86 137t30.5 148
v643h112v-774q0 -119 10 -194.5t35 -157.5h-116q-37 118 -37 225h-4q-80 -134 -205.5 -197t-278.5 -63z" />
    <glyph glyph-name="Uogonek" unicode="&#x172;" horiz-adv-x="1853" 
d="M1481 573v1024h123v-1030q0 -254 -147.5 -411.5t-424.5 -184.5q-155 -87 -155 -192q0 -74 65 -119t160 -45q44 0 104 14v-78q-66 -14 -110 -14q-136 0 -226 63t-90 169q0 111 129 196q-146 2 -265 38t-208 108t-137.5 188t-48.5 268v1030h123v-1024q0 -136 40 -235.5
t115.5 -159t174 -87.5t223.5 -28q126 0 225 28t174 87.5t115.5 159t40.5 235.5z" />
    <glyph glyph-name="uogonek" unicode="&#x173;" horiz-adv-x="1527" 
d="M1346 -385q44 0 104 14v-78q-63 -14 -117 -14q-131 0 -220 62.5t-89 164.5q0 75 51 131t144 105h2q-37 118 -37 225h-4q-80 -134 -205.5 -197t-278.5 -63q-70 0 -135.5 13.5t-130.5 46.5t-112.5 83t-77 130.5t-29.5 181.5v706h115v-663q0 -91 24 -163t63 -116.5t92 -74
t106.5 -41t111.5 -11.5q107 0 196 39t144.5 102t86 137t30.5 148v643h112v-774q0 -119 10 -194.5t35 -157.5h-6q-103 -48 -156 -101.5t-53 -119.5q0 -74 65 -119t159 -45z" />
    <glyph glyph-name="Wcircumflex" unicode="&#x174;" horiz-adv-x="2779" 
d="M1475 2017l315 -297h-109q-204 158 -290 232q-164 -133 -295 -232h-107l314 297h172zM831 0h-141l-639 1597h125q364 -875 588 -1460h4q53 141 250.5 659.5t302.5 800.5h135q93 -243 280.5 -729.5t280.5 -730.5h6q374 965 580 1460h125l-639 -1597h-143
q-234 583 -553 1452h-4q-368 -989 -558 -1452z" />
    <glyph glyph-name="wcircumflex" unicode="&#x175;" horiz-adv-x="2213" 
d="M768 1278h-109l357 354h176l356 -354h-110q-209 170 -334 281q-233 -201 -336 -281zM666 0h-109l-506 1126h125l436 -983h6l426 983h125l441 -983h6l422 983h123l-502 -1126h-111q-300 674 -438 1014h-6q-177 -438 -438 -1014z" />
    <glyph glyph-name="Ycircumflex" unicode="&#x176;" horiz-adv-x="1683" 
d="M928 2017l315 -297h-108q-213 164 -291 232q-164 -133 -295 -232h-107l314 297h172zM901 0h-121v594q-408 568 -725 1003h133l652 -903h4q66 91 102.5 141t66.5 91.5t156 215.5t330 455h129q-693 -957 -727 -1003v-594z" />
    <glyph glyph-name="ycircumflex" unicode="&#x177;" horiz-adv-x="1306" 
d="M299 1278h-109l357 354h176l356 -354h-110q-209 170 -334 281q-233 -201 -336 -281zM487 -451h-98l213 443l-557 1134h127q95 -191 265.5 -550t215.5 -453h4q56 117 152 320t176 371t152 312h125z" />
    <glyph glyph-name="Ydieresis" unicode="&#x178;" horiz-adv-x="1683" 
d="M614 1798q-43 0 -74.5 28t-31.5 68q0 37 31.5 64t74.5 27q45 0 77 -27t32 -64q0 -40 -31.5 -68t-77.5 -28zM1069 1798q-47 0 -77.5 28t-30.5 68q0 37 31 64t77 27q43 0 75 -27t32 -64q0 -39 -32 -67.5t-75 -28.5zM901 0h-121v594q-408 568 -725 1003h133l652 -903h4
q66 91 102.5 141t66.5 91.5t156 215.5t330 455h129q-693 -957 -727 -1003v-594z" />
    <glyph glyph-name="Zacute" unicode="&#x179;" horiz-adv-x="1607" 
d="M1196 2036l-412 -316h-106l321 316h197zM1532 0h-1460v111q1148 1230 1292 1384v4h-1241v98h1388v-104q-578 -617 -1294 -1384v-5h1315v-104z" />
    <glyph glyph-name="zacute" unicode="&#x17a;" horiz-adv-x="1165" 
d="M1001 1673l-372 -395h-103l303 395h172zM1106 0h-1038v72l825 962h-772v92h928v-71l-830 -963h887v-92z" />
    <glyph glyph-name="Zdotaccent" unicode="&#x17b;" horiz-adv-x="1607" 
d="M786 1792q-49 0 -82.5 29.5t-33.5 72.5q0 40 33.5 68.5t82.5 28.5q47 0 81 -28.5t34 -68.5q0 -43 -34 -72.5t-81 -29.5zM1532 0h-1460v111q1148 1230 1292 1384v4h-1241v98h1388v-104q-578 -617 -1294 -1384v-5h1315v-104z" />
    <glyph glyph-name="zdotaccent" unicode="&#x17c;" horiz-adv-x="1165" 
d="M586 1440q-49 0 -83 29.5t-34 72.5q0 40 34 68t83 28q47 0 80.5 -28t33.5 -68q0 -43 -33.5 -72.5t-80.5 -29.5zM1106 0h-1038v72l825 962h-772v92h928v-71l-830 -963h887v-92z" />
    <glyph glyph-name="Zcaron" unicode="&#x17d;" horiz-adv-x="1607" 
d="M1055 2017h108l-315 -297h-172l-314 297h107q179 -135 295 -231q85 73 291 231zM1532 0h-1460v111q1148 1230 1292 1384v4h-1241v98h1388v-104q-578 -617 -1294 -1384v-5h1315v-104z" />
    <glyph glyph-name="zcaron" unicode="&#x17e;" horiz-adv-x="1165" 
d="M672 1278h-176l-357 356h109q28 -23 99.5 -82t120.5 -100t116 -100q50 45 101 88.5t129 107.5t104 86h110zM1106 0h-1038v72l825 962h-772v92h928v-71l-830 -963h887v-92z" />
    <glyph glyph-name="uni0218" unicode="&#x218;" horiz-adv-x="1579" 
d="M813 -35q-82 0 -162 13.5t-165 47.5t-156 85.5t-131.5 134t-94.5 186.5l113 37q62 -191 225 -296t375 -105q90 0 175 19t160 57.5t121 106.5t46 155q0 44 -13.5 81t-29 63t-53.5 51t-59 37.5t-76 30.5t-73.5 23t-81.5 21q-31 8 -46 12l-180 47q-53 14 -87 24t-95.5 32
t-103 43.5t-92.5 57.5t-81.5 75t-52 93.5t-21.5 116.5q0 103 54 184.5t142.5 131t194.5 75t219 25.5q220 0 389 -98.5t236 -286.5l-109 -39q-57 147 -198.5 234.5t-337.5 87.5q-126 0 -230.5 -36.5t-168.5 -107t-64 -161.5q0 -46 17.5 -87.5t42.5 -71.5t66 -57.5t74 -44.5
t81 -34.5t72 -24.5t62 -17q8 -2 11 -3l182 -49l45 -12q45 -12 68.5 -18.5t67.5 -19.5t69.5 -23.5t64.5 -27t62.5 -33t53 -38.5t47 -46.5t34 -54t24 -65t7.5 -74.5q0 -83 -35 -156.5t-96 -128t-141.5 -93.5t-174.5 -59t-192 -20zM748 -489h-58l109 184q-101 16 -101 92
q0 40 33 67t80 27q46 0 78.5 -27t32.5 -67q0 -36 -33 -87t-141 -189z" />
    <glyph glyph-name="uni0219" unicode="&#x219;" horiz-adv-x="1204" 
d="M637 -35q-190 0 -341 87.5t-208 228.5l109 30q54 -111 179 -183.5t263 -72.5q39 0 82 6.5t90.5 23.5t84.5 42t61 66t24 92q0 41 -19.5 74.5t-46 54t-73.5 39t-80.5 27.5t-89.5 22l-127 28q-38 9 -56.5 13.5t-66.5 20t-77 30t-70 41.5t-64.5 56t-41 71.5t-17.5 91.5
q0 77 40.5 138t105.5 96t138 53t146 18q162 0 292 -77.5t177 -194.5l-115 -35q-38 91 -137 154t-236 63q-127 0 -210 -56t-83 -149q0 -45 23 -82.5t55 -61.5t81.5 -45t88 -32t88.5 -22l135 -33q150 -37 220 -74q143 -77 143 -213q0 -140 -133 -238t-334 -98zM567 -489h-57
l108 184q-100 16 -100 92q0 40 33 67t80 27q46 0 78 -27t32 -67q0 -36 -33 -87t-141 -189z" />
    <glyph glyph-name="uni021A" unicode="&#x21a;" horiz-adv-x="1554" 
d="M838 0h-121v1499h-678v98h1479v-98h-680v-1499zM700 -489h-57l109 184q-101 16 -101 92q0 40 33 67t80 27q46 0 78 -27t32 -67q0 -36 -33 -87t-141 -189z" />
    <glyph glyph-name="uni021B" unicode="&#x21b;" horiz-adv-x="894" 
d="M594 -35q-48 0 -88 8.5t-68.5 21.5t-51 36t-37 43t-24.5 51t-15 52.5t-7.5 56t-3 52t-0.5 48.5v704h-270v88h270v340h115v-340h428v-88h-428v-682v-45t2 -45t5 -46.5t9.5 -42t16 -40.5t24.5 -32.5t34 -27t45 -16t58 -6.5q112 0 234 70v-100q-108 -60 -248 -60zM453 -489
h-58l109 184q-101 16 -101 92q0 40 33 67t80 27q46 0 78.5 -27t32.5 -67q0 -36 -33 -87t-141 -189z" />
    <glyph glyph-name="gravecomb" unicode="&#x300;" horiz-adv-x="0" 
d="M-133 1278h-103l-372 395h174z" />
    <glyph glyph-name="acutecomb" unicode="&#x301;" horiz-adv-x="0" 
d="M137 1673l-373 -395h-102l303 395h172z" />
    <glyph glyph-name="uni0302" unicode="&#x302;" horiz-adv-x="0" 
d="M-817 1278h-109l357 354h176l356 -354h-110q-209 170 -334 281q-233 -201 -336 -281z" />
    <glyph glyph-name="tildecomb" unicode="&#x303;" horiz-adv-x="0" 
d="M-381 1343q-18 0 -33.5 1t-30.5 4.5t-25.5 6t-23.5 9t-19.5 9.5t-19.5 12t-17 11.5t-18 13.5t-16 13l-43 31q-26 19 -40.5 28.5t-37.5 18t-47 8.5q-60 0 -99.5 -43t-39.5 -108h-90q1 102 67.5 166.5t168.5 64.5q53 0 92 -17.5t84 -51.5l51 -37q73 -60 143 -60
q61 0 96 42.5t35 109.5h92q0 -105 -61 -168.5t-168 -63.5z" />
    <glyph glyph-name="uni0304" unicode="&#x304;" horiz-adv-x="0" 
d="M-109 1434h-825v92h825v-92z" />
    <glyph glyph-name="uni0306" unicode="&#x306;" horiz-adv-x="0" 
d="M-483 1278q-203 0 -320 111t-125 284h111q6 -137 97 -221t237 -84q142 0 235.5 82.5t100.5 222.5h110q-8 -173 -126 -284t-320 -111z" />
    <glyph glyph-name="uni0307" unicode="&#x307;" horiz-adv-x="0" 
d="M-295 1440q-49 0 -83 29.5t-34 72.5q0 40 34 68t83 28q47 0 81 -28t34 -68q0 -43 -34 -72.5t-81 -29.5z" />
    <glyph glyph-name="uni0308" unicode="&#x308;" horiz-adv-x="0" 
d="M-1028 1386q-46 0 -77.5 28.5t-31.5 68.5q0 36 32 63t77 27t74.5 -27t29.5 -63q0 -40 -29.5 -68.5t-74.5 -28.5zM-627 1386q-45 0 -75.5 28.5t-30.5 68.5q0 36 30.5 63t75.5 27q44 0 76.5 -27t32.5 -63q0 -40 -32.5 -68.5t-76.5 -28.5z" />
    <glyph glyph-name="uni030A" unicode="&#x30a;" horiz-adv-x="0" 
d="M-276 1245q-113 0 -188 61t-75 154q0 91 75 151t188 60q110 0 184 -60t74 -151q0 -93 -73.5 -154t-184.5 -61zM-276 1327q71 0 118 36t47 97q0 59 -47 94t-118 35q-73 0 -121.5 -35t-48.5 -94q0 -61 48.5 -97t121.5 -36z" />
    <glyph glyph-name="uni030B" unicode="&#x30b;" horiz-adv-x="0" 
d="M-113 1673l-323 -395h-103l252 395h174zM236 1673l-351 -395h-102l276 395h177z" />
    <glyph glyph-name="uni030C" unicode="&#x30c;" horiz-adv-x="0" 
d="M-393 1278h-176l-357 356h109q28 -23 99.5 -82t120.5 -100t116 -100q50 45 101 88.5t129 107.5t104 86h110z" />
    <glyph glyph-name="uni0312" unicode="&#x312;" horiz-adv-x="0" 
d="M-518 1337q0 36 34.5 90t172.5 246h84l-144 -243q37 -9 57.5 -34.5t20.5 -58.5q0 -40 -33.5 -68t-79.5 -28t-79 28t-33 68z" />
    <glyph glyph-name="uni0326" unicode="&#x326;" horiz-adv-x="0" 
d="M-403 -489h-58l109 184q-101 16 -101 92q0 40 33 67t80 27q46 0 78.5 -27t32.5 -67q0 -36 -33 -87t-141 -189z" />
    <glyph glyph-name="uni0327" unicode="&#x327;" horiz-adv-x="0" 
d="M-768 -485q-83 0 -161.5 29t-131.5 79l57 45q38 -40 102 -65t128 -25q72 0 122 32t50 79q0 45 -44.5 74.5t-111.5 29.5q-66 0 -119 -24l-57 47l146 184h92l-142 -170q42 20 111 20q94 0 154.5 -43.5t60.5 -113.5q0 -77 -73 -127.5t-183 -50.5z" />
    <glyph glyph-name="uni0328" unicode="&#x328;" horiz-adv-x="0" 
d="M-772 -483q-131 0 -220 62.5t-89 164.5q0 75 50.5 131t143.5 105h113q-209 -97 -209 -222q0 -74 64.5 -119t158.5 -45q41 0 105 15v-78q-63 -14 -117 -14z" />
    <glyph glyph-name="uni0335" unicode="&#x335;" horiz-adv-x="0" 
d="M-858 608h788v-90h-788v90z" />
    <glyph glyph-name="uni0337" unicode="&#x337;" horiz-adv-x="0" 
d="M-565 543v94l602 362v-94z" />
    <glyph glyph-name="uni0338" unicode="&#x338;" horiz-adv-x="0" 
d="M-1247 -55h-131l1099 1235h125z" />
    <glyph glyph-name="Wgrave" unicode="&#x1e80;" horiz-adv-x="2779" 
d="M1477 1720h-107l-412 316h197zM831 0h-141l-639 1597h125q364 -875 588 -1460h4q53 141 250.5 659.5t302.5 800.5h135q93 -243 280.5 -729.5t280.5 -730.5h6q374 965 580 1460h125l-639 -1597h-143q-234 583 -553 1452h-4q-368 -989 -558 -1452z" />
    <glyph glyph-name="wgrave" unicode="&#x1e81;" horiz-adv-x="2213" 
d="M1159 1278h-102l-373 395h174zM666 0h-109l-506 1126h125l436 -983h6l426 983h125l441 -983h6l422 983h123l-502 -1126h-111q-300 674 -438 1014h-6q-177 -438 -438 -1014z" />
    <glyph glyph-name="Wacute" unicode="&#x1e82;" horiz-adv-x="2779" 
d="M1823 2036l-412 -316h-106l321 316h197zM831 0h-141l-639 1597h125q364 -875 588 -1460h4q53 141 250.5 659.5t302.5 800.5h135q93 -243 280.5 -729.5t280.5 -730.5h6q374 965 580 1460h125l-639 -1597h-143q-234 583 -553 1452h-4q-368 -989 -558 -1452z" />
    <glyph glyph-name="wacute" unicode="&#x1e83;" horiz-adv-x="2213" 
d="M1522 1673l-373 -395h-102l303 395h172zM666 0h-109l-506 1126h125l436 -983h6l426 983h125l441 -983h6l422 983h123l-502 -1126h-111q-300 674 -438 1014h-6q-177 -438 -438 -1014z" />
    <glyph glyph-name="Wdieresis" unicode="&#x1e84;" horiz-adv-x="2779" 
d="M1161 1798q-43 0 -74.5 28t-31.5 68q0 37 31.5 64t74.5 27q45 0 77 -27t32 -64q0 -40 -31.5 -68t-77.5 -28zM1616 1798q-47 0 -78 28t-31 68q0 37 31 64t78 27q43 0 74.5 -27t31.5 -64q0 -40 -31.5 -68t-74.5 -28zM831 0h-141l-639 1597h125q364 -875 588 -1460h4
q53 141 250.5 659.5t302.5 800.5h135q93 -243 280.5 -729.5t280.5 -730.5h6q374 965 580 1460h125l-639 -1597h-143q-234 583 -553 1452h-4q-368 -989 -558 -1452z" />
    <glyph glyph-name="wdieresis" unicode="&#x1e85;" horiz-adv-x="2213" 
d="M903 1386q-45 0 -76.5 28.5t-31.5 68.5q0 36 31.5 63t76.5 27t75 -27t30 -63q0 -40 -30 -68.5t-75 -28.5zM1305 1386q-45 0 -76 28.5t-31 68.5q0 36 31 63t76 27q44 0 76 -27t32 -63q0 -40 -32 -68.5t-76 -28.5zM666 0h-109l-506 1126h125l436 -983h6l426 983h125
l441 -983h6l422 983h123l-502 -1126h-111q-300 674 -438 1014h-6q-177 -438 -438 -1014z" />
    <glyph glyph-name="uni1E9E" unicode="&#x1e9e;" horiz-adv-x="1820" 
d="M373 0h-123v952q0 62 2 103t15 119t37.5 131.5t75 120t121 107t182 69t251.5 28.5q303 0 485.5 -118t182.5 -328q0 -150 -97.5 -250t-261.5 -125v-2q181 -8 309.5 -114.5t128.5 -278.5q0 -60 -17 -114.5t-62 -110.5t-116 -96.5t-188.5 -66.5t-269.5 -26h-197v98h226
q111 0 198 18t142.5 48.5t92 73t51.5 87.5t15 97q0 159 -138 246.5t-359 87.5h-127v98h153q25 0 53 2.5t68 10.5t75.5 21.5t72.5 37.5t63.5 55.5t43 79t16.5 104.5q0 176 -145 274.5t-396 98.5q-116 0 -208 -24t-150 -57.5t-99.5 -89t-61.5 -99.5t-30.5 -108.5t-12 -96.5
t-1.5 -83v-3v-977z" />
    <glyph glyph-name="Ygrave" unicode="&#x1ef2;" horiz-adv-x="1683" 
d="M930 1720h-107l-411 316h196zM901 0h-121v594q-408 568 -725 1003h133l652 -903h4q66 91 102.5 141t66.5 91.5t156 215.5t330 455h129q-693 -957 -727 -1003v-594z" />
    <glyph glyph-name="ygrave" unicode="&#x1ef3;" horiz-adv-x="1306" 
d="M692 1278h-102l-373 395h174zM487 -451h-98l213 443l-557 1134h127q95 -191 265.5 -550t215.5 -453h4q56 117 152 320t176 371t152 312h125z" />
    <glyph glyph-name="uni2000" unicode="&#x2000;" horiz-adv-x="1228" 
 />
    <glyph glyph-name="uni2001" unicode="&#x2001;" 
 />
    <glyph glyph-name="uni2002" unicode="&#x2002;" horiz-adv-x="1228" 
 />
    <glyph glyph-name="uni2003" unicode="&#x2003;" 
 />
    <glyph glyph-name="uni2004" unicode="&#x2004;" horiz-adv-x="819" 
 />
    <glyph glyph-name="uni2005" unicode="&#x2005;" horiz-adv-x="614" 
 />
    <glyph glyph-name="uni2006" unicode="&#x2006;" horiz-adv-x="409" 
 />
    <glyph glyph-name="uni2007" unicode="&#x2007;" horiz-adv-x="690" 
 />
    <glyph glyph-name="uni2008" unicode="&#x2008;" horiz-adv-x="555" 
 />
    <glyph glyph-name="uni2009" unicode="&#x2009;" horiz-adv-x="307" 
 />
    <glyph glyph-name="uni200A" unicode="&#x200a;" horiz-adv-x="102" 
 />
    <glyph glyph-name="uni200B" unicode="&#x200b;" horiz-adv-x="0" 
 />
    <glyph glyph-name="endash" unicode="&#x2013;" horiz-adv-x="1214" 
d="M1069 578h-924v92h924v-92z" />
    <glyph glyph-name="emdash" unicode="&#x2014;" horiz-adv-x="1730" 
d="M1585 580h-1440v88h1440v-88z" />
    <glyph glyph-name="quoteleft" unicode="&#x2018;" horiz-adv-x="532" 
d="M338 1630h82l-141 -246q36 -9 56.5 -34.5t20.5 -57.5q0 -40 -33.5 -68t-80.5 -28q-46 0 -79.5 28t-33.5 68q0 34 37 92.5t172 245.5z" />
    <glyph glyph-name="quoteright" unicode="&#x2019;" horiz-adv-x="540" 
d="M229 1198h-82l142 244q-36 10 -57 35.5t-21 58.5q0 40 34 68t81 28q46 0 79 -28t33 -68q0 -34 -37 -92.5t-172 -245.5z" />
    <glyph glyph-name="quotesinglbase" unicode="&#x201a;" horiz-adv-x="512" 
d="M170 -254h-82l141 246q-36 10 -56.5 35.5t-20.5 58.5q0 40 33.5 67t80.5 27q46 0 79.5 -27.5t33.5 -66.5q0 -33 -36 -90t-173 -250z" />
    <glyph glyph-name="quotedblleft" unicode="&#x201c;" horiz-adv-x="876" 
d="M338 1630h82l-141 -246q36 -9 56.5 -34.5t20.5 -57.5q0 -40 -33.5 -68t-80.5 -28q-46 0 -79.5 28t-33.5 68q0 34 37 92.5t172 245.5zM631 1630h82l-142 -246q36 -9 57 -34.5t21 -57.5q0 -40 -33.5 -68t-80.5 -28q-46 0 -79.5 28t-33.5 68q0 34 37 92.5t172 245.5z" />
    <glyph glyph-name="quotedblright" unicode="&#x201d;" horiz-adv-x="884" 
d="M229 1198h-82l142 244q-37 10 -57.5 35.5t-20.5 58.5q0 40 34 68t81 28q46 0 79 -28t33 -68q0 -34 -37 -92.5t-172 -245.5zM575 1198h-81l139 244q-35 11 -55.5 35.5t-20.5 58.5q0 40 34 68t81 28q45 0 77.5 -28.5t32.5 -67.5q0 -34 -29.5 -82.5t-134.5 -195.5
q-9 -12 -14 -19.5t-13.5 -19t-15.5 -21.5z" />
    <glyph glyph-name="quotedblbase" unicode="&#x201e;" horiz-adv-x="856" 
d="M170 -252h-82l141 246q-36 9 -56.5 34.5t-20.5 57.5q0 40 33.5 68t80.5 28q46 0 79.5 -28t33.5 -68q0 -34 -37 -92.5t-172 -245.5zM516 -252h-82l139 246q-35 9 -55 34t-20 58q0 40 33.5 68t80.5 28q45 0 78 -28.5t33 -67.5q0 -36 -33.5 -89t-173.5 -249z" />
    <glyph glyph-name="dagger" unicode="&#x2020;" horiz-adv-x="1179" 
d="M653 1288h416v-100h-416v-758h-123v758h-419v100h419v350h123v-350z" />
    <glyph glyph-name="daggerdbl" unicode="&#x2021;" horiz-adv-x="1310" 
d="M1135 1288v-100h-416v-311h416v-101h-416v-348h-123v348h-420v101h420v311h-420v100h420v350h123v-350h416z" />
    <glyph glyph-name="bullet" unicode="&#x2022;" horiz-adv-x="903" 
d="M453 426q-85 0 -144 52t-59 126q0 71 59 120.5t144 49.5q83 0 139.5 -49.5t56.5 -120.5q0 -74 -56.5 -126t-139.5 -52z" />
    <glyph glyph-name="ellipsis" unicode="&#x2026;" horiz-adv-x="1538" 
d="M279 -14q-47 0 -81 29.5t-34 70.5q0 39 33.5 66.5t81.5 27.5q46 0 78 -27t32 -67q0 -41 -32 -70.5t-78 -29.5zM692 -14q-47 0 -80.5 29.5t-33.5 70.5q0 40 33.5 67t80.5 27q46 0 78.5 -27t32.5 -67q0 -41 -32.5 -70.5t-78.5 -29.5zM1264 -14q-47 0 -81 29.5t-34 70.5
q0 39 33.5 66.5t81.5 27.5q46 0 78 -27t32 -67q0 -41 -32 -70.5t-78 -29.5z" />
    <glyph glyph-name="uni202F" unicode="&#x202f;" horiz-adv-x="495" 
 />
    <glyph glyph-name="perthousand" unicode="&#x2030;" horiz-adv-x="2754" 
d="M410 807q-136 0 -223 99.5t-87 254.5q0 158 86.5 258.5t223.5 100.5q136 0 221.5 -101t85.5 -258q0 -155 -85.5 -254.5t-221.5 -99.5zM354 0h-110l1366 1468h102zM410 885q92 0 148 75t56 201q0 127 -56 204t-148 77t-148.5 -77t-56.5 -204q0 -126 56 -201t149 -75z
M1526 -29q-136 0 -222.5 99.5t-86.5 255.5q0 158 86 258t223 100q136 0 221.5 -100.5t85.5 -257.5q0 -155 -85.5 -255t-221.5 -100zM2345 -29q-136 0 -222.5 99.5t-86.5 255.5q0 158 86 258t223 100q136 0 221.5 -100.5t85.5 -257.5q0 -155 -85.5 -255t-221.5 -100zM1526 49
q92 0 148.5 75.5t56.5 201.5q0 127 -56 203.5t-149 76.5t-149 -76.5t-56 -203.5q0 -126 56.5 -201.5t148.5 -75.5zM2345 49q92 0 148.5 75.5t56.5 201.5q0 127 -56 203.5t-149 76.5t-149 -76.5t-56 -203.5q0 -126 56.5 -201.5t148.5 -75.5z" />
    <glyph glyph-name="guilsinglleft" unicode="&#x2039;" horiz-adv-x="866" 
d="M696 164h-143l-416 405v9l416 405h143l-415 -405v-9z" />
    <glyph glyph-name="guilsinglright" unicode="&#x203a;" horiz-adv-x="866" 
d="M313 164h-143l416 405v9l-416 405h143l416 -405v-9z" />
    <glyph glyph-name="fraction" unicode="&#x2044;" horiz-adv-x="296" 
d="M-465 0h-110l1366 1468h102z" />
    <glyph glyph-name="uni205F" unicode="&#x205f;" horiz-adv-x="544" 
 />
    <glyph glyph-name="uni2070" unicode="&#x2070;" horiz-adv-x="819" 
d="M410 807q-136 0 -223 99.5t-87 254.5q0 158 86.5 258.5t223.5 100.5q136 0 221.5 -101t85.5 -258q0 -155 -85.5 -254.5t-221.5 -99.5zM410 885q92 0 148 75t56 201q0 127 -56 204t-148 77t-148.5 -77t-56.5 -204q0 -126 56 -201t149 -75z" />
    <glyph glyph-name="uni2074" unicode="&#x2074;" horiz-adv-x="761" 
d="M565 821h-94v162h-412v76l412 446h94v-450h117v-72h-117v-162zM471 1393l-315 -338h315v338z" />
    <glyph glyph-name="uni2075" unicode="&#x2075;" horiz-adv-x="751" 
d="M367 807q-106 0 -187.5 43t-109.5 115l82 36q24 -56 84 -88t131 -32q81 0 137.5 44t56.5 113t-54 112.5t-132 43.5q-117 0 -180 -84l-78 23l94 372h403v-71h-335l-62 -242q26 30 78 49t106 19q105 0 184 -60.5t79 -159.5q0 -102 -86.5 -167.5t-210.5 -65.5z" />
    <glyph glyph-name="uni2076" unicode="&#x2076;" horiz-adv-x="786" 
d="M403 807q-136 0 -219.5 85.5t-83.5 233.5q0 171 107 282.5t270 111.5q119 0 191 -56l-52 -57q-62 39 -145 39q-115 0 -193.5 -78t-82.5 -219h2q26 53 89.5 85t137.5 32q108 0 190 -64t82 -162q0 -100 -84.5 -166.5t-208.5 -66.5zM406 879q80 0 137 46t57 117
q0 68 -56 114t-134 46q-84 0 -139.5 -48t-55.5 -116q0 -66 57.5 -112.5t133.5 -46.5z" />
    <glyph glyph-name="uni2077" unicode="&#x2077;" horiz-adv-x="659" 
d="M283 821h-99q0 89 40.5 202t118 227.5t173.5 191.5h-467v74h574v-78q-148 -111 -244 -292.5t-96 -324.5z" />
    <glyph glyph-name="uni2078" unicode="&#x2078;" horiz-adv-x="770" 
d="M385 807q-125 0 -207 57.5t-82 141.5q0 65 45.5 111.5t112.5 60.5v4q-59 22 -92 61.5t-33 89.5q0 79 73.5 133t182.5 54t183.5 -53t74.5 -132q0 -48 -31.5 -89.5t-95.5 -63.5v-4q70 -15 114 -61.5t44 -108.5q0 -85 -82 -143t-207 -58zM387 1210q68 0 117 36t49 89
q0 51 -48.5 84t-117.5 33q-72 0 -119 -33t-47 -84q0 -53 47.5 -89t118.5 -36zM387 881q79 0 133.5 38t54.5 99t-50.5 98t-137.5 37q-89 0 -139.5 -37t-50.5 -98t54.5 -99t135.5 -38z" />
    <glyph glyph-name="uni2079" unicode="&#x2079;" horiz-adv-x="794" 
d="M360 807q-161 0 -258 100l60 54q82 -82 194 -82q79 0 135 41.5t81 108t24 149.5q-22 -59 -87.5 -93t-141.5 -34q-110 0 -189.5 65t-79.5 164q0 103 83.5 171.5t211.5 68.5q60 0 112 -17.5t95 -54t67.5 -100.5t24.5 -150q0 -106 -34.5 -192.5t-111.5 -142.5t-186 -56z
M381 1112q83 0 141 52t58 124q0 73 -56.5 117.5t-134.5 44.5q-85 0 -142 -47t-57 -121q0 -73 55.5 -121.5t135.5 -48.5z" />
    <glyph glyph-name="uni2080" unicode="&#x2080;" horiz-adv-x="819" 
d="M410 -285q-137 0 -223.5 99t-86.5 256q0 158 86.5 258t223.5 100q136 0 221.5 -100.5t85.5 -257.5q0 -155 -85.5 -255t-221.5 -100zM410 -207q92 0 148 75.5t56 201.5q0 127 -56 203.5t-148 76.5q-93 0 -149 -76.5t-56 -203.5q0 -126 56.5 -201.5t148.5 -75.5z" />
    <glyph glyph-name="uni2081" unicode="&#x2081;" horiz-adv-x="509" 
d="M338 -270h-94v528q-65 -69 -183 -84v82q81 15 134 60t53 98h90v-684z" />
    <glyph glyph-name="uni2082" unicode="&#x2082;" horiz-adv-x="739" 
d="M643 -270h-539v8q3 28 8.5 51.5t11.5 42.5t19.5 38.5l22.5 32.5t30.5 30.5t34.5 27t43 28t47 28.5t56 32q32 19 55.5 35t50 39.5t40.5 51t14 56.5q0 51 -46.5 86t-117.5 35q-85 0 -140 -48t-55 -124l-88 13q0 103 79 169t202 66q114 0 189 -55.5t75 -143.5
q0 -68 -43 -116.5t-119 -94.5q-22 -13 -63.5 -36t-64.5 -37t-51 -35.5t-44.5 -46t-24.5 -53.5h418v-80z" />
    <glyph glyph-name="uni2083" unicode="&#x2083;" horiz-adv-x="753" 
d="M371 -285q-105 0 -185 43t-106 115l84 35q24 -55 78 -88t129 -33q78 0 130 37t52 96q0 58 -52 92.5t-147 34.5h-82v66h90q78 0 124 33.5t46 86.5q0 54 -49.5 87.5t-122.5 33.5q-69 0 -118.5 -33.5t-59.5 -91.5l-86 15q13 83 90.5 133.5t182.5 50.5q108 0 184 -49.5
t76 -128.5q0 -54 -36.5 -101t-100.5 -61q71 -12 116 -57t45 -109q0 -84 -77.5 -145.5t-204.5 -61.5z" />
    <glyph glyph-name="uni2084" unicode="&#x2084;" horiz-adv-x="761" 
d="M565 -270h-94v161h-412v76l412 447h94v-451h117v-72h-117v-161zM471 301l-315 -338h315v338z" />
    <glyph glyph-name="uni2085" unicode="&#x2085;" horiz-adv-x="751" 
d="M367 -285q-106 0 -187.5 43t-109.5 115l82 37q24 -57 84.5 -90t130.5 -33q81 0 137.5 45.5t56.5 114.5t-54 112t-132 43q-117 0 -180 -84l-78 23l94 373h403v-72h-335l-62 -242q26 30 78 49t106 19q105 0 184 -60t79 -159q0 -102 -86.5 -168t-210.5 -66z" />
    <glyph glyph-name="uni2086" unicode="&#x2086;" horiz-adv-x="786" 
d="M403 -285q-136 0 -219.5 86t-83.5 234q0 171 107 282t270 111q121 0 191 -55l-52 -58q-62 39 -145 39q-115 0 -193.5 -78t-82.5 -219h2q26 53 89.5 85t137.5 32q109 0 190.5 -63.5t81.5 -161.5q0 -101 -84.5 -167.5t-208.5 -66.5zM406 -213q80 0 137 46.5t57 117.5
q0 68 -56 114t-134 46q-84 0 -139.5 -48t-55.5 -116q0 -66 57.5 -113t133.5 -47z" />
    <glyph glyph-name="uni2087" unicode="&#x2087;" horiz-adv-x="659" 
d="M283 -270h-99q0 138 94 321t238 299h-467v74h574v-78q-148 -111 -244 -292t-96 -324z" />
    <glyph glyph-name="uni2088" unicode="&#x2088;" horiz-adv-x="770" 
d="M385 -285q-125 0 -207 57.5t-82 141.5q0 65 45.5 111.5t112.5 60.5v4q-59 22 -92 61.5t-33 90.5q0 78 73 132t183 54q109 0 183.5 -52.5t74.5 -131.5q0 -48 -31.5 -90t-95.5 -64v-4q70 -15 114 -61.5t44 -108.5q0 -85 -82 -143t-207 -58zM387 119q68 0 117 36t49 89
q0 51 -48.5 83.5t-117.5 32.5q-72 0 -119 -32.5t-47 -83.5q0 -53 47.5 -89t118.5 -36zM387 -211q79 0 133.5 38t54.5 99t-50.5 98t-137.5 37q-89 0 -139.5 -37t-50.5 -98t54.5 -99t135.5 -38z" />
    <glyph glyph-name="uni2089" unicode="&#x2089;" horiz-adv-x="794" 
d="M360 -285q-71 0 -139.5 25t-118.5 76l60 53q80 -82 194 -82q79 0 135 41.5t81 108t24 149.5q-22 -59 -87.5 -93t-141.5 -34q-110 0 -189.5 65t-79.5 164q0 103 83.5 171.5t211.5 68.5q60 0 112 -17.5t95 -54t67.5 -100.5t24.5 -150q0 -106 -34.5 -192.5t-111.5 -142.5
t-186 -56zM381 20q83 0 141 52.5t58 124.5q0 73 -56.5 117t-134.5 44q-85 0 -142 -47t-57 -121q0 -73 55.5 -121.5t135.5 -48.5z" />
    <glyph glyph-name="Euro" unicode="&#x20ac;" horiz-adv-x="1933" 
d="M1729 197l86 -78q-216 -154 -547 -154q-346 0 -567 156t-287 422h-264v96h245q-8 55 -8 127q0 70 8 125h-245v96h262q31 128 98.5 234t169.5 186.5t247 125t320 44.5q325 0 543 -154l-86 -80q-189 136 -461 136q-280 0 -460.5 -133t-241.5 -359h839v-96h-860
q-8 -55 -8 -125q0 -72 8 -127h860v-96h-839q65 -226 254 -353t467 -127t467 134z" />
    <glyph glyph-name="trademark" unicode="&#x2122;" horiz-adv-x="1851" 
d="M471 944h-102v592h-273v80h641v-80h-266v-592zM985 944h-100v672h98q136 -263 277 -539q255 509 270 539h98v-672h-100v473q-30 -59 -85.5 -169t-98 -194t-46.5 -93h-84q-25 50 -104.5 211t-124.5 249v-477z" />
    <glyph glyph-name="oneeighth" unicode="&#x215b;" horiz-adv-x="1576" 
d="M338 821h-94v529q-65 -69 -183 -84v82q81 15 134 59.5t53 97.5h90v-684zM45 0h-111l1366 1468h103zM1192 -29q-125 0 -207 57.5t-82 141.5q0 65 45.5 111.5t112.5 60.5v4q-59 22 -92 61.5t-33 90.5q0 78 73 132t183 54q109 0 183.5 -52.5t74.5 -131.5q0 -48 -31.5 -90
t-95.5 -64v-4q70 -15 114 -61.5t44 -108.5q0 -85 -82 -143t-207 -58zM1194 375q68 0 117 36t49 89q0 51 -48.5 83.5t-117.5 32.5q-72 0 -119 -32.5t-47 -83.5q0 -53 47.5 -89t118.5 -36zM1194 45q79 0 133.5 38t54.5 99t-50.5 98t-137.5 37q-89 0 -139.5 -37t-50.5 -98
t54.5 -99t135.5 -38z" />
    <glyph glyph-name="threeeighths" unicode="&#x215c;" horiz-adv-x="1820" 
d="M371 807q-105 0 -185 43t-106 115l84 34q24 -55 78 -87.5t129 -32.5q78 0 130 37t52 96q0 58 -52 92.5t-147 34.5h-82v65h90q78 0 124 34t46 87q0 54 -49.5 87.5t-122.5 33.5q-69 0 -118.5 -33.5t-59.5 -91.5l-86 14q13 83 90.5 134t182.5 51q108 0 184 -50t76 -129
q0 -54 -36.5 -100.5t-100.5 -60.5q71 -12 116 -57t45 -109q0 -84 -77.5 -145.5t-204.5 -61.5zM289 0h-111l1366 1468h103zM1436 -29q-125 0 -207 57.5t-82 141.5q0 65 45.5 111.5t112.5 60.5v4q-59 22 -92 61.5t-33 90.5q0 78 73 132t183 54q109 0 183.5 -52.5t74.5 -131.5
q0 -48 -31.5 -90t-95.5 -64v-4q70 -15 113.5 -61.5t43.5 -108.5q0 -86 -81.5 -143.5t-206.5 -57.5zM1438 375q68 0 117 36t49 89q0 51 -48.5 83.5t-117.5 32.5q-72 0 -119 -32.5t-47 -83.5q0 -53 47.5 -89t118.5 -36zM1438 45q79 0 133.5 38t54.5 99t-50.5 98t-137.5 37
q-89 0 -140 -37t-51 -98q0 -60 55 -98.5t136 -38.5z" />
    <glyph glyph-name="fiveeighths" unicode="&#x215d;" horiz-adv-x="1818" 
d="M367 807q-106 0 -187.5 43t-109.5 115l82 36q24 -56 84 -88t131 -32q81 0 137.5 44t56.5 113t-54 112.5t-132 43.5q-117 0 -180 -84l-78 23l94 372h403v-71h-335l-62 -242q26 30 78 49t106 19q105 0 184 -60.5t79 -159.5q0 -102 -86.5 -167.5t-210.5 -65.5zM287 0h-111
l1366 1468h103zM1434 -29q-125 0 -207 57.5t-82 141.5q0 65 45.5 111.5t112.5 60.5v4q-59 22 -92 61.5t-33 90.5q0 78 73 132t183 54q109 0 183.5 -52.5t74.5 -131.5q0 -48 -31.5 -90t-95.5 -64v-4q70 -15 113.5 -61.5t43.5 -108.5q0 -86 -81.5 -143.5t-206.5 -57.5z
M1436 375q68 0 117 36t49 89q0 51 -48.5 83.5t-117.5 32.5q-72 0 -119 -32.5t-47 -83.5q0 -53 47.5 -89t118.5 -36zM1436 45q79 0 133.5 38t54.5 99t-50.5 98t-137.5 37q-89 0 -140 -37t-51 -98q0 -60 55 -98.5t136 -38.5z" />
    <glyph glyph-name="seveneighths" unicode="&#x215e;" horiz-adv-x="1726" 
d="M283 821h-99q0 89 40.5 202t118 227.5t173.5 191.5h-467v74h574v-78q-148 -111 -244 -292.5t-96 -324.5zM195 0h-111l1366 1468h102zM1341 -29q-125 0 -206.5 57.5t-81.5 141.5q0 65 45.5 111.5t111.5 60.5v4q-59 22 -92 61.5t-33 90.5q0 78 73 132t183 54
q109 0 183.5 -52.5t74.5 -131.5q0 -48 -31 -90t-95 -64v-4q70 -15 113.5 -61.5t43.5 -108.5q0 -85 -82 -143t-207 -58zM1343 375q68 0 117 36t49 89q0 51 -48.5 83.5t-117.5 32.5q-72 0 -118.5 -32.5t-46.5 -83.5q0 -53 47 -89t118 -36zM1343 45q79 0 134 38t55 99t-51 98
t-138 37q-89 0 -139.5 -37t-50.5 -98t54.5 -99t135.5 -38z" />
    <glyph glyph-name="arrowleft" unicode="&#x2190;" horiz-adv-x="1718" 
d="M336 696h1227v-104h-1225l364 -356h-149l-408 405v8l408 406h149z" />
    <glyph glyph-name="arrowup" unicode="&#x2191;" horiz-adv-x="1183" 
d="M596 1202l487 -340v-129l-430 305v-1018h-121v1020l-432 -307v129l488 340h8z" />
    <glyph glyph-name="arrowright" unicode="&#x2192;" horiz-adv-x="1718" 
d="M1016 1055h149l408 -406v-8l-408 -405h-149l364 356h-1224v104h1226z" />
    <glyph glyph-name="arrowdown" unicode="&#x2193;" horiz-adv-x="1187" 
d="M655 1202v-1018l430 305v-129l-487 -340h-8l-488 340v129l433 -307v1020h120z" />
    <glyph glyph-name="arrowboth" unicode="&#x2194;" horiz-adv-x="2148" 
d="M700 231h-149l-408 406v8l408 406h149l-368 -359h1485l-369 359h149l408 -406v-8l-408 -406h-149l367 357h-1481z" />
    <glyph glyph-name="arrowupdn" unicode="&#x2195;" horiz-adv-x="1312" 
d="M662 0h-9l-487 340v127l430 -303v1061l-430 -305v129l487 337h9l487 -337v-129l-430 303v-1057l430 301v-127z" />
    <glyph glyph-name="uni2196" unicode="&#x2196;" horiz-adv-x="1245" 
d="M1071 1036l64 -110l-529 49l512 -883l-106 -61l-508 882l-221 -479l-64 111l252 538l6 4z" />
    <glyph glyph-name="uni2197" unicode="&#x2197;" horiz-adv-x="1245" 
d="M776 1083l252 -538l-63 -111l-222 479l-507 -882l-105 61l510 883l-528 -49l65 110l592 51z" />
    <glyph glyph-name="uni2198" unicode="&#x2198;" horiz-adv-x="1243" 
d="M741 309l222 479l63 -110l-252 -539l-6 -4l-592 51l-65 111l528 -49l-510 882l104 62z" />
    <glyph glyph-name="uni2199" unicode="&#x2199;" horiz-adv-x="1243" 
d="M1118 1130l-512 -882l529 49l-64 -111l-594 -51l-6 4l-252 539l64 110l221 -479l508 883z" />
    <glyph glyph-name="emptyset" unicode="&#x2205;" horiz-adv-x="1697" 
d="M1456 1200l-149 -176q111 -82 171 -201t60 -258q0 -124 -50.5 -234.5t-140 -191t-219.5 -127.5t-282 -47q-210 0 -369 86l-151 -176l-84 53l149 176q-110 84 -170.5 203.5t-60.5 257.5q0 126 50.5 236t139.5 190t218.5 126t281.5 46q209 0 371 -84l149 174zM276 563
q0 -113 48.5 -211t136.5 -166l692 811q-138 72 -303 72q-251 0 -412.5 -146t-161.5 -360zM850 61q251 0 411 144t160 358q0 113 -48 211.5t-136 169.5l-692 -813q140 -70 305 -70z" />
    <glyph glyph-name="minus" unicode="&#x2212;" horiz-adv-x="1187" 
d="M1012 575h-836v99h836v-99z" />
    <glyph glyph-name="infinity" unicode="&#x221e;" horiz-adv-x="2228" 
d="M590 287q-176 0 -299 96t-123 242q0 145 123.5 241.5t298.5 96.5q88 0 170.5 -32t156 -84t197.5 -155q124 103 197.5 155t156.5 84t172 32q114 0 210 -43t153 -121t57 -174t-57 -174t-153 -121t-210 -43q-127 0 -236 59.5t-290 210.5q-182 -152 -289.5 -211t-234.5 -59z
M575 383q47 0 91 10t77.5 24.5t75.5 41t70 48t75.5 58.5t79.5 60q-29 21 -81 61.5t-77.5 59.5t-69.5 46.5t-76 40.5t-75.5 23t-89.5 10q-130 0 -206 -64.5t-76 -176.5q0 -114 78 -178t204 -64zM1653 383q128 0 206 64t78 178q0 112 -77 176.5t-207 64.5q-46 0 -89.5 -10.5
t-76 -23.5t-76.5 -41t-69.5 -47t-76 -59t-77.5 -60q29 -22 78 -60t76 -58.5t69.5 -48t75.5 -41t77 -24t89 -10.5z" />
    <glyph glyph-name="approxequal" unicode="&#x2248;" horiz-adv-x="1255" 
d="M313 737h-112q0 115 78.5 176.5t183.5 61.5q61 0 114 -23t84.5 -50t73.5 -50t84 -23q62 0 93.5 41.5t31.5 104.5h113q0 -118 -69.5 -178t-174.5 -60q-52 0 -96 15t-75 36.5t-60 43t-63.5 36.5t-72.5 15q-65 0 -99 -41.5t-34 -104.5zM313 328h-112q0 78 40 133t97.5 78.5
t124.5 23.5q50 0 93.5 -15t74.5 -36t59.5 -42.5t61 -36.5t67.5 -15q62 0 93.5 41t31.5 104h113q0 -118 -69.5 -177.5t-174.5 -59.5q-52 0 -96 15t-75 36t-60 42.5t-63.5 36.5t-72.5 15q-65 0 -99 -41t-34 -102z" />
    <glyph glyph-name="notequal" unicode="&#x2260;" horiz-adv-x="1230" 
d="M1032 879v-99h-284l-138 -311h422v-100h-463l-82 -187h-112l82 187h-264v100h303l137 311h-440v99h483l76 178h112l-76 -178h244z" />
    <glyph glyph-name="lessequal" unicode="&#x2264;" horiz-adv-x="1239" 
d="M1036 369h-837v88h585l-585 180v100l837 185v-99l-678 -145l678 -221v-88z" />
    <glyph glyph-name="greaterequal" unicode="&#x2265;" horiz-adv-x="1239" 
d="M1038 369h-835v88l680 221l-680 145v99l837 -185v-100l-585 -180h583v-88z" />
    <glyph glyph-name="lozenge" unicode="&#x25ca;" horiz-adv-x="1396" 
d="M754 0h-109l-495 694l495 692h109l493 -692zM289 694l405 -569h11l403 569l-403 568h-11z" />
    <glyph glyph-name="A.ss01" horiz-adv-x="1806" 
d="M180 0h-131l744 1597h221l741 -1597h-129q-26 57 -268 592h-905q-45 -98 -108.5 -234.5t-164.5 -357.5zM494 690h825q-17 36 -358 787h-105q-60 -131 -181.5 -393.5t-180.5 -393.5z" />
    <glyph glyph-name="Aacute.ss01" horiz-adv-x="1806" 
d="M1335 2036l-411 -316h-107l322 316h196zM180 0h-131l744 1597h221l741 -1597h-129q-26 57 -268 592h-905q-45 -98 -108.5 -234.5t-164.5 -357.5zM494 690h825q-17 36 -358 787h-105q-60 -131 -181.5 -393.5t-180.5 -393.5z" />
    <glyph glyph-name="Abreve.ss01" horiz-adv-x="1806" 
d="M903 1729q-101 0 -186 29t-139.5 75.5t-85.5 101t-35 109.5h108q8 -88 106 -156.5t232 -68.5t231 68.5t105 156.5h109q-2 -43 -22 -87t-58 -85t-89 -73t-123 -51t-153 -19zM180 0h-131l744 1597h221l741 -1597h-129q-26 57 -268 592h-905q-45 -98 -108.5 -234.5
t-164.5 -357.5zM494 690h825q-17 36 -358 787h-105q-60 -131 -181.5 -393.5t-180.5 -393.5z" />
    <glyph glyph-name="Acircumflex.ss01" horiz-adv-x="1806" 
d="M987 2017l316 -297h-109q-213 164 -291 232q-164 -133 -295 -232h-106l313 297h172zM180 0h-131l744 1597h221l741 -1597h-129q-26 57 -268 592h-905q-45 -98 -108.5 -234.5t-164.5 -357.5zM494 690h825q-17 36 -358 787h-105q-60 -131 -181.5 -393.5t-180.5 -393.5z" />
    <glyph glyph-name="Adieresis.ss01" horiz-adv-x="1806" 
d="M674 1798q-43 0 -75 28.5t-32 67.5q0 37 32 64t75 27q45 0 76.5 -27t31.5 -64q0 -40 -31 -68t-77 -28zM1128 1798q-47 0 -77.5 28t-30.5 68q0 37 31 64t77 27q43 0 75 -27t32 -64q0 -39 -32 -67.5t-75 -28.5zM180 0h-131l744 1597h221l741 -1597h-129q-26 57 -268 592
h-905q-45 -98 -108.5 -234.5t-164.5 -357.5zM494 690h825q-17 36 -358 787h-105q-60 -131 -181.5 -393.5t-180.5 -393.5z" />
    <glyph glyph-name="Agrave.ss01" horiz-adv-x="1806" 
d="M989 1720h-106l-412 316h197zM180 0h-131l744 1597h221l741 -1597h-129q-26 57 -268 592h-905q-45 -98 -108.5 -234.5t-164.5 -357.5zM494 690h825q-17 36 -358 787h-105q-60 -131 -181.5 -393.5t-180.5 -393.5z" />
    <glyph glyph-name="Amacron.ss01" horiz-adv-x="1806" 
d="M1292 1843h-778v94h778v-94zM180 0h-131l744 1597h221l741 -1597h-129q-26 57 -268 592h-905q-45 -98 -108.5 -234.5t-164.5 -357.5zM494 690h825q-17 36 -358 787h-105q-60 -131 -181.5 -393.5t-180.5 -393.5z" />
    <glyph glyph-name="Aogonek.ss01" horiz-adv-x="1806" 
d="M1767 -385q45 0 105 14v-78q-66 -14 -111 -14q-136 0 -225.5 63t-89.5 169q0 133 188 231h-8q-26 57 -268 592h-905q-45 -98 -108.5 -234.5t-164.5 -357.5h-131l744 1597h221l741 -1597q-213 -98 -213 -221q0 -74 65 -119t160 -45zM494 690h825q-17 36 -358 787h-105
q-60 -131 -181.5 -393.5t-180.5 -393.5z" />
    <glyph glyph-name="Aring.ss01" horiz-adv-x="1806" 
d="M903 1716q-114 0 -188 60.5t-74 154.5q0 91 74 151t188 60q109 0 183.5 -60.5t74.5 -150.5q0 -93 -74 -154t-184 -61zM903 1798q70 0 118 36t48 97q0 58 -48 93.5t-118 35.5q-74 0 -122 -35t-48 -94q0 -61 48 -97t122 -36zM180 0h-131l744 1597h221l741 -1597h-129
q-26 57 -268 592h-905q-45 -98 -108.5 -234.5t-164.5 -357.5zM494 690h825q-17 36 -358 787h-105q-60 -131 -181.5 -393.5t-180.5 -393.5z" />
    <glyph glyph-name="Atilde.ss01" horiz-adv-x="1806" 
d="M1087 1753q-20 0 -38.5 2.5t-31.5 4.5t-29 8.5t-23.5 9.5t-22.5 13t-18.5 12.5t-20 15.5t-18.5 14l-43 31q-26 19 -40.5 28.5t-37.5 18t-47 8.5q-60 0 -99.5 -43.5t-39.5 -108.5h-91q1 102 67.5 167t168.5 65q53 0 91.5 -18t84.5 -52l51 -37q72 -59 144 -59q61 0 96 42.5
t35 109.5h92q0 -104 -61.5 -168t-168.5 -64zM180 0h-131l744 1597h221l741 -1597h-129q-26 57 -268 592h-905q-45 -98 -108.5 -234.5t-164.5 -357.5zM494 690h825q-17 36 -358 787h-105q-60 -131 -181.5 -393.5t-180.5 -393.5z" />
    <glyph glyph-name="B.ss01" horiz-adv-x="1751" 
d="M1036 0h-762v1597h654q146 0 265 -35t195 -93.5t117 -132.5t41 -156q0 -58 -21 -113.5t-62.5 -106t-111 -89.5t-159.5 -58v-4q108 -16 190.5 -55t130.5 -93t71.5 -114t23.5 -123q0 -84 -41 -161t-114 -135.5t-181.5 -93t-235.5 -34.5zM397 852h531q230 0 360.5 90
t130.5 227q0 146 -144 238t-372 92h-506v-647zM397 98h592q230 0 361 90.5t131 229.5q0 145 -141.5 240.5t-374.5 95.5h-568v-656z" />
    <glyph glyph-name="C.ss01" horiz-adv-x="2072" 
d="M1102 -35q-209 0 -388.5 61.5t-305.5 170t-197.5 262t-71.5 332.5q0 183 74 340.5t201.5 266.5t303 170.5t374.5 61.5q131 0 257 -27.5t239 -81.5t201.5 -144t133.5 -206l-104 -38q-91 188 -288.5 291.5t-436.5 103.5q-164 0 -312.5 -50.5t-262.5 -142.5t-181.5 -233.5
t-67.5 -310.5q0 -141 47.5 -261t128.5 -204t190 -143t232 -87t254 -28q158 0 292 41t227.5 113t156.5 159.5t96 189.5l109 -34q-34 -95 -87.5 -178.5t-133 -156.5t-178 -125t-227 -82t-275.5 -30z" />
    <glyph glyph-name="D.ss01" horiz-adv-x="1982" 
d="M952 0h-678v1597h656q187 0 339.5 -40.5t257 -112t176 -171.5t104 -216t32.5 -248q0 -178 -61 -327t-173 -256t-280 -166.5t-373 -59.5zM397 98h580q172 0 310.5 51t231.5 142.5t143 220.5t50 285q0 323 -207.5 512.5t-599.5 189.5h-508v-1401z" />
    <glyph glyph-name="E.ss01" horiz-adv-x="1624" 
d="M1491 0h-1217v1597h1192v-98h-1069v-627h1020v-98h-1020v-670h1094v-104z" />
    <glyph glyph-name="F.ss01" horiz-adv-x="1527" 
d="M1442 1597v-106h-1045v-631h996v-98h-996v-762h-123v1597h1168z" />
    <glyph glyph-name="G.ss01" horiz-adv-x="2117" 
d="M1096 -35q-210 0 -389.5 63t-303.5 172.5t-194 262t-70 328.5q0 183 74 340.5t201.5 266.5t303 170.5t374.5 61.5q131 0 257 -27.5t239 -81.5t201.5 -144t133.5 -206l-104 -38q-91 188 -288.5 291.5t-436.5 103.5q-164 0 -312.5 -50.5t-262.5 -142t-181.5 -232.5
t-67.5 -310q0 -214 105.5 -378.5t300.5 -255.5t450 -91q345 0 540 162.5t216 441.5h-725v96h834v-37q0 -161 -51 -291.5t-136.5 -217.5t-202 -146t-242.5 -85t-263 -26z" />
    <glyph glyph-name="H.ss01" horiz-adv-x="1984" 
d="M1587 858v739h123v-1597h-123v760h-1190v-760h-123v1597h123v-739h1190z" />
    <glyph glyph-name="I.ss01" horiz-adv-x="1302" 
d="M1206 0h-1110v98h494v1401h-506v98h1135v-98h-506v-1401h493v-98z" />
    <glyph glyph-name="Iacute.ss01" horiz-adv-x="1302" 
d="M1079 2036l-409 -316h-109l324 316h194zM1206 0h-1110v98h494v1401h-506v98h1135v-98h-506v-1401h493v-98z" />
    <glyph glyph-name="Icircumflex.ss01" horiz-adv-x="1302" 
d="M737 2017l316 -297h-109q-213 164 -291 232q-164 -133 -295 -232h-106l313 297h172zM1206 0h-1110v98h494v1401h-506v98h1135v-98h-506v-1401h493v-98z" />
    <glyph glyph-name="Idieresis.ss01" horiz-adv-x="1302" 
d="M424 1798q-43 0 -75 28.5t-32 67.5q0 37 32 64t75 27q45 0 76.5 -27t31.5 -64q0 -40 -31 -68t-77 -28zM879 1798q-47 0 -78 28t-31 68q0 37 31 64t78 27q43 0 74.5 -27t31.5 -64q0 -40 -31.5 -68t-74.5 -28zM1206 0h-1110v98h494v1401h-506v98h1135v-98h-506v-1401h493
v-98z" />
    <glyph glyph-name="Idotaccent.ss01" horiz-adv-x="1302" 
d="M651 1792q-49 0 -82.5 29.5t-33.5 72.5q0 40 33.5 68.5t82.5 28.5q47 0 81 -28.5t34 -68.5q0 -43 -34 -72.5t-81 -29.5zM1206 0h-1110v98h494v1401h-506v98h1135v-98h-506v-1401h493v-98z" />
    <glyph glyph-name="Igrave.ss01" horiz-adv-x="1302" 
d="M739 1720h-106l-412 316h197zM1206 0h-1110v98h494v1401h-506v98h1135v-98h-506v-1401h493v-98z" />
    <glyph glyph-name="Imacron.ss01" horiz-adv-x="1302" 
d="M1040 1843h-778v94h778v-94zM1206 0h-1110v98h494v1401h-506v98h1135v-98h-506v-1401h493v-98z" />
    <glyph glyph-name="J.ss01" horiz-adv-x="1409" 
d="M637 -35q-80 0 -153.5 14.5t-148 52t-128 95.5t-87.5 153t-34 216v18l109 14v-20q0 -104 28.5 -185t73 -128.5t104.5 -78.5t115.5 -42t114.5 -11q187 0 296 114.5t109 311.5v1010h-659v98h782v-1069q0 -27 -0.5 -47t-5.5 -65.5t-13.5 -80.5t-26.5 -84t-43 -86
t-65.5 -76.5t-91 -65t-121.5 -42t-155 -16.5z" />
    <glyph glyph-name="K.ss01" horiz-adv-x="1601" 
d="M397 0h-123v1597h123v-761h4l998 761h160q-188 -147 -542.5 -419t-508.5 -392q687 -489 1100 -786h-168q-26 18 -280.5 195t-762.5 534v-729z" />
    <glyph glyph-name="L.ss01" horiz-adv-x="1456" 
d="M397 1597v-1493h1020v-104h-1143v1597h123z" />
    <glyph glyph-name="M.ss01" horiz-adv-x="2279" 
d="M1866 1597h141v-1597h-123v1425l-682 -1060h-125l-680 1058v-1423h-123v1597h144q362 -540 719 -1114h6q16 25 79 125t86 136.5t82.5 130t92 144t88.5 136.5t98 149t94.5 141.5t102.5 151.5z" />
    <glyph glyph-name="N.ss01" horiz-adv-x="2033" 
d="M397 0h-123v1597h211l1104 -1454h49v1454h121v-1597h-209l-1099 1438h-54v-1438z" />
    <glyph glyph-name="O.ss01" horiz-adv-x="2195" 
d="M1098 -35q-194 0 -370.5 63.5t-306.5 172.5t-207 264.5t-77 331.5q0 175 76 330.5t205.5 265.5t306.5 173.5t373 63.5q199 0 377.5 -65.5t306 -177t202 -265.5t74.5 -325q0 -230 -128.5 -421.5t-349 -301t-482.5 -109.5zM1100 68q163 0 313 55t263 150t180 232t67 292
q0 156 -67 293.5t-180 232.5t-263 150t-313 55q-164 0 -316 -55t-266 -150t-182 -232.5t-68 -293.5q0 -155 68 -292t182 -232t266 -150t316 -55z" />
    <glyph glyph-name="P.ss01" horiz-adv-x="1636" 
d="M274 1597h654q293 0 455.5 -129t162.5 -335q0 -217 -158 -349.5t-413 -132.5h-578v-651h-123v1597zM397 750h531q236 0 363.5 98.5t127.5 273.5q0 174 -138.5 275.5t-375.5 101.5h-508v-749z" />
    <glyph glyph-name="Q.ss01" horiz-adv-x="2211" 
d="M586 -270v-4h1284v-95h-1526l395 392q-271 88 -431.5 291.5t-160.5 482.5q0 147 46.5 277.5t133 231.5t204 174t265.5 111.5t312 38.5q278 0 497.5 -107t341 -297t121.5 -429q0 -181 -72.5 -335.5t-199.5 -263t-305.5 -170t-384.5 -61.5q-129 0 -254 25
q-176 -172 -266 -262zM272 797q0 -255 150.5 -438t398.5 -255l516 512l84 -63q-70 -70 -150 -149t-178 -175.5t-153 -150.5q82 -12 170 -12q172 0 324 52.5t263.5 146.5t176.5 232t65 300q0 163 -65 301.5t-176.5 233t-263.5 147.5t-324 53q-173 0 -326.5 -53t-267 -147.5
t-179 -233t-65.5 -301.5z" />
    <glyph glyph-name="R.ss01" horiz-adv-x="1689" 
d="M584 651l1020 -651h-181l-1020 651h-6v-651h-123v1597h654q293 0 455.5 -129t162.5 -335q0 -217 -158 -349.5t-413 -132.5h-391zM905 1501h-508v-751h531q236 0 363.5 99.5t127.5 274.5q0 172 -139 274.5t-375 102.5z" />
    <glyph glyph-name="S.ss01" horiz-adv-x="1579" 
d="M813 -35q-82 0 -162 13.5t-165 47.5t-156 85.5t-131.5 134t-94.5 186.5l113 37q62 -191 225 -296t375 -105q90 0 175 19t160 57.5t121 106.5t46 155q0 44 -13.5 81t-29 63t-53.5 51t-59 37.5t-76 30.5t-73.5 23t-81.5 21q-31 8 -46 12l-180 47q-53 14 -87 24t-95.5 32
t-103 43.5t-92.5 57.5t-81.5 75t-52 93.5t-21.5 116.5q0 103 54 184.5t142.5 131t194.5 75t219 25.5q220 0 389 -98.5t236 -286.5l-109 -39q-57 147 -198.5 234.5t-337.5 87.5q-126 0 -230.5 -36.5t-168.5 -107t-64 -161.5q0 -46 17.5 -87.5t42.5 -71.5t66 -57.5t74 -44.5
t81 -34.5t72 -24.5t62 -17q8 -2 11 -3l182 -49l45 -12q45 -12 68.5 -18.5t67.5 -19.5t69.5 -23.5t64.5 -27t62.5 -33t53 -38.5t47 -46.5t34 -54t24 -65t7.5 -74.5q0 -83 -35 -156.5t-96 -128t-141.5 -93.5t-174.5 -59t-192 -20z" />
    <glyph glyph-name="U.ss01" horiz-adv-x="1878" 
d="M918 -35q-148 0 -268.5 36t-210.5 108.5t-139.5 188.5t-49.5 269v1030h123v-1024q0 -135 40 -234t115 -159t174 -88.5t224 -28.5q126 0 225 28.5t174 88t115.5 159.5t40.5 234v1024h123v-1597h-123v215h-2q-162 -250 -561 -250z" />
    <glyph glyph-name="Uacute.ss01" horiz-adv-x="1878" 
d="M1194 2036l-412 -316h-106l321 316h197zM918 -35q-148 0 -268.5 36t-210.5 108.5t-139.5 188.5t-49.5 269v1030h123v-1024q0 -135 40 -234t115 -159t174 -88.5t224 -28.5q126 0 225 28.5t174 88t115.5 159.5t40.5 234v1024h123v-1597h-123v215h-2q-162 -250 -561 -250z
" />
    <glyph glyph-name="Ucircumflex.ss01" horiz-adv-x="1878" 
d="M1004 2017l315 -297h-109q-204 158 -290 232q-164 -133 -295 -232h-107l313 297h173zM918 -35q-148 0 -268.5 36t-210.5 108.5t-139.5 188.5t-49.5 269v1030h123v-1024q0 -135 40 -234t115 -159t174 -88.5t224 -28.5q126 0 225 28.5t174 88t115.5 159.5t40.5 234v1024
h123v-1597h-123v215h-2q-162 -250 -561 -250z" />
    <glyph glyph-name="Udieresis.ss01" horiz-adv-x="1878" 
d="M690 1798q-43 0 -74.5 28t-31.5 68q0 37 31.5 64t74.5 27q45 0 77 -27t32 -64q0 -40 -31.5 -68t-77.5 -28zM1145 1798q-47 0 -78 28t-31 68q0 37 31 64t78 27q43 0 74.5 -27t31.5 -64q0 -40 -31.5 -68t-74.5 -28zM918 -35q-148 0 -268.5 36t-210.5 108.5t-139.5 188.5
t-49.5 269v1030h123v-1024q0 -135 40 -234t115 -159t174 -88.5t224 -28.5q126 0 225 28.5t174 88t115.5 159.5t40.5 234v1024h123v-1597h-123v215h-2q-162 -250 -561 -250z" />
    <glyph glyph-name="Ugrave.ss01" horiz-adv-x="1878" 
d="M1006 1720h-107l-412 316h197zM918 -35q-148 0 -268.5 36t-210.5 108.5t-139.5 188.5t-49.5 269v1030h123v-1024q0 -135 40 -234t115 -159t174 -88.5t224 -28.5q126 0 225 28.5t174 88t115.5 159.5t40.5 234v1024h123v-1597h-123v215h-2q-162 -250 -561 -250z" />
    <glyph glyph-name="Uhungarumlaut.ss01" horiz-adv-x="1878" 
d="M1085 2036l-323 -316h-109l256 316h176zM1427 2036l-348 -316h-110l278 316h180zM918 -35q-148 0 -268.5 36t-210.5 108.5t-139.5 188.5t-49.5 269v1030h123v-1024q0 -135 40 -234t115 -159t174 -88.5t224 -28.5q126 0 225 28.5t174 88t115.5 159.5t40.5 234v1024h123
v-1597h-123v215h-2q-162 -250 -561 -250z" />
    <glyph glyph-name="Umacron.ss01" horiz-adv-x="1878" 
d="M1309 1843h-779v94h779v-94zM918 -35q-148 0 -268.5 36t-210.5 108.5t-139.5 188.5t-49.5 269v1030h123v-1024q0 -135 40 -234t115 -159t174 -88.5t224 -28.5q126 0 225 28.5t174 88t115.5 159.5t40.5 234v1024h123v-1597h-123v215h-2q-162 -250 -561 -250z" />
    <glyph glyph-name="Uogonek.ss01" horiz-adv-x="1878" 
d="M1614 -385q44 0 104 14v-78q-66 -14 -110 -14q-136 0 -226 63t-90 169q0 132 189 231v215h-2q-162 -250 -561 -250q-148 0 -268.5 36t-210.5 108.5t-139.5 188.5t-49.5 269v1030h123v-1024q0 -135 40 -234t115 -159t174 -88.5t224 -28.5q126 0 225 28.5t174 88
t115.5 159.5t40.5 234v1024h123v-1597h-2q-213 -98 -213 -221q0 -74 65 -119t160 -45z" />
    <glyph glyph-name="Uring.ss01" horiz-adv-x="1878" 
d="M920 1716q-114 0 -188.5 60.5t-74.5 154.5q0 91 74.5 151t188.5 60q109 0 183.5 -60.5t74.5 -150.5q0 -93 -74 -154t-184 -61zM920 1798q70 0 117.5 36t47.5 97q0 58 -47.5 93.5t-117.5 35.5q-74 0 -122 -35t-48 -94q0 -61 48 -97t122 -36zM918 -35q-148 0 -268.5 36
t-210.5 108.5t-139.5 188.5t-49.5 269v1030h123v-1024q0 -135 40 -234t115 -159t174 -88.5t224 -28.5q126 0 225 28.5t174 88t115.5 159.5t40.5 234v1024h123v-1597h-123v215h-2q-162 -250 -561 -250z" />
    <glyph glyph-name="V.ss01" horiz-adv-x="1798" 
d="M1012 0h-224l-743 1597h131q13 -29 676 -1474h104q111 246 332.5 737t333.5 737h129z" />
    <glyph glyph-name="W.ss01" horiz-adv-x="2779" 
d="M838 0h-148l-639 1597h125l588 -1460h4l506 1460h256l487 -1460h6l580 1460h125l-639 -1597h-147l-490 1491h-102z" />
    <glyph glyph-name="Wacute.ss01" horiz-adv-x="2779" 
d="M1823 2036l-412 -316h-106l321 316h197zM838 0h-148l-639 1597h125l588 -1460h4l506 1460h256l487 -1460h6l580 1460h125l-639 -1597h-147l-490 1491h-102z" />
    <glyph glyph-name="Wcircumflex.ss01" horiz-adv-x="2779" 
d="M1475 2017l315 -297h-109q-204 158 -290 232q-164 -133 -295 -232h-107l314 297h172zM838 0h-148l-639 1597h125l588 -1460h4l506 1460h256l487 -1460h6l580 1460h125l-639 -1597h-147l-490 1491h-102z" />
    <glyph glyph-name="Wdieresis.ss01" horiz-adv-x="2779" 
d="M1161 1798q-43 0 -74.5 28t-31.5 68q0 37 31.5 64t74.5 27q45 0 77 -27t32 -64q0 -40 -31.5 -68t-77.5 -28zM1616 1798q-47 0 -78 28t-31 68q0 37 31 64t78 27q43 0 74.5 -27t31.5 -64q0 -40 -31.5 -68t-74.5 -28zM838 0h-148l-639 1597h125l588 -1460h4l506 1460h256
l487 -1460h6l580 1460h125l-639 -1597h-147l-490 1491h-102z" />
    <glyph glyph-name="Wgrave.ss01" horiz-adv-x="2779" 
d="M1477 1720h-107l-412 316h197zM838 0h-148l-639 1597h125l588 -1460h4l506 1460h256l487 -1460h6l580 1460h125l-639 -1597h-147l-490 1491h-102z" />
    <glyph glyph-name="X.ss01" horiz-adv-x="1671" 
d="M176 0h-137l663 811v25l-643 761h138q423 -516 587 -723h103q446 550 588 723h137l-641 -761v-25l659 -811h-133q-608 772 -610 774h-103q-393 -503 -608 -774z" />
    <glyph glyph-name="Y.ss01" horiz-adv-x="1644" 
d="M487 0h-120l428 596l-723 1001h133l651 -901h4l656 901h129z" />
    <glyph glyph-name="Yacute.ss01" horiz-adv-x="1644" 
d="M1286 2036l-412 -316h-106l322 316h196zM487 0h-120l428 596l-723 1001h133l651 -901h4l656 901h129z" />
    <glyph glyph-name="Ycircumflex.ss01" horiz-adv-x="1644" 
d="M942 2017l315 -297h-108q-213 164 -291 232q-164 -133 -295 -232h-106l313 297h172zM487 0h-120l428 596l-723 1001h133l651 -901h4l656 901h129z" />
    <glyph glyph-name="Ydieresis.ss01" horiz-adv-x="1644" 
d="M631 1798q-43 0 -75 28.5t-32 67.5q0 37 32 64t75 27q45 0 76.5 -27t31.5 -64q0 -40 -31 -68t-77 -28zM1085 1798q-47 0 -77.5 28t-30.5 68q0 37 31 64t77 27q43 0 75 -27t32 -64q0 -39 -32 -67.5t-75 -28.5zM487 0h-120l428 596l-723 1001h133l651 -901h4l656 901h129z
" />
    <glyph glyph-name="Ygrave.ss01" horiz-adv-x="1644" 
d="M944 1720h-106l-412 316h197zM487 0h-120l428 596l-723 1001h133l651 -901h4l656 901h129z" />
    <glyph glyph-name="Z.ss01" horiz-adv-x="1658" 
d="M1561 0h-1553l1387 1499h-1241v98h1470l-1382 -1493h1319v-104z" />
    <glyph glyph-name="Zacute.ss01" horiz-adv-x="1658" 
d="M1249 2036l-411 -316h-107l322 316h196zM1561 0h-1553l1387 1499h-1241v98h1470l-1382 -1493h1319v-104z" />
    <glyph glyph-name="Zcaron.ss01" horiz-adv-x="1658" 
d="M1108 2017h109l-316 -297h-172l-313 297h106q179 -135 295 -231q85 73 291 231zM1561 0h-1553l1387 1499h-1241v98h1470l-1382 -1493h1319v-104z" />
    <glyph glyph-name="Zdotaccent.ss01" horiz-adv-x="1658" 
d="M817 1792q-49 0 -83 29.5t-34 72.5q0 40 34 68.5t83 28.5q47 0 81 -28.5t34 -68.5q0 -43 -34 -72.5t-81 -29.5zM1561 0h-1553l1387 1499h-1241v98h1470l-1382 -1493h1319v-104z" />
    <glyph glyph-name="Q.ss02" horiz-adv-x="2195" 
d="M1165 -33v-239h682v-97h-800v336q-186 7 -353.5 73.5t-290 175t-194.5 260t-72 321.5q0 175 76 330.5t205.5 265.5t306.5 173.5t373 63.5q199 0 377.5 -65.5t306 -177t202 -265.5t74.5 -325q0 -220 -118.5 -406t-323 -298t-451.5 -126zM268 797q0 -149 63 -281.5
t169 -227t248 -152t299 -66.5v501h118v-501q153 11 291.5 70t241.5 153t164 225t61 279q0 156 -67 293.5t-180 232.5t-263 150t-313 55q-164 0 -316 -55t-266 -150t-182 -232.5t-68 -293.5z" />
    <glyph glyph-name="A.ss07" 
d="M1225 -315q-237 0 -446.5 71t-359 193.5t-236.5 294t-87 364.5q0 198 87 372.5t236.5 298.5t359 195.5t446.5 71.5q239 0 449 -71.5t360 -195.5t236.5 -298.5t86.5 -372.5q0 -156 -55 -298t-157.5 -255t-241 -196.5t-313 -128.5t-365.5 -45zM1184 1096l-477 -963h98
q28 56 86 173.5t88 178.5h494q155 -308 176 -352h98l-475 963h-88zM1440 559h-428q17 34 94.5 192t120.5 244q56 -123 213 -436z" />
    <glyph glyph-name="B.ss07" horiz-adv-x="2459" 
d="M1225 -315q-237 0 -446.5 71t-359 193.5t-236.5 294t-87 364.5q0 198 87 372.5t236.5 298.5t359 195.5t446.5 71.5q239 0 449 -71.5t360 -195.5t236.5 -298.5t86.5 -372.5q0 -156 -55 -298t-157.5 -255t-241 -196.5t-313 -128.5t-365.5 -45zM864 1096v-963h461
q147 0 247.5 74t100.5 186q0 84 -59.5 146t-159.5 84q84 26 134 85.5t50 133.5q0 110 -106 182t-270 72h-398zM954 653v369h293q130 0 211.5 -51.5t81.5 -134.5t-76 -133t-202 -50h-308zM1298 207h-344v373h330q129 0 211 -53t82 -138q0 -82 -76.5 -132t-202.5 -50z" />
    <glyph glyph-name="C.ss07" 
d="M1227 -315q-237 0 -446.5 71t-359 193.5t-236.5 294t-87 364.5q0 198 87 372.5t236.5 298.5t359 195.5t446.5 71.5q239 0 449 -71.5t360 -195.5t236.5 -298.5t86.5 -372.5q0 -156 -55 -298t-157.5 -255t-241 -196.5t-313 -128.5t-365.5 -45zM1270 113q200 0 344 92.5
t201 259.5l-82 27q-37 -129 -154 -216.5t-299 -87.5q-96 0 -183 26.5t-157.5 77t-112 133t-41.5 185.5q0 188 136 309t344 121q145 0 259 -64t161 -173l81 28q-33 94 -116 160.5t-182.5 95.5t-206.5 29q-162 0 -293.5 -65t-206 -181t-74.5 -260q0 -219 163 -358t419 -139z
" />
    <glyph glyph-name="D.ss07" 
d="M1225 -315q-237 0 -446.5 71t-359 193.5t-236.5 294t-87 364.5q0 198 87 372.5t236.5 298.5t359 195.5t446.5 71.5q239 0 449 -71.5t360 -195.5t236.5 -298.5t86.5 -372.5q0 -156 -55 -298t-157.5 -255t-241 -196.5t-313 -128.5t-365.5 -45zM819 1096v-963h412
q243 0 389.5 133t146.5 355q0 224 -146.5 349.5t-403.5 125.5h-398zM1247 207h-336v815h291q222 0 345.5 -107.5t123.5 -300.5q0 -187 -115 -297t-309 -110z" />
    <glyph glyph-name="E.ss07" 
d="M1225 -315q-237 0 -446.5 71t-359 193.5t-236.5 294t-87 364.5q0 198 87 372.5t236.5 298.5t359 195.5t446.5 71.5q239 0 449 -71.5t360 -195.5t236.5 -298.5t86.5 -372.5q0 -156 -55 -298t-157.5 -255t-241 -196.5t-313 -128.5t-365.5 -45zM891 1096v-963h741v78h-647
v381h604v74h-604v356h635v74h-729z" />
    <glyph glyph-name="F.ss07" horiz-adv-x="2459" 
d="M1225 -315q-237 0 -446.5 71t-359 193.5t-236.5 294t-87 364.5q0 198 87 372.5t236.5 298.5t359 195.5t446.5 71.5q239 0 449 -71.5t360 -195.5t236.5 -298.5t86.5 -372.5q0 -156 -55 -298t-157.5 -255t-241 -196.5t-313 -128.5t-365.5 -45zM913 1096v-963h95v451h589v75
h-589v359h620v78h-715z" />
    <glyph glyph-name="G.ss07" 
d="M1227 -315q-237 0 -446.5 71t-359 193.5t-236.5 294t-87 364.5q0 198 87 372.5t236.5 298.5t359 195.5t446.5 71.5q239 0 449 -71.5t360 -195.5t236.5 -298.5t86.5 -372.5q0 -156 -55 -298t-157.5 -255t-241 -196.5t-313 -128.5t-365.5 -45zM1262 113q162 0 280 60.5
t180 174.5v-215h82v473h-514v-74h422q-15 -155 -137.5 -249.5t-302.5 -94.5q-94 0 -180 27t-155 77.5t-110 133t-41 184.5q0 188 136 309t344 121q145 0 259 -64t161 -173l81 28q-50 138 -193 211.5t-312 73.5q-162 0 -293.5 -65t-206 -181t-74.5 -260q0 -218 161.5 -357.5
t412.5 -139.5z" />
    <glyph glyph-name="H.ss07" 
d="M1225 -315q-237 0 -446.5 71t-359 193.5t-236.5 294t-87 364.5q0 198 87 372.5t236.5 298.5t359 195.5t446.5 71.5q239 0 449 -71.5t360 -195.5t236.5 -298.5t86.5 -372.5q0 -156 -55 -298t-157.5 -255t-241 -196.5t-313 -128.5t-365.5 -45zM793 1096v-963h94v451h684
v-451h94v963h-94v-439h-684v439h-94z" />
    <glyph glyph-name="I.ss07" 
d="M1225 -315q-237 0 -446.5 71t-359 193.5t-236.5 294t-87 364.5q0 198 87 372.5t236.5 298.5t359 195.5t446.5 71.5q239 0 449 -71.5t360 -195.5t236.5 -298.5t86.5 -372.5q0 -156 -55 -298t-157.5 -255t-241 -196.5t-313 -128.5t-365.5 -45zM1182 1096v-963h92v963h-92z
" />
    <glyph glyph-name="J.ss07" 
d="M1225 -315q-237 0 -446.5 71t-359 193.5t-236.5 294t-87 364.5q0 198 87 372.5t236.5 298.5t359 195.5t446.5 71.5q239 0 449 -71.5t360 -195.5t236.5 -298.5t86.5 -372.5q0 -156 -55 -298t-157.5 -255t-241 -196.5t-313 -128.5t-365.5 -45zM1182 123q65 0 117 16.5
t84.5 39.5t56 61t34.5 68.5t17.5 76t7 68t0.5 59.5v594h-90v-617q0 -30 -0.5 -48t-5 -52.5t-12.5 -56.5t-24.5 -50t-40 -45t-60.5 -28.5t-84 -11.5q-48 0 -90.5 11.5t-82.5 37.5t-63.5 77t-23.5 121v29l-86 -8v-33q0 -68 21 -122.5t55 -88.5t80 -57t93 -32t97 -9z" />
    <glyph glyph-name="K.ss07" 
d="M1225 -315q-237 0 -446.5 71t-359 193.5t-236.5 294t-87 364.5q0 198 87 372.5t236.5 298.5t359 195.5t446.5 71.5q239 0 449 -71.5t360 -195.5t236.5 -298.5t86.5 -372.5q0 -156 -55 -298t-157.5 -255t-241 -196.5t-313 -128.5t-365.5 -45zM883 1096v-963h90v342
q21 18 73 64.5t82 70.5q440 -455 461 -477h115q-378 400 -508 539q60 52 224.5 199t256.5 225h-116q-451 -394 -588 -518v518h-90z" />
    <glyph glyph-name="L.ss07" 
d="M1225 -315q-237 0 -446.5 71t-359 193.5t-236.5 294t-87 364.5q0 198 87 372.5t236.5 298.5t359 195.5t446.5 71.5q239 0 449 -71.5t360 -195.5t236.5 -298.5t86.5 -372.5q0 -156 -55 -298t-157.5 -255t-241 -196.5t-313 -128.5t-365.5 -45zM979 1096v-963h696v78h-604
v885h-92z" />
    <glyph glyph-name="M.ss07" horiz-adv-x="2459" 
d="M1225 -315q-237 0 -446.5 71t-359 193.5t-236.5 294t-87 364.5q0 198 87 372.5t236.5 298.5t359 195.5t446.5 71.5q239 0 449 -71.5t360 -195.5t236.5 -298.5t86.5 -372.5q0 -156 -55 -298t-157.5 -255t-241 -196.5t-313 -128.5t-365.5 -45zM651 1096v-963h92v797
q200 -372 441 -797h90q313 563 440 799v-799h94v963h-102q-91 -171 -272.5 -493.5t-204.5 -364.5q-219 406 -477 858h-101z" />
    <glyph glyph-name="N.ss07" 
d="M1225 -315q-237 0 -446.5 71t-359 193.5t-236.5 294t-87 364.5q0 198 87 372.5t236.5 298.5t359 195.5t446.5 71.5q239 0 449 -71.5t360 -195.5t236.5 -298.5t86.5 -372.5q0 -156 -55 -298t-157.5 -255t-241 -196.5t-313 -128.5t-365.5 -45zM793 1096v-963h94v828
q121 -144 358 -418.5t350 -409.5h99v963h-92v-836q-333 397 -711 836h-98z" />
    <glyph glyph-name="O.ss07" 
d="M1225 -315q-237 0 -446.5 71t-359 193.5t-236.5 294t-87 364.5q0 198 87 372.5t236.5 298.5t359 195.5t446.5 71.5q239 0 449 -71.5t360 -195.5t236.5 -298.5t86.5 -372.5q0 -156 -55 -298t-157.5 -255t-241 -196.5t-313 -128.5t-365.5 -45zM1229 113q120 0 227 39
t184.5 106t122.5 159.5t45 196.5q0 138 -76.5 253.5t-209 182t-291.5 66.5q-161 0 -294 -66t-209.5 -181.5t-76.5 -254.5t76.5 -254.5t209 -181t292.5 -65.5zM748 614q0 178 141 302t342 124q130 0 240 -56.5t174.5 -154.5t64.5 -215t-64.5 -215t-174.5 -154.5t-240 -56.5
q-131 0 -242 56t-176 154t-65 216z" />
    <glyph glyph-name="P.ss07" 
d="M1225 -315q-237 0 -446.5 71t-359 193.5t-236.5 294t-87 364.5q0 198 87 372.5t236.5 298.5t359 195.5t446.5 71.5q239 0 449 -71.5t360 -195.5t236.5 -298.5t86.5 -372.5q0 -156 -55 -298t-157.5 -255t-241 -196.5t-313 -128.5t-365.5 -45zM893 1096v-963h90v387h334
q155 0 252.5 80.5t97.5 212.5q0 130 -104 206.5t-273 76.5h-397zM1290 594h-307v428h293q134 0 213.5 -57.5t79.5 -155.5q0 -104 -72.5 -159.5t-206.5 -55.5z" />
    <glyph glyph-name="Q.ss07" 
d="M1225 -315q-237 0 -446.5 71t-359 193.5t-236.5 294t-87 364.5q0 198 87 372.5t236.5 298.5t359 195.5t446.5 71.5q239 0 449 -71.5t360 -195.5t236.5 -298.5t86.5 -372.5q0 -156 -55 -298t-157.5 -255t-241 -196.5t-313 -128.5t-365.5 -45zM1696 68l65 49
q-18 16 -25.5 23.5l-14.5 14.5l-38.5 38.5l-80.5 80.5q96 70 149 171t53 212q0 138 -76.5 253.5t-209 182t-291.5 66.5q-161 0 -294 -66t-209.5 -181.5t-76.5 -254.5t76.5 -254.5t209 -181t292.5 -65.5q170 0 307 73q20 -20 77 -75t87 -86zM743 657q0 178 141.5 302
t342.5 124q130 0 240 -56.5t174.5 -154.5t64.5 -215q0 -94 -44 -176t-124 -143q-31 29 -108 105t-130 126l-63 -49l233 -227q-111 -60 -243 -60q-131 0 -242.5 55.5t-176.5 153t-65 215.5z" />
    <glyph glyph-name="R.ss07" 
d="M1225 -315q-237 0 -446.5 71t-359 193.5t-236.5 294t-87 364.5q0 198 87 372.5t236.5 298.5t359 195.5t446.5 71.5q239 0 449 -71.5t360 -195.5t236.5 -298.5t86.5 -372.5q0 -156 -55 -298t-157.5 -255t-241 -196.5t-313 -128.5t-365.5 -45zM899 1096v-963h92v387h283
l311 -387h105q-51 66 -157.5 195.5t-156.5 193.5q135 14 217 92.5t82 196.5q0 132 -103 208.5t-274 76.5h-399zM1296 594h-305v428h293q134 0 213.5 -58t79.5 -157q0 -102 -73.5 -157.5t-207.5 -55.5z" />
    <glyph glyph-name="S.ss07" 
d="M1225 -315q-237 0 -446.5 71t-359 193.5t-236.5 294t-87 364.5q0 198 87 372.5t236.5 298.5t359 195.5t446.5 71.5q239 0 449 -71.5t360 -195.5t236.5 -298.5t86.5 -372.5q0 -156 -55 -298t-157.5 -255t-241 -196.5t-313 -128.5t-365.5 -45zM1249 113q165 0 277 79.5
t112 200.5q0 47 -22 86t-44 60.5t-77.5 45t-75.5 29t-85 22.5q-17 5 -25 7l-109 29q-33 9 -53 15t-61.5 23.5t-66 36t-45 50.5t-20.5 69q0 77 74 125.5t191 48.5q114 0 197 -52.5t114 -143.5l82 30q-35 113 -137 177.5t-246 64.5q-67 0 -131 -16t-118.5 -46.5t-88 -80.5
t-33.5 -113q0 -190 324 -270l106 -27l34 -8.5l36 -9t33.5 -9.5t34 -12t29.5 -14t28 -17t21.5 -20.5t18.5 -25.5t10.5 -30t4.5 -36q0 -65 -45.5 -110.5t-108.5 -64t-133 -18.5q-128 0 -222 65t-128 179l-84 -29q24 -80 73 -139t110.5 -90.5t123 -46t125.5 -14.5z" />
    <glyph glyph-name="T.ss07" 
d="M1225 -315q-237 0 -446.5 71t-359 193.5t-236.5 294t-87 364.5q0 198 87 372.5t236.5 298.5t359 195.5t446.5 71.5q239 0 449 -71.5t360 -195.5t236.5 -298.5t86.5 -372.5q0 -156 -55 -298t-157.5 -255t-241 -196.5t-313 -128.5t-365.5 -45zM1184 1022v-889h90v889h399
v74h-893v-74h404z" />
    <glyph glyph-name="U.ss07" 
d="M1225 -315q-237 0 -446.5 71t-359 193.5t-236.5 294t-87 364.5q0 198 87 372.5t236.5 298.5t359 195.5t446.5 71.5q239 0 449 -71.5t360 -195.5t236.5 -298.5t86.5 -372.5q0 -156 -55 -298t-157.5 -255t-241 -196.5t-313 -128.5t-365.5 -45zM1225 123q196 0 305.5 97
t109.5 269v617h-94v-614q0 -295 -317 -295q-320 0 -320 295v614h-92v-617q0 -174 105.5 -270t302.5 -96z" />
    <glyph glyph-name="V.ss07" 
d="M1225 -315q-237 0 -446.5 71t-359 193.5t-236.5 294t-87 364.5q0 198 87 372.5t236.5 298.5t359 195.5t446.5 71.5q239 0 449 -71.5t360 -195.5t236.5 -298.5t86.5 -372.5q0 -156 -55 -298t-157.5 -255t-241 -196.5t-313 -128.5t-365.5 -45zM709 1096l475 -963h88
l475 963h-96q-121 -248 -420 -865q-313 645 -426 865h-96z" />
    <glyph glyph-name="W.ss07" 
d="M1225 -315q-237 0 -446.5 71t-359 193.5t-236.5 294t-87 364.5q0 198 87 372.5t236.5 298.5t359 195.5t446.5 71.5q239 0 449 -71.5t360 -195.5t236.5 -298.5t86.5 -372.5q0 -156 -55 -298t-157.5 -255t-241 -196.5t-313 -128.5t-365.5 -45zM422 1096l385 -963h98
q159 385 324 848q179 -492 325 -848h97l385 963h-94q-213 -523 -338 -848q-62 164 -171 443.5t-157 404.5h-94q-33 -86 -58 -151t-46 -120t-79 -208t-141 -369q-112 296 -342 848h-94z" />
    <glyph glyph-name="X.ss07" 
d="M1225 -315q-237 0 -446.5 71t-359 193.5t-236.5 294t-87 364.5q0 198 87 372.5t236.5 298.5t359 195.5t446.5 71.5q239 0 449 -71.5t360 -195.5t236.5 -298.5t86.5 -372.5q0 -156 -55 -298t-157.5 -255t-241 -196.5t-313 -128.5t-365.5 -45zM766 133h104q137 162 359 434
q53 -64 172 -210.5t184 -223.5h105q-70 82 -205 248t-205 248l395 467h-104q-68 -77 -344 -404q-58 66 -172.5 202t-171.5 202h-107q75 -89 213 -248t189 -219q-110 -130 -412 -496z" />
    <glyph glyph-name="Y.ss07" 
d="M1225 -315q-237 0 -446.5 71t-359 193.5t-236.5 294t-87 364.5q0 198 87 372.5t236.5 298.5t359 195.5t446.5 71.5q239 0 449 -71.5t360 -195.5t236.5 -298.5t86.5 -372.5q0 -156 -55 -298t-157.5 -255t-241 -196.5t-313 -128.5t-365.5 -45zM1182 489v-356h92v359
q55 77 163.5 226t189 260t85.5 118h-100q-280 -384 -383 -529q-69 96 -200 276.5t-183 252.5h-103q31 -43 192.5 -265t246.5 -342z" />
    <glyph glyph-name="Z.ss07" 
d="M1225 -315q-237 0 -446.5 71t-359 193.5t-236.5 294t-87 364.5q0 198 87 372.5t236.5 298.5t359 195.5t446.5 71.5q239 0 449 -71.5t360 -195.5t236.5 -298.5t86.5 -372.5q0 -156 -55 -298t-157.5 -255t-241 -196.5t-313 -128.5t-365.5 -45zM807 209v-76h887v78h-774
q52 56 221 235t295 314t245 264v72h-841v-74h725q-147 -156 -416.5 -446t-341.5 -367z" />
    <glyph glyph-name="A.ss08" 
d="M1225 1546q239 0 449 -71.5t360 -195.5t236.5 -298.5t86.5 -372.5q0 -156 -55 -298t-157.5 -255t-241 -196.5t-313 -128.5t-365.5 -45q-237 0 -446.5 71t-359 193.5t-236.5 294t-87 364.5q0 198 87 372.5t236.5 298.5t359 195.5t446.5 71.5zM1225 -240q219 0 412.5 65
t331.5 177t218 270t80 338q0 182 -80 341.5t-218 273.5t-331.5 179.5t-412.5 65.5q-218 0 -410.5 -65.5t-330.5 -179.5t-218 -273.5t-80 -341.5q0 -178 80 -336t217.5 -270.5t330.5 -178t411 -65.5zM852 268l344 693h68l344 -693h-78q-17 37 -125 252h-352l-125 -252h-76z
M1079 578h299q-109 219 -149 305q-16 -35 -69.5 -141.5t-80.5 -163.5z" />
    <glyph glyph-name="B.ss08" 
d="M1225 1546q239 0 449 -71.5t360 -195.5t236.5 -298.5t86.5 -372.5q0 -156 -55 -298t-157.5 -255t-241 -196.5t-313 -128.5t-365.5 -45q-237 0 -446.5 71t-359 193.5t-236.5 294t-87 364.5q0 198 87 372.5t236.5 298.5t359 195.5t446.5 71.5zM1225 -240q219 0 412.5 65
t331.5 177t218 270t80 338q0 182 -80 341.5t-218 273.5t-331.5 179.5t-412.5 65.5q-218 0 -410.5 -65.5t-330.5 -179.5t-218 -273.5t-80 -341.5q0 -178 80 -336t217.5 -270.5t330.5 -178t411 -65.5zM1393 621q72 -17 114.5 -61.5t42.5 -102.5q0 -81 -72.5 -135t-179.5 -54
h-335v693h286q120 0 197.5 -52.5t77.5 -132.5q0 -51 -35 -93t-96 -62zM1034 903v-258h217q89 0 144 35t55 92q0 58 -59 94.5t-150 36.5h-207zM1278 326q88 0 142.5 34.5t54.5 92.5q0 60 -58 97.5t-149 37.5h-234v-262h244z" />
    <glyph glyph-name="C.ss08" 
d="M1225 -315q-237 0 -446.5 71t-359 193.5t-236.5 294t-87 364.5q0 198 87 372.5t236.5 298.5t359 195.5t446.5 71.5q239 0 449 -71.5t360 -195.5t236.5 -298.5t86.5 -372.5q0 -156 -55 -298t-157.5 -255t-241 -196.5t-313 -128.5t-365.5 -45zM1225 -240q219 0 412.5 65
t331.5 177t218 270t80 338q0 182 -80 341.5t-218 273.5t-331.5 179.5t-412.5 65.5q-218 0 -410.5 -65.5t-330.5 -179.5t-218 -273.5t-80 -341.5q0 -178 80 -336t217.5 -270.5t330.5 -178t411 -65.5zM1257 254q-185 0 -303 99.5t-118 256.5q0 158 118 261.5t297 103.5
q133 0 233 -56.5t134 -150.5l-62 -23q-35 77 -118 123.5t-183 46.5q-150 0 -246 -85t-96 -220q0 -142 103.5 -220.5t247.5 -78.5q121 0 207.5 58.5t115.5 160.5l64 -22q-39 -119 -145 -186.5t-249 -67.5z" />
    <glyph glyph-name="D.ss08" horiz-adv-x="2459" 
d="M1225 -315q-237 0 -446.5 71t-359 193.5t-236.5 294t-87 364.5q0 198 87 372.5t236.5 298.5t359 195.5t446.5 71.5q239 0 449 -71.5t360 -195.5t236.5 -298.5t86.5 -372.5q0 -156 -55 -298t-157.5 -255t-241 -196.5t-313 -128.5t-365.5 -45zM1225 -240q219 0 412.5 65
t331.5 177t218 270t80 338q0 182 -80 341.5t-218 273.5t-331.5 179.5t-412.5 65.5q-218 0 -410.5 -65.5t-330.5 -179.5t-218 -273.5t-80 -341.5q0 -178 80 -336t217.5 -270.5t330.5 -178t411 -65.5zM1233 268h-301v693h291q186 0 290.5 -91.5t104.5 -251.5q0 -158 -106 -254
t-279 -96zM1006 326h237q139 0 221 77.5t82 210.5q0 138 -88.5 213.5t-245.5 75.5h-206v-577z" />
    <glyph glyph-name="E.ss08" 
d="M1225 -315q-237 0 -446.5 71t-359 193.5t-236.5 294t-87 364.5q0 198 87 372.5t236.5 298.5t359 195.5t446.5 71.5q239 0 449 -71.5t360 -195.5t236.5 -298.5t86.5 -372.5q0 -156 -55 -298t-157.5 -255t-241 -196.5t-313 -128.5t-365.5 -45zM1225 -240q219 0 412.5 65
t331.5 177t218 270t80 338q0 182 -80 341.5t-218 273.5t-331.5 179.5t-412.5 65.5q-218 0 -410.5 -65.5t-330.5 -179.5t-218 -273.5t-80 -341.5q0 -178 80 -336t217.5 -270.5t330.5 -178t411 -65.5zM1520 268h-537v693h528v-58h-456v-248h434v-59h-434v-268h465v-60z" />
    <glyph glyph-name="F.ss08" 
d="M1225 -315q-237 0 -446.5 71t-359 193.5t-236.5 294t-87 364.5q0 198 87 372.5t236.5 298.5t359 195.5t446.5 71.5q239 0 449 -71.5t360 -195.5t236.5 -298.5t86.5 -372.5q0 -156 -55 -298t-157.5 -255t-241 -196.5t-313 -128.5t-365.5 -45zM1225 -240q219 0 412.5 65
t331.5 177t218 270t80 338q0 182 -80 341.5t-218 273.5t-331.5 179.5t-412.5 65.5q-218 0 -410.5 -65.5t-330.5 -179.5t-218 -273.5t-80 -341.5q0 -178 80 -336t217.5 -270.5t330.5 -178t411 -65.5zM1071 268h-72v693h517v-60h-445v-254h424v-55h-424v-324z" />
    <glyph glyph-name="G.ss08" 
d="M1225 1546q239 0 449 -71.5t360 -195.5t236.5 -298.5t86.5 -372.5q0 -156 -55 -298t-157.5 -255t-241 -196.5t-313 -128.5t-365.5 -45q-237 0 -446.5 71t-359 193.5t-236.5 294t-87 364.5q0 198 87 372.5t236.5 298.5t359 195.5t446.5 71.5zM1225 -240q219 0 412.5 65
t331.5 177t218 270t80 338q0 182 -80 341.5t-218 273.5t-331.5 179.5t-412.5 65.5q-218 0 -410.5 -65.5t-330.5 -179.5t-218 -273.5t-80 -341.5q0 -178 80 -336t217.5 -270.5t330.5 -178t411 -65.5zM1272 553v55h373v-340h-66q0 25 1 76t1 72q-44 -77 -128 -119.5
t-200 -42.5q-183 0 -300 100.5t-117 255.5q0 158 118 261.5t297 103.5q133 0 233 -56.5t134 -150.5l-62 -23q-35 77 -118 123.5t-183 46.5q-150 0 -246 -85t-96 -220q0 -73 29 -131t78.5 -94t111 -55t128.5 -19q130 0 216 67t97 175h-301z" />
    <glyph glyph-name="H.ss08" 
d="M1225 1546q239 0 449 -71.5t360 -195.5t236.5 -298.5t86.5 -372.5q0 -156 -55 -298t-157.5 -255t-241 -196.5t-313 -128.5t-365.5 -45q-237 0 -446.5 71t-359 193.5t-236.5 294t-87 364.5q0 198 87 372.5t236.5 298.5t359 195.5t446.5 71.5zM1225 -240q219 0 412.5 65
t331.5 177t218 270t80 338q0 182 -80 341.5t-218 273.5t-331.5 179.5t-412.5 65.5q-218 0 -410.5 -65.5t-330.5 -179.5t-218 -273.5t-80 -341.5q0 -178 80 -336t217.5 -270.5t330.5 -178t411 -65.5zM985 649h488v312h73v-693h-73v322h-488v-322h-72v693h72v-312z" />
    <glyph glyph-name="I.ss08" horiz-adv-x="2459" 
d="M1227 -315q-237 0 -446.5 71t-359 193.5t-236.5 294t-87 364.5q0 198 87 372.5t236.5 298.5t359 195.5t446.5 71.5q239 0 449 -71.5t360 -195.5t236.5 -298.5t86.5 -372.5q0 -156 -55 -298t-157.5 -255t-241 -196.5t-313 -128.5t-365.5 -45zM1227 -240q219 0 412.5 65
t331.5 177t218 270t80 338q0 182 -80 341.5t-218 273.5t-331.5 179.5t-412.5 65.5q-218 0 -410.5 -65.5t-330.5 -179.5t-218 -273.5t-80 -341.5q0 -178 80 -336t217.5 -270.5t330.5 -178t411 -65.5zM1266 268h-74v693h74v-693z" />
    <glyph glyph-name="J.ss08" 
d="M1225 -315q-237 0 -446.5 71t-359 193.5t-236.5 294t-87 364.5q0 198 87 372.5t236.5 298.5t359 195.5t446.5 71.5q239 0 449 -71.5t360 -195.5t236.5 -298.5t86.5 -372.5q0 -156 -55 -298t-157.5 -255t-241 -196.5t-313 -128.5t-365.5 -45zM1225 -240q219 0 412.5 65
t331.5 177t218 270t80 338q0 182 -80 341.5t-218 273.5t-331.5 179.5t-412.5 65.5q-218 0 -410.5 -65.5t-330.5 -179.5t-218 -273.5t-80 -341.5q0 -178 80 -336t217.5 -270.5t330.5 -178t411 -65.5zM1196 260q-117 0 -184.5 59.5t-67.5 163.5v25l66 8v-24q0 -82 49.5 -129.5
t134.5 -47.5q46 0 78 16t47.5 36t24 54t9.5 52.5t1 48.5v445h71v-428q0 -26 -0.5 -42t-5 -48.5t-12.5 -54.5t-25 -49.5t-40.5 -44t-61 -28.5t-84.5 -12z" />
    <glyph glyph-name="K.ss08" 
d="M1225 1546q239 0 449 -71.5t360 -195.5t236.5 -298.5t86.5 -372.5q0 -156 -55 -298t-157.5 -255t-241 -196.5t-313 -128.5t-365.5 -45q-237 0 -446.5 71t-359 193.5t-236.5 294t-87 364.5q0 198 87 372.5t236.5 298.5t359 195.5t446.5 71.5zM1225 -240q219 0 412.5 65
t331.5 177t218 270t80 338q0 182 -80 341.5t-218 273.5t-331.5 179.5t-412.5 65.5q-218 0 -410.5 -65.5t-330.5 -179.5t-218 -273.5t-80 -341.5q0 -178 80 -336t217.5 -270.5t330.5 -178t411 -65.5zM1468 961h91q-44 -38 -82 -70.5t-93.5 -81t-173.5 -154.5l365 -387h-90
q-41 44 -121.5 127.5t-142 146t-64.5 66.5q-12 -11 -33 -30t-39 -34.5t-34 -29.5v-246h-72v693h72v-367q249 223 417 367z" />
    <glyph glyph-name="L.ss08" 
d="M1225 1546q239 0 449 -71.5t360 -195.5t236.5 -298.5t86.5 -372.5q0 -156 -55 -298t-157.5 -255t-241 -196.5t-313 -128.5t-365.5 -45q-237 0 -446.5 71t-359 193.5t-236.5 294t-87 364.5q0 198 87 372.5t236.5 298.5t359 195.5t446.5 71.5zM1225 -240q219 0 412.5 65
t331.5 177t218 270t80 338q0 182 -80 341.5t-218 273.5t-331.5 179.5t-412.5 65.5q-218 0 -410.5 -65.5t-330.5 -179.5t-218 -273.5t-80 -341.5q0 -178 80 -336t217.5 -270.5t330.5 -178t411 -65.5zM1047 961h71v-633h434v-60h-505v693z" />
    <glyph glyph-name="M.ss08" horiz-adv-x="2459" 
d="M1225 1546q239 0 449 -71.5t360 -195.5t236.5 -298.5t86.5 -372.5q0 -156 -55 -298t-157.5 -255t-241 -196.5t-313 -128.5t-365.5 -45q-237 0 -446.5 71t-359 193.5t-236.5 294t-87 364.5q0 198 87 372.5t236.5 298.5t359 195.5t446.5 71.5zM1225 -240q219 0 412.5 65
t331.5 177t218 270t80 338q0 182 -80 341.5t-218 273.5t-331.5 179.5t-412.5 65.5q-218 0 -410.5 -65.5t-330.5 -179.5t-218 -273.5t-80 -341.5q0 -178 80 -336t217.5 -270.5t330.5 -178t411 -65.5zM1229 350q104 183 342 611h76v-693h-72v563q-74 -139 -311 -563h-68
q-176 312 -311 563v-563h-74v693h78q200 -349 340 -611z" />
    <glyph glyph-name="N.ss08" 
d="M1225 1546q239 0 449 -71.5t360 -195.5t236.5 -298.5t86.5 -372.5q0 -156 -55 -298t-157.5 -255t-241 -196.5t-313 -128.5t-365.5 -45q-237 0 -446.5 71t-359 193.5t-236.5 294t-87 364.5q0 198 87 372.5t236.5 298.5t359 195.5t446.5 71.5zM1225 -240q219 0 412.5 65
t331.5 177t218 270t80 338q0 182 -80 341.5t-218 273.5t-331.5 179.5t-412.5 65.5q-218 0 -410.5 -65.5t-330.5 -179.5t-218 -273.5t-80 -341.5q0 -178 80 -336t217.5 -270.5t330.5 -178t411 -65.5zM1493 365v596h74v-693h-74q-221 253 -506 586v-586h-74v693h76
q280 -328 504 -596z" />
    <glyph glyph-name="O.ss08" horiz-adv-x="2455" 
d="M1225 -315q-237 0 -446.5 71t-359 193.5t-236.5 294t-87 364.5q0 198 87 372.5t236.5 298.5t359 195.5t446.5 71.5q239 0 449 -71.5t360 -195.5t236.5 -298.5t86.5 -372.5q0 -156 -55 -298t-157.5 -255t-241 -196.5t-313 -128.5t-365.5 -45zM1225 -240q219 0 412.5 65
t331.5 177t218 270t80 338q0 182 -80 341.5t-218 273.5t-331.5 179.5t-412.5 65.5q-218 0 -410.5 -65.5t-330.5 -179.5t-218 -273.5t-80 -341.5q0 -178 80 -336t217.5 -270.5t330.5 -178t411 -65.5zM1229 254q-176 0 -297 103.5t-121 256.5q0 152 121.5 256.5t298.5 104.5
q175 0 295.5 -104.5t120.5 -256.5t-120.5 -256t-297.5 -104zM1231 311q141 0 240.5 88.5t99.5 214.5t-99.5 213.5t-240.5 87.5q-143 0 -243.5 -87.5t-100.5 -213.5t100.5 -214.5t243.5 -88.5z" />
    <glyph glyph-name="P.ss08" 
d="M1225 1546q239 0 449 -71.5t360 -195.5t236.5 -298.5t86.5 -372.5q0 -156 -55 -298t-157.5 -255t-241 -196.5t-313 -128.5t-365.5 -45q-237 0 -446.5 71t-359 193.5t-236.5 294t-87 364.5q0 198 87 372.5t236.5 298.5t359 195.5t446.5 71.5zM1225 -240q219 0 412.5 65
t331.5 177t218 270t80 338q0 182 -80 341.5t-218 273.5t-331.5 179.5t-412.5 65.5q-218 0 -410.5 -65.5t-330.5 -179.5t-218 -273.5t-80 -341.5q0 -178 80 -336t217.5 -270.5t330.5 -178t411 -65.5zM983 961h287q124 0 199 -55.5t75 -149.5q0 -96 -70.5 -153.5t-183.5 -57.5
h-233v-277h-74v693zM1057 602h215q95 0 146.5 39t51.5 111q0 70 -55.5 110.5t-152.5 40.5h-205v-301z" />
    <glyph glyph-name="Q.ss08" 
d="M1225 -315q-237 0 -446.5 71t-359 193.5t-236.5 294t-87 364.5q0 198 87 372.5t236.5 298.5t359 195.5t446.5 71.5q239 0 449 -71.5t360 -195.5t236.5 -298.5t86.5 -372.5q0 -156 -55 -298t-157.5 -255t-241 -196.5t-313 -128.5t-365.5 -45zM1225 -240q219 0 412.5 65
t331.5 177t218 270t80 338q0 182 -80 341.5t-218 273.5t-331.5 179.5t-412.5 65.5q-218 0 -410.5 -65.5t-330.5 -179.5t-218 -273.5t-80 -341.5q0 -178 80 -336t217.5 -270.5t330.5 -178t411 -65.5zM1612 258l-49 -37q-15 15 -44 42.5t-51.5 48.5t-23.5 22
q-104 -49 -219 -49q-175 0 -296.5 104t-121.5 256t121.5 256.5t298.5 104.5q174 0 294.5 -104.5t120.5 -256.5q0 -80 -37 -151.5t-106 -122.5q16 -17 35 -36t42.5 -42t35.5 -35zM1227 342q89 0 170 43q-41 41 -103 100t-67 62l53 39q54 -54 172 -168q115 94 115 227
q0 125 -100 213t-240 88q-143 0 -243.5 -87.5t-100.5 -213.5t100.5 -214.5t243.5 -88.5z" />
    <glyph glyph-name="R.ss08" 
d="M1225 1546q239 0 449 -71.5t360 -195.5t236.5 -298.5t86.5 -372.5q0 -156 -55 -298t-157.5 -255t-241 -196.5t-313 -128.5t-365.5 -45q-237 0 -446.5 71t-359 193.5t-236.5 294t-87 364.5q0 198 87 372.5t236.5 298.5t359 195.5t446.5 71.5zM1225 -240q219 0 412.5 65
t331.5 177t218 270t80 338q0 182 -80 341.5t-218 273.5t-331.5 179.5t-412.5 65.5q-218 0 -410.5 -65.5t-330.5 -179.5t-218 -273.5t-80 -341.5q0 -178 80 -336t217.5 -270.5t330.5 -178t411 -65.5zM1548 756q0 -85 -58 -141.5t-153 -65.5q118 -149 226 -281h-82l-224 277
h-198v-277h-72v693h287q124 0 199 -55.5t75 -149.5zM1059 602h217q94 0 146.5 39t52.5 111q0 70 -56 110.5t-153 40.5h-207v-301z" />
    <glyph glyph-name="S.ss08" 
d="M1225 -315q-237 0 -446.5 71t-359 193.5t-236.5 294t-87 364.5q0 198 87 372.5t236.5 298.5t359 195.5t446.5 71.5q239 0 449 -71.5t360 -195.5t236.5 -298.5t86.5 -372.5q0 -156 -55 -298t-157.5 -255t-241 -196.5t-313 -128.5t-365.5 -45zM1225 -240q219 0 412.5 65
t331.5 177t218 270t80 338q0 182 -80 341.5t-218 273.5t-331.5 179.5t-412.5 65.5q-218 0 -410.5 -65.5t-330.5 -179.5t-218 -273.5t-80 -341.5q0 -178 80 -336t217.5 -270.5t330.5 -178t411 -65.5zM1243 254q-117 0 -200 54.5t-115 154.5l67 22q23 -79 91 -126.5t159 -47.5
q49 0 93.5 13.5t77 46t32.5 78.5q0 16 -4.5 30t-10.5 24t-19.5 19.5t-22 14.5t-28 12t-28.5 9.5t-33 8.5l-32 8l-76 19q-30 8 -52 14.5t-59 23.5t-61 36.5t-42.5 52t-18.5 70.5q0 88 82.5 136t187.5 48q103 0 176.5 -47t101.5 -127l-65 -25q-22 65 -81.5 102t-141.5 37
t-134.5 -34t-52.5 -86q0 -93 176 -138l78 -20q106 -28 142 -46q96 -46 96 -136q0 -86 -82 -143.5t-201 -57.5z" />
    <glyph glyph-name="T.ss08" horiz-adv-x="2455" 
d="M1225 -315q-237 0 -446.5 71t-359 193.5t-236.5 294t-87 364.5q0 198 87 372.5t236.5 298.5t359 195.5t446.5 71.5q239 0 449 -71.5t360 -195.5t236.5 -298.5t86.5 -372.5q0 -156 -55 -298t-157.5 -255t-241 -196.5t-313 -128.5t-365.5 -45zM1225 -240q219 0 412.5 65
t331.5 177t218 270t80 338q0 182 -80 341.5t-218 273.5t-331.5 179.5t-412.5 65.5q-218 0 -410.5 -65.5t-330.5 -179.5t-218 -273.5t-80 -341.5q0 -178 80 -336t217.5 -270.5t330.5 -178t411 -65.5zM1264 268h-74v635h-285v58h643v-58h-284v-635z" />
    <glyph glyph-name="U.ss08" horiz-adv-x="2459" 
d="M1225 -315q-237 0 -446.5 71t-359 193.5t-236.5 294t-87 364.5q0 198 87 372.5t236.5 298.5t359 195.5t446.5 71.5q239 0 449 -71.5t360 -195.5t236.5 -298.5t86.5 -372.5q0 -156 -55 -298t-157.5 -255t-241 -196.5t-313 -128.5t-365.5 -45zM1225 -240q219 0 412.5 65
t331.5 177t218 270t80 338q0 182 -80 341.5t-218 273.5t-331.5 179.5t-412.5 65.5q-218 0 -410.5 -65.5t-330.5 -179.5t-218 -273.5t-80 -341.5q0 -178 80 -336t217.5 -270.5t330.5 -178t411 -65.5zM1227 260q-141 0 -218 69t-77 195v443h74v-443q0 -103 56.5 -156
t166.5 -53q225 0 225 209v443h74v-443q0 -124 -80 -194t-221 -70z" />
    <glyph glyph-name="V.ss08" 
d="M1225 1546q239 0 449 -71.5t360 -195.5t236.5 -298.5t86.5 -372.5q0 -156 -55 -298t-157.5 -255t-241 -196.5t-313 -128.5t-365.5 -45q-237 0 -446.5 71t-359 193.5t-236.5 294t-87 364.5q0 198 87 372.5t236.5 298.5t359 195.5t446.5 71.5zM1225 -240q219 0 412.5 65
t331.5 177t218 270t80 338q0 182 -80 341.5t-218 273.5t-331.5 179.5t-412.5 65.5q-218 0 -410.5 -65.5t-330.5 -179.5t-218 -273.5t-80 -341.5q0 -178 80 -336t217.5 -270.5t330.5 -178t411 -65.5zM1231 348q52 108 152.5 310.5t148.5 302.5h76l-344 -693h-68l-344 693h76
q117 -224 303 -613z" />
    <glyph glyph-name="W.ss08" 
d="M1225 1546q239 0 449 -71.5t360 -195.5t236.5 -298.5t86.5 -372.5q0 -156 -55 -298t-157.5 -255t-241 -196.5t-313 -128.5t-365.5 -45q-237 0 -446.5 71t-359 193.5t-236.5 294t-87 364.5q0 198 87 372.5t236.5 298.5t359 195.5t446.5 71.5zM1225 -240q219 0 412.5 65
t331.5 177t218 270t80 338q0 182 -80 341.5t-218 273.5t-331.5 179.5t-412.5 65.5q-218 0 -410.5 -65.5t-330.5 -179.5t-218 -273.5t-80 -341.5q0 -178 80 -336t217.5 -270.5t330.5 -178t411 -65.5zM1497 354q26 64 76 192.5t90 227.5t78 187h69l-276 -693h-74
q-42 100 -80.5 199t-83.5 220t-67 179q-128 -349 -232 -598h-73l-277 693h74q143 -342 244 -601q60 158 229 601h72q34 -90 72 -191t85.5 -224t73.5 -192z" />
    <glyph glyph-name="X.ss08" 
d="M1225 1546q239 0 449 -71.5t360 -195.5t236.5 -298.5t86.5 -372.5q0 -156 -55 -298t-157.5 -255t-241 -196.5t-313 -128.5t-365.5 -45q-237 0 -446.5 71t-359 193.5t-236.5 294t-87 364.5q0 198 87 372.5t236.5 298.5t359 195.5t446.5 71.5zM1225 -240q219 0 412.5 65
t331.5 177t218 270t80 338q0 182 -80 341.5t-218 273.5t-331.5 179.5t-412.5 65.5q-218 0 -410.5 -65.5t-330.5 -179.5t-218 -273.5t-80 -341.5q0 -178 80 -336t217.5 -270.5t330.5 -178t411 -65.5zM1475 961h79q-50 -61 -148 -174.5t-138 -161.5q137 -162 295 -357h-80
q-33 39 -119.5 143.5t-136.5 163.5q-48 -59 -134.5 -162.5t-119.5 -144.5h-82q57 67 137 165t158 192q-40 48 -113.5 133t-173.5 203h82q30 -36 115 -135.5t131 -153.5q21 24 75 88.5t94 111.5t79 89z" />
    <glyph glyph-name="Y.ss08" 
d="M1225 1546q239 0 449 -71.5t360 -195.5t236.5 -298.5t86.5 -372.5q0 -156 -55 -298t-157.5 -255t-241 -196.5t-313 -128.5t-365.5 -45q-237 0 -446.5 71t-359 193.5t-236.5 294t-87 364.5q0 198 87 372.5t236.5 298.5t359 195.5t446.5 71.5zM1225 -240q219 0 412.5 65
t331.5 177t218 270t80 338q0 182 -80 341.5t-218 273.5t-331.5 179.5t-412.5 65.5q-218 0 -410.5 -65.5t-330.5 -179.5t-218 -273.5t-80 -341.5q0 -178 80 -336t217.5 -270.5t330.5 -178t411 -65.5zM1229 584l274 377h78l-317 -435v-258h-72v258q-12 17 -318 435h84
q41 -58 132 -183.5t139 -193.5z" />
    <glyph glyph-name="Z.ss08" 
d="M1225 1546q239 0 449 -71.5t360 -195.5t236.5 -298.5t86.5 -372.5q0 -156 -55 -298t-157.5 -255t-241 -196.5t-313 -128.5t-365.5 -45q-237 0 -446.5 71t-359 193.5t-236.5 294t-87 364.5q0 198 87 372.5t236.5 298.5t359 195.5t446.5 71.5zM1225 -240q219 0 412.5 65
t331.5 177t218 270t80 338q0 182 -80 341.5t-218 273.5t-331.5 179.5t-412.5 65.5q-218 0 -410.5 -65.5t-330.5 -179.5t-218 -273.5t-80 -341.5q0 -178 80 -336t217.5 -270.5t330.5 -178t411 -65.5zM1556 961v-54q-183 -199 -542 -579h553v-60h-641v58q128 135 540 577h-518
v58h608z" />
    <glyph glyph-name="i.loclTRK" horiz-adv-x="581" 
d="M293 1440q-49 0 -83 29.5t-34 72.5q0 40 34 68t83 28q47 0 81 -28t34 -68q0 -43 -34 -72.5t-81 -29.5zM348 0h-115v1126h115v-1126z" />
    <glyph glyph-name="a.ss01" horiz-adv-x="1652" 
d="M754 -35q-177 0 -321.5 75.5t-228 212.5t-83.5 308q0 174 85 311.5t230 212t322 74.5q169 0 314 -72.5t228 -212.5h5v252h114v-1126h-114v248h-9q-81 -136 -224.5 -209.5t-317.5 -73.5zM766 57q112 0 210.5 40t168.5 108t110.5 162.5t40.5 199.5q0 143 -71.5 258.5
t-193.5 179.5t-269 64q-223 0 -369.5 -145t-146.5 -363q0 -144 68 -259.5t187 -180t265 -64.5z" />
    <glyph glyph-name="aacute.ss01" horiz-adv-x="1652" 
d="M1245 1673l-373 -395h-102l303 395h172zM754 -35q-177 0 -321.5 75.5t-228 212.5t-83.5 308q0 174 85 311.5t230 212t322 74.5q169 0 314 -72.5t228 -212.5h5v252h114v-1126h-114v248h-9q-81 -136 -224.5 -209.5t-317.5 -73.5zM766 57q112 0 210.5 40t168.5 108
t110.5 162.5t40.5 199.5q0 143 -71.5 258.5t-193.5 179.5t-269 64q-223 0 -369.5 -145t-146.5 -363q0 -144 68 -259.5t187 -180t265 -64.5z" />
    <glyph glyph-name="abreve.ss01" horiz-adv-x="1652" 
d="M827 1278q-203 0 -319.5 111t-124.5 284h111q6 -137 97 -221t236 -84q142 0 235.5 82.5t100.5 222.5h111q-8 -172 -126.5 -283.5t-320.5 -111.5zM754 -35q-177 0 -321.5 75.5t-228 212.5t-83.5 308q0 174 85 311.5t230 212t322 74.5q169 0 314 -72.5t228 -212.5h5v252
h114v-1126h-114v248h-9q-81 -136 -224.5 -209.5t-317.5 -73.5zM766 57q112 0 210.5 40t168.5 108t110.5 162.5t40.5 199.5q0 143 -71.5 258.5t-193.5 179.5t-269 64q-223 0 -369.5 -145t-146.5 -363q0 -144 68 -259.5t187 -180t265 -64.5z" />
    <glyph glyph-name="acircumflex.ss01" horiz-adv-x="1652" 
d="M492 1278h-109l356 354h176l357 -354h-111q-209 170 -334 281q-243 -209 -335 -281zM754 -35q-177 0 -321.5 75.5t-228 212.5t-83.5 308q0 174 85 311.5t230 212t322 74.5q169 0 314 -72.5t228 -212.5h5v252h114v-1126h-114v248h-9q-81 -136 -224.5 -209.5t-317.5 -73.5z
M766 57q112 0 210.5 40t168.5 108t110.5 162.5t40.5 199.5q0 143 -71.5 258.5t-193.5 179.5t-269 64q-223 0 -369.5 -145t-146.5 -363q0 -144 68 -259.5t187 -180t265 -64.5z" />
    <glyph glyph-name="adieresis.ss01" horiz-adv-x="1652" 
d="M627 1386q-46 0 -77.5 28.5t-31.5 68.5q0 36 32 63t77 27t74.5 -27t29.5 -63q0 -40 -29.5 -68.5t-74.5 -28.5zM1028 1386q-45 0 -75.5 28.5t-30.5 68.5q0 36 30.5 63t75.5 27q44 0 76.5 -27t32.5 -63q0 -40 -32.5 -68.5t-76.5 -28.5zM754 -35q-177 0 -321.5 75.5
t-228 212.5t-83.5 308q0 174 85 311.5t230 212t322 74.5q169 0 314 -72.5t228 -212.5h5v252h114v-1126h-114v248h-9q-81 -136 -224.5 -209.5t-317.5 -73.5zM766 57q112 0 210.5 40t168.5 108t110.5 162.5t40.5 199.5q0 143 -71.5 258.5t-193.5 179.5t-269 64
q-223 0 -369.5 -145t-146.5 -363q0 -144 68 -259.5t187 -180t265 -64.5z" />
    <glyph glyph-name="agrave.ss01" horiz-adv-x="1652" 
d="M883 1278h-103l-372 395h174zM754 -35q-177 0 -321.5 75.5t-228 212.5t-83.5 308q0 174 85 311.5t230 212t322 74.5q169 0 314 -72.5t228 -212.5h5v252h114v-1126h-114v248h-9q-81 -136 -224.5 -209.5t-317.5 -73.5zM766 57q112 0 210.5 40t168.5 108t110.5 162.5
t40.5 199.5q0 143 -71.5 258.5t-193.5 179.5t-269 64q-223 0 -369.5 -145t-146.5 -363q0 -144 68 -259.5t187 -180t265 -64.5z" />
    <glyph glyph-name="amacron.ss01" horiz-adv-x="1652" 
d="M1239 1434h-825v92h825v-92zM754 -35q-177 0 -321.5 75.5t-228 212.5t-83.5 308q0 174 85 311.5t230 212t322 74.5q169 0 314 -72.5t228 -212.5h5v252h114v-1126h-114v248h-9q-81 -136 -224.5 -209.5t-317.5 -73.5zM766 57q112 0 210.5 40t168.5 108t110.5 162.5
t40.5 199.5q0 143 -71.5 258.5t-193.5 179.5t-269 64q-223 0 -369.5 -145t-146.5 -363q0 -144 68 -259.5t187 -180t265 -64.5z" />
    <glyph glyph-name="aogonek.ss01" horiz-adv-x="1652" 
d="M1432 -385q44 0 104 14v-78q-63 -14 -117 -14q-131 0 -220 62.5t-89 164.5q0 75 51 131t144 105v248h-9q-81 -136 -224.5 -209.5t-317.5 -73.5q-177 0 -321.5 75.5t-228 212.5t-83.5 308q0 174 85 311.5t230 212t322 74.5q169 0 314 -72.5t228 -212.5h5v252h114v-1126h-2
q-103 -48 -156 -101.5t-53 -119.5q0 -74 65 -119t159 -45zM766 57q112 0 210.5 40t168.5 108t110.5 162.5t40.5 199.5q0 143 -71.5 258.5t-193.5 179.5t-269 64q-223 0 -369.5 -145t-146.5 -363q0 -144 68 -259.5t187 -180t265 -64.5z" />
    <glyph glyph-name="aring.ss01" horiz-adv-x="1652" 
d="M827 1245q-113 0 -187.5 61t-74.5 154q0 91 74.5 151t187.5 60q110 0 184 -60t74 -151q0 -93 -73.5 -154t-184.5 -61zM827 1327q71 0 118.5 36t47.5 97q0 59 -47.5 94t-118.5 35q-73 0 -121.5 -35t-48.5 -94q0 -61 48.5 -97t121.5 -36zM754 -35q-177 0 -321.5 75.5
t-228 212.5t-83.5 308q0 174 85 311.5t230 212t322 74.5q169 0 314 -72.5t228 -212.5h5v252h114v-1126h-114v248h-9q-81 -136 -224.5 -209.5t-317.5 -73.5zM766 57q112 0 210.5 40t168.5 108t110.5 162.5t40.5 199.5q0 143 -71.5 258.5t-193.5 179.5t-269 64
q-223 0 -369.5 -145t-146.5 -363q0 -144 68 -259.5t187 -180t265 -64.5z" />
    <glyph glyph-name="atilde.ss01" horiz-adv-x="1652" 
d="M1012 1341q-18 0 -33.5 1t-30.5 4.5t-25.5 6t-23.5 9t-19.5 9.5t-19.5 12t-17 11.5t-18 13.5t-16 13l-43 31q-26 19 -40.5 28.5t-37.5 18t-47 8.5q-60 0 -99.5 -43t-39.5 -108h-90q1 102 67 166.5t168 64.5q53 0 92 -17.5t84 -51.5l51 -37q73 -60 144 -60q61 0 96 42.5
t35 109.5h92q0 -105 -61 -168.5t-168 -63.5zM754 -35q-177 0 -321.5 75.5t-228 212.5t-83.5 308q0 174 85 311.5t230 212t322 74.5q169 0 314 -72.5t228 -212.5h5v252h114v-1126h-114v248h-9q-81 -136 -224.5 -209.5t-317.5 -73.5zM766 57q112 0 210.5 40t168.5 108
t110.5 162.5t40.5 199.5q0 143 -71.5 258.5t-193.5 179.5t-269 64q-223 0 -369.5 -145t-146.5 -363q0 -144 68 -259.5t187 -180t265 -64.5z" />
    <glyph glyph-name="b.ss01" horiz-adv-x="1386" 
d="M784 -35q-148 0 -261.5 53.5t-176.5 151.5h-4v-170h-109v1638h115v-1007h6q63 90 176.5 136t253.5 46q231 0 375 -122t144 -304q0 -180 -144.5 -301t-374.5 -121zM784 51q169 0 286.5 96.5t117.5 241.5q0 137 -109 235.5t-295 98.5q-192 0 -303.5 -97t-111.5 -229
q0 -142 119.5 -244t295.5 -102z" />
    <glyph glyph-name="d.ss01" horiz-adv-x="1644" 
d="M754 -35q-177 0 -321.5 75.5t-228 212.5t-83.5 308q0 174 85 311.5t230 212t322 74.5q168 0 309 -70.5t225 -207.5h6v757h115v-1638h-110v248h-7q-80 -136 -224.5 -209.5t-317.5 -73.5zM762 57q145 0 266.5 63t194.5 179.5t73 263.5t-73 263.5t-194.5 179.5t-266.5 63
q-223 0 -369.5 -145t-146.5 -363t148 -361t368 -143z" />
    <glyph glyph-name="dcaron.ss01" horiz-adv-x="1646" 
d="M754 -35q-177 0 -321.5 75.5t-228 212.5t-83.5 308q0 174 85 311.5t230 212t322 74.5q168 0 309 -70.5t225 -207.5h6v757h115v-1638h-110v248h-7q-80 -136 -224.5 -209.5t-317.5 -73.5zM1667 1200h-82l141 246q-37 9 -57 34.5t-20 57.5q0 40 33.5 68t80.5 28
q46 0 79.5 -28t33.5 -68q0 -34 -37 -92.5t-172 -245.5zM762 57q145 0 266.5 63t194.5 179.5t73 263.5t-73 263.5t-194.5 179.5t-266.5 63q-223 0 -369.5 -145t-146.5 -363t148 -361t368 -143z" />
    <glyph glyph-name="dcroat.ss01" horiz-adv-x="1644" 
d="M1413 1434h320v-91h-320v-1343h-110v248h-7q-80 -136 -224.5 -209.5t-317.5 -73.5q-177 0 -321.5 75.5t-228 212.5t-83.5 308q0 174 85 311.5t230 212t322 74.5q168 0 309 -70.5t225 -207.5h6v462h-354v91h354v204h115v-204zM762 57q145 0 266.5 63t194.5 179.5t73 263.5
t-73 263.5t-194.5 179.5t-266.5 63q-223 0 -369.5 -145t-146.5 -363t148 -361t368 -143z" />
    <glyph glyph-name="g.ss01" horiz-adv-x="1644" 
d="M1411 -451h-1212v93h1097v641h-6q-82 -136 -224.5 -209.5t-315.5 -73.5q-176 0 -320.5 76t-227.5 210.5t-83 297.5q0 166 84.5 298t229.5 204.5t321 72.5q170 0 314 -72.5t228 -212.5h4v252h111v-1577zM760 92q144 0 267 63.5t196 177.5t73 253t-73.5 250.5t-195.5 172
t-267 60.5q-221 0 -368.5 -140t-147.5 -345q0 -207 149 -349.5t367 -142.5z" />
    <glyph glyph-name="gbreve.ss01" horiz-adv-x="1644" 
d="M823 1278q-203 0 -319.5 111t-124.5 284h110q6 -137 97 -221t237 -84q142 0 235.5 82.5t100.5 222.5h111q-8 -172 -126.5 -283.5t-320.5 -111.5zM1411 -451h-1212v93h1097v641h-6q-82 -136 -224.5 -209.5t-315.5 -73.5q-176 0 -320.5 76t-227.5 210.5t-83 297.5
q0 166 84.5 298t229.5 204.5t321 72.5q170 0 314 -72.5t228 -212.5h4v252h111v-1577zM760 92q144 0 267 63.5t196 177.5t73 253t-73.5 250.5t-195.5 172t-267 60.5q-221 0 -368.5 -140t-147.5 -345q0 -207 149 -349.5t367 -142.5z" />
    <glyph glyph-name="uni0123.ss01" horiz-adv-x="1644" 
d="M678 1343q0 36 34.5 90t172.5 246h84l-144 -243q37 -9 57.5 -34.5t20.5 -58.5q0 -40 -33 -68t-79 -28t-79.5 28t-33.5 68zM1411 -451h-1212v93h1097v641h-6q-82 -136 -224.5 -209.5t-315.5 -73.5q-176 0 -320.5 76t-227.5 210.5t-83 297.5q0 166 84.5 298t229.5 204.5
t321 72.5q170 0 314 -72.5t228 -212.5h4v252h111v-1577zM760 92q144 0 267 63.5t196 177.5t73 253t-73.5 250.5t-195.5 172t-267 60.5q-221 0 -368.5 -140t-147.5 -345q0 -207 149 -349.5t367 -142.5z" />
    <glyph glyph-name="gdotaccent.ss01" horiz-adv-x="1644" 
d="M825 1440q-49 0 -82.5 29.5t-33.5 72.5q0 40 33.5 68t82.5 28q47 0 81 -28t34 -68q0 -43 -34 -72.5t-81 -29.5zM1411 -451h-1212v93h1097v641h-6q-82 -136 -224.5 -209.5t-315.5 -73.5q-176 0 -320.5 76t-227.5 210.5t-83 297.5q0 166 84.5 298t229.5 204.5t321 72.5
q170 0 314 -72.5t228 -212.5h4v252h111v-1577zM760 92q144 0 267 63.5t196 177.5t73 253t-73.5 250.5t-195.5 172t-267 60.5q-221 0 -368.5 -140t-147.5 -345q0 -207 149 -349.5t367 -142.5z" />
    <glyph glyph-name="i.ss01" horiz-adv-x="813" 
d="M426 1440q-49 0 -83 29.5t-34 72.5q0 40 34 68t83 28q47 0 80 -28t33 -68q0 -43 -33 -72.5t-80 -29.5zM784 0h-415v1034h-344v92h458v-1034h301v-92z" />
    <glyph glyph-name="dotlessi.ss01" horiz-adv-x="813" 
d="M784 0h-415v1034h-344v92h458v-1034h301v-92z" />
    <glyph glyph-name="iacute.ss01" horiz-adv-x="813" 
d="M770 1673l-373 -395h-102l303 395h172zM784 0h-415v1034h-344v92h458v-1034h301v-92z" />
    <glyph glyph-name="icircumflex.ss01" horiz-adv-x="813" 
d="M16 1278h-108l356 354h176l357 -354h-111q-209 170 -334 281q-233 -201 -336 -281zM784 0h-415v1034h-344v92h458v-1034h301v-92z" />
    <glyph glyph-name="idieresis.ss01" horiz-adv-x="813" 
d="M152 1386q-46 0 -77.5 28.5t-31.5 68.5q0 36 32 63t77 27t74.5 -27t29.5 -63q0 -40 -29.5 -68.5t-74.5 -28.5zM553 1386q-45 0 -76 28.5t-31 68.5q0 36 31 63t76 27q44 0 76.5 -27t32.5 -63q0 -40 -32.5 -68.5t-76.5 -28.5zM784 0h-415v1034h-344v92h458v-1034h301v-92z
" />
    <glyph glyph-name="i.loclTRK.ss01" horiz-adv-x="813" 
d="M385 1440q-49 0 -82 29.5t-33 72.5q0 40 33 69t82 29q47 0 81 -29t34 -69q0 -43 -34 -72.5t-81 -29.5zM784 0h-415v1034h-344v92h458v-1034h301v-92z" />
    <glyph glyph-name="igrave.ss01" horiz-adv-x="813" 
d="M408 1278h-103l-373 395h174zM784 0h-415v1034h-344v92h458v-1034h301v-92z" />
    <glyph glyph-name="imacron.ss01" horiz-adv-x="813" 
d="M764 1434h-825v92h825v-92zM784 0h-415v1034h-344v92h458v-1034h301v-92z" />
    <glyph glyph-name="iogonek.ss01" horiz-adv-x="813" 
d="M354 1440q-49 0 -82.5 29.5t-33.5 72.5q0 40 33.5 68t82.5 28q47 0 81 -28t34 -68q0 -43 -34 -72.5t-81 -29.5zM784 0h-303q-103 -48 -156 -101.5t-53 -119.5q0 -74 65 -119t159 -45q44 0 104 14v-78q-63 -14 -117 -14q-131 0 -220 62.5t-89 164.5q0 75 51 131t144 105
v1034h-344v92h458v-1034h301v-92z" />
    <glyph glyph-name="j.ss01" horiz-adv-x="716" 
d="M426 1440q-49 0 -83 29.5t-34 72.5q0 40 34 68t83 28q47 0 80 -28t33 -68q0 -43 -33 -72.5t-80 -29.5zM483 -451h-616v93h502v1392h-344v92h458v-1577z" />
    <glyph glyph-name="l.ss01" horiz-adv-x="888" 
d="M883 0h-639v1638h114v-1546h525v-92z" />
    <glyph glyph-name="lacute.ss01" horiz-adv-x="888" 
d="M858 2077l-412 -316h-106l322 316h196zM883 0h-639v1638h114v-1546h525v-92z" />
    <glyph glyph-name="lcaron.ss01" horiz-adv-x="888" 
d="M883 0h-639v1638h114v-1546h525v-92zM670 1198h-80l139 244q-36 10 -56 35.5t-20 58.5q0 40 33 68t80 28q46 0 79.5 -28t33.5 -68q0 -34 -38.5 -95.5t-170.5 -242.5z" />
    <glyph glyph-name="uni013C.ss01" horiz-adv-x="888" 
d="M883 0h-639v1638h114v-1546h525v-92zM393 -489h-57l108 184q-100 16 -100 92q0 40 33 67t80 27q46 0 78 -27t32 -67q0 -36 -33 -87t-141 -189z" />
    <glyph glyph-name="lslash.ss01" horiz-adv-x="888" 
d="M358 918v-826h525v-92h-639v848l-256 -154v94l256 154v696h114v-626l232 139v-94z" />
    <glyph glyph-name="m.ss01" horiz-adv-x="2510" 
d="M348 0h-115v1126h115v-530l803 530h162v-530l803 530h161v-1126h-114v1032h-15l-835 -547v-485h-115v1032h-14l-836 -547v-485z" />
    <glyph glyph-name="n.ss01" horiz-adv-x="1570" 
d="M348 586l830 540h159v-1126h-114v1030h-15l-860 -545v-485h-115v1126h115v-540z" />
    <glyph glyph-name="nacute.ss01" horiz-adv-x="1570" 
d="M1030 1673h172l-373 -395h-102zM348 586l830 540h159v-1126h-114v1030h-15l-860 -545v-485h-115v1126h115v-540z" />
    <glyph glyph-name="ncaron.ss01" horiz-adv-x="1570" 
d="M1229 1634l-357 -356h-176l-356 356h109q248 -206 335 -282q50 45 101 88.5t129 107.5t104 86h111zM348 586l830 540h159v-1126h-114v1030h-15l-860 -545v-485h-115v1126h115v-540z" />
    <glyph glyph-name="uni0146.ss01" horiz-adv-x="1570" 
d="M348 586l830 540h159v-1126h-114v1030h-15l-860 -545v-485h-115v1126h115v-540zM815 -119q46 0 78.5 -27t32.5 -67q0 -36 -33 -87t-141 -189h-58l109 184q-101 16 -101 92q0 40 33 67t80 27z" />
    <glyph glyph-name="eng.ss01" horiz-adv-x="1570" 
d="M977 -483q-151 0 -254 59v100q117 -69 235 -69q55 0 98 15.5t70 37t47 58.5t29 67t14.5 76.5t6 71.5t0.5 67v1030h-15l-860 -545v-485h-115v1126h115v-534l830 534h159v-1140q0 -38 -0.5 -60t-3.5 -65t-9 -70.5t-18.5 -67t-30 -65.5t-45 -55t-62.5 -46t-84 -28.5
t-107 -11.5z" />
    <glyph glyph-name="ntilde.ss01" horiz-adv-x="1570" 
d="M598 1507q-60 0 -99.5 -43t-39.5 -108h-90q1 102 67 166.5t168 64.5q53 0 92 -17.5t84 -51.5l51 -37q73 -60 144 -60q61 0 96 42.5t35 109.5h92q0 -105 -61 -168.5t-168 -63.5q-18 0 -33.5 1t-30.5 4.5t-25.5 6t-23.5 9t-19.5 9.5t-19.5 12t-17 11.5t-18 13.5t-16 13
l-43 31q-26 19 -40.5 28.5t-37.5 18t-47 8.5zM348 586l830 540h159v-1126h-114v1030h-15l-860 -545v-485h-115v1126h115v-540z" />
    <glyph glyph-name="p.ss01" horiz-adv-x="1648" 
d="M348 -451h-115v1577h111v-252h4q85 141 230 213t315 72q176 0 320 -75t227.5 -212t83.5 -309q0 -173 -83.5 -310t-227 -212.5t-320.5 -75.5q-174 0 -318.5 74t-226.5 209v-699zM883 57q224 0 371 144t147 362q0 144 -68 260t-186.5 181t-263.5 65q-144 0 -266 -63.5
t-195.5 -180.5t-73.5 -264q0 -146 73.5 -262.5t195 -179t266.5 -62.5z" />
    <glyph glyph-name="q.ss01" horiz-adv-x="1646" 
d="M1413 -451h-115v699q-81 -134 -225.5 -208.5t-318.5 -74.5q-177 0 -321.5 75.5t-228 212.5t-83.5 308q0 174 84.5 311.5t229 212t321.5 74.5q170 0 314 -72.5t228 -212.5h5v252h110v-1577zM762 57q145 0 266.5 63t194.5 179.5t73 263.5t-73 263.5t-194.5 179.5t-266.5 63
q-223 0 -369.5 -145t-146.5 -363t148 -361t368 -143z" />
    <glyph glyph-name="r.ss01" horiz-adv-x="968" 
d="M348 0h-115v1126h711v-92h-596v-1034z" />
    <glyph glyph-name="racute.ss01" horiz-adv-x="968" 
d="M901 1673l-373 -395h-102l303 395h172zM348 0h-115v1126h711v-92h-596v-1034z" />
    <glyph glyph-name="rcaron.ss01" horiz-adv-x="968" 
d="M571 1278h-176l-356 356h108q28 -23 99.5 -82t120.5 -100t116 -100q50 45 101 88.5t129 107.5t104 86h111zM348 0h-115v1126h711v-92h-596v-1034z" />
    <glyph glyph-name="uni0157.ss01" horiz-adv-x="968" 
d="M348 0h-115v1126h711v-92h-596v-1034zM231 -489h-57l109 184q-101 16 -101 92q0 40 33 67t80 27q46 0 78.5 -27t32.5 -67q0 -36 -33 -86.5t-142 -189.5z" />
    <glyph glyph-name="s.ss01" horiz-adv-x="1138" 
d="M981 0h-825v94h712v441h-712v591h825v-92h-713v-409h713v-625z" />
    <glyph glyph-name="sacute.ss01" horiz-adv-x="1138" 
d="M946 1673l-373 -395h-102l303 395h172zM981 0h-825v94h712v441h-712v591h825v-92h-713v-409h713v-625z" />
    <glyph glyph-name="scaron.ss01" horiz-adv-x="1138" 
d="M616 1278h-176l-356 356h109q248 -206 335 -282q50 45 101 88.5t129 107.5t104 86h111zM981 0h-825v94h712v441h-712v591h825v-92h-713v-409h713v-625z" />
    <glyph glyph-name="scedilla.ss01" horiz-adv-x="1138" 
d="M981 1126v-92h-713v-409h713v-625h-363l-141 -170q42 20 111 20q94 0 154.5 -43.5t60.5 -113.5q0 -77 -73 -127.5t-183 -50.5q-83 0 -161.5 29t-131.5 79l57 45q38 -40 102 -65t128 -25q72 0 122 32t50 79q0 45 -44.5 74.5t-111.5 29.5q-66 0 -119 -24l-57 47l145 184
h-370v94h712v441h-712v591h825z" />
    <glyph glyph-name="uni0219.ss01" horiz-adv-x="1138" 
d="M981 0h-825v94h712v441h-712v591h825v-92h-713v-409h713v-625zM498 -489h-58l109 184q-100 16 -100 92q0 40 32.5 67t79.5 27q46 0 78.5 -27t32.5 -67q0 -36 -33 -87t-141 -189z" />
    <glyph glyph-name="t.ss01" horiz-adv-x="917" 
d="M418 1038v-946h475v-92h-590v1038h-270v88h270v340h115v-340h428v-88h-428z" />
    <glyph glyph-name="tbar.ss01" horiz-adv-x="917" 
d="M418 598v-506h475v-92h-590v598h-268v90h268v350h-270v88h270v340h115v-340h428v-88h-428v-350h405v-90h-405z" />
    <glyph glyph-name="tcaron.ss01" horiz-adv-x="917" 
d="M879 1198h-82l141 246q-37 9 -57.5 34.5t-20.5 57.5q0 40 34 68t81 28q46 0 79 -28t33 -68q0 -34 -37.5 -94t-170.5 -244zM846 1038h-428v-946h475v-92h-590v1038h-270v88h270v340h115v-340h428v-88z" />
    <glyph glyph-name="uni0163.ss01" horiz-adv-x="917" 
d="M893 92v-92h-318l-141 -170q42 20 111 20q94 0 154.5 -43.5t60.5 -113.5q0 -77 -73 -127.5t-183 -50.5q-83 0 -161.5 29t-131.5 79l57 45q38 -40 102 -65t128 -25q72 0 122 32t50 79q0 45 -44.5 74.5t-111.5 29.5q-66 0 -119 -24l-57 47l145 184h-180v1038h-270v88h270
v340h115v-340h428v-88h-428v-946h475z" />
    <glyph glyph-name="uni021B.ss01" horiz-adv-x="917" 
d="M418 1038v-946h475v-92h-590v1038h-270v88h270v340h115v-340h428v-88h-428zM518 -119q46 0 78.5 -27t32.5 -67q0 -36 -33 -87t-141 -189h-58l109 184q-100 16 -100 92q0 40 32.5 67t79.5 27z" />
    <glyph glyph-name="yacute.ss01" horiz-adv-x="1310" 
d="M1075 1673l-373 -395h-102l303 395h172zM625 -451h-117l180 449h-186l-436 1128h114l410 -1026h131l409 1026h115z" />
    <glyph glyph-name="ycircumflex.ss01" horiz-adv-x="1310" 
d="M322 1278h-109l356 354h176l357 -354h-111q-209 170 -334 281q-243 -209 -335 -281zM625 -451h-117l180 449h-186l-436 1128h114l410 -1026h131l409 1026h115z" />
    <glyph glyph-name="ydieresis.ss01" horiz-adv-x="1310" 
d="M457 1386q-46 0 -77.5 28.5t-31.5 68.5q0 36 32 63t77 27t74.5 -27t29.5 -63q0 -40 -29.5 -68.5t-74.5 -28.5zM858 1386q-45 0 -75.5 28.5t-30.5 68.5q0 36 30.5 63t75.5 27q44 0 76.5 -27t32.5 -63q0 -40 -32.5 -68.5t-76.5 -28.5zM625 -451h-117l180 449h-186
l-436 1128h114l410 -1026h131l409 1026h115z" />
    <glyph glyph-name="ygrave.ss01" horiz-adv-x="1310" 
d="M713 1278h-103l-372 395h174zM625 -451h-117l180 449h-186l-436 1128h114l410 -1026h131l409 1026h115z" />
    <glyph glyph-name="a.ss02" horiz-adv-x="1402" 
d="M547 -35q-121 0 -215 30.5t-151.5 96t-57.5 158.5q0 77 40 137.5t114.5 101t158 66t191.5 43.5q32 5 85 13t83 12.5t72.5 13.5t67 17.5t52.5 22.5t43 30.5t25 40.5t10 53q0 107 -107.5 187.5t-273.5 80.5q-146 0 -251 -68.5t-144 -181.5l-117 35q37 101 123 172
t187.5 102t211.5 31q69 0 136 -12t133 -40t115.5 -69.5t80.5 -105t31 -141.5v-791h-113v256h-6q-72 -134 -201 -212.5t-323 -78.5zM547 53q112 0 212 40.5t165 102t103 131.5t38 130v170q-60 -43 -120.5 -61.5t-217.5 -41.5l-55.5 -9t-59.5 -10.5t-65 -14t-62.5 -17
t-62.5 -21.5t-55 -26t-50 -32.5t-37 -38t-26 -46t-8 -53.5q0 -92 83.5 -147.5t217.5 -55.5z" />
    <glyph glyph-name="aacute.ss02" horiz-adv-x="1402" 
d="M1128 1673l-372 -395h-103l303 395h172zM547 -35q-121 0 -215 30.5t-151.5 96t-57.5 158.5q0 77 40 137.5t114.5 101t158 66t191.5 43.5q32 5 85 13t83 12.5t72.5 13.5t67 17.5t52.5 22.5t43 30.5t25 40.5t10 53q0 107 -107.5 187.5t-273.5 80.5q-146 0 -251 -68.5
t-144 -181.5l-117 35q37 101 123 172t187.5 102t211.5 31q69 0 136 -12t133 -40t115.5 -69.5t80.5 -105t31 -141.5v-791h-113v256h-6q-72 -134 -201 -212.5t-323 -78.5zM547 53q112 0 212 40.5t165 102t103 131.5t38 130v170q-60 -43 -120.5 -61.5t-217.5 -41.5l-55.5 -9
t-59.5 -10.5t-65 -14t-62.5 -17t-62.5 -21.5t-55 -26t-50 -32.5t-37 -38t-26 -46t-8 -53.5q0 -92 83.5 -147.5t217.5 -55.5z" />
    <glyph glyph-name="abreve.ss02" horiz-adv-x="1402" 
d="M711 1278q-203 0 -320 111t-125 284h111q6 -137 97 -221t237 -84q142 0 235.5 82.5t100.5 222.5h110q-8 -173 -126 -284t-320 -111zM547 -35q-121 0 -215 30.5t-151.5 96t-57.5 158.5q0 77 40 137.5t114.5 101t158 66t191.5 43.5q32 5 85 13t83 12.5t72.5 13.5t67 17.5
t52.5 22.5t43 30.5t25 40.5t10 53q0 107 -107.5 187.5t-273.5 80.5q-146 0 -251 -68.5t-144 -181.5l-117 35q37 101 123 172t187.5 102t211.5 31q69 0 136 -12t133 -40t115.5 -69.5t80.5 -105t31 -141.5v-791h-113v256h-6q-72 -134 -201 -212.5t-323 -78.5zM547 53
q112 0 212 40.5t165 102t103 131.5t38 130v170q-60 -43 -120.5 -61.5t-217.5 -41.5l-55.5 -9t-59.5 -10.5t-65 -14t-62.5 -17t-62.5 -21.5t-55 -26t-50 -32.5t-37 -38t-26 -46t-8 -53.5q0 -92 83.5 -147.5t217.5 -55.5z" />
    <glyph glyph-name="acircumflex.ss02" horiz-adv-x="1169" 
d="M309 1278h-110l356 354h176l356 -354h-110q-177 144 -334 281q-236 -203 -334 -281zM547 -35q-121 0 -215 30.5t-151.5 96t-57.5 158.5q0 77 40 137.5t114.5 101t158 66t191.5 43.5q32 5 85 13t83 12.5t72.5 13.5t67 17.5t52.5 22.5t43 30.5t25 40.5t10 53
q0 107 -107.5 187.5t-273.5 80.5q-146 0 -251 -68.5t-144 -181.5l-117 35q37 101 123 172t187.5 102t211.5 31q69 0 136 -12t133 -40t115.5 -69.5t80.5 -105t31 -141.5v-791h-113v256h-6q-72 -134 -201 -212.5t-323 -78.5zM547 53q112 0 212 40.5t165 102t103 131.5t38 130
v170q-60 -43 -120.5 -61.5t-217.5 -41.5l-55.5 -9t-59.5 -10.5t-65 -14t-62.5 -17t-62.5 -21.5t-55 -26t-50 -32.5t-37 -38t-26 -46t-8 -53.5q0 -92 83.5 -147.5t217.5 -55.5z" />
    <glyph glyph-name="adieresis.ss02" horiz-adv-x="1402" 
d="M510 1386q-46 0 -77.5 28.5t-31.5 68.5q0 36 32 63t77 27t74.5 -27t29.5 -63q0 -40 -29.5 -68.5t-74.5 -28.5zM911 1386q-45 0 -75.5 28.5t-30.5 68.5q0 36 30.5 63t75.5 27q44 0 76.5 -27t32.5 -63q0 -40 -32.5 -68.5t-76.5 -28.5zM547 -35q-121 0 -215 30.5t-151.5 96
t-57.5 158.5q0 77 40 137.5t114.5 101t158 66t191.5 43.5q32 5 85 13t83 12.5t72.5 13.5t67 17.5t52.5 22.5t43 30.5t25 40.5t10 53q0 107 -107.5 187.5t-273.5 80.5q-146 0 -251 -68.5t-144 -181.5l-117 35q37 101 123 172t187.5 102t211.5 31q69 0 136 -12t133 -40
t115.5 -69.5t80.5 -105t31 -141.5v-791h-113v256h-6q-72 -134 -201 -212.5t-323 -78.5zM547 53q112 0 212 40.5t165 102t103 131.5t38 130v170q-60 -43 -120.5 -61.5t-217.5 -41.5l-55.5 -9t-59.5 -10.5t-65 -14t-62.5 -17t-62.5 -21.5t-55 -26t-50 -32.5t-37 -38t-26 -46
t-8 -53.5q0 -92 83.5 -147.5t217.5 -55.5z" />
    <glyph glyph-name="agrave.ss02" horiz-adv-x="1402" 
d="M766 1278h-102l-373 395h174zM547 -35q-121 0 -215 30.5t-151.5 96t-57.5 158.5q0 77 40 137.5t114.5 101t158 66t191.5 43.5q32 5 85 13t83 12.5t72.5 13.5t67 17.5t52.5 22.5t43 30.5t25 40.5t10 53q0 107 -107.5 187.5t-273.5 80.5q-146 0 -251 -68.5t-144 -181.5
l-117 35q37 101 123 172t187.5 102t211.5 31q69 0 136 -12t133 -40t115.5 -69.5t80.5 -105t31 -141.5v-791h-113v256h-6q-72 -134 -201 -212.5t-323 -78.5zM547 53q112 0 212 40.5t165 102t103 131.5t38 130v170q-60 -43 -120.5 -61.5t-217.5 -41.5l-55.5 -9t-59.5 -10.5
t-65 -14t-62.5 -17t-62.5 -21.5t-55 -26t-50 -32.5t-37 -38t-26 -46t-8 -53.5q0 -92 83.5 -147.5t217.5 -55.5z" />
    </font>
</defs>
</svg>
