<?xml version="1.0" standalone="no"?>
<!DOCTYPE svg PUBLIC "-//W3C//DTD SVG 1.1//EN" "http://www.w3.org/Graphics/SVG/1.1/DTD/svg11.dtd" >
<svg xmlns="http://www.w3.org/2000/svg" xmlns:xlink="http://www.w3.org/1999/xlink" version="1.1">
<metadata>
Created by FontForge 20170731 at Mon Mar 15 14:15:39 2021
 By Aleksey,,,
Copyright (c) 2020 by Matthieu Salvaggio x Blaze Type. All rights reserved.
</metadata>
<defs>
<font id="Area-BlackInktrap" horiz-adv-x="2048" >
  <font-face 
    font-family="Area Black Inktrap"
    font-weight="900"
    font-stretch="normal"
    units-per-em="2048"
    panose-1="0 0 10 0 0 0 0 0 0 0"
    ascent="1638"
    descent="-410"
    x-height="1143"
    cap-height="1597"
    bbox="-1718 -649 2664 2208"
    underline-thickness="102"
    underline-position="-307"
    unicode-range="U+0020-25CA"
  />
<missing-glyph horiz-adv-x="1392" 
d="M1223 0h-1055v1597h1055v-1597zM365 1407v-971l575 971h-575zM1028 1210l-606 -1017h606v1017z" />
    <glyph glyph-name=".notdef" horiz-adv-x="1392" 
d="M1223 0h-1055v1597h1055v-1597zM365 1407v-971l575 971h-575zM1028 1210l-606 -1017h606v1017z" />
    <glyph glyph-name=".null" horiz-adv-x="0" 
 />
    <glyph glyph-name="nonmarkingreturn" horiz-adv-x="682" 
 />
    <glyph glyph-name="space" unicode=" " horiz-adv-x="489" 
 />
    <glyph glyph-name="exclam" unicode="!" horiz-adv-x="587" 
d="M375 500h-160l-74 915v182h308v-182zM295 -14q-75 0 -127.5 54t-52.5 132q0 74 52.5 126t127.5 52q71 0 125.5 -52.5t54.5 -125.5q0 -78 -52.5 -132t-127.5 -54z" />
    <glyph glyph-name="quotedbl" unicode="&#x22;" horiz-adv-x="944" 
d="M397 1049h-272v548h272v-548zM819 1049h-272v548h272v-548z" />
    <glyph glyph-name="numbersign" unicode="#" horiz-adv-x="1617" 
d="M498 0h-256q49 252 110 422q-55 -16 -109 -24.5t-85 -9.5t-86 -1l49 236q54 0 83.5 -1t76.5 -9.5t86 -24.5q20 182 84 338q-52 -16 -104.5 -24.5t-82.5 -9.5t-82 -1l49 235q55 0 82.5 -1t80 -9t104.5 -24q-1 89 8.5 184.5t20 157t30.5 163.5h256q-4 -17 -16 -77
t-17.5 -84t-17.5 -77.5t-21.5 -88.5t-24 -83.5t-30.5 -94.5q103 26 188.5 26t188.5 -26q-2 212 59 505h254q-22 -110 -33.5 -165t-37 -153.5t-56.5 -186.5q56 16 114.5 24t89.5 9t91 1l-49 -235q-57 0 -90 1t-90 9.5t-113 24.5q13 -90 0 -164.5t-53 -173.5q56 16 111 24.5
t86.5 9.5t87.5 1l-50 -236q-55 0 -86 1t-85 9.5t-109 24.5q9 -176 -43 -422h-254q49 251 108 422q-103 -26 -188 -26t-188 26q5 -76 -1.5 -158.5t-14.5 -128t-25 -135.5zM586 588q103 26 188.5 26t188.5 -26q-12 91 0.5 166t52.5 172q-103 -26 -188.5 -26t-188.5 26
q12 -91 -0.5 -166t-52.5 -172z" />
    <glyph glyph-name="dollar" unicode="$" horiz-adv-x="1269" 
d="M1174 500q0 -184 -133.5 -305t-366.5 -125v-152h-66v154q-197 11 -330.5 115t-179.5 282l269 82q32 -97 96 -149.5t145 -63.5v317l-90 29q-379 111 -379 389q0 92 37 170.5t101 132t149 84.5t182 35v143h66v-145q176 -10 298 -104.5t154 -217.5l-245 -114
q-25 67 -80.5 114.5t-126.5 59.5v-303q2 -2 4 -2l141 -52q36 -11 61.5 -20t65.5 -27t68.5 -37t60.5 -48.5t52 -62.5t33.5 -79.5t13.5 -99.5zM440 1104q0 -57 42 -90.5t126 -63.5v285q-83 -4 -125.5 -39t-42.5 -92zM674 637v-303q80 5 132 44t52 99q0 64 -45 98t-139 62z" />
    <glyph glyph-name="percent" unicode="%" horiz-adv-x="1964" 
d="M379 715q-149 0 -236.5 114t-87.5 301t87.5 302.5t236.5 115.5q148 0 234.5 -116t86.5 -302t-86 -300.5t-235 -114.5zM541 0h-269l1139 1468h260zM379 928q80 0 80 202q0 205 -80 205q-82 0 -82 -205q0 -202 82 -202zM1587 -29q-149 0 -236 114.5t-87 301.5t87 302.5
t236 115.5q148 0 235 -116t87 -302t-86.5 -301t-235.5 -115zM1587 184q80 0 80 203q0 205 -80 205q-82 0 -82 -205q0 -203 82 -203z" />
    <glyph glyph-name="ampersand" unicode="&#x26;" horiz-adv-x="1511" 
d="M584 -35q-222 0 -366 116.5t-144 305.5q0 129 90.5 231t261.5 195q-108 76 -173 178t-65 221q0 173 128 295.5t331 122.5q106 0 193.5 -36.5t142.5 -96t85 -132t30 -148.5q0 -68 -26.5 -126.5t-78 -106t-108 -84t-133.5 -73.5l288 -299q-6 111 40 275q1 4 1.5 5.5t1 4.5
t1 5.5t1.5 4.5l271 -53q-34 -131 -78 -221.5t-117 -147.5l398 -399h-381l-174 213q-126 -250 -420 -250zM645 938q84 67 119 129t35 135q0 76 -45 123t-113 47q-66 0 -107.5 -44.5t-41.5 -113.5q0 -71 40 -135t113 -141zM606 231q65 0 126.5 26t144.5 81l-322 344
q-100 -80 -143 -135.5t-43 -118.5q0 -88 66.5 -142.5t170.5 -54.5z" />
    <glyph glyph-name="quotesingle" unicode="'" horiz-adv-x="524" 
d="M397 1049h-272v548h272v-548z" />
    <glyph glyph-name="parenleft" unicode="(" horiz-adv-x="735" 
d="M729 -307h-299q-167 198 -255.5 445.5t-88.5 506.5q0 260 88.5 507t255.5 445h299q-166 -199 -255 -446.5t-89 -505.5q0 -257 89.5 -505t254.5 -447z" />
    <glyph glyph-name="parenright" unicode=")" horiz-adv-x="735" 
d="M303 -307h-299q165 199 254.5 447t89.5 505q0 258 -89 505.5t-255 446.5h299q167 -198 255.5 -445t88.5 -507q0 -259 -88.5 -506.5t-255.5 -445.5z" />
    <glyph glyph-name="asterisk" unicode="*" horiz-adv-x="784" 
d="M463 1026h-141l2 172l-146 -90l-72 119l166 86l-163 82l69 121l146 -89l-2 170h141l-4 -170l145 89l72 -119l-164 -84l164 -86l-72 -119l-145 90z" />
    <glyph glyph-name="plus" unicode="+" horiz-adv-x="1079" 
d="M662 733h296v-219h-296v-317h-236v317h-305v219h305v320h236v-320z" />
    <glyph glyph-name="comma" unicode="," horiz-adv-x="538" 
d="M203 -283h-160q37 68 56 100t58.5 84t82.5 89q-67 7 -109.5 60t-42.5 122q0 73 54.5 125.5t129.5 52.5q74 0 127.5 -52t53.5 -126q0 -52 -33.5 -113.5t-150.5 -240.5q-42 -64 -66 -101z" />
    <glyph glyph-name="hyphen" unicode="-" horiz-adv-x="909" 
d="M788 502h-667v243h667v-243z" />
    <glyph glyph-name="period" unicode="." horiz-adv-x="542" 
d="M272 -14q-75 0 -128.5 54t-53.5 132q0 73 53.5 125.5t128.5 52.5t128 -52t53 -126q0 -78 -53 -132t-128 -54z" />
    <glyph glyph-name="slash" unicode="/" horiz-adv-x="933" 
d="M324 -135h-271l557 1773h271z" />
    <glyph glyph-name="zero" unicode="0" horiz-adv-x="1433" 
d="M717 -35q-187 0 -328.5 105.5t-217 293.5t-75.5 431q0 245 75.5 434t217 295t328.5 106t328 -106t216.5 -295t75.5 -434q0 -243 -75.5 -431t-216.5 -293.5t-328 -105.5zM719 250q136 0 215.5 141t79.5 406t-80 407t-215 142q-138 0 -219.5 -142t-81.5 -407t81 -406
t220 -141z" />
    <glyph glyph-name="one" unicode="1" horiz-adv-x="847" 
d="M674 0h-305q0 246 1 383.5t10 363.5t26 431q-150 -210 -353 -258v317q139 42 230.5 142.5t91.5 217.5h299v-1597z" />
    <glyph glyph-name="two" unicode="2" horiz-adv-x="1306" 
d="M1190 0h-1077v37q4 140 32.5 243t95.5 193t153 162t231 170q70 46 112 77.5t84.5 74t62 87.5t19.5 97q0 93 -65.5 154t-178.5 61q-143 0 -222 -97.5t-81 -259.5l-282 48q0 256 166.5 419.5t427.5 163.5q155 0 279.5 -59t198 -171t73.5 -257q0 -80 -23.5 -151.5t-67 -129
t-91.5 -101.5t-111 -87q-35 -24 -104 -66.5t-110.5 -71.5t-94 -73t-90.5 -98t-64 -119q124 17 263 26t224.5 10t239.5 1v-283z" />
    <glyph glyph-name="three" unicode="3" horiz-adv-x="1345" 
d="M668 -35q-222 0 -393 100.5t-222 264.5l266 133q12 -32 33 -64t59.5 -69t102.5 -60.5t143 -23.5q125 0 199 58.5t74 160.5q0 98 -71.5 159.5t-199.5 61.5h-161v248h145q112 0 179 56.5t67 150.5q0 95 -69.5 153t-178.5 58q-110 0 -183.5 -65.5t-90.5 -186.5l-275 63
q15 128 89 233.5t202 169.5t285 64q86 0 166 -19t147.5 -57t117.5 -90t78.5 -121.5t28.5 -148.5q0 -137 -79.5 -229t-225.5 -105v-37q163 -11 257.5 -105.5t94.5 -248.5q0 -95 -37 -183t-106.5 -160.5t-184.5 -116.5t-257 -44z" />
    <glyph glyph-name="four" unicode="4" horiz-adv-x="1380" 
d="M1102 0h-295q0 75 1 117t9.5 111.5t24.5 133.5q-421 -36 -801 -2v228l774 1009h287q0 -223 -1 -346.5t-9 -319.5t-23 -364q104 27 246 27v-256q-146 0 -246 24q15 -64 23 -133.5t9 -111.5t1 -117zM328 569q137 25 256 24.5t258 -26.5q-26 167 -26 328t26 379
q-241 -377 -514 -705z" />
    <glyph glyph-name="five" unicode="5" horiz-adv-x="1345" 
d="M651 -35q-209 0 -379 101.5t-235 277.5l246 158q34 -92 97.5 -153.5t131.5 -86t141 -24.5q129 0 215 80t86 210q0 127 -82 205t-210 78q-101 0 -169.5 -48.5t-107.5 -127.5l-252 67l193 895h850v-266q-140 0 -218 1t-205.5 10t-242.5 26q6 -124 -20 -229.5t-97 -239.5h35
q133 156 313 156q68 0 137.5 -16t141.5 -54.5t128 -94.5t91 -145t35 -198q0 -129 -48.5 -238.5t-132.5 -184.5t-198 -117t-244 -42z" />
    <glyph glyph-name="six" unicode="6" horiz-adv-x="1396" 
d="M721 -35q-286 0 -456.5 194t-170.5 550q0 267 96.5 476.5t272 327t399.5 117.5q274 0 426 -157l-162 -218q-117 101 -284 101q-93 0 -171.5 -41.5t-134.5 -116t-95 -170.5t-62 -213h37q63 120 157.5 174.5t225.5 54.5q101 0 195 -37.5t166 -104t115.5 -166.5t43.5 -216
t-43 -218t-120 -176.5t-189.5 -117.5t-245.5 -43zM723 238q111 0 194.5 74t83.5 198q0 125 -83 203t-193 78q-116 0 -198.5 -82t-82.5 -201t84.5 -194.5t194.5 -75.5z" />
    <glyph glyph-name="seven" unicode="7" horiz-adv-x="1204" 
d="M606 0h-323q0 119 15 239.5t54 266t100 284t160.5 290t227.5 288.5l-17 35q-126 -25 -276 -37t-245 -14t-265 -2v256h1126v-260q-125 -110 -223.5 -248.5t-160 -276t-101.5 -287t-56 -279t-16 -255.5z" />
    <glyph glyph-name="eight" unicode="8" horiz-adv-x="1376" 
d="M688 -35q-134 0 -247.5 38.5t-190.5 104t-120.5 153t-43.5 185.5q0 151 94 253.5t246 119.5v41q-137 29 -202.5 114.5t-65.5 207.5q0 129 70 231.5t191 159.5t269 57q147 0 267.5 -55t192 -158.5t71.5 -236.5q0 -119 -63 -205t-208 -115v-41q153 -17 247.5 -120
t94.5 -253q0 -132 -73.5 -241t-212 -174.5t-316.5 -65.5zM688 963q95 0 159 57t64 147q0 89 -63.5 146t-159.5 57q-95 0 -160 -57.5t-65 -145.5q0 -89 64.5 -146.5t160.5 -57.5zM682 231q119 0 206 70t87 188q0 111 -79 179.5t-208 68.5q-127 0 -207 -68.5t-80 -183.5
q0 -116 82 -185t199 -69z" />
    <glyph glyph-name="nine" unicode="9" horiz-adv-x="1409" 
d="M608 -35q-155 0 -291.5 56t-212.5 151l160 211q67 -79 152 -116.5t174 -37.5q197 0 316.5 163.5t119.5 420.5h-37q-39 -135 -136.5 -203.5t-234.5 -68.5q-102 0 -198.5 37.5t-172 104t-121.5 167t-46 217.5q0 114 43.5 216.5t120.5 179.5t191.5 122t248.5 45
q132 0 243 -44.5t198 -134.5t136.5 -241t49.5 -348q0 -151 -28.5 -285.5t-87 -246.5t-141.5 -193.5t-197 -126.5t-249 -45zM678 793q116 0 197 82t81 208q0 125 -83.5 201t-194.5 76t-195 -77t-84 -206q0 -127 82.5 -205.5t196.5 -78.5z" />
    <glyph glyph-name="colon" unicode=":" horiz-adv-x="602" 
d="M301 795q-75 0 -127.5 54t-52.5 132q0 74 52.5 126t127.5 52t127.5 -52t52.5 -126q0 -78 -52.5 -132t-127.5 -54zM301 -12q-75 0 -127.5 54t-52.5 132q0 74 52.5 126t127.5 52t127.5 -52t52.5 -126q0 -78 -52.5 -132t-127.5 -54z" />
    <glyph glyph-name="semicolon" unicode=";" horiz-adv-x="622" 
d="M315 795q-75 0 -128.5 54t-53.5 132q0 73 53.5 125.5t128.5 52.5q74 0 127.5 -52.5t53.5 -125.5q0 -77 -53.5 -131.5t-127.5 -54.5zM240 -299h-166l157 305q-45 24 -72.5 68.5t-27.5 97.5q0 73 53.5 125.5t128.5 52.5t128 -52t53 -126q0 -54 -43.5 -134t-210.5 -337z" />
    <glyph glyph-name="less" unicode="&#x3c;" horiz-adv-x="1046" 
d="M911 438v-209l-792 230v305l792 229v-209l-602 -172z" />
    <glyph glyph-name="equal" unicode="=" horiz-adv-x="1118" 
d="M985 719h-854v219h854v-219zM985 270h-854v222h854v-222z" />
    <glyph glyph-name="greater" unicode="&#x3e;" horiz-adv-x="1046" 
d="M926 459l-791 -230v209l600 174l-600 172v209l791 -229v-305z" />
    <glyph glyph-name="question" unicode="?" horiz-adv-x="1239" 
d="M719 500h-311q-7 44 -7 73q0 108 62.5 182t189.5 150q91 62 123 95q64 66 64 147q0 90 -66 146.5t-168 56.5q-122 0 -196 -80t-74 -207q0 -3 1 -15t1 -18l-275 49q0 5 -1 14.5t-1 14.5q0 121 45.5 221t124 165t180.5 100.5t216 35.5q145 0 266 -53.5t195.5 -159
t74.5 -243.5q0 -74 -21.5 -137.5t-62.5 -113t-78 -82t-90 -69.5q-6 -4 -32.5 -23t-33.5 -24.5t-28.5 -22t-29 -24l-23 -23t-21.5 -26.5t-14 -26.5t-11 -30.5t-3 -31q0 -13 4 -41zM578 -14q-75 0 -129 55t-54 131q0 74 52.5 126t127.5 52q73 0 127 -52.5t54 -129.5
q0 -75 -51.5 -128.5t-126.5 -53.5z" />
    <glyph glyph-name="at" unicode="@" horiz-adv-x="1947" 
d="M961 -195q-174 0 -319.5 43.5t-248 119.5t-174 180t-105.5 224.5t-34 254.5q0 131 34 257.5t95.5 237t152.5 204.5t200.5 161.5t244.5 105t280 37.5q178 0 328.5 -56.5t257 -158t166 -248.5t59.5 -323q0 -170 -53 -306.5t-155.5 -217t-237.5 -80.5q-118 0 -173.5 62.5
t-55.5 186.5h-33q-117 -247 -356 -247q-168 0 -259.5 106t-91.5 270q0 112 42 217.5t111.5 183t162.5 124.5t190 47q198 0 250 -203h31q-8 26 -11.5 47.5t-3 42.5t1.5 30t5.5 31t5.5 25h202l-88 -528q-16 -111 -4 -158q19 -73 92 -74q97 0 160.5 115.5t63.5 306.5
q0 305 -161 465t-446 160q-180 0 -331 -64t-253 -175.5t-159 -263t-57 -324.5q0 -306 176.5 -472.5t509.5 -166.5q300 0 516 151l96 -145q-126 -99 -293.5 -142t-330.5 -43zM913 453q116 0 193.5 100.5t77.5 222.5q0 89 -48.5 145t-131.5 56q-114 0 -195.5 -100t-81.5 -226
q0 -91 49.5 -144.5t136.5 -53.5z" />
    <glyph glyph-name="A" unicode="A" horiz-adv-x="1576" 
d="M319 0h-315l606 1597h357l606 -1597h-326q-36 96 -51.5 137t-39.5 128.5t-32 160.5l-24 25q-150 -41 -312 -41q-163 0 -317 41l-25 -25q-24 -164 -127 -426zM553 680l16 -21q105 39 219 39q112 0 209 -39l17 21q-80 169 -125.5 317t-67.5 344h-73q-23 -196 -69.5 -345.5
t-125.5 -315.5z" />
    <glyph glyph-name="B" unicode="B" horiz-adv-x="1462" 
d="M834 0h-666v1597h670q229 0 358 -115.5t129 -297.5q0 -124 -73.5 -216t-229.5 -130v-39q177 -31 268.5 -117t91.5 -246q0 -96 -34.5 -173t-90 -125t-129 -80t-146.5 -45t-148 -13zM440 907l33 -20q49 24 100.5 36t82 13.5t85.5 1.5q50 0 94 9t84 29.5t63.5 58.5t23.5 91
t-24 91.5t-63.5 59.5t-83.5 30.5t-92 9.5q-8 0 -40 -0.5t-44 0t-41 3t-48 7t-46.5 14t-54.5 23.5l-37 -21q29 -109 31 -210.5t-23 -225.5zM434 268l35 -35q54 22 111.5 33t94 13t97.5 2q51 0 97.5 9t90.5 30t70.5 61t26.5 96q0 55 -26 95.5t-69.5 62t-90 31.5t-95.5 10
q-60 0 -94.5 1.5t-93 13.5t-113.5 36l-35 -20q25 -129 23.5 -232t-29.5 -207z" />
    <glyph glyph-name="C" unicode="C" horiz-adv-x="1701" 
d="M909 -35q-178 0 -331 60.5t-262.5 169t-171.5 265.5t-62 343q0 194 67.5 353.5t181 261.5t259 157t305.5 55q256 0 452.5 -136t280.5 -366l-282 -112q-64 150 -179 238.5t-276 88.5q-214 0 -352 -152t-138 -403q0 -113 30.5 -205.5t81 -152.5t118 -101.5t138 -59
t144.5 -17.5q172 0 299.5 99.5t186.5 285.5l282 -96q-94 -288 -297 -432t-475 -144z" />
    <glyph glyph-name="D" unicode="D" horiz-adv-x="1628" 
d="M805 0h-637v1597h618q156 0 283 -40.5t214.5 -112t146.5 -171.5t86.5 -216t27.5 -248q0 -238 -87 -420t-255.5 -285.5t-396.5 -103.5zM434 268l35 -35q51 22 108 33t94 13t97 2q73 0 136.5 15t123.5 52t103 94t68.5 146.5t25.5 204.5q0 524 -516 524q-50 0 -78 1.5
t-73.5 12.5t-88.5 33l-37 -21q100 -554 2 -1075z" />
    <glyph glyph-name="E" unicode="E" horiz-adv-x="1329" 
d="M1233 0h-1065v1597h1044v-280q-166 0 -243.5 1t-223 12t-276.5 34l-37 -21q30 -107 31.5 -208t-23.5 -222l23 -20q125 31 262 46t216.5 17t229.5 2v-294q-151 0 -230.5 2t-215 18t-258.5 49l-27 -20q25 -131 24 -236t-30 -209l35 -35q134 23 279 34.5t237.5 13.5t247.5 2
v-283z" />
    <glyph glyph-name="F" unicode="F" horiz-adv-x="1267" 
d="M473 0h-305v1597h1028v-282q-152 0 -237 1.5t-224 13t-266 34.5l-37 -21q34 -119 33.5 -226t-37.5 -238l23 -21q128 32 263.5 47.5t216.5 18t224 2.5v-297q-149 0 -228 2t-214.5 17.5t-259.5 47.5l-25 -20q21 -119 31.5 -249t12 -208.5t1.5 -218.5z" />
    <glyph glyph-name="G" unicode="G" horiz-adv-x="1779" 
d="M866 -35q-227 0 -406 106.5t-278.5 296t-99.5 429.5q0 154 42.5 287.5t118 232.5t177.5 170t222.5 107t250.5 36q261 0 458.5 -137.5t276.5 -364.5l-282 -112q-64 150 -178 238.5t-275 88.5q-103 0 -192.5 -38.5t-156 -108t-105 -175t-38.5 -233.5q0 -116 33 -210
t86 -153.5t122.5 -99.5t139 -56.5t140.5 -16.5q337 0 540 371l-32 34q-85 -35 -185 -53.5t-159.5 -21t-151.5 -2.5v247h727v-827h-234q-1 13 -3.5 46.5t-2.5 52t1 49.5t7.5 63t18.5 68l-47 16q-85 -171 -216.5 -250.5t-318.5 -79.5z" />
    <glyph glyph-name="H" unicode="H" horiz-adv-x="1660" 
d="M473 0h-305v1597h305q0 -144 -1 -223.5t-9 -209.5t-23 -253l33 -22q194 48 362.5 48.5t352.5 -48.5l33 22q-15 123 -23 253.5t-9 210t-1 222.5h305v-1597h-305q0 140 1 217t9 204.5t23 252.5l-35 20q-182 -51 -349.5 -50.5t-361.5 50.5l-35 -20q15 -123 23 -250.5t9 -205
t1 -218.5z" />
    <glyph glyph-name="I" unicode="I" horiz-adv-x="641" 
d="M473 0h-305v1597h305v-1597z" />
    <glyph glyph-name="J" unicode="J" horiz-adv-x="1288" 
d="M612 -35q-165 0 -294 60t-207 186.5t-78 304.5v55l301 41v-51q0 -146 70 -227.5t192 -81.5q52 0 92 15t64.5 43.5t40.5 59.5t22.5 72t9 71t2.5 67v1017h306v-968q0 -58 -1.5 -95.5t-11.5 -114t-28 -129.5t-57 -119.5t-92.5 -107.5t-138.5 -69.5t-192 -28.5z" />
    <glyph glyph-name="K" unicode="K" horiz-adv-x="1468" 
d="M473 0h-305v1597h305q0 -11 0.5 -96.5t0 -108t-2 -97t-6 -114t-11 -105t-17 -124.5t-25.5 -121h37q303 374 657 766h358q-410 -459 -655 -704v-39q123 -124 253 -282t214 -272t217 -300h-369q-111 153 -164.5 227t-141 204.5t-154.5 242.5h-27q-98 -122 -182 -170
q18 -180 18 -504z" />
    <glyph glyph-name="L" unicode="L" horiz-adv-x="1202" 
d="M1176 0h-1008v1597h305q0 -292 -1.5 -452.5t-10.5 -412.5t-27 -464l35 -35q121 23 255 34.5t220.5 13.5t231.5 2v-283z" />
    <glyph glyph-name="M" unicode="M" horiz-adv-x="2084" 
d="M477 0h-309v1597h342q329 -617 506 -1196h53q178 576 506 1196h342v-1597h-309q0 34 -0.5 141.5t0 154t2 143.5t5.5 162t10.5 155.5t17.5 177.5t26 178h-37q-104 -260 -288 -659.5t-207 -452.5h-189q-23 53 -207 452.5t-288 659.5h-37q15 -86 26 -170.5t17.5 -174.5
t10.5 -155t5.5 -163.5t2 -146t0 -157.5t-0.5 -145z" />
    <glyph glyph-name="N" unicode="N" horiz-adv-x="1671" 
d="M473 0h-305v1597h281q224 -288 402 -559t347 -600h37q-18 210 -26.5 440t-9.5 345t-1 374h303v-1597h-280q-247 316 -418.5 566.5t-329.5 559.5h-37q18 -204 26.5 -428t9.5 -335.5t1 -362.5z" />
    <glyph glyph-name="O" unicode="O" horiz-adv-x="1775" 
d="M889 -35q-165 0 -313.5 61.5t-258 169.5t-173.5 264.5t-64 336.5q0 181 64 337.5t173 264.5t257.5 169.5t314.5 61.5t315 -62.5t257 -171.5t171.5 -265t63.5 -334t-63 -333.5t-171 -264.5t-257 -171.5t-316 -62.5zM891 252q206 0 345.5 155.5t139.5 389.5q0 232 -138 389
t-347 157q-102 0 -193 -41t-156.5 -112.5t-104 -173.5t-38.5 -219q0 -157 66 -282.5t178.5 -194t247.5 -68.5z" />
    <glyph glyph-name="P" unicode="P" horiz-adv-x="1386" 
d="M473 0h-305v1597h616q34 0 72 -3.5t94 -16.5t107 -33.5t104 -59.5t91 -90.5t62.5 -130t24.5 -173.5q0 -93 -24.5 -171t-63 -129.5t-91.5 -91t-103.5 -61.5t-105 -35.5t-91.5 -17.5t-67 -4q-78 0 -118 2t-107.5 18t-131.5 49q17 -120 26 -248t10 -201.5t1 -199.5zM436 811
l33 -18q45 31 95.5 46t80 17t84.5 2q39 0 75 5t77 20t70.5 39t49 67.5t19.5 100.5q0 68 -28 116t-74.5 70.5t-91 31.5t-93.5 9q-57 0 -88.5 1.5t-81.5 12.5t-94 33l-37 -21q30 -138 30.5 -264t-26.5 -268z" />
    <glyph glyph-name="Q" unicode="Q" horiz-adv-x="1808" 
d="M1712 -80l-219 -184q-59 69 -88.5 105.5t-72 103.5t-62.5 125q-155 -105 -367 -105q-171 0 -322 61.5t-261.5 169.5t-175 264t-64.5 337t64 337t174.5 264.5t262.5 170t324 61.5t324.5 -62.5t262.5 -171.5t173.5 -264.5t63.5 -334.5q0 -387 -293 -611q18 -12 36 -25.5
t36.5 -30t32 -28t33 -31.5t29.5 -29.5t30.5 -32.5t26 -29.5t27.5 -31.5t25 -28zM907 221q112 0 213 37q-45 21 -88.5 54.5t-86.5 80t-73.5 84t-74.5 94.5l219 181q212 -253 262 -404q137 147 137 449q0 235 -140 390.5t-370 155.5q-228 0 -371 -153.5t-143 -392.5
q0 -157 63.5 -287.5t183 -209.5t269.5 -79z" />
    <glyph glyph-name="R" unicode="R" horiz-adv-x="1437" 
d="M473 0h-305v1597h616q30 0 65.5 -3.5t91.5 -16.5t107.5 -34t106 -61t94 -92t65 -131.5t25.5 -175.5q0 -108 -38 -191.5t-103 -133t-141.5 -76t-163.5 -31.5v-37q75 -72 140.5 -146t135 -168t101 -139.5t108.5 -160.5h-344l-391 590q-90 6 -207 59q17 -106 26 -234.5
t10 -206t1 -208.5zM436 795l33 -21q100 51 260 51q37 0 74.5 7.5t77.5 26t70 46t49.5 72.5t19.5 100t-19 98.5t-49 70t-69.5 44t-76 24.5t-73.5 7q-53 0 -83.5 1.5t-81 11.5t-99.5 30l-37 -21q59 -267 4 -548z" />
    <glyph glyph-name="S" unicode="S" horiz-adv-x="1343" 
d="M690 -35q-237 0 -407 124t-226 349l285 97q22 -81 59.5 -140t84.5 -91.5t96.5 -47t103.5 -14.5q112 0 189 52t77 144q0 39 -16.5 71t-38 52t-64 40.5t-70 30.5t-81.5 27l-143 43q-47 14 -87 29.5t-92.5 42t-93.5 61.5t-77 80.5t-56 108t-20 135.5q0 141 74 249.5
t198.5 165t278.5 56.5q216 0 365 -108.5t190 -264.5l-279 -112q-79 209 -283 209q-100 0 -162.5 -48t-62.5 -122q0 -37 17.5 -69t42.5 -54t65.5 -43t72.5 -33t79 -27l168 -53q35 -11 52.5 -17t55.5 -21t60.5 -27t57 -33.5t55.5 -43t46 -52.5t39 -65t23.5 -78t9.5 -93
q0 -221 -161 -365.5t-425 -144.5z" />
    <glyph glyph-name="T" unicode="T" horiz-adv-x="1314" 
d="M809 0h-303q0 292 1 454.5t10 419.5t26 478q-92 -16 -191 -24.5t-158.5 -9.5t-166.5 -1v280h1261v-280q-107 0 -166.5 1t-158 9.5t-189.5 24.5q16 -221 24.5 -478t9.5 -419.5t1 -454.5z" />
    <glyph glyph-name="U" unicode="U" horiz-adv-x="1525" 
d="M762 -35q-109 0 -198.5 22.5t-151.5 59.5t-109 90.5t-75 110.5t-45 125.5t-23 128t-6 125.5v970h303v-946q0 -399 307 -399q305 0 305 399v946h305v-970q0 -64 -5.5 -121.5t-22 -126.5t-44 -125.5t-74.5 -111.5t-109.5 -93t-154 -61t-202.5 -23z" />
    <glyph glyph-name="V" unicode="V" horiz-adv-x="1574" 
d="M967 0h-359l-604 1597h320q106 -265 241 -655t191 -655h67q60 266 194.5 661t233.5 649h320z" />
    <glyph glyph-name="W" unicode="W" horiz-adv-x="2371" 
d="M854 0h-383l-455 1597h349q95 -348 161.5 -634.5t122.5 -618.5h37q45 222 105.5 462.5t102 386t118.5 404.5h348q77 -259 118.5 -405t102.5 -390t107 -472h36q94 577 283 1267h348l-454 -1597h-379q-112 353 -182 616t-128 582h-53q-59 -326 -130.5 -597.5t-174.5 -600.5
z" />
    <glyph glyph-name="X" unicode="X" horiz-adv-x="1400" 
d="M367 -2h-367q338 520 522 784v37q-61 87 -133 193.5t-123.5 185t-134.5 206t-127 193.5h358q183 -285 322 -583h35q136 292 323 583h359q-366 -556 -524 -778v-37q183 -262 518 -784h-367q-186 303 -309 586h-35q-129 -285 -317 -586z" />
    <glyph glyph-name="Y" unicode="Y" horiz-adv-x="1439" 
d="M872 0h-303q0 354 17 549q-237 406 -578 1048h328q82 -158 131 -258t116 -254t119 -303h35q49 140 110 281.5t116 253.5t120 240q14 27 21 40h328q-374 -699 -578 -1046q18 -184 18 -551z" />
    <glyph glyph-name="Z" unicode="Z" horiz-adv-x="1382" 
d="M1311 0h-1241v248q219 298 439.5 562.5t496.5 553.5l-17 37q-458 -84 -893 -84v280h1198v-251q-393 -526 -934 -1110l19 -35q471 82 932 82v-283z" />
    <glyph glyph-name="bracketleft" unicode="[" horiz-adv-x="839" 
d="M778 -432h-610v2029h610v-260q-71 0 -112 1t-111 10t-137 26q54 -776 0 -1552q67 17 137 26t111 10t112 1v-291z" />
    <glyph glyph-name="backslash" unicode="\" horiz-adv-x="933" 
d="M881 -135h-271l-557 1773h271z" />
    <glyph glyph-name="bracketright" unicode="]" horiz-adv-x="839" 
d="M670 -432h-611v291q73 0 114.5 -1t111.5 -10t137 -26q-54 776 0 1552q-67 -17 -137 -26t-111.5 -10t-114.5 -1v260h611v-2029z" />
    <glyph glyph-name="asciicircum" unicode="^" horiz-adv-x="956" 
d="M289 993h-211l278 604h254l269 -604h-209q-119 271 -152 432h-74q-30 -149 -155 -432z" />
    <glyph glyph-name="underscore" unicode="_" horiz-adv-x="1110" 
d="M1032 -250h-954v227h954v-227z" />
    <glyph glyph-name="a" unicode="a" horiz-adv-x="1198" 
d="M451 -35q-101 0 -186 35.5t-141 113t-56 185.5q0 77 28.5 136.5t82 99t115 64.5t142.5 42q213 45 256 61q68 24 80 64q4 14 4 29q0 64 -50 105.5t-132 41.5q-79 0 -137.5 -44.5t-85.5 -137.5l-269 90q26 87 77 151.5t119 102t144 55t162 17.5q216 0 338.5 -105
t122.5 -301v-414q0 -130 9 -205t28 -151h-285q-10 30 -13.5 52t1.5 61.5t22 89.5h-36q-43 -120 -132.5 -179t-207.5 -59zM535 186q108 0 175.5 75t67.5 169v96q-81 -40 -223 -67q-174 -44 -174 -152q0 -59 43 -90t111 -31z" />
    <glyph glyph-name="b" unicode="b" horiz-adv-x="1363" 
d="M776 -35q-122 0 -211 58.5t-137 164.5h-37q7 -16 12 -31.5t8.5 -27t6 -26.5t4 -22t2 -22.5t0.5 -19.5v-20.5v-18.5h-283v1638h287q0 -36 1 -126.5t0.5 -142t-3 -132.5t-8.5 -160t-17 -162h37q62 142 152.5 201.5t206.5 59.5q151 0 265.5 -82t173 -218t58.5 -303
q0 -139 -43 -255t-115 -192.5t-165 -118.5t-195 -42zM711 240q126 0 206 92t80 237q0 144 -80 238t-206 94q-127 0 -208 -93.5t-81 -238.5t82 -237t207 -92z" />
    <glyph glyph-name="c" unicode="c" horiz-adv-x="1249" 
d="M664 -35q-169 0 -303.5 72.5t-212.5 211t-78 320.5q0 136 44.5 250.5t122.5 192.5t185 121t231 43q187 0 331.5 -94.5t203.5 -262.5l-268 -108q-32 96 -103.5 143t-163.5 47q-127 0 -206.5 -94t-79.5 -236q0 -150 86 -240.5t213 -90.5q94 0 168.5 52.5t113.5 151.5
l269 -108q-61 -173 -208.5 -272t-344.5 -99z" />
    <glyph glyph-name="d" unicode="d" horiz-adv-x="1368" 
d="M590 -35q-156 0 -274.5 78.5t-181 215.5t-62.5 312q0 138 41 253t111 191.5t164 118.5t200 42q254 0 346 -261h37q-37 309 -33 723h287v-1282q0 -131 9 -205.5t28 -150.5h-283q-23 90 -6 193h-37q-89 -228 -346 -228zM655 240q127 0 208 94t81 239t-82 237.5t-207 92.5
q-126 0 -206 -93t-80 -239q0 -143 80 -237t206 -94z" />
    <glyph glyph-name="e" unicode="e" horiz-adv-x="1265" 
d="M662 -35q-168 0 -302.5 73.5t-212 211t-77.5 315.5q0 174 72.5 313.5t203 218.5t295.5 79q87 0 167 -22.5t150 -71t122 -119t82 -172.5t30 -224v-80h-836q18 -126 102 -195t201 -69q89 0 160 47.5t109 135.5l268 -109q-60 -146 -201 -239t-333 -93zM371 694h532
q-14 119 -87 177.5t-177 58.5q-106 0 -175.5 -65t-92.5 -171z" />
    <glyph glyph-name="f" unicode="f" horiz-adv-x="796" 
d="M508 0h-287q0 196 1 305t10 282t26 324q-91 -28 -207 -28v260q135 0 207 -29q-18 31 -26 60.5t-9.5 48t-1.5 55.5q0 102 31.5 179.5t86.5 123.5t123.5 69t149.5 23q106 0 189 -33v-239q-72 26 -127 26q-48 0 -80.5 -9t-49.5 -21t-25.5 -37.5t-9.5 -43t-1 -54.5
q0 -33 -1.5 -50.5t-10 -44.5t-25.5 -53q104 29 301 29v-260q-62 0 -93 0.5t-90.5 7.5t-117.5 20q17 -151 26 -324t10 -282t1 -305z" />
    <glyph glyph-name="g" unicode="g" horiz-adv-x="1363" 
d="M653 -483q-65 0 -125 8.5t-124.5 31t-117.5 58t-99.5 94.5t-75.5 135l260 95q41 -93 107.5 -136t166.5 -43q140 0 215.5 83t75.5 233q0 104 33 164h-37q-56 -130 -142 -182t-196 -52q-125 0 -226 47t-165 127.5t-98.5 185t-34.5 222.5q0 256 147 422t367 166
q128 0 216.5 -67t123.5 -194h34q-18 121 -18 228h283v-1028q0 -135 -31.5 -239.5t-84 -171t-127 -109.5t-154.5 -60.5t-173 -17.5zM653 281q126 0 207.5 91t81.5 222t-82 220t-207 89q-124 0 -205 -89t-81 -220q0 -132 81 -222.5t205 -90.5z" />
    <glyph glyph-name="h" unicode="h" horiz-adv-x="1310" 
d="M428 0h-287v1638h287q0 -448 -39 -714h37q115 252 356 252q80 0 151 -28t127 -82t89 -143t33 -202v-721h-287v594q0 307 -215 307q-109 0 -180.5 -78.5t-71.5 -232.5v-590z" />
    <glyph glyph-name="i" unicode="i" horiz-adv-x="567" 
d="M285 1298q-76 0 -127.5 52.5t-51.5 128.5q0 74 52.5 125t126.5 51t125 -51.5t51 -122.5q0 -77 -50.5 -130t-125.5 -53zM428 0h-287v1143h287v-1143z" />
    <glyph glyph-name="j" unicode="j" horiz-adv-x="567" 
d="M285 1298q-75 0 -127 54t-52 127t51.5 124.5t127.5 51.5q75 0 125.5 -51t50.5 -125q0 -75 -50.5 -128t-125.5 -53zM51 -483q-122 0 -229 43v247q81 -34 168 -34q37 0 64 8t43 26t25.5 33.5t13 44t4.5 43.5t1 45v1170h287v-1157q0 -57 -1 -88.5t-8 -88.5t-20.5 -90.5
t-41 -77t-66.5 -67t-100.5 -40.5t-139.5 -17z" />
    <glyph glyph-name="k" unicode="k" horiz-adv-x="1179" 
d="M428 0h-287v1638h287v-113.5v-122.5t-0.5 -112t-2 -124.5t-3.5 -115.5t-5.5 -128t-8.5 -119.5t-11 -130.5h35q139 198 385 471h342l-459 -467q90 -105 187.5 -232.5t158 -211.5t164.5 -232h-336q-207 299 -323 512q-58 -106 -135 -180q12 -106 12 -332z" />
    <glyph glyph-name="l" unicode="l" horiz-adv-x="567" 
d="M428 0h-287v1638h287v-1638z" />
    <glyph glyph-name="m" unicode="m" horiz-adv-x="2023" 
d="M428 0h-287v1143h283q0 -41 -0.5 -60t-9 -64.5t-25.5 -94.5h37q57 130 149.5 191t200.5 61q116 0 203 -66.5t119 -212.5h37q113 279 356 279q78 0 149.5 -29t128.5 -84t91 -143.5t34 -198.5v-721h-286v594q0 307 -203 307q-102 0 -173 -79t-71 -232v-590h-287v596
q0 305 -202 305q-104 0 -174 -79t-70 -232v-590z" />
    <glyph glyph-name="n" unicode="n" horiz-adv-x="1310" 
d="M428 0h-287v1143h283q0 -113 -35 -219h37q115 252 356 252q81 0 152 -28t127 -82.5t88.5 -143t32.5 -201.5v-721h-287v594q0 307 -215 307q-109 0 -180.5 -78.5t-71.5 -232.5v-590z" />
    <glyph glyph-name="o" unicode="o" horiz-adv-x="1316" 
d="M659 -35q-261 0 -425 168.5t-164 435.5q0 266 164.5 436.5t424.5 170.5t425 -170.5t165 -436.5q0 -267 -164.5 -435.5t-425.5 -168.5zM659 240q129 0 210 92t81 237q0 148 -81 240t-210 92t-210.5 -93t-81.5 -239q0 -145 81.5 -237t210.5 -92z" />
    <glyph glyph-name="p" unicode="p" horiz-adv-x="1363" 
d="M428 -451h-287v1594h283q0 -43 -0.5 -62t-8.5 -69t-24 -109h37q71 150 161 211.5t208 61.5q151 0 265.5 -82t173 -217.5t58.5 -301.5q0 -139 -43 -256t-115 -193.5t-165 -118.5t-195 -42q-249 0 -342 246h-37q9 -64 15 -131t9.5 -111.5t5 -117t1.5 -98v-108v-96.5z
M711 240q126 0 206 93t80 236q0 146 -80.5 239t-205.5 93t-207 -93.5t-82 -238.5t82 -237t207 -92z" />
    <glyph glyph-name="q" unicode="q" horiz-adv-x="1363" 
d="M1225 -451h-289q0 136 1 212t10 204t26 246h-37q-122 -246 -365 -246q-148 0 -263 82t-176.5 221t-61.5 310q0 136 41 249.5t111 189t163.5 117.5t198.5 42q257 0 354 -254h37q-17 55 -25.5 101t-9 64t-0.5 56h285v-1594zM655 240q126 0 207.5 94t81.5 239t-82.5 237.5
t-208.5 92.5t-206 -93t-80 -239q0 -143 80 -237t208 -94z" />
    <glyph glyph-name="r" unicode="r" horiz-adv-x="892" 
d="M428 0h-287v1143h283q0 -5 0.5 -34t0 -43.5t-3 -43.5t-9 -60.5t-17.5 -68.5h37q88 283 322 283q56 0 110 -21v-321q-65 22 -139 22q-297 0 -297 -414v-442z" />
    <glyph glyph-name="s" unicode="s" horiz-adv-x="1058" 
d="M543 -35q-192 0 -325 87.5t-173 234.5l266 86q36 -89 98.5 -130.5t131.5 -41.5q60 0 104.5 26t44.5 82q0 24 -10.5 43.5t-23.5 31.5t-39 24t-42 17.5t-47 14.5l-120 37q-310 95 -310 340q0 162 121.5 260.5t308.5 98.5q167 0 284 -81t153 -208l-265 -86q-51 141 -180 141
q-60 0 -97.5 -29.5t-37.5 -76.5q0 -20 8 -37t25 -31t33.5 -24.5t43 -20.5t44.5 -16t47 -15l88 -24q34 -9 53.5 -15.5t57.5 -21.5t62.5 -30.5t55.5 -42t49 -56.5t30.5 -73t12.5 -93q0 -169 -122.5 -270t-329.5 -101z" />
    <glyph glyph-name="t" unicode="t" horiz-adv-x="907" 
d="M635 -35q-62 0 -114 10.5t-89 26t-66.5 41.5t-48 49.5t-32 57.5t-19.5 58t-9.5 59t-4 52.5t-0.5 45.5q0 115 1 179t10 168.5t26 198.5q-53 -14 -104.5 -20.5t-78 -7t-79.5 -0.5v260q149 0 262 -29q-17 63 -26 130.5t-10 108t-1 113.5h287q0 -73 -1 -113.5t-10 -108
t-26 -130.5q139 29 346 29v-260q-74 0 -109.5 0.5t-103.5 7.5t-133 20q17 -77 26 -163t10 -137.5t1 -143.5q0 -32 0.5 -48.5t3 -46.5t8 -46.5t17 -38.5t27.5 -33.5t41.5 -20t57.5 -8.5q77 0 154 41v-258q-79 -43 -213 -43z" />
    <glyph glyph-name="u" unicode="u" horiz-adv-x="1292" 
d="M541 -35q-193 0 -302.5 117.5t-109.5 343.5v717h287v-619q0 -133 53 -208.5t154 -75.5q110 0 174.5 81.5t64.5 206.5v615h287v-787q0 -131 9 -205.5t28 -150.5h-287q-10 44 -12.5 62.5t2 59.5t22.5 91h-37q-47 -132 -126 -190t-207 -58z" />
    <glyph glyph-name="v" unicode="v" horiz-adv-x="1183" 
d="M768 0h-350l-406 1143h312q158 -433 245 -858h54q86 416 243 858h303z" />
    <glyph glyph-name="w" unicode="w" horiz-adv-x="1918" 
d="M725 0h-336l-379 1143h328q52 -170 79.5 -268t64.5 -257t59 -305h53q75 334 240 830h251q166 -497 238 -830h49q24 146 63.5 308.5t64.5 250t81 271.5h326l-377 -1143h-348q-50 161 -76 247t-62.5 229t-58.5 267h-47q-61 -294 -213 -743z" />
    <glyph glyph-name="x" unicode="x" horiz-adv-x="1144" 
d="M340 0h-334q204 325 389 563v37q-158 191 -387 543h334q147 -240 215 -414h37q27 76 65.5 153.5t69.5 130t82 130.5h324q-81 -124 -126.5 -192.5t-119 -170.5t-139.5 -180v-37q182 -227 389 -563h-328q-128 208 -217 412h-37q-28 -74 -69 -154.5t-67 -124.5t-81 -133z
" />
    <glyph glyph-name="y" unicode="y" horiz-adv-x="1202" 
d="M602 -451h-305l154 402l-443 1192h316q85 -231 147 -432.5t117 -448.5h37q36 168 85.5 340t81.5 266t95 275h307z" />
    <glyph glyph-name="z" unicode="z" horiz-adv-x="1095" 
d="M1036 0h-962v242q327 393 594 641l-19 35q-207 -39 -563 -39v264h909v-244q-110 -129 -185.5 -215t-189.5 -205t-221 -217l19 -35q95 16 213.5 24.5t194 9.5t210.5 1v-262z" />
    <glyph glyph-name="braceleft" unicode="{" horiz-adv-x="921" 
d="M860 -301h-127q-119 0 -208 21.5t-145 58.5t-90.5 92.5t-47.5 117t-13 138.5v176q0 44 -3.5 76t-8 54.5t-16.5 36.5t-21 22t-30 11.5t-34.5 4t-42.5 0.5h-3v280h3q29 0 42.5 0.5t34.5 4t30 11.5t21 22t16.5 36.5t8 54.5t3.5 76v176q0 77 13 138.5t47.5 117t90.5 92.5
t145 58.5t208 21.5h127v-260h-94q-130 0 -193 -48.5t-63 -174.5v-123q0 -65 -4 -108t-16.5 -76.5t-28 -52t-48.5 -33t-67.5 -22t-93.5 -15.5v-76q62 -9 94.5 -15.5t67 -20.5t49 -31t27.5 -50.5t16.5 -76.5t3.5 -109v-123q0 -126 63 -174.5t193 -48.5h94v-260z" />
    <glyph glyph-name="bar" unicode="|" horiz-adv-x="575" 
d="M406 -451h-238v2089h238v-2089z" />
    <glyph glyph-name="braceright" unicode="}" horiz-adv-x="921" 
d="M188 -301h-127v260h95q130 0 193 48.5t63 174.5v123q0 66 3.5 109t16.5 76.5t27.5 50.5t49 31t67 20.5t94.5 15.5v76q-59 8 -93.5 15.5t-67.5 22t-48.5 33t-28 52t-16.5 76.5t-4 108v123q0 126 -63 174.5t-193 48.5h-95v260h127q119 0 208 -21.5t145 -58.5t90.5 -92.5
t47.5 -117t13 -138.5v-176q0 -31 1 -56t5.5 -45t7.5 -35t11.5 -26t13.5 -18.5t18 -12t20 -7t25 -4t27 -1.5h31v-280h-31t-27 -1.5t-25 -4t-20 -7t-18 -12t-13.5 -18.5t-11.5 -26t-7.5 -35t-5.5 -45t-1 -56v-176q0 -77 -13 -138.5t-47.5 -117t-90.5 -92.5t-145 -58.5
t-208 -21.5z" />
    <glyph glyph-name="asciitilde" unicode="~" horiz-adv-x="1165" 
d="M786 471q-57 0 -112.5 19t-91 41.5t-76.5 41.5t-72 19q-44 0 -67 -34t-23 -79h-223q0 159 79.5 253.5t196.5 94.5q52 0 103 -17.5t84.5 -38.5t77 -38.5t83.5 -17.5q38 0 57 30.5t19 77.5h226q0 -172 -71 -262t-190 -90z" />
    <glyph glyph-name="uni00A0" unicode="&#xa0;" horiz-adv-x="489" 
 />
    <glyph glyph-name="exclamdown" unicode="&#xa1;" horiz-adv-x="563" 
d="M283 809q-75 0 -129 53t-54 125q0 78 54 133.5t129 55.5q74 0 127 -55.5t53 -133.5q0 -71 -54.5 -124.5t-125.5 -53.5zM436 -436h-309v182l76 907h157l76 -907v-182z" />
    <glyph glyph-name="cent" unicode="&#xa2;" horiz-adv-x="1136" 
d="M846 616l205 -86q-41 -121 -143.5 -197.5t-239.5 -90.5v-242h-129v244q-182 26 -303 161t-121 345q0 141 59 252t153.5 174t211.5 79v211h129v-211q127 -14 223.5 -86t138.5 -188l-205 -86q-38 112 -157 137v-567q61 12 108 51t70 100zM356 750q0 -109 52 -181.5
t131 -97.5v561q-81 -24 -132 -98.5t-51 -183.5z" />
    <glyph glyph-name="sterling" unicode="&#xa3;" horiz-adv-x="1341" 
d="M1251 0h-1134v258q161 47 228 111t67 166v17v18.5t0.5 17t1 18.5t1.5 16.5t2.5 17.5l4 16t5.5 16.5t7.5 14.5t9.5 15q-141 -20 -356 -20v145q159 0 309 -20q-104 94 -155.5 189.5t-51.5 207.5q0 132 69 230t182 147t253 49q67 0 130.5 -10.5t135 -41t128.5 -78.5
t104.5 -130t69.5 -188l-279 -111q-16 72 -42 126.5t-53.5 84.5t-61 48.5t-60 24t-55.5 5.5q-91 0 -148 -53t-57 -148q0 -71 51 -184.5t61 -167.5q174 20 451 20v-145q-240 0 -416 20q68 -51 68 -143q0 -87 -57 -163.5t-211 -176.5l20 -37q50 13 98.5 24t99 18.5t87 13t91 9
t81 5.5t85.5 3t76.5 1h83h76.5v-256z" />
    <glyph glyph-name="currency" unicode="&#xa4;" horiz-adv-x="1372" 
d="M1104 834q0 -129 -64 -232l252 -295l-174 -151l-254 295q-78 -35 -174 -35q-99 0 -180 37l-254 -297l-176 151l254 297q-66 101 -66 230q0 126 64 229l-252 293l176 153l250 -292q79 36 180 36q104 0 180 -36l252 292l174 -153l-250 -293q62 -105 62 -229zM688 633
q79 0 127.5 56.5t48.5 144.5q0 91 -49 146.5t-129 55.5t-130 -56.5t-50 -145.5q0 -88 51.5 -144.5t130.5 -56.5z" />
    <glyph glyph-name="yen" unicode="&#xa5;" horiz-adv-x="1484" 
d="M895 0h-305q0 52 1 81t10 81t26 106q-75 -17 -152.5 -26t-124 -10t-129.5 -1v197q83 0 129.5 -1t124 -10t152.5 -26q-28 63 -28 104.5t28 79.5q-75 -16 -154 -24t-122 -9t-130 -1v194q69 0 108.5 -1t107 -9.5t132.5 -24.5q-168 276 -514 897h324q77 -147 123 -238
t109.5 -236.5t111.5 -282.5h37q71 199 153 374t193 383h324q-342 -606 -519 -897q66 16 134.5 24.5t108.5 9.5t110 1v-194q-86 0 -129.5 1t-123 9t-153.5 24q28 -38 28 -79.5t-28 -104.5q75 17 153 26t124.5 10t128.5 1v-197q-82 0 -128.5 1t-124.5 10t-153 26
q17 -54 26 -106t10 -81t1 -81z" />
    <glyph glyph-name="brokenbar" unicode="&#xa6;" horiz-adv-x="575" 
d="M406 831h-238v807h238v-807zM406 -451h-238v801h238v-801z" />
    <glyph glyph-name="section" unicode="&#xa7;" horiz-adv-x="1124" 
d="M575 -301q-187 0 -324 87t-177 234l252 78q34 -90 104.5 -136t142.5 -46q61 0 105.5 30.5t44.5 84.5q0 29 -13 51.5t-41 40.5t-52.5 29.5t-67.5 27.5l-121 47q-297 114 -297 312q0 92 61 158.5t189 76.5v39q-114 29 -178 102t-64 166q0 87 34.5 157.5t93.5 115.5
t136.5 68.5t165.5 23.5q166 0 282.5 -79t154.5 -216l-261 -86q-48 164 -182 164q-67 0 -105 -34.5t-38 -84.5q0 -33 16 -59t47.5 -45.5t57.5 -30.5t67 -25l107 -37q42 -15 70 -26.5t68 -31t66.5 -42.5t52 -53t38 -69.5t12.5 -86.5q0 -100 -70.5 -169.5t-183.5 -78.5v-39
q122 -21 182 -91t60 -177q0 -155 -117 -252.5t-318 -97.5zM559 432l35 -12q38 2 73 15.5t63 45.5t28 78q0 15 -2 27.5t-8.5 23t-11 18.5t-17 16t-17.5 12.5t-23 11.5t-23 9t-26.5 9.5t-25.5 9.5l-55 19q-60 22 -109 -21t-49 -106q0 -34 15.5 -61t44.5 -45.5t51.5 -28.5
t56.5 -21z" />
    <glyph glyph-name="copyright" unicode="&#xa9;" horiz-adv-x="1886" 
d="M944 -35q-184 0 -341 65.5t-264.5 178.5t-167.5 265.5t-60 324.5q0 171 60.5 323t167.5 264.5t264 178t341 65.5q183 0 340 -65.5t264 -177.5t167.5 -264.5t60.5 -323.5q0 -230 -102.5 -419.5t-294 -302t-435.5 -112.5zM944 119q201 0 357.5 91.5t239.5 245.5t83 343
q0 188 -83 342t-239.5 246t-357.5 92q-152 0 -280.5 -53.5t-215.5 -145.5t-135.5 -216.5t-48.5 -264.5q0 -141 48.5 -265.5t135.5 -216t215.5 -145t280.5 -53.5zM961 346q-198 0 -324.5 127.5t-126.5 327.5q0 139 64 242.5t163 153.5t215 50q144 0 251 -75t153 -207
l-176 -70q-64 174 -228 174q-109 0 -177 -76.5t-68 -199.5q0 -70 24.5 -123.5t64 -83.5t83 -45t88.5 -15q87 0 149.5 51.5t91.5 145.5l176 -57q-50 -154 -159 -237t-264 -83z" />
    <glyph glyph-name="guillemotleft" unicode="&#xab;" horiz-adv-x="1335" 
d="M690 164h-297l-305 405v9l305 405h297q-51 -67 -80.5 -104t-79 -91.5t-102 -96.5t-113.5 -77v-82q61 -35 113.5 -77t102 -96t79.5 -91.5t80 -103.5zM1221 164h-299l-306 405v9l306 405h299q-64 -85 -108 -137.5t-117 -119t-152 -112.5v-82q61 -35 114 -77.5t102 -95.5
t81 -92t80 -103z" />
    <glyph glyph-name="logicalnot" unicode="&#xac;" horiz-adv-x="1079" 
d="M950 168h-235v362h-602v222h837v-584z" />
    <glyph glyph-name="registered" unicode="&#xae;" horiz-adv-x="1122" 
d="M563 723q-199 0 -328 129.5t-129 327.5q0 197 129 324.5t328 127.5q196 0 324.5 -128.5t128.5 -323.5q0 -198 -128.5 -327.5t-324.5 -129.5zM563 825q152 0 250 101t98 254q0 152 -98 252t-250 100q-153 0 -252.5 -99.5t-99.5 -252.5q0 -154 99.5 -254.5t252.5 -100.5z
M500 938h-105v492h195q25 0 52 -7t57 -23t49.5 -49.5t19.5 -80.5q0 -61 -30 -98t-76 -50l122 -184h-114l-117 174h-53v-174zM500 1337v-133h78q75 0 75 68q0 33 -21 49t-52 16h-80z" />
    <glyph glyph-name="degree" unicode="&#xb0;" horiz-adv-x="743" 
d="M371 1047q-128 0 -213.5 87.5t-85.5 215.5q0 126 86 212.5t213 86.5q128 0 213.5 -86.5t85.5 -212.5q0 -127 -85.5 -215t-213.5 -88zM371 1204q60 0 99.5 42t39.5 104q0 59 -40 100t-99 41q-58 0 -98 -41t-40 -100q0 -62 40 -104t98 -42z" />
    <glyph glyph-name="plusminus" unicode="&#xb1;" horiz-adv-x="1130" 
d="M1008 848v-215h-328v-197h328v-213h-885v213h321v197h-321v215h321v229h236v-229h328z" />
    <glyph glyph-name="uni00B2" unicode="&#xb2;" horiz-adv-x="735" 
d="M664 733h-588v29q0 100 22.5 165.5t72.5 117.5t148 116q4 3 22.5 15t26.5 17.5t23 18t22 21.5t13 22.5t6 26.5q0 27 -18.5 43t-51.5 16q-48 0 -76.5 -34.5t-29.5 -96.5l-211 33q0 137 93 221t233 84q128 0 214.5 -72.5t86.5 -187.5q0 -143 -135 -219q-8 -5 -39 -23
t-47 -29t-37 -31.5t-31 -41.5h281v-211z" />
    <glyph glyph-name="uni00B3" unicode="&#xb3;" horiz-adv-x="737" 
d="M356 713q-121 0 -210 52t-113 132l200 102q43 -94 123 -94q35 0 58.5 18.5t23.5 55.5q0 76 -98 76h-78v157h78q36 0 65 19t29 53q0 30 -22.5 50t-57.5 20q-38 0 -62.5 -26.5t-29.5 -70.5l-209 48q9 101 98 172t224 71q121 0 204 -59t83 -156q0 -61 -33 -110.5t-84 -59.5
v-2q56 -11 97.5 -61.5t41.5 -118.5q0 -47 -20 -93t-59 -86t-103.5 -64.5t-145.5 -24.5z" />
    <glyph glyph-name="paragraph" unicode="&#xb6;" horiz-adv-x="1615" 
d="M948 -287h-301v942h-112q-213 0 -344.5 133.5t-131.5 346.5q0 98 33.5 181.5t97 146t162 98.5t221.5 36h375v-1884zM1421 -287h-301v1884h301v-1884z" />
    <glyph glyph-name="periodcentered" unicode="&#xb7;" horiz-adv-x="638" 
d="M319 477q-92 0 -156.5 67.5t-64.5 162.5q0 90 64.5 153.5t156.5 63.5q91 0 156.5 -64t65.5 -153q0 -95 -65.5 -162.5t-156.5 -67.5z" />
    <glyph glyph-name="uni00B9" unicode="&#xb9;" horiz-adv-x="536" 
d="M434 733h-227v459q-80 -62 -164 -82v246q77 26 121.5 74.5t44.5 101.5h225v-799z" />
    <glyph glyph-name="guillemotright" unicode="&#xbb;" horiz-adv-x="1335" 
d="M719 569l-305 -405h-299q48 64 80 103t81 92t102 95.5t114 77.5v82q-79 46 -152 112.5t-117 119t-108 137.5h299l305 -405v-9zM1247 569l-305 -405h-297q50 66 80 103.5t79.5 91.5t102 96t113.5 77v82q-61 35 -113.5 77t-102 96.5t-79 91.5t-80.5 104h297l305 -405v-9z
" />
    <glyph glyph-name="onequarter" unicode="&#xbc;" horiz-adv-x="1660" 
d="M434 733h-227v459q-80 -62 -164 -82v246q77 26 121.5 74.5t44.5 101.5h225v-799zM322 0h-269l1139 1468h260zM1518 -10h-220v139h-360v178l367 481h213v-469h92v-190h-92v-139zM1298 498l-143 -179h143v179z" />
    <glyph glyph-name="onehalf" unicode="&#xbd;" horiz-adv-x="1724" 
d="M434 733h-227v459q-80 -62 -164 -82v246q77 26 121.5 74.5t44.5 101.5h225v-799zM322 0h-269l1139 1468h260zM1653 -10h-588v28q0 145 50 225.5t194 174.5q3 2 22.5 14.5t26.5 18t22.5 18t22 21.5t12.5 22.5t6 26.5q0 27 -18 43t-51 16q-48 0 -77 -34.5t-30 -96.5
l-211 33q0 137 93 221t233 84q128 0 214.5 -72.5t86.5 -187.5q0 -143 -135 -219q-8 -5 -39 -23t-47 -29t-37 -31.5t-31 -41.5h281v-211z" />
    <glyph glyph-name="threequarters" unicode="&#xbe;" horiz-adv-x="1861" 
d="M356 713q-121 0 -210 52t-113 132l200 102q43 -94 123 -94q35 0 58.5 18.5t23.5 55.5q0 76 -98 76h-78v157h78q36 0 65 19t29 53q0 30 -22.5 50t-57.5 20q-38 0 -62.5 -26.5t-29.5 -70.5l-209 48q9 101 98 172t224 71q121 0 204 -59t83 -156q0 -61 -33 -110.5t-84 -59.5
v-2q56 -11 97.5 -61.5t41.5 -118.5q0 -47 -20 -93t-59 -86t-103.5 -64.5t-145.5 -24.5zM522 0h-268l1139 1468h260zM1718 -10h-219v139h-360v178l366 481h213v-469h92v-190h-92v-139zM1499 498l-143 -179h143v179z" />
    <glyph glyph-name="questiondown" unicode="&#xbf;" horiz-adv-x="1226" 
d="M657 809q-74 0 -128 53.5t-54 130.5q0 74 52 128.5t126 54.5q76 0 130.5 -55t54.5 -132q0 -73 -53.5 -126.5t-127.5 -53.5zM604 -469q-107 0 -204 32t-171 89t-117.5 144t-43.5 190q0 75 21.5 138.5t63 113.5t77 81.5t89.5 69.5q8 6 32.5 23t33.5 24t29.5 22.5t29 24.5
t24 23.5t22 26t14.5 26.5t11 30.5t3 31.5q0 9 -4 41h311q4 -54 4 -74q0 -108 -61.5 -181.5t-187.5 -150.5q-45 -30 -67.5 -47t-56 -49t-48.5 -68t-15 -78q0 -90 66 -146t168 -56q121 0 194.5 79t73.5 205q0 23 -2 35l274 -49q2 -10 2 -29q0 -121 -45.5 -221t-123.5 -165
t-180 -100.5t-216 -35.5z" />
    <glyph glyph-name="Agrave" unicode="&#xc0;" horiz-adv-x="1576" 
d="M944 1720h-260l-328 361h355zM319 0h-315l606 1597h357l606 -1597h-326q-36 96 -51.5 137t-39.5 128.5t-32 160.5l-24 25q-150 -41 -312 -41q-163 0 -317 41l-25 -25q-24 -164 -127 -426zM553 680l16 -21q105 39 219 39q112 0 209 -39l17 21q-80 169 -125.5 317
t-67.5 344h-73q-23 -196 -69.5 -345.5t-125.5 -315.5z" />
    <glyph glyph-name="Aacute" unicode="&#xc1;" horiz-adv-x="1576" 
d="M1245 2081l-325 -361h-261l232 361h354zM319 0h-315l606 1597h357l606 -1597h-326q-36 96 -51.5 137t-39.5 128.5t-32 160.5l-24 25q-150 -41 -312 -41q-163 0 -317 41l-25 -25q-24 -164 -127 -426zM553 680l16 -21q105 39 219 39q112 0 209 -39l17 21
q-80 169 -125.5 317t-67.5 344h-73q-23 -196 -69.5 -345.5t-125.5 -315.5z" />
    <glyph glyph-name="Acircumflex" unicode="&#xc2;" horiz-adv-x="1576" 
d="M623 1720h-267l291 357h279l291 -357h-267q-24 24 -37.5 40t-33 44t-33 64.5t-23.5 83.5h-73q-13 -61 -35 -108t-41 -70t-51 -54zM319 0h-315l606 1597h357l606 -1597h-326q-36 96 -51.5 137t-39.5 128.5t-32 160.5l-24 25q-150 -41 -312 -41q-163 0 -317 41l-25 -25
q-24 -164 -127 -426zM553 680l16 -21q105 39 219 39q112 0 209 -39l17 21q-80 169 -125.5 317t-67.5 344h-73q-23 -196 -69.5 -345.5t-125.5 -315.5z" />
    <glyph glyph-name="Atilde" unicode="&#xc3;" horiz-adv-x="1576" 
d="M942 1729q-75 0 -143 45l-58 38q-45 35 -79 35q-36 0 -55 -28t-19 -72h-205q0 144 73.5 230.5t188.5 86.5q75 0 152 -49l51 -35q39 -26 70 -26q29 0 44 26t15 70h205q0 -155 -62 -238t-178 -83zM319 0h-315l606 1597h357l606 -1597h-326q-36 96 -51.5 137t-39.5 128.5
t-32 160.5l-24 25q-150 -41 -312 -41q-163 0 -317 41l-25 -25q-24 -164 -127 -426zM553 680l16 -21q105 39 219 39q112 0 209 -39l17 21q-80 169 -125.5 317t-67.5 344h-73q-23 -196 -69.5 -345.5t-125.5 -315.5z" />
    <glyph glyph-name="Adieresis" unicode="&#xc4;" horiz-adv-x="1576" 
d="M553 1731q-75 0 -125.5 51t-50.5 127q0 70 51 119t125 49q70 0 120 -49.5t50 -118.5q0 -76 -49.5 -127t-120.5 -51zM1018 1731q-74 0 -124 51t-50 127q0 69 50.5 118.5t123.5 49.5q72 0 121 -49.5t49 -118.5q0 -76 -49 -127t-121 -51zM319 0h-315l606 1597h357l606 -1597
h-326q-36 96 -51.5 137t-39.5 128.5t-32 160.5l-24 25q-150 -41 -312 -41q-163 0 -317 41l-25 -25q-24 -164 -127 -426zM553 680l16 -21q105 39 219 39q112 0 209 -39l17 21q-80 169 -125.5 317t-67.5 344h-73q-23 -196 -69.5 -345.5t-125.5 -315.5z" />
    <glyph glyph-name="Aring" unicode="&#xc5;" horiz-adv-x="1576" 
d="M784 1710q-110 0 -186 73t-76 177q0 105 75.5 176.5t186.5 71.5q109 0 183.5 -71.5t74.5 -176.5q0 -108 -74 -179t-184 -71zM784 1847q46 0 76.5 33t30.5 80q0 45 -31 76.5t-76 31.5q-50 0 -80 -31t-30 -77q0 -48 30 -80.5t80 -32.5zM319 0h-315l606 1597h357l606 -1597
h-326q-36 96 -51.5 137t-39.5 128.5t-32 160.5l-24 25q-150 -41 -312 -41q-163 0 -317 41l-25 -25q-24 -164 -127 -426zM553 680l16 -21q105 39 219 39q112 0 209 -39l17 21q-80 169 -125.5 317t-67.5 344h-73q-23 -196 -69.5 -345.5t-125.5 -315.5z" />
    <glyph glyph-name="AE" unicode="&#xc6;" horiz-adv-x="2181" 
d="M279 0h-340l899 1597h1226v-280q-161 0 -252.5 1.5t-241.5 10.5t-284 27q29 -118 29.5 -217.5t-27.5 -216.5q126 17 270 25.5t225 9.5t240 1v-294q-159 0 -240 1t-225 9.5t-270 25.5q28 -123 28 -227.5t-28 -228.5q137 18 290 27t247 10.5t260 1.5v-283h-1065
q0 90 1 140.5t9.5 136t24.5 165.5q-154 -28 -290 -28t-288 28q-30 -116 -77 -215t-121 -227zM641 668q114 26 208 26t208 -28q-47 309 -19 686h-41q-63 -168 -147 -326t-209 -358z" />
    <glyph glyph-name="Ccedilla" unicode="&#xc7;" horiz-adv-x="1701" 
d="M1399 637l282 -96q-90 -273 -276 -416.5t-438 -157.5q-41 -41 -127 -106l18 -17q79 58 131 58q77 0 133 -55t56 -144q0 -102 -78.5 -162.5t-204.5 -60.5q-93 0 -168.5 34t-120.5 95l92 112q73 -96 189 -96q47 0 75.5 21t28.5 59q0 36 -28 57t-72 21q-51 0 -88 -29l-90 68
l96 147q-212 21 -376.5 129.5t-257.5 291t-93 413.5q0 194 67.5 353.5t181 261.5t259 157t305.5 55q256 0 452.5 -136t280.5 -366l-282 -112q-64 150 -179 238.5t-276 88.5q-214 0 -352 -152t-138 -403q0 -113 30.5 -205.5t81 -152.5t118 -101.5t138 -59t144.5 -17.5
q172 0 299.5 99.5t186.5 285.5z" />
    <glyph glyph-name="Egrave" unicode="&#xc8;" horiz-adv-x="1329" 
d="M850 1720h-260l-328 361h354zM1233 0h-1065v1597h1044v-280q-166 0 -243.5 1t-223 12t-276.5 34l-37 -21q30 -107 31.5 -208t-23.5 -222l23 -20q125 31 262 46t216.5 17t229.5 2v-294q-151 0 -230.5 2t-215 18t-258.5 49l-27 -20q25 -131 24 -236t-30 -209l35 -35
q134 23 279 34.5t237.5 13.5t247.5 2v-283z" />
    <glyph glyph-name="Eacute" unicode="&#xc9;" horiz-adv-x="1329" 
d="M1151 2081l-326 -361h-260l232 361h354zM1233 0h-1065v1597h1044v-280q-166 0 -243.5 1t-223 12t-276.5 34l-37 -21q30 -107 31.5 -208t-23.5 -222l23 -20q125 31 262 46t216.5 17t229.5 2v-294q-151 0 -230.5 2t-215 18t-258.5 49l-27 -20q25 -131 24 -236t-30 -209
l35 -35q134 23 279 34.5t237.5 13.5t247.5 2v-283z" />
    <glyph glyph-name="Ecircumflex" unicode="&#xca;" horiz-adv-x="1329" 
d="M528 1720h-266l291 357h278l291 -357h-266q-24 24 -37.5 40t-33 44t-33 64.5t-23.5 83.5h-74q-13 -61 -35 -108t-41 -70t-51 -54zM1233 0h-1065v1597h1044v-280q-166 0 -243.5 1t-223 12t-276.5 34l-37 -21q30 -107 31.5 -208t-23.5 -222l23 -20q125 31 262 46t216.5 17
t229.5 2v-294q-151 0 -230.5 2t-215 18t-258.5 49l-27 -20q25 -131 24 -236t-30 -209l35 -35q134 23 279 34.5t237.5 13.5t247.5 2v-283z" />
    <glyph glyph-name="Edieresis" unicode="&#xcb;" horiz-adv-x="1329" 
d="M459 1731q-75 0 -125.5 51t-50.5 127q0 70 51 119t125 49q70 0 120 -49.5t50 -118.5q0 -76 -49.5 -127t-120.5 -51zM924 1731q-74 0 -124 51t-50 127q0 69 50.5 118.5t123.5 49.5q72 0 121 -49.5t49 -118.5q0 -76 -49 -127t-121 -51zM1233 0h-1065v1597h1044v-280
q-166 0 -243.5 1t-223 12t-276.5 34l-37 -21q30 -107 31.5 -208t-23.5 -222l23 -20q125 31 262 46t216.5 17t229.5 2v-294q-151 0 -230.5 2t-215 18t-258.5 49l-27 -20q25 -131 24 -236t-30 -209l35 -35q134 23 279 34.5t237.5 13.5t247.5 2v-283z" />
    <glyph glyph-name="Igrave" unicode="&#xcc;" horiz-adv-x="641" 
d="M475 1720h-260l-328 361h355zM473 0h-305v1597h305v-1597z" />
    <glyph glyph-name="Iacute" unicode="&#xcd;" horiz-adv-x="641" 
d="M776 2081l-325 -361h-261l232 361h354zM473 0h-305v1597h305v-1597z" />
    <glyph glyph-name="Icircumflex" unicode="&#xce;" horiz-adv-x="641" 
d="M154 1720h-267l291 357h279l291 -357h-267q-24 24 -37.5 40t-33 44t-33 64.5t-23.5 83.5h-73q-13 -61 -35 -108t-41 -70t-51 -54zM473 0h-305v1597h305v-1597z" />
    <glyph glyph-name="Idieresis" unicode="&#xcf;" horiz-adv-x="641" 
d="M86 1731q-75 0 -125.5 51t-50.5 127q0 70 51 119t125 49q70 0 120 -49.5t50 -118.5q0 -76 -49.5 -127t-120.5 -51zM551 1731q-74 0 -124 51t-50 127q0 69 50.5 118.5t123.5 49.5q71 0 120.5 -49.5t49.5 -118.5q0 -76 -49 -127t-121 -51zM473 0h-305v1597h305v-1597z" />
    <glyph glyph-name="Eth" unicode="&#xd0;" horiz-adv-x="1628" 
d="M168 1597h618q156 0 283 -40.5t214.5 -112t146.5 -171.5t86.5 -216t27.5 -248q0 -238 -87 -420t-255.5 -285.5t-396.5 -103.5h-637v676h-207v244h207v677zM768 281q73 0 136.5 15t123.5 52t103 94t68.5 146.5t25.5 204.5q0 524 -516 524q-50 0 -78 1.5t-73.5 12.5
t-88.5 33l-37 -21q38 -218 47 -423h334v-244h-334q-6 -196 -45 -408l35 -35q51 22 108 33t94 13t97 2z" />
    <glyph glyph-name="Ntilde" unicode="&#xd1;" horiz-adv-x="1671" 
d="M979 1737q-75 0 -143 45l-58 39q-44 34 -80 34t-54.5 -28t-18.5 -72h-205q0 144 74 231t188 87q74 0 152 -50l51 -34q41 -27 69 -27q29 0 44.5 26t15.5 70h205q0 -155 -62 -238t-178 -83zM473 0h-305v1597h281q224 -288 402 -559t347 -600h37q-18 210 -26.5 440t-9.5 345
t-1 374h303v-1597h-280q-247 316 -418.5 566.5t-329.5 559.5h-37q18 -204 26.5 -428t9.5 -335.5t1 -362.5z" />
    <glyph glyph-name="Ograve" unicode="&#xd2;" horiz-adv-x="1775" 
d="M1042 1720h-260l-327 361h354zM889 -35q-165 0 -313.5 61.5t-258 169.5t-173.5 264.5t-64 336.5q0 181 64 337.5t173 264.5t257.5 169.5t314.5 61.5t315 -62.5t257 -171.5t171.5 -265t63.5 -334t-63 -333.5t-171 -264.5t-257 -171.5t-316 -62.5zM891 252
q206 0 345.5 155.5t139.5 389.5q0 232 -138 389t-347 157q-102 0 -193 -41t-156.5 -112.5t-104 -173.5t-38.5 -219q0 -157 66 -282.5t178.5 -194t247.5 -68.5z" />
    <glyph glyph-name="Oacute" unicode="&#xd3;" horiz-adv-x="1775" 
d="M1343 2081l-325 -361h-260l231 361h354zM889 -35q-165 0 -313.5 61.5t-258 169.5t-173.5 264.5t-64 336.5q0 181 64 337.5t173 264.5t257.5 169.5t314.5 61.5t315 -62.5t257 -171.5t171.5 -265t63.5 -334t-63 -333.5t-171 -264.5t-257 -171.5t-316 -62.5zM891 252
q206 0 345.5 155.5t139.5 389.5q0 232 -138 389t-347 157q-102 0 -193 -41t-156.5 -112.5t-104 -173.5t-38.5 -219q0 -157 66 -282.5t178.5 -194t247.5 -68.5z" />
    <glyph glyph-name="Ocircumflex" unicode="&#xd4;" horiz-adv-x="1775" 
d="M723 1720h-266l291 357h278l291 -357h-266q-24 24 -37.5 40t-33 44t-33 64.5t-23.5 83.5h-74q-13 -61 -35 -108t-41 -70t-51 -54zM889 -35q-165 0 -313.5 61.5t-258 169.5t-173.5 264.5t-64 336.5q0 181 64 337.5t173 264.5t257.5 169.5t314.5 61.5t315 -62.5t257 -171.5
t171.5 -265t63.5 -334t-63 -333.5t-171 -264.5t-257 -171.5t-316 -62.5zM891 252q206 0 345.5 155.5t139.5 389.5q0 232 -138 389t-347 157q-102 0 -193 -41t-156.5 -112.5t-104 -173.5t-38.5 -219q0 -157 66 -282.5t178.5 -194t247.5 -68.5z" />
    <glyph glyph-name="Otilde" unicode="&#xd5;" horiz-adv-x="1775" 
d="M1047 1737q-76 0 -144 45l-57 39q-44 34 -80 34t-55 -28t-19 -72h-205q0 144 74 231t189 87q73 0 151 -50l51 -34q40 -27 70 -27q29 0 44 26t15 70h205q0 -155 -61.5 -238t-177.5 -83zM889 -35q-165 0 -313.5 61.5t-258 169.5t-173.5 264.5t-64 336.5q0 181 64 337.5
t173 264.5t257.5 169.5t314.5 61.5t315 -62.5t257 -171.5t171.5 -265t63.5 -334t-63 -333.5t-171 -264.5t-257 -171.5t-316 -62.5zM891 252q206 0 345.5 155.5t139.5 389.5q0 232 -138 389t-347 157q-102 0 -193 -41t-156.5 -112.5t-104 -173.5t-38.5 -219q0 -157 66 -282.5
t178.5 -194t247.5 -68.5z" />
    <glyph glyph-name="Odieresis" unicode="&#xd6;" horiz-adv-x="1775" 
d="M653 1731q-75 0 -125.5 51t-50.5 127q0 70 51 119t125 49q70 0 120 -49.5t50 -118.5q0 -76 -49.5 -127t-120.5 -51zM1118 1731q-74 0 -124 51t-50 127q0 69 50.5 118.5t123.5 49.5q72 0 121 -49.5t49 -118.5q0 -76 -49 -127t-121 -51zM889 -35q-165 0 -313.5 61.5
t-258 169.5t-173.5 264.5t-64 336.5q0 181 64 337.5t173 264.5t257.5 169.5t314.5 61.5t315 -62.5t257 -171.5t171.5 -265t63.5 -334t-63 -333.5t-171 -264.5t-257 -171.5t-316 -62.5zM891 252q206 0 345.5 155.5t139.5 389.5q0 232 -138 389t-347 157q-102 0 -193 -41
t-156.5 -112.5t-104 -173.5t-38.5 -219q0 -157 66 -282.5t178.5 -194t247.5 -68.5z" />
    <glyph glyph-name="multiply" unicode="&#xd7;" horiz-adv-x="1024" 
d="M360 623l-262 260l156 157l262 -260l254 254l156 -157l-254 -254l254 -254l-158 -156l-252 256l-260 -260l-156 156z" />
    <glyph glyph-name="Oslash" unicode="&#xd8;" horiz-adv-x="1775" 
d="M1616 1661l-172 -250q119 -112 185.5 -270t66.5 -344q0 -178 -63 -333.5t-171 -264.5t-257 -171.5t-316 -62.5q-201 0 -375 88l-82 -119h-285l177 256q-115 113 -179.5 269t-64.5 338q0 181 64 337.5t173 264.5t257.5 169.5t314.5 61.5q196 0 362 -84l78 115h287z
M399 797q0 -194 103 -344l581 850q-84 40 -192 40q-102 0 -193 -41t-156.5 -112.5t-104 -173.5t-38.5 -219zM891 252q206 0 345.5 155.5t139.5 389.5q0 206 -110 354l-584 -852q96 -47 209 -47z" />
    <glyph glyph-name="Ugrave" unicode="&#xd9;" horiz-adv-x="1525" 
d="M924 1720h-260l-328 361h354zM762 -35q-109 0 -198.5 22.5t-151.5 59.5t-109 90.5t-75 110.5t-45 125.5t-23 128t-6 125.5v970h303v-946q0 -399 307 -399q305 0 305 399v946h305v-970q0 -64 -5.5 -121.5t-22 -126.5t-44 -125.5t-74.5 -111.5t-109.5 -93t-154 -61
t-202.5 -23z" />
    <glyph glyph-name="Uacute" unicode="&#xda;" horiz-adv-x="1525" 
d="M1210 2081l-325 -361h-260l231 361h354zM762 -35q-109 0 -198.5 22.5t-151.5 59.5t-109 90.5t-75 110.5t-45 125.5t-23 128t-6 125.5v970h303v-946q0 -399 307 -399q305 0 305 399v946h305v-970q0 -64 -5.5 -121.5t-22 -126.5t-44 -125.5t-74.5 -111.5t-109.5 -93
t-154 -61t-202.5 -23z" />
    <glyph glyph-name="Ucircumflex" unicode="&#xdb;" horiz-adv-x="1525" 
d="M602 1720h-266l291 357h278l291 -357h-266q-24 24 -37.5 40t-33 44t-33 64.5t-23.5 83.5h-74q-13 -61 -35 -108t-41 -70t-51 -54zM762 -35q-109 0 -198.5 22.5t-151.5 59.5t-109 90.5t-75 110.5t-45 125.5t-23 128t-6 125.5v970h303v-946q0 -399 307 -399q305 0 305 399
v946h305v-970q0 -64 -5.5 -121.5t-22 -126.5t-44 -125.5t-74.5 -111.5t-109.5 -93t-154 -61t-202.5 -23z" />
    <glyph glyph-name="Udieresis" unicode="&#xdc;" horiz-adv-x="1525" 
d="M535 1731q-75 0 -126 51t-51 127q0 70 51.5 119t125.5 49q70 0 120 -49.5t50 -118.5q0 -76 -49.5 -127t-120.5 -51zM999 1731q-74 0 -124 51t-50 127q0 69 50.5 118.5t123.5 49.5q71 0 120.5 -49.5t49.5 -118.5q0 -76 -49 -127t-121 -51zM762 -35q-109 0 -198.5 22.5
t-151.5 59.5t-109 90.5t-75 110.5t-45 125.5t-23 128t-6 125.5v970h303v-946q0 -399 307 -399q305 0 305 399v946h305v-970q0 -64 -5.5 -121.5t-22 -126.5t-44 -125.5t-74.5 -111.5t-109.5 -93t-154 -61t-202.5 -23z" />
    <glyph glyph-name="Yacute" unicode="&#xdd;" horiz-adv-x="1439" 
d="M1149 2081l-326 -361h-260l232 361h354zM872 0h-303q0 354 17 549q-237 406 -578 1048h328q82 -158 131 -258t116 -254t119 -303h35q49 140 110 281.5t116 253.5t120 240q14 27 21 40h328q-374 -699 -578 -1046q18 -184 18 -551z" />
    <glyph glyph-name="Thorn" unicode="&#xde;" horiz-adv-x="1411" 
d="M473 0h-305v1597h305q0 -73 -6.5 -130.5t-11.5 -78t-17 -61.5h346q33 0 70.5 -3.5t94 -16.5t107 -33.5t104 -59.5t92 -90t63 -129t24.5 -172t-24 -172.5t-62.5 -130.5t-90.5 -92.5t-103 -62.5t-105.5 -36t-92 -18t-68.5 -4q-75 0 -116 2.5t-108 19t-131 50.5
q35 -187 35 -379zM436 541l33 -19q45 31 95 46.5t80.5 17.5t84.5 2q39 0 75 4.5t77 19.5t70.5 39.5t49 67.5t19.5 100q0 55 -19.5 97t-48.5 65.5t-69.5 38.5t-75.5 19.5t-74 4.5q-55 0 -88 2t-82.5 13t-93.5 33l-37 -19q30 -140 30.5 -265t-26.5 -267z" />
    <glyph glyph-name="germandbls" unicode="&#xdf;" horiz-adv-x="1366" 
d="M428 0h-287v1020q0 64 7 125t25 127t45 123t71 109t99.5 89t133.5 58.5t170 21.5q124 0 227.5 -38t171.5 -103.5t105 -153t37 -186.5q0 -150 -84 -243t-244 -105v-51q184 -1 289.5 -97t105.5 -260q0 -67 -18 -128t-61 -118t-107.5 -98.5t-164 -66.5t-224.5 -25h-150v260
h191q109 0 170 56.5t61 144.5q0 86 -63 140t-162 54h-113v260h70q88 0 148.5 65t60.5 175q0 112 -67.5 182t-182.5 70q-59 0 -105.5 -20t-73.5 -55t-44.5 -71t-25 -80.5t-9.5 -70t-2 -51.5v-1059z" />
    <glyph glyph-name="agrave" unicode="&#xe0;" horiz-adv-x="1198" 
d="M741 1278h-249l-312 379h338zM451 -35q-101 0 -186 35.5t-141 113t-56 185.5q0 77 28.5 136.5t82 99t115 64.5t142.5 42q213 45 256 61q68 24 80 64q4 14 4 29q0 64 -50 105.5t-132 41.5q-79 0 -137.5 -44.5t-85.5 -137.5l-269 90q26 87 77 151.5t119 102t144 55
t162 17.5q216 0 338.5 -105t122.5 -301v-414q0 -130 9 -205t28 -151h-285q-10 30 -13.5 52t1.5 61.5t22 89.5h-36q-43 -120 -132.5 -179t-207.5 -59zM535 186q108 0 175.5 75t67.5 169v96q-81 -40 -223 -67q-174 -44 -174 -152q0 -59 43 -90t111 -31z" />
    <glyph glyph-name="aacute" unicode="&#xe1;" horiz-adv-x="1198" 
d="M1024 1657l-311 -379h-248l221 379h338zM451 -35q-101 0 -186 35.5t-141 113t-56 185.5q0 77 28.5 136.5t82 99t115 64.5t142.5 42q213 45 256 61q68 24 80 64q4 14 4 29q0 64 -50 105.5t-132 41.5q-79 0 -137.5 -44.5t-85.5 -137.5l-269 90q26 87 77 151.5t119 102
t144 55t162 17.5q216 0 338.5 -105t122.5 -301v-414q0 -130 9 -205t28 -151h-285q-10 30 -13.5 52t1.5 61.5t22 89.5h-36q-43 -120 -132.5 -179t-207.5 -59zM535 186q108 0 175.5 75t67.5 169v96q-81 -40 -223 -67q-174 -44 -174 -152q0 -59 43 -90t111 -31z" />
    <glyph glyph-name="acircumflex" unicode="&#xe2;" horiz-adv-x="1198" 
d="M436 1278h-270l295 371h293l297 -371h-271q-38 44 -57 67.5t-46.5 69.5t-43.5 94h-49q-17 -48 -44.5 -94t-47 -70.5t-56.5 -66.5zM451 -35q-101 0 -186 35.5t-141 113t-56 185.5q0 77 28.5 136.5t82 99t115 64.5t142.5 42q213 45 256 61q68 24 80 64q4 14 4 29
q0 64 -50 105.5t-132 41.5q-79 0 -137.5 -44.5t-85.5 -137.5l-269 90q26 87 77 151.5t119 102t144 55t162 17.5q216 0 338.5 -105t122.5 -301v-414q0 -130 9 -205t28 -151h-285q-10 30 -13.5 52t1.5 61.5t22 89.5h-36q-43 -120 -132.5 -179t-207.5 -59zM535 186
q108 0 175.5 75t67.5 169v96q-81 -40 -223 -67q-174 -44 -174 -152q0 -59 43 -90t111 -31z" />
    <glyph glyph-name="atilde" unicode="&#xe3;" horiz-adv-x="1198" 
d="M772 1280q-75 0 -143 45l-58 39q-45 35 -79 35q-36 0 -55 -28.5t-19 -72.5h-205q0 144 74 231t188 87q75 0 152 -49l51 -35q40 -27 70 -27q28 0 43.5 26.5t15.5 70.5h205q0 -155 -62 -238.5t-178 -83.5zM451 -35q-101 0 -186 35.5t-141 113t-56 185.5q0 77 28.5 136.5
t82 99t115 64.5t142.5 42q213 45 256 61q68 24 80 64q4 14 4 29q0 64 -50 105.5t-132 41.5q-79 0 -137.5 -44.5t-85.5 -137.5l-269 90q26 87 77 151.5t119 102t144 55t162 17.5q216 0 338.5 -105t122.5 -301v-414q0 -130 9 -205t28 -151h-285q-10 30 -13.5 52t1.5 61.5
t22 89.5h-36q-43 -120 -132.5 -179t-207.5 -59zM535 186q108 0 175.5 75t67.5 169v96q-81 -40 -223 -67q-174 -44 -174 -152q0 -59 43 -90t111 -31z" />
    <glyph glyph-name="adieresis" unicode="&#xe4;" horiz-adv-x="1198" 
d="M393 1300q-69 0 -115.5 48.5t-46.5 117.5q0 65 47 111.5t115 46.5q67 0 113.5 -46.5t46.5 -111.5q0 -69 -46.5 -117.5t-113.5 -48.5zM825 1300q-69 0 -116 48.5t-47 117.5q0 65 47.5 111.5t115.5 46.5q67 0 113.5 -46.5t46.5 -111.5q0 -69 -46.5 -117.5t-113.5 -48.5z
M451 -35q-101 0 -186 35.5t-141 113t-56 185.5q0 77 28.5 136.5t82 99t115 64.5t142.5 42q213 45 256 61q68 24 80 64q4 14 4 29q0 64 -50 105.5t-132 41.5q-79 0 -137.5 -44.5t-85.5 -137.5l-269 90q26 87 77 151.5t119 102t144 55t162 17.5q216 0 338.5 -105t122.5 -301
v-414q0 -130 9 -205t28 -151h-285q-10 30 -13.5 52t1.5 61.5t22 89.5h-36q-43 -120 -132.5 -179t-207.5 -59zM535 186q108 0 175.5 75t67.5 169v96q-81 -40 -223 -67q-174 -44 -174 -152q0 -59 43 -90t111 -31z" />
    <glyph glyph-name="aring" unicode="&#xe5;" horiz-adv-x="1198" 
d="M608 1255q-110 0 -185 72.5t-75 177.5q0 106 75 177t185 71q109 0 184.5 -71.5t75.5 -176.5q0 -108 -75 -179t-185 -71zM608 1393q47 0 78 32t31 80q0 45 -31 77t-78 32q-48 0 -78 -31.5t-30 -77.5q0 -48 29.5 -80t78.5 -32zM451 -35q-101 0 -186 35.5t-141 113
t-56 185.5q0 77 28.5 136.5t82 99t115 64.5t142.5 42q213 45 256 61q68 24 80 64q4 14 4 29q0 64 -50 105.5t-132 41.5q-79 0 -137.5 -44.5t-85.5 -137.5l-269 90q26 87 77 151.5t119 102t144 55t162 17.5q216 0 338.5 -105t122.5 -301v-414q0 -130 9 -205t28 -151h-285
q-10 30 -13.5 52t1.5 61.5t22 89.5h-36q-43 -120 -132.5 -179t-207.5 -59zM535 186q108 0 175.5 75t67.5 169v96q-81 -40 -223 -67q-174 -44 -174 -152q0 -59 43 -90t111 -31z" />
    <glyph glyph-name="ae" unicode="&#xe6;" horiz-adv-x="1990" 
d="M463 -35q-109 0 -197 36t-143 113t-55 185q0 69 24 124.5t58.5 89.5t88 61.5t97 41t100.5 25.5q31 7 78.5 16t74 14t61.5 14t54 18t37.5 22.5t26.5 31t8 40.5q0 59 -50.5 102t-129.5 43q-78 0 -138 -46.5t-87 -135.5l-269 90q26 84 77.5 148t119 102t145 57t162.5 19
q268 0 369 -187q137 187 387 187q112 0 210 -37t176 -109t123.5 -191.5t45.5 -271.5v-75h-848q18 -122 103.5 -194.5t201.5 -72.5q91 0 165 47t110 134l268 -109q-58 -146 -201 -239t-340 -93q-160 0 -280.5 69t-182.5 216h-34q-131 -285 -416 -285zM1077 698h545
q-17 83 -61 136.5t-96 73.5t-113 20q-103 0 -175.5 -62t-99.5 -168zM532 184q75 0 133 39.5t85.5 94.5t27.5 112v96q-98 -44 -203 -61q-194 -37 -194 -158q0 -60 42 -91.5t109 -31.5z" />
    <glyph glyph-name="ccedilla" unicode="&#xe7;" horiz-adv-x="1249" 
d="M948 444l269 -108q-58 -165 -196 -263.5t-323 -107.5q-53 -50 -125 -104l19 -17q79 58 131 58q77 0 132.5 -55t55.5 -144q0 -102 -78 -162.5t-204 -60.5q-93 0 -168.5 34t-120.5 95l92 112q73 -96 189 -96q47 0 75.5 21t28.5 59q0 36 -28 57t-72 21q-51 0 -88 -29l-91 68
l101 153q-214 36 -345.5 194.5t-131.5 399.5q0 136 44.5 250.5t122.5 192.5t185 121t231 43q187 0 331.5 -94.5t203.5 -262.5l-268 -108q-32 96 -103.5 143t-163.5 47q-127 0 -206.5 -94t-79.5 -236q0 -150 86 -240.5t213 -90.5q94 0 168.5 52.5t113.5 151.5z" />
    <glyph glyph-name="egrave" unicode="&#xe8;" horiz-adv-x="1265" 
d="M772 1278h-250l-311 379h338zM662 -35q-168 0 -302.5 73.5t-212 211t-77.5 315.5q0 174 72.5 313.5t203 218.5t295.5 79q87 0 167 -22.5t150 -71t122 -119t82 -172.5t30 -224v-80h-836q18 -126 102 -195t201 -69q89 0 160 47.5t109 135.5l268 -109q-60 -146 -201 -239
t-333 -93zM371 694h532q-14 119 -87 177.5t-177 58.5q-106 0 -175.5 -65t-92.5 -171z" />
    <glyph glyph-name="eacute" unicode="&#xe9;" horiz-adv-x="1265" 
d="M1055 1657l-312 -379h-247l221 379h338zM662 -35q-168 0 -302.5 73.5t-212 211t-77.5 315.5q0 174 72.5 313.5t203 218.5t295.5 79q87 0 167 -22.5t150 -71t122 -119t82 -172.5t30 -224v-80h-836q18 -126 102 -195t201 -69q89 0 160 47.5t109 135.5l268 -109
q-60 -146 -201 -239t-333 -93zM371 694h532q-14 119 -87 177.5t-177 58.5q-106 0 -175.5 -65t-92.5 -171z" />
    <glyph glyph-name="ecircumflex" unicode="&#xea;" horiz-adv-x="1265" 
d="M467 1278h-270l295 371h292l297 -371h-270q-38 44 -57 67.5t-46.5 69.5t-43.5 94h-50q-17 -49 -44 -94t-47 -70.5t-56 -66.5zM662 -35q-168 0 -302.5 73.5t-212 211t-77.5 315.5q0 174 72.5 313.5t203 218.5t295.5 79q87 0 167 -22.5t150 -71t122 -119t82 -172.5t30 -224
v-80h-836q18 -126 102 -195t201 -69q89 0 160 47.5t109 135.5l268 -109q-60 -146 -201 -239t-333 -93zM371 694h532q-14 119 -87 177.5t-177 58.5q-106 0 -175.5 -65t-92.5 -171z" />
    <glyph glyph-name="edieresis" unicode="&#xeb;" horiz-adv-x="1265" 
d="M424 1300q-69 0 -115.5 48.5t-46.5 117.5q0 65 47 111.5t115 46.5q67 0 113.5 -46.5t46.5 -111.5q0 -69 -46.5 -117.5t-113.5 -48.5zM856 1300q-69 0 -116.5 48.5t-47.5 117.5q0 65 47.5 111.5t116.5 46.5q67 0 113.5 -46.5t46.5 -111.5q0 -69 -46.5 -117.5t-113.5 -48.5
zM662 -35q-168 0 -302.5 73.5t-212 211t-77.5 315.5q0 174 72.5 313.5t203 218.5t295.5 79q87 0 167 -22.5t150 -71t122 -119t82 -172.5t30 -224v-80h-836q18 -126 102 -195t201 -69q89 0 160 47.5t109 135.5l268 -109q-60 -146 -201 -239t-333 -93zM371 694h532
q-14 119 -87 177.5t-177 58.5q-106 0 -175.5 -65t-92.5 -171z" />
    <glyph glyph-name="igrave" unicode="&#xec;" horiz-adv-x="567" 
d="M418 1262h-250l-311 378h338zM428 0h-287v1143h287v-1143z" />
    <glyph glyph-name="iacute" unicode="&#xed;" horiz-adv-x="567" 
d="M700 1640l-311 -378h-248l221 378h338zM428 0h-287v1143h287v-1143z" />
    <glyph glyph-name="icircumflex" unicode="&#xee;" horiz-adv-x="567" 
d="M113 1262h-271l295 370h293l297 -370h-270q-39 45 -57.5 67.5t-46.5 69t-44 94.5h-49q-17 -49 -44 -94t-47 -70.5t-56 -66.5zM428 0h-287v1143h287v-1143z" />
    <glyph glyph-name="idieresis" unicode="&#xef;" horiz-adv-x="567" 
d="M70 1284q-69 0 -115.5 48.5t-46.5 117.5q0 65 47 111.5t115 46.5q67 0 113 -46.5t46 -111.5q0 -69 -46 -117.5t-113 -48.5zM502 1284q-69 0 -116.5 48.5t-47.5 117.5q0 65 47.5 111.5t116.5 46.5q67 0 113.5 -46.5t46.5 -111.5q0 -69 -46.5 -117.5t-113.5 -48.5zM428 0
h-287v1143h287v-1143z" />
    <glyph glyph-name="eth" unicode="&#xf0;" horiz-adv-x="1351" 
d="M1071 1518l-137 -80q336 -289 336 -746q0 -329 -164.5 -528t-450.5 -199q-132 0 -243 44.5t-186 121.5t-116.5 180.5t-41.5 220.5q0 121 43 224.5t114.5 172t164 107.5t190.5 39q237 0 407 -225h37q-110 274 -332 448l-252 -145l-80 135l187 109q-106 59 -264 116l77 224
q251 -78 435 -197l190 111zM651 229q125 0 206 82.5t81 212.5q0 133 -81 216t-206 83t-205.5 -84.5t-80.5 -214.5q0 -128 79.5 -211.5t206.5 -83.5z" />
    <glyph glyph-name="ntilde" unicode="&#xf1;" horiz-adv-x="1310" 
d="M811 1280q-75 0 -143 45l-58 39q-45 35 -80 35q-36 0 -54.5 -28.5t-18.5 -72.5h-205q0 144 74 231t188 87q75 0 152 -49l51 -35q41 -27 69 -27q29 0 44.5 26.5t15.5 70.5h205q0 -155 -62 -238.5t-178 -83.5zM428 0h-287v1143h283q0 -113 -35 -219h37q115 252 356 252
q81 0 152 -28t127 -82.5t88.5 -143t32.5 -201.5v-721h-287v594q0 307 -215 307q-109 0 -180.5 -78.5t-71.5 -232.5v-590z" />
    <glyph glyph-name="ograve" unicode="&#xf2;" horiz-adv-x="1316" 
d="M795 1278h-250l-312 379h338zM659 -35q-261 0 -425 168.5t-164 435.5q0 266 164.5 436.5t424.5 170.5t425 -170.5t165 -436.5q0 -267 -164.5 -435.5t-425.5 -168.5zM659 240q129 0 210 92t81 237q0 148 -81 240t-210 92t-210.5 -93t-81.5 -239q0 -145 81.5 -237
t210.5 -92z" />
    <glyph glyph-name="oacute" unicode="&#xf3;" horiz-adv-x="1316" 
d="M1075 1657l-311 -379h-248l221 379h338zM659 -35q-261 0 -425 168.5t-164 435.5q0 266 164.5 436.5t424.5 170.5t425 -170.5t165 -436.5q0 -267 -164.5 -435.5t-425.5 -168.5zM659 240q129 0 210 92t81 237q0 148 -81 240t-210 92t-210.5 -93t-81.5 -239
q0 -145 81.5 -237t210.5 -92z" />
    <glyph glyph-name="ocircumflex" unicode="&#xf4;" horiz-adv-x="1316" 
d="M487 1278h-270l295 371h293l297 -371h-271q-38 44 -57 67.5t-46.5 69.5t-43.5 94h-49q-17 -48 -44.5 -94t-47 -70.5t-56.5 -66.5zM659 -35q-261 0 -425 168.5t-164 435.5q0 266 164.5 436.5t424.5 170.5t425 -170.5t165 -436.5q0 -267 -164.5 -435.5t-425.5 -168.5z
M659 240q129 0 210 92t81 237q0 148 -81 240t-210 92t-210.5 -93t-81.5 -239q0 -145 81.5 -237t210.5 -92z" />
    <glyph glyph-name="otilde" unicode="&#xf5;" horiz-adv-x="1316" 
d="M823 1280q-75 0 -143 45l-57 39q-45 35 -80 35q-36 0 -55 -28.5t-19 -72.5h-205q0 144 74 231t188 87q75 0 152 -49l51 -35q41 -27 70 -27q28 0 43.5 26.5t15.5 70.5h205q0 -155 -62 -238.5t-178 -83.5zM659 -35q-261 0 -425 168.5t-164 435.5q0 266 164.5 436.5
t424.5 170.5t425 -170.5t165 -436.5q0 -267 -164.5 -435.5t-425.5 -168.5zM659 240q129 0 210 92t81 237q0 148 -81 240t-210 92t-210.5 -93t-81.5 -239q0 -145 81.5 -237t210.5 -92z" />
    <glyph glyph-name="odieresis" unicode="&#xf6;" horiz-adv-x="1316" 
d="M444 1300q-69 0 -115 48t-46 118q0 65 46.5 111.5t114.5 46.5q67 0 113.5 -46.5t46.5 -111.5q0 -69 -46.5 -117.5t-113.5 -48.5zM877 1300q-69 0 -116.5 48.5t-47.5 117.5q0 65 47.5 111.5t116.5 46.5q67 0 113 -46.5t46 -111.5q0 -69 -46 -117.5t-113 -48.5zM659 -35
q-261 0 -425 168.5t-164 435.5q0 266 164.5 436.5t424.5 170.5t425 -170.5t165 -436.5q0 -267 -164.5 -435.5t-425.5 -168.5zM659 240q129 0 210 92t81 237q0 148 -81 240t-210 92t-210.5 -93t-81.5 -239q0 -145 81.5 -237t210.5 -92z" />
    <glyph glyph-name="divide" unicode="&#xf7;" horiz-adv-x="1114" 
d="M557 858q-63 0 -107 47t-44 113q0 63 43.5 107t107.5 44q66 0 111 -44t45 -109q0 -66 -45.5 -112t-110.5 -46zM1008 516h-902v221h902v-221zM557 86q-63 0 -107 46.5t-44 111.5q0 64 43.5 108.5t107.5 44.5q66 0 111 -45t45 -110q0 -64 -45.5 -110t-110.5 -46z" />
    <glyph glyph-name="oslash" unicode="&#xf8;" horiz-adv-x="1316" 
d="M1245 1188l-147 -197q151 -167 151 -422q0 -267 -164.5 -435.5t-425.5 -168.5q-148 0 -278 62l-62 -84h-247l151 202q-153 162 -153 424q0 266 164.5 436.5t424.5 170.5q157 0 287 -68l60 80h239zM367 569q0 -101 41 -178l366 488q-55 22 -115 22q-129 0 -210.5 -93
t-81.5 -239zM659 240q129 0 210 92t81 237q0 99 -37 172l-358 -483q47 -18 104 -18z" />
    <glyph glyph-name="ugrave" unicode="&#xf9;" horiz-adv-x="1292" 
d="M780 1278h-250l-311 379h338zM541 -35q-193 0 -302.5 117.5t-109.5 343.5v717h287v-619q0 -133 53 -208.5t154 -75.5q110 0 174.5 81.5t64.5 206.5v615h287v-787q0 -131 9 -205.5t28 -150.5h-287q-10 44 -12.5 62.5t2 59.5t22.5 91h-37q-47 -132 -126 -190t-207 -58z" />
    <glyph glyph-name="uacute" unicode="&#xfa;" horiz-adv-x="1292" 
d="M1061 1657l-311 -379h-248l221 379h338zM541 -35q-193 0 -302.5 117.5t-109.5 343.5v717h287v-619q0 -133 53 -208.5t154 -75.5q110 0 174.5 81.5t64.5 206.5v615h287v-787q0 -131 9 -205.5t28 -150.5h-287q-10 44 -12.5 62.5t2 59.5t22.5 91h-37q-47 -132 -126 -190
t-207 -58z" />
    <glyph glyph-name="ucircumflex" unicode="&#xfb;" horiz-adv-x="1292" 
d="M475 1278h-270l295 371h293l297 -371h-271q-38 44 -57 67.5t-46.5 69.5t-43.5 94h-49q-17 -48 -44.5 -94t-47 -70.5t-56.5 -66.5zM541 -35q-193 0 -302.5 117.5t-109.5 343.5v717h287v-619q0 -133 53 -208.5t154 -75.5q110 0 174.5 81.5t64.5 206.5v615h287v-787
q0 -131 9 -205.5t28 -150.5h-287q-10 44 -12.5 62.5t2 59.5t22.5 91h-37q-47 -132 -126 -190t-207 -58z" />
    <glyph glyph-name="udieresis" unicode="&#xfc;" horiz-adv-x="1292" 
d="M430 1300q-69 0 -115.5 48.5t-46.5 117.5q0 65 47 111.5t115 46.5q67 0 113.5 -46.5t46.5 -111.5q0 -69 -46.5 -117.5t-113.5 -48.5zM862 1300q-69 0 -116.5 48.5t-47.5 117.5q0 65 47.5 111.5t116.5 46.5q67 0 113.5 -46.5t46.5 -111.5q0 -69 -46.5 -117.5t-113.5 -48.5
zM541 -35q-193 0 -302.5 117.5t-109.5 343.5v717h287v-619q0 -133 53 -208.5t154 -75.5q110 0 174.5 81.5t64.5 206.5v615h287v-787q0 -131 9 -205.5t28 -150.5h-287q-10 44 -12.5 62.5t2 59.5t22.5 91h-37q-47 -132 -126 -190t-207 -58z" />
    <glyph glyph-name="yacute" unicode="&#xfd;" horiz-adv-x="1202" 
d="M1014 1657l-312 -379h-247l221 379h338zM602 -451h-305l154 402l-443 1192h316q85 -231 147 -432.5t117 -448.5h37q36 168 85.5 340t81.5 266t95 275h307z" />
    <glyph glyph-name="thorn" unicode="&#xfe;" horiz-adv-x="1363" 
d="M428 -451h-287v2089h287v-81v-87.5t-0.5 -80.5t-2 -89.5t-3.5 -83.5t-5.5 -93.5t-8.5 -88t-11 -96.5h35q66 125 155 181.5t206 56.5q149 0 264.5 -82.5t176 -220.5t60.5 -306q0 -135 -42 -249.5t-113.5 -190.5t-165.5 -119t-197 -43q-229 0 -344 221h-37q7 -43 12 -89
t8.5 -80t6 -85.5t4 -75.5t2 -82t0.5 -72.5v-79.5v-73zM711 240q125 0 205.5 92.5t80.5 234.5q0 146 -80.5 240t-205.5 94q-127 0 -208 -93.5t-81 -238.5q0 -146 82 -237.5t207 -91.5z" />
    <glyph glyph-name="ydieresis" unicode="&#xff;" horiz-adv-x="1202" 
d="M383 1300q-69 0 -115.5 48.5t-46.5 117.5q0 65 47 111.5t115 46.5q67 0 113.5 -46.5t46.5 -111.5q0 -69 -46.5 -117.5t-113.5 -48.5zM815 1300q-69 0 -116.5 48.5t-47.5 117.5q0 65 47.5 111.5t116.5 46.5q67 0 113.5 -46.5t46.5 -111.5q0 -69 -46.5 -117.5t-113.5 -48.5
zM602 -451h-305l154 402l-443 1192h316q85 -231 147 -432.5t117 -448.5h37q36 168 85.5 340t81.5 266t95 275h307z" />
    <glyph glyph-name="Amacron" unicode="&#x100;" horiz-adv-x="1576" 
d="M1161 1765h-753v213h753v-213zM319 0h-315l606 1597h357l606 -1597h-326q-36 96 -51.5 137t-39.5 128.5t-32 160.5l-24 25q-150 -41 -312 -41q-163 0 -317 41l-25 -25q-24 -164 -127 -426zM553 680l16 -21q105 39 219 39q112 0 209 -39l17 21q-80 169 -125.5 317
t-67.5 344h-73q-23 -196 -69.5 -345.5t-125.5 -315.5z" />
    <glyph glyph-name="amacron" unicode="&#x101;" horiz-adv-x="1198" 
d="M952 1331h-688v203h688v-203zM451 -35q-101 0 -186 35.5t-141 113t-56 185.5q0 77 28.5 136.5t82 99t115 64.5t142.5 42q213 45 256 61q68 24 80 64q4 14 4 29q0 64 -50 105.5t-132 41.5q-79 0 -137.5 -44.5t-85.5 -137.5l-269 90q26 87 77 151.5t119 102t144 55
t162 17.5q216 0 338.5 -105t122.5 -301v-414q0 -130 9 -205t28 -151h-285q-10 30 -13.5 52t1.5 61.5t22 89.5h-36q-43 -120 -132.5 -179t-207.5 -59zM535 186q108 0 175.5 75t67.5 169v96q-81 -40 -223 -67q-174 -44 -174 -152q0 -59 43 -90t111 -31z" />
    <glyph glyph-name="Abreve" unicode="&#x102;" horiz-adv-x="1576" 
d="M786 1716q-173 0 -285.5 104t-117.5 261h246q2 -68 42.5 -115t114.5 -47q72 0 113.5 47t44.5 115h244q-3 -157 -116 -261t-286 -104zM319 0h-315l606 1597h357l606 -1597h-326q-36 96 -51.5 137t-39.5 128.5t-32 160.5l-24 25q-150 -41 -312 -41q-163 0 -317 41l-25 -25
q-24 -164 -127 -426zM553 680l16 -21q105 39 219 39q112 0 209 -39l17 21q-80 169 -125.5 317t-67.5 344h-73q-23 -196 -69.5 -345.5t-125.5 -315.5z" />
    <glyph glyph-name="abreve" unicode="&#x103;" horiz-adv-x="1198" 
d="M604 1268q-172 0 -276.5 110t-110.5 285h234q2 -80 43 -135t118 -55t118.5 55t43.5 135h234q-6 -176 -113.5 -285.5t-290.5 -109.5zM451 -35q-101 0 -186 35.5t-141 113t-56 185.5q0 77 28.5 136.5t82 99t115 64.5t142.5 42q213 45 256 61q68 24 80 64q4 14 4 29
q0 64 -50 105.5t-132 41.5q-79 0 -137.5 -44.5t-85.5 -137.5l-269 90q26 87 77 151.5t119 102t144 55t162 17.5q216 0 338.5 -105t122.5 -301v-414q0 -130 9 -205t28 -151h-285q-10 30 -13.5 52t1.5 61.5t22 89.5h-36q-43 -120 -132.5 -179t-207.5 -59zM535 186
q108 0 175.5 75t67.5 169v96q-81 -40 -223 -67q-174 -44 -174 -152q0 -59 43 -90t111 -31z" />
    <glyph glyph-name="Aogonek" unicode="&#x104;" horiz-adv-x="1576" 
d="M1278 -158q0 -47 38 -85t114 -38q48 0 88 11v-174q-53 -19 -134 -19q-82 0 -150 25t-112.5 79.5t-44.5 131.5q0 69 45 129t127 98h-2q-36 96 -51.5 137t-39.5 128.5t-32 160.5l-24 25q-150 -41 -312 -41q-163 0 -317 41l-25 -25q-24 -164 -127 -426h-315l606 1597h357
l606 -1597h-127q-49 -10 -84.5 -29t-52.5 -43t-24 -45t-7 -41zM997 659l17 21q-80 169 -125.5 317t-67.5 344h-73q-23 -196 -69.5 -345.5t-125.5 -315.5l16 -21q105 39 219 39q112 0 209 -39z" />
    <glyph glyph-name="aogonek" unicode="&#x105;" horiz-adv-x="1198" 
d="M846 -160q0 -48 35 -79t96 -31q57 0 96 16v-195q-55 -14 -121 -14q-84 0 -152 25.5t-110.5 80.5t-42.5 132q0 76 47 135.5t127 89.5h-4q-10 30 -13.5 52t1.5 61.5t22 89.5h-36q-43 -120 -132.5 -179t-207.5 -59q-101 0 -186 35.5t-141 113t-56 185.5q0 77 28.5 136.5
t82 99t115 64.5t142.5 42q213 45 256 61q68 24 80 64q4 14 4 29q0 64 -50 105.5t-132 41.5q-79 0 -137.5 -44.5t-85.5 -137.5l-269 90q26 87 77 151.5t119 102t144 55t162 17.5q216 0 338.5 -105t122.5 -301v-414q0 -130 9 -205t28 -151h-96q-85 -21 -122.5 -65.5
t-37.5 -94.5zM778 430v96q-81 -40 -223 -67q-174 -44 -174 -152q0 -59 43 -90t111 -31q108 0 175.5 75t67.5 169z" />
    <glyph glyph-name="Cacute" unicode="&#x106;" horiz-adv-x="1701" 
d="M1341 2081l-325 -361h-260l231 361h354zM909 -35q-178 0 -331 60.5t-262.5 169t-171.5 265.5t-62 343q0 194 67.5 353.5t181 261.5t259 157t305.5 55q256 0 452.5 -136t280.5 -366l-282 -112q-64 150 -179 238.5t-276 88.5q-214 0 -352 -152t-138 -403
q0 -113 30.5 -205.5t81 -152.5t118 -101.5t138 -59t144.5 -17.5q172 0 299.5 99.5t186.5 285.5l282 -96q-94 -288 -297 -432t-475 -144z" />
    <glyph glyph-name="cacute" unicode="&#x107;" horiz-adv-x="1249" 
d="M1032 1657l-311 -379h-248l221 379h338zM664 -35q-169 0 -303.5 72.5t-212.5 211t-78 320.5q0 136 44.5 250.5t122.5 192.5t185 121t231 43q187 0 331.5 -94.5t203.5 -262.5l-268 -108q-32 96 -103.5 143t-163.5 47q-127 0 -206.5 -94t-79.5 -236q0 -150 86 -240.5
t213 -90.5q94 0 168.5 52.5t113.5 151.5l269 -108q-61 -173 -208.5 -272t-344.5 -99z" />
    <glyph glyph-name="Cdotaccent" unicode="&#x10a;" horiz-adv-x="1701" 
d="M885 1755q-78 0 -129 51.5t-51 128.5q0 72 51.5 123t128.5 51q73 0 123.5 -51.5t50.5 -122.5q0 -76 -50 -128t-124 -52zM909 -35q-178 0 -331 60.5t-262.5 169t-171.5 265.5t-62 343q0 194 67.5 353.5t181 261.5t259 157t305.5 55q256 0 452.5 -136t280.5 -366l-282 -112
q-64 150 -179 238.5t-276 88.5q-214 0 -352 -152t-138 -403q0 -113 30.5 -205.5t81 -152.5t118 -101.5t138 -59t144.5 -17.5q172 0 299.5 99.5t186.5 285.5l282 -96q-94 -288 -297 -432t-475 -144z" />
    <glyph glyph-name="cdotaccent" unicode="&#x10b;" horiz-adv-x="1249" 
d="M618 1315q-76 0 -127 52.5t-51 129.5q0 71 51 122.5t127 51.5q74 0 125.5 -51.5t51.5 -122.5q0 -77 -51 -129.5t-126 -52.5zM664 -35q-169 0 -303.5 72.5t-212.5 211t-78 320.5q0 136 44.5 250.5t122.5 192.5t185 121t231 43q187 0 331.5 -94.5t203.5 -262.5l-268 -108
q-32 96 -103.5 143t-163.5 47q-127 0 -206.5 -94t-79.5 -236q0 -150 86 -240.5t213 -90.5q94 0 168.5 52.5t113.5 151.5l269 -108q-61 -173 -208.5 -272t-344.5 -99z" />
    <glyph glyph-name="Ccaron" unicode="&#x10c;" horiz-adv-x="1701" 
d="M1024 1720h-287l-286 357h266q32 -31 51 -54t41.5 -70t36.5 -108h72q13 61 35.5 108.5t40.5 69.5t50 54h267zM909 -35q-178 0 -331 60.5t-262.5 169t-171.5 265.5t-62 343q0 194 67.5 353.5t181 261.5t259 157t305.5 55q256 0 452.5 -136t280.5 -366l-282 -112
q-64 150 -179 238.5t-276 88.5q-214 0 -352 -152t-138 -403q0 -113 30.5 -205.5t81 -152.5t118 -101.5t138 -59t144.5 -17.5q172 0 299.5 99.5t186.5 285.5l282 -96q-94 -288 -297 -432t-475 -144z" />
    <glyph glyph-name="ccaron" unicode="&#x10d;" horiz-adv-x="1249" 
d="M762 1294h-293l-295 387h270q11 -16 39.5 -56t42.5 -60.5t33.5 -57t32.5 -73.5h47q13 37 32.5 73t34 57.5t42.5 60.5t40 56h271zM664 -35q-169 0 -303.5 72.5t-212.5 211t-78 320.5q0 136 44.5 250.5t122.5 192.5t185 121t231 43q187 0 331.5 -94.5t203.5 -262.5
l-268 -108q-32 96 -103.5 143t-163.5 47q-127 0 -206.5 -94t-79.5 -236q0 -150 86 -240.5t213 -90.5q94 0 168.5 52.5t113.5 151.5l269 -108q-61 -173 -208.5 -272t-344.5 -99z" />
    <glyph glyph-name="Dcaron" unicode="&#x10e;" horiz-adv-x="1628" 
d="M901 1720h-287l-286 357h266q32 -31 51 -54t41.5 -70t36.5 -108h72q10 47 23.5 83.5t33 64.5t33 44t37.5 40h266zM805 0h-637v1597h618q156 0 283 -40.5t214.5 -112t146.5 -171.5t86.5 -216t27.5 -248q0 -238 -87 -420t-255.5 -285.5t-396.5 -103.5zM434 268l35 -35
q51 22 108 33t94 13t97 2q73 0 136.5 15t123.5 52t103 94t68.5 146.5t25.5 204.5q0 524 -516 524q-50 0 -78 1.5t-73.5 12.5t-88.5 33l-37 -21q100 -554 2 -1075z" />
    <glyph glyph-name="dcaron" unicode="&#x10f;" horiz-adv-x="1368" 
d="M1485 1094h-168q37 64 59 99t65.5 89.5t94.5 99.5q-166 40 -166 166q0 73 53.5 125.5t128.5 52.5q74 0 127.5 -51t53.5 -123q0 -15 -1.5 -29t-7.5 -31.5t-12 -31.5t-19.5 -38.5t-24 -42.5t-33.5 -54t-40.5 -62.5t-50.5 -77.5t-59 -91zM590 -35q-156 0 -274.5 78.5
t-181 215.5t-62.5 312q0 138 41 253t111 191.5t164 118.5t200 42q254 0 346 -261h37q-37 309 -33 723h287v-1282q0 -131 9 -205.5t28 -150.5h-283q-23 90 -6 193h-37q-89 -228 -346 -228zM655 240q127 0 208 94t81 239t-82 237.5t-207 92.5q-126 0 -206 -93t-80 -239
q0 -143 80 -237t206 -94z" />
    <glyph glyph-name="Dcroat" unicode="&#x110;" horiz-adv-x="1628" 
d="M168 1597h618q156 0 283 -40.5t214.5 -112t146.5 -171.5t86.5 -216t27.5 -248q0 -238 -87 -420t-255.5 -285.5t-396.5 -103.5h-637v676h-207v244h207v677zM768 281q73 0 136.5 15t123.5 52t103 94t68.5 146.5t25.5 204.5q0 524 -516 524q-50 0 -78 1.5t-73.5 12.5
t-88.5 33l-37 -21q38 -218 47 -423h334v-244h-334q-6 -196 -45 -408l35 -35q51 22 108 33t94 13t97 2z" />
    <glyph glyph-name="dcroat" unicode="&#x111;" horiz-adv-x="1368" 
d="M1489 1481v-215h-264v-910q0 -131 9 -205.5t28 -150.5h-283q-23 90 -6 193h-37q-89 -228 -346 -228q-156 0 -274.5 78.5t-181 215.5t-62.5 312q0 138 41 253t111 191.5t164 118.5t200 42q254 0 346 -261h37q-23 183 -29 351h-264v215h260v157h287v-157h264zM655 240
q127 0 208 94t81 239t-82 237.5t-207 92.5q-126 0 -206 -93t-80 -239q0 -143 80 -237t206 -94z" />
    <glyph glyph-name="Emacron" unicode="&#x112;" horiz-adv-x="1329" 
d="M1067 1765h-754v213h754v-213zM1233 0h-1065v1597h1044v-280q-166 0 -243.5 1t-223 12t-276.5 34l-37 -21q30 -107 31.5 -208t-23.5 -222l23 -20q125 31 262 46t216.5 17t229.5 2v-294q-151 0 -230.5 2t-215 18t-258.5 49l-27 -20q25 -131 24 -236t-30 -209l35 -35
q134 23 279 34.5t237.5 13.5t247.5 2v-283z" />
    <glyph glyph-name="emacron" unicode="&#x113;" horiz-adv-x="1265" 
d="M983 1331h-688v203h688v-203zM662 -35q-168 0 -302.5 73.5t-212 211t-77.5 315.5q0 174 72.5 313.5t203 218.5t295.5 79q87 0 167 -22.5t150 -71t122 -119t82 -172.5t30 -224v-80h-836q18 -126 102 -195t201 -69q89 0 160 47.5t109 135.5l268 -109q-60 -146 -201 -239
t-333 -93zM371 694h532q-14 119 -87 177.5t-177 58.5q-106 0 -175.5 -65t-92.5 -171z" />
    <glyph glyph-name="Edotaccent" unicode="&#x116;" horiz-adv-x="1329" 
d="M694 1755q-78 0 -129 51.5t-51 128.5q0 72 51.5 123t128.5 51q73 0 123.5 -51.5t50.5 -122.5q0 -76 -50 -128t-124 -52zM1233 0h-1065v1597h1044v-280q-166 0 -243.5 1t-223 12t-276.5 34l-37 -21q30 -107 31.5 -208t-23.5 -222l23 -20q125 31 262 46t216.5 17t229.5 2
v-294q-151 0 -230.5 2t-215 18t-258.5 49l-27 -20q25 -131 24 -236t-30 -209l35 -35q134 23 279 34.5t237.5 13.5t247.5 2v-283z" />
    <glyph glyph-name="edotaccent" unicode="&#x117;" horiz-adv-x="1265" 
d="M641 1315q-76 0 -127 52.5t-51 129.5q0 71 51.5 122.5t126.5 51.5q74 0 125 -51.5t51 -122.5q0 -77 -50.5 -129.5t-125.5 -52.5zM662 -35q-168 0 -302.5 73.5t-212 211t-77.5 315.5q0 174 72.5 313.5t203 218.5t295.5 79q87 0 167 -22.5t150 -71t122 -119t82 -172.5
t30 -224v-80h-836q18 -126 102 -195t201 -69q89 0 160 47.5t109 135.5l268 -109q-60 -146 -201 -239t-333 -93zM371 694h532q-14 119 -87 177.5t-177 58.5q-106 0 -175.5 -65t-92.5 -171z" />
    <glyph glyph-name="Eogonek" unicode="&#x118;" horiz-adv-x="1329" 
d="M1217 -281q48 0 88 11v-174q-53 -19 -134 -19q-82 0 -150 25t-112.5 79.5t-44.5 131.5q0 69 45 129t127 98h-868v1597h1044v-280q-166 0 -243.5 1t-223 12t-276.5 34l-37 -21q30 -107 31.5 -208t-23.5 -222l23 -20q125 31 262 46t216.5 17t229.5 2v-294q-151 0 -230.5 2
t-215 18t-258.5 49l-27 -20q25 -131 24 -236t-30 -209l35 -35q134 23 279 34.5t237.5 13.5t247.5 2v-283q-49 -10 -84.5 -29t-52.5 -43t-24 -45t-7 -41q0 -47 38 -85t114 -38z" />
    <glyph glyph-name="eogonek" unicode="&#x119;" horiz-adv-x="1265" 
d="M827 -14q-61 -24 -87.5 -63.5t-26.5 -82.5q0 -48 35 -79t96 -31q57 0 96 16v-195q-55 -14 -121 -14q-84 0 -152 25.5t-110.5 80.5t-42.5 132q0 120 109 192q-119 6 -221 51.5t-175.5 122.5t-115 186.5t-41.5 237.5q0 174 72.5 313.5t203 218.5t295.5 79q87 0 167 -22.5
t150 -71t122 -119t82 -172.5t30 -224v-80h-836q18 -126 102 -195t201 -69q89 0 160 47.5t109 135.5l268 -109q-45 -111 -141 -194t-228 -117zM639 930q-106 0 -175.5 -65t-92.5 -171h532q-14 119 -87 177.5t-177 58.5z" />
    <glyph glyph-name="Ecaron" unicode="&#x11a;" horiz-adv-x="1329" 
d="M831 1720h-286l-287 357h266q32 -31 51 -54t41.5 -70t36.5 -108h72q10 47 23.5 83.5t33 64.5t33 44t37.5 40h266zM1233 0h-1065v1597h1044v-280q-166 0 -243.5 1t-223 12t-276.5 34l-37 -21q30 -107 31.5 -208t-23.5 -222l23 -20q125 31 262 46t216.5 17t229.5 2v-294
q-151 0 -230.5 2t-215 18t-258.5 49l-27 -20q25 -131 24 -236t-30 -209l35 -35q134 23 279 34.5t237.5 13.5t247.5 2v-283z" />
    <glyph glyph-name="ecaron" unicode="&#x11b;" horiz-adv-x="1265" 
d="M784 1294h-292l-295 387h270q10 -14 39.5 -55.5t42.5 -61.5t32.5 -56.5t32.5 -73.5h48q13 37 32.5 73t34 57.5t42.5 60.5t40 56h270zM662 -35q-168 0 -302.5 73.5t-212 211t-77.5 315.5q0 174 72.5 313.5t203 218.5t295.5 79q87 0 167 -22.5t150 -71t122 -119t82 -172.5
t30 -224v-80h-836q18 -126 102 -195t201 -69q89 0 160 47.5t109 135.5l268 -109q-60 -146 -201 -239t-333 -93zM371 694h532q-14 119 -87 177.5t-177 58.5q-106 0 -175.5 -65t-92.5 -171z" />
    <glyph glyph-name="Gbreve" unicode="&#x11e;" horiz-adv-x="1779" 
d="M885 1716q-173 0 -286 104t-118 261h246q2 -68 43 -115t115 -47q72 0 113 47t44 115h244q-3 -157 -115.5 -261t-285.5 -104zM866 -35q-227 0 -406 106.5t-278.5 296t-99.5 429.5q0 154 42.5 287.5t118 232.5t177.5 170t222.5 107t250.5 36q261 0 458.5 -137.5
t276.5 -364.5l-282 -112q-64 150 -178 238.5t-275 88.5q-103 0 -192.5 -38.5t-156 -108t-105 -175t-38.5 -233.5q0 -116 33 -210t86 -153.5t122.5 -99.5t139 -56.5t140.5 -16.5q337 0 540 371l-32 34q-85 -35 -185 -53.5t-159.5 -21t-151.5 -2.5v247h727v-827h-234
q-1 13 -3.5 46.5t-2.5 52t1 49.5t7.5 63t18.5 68l-47 16q-85 -171 -216.5 -250.5t-318.5 -79.5z" />
    <glyph glyph-name="gbreve" unicode="&#x11f;" horiz-adv-x="1363" 
d="M676 1268q-172 0 -276.5 110t-110.5 285h233q2 -80 43.5 -135t118.5 -55t118.5 55t43.5 135h233q-6 -176 -113 -285.5t-290 -109.5zM653 -483q-65 0 -125 8.5t-124.5 31t-117.5 58t-99.5 94.5t-75.5 135l260 95q41 -93 107.5 -136t166.5 -43q140 0 215.5 83t75.5 233
q0 104 33 164h-37q-56 -130 -142 -182t-196 -52q-125 0 -226 47t-165 127.5t-98.5 185t-34.5 222.5q0 256 147 422t367 166q128 0 216.5 -67t123.5 -194h34q-18 121 -18 228h283v-1028q0 -135 -31.5 -239.5t-84 -171t-127 -109.5t-154.5 -60.5t-173 -17.5zM653 281
q126 0 207.5 91t81.5 222t-82 220t-207 89q-124 0 -205 -89t-81 -220q0 -132 81 -222.5t205 -90.5z" />
    <glyph glyph-name="Gdotaccent" unicode="&#x120;" horiz-adv-x="1779" 
d="M885 1755q-78 0 -129 51.5t-51 128.5q0 72 51.5 123t128.5 51q73 0 123.5 -51.5t50.5 -122.5q0 -76 -50 -128t-124 -52zM866 -35q-227 0 -406 106.5t-278.5 296t-99.5 429.5q0 154 42.5 287.5t118 232.5t177.5 170t222.5 107t250.5 36q261 0 458.5 -137.5t276.5 -364.5
l-282 -112q-64 150 -178 238.5t-275 88.5q-103 0 -192.5 -38.5t-156 -108t-105 -175t-38.5 -233.5q0 -116 33 -210t86 -153.5t122.5 -99.5t139 -56.5t140.5 -16.5q337 0 540 371l-32 34q-85 -35 -185 -53.5t-159.5 -21t-151.5 -2.5v247h727v-827h-234q-1 13 -3.5 46.5
t-2.5 52t1 49.5t7.5 63t18.5 68l-47 16q-85 -171 -216.5 -250.5t-318.5 -79.5z" />
    <glyph glyph-name="gdotaccent" unicode="&#x121;" horiz-adv-x="1363" 
d="M682 1315q-76 0 -127 52.5t-51 129.5q0 71 51 122.5t127 51.5q74 0 125 -51.5t51 -122.5q0 -77 -50.5 -129.5t-125.5 -52.5zM653 -483q-65 0 -125 8.5t-124.5 31t-117.5 58t-99.5 94.5t-75.5 135l260 95q41 -93 107.5 -136t166.5 -43q140 0 215.5 83t75.5 233
q0 104 33 164h-37q-56 -130 -142 -182t-196 -52q-125 0 -226 47t-165 127.5t-98.5 185t-34.5 222.5q0 256 147 422t367 166q128 0 216.5 -67t123.5 -194h34q-18 121 -18 228h283v-1028q0 -135 -31.5 -239.5t-84 -171t-127 -109.5t-154.5 -60.5t-173 -17.5zM653 281
q126 0 207.5 91t81.5 222t-82 220t-207 89q-124 0 -205 -89t-81 -220q0 -132 81 -222.5t205 -90.5z" />
    <glyph glyph-name="uni0122" unicode="&#x122;" horiz-adv-x="1779" 
d="M866 -35q-227 0 -406 106.5t-278.5 296t-99.5 429.5q0 154 42.5 287.5t118 232.5t177.5 170t222.5 107t250.5 36q261 0 458.5 -137.5t276.5 -364.5l-282 -112q-64 150 -178 238.5t-275 88.5q-103 0 -192.5 -38.5t-156 -108t-105 -175t-38.5 -233.5q0 -116 33 -210
t86 -153.5t122.5 -99.5t139 -56.5t140.5 -16.5q337 0 540 371l-32 34q-85 -35 -185 -53.5t-159.5 -21t-151.5 -2.5v247h727v-827h-234q-1 13 -3.5 46.5t-2.5 52t1 49.5t7.5 63t18.5 68l-47 16q-85 -171 -216.5 -250.5t-318.5 -79.5zM879 -649h-154q40 75 80 129.5t106 109.5
q-67 0 -111 42.5t-44 105.5q0 67 45.5 110t113.5 43q69 0 113.5 -43.5t44.5 -111.5q0 -17 -2 -31.5t-10 -35t-16 -36.5t-26.5 -48.5t-34 -58t-47.5 -78.5t-58 -97z" />
    <glyph glyph-name="uni0123" unicode="&#x123;" horiz-adv-x="1363" 
d="M516 1434q0 17 2.5 31t10.5 34.5t16 37t27 50.5t35.5 60.5t49.5 82t60 101.5h160q-92 -165 -175 -287q63 6 97.5 -32.5t34.5 -94.5q0 -65 -44.5 -103t-111.5 -38q-71 0 -116.5 44.5t-45.5 113.5zM653 -483q-65 0 -125 8.5t-124.5 31t-117.5 58t-99.5 94.5t-75.5 135
l260 95q41 -93 107.5 -136t166.5 -43q140 0 215.5 83t75.5 233q0 104 33 164h-37q-56 -130 -142 -182t-196 -52q-125 0 -226 47t-165 127.5t-98.5 185t-34.5 222.5q0 256 147 422t367 166q128 0 216.5 -67t123.5 -194h34q-18 121 -18 228h283v-1028q0 -135 -31.5 -239.5
t-84 -171t-127 -109.5t-154.5 -60.5t-173 -17.5zM653 281q126 0 207.5 91t81.5 222t-82 220t-207 89q-124 0 -205 -89t-81 -220q0 -132 81 -222.5t205 -90.5z" />
    <glyph glyph-name="Hbar" unicode="&#x126;" horiz-adv-x="1660" 
d="M1493 1346h152v-236h-152v-1110h-305q0 140 1 217t9 204.5t23 252.5l-35 20q-182 -51 -349.5 -50.5t-361.5 50.5l-35 -20q15 -123 23 -250.5t9 -205t1 -218.5h-305v1110h-150v236h150v251h305q0 -167 -2 -251h719q-2 84 -2 251h305v-251zM1188 889l33 22q-12 107 -21 199
h-739q-9 -92 -21 -199l33 -22q194 48 362.5 48.5t352.5 -48.5z" />
    <glyph glyph-name="hbar" unicode="&#x127;" horiz-adv-x="1310" 
d="M782 1176q80 0 151 -28t127 -82t89 -143t33 -202v-721h-287v594q0 307 -215 307q-109 0 -180.5 -78.5t-71.5 -232.5v-590h-287v1260h-221v215h221v163h287v-163h303v-215h-309q-9 -164 -33 -336h37q115 252 356 252z" />
    <glyph glyph-name="Imacron" unicode="&#x12a;" horiz-adv-x="641" 
d="M692 1765h-753v213h753v-213zM473 0h-305v1597h305v-1597z" />
    <glyph glyph-name="imacron" unicode="&#x12b;" horiz-adv-x="567" 
d="M629 1315h-688v203h688v-203zM428 0h-287v1143h287v-1143z" />
    <glyph glyph-name="Iogonek" unicode="&#x12e;" horiz-adv-x="641" 
d="M461 -281q48 0 88 11v-174q-53 -19 -133 -19q-82 0 -150 25t-112.5 79.5t-44.5 131.5q0 69 45 129t127 98h-113v1597h305v-1597h4q-49 -10 -84.5 -29t-52.5 -43t-24 -45t-7 -41q0 -47 38 -85t114 -38z" />
    <glyph glyph-name="iogonek" unicode="&#x12f;" horiz-adv-x="567" 
d="M287 1298q-76 0 -127 53t-51 130q0 71 51.5 122.5t126.5 51.5q74 0 125 -51.5t51 -122.5q0 -77 -50.5 -130t-125.5 -53zM236 -160q0 -48 35 -79t96 -31q57 0 96 16v-195q-55 -14 -121 -14q-84 0 -152 25.5t-110.5 80.5t-42.5 132q0 76 47 135.5t127 89.5h-70v1143h287
v-1143h-33q-84 -21 -121.5 -65.5t-37.5 -94.5z" />
    <glyph glyph-name="Idotaccent" unicode="&#x130;" horiz-adv-x="641" 
d="M317 1755q-78 0 -129 51.5t-51 128.5q0 72 51.5 123t128.5 51q73 0 124 -51.5t51 -122.5q0 -76 -50.5 -128t-124.5 -52zM473 0h-305v1597h305v-1597z" />
    <glyph glyph-name="dotlessi" unicode="&#x131;" horiz-adv-x="567" 
d="M428 0h-287v1143h287v-1143z" />
    <glyph glyph-name="uni0136" unicode="&#x136;" horiz-adv-x="1468" 
d="M473 0h-305v1597h305q0 -11 0.5 -96.5t0 -108t-2 -97t-6 -114t-11 -105t-17 -124.5t-25.5 -121h37q303 374 657 766h358q-410 -459 -655 -704v-39q123 -124 253 -282t214 -272t217 -300h-369q-111 153 -164.5 227t-141 204.5t-154.5 242.5h-27q-98 -122 -182 -170
q18 -180 18 -504zM756 -649h-154q40 75 80 129.5t106 109.5q-67 0 -111 42.5t-44 105.5q0 67 46 110t114 43q69 0 113 -43.5t44 -111.5q0 -17 -2 -31.5t-10 -35t-16 -36.5t-26.5 -48.5t-34 -58t-47.5 -78.5t-58 -97z" />
    <glyph glyph-name="uni0137" unicode="&#x137;" horiz-adv-x="1179" 
d="M428 0h-287v1638h287v-113.5v-122.5t-0.5 -112t-2 -124.5t-3.5 -115.5t-5.5 -128t-8.5 -119.5t-11 -130.5h35q139 198 385 471h342l-459 -467q90 -105 187.5 -232.5t158 -211.5t164.5 -232h-336q-207 299 -323 512q-58 -106 -135 -180q12 -106 12 -332zM586 -649h-154
q40 75 80 129.5t106 109.5q-67 0 -111 42.5t-44 105.5q0 67 46 110t114 43q69 0 113 -43.5t44 -111.5q0 -17 -2 -31.5t-10 -35t-16 -36.5t-26.5 -48.5t-34 -58t-47.5 -78.5t-58 -97z" />
    <glyph glyph-name="Lacute" unicode="&#x139;" horiz-adv-x="1202" 
d="M821 2081l-325 -361h-260l231 361h354zM1176 0h-1008v1597h305q0 -292 -1.5 -452.5t-10.5 -412.5t-27 -464l35 -35q121 23 255 34.5t220.5 13.5t231.5 2v-283z" />
    <glyph glyph-name="lacute" unicode="&#x13a;" horiz-adv-x="567" 
d="M756 2122l-326 -361h-260l231 361h355zM428 0h-287v1638h287v-1638z" />
    <glyph glyph-name="uni013B" unicode="&#x13b;" horiz-adv-x="1202" 
d="M1176 0h-1008v1597h305q0 -292 -1.5 -452.5t-10.5 -412.5t-27 -464l35 -35q121 23 255 34.5t220.5 13.5t231.5 2v-283zM612 -649h-153q40 75 80 129.5t106 109.5q-67 0 -111.5 42.5t-44.5 105.5q0 67 46 110t114 43q69 0 113.5 -43.5t44.5 -111.5q0 -20 -5 -39.5
t-11 -36.5t-25.5 -51t-34.5 -60t-52.5 -87.5t-66.5 -110.5z" />
    <glyph glyph-name="uni013C" unicode="&#x13c;" horiz-adv-x="567" 
d="M428 0h-287v1638h287v-1638zM258 -649h-154q39 73 80 128t107 111q-67 0 -111.5 42.5t-44.5 105.5q0 67 46 110t114 43q69 0 113.5 -43.5t44.5 -111.5q0 -20 -5 -39.5t-11 -36.5t-25.5 -51t-34.5 -60t-52.5 -87.5t-66.5 -110.5z" />
    <glyph glyph-name="Lcaron" unicode="&#x13d;" horiz-adv-x="1202" 
d="M870 1030h-165q34 62 57 99t66.5 91t95.5 99q-168 40 -168 166q0 73 53.5 125.5t128.5 52.5t127.5 -51t52.5 -123q0 -15 -1.5 -29t-8 -31.5t-11.5 -31.5t-19 -39t-24.5 -42.5t-34 -54t-40 -62.5t-50.5 -78t-59 -91zM1176 0h-1008v1597h305q0 -292 -1.5 -452.5
t-10.5 -412.5t-27 -464l35 -35q121 23 255 34.5t220.5 13.5t231.5 2v-283z" />
    <glyph glyph-name="lcaron" unicode="&#x13e;" horiz-adv-x="567" 
d="M705 1030h-166q40 70 59 101t63.5 87t96.5 101q-168 40 -168 166q0 74 54 126t130 52q74 0 126 -51t52 -123q0 -14 -2 -27.5t-5 -25.5t-10.5 -29.5t-13.5 -31t-20.5 -38t-25 -42t-32.5 -52t-38 -59t-46.5 -72t-53.5 -82.5zM428 0h-287v1638h287v-1638z" />
    <glyph glyph-name="Lslash" unicode="&#x141;" horiz-adv-x="1202" 
d="M434 268l35 -35q121 23 255 34.5t220.5 13.5t231.5 2v-283h-1008v694l-164 -76v256l164 76v647h305q0 -335 -2 -503l207 96v-258l-213 -98q-6 -266 -31 -566z" />
    <glyph glyph-name="lslash" unicode="&#x142;" horiz-adv-x="567" 
d="M428 1149l170 123v-248l-170 -123v-901h-287v696l-174 -125v248l174 125v694h287v-489z" />
    <glyph glyph-name="Nacute" unicode="&#x143;" horiz-adv-x="1671" 
d="M1276 2081l-326 -361h-260l232 361h354zM473 0h-305v1597h281q224 -288 402 -559t347 -600h37q-18 210 -26.5 440t-9.5 345t-1 374h303v-1597h-280q-247 316 -418.5 566.5t-329.5 559.5h-37q18 -204 26.5 -428t9.5 -335.5t1 -362.5z" />
    <glyph glyph-name="nacute" unicode="&#x144;" horiz-adv-x="1310" 
d="M1063 1657l-311 -379h-248l221 379h338zM428 0h-287v1143h283q0 -113 -35 -219h37q115 252 356 252q81 0 152 -28t127 -82.5t88.5 -143t32.5 -201.5v-721h-287v594q0 307 -215 307q-109 0 -180.5 -78.5t-71.5 -232.5v-590z" />
    <glyph glyph-name="uni0145" unicode="&#x145;" horiz-adv-x="1671" 
d="M473 0h-305v1597h281q224 -288 402 -559t347 -600h37q-18 210 -26.5 440t-9.5 345t-1 374h303v-1597h-280q-247 316 -418.5 566.5t-329.5 559.5h-37q18 -204 26.5 -428t9.5 -335.5t1 -362.5zM831 -649h-153q40 75 80 129.5t106 109.5q-67 0 -111 42.5t-44 105.5
q0 67 45.5 110t113.5 43q69 0 113.5 -43.5t44.5 -111.5q0 -20 -5 -39.5t-11 -36.5t-25.5 -51t-34.5 -60t-52.5 -87.5t-66.5 -110.5z" />
    <glyph glyph-name="uni0146" unicode="&#x146;" horiz-adv-x="1310" 
d="M428 0h-287v1143h283q0 -113 -35 -219h37q115 252 356 252q81 0 152 -28t127 -82.5t88.5 -143t32.5 -201.5v-721h-287v594q0 307 -215 307q-109 0 -180.5 -78.5t-71.5 -232.5v-590zM686 -649h-154q39 73 80 128t107 111q-67 0 -111.5 42.5t-44.5 105.5q0 67 46 110
t114 43q69 0 113.5 -43.5t44.5 -111.5q0 -20 -5 -39.5t-11 -36.5t-25.5 -51t-34.5 -60t-52.5 -87.5t-66.5 -110.5z" />
    <glyph glyph-name="Ncaron" unicode="&#x147;" horiz-adv-x="1671" 
d="M956 1720h-286l-287 357h266q32 -31 51 -54t41.5 -70t36.5 -108h72q10 47 23.5 83.5t33 64.5t33 44t37.5 40h266zM473 0h-305v1597h281q224 -288 402 -559t347 -600h37q-18 210 -26.5 440t-9.5 345t-1 374h303v-1597h-280q-247 316 -418.5 566.5t-329.5 559.5h-37
q18 -204 26.5 -428t9.5 -335.5t1 -362.5z" />
    <glyph glyph-name="ncaron" unicode="&#x148;" horiz-adv-x="1310" 
d="M795 1294h-293l-295 387h270q11 -16 39.5 -56t42.5 -60.5t33.5 -57t32.5 -73.5h47q13 37 32.5 73t34 57.5t42.5 60.5t40 56h271zM428 0h-287v1143h283q0 -113 -35 -219h37q115 252 356 252q81 0 152 -28t127 -82.5t88.5 -143t32.5 -201.5v-721h-287v594q0 307 -215 307
q-109 0 -180.5 -78.5t-71.5 -232.5v-590z" />
    <glyph glyph-name="Eng" unicode="&#x14a;" horiz-adv-x="1671" 
d="M1014 -483q-82 0 -178 14t-140 29v250q30 -14 94 -24.5t138 -10.5q130 0 192 59t68 207q-225 289 -393 532t-322 521h-37q18 -189 26.5 -405.5t9.5 -327t1 -361.5h-305v1597h281q218 -280 398 -548.5t351 -579.5h37q-18 196 -26.5 418.5t-9.5 336.5t-1 373h303v-1579
q0 -71 -9.5 -133t-41 -132.5t-82.5 -120t-142 -82.5t-212 -33z" />
    <glyph glyph-name="eng" unicode="&#x14b;" horiz-adv-x="1310" 
d="M805 -483q-123 0 -230 43v247q84 -34 168 -34q32 0 56.5 7t40 17t27 28.5t17 33t8 39t3 37.5t0.5 38v621q0 307 -215 307q-109 0 -180.5 -78.5t-71.5 -232.5v-590h-287v1143h283q0 -113 -35 -219h37q115 252 356 252q81 0 152 -27.5t127 -81.5t88.5 -142.5t32.5 -201.5
v-737q0 -57 -1 -88.5t-8 -88.5t-20.5 -90.5t-41 -77t-66.5 -67t-100.5 -40.5t-139.5 -17z" />
    <glyph glyph-name="Omacron" unicode="&#x14c;" horiz-adv-x="1775" 
d="M1260 1765h-754v213h754v-213zM889 -35q-165 0 -313.5 61.5t-258 169.5t-173.5 264.5t-64 336.5q0 181 64 337.5t173 264.5t257.5 169.5t314.5 61.5t315 -62.5t257 -171.5t171.5 -265t63.5 -334t-63 -333.5t-171 -264.5t-257 -171.5t-316 -62.5zM891 252
q206 0 345.5 155.5t139.5 389.5q0 232 -138 389t-347 157q-102 0 -193 -41t-156.5 -112.5t-104 -173.5t-38.5 -219q0 -157 66 -282.5t178.5 -194t247.5 -68.5z" />
    <glyph glyph-name="omacron" unicode="&#x14d;" horiz-adv-x="1316" 
d="M1004 1331h-689v203h689v-203zM659 -35q-261 0 -425 168.5t-164 435.5q0 266 164.5 436.5t424.5 170.5t425 -170.5t165 -436.5q0 -267 -164.5 -435.5t-425.5 -168.5zM659 240q129 0 210 92t81 237q0 148 -81 240t-210 92t-210.5 -93t-81.5 -239q0 -145 81.5 -237
t210.5 -92z" />
    <glyph glyph-name="Ohungarumlaut" unicode="&#x150;" horiz-adv-x="1775" 
d="M1061 2079l-309 -359h-250l219 359h340zM1528 2079l-314 -359h-249l223 359h340zM889 -35q-165 0 -313.5 61.5t-258 169.5t-173.5 264.5t-64 336.5q0 181 64 337.5t173 264.5t257.5 169.5t314.5 61.5t315 -62.5t257 -171.5t171.5 -265t63.5 -334t-63 -333.5t-171 -264.5
t-257 -171.5t-316 -62.5zM891 252q206 0 345.5 155.5t139.5 389.5q0 232 -138 389t-347 157q-102 0 -193 -41t-156.5 -112.5t-104 -173.5t-38.5 -219q0 -157 66 -282.5t178.5 -194t247.5 -68.5z" />
    <glyph glyph-name="ohungarumlaut" unicode="&#x151;" horiz-adv-x="1316" 
d="M813 1673l-317 -395h-242l227 395h332zM1284 1673l-323 -395h-242l233 395h332zM659 -35q-261 0 -425 168.5t-164 435.5q0 266 164.5 436.5t424.5 170.5t425 -170.5t165 -436.5q0 -267 -164.5 -435.5t-425.5 -168.5zM659 240q129 0 210 92t81 237q0 148 -81 240t-210 92
t-210.5 -93t-81.5 -239q0 -145 81.5 -237t210.5 -92z" />
    <glyph glyph-name="OE" unicode="&#x152;" horiz-adv-x="2541" 
d="M883 -35q-165 0 -312 61.5t-255 169.5t-171 264t-63 337t63 337t171 264.5t255 170t312 61.5q299 0 497 -213v180h1045v-280q-166 0 -243.5 1t-223.5 12t-277 34l-36 -21q30 -107 31.5 -208t-23.5 -222l33 -20q120 31 255 46t214 17t229 2v-294q-151 0 -230 2t-213 18
t-253 49l-35 -20q25 -131 24 -236t-30 -209l34 -35q134 23 279 34.5t237.5 13.5t247.5 2v-283h-1065v176q-199 -211 -497 -211zM885 252q206 0 342.5 154.5t136.5 394.5q0 236 -134.5 389t-340.5 153q-210 0 -349 -154.5t-139 -391.5q0 -238 139.5 -391.5t344.5 -153.5z" />
    <glyph glyph-name="oe" unicode="&#x153;" horiz-adv-x="2146" 
d="M659 -35q-261 0 -425 168.5t-164 435.5q0 266 164.5 436.5t424.5 170.5q137 0 247.5 -52.5t185.5 -148.5q69 94 179.5 147.5t246.5 53.5q113 0 211.5 -37t176.5 -109t123.5 -191.5t45.5 -271.5v-47h-848q13 -133 100.5 -215t204.5 -82q89 0 163.5 48t110.5 135l269 -109
q-60 -146 -202.5 -239t-338.5 -93q-139 0 -254.5 51.5t-187.5 145.5q-75 -94 -185.5 -145.5t-247.5 -51.5zM1235 698h543q-23 121 -98.5 177.5t-170.5 56.5q-103 0 -176 -64t-98 -170zM659 240q129 0 210 92t81 237q0 146 -81 239t-210 93t-210.5 -93t-81.5 -239
q0 -145 81.5 -237t210.5 -92z" />
    <glyph glyph-name="Racute" unicode="&#x154;" horiz-adv-x="1437" 
d="M1096 2081l-326 -361h-260l231 361h355zM473 0h-305v1597h616q30 0 65.5 -3.5t91.5 -16.5t107.5 -34t106 -61t94 -92t65 -131.5t25.5 -175.5q0 -108 -38 -191.5t-103 -133t-141.5 -76t-163.5 -31.5v-37q75 -72 140.5 -146t135 -168t101 -139.5t108.5 -160.5h-344
l-391 590q-90 6 -207 59q17 -106 26 -234.5t10 -206t1 -208.5zM436 795l33 -21q100 51 260 51q37 0 74.5 7.5t77.5 26t70 46t49.5 72.5t19.5 100t-19 98.5t-49 70t-69.5 44t-76 24.5t-73.5 7q-53 0 -83.5 1.5t-81 11.5t-99.5 30l-37 -21q59 -267 4 -548z" />
    <glyph glyph-name="racute" unicode="&#x155;" horiz-adv-x="892" 
d="M897 1657l-311 -379h-248l221 379h338zM428 0h-287v1143h283q0 -5 0.5 -34t0 -43.5t-3 -43.5t-9 -60.5t-17.5 -68.5h37q88 283 322 283q56 0 110 -21v-321q-65 22 -139 22q-297 0 -297 -414v-442z" />
    <glyph glyph-name="uni0156" unicode="&#x156;" horiz-adv-x="1437" 
d="M473 0h-305v1597h616q30 0 65.5 -3.5t91.5 -16.5t107.5 -34t106 -61t94 -92t65 -131.5t25.5 -175.5q0 -108 -38 -191.5t-103 -133t-141.5 -76t-163.5 -31.5v-37q75 -72 140.5 -146t135 -168t101 -139.5t108.5 -160.5h-344l-391 590q-90 6 -207 59q17 -106 26 -234.5
t10 -206t1 -208.5zM436 795l33 -21q100 51 260 51q37 0 74.5 7.5t77.5 26t70 46t49.5 72.5t19.5 100t-19 98.5t-49 70t-69.5 44t-76 24.5t-73.5 7q-53 0 -83.5 1.5t-81 11.5t-99.5 30l-37 -21q59 -267 4 -548zM674 -649h-154q39 73 80 128t107 111q-67 0 -111.5 42.5
t-44.5 105.5q0 67 46 110t114 43q69 0 113 -43.5t44 -111.5q0 -17 -2 -31.5t-10 -35t-16 -36.5t-26.5 -48.5t-34 -58t-47.5 -78.5t-58 -97z" />
    <glyph glyph-name="uni0157" unicode="&#x157;" horiz-adv-x="892" 
d="M428 0h-287v1143h283q0 -5 0.5 -34t0 -43.5t-3 -43.5t-9 -60.5t-17.5 -68.5h37q88 283 322 283q56 0 110 -21v-321q-65 22 -139 22q-297 0 -297 -414v-442zM252 -649h-154q39 73 80 128t107 111q-67 0 -111.5 42.5t-44.5 105.5q0 67 46 110t114 43q69 0 113 -43.5
t44 -111.5q0 -17 -2 -31.5t-10 -35t-16 -36.5t-26.5 -48.5t-34 -58t-47.5 -78.5t-58 -97z" />
    <glyph glyph-name="Rcaron" unicode="&#x158;" horiz-adv-x="1437" 
d="M778 1720h-286l-287 357h266q32 -31 51 -54t41.5 -70t36.5 -108h72q10 47 23.5 83.5t33 64.5t33 44t37.5 40h266zM473 0h-305v1597h616q30 0 65.5 -3.5t91.5 -16.5t107.5 -34t106 -61t94 -92t65 -131.5t25.5 -175.5q0 -108 -38 -191.5t-103 -133t-141.5 -76t-163.5 -31.5
v-37q75 -72 140.5 -146t135 -168t101 -139.5t108.5 -160.5h-344l-391 590q-90 6 -207 59q17 -106 26 -234.5t10 -206t1 -208.5zM436 795l33 -21q100 51 260 51q37 0 74.5 7.5t77.5 26t70 46t49.5 72.5t19.5 100t-19 98.5t-49 70t-69.5 44t-76 24.5t-73.5 7q-53 0 -83.5 1.5
t-81 11.5t-99.5 30l-37 -21q59 -267 4 -548z" />
    <glyph glyph-name="rcaron" unicode="&#x159;" horiz-adv-x="892" 
d="M629 1294h-293l-295 387h270q11 -16 39.5 -56t42.5 -60.5t33.5 -57t32.5 -73.5h47q13 37 32.5 73t34 57.5t42.5 60.5t40 56h271zM428 0h-287v1143h283q0 -5 0.5 -34t0 -43.5t-3 -43.5t-9 -60.5t-17.5 -68.5h37q88 283 322 283q56 0 110 -21v-321q-65 22 -139 22
q-297 0 -297 -414v-442z" />
    <glyph glyph-name="Sacute" unicode="&#x15a;" horiz-adv-x="1343" 
d="M1059 2081l-328 -361h-260l234 361h354zM690 -35q-237 0 -407 124t-226 349l285 97q22 -81 59.5 -140t84.5 -91.5t96.5 -47t103.5 -14.5q112 0 189 52t77 144q0 39 -16.5 71t-38 52t-64 40.5t-70 30.5t-81.5 27l-143 43q-47 14 -87 29.5t-92.5 42t-93.5 61.5t-77 80.5
t-56 108t-20 135.5q0 141 74 249.5t198.5 165t278.5 56.5q216 0 365 -108.5t190 -264.5l-279 -112q-79 209 -283 209q-100 0 -162.5 -48t-62.5 -122q0 -37 17.5 -69t42.5 -54t65.5 -43t72.5 -33t79 -27l168 -53q35 -11 52.5 -17t55.5 -21t60.5 -27t57 -33.5t55.5 -43
t46 -52.5t39 -65t23.5 -78t9.5 -93q0 -221 -161 -365.5t-425 -144.5z" />
    <glyph glyph-name="sacute" unicode="&#x15b;" horiz-adv-x="1058" 
d="M934 1661l-311 -379h-248l221 379h338zM543 -35q-192 0 -325 87.5t-173 234.5l266 86q36 -89 98.5 -130.5t131.5 -41.5q60 0 104.5 26t44.5 82q0 24 -10.5 43.5t-23.5 31.5t-39 24t-42 17.5t-47 14.5l-120 37q-310 95 -310 340q0 162 121.5 260.5t308.5 98.5
q167 0 284 -81t153 -208l-265 -86q-51 141 -180 141q-60 0 -97.5 -29.5t-37.5 -76.5q0 -20 8 -37t25 -31t33.5 -24.5t43 -20.5t44.5 -16t47 -15l88 -24q34 -9 53.5 -15.5t57.5 -21.5t62.5 -30.5t55.5 -42t49 -56.5t30.5 -73t12.5 -93q0 -169 -122.5 -270t-329.5 -101z" />
    <glyph glyph-name="Scedilla" unicode="&#x15e;" horiz-adv-x="1343" 
d="M1276 475q0 -136 -63 -246.5t-182.5 -180t-278.5 -81.5q-24 -24 -127 -106l18 -17q79 58 131 58q77 0 133 -55t56 -144q0 -102 -78.5 -162.5t-204.5 -60.5q-93 0 -168.5 34t-120.5 95l92 112q73 -96 189 -96q47 0 75.5 21t28.5 59q0 36 -28 57t-72 21q-51 0 -88 -29
l-90 68l98 149q-203 24 -346 145t-193 322l285 97q22 -81 59.5 -140t84.5 -91.5t96.5 -47t103.5 -14.5q112 0 189 52t77 144q0 39 -16.5 71t-38 52t-64 40.5t-70 30.5t-81.5 27l-143 43q-47 14 -87 29.5t-92.5 42t-93.5 61.5t-77 80.5t-56 108t-20 135.5q0 141 74 249.5
t198.5 165t278.5 56.5q216 0 365 -108.5t190 -264.5l-279 -112q-79 209 -283 209q-100 0 -162.5 -48t-62.5 -122q0 -37 17.5 -69t42.5 -54t65.5 -43t72.5 -33t79 -27l168 -53q35 -11 52.5 -17t55.5 -21t60.5 -27t57 -33.5t55.5 -43t46 -52.5t39 -65t23.5 -78t9.5 -93z" />
    <glyph glyph-name="scedilla" unicode="&#x15f;" horiz-adv-x="1058" 
d="M995 336q0 -158 -108 -257.5t-293 -111.5q-41 -41 -127 -106l18 -17q79 58 131 58q77 0 133 -55t56 -144q0 -102 -78.5 -162.5t-204.5 -60.5q-93 0 -168.5 34t-120.5 95l93 112q73 -96 188 -96q47 0 75.5 21t28.5 59q0 36 -28 57t-72 21q-51 0 -88 -29l-90 68l98 151
q-152 22 -255.5 105t-137.5 209l266 86q36 -89 98.5 -130.5t131.5 -41.5q60 0 104.5 26t44.5 82q0 24 -10.5 43.5t-23.5 31.5t-39 24t-42 17.5t-47 14.5l-120 37q-310 95 -310 340q0 162 121.5 260.5t308.5 98.5q167 0 284 -81t153 -208l-265 -86q-51 141 -180 141
q-60 0 -97.5 -29.5t-37.5 -76.5q0 -20 8 -37t25 -31t33.5 -24.5t43 -20.5t44.5 -16t47 -15l88 -24q34 -9 53.5 -15.5t57.5 -21.5t62.5 -30.5t55.5 -42t49 -56.5t30.5 -73t12.5 -93z" />
    <glyph glyph-name="Scaron" unicode="&#x160;" horiz-adv-x="1343" 
d="M801 1720h-287l-287 357h267q32 -31 51 -54t41.5 -70t36.5 -108h71q10 47 23.5 83.5t33 64.5t33 44t37.5 40h266zM690 -35q-237 0 -407 124t-226 349l285 97q22 -81 59.5 -140t84.5 -91.5t96.5 -47t103.5 -14.5q112 0 189 52t77 144q0 39 -16.5 71t-38 52t-64 40.5
t-70 30.5t-81.5 27l-143 43q-47 14 -87 29.5t-92.5 42t-93.5 61.5t-77 80.5t-56 108t-20 135.5q0 141 74 249.5t198.5 165t278.5 56.5q216 0 365 -108.5t190 -264.5l-279 -112q-79 209 -283 209q-100 0 -162.5 -48t-62.5 -122q0 -37 17.5 -69t42.5 -54t65.5 -43t72.5 -33
t79 -27l168 -53q35 -11 52.5 -17t55.5 -21t60.5 -27t57 -33.5t55.5 -43t46 -52.5t39 -65t23.5 -78t9.5 -93q0 -221 -161 -365.5t-425 -144.5z" />
    <glyph glyph-name="scaron" unicode="&#x161;" horiz-adv-x="1058" 
d="M664 1296h-293l-295 387h270q11 -16 39.5 -56t42.5 -60.5t33.5 -57t32.5 -73.5h47q13 37 32.5 73t34 57.5t42.5 60.5t40 56h271zM543 -35q-192 0 -325 87.5t-173 234.5l266 86q36 -89 98.5 -130.5t131.5 -41.5q60 0 104.5 26t44.5 82q0 24 -10.5 43.5t-23.5 31.5t-39 24
t-42 17.5t-47 14.5l-120 37q-310 95 -310 340q0 162 121.5 260.5t308.5 98.5q167 0 284 -81t153 -208l-265 -86q-51 141 -180 141q-60 0 -97.5 -29.5t-37.5 -76.5q0 -20 8 -37t25 -31t33.5 -24.5t43 -20.5t44.5 -16t47 -15l88 -24q34 -9 53.5 -15.5t57.5 -21.5t62.5 -30.5
t55.5 -42t49 -56.5t30.5 -73t12.5 -93q0 -169 -122.5 -270t-329.5 -101z" />
    <glyph glyph-name="uni0162" unicode="&#x162;" horiz-adv-x="1314" 
d="M27 1597h1261v-280q-107 0 -166.5 1t-158 9.5t-189.5 24.5q16 -221 24.5 -478t9.5 -419.5t1 -454.5h-66q-32 -46 -155 -139l18 -17q79 58 131 58q77 0 133 -55t56 -144q0 -102 -78.5 -162.5t-204.5 -60.5q-93 0 -168.5 34t-120.5 95l92 112q73 -96 189 -96q47 0 75.5 21
t28.5 59q0 36 -28 57t-72 21q-51 0 -88 -29l-90 68l117 178h-72q0 292 1 454.5t10 419.5t26 478q-92 -16 -191 -24.5t-158.5 -9.5t-166.5 -1v280z" />
    <glyph glyph-name="uni0163" unicode="&#x163;" horiz-adv-x="907" 
d="M848 1143v-260q-74 0 -109.5 0.5t-103.5 7.5t-133 20q17 -77 26 -163t10 -137.5t1 -143.5q0 -32 0.5 -48.5t3 -46.5t8 -46.5t17 -38.5t27.5 -33.5t41.5 -20t57.5 -8.5q77 0 154 41v-258q-79 -43 -213 -43q-35 0 -51 2q-41 -41 -127 -106l18 -17q79 58 131 58
q77 0 133 -55t56 -144q0 -102 -78.5 -162.5t-204.5 -60.5q-93 0 -168.5 34t-120.5 95l92 112q73 -96 189 -96q47 0 75.5 21t28.5 59q0 36 -28 57t-72 21q-51 0 -88 -29l-90 68l114 174q-55 22 -94 60.5t-57.5 74.5t-28.5 87.5t-11 78t-1 68.5q0 115 1 179t10 168.5t26 198.5
q-53 -14 -104.5 -20.5t-78 -7t-79.5 -0.5v260q149 0 262 -29q-17 63 -26 130.5t-10 108t-1 113.5h287q0 -73 -1 -113.5t-10 -108t-26 -130.5q139 29 346 29z" />
    <glyph glyph-name="Tcaron" unicode="&#x164;" horiz-adv-x="1314" 
d="M801 1720h-287l-287 357h267q32 -31 51 -54t41.5 -70t36.5 -108h71q10 47 23.5 83.5t33 64.5t33 44t37.5 40h266zM809 0h-303q0 292 1 454.5t10 419.5t26 478q-92 -16 -191 -24.5t-158.5 -9.5t-166.5 -1v280h1261v-280q-107 0 -166.5 1t-158 9.5t-189.5 24.5
q16 -221 24.5 -478t9.5 -419.5t1 -454.5z" />
    <glyph glyph-name="tcaron" unicode="&#x165;" horiz-adv-x="907" 
d="M1116 1047h-166q37 64 59 99t65.5 89.5t94.5 99.5q-168 38 -168 166q0 73 55 125.5t130 52.5q73 0 126.5 -51.5t53.5 -122.5q0 -15 -1.5 -29t-8 -31.5t-11.5 -31t-19.5 -38.5t-25 -43t-33.5 -54t-40 -62t-51.5 -78t-59.5 -91zM635 -35q-62 0 -114 10.5t-89 26t-66.5 41.5
t-48 49.5t-32 57.5t-19.5 58t-9.5 59t-4 52.5t-0.5 45.5q0 115 1 179t10 168.5t26 198.5q-53 -14 -104.5 -20.5t-78 -7t-79.5 -0.5v260q149 0 262 -29q-17 63 -26 130.5t-10 108t-1 113.5h287q0 -73 -1 -113.5t-10 -108t-26 -130.5q139 29 346 29v-260q-74 0 -109.5 0.5
t-103.5 7.5t-133 20q17 -77 26 -163t10 -137.5t1 -143.5q0 -32 0.5 -48.5t3 -46.5t8 -46.5t17 -38.5t27.5 -33.5t41.5 -20t57.5 -8.5q77 0 154 41v-258q-79 -43 -213 -43z" />
    <glyph glyph-name="Tbar" unicode="&#x166;" horiz-adv-x="1314" 
d="M1288 1597v-280q-107 0 -166.5 1t-158 9.5t-189.5 24.5q18 -271 23 -432h288v-244h-280q4 -229 4 -676h-303q0 447 4 676h-277v244h285q11 263 25 432q-92 -16 -191 -24.5t-158.5 -9.5t-166.5 -1v280h1261z" />
    <glyph glyph-name="tbar" unicode="&#x167;" horiz-adv-x="907" 
d="M848 1143v-260q-74 0 -109.5 0.5t-103.5 7.5t-133 20q24 -114 30 -215h308v-215h-301v-14q0 -32 0.5 -48.5t3 -46.5t8 -46.5t17 -38.5t27.5 -33.5t41.5 -20t57.5 -8.5q77 0 154 41v-258q-79 -43 -213 -43q-62 0 -114 10.5t-89 26t-66.5 41.5t-48 49.5t-32 57.5t-19.5 58
t-9.5 59t-4 52.5t-0.5 45.5v116h-223v215h231q9 108 29 215q-53 -14 -104.5 -20.5t-78 -7t-79.5 -0.5v260q149 0 262 -29q-17 63 -26 130.5t-10 108t-1 113.5h287q0 -73 -1 -113.5t-10 -108t-26 -130.5q139 29 346 29z" />
    <glyph glyph-name="Umacron" unicode="&#x16a;" horiz-adv-x="1525" 
d="M1141 1765h-754v213h754v-213zM762 -35q-109 0 -198.5 22.5t-151.5 59.5t-109 90.5t-75 110.5t-45 125.5t-23 128t-6 125.5v970h303v-946q0 -399 307 -399q305 0 305 399v946h305v-970q0 -64 -5.5 -121.5t-22 -126.5t-44 -125.5t-74.5 -111.5t-109.5 -93t-154 -61
t-202.5 -23z" />
    <glyph glyph-name="umacron" unicode="&#x16b;" horiz-adv-x="1292" 
d="M989 1331h-688v203h688v-203zM541 -35q-193 0 -302.5 117.5t-109.5 343.5v717h287v-619q0 -133 53 -208.5t154 -75.5q110 0 174.5 81.5t64.5 206.5v615h287v-787q0 -131 9 -205.5t28 -150.5h-287q-10 44 -12.5 62.5t2 59.5t22.5 91h-37q-47 -132 -126 -190t-207 -58z" />
    <glyph glyph-name="Uring" unicode="&#x16e;" horiz-adv-x="1525" 
d="M764 1710q-110 0 -186 73t-76 177q0 105 75.5 176.5t186.5 71.5q109 0 183.5 -71.5t74.5 -176.5q0 -108 -74 -179t-184 -71zM764 1847q45 0 75.5 32.5t30.5 80.5q0 45 -30.5 76.5t-75.5 31.5q-50 0 -80.5 -31t-30.5 -77q0 -48 30.5 -80.5t80.5 -32.5zM762 -35
q-109 0 -198.5 22.5t-151.5 59.5t-109 90.5t-75 110.5t-45 125.5t-23 128t-6 125.5v970h303v-946q0 -399 307 -399q305 0 305 399v946h305v-970q0 -64 -5.5 -121.5t-22 -126.5t-44 -125.5t-74.5 -111.5t-109.5 -93t-154 -61t-202.5 -23z" />
    <glyph glyph-name="uring" unicode="&#x16f;" horiz-adv-x="1292" 
d="M645 1255q-110 0 -185 72.5t-75 177.5q0 106 75 177t185 71q109 0 184.5 -71.5t75.5 -176.5q0 -108 -75 -179t-185 -71zM645 1393q47 0 78 32t31 80q0 45 -31 77t-78 32q-48 0 -78 -31.5t-30 -77.5q0 -48 29.5 -80t78.5 -32zM541 -35q-193 0 -302.5 117.5t-109.5 343.5
v717h287v-619q0 -133 53 -208.5t154 -75.5q110 0 174.5 81.5t64.5 206.5v615h287v-787q0 -131 9 -205.5t28 -150.5h-287q-10 44 -12.5 62.5t2 59.5t22.5 91h-37q-47 -132 -126 -190t-207 -58z" />
    <glyph glyph-name="Uhungarumlaut" unicode="&#x170;" horiz-adv-x="1525" 
d="M942 2079l-309 -359h-250l219 359h340zM1409 2079l-313 -359h-250l223 359h340zM762 -35q-109 0 -198.5 22.5t-151.5 59.5t-109 90.5t-75 110.5t-45 125.5t-23 128t-6 125.5v970h303v-946q0 -399 307 -399q305 0 305 399v946h305v-970q0 -64 -5.5 -121.5t-22 -126.5
t-44 -125.5t-74.5 -111.5t-109.5 -93t-154 -61t-202.5 -23z" />
    <glyph glyph-name="uhungarumlaut" unicode="&#x171;" horiz-adv-x="1292" 
d="M801 1673l-318 -395h-241l227 395h332zM1272 1673l-324 -395h-241l233 395h332zM541 -35q-193 0 -302.5 117.5t-109.5 343.5v717h287v-619q0 -133 53 -208.5t154 -75.5q110 0 174.5 81.5t64.5 206.5v615h287v-787q0 -131 9 -205.5t28 -150.5h-287q-10 44 -12.5 62.5
t2 59.5t22.5 91h-37q-47 -132 -126 -190t-207 -58z" />
    <glyph glyph-name="Uogonek" unicode="&#x172;" horiz-adv-x="1525" 
d="M1069 651v946h305v-970q0 -566 -452 -647q-54 -25 -76.5 -63t-22.5 -75q0 -47 38 -85t114 -38q48 0 88 11v-174q-53 -19 -133 -19q-82 0 -150 25t-112.5 79.5t-44.5 131.5q0 115 112 192q-104 3 -189.5 27t-144.5 61.5t-104 91.5t-72 110t-43.5 123t-22 125.5t-5.5 123.5
v970h303v-946q0 -399 307 -399q305 0 305 399z" />
    <glyph glyph-name="uogonek" unicode="&#x173;" horiz-adv-x="1292" 
d="M930 -160q0 -48 35 -79t96 -31q57 0 96 16v-195q-55 -14 -121 -14q-84 0 -152 25.5t-110.5 80.5t-42.5 132q0 76 47 135.5t127 89.5h-6q-10 44 -12.5 62.5t2 59.5t22.5 91h-37q-47 -132 -126 -190t-207 -58q-193 0 -302.5 117.5t-109.5 343.5v717h287v-619
q0 -133 53 -208.5t154 -75.5q110 0 174.5 81.5t64.5 206.5v615h287v-787q0 -131 9 -205.5t28 -150.5h-96q-85 -21 -122.5 -65.5t-37.5 -94.5z" />
    <glyph glyph-name="Wcircumflex" unicode="&#x174;" horiz-adv-x="2371" 
d="M1024 1720h-266l291 357h278l291 -357h-266q-24 24 -37.5 40t-33 44t-33 64.5t-23.5 83.5h-74q-13 -61 -35 -108t-41 -70t-51 -54zM854 0h-383l-455 1597h349q95 -348 161.5 -634.5t122.5 -618.5h37q45 222 105.5 462.5t102 386t118.5 404.5h348q77 -259 118.5 -405
t102.5 -390t107 -472h36q94 577 283 1267h348l-454 -1597h-379q-112 353 -182 616t-128 582h-53q-59 -326 -130.5 -597.5t-174.5 -600.5z" />
    <glyph glyph-name="wcircumflex" unicode="&#x175;" horiz-adv-x="1918" 
d="M786 1278h-270l295 371h293l297 -371h-271q-38 44 -57 67.5t-46.5 69.5t-43.5 94h-49q-17 -48 -44.5 -94t-47 -70.5t-56.5 -66.5zM725 0h-336l-379 1143h328q52 -170 79.5 -268t64.5 -257t59 -305h53q75 334 240 830h251q166 -497 238 -830h49q24 146 63.5 308.5
t64.5 250t81 271.5h326l-377 -1143h-348q-50 161 -76 247t-62.5 229t-58.5 267h-47q-61 -294 -213 -743z" />
    <glyph glyph-name="Ycircumflex" unicode="&#x176;" horiz-adv-x="1439" 
d="M559 1720h-266l291 357h278l291 -357h-266q-24 24 -37.5 40t-33 44t-33 64.5t-23.5 83.5h-74q-13 -61 -35 -108t-41 -70t-51 -54zM872 0h-303q0 354 17 549q-237 406 -578 1048h328q82 -158 131 -258t116 -254t119 -303h35q49 140 110 281.5t116 253.5t120 240
q14 27 21 40h328q-374 -699 -578 -1046q18 -184 18 -551z" />
    <glyph glyph-name="ycircumflex" unicode="&#x177;" horiz-adv-x="1202" 
d="M428 1278h-270l295 371h292l297 -371h-270q-38 44 -57 67.5t-46.5 69.5t-43.5 94h-50q-17 -49 -44 -94t-47 -70.5t-56 -66.5zM602 -451h-305l154 402l-443 1192h316q85 -231 147 -432.5t117 -448.5h37q36 168 85.5 340t81.5 266t95 275h307z" />
    <glyph glyph-name="Ydieresis" unicode="&#x178;" horiz-adv-x="1439" 
d="M489 1731q-75 0 -125.5 51t-50.5 127q0 70 51 119t125 49q70 0 120 -49.5t50 -118.5q0 -76 -49.5 -127t-120.5 -51zM954 1731q-74 0 -124 51t-50 127q0 69 50.5 118.5t123.5 49.5q72 0 121 -49.5t49 -118.5q0 -76 -49 -127t-121 -51zM872 0h-303q0 354 17 549
q-237 406 -578 1048h328q82 -158 131 -258t116 -254t119 -303h35q49 140 110 281.5t116 253.5t120 240q14 27 21 40h328q-374 -699 -578 -1046q18 -184 18 -551z" />
    <glyph glyph-name="Zacute" unicode="&#x179;" horiz-adv-x="1382" 
d="M1153 2081l-326 -361h-260l232 361h354zM1311 0h-1241v248q219 298 439.5 562.5t496.5 553.5l-17 37q-458 -84 -893 -84v280h1198v-251q-393 -526 -934 -1110l19 -35q471 82 932 82v-283z" />
    <glyph glyph-name="zacute" unicode="&#x17a;" horiz-adv-x="1095" 
d="M963 1657l-312 -379h-248l222 379h338zM1036 0h-962v242q327 393 594 641l-19 35q-207 -39 -563 -39v264h909v-244q-110 -129 -185.5 -215t-189.5 -205t-221 -217l19 -35q95 16 213.5 24.5t194 9.5t210.5 1v-262z" />
    <glyph glyph-name="Zdotaccent" unicode="&#x17b;" horiz-adv-x="1382" 
d="M662 1755q-78 0 -129.5 51.5t-51.5 128.5q0 72 52 123t129 51q73 0 123.5 -51.5t50.5 -122.5q0 -76 -50 -128t-124 -52zM1311 0h-1241v248q219 298 439.5 562.5t496.5 553.5l-17 37q-458 -84 -893 -84v280h1198v-251q-393 -526 -934 -1110l19 -35q471 82 932 82v-283z
" />
    <glyph glyph-name="zdotaccent" unicode="&#x17c;" horiz-adv-x="1095" 
d="M547 1315q-76 0 -127 52.5t-51 129.5q0 71 51.5 122.5t126.5 51.5q74 0 125 -51.5t51 -122.5q0 -77 -50.5 -129.5t-125.5 -52.5zM1036 0h-962v242q327 393 594 641l-19 35q-207 -39 -563 -39v264h909v-244q-110 -129 -185.5 -215t-189.5 -205t-221 -217l19 -35
q95 16 213.5 24.5t194 9.5t210.5 1v-262z" />
    <glyph glyph-name="Zcaron" unicode="&#x17d;" horiz-adv-x="1382" 
d="M836 1720h-287l-287 357h266q32 -31 51 -54t41.5 -70t36.5 -108h72q10 47 23.5 83.5t33 64.5t33 44t37.5 40h266zM1311 0h-1241v248q219 298 439.5 562.5t496.5 553.5l-17 37q-458 -84 -893 -84v280h1198v-251q-393 -526 -934 -1110l19 -35q471 82 932 82v-283z" />
    <glyph glyph-name="zcaron" unicode="&#x17e;" horiz-adv-x="1095" 
d="M692 1294h-293l-295 387h271q10 -14 39.5 -55.5t42.5 -61.5t32.5 -56.5t32.5 -73.5h47q13 37 32.5 73t34.5 58t42.5 60t40.5 56h270zM1036 0h-962v242q327 393 594 641l-19 35q-207 -39 -563 -39v264h909v-244q-110 -129 -185.5 -215t-189.5 -205t-221 -217l19 -35
q95 16 213.5 24.5t194 9.5t210.5 1v-262z" />
    <glyph glyph-name="uni0218" unicode="&#x218;" horiz-adv-x="1343" 
d="M690 -35q-237 0 -407 124t-226 349l285 97q22 -81 59.5 -140t84.5 -91.5t96.5 -47t103.5 -14.5q112 0 189 52t77 144q0 39 -16.5 71t-38 52t-64 40.5t-70 30.5t-81.5 27l-143 43q-47 14 -87 29.5t-92.5 42t-93.5 61.5t-77 80.5t-56 108t-20 135.5q0 141 74 249.5
t198.5 165t278.5 56.5q216 0 365 -108.5t190 -264.5l-279 -112q-79 209 -283 209q-100 0 -162.5 -48t-62.5 -122q0 -37 17.5 -69t42.5 -54t65.5 -43t72.5 -33t79 -27l168 -53q35 -11 52.5 -17t55.5 -21t60.5 -27t57 -33.5t55.5 -43t46 -52.5t39 -65t23.5 -78t9.5 -93
q0 -221 -161 -365.5t-425 -144.5zM664 -649h-154q40 75 80 129.5t106 109.5q-67 0 -111 42.5t-44 105.5q0 67 45.5 110t113.5 43q69 0 113.5 -43.5t44.5 -111.5q0 -17 -2 -31.5t-10 -35t-16 -36.5t-26.5 -48.5t-34 -58t-47.5 -78.5t-58 -97z" />
    <glyph glyph-name="uni0219" unicode="&#x219;" horiz-adv-x="1058" 
d="M543 -35q-192 0 -325 87.5t-173 234.5l266 86q36 -89 98.5 -130.5t131.5 -41.5q60 0 104.5 26t44.5 82q0 24 -10.5 43.5t-23.5 31.5t-39 24t-42 17.5t-47 14.5l-120 37q-310 95 -310 340q0 162 121.5 260.5t308.5 98.5q167 0 284 -81t153 -208l-265 -86q-51 141 -180 141
q-60 0 -97.5 -29.5t-37.5 -76.5q0 -20 8 -37t25 -31t33.5 -24.5t43 -20.5t44.5 -16t47 -15l88 -24q34 -9 53.5 -15.5t57.5 -21.5t62.5 -30.5t55.5 -42t49 -56.5t30.5 -73t12.5 -93q0 -169 -122.5 -270t-329.5 -101zM506 -649h-154q39 73 80 128t107 111q-67 0 -111.5 42.5
t-44.5 105.5q0 67 46 110t114 43q69 0 113 -43.5t44 -111.5q0 -17 -2 -31.5t-10 -35t-16 -36.5t-26.5 -48.5t-34 -58t-47.5 -78.5t-58 -97z" />
    <glyph glyph-name="uni021A" unicode="&#x21a;" horiz-adv-x="1314" 
d="M809 0h-303q0 292 1 454.5t10 419.5t26 478q-92 -16 -191 -24.5t-158.5 -9.5t-166.5 -1v280h1261v-280q-107 0 -166.5 1t-158 9.5t-189.5 24.5q16 -221 24.5 -478t9.5 -419.5t1 -454.5zM629 -649h-154q39 73 80 128t107 111q-67 0 -111.5 42.5t-44.5 105.5q0 67 46 110
t114 43q69 0 113 -43.5t44 -111.5q0 -17 -2 -31.5t-10 -35t-16 -36.5t-26.5 -48.5t-34 -58t-47.5 -78.5t-58 -97z" />
    <glyph glyph-name="uni021B" unicode="&#x21b;" horiz-adv-x="907" 
d="M635 -35q-62 0 -114 10.5t-89 26t-66.5 41.5t-48 49.5t-32 57.5t-19.5 58t-9.5 59t-4 52.5t-0.5 45.5q0 115 1 179t10 168.5t26 198.5q-53 -14 -104.5 -20.5t-78 -7t-79.5 -0.5v260q149 0 262 -29q-17 63 -26 130.5t-10 108t-1 113.5h287q0 -73 -1 -113.5t-10 -108
t-26 -130.5q139 29 346 29v-260q-74 0 -109.5 0.5t-103.5 7.5t-133 20q17 -77 26 -163t10 -137.5t1 -143.5q0 -32 0.5 -48.5t3 -46.5t8 -46.5t17 -38.5t27.5 -33.5t41.5 -20t57.5 -8.5q77 0 154 41v-258q-79 -43 -213 -43zM496 -649h-154q40 75 80 129.5t106 109.5
q-67 0 -111 42.5t-44 105.5q0 67 45.5 110t113.5 43q69 0 113.5 -43.5t44.5 -111.5q0 -17 -2 -31.5t-10 -35t-16 -36.5t-26.5 -48.5t-34 -58t-47.5 -78.5t-58 -97z" />
    <glyph glyph-name="gravecomb" unicode="&#x300;" horiz-adv-x="0" 
d="M-53 1278h-250l-311 379h338z" />
    <glyph glyph-name="acutecomb" unicode="&#x301;" horiz-adv-x="0" 
d="M29 1657l-312 -379h-247l221 379h338z" />
    <glyph glyph-name="uni0302" unicode="&#x302;" horiz-adv-x="0" 
d="M-633 1278h-270l295 371h293l297 -371h-271q-38 44 -57 67.5t-46.5 69.5t-43.5 94h-49q-17 -48 -44.5 -94t-47 -70.5t-56.5 -66.5z" />
    <glyph glyph-name="tildecomb" unicode="&#x303;" horiz-adv-x="0" 
d="M-311 1319q-76 0 -144 45l-57 39q-45 35 -80 35q-36 0 -55 -28.5t-19 -72.5h-204q0 144 74 231t188 87q74 0 151 -49l51 -35q41 -27 70 -27t44.5 26t15.5 70h204q0 -155 -61.5 -238t-177.5 -83z" />
    <glyph glyph-name="uni0304" unicode="&#x304;" horiz-adv-x="0" 
d="M-92 1315h-688v203h688v-203z" />
    <glyph glyph-name="uni0306" unicode="&#x306;" horiz-adv-x="0" 
d="M-426 1268q-172 0 -276.5 110t-110.5 285h233q2 -80 43.5 -135t118.5 -55t118.5 55t43.5 135h233q-6 -176 -113 -285.5t-290 -109.5z" />
    <glyph glyph-name="uni0307" unicode="&#x307;" horiz-adv-x="0" 
d="M-250 1298q-76 0 -127 53t-51 130q0 71 51 122.5t127 51.5q74 0 125 -51.5t51 -122.5q0 -77 -50.5 -130t-125.5 -53z" />
    <glyph glyph-name="uni0308" unicode="&#x308;" horiz-adv-x="0" 
d="M-743 1300q-69 0 -115.5 48.5t-46.5 117.5q0 65 47 111.5t115 46.5q67 0 113 -46.5t46 -111.5q0 -69 -46 -117.5t-113 -48.5zM-311 1300q-69 0 -116.5 48.5t-47.5 117.5q0 65 47.5 111.5t116.5 46.5q67 0 113 -46.5t46 -111.5q0 -69 -46 -117.5t-113 -48.5z" />
    <glyph glyph-name="uni030A" unicode="&#x30a;" horiz-adv-x="0" 
d="M-293 1255q-110 0 -185 72.5t-75 177.5q0 106 75 177t185 71q109 0 184.5 -71.5t75.5 -176.5q0 -108 -75 -179t-185 -71zM-293 1393q47 0 78 32t31 80q0 45 -31 77t-78 32q-48 0 -78 -31.5t-30 -77.5q0 -48 29.5 -80t78.5 -32z" />
    <glyph glyph-name="uni030B" unicode="&#x30b;" horiz-adv-x="0" 
d="M-410 1673l-317 -395h-242l228 395h331zM61 1673l-323 -395h-242l234 395h331z" />
    <glyph glyph-name="uni030C" unicode="&#x30c;" horiz-adv-x="0" 
d="M-315 1278h-293l-295 387h270q10 -15 39.5 -56t43 -61.5t33 -57t32.5 -73.5h47q13 37 32.5 73.5t34 57.5t43 61t39.5 56h271z" />
    <glyph glyph-name="uni0312" unicode="&#x312;" horiz-adv-x="0" 
d="M-403 1274q0 17 2 31t10.5 35t16 37t27 50t35 60t49 82.5t60.5 101.5h160q-97 -173 -174 -287q63 6 97 -32.5t34 -94.5q0 -65 -44.5 -103t-111.5 -38q-70 0 -115.5 44.5t-45.5 113.5z" />
    <glyph glyph-name="uni0326" unicode="&#x326;" horiz-adv-x="0" 
d="M-315 -649h-154q40 75 80 129.5t106 109.5q-67 0 -111 42.5t-44 105.5q0 67 45.5 110t113.5 43q69 0 113.5 -43.5t44.5 -111.5q0 -17 -2 -31.5t-10 -35t-16 -36.5t-26.5 -48.5t-34 -58t-47.5 -78.5t-58 -97z" />
    <glyph glyph-name="uni0327" unicode="&#x327;" horiz-adv-x="0" 
d="M-641 -520q-93 0 -168.5 34t-120.5 95l92 112q73 -96 189 -96q47 0 75.5 21t28.5 59q0 36 -28 57t-72 21q-51 0 -88 -29l-90 68l116 178h166q-32 -46 -155 -139l18 -17q79 58 131 58q77 0 133 -55t56 -144q0 -102 -78.5 -162.5t-204.5 -60.5z" />
    <glyph glyph-name="uni0328" unicode="&#x328;" horiz-adv-x="0" 
d="M-633 -483q-131 0 -218 61.5t-87 175.5q0 77 47 136.5t127 89.5h184q-84 -21 -121.5 -65.5t-37.5 -94.5q0 -48 35 -79.5t96 -31.5q55 0 96 17v-195q-55 -14 -121 -14z" />
    <glyph glyph-name="uni0335" unicode="&#x335;" horiz-adv-x="0" 
d="M-840 682h811v-215h-811v215z" />
    <glyph glyph-name="uni0337" unicode="&#x337;" horiz-adv-x="0" 
d="M-539 420v248l631 452v-248z" />
    <glyph glyph-name="uni0338" unicode="&#x338;" horiz-adv-x="0" 
d="M-979 -66h-248l934 1246h240z" />
    <glyph glyph-name="Wgrave" unicode="&#x1e80;" horiz-adv-x="2371" 
d="M1346 1720h-261l-327 361h354zM854 0h-383l-455 1597h349q95 -348 161.5 -634.5t122.5 -618.5h37q45 222 105.5 462.5t102 386t118.5 404.5h348q77 -259 118.5 -405t102.5 -390t107 -472h36q94 577 283 1267h348l-454 -1597h-379q-112 353 -182 616t-128 582h-53
q-59 -326 -130.5 -597.5t-174.5 -600.5z" />
    <glyph glyph-name="wgrave" unicode="&#x1e81;" horiz-adv-x="1918" 
d="M1092 1278h-250l-312 379h338zM725 0h-336l-379 1143h328q52 -170 79.5 -268t64.5 -257t59 -305h53q75 334 240 830h251q166 -497 238 -830h49q24 146 63.5 308.5t64.5 250t81 271.5h326l-377 -1143h-348q-50 161 -76 247t-62.5 229t-58.5 267h-47q-61 -294 -213 -743z
" />
    <glyph glyph-name="Wacute" unicode="&#x1e82;" horiz-adv-x="2371" 
d="M1647 2081l-326 -361h-260l231 361h355zM854 0h-383l-455 1597h349q95 -348 161.5 -634.5t122.5 -618.5h37q45 222 105.5 462.5t102 386t118.5 404.5h348q77 -259 118.5 -405t102.5 -390t107 -472h36q94 577 283 1267h348l-454 -1597h-379q-112 353 -182 616t-128 582
h-53q-59 -326 -130.5 -597.5t-174.5 -600.5z" />
    <glyph glyph-name="wacute" unicode="&#x1e83;" horiz-adv-x="1918" 
d="M1374 1657l-311 -379h-248l221 379h338zM725 0h-336l-379 1143h328q52 -170 79.5 -268t64.5 -257t59 -305h53q75 334 240 830h251q166 -497 238 -830h49q24 146 63.5 308.5t64.5 250t81 271.5h326l-377 -1143h-348q-50 161 -76 247t-62.5 229t-58.5 267h-47
q-61 -294 -213 -743z" />
    <glyph glyph-name="Wdieresis" unicode="&#x1e84;" horiz-adv-x="2371" 
d="M954 1731q-75 0 -125.5 51t-50.5 127q0 70 51 119t125 49q70 0 120 -49.5t50 -118.5q0 -76 -49.5 -127t-120.5 -51zM1419 1731q-74 0 -124 51t-50 127q0 69 50.5 118.5t123.5 49.5q71 0 120.5 -49.5t49.5 -118.5q0 -76 -49 -127t-121 -51zM854 0h-383l-455 1597h349
q95 -348 161.5 -634.5t122.5 -618.5h37q45 222 105.5 462.5t102 386t118.5 404.5h348q77 -259 118.5 -405t102.5 -390t107 -472h36q94 577 283 1267h348l-454 -1597h-379q-112 353 -182 616t-128 582h-53q-59 -326 -130.5 -597.5t-174.5 -600.5z" />
    <glyph glyph-name="wdieresis" unicode="&#x1e85;" horiz-adv-x="1918" 
d="M743 1300q-69 0 -115 48t-46 118q0 65 46.5 111.5t114.5 46.5q67 0 113.5 -46.5t46.5 -111.5q0 -69 -46.5 -117.5t-113.5 -48.5zM1176 1300q-69 0 -116.5 48.5t-47.5 117.5q0 65 47.5 111.5t116.5 46.5q67 0 113 -46.5t46 -111.5q0 -69 -46 -117.5t-113 -48.5zM725 0
h-336l-379 1143h328q52 -170 79.5 -268t64.5 -257t59 -305h53q75 334 240 830h251q166 -497 238 -830h49q24 146 63.5 308.5t64.5 250t81 271.5h326l-377 -1143h-348q-50 161 -76 247t-62.5 229t-58.5 267h-47q-61 -294 -213 -743z" />
    <glyph glyph-name="uni1E9E" unicode="&#x1e9e;" horiz-adv-x="1593" 
d="M455 0h-305v891q0 166 39.5 299.5t119.5 233t209 153t299 53.5q284 0 447 -134.5t163 -346.5q0 -137 -71.5 -225.5t-206.5 -100.5v-37q160 0 264.5 -94.5t104.5 -257.5q0 -49 -10.5 -95.5t-34.5 -97.5t-68 -92.5t-106 -76t-154.5 -53.5t-206.5 -19h-203v279h232
q115 0 171 48.5t56 125.5q0 85 -61 130.5t-170 45.5h-121v278h69q30 0 61.5 11.5t62.5 34.5t51 66.5t20 100.5q0 113 -76.5 173.5t-208.5 60.5q-98 0 -171 -34t-114.5 -93t-61 -129t-19.5 -152v-946z" />
    <glyph glyph-name="Ygrave" unicode="&#x1ef2;" horiz-adv-x="1439" 
d="M881 1720h-260l-328 361h354zM872 0h-303q0 354 17 549q-237 406 -578 1048h328q82 -158 131 -258t116 -254t119 -303h35q49 140 110 281.5t116 253.5t120 240q14 27 21 40h328q-374 -699 -578 -1046q18 -184 18 -551z" />
    <glyph glyph-name="ygrave" unicode="&#x1ef3;" horiz-adv-x="1202" 
d="M733 1278h-250l-311 379h338zM602 -451h-305l154 402l-443 1192h316q85 -231 147 -432.5t117 -448.5h37q36 168 85.5 340t81.5 266t95 275h307z" />
    <glyph glyph-name="uni2000" unicode="&#x2000;" horiz-adv-x="1024" 
 />
    <glyph glyph-name="uni2001" unicode="&#x2001;" 
 />
    <glyph glyph-name="uni2002" unicode="&#x2002;" horiz-adv-x="1024" 
 />
    <glyph glyph-name="uni2003" unicode="&#x2003;" 
 />
    <glyph glyph-name="uni2004" unicode="&#x2004;" horiz-adv-x="681" 
 />
    <glyph glyph-name="uni2005" unicode="&#x2005;" horiz-adv-x="512" 
 />
    <glyph glyph-name="uni2006" unicode="&#x2006;" horiz-adv-x="342" 
 />
    <glyph glyph-name="uni2007" unicode="&#x2007;" horiz-adv-x="489" 
 />
    <glyph glyph-name="uni2008" unicode="&#x2008;" horiz-adv-x="542" 
 />
    <glyph glyph-name="uni2009" unicode="&#x2009;" horiz-adv-x="256" 
 />
    <glyph glyph-name="uni200A" unicode="&#x200a;" horiz-adv-x="86" 
 />
    <glyph glyph-name="uni200B" unicode="&#x200b;" horiz-adv-x="0" 
 />
    <glyph glyph-name="endash" unicode="&#x2013;" horiz-adv-x="1011" 
d="M891 502h-770v243h770v-243z" />
    <glyph glyph-name="emdash" unicode="&#x2014;" horiz-adv-x="1435" 
d="M1317 514h-1200v219h1200v-219z" />
    <glyph glyph-name="quoteleft" unicode="&#x2018;" horiz-adv-x="538" 
d="M317 1636h160q-38 -69 -56 -100t-57.5 -83t-82.5 -89q67 -7 109 -60t42 -122q0 -74 -54 -126t-130 -52q-74 0 -126 52.5t-52 127.5q0 53 32.5 113t155.5 248q38 58 59 91z" />
    <glyph glyph-name="quoteright" unicode="&#x2019;" horiz-adv-x="552" 
d="M250 1030h-166q34 62 57 99t66.5 91t95.5 99q-168 40 -168 166q0 73 53.5 125.5t128.5 52.5t128 -51t53 -123q0 -15 -1.5 -29t-8 -31.5t-11.5 -31.5t-19 -39t-24.5 -42.5t-34 -54t-40 -62.5t-50.5 -78t-59 -91z" />
    <glyph glyph-name="quotesinglbase" unicode="&#x201a;" horiz-adv-x="538" 
d="M203 -283h-160q37 68 56 100t58.5 84t82.5 89q-67 7 -109.5 60t-42.5 122q0 73 54.5 125.5t129.5 52.5q74 0 127.5 -52t53.5 -126q0 -52 -33.5 -113.5t-150.5 -240.5q-42 -64 -66 -101z" />
    <glyph glyph-name="quotedblleft" unicode="&#x201c;" horiz-adv-x="983" 
d="M317 1636h160q-38 -69 -56 -100t-57.5 -83t-82.5 -89q67 -7 109 -60t42 -122q0 -74 -54 -126t-130 -52q-74 0 -126 52.5t-52 127.5q0 53 32.5 113t155.5 248q38 58 59 91zM762 1636h160q-37 -66 -56.5 -99t-58.5 -84.5t-82 -88.5q67 -7 109.5 -60t42.5 -122
q0 -74 -54.5 -126t-130.5 -52q-74 0 -126 52.5t-52 127.5q0 52 32.5 112.5t149.5 238.5q42 64 66 101z" />
    <glyph glyph-name="quotedblright" unicode="&#x201d;" horiz-adv-x="995" 
d="M246 1030h-160q37 68 56 100t58.5 84t82.5 89q-67 7 -109.5 60t-42.5 122q0 74 54 126t130 52q74 0 127.5 -52t53.5 -126q0 -52 -33.5 -113.5t-150.5 -240.5q-42 -64 -66 -101zM692 1030h-160q37 68 56 100t58.5 84t82.5 89q-67 7 -109 60t-42 122q0 74 54 126t130 52
q74 0 126 -51.5t52 -126.5q0 -13 -2 -25.5t-5 -24.5t-10.5 -29t-14 -30.5t-20.5 -38t-25 -42t-33 -51.5t-38 -59t-46.5 -72t-53.5 -83z" />
    <glyph glyph-name="quotedblbase" unicode="&#x201e;" horiz-adv-x="985" 
d="M203 -258h-160q37 66 56.5 99t58.5 84.5t82 88.5q-67 7 -109.5 60.5t-42.5 122.5q0 74 54 126t130 52q74 0 126.5 -52.5t52.5 -127.5q0 -52 -35 -117t-151 -242q-40 -60 -62 -94zM649 -258h-160q37 66 56.5 99t58.5 84.5t82 88.5q-67 7 -109 60t-42 123q0 73 53.5 125.5
t128.5 52.5t127.5 -52.5t52.5 -127.5q0 -14 -1.5 -27t-7.5 -30t-12 -30.5t-19.5 -38t-24 -42.5t-33.5 -54t-40.5 -62.5t-50.5 -77.5t-59 -91z" />
    <glyph glyph-name="dagger" unicode="&#x2020;" horiz-adv-x="1024" 
d="M621 428h-238q0 154 1 239.5t9.5 224t24.5 261.5q-63 -16 -128 -24.5t-103.5 -9.5t-106.5 -1v213q68 0 106.5 -1t103.5 -9.5t128 -24.5q-16 64 -24.5 130t-9.5 105t-1 107h238q0 -68 -1 -107t-9.5 -105t-24.5 -130q66 16 135 24.5t109.5 9.5t111.5 1v-213q-71 0 -111.5 1
t-109.5 9.5t-135 24.5q16 -123 24.5 -261.5t9.5 -224t1 -239.5z" />
    <glyph glyph-name="daggerdbl" unicode="&#x2021;" horiz-adv-x="1071" 
d="M954 1331v-213q-67 0 -104.5 1t-103 10t-130.5 26q29 -86 29.5 -153.5t-27.5 -153.5q64 17 129 26t102.5 10t104.5 1v-213q-67 0 -104.5 1t-102.5 10t-129 26q17 -65 26 -131.5t10 -105.5t1 -107h-237q0 68 1 107t10 105.5t26 131.5q-64 -17 -130 -26t-104.5 -10
t-105.5 -1v213q67 0 105.5 -1t104.5 -10t130 -26q-28 86 -28 153.5t28 153.5q-64 -17 -130 -26t-104.5 -10t-105.5 -1v213q67 0 105.5 -1t104.5 -10t130 -26q-17 65 -26 131.5t-10 105.5t-1 107h237q0 -68 -1.5 -107t-10.5 -105.5t-27 -131.5q65 17 130.5 26t103 10t104.5 1
z" />
    <glyph glyph-name="bullet" unicode="&#x2022;" horiz-adv-x="917" 
d="M461 442q-129 0 -220 93.5t-91 226.5q0 125 91 215t220 90q127 0 217 -90t90 -215q0 -133 -89.5 -226.5t-217.5 -93.5z" />
    <glyph glyph-name="ellipsis" unicode="&#x2026;" horiz-adv-x="1579" 
d="M272 -14q-75 0 -128.5 54t-53.5 132q0 73 53.5 125.5t128.5 52.5t128 -52t53 -126q0 -78 -53 -132t-128 -54zM791 -14q-75 0 -129 54t-54 132q0 73 54 125.5t129 52.5q74 0 127 -52.5t53 -125.5q0 -78 -53 -132t-127 -54zM1309 -14q-75 0 -129 54t-54 132q0 73 54 125.5
t129 52.5q74 0 127 -52.5t53 -125.5q0 -78 -53 -132t-127 -54z" />
    <glyph glyph-name="uni202F" unicode="&#x202f;" horiz-adv-x="366" 
 />
    <glyph glyph-name="perthousand" unicode="&#x2030;" horiz-adv-x="2719" 
d="M379 715q-149 0 -236.5 114t-87.5 301t87.5 302.5t236.5 115.5q148 0 234.5 -116t86.5 -302t-86 -300.5t-235 -114.5zM541 0h-269l1139 1468h260zM379 928q80 0 80 202q0 205 -80 205q-82 0 -82 -205q0 -202 82 -202zM1587 -29q-149 0 -236 114.5t-87 301.5t87 302.5
t236 115.5q148 0 235 -116t87 -302t-86.5 -301t-235.5 -115zM2343 -29q-149 0 -236.5 114.5t-87.5 301.5t87.5 302.5t236.5 115.5q148 0 234.5 -116t86.5 -302t-86 -301t-235 -115zM1587 184q80 0 80 203q0 205 -80 205q-82 0 -82 -205q0 -203 82 -203zM2343 184
q80 0 80 203q0 205 -80 205q-82 0 -82 -205q0 -203 82 -203z" />
    <glyph glyph-name="guilsinglleft" unicode="&#x2039;" horiz-adv-x="804" 
d="M690 164h-297l-305 405v9l305 405h297q-49 -65 -80.5 -103.5t-80 -92t-101.5 -96t-113 -77.5v-82q61 -35 113.5 -77t102 -96t79.5 -91.5t80 -103.5z" />
    <glyph glyph-name="guilsinglright" unicode="&#x203a;" horiz-adv-x="804" 
d="M414 164h-299q48 64 80 103t81 92t102 95.5t114 77.5v82q-79 46 -152 112.5t-117 119t-108 137.5h299l305 -405v-9z" />
    <glyph glyph-name="fraction" unicode="&#x2044;" horiz-adv-x="452" 
d="M-215 0h-268l1138 1468h260z" />
    <glyph glyph-name="uni205F" unicode="&#x205f;" horiz-adv-x="454" 
 />
    <glyph glyph-name="uni2070" unicode="&#x2070;" horiz-adv-x="755" 
d="M379 715q-149 0 -236.5 114t-87.5 301t87.5 302.5t236.5 115.5q148 0 234.5 -116t86.5 -302t-86 -300.5t-235 -114.5zM379 928q80 0 80 202q0 205 -80 205q-82 0 -82 -205q0 -202 82 -202z" />
    <glyph glyph-name="uni2074" unicode="&#x2074;" horiz-adv-x="759" 
d="M616 733h-219v139h-360v179l366 481h213v-469h93v-191h-93v-139zM397 1241l-143 -178h143v178z" />
    <glyph glyph-name="uni2075" unicode="&#x2075;" horiz-adv-x="739" 
d="M352 715q-112 0 -199.5 44.5t-119.5 137.5l203 102q40 -90 118 -90q45 0 68.5 27.5t23.5 69.5q0 45 -25.5 71.5t-66.5 26.5q-35 0 -59 -19t-33 -43l-190 43l98 447h467v-184h-303l-35 -134h2q55 52 148 52q44 0 84.5 -14t76 -42.5t57 -79.5t21.5 -118q0 -139 -96.5 -218
t-239.5 -79z" />
    <glyph glyph-name="uni2076" unicode="&#x2076;" horiz-adv-x="765" 
d="M387 715q-153 0 -243.5 94.5t-90.5 275.5q0 201 111.5 332t294.5 131q72 0 139 -24t107 -74l-117 -152q-55 58 -135 58q-69 0 -111.5 -42.5t-58.5 -115.5h4q24 29 68 43t87 14q113 0 191 -69.5t78 -186.5q0 -123 -89 -203.5t-235 -80.5zM399 905q43 0 71 28.5t28 72.5
t-27.5 71t-69.5 27q-44 0 -72 -27.5t-28 -70.5t28 -72t70 -29z" />
    <glyph glyph-name="uni2077" unicode="&#x2077;" horiz-adv-x="618" 
d="M389 733h-246q0 151 41 320t138 286h-291v189h563v-191q-205 -177 -205 -604z" />
    <glyph glyph-name="uni2078" unicode="&#x2078;" horiz-adv-x="751" 
d="M375 715q-153 0 -239.5 71t-86.5 172q0 73 41 127t90 66v4q-90 61 -90 160q0 104 82 168.5t203 64.5q116 0 200 -64t84 -177q0 -103 -92 -152v-4q50 -14 91.5 -65t41.5 -123q0 -104 -86 -176t-239 -72zM377 1235q33 0 53.5 22t20.5 54t-20 51.5t-54 19.5t-56 -19.5
t-22 -51.5t22 -54t56 -22zM377 915q38 0 63 24t25 62t-24 62t-64 24t-66 -24t-26 -62t26 -62t66 -24z" />
    <glyph glyph-name="uni2079" unicode="&#x2079;" horiz-adv-x="770" 
d="M334 715q-83 0 -158 26.5t-115 79.5l115 150q32 -33 77 -51.5t85 -18.5q68 0 103 48.5t44 121.5h-4q-50 -59 -162 -59q-110 0 -186 67.5t-76 182.5q0 125 88.5 205.5t235.5 80.5q153 0 243.5 -94t90.5 -287q0 -128 -41 -228.5t-128.5 -162t-211.5 -61.5zM367 1167
q44 0 72 28.5t28 72.5t-27.5 72t-70.5 28q-44 0 -71.5 -28t-27.5 -74q0 -44 27 -71.5t70 -27.5z" />
    <glyph glyph-name="uni2080" unicode="&#x2080;" horiz-adv-x="755" 
d="M379 -285q-149 0 -236.5 114.5t-87.5 301.5t87.5 302.5t236.5 115.5q148 0 234.5 -116t86.5 -302t-86 -301t-235 -115zM379 -72q80 0 80 203q0 205 -80 205q-82 0 -82 -205q0 -203 82 -203z" />
    <glyph glyph-name="uni2081" unicode="&#x2081;" horiz-adv-x="536" 
d="M434 -266h-227v459q-80 -62 -164 -82v245q77 26 121.5 74.5t44.5 101.5h225v-798z" />
    <glyph glyph-name="uni2082" unicode="&#x2082;" horiz-adv-x="735" 
d="M664 -266h-588v28q0 100 22.5 165.5t72.5 118t148 116.5q4 3 22.5 15t26.5 17.5t23 18t22 21.5t13 22.5t6 26.5q0 27 -18.5 43t-51.5 16q-48 0 -76.5 -34.5t-29.5 -96.5l-211 33q0 137 93 221t233 84q128 0 214.5 -72.5t86.5 -187.5q0 -143 -135 -219q-8 -5 -39 -23
t-47 -29t-37 -31.5t-31 -41.5h281v-211z" />
    <glyph glyph-name="uni2083" unicode="&#x2083;" horiz-adv-x="737" 
d="M356 -287q-121 0 -210 52.5t-113 132.5l200 102q43 -94 123 -94q35 0 58.5 18.5t23.5 55.5q0 75 -98 75h-78v158h78q36 0 65 19t29 53q0 30 -22.5 49.5t-57.5 19.5q-38 0 -62.5 -26t-29.5 -70l-209 47q9 101 98 172.5t224 71.5q121 0 204 -59t83 -156q0 -61 -33 -110.5
t-84 -59.5v-2q56 -11 97.5 -61.5t41.5 -118.5q0 -47 -20 -93.5t-59 -86.5t-103.5 -64.5t-145.5 -24.5z" />
    <glyph glyph-name="uni2084" unicode="&#x2084;" horiz-adv-x="759" 
d="M616 -266h-219v139h-360v178l366 481h213v-469h93v-190h-93v-139zM397 242l-143 -179h143v179z" />
    <glyph glyph-name="uni2085" unicode="&#x2085;" horiz-adv-x="739" 
d="M352 -285q-111 0 -199 45t-120 138l203 102q40 -90 118 -90q45 0 68.5 27t23.5 69q0 45 -25.5 71.5t-66.5 26.5q-35 0 -59 -18.5t-33 -42.5l-190 43l98 446h467v-184h-303l-35 -133h2q54 51 148 51q44 0 84.5 -14t76 -42.5t57 -79.5t21.5 -118q0 -139 -96.5 -218
t-239.5 -79z" />
    <glyph glyph-name="uni2086" unicode="&#x2086;" horiz-adv-x="765" 
d="M387 -285q-153 0 -243.5 95t-90.5 276q0 201 111.5 332t294.5 131q72 0 139 -24t107 -74l-117 -152q-54 57 -135 57q-69 0 -111.5 -42t-58.5 -115h4q24 29 68 43t87 14q113 0 191 -69.5t78 -186.5q0 -124 -89 -204.5t-235 -80.5zM399 -94q43 0 71 28t28 72t-27.5 71
t-69.5 27q-44 0 -72 -27.5t-28 -70.5t27.5 -71.5t70.5 -28.5z" />
    <glyph glyph-name="uni2087" unicode="&#x2087;" horiz-adv-x="618" 
d="M389 -266h-246q0 151 41 320t138 286h-291v188h563v-190q-205 -177 -205 -604z" />
    <glyph glyph-name="uni2088" unicode="&#x2088;" horiz-adv-x="751" 
d="M375 -285q-152 0 -239 71.5t-87 172.5q0 73 41 127t90 66v4q-90 61 -90 159q0 104 82 169t203 65q116 0 200 -64.5t84 -177.5q0 -102 -92 -151v-4q50 -14 91.5 -65.5t41.5 -123.5q0 -104 -86 -176t-239 -72zM377 236q33 0 53.5 21.5t20.5 53.5t-20 52t-54 20t-56 -20
t-22 -52t22 -53.5t56 -21.5zM377 -84q38 0 63 24t25 62t-24 62t-64 24t-66 -24t-26 -62t26 -62t66 -24z" />
    <glyph glyph-name="uni2089" unicode="&#x2089;" horiz-adv-x="770" 
d="M334 -285q-82 0 -157.5 26.5t-115.5 80.5l115 149q32 -33 77 -51t85 -18q68 0 103 48.5t44 121.5h-4q-51 -60 -162 -60q-110 0 -186 67.5t-76 182.5q0 125 88.5 206t235.5 81q153 0 243.5 -94t90.5 -287q0 -128 -41 -228.5t-128.5 -162.5t-211.5 -62zM367 168q44 0 72 28
t28 72t-27.5 72.5t-70.5 28.5q-44 0 -71.5 -28.5t-27.5 -74.5q0 -44 27 -71t70 -27z" />
    <glyph glyph-name="Euro" unicode="&#x20ac;" horiz-adv-x="1691" 
d="M1087 -35q-283 0 -477 159t-235 431q-109 -20 -279 -20v145q154 0 250 -37q-28 144 -2 264q-94 -35 -248 -35v146q164 0 273 -21q38 281 235.5 451t480.5 170q349 0 531 -191l-211 -210q-129 114 -322 114q-314 0 -462 -334q226 21 575 21v-146q-127 0 -197.5 1t-186 9.5
t-220.5 24.5q20 -120 4 -264q104 17 219 26t185.5 10t195.5 1v-145q-352 0 -565 20q148 -303 456 -303q217 0 361 108l170 -204q-107 -100 -249.5 -145.5t-281.5 -45.5z" />
    <glyph glyph-name="trademark" unicode="&#x2122;" horiz-adv-x="1611" 
d="M424 913h-156v557h-202v146h563v-146h-205v-557zM883 913h-158v703h162l209 -479q114 256 211 479h159v-703h-157v387q-29 -69 -86 -197.5t-82 -187.5h-90q-28 69 -88 203.5t-80 181.5v-387z" />
    <glyph glyph-name="oneeighth" unicode="&#x215b;" horiz-adv-x="1740" 
d="M434 733h-227v459q-80 -62 -164 -82v246q77 26 121.5 74.5t44.5 101.5h225v-799zM322 0h-269l1139 1468h260zM1364 -29q-152 0 -239 71.5t-87 172.5q0 73 41 127t90 66v4q-90 61 -90 159q0 104 82 169t203 65q116 0 200.5 -64.5t84.5 -177.5q0 -102 -93 -151v-4
q50 -14 92 -65.5t42 -123.5q0 -104 -86.5 -176t-239.5 -72zM1366 492q33 0 53.5 21.5t20.5 53.5t-20 52t-54 20t-56 -20t-22 -52t22 -53.5t56 -21.5zM1366 172q38 0 63 24t25 62t-24 62t-64 24t-66 -24t-26 -62t26 -62t66 -24z" />
    <glyph glyph-name="threeeighths" unicode="&#x215c;" horiz-adv-x="1941" 
d="M356 713q-121 0 -210 52t-113 132l200 102q43 -94 123 -94q35 0 58.5 18.5t23.5 55.5q0 76 -98 76h-78v157h78q36 0 65 19t29 53q0 30 -22.5 50t-57.5 20q-38 0 -62.5 -26.5t-29.5 -70.5l-209 48q9 101 98 172t224 71q121 0 204 -59t83 -156q0 -61 -33 -110.5t-84 -59.5
v-2q56 -11 97.5 -61.5t41.5 -118.5q0 -47 -20 -93t-59 -86t-103.5 -64.5t-145.5 -24.5zM522 0h-268l1139 1468h260zM1565 -29q-152 0 -239 71.5t-87 172.5q0 73 41 127t90 66v4q-90 61 -90 159q0 104 82 169t203 65q116 0 200 -64.5t84 -177.5q0 -102 -92 -151v-4
q50 -14 91.5 -65.5t41.5 -123.5q0 -104 -86 -176t-239 -72zM1567 492q33 0 53 21.5t20 53.5q0 33 -20 52.5t-53 19.5q-34 0 -56 -20t-22 -52t22 -53.5t56 -21.5zM1567 172q38 0 63 24t25 62t-24 62t-64 24t-66 -24t-26 -62t26 -62t66 -24z" />
    <glyph glyph-name="fiveeighths" unicode="&#x215d;" horiz-adv-x="1943" 
d="M352 715q-112 0 -199.5 44.5t-119.5 137.5l203 102q40 -90 118 -90q45 0 68.5 27.5t23.5 69.5q0 45 -25.5 71.5t-66.5 26.5q-35 0 -59 -19t-33 -43l-190 43l98 447h467v-184h-303l-35 -134h2q55 52 148 52q44 0 84.5 -14t76 -42.5t57 -79.5t21.5 -118q0 -139 -96.5 -218
t-239.5 -79zM524 0h-268l1139 1468h260zM1567 -29q-152 0 -239 71.5t-87 172.5q0 73 41 127t90 66v4q-90 61 -90 159q0 104 82 169t203 65q116 0 200 -64.5t84 -177.5q0 -102 -92 -151v-4q50 -14 91.5 -65.5t41.5 -123.5q0 -104 -86 -176t-239 -72zM1569 492q33 0 53 21.5
t20 53.5q0 33 -20 52.5t-53 19.5q-34 0 -56 -20t-22 -52t22 -53.5t56 -21.5zM1569 172q38 0 63 24t25 62t-24 62t-64 24t-66 -24t-26 -62t26 -62t66 -24z" />
    <glyph glyph-name="seveneighths" unicode="&#x215e;" horiz-adv-x="1822" 
d="M389 733h-246q0 151 41 320t138 286h-291v189h563v-191q-205 -177 -205 -604zM403 0h-268l1139 1468h260zM1446 -29q-152 0 -239 71.5t-87 172.5q0 73 41 127t90 66v4q-90 61 -90 159q0 104 82 169t203 65q116 0 200.5 -64.5t84.5 -177.5q0 -102 -93 -151v-4
q50 -14 92 -65.5t42 -123.5q0 -104 -86.5 -176t-239.5 -72zM1448 492q33 0 53.5 21.5t20.5 53.5t-20 52t-54 20t-56 -20t-22 -52t22 -53.5t56 -21.5zM1448 172q38 0 63 24t25 62t-24 62t-64 24t-66 -24t-26 -62t26 -62t66 -24z" />
    <glyph glyph-name="arrowleft" unicode="&#x2190;" horiz-adv-x="1380" 
d="M698 236h-266l-340 405v8l340 406h266q-53 -64 -88 -102.5t-102.5 -102.5t-147.5 -127q157 17 332 26t282.5 10t299.5 1v-230q-193 0 -300.5 1t-282.5 10t-333 26q116 -91 189.5 -165t150.5 -166z" />
    <glyph glyph-name="arrowup" unicode="&#x2191;" horiz-adv-x="993" 
d="M612 20h-229q0 193 1 300.5t9.5 282t24.5 331.5q-62 -80 -127.5 -149t-98 -98.5t-104.5 -90.5v266l406 340h8l405 -340v-266q-61 51 -102 88t-104 104t-126 148q17 -158 26 -333t10 -282.5t1 -300.5z" />
    <glyph glyph-name="arrowright" unicode="&#x2192;" horiz-adv-x="1380" 
d="M948 236h-266q56 65 89.5 102.5t102 101.5t148.5 127q-157 -17 -332 -26t-283 -10t-301 -1v230q193 0 300.5 -1t282 -10t331.5 -26q-80 63 -149.5 129t-98 98.5t-90.5 104.5h266l340 -406v-8z" />
    <glyph glyph-name="arrowdown" unicode="&#x2193;" horiz-adv-x="995" 
d="M502 20h-8l-406 340v267q72 -62 104.5 -90.5t98.5 -98t129 -149.5q-17 157 -26 331.5t-10 281.5t-1 300h229q0 -193 -1 -300t-10 -282t-26 -333q91 116 165 189t167 151v-267z" />
    <glyph glyph-name="arrowboth" unicode="&#x2194;" horiz-adv-x="1738" 
d="M692 236h-266l-340 405v8l340 406h266q-155 -184 -297 -342q473 53 948 0q-126 140 -296 342h266l340 -406v-8l-340 -405h-266q190 221 296 339q-475 -53 -948 0q130 -144 297 -339z" />
    <glyph glyph-name="arrowupdn" unicode="&#x2195;" horiz-adv-x="1060" 
d="M535 10h-9l-405 309v238q221 -162 332 -252q-53 397 0 793q-125 -106 -332 -267v248l405 307h9l405 -307v-248q-180 140 -330 267q50 -396 0 -793q113 92 330 252v-238z" />
    <glyph glyph-name="uni2196" unicode="&#x2196;" horiz-adv-x="1042" 
d="M956 168l-198 -115q-100 173 -150.5 262t-131.5 246.5t-144 302.5q-14 -101 -35.5 -192t-37.5 -140.5t-44 -128.5l-133 232l180 495l8 5l521 -91l133 -231q-88 16 -134.5 25.5t-137 36.5t-185.5 65q33 -44 64 -88t63 -92l56 -84t57 -89.5t50.5 -82t52.5 -88t48 -80.5
t51 -86.5t47 -81.5z" />
    <glyph glyph-name="uni2197" unicode="&#x2197;" horiz-adv-x="1042" 
d="M285 53l-199 115q97 168 150.5 259t148.5 238.5t188 274.5q-95 -38 -184 -64.5t-136.5 -36.5t-133.5 -26l133 231l520 91l6 -5l183 -495l-134 -232q-27 77 -43.5 128t-37 141t-35.5 192q-64 -145 -143 -299.5t-134 -252.5t-149 -259z" />
    <glyph glyph-name="uni2198" unicode="&#x2198;" horiz-adv-x="1040" 
d="M84 1053l199 114q94 -161 149 -259t134 -252.5t143 -299.5q15 102 35.5 192t37 141t43.5 128l133 -231l-182 -496l-6 -4l-520 90l-133 232q86 -16 133.5 -26t136.5 -36.5t184 -64.5q-93 127 -188 274.5t-148.5 238.5t-150.5 259z" />
    <glyph glyph-name="uni2199" unicode="&#x2199;" horiz-adv-x="1040" 
d="M760 1167l196 -114q-105 -182 -152 -262t-144.5 -232t-190.5 -278q95 38 185.5 65t137 36.5t134.5 25.5l-133 -232l-523 -90l-6 4l-182 496l133 231q83 -223 117 -461q64 145 145.5 302.5t132 246.5t150.5 262z" />
    <glyph glyph-name="emptyset" unicode="&#x2205;" horiz-adv-x="1443" 
d="M1288 1184l-127 -178q170 -175 170 -437q0 -264 -170.5 -434t-437.5 -170q-145 0 -266 53l-129 -182l-168 115l127 180q-83 81 -128.5 193.5t-45.5 244.5q0 174 77.5 312.5t216.5 216.5t316 78q147 0 268 -56l125 176zM410 569q0 -110 53 -190l360 506q-50 16 -100 16
q-136 0 -224.5 -94.5t-88.5 -237.5zM723 240q135 0 223 94t88 235q0 105 -49 189l-360 -504q43 -14 98 -14z" />
    <glyph glyph-name="minus" unicode="&#x2212;" horiz-adv-x="1079" 
d="M958 516h-837v221h837v-221z" />
    <glyph glyph-name="infinity" unicode="&#x221e;" horiz-adv-x="1777" 
d="M479 283q-167 0 -270 96.5t-103 245.5q0 144 112 243t261 99q93 0 178.5 -46t231.5 -173q149 127 234 173t173 46q167 0 271 -96.5t104 -245.5t-104 -245.5t-271 -96.5q-99 0 -184 46.5t-221 172.5q-133 -131 -220 -175t-192 -44zM496 469q14 0 27 2t27.5 7t25 9.5
t26.5 15.5t25.5 17t28.5 22l28.5 24t33 28.5t34.5 30.5q-105 95 -139 118q-57 37 -117 37q-70 0 -119 -43.5t-49 -111.5q0 -70 49.5 -113t118.5 -43zM1284 471q70 0 117 42t47 112q0 68 -46.5 110.5t-117.5 42.5q-31 0 -57 -7.5t-60.5 -31.5t-59 -44.5t-79.5 -69.5
q52 -46 73 -63.5t58.5 -44.5t66 -36.5t58.5 -9.5z" />
    <glyph glyph-name="approxequal" unicode="&#x2248;" horiz-adv-x="1134" 
d="M344 664h-223q0 156 78 249t198 93q51 0 97.5 -18t75.5 -39.5t65.5 -39.5t69.5 -18q86 0 86 108h223q0 -165 -68.5 -254.5t-193.5 -89.5q-55 0 -105.5 19t-81 41.5t-66 41.5t-65.5 19q-44 0 -67 -33.5t-23 -78.5zM344 205h-223q0 156 78 248t198 92q51 0 97.5 -17.5
t75.5 -39t65.5 -39t69.5 -17.5q86 0 86 109h223q0 -165 -68.5 -254.5t-193.5 -89.5q-55 0 -105.5 18.5t-81 41.5t-66 41.5t-65.5 18.5q-44 0 -67 -33.5t-23 -78.5z" />
    <glyph glyph-name="notequal" unicode="&#x2260;" horiz-adv-x="1118" 
d="M985 944v-221h-321q12 -114 -82 -227h403v-220h-483q4 -12 5.5 -24t0.5 -25.5t-2 -23t-5 -25.5t-6 -23t-8 -25.5t-8 -23.5h-200q33 105 96 170h-244v220h322q-12 114 82 227h-404v221h481q-19 51 17 148h200q-13 -35 -20 -51.5t-25 -45t-43 -51.5h244z" />
    <glyph glyph-name="lessequal" unicode="&#x2264;" horiz-adv-x="1056" 
d="M926 254h-797v184h428l-424 168v225l793 170v-202l-541 -113l541 -237v-195z" />
    <glyph glyph-name="greaterequal" unicode="&#x2265;" horiz-adv-x="1056" 
d="M928 254h-797v195l543 237l-543 113v202l793 -170v-225l-424 -168h428v-184z" />
    <glyph glyph-name="lozenge" unicode="&#x25ca;" horiz-adv-x="1134" 
d="M612 0h-90l-428 694l428 692h90l428 -692zM332 694l233 -389h4l234 389l-234 387h-4z" />
    <glyph glyph-name="A.ss01" horiz-adv-x="1581" 
d="M322 0h-316l586 1597h397l586 -1597h-326q-36 96 -51.5 137t-39.5 128.5t-32 160.5l-24 25q-179 -27 -311 -27q-134 0 -318 27l-24 -25q-24 -164 -127 -426zM555 680l16 -21q128 23 220 23q90 0 208 -23l17 21q-79 175 -120.5 325.5t-51.5 356.5h-115
q-11 -207 -53 -358.5t-121 -323.5z" />
    <glyph glyph-name="Aacute.ss01" horiz-adv-x="1581" 
d="M1247 2081l-325 -361h-260l231 361h354zM322 0h-316l586 1597h397l586 -1597h-326q-36 96 -51.5 137t-39.5 128.5t-32 160.5l-24 25q-179 -27 -311 -27q-134 0 -318 27l-24 -25q-24 -164 -127 -426zM555 680l16 -21q128 23 220 23q90 0 208 -23l17 21
q-79 175 -120.5 325.5t-51.5 356.5h-115q-11 -207 -53 -358.5t-121 -323.5z" />
    <glyph glyph-name="Abreve.ss01" horiz-adv-x="1581" 
d="M788 1716q-173 0 -285.5 104t-117.5 261h246q2 -68 42.5 -115t114.5 -47q72 0 113.5 47t44.5 115h244q-3 -157 -116 -261t-286 -104zM322 0h-316l586 1597h397l586 -1597h-326q-36 96 -51.5 137t-39.5 128.5t-32 160.5l-24 25q-179 -27 -311 -27q-134 0 -318 27l-24 -25
q-24 -164 -127 -426zM555 680l16 -21q128 23 220 23q90 0 208 -23l17 21q-79 175 -120.5 325.5t-51.5 356.5h-115q-11 -207 -53 -358.5t-121 -323.5z" />
    <glyph glyph-name="Acircumflex.ss01" horiz-adv-x="1581" 
d="M625 1720h-267l291 357h279l291 -357h-267q-24 24 -37.5 40t-33 44t-33 64.5t-23.5 83.5h-73q-13 -61 -35 -108t-41 -70t-51 -54zM322 0h-316l586 1597h397l586 -1597h-326q-36 96 -51.5 137t-39.5 128.5t-32 160.5l-24 25q-179 -27 -311 -27q-134 0 -318 27l-24 -25
q-24 -164 -127 -426zM555 680l16 -21q128 23 220 23q90 0 208 -23l17 21q-79 175 -120.5 325.5t-51.5 356.5h-115q-11 -207 -53 -358.5t-121 -323.5z" />
    <glyph glyph-name="Adieresis.ss01" horiz-adv-x="1581" 
d="M555 1731q-75 0 -125.5 51t-50.5 127q0 70 51 119t125 49q70 0 120 -49.5t50 -118.5q0 -76 -49.5 -127t-120.5 -51zM1020 1731q-74 0 -124 51t-50 127q0 69 50.5 118.5t123.5 49.5q72 0 121 -49.5t49 -118.5q0 -76 -49 -127t-121 -51zM322 0h-316l586 1597h397l586 -1597
h-326q-36 96 -51.5 137t-39.5 128.5t-32 160.5l-24 25q-179 -27 -311 -27q-134 0 -318 27l-24 -25q-24 -164 -127 -426zM555 680l16 -21q128 23 220 23q90 0 208 -23l17 21q-79 175 -120.5 325.5t-51.5 356.5h-115q-11 -207 -53 -358.5t-121 -323.5z" />
    <glyph glyph-name="Agrave.ss01" horiz-adv-x="1581" 
d="M946 1720h-260l-328 361h355zM322 0h-316l586 1597h397l586 -1597h-326q-36 96 -51.5 137t-39.5 128.5t-32 160.5l-24 25q-179 -27 -311 -27q-134 0 -318 27l-24 -25q-24 -164 -127 -426zM555 680l16 -21q128 23 220 23q90 0 208 -23l17 21q-79 175 -120.5 325.5
t-51.5 356.5h-115q-11 -207 -53 -358.5t-121 -323.5z" />
    <glyph glyph-name="Amacron.ss01" horiz-adv-x="1581" 
d="M1163 1765h-753v213h753v-213zM322 0h-316l586 1597h397l586 -1597h-326q-36 96 -51.5 137t-39.5 128.5t-32 160.5l-24 25q-179 -27 -311 -27q-134 0 -318 27l-24 -25q-24 -164 -127 -426zM555 680l16 -21q128 23 220 23q90 0 208 -23l17 21q-79 175 -120.5 325.5
t-51.5 356.5h-115q-11 -207 -53 -358.5t-121 -323.5z" />
    <glyph glyph-name="Aogonek.ss01" horiz-adv-x="1581" 
d="M1292 -158q0 -47 38 -85t114 -38q48 0 88 11v-174q-53 -19 -133 -19q-82 0 -150 25t-112.5 79.5t-44.5 131.5q0 69 45 129t127 98h-15q-36 96 -51.5 137t-39.5 128.5t-32 160.5l-24 25q-179 -27 -311 -27q-134 0 -318 27l-24 -25q-24 -164 -127 -426h-316l586 1597h397
l586 -1597h-115q-49 -10 -84.5 -29t-52.5 -43t-24 -45t-7 -41zM999 659l17 21q-79 175 -120.5 325.5t-51.5 356.5h-115q-11 -207 -53 -358.5t-121 -323.5l16 -21q128 23 220 23q90 0 208 -23z" />
    <glyph glyph-name="Aring.ss01" horiz-adv-x="1581" 
d="M786 1710q-110 0 -186 73t-76 177q0 105 75.5 176.5t186.5 71.5q109 0 183.5 -71.5t74.5 -176.5q0 -108 -74 -179t-184 -71zM786 1847q46 0 76.5 33t30.5 80q0 45 -31 76.5t-76 31.5q-50 0 -80 -31t-30 -77q0 -48 30 -80.5t80 -32.5zM322 0h-316l586 1597h397l586 -1597
h-326q-36 96 -51.5 137t-39.5 128.5t-32 160.5l-24 25q-179 -27 -311 -27q-134 0 -318 27l-24 -25q-24 -164 -127 -426zM555 680l16 -21q128 23 220 23q90 0 208 -23l17 21q-79 175 -120.5 325.5t-51.5 356.5h-115q-11 -207 -53 -358.5t-121 -323.5z" />
    <glyph glyph-name="Atilde.ss01" horiz-adv-x="1581" 
d="M944 1729q-75 0 -143 45l-58 38q-45 35 -79 35q-36 0 -55 -28t-19 -72h-205q0 144 73.5 230.5t188.5 86.5q75 0 152 -49l51 -35q39 -26 70 -26q29 0 44 26t15 70h205q0 -155 -62 -238t-178 -83zM322 0h-316l586 1597h397l586 -1597h-326q-36 96 -51.5 137t-39.5 128.5
t-32 160.5l-24 25q-179 -27 -311 -27q-134 0 -318 27l-24 -25q-24 -164 -127 -426zM555 680l16 -21q128 23 220 23q90 0 208 -23l17 21q-79 175 -120.5 325.5t-51.5 356.5h-115q-11 -207 -53 -358.5t-121 -323.5z" />
    <glyph glyph-name="B.ss01" horiz-adv-x="1462" 
d="M834 0h-666v1597h670q229 0 358 -115.5t129 -297.5q0 -124 -73.5 -216t-229.5 -130v-39q177 -31 268.5 -117t91.5 -246q0 -96 -34.5 -173t-90 -125t-129 -80t-146.5 -45t-148 -13zM440 907l33 -20q49 24 100.5 36t82 13.5t85.5 1.5q50 0 94 9t84 29.5t63.5 58.5t23.5 91
t-24 91.5t-63.5 59.5t-83.5 30.5t-92 9.5q-8 0 -40 -0.5t-44 0t-41 3t-48 7t-46.5 14t-54.5 23.5l-37 -21q29 -109 31 -210.5t-23 -225.5zM434 268l35 -35q54 22 111.5 33t94 13t97.5 2q51 0 97.5 9t90.5 30t70.5 61t26.5 96q0 55 -26 95.5t-69.5 62t-90 31.5t-95.5 10
q-60 0 -94.5 1.5t-93 13.5t-113.5 36l-35 -20q25 -129 23.5 -232t-29.5 -207z" />
    <glyph glyph-name="C.ss01" horiz-adv-x="1701" 
d="M909 -35q-178 0 -331 60.5t-262.5 169t-171.5 265.5t-62 343q0 194 67.5 353.5t181 261.5t259 157t305.5 55q256 0 452.5 -136t280.5 -366l-282 -112q-64 150 -179 238.5t-276 88.5q-214 0 -352 -152t-138 -403q0 -113 30.5 -205.5t81 -152.5t118 -101.5t138 -59
t144.5 -17.5q172 0 299.5 99.5t186.5 285.5l282 -96q-94 -288 -297 -432t-475 -144z" />
    <glyph glyph-name="D.ss01" horiz-adv-x="1628" 
d="M805 0h-637v1597h618q156 0 283 -40.5t214.5 -112t146.5 -171.5t86.5 -216t27.5 -248q0 -238 -87 -420t-255.5 -285.5t-396.5 -103.5zM434 268l35 -35q51 22 108 33t94 13t97 2q73 0 136.5 15t123.5 52t103 94t68.5 146.5t25.5 204.5q0 524 -516 524q-50 0 -78 1.5
t-73.5 12.5t-88.5 33l-37 -21q100 -554 2 -1075z" />
    <glyph glyph-name="E.ss01" horiz-adv-x="1329" 
d="M1233 0h-1065v1597h1044v-280q-166 0 -243.5 1t-223 12t-276.5 34l-37 -21q30 -107 31.5 -208t-23.5 -222l23 -20q125 31 262 46t216.5 17t229.5 2v-294q-151 0 -230.5 2t-215 18t-258.5 49l-27 -20q25 -131 24 -236t-30 -209l35 -35q134 23 279 34.5t237.5 13.5t247.5 2
v-283z" />
    <glyph glyph-name="F.ss01" horiz-adv-x="1267" 
d="M473 0h-305v1597h1028v-282q-152 0 -237 1.5t-224 13t-266 34.5l-37 -21q34 -119 33.5 -226t-37.5 -238l23 -21q128 32 263.5 47.5t216.5 18t224 2.5v-297q-149 0 -228 2t-214.5 17.5t-259.5 47.5l-25 -20q21 -119 31.5 -249t12 -208.5t1.5 -218.5z" />
    <glyph glyph-name="G.ss01" horiz-adv-x="1738" 
d="M905 -35q-248 0 -435 103.5t-287.5 291.5t-100.5 433q0 159 44 295t120.5 234.5t179 168.5t221.5 104.5t246 34.5q260 0 458 -138t277 -364l-282 -112q-63 150 -178 238.5t-275 88.5q-212 0 -352 -149.5t-140 -400.5q0 -255 148 -398t383 -143q164 0 294 88t236 283
l-32 34q-96 -34 -187 -51.5t-149 -21t-160 -4.5v247h727v-92q0 -243 -93.5 -417.5t-263 -263.5t-399.5 -89z" />
    <glyph glyph-name="H.ss01" horiz-adv-x="1660" 
d="M473 0h-305v1597h305q0 -144 -1 -223.5t-9 -209.5t-23 -253l33 -22q194 48 362.5 48.5t352.5 -48.5l33 22q-15 123 -23 253.5t-9 210t-1 222.5h305v-1597h-305q0 140 1 217t9 204.5t23 252.5l-35 20q-182 -51 -349.5 -50.5t-361.5 50.5l-35 -20q15 -123 23 -250.5t9 -205
t1 -218.5z" />
    <glyph glyph-name="I.ss01" horiz-adv-x="1193" 
d="M1108 0h-1020v281q79 0 124 -1t120 -9.5t147 -24.5q-51 553 0 1106q-73 -16 -150 -24.5t-123 -9.5t-128 -1v280h1040v-280q-82 0 -128 1t-123.5 9.5t-151.5 24.5q51 -553 0 -1106q72 16 147.5 24.5t120.5 9.5t125 1v-281z" />
    <glyph glyph-name="Iacute.ss01" horiz-adv-x="1193" 
d="M1026 2081l-326 -361h-260l232 361h354zM1108 0h-1020v281q79 0 124 -1t120 -9.5t147 -24.5q-51 553 0 1106q-73 -16 -150 -24.5t-123 -9.5t-128 -1v280h1040v-280q-82 0 -128 1t-123.5 9.5t-151.5 24.5q51 -553 0 -1106q72 16 147.5 24.5t120.5 9.5t125 1v-281z" />
    <glyph glyph-name="Icircumflex.ss01" horiz-adv-x="1193" 
d="M438 1720h-266l291 357h278l291 -357h-266q-24 24 -37.5 40t-33 44t-33 64.5t-23.5 83.5h-74q-13 -61 -35 -108t-41 -70t-51 -54zM1108 0h-1020v281q79 0 124 -1t120 -9.5t147 -24.5q-51 553 0 1106q-73 -16 -150 -24.5t-123 -9.5t-128 -1v280h1040v-280q-82 0 -128 1
t-123.5 9.5t-151.5 24.5q51 -553 0 -1106q72 16 147.5 24.5t120.5 9.5t125 1v-281z" />
    <glyph glyph-name="Idieresis.ss01" horiz-adv-x="1193" 
d="M369 1731q-75 0 -125.5 51t-50.5 127q0 70 51 119t125 49q70 0 120 -49.5t50 -118.5q0 -76 -49.5 -127t-120.5 -51zM834 1731q-74 0 -124.5 51t-50.5 127q0 69 51 118.5t124 49.5q72 0 121 -49.5t49 -118.5q0 -76 -49 -127t-121 -51zM1108 0h-1020v281q79 0 124 -1
t120 -9.5t147 -24.5q-51 553 0 1106q-73 -16 -150 -24.5t-123 -9.5t-128 -1v280h1040v-280q-82 0 -128 1t-123.5 9.5t-151.5 24.5q51 -553 0 -1106q72 16 147.5 24.5t120.5 9.5t125 1v-281z" />
    <glyph glyph-name="Idotaccent.ss01" horiz-adv-x="1193" 
d="M600 1755q-78 0 -129 51.5t-51 128.5q0 72 51.5 123t128.5 51q73 0 123.5 -51.5t50.5 -122.5q0 -76 -50 -128t-124 -52zM1108 0h-1020v281q79 0 124 -1t120 -9.5t147 -24.5q-51 553 0 1106q-73 -16 -150 -24.5t-123 -9.5t-128 -1v280h1040v-280q-82 0 -128 1t-123.5 9.5
t-151.5 24.5q51 -553 0 -1106q72 16 147.5 24.5t120.5 9.5t125 1v-281z" />
    <glyph glyph-name="Igrave.ss01" horiz-adv-x="1193" 
d="M758 1720h-260l-328 361h354zM1108 0h-1020v281q79 0 124 -1t120 -9.5t147 -24.5q-51 553 0 1106q-73 -16 -150 -24.5t-123 -9.5t-128 -1v280h1040v-280q-82 0 -128 1t-123.5 9.5t-151.5 24.5q51 -553 0 -1106q72 16 147.5 24.5t120.5 9.5t125 1v-281z" />
    <glyph glyph-name="Imacron.ss01" horiz-adv-x="1193" 
d="M975 1765h-754v213h754v-213zM1108 0h-1020v281q79 0 124 -1t120 -9.5t147 -24.5q-51 553 0 1106q-73 -16 -150 -24.5t-123 -9.5t-128 -1v280h1040v-280q-82 0 -128 1t-123.5 9.5t-151.5 24.5q51 -553 0 -1106q72 16 147.5 24.5t120.5 9.5t125 1v-281z" />
    <glyph glyph-name="J.ss01" horiz-adv-x="1298" 
d="M621 -35q-121 0 -224.5 35t-182 102t-123 174.5t-44.5 243.5v51l301 41v-47q0 -149 69 -231t189 -82q67 0 115 27t73 74t35.5 98.5t10.5 111.5q0 163 1.5 255.5t11 249.5t28.5 306l-19 35q-302 -92 -579 -92v280h860v-987q0 -53 -1 -88t-11.5 -109t-28.5 -126
t-56.5 -117.5t-92 -106.5t-139.5 -69.5t-193 -28.5z" />
    <glyph glyph-name="K.ss01" horiz-adv-x="1474" 
d="M473 0h-305v1597h305q0 -25 0.5 -116.5t0 -132.5t-3 -116t-8.5 -140.5t-16 -133.5h35q226 263 606 639h404q-404 -382 -842 -788v-35q147 -116 278.5 -234t325 -305t244.5 -235h-422q-18 18 -73 69.5t-77.5 73.5t-72 71t-77 79.5t-71.5 80.5t-75.5 91.5t-69 94.5
t-70.5 108h-32q16 -297 16 -668z" />
    <glyph glyph-name="L.ss01" horiz-adv-x="1202" 
d="M1176 0h-1008v1597h305q0 -292 -1.5 -452.5t-10.5 -412.5t-27 -464l35 -35q121 23 255 34.5t220.5 13.5t231.5 2v-283z" />
    <glyph glyph-name="M.ss01" horiz-adv-x="2019" 
d="M477 0h-309v1597h367q99 -182 160.5 -302t143.5 -305t144 -365h53q61 180 144.5 367.5t142 300t162.5 304.5h364v-1597h-309q0 45 -1 243.5t0 286t7.5 250.5t20.5 307h-37l-418 -815h-205l-420 815h-36q14 -144 21 -304t7.5 -257t-1 -279t-1.5 -247z" />
    <glyph glyph-name="N.ss01" horiz-adv-x="1671" 
d="M473 0h-305v1597h332q160 -248 226 -352t201 -335t251 -457h55q-16 227 -24.5 450t-9.5 348.5t-1 345.5h303v-1597h-330q-141 217 -221.5 344t-209.5 350t-246 449h-58q17 -226 26 -449t10 -349t1 -345z" />
    <glyph glyph-name="O.ss01" horiz-adv-x="1775" 
d="M889 -35q-165 0 -313.5 61.5t-258 169.5t-173.5 264.5t-64 336.5q0 181 64 337.5t173 264.5t257.5 169.5t314.5 61.5t315 -62.5t257 -171.5t171.5 -265t63.5 -334t-63 -333.5t-171 -264.5t-257 -171.5t-316 -62.5zM891 252q206 0 345.5 155.5t139.5 389.5q0 232 -138 389
t-347 157q-102 0 -193 -41t-156.5 -112.5t-104 -173.5t-38.5 -219q0 -157 66 -282.5t178.5 -194t247.5 -68.5z" />
    <glyph glyph-name="P.ss01" horiz-adv-x="1386" 
d="M473 0h-305v1597h616q34 0 72 -3.5t94 -16.5t107 -33.5t104 -59.5t91 -90.5t62.5 -130t24.5 -173.5q0 -93 -24.5 -171t-63 -129.5t-91.5 -91t-103.5 -61.5t-105 -35.5t-91.5 -17.5t-67 -4q-78 0 -118 2t-107.5 18t-131.5 49q17 -120 26 -248t10 -201.5t1 -199.5zM436 811
l33 -18q45 31 95.5 46t80 17t84.5 2q39 0 75 5t77 20t70.5 39t49 67.5t19.5 100.5q0 68 -28 116t-74.5 70.5t-91 31.5t-93.5 9q-57 0 -88.5 1.5t-81.5 12.5t-94 33l-37 -21q30 -138 30.5 -264t-26.5 -268z" />
    <glyph glyph-name="Q.ss01" horiz-adv-x="1779" 
d="M616 -205v-37q139 31 267.5 50.5t261.5 27t214 9t226 1.5v-262h-1479q68 78 207 232.5t207 232.5q-200 99 -319 296t-119 452q0 182 63 338.5t172 264.5t257.5 169t316.5 61t317 -62t257 -170.5t170.5 -264.5t62.5 -336q0 -179 -62.5 -334.5t-170.5 -264.5t-257.5 -171
t-318.5 -62q-45 0 -68 2q-83 -80 -205 -172zM893 1343q-212 0 -352 -153t-140 -393q0 -241 141 -393t351 -152t347.5 154t137.5 391q0 235 -136.5 390.5t-348.5 155.5z" />
    <glyph glyph-name="R.ss01" horiz-adv-x="1433" 
d="M473 0h-305v1597h616q30 0 65.5 -3.5t91.5 -16.5t107.5 -34t106 -61t94 -92t65 -131.5t25.5 -175.5q0 -97 -28.5 -172t-75 -124t-120.5 -85.5t-149 -57.5t-178 -38q180 -162 615 -606h-359q-187 185 -326 339t-263 331h-19q17 -132 26 -264.5t10 -206t1 -199.5zM436 795
l33 -21q100 51 260 51q37 0 74.5 7.5t77.5 26t70 46t49.5 72.5t19.5 100t-19 98.5t-49 70t-69.5 44t-76 24.5t-73.5 7q-53 0 -83.5 1.5t-81 11.5t-99.5 30l-37 -21q59 -267 4 -548z" />
    <glyph glyph-name="S.ss01" horiz-adv-x="1343" 
d="M690 -35q-237 0 -407 124t-226 349l285 97q22 -81 59.5 -140t84.5 -91.5t96.5 -47t103.5 -14.5q112 0 189 52t77 144q0 39 -16.5 71t-38 52t-64 40.5t-70 30.5t-81.5 27l-143 43q-47 14 -87 29.5t-92.5 42t-93.5 61.5t-77 80.5t-56 108t-20 135.5q0 141 74 249.5
t198.5 165t278.5 56.5q216 0 365 -108.5t190 -264.5l-279 -112q-79 209 -283 209q-100 0 -162.5 -48t-62.5 -122q0 -37 17.5 -69t42.5 -54t65.5 -43t72.5 -33t79 -27l168 -53q35 -11 52.5 -17t55.5 -21t60.5 -27t57 -33.5t55.5 -43t46 -52.5t39 -65t23.5 -78t9.5 -93
q0 -221 -161 -365.5t-425 -144.5z" />
    <glyph glyph-name="U.ss01" horiz-adv-x="1542" 
d="M688 -35q-99 0 -181 28.5t-136 73.5t-95.5 108t-64 123t-36 127.5t-17.5 113.5t-4 88v970h303v-946q0 -50 6 -98t25.5 -104.5t50.5 -98.5t86 -70t127 -28t129.5 28t91.5 70.5t56.5 98t31 105t8.5 97.5v946h305v-1597h-289q0 104 33 262h-37q-49 -153 -139.5 -225
t-253.5 -72z" />
    <glyph glyph-name="Uacute.ss01" horiz-adv-x="1542" 
d="M1174 2081l-328 -361h-260l231 361h357zM688 -35q-99 0 -181 28.5t-136 73.5t-95.5 108t-64 123t-36 127.5t-17.5 113.5t-4 88v970h303v-946q0 -50 6 -98t25.5 -104.5t50.5 -98.5t86 -70t127 -28t129.5 28t91.5 70.5t56.5 98t31 105t8.5 97.5v946h305v-1597h-289
q0 104 33 262h-37q-49 -153 -139.5 -225t-253.5 -72z" />
    <glyph glyph-name="Ucircumflex.ss01" horiz-adv-x="1542" 
d="M592 1720h-266l290 357h279l291 -357h-266q-24 24 -37.5 40t-33 44t-33 64.5t-23.5 83.5h-74q-13 -61 -35 -108t-41 -70t-51 -54zM688 -35q-99 0 -181 28.5t-136 73.5t-95.5 108t-64 123t-36 127.5t-17.5 113.5t-4 88v970h303v-946q0 -50 6 -98t25.5 -104.5t50.5 -98.5
t86 -70t127 -28t129.5 28t91.5 70.5t56.5 98t31 105t8.5 97.5v946h305v-1597h-289q0 104 33 262h-37q-49 -153 -139.5 -225t-253.5 -72z" />
    <glyph glyph-name="Udieresis.ss01" horiz-adv-x="1542" 
d="M522 1731q-75 0 -125.5 51t-50.5 127q0 70 51 119t125 49q70 0 120 -49.5t50 -118.5q0 -76 -49.5 -127t-120.5 -51zM987 1731q-74 0 -124 51t-50 127q0 69 50.5 118.5t123.5 49.5q71 0 120.5 -49.5t49.5 -118.5q0 -76 -49 -127t-121 -51zM688 -35q-99 0 -181 28.5
t-136 73.5t-95.5 108t-64 123t-36 127.5t-17.5 113.5t-4 88v970h303v-946q0 -50 6 -98t25.5 -104.5t50.5 -98.5t86 -70t127 -28t129.5 28t91.5 70.5t56.5 98t31 105t8.5 97.5v946h305v-1597h-289q0 104 33 262h-37q-49 -153 -139.5 -225t-253.5 -72z" />
    <glyph glyph-name="Ugrave.ss01" horiz-adv-x="1542" 
d="M913 1720h-260l-327 361h354zM688 -35q-99 0 -181 28.5t-136 73.5t-95.5 108t-64 123t-36 127.5t-17.5 113.5t-4 88v970h303v-946q0 -50 6 -98t25.5 -104.5t50.5 -98.5t86 -70t127 -28t129.5 28t91.5 70.5t56.5 98t31 105t8.5 97.5v946h305v-1597h-289q0 104 33 262h-37
q-49 -153 -139.5 -225t-253.5 -72z" />
    <glyph glyph-name="Uhungarumlaut.ss01" horiz-adv-x="1542" 
d="M932 2079l-309 -359h-250l219 359h340zM1399 2079l-314 -359h-249l223 359h340zM688 -35q-99 0 -181 28.5t-136 73.5t-95.5 108t-64 123t-36 127.5t-17.5 113.5t-4 88v970h303v-946q0 -50 6 -98t25.5 -104.5t50.5 -98.5t86 -70t127 -28t129.5 28t91.5 70.5t56.5 98
t31 105t8.5 97.5v946h305v-1597h-289q0 104 33 262h-37q-49 -153 -139.5 -225t-253.5 -72z" />
    <glyph glyph-name="Umacron.ss01" horiz-adv-x="1542" 
d="M1130 1765h-753v213h753v-213zM688 -35q-99 0 -181 28.5t-136 73.5t-95.5 108t-64 123t-36 127.5t-17.5 113.5t-4 88v970h303v-946q0 -50 6 -98t25.5 -104.5t50.5 -98.5t86 -70t127 -28t129.5 28t91.5 70.5t56.5 98t31 105t8.5 97.5v946h305v-1597h-289q0 104 33 262h-37
q-49 -153 -139.5 -225t-253.5 -72z" />
    <glyph glyph-name="Uogonek.ss01" horiz-adv-x="1542" 
d="M1309 -281q48 0 88 11v-174q-53 -19 -133 -19q-128 0 -218 61.5t-90 174.5q0 69 45 129t127 98h-43q0 104 33 262h-37q-49 -153 -139.5 -225t-253.5 -72q-99 0 -181 28.5t-136 73.5t-95.5 108t-64 123t-36 127.5t-17.5 113.5t-4 88v970h303v-946q0 -50 6 -98t25.5 -104.5
t50.5 -98.5t86 -70t127 -28t129.5 28t91.5 70.5t56.5 98t31 105t8.5 97.5v946h305v-1597h-49q-49 -10 -84.5 -29t-52.5 -43t-24 -45t-7 -41q0 -47 38 -85t114 -38z" />
    <glyph glyph-name="Uring.ss01" horiz-adv-x="1542" 
d="M754 1710q-110 0 -186 73t-76 177q0 105 75.5 176.5t186.5 71.5q109 0 183.5 -71.5t74.5 -176.5q0 -108 -74 -179t-184 -71zM754 1847q45 0 75.5 32.5t30.5 80.5q0 45 -30.5 76.5t-75.5 31.5q-50 0 -80.5 -31t-30.5 -77q0 -48 30.5 -80.5t80.5 -32.5zM688 -35
q-99 0 -181 28.5t-136 73.5t-95.5 108t-64 123t-36 127.5t-17.5 113.5t-4 88v970h303v-946q0 -50 6 -98t25.5 -104.5t50.5 -98.5t86 -70t127 -28t129.5 28t91.5 70.5t56.5 98t31 105t8.5 97.5v946h305v-1597h-289q0 104 33 262h-37q-49 -153 -139.5 -225t-253.5 -72z" />
    <glyph glyph-name="V.ss01" horiz-adv-x="1589" 
d="M991 0h-405l-580 1597h320q266 -730 436 -1237h63q163 483 439 1237h321z" />
    <glyph glyph-name="W.ss01" horiz-adv-x="2371" 
d="M856 0h-385l-455 1597h349l268 -1167h37l286 1167h465l283 -1167h35l268 1167h348l-454 -1597h-379l-291 1282h-86z" />
    <glyph glyph-name="Wacute.ss01" horiz-adv-x="2371" 
d="M1647 2081l-326 -361h-260l231 361h355zM856 0h-385l-455 1597h349l268 -1167h37l286 1167h465l283 -1167h35l268 1167h348l-454 -1597h-379l-291 1282h-86z" />
    <glyph glyph-name="Wcircumflex.ss01" horiz-adv-x="2371" 
d="M1024 1720h-266l291 357h278l291 -357h-266q-24 24 -37.5 40t-33 44t-33 64.5t-23.5 83.5h-74q-13 -61 -35 -108t-41 -70t-51 -54zM856 0h-385l-455 1597h349l268 -1167h37l286 1167h465l283 -1167h35l268 1167h348l-454 -1597h-379l-291 1282h-86z" />
    <glyph glyph-name="Wdieresis.ss01" horiz-adv-x="2371" 
d="M954 1731q-75 0 -125.5 51t-50.5 127q0 70 51 119t125 49q70 0 120 -49.5t50 -118.5q0 -76 -49.5 -127t-120.5 -51zM1419 1731q-74 0 -124 51t-50 127q0 69 50.5 118.5t123.5 49.5q71 0 120.5 -49.5t49.5 -118.5q0 -76 -49 -127t-121 -51zM856 0h-385l-455 1597h349
l268 -1167h37l286 1167h465l283 -1167h35l268 1167h348l-454 -1597h-379l-291 1282h-86z" />
    <glyph glyph-name="Wgrave.ss01" horiz-adv-x="2371" 
d="M1346 1720h-261l-327 361h354zM856 0h-385l-455 1597h349l268 -1167h37l286 1167h465l283 -1167h35l268 1167h348l-454 -1597h-379l-291 1282h-86z" />
    <glyph glyph-name="X.ss01" horiz-adv-x="1476" 
d="M344 0h-342l520 797l-2 37l-518 763h342q183 -287 371 -636h53q196 359 373 636h332l-517 -763v-37l519 -797h-334q-175 280 -373 645h-53q-170 -319 -371 -645z" />
    <glyph glyph-name="Y.ss01" horiz-adv-x="1478" 
d="M610 0h-327q199 357 360 571q-107 159 -222.5 349t-193 326t-196.5 351h329q95 -175 137 -253.5t115.5 -234t126.5 -298.5h41q53 144 123 293.5t120.5 244t137.5 248.5h330z" />
    <glyph glyph-name="Yacute.ss01" horiz-adv-x="1478" 
d="M1202 2081l-325 -361h-261l232 361h354zM610 0h-327q199 357 360 571q-107 159 -222.5 349t-193 326t-196.5 351h329q95 -175 137 -253.5t115.5 -234t126.5 -298.5h41q53 144 123 293.5t120.5 244t137.5 248.5h330z" />
    <glyph glyph-name="Ycircumflex.ss01" horiz-adv-x="1478" 
d="M596 1720h-266l291 357h278l291 -357h-266q-24 24 -37.5 40t-33 44t-33 64.5t-23.5 83.5h-74q-13 -61 -35 -108t-41 -70t-51 -54zM610 0h-327q199 357 360 571q-107 159 -222.5 349t-193 326t-196.5 351h329q95 -175 137 -253.5t115.5 -234t126.5 -298.5h41
q53 144 123 293.5t120.5 244t137.5 248.5h330z" />
    <glyph glyph-name="Ydieresis.ss01" horiz-adv-x="1478" 
d="M526 1731q-75 0 -125.5 51t-50.5 127q0 70 51 119t125 49q70 0 120 -49.5t50 -118.5q0 -76 -49.5 -127t-120.5 -51zM991 1731q-74 0 -124 51t-50 127q0 69 50.5 118.5t123.5 49.5q71 0 120.5 -49.5t49.5 -118.5q0 -76 -49 -127t-121 -51zM610 0h-327q199 357 360 571
q-107 159 -222.5 349t-193 326t-196.5 351h329q95 -175 137 -253.5t115.5 -234t126.5 -298.5h41q53 144 123 293.5t120.5 244t137.5 248.5h330z" />
    <glyph glyph-name="Ygrave.ss01" horiz-adv-x="1478" 
d="M918 1720h-261l-327 361h354zM610 0h-327q199 357 360 571q-107 159 -222.5 349t-193 326t-196.5 351h329q95 -175 137 -253.5t115.5 -234t126.5 -298.5h41q53 144 123 293.5t120.5 244t137.5 248.5h330z" />
    <glyph glyph-name="Z.ss01" horiz-adv-x="1429" 
d="M1348 0h-1364q14 20 85.5 124.5t90.5 132t84.5 123.5t92 134t87.5 126.5t96 137.5t92 130.5t100.5 142.5t97 136t105.5 146l-18 45q-135 -29 -283.5 -44t-239 -17t-251.5 -2v282h1298q-22 -32 -163 -240.5t-191.5 -282.5t-164 -239t-207 -297t-193.5 -270l18 -49
q142 29 299.5 44t258 17.5t270.5 2.5v-283z" />
    <glyph glyph-name="Zacute.ss01" horiz-adv-x="1429" 
d="M1176 2081l-326 -361h-260l231 361h355zM1348 0h-1364q14 20 85.5 124.5t90.5 132t84.5 123.5t92 134t87.5 126.5t96 137.5t92 130.5t100.5 142.5t97 136t105.5 146l-18 45q-135 -29 -283.5 -44t-239 -17t-251.5 -2v282h1298q-22 -32 -163 -240.5t-191.5 -282.5
t-164 -239t-207 -297t-193.5 -270l18 -49q142 29 299.5 44t258 17.5t270.5 2.5v-283z" />
    <glyph glyph-name="Zcaron.ss01" horiz-adv-x="1429" 
d="M858 1720h-287l-286 357h266q32 -31 51 -54t41.5 -70t36.5 -108h72q10 47 23.5 83.5t33 64.5t33 44t37.5 40h266zM1348 0h-1364q14 20 85.5 124.5t90.5 132t84.5 123.5t92 134t87.5 126.5t96 137.5t92 130.5t100.5 142.5t97 136t105.5 146l-18 45q-135 -29 -283.5 -44
t-239 -17t-251.5 -2v282h1298q-22 -32 -163 -240.5t-191.5 -282.5t-164 -239t-207 -297t-193.5 -270l18 -49q142 29 299.5 44t258 17.5t270.5 2.5v-283z" />
    <glyph glyph-name="Zdotaccent.ss01" horiz-adv-x="1429" 
d="M733 1755q-78 0 -129 51.5t-51 128.5q0 72 51.5 123t128.5 51q73 0 123.5 -51.5t50.5 -122.5q0 -76 -50 -128t-124 -52zM1348 0h-1364q14 20 85.5 124.5t90.5 132t84.5 123.5t92 134t87.5 126.5t96 137.5t92 130.5t100.5 142.5t97 136t105.5 146l-18 45
q-135 -29 -283.5 -44t-239 -17t-251.5 -2v282h1298q-22 -32 -163 -240.5t-191.5 -282.5t-164 -239t-207 -297t-193.5 -270l18 -49q142 29 299.5 44t258 17.5t270.5 2.5v-283z" />
    <glyph glyph-name="Q.ss02" horiz-adv-x="1775" 
d="M1006 -20q17 -57 6 -187q92 25 191 37t159 14t168 2v-262q-171 0 -264 1t-231 9.5t-242 24.5q-22 207 -5 356q-152 20 -282.5 88.5t-224.5 174t-147.5 250t-53.5 309.5q0 181 64 337.5t173 264.5t257.5 169.5t314.5 61.5t315 -62.5t257 -171.5t171.5 -265t63.5 -334
q0 -322 -191 -545.5t-499 -271.5zM399 797q0 -196 104 -338.5t290 -202.5q-15 71 -23 146.5t-9 120.5t-1 124h287q0 -82 -1.5 -128t-11.5 -120t-30 -141q175 65 273.5 207.5t98.5 331.5q0 232 -138 389t-347 157q-102 0 -193 -41t-156.5 -112.5t-104 -173.5t-38.5 -219z" />
    <glyph glyph-name="A.ss07" 
d="M1020 -315q-197 0 -371.5 71t-298.5 193.5t-196 293.5t-72 365q0 198 72 372.5t196 298.5t298 195.5t372 71.5q200 0 375.5 -71.5t301 -195.5t197.5 -298.5t72 -372.5q0 -259 -123 -470.5t-339.5 -332t-483.5 -120.5zM915 1096l-364 -963h203q63 151 77 256l11 10
q107 -14 184 -14q79 0 182 14l9 -8q14 -98 77 -258h209l-364 963h-224zM901 543l-4 4q88 184 113 381h30q13 -111 39.5 -198t71.5 -183l-4 -4q-82 12 -121 12q-35 0 -125 -12z" />
    <glyph glyph-name="B.ss07" 
d="M1020 -315q-197 0 -371.5 71t-298.5 193.5t-196 293.5t-72 365q0 198 72 372.5t196 298.5t298 195.5t372 71.5q200 0 375.5 -71.5t301 -195.5t197.5 -298.5t72 -372.5q0 -259 -123 -470.5t-339.5 -332t-483.5 -120.5zM694 1096v-963h402q57 0 111.5 13.5t106.5 42t84 83
t32 127.5q0 93 -52.5 147.5t-163.5 76.5v10q88 22 135.5 77t47.5 134q0 115 -82 183.5t-217 68.5h-404zM883 676l-11 6q26 139 -6 252l13 8q16 -8 33 -14t28 -9t28 -4.5t24 -2t26 0t24 0.5q71 0 108.5 -26.5t37.5 -75.5q0 -57 -43 -81.5t-105 -24.5q-96 0 -157 -29zM881 289
l-15 14q32 111 6 252l13 8q32 -13 66.5 -20t53 -7.5t56.5 -0.5q75 0 116.5 -29t41.5 -82q0 -52 -41.5 -80.5t-118.5 -28.5q-113 0 -178 -26z" />
    <glyph glyph-name="C.ss07" 
d="M1020 -315q-197 0 -371.5 71t-298.5 193.5t-196 293.5t-72 365q0 198 72 372.5t196 298.5t298 195.5t372 71.5q200 0 375.5 -71.5t301 -195.5t197.5 -298.5t72 -372.5q0 -259 -123 -470.5t-339.5 -332t-483.5 -120.5zM1040 113q172 0 293.5 91.5t173.5 264.5l-182 59
q-32 -106 -104.5 -167.5t-178.5 -61.5q-55 0 -105 17t-93.5 52.5t-69.5 97t-26 142.5q0 145 78 233.5t204 88.5q96 0 162 -53t102 -144l183 74q-50 144 -171 226.5t-274 82.5q-96 0 -184 -34t-156.5 -95.5t-109.5 -157.5t-41 -211q0 -224 139.5 -364.5t359.5 -140.5z" />
    <glyph glyph-name="D.ss07" 
d="M1020 -315q-197 0 -371.5 71t-298.5 193.5t-196 293.5t-72 365q0 198 72 372.5t196 298.5t298 195.5t372 71.5q200 0 375.5 -71.5t301 -195.5t197.5 -298.5t72 -372.5q0 -259 -123 -470.5t-339.5 -332t-483.5 -120.5zM657 1096v-963h387q203 0 325 133t122 355
q0 224 -121.5 349.5t-337.5 125.5h-375zM846 289l-15 14q57 301 0 631l13 8q55 -29 143 -29q43 0 78.5 -5.5t77.5 -24.5t71 -50.5t48.5 -88.5t19.5 -134q0 -145 -65.5 -220t-194.5 -75q-115 0 -176 -26z" />
    <glyph glyph-name="E.ss07" 
d="M1020 -315q-197 0 -371.5 71t-298.5 193.5t-196 293.5t-72 365q0 198 72 372.5t196 298.5t298 195.5t372 71.5q200 0 375.5 -71.5t301 -195.5t197.5 -298.5t72 -372.5q0 -259 -123 -470.5t-339.5 -332t-483.5 -120.5zM707 1096v-963h647v184q-101 0 -150.5 -0.5
t-139 -7.5t-169.5 -20l-14 14q29 116 4 256l12 8q73 -19 153 -28.5t129.5 -11t139.5 -1.5v191q-98 0 -141.5 -1t-126.5 -10t-156 -28l-10 8q25 131 -4 248l14 8q79 -14 168 -21t131 -7.5t147 -0.5v183h-634z" />
    <glyph glyph-name="F.ss07" 
d="M1020 -315q-197 0 -371.5 71t-298.5 193.5t-196 293.5t-72 365q0 198 72 372.5t196 298.5t298 195.5t372 71.5q200 0 375.5 -71.5t301 -195.5t197.5 -298.5t72 -372.5q0 -259 -123 -470.5t-339.5 -332t-483.5 -120.5zM729 1096v-963h199q0 252 -27 406l12 8
q72 -19 152 -28.5t129 -11t137 -1.5v190q-94 0 -136.5 -1t-126 -10t-157.5 -28l-10 9q38 140 2 268l15 8q77 -14 160.5 -21.5t135 -8.5t142.5 -1v185h-627z" />
    <glyph glyph-name="G.ss07" 
d="M1020 -315q-197 0 -371.5 71t-298.5 193.5t-196 293.5t-72 365q0 198 72 372.5t196 298.5t298 195.5t372 71.5q200 0 375.5 -71.5t301 -195.5t197.5 -298.5t72 -372.5q0 -259 -123 -470.5t-339.5 -332t-483.5 -120.5zM1016 113q116 0 194 50.5t133 162.5l17 -4
q-12 -36 -17.5 -68t-5.5 -47.5t1 -40.5t1 -33h154v508h-446v-166q2 0 29.5 0.5t35 1t34 2t39.5 3t38 5.5t42.5 8.5t39.5 11t43 15.5l10 -12q-112 -211 -309 -211q-41 0 -81.5 9.5t-81 32.5t-70.5 57.5t-49 88.5t-19 121q0 143 78.5 232.5t205.5 89.5q181 0 262 -197l183 74
q-49 144 -170.5 226.5t-274.5 82.5q-133 0 -244 -59.5t-179 -175.5t-68 -267q0 -219 134 -360t341 -141z" />
    <glyph glyph-name="H.ss07" 
d="M1020 -315q-197 0 -371.5 71t-298.5 193.5t-196 293.5t-72 365q0 198 72 372.5t196 298.5t298 195.5t372 71.5q200 0 375.5 -71.5t301 -195.5t197.5 -298.5t72 -372.5q0 -259 -123 -470.5t-339.5 -332t-483.5 -120.5zM623 1096v-963h196q0 246 -18 404l12 8
q221 -56 420 0l12 -8q-16 -142 -16 -404h196v963h-196q0 -270 16 -410l-10 -8q-202 53 -422 0l-12 8q18 156 18 410h-196z" />
    <glyph glyph-name="I.ss07" 
d="M1020 -315q-197 0 -371.5 71t-298.5 193.5t-196 293.5t-72 365q0 198 72 372.5t196 298.5t298 195.5t372 71.5q200 0 375.5 -71.5t301 -195.5t197.5 -298.5t72 -372.5q0 -259 -123 -470.5t-339.5 -332t-483.5 -120.5zM930 1096v-963h196v963h-196z" />
    <glyph glyph-name="J.ss07" 
d="M1020 -315q-197 0 -371.5 71t-298.5 193.5t-196 293.5t-72 365q0 198 72 372.5t196 298.5t298 195.5t372 71.5q200 0 375.5 -71.5t301 -195.5t197.5 -298.5t72 -372.5q0 -259 -123 -470.5t-339.5 -332t-483.5 -120.5zM999 123q65 0 117 17.5t84.5 42t56.5 64.5t35 72.5
t17 78.5t7 69t1 57v582h-197v-610q0 -187 -129 -187q-67 0 -107 44t-40 130v41l-195 -26v-41q0 -156 97 -245t253 -89z" />
    <glyph glyph-name="K.ss07" 
d="M1020 -315q-197 0 -371.5 71t-298.5 193.5t-196 293.5t-72 365q0 198 72 372.5t196 298.5t298 195.5t372 71.5q200 0 375.5 -71.5t301 -195.5t197.5 -298.5t72 -372.5q0 -259 -123 -470.5t-339.5 -332t-483.5 -120.5zM664 1096v-963h196q0 194 -8 303q43 27 102 96h7
q86 -141 274 -399h238q-81 113 -131 181t-128.5 164.5t-152.5 172.5v17q125 125 397 428h-233q-212 -233 -391 -453h-9q9 37 15 73t10 73.5t6 63.5t3 66t1 58v62.5v56.5h-196z" />
    <glyph glyph-name="L.ss07" 
d="M1020 -315q-197 0 -371.5 71t-298.5 193.5t-196 293.5t-72 365q0 198 72 372.5t196 298.5t298 195.5t372 71.5q200 0 375.5 -71.5t301 -195.5t197.5 -298.5t72 -372.5q0 -259 -123 -470.5t-339.5 -332t-483.5 -120.5zM793 1096v-963h614v184q-95 0 -141.5 -0.5t-129 -7.5
t-155.5 -20l-14 14q22 260 22 793h-196z" />
    <glyph glyph-name="M.ss07" 
d="M1020 -315q-197 0 -371.5 71t-298.5 193.5t-196 293.5t-72 365q0 198 72 372.5t196 298.5t298 195.5t372 71.5q200 0 375.5 -71.5t301 -195.5t197.5 -298.5t72 -372.5q0 -259 -123 -470.5t-339.5 -332t-483.5 -120.5zM498 1096v-963h198v85v93t-1 85.5t-3.5 98.5
t-6.5 92.5t-10.5 106.5t-15.5 105h9q46 -119 97.5 -236.5t111 -245t84.5 -184.5h124q25 57 84.5 184.5t111 245t97.5 236.5h8q-10 -65 -17.5 -132.5t-11 -113t-5.5 -118t-2.5 -99t0 -108t0.5 -95.5h200v963h-217q-188 -356 -301 -707h-18q-111 354 -301 707h-215z" />
    <glyph glyph-name="N.ss07" 
d="M1020 -315q-197 0 -371.5 71t-298.5 193.5t-196 293.5t-72 365q0 198 72 372.5t196 298.5t298 195.5t372 71.5q200 0 375.5 -71.5t301 -195.5t197.5 -298.5t72 -372.5q0 -259 -123 -470.5t-339.5 -332t-483.5 -120.5zM633 1096v-963h196v83.5v93t-0.5 84t-2 98.5t-3.5 92
t-5.5 108.5t-8.5 106.5h8q95 -183 198 -333.5t247 -332.5h178v963h-197q0 -414 23 -686h-9q-100 195 -206.5 356.5t-239.5 329.5h-178z" />
    <glyph glyph-name="O.ss07" 
d="M1020 -315q-197 0 -371.5 71t-298.5 193.5t-196 293.5t-72 365q0 198 72 372.5t196 298.5t298 195.5t372 71.5q200 0 375.5 -71.5t301 -195.5t197.5 -298.5t72 -372.5q0 -259 -123 -470.5t-339.5 -332t-483.5 -120.5zM1026 113q209 0 348 143.5t139 357.5t-139 358
t-348 144q-207 0 -347 -143.5t-140 -358.5t139 -358t348 -143zM745 614q0 134 81 225t202 91q118 0 198.5 -91t80.5 -225q0 -135 -80 -225t-199 -90q-121 0 -202 90t-81 225z" />
    <glyph glyph-name="P.ss07" 
d="M1020 -315q-197 0 -371.5 71t-298.5 193.5t-196 293.5t-72 365q0 198 72 372.5t196 298.5t298 195.5t372 71.5q200 0 375.5 -71.5t301 -195.5t197.5 -298.5t72 -372.5q0 -259 -123 -470.5t-339.5 -332t-483.5 -120.5zM719 1096v-963h196q0 229 -20 379q36 -17 73.5 -25.5
t61 -10t66.5 -1.5q28 0 62 5.5t84 25t89 51.5t67.5 92t28.5 139q0 80 -28.5 140t-67.5 91t-90 49.5t-85 23t-64 4.5h-373zM903 621l-10 6q30 167 -2 307l12 8q55 -29 156 -29q164 0 164 -127t-166 -127q-32 0 -49 -1t-48 -10t-57 -27z" />
    <glyph glyph-name="Q.ss07" 
d="M1020 -315q-197 0 -371.5 71t-298.5 193.5t-196 293.5t-72 365q0 198 72 372.5t196 298.5t298 195.5t372 71.5q200 0 375.5 -71.5t301 -195.5t197.5 -298.5t72 -372.5q0 -259 -123 -470.5t-339.5 -332t-483.5 -120.5zM1366 43l143 119q-91 108 -161 157q168 136 168 363
q0 217 -141.5 359.5t-356.5 142.5q-214 0 -355 -142.5t-141 -359.5t141 -359.5t355 -142.5q121 0 213 58q13 -33 40.5 -73.5t43.5 -60.5t51 -61zM723 682q0 139 83 227t214 88t213 -88t82 -227q0 -159 -70 -250q-40 90 -158 236l-143 -119q36 -47 55 -70.5t55 -58t68 -53.5
q-59 -19 -100 -19q-129 0 -214 95.5t-85 238.5z" />
    <glyph glyph-name="R.ss07" 
d="M1020 -315q-197 0 -371.5 71t-298.5 193.5t-196 293.5t-72 365q0 198 72 372.5t196 298.5t298 195.5t372 71.5q200 0 375.5 -71.5t301 -195.5t197.5 -298.5t72 -372.5q0 -259 -123 -470.5t-339.5 -332t-483.5 -120.5zM715 1096v-963h196q0 246 -20 381q70 -26 117 -31
l223 -350h223q-60 89 -88 130.5t-87.5 115t-119.5 131.5v8q52 5 98 22t84.5 47.5t61 80.5t22.5 114q0 69 -20 123.5t-54 87t-70.5 54.5t-78 32t-68 13.5t-47.5 3.5h-372zM901 610l-10 6q28 159 -2 318l12 8q66 -27 156 -27q62 0 112 -32t50 -103q0 -51 -28.5 -84.5t-63 -45
t-72.5 -11.5q-97 0 -154 -29z" />
    <glyph glyph-name="S.ss07" 
d="M1020 -315q-197 0 -371.5 71t-298.5 193.5t-196 293.5t-72 365q0 198 72 372.5t196 298.5t298 195.5t372 71.5q200 0 375.5 -71.5t301 -195.5t197.5 -298.5t72 -372.5q0 -259 -123 -470.5t-339.5 -332t-483.5 -120.5zM1042 113q157 0 256 86.5t99 224.5q0 52 -18 95.5
t-41.5 69t-61.5 48t-62 31.5t-59 20l-100 33q-34 11 -55.5 19.5t-46 23t-36.5 34t-12 44.5q0 40 32.5 65t86.5 25q117 0 162 -123l178 74q-20 94 -111 163.5t-225 69.5q-147 0 -244.5 -79.5t-97.5 -209.5q0 -54 19.5 -99.5t45.5 -73.5t66 -52t68.5 -35t64.5 -22l84 -27
q29 -9 45 -14.5t38.5 -16t34 -21t20 -27t8.5 -36.5q0 -49 -40.5 -77.5t-101.5 -28.5q-75 0 -125.5 44t-72.5 128l-183 -61q33 -142 137 -218.5t248 -76.5z" />
    <glyph glyph-name="T.ss07" 
d="M1020 -315q-197 0 -371.5 71t-298.5 193.5t-196 293.5t-72 365q0 198 72 372.5t196 298.5t298 195.5t372 71.5q200 0 375.5 -71.5t301 -195.5t197.5 -298.5t72 -372.5q0 -259 -123 -470.5t-339.5 -332t-483.5 -120.5zM924 133h198q0 520 -20 801q121 -21 303 -21v183
h-766v-183q184 0 303 21q-18 -281 -18 -801z" />
    <glyph glyph-name="U.ss07" 
d="M1020 -315q-197 0 -371.5 71t-298.5 193.5t-196 293.5t-72 365q0 198 72 372.5t196 298.5t298 195.5t372 71.5q200 0 375.5 -71.5t301 -195.5t197.5 -298.5t72 -372.5q0 -259 -123 -470.5t-339.5 -332t-483.5 -120.5zM1020 123q93 0 162.5 26.5t108.5 66.5t62.5 97
t30.5 106t7 105v582h-197v-567q0 -118 -41.5 -174t-130.5 -56t-131.5 56.5t-42.5 173.5v567h-197v-582q0 -401 369 -401z" />
    <glyph glyph-name="V.ss07" 
d="M1020 -315q-197 0 -371.5 71t-298.5 193.5t-196 293.5t-72 365q0 198 72 372.5t196 298.5t298 195.5t372 71.5q200 0 375.5 -71.5t301 -195.5t197.5 -298.5t72 -372.5q0 -259 -123 -470.5t-339.5 -332t-483.5 -120.5zM565 1096l367 -963h223l365 963h-207
q-45 -108 -130.5 -358.5t-123.5 -415.5h-29q-54 255 -256 774h-209z" />
    <glyph glyph-name="W.ss07" 
d="M1020 -315q-197 0 -371.5 71t-298.5 193.5t-196 293.5t-72 365q0 198 72 372.5t196 298.5t298 195.5t372 71.5q200 0 375.5 -71.5t301 -195.5t197.5 -298.5t72 -372.5q0 -259 -123 -470.5t-339.5 -332t-483.5 -120.5zM319 1096l277 -963h240q122 390 180 711h18
q33 -187 74.5 -339.5t110.5 -371.5h235l275 963h-222q-107 -373 -170 -752h-8q-73 362 -196 752h-215q-131 -417 -197 -742h-8q-55 330 -170 742h-224z" />
    <glyph glyph-name="X.ss07" 
d="M1020 -315q-197 0 -371.5 71t-298.5 193.5t-196 293.5t-72 365q0 198 72 372.5t196 298.5t298 195.5t372 71.5q200 0 375.5 -71.5t301 -195.5t197.5 -298.5t72 -372.5q0 -259 -123 -470.5t-339.5 -332t-483.5 -120.5zM604 131h238q129 217 188 348h10q69 -159 185 -348
h235q-215 335 -323 477v17q134 174 327 471h-231q-112 -169 -193 -344h-10q-99 206 -190 344h-234q197 -304 324 -471v-17q-128 -168 -326 -477z" />
    <glyph glyph-name="Y.ss07" 
d="M1020 -315q-197 0 -371.5 71t-298.5 193.5t-196 293.5t-72 365q0 198 72 372.5t196 298.5t298 195.5t372 71.5q200 0 375.5 -71.5t301 -195.5t197.5 -298.5t72 -372.5q0 -259 -123 -470.5t-339.5 -332t-483.5 -120.5zM926 133h196q0 221 -10 334q43 73 92.5 161.5
t82 148.5t89.5 166.5t82 152.5h-211q-141 -263 -219 -484h-10q-74 212 -217 484h-213q224 -418 348 -631q-10 -92 -10 -332z" />
    <glyph glyph-name="Z.ss07" 
d="M1020 -315q-197 0 -371.5 71t-298.5 193.5t-196 293.5t-72 365q0 198 72 372.5t196 298.5t298 195.5t372 71.5q200 0 375.5 -71.5t301 -195.5t197.5 -298.5t72 -372.5q0 -259 -123 -470.5t-339.5 -332t-483.5 -120.5zM645 291v-158h752v184q-293 0 -568 -57l-4 10
q329 354 561 666v160h-724v-183q266 0 532 60l4 -12q-295 -322 -553 -670z" />
    <glyph glyph-name="A.ss08" 
d="M1020 -315q-197 0 -371.5 71t-298.5 193.5t-196 293.5t-72 365q0 198 72 372.5t196 298.5t298 195.5t372 71.5q200 0 375.5 -71.5t301 -195.5t197.5 -298.5t72 -372.5q0 -259 -123 -470.5t-339.5 -332t-483.5 -120.5zM1020 -162q167 0 314 59t251.5 161t164.5 245.5
t60 306.5q0 220 -102.5 399.5t-283.5 281.5t-404 102q-220 0 -399.5 -102t-282 -281.5t-102.5 -399.5q0 -216 102.5 -393t282 -278t399.5 -101zM854 309h-131l233 613h140l233 -613h-135q-42 109 -51 166l-4 4q-58 -10 -113 -10q-53 0 -115 10l-6 -4q-9 -67 -51 -166z
M946 571q53 11 80 11q28 0 78 -11q-60 123 -72 240h-14q-15 -118 -72 -240z" />
    <glyph glyph-name="B.ss08" 
d="M1020 -315q-197 0 -371.5 71t-298.5 193.5t-196 293.5t-72 365q0 198 72 372.5t196 298.5t298 195.5t372 71.5q200 0 375.5 -71.5t301 -195.5t197.5 -298.5t72 -372.5q0 -259 -123 -470.5t-339.5 -332t-483.5 -120.5zM1020 -162q167 0 314 59t251.5 161t164.5 245.5
t60 306.5q0 220 -102.5 399.5t-283.5 281.5t-404 102q-220 0 -399.5 -102t-282 -281.5t-102.5 -399.5q0 -216 102.5 -393t282 -278t399.5 -101zM1049 309h-256v613h256q86 0 138 -45t52 -119q0 -51 -29.5 -85t-83.5 -48v-2q134 -27 134 -142q0 -47 -20 -82t-52.5 -53.5
t-67.5 -27.5t-71 -9zM909 657l2 -2q43 19 103 19q92 0 92 63q0 31 -23.5 48.5t-66.5 17.5q-2 0 -18 -0.5t-21.5 0t-19 2t-25 5t-23.5 9.5l-2 -2q17 -74 2 -160zM907 418l4 -6q45 16 115 16q41 0 70.5 15t29.5 51q0 32 -26 50.5t-72 18.5q-67 0 -115 17l-4 -2q15 -92 -2 -160
z" />
    <glyph glyph-name="C.ss08" 
d="M1020 -315q-197 0 -371.5 71t-298.5 193.5t-196 293.5t-72 365q0 198 72 372.5t196 298.5t298 195.5t372 71.5q200 0 375.5 -71.5t301 -195.5t197.5 -298.5t72 -372.5q0 -259 -123 -470.5t-339.5 -332t-483.5 -120.5zM1020 -162q167 0 314 59t251.5 161t164.5 245.5
t60 306.5q0 220 -102.5 399.5t-283.5 281.5t-404 102q-220 0 -399.5 -102t-282 -281.5t-102.5 -399.5q0 -216 102.5 -393t282 -278t399.5 -101zM1034 297q-139 0 -227 89t-88 230q0 144 91 230t218 86q100 0 177 -53.5t106 -145.5l-117 -47q-50 127 -168 127q-78 0 -127 -56
t-49 -147q0 -97 55 -144.5t129 -47.5q66 0 112 37.5t66 109.5l119 -41q-32 -109 -109.5 -168t-187.5 -59z" />
    <glyph glyph-name="D.ss08" 
d="M1020 -315q-197 0 -371.5 71t-298.5 193.5t-196 293.5t-72 365q0 198 72 372.5t196 298.5t298 195.5t372 71.5q200 0 375.5 -71.5t301 -195.5t197.5 -298.5t72 -372.5q0 -259 -123 -470.5t-339.5 -332t-483.5 -120.5zM1020 -162q167 0 314 59t251.5 161t164.5 245.5
t60 306.5q0 220 -102.5 399.5t-283.5 281.5t-404 102q-220 0 -399.5 -102t-282 -281.5t-102.5 -399.5q0 -216 102.5 -393t282 -278t399.5 -101zM1034 309h-243v613h237q136 0 212.5 -81t76.5 -223q0 -141 -77 -225t-206 -84zM903 418l6 -6q41 16 115 16q78 0 120 47t42 137
q0 191 -187 191q-57 0 -92 16l-4 -2q34 -204 0 -399z" />
    <glyph glyph-name="E.ss08" 
d="M1020 -315q-197 0 -371.5 71t-298.5 193.5t-196 293.5t-72 365q0 198 72 372.5t196 298.5t298 195.5t372 71.5q200 0 375.5 -71.5t301 -195.5t197.5 -298.5t72 -372.5q0 -259 -123 -470.5t-339.5 -332t-483.5 -120.5zM1020 -162q167 0 314 59t251.5 161t164.5 245.5
t60 306.5q0 220 -102.5 399.5t-283.5 281.5t-404 102q-220 0 -399.5 -102t-282 -281.5t-102.5 -399.5q0 -216 102.5 -393t282 -278t399.5 -101zM1235 309h-412v613h404v-119q-190 0 -287 16l-4 -2q16 -71 2 -158l4 -2q100 25 270 25v-123h-18q-151 0 -238 20q-7 1 -14 3
l-4 -2q15 -92 -2 -162l6 -8q109 18 293 18v-119z" />
    <glyph glyph-name="F.ss08" 
d="M1020 -315q-197 0 -371.5 71t-298.5 193.5t-196 293.5t-72 365q0 198 72 372.5t196 298.5t298 195.5t372 71.5q200 0 375.5 -71.5t301 -195.5t197.5 -298.5t72 -372.5q0 -259 -123 -470.5t-339.5 -332t-483.5 -120.5zM1020 -162q167 0 314 59t251.5 161t164.5 245.5
t60 306.5q0 220 -102.5 399.5t-283.5 281.5t-404 102q-220 0 -399.5 -102t-282 -281.5t-102.5 -399.5q0 -216 102.5 -393t282 -278t399.5 -101zM963 309h-125v613h397v-121q-177 0 -281 18l-4 -2q20 -82 -2 -170l4 -2q102 25 269 25v-123h-31h-33.5t-31 0.5t-34 1t-32 2.5
t-35.5 4t-33.5 5.5t-36.5 8.5l-6 -4q15 -90 15 -256z" />
    <glyph glyph-name="G.ss08" 
d="M1020 -315q-197 0 -371.5 71t-298.5 193.5t-196 293.5t-72 365q0 198 72 372.5t196 298.5t298 195.5t372 71.5q200 0 375.5 -71.5t301 -195.5t197.5 -298.5t72 -372.5q0 -259 -123 -470.5t-339.5 -332t-483.5 -120.5zM1020 -162q167 0 314 59t251.5 161t164.5 245.5
t60 306.5q0 220 -102.5 399.5t-283.5 281.5t-404 102q-220 0 -399.5 -102t-282 -281.5t-102.5 -399.5q0 -216 102.5 -393t282 -278t399.5 -101zM1018 297q-131 0 -215 89t-84 228t87 228.5t222 89.5q100 0 177 -53.5t106 -145.5l-117 -47q-49 127 -166 127q-78 0 -128 -56.5
t-50 -146.5q0 -68 30.5 -113.5t71 -62t86.5 -16.5q128 0 193 133l-2 2q-76 -27 -195 -27v107h289v-324h-102q0 2 -1.5 28.5t1 46t10.5 46.5h-2q-35 -69 -86 -101t-125 -32z" />
    <glyph glyph-name="H.ss08" 
d="M1020 -315q-197 0 -371.5 71t-298.5 193.5t-196 293.5t-72 365q0 198 72 372.5t196 298.5t298 195.5t372 71.5q200 0 375.5 -71.5t301 -195.5t197.5 -298.5t72 -372.5q0 -259 -123 -470.5t-339.5 -332t-483.5 -120.5zM1020 -162q167 0 314 59t251.5 161t164.5 245.5
t60 306.5q0 220 -102.5 399.5t-283.5 281.5t-404 102q-220 0 -399.5 -102t-282 -281.5t-102.5 -399.5q0 -216 102.5 -393t282 -278t399.5 -101zM897 309h-127v613h127q0 -165 -12 -263l6 -2q139 33 266 0l4 2q-10 100 -10 263h127v-613h-127q0 156 10 256l-4 4
q-127 -36 -266 0l-6 -4q12 -98 12 -256z" />
    <glyph glyph-name="I.ss08" 
d="M1020 -315q-197 0 -371.5 71t-298.5 193.5t-196 293.5t-72 365q0 198 72 372.5t196 298.5t298 195.5t372 71.5q200 0 375.5 -71.5t301 -195.5t197.5 -298.5t72 -372.5q0 -259 -123 -470.5t-339.5 -332t-483.5 -120.5zM1020 -162q167 0 314 59t251.5 161t164.5 245.5
t60 306.5q0 220 -102.5 399.5t-283.5 281.5t-404 102q-220 0 -399.5 -102t-282 -281.5t-102.5 -399.5q0 -216 102.5 -393t282 -278t399.5 -101zM1087 309h-126v613h126v-613z" />
    <glyph glyph-name="J.ss08" 
d="M1020 -315q-197 0 -371.5 71t-298.5 193.5t-196 293.5t-72 365q0 198 72 372.5t196 298.5t298 195.5t372 71.5q200 0 375.5 -71.5t301 -195.5t197.5 -298.5t72 -372.5q0 -259 -123 -470.5t-339.5 -332t-483.5 -120.5zM1020 -162q167 0 314 59t251.5 161t164.5 245.5
t60 306.5q0 220 -102.5 399.5t-283.5 281.5t-404 102q-220 0 -399.5 -102t-282 -281.5t-102.5 -399.5q0 -216 102.5 -393t282 -278t399.5 -101zM1008 303q-101 0 -161.5 57t-60.5 154v29l125 18v-31q0 -52 25 -80t68 -28q77 0 77 119v387h127v-371q0 -22 -0.5 -36t-4 -43.5
t-10.5 -49.5t-22 -46t-35.5 -41.5t-53.5 -26.5t-74 -11z" />
    <glyph glyph-name="K.ss08" 
d="M1020 -315q-197 0 -371.5 71t-298.5 193.5t-196 293.5t-72 365q0 198 72 372.5t196 298.5t298 195.5t372 71.5q200 0 375.5 -71.5t301 -195.5t197.5 -298.5t72 -372.5q0 -259 -123 -470.5t-339.5 -332t-483.5 -120.5zM1020 -162q167 0 314 59t251.5 161t164.5 245.5
t60 306.5q0 220 -102.5 399.5t-283.5 281.5t-404 102q-220 0 -399.5 -102t-282 -281.5t-102.5 -399.5q0 -216 102.5 -393t282 -278t399.5 -101zM924 309h-127v613h127v-43.5v-48t-1 -42.5t-3.5 -51t-6.5 -48t-10 -56q109 137 248 289h152q-118 -136 -254 -275v-8
q108 -112 262 -330h-154q-125 173 -174 254q-40 -47 -65 -61q6 -68 6 -193z" />
    <glyph glyph-name="L.ss08" 
d="M1020 -315q-197 0 -371.5 71t-298.5 193.5t-196 293.5t-72 365q0 198 72 372.5t196 298.5t298 195.5t372 71.5q200 0 375.5 -71.5t301 -195.5t197.5 -298.5t72 -372.5q0 -259 -123 -470.5t-339.5 -332t-483.5 -120.5zM1020 -162q167 0 314 59t251.5 161t164.5 245.5
t60 306.5q0 220 -102.5 399.5t-283.5 281.5t-404 102q-220 0 -399.5 -102t-282 -281.5t-102.5 -399.5q0 -216 102.5 -393t282 -278t399.5 -101zM1266 309h-389v613h124q0 -357 -12 -504l6 -8q100 18 271 18v-119z" />
    <glyph glyph-name="M.ss08" 
d="M1020 1546q200 0 375.5 -71.5t301 -195.5t197.5 -298.5t72 -372.5q0 -259 -123 -470.5t-339.5 -332t-483.5 -120.5q-197 0 -371.5 71t-298.5 193.5t-196 293.5t-72 365q0 198 72 372.5t196 298.5t298 195.5t372 71.5zM1020 -162q167 0 314 59t251.5 161t164.5 245.5
t60 306.5q0 220 -102.5 399.5t-283.5 281.5t-404 102q-220 0 -399.5 -102t-282 -281.5t-102.5 -399.5q0 -216 102.5 -393t282 -278t399.5 -101zM1020 471h6q69 211 195 451h135v-613h-127q0 13 -0.5 73t0 84.5t2 74.5t5.5 93.5t11 90.5q-51 -128 -184 -416h-78
q-13 28 -42 90.5t-47 103t-45 102.5t-50 120q7 -45 11 -88t5.5 -93t2 -75t0 -86t-0.5 -74h-127v613h135q123 -228 193 -451z" />
    <glyph glyph-name="N.ss08" 
d="M1020 -315q-197 0 -371.5 71t-298.5 193.5t-196 293.5t-72 365q0 198 72 372.5t196 298.5t298 195.5t372 71.5q200 0 375.5 -71.5t301 -195.5t197.5 -298.5t72 -372.5q0 -259 -123 -470.5t-339.5 -332t-483.5 -120.5zM1020 -162q167 0 314 59t251.5 161t164.5 245.5
t60 306.5q0 220 -102.5 399.5t-283.5 281.5t-404 102q-220 0 -399.5 -102t-282 -281.5t-102.5 -399.5q0 -216 102.5 -393t282 -278t399.5 -101zM903 309h-127v613h113q178 -232 285 -439q-13 184 -13 439h125v-613h-112q-62 80 -100.5 132t-90.5 132t-94 160
q14 -166 14 -424z" />
    <glyph glyph-name="O.ss08" 
d="M1020 -315q-197 0 -371.5 71t-298.5 193.5t-196 293.5t-72 365q0 198 72 372.5t196 298.5t298 195.5t372 71.5q200 0 375.5 -71.5t301 -195.5t197.5 -298.5t72 -372.5q0 -259 -123 -470.5t-339.5 -332t-483.5 -120.5zM1020 -162q167 0 314 59t251.5 161t164.5 245.5
t60 306.5q0 220 -102.5 399.5t-283.5 281.5t-404 102q-220 0 -399.5 -102t-282 -281.5t-102.5 -399.5q0 -216 102.5 -393t282 -278t399.5 -101zM1026 297q-132 0 -220.5 90.5t-88.5 226.5q0 135 88.5 226.5t220.5 91.5t220.5 -91.5t88.5 -226.5t-88.5 -226t-220.5 -91z
M1028 418q74 0 124 56t50 140q0 85 -50 142t-124 57q-76 0 -127 -57t-51 -142t50.5 -140.5t127.5 -55.5z" />
    <glyph glyph-name="P.ss08" 
d="M1020 -315q-197 0 -371.5 71t-298.5 193.5t-196 293.5t-72 365q0 198 72 372.5t196 298.5t298 195.5t372 71.5q200 0 375.5 -71.5t301 -195.5t197.5 -298.5t72 -372.5q0 -259 -123 -470.5t-339.5 -332t-483.5 -120.5zM1020 -162q167 0 314 59t251.5 161t164.5 245.5
t60 306.5q0 220 -102.5 399.5t-283.5 281.5t-404 102q-220 0 -399.5 -102t-282 -281.5t-102.5 -399.5q0 -216 102.5 -393t282 -278t399.5 -101zM954 309h-125v613h236q19 0 41.5 -3t55 -15.5t57.5 -32t43 -58t18 -88.5t-18 -88t-42.5 -58.5t-56 -33t-54 -16t-40.5 -3.5
q-76 0 -125 21q10 -78 10 -238zM944 623l2 -2q35 22 101 22q100 0 100 80t-100 80q-64 0 -101 16l-4 -2q16 -93 2 -194z" />
    <glyph glyph-name="Q.ss08" 
d="M1020 -315q-197 0 -371.5 71t-298.5 193.5t-196 293.5t-72 365q0 198 72 372.5t196 298.5t298 195.5t372 71.5q200 0 375.5 -71.5t301 -195.5t197.5 -298.5t72 -372.5q0 -259 -123 -470.5t-339.5 -332t-483.5 -120.5zM1020 -162q167 0 314 59t251.5 161t164.5 245.5
t60 306.5q0 220 -102.5 399.5t-283.5 281.5t-404 102q-220 0 -399.5 -102t-282 -281.5t-102.5 -399.5q0 -216 102.5 -393t282 -278t399.5 -101zM1331 328l-90 -76q-65 69 -88 123q-58 -37 -133 -37q-135 0 -225 90.5t-90 226.5q0 137 90 228.5t225 91.5t225 -91.5t90 -228.5
q0 -141 -104 -225q51 -41 100 -102zM1022 446q24 0 57 11q-15 11 -31.5 27t-25 25.5t-27.5 33t-24 28.5l92 78q72 -87 100 -145q43 55 43 151q0 88 -51 143.5t-133 55.5q-83 0 -134.5 -55.5t-51.5 -143.5q0 -91 52 -150t134 -59z" />
    <glyph glyph-name="R.ss08" 
d="M1020 -315q-197 0 -371.5 71t-298.5 193.5t-196 293.5t-72 365q0 198 72 372.5t196 298.5t298 195.5t372 71.5q200 0 375.5 -71.5t301 -195.5t197.5 -298.5t72 -372.5q0 -259 -123 -470.5t-339.5 -332t-483.5 -120.5zM1020 -162q167 0 314 59t251.5 161t164.5 245.5
t60 306.5q0 220 -102.5 399.5t-283.5 281.5t-404 102q-220 0 -399.5 -102t-282 -281.5t-102.5 -399.5q0 -216 102.5 -393t282 -278t399.5 -101zM952 309h-125v613h236q24 0 53 -6.5t69 -25t66.5 -62.5t26.5 -107q0 -72 -45 -117t-123 -53q24 -23 45 -46t43.5 -53.5t33 -44.5
t36.5 -53l30 -45h-145l-141 221q-29 3 -70 17q10 -72 10 -238zM942 616l2 -2q42 19 100 19q40 0 70.5 20.5t30.5 67.5q0 43 -31 62.5t-70 19.5q-53 0 -100 16l-4 -2q17 -96 2 -201z" />
    <glyph glyph-name="S.ss08" 
d="M1020 -315q-197 0 -371.5 71t-298.5 193.5t-196 293.5t-72 365q0 198 72 372.5t196 298.5t298 195.5t372 71.5q200 0 375.5 -71.5t301 -195.5t197.5 -298.5t72 -372.5q0 -259 -123 -470.5t-339.5 -332t-483.5 -120.5zM1020 -162q167 0 314 59t251.5 161t164.5 245.5
t60 306.5q0 220 -102.5 399.5t-283.5 281.5t-404 102q-220 0 -399.5 -102t-282 -281.5t-102.5 -399.5q0 -216 102.5 -393t282 -278t399.5 -101zM1036 297q-95 0 -159 50t-84 138l116 41q28 -110 125 -110q37 0 62.5 17t25.5 48q0 13 -5.5 23.5t-11.5 16.5t-22 12.5t-23 9
t-28 8.5l-55 18q-166 47 -166 181q0 82 61 132t154 50q80 0 141 -42t74 -108l-115 -49q-27 80 -102 80q-34 0 -54 -15t-20 -40q0 -27 23.5 -44t70.5 -32l62 -20q29 -8 49 -17t48 -27.5t43.5 -50t15.5 -73.5q0 -87 -63.5 -142t-162.5 -55z" />
    <glyph glyph-name="T.ss08" 
d="M1020 -315q-197 0 -371.5 71t-298.5 193.5t-196 293.5t-72 365q0 198 72 372.5t196 298.5t298 195.5t372 71.5q200 0 375.5 -71.5t301 -195.5t197.5 -298.5t72 -372.5q0 -259 -123 -470.5t-339.5 -332t-483.5 -120.5zM1020 -162q167 0 314 59t251.5 161t164.5 245.5
t60 306.5q0 220 -102.5 399.5t-283.5 281.5t-404 102q-220 0 -399.5 -102t-282 -281.5t-102.5 -399.5q0 -216 102.5 -393t282 -278t399.5 -101zM1085 309h-124q0 328 12 504q-74 -10 -193 -10v119h486v-119q-119 0 -193 10q12 -176 12 -504z" />
    <glyph glyph-name="U.ss08" 
d="M1020 -315q-197 0 -371.5 71t-298.5 193.5t-196 293.5t-72 365q0 198 72 372.5t196 298.5t298 195.5t372 71.5q200 0 375.5 -71.5t301 -195.5t197.5 -298.5t72 -372.5q0 -259 -123 -470.5t-339.5 -332t-483.5 -120.5zM1020 -162q167 0 314 59t251.5 161t164.5 245.5
t60 306.5q0 220 -102.5 399.5t-283.5 281.5t-404 102q-220 0 -399.5 -102t-282 -281.5t-102.5 -399.5q0 -216 102.5 -393t282 -278t399.5 -101zM1022 303q-58 0 -102 17t-68.5 42t-39.5 60.5t-19.5 66.5t-4.5 66v373h127v-363q0 -74 26 -108.5t83 -34.5q55 0 80.5 34.5
t25.5 108.5v363h127v-373q0 -45 -8.5 -83.5t-31.5 -79.5t-72.5 -65t-122.5 -24z" />
    <glyph glyph-name="V.ss08" 
d="M1020 -315q-197 0 -371.5 71t-298.5 193.5t-196 293.5t-72 365q0 198 72 372.5t196 298.5t298 195.5t372 71.5q200 0 375.5 -71.5t301 -195.5t197.5 -298.5t72 -372.5q0 -259 -123 -470.5t-339.5 -332t-483.5 -120.5zM1020 -162q167 0 314 59t251.5 161t164.5 245.5
t60 306.5q0 220 -102.5 399.5t-283.5 281.5t-404 102q-220 0 -399.5 -102t-282 -281.5t-102.5 -399.5q0 -216 102.5 -393t282 -278t399.5 -101zM1106 309h-141l-232 613h133q32 -77 86.5 -231.5t79.5 -260.5h10q40 170 162 492h133z" />
    <glyph glyph-name="W.ss08" 
d="M1020 1546q200 0 375.5 -71.5t301 -195.5t197.5 -298.5t72 -372.5q0 -259 -123 -470.5t-339.5 -332t-483.5 -120.5q-197 0 -371.5 71t-298.5 193.5t-196 293.5t-72 365q0 198 72 372.5t196 298.5t298 195.5t372 71.5zM1020 -162q167 0 314 59t251.5 161t164.5 245.5
t60 306.5q0 220 -102.5 399.5t-283.5 281.5t-404 102q-220 0 -399.5 -102t-282 -281.5t-102.5 -399.5q0 -216 102.5 -393t282 -278t399.5 -101zM1217 453q39 216 110 469h143l-176 -613h-149q-79 245 -119 451h-4q-39 -200 -117 -451h-151l-176 613h143q77 -282 110 -471
q42 200 125 471h138q84 -283 123 -469z" />
    <glyph glyph-name="X.ss08" 
d="M1020 -315q-197 0 -371.5 71t-298.5 193.5t-196 293.5t-72 365q0 198 72 372.5t196 298.5t298 195.5t372 71.5q200 0 375.5 -71.5t301 -195.5t197.5 -298.5t72 -372.5q0 -259 -123 -470.5t-339.5 -332t-483.5 -120.5zM1020 -162q167 0 314 59t251.5 161t164.5 245.5
t60 306.5q0 220 -102.5 399.5t-283.5 281.5t-404 102q-220 0 -399.5 -102t-282 -281.5t-102.5 -399.5q0 -216 102.5 -393t282 -278t399.5 -101zM907 309h-153q149 224 209 303v9q-64 85 -205 301h149q78 -128 121 -222h4q56 118 123 222h150q-129 -197 -209 -301v-9
q76 -101 207 -303h-152q-76 124 -119 219h-4q-37 -83 -121 -219z" />
    <glyph glyph-name="Y.ss08" 
d="M1020 -315q-197 0 -371.5 71t-298.5 193.5t-196 293.5t-72 365q0 198 72 372.5t196 298.5t298 195.5t372 71.5q200 0 375.5 -71.5t301 -195.5t197.5 -298.5t72 -372.5q0 -259 -123 -470.5t-339.5 -332t-483.5 -120.5zM1020 -162q167 0 314 59t251.5 161t164.5 245.5
t60 306.5q0 220 -102.5 399.5t-283.5 281.5t-404 102q-220 0 -399.5 -102t-282 -281.5t-102.5 -399.5q0 -216 102.5 -393t282 -278t399.5 -101zM1085 309h-124q0 141 6 211q-67 111 -222 402h138q97 -186 139 -308h2q49 135 139 308h137q-19 -35 -66.5 -124t-82.5 -153
t-70 -123q4 -48 4 -213z" />
    <glyph glyph-name="Z.ss08" 
d="M1020 -315q-197 0 -371.5 71t-298.5 193.5t-196 293.5t-72 365q0 198 72 372.5t196 298.5t298 195.5t372 71.5q200 0 375.5 -71.5t301 -195.5t197.5 -298.5t72 -372.5q0 -259 -123 -470.5t-339.5 -332t-483.5 -120.5zM1020 -162q167 0 314 59t251.5 161t164.5 245.5
t60 306.5q0 220 -102.5 399.5t-283.5 281.5t-404 102q-220 0 -399.5 -102t-282 -281.5t-102.5 -399.5q0 -216 102.5 -393t282 -278t399.5 -101zM1262 309h-478v101q139 188 351 426l-2 2q-152 -35 -338 -35v119h462v-103q-153 -204 -356 -422l2 -4q170 35 359 35v-119z" />
    <glyph glyph-name="i.loclTRK" horiz-adv-x="567" 
d="M287 1298q-76 0 -127 53t-51 130q0 71 51.5 122.5t126.5 51.5q74 0 125 -51.5t51 -122.5q0 -77 -50.5 -130t-125.5 -53zM428 0h-287v1143h287v-1143z" />
    <glyph glyph-name="a.ss01" horiz-adv-x="1368" 
d="M588 -33q-159 0 -278 81.5t-179.5 217t-60.5 303.5q0 138 43 254t115 192.5t166 118.5t196 42q257 0 338 -261h37q-21 120 -21 228h285v-1143h-273v24v29t1.5 31t5 42t9.5 49.5t15 64.5h-37q-100 -273 -362 -273zM655 240q126 0 207.5 95.5t81.5 237.5q0 144 -82.5 237
t-208.5 93t-206 -92.5t-80 -235.5q0 -149 80.5 -242t207.5 -93z" />
    <glyph glyph-name="aacute.ss01" horiz-adv-x="1368" 
d="M1112 1657l-311 -379h-248l221 379h338zM588 -33q-159 0 -278 81.5t-179.5 217t-60.5 303.5q0 138 43 254t115 192.5t166 118.5t196 42q257 0 338 -261h37q-21 120 -21 228h285v-1143h-273v24v29t1.5 31t5 42t9.5 49.5t15 64.5h-37q-100 -273 -362 -273zM655 240
q126 0 207.5 95.5t81.5 237.5q0 144 -82.5 237t-208.5 93t-206 -92.5t-80 -235.5q0 -149 80.5 -242t207.5 -93z" />
    <glyph glyph-name="abreve.ss01" horiz-adv-x="1368" 
d="M692 1268q-172 0 -276.5 110t-110.5 285h234q2 -80 43 -135t118 -55t118.5 55t43.5 135h234q-6 -176 -113.5 -285.5t-290.5 -109.5zM588 -33q-159 0 -278 81.5t-179.5 217t-60.5 303.5q0 138 43 254t115 192.5t166 118.5t196 42q257 0 338 -261h37q-21 120 -21 228h285
v-1143h-273v24v29t1.5 31t5 42t9.5 49.5t15 64.5h-37q-100 -273 -362 -273zM655 240q126 0 207.5 95.5t81.5 237.5q0 144 -82.5 237t-208.5 93t-206 -92.5t-80 -235.5q0 -149 80.5 -242t207.5 -93z" />
    <glyph glyph-name="acircumflex.ss01" horiz-adv-x="1368" 
d="M524 1278h-270l295 371h293l297 -371h-271q-38 44 -57 67.5t-46.5 69.5t-43.5 94h-49q-17 -48 -44.5 -94t-47 -70.5t-56.5 -66.5zM588 -33q-159 0 -278 81.5t-179.5 217t-60.5 303.5q0 138 43 254t115 192.5t166 118.5t196 42q257 0 338 -261h37q-21 120 -21 228h285
v-1143h-273v24v29t1.5 31t5 42t9.5 49.5t15 64.5h-37q-100 -273 -362 -273zM655 240q126 0 207.5 95.5t81.5 237.5q0 144 -82.5 237t-208.5 93t-206 -92.5t-80 -235.5q0 -149 80.5 -242t207.5 -93z" />
    <glyph glyph-name="adieresis.ss01" horiz-adv-x="1368" 
d="M481 1300q-69 0 -115.5 48.5t-46.5 117.5q0 65 47 111.5t115 46.5q67 0 113.5 -46.5t46.5 -111.5q0 -69 -46.5 -117.5t-113.5 -48.5zM913 1300q-69 0 -116 48.5t-47 117.5q0 65 47.5 111.5t115.5 46.5q67 0 113.5 -46.5t46.5 -111.5q0 -69 -46.5 -117.5t-113.5 -48.5z
M588 -33q-159 0 -278 81.5t-179.5 217t-60.5 303.5q0 138 43 254t115 192.5t166 118.5t196 42q257 0 338 -261h37q-21 120 -21 228h285v-1143h-273v24v29t1.5 31t5 42t9.5 49.5t15 64.5h-37q-100 -273 -362 -273zM655 240q126 0 207.5 95.5t81.5 237.5q0 144 -82.5 237
t-208.5 93t-206 -92.5t-80 -235.5q0 -149 80.5 -242t207.5 -93z" />
    <glyph glyph-name="agrave.ss01" horiz-adv-x="1368" 
d="M831 1278h-249l-312 379h338zM588 -33q-159 0 -278 81.5t-179.5 217t-60.5 303.5q0 138 43 254t115 192.5t166 118.5t196 42q257 0 338 -261h37q-21 120 -21 228h285v-1143h-273v24v29t1.5 31t5 42t9.5 49.5t15 64.5h-37q-100 -273 -362 -273zM655 240q126 0 207.5 95.5
t81.5 237.5q0 144 -82.5 237t-208.5 93t-206 -92.5t-80 -235.5q0 -149 80.5 -242t207.5 -93z" />
    <glyph glyph-name="amacron.ss01" horiz-adv-x="1368" 
d="M1040 1331h-688v203h688v-203zM588 -33q-159 0 -278 81.5t-179.5 217t-60.5 303.5q0 138 43 254t115 192.5t166 118.5t196 42q257 0 338 -261h37q-21 120 -21 228h285v-1143h-273v24v29t1.5 31t5 42t9.5 49.5t15 64.5h-37q-100 -273 -362 -273zM655 240q126 0 207.5 95.5
t81.5 237.5q0 144 -82.5 237t-208.5 93t-206 -92.5t-80 -235.5q0 -149 80.5 -242t207.5 -93z" />
    <glyph glyph-name="aogonek.ss01" horiz-adv-x="1368" 
d="M1229 0h-84q-85 -21 -122.5 -65.5t-37.5 -94.5q0 -48 35 -79t96 -31q57 0 96 16v-195q-55 -14 -120 -14q-131 0 -218.5 62t-87.5 176q0 76 47.5 135.5t127.5 89.5h-5v24v29t1.5 31t5 42t9.5 49.5t15 64.5h-37q-100 -273 -362 -273q-159 0 -278 81.5t-179.5 217
t-60.5 303.5q0 138 43 254t115 192.5t166 118.5t196 42q257 0 338 -261h37q-21 120 -21 228h285v-1143zM655 240q126 0 207.5 95.5t81.5 237.5q0 144 -82.5 237t-208.5 93t-206 -92.5t-80 -235.5q0 -149 80.5 -242t207.5 -93z" />
    <glyph glyph-name="aring.ss01" horiz-adv-x="1368" 
d="M696 1255q-110 0 -185 72.5t-75 177.5q0 106 75 177t185 71q109 0 184.5 -71.5t75.5 -176.5q0 -108 -75 -179t-185 -71zM696 1393q47 0 78 32t31 80q0 45 -31 77t-78 32q-48 0 -78 -31.5t-30 -77.5q0 -48 29.5 -80t78.5 -32zM588 -33q-159 0 -278 81.5t-179.5 217
t-60.5 303.5q0 138 43 254t115 192.5t166 118.5t196 42q257 0 338 -261h37q-21 120 -21 228h285v-1143h-273v24v29t1.5 31t5 42t9.5 49.5t15 64.5h-37q-100 -273 -362 -273zM655 240q126 0 207.5 95.5t81.5 237.5q0 144 -82.5 237t-208.5 93t-206 -92.5t-80 -235.5
q0 -149 80.5 -242t207.5 -93z" />
    <glyph glyph-name="atilde.ss01" horiz-adv-x="1368" 
d="M860 1280q-75 0 -143 45l-58 39q-45 35 -79 35q-36 0 -55 -28.5t-19 -72.5h-205q0 144 74 231t188 87q75 0 152 -49l51 -35q40 -27 70 -27q28 0 43.5 26.5t15.5 70.5h205q0 -155 -62 -238.5t-178 -83.5zM588 -33q-159 0 -278 81.5t-179.5 217t-60.5 303.5q0 138 43 254
t115 192.5t166 118.5t196 42q257 0 338 -261h37q-21 120 -21 228h285v-1143h-273v24v29t1.5 31t5 42t9.5 49.5t15 64.5h-37q-100 -273 -362 -273zM655 240q126 0 207.5 95.5t81.5 237.5q0 144 -82.5 237t-208.5 93t-206 -92.5t-80 -235.5q0 -149 80.5 -242t207.5 -93z" />
    <glyph glyph-name="b.ss01" horiz-adv-x="1169" 
d="M735 -35q-114 0 -199 58t-122 157h-37q7 -18 12 -34t8.5 -28t6 -26.5t4 -21t2 -20t0.5 -17v-17.5v-16h-269v1638h287v-118v-128t-0.5 -116.5t-2 -132t-4 -122t-6 -139.5t-8.5 -131.5t-12 -146.5h37q40 82 116 130t179 48q165 0 283 -116t118 -295q0 -170 -112.5 -288
t-280.5 -118zM662 203q76 0 125 49.5t49 126.5q0 73 -47.5 122.5t-124.5 49.5q-82 0 -131.5 -49t-49.5 -123q0 -75 50.5 -125.5t128.5 -50.5z" />
    <glyph glyph-name="d.ss01" horiz-adv-x="1361" 
d="M590 -33q-160 0 -280 82t-180 217t-60 303q0 138 43 254.5t115 193t166 119t196 42.5q249 0 342 -263h37q-15 136 -23 276t-9 221.5t-1 225.5h289v-1638h-271q0 91 17 193h-35q-91 -226 -346 -226zM655 240q126 0 207.5 94t81.5 239t-82.5 237.5t-208.5 92.5t-206 -92.5
t-80 -235.5q0 -149 80.5 -242t207.5 -93z" />
    <glyph glyph-name="dcaron.ss01" horiz-adv-x="1361" 
d="M1483 1094h-166q34 61 57 98.5t66.5 91t95.5 98.5q-168 40 -168 166q0 73 53.5 125.5t128.5 52.5t128 -51t53 -123q0 -15 -1.5 -29t-7.5 -31.5t-12 -31.5t-19.5 -38.5t-24 -42.5t-33.5 -54t-40.5 -62.5t-50.5 -77.5t-59 -91zM590 -33q-160 0 -280 82t-180 217t-60 303
q0 138 43 254.5t115 193t166 119t196 42.5q249 0 342 -263h37q-15 136 -23 276t-9 221.5t-1 225.5h289v-1638h-271q0 91 17 193h-35q-91 -226 -346 -226zM655 240q126 0 207.5 94t81.5 239t-82.5 237.5t-208.5 92.5t-206 -92.5t-80 -235.5q0 -149 80.5 -242t207.5 -93z" />
    <glyph glyph-name="dcroat.ss01" horiz-adv-x="1361" 
d="M1225 1481h262v-215h-262v-1266h-271q0 91 17 193h-35q-91 -226 -346 -226q-160 0 -280 82t-180 217t-60 303q0 138 43 254.5t115 193t166 119t196 42.5q249 0 342 -263h37q-21 194 -27 351h-266v215h260v157h289v-157zM655 240q126 0 207.5 94t81.5 239t-82.5 237.5
t-208.5 92.5t-206 -92.5t-80 -235.5q0 -149 80.5 -242t207.5 -93z" />
    <glyph glyph-name="g.ss01" horiz-adv-x="1363" 
d="M1223 -451h-1033v263q165 0 257.5 -1t242 -10t283.5 -26q-28 119 -29 226.5t25 238.5h-37q-29 -69 -67.5 -116.5t-84 -72t-90 -35t-96.5 -10.5q-125 0 -226 47t-165 127.5t-98.5 185t-34.5 222.5q0 256 147 422t367 166q265 0 340 -261h34q-18 125 -18 228h283v-1594z
M653 281q126 0 207.5 91t81.5 222t-82 220t-207 89q-124 0 -205 -89t-81 -220q0 -132 81 -222.5t205 -90.5z" />
    </font>
</defs>
</svg>
