<?xml version="1.0" standalone="no"?>
<!DOCTYPE svg PUBLIC "-//W3C//DTD SVG 1.1//EN" "http://www.w3.org/Graphics/SVG/1.1/DTD/svg11.dtd" >
<svg xmlns="http://www.w3.org/2000/svg" xmlns:xlink="http://www.w3.org/1999/xlink" version="1.1">
<metadata>
Created by FontForge 20170731 at Mon Mar 15 14:15:29 2021
 By Aleksey,,,
Copyright (c) 2020 by Matthieu Salvaggio x Blaze Type. All rights reserved.
</metadata>
<defs>
<font id="Area-BlackInktrapItalic" horiz-adv-x="2048" >
  <font-face 
    font-family="Area Black Inktrap Italic"
    font-weight="900"
    font-style="italic"
    font-stretch="normal"
    units-per-em="2048"
    panose-1="0 0 10 0 0 0 0 0 0 0"
    ascent="1638"
    descent="-410"
    x-height="1143"
    cap-height="1597"
    bbox="-1665 -649 2640 2208"
    underline-thickness="102"
    underline-position="-307"
    slope="-10"
    unicode-range="U+0020-25CA"
  />
<missing-glyph horiz-adv-x="1388" 
d="M1122 0h-1054l282 1597h1055zM512 1407l-172 -971l747 971h-575zM1139 1210l-785 -1017h607z" />
    <glyph glyph-name=".notdef" horiz-adv-x="1388" 
d="M1122 0h-1054l282 1597h1055zM512 1407l-172 -971l747 971h-575zM1139 1210l-785 -1017h607z" />
    <glyph glyph-name=".null" horiz-adv-x="0" 
 />
    <glyph glyph-name="nonmarkingreturn" horiz-adv-x="682" 
 />
    <glyph glyph-name="space" unicode=" " horiz-adv-x="489" 
 />
    <glyph glyph-name="exclam" unicode="!" horiz-adv-x="587" 
d="M360 500h-157l86 915l33 182h309l-33 -182zM193 -14q-67 0 -109.5 43.5t-42.5 109.5q0 86 65.5 148.5t149.5 62.5q66 0 109 -43t43 -106q0 -81 -65 -148t-150 -67z" />
    <glyph glyph-name="quotedbl" unicode="&#x22;" horiz-adv-x="937" 
d="M477 1049h-272l96 548h272zM899 1049h-272l96 548h272z" />
    <glyph glyph-name="numbersign" unicode="#" horiz-adv-x="1624" 
d="M399 0h-256q96 253 187 422q-57 -16 -113 -24.5t-87.5 -9.5t-86.5 -1l90 236q54 0 83.5 -1t75 -9.5t81.5 -24.5q61 196 143 338q-55 -16 -108.5 -24.5t-83.5 -9.5t-82 -1l92 235q53 0 80.5 -1t79 -9t100.5 -24q14 90 40.5 186t47.5 156t59 163h256q-112 -298 -217 -505
q107 26 192 26t185 -26q15 90 42.5 187t47.5 154t60 164h254q-102 -283 -215 -505q59 16 119 24t90.5 9t91.5 1l-93 -235q-57 0 -89 1t-87 9.5t-110 24.5q-3 -89 -28.5 -163t-82.5 -175q57 16 113.5 24.5t88 9.5t87.5 1l-90 -236q-55 0 -86 1t-84 9.5t-105 24.5
q-9 -76 -29.5 -157t-38.5 -133t-48 -132h-256q36 95 53.5 139.5t54 124t78.5 158.5q-109 -26 -195 -26t-184 26q-8 -75 -30 -158.5t-38 -129t-49 -134.5zM592 588q107 26 193 26t184 -26q4 92 29.5 167t82.5 171q-106 -26 -192 -26t-184 26q-4 -91 -29.5 -165t-83.5 -173z
" />
    <glyph glyph-name="dollar" unicode="$" horiz-adv-x="1273" 
d="M741 926l133 -52q35 -12 50.5 -18t53 -22.5t57.5 -31t49 -41t44.5 -54.5t27 -68t11.5 -86q0 -128 -74.5 -236.5t-207 -175t-295.5 -71.5l-27 -152h-67l26 154q-193 11 -310 114.5t-130 282.5l285 82q14 -96 68.5 -149t133.5 -64l58 317l-86 29q-34 11 -60.5 21
t-67.5 29.5t-71 44.5t-59 58.5t-44.5 79.5t-15.5 99q0 88 42 173t113.5 151.5t175.5 108.5t220 46l25 143h67l-24 -145q88 -6 161.5 -35.5t122 -74.5t76.5 -99.5t33 -112.5l-266 -114q-15 69 -60.5 114.5t-113.5 57.5zM532 1085q0 -49 36 -78.5t110 -58.5l49 287
q-83 -3 -139 -45t-56 -105zM690 635l-53 -301q89 5 149 53t60 115q0 54 -39.5 82t-116.5 51z" />
    <glyph glyph-name="percent" unicode="%" horiz-adv-x="1959" 
d="M397 715q-122 0 -188 83.5t-66 231.5q0 137 53.5 256t148.5 190.5t208 71.5q123 0 190.5 -84.5t67.5 -232.5q0 -136 -54.5 -254.5t-150 -190t-209.5 -71.5zM438 0h-266l1397 1468h258zM436 928q51 0 92 101.5t41 203.5t-53 102q-34 0 -65.5 -48.5t-49.5 -118.5t-18 -136
q0 -104 53 -104zM1473 -29q-122 0 -188 84t-66 232q0 137 53.5 256t148 190.5t207.5 71.5q123 0 190.5 -85t67.5 -233q0 -136 -54 -254.5t-149.5 -190t-209.5 -71.5zM1511 184q51 0 92.5 101.5t41.5 203.5q0 103 -54 103q-34 0 -65.5 -48.5t-49.5 -118.5t-18 -136
q0 -105 53 -105z" />
    <glyph glyph-name="ampersand" unicode="&#x26;" horiz-adv-x="1495" 
d="M475 -35q-195 0 -318.5 94t-123.5 260q0 150 112 270t322 224q-174 141 -174 332q0 125 71 236.5t195.5 180t271.5 68.5q178 0 280.5 -99.5t102.5 -248.5q0 -67 -23.5 -127t-60.5 -105t-94.5 -87.5t-113 -72.5t-127.5 -63l237 -299q3 29 9.5 59t12 49.5t17 51t16.5 43.5
t20.5 48t18.5 44l263 -53q-58 -131 -118 -222t-143 -147l328 -399h-383l-135 213q-169 -250 -463 -250zM707 938q202 143 202 295q0 67 -35 103t-92 36q-76 0 -129 -57t-53 -139q0 -59 27.5 -114t79.5 -124zM543 231q66 0 131 25.5t160 81.5l-263 344
q-120 -83 -176.5 -147.5t-56.5 -141.5q0 -73 56.5 -117.5t148.5 -44.5z" />
    <glyph glyph-name="quotesingle" unicode="'" horiz-adv-x="518" 
d="M477 1049h-272l96 548h272z" />
    <glyph glyph-name="parenleft" unicode="(" horiz-adv-x="729" 
d="M573 -307h-299q-98 147 -148 325t-50 367q0 320 141 642.5t393 569.5h299q-249 -247 -391.5 -568t-142.5 -640q0 -392 198 -696z" />
    <glyph glyph-name="parenright" unicode=")" horiz-adv-x="727" 
d="M147 -307h-299q251 250 393 571t142 637q0 391 -199 696h299q199 -298 199 -692q0 -320 -142.5 -644t-392.5 -568z" />
    <glyph glyph-name="asterisk" unicode="*" horiz-adv-x="786" 
d="M543 1026h-142l35 172l-164 -90l-49 119l183 86l-152 82l92 121l129 -89l27 170h141l-33 -170l162 89l49 -119l-178 -84l150 -86l-95 -119l-127 90z" />
    <glyph glyph-name="plus" unicode="+" horiz-adv-x="1071" 
d="M686 733h297l-39 -219h-297l-55 -317h-236l56 317h-303l38 219h304l57 320h235z" />
    <glyph glyph-name="comma" unicode="," horiz-adv-x="532" 
d="M63 -283h-159q3 4 27.5 37.5t29 39.5t26 33.5t29.5 36.5t27.5 31t33 34.5t32.5 29t38 31.5q-57 6 -89.5 47.5t-32.5 99.5q0 87 66.5 150t152.5 63q65 0 108 -42t43 -109q0 -14 -2.5 -27.5t-6 -26t-13 -30t-18 -31.5t-27 -38.5t-33.5 -44t-43.5 -54.5t-51.5 -63t-63.5 -77
t-73.5 -90z" />
    <glyph glyph-name="hyphen" unicode="-" horiz-adv-x="907" 
d="M776 502h-667l43 243h667z" />
    <glyph glyph-name="period" unicode="." horiz-adv-x="534" 
d="M178 -14q-66 0 -108.5 43.5t-42.5 109.5q0 83 65.5 147t151.5 64q66 0 107.5 -42t41.5 -105q0 -83 -65.5 -150t-149.5 -67z" />
    <glyph glyph-name="slash" unicode="/" horiz-adv-x="952" 
d="M209 -135h-270l870 1773h270z" />
    <glyph glyph-name="zero" unicode="0" horiz-adv-x="1431" 
d="M606 -35q-233 0 -362 164.5t-129 452.5q0 154 37 307t108 285.5t166 235t220 161.5t261 59q233 0 362.5 -165t129.5 -453q0 -154 -36.5 -306t-107.5 -285t-166 -235.5t-220.5 -161.5t-262.5 -59zM653 250q117 0 216 111.5t152.5 281.5t53.5 350q0 176 -56.5 264.5
t-156.5 88.5q-117 0 -216.5 -110t-154.5 -280.5t-55 -351.5q0 -178 57.5 -266t159.5 -88z" />
    <glyph glyph-name="one" unicode="1" horiz-adv-x="841" 
d="M569 0h-305q124 714 244 1178q-181 -209 -397 -258l57 317q144 42 254 143t131 217h297z" />
    <glyph glyph-name="two" unicode="2" horiz-adv-x="1300" 
d="M1090 0h-1078l6 37q23 112 59.5 200.5t85 160t125.5 140.5t162.5 129t215.5 138q64 38 102 63t89.5 64.5t79.5 73t48.5 78.5t20.5 92q0 83 -54.5 131.5t-154.5 48.5q-143 0 -239 -97.5t-126 -259.5l-274 48q44 256 240.5 419.5t457.5 163.5q211 0 341 -108.5t130 -296.5
q0 -87 -31 -169t-72.5 -138.5t-101 -110.5t-97.5 -80.5t-81 -52.5q-41 -25 -116.5 -67t-123 -71t-107 -72.5t-107.5 -97.5t-87 -120q128 17 269 26t227 10t240 1z" />
    <glyph glyph-name="three" unicode="3" horiz-adv-x="1341" 
d="M553 -35q-218 0 -370.5 100.5t-172.5 264.5l289 133q4 -24 13.5 -49t32 -56.5t54 -55t83.5 -40t116 -16.5q138 0 226.5 73t88.5 181q0 88 -60.5 137t-174.5 49h-162l43 248h146q122 0 204 69t82 171q0 83 -58.5 130.5t-154.5 47.5q-111 0 -197 -66.5t-122 -185.5l-266 63
q59 197 242 332t419 135q131 0 235.5 -42.5t167 -127.5t62.5 -200q0 -156 -105 -272t-266 -128l-4 -37q145 -10 220 -85.5t75 -205.5q0 -106 -51.5 -208.5t-140.5 -182t-218.5 -128t-275.5 -48.5z" />
    <glyph glyph-name="four" unicode="4" horiz-adv-x="1376" 
d="M999 0h-294q17 90 24 124t27 104.5t47 133.5q-427 -36 -801 -2l41 228l952 1009h287q-112 -639 -215 -1030q109 27 250 27l-45 -256q-146 0 -242 24q8 -139 -31 -362zM326 569q142 25 259 24.5t253 -26.5q6 168 34.5 329.5t90.5 377.5q-305 -373 -637 -705z" />
    <glyph glyph-name="five" unicode="5" horiz-adv-x="1347" 
d="M547 -35q-208 0 -361 101.5t-186 277.5l272 158q14 -70 47.5 -122.5t78 -82.5t94 -44.5t102.5 -14.5q150 0 255 102.5t105 239.5q0 107 -67.5 169t-179.5 62q-189 0 -310 -176l-237 67l350 895h848l-47 -266q-140 0 -217.5 1t-203.5 10t-237 26q-18 -126 -62 -232
t-138 -237h36q159 156 340 156q59 0 118.5 -12.5t121 -43t108 -76t76 -118t29.5 -162.5q0 -102 -35.5 -202t-102.5 -185.5t-156 -151t-203.5 -102.5t-237.5 -37z" />
    <glyph glyph-name="six" unicode="6" horiz-adv-x="1394" 
d="M610 -35q-240 0 -376 141.5t-136 417.5q0 134 33 269.5t92.5 257.5t146.5 228.5t190.5 184t230 122t258.5 44.5q274 0 399 -157l-201 -218q-101 101 -260 101q-355 0 -567 -541h37q161 229 417 229q194 0 319.5 -117t125.5 -313q0 -124 -53.5 -242t-145 -208
t-225.5 -144.5t-285 -54.5zM668 238q129 0 228 96t99 227q0 104 -67.5 167t-165.5 63q-130 0 -232 -101t-102 -229q0 -101 70 -162t170 -61z" />
    <glyph glyph-name="seven" unicode="7" horiz-adv-x="1196" 
d="M500 0h-324q21 119 57.5 240t101.5 266.5t150.5 284.5t211.5 290t278 287l-12 35q-130 -25 -282 -37t-247.5 -14t-265.5 -2l45 256h1126l-45 -260q-144 -110 -267 -248.5t-208 -275.5t-151.5 -287t-105.5 -279t-62 -256z" />
    <glyph glyph-name="eight" unicode="8" horiz-adv-x="1372" 
d="M580 -35q-235 0 -379 114t-144 298q0 169 117.5 296t292.5 146l8 41q-219 50 -219 258q0 97 47.5 189.5t128.5 164t196.5 115t243.5 43.5q202 0 330.5 -103t128.5 -280q0 -150 -92 -255.5t-242 -131.5l-8 -41q130 -15 206.5 -95.5t76.5 -209.5q0 -106 -53 -206
t-143.5 -175.5t-220.5 -121.5t-275 -46zM756 963q110 0 187 71.5t77 167.5q0 75 -53.5 121.5t-137.5 46.5q-107 0 -185.5 -70t-78.5 -167q0 -76 53.5 -123t137.5 -47zM625 231q138 0 238 90t100 211q0 94 -66 149.5t-178 55.5q-146 0 -242 -85.5t-96 -207.5q0 -101 69 -157
t175 -56z" />
    <glyph glyph-name="nine" unicode="9" horiz-adv-x="1406" 
d="M496 -35q-153 0 -278.5 57t-184.5 150l198 211q101 -154 297 -154q197 0 345.5 163.5t193.5 420.5h-37q-63 -136 -172.5 -204t-247.5 -68q-123 0 -224.5 50.5t-164.5 151t-63 234.5q0 122 54 240t147 209.5t228.5 147.5t286.5 56q111 0 201 -31.5t160 -97t108.5 -177.5
t38.5 -263q0 -157 -40 -314.5t-118.5 -297.5t-184 -248.5t-246.5 -172t-297 -63.5zM717 793q132 0 234 105t102 237q0 103 -69 164t-169 61q-134 0 -233 -102t-99 -234q0 -108 67.5 -169.5t166.5 -61.5z" />
    <glyph glyph-name="colon" unicode=":" horiz-adv-x="595" 
d="M338 795q-66 0 -108 42.5t-42 108.5q0 85 65 149t150 64q66 0 109 -43t43 -106q0 -83 -66 -149t-151 -66zM197 -12q-66 0 -109 43t-43 108q0 85 65.5 149t151.5 64q66 0 108 -42t42 -107q0 -82 -65.5 -148.5t-149.5 -66.5z" />
    <glyph glyph-name="semicolon" unicode=";" horiz-adv-x="616" 
d="M352 795q-67 0 -110 43t-43 108q0 85 66 149t149 64q66 0 109.5 -43t43.5 -106q0 -81 -65.5 -148t-149.5 -67zM84 -299h-166l211 305q-35 18 -54.5 54t-19.5 77q0 84 65.5 148.5t149.5 64.5q66 0 109 -42t43 -105t-56.5 -145.5t-281.5 -356.5z" />
    <glyph glyph-name="less" unicode="&#x3c;" horiz-adv-x="1044" 
d="M887 438l-35 -209l-752 230l52 305l833 229l-37 -209l-631 -172z" />
    <glyph glyph-name="equal" unicode="=" horiz-adv-x="1114" 
d="M1010 719h-854l41 219h854zM932 270h-854l39 222h854z" />
    <glyph glyph-name="greater" unicode="&#x3e;" horiz-adv-x="1044" 
d="M907 459l-833 -230l39 209l630 174l-571 172l37 209l752 -229z" />
    <glyph glyph-name="question" unicode="?" horiz-adv-x="1245" 
d="M709 500h-312q0 28 9 78q19 106 92.5 178t216.5 149q35 20 55.5 32.5t58.5 42t59.5 55.5t39.5 65t18 80q0 78 -56 124t-147 46q-119 0 -207 -80t-110 -205q-2 -8 -4 -35l-266 49q2 10 2 29q29 159 128.5 279.5t237.5 181.5t291 61q130 0 234 -43.5t167.5 -133
t63.5 -210.5q0 -62 -16.5 -120t-48 -105t-62 -83.5t-74.5 -71t-68.5 -52t-60.5 -39.5q-7 -4 -33.5 -21t-34 -21.5t-30 -20t-30.5 -22t-26.5 -21t-26 -23t-20 -22.5t-18 -25.5t-11.5 -26t-9 -28.5q-2 -14 -2 -41zM477 -14q-67 0 -110 44t-43 109q0 82 65 146.5t148 64.5
q66 0 109.5 -41.5t43.5 -107.5q0 -85 -65 -150t-148 -65z" />
    <glyph glyph-name="at" unicode="@" horiz-adv-x="1943" 
d="M823 -195q-152 0 -276 33t-211 92t-146.5 142.5t-87.5 182.5t-28 214q0 142 44 286.5t122.5 272t191 238.5t243.5 191.5t286.5 126.5t314.5 46q313 0 498.5 -170t185.5 -465q0 -140 -43.5 -276t-118 -242t-181.5 -171.5t-226 -65.5q-227 0 -185 249h-32
q-158 -247 -400 -247q-144 0 -218.5 80t-74.5 213q0 113 54.5 232t140 211.5t199 152t223.5 59.5q200 0 211 -203h32q-2 22 -2 42t1 33t6 31t7 24.5t9 24.5t8 21h203l-180 -528q-1 -3 -7 -22t-8.5 -29.5t-8 -32.5t-6 -36t-1 -33t4.5 -31.5t13 -24.5t23.5 -17.5t36.5 -5.5
q82 0 155.5 86.5t115.5 218.5t42 267q0 234 -134 354.5t-374 120.5q-165 0 -316.5 -55t-267.5 -150t-202.5 -217.5t-132 -262.5t-45.5 -280q0 -246 146 -373.5t437 -127.5q304 0 547 151l70 -145q-143 -99 -319 -142t-339 -43zM885 453q85 0 165.5 58t127.5 143t47 167
q0 71 -40 113.5t-110 42.5q-84 0 -164 -57.5t-128 -144t-48 -169.5q0 -72 39.5 -112.5t110.5 -40.5z" />
    <glyph glyph-name="A" unicode="A" horiz-adv-x="1570" 
d="M219 0h-317l889 1597h356l323 -1597h-323q-57 258 -51 426l-19 25q-160 -41 -321 -41q-164 0 -305 41l-31 -25q-53 -165 -201 -426zM569 680l17 -21q108 39 223 39q112 0 203 -39l20 21q-50 174 -69.5 320t-8.5 341h-71q-60 -198 -133 -348t-181 -313z" />
    <glyph glyph-name="B" unicode="B" horiz-adv-x="1460" 
d="M733 0h-663l282 1597h668q202 0 312 -93t110 -249q0 -154 -100.5 -266.5t-272.5 -150.5l-6 -39q156 -29 230.5 -96.5t74.5 -196.5q0 -216 -179 -361t-456 -145zM502 907l26 -20q54 24 108.5 36t85.5 13.5t85 1.5q134 0 216.5 58.5t82.5 156.5q0 61 -34.5 99.5t-82 51.5
t-108.5 13q-9 0 -43 -0.5t-46.5 0t-41.5 3t-47 7t-44 14t-51 23.5l-39 -21q17 -201 -67 -436zM381 268l29 -35q122 48 290 48q166 0 255 61t89 162q0 64 -38 104t-90.5 54t-120.5 14q-59 0 -93 1.5t-90.5 13.5t-107.5 36l-39 -20q3 -247 -84 -439z" />
    <glyph glyph-name="C" unicode="C" horiz-adv-x="1697" 
d="M801 -35q-209 0 -366.5 80.5t-244 233.5t-86.5 360q0 194 76 375.5t205 317t310 217t380 81.5q260 0 432.5 -135.5t214.5 -366.5l-301 -112q-36 149 -136 238t-261 89q-102 0 -195.5 -37t-165.5 -102t-126 -149.5t-82.5 -182t-28.5 -196.5q0 -90 24.5 -163t65.5 -121
t97 -80t116 -46t125 -14q183 0 326 105t229 280l266 -96q-145 -287 -374 -431.5t-500 -144.5z" />
    <glyph glyph-name="D" unicode="D" horiz-adv-x="1628" 
d="M705 0h-635l282 1597h617q165 0 288 -44t198.5 -126.5t112 -193t36.5 -250.5q0 -150 -41 -294.5t-120 -268.5t-186.5 -218.5t-250 -148t-301.5 -53.5zM381 268l29 -35q97 31 143 39.5t98 8.5q157 0 278.5 48t197 133.5t113.5 197t38 243.5q0 106 -25.5 183.5t-63.5 121
t-95.5 69t-108.5 33t-115 7.5q-106 0 -153.5 7t-108.5 40l-39 -21q0 -562 -188 -1075z" />
    <glyph glyph-name="E" unicode="E" horiz-adv-x="1327" 
d="M1135 0h-1065l282 1597h1045l-51 -280q-166 0 -243.5 1t-222.5 12t-272 34l-39 -21q10 -108 -5.5 -207t-61.5 -223l18 -20q131 31 271 46t220 17t230 2l-53 -294q-150 0 -229.5 2t-212.5 18t-250 49l-29 -20q0 -135 -19.5 -237.5t-66.5 -207.5l29 -35q138 23 285 34.5
t240.5 13.5t248.5 2z" />
    <glyph glyph-name="F" unicode="F" horiz-adv-x="1267" 
d="M373 0h-303l282 1597h1026l-49 -282q-153 0 -237.5 1.5t-222.5 13t-261 34.5l-39 -21q11 -122 -8.5 -228.5t-77.5 -235.5l19 -21q134 32 273 47.5t220.5 18t223.5 2.5l-54 -297q-148 0 -226.5 2t-211.5 17.5t-250 47.5l-31 -20q-2 -276 -73 -676z" />
    <glyph glyph-name="G" unicode="G" horiz-adv-x="1775" 
d="M760 -35q-297 0 -476.5 179t-179.5 487q0 194 75.5 376.5t204 319.5t310 220t381.5 83q263 0 436.5 -137.5t212.5 -364.5l-301 -112q-38 150 -136 238.5t-259 88.5q-127 0 -240.5 -57.5t-191.5 -151t-124 -213.5t-46 -245q0 -94 27 -169t70.5 -121.5t102.5 -77.5
t118.5 -43.5t123.5 -12.5q333 0 602 371l-26 34q-92 -35 -195.5 -53.5t-162.5 -21t-150 -2.5l43 247h725l-145 -827h-234q1 11 5 45.5t7 52.5t9.5 50t19 64t29.5 67l-45 16q-114 -171 -259 -250.5t-331 -79.5z" />
    <glyph glyph-name="H" unicode="H" horiz-adv-x="1660" 
d="M373 0h-303l282 1597h303q-29 -160 -42.5 -231t-44.5 -203.5t-66 -251.5l28 -22q202 48 370.5 48.5t344.5 -48.5l37 22q15 281 88 686h305l-282 -1597h-306q69 394 154 674l-35 20q-187 -51 -355.5 -50.5t-352.5 50.5l-39 -20q-6 -123 -20.5 -250.5t-27 -202
t-38.5 -221.5z" />
    <glyph glyph-name="I" unicode="I" horiz-adv-x="641" 
d="M373 0h-303l282 1597h303z" />
    <glyph glyph-name="J" unicode="J" horiz-adv-x="1280" 
d="M502 -35q-123 0 -222 35.5t-166 103t-93 173t-3 239.5l11 55l309 41l-10 -51q-26 -144 30.5 -226.5t178.5 -82.5q61 0 109.5 23t77.5 55.5t51 81t31.5 85t18.5 83.5l181 1017h303l-170 -968q-37 -205 -96 -328q-163 -336 -541 -336z" />
    <glyph glyph-name="K" unicode="K" horiz-adv-x="1462" 
d="M373 0h-303l282 1597h303q-3 -16 -20.5 -114.5t-23 -127t-24 -113.5t-33.5 -135.5t-40 -126.5t-55 -149h35q408 412 794 766h359q-31 -28 -136.5 -126t-158 -146.5t-144 -131t-174.5 -155t-168 -145.5l-4 -39q100 -126 202 -285t164.5 -268.5t166.5 -300.5h-371
q-11 20 -50 91t-53.5 98.5t-47.5 89.5t-52 100t-46 92.5t-49.5 103.5t-43.5 99h-27q-69 -67 -115 -105t-98 -65q-12 -181 -69 -504z" />
    <glyph glyph-name="L" unicode="L" horiz-adv-x="1196" 
d="M1075 0h-1005l282 1597h303q-52 -297 -80.5 -450.5t-83 -409t-110.5 -469.5l29 -35q125 23 261 34.5t223 13.5t230 2z" />
    <glyph glyph-name="M" unicode="M" horiz-adv-x="2084" 
d="M379 0h-309l282 1597h342q221 -622 293 -1196h53q284 584 717 1196h342l-282 -1597h-310q6 33 25 142.5t27.5 154t27.5 143t34.5 162.5t38 155t48.5 177.5t57 177.5h-36q-146 -251 -395 -642.5t-296 -469.5h-190q-8 29 -126 446.5t-173 665.5h-37q0 -100 -7 -207.5
t-14.5 -184.5t-24.5 -195t-25.5 -170.5t-32 -185.5t-29.5 -169z" />
    <glyph glyph-name="N" unicode="N" horiz-adv-x="1671" 
d="M373 0h-303l282 1597h279q177 -296 306 -564t239 -595h36q19 209 50 434.5t53 353.5t65 371h303l-282 -1597h-279q-127 210 -204.5 348.5t-176 350.5t-170.5 427h-36q-19 -208 -48.5 -424.5t-51.5 -346.5t-62 -355z" />
    <glyph glyph-name="O" unicode="O" horiz-adv-x="1771" 
d="M780 -35q-196 0 -349.5 82t-241 236.5t-87.5 355.5q0 126 35 251t98 233.5t153 202.5t196 161t231.5 105t255.5 38q301 0 489.5 -187t188.5 -491q0 -190 -78 -370.5t-208 -316t-310 -218t-373 -82.5zM831 252q159 0 296.5 93.5t216.5 244.5t79 317q0 194 -109 315
t-290 121q-158 0 -297 -93.5t-220 -245t-81 -318.5q0 -196 112.5 -315t292.5 -119z" />
    <glyph glyph-name="P" unicode="P" horiz-adv-x="1384" 
d="M373 0h-303l282 1597h617q28 0 50.5 -1t75 -8.5t93 -21.5t91 -44.5t83.5 -71.5t56.5 -108t23.5 -150q0 -93 -27 -181.5t-82.5 -166.5t-134 -137t-189.5 -93t-241 -34q-60 0 -98 2.5t-101 18.5t-118 48q-10 -267 -78 -649zM479 811l31 -18q107 65 256 65q152 0 251 68
t99 200q0 59 -21 99t-60.5 59t-80 26t-94.5 7t-84 1.5t-78.5 12.5t-89.5 33l-39 -21q4 -139 -17 -263t-73 -269z" />
    <glyph glyph-name="Q" unicode="Q" horiz-adv-x="1802" 
d="M1593 -80l-252 -184q-67 97 -108 175.5t-55 158.5q-174 -105 -383 -105q-203 0 -360.5 82.5t-246 236.5t-88.5 357q0 192 78.5 373.5t210 316.5t315 217t383.5 82q203 0 360.5 -84.5t245 -239t87.5 -354.5q0 -228 -110 -431t-306 -335q46 -34 93.5 -87t70.5 -85.5
t65 -93.5zM844 221q110 0 217 37q-54 27 -107 84t-83.5 103.5t-77.5 125.5l251 181q167 -258 191 -404q98 89 162.5 247t64.5 312q0 196 -112.5 316t-311.5 120q-130 0 -246 -54.5t-197.5 -145.5t-129 -212t-47.5 -251q0 -210 116.5 -334.5t309.5 -124.5z" />
    <glyph glyph-name="R" unicode="R" horiz-adv-x="1435" 
d="M373 0h-303l282 1597h617q22 0 43 -1t72 -9t92.5 -22t93 -45t86.5 -73t59.5 -110t24.5 -153q0 -146 -65 -263.5t-187 -189t-281 -80.5l-6 -37q77 -89 149 -200.5t105 -173.5t103 -201q13 -26 20 -39h-342l-289 590q-97 10 -196 59q-4 -250 -78 -649zM477 795l29 -21
q68 32 129.5 41.5t138.5 9.5q144 1 242 86.5t98 208.5q0 46 -16.5 82.5t-42 58.5t-60 36t-66 19t-63.5 5q-54 0 -84 1.5t-79 11.5t-95 30l-39 -21q11 -266 -92 -548z" />
    <glyph glyph-name="S" unicode="S" horiz-adv-x="1337" 
d="M580 -35q-236 0 -384 124t-165 349l301 97q16 -156 97.5 -224.5t197.5 -68.5q129 0 215 65t86 158q0 35 -15.5 64t-34 46.5t-57 35.5t-60 25.5t-67.5 22.5l-135 43q-51 16 -89.5 32t-91.5 48.5t-88 70.5t-60 98.5t-25 133.5q0 104 48 203t131 174.5t203.5 121.5t256.5 46
q113 0 206 -32t152.5 -85t94 -118.5t40.5 -137.5l-299 -112q-19 99 -81 154t-164 55q-108 0 -183 -57.5t-75 -137.5q0 -33 15 -61.5t36 -48t56.5 -38t63 -29t68.5 -24.5l160 -53q31 -10 44 -15t46 -18t50 -22.5t46.5 -28t46.5 -36t38 -43.5t32 -54t19 -64t8 -77
q0 -109 -50.5 -213.5t-138 -186.5t-217.5 -132t-278 -50z" />
    <glyph glyph-name="T" unicode="T" horiz-adv-x="1308" 
d="M705 0h-304q52 291 82 455t84.5 420t110.5 477q-95 -16 -195.5 -24.5t-160 -9.5t-166.5 -1l49 280h1261l-49 -280q-107 0 -166.5 1t-156.5 9.5t-185 24.5q-54 -529 -204 -1352z" />
    <glyph glyph-name="U" unicode="U" horiz-adv-x="1525" 
d="M655 -35q-109 0 -194.5 22.5t-141 59.5t-93.5 90.5t-55.5 110.5t-22.5 125.5t-0.5 128t16.5 125.5l170 970h305l-166 -946q-11 -59 -13.5 -110.5t8.5 -106.5t37 -93.5t78 -63.5t126 -25q299 0 376 399l166 946h303l-170 -970q-121 -662 -729 -662z" />
    <glyph glyph-name="V" unicode="V" horiz-adv-x="1568" 
d="M864 0h-358l-324 1597h320q35 -163 71 -350.5t80.5 -482.5t51.5 -477h67q105 260 307.5 651.5t350.5 658.5h321z" />
    <glyph glyph-name="W" unicode="W" horiz-adv-x="2367" 
d="M754 0h-383l-174 1597h348q35 -368 50.5 -645t12.5 -608h37q87 226 189 463t172.5 389.5t187.5 400.5h346q34 -292 47 -411.5t32.5 -373.5t25.5 -482h34q212 611 510 1267h346l-737 -1597h-379q-48 357 -71.5 619t-24.5 579h-53q-116 -323 -237.5 -600.5t-278.5 -597.5z
" />
    <glyph glyph-name="X" unicode="X" horiz-adv-x="1396" 
d="M264 -2h-366q428 517 661 784l6 37q-47 90 -101 198t-90 183t-98.5 205.5t-91.5 191.5h359q138 -295 219 -583h35q191 302 428 583h356q-459 -550 -661 -778l-7 -37q140 -271 381 -784h-368q-138 328 -205 586h-37q-98 -157 -194.5 -290t-225.5 -296z" />
    <glyph glyph-name="Y" unicode="Y" horiz-adv-x="1437" 
d="M770 0h-303q66 376 115 549q-161 396 -394 1048h328q59 -176 88 -266.5t69 -245.5t66 -303h37q77 147 177.5 310.5t151 239t179.5 265.5h328q-35 -49 -165.5 -232t-198 -276.5t-182.5 -249.5t-216 -288q-15 -204 -80 -551z" />
    <glyph glyph-name="Z" unicode="Z" horiz-adv-x="1376" 
d="M1208 0h-1241l43 248q266 293 534.5 558t600.5 558l-12 37q-472 -84 -908 -84l51 280h1199l-45 -251q-262 -283 -529 -544.5t-602 -565.5l12 -35q488 82 946 82z" />
    <glyph glyph-name="bracketleft" unicode="[" horiz-adv-x="835" 
d="M602 -432h-610l358 2029h611l-48 -260q-71 0 -112 1t-109.5 10t-132.5 26q-84 -776 -272 -1552q70 17 141 26t112 10t113 1z" />
    <glyph glyph-name="backslash" unicode="\" horiz-adv-x="931" 
d="M756 -135h-271l-243 1773h270z" />
    <glyph glyph-name="bracketright" unicode="]" horiz-adv-x="835" 
d="M492 -432h-611l51 291q71 0 112 -1t110 -10t133 -26q81 758 274 1552q-71 -17 -143 -26t-113 -10t-112 -1l47 260h610z" />
    <glyph glyph-name="asciicircum" unicode="^" horiz-adv-x="958" 
d="M365 993h-209l385 604h252l163 -604h-211q-36 146 -54.5 244t-18.5 188h-74q-61 -159 -233 -432z" />
    <glyph glyph-name="underscore" unicode="_" horiz-adv-x="1103" 
d="M889 -250h-955l39 227h955z" />
    <glyph glyph-name="a" unicode="a" horiz-adv-x="1198" 
d="M340 -35q-66 0 -123 16.5t-103.5 50t-73 89t-26.5 127.5q0 82 34 149t95 114t137 79t169 51q221 44 271 62q76 26 92 71q5 16 5 37q0 60 -40.5 95.5t-112.5 35.5q-80 0 -148.5 -45t-109.5 -137l-254 90q55 115 148.5 190.5t195 105.5t217.5 30q216 0 320 -104.5
t69 -301.5l-74 -414q-22 -125 -26.5 -205t2.5 -151h-287q-2 24 -3.5 46t10.5 62.5t40 94.5h-37q-65 -121 -165 -179.5t-222 -58.5zM465 186q110 0 191.5 75t97.5 169l16 96q-71 -33 -235 -67q-90 -23 -145.5 -66.5t-55.5 -103.5q0 -53 36.5 -78t94.5 -25z" />
    <glyph glyph-name="b" unicode="b" horiz-adv-x="1357" 
d="M672 -35q-125 0 -203.5 58t-110.5 165h-36q4 -14 6.5 -27t4 -26t2 -22t0 -22t-0.5 -19t-2.5 -19.5t-3 -17t-3.5 -18.5t-3 -17h-283l289 1638h286q-5 -31 -20 -122t-24.5 -143t-25.5 -135t-36 -162.5t-45 -160.5h35q87 142 187.5 201.5t217.5 59.5q192 0 298 -128
t106 -337q0 -191 -85.5 -363t-233 -277.5t-316.5 -105.5zM649 240q145 0 250 119.5t105 279.5q0 119 -63.5 190.5t-170.5 71.5q-145 0 -251.5 -120t-106.5 -279q0 -120 65 -191t172 -71z" />
    <glyph glyph-name="c" unicode="c" horiz-adv-x="1243" 
d="M553 -35q-225 0 -361.5 129t-136.5 357q0 139 53.5 271t145 232t223.5 161t279 61q187 0 315.5 -94.5t157.5 -262.5l-287 -108q-16 96 -78.5 143t-148.5 47q-148 0 -253.5 -119.5t-105.5 -277.5q0 -124 69 -194t179 -70q94 0 178.5 52.5t141.5 151.5l247 -108
q-91 -173 -256 -272t-362 -99z" />
    <glyph glyph-name="d" unicode="d" horiz-adv-x="1361" 
d="M477 -35q-199 0 -310.5 127t-111.5 342q0 191 83.5 361.5t230.5 275.5t319 105q255 0 303 -261h37q18 306 94 723h287l-225 -1282q-23 -132 -28 -210.5t1 -145.5h-285q-2 53 3.5 93t25.5 100h-35q-47 -83 -114 -136t-133.5 -72.5t-141.5 -19.5zM592 240q95 0 177.5 56
t130.5 148.5t48 196.5q0 120 -64.5 191t-172.5 71q-95 0 -177 -55.5t-129 -147.5t-47 -196q0 -120 63 -192t171 -72z" />
    <glyph glyph-name="e" unicode="e" horiz-adv-x="1259" 
d="M551 -35q-225 0 -361.5 130t-136.5 354q0 185 91 352t252.5 271t351.5 104q110 0 199.5 -36t155 -111t88 -190t-2.5 -272l-12 -80h-838q-3 -127 68.5 -195.5t189.5 -68.5q88 0 167.5 47.5t131.5 135.5l250 -109q-82 -144 -241 -238t-353 -94zM389 694h533
q6 119 -56.5 177.5t-165.5 58.5q-105 0 -187.5 -65.5t-123.5 -170.5z" />
    <glyph glyph-name="f" unicode="f" horiz-adv-x="792" 
d="M406 0h-287q39 218 55.5 307.5t56.5 271.5t84 332q-95 -28 -211 -28l46 260q45 0 69.5 -1t62 -7.5t68.5 -20.5q-13 40 -15 70.5t9 95.5q39 200 164 296.5t293 96.5q108 0 186 -33l-43 -239q-66 26 -127 26q-39 0 -68.5 -5t-48.5 -17.5t-31.5 -24.5t-20.5 -34t-11.5 -38.5
t-7.5 -45.5q-6 -33 -11 -51t-18.5 -45t-34.5 -52q109 29 305 29l-45 -260q-62 0 -92.5 0.5t-89 7.5t-113.5 20q-11 -151 -32.5 -322t-40 -285t-51.5 -304z" />
    <glyph glyph-name="g" unicode="g" horiz-adv-x="1361" 
d="M465 -483q-66 0 -124.5 8.5t-118.5 31.5t-106.5 58.5t-82.5 94t-51 134.5l276 95q24 -93 84.5 -136t161.5 -43q278 0 346 316q8 41 12 58t16.5 47.5t30.5 58.5h-35q-141 -234 -380 -234q-202 0 -318.5 122t-116.5 335q0 184 85 348.5t231 264.5t313 100q131 0 206.5 -67
t88.5 -194h37q2 112 20 228h283l-180 -1028q-24 -135 -73.5 -239.5t-114 -171t-147 -109.5t-166 -60.5t-177.5 -17.5zM602 281q140 0 245 113t105 259q0 113 -67 181.5t-174 68.5q-94 0 -174.5 -53.5t-126 -139.5t-45.5 -180q0 -112 65.5 -180.5t171.5 -68.5z" />
    <glyph glyph-name="h" unicode="h" horiz-adv-x="1306" 
d="M326 0h-287l289 1638h286q-2 -13 -12.5 -68t-13.5 -72t-13 -67.5t-14.5 -72t-14 -68.5t-16 -73.5t-17 -69.5t-19.5 -75.5t-20 -71.5t-23 -76h36q158 252 402 252q80 0 145.5 -27.5t112 -83.5t62.5 -141.5t-3 -202.5l-127 -721h-286l104 594q13 57 10.5 112t-16 98.5
t-53 70t-101.5 26.5q-108 0 -194.5 -78.5t-114.5 -232.5z" />
    <glyph glyph-name="i" unicode="i" horiz-adv-x="565" 
d="M410 1298q-65 0 -106.5 42.5t-41.5 107.5q0 82 63.5 144.5t147.5 62.5q66 0 108 -41.5t42 -104.5q0 -82 -64.5 -146.5t-148.5 -64.5zM326 0h-287l203 1143h286z" />
    <glyph glyph-name="j" unicode="j" horiz-adv-x="565" 
d="M414 1298q-66 0 -108 42.5t-42 107.5q0 80 63.5 143.5t147.5 63.5q66 0 108 -41.5t42 -104.5q0 -81 -63.5 -146t-147.5 -65zM-133 -483q-128 0 -223 43l43 247q87 -34 161 -34q32 0 57.5 7.5t43.5 17.5t32 28.5t22 33t15 38.5t10 37.5t7 37.5l207 1170h286l-204 -1157
q-28 -157 -60 -232q-95 -223 -361 -236q-17 -1 -36 -1z" />
    <glyph glyph-name="k" unicode="k" horiz-adv-x="1171" 
d="M328 0h-289l289 1638h288q-4 -22 -20.5 -117.5t-22 -124t-21 -112.5t-23.5 -123.5t-23.5 -114t-28 -126.5t-29 -118.5t-34.5 -129.5h37q119 135 215 231t252 240h342l-541 -467q37 -54 76 -116t65.5 -106t68.5 -119.5t58.5 -105.5t64.5 -120t58 -109h-338q-6 11 -24 48
t-24 49t-22 45.5t-23.5 48.5t-22 46t-23 50.5t-21.5 50t-23.5 55.5t-23 56t-24.5 63q-79 -108 -168 -180q-10 -136 -45 -332z" />
    <glyph glyph-name="l" unicode="l" horiz-adv-x="565" 
d="M326 0h-287l289 1638h286z" />
    <glyph glyph-name="m" unicode="m" horiz-adv-x="2019" 
d="M326 0h-287l203 1143h282q-1 -4 -6.5 -32t-9 -40t-11 -38t-19 -52.5t-27.5 -56.5h36q80 130 184.5 191t211.5 61q113 0 189.5 -66.5t82.5 -212.5h35q166 279 407 279q78 0 144 -29t113.5 -86t65.5 -142t-1 -198l-125 -721h-289l105 594q53 307 -148 307q-103 0 -188 -79
t-111 -232l-104 -590h-287l107 596q11 61 11 111.5t-13.5 96t-50.5 71.5t-95 26q-104 0 -189.5 -79t-113.5 -232z" />
    <glyph glyph-name="n" unicode="n" horiz-adv-x="1306" 
d="M326 0h-287l203 1143h282q-1 -2 -6 -26.5t-6.5 -32t-8 -31t-12.5 -39t-16.5 -40t-23.5 -50.5h36q158 252 402 252q82 0 147.5 -27.5t111.5 -83.5t61.5 -141.5t-3.5 -202.5l-127 -721h-286l104 594q13 57 10.5 112t-16 98.5t-53 70t-101.5 26.5q-109 0 -195 -78.5
t-114 -232.5z" />
    <glyph glyph-name="o" unicode="o" horiz-adv-x="1310" 
d="M549 -35q-227 0 -360.5 131.5t-133.5 354.5q0 138 53.5 269.5t145.5 232t226 162t284 61.5q227 0 360 -132.5t133 -357.5q0 -138 -53 -269t-144.5 -231t-225 -160.5t-285.5 -60.5zM600 240q148 0 252 120.5t104 284.5q0 116 -64.5 186t-174.5 70q-102 0 -185.5 -59
t-128.5 -150.5t-45 -191.5q0 -119 64.5 -189.5t177.5 -70.5z" />
    <glyph glyph-name="p" unicode="p" horiz-adv-x="1357" 
d="M246 -451h-287l283 1594h282q-1 -4 -6.5 -33.5t-8.5 -41.5t-11 -40t-20 -58t-29 -67h36q97 150 198.5 211.5t217.5 61.5q186 0 296 -124t110 -339q0 -193 -86.5 -365.5t-234 -277.5t-314.5 -105q-252 0 -301 246h-37q-3 -77 -9 -147t-18 -152t-17 -115.5t-23.5 -134.5
t-20.5 -113zM651 240q96 0 177.5 57.5t127 149t45.5 192.5q0 119 -62 190.5t-169 71.5q-95 0 -178 -56t-131.5 -147.5t-48.5 -193.5q0 -121 65.5 -192.5t173.5 -71.5z" />
    <glyph glyph-name="q" unicode="q" horiz-adv-x="1361" 
d="M1044 -451h-288q3 17 20 110t25.5 134.5t26 122t37 151.5t42.5 144h-37q-164 -246 -407 -246q-183 0 -294.5 128t-111.5 347q0 192 84 361t230.5 272t318.5 103q257 0 309 -254h37q-3 26 -5 48t-2.5 41.5t-0.5 32t2 30.5t2.5 24t4 24t3.5 21h283zM592 240
q145 0 251.5 120t106.5 279q0 121 -65 192.5t-172 71.5q-95 0 -177 -55.5t-129 -147.5t-47 -196q0 -119 62.5 -191.5t169.5 -72.5z" />
    <glyph glyph-name="r" unicode="r" horiz-adv-x="890" 
d="M326 0h-287l203 1143h282q-1 -5 -5.5 -33t-8 -43t-11 -44.5t-19.5 -61t-29 -68.5h36q69 140 163.5 211.5t209.5 71.5q56 0 107 -21l-58 -321q-59 22 -137 22q-76 0 -137 -28t-98.5 -69t-66 -101t-42.5 -108.5t-25 -107.5z" />
    <glyph glyph-name="s" unicode="s" horiz-adv-x="1052" 
d="M428 -35q-189 0 -305 87.5t-131 234.5l282 86q20 -89 75 -130.5t124 -41.5q72 0 121 35.5t49 89.5q0 25 -11.5 44t-31 30.5t-41.5 20t-46 16.5q-7 2 -11 3l-115 37q-23 7 -37 12t-44 18.5t-50 27t-45.5 36.5t-40.5 49t-26 63t-11 79q0 80 37 155t101.5 132.5t158.5 92
t201 34.5q166 0 269 -80.5t118 -208.5l-281 -86q-10 62 -47.5 101.5t-107.5 39.5q-63 0 -108.5 -35t-45.5 -86q0 -26 15 -46.5t45 -36.5t54.5 -25t63.5 -21l82 -24q104 -31 149 -59q119 -72 119 -220q0 -178 -149 -301t-379 -123z" />
    <glyph glyph-name="t" unicode="t" horiz-adv-x="894" 
d="M522 -35q-62 0 -112 10t-84.5 26t-59.5 41t-39.5 49.5t-22 57.5t-9.5 58t0.5 59t5.5 53t8 46q20 114 33.5 180.5t40 170.5t59.5 195q-54 -14 -107 -20.5t-79 -7t-80 -0.5l45 260q150 0 256 -29q-11 128 23 331l3 21h287q-37 -212 -98 -352q143 29 350 29l-47 -260
q-72 0 -107.5 0.5t-102 7.5t-128.5 20q2 -113 -6.5 -196t-20 -122t-21 -94t-9.5 -116q0 -81 25.5 -119.5t99.5 -38.5q79 0 163 41l-47 -258q-85 -43 -219 -43z" />
    <glyph glyph-name="u" unicode="u" horiz-adv-x="1290" 
d="M432 -35q-193 0 -281 117.5t-49 343.5l127 717h287l-108 -619q-24 -132 15 -208t140 -76q110 0 189.5 81.5t101.5 206.5l109 615h286l-139 -787q-22 -129 -27.5 -205t0.5 -151h-284q-2 34 -2 61t12 64.5t39 87.5h-37q-69 -132 -160 -190t-219 -58z" />
    <glyph glyph-name="v" unicode="v" horiz-adv-x="1179" 
d="M666 0h-351l-202 1143h311q82 -450 96 -858h51q168 432 396 858h303z" />
    <glyph glyph-name="w" unicode="w" horiz-adv-x="1914" 
d="M623 0h-336l-176 1143h327q24 -199 33 -279.5t19 -242.5t6 -308h53q59 149 132.5 309.5t119 253t133.5 267.5h252q30 -204 41 -283.5t27.5 -240t23.5 -306.5h49q49 148 117.5 312.5t107.5 247t129 270.5h326l-580 -1143h-348q-63 480 -65 743h-47q-115 -296 -344 -743z
" />
    <glyph glyph-name="x" unicode="x" horiz-adv-x="1140" 
d="M238 0h-334q281 348 489 563l4 37q-120 189 -288 543h331q106 -242 144 -414h37q41 76 94 154t91.5 128t104.5 132h324q-112 -135 -168 -201.5t-144 -164t-169 -177.5l-6 -37q149 -243 288 -563h-325q-91 199 -148 412h-35q-102 -178 -290 -412z" />
    <glyph glyph-name="y" unicode="y" horiz-adv-x="1196" 
d="M420 -451h-307l225 402l-232 1192h316q90 -471 108 -881h35q68 169 147 339t130.5 270t142.5 272h307z" />
    <glyph glyph-name="z" unicode="z" horiz-adv-x="1089" 
d="M934 0h-963l43 242q416 409 707 641l-12 35q-212 -39 -570 -39l47 264h910l-43 -244q-153 -147 -228.5 -219t-216.5 -196.5t-264 -221.5l10 -35q99 16 219.5 24.5t196.5 9.5t211 1z" />
    <glyph glyph-name="braceleft" unicode="{" horiz-adv-x="915" 
d="M705 -301h-127q-264 0 -364 106t-62 322l28 176q7 38 10 67t1.5 50.5t-4 36.5t-13 24.5t-18.5 15t-27 8t-32 3t-40 0.5l49 280q36 0 51 1t39.5 6.5t36 17.5t26.5 34.5t25 58.5t19 87l31 176q13 71 31.5 125t60 114t101.5 99t158.5 64.5t227.5 25.5h127l-47 -260h-94
q-46 0 -80 -4t-71.5 -17.5t-63.5 -37t-47 -65t-31 -99.5l-22 -123q-10 -61 -17.5 -94.5t-22.5 -70.5t-34 -55.5t-52 -37.5t-77 -29.5t-109 -19.5l-14 -76q47 -7 78.5 -13.5t58 -16.5t42.5 -20t26.5 -28.5t14 -36t2 -49t-5.5 -61t-13 -78.5l-21 -123q-22 -125 31.5 -174
t185.5 -49h95z" />
    <glyph glyph-name="bar" unicode="|" horiz-adv-x="575" 
d="M225 -451h-235l368 2089h236z" />
    <glyph glyph-name="braceright" unicode="}" horiz-adv-x="915" 
d="M31 -301h-127l47 260h94q45 0 78 3.5t71 17t64 37t48 65.5t32 100l22 123q11 63 19.5 99.5t24 72t34 53t53 34.5t76 26t107.5 18l10 76q-60 9 -98 18.5t-65.5 27t-39.5 36t-15.5 54t0.5 72.5t15 99l21 123q22 123 -30 173t-183 50h-94l43 260h127q270 0 369 -107.5
t61 -320.5l-33 -176q-8 -44 -10.5 -75.5t-1.5 -54t10 -36.5t17 -22t28.5 -12t35.5 -4.5t46 -0.5l-49 -280q-27 0 -39.5 -0.5t-33 -3t-29.5 -7.5t-23.5 -14.5t-22 -24.5t-17.5 -36.5t-17.5 -50.5t-14.5 -68l-33 -176q-14 -75 -36.5 -134.5t-66 -116.5t-104.5 -94.5t-155 -60
t-215 -22.5z" />
    <glyph glyph-name="asciitilde" unicode="~" horiz-adv-x="1165" 
d="M764 471q-53 0 -104 19t-83.5 41.5t-70 41.5t-66.5 19q-44 0 -74 -34t-38 -79h-224q27 159 124.5 253.5t217.5 94.5q48 0 95 -17.5t78.5 -38.5t70 -38.5t72.5 -17.5q84 0 102 108h226q-30 -172 -117.5 -262t-208.5 -90z" />
    <glyph glyph-name="uni00A0" unicode="&#xa0;" horiz-adv-x="489" 
 />
    <glyph glyph-name="exclamdown" unicode="&#xa1;" horiz-adv-x="559" 
d="M322 809q-65 0 -107.5 42.5t-42.5 106.5q0 83 66 150.5t151 67.5q64 0 107 -44t43 -110q0 -85 -68 -149t-149 -64zM258 -436h-309l33 182l235 907h158l-86 -907z" />
    <glyph glyph-name="cent" unicode="&#xa2;" horiz-adv-x="1138" 
d="M752 1032l-101 -567q61 13 116 51.5t89 99.5l188 -86q-63 -121 -179 -197.5t-253 -90.5l-43 -242h-129l43 244q-154 23 -249 128.5t-95 276.5q0 145 68 277.5t189 221.5t266 107l36 211h129l-36 -211q123 -14 207.5 -85.5t107.5 -188.5l-221 -86q-8 57 -45 91.5t-88 45.5
zM383 690q0 -88 38.5 -143.5t100.5 -75.5l101 561q-103 -29 -171.5 -127.5t-68.5 -214.5z" />
    <glyph glyph-name="sterling" unicode="&#xa3;" horiz-adv-x="1343" 
d="M1153 0h-1133l46 258q177 50 254.5 117t89.5 170q7 57 19.5 93t41.5 64q-143 -20 -360 -20l26 145q160 0 305 -20q-71 79 -108 156.5t-37 169.5q0 100 44.5 191.5t121 158.5t187 107t235.5 40q66 0 127.5 -10.5t127.5 -41t114.5 -78.5t81.5 -130t36 -188l-295 -111
q-4 71 -20.5 124.5t-39 84t-53 49.5t-57.5 25t-57 6q-104 0 -172 -71t-68 -181q0 -52 26.5 -148t27.5 -153q178 20 454 20l-26 -145q-240 0 -412 20q47 -42 47 -104q0 -102 -82 -191.5t-252 -187.5l15 -37q53 13 103.5 24t102.5 18.5t89.5 13t92.5 9t81 5.5t85.5 3t76.5 1
h82.5h76.5z" />
    <glyph glyph-name="currency" unicode="&#xa4;" horiz-adv-x="1368" 
d="M1155 909q0 -168 -113 -307l201 -295l-201 -151l-202 295q-84 -35 -181 -35t-172 37l-307 -297l-147 151l303 297q-31 70 -31 154q0 165 111 305l-199 293l201 153l200 -292q82 36 185 36q101 0 174 -36l303 292l150 -153l-306 -293q31 -70 31 -154zM547 795
q0 -73 40.5 -117.5t108.5 -44.5q89 0 153 73t64 173q0 71 -39.5 114t-107.5 43q-89 0 -154 -72t-65 -169z" />
    <glyph glyph-name="yen" unicode="&#xa5;" horiz-adv-x="1486" 
d="M793 0h-306q11 56 17.5 83.5t24 79t44.5 105.5q-78 -17 -157.5 -26t-125.5 -10t-128 -1l35 197q82 0 127.5 -1t121.5 -10t148 -26q-15 64 -8 105t41 79q-77 -16 -157.5 -24t-123.5 -9t-129 -1l35 194q68 0 107 -1t105 -9.5t128 -24.5q-140 328 -356 897h323
q75 -212 126 -386.5t85 -370.5h37q136 248 218 380t261 377h324q-33 -45 -157.5 -212.5t-174.5 -235t-149.5 -198t-194.5 -251.5q69 16 138.5 24.5t109.5 9.5t110 1l-35 -194q-86 0 -129 1t-120.5 9t-149.5 24q20 -39 12.5 -79t-45.5 -105q77 17 157 26t126.5 10t128.5 1
l-35 -197q-82 0 -128 1t-122 10t-147 26q15 -118 -12 -268z" />
    <glyph glyph-name="brokenbar" unicode="&#xa6;" horiz-adv-x="575" 
d="M453 831h-236l141 807h238zM227 -451h-237l141 801h238z" />
    <glyph glyph-name="section" unicode="&#xa7;" horiz-adv-x="1124" 
d="M420 -301q-185 0 -307.5 87.5t-135.5 233.5l265 78q22 -90 83.5 -136t133.5 -46q71 0 121.5 39t50.5 94q0 20 -9.5 38t-20.5 29t-36.5 25t-38.5 20t-45 19l-114 47q-244 100 -244 273q0 105 80 183.5t215 90.5l6 39q-199 57 -199 231q0 73 36.5 145t100 129t159 92.5
t204.5 35.5q164 0 266.5 -79t116.5 -216l-277 -86q-16 164 -151 164q-72 0 -119 -39t-47 -96q0 -30 15 -54t43 -41.5t50 -27.5t54 -21l100 -37q44 -17 71.5 -29t67 -35.5t62.5 -48.5t40 -63.5t17 -83.5q0 -118 -87.5 -203t-215.5 -94l-8 -39q201 -38 201 -217
q0 -168 -144 -284.5t-360 -116.5zM535 432l32 -12q85 6 138 52.5t53 109.5q0 17 -4 31t-16.5 26t-19 18t-29.5 15.5t-28 11.5t-34 12l-52 19q-60 22 -122 -27.5t-62 -118.5q0 -25 10.5 -46t23.5 -33.5t36.5 -25.5t36 -18t37.5 -14z" />
    <glyph glyph-name="copyright" unicode="&#xa9;" horiz-adv-x="1890" 
d="M840 -35q-206 0 -364.5 82t-247.5 237t-89 361q0 191 78.5 371.5t211 315.5t318 216.5t388.5 81.5q207 0 365 -82.5t245.5 -237t87.5 -358.5q0 -153 -49.5 -300.5t-141.5 -270.5t-213 -217t-274 -146.5t-315 -52.5zM866 119q168 0 320.5 67t260 177.5t171 257.5t63.5 303
q0 254 -158.5 404.5t-414.5 150.5q-167 0 -318.5 -67t-259.5 -177.5t-171.5 -258t-63.5 -304.5q0 -170 73 -296t202 -191.5t296 -65.5zM926 346q-174 0 -277.5 100.5t-103.5 268.5q0 103 41.5 200.5t111.5 170.5t168.5 117t206.5 44q144 0 238 -74.5t119 -207.5l-189 -70
q-17 86 -68 130t-129 44q-125 0 -213 -99.5t-88 -228.5q0 -58 20.5 -102t54 -67.5t70 -34.5t75.5 -11q89 0 160 52t116 145l166 -57q-75 -154 -199.5 -237t-279.5 -83z" />
    <glyph glyph-name="guillemotleft" unicode="&#xab;" horiz-adv-x="1335" 
d="M621 164h-299l-234 405l2 9l377 405h299q-72 -75 -103.5 -106.5t-93.5 -89t-120.5 -98t-124.5 -75.5l-15 -82q54 -35 99.5 -77t85 -95t64.5 -92t63 -104zM1149 164h-297l-234 405l3 9l376 405h297q-64 -68 -101 -105.5t-96 -91.5t-118.5 -95.5t-126.5 -76.5l-14 -82
q37 -23 70 -50t62.5 -59.5t51 -58.5t47.5 -67t40 -64.5t40 -68.5z" />
    <glyph glyph-name="logicalnot" unicode="&#xac;" horiz-adv-x="1075" 
d="M879 168h-238l66 362h-603l39 222h838z" />
    <glyph glyph-name="registered" unicode="&#xae;" horiz-adv-x="1126" 
d="M588 723q-171 0 -276 102.5t-105 268.5q0 104 42.5 202.5t114.5 172t173.5 118.5t212.5 45q170 0 277.5 -99t107.5 -269q0 -105 -43 -204t-115.5 -173t-174.5 -119t-214 -45zM608 825q115 0 213 60t152.5 156t54.5 202q0 128 -81 208.5t-214 80.5q-114 0 -211.5 -59
t-153 -156t-55.5 -205q0 -128 81 -207.5t214 -79.5zM567 938h-106l86 492h194q23 0 46.5 -5.5t50 -18.5t43 -41t16.5 -67q0 -61 -37.5 -109t-99.5 -67l90 -184h-115l-84 174h-53zM637 1337l-23 -133h78q39 0 63.5 22t24.5 56q0 55 -65 55h-78z" />
    <glyph glyph-name="degree" unicode="&#xb0;" horiz-adv-x="739" 
d="M451 1047q-110 0 -180 68t-70 179q0 139 106 247t250 108q110 0 180 -69.5t70 -178.5q0 -139 -106 -246.5t-250 -107.5zM479 1204q64 0 114 52t50 120q0 48 -31.5 81.5t-81.5 33.5q-66 0 -115.5 -51t-49.5 -119q0 -52 31 -84.5t83 -32.5z" />
    <glyph glyph-name="plusminus" unicode="&#xb1;" horiz-adv-x="1126" 
d="M1057 848l-39 -215h-328l-35 -197h328l-37 -213h-887l39 213h322l33 197h-322l39 215h322l40 229h236l-39 -229h328z" />
    <glyph glyph-name="uni00B2" unicode="&#xb2;" horiz-adv-x="727" 
d="M690 733h-588l4 29q26 140 89 222.5t227 176.5q2 1 15.5 9t19 11.5t19 11.5t20.5 14t18.5 14.5t17.5 16.5t12.5 17.5t9.5 19t3 19.5q0 21 -15.5 34t-45.5 13q-46 0 -81 -34.5t-48 -96.5l-205 33q26 137 133 221t246 84q115 0 187.5 -59.5t72.5 -159.5q0 -84 -50 -152.5
t-128 -107.5q-11 -6 -43 -23.5t-51 -28.5t-43 -31.5t-37 -41.5h280z" />
    <glyph glyph-name="uni00B3" unicode="&#xb3;" horiz-adv-x="731" 
d="M377 713q-120 0 -200 52.5t-89 131.5l217 102q27 -94 107 -94q43 0 70.5 25t27.5 61q0 64 -88 64h-78l29 157h76q42 0 76 22.5t34 59.5q0 25 -18.5 42.5t-48.5 17.5q-39 0 -68 -26t-43 -71l-201 48q27 101 128 172t235 71q109 0 181.5 -49t72.5 -133q0 -69 -45.5 -130
t-106.5 -73v-2q47 -9 79 -50t32 -97q0 -114 -109 -207.5t-270 -93.5z" />
    <glyph glyph-name="paragraph" unicode="&#xb6;" horiz-adv-x="1617" 
d="M799 -287h-301l166 942h-113q-186 0 -292.5 104t-106.5 283q0 111 43.5 212t120.5 177t191.5 121t248.5 45h374zM1272 -287h-301l332 1884h301z" />
    <glyph glyph-name="periodcentered" unicode="&#xb7;" horiz-adv-x="632" 
d="M299 477q-81 0 -132.5 53.5t-51.5 135.5q0 101 80 179.5t184 78.5q81 0 132.5 -52t51.5 -131q0 -100 -80.5 -182t-183.5 -82z" />
    <glyph glyph-name="uni00B9" unicode="&#xb9;" horiz-adv-x="534" 
d="M463 733h-230l82 459q-95 -63 -178 -82l43 246q82 27 135 75t62 101h227z" />
    <glyph glyph-name="guillemotright" unicode="&#xbb;" horiz-adv-x="1331" 
d="M715 569l-375 -405h-299q62 66 98 102.5t95 91t119.5 96.5t127.5 78l15 82q-54 36 -99.5 78.5t-84 95t-64.5 93t-62 102.5h299l232 -405zM1245 569l-377 -405h-299q82 87 131.5 136.5t136 117t175.5 114.5l14 82q-54 36 -100 78.5t-85 95t-64 92.5t-62 103h299l233 -405z
" />
    <glyph glyph-name="onequarter" unicode="&#xbc;" horiz-adv-x="1650" 
d="M463 733h-230l82 459q-95 -63 -178 -82l43 246q82 27 135 75t62 101h227zM219 0h-266l1397 1468h258zM1407 -10h-219l24 139h-360l33 178l450 481h213l-84 -469h95l-33 -190h-94zM1278 498l-176 -179h143z" />
    <glyph glyph-name="onehalf" unicode="&#xbd;" horiz-adv-x="1714" 
d="M463 733h-230l82 459q-95 -63 -178 -82l43 246q82 27 135 75t62 101h227zM219 0h-266l1397 1468h258zM1546 -10h-588l5 28q17 95 47 157t93 120.5t175 122.5q2 1 15.5 9t19 11.5t19 11.5t20.5 14t18.5 14.5t17.5 16.5t12.5 17.5t9.5 19t3 19.5q0 21 -15.5 34t-45.5 13
q-46 0 -81 -34.5t-48 -96.5l-205 33q26 137 133 221t246 84q115 0 187.5 -59.5t72.5 -159.5q0 -84 -50 -152.5t-128 -107.5q-11 -6 -43 -23.5t-51 -28.5t-43 -31.5t-37 -41.5h280z" />
    <glyph glyph-name="threequarters" unicode="&#xbe;" horiz-adv-x="1847" 
d="M377 713q-120 0 -200 52.5t-89 131.5l217 102q27 -94 107 -94q43 0 70.5 25t27.5 61q0 64 -88 64h-78l29 157h76q42 0 76 22.5t34 59.5q0 25 -18.5 42.5t-48.5 17.5q-39 0 -68 -26t-43 -71l-201 48q27 101 128 172t235 71q109 0 181.5 -49t72.5 -133q0 -69 -45.5 -130
t-106.5 -73v-2q47 -9 79 -50t32 -97q0 -114 -109 -207.5t-270 -93.5zM416 0h-266l1396 1468h258zM1604 -10h-220l25 139h-360l32 178l451 481h213l-84 -469h94l-33 -190h-94zM1475 498l-177 -179h144z" />
    <glyph glyph-name="questiondown" unicode="&#xbf;" horiz-adv-x="1226" 
d="M700 809q-65 0 -108 43t-43 109q0 83 65 149t148 66q66 0 109.5 -45t43.5 -109q0 -82 -65.5 -147.5t-149.5 -65.5zM424 -469q-202 0 -333.5 102.5t-131.5 282.5q0 73 25 141t58 115t83.5 93.5t84 70.5t77.5 51q124 77 163 111q66 59 78 123q2 12 2 41h312q0 -36 -8 -80
q-19 -104 -94.5 -176.5t-215.5 -149.5q-35 -20 -56.5 -33.5t-59 -42t-59 -55t-39 -65t-17.5 -78.5q0 -77 55 -123.5t146 -46.5q121 0 208 79t111 205q0 5 0.5 9.5t1.5 11.5l2 14l266 -49q0 -9 -4 -29q-21 -120 -83.5 -220t-151.5 -165.5t-197.5 -101t-222.5 -35.5z" />
    <glyph glyph-name="Agrave" unicode="&#xc0;" horiz-adv-x="1570" 
d="M1145 1720h-260l-262 361h354zM219 0h-317l889 1597h356l323 -1597h-323q-57 258 -51 426l-19 25q-160 -41 -321 -41q-164 0 -305 41l-31 -25q-53 -165 -201 -426zM569 680l17 -21q108 39 223 39q112 0 203 -39l20 21q-50 174 -69.5 320t-8.5 341h-71q-60 -198 -133 -348
t-181 -313z" />
    <glyph glyph-name="Aacute" unicode="&#xc1;" horiz-adv-x="1570" 
d="M1509 2081l-389 -361h-260l295 361h354zM219 0h-317l889 1597h356l323 -1597h-323q-57 258 -51 426l-19 25q-160 -41 -321 -41q-164 0 -305 41l-31 -25q-53 -165 -201 -426zM569 680l17 -21q108 39 223 39q112 0 203 -39l20 21q-50 174 -69.5 320t-8.5 341h-71
q-60 -198 -133 -348t-181 -313z" />
    <glyph glyph-name="Acircumflex" unicode="&#xc2;" horiz-adv-x="1570" 
d="M825 1720h-266l352 357h279l227 -357h-266q-28 35 -42 56t-27.5 68t-14.5 108h-74q-34 -87 -73.5 -136.5t-94.5 -95.5zM219 0h-317l889 1597h356l323 -1597h-323q-57 258 -51 426l-19 25q-160 -41 -321 -41q-164 0 -305 41l-31 -25q-53 -165 -201 -426zM569 680l17 -21
q108 39 223 39q112 0 203 -39l20 21q-50 174 -69.5 320t-8.5 341h-71q-60 -198 -133 -348t-181 -313z" />
    <glyph glyph-name="Atilde" unicode="&#xc3;" horiz-adv-x="1570" 
d="M1141 1729q-72 0 -133 45l-52 38q-40 35 -75 35t-58.5 -28t-31.5 -72h-205q26 144 116 230.5t205 86.5q71 0 142 -49l45 -35q35 -26 63 -26q29 0 49.5 26t28.5 70h205q-28 -155 -105.5 -238t-193.5 -83zM219 0h-317l889 1597h356l323 -1597h-323q-57 258 -51 426l-19 25
q-160 -41 -321 -41q-164 0 -305 41l-31 -25q-53 -165 -201 -426zM569 680l17 -21q108 39 223 39q112 0 203 -39l20 21q-50 174 -69.5 320t-8.5 341h-71q-60 -198 -133 -348t-181 -313z" />
    <glyph glyph-name="Adieresis" unicode="&#xc4;" horiz-adv-x="1570" 
d="M754 1731q-64 0 -105 40.5t-41 102.5q0 82 62 142.5t145 60.5q63 0 103 -40t40 -100q0 -79 -61 -142.5t-143 -63.5zM1221 1731q-65 0 -106.5 40.5t-41.5 102.5q0 81 62.5 142t144.5 61q64 0 104.5 -39.5t40.5 -100.5q0 -79 -61 -142.5t-143 -63.5zM219 0h-317l889 1597
h356l323 -1597h-323q-57 258 -51 426l-19 25q-160 -41 -321 -41q-164 0 -305 41l-31 -25q-53 -165 -201 -426zM569 680l17 -21q108 39 223 39q112 0 203 -39l20 21q-50 174 -69.5 320t-8.5 341h-71q-60 -198 -133 -348t-181 -313z" />
    <glyph glyph-name="Aring" unicode="&#xc5;" horiz-adv-x="1570" 
d="M983 1710q-98 0 -159.5 59t-61.5 150q0 114 92 201.5t217 87.5q97 0 158 -57.5t61 -149.5q0 -115 -91 -203t-216 -88zM1004 1847q54 0 93.5 39.5t39.5 91.5q0 39 -26 64.5t-67 25.5q-52 0 -90.5 -39t-38.5 -92q0 -39 24.5 -64.5t64.5 -25.5zM219 0h-317l889 1597h356
l323 -1597h-323q-57 258 -51 426l-19 25q-160 -41 -321 -41q-164 0 -305 41l-31 -25q-53 -165 -201 -426zM569 680l17 -21q108 39 223 39q112 0 203 -39l20 21q-50 174 -69.5 320t-8.5 341h-71q-60 -198 -133 -348t-181 -313z" />
    <glyph glyph-name="AE" unicode="&#xc6;" horiz-adv-x="2183" 
d="M182 0h-338l1182 1597h1225l-49 -280q-162 0 -253 1.5t-239.5 10.5t-279.5 27q7 -117 -10 -217t-64 -217q130 17 275 25.5t226 9.5t240 1l-53 -294q-159 0 -239.5 1t-222.5 9.5t-265 25.5q5 -125 -14 -228.5t-68 -227.5q140 18 295 27t249 10.5t261 1.5l-51 -283h-1063
q15 89 25 140t33 137t52 165q-297 -53 -577 0q-35 -81 -86 -166.5t-86.5 -135t-104.5 -140.5zM664 668q118 26 211.5 26t203.5 -28q4 175 29 335t74 351h-41q-158 -281 -477 -684z" />
    <glyph glyph-name="Ccedilla" unicode="&#xc7;" horiz-adv-x="1697" 
d="M854 252q183 0 326 105t229 280l266 -96q-137 -271 -350.5 -415.5t-466.5 -158.5q-44 -37 -145 -106l14 -17q90 58 141 58q67 0 112.5 -43.5t45.5 -120.5q0 -108 -94 -183t-234 -75q-91 0 -160.5 34t-103.5 95l111 112q56 -96 172 -96q52 0 86.5 26t34.5 66q0 30 -25 48
t-65 18q-53 0 -93 -29l-77 68l122 147q-275 30 -435.5 207t-160.5 463q0 194 76 375.5t205 317t310 217t380 81.5q260 0 432.5 -135.5t214.5 -366.5l-301 -112q-36 149 -136 238t-261 89q-102 0 -195.5 -37t-165.5 -102t-126 -149.5t-82.5 -182t-28.5 -196.5
q0 -90 24.5 -163t65.5 -121t97 -80t116 -46t125 -14z" />
    <glyph glyph-name="Egrave" unicode="&#xc8;" horiz-adv-x="1327" 
d="M1055 1720h-260l-263 361h355zM1135 0h-1065l282 1597h1045l-51 -280q-166 0 -243.5 1t-222.5 12t-272 34l-39 -21q10 -108 -5.5 -207t-61.5 -223l18 -20q131 31 271 46t220 17t230 2l-53 -294q-150 0 -229.5 2t-212.5 18t-250 49l-29 -20q0 -135 -19.5 -237.5
t-66.5 -207.5l29 -35q138 23 285 34.5t240.5 13.5t248.5 2z" />
    <glyph glyph-name="Eacute" unicode="&#xc9;" horiz-adv-x="1327" 
d="M1419 2081l-389 -361h-260l295 361h354zM1135 0h-1065l282 1597h1045l-51 -280q-166 0 -243.5 1t-222.5 12t-272 34l-39 -21q10 -108 -5.5 -207t-61.5 -223l18 -20q131 31 271 46t220 17t230 2l-53 -294q-150 0 -229.5 2t-212.5 18t-250 49l-29 -20q0 -135 -19.5 -237.5
t-66.5 -207.5l29 -35q138 23 285 34.5t240.5 13.5t248.5 2z" />
    <glyph glyph-name="Ecircumflex" unicode="&#xca;" horiz-adv-x="1327" 
d="M735 1720h-266l352 357h279l227 -357h-266q-28 35 -42 56t-27.5 68t-14.5 108h-74q-34 -87 -73.5 -136.5t-94.5 -95.5zM1135 0h-1065l282 1597h1045l-51 -280q-166 0 -243.5 1t-222.5 12t-272 34l-39 -21q10 -108 -5.5 -207t-61.5 -223l18 -20q131 31 271 46t220 17
t230 2l-53 -294q-150 0 -229.5 2t-212.5 18t-250 49l-29 -20q0 -135 -19.5 -237.5t-66.5 -207.5l29 -35q138 23 285 34.5t240.5 13.5t248.5 2z" />
    <glyph glyph-name="Edieresis" unicode="&#xcb;" horiz-adv-x="1327" 
d="M664 1731q-64 0 -105 40.5t-41 102.5q0 82 62 142.5t145 60.5q63 0 103 -40t40 -100q0 -79 -61 -142.5t-143 -63.5zM1130 1731q-65 0 -106 40.5t-41 102.5q0 81 62.5 142t144.5 61q64 0 104.5 -39.5t40.5 -100.5q0 -79 -61.5 -142.5t-143.5 -63.5zM1135 0h-1065l282 1597
h1045l-51 -280q-166 0 -243.5 1t-222.5 12t-272 34l-39 -21q10 -108 -5.5 -207t-61.5 -223l18 -20q131 31 271 46t220 17t230 2l-53 -294q-150 0 -229.5 2t-212.5 18t-250 49l-29 -20q0 -135 -19.5 -237.5t-66.5 -207.5l29 -35q138 23 285 34.5t240.5 13.5t248.5 2z" />
    <glyph glyph-name="Igrave" unicode="&#xcc;" horiz-adv-x="641" 
d="M680 1720h-260l-262 361h354zM373 0h-303l282 1597h303z" />
    <glyph glyph-name="Iacute" unicode="&#xcd;" horiz-adv-x="641" 
d="M1044 2081l-389 -361h-260l295 361h354zM373 0h-303l282 1597h303z" />
    <glyph glyph-name="Icircumflex" unicode="&#xce;" horiz-adv-x="641" 
d="M360 1720h-266l352 357h279l227 -357h-266q-28 35 -42 56t-27.5 68t-14.5 108h-74q-34 -87 -73.5 -136.5t-94.5 -95.5zM373 0h-303l282 1597h303z" />
    <glyph glyph-name="Idieresis" unicode="&#xcf;" horiz-adv-x="641" 
d="M289 1731q-64 0 -105 40.5t-41 102.5q0 82 62 142.5t145 60.5q63 0 103.5 -40t40.5 -100q0 -79 -61.5 -142.5t-143.5 -63.5zM756 1731q-65 0 -106.5 40.5t-41.5 102.5q0 81 62.5 142t144.5 61q64 0 105 -40t41 -100q0 -79 -61.5 -142.5t-143.5 -63.5zM373 0h-303
l282 1597h303z" />
    <glyph glyph-name="Eth" unicode="&#xd0;" horiz-adv-x="1628" 
d="M352 1597h617q165 0 288 -44t198.5 -126.5t112 -193t36.5 -250.5q0 -150 -41 -294.5t-120 -268.5t-186.5 -218.5t-250 -148t-301.5 -53.5h-635l118 676h-208l43 244h208zM651 281q157 0 278.5 48t197 133.5t113.5 197t38 243.5q0 106 -25.5 183.5t-63.5 121t-95.5 69
t-108.5 33t-115 7.5q-106 0 -153.5 7t-108.5 40l-39 -21q0 -226 -28 -423h333l-43 -244h-331q-48 -213 -119 -408l29 -35q97 31 143 39.5t98 8.5z" />
    <glyph glyph-name="Ntilde" unicode="&#xd1;" horiz-adv-x="1671" 
d="M1184 1737q-72 0 -133 45l-52 39q-39 34 -75 34q-35 0 -58.5 -28t-31.5 -72h-205q26 144 116 231t205 87q33 0 63.5 -9.5t43.5 -17.5t35 -23l45 -34q36 -27 63 -27q29 0 49.5 26t28.5 70h205q-28 -155 -105.5 -238t-193.5 -83zM373 0h-303l282 1597h279
q177 -296 306 -564t239 -595h36q19 209 50 434.5t53 353.5t65 371h303l-282 -1597h-279q-127 210 -204.5 348.5t-176 350.5t-170.5 427h-36q-19 -208 -48.5 -424.5t-51.5 -346.5t-62 -355z" />
    <glyph glyph-name="Ograve" unicode="&#xd2;" horiz-adv-x="1771" 
d="M1243 1720h-260l-262 361h354zM780 -35q-196 0 -349.5 82t-241 236.5t-87.5 355.5q0 126 35 251t98 233.5t153 202.5t196 161t231.5 105t255.5 38q301 0 489.5 -187t188.5 -491q0 -190 -78 -370.5t-208 -316t-310 -218t-373 -82.5zM831 252q159 0 296.5 93.5t216.5 244.5
t79 317q0 194 -109 315t-290 121q-158 0 -297 -93.5t-220 -245t-81 -318.5q0 -196 112.5 -315t292.5 -119z" />
    <glyph glyph-name="Oacute" unicode="&#xd3;" horiz-adv-x="1771" 
d="M1608 2081l-389 -361h-261l295 361h355zM780 -35q-196 0 -349.5 82t-241 236.5t-87.5 355.5q0 126 35 251t98 233.5t153 202.5t196 161t231.5 105t255.5 38q301 0 489.5 -187t188.5 -491q0 -190 -78 -370.5t-208 -316t-310 -218t-373 -82.5zM831 252q159 0 296.5 93.5
t216.5 244.5t79 317q0 194 -109 315t-290 121q-158 0 -297 -93.5t-220 -245t-81 -318.5q0 -196 112.5 -315t292.5 -119z" />
    <glyph glyph-name="Ocircumflex" unicode="&#xd4;" horiz-adv-x="1771" 
d="M924 1720h-267l353 357h278l228 -357h-267q-28 35 -42 56t-27.5 68t-14.5 108h-73q-34 -87 -73.5 -136.5t-94.5 -95.5zM780 -35q-196 0 -349.5 82t-241 236.5t-87.5 355.5q0 126 35 251t98 233.5t153 202.5t196 161t231.5 105t255.5 38q301 0 489.5 -187t188.5 -491
q0 -190 -78 -370.5t-208 -316t-310 -218t-373 -82.5zM831 252q159 0 296.5 93.5t216.5 244.5t79 317q0 194 -109 315t-290 121q-158 0 -297 -93.5t-220 -245t-81 -318.5q0 -196 112.5 -315t292.5 -119z" />
    <glyph glyph-name="Otilde" unicode="&#xd5;" horiz-adv-x="1771" 
d="M1249 1737q-72 0 -133 45l-51 39q-39 34 -76 34q-35 0 -58.5 -28t-31.5 -72h-205q26 144 116.5 231t205.5 87q33 0 63.5 -10t42.5 -17t35 -23l45 -34q36 -27 64 -27q29 0 49 26t28 70h205q-28 -155 -105.5 -238t-193.5 -83zM780 -35q-196 0 -349.5 82t-241 236.5
t-87.5 355.5q0 126 35 251t98 233.5t153 202.5t196 161t231.5 105t255.5 38q301 0 489.5 -187t188.5 -491q0 -190 -78 -370.5t-208 -316t-310 -218t-373 -82.5zM831 252q159 0 296.5 93.5t216.5 244.5t79 317q0 194 -109 315t-290 121q-158 0 -297 -93.5t-220 -245
t-81 -318.5q0 -196 112.5 -315t292.5 -119z" />
    <glyph glyph-name="Odieresis" unicode="&#xd6;" horiz-adv-x="1771" 
d="M852 1731q-64 0 -104.5 40.5t-40.5 102.5q0 82 61.5 142.5t144.5 60.5q63 0 103.5 -40t40.5 -100q0 -79 -61.5 -142.5t-143.5 -63.5zM1319 1731q-65 0 -106.5 40.5t-41.5 102.5q0 81 62.5 142t144.5 61q64 0 105 -40t41 -100q0 -79 -61.5 -142.5t-143.5 -63.5zM780 -35
q-196 0 -349.5 82t-241 236.5t-87.5 355.5q0 126 35 251t98 233.5t153 202.5t196 161t231.5 105t255.5 38q301 0 489.5 -187t188.5 -491q0 -190 -78 -370.5t-208 -316t-310 -218t-373 -82.5zM831 252q159 0 296.5 93.5t216.5 244.5t79 317q0 194 -109 315t-290 121
q-158 0 -297 -93.5t-220 -245t-81 -318.5q0 -196 112.5 -315t292.5 -119z" />
    <glyph glyph-name="multiply" unicode="&#xd7;" horiz-adv-x="1017" 
d="M365 623l-213 260l182 157l217 -260l299 254l127 -157l-299 -254l209 -254l-185 -156l-206 256l-306 -260l-129 156z" />
    <glyph glyph-name="Oslash" unicode="&#xd8;" horiz-adv-x="1771" 
d="M1522 1661h286l-217 -252q158 -182 158 -457q0 -190 -78 -370.5t-208 -316t-310 -218t-373 -82.5q-201 0 -358 88l-103 -119h-284l221 256q-154 181 -154 449q0 126 35 251t98 233.5t153 202.5t196 161t231.5 105t255.5 38q194 0 352 -84zM426 686q0 -134 55 -233
l731 847q-82 43 -188 43q-158 0 -297 -93.5t-220 -245t-81 -318.5zM1423 907q0 137 -57 242l-733 -850q86 -47 198 -47q159 0 296.5 93.5t216.5 244.5t79 317z" />
    <glyph glyph-name="Ugrave" unicode="&#xd9;" horiz-adv-x="1525" 
d="M1126 1720h-260l-262 361h354zM655 -35q-109 0 -194.5 22.5t-141 59.5t-93.5 90.5t-55.5 110.5t-22.5 125.5t-0.5 128t16.5 125.5l170 970h305l-166 -946q-11 -59 -13.5 -110.5t8.5 -106.5t37 -93.5t78 -63.5t126 -25q299 0 376 399l166 946h303l-170 -970
q-121 -662 -729 -662z" />
    <glyph glyph-name="Uacute" unicode="&#xda;" horiz-adv-x="1525" 
d="M1460 2081l-389 -361h-260l295 361h354zM655 -35q-109 0 -194.5 22.5t-141 59.5t-93.5 90.5t-55.5 110.5t-22.5 125.5t-0.5 128t16.5 125.5l170 970h305l-166 -946q-11 -59 -13.5 -110.5t8.5 -106.5t37 -93.5t78 -63.5t126 -25q299 0 376 399l166 946h303l-170 -970
q-121 -662 -729 -662z" />
    <glyph glyph-name="Ucircumflex" unicode="&#xdb;" horiz-adv-x="1525" 
d="M807 1720h-266l352 357h278l228 -357h-266q-28 35 -42 56t-27.5 68t-14.5 108h-74q-34 -87 -73.5 -136.5t-94.5 -95.5zM655 -35q-109 0 -194.5 22.5t-141 59.5t-93.5 90.5t-55.5 110.5t-22.5 125.5t-0.5 128t16.5 125.5l170 970h305l-166 -946q-11 -59 -13.5 -110.5
t8.5 -106.5t37 -93.5t78 -63.5t126 -25q299 0 376 399l166 946h303l-170 -970q-121 -662 -729 -662z" />
    <glyph glyph-name="Udieresis" unicode="&#xdc;" horiz-adv-x="1525" 
d="M737 1731q-64 0 -104.5 40.5t-40.5 102.5q0 82 62 142.5t145 60.5q63 0 103 -40t40 -100q0 -79 -61.5 -142.5t-143.5 -63.5zM1204 1731q-65 0 -106 40.5t-41 102.5q0 81 62.5 142t144.5 61q64 0 104.5 -39.5t40.5 -100.5q0 -79 -61.5 -142.5t-143.5 -63.5zM655 -35
q-109 0 -194.5 22.5t-141 59.5t-93.5 90.5t-55.5 110.5t-22.5 125.5t-0.5 128t16.5 125.5l170 970h305l-166 -946q-11 -59 -13.5 -110.5t8.5 -106.5t37 -93.5t78 -63.5t126 -25q299 0 376 399l166 946h303l-170 -970q-121 -662 -729 -662z" />
    <glyph glyph-name="Yacute" unicode="&#xdd;" horiz-adv-x="1437" 
d="M1352 2081l-391 -361h-261l295 361h357zM770 0h-303q66 376 115 549q-161 396 -394 1048h328q59 -176 88 -266.5t69 -245.5t66 -303h37q77 147 177.5 310.5t151 239t179.5 265.5h328q-35 -49 -165.5 -232t-198 -276.5t-182.5 -249.5t-216 -288q-15 -204 -80 -551z" />
    <glyph glyph-name="Thorn" unicode="&#xde;" horiz-adv-x="1406" 
d="M373 0h-303l282 1597h303q-13 -72 -30 -130t-24.5 -76.5t-27.5 -63.5h347q33 0 66.5 -2.5t82.5 -13t91.5 -27t87 -47.5t76 -72t51.5 -104t20 -139q0 -91 -26.5 -178.5t-81.5 -167t-133.5 -139t-190 -95t-242.5 -35.5q-56 0 -97 3t-103.5 20t-117.5 49q2 -108 -3.5 -186.5
t-26.5 -192.5zM432 541l29 -19q111 66 256 66q73 0 135.5 16t111.5 47.5t77 83.5t28 119q0 48 -15 83.5t-38 55.5t-58.5 32t-68.5 15.5t-76 3.5q-52 0 -84 2t-80 13t-88 33l-39 -19q4 -143 -16.5 -262.5t-73.5 -269.5z" />
    <glyph glyph-name="germandbls" unicode="&#xdf;" horiz-adv-x="1361" 
d="M326 0h-287l180 1020q16 91 45.5 176.5t84 174t126 154t178.5 107t234 41.5q209 0 336 -106.5t127 -292.5q0 -175 -109 -296.5t-289 -133.5l-8 -51q166 -1 252 -77t86 -216q0 -100 -44.5 -190t-126 -159.5t-207.5 -110t-279 -40.5h-152l47 260h191q114 0 192 68t78 164
q0 76 -53 119.5t-140 43.5h-114l45 260h69q109 0 184 89t75 202q0 93 -55.5 147t-155.5 54q-51 0 -95.5 -16t-75.5 -40t-57 -59t-41.5 -65.5t-28 -67.5t-17.5 -57.5t-9 -42.5z" />
    <glyph glyph-name="agrave" unicode="&#xe0;" horiz-adv-x="1198" 
d="M868 1278h-250l-243 379h338zM340 -35q-66 0 -123 16.5t-103.5 50t-73 89t-26.5 127.5q0 82 34 149t95 114t137 79t169 51q221 44 271 62q76 26 92 71q5 16 5 37q0 60 -40.5 95.5t-112.5 35.5q-80 0 -148.5 -45t-109.5 -137l-254 90q55 115 148.5 190.5t195 105.5
t217.5 30q216 0 320 -104.5t69 -301.5l-74 -414q-22 -125 -26.5 -205t2.5 -151h-287q-2 24 -3.5 46t10.5 62.5t40 94.5h-37q-65 -121 -165 -179.5t-222 -58.5zM465 186q110 0 191.5 75t97.5 169l16 96q-71 -33 -235 -67q-90 -23 -145.5 -66.5t-55.5 -103.5q0 -53 36.5 -78
t94.5 -25z" />
    <glyph glyph-name="aacute" unicode="&#xe1;" horiz-adv-x="1198" 
d="M1214 1657l-376 -379h-248l287 379h337zM340 -35q-66 0 -123 16.5t-103.5 50t-73 89t-26.5 127.5q0 82 34 149t95 114t137 79t169 51q221 44 271 62q76 26 92 71q5 16 5 37q0 60 -40.5 95.5t-112.5 35.5q-80 0 -148.5 -45t-109.5 -137l-254 90q55 115 148.5 190.5
t195 105.5t217.5 30q216 0 320 -104.5t69 -301.5l-74 -414q-22 -125 -26.5 -205t2.5 -151h-287q-2 24 -3.5 46t10.5 62.5t40 94.5h-37q-65 -121 -165 -179.5t-222 -58.5zM465 186q110 0 191.5 75t97.5 169l16 96q-71 -33 -235 -67q-90 -23 -145.5 -66.5t-55.5 -103.5
q0 -53 36.5 -78t94.5 -25z" />
    <glyph glyph-name="acircumflex" unicode="&#xe2;" horiz-adv-x="1198" 
d="M561 1278h-270l360 371h291l234 -371h-271q-31 45 -46 69.5t-33.5 68.5t-26.5 93h-47q-37 -69 -81.5 -120t-109.5 -111zM340 -35q-66 0 -123 16.5t-103.5 50t-73 89t-26.5 127.5q0 82 34 149t95 114t137 79t169 51q221 44 271 62q76 26 92 71q5 16 5 37q0 60 -40.5 95.5
t-112.5 35.5q-80 0 -148.5 -45t-109.5 -137l-254 90q55 115 148.5 190.5t195 105.5t217.5 30q216 0 320 -104.5t69 -301.5l-74 -414q-22 -125 -26.5 -205t2.5 -151h-287q-2 24 -3.5 46t10.5 62.5t40 94.5h-37q-65 -121 -165 -179.5t-222 -58.5zM465 186q110 0 191.5 75
t97.5 169l16 96q-71 -33 -235 -67q-90 -23 -145.5 -66.5t-55.5 -103.5q0 -53 36.5 -78t94.5 -25z" />
    <glyph glyph-name="atilde" unicode="&#xe3;" horiz-adv-x="1198" 
d="M897 1280q-72 0 -133 45l-51 39q-40 35 -76 35q-35 0 -58.5 -28.5t-31.5 -72.5h-205q26 144 116.5 231t205.5 87q33 0 63 -9.5t43 -17t35 -22.5l45 -35q36 -27 63 -27q29 0 49.5 26.5t28.5 70.5h205q-28 -155 -105.5 -238.5t-193.5 -83.5zM340 -35q-66 0 -123 16.5
t-103.5 50t-73 89t-26.5 127.5q0 82 34 149t95 114t137 79t169 51q221 44 271 62q76 26 92 71q5 16 5 37q0 60 -40.5 95.5t-112.5 35.5q-80 0 -148.5 -45t-109.5 -137l-254 90q55 115 148.5 190.5t195 105.5t217.5 30q216 0 320 -104.5t69 -301.5l-74 -414
q-22 -125 -26.5 -205t2.5 -151h-287q-2 24 -3.5 46t10.5 62.5t40 94.5h-37q-65 -121 -165 -179.5t-222 -58.5zM465 186q110 0 191.5 75t97.5 169l16 96q-71 -33 -235 -67q-90 -23 -145.5 -66.5t-55.5 -103.5q0 -53 36.5 -78t94.5 -25z" />
    <glyph glyph-name="adieresis" unicode="&#xe4;" horiz-adv-x="1198" 
d="M522 1300q-59 0 -97 39t-38 97q0 73 59 130.5t134 57.5q60 0 98.5 -37.5t38.5 -93.5q0 -74 -59.5 -133.5t-135.5 -59.5zM956 1300q-62 0 -99.5 39t-37.5 97q0 76 58.5 132t134.5 56q59 0 97 -37.5t38 -93.5q0 -73 -58 -133t-133 -60zM340 -35q-66 0 -123 16.5t-103.5 50
t-73 89t-26.5 127.5q0 82 34 149t95 114t137 79t169 51q221 44 271 62q76 26 92 71q5 16 5 37q0 60 -40.5 95.5t-112.5 35.5q-80 0 -148.5 -45t-109.5 -137l-254 90q55 115 148.5 190.5t195 105.5t217.5 30q216 0 320 -104.5t69 -301.5l-74 -414q-22 -125 -26.5 -205
t2.5 -151h-287q-2 24 -3.5 46t10.5 62.5t40 94.5h-37q-65 -121 -165 -179.5t-222 -58.5zM465 186q110 0 191.5 75t97.5 169l16 96q-71 -33 -235 -67q-90 -23 -145.5 -66.5t-55.5 -103.5q0 -53 36.5 -78t94.5 -25z" />
    <glyph glyph-name="aring" unicode="&#xe5;" horiz-adv-x="1198" 
d="M731 1255q-98 0 -160.5 59t-62.5 150q0 113 92.5 201t216.5 88q97 0 159 -57.5t62 -149.5q0 -115 -91 -203t-216 -88zM752 1393q54 0 93.5 39.5t39.5 91.5q0 39 -25.5 64.5t-66.5 25.5q-52 0 -90.5 -39t-38.5 -92q0 -39 24 -64.5t64 -25.5zM340 -35q-66 0 -123 16.5
t-103.5 50t-73 89t-26.5 127.5q0 82 34 149t95 114t137 79t169 51q221 44 271 62q76 26 92 71q5 16 5 37q0 60 -40.5 95.5t-112.5 35.5q-80 0 -148.5 -45t-109.5 -137l-254 90q55 115 148.5 190.5t195 105.5t217.5 30q216 0 320 -104.5t69 -301.5l-74 -414
q-22 -125 -26.5 -205t2.5 -151h-287q-2 24 -3.5 46t10.5 62.5t40 94.5h-37q-65 -121 -165 -179.5t-222 -58.5zM465 186q110 0 191.5 75t97.5 169l16 96q-71 -33 -235 -67q-90 -23 -145.5 -66.5t-55.5 -103.5q0 -53 36.5 -78t94.5 -25z" />
    <glyph glyph-name="ae" unicode="&#xe6;" horiz-adv-x="1986" 
d="M352 -35q-149 0 -243.5 70.5t-94.5 212.5q0 57 17 107t43.5 86.5t66 67.5t77 51.5t83 37.5t78.5 26t70 17q30 6 83.5 16t79.5 15.5t66 15t59.5 19.5t41 25t30 34.5t8.5 44.5q0 58 -42.5 94.5t-112.5 36.5q-79 0 -146.5 -47t-109.5 -135l-254 90q54 112 147 187t196.5 107
t219.5 32q270 0 336 -187q170 187 417 187q112 0 203 -36t157.5 -111t89.5 -190t-1 -272l-12 -75h-848q-4 -122 68.5 -194.5t187.5 -72.5q89 0 172.5 47t134.5 134l252 -109q-87 -147 -246.5 -239.5t-355.5 -92.5q-160 0 -268.5 69t-143.5 216h-37q-181 -285 -469 -285z
M1100 698h545q-1 63 -20.5 109t-53 71.5t-72.5 37.5t-84 12q-103 0 -187 -63t-128 -167zM463 184q111 0 193.5 78t97.5 168l16 96q-124 -46 -213 -61q-43 -9 -79.5 -23t-70.5 -35t-53.5 -51.5t-19.5 -66.5q0 -53 35.5 -79t93.5 -26z" />
    <glyph glyph-name="ccedilla" unicode="&#xe7;" horiz-adv-x="1243" 
d="M604 240q94 0 178.5 52.5t141.5 151.5l247 -108q-86 -164 -239 -262t-338 -107q-17 -16 -145 -106l14 -17q90 58 141 58q67 0 112.5 -43.5t45.5 -120.5q0 -108 -94 -183t-234 -75q-91 0 -160.5 34t-103.5 95l111 112q56 -96 172 -96q52 0 86 26t34 66q0 30 -25 48t-65 18
q-52 0 -92 -29l-78 68l127 153q-178 30 -281.5 154t-103.5 322q0 139 53.5 271t145 232t223.5 161t279 61q187 0 315.5 -94.5t157.5 -262.5l-287 -108q-16 96 -78.5 143t-148.5 47q-148 0 -253.5 -119.5t-105.5 -277.5q0 -124 69 -194t179 -70z" />
    <glyph glyph-name="egrave" unicode="&#xe8;" horiz-adv-x="1259" 
d="M895 1278h-250l-244 379h338zM551 -35q-225 0 -361.5 130t-136.5 354q0 185 91 352t252.5 271t351.5 104q110 0 199.5 -36t155 -111t88 -190t-2.5 -272l-12 -80h-838q-3 -127 68.5 -195.5t189.5 -68.5q88 0 167.5 47.5t131.5 135.5l250 -109q-82 -144 -241 -238t-353 -94
zM389 694h533q6 119 -56.5 177.5t-165.5 58.5q-105 0 -187.5 -65.5t-123.5 -170.5z" />
    <glyph glyph-name="eacute" unicode="&#xe9;" horiz-adv-x="1259" 
d="M1241 1657l-377 -379h-248l287 379h338zM551 -35q-225 0 -361.5 130t-136.5 354q0 185 91 352t252.5 271t351.5 104q110 0 199.5 -36t155 -111t88 -190t-2.5 -272l-12 -80h-838q-3 -127 68.5 -195.5t189.5 -68.5q88 0 167.5 47.5t131.5 135.5l250 -109
q-82 -144 -241 -238t-353 -94zM389 694h533q6 119 -56.5 177.5t-165.5 58.5q-105 0 -187.5 -65.5t-123.5 -170.5z" />
    <glyph glyph-name="ecircumflex" unicode="&#xea;" horiz-adv-x="1259" 
d="M588 1278h-271l361 371h291l233 -371h-270q-32 46 -46.5 69.5t-33.5 68t-27 93.5h-47q-37 -69 -82 -120.5t-108 -110.5zM551 -35q-225 0 -361.5 130t-136.5 354q0 185 91 352t252.5 271t351.5 104q110 0 199.5 -36t155 -111t88 -190t-2.5 -272l-12 -80h-838
q-3 -127 68.5 -195.5t189.5 -68.5q88 0 167.5 47.5t131.5 135.5l250 -109q-82 -144 -241 -238t-353 -94zM389 694h533q6 119 -56.5 177.5t-165.5 58.5q-105 0 -187.5 -65.5t-123.5 -170.5z" />
    <glyph glyph-name="edieresis" unicode="&#xeb;" horiz-adv-x="1259" 
d="M549 1300q-59 0 -97 39t-38 97q0 73 58.5 130.5t133.5 57.5q60 0 98.5 -37.5t38.5 -93.5q0 -74 -59 -133.5t-135 -59.5zM983 1300q-62 0 -99.5 39t-37.5 97q0 76 58 132t134 56q59 0 97.5 -37.5t38.5 -93.5q0 -73 -58 -133t-133 -60zM551 -35q-225 0 -361.5 130
t-136.5 354q0 185 91 352t252.5 271t351.5 104q110 0 199.5 -36t155 -111t88 -190t-2.5 -272l-12 -80h-838q-3 -127 68.5 -195.5t189.5 -68.5q88 0 167.5 47.5t131.5 135.5l250 -109q-82 -144 -241 -238t-353 -94zM389 694h533q6 119 -56.5 177.5t-165.5 58.5
q-105 0 -187.5 -65.5t-123.5 -170.5z" />
    <glyph glyph-name="igrave" unicode="&#xec;" horiz-adv-x="565" 
d="M541 1262h-250l-244 378h338zM326 0h-287l203 1143h286z" />
    <glyph glyph-name="iacute" unicode="&#xed;" horiz-adv-x="565" 
d="M887 1640l-377 -378h-248l287 378h338zM326 0h-287l203 1143h286z" />
    <glyph glyph-name="icircumflex" unicode="&#xee;" horiz-adv-x="565" 
d="M233 1262h-270l361 370h290l234 -370h-270q-32 46 -46.5 69.5t-33.5 68t-27 93.5h-47q-37 -69 -81.5 -120t-109.5 -111zM326 0h-287l203 1143h286z" />
    <glyph glyph-name="idieresis" unicode="&#xef;" horiz-adv-x="565" 
d="M195 1284q-59 0 -97.5 38.5t-38.5 96.5q0 73 59 131t134 58q60 0 98.5 -37.5t38.5 -93.5q0 -74 -59 -133.5t-135 -59.5zM629 1284q-62 0 -99.5 38.5t-37.5 96.5q0 76 58 132.5t134 56.5q59 0 97 -37.5t38 -93.5q0 -73 -57.5 -133t-132.5 -60zM326 0h-287l203 1143h286z
" />
    <glyph glyph-name="eth" unicode="&#xf0;" horiz-adv-x="1345" 
d="M1235 1518l-152 -80q222 -222 222 -566q0 -139 -34 -272.5t-100.5 -248t-157.5 -201t-212.5 -136t-257.5 -49.5q-223 0 -359.5 126t-136.5 335q0 125 51.5 244.5t135.5 208t197.5 142.5t232.5 54q238 0 368 -225h37q-65 274 -252 448l-276 -145l-58 135l205 109
q-92 58 -242 116l115 224q242 -79 402 -197l208 111zM588 229q143 0 243.5 106.5t100.5 250.5q0 108 -66 172.5t-174 64.5q-141 0 -242.5 -106t-101.5 -248q0 -107 64.5 -173.5t175.5 -66.5z" />
    <glyph glyph-name="ntilde" unicode="&#xf1;" horiz-adv-x="1306" 
d="M936 1280q-72 0 -133 45l-51 39q-40 35 -76 35q-35 0 -58.5 -28.5t-31.5 -72.5h-205q26 144 116 231t205 87q71 0 142 -49l45 -35q36 -27 63 -27q29 0 49.5 26.5t28.5 70.5h205q-28 -155 -105.5 -238.5t-193.5 -83.5zM326 0h-287l203 1143h282q-1 -2 -6 -26.5t-6.5 -32
t-8 -31t-12.5 -39t-16.5 -40t-23.5 -50.5h36q158 252 402 252q82 0 147.5 -27.5t111.5 -83.5t61.5 -141.5t-3.5 -202.5l-127 -721h-286l104 594q13 57 10.5 112t-16 98.5t-53 70t-101.5 26.5q-109 0 -195 -78.5t-114 -232.5z" />
    <glyph glyph-name="ograve" unicode="&#xf2;" horiz-adv-x="1310" 
d="M918 1278h-250l-244 379h338zM549 -35q-227 0 -360.5 131.5t-133.5 354.5q0 138 53.5 269.5t145.5 232t226 162t284 61.5q227 0 360 -132.5t133 -357.5q0 -138 -53 -269t-144.5 -231t-225 -160.5t-285.5 -60.5zM600 240q148 0 252 120.5t104 284.5q0 116 -64.5 186
t-174.5 70q-102 0 -185.5 -59t-128.5 -150.5t-45 -191.5q0 -119 64.5 -189.5t177.5 -70.5z" />
    <glyph glyph-name="oacute" unicode="&#xf3;" horiz-adv-x="1310" 
d="M1262 1657l-377 -379h-248l287 379h338zM549 -35q-227 0 -360.5 131.5t-133.5 354.5q0 138 53.5 269.5t145.5 232t226 162t284 61.5q227 0 360 -132.5t133 -357.5q0 -138 -53 -269t-144.5 -231t-225 -160.5t-285.5 -60.5zM600 240q148 0 252 120.5t104 284.5
q0 116 -64.5 186t-174.5 70q-102 0 -185.5 -59t-128.5 -150.5t-45 -191.5q0 -119 64.5 -189.5t177.5 -70.5z" />
    <glyph glyph-name="ocircumflex" unicode="&#xf4;" horiz-adv-x="1310" 
d="M610 1278h-270l360 371h291l234 -371h-271q-31 45 -46 69.5t-33.5 68.5t-26.5 93h-47q-37 -69 -81.5 -120t-109.5 -111zM549 -35q-227 0 -360.5 131.5t-133.5 354.5q0 138 53.5 269.5t145.5 232t226 162t284 61.5q227 0 360 -132.5t133 -357.5q0 -138 -53 -269
t-144.5 -231t-225 -160.5t-285.5 -60.5zM600 240q148 0 252 120.5t104 284.5q0 116 -64.5 186t-174.5 70q-102 0 -185.5 -59t-128.5 -150.5t-45 -191.5q0 -119 64.5 -189.5t177.5 -70.5z" />
    <glyph glyph-name="otilde" unicode="&#xf5;" horiz-adv-x="1310" 
d="M944 1280q-72 0 -133 45l-51 39q-40 35 -76 35q-35 0 -58.5 -28.5t-31.5 -72.5h-205q26 144 116.5 231t205.5 87q33 0 63 -9.5t43 -17t35 -22.5l45 -35q36 -27 64 -27q29 0 49 26.5t28 70.5h205q-28 -155 -105.5 -238.5t-193.5 -83.5zM549 -35q-227 0 -360.5 131.5
t-133.5 354.5q0 138 53.5 269.5t145.5 232t226 162t284 61.5q227 0 360 -132.5t133 -357.5q0 -138 -53 -269t-144.5 -231t-225 -160.5t-285.5 -60.5zM600 240q148 0 252 120.5t104 284.5q0 116 -64.5 186t-174.5 70q-102 0 -185.5 -59t-128.5 -150.5t-45 -191.5
q0 -119 64.5 -189.5t177.5 -70.5z" />
    <glyph glyph-name="odieresis" unicode="&#xf6;" horiz-adv-x="1310" 
d="M569 1300q-59 0 -97 39t-38 97q0 73 59 130.5t134 57.5q60 0 98.5 -37.5t38.5 -93.5q0 -74 -59.5 -133.5t-135.5 -59.5zM1004 1300q-62 0 -100 39t-38 97q0 76 58.5 132t134.5 56q59 0 97 -37.5t38 -93.5q0 -73 -57.5 -133t-132.5 -60zM549 -35q-227 0 -360.5 131.5
t-133.5 354.5q0 138 53.5 269.5t145.5 232t226 162t284 61.5q227 0 360 -132.5t133 -357.5q0 -138 -53 -269t-144.5 -231t-225 -160.5t-285.5 -60.5zM600 240q148 0 252 120.5t104 284.5q0 116 -64.5 186t-174.5 70q-102 0 -185.5 -59t-128.5 -150.5t-45 -191.5
q0 -119 64.5 -189.5t177.5 -70.5z" />
    <glyph glyph-name="divide" unicode="&#xf7;" horiz-adv-x="1110" 
d="M608 858q-56 0 -91.5 37.5t-35.5 93.5q0 72 55.5 126t127.5 54q57 0 93 -35.5t36 -91.5q0 -70 -57 -127t-128 -57zM997 516h-901l39 221h901zM473 86q-56 0 -92.5 37t-36.5 92q0 72 55 127t127 55q57 0 94 -36.5t37 -90.5q0 -72 -56.5 -128t-127.5 -56z" />
    <glyph glyph-name="oslash" unicode="&#xf8;" horiz-adv-x="1310" 
d="M1112 1188h240l-183 -199q88 -124 88 -303q0 -138 -53 -269t-144.5 -231t-225 -160.5t-285.5 -60.5q-155 0 -264 62l-78 -84h-248l186 202q-90 126 -90 306q0 138 53.5 269.5t145.5 232t226 162t284 61.5q154 0 274 -68zM358 500q0 -53 17 -109l450 488q-49 22 -108 22
q-102 0 -185.5 -59t-128.5 -150.5t-45 -191.5zM956 645q0 55 -14 98l-444 -485q44 -18 102 -18q148 0 252 120.5t104 284.5z" />
    <glyph glyph-name="ugrave" unicode="&#xf9;" horiz-adv-x="1290" 
d="M905 1278h-250l-243 379h338zM432 -35q-193 0 -281 117.5t-49 343.5l127 717h287l-108 -619q-24 -132 15 -208t140 -76q110 0 189.5 81.5t101.5 206.5l109 615h286l-139 -787q-22 -129 -27.5 -205t0.5 -151h-284q-2 34 -2 61t12 64.5t39 87.5h-37q-69 -132 -160 -190
t-219 -58z" />
    <glyph glyph-name="uacute" unicode="&#xfa;" horiz-adv-x="1290" 
d="M1251 1657l-377 -379h-247l286 379h338zM432 -35q-193 0 -281 117.5t-49 343.5l127 717h287l-108 -619q-24 -132 15 -208t140 -76q110 0 189.5 81.5t101.5 206.5l109 615h286l-139 -787q-22 -129 -27.5 -205t0.5 -151h-284q-2 34 -2 61t12 64.5t39 87.5h-37
q-69 -132 -160 -190t-219 -58z" />
    <glyph glyph-name="ucircumflex" unicode="&#xfb;" horiz-adv-x="1290" 
d="M598 1278h-270l360 371h291l233 -371h-270q-31 45 -46 69.5t-33.5 68.5t-26.5 93h-48q-37 -69 -82 -120.5t-108 -110.5zM432 -35q-193 0 -281 117.5t-49 343.5l127 717h287l-108 -619q-24 -132 15 -208t140 -76q110 0 189.5 81.5t101.5 206.5l109 615h286l-139 -787
q-22 -129 -27.5 -205t0.5 -151h-284q-2 34 -2 61t12 64.5t39 87.5h-37q-69 -132 -160 -190t-219 -58z" />
    <glyph glyph-name="udieresis" unicode="&#xfc;" horiz-adv-x="1290" 
d="M559 1300q-59 0 -97 39t-38 97q0 73 58.5 130.5t133.5 57.5q60 0 99 -37.5t39 -93.5q0 -74 -59.5 -133.5t-135.5 -59.5zM993 1300q-62 0 -99.5 39t-37.5 97q0 76 58.5 132t134.5 56q59 0 97 -37.5t38 -93.5q0 -73 -58 -133t-133 -60zM432 -35q-193 0 -281 117.5
t-49 343.5l127 717h287l-108 -619q-24 -132 15 -208t140 -76q110 0 189.5 81.5t101.5 206.5l109 615h286l-139 -787q-22 -129 -27.5 -205t0.5 -151h-284q-2 34 -2 61t12 64.5t39 87.5h-37q-69 -132 -160 -190t-219 -58z" />
    <glyph glyph-name="yacute" unicode="&#xfd;" horiz-adv-x="1196" 
d="M1202 1657l-377 -379h-247l286 379h338zM420 -451h-307l225 402l-232 1192h316q90 -471 108 -881h35q68 169 147 339t130.5 270t142.5 272h307z" />
    <glyph glyph-name="thorn" unicode="&#xfe;" horiz-adv-x="1357" 
d="M246 -451h-287l369 2089h286q-4 -25 -21 -121.5t-26 -143t-26.5 -130t-37 -157t-42.5 -148.5h37q86 125 184 181.5t215 56.5q192 0 300 -130.5t108 -340.5q0 -142 -51.5 -277.5t-136.5 -237t-202.5 -163.5t-242.5 -62q-236 0 -310 221h-36q-1 -58 -5.5 -120t-8.5 -105.5
t-14.5 -112.5t-15.5 -96.5t-19 -106t-17 -96.5zM649 240q94 0 175.5 55.5t129 147.5t47.5 196q0 119 -63 190.5t-170 71.5q-94 0 -177 -56t-131 -147.5t-48 -193.5q0 -120 66 -192t171 -72z" />
    <glyph glyph-name="ydieresis" unicode="&#xff;" horiz-adv-x="1196" 
d="M510 1300q-59 0 -97 39t-38 97q0 73 58.5 130.5t133.5 57.5q60 0 99 -37.5t39 -93.5q0 -74 -59.5 -133.5t-135.5 -59.5zM944 1300q-62 0 -99.5 39t-37.5 97q0 76 58 132t134 56q59 0 97.5 -37.5t38.5 -93.5q0 -73 -58 -133t-133 -60zM420 -451h-307l225 402l-232 1192
h316q90 -471 108 -881h35q68 169 147 339t130.5 270t142.5 272h307z" />
    <glyph glyph-name="Amacron" unicode="&#x100;" horiz-adv-x="1570" 
d="M1370 1765h-754l39 213h754zM219 0h-317l889 1597h356l323 -1597h-323q-57 258 -51 426l-19 25q-160 -41 -321 -41q-164 0 -305 41l-31 -25q-53 -165 -201 -426zM569 680l17 -21q108 39 223 39q112 0 203 -39l20 21q-50 174 -69.5 320t-8.5 341h-71q-60 -198 -133 -348
t-181 -313z" />
    <glyph glyph-name="amacron" unicode="&#x101;" horiz-adv-x="1198" 
d="M1087 1331h-688l37 203h688zM340 -35q-66 0 -123 16.5t-103.5 50t-73 89t-26.5 127.5q0 82 34 149t95 114t137 79t169 51q221 44 271 62q76 26 92 71q5 16 5 37q0 60 -40.5 95.5t-112.5 35.5q-80 0 -148.5 -45t-109.5 -137l-254 90q55 115 148.5 190.5t195 105.5
t217.5 30q216 0 320 -104.5t69 -301.5l-74 -414q-22 -125 -26.5 -205t2.5 -151h-287q-2 24 -3.5 46t10.5 62.5t40 94.5h-37q-65 -121 -165 -179.5t-222 -58.5zM465 186q110 0 191.5 75t97.5 169l16 96q-71 -33 -235 -67q-90 -23 -145.5 -66.5t-55.5 -103.5q0 -53 36.5 -78
t94.5 -25z" />
    <glyph glyph-name="Abreve" unicode="&#x102;" horiz-adv-x="1570" 
d="M983 1716q-172 0 -266.5 104t-71.5 261h246q-8 -67 23 -114.5t104 -47.5t123.5 47t64.5 115h244q-31 -157 -162.5 -261t-304.5 -104zM219 0h-317l889 1597h356l323 -1597h-323q-57 258 -51 426l-19 25q-160 -41 -321 -41q-164 0 -305 41l-31 -25q-53 -165 -201 -426z
M569 680l17 -21q108 39 223 39q112 0 203 -39l20 21q-50 174 -69.5 320t-8.5 341h-71q-60 -198 -133 -348t-181 -313z" />
    <glyph glyph-name="abreve" unicode="&#x103;" horiz-adv-x="1198" 
d="M731 1268q-174 0 -259 109.5t-60 285.5h233q-13 -79 19.5 -134.5t107.5 -55.5q76 0 128.5 55.5t66.5 134.5h233q-38 -182 -167.5 -288.5t-301.5 -106.5zM340 -35q-66 0 -123 16.5t-103.5 50t-73 89t-26.5 127.5q0 82 34 149t95 114t137 79t169 51q221 44 271 62
q76 26 92 71q5 16 5 37q0 60 -40.5 95.5t-112.5 35.5q-80 0 -148.5 -45t-109.5 -137l-254 90q55 115 148.5 190.5t195 105.5t217.5 30q216 0 320 -104.5t69 -301.5l-74 -414q-22 -125 -26.5 -205t2.5 -151h-287q-2 24 -3.5 46t10.5 62.5t40 94.5h-37q-65 -121 -165 -179.5
t-222 -58.5zM465 186q110 0 191.5 75t97.5 169l16 96q-71 -33 -235 -67q-90 -23 -145.5 -66.5t-55.5 -103.5q0 -53 36.5 -78t94.5 -25z" />
    <glyph glyph-name="Aogonek" unicode="&#x104;" horiz-adv-x="1570" 
d="M1145 -178q0 -42 32.5 -72.5t98.5 -30.5q49 0 92 11l-33 -174q-56 -19 -137 -19q-114 0 -192 50.5t-78 144.5q0 88 61.5 158t155.5 110h2q-57 258 -51 426l-19 25q-160 -41 -321 -41q-164 0 -305 41l-31 -25q-53 -165 -201 -426h-317l889 1597h356l323 -1597h-129
q-95 -16 -145.5 -69t-50.5 -109zM1012 659l20 21q-50 174 -69.5 320t-8.5 341h-71q-60 -198 -133 -348t-181 -313l17 -21q108 39 223 39q112 0 203 -39z" />
    <glyph glyph-name="aogonek" unicode="&#x105;" horiz-adv-x="1198" 
d="M713 1176q216 0 320 -104.5t69 -301.5l-74 -414q-22 -125 -26.5 -205t2.5 -151h-97q-89 -19 -139.5 -70.5t-50.5 -107.5q0 -40 30 -66t84 -26q58 0 99 16l-35 -195q-55 -14 -119 -14q-120 0 -195 51.5t-75 147.5q0 89 62 161.5t155 102.5h-6q-2 24 -3.5 46t10.5 62.5
t40 94.5h-37q-65 -121 -165 -179.5t-222 -58.5q-66 0 -123 16.5t-103.5 50t-73 89t-26.5 127.5q0 82 34 149t95 114t137 79t169 51q221 44 271 62q76 26 92 71q5 16 5 37q0 60 -40.5 95.5t-112.5 35.5q-80 0 -148.5 -45t-109.5 -137l-254 90q55 115 148.5 190.5t195 105.5
t217.5 30zM754 430l16 96q-71 -33 -235 -67q-90 -23 -145.5 -66.5t-55.5 -103.5q0 -53 36.5 -78t94.5 -25q110 0 191.5 75t97.5 169z" />
    <glyph glyph-name="Cacute" unicode="&#x106;" horiz-adv-x="1697" 
d="M1608 2081l-389 -361h-261l295 361h355zM801 -35q-209 0 -366.5 80.5t-244 233.5t-86.5 360q0 194 76 375.5t205 317t310 217t380 81.5q260 0 432.5 -135.5t214.5 -366.5l-301 -112q-36 149 -136 238t-261 89q-102 0 -195.5 -37t-165.5 -102t-126 -149.5t-82.5 -182
t-28.5 -196.5q0 -90 24.5 -163t65.5 -121t97 -80t116 -46t125 -14q183 0 326 105t229 280l266 -96q-145 -287 -374 -431.5t-500 -144.5z" />
    <glyph glyph-name="cacute" unicode="&#x107;" horiz-adv-x="1243" 
d="M1221 1657l-377 -379h-248l287 379h338zM553 -35q-225 0 -361.5 129t-136.5 357q0 139 53.5 271t145 232t223.5 161t279 61q187 0 315.5 -94.5t157.5 -262.5l-287 -108q-16 96 -78.5 143t-148.5 47q-148 0 -253.5 -119.5t-105.5 -277.5q0 -124 69 -194t179 -70
q94 0 178.5 52.5t141.5 151.5l247 -108q-91 -173 -256 -272t-362 -99z" />
    <glyph glyph-name="Cdotaccent" unicode="&#x10a;" horiz-adv-x="1697" 
d="M1087 1755q-66 0 -107.5 41.5t-41.5 106.5q0 82 64 144t149 62q65 0 106 -40.5t41 -104.5q0 -82 -63.5 -145.5t-147.5 -63.5zM801 -35q-209 0 -366.5 80.5t-244 233.5t-86.5 360q0 194 76 375.5t205 317t310 217t380 81.5q260 0 432.5 -135.5t214.5 -366.5l-301 -112
q-36 149 -136 238t-261 89q-102 0 -195.5 -37t-165.5 -102t-126 -149.5t-82.5 -182t-28.5 -196.5q0 -90 24.5 -163t65.5 -121t97 -80t116 -46t125 -14q183 0 326 105t229 280l266 -96q-145 -287 -374 -431.5t-500 -144.5z" />
    <glyph glyph-name="cdotaccent" unicode="&#x10b;" horiz-adv-x="1243" 
d="M745 1315q-65 0 -106 42t-41 107q0 82 63.5 144.5t147.5 62.5q66 0 107.5 -41t41.5 -104q0 -82 -64.5 -146.5t-148.5 -64.5zM553 -35q-225 0 -361.5 129t-136.5 357q0 139 53.5 271t145 232t223.5 161t279 61q187 0 315.5 -94.5t157.5 -262.5l-287 -108q-16 96 -78.5 143
t-148.5 47q-148 0 -253.5 -119.5t-105.5 -277.5q0 -124 69 -194t179 -70q94 0 178.5 52.5t141.5 151.5l247 -108q-91 -173 -256 -272t-362 -99z" />
    <glyph glyph-name="Ccaron" unicode="&#x10c;" horiz-adv-x="1697" 
d="M1227 1720h-289l-223 357h266q28 -35 42 -56t28 -68t16 -108h74q33 87 72 136t96 96h266zM801 -35q-209 0 -366.5 80.5t-244 233.5t-86.5 360q0 194 76 375.5t205 317t310 217t380 81.5q260 0 432.5 -135.5t214.5 -366.5l-301 -112q-36 149 -136 238t-261 89
q-102 0 -195.5 -37t-165.5 -102t-126 -149.5t-82.5 -182t-28.5 -196.5q0 -90 24.5 -163t65.5 -121t97 -80t116 -46t125 -14q183 0 326 105t229 280l266 -96q-145 -287 -374 -431.5t-500 -144.5z" />
    <glyph glyph-name="ccaron" unicode="&#x10d;" horiz-adv-x="1243" 
d="M887 1294h-293l-227 387h270q6 -11 24 -43t26 -48t21 -44t21 -55t14 -57h45q19 37 45 73t42 55.5t54.5 61.5t51.5 57h270zM553 -35q-225 0 -361.5 129t-136.5 357q0 139 53.5 271t145 232t223.5 161t279 61q187 0 315.5 -94.5t157.5 -262.5l-287 -108q-16 96 -78.5 143
t-148.5 47q-148 0 -253.5 -119.5t-105.5 -277.5q0 -124 69 -194t179 -70q94 0 178.5 52.5t141.5 151.5l247 -108q-91 -173 -256 -272t-362 -99z" />
    <glyph glyph-name="Dcaron" unicode="&#x10e;" horiz-adv-x="1628" 
d="M1108 1720h-289l-223 357h266q28 -35 42 -56t28 -68t16 -108h74q33 87 72 136t96 96h266zM705 0h-635l282 1597h617q165 0 288 -44t198.5 -126.5t112 -193t36.5 -250.5q0 -150 -41 -294.5t-120 -268.5t-186.5 -218.5t-250 -148t-301.5 -53.5zM381 268l29 -35
q97 31 143 39.5t98 8.5q157 0 278.5 48t197 133.5t113.5 197t38 243.5q0 106 -25.5 183.5t-63.5 121t-95.5 69t-108.5 33t-115 7.5q-106 0 -153.5 7t-108.5 40l-39 -21q0 -562 -188 -1075z" />
    <glyph glyph-name="dcaron" unicode="&#x10f;" horiz-adv-x="1361" 
d="M1561 1094h-168q53 69 76.5 99t79 87.5t114.5 101.5q-139 34 -139 136q0 82 65.5 145t151.5 63q66 0 108.5 -42t42.5 -105q0 -60 -47 -129.5t-213 -269.5q-46 -55 -71 -86zM477 -35q-199 0 -310.5 127t-111.5 342q0 191 83.5 361.5t230.5 275.5t319 105q255 0 303 -261
h37q18 306 94 723h287l-225 -1282q-23 -132 -28 -210.5t1 -145.5h-285q-2 53 3.5 93t25.5 100h-35q-47 -83 -114 -136t-133.5 -72.5t-141.5 -19.5zM592 240q95 0 177.5 56t130.5 148.5t48 196.5q0 120 -64.5 191t-172.5 71q-95 0 -177 -55.5t-129 -147.5t-47 -196
q0 -120 63 -192t171 -72z" />
    <glyph glyph-name="Dcroat" unicode="&#x110;" horiz-adv-x="1628" 
d="M352 1597h617q165 0 288 -44t198.5 -126.5t112 -193t36.5 -250.5q0 -150 -41 -294.5t-120 -268.5t-186.5 -218.5t-250 -148t-301.5 -53.5h-635l118 676h-208l43 244h208zM651 281q157 0 278.5 48t197 133.5t113.5 197t38 243.5q0 106 -25.5 183.5t-63.5 121t-95.5 69
t-108.5 33t-115 7.5q-106 0 -153.5 7t-108.5 40l-39 -21q0 -226 -28 -423h333l-43 -244h-331q-48 -213 -119 -408l29 -35q97 31 143 39.5t98 8.5z" />
    <glyph glyph-name="dcroat" unicode="&#x111;" horiz-adv-x="1361" 
d="M1380 1481h265l-39 -215h-263l-159 -910q-23 -132 -28 -210.5t1 -145.5h-285q-2 53 3.5 93t25.5 100h-35q-47 -83 -114 -136t-133.5 -72.5t-141.5 -19.5q-199 0 -310.5 127t-111.5 342q0 191 83.5 361.5t230.5 275.5t319 105q255 0 303 -261h37q8 138 33 351h-266l39 215
h260l28 157h287zM592 240q95 0 177.5 56t130.5 148.5t48 196.5q0 120 -64.5 191t-172.5 71q-95 0 -177 -55.5t-129 -147.5t-47 -196q0 -120 63 -192t171 -72z" />
    <glyph glyph-name="Emacron" unicode="&#x112;" horiz-adv-x="1327" 
d="M1278 1765h-754l39 213h754zM1135 0h-1065l282 1597h1045l-51 -280q-166 0 -243.5 1t-222.5 12t-272 34l-39 -21q10 -108 -5.5 -207t-61.5 -223l18 -20q131 31 271 46t220 17t230 2l-53 -294q-150 0 -229.5 2t-212.5 18t-250 49l-29 -20q0 -135 -19.5 -237.5
t-66.5 -207.5l29 -35q138 23 285 34.5t240.5 13.5t248.5 2z" />
    <glyph glyph-name="emacron" unicode="&#x113;" horiz-adv-x="1259" 
d="M1114 1331h-688l37 203h688zM551 -35q-225 0 -361.5 130t-136.5 354q0 185 91 352t252.5 271t351.5 104q110 0 199.5 -36t155 -111t88 -190t-2.5 -272l-12 -80h-838q-3 -127 68.5 -195.5t189.5 -68.5q88 0 167.5 47.5t131.5 135.5l250 -109q-82 -144 -241 -238t-353 -94z
M389 694h533q6 119 -56.5 177.5t-165.5 58.5q-105 0 -187.5 -65.5t-123.5 -170.5z" />
    <glyph glyph-name="Edotaccent" unicode="&#x116;" horiz-adv-x="1327" 
d="M901 1755q-66 0 -107.5 41.5t-41.5 106.5q0 82 64 144t149 62q65 0 106 -40.5t41 -104.5q0 -82 -63.5 -145.5t-147.5 -63.5zM1135 0h-1065l282 1597h1045l-51 -280q-166 0 -243.5 1t-222.5 12t-272 34l-39 -21q10 -108 -5.5 -207t-61.5 -223l18 -20q131 31 271 46t220 17
t230 2l-53 -294q-150 0 -229.5 2t-212.5 18t-250 49l-29 -20q0 -135 -19.5 -237.5t-66.5 -207.5l29 -35q138 23 285 34.5t240.5 13.5t248.5 2z" />
    <glyph glyph-name="edotaccent" unicode="&#x117;" horiz-adv-x="1259" 
d="M766 1315q-66 0 -107 42t-41 107q0 82 63.5 144.5t147.5 62.5q66 0 108 -41t42 -104q0 -82 -64.5 -146.5t-148.5 -64.5zM551 -35q-225 0 -361.5 130t-136.5 354q0 185 91 352t252.5 271t351.5 104q110 0 199.5 -36t155 -111t88 -190t-2.5 -272l-12 -80h-838
q-3 -127 68.5 -195.5t189.5 -68.5q88 0 167.5 47.5t131.5 135.5l250 -109q-82 -144 -241 -238t-353 -94zM389 694h533q6 119 -56.5 177.5t-165.5 58.5q-105 0 -187.5 -65.5t-123.5 -170.5z" />
    <glyph glyph-name="Eogonek" unicode="&#x118;" horiz-adv-x="1327" 
d="M70 0l282 1597h1045l-51 -280q-166 0 -243.5 1t-222.5 12t-272 34l-39 -21q10 -108 -5.5 -207t-61.5 -223l18 -20q131 31 271 46t220 17t230 2l-53 -294q-150 0 -229.5 2t-212.5 18t-250 49l-29 -20q0 -135 -19.5 -237.5t-66.5 -207.5l29 -35q138 23 285 34.5t240.5 13.5
t248.5 2l-49 -283q-95 -16 -146 -69t-51 -109q0 -42 32.5 -72.5t98.5 -30.5q49 0 92 11l-33 -174q-56 -19 -137 -19q-114 0 -192 50.5t-78 144.5q0 88 61.5 158t155.5 110h-868z" />
    <glyph glyph-name="eogonek" unicode="&#x119;" horiz-adv-x="1259" 
d="M748 1176q110 0 199.5 -36t155 -111t88 -190t-2.5 -272l-12 -80h-838q-3 -127 68.5 -195.5t189.5 -68.5q88 0 167.5 47.5t131.5 135.5l250 -109q-64 -111 -176 -195t-254 -118q-65 -25 -101 -70t-36 -92q0 -40 30 -66t84 -26q58 0 99 16l-35 -195q-55 -14 -119 -14
q-120 0 -195 51.5t-75 147.5q0 69 39.5 130t103.5 101q-208 11 -332.5 140t-124.5 342q0 185 91 352t252.5 271t351.5 104zM389 694h533q6 119 -56.5 177.5t-165.5 58.5q-105 0 -187.5 -65.5t-123.5 -170.5z" />
    <glyph glyph-name="Ecaron" unicode="&#x11a;" horiz-adv-x="1327" 
d="M1038 1720h-288l-224 357h267q28 -35 42 -56t28 -68t16 -108h73q33 87 72 136t96 96h266zM1135 0h-1065l282 1597h1045l-51 -280q-166 0 -243.5 1t-222.5 12t-272 34l-39 -21q10 -108 -5.5 -207t-61.5 -223l18 -20q131 31 271 46t220 17t230 2l-53 -294q-150 0 -229.5 2
t-212.5 18t-250 49l-29 -20q0 -135 -19.5 -237.5t-66.5 -207.5l29 -35q138 23 285 34.5t240.5 13.5t248.5 2z" />
    <glyph glyph-name="ecaron" unicode="&#x11b;" horiz-adv-x="1259" 
d="M909 1294h-293l-227 387h270q7 -13 24.5 -43.5t26 -47.5t21 -44.5t21 -54.5t14.5 -57h45q19 37 45 73t42 55.5t54.5 61.5t51.5 57h270zM551 -35q-225 0 -361.5 130t-136.5 354q0 185 91 352t252.5 271t351.5 104q110 0 199.5 -36t155 -111t88 -190t-2.5 -272l-12 -80
h-838q-3 -127 68.5 -195.5t189.5 -68.5q88 0 167.5 47.5t131.5 135.5l250 -109q-82 -144 -241 -238t-353 -94zM389 694h533q6 119 -56.5 177.5t-165.5 58.5q-105 0 -187.5 -65.5t-123.5 -170.5z" />
    <glyph glyph-name="Gbreve" unicode="&#x11e;" horiz-adv-x="1775" 
d="M1083 1716q-172 0 -266.5 104t-71.5 261h246q-8 -67 23 -114.5t104 -47.5t124 47t65 115h243q-31 -157 -162.5 -261t-304.5 -104zM760 -35q-297 0 -476.5 179t-179.5 487q0 194 75.5 376.5t204 319.5t310 220t381.5 83q263 0 436.5 -137.5t212.5 -364.5l-301 -112
q-38 150 -136 238.5t-259 88.5q-127 0 -240.5 -57.5t-191.5 -151t-124 -213.5t-46 -245q0 -94 27 -169t70.5 -121.5t102.5 -77.5t118.5 -43.5t123.5 -12.5q333 0 602 371l-26 34q-92 -35 -195.5 -53.5t-162.5 -21t-150 -2.5l43 247h725l-145 -827h-234q1 11 5 45.5t7 52.5
t9.5 50t19 64t29.5 67l-45 16q-114 -171 -259 -250.5t-331 -79.5z" />
    <glyph glyph-name="gbreve" unicode="&#x11f;" horiz-adv-x="1361" 
d="M801 1268q-174 0 -259.5 109.5t-60.5 285.5h234q-13 -79 19.5 -134.5t107.5 -55.5t127.5 55.5t66.5 134.5h234q-38 -182 -167.5 -288.5t-301.5 -106.5zM465 -483q-66 0 -124.5 8.5t-118.5 31.5t-106.5 58.5t-82.5 94t-51 134.5l276 95q24 -93 84.5 -136t161.5 -43
q278 0 346 316q8 41 12 58t16.5 47.5t30.5 58.5h-35q-141 -234 -380 -234q-202 0 -318.5 122t-116.5 335q0 184 85 348.5t231 264.5t313 100q131 0 206.5 -67t88.5 -194h37q2 112 20 228h283l-180 -1028q-24 -135 -73.5 -239.5t-114 -171t-147 -109.5t-166 -60.5
t-177.5 -17.5zM602 281q140 0 245 113t105 259q0 113 -67 181.5t-174 68.5q-94 0 -174.5 -53.5t-126 -139.5t-45.5 -180q0 -112 65.5 -180.5t171.5 -68.5z" />
    <glyph glyph-name="Gdotaccent" unicode="&#x120;" horiz-adv-x="1775" 
d="M1090 1755q-66 0 -108 41.5t-42 106.5q0 82 64 144t149 62q65 0 106 -40.5t41 -104.5q0 -82 -63 -145.5t-147 -63.5zM760 -35q-297 0 -476.5 179t-179.5 487q0 194 75.5 376.5t204 319.5t310 220t381.5 83q263 0 436.5 -137.5t212.5 -364.5l-301 -112q-38 150 -136 238.5
t-259 88.5q-127 0 -240.5 -57.5t-191.5 -151t-124 -213.5t-46 -245q0 -94 27 -169t70.5 -121.5t102.5 -77.5t118.5 -43.5t123.5 -12.5q333 0 602 371l-26 34q-92 -35 -195.5 -53.5t-162.5 -21t-150 -2.5l43 247h725l-145 -827h-234q1 11 5 45.5t7 52.5t9.5 50t19 64t29.5 67
l-45 16q-114 -171 -259 -250.5t-331 -79.5z" />
    <glyph glyph-name="gdotaccent" unicode="&#x121;" horiz-adv-x="1361" 
d="M811 1315q-65 0 -106 42t-41 107q0 82 63 144.5t147 62.5q66 0 108 -41t42 -104q0 -82 -64.5 -146.5t-148.5 -64.5zM465 -483q-66 0 -124.5 8.5t-118.5 31.5t-106.5 58.5t-82.5 94t-51 134.5l276 95q24 -93 84.5 -136t161.5 -43q278 0 346 316q8 41 12 58t16.5 47.5
t30.5 58.5h-35q-141 -234 -380 -234q-202 0 -318.5 122t-116.5 335q0 184 85 348.5t231 264.5t313 100q131 0 206.5 -67t88.5 -194h37q2 112 20 228h283l-180 -1028q-24 -135 -73.5 -239.5t-114 -171t-147 -109.5t-166 -60.5t-177.5 -17.5zM602 281q140 0 245 113t105 259
q0 113 -67 181.5t-174 68.5q-94 0 -174.5 -53.5t-126 -139.5t-45.5 -180q0 -112 65.5 -180.5t171.5 -68.5z" />
    <glyph glyph-name="uni0122" unicode="&#x122;" horiz-adv-x="1775" 
d="M760 -35q-297 0 -476.5 179t-179.5 487q0 194 75.5 376.5t204 319.5t310 220t381.5 83q263 0 436.5 -137.5t212.5 -364.5l-301 -112q-38 150 -136 238.5t-259 88.5q-127 0 -240.5 -57.5t-191.5 -151t-124 -213.5t-46 -245q0 -94 27 -169t70.5 -121.5t102.5 -77.5
t118.5 -43.5t123.5 -12.5q333 0 602 371l-26 34q-92 -35 -195.5 -53.5t-162.5 -21t-150 -2.5l43 247h725l-145 -827h-234q1 11 5 45.5t7 52.5t9.5 50t19 64t29.5 67l-45 16q-114 -171 -259 -250.5t-331 -79.5zM662 -649h-154q52 74 103 130t126 109q-60 0 -95.5 33.5
t-35.5 87.5q0 73 57 126.5t132 53.5q60 0 95.5 -35.5t35.5 -95.5q0 -16 -3.5 -31t-8 -29t-17.5 -35t-24 -38t-36 -50t-45 -58.5t-59 -76t-71 -91.5z" />
    <glyph glyph-name="uni0123" unicode="&#x123;" horiz-adv-x="1361" 
d="M664 1407q0 14 2 26.5t8 27.5t12 28t20.5 34.5t26.5 39t36.5 49.5t44.5 58.5t56 73.5t66 87h160q-108 -150 -224 -287q54 4 82.5 -23t28.5 -75q0 -72 -52.5 -121t-129.5 -49q-63 0 -100 35.5t-37 95.5zM465 -483q-66 0 -124.5 8.5t-118.5 31.5t-106.5 58.5t-82.5 94
t-51 134.5l276 95q24 -93 84.5 -136t161.5 -43q278 0 346 316q8 41 12 58t16.5 47.5t30.5 58.5h-35q-141 -234 -380 -234q-202 0 -318.5 122t-116.5 335q0 184 85 348.5t231 264.5t313 100q131 0 206.5 -67t88.5 -194h37q2 112 20 228h283l-180 -1028q-24 -135 -73.5 -239.5
t-114 -171t-147 -109.5t-166 -60.5t-177.5 -17.5zM602 281q140 0 245 113t105 259q0 113 -67 181.5t-174 68.5q-94 0 -174.5 -53.5t-126 -139.5t-45.5 -180q0 -112 65.5 -180.5t171.5 -68.5z" />
    <glyph glyph-name="Hbar" unicode="&#x126;" horiz-adv-x="1660" 
d="M1630 1346h152l-41 -236h-152l-196 -1110h-306q69 394 154 674l-35 20q-187 -51 -355.5 -50.5t-352.5 50.5l-39 -20q-6 -123 -20.5 -250.5t-27 -202t-38.5 -221.5h-303l196 1110h-151l41 236h151l45 251h303q-34 -183 -47 -251h719l43 251h305zM1245 889l37 22
q8 133 16 199h-743q-13 -61 -53 -199l28 -22q202 48 370.5 48.5t344.5 -48.5z" />
    <glyph glyph-name="hbar" unicode="&#x127;" horiz-adv-x="1306" 
d="M889 1176q80 0 145.5 -27.5t112 -83.5t62.5 -141.5t-3 -202.5l-127 -721h-286l104 594q13 57 10.5 112t-16 98.5t-53 70t-101.5 26.5q-108 0 -194.5 -78.5t-114.5 -232.5l-102 -590h-287l221 1260h-221l39 215h221l29 163h286l-30 -163h305l-39 -215h-309
q-45 -196 -90 -336h36q158 252 402 252z" />
    <glyph glyph-name="Imacron" unicode="&#x12a;" horiz-adv-x="641" 
d="M905 1765h-753l38 213h754zM373 0h-303l282 1597h303z" />
    <glyph glyph-name="imacron" unicode="&#x12b;" horiz-adv-x="565" 
d="M758 1315h-688l36 203h689zM326 0h-287l203 1143h286z" />
    <glyph glyph-name="Iogonek" unicode="&#x12e;" horiz-adv-x="641" 
d="M180 -178q0 -42 32.5 -72.5t98.5 -30.5q49 0 92 11l-32 -174q-56 -19 -138 -19q-114 0 -192 50.5t-78 144.5q0 88 61.5 158t155.5 110h-110l282 1597h303l-282 -1597h4q-95 -16 -146 -69t-51 -109z" />
    <glyph glyph-name="iogonek" unicode="&#x12f;" horiz-adv-x="565" 
d="M475 1655q66 0 108 -41.5t42 -104.5q0 -82 -64.5 -146.5t-148.5 -64.5q-65 0 -106.5 42.5t-41.5 107.5q0 82 63.5 144.5t147.5 62.5zM109 0h-70l203 1143h286l-202 -1143h-33q-89 -19 -140 -70.5t-51 -107.5q0 -40 30.5 -66t84.5 -26q57 0 98 16l-34 -195
q-55 -14 -119 -14q-121 0 -196 51.5t-75 147.5q0 89 62.5 161.5t155.5 102.5z" />
    <glyph glyph-name="Idotaccent" unicode="&#x130;" horiz-adv-x="641" 
d="M524 1755q-66 0 -107.5 41.5t-41.5 106.5q0 82 64 144t149 62q66 0 106.5 -40.5t40.5 -104.5q0 -82 -63.5 -145.5t-147.5 -63.5zM373 0h-303l282 1597h303z" />
    <glyph glyph-name="dotlessi" unicode="&#x131;" horiz-adv-x="565" 
d="M326 0h-287l203 1143h286z" />
    <glyph glyph-name="uni0136" unicode="&#x136;" horiz-adv-x="1462" 
d="M373 0h-303l282 1597h303q-3 -16 -20.5 -114.5t-23 -127t-24 -113.5t-33.5 -135.5t-40 -126.5t-55 -149h35q408 412 794 766h359q-31 -28 -136.5 -126t-158 -146.5t-144 -131t-174.5 -155t-168 -145.5l-4 -39q100 -126 202 -285t164.5 -268.5t166.5 -300.5h-371
q-11 20 -50 91t-53.5 98.5t-47.5 89.5t-52 100t-46 92.5t-49.5 103.5t-43.5 99h-27q-69 -67 -115 -105t-98 -65q-12 -181 -69 -504zM543 -649h-154q52 74 103 130t126 109q-60 0 -95.5 33.5t-35.5 87.5q0 73 57 126.5t132 53.5q60 0 95.5 -35.5t35.5 -95.5q0 -16 -3.5 -31
t-8 -29t-17.5 -35t-24 -38t-36 -50t-45 -58.5t-59 -76t-71 -91.5z" />
    <glyph glyph-name="uni0137" unicode="&#x137;" horiz-adv-x="1171" 
d="M328 0h-289l289 1638h288q-4 -22 -20.5 -117.5t-22 -124t-21 -112.5t-23.5 -123.5t-23.5 -114t-28 -126.5t-29 -118.5t-34.5 -129.5h37q119 135 215 231t252 240h342l-541 -467q37 -54 76 -116t65.5 -106t68.5 -119.5t58.5 -105.5t64.5 -120t58 -109h-338q-6 11 -24 48
t-24 49t-22 45.5t-23.5 48.5t-22 46t-23 50.5t-21.5 50t-23.5 55.5t-23 56t-24.5 63q-79 -108 -168 -180q-10 -136 -45 -332zM369 -649h-154q52 74 103 130t126 109q-60 0 -95.5 33.5t-35.5 87.5q0 73 57 126.5t132 53.5q60 0 95.5 -35.5t35.5 -95.5q0 -16 -3.5 -31t-8 -29
t-17.5 -35t-24 -38t-36 -50t-45 -58.5t-59 -76t-71 -91.5z" />
    <glyph glyph-name="Lacute" unicode="&#x139;" horiz-adv-x="1196" 
d="M1092 2081l-390 -361h-260l295 361h355zM1075 0h-1005l282 1597h303q-52 -297 -80.5 -450.5t-83 -409t-110.5 -469.5l29 -35q125 23 261 34.5t223 13.5t230 2z" />
    <glyph glyph-name="lacute" unicode="&#x13a;" horiz-adv-x="565" 
d="M1030 2122l-389 -361h-260l295 361h354zM326 0h-287l289 1638h286z" />
    <glyph glyph-name="uni013B" unicode="&#x13b;" horiz-adv-x="1196" 
d="M1075 0h-1005l282 1597h303q-52 -297 -80.5 -450.5t-83 -409t-110.5 -469.5l29 -35q125 23 261 34.5t223 13.5t230 2zM399 -649h-153q52 74 103 130t126 109q-60 0 -95.5 33.5t-35.5 87.5q0 73 56.5 126.5t131.5 53.5q60 0 96 -35.5t36 -95.5q0 -18 -3 -33.5t-14 -37.5
t-21 -38.5t-36 -51.5t-46.5 -61.5t-65 -83.5t-79.5 -103z" />
    <glyph glyph-name="uni013C" unicode="&#x13c;" horiz-adv-x="565" 
d="M326 0h-287l289 1638h286zM41 -649h-154q105 150 230 239q-60 0 -95.5 33.5t-35.5 87.5q0 73 56.5 126.5t131.5 53.5q60 0 95.5 -35.5t35.5 -95.5q0 -16 -3.5 -31t-8 -29t-17.5 -35t-24 -38t-36 -50t-45 -58.5t-59 -76t-71 -91.5z" />
    <glyph glyph-name="Lcaron" unicode="&#x13d;" horiz-adv-x="1196" 
d="M950 1030h-166q52 69 76.5 99.5t80 88t114.5 101.5q-140 34 -140 135q0 82 66 145.5t152 63.5q65 0 107 -41.5t42 -105.5q0 -61 -50.5 -134.5t-226.5 -285.5q-12 -14 -18.5 -22t-17 -20.5t-19.5 -23.5zM1075 0h-1005l282 1597h303q-52 -297 -80.5 -450.5t-83 -409
t-110.5 -469.5l29 -35q125 23 261 34.5t223 13.5t230 2z" />
    <glyph glyph-name="lcaron" unicode="&#x13e;" horiz-adv-x="565" 
d="M784 1030h-166q45 60 74.5 97t83.5 92t113 100q-141 34 -141 135q0 82 66 145.5t151 63.5q66 0 108.5 -42t42.5 -105q0 -32 -10.5 -61.5t-46.5 -81.5t-75.5 -101t-127.5 -155q-46 -56 -72 -87zM326 0h-287l289 1638h286z" />
    <glyph glyph-name="Lslash" unicode="&#x141;" horiz-adv-x="1196" 
d="M381 268l29 -35q125 23 261 34.5t223 13.5t230 2l-49 -283h-1005l123 696l-179 -78l45 256l179 78l114 645h303q-51 -290 -92 -503l223 96l-45 -258l-229 -98q-60 -301 -131 -566z" />
    <glyph glyph-name="lslash" unicode="&#x142;" horiz-adv-x="565" 
d="M528 1149l193 123l-45 -248l-191 -121l-159 -903h-287l123 696l-197 -125l43 248l197 125l123 694h286z" />
    <glyph glyph-name="Nacute" unicode="&#x143;" horiz-adv-x="1671" 
d="M1544 2081l-389 -361h-260l295 361h354zM373 0h-303l282 1597h279q177 -296 306 -564t239 -595h36q19 209 50 434.5t53 353.5t65 371h303l-282 -1597h-279q-127 210 -204.5 348.5t-176 350.5t-170.5 427h-36q-19 -208 -48.5 -424.5t-51.5 -346.5t-62 -355z" />
    <glyph glyph-name="nacute" unicode="&#x144;" horiz-adv-x="1306" 
d="M1253 1657l-376 -379h-248l286 379h338zM326 0h-287l203 1143h282q-1 -2 -6 -26.5t-6.5 -32t-8 -31t-12.5 -39t-16.5 -40t-23.5 -50.5h36q158 252 402 252q82 0 147.5 -27.5t111.5 -83.5t61.5 -141.5t-3.5 -202.5l-127 -721h-286l104 594q13 57 10.5 112t-16 98.5t-53 70
t-101.5 26.5q-109 0 -195 -78.5t-114 -232.5z" />
    <glyph glyph-name="uni0145" unicode="&#x145;" horiz-adv-x="1671" 
d="M373 0h-303l282 1597h279q177 -296 306 -564t239 -595h36q19 209 50 434.5t53 353.5t65 371h303l-282 -1597h-279q-127 210 -204.5 348.5t-176 350.5t-170.5 427h-36q-19 -208 -48.5 -424.5t-51.5 -346.5t-62 -355zM618 -649h-153q52 74 103 130t126 109
q-60 0 -95.5 33.5t-35.5 87.5q0 73 57 126.5t132 53.5q60 0 95.5 -35.5t35.5 -95.5q0 -18 -3 -33.5t-14 -37.5t-21 -38.5t-36 -51.5t-46.5 -61.5t-65 -83.5t-79.5 -103z" />
    <glyph glyph-name="uni0146" unicode="&#x146;" horiz-adv-x="1306" 
d="M326 0h-287l203 1143h282q-1 -2 -6 -26.5t-6.5 -32t-8 -31t-12.5 -39t-16.5 -40t-23.5 -50.5h36q158 252 402 252q82 0 147.5 -27.5t111.5 -83.5t61.5 -141.5t-3.5 -202.5l-127 -721h-286l104 594q13 57 10.5 112t-16 98.5t-53 70t-101.5 26.5q-109 0 -195 -78.5
t-114 -232.5zM471 -649h-154q105 150 230 239q-60 0 -95.5 33.5t-35.5 87.5q0 73 56.5 126.5t131.5 53.5q60 0 95.5 -35.5t35.5 -95.5q0 -16 -3.5 -31t-8 -29t-17.5 -35t-24 -38t-36 -50t-45 -58.5t-59 -76t-71 -91.5z" />
    <glyph glyph-name="Ncaron" unicode="&#x147;" horiz-adv-x="1671" 
d="M1163 1720h-289l-223 357h267q28 -35 42 -56t28 -68t16 -108h73q33 87 72 136t96 96h266zM373 0h-303l282 1597h279q177 -296 306 -564t239 -595h36q19 209 50 434.5t53 353.5t65 371h303l-282 -1597h-279q-127 210 -204.5 348.5t-176 350.5t-170.5 427h-36
q-19 -208 -48.5 -424.5t-51.5 -346.5t-62 -355z" />
    <glyph glyph-name="ncaron" unicode="&#x148;" horiz-adv-x="1306" 
d="M922 1294h-293l-228 387h271q6 -11 24 -43t26 -48t21 -44t21 -55t14 -57h45q19 37 45 73t42 55.5t54.5 61.5t51.5 57h270zM326 0h-287l203 1143h282q-1 -2 -6 -26.5t-6.5 -32t-8 -31t-12.5 -39t-16.5 -40t-23.5 -50.5h36q158 252 402 252q82 0 147.5 -27.5t111.5 -83.5
t61.5 -141.5t-3.5 -202.5l-127 -721h-286l104 594q13 57 10.5 112t-16 98.5t-53 70t-101.5 26.5q-109 0 -195 -78.5t-114 -232.5z" />
    <glyph glyph-name="Eng" unicode="&#x14a;" horiz-adv-x="1671" 
d="M827 -483q-82 0 -174 14t-135 29l45 250q26 -14 88.5 -24.5t136.5 -10.5q130 0 202.5 59t105.5 207q-180 302 -302.5 539t-228.5 514h-37q-16 -194 -43.5 -400.5t-50 -341.5t-61.5 -352h-303l282 1597h279q170 -283 302.5 -549.5t248.5 -578.5h37q16 195 45 410.5t52 350
t64 367.5h303l-278 -1579q-13 -71 -33.5 -133t-64.5 -132.5t-104.5 -120t-157.5 -82.5t-218 -33z" />
    <glyph glyph-name="eng" unicode="&#x14b;" horiz-adv-x="1306" 
d="M618 -483q-126 0 -221 43l43 247q78 -34 162 -34q43 0 75.5 14t50 31t31.5 50t18 51t11 54l109 621q55 307 -160 307q-108 0 -194.5 -78.5t-114.5 -232.5l-102 -590h-287l203 1143h282q-1 -2 -6 -26.5t-6.5 -32t-8 -31t-12.5 -39t-16.5 -40t-23.5 -50.5h36
q158 252 402 252q81 0 146.5 -27.5t112 -83.5t62 -141t-3.5 -201l-129 -737q-7 -42 -12 -68t-16 -69.5t-22.5 -71.5t-31 -66t-42.5 -63t-56.5 -52t-73 -42.5t-92 -26t-113.5 -10.5z" />
    <glyph glyph-name="Omacron" unicode="&#x14c;" horiz-adv-x="1771" 
d="M1468 1765h-753l39 213h753zM780 -35q-196 0 -349.5 82t-241 236.5t-87.5 355.5q0 126 35 251t98 233.5t153 202.5t196 161t231.5 105t255.5 38q301 0 489.5 -187t188.5 -491q0 -190 -78 -370.5t-208 -316t-310 -218t-373 -82.5zM831 252q159 0 296.5 93.5t216.5 244.5
t79 317q0 194 -109 315t-290 121q-158 0 -297 -93.5t-220 -245t-81 -318.5q0 -196 112.5 -315t292.5 -119z" />
    <glyph glyph-name="omacron" unicode="&#x14d;" horiz-adv-x="1310" 
d="M1135 1331h-689l37 203h688zM549 -35q-227 0 -360.5 131.5t-133.5 354.5q0 138 53.5 269.5t145.5 232t226 162t284 61.5q227 0 360 -132.5t133 -357.5q0 -138 -53 -269t-144.5 -231t-225 -160.5t-285.5 -60.5zM600 240q148 0 252 120.5t104 284.5q0 116 -64.5 186
t-174.5 70q-102 0 -185.5 -59t-128.5 -150.5t-45 -191.5q0 -119 64.5 -189.5t177.5 -70.5z" />
    <glyph glyph-name="Ohungarumlaut" unicode="&#x150;" horiz-adv-x="1771" 
d="M1325 2079l-371 -359h-249l280 359h340zM1794 2079l-377 -359h-250l285 359h342zM780 -35q-196 0 -349.5 82t-241 236.5t-87.5 355.5q0 126 35 251t98 233.5t153 202.5t196 161t231.5 105t255.5 38q301 0 489.5 -187t188.5 -491q0 -190 -78 -370.5t-208 -316t-310 -218
t-373 -82.5zM831 252q159 0 296.5 93.5t216.5 244.5t79 317q0 194 -109 315t-290 121q-158 0 -297 -93.5t-220 -245t-81 -318.5q0 -196 112.5 -315t292.5 -119z" />
    <glyph glyph-name="ohungarumlaut" unicode="&#x151;" horiz-adv-x="1310" 
d="M1006 1673l-388 -395h-241l297 395h332zM1477 1673l-394 -395h-241l303 395h332zM549 -35q-227 0 -360.5 131.5t-133.5 354.5q0 138 53.5 269.5t145.5 232t226 162t284 61.5q227 0 360 -132.5t133 -357.5q0 -138 -53 -269t-144.5 -231t-225 -160.5t-285.5 -60.5zM600 240
q148 0 252 120.5t104 284.5q0 116 -64.5 186t-174.5 70q-102 0 -185.5 -59t-128.5 -150.5t-45 -191.5q0 -119 64.5 -189.5t177.5 -70.5z" />
    <glyph glyph-name="OE" unicode="&#x152;" horiz-adv-x="2535" 
d="M774 -35q-189 0 -339.5 77.5t-241.5 232t-91 362.5q0 191 77.5 373t206.5 318t308.5 219t372.5 83q299 0 461 -213l31 180h1044l-51 -280q-164 0 -241.5 1t-222 12t-269.5 34l-43 -21q12 -108 -3.5 -206t-62.5 -224l29 -20q126 31 263.5 46t217 17t229.5 2l-53 -294
q-150 0 -228.5 2t-210 18t-245.5 49l-37 -20q0 -135 -19.5 -237.5t-66.5 -207.5l31 -35q137 23 283.5 34.5t240 13.5t248.5 2l-49 -283h-1065l31 176q-237 -211 -535 -211zM825 252q120 0 230 56.5t187.5 148t124 212.5t46.5 246q0 194 -107 311t-284 117q-120 0 -231.5 -56
t-190.5 -147t-126.5 -211.5t-47.5 -244.5q0 -196 110 -314t289 -118z" />
    <glyph glyph-name="oe" unicode="&#x153;" horiz-adv-x="2140" 
d="M549 -35q-227 0 -360.5 132t-133.5 356q0 111 34 218t98 197.5t150 160t196.5 108.5t230.5 39q136 0 237.5 -53t157.5 -148q86 94 206.5 147.5t256.5 53.5q112 0 203.5 -36t158 -111t89.5 -190t-2 -272l-9 -47h-848q-9 -132 63.5 -214.5t190.5 -82.5q89 0 172 48t134 135
l251 -109q-87 -147 -246.5 -239.5t-355.5 -92.5q-139 0 -245 51.5t-162 145.5q-194 -197 -467 -197zM1255 698h543q-1 63 -20.5 109.5t-53 73t-72 39t-83.5 12.5q-101 0 -186 -64t-128 -170zM598 240q98 0 180.5 55.5t129 147t46.5 196.5q0 120 -63.5 191t-173.5 71
q-151 0 -255 -121.5t-104 -279.5q0 -119 64 -189.5t176 -70.5z" />
    <glyph glyph-name="Racute" unicode="&#x154;" horiz-adv-x="1435" 
d="M1364 2081l-389 -361h-260l295 361h354zM373 0h-303l282 1597h617q22 0 43 -1t72 -9t92.5 -22t93 -45t86.5 -73t59.5 -110t24.5 -153q0 -146 -65 -263.5t-187 -189t-281 -80.5l-6 -37q77 -89 149 -200.5t105 -173.5t103 -201q13 -26 20 -39h-342l-289 590q-97 10 -196 59
q-4 -250 -78 -649zM477 795l29 -21q68 32 129.5 41.5t138.5 9.5q144 1 242 86.5t98 208.5q0 46 -16.5 82.5t-42 58.5t-60 36t-66 19t-63.5 5q-54 0 -84 1.5t-79 11.5t-95 30l-39 -21q11 -266 -92 -548z" />
    <glyph glyph-name="racute" unicode="&#x155;" horiz-adv-x="890" 
d="M1087 1657l-376 -379h-248l287 379h337zM326 0h-287l203 1143h282q-1 -5 -5.5 -33t-8 -43t-11 -44.5t-19.5 -61t-29 -68.5h36q69 140 163.5 211.5t209.5 71.5q56 0 107 -21l-58 -321q-59 22 -137 22q-76 0 -137 -28t-98.5 -69t-66 -101t-42.5 -108.5t-25 -107.5z" />
    <glyph glyph-name="uni0156" unicode="&#x156;" horiz-adv-x="1435" 
d="M373 0h-303l282 1597h617q22 0 43 -1t72 -9t92.5 -22t93 -45t86.5 -73t59.5 -110t24.5 -153q0 -146 -65 -263.5t-187 -189t-281 -80.5l-6 -37q77 -89 149 -200.5t105 -173.5t103 -201q13 -26 20 -39h-342l-289 590q-97 10 -196 59q-4 -250 -78 -649zM477 795l29 -21
q68 32 129.5 41.5t138.5 9.5q144 1 242 86.5t98 208.5q0 46 -16.5 82.5t-42 58.5t-60 36t-66 19t-63.5 5q-54 0 -84 1.5t-79 11.5t-95 30l-39 -21q11 -266 -92 -548zM459 -649h-154q105 150 230 239q-60 0 -96 33.5t-36 87.5q0 73 57 126.5t132 53.5q60 0 95.5 -35.5
t35.5 -95.5q0 -16 -3.5 -31t-8 -29t-17.5 -35t-24 -38t-36 -50t-45 -58.5t-59 -76t-71 -91.5z" />
    <glyph glyph-name="uni0157" unicode="&#x157;" horiz-adv-x="890" 
d="M326 0h-287l203 1143h282q-1 -5 -5.5 -33t-8 -43t-11 -44.5t-19.5 -61t-29 -68.5h36q69 140 163.5 211.5t209.5 71.5q56 0 107 -21l-58 -321q-59 22 -137 22q-76 0 -137 -28t-98.5 -69t-66 -101t-42.5 -108.5t-25 -107.5zM35 -649h-154q105 150 230 239q-60 0 -95.5 33.5
t-35.5 87.5q0 73 56.5 126.5t131.5 53.5q60 0 95.5 -35.5t35.5 -95.5q0 -16 -3.5 -31t-8 -29t-17.5 -35t-24 -38t-36 -50t-45 -58.5t-59 -76t-71 -91.5z" />
    <glyph glyph-name="Rcaron" unicode="&#x158;" horiz-adv-x="1435" 
d="M983 1720h-289l-223 357h266q28 -35 42 -56t28 -68t16 -108h74q33 87 72 136t96 96h266zM373 0h-303l282 1597h617q22 0 43 -1t72 -9t92.5 -22t93 -45t86.5 -73t59.5 -110t24.5 -153q0 -146 -65 -263.5t-187 -189t-281 -80.5l-6 -37q77 -89 149 -200.5t105 -173.5
t103 -201q13 -26 20 -39h-342l-289 590q-97 10 -196 59q-4 -250 -78 -649zM477 795l29 -21q68 32 129.5 41.5t138.5 9.5q144 1 242 86.5t98 208.5q0 46 -16.5 82.5t-42 58.5t-60 36t-66 19t-63.5 5q-54 0 -84 1.5t-79 11.5t-95 30l-39 -21q11 -266 -92 -548z" />
    <glyph glyph-name="rcaron" unicode="&#x159;" horiz-adv-x="890" 
d="M756 1294h-293l-227 387h270q6 -11 24 -43t26 -48t21 -44t21 -55t14 -57h45q19 37 45 73t42 55.5t54.5 61.5t51.5 57h270zM326 0h-287l203 1143h282q-1 -5 -5.5 -33t-8 -43t-11 -44.5t-19.5 -61t-29 -68.5h36q69 140 163.5 211.5t209.5 71.5q56 0 107 -21l-58 -321
q-59 22 -137 22q-76 0 -137 -28t-98.5 -69t-66 -101t-42.5 -108.5t-25 -107.5z" />
    <glyph glyph-name="Sacute" unicode="&#x15a;" horiz-adv-x="1337" 
d="M1327 2081l-389 -361h-260l295 361h354zM580 -35q-236 0 -384 124t-165 349l301 97q16 -156 97.5 -224.5t197.5 -68.5q129 0 215 65t86 158q0 35 -15.5 64t-34 46.5t-57 35.5t-60 25.5t-67.5 22.5l-135 43q-51 16 -89.5 32t-91.5 48.5t-88 70.5t-60 98.5t-25 133.5
q0 104 48 203t131 174.5t203.5 121.5t256.5 46q113 0 206 -32t152.5 -85t94 -118.5t40.5 -137.5l-299 -112q-19 99 -81 154t-164 55q-108 0 -183 -57.5t-75 -137.5q0 -33 15 -61.5t36 -48t56.5 -38t63 -29t68.5 -24.5l160 -53q31 -10 44 -15t46 -18t50 -22.5t46.5 -28
t46.5 -36t38 -43.5t32 -54t19 -64t8 -77q0 -109 -50.5 -213.5t-138 -186.5t-217.5 -132t-278 -50z" />
    <glyph glyph-name="sacute" unicode="&#x15b;" horiz-adv-x="1052" 
d="M1120 1661l-377 -379h-247l286 379h338zM428 -35q-189 0 -305 87.5t-131 234.5l282 86q20 -89 75 -130.5t124 -41.5q72 0 121 35.5t49 89.5q0 25 -11.5 44t-31 30.5t-41.5 20t-46 16.5q-7 2 -11 3l-115 37q-23 7 -37 12t-44 18.5t-50 27t-45.5 36.5t-40.5 49t-26 63
t-11 79q0 80 37 155t101.5 132.5t158.5 92t201 34.5q166 0 269 -80.5t118 -208.5l-281 -86q-10 62 -47.5 101.5t-107.5 39.5q-63 0 -108.5 -35t-45.5 -86q0 -26 15 -46.5t45 -36.5t54.5 -25t63.5 -21l82 -24q104 -31 149 -59q119 -72 119 -220q0 -178 -149 -301t-379 -123z
" />
    <glyph glyph-name="Scedilla" unicode="&#x15e;" horiz-adv-x="1337" 
d="M774 958l160 -53q31 -10 44 -15t46 -18t50 -22.5t46.5 -28t46.5 -36t38 -43.5t32 -54t19 -64t8 -77q0 -103 -45.5 -202.5t-124.5 -179.5t-197 -133.5t-254 -64.5q-34 -30 -145 -106l14 -17q90 58 141 58q67 0 112.5 -43.5t45.5 -120.5q0 -108 -94 -183t-234 -75
q-91 0 -160.5 34t-103.5 95l111 112q56 -96 172 -96q52 0 86.5 26t34.5 66q0 30 -25.5 48t-65.5 18q-52 0 -92 -29l-78 68l123 149q-197 24 -318 145t-136 322l301 97q16 -156 97.5 -224.5t197.5 -68.5q129 0 215 65t86 158q0 35 -15.5 64t-34 46.5t-57 35.5t-60 25.5
t-67.5 22.5l-135 43q-51 16 -89.5 32t-91.5 48.5t-88 70.5t-60 98.5t-25 133.5q0 104 48 203t131 174.5t203.5 121.5t256.5 46q113 0 206 -32t152.5 -85t94 -118.5t40.5 -137.5l-299 -112q-19 99 -81 154t-164 55q-108 0 -183 -57.5t-75 -137.5q0 -33 15 -61.5t36 -48
t56.5 -38t63 -29t68.5 -24.5z" />
    <glyph glyph-name="scedilla" unicode="&#x15f;" horiz-adv-x="1052" 
d="M606 692l82 -24q104 -31 149 -59q119 -72 119 -220q0 -166 -131 -285.5t-340 -136.5q-34 -30 -145 -106l14 -17q90 58 142 58q67 0 112 -43.5t45 -120.5q0 -108 -93.5 -183t-233.5 -75q-92 0 -161.5 34.5t-103.5 94.5l111 112q56 -96 172 -96q52 0 86.5 26t34.5 66
q0 30 -25 48t-65 18q-52 0 -92 -29l-78 68l125 149q-148 23 -236 106.5t-102 209.5l282 86q20 -89 75 -130.5t124 -41.5q72 0 121 35.5t49 89.5q0 25 -11.5 44t-31 30.5t-41.5 20t-46 16.5q-7 2 -11 3l-115 37q-23 7 -37 12t-44 18.5t-50 27t-45.5 36.5t-40.5 49t-26 63
t-11 79q0 80 37 155t101.5 132.5t158.5 92t201 34.5q166 0 269 -80.5t118 -208.5l-281 -86q-10 62 -47.5 101.5t-107.5 39.5q-63 0 -108.5 -35t-45.5 -86q0 -26 15 -46.5t45 -36.5t54.5 -25t63.5 -21z" />
    <glyph glyph-name="Scaron" unicode="&#x160;" horiz-adv-x="1337" 
d="M1004 1720h-289l-223 357h266q28 -35 42 -56t28 -68t16 -108h74q33 87 72 136t95 96h267zM580 -35q-236 0 -384 124t-165 349l301 97q16 -156 97.5 -224.5t197.5 -68.5q129 0 215 65t86 158q0 35 -15.5 64t-34 46.5t-57 35.5t-60 25.5t-67.5 22.5l-135 43
q-51 16 -89.5 32t-91.5 48.5t-88 70.5t-60 98.5t-25 133.5q0 104 48 203t131 174.5t203.5 121.5t256.5 46q113 0 206 -32t152.5 -85t94 -118.5t40.5 -137.5l-299 -112q-19 99 -81 154t-164 55q-108 0 -183 -57.5t-75 -137.5q0 -33 15 -61.5t36 -48t56.5 -38t63 -29
t68.5 -24.5l160 -53q31 -10 44 -15t46 -18t50 -22.5t46.5 -28t46.5 -36t38 -43.5t32 -54t19 -64t8 -77q0 -109 -50.5 -213.5t-138 -186.5t-217.5 -132t-278 -50z" />
    <glyph glyph-name="scaron" unicode="&#x161;" horiz-adv-x="1052" 
d="M788 1296h-292l-228 387h271q6 -11 24 -43t26 -48t21 -44t21 -55t14 -57h45q19 37 45 73t42 55.5t54.5 61.5t51.5 57h270zM428 -35q-189 0 -305 87.5t-131 234.5l282 86q20 -89 75 -130.5t124 -41.5q72 0 121 35.5t49 89.5q0 25 -11.5 44t-31 30.5t-41.5 20t-46 16.5
q-7 2 -11 3l-115 37q-23 7 -37 12t-44 18.5t-50 27t-45.5 36.5t-40.5 49t-26 63t-11 79q0 80 37 155t101.5 132.5t158.5 92t201 34.5q166 0 269 -80.5t118 -208.5l-281 -86q-10 62 -47.5 101.5t-107.5 39.5q-63 0 -108.5 -35t-45.5 -86q0 -26 15 -46.5t45 -36.5t54.5 -25
t63.5 -21l82 -24q104 -31 149 -59q119 -72 119 -220q0 -178 -149 -301t-379 -123z" />
    <glyph glyph-name="uni0162" unicode="&#x162;" horiz-adv-x="1308" 
d="M156 1317l49 280h1261l-49 -280q-107 0 -166.5 1t-156.5 9.5t-185 24.5q-54 -529 -204 -1352h-66q-30 -39 -178 -139l14 -17q90 58 141 58q67 0 112.5 -43.5t45.5 -120.5q0 -108 -94 -183t-234 -75q-91 0 -160.5 34t-103.5 95l111 112q56 -96 172 -96q52 0 86.5 26
t34.5 66q0 30 -25 48t-65 18q-53 0 -93 -29l-77 68l147 178h-72q52 291 82 455t84.5 420t110.5 477q-95 -16 -195.5 -24.5t-160 -9.5t-166.5 -1z" />
    <glyph glyph-name="uni0163" unicode="&#x163;" horiz-adv-x="894" 
d="M942 1143l-47 -260q-72 0 -107.5 0.5t-102 7.5t-128.5 20q2 -113 -6.5 -196t-20 -122t-21 -94t-9.5 -116q0 -81 25.5 -119.5t99.5 -38.5q79 0 163 41l-47 -258q-85 -43 -219 -43q-35 0 -51 2q-34 -30 -145 -106l14 -17q90 58 141 58q67 0 112.5 -43.5t45.5 -120.5
q0 -108 -94 -183t-234 -75q-91 0 -160.5 34t-103.5 95l111 112q56 -96 172 -96q52 0 86.5 26t34.5 66q0 30 -25.5 48t-65.5 18q-52 0 -92 -29l-78 68l146 176q-43 18 -72.5 46t-43.5 62.5t-21 66.5t-4.5 72t5.5 63.5t9 56.5q20 114 33.5 180.5t40 170.5t59.5 195
q-54 -14 -107 -20.5t-79 -7t-80 -0.5l45 260q150 0 256 -29q-11 128 23 331l3 21h287q-37 -212 -98 -352q143 29 350 29z" />
    <glyph glyph-name="Tcaron" unicode="&#x164;" horiz-adv-x="1308" 
d="M1004 1720h-289l-223 357h266q28 -35 42 -56t28 -68t16 -108h74q33 87 72 136t95 96h267zM705 0h-304q52 291 82 455t84.5 420t110.5 477q-95 -16 -195.5 -24.5t-160 -9.5t-166.5 -1l49 280h1261l-49 -280q-107 0 -166.5 1t-156.5 9.5t-185 24.5q-54 -529 -204 -1352z
" />
    <glyph glyph-name="tcaron" unicode="&#x165;" horiz-adv-x="894" 
d="M1192 1047h-168q53 69 76.5 99t79 87.5t114.5 101.5q-139 34 -139 135q0 82 65.5 145.5t151.5 63.5q66 0 108 -42t42 -107q0 -59 -47.5 -128.5t-217.5 -275.5q-42 -51 -65 -79zM522 -35q-62 0 -112 10t-84.5 26t-59.5 41t-39.5 49.5t-22 57.5t-9.5 58t0.5 59t5.5 53t8 46
q20 114 33.5 180.5t40 170.5t59.5 195q-54 -14 -107 -20.5t-79 -7t-80 -0.5l45 260q150 0 256 -29q-11 128 23 331l3 21h287q-37 -212 -98 -352q143 29 350 29l-47 -260q-72 0 -107.5 0.5t-102 7.5t-128.5 20q2 -113 -6.5 -196t-20 -122t-21 -94t-9.5 -116
q0 -81 25.5 -119.5t99.5 -38.5q79 0 163 41l-47 -258q-85 -43 -219 -43z" />
    <glyph glyph-name="Tbar" unicode="&#x166;" horiz-adv-x="1308" 
d="M1466 1597l-49 -280q-107 0 -166.5 1t-156.5 9.5t-185 24.5q-17 -178 -53 -432h287l-43 -244h-279q-61 -374 -116 -676h-304q67 386 125 676h-278l43 244h284q40 180 103 432q-95 -16 -195.5 -24.5t-160 -9.5t-166.5 -1l49 280h1261z" />
    <glyph glyph-name="tbar" unicode="&#x167;" horiz-adv-x="894" 
d="M942 1143l-47 -260q-72 0 -107.5 0.5t-102 7.5t-128.5 20q3 -121 -8 -215h307l-39 -215h-311q-6 -44 -6 -98q0 -81 25.5 -119.5t99.5 -38.5q79 0 163 41l-47 -258q-85 -43 -219 -43q-62 0 -112 10t-84.5 26t-59.5 41t-39.5 49.5t-22 57.5t-9.5 58t0.5 59t5.5 53t8 46
q3 19 10 57.5t10 58.5h-223l39 215h231q30 116 66 215q-54 -14 -107 -20.5t-79 -7t-80 -0.5l45 260q150 0 256 -29q-11 128 23 331l3 21h287q-37 -212 -98 -352q143 29 350 29z" />
    <glyph glyph-name="Umacron" unicode="&#x16a;" horiz-adv-x="1525" 
d="M1352 1765h-754l39 213h754zM655 -35q-109 0 -194.5 22.5t-141 59.5t-93.5 90.5t-55.5 110.5t-22.5 125.5t-0.5 128t16.5 125.5l170 970h305l-166 -946q-11 -59 -13.5 -110.5t8.5 -106.5t37 -93.5t78 -63.5t126 -25q299 0 376 399l166 946h303l-170 -970
q-121 -662 -729 -662z" />
    <glyph glyph-name="umacron" unicode="&#x16b;" horiz-adv-x="1290" 
d="M1122 1331h-688l37 203h688zM432 -35q-193 0 -281 117.5t-49 343.5l127 717h287l-108 -619q-24 -132 15 -208t140 -76q110 0 189.5 81.5t101.5 206.5l109 615h286l-139 -787q-22 -129 -27.5 -205t0.5 -151h-284q-2 34 -2 61t12 64.5t39 87.5h-37q-69 -132 -160 -190
t-219 -58z" />
    <glyph glyph-name="Uring" unicode="&#x16e;" horiz-adv-x="1525" 
d="M967 1710q-98 0 -160 59t-62 150q0 114 92.5 201.5t217.5 87.5q97 0 158 -57.5t61 -149.5q0 -115 -91 -203t-216 -88zM987 1847q53 0 93 39.5t40 91.5q0 39 -25.5 64.5t-66.5 25.5q-52 0 -90.5 -39t-38.5 -92q0 -39 24 -64.5t64 -25.5zM655 -35q-109 0 -194.5 22.5
t-141 59.5t-93.5 90.5t-55.5 110.5t-22.5 125.5t-0.5 128t16.5 125.5l170 970h305l-166 -946q-11 -59 -13.5 -110.5t8.5 -106.5t37 -93.5t78 -63.5t126 -25q299 0 376 399l166 946h303l-170 -970q-121 -662 -729 -662z" />
    <glyph glyph-name="uring" unicode="&#x16f;" horiz-adv-x="1290" 
d="M766 1255q-98 0 -160.5 59t-62.5 150q0 113 92.5 201t216.5 88q97 0 159 -57.5t62 -149.5q0 -115 -91 -203t-216 -88zM786 1393q54 0 94 40t40 91q0 39 -26 64.5t-67 25.5q-52 0 -90.5 -39t-38.5 -92q0 -39 24 -64.5t64 -25.5zM432 -35q-193 0 -281 117.5t-49 343.5
l127 717h287l-108 -619q-24 -132 15 -208t140 -76q110 0 189.5 81.5t101.5 206.5l109 615h286l-139 -787q-22 -129 -27.5 -205t0.5 -151h-284q-2 34 -2 61t12 64.5t39 87.5h-37q-69 -132 -160 -190t-219 -58z" />
    <glyph glyph-name="Uhungarumlaut" unicode="&#x170;" horiz-adv-x="1525" 
d="M1208 2079l-370 -359h-250l280 359h340zM1677 2079l-377 -359h-249l284 359h342zM655 -35q-109 0 -194.5 22.5t-141 59.5t-93.5 90.5t-55.5 110.5t-22.5 125.5t-0.5 128t16.5 125.5l170 970h305l-166 -946q-11 -59 -13.5 -110.5t8.5 -106.5t37 -93.5t78 -63.5t126 -25
q299 0 376 399l166 946h303l-170 -970q-121 -662 -729 -662z" />
    <glyph glyph-name="uhungarumlaut" unicode="&#x171;" horiz-adv-x="1290" 
d="M993 1673l-387 -395h-241l297 395h331zM1464 1673l-393 -395h-242l304 395h331zM432 -35q-193 0 -281 117.5t-49 343.5l127 717h287l-108 -619q-24 -132 15 -208t140 -76q110 0 189.5 81.5t101.5 206.5l109 615h286l-139 -787q-22 -129 -27.5 -205t0.5 -151h-284
q-2 34 -2 61t12 64.5t39 87.5h-37q-69 -132 -160 -190t-219 -58z" />
    <glyph glyph-name="Uogonek" unicode="&#x172;" horiz-adv-x="1525" 
d="M1085 651l166 946h303l-170 -970q-102 -568 -569 -650q-59 -26 -90 -69.5t-31 -85.5t32.5 -72.5t98.5 -30.5q50 0 93 11l-33 -174q-56 -19 -137 -19q-114 0 -192.5 50.5t-78.5 144.5q0 139 152 233q-104 3 -185 27t-134 61.5t-89 91t-52.5 110t-21.5 123.5t0 126t17 123
l170 970h305l-166 -946q-11 -59 -13.5 -110.5t8.5 -106.5t37 -93.5t78 -63.5t126 -25q299 0 376 399z" />
    <glyph glyph-name="uogonek" unicode="&#x173;" horiz-adv-x="1290" 
d="M963 1143h286l-139 -787q-22 -129 -27.5 -205t0.5 -151h-96q-89 -19 -139.5 -70.5t-50.5 -107.5q0 -40 30 -66t84 -26q58 0 99 16l-35 -195q-55 -14 -119 -14q-120 0 -195 51.5t-75 147.5q0 89 62 161.5t155 102.5h-4q-2 34 -2 61t12 64.5t39 87.5h-37
q-69 -132 -160 -190t-219 -58q-193 0 -281 117.5t-49 343.5l127 717h287l-108 -619q-24 -132 15 -208t140 -76q110 0 189.5 81.5t101.5 206.5z" />
    <glyph glyph-name="Wcircumflex" unicode="&#x174;" horiz-adv-x="2367" 
d="M1229 1720h-266l352 357h278l228 -357h-267q-28 35 -42 56t-27.5 68t-14.5 108h-73q-34 -87 -73.5 -136.5t-94.5 -95.5zM754 0h-383l-174 1597h348q35 -368 50.5 -645t12.5 -608h37q87 226 189 463t172.5 389.5t187.5 400.5h346q34 -292 47 -411.5t32.5 -373.5t25.5 -482
h34q212 611 510 1267h346l-737 -1597h-379q-48 357 -71.5 619t-24.5 579h-53q-116 -323 -237.5 -600.5t-278.5 -597.5z" />
    <glyph glyph-name="wcircumflex" unicode="&#x175;" horiz-adv-x="1914" 
d="M909 1278h-270l360 371h291l234 -371h-271q-31 45 -46 69.5t-33.5 68.5t-26.5 93h-47q-37 -69 -81.5 -120t-109.5 -111zM623 0h-336l-176 1143h327q24 -199 33 -279.5t19 -242.5t6 -308h53q59 149 132.5 309.5t119 253t133.5 267.5h252q30 -204 41 -283.5t27.5 -240
t23.5 -306.5h49q49 148 117.5 312.5t107.5 247t129 270.5h326l-580 -1143h-348q-63 480 -65 743h-47q-115 -296 -344 -743z" />
    <glyph glyph-name="Ycircumflex" unicode="&#x176;" horiz-adv-x="1437" 
d="M762 1720h-266l352 357h278l228 -357h-267q-21 26 -31.5 41.5t-24.5 44t-20 64t-7 82.5h-74q-34 -87 -73.5 -136.5t-94.5 -95.5zM770 0h-303q66 376 115 549q-161 396 -394 1048h328q59 -176 88 -266.5t69 -245.5t66 -303h37q77 147 177.5 310.5t151 239t179.5 265.5h328
q-35 -49 -165.5 -232t-198 -276.5t-182.5 -249.5t-216 -288q-15 -204 -80 -551z" />
    <glyph glyph-name="ycircumflex" unicode="&#x177;" horiz-adv-x="1196" 
d="M549 1278h-270l360 371h291l233 -371h-270q-32 46 -46.5 69.5t-33.5 68t-27 93.5h-47q-37 -69 -82 -120.5t-108 -110.5zM420 -451h-307l225 402l-232 1192h316q90 -471 108 -881h35q68 169 147 339t130.5 270t142.5 272h307z" />
    <glyph glyph-name="Ydieresis" unicode="&#x178;" horiz-adv-x="1437" 
d="M690 1731q-64 0 -104.5 40.5t-40.5 102.5q0 82 62 142.5t145 60.5q63 0 103 -40t40 -100q0 -79 -61.5 -142.5t-143.5 -63.5zM1157 1731q-65 0 -106 40.5t-41 102.5q0 81 62.5 142t144.5 61q64 0 104.5 -39.5t40.5 -100.5q0 -79 -61.5 -142.5t-143.5 -63.5zM770 0h-303
q66 376 115 549q-161 396 -394 1048h328q59 -176 88 -266.5t69 -245.5t66 -303h37q77 147 177.5 310.5t151 239t179.5 265.5h328q-35 -49 -165.5 -232t-198 -276.5t-182.5 -249.5t-216 -288q-15 -204 -80 -551z" />
    <glyph glyph-name="Zacute" unicode="&#x179;" horiz-adv-x="1376" 
d="M1421 2081l-389 -361h-260l295 361h354zM1208 0h-1241l43 248q266 293 534.5 558t600.5 558l-12 37q-472 -84 -908 -84l51 280h1199l-45 -251q-262 -283 -529 -544.5t-602 -565.5l12 -35q488 82 946 82z" />
    <glyph glyph-name="zacute" unicode="&#x17a;" horiz-adv-x="1089" 
d="M1151 1657l-377 -379h-248l287 379h338zM934 0h-963l43 242q416 409 707 641l-12 35q-212 -39 -570 -39l47 264h910l-43 -244q-153 -147 -228.5 -219t-216.5 -196.5t-264 -221.5l10 -35q99 16 219.5 24.5t196.5 9.5t211 1z" />
    <glyph glyph-name="Zdotaccent" unicode="&#x17b;" horiz-adv-x="1376" 
d="M866 1755q-66 0 -107.5 41.5t-41.5 106.5q0 82 64 144t149 62q66 0 106.5 -40.5t40.5 -104.5q0 -82 -63.5 -145.5t-147.5 -63.5zM1208 0h-1241l43 248q266 293 534.5 558t600.5 558l-12 37q-472 -84 -908 -84l51 280h1199l-45 -251q-262 -283 -529 -544.5t-602 -565.5
l12 -35q488 82 946 82z" />
    <glyph glyph-name="zdotaccent" unicode="&#x17c;" horiz-adv-x="1089" 
d="M676 1315q-66 0 -107 42t-41 107q0 82 63.5 144.5t147.5 62.5q66 0 108 -41t42 -104q0 -82 -64.5 -146.5t-148.5 -64.5zM934 0h-963l43 242q416 409 707 641l-12 35q-212 -39 -570 -39l47 264h910l-43 -244q-153 -147 -228.5 -219t-216.5 -196.5t-264 -221.5l10 -35
q99 16 219.5 24.5t196.5 9.5t211 1z" />
    <glyph glyph-name="Zcaron" unicode="&#x17d;" horiz-adv-x="1376" 
d="M1040 1720h-288l-224 357h267q28 -35 42 -56t28 -68t16 -108h73q33 87 72 136t96 96h267zM1208 0h-1241l43 248q266 293 534.5 558t600.5 558l-12 37q-472 -84 -908 -84l51 280h1199l-45 -251q-262 -283 -529 -544.5t-602 -565.5l12 -35q488 82 946 82z" />
    <glyph glyph-name="zcaron" unicode="&#x17e;" horiz-adv-x="1089" 
d="M819 1294h-293l-227 387h270q7 -13 24.5 -43.5t26 -47.5t21 -44.5t21 -54.5t14.5 -57h45q19 37 45 73.5t41 54.5t55 62.5t51 56.5h271zM934 0h-963l43 242q416 409 707 641l-12 35q-212 -39 -570 -39l47 264h910l-43 -244q-153 -147 -228.5 -219t-216.5 -196.5
t-264 -221.5l10 -35q99 16 219.5 24.5t196.5 9.5t211 1z" />
    <glyph glyph-name="uni0218" unicode="&#x218;" horiz-adv-x="1337" 
d="M580 -35q-236 0 -384 124t-165 349l301 97q16 -156 97.5 -224.5t197.5 -68.5q129 0 215 65t86 158q0 35 -15.5 64t-34 46.5t-57 35.5t-60 25.5t-67.5 22.5l-135 43q-51 16 -89.5 32t-91.5 48.5t-88 70.5t-60 98.5t-25 133.5q0 104 48 203t131 174.5t203.5 121.5t256.5 46
q113 0 206 -32t152.5 -85t94 -118.5t40.5 -137.5l-299 -112q-19 99 -81 154t-164 55q-108 0 -183 -57.5t-75 -137.5q0 -33 15 -61.5t36 -48t56.5 -38t63 -29t68.5 -24.5l160 -53q31 -10 44 -15t46 -18t50 -22.5t46.5 -28t46.5 -36t38 -43.5t32 -54t19 -64t8 -77
q0 -109 -50.5 -213.5t-138 -186.5t-217.5 -132t-278 -50zM446 -649h-153q52 74 103 130t126 109q-60 0 -95.5 33.5t-35.5 87.5q0 73 57 126.5t132 53.5q60 0 95.5 -35.5t35.5 -95.5q0 -18 -3 -33.5t-14 -37.5t-21 -38.5t-36 -51.5t-46.5 -61.5t-65 -83.5t-79.5 -103z" />
    <glyph glyph-name="uni0219" unicode="&#x219;" horiz-adv-x="1052" 
d="M428 -35q-189 0 -305 87.5t-131 234.5l282 86q20 -89 75 -130.5t124 -41.5q72 0 121 35.5t49 89.5q0 25 -11.5 44t-31 30.5t-41.5 20t-46 16.5q-7 2 -11 3l-115 37q-23 7 -37 12t-44 18.5t-50 27t-45.5 36.5t-40.5 49t-26 63t-11 79q0 80 37 155t101.5 132.5t158.5 92
t201 34.5q166 0 269 -80.5t118 -208.5l-281 -86q-10 62 -47.5 101.5t-107.5 39.5q-63 0 -108.5 -35t-45.5 -86q0 -26 15 -46.5t45 -36.5t54.5 -25t63.5 -21l82 -24q104 -31 149 -59q119 -72 119 -220q0 -178 -149 -301t-379 -123zM287 -649h-154q52 74 103 130t126 109
q-60 0 -95.5 33.5t-35.5 87.5q0 73 57 126.5t132 53.5q60 0 95.5 -35.5t35.5 -95.5q0 -16 -3.5 -31t-8 -29t-17.5 -35t-24 -38t-36 -50t-45 -58.5t-59 -76t-71 -91.5z" />
    <glyph glyph-name="uni021A" unicode="&#x21a;" horiz-adv-x="1308" 
d="M705 0h-304q52 291 82 455t84.5 420t110.5 477q-95 -16 -195.5 -24.5t-160 -9.5t-166.5 -1l49 280h1261l-49 -280q-107 0 -166.5 1t-156.5 9.5t-185 24.5q-54 -529 -204 -1352zM410 -649h-154q52 74 103 130t126 109q-60 0 -95.5 33.5t-35.5 87.5q0 73 57 126.5t132 53.5
q60 0 95.5 -35.5t35.5 -95.5q0 -16 -3.5 -31t-8 -29t-17.5 -35t-24 -38t-36 -50t-45 -58.5t-59 -76t-71 -91.5z" />
    <glyph glyph-name="uni021B" unicode="&#x21b;" horiz-adv-x="894" 
d="M522 -35q-62 0 -112 10t-84.5 26t-59.5 41t-39.5 49.5t-22 57.5t-9.5 58t0.5 59t5.5 53t8 46q20 114 33.5 180.5t40 170.5t59.5 195q-54 -14 -107 -20.5t-79 -7t-80 -0.5l45 260q150 0 256 -29q-11 128 23 331l3 21h287q-37 -212 -98 -352q143 29 350 29l-47 -260
q-72 0 -107.5 0.5t-102 7.5t-128.5 20q2 -113 -6.5 -196t-20 -122t-21 -94t-9.5 -116q0 -81 25.5 -119.5t99.5 -38.5q79 0 163 41l-47 -258q-85 -43 -219 -43zM274 -649h-153q52 74 103 130t126 109q-60 0 -95.5 33.5t-35.5 87.5q0 73 57 126.5t132 53.5q60 0 95.5 -35.5
t35.5 -95.5q0 -18 -3 -33.5t-14 -37.5t-21 -38.5t-36 -51.5t-46.5 -61.5t-65 -83.5t-79.5 -103z" />
    <glyph glyph-name="gravecomb" unicode="&#x300;" horiz-adv-x="0" 
d="M172 1278h-250l-244 379h338z" />
    <glyph glyph-name="acutecomb" unicode="&#x301;" horiz-adv-x="0" 
d="M319 1657l-376 -379h-248l287 379h337z" />
    <glyph glyph-name="uni0302" unicode="&#x302;" horiz-adv-x="0" 
d="M-408 1278h-270l361 371h290l234 -371h-270q-32 46 -46.5 69.5t-33.5 68t-27 93.5h-47q-37 -69 -81.5 -120t-109.5 -111z" />
    <glyph glyph-name="tildecomb" unicode="&#x303;" horiz-adv-x="0" 
d="M-80 1319q-72 0 -133 45l-51 39q-40 35 -76 35q-35 0 -58.5 -28.5t-31.5 -72.5h-205q26 144 116.5 231t205.5 87q33 0 63 -9.5t43 -17t35 -22.5l45 -35q36 -27 64 -27q29 0 49 26t28 70h205q-28 -155 -105.5 -238t-193.5 -83z" />
    <glyph glyph-name="uni0304" unicode="&#x304;" horiz-adv-x="0" 
d="M139 1315h-688l37 203h688z" />
    <glyph glyph-name="uni0306" unicode="&#x306;" horiz-adv-x="0" 
d="M-199 1268q-174 0 -259 109.5t-60 285.5h233q-13 -79 19.5 -134.5t107.5 -55.5q76 0 128.5 55.5t66.5 134.5h233q-38 -182 -167.5 -288.5t-301.5 -106.5z" />
    <glyph glyph-name="uni0307" unicode="&#x307;" horiz-adv-x="0" 
d="M-23 1298q-65 0 -106 42.5t-41 107.5q0 82 63.5 144.5t147.5 62.5q66 0 107.5 -41.5t41.5 -104.5q0 -82 -64.5 -146.5t-148.5 -64.5z" />
    <glyph glyph-name="uni0308" unicode="&#x308;" horiz-adv-x="0" 
d="M-516 1300q-59 0 -97 39t-38 97q0 73 58.5 130.5t133.5 57.5q60 0 98.5 -37.5t38.5 -93.5q0 -74 -59 -133.5t-135 -59.5zM-82 1300q-62 0 -99.5 39t-37.5 97q0 76 58 132t134 56q59 0 97.5 -37.5t38.5 -93.5q0 -73 -58 -133t-133 -60z" />
    <glyph glyph-name="uni030A" unicode="&#x30a;" horiz-adv-x="0" 
d="M-70 1255q-98 0 -160.5 59t-62.5 150q0 113 92.5 201t216.5 88q97 0 159.5 -57.5t62.5 -149.5q0 -115 -91.5 -203t-216.5 -88zM-49 1393q53 0 93 39.5t40 91.5q0 39 -25.5 64.5t-66.5 25.5q-52 0 -90.5 -39t-38.5 -92q0 -39 24 -64.5t64 -25.5z" />
    <glyph glyph-name="uni030B" unicode="&#x30b;" horiz-adv-x="0" 
d="M-115 1673l-387 -395h-241l297 395h331zM356 1673l-393 -395h-242l304 395h331z" />
    <glyph glyph-name="uni030C" unicode="&#x30c;" horiz-adv-x="0" 
d="M-90 1278h-293l-227 387h270q6 -12 24 -43.5t26.5 -48t21.5 -44.5t21 -55t14 -57h45q19 37 45.5 74.5t40 53.5t56 63.5t50.5 56.5h270z" />
    <glyph glyph-name="uni0312" unicode="&#x312;" horiz-adv-x="0" 
d="M-182 1247q0 14 2 26.5t8 27.5t12 28t20.5 34.5t26.5 39t36.5 49.5t44.5 58.5t56 73.5t66 87h160q-113 -157 -223 -287q54 4 82 -23t28 -75q0 -72 -52.5 -121t-129.5 -49q-63 0 -100 35.5t-37 95.5z" />
    <glyph glyph-name="uni0326" unicode="&#x326;" horiz-adv-x="0" 
d="M-430 -649h-154q105 150 230 239q-60 0 -95.5 33.5t-35.5 87.5q0 73 56.5 126.5t131.5 53.5q60 0 95.5 -35.5t35.5 -95.5q0 -16 -3.5 -31t-8 -29t-17.5 -35t-24 -38t-36 -50t-45 -58.5t-59 -76t-71 -91.5z" />
    <glyph glyph-name="uni0327" unicode="&#x327;" horiz-adv-x="0" 
d="M-733 -520q-91 0 -160.5 34t-103.5 95l110 112q56 -96 172 -96q52 0 86.5 26t34.5 66q0 30 -25 48t-65 18q-52 0 -92 -29l-78 68l147 178h166q-30 -39 -178 -139l14 -17q90 58 142 58q67 0 112 -43.5t45 -120.5q0 -108 -93.5 -183t-233.5 -75z" />
    <glyph glyph-name="uni0328" unicode="&#x328;" horiz-adv-x="0" 
d="M-715 -483q-121 0 -195.5 51t-74.5 147q0 89 62 162t155 103h184q-89 -19 -139.5 -71t-50.5 -108q0 -40 30.5 -66t84.5 -26t98 17l-35 -195q-55 -14 -119 -14z" />
    <glyph glyph-name="uni0335" unicode="&#x335;" horiz-adv-x="0" 
d="M-719 682h811l-39 -215h-811z" />
    <glyph glyph-name="uni0337" unicode="&#x337;" horiz-adv-x="0" 
d="M-465 420l43 248l713 452l-45 -248z" />
    <glyph glyph-name="uni0338" unicode="&#x338;" horiz-adv-x="0" 
d="M-991 -66h-248l1153 1246h240z" />
    <glyph glyph-name="Wgrave" unicode="&#x1e80;" horiz-adv-x="2367" 
d="M1548 1720h-260l-262 361h354zM754 0h-383l-174 1597h348q35 -368 50.5 -645t12.5 -608h37q87 226 189 463t172.5 389.5t187.5 400.5h346q34 -292 47 -411.5t32.5 -373.5t25.5 -482h34q212 611 510 1267h346l-737 -1597h-379q-48 357 -71.5 619t-24.5 579h-53
q-116 -323 -237.5 -600.5t-278.5 -597.5z" />
    <glyph glyph-name="wgrave" unicode="&#x1e81;" horiz-adv-x="1914" 
d="M1217 1278h-250l-244 379h338zM623 0h-336l-176 1143h327q24 -199 33 -279.5t19 -242.5t6 -308h53q59 149 132.5 309.5t119 253t133.5 267.5h252q30 -204 41 -283.5t27.5 -240t23.5 -306.5h49q49 148 117.5 312.5t107.5 247t129 270.5h326l-580 -1143h-348
q-63 480 -65 743h-47q-115 -296 -344 -743z" />
    <glyph glyph-name="Wacute" unicode="&#x1e82;" horiz-adv-x="2367" 
d="M1913 2081l-389 -361h-260l295 361h354zM754 0h-383l-174 1597h348q35 -368 50.5 -645t12.5 -608h37q87 226 189 463t172.5 389.5t187.5 400.5h346q34 -292 47 -411.5t32.5 -373.5t25.5 -482h34q212 611 510 1267h346l-737 -1597h-379q-48 357 -71.5 619t-24.5 579h-53
q-116 -323 -237.5 -600.5t-278.5 -597.5z" />
    <glyph glyph-name="wacute" unicode="&#x1e83;" horiz-adv-x="1914" 
d="M1563 1657l-377 -379h-248l287 379h338zM623 0h-336l-176 1143h327q24 -199 33 -279.5t19 -242.5t6 -308h53q59 149 132.5 309.5t119 253t133.5 267.5h252q30 -204 41 -283.5t27.5 -240t23.5 -306.5h49q49 148 117.5 312.5t107.5 247t129 270.5h326l-580 -1143h-348
q-63 480 -65 743h-47q-115 -296 -344 -743z" />
    <glyph glyph-name="Wdieresis" unicode="&#x1e84;" horiz-adv-x="2367" 
d="M1157 1731q-64 0 -104.5 40.5t-40.5 102.5q0 82 62 142.5t145 60.5q63 0 103 -40t40 -100q0 -79 -61.5 -142.5t-143.5 -63.5zM1624 1731q-65 0 -106 40.5t-41 102.5q0 81 62 142t144 61q64 0 105 -40t41 -100q0 -79 -61.5 -142.5t-143.5 -63.5zM754 0h-383l-174 1597h348
q35 -368 50.5 -645t12.5 -608h37q87 226 189 463t172.5 389.5t187.5 400.5h346q34 -292 47 -411.5t32.5 -373.5t25.5 -482h34q212 611 510 1267h346l-737 -1597h-379q-48 357 -71.5 619t-24.5 579h-53q-116 -323 -237.5 -600.5t-278.5 -597.5z" />
    <glyph glyph-name="wdieresis" unicode="&#x1e85;" horiz-adv-x="1914" 
d="M870 1300q-59 0 -97 39t-38 97q0 73 59 130.5t134 57.5q60 0 98.5 -37.5t38.5 -93.5q0 -74 -59.5 -133.5t-135.5 -59.5zM1305 1300q-62 0 -100 39t-38 97q0 76 58.5 132t134.5 56q59 0 97 -37.5t38 -93.5q0 -73 -57.5 -133t-132.5 -60zM623 0h-336l-176 1143h327
q24 -199 33 -279.5t19 -242.5t6 -308h53q59 149 132.5 309.5t119 253t133.5 267.5h252q30 -204 41 -283.5t27.5 -240t23.5 -306.5h49q49 148 117.5 312.5t107.5 247t129 270.5h326l-580 -1143h-348q-63 480 -65 743h-47q-115 -296 -344 -743z" />
    <glyph glyph-name="uni1E9E" unicode="&#x1e9e;" horiz-adv-x="1589" 
d="M352 0h-303l156 891q20 113 53.5 212t96.5 198.5t147 170t211 114.5t282 44q251 0 397 -106t146 -299q0 -160 -96.5 -274.5t-249.5 -127.5l-6 -37q139 0 226 -73.5t87 -214.5q0 -72 -23 -141.5t-75 -134.5t-127 -114t-187.5 -78.5t-248.5 -29.5h-189l49 279h217
q118 0 189.5 56.5t71.5 145.5q0 73 -53 110.5t-152 37.5h-119l49 278h70q96 0 165.5 76.5t69.5 177.5q0 95 -71.5 144t-192.5 49q-348 0 -422 -408z" />
    <glyph glyph-name="Ygrave" unicode="&#x1ef2;" horiz-adv-x="1437" 
d="M1081 1720h-260l-262 361h354zM770 0h-303q66 376 115 549q-161 396 -394 1048h328q59 -176 88 -266.5t69 -245.5t66 -303h37q77 147 177.5 310.5t151 239t179.5 265.5h328q-35 -49 -165.5 -232t-198 -276.5t-182.5 -249.5t-216 -288q-15 -204 -80 -551z" />
    <glyph glyph-name="ygrave" unicode="&#x1ef3;" horiz-adv-x="1196" 
d="M856 1278h-250l-244 379h338zM420 -451h-307l225 402l-232 1192h316q90 -471 108 -881h35q68 169 147 339t130.5 270t142.5 272h307z" />
    <glyph glyph-name="uni2000" unicode="&#x2000;" horiz-adv-x="1024" 
 />
    <glyph glyph-name="uni2001" unicode="&#x2001;" 
 />
    <glyph glyph-name="uni2002" unicode="&#x2002;" horiz-adv-x="1024" 
 />
    <glyph glyph-name="uni2003" unicode="&#x2003;" 
 />
    <glyph glyph-name="uni2004" unicode="&#x2004;" horiz-adv-x="681" 
 />
    <glyph glyph-name="uni2005" unicode="&#x2005;" horiz-adv-x="512" 
 />
    <glyph glyph-name="uni2006" unicode="&#x2006;" horiz-adv-x="342" 
 />
    <glyph glyph-name="uni2007" unicode="&#x2007;" horiz-adv-x="497" 
 />
    <glyph glyph-name="uni2008" unicode="&#x2008;" horiz-adv-x="534" 
 />
    <glyph glyph-name="uni2009" unicode="&#x2009;" horiz-adv-x="256" 
 />
    <glyph glyph-name="uni200A" unicode="&#x200a;" horiz-adv-x="86" 
 />
    <glyph glyph-name="uni200B" unicode="&#x200b;" horiz-adv-x="0" 
 />
    <glyph glyph-name="endash" unicode="&#x2013;" horiz-adv-x="1009" 
d="M879 502h-770l43 243h770z" />
    <glyph glyph-name="emdash" unicode="&#x2014;" horiz-adv-x="1433" 
d="M1309 514h-1200l36 219h1201z" />
    <glyph glyph-name="quoteleft" unicode="&#x2018;" horiz-adv-x="540" 
d="M502 1636h160q-53 -71 -78 -103.5t-71 -81.5t-95 -87q57 -6 90 -47.5t33 -99.5q0 -85 -68 -149t-154 -64q-65 0 -107 42t-42 109q0 56 39.5 115t193.5 245q62 76 99 121z" />
    <glyph glyph-name="quoteright" unicode="&#x2019;" horiz-adv-x="550" 
d="M328 1030h-166q98 129 151 184q57 58 119 105q-141 34 -141 135q0 82 66.5 145.5t152.5 63.5q66 0 107.5 -41.5t41.5 -105.5q0 -62 -50 -135t-234 -294q-10 -12 -15.5 -19t-14.5 -18t-17 -20z" />
    <glyph glyph-name="quotesinglbase" unicode="&#x201a;" horiz-adv-x="532" 
d="M63 -283h-159q3 4 27.5 37.5t29 39.5t26 33.5t29.5 36.5t27.5 31t33 34.5t32.5 29t38 31.5q-57 6 -89.5 47.5t-32.5 99.5q0 87 66.5 150t152.5 63q65 0 108 -42t43 -109q0 -14 -2.5 -27.5t-6 -26t-13 -30t-18 -31.5t-27 -38.5t-33.5 -44t-43.5 -54.5t-51.5 -63t-63.5 -77
t-73.5 -90z" />
    <glyph glyph-name="quotedblleft" unicode="&#x201c;" horiz-adv-x="985" 
d="M502 1636h160q-53 -71 -78 -103.5t-71 -81.5t-95 -87q57 -6 90 -47.5t33 -99.5q0 -85 -68 -149t-154 -64q-65 0 -107 42t-42 109q0 56 39.5 115t193.5 245q62 76 99 121zM946 1636h160q-53 -71 -78 -103.5t-71 -81.5t-95 -87q57 -6 90 -47.5t33 -99.5q0 -85 -67.5 -149
t-153.5 -64q-65 0 -107.5 42t-42.5 109q0 56 39.5 115t193.5 245q20 25 31.5 39t31 37.5t36.5 44.5z" />
    <glyph glyph-name="quotedblright" unicode="&#x201d;" horiz-adv-x="995" 
d="M326 1030h-160q5 7 25 33.5t26 34.5t23.5 30.5t26 32.5t24.5 29t28 30.5t28 27t32 29t33 26.5q-58 6 -90.5 47.5t-32.5 99.5q0 87 66.5 150t152.5 63q65 0 107 -42.5t42 -109.5q0 -57 -40.5 -117.5t-199.5 -252.5q-57 -70 -91 -111zM772 1030h-160q54 73 78 104.5
t71 81.5t97 87q-58 6 -90.5 47.5t-32.5 99.5q0 87 66.5 150t152.5 63q65 0 107.5 -42.5t42.5 -109.5q0 -56 -42.5 -119.5t-191.5 -243.5q-20 -24 -31.5 -37.5t-30.5 -37t-36 -43.5z" />
    <glyph glyph-name="quotedblbase" unicode="&#x201e;" horiz-adv-x="980" 
d="M68 -258h-160q98 133 143 182q47 50 101 90q-57 6 -90 48t-33 100q0 85 67.5 149t151.5 64q66 0 108.5 -42.5t42.5 -109.5q0 -57 -41.5 -119t-196.5 -249q-59 -71 -93 -113zM514 -258h-160q98 133 143 182q47 50 101 90q-57 6 -90 48t-33 100q0 85 66.5 149t152.5 64
q65 0 108.5 -42.5t43.5 -109.5q0 -56 -39.5 -115t-193.5 -245q-20 -25 -31.5 -39t-31 -37.5t-36.5 -44.5z" />
    <glyph glyph-name="dagger" unicode="&#x2020;" horiz-adv-x="1024" 
d="M596 428h-238q33 180 46 250t46 209t72 266q-67 -16 -134 -24.5t-105 -9.5t-105 -1l37 213q67 0 105 -1t102.5 -9.5t124.5 -24.5q-12 151 26 342h238q-37 -207 -96 -342q69 16 139.5 24.5t111 9.5t111.5 1l-37 -213q-71 0 -111.5 1t-108 9.5t-130.5 24.5
q-16 -296 -94 -725z" />
    <glyph glyph-name="daggerdbl" unicode="&#x2021;" horiz-adv-x="1073" 
d="M1092 1331l-39 -213q-66 0 -103.5 1t-102 10t-126.5 26q13 -87 2 -154.5t-53 -152.5q67 17 134 26t104.5 10t103.5 1l-37 -213q-67 0 -104.5 1t-101 10t-124.5 26q8 -52 3 -128t-10 -112t-17 -104h-238q13 72 21.5 111t28 103.5t48.5 129.5q-68 -17 -135.5 -26
t-105.5 -10t-105 -1l37 213q67 0 105 -1t102.5 -10t126.5 -26q-13 82 -1 152t54 155q-68 -17 -135.5 -26t-105.5 -10t-105 -1l37 213q67 0 105.5 -1t103.5 -10t125 -26q-11 147 24 344h238q-11 -64 -20.5 -107t-30 -108t-50.5 -129q68 17 136 26t106.5 10t104.5 1z" />
    <glyph glyph-name="bullet" unicode="&#x2022;" horiz-adv-x="919" 
d="M438 442q-113 0 -185.5 73.5t-72.5 186.5q0 145 112.5 255t258.5 110q112 0 184 -73t72 -183q0 -140 -112.5 -254.5t-256.5 -114.5z" />
    <glyph glyph-name="ellipsis" unicode="&#x2026;" horiz-adv-x="1570" 
d="M178 -14q-66 0 -108.5 43.5t-42.5 109.5q0 83 65.5 147t151.5 64q66 0 107.5 -42t41.5 -105q0 -83 -65.5 -150t-149.5 -67zM696 -14q-66 0 -108.5 43.5t-42.5 109.5q0 83 65.5 147t151.5 64q66 0 107.5 -42t41.5 -105q0 -83 -65.5 -150t-149.5 -67zM1214 -14
q-66 0 -108.5 43.5t-42.5 109.5q0 83 65.5 147t151.5 64q66 0 108 -42t42 -105q0 -83 -66 -150t-150 -67z" />
    <glyph glyph-name="uni202F" unicode="&#x202f;" horiz-adv-x="366" 
 />
    <glyph glyph-name="perthousand" unicode="&#x2030;" horiz-adv-x="2713" 
d="M397 715q-122 0 -188 83.5t-66 231.5q0 137 53.5 256t148.5 190.5t208 71.5q123 0 190.5 -84.5t67.5 -232.5q0 -136 -54.5 -254.5t-150 -190t-209.5 -71.5zM438 0h-266l1397 1468h258zM436 928q51 0 92 101.5t41 203.5t-53 102q-34 0 -65.5 -48.5t-49.5 -118.5t-18 -136
q0 -104 53 -104zM1473 -29q-122 0 -188 84t-66 232q0 137 53.5 256t148 190.5t207.5 71.5q123 0 190.5 -85t67.5 -233q0 -136 -54 -254.5t-149.5 -190t-209.5 -71.5zM2226 -29q-122 0 -188 84t-66 232q0 137 53.5 256t148.5 190.5t208 71.5q123 0 190.5 -85t67.5 -233
q0 -136 -54.5 -254.5t-150 -190t-209.5 -71.5zM1511 184q51 0 92.5 101.5t41.5 203.5q0 103 -54 103q-34 0 -65.5 -48.5t-49.5 -118.5t-18 -136q0 -105 53 -105zM2265 184q51 0 92 101.5t41 203.5q0 103 -53 103q-34 0 -65.5 -48.5t-49.5 -118.5t-18 -136q0 -105 53 -105z
" />
    <glyph glyph-name="guilsinglleft" unicode="&#x2039;" horiz-adv-x="804" 
d="M621 164h-299l-234 405l2 9l377 405h299q-72 -75 -103.5 -106.5t-93.5 -89t-120.5 -98t-124.5 -75.5l-15 -82q54 -35 99.5 -77t85 -95t64.5 -92t63 -104z" />
    <glyph glyph-name="guilsinglright" unicode="&#x203a;" horiz-adv-x="802" 
d="M340 164h-299q62 66 98 102.5t95 91t119.5 96.5t127.5 78l15 82q-54 36 -99.5 78.5t-84 95t-64.5 93t-62 102.5h299l232 -405l-2 -9z" />
    <glyph glyph-name="fraction" unicode="&#x2044;" horiz-adv-x="452" 
d="M-315 0h-267l1397 1468h258z" />
    <glyph glyph-name="uni205F" unicode="&#x205f;" horiz-adv-x="454" 
 />
    <glyph glyph-name="uni2070" unicode="&#x2070;" horiz-adv-x="753" 
d="M397 715q-122 0 -188 83.5t-66 231.5q0 137 53.5 256t148.5 190.5t208 71.5q123 0 190.5 -84.5t67.5 -232.5q0 -136 -54.5 -254.5t-150 -190t-209.5 -71.5zM436 928q51 0 92 101.5t41 203.5t-53 102q-34 0 -65.5 -48.5t-49.5 -118.5t-18 -136q0 -104 53 -104z" />
    <glyph glyph-name="uni2074" unicode="&#x2074;" horiz-adv-x="755" 
d="M643 733h-219l25 139h-361l33 179l450 481h213l-84 -469h95l-33 -191h-94zM514 1241l-176 -178h143z" />
    <glyph glyph-name="uni2075" unicode="&#x2075;" horiz-adv-x="733" 
d="M371 715q-66 0 -122.5 15.5t-103 58t-57.5 108.5l219 102q24 -90 103 -90q50 0 81 34t31 81q0 38 -21 59t-57 21q-32 0 -60 -19.5t-40 -42.5l-184 43l176 447h469l-33 -184h-305l-57 -134h2q63 52 155 52q83 0 142 -48.5t59 -154.5q0 -146 -114 -247t-283 -101z" />
    <glyph glyph-name="uni2076" unicode="&#x2076;" horiz-adv-x="761" 
d="M408 715q-128 0 -201.5 70.5t-73.5 213.5q0 135 63.5 261t179 207t251.5 81q72 0 136 -24t95 -74l-143 -152q-45 58 -125 58q-69 0 -119 -42.5t-78 -115.5h2q28 28 75 42.5t91 14.5q100 0 165 -56.5t65 -154.5q0 -135 -111.5 -232t-271.5 -97zM457 905q49 0 83.5 35.5
t34.5 83.5q0 37 -22 58.5t-59 21.5q-50 0 -85.5 -35t-35.5 -84q0 -35 23.5 -57.5t60.5 -22.5z" />
    <glyph glyph-name="uni2077" unicode="&#x2077;" horiz-adv-x="612" 
d="M412 733h-246q17 94 47.5 190.5t94 216t145.5 199.5h-293l33 189h563l-33 -191q-235 -177 -311 -604z" />
    <glyph glyph-name="uni2078" unicode="&#x2078;" horiz-adv-x="745" 
d="M393 715q-131 0 -205.5 57.5t-74.5 149.5q0 79 52.5 147t115.5 82v4q-68 51 -68 129q0 104 96.5 184t231.5 80q107 0 178.5 -54t71.5 -151q0 -130 -123 -188v-4q42 -13 73 -54.5t31 -101.5q0 -117 -109 -198.5t-270 -81.5zM489 1235q37 0 64 27.5t27 62.5q0 25 -17.5 41
t-46.5 16q-37 0 -63.5 -25.5t-26.5 -60.5q0 -26 17.5 -43.5t45.5 -17.5zM434 915q43 0 74 31t31 72q0 33 -20 51t-54 18q-44 0 -76.5 -30.5t-32.5 -71.5q0 -31 22 -50.5t56 -19.5z" />
    <glyph glyph-name="uni2079" unicode="&#x2079;" horiz-adv-x="765" 
d="M352 715q-79 0 -149.5 26.5t-100.5 79.5l142 150q27 -34 68 -52t83 -18q67 0 110.5 49t63.5 121h-2q-62 -59 -170 -59q-99 0 -163 53.5t-64 153.5q0 136 112.5 232.5t274.5 96.5q125 0 196.5 -69.5t71.5 -221.5q0 -144 -61.5 -268.5t-171 -199t-240.5 -74.5zM469 1167
q49 0 85 35.5t36 83.5q0 37 -23.5 59.5t-60.5 22.5q-49 0 -84 -36t-35 -87q0 -36 22 -57t60 -21z" />
    <glyph glyph-name="uni2080" unicode="&#x2080;" horiz-adv-x="753" 
d="M221 -285q-122 0 -188 84t-66 232q0 137 53.5 256t148.5 190.5t208 71.5q123 0 190.5 -85t67.5 -233q0 -136 -54.5 -254.5t-150 -190t-209.5 -71.5zM260 -72q51 0 92 101.5t41 203.5q0 103 -53 103q-34 0 -65.5 -48.5t-49.5 -118.5t-18 -136q0 -105 53 -105z" />
    <glyph glyph-name="uni2081" unicode="&#x2081;" horiz-adv-x="534" 
d="M287 -266h-230l82 459q-95 -63 -178 -82l43 245q82 27 135 75t62 101h227z" />
    <glyph glyph-name="uni2082" unicode="&#x2082;" horiz-adv-x="727" 
d="M514 -266h-588l4 28q17 95 47 157t93.5 120.5t175.5 122.5q2 1 15.5 9t19 11.5t19 11.5t20.5 14t18.5 14.5t17.5 16.5t12.5 17.5t9.5 19t3 19.5q0 21 -16 34t-46 13q-46 0 -81 -34.5t-48 -96.5l-204 33q26 137 133 221t246 84q115 0 187.5 -59.5t72.5 -159.5
q0 -84 -50.5 -152.5t-128.5 -107.5q-11 -6 -43 -23.5t-51 -28.5t-43 -31.5t-37 -41.5h281z" />
    <glyph glyph-name="uni2083" unicode="&#x2083;" horiz-adv-x="731" 
d="M201 -287q-119 0 -199.5 53t-89.5 132l217 102q27 -94 107 -94q43 0 70.5 25t27.5 61q0 63 -88 63h-78l29 158h75q42 0 76.5 22.5t34.5 59.5q0 25 -19 42t-49 17q-39 0 -67.5 -25.5t-42.5 -70.5l-201 47q27 101 128.5 172.5t234.5 71.5q109 0 181.5 -49t72.5 -133
q0 -69 -45.5 -130t-106.5 -73v-2q47 -9 79 -50.5t32 -97.5q0 -114 -109 -207.5t-270 -93.5z" />
    <glyph glyph-name="uni2084" unicode="&#x2084;" horiz-adv-x="755" 
d="M467 -266h-219l24 139h-360l33 178l450 481h213l-84 -469h94l-32 -190h-94zM338 242l-176 -179h143z" />
    <glyph glyph-name="uni2085" unicode="&#x2085;" horiz-adv-x="733" 
d="M195 -285q-48 0 -92.5 9.5t-85.5 29.5t-69 57t-36 87l219 102q24 -90 102 -90q50 0 81.5 34.5t31.5 80.5q0 38 -21 58.5t-57 20.5q-33 0 -60.5 -19t-39.5 -42l-184 43l176 446h469l-33 -184h-305l-58 -133h3q62 51 155 51q83 0 142 -48.5t59 -154.5q0 -146 -114 -247
t-283 -101z" />
    <glyph glyph-name="uni2086" unicode="&#x2086;" horiz-adv-x="761" 
d="M231 -285q-128 0 -201 71t-73 214q0 135 63.5 261t179 207t251.5 81q72 0 136 -24t95 -74l-143 -152q-44 57 -125 57q-69 0 -119 -42.5t-78 -114.5h2q28 28 75 42.5t91 14.5q100 0 164.5 -56.5t64.5 -154.5q0 -135 -111.5 -232.5t-271.5 -97.5zM281 -94q49 0 83.5 35.5
t34.5 83.5q0 36 -22.5 57.5t-59.5 21.5q-50 0 -85 -34.5t-35 -83.5q0 -35 23.5 -57.5t60.5 -22.5z" />
    <glyph glyph-name="uni2087" unicode="&#x2087;" horiz-adv-x="612" 
d="M236 -266h-246q17 94 47 190t93.5 216t145.5 200h-292l32 188h564l-33 -190q-235 -177 -311 -604z" />
    <glyph glyph-name="uni2088" unicode="&#x2088;" horiz-adv-x="745" 
d="M217 -285q-131 0 -205.5 57.5t-74.5 149.5q0 79 52 147.5t115 82.5v4q-67 51 -67 129q0 104 96.5 184t231.5 80q107 0 178 -54t71 -151q0 -130 -122 -188v-4q42 -13 73 -54.5t31 -101.5q0 -118 -109.5 -199.5t-269.5 -81.5zM313 236q36 0 63 27t27 63q0 25 -17 41t-46 16
q-37 0 -63.5 -25.5t-26.5 -60.5q0 -26 17.5 -43.5t45.5 -17.5zM258 -84q43 0 73.5 30.5t30.5 71.5q0 33 -19.5 51.5t-53.5 18.5q-44 0 -76.5 -30.5t-32.5 -71.5q0 -31 22 -50.5t56 -19.5z" />
    <glyph glyph-name="uni2089" unicode="&#x2089;" horiz-adv-x="765" 
d="M176 -285q-78 0 -149 27t-101 80l142 149q27 -34 68 -51.5t83 -17.5q67 0 110.5 49t63.5 121h-2q-31 -30 -78.5 -45t-91.5 -15q-99 0 -163 53.5t-64 153.5q0 136 112.5 233t274.5 97q125 0 196.5 -69.5t71.5 -221.5q0 -144 -61.5 -268.5t-171 -199.5t-240.5 -75zM293 168
q49 0 85 35.5t36 83.5q0 37 -23.5 59.5t-60.5 22.5q-49 0 -84 -36t-35 -87q0 -36 22 -57t60 -21z" />
    <glyph glyph-name="Euro" unicode="&#x20ac;" horiz-adv-x="1691" 
d="M983 -35q-283 0 -450 159t-160 431q-111 -20 -283 -20l27 145q153 0 243 -37q-3 147 46 264q-102 -35 -254 -35l24 146q161 0 268 -21q91 283 313.5 452t528.5 169q335 0 481 -191l-247 -210q-107 114 -297 114q-321 0 -527 -334q230 21 578 21l-25 -146q-125 0 -195.5 1
t-184.5 9.5t-216 24.5q-3 -127 -43 -264q107 17 223.5 26t187 10t196.5 1l-27 -145q-352 0 -561 20q65 -178 164.5 -240.5t308.5 -62.5q58 0 112.5 18.5t196.5 89.5l135 -204q-123 -100 -274 -145.5t-289 -45.5z" />
    <glyph glyph-name="trademark" unicode="&#x2122;" horiz-adv-x="1613" 
d="M485 913h-155l98 557h-203l25 146h563l-25 -146h-204zM944 913h-160l125 703h162q34 -134 127 -479q191 316 293 479h160l-123 -703h-158l68 387q-13 -22 -92.5 -149t-143.5 -236h-90q-13 54 -43.5 167.5t-56.5 217.5z" />
    <glyph glyph-name="oneeighth" unicode="&#x215b;" horiz-adv-x="1732" 
d="M463 733h-230l82 459q-95 -63 -178 -82l43 246q82 27 135 75t62 101h227zM219 0h-266l1397 1468h258zM1249 -29q-131 0 -205.5 57.5t-74.5 149.5q0 79 52.5 147.5t115.5 82.5v4q-68 51 -68 129q0 104 96.5 184t231.5 80q107 0 178.5 -54t71.5 -151q0 -130 -123 -188v-4
q42 -13 73 -54.5t31 -101.5q0 -118 -109.5 -199.5t-269.5 -81.5zM1346 492q36 0 63 27t27 63q0 25 -17.5 41t-46.5 16q-37 0 -63.5 -25.5t-26.5 -60.5q0 -25 18 -43t46 -18zM1290 172q43 0 74 30.5t31 71.5q0 33 -20 51.5t-54 18.5q-44 0 -76.5 -30.5t-32.5 -71.5
q0 -31 22 -50.5t56 -19.5z" />
    <glyph glyph-name="threeeighths" unicode="&#x215c;" horiz-adv-x="1929" 
d="M377 713q-120 0 -200 52.5t-89 131.5l217 102q27 -94 107 -94q43 0 70.5 25t27.5 61q0 64 -88 64h-78l29 157h76q42 0 76 22.5t34 59.5q0 25 -18.5 42.5t-48.5 17.5q-39 0 -68 -26t-43 -71l-201 48q27 101 128 172t235 71q109 0 181.5 -49t72.5 -133q0 -69 -45.5 -130
t-106.5 -73v-2q47 -9 79 -50t32 -97q0 -114 -109 -207.5t-270 -93.5zM416 0h-266l1396 1468h258zM1446 -29q-131 0 -206 58t-75 149q0 79 52.5 147.5t115.5 82.5v4q-67 51 -67 129q0 104 96.5 184t230.5 80q107 0 178.5 -54t71.5 -151q0 -130 -123 -188v-4q43 -13 74 -54.5
t31 -101.5q0 -118 -109.5 -199.5t-269.5 -81.5zM1542 492q36 0 63 27t27 63q0 25 -17 41t-46 16q-37 0 -63.5 -25.5t-26.5 -60.5q0 -26 17.5 -43.5t45.5 -17.5zM1487 172q43 0 73.5 30.5t30.5 71.5q0 33 -19.5 51.5t-53.5 18.5q-44 0 -76.5 -30.5t-32.5 -71.5
q0 -31 22 -50.5t56 -19.5z" />
    <glyph glyph-name="fiveeighths" unicode="&#x215d;" horiz-adv-x="1931" 
d="M371 715q-66 0 -122.5 15.5t-103 58t-57.5 108.5l219 102q24 -90 103 -90q50 0 81 34t31 81q0 38 -21 59t-57 21q-32 0 -60 -19.5t-40 -42.5l-184 43l176 447h469l-33 -184h-305l-57 -134h2q63 52 155 52q83 0 142 -48.5t59 -154.5q0 -146 -114 -247t-283 -101zM418 0
h-266l1396 1468h258zM1448 -29q-131 0 -206 58t-75 149q0 79 52.5 147.5t115.5 82.5v4q-67 51 -67 129q0 104 96.5 184t230.5 80q107 0 178.5 -54t71.5 -151q0 -130 -123 -188v-4q43 -13 74 -54.5t31 -101.5q0 -118 -109.5 -199.5t-269.5 -81.5zM1544 492q36 0 63 27t27 63
q0 25 -17 41t-46 16q-37 0 -63.5 -25.5t-26.5 -60.5q0 -26 17.5 -43.5t45.5 -17.5zM1489 172q43 0 73.5 30.5t30.5 71.5q0 33 -19.5 51.5t-53.5 18.5q-44 0 -76.5 -30.5t-32.5 -71.5q0 -31 22 -50.5t56 -19.5z" />
    <glyph glyph-name="seveneighths" unicode="&#x215e;" horiz-adv-x="1810" 
d="M412 733h-246q17 94 47.5 190.5t94 216t145.5 199.5h-293l33 189h563l-33 -191q-235 -177 -311 -604zM297 0h-266l1396 1468h259zM1327 -29q-131 0 -205.5 57.5t-74.5 149.5q0 79 52 147.5t115 82.5v4q-67 51 -67 129q0 104 96.5 184t231.5 80q107 0 178 -54t71 -151
q0 -130 -122 -188v-4q42 -13 73 -54.5t31 -101.5q0 -118 -109.5 -199.5t-269.5 -81.5zM1423 492q36 0 63 27t27 63q0 25 -17 41t-46 16q-37 0 -63.5 -25.5t-26.5 -60.5q0 -26 17.5 -43.5t45.5 -17.5zM1368 172q43 0 74 30.5t31 71.5q0 33 -20 51.5t-54 18.5
q-44 0 -76.5 -30.5t-32.5 -71.5q0 -31 22 -50.5t56 -19.5z" />
    <glyph glyph-name="arrowleft" unicode="&#x2190;" horiz-adv-x="1380" 
d="M639 236h-266l-269 405l2 8l412 406h266q-67 -66 -105 -101.5t-118.5 -101.5t-171.5 -129q160 17 336 26t283.5 10t300.5 1l-41 -230q-193 0 -300 1t-281 10t-329 26q70 -65 126 -128t84.5 -102t70.5 -101z" />
    <glyph glyph-name="arrowup" unicode="&#x2191;" horiz-adv-x="991" 
d="M514 20h-229q38 208 54.5 298t58 275.5t85.5 340.5q-168 -173 -391 -338l45 266l467 340h8l344 -340l-45 -266q-56 56 -87 89.5t-83 101.5t-102 149q-11 -159 -33.5 -334.5t-40 -281t-51.5 -300.5z" />
    <glyph glyph-name="arrowright" unicode="&#x2192;" horiz-adv-x="1380" 
d="M889 236h-266q72 70 109 103.5t117.5 99t172.5 128.5q-161 -17 -337.5 -26t-284 -10t-300.5 -1l41 230q192 0 299 -1t280 -10t327 -26q-23 20 -44 41t-37.5 37t-35 37t-29 33t-27.5 34t-23.5 30t-23 32t-19.5 28.5t-20.5 30.5t-19.5 29h266l269 -406l-3 -8z" />
    <glyph glyph-name="arrowdown" unicode="&#x2193;" horiz-adv-x="995" 
d="M406 20h-9l-346 340l47 267q56 -55 88.5 -89t84 -101.5t100.5 -147.5q23 337 125 913h229q-39 -212 -55.5 -302.5t-58 -273.5t-85.5 -339q80 82 155 149t121 103t116 88l-48 -267z" />
    <glyph glyph-name="arrowboth" unicode="&#x2194;" horiz-adv-x="1738" 
d="M633 236h-266l-269 405l2 8l412 406h266q-206 -201 -358 -342q483 53 948 0q-189 272 -235 342h266l268 -406l-2 -8l-412 -405h-266q147 141 356 339q-481 -53 -948 0q203 -286 238 -339z" />
    <glyph glyph-name="arrowupdn" unicode="&#x2195;" horiz-adv-x="1060" 
d="M436 10h-8l-350 309l41 238q202 -170 289 -252q17 399 139 793q-177 -131 -379 -267l45 248l459 307h8l352 -307l-45 -248q-190 175 -282 267q-21 -405 -142 -793q87 62 375 252l-41 -238z" />
    <glyph glyph-name="uni2196" unicode="&#x2196;" horiz-adv-x="1224" 
d="M1092 166l-199 -115q-137 164 -197 237t-170 216.5t-198 275.5q-3 -95 -14 -179t-21.5 -130.5t-30.5 -120.5l-174 207l129 467l6 4l576 -61l172 -207q-267 31 -508 96q117 -112 242.5 -248t193.5 -215t193 -227z" />
    <glyph glyph-name="uni2197" unicode="&#x2197;" horiz-adv-x="1114" 
d="M221 51l-198 115q7 8 59 69.5t65.5 76.5t61.5 71t69 79.5t66 73.5t75 82t71.5 76t80.5 83.5t80 78.5q-243 -66 -508 -96l174 207l574 61l6 -4l129 -467l-174 -207q-22 86 -30.5 123.5t-20 125t-13.5 181.5q-89 -132 -196 -272.5t-175 -223t-196 -233.5z" />
    <glyph glyph-name="uni2198" unicode="&#x2198;" horiz-adv-x="1230" 
d="M150 1055l198 114q132 -158 195.5 -235.5t172.5 -219.5t199 -274q2 95 12.5 179t21 130.5t30.5 120.5l174 -206l-129 -467l-6 -4l-576 61l-172 207q267 -31 508 -96q-117 112 -243.5 249.5t-190.5 212t-194 228.5z" />
    <glyph glyph-name="uni2199" unicode="&#x2199;" horiz-adv-x="1114" 
d="M907 1169l199 -114q-125 -149 -193 -227.5t-193 -214.5t-241 -248q242 66 506 96l-172 -207l-573 -61l-9 4l-129 467l174 206q21 -78 31 -121t21.5 -128.5t13.5 -180.5q88 132 198 275.5t170 216.5t197 237z" />
    <glyph glyph-name="emptyset" unicode="&#x2205;" horiz-adv-x="1445" 
d="M1245 1296l154 -112l-160 -180q104 -125 104 -320q0 -138 -55 -268.5t-149.5 -230t-231.5 -160t-291 -60.5q-140 0 -254 51l-159 -180l-150 115l160 180q-109 128 -109 326q0 139 55.5 269.5t150.5 230t231.5 159.5t289.5 60q147 0 259 -56zM406 506q0 -67 26 -127
l449 506q-46 16 -97 16q-155 0 -266.5 -120t-111.5 -275zM1044 635q0 67 -24 123l-447 -504q41 -14 95 -14q103 0 190 56t136.5 146.5t49.5 192.5z" />
    <glyph glyph-name="minus" unicode="&#x2212;" horiz-adv-x="1071" 
d="M944 516h-835l38 221h836z" />
    <glyph glyph-name="infinity" unicode="&#x221e;" horiz-adv-x="1781" 
d="M436 283q-154 0 -239.5 76.5t-85.5 203.5q0 114 68.5 209t169.5 145t206 50q90 0 168.5 -48t198.5 -171q169 126 263 172.5t181 46.5q148 0 235 -78t87 -207q0 -160 -127 -279.5t-314 -119.5q-99 0 -175 46.5t-193 172.5q-152 -125 -244 -172t-199 -47zM479 469
q14 0 27.5 1.5t29 7.5t26 9.5t29.5 15.5t28.5 17t32.5 22t32 24t38 29t40 30q-84 91 -111 113q-53 42 -116 42q-80 0 -139.5 -54.5t-59.5 -127.5q0 -60 40.5 -94.5t102.5 -34.5zM1272 471q77 0 133.5 53.5t56.5 126.5q0 58 -38 92.5t-101 34.5q-58 0 -114 -32.5t-169 -120.5
q36 -38 49 -51.5t42 -39.5t46.5 -35.5t43 -18.5t51.5 -9z" />
    <glyph glyph-name="approxequal" unicode="&#x2248;" horiz-adv-x="1134" 
d="M362 664h-225q27 156 122.5 249t215.5 93q50 0 93 -18t69 -39.5t59.5 -39.5t65.5 -18q84 0 104 108h224q-28 -164 -113 -254t-209 -90q-55 0 -102 19t-73 41.5t-58 41.5t-62 19q-44 0 -74 -34t-37 -78zM281 205h-224q27 156 121.5 248t216.5 92q41 0 76 -11.5t59.5 -28.5
t47.5 -33.5t49 -28t53 -11.5q83 0 106 109h224q-29 -165 -114 -254.5t-210 -89.5q-55 0 -101.5 18.5t-73 41.5t-58 41.5t-60.5 18.5q-44 0 -74 -34t-38 -78z" />
    <glyph glyph-name="notequal" unicode="&#x2260;" horiz-adv-x="1114" 
d="M1051 944l-41 -221h-314q-23 -120 -121 -227h396l-39 -220h-475q0 -8 -1 -17t-2 -16.5t-4.5 -18t-5 -16.5t-6.5 -17.5t-7 -16t-8.5 -17.5t-8 -16.5t-9 -17.5t-8.5 -17h-200q49 103 116 170h-235l39 220h321q9 110 113 227h-395l41 221h473q-2 52 51 148h201
q-20 -35 -28.5 -49.5t-31.5 -44.5t-49 -54h238z" />
    <glyph glyph-name="lessequal" unicode="&#x2264;" horiz-adv-x="1054" 
d="M868 254h-796l34 184h429l-396 168l39 225l821 170l-34 -202l-562 -113l500 -237z" />
    <glyph glyph-name="greaterequal" unicode="&#x2265;" horiz-adv-x="1054" 
d="M872 254h-796l35 195l581 237l-522 113l37 202l762 -170l-39 -225l-453 -168h428z" />
    <glyph glyph-name="lozenge" unicode="&#x25ca;" horiz-adv-x="1134" 
d="M512 0h-90l-305 694l551 692h90l305 -692zM354 694l164 -389h6l301 389l-163 387h-5z" />
    <glyph glyph-name="A.ss01" horiz-adv-x="1574" 
d="M219 0h-317l868 1597h397l303 -1597h-323q-58 258 -49 426l-21 25q-184 -27 -317 -27q-134 0 -309 27l-31 -25q-53 -165 -201 -426zM571 680l15 -21q131 23 221 23t205 -23l20 21q-23 86 -37 152.5t-23.5 150.5t-7 177.5t16.5 201.5h-115q-48 -207 -117 -358.5
t-178 -323.5z" />
    <glyph glyph-name="Aacute.ss01" horiz-adv-x="1574" 
d="M1511 2081l-389 -361h-260l295 361h354zM219 0h-317l868 1597h397l303 -1597h-323q-58 258 -49 426l-21 25q-184 -27 -317 -27q-134 0 -309 27l-31 -25q-53 -165 -201 -426zM571 680l15 -21q131 23 221 23t205 -23l20 21q-23 86 -37 152.5t-23.5 150.5t-7 177.5
t16.5 201.5h-115q-48 -207 -117 -358.5t-178 -323.5z" />
    <glyph glyph-name="Abreve.ss01" horiz-adv-x="1574" 
d="M985 1716q-172 0 -266.5 104t-71.5 261h246q-8 -67 23 -114.5t104 -47.5t123.5 47t64.5 115h244q-31 -157 -162.5 -261t-304.5 -104zM219 0h-317l868 1597h397l303 -1597h-323q-58 258 -49 426l-21 25q-184 -27 -317 -27q-134 0 -309 27l-31 -25q-53 -165 -201 -426z
M571 680l15 -21q131 23 221 23t205 -23l20 21q-23 86 -37 152.5t-23.5 150.5t-7 177.5t16.5 201.5h-115q-48 -207 -117 -358.5t-178 -323.5z" />
    <glyph glyph-name="Acircumflex.ss01" horiz-adv-x="1574" 
d="M827 1720h-266l352 357h279l227 -357h-266q-28 35 -42 56t-27.5 68t-14.5 108h-74q-34 -87 -73.5 -136.5t-94.5 -95.5zM219 0h-317l868 1597h397l303 -1597h-323q-58 258 -49 426l-21 25q-184 -27 -317 -27q-134 0 -309 27l-31 -25q-53 -165 -201 -426zM571 680l15 -21
q131 23 221 23t205 -23l20 21q-23 86 -37 152.5t-23.5 150.5t-7 177.5t16.5 201.5h-115q-48 -207 -117 -358.5t-178 -323.5z" />
    <glyph glyph-name="Adieresis.ss01" horiz-adv-x="1574" 
d="M756 1731q-64 0 -105 40.5t-41 102.5q0 82 62 142.5t145 60.5q63 0 103.5 -40t40.5 -100q0 -79 -61.5 -142.5t-143.5 -63.5zM1223 1731q-65 0 -106.5 40.5t-41.5 102.5q0 81 62.5 142t144.5 61q64 0 104.5 -39.5t40.5 -100.5q0 -79 -61 -142.5t-143 -63.5zM219 0h-317
l868 1597h397l303 -1597h-323q-58 258 -49 426l-21 25q-184 -27 -317 -27q-134 0 -309 27l-31 -25q-53 -165 -201 -426zM571 680l15 -21q131 23 221 23t205 -23l20 21q-23 86 -37 152.5t-23.5 150.5t-7 177.5t16.5 201.5h-115q-48 -207 -117 -358.5t-178 -323.5z" />
    <glyph glyph-name="Agrave.ss01" horiz-adv-x="1574" 
d="M1147 1720h-260l-262 361h354zM219 0h-317l868 1597h397l303 -1597h-323q-58 258 -49 426l-21 25q-184 -27 -317 -27q-134 0 -309 27l-31 -25q-53 -165 -201 -426zM571 680l15 -21q131 23 221 23t205 -23l20 21q-23 86 -37 152.5t-23.5 150.5t-7 177.5t16.5 201.5h-115
q-48 -207 -117 -358.5t-178 -323.5z" />
    <glyph glyph-name="Amacron.ss01" horiz-adv-x="1574" 
d="M1372 1765h-754l39 213h754zM219 0h-317l868 1597h397l303 -1597h-323q-58 258 -49 426l-21 25q-184 -27 -317 -27q-134 0 -309 27l-31 -25q-53 -165 -201 -426zM571 680l15 -21q131 23 221 23t205 -23l20 21q-23 86 -37 152.5t-23.5 150.5t-7 177.5t16.5 201.5h-115
q-48 -207 -117 -358.5t-178 -323.5z" />
    <glyph glyph-name="Aogonek.ss01" horiz-adv-x="1574" 
d="M1159 -178q0 -42 32.5 -72.5t98.5 -30.5q49 0 92 11l-32 -174q-56 -19 -138 -19q-114 0 -192 50.5t-78 144.5q0 88 61.5 158t155.5 110h-12q-58 258 -49 426l-21 25q-184 -27 -317 -27q-134 0 -309 27l-31 -25q-53 -165 -201 -426h-317l868 1597h397l303 -1597h-114
q-95 -16 -146 -69t-51 -109zM1012 659l20 21q-23 86 -37 152.5t-23.5 150.5t-7 177.5t16.5 201.5h-115q-48 -207 -117 -358.5t-178 -323.5l15 -21q131 23 221 23t205 -23z" />
    <glyph glyph-name="Aring.ss01" horiz-adv-x="1574" 
d="M985 1710q-98 0 -159.5 59t-61.5 150q0 114 92 201.5t217 87.5q97 0 158 -57.5t61 -149.5q0 -115 -91 -203t-216 -88zM1006 1847q54 0 93.5 39.5t39.5 91.5q0 39 -25.5 64.5t-66.5 25.5q-52 0 -90.5 -39t-38.5 -92q0 -39 24 -64.5t64 -25.5zM219 0h-317l868 1597h397
l303 -1597h-323q-58 258 -49 426l-21 25q-184 -27 -317 -27q-134 0 -309 27l-31 -25q-53 -165 -201 -426zM571 680l15 -21q131 23 221 23t205 -23l20 21q-23 86 -37 152.5t-23.5 150.5t-7 177.5t16.5 201.5h-115q-48 -207 -117 -358.5t-178 -323.5z" />
    <glyph glyph-name="Atilde.ss01" horiz-adv-x="1574" 
d="M1143 1729q-72 0 -133 45l-52 38q-40 35 -75 35t-58.5 -28t-31.5 -72h-205q26 144 116 230.5t205 86.5q71 0 142 -49l45 -35q35 -26 63 -26q29 0 49.5 26t28.5 70h205q-28 -155 -105.5 -238t-193.5 -83zM219 0h-317l868 1597h397l303 -1597h-323q-58 258 -49 426l-21 25
q-184 -27 -317 -27q-134 0 -309 27l-31 -25q-53 -165 -201 -426zM571 680l15 -21q131 23 221 23t205 -23l20 21q-23 86 -37 152.5t-23.5 150.5t-7 177.5t16.5 201.5h-115q-48 -207 -117 -358.5t-178 -323.5z" />
    <glyph glyph-name="B.ss01" horiz-adv-x="1460" 
d="M733 0h-663l282 1597h668q202 0 312 -93t110 -249q0 -154 -100.5 -266.5t-272.5 -150.5l-6 -39q156 -29 230.5 -96.5t74.5 -196.5q0 -216 -179 -361t-456 -145zM502 907l26 -20q54 24 108.5 36t85.5 13.5t85 1.5q134 0 216.5 58.5t82.5 156.5q0 61 -34.5 99.5t-82 51.5
t-108.5 13q-9 0 -43 -0.5t-46.5 0t-41.5 3t-47 7t-44 14t-51 23.5l-39 -21q17 -201 -67 -436zM381 268l29 -35q122 48 290 48q166 0 255 61t89 162q0 64 -38 104t-90.5 54t-120.5 14q-59 0 -93 1.5t-90.5 13.5t-107.5 36l-39 -20q3 -247 -84 -439z" />
    <glyph glyph-name="C.ss01" horiz-adv-x="1697" 
d="M801 -35q-209 0 -366.5 80.5t-244 233.5t-86.5 360q0 194 76 375.5t205 317t310 217t380 81.5q260 0 432.5 -135.5t214.5 -366.5l-301 -112q-36 149 -136 238t-261 89q-102 0 -195.5 -37t-165.5 -102t-126 -149.5t-82.5 -182t-28.5 -196.5q0 -90 24.5 -163t65.5 -121
t97 -80t116 -46t125 -14q183 0 326 105t229 280l266 -96q-145 -287 -374 -431.5t-500 -144.5z" />
    <glyph glyph-name="D.ss01" horiz-adv-x="1628" 
d="M705 0h-635l282 1597h617q165 0 288 -44t198.5 -126.5t112 -193t36.5 -250.5q0 -150 -41 -294.5t-120 -268.5t-186.5 -218.5t-250 -148t-301.5 -53.5zM381 268l29 -35q97 31 143 39.5t98 8.5q157 0 278.5 48t197 133.5t113.5 197t38 243.5q0 106 -25.5 183.5t-63.5 121
t-95.5 69t-108.5 33t-115 7.5q-106 0 -153.5 7t-108.5 40l-39 -21q0 -562 -188 -1075z" />
    <glyph glyph-name="E.ss01" horiz-adv-x="1327" 
d="M1135 0h-1065l282 1597h1045l-51 -280q-166 0 -243.5 1t-222.5 12t-272 34l-39 -21q10 -108 -5.5 -207t-61.5 -223l18 -20q131 31 271 46t220 17t230 2l-53 -294q-150 0 -229.5 2t-212.5 18t-250 49l-29 -20q0 -135 -19.5 -237.5t-66.5 -207.5l29 -35q138 23 285 34.5
t240.5 13.5t248.5 2z" />
    <glyph glyph-name="F.ss01" horiz-adv-x="1267" 
d="M373 0h-303l282 1597h1026l-49 -282q-153 0 -237.5 1.5t-222.5 13t-261 34.5l-39 -21q11 -122 -8.5 -228.5t-77.5 -235.5l19 -21q134 32 273 47.5t220.5 18t223.5 2.5l-54 -297q-148 0 -226.5 2t-211.5 17.5t-250 47.5l-31 -20q-2 -276 -73 -676z" />
    <glyph glyph-name="G.ss01" horiz-adv-x="1732" 
d="M797 -35q-325 0 -510 176t-185 484q0 195 75.5 378.5t204 321.5t310 221.5t381.5 83.5q263 0 437.5 -138t213.5 -364l-303 -112q-36 150 -135.5 238.5t-259.5 88.5q-126 0 -239 -57t-191.5 -149.5t-124 -212.5t-45.5 -244q0 -209 121.5 -318.5t324.5 -109.5
q163 0 309.5 87.5t288.5 283.5l-26 34q-101 -34 -196 -51.5t-153.5 -21t-160.5 -4.5l45 247h725l-16 -92q-67 -363 -304.5 -566.5t-586.5 -203.5z" />
    <glyph glyph-name="H.ss01" horiz-adv-x="1660" 
d="M373 0h-303l282 1597h303q-29 -160 -42.5 -231t-44.5 -203.5t-66 -251.5l28 -22q202 48 370.5 48.5t344.5 -48.5l37 22q15 281 88 686h305l-282 -1597h-306q69 394 154 674l-35 20q-187 -51 -355.5 -50.5t-352.5 50.5l-39 -20q-6 -123 -20.5 -250.5t-27 -202
t-38.5 -221.5z" />
    <glyph glyph-name="I.ss01" horiz-adv-x="1187" 
d="M1004 0h-1020l49 281q80 0 124.5 -1t118 -9.5t142.5 -24.5q53 571 196 1106q-77 -16 -155.5 -24.5t-124.5 -9.5t-127 -1l49 280h1040l-51 -280q-81 0 -127 1t-122 9.5t-146 24.5q-50 -556 -197 -1106q76 16 153 24.5t122 9.5t125 1z" />
    <glyph glyph-name="Iacute.ss01" horiz-adv-x="1187" 
d="M1227 2081l-389 -361h-260l294 361h355zM1004 0h-1020l49 281q80 0 124.5 -1t118 -9.5t142.5 -24.5q53 571 196 1106q-77 -16 -155.5 -24.5t-124.5 -9.5t-127 -1l49 280h1040l-51 -280q-81 0 -127 1t-122 9.5t-146 24.5q-50 -556 -197 -1106q76 16 153 24.5t122 9.5
t125 1z" />
    <glyph glyph-name="Icircumflex.ss01" horiz-adv-x="1187" 
d="M639 1720h-266l352 357h279l227 -357h-266q-28 35 -42 56t-27.5 68t-14.5 108h-74q-34 -87 -73.5 -136.5t-94.5 -95.5zM1004 0h-1020l49 281q80 0 124.5 -1t118 -9.5t142.5 -24.5q53 571 196 1106q-77 -16 -155.5 -24.5t-124.5 -9.5t-127 -1l49 280h1040l-51 -280
q-81 0 -127 1t-122 9.5t-146 24.5q-50 -556 -197 -1106q76 16 153 24.5t122 9.5t125 1z" />
    <glyph glyph-name="Idieresis.ss01" horiz-adv-x="1187" 
d="M567 1731q-64 0 -104.5 40.5t-40.5 102.5q0 82 62 142.5t145 60.5q63 0 103 -40t40 -100q0 -79 -61.5 -142.5t-143.5 -63.5zM1034 1731q-65 0 -106 40.5t-41 102.5q0 81 62.5 142t144.5 61q64 0 104.5 -39.5t40.5 -100.5q0 -79 -61.5 -142.5t-143.5 -63.5zM1004 0h-1020
l49 281q80 0 124.5 -1t118 -9.5t142.5 -24.5q53 571 196 1106q-77 -16 -155.5 -24.5t-124.5 -9.5t-127 -1l49 280h1040l-51 -280q-81 0 -127 1t-122 9.5t-146 24.5q-50 -556 -197 -1106q76 16 153 24.5t122 9.5t125 1z" />
    <glyph glyph-name="Idotaccent.ss01" horiz-adv-x="1187" 
d="M803 1755q-66 0 -108 41.5t-42 106.5q0 82 64 144t149 62q66 0 107 -41t41 -104q0 -82 -63.5 -145.5t-147.5 -63.5zM1004 0h-1020l49 281q80 0 124.5 -1t118 -9.5t142.5 -24.5q53 571 196 1106q-77 -16 -155.5 -24.5t-124.5 -9.5t-127 -1l49 280h1040l-51 -280
q-81 0 -127 1t-122 9.5t-146 24.5q-50 -556 -197 -1106q76 16 153 24.5t122 9.5t125 1z" />
    <glyph glyph-name="Igrave.ss01" horiz-adv-x="1187" 
d="M958 1720h-260l-262 361h355zM1004 0h-1020l49 281q80 0 124.5 -1t118 -9.5t142.5 -24.5q53 571 196 1106q-77 -16 -155.5 -24.5t-124.5 -9.5t-127 -1l49 280h1040l-51 -280q-81 0 -127 1t-122 9.5t-146 24.5q-50 -556 -197 -1106q76 16 153 24.5t122 9.5t125 1z" />
    <glyph glyph-name="Imacron.ss01" horiz-adv-x="1187" 
d="M1182 1765h-754l39 213h754zM1004 0h-1020l49 281q80 0 124.5 -1t118 -9.5t142.5 -24.5q53 571 196 1106q-77 -16 -155.5 -24.5t-124.5 -9.5t-127 -1l49 280h1040l-51 -280q-81 0 -127 1t-122 9.5t-146 24.5q-50 -556 -197 -1106q76 16 153 24.5t122 9.5t125 1z" />
    <glyph glyph-name="J.ss01" horiz-adv-x="1290" 
d="M510 -35q-122 0 -220 34.5t-165.5 104t-92 173.5t0.5 243l8 51l309 41l-10 -47q-29 -148 28 -230.5t177 -82.5q226 0 289 311q119 590 184 811l-14 35q-315 -92 -594 -92l49 280h860l-174 -987q-10 -53 -17.5 -88.5t-30.5 -109.5t-50.5 -126t-77.5 -117t-111 -106
t-151 -69.5t-197 -28.5z" />
    <glyph glyph-name="K.ss01" horiz-adv-x="1470" 
d="M373 0h-303l282 1597h303q-7 -37 -25 -140.5t-29 -163t-34.5 -155t-50.5 -180.5h35q275 264 719 639h403q-62 -49 -423.5 -340.5t-557.5 -447.5l-6 -35q97 -89 200.5 -197.5t169.5 -183t178.5 -205.5t162.5 -188h-420q-7 8 -62.5 70.5t-67 76t-59 70t-64 80.5t-55 77.5
t-60 92.5t-49.5 92.5t-52 108.5h-33q-43 -348 -102 -668z" />
    <glyph glyph-name="L.ss01" horiz-adv-x="1196" 
d="M1075 0h-1005l282 1597h303q-52 -297 -80.5 -450.5t-83 -409t-110.5 -469.5l29 -35q125 23 261 34.5t223 13.5t230 2z" />
    <glyph glyph-name="M.ss01" horiz-adv-x="2019" 
d="M379 0h-309l282 1597h365q68 -187 107 -301t89.5 -302.5t79.5 -368.5h54q93 179 208 365t198.5 306.5t213.5 300.5h365l-283 -1597h-309q12 68 42 243t49 278t54 263.5t74 302.5h-37l-563 -815h-203l-276 815h-37q-12 -144 -33 -304.5t-37.5 -256t-49.5 -280t-44 -246.5z
" />
    <glyph glyph-name="N.ss01" horiz-adv-x="1671" 
d="M373 0h-303l282 1597h330q107 -227 159 -341t146 -345.5t170 -457.5h57q53 512 166 1144h303l-282 -1597h-330q-107 227 -164 352.5t-145.5 345t-165.5 445.5h-57q-24 -228 -56 -458t-50 -336.5t-60 -348.5z" />
    <glyph glyph-name="O.ss01" horiz-adv-x="1771" 
d="M780 -35q-196 0 -349.5 82t-241 236.5t-87.5 355.5q0 126 35 251t98 233.5t153 202.5t196 161t231.5 105t255.5 38q301 0 489.5 -187t188.5 -491q0 -190 -78 -370.5t-208 -316t-310 -218t-373 -82.5zM831 252q159 0 296.5 93.5t216.5 244.5t79 317q0 194 -109 315
t-290 121q-158 0 -297 -93.5t-220 -245t-81 -318.5q0 -196 112.5 -315t292.5 -119z" />
    <glyph glyph-name="P.ss01" horiz-adv-x="1384" 
d="M373 0h-303l282 1597h617q28 0 50.5 -1t75 -8.5t93 -21.5t91 -44.5t83.5 -71.5t56.5 -108t23.5 -150q0 -93 -27 -181.5t-82.5 -166.5t-134 -137t-189.5 -93t-241 -34q-60 0 -98 2.5t-101 18.5t-118 48q-10 -267 -78 -649zM479 811l31 -18q107 65 256 65q152 0 251 68
t99 200q0 59 -21 99t-60.5 59t-80 26t-94.5 7t-84 1.5t-78.5 12.5t-89.5 33l-39 -21q4 -139 -17 -263t-73 -269z" />
    <glyph glyph-name="Q.ss01" horiz-adv-x="1775" 
d="M479 -205l-8 -37q188 40 373.5 60.5t301.5 24t310 3.5l-47 -262h-1477q228 228 488 469q-149 83 -232.5 232t-83.5 344q0 133 35.5 262t99.5 239t154.5 203t197 158.5t231 102t253.5 36.5q300 0 489 -184.5t189 -482.5q0 -198 -78.5 -382.5t-209.5 -319t-310.5 -215.5
t-372.5 -81q-44 0 -67 2q-77 -64 -236 -172zM1028 1343q-160 0 -298.5 -91t-220 -244.5t-81.5 -329.5q0 -192 112.5 -309t293.5 -117q158 0 295 90.5t217.5 243.5t80.5 329q0 191 -108 309.5t-291 118.5z" />
    <glyph glyph-name="R.ss01" horiz-adv-x="1433" 
d="M373 0h-303l282 1597h617q31 0 63.5 -2.5t81 -13t91 -28t87 -50t76 -76t52 -109.5t20.5 -147q0 -115 -40.5 -209t-103.5 -154t-151 -104t-171.5 -65.5t-176.5 -32.5q30 -33 63.5 -71t60.5 -69t65 -77t60.5 -73t66 -80.5t61 -75.5t66 -82t63.5 -78h-359q-101 123 -165 205
t-152.5 212.5t-153.5 252.5h-18q-14 -287 -82 -670zM477 795l29 -21q68 32 129.5 41.5t138.5 9.5q144 1 242 86.5t98 208.5q0 46 -16.5 82.5t-42 58.5t-60 36t-66 19t-63.5 5q-54 0 -84 1.5t-79 11.5t-95 30l-39 -21q11 -266 -92 -548z" />
    <glyph glyph-name="S.ss01" horiz-adv-x="1337" 
d="M580 -35q-236 0 -384 124t-165 349l301 97q16 -156 97.5 -224.5t197.5 -68.5q129 0 215 65t86 158q0 35 -15.5 64t-34 46.5t-57 35.5t-60 25.5t-67.5 22.5l-135 43q-51 16 -89.5 32t-91.5 48.5t-88 70.5t-60 98.5t-25 133.5q0 104 48 203t131 174.5t203.5 121.5t256.5 46
q113 0 206 -32t152.5 -85t94 -118.5t40.5 -137.5l-299 -112q-19 99 -81 154t-164 55q-108 0 -183 -57.5t-75 -137.5q0 -33 15 -61.5t36 -48t56.5 -38t63 -29t68.5 -24.5l160 -53q31 -10 44 -15t46 -18t50 -22.5t46.5 -28t46.5 -36t38 -43.5t32 -54t19 -64t8 -77
q0 -109 -50.5 -213.5t-138 -186.5t-217.5 -132t-278 -50z" />
    <glyph glyph-name="U.ss01" horiz-adv-x="1542" 
d="M582 -35q-99 0 -176 28.5t-123 74t-76.5 107.5t-42 123t-14 127.5t2 113.5t11.5 88l170 970h305l-166 -946q-8 -40 -10.5 -80t0 -87.5t17.5 -87t39.5 -73t69.5 -52.5t105 -19q72 0 134.5 28t104.5 70.5t75 98t50.5 105t26.5 97.5l166 946h303l-282 -1597h-287
q17 100 80 262h-37q-76 -153 -179.5 -225t-266.5 -72z" />
    <glyph glyph-name="Uacute.ss01" horiz-adv-x="1542" 
d="M1358 2081l-389 -361h-260l295 361h354zM582 -35q-99 0 -176 28.5t-123 74t-76.5 107.5t-42 123t-14 127.5t2 113.5t11.5 88l170 970h305l-166 -946q-8 -40 -10.5 -80t0 -87.5t17.5 -87t39.5 -73t69.5 -52.5t105 -19q72 0 134.5 28t104.5 70.5t75 98t50.5 105t26.5 97.5
l166 946h303l-282 -1597h-287q17 100 80 262h-37q-76 -153 -179.5 -225t-266.5 -72z" />
    <glyph glyph-name="Ucircumflex.ss01" horiz-adv-x="1542" 
d="M797 1720h-267l353 357h278l228 -357h-267q-28 35 -42 56t-27.5 68t-14.5 108h-73q-34 -87 -73.5 -136.5t-94.5 -95.5zM582 -35q-99 0 -176 28.5t-123 74t-76.5 107.5t-42 123t-14 127.5t2 113.5t11.5 88l170 970h305l-166 -946q-8 -40 -10.5 -80t0 -87.5t17.5 -87
t39.5 -73t69.5 -52.5t105 -19q72 0 134.5 28t104.5 70.5t75 98t50.5 105t26.5 97.5l166 946h303l-282 -1597h-287q17 100 80 262h-37q-76 -153 -179.5 -225t-266.5 -72z" />
    <glyph glyph-name="Udieresis.ss01" horiz-adv-x="1542" 
d="M725 1731q-64 0 -104.5 40.5t-40.5 102.5q0 82 61.5 142.5t144.5 60.5q63 0 103.5 -40t40.5 -100q0 -79 -61.5 -142.5t-143.5 -63.5zM1192 1731q-65 0 -106.5 40.5t-41.5 102.5q0 81 62.5 142t144.5 61q64 0 105 -40t41 -100q0 -79 -61.5 -142.5t-143.5 -63.5zM582 -35
q-99 0 -176 28.5t-123 74t-76.5 107.5t-42 123t-14 127.5t2 113.5t11.5 88l170 970h305l-166 -946q-8 -40 -10.5 -80t0 -87.5t17.5 -87t39.5 -73t69.5 -52.5t105 -19q72 0 134.5 28t104.5 70.5t75 98t50.5 105t26.5 97.5l166 946h303l-282 -1597h-287q17 100 80 262h-37
q-76 -153 -179.5 -225t-266.5 -72z" />
    <glyph glyph-name="Ugrave.ss01" horiz-adv-x="1542" 
d="M1116 1720h-260l-262 361h354zM582 -35q-99 0 -176 28.5t-123 74t-76.5 107.5t-42 123t-14 127.5t2 113.5t11.5 88l170 970h305l-166 -946q-8 -40 -10.5 -80t0 -87.5t17.5 -87t39.5 -73t69.5 -52.5t105 -19q72 0 134.5 28t104.5 70.5t75 98t50.5 105t26.5 97.5l166 946
h303l-282 -1597h-287q17 100 80 262h-37q-76 -153 -179.5 -225t-266.5 -72z" />
    <glyph glyph-name="Uhungarumlaut.ss01" horiz-adv-x="1542" 
d="M1198 2079l-371 -359h-249l280 359h340zM1667 2079l-377 -359h-250l285 359h342zM582 -35q-99 0 -176 28.5t-123 74t-76.5 107.5t-42 123t-14 127.5t2 113.5t11.5 88l170 970h305l-166 -946q-8 -40 -10.5 -80t0 -87.5t17.5 -87t39.5 -73t69.5 -52.5t105 -19
q72 0 134.5 28t104.5 70.5t75 98t50.5 105t26.5 97.5l166 946h303l-282 -1597h-287q17 100 80 262h-37q-76 -153 -179.5 -225t-266.5 -72z" />
    <glyph glyph-name="Umacron.ss01" horiz-adv-x="1542" 
d="M1341 1765h-753l39 213h753zM582 -35q-99 0 -176 28.5t-123 74t-76.5 107.5t-42 123t-14 127.5t2 113.5t11.5 88l170 970h305l-166 -946q-8 -40 -10.5 -80t0 -87.5t17.5 -87t39.5 -73t69.5 -52.5t105 -19q72 0 134.5 28t104.5 70.5t75 98t50.5 105t26.5 97.5l166 946h303
l-282 -1597h-287q17 100 80 262h-37q-76 -153 -179.5 -225t-266.5 -72z" />
    <glyph glyph-name="Uogonek.ss01" horiz-adv-x="1542" 
d="M1272 0h-47q-95 -16 -146 -69t-51 -109q0 -42 32.5 -72.5t98.5 -30.5q49 0 92 11l-32 -174q-56 -19 -138 -19q-114 0 -192 50.5t-78 144.5q0 88 61.5 158t155.5 110h-43q17 100 80 262h-37q-76 -153 -179.5 -225t-266.5 -72q-99 0 -176 28.5t-123 74t-76.5 107.5t-42 123
t-14 127.5t2 113.5t11.5 88l170 970h305l-166 -946q-8 -40 -10.5 -80t0 -87.5t17.5 -87t39.5 -73t69.5 -52.5t105 -19q72 0 134.5 28t104.5 70.5t75 98t50.5 105t26.5 97.5l166 946h303z" />
    <glyph glyph-name="Uring.ss01" horiz-adv-x="1542" 
d="M954 1710q-98 0 -159.5 59t-61.5 150q0 114 92 201.5t217 87.5q97 0 158.5 -57.5t61.5 -149.5q0 -115 -91.5 -203t-216.5 -88zM975 1847q53 0 93 39.5t40 91.5q0 39 -25.5 64.5t-66.5 25.5q-52 0 -90.5 -39t-38.5 -92q0 -39 24 -64.5t64 -25.5zM582 -35q-99 0 -176 28.5
t-123 74t-76.5 107.5t-42 123t-14 127.5t2 113.5t11.5 88l170 970h305l-166 -946q-8 -40 -10.5 -80t0 -87.5t17.5 -87t39.5 -73t69.5 -52.5t105 -19q72 0 134.5 28t104.5 70.5t75 98t50.5 105t26.5 97.5l166 946h303l-282 -1597h-287q17 100 80 262h-37
q-76 -153 -179.5 -225t-266.5 -72z" />
    <glyph glyph-name="V.ss01" horiz-adv-x="1583" 
d="M889 0h-408l-297 1597h320q119 -630 219 -1237h63q412 790 658 1237h319z" />
    <glyph glyph-name="W.ss01" horiz-adv-x="2367" 
d="M754 0h-383l-174 1597h348l63 -1167h35l494 1167h465l77 -1167h35l475 1167h346l-737 -1597h-379l-63 1282h-86z" />
    <glyph glyph-name="Wacute.ss01" horiz-adv-x="2367" 
d="M1913 2081l-389 -361h-260l295 361h354zM754 0h-383l-174 1597h348l63 -1167h35l494 1167h465l77 -1167h35l475 1167h346l-737 -1597h-379l-63 1282h-86z" />
    <glyph glyph-name="Wcircumflex.ss01" horiz-adv-x="2367" 
d="M1229 1720h-266l352 357h278l228 -357h-267q-28 35 -42 56t-27.5 68t-14.5 108h-73q-34 -87 -73.5 -136.5t-94.5 -95.5zM754 0h-383l-174 1597h348l63 -1167h35l494 1167h465l77 -1167h35l475 1167h346l-737 -1597h-379l-63 1282h-86z" />
    <glyph glyph-name="Wdieresis.ss01" horiz-adv-x="2367" 
d="M1157 1731q-64 0 -104.5 40.5t-40.5 102.5q0 82 62 142.5t145 60.5q63 0 103 -40t40 -100q0 -79 -61.5 -142.5t-143.5 -63.5zM1624 1731q-65 0 -106 40.5t-41 102.5q0 81 62 142t144 61q64 0 105 -40t41 -100q0 -79 -61.5 -142.5t-143.5 -63.5zM754 0h-383l-174 1597h348
l63 -1167h35l494 1167h465l77 -1167h35l475 1167h346l-737 -1597h-379l-63 1282h-86z" />
    <glyph glyph-name="Wgrave.ss01" horiz-adv-x="2367" 
d="M1548 1720h-260l-262 361h354zM754 0h-383l-174 1597h348l63 -1167h35l494 1167h465l77 -1167h35l475 1167h346l-737 -1597h-379l-63 1282h-86z" />
    <glyph glyph-name="X.ss01" horiz-adv-x="1470" 
d="M240 0h-342l661 797l6 37l-385 763h342q125 -270 258 -636h54q38 51 116.5 157.5t118.5 160t110 142.5t142 176h330l-652 -763l-6 -37l377 -797h-332q-171 371 -260 645h-53q-18 -25 -69 -96t-68 -94t-58.5 -80t-65.5 -88.5t-63 -82.5t-77.5 -99.5t-83.5 -104.5z" />
    <glyph glyph-name="Y.ss01" horiz-adv-x="1472" 
d="M506 0h-330q3 5 39.5 52.5t43.5 57t40.5 54t45.5 59.5t43.5 55t48.5 60.5t46 56t51 61t49.5 56.5t53.5 59q-179 371 -430 1026h332q67 -184 95 -263.5t71 -229t71 -293.5h41q79 145 177 296t163 241.5t182 248.5h328z" />
    <glyph glyph-name="Yacute.ss01" horiz-adv-x="1472" 
d="M1401 2081l-389 -361h-260l295 361h354zM506 0h-330q3 5 39.5 52.5t43.5 57t40.5 54t45.5 59.5t43.5 55t48.5 60.5t46 56t51 61t49.5 56.5t53.5 59q-179 371 -430 1026h332q67 -184 95 -263.5t71 -229t71 -293.5h41q79 145 177 296t163 241.5t182 248.5h328z" />
    <glyph glyph-name="Ycircumflex.ss01" horiz-adv-x="1472" 
d="M797 1720h-267l353 357h278l228 -357h-267q-28 35 -42 56t-27.5 68t-14.5 108h-73q-34 -87 -73.5 -136.5t-94.5 -95.5zM506 0h-330q3 5 39.5 52.5t43.5 57t40.5 54t45.5 59.5t43.5 55t48.5 60.5t46 56t51 61t49.5 56.5t53.5 59q-179 371 -430 1026h332q67 -184 95 -263.5
t71 -229t71 -293.5h41q79 145 177 296t163 241.5t182 248.5h328z" />
    <glyph glyph-name="Ydieresis.ss01" horiz-adv-x="1472" 
d="M725 1731q-64 0 -104.5 40.5t-40.5 102.5q0 82 61.5 142.5t144.5 60.5q63 0 103.5 -40t40.5 -100q0 -79 -61.5 -142.5t-143.5 -63.5zM1192 1731q-65 0 -106.5 40.5t-41.5 102.5q0 81 62.5 142t144.5 61q64 0 105 -40t41 -100q0 -79 -61.5 -142.5t-143.5 -63.5zM506 0
h-330q3 5 39.5 52.5t43.5 57t40.5 54t45.5 59.5t43.5 55t48.5 60.5t46 56t51 61t49.5 56.5t53.5 59q-179 371 -430 1026h332q67 -184 95 -263.5t71 -229t71 -293.5h41q79 145 177 296t163 241.5t182 248.5h328z" />
    <glyph glyph-name="Ygrave.ss01" horiz-adv-x="1472" 
d="M1116 1720h-260l-262 361h354zM506 0h-330q3 5 39.5 52.5t43.5 57t40.5 54t45.5 59.5t43.5 55t48.5 60.5t46 56t51 61t49.5 56.5t53.5 59q-179 371 -430 1026h332q67 -184 95 -263.5t71 -229t71 -293.5h41q79 145 177 296t163 241.5t182 248.5h328z" />
    <glyph glyph-name="Z.ss01" horiz-adv-x="1433" 
d="M1249 0h-1364q52 60 324.5 375.5t458 527t383.5 430.5l-9 45q-140 -29 -291.5 -44t-242.5 -17t-252 -2l51 282h1299q-40 -47 -200 -234t-235 -274t-211.5 -245t-259 -296.5t-249.5 -279.5l10 -49q146 29 306 44t260.5 17.5t270.5 2.5z" />
    <glyph glyph-name="Zacute.ss01" horiz-adv-x="1433" 
d="M1446 2081l-389 -361h-260l295 361h354zM1249 0h-1364q52 60 324.5 375.5t458 527t383.5 430.5l-9 45q-140 -29 -291.5 -44t-242.5 -17t-252 -2l51 282h1299q-40 -47 -200 -234t-235 -274t-211.5 -245t-259 -296.5t-249.5 -279.5l10 -49q146 29 306 44t260.5 17.5
t270.5 2.5z" />
    <glyph glyph-name="Zcaron.ss01" horiz-adv-x="1433" 
d="M1065 1720h-289l-223 357h266q28 -35 42 -56t28 -68t16 -108h74q33 87 72 136t96 96h266zM1249 0h-1364q52 60 324.5 375.5t458 527t383.5 430.5l-9 45q-140 -29 -291.5 -44t-242.5 -17t-252 -2l51 282h1299q-40 -47 -200 -234t-235 -274t-211.5 -245t-259 -296.5
t-249.5 -279.5l10 -49q146 29 306 44t260.5 17.5t270.5 2.5z" />
    <glyph glyph-name="Zdotaccent.ss01" horiz-adv-x="1433" 
d="M942 1755q-66 0 -107.5 41.5t-41.5 106.5q0 82 64 144t149 62q66 0 106.5 -40.5t40.5 -104.5q0 -82 -63.5 -145.5t-147.5 -63.5zM1249 0h-1364q52 60 324.5 375.5t458 527t383.5 430.5l-9 45q-140 -29 -291.5 -44t-242.5 -17t-252 -2l51 282h1299q-40 -47 -200 -234
t-235 -274t-211.5 -245t-259 -296.5t-249.5 -279.5l10 -49q146 29 306 44t260.5 17.5t270.5 2.5z" />
    <glyph glyph-name="Q.ss02" horiz-adv-x="1769" 
d="M1749 952q0 -229 -108 -438.5t-304.5 -354.5t-439.5 -182q1 -10 1.5 -21t0.5 -19.5t-2 -22.5t-2.5 -20.5t-4.5 -24t-5 -23t-6.5 -26.5t-6.5 -27q96 25 197.5 37t162 14t167.5 2l-45 -262q-171 0 -264 1t-230 9.5t-237 24.5q14 215 55 356q-263 36 -420.5 213.5
t-157.5 452.5q0 189 78 370t208 317t310.5 219t374.5 83q197 0 351 -83.5t240.5 -238.5t86.5 -356zM944 258q215 75 346 252.5t131 394.5q0 195 -109 316.5t-290 121.5q-157 0 -295.5 -93t-219.5 -244t-81 -318q0 -159 79.5 -270t229.5 -162q-4 71 1.5 147.5t11.5 118.5
t20 125h289q-16 -85 -25.5 -129.5t-32.5 -119t-55 -140.5z" />
    <glyph glyph-name="A.ss07" 
d="M866 -315q-355 0 -573.5 210t-218.5 549q0 140 40.5 279t112.5 260t176 225.5t226.5 178.5t268 116.5t296.5 42.5q228 0 408 -91.5t284.5 -267t104.5 -407.5q0 -213 -90 -414t-240.5 -350.5t-359.5 -240t-435 -90.5zM1008 1096l-535 -963h203q95 164 125 256l10 10
q107 -14 182 -14q82 0 185 14l8 -8q-4 -89 31 -258h210l-196 963h-223zM895 543l-4 4q122 181 182 381h29q-8 -205 45 -381l-4 -4q-82 12 -121 12q-33 0 -127 -12z" />
    <glyph glyph-name="B.ss07" 
d="M866 -315q-355 0 -573.5 210t-218.5 549q0 140 40.5 279t112.5 260t176 225.5t226.5 178.5t268 116.5t296.5 42.5q228 0 408 -91.5t284.5 -267t104.5 -407.5q0 -213 -90 -414t-240.5 -350.5t-359.5 -240t-435 -90.5zM786 1096l-170 -963h402q166 0 275.5 89t109.5 220
q0 75 -44 118.5t-136 62.5l2 10q104 25 163.5 93t59.5 159q0 100 -69 155.5t-187 55.5h-406zM901 676l-10 6q50 138 39 252l14 8q15 -8 30.5 -14t26 -9t27.5 -4.5t24 -2t26 0t24 0.5q129 0 129 -90q0 -56 -47.5 -87t-126.5 -31q-90 0 -156 -29zM831 289l-12 14
q51 119 51 252l13 8q57 -28 159 -28q154 0 154 -97q0 -59 -52.5 -91t-154.5 -32q-71 0 -158 -26z" />
    <glyph glyph-name="C.ss07" 
d="M866 -315q-355 0 -573.5 210t-218.5 549q0 140 40.5 279t112.5 260t176 225.5t226.5 178.5t268 116.5t296.5 42.5q228 0 408 -91.5t284.5 -267t104.5 -407.5q0 -213 -90 -414t-240.5 -350.5t-359.5 -240t-435 -90.5zM961 113q173 0 311 92t219 264l-170 59
q-53 -106 -136.5 -167.5t-189.5 -61.5q-47 0 -89 13t-78 40.5t-57 77t-21 115.5q0 154 101.5 269.5t246.5 115.5q181 0 227 -197l195 74q-24 144 -132 226.5t-264 82.5q-158 0 -293 -83.5t-212.5 -221t-77.5 -293.5q0 -186 114 -295.5t306 -109.5z" />
    <glyph glyph-name="D.ss07" 
d="M866 -315q-355 0 -573.5 210t-218.5 549q0 140 40.5 279t112.5 260t176 225.5t226.5 178.5t268 116.5t296.5 42.5q228 0 408 -91.5t284.5 -267t104.5 -407.5q0 -213 -90 -414t-240.5 -350.5t-359.5 -240t-435 -90.5zM752 1096l-170 -963h385q120 0 223.5 50.5t172 133.5
t107.5 190t39 220q0 180 -99.5 274.5t-285.5 94.5h-372zM797 289l-13 14q111 307 111 631l14 8q35 -19 64 -24t88 -5q37 0 66 -4t62.5 -18t56 -37.5t37.5 -67t15 -102.5q0 -156 -88 -262.5t-231 -106.5q-117 0 -182 -26z" />
    <glyph glyph-name="E.ss07" 
d="M866 -315q-355 0 -573.5 210t-218.5 549q0 140 40.5 279t112.5 260t176 225.5t226.5 178.5t268 116.5t296.5 42.5q228 0 408 -91.5t284.5 -267t104.5 -407.5q0 -213 -90 -414t-240.5 -350.5t-359.5 -240t-435 -90.5zM799 1096l-170 -963h647l33 184q-101 0 -150.5 -0.5
t-140 -7.5t-172.5 -20l-12 14q52 122 49 256l14 8q69 -19 147.5 -28.5t127.5 -11t139 -1.5l35 191q-98 0 -141.5 -1t-128.5 -10t-161 -28l-10 8q49 134 37 248l16 8q76 -14 165 -21t131.5 -7.5t146.5 -0.5l33 183h-635z" />
    <glyph glyph-name="F.ss07" 
d="M866 -315q-355 0 -573.5 210t-218.5 549q0 140 40.5 279t112.5 260t176 225.5t226.5 178.5t268 116.5t296.5 42.5q228 0 408 -91.5t284.5 -267t104.5 -407.5q0 -213 -90 -414t-240.5 -350.5t-359.5 -240t-435 -90.5zM823 1096l-170 -963h197q2 9 7 40t6.5 41t6 37.5t6 39
t5 37t4.5 40.5t3.5 38.5t3.5 42.5t2 42.5t1 47.5l14 8q69 -19 147 -28.5t127 -11t136 -1.5l35 190q-95 0 -138 -1t-127.5 -10t-162.5 -28l-8 9q63 141 49 268l16 8q74 -14 156.5 -21.5t133.5 -8.5t142 -1l33 185h-625z" />
    <glyph glyph-name="G.ss07" 
d="M866 -315q-355 0 -573.5 210t-218.5 549q0 140 40.5 279t112.5 260t176 225.5t226.5 178.5t268 116.5t296.5 42.5q228 0 408 -91.5t284.5 -267t104.5 -407.5q0 -213 -90 -414t-240.5 -350.5t-359.5 -240t-435 -90.5zM936 113q116 0 202.5 50.5t161.5 162.5l17 -4
q-19 -38 -30 -71t-14 -45.5t-6 -41t-3 -31.5h153l90 508h-448l-29 -166q1 0 30 0.5t35.5 1t34 2t40 3t38 5.5t43.5 8.5t42 11t46 15.5l11 -12q-152 -211 -346 -211q-38 0 -72.5 7.5t-68.5 25.5t-59 45.5t-40.5 71t-15.5 98.5q0 153 102.5 268t245.5 115q89 0 147 -50
t80 -147l197 74q-24 144 -132 226.5t-264 82.5q-159 0 -294 -84.5t-212 -223t-77 -294.5q0 -183 107 -292t288 -109z" />
    <glyph glyph-name="H.ss07" 
d="M866 -315q-355 0 -573.5 210t-218.5 549q0 140 40.5 279t112.5 260t176 225.5t226.5 178.5t268 116.5t296.5 42.5q228 0 408 -91.5t284.5 -267t104.5 -407.5q0 -213 -90 -414t-240.5 -350.5t-359.5 -240t-435 -90.5zM717 1096l-170 -963h196q3 17 12 71.5t12.5 80t10 72
t10.5 89.5t7 91l14 8q210 -56 418 0l12 -8q-43 -149 -88 -404h197l170 963h-197q-47 -257 -55 -410l-13 -8q-197 53 -422 0l-12 8q12 38 22.5 78t17.5 67t16.5 72t12.5 61.5t13 69t12 62.5h-196z" />
    <glyph glyph-name="I.ss07" 
d="M866 -315q-355 0 -573.5 210t-218.5 549q0 140 40.5 279t112.5 260t176 225.5t226.5 178.5t268 116.5t296.5 42.5q228 0 408 -91.5t284.5 -267t104.5 -407.5q0 -213 -90 -414t-240.5 -350.5t-359.5 -240t-435 -90.5zM1022 1096l-170 -963h197l170 963h-197z" />
    <glyph glyph-name="J.ss07" 
d="M866 -315q-355 0 -573.5 210t-218.5 549q0 140 40.5 279t112.5 260t176 225.5t226.5 178.5t268 116.5t296.5 42.5q228 0 408 -91.5t284.5 -267t104.5 -407.5q0 -213 -90 -414t-240.5 -350.5t-359.5 -240t-435 -90.5zM920 123q65 0 120 17.5t92 42t68 65t47.5 72t31 78.5
t19 68.5t11.5 57.5l102 582h-197l-106 -610q-33 -187 -162 -187q-67 0 -101 44.5t-18 129.5l9 41l-199 -26l-8 -41q-29 -157 52.5 -245.5t238.5 -88.5z" />
    <glyph glyph-name="K.ss07" 
d="M866 -315q-355 0 -573.5 210t-218.5 549q0 140 40.5 279t112.5 260t176 225.5t226.5 178.5t268 116.5t296.5 42.5q228 0 408 -91.5t284.5 -267t104.5 -407.5q0 -213 -90 -414t-240.5 -350.5t-359.5 -240t-435 -90.5zM756 1096l-170 -963h196q36 213 45 303q53 31 121 96
h6q71 -163 203 -399h240q-70 128 -98.5 179.5t-93 152.5t-130.5 186l2 17q171 146 475 428h-235q-294 -274 -471 -453h-8q18 44 33 90t24 76.5t19.5 80.5t14 67.5t12.5 73.5t11 65h-196z" />
    <glyph glyph-name="L.ss07" 
d="M866 -315q-355 0 -573.5 210t-218.5 549q0 140 40.5 279t112.5 260t176 225.5t226.5 178.5t268 116.5t296.5 42.5q228 0 408 -91.5t284.5 -267t104.5 -407.5q0 -213 -90 -414t-240.5 -350.5t-359.5 -240t-435 -90.5zM885 1096l-170 -963h614l33 184q-96 0 -142 -0.5
t-130 -7.5t-158 -20l-12 14q73 286 161 793h-196z" />
    <glyph glyph-name="M.ss07" 
d="M866 -315q-355 0 -573.5 210t-218.5 549q0 140 40.5 279t112.5 260t176 225.5t226.5 178.5t268 116.5t296.5 42.5q228 0 408 -91.5t284.5 -267t104.5 -407.5q0 -213 -90 -414t-240.5 -350.5t-359.5 -240t-435 -90.5zM590 1096l-170 -963h198q3 16 15.5 86.5t16.5 94
t14 85.5t14 98t10 91t8.5 106t3.5 105h9q25 -118 53 -226t70.5 -256t52.5 -184h123q20 33 170 270.5t241 395.5h6q-26 -78 -46 -150t-37 -148.5t-25.5 -120t-24 -132t-20.5 -115.5h201l169 963h-217q-269 -387 -426 -707h-18q-48 351 -176 707h-215z" />
    <glyph glyph-name="N.ss07" 
d="M866 -315q-355 0 -573.5 210t-218.5 549q0 140 40.5 279t112.5 260t176 225.5t226.5 178.5t268 116.5t296.5 42.5q228 0 408 -91.5t284.5 -267t104.5 -407.5q0 -213 -90 -414t-240.5 -350.5t-359.5 -240t-435 -90.5zM725 1096l-170 -963h197q71 400 96 666h10
q43 -127 102 -253.5t104 -207t120 -205.5h178l170 963h-197q-73 -419 -100 -686h-6q-61 188 -139.5 349.5t-184.5 336.5h-180z" />
    <glyph glyph-name="O.ss07" 
d="M866 -315q-355 0 -573.5 210t-218.5 549q0 140 40.5 279t112.5 260t176 225.5t226.5 178.5t268 116.5t296.5 42.5q228 0 408 -91.5t284.5 -267t104.5 -407.5q0 -213 -90 -414t-240.5 -350.5t-359.5 -240t-435 -90.5zM946 113q117 0 225.5 50t186.5 132.5t125 191.5
t47 222q0 181 -113 294t-295 113q-155 0 -290 -84t-214 -222.5t-79 -291.5q0 -185 115 -295t292 -110zM748 551q0 148 102.5 263.5t241.5 115.5q104 0 166.5 -70.5t62.5 -183.5q0 -96 -45.5 -182.5t-125.5 -140.5t-171 -54q-103 0 -167 70.5t-64 181.5z" />
    <glyph glyph-name="P.ss07" 
d="M866 -315q-355 0 -573.5 210t-218.5 549q0 140 40.5 279t112.5 260t176 225.5t226.5 178.5t268 116.5t296.5 42.5q228 0 408 -91.5t284.5 -267t104.5 -407.5q0 -213 -90 -414t-240.5 -350.5t-359.5 -240t-435 -90.5zM811 1096l-170 -963h197q42 243 47 379
q33 -17 69.5 -26t59.5 -10t65 -1q168 0 281 109.5t113 263.5q0 65 -23.5 113.5t-56 73t-76.5 39.5t-74 18.5t-59 3.5h-373zM913 621l-10 6q56 160 51 307l15 8q49 -29 149 -29q146 0 146 -106q0 -52 -30 -86.5t-72.5 -48t-94.5 -13.5q-90 0 -154 -38z" />
    <glyph glyph-name="Q.ss07" 
d="M866 -315q-355 0 -573.5 210t-218.5 549q0 140 40.5 279t112.5 260t176 225.5t226.5 178.5t268 116.5t296.5 42.5q228 0 408 -91.5t284.5 -267t104.5 -407.5q0 -213 -90 -414t-240.5 -350.5t-359.5 -240t-435 -90.5zM1274 43l164 119q-68 105 -133 157
q114 82 177.5 202.5t63.5 254.5q0 182 -115 295t-303 113q-159 0 -296.5 -83t-217 -219.5t-79.5 -291.5q0 -188 116.5 -299t298.5 -111q117 0 224 58q15 -69 100 -195zM737 618q0 155 105.5 267t253.5 112q113 0 179 -67t66 -178q0 -86 -33.5 -176t-86.5 -144
q-22 86 -117 236l-162 -119q4 -6 17 -27t18.5 -30t17.5 -27.5t20.5 -29t20.5 -24.5t24 -24.5t25 -19.5q-59 -19 -102 -19q-112 0 -179 74t-67 196z" />
    <glyph glyph-name="R.ss07" 
d="M866 -315q-355 0 -573.5 210t-218.5 549q0 140 40.5 279t112.5 260t176 225.5t226.5 178.5t268 116.5t296.5 42.5q228 0 408 -91.5t284.5 -267t104.5 -407.5q0 -213 -90 -414t-240.5 -350.5t-359.5 -240t-435 -90.5zM807 1096l-170 -963h197q43 242 47 381
q62 -25 110 -31l164 -350h223q-5 11 -27.5 55t-30 58t-27 50.5t-32 56t-32 50t-39 56t-41.5 51.5l2 8q145 12 231 104.5t86 221.5q0 66 -25 115.5t-58.5 74.5t-77.5 40t-72.5 18.5t-54.5 3.5h-373zM907 610l-8 6q59 177 51 318l17 8q59 -27 139 -27q151 0 151 -112
q0 -69 -54.5 -116.5t-135.5 -47.5q-99 0 -160 -29z" />
    <glyph glyph-name="S.ss07" 
d="M866 -315q-355 0 -573.5 210t-218.5 549q0 140 40.5 279t112.5 260t176 225.5t226.5 178.5t268 116.5t296.5 42.5q228 0 408 -91.5t284.5 -267t104.5 -407.5q0 -213 -90 -414t-240.5 -350.5t-359.5 -240t-435 -90.5zM961 113q172 0 294.5 105t122.5 249q0 32 -8 60
t-18 47.5t-30.5 37.5t-33.5 27.5t-39.5 21.5t-36 15t-34.5 12l-97 33q-23 8 -35.5 12t-33 14.5t-31.5 20.5t-20 26t-9 35q0 41 39 72t99 31q116 0 141 -123l188 74q-3 94 -82.5 163.5t-214.5 69.5q-165 0 -280 -100t-115 -232q0 -56 21.5 -100t59.5 -71t68.5 -41.5
t69.5 -26.5l82 -27q27 -8 36 -11.5t31.5 -13t31.5 -18t17.5 -23t8.5 -32.5q0 -51 -46.5 -87t-115.5 -36q-75 0 -117.5 44t-50.5 128l-194 -61q7 -142 98.5 -218.5t233.5 -76.5z" />
    <glyph glyph-name="T.ss07" 
d="M866 -315q-355 0 -573.5 210t-218.5 549q0 140 40.5 279t112.5 260t176 225.5t226.5 178.5t268 116.5t296.5 42.5q228 0 408 -91.5t284.5 -267t104.5 -407.5q0 -213 -90 -414t-240.5 -350.5t-359.5 -240t-435 -90.5zM848 133h199q94 558 120 801q117 -21 299 -21l33 183
h-766l-33 -183q185 0 308 21q-60 -248 -160 -801z" />
    <glyph glyph-name="U.ss07" 
d="M866 -315q-355 0 -573.5 210t-218.5 549q0 140 40.5 279t112.5 260t176 225.5t226.5 178.5t268 116.5t296.5 42.5q228 0 408 -91.5t284.5 -267t104.5 -407.5q0 -213 -90 -414t-240.5 -350.5t-359.5 -240t-435 -90.5zM940 123q369 0 444 401l103 582h-197l-100 -567
q-37 -230 -213 -230q-55 0 -88 22t-42.5 61t-9.5 72t7 75l100 567h-199l-100 -582q-71 -401 295 -401z" />
    <glyph glyph-name="V.ss07" 
d="M866 -315q-355 0 -573.5 210t-218.5 549q0 140 40.5 279t112.5 260t176 225.5t226.5 178.5t268 116.5t296.5 42.5q228 0 408 -91.5t284.5 -267t104.5 -407.5q0 -213 -90 -414t-240.5 -350.5t-359.5 -240t-435 -90.5zM659 1096l195 -963h225l533 963h-207
q-79 -139 -202 -375.5t-189 -398.5h-27q-6 163 -47.5 398.5t-73.5 375.5h-207z" />
    <glyph glyph-name="W.ss07" 
d="M866 -315q-355 0 -573.5 210t-218.5 549q0 140 40.5 279t112.5 260t176 225.5t226.5 178.5t268 116.5t296.5 42.5q228 0 408 -91.5t284.5 -267t104.5 -407.5q0 -213 -90 -414t-240.5 -350.5t-359.5 -240t-435 -90.5zM414 1096l104 -963h240q76 160 107 226.5t91.5 210
t106.5 274.5h18q1 -186 15.5 -338t44.5 -373h235l447 963h-224q-66 -148 -105 -238t-95.5 -235.5t-100.5 -278.5h-8q-12 344 -65 752h-215q-7 -14 -34.5 -72.5t-37 -78.5t-35.5 -74.5t-38.5 -83t-35.5 -79t-38 -87t-35 -84t-37.5 -92.5t-34.5 -91h-10q2 341 -39 742h-221z
" />
    <glyph glyph-name="X.ss07" 
d="M866 -315q-355 0 -573.5 210t-218.5 549q0 140 40.5 279t112.5 260t176 225.5t226.5 178.5t268 116.5t296.5 42.5q228 0 408 -91.5t284.5 -267t104.5 -407.5q0 -213 -90 -414t-240.5 -350.5t-359.5 -240t-435 -90.5zM526 131h238q7 9 38 50t43.5 57t40 54t45 62.5
t40.5 59t43 65.5h10q39 -152 123 -348h237q-179 372 -239 477l2 17q53 56 112.5 122.5t96 109t107 126t96.5 113.5h-234q-146 -181 -254 -344h-10q-67 214 -129 344h-234q176 -361 242 -471l-2 -17q-175 -188 -412 -477z" />
    <glyph glyph-name="Y.ss07" 
d="M866 -315q-355 0 -573.5 210t-218.5 549q0 140 40.5 279t112.5 260t176 225.5t226.5 178.5t268 116.5t296.5 42.5q228 0 408 -91.5t284.5 -267t104.5 -407.5q0 -213 -90 -414t-240.5 -350.5t-359.5 -240t-435 -90.5zM848 133h196q44 248 50 334q89 116 236 321.5
t222 307.5h-213q-207 -299 -303 -484h-10q-38 214 -133 484h-211q129 -370 236 -631q-11 -38 -22.5 -89t-17.5 -83.5t-17 -90.5t-13 -69z" />
    <glyph glyph-name="Z.ss07" 
d="M866 -315q-355 0 -573.5 210t-218.5 549q0 140 40.5 279t112.5 260t176 225.5t226.5 178.5t268 116.5t296.5 42.5q228 0 408 -91.5t284.5 -267t104.5 -407.5q0 -213 -90 -414t-240.5 -350.5t-359.5 -240t-435 -90.5zM596 291l-29 -158h752l33 184q-288 0 -576 -57l-4 10
q406 371 680 666l27 160h-725l-33 -183q267 0 543 60l2 -12q-373 -344 -670 -670z" />
    <glyph glyph-name="A.ss08" 
d="M866 -315q-355 0 -573.5 210t-218.5 549q0 140 40.5 279t112.5 260t176 225.5t226.5 178.5t268 116.5t296.5 42.5q228 0 408 -91.5t284.5 -267t104.5 -407.5q0 -213 -90 -414t-240.5 -350.5t-359.5 -240t-435 -90.5zM895 -162q188 0 361.5 75.5t299 200t200.5 293
t75 347.5q0 193 -87 339.5t-237 223t-340 76.5q-188 0 -362.5 -77.5t-299 -204t-199.5 -295t-75 -343.5q0 -282 183.5 -458.5t480.5 -176.5zM811 309h-133l342 613h139l125 -613h-135q-2 11 -9 45.5t-10.5 62t-3.5 58.5l-2 4q-62 -10 -116 -10q-51 0 -113 10l-4 -4
q-20 -60 -80 -166zM948 571q53 11 84 11q22 0 40.5 -3.5t21.5 -4t12 3.5q-2 17 -12 61t-16 87t-3 85h-12q-42 -125 -115 -240z" />
    <glyph glyph-name="B.ss08" 
d="M866 -315q-355 0 -573.5 210t-218.5 549q0 140 40.5 279t112.5 260t176 225.5t226.5 178.5t268 116.5t296.5 42.5q228 0 408 -91.5t284.5 -267t104.5 -407.5q0 -213 -90 -414t-240.5 -350.5t-359.5 -240t-435 -90.5zM895 -162q188 0 361.5 75.5t299 200t200.5 293
t75 347.5q0 193 -87 339.5t-237 223t-340 76.5q-188 0 -362.5 -77.5t-299 -204t-199.5 -295t-75 -343.5q0 -282 183.5 -458.5t480.5 -176.5zM1006 309h-258l108 613h256q76 0 121 -37t45 -97t-38 -104t-103 -59v-2q58 -12 85 -40t27 -77q0 -83 -69 -140t-174 -57zM926 657
l2 -2q50 19 98 19q53 0 83 20t30 54q0 55 -82 55h-16h-17t-15.5 0.5t-18 2.5t-17.5 5t-19 8l-4 -2q6 -79 -24 -160zM881 418l4 -6q47 16 119 16q45 0 77.5 18.5t32.5 57.5q0 59 -92 59q-60 0 -107 17l-2 -2q-3 -99 -32 -160z" />
    <glyph glyph-name="C.ss08" 
d="M866 -315q-355 0 -573.5 210t-218.5 549q0 140 40.5 279t112.5 260t176 225.5t226.5 178.5t268 116.5t296.5 42.5q228 0 408 -91.5t284.5 -267t104.5 -407.5q0 -213 -90 -414t-240.5 -350.5t-359.5 -240t-435 -90.5zM895 -162q188 0 361.5 75.5t299 200t200.5 293
t75 347.5q0 193 -87 339.5t-237 223t-340 76.5q-188 0 -362.5 -77.5t-299 -204t-199.5 -295t-75 -343.5q0 -282 183.5 -458.5t480.5 -176.5zM985 297q-121 0 -192.5 70.5t-71.5 187.5q0 151 109 264t262 113q100 0 167 -53.5t80 -145.5l-125 -47q-12 62 -49.5 94.5
t-95.5 32.5q-88 0 -152.5 -73t-64.5 -169q0 -80 45 -116.5t111 -36.5t119 37.5t85 109.5l111 -41q-51 -109 -138.5 -168t-199.5 -59z" />
    <glyph glyph-name="D.ss08" 
d="M866 -315q-355 0 -573.5 210t-218.5 549q0 140 40.5 279t112.5 260t176 225.5t226.5 178.5t268 116.5t296.5 42.5q228 0 408 -91.5t284.5 -267t104.5 -407.5q0 -213 -90 -414t-240.5 -350.5t-359.5 -240t-435 -90.5zM895 -162q188 0 361.5 75.5t299 200t200.5 293
t75 347.5q0 193 -87 339.5t-237 223t-340 76.5q-188 0 -362.5 -77.5t-299 -204t-199.5 -295t-75 -343.5q0 -282 183.5 -458.5t480.5 -176.5zM989 309h-244l109 613h238q117 0 179 -61t62 -177q0 -150 -97.5 -262.5t-246.5 -112.5zM879 418l4 -6q47 16 106 16q97 0 154 63.5
t57 163.5q0 87 -41 117.5t-106 30.5q-41 0 -59.5 2.5t-41.5 13.5l-4 -2q-3 -210 -69 -399z" />
    <glyph glyph-name="E.ss08" 
d="M866 -315q-355 0 -573.5 210t-218.5 549q0 140 40.5 279t112.5 260t176 225.5t226.5 178.5t268 116.5t296.5 42.5q228 0 408 -91.5t284.5 -267t104.5 -407.5q0 -213 -90 -414t-240.5 -350.5t-359.5 -240t-435 -90.5zM895 -162q188 0 361.5 75.5t299 200t200.5 293
t75 347.5q0 193 -87 339.5t-237 223t-340 76.5q-188 0 -362.5 -77.5t-299 -204t-199.5 -295t-75 -343.5q0 -282 183.5 -458.5t480.5 -176.5zM1190 309h-412l109 613h405l-22 -119q-191 0 -285 16l-4 -2q3 -76 -27 -158l4 -2q104 25 275 25l-23 -123h-17q-53 0 -82.5 0.5
t-76.5 6t-88 16.5l-4 -2q-3 -96 -33 -162l6 -8q113 18 295 18z" />
    <glyph glyph-name="F.ss08" 
d="M866 -315q-355 0 -573.5 210t-218.5 549q0 140 40.5 279t112.5 260t176 225.5t226.5 178.5t268 116.5t296.5 42.5q228 0 408 -91.5t284.5 -267t104.5 -407.5q0 -213 -90 -414t-240.5 -350.5t-359.5 -240t-435 -90.5zM895 -162q188 0 361.5 75.5t299 200t200.5 293
t75 347.5q0 193 -87 339.5t-237 223t-340 76.5q-188 0 -362.5 -77.5t-299 -204t-199.5 -295t-75 -343.5q0 -282 183.5 -458.5t480.5 -176.5zM918 309h-125l108 613h397l-20 -121q-177 0 -279 18l-4 -2q6 -87 -32 -170l4 -2q104 25 272 25l-22 -123h-31h-33t-30.5 0.5
t-33.5 1t-31.5 2.5t-34.5 4t-32 5.5t-35 8.5l-8 -4q0 -85 -30 -256z" />
    <glyph glyph-name="G.ss08" 
d="M866 -315q-355 0 -573.5 210t-218.5 549q0 140 40.5 279t112.5 260t176 225.5t226.5 178.5t268 116.5t296.5 42.5q228 0 408 -91.5t284.5 -267t104.5 -407.5q0 -213 -90 -414t-240.5 -350.5t-359.5 -240t-435 -90.5zM895 -162q188 0 361.5 75.5t299 200t200.5 293
t75 347.5q0 193 -87 339.5t-237 223t-340 76.5q-188 0 -362.5 -77.5t-299 -204t-199.5 -295t-75 -343.5q0 -282 183.5 -458.5t480.5 -176.5zM971 297q-115 0 -182.5 69.5t-67.5 184.5q0 153 108.5 267t260.5 114q102 0 169.5 -53.5t79.5 -145.5l-122 -47q-30 127 -146 127
q-88 0 -152.5 -73t-64.5 -169q0 -56 25 -92t58.5 -48.5t74.5 -12.5q128 0 217 133l-4 2q-80 -27 -197 -27l19 107h286l-55 -324h-102q1 5 3.5 30t8.5 45t20 46h-2q-91 -133 -235 -133z" />
    <glyph glyph-name="H.ss08" 
d="M866 -315q-355 0 -573.5 210t-218.5 549q0 140 40.5 279t112.5 260t176 225.5t226.5 178.5t268 116.5t296.5 42.5q228 0 408 -91.5t284.5 -267t104.5 -407.5q0 -213 -90 -414t-240.5 -350.5t-359.5 -240t-435 -90.5zM895 -162q188 0 361.5 75.5t299 200t200.5 293
t75 347.5q0 193 -87 339.5t-237 223t-340 76.5q-188 0 -362.5 -77.5t-299 -204t-199.5 -295t-75 -343.5q0 -282 183.5 -458.5t480.5 -176.5zM852 309h-127l109 613h127q-28 -158 -60 -263l6 -2q154 31 267 0l4 2q7 89 36 263h127l-108 -613h-127q30 166 57 256l-6 4
q-139 -35 -266 0l-6 -4q-1 -36 -4.5 -70.5t-7 -55.5t-10.5 -63.5t-11 -66.5z" />
    <glyph glyph-name="I.ss08" 
d="M866 -315q-355 0 -573.5 210t-218.5 549q0 140 40.5 279t112.5 260t176 225.5t226.5 178.5t268 116.5t296.5 42.5q228 0 408 -91.5t284.5 -267t104.5 -407.5q0 -213 -90 -414t-240.5 -350.5t-359.5 -240t-435 -90.5zM895 -162q188 0 361.5 75.5t299 200t200.5 293
t75 347.5q0 193 -87 339.5t-237 223t-340 76.5q-188 0 -362.5 -77.5t-299 -204t-199.5 -295t-75 -343.5q0 -282 183.5 -458.5t480.5 -176.5zM1042 309h-124l108 613h125z" />
    <glyph glyph-name="J.ss08" 
d="M866 -315q-355 0 -573.5 210t-218.5 549q0 140 40.5 279t112.5 260t176 225.5t226.5 178.5t268 116.5t296.5 42.5q228 0 408 -91.5t284.5 -267t104.5 -407.5q0 -213 -90 -414t-240.5 -350.5t-359.5 -240t-435 -90.5zM895 -162q188 0 361.5 75.5t299 200t200.5 293
t75 347.5q0 193 -87 339.5t-237 223t-340 76.5q-188 0 -362.5 -77.5t-299 -204t-199.5 -295t-75 -343.5q0 -282 183.5 -458.5t480.5 -176.5zM963 303q-102 0 -151.5 56.5t-35.5 154.5l4 29l129 18l-4 -31q-9 -48 9.5 -78t60.5 -30q85 0 102 119l70 387h125l-66 -371
q-4 -23 -6.5 -36t-11.5 -43.5t-19.5 -50t-29.5 -45.5t-42 -41.5t-58 -26.5t-76 -11z" />
    <glyph glyph-name="K.ss08" 
d="M1194 1546q228 0 408 -91.5t284.5 -267t104.5 -407.5q0 -213 -90 -414t-240.5 -350.5t-359.5 -240t-435 -90.5q-355 0 -573.5 210t-218.5 549q0 140 40.5 279t112.5 260t176 225.5t226.5 178.5t268 116.5t296.5 42.5zM895 -162q188 0 361.5 75.5t299 200t200.5 293
t75 347.5q0 193 -87 339.5t-237 223t-340 76.5q-188 0 -362.5 -77.5t-299 -204t-199.5 -295t-75 -343.5q0 -282 183.5 -458.5t480.5 -176.5zM1214 922h152q-19 -18 -54.5 -51.5t-52.5 -49.5t-48 -44.5t-65.5 -59t-80.5 -70.5l-2 -8q40 -52 77.5 -111.5t56.5 -93.5t69 -125
h-154q-83 151 -131 252q-51 -47 -74 -59q-9 -79 -28 -193h-125l108 613h125q-12 -69 -17 -95.5t-20 -83.5t-35 -110q163 165 299 289z" />
    <glyph glyph-name="L.ss08" 
d="M866 -315q-355 0 -573.5 210t-218.5 549q0 140 40.5 279t112.5 260t176 225.5t226.5 178.5t268 116.5t296.5 42.5q228 0 408 -91.5t284.5 -267t104.5 -407.5q0 -213 -90 -414t-240.5 -350.5t-359.5 -240t-435 -90.5zM895 -162q188 0 361.5 75.5t299 200t200.5 293
t75 347.5q0 193 -87 339.5t-237 223t-340 76.5q-188 0 -362.5 -77.5t-299 -204t-199.5 -295t-75 -343.5q0 -282 183.5 -458.5t480.5 -176.5zM1221 309h-390l109 613h125q-6 -31 -18.5 -102t-19 -106.5t-18 -91.5t-22.5 -105t-24 -99l6 -8q102 18 274 18z" />
    <glyph glyph-name="M.ss08" 
d="M1194 1546q228 0 408 -91.5t284.5 -267t104.5 -407.5q0 -213 -90 -414t-240.5 -350.5t-359.5 -240t-435 -90.5q-355 0 -573.5 210t-218.5 549q0 140 40.5 279t112.5 260t176 225.5t226.5 178.5t268 116.5t296.5 42.5zM895 -162q188 0 361.5 75.5t299 200t200.5 293
t75 347.5q0 193 -87 339.5t-237 223t-340 76.5q-188 0 -362.5 -77.5t-299 -204t-199.5 -295t-75 -343.5q0 -282 183.5 -458.5t480.5 -176.5zM1004 471h6q131 249 274 451h135l-108 -613h-127q1 6 11 61.5t12.5 69t12 61t16 74t18 68.5t24.5 82q-54 -93 -144.5 -236
t-113.5 -180h-80q-9 34 -30.5 106t-41.5 146t-39 164q-4 -153 -55 -416h-127l109 613h137q81 -237 111 -451z" />
    <glyph glyph-name="N.ss08" 
d="M1194 1546q228 0 408 -91.5t284.5 -267t104.5 -407.5q0 -213 -90 -414t-240.5 -350.5t-359.5 -240t-435 -90.5q-355 0 -573.5 210t-218.5 549q0 140 40.5 279t112.5 260t176 225.5t226.5 178.5t268 116.5t296.5 42.5zM895 -162q188 0 361.5 75.5t299 200t200.5 293
t75 347.5q0 193 -87 339.5t-237 223t-340 76.5q-188 0 -362.5 -77.5t-299 -204t-199.5 -295t-75 -343.5q0 -282 183.5 -458.5t480.5 -176.5zM1157 487q22 189 68 435h127l-109 -613h-115q-48 81 -77 132.5t-65.5 129.5t-65.5 158q-16 -164 -62 -420h-127l109 613h112
q130 -218 205 -435z" />
    <glyph glyph-name="O.ss08" 
d="M866 -315q-355 0 -573.5 210t-218.5 549q0 140 40.5 279t112.5 260t176 225.5t226.5 178.5t268 116.5t296.5 42.5q228 0 408 -91.5t284.5 -267t104.5 -407.5q0 -213 -90 -414t-240.5 -350.5t-359.5 -240t-435 -90.5zM895 -162q188 0 361.5 75.5t299 200t200.5 293
t75 347.5q0 193 -87 339.5t-237 223t-340 76.5q-188 0 -362.5 -77.5t-299 -204t-199.5 -295t-75 -343.5q0 -282 183.5 -458.5t480.5 -176.5zM977 297q-115 0 -186.5 71.5t-71.5 186.5q0 97 49.5 183.5t135.5 140t186 53.5q117 0 188.5 -72t71.5 -188q0 -96 -50.5 -182.5
t-137 -139.5t-185.5 -53zM1001 418q85 0 149 71.5t64 165.5q0 68 -39.5 113t-103.5 45q-87 0 -152 -72.5t-65 -165.5q0 -71 40 -114t107 -43z" />
    <glyph glyph-name="P.ss08" 
d="M866 -315q-355 0 -573.5 210t-218.5 549q0 140 40.5 279t112.5 260t176 225.5t226.5 178.5t268 116.5t296.5 42.5q228 0 408 -91.5t284.5 -267t104.5 -407.5q0 -213 -90 -414t-240.5 -350.5t-359.5 -240t-435 -90.5zM895 -162q188 0 361.5 75.5t299 200t200.5 293
t75 347.5q0 193 -87 339.5t-237 223t-340 76.5q-188 0 -362.5 -77.5t-299 -204t-199.5 -295t-75 -343.5q0 -282 183.5 -458.5t480.5 -176.5zM909 309h-125l109 613h235q25 0 50.5 -5t59 -20t54.5 -49.5t21 -85.5q0 -99 -72.5 -167.5t-177.5 -68.5q-76 0 -123 21
q-3 -81 -31 -238zM954 623v-2q41 22 101 22q51 0 86 23t35 71q0 38 -22.5 52t-63.5 14q-66 0 -101 16l-2 -2q0 -102 -33 -194z" />
    <glyph glyph-name="Q.ss08" 
d="M866 -315q-355 0 -573.5 210t-218.5 549q0 140 40.5 279t112.5 260t176 225.5t226.5 178.5t268 116.5t296.5 42.5q228 0 408 -91.5t284.5 -267t104.5 -407.5q0 -213 -90 -414t-240.5 -350.5t-359.5 -240t-435 -90.5zM895 -162q188 0 361.5 75.5t299 200t200.5 293
t75 347.5q0 193 -87 339.5t-237 223t-340 76.5q-188 0 -362.5 -77.5t-299 -204t-199.5 -295t-75 -343.5q0 -282 183.5 -458.5t480.5 -176.5zM1288 328l-104 -76q-2 3 -9.5 14t-10 14.5t-9 14t-9.5 15.5t-8 14.5t-7.5 16.5t-5.5 16t-5 18q-64 -37 -141 -37
q-117 0 -190.5 71.5t-73.5 188.5q0 149 111.5 263t265.5 114q119 0 191.5 -72t72.5 -186q0 -85 -40 -161.5t-110 -125.5q47 -42 82 -102zM999 446q20 0 62 11q-36 31 -88 114l104 78q62 -94 76 -145q33 34 52.5 89.5t19.5 104.5q0 70 -41 113t-111 43q-93 0 -159 -70.5
t-66 -169.5q0 -77 41 -122.5t110 -45.5z" />
    <glyph glyph-name="R.ss08" 
d="M866 -315q-355 0 -573.5 210t-218.5 549q0 140 40.5 279t112.5 260t176 225.5t226.5 178.5t268 116.5t296.5 42.5q228 0 408 -91.5t284.5 -267t104.5 -407.5q0 -213 -90 -414t-240.5 -350.5t-359.5 -240t-435 -90.5zM895 -162q188 0 361.5 75.5t299 200t200.5 293
t75 347.5q0 193 -87 339.5t-237 223t-340 76.5q-188 0 -362.5 -77.5t-299 -204t-199.5 -295t-75 -343.5q0 -282 183.5 -458.5t480.5 -176.5zM907 309h-125l109 613h235q21 0 46.5 -5.5t59.5 -20t56.5 -50t22.5 -86.5q0 -84 -55.5 -142t-145.5 -67q24 -29 46.5 -63.5
t35 -57.5t34 -64.5t29.5 -56.5h-147l-100 221q-34 3 -68 17q-3 -69 -33 -238zM950 616l2 -2q46 19 105 19q50 0 83.5 28t33.5 72q0 70 -93 70q-52 0 -92 16l-4 -2q0 -97 -35 -201z" />
    <glyph glyph-name="S.ss08" 
d="M866 -315q-355 0 -573.5 210t-218.5 549q0 140 40.5 279t112.5 260t176 225.5t226.5 178.5t268 116.5t296.5 42.5q228 0 408 -91.5t284.5 -267t104.5 -407.5q0 -213 -90 -414t-240.5 -350.5t-359.5 -240t-435 -90.5zM895 -162q188 0 361.5 75.5t299 200t200.5 293
t75 347.5q0 193 -87 339.5t-237 223t-340 76.5q-188 0 -362.5 -77.5t-299 -204t-199.5 -295t-75 -343.5q0 -282 183.5 -458.5t480.5 -176.5zM987 297q-93 0 -150 50t-61 138l125 41q5 -53 32.5 -81.5t74.5 -28.5q42 0 71 22.5t29 53.5q0 11 -3.5 19.5t-14 14.5t-15.5 9
t-23 9t-22 7l-53 18q-25 8 -43.5 17t-42.5 26t-37.5 45t-13.5 64q0 87 72.5 149t174.5 62q80 0 135 -42t58 -108l-125 -49q-14 80 -88 80q-36 0 -60 -18t-24 -45q0 -18 14 -32t27.5 -20t40.5 -16l57 -20q22 -8 32.5 -11.5t33 -16t34 -26t21.5 -36.5t10 -52q0 -91 -78 -157
t-188 -66z" />
    <glyph glyph-name="T.ss08" 
d="M866 -315q-355 0 -573.5 210t-218.5 549q0 140 40.5 279t112.5 260t176 225.5t226.5 178.5t268 116.5t296.5 42.5q228 0 408 -91.5t284.5 -267t104.5 -407.5q0 -213 -90 -414t-240.5 -350.5t-359.5 -240t-435 -90.5zM895 -162q188 0 361.5 75.5t299 200t200.5 293
t75 347.5q0 193 -87 339.5t-237 223t-340 76.5q-188 0 -362.5 -77.5t-299 -204t-199.5 -295t-75 -343.5q0 -282 183.5 -458.5t480.5 -176.5zM1040 309h-127q71 376 101 504q-74 -10 -193 -10l23 119h483l-20 -119q-119 0 -191 10q-16 -150 -76 -504z" />
    <glyph glyph-name="U.ss08" 
d="M866 -315q-355 0 -573.5 210t-218.5 549q0 140 40.5 279t112.5 260t176 225.5t226.5 178.5t268 116.5t296.5 42.5q228 0 408 -91.5t284.5 -267t104.5 -407.5q0 -213 -90 -414t-240.5 -350.5t-359.5 -240t-435 -90.5zM895 -162q188 0 361.5 75.5t299 200t200.5 293
t75 347.5q0 193 -87 339.5t-237 223t-340 76.5q-188 0 -362.5 -77.5t-299 -204t-199.5 -295t-75 -343.5q0 -282 183.5 -458.5t480.5 -176.5zM975 303q-58 0 -98.5 17t-60.5 42.5t-28 61t-7 66t7 65.5l64 373h127l-64 -363q-27 -143 84 -143t131 143l64 363h127l-66 -373
q-5 -34 -15.5 -65.5t-32 -67t-51 -60.5t-76.5 -42t-105 -17z" />
    <glyph glyph-name="V.ss08" 
d="M866 -315q-355 0 -573.5 210t-218.5 549q0 140 40.5 279t112.5 260t176 225.5t226.5 178.5t268 116.5t296.5 42.5q228 0 408 -91.5t284.5 -267t104.5 -407.5q0 -213 -90 -414t-240.5 -350.5t-359.5 -240t-435 -90.5zM895 -162q188 0 361.5 75.5t299 200t200.5 293
t75 347.5q0 193 -87 339.5t-237 223t-340 76.5q-188 0 -362.5 -77.5t-299 -204t-199.5 -295t-75 -343.5q0 -282 183.5 -458.5t480.5 -176.5zM1061 309h-141l-125 613h133q10 -45 24 -116t32 -186.5t22 -189.5h12q45 104 130 270t118 222h135z" />
    <glyph glyph-name="W.ss08" 
d="M866 -315q-355 0 -573.5 210t-218.5 549q0 140 40.5 279t112.5 260t176 225.5t226.5 178.5t268 116.5t296.5 42.5q228 0 408 -91.5t284.5 -267t104.5 -407.5q0 -213 -90 -414t-240.5 -350.5t-359.5 -240t-435 -90.5zM895 -162q188 0 361.5 75.5t299 200t200.5 293
t75 347.5q0 193 -87 339.5t-237 223t-340 76.5q-188 0 -362.5 -77.5t-299 -204t-199.5 -295t-75 -343.5q0 -282 183.5 -458.5t480.5 -176.5zM858 309h-149l-68 613h141q31 -309 29 -471q82 208 207 471h137q34 -303 41 -476q87 240 193 476h143l-285 -613h-149
q-35 280 -37 451h-6q-75 -208 -197 -451z" />
    <glyph glyph-name="X.ss08" 
d="M866 -315q-355 0 -573.5 210t-218.5 549q0 140 40.5 279t112.5 260t176 225.5t226.5 178.5t268 116.5t296.5 42.5q228 0 408 -91.5t284.5 -267t104.5 -407.5q0 -213 -90 -414t-240.5 -350.5t-359.5 -240t-435 -90.5zM895 -162q188 0 361.5 75.5t299 200t200.5 293
t75 347.5q0 193 -87 339.5t-237 223t-340 76.5q-188 0 -362.5 -77.5t-299 -204t-199.5 -295t-75 -343.5q0 -282 183.5 -458.5t480.5 -176.5zM864 309h-153q167 202 262 303v9q-50 84 -152 301h150q53 -128 82 -222h4q74 113 162 222h149q-209 -246 -262 -301l-2 -9
q66 -113 153 -303h-151q-47 111 -80 219h-4q-42 -66 -158 -219z" />
    <glyph glyph-name="Y.ss08" 
d="M866 -315q-355 0 -573.5 210t-218.5 549q0 140 40.5 279t112.5 260t176 225.5t226.5 178.5t268 116.5t296.5 42.5q228 0 408 -91.5t284.5 -267t104.5 -407.5q0 -213 -90 -414t-240.5 -350.5t-359.5 -240t-435 -90.5zM895 -162q188 0 361.5 75.5t299 200t200.5 293
t75 347.5q0 193 -87 339.5t-237 223t-340 76.5q-188 0 -362.5 -77.5t-299 -204t-199.5 -295t-75 -343.5q0 -282 183.5 -458.5t480.5 -176.5zM1040 309h-127q20 118 45 211q-29 70 -74 194.5t-77 207.5h137q1 -4 12 -35.5t14 -40.5t12 -37.5t13.5 -45t11.5 -43t12.5 -52.5
t10.5 -54h2q79 142 195 308h137q-226 -313 -293 -400q-2 -40 -31 -213z" />
    <glyph glyph-name="Z.ss08" 
d="M866 -315q-355 0 -573.5 210t-218.5 549q0 140 40.5 279t112.5 260t176 225.5t226.5 178.5t268 116.5t296.5 42.5q228 0 408 -91.5t284.5 -267t104.5 -407.5q0 -213 -90 -414t-240.5 -350.5t-359.5 -240t-435 -90.5zM895 -162q188 0 361.5 75.5t299 200t200.5 293
t75 347.5q0 193 -87 339.5t-237 223t-340 76.5q-188 0 -362.5 -77.5t-299 -204t-199.5 -295t-75 -343.5q0 -282 183.5 -458.5t480.5 -176.5zM1217 309h-478l19 101q175 192 424 426l-2 2q-159 -35 -344 -35l22 119h463l-21 -103q-181 -199 -430 -422l2 -4q177 35 367 35z
" />
    <glyph glyph-name="i.loclTRK" horiz-adv-x="565" 
d="M412 1298q-65 0 -106.5 42.5t-41.5 107.5q0 82 63.5 144.5t147.5 62.5q66 0 108 -41.5t42 -104.5q0 -82 -64.5 -146.5t-148.5 -64.5zM326 0h-287l203 1143h286z" />
    <glyph glyph-name="a.ss01" horiz-adv-x="1363" 
d="M477 -33q-202 0 -312 128.5t-110 338.5q0 114 32.5 225t92 203t137.5 163t174.5 111t198.5 40q261 0 295 -261h37q3 123 20 228h285l-203 -1143h-272q0 1 2.5 15.5t3 17.5t3.5 17.5t5.5 22t6.5 23.5t9 29t12 32t15.5 39.5t18.5 43.5h-37q-151 -273 -414 -273zM594 240
q94 0 176.5 56.5t130 150t47.5 198.5q0 117 -65 187.5t-174 70.5q-99 0 -181 -59t-126 -151t-44 -193q0 -118 64.5 -189t171.5 -71z" />
    <glyph glyph-name="aacute.ss01" horiz-adv-x="1363" 
d="M1298 1657l-376 -379h-248l287 379h337zM477 -33q-202 0 -312 128.5t-110 338.5q0 114 32.5 225t92 203t137.5 163t174.5 111t198.5 40q261 0 295 -261h37q3 123 20 228h285l-203 -1143h-272q0 1 2.5 15.5t3 17.5t3.5 17.5t5.5 22t6.5 23.5t9 29t12 32t15.5 39.5
t18.5 43.5h-37q-151 -273 -414 -273zM594 240q94 0 176.5 56.5t130 150t47.5 198.5q0 117 -65 187.5t-174 70.5q-99 0 -181 -59t-126 -151t-44 -193q0 -118 64.5 -189t171.5 -71z" />
    <glyph glyph-name="abreve.ss01" horiz-adv-x="1363" 
d="M815 1268q-174 0 -259 109.5t-60 285.5h233q-13 -79 19.5 -134.5t107.5 -55.5q76 0 128.5 55.5t66.5 134.5h233q-38 -182 -167.5 -288.5t-301.5 -106.5zM477 -33q-202 0 -312 128.5t-110 338.5q0 114 32.5 225t92 203t137.5 163t174.5 111t198.5 40q261 0 295 -261h37
q3 123 20 228h285l-203 -1143h-272q0 1 2.5 15.5t3 17.5t3.5 17.5t5.5 22t6.5 23.5t9 29t12 32t15.5 39.5t18.5 43.5h-37q-151 -273 -414 -273zM594 240q94 0 176.5 56.5t130 150t47.5 198.5q0 117 -65 187.5t-174 70.5q-99 0 -181 -59t-126 -151t-44 -193q0 -118 64.5 -189
t171.5 -71z" />
    </font>
</defs>
</svg>
