<?xml version="1.0" standalone="no"?>
<!DOCTYPE svg PUBLIC "-//W3C//DTD SVG 1.1//EN" "http://www.w3.org/Graphics/SVG/1.1/DTD/svg11.dtd" >
<svg xmlns="http://www.w3.org/2000/svg" xmlns:xlink="http://www.w3.org/1999/xlink" version="1.1">
<metadata>
Created by FontForge 20170731 at Mon Mar 15 14:15:28 2021
 By Aleksey,,,
Copyright (c) 2020 by Matthieu Salvaggio x Blaze Type. All rights reserved.
</metadata>
<defs>
<font id="Area-BoldInktrap" horiz-adv-x="2048" >
  <font-face 
    font-family="Area Inktrap"
    font-weight="700"
    font-stretch="normal"
    units-per-em="2048"
    panose-1="0 0 8 0 0 0 0 0 0 0"
    ascent="1638"
    descent="-410"
    x-height="1137"
    cap-height="1597"
    bbox="-1686 -582 2521 2179"
    underline-thickness="102"
    underline-position="-307"
    unicode-range="U+0020-25CA"
  />
<missing-glyph horiz-adv-x="1423" 
d="M1239 0h-1055v1597h1055v-1597zM340 1448v-1139l674 1139h-674zM1083 1294l-677 -1142h677v1142z" />
    <glyph glyph-name=".notdef" horiz-adv-x="1423" 
d="M1239 0h-1055v1597h1055v-1597zM340 1448v-1139l674 1139h-674zM1083 1294l-677 -1142h677v1142z" />
    <glyph glyph-name=".null" horiz-adv-x="0" 
 />
    <glyph glyph-name="nonmarkingreturn" horiz-adv-x="682" 
 />
    <glyph glyph-name="space" unicode=" " horiz-adv-x="516" 
 />
    <glyph glyph-name="exclam" unicode="!" horiz-adv-x="555" 
d="M338 442h-119l-57 1014v141h231v-141zM279 -14q-60 0 -103 43t-43 106q0 59 43 101.5t103 42.5q59 0 102 -43t43 -101q0 -63 -42.5 -106t-102.5 -43z" />
    <glyph glyph-name="quotedbl" unicode="&#x22;" horiz-adv-x="813" 
d="M338 1106h-203v491h203v-491zM678 1106h-203v491h203v-491z" />
    <glyph glyph-name="numbersign" unicode="#" horiz-adv-x="1509" 
d="M420 0h-187q62 308 109 459q-104 -29 -266 -29l35 172q164 0 245 -24q23 192 84 383q-102 -31 -260 -31l37 172q156 0 258 -25q8 188 74 520h186q-66 -332 -123 -520q203 35 406 0q8 188 74 520h186q-66 -332 -123 -520q109 25 279 25l-37 -172q-169 0 -275 31
q3 -183 -65 -383q102 24 270 24l-35 -172q-164 0 -270 29q-4 -190 -59 -459h-187q62 308 109 459q-203 -41 -406 0q-4 -190 -59 -459zM514 578q203 35 406 0q-5 170 63 383q-200 -44 -403 0q3 -180 -66 -383z" />
    <glyph glyph-name="dollar" unicode="$" horiz-adv-x="1222" 
d="M1112 492q0 -82 -31 -154t-88.5 -126t-145 -86t-194.5 -34v-174h-73v176q-176 14 -301 109.5t-175 265.5l193 63q76 -217 283 -245v413l-50 13q-380 109 -380 381q0 115 61.5 203t157.5 133.5t211 50.5v157h73v-159q157 -13 273.5 -104t148.5 -214l-176 -82
q-30 81 -94.5 137.5t-151.5 71.5v-401l82 -29q42 -12 71 -21.5t71.5 -27.5t72 -36t62.5 -47t53 -61t33.5 -77t13.5 -96zM365 1114q0 -42 17 -75t50 -57t66.5 -39.5t81.5 -31.5v381q-97 -5 -156 -53t-59 -125zM653 680v-397q97 5 166.5 53.5t69.5 136.5q0 46 -18 80.5
t-53.5 58t-72.5 38.5t-92 30z" />
    <glyph glyph-name="percent" unicode="%" horiz-adv-x="1816" 
d="M362 756q-134 0 -214 108t-80 281q0 175 80 284t214 109t214.5 -109.5t80.5 -283.5q0 -172 -80.5 -280.5t-214.5 -108.5zM438 0h-194l1138 1468h187zM362 911q54 0 85.5 59t31.5 175q0 118 -31.5 177.5t-85.5 59.5q-55 0 -86.5 -59.5t-31.5 -177.5q0 -116 31.5 -175
t86.5 -59zM1454 -29q-134 0 -214.5 108t-80.5 281q0 175 80.5 284.5t214.5 109.5q133 0 214 -110t81 -284q0 -172 -80.5 -280.5t-214.5 -108.5zM1454 127q54 0 85.5 58.5t31.5 174.5q0 118 -31.5 178t-85.5 60q-55 0 -87 -60t-32 -178q0 -116 32 -174.5t87 -58.5z" />
    <glyph glyph-name="ampersand" unicode="&#x26;" horiz-adv-x="1454" 
d="M569 -35q-134 0 -243 48.5t-174.5 143t-65.5 218.5q0 74 27.5 138.5t80 119t115.5 98t148 88.5q-256 213 -256 432q0 160 119 269.5t301 109.5q126 0 222 -56.5t143.5 -143t47.5 -183.5q0 -235 -344 -416l340 -356q4 42 12.5 89.5t16 78.5t20.5 83.5t19 76.5l196 -41
q-66 -267 -178 -379l375 -381h-270l-213 240q-144 -277 -439 -277zM612 911q107 90 155 161t48 161q0 96 -56.5 152.5t-144.5 56.5q-84 0 -138 -52t-54 -139q0 -84 49 -162.5t141 -177.5zM582 158q90 0 169.5 44t168.5 128l-373 397q-54 -42 -82 -65.5t-64.5 -59.5
t-54 -63.5t-30.5 -64t-13 -75.5q0 -108 79.5 -174.5t199.5 -66.5z" />
    <glyph glyph-name="quotesingle" unicode="'" horiz-adv-x="473" 
d="M338 1106h-203v491h203v-491z" />
    <glyph glyph-name="parenleft" unicode="(" horiz-adv-x="673" 
d="M657 -307h-217q-167 198 -255.5 445.5t-88.5 506.5q0 260 88.5 507t255.5 445h217q-165 -199 -253.5 -446t-88.5 -506q0 -258 88.5 -506t253.5 -446z" />
    <glyph glyph-name="parenright" unicode=")" horiz-adv-x="673" 
d="M233 -307h-217q165 198 253.5 446t88.5 506q0 259 -88.5 506t-253.5 446h217q167 -198 256 -445t89 -507q0 -259 -89 -506.5t-256 -445.5z" />
    <glyph glyph-name="asterisk" unicode="*" horiz-adv-x="813" 
d="M465 1024h-117l2 193l-164 -99l-57 99l174 94l-174 94l57 100l164 -96l-2 188h117l-2 -188l164 96l57 -98l-174 -96l174 -94l-57 -99l-164 99z" />
    <glyph glyph-name="plus" unicode="+" horiz-adv-x="1042" 
d="M612 709h297v-168h-297v-316h-178v316h-303v168h303v315h178v-315z" />
    <glyph glyph-name="comma" unicode="," horiz-adv-x="491" 
d="M178 -270h-123q31 60 49.5 92.5t53.5 82t73 87.5q-60 7 -93.5 47t-33.5 96q0 59 43.5 101.5t104.5 42.5q59 0 101 -42t42 -102q0 -11 -1.5 -21.5t-4 -21t-9.5 -25t-12.5 -26.5t-17.5 -33t-22 -37.5t-28.5 -46.5t-33.5 -53.5t-41 -65.5t-47 -75z" />
    <glyph glyph-name="hyphen" unicode="-" horiz-adv-x="849" 
d="M729 535h-608v178h608v-178z" />
    <glyph glyph-name="period" unicode="." horiz-adv-x="509" 
d="M256 -14q-61 0 -103 43t-42 106q0 59 42 101.5t103 42.5q60 0 101.5 -42.5t41.5 -101.5q0 -63 -41.5 -106t-101.5 -43z" />
    <glyph glyph-name="slash" unicode="/" horiz-adv-x="886" 
d="M264 -135h-198l557 1773h198z" />
    <glyph glyph-name="zero" unicode="0" horiz-adv-x="1435" 
d="M719 -35q-181 0 -319.5 105t-213.5 293.5t-75 431.5q0 244 75 433.5t213.5 295.5t319.5 106q180 0 318 -106t213 -295.5t75 -433.5q0 -243 -75 -431.5t-213 -293.5t-318 -105zM721 170q168 0 268.5 167.5t100.5 457.5q0 293 -100.5 461.5t-268.5 168.5
q-171 0 -274 -168.5t-103 -461.5q0 -290 103 -457.5t274 -167.5z" />
    <glyph glyph-name="one" unicode="1" horiz-adv-x="817" 
d="M618 0h-221q0 268 1 417.5t8.5 391.5t21.5 457q-143 -214 -375 -256v223q153 35 251.5 137t98.5 227h215v-1597z" />
    <glyph glyph-name="two" unicode="2" horiz-adv-x="1286" 
d="M1174 0h-1055v23q5 71 15 130.5t30 113t41 95t58.5 86t69.5 77.5t89 77t102 77t121 85q52 35 87 61t80 67.5t72 79.5t46.5 88.5t19.5 102.5q0 117 -82.5 193t-218.5 76q-163 0 -259.5 -109.5t-96.5 -286.5l-203 35q0 245 157 402t406 157q227 0 376 -129.5t149 -337.5
q0 -82 -24 -154.5t-70 -132.5t-95.5 -106t-116.5 -94q-43 -31 -106.5 -73t-104 -69t-91.5 -68t-85 -79t-66.5 -92.5t-53.5 -118.5q136 14 290 21.5t250 8.5t269 1v-207z" />
    <glyph glyph-name="three" unicode="3" horiz-adv-x="1323" 
d="M657 -35q-212 0 -373 100t-210 265l190 96q16 -47 47.5 -91t78 -82.5t115 -61.5t148.5 -23q148 0 239 76.5t91 204.5q0 123 -89.5 199.5t-256.5 76.5h-160v180h158q143 0 224 73t81 189q0 120 -86.5 191.5t-220.5 71.5q-129 0 -218.5 -75t-107.5 -210l-198 45
q25 193 175 316.5t369 123.5q139 0 255.5 -50.5t188.5 -149t72 -226.5q0 -139 -81 -236.5t-224 -117.5v-31q164 -15 258.5 -111.5t94.5 -252.5q0 -95 -37 -182t-105.5 -156.5t-177 -110.5t-240.5 -41z" />
    <glyph glyph-name="four" unicode="4" horiz-adv-x="1349" 
d="M1053 0h-215q0 87 0.5 128.5t7.5 118t20 144.5q-404 -34 -821 -6v176l799 1036h209q0 -694 -27 -1065q102 25 252 25v-190q-154 0 -252 24q27 -147 27 -391zM256 539q305 37 610 -7q-40 376 -4 834q-259 -385 -606 -827z" />
    <glyph glyph-name="five" unicode="5" horiz-adv-x="1318" 
d="M643 -35q-204 0 -367 100t-225 273l178 111q53 -140 167.5 -213.5t248.5 -73.5q154 0 257.5 98.5t103.5 255.5q0 151 -98.5 245.5t-248.5 94.5q-113 0 -197.5 -54t-131.5 -143l-183 56l191 882h803v-192q-430 0 -676 29q-5 -150 -35 -284t-94 -290h26q131 174 351 174
q74 0 147 -19t141 -60t120.5 -99.5t84 -143.5t31.5 -186q0 -123 -46.5 -228.5t-126.5 -178t-189 -113.5t-232 -41z" />
    <glyph glyph-name="six" unicode="6" horiz-adv-x="1376" 
d="M711 -35q-274 0 -438 197.5t-164 550.5q0 266 95 475.5t265.5 325.5t386.5 116q240 0 389 -135l-123 -158q-119 95 -284 95q-217 0 -357.5 -183t-173.5 -497h29q55 142 168.5 215t259.5 73q102 0 196.5 -38.5t166.5 -106t115.5 -167.5t43.5 -216q0 -115 -42.5 -216.5
t-117.5 -174t-182.5 -114.5t-232.5 -42zM713 162q141 0 243.5 96t102.5 250q0 153 -101.5 250.5t-242.5 97.5q-146 0 -246 -102.5t-100 -249.5q0 -148 102.5 -245t241.5 -97z" />
    <glyph glyph-name="seven" unicode="7" horiz-adv-x="1202" 
d="M526 0h-231q0 152 39 332.5t113.5 372.5t198 386.5t278.5 350.5l-15 26q-138 -21 -307.5 -31t-264 -11t-302.5 -1v191h1126v-197q-151 -135 -274.5 -320t-200.5 -376t-118.5 -378t-41.5 -345z" />
    <glyph glyph-name="eight" unicode="8" horiz-adv-x="1355" 
d="M678 -35q-254 0 -415 135.5t-161 335.5q0 151 92 256.5t248 130.5v33q-138 36 -206 124.5t-68 211.5q0 188 145.5 313t364.5 125q218 0 364 -122.5t146 -311.5q0 -122 -67.5 -213.5t-209.5 -126.5v-33q156 -25 249 -130.5t93 -256.5q0 -201 -161 -336t-414 -135zM678 926
q124 0 206.5 73.5t82.5 188.5q0 112 -82.5 184t-206.5 72t-206.5 -72t-82.5 -184q0 -114 82 -188t207 -74zM674 158q146 0 248 84.5t102 222.5q0 134 -92 215.5t-254 81.5q-161 0 -253.5 -81t-92.5 -216q0 -139 98.5 -223t243.5 -84z" />
    <glyph glyph-name="nine" unicode="9" horiz-adv-x="1394" 
d="M618 -35q-147 0 -279 56.5t-222 166.5l125 150q153 -180 360 -180q149 0 258.5 91.5t165 251t55.5 367.5h-28q-41 -165 -154.5 -250.5t-265.5 -85.5q-140 0 -261.5 66.5t-197.5 191.5t-76 281q0 116 43 218.5t118.5 177.5t185 119t237.5 44q99 0 185.5 -25.5t164 -83.5
t133 -144.5t87.5 -216t32 -290.5q0 -148 -26.5 -282t-81 -248t-132.5 -197.5t-187.5 -130.5t-238.5 -47zM668 717q148 0 249 108.5t101 266.5q0 155 -101 249.5t-241 94.5q-144 0 -246 -99.5t-102 -261.5q0 -156 99 -257t241 -101z" />
    <glyph glyph-name="colon" unicode=":" horiz-adv-x="557" 
d="M281 866q-61 0 -104.5 44t-43.5 106q0 60 43 101.5t105 41.5q59 0 101 -41.5t42 -101.5q0 -61 -42 -105.5t-101 -44.5zM281 -14q-62 0 -105 44t-43 107q0 59 43.5 100.5t104.5 41.5q59 0 101 -42t42 -100q0 -63 -42 -107t-101 -44z" />
    <glyph glyph-name="semicolon" unicode=";" horiz-adv-x="602" 
d="M309 866q-61 0 -103 44t-42 106q0 60 42 101.5t103 41.5q60 0 102 -41.5t42 -101.5q0 -62 -42 -106t-102 -44zM231 -279h-125l142 279q-39 18 -62.5 54t-23.5 81q0 59 43 101.5t104 42.5q59 0 101.5 -42.5t42.5 -101.5q0 -45 -37 -113t-185 -301z" />
    <glyph glyph-name="less" unicode="&#x3c;" horiz-adv-x="1036" 
d="M885 434v-162l-752 236v219l752 236v-162l-592 -185z" />
    <glyph glyph-name="equal" unicode="=" horiz-adv-x="1079" 
d="M934 745h-789v168h789v-168zM934 313h-789v168h789v-168z" />
    <glyph glyph-name="greater" unicode="&#x3e;" horiz-adv-x="1036" 
d="M903 508l-751 -236v162l589 182l-589 185v162l751 -236v-219z" />
    <glyph glyph-name="question" unicode="?" horiz-adv-x="1161" 
d="M621 465h-220q-6 35 -6 67q0 57 16.5 104t52.5 88.5t74.5 73t100.5 74.5q65 49 105 87t72 96.5t32 122.5q0 114 -80.5 183t-198.5 69q-129 0 -216 -85.5t-87 -224.5q0 -13 4 -49l-196 35q-4 32 -4 47q0 109 41.5 200t112.5 151t164 93t196 33q98 0 187 -30t158 -84.5
t109.5 -137.5t40.5 -182q0 -74 -22.5 -139t-66 -119t-83.5 -91t-98 -81q-98 -76 -127 -106q-66 -69 -66 -150q0 -5 5 -45zM530 -14q-60 0 -102.5 43.5t-42.5 105.5q0 59 42 101.5t103 42.5q59 0 101.5 -42.5t42.5 -103.5q0 -62 -41.5 -104.5t-102.5 -42.5z" />
    <glyph glyph-name="at" unicode="@" horiz-adv-x="1957" 
d="M936 -195q-202 0 -364.5 65t-266.5 176.5t-159.5 257.5t-55.5 312q0 157 48.5 308t140.5 277.5t214.5 223t280 151t328.5 54.5q230 0 411.5 -95.5t284.5 -272.5t103 -408q0 -174 -57 -316.5t-162 -225.5t-236 -83q-116 0 -169 67t-44 193h-23q-131 -251 -374 -251
q-159 0 -251.5 109t-92.5 274q0 110 42.5 215t111.5 183t162.5 125.5t190.5 47.5q213 0 279 -227h20q-8 40 -8 79.5t3.5 60t11.5 60.5h153l-96 -565q-4 -25 -5.5 -35.5t-3.5 -41t0 -48t8.5 -43t18 -39.5t32.5 -24.5t50 -10.5q116 0 196.5 134.5t80.5 343.5q0 304 -172 478.5
t-465 174.5q-182 0 -341 -70t-269.5 -188.5t-174 -279t-63.5 -337.5q0 -307 183 -487t513 -180q309 0 533 164l76 -115q-124 -99 -291 -145t-332 -46zM893 397q93 0 169.5 58.5t117.5 147.5t41 185q0 110 -56 177t-157 67q-91 0 -168 -56t-119.5 -146t-42.5 -189
q0 -111 56.5 -177.5t158.5 -66.5z" />
    <glyph glyph-name="A" unicode="A" horiz-adv-x="1542" 
d="M248 0h-232l629 1597h252l629 -1597h-236q-40 100 -63 161t-53.5 157.5t-47.5 181.5l-22 20q-188 -31 -326 -31q-163 0 -338 31l-22 -22q-42 -172 -170 -498zM494 684l16 -20q138 30 268 30q128 0 248 -30l14 20q-174 371 -241 717h-60q-73 -353 -245 -717z" />
    <glyph glyph-name="B" unicode="B" horiz-adv-x="1460" 
d="M846 0h-651v1597h616q233 0 366.5 -118.5t133.5 -296.5q0 -59 -17 -112t-52.5 -99.5t-94.5 -82t-137 -54.5v-37q175 -29 264.5 -122.5t89.5 -242.5q0 -105 -44.5 -189.5t-119 -136t-165.5 -79t-189 -27.5zM387 885l27 -23q59 18 125 27t105.5 10.5t109.5 1.5
q143 0 234 64t91 180q0 81 -47 139t-120.5 84.5t-163.5 26.5h-42.5h-47t-43.5 1t-49 3t-46.5 6t-54 10t-53.5 15l-31 -19q46 -240 6 -526zM383 195l29 -29q65 17 138 26t118 10t125 1q144 0 240.5 65t96.5 183q0 122 -99.5 190t-242.5 68q-78 0 -121.5 1.5t-114.5 10.5
t-136 27l-29 -23q40 -290 -4 -530z" />
    <glyph glyph-name="C" unicode="C" horiz-adv-x="1712" 
d="M913 -35q-236 0 -422 104.5t-290.5 294.5t-104.5 435q0 189 65 347.5t175.5 263t256.5 162.5t308 58q160 0 302.5 -55t252.5 -165.5t162 -262.5l-203 -82q-67 166 -203 262t-313 96q-118 0 -222 -44t-181.5 -124t-122.5 -200t-45 -264q0 -125 34.5 -229.5t92 -175.5
t134.5 -120t161 -71.5t172 -22.5q207 0 350.5 119.5t202.5 318.5l202 -71q-87 -271 -285.5 -422.5t-478.5 -151.5z" />
    <glyph glyph-name="D" unicode="D" horiz-adv-x="1638" 
d="M801 0h-606v1597h587q156 0 283 -40.5t214.5 -112t146.5 -171.5t86.5 -216t27.5 -248q0 -238 -87 -420t-255.5 -285.5t-396.5 -103.5zM383 195l29 -29q63 17 135 26t116.5 10t124.5 1q112 0 206 36.5t165 108t110.5 186t39.5 261.5q0 160 -46.5 279t-128.5 187.5
t-183 101t-222 32.5q-67 0 -104 1t-97.5 9.5t-115.5 24.5l-31 -19q71 -620 2 -1216z" />
    <glyph glyph-name="E" unicode="E" horiz-adv-x="1339" 
d="M1237 0h-1042v1597h1022v-202h-106h-115.5t-106 1t-119.5 3t-111.5 6t-125.5 10t-121 15l-31 -19q46 -243 6 -514l21 -23q132 22 277.5 33t239.5 13t251 2v-211q-162 0 -252.5 1.5t-236.5 13t-277 34.5l-23 -23q40 -288 -4 -542l29 -29q140 19 298 28.5t255 11t272 1.5
v-207z" />
    <glyph glyph-name="F" unicode="F" horiz-adv-x="1269" 
d="M414 0h-219v1597h1003v-206q-167 0 -259.5 1.5t-242.5 10.5t-284 27l-31 -19q51 -269 -2 -539l20 -22q133 22 278.5 33t234 12.5t245.5 1.5v-211q-159 0 -247.5 1.5t-233 12.5t-275.5 33l-22 -20q16 -119 24.5 -255t9.5 -220.5t1 -237.5z" />
    <glyph glyph-name="G" unicode="G" horiz-adv-x="1789" 
d="M885 -35q-171 0 -317.5 62t-250 171t-162.5 263.5t-59 333.5q0 187 64 345.5t173.5 265t255.5 165.5t310 59q249 0 445.5 -129t273.5 -354l-203 -82q-69 167 -203.5 262.5t-310.5 95.5q-117 0 -221 -43.5t-182.5 -123t-124 -200t-45.5 -265.5q0 -127 35.5 -232.5
t94.5 -176t137 -119t161 -70t168 -21.5q208 0 359.5 126t227.5 355l-24 27q-230 -62 -541 -62v185h713v-803h-172q-1 13 -3 58t-2.5 66.5t0.5 60.5t6.5 75.5t14.5 75.5l-37 8q-166 -379 -581 -379z" />
    <glyph glyph-name="H" unicode="H" horiz-adv-x="1658" 
d="M414 0h-219v1597h219q0 -456 -27 -706l27 -21q446 64 831 0l27 21q-27 258 -27 706h219v-1597h-219q0 443 27 711l-29 22q-392 -77 -827 0l-29 -22q27 -260 27 -711z" />
    <glyph glyph-name="I" unicode="I" horiz-adv-x="608" 
d="M414 0h-219v1597h219v-1597z" />
    <glyph glyph-name="J" unicode="J" horiz-adv-x="1243" 
d="M582 -35q-109 0 -203.5 31.5t-170.5 94t-119.5 167t-43.5 240.5v49l215 28v-43q0 -93 25 -164t69 -113.5t99 -63.5t118 -21q54 0 97.5 15.5t71.5 39.5t48.5 61t31 70.5t16.5 78t7 73.5t1 67v1022h221v-979q0 -59 -1 -96.5t-10.5 -113t-26.5 -127t-52.5 -116.5t-85 -104.5
t-128.5 -67.5t-179 -28z" />
    <glyph glyph-name="K" unicode="K" horiz-adv-x="1415" 
d="M414 0h-219v1597h219q0 -23 0.5 -108.5t0 -118.5t-1.5 -108.5t-4.5 -122t-8.5 -114t-13.5 -129t-19.5 -124.5h30q324 380 738 825h262q-18 -19 -87.5 -94.5t-94.5 -103t-86.5 -93.5t-98 -104t-91 -94.5t-104 -105.5t-100.5 -99v-33q295 -326 695 -870h-269
q-129 171 -188.5 250t-162.5 224t-183 269h-25q-104 -138 -203 -206q15 -201 15 -537z" />
    <glyph glyph-name="L" unicode="L" horiz-adv-x="1206" 
d="M1178 0h-983v1597h219q0 -308 -1 -477t-8.5 -434t-21.5 -491l29 -29q128 19 274.5 28.5t237.5 11t254 1.5v-207z" />
    <glyph glyph-name="M" unicode="M" horiz-adv-x="2072" 
d="M418 0h-223v1597h241q355 -681 582 -1314h39q232 633 581 1314h242v-1597h-223q0 34 -0.5 189t0 209t3 189.5t7.5 219.5t15 204t24 232h-31q-118 -278 -335 -753t-224 -490h-158q-49 109 -166 361.5t-212 463t-183 418.5h-30q12 -94 21 -185t14.5 -194.5t9 -170t5 -185.5
t2 -162.5t0 -181t-0.5 -164.5z" />
    <glyph glyph-name="N" unicode="N" horiz-adv-x="1681" 
d="M414 0h-219v1597h202q251 -329 461.5 -636t411.5 -650h30q-8 98 -13.5 193t-9 202t-5.5 175.5t-3 191.5t-1 167.5v186.5v170h219v-1597h-203q-268 350 -473 641t-399 616h-29q6 -84 11 -173.5t8.5 -158t5.5 -167t3.5 -149.5t2 -161t0.5 -144.5v-157v-146.5z" />
    <glyph glyph-name="O" unicode="O" horiz-adv-x="1798" 
d="M899 -35q-164 0 -312 62t-256.5 170.5t-172.5 264.5t-64 335q0 178 63.5 334t172 265t256.5 171.5t313 62.5q167 0 316 -64t256 -174t170 -265t63 -330q0 -176 -63 -331t-170.5 -264.5t-256.5 -173t-315 -63.5zM901 172q155 0 285.5 80.5t207 224.5t76.5 320
q0 132 -45 248.5t-121 199t-181 130.5t-222 48q-116 0 -221.5 -47t-183 -128.5t-123 -199t-45.5 -251.5t46 -251t123.5 -198.5t182.5 -128.5t221 -47z" />
    <glyph glyph-name="P" unicode="P" horiz-adv-x="1376" 
d="M414 0h-219v1597h585q69 0 139 -14t143.5 -49.5t129 -89t91.5 -140.5t36 -196q0 -110 -36.5 -199t-92 -143t-127 -91t-137 -51t-125.5 -14q-95 0 -147 2t-126.5 14.5t-142.5 37.5q29 -254 29 -664zM385 786l27 -20q57 21 122 31.5t104.5 12t109.5 1.5q69 0 128.5 16.5
t107.5 50t75.5 91.5t27.5 135q0 100 -51 167.5t-126.5 95.5t-168.5 28q-71 0 -110 1t-101.5 9.5t-117.5 24.5l-31 -19q47 -306 4 -625z" />
    <glyph glyph-name="Q" unicode="Q" horiz-adv-x="1816" 
d="M1686 -94l-158 -133q-54 62 -84.5 99t-72.5 99.5t-68 118.5q-167 -125 -396 -125q-167 0 -317 62t-259 170.5t-173 264.5t-64 335q0 178 63.5 334t173 265t259.5 171.5t319 62.5q227 0 413 -108.5t293 -299.5t107 -425q0 -193 -76 -352.5t-225 -272.5q49 -38 101.5 -89
t83.5 -85.5t80 -91.5zM911 154q143 0 287 67q-60 42 -125 105.5t-107 113.5t-106 129l158 131q207 -248 293 -413q182 196 182 510q0 177 -75.5 320t-209 224.5t-299.5 81.5q-122 0 -230.5 -47t-187 -129t-124 -199t-45.5 -251t45.5 -253t123.5 -204.5t187.5 -135.5
t232.5 -50z" />
    <glyph glyph-name="R" unicode="R" horiz-adv-x="1427" 
d="M414 0h-219v1597h585q66 0 134.5 -14t142.5 -50t131 -89.5t94 -141.5t37 -198q0 -104 -35 -186.5t-96.5 -136t-140 -83.5t-170.5 -36v-29q45 -50 92 -108t79.5 -100t82.5 -112.5t70.5 -100t76 -111.5t68.5 -101h-248l-412 616q-167 7 -301 48q29 -238 29 -664zM385 776
l27 -20q128 37 336 37q68 0 128 18.5t108 54.5t75.5 95.5t27.5 136.5q0 75 -29 133.5t-78.5 94t-110 53.5t-128.5 18q-198 0 -329 33l-31 -19q47 -317 4 -635z" />
    <glyph glyph-name="S" unicode="S" horiz-adv-x="1331" 
d="M686 -35q-141 0 -261.5 47.5t-217 156t-137.5 267.5l204 72q47 -172 157.5 -256t252.5 -84q63 0 120 15.5t104.5 45.5t75.5 80.5t28 114.5q0 60 -21.5 103t-74 74t-85.5 44t-109 36q-10 3 -15 5l-148 45q-41 13 -74 25t-80.5 33.5t-83.5 45.5t-74.5 60t-63.5 76.5
t-41.5 95.5t-16.5 117q0 138 75.5 241.5t195.5 154t263 50.5q202 0 348 -104t193 -273l-201 -82q-41 120 -131 189.5t-219 69.5q-127 0 -210 -64t-83 -166q0 -49 23 -91.5t52 -68.5t79 -51.5t79 -36t77 -26.5l161 -52q145 -47 205 -78q209 -108 217 -325v-18
q0 -141 -73.5 -253t-201.5 -173.5t-288 -61.5z" />
    <glyph glyph-name="T" unicode="T" horiz-adv-x="1306" 
d="M764 0h-221q0 327 1 485.5t8 433.5t21 506q-94 -14 -199.5 -21t-164.5 -8t-180 -1v202h1249v-202q-120 0 -179 1t-165.5 8t-200.5 21q14 -231 21.5 -501.5t8.5 -442t1 -481.5z" />
    <glyph glyph-name="U" unicode="U" horiz-adv-x="1533" 
d="M764 -35q-129 0 -230.5 34t-168 91.5t-109.5 140t-61.5 173.5t-18.5 198v995h221v-979q0 -220 92.5 -334t278.5 -114q184 0 276.5 114t92.5 334v979h221v-995q0 -99 -16 -185.5t-58.5 -171.5t-107.5 -145.5t-170.5 -97.5t-241.5 -37z" />
    <glyph glyph-name="V" unicode="V" horiz-adv-x="1542" 
d="M897 0h-252l-629 1597h234q343 -836 500 -1390h49q150 515 493 1390h232z" />
    <glyph glyph-name="W" unicode="W" horiz-adv-x="2347" 
d="M788 0h-274l-487 1597h247q121 -398 205 -703t160 -648h31q55 228 126.5 488t117 413t135.5 450h249q85 -275 135.5 -444.5t121 -425.5t126.5 -489h31q139 635 363 1359h245l-487 -1597h-270q-127 393 -212.5 691.5t-156.5 625.5h-39q-132 -591 -367 -1317z" />
    <glyph glyph-name="X" unicode="X" horiz-adv-x="1363" 
d="M276 0h-264q405 603 543 795v30q-200 278 -532 772h258q242 -365 387 -634h30q148 285 387 634h258q-364 -535 -536 -772v-30q145 -201 539 -795h-261q-236 360 -387 657h-30q-129 -250 -392 -657z" />
    <glyph glyph-name="Y" unicode="Y" horiz-adv-x="1425" 
d="M823 0h-221q0 379 14 567q-194 322 -591 1030h237q287 -509 436 -862h29q91 215 192.5 411t245.5 451h236q-413 -732 -594 -1028q16 -190 16 -569z" />
    <glyph glyph-name="Z" unicode="Z" horiz-adv-x="1361" 
d="M1296 0h-1230v182q450 613 995 1243l-14 31q-465 -61 -949 -61v202h1180v-180q-413 -555 -995 -1239l14 -28q467 57 999 57v-207z" />
    <glyph glyph-name="bracketleft" unicode="[" horiz-adv-x="749" 
d="M694 -381h-510v1978h510v-186q-203 0 -334 29q46 -822 0 -1645q131 29 334 29v-205z" />
    <glyph glyph-name="backslash" unicode="\" horiz-adv-x="886" 
d="M821 -135h-196l-557 1773h196z" />
    <glyph glyph-name="bracketright" unicode="]" horiz-adv-x="749" 
d="M565 -381h-510v205q203 0 334 -29q-46 822 0 1645q-131 -29 -334 -29v186h510v-1978z" />
    <glyph glyph-name="asciicircum" unicode="^" horiz-adv-x="913" 
d="M264 1022h-166l267 575h190l260 -575h-166q-123 282 -164 436h-53q-40 -141 -168 -436z" />
    <glyph glyph-name="underscore" unicode="_" horiz-adv-x="1069" 
d="M1012 -236h-955v168h955v-168z" />
    <glyph glyph-name="a" unicode="a" horiz-adv-x="1185" 
d="M453 -35q-74 0 -139.5 20t-118 57.5t-83 98.5t-30.5 138q0 62 21 113.5t56 87.5t86.5 64.5t106 46.5t121.5 32q26 5 74 15q44 8 65 12.5t54.5 12t48.5 13.5l37.5 15t32 18.5t20.5 23t14.5 29t3.5 35.5q0 82 -66.5 141t-172.5 59q-96 0 -167 -55.5t-100 -155.5l-196 66
q33 109 108 182t167 104t198 31q93 0 171.5 -24t139 -70.5t95 -122.5t34.5 -174v-424q0 -130 9 -205t28 -149h-207q-18 58 -19.5 100.5t19.5 135.5h-30q-50 -131 -148 -201t-233 -70zM504 129q71 0 133 30t101.5 76.5t62 100.5t22.5 106v136q-75 -58 -248 -93
q-40 -8 -71 -16.5t-70 -25.5t-64.5 -37t-43 -51.5t-17.5 -69.5q0 -73 54 -114.5t141 -41.5z" />
    <glyph glyph-name="b" unicode="b" horiz-adv-x="1368" 
d="M762 -35q-132 0 -233 66t-158 192h-31q6 -20 11 -38t8 -37.5t4.5 -31t2.5 -32.5t1 -27.5v-30v-26.5h-205v1638h209q0 -39 0.5 -135t0.5 -150.5t-2 -139t-7 -165t-13 -163.5h29q124 284 397 284q149 0 265.5 -79t179.5 -215.5t63 -305.5q0 -135 -42 -249.5t-113 -191.5
t-166 -120t-201 -43zM721 160q151 0 248.5 115t97.5 292q0 175 -98 290.5t-248 115.5q-151 0 -252.5 -115t-101.5 -293q0 -177 102 -291t252 -114z" />
    <glyph glyph-name="c" unicode="c" horiz-adv-x="1247" 
d="M659 -35q-252 0 -414.5 165t-162.5 435q0 271 161.5 437.5t411.5 166.5q174 0 310.5 -86.5t199.5 -251.5l-196 -77q-37 106 -122 162.5t-196 56.5q-158 0 -255 -115t-97 -291q0 -182 103.5 -294.5t261.5 -112.5q122 0 212.5 68t135.5 186l192 -76q-64 -177 -208.5 -275
t-336.5 -98z" />
    <glyph glyph-name="d" unicode="d" horiz-adv-x="1370" 
d="M606 -35q-152 0 -271.5 77t-185 214.5t-65.5 310.5q0 135 41 249t111.5 191t166 119.5t203.5 42.5q279 0 387 -286h31q-31 314 -27 755h209v-1284q0 -131 9 -205.5t28 -148.5h-207q-15 62 -18 106t8 127h-29q-38 -95 -101 -156.5t-134.5 -86.5t-155.5 -25zM647 162
q151 0 252.5 114.5t101.5 292.5t-101.5 292t-252.5 114t-248.5 -115.5t-97.5 -292.5q0 -175 98 -290t248 -115z" />
    <glyph glyph-name="e" unicode="e" horiz-adv-x="1267" 
d="M657 -35q-164 0 -294.5 74t-205.5 211t-75 313q0 174 72 312.5t200.5 216t290.5 77.5q78 0 151 -18.5t143.5 -62.5t122.5 -109.5t84 -167t32 -227.5v-70h-885q10 -169 111 -265.5t253 -96.5q118 0 206 65t132 174l193 -76q-61 -160 -202.5 -255t-328.5 -95zM303 686h662
q-4 79 -33.5 139t-75.5 95t-100 52t-113 17q-134 0 -225 -85t-115 -218z" />
    <glyph glyph-name="f" unicode="f" horiz-adv-x="751" 
d="M432 0h-209q0 210 1 327t8.5 302.5t21.5 345.5q-88 -25 -201 -25v187q127 0 201 -27q-15 33 -22 65t-8 51t-1 56q0 186 85.5 288.5t258.5 102.5q117 0 199 -43v-180q-81 45 -160 45q-37 0 -64.5 -6.5t-46 -14.5t-31 -26.5t-19 -32t-9.5 -42t-3.5 -45.5t-0.5 -52t-1 -53.5
t-8 -50t-22 -62.5q117 27 330 27v-187q-201 0 -330 25q14 -160 21.5 -345.5t8.5 -302.5t1 -327z" />
    <glyph glyph-name="g" unicode="g" horiz-adv-x="1366" 
d="M659 -483q-404 0 -526 329l189 66q86 -217 333 -217q155 0 247.5 96.5t92.5 302.5q0 104 27 168h-31q-60 -134 -159.5 -196t-223.5 -62q-158 0 -279.5 79.5t-184 210.5t-62.5 292q0 254 149 418.5t371 164.5q133 0 235.5 -75.5t149.5 -210.5h29q-17 118 -17 254h205
v-1008q0 -135 -28.5 -241t-77.5 -175t-119 -113.5t-148.5 -63.5t-171.5 -19zM645 199q149 0 251.5 113.5t102.5 277.5q0 165 -102 275t-252 110q-149 0 -247.5 -111t-98.5 -274q0 -166 98.5 -278.5t247.5 -112.5z" />
    <glyph glyph-name="h" unicode="h" horiz-adv-x="1302" 
d="M371 0h-209v1638h209q0 -424 -35 -735h29q124 266 383 266q63 0 121 -15.5t110.5 -50.5t91 -86.5t61.5 -129t23 -172.5v-715h-209v623q0 167 -68.5 258.5t-195.5 91.5q-139 0 -225 -102t-86 -261v-610z" />
    <glyph glyph-name="i" unicode="i" horiz-adv-x="532" 
d="M266 1360q-61 0 -102 41.5t-41 103.5q0 60 41.5 102t101.5 42q61 0 102.5 -42t41.5 -100q0 -63 -41 -105t-103 -42zM371 0h-209v1137h209v-1137z" />
    <glyph glyph-name="j" unicode="j" horiz-adv-x="532" 
d="M266 1360q-61 0 -102 42t-41 103q0 59 41 101.5t102 42.5t102.5 -42t41.5 -102q0 -62 -41.5 -103.5t-102.5 -41.5zM25 -483q-126 0 -222 49v184q88 -49 181 -49q37 0 66 11t47.5 26t31.5 42t19 48t9.5 55.5t4 53t0.5 51.5v1149h209v-1151q0 -54 -1 -84t-7.5 -86.5
t-18.5 -91t-37.5 -78.5t-61.5 -69t-92 -42.5t-128 -17.5z" />
    <glyph glyph-name="k" unicode="k" horiz-adv-x="1122" 
d="M371 0h-209v1638h209v-138.5v-151t-0.5 -136t-2.5 -153.5t-4.5 -139t-7 -157t-10.5 -147h29q188 236 456 521h250l-450 -455q34 -42 70.5 -87.5t64.5 -81t68.5 -89.5t61 -81t66 -89t59 -81.5t64.5 -89.5t60 -83h-244q-254 356 -381 561q-72 -108 -166 -184
q17 -133 17 -377z" />
    <glyph glyph-name="l" unicode="l" horiz-adv-x="532" 
d="M371 0h-209v1638h209v-1638z" />
    <glyph glyph-name="m" unicode="m" horiz-adv-x="2045" 
d="M371 0h-209v1137h205q0 -50 -0.5 -71t-8 -68.5t-22.5 -94.5h29q64 138 162 202t214 64q58 0 109.5 -15t99.5 -47.5t83.5 -92t51.5 -140.5h29q119 295 381 295q77 0 146.5 -26.5t128 -79t93.5 -142.5t35 -206v-715h-208v623q0 167 -67 258.5t-187 91.5q-132 0 -216.5 -103
t-84.5 -260v-610h-209v623q0 168 -66.5 259t-185.5 91q-133 0 -218 -102.5t-85 -260.5v-610z" />
    <glyph glyph-name="n" unicode="n" horiz-adv-x="1302" 
d="M371 0h-209v1137h205q0 -132 -31 -234h29q124 266 385 266q80 0 150.5 -25.5t128.5 -77.5t92 -142.5t34 -208.5v-715h-209v623q0 167 -68.5 258.5t-195.5 91.5q-139 0 -225 -102t-86 -261v-610z" />
    <glyph glyph-name="o" unicode="o" horiz-adv-x="1318" 
d="M662 -35q-257 0 -418.5 167.5t-161.5 432.5q0 266 162 435t418 169q253 0 414 -169t161 -435q0 -265 -160.5 -432.5t-414.5 -167.5zM662 160q158 0 257 113t99 292q0 180 -99 294t-257 114q-161 0 -261 -113.5t-100 -294.5q0 -179 100 -292t261 -113z" />
    <glyph glyph-name="p" unicode="p" horiz-adv-x="1368" 
d="M371 -451h-209v1588h205q0 -53 -0.5 -74.5t-7 -73.5t-19.5 -106h31q133 286 403 286q149 0 266.5 -79t180.5 -215t63 -304q0 -136 -42 -251t-113 -192t-166 -120t-201 -43q-131 0 -230.5 67.5t-154.5 200.5h-31q7 -63 12.5 -129t8 -114.5t3.5 -119t1.5 -105.5t0 -112.5
t-0.5 -103.5zM721 160q150 0 248 116t98 291q0 177 -98 291.5t-248 114.5t-252 -114.5t-102 -293.5q0 -177 102 -291t252 -114z" />
    <glyph glyph-name="q" unicode="q" horiz-adv-x="1368" 
d="M1204 -451h-207v88v99t1 88t2.5 102t4.5 93t8 108.5t11 103.5h-31q-65 -136 -168 -201t-229 -65q-224 0 -368 172.5t-144 433.5q0 266 149.5 432t370.5 166q134 0 236 -69t159 -207h31q-14 52 -21 102t-7.5 71t-0.5 71h203v-1588zM647 162q151 0 252.5 114.5t101.5 292.5
t-102 292t-252 114q-152 0 -249 -115t-97 -293q0 -175 98 -290t248 -115z" />
    <glyph glyph-name="r" unicode="r" horiz-adv-x="864" 
d="M371 0h-209v1137h205q0 -10 0.5 -40.5t0 -48.5t-2 -48t-7 -62.5t-14.5 -69.5h31q42 146 132 223.5t212 77.5q65 0 121 -22v-229q-65 24 -140 24q-73 0 -131 -27t-94 -71t-60.5 -103t-34 -118.5t-9.5 -122.5v-500z" />
    <glyph glyph-name="s" unicode="s" horiz-adv-x="1034" 
d="M539 -35q-180 0 -309.5 87t-172.5 233l193 61q40 -98 119.5 -153.5t167.5 -55.5q34 0 67.5 8.5t66 26t52.5 50.5t20 77q0 31 -12.5 55.5t-29 40.5t-47 31t-53 22.5t-60.5 18.5l-115 33q-45 14 -81 28t-82.5 42t-77 61.5t-52.5 86.5t-22 116q0 104 57 182t146 115.5
t196 37.5q154 0 267 -79t151 -203l-195 -66q-27 76 -86 126t-147 50q-79 0 -130 -40.5t-51 -108.5q0 -33 16 -61t37 -45.5t56.5 -34.5t60.5 -25.5t64 -19.5l96 -29q34 -10 55 -16.5t58 -21t60.5 -29t53 -39.5t46.5 -52.5t29 -67t12 -85.5q0 -158 -117.5 -257.5t-306.5 -99.5
z" />
    <glyph glyph-name="t" unicode="t" horiz-adv-x="839" 
d="M578 -35q-53 0 -97.5 9.5t-76.5 24t-57 39t-41 46.5t-27.5 54.5t-16.5 55.5t-8 57.5t-3.5 52t-0.5 46.5q0 133 1 207t8.5 193.5t21.5 224.5q-106 -27 -256 -27v189q150 0 256 -27q-14 63 -21.5 131t-8.5 109.5t-1 115.5h209q0 -74 -1 -115.5t-8.5 -109.5t-21.5 -131
q139 27 358 27v-189q-219 0 -358 27q14 -95 21.5 -201t8.5 -171.5t1 -182.5q0 -35 0.5 -53t3 -51t8.5 -51.5t17 -42.5t27.5 -36.5t42 -22t58.5 -9.5q87 0 170 51v-191q-85 -49 -208 -49z" />
    <glyph glyph-name="u" unicode="u" horiz-adv-x="1284" 
d="M557 -35q-87 0 -159.5 26.5t-129.5 80t-89 143.5t-32 209v713h209v-639q0 -169 72 -253.5t186 -84.5q91 0 160.5 51.5t103 130t33.5 168.5v627h209v-783q0 -131 9 -205.5t28 -148.5h-209q-11 47 -15.5 72.5t-2 69.5t17.5 96h-28q-54 -146 -143.5 -209.5t-219.5 -63.5z
" />
    <glyph glyph-name="v" unicode="v" horiz-adv-x="1144" 
d="M694 0h-243l-428 1137h227q195 -520 307 -930h39q108 407 305 930h219z" />
    <glyph glyph-name="w" unicode="w" horiz-adv-x="1888" 
d="M653 0h-233l-395 1137h233q66 -198 99 -301t83 -279t84 -334h41q40 157 95 338t85 271t103 305h190q67 -190 104.5 -299t91 -283t93.5 -332h37q33 147 80.5 315t75 256t91.5 284q13 39 19 59h234l-396 -1137h-241q-191 555 -269 860h-28q-86 -326 -277 -860z" />
    <glyph glyph-name="x" unicode="x" horiz-adv-x="1093" 
d="M258 0h-240q223 328 402 561v29q-156 196 -400 547h240q64 -95 98.5 -148t85 -139t88.5 -164h31q37 78 89 165.5t85 136.5t101 149h233q-248 -363 -397 -547v-29q154 -194 399 -561h-233q-176 262 -277 455h-31q-84 -172 -274 -455z" />
    <glyph glyph-name="y" unicode="y" horiz-adv-x="1155" 
d="M522 -451h-213l162 420l-451 1168h230q200 -518 317 -953h29q102 385 315 953h224z" />
    <glyph glyph-name="z" unicode="z" horiz-adv-x="1044" 
d="M989 0h-921v170q130 169 205.5 266t198.5 246t233 270l-15 29q-247 -35 -598 -35v191h854v-170q-383 -493 -641 -777l14 -30q107 14 236.5 21t204 8t229.5 1v-190z" />
    <glyph glyph-name="braceleft" unicode="{" horiz-adv-x="835" 
d="M784 -303h-102q-111 0 -193.5 22.5t-133 59.5t-81 94t-42 118.5t-11.5 139.5v174q0 40 -2 71.5t-4.5 55.5t-9.5 41.5t-12 29.5t-17 19.5t-19 12t-24.5 6t-27 2t-31.5 0.5v209h1h1h2q68 0 90 14q43 26 51 146q2 33 2 77v174q0 78 11.5 139.5t42 118.5t81 94t133 59.5
t193.5 22.5h102v-186h-84q-145 0 -209.5 -61.5t-64.5 -194.5v-164q0 -78 -7 -128t-19.5 -84t-40 -54t-58 -30.5t-84.5 -20.5v-58q46 -9 73 -16.5t53.5 -22t40 -34t24.5 -52.5t14.5 -78t3.5 -110v-164q0 -133 64.5 -194.5t209.5 -61.5h84v-186z" />
    <glyph glyph-name="bar" unicode="|" horiz-adv-x="548" 
d="M365 -451h-181v2089h181v-2089z" />
    <glyph glyph-name="braceright" unicode="}" horiz-adv-x="835" 
d="M154 -303h-101v186h82q145 0 210 61.5t65 194.5v164q0 78 7 128t19 83t40 52.5t57.5 29t84.5 20.5v58q-67 13 -102 27t-62 48t-35.5 89.5t-8.5 152.5v164q0 133 -65 194.5t-210 61.5h-82v186h101q111 0 193.5 -22.5t133 -59.5t81 -94.5t41.5 -118t11 -139.5v-174
q0 -36 1 -65t5 -52t6.5 -40t11 -30t13 -21.5t17 -14t18.5 -8.5t22.5 -4.5t24.5 -1.5h29v-209q-25 0 -35.5 -0.5t-29.5 -3t-26.5 -8.5t-19.5 -17t-17 -28.5t-10.5 -42.5t-7.5 -59t-2 -79v-174q0 -79 -11 -139.5t-41.5 -118t-81 -94.5t-133 -59.5t-193.5 -22.5z" />
    <glyph glyph-name="asciitilde" unicode="~" horiz-adv-x="1116" 
d="M741 522q-55 0 -105.5 21t-82 45.5t-70.5 45.5t-73 21q-49 0 -74 -37.5t-25 -89.5h-170q0 141 73.5 221t178.5 80q52 0 100.5 -20t79 -43.5t70.5 -43.5t78 -20q43 0 65.5 35t22.5 88h170q0 -148 -66 -225.5t-172 -77.5z" />
    <glyph glyph-name="uni00A0" unicode="&#xa0;" horiz-adv-x="516" 
 />
    <glyph glyph-name="exclamdown" unicode="&#xa1;" horiz-adv-x="528" 
d="M264 877q-60 0 -102.5 41.5t-42.5 99.5q0 63 42.5 107t102.5 44t103 -44t43 -107q0 -58 -43.5 -99.5t-102.5 -41.5zM379 -442h-232v139l58 1012h119l55 -1012v-139z" />
    <glyph glyph-name="cent" unicode="&#xa2;" horiz-adv-x="1138" 
d="M893 596l151 -59q-47 -130 -152 -208t-243 -89v-240h-108v242q-180 22 -297 157t-117 340q0 207 117 341.5t297 156.5v229h108v-227q125 -11 223 -79t142 -187l-154 -64q-26 71 -82 115t-129 55v-680q84 10 147.5 62t96.5 135zM305 739q0 -134 66 -222t170 -111v671
q-106 -22 -171 -113.5t-65 -224.5z" />
    <glyph glyph-name="sterling" unicode="&#xa3;" horiz-adv-x="1277" 
d="M1190 0h-1081v193q342 118 342 352q0 14 -3.5 93.5t1.5 90.5q-125 -20 -340 -20v125q159 0 297 -21q-108 117 -163 214t-55 210q0 122 63.5 212.5t167 135.5t232.5 45q62 0 120.5 -10t124.5 -39t119.5 -74t98 -121t66.5 -174l-201 -79q-22 89 -60 151t-83 93t-88 44
t-89 13q-104 0 -172.5 -59t-68.5 -165q0 -63 27 -128t67 -139t57 -130q181 21 455 21v-125q-248 0 -422 20q72 -67 72 -164q0 -109 -69.5 -206t-225.5 -189l20 -31q54 10 111 18.5t98.5 13.5t106.5 9t93.5 6t102.5 3t89.5 1h99h90.5v-190z" />
    <glyph glyph-name="currency" unicode="&#xa4;" horiz-adv-x="1361" 
d="M1081 827q0 -142 -73 -245l260 -310l-131 -114l-263 307q-88 -43 -190 -43q-109 0 -197 45l-262 -309l-131 114l262 310q-75 104 -75 245q0 143 73 246l-260 307l131 115l262 -305q85 45 195 45q107 0 195 -45l260 305l131 -115l-260 -307q73 -103 73 -246zM461 827
q0 -107 61.5 -175t161.5 -68q97 0 157 68t60 175q0 110 -60 178t-159 68t-160 -68.5t-61 -177.5z" />
    <glyph glyph-name="yen" unicode="&#xa5;" horiz-adv-x="1466" 
d="M844 0h-221q0 60 1 89.5t8 85t21 110.5q-72 -14 -148.5 -21.5t-123 -8.5t-129.5 -1v154q247 0 401 -29q-23 64 -23 112.5t23 100.5q-72 -14 -148.5 -21.5t-123 -8.5t-129.5 -1v156q71 0 110.5 -1t105.5 -8.5t128 -21.5q-220 359 -537 911h236q281 -501 426 -821h24
q63 139 144.5 298t133 252t151.5 271h233q-350 -604 -539 -911q135 31 346 31v-156q-247 0 -401 31q23 -52 23 -100.5t-23 -112.5q154 29 401 29v-154q-247 0 -401 31q14 -55 21.5 -109.5t8.5 -86.5t1 -89z" />
    <glyph glyph-name="brokenbar" unicode="&#xa6;" horiz-adv-x="548" 
d="M365 836h-181v802h181v-802zM365 -451h-181v797h181v-797z" />
    <glyph glyph-name="section" unicode="&#xa7;" horiz-adv-x="1107" 
d="M567 -301q-177 0 -310.5 91.5t-176.5 240.5l184 57q39 -102 125 -164.5t178 -62.5q76 0 137.5 41t61.5 121q0 31 -11.5 56t-27.5 41.5t-46.5 32.5t-53.5 25t-64 23l-114 43q-44 16 -77.5 31t-79.5 43.5t-76 60t-51.5 79.5t-21.5 103q0 97 62 164t180 82v35
q-104 28 -165.5 98.5t-61.5 167.5q0 110 58.5 188.5t148 114t196.5 35.5q154 0 264.5 -74.5t151.5 -224.5l-193 -64q-30 102 -84.5 151.5t-146.5 49.5q-88 0 -139.5 -43.5t-51.5 -112.5q0 -34 15 -63t34 -47.5t54.5 -37t57.5 -27t61 -21.5l116 -39q36 -13 55.5 -20t55 -23.5
t56.5 -31t48 -38t42 -49t25.5 -60.5t10.5 -75q0 -100 -66.5 -172.5t-178.5 -91.5v-35q112 -22 171.5 -87t59.5 -169q0 -147 -114 -244.5t-298 -97.5zM547 399l45 -14q34 2 67 12.5t65 30t51.5 54t19.5 79.5q0 38 -12 65t-42.5 47t-51 28.5t-70.5 25.5q-5 2 -9 3.5t-8 2.5
l-65 23q-80 25 -139.5 -29t-59.5 -133q0 -34 14.5 -63.5t34 -48t51.5 -36.5t54 -27t55 -20z" />
    <glyph glyph-name="copyright" unicode="&#xa9;" horiz-adv-x="1912" 
d="M956 -35q-184 0 -341 65.5t-264.5 178.5t-167.5 265.5t-60 324.5q0 171 60.5 323t167.5 264.5t264 178t341 65.5q183 0 340 -65.5t264 -177.5t167.5 -264.5t60.5 -323.5q0 -230 -102.5 -419.5t-294 -302t-435.5 -112.5zM956 98q156 0 289 55t223 150t140.5 223.5
t50.5 272.5t-50.5 272t-140.5 222.5t-223 150t-289 55.5q-208 0 -369 -95t-246 -253.5t-85 -351.5q0 -145 50 -273t139.5 -223t222 -150t288.5 -55zM969 348q-194 0 -316.5 126t-122.5 325q0 204 125.5 326t309.5 122q139 0 241 -71t146 -199l-144 -53q-31 89 -94 135.5
t-151 46.5q-120 0 -196.5 -86.5t-76.5 -224.5q0 -144 84 -223.5t201 -79.5q96 0 166 55.5t104 157.5l139 -46q-47 -149 -155.5 -230t-259.5 -81z" />
    <glyph glyph-name="guillemotleft" unicode="&#xab;" horiz-adv-x="1234" 
d="M643 164h-223l-322 405v9l322 405h223q-50 -64 -83 -103.5t-81.5 -93t-99.5 -97.5t-107 -81v-69q56 -37 107 -81t99.5 -97.5t81.5 -93t83 -103.5zM1108 164h-223l-324 405v9l324 405h223q-58 -72 -85.5 -105t-80 -90.5t-102 -100t-105.5 -79.5v-69q56 -37 105.5 -79.5
t102 -100t80 -90.5t85.5 -105z" />
    <glyph glyph-name="logicalnot" unicode="&#xac;" horiz-adv-x="1058" 
d="M913 215h-178v336h-602v170h780v-506z" />
    <glyph glyph-name="registered" unicode="&#xae;" horiz-adv-x="1144" 
d="M573 731q-196 0 -324 129t-128 324t128 322.5t324 127.5q195 0 322 -128t127 -322q0 -195 -127 -324t-322 -129zM573 821q156 0 257.5 103t101.5 260q0 156 -101.5 259t-257.5 103q-158 0 -260 -102.5t-102 -259.5q0 -158 102 -260.5t260 -102.5zM502 942h-90v492h186
q41 0 78.5 -14t66.5 -51t29 -91q0 -59 -30 -97.5t-78 -52.5l127 -186h-103l-119 178h-67v-178zM502 1352v-150h90q37 0 60.5 19t23.5 57q0 36 -24 55t-62 19h-88z" />
    <glyph glyph-name="degree" unicode="&#xb0;" horiz-adv-x="761" 
d="M381 1051q-128 0 -211.5 86.5t-83.5 214.5q0 127 84 212t211 85t211 -86t84 -211q0 -127 -84 -214t-211 -87zM381 1176q72 0 119 50.5t47 125.5q0 73 -47.5 123.5t-118.5 50.5q-70 0 -118 -51t-48 -123q0 -75 47.5 -125.5t118.5 -50.5z" />
    <glyph glyph-name="plusminus" unicode="&#xb1;" horiz-adv-x="1087" 
d="M948 813v-164h-317v-205h317v-159h-809v159h314v205h-314v164h314v238h178v-238h317z" />
    <glyph glyph-name="uni00B2" unicode="&#xb2;" horiz-adv-x="686" 
d="M610 772h-530v21q2 69 14.5 117t42.5 89.5t70 74.5t110 79q4 3 20.5 14.5t23.5 17.5t22 18t22 21.5t16 22.5t13 27t4 29q0 36 -26.5 59.5t-71.5 23.5q-57 0 -92.5 -39.5t-36.5 -107.5l-154 23q0 123 82 199.5t205 76.5q116 0 192 -65.5t76 -169.5q0 -130 -135 -216
q-15 -11 -41.5 -27.5t-43.5 -28t-36.5 -27.5t-32.5 -35t-20 -41h307v-156z" />
    <glyph glyph-name="uni00B3" unicode="&#xb3;" horiz-adv-x="692" 
d="M336 756q-107 0 -187 48t-102 124l146 71q46 -104 143 -104q48 0 80.5 26.5t32.5 73.5q0 49 -35.5 73t-91.5 24h-74v118h76q48 0 81 25.5t33 67.5q0 41 -29.5 66.5t-74.5 25.5q-48 0 -79.5 -29t-37.5 -80l-151 33q9 94 87 156.5t193 62.5q109 0 183.5 -55.5t74.5 -145.5
q0 -59 -32 -106.5t-85 -59.5v-2q59 -11 99.5 -59t40.5 -115q0 -95 -77 -167t-214 -72z" />
    <glyph glyph-name="paragraph" unicode="&#xb6;" horiz-adv-x="1531" 
d="M932 -287h-217v942h-174q-213 0 -344 133.5t-131 346.5q0 98 33.5 181.5t97 146t162 98.5t221.5 36h352v-1884zM1317 -287h-219v1884h219v-1884z" />
    <glyph glyph-name="periodcentered" unicode="&#xb7;" horiz-adv-x="595" 
d="M299 477q-75 0 -126.5 54t-51.5 131q0 72 51.5 123t126.5 51q72 0 124 -51t52 -123q0 -76 -52 -130.5t-124 -54.5z" />
    <glyph glyph-name="uni00B9" unicode="&#xb9;" horiz-adv-x="489" 
d="M371 772h-166v490q-63 -63 -158 -84v176q73 21 116.5 68t43.5 100h164v-750z" />
    <glyph glyph-name="guillemotright" unicode="&#xbb;" horiz-adv-x="1234" 
d="M674 569l-324 -405h-223q58 72 85.5 105t80 90.5t102 100t105.5 79.5v69q-56 37 -105.5 79.5t-102 100t-80 90.5t-85.5 105h223l324 -405v-9zM1137 569l-322 -405h-223q50 64 83 103.5t81.5 93t99.5 97.5t107 81v69q-56 37 -107 81t-99.5 97.5t-81.5 93t-83 103.5h223
l322 -405v-9z" />
    <glyph glyph-name="onequarter" unicode="&#xbc;" horiz-adv-x="1492" 
d="M371 772h-166v490q-63 -63 -158 -84v176q73 21 116.5 68t43.5 100h164v-750zM203 0h-195l1139 1468h186zM1339 -12h-159v149h-355v133l359 467h155v-461h97v-139h-97v-149zM1180 524l-193 -248h193v248z" />
    <glyph glyph-name="onehalf" unicode="&#xbd;" horiz-adv-x="1542" 
d="M371 772h-166v490q-63 -63 -158 -84v176q73 21 116.5 68t43.5 100h164v-750zM203 0h-195l1139 1468h186zM1466 -12h-530v20q3 91 28 151.5t71 104.5t139 105q1 1 23.5 17t28.5 21t24 21t24 27t13 28.5t7 34.5q0 36 -26.5 60t-71.5 24q-57 0 -92.5 -39.5t-36.5 -107.5
l-154 22q0 123 82 200t205 77q115 0 191.5 -65.5t76.5 -170.5q0 -129 -135 -215q-15 -10 -42 -27t-43.5 -28.5t-36 -28t-32.5 -35.5t-20 -41h307v-155z" />
    <glyph glyph-name="threequarters" unicode="&#xbe;" horiz-adv-x="1695" 
d="M336 756q-107 0 -187 48t-102 124l146 71q46 -104 143 -104q48 0 80.5 26.5t32.5 73.5q0 49 -35.5 73t-91.5 24h-74v118h76q48 0 81 25.5t33 67.5q0 41 -29.5 66.5t-74.5 25.5q-48 0 -79.5 -29t-37.5 -80l-151 33q9 94 87 156.5t193 62.5q109 0 183.5 -55.5t74.5 -145.5
q0 -59 -32 -106.5t-85 -59.5v-2q59 -11 99.5 -59t40.5 -115q0 -95 -77 -167t-214 -72zM406 0h-195l1139 1468h186zM1544 -12h-160v149h-354v133l359 467h155v-461h96v-139h-96v-149zM1384 524l-192 -248h192v248z" />
    <glyph glyph-name="questiondown" unicode="&#xbf;" horiz-adv-x="1144" 
d="M621 877q-59 0 -101.5 42t-42.5 103t41 104t100 43q61 0 104.5 -43.5t43.5 -105.5q0 -60 -42.5 -101.5t-102.5 -41.5zM567 -475q-98 0 -187 30t-158 84.5t-109.5 137.5t-40.5 182q0 74 22.5 139t65.5 119t82.5 90.5t97.5 81.5q101 76 131 108q64 68 64 148q0 5 -5 45h220
q6 -38 6 -67q0 -57 -16 -104t-53 -89t-74.5 -73t-100.5 -76q-47 -35 -79.5 -63.5t-64.5 -66.5t-48.5 -81.5t-16.5 -92.5q0 -114 80 -183.5t199 -69.5q129 0 215 85.5t86 223.5q0 33 -2 49l196 -35q4 -32 4 -45q0 -146 -72 -256t-187.5 -165.5t-254.5 -55.5z" />
    <glyph glyph-name="Agrave" unicode="&#xc0;" horiz-adv-x="1542" 
d="M891 1720h-189l-331 340h274zM248 0h-232l629 1597h252l629 -1597h-236q-40 100 -63 161t-53.5 157.5t-47.5 181.5l-22 20q-188 -31 -326 -31q-163 0 -338 31l-22 -22q-42 -172 -170 -498zM494 684l16 -20q138 30 268 30q128 0 248 -30l14 20q-174 371 -241 717h-60
q-73 -353 -245 -717z" />
    <glyph glyph-name="Aacute" unicode="&#xc1;" horiz-adv-x="1542" 
d="M1188 2060l-334 -340h-188l245 340h277zM248 0h-232l629 1597h252l629 -1597h-236q-40 100 -63 161t-53.5 157.5t-47.5 181.5l-22 20q-188 -31 -326 -31q-163 0 -338 31l-22 -22q-42 -172 -170 -498zM494 684l16 -20q138 30 268 30q128 0 248 -30l14 20
q-174 371 -241 717h-60q-73 -353 -245 -717z" />
    <glyph glyph-name="Acircumflex" unicode="&#xc2;" horiz-adv-x="1542" 
d="M571 1720h-192l278 330h224l278 -330h-192q-39 37 -62 61.5t-53.5 71.5t-50.5 103h-62q-20 -56 -50 -102.5t-54.5 -72t-63.5 -61.5zM248 0h-232l629 1597h252l629 -1597h-236q-40 100 -63 161t-53.5 157.5t-47.5 181.5l-22 20q-188 -31 -326 -31q-163 0 -338 31l-22 -22
q-42 -172 -170 -498zM494 684l16 -20q138 30 268 30q128 0 248 -30l14 20q-174 371 -241 717h-60q-73 -353 -245 -717z" />
    <glyph glyph-name="Atilde" unicode="&#xc3;" horiz-adv-x="1542" 
d="M926 1739q-48 0 -82.5 15t-71.5 46l-49 35q-55 43 -90 43q-41 0 -65.5 -35t-24.5 -88h-152q1 126 67.5 204.5t168.5 78.5q67 0 149 -60l47 -34q57 -41 90 -41q39 0 59.5 32.5t20.5 87.5h154q0 -134 -58 -209t-163 -75zM248 0h-232l629 1597h252l629 -1597h-236
q-40 100 -63 161t-53.5 157.5t-47.5 181.5l-22 20q-188 -31 -326 -31q-163 0 -338 31l-22 -22q-42 -172 -170 -498zM494 684l16 -20q138 30 268 30q128 0 248 -30l14 20q-174 371 -241 717h-60q-73 -353 -245 -717z" />
    <glyph glyph-name="Adieresis" unicode="&#xc4;" horiz-adv-x="1542" 
d="M555 1759q-59 0 -99 41t-40 101q0 56 40.5 95.5t98.5 39.5t97.5 -39.5t39.5 -95.5q0 -60 -39.5 -101t-97.5 -41zM985 1759q-60 0 -99.5 41t-39.5 101q0 56 40 95.5t99 39.5q57 0 97 -39.5t40 -95.5q0 -60 -40 -101t-97 -41zM248 0h-232l629 1597h252l629 -1597h-236
q-40 100 -63 161t-53.5 157.5t-47.5 181.5l-22 20q-188 -31 -326 -31q-163 0 -338 31l-22 -22q-42 -172 -170 -498zM494 684l16 -20q138 30 268 30q128 0 248 -30l14 20q-174 371 -241 717h-60q-73 -353 -245 -717z" />
    <glyph glyph-name="Aring" unicode="&#xc5;" horiz-adv-x="1542" 
d="M768 1712q-103 0 -173.5 67.5t-70.5 166.5t70.5 166t173.5 67q102 0 172 -66.5t70 -166.5t-70 -167t-172 -67zM768 1825q52 0 86.5 34t34.5 87q0 52 -34.5 85t-86.5 33q-54 0 -88.5 -33t-34.5 -85q0 -54 34.5 -87.5t88.5 -33.5zM248 0h-232l629 1597h252l629 -1597h-236
q-40 100 -63 161t-53.5 157.5t-47.5 181.5l-22 20q-188 -31 -326 -31q-163 0 -338 31l-22 -22q-42 -172 -170 -498zM494 684l16 -20q138 30 268 30q128 0 248 -30l14 20q-174 371 -241 717h-60q-73 -353 -245 -717z" />
    <glyph glyph-name="AE" unicode="&#xc6;" horiz-adv-x="2146" 
d="M193 0h-244l921 1597h1153v-202q-171 0 -269 1t-261.5 9.5t-308.5 24.5q51 -266 6 -539q291 31 792 31v-211q-172 0 -258 1t-242.5 8t-291.5 21q44 -281 0 -571q145 17 311 26t266.5 10t276.5 1v-207h-1045q0 323 25 516q-285 -44 -573 0q-33 -90 -81 -189.5t-80.5 -158
t-96.5 -168.5zM567 670q232 41 463 -2q-39 329 -16 757h-41q-73 -180 -168.5 -353.5t-237.5 -401.5z" />
    <glyph glyph-name="Ccedilla" unicode="&#xc7;" horiz-adv-x="1712" 
d="M946 -35q-45 -51 -119 -115l13 -12q61 41 116 41q79 0 133 -49.5t54 -130.5q0 -91 -72 -148t-182 -57q-84 0 -156 32.5t-115 88.5l74 84q34 -46 84.5 -70t104.5 -24q53 0 86.5 26t33.5 68q0 40 -31 64t-81 24q-53 0 -92 -27l-72 60l96 149q-213 20 -377 129t-256 291
t-92 410q0 189 65 347.5t175.5 263t256.5 162.5t308 58q160 0 302.5 -55t252.5 -165.5t162 -262.5l-203 -82q-67 166 -203 262t-313 96q-118 0 -222 -44t-181.5 -124t-122.5 -200t-45 -264q0 -125 34.5 -229.5t92 -175.5t134.5 -120t161 -71.5t172 -22.5q207 0 350.5 119.5
t202.5 318.5l202 -71q-84 -263 -273.5 -414t-457.5 -160z" />
    <glyph glyph-name="Egrave" unicode="&#xc8;" horiz-adv-x="1339" 
d="M811 1720h-188l-332 340h274zM1237 0h-1042v1597h1022v-202h-106h-115.5t-106 1t-119.5 3t-111.5 6t-125.5 10t-121 15l-31 -19q46 -243 6 -514l21 -23q132 22 277.5 33t239.5 13t251 2v-211q-162 0 -252.5 1.5t-236.5 13t-277 34.5l-23 -23q40 -288 -4 -542l29 -29
q140 19 298 28.5t255 11t272 1.5v-207z" />
    <glyph glyph-name="Eacute" unicode="&#xc9;" horiz-adv-x="1339" 
d="M1108 2060l-334 -340h-188l245 340h277zM1237 0h-1042v1597h1022v-202h-106h-115.5t-106 1t-119.5 3t-111.5 6t-125.5 10t-121 15l-31 -19q46 -243 6 -514l21 -23q132 22 277.5 33t239.5 13t251 2v-211q-162 0 -252.5 1.5t-236.5 13t-277 34.5l-23 -23q40 -288 -4 -542
l29 -29q140 19 298 28.5t255 11t272 1.5v-207z" />
    <glyph glyph-name="Ecircumflex" unicode="&#xca;" horiz-adv-x="1339" 
d="M492 1720h-193l279 330h223l278 -330h-192q-39 37 -62 61.5t-53.5 71.5t-50.5 103h-62q-20 -56 -50 -102.5t-54 -72.5t-63 -61zM1237 0h-1042v1597h1022v-202h-106h-115.5t-106 1t-119.5 3t-111.5 6t-125.5 10t-121 15l-31 -19q46 -243 6 -514l21 -23q132 22 277.5 33
t239.5 13t251 2v-211q-162 0 -252.5 1.5t-236.5 13t-277 34.5l-23 -23q40 -288 -4 -542l29 -29q140 19 298 28.5t255 11t272 1.5v-207z" />
    <glyph glyph-name="Edieresis" unicode="&#xcb;" horiz-adv-x="1339" 
d="M475 1759q-59 0 -99 41t-40 101q0 56 40.5 95.5t98.5 39.5t97.5 -39.5t39.5 -95.5q0 -60 -39.5 -101t-97.5 -41zM905 1759q-60 0 -99.5 41t-39.5 101q0 56 40 95.5t99 39.5q57 0 97 -39.5t40 -95.5q0 -60 -40 -101t-97 -41zM1237 0h-1042v1597h1022v-202h-106h-115.5
t-106 1t-119.5 3t-111.5 6t-125.5 10t-121 15l-31 -19q46 -243 6 -514l21 -23q132 22 277.5 33t239.5 13t251 2v-211q-162 0 -252.5 1.5t-236.5 13t-277 34.5l-23 -23q40 -288 -4 -542l29 -29q140 19 298 28.5t255 11t272 1.5v-207z" />
    <glyph glyph-name="Igrave" unicode="&#xcc;" horiz-adv-x="608" 
d="M424 1720h-188l-332 340h274zM414 0h-219v1597h219v-1597z" />
    <glyph glyph-name="Iacute" unicode="&#xcd;" horiz-adv-x="608" 
d="M721 2060l-334 -340h-188l245 340h277zM414 0h-219v1597h219v-1597z" />
    <glyph glyph-name="Icircumflex" unicode="&#xce;" horiz-adv-x="608" 
d="M104 1720h-192l278 330h224l278 -330h-192q-39 37 -62 61.5t-53.5 71.5t-50.5 103h-62q-20 -56 -50 -102.5t-54.5 -72t-63.5 -61.5zM414 0h-219v1597h219v-1597z" />
    <glyph glyph-name="Idieresis" unicode="&#xcf;" horiz-adv-x="608" 
d="M86 1759q-59 0 -99 41t-40 101q0 56 40.5 95.5t98.5 39.5t97.5 -39.5t39.5 -95.5q0 -60 -39.5 -101t-97.5 -41zM516 1759q-60 0 -99.5 41t-39.5 101q0 56 40 95.5t99 39.5q57 0 97 -39.5t40 -95.5q0 -60 -40 -101t-97 -41zM414 0h-219v1597h219v-1597z" />
    <glyph glyph-name="Eth" unicode="&#xd0;" horiz-adv-x="1638" 
d="M195 1597h587q156 0 283 -40.5t214.5 -112t146.5 -171.5t86.5 -216t27.5 -248q0 -238 -87 -420t-255.5 -285.5t-396.5 -103.5h-606v709h-191v178h191v710zM788 203q112 0 206 36.5t165 108t110.5 186t39.5 261.5q0 160 -46.5 279t-128.5 187.5t-183 101t-222 32.5
q-67 0 -104 1t-97.5 9.5t-115.5 24.5l-31 -19q32 -284 35 -524h440v-178h-440q-3 -256 -33 -514l29 -29q63 17 135 26t116.5 10t124.5 1z" />
    <glyph glyph-name="Ntilde" unicode="&#xd1;" horiz-adv-x="1681" 
d="M979 1767q-48 0 -82 15.5t-72 46.5l-49 35q-55 43 -90 43q-41 0 -65.5 -35t-24.5 -88h-152q1 126 67.5 204t168.5 78q69 0 149 -59l48 -35q57 -41 90 -41q39 0 59.5 32.5t20.5 88.5h153q0 -134 -58 -209.5t-163 -75.5zM414 0h-219v1597h202q251 -329 461.5 -636
t411.5 -650h30q-8 98 -13.5 193t-9 202t-5.5 175.5t-3 191.5t-1 167.5v186.5v170h219v-1597h-203q-268 350 -473 641t-399 616h-29q6 -84 11 -173.5t8.5 -158t5.5 -167t3.5 -149.5t2 -161t0.5 -144.5v-157v-146.5z" />
    <glyph glyph-name="Ograve" unicode="&#xd2;" horiz-adv-x="1798" 
d="M1018 1720h-189l-331 340h274zM899 -35q-164 0 -312 62t-256.5 170.5t-172.5 264.5t-64 335q0 178 63.5 334t172 265t256.5 171.5t313 62.5q167 0 316 -64t256 -174t170 -265t63 -330q0 -176 -63 -331t-170.5 -264.5t-256.5 -173t-315 -63.5zM901 172q155 0 285.5 80.5
t207 224.5t76.5 320q0 132 -45 248.5t-121 199t-181 130.5t-222 48q-116 0 -221.5 -47t-183 -128.5t-123 -199t-45.5 -251.5t46 -251t123.5 -198.5t182.5 -128.5t221 -47z" />
    <glyph glyph-name="Oacute" unicode="&#xd3;" horiz-adv-x="1798" 
d="M1315 2060l-334 -340h-188l245 340h277zM899 -35q-164 0 -312 62t-256.5 170.5t-172.5 264.5t-64 335q0 178 63.5 334t172 265t256.5 171.5t313 62.5q167 0 316 -64t256 -174t170 -265t63 -330q0 -176 -63 -331t-170.5 -264.5t-256.5 -173t-315 -63.5zM901 172
q155 0 285.5 80.5t207 224.5t76.5 320q0 132 -45 248.5t-121 199t-181 130.5t-222 48q-116 0 -221.5 -47t-183 -128.5t-123 -199t-45.5 -251.5t46 -251t123.5 -198.5t182.5 -128.5t221 -47z" />
    <glyph glyph-name="Ocircumflex" unicode="&#xd4;" horiz-adv-x="1798" 
d="M698 1720h-192l278 330h224l278 -330h-192q-39 37 -62 61.5t-53.5 71.5t-50.5 103h-62q-20 -56 -50 -102.5t-54.5 -72t-63.5 -61.5zM899 -35q-164 0 -312 62t-256.5 170.5t-172.5 264.5t-64 335q0 178 63.5 334t172 265t256.5 171.5t313 62.5q167 0 316 -64t256 -174
t170 -265t63 -330q0 -176 -63 -331t-170.5 -264.5t-256.5 -173t-315 -63.5zM901 172q155 0 285.5 80.5t207 224.5t76.5 320q0 132 -45 248.5t-121 199t-181 130.5t-222 48q-116 0 -221.5 -47t-183 -128.5t-123 -199t-45.5 -251.5t46 -251t123.5 -198.5t182.5 -128.5t221 -47
z" />
    <glyph glyph-name="Otilde" unicode="&#xd5;" horiz-adv-x="1798" 
d="M1055 1767q-48 0 -82 15.5t-72 46.5l-49 35q-55 43 -90 43q-41 0 -65.5 -35t-24.5 -88h-152q1 126 67.5 204t168.5 78q69 0 149 -59l47 -35q57 -41 90 -41q39 0 59.5 32.5t20.5 88.5h154q0 -134 -58 -209.5t-163 -75.5zM899 -35q-164 0 -312 62t-256.5 170.5
t-172.5 264.5t-64 335q0 178 63.5 334t172 265t256.5 171.5t313 62.5q167 0 316 -64t256 -174t170 -265t63 -330q0 -176 -63 -331t-170.5 -264.5t-256.5 -173t-315 -63.5zM901 172q155 0 285.5 80.5t207 224.5t76.5 320q0 132 -45 248.5t-121 199t-181 130.5t-222 48
q-116 0 -221.5 -47t-183 -128.5t-123 -199t-45.5 -251.5t46 -251t123.5 -198.5t182.5 -128.5t221 -47z" />
    <glyph glyph-name="Odieresis" unicode="&#xd6;" horiz-adv-x="1798" 
d="M682 1759q-59 0 -99 41t-40 101q0 56 40.5 95.5t98.5 39.5t97.5 -39.5t39.5 -95.5q0 -60 -39.5 -101t-97.5 -41zM1112 1759q-60 0 -99.5 41t-39.5 101q0 56 40 95.5t99 39.5q57 0 97 -39.5t40 -95.5q0 -60 -40 -101t-97 -41zM899 -35q-164 0 -312 62t-256.5 170.5
t-172.5 264.5t-64 335q0 178 63.5 334t172 265t256.5 171.5t313 62.5q167 0 316 -64t256 -174t170 -265t63 -330q0 -176 -63 -331t-170.5 -264.5t-256.5 -173t-315 -63.5zM901 172q155 0 285.5 80.5t207 224.5t76.5 320q0 132 -45 248.5t-121 199t-181 130.5t-222 48
q-116 0 -221.5 -47t-183 -128.5t-123 -199t-45.5 -251.5t46 -251t123.5 -198.5t182.5 -128.5t221 -47z" />
    <glyph glyph-name="multiply" unicode="&#xd7;" horiz-adv-x="972" 
d="M371 625l-246 241l119 121l245 -244l238 238l117 -121l-236 -235l240 -242l-121 -119l-238 242l-241 -240l-119 117z" />
    <glyph glyph-name="Oslash" unicode="&#xd8;" horiz-adv-x="1798" 
d="M1595 1661l-161 -236q128 -114 199 -276.5t71 -351.5q0 -176 -63 -331t-170.5 -264.5t-256.5 -173t-315 -63.5q-211 0 -397 103l-90 -134h-215l161 238q-124 113 -194 274t-70 351q0 178 63.5 334t172 265t256.5 171.5t313 62.5q215 0 389 -100l90 131h217zM328 797
q0 -259 159 -439l680 996q-123 69 -266 69q-116 0 -221.5 -47t-183 -128.5t-123 -199t-45.5 -251.5zM901 172q155 0 285.5 80.5t207 224.5t76.5 320q0 263 -163 444l-682 -995q132 -74 276 -74z" />
    <glyph glyph-name="Ugrave" unicode="&#xd9;" horiz-adv-x="1533" 
d="M889 1720h-189l-331 340h274zM764 -35q-129 0 -230.5 34t-168 91.5t-109.5 140t-61.5 173.5t-18.5 198v995h221v-979q0 -220 92.5 -334t278.5 -114q184 0 276.5 114t92.5 334v979h221v-995q0 -99 -16 -185.5t-58.5 -171.5t-107.5 -145.5t-170.5 -97.5t-241.5 -37z" />
    <glyph glyph-name="Uacute" unicode="&#xda;" horiz-adv-x="1533" 
d="M1153 2062l-334 -342h-188l246 342h276zM764 -35q-129 0 -230.5 34t-168 91.5t-109.5 140t-61.5 173.5t-18.5 198v995h221v-979q0 -220 92.5 -334t278.5 -114q184 0 276.5 114t92.5 334v979h221v-995q0 -99 -16 -185.5t-58.5 -171.5t-107.5 -145.5t-170.5 -97.5
t-241.5 -37z" />
    <glyph glyph-name="Ucircumflex" unicode="&#xdb;" horiz-adv-x="1533" 
d="M571 1720h-192l278 330h224l278 -330h-192q-39 37 -62 61.5t-53.5 71.5t-50.5 103h-62q-20 -56 -50 -102.5t-54.5 -72t-63.5 -61.5zM764 -35q-129 0 -230.5 34t-168 91.5t-109.5 140t-61.5 173.5t-18.5 198v995h221v-979q0 -220 92.5 -334t278.5 -114q184 0 276.5 114
t92.5 334v979h221v-995q0 -99 -16 -185.5t-58.5 -171.5t-107.5 -145.5t-170.5 -97.5t-241.5 -37z" />
    <glyph glyph-name="Udieresis" unicode="&#xdc;" horiz-adv-x="1533" 
d="M553 1759q-59 0 -99 41t-40 101q0 56 40.5 95.5t98.5 39.5t97.5 -39.5t39.5 -95.5q0 -60 -39.5 -101t-97.5 -41zM983 1759q-60 0 -99.5 41t-39.5 101q0 56 40 95.5t99 39.5q57 0 97 -39.5t40 -95.5q0 -60 -40 -101t-97 -41zM764 -35q-129 0 -230.5 34t-168 91.5
t-109.5 140t-61.5 173.5t-18.5 198v995h221v-979q0 -220 92.5 -334t278.5 -114q184 0 276.5 114t92.5 334v979h221v-995q0 -99 -16 -185.5t-58.5 -171.5t-107.5 -145.5t-170.5 -97.5t-241.5 -37z" />
    <glyph glyph-name="Yacute" unicode="&#xdd;" horiz-adv-x="1425" 
d="M1112 2062l-332 -342h-190l248 342h274zM823 0h-221q0 379 14 567q-194 322 -591 1030h237q287 -509 436 -862h29q91 215 192.5 411t245.5 451h236q-413 -732 -594 -1028q16 -190 16 -569z" />
    <glyph glyph-name="Thorn" unicode="&#xde;" horiz-adv-x="1402" 
d="M414 0h-219v1597h219q0 -123 -27 -276h393q56 0 113.5 -10.5t119.5 -32t116 -60.5t97 -90.5t68 -127.5t25 -166q0 -111 -36 -200t-91.5 -143.5t-127 -91t-137 -51t-126.5 -14.5q-97 0 -147 2t-124.5 14t-142.5 37q27 -207 27 -387zM385 508l27 -21q57 22 121.5 33
t105.5 13t109 2q69 0 128.5 16t107.5 49.5t75.5 91.5t27.5 135q0 100 -51 167.5t-126.5 95.5t-168.5 28q-71 0 -110 1t-101.5 9.5t-117.5 24.5l-31 -20q47 -305 4 -625z" />
    <glyph glyph-name="germandbls" unicode="&#xdf;" horiz-adv-x="1310" 
d="M371 0h-209v1094q0 48 4.5 95.5t19 106.5t37 110.5t62 101.5t90.5 85.5t126.5 57.5t166.5 22q234 0 368.5 -128.5t134.5 -325.5q0 -155 -83.5 -254t-233.5 -111v-39q175 -6 276 -103.5t101 -260.5q0 -71 -20 -136.5t-63.5 -123t-107 -100t-156.5 -67t-206 -24.5h-148v186
h175q137 0 222 77.5t85 197.5q0 113 -78.5 187.5t-200.5 74.5h-106v184h82q108 0 177.5 77t69.5 206t-74.5 211t-215.5 82q-56 0 -101.5 -15t-75.5 -38.5t-52.5 -57t-34.5 -65t-19.5 -68t-9.5 -62t-2 -49.5v-1128z" />
    <glyph glyph-name="agrave" unicode="&#xe0;" horiz-adv-x="1185" 
d="M698 1278h-180l-311 385h258zM453 -35q-74 0 -139.5 20t-118 57.5t-83 98.5t-30.5 138q0 62 21 113.5t56 87.5t86.5 64.5t106 46.5t121.5 32q26 5 74 15q44 8 65 12.5t54.5 12t48.5 13.5l37.5 15t32 18.5t20.5 23t14.5 29t3.5 35.5q0 82 -66.5 141t-172.5 59
q-96 0 -167 -55.5t-100 -155.5l-196 66q33 109 108 182t167 104t198 31q93 0 171.5 -24t139 -70.5t95 -122.5t34.5 -174v-424q0 -130 9 -205t28 -149h-207q-18 58 -19.5 100.5t19.5 135.5h-30q-50 -131 -148 -201t-233 -70zM504 129q71 0 133 30t101.5 76.5t62 100.5
t22.5 106v136q-75 -58 -248 -93q-40 -8 -71 -16.5t-70 -25.5t-64.5 -37t-43 -51.5t-17.5 -69.5q0 -73 54 -114.5t141 -41.5z" />
    <glyph glyph-name="aacute" unicode="&#xe1;" horiz-adv-x="1185" 
d="M989 1663l-311 -385h-180l233 385h258zM453 -35q-74 0 -139.5 20t-118 57.5t-83 98.5t-30.5 138q0 62 21 113.5t56 87.5t86.5 64.5t106 46.5t121.5 32q26 5 74 15q44 8 65 12.5t54.5 12t48.5 13.5l37.5 15t32 18.5t20.5 23t14.5 29t3.5 35.5q0 82 -66.5 141t-172.5 59
q-96 0 -167 -55.5t-100 -155.5l-196 66q33 109 108 182t167 104t198 31q93 0 171.5 -24t139 -70.5t95 -122.5t34.5 -174v-424q0 -130 9 -205t28 -149h-207q-18 58 -19.5 100.5t19.5 135.5h-30q-50 -131 -148 -201t-233 -70zM504 129q71 0 133 30t101.5 76.5t62 100.5
t22.5 106v136q-75 -58 -248 -93q-40 -8 -71 -16.5t-70 -25.5t-64.5 -37t-43 -51.5t-17.5 -69.5q0 -73 54 -114.5t141 -41.5z" />
    <glyph glyph-name="acircumflex" unicode="&#xe2;" horiz-adv-x="1185" 
d="M385 1278h-197l297 364h232l297 -364h-197q-46 48 -72 77.5t-60.5 79t-57.5 99.5h-49q-34 -72 -80 -129.5t-113 -126.5zM453 -35q-74 0 -139.5 20t-118 57.5t-83 98.5t-30.5 138q0 62 21 113.5t56 87.5t86.5 64.5t106 46.5t121.5 32q26 5 74 15q44 8 65 12.5t54.5 12
t48.5 13.5l37.5 15t32 18.5t20.5 23t14.5 29t3.5 35.5q0 82 -66.5 141t-172.5 59q-96 0 -167 -55.5t-100 -155.5l-196 66q33 109 108 182t167 104t198 31q93 0 171.5 -24t139 -70.5t95 -122.5t34.5 -174v-424q0 -130 9 -205t28 -149h-207q-18 58 -19.5 100.5t19.5 135.5h-30
q-50 -131 -148 -201t-233 -70zM504 129q71 0 133 30t101.5 76.5t62 100.5t22.5 106v136q-75 -58 -248 -93q-40 -8 -71 -16.5t-70 -25.5t-64.5 -37t-43 -51.5t-17.5 -69.5q0 -73 54 -114.5t141 -41.5z" />
    <glyph glyph-name="atilde" unicode="&#xe3;" horiz-adv-x="1185" 
d="M762 1307q-48 0 -82.5 15t-71.5 46l-49 35q-55 43 -90 43q-41 0 -65.5 -35t-24.5 -88h-152q1 126 67.5 204.5t168.5 78.5q67 0 149 -60l47 -35q57 -41 91 -41q39 0 59 32.5t20 88.5h154q0 -134 -58 -209t-163 -75zM453 -35q-74 0 -139.5 20t-118 57.5t-83 98.5t-30.5 138
q0 62 21 113.5t56 87.5t86.5 64.5t106 46.5t121.5 32q26 5 74 15q44 8 65 12.5t54.5 12t48.5 13.5l37.5 15t32 18.5t20.5 23t14.5 29t3.5 35.5q0 82 -66.5 141t-172.5 59q-96 0 -167 -55.5t-100 -155.5l-196 66q33 109 108 182t167 104t198 31q93 0 171.5 -24t139 -70.5
t95 -122.5t34.5 -174v-424q0 -130 9 -205t28 -149h-207q-18 58 -19.5 100.5t19.5 135.5h-30q-50 -131 -148 -201t-233 -70zM504 129q71 0 133 30t101.5 76.5t62 100.5t22.5 106v136q-75 -58 -248 -93q-40 -8 -71 -16.5t-70 -25.5t-64.5 -37t-43 -51.5t-17.5 -69.5
q0 -73 54 -114.5t141 -41.5z" />
    <glyph glyph-name="adieresis" unicode="&#xe4;" horiz-adv-x="1185" 
d="M406 1337q-56 0 -95 40t-39 96q0 53 39 92t95 39q55 0 93 -39t38 -92q0 -56 -38 -96t-93 -40zM799 1337q-58 0 -95.5 39.5t-37.5 96.5q0 54 38 92.5t95 38.5q53 0 91 -39t38 -92q0 -56 -37.5 -96t-91.5 -40zM453 -35q-74 0 -139.5 20t-118 57.5t-83 98.5t-30.5 138
q0 62 21 113.5t56 87.5t86.5 64.5t106 46.5t121.5 32q26 5 74 15q44 8 65 12.5t54.5 12t48.5 13.5l37.5 15t32 18.5t20.5 23t14.5 29t3.5 35.5q0 82 -66.5 141t-172.5 59q-96 0 -167 -55.5t-100 -155.5l-196 66q33 109 108 182t167 104t198 31q93 0 171.5 -24t139 -70.5
t95 -122.5t34.5 -174v-424q0 -130 9 -205t28 -149h-207q-18 58 -19.5 100.5t19.5 135.5h-30q-50 -131 -148 -201t-233 -70zM504 129q71 0 133 30t101.5 76.5t62 100.5t22.5 106v136q-75 -58 -248 -93q-40 -8 -71 -16.5t-70 -25.5t-64.5 -37t-43 -51.5t-17.5 -69.5
q0 -73 54 -114.5t141 -41.5z" />
    <glyph glyph-name="aring" unicode="&#xe5;" horiz-adv-x="1185" 
d="M602 1251q-104 0 -174 67t-70 167t70 166.5t174 66.5q102 0 172 -66.5t70 -166.5t-70 -167t-172 -67zM602 1364q52 0 86.5 34t34.5 87q0 52 -34.5 85.5t-86.5 33.5q-54 0 -88.5 -33.5t-34.5 -85.5q0 -54 34.5 -87.5t88.5 -33.5zM453 -35q-74 0 -139.5 20t-118 57.5
t-83 98.5t-30.5 138q0 62 21 113.5t56 87.5t86.5 64.5t106 46.5t121.5 32q26 5 74 15q44 8 65 12.5t54.5 12t48.5 13.5l37.5 15t32 18.5t20.5 23t14.5 29t3.5 35.5q0 82 -66.5 141t-172.5 59q-96 0 -167 -55.5t-100 -155.5l-196 66q33 109 108 182t167 104t198 31
q93 0 171.5 -24t139 -70.5t95 -122.5t34.5 -174v-424q0 -130 9 -205t28 -149h-207q-18 58 -19.5 100.5t19.5 135.5h-30q-50 -131 -148 -201t-233 -70zM504 129q71 0 133 30t101.5 76.5t62 100.5t22.5 106v136q-75 -58 -248 -93q-40 -8 -71 -16.5t-70 -25.5t-64.5 -37
t-43 -51.5t-17.5 -69.5q0 -73 54 -114.5t141 -41.5z" />
    <glyph glyph-name="ae" unicode="&#xe6;" horiz-adv-x="2019" 
d="M459 -35q-164 0 -270.5 82t-106.5 232q0 66 23 119.5t59 88.5t90 63t105 44t114 29q30 6 80 15.5t75.5 15t63 15t56.5 20t39 26t28 36.5t8 48q0 78 -67 138t-170 60q-96 0 -167 -56t-102 -155l-196 66q50 158 180.5 237.5t294.5 79.5q62 0 117.5 -12t107 -38t92 -70.5
t64.5 -104.5q69 112 176.5 168.5t241.5 56.5q78 0 151.5 -18.5t144 -62.5t122.5 -109.5t84 -167t32 -227.5v-64h-893q10 -165 113 -266.5t254 -101.5q117 0 207.5 65t134.5 174l192 -76q-63 -161 -204 -255.5t-330 -94.5q-168 0 -294 78.5t-179 239.5h-31
q-58 -153 -174.5 -235.5t-265.5 -82.5zM1044 676h668q-7 85 -38.5 148t-79 97.5t-99.5 51t-109 16.5q-133 0 -225 -86t-117 -227zM506 127q92 0 167.5 52t113.5 123.5t38 139.5v136q-91 -65 -235 -86q-281 -48 -281 -205q0 -75 54.5 -117.5t142.5 -42.5z" />
    <glyph glyph-name="ccedilla" unicode="&#xe7;" horiz-adv-x="1247" 
d="M692 -35q-45 -51 -119 -115l13 -12q61 41 116 41q79 0 133 -49.5t54 -130.5q0 -91 -72 -148t-182 -57q-84 0 -155.5 32.5t-114.5 88.5l73 84q34 -46 84.5 -70t104.5 -24q53 0 87 26t34 68q0 39 -31.5 63.5t-81.5 24.5q-53 0 -92 -27l-72 60l98 151q-217 30 -352 190
t-135 404q0 271 161.5 437.5t411.5 166.5q174 0 310.5 -86.5t199.5 -251.5l-196 -77q-37 106 -122 162.5t-196 56.5q-158 0 -255 -115t-97 -291q0 -182 103.5 -294.5t261.5 -112.5q122 0 212.5 68t135.5 186l192 -76q-61 -169 -196.5 -266.5t-315.5 -106.5z" />
    <glyph glyph-name="egrave" unicode="&#xe8;" horiz-adv-x="1267" 
d="M735 1278h-180l-311 385h258zM657 -35q-164 0 -294.5 74t-205.5 211t-75 313q0 174 72 312.5t200.5 216t290.5 77.5q78 0 151 -18.5t143.5 -62.5t122.5 -109.5t84 -167t32 -227.5v-70h-885q10 -169 111 -265.5t253 -96.5q118 0 206 65t132 174l193 -76
q-61 -160 -202.5 -255t-328.5 -95zM303 686h662q-4 79 -33.5 139t-75.5 95t-100 52t-113 17q-134 0 -225 -85t-115 -218z" />
    <glyph glyph-name="eacute" unicode="&#xe9;" horiz-adv-x="1267" 
d="M1026 1663l-311 -385h-180l233 385h258zM657 -35q-164 0 -294.5 74t-205.5 211t-75 313q0 174 72 312.5t200.5 216t290.5 77.5q78 0 151 -18.5t143.5 -62.5t122.5 -109.5t84 -167t32 -227.5v-70h-885q10 -169 111 -265.5t253 -96.5q118 0 206 65t132 174l193 -76
q-61 -160 -202.5 -255t-328.5 -95zM303 686h662q-4 79 -33.5 139t-75.5 95t-100 52t-113 17q-134 0 -225 -85t-115 -218z" />
    <glyph glyph-name="ecircumflex" unicode="&#xea;" horiz-adv-x="1267" 
d="M422 1278h-197l297 364h232l297 -364h-197q-46 48 -72 77.5t-60.5 79t-57.5 99.5h-50q-35 -72 -80.5 -130t-111.5 -126zM657 -35q-164 0 -294.5 74t-205.5 211t-75 313q0 174 72 312.5t200.5 216t290.5 77.5q78 0 151 -18.5t143.5 -62.5t122.5 -109.5t84 -167t32 -227.5
v-70h-885q10 -169 111 -265.5t253 -96.5q118 0 206 65t132 174l193 -76q-61 -160 -202.5 -255t-328.5 -95zM303 686h662q-4 79 -33.5 139t-75.5 95t-100 52t-113 17q-134 0 -225 -85t-115 -218z" />
    <glyph glyph-name="edieresis" unicode="&#xeb;" horiz-adv-x="1267" 
d="M442 1337q-56 0 -94.5 40t-38.5 96q0 53 38.5 92t94.5 39q55 0 93 -39t38 -92q0 -56 -38 -96t-93 -40zM836 1337q-58 0 -96 40t-38 96q0 54 38.5 92.5t95.5 38.5q53 0 91 -39t38 -92q0 -56 -37.5 -96t-91.5 -40zM657 -35q-164 0 -294.5 74t-205.5 211t-75 313
q0 174 72 312.5t200.5 216t290.5 77.5q78 0 151 -18.5t143.5 -62.5t122.5 -109.5t84 -167t32 -227.5v-70h-885q10 -169 111 -265.5t253 -96.5q118 0 206 65t132 174l193 -76q-61 -160 -202.5 -255t-328.5 -95zM303 686h662q-4 79 -33.5 139t-75.5 95t-100 52t-113 17
q-134 0 -225 -85t-115 -218z" />
    <glyph glyph-name="igrave" unicode="&#xec;" horiz-adv-x="532" 
d="M365 1268h-181l-311 385h258zM371 0h-209v1137h209v-1137z" />
    <glyph glyph-name="iacute" unicode="&#xed;" horiz-adv-x="532" 
d="M655 1653l-311 -385h-180l233 385h258zM371 0h-209v1137h209v-1137z" />
    <glyph glyph-name="icircumflex" unicode="&#xee;" horiz-adv-x="532" 
d="M49 1268h-196l297 364h231l297 -364h-197q-46 48 -72 77.5t-60.5 79t-57.5 99.5h-49q-34 -72 -80 -129.5t-113 -126.5zM371 0h-209v1137h209v-1137z" />
    <glyph glyph-name="idieresis" unicode="&#xef;" horiz-adv-x="532" 
d="M72 1327q-56 0 -94.5 39.5t-38.5 95.5q0 53 38.5 92t94.5 39q55 0 93 -39t38 -92q0 -56 -38 -95.5t-93 -39.5zM465 1327q-58 0 -95.5 39.5t-37.5 95.5q0 54 38 92.5t95 38.5q53 0 91 -39t38 -92q0 -56 -37.5 -95.5t-91.5 -39.5zM371 0h-209v1137h209v-1137z" />
    <glyph glyph-name="eth" unicode="&#xf0;" horiz-adv-x="1337" 
d="M1049 1544l-168 -96q358 -288 358 -772q0 -329 -158 -520t-428 -191q-129 0 -237.5 45.5t-181.5 123.5t-113.5 182.5t-40.5 220.5q0 121 43 226.5t115 177t167.5 112.5t200.5 41q128 0 230 -61t190 -185h31q-116 314 -357 495l-278 -159l-64 106l226 129
q-105 61 -281 125l55 166q241 -74 412 -184l213 123zM649 156q153 0 252.5 104t99.5 270q0 168 -99.5 273.5t-250.5 105.5q-153 0 -253.5 -107.5t-100.5 -269.5q0 -160 98 -268t254 -108z" />
    <glyph glyph-name="ntilde" unicode="&#xf1;" horiz-adv-x="1302" 
d="M805 1307q-48 0 -82.5 15t-71.5 46l-49 35q-55 43 -90 43q-41 0 -65.5 -35t-24.5 -88h-152q1 126 67.5 204.5t168.5 78.5q67 0 149 -60l47 -35q57 -41 91 -41q39 0 59 32.5t20 88.5h154q0 -134 -58 -209t-163 -75zM371 0h-209v1137h205q0 -132 -31 -234h29
q124 266 385 266q80 0 150.5 -25.5t128.5 -77.5t92 -142.5t34 -208.5v-715h-209v623q0 167 -68.5 258.5t-195.5 91.5q-139 0 -225 -102t-86 -261v-610z" />
    <glyph glyph-name="ograve" unicode="&#xf2;" horiz-adv-x="1318" 
d="M758 1278h-180l-312 385h258zM662 -35q-257 0 -418.5 167.5t-161.5 432.5q0 266 162 435t418 169q253 0 414 -169t161 -435q0 -265 -160.5 -432.5t-414.5 -167.5zM662 160q158 0 257 113t99 292q0 180 -99 294t-257 114q-161 0 -261 -113.5t-100 -294.5q0 -179 100 -292
t261 -113z" />
    <glyph glyph-name="oacute" unicode="&#xf3;" horiz-adv-x="1318" 
d="M1049 1663l-312 -385h-180l234 385h258zM662 -35q-257 0 -418.5 167.5t-161.5 432.5q0 266 162 435t418 169q253 0 414 -169t161 -435q0 -265 -160.5 -432.5t-414.5 -167.5zM662 160q158 0 257 113t99 292q0 180 -99 294t-257 114q-161 0 -261 -113.5t-100 -294.5
q0 -179 100 -292t261 -113z" />
    <glyph glyph-name="ocircumflex" unicode="&#xf4;" horiz-adv-x="1318" 
d="M444 1278h-196l297 364h231l297 -364h-196q-47 50 -72 78.5t-60.5 78.5t-58.5 99h-49q-34 -72 -80 -129.5t-113 -126.5zM662 -35q-257 0 -418.5 167.5t-161.5 432.5q0 266 162 435t418 169q253 0 414 -169t161 -435q0 -265 -160.5 -432.5t-414.5 -167.5zM662 160
q158 0 257 113t99 292q0 180 -99 294t-257 114q-161 0 -261 -113.5t-100 -294.5q0 -179 100 -292t261 -113z" />
    <glyph glyph-name="otilde" unicode="&#xf5;" horiz-adv-x="1318" 
d="M819 1307q-48 0 -81.5 15t-71.5 46l-50 35q-55 43 -90 43q-41 0 -65.5 -35t-24.5 -88h-151q1 127 67 205t168 78q68 0 150 -60l47 -35q57 -41 90 -41q39 0 59.5 32.5t20.5 88.5h153q0 -134 -58 -209t-163 -75zM662 -35q-257 0 -418.5 167.5t-161.5 432.5q0 266 162 435
t418 169q253 0 414 -169t161 -435q0 -265 -160.5 -432.5t-414.5 -167.5zM662 160q158 0 257 113t99 292q0 180 -99 294t-257 114q-161 0 -261 -113.5t-100 -294.5q0 -179 100 -292t261 -113z" />
    <glyph glyph-name="odieresis" unicode="&#xf6;" horiz-adv-x="1318" 
d="M465 1337q-56 0 -94.5 40t-38.5 96q0 53 38.5 92t94.5 39q55 0 93 -39t38 -92q0 -56 -38 -96t-93 -40zM858 1337q-58 0 -95.5 39.5t-37.5 96.5q0 54 38 92.5t95 38.5q53 0 91 -39t38 -92q0 -56 -37.5 -96t-91.5 -40zM662 -35q-257 0 -418.5 167.5t-161.5 432.5
q0 266 162 435t418 169q253 0 414 -169t161 -435q0 -265 -160.5 -432.5t-414.5 -167.5zM662 160q158 0 257 113t99 292q0 180 -99 294t-257 114q-161 0 -261 -113.5t-100 -294.5q0 -179 100 -292t261 -113z" />
    <glyph glyph-name="divide" unicode="&#xf7;" horiz-adv-x="1077" 
d="M541 842q-54 0 -90.5 38.5t-36.5 94.5q0 53 36.5 90t90.5 37q55 0 92 -37.5t37 -91.5t-37.5 -92.5t-91.5 -38.5zM948 543h-817v168h817v-168zM541 150q-54 0 -90.5 38.5t-36.5 94.5q0 54 36.5 90.5t90.5 36.5q55 0 92 -36.5t37 -90.5q0 -56 -37.5 -94.5t-91.5 -38.5z" />
    <glyph glyph-name="oslash" unicode="&#xf8;" horiz-adv-x="1318" 
d="M1217 1184l-138 -187q158 -171 158 -432q0 -265 -160.5 -432.5t-414.5 -167.5q-163 0 -295 74l-72 -96h-189l140 186q-78 81 -121 193t-43 243q0 266 162 435t418 169q170 0 303 -79l69 94h183zM301 565q0 -153 76 -262l463 623q-77 47 -178 47q-161 0 -261 -113.5
t-100 -294.5zM662 160q158 0 257 113t99 292q0 150 -70 256l-461 -618q76 -43 175 -43z" />
    <glyph glyph-name="ugrave" unicode="&#xf9;" horiz-adv-x="1284" 
d="M729 1278h-180l-311 385h258zM557 -35q-87 0 -159.5 26.5t-129.5 80t-89 143.5t-32 209v713h209v-639q0 -169 72 -253.5t186 -84.5q91 0 160.5 51.5t103 130t33.5 168.5v627h209v-783q0 -131 9 -205.5t28 -148.5h-209q-11 47 -15.5 72.5t-2 69.5t17.5 96h-28
q-54 -146 -143.5 -209.5t-219.5 -63.5z" />
    <glyph glyph-name="uacute" unicode="&#xfa;" horiz-adv-x="1284" 
d="M1020 1663l-311 -385h-181l234 385h258zM557 -35q-87 0 -159.5 26.5t-129.5 80t-89 143.5t-32 209v713h209v-639q0 -169 72 -253.5t186 -84.5q91 0 160.5 51.5t103 130t33.5 168.5v627h209v-783q0 -131 9 -205.5t28 -148.5h-209q-11 47 -15.5 72.5t-2 69.5t17.5 96h-28
q-54 -146 -143.5 -209.5t-219.5 -63.5z" />
    <glyph glyph-name="ucircumflex" unicode="&#xfb;" horiz-adv-x="1284" 
d="M416 1278h-197l297 364h232l296 -364h-196q-47 50 -72 78.5t-60.5 78.5t-58.5 99h-49q-35 -72 -80.5 -130t-111.5 -126zM557 -35q-87 0 -159.5 26.5t-129.5 80t-89 143.5t-32 209v713h209v-639q0 -169 72 -253.5t186 -84.5q91 0 160.5 51.5t103 130t33.5 168.5v627h209
v-783q0 -131 9 -205.5t28 -148.5h-209q-11 47 -15.5 72.5t-2 69.5t17.5 96h-28q-54 -146 -143.5 -209.5t-219.5 -63.5z" />
    <glyph glyph-name="udieresis" unicode="&#xfc;" horiz-adv-x="1284" 
d="M436 1337q-56 0 -94.5 40t-38.5 96q0 53 38.5 92t94.5 39q55 0 93 -39t38 -92q0 -56 -38 -96t-93 -40zM829 1337q-58 0 -95.5 39.5t-37.5 96.5q0 54 38 92.5t95 38.5q53 0 91 -39t38 -92q0 -56 -37.5 -96t-91.5 -40zM557 -35q-87 0 -159.5 26.5t-129.5 80t-89 143.5
t-32 209v713h209v-639q0 -169 72 -253.5t186 -84.5q91 0 160.5 51.5t103 130t33.5 168.5v627h209v-783q0 -131 9 -205.5t28 -148.5h-209q-11 47 -15.5 72.5t-2 69.5t17.5 96h-28q-54 -146 -143.5 -209.5t-219.5 -63.5z" />
    <glyph glyph-name="yacute" unicode="&#xfd;" horiz-adv-x="1155" 
d="M958 1663l-311 -385h-180l233 385h258zM522 -451h-213l162 420l-451 1168h230q200 -518 317 -953h29q102 385 315 953h224z" />
    <glyph glyph-name="thorn" unicode="&#xfe;" horiz-adv-x="1368" 
d="M371 -451h-209v2089h209v-98.5v-107t-0.5 -97t-2.5 -110t-4.5 -100.5t-7 -115t-10.5 -109h29q131 268 397 268q148 0 265.5 -79.5t182 -217t64.5 -307.5q0 -133 -41.5 -246t-112 -190t-165.5 -120.5t-201 -43.5q-126 0 -226 63t-163 191h-31q6 -50 11 -99t8 -105.5
t4.5 -90.5t2.5 -101t1 -87.5v-98v-88.5zM721 160q150 0 248 115.5t98 289.5q0 178 -98 293t-248 115q-151 0 -252.5 -115t-101.5 -293t102.5 -291.5t251.5 -113.5z" />
    <glyph glyph-name="ydieresis" unicode="&#xff;" horiz-adv-x="1155" 
d="M375 1337q-56 0 -94.5 40t-38.5 96q0 53 38.5 92t94.5 39q55 0 93 -39t38 -92q0 -56 -38 -96t-93 -40zM768 1337q-58 0 -95.5 39.5t-37.5 96.5q0 54 38 92.5t95 38.5q53 0 91 -39t38 -92q0 -56 -37.5 -96t-91.5 -40zM522 -451h-213l162 420l-451 1168h230
q200 -518 317 -953h29q102 385 315 953h224z" />
    <glyph glyph-name="Amacron" unicode="&#x100;" horiz-adv-x="1542" 
d="M1124 1798h-708v162h708v-162zM248 0h-232l629 1597h252l629 -1597h-236q-40 100 -63 161t-53.5 157.5t-47.5 181.5l-22 20q-188 -31 -326 -31q-163 0 -338 31l-22 -22q-42 -172 -170 -498zM494 684l16 -20q138 30 268 30q128 0 248 -30l14 20q-174 371 -241 717h-60
q-73 -353 -245 -717z" />
    <glyph glyph-name="amacron" unicode="&#x101;" horiz-adv-x="1185" 
d="M948 1376h-688v156h688v-156zM453 -35q-74 0 -139.5 20t-118 57.5t-83 98.5t-30.5 138q0 62 21 113.5t56 87.5t86.5 64.5t106 46.5t121.5 32q26 5 74 15q44 8 65 12.5t54.5 12t48.5 13.5l37.5 15t32 18.5t20.5 23t14.5 29t3.5 35.5q0 82 -66.5 141t-172.5 59
q-96 0 -167 -55.5t-100 -155.5l-196 66q33 109 108 182t167 104t198 31q93 0 171.5 -24t139 -70.5t95 -122.5t34.5 -174v-424q0 -130 9 -205t28 -149h-207q-18 58 -19.5 100.5t19.5 135.5h-30q-50 -131 -148 -201t-233 -70zM504 129q71 0 133 30t101.5 76.5t62 100.5
t22.5 106v136q-75 -58 -248 -93q-40 -8 -71 -16.5t-70 -25.5t-64.5 -37t-43 -51.5t-17.5 -69.5q0 -73 54 -114.5t141 -41.5z" />
    <glyph glyph-name="Abreve" unicode="&#x102;" horiz-adv-x="1542" 
d="M770 1720q-168 0 -276 102t-113 242h182q3 -75 61 -131.5t146 -56.5q90 0 148 56.5t61 131.5h182q-5 -139 -113.5 -241.5t-277.5 -102.5zM248 0h-232l629 1597h252l629 -1597h-236q-40 100 -63 161t-53.5 157.5t-47.5 181.5l-22 20q-188 -31 -326 -31q-163 0 -338 31
l-22 -22q-42 -172 -170 -498zM494 684l16 -20q138 30 268 30q128 0 248 -30l14 20q-174 371 -241 717h-60q-73 -353 -245 -717z" />
    <glyph glyph-name="abreve" unicode="&#x103;" horiz-adv-x="1185" 
d="M600 1272q-171 0 -273 111t-108 284h174q5 -105 61.5 -172.5t149.5 -67.5t150.5 67.5t60.5 172.5h174q-6 -174 -109 -284.5t-280 -110.5zM453 -35q-74 0 -139.5 20t-118 57.5t-83 98.5t-30.5 138q0 62 21 113.5t56 87.5t86.5 64.5t106 46.5t121.5 32q26 5 74 15
q44 8 65 12.5t54.5 12t48.5 13.5l37.5 15t32 18.5t20.5 23t14.5 29t3.5 35.5q0 82 -66.5 141t-172.5 59q-96 0 -167 -55.5t-100 -155.5l-196 66q33 109 108 182t167 104t198 31q93 0 171.5 -24t139 -70.5t95 -122.5t34.5 -174v-424q0 -130 9 -205t28 -149h-207
q-18 58 -19.5 100.5t19.5 135.5h-30q-50 -131 -148 -201t-233 -70zM504 129q71 0 133 30t101.5 76.5t62 100.5t22.5 106v136q-75 -58 -248 -93q-40 -8 -71 -16.5t-70 -25.5t-64.5 -37t-43 -51.5t-17.5 -69.5q0 -73 54 -114.5t141 -41.5z" />
    <glyph glyph-name="Aogonek" unicode="&#x104;" horiz-adv-x="1542" 
d="M1444 -326q42 0 88 13v-133q-55 -17 -117 -17q-122 0 -205.5 61.5t-83.5 172.5q0 140 168 229h-4q-40 100 -63 161t-53.5 157.5t-47.5 181.5l-22 20q-188 -31 -326 -31q-163 0 -338 31l-22 -22q-42 -172 -170 -498h-232l629 1597h252l629 -1597h-76q-89 -29 -130.5 -79
t-41.5 -105q0 -60 44.5 -101t121.5 -41zM1026 664l14 20q-174 371 -241 717h-60q-73 -353 -245 -717l16 -20q138 30 268 30q128 0 248 -30z" />
    <glyph glyph-name="aogonek" unicode="&#x105;" horiz-adv-x="1185" 
d="M1001 -319q46 0 93 16v-146q-55 -14 -111 -14q-122 0 -203.5 62t-81.5 172q0 75 45 133.5t123 95.5h-2q-18 58 -19.5 100.5t19.5 135.5h-30q-50 -131 -148 -201t-233 -70q-74 0 -139.5 20t-118 57.5t-83 98.5t-30.5 138q0 62 21 113.5t56 87.5t86.5 64.5t106 46.5
t121.5 32q26 5 74 15q44 8 65 12.5t54.5 12t48.5 13.5l37.5 15t32 18.5t20.5 23t14.5 29t3.5 35.5q0 82 -66.5 141t-172.5 59q-96 0 -167 -55.5t-100 -155.5l-196 66q33 109 108 182t167 104t198 31q93 0 171.5 -24t139 -70.5t95 -122.5t34.5 -174v-424q0 -130 9 -205
t28 -149h-57q-84 -31 -125 -80t-41 -106q0 -59 43 -96t110 -37zM823 442v136q-75 -58 -248 -93q-40 -8 -71 -16.5t-70 -25.5t-64.5 -37t-43 -51.5t-17.5 -69.5q0 -73 54 -114.5t141 -41.5q71 0 133 30t101.5 76.5t62 100.5t22.5 106z" />
    <glyph glyph-name="Cacute" unicode="&#x106;" horiz-adv-x="1712" 
d="M1294 2060l-333 -340h-189l246 340h276zM913 -35q-236 0 -422 104.5t-290.5 294.5t-104.5 435q0 189 65 347.5t175.5 263t256.5 162.5t308 58q160 0 302.5 -55t252.5 -165.5t162 -262.5l-203 -82q-67 166 -203 262t-313 96q-118 0 -222 -44t-181.5 -124t-122.5 -200
t-45 -264q0 -125 34.5 -229.5t92 -175.5t134.5 -120t161 -71.5t172 -22.5q207 0 350.5 119.5t202.5 318.5l202 -71q-87 -271 -285.5 -422.5t-478.5 -151.5z" />
    <glyph glyph-name="cacute" unicode="&#x107;" horiz-adv-x="1247" 
d="M1008 1663l-312 -385h-180l234 385h258zM659 -35q-252 0 -414.5 165t-162.5 435q0 271 161.5 437.5t411.5 166.5q174 0 310.5 -86.5t199.5 -251.5l-196 -77q-37 106 -122 162.5t-196 56.5q-158 0 -255 -115t-97 -291q0 -182 103.5 -294.5t261.5 -112.5q122 0 212.5 68
t135.5 186l192 -76q-64 -177 -208.5 -275t-336.5 -98z" />
    <glyph glyph-name="Cdotaccent" unicode="&#x10a;" horiz-adv-x="1712" 
d="M874 1772q-61 0 -102 41.5t-41 103.5q0 59 41 100t102 41t102.5 -41t41.5 -100q0 -62 -41.5 -103.5t-102.5 -41.5zM913 -35q-236 0 -422 104.5t-290.5 294.5t-104.5 435q0 189 65 347.5t175.5 263t256.5 162.5t308 58q160 0 302.5 -55t252.5 -165.5t162 -262.5l-203 -82
q-67 166 -203 262t-313 96q-118 0 -222 -44t-181.5 -124t-122.5 -200t-45 -264q0 -125 34.5 -229.5t92 -175.5t134.5 -120t161 -71.5t172 -22.5q207 0 350.5 119.5t202.5 318.5l202 -71q-87 -271 -285.5 -422.5t-478.5 -151.5z" />
    <glyph glyph-name="cdotaccent" unicode="&#x10b;" horiz-adv-x="1247" 
d="M623 1370q-63 0 -104.5 42.5t-41.5 105.5q0 58 42 99.5t104 41.5q59 0 100 -41.5t41 -99.5q0 -63 -40.5 -105.5t-100.5 -42.5zM659 -35q-252 0 -414.5 165t-162.5 435q0 271 161.5 437.5t411.5 166.5q174 0 310.5 -86.5t199.5 -251.5l-196 -77q-37 106 -122 162.5
t-196 56.5q-158 0 -255 -115t-97 -291q0 -182 103.5 -294.5t261.5 -112.5q122 0 212.5 68t135.5 186l192 -76q-64 -177 -208.5 -275t-336.5 -98z" />
    <glyph glyph-name="Ccaron" unicode="&#x10c;" horiz-adv-x="1712" 
d="M987 1720h-227l-277 330h193q42 -40 63 -63t52.5 -70t52.5 -102h59q20 54 52.5 103t50.5 68t63 64h195zM913 -35q-236 0 -422 104.5t-290.5 294.5t-104.5 435q0 189 65 347.5t175.5 263t256.5 162.5t308 58q160 0 302.5 -55t252.5 -165.5t162 -262.5l-203 -82
q-67 166 -203 262t-313 96q-118 0 -222 -44t-181.5 -124t-122.5 -200t-45 -264q0 -125 34.5 -229.5t92 -175.5t134.5 -120t161 -71.5t172 -22.5q207 0 350.5 119.5t202.5 318.5l202 -71q-87 -271 -285.5 -422.5t-478.5 -151.5z" />
    <glyph glyph-name="ccaron" unicode="&#x10d;" horiz-adv-x="1247" 
d="M735 1288h-231l-297 373h196q8 -10 34.5 -40.5t37 -43t32.5 -39.5t34.5 -45t29 -44t29.5 -52h41q19 37 46 77t42.5 60t57 68.5t49.5 58.5h196zM659 -35q-252 0 -414.5 165t-162.5 435q0 271 161.5 437.5t411.5 166.5q174 0 310.5 -86.5t199.5 -251.5l-196 -77
q-37 106 -122 162.5t-196 56.5q-158 0 -255 -115t-97 -291q0 -182 103.5 -294.5t261.5 -112.5q122 0 212.5 68t135.5 186l192 -76q-64 -177 -208.5 -275t-336.5 -98z" />
    <glyph glyph-name="Dcaron" unicode="&#x10e;" horiz-adv-x="1638" 
d="M877 1720h-228l-276 330h192q42 -40 63 -63t52.5 -70t52.5 -102h60q15 42 33.5 75.5t45.5 66t39 45.5t47 48h195zM801 0h-606v1597h587q156 0 283 -40.5t214.5 -112t146.5 -171.5t86.5 -216t27.5 -248q0 -238 -87 -420t-255.5 -285.5t-396.5 -103.5zM383 195l29 -29
q63 17 135 26t116.5 10t124.5 1q112 0 206 36.5t165 108t110.5 186t39.5 261.5q0 160 -46.5 279t-128.5 187.5t-183 101t-222 32.5q-67 0 -104 1t-97.5 9.5t-115.5 24.5l-31 -19q71 -620 2 -1216z" />
    <glyph glyph-name="dcaron" unicode="&#x10f;" horiz-adv-x="1370" 
d="M1464 1139h-125q42 83 84 146t105 124q-137 30 -137 135q0 59 43 101.5t104 42.5q60 0 101.5 -41.5t41.5 -100.5q0 -46 -31.5 -105.5t-137.5 -226.5q-10 -16 -16 -24.5t-15 -23t-17 -27.5zM606 -35q-152 0 -271.5 77t-185 214.5t-65.5 310.5q0 135 41 249t111.5 191
t166 119.5t203.5 42.5q279 0 387 -286h31q-31 314 -27 755h209v-1284q0 -131 9 -205.5t28 -148.5h-207q-15 62 -18 106t8 127h-29q-38 -95 -101 -156.5t-134.5 -86.5t-155.5 -25zM647 162q151 0 252.5 114.5t101.5 292.5t-101.5 292t-252.5 114t-248.5 -115.5t-97.5 -292.5
q0 -175 98 -290t248 -115z" />
    <glyph glyph-name="Dcroat" unicode="&#x110;" horiz-adv-x="1638" 
d="M195 1597h587q156 0 283 -40.5t214.5 -112t146.5 -171.5t86.5 -216t27.5 -248q0 -238 -87 -420t-255.5 -285.5t-396.5 -103.5h-606v709h-191v178h191v710zM788 203q112 0 206 36.5t165 108t110.5 186t39.5 261.5q0 160 -46.5 279t-128.5 187.5t-183 101t-222 32.5
q-67 0 -104 1t-97.5 9.5t-115.5 24.5l-31 -19q32 -284 35 -524h440v-178h-440q-3 -256 -33 -514l29 -29q63 17 135 26t116.5 10t124.5 1z" />
    <glyph glyph-name="dcroat" unicode="&#x111;" horiz-adv-x="1370" 
d="M1470 1460v-160h-264v-946q0 -131 9 -205.5t28 -148.5h-207q-15 62 -18 106t8 127h-29q-38 -95 -101 -156.5t-134.5 -86.5t-155.5 -25q-152 0 -271.5 77t-185 214.5t-65.5 310.5q0 135 41 249t111.5 191t166 119.5t203.5 42.5q279 0 387 -286h31q-22 245 -25 417h-274
v160h272v178h209v-178h264zM647 162q151 0 252.5 114.5t101.5 292.5t-101.5 292t-252.5 114t-248.5 -115.5t-97.5 -292.5q0 -175 98 -290t248 -115z" />
    <glyph glyph-name="Emacron" unicode="&#x112;" horiz-adv-x="1339" 
d="M1042 1798h-708v162h708v-162zM1237 0h-1042v1597h1022v-202h-106h-115.5t-106 1t-119.5 3t-111.5 6t-125.5 10t-121 15l-31 -19q46 -243 6 -514l21 -23q132 22 277.5 33t239.5 13t251 2v-211q-162 0 -252.5 1.5t-236.5 13t-277 34.5l-23 -23q40 -288 -4 -542l29 -29
q140 19 298 28.5t255 11t272 1.5v-207z" />
    <glyph glyph-name="emacron" unicode="&#x113;" horiz-adv-x="1267" 
d="M983 1376h-688v156h688v-156zM657 -35q-164 0 -294.5 74t-205.5 211t-75 313q0 174 72 312.5t200.5 216t290.5 77.5q78 0 151 -18.5t143.5 -62.5t122.5 -109.5t84 -167t32 -227.5v-70h-885q10 -169 111 -265.5t253 -96.5q118 0 206 65t132 174l193 -76
q-61 -160 -202.5 -255t-328.5 -95zM303 686h662q-4 79 -33.5 139t-75.5 95t-100 52t-113 17q-134 0 -225 -85t-115 -218z" />
    <glyph glyph-name="Edotaccent" unicode="&#x116;" horiz-adv-x="1339" 
d="M690 1772q-61 0 -102 41.5t-41 103.5q0 59 41 100t102 41t102.5 -41t41.5 -100q0 -62 -41.5 -103.5t-102.5 -41.5zM1237 0h-1042v1597h1022v-202h-106h-115.5t-106 1t-119.5 3t-111.5 6t-125.5 10t-121 15l-31 -19q46 -243 6 -514l21 -23q132 22 277.5 33t239.5 13t251 2
v-211q-162 0 -252.5 1.5t-236.5 13t-277 34.5l-23 -23q40 -288 -4 -542l29 -29q140 19 298 28.5t255 11t272 1.5v-207z" />
    <glyph glyph-name="edotaccent" unicode="&#x117;" horiz-adv-x="1267" 
d="M641 1370q-63 0 -104 42.5t-41 105.5q0 58 41.5 99.5t103.5 41.5q59 0 100 -41.5t41 -99.5q0 -63 -40.5 -105.5t-100.5 -42.5zM657 -35q-164 0 -294.5 74t-205.5 211t-75 313q0 174 72 312.5t200.5 216t290.5 77.5q78 0 151 -18.5t143.5 -62.5t122.5 -109.5t84 -167
t32 -227.5v-70h-885q10 -169 111 -265.5t253 -96.5q118 0 206 65t132 174l193 -76q-61 -160 -202.5 -255t-328.5 -95zM303 686h662q-4 79 -33.5 139t-75.5 95t-100 52t-113 17q-134 0 -225 -85t-115 -218z" />
    <glyph glyph-name="Eogonek" unicode="&#x118;" horiz-adv-x="1339" 
d="M1231 -326q43 0 88 13v-133q-55 -17 -117 -17q-122 0 -205.5 61.5t-83.5 172.5q0 140 168 229h-886v1597h1022v-202h-106h-115.5t-106 1t-119.5 3t-111.5 6t-125.5 10t-121 15l-31 -19q46 -243 6 -514l21 -23q132 22 277.5 33t239.5 13t251 2v-211q-162 0 -252.5 1.5
t-236.5 13t-277 34.5l-23 -23q40 -288 -4 -542l29 -29q140 19 298 28.5t255 11t272 1.5v-207q-89 -29 -130.5 -79t-41.5 -105q0 -60 44.5 -101t121.5 -41z" />
    <glyph glyph-name="eogonek" unicode="&#x119;" horiz-adv-x="1267" 
d="M844 -6q-74 -33 -111 -80t-37 -100q0 -58 43 -95.5t111 -37.5q45 0 92 16v-146q-55 -14 -111 -14q-122 0 -203 62t-81 172q0 119 108 194q-250 2 -411.5 167t-161.5 431q0 174 72 312.5t200.5 216t290.5 77.5q78 0 151 -18.5t143.5 -62.5t122.5 -109.5t84 -167t32 -227.5
v-70h-885q10 -169 111 -265.5t253 -96.5q118 0 206 65t132 174l193 -76q-44 -117 -133.5 -200.5t-210.5 -120.5zM643 989q-134 0 -225 -85t-115 -218h662q-4 79 -33.5 139t-75.5 95t-100 52t-113 17z" />
    <glyph glyph-name="Ecaron" unicode="&#x11a;" horiz-adv-x="1339" 
d="M803 1720h-228l-276 330h193q41 -39 62.5 -62.5t52.5 -70.5t52 -102h60q20 54 52.5 103t50.5 68t63 64h194zM1237 0h-1042v1597h1022v-202h-106h-115.5t-106 1t-119.5 3t-111.5 6t-125.5 10t-121 15l-31 -19q46 -243 6 -514l21 -23q132 22 277.5 33t239.5 13t251 2v-211
q-162 0 -252.5 1.5t-236.5 13t-277 34.5l-23 -23q40 -288 -4 -542l29 -29q140 19 298 28.5t255 11t272 1.5v-207z" />
    <glyph glyph-name="ecaron" unicode="&#x11b;" horiz-adv-x="1267" 
d="M754 1288h-232l-297 373h197q8 -9 30 -34.5t31.5 -36.5t28 -34t29.5 -38t26 -36t27.5 -42t23.5 -43h41q19 37 46 77t42.5 60t57 68.5t49.5 58.5h197zM657 -35q-164 0 -294.5 74t-205.5 211t-75 313q0 174 72 312.5t200.5 216t290.5 77.5q78 0 151 -18.5t143.5 -62.5
t122.5 -109.5t84 -167t32 -227.5v-70h-885q10 -169 111 -265.5t253 -96.5q118 0 206 65t132 174l193 -76q-61 -160 -202.5 -255t-328.5 -95zM303 686h662q-4 79 -33.5 139t-75.5 95t-100 52t-113 17q-134 0 -225 -85t-115 -218z" />
    <glyph glyph-name="Gbreve" unicode="&#x11e;" horiz-adv-x="1789" 
d="M874 1720q-168 0 -276 102t-113 242h183q3 -75 60.5 -131.5t145.5 -56.5q90 0 148 56.5t61 131.5h183q-5 -139 -114 -241.5t-278 -102.5zM885 -35q-171 0 -317.5 62t-250 171t-162.5 263.5t-59 333.5q0 187 64 345.5t173.5 265t255.5 165.5t310 59q249 0 445.5 -129
t273.5 -354l-203 -82q-69 167 -203.5 262.5t-310.5 95.5q-117 0 -221 -43.5t-182.5 -123t-124 -200t-45.5 -265.5q0 -127 35.5 -232.5t94.5 -176t137 -119t161 -70t168 -21.5q208 0 359.5 126t227.5 355l-24 27q-230 -62 -541 -62v185h713v-803h-172q-1 13 -3 58t-2.5 66.5
t0.5 60.5t6.5 75.5t14.5 75.5l-37 8q-166 -379 -581 -379z" />
    <glyph glyph-name="gbreve" unicode="&#x11f;" horiz-adv-x="1366" 
d="M670 1272q-171 0 -273 111t-108 284h174q5 -105 61.5 -172.5t149.5 -67.5t150.5 67.5t60.5 172.5h174q-6 -174 -109 -284.5t-280 -110.5zM659 -483q-404 0 -526 329l189 66q86 -217 333 -217q155 0 247.5 96.5t92.5 302.5q0 104 27 168h-31q-60 -134 -159.5 -196
t-223.5 -62q-158 0 -279.5 79.5t-184 210.5t-62.5 292q0 254 149 418.5t371 164.5q133 0 235.5 -75.5t149.5 -210.5h29q-17 118 -17 254h205v-1008q0 -135 -28.5 -241t-77.5 -175t-119 -113.5t-148.5 -63.5t-171.5 -19zM645 199q149 0 251.5 113.5t102.5 277.5
q0 165 -102 275t-252 110q-149 0 -247.5 -111t-98.5 -274q0 -166 98.5 -278.5t247.5 -112.5z" />
    <glyph glyph-name="Gdotaccent" unicode="&#x120;" horiz-adv-x="1789" 
d="M874 1772q-61 0 -102 41.5t-41 103.5q0 59 41 100t102 41t102.5 -41t41.5 -100q0 -62 -41.5 -103.5t-102.5 -41.5zM885 -35q-171 0 -317.5 62t-250 171t-162.5 263.5t-59 333.5q0 187 64 345.5t173.5 265t255.5 165.5t310 59q249 0 445.5 -129t273.5 -354l-203 -82
q-69 167 -203.5 262.5t-310.5 95.5q-117 0 -221 -43.5t-182.5 -123t-124 -200t-45.5 -265.5q0 -127 35.5 -232.5t94.5 -176t137 -119t161 -70t168 -21.5q208 0 359.5 126t227.5 355l-24 27q-230 -62 -541 -62v185h713v-803h-172q-1 13 -3 58t-2.5 66.5t0.5 60.5t6.5 75.5
t14.5 75.5l-37 8q-166 -379 -581 -379z" />
    <glyph glyph-name="gdotaccent" unicode="&#x121;" horiz-adv-x="1366" 
d="M674 1370q-63 0 -104.5 42.5t-41.5 105.5q0 58 42 99.5t104 41.5q59 0 100 -41.5t41 -99.5q0 -63 -40.5 -105.5t-100.5 -42.5zM659 -483q-404 0 -526 329l189 66q86 -217 333 -217q155 0 247.5 96.5t92.5 302.5q0 104 27 168h-31q-60 -134 -159.5 -196t-223.5 -62
q-158 0 -279.5 79.5t-184 210.5t-62.5 292q0 254 149 418.5t371 164.5q133 0 235.5 -75.5t149.5 -210.5h29q-17 118 -17 254h205v-1008q0 -135 -28.5 -241t-77.5 -175t-119 -113.5t-148.5 -63.5t-171.5 -19zM645 199q149 0 251.5 113.5t102.5 277.5q0 165 -102 275t-252 110
q-149 0 -247.5 -111t-98.5 -274q0 -166 98.5 -278.5t247.5 -112.5z" />
    <glyph glyph-name="uni0122" unicode="&#x122;" horiz-adv-x="1789" 
d="M885 -35q-171 0 -317.5 62t-250 171t-162.5 263.5t-59 333.5q0 187 64 345.5t173.5 265t255.5 165.5t310 59q249 0 445.5 -129t273.5 -354l-203 -82q-69 167 -203.5 262.5t-310.5 95.5q-117 0 -221 -43.5t-182.5 -123t-124 -200t-45.5 -265.5q0 -127 35.5 -232.5
t94.5 -176t137 -119t161 -70t168 -21.5q208 0 359.5 126t227.5 355l-24 27q-230 -62 -541 -62v185h713v-803h-172q-1 13 -3 58t-2.5 66.5t0.5 60.5t6.5 75.5t14.5 75.5l-37 8q-166 -379 -581 -379zM862 -582h-110q27 50 41.5 75t47 68t70.5 79q-65 0 -101 34.5t-36 87.5
q0 55 37 90t94 35t94 -37t37 -94q0 -10 -1.5 -19.5t-3.5 -18.5t-7.5 -21.5t-10 -22.5t-14.5 -28t-17.5 -31t-23 -38.5t-26.5 -44t-32.5 -53.5t-37.5 -61z" />
    <glyph glyph-name="uni0123" unicode="&#x123;" horiz-adv-x="1366" 
d="M524 1395q0 11 1.5 21t5.5 23.5t8.5 24.5t14.5 30.5t18.5 34.5t25.5 44t31 52t39.5 65t46.5 77h121q-79 -154 -160 -278q56 6 84 -26.5t28 -80.5q0 -55 -37 -86.5t-92 -31.5q-59 0 -97 37t-38 94zM659 -483q-404 0 -526 329l189 66q86 -217 333 -217q155 0 247.5 96.5
t92.5 302.5q0 104 27 168h-31q-60 -134 -159.5 -196t-223.5 -62q-158 0 -279.5 79.5t-184 210.5t-62.5 292q0 254 149 418.5t371 164.5q133 0 235.5 -75.5t149.5 -210.5h29q-17 118 -17 254h205v-1008q0 -135 -28.5 -241t-77.5 -175t-119 -113.5t-148.5 -63.5t-171.5 -19z
M645 199q149 0 251.5 113.5t102.5 277.5q0 165 -102 275t-252 110q-149 0 -247.5 -111t-98.5 -274q0 -166 98.5 -278.5t247.5 -112.5z" />
    <glyph glyph-name="Hbar" unicode="&#x126;" horiz-adv-x="1658" 
d="M1464 1315h146v-174h-146v-1141h-219q0 443 27 711l-29 22q-392 -77 -827 0l-29 -22q27 -260 27 -711h-219v1141h-146v174h146v282h219q0 -188 -2 -282h835q-2 94 -2 282h219v-282zM1245 870l27 21q-14 151 -19 250h-847q-5 -96 -19 -250l27 -21q446 64 831 0z" />
    <glyph glyph-name="hbar" unicode="&#x127;" horiz-adv-x="1302" 
d="M748 1169q63 0 121 -15.5t110.5 -50.5t91 -86.5t61.5 -129t23 -172.5v-715h-209v623q0 167 -68.5 258.5t-195.5 91.5q-139 0 -225 -102t-86 -261v-610h-209v1296h-203v160h203v182h209q0 -121 -2 -182h336v-160h-340q-5 -163 -29 -393h29q124 266 383 266z" />
    <glyph glyph-name="Imacron" unicode="&#x12a;" horiz-adv-x="608" 
d="M655 1798h-708v162h708v-162zM414 0h-219v1597h219v-1597z" />
    <glyph glyph-name="imacron" unicode="&#x12b;" horiz-adv-x="532" 
d="M612 1366h-688v156h688v-156zM371 0h-209v1137h209v-1137z" />
    <glyph glyph-name="Iogonek" unicode="&#x12e;" horiz-adv-x="608" 
d="M410 -326q42 0 88 13v-133q-55 -17 -117 -17q-122 0 -205.5 61.5t-83.5 172.5q0 140 168 229h-65v1597h219v-1597h2q-89 -29 -130.5 -79t-41.5 -105q0 -60 44.5 -101t121.5 -41z" />
    <glyph glyph-name="iogonek" unicode="&#x12f;" horiz-adv-x="532" 
d="M268 1360q-63 0 -104 42t-41 105q0 58 41.5 100t103.5 42q59 0 100.5 -42t41.5 -100q0 -63 -41 -105t-101 -42zM338 -319q45 0 92 16v-146q-55 -14 -111 -14q-122 0 -203 62t-81 172q0 75 45 133.5t123 95.5h-41v1137h209v-1137h-21q-84 -31 -125 -80t-41 -106
q0 -58 43 -95.5t111 -37.5z" />
    <glyph glyph-name="Idotaccent" unicode="&#x130;" horiz-adv-x="608" 
d="M301 1772q-61 0 -102 41.5t-41 103.5q0 59 41 100t102 41t102 -41t41 -100q0 -62 -41 -103.5t-102 -41.5zM414 0h-219v1597h219v-1597z" />
    <glyph glyph-name="dotlessi" unicode="&#x131;" horiz-adv-x="532" 
d="M371 0h-209v1137h209v-1137z" />
    <glyph glyph-name="uni0136" unicode="&#x136;" horiz-adv-x="1415" 
d="M414 0h-219v1597h219q0 -23 0.5 -108.5t0 -118.5t-1.5 -108.5t-4.5 -122t-8.5 -114t-13.5 -129t-19.5 -124.5h30q324 380 738 825h262q-18 -19 -87.5 -94.5t-94.5 -103t-86.5 -93.5t-98 -104t-91 -94.5t-104 -105.5t-100.5 -99v-33q295 -326 695 -870h-269
q-129 171 -188.5 250t-162.5 224t-183 269h-25q-104 -138 -203 -206q15 -201 15 -537zM721 -582h-111q26 48 41.5 74.5t48 69t70.5 78.5q-65 0 -101 34.5t-36 87.5q0 55 37 90t94 35t94 -37t37 -94q0 -10 -1.5 -19.5t-3.5 -18.5t-7.5 -21.5t-10 -22.5t-14.5 -28t-17.5 -31
t-23 -38.5t-26.5 -44t-32.5 -53.5t-37.5 -61z" />
    <glyph glyph-name="uni0137" unicode="&#x137;" horiz-adv-x="1122" 
d="M371 0h-209v1638h209v-138.5v-151t-0.5 -136t-2.5 -153.5t-4.5 -139t-7 -157t-10.5 -147h29q188 236 456 521h250l-450 -455q34 -42 70.5 -87.5t64.5 -81t68.5 -89.5t61 -81t66 -89t59 -81.5t64.5 -89.5t60 -83h-244q-254 356 -381 561q-72 -108 -166 -184
q17 -133 17 -377zM551 -582h-111q26 48 41.5 74.5t48 69t70.5 78.5q-65 0 -101 34.5t-36 87.5q0 55 37 90t94 35t94 -37t37 -94q0 -10 -1.5 -19.5t-3.5 -18.5t-7.5 -21.5t-10 -22.5t-14.5 -28t-17.5 -31t-23 -38.5t-26.5 -44t-32.5 -53.5t-37.5 -61z" />
    <glyph glyph-name="Lacute" unicode="&#x139;" horiz-adv-x="1206" 
d="M768 2060l-334 -340h-188l246 340h276zM1178 0h-983v1597h219q0 -308 -1 -477t-8.5 -434t-21.5 -491l29 -29q128 19 274.5 28.5t237.5 11t254 1.5v-207z" />
    <glyph glyph-name="lacute" unicode="&#x13a;" horiz-adv-x="532" 
d="M709 2101l-334 -340h-189l246 340h277zM371 0h-209v1638h209v-1638z" />
    <glyph glyph-name="uni013B" unicode="&#x13b;" horiz-adv-x="1206" 
d="M1178 0h-983v1597h219q0 -308 -1 -477t-8.5 -434t-21.5 -491l29 -29q128 19 274.5 28.5t237.5 11t254 1.5v-207zM606 -582h-110q27 50 41.5 75t47 68t70.5 79q-65 0 -101 34.5t-36 87.5q0 55 37 90t94 35t94 -37t37 -94q0 -10 -1.5 -19.5t-3.5 -18.5t-7.5 -21.5
t-10 -22.5t-14.5 -28t-17.5 -31t-23 -38.5t-26.5 -44t-32.5 -53.5t-37.5 -61z" />
    <glyph glyph-name="uni013C" unicode="&#x13c;" horiz-adv-x="532" 
d="M371 0h-209v1638h209v-1638zM231 -582h-110q26 48 41.5 74.5t48 69t70.5 78.5q-65 0 -101.5 34.5t-36.5 87.5q0 55 37 90t94 35t94.5 -37t37.5 -94q0 -11 -1.5 -20.5t-5.5 -22.5t-8 -23t-14 -28.5t-17.5 -32t-23.5 -40t-28 -46.5t-35.5 -58t-41.5 -67z" />
    <glyph glyph-name="Lcaron" unicode="&#x13d;" horiz-adv-x="1206" 
d="M874 1102h-124q35 65 52 94t55.5 81.5t82.5 94.5q-137 30 -137 135q0 59 42 101.5t103 42.5q60 0 102 -41.5t42 -100.5q0 -47 -30 -103t-137 -224q-32 -51 -51 -80zM1178 0h-983v1597h219q0 -308 -1 -477t-8.5 -434t-21.5 -491l29 -29q128 19 274.5 28.5t237.5 11
t254 1.5v-207z" />
    <glyph glyph-name="lcaron" unicode="&#x13e;" horiz-adv-x="532" 
d="M664 1102h-127q33 60 52 93t57 84t81 93q-137 30 -137 135q0 59 43 101.5t104 42.5q59 0 101.5 -42t42.5 -100q0 -45 -29 -101t-127 -210q-13 -19 -20 -30.5t-19 -30.5t-22 -35zM371 0h-209v1638h209v-1638z" />
    <glyph glyph-name="Lslash" unicode="&#x141;" horiz-adv-x="1206" 
d="M383 195l29 -29q128 19 274.5 28.5t237.5 11t254 1.5v-207h-983v737l-170 -80v189l170 80v671h219q0 -381 -2 -571l258 121v-189l-260 -120q-11 -397 -27 -643z" />
    <glyph glyph-name="lslash" unicode="&#x142;" horiz-adv-x="532" 
d="M371 1087l184 134v-183l-184 -133v-905h-209v756l-187 -133v182l187 133v700h209v-551z" />
    <glyph glyph-name="Nacute" unicode="&#x143;" horiz-adv-x="1681" 
d="M1239 2060l-334 -340h-188l246 340h276zM414 0h-219v1597h202q251 -329 461.5 -636t411.5 -650h30q-8 98 -13.5 193t-9 202t-5.5 175.5t-3 191.5t-1 167.5v186.5v170h219v-1597h-203q-268 350 -473 641t-399 616h-29q6 -84 11 -173.5t8.5 -158t5.5 -167t3.5 -149.5
t2 -161t0.5 -144.5v-157v-146.5z" />
    <glyph glyph-name="nacute" unicode="&#x144;" horiz-adv-x="1302" 
d="M1034 1663l-311 -385h-180l233 385h258zM371 0h-209v1137h205q0 -132 -31 -234h29q124 266 385 266q80 0 150.5 -25.5t128.5 -77.5t92 -142.5t34 -208.5v-715h-209v623q0 167 -68.5 258.5t-195.5 91.5q-139 0 -225 -102t-86 -261v-610z" />
    <glyph glyph-name="uni0145" unicode="&#x145;" horiz-adv-x="1681" 
d="M414 0h-219v1597h202q251 -329 461.5 -636t411.5 -650h30q-8 98 -13.5 193t-9 202t-5.5 175.5t-3 191.5t-1 167.5v186.5v170h219v-1597h-203q-268 350 -473 641t-399 616h-29q6 -84 11 -173.5t8.5 -158t5.5 -167t3.5 -149.5t2 -161t0.5 -144.5v-157v-146.5zM827 -582
h-110q26 48 41.5 74.5t48 69t70.5 78.5q-65 0 -101.5 34.5t-36.5 87.5q0 55 37 90t94 35t94 -37t37 -94q0 -10 -1.5 -19.5t-3.5 -18.5t-7.5 -21.5t-10 -22.5t-14.5 -28t-17.5 -31t-23 -38.5t-26.5 -44t-32.5 -53.5t-37.5 -61z" />
    <glyph glyph-name="uni0146" unicode="&#x146;" horiz-adv-x="1302" 
d="M371 0h-209v1137h205q0 -132 -31 -234h29q124 266 385 266q80 0 150.5 -25.5t128.5 -77.5t92 -142.5t34 -208.5v-715h-209v623q0 167 -68.5 258.5t-195.5 91.5q-139 0 -225 -102t-86 -261v-610zM657 -582h-110q26 48 41.5 74.5t48 69t70.5 78.5q-65 0 -101.5 34.5
t-36.5 87.5q0 55 37 90t94 35t94 -37t37 -94q0 -10 -1.5 -19.5t-3.5 -18.5t-7.5 -21.5t-10 -22.5t-14.5 -28t-17.5 -31t-23 -38.5t-26.5 -44t-32.5 -53.5t-37.5 -61z" />
    <glyph glyph-name="Ncaron" unicode="&#x147;" horiz-adv-x="1681" 
d="M934 1720h-227l-277 330h193q42 -40 63 -63t52.5 -70t52.5 -102h59q20 54 52.5 103t50.5 68t63 64h194zM414 0h-219v1597h202q251 -329 461.5 -636t411.5 -650h30q-8 98 -13.5 193t-9 202t-5.5 175.5t-3 191.5t-1 167.5v186.5v170h219v-1597h-203q-268 350 -473 641
t-399 616h-29q6 -84 11 -173.5t8.5 -158t5.5 -167t3.5 -149.5t2 -161t0.5 -144.5v-157v-146.5z" />
    <glyph glyph-name="ncaron" unicode="&#x148;" horiz-adv-x="1302" 
d="M760 1288h-232l-297 373h197q8 -10 34.5 -40.5t37 -43t32.5 -39.5t34.5 -45t29 -44t29.5 -52h41q15 30 32.5 58.5t40 58t37 47.5t43.5 52t41 48h197zM371 0h-209v1137h205q0 -132 -31 -234h29q124 266 385 266q80 0 150.5 -25.5t128.5 -77.5t92 -142.5t34 -208.5v-715
h-209v623q0 167 -68.5 258.5t-195.5 91.5q-139 0 -225 -102t-86 -261v-610z" />
    <glyph glyph-name="Eng" unicode="&#x14a;" horiz-adv-x="1681" 
d="M1044 -483q-75 0 -154 14t-122 35v188q79 -49 219 -49q269 0 275 320q-268 355 -465 632t-385 580h-29q6 -80 11 -166.5t8.5 -153t5.5 -163.5t3.5 -147t2 -159.5t0.5 -144v-157v-146.5h-219v1597h202q500 -656 873 -1265h30q-8 94 -13.5 185.5t-9 196.5t-5.5 172
t-3 189.5t-1 166v185.5v170h219v-1552q0 -528 -443 -528z" />
    <glyph glyph-name="eng" unicode="&#x14b;" horiz-adv-x="1302" 
d="M809 -483q-125 0 -221 49v184q88 -49 180 -49q37 0 66 11t47.5 26t31.5 41.5t19 47.5t9.5 55.5t4 52.5t0.5 51v637q0 167 -68.5 258.5t-195.5 91.5q-139 0 -225 -102t-86 -261v-610h-209v1137h205q0 -132 -31 -234h29q124 266 385 266q63 0 120.5 -15t110 -49.5
t90.5 -85.5t61 -127.5t23 -170.5v-735q0 -54 -1 -84t-7.5 -86.5t-18.5 -91t-37.5 -78.5t-61.5 -69t-92 -42.5t-128 -17.5z" />
    <glyph glyph-name="Omacron" unicode="&#x14c;" horiz-adv-x="1798" 
d="M1249 1798h-708v162h708v-162zM899 -35q-164 0 -312 62t-256.5 170.5t-172.5 264.5t-64 335q0 178 63.5 334t172 265t256.5 171.5t313 62.5q167 0 316 -64t256 -174t170 -265t63 -330q0 -176 -63 -331t-170.5 -264.5t-256.5 -173t-315 -63.5zM901 172q155 0 285.5 80.5
t207 224.5t76.5 320q0 132 -45 248.5t-121 199t-181 130.5t-222 48q-116 0 -221.5 -47t-183 -128.5t-123 -199t-45.5 -251.5t46 -251t123.5 -198.5t182.5 -128.5t221 -47z" />
    <glyph glyph-name="omacron" unicode="&#x14d;" horiz-adv-x="1318" 
d="M1006 1376h-689v156h689v-156zM662 -35q-257 0 -418.5 167.5t-161.5 432.5q0 266 162 435t418 169q253 0 414 -169t161 -435q0 -265 -160.5 -432.5t-414.5 -167.5zM662 160q158 0 257 113t99 292q0 180 -99 294t-257 114q-161 0 -261 -113.5t-100 -294.5q0 -179 100 -292
t261 -113z" />
    <glyph glyph-name="Ohungarumlaut" unicode="&#x150;" horiz-adv-x="1798" 
d="M1057 2060l-293 -340h-182l215 340h260zM1448 2060l-303 -340h-182l225 340h260zM899 -35q-164 0 -312 62t-256.5 170.5t-172.5 264.5t-64 335q0 178 63.5 334t172 265t256.5 171.5t313 62.5q167 0 316 -64t256 -174t170 -265t63 -330q0 -176 -63 -331t-170.5 -264.5
t-256.5 -173t-315 -63.5zM901 172q155 0 285.5 80.5t207 224.5t76.5 320q0 132 -45 248.5t-121 199t-181 130.5t-222 48q-116 0 -221.5 -47t-183 -128.5t-123 -199t-45.5 -251.5t46 -251t123.5 -198.5t182.5 -128.5t221 -47z" />
    <glyph glyph-name="ohungarumlaut" unicode="&#x151;" horiz-adv-x="1318" 
d="M811 1673l-299 -395h-176l221 395h254zM1206 1673l-309 -395h-178l233 395h254zM662 -35q-257 0 -418.5 167.5t-161.5 432.5q0 266 162 435t418 169q253 0 414 -169t161 -435q0 -265 -160.5 -432.5t-414.5 -167.5zM662 160q158 0 257 113t99 292q0 180 -99 294t-257 114
q-161 0 -261 -113.5t-100 -294.5q0 -179 100 -292t261 -113z" />
    <glyph glyph-name="OE" unicode="&#x152;" horiz-adv-x="2623" 
d="M895 -35q-163 0 -310.5 62t-255.5 170.5t-171.5 264.5t-63.5 335q0 178 63.5 334t171.5 265t255.5 171.5t312.5 62.5q179 0 329.5 -79.5t250.5 -219.5v266h1024v-202h-106.5h-116t-106.5 1t-119.5 3t-111 6t-125.5 10t-122 15l-29 -19q46 -243 6 -514l25 -23
q131 22 275 33t238 13t251 2v-211q-164 0 -254.5 1.5t-235 13t-272.5 34.5l-27 -23q40 -290 -6 -542l29 -29q141 19 298.5 28.5t255 11t273.5 1.5v-207h-1044v264q-101 -141 -252 -220t-330 -79zM899 172q115 0 218.5 47t179.5 129t120.5 199.5t44.5 251.5q0 133 -44 249.5
t-119.5 198.5t-179 129t-218.5 47q-157 0 -288 -79.5t-208 -223.5t-77 -323q0 -134 45.5 -251t122.5 -198.5t182 -128.5t221 -47z" />
    <glyph glyph-name="oe" unicode="&#x153;" horiz-adv-x="2203" 
d="M662 -35q-257 0 -418.5 167.5t-161.5 432.5q0 266 162 435t418 169q152 0 271 -67t189 -187q67 119 187 186.5t270 67.5q79 0 153 -18.5t144.5 -62.5t123 -109.5t84.5 -167t32 -227.5v-47h-893q9 -172 112 -278.5t254 -106.5q117 0 207.5 65t134.5 174l193 -76
q-63 -161 -204.5 -255.5t-332.5 -94.5q-153 0 -274.5 66.5t-190.5 185.5q-70 -119 -189 -185.5t-271 -66.5zM1231 676h667q-7 85 -38.5 148.5t-78.5 98.5t-99 51.5t-109 16.5q-134 0 -225.5 -86.5t-116.5 -228.5zM662 160q158 0 257 113t99 292q0 180 -99 294t-257 114
q-161 0 -261 -113.5t-100 -294.5q0 -179 100 -292t261 -113z" />
    <glyph glyph-name="Racute" unicode="&#x154;" horiz-adv-x="1427" 
d="M1065 2060l-334 -340h-188l245 340h277zM414 0h-219v1597h585q66 0 134.5 -14t142.5 -50t131 -89.5t94 -141.5t37 -198q0 -104 -35 -186.5t-96.5 -136t-140 -83.5t-170.5 -36v-29q45 -50 92 -108t79.5 -100t82.5 -112.5t70.5 -100t76 -111.5t68.5 -101h-248l-412 616
q-167 7 -301 48q29 -238 29 -664zM385 776l27 -20q128 37 336 37q68 0 128 18.5t108 54.5t75.5 95.5t27.5 136.5q0 75 -29 133.5t-78.5 94t-110 53.5t-128.5 18q-198 0 -329 33l-31 -19q47 -317 4 -635z" />
    <glyph glyph-name="racute" unicode="&#x155;" horiz-adv-x="864" 
d="M862 1663l-311 -385h-180l233 385h258zM371 0h-209v1137h205q0 -10 0.5 -40.5t0 -48.5t-2 -48t-7 -62.5t-14.5 -69.5h31q42 146 132 223.5t212 77.5q65 0 121 -22v-229q-65 24 -140 24q-73 0 -131 -27t-94 -71t-60.5 -103t-34 -118.5t-9.5 -122.5v-500z" />
    <glyph glyph-name="uni0156" unicode="&#x156;" horiz-adv-x="1427" 
d="M414 0h-219v1597h585q66 0 134.5 -14t142.5 -50t131 -89.5t94 -141.5t37 -198q0 -104 -35 -186.5t-96.5 -136t-140 -83.5t-170.5 -36v-29q45 -50 92 -108t79.5 -100t82.5 -112.5t70.5 -100t76 -111.5t68.5 -101h-248l-412 616q-167 7 -301 48q29 -238 29 -664zM385 776
l27 -20q128 37 336 37q68 0 128 18.5t108 54.5t75.5 95.5t27.5 136.5q0 75 -29 133.5t-78.5 94t-110 53.5t-128.5 18q-198 0 -329 33l-31 -19q47 -317 4 -635zM676 -582h-111q26 48 41.5 74.5t48 69t70.5 78.5q-65 0 -101 34.5t-36 87.5q0 55 37 90t94 35t94 -37t37 -94
q0 -10 -1.5 -19.5t-3.5 -18.5t-7.5 -21.5t-10 -22.5t-14.5 -28t-17.5 -31t-23 -38.5t-26.5 -44t-32.5 -53.5t-37.5 -61z" />
    <glyph glyph-name="uni0157" unicode="&#x157;" horiz-adv-x="864" 
d="M371 0h-209v1137h205q0 -10 0.5 -40.5t0 -48.5t-2 -48t-7 -62.5t-14.5 -69.5h31q42 146 132 223.5t212 77.5q65 0 121 -22v-229q-65 24 -140 24q-73 0 -131 -27t-94 -71t-60.5 -103t-34 -118.5t-9.5 -122.5v-500zM225 -582h-110q27 50 41.5 75t47 68t70.5 79
q-65 0 -101 34.5t-36 87.5q0 55 37 90t94 35t94 -37t37 -94q0 -10 -1.5 -19.5t-3.5 -18.5t-7.5 -21.5t-10 -22.5t-14.5 -28t-17.5 -31t-23 -38.5t-26.5 -44t-32.5 -53.5t-37.5 -61z" />
    <glyph glyph-name="Rcaron" unicode="&#x158;" horiz-adv-x="1427" 
d="M760 1720h-228l-276 330h193q41 -39 62.5 -62.5t52.5 -70.5t52 -102h60q20 54 52.5 103t50.5 68t63 64h194zM414 0h-219v1597h585q66 0 134.5 -14t142.5 -50t131 -89.5t94 -141.5t37 -198q0 -104 -35 -186.5t-96.5 -136t-140 -83.5t-170.5 -36v-29q45 -50 92 -108
t79.5 -100t82.5 -112.5t70.5 -100t76 -111.5t68.5 -101h-248l-412 616q-167 7 -301 48q29 -238 29 -664zM385 776l27 -20q128 37 336 37q68 0 128 18.5t108 54.5t75.5 95.5t27.5 136.5q0 75 -29 133.5t-78.5 94t-110 53.5t-128.5 18q-198 0 -329 33l-31 -19q47 -317 4 -635z
" />
    <glyph glyph-name="rcaron" unicode="&#x159;" horiz-adv-x="864" 
d="M590 1288h-232l-297 373h197q8 -10 34.5 -40.5t37 -43t32.5 -39.5t34.5 -45t29 -44t29.5 -52h41q15 30 32.5 58.5t40 58t37 47.5t43.5 52t41 48h197zM371 0h-209v1137h205q0 -10 0.5 -40.5t0 -48.5t-2 -48t-7 -62.5t-14.5 -69.5h31q42 146 132 223.5t212 77.5
q65 0 121 -22v-229q-65 24 -140 24q-73 0 -131 -27t-94 -71t-60.5 -103t-34 -118.5t-9.5 -122.5v-500z" />
    <glyph glyph-name="Sacute" unicode="&#x15a;" horiz-adv-x="1331" 
d="M1014 2062l-334 -342h-188l245 342h277zM686 -35q-141 0 -261.5 47.5t-217 156t-137.5 267.5l204 72q47 -172 157.5 -256t252.5 -84q63 0 120 15.5t104.5 45.5t75.5 80.5t28 114.5q0 60 -21.5 103t-74 74t-85.5 44t-109 36q-10 3 -15 5l-148 45q-41 13 -74 25t-80.5 33.5
t-83.5 45.5t-74.5 60t-63.5 76.5t-41.5 95.5t-16.5 117q0 138 75.5 241.5t195.5 154t263 50.5q202 0 348 -104t193 -273l-201 -82q-41 120 -131 189.5t-219 69.5q-127 0 -210 -64t-83 -166q0 -49 23 -91.5t52 -68.5t79 -51.5t79 -36t77 -26.5l161 -52q145 -47 205 -78
q209 -108 217 -325v-18q0 -141 -73.5 -253t-201.5 -173.5t-288 -61.5z" />
    <glyph glyph-name="sacute" unicode="&#x15b;" horiz-adv-x="1034" 
d="M897 1665l-311 -385h-180l233 385h258zM539 -35q-180 0 -309.5 87t-172.5 233l193 61q40 -98 119.5 -153.5t167.5 -55.5q34 0 67.5 8.5t66 26t52.5 50.5t20 77q0 31 -12.5 55.5t-29 40.5t-47 31t-53 22.5t-60.5 18.5l-115 33q-45 14 -81 28t-82.5 42t-77 61.5t-52.5 86.5
t-22 116q0 104 57 182t146 115.5t196 37.5q154 0 267 -79t151 -203l-195 -66q-27 76 -86 126t-147 50q-79 0 -130 -40.5t-51 -108.5q0 -33 16 -61t37 -45.5t56.5 -34.5t60.5 -25.5t64 -19.5l96 -29q34 -10 55 -16.5t58 -21t60.5 -29t53 -39.5t46.5 -52.5t29 -67t12 -85.5
q0 -158 -117.5 -257.5t-306.5 -99.5z" />
    <glyph glyph-name="Scedilla" unicode="&#x15e;" horiz-adv-x="1331" 
d="M733 -33q-33 -42 -119 -117l13 -12q61 41 116 41q79 0 133 -49.5t54 -130.5q0 -91 -72 -148t-182 -57q-84 0 -155.5 32.5t-114.5 88.5l73 84q34 -46 84.5 -70t104.5 -24q53 0 86.5 26t33.5 68q0 40 -31 64t-81 24q-53 0 -92 -27l-72 60l96 149q-193 20 -337.5 136.5
t-200.5 330.5l204 72q47 -172 157.5 -256t252.5 -84q63 0 120 15.5t104.5 45.5t75.5 80.5t28 114.5q0 60 -21.5 103t-74 74t-85.5 44t-109 36q-10 3 -15 5l-148 45q-41 13 -74 25t-80.5 33.5t-83.5 45.5t-74.5 60t-63.5 76.5t-41.5 95.5t-16.5 117q0 138 75.5 241.5
t195.5 154t263 50.5q202 0 348 -104t193 -273l-201 -82q-41 120 -131 189.5t-219 69.5q-127 0 -210 -64t-83 -166q0 -49 23 -91.5t52 -68.5t79 -51.5t79 -36t77 -26.5l161 -52q145 -47 205 -78q209 -108 217 -325v-18q0 -202 -145.5 -337t-370.5 -149z" />
    <glyph glyph-name="scedilla" unicode="&#x15f;" horiz-adv-x="1034" 
d="M578 -33q-41 -49 -119 -117l12 -12q61 41 117 41q79 0 132.5 -49.5t53.5 -130.5q0 -91 -72 -148t-182 -57q-84 0 -155.5 32.5t-114.5 88.5l74 84q34 -46 84 -70t104 -24q53 0 87 26t34 68q0 39 -31.5 63.5t-81.5 24.5q-53 0 -92 -27l-72 60l99 151q-150 19 -254.5 102.5
t-143.5 211.5l193 61q40 -98 119.5 -153.5t167.5 -55.5q34 0 67.5 8.5t66 26t52.5 50.5t20 77q0 31 -12.5 55.5t-29 40.5t-47 31t-53 22.5t-60.5 18.5l-115 33q-45 14 -81 28t-82.5 42t-77 61.5t-52.5 86.5t-22 116q0 104 57 182t146 115.5t196 37.5q154 0 267 -79t151 -203
l-195 -66q-27 76 -86 126t-147 50q-79 0 -130 -40.5t-51 -108.5q0 -33 16 -61t37 -45.5t56.5 -34.5t60.5 -25.5t64 -19.5l96 -29q34 -10 55 -16.5t58 -21t60.5 -29t53 -39.5t46.5 -52.5t29 -67t12 -85.5q0 -149 -106 -246.5t-279 -108.5z" />
    <glyph glyph-name="Scaron" unicode="&#x160;" horiz-adv-x="1331" 
d="M770 1720h-227l-277 330h193q42 -40 63 -63t52.5 -70t52.5 -102h59q20 54 52.5 103t50.5 68t63 64h195zM686 -35q-141 0 -261.5 47.5t-217 156t-137.5 267.5l204 72q47 -172 157.5 -256t252.5 -84q63 0 120 15.5t104.5 45.5t75.5 80.5t28 114.5q0 60 -21.5 103t-74 74
t-85.5 44t-109 36q-10 3 -15 5l-148 45q-41 13 -74 25t-80.5 33.5t-83.5 45.5t-74.5 60t-63.5 76.5t-41.5 95.5t-16.5 117q0 138 75.5 241.5t195.5 154t263 50.5q202 0 348 -104t193 -273l-201 -82q-41 120 -131 189.5t-219 69.5q-127 0 -210 -64t-83 -166q0 -49 23 -91.5
t52 -68.5t79 -51.5t79 -36t77 -26.5l161 -52q145 -47 205 -78q209 -108 217 -325v-18q0 -141 -73.5 -253t-201.5 -173.5t-288 -61.5z" />
    <glyph glyph-name="scaron" unicode="&#x161;" horiz-adv-x="1034" 
d="M625 1288h-232l-297 373h197q8 -9 30 -34.5t31.5 -36.5t28 -34t29.5 -38t26 -36t27.5 -42t23.5 -43h41q19 37 46 77t42.5 60t57 68.5t49.5 58.5h197zM539 -35q-180 0 -309.5 87t-172.5 233l193 61q40 -98 119.5 -153.5t167.5 -55.5q34 0 67.5 8.5t66 26t52.5 50.5t20 77
q0 31 -12.5 55.5t-29 40.5t-47 31t-53 22.5t-60.5 18.5l-115 33q-45 14 -81 28t-82.5 42t-77 61.5t-52.5 86.5t-22 116q0 104 57 182t146 115.5t196 37.5q154 0 267 -79t151 -203l-195 -66q-27 76 -86 126t-147 50q-79 0 -130 -40.5t-51 -108.5q0 -33 16 -61t37 -45.5
t56.5 -34.5t60.5 -25.5t64 -19.5l96 -29q34 -10 55 -16.5t58 -21t60.5 -29t53 -39.5t46.5 -52.5t29 -67t12 -85.5q0 -158 -117.5 -257.5t-306.5 -99.5z" />
    <glyph glyph-name="uni0162" unicode="&#x162;" horiz-adv-x="1306" 
d="M764 0h-45q-34 -55 -144 -150l13 -12q61 41 117 41q79 0 132.5 -49.5t53.5 -130.5q0 -91 -72 -148t-182 -57q-84 0 -155.5 32.5t-114.5 88.5l73 84q34 -46 84.5 -70t104.5 -24q53 0 87 26t34 68q0 39 -31.5 63.5t-81.5 24.5q-53 0 -92 -27l-72 60l117 180h-47
q0 327 1 485.5t8 433.5t21 506q-94 -14 -199.5 -21t-164.5 -8t-180 -1v202h1249v-202q-120 0 -179 1t-165.5 8t-200.5 21q14 -231 21.5 -501.5t8.5 -442t1 -481.5z" />
    <glyph glyph-name="uni0163" unicode="&#x163;" horiz-adv-x="839" 
d="M786 1137v-189q-219 0 -358 27q14 -95 21.5 -201t8.5 -171.5t1 -182.5q0 -35 0.5 -53t3 -51t8.5 -51.5t17 -42.5t27.5 -36.5t42 -22t58.5 -9.5q87 0 170 51v-191q-85 -49 -208 -49q-34 0 -48 2q-35 -44 -118 -117l12 -12q61 41 117 41q79 0 132.5 -49.5t53.5 -130.5
q0 -91 -72 -148t-182 -57q-84 0 -155.5 32.5t-114.5 88.5l73 84q34 -46 84.5 -70t104.5 -24q53 0 87 26t34 68q0 39 -31.5 63.5t-81.5 24.5q-53 0 -92 -27l-72 60l111 172q-35 14 -63 37t-45.5 46.5t-30 56t-18.5 57t-9 60t-3.5 53.5t-0.5 48q0 133 1 207t8.5 193.5
t21.5 224.5q-106 -27 -256 -27v189q150 0 256 -27q-14 63 -21.5 131t-8.5 109.5t-1 115.5h209q0 -74 -1 -115.5t-8.5 -109.5t-21.5 -131q139 27 358 27z" />
    <glyph glyph-name="Tcaron" unicode="&#x164;" horiz-adv-x="1306" 
d="M768 1720h-227l-277 330h193q42 -40 63 -63t52.5 -70t52.5 -102h59q20 54 52.5 103t50.5 68t63 64h194zM764 0h-221q0 327 1 485.5t8 433.5t21 506q-94 -14 -199.5 -21t-164.5 -8t-180 -1v202h1249v-202q-120 0 -179 1t-165.5 8t-200.5 21q14 -231 21.5 -501.5t8.5 -442
t1 -481.5z" />
    <glyph glyph-name="tcaron" unicode="&#x165;" horiz-adv-x="839" 
d="M991 1112h-127q47 85 88 146.5t103 123.5q-137 30 -137 134q0 60 42.5 101.5t104.5 41.5q59 0 101 -41.5t42 -99.5q0 -44 -28.5 -98.5t-130.5 -215.5q-37 -58 -58 -92zM578 -35q-53 0 -97.5 9.5t-76.5 24t-57 39t-41 46.5t-27.5 54.5t-16.5 55.5t-8 57.5t-3.5 52
t-0.5 46.5q0 133 1 207t8.5 193.5t21.5 224.5q-106 -27 -256 -27v189q150 0 256 -27q-14 63 -21.5 131t-8.5 109.5t-1 115.5h209q0 -74 -1 -115.5t-8.5 -109.5t-21.5 -131q139 27 358 27v-189q-219 0 -358 27q14 -95 21.5 -201t8.5 -171.5t1 -182.5q0 -35 0.5 -53t3 -51
t8.5 -51.5t17 -42.5t27.5 -36.5t42 -22t58.5 -9.5q87 0 170 51v-191q-85 -49 -208 -49z" />
    <glyph glyph-name="Tbar" unicode="&#x166;" horiz-adv-x="1306" 
d="M1278 1597v-202q-120 0 -179 1t-165.5 8t-200.5 21q16 -249 23 -538h325v-178h-321q4 -240 4 -709h-221q0 469 4 709h-318v178h322q7 312 22 538q-94 -14 -199.5 -21t-164.5 -8t-180 -1v202h1249z" />
    <glyph glyph-name="tbar" unicode="&#x167;" horiz-adv-x="839" 
d="M786 1137v-189q-219 0 -358 27q21 -150 27 -285h319v-160h-315v-110q0 -35 0.5 -53t3 -51t8.5 -51.5t17 -42.5t27.5 -36.5t42 -22t58.5 -9.5q87 0 170 51v-191q-85 -49 -208 -49q-53 0 -97.5 9.5t-76.5 24t-57 39t-41 46.5t-27.5 54.5t-16.5 55.5t-8 57.5t-3.5 52
t-0.5 46.5v180h-221v160h227q7 158 25 285q-106 -27 -256 -27v189q150 0 256 -27q-14 63 -21.5 131t-8.5 109.5t-1 115.5h209q0 -74 -1 -115.5t-8.5 -109.5t-21.5 -131q139 27 358 27z" />
    <glyph glyph-name="Umacron" unicode="&#x16a;" horiz-adv-x="1533" 
d="M1122 1798h-708v162h708v-162zM764 -35q-129 0 -230.5 34t-168 91.5t-109.5 140t-61.5 173.5t-18.5 198v995h221v-979q0 -220 92.5 -334t278.5 -114q184 0 276.5 114t92.5 334v979h221v-995q0 -99 -16 -185.5t-58.5 -171.5t-107.5 -145.5t-170.5 -97.5t-241.5 -37z" />
    <glyph glyph-name="umacron" unicode="&#x16b;" horiz-adv-x="1284" 
d="M977 1376h-688v156h688v-156zM557 -35q-87 0 -159.5 26.5t-129.5 80t-89 143.5t-32 209v713h209v-639q0 -169 72 -253.5t186 -84.5q91 0 160.5 51.5t103 130t33.5 168.5v627h209v-783q0 -131 9 -205.5t28 -148.5h-209q-11 47 -15.5 72.5t-2 69.5t17.5 96h-28
q-54 -146 -143.5 -209.5t-219.5 -63.5z" />
    <glyph glyph-name="Uring" unicode="&#x16e;" horiz-adv-x="1533" 
d="M768 1712q-103 0 -173.5 67.5t-70.5 166.5t70.5 166t173.5 67q102 0 172 -66.5t70 -166.5t-70 -167t-172 -67zM768 1825q52 0 86.5 34t34.5 87q0 52 -34.5 85t-86.5 33q-54 0 -88.5 -33t-34.5 -85q0 -54 34.5 -87.5t88.5 -33.5zM764 -35q-129 0 -230.5 34t-168 91.5
t-109.5 140t-61.5 173.5t-18.5 198v995h221v-979q0 -220 92.5 -334t278.5 -114q184 0 276.5 114t92.5 334v979h221v-995q0 -99 -16 -185.5t-58.5 -171.5t-107.5 -145.5t-170.5 -97.5t-241.5 -37z" />
    <glyph glyph-name="uring" unicode="&#x16f;" horiz-adv-x="1284" 
d="M633 1251q-104 0 -174 67t-70 167t70 166.5t174 66.5q102 0 171.5 -66.5t69.5 -166.5q0 -101 -69.5 -167.5t-171.5 -66.5zM633 1364q52 0 86.5 34t34.5 87q0 52 -34.5 85.5t-86.5 33.5q-54 0 -88.5 -33.5t-34.5 -85.5q0 -54 34.5 -87.5t88.5 -33.5zM557 -35
q-87 0 -159.5 26.5t-129.5 80t-89 143.5t-32 209v713h209v-639q0 -169 72 -253.5t186 -84.5q91 0 160.5 51.5t103 130t33.5 168.5v627h209v-783q0 -131 9 -205.5t28 -148.5h-209q-11 47 -15.5 72.5t-2 69.5t17.5 96h-28q-54 -146 -143.5 -209.5t-219.5 -63.5z" />
    <glyph glyph-name="Uhungarumlaut" unicode="&#x170;" horiz-adv-x="1533" 
d="M928 2060l-293 -340h-182l215 340h260zM1319 2060l-303 -340h-182l225 340h260zM764 -35q-129 0 -230.5 34t-168 91.5t-109.5 140t-61.5 173.5t-18.5 198v995h221v-979q0 -220 92.5 -334t278.5 -114q184 0 276.5 114t92.5 334v979h221v-995q0 -99 -16 -185.5
t-58.5 -171.5t-107.5 -145.5t-170.5 -97.5t-241.5 -37z" />
    <glyph glyph-name="uhungarumlaut" unicode="&#x171;" horiz-adv-x="1284" 
d="M782 1673l-299 -395h-176l221 395h254zM1178 1673l-310 -395h-178l234 395h254zM557 -35q-87 0 -159.5 26.5t-129.5 80t-89 143.5t-32 209v713h209v-639q0 -169 72 -253.5t186 -84.5q91 0 160.5 51.5t103 130t33.5 168.5v627h209v-783q0 -131 9 -205.5t28 -148.5h-209
q-11 47 -15.5 72.5t-2 69.5t17.5 96h-28q-54 -146 -143.5 -209.5t-219.5 -63.5z" />
    <glyph glyph-name="Uogonek" unicode="&#x172;" horiz-adv-x="1533" 
d="M1137 618v979h221v-995q0 -87 -13 -166t-46 -157.5t-83.5 -138.5t-131.5 -104t-185 -61q-58 -30 -85.5 -72.5t-27.5 -86.5q0 -60 44.5 -101t121.5 -41q42 0 88 13v-133q-55 -17 -116 -17q-122 0 -205.5 61.5t-83.5 172.5q0 114 113 194q-126 2 -224.5 37t-163 93
t-106.5 139.5t-60 172t-18 195.5v995h221v-979q0 -220 92.5 -334t278.5 -114q184 0 276.5 114t92.5 334z" />
    <glyph glyph-name="uogonek" unicode="&#x173;" horiz-adv-x="1284" 
d="M1085 -319q46 0 93 16v-146q-55 -14 -111 -14q-122 0 -203.5 62t-81.5 172q0 75 45 133.5t123 95.5h-2q-11 47 -15.5 72.5t-2 69.5t17.5 96h-28q-54 -146 -143.5 -209.5t-219.5 -63.5q-87 0 -159.5 26.5t-129.5 80t-89 143.5t-32 209v713h209v-639q0 -169 72 -253.5
t186 -84.5q91 0 160.5 51.5t103 130t33.5 168.5v627h209v-783q0 -131 9 -205.5t28 -148.5h-59q-84 -31 -125 -80t-41 -106q0 -59 43 -96t110 -37z" />
    <glyph glyph-name="Wcircumflex" unicode="&#x174;" horiz-adv-x="2347" 
d="M977 1720h-193l279 330h223l279 -330h-193q-39 37 -62 61.5t-53.5 71.5t-50.5 103h-61q-20 -56 -50 -102.5t-54.5 -72t-63.5 -61.5zM788 0h-274l-487 1597h247q121 -398 205 -703t160 -648h31q55 228 126.5 488t117 413t135.5 450h249q85 -275 135.5 -444.5t121 -425.5
t126.5 -489h31q139 635 363 1359h245l-487 -1597h-270q-127 393 -212.5 691.5t-156.5 625.5h-39q-132 -591 -367 -1317z" />
    <glyph glyph-name="wcircumflex" unicode="&#x175;" horiz-adv-x="1888" 
d="M725 1278h-197l297 364h232l297 -364h-197q-46 48 -72 77.5t-60.5 79t-57.5 99.5h-49q-34 -72 -80 -129.5t-113 -126.5zM653 0h-233l-395 1137h233q66 -198 99 -301t83 -279t84 -334h41q40 157 95 338t85 271t103 305h190q67 -190 104.5 -299t91 -283t93.5 -332h37
q33 147 80.5 315t75 256t91.5 284q13 39 19 59h234l-396 -1137h-241q-191 555 -269 860h-28q-86 -326 -277 -860z" />
    <glyph glyph-name="Ycircumflex" unicode="&#x176;" horiz-adv-x="1425" 
d="M516 1720h-192l278 330h223l279 -330h-193q-39 37 -62 61.5t-53.5 71.5t-50.5 103h-61q-20 -56 -50 -102.5t-54.5 -72t-63.5 -61.5zM823 0h-221q0 379 14 567q-194 322 -591 1030h237q287 -509 436 -862h29q91 215 192.5 411t245.5 451h236q-413 -732 -594 -1028
q16 -190 16 -569z" />
    <glyph glyph-name="ycircumflex" unicode="&#x177;" horiz-adv-x="1155" 
d="M354 1278h-196l297 364h231l297 -364h-197q-46 48 -72 77.5t-60.5 79t-57.5 99.5h-49q-34 -72 -80 -129.5t-113 -126.5zM522 -451h-213l162 420l-451 1168h230q200 -518 317 -953h29q102 385 315 953h224z" />
    <glyph glyph-name="Ydieresis" unicode="&#x178;" horiz-adv-x="1425" 
d="M498 1759q-59 0 -99.5 41t-40.5 101q0 56 41 95.5t99 39.5t97.5 -39.5t39.5 -95.5q0 -60 -39.5 -101t-97.5 -41zM928 1759q-60 0 -100 41t-40 101q0 56 40.5 95.5t99.5 39.5q57 0 97 -39.5t40 -95.5q0 -60 -40 -101t-97 -41zM823 0h-221q0 379 14 567q-194 322 -591 1030
h237q287 -509 436 -862h29q91 215 192.5 411t245.5 451h236q-413 -732 -594 -1028q16 -190 16 -569z" />
    <glyph glyph-name="Zacute" unicode="&#x179;" horiz-adv-x="1361" 
d="M1087 2060l-333 -340h-189l246 340h276zM1296 0h-1230v182q450 613 995 1243l-14 31q-465 -61 -949 -61v202h1180v-180q-413 -555 -995 -1239l14 -28q467 57 999 57v-207z" />
    <glyph glyph-name="zacute" unicode="&#x17a;" horiz-adv-x="1044" 
d="M909 1663l-311 -385h-180l233 385h258zM989 0h-921v170q130 169 205.5 266t198.5 246t233 270l-15 29q-247 -35 -598 -35v191h854v-170q-383 -493 -641 -777l14 -30q107 14 236.5 21t204 8t229.5 1v-190z" />
    <glyph glyph-name="Zdotaccent" unicode="&#x17b;" horiz-adv-x="1361" 
d="M657 1772q-61 0 -102 41.5t-41 103.5q0 59 41 100t102 41t102.5 -41t41.5 -100q0 -62 -41.5 -103.5t-102.5 -41.5zM1296 0h-1230v182q450 613 995 1243l-14 31q-465 -61 -949 -61v202h1180v-180q-413 -555 -995 -1239l14 -28q467 57 999 57v-207z" />
    <glyph glyph-name="zdotaccent" unicode="&#x17c;" horiz-adv-x="1044" 
d="M524 1370q-63 0 -104 42.5t-41 105.5q0 58 41.5 99.5t103.5 41.5q59 0 100.5 -41.5t41.5 -99.5q0 -63 -41 -105.5t-101 -42.5zM989 0h-921v170q130 169 205.5 266t198.5 246t233 270l-15 29q-247 -35 -598 -35v191h854v-170q-383 -493 -641 -777l14 -30q107 14 236.5 21
t204 8t229.5 1v-190z" />
    <glyph glyph-name="Zcaron" unicode="&#x17d;" horiz-adv-x="1361" 
d="M782 1720h-227l-276 330h192q42 -40 63 -63t52.5 -70t52.5 -102h59q20 54 52.5 103t50.5 68t63 64h195zM1296 0h-1230v182q450 613 995 1243l-14 31q-465 -61 -949 -61v202h1180v-180q-413 -555 -995 -1239l14 -28q467 57 999 57v-207z" />
    <glyph glyph-name="zcaron" unicode="&#x17e;" horiz-adv-x="1044" 
d="M637 1288h-231l-297 373h196q8 -10 34.5 -40.5t37 -43t32.5 -39.5t34.5 -45t29 -44t29.5 -52h41q15 30 32.5 58.5t40 58t37 47.5t43.5 52t41 48h197zM989 0h-921v170q130 169 205.5 266t198.5 246t233 270l-15 29q-247 -35 -598 -35v191h854v-170q-383 -493 -641 -777
l14 -30q107 14 236.5 21t204 8t229.5 1v-190z" />
    <glyph glyph-name="uni0218" unicode="&#x218;" horiz-adv-x="1331" 
d="M686 -35q-141 0 -261.5 47.5t-217 156t-137.5 267.5l204 72q47 -172 157.5 -256t252.5 -84q63 0 120 15.5t104.5 45.5t75.5 80.5t28 114.5q0 60 -21.5 103t-74 74t-85.5 44t-109 36q-10 3 -15 5l-148 45q-41 13 -74 25t-80.5 33.5t-83.5 45.5t-74.5 60t-63.5 76.5
t-41.5 95.5t-16.5 117q0 138 75.5 241.5t195.5 154t263 50.5q202 0 348 -104t193 -273l-201 -82q-41 120 -131 189.5t-219 69.5q-127 0 -210 -64t-83 -166q0 -49 23 -91.5t52 -68.5t79 -51.5t79 -36t77 -26.5l161 -52q145 -47 205 -78q209 -108 217 -325v-18
q0 -141 -73.5 -253t-201.5 -173.5t-288 -61.5zM647 -582h-110q27 50 41.5 75t47 68t70.5 79q-65 0 -101 34.5t-36 87.5q0 55 37 90t94 35t94 -37t37 -94q0 -10 -1.5 -19.5t-3.5 -18.5t-7.5 -21.5t-10 -22.5t-14.5 -28t-17.5 -31t-23 -38.5t-26.5 -44t-32.5 -53.5t-37.5 -61z
" />
    <glyph glyph-name="uni0219" unicode="&#x219;" horiz-adv-x="1034" 
d="M539 -35q-180 0 -309.5 87t-172.5 233l193 61q40 -98 119.5 -153.5t167.5 -55.5q34 0 67.5 8.5t66 26t52.5 50.5t20 77q0 31 -12.5 55.5t-29 40.5t-47 31t-53 22.5t-60.5 18.5l-115 33q-45 14 -81 28t-82.5 42t-77 61.5t-52.5 86.5t-22 116q0 104 57 182t146 115.5
t196 37.5q154 0 267 -79t151 -203l-195 -66q-27 76 -86 126t-147 50q-79 0 -130 -40.5t-51 -108.5q0 -33 16 -61t37 -45.5t56.5 -34.5t60.5 -25.5t64 -19.5l96 -29q34 -10 55 -16.5t58 -21t60.5 -29t53 -39.5t46.5 -52.5t29 -67t12 -85.5q0 -158 -117.5 -257.5t-306.5 -99.5
zM494 -582h-111q26 48 41.5 74.5t48 69t70.5 78.5q-65 0 -101 34.5t-36 87.5q0 55 37 90t94 35t94 -37t37 -94q0 -10 -1.5 -19.5t-3.5 -18.5t-7.5 -21.5t-10 -22.5t-14.5 -28t-17.5 -31t-23 -38.5t-26.5 -44t-32.5 -53.5t-37.5 -61z" />
    <glyph glyph-name="uni021A" unicode="&#x21a;" horiz-adv-x="1306" 
d="M764 0h-221q0 327 1 485.5t8 433.5t21 506q-94 -14 -199.5 -21t-164.5 -8t-180 -1v202h1249v-202q-120 0 -179 1t-165.5 8t-200.5 21q14 -231 21.5 -501.5t8.5 -442t1 -481.5zM610 -582h-110q27 50 41.5 75t47 68t70.5 79q-65 0 -101 34.5t-36 87.5q0 55 37 90t94 35
t94 -37t37 -94q0 -10 -1.5 -19.5t-3.5 -18.5t-7.5 -21.5t-10 -22.5t-14.5 -28t-17.5 -31t-23 -38.5t-26.5 -44t-32.5 -53.5t-37.5 -61z" />
    <glyph glyph-name="uni021B" unicode="&#x21b;" horiz-adv-x="839" 
d="M578 -35q-53 0 -97.5 9.5t-76.5 24t-57 39t-41 46.5t-27.5 54.5t-16.5 55.5t-8 57.5t-3.5 52t-0.5 46.5q0 133 1 207t8.5 193.5t21.5 224.5q-106 -27 -256 -27v189q150 0 256 -27q-14 63 -21.5 131t-8.5 109.5t-1 115.5h209q0 -74 -1 -115.5t-8.5 -109.5t-21.5 -131
q139 27 358 27v-189q-219 0 -358 27q14 -95 21.5 -201t8.5 -171.5t1 -182.5q0 -35 0.5 -53t3 -51t8.5 -51.5t17 -42.5t27.5 -36.5t42 -22t58.5 -9.5q87 0 170 51v-191q-85 -49 -208 -49zM446 -582h-110q26 48 41.5 74.5t48 69t70.5 78.5q-65 0 -101.5 34.5t-36.5 87.5
q0 55 37 90t94 35t94.5 -37t37.5 -94q0 -11 -1.5 -20.5t-5.5 -22.5t-8 -23t-14 -28.5t-17.5 -32t-23.5 -40t-28 -46.5t-35.5 -58t-41.5 -67z" />
    <glyph glyph-name="gravecomb" unicode="&#x300;" horiz-adv-x="0" 
d="M-78 1278h-180l-311 385h258z" />
    <glyph glyph-name="acutecomb" unicode="&#x301;" horiz-adv-x="0" 
d="M63 1663l-311 -385h-180l233 385h258z" />
    <glyph glyph-name="uni0302" unicode="&#x302;" horiz-adv-x="0" 
d="M-653 1278h-197l297 364h231l297 -364h-196q-47 50 -72 78.5t-60.5 78.5t-58.5 99h-49q-35 -72 -80.5 -130t-111.5 -126z" />
    <glyph glyph-name="tildecomb" unicode="&#x303;" horiz-adv-x="0" 
d="M-315 1329q-48 0 -82 15.5t-72 46.5l-49 34q-55 43 -90 43q-42 0 -66 -34.5t-24 -87.5h-152q1 126 67.5 204t168.5 78q69 0 149 -59l47 -35q57 -41 90 -41q39 0 59.5 32.5t20.5 88.5h154q0 -134 -58 -209.5t-163 -75.5z" />
    <glyph glyph-name="uni0304" unicode="&#x304;" horiz-adv-x="0" 
d="M-90 1366h-688v156h688v-156z" />
    <glyph glyph-name="uni0306" unicode="&#x306;" horiz-adv-x="0" 
d="M-416 1272q-171 0 -273 111t-108 284h174q5 -105 61.5 -172.5t149.5 -67.5t150.5 67.5t60.5 172.5h174q-6 -174 -109 -284.5t-280 -110.5z" />
    <glyph glyph-name="uni0307" unicode="&#x307;" horiz-adv-x="0" 
d="M-248 1360q-63 0 -104 42t-41 105q0 58 41.5 100t103.5 42q59 0 100.5 -42t41.5 -100q0 -63 -41 -105t-101 -42z" />
    <glyph glyph-name="uni0308" unicode="&#x308;" horiz-adv-x="0" 
d="M-791 1337q-56 0 -94.5 40t-38.5 96q0 53 38.5 92t94.5 39q55 0 93.5 -39t38.5 -92q0 -56 -38.5 -96t-93.5 -40zM-397 1337q-58 0 -95.5 39.5t-37.5 96.5q0 54 38 92.5t95 38.5q53 0 91 -39t38 -92q0 -56 -37.5 -96t-91.5 -40z" />
    <glyph glyph-name="uni030A" unicode="&#x30a;" horiz-adv-x="0" 
d="M-266 1251q-104 0 -174 67t-70 167t70 166.5t174 66.5q102 0 171.5 -66.5t69.5 -166.5q0 -101 -69.5 -167.5t-171.5 -66.5zM-266 1364q52 0 86.5 34t34.5 87q0 52 -34.5 85.5t-86.5 33.5q-54 0 -88.5 -33.5t-34.5 -85.5q0 -54 34.5 -87.5t88.5 -33.5z" />
    <glyph glyph-name="uni030B" unicode="&#x30b;" horiz-adv-x="0" 
d="M-279 1673l-299 -395h-176l222 395h253zM117 1673l-310 -395h-178l234 395h254z" />
    <glyph glyph-name="uni030C" unicode="&#x30c;" horiz-adv-x="0" 
d="M-322 1278h-231l-297 373h197q4 -5 29.5 -34.5t32 -37.5t27.5 -33t30.5 -38.5t25.5 -36t28 -43t23 -42.5h41q19 37 46.5 78t41 59t58 70.5t49.5 57.5h196z" />
    <glyph glyph-name="uni0312" unicode="&#x312;" horiz-adv-x="0" 
d="M-416 1300q0 11 1 21t5.5 23.5t9 24.5t14.5 30.5t18.5 34.5t26 44.5t31 52t39.5 65.5t46 77h121q-79 -154 -160 -278q56 6 84 -26.5t28 -80.5q0 -55 -37 -87t-92 -32q-59 0 -97 37t-38 94z" />
    <glyph glyph-name="uni0326" unicode="&#x326;" horiz-adv-x="0" 
d="M-324 -582h-110q26 48 41.5 74.5t48 69t70.5 78.5q-65 0 -101.5 34.5t-36.5 87.5q0 55 37 90t94 35t94 -37t37 -94q0 -10 -1.5 -19.5t-3.5 -18.5t-7.5 -21.5t-10 -22.5t-14.5 -28t-17.5 -31t-23 -38.5t-26.5 -44t-32.5 -53.5t-37.5 -61z" />
    <glyph glyph-name="uni0327" unicode="&#x327;" horiz-adv-x="0" 
d="M-639 -506q-84 0 -155.5 32.5t-114.5 88.5l73 84q34 -46 84.5 -70t104.5 -24q53 0 87 26t34 68q0 39 -31.5 63.5t-81.5 24.5q-53 0 -92 -27l-72 60l117 180h129q-36 -57 -143 -150l12 -12q61 41 117 41q79 0 132.5 -49.5t53.5 -130.5q0 -91 -72 -148t-182 -57z" />
    <glyph glyph-name="uni0328" unicode="&#x328;" horiz-adv-x="0" 
d="M-637 -483q-123 0 -204 61.5t-81 171.5q0 75 45 134t123 96h148q-84 -31 -125 -80.5t-41 -106.5q0 -58 43 -95.5t111 -37.5q45 0 92 16v-145q-55 -14 -111 -14z" />
    <glyph glyph-name="uni0335" unicode="&#x335;" horiz-adv-x="0" 
d="M-786 649h745v-160h-745v160z" />
    <glyph glyph-name="uni0337" unicode="&#x337;" horiz-adv-x="0" 
d="M-512 471v182l580 416v-182z" />
    <glyph glyph-name="uni0338" unicode="&#x338;" horiz-adv-x="0" 
d="M-1006 -61h-188l928 1241h182z" />
    <glyph glyph-name="Wgrave" unicode="&#x1e80;" horiz-adv-x="2347" 
d="M1296 1720h-188l-332 340h275zM788 0h-274l-487 1597h247q121 -398 205 -703t160 -648h31q55 228 126.5 488t117 413t135.5 450h249q85 -275 135.5 -444.5t121 -425.5t126.5 -489h31q139 635 363 1359h245l-487 -1597h-270q-127 393 -212.5 691.5t-156.5 625.5h-39
q-132 -591 -367 -1317z" />
    <glyph glyph-name="wgrave" unicode="&#x1e81;" horiz-adv-x="1888" 
d="M1038 1278h-180l-311 385h258zM653 0h-233l-395 1137h233q66 -198 99 -301t83 -279t84 -334h41q40 157 95 338t85 271t103 305h190q67 -190 104.5 -299t91 -283t93.5 -332h37q33 147 80.5 315t75 256t91.5 284q13 39 19 59h234l-396 -1137h-241q-191 555 -269 860h-28
q-86 -326 -277 -860z" />
    <glyph glyph-name="Wacute" unicode="&#x1e82;" horiz-adv-x="2347" 
d="M1593 2060l-333 -340h-189l246 340h276zM788 0h-274l-487 1597h247q121 -398 205 -703t160 -648h31q55 228 126.5 488t117 413t135.5 450h249q85 -275 135.5 -444.5t121 -425.5t126.5 -489h31q139 635 363 1359h245l-487 -1597h-270q-127 393 -212.5 691.5t-156.5 625.5
h-39q-132 -591 -367 -1317z" />
    <glyph glyph-name="wacute" unicode="&#x1e83;" horiz-adv-x="1888" 
d="M1329 1663l-311 -385h-180l233 385h258zM653 0h-233l-395 1137h233q66 -198 99 -301t83 -279t84 -334h41q40 157 95 338t85 271t103 305h190q67 -190 104.5 -299t91 -283t93.5 -332h37q33 147 80.5 315t75 256t91.5 284q13 39 19 59h234l-396 -1137h-241
q-191 555 -269 860h-28q-86 -326 -277 -860z" />
    <glyph glyph-name="Wdieresis" unicode="&#x1e84;" horiz-adv-x="2347" 
d="M961 1759q-59 0 -99.5 41t-40.5 101q0 56 41 95.5t99 39.5t97.5 -39.5t39.5 -95.5q0 -60 -39.5 -101t-97.5 -41zM1391 1759q-60 0 -100 41t-40 101q0 56 40.5 95.5t99.5 39.5q57 0 97 -39.5t40 -95.5q0 -60 -40 -101t-97 -41zM788 0h-274l-487 1597h247
q121 -398 205 -703t160 -648h31q55 228 126.5 488t117 413t135.5 450h249q85 -275 135.5 -444.5t121 -425.5t126.5 -489h31q139 635 363 1359h245l-487 -1597h-270q-127 393 -212.5 691.5t-156.5 625.5h-39q-132 -591 -367 -1317z" />
    <glyph glyph-name="wdieresis" unicode="&#x1e85;" horiz-adv-x="1888" 
d="M745 1337q-56 0 -94.5 40t-38.5 96q0 53 38.5 92t94.5 39q55 0 93.5 -39t38.5 -92q0 -56 -38.5 -96t-93.5 -40zM1139 1337q-58 0 -95.5 39.5t-37.5 96.5q0 54 38 92.5t95 38.5q53 0 91 -39t38 -92q0 -56 -37.5 -96t-91.5 -40zM653 0h-233l-395 1137h233q66 -198 99 -301
t83 -279t84 -334h41q40 157 95 338t85 271t103 305h190q67 -190 104.5 -299t91 -283t93.5 -332h37q33 147 80.5 315t75 256t91.5 284q13 39 19 59h234l-396 -1137h-241q-191 555 -269 860h-28q-86 -326 -277 -860z" />
    <glyph glyph-name="uni1E9E" unicode="&#x1e9e;" horiz-adv-x="1568" 
d="M395 0h-221v918q0 109 16 204t59.5 191t112.5 164t182.5 110.5t260.5 42.5q271 0 431.5 -127t160.5 -340q0 -143 -77.5 -235t-219.5 -107v-30q163 0 270 -99t107 -266q0 -60 -14 -115.5t-53.5 -113.5t-100.5 -100.5t-163.5 -69.5t-234.5 -27h-186v201h215q158 0 230.5 67
t72.5 172q0 116 -84 181t-223 65h-113v197h92q27 0 56.5 6t65 24t63 45.5t46.5 75t19 107.5q0 140 -95 216.5t-261 76.5q-103 0 -180 -32t-120.5 -80t-70.5 -115t-35 -125.5t-8 -123.5v-958z" />
    <glyph glyph-name="Ygrave" unicode="&#x1ef2;" horiz-adv-x="1425" 
d="M836 1720h-189l-332 340h275zM823 0h-221q0 379 14 567q-194 322 -591 1030h237q287 -509 436 -862h29q91 215 192.5 411t245.5 451h236q-413 -732 -594 -1028q16 -190 16 -569z" />
    <glyph glyph-name="ygrave" unicode="&#x1ef3;" horiz-adv-x="1155" 
d="M668 1278h-181l-311 385h258zM522 -451h-213l162 420l-451 1168h230q200 -518 317 -953h29q102 385 315 953h224z" />
    <glyph glyph-name="uni2000" unicode="&#x2000;" horiz-adv-x="1024" 
 />
    <glyph glyph-name="uni2001" unicode="&#x2001;" 
 />
    <glyph glyph-name="uni2002" unicode="&#x2002;" horiz-adv-x="1024" 
 />
    <glyph glyph-name="uni2003" unicode="&#x2003;" 
 />
    <glyph glyph-name="uni2004" unicode="&#x2004;" horiz-adv-x="681" 
 />
    <glyph glyph-name="uni2005" unicode="&#x2005;" horiz-adv-x="512" 
 />
    <glyph glyph-name="uni2006" unicode="&#x2006;" horiz-adv-x="342" 
 />
    <glyph glyph-name="uni2007" unicode="&#x2007;" horiz-adv-x="524" 
 />
    <glyph glyph-name="uni2008" unicode="&#x2008;" horiz-adv-x="509" 
 />
    <glyph glyph-name="uni2009" unicode="&#x2009;" horiz-adv-x="256" 
 />
    <glyph glyph-name="uni200A" unicode="&#x200a;" horiz-adv-x="86" 
 />
    <glyph glyph-name="uni200B" unicode="&#x200b;" horiz-adv-x="0" 
 />
    <glyph glyph-name="endash" unicode="&#x2013;" horiz-adv-x="1011" 
d="M891 535h-770v178h770v-178z" />
    <glyph glyph-name="emdash" unicode="&#x2014;" horiz-adv-x="1437" 
d="M1319 541h-1200v164h1200v-164z" />
    <glyph glyph-name="quoteleft" unicode="&#x2018;" horiz-adv-x="499" 
d="M303 1634h121q-31 -60 -49.5 -92.5t-53.5 -81.5t-73 -86q61 -9 94 -49t33 -96q0 -59 -43 -101.5t-103 -42.5t-101.5 42.5t-41.5 103.5q0 44 34 107t146 239q24 37 37 57z" />
    <glyph glyph-name="quoteright" unicode="&#x2019;" horiz-adv-x="509" 
d="M225 1102h-125q44 85 85.5 147t103.5 123q-137 30 -137 135q0 59 43 101.5t104 42.5q59 0 101 -42t42 -100q0 -45 -29 -101t-127 -210q-13 -19 -20 -30.5t-19 -30.5t-22 -35z" />
    <glyph glyph-name="quotesinglbase" unicode="&#x201a;" horiz-adv-x="491" 
d="M178 -270h-123q31 60 49.5 92.5t53.5 82t73 87.5q-60 7 -93.5 47t-33.5 96q0 59 43.5 101.5t104.5 42.5q59 0 101 -42t42 -102q0 -11 -1.5 -21.5t-4 -21t-9.5 -25t-12.5 -26.5t-17.5 -33t-22 -37.5t-28.5 -46.5t-33.5 -53.5t-41 -65.5t-47 -75z" />
    <glyph glyph-name="quotedblleft" unicode="&#x201c;" horiz-adv-x="878" 
d="M303 1634h121q-31 -60 -49.5 -92.5t-53.5 -81.5t-73 -86q61 -9 94 -49t33 -96q0 -59 -43 -101.5t-103 -42.5t-101.5 42.5t-41.5 103.5q0 44 34 107t146 239q24 37 37 57zM682 1634h121q-34 -65 -50 -94t-51.5 -79t-74.5 -87q61 -9 95 -49t34 -96q0 -59 -43.5 -101.5
t-104.5 -42.5q-60 0 -101.5 42.5t-41.5 103.5q0 44 34 107t146 239q24 37 37 57z" />
    <glyph glyph-name="quotedblright" unicode="&#x201d;" horiz-adv-x="888" 
d="M223 1102h-123q72 131 111 184q32 41 68 76q-61 9 -95 49t-34 96q0 59 43 101.5t104 42.5q60 0 101.5 -42.5t41.5 -103.5q0 -44 -34 -107t-146 -239q-24 -37 -37 -57zM604 1102h-123q31 60 49.5 92.5t53.5 81.5t73 86q-61 9 -94 49t-33 96q0 59 43.5 101.5t104.5 42.5
q59 0 101 -42.5t42 -103.5q0 -42 -28.5 -96t-132.5 -218q-36 -57 -56 -89z" />
    <glyph glyph-name="quotedblbase" unicode="&#x201e;" horiz-adv-x="872" 
d="M176 -256h-121q31 60 49.5 92.5t53.5 81.5t73 86q-61 9 -95 49.5t-34 96.5q0 59 43.5 101t104.5 42q60 0 101.5 -42.5t41.5 -103.5q0 -44 -34 -107t-146 -239q-24 -37 -37 -57zM557 -256h-121q34 65 50 94t51.5 79t74.5 87q-61 9 -95 49.5t-34 96.5q0 59 43.5 101
t104.5 42q60 0 101.5 -42.5t41.5 -103.5q0 -44 -34 -107t-146 -239q-24 -37 -37 -57z" />
    <glyph glyph-name="dagger" unicode="&#x2020;" horiz-adv-x="1005" 
d="M588 430h-180q0 488 22 741q-126 -24 -346 -24v166q215 0 346 -25q-22 127 -22 350h180q0 -217 -25 -350q135 25 359 25v-166q-229 0 -359 24q25 -264 25 -741z" />
    <glyph glyph-name="daggerdbl" unicode="&#x2021;" horiz-adv-x="1079" 
d="M950 1313v-166q-213 0 -354 31q26 -89 26.5 -163t-22.5 -163q137 29 350 29v-164q-75 0 -112 0.5t-105.5 7.5t-132.5 20q31 -137 31 -354h-180q0 77 0.5 114.5t7.5 106.5t20 133q-64 -14 -132.5 -20.5t-105.5 -7t-114 -0.5v164q215 0 352 -29q-22 89 -22 163t22 163
q-64 -14 -131.5 -21.5t-108 -8.5t-112.5 -1v166q72 0 112.5 -1t108 -8.5t131.5 -21.5q-13 65 -20 134.5t-7.5 107t-0.5 114.5h180q0 -73 -1 -113.5t-9.5 -109t-24.5 -133.5q141 31 354 31z" />
    <glyph glyph-name="bullet" unicode="&#x2022;" horiz-adv-x="849" 
d="M428 434q-106 0 -180 76.5t-74 185.5q0 102 74.5 175t179.5 73q103 0 176.5 -73.5t73.5 -174.5q0 -109 -73.5 -185.5t-176.5 -76.5z" />
    <glyph glyph-name="ellipsis" unicode="&#x2026;" horiz-adv-x="1456" 
d="M256 -14q-61 0 -103 43t-42 106q0 59 42 101.5t103 42.5q60 0 101.5 -42.5t41.5 -101.5q0 -63 -41.5 -106t-101.5 -43zM729 -14q-61 0 -103 43t-42 106q0 59 42 101.5t103 42.5q60 0 101.5 -42.5t41.5 -101.5q0 -63 -41.5 -106t-101.5 -43zM1202 -14q-61 0 -103 43
t-42 106q0 59 42 101.5t103 42.5q60 0 102 -42.5t42 -101.5q0 -63 -42 -106t-102 -43z" />
    <glyph glyph-name="uni202F" unicode="&#x202f;" horiz-adv-x="385" 
 />
    <glyph glyph-name="perthousand" unicode="&#x2030;" horiz-adv-x="2541" 
d="M362 756q-134 0 -214 108t-80 281q0 175 80 284t214 109t214.5 -109.5t80.5 -283.5q0 -172 -80.5 -280.5t-214.5 -108.5zM438 0h-194l1138 1468h187zM362 911q54 0 85.5 59t31.5 175q0 118 -31.5 177.5t-85.5 59.5q-55 0 -86.5 -59.5t-31.5 -177.5q0 -116 31.5 -175
t86.5 -59zM1454 -29q-134 0 -214.5 108t-80.5 281q0 175 80.5 284.5t214.5 109.5q133 0 214 -110t81 -284q0 -172 -80.5 -280.5t-214.5 -108.5zM2179 -29q-134 0 -214.5 108t-80.5 281q0 175 80.5 284.5t214.5 109.5q133 0 214 -110t81 -284q0 -172 -80.5 -280.5
t-214.5 -108.5zM1454 127q54 0 85.5 58.5t31.5 174.5q0 118 -31.5 178t-85.5 60q-55 0 -87 -60t-32 -178q0 -116 32 -174.5t87 -58.5zM2179 127q54 0 85.5 58.5t31.5 174.5q0 118 -31.5 178t-85.5 60q-55 0 -87 -60t-32 -178q0 -116 32 -174.5t87 -58.5z" />
    <glyph glyph-name="guilsinglleft" unicode="&#x2039;" horiz-adv-x="772" 
d="M643 164h-223l-322 405v9l322 405h223q-66 -84 -111.5 -137.5t-116.5 -121t-143 -116.5v-69q56 -37 107 -81t99.5 -97.5t81.5 -93t83 -103.5z" />
    <glyph glyph-name="guilsinglright" unicode="&#x203a;" horiz-adv-x="772" 
d="M350 164h-223q58 72 85.5 105t80 90.5t102 100t105.5 79.5v69q-56 37 -105.5 79.5t-102 100t-80 90.5t-85.5 105h223l324 -405v-9z" />
    <glyph glyph-name="fraction" unicode="&#x2044;" horiz-adv-x="366" 
d="M-287 0h-194l1138 1468h187z" />
    <glyph glyph-name="uni205F" unicode="&#x205f;" horiz-adv-x="454" 
 />
    <glyph glyph-name="uni2070" unicode="&#x2070;" horiz-adv-x="724" 
d="M362 756q-134 0 -214 108t-80 281q0 175 80 284t214 109t214.5 -109.5t80.5 -283.5q0 -172 -80.5 -280.5t-214.5 -108.5zM362 911q54 0 85.5 59t31.5 175q0 118 -31.5 177.5t-85.5 59.5q-55 0 -86.5 -59.5t-31.5 -177.5q0 -116 31.5 -175t86.5 -59z" />
    <glyph glyph-name="uni2074" unicode="&#x2074;" horiz-adv-x="708" 
d="M555 772h-160v150h-354v133l358 467h156v-461h96v-139h-96v-150zM395 1309l-192 -248h192v248z" />
    <glyph glyph-name="uni2075" unicode="&#x2075;" horiz-adv-x="692" 
d="M332 756q-102 0 -181.5 43.5t-107.5 128.5l147 73q20 -50 58.5 -76t85.5 -26q55 0 88 34t33 87q0 56 -33.5 89.5t-85.5 33.5q-40 0 -70 -20.5t-45 -49.5l-139 33l90 416h414v-136h-295l-41 -180h2q25 28 66 43t83 15q93 0 161.5 -61t68.5 -177q0 -124 -86 -197t-213 -73z
" />
    <glyph glyph-name="uni2076" unicode="&#x2076;" horiz-adv-x="718" 
d="M367 756q-137 0 -219 91t-82 257q0 189 101.5 311.5t264.5 122.5q140 0 211 -82l-86 -110q-54 49 -131 49q-80 0 -132 -57t-61 -158h3q24 38 72 60t98 22q103 0 176 -67.5t73 -174.5q0 -115 -80 -189.5t-208 -74.5zM375 895q53 0 89 36t36 91t-36 90t-89 35
q-55 0 -90 -36t-35 -91q0 -54 36 -89.5t89 -35.5z" />
    <glyph glyph-name="uni2077" unicode="&#x2077;" horiz-adv-x="589" 
d="M326 772h-179q0 89 22 194.5t73.5 222t124.5 195.5h-332v140h528v-142q-81 -72 -137 -185t-78 -219.5t-22 -205.5z" />
    <glyph glyph-name="uni2078" unicode="&#x2078;" horiz-adv-x="706" 
d="M352 756q-132 0 -210.5 65t-78.5 160q0 69 39.5 120t92.5 64v2q-97 58 -97 156q0 94 73 154.5t181 60.5q106 0 181 -59.5t75 -157.5q0 -106 -98 -154v-2q55 -14 94 -64t39 -118q0 -96 -79 -161.5t-212 -65.5zM354 1227q43 0 72 27.5t29 68.5q0 39 -29 64.5t-72 25.5
q-44 0 -73 -25t-29 -65q0 -41 29 -68.5t73 -27.5zM354 901q50 0 83.5 30t33.5 79q0 48 -31.5 77t-85.5 29q-55 0 -86.5 -29t-31.5 -77q0 -47 33.5 -78t84.5 -31z" />
    <glyph glyph-name="uni2079" unicode="&#x2079;" horiz-adv-x="724" 
d="M322 756q-74 0 -141 25.5t-109 78.5l88 109q33 -38 77 -57t85 -19q81 0 122.5 64t44.5 161h-2q-22 -43 -69.5 -65.5t-102.5 -22.5q-103 0 -175 66.5t-72 173.5q0 117 80.5 192.5t211.5 75.5q132 0 214.5 -87.5t82.5 -268.5q0 -184 -86.5 -305t-248.5 -121zM346 1145
q55 0 91 38t36 95t-35.5 92t-87.5 35q-56 0 -90.5 -36.5t-34.5 -94.5q0 -57 33.5 -93t87.5 -36z" />
    <glyph glyph-name="uni2080" unicode="&#x2080;" horiz-adv-x="724" 
d="M362 -285q-134 0 -214 108t-80 281q0 175 80 284.5t214 109.5q133 0 214 -110t81 -284q0 -172 -80.5 -280.5t-214.5 -108.5zM362 -129q54 0 85.5 58.5t31.5 174.5q0 118 -31.5 178t-85.5 60t-86 -60t-32 -178q0 -116 31.5 -174.5t86.5 -58.5z" />
    <glyph glyph-name="uni2081" unicode="&#x2081;" horiz-adv-x="489" 
d="M371 -268h-166v489q-63 -63 -158 -84v176q73 21 116.5 68t43.5 100h164v-749z" />
    <glyph glyph-name="uni2082" unicode="&#x2082;" horiz-adv-x="686" 
d="M610 -268h-530v20q3 91 27.5 151t71 104.5t138.5 105.5q2 2 23.5 17t28.5 21t24.5 21.5t24.5 27t13.5 28.5t6.5 34q0 36 -26.5 60t-71.5 24q-57 0 -92.5 -39.5t-36.5 -107.5l-154 22q0 123 82 200t205 77q115 0 191.5 -65.5t76.5 -170.5q0 -129 -135 -215
q-15 -10 -42 -27t-43.5 -28.5t-36 -28t-32.5 -35.5t-20 -41h307v-155z" />
    <glyph glyph-name="uni2083" unicode="&#x2083;" horiz-adv-x="692" 
d="M336 -285q-107 0 -187 48t-102 124l146 72q46 -104 143 -104q48 0 80.5 26.5t32.5 73.5q0 49 -35.5 72.5t-91.5 23.5h-74v119h76q49 0 81.5 25t32.5 67q0 41 -29.5 66.5t-74.5 25.5q-48 0 -79.5 -28.5t-37.5 -79.5l-151 33q9 94 87 156.5t193 62.5q109 0 183.5 -55.5
t74.5 -145.5q0 -59 -32 -106.5t-85 -59.5v-2q59 -11 99.5 -59t40.5 -115q0 -95 -77 -167.5t-214 -72.5z" />
    <glyph glyph-name="uni2084" unicode="&#x2084;" horiz-adv-x="708" 
d="M555 -268h-160v149h-354v133l358 467h156v-461h96v-139h-96v-149zM395 268l-192 -248h192v248z" />
    <glyph glyph-name="uni2085" unicode="&#x2085;" horiz-adv-x="692" 
d="M332 -285q-102 0 -181.5 43.5t-107.5 128.5l147 74q20 -50 58.5 -76t85.5 -26q55 0 88 34t33 87q0 56 -33.5 89t-85.5 33q-40 0 -70 -20t-45 -49l-139 33l90 415h414v-135h-295l-41 -180h2q51 57 149 57q93 0 161.5 -60.5t68.5 -176.5q0 -124 -86 -197.5t-213 -73.5z" />
    <glyph glyph-name="uni2086" unicode="&#x2086;" horiz-adv-x="718" 
d="M367 -285q-137 0 -219 91t-82 257q0 189 101.5 312t264.5 123q140 0 211 -82l-86 -111q-54 49 -131 49q-80 0 -132 -57t-61 -158h3q24 38 72 60t98 22q103 0 176 -67t73 -174q0 -115 -80 -190t-208 -75zM375 -145q53 0 89 36t36 91t-36 89.5t-89 34.5q-55 0 -90 -36
t-35 -90t36 -89.5t89 -35.5z" />
    <glyph glyph-name="uni2087" unicode="&#x2087;" horiz-adv-x="589" 
d="M326 -268h-179q0 89 22 194.5t73.5 222t124.5 195.5h-332v139h528v-141q-81 -72 -137 -185t-78 -219.5t-22 -205.5z" />
    <glyph glyph-name="uni2088" unicode="&#x2088;" horiz-adv-x="706" 
d="M352 -285q-132 0 -210.5 65.5t-78.5 160.5q0 69 39.5 120t92.5 64v2q-97 58 -97 156q0 94 73 154.5t181 60.5q106 0 181 -59.5t75 -157.5q0 -106 -98 -154v-2q55 -14 94 -64t39 -118q0 -96 -79 -162t-212 -66zM354 186q43 0 72 28t29 69q0 39 -29 64.5t-72 25.5
q-44 0 -73 -25t-29 -65q0 -41 29 -69t73 -28zM354 -139q50 0 83.5 29.5t33.5 78.5q0 48 -32 77.5t-85 29.5q-55 0 -86.5 -29.5t-31.5 -77.5q0 -47 33.5 -77.5t84.5 -30.5z" />
    <glyph glyph-name="uni2089" unicode="&#x2089;" horiz-adv-x="724" 
d="M322 -285q-74 0 -141 25.5t-109 79.5l88 108q33 -38 77 -56.5t85 -18.5q81 0 122.5 64t44.5 161h-2q-22 -43 -69.5 -65.5t-102.5 -22.5q-103 0 -175 66t-72 173q0 117 81 193t211 76q132 0 214.5 -88t82.5 -269q0 -184 -86.5 -305t-248.5 -121zM346 104q55 0 91 38.5
t36 95.5t-35.5 92t-87.5 35q-55 0 -90 -36.5t-35 -95.5q0 -57 33.5 -93t87.5 -36z" />
    <glyph glyph-name="Euro" unicode="&#x20ac;" horiz-adv-x="1656" 
d="M1075 -35q-288 0 -476 159.5t-228 434.5q-102 -20 -262 -20v123q145 0 239 -29q-37 144 -2 276q-89 -28 -237 -28v123q153 0 258 -21q37 281 224.5 448.5t473.5 167.5q318 0 500 -174l-154 -153q-141 123 -348 123q-188 0 -320 -106t-202 -306q243 21 635 21v-123
q-148 0 -219 0.5t-199 7.5t-240 20q18 -134 2 -276q240 29 656 29v-123q-400 0 -629 20q73 -192 206.5 -290.5t319.5 -98.5q220 0 371 121l131 -152q-196 -174 -500 -174z" />
    <glyph glyph-name="trademark" unicode="&#x2122;" horiz-adv-x="1583" 
d="M412 926h-127v571h-213v119h551v-119h-211v-571zM858 926h-129v690h129q113 -262 219 -504l215 504h129v-690h-127v424q-154 -356 -178 -414h-82q-30 72 -90 213.5t-86 202.5v-426z" />
    <glyph glyph-name="oneeighth" unicode="&#x215b;" horiz-adv-x="1564" 
d="M371 772h-166v490q-63 -63 -158 -84v176q73 21 116.5 68t43.5 100h164v-750zM203 0h-195l1139 1468h186zM1208 -29q-132 0 -210 65.5t-78 160.5q0 69 39 120t92 64v2q-97 58 -97 156q0 94 73 154.5t181 60.5q106 0 181 -59.5t75 -157.5q0 -106 -98 -154v-2q55 -14 94 -64
t39 -118q0 -96 -79 -162t-212 -66zM1210 442q43 0 72 28t29 69q0 39 -29 64.5t-72 25.5q-44 0 -73 -25t-29 -65q0 -41 29 -69t73 -28zM1210 117q50 0 83.5 29.5t33.5 78.5q0 48 -32 77.5t-85 29.5q-55 0 -86.5 -29.5t-31.5 -77.5q0 -47 33.5 -77.5t84.5 -30.5z" />
    <glyph glyph-name="threeeighths" unicode="&#x215c;" horiz-adv-x="1767" 
d="M336 756q-107 0 -187 48t-102 124l146 71q46 -104 143 -104q48 0 80.5 26.5t32.5 73.5q0 49 -35.5 73t-91.5 24h-74v118h76q48 0 81 25.5t33 67.5q0 41 -29.5 66.5t-74.5 25.5q-48 0 -79.5 -29t-37.5 -80l-151 33q9 94 87 156.5t193 62.5q109 0 183.5 -55.5t74.5 -145.5
q0 -59 -32 -106.5t-85 -59.5v-2q59 -11 99.5 -59t40.5 -115q0 -95 -77 -167t-214 -72zM406 0h-195l1139 1468h186zM1413 -29q-132 0 -210.5 65.5t-78.5 160.5q0 69 39 120t92 64v2q-96 57 -96 156q0 94 73 154.5t181 60.5q106 0 181 -59.5t75 -157.5q0 -106 -98 -154v-2
q55 -14 94 -64t39 -118q0 -96 -79 -162t-212 -66zM1415 442q43 0 72 28t29 69q0 39 -29 64.5t-72 25.5q-44 0 -73 -25t-29 -65q0 -41 29 -69t73 -28zM1415 117q50 0 83.5 29.5t33.5 78.5q0 48 -32 77.5t-85 29.5q-55 0 -87 -29.5t-32 -77.5q0 -47 34 -77.5t85 -30.5z" />
    <glyph glyph-name="fiveeighths" unicode="&#x215d;" horiz-adv-x="1767" 
d="M332 756q-102 0 -181.5 43.5t-107.5 128.5l147 73q20 -50 58.5 -76t85.5 -26q55 0 88 34t33 87q0 56 -33.5 89.5t-85.5 33.5q-40 0 -70 -20.5t-45 -49.5l-139 33l90 416h414v-136h-295l-41 -180h2q25 28 66 43t83 15q93 0 161.5 -61t68.5 -177q0 -124 -86 -197t-213 -73z
M406 0h-195l1139 1468h186zM1411 -29q-132 0 -210.5 65.5t-78.5 160.5q0 69 39 120t92 64v2q-96 57 -96 156q0 94 73 154.5t181 60.5q106 0 181 -59.5t75 -157.5q0 -106 -98 -154v-2q55 -14 94 -64t39 -118q0 -96 -79 -162t-212 -66zM1413 442q43 0 71.5 28t28.5 69
q0 39 -28.5 64.5t-71.5 25.5q-44 0 -73 -25t-29 -65q0 -41 29 -69t73 -28zM1413 117q50 0 83.5 29.5t33.5 78.5q0 48 -32 77.5t-85 29.5q-55 0 -87 -29.5t-32 -77.5q0 -47 34 -77.5t85 -30.5z" />
    <glyph glyph-name="seveneighths" unicode="&#x215e;" horiz-adv-x="1665" 
d="M326 772h-179q0 89 22 194.5t73.5 222t124.5 195.5h-332v140h528v-142q-81 -72 -137 -185t-78 -219.5t-22 -205.5zM303 0h-194l1138 1468h187zM1309 -29q-132 0 -210.5 65.5t-78.5 160.5q0 69 39 120t92 64v2q-96 57 -96 156q0 94 73 154.5t181 60.5q106 0 181 -59.5
t75 -157.5q0 -106 -99 -154v-2q55 -14 94 -64t39 -118q0 -96 -78.5 -162t-211.5 -66zM1311 442q43 0 71.5 28t28.5 69q0 39 -28.5 64.5t-71.5 25.5q-45 0 -74 -25.5t-29 -64.5q0 -41 29.5 -69t73.5 -28zM1311 117q50 0 83 29.5t33 78.5q0 48 -31.5 77.5t-84.5 29.5
q-55 0 -87 -29.5t-32 -77.5q0 -47 34 -77.5t85 -30.5z" />
    <glyph glyph-name="arrowleft" unicode="&#x2190;" horiz-adv-x="1402" 
d="M651 236h-207l-340 405v8l340 406h207q-83 -101 -158.5 -180.5t-183.5 -172.5q160 14 346.5 21.5t303.5 8.5t327 1v-176q-633 0 -977 29q108 -91 183.5 -171t158.5 -179z" />
    <glyph glyph-name="arrowup" unicode="&#x2191;" horiz-adv-x="991" 
d="M584 20h-176q0 222 1 330t8 297.5t21 349.5q-93 -109 -173 -184.5t-179 -157.5v207l406 340h8l405 -340v-207q-72 61 -111.5 96t-107.5 104t-131 144q29 -346 29 -979z" />
    <glyph glyph-name="arrowright" unicode="&#x2192;" horiz-adv-x="1402" 
d="M958 236h-208q58 68 96 110.5t105.5 109.5t142.5 130q-344 -29 -977 -29v176q210 0 327 -1t303.5 -8.5t346.5 -21.5q-76 64 -144 132t-103 108t-97 113h208l340 -406v-8z" />
    <glyph glyph-name="arrowdown" unicode="&#x2193;" horiz-adv-x="993" 
d="M500 20h-8l-406 340v207q99 -82 179 -157.5t173 -184.5q-13 160 -20 349.5t-7.5 297t-0.5 330.5h176q0 -211 -1 -328t-8.5 -303.5t-21.5 -347.5q64 76 131 143.5t109 105t110 95.5v-207z" />
    <glyph glyph-name="arrowboth" unicode="&#x2194;" horiz-adv-x="1759" 
d="M647 233h-207l-340 406v8l340 406h207q-128 -155 -309 -359q542 45 1085 0q-162 184 -311 359h209l340 -406v-8l-340 -406h-209q265 307 309 357q-540 -45 -1083 0q166 -188 309 -357z" />
    <glyph glyph-name="arrowupdn" unicode="&#x2195;" horiz-adv-x="1075" 
d="M541 6h-9l-405 322v190q196 -151 352 -282q-42 461 0 925q-144 -125 -352 -293v197l405 321h9l405 -321v-197q-287 238 -350 293q45 -464 0 -925q99 83 350 282v-190z" />
    <glyph glyph-name="uni2196" unicode="&#x2196;" horiz-adv-x="1040" 
d="M944 154l-151 -88q-307 526 -465 862q-38 -215 -131 -473l-105 180l182 495l7 5l522 -91l102 -180q-89 16 -143.5 27.5t-146.5 36t-185 57.5q93 -132 193 -291.5t155.5 -254t165.5 -285.5z" />
    <glyph glyph-name="uni2197" unicode="&#x2197;" horiz-adv-x="1040" 
d="M248 66l-152 88q110 191 165.5 285.5t155.5 254t193 291.5q-93 -33 -185 -57.5t-146.5 -36t-143.5 -27.5l103 180l522 91l6 -5l182 -495l-104 -180q-30 83 -48 138t-42.5 146.5t-42.5 188.5q-98 -211 -205.5 -408t-257.5 -454z" />
    <glyph glyph-name="uni2198" unicode="&#x2198;" horiz-adv-x="1038" 
d="M94 1067l152 88q150 -257 257.5 -454t205.5 -408q18 97 42.5 188.5t42.5 146.5t48 138l104 -180l-182 -496l-6 -4l-522 90l-103 180q93 -17 144.5 -27.5t144.5 -35t186 -57.5q-93 132 -193 291.5t-155.5 254t-165.5 285.5z" />
    <glyph glyph-name="uni2199" unicode="&#x2199;" horiz-adv-x="1038" 
d="M793 1155l153 -88q-8 -14 -47 -80.5t-50 -85.5t-46.5 -79.5t-50.5 -85t-48.5 -80t-53 -86t-51 -80.5t-56 -86.5t-54.5 -81t-59 -86.5q203 71 477 120l-104 -180l-520 -90l-9 4l-180 496l103 180q88 -236 133 -473q69 146 155 309.5t145.5 269t162.5 283.5z" />
    <glyph glyph-name="emptyset" unicode="&#x2205;" horiz-adv-x="1431" 
d="M1257 1190l-124 -176q85 -82 131.5 -197.5t46.5 -249.5q0 -171 -75 -308t-211 -215.5t-308 -78.5q-159 0 -285 66l-127 -178l-127 88l127 178q-89 82 -136.5 197.5t-47.5 250.5q0 261 167 432.5t429 171.5q159 0 287 -67l122 174zM336 567q0 -159 92 -272l455 641
q-73 37 -166 37q-167 0 -274 -116t-107 -290zM717 164q166 0 273.5 115t107.5 288q0 157 -90 271l-455 -639q72 -35 164 -35z" />
    <glyph glyph-name="minus" unicode="&#x2212;" horiz-adv-x="1042" 
d="M909 543h-778v168h778v-168z" />
    <glyph glyph-name="infinity" unicode="&#x221e;" horiz-adv-x="1812" 
d="M483 285q-158 0 -260 96t-102 244q0 145 107 242.5t255 97.5q99 0 187 -52t235 -190q152 138 238.5 190t181.5 52q159 0 262 -96t103 -244t-103 -244t-262 -96q-102 0 -189.5 52.5t-228.5 188.5q-140 -138 -229 -189.5t-195 -51.5zM489 432q28 0 56 8t48 16.5t51 32
t46 36.5t54.5 49t56.5 51q-16 14 -49.5 45.5t-47 43t-40.5 33.5t-42.5 30.5t-39.5 20t-46 15.5t-47 4q-87 0 -141.5 -52.5t-54.5 -139.5q0 -90 55.5 -141.5t140.5 -51.5zM1323 434q86 0 140.5 50.5t54.5 140.5q0 87 -54 138.5t-141 51.5q-24 0 -45.5 -3.5t-45 -15t-39 -19.5
t-43 -30.5t-40 -33.5t-48.5 -43t-50 -45q17 -15 54.5 -48.5t53.5 -47.5t47 -37t51.5 -32.5t48.5 -17.5t56 -8z" />
    <glyph glyph-name="approxequal" unicode="&#x2248;" horiz-adv-x="1097" 
d="M309 696h-170q0 137 73.5 216t180.5 79q50 0 95.5 -20t73.5 -43.5t64 -43.5t70 -20q92 0 92 125h170q0 -144 -64 -221.5t-173 -77.5q-54 0 -102 20.5t-76.5 45t-64 45t-68.5 20.5q-50 0 -75.5 -36.5t-25.5 -88.5zM309 256h-170q0 139 73.5 218t180.5 79q50 0 95.5 -20
t73.5 -43.5t64 -43.5t70 -20q92 0 92 125h170q0 -144 -64 -221.5t-173 -77.5q-54 0 -102 20.5t-76.5 45t-64 45t-68.5 20.5q-51 0 -76 -36.5t-25 -90.5z" />
    <glyph glyph-name="notequal" unicode="&#x2260;" horiz-adv-x="1079" 
d="M934 915v-167h-297q-3 -134 -94 -265h391v-168h-451q4 -28 -1 -61t-11 -54t-20 -61h-158q37 110 92 176h-242v168h301q6 134 97 265h-398v167h457q-2 13 -3 25.5t1.5 28.5t4 25t7.5 29.5t7.5 25.5t9.5 28h157q-34 -103 -86 -162h236z" />
    <glyph glyph-name="lessequal" unicode="&#x2264;" horiz-adv-x="1046" 
d="M899 303h-756v143h455l-451 175v170l752 176v-158l-551 -127l551 -229v-150z" />
    <glyph glyph-name="greaterequal" unicode="&#x2265;" horiz-adv-x="1046" 
d="M903 303h-756v150l551 229l-551 127v158l752 -176v-170l-448 -175h452v-143z" />
    <glyph glyph-name="lozenge" unicode="&#x25ca;" horiz-adv-x="1146" 
d="M618 0h-90l-422 694l422 692h90l420 -692zM295 694l274 -467h6l277 467l-277 465h-6z" />
    <glyph glyph-name="A.ss01" horiz-adv-x="1546" 
d="M250 0h-232l609 1597h293l608 -1597h-236q-40 100 -63 161t-53.5 157.5t-47.5 181.5l-22 20q-200 -22 -326 -22q-160 0 -338 22l-22 -22q-42 -172 -170 -498zM496 684l16 -20q169 22 268 22q101 0 248 -22l14 20q-89 211 -141 374.5t-80 362.5h-100
q-31 -203 -85.5 -372.5t-139.5 -364.5z" />
    <glyph glyph-name="Aacute.ss01" horiz-adv-x="1546" 
d="M1190 2060l-334 -340h-188l245 340h277zM250 0h-232l609 1597h293l608 -1597h-236q-40 100 -63 161t-53.5 157.5t-47.5 181.5l-22 20q-200 -22 -326 -22q-160 0 -338 22l-22 -22q-42 -172 -170 -498zM496 684l16 -20q169 22 268 22q101 0 248 -22l14 20
q-89 211 -141 374.5t-80 362.5h-100q-31 -203 -85.5 -372.5t-139.5 -364.5z" />
    <glyph glyph-name="Abreve.ss01" horiz-adv-x="1546" 
d="M772 1720q-168 0 -276 102t-113 242h182q3 -75 61 -131.5t146 -56.5q90 0 148 56.5t61 131.5h182q-5 -139 -113.5 -241.5t-277.5 -102.5zM250 0h-232l609 1597h293l608 -1597h-236q-40 100 -63 161t-53.5 157.5t-47.5 181.5l-22 20q-200 -22 -326 -22q-160 0 -338 22
l-22 -22q-42 -172 -170 -498zM496 684l16 -20q169 22 268 22q101 0 248 -22l14 20q-89 211 -141 374.5t-80 362.5h-100q-31 -203 -85.5 -372.5t-139.5 -364.5z" />
    <glyph glyph-name="Acircumflex.ss01" horiz-adv-x="1546" 
d="M573 1720h-192l278 330h224l278 -330h-192q-39 37 -62 61.5t-53.5 71.5t-50.5 103h-62q-20 -56 -50 -102.5t-54.5 -72t-63.5 -61.5zM250 0h-232l609 1597h293l608 -1597h-236q-40 100 -63 161t-53.5 157.5t-47.5 181.5l-22 20q-200 -22 -326 -22q-160 0 -338 22l-22 -22
q-42 -172 -170 -498zM496 684l16 -20q169 22 268 22q101 0 248 -22l14 20q-89 211 -141 374.5t-80 362.5h-100q-31 -203 -85.5 -372.5t-139.5 -364.5z" />
    <glyph glyph-name="Adieresis.ss01" horiz-adv-x="1546" 
d="M557 1759q-59 0 -99 41t-40 101q0 56 40.5 95.5t98.5 39.5t97.5 -39.5t39.5 -95.5q0 -60 -39.5 -101t-97.5 -41zM987 1759q-60 0 -99.5 41t-39.5 101q0 56 40 95.5t99 39.5q57 0 97 -39.5t40 -95.5q0 -60 -40 -101t-97 -41zM250 0h-232l609 1597h293l608 -1597h-236
q-40 100 -63 161t-53.5 157.5t-47.5 181.5l-22 20q-200 -22 -326 -22q-160 0 -338 22l-22 -22q-42 -172 -170 -498zM496 684l16 -20q169 22 268 22q101 0 248 -22l14 20q-89 211 -141 374.5t-80 362.5h-100q-31 -203 -85.5 -372.5t-139.5 -364.5z" />
    <glyph glyph-name="Agrave.ss01" horiz-adv-x="1546" 
d="M893 1720h-188l-332 340h274zM250 0h-232l609 1597h293l608 -1597h-236q-40 100 -63 161t-53.5 157.5t-47.5 181.5l-22 20q-200 -22 -326 -22q-160 0 -338 22l-22 -22q-42 -172 -170 -498zM496 684l16 -20q169 22 268 22q101 0 248 -22l14 20q-89 211 -141 374.5
t-80 362.5h-100q-31 -203 -85.5 -372.5t-139.5 -364.5z" />
    <glyph glyph-name="Amacron.ss01" horiz-adv-x="1546" 
d="M1126 1798h-708v162h708v-162zM250 0h-232l609 1597h293l608 -1597h-236q-40 100 -63 161t-53.5 157.5t-47.5 181.5l-22 20q-200 -22 -326 -22q-160 0 -338 22l-22 -22q-42 -172 -170 -498zM496 684l16 -20q169 22 268 22q101 0 248 -22l14 20q-89 211 -141 374.5
t-80 362.5h-100q-31 -203 -85.5 -372.5t-139.5 -364.5z" />
    <glyph glyph-name="Aogonek.ss01" horiz-adv-x="1546" 
d="M1454 -326q42 0 88 13v-133q-55 -17 -117 -17q-122 0 -205 61.5t-83 172.5q0 140 168 229h-13q-40 100 -63 161t-53.5 157.5t-47.5 181.5l-22 20q-200 -22 -326 -22q-160 0 -338 22l-22 -22q-42 -172 -170 -498h-232l609 1597h293l608 -1597h-68q-89 -29 -130.5 -79
t-41.5 -105q0 -60 44.5 -101t121.5 -41zM1028 664l14 20q-89 211 -141 374.5t-80 362.5h-100q-31 -203 -85.5 -372.5t-139.5 -364.5l16 -20q169 22 268 22q101 0 248 -22z" />
    <glyph glyph-name="Aring.ss01" horiz-adv-x="1546" 
d="M770 1712q-103 0 -173.5 67.5t-70.5 166.5t70.5 166t173.5 67q102 0 172 -66.5t70 -166.5t-70 -167t-172 -67zM770 1825q52 0 86.5 34t34.5 87q0 52 -34.5 85t-86.5 33q-54 0 -88.5 -33t-34.5 -85q0 -54 34.5 -87.5t88.5 -33.5zM250 0h-232l609 1597h293l608 -1597h-236
q-40 100 -63 161t-53.5 157.5t-47.5 181.5l-22 20q-200 -22 -326 -22q-160 0 -338 22l-22 -22q-42 -172 -170 -498zM496 684l16 -20q169 22 268 22q101 0 248 -22l14 20q-89 211 -141 374.5t-80 362.5h-100q-31 -203 -85.5 -372.5t-139.5 -364.5z" />
    <glyph glyph-name="Atilde.ss01" horiz-adv-x="1546" 
d="M928 1739q-48 0 -82.5 15t-71.5 46l-49 35q-55 43 -90 43q-41 0 -65.5 -35t-24.5 -88h-152q1 126 67.5 204.5t168.5 78.5q67 0 149 -60l47 -34q57 -41 90 -41q39 0 59.5 32.5t20.5 87.5h154q0 -134 -58 -209t-163 -75zM250 0h-232l609 1597h293l608 -1597h-236
q-40 100 -63 161t-53.5 157.5t-47.5 181.5l-22 20q-200 -22 -326 -22q-160 0 -338 22l-22 -22q-42 -172 -170 -498zM496 684l16 -20q169 22 268 22q101 0 248 -22l14 20q-89 211 -141 374.5t-80 362.5h-100q-31 -203 -85.5 -372.5t-139.5 -364.5z" />
    <glyph glyph-name="B.ss01" horiz-adv-x="1460" 
d="M846 0h-651v1597h616q233 0 366.5 -118.5t133.5 -296.5q0 -59 -17 -112t-52.5 -99.5t-94.5 -82t-137 -54.5v-37q175 -29 264.5 -122.5t89.5 -242.5q0 -105 -44.5 -189.5t-119 -136t-165.5 -79t-189 -27.5zM387 885l27 -23q59 18 125 27t105.5 10.5t109.5 1.5
q143 0 234 64t91 180q0 81 -47 139t-120.5 84.5t-163.5 26.5h-42.5h-47t-43.5 1t-49 3t-46.5 6t-54 10t-53.5 15l-31 -19q46 -240 6 -526zM383 195l29 -29q65 17 138 26t118 10t125 1q144 0 240.5 65t96.5 183q0 122 -99.5 190t-242.5 68q-78 0 -121.5 1.5t-114.5 10.5
t-136 27l-29 -23q40 -290 -4 -530z" />
    <glyph glyph-name="C.ss01" horiz-adv-x="1712" 
d="M913 -35q-236 0 -422 104.5t-290.5 294.5t-104.5 435q0 189 65 347.5t175.5 263t256.5 162.5t308 58q160 0 302.5 -55t252.5 -165.5t162 -262.5l-203 -82q-67 166 -203 262t-313 96q-118 0 -222 -44t-181.5 -124t-122.5 -200t-45 -264q0 -125 34.5 -229.5t92 -175.5
t134.5 -120t161 -71.5t172 -22.5q207 0 350.5 119.5t202.5 318.5l202 -71q-87 -271 -285.5 -422.5t-478.5 -151.5z" />
    <glyph glyph-name="D.ss01" horiz-adv-x="1638" 
d="M801 0h-606v1597h587q156 0 283 -40.5t214.5 -112t146.5 -171.5t86.5 -216t27.5 -248q0 -238 -87 -420t-255.5 -285.5t-396.5 -103.5zM383 195l29 -29q63 17 135 26t116.5 10t124.5 1q112 0 206 36.5t165 108t110.5 186t39.5 261.5q0 160 -46.5 279t-128.5 187.5
t-183 101t-222 32.5q-67 0 -104 1t-97.5 9.5t-115.5 24.5l-31 -19q71 -620 2 -1216z" />
    <glyph glyph-name="E.ss01" horiz-adv-x="1339" 
d="M1237 0h-1042v1597h1022v-202h-106h-115.5t-106 1t-119.5 3t-111.5 6t-125.5 10t-121 15l-31 -19q46 -243 6 -514l21 -23q132 22 277.5 33t239.5 13t251 2v-211q-162 0 -252.5 1.5t-236.5 13t-277 34.5l-23 -23q40 -288 -4 -542l29 -29q140 19 298 28.5t255 11t272 1.5
v-207z" />
    <glyph glyph-name="F.ss01" horiz-adv-x="1269" 
d="M414 0h-219v1597h1003v-206q-167 0 -259.5 1.5t-242.5 10.5t-284 27l-31 -19q51 -269 -2 -539l20 -22q133 22 278.5 33t234 12.5t245.5 1.5v-211q-159 0 -247.5 1.5t-233 12.5t-275.5 33l-22 -20q16 -119 24.5 -255t9.5 -220.5t1 -237.5z" />
    <glyph glyph-name="G.ss01" horiz-adv-x="1748" 
d="M909 -35q-242 0 -427.5 105.5t-285.5 293t-100 427.5q0 191 64.5 351t175 265.5t256 164t307.5 58.5q163 0 306.5 -56t252.5 -166.5t160 -260.5l-203 -82q-68 168 -202.5 263t-311.5 95q-117 0 -221.5 -44t-182.5 -123t-123.5 -199t-45.5 -264q0 -285 168.5 -453
t437.5 -168q213 0 358.5 123.5t218.5 357.5l-24 27q-249 -59 -541 -62v185h713v-70q0 -189 -57.5 -337.5t-159.5 -241.5t-237.5 -141t-295.5 -48z" />
    <glyph glyph-name="H.ss01" horiz-adv-x="1658" 
d="M414 0h-219v1597h219q0 -456 -27 -706l27 -21q446 64 831 0l27 21q-27 258 -27 706h219v-1597h-219q0 443 27 711l-29 22q-392 -77 -827 0l-29 -22q27 -260 27 -711z" />
    <glyph glyph-name="I.ss01" horiz-adv-x="1148" 
d="M1065 0h-981v203q85 0 132 -1t124.5 -8.5t148.5 -21.5q-37 627 0 1253q-73 -14 -153.5 -21t-125 -8t-136.5 -1v202h1001v-202q-92 0 -137 1t-125.5 8t-153.5 21q37 -627 0 -1253q71 14 149 21.5t125 8.5t132 1v-203z" />
    <glyph glyph-name="Iacute.ss01" horiz-adv-x="1148" 
d="M975 2062l-332 -342h-190l247 342h275zM1065 0h-981v203q85 0 132 -1t124.5 -8.5t148.5 -21.5q-37 627 0 1253q-73 -14 -153.5 -21t-125 -8t-136.5 -1v202h1001v-202q-92 0 -137 1t-125.5 8t-153.5 21q37 -627 0 -1253q71 14 149 21.5t125 8.5t132 1v-203z" />
    <glyph glyph-name="Icircumflex.ss01" horiz-adv-x="1148" 
d="M379 1720h-193l279 330h223l279 -330h-193q-39 37 -62 61.5t-53.5 71.5t-50.5 103h-61q-20 -56 -50 -102.5t-54.5 -72t-63.5 -61.5zM1065 0h-981v203q85 0 132 -1t124.5 -8.5t148.5 -21.5q-37 627 0 1253q-73 -14 -153.5 -21t-125 -8t-136.5 -1v202h1001v-202
q-92 0 -137 1t-125.5 8t-153.5 21q37 -627 0 -1253q71 14 149 21.5t125 8.5t132 1v-203z" />
    <glyph glyph-name="Idieresis.ss01" horiz-adv-x="1148" 
d="M360 1759q-59 0 -99 41t-40 101q0 56 40.5 95.5t98.5 39.5t98 -39.5t40 -95.5q0 -60 -40 -101t-98 -41zM791 1759q-60 0 -100 41t-40 101q0 56 40.5 95.5t99.5 39.5q57 0 97 -39.5t40 -95.5q0 -60 -40 -101t-97 -41zM1065 0h-981v203q85 0 132 -1t124.5 -8.5t148.5 -21.5
q-37 627 0 1253q-73 -14 -153.5 -21t-125 -8t-136.5 -1v202h1001v-202q-92 0 -137 1t-125.5 8t-153.5 21q37 -627 0 -1253q71 14 149 21.5t125 8.5t132 1v-203z" />
    <glyph glyph-name="Idotaccent.ss01" horiz-adv-x="1148" 
d="M575 1772q-61 0 -102 41.5t-41 103.5q0 59 41 100t102 41t102.5 -41t41.5 -100q0 -62 -41.5 -103.5t-102.5 -41.5zM1065 0h-981v203q85 0 132 -1t124.5 -8.5t148.5 -21.5q-37 627 0 1253q-73 -14 -153.5 -21t-125 -8t-136.5 -1v202h1001v-202q-92 0 -137 1t-125.5 8
t-153.5 21q37 -627 0 -1253q71 14 149 21.5t125 8.5t132 1v-203z" />
    <glyph glyph-name="Igrave.ss01" horiz-adv-x="1148" 
d="M698 1720h-188l-332 340h275zM1065 0h-981v203q85 0 132 -1t124.5 -8.5t148.5 -21.5q-37 627 0 1253q-73 -14 -153.5 -21t-125 -8t-136.5 -1v202h1001v-202q-92 0 -137 1t-125.5 8t-153.5 21q37 -627 0 -1253q71 14 149 21.5t125 8.5t132 1v-203z" />
    <glyph glyph-name="Imacron.ss01" horiz-adv-x="1148" 
d="M930 1798h-709v162h709v-162zM1065 0h-981v203q85 0 132 -1t124.5 -8.5t148.5 -21.5q-37 627 0 1253q-73 -14 -153.5 -21t-125 -8t-136.5 -1v202h1001v-202q-92 0 -137 1t-125.5 8t-153.5 21q37 -627 0 -1253q71 14 149 21.5t125 8.5t132 1v-203z" />
    <glyph glyph-name="J.ss01" horiz-adv-x="1247" 
d="M584 -35q-85 0 -160.5 18.5t-143.5 60.5t-117 103.5t-77.5 154t-28.5 206.5v39l215 28v-34q0 -97 25 -171t68 -116.5t95 -63t111 -20.5q96 0 160 50.5t91.5 129.5t27.5 182q0 187 1 292.5t9 278t23 327.5l-17 28q-274 -63 -569 -63v202h772v-1022q0 -35 -0.5 -58
t-5 -73.5t-12.5 -88t-25 -90.5t-40 -91.5t-60.5 -80t-84.5 -68t-113 -43.5t-144 -17z" />
    <glyph glyph-name="K.ss01" horiz-adv-x="1417" 
d="M414 0h-219v1597h219v-108.5v-118.5t-1 -107.5t-3 -122.5t-5.5 -113t-9.5 -126h23q316 327 702 696h291q-337 -319 -858 -792v-29q114 -89 241 -198t206 -181t227 -208.5t205 -188.5h-306q-277 247 -391 361q-174 172 -313 346h-23q15 -310 15 -707z" />
    <glyph glyph-name="L.ss01" horiz-adv-x="1206" 
d="M1178 0h-983v1597h219q0 -308 -1 -477t-8.5 -434t-21.5 -491l29 -29q128 19 274.5 28.5t237.5 11t254 1.5v-207z" />
    <glyph glyph-name="M.ss01" horiz-adv-x="1970" 
d="M418 0h-223v1597h262q330 -594 508 -1044h41q180 456 507 1044h263v-1597h-224q0 73 -1.5 285t-1 322t7 288.5t20.5 333.5h-31l-479 -916h-164l-479 916h-31q14 -155 20.5 -333.5t7 -288.5t-1 -322t-1.5 -285z" />
    <glyph glyph-name="N.ss01" horiz-adv-x="1681" 
d="M414 0h-219v1597h264q167 -261 261.5 -412t244.5 -402t282 -490h49q-13 238 -20 494.5t-7.5 393t-0.5 416.5h219v-1597h-266q-15 23 -74 116t-78 122.5t-73.5 116.5t-79 126t-75 121t-81 132.5t-77 129t-83 141.5t-80 139.5t-84.5 151.5h-51q29 -510 29 -1296z" />
    <glyph glyph-name="O.ss01" horiz-adv-x="1798" 
d="M899 -35q-164 0 -312 62t-256.5 170.5t-172.5 264.5t-64 335q0 178 63.5 334t172 265t256.5 171.5t313 62.5q167 0 316 -64t256 -174t170 -265t63 -330q0 -176 -63 -331t-170.5 -264.5t-256.5 -173t-315 -63.5zM901 172q155 0 285.5 80.5t207 224.5t76.5 320
q0 132 -45 248.5t-121 199t-181 130.5t-222 48q-116 0 -221.5 -47t-183 -128.5t-123 -199t-45.5 -251.5t46 -251t123.5 -198.5t182.5 -128.5t221 -47z" />
    <glyph glyph-name="P.ss01" horiz-adv-x="1376" 
d="M414 0h-219v1597h585q69 0 139 -14t143.5 -49.5t129 -89t91.5 -140.5t36 -196q0 -110 -36.5 -199t-92 -143t-127 -91t-137 -51t-125.5 -14q-95 0 -147 2t-126.5 14.5t-142.5 37.5q29 -254 29 -664zM385 786l27 -20q57 21 122 31.5t104.5 12t109.5 1.5q69 0 128.5 16.5
t107.5 50t75.5 91.5t27.5 135q0 100 -51 167.5t-126.5 95.5t-168.5 28q-71 0 -110 1t-101.5 9.5t-117.5 24.5l-31 -19q47 -306 4 -625z" />
    <glyph glyph-name="Q.ss01" horiz-adv-x="1806" 
d="M553 -240v-28q180 29 375.5 44t314.5 17t330 2v-190h-1391q46 53 178 201.5t203 230.5q-212 93 -338.5 292.5t-126.5 467.5q0 183 62 339.5t169.5 264.5t256 168.5t317.5 60.5q171 0 320 -62t255.5 -171t168 -264.5t61.5 -335.5t-61.5 -335.5t-168.5 -263.5t-256 -169.5
t-319 -61.5q-70 0 -125 8q-107 -114 -225 -215zM328 797q0 -139 44.5 -256.5t122 -198t183.5 -125.5t227 -45q161 0 291 78t205.5 221.5t75.5 325.5q0 275 -162.5 451.5t-409.5 176.5q-121 0 -227.5 -46t-183.5 -127t-121.5 -199t-44.5 -256z" />
    <glyph glyph-name="R.ss01" horiz-adv-x="1423" 
d="M414 0h-219v1597h585q66 0 134.5 -14t142.5 -50t131 -89.5t94 -141.5t37 -198q0 -79 -19 -144.5t-51 -112t-82 -83t-104 -59.5t-124.5 -39.5t-136.5 -25t-147 -13.5q57 -47 122.5 -102t113 -96t127 -111t113.5 -100.5t127 -113t118 -104.5h-272q-127 111 -186.5 164
t-165 150t-190 181.5t-163.5 172.5h-14q29 -260 29 -668zM385 776l27 -20q128 37 336 37q68 0 128 18.5t108 54.5t75.5 95.5t27.5 136.5q0 75 -29 133.5t-78.5 94t-110 53.5t-128.5 18q-198 0 -329 33l-31 -19q47 -317 4 -635z" />
    <glyph glyph-name="S.ss01" horiz-adv-x="1331" 
d="M686 -35q-141 0 -261.5 47.5t-217 156t-137.5 267.5l204 72q47 -172 157.5 -256t252.5 -84q63 0 120 15.5t104.5 45.5t75.5 80.5t28 114.5q0 60 -21.5 103t-74 74t-85.5 44t-109 36q-10 3 -15 5l-148 45q-41 13 -74 25t-80.5 33.5t-83.5 45.5t-74.5 60t-63.5 76.5
t-41.5 95.5t-16.5 117q0 138 75.5 241.5t195.5 154t263 50.5q202 0 348 -104t193 -273l-201 -82q-41 120 -131 189.5t-219 69.5q-127 0 -210 -64t-83 -166q0 -49 23 -91.5t52 -68.5t79 -51.5t79 -36t77 -26.5l161 -52q145 -47 205 -78q209 -108 217 -325v-18
q0 -141 -73.5 -253t-201.5 -173.5t-288 -61.5z" />
    <glyph glyph-name="U.ss01" horiz-adv-x="1552" 
d="M721 -35q-120 0 -216.5 40.5t-156.5 105.5t-100 150.5t-56 170t-16 170.5v995h221v-979q0 -94 20.5 -172.5t63 -141.5t114 -98.5t165.5 -35.5t168 36t118.5 98.5t67.5 142t23 171.5v979h221v-1597h-211q0 103 27 260h-29q-57 -154 -158.5 -224.5t-265.5 -70.5z" />
    <glyph glyph-name="Uacute.ss01" horiz-adv-x="1552" 
d="M1137 2062l-334 -342h-189l246 342h277zM721 -35q-120 0 -216.5 40.5t-156.5 105.5t-100 150.5t-56 170t-16 170.5v995h221v-979q0 -94 20.5 -172.5t63 -141.5t114 -98.5t165.5 -35.5t168 36t118.5 98.5t67.5 142t23 171.5v979h221v-1597h-211q0 103 27 260h-29
q-57 -154 -158.5 -224.5t-265.5 -70.5z" />
    <glyph glyph-name="Ucircumflex.ss01" horiz-adv-x="1552" 
d="M561 1720h-192l278 330h223l279 -330h-193q-39 36 -62 61t-53 72t-50 103h-62q-20 -56 -50 -102.5t-54.5 -72t-63.5 -61.5zM721 -35q-120 0 -216.5 40.5t-156.5 105.5t-100 150.5t-56 170t-16 170.5v995h221v-979q0 -94 20.5 -172.5t63 -141.5t114 -98.5t165.5 -35.5
t168 36t118.5 98.5t67.5 142t23 171.5v979h221v-1597h-211q0 103 27 260h-29q-57 -154 -158.5 -224.5t-265.5 -70.5z" />
    <glyph glyph-name="Udieresis.ss01" horiz-adv-x="1552" 
d="M545 1759q-59 0 -99 41t-40 101q0 56 40.5 95.5t98.5 39.5t97.5 -39.5t39.5 -95.5q0 -60 -39.5 -101t-97.5 -41zM975 1759q-60 0 -99.5 41t-39.5 101q0 56 40 95.5t99 39.5q57 0 97 -39.5t40 -95.5q0 -60 -40 -101t-97 -41zM721 -35q-120 0 -216.5 40.5t-156.5 105.5
t-100 150.5t-56 170t-16 170.5v995h221v-979q0 -94 20.5 -172.5t63 -141.5t114 -98.5t165.5 -35.5t168 36t118.5 98.5t67.5 142t23 171.5v979h221v-1597h-211q0 103 27 260h-29q-57 -154 -158.5 -224.5t-265.5 -70.5z" />
    <glyph glyph-name="Ugrave.ss01" horiz-adv-x="1552" 
d="M881 1720h-189l-332 340h275zM721 -35q-120 0 -216.5 40.5t-156.5 105.5t-100 150.5t-56 170t-16 170.5v995h221v-979q0 -94 20.5 -172.5t63 -141.5t114 -98.5t165.5 -35.5t168 36t118.5 98.5t67.5 142t23 171.5v979h221v-1597h-211q0 103 27 260h-29
q-57 -154 -158.5 -224.5t-265.5 -70.5z" />
    <glyph glyph-name="Uhungarumlaut.ss01" horiz-adv-x="1552" 
d="M920 2060l-293 -340h-183l215 340h261zM1311 2060l-303 -340h-183l226 340h260zM721 -35q-120 0 -216.5 40.5t-156.5 105.5t-100 150.5t-56 170t-16 170.5v995h221v-979q0 -94 20.5 -172.5t63 -141.5t114 -98.5t165.5 -35.5t168 36t118.5 98.5t67.5 142t23 171.5v979h221
v-1597h-211q0 103 27 260h-29q-57 -154 -158.5 -224.5t-265.5 -70.5z" />
    <glyph glyph-name="Umacron.ss01" horiz-adv-x="1552" 
d="M1112 1798h-709v162h709v-162zM721 -35q-120 0 -216.5 40.5t-156.5 105.5t-100 150.5t-56 170t-16 170.5v995h221v-979q0 -94 20.5 -172.5t63 -141.5t114 -98.5t165.5 -35.5t168 36t118.5 98.5t67.5 142t23 171.5v979h221v-1597h-211q0 103 27 260h-29
q-57 -154 -158.5 -224.5t-265.5 -70.5z" />
    <glyph glyph-name="Uogonek.ss01" horiz-adv-x="1552" 
d="M1323 -326q43 0 88 13v-133q-55 -17 -117 -17q-122 0 -205 61.5t-83 172.5q0 140 168 229h-27q0 103 27 260h-29q-57 -154 -158.5 -224.5t-265.5 -70.5q-120 0 -216.5 40.5t-156.5 105.5t-100 150.5t-56 170t-16 170.5v995h221v-979q0 -94 20.5 -172.5t63 -141.5
t114 -98.5t165.5 -35.5t168 36t118.5 98.5t67.5 142t23 171.5v979h221v-1597h-29q-89 -29 -130.5 -79t-41.5 -105q0 -60 44.5 -101t121.5 -41z" />
    <glyph glyph-name="Uring.ss01" horiz-adv-x="1552" 
d="M758 1712q-103 0 -173.5 67.5t-70.5 166.5t70.5 166t173.5 67q102 0 171.5 -66.5t69.5 -166.5q0 -101 -69.5 -167.5t-171.5 -66.5zM758 1825q52 0 86.5 34t34.5 87q0 52 -34.5 85t-86.5 33q-54 0 -88.5 -33t-34.5 -85q0 -54 34.5 -87.5t88.5 -33.5zM721 -35
q-120 0 -216.5 40.5t-156.5 105.5t-100 150.5t-56 170t-16 170.5v995h221v-979q0 -94 20.5 -172.5t63 -141.5t114 -98.5t165.5 -35.5t168 36t118.5 98.5t67.5 142t23 171.5v979h221v-1597h-211q0 103 27 260h-29q-57 -154 -158.5 -224.5t-265.5 -70.5z" />
    <glyph glyph-name="V.ss01" horiz-adv-x="1552" 
d="M930 0h-316l-596 1597h234q316 -854 489 -1347h72q211 600 487 1347h234z" />
    <glyph glyph-name="W.ss01" horiz-adv-x="2347" 
d="M791 0h-277l-487 1597h247l361 -1294h22l342 1294h361l334 -1294h24l357 1294h245l-487 -1597h-272l-338 1372h-86z" />
    <glyph glyph-name="Wacute.ss01" horiz-adv-x="2347" 
d="M1593 2060l-333 -340h-189l246 340h276zM791 0h-277l-487 1597h247l361 -1294h22l342 1294h361l334 -1294h24l357 1294h245l-487 -1597h-272l-338 1372h-86z" />
    <glyph glyph-name="Wcircumflex.ss01" horiz-adv-x="2347" 
d="M977 1720h-193l279 330h223l279 -330h-193q-39 37 -62 61.5t-53.5 71.5t-50.5 103h-61q-20 -56 -50 -102.5t-54.5 -72t-63.5 -61.5zM791 0h-277l-487 1597h247l361 -1294h22l342 1294h361l334 -1294h24l357 1294h245l-487 -1597h-272l-338 1372h-86z" />
    <glyph glyph-name="Wdieresis.ss01" horiz-adv-x="2347" 
d="M961 1759q-59 0 -99.5 41t-40.5 101q0 56 41 95.5t99 39.5t97.5 -39.5t39.5 -95.5q0 -60 -39.5 -101t-97.5 -41zM1391 1759q-60 0 -100 41t-40 101q0 56 40.5 95.5t99.5 39.5q57 0 97 -39.5t40 -95.5q0 -60 -40 -101t-97 -41zM791 0h-277l-487 1597h247l361 -1294h22
l342 1294h361l334 -1294h24l357 1294h245l-487 -1597h-272l-338 1372h-86z" />
    <glyph glyph-name="Wgrave.ss01" horiz-adv-x="2347" 
d="M1296 1720h-188l-332 340h275zM791 0h-277l-487 1597h247l361 -1294h22l342 1294h361l334 -1294h24l357 1294h245l-487 -1597h-272l-338 1372h-86z" />
    <glyph glyph-name="X.ss01" horiz-adv-x="1441" 
d="M262 0h-248l535 807l-2 22l-524 768h247q203 -306 420 -673h66q200 332 422 673h241l-522 -768l-2 -22l532 -807h-241q-215 332 -430 700h-66q-204 -349 -428 -700z" />
    <glyph glyph-name="Y.ss01" horiz-adv-x="1433" 
d="M524 0h-233q221 382 368 582q-243 365 -618 1015h240q5 -8 55.5 -96.5t60.5 -106t54 -95.5t60 -108.5t53 -99.5t58.5 -114t51 -106t55.5 -119h33q62 147 144 309t137.5 260t158.5 276h238z" />
    <glyph glyph-name="Yacute.ss01" horiz-adv-x="1433" 
d="M1149 2062l-334 -342h-188l245 342h277zM524 0h-233q221 382 368 582q-243 365 -618 1015h240q5 -8 55.5 -96.5t60.5 -106t54 -95.5t60 -108.5t53 -99.5t58.5 -114t51 -106t55.5 -119h33q62 147 144 309t137.5 260t158.5 276h238z" />
    <glyph glyph-name="Ycircumflex.ss01" horiz-adv-x="1433" 
d="M543 1720h-193l279 330h223l278 -330h-192q-39 37 -62 61.5t-53.5 71.5t-50.5 103h-61q-20 -56 -50 -102.5t-54.5 -72t-63.5 -61.5zM524 0h-233q221 382 368 582q-243 365 -618 1015h240q5 -8 55.5 -96.5t60.5 -106t54 -95.5t60 -108.5t53 -99.5t58.5 -114t51 -106
t55.5 -119h33q62 147 144 309t137.5 260t158.5 276h238z" />
    <glyph glyph-name="Ydieresis.ss01" horiz-adv-x="1433" 
d="M524 1759q-59 0 -99 41t-40 101q0 56 40.5 95.5t98.5 39.5t98 -39.5t40 -95.5q0 -60 -40 -101t-98 -41zM954 1759q-60 0 -99.5 41t-39.5 101q0 56 40 95.5t99 39.5q57 0 97.5 -39.5t40.5 -95.5q0 -60 -40.5 -101t-97.5 -41zM524 0h-233q221 382 368 582
q-243 365 -618 1015h240q5 -8 55.5 -96.5t60.5 -106t54 -95.5t60 -108.5t53 -99.5t58.5 -114t51 -106t55.5 -119h33q62 147 144 309t137.5 260t158.5 276h238z" />
    <glyph glyph-name="Ygrave.ss01" horiz-adv-x="1433" 
d="M862 1720h-188l-332 340h274zM524 0h-233q221 382 368 582q-243 365 -618 1015h240q5 -8 55.5 -96.5t60.5 -106t54 -95.5t60 -108.5t53 -99.5t58.5 -114t51 -106t55.5 -119h33q62 147 144 309t137.5 260t158.5 276h238z" />
    <glyph glyph-name="Z.ss01" horiz-adv-x="1411" 
d="M1327 0h-1333q745 1031 1028 1407l-14 33q-148 -21 -316.5 -31.5t-273 -12t-293.5 -1.5v202h1268q-25 -35 -185.5 -259t-217.5 -302.5t-184 -253t-229 -311t-208 -276.5l16 -35q153 22 333 33t293 12.5t316 1.5v-207z" />
    <glyph glyph-name="Zacute.ss01" horiz-adv-x="1411" 
d="M1120 2060l-334 -340h-188l246 340h276zM1327 0h-1333q745 1031 1028 1407l-14 33q-148 -21 -316.5 -31.5t-273 -12t-293.5 -1.5v202h1268q-25 -35 -185.5 -259t-217.5 -302.5t-184 -253t-229 -311t-208 -276.5l16 -35q153 22 333 33t293 12.5t316 1.5v-207z" />
    <glyph glyph-name="Zcaron.ss01" horiz-adv-x="1411" 
d="M813 1720h-227l-277 330h193q42 -40 63 -63t52.5 -70t52.5 -102h59q20 54 52.5 103t50.5 68t63 64h195zM1327 0h-1333q745 1031 1028 1407l-14 33q-148 -21 -316.5 -31.5t-273 -12t-293.5 -1.5v202h1268q-25 -35 -185.5 -259t-217.5 -302.5t-184 -253t-229 -311
t-208 -276.5l16 -35q153 22 333 33t293 12.5t316 1.5v-207z" />
    <glyph glyph-name="Zdotaccent.ss01" horiz-adv-x="1411" 
d="M711 1772q-61 0 -102.5 41.5t-41.5 103.5q0 59 41.5 100t102.5 41t102 -41t41 -100q0 -62 -41 -103.5t-102 -41.5zM1327 0h-1333q745 1031 1028 1407l-14 33q-148 -21 -316.5 -31.5t-273 -12t-293.5 -1.5v202h1268q-25 -35 -185.5 -259t-217.5 -302.5t-184 -253
t-229 -311t-208 -276.5l16 -35q153 22 333 33t293 12.5t316 1.5v-207z" />
    <glyph glyph-name="Q.ss02" horiz-adv-x="1798" 
d="M981 -29q17 -70 10 -215q92 18 195.5 27t167.5 10.5t180 1.5v-190q-173 0 -252.5 0.5t-215 6t-237.5 17.5q-15 213 2 340q-156 15 -292 83t-234 175t-154.5 254.5t-56.5 315.5q0 178 63.5 334t172 265t256.5 171.5t313 62.5q167 0 316 -64t256 -174t170 -265t63 -330
q0 -217 -92 -396.5t-256.5 -291.5t-374.5 -138zM328 797q0 -240 138 -409t372 -216q-14 76 -21.5 160t-8.5 136t-1 146h207q0 -96 -1 -149t-9.5 -137.5t-24.5 -157.5q219 50 355 221t136 406q0 132 -45 248.5t-121 199t-181 130.5t-222 48q-116 0 -221.5 -47t-183 -128.5
t-123 -199t-45.5 -251.5z" />
    <glyph glyph-name="A.ss07" 
d="M1020 -315q-197 0 -371.5 71t-298.5 193.5t-196 293.5t-72 365q0 198 72 372.5t196 298.5t298 195.5t372 71.5q200 0 375.5 -71.5t301 -195.5t197.5 -298.5t72 -372.5q0 -259 -123 -470.5t-339.5 -332t-483.5 -120.5zM944 1096l-377 -963h152q77 185 102 299l10 10
q110 -14 197 -14q88 0 191 14l8 -8q22 -108 100 -301h158l-379 963h-162zM872 545l-2 4q100 218 144 414h22q38 -192 140 -414l-2 -4q-94 12 -146 12q-46 0 -156 -12z" />
    <glyph glyph-name="B.ss07" 
d="M1020 -315q-197 0 -371.5 71t-298.5 193.5t-196 293.5t-72 365q0 198 72 372.5t196 298.5t298 195.5t372 71.5q200 0 375.5 -71.5t301 -195.5t197.5 -298.5t72 -372.5q0 -259 -123 -470.5t-339.5 -332t-483.5 -120.5zM705 1096v-963h395q78 0 147.5 27t118.5 89t49 148
q0 185 -211 224v8q85 22 131.5 77.5t46.5 135.5q0 114 -84 184t-219 70h-374zM844 662l-8 8q21 166 -5 305l11 6q22 -7 43 -11.5t45.5 -6.5t35 -2.5t40.5 0t34 0.5q86 0 137.5 -38.5t51.5 -101.5q0 -68 -52 -102.5t-133 -34.5q-127 0 -200 -22zM844 250l-13 10q25 139 5 307
l8 8q78 -22 221 -22q89 0 142 -38.5t53 -104.5t-51 -104t-140 -38q-143 0 -225 -18z" />
    <glyph glyph-name="C.ss07" 
d="M1020 -315q-197 0 -371.5 71t-298.5 193.5t-196 293.5t-72 365q0 198 72 372.5t196 298.5t298 195.5t372 71.5q200 0 375.5 -71.5t301 -195.5t197.5 -298.5t72 -372.5q0 -259 -123 -470.5t-339.5 -332t-483.5 -120.5zM1047 113q170 0 290.5 92t171.5 262l-135 45
q-33 -116 -115 -188t-206 -72q-65 0 -125 21t-110 63t-79.5 112.5t-29.5 161.5q0 163 92.5 265t238.5 102q106 0 184.5 -58.5t114.5 -156.5l136 55q-46 142 -166.5 220.5t-268.5 78.5q-133 0 -242.5 -60.5t-176 -176.5t-66.5 -265q0 -222 137.5 -361.5t354.5 -139.5z" />
    <glyph glyph-name="D.ss07" 
d="M1020 -315q-197 0 -371.5 71t-298.5 193.5t-196 293.5t-72 365q0 198 72 372.5t196 298.5t298 195.5t372 71.5q200 0 375.5 -71.5t301 -195.5t197.5 -298.5t72 -372.5q0 -259 -123 -470.5t-339.5 -332t-483.5 -120.5zM668 1096v-963h368q203 0 325 133t122 355
q0 224 -121.5 349.5t-337.5 125.5h-356zM807 250l-10 10q40 355 0 715l10 6q68 -20 186 -20q69 0 126.5 -18t105.5 -57t75 -109t27 -165q0 -163 -78.5 -253.5t-220.5 -90.5q-141 0 -221 -18z" />
    <glyph glyph-name="E.ss07" 
d="M1020 -315q-197 0 -371.5 71t-298.5 193.5t-196 293.5t-72 365q0 198 72 372.5t196 298.5t298 195.5t372 71.5q200 0 375.5 -71.5t301 -195.5t197.5 -298.5t72 -372.5q0 -259 -123 -470.5t-339.5 -332t-483.5 -120.5zM721 1096v-963h635v139q-321 0 -494 -24l-12 12
q25 143 4 315l8 9q77 -14 168 -21t135.5 -7.5t155.5 -0.5v141q-104 0 -154 -0.5t-139 -7.5t-166 -20l-8 8q21 163 -4 299l10 6q43 -6 89 -10t80.5 -6t84 -3t75.5 -1h81.5h75.5v135h-625z" />
    <glyph glyph-name="F.ss07" 
d="M1020 -315q-197 0 -371.5 71t-298.5 193.5t-196 293.5t-72 365q0 198 72 372.5t196 298.5t298 195.5t372 71.5q200 0 375.5 -71.5t301 -195.5t197.5 -298.5t72 -372.5q0 -259 -123 -470.5t-339.5 -332t-483.5 -120.5zM743 1096v-963h148q0 266 -21 426l11 8
q27 -5 53.5 -8.5t55 -6.5t50 -5t52 -3t47.5 -1.5t50.5 -1t46 -0.5h49.5h46v139q-238 0 -354 -13q-49 -6 -98 -14l-9 9q29 162 0 313l13 6q172 -25 473 -25v140h-613z" />
    <glyph glyph-name="G.ss07" 
d="M1020 -315q-197 0 -371.5 71t-298.5 193.5t-196 293.5t-72 365q0 198 72 372.5t196 298.5t298 195.5t372 71.5q200 0 375.5 -71.5t301 -195.5t197.5 -298.5t72 -372.5q0 -259 -123 -470.5t-339.5 -332t-483.5 -120.5zM1030 113q126 0 212 57.5t138 179.5l17 -2
q-17 -77 -19 -133t2 -82h117v494h-438v-127q191 0 325 35l9 -7q-42 -131 -130 -203.5t-210 -72.5q-50 0 -98 12.5t-93 40t-78.5 68.5t-54 102t-20.5 135q0 161 92.5 264t238.5 103q103 0 181 -56t118 -159l136 55q-44 142 -165.5 220.5t-269.5 78.5q-205 0 -345 -140.5
t-140 -363.5q0 -220 133 -359.5t342 -139.5z" />
    <glyph glyph-name="H.ss07" 
d="M1020 -315q-197 0 -371.5 71t-298.5 193.5t-196 293.5t-72 365q0 198 72 372.5t196 298.5t298 195.5t372 71.5q200 0 375.5 -71.5t301 -195.5t197.5 -298.5t72 -372.5q0 -259 -123 -470.5t-339.5 -332t-483.5 -120.5zM639 1096v-963h147q0 270 -16 428l10 6
q256 -45 488 0l8 -6q-14 -162 -14 -428h147v963h-147q0 -268 14 -422l-8 -8q-232 36 -490 0l-8 8q16 150 16 422h-147z" />
    <glyph glyph-name="I.ss07" 
d="M1020 -315q-197 0 -371.5 71t-298.5 193.5t-196 293.5t-72 365q0 198 72 372.5t196 298.5t298 195.5t372 71.5q200 0 375.5 -71.5t301 -195.5t197.5 -298.5t72 -372.5q0 -259 -123 -470.5t-339.5 -332t-483.5 -120.5zM952 1096v-963h148v963h-148z" />
    <glyph glyph-name="J.ss07" 
d="M1020 -315q-197 0 -371.5 71t-298.5 193.5t-196 293.5t-72 365q0 198 72 372.5t196 298.5t298 195.5t372 71.5q200 0 375.5 -71.5t301 -195.5t197.5 -298.5t72 -372.5q0 -259 -123 -470.5t-339.5 -332t-483.5 -120.5zM993 123q61 0 109 17t78.5 41t52.5 63.5t32 71
t16 77.5t6.5 68.5t0.5 58.5v586h-147v-612q0 -36 -2.5 -64t-11.5 -61.5t-25 -56t-45 -37.5t-68 -15q-77 0 -127.5 50.5t-50.5 156.5v35l-143 -19v-37q0 -159 92.5 -241t232.5 -82z" />
    <glyph glyph-name="K.ss07" 
d="M1020 -315q-197 0 -371.5 71t-298.5 193.5t-196 293.5t-72 365q0 198 72 372.5t196 298.5t298 195.5t372 71.5q200 0 375.5 -71.5t301 -195.5t197.5 -298.5t72 -372.5q0 -259 -123 -470.5t-339.5 -332t-483.5 -120.5zM692 1096v-963h148q0 195 -9 322q54 39 117 118h4
q30 -45 61 -90t68 -95t61 -82t68 -91t62 -82h180q-270 362 -422 529v10q159 156 404 424h-179q-233 -251 -436 -488h-8q8 45 14 93t9 81.5t4.5 86t2 74t0 80.5t-0.5 73h-148z" />
    <glyph glyph-name="L.ss07" 
d="M1020 -315q-197 0 -371.5 71t-298.5 193.5t-196 293.5t-72 365q0 198 72 372.5t196 298.5t298 195.5t372 71.5q200 0 375.5 -71.5t301 -195.5t197.5 -298.5t72 -372.5q0 -259 -123 -470.5t-339.5 -332t-483.5 -120.5zM803 1096v-963h600v139q-302 0 -461 -24l-12 12
q18 289 18 836h-145z" />
    <glyph glyph-name="M.ss07" 
d="M1020 -315q-197 0 -371.5 71t-298.5 193.5t-196 293.5t-72 365q0 198 72 372.5t196 298.5t298 195.5t372 71.5q200 0 375.5 -71.5t301 -195.5t197.5 -298.5t72 -372.5q0 -259 -123 -470.5t-339.5 -332t-483.5 -120.5zM516 1096v-963h148v111v124t-1.5 111t-5 131
t-9.5 121.5t-15 140.5h8q40 -98 88 -207.5t79.5 -179t86 -187.5t76.5 -165h104q24 53 76.5 166t85.5 185.5t81 181t89 206.5h6q-9 -70 -15 -143.5t-9.5 -123t-5 -131.5t-1.5 -111v-121.5v-108.5h150v963h-158q-201 -393 -346 -779h-10q-133 370 -346 779h-156z" />
    <glyph glyph-name="N.ss07" 
d="M1020 -315q-197 0 -371.5 71t-298.5 193.5t-196 293.5t-72 365q0 198 72 372.5t196 298.5t298 195.5t372 71.5q200 0 375.5 -71.5t301 -195.5t197.5 -298.5t72 -372.5q0 -259 -123 -470.5t-339.5 -332t-483.5 -120.5zM645 1096v-963h148v68v72v68t-0.5 73.5t-1.5 69.5
t-2 77t-2.5 73.5t-3.5 81t-5 78.5t-6 85h6q113 -190 231 -357.5t285 -388.5h133v963h-147q0 -471 23 -760h-7q-217 367 -518 760h-133z" />
    <glyph glyph-name="O.ss07" 
d="M1020 -315q-197 0 -371.5 71t-298.5 193.5t-196 293.5t-72 365q0 198 72 372.5t196 298.5t298 195.5t372 71.5q200 0 375.5 -71.5t301 -195.5t197.5 -298.5t72 -372.5q0 -259 -123 -470.5t-339.5 -332t-483.5 -120.5zM1024 113q207 0 347 144.5t140 356.5t-140 357
t-345 145q-135 0 -246.5 -65.5t-175 -181t-63.5 -255.5t63 -255t174 -180.5t246 -65.5zM694 614q0 153 96 258t236 105t235 -104.5t95 -258.5t-95 -258t-235 -104t-236 103.5t-96 258.5z" />
    <glyph glyph-name="P.ss07" 
d="M1020 -315q-197 0 -371.5 71t-298.5 193.5t-196 293.5t-72 365q0 198 72 372.5t196 298.5t298 195.5t372 71.5q200 0 375.5 -71.5t301 -195.5t197.5 -298.5t72 -372.5q0 -259 -123 -470.5t-339.5 -332t-483.5 -120.5zM729 1096v-963h145q0 242 -14 389q39 -13 82.5 -19
t69.5 -6.5t86 -0.5q36 0 75.5 8.5t82.5 30.5t77 55t56 87.5t22 121.5q0 68 -22.5 122t-57 86t-80 53t-86 28.5t-80.5 7.5h-356zM866 604l-8 6q24 186 -2 365l10 6q70 -20 195 -20q84 0 140 -41t56 -123q0 -86 -54.5 -126t-137.5 -40q-125 0 -199 -27z" />
    <glyph glyph-name="Q.ss07" 
d="M1020 -315q-197 0 -371.5 71t-298.5 193.5t-196 293.5t-72 365q0 198 72 372.5t196 298.5t298 195.5t372 71.5q200 0 375.5 -71.5t301 -195.5t197.5 -298.5t72 -372.5q0 -259 -123 -470.5t-339.5 -332t-483.5 -120.5zM1386 53l105 88q-3 3 -16 19t-17.5 21t-17 19.5
t-19.5 21.5t-19 19.5t-21 21t-21 19t-23 19.5q174 136 174 371q0 214 -141 358t-350 144q-211 0 -351.5 -143.5t-140.5 -358.5t140.5 -358.5t351.5 -143.5q125 0 231 70q40 -80 135 -187zM680 672q0 157 97 259.5t245 102.5q145 0 240.5 -102.5t95.5 -259.5q0 -174 -96 -289
q-56 96 -177 244l-106 -88q37 -47 60 -75t60 -65.5t72 -64.5q-74 -35 -149 -35q-146 0 -244 107t-98 266z" />
    <glyph glyph-name="R.ss07" 
d="M1020 -315q-197 0 -371.5 71t-298.5 193.5t-196 293.5t-72 365q0 198 72 372.5t196 298.5t298 195.5t372 71.5q200 0 375.5 -71.5t301 -195.5t197.5 -298.5t72 -372.5q0 -259 -123 -470.5t-339.5 -332t-483.5 -120.5zM729 1096v-963h148q0 241 -17 391q75 -20 168 -24
l240 -367h168q-4 6 -28 41.5t-30.5 45t-28 41t-31.5 44.5t-30 41t-33.5 45.5t-32 41.5t-36.5 45t-37 42v6q116 11 190 80t74 189q0 69 -23.5 124t-58.5 87t-81 53.5t-86.5 29t-78.5 7.5h-356zM866 598l-6 6q22 179 -2 371l10 6q80 -20 193 -20q84 0 141.5 -42.5t57.5 -125.5
q0 -87 -56.5 -131t-138.5 -44q-127 0 -199 -20z" />
    <glyph glyph-name="S.ss07" 
d="M1020 -315q-197 0 -371.5 71t-298.5 193.5t-196 293.5t-72 365q0 198 72 372.5t196 298.5t298 195.5t372 71.5q200 0 375.5 -71.5t301 -195.5t197.5 -298.5t72 -372.5q0 -259 -123 -470.5t-339.5 -332t-483.5 -120.5zM1040 113q150 0 247 83.5t97 213.5q0 61 -21.5 106.5
t-66 75.5t-72.5 42.5t-82 30.5l-4.5 1.5l-4.5 1.5t-5 2l-96 30q-26 8 -45 14.5t-44.5 20t-42 28.5t-28.5 38.5t-12 50.5q0 56 45 91.5t115 35.5q73 0 126.5 -41t76.5 -115l133 56q-24 103 -112.5 170t-217.5 67q-136 0 -232 -74.5t-96 -199.5q0 -38 10.5 -72t26 -58.5
t39.5 -47t46 -36.5t51.5 -28t48.5 -21.5t45 -15.5l86 -24q91 -29 120 -49q51 -36 52 -97q0 -69 -54.5 -106t-128.5 -37q-89 0 -150.5 53t-86.5 150l-135 -47q24 -99 82.5 -167t131.5 -97t158 -29z" />
    <glyph glyph-name="T.ss07" 
d="M1020 -315q-197 0 -371.5 71t-298.5 193.5t-196 293.5t-72 365q0 198 72 372.5t196 298.5t298 195.5t372 71.5q200 0 375.5 -71.5t301 -195.5t197.5 -298.5t72 -372.5q0 -259 -123 -470.5t-339.5 -332t-483.5 -120.5zM950 133h146q0 527 -13 844q115 -16 318 -16v135
h-758v-135q205 0 320 16q-13 -272 -13 -844z" />
    <glyph glyph-name="U.ss07" 
d="M1020 -315q-197 0 -371.5 71t-298.5 193.5t-196 293.5t-72 365q0 198 72 372.5t196 298.5t298 195.5t372 71.5q200 0 375.5 -71.5t301 -195.5t197.5 -298.5t72 -372.5q0 -259 -123 -470.5t-339.5 -332t-483.5 -120.5zM1020 123q101 0 174 32.5t112 89.5t56.5 122
t17.5 143v596h-145v-588q0 -258 -211 -258q-213 0 -213 258v588h-147v-596q0 -61 10 -114.5t35 -105t64 -87.5t102.5 -58t144.5 -22z" />
    <glyph glyph-name="V.ss07" 
d="M1020 -315q-197 0 -371.5 71t-298.5 193.5t-196 293.5t-72 365q0 198 72 372.5t196 298.5t298 195.5t372 71.5q200 0 375.5 -71.5t301 -195.5t197.5 -298.5t72 -372.5q0 -259 -123 -470.5t-339.5 -332t-483.5 -120.5zM575 1096l379 -963h162l377 963h-154
q-184 -456 -292 -822h-19q-97 341 -297 822h-156z" />
    <glyph glyph-name="W.ss07" 
d="M1020 -315q-197 0 -371.5 71t-298.5 193.5t-196 293.5t-72 365q0 198 72 372.5t196 298.5t298 195.5t372 71.5q200 0 375.5 -71.5t301 -195.5t197.5 -298.5t72 -372.5q0 -259 -123 -470.5t-339.5 -332t-483.5 -120.5zM334 1096l295 -963h172q136 413 217 785h12
q76 -346 219 -785h172l295 963h-164q-136 -443 -213 -807h-8q-77 328 -227 807h-160q-154 -504 -225 -801h-8q-69 322 -215 801h-162z" />
    <glyph glyph-name="X.ss07" 
d="M1020 -315q-197 0 -371.5 71t-298.5 193.5t-196 293.5t-72 365q0 198 72 372.5t196 298.5t298 195.5t372 71.5q200 0 375.5 -71.5t301 -195.5t197.5 -298.5t72 -372.5q0 -259 -123 -470.5t-339.5 -332t-483.5 -120.5zM618 133h175q144 220 233 389h8q86 -165 230 -389
h176q-31 46 -102 151.5t-125 183t-107 148.5v13q95 123 332 467h-172q-137 -194 -232 -375h-8q-107 197 -229 375h-174q25 -37 78.5 -115.5t85 -123.5t78 -110t87.5 -118v-13q-85 -112 -334 -483z" />
    <glyph glyph-name="Y.ss07" 
d="M1020 -315q-197 0 -371.5 71t-298.5 193.5t-196 293.5t-72 365q0 198 72 372.5t196 298.5t298 195.5t372 71.5q200 0 375.5 -71.5t301 -195.5t197.5 -298.5t72 -372.5q0 -259 -123 -470.5t-339.5 -332t-483.5 -120.5zM950 133h146q0 241 -9 344q82 134 359 619h-160
q-167 -297 -260 -510h-6q-83 196 -260 510h-158q201 -362 356 -621q-8 -113 -8 -342z" />
    <glyph glyph-name="Z.ss07" 
d="M1020 -315q-197 0 -371.5 71t-298.5 193.5t-196 293.5t-72 365q0 198 72 372.5t196 298.5t298 195.5t372 71.5q200 0 375.5 -71.5t301 -195.5t197.5 -298.5t72 -372.5q0 -259 -123 -470.5t-339.5 -332t-483.5 -120.5zM657 252v-119h746v139q-336 0 -600 -39l-4 7
q376 445 594 739v117h-715v-135q319 0 565 40l2 -8q-337 -399 -588 -741z" />
    <glyph glyph-name="A.ss08" 
d="M1020 -315q-197 0 -371.5 71t-298.5 193.5t-196 293.5t-72 365q0 198 72 372.5t196 298.5t298 195.5t372 71.5q200 0 375.5 -71.5t301 -195.5t197.5 -298.5t72 -372.5q0 -259 -123 -470.5t-339.5 -332t-483.5 -120.5zM1020 -197q232 0 420.5 105t295.5 290t107 412
q0 229 -107 416t-295.5 293t-420.5 106q-172 0 -323.5 -62.5t-260 -170.5t-171 -259t-62.5 -323q0 -226 106.5 -411t294 -290.5t416.5 -105.5zM821 291h-102l254 647h104l256 -647h-106q-56 142 -70 205l-4 4q-78 -8 -125 -8q-49 0 -131 8l-4 -4q-22 -89 -72 -205zM924 569
q68 11 104 11q39 0 96 -11q-68 148 -94 279h-10q-30 -135 -96 -279z" />
    <glyph glyph-name="B.ss08" 
d="M1020 -315q-197 0 -371.5 71t-298.5 193.5t-196 293.5t-72 365q0 198 72 372.5t196 298.5t298 195.5t372 71.5q200 0 375.5 -71.5t301 -195.5t197.5 -298.5t72 -372.5q0 -259 -123 -470.5t-339.5 -332t-483.5 -120.5zM1020 -197q232 0 420.5 105t295.5 290t107 412
q0 229 -107 416t-295.5 293t-420.5 106q-172 0 -323.5 -62.5t-260 -170.5t-171 -259t-62.5 -323q0 -226 106.5 -411t294 -290.5t416.5 -105.5zM1063 291h-266v647h250q91 0 147.5 -47.5t56.5 -124.5q0 -54 -30.5 -92t-85.5 -51v-2q139 -28 139 -150q0 -86 -63 -133t-148 -47
zM887 649l2 -2q55 15 137 15q57 0 90 24.5t33 65.5q0 43 -34 68.5t-91 25.5q-91 0 -135 12l-4 -2q14 -93 2 -207zM885 375l4 -4q57 14 153 14q54 0 90.5 23t36.5 67t-35.5 71t-93.5 27q-89 0 -151 13l-2 -2q12 -115 -2 -209z" />
    <glyph glyph-name="C.ss08" 
d="M1020 -315q-197 0 -371.5 71t-298.5 193.5t-196 293.5t-72 365q0 198 72 372.5t196 298.5t298 195.5t372 71.5q200 0 375.5 -71.5t301 -195.5t197.5 -298.5t72 -372.5q0 -259 -123 -470.5t-339.5 -332t-483.5 -120.5zM1020 -197q232 0 420.5 105t295.5 290t107 412
q0 229 -107 416t-295.5 293t-420.5 106q-172 0 -323.5 -62.5t-260 -170.5t-171 -259t-62.5 -323q0 -226 106.5 -411t294 -290.5t416.5 -105.5zM1038 279q-145 0 -237 93t-92 242q0 150 94.5 243t230.5 93q105 0 184 -54.5t107 -147.5l-88 -35q-26 68 -79.5 105.5
t-123.5 37.5q-98 0 -159.5 -68.5t-61.5 -177.5q0 -116 67.5 -176.5t161.5 -60.5q80 0 136.5 46t78.5 132l93 -33q-32 -115 -114 -177t-198 -62z" />
    <glyph glyph-name="D.ss08" 
d="M1020 -315q-197 0 -371.5 71t-298.5 193.5t-196 293.5t-72 365q0 198 72 372.5t196 298.5t298 195.5t372 71.5q200 0 375.5 -71.5t301 -195.5t197.5 -298.5t72 -372.5q0 -259 -123 -470.5t-339.5 -332t-483.5 -120.5zM1020 -197q232 0 420.5 105t295.5 290t107 412
q0 229 -107 416t-295.5 293t-420.5 106q-172 0 -323.5 -62.5t-260 -170.5t-171 -259t-62.5 -323q0 -226 106.5 -411t294 -290.5t416.5 -105.5zM1030 291h-246v647h240q144 0 224.5 -85t80.5 -235q0 -149 -81.5 -238t-217.5 -89zM872 375l5 -4q55 14 151 14t148.5 59.5
t52.5 169.5q0 122 -63 177t-162 55q-83 0 -130 12l-2 -2q24 -241 0 -481z" />
    <glyph glyph-name="E.ss08" 
d="M1020 -315q-197 0 -371.5 71t-298.5 193.5t-196 293.5t-72 365q0 198 72 372.5t196 298.5t298 195.5t372 71.5q200 0 375.5 -71.5t301 -195.5t197.5 -298.5t72 -372.5q0 -259 -123 -470.5t-339.5 -332t-483.5 -120.5zM1020 -197q232 0 420.5 105t295.5 290t107 412
q0 229 -107 416t-295.5 293t-420.5 106q-172 0 -323.5 -62.5t-260 -170.5t-171 -259t-62.5 -323q0 -226 106.5 -411t294 -290.5t416.5 -105.5zM1247 291h-426v647h420v-92q-226 0 -328 12l-4 -2q14 -93 2 -201l4 -2q120 17 310 17v-95q-205 0 -310 17l-4 -2q12 -117 -2 -215
l4 -4q121 14 334 14v-94z" />
    <glyph glyph-name="F.ss08" 
d="M1020 -315q-197 0 -371.5 71t-298.5 193.5t-196 293.5t-72 365q0 198 72 372.5t196 298.5t298 195.5t372 71.5q200 0 375.5 -71.5t301 -195.5t197.5 -298.5t72 -372.5q0 -259 -123 -470.5t-339.5 -332t-483.5 -120.5zM1020 -197q232 0 420.5 105t295.5 290t107 412
q0 229 -107 416t-295.5 293t-420.5 106q-172 0 -323.5 -62.5t-260 -170.5t-171 -259t-62.5 -323q0 -226 106.5 -411t294 -290.5t416.5 -105.5zM934 291h-98v647h411v-94q-204 0 -319 14l-4 -2q18 -104 -2 -211l4 -2q100 16 305 16v-94q-185 0 -303 17l-6 -2q12 -87 12 -289z
" />
    <glyph glyph-name="G.ss08" 
d="M1020 1546q200 0 375.5 -71.5t301 -195.5t197.5 -298.5t72 -372.5q0 -259 -123 -470.5t-339.5 -332t-483.5 -120.5q-197 0 -371.5 71t-298.5 193.5t-196 293.5t-72 365q0 198 72 372.5t196 298.5t298 195.5t372 71.5zM1020 -197q232 0 420.5 105t295.5 290t107 412
q0 229 -107 416t-295.5 293t-420.5 106q-172 0 -323.5 -62.5t-260 -170.5t-171 -259t-62.5 -323q0 -226 106.5 -411t294 -290.5t416.5 -105.5zM1044 539v84h297v-332h-79q0 10 -1.5 38t-0.5 50.5t6 46.5q-70 -147 -238 -147q-140 0 -229.5 93.5t-89.5 239.5q0 147 92 242.5
t233 95.5q105 0 184 -54.5t107 -147.5l-88 -35q-28 69 -81 106t-122 37q-97 0 -159 -68.5t-62 -177.5q0 -61 20 -108.5t54 -74.5t73 -40.5t82 -13.5q82 0 141.5 48.5t84.5 137.5h-2q-107 -23 -222 -20z" />
    <glyph glyph-name="H.ss08" 
d="M1020 -315q-197 0 -371.5 71t-298.5 193.5t-196 293.5t-72 365q0 198 72 372.5t196 298.5t298 195.5t372 71.5q200 0 375.5 -71.5t301 -195.5t197.5 -298.5t72 -372.5q0 -259 -123 -470.5t-339.5 -332t-483.5 -120.5zM1020 -197q232 0 420.5 105t295.5 290t107 412
q0 229 -107 416t-295.5 293t-420.5 106q-172 0 -323.5 -62.5t-260 -170.5t-171 -259t-62.5 -323q0 -226 106.5 -411t294 -290.5t416.5 -105.5zM866 291h-100v647h100q0 -185 -10 -285l4 -2q173 20 328 0l4 2q-8 102 -8 285h98v-647h-98q0 180 8 289l-4 2q-155 -26 -328 0
l-4 -2q10 -104 10 -289z" />
    <glyph glyph-name="I.ss08" 
d="M1020 -315q-197 0 -371.5 71t-298.5 193.5t-196 293.5t-72 365q0 198 72 372.5t196 298.5t298 195.5t372 71.5q200 0 375.5 -71.5t301 -195.5t197.5 -298.5t72 -372.5q0 -259 -123 -470.5t-339.5 -332t-483.5 -120.5zM1020 -197q232 0 420.5 105t295.5 290t107 412
q0 229 -107 416t-295.5 293t-420.5 106q-172 0 -323.5 -62.5t-260 -170.5t-171 -259t-62.5 -323q0 -226 106.5 -411t294 -290.5t416.5 -105.5zM1073 291h-98v647h98v-647z" />
    <glyph glyph-name="J.ss08" 
d="M1020 -315q-197 0 -371.5 71t-298.5 193.5t-196 293.5t-72 365q0 198 72 372.5t196 298.5t298 195.5t372 71.5q200 0 375.5 -71.5t301 -195.5t197.5 -298.5t72 -372.5q0 -259 -123 -470.5t-339.5 -332t-483.5 -120.5zM1020 -197q232 0 420.5 105t295.5 290t107 412
q0 229 -107 416t-295.5 293t-420.5 106q-172 0 -323.5 -62.5t-260 -170.5t-171 -259t-62.5 -323q0 -226 106.5 -411t294 -290.5t416.5 -105.5zM1004 285q-100 0 -159 58t-59 159v26l97 13v-27q0 -65 30.5 -101t85.5 -36q103 0 103 155v412h98v-395q0 -24 -0.5 -38.5
t-4 -45.5t-10.5 -51.5t-21.5 -47t-34.5 -42.5t-52 -27.5t-73 -11.5z" />
    <glyph glyph-name="K.ss08" 
d="M1020 1546q200 0 375.5 -71.5t301 -195.5t197.5 -298.5t72 -372.5q0 -259 -123 -470.5t-339.5 -332t-483.5 -120.5q-197 0 -371.5 71t-298.5 193.5t-196 293.5t-72 365q0 198 72 372.5t196 298.5t298 195.5t372 71.5zM1020 -197q232 0 420.5 105t295.5 290t107 412
q0 229 -107 416t-295.5 293t-420.5 106q-172 0 -323.5 -62.5t-260 -170.5t-171 -259t-62.5 -323q0 -226 106.5 -411t294 -290.5t416.5 -105.5zM1030 653v-6q124 -142 283 -356h-121q-104 135 -217 295q-46 -58 -76 -78q4 -76 4 -217h-98v647h98q0 -7 0.5 -59.5t0 -70t-2 -59
t-5 -74t-9.5 -67.5q103 124 293 330h120q-181 -198 -270 -285z" />
    <glyph glyph-name="L.ss08" 
d="M1020 -315q-197 0 -371.5 71t-298.5 193.5t-196 293.5t-72 365q0 198 72 372.5t196 298.5t298 195.5t372 71.5q200 0 375.5 -71.5t301 -195.5t197.5 -298.5t72 -372.5q0 -259 -123 -470.5t-339.5 -332t-483.5 -120.5zM1020 -197q232 0 420.5 105t295.5 290t107 412
q0 229 -107 416t-295.5 293t-420.5 106q-172 0 -323.5 -62.5t-260 -170.5t-171 -259t-62.5 -323q0 -226 106.5 -411t294 -290.5t416.5 -105.5zM1278 291h-404v647h99q0 -400 -10 -563l4 -4q113 14 311 14v-94z" />
    <glyph glyph-name="M.ss08" 
d="M1020 1546q200 0 375.5 -71.5t301 -195.5t197.5 -298.5t72 -372.5q0 -259 -123 -470.5t-339.5 -332t-483.5 -120.5q-197 0 -371.5 71t-298.5 193.5t-196 293.5t-72 365q0 198 72 372.5t196 298.5t298 195.5t372 71.5zM1020 -197q232 0 420.5 105t295.5 290t107 412
q0 229 -107 416t-295.5 293t-420.5 106q-172 0 -323.5 -62.5t-260 -170.5t-171 -259t-62.5 -323q0 -226 106.5 -411t294 -290.5t416.5 -105.5zM1022 414h2q97 253 236 524h102v-647h-98q0 18 -0.5 89.5t0 102t1.5 88.5t4.5 107.5t8.5 101.5q-39 -91 -219 -489h-70
q-188 414 -219 489q5 -52 8.5 -101.5t4.5 -107.5t1.5 -88.5t0 -102t-0.5 -89.5h-98v647h102q143 -273 234 -524z" />
    <glyph glyph-name="N.ss08" 
d="M1020 1546q200 0 375.5 -71.5t301 -195.5t197.5 -298.5t72 -372.5q0 -259 -123 -470.5t-339.5 -332t-483.5 -120.5q-197 0 -371.5 71t-298.5 193.5t-196 293.5t-72 365q0 198 72 372.5t196 298.5t298 195.5t372 71.5zM1020 -197q232 0 420.5 105t295.5 290t107 412
q0 229 -107 416t-295.5 293t-420.5 106q-172 0 -323.5 -62.5t-260 -170.5t-171 -259t-62.5 -323q0 -226 106.5 -411t294 -290.5t416.5 -105.5zM1208 428q-12 184 -12 510h98v-647h-88q-214 280 -350 497q12 -154 12 -497h-98v647h88q186 -242 350 -510z" />
    <glyph glyph-name="O.ss08" 
d="M1020 -315q-197 0 -371.5 71t-298.5 193.5t-196 293.5t-72 365q0 198 72 372.5t196 298.5t298 195.5t372 71.5q200 0 375.5 -71.5t301 -195.5t197.5 -298.5t72 -372.5q0 -259 -123 -470.5t-339.5 -332t-483.5 -120.5zM1020 -197q232 0 420.5 105t295.5 290t107 412
q0 229 -107 416t-295.5 293t-420.5 106q-172 0 -323.5 -62.5t-260 -170.5t-171 -259t-62.5 -323q0 -226 106.5 -411t294 -290.5t416.5 -105.5zM1024 279q-137 0 -230.5 95.5t-93.5 239.5q0 142 94 239t232 97t232 -97t94 -239t-94 -238.5t-234 -96.5zM1026 373
q94 0 157.5 69t63.5 172t-63.5 172.5t-157.5 69.5t-157.5 -69.5t-63.5 -172.5t63.5 -172t157.5 -69z" />
    <glyph glyph-name="P.ss08" 
d="M1020 -315q-197 0 -371.5 71t-298.5 193.5t-196 293.5t-72 365q0 198 72 372.5t196 298.5t298 195.5t372 71.5q200 0 375.5 -71.5t301 -195.5t197.5 -298.5t72 -372.5q0 -259 -123 -470.5t-339.5 -332t-483.5 -120.5zM1020 -197q232 0 420.5 105t295.5 290t107 412
q0 229 -107 416t-295.5 293t-420.5 106q-172 0 -323.5 -62.5t-260 -170.5t-171 -259t-62.5 -323q0 -226 106.5 -411t294 -290.5t416.5 -105.5zM924 291h-99v647h238q36 0 71 -9.5t70 -31t56.5 -63t21.5 -97.5q0 -55 -21 -96t-55 -63t-68 -32.5t-67 -10.5q-103 0 -158 16
q11 -110 11 -260zM913 612l2 -4q52 17 136 17q57 0 93 26.5t36 83.5q0 55 -37 83t-94 28q-87 0 -134 12l-2 -2q15 -121 0 -244z" />
    <glyph glyph-name="Q.ss08" 
d="M1020 -315q-197 0 -371.5 71t-298.5 193.5t-196 293.5t-72 365q0 198 72 372.5t196 298.5t298 195.5t372 71.5q200 0 375.5 -71.5t301 -195.5t197.5 -298.5t72 -372.5q0 -259 -123 -470.5t-339.5 -332t-483.5 -120.5zM1020 -197q232 0 420.5 105t295.5 290t107 412
q0 229 -107 416t-295.5 293t-420.5 106q-172 0 -323.5 -62.5t-260 -170.5t-171 -259t-62.5 -323q0 -226 106.5 -411t294 -290.5t416.5 -105.5zM1335 297l-69 -59q-63 71 -90 122q-65 -45 -156 -45q-139 0 -233.5 96.5t-94.5 239.5t94.5 239.5t235.5 96.5q138 0 233 -97
t95 -239q0 -153 -115 -248q39 -31 100 -106zM1022 401q40 0 98 23q-52 45 -127 137l72 62q72 -87 119 -160q63 77 63 188q0 104 -64 174t-161 70q-98 0 -162.5 -69.5t-64.5 -174.5q0 -106 65 -178t162 -72z" />
    <glyph glyph-name="R.ss08" 
d="M1020 -315q-197 0 -371.5 71t-298.5 193.5t-196 293.5t-72 365q0 198 72 372.5t196 298.5t298 195.5t372 71.5q200 0 375.5 -71.5t301 -195.5t197.5 -298.5t72 -372.5q0 -259 -123 -470.5t-339.5 -332t-483.5 -120.5zM1020 -197q232 0 420.5 105t295.5 290t107 412
q0 229 -107 416t-295.5 293t-420.5 106q-172 0 -323.5 -62.5t-260 -170.5t-171 -259t-62.5 -323q0 -226 106.5 -411t294 -290.5t416.5 -105.5zM924 291h-99v647h238q27 0 54.5 -5.5t58 -20t53.5 -36.5t38 -58.5t15 -82.5q0 -77 -46 -125t-128 -57q16 -18 31 -36t32 -40
t26.5 -35t28.5 -40.5t24 -35t26.5 -40t23.5 -35.5h-112l-162 246q-54 0 -111 14q9 -85 9 -260zM913 608l2 -4q49 14 138 14q55 0 91 29t36 86q0 55 -37.5 84t-93.5 29q-72 0 -131 12l-5 -2q15 -124 0 -248z" />
    <glyph glyph-name="S.ss08" 
d="M1020 -315q-197 0 -371.5 71t-298.5 193.5t-196 293.5t-72 365q0 198 72 372.5t196 298.5t298 195.5t372 71.5q200 0 375.5 -71.5t301 -195.5t197.5 -298.5t72 -372.5q0 -259 -123 -470.5t-339.5 -332t-483.5 -120.5zM1020 -197q232 0 420.5 105t295.5 290t107 412
q0 229 -107 416t-295.5 293t-420.5 106q-172 0 -323.5 -62.5t-260 -170.5t-171 -259t-62.5 -323q0 -226 106.5 -411t294 -290.5t416.5 -105.5zM1036 279q-96 0 -162.5 51.5t-89.5 144.5l93 33q17 -65 58.5 -101t100.5 -36q49 0 85 25t36 71q0 18 -7.5 32.5t-16 23t-27.5 17
t-29.5 11.5t-34.5 10l-57 19q-25 8 -42.5 15t-45.5 23t-45.5 34.5t-31 49t-13.5 66.5q0 84 64 133t155 49q83 0 143.5 -43.5t77.5 -115.5l-88 -39q-35 104 -137 104q-48 0 -78.5 -23t-30.5 -59q0 -22 10.5 -39t30 -29t36 -19.5t40.5 -14.5l64 -21q30 -9 43.5 -14t43 -20
t44.5 -31.5t28 -45t13 -63.5q0 -87 -65 -142.5t-165 -55.5z" />
    <glyph glyph-name="T.ss08" 
d="M1020 -315q-197 0 -371.5 71t-298.5 193.5t-196 293.5t-72 365q0 198 72 372.5t196 298.5t298 195.5t372 71.5q200 0 375.5 -71.5t301 -195.5t197.5 -298.5t72 -372.5q0 -259 -123 -470.5t-339.5 -332t-483.5 -120.5zM1020 -197q232 0 420.5 105t295.5 290t107 412
q0 229 -107 416t-295.5 293t-420.5 106q-172 0 -323.5 -62.5t-260 -170.5t-171 -259t-62.5 -323q0 -226 106.5 -411t294 -290.5t416.5 -105.5zM1073 291h-100q0 370 10 565q-78 -10 -213 -10v92h506v-92q-135 0 -213 10q10 -195 10 -565z" />
    <glyph glyph-name="U.ss08" 
d="M1020 -315q-197 0 -371.5 71t-298.5 193.5t-196 293.5t-72 365q0 198 72 372.5t196 298.5t298 195.5t372 71.5q200 0 375.5 -71.5t301 -195.5t197.5 -298.5t72 -372.5q0 -259 -123 -470.5t-339.5 -332t-483.5 -120.5zM1020 -197q232 0 420.5 105t295.5 290t107 412
q0 229 -107 416t-295.5 293t-420.5 106q-172 0 -323.5 -62.5t-260 -170.5t-171 -259t-62.5 -323q0 -226 106.5 -411t294 -290.5t416.5 -105.5zM1022 285q-66 0 -114 21.5t-74 59t-38 81.5t-12 96v401h99v-397q0 -86 34.5 -128t106.5 -42q141 0 141 170v397h99v-401
q0 -52 -12.5 -96t-39 -81.5t-75.5 -59t-115 -21.5z" />
    <glyph glyph-name="V.ss08" 
d="M1020 -315q-197 0 -371.5 71t-298.5 193.5t-196 293.5t-72 365q0 198 72 372.5t196 298.5t298 195.5t372 71.5q200 0 375.5 -71.5t301 -195.5t197.5 -298.5t72 -372.5q0 -259 -123 -470.5t-339.5 -332t-483.5 -120.5zM1020 -197q232 0 420.5 105t295.5 290t107 412
q0 229 -107 416t-295.5 293t-420.5 106q-172 0 -323.5 -62.5t-260 -170.5t-171 -259t-62.5 -323q0 -226 106.5 -411t294 -290.5t416.5 -105.5zM1085 291h-106l-256 647h104q129 -303 203 -553h6q56 185 197 553h106z" />
    <glyph glyph-name="W.ss08" 
d="M1020 1546q200 0 375.5 -71.5t301 -195.5t197.5 -298.5t72 -372.5q0 -259 -123 -470.5t-339.5 -332t-483.5 -120.5q-197 0 -371.5 71t-298.5 193.5t-196 293.5t-72 365q0 198 72 372.5t196 298.5t298 195.5t372 71.5zM1020 -197q232 0 420.5 105t295.5 290t107 412
q0 229 -107 416t-295.5 293t-420.5 106q-172 0 -323.5 -62.5t-260 -170.5t-171 -259t-62.5 -323q0 -226 106.5 -411t294 -290.5t416.5 -105.5zM1229 401q63 265 149 537h109l-199 -647h-114q-103 326 -150 526q-57 -243 -150 -526h-114l-199 647h111q98 -312 149 -535
q54 233 152 535h104q110 -357 152 -537z" />
    <glyph glyph-name="X.ss08" 
d="M1020 -315q-197 0 -371.5 71t-298.5 193.5t-196 293.5t-72 365q0 198 72 372.5t196 298.5t298 195.5t372 71.5q200 0 375.5 -71.5t301 -195.5t197.5 -298.5t72 -372.5q0 -259 -123 -470.5t-339.5 -332t-483.5 -120.5zM1020 -197q232 0 420.5 105t295.5 290t107 412
q0 229 -107 416t-295.5 293t-420.5 106q-172 0 -323.5 -62.5t-260 -170.5t-171 -259t-62.5 -323q0 -226 106.5 -411t294 -290.5t416.5 -105.5zM868 291h-118q163 244 225 325v7q-80 108 -221 315h116q101 -150 156 -254h2q59 106 158 254h114q-128 -194 -223 -315v-7
q97 -126 226 -325h-117q-105 164 -158 264h-2q-43 -84 -158 -264z" />
    <glyph glyph-name="Y.ss08" 
d="M1020 -315q-197 0 -371.5 71t-298.5 193.5t-196 293.5t-72 365q0 198 72 372.5t196 298.5t298 195.5t372 71.5q200 0 375.5 -71.5t301 -195.5t197.5 -298.5t72 -372.5q0 -259 -123 -470.5t-339.5 -332t-483.5 -120.5zM1020 -197q232 0 420.5 105t295.5 290t107 412
q0 229 -107 416t-295.5 293t-420.5 106q-172 0 -323.5 -62.5t-260 -170.5t-171 -259t-62.5 -323q0 -226 106.5 -411t294 -290.5t416.5 -105.5zM1073 291h-100q0 155 6 231q-92 152 -240 416h109q10 -19 34.5 -63.5t38 -70t33.5 -63.5t37 -73.5t33 -71.5q16 36 33 71.5
t37 73.5t33.5 63.5t38 70t34.5 63.5h107q-180 -316 -240 -414q6 -78 6 -233z" />
    <glyph glyph-name="Z.ss08" 
d="M1020 -315q-197 0 -371.5 71t-298.5 193.5t-196 293.5t-72 365q0 198 72 372.5t196 298.5t298 195.5t372 71.5q200 0 375.5 -71.5t301 -195.5t197.5 -298.5t72 -372.5q0 -259 -123 -470.5t-339.5 -332t-483.5 -120.5zM1020 -197q232 0 420.5 105t295.5 290t107 412
q0 229 -107 416t-295.5 293t-420.5 106q-172 0 -323.5 -62.5t-260 -170.5t-171 -259t-62.5 -323q0 -226 106.5 -411t294 -290.5t416.5 -105.5zM1280 291h-500v80q141 193 394 499q-172 -24 -381 -24v92h481v-78q-168 -226 -400 -498l3 -2q187 25 403 25v-94z" />
    <glyph glyph-name="i.loclTRK" horiz-adv-x="532" 
d="M268 1360q-63 0 -104 42t-41 105q0 58 41.5 100t103.5 42q59 0 100.5 -42t41.5 -100q0 -63 -41 -105t-101 -42zM371 0h-209v1137h209v-1137z" />
    <glyph glyph-name="a.ss01" horiz-adv-x="1372" 
d="M604 -35q-153 0 -272.5 79t-183.5 215.5t-64 305.5q0 136 42 250.5t113.5 191t166.5 119.5t202 43q132 0 232.5 -70.5t152.5 -215.5h29q-18 123 -18 254h206v-1137h-198q0 7 -0.5 36.5t0 45t2.5 45.5t7.5 63t14.5 72h-30q-114 -297 -402 -297zM649 162q152 0 252 118
t100 291q0 176 -101 290t-253 114q-151 0 -248.5 -115t-97.5 -291q0 -180 97.5 -293.5t250.5 -113.5z" />
    <glyph glyph-name="aacute.ss01" horiz-adv-x="1372" 
d="M1081 1663l-311 -385h-180l233 385h258zM604 -35q-153 0 -272.5 79t-183.5 215.5t-64 305.5q0 136 42 250.5t113.5 191t166.5 119.5t202 43q132 0 232.5 -70.5t152.5 -215.5h29q-18 123 -18 254h206v-1137h-198q0 7 -0.5 36.5t0 45t2.5 45.5t7.5 63t14.5 72h-30
q-114 -297 -402 -297zM649 162q152 0 252 118t100 291q0 176 -101 290t-253 114q-151 0 -248.5 -115t-97.5 -291q0 -180 97.5 -293.5t250.5 -113.5z" />
    <glyph glyph-name="abreve.ss01" horiz-adv-x="1372" 
d="M692 1272q-171 0 -273 111t-108 284h174q5 -105 61.5 -172.5t149.5 -67.5t150.5 67.5t60.5 172.5h174q-6 -174 -109 -284.5t-280 -110.5zM604 -35q-153 0 -272.5 79t-183.5 215.5t-64 305.5q0 136 42 250.5t113.5 191t166.5 119.5t202 43q132 0 232.5 -70.5t152.5 -215.5
h29q-18 123 -18 254h206v-1137h-198q0 7 -0.5 36.5t0 45t2.5 45.5t7.5 63t14.5 72h-30q-114 -297 -402 -297zM649 162q152 0 252 118t100 291q0 176 -101 290t-253 114q-151 0 -248.5 -115t-97.5 -291q0 -180 97.5 -293.5t250.5 -113.5z" />
    <glyph glyph-name="acircumflex.ss01" horiz-adv-x="1372" 
d="M477 1278h-196l297 364h231l297 -364h-197q-46 48 -72 77.5t-60.5 79t-57.5 99.5h-49q-34 -72 -80 -129.5t-113 -126.5zM604 -35q-153 0 -272.5 79t-183.5 215.5t-64 305.5q0 136 42 250.5t113.5 191t166.5 119.5t202 43q132 0 232.5 -70.5t152.5 -215.5h29
q-18 123 -18 254h206v-1137h-198q0 7 -0.5 36.5t0 45t2.5 45.5t7.5 63t14.5 72h-30q-114 -297 -402 -297zM649 162q152 0 252 118t100 291q0 176 -101 290t-253 114q-151 0 -248.5 -115t-97.5 -291q0 -180 97.5 -293.5t250.5 -113.5z" />
    <glyph glyph-name="adieresis.ss01" horiz-adv-x="1372" 
d="M498 1337q-56 0 -94.5 40t-38.5 96q0 53 38.5 92t94.5 39q55 0 93 -39t38 -92q0 -56 -38 -96t-93 -40zM891 1337q-58 0 -95.5 39.5t-37.5 96.5q0 54 38 92.5t95 38.5q53 0 91 -39t38 -92q0 -56 -37.5 -96t-91.5 -40zM604 -35q-153 0 -272.5 79t-183.5 215.5t-64 305.5
q0 136 42 250.5t113.5 191t166.5 119.5t202 43q132 0 232.5 -70.5t152.5 -215.5h29q-18 123 -18 254h206v-1137h-198q0 7 -0.5 36.5t0 45t2.5 45.5t7.5 63t14.5 72h-30q-114 -297 -402 -297zM649 162q152 0 252 118t100 291q0 176 -101 290t-253 114q-151 0 -248.5 -115
t-97.5 -291q0 -180 97.5 -293.5t250.5 -113.5z" />
    <glyph glyph-name="agrave.ss01" horiz-adv-x="1372" 
d="M791 1278h-181l-311 385h258zM604 -35q-153 0 -272.5 79t-183.5 215.5t-64 305.5q0 136 42 250.5t113.5 191t166.5 119.5t202 43q132 0 232.5 -70.5t152.5 -215.5h29q-18 123 -18 254h206v-1137h-198q0 7 -0.5 36.5t0 45t2.5 45.5t7.5 63t14.5 72h-30
q-114 -297 -402 -297zM649 162q152 0 252 118t100 291q0 176 -101 290t-253 114q-151 0 -248.5 -115t-97.5 -291q0 -180 97.5 -293.5t250.5 -113.5z" />
    <glyph glyph-name="amacron.ss01" horiz-adv-x="1372" 
d="M1038 1376h-688v156h688v-156zM604 -35q-153 0 -272.5 79t-183.5 215.5t-64 305.5q0 136 42 250.5t113.5 191t166.5 119.5t202 43q132 0 232.5 -70.5t152.5 -215.5h29q-18 123 -18 254h206v-1137h-198q0 7 -0.5 36.5t0 45t2.5 45.5t7.5 63t14.5 72h-30
q-114 -297 -402 -297zM649 162q152 0 252 118t100 291q0 176 -101 290t-253 114q-151 0 -248.5 -115t-97.5 -291q0 -180 97.5 -293.5t250.5 -113.5z" />
    <glyph glyph-name="aogonek.ss01" horiz-adv-x="1372" 
d="M1149 -319q45 0 92 16v-146q-55 -14 -111 -14q-122 0 -203 62t-81 172q0 75 45 133.5t123 95.5h-2q0 7 -0.5 36.5t0 45t2.5 45.5t7.5 63t14.5 72h-30q-114 -297 -402 -297q-153 0 -272.5 79t-183.5 215.5t-64 305.5q0 136 42 250.5t113.5 191t166.5 119.5t202 43
q132 0 232.5 -70.5t152.5 -215.5h29q-18 123 -18 254h206v-1137h-49q-84 -31 -125 -80t-41 -106q0 -58 43 -95.5t111 -37.5zM649 162q152 0 252 118t100 291q0 176 -101 290t-253 114q-151 0 -248.5 -115t-97.5 -291q0 -180 97.5 -293.5t250.5 -113.5z" />
    <glyph glyph-name="aring.ss01" horiz-adv-x="1372" 
d="M694 1251q-104 0 -173.5 67t-69.5 167t69.5 166.5t173.5 66.5q102 0 172 -66.5t70 -166.5t-70 -167t-172 -67zM694 1364q52 0 86.5 34t34.5 87q0 52 -34.5 85.5t-86.5 33.5q-54 0 -88.5 -33.5t-34.5 -85.5q0 -54 34.5 -87.5t88.5 -33.5zM604 -35q-153 0 -272.5 79
t-183.5 215.5t-64 305.5q0 136 42 250.5t113.5 191t166.5 119.5t202 43q132 0 232.5 -70.5t152.5 -215.5h29q-18 123 -18 254h206v-1137h-198q0 7 -0.5 36.5t0 45t2.5 45.5t7.5 63t14.5 72h-30q-114 -297 -402 -297zM649 162q152 0 252 118t100 291q0 176 -101 290t-253 114
q-151 0 -248.5 -115t-97.5 -291q0 -180 97.5 -293.5t250.5 -113.5z" />
    <glyph glyph-name="atilde.ss01" horiz-adv-x="1372" 
d="M854 1307q-48 0 -82.5 15t-71.5 46l-49 35q-55 43 -90 43q-41 0 -65.5 -35t-24.5 -88h-152q1 126 67.5 204.5t168.5 78.5q68 0 150 -60l47 -35q57 -41 90 -41q39 0 59.5 32.5t20.5 88.5h153q0 -134 -58 -209t-163 -75zM604 -35q-153 0 -272.5 79t-183.5 215.5t-64 305.5
q0 136 42 250.5t113.5 191t166.5 119.5t202 43q132 0 232.5 -70.5t152.5 -215.5h29q-18 123 -18 254h206v-1137h-198q0 7 -0.5 36.5t0 45t2.5 45.5t7.5 63t14.5 72h-30q-114 -297 -402 -297zM649 162q152 0 252 118t100 291q0 176 -101 290t-253 114q-151 0 -248.5 -115
t-97.5 -291q0 -180 97.5 -293.5t250.5 -113.5z" />
    <glyph glyph-name="b.ss01" horiz-adv-x="1165" 
d="M702 -35q-120 0 -208.5 57.5t-131.5 161.5h-30q7 -21 12.5 -41.5t8 -33.5t4 -32.5t1.5 -26v-27v-23.5h-196v1638h209v-136v-151t-1 -133.5t-2.5 -155t-4.5 -139.5t-8 -163t-11 -154h31q44 92 128 141.5t193 49.5q177 0 295.5 -119.5t118.5 -300.5q0 -174 -115 -293
t-293 -119zM657 137q103 0 172.5 69.5t69.5 176.5q0 101 -65 171.5t-175 70.5q-114 0 -181.5 -69.5t-67.5 -168.5q0 -104 70.5 -177t176.5 -73z" />
    <glyph glyph-name="d.ss01" horiz-adv-x="1366" 
d="M606 -35q-155 0 -275 79.5t-183.5 215.5t-63.5 305q0 136 42 250.5t113.5 191t166.5 119.5t202 43q274 0 385 -286h29q-25 293 -25 755h207v-1638h-194q0 124 16 233h-31q-55 -140 -157.5 -204t-231.5 -64zM647 162q151 0 252.5 114.5t101.5 292.5t-102 292t-252 114
q-151 0 -248.5 -115t-97.5 -291q0 -179 97.5 -293t248.5 -114z" />
    </font>
</defs>
</svg>
