<?xml version="1.0" standalone="no"?>
<!DOCTYPE svg PUBLIC "-//W3C//DTD SVG 1.1//EN" "http://www.w3.org/Graphics/SVG/1.1/DTD/svg11.dtd" >
<svg xmlns="http://www.w3.org/2000/svg" xmlns:xlink="http://www.w3.org/1999/xlink" version="1.1">
<metadata>
Created by FontForge 20170731 at Mon Mar 15 14:15:45 2021
 By Aleksey,,,
Copyright (c) 2020 by Matthieu Salvaggio x Blaze Type. All rights reserved.
</metadata>
<defs>
<font id="Area-BoldInktrapItalic" horiz-adv-x="2048" >
  <font-face 
    font-family="Area Inktrap Italic"
    font-weight="700"
    font-style="italic"
    font-stretch="normal"
    units-per-em="2048"
    panose-1="0 0 8 0 0 0 0 0 0 0"
    ascent="1638"
    descent="-410"
    x-height="1137"
    cap-height="1597"
    bbox="-1624 -582 2679 2179"
    underline-thickness="102"
    underline-position="-307"
    slope="-10"
    unicode-range="U+0020-25CA"
  />
<missing-glyph horiz-adv-x="1421" 
d="M1139 0h-1055l283 1597h1054zM498 1448l-203 -1139l874 1139h-671zM1210 1294l-878 -1142h678z" />
    <glyph glyph-name=".notdef" horiz-adv-x="1421" 
d="M1139 0h-1055l283 1597h1054zM498 1448l-203 -1139l874 1139h-671zM1210 1294l-878 -1142h678z" />
    <glyph glyph-name=".null" horiz-adv-x="0" 
 />
    <glyph glyph-name="nonmarkingreturn" horiz-adv-x="682" 
 />
    <glyph glyph-name="space" unicode=" " horiz-adv-x="516" 
 />
    <glyph glyph-name="exclam" unicode="!" horiz-adv-x="555" 
d="M315 442h-116l120 1014l25 141h231l-24 -141zM176 -14q-53 0 -87 35t-34 88q0 68 52.5 119t119.5 51q53 0 87 -34.5t34 -86.5q0 -64 -52.5 -118t-119.5 -54z" />
    <glyph glyph-name="quotedbl" unicode="&#x22;" horiz-adv-x="806" 
d="M426 1106h-201l86 491h203zM768 1106h-203l86 491h203z" />
    <glyph glyph-name="numbersign" unicode="#" horiz-adv-x="1515" 
d="M324 0h-189q107 284 191 459q-109 -29 -271 -29l66 172q162 0 241 -24q59 199 150 383q-106 -31 -264 -31l67 172q156 0 252 -25q41 181 166 520h187q-120 -320 -213 -520q206 35 403 0q41 181 166 520h186q-120 -320 -213 -520q113 25 283 25l-68 -172q-56 0 -87.5 1
t-83 8.5t-99.5 21.5q-25 -175 -133 -383q107 24 274 24l-65 -172q-162 0 -262 29q-39 -185 -142 -459h-186q102 278 188 459q-209 -41 -403 0q-35 -166 -141 -459zM518 578q209 35 406 0q16 99 46.5 184.5t84.5 198.5q-208 -44 -404 0q-31 -186 -133 -383z" />
    <glyph glyph-name="dollar" unicode="$" horiz-adv-x="1226" 
d="M711 887l77 -29q39 -12 57 -17.5t58.5 -22t62.5 -30.5t53 -39.5t47.5 -53t29 -67t12.5 -85.5q0 -119 -69.5 -220.5t-193 -163.5t-274.5 -67l-30 -174h-72l31 176q-171 11 -280.5 106.5t-129.5 268.5l203 63q21 -115 85.5 -174.5t156.5 -70.5l71 411l-47 15
q-34 10 -61.5 20t-68 29t-71.5 43.5t-60 57t-44.5 78t-15.5 97.5q0 171 148 304t357 139l29 157h72l-29 -159q157 -15 258.5 -105t110.5 -213l-195 -82q-15 82 -69 138t-138 71zM461 1087q0 -68 48.5 -108t133.5 -70l68 383q-106 -5 -178 -63.5t-72 -141.5zM676 680
l-72 -397q118 4 196.5 67.5t78.5 153.5q0 32 -12.5 58t-29.5 43t-47 32.5t-54 23.5t-60 19z" />
    <glyph glyph-name="percent" unicode="%" horiz-adv-x="1810" 
d="M391 756q-111 0 -172 78.5t-61 216.5q0 125 48.5 237t135.5 181t190 69q112 0 174 -79.5t62 -217.5q0 -125 -49 -236.5t-136.5 -180t-191.5 -68.5zM336 0h-195l1397 1468h186zM416 911q68 0 122 105t54 223q0 70 -23 106.5t-61 36.5q-45 0 -86.5 -49.5t-65.5 -126
t-24 -153.5q0 -70 22.5 -106t61.5 -36zM1341 -29q-111 0 -172 78.5t-61 216.5q0 125 48.5 237t136 181.5t190.5 69.5q111 0 173 -79.5t62 -217.5q0 -125 -49 -236.5t-136.5 -180.5t-191.5 -69zM1366 127q68 0 122 105t54 223q0 70 -23 106.5t-61 36.5q-45 0 -86.5 -50
t-65.5 -126t-24 -154q0 -70 22.5 -105.5t61.5 -35.5z" />
    <glyph glyph-name="ampersand" unicode="&#x26;" horiz-adv-x="1437" 
d="M461 -35q-180 0 -298 91t-118 253q0 291 457 510q-187 180 -187 369q0 117 66 219t179.5 162.5t244.5 60.5q163 0 257.5 -91.5t94.5 -227.5q0 -274 -422 -480l279 -356q13 45 30 92.5t29.5 78.5t34 81t31.5 76l188 -41q-56 -130 -113 -223t-133 -156l308 -381h-271
l-170 240q-190 -277 -487 -277zM672 911q58 42 100 79t81.5 82.5t60 96.5t20.5 105q0 81 -45 124.5t-121 43.5q-98 0 -164.5 -67.5t-66.5 -166.5q0 -72 35 -141t100 -156zM508 158q91 0 177 43.5t192 128.5l-304 397q-64 -44 -94.5 -66.5t-79.5 -64t-72.5 -72.5t-42 -75
t-18.5 -89q0 -93 67.5 -147.5t174.5 -54.5z" />
    <glyph glyph-name="quotesingle" unicode="'" horiz-adv-x="466" 
d="M426 1106h-201l86 491h203z" />
    <glyph glyph-name="parenleft" unicode="(" horiz-adv-x="671" 
d="M500 -307h-215q-199 298 -199 692q0 320 141.5 642t393.5 570h215q-247 -245 -389 -568.5t-142 -643.5q0 -393 195 -692z" />
    <glyph glyph-name="parenright" unicode=")" horiz-adv-x="669" 
d="M80 -307h-217q250 247 391 570t141 642q0 394 -196 692h217q198 -296 198 -692q0 -321 -142 -644.5t-392 -567.5z" />
    <glyph glyph-name="asterisk" unicode="*" horiz-adv-x="813" 
d="M543 1024h-115l35 193l-182 -99l-39 99l192 94l-160 94l76 100l148 -96l30 188h115l-35 -188l183 96l38 -98l-190 -96l158 -94l-76 -99l-146 99z" />
    <glyph glyph-name="plus" unicode="+" horiz-adv-x="1032" 
d="M633 709h299l-31 -168h-299l-55 -316h-178l57 316h-303l29 168h303l57 315h176z" />
    <glyph glyph-name="comma" unicode="," horiz-adv-x="485" 
d="M41 -270h-121q47 67 69.5 98t64.5 78t87 86q-50 6 -77 39t-27 78q0 67 53 118.5t121 51.5q53 0 87 -33.5t34 -87.5q0 -49 -41 -109.5t-203 -260.5q-30 -37 -47 -58z" />
    <glyph glyph-name="hyphen" unicode="-" horiz-adv-x="843" 
d="M721 535h-608l30 178h609z" />
    <glyph glyph-name="period" unicode="." horiz-adv-x="501" 
d="M164 -14q-53 0 -87 35t-34 88q0 67 52.5 118.5t121.5 51.5q52 0 85.5 -34t33.5 -85q0 -67 -52.5 -120.5t-119.5 -53.5z" />
    <glyph glyph-name="slash" unicode="/" horiz-adv-x="903" 
d="M150 -135h-199l870 1773h199z" />
    <glyph glyph-name="zero" unicode="0" horiz-adv-x="1433" 
d="M608 -35q-226 0 -352.5 164t-126.5 451q0 154 37 307t107.5 286t164.5 235.5t216.5 162t254.5 59.5q225 0 351 -164.5t126 -451.5q0 -128 -26 -256.5t-73.5 -244.5t-118 -216.5t-155 -174t-189.5 -115.5t-216 -42zM643 170q107 0 203.5 73.5t162 191.5t104 267t38.5 299
q0 205 -73 314.5t-204 109.5q-106 0 -202.5 -73t-163.5 -190t-106.5 -266.5t-39.5 -299.5q0 -206 75 -316t206 -110z" />
    <glyph glyph-name="one" unicode="1" horiz-adv-x="811" 
d="M514 0h-221q8 43 31.5 173t33 183t31 166.5t36 185t35.5 172.5t42 195t45 191q-180 -213 -420 -256l39 223q160 36 277 137.5t139 226.5h213z" />
    <glyph glyph-name="two" unicode="2" horiz-adv-x="1280" 
d="M1075 0h-1055l3 23q17 70 37 129t49 111.5t57 94.5t72.5 85.5t83.5 77.5t102 77.5t116.5 77.5t137.5 86q51 31 82 51.5t82.5 57.5t84.5 71t67 77t50.5 91t16.5 98q0 102 -69 163t-189 61q-162 0 -277.5 -109.5t-148.5 -286.5l-199 35q43 245 229.5 402t436.5 157
q202 0 325 -104.5t123 -284.5q0 -313 -399 -563q-49 -32 -121 -74.5t-117 -69t-103 -67.5t-98.5 -79t-83 -93t-75.5 -119q139 14 294.5 21.5t252 8.5t270.5 1z" />
    <glyph glyph-name="three" unicode="3" horiz-adv-x="1318" 
d="M545 -35q-207 0 -350.5 100.5t-165.5 264.5l209 96q8 -47 31.5 -91t63.5 -82.5t104 -61.5t143 -23q167 0 276 96.5t109 231.5q0 106 -76.5 167.5t-224.5 61.5h-162l33 180h157q153 0 255 88t102 215q0 104 -72.5 163t-190.5 59q-131 0 -233.5 -75.5t-144.5 -209.5
l-193 45q59 192 232.5 316t392.5 124q192 0 319 -96.5t127 -261.5q0 -157 -107 -278.5t-268 -143.5l-4 -31q144 -13 219.5 -90t75.5 -207q0 -105 -49.5 -205.5t-134.5 -178.5t-209.5 -125.5t-263.5 -47.5z" />
    <glyph glyph-name="four" unicode="4" horiz-adv-x="1345" 
d="M950 0h-213q41 238 97 391q-410 -34 -824 -6l31 176l981 1036h211q-116 -669 -215 -1065q106 25 256 25l-33 -190q-154 0 -248 24q2 -150 -43 -391zM250 539q310 36 608 -7q28 380 143 834q-360 -421 -751 -827z" />
    <glyph glyph-name="five" unicode="5" horiz-adv-x="1320" 
d="M537 -35q-131 0 -242 43.5t-187 129t-96 200.5l197 111q20 -94 75.5 -160.5t129 -96.5t157.5 -30q89 0 170 35t138.5 92.5t91 133t33.5 155.5q0 128 -80 203t-213 75q-113 0 -207 -54t-158 -143l-170 56l344 882h805l-35 -192q-432 0 -672 29q-33 -153 -85.5 -286.5
t-143.5 -287.5h27q162 174 381 174q82 0 158.5 -24.5t141 -72.5t103.5 -129.5t39 -186.5q0 -123 -54 -242t-146 -210.5t-224 -147.5t-278 -56z" />
    <glyph glyph-name="six" unicode="6" horiz-adv-x="1376" 
d="M604 -35q-230 0 -359.5 142t-129.5 415q0 135 32.5 271t90.5 258.5t143.5 229t186.5 183.5t224 121.5t252 44.5q240 0 365 -135l-152 -158q-100 95 -264 95q-218 0 -389 -180t-264 -500h29q79 141 206.5 214.5t268.5 73.5q191 0 316.5 -119.5t125.5 -316.5
q0 -122 -52.5 -238t-142 -204.5t-217.5 -142.5t-270 -54zM645 162q106 0 200.5 56.5t151 151.5t56.5 201q0 128 -81.5 206.5t-205.5 78.5q-80 0 -156.5 -35t-133 -91.5t-90.5 -132t-34 -153.5q0 -125 84 -203.5t209 -78.5z" />
    <glyph glyph-name="seven" unicode="7" horiz-adv-x="1193" 
d="M418 0h-232q27 152 98 332.5t179.5 373t267 387t340.5 349.5l-12 26q-141 -21 -313 -31t-266.5 -11t-301.5 -1l33 191h1126l-32 -197q-174 -135 -330.5 -320t-267.5 -375.5t-186 -377.5t-103 -346z" />
    <glyph glyph-name="eight" unicode="8" horiz-adv-x="1351" 
d="M571 -35q-223 0 -361 110.5t-138 291.5q0 169 117 298.5t296 157.5l7 33q-222 62 -222 272q0 95 46 186.5t124.5 161t189.5 112t234 42.5q193 0 317 -100t124 -268q0 -147 -95 -259t-249 -147l-7 -33q131 -22 206 -105.5t75 -211.5q0 -105 -51.5 -204t-138.5 -173
t-211.5 -119t-262.5 -45zM739 926q140 0 240 92t100 211q0 97 -69 156t-179 59q-139 0 -239 -88.5t-100 -210.5q0 -100 69.5 -159.5t177.5 -59.5zM602 158q170 0 289 108.5t119 253.5q0 112 -78 177t-217 65q-179 0 -293.5 -99.5t-114.5 -246.5q0 -122 82.5 -190t212.5 -68z
" />
    <glyph glyph-name="nine" unicode="9" horiz-adv-x="1392" 
d="M506 -35q-145 0 -267 58.5t-190 164.5l152 150q119 -180 327 -180q224 0 387 196.5t218 513.5h-29q-70 -165 -198.5 -250.5t-280.5 -85.5q-122 0 -223 51.5t-162.5 154t-61.5 237.5q0 124 53 242.5t143 209.5t221 147t277 56q104 0 189 -29.5t153 -92.5t106 -173.5
t38 -261.5q0 -155 -39 -313.5t-115 -300.5t-178 -253t-237 -176t-283 -65zM694 717q110 0 208 63t156 164.5t58 210.5q0 130 -83 205.5t-206 75.5q-112 0 -208.5 -60.5t-152.5 -160t-56 -209.5q0 -133 81 -211t203 -78z" />
    <glyph glyph-name="colon" unicode=":" horiz-adv-x="552" 
d="M330 866q-52 0 -86.5 35t-34.5 88q0 67 53 118.5t121 51.5q52 0 86.5 -34t34.5 -85q0 -67 -53 -120.5t-121 -53.5zM176 -14q-53 0 -87 35t-34 88q0 67 52 118.5t120 51.5q53 0 87 -33.5t34 -85.5q0 -65 -52.5 -119.5t-119.5 -54.5z" />
    <glyph glyph-name="semicolon" unicode=";" horiz-adv-x="595" 
d="M360 866q-55 0 -88.5 35t-33.5 88q0 67 52.5 118.5t119.5 51.5q54 0 88 -34t34 -85q0 -65 -52.5 -119.5t-119.5 -54.5zM80 -279h-125l190 279q-30 13 -46.5 42t-16.5 64q0 68 52.5 120.5t119.5 52.5q54 0 87.5 -33.5t33.5 -85.5t-50.5 -127t-244.5 -312z" />
    <glyph glyph-name="less" unicode="&#x3c;" horiz-adv-x="1034" 
d="M860 434l-26 -162l-713 236l39 219l794 236l-28 -162l-623 -185z" />
    <glyph glyph-name="equal" unicode="=" horiz-adv-x="1077" 
d="M965 745h-789l31 168h788zM889 313h-789l29 168h791z" />
    <glyph glyph-name="greater" unicode="&#x3e;" horiz-adv-x="1034" 
d="M893 508l-793 -236l29 162l623 182l-559 185l28 162l711 -236z" />
    <glyph glyph-name="question" unicode="?" horiz-adv-x="1165" 
d="M604 465h-219q0 27 6 70q20 107 90.5 178.5t214.5 160.5q265 164 265 347q0 96 -67 152.5t-171 56.5q-129 0 -230.5 -85t-125.5 -223q-3 -20 -5 -51l-192 35q0 31 4 47q25 142 115 252.5t216.5 167.5t266.5 57q118 0 213.5 -41t154 -125t58.5 -198q0 -54 -14 -106.5
t-35.5 -94t-54.5 -83t-61.5 -70.5t-68 -60.5t-63 -48t-55.5 -37.5q-117 -79 -153 -113q-73 -67 -85 -143q-4 -32 -4 -45zM430 -14q-53 0 -87 35.5t-34 87.5q0 66 52 118t118 52q53 0 88 -34.5t35 -86.5q0 -66 -52.5 -119t-119.5 -53z" />
    <glyph glyph-name="at" unicode="@" horiz-adv-x="1953" 
d="M801 -195q-177 0 -315.5 50t-226 138.5t-132.5 207t-45 260.5q0 143 45.5 288t125.5 273t194.5 240.5t246 193.5t286 127.5t310.5 46.5q199 0 350.5 -73t237.5 -215.5t86 -335.5q0 -142 -47 -283.5t-124.5 -250t-185.5 -176t-223 -67.5t-156.5 67t-10.5 193h-21
q-176 -251 -420 -251q-136 0 -210 82t-74 217q0 113 54.5 232t140.5 211.5t199 152t222 59.5q213 0 238 -227h20q0 97 45 200h152l-195 -565q-85 -242 57 -242q94 0 181.5 92.5t140.5 238t53 294.5q0 241 -142 373.5t-392 132.5q-165 0 -322 -57.5t-281 -157t-218.5 -227.5
t-145.5 -276.5t-51 -295.5q0 -250 151 -389t439 -139q310 0 563 164l57 -115q-143 -99 -318 -145t-339 -46zM858 397q102 0 198 70t153 174t57 205q0 87 -45.5 136.5t-130.5 49.5q-101 0 -196.5 -68.5t-152.5 -173t-57 -206.5q0 -88 44.5 -137.5t129.5 -49.5z" />
    <glyph glyph-name="A" unicode="A" horiz-adv-x="1538" 
d="M145 0h-229l911 1597h252l344 -1597h-233q-74 310 -78 500l-18 20q-191 -31 -334 -31q-161 0 -330 31l-27 -22q-84 -197 -258 -498zM512 684l14 -20q144 30 273 30q126 0 243 -30l17 20q-53 193 -82 360t-33 357h-59q-132 -349 -373 -717z" />
    <glyph glyph-name="B" unicode="B" horiz-adv-x="1458" 
d="M748 0h-654l283 1597h618q207 0 318.5 -96t111.5 -250q0 -152 -100 -265.5t-268 -151.5l-6 -37q299 -51 299 -297q0 -135 -77.5 -249.5t-216.5 -182.5t-308 -68zM444 885l21 -23q63 18 130.5 27t108 10.5t111.5 1.5q165 0 268 80.5t103 200.5q0 105 -80.5 159t-208.5 54
h-44h-47.5t-43.5 1t-48.5 3t-46 6t-53 10t-51.5 15l-31 -19q-3 -247 -88 -526zM317 195l23 -29q153 37 379 37q184 0 289.5 81t105.5 205q0 108 -83.5 164t-217.5 56q-76 0 -119.5 1.5t-114.5 10.5t-133 27l-30 -23q-12 -286 -99 -530z" />
    <glyph glyph-name="C" unicode="C" horiz-adv-x="1708" 
d="M805 -35q-313 0 -499.5 180.5t-186.5 489.5q0 192 76 374t204 318.5t308.5 219.5t377.5 83q248 0 421 -127.5t212 -355.5l-217 -82q-37 166 -156.5 262t-297.5 96q-116 0 -224 -42t-192.5 -115.5t-148 -169t-97 -207.5t-33.5 -225q0 -101 27.5 -184.5t74.5 -139.5
t111 -94.5t135.5 -56t149.5 -17.5q145 0 271.5 61t213.5 156.5t146 220.5l190 -71q-134 -271 -359 -422.5t-507 -151.5z" />
    <glyph glyph-name="D" unicode="D" horiz-adv-x="1638" 
d="M700 0h-606l283 1597h588q165 0 288 -44t198 -126.5t111.5 -193t36.5 -250.5q0 -150 -41 -294.5t-120 -268.5t-186.5 -218.5t-250 -148t-301.5 -53.5zM317 195l23 -29q165 37 344 37q129 0 240 38t191.5 105.5t137.5 158.5t85 197t28 222q0 471 -475 471q-112 0 -181 6
t-147 29l-31 -19q-41 -623 -215 -1216z" />
    <glyph glyph-name="E" unicode="E" horiz-adv-x="1337" 
d="M1139 0h-1045l283 1597h1024l-37 -202h-107h-115.5t-106 1t-118.5 3t-110 6t-124 10t-120 15l-31 -19q0 -249 -86 -514l17 -23q136 22 283 33t241.5 13t251.5 2l-37 -211q-164 0 -254 1.5t-234 13t-270 34.5l-26 -23q-12 -287 -101 -542l23 -29q144 19 304 28.5t257.5 11
t272.5 1.5z" />
    <glyph glyph-name="F" unicode="F" horiz-adv-x="1271" 
d="M315 0h-221l283 1597h1005l-36 -206q-168 0 -261 1.5t-242 10.5t-280 27l-31 -19q0 -276 -98 -539l17 -22q137 22 284 33t236 12.5t246 1.5l-37 -211q-159 0 -247 1.5t-231 12.5t-270 33l-26 -20q-6 -118 -22 -256t-29 -217.5t-40 -239.5z" />
    <glyph glyph-name="G" unicode="G" horiz-adv-x="1785" 
d="M778 -35q-295 0 -477 177t-182 487q0 193 75.5 376t203 320.5t307.5 221t378 83.5q250 0 424.5 -129t210.5 -354l-217 -82q-39 167 -157 262.5t-295 95.5q-145 0 -276 -65t-222 -170.5t-145 -243.5t-54 -280q0 -103 28.5 -187.5t77 -140t113.5 -93.5t135 -54.5t146 -16.5
q208 0 382.5 126.5t289.5 354.5l-19 27q-242 -62 -551 -62l33 185h713l-141 -803h-175q2 14 7.5 56t9.5 66t12 62.5t19.5 75.5t27.5 76l-35 8q-233 -379 -647 -379z" />
    <glyph glyph-name="H" unicode="H" horiz-adv-x="1658" 
d="M315 0h-221l283 1597h221q-86 -468 -154 -706l23 -21q235 33 432 33t399 -33l31 21q19 269 98 706h222l-283 -1597h-221q79 446 153 711l-24 22q-408 -77 -830 0l-30 -22q-3 -48 -8 -98.5t-9 -89t-11.5 -93t-12 -84t-14.5 -89.5t-13.5 -81.5t-15.5 -89.5t-15 -86z" />
    <glyph glyph-name="I" unicode="I" horiz-adv-x="608" 
d="M315 0h-221l283 1597h221z" />
    <glyph glyph-name="J" unicode="J" horiz-adv-x="1236" 
d="M471 -35q-109 0 -198 31.5t-154 93.5t-90 167t0 241l10 49l219 28l-8 -43q-33 -180 40 -271t208 -91q54 0 100 15.5t78.5 39.5t59 61t43 70t30 77.5t20 74t13.5 67.5l180 1022h221l-172 -979q-37 -195 -85 -306q-152 -347 -515 -347z" />
    <glyph glyph-name="K" unicode="K" horiz-adv-x="1409" 
d="M315 0h-221l283 1597h221q-3 -16 -23 -129t-26 -142t-25.5 -123.5t-33.5 -146t-37.5 -131t-49.5 -153.5h31q379 369 883 825h262q-40 -36 -174.5 -158t-204.5 -185t-187 -165t-218 -186l-7 -33q140 -193 265.5 -397.5t277.5 -472.5h-268q-267 454 -406 743h-22
q-134 -141 -242 -206q-16 -182 -78 -537z" />
    <glyph glyph-name="L" unicode="L" horiz-adv-x="1200" 
d="M1079 0h-985l283 1597h221q-54 -305 -84 -466.5t-86 -435t-111 -500.5l23 -29q133 19 281.5 28.5t239.5 11t253 1.5z" />
    <glyph glyph-name="M" unicode="M" horiz-adv-x="2072" 
d="M317 0h-223l283 1597h241q241 -707 351 -1314h39q346 637 813 1314h241l-282 -1597h-224q7 38 39.5 222t47 258.5t45.5 225t64 277.5t73 260h-29q-118 -197 -252.5 -411t-293.5 -463t-234 -369h-158q-6 21 -144.5 511.5t-195.5 731.5h-31q-5 -109 -16 -228t-20 -200
t-31.5 -221.5t-30.5 -189.5t-37.5 -213t-34.5 -191z" />
    <glyph glyph-name="N" unicode="N" horiz-adv-x="1681" 
d="M315 0h-221l283 1597h203q196 -336 349.5 -639t295.5 -647h30q23 222 58 463t62.5 403t74.5 420h221l-282 -1597h-203q-209 355 -362.5 644.5t-288.5 612.5h-31q-9 -86 -19.5 -176.5t-19 -157t-24 -169t-22.5 -148t-26.5 -161.5t-24 -142t-28 -158t-25.5 -145z" />
    <glyph glyph-name="O" unicode="O" horiz-adv-x="1792" 
d="M791 -35q-194 0 -347 83t-240 237.5t-87 355.5q0 151 49.5 299t140 271t209.5 218t266 148t301 53q197 0 350.5 -86t238.5 -241t85 -353q0 -151 -50 -298.5t-141 -270t-210 -217t-265.5 -147t-299.5 -52.5zM829 172q136 0 264 63.5t221 166.5t149.5 240t56.5 278
q0 223 -131 363t-340 140q-180 0 -341.5 -106t-257.5 -279t-96 -362q0 -225 133.5 -364.5t341.5 -139.5z" />
    <glyph glyph-name="P" unicode="P" horiz-adv-x="1374" 
d="M315 0h-221l283 1597h588q25 0 46 -1t71.5 -8.5t90 -21t89 -43t82.5 -69.5t56 -104.5t23 -145.5q0 -115 -43.5 -221.5t-122 -189.5t-199 -133t-263.5 -50q-127 0 -215.5 9.5t-178.5 44.5q-17 -267 -86 -664zM424 786l22 -20q61 21 128 31.5t105 12t103 1.5
q177 0 291.5 92.5t114.5 249.5q0 242 -301 242q-70 0 -109 1t-100.5 9.5t-114.5 24.5l-31 -19q-12 -314 -108 -625z" />
    <glyph glyph-name="Q" unicode="Q" horiz-adv-x="1810" 
d="M1565 -94l-181 -133q-65 93 -105.5 164.5t-64.5 152.5q-188 -125 -415 -125q-198 0 -353 83.5t-242 238t-87 356.5q0 127 36 252t99.5 233.5t154.5 201.5t197.5 159t232 103.5t255.5 37.5q201 0 357 -86.5t241.5 -240.5t85.5 -351q0 -231 -114 -439t-314 -341
q43 -37 86 -87.5t68.5 -87t62.5 -91.5zM840 154q138 0 295 67q-54 43 -108.5 107.5t-85.5 110.5t-85 130l182 131q81 -126 133 -221t86 -192q128 117 206.5 289.5t78.5 343.5q0 224 -132.5 363.5t-352.5 139.5q-142 0 -273.5 -62.5t-226.5 -165t-152 -240.5t-57 -283
q0 -233 137 -375.5t355 -142.5z" />
    <glyph glyph-name="R" unicode="R" horiz-adv-x="1427" 
d="M315 0h-221l283 1597h588q22 0 42.5 -1t70 -8.5t90 -21.5t90.5 -44t84 -70.5t57.5 -106t23.5 -147.5q0 -218 -145.5 -368.5t-384.5 -167.5l-4 -29q25 -34 48.5 -68.5t47 -73.5t41 -67.5t41.5 -73.5t36.5 -68t38 -74t34 -67.5t36 -72.5t33.5 -68h-246l-303 616
q-166 7 -295 48q-12 -236 -86 -664zM424 776l22 -20q132 37 342 37q171 0 285.5 102.5t114.5 253.5q0 126 -85 187t-214 61q-201 0 -326 33l-31 -19q-11 -307 -108 -635z" />
    <glyph glyph-name="S" unicode="S" horiz-adv-x="1325" 
d="M578 -35q-105 0 -195 28t-163 83.5t-119 147.5t-56 212l217 72q16 -172 112.5 -256t239.5 -84q159 0 267 86t108 207q0 41 -15 73.5t-37 54t-57 39.5t-65 28.5t-72 23.5l-10.5 3.5t-9.5 2.5l-137 45q-36 12 -63 22t-67 29t-69.5 39t-61.5 50t-52.5 64t-34 79.5
t-13.5 97.5q0 100 47 194.5t127.5 166t196 114.5t244.5 43q213 0 339 -107.5t140 -269.5l-215 -82q-19 120 -98 189.5t-207 69.5q-141 0 -238.5 -78t-97.5 -185q0 -43 19 -79.5t44 -60t66 -45.5t68 -32.5t67 -23.5l154 -52q128 -44 178 -71q174 -95 174 -283
q0 -105 -49.5 -205.5t-135 -177.5t-209 -124.5t-261.5 -47.5z" />
    <glyph glyph-name="T" unicode="T" horiz-adv-x="1298" 
d="M659 0h-221q61 340 87 482t84 428t112 515q-96 -14 -203.5 -21t-166.5 -8t-179 -1l35 202h1249l-35 -202q-121 0 -180 1t-163 8t-195 21q-10 -84 -20.5 -164.5t-24 -172t-22 -152.5t-25.5 -166t-24 -148t-27.5 -162.5t-25.5 -146t-28.5 -162.5t-26.5 -151z" />
    <glyph glyph-name="U" unicode="U" horiz-adv-x="1533" 
d="M659 -35q-107 0 -191.5 23t-140.5 66t-93 101t-52 130.5t-14.5 150.5t16.5 166l176 995h220l-172 -979q-37 -206 32 -327t258 -121q98 0 177 34.5t133 96.5t89 141t52 176l172 979h221l-176 -995q-18 -99 -49 -185.5t-88 -171.5t-133 -145.5t-188.5 -97.5t-248.5 -37z
" />
    <glyph glyph-name="V" unicode="V" horiz-adv-x="1536" 
d="M797 0h-254l-346 1597h233q195 -901 254 -1390h49q230 486 740 1390h233z" />
    <glyph glyph-name="W" unicode="W" horiz-adv-x="2344" 
d="M686 0h-272l-205 1597h246q39 -310 56.5 -459t39.5 -403t31 -489h30q234 556 619 1351h250q38 -300 56.5 -450t44.5 -412.5t40 -496.5h31q265 663 602 1359h248l-770 -1597h-271q-114 762 -137 1317h-39q-249 -621 -600 -1317z" />
    <glyph glyph-name="X" unicode="X" horiz-adv-x="1359" 
d="M174 0h-262q462 548 682 795l6 30q-147 268 -395 772h256q177 -352 274 -634h31q203 289 502 634h256q-432 -507 -672 -772l-6 -30q133 -247 399 -795h-262q-173 373 -270 657h-31q-183 -262 -508 -657z" />
    <glyph glyph-name="Y" unicode="Y" horiz-adv-x="1421" 
d="M721 0h-221q75 412 116 567q-181 425 -411 1030h237l33 -88t35 -94.5t32 -88t34.5 -97t31 -91t33 -100t29 -95t30.5 -105.5t27 -103h29q132 217 268 413.5t322 448.5h235q-23 -32 -132.5 -180t-157.5 -212.5t-141 -188.5t-175 -230.5t-168 -216.5q-18 -184 -86 -569z" />
    <glyph glyph-name="Z" unicode="Z" horiz-adv-x="1355" 
d="M1194 0h-1231l31 182q584 638 1216 1243l-10 31q-474 -61 -958 -61l37 202h1179l-33 -180q-529 -573 -1214 -1239l10 -28q475 57 1008 57z" />
    <glyph glyph-name="bracketleft" unicode="[" horiz-adv-x="747" 
d="M528 -381h-510l349 1978h510l-33 -186q-203 0 -328 29q-104 -830 -291 -1645q135 29 338 29z" />
    <glyph glyph-name="backslash" unicode="\" horiz-adv-x="888" 
d="M698 -135h-196l-244 1773h197z" />
    <glyph glyph-name="bracketright" unicode="]" horiz-adv-x="747" 
d="M395 -381h-510l37 205q203 0 328 -29q103 829 291 1645q-135 -29 -338 -29l33 186h509z" />
    <glyph glyph-name="asciicircum" unicode="^" horiz-adv-x="911" 
d="M346 1022h-166l367 575h190l160 -575h-166q-77 301 -86 436h-55q-72 -159 -244 -436z" />
    <glyph glyph-name="underscore" unicode="_" horiz-adv-x="1060" 
d="M870 -236h-954l29 168h954z" />
    <glyph glyph-name="a" unicode="a" horiz-adv-x="1185" 
d="M344 -35q-138 0 -227.5 66.5t-89.5 199.5q0 80 35.5 146.5t99.5 113.5t143.5 79.5t177.5 52.5q27 5 77 15q42 8 62 12t54 12t50 13t41 14t36 17.5t26 20.5t21.5 25.5t11 31t4.5 37.5q0 77 -54.5 126.5t-147.5 49.5q-98 0 -179.5 -55.5t-128.5 -155.5l-184 66
q52 109 140.5 182t186 104t203.5 31q93 0 167 -24t126.5 -70.5t73.5 -122.5t4 -174l-76 -424q-22 -121 -27 -196.5t3 -157.5h-209q-2 32 -3 61.5t10 74.5t36 100h-31q-73 -132 -182.5 -201.5t-249.5 -69.5zM426 129q73 0 141 30t115.5 77t79.5 101t41 105l22 136
q-50 -35 -107.5 -54t-154.5 -39q-305 -65 -305 -223q0 -66 45 -99.5t123 -33.5z" />
    <glyph glyph-name="b" unicode="b" horiz-adv-x="1361" 
d="M657 -35q-133 0 -223 66.5t-125 191.5h-30q3 -20 4.5 -38t1 -37.5t-0.5 -30.5t-3.5 -32.5t-4 -27t-5.5 -30.5t-5 -27h-203l289 1638h207q-6 -34 -21.5 -128.5t-26 -151t-27 -142.5t-36 -168t-42.5 -163h28q174 284 449 284q191 0 302 -128.5t111 -340.5
q0 -188 -85.5 -357t-234 -273.5t-319.5 -104.5zM647 160q115 0 214.5 69.5t156.5 182.5t57 239q0 147 -76.5 234.5t-205.5 87.5q-115 0 -216.5 -69t-161 -182.5t-59.5 -238.5q0 -147 81.5 -235t209.5 -88z" />
    <glyph glyph-name="c" unicode="c" horiz-adv-x="1241" 
d="M551 -35q-221 0 -352 128t-131 353q0 139 52.5 270.5t143 231.5t220 160.5t274.5 60.5q171 0 294.5 -86t157.5 -252l-211 -77q-20 107 -94 163t-180 56q-121 0 -222.5 -71t-157.5 -183.5t-56 -237.5q0 -149 82 -235t219 -86q121 0 223 68t168 186l180 -76
q-95 -179 -257 -276t-353 -97z" />
    <glyph glyph-name="d" unicode="d" horiz-adv-x="1366" 
d="M496 -35q-199 0 -313.5 127.5t-114.5 343.5q0 188 85 356.5t233.5 272.5t320.5 104q279 0 340 -286h30q26 322 107 755h207l-226 -1284q-23 -129 -27.5 -210t1.5 -144h-207q-3 64 3 113t30 120h-29q-54 -95 -129 -156.5t-151 -86.5t-160 -25zM571 162q115 0 216.5 69
t161 182.5t59.5 239.5q0 146 -81 234t-210 88q-115 0 -214 -70.5t-155.5 -184t-56.5 -239.5q0 -145 75.5 -232t204.5 -87z" />
    <glyph glyph-name="e" unicode="e" horiz-adv-x="1261" 
d="M547 -35q-218 0 -348.5 129t-130.5 346q0 142 53.5 276t144 233.5t217.5 159.5t267 60q77 0 146.5 -19t133 -61.5t102.5 -110.5t55 -166t-9 -228l-13 -70h-884q-20 -169 64.5 -265.5t236.5 -96.5q117 0 216.5 65t162.5 174l180 -76q-89 -160 -247 -255t-347 -95zM322 686
h661q10 79 -9 139t-59.5 95t-91 52t-110.5 17q-133 0 -238.5 -85t-152.5 -218z" />
    <glyph glyph-name="f" unicode="f" horiz-adv-x="747" 
d="M330 0h-207q3 17 26.5 147.5t31 168.5t29.5 150.5t36 176t36 157t44 175.5q-92 -25 -205 -25l33 187q124 0 194 -27q-16 78 0 174q36 189 138 289t272 100q118 0 194 -43l-30 -180q-73 45 -156 45q-36 0 -64.5 -6.5t-48 -14.5t-35.5 -26.5t-24.5 -31.5t-17 -42
t-11.5 -44.5t-10 -51.5q-15 -102 -59 -168q123 27 333 27l-32 -187q-199 0 -324 25q-34 -351 -143 -975z" />
    <glyph glyph-name="g" unicode="g" horiz-adv-x="1363" 
d="M469 -483q-86 0 -158 16.5t-136 53t-108 102.5t-61 157l201 66q45 -217 293 -217q334 0 413 399q1 4 4 20t3.5 19.5t3.5 17t4.5 18.5t4.5 16.5t6 18t7.5 17.5t9.5 20.5t11 20.5h-29q-163 -258 -430 -258q-196 0 -315 123.5t-119 337.5q0 138 52 268t137.5 225t201.5 153
t237 58q138 0 225.5 -74.5t112.5 -211.5h31q4 106 29 254h203l-177 -1008q-24 -135 -71 -241t-108 -175t-139.5 -113.5t-161.5 -63.5t-177 -19zM580 199q113 0 213 67t158.5 175t58.5 225q0 138 -82 223.5t-211 85.5q-112 0 -210.5 -66.5t-155 -173.5t-56.5 -225
q0 -138 79 -224.5t206 -86.5z" />
    <glyph glyph-name="h" unicode="h" horiz-adv-x="1300" 
d="M270 0h-207l289 1638h207q-81 -447 -166 -735h31q170 266 430 266q81 0 146.5 -25t115.5 -79.5t66 -141t-2 -208.5l-125 -715h-209l110 623q29 166 -24 258t-178 92q-139 0 -244 -102t-133 -261z" />
    <glyph glyph-name="i" unicode="i" horiz-adv-x="530" 
d="M406 1360q-54 0 -87.5 34t-33.5 87q0 66 51.5 117t120.5 51q53 0 87 -33.5t34 -85.5q0 -66 -52.5 -118t-119.5 -52zM270 0h-207l199 1137h209z" />
    <glyph glyph-name="j" unicode="j" horiz-adv-x="530" 
d="M408 1360q-54 0 -87.5 34t-33.5 87q0 65 52 116.5t120 51.5q53 0 86 -33.5t33 -85.5q0 -66 -51 -118t-119 -52zM-160 -483q-127 0 -213 49l33 184q85 -49 170 -49q30 0 55.5 7t44.5 16t36.5 28.5t28 32.5t22 40.5t16.5 40t12 44.5t8.5 39.5t7.5 38.5l201 1149h209
l-203 -1151q-29 -163 -65 -244q-103 -224 -363 -225z" />
    <glyph glyph-name="k" unicode="k" horiz-adv-x="1114" 
d="M270 0h-207l289 1638h207q-39 -232 -60.5 -353t-61.5 -312t-83 -357h29q165 167 264 261.5t285 259.5h250l-531 -455q34 -53 71.5 -114.5t64.5 -107t69 -120t61 -109t66 -120.5t61 -111h-243q-180 341 -283 561q-88 -107 -196 -184q-9 -142 -52 -377z" />
    <glyph glyph-name="l" unicode="l" horiz-adv-x="530" 
d="M270 0h-207l289 1638h207z" />
    <glyph glyph-name="m" unicode="m" horiz-adv-x="2043" 
d="M270 0h-207l199 1137h205q-1 -6 -5 -26.5t-6 -29.5t-6.5 -29t-9 -34t-11.5 -34t-16 -40t-20 -41h31q87 138 198 202t226 64q57 0 106 -15t91 -47.5t67.5 -92t26.5 -140.5h30q169 295 433 295q77 0 142 -26t114.5 -81.5t66.5 -141t-2 -205.5l-125 -715h-209l111 623
q29 167 -22 258.5t-171 91.5q-132 0 -235 -103t-131 -260l-107 -610h-209l111 623q31 165 -20.5 257.5t-172.5 92.5q-132 0 -235 -103t-131 -260z" />
    <glyph glyph-name="n" unicode="n" horiz-adv-x="1300" 
d="M270 0h-207l199 1137h205q0 -2 -3.5 -20t-4.5 -23t-5 -22t-6.5 -25t-6.5 -24t-8.5 -28l-10.5 -28t-13.5 -31.5t-15.5 -32.5h31q170 266 432 266q81 0 146.5 -25t115 -79.5t65 -141t-2.5 -208.5l-125 -715h-209l110 623q29 166 -24.5 258t-179.5 92q-138 0 -242.5 -102.5
t-132.5 -260.5z" />
    <glyph glyph-name="o" unicode="o" horiz-adv-x="1312" 
d="M551 -35q-223 0 -353 130t-130 351q0 137 53 268.5t143.5 232t221.5 161.5t278 61q221 0 351 -131t130 -354q0 -137 -52 -267t-142 -230t-221 -161t-279 -61zM586 160q122 0 224.5 70.5t159 183.5t56.5 241q0 145 -80 231.5t-217 86.5q-124 0 -226 -72t-157 -184.5
t-55 -237.5q0 -147 79 -233t216 -86z" />
    <glyph glyph-name="p" unicode="p" horiz-adv-x="1361" 
d="M190 -451h-206l278 1588h205q-1 -3 -4.5 -23.5t-4.5 -25.5t-5 -23t-6 -26t-6.5 -25t-8.5 -29t-9.5 -29.5t-12.5 -35.5t-15 -37h31q184 286 455 286q189 0 302 -126t113 -341q0 -141 -51.5 -276t-137 -236.5t-204.5 -163t-246 -61.5q-132 0 -220 67.5t-120 200.5h-30
q-5 -75 -12 -146.5t-19 -151.5t-19.5 -124.5t-24.5 -139.5t-22 -122zM649 160q115 0 214 70.5t155.5 184t56.5 238.5q0 145 -76.5 232.5t-205.5 87.5q-115 0 -216.5 -69t-161 -182.5t-59.5 -238.5q0 -146 81.5 -234.5t211.5 -88.5z" />
    <glyph glyph-name="q" unicode="q" horiz-adv-x="1363" 
d="M1024 -451h-207q3 19 15.5 87.5t17.5 96t16.5 89t20 101t21 95.5t26.5 108t29 105h-29q-177 -266 -447 -266q-189 0 -303 128t-114 345q0 189 85 357t233 271t321 103q134 0 224.5 -69t123.5 -207h28q-3 33 -3.5 61t2 57.5t3.5 42t6.5 46t6.5 37.5h203zM573 162
q115 0 216 69t160 182t59 238q0 148 -80.5 236t-210.5 88q-115 0 -214 -70.5t-155.5 -184t-56.5 -239.5q0 -145 76 -232t206 -87z" />
    <glyph glyph-name="r" unicode="r" horiz-adv-x="862" 
d="M270 0h-207l199 1137h205q-1 -9 -6 -41t-8.5 -49t-11 -48t-18.5 -63t-26 -68h31q68 148 172 224.5t225 76.5q63 0 117 -22l-41 -229q-59 24 -139 24q-72 0 -134 -27t-105.5 -71t-78 -103t-55 -118.5t-31.5 -122.5z" />
    <glyph glyph-name="s" unicode="s" horiz-adv-x="1028" 
d="M424 -35q-177 0 -289 87t-131 233l203 61q24 -99 94 -154t160 -55q97 0 165 54t68 131q0 26 -10.5 47t-22 33.5t-39.5 26t-41 18.5t-49 16q-8 3 -12 4l-108 33q-105 34 -155 70q-109 78 -110 210q0 158 134 273.5t329 115.5q155 0 254 -78.5t117 -203.5l-207 -66
q-13 76 -64 126t-139 50t-148.5 -49.5t-60.5 -120.5q0 -29 13.5 -53.5t31.5 -40t49.5 -30.5t53 -23t55.5 -18l94 -29q110 -33 159 -66q103 -70 104 -198q0 -162 -143 -283t-355 -121z" />
    <glyph glyph-name="t" unicode="t" horiz-adv-x="827" 
d="M463 -35q-53 0 -95.5 9.5t-71.5 24t-50 39t-32.5 46.5t-17.5 54.5t-7 56t2 58t6 52.5t8 47q28 152 39.5 213t40 183.5t61.5 226.5q-111 -27 -260 -27l33 189q150 0 250 -27q-1 23 -1 44.5t1 44.5t1.5 39.5t3.5 41.5t4 37t5.5 39t5.5 35.5t6 38.5l6 36h207q0 -2 -5 -30
t-6 -33t-6 -31t-7 -35t-7.5 -33t-9 -37t-10 -35.5t-12 -40t-13.5 -39t-16 -42.5q145 27 363 27l-33 -189q-219 0 -352 27q-8 -160 -23 -269t-28 -150t-23 -97t-10 -129q0 -95 23.5 -135.5t98.5 -40.5q91 0 183 51l-33 -191q-94 -49 -219 -49z" />
    <glyph glyph-name="u" unicode="u" horiz-adv-x="1284" 
d="M451 -35q-87 0 -154.5 26t-115.5 81.5t-62.5 142.5t4.5 209l125 713h209l-113 -639q-29 -169 28 -253.5t171 -84.5q91 0 169 51.5t125.5 130t63.5 168.5l111 627h209l-140 -783q-21 -120 -26 -199.5t2 -154.5h-209q-2 39 -1.5 71t11 73.5t33.5 93.5h-31
q-79 -146 -179 -209.5t-230 -63.5z" />
    <glyph glyph-name="v" unicode="v" horiz-adv-x="1140" 
d="M594 0h-244l-227 1137h225q106 -535 144 -930h38q199 438 469 930h222z" />
    <glyph glyph-name="w" unicode="w" horiz-adv-x="1884" 
d="M553 0h-236l-194 1137h235q3 -20 18.5 -123.5t20 -134t17 -118.5t17 -135t12.5 -123t12.5 -143t7.5 -137h41q24 55 47.5 109t51 113t47 100.5t52 107t47.5 96t52 102.5t47.5 92.5t51.5 100.5t48 93h191q37 -223 51.5 -312.5t38 -266.5t37.5 -335h37q20 50 42 102.5
t39.5 94t43.5 98.5t41 90t45 94.5t41.5 85.5t45 91.5t41.5 83.5l45 90l42 84h233l-594 -1137h-244q-90 555 -114 860h-31q-137 -311 -426 -860z" />
    <glyph glyph-name="x" unicode="x" horiz-adv-x="1089" 
d="M158 0h-240q287 338 500 561l6 29q-121 191 -305 547h241q137 -277 193 -451h31q119 180 352 451h235q-12 -14 -56.5 -65.5t-58 -67t-52.5 -60t-56 -63.5l-51 -57t-55.5 -61.5t-52 -55.5t-58 -60.5t-55.5 -56.5l-4 -29q137 -230 301 -561h-236q-125 258 -194 455h-31
q-118 -175 -354 -455z" />
    <glyph glyph-name="y" unicode="y" horiz-adv-x="1150" 
d="M340 -451h-213l238 420l-246 1168h229q56 -271 90.5 -485.5t57.5 -467.5h30q183 406 484 953h223z" />
    <glyph glyph-name="z" unicode="z" horiz-adv-x="1038" 
d="M887 0h-922l31 170q14 14 73 76t76.5 80.5t72 75.5t77.5 80.5t73.5 75.5t80 81t76 76t82 81.5t79 75.5t84.5 80l-8 29q-255 -35 -604 -35l32 191h854l-28 -170q-176 -183 -257.5 -267.5t-235.5 -236.5t-285 -273l8 -30q108 14 239.5 21t206.5 8t230 1z" />
    <glyph glyph-name="braceleft" unicode="{" horiz-adv-x="829" 
d="M629 -303h-103q-128 0 -212.5 29.5t-126.5 85t-53 136t9 183.5l29 174q12 69 14 113.5t-2 70t-22.5 37.5t-37 14.5t-56.5 2.5l36 209h29t25 1.5t24 4.5t20.5 8.5t19.5 14t16.5 21.5t16.5 30t14 40t14 52t12 65l29 174q9 51 20.5 93t32 88.5t47.5 82t68 68.5t92.5 54.5
t122 34.5t155.5 13h103l-35 -186h-82q-136 0 -215.5 -58t-104.5 -198l-28 -164q-10 -60 -18.5 -95.5t-22 -72t-30 -57t-44 -40t-63 -31t-86.5 -21.5l-13 -58q47 -10 77 -19.5t52 -27t31.5 -37t11.5 -54.5t-2.5 -74t-15.5 -101l-29 -164q-22 -131 30.5 -193.5t199.5 -62.5h84
z" />
    <glyph glyph-name="bar" unicode="|" horiz-adv-x="548" 
d="M186 -451h-180l369 2089h180z" />
    <glyph glyph-name="braceright" unicode="}" horiz-adv-x="829" 
d="M-4 -303h-100l32 186h82q136 0 215.5 57t104.5 199l28 164q11 61 20.5 100.5t24.5 74t31.5 54.5t44.5 37t61.5 27t84.5 20l8 58q-55 11 -86.5 24t-53 33.5t-26.5 56t-2 81.5t16 122l29 164q22 127 -28 191.5t-201 64.5h-82l30 186h103q128 0 213.5 -29.5t127.5 -85.5
t52.5 -136.5t-10.5 -182.5l-31 -174q-10 -57 -14 -97t0.5 -66.5t11.5 -41t25.5 -22t35.5 -9t48 -1.5l-37 -209q-31 0 -47.5 -1.5t-37.5 -8.5t-32.5 -21.5t-25.5 -41t-24.5 -67t-21.5 -98.5l-33 -174q-14 -76 -34.5 -135t-60.5 -117.5t-96.5 -96.5t-144 -61.5t-200.5 -23.5z
" />
    <glyph glyph-name="asciitilde" unicode="~" horiz-adv-x="1114" 
d="M729 522q-53 0 -99.5 21t-74 45.5t-62 45.5t-67.5 21q-50 0 -82.5 -37t-42.5 -90h-170q25 140 113.5 220.5t195.5 80.5q49 0 93.5 -20t71.5 -43.5t62.5 -43.5t69.5 -20q93 0 115 123h170q-27 -148 -107 -225.5t-186 -77.5z" />
    <glyph glyph-name="uni00A0" unicode="&#xa0;" horiz-adv-x="516" 
 />
    <glyph glyph-name="exclamdown" unicode="&#xa1;" horiz-adv-x="526" 
d="M317 877q-52 0 -86 33.5t-34 84.5q0 66 53 120t121 54q52 0 85 -34.5t33 -87.5q0 -68 -53 -119t-119 -51zM201 -442h-232l25 139l235 1012h119l-123 -1012z" />
    <glyph glyph-name="cent" unicode="&#xa2;" horiz-adv-x="1140" 
d="M741 1079l-118 -680q84 10 157 62.5t119 134.5l141 -59q-70 -130 -188.5 -208t-257.5 -89l-43 -240h-109l43 242q-152 21 -243.5 125t-91.5 272q0 144 65 274.5t182.5 218.5t261.5 105l41 229h111l-41 -227q122 -11 207.5 -78.5t109.5 -187.5l-165 -64q-12 71 -61.5 115
t-119.5 55zM330 668q0 -107 50 -175t134 -87l119 671q-131 -26 -217 -145.5t-86 -263.5z" />
    <glyph glyph-name="sterling" unicode="&#xa3;" horiz-adv-x="1280" 
d="M1096 0h-1082l33 193q392 131 408 382q1 8 4 38t4.5 42.5t6.5 34.5t11 39q-129 -20 -342 -20l23 125q158 0 291 -21q-49 69 -76.5 113t-50.5 109.5t-23 129.5q0 194 154.5 329.5t386.5 135.5q61 0 117.5 -10t117.5 -39t106.5 -74t76.5 -121t36 -174l-213 -79
q-7 87 -33.5 149t-66.5 93.5t-81.5 45t-88.5 13.5q-122 0 -203.5 -78t-81.5 -199q0 -64 40.5 -175t47.5 -169q183 21 457 21l-22 -125q-248 0 -416 20q47 -52 47 -119q0 -119 -98 -233.5t-273 -206.5l15 -31q55 10 113.5 18.5t101 13.5t108.5 9t94 6t102.5 3t90 1h99.5h91z
" />
    <glyph glyph-name="currency" unicode="&#xa4;" horiz-adv-x="1357" 
d="M1133 903q0 -182 -125 -323l206 -308l-151 -114l-209 309q-92 -45 -199 -45q-104 0 -186 45l-317 -309l-111 114l315 310q-39 76 -39 170q0 87 33 170.5t92 150.5l-206 307l151 115l207 -305q95 45 203 45t188 -47l313 307l113 -115l-317 -307q39 -73 39 -170zM500 780
q0 -91 49 -143.5t135 -52.5q110 0 188 87.5t78 209.5q0 89 -47.5 140.5t-132.5 51.5q-112 0 -191 -87t-79 -206z" />
    <glyph glyph-name="yen" unicode="&#xa5;" horiz-adv-x="1470" 
d="M741 0h-219q28 161 80 285q-75 -14 -152.5 -21.5t-123.5 -8.5t-129 -1l26 154q245 0 395 -29q-9 69 -1.5 115t38.5 98q-158 -31 -403 -31l27 156q208 0 337 -31q-109 254 -376 911h237q199 -524 281 -821h22q49 75 111.5 174.5t94.5 147t122.5 172t245.5 327.5h235
q-508 -668 -700 -911q139 31 352 31l-27 -156q-247 0 -397 31q13 -52 4.5 -99t-43.5 -114q160 29 408 29l-27 -154q-248 0 -395 31q8 -116 -23 -285z" />
    <glyph glyph-name="brokenbar" unicode="&#xa6;" horiz-adv-x="548" 
d="M414 836h-181l142 802h180zM186 -451h-180l139 797h183z" />
    <glyph glyph-name="section" unicode="&#xa7;" horiz-adv-x="1105" 
d="M412 -301q-175 0 -293 92t-133 240l192 57q24 -106 98 -166.5t168 -60.5q93 0 161.5 55t68.5 131q0 22 -6 40t-20.5 33t-27 25t-37.5 21.5t-40 17.5t-45 17l-107 43q-37 14 -66 27.5t-66 38.5t-61.5 52t-41.5 68t-17 88q0 109 78.5 190.5t210.5 98.5l6 35
q-186 54 -186 225q0 71 34.5 139.5t94.5 121.5t149.5 85.5t190.5 32.5q152 0 250 -75t112 -224l-205 -64q-11 101 -57 151t-135 50q-97 0 -160 -51.5t-63 -126.5q0 -26 7.5 -47.5t24.5 -38.5t32 -29.5t42 -24.5t41.5 -18t42.5 -16l109 -39q37 -14 55 -21.5t53 -25
t54.5 -34.5t41.5 -42t32 -57t10 -70q0 -114 -85.5 -203t-213.5 -108l-7 -35q95 -20 144 -70t49 -139q0 -76 -37 -147t-100 -124.5t-152.5 -85.5t-189.5 -32zM516 399l43 -14q106 7 173 67.5t67 137.5q0 31 -11.5 53.5t-35 37.5t-45.5 24.5t-56 21.5l-18 6l-64 23
q-50 16 -104.5 -7t-90.5 -72.5t-36 -105.5q0 -38 17 -68.5t49 -51t54.5 -30.5t57.5 -22z" />
    <glyph glyph-name="copyright" unicode="&#xa9;" horiz-adv-x="1916" 
d="M854 -35q-206 0 -364.5 82t-247 237t-88.5 361q0 191 78.5 371.5t211 315.5t318 216.5t387.5 81.5q207 0 365 -82.5t245.5 -237t87.5 -358.5q0 -153 -49.5 -300.5t-141.5 -270.5t-213 -217t-274 -146.5t-315 -52.5zM877 98q172 0 328 69t267 183t176.5 265.5t65.5 312.5
q0 261 -163 416t-427 155q-171 0 -327 -68.5t-267 -182t-177 -266t-66 -314.5q0 -262 163.5 -416t426.5 -154zM934 348q-169 0 -269 98.5t-100 264.5q0 103 40 201t108.5 172t166 118.5t205.5 44.5q139 0 229.5 -71t112.5 -199l-151 -53q-15 88 -71 135t-142 47
q-95 0 -173.5 -55t-120.5 -140.5t-42 -179.5q0 -118 68.5 -178.5t169.5 -60.5q96 0 176 55.5t131 157.5l131 -46q-72 -149 -195 -230t-274 -81z" />
    <glyph glyph-name="guillemotleft" unicode="&#xab;" horiz-adv-x="1236" 
d="M575 164h-223l-250 405l2 9l394 405h223q-94 -95 -142 -142t-132.5 -115.5t-165.5 -117.5l-13 -69q92 -70 159.5 -157.5t147.5 -217.5zM1038 164h-223l-250 405l2 9l394 405h223q-69 -70 -106.5 -106.5t-97.5 -91.5t-117.5 -97.5t-119.5 -79.5l-10 -69q64 -49 123.5 -117
t93.5 -119t88 -139z" />
    <glyph glyph-name="logicalnot" unicode="&#xac;" horiz-adv-x="1054" 
d="M850 215h-178l61 336h-602l29 170h780z" />
    <glyph glyph-name="registered" unicode="&#xae;" horiz-adv-x="1148" 
d="M602 731q-171 0 -275 102t-104 267q0 103 42.5 201t114 171t172 117.5t210.5 44.5q168 0 274.5 -100.5t106.5 -267.5q0 -137 -71.5 -260t-197.5 -199t-272 -76zM618 821q120 0 220.5 62t155.5 160t55 206q0 133 -82.5 215t-218.5 82q-118 0 -218.5 -61t-157.5 -159.5
t-57 -209.5q0 -133 83 -214t220 -81zM569 942h-90l86 492h187q60 0 105.5 -31t45.5 -96q0 -61 -38.5 -111.5t-100.5 -67.5l94 -186h-102l-86 178h-68zM641 1352l-25 -150h91q43 0 70.5 25t27.5 63q0 32 -21 47t-55 15h-88z" />
    <glyph glyph-name="degree" unicode="&#xb0;" horiz-adv-x="757" 
d="M461 1051q-109 0 -178.5 67.5t-69.5 177.5q0 139 105 246t249 107q110 0 179 -68.5t69 -177.5q0 -137 -105 -244.5t-249 -107.5zM483 1176q81 0 141 63t60 145q0 61 -38 101.5t-99 40.5q-81 0 -141 -64t-60 -145q0 -62 37.5 -101.5t99.5 -39.5z" />
    <glyph glyph-name="plusminus" unicode="&#xb1;" horiz-adv-x="1083" 
d="M991 813l-30 -164h-316l-37 -205h318l-29 -159h-809l29 159h313l37 205h-313l28 164h314l41 238h178l-41 -238h317z" />
    <glyph glyph-name="uni00B2" unicode="&#xb2;" horiz-adv-x="677" 
d="M645 772h-532l4 21q28 128 86.5 198.5t214.5 161.5q26 15 43 26.5t46 34.5t44.5 49.5t15.5 53.5q0 31 -22.5 50t-61.5 19q-58 0 -100 -39.5t-55 -107.5l-150 23q21 123 117 199.5t219 76.5q102 0 165.5 -53.5t63.5 -143.5q0 -83 -52 -148.5t-124 -105.5q-15 -9 -57.5 -33
t-61.5 -36.5t-44 -37.5t-39 -52h307z" />
    <glyph glyph-name="uni00B3" unicode="&#xb3;" horiz-adv-x="686" 
d="M367 756q-107 0 -179.5 48.5t-81.5 123.5l160 71q25 -104 125 -104q56 0 93.5 34.5t37.5 82.5q0 80 -112 80h-72l20 118h76q53 0 93 30.5t40 78.5q0 34 -25 55t-65 21q-100 0 -137 -109l-145 33q27 94 116 156.5t203 62.5q97 0 161 -46t64 -122q0 -68 -43.5 -127
t-103.5 -72v-2q47 -9 78.5 -48t31.5 -93q0 -105 -97.5 -188.5t-237.5 -83.5z" />
    <glyph glyph-name="paragraph" unicode="&#xb6;" horiz-adv-x="1533" 
d="M782 -287h-217l166 942h-174q-186 0 -292.5 104t-106.5 283q0 111 43.5 212t120.5 177t191.5 121t248.5 45h352zM1167 -287h-219l332 1884h219z" />
    <glyph glyph-name="periodcentered" unicode="&#xb7;" horiz-adv-x="589" 
d="M281 477q-65 0 -107.5 43t-42.5 107q0 83 64.5 146t148.5 63q64 0 104.5 -42t40.5 -104q0 -80 -63.5 -146.5t-144.5 -66.5z" />
    <glyph glyph-name="uni00B9" unicode="&#xb9;" horiz-adv-x="485" 
d="M406 772h-168l86 490q-78 -64 -172 -84l30 176q77 23 129.5 69.5t61.5 98.5h164z" />
    <glyph glyph-name="guillemotright" unicode="&#xbb;" horiz-adv-x="1234" 
d="M672 569l-393 -405h-224q95 96 137.5 138t131 115.5t170.5 121.5l12 69q-91 72 -160 161t-145 214h223l250 -405zM1135 569l-394 -405h-223q161 163 235 228q103 88 203 147l13 69q-92 71 -160 159t-145 216h223l250 -405z" />
    <glyph glyph-name="onequarter" unicode="&#xbc;" horiz-adv-x="1482" 
d="M406 772h-168l86 490q-78 -64 -172 -84l30 176q77 23 129.5 69.5t61.5 98.5h164zM100 0h-194l1397 1468h186zM1231 -12h-162l29 149h-355l23 133l440 467h158l-82 -461h94l-24 -139h-95zM1165 524l-237 -248h192z" />
    <glyph glyph-name="onehalf" unicode="&#xbd;" horiz-adv-x="1531" 
d="M406 772h-168l86 490q-78 -64 -172 -84l30 176q77 23 129.5 69.5t61.5 98.5h164zM100 0h-194l1397 1468h186zM1360 -12h-533l4 20q28 128 87 199t215 162q27 16 43 26.5t45.5 33.5t45 49.5t15.5 53.5q0 31 -22.5 50.5t-61.5 19.5q-58 0 -100.5 -39.5t-55.5 -107.5
l-149 22q21 123 117 200t219 77q102 0 165.5 -53.5t63.5 -143.5q0 -83 -52 -148.5t-124 -105.5q-16 -10 -47 -27t-49 -28.5t-40.5 -28t-39 -35.5t-27.5 -41h307z" />
    <glyph glyph-name="threequarters" unicode="&#xbe;" horiz-adv-x="1683" 
d="M367 756q-107 0 -179.5 48.5t-81.5 123.5l160 71q25 -104 125 -104q56 0 93.5 34.5t37.5 82.5q0 80 -112 80h-72l20 118h76q53 0 93 30.5t40 78.5q0 34 -25 55t-65 21q-100 0 -137 -109l-145 33q27 94 116 156.5t203 62.5q97 0 161 -46t64 -122q0 -68 -43.5 -127
t-103.5 -72v-2q47 -9 78.5 -48t31.5 -93q0 -105 -97.5 -188.5t-237.5 -83.5zM301 0h-195l1397 1468h187zM1432 -12h-162l28 149h-354l23 133l440 467h158l-82 -461h94l-25 -139h-94zM1366 524l-238 -248h193z" />
    <glyph glyph-name="questiondown" unicode="&#xbf;" horiz-adv-x="1144" 
d="M678 877q-53 0 -87 33t-34 85q0 68 52 121t118 53q55 0 89 -35t34 -87q0 -67 -52 -118.5t-120 -51.5zM387 -475q-120 0 -215.5 41t-154 125t-58.5 198q0 73 26.5 144t61.5 120t90.5 100.5t90 77t83.5 58.5q49 32 70 46.5t57.5 43.5t54 50t34 52t22.5 64q6 36 6 45h219
q0 -36 -8 -72q-19 -105 -89.5 -176.5t-211.5 -158.5q-39 -25 -66.5 -44.5t-69 -56t-67.5 -71t-45.5 -81.5t-19.5 -96q0 -96 67 -153t172 -57q127 0 229 85t126 222q2 11 3.5 29t2.5 22l190 -35q0 -21 -4 -45q-19 -108 -76 -199t-138 -151t-179.5 -93.5t-202.5 -33.5z" />
    <glyph glyph-name="Agrave" unicode="&#xc0;" horiz-adv-x="1538" 
d="M1094 1720h-189l-272 340h274zM145 0h-229l911 1597h252l344 -1597h-233q-74 310 -78 500l-18 20q-191 -31 -334 -31q-161 0 -330 31l-27 -22q-84 -197 -258 -498zM512 684l14 -20q144 30 273 30q126 0 243 -30l17 20q-53 193 -82 360t-33 357h-59q-132 -349 -373 -717z
" />
    <glyph glyph-name="Aacute" unicode="&#xc1;" horiz-adv-x="1538" 
d="M1450 2060l-391 -340h-191l308 340h274zM145 0h-229l911 1597h252l344 -1597h-233q-74 310 -78 500l-18 20q-191 -31 -334 -31q-161 0 -330 31l-27 -22q-84 -197 -258 -498zM512 684l14 -20q144 30 273 30q126 0 243 -30l17 20q-53 193 -82 360t-33 357h-59
q-132 -349 -373 -717z" />
    <glyph glyph-name="Acircumflex" unicode="&#xc2;" horiz-adv-x="1538" 
d="M776 1720h-192l336 330h221l221 -330h-193q-36 41 -53.5 64.5t-38.5 69.5t-30 102h-62q-45 -79 -94 -131t-115 -105zM145 0h-229l911 1597h252l344 -1597h-233q-74 310 -78 500l-18 20q-191 -31 -334 -31q-161 0 -330 31l-27 -22q-84 -197 -258 -498zM512 684l14 -20
q144 30 273 30q126 0 243 -30l17 20q-53 193 -82 360t-33 357h-59q-132 -349 -373 -717z" />
    <glyph glyph-name="Atilde" unicode="&#xc3;" horiz-adv-x="1538" 
d="M1126 1739q-71 0 -139 61l-43 35q-48 43 -84 43q-41 0 -71 -35t-39 -88h-152q23 126 104 204.5t183 78.5q32 0 60 -10t43 -20.5t36 -29.5l41 -34q41 -41 82 -41q38 0 65.5 33t36.5 87h152q-23 -133 -96 -208.5t-179 -75.5zM145 0h-229l911 1597h252l344 -1597h-233
q-74 310 -78 500l-18 20q-191 -31 -334 -31q-161 0 -330 31l-27 -22q-84 -197 -258 -498zM512 684l14 -20q144 30 273 30q126 0 243 -30l17 20q-53 193 -82 360t-33 357h-59q-132 -349 -373 -717z" />
    <glyph glyph-name="Adieresis" unicode="&#xc4;" horiz-adv-x="1538" 
d="M764 1759q-52 0 -84.5 32.5t-32.5 82.5q0 66 50 114t116 48q51 0 83 -31.5t32 -79.5q0 -64 -49.5 -115t-114.5 -51zM1194 1759q-53 0 -85 32.5t-32 82.5q0 66 49 114t115 48q51 0 84 -32t33 -81q0 -62 -50 -113t-114 -51zM145 0h-229l911 1597h252l344 -1597h-233
q-74 310 -78 500l-18 20q-191 -31 -334 -31q-161 0 -330 31l-27 -22q-84 -197 -258 -498zM512 684l14 -20q144 30 273 30q126 0 243 -30l17 20q-53 193 -82 360t-33 357h-59q-132 -349 -373 -717z" />
    <glyph glyph-name="Aring" unicode="&#xc5;" horiz-adv-x="1538" 
d="M971 1712q-91 0 -148 54.5t-57 140.5q0 107 85 189.5t202 82.5q91 0 147.5 -53.5t56.5 -140.5q0 -107 -84.5 -190t-201.5 -83zM989 1825q60 0 103 42t43 101q0 42 -29 69t-74 27q-60 0 -102.5 -41.5t-42.5 -99.5q0 -44 28 -71t74 -27zM145 0h-229l911 1597h252l344 -1597
h-233q-74 310 -78 500l-18 20q-191 -31 -334 -31q-161 0 -330 31l-27 -22q-84 -197 -258 -498zM512 684l14 -20q144 30 273 30q126 0 243 -30l17 20q-53 193 -82 360t-33 357h-59q-132 -349 -373 -717z" />
    <glyph glyph-name="AE" unicode="&#xc6;" horiz-adv-x="2148" 
d="M98 0h-243l1204 1597h1153l-37 -202q-171 0 -269 1t-260.5 9.5t-304.5 24.5q3 -268 -88 -539q297 31 797 31l-37 -211q-171 0 -256.5 1t-241.5 8t-288 21q-8 -284 -101 -571q148 17 315 26t268 10t278 1l-37 -207h-1045q4 19 15 80t16 87t16.5 80t20 90t21 85t26.5 94
q-291 -44 -571 0q-49 -92 -117.5 -194t-105 -151t-128.5 -171zM590 670q241 41 463 -2q24 349 118 757h-41q-184 -312 -540 -755z" />
    <glyph glyph-name="Ccedilla" unicode="&#xc7;" horiz-adv-x="1708" 
d="M850 172q145 0 271.5 61t213.5 156.5t146 220.5l190 -71q-129 -263 -344.5 -414t-486.5 -160q-36 -36 -138 -115l11 -12q66 41 123 41q69 0 113 -40t44 -109q0 -97 -85.5 -166.5t-209.5 -69.5q-80 0 -146 32t-101 89l88 84q27 -46 73.5 -70t98.5 -24q60 0 99.5 31
t39.5 77q0 33 -27.5 53.5t-70.5 20.5q-55 0 -97 -27l-61 60l123 149q-277 26 -437.5 203t-160.5 463q0 192 76 374t204 318.5t308.5 219.5t377.5 83q248 0 421 -127.5t212 -355.5l-217 -82q-37 166 -156.5 262t-297.5 96q-116 0 -224 -42t-192.5 -115.5t-148 -169
t-97 -207.5t-33.5 -225q0 -101 27.5 -184.5t74.5 -139.5t111 -94.5t135.5 -56t149.5 -17.5z" />
    <glyph glyph-name="Egrave" unicode="&#xc8;" horiz-adv-x="1337" 
d="M1018 1720h-189l-272 340h274zM1139 0h-1045l283 1597h1024l-37 -202h-107h-115.5t-106 1t-118.5 3t-110 6t-124 10t-120 15l-31 -19q0 -249 -86 -514l17 -23q136 22 283 33t241.5 13t251.5 2l-37 -211q-164 0 -254 1.5t-234 13t-270 34.5l-26 -23q-12 -287 -101 -542
l23 -29q144 19 304 28.5t257.5 11t272.5 1.5z" />
    <glyph glyph-name="Eacute" unicode="&#xc9;" horiz-adv-x="1337" 
d="M1372 2060l-391 -340h-190l307 340h274zM1139 0h-1045l283 1597h1024l-37 -202h-107h-115.5t-106 1t-118.5 3t-110 6t-124 10t-120 15l-31 -19q0 -249 -86 -514l17 -23q136 22 283 33t241.5 13t251.5 2l-37 -211q-164 0 -254 1.5t-234 13t-270 34.5l-26 -23
q-12 -287 -101 -542l23 -29q144 19 304 28.5t257.5 11t272.5 1.5z" />
    <glyph glyph-name="Ecircumflex" unicode="&#xca;" horiz-adv-x="1337" 
d="M698 1720h-192l336 330h221l221 -330h-192q-36 42 -53.5 65t-39 69t-30.5 102h-62q-45 -79 -94 -131t-115 -105zM1139 0h-1045l283 1597h1024l-37 -202h-107h-115.5t-106 1t-118.5 3t-110 6t-124 10t-120 15l-31 -19q0 -249 -86 -514l17 -23q136 22 283 33t241.5 13
t251.5 2l-37 -211q-164 0 -254 1.5t-234 13t-270 34.5l-26 -23q-12 -287 -101 -542l23 -29q144 19 304 28.5t257.5 11t272.5 1.5z" />
    <glyph glyph-name="Edieresis" unicode="&#xcb;" horiz-adv-x="1337" 
d="M686 1759q-52 0 -84.5 32.5t-32.5 82.5q0 66 50 114t116 48q51 0 83 -31.5t32 -79.5q0 -64 -49.5 -115t-114.5 -51zM1116 1759q-53 0 -85 32.5t-32 82.5q0 66 49 114t115 48q51 0 84 -32t33 -81q0 -62 -50 -113t-114 -51zM1139 0h-1045l283 1597h1024l-37 -202h-107
h-115.5t-106 1t-118.5 3t-110 6t-124 10t-120 15l-31 -19q0 -249 -86 -514l17 -23q136 22 283 33t241.5 13t251.5 2l-37 -211q-164 0 -254 1.5t-234 13t-270 34.5l-26 -23q-12 -287 -101 -542l23 -29q144 19 304 28.5t257.5 11t272.5 1.5z" />
    <glyph glyph-name="Igrave" unicode="&#xcc;" horiz-adv-x="608" 
d="M629 1720h-189l-272 340h274zM315 0h-221l283 1597h221z" />
    <glyph glyph-name="Iacute" unicode="&#xcd;" horiz-adv-x="608" 
d="M985 2060l-391 -340h-191l308 340h274zM315 0h-221l283 1597h221z" />
    <glyph glyph-name="Icircumflex" unicode="&#xce;" horiz-adv-x="608" 
d="M311 1720h-192l336 330h221l221 -330h-192q-36 42 -53.5 65t-39 69t-30.5 102h-62q-45 -79 -94 -131t-115 -105zM315 0h-221l283 1597h221z" />
    <glyph glyph-name="Idieresis" unicode="&#xcf;" horiz-adv-x="608" 
d="M299 1759q-52 0 -84.5 32.5t-32.5 82.5q0 66 50 114t116 48q51 0 83 -31.5t32 -79.5q0 -64 -49.5 -115t-114.5 -51zM729 1759q-53 0 -85 32.5t-32 82.5q0 66 49 114t115 48q51 0 84 -32t33 -81q0 -62 -50 -113t-114 -51zM315 0h-221l283 1597h221z" />
    <glyph glyph-name="Eth" unicode="&#xd0;" horiz-adv-x="1638" 
d="M377 1597h588q165 0 288 -44t198 -126.5t111.5 -193t36.5 -250.5q0 -150 -41 -294.5t-120 -268.5t-186.5 -218.5t-250 -148t-301.5 -53.5h-606l125 709h-188l30 178h191zM684 203q129 0 240 38t191.5 105.5t137.5 158.5t85 197t28 222q0 471 -475 471q-112 0 -181 6
t-147 29l-31 -19q-20 -288 -59 -524h440l-30 -178h-441q-50 -262 -125 -514l23 -29q165 37 344 37z" />
    <glyph glyph-name="Ntilde" unicode="&#xd1;" horiz-adv-x="1681" 
d="M1190 1767q-70 0 -139 62l-43 35q-48 43 -84 43q-41 0 -71.5 -35t-39.5 -88h-151q23 126 103.5 204t182.5 78q46 0 76.5 -15.5t62.5 -43.5l41 -35q41 -41 82 -41q38 0 66 33.5t37 87.5h151q-23 -134 -95.5 -209.5t-178.5 -75.5zM315 0h-221l283 1597h203
q196 -336 349.5 -639t295.5 -647h30q23 222 58 463t62.5 403t74.5 420h221l-282 -1597h-203q-209 355 -362.5 644.5t-288.5 612.5h-31q-9 -86 -19.5 -176.5t-19 -157t-24 -169t-22.5 -148t-26.5 -161.5t-24 -142t-28 -158t-25.5 -145z" />
    <glyph glyph-name="Ograve" unicode="&#xd2;" horiz-adv-x="1792" 
d="M1221 1720h-189l-272 340h274zM791 -35q-194 0 -347 83t-240 237.5t-87 355.5q0 151 49.5 299t140 271t209.5 218t266 148t301 53q197 0 350.5 -86t238.5 -241t85 -353q0 -151 -50 -298.5t-141 -270t-210 -217t-265.5 -147t-299.5 -52.5zM829 172q136 0 264 63.5
t221 166.5t149.5 240t56.5 278q0 223 -131 363t-340 140q-180 0 -341.5 -106t-257.5 -279t-96 -362q0 -225 133.5 -364.5t341.5 -139.5z" />
    <glyph glyph-name="Oacute" unicode="&#xd3;" horiz-adv-x="1792" 
d="M1575 2060l-391 -340h-191l307 340h275zM791 -35q-194 0 -347 83t-240 237.5t-87 355.5q0 151 49.5 299t140 271t209.5 218t266 148t301 53q197 0 350.5 -86t238.5 -241t85 -353q0 -151 -50 -298.5t-141 -270t-210 -217t-265.5 -147t-299.5 -52.5zM829 172
q136 0 264 63.5t221 166.5t149.5 240t56.5 278q0 223 -131 363t-340 140q-180 0 -341.5 -106t-257.5 -279t-96 -362q0 -225 133.5 -364.5t341.5 -139.5z" />
    <glyph glyph-name="Ocircumflex" unicode="&#xd4;" horiz-adv-x="1792" 
d="M901 1720h-192l335 330h222l221 -330h-193q-36 42 -53.5 65t-39 69t-30.5 102h-61q-45 -79 -94 -131t-115 -105zM791 -35q-194 0 -347 83t-240 237.5t-87 355.5q0 151 49.5 299t140 271t209.5 218t266 148t301 53q197 0 350.5 -86t238.5 -241t85 -353q0 -151 -50 -298.5
t-141 -270t-210 -217t-265.5 -147t-299.5 -52.5zM829 172q136 0 264 63.5t221 166.5t149.5 240t56.5 278q0 223 -131 363t-340 140q-180 0 -341.5 -106t-257.5 -279t-96 -362q0 -225 133.5 -364.5t341.5 -139.5z" />
    <glyph glyph-name="Otilde" unicode="&#xd5;" horiz-adv-x="1792" 
d="M1262 1767q-71 0 -140 62l-43 35q-48 43 -84 43q-41 0 -71 -35t-39 -88h-152q23 126 103.5 204t183.5 78q46 0 76.5 -15.5t62.5 -43.5l41 -35q41 -41 82 -41q38 0 65.5 33t36.5 88h152q-23 -134 -95.5 -209.5t-178.5 -75.5zM791 -35q-194 0 -347 83t-240 237.5t-87 355.5
q0 151 49.5 299t140 271t209.5 218t266 148t301 53q197 0 350.5 -86t238.5 -241t85 -353q0 -151 -50 -298.5t-141 -270t-210 -217t-265.5 -147t-299.5 -52.5zM829 172q136 0 264 63.5t221 166.5t149.5 240t56.5 278q0 223 -131 363t-340 140q-180 0 -341.5 -106t-257.5 -279
t-96 -362q0 -225 133.5 -364.5t341.5 -139.5z" />
    <glyph glyph-name="Odieresis" unicode="&#xd6;" horiz-adv-x="1792" 
d="M889 1759q-52 0 -84.5 32.5t-32.5 82.5q0 66 50 114t116 48q51 0 83 -31.5t32 -79.5q0 -64 -49.5 -115t-114.5 -51zM1319 1759q-53 0 -85 32.5t-32 82.5q0 66 49 114t115 48q51 0 84 -32t33 -81q0 -62 -50 -113t-114 -51zM791 -35q-194 0 -347 83t-240 237.5t-87 355.5
q0 151 49.5 299t140 271t209.5 218t266 148t301 53q197 0 350.5 -86t238.5 -241t85 -353q0 -151 -50 -298.5t-141 -270t-210 -217t-265.5 -147t-299.5 -52.5zM829 172q136 0 264 63.5t221 166.5t149.5 240t56.5 278q0 223 -131 363t-340 140q-180 0 -341.5 -106t-257.5 -279
t-96 -362q0 -225 133.5 -364.5t341.5 -139.5z" />
    <glyph glyph-name="multiply" unicode="&#xd7;" horiz-adv-x="968" 
d="M379 625l-201 241l139 121l203 -244l279 238l96 -121l-277 -235l197 -242l-141 -119l-197 242l-282 -240l-99 117z" />
    <glyph glyph-name="Oslash" unicode="&#xd8;" horiz-adv-x="1792" 
d="M1571 1661h217l-203 -236q172 -188 172 -475q0 -151 -50 -298.5t-141 -270t-210 -217t-265.5 -147t-299.5 -52.5q-215 0 -377 103l-115 -134h-215l203 236q-170 188 -170 471q0 151 49.5 299t140 271t209.5 218t266 148t301 53q217 0 375 -100zM354 676q0 -183 95 -318
l856 994q-109 71 -256 71q-180 0 -341.5 -106t-257.5 -279t-96 -362zM1520 920q0 185 -97 319l-856 -993q117 -74 262 -74q136 0 264 63.5t221 166.5t149.5 240t56.5 278z" />
    <glyph glyph-name="Ugrave" unicode="&#xd9;" horiz-adv-x="1533" 
d="M1096 1720h-189l-272 340h274zM659 -35q-107 0 -191.5 23t-140.5 66t-93 101t-52 130.5t-14.5 150.5t16.5 166l176 995h220l-172 -979q-37 -206 32 -327t258 -121q98 0 177 34.5t133 96.5t89 141t52 176l172 979h221l-176 -995q-18 -99 -49 -185.5t-88 -171.5
t-133 -145.5t-188.5 -97.5t-248.5 -37z" />
    <glyph glyph-name="Uacute" unicode="&#xda;" horiz-adv-x="1533" 
d="M1372 2062l-391 -342h-190l307 342h274zM659 -35q-107 0 -191.5 23t-140.5 66t-93 101t-52 130.5t-14.5 150.5t16.5 166l176 995h220l-172 -979q-37 -206 32 -327t258 -121q98 0 177 34.5t133 96.5t89 141t52 176l172 979h221l-176 -995q-18 -99 -49 -185.5t-88 -171.5
t-133 -145.5t-188.5 -97.5t-248.5 -37z" />
    <glyph glyph-name="Ucircumflex" unicode="&#xdb;" horiz-adv-x="1533" 
d="M778 1720h-192l336 330h221l221 -330h-193q-36 41 -53.5 64.5t-38.5 69.5t-30 102h-62q-45 -79 -94 -131t-115 -105zM659 -35q-107 0 -191.5 23t-140.5 66t-93 101t-52 130.5t-14.5 150.5t16.5 166l176 995h220l-172 -979q-37 -206 32 -327t258 -121q98 0 177 34.5
t133 96.5t89 141t52 176l172 979h221l-176 -995q-18 -99 -49 -185.5t-88 -171.5t-133 -145.5t-188.5 -97.5t-248.5 -37z" />
    <glyph glyph-name="Udieresis" unicode="&#xdc;" horiz-adv-x="1533" 
d="M766 1759q-52 0 -84.5 32.5t-32.5 82.5q0 66 50 114t116 48q51 0 83 -31.5t32 -79.5q0 -64 -49.5 -115t-114.5 -51zM1196 1759q-53 0 -85 32.5t-32 82.5q0 66 49 114t115 48q51 0 84 -32t33 -81q0 -62 -50 -113t-114 -51zM659 -35q-107 0 -191.5 23t-140.5 66t-93 101
t-52 130.5t-14.5 150.5t16.5 166l176 995h220l-172 -979q-37 -206 32 -327t258 -121q98 0 177 34.5t133 96.5t89 141t52 176l172 979h221l-176 -995q-18 -99 -49 -185.5t-88 -171.5t-133 -145.5t-188.5 -97.5t-248.5 -37z" />
    <glyph glyph-name="Yacute" unicode="&#xdd;" horiz-adv-x="1421" 
d="M1337 2062l-393 -342h-188l307 342h274zM721 0h-221q75 412 116 567q-181 425 -411 1030h237l33 -88t35 -94.5t32 -88t34.5 -97t31 -91t33 -100t29 -95t30.5 -105.5t27 -103h29q132 217 268 413.5t322 448.5h235q-23 -32 -132.5 -180t-157.5 -212.5t-141 -188.5
t-175 -230.5t-168 -216.5q-18 -184 -86 -569z" />
    <glyph glyph-name="Thorn" unicode="&#xde;" horiz-adv-x="1398" 
d="M315 0h-221l283 1597h221q-23 -124 -76 -276h393q63 0 123.5 -11t123 -39.5t109 -71.5t76 -113.5t29.5 -159.5q0 -112 -43 -217t-121 -189t-200 -135t-267 -51q-84 0 -135 2t-122 14.5t-134 36.5q-8 -213 -39 -387zM375 508l22 -21q60 22 126.5 33t106.5 13t103 2
q177 0 292.5 91.5t115.5 247.5q0 66 -23 114.5t-65 76t-95.5 40.5t-119.5 13q-70 0 -109 1t-100.5 9.5t-114.5 24.5l-33 -20q-8 -311 -106 -625z" />
    <glyph glyph-name="germandbls" unicode="&#xdf;" horiz-adv-x="1306" 
d="M270 0h-207l193 1094q8 48 21 95.5t37.5 106.5t56 110.5t79.5 101.5t105.5 85.5t136.5 57.5t170 22q201 0 316.5 -100.5t115.5 -274.5t-110.5 -303t-278.5 -141l-6 -39q155 -6 236.5 -83.5t81.5 -213.5q0 -102 -45.5 -195.5t-126.5 -165.5t-202 -114.5t-263 -42.5h-150
l33 186h174q151 0 255.5 95t104.5 225q0 100 -65.5 158.5t-171.5 58.5h-107l33 184h82q130 0 217.5 104.5t87.5 239.5q0 106 -62 169t-182 63q-77 0 -139.5 -28.5t-99.5 -68.5t-64.5 -93t-39 -91t-17.5 -74z" />
    <glyph glyph-name="agrave" unicode="&#xe0;" horiz-adv-x="1185" 
d="M825 1278h-180l-244 385h258zM344 -35q-138 0 -227.5 66.5t-89.5 199.5q0 80 35.5 146.5t99.5 113.5t143.5 79.5t177.5 52.5q27 5 77 15q42 8 62 12t54 12t50 13t41 14t36 17.5t26 20.5t21.5 25.5t11 31t4.5 37.5q0 77 -54.5 126.5t-147.5 49.5q-98 0 -179.5 -55.5
t-128.5 -155.5l-184 66q52 109 140.5 182t186 104t203.5 31q93 0 167 -24t126.5 -70.5t73.5 -122.5t4 -174l-76 -424q-22 -121 -27 -196.5t3 -157.5h-209q-2 32 -3 61.5t10 74.5t36 100h-31q-73 -132 -182.5 -201.5t-249.5 -69.5zM426 129q73 0 141 30t115.5 77t79.5 101
t41 105l22 136q-50 -35 -107.5 -54t-154.5 -39q-305 -65 -305 -223q0 -66 45 -99.5t123 -33.5z" />
    <glyph glyph-name="aacute" unicode="&#xe1;" horiz-adv-x="1185" 
d="M1184 1663l-379 -385h-180l301 385h258zM344 -35q-138 0 -227.5 66.5t-89.5 199.5q0 80 35.5 146.5t99.5 113.5t143.5 79.5t177.5 52.5q27 5 77 15q42 8 62 12t54 12t50 13t41 14t36 17.5t26 20.5t21.5 25.5t11 31t4.5 37.5q0 77 -54.5 126.5t-147.5 49.5
q-98 0 -179.5 -55.5t-128.5 -155.5l-184 66q52 109 140.5 182t186 104t203.5 31q93 0 167 -24t126.5 -70.5t73.5 -122.5t4 -174l-76 -424q-22 -121 -27 -196.5t3 -157.5h-209q-2 32 -3 61.5t10 74.5t36 100h-31q-73 -132 -182.5 -201.5t-249.5 -69.5zM426 129q73 0 141 30
t115.5 77t79.5 101t41 105l22 136q-50 -35 -107.5 -54t-154.5 -39q-305 -65 -305 -223q0 -66 45 -99.5t123 -33.5z" />
    <glyph glyph-name="acircumflex" unicode="&#xe2;" horiz-adv-x="1185" 
d="M512 1278h-197l361 364h231l234 -364h-197q-43 58 -59.5 82t-44 75t-41.5 99h-47q-77 -119 -240 -256zM344 -35q-138 0 -227.5 66.5t-89.5 199.5q0 80 35.5 146.5t99.5 113.5t143.5 79.5t177.5 52.5q27 5 77 15q42 8 62 12t54 12t50 13t41 14t36 17.5t26 20.5t21.5 25.5
t11 31t4.5 37.5q0 77 -54.5 126.5t-147.5 49.5q-98 0 -179.5 -55.5t-128.5 -155.5l-184 66q52 109 140.5 182t186 104t203.5 31q93 0 167 -24t126.5 -70.5t73.5 -122.5t4 -174l-76 -424q-22 -121 -27 -196.5t3 -157.5h-209q-2 32 -3 61.5t10 74.5t36 100h-31
q-73 -132 -182.5 -201.5t-249.5 -69.5zM426 129q73 0 141 30t115.5 77t79.5 101t41 105l22 136q-50 -35 -107.5 -54t-154.5 -39q-305 -65 -305 -223q0 -66 45 -99.5t123 -33.5z" />
    <glyph glyph-name="atilde" unicode="&#xe3;" horiz-adv-x="1185" 
d="M891 1307q-71 0 -139 61l-43 35q-48 43 -84 43q-41 0 -71.5 -35t-39.5 -88h-152q23 126 104 204.5t183 78.5q32 0 60 -10t43 -20.5t36 -29.5l41 -35q41 -41 82 -41q38 0 66 33.5t37 87.5h151q-23 -134 -95.5 -209t-178.5 -75zM344 -35q-138 0 -227.5 66.5t-89.5 199.5
q0 80 35.5 146.5t99.5 113.5t143.5 79.5t177.5 52.5q27 5 77 15q42 8 62 12t54 12t50 13t41 14t36 17.5t26 20.5t21.5 25.5t11 31t4.5 37.5q0 77 -54.5 126.5t-147.5 49.5q-98 0 -179.5 -55.5t-128.5 -155.5l-184 66q52 109 140.5 182t186 104t203.5 31q93 0 167 -24
t126.5 -70.5t73.5 -122.5t4 -174l-76 -424q-22 -121 -27 -196.5t3 -157.5h-209q-2 32 -3 61.5t10 74.5t36 100h-31q-73 -132 -182.5 -201.5t-249.5 -69.5zM426 129q73 0 141 30t115.5 77t79.5 101t41 105l22 136q-50 -35 -107.5 -54t-154.5 -39q-305 -65 -305 -223
q0 -66 45 -99.5t123 -33.5z" />
    <glyph glyph-name="adieresis" unicode="&#xe4;" horiz-adv-x="1185" 
d="M543 1337q-49 0 -80 32t-31 79q0 62 47.5 109t110.5 47q48 0 79 -32t31 -77q0 -61 -47.5 -109.5t-109.5 -48.5zM936 1337q-50 0 -81.5 32t-31.5 79q0 62 48 109t110 47q48 0 79.5 -32t31.5 -77q0 -61 -47.5 -109.5t-108.5 -48.5zM344 -35q-138 0 -227.5 66.5t-89.5 199.5
q0 80 35.5 146.5t99.5 113.5t143.5 79.5t177.5 52.5q27 5 77 15q42 8 62 12t54 12t50 13t41 14t36 17.5t26 20.5t21.5 25.5t11 31t4.5 37.5q0 77 -54.5 126.5t-147.5 49.5q-98 0 -179.5 -55.5t-128.5 -155.5l-184 66q52 109 140.5 182t186 104t203.5 31q93 0 167 -24
t126.5 -70.5t73.5 -122.5t4 -174l-76 -424q-22 -121 -27 -196.5t3 -157.5h-209q-2 32 -3 61.5t10 74.5t36 100h-31q-73 -132 -182.5 -201.5t-249.5 -69.5zM426 129q73 0 141 30t115.5 77t79.5 101t41 105l22 136q-50 -35 -107.5 -54t-154.5 -39q-305 -65 -305 -223
q0 -66 45 -99.5t123 -33.5z" />
    <glyph glyph-name="aring" unicode="&#xe5;" horiz-adv-x="1185" 
d="M725 1251q-92 0 -149.5 54.5t-57.5 140.5q0 107 86 189.5t203 82.5q91 0 148 -53.5t57 -140.5q0 -107 -85 -190t-202 -83zM743 1364q60 0 103 42t43 101q0 42 -29 69.5t-74 27.5q-60 0 -102.5 -41.5t-42.5 -100.5q0 -44 28 -71t74 -27zM344 -35q-138 0 -227.5 66.5
t-89.5 199.5q0 80 35.5 146.5t99.5 113.5t143.5 79.5t177.5 52.5q27 5 77 15q42 8 62 12t54 12t50 13t41 14t36 17.5t26 20.5t21.5 25.5t11 31t4.5 37.5q0 77 -54.5 126.5t-147.5 49.5q-98 0 -179.5 -55.5t-128.5 -155.5l-184 66q52 109 140.5 182t186 104t203.5 31
q93 0 167 -24t126.5 -70.5t73.5 -122.5t4 -174l-76 -424q-22 -121 -27 -196.5t3 -157.5h-209q-2 32 -3 61.5t10 74.5t36 100h-31q-73 -132 -182.5 -201.5t-249.5 -69.5zM426 129q73 0 141 30t115.5 77t79.5 101t41 105l22 136q-50 -35 -107.5 -54t-154.5 -39
q-305 -65 -305 -223q0 -66 45 -99.5t123 -33.5z" />
    <glyph glyph-name="ae" unicode="&#xe6;" horiz-adv-x="2013" 
d="M348 -35q-145 0 -233 66.5t-88 197.5q0 73 29 134t73.5 102.5t107.5 74.5t121.5 51.5t124.5 31.5q30 6 83.5 15.5t81.5 15.5t69 16.5t62.5 22.5t44.5 30t32.5 42.5t9.5 55.5q0 79 -57 127.5t-147 48.5q-96 0 -177 -56.5t-129 -154.5l-184 66q51 107 139.5 180.5
t186.5 105t204 31.5q130 0 222.5 -54.5t117.5 -170.5q180 225 457 225q78 0 148 -19t134.5 -61.5t103.5 -110.5t55 -166t-9 -228l-10 -64h-893q-19 -165 66 -266.5t235 -101.5q117 0 218.5 65t164.5 174l180 -76q-91 -161 -249 -255.5t-347 -94.5q-167 0 -278.5 78
t-138.5 240h-29q-87 -154 -217.5 -236t-284.5 -82zM1063 676h668q8 85 -12 148t-61.5 97.5t-91 51t-106.5 16.5q-132 0 -238.5 -85t-158.5 -228zM424 127q71 0 139 30.5t117 78t81.5 102t41.5 104.5l22 136q-64 -39 -118.5 -57t-131.5 -29q-319 -63 -319 -228
q0 -67 46.5 -102t121.5 -35z" />
    <glyph glyph-name="ccedilla" unicode="&#xe7;" horiz-adv-x="1241" 
d="M590 160q121 0 223 68t168 186l180 -76q-91 -171 -243 -267.5t-334 -105.5q-36 -36 -138 -115l11 -12q66 41 123 41q69 0 113 -40t44 -109q0 -97 -85.5 -166.5t-209.5 -69.5q-80 0 -146 32t-101 89l88 84q27 -46 73.5 -70t98.5 -24q60 0 99.5 31t39.5 77q0 33 -27.5 53.5
t-70.5 20.5q-55 0 -97 -27l-61 60l123 151q-182 25 -287.5 150t-105.5 325q0 139 52.5 270.5t143 231.5t220 160.5t274.5 60.5q171 0 294.5 -86t157.5 -252l-211 -77q-20 107 -94 163t-180 56q-121 0 -222.5 -71t-157.5 -183.5t-56 -237.5q0 -149 82 -235t219 -86z" />
    <glyph glyph-name="egrave" unicode="&#xe8;" horiz-adv-x="1261" 
d="M858 1278h-180l-244 385h258zM547 -35q-218 0 -348.5 129t-130.5 346q0 142 53.5 276t144 233.5t217.5 159.5t267 60q77 0 146.5 -19t133 -61.5t102.5 -110.5t55 -166t-9 -228l-13 -70h-884q-20 -169 64.5 -265.5t236.5 -96.5q117 0 216.5 65t162.5 174l180 -76
q-89 -160 -247 -255t-347 -95zM322 686h661q10 79 -9 139t-59.5 95t-91 52t-110.5 17q-133 0 -238.5 -85t-152.5 -218z" />
    <glyph glyph-name="eacute" unicode="&#xe9;" horiz-adv-x="1261" 
d="M1217 1663l-379 -385h-181l301 385h259zM547 -35q-218 0 -348.5 129t-130.5 346q0 142 53.5 276t144 233.5t217.5 159.5t267 60q77 0 146.5 -19t133 -61.5t102.5 -110.5t55 -166t-9 -228l-13 -70h-884q-20 -169 64.5 -265.5t236.5 -96.5q117 0 216.5 65t162.5 174
l180 -76q-89 -160 -247 -255t-347 -95zM322 686h661q10 79 -9 139t-59.5 95t-91 52t-110.5 17q-133 0 -238.5 -85t-152.5 -218z" />
    <glyph glyph-name="ecircumflex" unicode="&#xea;" horiz-adv-x="1261" 
d="M545 1278h-197l361 364h231l234 -364h-197q-3 4 -17 23t-17.5 24t-16 22.5t-17 24.5t-15 23.5t-15.5 26t-13.5 25.5t-13.5 28.5t-10.5 28t-10.5 30.5h-47q-78 -121 -239 -256zM547 -35q-218 0 -348.5 129t-130.5 346q0 142 53.5 276t144 233.5t217.5 159.5t267 60
q77 0 146.5 -19t133 -61.5t102.5 -110.5t55 -166t-9 -228l-13 -70h-884q-20 -169 64.5 -265.5t236.5 -96.5q117 0 216.5 65t162.5 174l180 -76q-89 -160 -247 -255t-347 -95zM322 686h661q10 79 -9 139t-59.5 95t-91 52t-110.5 17q-133 0 -238.5 -85t-152.5 -218z" />
    <glyph glyph-name="edieresis" unicode="&#xeb;" horiz-adv-x="1261" 
d="M575 1337q-49 0 -79.5 32t-30.5 79q0 62 47.5 109t110.5 47q48 0 79 -32t31 -77q0 -61 -48 -109.5t-110 -48.5zM969 1337q-50 0 -81.5 32t-31.5 79q0 62 48 109t110 47q48 0 79 -32t31 -77q0 -61 -47 -109.5t-108 -48.5zM547 -35q-218 0 -348.5 129t-130.5 346
q0 142 53.5 276t144 233.5t217.5 159.5t267 60q77 0 146.5 -19t133 -61.5t102.5 -110.5t55 -166t-9 -228l-13 -70h-884q-20 -169 64.5 -265.5t236.5 -96.5q117 0 216.5 65t162.5 174l180 -76q-89 -160 -247 -255t-347 -95zM322 686h661q10 79 -9 139t-59.5 95t-91 52
t-110.5 17q-133 0 -238.5 -85t-152.5 -218z" />
    <glyph glyph-name="igrave" unicode="&#xec;" horiz-adv-x="530" 
d="M487 1268h-180l-244 385h259zM270 0h-207l199 1137h209z" />
    <glyph glyph-name="iacute" unicode="&#xed;" horiz-adv-x="530" 
d="M846 1653l-379 -385h-180l301 385h258zM270 0h-207l199 1137h209z" />
    <glyph glyph-name="icircumflex" unicode="&#xee;" horiz-adv-x="530" 
d="M174 1268h-197l361 364h231l234 -364h-197q-43 58 -59.5 82t-44 75t-41.5 99h-47q-77 -119 -240 -256zM270 0h-207l199 1137h209z" />
    <glyph glyph-name="idieresis" unicode="&#xef;" horiz-adv-x="530" 
d="M205 1327q-49 0 -80 32t-31 79q0 62 47.5 108.5t110.5 46.5q48 0 79 -31.5t31 -76.5q0 -61 -47.5 -109.5t-109.5 -48.5zM598 1327q-50 0 -81.5 32t-31.5 79q0 62 48 108.5t110 46.5q49 0 80 -31.5t31 -76.5q0 -61 -47.5 -109.5t-108.5 -48.5zM270 0h-207l199 1137h209z
" />
    <glyph glyph-name="eth" unicode="&#xf0;" horiz-adv-x="1331" 
d="M1219 1544l-185 -96q240 -228 240 -586q0 -138 -32 -269.5t-95.5 -244.5t-150.5 -199t-203.5 -135t-247.5 -49q-219 0 -351.5 127.5t-132.5 335.5q0 127 52 249.5t137.5 213.5t203 147t242.5 56q128 0 219.5 -61t157.5 -185h29q-61 313 -268 495l-306 -159l-45 106
l248 129q-99 64 -258 125l84 166q233 -78 379 -184l233 123zM575 156q87 0 166 37.5t135.5 99.5t89.5 145t33 172q0 137 -80 218t-210 81q-114 0 -212.5 -63t-156 -167t-57.5 -220q0 -135 78.5 -219t213.5 -84z" />
    <glyph glyph-name="ntilde" unicode="&#xf1;" horiz-adv-x="1300" 
d="M932 1307q-71 0 -139 61l-43 35q-48 43 -84 43q-41 0 -71.5 -35t-39.5 -88h-152q23 126 104 204.5t183 78.5q32 0 60 -10t43 -20.5t36 -29.5l41 -35q41 -41 82 -41q38 0 66 33.5t37 87.5h151q-23 -134 -95.5 -209t-178.5 -75zM270 0h-207l199 1137h205q0 -2 -3.5 -20
t-4.5 -23t-5 -22t-6.5 -25t-6.5 -24t-8.5 -28l-10.5 -28t-13.5 -31.5t-15.5 -32.5h31q170 266 432 266q81 0 146.5 -25t115 -79.5t65 -141t-2.5 -208.5l-125 -715h-209l110 623q29 166 -24.5 258t-179.5 92q-138 0 -242.5 -102.5t-132.5 -260.5z" />
    <glyph glyph-name="ograve" unicode="&#xf2;" horiz-adv-x="1312" 
d="M881 1278h-181l-243 385h258zM551 -35q-223 0 -353 130t-130 351q0 137 53 268.5t143.5 232t221.5 161.5t278 61q221 0 351 -131t130 -354q0 -137 -52 -267t-142 -230t-221 -161t-279 -61zM586 160q122 0 224.5 70.5t159 183.5t56.5 241q0 145 -80 231.5t-217 86.5
q-124 0 -226 -72t-157 -184.5t-55 -237.5q0 -147 79 -233t216 -86z" />
    <glyph glyph-name="oacute" unicode="&#xf3;" horiz-adv-x="1312" 
d="M1237 1663l-379 -385h-180l301 385h258zM551 -35q-223 0 -353 130t-130 351q0 137 53 268.5t143.5 232t221.5 161.5t278 61q221 0 351 -131t130 -354q0 -137 -52 -267t-142 -230t-221 -161t-279 -61zM586 160q122 0 224.5 70.5t159 183.5t56.5 241q0 145 -80 231.5
t-217 86.5q-124 0 -226 -72t-157 -184.5t-55 -237.5q0 -147 79 -233t216 -86z" />
    <glyph glyph-name="ocircumflex" unicode="&#xf4;" horiz-adv-x="1312" 
d="M565 1278h-196l360 364h232l233 -364h-197q-43 58 -59.5 82t-44 75t-41.5 99h-47q-77 -119 -240 -256zM551 -35q-223 0 -353 130t-130 351q0 137 53 268.5t143.5 232t221.5 161.5t278 61q221 0 351 -131t130 -354q0 -137 -52 -267t-142 -230t-221 -161t-279 -61zM586 160
q122 0 224.5 70.5t159 183.5t56.5 241q0 145 -80 231.5t-217 86.5q-124 0 -226 -72t-157 -184.5t-55 -237.5q0 -147 79 -233t216 -86z" />
    <glyph glyph-name="otilde" unicode="&#xf5;" horiz-adv-x="1312" 
d="M944 1307q-71 0 -139 61l-43 35q-48 43 -84 43q-41 0 -71.5 -35t-39.5 -88h-151q23 126 103.5 204.5t182.5 78.5q32 0 60 -10t43.5 -21t36.5 -29l41 -35q41 -41 82 -41q38 0 65.5 33t36.5 88h152q-23 -133 -96 -208.5t-179 -75.5zM551 -35q-223 0 -353 130t-130 351
q0 137 53 268.5t143.5 232t221.5 161.5t278 61q221 0 351 -131t130 -354q0 -137 -52 -267t-142 -230t-221 -161t-279 -61zM586 160q122 0 224.5 70.5t159 183.5t56.5 241q0 145 -80 231.5t-217 86.5q-124 0 -226 -72t-157 -184.5t-55 -237.5q0 -147 79 -233t216 -86z" />
    <glyph glyph-name="odieresis" unicode="&#xf6;" horiz-adv-x="1312" 
d="M598 1337q-49 0 -80 32t-31 79q0 62 47.5 109t110.5 47q48 0 79.5 -32t31.5 -77q0 -61 -48 -109.5t-110 -48.5zM991 1337q-50 0 -81 32t-31 79q0 63 47.5 109.5t109.5 46.5q48 0 79.5 -32t31.5 -77q0 -61 -47.5 -109.5t-108.5 -48.5zM551 -35q-223 0 -353 130t-130 351
q0 137 53 268.5t143.5 232t221.5 161.5t278 61q221 0 351 -131t130 -354q0 -137 -52 -267t-142 -230t-221 -161t-279 -61zM586 160q122 0 224.5 70.5t159 183.5t56.5 241q0 145 -80 231.5t-217 86.5q-124 0 -226 -72t-157 -184.5t-55 -237.5q0 -147 79 -233t216 -86z" />
    <glyph glyph-name="divide" unicode="&#xf7;" horiz-adv-x="1071" 
d="M588 842q-47 0 -78 31.5t-31 78.5q0 59 47.5 104.5t108.5 45.5q46 0 76 -30.5t30 -76.5q0 -58 -47 -105.5t-106 -47.5zM940 543h-817l31 168h817zM467 150q-48 0 -78.5 31.5t-30.5 76.5q0 60 47 106t107 46q47 0 78 -30t31 -75q0 -60 -47.5 -107.5t-106.5 -47.5z" />
    <glyph glyph-name="oslash" unicode="&#xf8;" horiz-adv-x="1312" 
d="M1141 1184h182l-172 -187q94 -126 94 -313q0 -137 -52 -267t-142 -230t-221 -161t-279 -61q-165 0 -281 72l-86 -94h-190l172 186q-98 128 -98 317q0 137 53 268.5t143.5 232t221.5 161.5t278 61q171 0 289 -79zM291 479q0 -103 39 -174l571 621q-68 47 -172 47
q-124 0 -226 -72t-157 -184.5t-55 -237.5zM1026 655q0 94 -35 166l-569 -618q67 -43 164 -43q122 0 224.5 70.5t159 183.5t56.5 241z" />
    <glyph glyph-name="ugrave" unicode="&#xf9;" horiz-adv-x="1284" 
d="M856 1278h-180l-244 385h258zM451 -35q-87 0 -154.5 26t-115.5 81.5t-62.5 142.5t4.5 209l125 713h209l-113 -639q-29 -169 28 -253.5t171 -84.5q91 0 169 51.5t125.5 130t63.5 168.5l111 627h209l-140 -783q-21 -120 -26 -199.5t2 -154.5h-209q-2 39 -1.5 71t11 73.5
t33.5 93.5h-31q-79 -146 -179 -209.5t-230 -63.5z" />
    <glyph glyph-name="uacute" unicode="&#xfa;" horiz-adv-x="1284" 
d="M1212 1663l-378 -385h-181l301 385h258zM451 -35q-87 0 -154.5 26t-115.5 81.5t-62.5 142.5t4.5 209l125 713h209l-113 -639q-29 -169 28 -253.5t171 -84.5q91 0 169 51.5t125.5 130t63.5 168.5l111 627h209l-140 -783q-21 -120 -26 -199.5t2 -154.5h-209q-2 39 -1.5 71
t11 73.5t33.5 93.5h-31q-79 -146 -179 -209.5t-230 -63.5z" />
    <glyph glyph-name="ucircumflex" unicode="&#xfb;" horiz-adv-x="1284" 
d="M541 1278h-197l361 364h231l233 -364h-196q-3 4 -17 23t-17.5 24t-16 22.5t-17 24.5t-15 23.5t-15.5 26t-13.5 25.5t-13.5 28.5t-10.5 28t-10.5 30.5h-47q-78 -121 -239 -256zM451 -35q-87 0 -154.5 26t-115.5 81.5t-62.5 142.5t4.5 209l125 713h209l-113 -639
q-29 -169 28 -253.5t171 -84.5q91 0 169 51.5t125.5 130t63.5 168.5l111 627h209l-140 -783q-21 -120 -26 -199.5t2 -154.5h-209q-2 39 -1.5 71t11 73.5t33.5 93.5h-31q-79 -146 -179 -209.5t-230 -63.5z" />
    <glyph glyph-name="udieresis" unicode="&#xfc;" horiz-adv-x="1284" 
d="M573 1337q-49 0 -79.5 32t-30.5 79q0 62 47.5 109t110.5 47q48 0 79 -32t31 -77q0 -61 -48 -109.5t-110 -48.5zM967 1337q-50 0 -81.5 32t-31.5 79q0 62 48 109t110 47q48 0 79 -32t31 -77q0 -61 -47 -109.5t-108 -48.5zM451 -35q-87 0 -154.5 26t-115.5 81.5
t-62.5 142.5t4.5 209l125 713h209l-113 -639q-29 -169 28 -253.5t171 -84.5q91 0 169 51.5t125.5 130t63.5 168.5l111 627h209l-140 -783q-21 -120 -26 -199.5t2 -154.5h-209q-2 39 -1.5 71t11 73.5t33.5 93.5h-31q-79 -146 -179 -209.5t-230 -63.5z" />
    <glyph glyph-name="yacute" unicode="&#xfd;" horiz-adv-x="1150" 
d="M1149 1663l-379 -385h-180l301 385h258zM340 -451h-213l238 420l-246 1168h229q56 -271 90.5 -485.5t57.5 -467.5h30q183 406 484 953h223z" />
    <glyph glyph-name="thorn" unicode="&#xfe;" horiz-adv-x="1361" 
d="M190 -451h-206l368 2089h207q-6 -35 -22.5 -129t-27 -149t-27.5 -139.5t-36.5 -163t-42.5 -156.5h31q176 268 445 268q191 0 303 -130t112 -343q0 -140 -51 -274t-136 -234t-203 -161.5t-245 -61.5q-126 0 -217 63t-129 191h-30q-3 -70 -9.5 -138.5t-18.5 -147t-19 -123
t-24 -138.5t-22 -123zM647 160q115 0 214.5 69.5t156.5 182.5t57 239q0 146 -77 234t-205 88q-115 0 -216.5 -69t-161 -182.5t-59.5 -238.5q0 -146 81.5 -234.5t209.5 -88.5z" />
    <glyph glyph-name="ydieresis" unicode="&#xff;" horiz-adv-x="1150" 
d="M510 1337q-49 0 -80 32t-31 79q0 62 47.5 109t110.5 47q48 0 79.5 -32t31.5 -77q0 -61 -48 -109.5t-110 -48.5zM903 1337q-50 0 -81 32t-31 79q0 63 47.5 109.5t109.5 46.5q48 0 79.5 -32t31.5 -77q0 -61 -47.5 -109.5t-108.5 -48.5zM340 -451h-213l238 420l-246 1168
h229q56 -271 90.5 -485.5t57.5 -467.5h30q183 406 484 953h223z" />
    <glyph glyph-name="Amacron" unicode="&#x100;" horiz-adv-x="1538" 
d="M1339 1798h-708l28 162h709zM145 0h-229l911 1597h252l344 -1597h-233q-74 310 -78 500l-18 20q-191 -31 -334 -31q-161 0 -330 31l-27 -22q-84 -197 -258 -498zM512 684l14 -20q144 30 273 30q126 0 243 -30l17 20q-53 193 -82 360t-33 357h-59q-132 -349 -373 -717z
" />
    <glyph glyph-name="amacron" unicode="&#x101;" horiz-adv-x="1185" 
d="M1090 1376h-689l29 156h688zM344 -35q-138 0 -227.5 66.5t-89.5 199.5q0 80 35.5 146.5t99.5 113.5t143.5 79.5t177.5 52.5q27 5 77 15q42 8 62 12t54 12t50 13t41 14t36 17.5t26 20.5t21.5 25.5t11 31t4.5 37.5q0 77 -54.5 126.5t-147.5 49.5q-98 0 -179.5 -55.5
t-128.5 -155.5l-184 66q52 109 140.5 182t186 104t203.5 31q93 0 167 -24t126.5 -70.5t73.5 -122.5t4 -174l-76 -424q-22 -121 -27 -196.5t3 -157.5h-209q-2 32 -3 61.5t10 74.5t36 100h-31q-73 -132 -182.5 -201.5t-249.5 -69.5zM426 129q73 0 141 30t115.5 77t79.5 101
t41 105l22 136q-50 -35 -107.5 -54t-154.5 -39q-305 -65 -305 -223q0 -66 45 -99.5t123 -33.5z" />
    <glyph glyph-name="Abreve" unicode="&#x102;" horiz-adv-x="1538" 
d="M973 1720q-167 0 -258.5 102.5t-71.5 241.5h182q-10 -74 37 -131t135 -57q90 0 158 56t86 132h180q-29 -140 -154.5 -242t-293.5 -102zM145 0h-229l911 1597h252l344 -1597h-233q-74 310 -78 500l-18 20q-191 -31 -334 -31q-161 0 -330 31l-27 -22q-84 -197 -258 -498z
M512 684l14 -20q144 30 273 30q126 0 243 -30l17 20q-53 193 -82 360t-33 357h-59q-132 -349 -373 -717z" />
    <glyph glyph-name="abreve" unicode="&#x103;" horiz-adv-x="1185" 
d="M725 1272q-171 0 -253.5 110.5t-57.5 284.5h174q-15 -105 30 -172.5t138 -67.5t161.5 67.5t90.5 172.5h176q-38 -178 -163.5 -286.5t-295.5 -108.5zM344 -35q-138 0 -227.5 66.5t-89.5 199.5q0 80 35.5 146.5t99.5 113.5t143.5 79.5t177.5 52.5q27 5 77 15q42 8 62 12
t54 12t50 13t41 14t36 17.5t26 20.5t21.5 25.5t11 31t4.5 37.5q0 77 -54.5 126.5t-147.5 49.5q-98 0 -179.5 -55.5t-128.5 -155.5l-184 66q52 109 140.5 182t186 104t203.5 31q93 0 167 -24t126.5 -70.5t73.5 -122.5t4 -174l-76 -424q-22 -121 -27 -196.5t3 -157.5h-209
q-2 32 -3 61.5t10 74.5t36 100h-31q-73 -132 -182.5 -201.5t-249.5 -69.5zM426 129q73 0 141 30t115.5 77t79.5 101t41 105l22 136q-50 -35 -107.5 -54t-154.5 -39q-305 -65 -305 -223q0 -66 45 -99.5t123 -33.5z" />
    <glyph glyph-name="Aogonek" unicode="&#x104;" horiz-adv-x="1538" 
d="M1141 -209q0 -52 37.5 -84.5t105.5 -32.5q44 0 92 13l-24 -133q-58 -17 -121 -17q-109 0 -180.5 50t-71.5 143q0 91 62 160.5t151 109.5h-2q-74 310 -78 500l-18 20q-191 -31 -334 -31q-161 0 -330 31l-27 -22q-84 -197 -258 -498h-229l911 1597h252l344 -1597h-75
q-89 -25 -148 -83.5t-59 -125.5zM1042 664l17 20q-53 193 -82 360t-33 357h-59q-132 -349 -373 -717l14 -20q144 30 273 30q126 0 243 -30z" />
    <glyph glyph-name="aogonek" unicode="&#x105;" horiz-adv-x="1185" 
d="M702 1169q93 0 167 -24t126.5 -70.5t73.5 -122.5t4 -174l-76 -424q-22 -121 -27 -196.5t3 -157.5h-60q-88 -28 -144 -85.5t-56 -123.5q0 -50 36 -80t97 -30q45 0 94 16l-27 -146q-55 -14 -108 -14q-112 0 -182 51t-70 144q0 91 63.5 162t149.5 106h-2q-2 32 -3 61.5
t10 74.5t36 100h-31q-73 -132 -182.5 -201.5t-249.5 -69.5q-138 0 -227.5 66.5t-89.5 199.5q0 80 35.5 146.5t99.5 113.5t143.5 79.5t177.5 52.5q27 5 77 15q42 8 62 12t54 12t50 13t41 14t36 17.5t26 20.5t21.5 25.5t11 31t4.5 37.5q0 77 -54.5 126.5t-147.5 49.5
q-98 0 -179.5 -55.5t-128.5 -155.5l-184 66q52 109 140.5 182t186 104t203.5 31zM803 442l22 136q-50 -35 -107.5 -54t-154.5 -39q-305 -65 -305 -223q0 -66 45 -99.5t123 -33.5q73 0 141 30t115.5 77t79.5 101t41 105z" />
    <glyph glyph-name="Cacute" unicode="&#x106;" horiz-adv-x="1708" 
d="M1554 2060l-391 -340h-190l307 340h274zM805 -35q-313 0 -499.5 180.5t-186.5 489.5q0 192 76 374t204 318.5t308.5 219.5t377.5 83q248 0 421 -127.5t212 -355.5l-217 -82q-37 166 -156.5 262t-297.5 96q-116 0 -224 -42t-192.5 -115.5t-148 -169t-97 -207.5t-33.5 -225
q0 -101 27.5 -184.5t74.5 -139.5t111 -94.5t135.5 -56t149.5 -17.5q145 0 271.5 61t213.5 156.5t146 220.5l190 -71q-134 -271 -359 -422.5t-507 -151.5z" />
    <glyph glyph-name="cacute" unicode="&#x107;" horiz-adv-x="1241" 
d="M1198 1663l-379 -385h-180l301 385h258zM551 -35q-221 0 -352 128t-131 353q0 139 52.5 270.5t143 231.5t220 160.5t274.5 60.5q171 0 294.5 -86t157.5 -252l-211 -77q-20 107 -94 163t-180 56q-121 0 -222.5 -71t-157.5 -183.5t-56 -237.5q0 -149 82 -235t219 -86
q121 0 223 68t168 186l180 -76q-95 -179 -257 -276t-353 -97z" />
    <glyph glyph-name="Cdotaccent" unicode="&#x10a;" horiz-adv-x="1708" 
d="M1085 1772q-54 0 -87 32.5t-33 85.5q0 66 52 117t120 51q53 0 86.5 -33t33.5 -83q0 -66 -52.5 -118t-119.5 -52zM805 -35q-313 0 -499.5 180.5t-186.5 489.5q0 192 76 374t204 318.5t308.5 219.5t377.5 83q248 0 421 -127.5t212 -355.5l-217 -82q-37 166 -156.5 262
t-297.5 96q-116 0 -224 -42t-192.5 -115.5t-148 -169t-97 -207.5t-33.5 -225q0 -101 27.5 -184.5t74.5 -139.5t111 -94.5t135.5 -56t149.5 -17.5q145 0 271.5 61t213.5 156.5t146 220.5l190 -71q-134 -271 -359 -422.5t-507 -151.5z" />
    <glyph glyph-name="cdotaccent" unicode="&#x10b;" horiz-adv-x="1241" 
d="M760 1370q-53 0 -86 34t-33 87q0 66 51.5 117t120.5 51q52 0 85.5 -34t33.5 -85q0 -66 -52.5 -118t-119.5 -52zM551 -35q-221 0 -352 128t-131 353q0 139 52.5 270.5t143 231.5t220 160.5t274.5 60.5q171 0 294.5 -86t157.5 -252l-211 -77q-20 107 -94 163t-180 56
q-121 0 -222.5 -71t-157.5 -183.5t-56 -237.5q0 -149 82 -235t219 -86q121 0 223 68t168 186l180 -76q-95 -179 -257 -276t-353 -97z" />
    <glyph glyph-name="Ccaron" unicode="&#x10c;" horiz-adv-x="1708" 
d="M1192 1720h-229l-218 330h193q35 -41 52 -63t40 -69.5t35 -102.5h59q29 54 69.5 102.5t63 68.5t74.5 64h195zM805 -35q-313 0 -499.5 180.5t-186.5 489.5q0 192 76 374t204 318.5t308.5 219.5t377.5 83q248 0 421 -127.5t212 -355.5l-217 -82q-37 166 -156.5 262
t-297.5 96q-116 0 -224 -42t-192.5 -115.5t-148 -169t-97 -207.5t-33.5 -225q0 -101 27.5 -184.5t74.5 -139.5t111 -94.5t135.5 -56t149.5 -17.5q145 0 271.5 61t213.5 156.5t146 220.5l190 -71q-134 -271 -359 -422.5t-507 -151.5z" />
    <glyph glyph-name="ccaron" unicode="&#x10d;" horiz-adv-x="1241" 
d="M860 1288h-231l-230 373h195q6 -9 24.5 -35.5t25.5 -37t22 -33.5t23 -37.5t19 -36t19.5 -42t15.5 -42.5h43q20 30 40 57t50.5 59t44 45.5t56.5 54t51 48.5h195zM551 -35q-221 0 -352 128t-131 353q0 139 52.5 270.5t143 231.5t220 160.5t274.5 60.5q171 0 294.5 -86
t157.5 -252l-211 -77q-20 107 -94 163t-180 56q-121 0 -222.5 -71t-157.5 -183.5t-56 -237.5q0 -149 82 -235t219 -86q121 0 223 68t168 186l180 -76q-95 -179 -257 -276t-353 -97z" />
    <glyph glyph-name="Dcaron" unicode="&#x10e;" horiz-adv-x="1638" 
d="M1081 1720h-229l-217 330h192q35 -41 52 -63t40 -69.5t35 -102.5h60q29 54 69.5 102.5t63 68.5t74.5 64h194zM700 0h-606l283 1597h588q165 0 288 -44t198 -126.5t111.5 -193t36.5 -250.5q0 -150 -41 -294.5t-120 -268.5t-186.5 -218.5t-250 -148t-301.5 -53.5zM317 195
l23 -29q165 37 344 37q129 0 240 38t191.5 105.5t137.5 158.5t85 197t28 222q0 471 -475 471q-112 0 -181 6t-147 29l-31 -19q-41 -623 -215 -1216z" />
    <glyph glyph-name="dcaron" unicode="&#x10f;" horiz-adv-x="1366" 
d="M1556 1139h-126q40 57 67 92.5t73 85.5t97 92q-115 26 -115 111q0 65 52.5 116.5t121.5 51.5q52 0 86.5 -34t34.5 -85q0 -49 -42 -111t-205 -264q-29 -36 -44 -55zM496 -35q-199 0 -313.5 127.5t-114.5 343.5q0 188 85 356.5t233.5 272.5t320.5 104q279 0 340 -286h30
q26 322 107 755h207l-226 -1284q-23 -129 -27.5 -210t1.5 -144h-207q-3 64 3 113t30 120h-29q-54 -95 -129 -156.5t-151 -86.5t-160 -25zM571 162q115 0 216.5 69t161 182.5t59.5 239.5q0 146 -81 234t-210 88q-115 0 -214 -70.5t-155.5 -184t-56.5 -239.5q0 -145 75.5 -232
t204.5 -87z" />
    <glyph glyph-name="Dcroat" unicode="&#x110;" horiz-adv-x="1638" 
d="M377 1597h588q165 0 288 -44t198 -126.5t111.5 -193t36.5 -250.5q0 -150 -41 -294.5t-120 -268.5t-186.5 -218.5t-250 -148t-301.5 -53.5h-606l125 709h-188l30 178h191zM684 203q129 0 240 38t191.5 105.5t137.5 158.5t85 197t28 222q0 471 -475 471q-112 0 -181 6
t-147 29l-31 -19q-20 -288 -59 -524h440l-30 -178h-441q-50 -262 -125 -514l23 -29q165 37 344 37z" />
    <glyph glyph-name="dcroat" unicode="&#x111;" horiz-adv-x="1366" 
d="M1360 1460h264l-29 -160h-264l-166 -946q-23 -129 -27.5 -210t1.5 -144h-207q-3 64 3 113t30 120h-29q-54 -95 -129 -156.5t-151 -86.5t-160 -25q-199 0 -313.5 127.5t-114.5 343.5q0 188 85 356.5t233.5 272.5t320.5 104q279 0 340 -286h30q16 211 49 417h-276l29 160
h272q5 30 16.5 89.5t16.5 88.5h207zM571 162q115 0 216.5 69t161 182.5t59.5 239.5q0 146 -81 234t-210 88q-115 0 -214 -70.5t-155.5 -184t-56.5 -239.5q0 -145 75.5 -232t204.5 -87z" />
    <glyph glyph-name="Emacron" unicode="&#x112;" horiz-adv-x="1337" 
d="M1264 1798h-709l29 162h708zM1139 0h-1045l283 1597h1024l-37 -202h-107h-115.5t-106 1t-118.5 3t-110 6t-124 10t-120 15l-31 -19q0 -249 -86 -514l17 -23q136 22 283 33t241.5 13t251.5 2l-37 -211q-164 0 -254 1.5t-234 13t-270 34.5l-26 -23q-12 -287 -101 -542
l23 -29q144 19 304 28.5t257.5 11t272.5 1.5z" />
    <glyph glyph-name="emacron" unicode="&#x113;" horiz-adv-x="1261" 
d="M1122 1376h-688l29 156h688zM547 -35q-218 0 -348.5 129t-130.5 346q0 142 53.5 276t144 233.5t217.5 159.5t267 60q77 0 146.5 -19t133 -61.5t102.5 -110.5t55 -166t-9 -228l-13 -70h-884q-20 -169 64.5 -265.5t236.5 -96.5q117 0 216.5 65t162.5 174l180 -76
q-89 -160 -247 -255t-347 -95zM322 686h661q10 79 -9 139t-59.5 95t-91 52t-110.5 17q-133 0 -238.5 -85t-152.5 -218z" />
    <glyph glyph-name="Edotaccent" unicode="&#x116;" horiz-adv-x="1337" 
d="M901 1772q-54 0 -87.5 32.5t-33.5 85.5q0 66 52 117t120 51q53 0 87 -33t34 -83q0 -66 -52.5 -118t-119.5 -52zM1139 0h-1045l283 1597h1024l-37 -202h-107h-115.5t-106 1t-118.5 3t-110 6t-124 10t-120 15l-31 -19q0 -249 -86 -514l17 -23q136 22 283 33t241.5 13
t251.5 2l-37 -211q-164 0 -254 1.5t-234 13t-270 34.5l-26 -23q-12 -287 -101 -542l23 -29q144 19 304 28.5t257.5 11t272.5 1.5z" />
    <glyph glyph-name="edotaccent" unicode="&#x117;" horiz-adv-x="1261" 
d="M776 1370q-53 0 -86 34t-33 87q0 66 51.5 117t120.5 51q52 0 85.5 -34t33.5 -85q0 -66 -52.5 -118t-119.5 -52zM547 -35q-218 0 -348.5 129t-130.5 346q0 142 53.5 276t144 233.5t217.5 159.5t267 60q77 0 146.5 -19t133 -61.5t102.5 -110.5t55 -166t-9 -228l-13 -70
h-884q-20 -169 64.5 -265.5t236.5 -96.5q117 0 216.5 65t162.5 174l180 -76q-89 -160 -247 -255t-347 -95zM322 686h661q10 79 -9 139t-59.5 95t-91 52t-110.5 17q-133 0 -238.5 -85t-152.5 -218z" />
    <glyph glyph-name="Eogonek" unicode="&#x118;" horiz-adv-x="1337" 
d="M563 1430l-31 -19q0 -249 -86 -514l17 -23q136 22 283 33t241.5 13t251.5 2l-37 -211q-164 0 -254 1.5t-234 13t-270 34.5l-26 -23q-12 -287 -101 -542l23 -29q144 19 304 28.5t257.5 11t272.5 1.5l-35 -207q-89 -25 -148 -83.5t-59 -125.5q0 -52 37.5 -84.5t105.5 -32.5
q44 0 92 13l-24 -133q-58 -17 -121 -17q-109 0 -180.5 50t-71.5 143q0 91 62 160.5t151 109.5h-889l283 1597h1024l-37 -202h-107h-115.5t-106 1t-118.5 3t-110 6t-124 10t-120 15z" />
    <glyph glyph-name="eogonek" unicode="&#x119;" horiz-adv-x="1261" 
d="M750 1169q77 0 146.5 -19t133 -61.5t102.5 -110.5t55 -166t-9 -228l-13 -70h-884q-20 -169 64.5 -265.5t236.5 -96.5q117 0 216.5 65t162.5 174l180 -76q-66 -118 -172.5 -202.5t-237.5 -122.5q-77 -30 -125.5 -84t-48.5 -115q0 -50 36 -80t97 -30q45 0 94 16l-26 -146
q-55 -14 -109 -14q-112 0 -182 51t-70 144q0 72 41 132.5t105 100.5q-216 2 -345.5 130.5t-129.5 344.5q0 142 53.5 276t144 233.5t217.5 159.5t267 60zM322 686h661q10 79 -9 139t-59.5 95t-91 52t-110.5 17q-133 0 -238.5 -85t-152.5 -218z" />
    <glyph glyph-name="Ecaron" unicode="&#x11a;" horiz-adv-x="1337" 
d="M1008 1720h-230l-217 330h193q35 -41 52 -63t40 -69.5t35 -102.5h59q29 54 69.5 102.5t63 68.5t74.5 64h194zM1139 0h-1045l283 1597h1024l-37 -202h-107h-115.5t-106 1t-118.5 3t-110 6t-124 10t-120 15l-31 -19q0 -249 -86 -514l17 -23q136 22 283 33t241.5 13t251.5 2
l-37 -211q-164 0 -254 1.5t-234 13t-270 34.5l-26 -23q-12 -287 -101 -542l23 -29q144 19 304 28.5t257.5 11t272.5 1.5z" />
    <glyph glyph-name="ecaron" unicode="&#x11b;" horiz-adv-x="1261" 
d="M879 1288h-232l-229 373h194q6 -9 28.5 -41t30 -43.5t25 -39t26 -45.5t20.5 -43.5t20 -51.5h43q20 30 40 57t50.5 59t44 45.5t56.5 54t51 48.5h194zM547 -35q-218 0 -348.5 129t-130.5 346q0 142 53.5 276t144 233.5t217.5 159.5t267 60q77 0 146.5 -19t133 -61.5
t102.5 -110.5t55 -166t-9 -228l-13 -70h-884q-20 -169 64.5 -265.5t236.5 -96.5q117 0 216.5 65t162.5 174l180 -76q-89 -160 -247 -255t-347 -95zM322 686h661q10 79 -9 139t-59.5 95t-91 52t-110.5 17q-133 0 -238.5 -85t-152.5 -218z" />
    <glyph glyph-name="Gbreve" unicode="&#x11e;" horiz-adv-x="1785" 
d="M1079 1720q-167 0 -258 102.5t-71 241.5h182q-10 -74 37 -131t135 -57q90 0 158 56t86 132h180q-29 -140 -155 -242t-294 -102zM778 -35q-295 0 -477 177t-182 487q0 193 75.5 376t203 320.5t307.5 221t378 83.5q250 0 424.5 -129t210.5 -354l-217 -82
q-39 167 -157 262.5t-295 95.5q-145 0 -276 -65t-222 -170.5t-145 -243.5t-54 -280q0 -103 28.5 -187.5t77 -140t113.5 -93.5t135 -54.5t146 -16.5q208 0 382.5 126.5t289.5 354.5l-19 27q-242 -62 -551 -62l33 185h713l-141 -803h-175q2 14 7.5 56t9.5 66t12 62.5
t19.5 75.5t27.5 76l-35 8q-233 -379 -647 -379z" />
    <glyph glyph-name="gbreve" unicode="&#x11f;" horiz-adv-x="1363" 
d="M793 1272q-171 0 -254 110.5t-58 284.5h174q-15 -105 30 -172.5t138 -67.5t161.5 67.5t90.5 172.5h176q-38 -178 -163.5 -286.5t-294.5 -108.5zM469 -483q-86 0 -158 16.5t-136 53t-108 102.5t-61 157l201 66q45 -217 293 -217q334 0 413 399q1 4 4 20t3.5 19.5t3.5 17
t4.5 18.5t4.5 16.5t6 18t7.5 17.5t9.5 20.5t11 20.5h-29q-163 -258 -430 -258q-196 0 -315 123.5t-119 337.5q0 138 52 268t137.5 225t201.5 153t237 58q138 0 225.5 -74.5t112.5 -211.5h31q4 106 29 254h203l-177 -1008q-24 -135 -71 -241t-108 -175t-139.5 -113.5
t-161.5 -63.5t-177 -19zM580 199q113 0 213 67t158.5 175t58.5 225q0 138 -82 223.5t-211 85.5q-112 0 -210.5 -66.5t-155 -173.5t-56.5 -225q0 -138 79 -224.5t206 -86.5z" />
    <glyph glyph-name="Gdotaccent" unicode="&#x120;" horiz-adv-x="1785" 
d="M1085 1772q-54 0 -87 32.5t-33 85.5q0 66 52 117t120 51q53 0 86.5 -33t33.5 -83q0 -66 -52.5 -118t-119.5 -52zM778 -35q-295 0 -477 177t-182 487q0 193 75.5 376t203 320.5t307.5 221t378 83.5q250 0 424.5 -129t210.5 -354l-217 -82q-39 167 -157 262.5t-295 95.5
q-145 0 -276 -65t-222 -170.5t-145 -243.5t-54 -280q0 -103 28.5 -187.5t77 -140t113.5 -93.5t135 -54.5t146 -16.5q208 0 382.5 126.5t289.5 354.5l-19 27q-242 -62 -551 -62l33 185h713l-141 -803h-175q2 14 7.5 56t9.5 66t12 62.5t19.5 75.5t27.5 76l-35 8
q-233 -379 -647 -379z" />
    <glyph glyph-name="gdotaccent" unicode="&#x121;" horiz-adv-x="1363" 
d="M811 1370q-53 0 -86 34t-33 87q0 66 51.5 117t120.5 51q52 0 85.5 -34t33.5 -85q0 -66 -52.5 -118t-119.5 -52zM469 -483q-86 0 -158 16.5t-136 53t-108 102.5t-61 157l201 66q45 -217 293 -217q334 0 413 399q1 4 4 20t3.5 19.5t3.5 17t4.5 18.5t4.5 16.5t6 18t7.5 17.5
t9.5 20.5t11 20.5h-29q-163 -258 -430 -258q-196 0 -315 123.5t-119 337.5q0 138 52 268t137.5 225t201.5 153t237 58q138 0 225.5 -74.5t112.5 -211.5h31q4 106 29 254h203l-177 -1008q-24 -135 -71 -241t-108 -175t-139.5 -113.5t-161.5 -63.5t-177 -19zM580 199
q113 0 213 67t158.5 175t58.5 225q0 138 -82 223.5t-211 85.5q-112 0 -210.5 -66.5t-155 -173.5t-56.5 -225q0 -138 79 -224.5t206 -86.5z" />
    <glyph glyph-name="uni0122" unicode="&#x122;" horiz-adv-x="1785" 
d="M778 -35q-295 0 -477 177t-182 487q0 193 75.5 376t203 320.5t307.5 221t378 83.5q250 0 424.5 -129t210.5 -354l-217 -82q-39 167 -157 262.5t-295 95.5q-145 0 -276 -65t-222 -170.5t-145 -243.5t-54 -280q0 -103 28.5 -187.5t77 -140t113.5 -93.5t135 -54.5t146 -16.5
q208 0 382.5 126.5t289.5 354.5l-19 27q-242 -62 -551 -62l33 185h713l-141 -803h-175q2 14 7.5 56t9.5 66t12 62.5t19.5 75.5t27.5 76l-35 8q-233 -379 -647 -379zM657 -582h-110q49 71 92.5 121.5t105.5 100.5q-58 0 -88 27.5t-30 72.5q0 60 46 103.5t109 43.5
q50 0 80.5 -29.5t30.5 -78.5q0 -12 -1.5 -23t-7.5 -25t-11.5 -25t-18.5 -30.5t-23.5 -34t-32 -42.5t-38 -49t-48 -61t-55.5 -71z" />
    <glyph glyph-name="uni0123" unicode="&#x123;" horiz-adv-x="1363" 
d="M666 1372q0 44 33.5 97t150.5 205q46 59 72 93h120q-95 -146 -206 -278q49 4 72.5 -18.5t23.5 -63.5q0 -60 -44 -101.5t-108 -41.5q-52 0 -83 30t-31 78zM469 -483q-86 0 -158 16.5t-136 53t-108 102.5t-61 157l201 66q45 -217 293 -217q334 0 413 399q1 4 4 20t3.5 19.5
t3.5 17t4.5 18.5t4.5 16.5t6 18t7.5 17.5t9.5 20.5t11 20.5h-29q-163 -258 -430 -258q-196 0 -315 123.5t-119 337.5q0 138 52 268t137.5 225t201.5 153t237 58q138 0 225.5 -74.5t112.5 -211.5h31q4 106 29 254h203l-177 -1008q-24 -135 -71 -241t-108 -175t-139.5 -113.5
t-161.5 -63.5t-177 -19zM580 199q113 0 213 67t158.5 175t58.5 225q0 138 -82 223.5t-211 85.5q-112 0 -210.5 -66.5t-155 -173.5t-56.5 -225q0 -138 79 -224.5t206 -86.5z" />
    <glyph glyph-name="Hbar" unicode="&#x126;" horiz-adv-x="1658" 
d="M1599 1315h142l-31 -174h-141l-203 -1141h-221q79 446 153 711l-24 22q-408 -77 -830 0l-30 -22q-3 -48 -8 -98.5t-9 -89t-11.5 -93t-12 -84t-14.5 -89.5t-13.5 -81.5t-15.5 -89.5t-15 -86h-221l203 1141h-147l30 174h148l49 282h221q-50 -267 -53 -282h833l49 282h222z
M1298 870l31 21q8 113 25 250h-846q-27 -122 -64 -250l23 -21q235 33 432 33t399 -33z" />
    <glyph glyph-name="hbar" unicode="&#x127;" horiz-adv-x="1300" 
d="M854 1169q81 0 146.5 -25t115.5 -79.5t66 -141t-2 -208.5l-125 -715h-209l110 623q29 166 -24 258t-178 92q-139 0 -244 -102t-133 -261l-107 -610h-207l230 1296h-207l29 160h204l33 182h207q-8 -51 -35 -182h336l-29 -160h-339q-46 -215 -99 -393h31q170 266 430 266z
" />
    <glyph glyph-name="Imacron" unicode="&#x12a;" horiz-adv-x="608" 
d="M874 1798h-708l29 162h708zM315 0h-221l283 1597h221z" />
    <glyph glyph-name="imacron" unicode="&#x12b;" horiz-adv-x="530" 
d="M752 1366h-689l29 156h688zM270 0h-207l199 1137h209z" />
    <glyph glyph-name="Iogonek" unicode="&#x12e;" horiz-adv-x="608" 
d="M111 -209q0 -52 37.5 -84.5t105.5 -32.5q44 0 92 13l-24 -133q-58 -17 -121 -17q-109 0 -180.5 50t-71.5 143q0 91 62 160.5t151 109.5h-68l283 1597h221l-283 -1597h2q-89 -25 -147.5 -83.5t-58.5 -125.5z" />
    <glyph glyph-name="iogonek" unicode="&#x12f;" horiz-adv-x="530" 
d="M459 1649q52 0 85.5 -34t33.5 -85q0 -66 -52.5 -118t-119.5 -52q-53 0 -86 34t-33 87q0 66 51.5 117t120.5 51zM270 0h-20q-88 -28 -144.5 -85.5t-56.5 -123.5q0 -50 36 -80t97 -30q45 0 94 16l-26 -146q-55 -14 -109 -14q-112 0 -182 51t-70 144q0 91 63.5 162
t149.5 106h-39l199 1137h209z" />
    <glyph glyph-name="Idotaccent" unicode="&#x130;" horiz-adv-x="608" 
d="M514 1772q-54 0 -87.5 32.5t-33.5 85.5q0 66 52 117t120 51q53 0 87 -33t34 -83q0 -66 -52.5 -118t-119.5 -52zM315 0h-221l283 1597h221z" />
    <glyph glyph-name="dotlessi" unicode="&#x131;" horiz-adv-x="530" 
d="M270 0h-207l199 1137h209z" />
    <glyph glyph-name="uni0136" unicode="&#x136;" horiz-adv-x="1409" 
d="M315 0h-221l283 1597h221q-3 -16 -23 -129t-26 -142t-25.5 -123.5t-33.5 -146t-37.5 -131t-49.5 -153.5h31q379 369 883 825h262q-40 -36 -174.5 -158t-204.5 -185t-187 -165t-218 -186l-7 -33q140 -193 265.5 -397.5t277.5 -472.5h-268q-267 454 -406 743h-22
q-134 -141 -242 -206q-16 -182 -78 -537zM518 -582h-110q49 71 92.5 121.5t105.5 100.5q-58 0 -88.5 27.5t-30.5 72.5q0 60 46.5 103.5t109.5 43.5q50 0 80.5 -29.5t30.5 -78.5q0 -12 -1.5 -23t-7.5 -25t-11.5 -25t-18.5 -30.5t-23.5 -34t-32 -42.5t-38 -49t-48 -61
t-55.5 -71z" />
    <glyph glyph-name="uni0137" unicode="&#x137;" horiz-adv-x="1114" 
d="M270 0h-207l289 1638h207q-39 -232 -60.5 -353t-61.5 -312t-83 -357h29q165 167 264 261.5t285 259.5h250l-531 -455q34 -53 71.5 -114.5t64.5 -107t69 -120t61 -109t66 -120.5t61 -111h-243q-180 341 -283 561q-88 -107 -196 -184q-9 -142 -52 -377zM348 -582h-110
q49 71 92.5 121.5t105.5 100.5q-58 0 -88.5 27.5t-30.5 72.5q0 60 46.5 103.5t109.5 43.5q50 0 80.5 -29.5t30.5 -78.5q0 -12 -1.5 -23t-7.5 -25t-11.5 -25t-18.5 -30.5t-23.5 -34t-32 -42.5t-38 -49t-48 -61t-55.5 -71z" />
    <glyph glyph-name="Lacute" unicode="&#x139;" horiz-adv-x="1200" 
d="M1032 2060l-391 -340h-190l307 340h274zM1079 0h-985l283 1597h221q-54 -305 -84 -466.5t-86 -435t-111 -500.5l23 -29q133 19 281.5 28.5t239.5 11t253 1.5z" />
    <glyph glyph-name="lacute" unicode="&#x13a;" horiz-adv-x="530" 
d="M979 2101l-391 -340h-191l308 340h274zM270 0h-207l289 1638h207z" />
    <glyph glyph-name="uni013B" unicode="&#x13b;" horiz-adv-x="1200" 
d="M1079 0h-985l283 1597h221q-54 -305 -84 -466.5t-86 -435t-111 -500.5l23 -29q133 19 281.5 28.5t239.5 11t253 1.5zM406 -582h-111q98 141 199 222q-58 0 -88.5 27.5t-30.5 72.5q0 60 46 103.5t109 43.5q50 0 80.5 -29.5t30.5 -78.5q0 -11 -2 -21.5t-4.5 -20.5t-10 -24
t-13.5 -25t-19.5 -29.5t-24 -33t-31 -41t-36 -46t-44 -56t-50.5 -64.5z" />
    <glyph glyph-name="uni013C" unicode="&#x13c;" horiz-adv-x="530" 
d="M270 0h-207l289 1638h207zM29 -582h-111q98 141 199 222q-58 0 -88.5 27.5t-30.5 72.5q0 60 46.5 103.5t109.5 43.5q50 0 80 -29.5t30 -78.5q0 -11 -2 -21.5t-4.5 -20.5t-10 -24t-13.5 -25t-19.5 -29.5t-24 -33t-31 -41t-36 -46t-44 -56t-50.5 -64.5z" />
    <glyph glyph-name="Lcaron" unicode="&#x13d;" horiz-adv-x="1200" 
d="M971 1102h-127q44 61 67.5 92.5t71 83.5t98.5 94q-114 26 -114 111q0 65 52.5 116.5t121.5 51.5q52 0 86.5 -34.5t34.5 -84.5q0 -49 -42 -111.5t-192 -248.5q-37 -45 -57 -70zM1079 0h-985l283 1597h221q-54 -305 -84 -466.5t-86 -435t-111 -500.5l23 -29
q133 19 281.5 28.5t239.5 11t253 1.5z" />
    <glyph glyph-name="lcaron" unicode="&#x13e;" horiz-adv-x="530" 
d="M758 1102h-127q44 61 67.5 92.5t71 83.5t98.5 94q-114 26 -114 111q0 65 52.5 116.5t121.5 51.5q52 0 86.5 -34.5t34.5 -84.5q0 -49 -42 -111.5t-192 -248.5q-37 -45 -57 -70zM270 0h-207l289 1638h207z" />
    <glyph glyph-name="Lslash" unicode="&#x141;" horiz-adv-x="1200" 
d="M317 195l23 -29q133 19 281.5 28.5t239.5 11t253 1.5l-35 -207h-985l131 735l-182 -78l33 189l182 78l119 673h221q-69 -383 -104 -571l280 121l-35 -189l-282 -120q-66 -341 -140 -643z" />
    <glyph glyph-name="lslash" unicode="&#x142;" horiz-adv-x="530" 
d="M463 1087l207 134l-33 -183l-207 -131l-160 -907h-207l134 758l-211 -135l32 182l211 135l123 698h207z" />
    <glyph glyph-name="Nacute" unicode="&#x143;" horiz-adv-x="1681" 
d="M1503 2060l-391 -340h-190l307 340h274zM315 0h-221l283 1597h203q196 -336 349.5 -639t295.5 -647h30q23 222 58 463t62.5 403t74.5 420h221l-282 -1597h-203q-209 355 -362.5 644.5t-288.5 612.5h-31q-9 -86 -19.5 -176.5t-19 -157t-24 -169t-22.5 -148t-26.5 -161.5
t-24 -142t-28 -158t-25.5 -145z" />
    <glyph glyph-name="nacute" unicode="&#x144;" horiz-adv-x="1300" 
d="M1227 1663l-379 -385h-180l301 385h258zM270 0h-207l199 1137h205q0 -2 -3.5 -20t-4.5 -23t-5 -22t-6.5 -25t-6.5 -24t-8.5 -28l-10.5 -28t-13.5 -31.5t-15.5 -32.5h31q170 266 432 266q81 0 146.5 -25t115 -79.5t65 -141t-2.5 -208.5l-125 -715h-209l110 623
q29 166 -24.5 258t-179.5 92q-138 0 -242.5 -102.5t-132.5 -260.5z" />
    <glyph glyph-name="uni0145" unicode="&#x145;" horiz-adv-x="1681" 
d="M315 0h-221l283 1597h203q196 -336 349.5 -639t295.5 -647h30q23 222 58 463t62.5 403t74.5 420h221l-282 -1597h-203q-209 355 -362.5 644.5t-288.5 612.5h-31q-9 -86 -19.5 -176.5t-19 -157t-24 -169t-22.5 -148t-26.5 -161.5t-24 -142t-28 -158t-25.5 -145zM627 -582
h-111q98 141 199 222q-58 0 -88.5 27.5t-30.5 72.5q0 60 46.5 103.5t109.5 43.5q50 0 80 -29.5t30 -78.5q0 -11 -2 -21.5t-4.5 -20.5t-10 -24t-13.5 -25t-19.5 -29.5t-24 -33t-31 -41t-36 -46t-44 -56t-50.5 -64.5z" />
    <glyph glyph-name="uni0146" unicode="&#x146;" horiz-adv-x="1300" 
d="M270 0h-207l199 1137h205q0 -2 -3.5 -20t-4.5 -23t-5 -22t-6.5 -25t-6.5 -24t-8.5 -28l-10.5 -28t-13.5 -31.5t-15.5 -32.5h31q170 266 432 266q81 0 146.5 -25t115 -79.5t65 -141t-2.5 -208.5l-125 -715h-209l110 623q29 166 -24.5 258t-179.5 92q-138 0 -242.5 -102.5
t-132.5 -260.5zM455 -582h-111q98 141 199 222q-58 0 -88.5 27.5t-30.5 72.5q0 60 46.5 103.5t109.5 43.5q50 0 80 -29.5t30 -78.5q0 -11 -2 -21.5t-4.5 -20.5t-10 -24t-13.5 -25t-19.5 -29.5t-24 -33t-31 -41t-36 -46t-44 -56t-50.5 -64.5z" />
    <glyph glyph-name="Ncaron" unicode="&#x147;" horiz-adv-x="1681" 
d="M1139 1720h-230l-217 330h193q35 -41 52 -63t40 -69.5t35 -102.5h59q29 54 69.5 102.5t63 68.5t74.5 64h195zM315 0h-221l283 1597h203q196 -336 349.5 -639t295.5 -647h30q23 222 58 463t62.5 403t74.5 420h221l-282 -1597h-203q-209 355 -362.5 644.5t-288.5 612.5h-31
q-9 -86 -19.5 -176.5t-19 -157t-24 -169t-22.5 -148t-26.5 -161.5t-24 -142t-28 -158t-25.5 -145z" />
    <glyph glyph-name="ncaron" unicode="&#x148;" horiz-adv-x="1300" 
d="M887 1288h-232l-229 373h195q6 -9 24.5 -35.5t25.5 -37t22 -33.5t23 -37.5t19 -36t19.5 -42t15.5 -42.5h43q20 30 40 57t50.5 59t44 45.5t56.5 54t51 48.5h194zM270 0h-207l199 1137h205q0 -2 -3.5 -20t-4.5 -23t-5 -22t-6.5 -25t-6.5 -24t-8.5 -28l-10.5 -28
t-13.5 -31.5t-15.5 -32.5h31q170 266 432 266q81 0 146.5 -25t115 -79.5t65 -141t-2.5 -208.5l-125 -715h-209l110 623q29 166 -24.5 258t-179.5 92q-138 0 -242.5 -102.5t-132.5 -260.5z" />
    <glyph glyph-name="Eng" unicode="&#x14a;" horiz-adv-x="1681" 
d="M858 -483q-74 0 -149.5 14t-114.5 35l33 188q67 -49 211 -49q265 0 329 320q-208 358 -353 631.5t-284 580.5h-28q-8 -82 -18.5 -169.5t-19 -153.5t-23.5 -164.5t-22.5 -146t-26.5 -158.5t-24 -142.5t-27 -157t-26 -145.5h-221l283 1597h203q379 -649 649 -1265h31
q30 305 75 593t115 672h221l-276 -1552q-92 -528 -537 -528z" />
    <glyph glyph-name="eng" unicode="&#x14b;" horiz-adv-x="1300" 
d="M623 -483q-125 0 -211 49l32 184q80 -49 170 -49q29 0 54.5 6.5t44.5 16t36 27.5t28.5 32.5t22 39.5t16 40t12 43.5t9 40.5t7.5 39l112 637q29 166 -23.5 258t-178.5 92q-138 0 -243.5 -102.5t-133.5 -260.5l-107 -610h-207l199 1137h205q0 -2 -3.5 -20t-4.5 -23t-5 -22
t-6.5 -25t-6.5 -24t-8.5 -28l-10.5 -28t-13.5 -31.5t-15.5 -32.5h31q170 266 432 266q80 0 146 -25t115.5 -79t66 -139t-1.5 -205l-129 -735q-8 -41 -12.5 -64t-15.5 -67t-21.5 -71t-30 -67t-40.5 -64.5t-52.5 -53t-68 -44.5t-85 -27t-104.5 -11z" />
    <glyph glyph-name="Omacron" unicode="&#x14c;" horiz-adv-x="1792" 
d="M1464 1798h-708l28 162h709zM791 -35q-194 0 -347 83t-240 237.5t-87 355.5q0 151 49.5 299t140 271t209.5 218t266 148t301 53q197 0 350.5 -86t238.5 -241t85 -353q0 -151 -50 -298.5t-141 -270t-210 -217t-265.5 -147t-299.5 -52.5zM829 172q136 0 264 63.5t221 166.5
t149.5 240t56.5 278q0 223 -131 363t-340 140q-180 0 -341.5 -106t-257.5 -279t-96 -362q0 -225 133.5 -364.5t341.5 -139.5z" />
    <glyph glyph-name="omacron" unicode="&#x14d;" horiz-adv-x="1312" 
d="M1143 1376h-688l28 156h688zM551 -35q-223 0 -353 130t-130 351q0 137 53 268.5t143.5 232t221.5 161.5t278 61q221 0 351 -131t130 -354q0 -137 -52 -267t-142 -230t-221 -161t-279 -61zM586 160q122 0 224.5 70.5t159 183.5t56.5 241q0 145 -80 231.5t-217 86.5
q-124 0 -226 -72t-157 -184.5t-55 -237.5q0 -147 79 -233t216 -86z" />
    <glyph glyph-name="Ohungarumlaut" unicode="&#x150;" horiz-adv-x="1792" 
d="M1319 2060l-352 -340h-185l277 340h260zM1710 2060l-364 -340h-183l287 340h260zM791 -35q-194 0 -347 83t-240 237.5t-87 355.5q0 151 49.5 299t140 271t209.5 218t266 148t301 53q197 0 350.5 -86t238.5 -241t85 -353q0 -151 -50 -298.5t-141 -270t-210 -217
t-265.5 -147t-299.5 -52.5zM829 172q136 0 264 63.5t221 166.5t149.5 240t56.5 278q0 223 -131 363t-340 140q-180 0 -341.5 -106t-257.5 -279t-96 -362q0 -225 133.5 -364.5t341.5 -139.5z" />
    <glyph glyph-name="ohungarumlaut" unicode="&#x151;" horiz-adv-x="1312" 
d="M1001 1673l-368 -395h-176l291 395h253zM1397 1673l-379 -395h-178l303 395h254zM551 -35q-223 0 -353 130t-130 351q0 137 53 268.5t143.5 232t221.5 161.5t278 61q221 0 351 -131t130 -354q0 -137 -52 -267t-142 -230t-221 -161t-279 -61zM586 160q122 0 224.5 70.5
t159 183.5t56.5 241q0 145 -80 231.5t-217 86.5q-124 0 -226 -72t-157 -184.5t-55 -237.5q0 -147 79 -233t216 -86z" />
    <glyph glyph-name="OE" unicode="&#x152;" horiz-adv-x="2615" 
d="M786 -35q-141 0 -263.5 47t-212.5 132.5t-141.5 213.5t-51.5 281q0 190 78 372t207.5 317.5t308 218.5t368.5 83q179 0 316.5 -79.5t212.5 -219.5l47 266h1024l-37 -202h-105.5h-115t-106 1t-119 3t-110 6t-124 10t-119.5 15l-33 -19q0 -255 -86 -514l25 -23
q133 22 278.5 33t240 13t251.5 2l-39 -211q-162 0 -252 1.5t-232.5 13t-266.5 34.5l-31 -23q-14 -286 -101 -542l25 -29q143 19 302.5 28.5t257.5 11t274 1.5l-39 -207h-1043l47 264q-126 -141 -291.5 -220t-343.5 -79zM825 172q136 0 264 64t219.5 168t147 241.5
t55.5 278.5q0 223 -129 361t-335 138q-181 0 -342 -106t-256 -279t-95 -364q0 -224 132 -363t339 -139z" />
    <glyph glyph-name="oe" unicode="&#x153;" horiz-adv-x="2197" 
d="M551 -35q-223 0 -353 130.5t-130 353.5q0 138 53 269t144 230.5t222 160t277 60.5q153 0 261.5 -67.5t156.5 -186.5q89 119 219.5 186.5t279.5 67.5q65 0 125 -13t117 -41.5t99 -74.5t71.5 -111t34.5 -150.5t-12 -194.5l-9 -47h-890q-23 -172 61.5 -278.5t234.5 -106.5
q117 0 218.5 65t164.5 174l181 -76q-91 -161 -249 -255.5t-349 -94.5q-153 0 -263.5 66.5t-156.5 185.5q-93 -120 -224.5 -186t-283.5 -66zM1247 676h668q8 85 -12.5 148.5t-61.5 98.5t-90.5 51.5t-105.5 16.5q-133 0 -239.5 -86.5t-158.5 -228.5zM586 160q122 0 224 70.5
t158 183t56 239.5q0 147 -79 233.5t-216 86.5q-123 0 -225 -71t-157.5 -183.5t-55.5 -237.5q0 -148 79 -234.5t216 -86.5z" />
    <glyph glyph-name="Racute" unicode="&#x154;" horiz-adv-x="1427" 
d="M1329 2060l-391 -340h-190l307 340h274zM315 0h-221l283 1597h588q22 0 42.5 -1t70 -8.5t90 -21.5t90.5 -44t84 -70.5t57.5 -106t23.5 -147.5q0 -218 -145.5 -368.5t-384.5 -167.5l-4 -29q25 -34 48.5 -68.5t47 -73.5t41 -67.5t41.5 -73.5t36.5 -68t38 -74t34 -67.5
t36 -72.5t33.5 -68h-246l-303 616q-166 7 -295 48q-12 -236 -86 -664zM424 776l22 -20q132 37 342 37q171 0 285.5 102.5t114.5 253.5q0 126 -85 187t-214 61q-201 0 -326 33l-31 -19q-11 -307 -108 -635z" />
    <glyph glyph-name="racute" unicode="&#x155;" horiz-adv-x="862" 
d="M1055 1663l-379 -385h-180l301 385h258zM270 0h-207l199 1137h205q-1 -9 -6 -41t-8.5 -49t-11 -48t-18.5 -63t-26 -68h31q68 148 172 224.5t225 76.5q63 0 117 -22l-41 -229q-59 24 -139 24q-72 0 -134 -27t-105.5 -71t-78 -103t-55 -118.5t-31.5 -122.5z" />
    <glyph glyph-name="uni0156" unicode="&#x156;" horiz-adv-x="1427" 
d="M315 0h-221l283 1597h588q22 0 42.5 -1t70 -8.5t90 -21.5t90.5 -44t84 -70.5t57.5 -106t23.5 -147.5q0 -218 -145.5 -368.5t-384.5 -167.5l-4 -29q25 -34 48.5 -68.5t47 -73.5t41 -67.5t41.5 -73.5t36.5 -68t38 -74t34 -67.5t36 -72.5t33.5 -68h-246l-303 616
q-166 7 -295 48q-12 -236 -86 -664zM424 776l22 -20q132 37 342 37q171 0 285.5 102.5t114.5 253.5q0 126 -85 187t-214 61q-201 0 -326 33l-31 -19q-11 -307 -108 -635zM473 -582h-111q98 141 199 222q-58 0 -88.5 27.5t-30.5 72.5q0 60 46.5 103.5t109.5 43.5
q50 0 80.5 -29.5t30.5 -78.5q0 -12 -1.5 -23t-7.5 -25t-11.5 -25t-18.5 -30.5t-23.5 -34t-32 -42.5t-38 -49t-48 -61t-55.5 -71z" />
    <glyph glyph-name="uni0157" unicode="&#x157;" horiz-adv-x="862" 
d="M270 0h-207l199 1137h205q-1 -9 -6 -41t-8.5 -49t-11 -48t-18.5 -63t-26 -68h31q68 148 172 224.5t225 76.5q63 0 117 -22l-41 -229q-59 24 -139 24q-72 0 -134 -27t-105.5 -71t-78 -103t-55 -118.5t-31.5 -122.5zM23 -582h-111q98 141 199 222q-58 0 -88.5 27.5
t-30.5 72.5q0 60 46 103.5t109 43.5q50 0 80.5 -29.5t30.5 -78.5q0 -11 -2 -21.5t-4.5 -20.5t-10 -24t-13.5 -25t-19.5 -29.5t-24 -33t-31 -41t-36 -46t-44 -56t-50.5 -64.5z" />
    <glyph glyph-name="Rcaron" unicode="&#x158;" horiz-adv-x="1427" 
d="M967 1720h-230l-217 330h193q35 -41 52 -63t40 -69.5t35 -102.5h59q29 54 69.5 102.5t63 68.5t74.5 64h194zM315 0h-221l283 1597h588q22 0 42.5 -1t70 -8.5t90 -21.5t90.5 -44t84 -70.5t57.5 -106t23.5 -147.5q0 -218 -145.5 -368.5t-384.5 -167.5l-4 -29
q25 -34 48.5 -68.5t47 -73.5t41 -67.5t41.5 -73.5t36.5 -68t38 -74t34 -67.5t36 -72.5t33.5 -68h-246l-303 616q-166 7 -295 48q-12 -236 -86 -664zM424 776l22 -20q132 37 342 37q171 0 285.5 102.5t114.5 253.5q0 126 -85 187t-214 61q-201 0 -326 33l-31 -19
q-11 -307 -108 -635z" />
    <glyph glyph-name="rcaron" unicode="&#x159;" horiz-adv-x="862" 
d="M717 1288h-232l-229 373h195q6 -9 24.5 -35.5t25.5 -37t22 -33.5t23 -37.5t19 -36t19.5 -42t15.5 -42.5h43q20 30 40 57t50.5 59t44 45.5t56.5 54t51 48.5h194zM270 0h-207l199 1137h205q-1 -9 -6 -41t-8.5 -49t-11 -48t-18.5 -63t-26 -68h31q68 148 172 224.5t225 76.5
q63 0 117 -22l-41 -229q-59 24 -139 24q-72 0 -134 -27t-105.5 -71t-78 -103t-55 -118.5t-31.5 -122.5z" />
    <glyph glyph-name="Sacute" unicode="&#x15a;" horiz-adv-x="1325" 
d="M1286 2062l-393 -342h-188l305 342h276zM578 -35q-105 0 -195 28t-163 83.5t-119 147.5t-56 212l217 72q16 -172 112.5 -256t239.5 -84q159 0 267 86t108 207q0 41 -15 73.5t-37 54t-57 39.5t-65 28.5t-72 23.5l-10.5 3.5t-9.5 2.5l-137 45q-36 12 -63 22t-67 29
t-69.5 39t-61.5 50t-52.5 64t-34 79.5t-13.5 97.5q0 100 47 194.5t127.5 166t196 114.5t244.5 43q213 0 339 -107.5t140 -269.5l-215 -82q-19 120 -98 189.5t-207 69.5q-141 0 -238.5 -78t-97.5 -185q0 -43 19 -79.5t44 -60t66 -45.5t68 -32.5t67 -23.5l154 -52
q128 -44 178 -71q174 -95 174 -283q0 -105 -49.5 -205.5t-135 -177.5t-209 -124.5t-261.5 -47.5z" />
    <glyph glyph-name="sacute" unicode="&#x15b;" horiz-adv-x="1028" 
d="M1087 1665l-378 -385h-181l301 385h258zM424 -35q-177 0 -289 87t-131 233l203 61q24 -99 94 -154t160 -55q97 0 165 54t68 131q0 26 -10.5 47t-22 33.5t-39.5 26t-41 18.5t-49 16q-8 3 -12 4l-108 33q-105 34 -155 70q-109 78 -110 210q0 158 134 273.5t329 115.5
q155 0 254 -78.5t117 -203.5l-207 -66q-13 76 -64 126t-139 50t-148.5 -49.5t-60.5 -120.5q0 -29 13.5 -53.5t31.5 -40t49.5 -30.5t53 -23t55.5 -18l94 -29q110 -33 159 -66q103 -70 104 -198q0 -162 -143 -283t-355 -121z" />
    <glyph glyph-name="Scedilla" unicode="&#x15e;" horiz-adv-x="1325" 
d="M727 926l154 -52q128 -44 178 -71q174 -95 174 -283q0 -100 -46 -196.5t-125 -173t-193.5 -126.5t-243.5 -57q-45 -45 -138 -117l11 -12q66 41 123 41q69 0 113 -40t44 -109q0 -97 -85.5 -166.5t-209.5 -69.5q-80 0 -146 32t-101 89l88 84q27 -46 73.5 -70t98.5 -24
q60 0 99.5 31t39.5 77q0 33 -27.5 53.5t-70.5 20.5q-55 0 -97 -27l-61 60l123 149q-191 20 -315 136.5t-142 330.5l217 72q16 -172 112.5 -256t239.5 -84q159 0 267 86t108 207q0 41 -15 73.5t-37 54t-57 39.5t-65 28.5t-72 23.5l-10.5 3.5t-9.5 2.5l-137 45q-36 12 -63 22
t-67 29t-69.5 39t-61.5 50t-52.5 64t-34 79.5t-13.5 97.5q0 100 47 194.5t127.5 166t196 114.5t244.5 43q213 0 339 -107.5t140 -269.5l-215 -82q-19 120 -98 189.5t-207 69.5q-141 0 -238.5 -78t-97.5 -185q0 -43 19 -79.5t44 -60t66 -45.5t68 -32.5t67 -23.5z" />
    <glyph glyph-name="scedilla" unicode="&#x15f;" horiz-adv-x="1028" 
d="M565 662l94 -29q110 -33 159 -66q103 -70 104 -198q0 -154 -129.5 -271.5t-325.5 -130.5q-49 -49 -137 -117l10 -12q66 41 123 41q69 0 113.5 -40t44.5 -109q0 -97 -85.5 -166.5t-209.5 -69.5q-80 0 -146.5 32t-101.5 89l88 84q27 -46 73.5 -70t98.5 -24q60 0 99.5 31
t39.5 77q0 33 -27.5 53.5t-70.5 20.5q-54 0 -96 -27l-62 60l123 149q-144 20 -233.5 104t-106.5 212l203 61q24 -99 94 -154t160 -55q97 0 165 54t68 131q0 26 -10.5 47t-22 33.5t-39.5 26t-41 18.5t-49 16q-8 3 -12 4l-108 33q-105 34 -155 70q-109 78 -110 210
q0 158 134 273.5t329 115.5q155 0 254 -78.5t117 -203.5l-207 -66q-13 76 -64 126t-139 50t-148.5 -49.5t-60.5 -120.5q0 -29 13.5 -53.5t31.5 -40t49.5 -30.5t53 -23t55.5 -18z" />
    <glyph glyph-name="Scaron" unicode="&#x160;" horiz-adv-x="1325" 
d="M971 1720h-230l-217 330h193q35 -41 52 -63t40 -69.5t35 -102.5h59q29 54 69.5 102.5t63 68.5t74.5 64h195zM578 -35q-105 0 -195 28t-163 83.5t-119 147.5t-56 212l217 72q16 -172 112.5 -256t239.5 -84q159 0 267 86t108 207q0 41 -15 73.5t-37 54t-57 39.5t-65 28.5
t-72 23.5l-10.5 3.5t-9.5 2.5l-137 45q-36 12 -63 22t-67 29t-69.5 39t-61.5 50t-52.5 64t-34 79.5t-13.5 97.5q0 100 47 194.5t127.5 166t196 114.5t244.5 43q213 0 339 -107.5t140 -269.5l-215 -82q-19 120 -98 189.5t-207 69.5q-141 0 -238.5 -78t-97.5 -185
q0 -43 19 -79.5t44 -60t66 -45.5t68 -32.5t67 -23.5l154 -52q128 -44 178 -71q174 -95 174 -283q0 -105 -49.5 -205.5t-135 -177.5t-209 -124.5t-261.5 -47.5z" />
    <glyph glyph-name="scaron" unicode="&#x161;" horiz-adv-x="1028" 
d="M750 1288h-232l-229 373h194q6 -9 28.5 -41t30 -43.5t25 -39t26 -45.5t20.5 -43.5t20 -51.5h43q20 30 40 57t50.5 59t44 45.5t56.5 54t51 48.5h194zM424 -35q-177 0 -289 87t-131 233l203 61q24 -99 94 -154t160 -55q97 0 165 54t68 131q0 26 -10.5 47t-22 33.5t-39.5 26
t-41 18.5t-49 16q-8 3 -12 4l-108 33q-105 34 -155 70q-109 78 -110 210q0 158 134 273.5t329 115.5q155 0 254 -78.5t117 -203.5l-207 -66q-13 76 -64 126t-139 50t-148.5 -49.5t-60.5 -120.5q0 -29 13.5 -53.5t31.5 -40t49.5 -30.5t53 -23t55.5 -18l94 -29
q110 -33 159 -66q103 -70 104 -198q0 -162 -143 -283t-355 -121z" />
    <glyph glyph-name="uni0162" unicode="&#x162;" horiz-adv-x="1298" 
d="M172 1395l35 202h1249l-35 -202q-121 0 -180 1t-163 8t-195 21q-10 -84 -20.5 -164.5t-24 -172t-22 -152.5t-25.5 -166t-24 -148t-27.5 -162.5t-25.5 -146t-28.5 -162.5t-26.5 -151h-45q-51 -61 -168 -150l11 -12q66 41 123 41q69 0 113 -40t44 -109q0 -97 -85.5 -166.5
t-209.5 -69.5q-80 0 -146 32t-101 89l88 84q27 -46 73.5 -70t98.5 -24q60 0 99.5 31t39.5 77q0 33 -27.5 53.5t-70.5 20.5q-55 0 -97 -27l-61 60l147 180h-47q61 340 87 482t84 428t112 515q-96 -14 -203.5 -21t-166.5 -8t-179 -1z" />
    <glyph glyph-name="uni0163" unicode="&#x163;" horiz-adv-x="827" 
d="M879 1137l-33 -189q-219 0 -352 27q-8 -160 -23 -269t-28 -150t-23 -97t-10 -129q0 -95 23.5 -135.5t98.5 -40.5q91 0 183 51l-33 -191q-94 -49 -219 -49q-31 0 -45 2q-49 -49 -137 -117l10 -12q66 41 123 41q69 0 113 -40t44 -109q0 -97 -85.5 -166.5t-209.5 -69.5
q-80 0 -146 32t-101 89l88 84q27 -46 73.5 -70t98.5 -24q60 0 99.5 31t39.5 77q0 33 -27.5 53.5t-70.5 20.5q-55 0 -97 -27l-61 60l141 172q-38 17 -64.5 43t-38.5 60t-18 63.5t-2.5 71.5t6 63.5t9.5 58.5q28 152 39.5 213t40 183.5t61.5 226.5q-111 -27 -260 -27l33 189
q150 0 250 -27q-1 23 -1 44.5t1 44.5t1.5 39.5t3.5 41.5t4 37t5.5 39t5.5 35.5t6 38.5l6 36h207q0 -2 -5 -30t-6 -33t-6 -31t-7 -35t-7.5 -33t-9 -37t-10 -35.5t-12 -40t-13.5 -39t-16 -42.5q145 27 363 27z" />
    <glyph glyph-name="Tcaron" unicode="&#x164;" horiz-adv-x="1298" 
d="M969 1720h-230l-217 330h193q35 -41 52 -63t40 -69.5t35 -102.5h59q29 54 69.5 102.5t63 68.5t74.5 64h195zM659 0h-221q61 340 87 482t84 428t112 515q-96 -14 -203.5 -21t-166.5 -8t-179 -1l35 202h1249l-35 -202q-121 0 -180 1t-163 8t-195 21q-10 -84 -20.5 -164.5
t-24 -172t-22 -152.5t-25.5 -166t-24 -148t-27.5 -162.5t-25.5 -146t-28.5 -162.5t-26.5 -151z" />
    <glyph glyph-name="tcaron" unicode="&#x165;" horiz-adv-x="827" 
d="M1077 1112h-125q57 83 110 145.5t128 124.5q-117 23 -117 109q0 65 52.5 116.5t121.5 51.5q53 0 87 -33.5t34 -85.5t-48.5 -121.5t-242.5 -306.5zM463 -35q-53 0 -95.5 9.5t-71.5 24t-50 39t-32.5 46.5t-17.5 54.5t-7 56t2 58t6 52.5t8 47q28 152 39.5 213t40 183.5
t61.5 226.5q-111 -27 -260 -27l33 189q150 0 250 -27q-1 23 -1 44.5t1 44.5t1.5 39.5t3.5 41.5t4 37t5.5 39t5.5 35.5t6 38.5l6 36h207q0 -2 -5 -30t-6 -33t-6 -31t-7 -35t-7.5 -33t-9 -37t-10 -35.5t-12 -40t-13.5 -39t-16 -42.5q145 27 363 27l-33 -189q-219 0 -352 27
q-8 -160 -23 -269t-28 -150t-23 -97t-10 -129q0 -95 23.5 -135.5t98.5 -40.5q91 0 183 51l-33 -191q-94 -49 -219 -49z" />
    <glyph glyph-name="Tbar" unicode="&#x166;" horiz-adv-x="1298" 
d="M1456 1597l-35 -202q-121 0 -180 1t-163 8t-195 21q-37 -301 -74 -538h324l-31 -178h-322q-22 -135 -121 -709h-221q84 464 131 709h-319l31 178h323q54 273 117 538q-96 -14 -203.5 -21t-166.5 -8t-179 -1l35 202h1249z" />
    <glyph glyph-name="tbar" unicode="&#x167;" horiz-adv-x="827" 
d="M879 1137l-33 -189q-219 0 -352 27q-8 -169 -25 -285h319l-28 -160h-324l-3 -12q-22 -102 -23 -188q0 -95 23.5 -135.5t98.5 -40.5q91 0 183 51l-33 -191q-94 -49 -219 -49q-53 0 -95.5 9.5t-71.5 24t-50 39t-32.5 46.5t-17.5 54.5t-7 56t2 58t6 52.5t8 47t16.5 88.5
t16.5 89.5h-224l29 160h227q31 143 76 285q-111 -27 -260 -27l33 189q150 0 250 -27q-1 23 -1 44.5t1 44.5t1.5 39.5t3.5 41.5t4 37t5.5 39t5.5 35.5t6 38.5l6 36h207q0 -2 -5 -30t-6 -33t-6 -31t-7 -35t-7.5 -33t-9 -37t-10 -35.5t-12 -40t-13.5 -39t-16 -42.5
q145 27 363 27z" />
    <glyph glyph-name="Umacron" unicode="&#x16a;" horiz-adv-x="1533" 
d="M1341 1798h-708l29 162h708zM659 -35q-107 0 -191.5 23t-140.5 66t-93 101t-52 130.5t-14.5 150.5t16.5 166l176 995h220l-172 -979q-37 -206 32 -327t258 -121q98 0 177 34.5t133 96.5t89 141t52 176l172 979h221l-176 -995q-18 -99 -49 -185.5t-88 -171.5t-133 -145.5
t-188.5 -97.5t-248.5 -37z" />
    <glyph glyph-name="umacron" unicode="&#x16b;" horiz-adv-x="1284" 
d="M1118 1376h-688l29 156h688zM451 -35q-87 0 -154.5 26t-115.5 81.5t-62.5 142.5t4.5 209l125 713h209l-113 -639q-29 -169 28 -253.5t171 -84.5q91 0 169 51.5t125.5 130t63.5 168.5l111 627h209l-140 -783q-21 -120 -26 -199.5t2 -154.5h-209q-2 39 -1.5 71t11 73.5
t33.5 93.5h-31q-79 -146 -179 -209.5t-230 -63.5z" />
    <glyph glyph-name="Uring" unicode="&#x16e;" horiz-adv-x="1533" 
d="M971 1712q-91 0 -148 54.5t-57 140.5q0 107 85 189.5t202 82.5q91 0 147.5 -53.5t56.5 -140.5q0 -107 -84.5 -190t-201.5 -83zM989 1825q60 0 103 42t43 101q0 42 -29 69t-74 27q-60 0 -102.5 -41.5t-42.5 -99.5q0 -44 28 -71t74 -27zM659 -35q-107 0 -191.5 23
t-140.5 66t-93 101t-52 130.5t-14.5 150.5t16.5 166l176 995h220l-172 -979q-37 -206 32 -327t258 -121q98 0 177 34.5t133 96.5t89 141t52 176l172 979h221l-176 -995q-18 -99 -49 -185.5t-88 -171.5t-133 -145.5t-188.5 -97.5t-248.5 -37z" />
    <glyph glyph-name="uring" unicode="&#x16f;" horiz-adv-x="1284" 
d="M754 1251q-92 0 -149.5 54.5t-57.5 140.5q0 107 86 189.5t203 82.5q91 0 147.5 -53.5t56.5 -140.5q0 -107 -84.5 -190t-201.5 -83zM772 1364q60 0 103 42t43 101q0 42 -29 69.5t-74 27.5q-60 0 -102.5 -41.5t-42.5 -100.5q0 -44 28 -71t74 -27zM451 -35q-87 0 -154.5 26
t-115.5 81.5t-62.5 142.5t4.5 209l125 713h209l-113 -639q-29 -169 28 -253.5t171 -84.5q91 0 169 51.5t125.5 130t63.5 168.5l111 627h209l-140 -783q-21 -120 -26 -199.5t2 -154.5h-209q-2 39 -1.5 71t11 73.5t33.5 93.5h-31q-79 -146 -179 -209.5t-230 -63.5z" />
    <glyph glyph-name="Uhungarumlaut" unicode="&#x170;" horiz-adv-x="1533" 
d="M1196 2060l-352 -340h-185l277 340h260zM1587 2060l-364 -340h-183l287 340h260zM659 -35q-107 0 -191.5 23t-140.5 66t-93 101t-52 130.5t-14.5 150.5t16.5 166l176 995h220l-172 -979q-37 -206 32 -327t258 -121q98 0 177 34.5t133 96.5t89 141t52 176l172 979h221
l-176 -995q-18 -99 -49 -185.5t-88 -171.5t-133 -145.5t-188.5 -97.5t-248.5 -37z" />
    <glyph glyph-name="uhungarumlaut" unicode="&#x171;" horiz-adv-x="1284" 
d="M977 1673l-369 -395h-176l291 395h254zM1372 1673l-379 -395h-178l303 395h254zM451 -35q-87 0 -154.5 26t-115.5 81.5t-62.5 142.5t4.5 209l125 713h209l-113 -639q-29 -169 28 -253.5t171 -84.5q91 0 169 51.5t125.5 130t63.5 168.5l111 627h209l-140 -783
q-21 -120 -26 -199.5t2 -154.5h-209q-2 39 -1.5 71t11 73.5t33.5 93.5h-31q-79 -146 -179 -209.5t-230 -63.5z" />
    <glyph glyph-name="Uogonek" unicode="&#x172;" horiz-adv-x="1533" 
d="M1149 618l172 979h221l-176 -995q-16 -88 -42.5 -167t-73 -157.5t-108 -138t-150.5 -103.5t-197 -61q-63 -32 -102.5 -81.5t-39.5 -102.5q0 -51 38 -84t106 -33q44 0 92 13l-25 -133q-58 -17 -121 -17q-109 0 -180 50t-71 143q0 142 149 235q-104 2 -185.5 26.5
t-135.5 67.5t-89.5 100.5t-49.5 129t-13.5 149t16.5 164.5l176 995h220l-172 -979q-37 -206 32 -327t258 -121q98 0 177 34.5t133 96.5t89 141t52 176z" />
    <glyph glyph-name="uogonek" unicode="&#x173;" horiz-adv-x="1284" 
d="M1012 1137h209l-140 -783q-21 -120 -26 -199.5t2 -154.5h-60q-88 -28 -144 -85.5t-56 -123.5q0 -50 36 -80t97 -30q45 0 94 16l-27 -146q-55 -14 -108 -14q-112 0 -182 51t-70 144q0 91 63.5 162t149.5 106h-2q-2 39 -1.5 71t11 73.5t33.5 93.5h-31q-79 -146 -179 -209.5
t-230 -63.5q-87 0 -154.5 26t-115.5 81.5t-62.5 142.5t4.5 209l125 713h209l-113 -639q-29 -169 28 -253.5t171 -84.5q91 0 169 51.5t125.5 130t63.5 168.5z" />
    <glyph glyph-name="Wcircumflex" unicode="&#x174;" horiz-adv-x="2344" 
d="M1182 1720h-193l336 330h221l221 -330h-192q-36 42 -53.5 65t-39 69t-30.5 102h-61q-45 -79 -94 -131t-115 -105zM686 0h-272l-205 1597h246q39 -310 56.5 -459t39.5 -403t31 -489h30q234 556 619 1351h250q38 -300 56.5 -450t44.5 -412.5t40 -496.5h31q265 663 602 1359
h248l-770 -1597h-271q-114 762 -137 1317h-39q-249 -621 -600 -1317z" />
    <glyph glyph-name="wcircumflex" unicode="&#x175;" horiz-adv-x="1884" 
d="M850 1278h-197l361 364h231l234 -364h-197q-43 58 -59.5 82t-44 75t-41.5 99h-47q-77 -119 -240 -256zM553 0h-236l-194 1137h235q3 -20 18.5 -123.5t20 -134t17 -118.5t17 -135t12.5 -123t12.5 -143t7.5 -137h41q24 55 47.5 109t51 113t47 100.5t52 107t47.5 96
t52 102.5t47.5 92.5t51.5 100.5t48 93h191q37 -223 51.5 -312.5t38 -266.5t37.5 -335h37q20 50 42 102.5t39.5 94t43.5 98.5t41 90t45 94.5t41.5 85.5t45 91.5t41.5 83.5l45 90l42 84h233l-594 -1137h-244q-90 555 -114 860h-31q-137 -311 -426 -860z" />
    <glyph glyph-name="Ycircumflex" unicode="&#x176;" horiz-adv-x="1421" 
d="M719 1720h-193l336 330h221l222 -330h-193q-36 42 -53.5 65t-39 69t-30.5 102h-61q-45 -79 -94 -131t-115 -105zM721 0h-221q75 412 116 567q-181 425 -411 1030h237l33 -88t35 -94.5t32 -88t34.5 -97t31 -91t33 -100t29 -95t30.5 -105.5t27 -103h29q132 217 268 413.5
t322 448.5h235q-23 -32 -132.5 -180t-157.5 -212.5t-141 -188.5t-175 -230.5t-168 -216.5q-18 -184 -86 -569z" />
    <glyph glyph-name="ycircumflex" unicode="&#x177;" horiz-adv-x="1150" 
d="M477 1278h-196l360 364h231l234 -364h-197q-43 58 -59.5 82t-44 75t-41.5 99h-47q-77 -119 -240 -256zM340 -451h-213l238 420l-246 1168h229q56 -271 90.5 -485.5t57.5 -467.5h30q183 406 484 953h223z" />
    <glyph glyph-name="Ydieresis" unicode="&#x178;" horiz-adv-x="1421" 
d="M707 1759q-52 0 -84.5 32.5t-32.5 82.5q0 66 50 114t116 48q50 0 82 -31.5t32 -79.5q0 -64 -49 -115t-114 -51zM1137 1759q-53 0 -85 32.5t-32 82.5q0 66 49 114t115 48q51 0 83.5 -31.5t32.5 -81.5q0 -62 -49.5 -113t-113.5 -51zM721 0h-221q75 412 116 567
q-181 425 -411 1030h237l33 -88t35 -94.5t32 -88t34.5 -97t31 -91t33 -100t29 -95t30.5 -105.5t27 -103h29q132 217 268 413.5t322 448.5h235q-23 -32 -132.5 -180t-157.5 -212.5t-141 -188.5t-175 -230.5t-168 -216.5q-18 -184 -86 -569z" />
    <glyph glyph-name="Zacute" unicode="&#x179;" horiz-adv-x="1355" 
d="M1350 2060l-392 -340h-190l307 340h275zM1194 0h-1231l31 182q584 638 1216 1243l-10 31q-474 -61 -958 -61l37 202h1179l-33 -180q-529 -573 -1214 -1239l10 -28q475 57 1008 57z" />
    <glyph glyph-name="zacute" unicode="&#x17a;" horiz-adv-x="1038" 
d="M1102 1663l-379 -385h-180l301 385h258zM887 0h-922l31 170q14 14 73 76t76.5 80.5t72 75.5t77.5 80.5t73.5 75.5t80 81t76 76t82 81.5t79 75.5t84.5 80l-8 29q-255 -35 -604 -35l32 191h854l-28 -170q-176 -183 -257.5 -267.5t-235.5 -236.5t-285 -273l8 -30
q108 14 239.5 21t206.5 8t230 1z" />
    <glyph glyph-name="Zdotaccent" unicode="&#x17b;" horiz-adv-x="1355" 
d="M866 1772q-54 0 -87.5 32.5t-33.5 85.5q0 66 52.5 117t120.5 51q53 0 86.5 -33t33.5 -83q0 -66 -52.5 -118t-119.5 -52zM1194 0h-1231l31 182q584 638 1216 1243l-10 31q-474 -61 -958 -61l37 202h1179l-33 -180q-529 -573 -1214 -1239l10 -28q475 57 1008 57z" />
    <glyph glyph-name="zdotaccent" unicode="&#x17c;" horiz-adv-x="1038" 
d="M662 1370q-53 0 -86 34t-33 87q0 66 51.5 117t120.5 51q52 0 85.5 -34t33.5 -85q0 -66 -52.5 -118t-119.5 -52zM887 0h-922l31 170q14 14 73 76t76.5 80.5t72 75.5t77.5 80.5t73.5 75.5t80 81t76 76t82 81.5t79 75.5t84.5 80l-8 29q-255 -35 -604 -35l32 191h854
l-28 -170q-176 -183 -257.5 -267.5t-235.5 -236.5t-285 -273l8 -30q108 14 239.5 21t206.5 8t230 1z" />
    <glyph glyph-name="Zcaron" unicode="&#x17d;" horiz-adv-x="1355" 
d="M985 1720h-229l-217 330h192q35 -41 52 -63t40 -69.5t35 -102.5h60q29 54 69 102t63.5 69.5t73.5 63.5h195zM1194 0h-1231l31 182q584 638 1216 1243l-10 31q-474 -61 -958 -61l37 202h1179l-33 -180q-529 -573 -1214 -1239l10 -28q475 57 1008 57z" />
    <glyph glyph-name="zcaron" unicode="&#x17e;" horiz-adv-x="1038" 
d="M762 1288h-232l-229 373h195q6 -9 24.5 -35.5t25.5 -37t22 -33.5t23 -37.5t19 -36t19.5 -42t15.5 -42.5h43q20 30 40 57t50.5 59t44 45.5t56.5 54t51 48.5h194zM887 0h-922l31 170q14 14 73 76t76.5 80.5t72 75.5t77.5 80.5t73.5 75.5t80 81t76 76t82 81.5t79 75.5
t84.5 80l-8 29q-255 -35 -604 -35l32 191h854l-28 -170q-176 -183 -257.5 -267.5t-235.5 -236.5t-285 -273l8 -30q108 14 239.5 21t206.5 8t230 1z" />
    <glyph glyph-name="uni0218" unicode="&#x218;" horiz-adv-x="1325" 
d="M578 -35q-105 0 -195 28t-163 83.5t-119 147.5t-56 212l217 72q16 -172 112.5 -256t239.5 -84q159 0 267 86t108 207q0 41 -15 73.5t-37 54t-57 39.5t-65 28.5t-72 23.5l-10.5 3.5t-9.5 2.5l-137 45q-36 12 -63 22t-67 29t-69.5 39t-61.5 50t-52.5 64t-34 79.5
t-13.5 97.5q0 100 47 194.5t127.5 166t196 114.5t244.5 43q213 0 339 -107.5t140 -269.5l-215 -82q-19 120 -98 189.5t-207 69.5q-141 0 -238.5 -78t-97.5 -185q0 -43 19 -79.5t44 -60t66 -45.5t68 -32.5t67 -23.5l154 -52q128 -44 178 -71q174 -95 174 -283
q0 -105 -49.5 -205.5t-135 -177.5t-209 -124.5t-261.5 -47.5zM444 -582h-110q49 71 92.5 121.5t105.5 100.5q-58 0 -88 27.5t-30 72.5q0 60 46 103.5t109 43.5q50 0 80.5 -29.5t30.5 -78.5q0 -12 -1.5 -23t-7.5 -25t-11.5 -25t-18.5 -30.5t-23.5 -34t-32 -42.5t-38 -49
t-48 -61t-55.5 -71z" />
    <glyph glyph-name="uni0219" unicode="&#x219;" horiz-adv-x="1028" 
d="M424 -35q-177 0 -289 87t-131 233l203 61q24 -99 94 -154t160 -55q97 0 165 54t68 131q0 26 -10.5 47t-22 33.5t-39.5 26t-41 18.5t-49 16q-8 3 -12 4l-108 33q-105 34 -155 70q-109 78 -110 210q0 158 134 273.5t329 115.5q155 0 254 -78.5t117 -203.5l-207 -66
q-13 76 -64 126t-139 50t-148.5 -49.5t-60.5 -120.5q0 -29 13.5 -53.5t31.5 -40t49.5 -30.5t53 -23t55.5 -18l94 -29q110 -33 159 -66q103 -70 104 -198q0 -162 -143 -283t-355 -121zM287 -582h-111q98 141 199 222q-58 0 -88.5 27.5t-30.5 72.5q0 60 46.5 103.5t109.5 43.5
q50 0 80 -29.5t30 -78.5q0 -11 -2 -21.5t-4.5 -20.5t-10 -24t-13.5 -25t-19.5 -29.5t-24 -33t-31 -41t-36 -46t-44 -56t-50.5 -64.5z" />
    <glyph glyph-name="uni021A" unicode="&#x21a;" horiz-adv-x="1298" 
d="M659 0h-221q61 340 87 482t84 428t112 515q-96 -14 -203.5 -21t-166.5 -8t-179 -1l35 202h1249l-35 -202q-121 0 -180 1t-163 8t-195 21q-10 -84 -20.5 -164.5t-24 -172t-22 -152.5t-25.5 -166t-24 -148t-27.5 -162.5t-25.5 -146t-28.5 -162.5t-26.5 -151zM403 -582h-110
q98 141 199 222q-58 0 -88.5 27.5t-30.5 72.5q0 60 46 103.5t109 43.5q50 0 80.5 -29.5t30.5 -78.5q0 -12 -1.5 -23t-7.5 -25t-11.5 -25t-18.5 -30.5t-23.5 -34t-32 -42.5t-38 -49t-48 -61t-55.5 -71z" />
    <glyph glyph-name="uni021B" unicode="&#x21b;" horiz-adv-x="827" 
d="M463 -35q-53 0 -95.5 9.5t-71.5 24t-50 39t-32.5 46.5t-17.5 54.5t-7 56t2 58t6 52.5t8 47q28 152 39.5 213t40 183.5t61.5 226.5q-111 -27 -260 -27l33 189q150 0 250 -27q-1 23 -1 44.5t1 44.5t1.5 39.5t3.5 41.5t4 37t5.5 39t5.5 35.5t6 38.5l6 36h207q0 -2 -5 -30
t-6 -33t-6 -31t-7 -35t-7.5 -33t-9 -37t-10 -35.5t-12 -40t-13.5 -39t-16 -42.5q145 27 363 27l-33 -189q-219 0 -352 27q-8 -160 -23 -269t-28 -150t-23 -97t-10 -129q0 -95 23.5 -135.5t98.5 -40.5q91 0 183 51l-33 -191q-94 -49 -219 -49zM238 -582h-111q98 141 199 222
q-58 0 -88.5 27.5t-30.5 72.5q0 60 46 103.5t109 43.5q50 0 80.5 -29.5t30.5 -78.5q0 -11 -2 -21.5t-4.5 -20.5t-10 -24t-13.5 -25t-19.5 -29.5t-24 -33t-31 -41t-36 -46t-44 -56t-50.5 -64.5z" />
    <glyph glyph-name="gravecomb" unicode="&#x300;" horiz-adv-x="0" 
d="M147 1278h-180l-243 385h258z" />
    <glyph glyph-name="acutecomb" unicode="&#x301;" horiz-adv-x="0" 
d="M356 1663l-379 -385h-180l301 385h258z" />
    <glyph glyph-name="uni0302" unicode="&#x302;" horiz-adv-x="0" 
d="M-428 1278h-197l361 364h231l234 -364h-197q-43 58 -59.5 82t-44 75t-41.5 99h-47q-77 -119 -240 -256z" />
    <glyph glyph-name="tildecomb" unicode="&#x303;" horiz-adv-x="0" 
d="M-84 1329q-70 0 -139 62l-43 34q-48 43 -84 43q-42 0 -72 -34.5t-39 -87.5h-151q23 126 103.5 204t182.5 78q73 0 140 -59l41 -35q41 -41 82 -41q38 0 65.5 33t36.5 88h151q-23 -134 -95.5 -209.5t-178.5 -75.5z" />
    <glyph glyph-name="uni0304" unicode="&#x304;" horiz-adv-x="0" 
d="M150 1366h-689l29 156h688z" />
    <glyph glyph-name="uni0306" unicode="&#x306;" horiz-adv-x="0" 
d="M-190 1272q-171 0 -254 110.5t-58 284.5h174q-15 -105 30 -172.5t138 -67.5t161.5 67.5t90.5 172.5h176q-38 -178 -163.5 -286.5t-294.5 -108.5z" />
    <glyph glyph-name="uni0307" unicode="&#x307;" horiz-adv-x="0" 
d="M-10 1360q-53 0 -86 34t-33 87q0 66 51.5 117t120.5 51q52 0 85.5 -34t33.5 -85q0 -66 -52.5 -118t-119.5 -52z" />
    <glyph glyph-name="uni0308" unicode="&#x308;" horiz-adv-x="0" 
d="M-555 1337q-49 0 -80 32t-31 79q0 62 47.5 109t110.5 47q48 0 79.5 -32t31.5 -77q0 -61 -48 -109.5t-110 -48.5zM-162 1337q-50 0 -81 32t-31 79q0 63 47.5 109.5t109.5 46.5q48 0 79.5 -32t31.5 -77q0 -61 -47.5 -109.5t-108.5 -48.5z" />
    <glyph glyph-name="uni030A" unicode="&#x30a;" horiz-adv-x="0" 
d="M-45 1251q-92 0 -149.5 54.5t-57.5 140.5q0 107 86 189.5t203 82.5q91 0 148 -53.5t57 -140.5q0 -107 -85 -190t-202 -83zM-27 1364q60 0 103 42t43 101q0 42 -29 69.5t-74 27.5q-60 0 -102.5 -41.5t-42.5 -100.5q0 -44 28 -71t74 -27z" />
    <glyph glyph-name="uni030B" unicode="&#x30b;" horiz-adv-x="0" 
d="M16 1673l-368 -395h-176l290 395h254zM412 1673l-379 -395h-178l303 395h254z" />
    <glyph glyph-name="uni030C" unicode="&#x30c;" horiz-adv-x="0" 
d="M-96 1278h-232l-229 373h195q3 -5 24 -35t26 -38t21.5 -33t23.5 -38.5t19 -35.5t20 -42.5t15 -42.5h43q16 26 36 51.5t35 43.5t42 45.5t39.5 39.5t45.5 43.5t44 41.5h194z" />
    <glyph glyph-name="uni0312" unicode="&#x312;" horiz-adv-x="0" 
d="M-188 1278q0 44 33.5 97t150.5 205q46 59 72 93h120q-95 -146 -206 -278q49 4 72.5 -18.5t23.5 -63.5q0 -60 -44 -102t-108 -42q-52 0 -83 30.5t-31 78.5z" />
    <glyph glyph-name="uni0326" unicode="&#x326;" horiz-adv-x="0" 
d="M-426 -582h-111q98 141 199 222q-58 0 -88.5 27.5t-30.5 72.5q0 60 46.5 103.5t109.5 43.5q50 0 80.5 -29.5t30.5 -78.5q0 -12 -1.5 -23t-7.5 -25t-11.5 -25t-18.5 -30.5t-23.5 -34t-32 -42.5t-38 -49t-48 -61t-55.5 -71z" />
    <glyph glyph-name="uni0327" unicode="&#x327;" horiz-adv-x="0" 
d="M-729 -506q-80 0 -146.5 32t-101.5 89l88 84q27 -46 73.5 -70t98.5 -24q60 0 99.5 31t39.5 77q0 33 -27.5 53.5t-70.5 20.5q-54 0 -96 -27l-62 60l148 180h129q-51 -61 -168 -150l10 -12q66 41 123 41q69 0 113.5 -40t44.5 -109q0 -97 -85.5 -166.5t-209.5 -69.5z" />
    <glyph glyph-name="uni0328" unicode="&#x328;" horiz-adv-x="0" 
d="M-719 -483q-112 0 -182 50.5t-70 143.5q0 91 64 162.5t149 106.5h148q-88 -28 -144.5 -85.5t-56.5 -123.5q0 -50 36 -80.5t97 -30.5q45 0 94 16l-26 -145q-55 -14 -109 -14z" />
    <glyph glyph-name="uni0335" unicode="&#x335;" horiz-adv-x="0" 
d="M-672 649h746l-29 -160h-745z" />
    <glyph glyph-name="uni0337" unicode="&#x337;" horiz-adv-x="0" 
d="M-428 471l33 182l651 416l-33 -182z" />
    <glyph glyph-name="uni0338" unicode="&#x338;" horiz-adv-x="0" 
d="M-1016 -61h-190l1147 1241h182z" />
    <glyph glyph-name="Wgrave" unicode="&#x1e80;" horiz-adv-x="2344" 
d="M1501 1720h-188l-273 340h275zM686 0h-272l-205 1597h246q39 -310 56.5 -459t39.5 -403t31 -489h30q234 556 619 1351h250q38 -300 56.5 -450t44.5 -412.5t40 -496.5h31q265 663 602 1359h248l-770 -1597h-271q-114 762 -137 1317h-39q-249 -621 -600 -1317z" />
    <glyph glyph-name="wgrave" unicode="&#x1e81;" horiz-adv-x="1884" 
d="M1163 1278h-180l-244 385h258zM553 0h-236l-194 1137h235q3 -20 18.5 -123.5t20 -134t17 -118.5t17 -135t12.5 -123t12.5 -143t7.5 -137h41q24 55 47.5 109t51 113t47 100.5t52 107t47.5 96t52 102.5t47.5 92.5t51.5 100.5t48 93h191q37 -223 51.5 -312.5t38 -266.5
t37.5 -335h37q20 50 42 102.5t39.5 94t43.5 98.5t41 90t45 94.5t41.5 85.5t45 91.5t41.5 83.5l45 90l42 84h233l-594 -1137h-244q-90 555 -114 860h-31q-137 -311 -426 -860z" />
    <glyph glyph-name="Wacute" unicode="&#x1e82;" horiz-adv-x="2344" 
d="M1855 2060l-391 -340h-190l307 340h274zM686 0h-272l-205 1597h246q39 -310 56.5 -459t39.5 -403t31 -489h30q234 556 619 1351h250q38 -300 56.5 -450t44.5 -412.5t40 -496.5h31q265 663 602 1359h248l-770 -1597h-271q-114 762 -137 1317h-39q-249 -621 -600 -1317z
" />
    <glyph glyph-name="wacute" unicode="&#x1e83;" horiz-adv-x="1884" 
d="M1522 1663l-379 -385h-180l301 385h258zM553 0h-236l-194 1137h235q3 -20 18.5 -123.5t20 -134t17 -118.5t17 -135t12.5 -123t12.5 -143t7.5 -137h41q24 55 47.5 109t51 113t47 100.5t52 107t47.5 96t52 102.5t47.5 92.5t51.5 100.5t48 93h191q37 -223 51.5 -312.5
t38 -266.5t37.5 -335h37q20 50 42 102.5t39.5 94t43.5 98.5t41 90t45 94.5t41.5 85.5t45 91.5t41.5 83.5l45 90l42 84h233l-594 -1137h-244q-90 555 -114 860h-31q-137 -311 -426 -860z" />
    <glyph glyph-name="Wdieresis" unicode="&#x1e84;" horiz-adv-x="2344" 
d="M1169 1759q-52 0 -84 32.5t-32 82.5q0 66 50 114t116 48q50 0 82 -31.5t32 -79.5q0 -64 -49.5 -115t-114.5 -51zM1599 1759q-53 0 -84.5 32.5t-31.5 82.5q0 66 49 114t115 48q51 0 83.5 -31.5t32.5 -81.5q0 -62 -50 -113t-114 -51zM686 0h-272l-205 1597h246
q39 -310 56.5 -459t39.5 -403t31 -489h30q234 556 619 1351h250q38 -300 56.5 -450t44.5 -412.5t40 -496.5h31q265 663 602 1359h248l-770 -1597h-271q-114 762 -137 1317h-39q-249 -621 -600 -1317z" />
    <glyph glyph-name="wdieresis" unicode="&#x1e85;" horiz-adv-x="1884" 
d="M881 1337q-49 0 -80 32t-31 79q0 62 47.5 109t110.5 47q48 0 79 -32t31 -77q0 -61 -47.5 -109.5t-109.5 -48.5zM1274 1337q-50 0 -81.5 32t-31.5 79q0 62 48 109t110 47q48 0 79.5 -32t31.5 -77q0 -61 -47.5 -109.5t-108.5 -48.5zM553 0h-236l-194 1137h235
q3 -20 18.5 -123.5t20 -134t17 -118.5t17 -135t12.5 -123t12.5 -143t7.5 -137h41q24 55 47.5 109t51 113t47 100.5t52 107t47.5 96t52 102.5t47.5 92.5t51.5 100.5t48 93h191q37 -223 51.5 -312.5t38 -266.5t37.5 -335h37q20 50 42 102.5t39.5 94t43.5 98.5t41 90t45 94.5
t41.5 85.5t45 91.5t41.5 83.5l45 90l42 84h233l-594 -1137h-244q-90 555 -114 860h-31q-137 -311 -426 -860z" />
    <glyph glyph-name="uni1E9E" unicode="&#x1e9e;" horiz-adv-x="1566" 
d="M295 0h-221l162 918q123 712 755 712q243 0 380.5 -102t137.5 -287q0 -165 -101.5 -285t-262.5 -135l-4 -30q141 0 229 -77.5t88 -221.5q0 -74 -23.5 -143.5t-75 -133t-125.5 -111.5t-183 -76t-240 -28h-176l37 201h202q161 0 256 78.5t95 199.5q0 101 -71 154t-196 53
h-114l35 197h94q126 0 212.5 91.5t86.5 217.5q0 118 -84.5 180t-233.5 62q-105 0 -188.5 -33t-133.5 -80.5t-87 -116.5t-53.5 -124.5t-28.5 -121.5z" />
    <glyph glyph-name="Ygrave" unicode="&#x1ef2;" horiz-adv-x="1421" 
d="M1038 1720h-188l-272 340h274zM721 0h-221q75 412 116 567q-181 425 -411 1030h237l33 -88t35 -94.5t32 -88t34.5 -97t31 -91t33 -100t29 -95t30.5 -105.5t27 -103h29q132 217 268 413.5t322 448.5h235q-23 -32 -132.5 -180t-157.5 -212.5t-141 -188.5t-175 -230.5
t-168 -216.5q-18 -184 -86 -569z" />
    <glyph glyph-name="ygrave" unicode="&#x1ef3;" horiz-adv-x="1150" 
d="M793 1278h-181l-243 385h258zM340 -451h-213l238 420l-246 1168h229q56 -271 90.5 -485.5t57.5 -467.5h30q183 406 484 953h223z" />
    <glyph glyph-name="uni2000" unicode="&#x2000;" horiz-adv-x="1024" 
 />
    <glyph glyph-name="uni2001" unicode="&#x2001;" 
 />
    <glyph glyph-name="uni2002" unicode="&#x2002;" horiz-adv-x="1024" 
 />
    <glyph glyph-name="uni2003" unicode="&#x2003;" 
 />
    <glyph glyph-name="uni2004" unicode="&#x2004;" horiz-adv-x="681" 
 />
    <glyph glyph-name="uni2005" unicode="&#x2005;" horiz-adv-x="512" 
 />
    <glyph glyph-name="uni2006" unicode="&#x2006;" horiz-adv-x="342" 
 />
    <glyph glyph-name="uni2007" unicode="&#x2007;" horiz-adv-x="530" 
 />
    <glyph glyph-name="uni2008" unicode="&#x2008;" horiz-adv-x="501" 
 />
    <glyph glyph-name="uni2009" unicode="&#x2009;" horiz-adv-x="256" 
 />
    <glyph glyph-name="uni200A" unicode="&#x200a;" horiz-adv-x="86" 
 />
    <glyph glyph-name="uni200B" unicode="&#x200b;" horiz-adv-x="0" 
 />
    <glyph glyph-name="endash" unicode="&#x2013;" horiz-adv-x="1005" 
d="M883 535h-770l30 178h770z" />
    <glyph glyph-name="emdash" unicode="&#x2014;" horiz-adv-x="1431" 
d="M1313 541h-1200l28 164h1200z" />
    <glyph glyph-name="quoteleft" unicode="&#x2018;" horiz-adv-x="499" 
d="M487 1634h121q-47 -67 -69.5 -98t-64.5 -77.5t-87 -84.5q51 -7 78 -39.5t27 -77.5q0 -69 -54 -120.5t-123 -51.5q-52 0 -85 34t-33 87q0 52 45.5 117t244.5 311z" />
    <glyph glyph-name="quoteright" unicode="&#x2019;" horiz-adv-x="509" 
d="M317 1102h-127q42 59 67.5 92t72.5 84.5t98 93.5q-115 26 -115 111q0 65 52.5 116.5t121.5 51.5q52 0 86.5 -34.5t34.5 -84.5q0 -49 -42 -111.5t-192 -248.5q-12 -14 -19 -22.5t-18 -22t-20 -25.5z" />
    <glyph glyph-name="quotesinglbase" unicode="&#x201a;" horiz-adv-x="485" 
d="M41 -270h-121q47 67 69.5 98t64.5 78t87 86q-50 6 -77 39t-27 78q0 67 53 118.5t121 51.5q53 0 87 -33.5t34 -87.5q0 -49 -41 -109.5t-203 -260.5q-30 -37 -47 -58z" />
    <glyph glyph-name="quotedblleft" unicode="&#x201c;" horiz-adv-x="880" 
d="M487 1634h121q-47 -67 -69.5 -98t-64.5 -77.5t-87 -84.5q51 -7 78 -39.5t27 -77.5q0 -69 -54 -120.5t-123 -51.5q-52 0 -85 34t-33 87q0 52 45.5 117t244.5 311zM866 1634h121q-47 -67 -69.5 -98t-64.5 -77.5t-87 -84.5q50 -7 77 -39.5t27 -77.5q0 -69 -53.5 -120.5
t-122.5 -51.5q-51 0 -85 34.5t-34 86.5q0 49 41 109.5t203 260.5q30 37 47 58z" />
    <glyph glyph-name="quotedblright" unicode="&#x201d;" horiz-adv-x="888" 
d="M315 1102h-120q50 70 69.5 97t63 76.5t88.5 86.5q-51 7 -78 39.5t-27 77.5q0 69 53.5 120.5t122.5 51.5q52 0 85.5 -34t33.5 -87q0 -49 -41 -109.5t-203 -260.5q-30 -37 -47 -58zM696 1102h-121q45 64 69.5 97t66 79t86.5 84q-51 7 -78 39.5t-27 77.5q0 68 53 120t121 52
q52 0 86.5 -34.5t34.5 -86.5q0 -49 -41 -109.5t-203 -260.5q-30 -37 -47 -58z" />
    <glyph glyph-name="quotedblbase" unicode="&#x201e;" horiz-adv-x="866" 
d="M43 -256h-121q47 67 69.5 98t64.5 77.5t87 84.5q-50 7 -77 39.5t-27 77.5q0 69 53.5 120.5t122.5 51.5q52 0 85.5 -34t33.5 -87q0 -49 -41 -109.5t-203 -260.5q-30 -37 -47 -58zM424 -256h-121q47 67 69.5 98t64.5 77.5t87 84.5q-50 7 -77 39.5t-27 77.5q0 69 53.5 120.5
t122.5 51.5q51 0 85 -34.5t34 -86.5q0 -49 -41 -109.5t-203 -260.5q-30 -37 -47 -58z" />
    <glyph glyph-name="dagger" unicode="&#x2020;" horiz-adv-x="1009" 
d="M567 430h-182q75 409 121 601q16 69 35 140q-130 -24 -351 -24l29 166q215 0 342 -25q0 146 39 350h180q-38 -218 -86 -350q139 25 361 25l-29 -166q-226 0 -352 24q-28 -281 -107 -741z" />
    <glyph glyph-name="daggerdbl" unicode="&#x2021;" horiz-adv-x="1081" 
d="M1083 1313l-28 -166q-213 0 -350 31q10 -87 -2 -161.5t-50 -164.5q141 29 355 29l-29 -164q-76 0 -113 0.5t-103.5 7t-127.5 20.5q4 -131 -33 -354h-182q12 71 21 115t28 109t45 130q-66 -13 -137 -20t-108.5 -7.5t-112.5 -0.5l28 164q215 0 348 -29q-8 87 5 162t51 164
q-143 -31 -357 -31l29 166q215 0 348 -31q-6 142 33 356h180q-37 -211 -98 -356q147 31 360 31z" />
    <glyph glyph-name="bullet" unicode="&#x2022;" horiz-adv-x="849" 
d="M403 434q-93 0 -151.5 60.5t-58.5 152.5q0 118 91.5 207.5t211.5 89.5q91 0 150 -59t59 -148q0 -115 -92.5 -209t-209.5 -94z" />
    <glyph glyph-name="ellipsis" unicode="&#x2026;" horiz-adv-x="1447" 
d="M164 -14q-53 0 -87 35t-34 88q0 67 52.5 118.5t121.5 51.5q52 0 85.5 -34t33.5 -85q0 -67 -52.5 -120.5t-119.5 -53.5zM637 -14q-53 0 -87 35t-34 88q0 67 52.5 118.5t121.5 51.5q52 0 85.5 -34t33.5 -85q0 -67 -52.5 -120.5t-119.5 -53.5zM1110 -14q-53 0 -87 35t-34 88
q0 67 52.5 118.5t121.5 51.5q52 0 85.5 -34t33.5 -85q0 -67 -52.5 -120.5t-119.5 -53.5z" />
    <glyph glyph-name="uni202F" unicode="&#x202f;" horiz-adv-x="385" 
 />
    <glyph glyph-name="perthousand" unicode="&#x2030;" horiz-adv-x="2531" 
d="M391 756q-111 0 -172 78.5t-61 216.5q0 125 48.5 237t135.5 181t190 69q112 0 174 -79.5t62 -217.5q0 -125 -49 -236.5t-136.5 -180t-191.5 -68.5zM336 0h-195l1397 1468h186zM416 911q68 0 122 105t54 223q0 70 -23 106.5t-61 36.5q-45 0 -86.5 -49.5t-65.5 -126
t-24 -153.5q0 -70 22.5 -106t61.5 -36zM1341 -29q-111 0 -172 78.5t-61 216.5q0 125 48.5 237t136 181.5t190.5 69.5q111 0 173 -79.5t62 -217.5q0 -125 -49 -236.5t-136.5 -180.5t-191.5 -69zM2064 -29q-111 0 -172 78.5t-61 216.5q0 125 48.5 237t136 181.5t190.5 69.5
q111 0 173 -79.5t62 -217.5q0 -125 -49 -236.5t-136.5 -180.5t-191.5 -69zM1366 127q68 0 122 105t54 223q0 70 -23 106.5t-61 36.5q-45 0 -86.5 -50t-65.5 -126t-24 -154q0 -70 22.5 -105.5t61.5 -35.5zM2089 127q68 0 122 105t54 223q0 70 -23 106.5t-61 36.5
q-45 0 -86.5 -50t-65.5 -126t-24 -154q0 -70 22.5 -105.5t61.5 -35.5z" />
    <glyph glyph-name="guilsinglleft" unicode="&#x2039;" horiz-adv-x="772" 
d="M575 164h-223l-250 405l2 9l394 405h223q-94 -95 -142 -142t-132.5 -115.5t-165.5 -117.5l-13 -69q92 -70 159.5 -157.5t147.5 -217.5z" />
    <glyph glyph-name="guilsinglright" unicode="&#x203a;" horiz-adv-x="772" 
d="M279 164h-224q95 96 137.5 138t131 115.5t170.5 121.5l12 69q-91 72 -160 161t-145 214h223l250 -405l-2 -9z" />
    <glyph glyph-name="fraction" unicode="&#x2044;" horiz-adv-x="366" 
d="M-385 0h-195l1397 1468h187z" />
    <glyph glyph-name="uni205F" unicode="&#x205f;" horiz-adv-x="454" 
 />
    <glyph glyph-name="uni2070" unicode="&#x2070;" horiz-adv-x="720" 
d="M391 756q-111 0 -172 78.5t-61 216.5q0 125 48.5 237t135.5 181t190 69q112 0 174 -79.5t62 -217.5q0 -125 -49 -236.5t-136.5 -180t-191.5 -68.5zM416 911q68 0 122 105t54 223q0 70 -23 106.5t-61 36.5q-45 0 -86.5 -49.5t-65.5 -126t-24 -153.5q0 -70 22.5 -106
t61.5 -36z" />
    <glyph glyph-name="uni2074" unicode="&#x2074;" horiz-adv-x="704" 
d="M590 772h-162l29 150h-355l23 133l440 467h158l-82 -461h94l-24 -139h-95zM524 1309l-237 -248h192z" />
    <glyph glyph-name="uni2075" unicode="&#x2075;" horiz-adv-x="686" 
d="M360 756q-98 0 -170.5 43.5t-85.5 128.5l158 73q12 -50 46 -76t81 -26q62 0 104 43.5t42 101.5q0 45 -28 72t-73 27q-77 0 -127 -70l-133 33l164 416h414l-25 -136h-295l-74 -180h2q64 58 160 58q81 0 138 -48.5t57 -144.5q0 -130 -103.5 -222.5t-251.5 -92.5z" />
    <glyph glyph-name="uni2076" unicode="&#x2076;" horiz-adv-x="714" 
d="M395 756q-115 0 -180 67t-65 199q0 127 58.5 245.5t163 194.5t226.5 76q59 0 114 -20t85 -62l-107 -110q-44 49 -121 49q-80 0 -141.5 -57t-89.5 -158h4q28 38 80 60t102 22q92 0 152.5 -54t60.5 -147q0 -122 -100 -213.5t-242 -91.5zM430 895q58 0 103 45t45 104
q0 46 -29.5 74.5t-75.5 28.5q-60 0 -104.5 -44t-44.5 -104q0 -46 30 -75t76 -29z" />
    <glyph glyph-name="uni2077" unicode="&#x2077;" horiz-adv-x="583" 
d="M354 772h-178q27 143 115.5 320t212.5 292h-332l25 140h528l-25 -142q-136 -105 -227 -278.5t-119 -331.5z" />
    <glyph glyph-name="uni2078" unicode="&#x2078;" horiz-adv-x="700" 
d="M381 756q-116 0 -184 53t-68 137q0 74 51 139t117 80v2q-74 46 -74 127q0 96 87 170t208 74q96 0 159.5 -49t63.5 -133q0 -63 -34.5 -112.5t-92.5 -76.5l-2 -2q46 -14 75.5 -53t29.5 -96q0 -108 -97 -184t-239 -76zM467 1227q49 0 85 33.5t36 78.5q0 32 -25 53t-63 21
q-50 0 -84.5 -31t-34.5 -75q0 -35 23.5 -57.5t62.5 -22.5zM410 901q57 0 97 38.5t40 92.5q0 38 -26.5 61t-71.5 23q-60 0 -101 -36t-41 -87q0 -42 29 -67t74 -25z" />
    <glyph glyph-name="uni2079" unicode="&#x2079;" horiz-adv-x="720" 
d="M346 756q-70 0 -132 25.5t-95 78.5l106 109q57 -76 150 -76q81 0 134 64t75 161h-2q-31 -42 -83.5 -65t-105.5 -23q-91 0 -151 53.5t-60 147.5q0 125 102.5 216t247.5 91q110 0 175 -63.5t65 -204.5q0 -135 -56 -253t-155 -189.5t-215 -71.5zM444 1145q62 0 108 48
t46 110q0 46 -29.5 74t-74.5 28q-61 0 -106.5 -46.5t-45.5 -109.5q0 -46 28 -75t74 -29z" />
    <glyph glyph-name="uni2080" unicode="&#x2080;" horiz-adv-x="720" 
d="M209 -285q-111 0 -172.5 78.5t-61.5 216.5q0 125 48.5 237t136 181.5t190.5 69.5q112 0 174 -79.5t62 -217.5q0 -125 -49 -236.5t-136.5 -180.5t-191.5 -69zM233 -129q45 0 87 50t66 126t24 152q0 70 -23 106.5t-61 36.5q-45 0 -86.5 -50t-65.5 -126t-24 -154
q0 -141 83 -141z" />
    <glyph glyph-name="uni2081" unicode="&#x2081;" horiz-adv-x="485" 
d="M223 -268h-168l86 489q-78 -64 -172 -84l31 176q77 23 129 69.5t61 98.5h164z" />
    <glyph glyph-name="uni2082" unicode="&#x2082;" horiz-adv-x="677" 
d="M463 -268h-533l4 20q28 128 87 199t215 162q27 16 43 26.5t45.5 33.5t45 49.5t15.5 53.5q0 31 -22.5 50.5t-61.5 19.5q-58 0 -100.5 -39.5t-55.5 -107.5l-149 22q21 123 117 200t219 77q102 0 165.5 -53.5t63.5 -143.5q0 -83 -52 -148.5t-124 -105.5q-16 -10 -47 -27
t-49 -28.5t-40.5 -28t-39 -35.5t-27.5 -41h307z" />
    <glyph glyph-name="uni2083" unicode="&#x2083;" horiz-adv-x="686" 
d="M184 -285q-107 0 -179 48.5t-81 123.5l160 72q25 -104 125 -104q56 0 93.5 34t37.5 82q0 42 -31.5 61t-81.5 19h-71l20 119h76q53 0 93 30.5t40 78.5q0 34 -25 54.5t-65 20.5q-100 0 -137 -108l-146 33q27 94 116.5 156.5t203.5 62.5q97 0 161 -46t64 -122
q0 -68 -43.5 -127t-103.5 -72v-2q47 -9 78.5 -48t31.5 -93q0 -105 -98 -189t-238 -84z" />
    <glyph glyph-name="uni2084" unicode="&#x2084;" horiz-adv-x="704" 
d="M408 -268h-162l28 149h-354l23 133l440 467h158l-82 -461h94l-25 -139h-94zM342 268l-238 -248h193z" />
    <glyph glyph-name="uni2085" unicode="&#x2085;" horiz-adv-x="686" 
d="M178 -285q-98 0 -170.5 43.5t-85.5 128.5l158 74q12 -50 46 -76t81 -26q62 0 103.5 43.5t41.5 101.5q0 45 -27.5 71.5t-72.5 26.5q-78 0 -127 -69l-133 33l164 415h413l-24 -135h-295l-74 -180h2q63 57 160 57q81 0 137.5 -48t56.5 -144q0 -130 -103 -223t-251 -93z" />
    <glyph glyph-name="uni2086" unicode="&#x2086;" horiz-adv-x="714" 
d="M213 -285q-115 0 -180.5 67.5t-65.5 199.5q0 94 35 187.5t94.5 166t143.5 117.5t176 45q59 0 113.5 -20t84.5 -62l-106 -111q-44 49 -121 49q-80 0 -141.5 -57t-89.5 -158h4q28 38 80 60t102 22q92 0 152.5 -54t60.5 -147q0 -122 -100 -213.5t-242 -91.5zM248 -145
q58 0 102.5 45t44.5 104q0 46 -29 74t-75 28q-60 0 -105 -43.5t-45 -103.5q0 -45 30.5 -74.5t76.5 -29.5z" />
    <glyph glyph-name="uni2087" unicode="&#x2087;" horiz-adv-x="583" 
d="M172 -268h-178q27 143 115.5 320t212.5 292h-332l24 139h529l-25 -141q-136 -105 -227 -278.5t-119 -331.5z" />
    <glyph glyph-name="uni2088" unicode="&#x2088;" horiz-adv-x="700" 
d="M199 -285q-116 0 -184 53.5t-68 137.5q0 74 51 139t117 80v2q-74 46 -74 127q0 96 87 170t208 74q95 0 159 -49.5t64 -133.5q0 -63 -34 -112t-93 -76l-2 -2q46 -14 75.5 -53.5t29.5 -96.5q0 -108 -97 -184t-239 -76zM285 186q49 0 85 34t36 79q0 32 -25.5 53t-63.5 21
q-49 0 -83.5 -31.5t-34.5 -75.5q0 -35 23.5 -57.5t62.5 -22.5zM227 -139q57 0 97.5 38.5t40.5 92.5q0 38 -26.5 61t-72.5 23q-60 0 -100.5 -36t-40.5 -87q0 -42 28.5 -67t73.5 -25z" />
    <glyph glyph-name="uni2089" unicode="&#x2089;" horiz-adv-x="720" 
d="M164 -285q-70 0 -132 26t-95 79l106 108q56 -75 150 -75q81 0 133.5 64t74.5 161h-2q-31 -42 -83 -65t-105 -23q-91 0 -151 53t-60 147q0 125 102.5 216.5t247.5 91.5q110 0 175 -64t65 -205q0 -135 -56 -253t-155 -189.5t-215 -71.5zM262 104q62 0 108 48t46 110
q0 46 -30 74.5t-75 28.5q-61 0 -106 -46.5t-45 -109.5q0 -46 28.5 -75.5t73.5 -29.5z" />
    <glyph glyph-name="Euro" unicode="&#x20ac;" horiz-adv-x="1656" 
d="M969 -35q-285 0 -446 160t-152 434q-106 -20 -267 -20l23 123q145 0 231 -29q-6 149 50 276q-95 -28 -244 -28l22 123q153 0 254 -21q89 281 304 448.5t516 167.5q309 0 456 -174l-180 -153q-118 123 -324 123q-378 0 -598 -412q248 21 639 21l-20 -123
q-148 0 -219.5 0.5t-198.5 7.5t-235 20q-6 -137 -48 -276q244 29 662 29l-23 -123q-399 0 -624 20q50 -207 165 -298t332 -91q78 0 154 24.5t199 96.5l102 -152q-119 -94 -259.5 -134t-270.5 -40z" />
    <glyph glyph-name="trademark" unicode="&#x2122;" horiz-adv-x="1587" 
d="M473 926h-125l101 571h-213l20 119h551l-21 -119h-213zM920 926h-127l120 690h129q20 -82 64 -252t65 -252q253 415 306 504h129l-121 -690h-129l76 424q-139 -226 -252 -414h-80q-51 193 -105 416z" />
    <glyph glyph-name="oneeighth" unicode="&#x215b;" horiz-adv-x="1554" 
d="M406 772h-168l86 490q-78 -64 -172 -84l30 176q77 23 129.5 69.5t61.5 98.5h164zM100 0h-194l1397 1468h186zM1096 -29q-116 0 -184 53.5t-68 137.5q0 74 51 139t117 80v2q-74 46 -74 127q0 96 87 170t208 74q95 0 159 -49.5t64 -133.5q0 -63 -34 -112t-93 -76l-2 -2
q46 -14 75.5 -53.5t29.5 -96.5q0 -108 -97 -184t-239 -76zM1182 442q49 0 85 34t36 79q0 32 -25.5 53t-63.5 21q-49 0 -83.5 -31.5t-34.5 -75.5q0 -35 23.5 -57.5t62.5 -22.5zM1124 117q57 0 97.5 38.5t40.5 92.5q0 38 -26.5 61t-72.5 23q-60 0 -100.5 -36t-40.5 -87
q0 -42 28.5 -67t73.5 -25z" />
    <glyph glyph-name="threeeighths" unicode="&#x215c;" horiz-adv-x="1755" 
d="M367 756q-107 0 -179.5 48.5t-81.5 123.5l160 71q25 -104 125 -104q56 0 93.5 34.5t37.5 82.5q0 80 -112 80h-72l20 118h76q53 0 93 30.5t40 78.5q0 34 -25 55t-65 21q-100 0 -137 -109l-145 33q27 94 116 156.5t203 62.5q97 0 161 -46t64 -122q0 -68 -43.5 -127
t-103.5 -72v-2q47 -9 78.5 -48t31.5 -93q0 -105 -97.5 -188.5t-237.5 -83.5zM301 0h-195l1397 1468h187zM1296 -29q-116 0 -184 53.5t-68 137.5q0 74 51 139t117 80v2q-73 45 -73 127q0 96 87 170t208 74q95 0 159 -49.5t64 -133.5q0 -63 -34 -112t-93 -76l-2 -2
q45 -14 74.5 -53.5t29.5 -96.5q0 -108 -97 -184t-239 -76zM1382 442q49 0 85 34t36 79q0 32 -25 53t-63 21q-49 0 -84 -31.5t-35 -75.5q0 -35 23.5 -57.5t62.5 -22.5zM1325 117q57 0 97 38.5t40 92.5q0 38 -26.5 61t-71.5 23q-60 0 -100.5 -36t-40.5 -87q0 -42 28.5 -67
t73.5 -25z" />
    <glyph glyph-name="fiveeighths" unicode="&#x215d;" horiz-adv-x="1755" 
d="M360 756q-98 0 -170.5 43.5t-85.5 128.5l158 73q12 -50 46 -76t81 -26q62 0 104 43.5t42 101.5q0 45 -28 72t-73 27q-77 0 -127 -70l-133 33l164 416h414l-25 -136h-295l-74 -180h2q64 58 160 58q81 0 138 -48.5t57 -144.5q0 -130 -103.5 -222.5t-251.5 -92.5zM301 0
h-195l1397 1468h187zM1296 -29q-116 0 -184 53.5t-68 137.5q0 74 51 139t117 80v2q-73 45 -73 127q0 96 87 170t208 74q95 0 159 -49.5t64 -133.5q0 -63 -34 -112t-93 -76l-2 -2q45 -14 74.5 -53.5t29.5 -96.5q0 -108 -97 -184t-239 -76zM1382 442q49 0 85 34t36 79
q0 32 -25 53t-63 21q-49 0 -84 -31.5t-35 -75.5q0 -35 23.5 -57.5t62.5 -22.5zM1325 117q57 0 97 38.5t40 92.5q0 38 -26.5 61t-71.5 23q-60 0 -100.5 -36t-40.5 -87q0 -42 28.5 -67t73.5 -25z" />
    <glyph glyph-name="seveneighths" unicode="&#x215e;" horiz-adv-x="1652" 
d="M354 772h-178q27 143 115.5 320t212.5 292h-332l25 140h528l-25 -142q-136 -105 -227 -278.5t-119 -331.5zM199 0h-195l1397 1468h186zM1194 -29q-116 0 -184 53.5t-68 137.5q0 74 51 139t117 80v2q-74 46 -74 127q0 96 87 170t208 74q95 0 159 -49.5t64 -133.5
q0 -63 -34 -112t-93 -76l-2 -2q46 -14 75.5 -53.5t29.5 -96.5q0 -108 -97 -184t-239 -76zM1280 442q49 0 85 34t36 79q0 32 -25 53t-63 21q-49 0 -84 -31.5t-35 -75.5q0 -35 23.5 -57.5t62.5 -22.5zM1223 117q57 0 97 38.5t40 92.5q0 38 -26.5 61t-71.5 23q-60 0 -101 -36
t-41 -87q0 -42 29 -67t74 -25z" />
    <glyph glyph-name="arrowleft" unicode="&#x2190;" horiz-adv-x="1400" 
d="M594 236h-207l-268 405l2 8l411 406h207q-6 -6 -45.5 -43.5t-52 -49.5t-48.5 -45t-58.5 -52.5t-57.5 -49.5t-70 -57.5t-73 -55.5q163 14 350.5 21.5t305 8.5t327.5 1l-31 -176q-633 0 -973 29q64 -66 119 -132t86 -109t76 -109z" />
    <glyph glyph-name="arrowup" unicode="&#x2191;" horiz-adv-x="993" 
d="M489 20h-176q35 204 58 327t62.5 306.5t82.5 343.5q-190 -181 -414 -342l37 207l467 340h8l344 -340l-36 -207q-57 57 -93.5 95.5t-91.5 106t-106 142.5q-4 -50 -10 -104t-10.5 -96.5t-13 -104t-13 -94.5t-15.5 -102t-14.5 -93t-16.5 -100.5t-15.5 -91.5t-17.5 -100
t-16 -93z" />
    <glyph glyph-name="arrowright" unicode="&#x2192;" horiz-adv-x="1400" 
d="M899 236h-209q87 83 123 116t117.5 102t167.5 132q-352 -29 -985 -29l32 176q210 0 327 -1t301.5 -8.5t342.5 -21.5q-67 69 -122 135.5t-83.5 107.5t-74.5 110h208l269 -406l-2 -8z" />
    <glyph glyph-name="arrowdown" unicode="&#x2193;" horiz-adv-x="997" 
d="M408 20h-9l-346 340l37 207q60 -60 94 -96t90 -103.5t107 -142.5q31 324 131 917q7 40 10 60h176q-111 -639 -200 -979q186 179 411 344l-37 -207z" />
    <glyph glyph-name="arrowboth" unicode="&#x2194;" horiz-adv-x="1759" 
d="M590 233h-209l-268 406l2 8l411 406h209q-51 -48 -173.5 -166t-201.5 -193q549 45 1086 0q-174 250 -246 359h207l268 -406l-2 -8l-411 -406h-207q340 329 370 357q-548 -45 -1081 0q92 -130 246 -357z" />
    <glyph glyph-name="arrowupdn" unicode="&#x2195;" horiz-adv-x="1075" 
d="M444 6h-8l-348 322l33 190q192 -175 301 -282q43 480 164 925q-125 -94 -404 -293l35 197l463 321h8l348 -321l-35 -197q-24 24 -83.5 81t-111.5 108t-104 104q-41 -474 -163 -925q95 70 401 282l-33 -190z" />
    <glyph glyph-name="uni2196" unicode="&#x2196;" horiz-adv-x="1222" 
d="M1079 152l-151 -89q-132 157 -212.5 255t-194.5 244.5t-206 277.5q-15 -205 -79 -443l-136 160l129 467l7 4l573 -61l135 -160q-269 28 -528 90q116 -117 246.5 -262t198 -224.5t218.5 -258.5z" />
    <glyph glyph-name="uni2197" unicode="&#x2197;" horiz-adv-x="1118" 
d="M188 63l-151 89q151 179 218.5 258.5t198 224.5t246.5 262q-259 -62 -528 -90l135 160l574 61l6 -4l129 -467l-135 -160q-65 243 -80 443q-92 -131 -206 -277.5t-194.5 -244.5t-212.5 -255z" />
    <glyph glyph-name="uni2198" unicode="&#x2198;" horiz-adv-x="1228" 
d="M158 1069l153 88q136 -161 213.5 -255.5t192.5 -242t207 -278.5q6 88 20 175.5t25.5 135t34.5 131.5l135 -159l-129 -467l-6 -4l-574 61l-135 160q272 -29 528 -90q-46 46 -94 97t-83.5 88.5t-89.5 98.5t-78.5 88t-85.5 98t-75 87.5t-83 97.5t-76 90z" />
    <glyph glyph-name="uni2199" unicode="&#x2199;" horiz-adv-x="1118" 
d="M946 1157l152 -88q-143 -170 -216.5 -256t-202.5 -229t-245 -260q254 61 529 90l-136 -160l-573 -61l-8 4l-127 467l135 159q66 -244 78 -442q227 320 614 776z" />
    <glyph glyph-name="emptyset" unicode="&#x2205;" horiz-adv-x="1435" 
d="M1255 1278l115 -88l-158 -176q113 -132 113 -332q0 -138 -55 -268.5t-148.5 -229.5t-227.5 -159t-282 -60q-155 0 -272 66l-158 -178l-112 88l157 178q-114 129 -114 334q0 139 55 270t148.5 230t227 158.5t281.5 59.5q161 0 277 -67zM330 487q0 -115 53 -192l569 641
q-70 37 -159 37q-125 0 -232.5 -69t-169 -181t-61.5 -236zM1108 647q0 112 -51 191l-568 -639q72 -35 160 -35q125 0 231.5 68t167 179t60.5 236z" />
    <glyph glyph-name="minus" unicode="&#x2212;" horiz-adv-x="1032" 
d="M901 543h-778l29 168h780z" />
    <glyph glyph-name="infinity" unicode="&#x221e;" horiz-adv-x="1814" 
d="M440 285q-145 0 -229 77t-84 203q0 108 63 201.5t162.5 146t206.5 52.5q97 0 175 -53t200 -189q174 137 271.5 189.5t191.5 52.5q139 0 225 -77t86 -204q0 -104 -56 -195.5t-155.5 -147.5t-218.5 -56q-102 0 -181 52.5t-196 188.5q-162 -136 -258.5 -188.5t-202.5 -52.5z
M467 432q28 0 58 8t50.5 16t57 33t52 36t63.5 49t65 51q-15 16 -42 45.5t-39.5 42.5t-34.5 34t-36.5 30.5t-35.5 20.5t-42 15t-46 4q-98 0 -167 -67t-69 -162q0 -73 46 -114.5t120 -41.5zM1303 434q97 0 164 66.5t67 161.5q0 72 -44 112.5t-120 40.5q-19 0 -37 -2.5
t-37.5 -9t-34 -12t-36.5 -19t-34.5 -21t-38.5 -27.5t-37.5 -29t-43.5 -34.5t-45 -35.5q12 -13 38.5 -42t38.5 -41.5t34.5 -34t38 -31t37.5 -21.5t44 -16.5t46 -4.5z" />
    <glyph glyph-name="approxequal" unicode="&#x2248;" horiz-adv-x="1095" 
d="M332 696h-170q24 137 112 216t193 79q50 0 92.5 -20t66.5 -43.5t57 -43.5t67 -20q49 0 76 35.5t36 89.5h170q-26 -144 -104 -221.5t-187 -77.5q-44 0 -80.5 13.5t-61 33t-46 38.5t-46.5 32.5t-52 13.5q-50 0 -81.5 -36t-41.5 -89zM254 256h-170q25 139 112 218t195 79
q51 0 92.5 -20t65 -43.5t55.5 -43.5t66 -20q91 0 114 125h170q-26 -144 -103.5 -221.5t-184.5 -77.5q-45 0 -82 13.5t-61.5 33t-46 38.5t-46 32.5t-51.5 13.5q-51 0 -83 -36.5t-42 -90.5z" />
    <glyph glyph-name="notequal" unicode="&#x2260;" horiz-adv-x="1077" 
d="M995 915l-30 -167h-291q-38 -141 -142 -265h388l-31 -168h-445q-8 -60 -69 -176h-158q62 115 121 176h-238l29 168h301q27 131 137 265h-391l31 167h450q2 27 12.5 58t20 49.5t29.5 54.5h158q0 -1 -9.5 -18t-11.5 -20t-11 -18.5t-13 -21.5l-13 -19.5t-16.5 -22t-17.5 -20
t-21 -22.5h231z" />
    <glyph glyph-name="lessequal" unicode="&#x2264;" horiz-adv-x="1044" 
d="M852 303h-756l27 143h452l-419 175l28 170l785 176l-29 -158l-573 -127l512 -229z" />
    <glyph glyph-name="greaterequal" unicode="&#x2265;" horiz-adv-x="1044" 
d="M856 303h-756l27 150l592 229l-529 127l27 158l723 -176l-31 -170l-481 -175h453z" />
    <glyph glyph-name="lozenge" unicode="&#x25ca;" horiz-adv-x="1146" 
d="M518 0h-90l-297 694l543 692h90l299 -692zM317 694l193 -467h8l359 467l-195 465h-6z" />
    <glyph glyph-name="A.ss01" horiz-adv-x="1542" 
d="M147 0h-231l891 1597h293l325 -1597h-235q-72 321 -76 500l-18 20q-203 -22 -334 -22q-159 0 -330 22l-26 -22q-81 -191 -259 -498zM514 684l12 -20q176 22 273 22q100 0 243 -22l19 20q-49 197 -73 367t-17 370h-101q-67 -203 -151.5 -371.5t-204.5 -365.5z" />
    <glyph glyph-name="Aacute.ss01" horiz-adv-x="1542" 
d="M1452 2060l-391 -340h-191l308 340h274zM147 0h-231l891 1597h293l325 -1597h-235q-72 321 -76 500l-18 20q-203 -22 -334 -22q-159 0 -330 22l-26 -22q-81 -191 -259 -498zM514 684l12 -20q176 22 273 22q100 0 243 -22l19 20q-49 197 -73 367t-17 370h-101
q-67 -203 -151.5 -371.5t-204.5 -365.5z" />
    <glyph glyph-name="Abreve.ss01" horiz-adv-x="1542" 
d="M975 1720q-167 0 -258.5 102.5t-71.5 241.5h182q-10 -74 37 -131t135 -57q90 0 158 56t86 132h180q-29 -140 -154.5 -242t-293.5 -102zM147 0h-231l891 1597h293l325 -1597h-235q-72 321 -76 500l-18 20q-203 -22 -334 -22q-159 0 -330 22l-26 -22q-81 -191 -259 -498z
M514 684l12 -20q176 22 273 22q100 0 243 -22l19 20q-49 197 -73 367t-17 370h-101q-67 -203 -151.5 -371.5t-204.5 -365.5z" />
    <glyph glyph-name="Acircumflex.ss01" horiz-adv-x="1542" 
d="M778 1720h-192l336 330h221l221 -330h-193q-36 41 -53.5 64.5t-38.5 69.5t-30 102h-62q-45 -79 -94 -131t-115 -105zM147 0h-231l891 1597h293l325 -1597h-235q-72 321 -76 500l-18 20q-203 -22 -334 -22q-159 0 -330 22l-26 -22q-81 -191 -259 -498zM514 684l12 -20
q176 22 273 22q100 0 243 -22l19 20q-49 197 -73 367t-17 370h-101q-67 -203 -151.5 -371.5t-204.5 -365.5z" />
    <glyph glyph-name="Adieresis.ss01" horiz-adv-x="1542" 
d="M766 1759q-52 0 -84.5 32.5t-32.5 82.5q0 66 50 114t116 48q51 0 83 -31.5t32 -79.5q0 -64 -49.5 -115t-114.5 -51zM1196 1759q-53 0 -85 32.5t-32 82.5q0 66 49 114t115 48q51 0 84 -32t33 -81q0 -62 -50 -113t-114 -51zM147 0h-231l891 1597h293l325 -1597h-235
q-72 321 -76 500l-18 20q-203 -22 -334 -22q-159 0 -330 22l-26 -22q-81 -191 -259 -498zM514 684l12 -20q176 22 273 22q100 0 243 -22l19 20q-49 197 -73 367t-17 370h-101q-67 -203 -151.5 -371.5t-204.5 -365.5z" />
    <glyph glyph-name="Agrave.ss01" horiz-adv-x="1542" 
d="M1096 1720h-189l-272 340h274zM147 0h-231l891 1597h293l325 -1597h-235q-72 321 -76 500l-18 20q-203 -22 -334 -22q-159 0 -330 22l-26 -22q-81 -191 -259 -498zM514 684l12 -20q176 22 273 22q100 0 243 -22l19 20q-49 197 -73 367t-17 370h-101
q-67 -203 -151.5 -371.5t-204.5 -365.5z" />
    <glyph glyph-name="Amacron.ss01" horiz-adv-x="1542" 
d="M1341 1798h-708l29 162h708zM147 0h-231l891 1597h293l325 -1597h-235q-72 321 -76 500l-18 20q-203 -22 -334 -22q-159 0 -330 22l-26 -22q-81 -191 -259 -498zM514 684l12 -20q176 22 273 22q100 0 243 -22l19 20q-49 197 -73 367t-17 370h-101q-67 -203 -151.5 -371.5
t-204.5 -365.5z" />
    <glyph glyph-name="Aogonek.ss01" horiz-adv-x="1542" 
d="M1151 -209q0 -52 37.5 -84.5t105.5 -32.5q44 0 92 13l-24 -133q-58 -17 -121 -17q-109 0 -180.5 50t-71.5 143q0 91 62 160.5t151 109.5h-12q-72 321 -76 500l-18 20q-203 -22 -334 -22q-159 0 -330 22l-26 -22q-81 -191 -259 -498h-231l891 1597h293l325 -1597h-67
q-89 -25 -148 -83.5t-59 -125.5zM1042 664l19 20q-49 197 -73 367t-17 370h-101q-67 -203 -151.5 -371.5t-204.5 -365.5l12 -20q176 22 273 22q100 0 243 -22z" />
    <glyph glyph-name="Aring.ss01" horiz-adv-x="1542" 
d="M973 1712q-91 0 -148 54.5t-57 140.5q0 107 85 189.5t202 82.5q91 0 148 -53.5t57 -140.5q0 -107 -85 -190t-202 -83zM991 1825q60 0 103 42t43 101q0 42 -29 69t-74 27q-60 0 -102.5 -41.5t-42.5 -99.5q0 -44 28 -71t74 -27zM147 0h-231l891 1597h293l325 -1597h-235
q-72 321 -76 500l-18 20q-203 -22 -334 -22q-159 0 -330 22l-26 -22q-81 -191 -259 -498zM514 684l12 -20q176 22 273 22q100 0 243 -22l19 20q-49 197 -73 367t-17 370h-101q-67 -203 -151.5 -371.5t-204.5 -365.5z" />
    <glyph glyph-name="Atilde.ss01" horiz-adv-x="1542" 
d="M1128 1739q-71 0 -139 61l-43 35q-48 43 -84 43q-41 0 -71 -35t-39 -88h-152q23 126 104 204.5t183 78.5q32 0 60 -10t43 -20.5t36 -29.5l41 -34q41 -41 82 -41q38 0 65.5 33t36.5 87h152q-23 -133 -96 -208.5t-179 -75.5zM147 0h-231l891 1597h293l325 -1597h-235
q-72 321 -76 500l-18 20q-203 -22 -334 -22q-159 0 -330 22l-26 -22q-81 -191 -259 -498zM514 684l12 -20q176 22 273 22q100 0 243 -22l19 20q-49 197 -73 367t-17 370h-101q-67 -203 -151.5 -371.5t-204.5 -365.5z" />
    <glyph glyph-name="B.ss01" horiz-adv-x="1458" 
d="M748 0h-654l283 1597h618q207 0 318.5 -96t111.5 -250q0 -152 -100 -265.5t-268 -151.5l-6 -37q299 -51 299 -297q0 -135 -77.5 -249.5t-216.5 -182.5t-308 -68zM444 885l21 -23q63 18 130.5 27t108 10.5t111.5 1.5q165 0 268 80.5t103 200.5q0 105 -80.5 159t-208.5 54
h-44h-47.5t-43.5 1t-48.5 3t-46 6t-53 10t-51.5 15l-31 -19q-3 -247 -88 -526zM317 195l23 -29q153 37 379 37q184 0 289.5 81t105.5 205q0 108 -83.5 164t-217.5 56q-76 0 -119.5 1.5t-114.5 10.5t-133 27l-30 -23q-12 -286 -99 -530z" />
    <glyph glyph-name="C.ss01" horiz-adv-x="1708" 
d="M805 -35q-313 0 -499.5 180.5t-186.5 489.5q0 192 76 374t204 318.5t308.5 219.5t377.5 83q248 0 421 -127.5t212 -355.5l-217 -82q-37 166 -156.5 262t-297.5 96q-116 0 -224 -42t-192.5 -115.5t-148 -169t-97 -207.5t-33.5 -225q0 -101 27.5 -184.5t74.5 -139.5
t111 -94.5t135.5 -56t149.5 -17.5q145 0 271.5 61t213.5 156.5t146 220.5l190 -71q-134 -271 -359 -422.5t-507 -151.5z" />
    <glyph glyph-name="D.ss01" horiz-adv-x="1638" 
d="M700 0h-606l283 1597h588q165 0 288 -44t198 -126.5t111.5 -193t36.5 -250.5q0 -150 -41 -294.5t-120 -268.5t-186.5 -218.5t-250 -148t-301.5 -53.5zM317 195l23 -29q165 37 344 37q129 0 240 38t191.5 105.5t137.5 158.5t85 197t28 222q0 471 -475 471q-112 0 -181 6
t-147 29l-31 -19q-41 -623 -215 -1216z" />
    <glyph glyph-name="E.ss01" horiz-adv-x="1337" 
d="M1139 0h-1045l283 1597h1024l-37 -202h-107h-115.5t-106 1t-118.5 3t-110 6t-124 10t-120 15l-31 -19q0 -249 -86 -514l17 -23q136 22 283 33t241.5 13t251.5 2l-37 -211q-164 0 -254 1.5t-234 13t-270 34.5l-26 -23q-12 -287 -101 -542l23 -29q144 19 304 28.5t257.5 11
t272.5 1.5z" />
    <glyph glyph-name="F.ss01" horiz-adv-x="1271" 
d="M315 0h-221l283 1597h1005l-36 -206q-168 0 -261 1.5t-242 10.5t-280 27l-31 -19q0 -276 -98 -539l17 -22q137 22 284 33t236 12.5t246 1.5l-37 -211q-159 0 -247 1.5t-231 12.5t-270 33l-26 -20q-6 -118 -22 -256t-29 -217.5t-40 -239.5z" />
    <glyph glyph-name="G.ss01" horiz-adv-x="1742" 
d="M801 -35q-319 0 -501.5 179t-182.5 483q0 155 48 304.5t137 274.5t206.5 221t266.5 149.5t308 53.5q164 0 298 -56t223.5 -166.5t113.5 -260.5l-217 -82q-39 168 -157.5 263t-296.5 95q-115 0 -222.5 -41.5t-191.5 -114.5t-147.5 -168t-97.5 -207t-34 -226
q0 -235 136 -364.5t370 -129.5q215 0 383 123t281 358l-19 27q-258 -59 -551 -62l33 185h713l-14 -70q-34 -188 -117 -336t-201.5 -241.5t-262 -142t-304.5 -48.5z" />
    <glyph glyph-name="H.ss01" horiz-adv-x="1658" 
d="M315 0h-221l283 1597h221q-86 -468 -154 -706l23 -21q235 33 432 33t399 -33l31 21q19 269 98 706h222l-283 -1597h-221q79 446 153 711l-24 22q-408 -77 -830 0l-30 -22q-3 -48 -8 -98.5t-9 -89t-11.5 -93t-12 -84t-14.5 -89.5t-13.5 -81.5t-15.5 -89.5t-15 -86z" />
    <glyph glyph-name="I.ss01" horiz-adv-x="1138" 
d="M961 0h-981l36 203q85 0 132 -1t122.5 -8.5t143.5 -21.5q78 630 221 1253q-73 -14 -155 -21t-127 -8t-136 -1l35 202h1001l-36 -202q-91 0 -135.5 1t-124.5 8t-150 21q-76 -628 -221 -1253q74 14 152 21.5t125.5 8.5t131.5 1z" />
    <glyph glyph-name="Iacute.ss01" horiz-adv-x="1138" 
d="M1198 2062l-393 -342h-189l308 342h274zM961 0h-981l36 203q85 0 132 -1t122.5 -8.5t143.5 -21.5q78 630 221 1253q-73 -14 -155 -21t-127 -8t-136 -1l35 202h1001l-36 -202q-91 0 -135.5 1t-124.5 8t-150 21q-76 -628 -221 -1253q74 14 152 21.5t125.5 8.5t131.5 1z" />
    <glyph glyph-name="Icircumflex.ss01" horiz-adv-x="1138" 
d="M580 1720h-193l336 330h221l221 -330h-192q-36 42 -53.5 65t-39 69t-30.5 102h-62q-45 -80 -93.5 -132t-114.5 -104zM961 0h-981l36 203q85 0 132 -1t122.5 -8.5t143.5 -21.5q78 630 221 1253q-73 -14 -155 -21t-127 -8t-136 -1l35 202h1001l-36 -202q-91 0 -135.5 1
t-124.5 8t-150 21q-76 -628 -221 -1253q74 14 152 21.5t125.5 8.5t131.5 1z" />
    <glyph glyph-name="Idieresis.ss01" horiz-adv-x="1138" 
d="M567 1759q-52 0 -84 32.5t-32 82.5q0 66 49.5 114t115.5 48q51 0 83 -31.5t32 -79.5q0 -64 -49.5 -115t-114.5 -51zM997 1759q-53 0 -84.5 32.5t-31.5 82.5q0 66 48.5 114t114.5 48q51 0 84 -32t33 -81q0 -62 -50 -113t-114 -51zM961 0h-981l36 203q85 0 132 -1
t122.5 -8.5t143.5 -21.5q78 630 221 1253q-73 -14 -155 -21t-127 -8t-136 -1l35 202h1001l-36 -202q-91 0 -135.5 1t-124.5 8t-150 21q-76 -628 -221 -1253q74 14 152 21.5t125.5 8.5t131.5 1z" />
    <glyph glyph-name="Idotaccent.ss01" horiz-adv-x="1138" 
d="M782 1772q-54 0 -87 32.5t-33 85.5q0 66 52 117t120 51q53 0 86.5 -33t33.5 -83q0 -66 -52.5 -118t-119.5 -52zM961 0h-981l36 203q85 0 132 -1t122.5 -8.5t143.5 -21.5q78 630 221 1253q-73 -14 -155 -21t-127 -8t-136 -1l35 202h1001l-36 -202q-91 0 -135.5 1t-124.5 8
t-150 21q-76 -628 -221 -1253q74 14 152 21.5t125.5 8.5t131.5 1z" />
    <glyph glyph-name="Igrave.ss01" horiz-adv-x="1138" 
d="M899 1720h-188l-273 340h275zM961 0h-981l36 203q85 0 132 -1t122.5 -8.5t143.5 -21.5q78 630 221 1253q-73 -14 -155 -21t-127 -8t-136 -1l35 202h1001l-36 -202q-91 0 -135.5 1t-124.5 8t-150 21q-76 -628 -221 -1253q74 14 152 21.5t125.5 8.5t131.5 1z" />
    <glyph glyph-name="Imacron.ss01" horiz-adv-x="1138" 
d="M1145 1798h-709l29 162h709zM961 0h-981l36 203q85 0 132 -1t122.5 -8.5t143.5 -21.5q78 630 221 1253q-73 -14 -155 -21t-127 -8t-136 -1l35 202h1001l-36 -202q-91 0 -135.5 1t-124.5 8t-150 21q-76 -628 -221 -1253q74 14 152 21.5t125.5 8.5t131.5 1z" />
    <glyph glyph-name="J.ss01" horiz-adv-x="1239" 
d="M473 -35q-85 0 -158.5 19.5t-136 60.5t-99.5 105t-50 154t12 206l6 37l219 28l-6 -34q-19 -101 -8.5 -171.5t48.5 -114.5t87 -64.5t109 -20.5q140 0 225.5 100t116.5 265q126 649 190 895l-10 28q-287 -63 -582 -63l35 202h774l-180 -1022q-7 -36 -11 -58t-18 -73.5
t-28.5 -88.5t-41 -90t-56.5 -91.5t-74.5 -80t-96 -68t-120 -43.5t-146.5 -17z" />
    <glyph glyph-name="K.ss01" horiz-adv-x="1411" 
d="M315 0h-221l283 1597h221q-8 -45 -28.5 -161t-33 -179.5t-34.5 -164.5t-47 -191h22q387 337 828 696h290q-748 -596 -999 -792l-6 -29q96 -88 204.5 -198t173 -179t194 -211.5t171.5 -187.5h-305q-226 239 -314 343q-151 179 -265 364h-23q-39 -303 -111 -707z" />
    <glyph glyph-name="L.ss01" horiz-adv-x="1200" 
d="M1079 0h-985l283 1597h221q-54 -305 -84 -466.5t-86 -435t-111 -500.5l23 -29q133 19 281.5 28.5t239.5 11t253 1.5z" />
    <glyph glyph-name="M.ss01" horiz-adv-x="1970" 
d="M317 0h-223l283 1597h264q108 -288 187 -534t137 -510h39q260 454 692 1044h264l-283 -1597h-223q10 61 36.5 220t43 252.5t43 234t55.5 269.5t62 253h-31l-641 -916h-162l-319 916h-31q-14 -155 -39.5 -336t-43 -285t-58.5 -325.5t-52 -282.5z" />
    <glyph glyph-name="N.ss01" horiz-adv-x="1681" 
d="M315 0h-221l283 1597h266q123 -268 184 -404t172.5 -399.5t200.5 -500.5h49q69 579 201 1304h221l-282 -1597h-267q-6 13 -56.5 123t-59.5 129t-53.5 116.5t-57.5 127.5t-52 118.5t-57 131.5t-52 124t-57 140.5t-52.5 135t-57.5 150.5h-53q-28 -234 -66.5 -489.5
t-61.5 -391t-71 -415.5z" />
    <glyph glyph-name="O.ss01" horiz-adv-x="1792" 
d="M791 -35q-194 0 -347 83t-240 237.5t-87 355.5q0 151 49.5 299t140 271t209.5 218t266 148t301 53q197 0 350.5 -86t238.5 -241t85 -353q0 -151 -50 -298.5t-141 -270t-210 -217t-265.5 -147t-299.5 -52.5zM829 172q136 0 264 63.5t221 166.5t149.5 240t56.5 278
q0 223 -131 363t-340 140q-180 0 -341.5 -106t-257.5 -279t-96 -362q0 -225 133.5 -364.5t341.5 -139.5z" />
    <glyph glyph-name="P.ss01" horiz-adv-x="1374" 
d="M315 0h-221l283 1597h588q25 0 46 -1t71.5 -8.5t90 -21t89 -43t82.5 -69.5t56 -104.5t23 -145.5q0 -115 -43.5 -221.5t-122 -189.5t-199 -133t-263.5 -50q-127 0 -215.5 9.5t-178.5 44.5q-17 -267 -86 -664zM424 786l22 -20q61 21 128 31.5t105 12t103 1.5
q177 0 291.5 92.5t114.5 249.5q0 242 -301 242q-70 0 -109 1t-100.5 9.5t-114.5 24.5l-31 -19q-12 -314 -108 -625z" />
    <glyph glyph-name="Q.ss01" horiz-adv-x="1802" 
d="M672 -25q-146 -131 -260 -215l-6 -28q184 29 377.5 43.5t320 17t332.5 2.5l-35 -190h-1391q204 206 451 436q-159 78 -249.5 230t-90.5 354t78 388t208.5 321t309.5 215.5t373 80.5q304 0 488.5 -183t184.5 -480q0 -201 -78 -386t-208.5 -319t-309 -214.5t-372.5 -80.5
q-71 0 -123 8zM1055 1425q-139 0 -269 -61.5t-224.5 -164t-151 -243t-56.5 -292.5q0 -224 133 -358t347 -134q185 0 345.5 103.5t254.5 279t94 377.5q0 222 -130 357.5t-343 135.5z" />
    <glyph glyph-name="R.ss01" horiz-adv-x="1421" 
d="M315 0h-221l283 1597h588q62 0 121 -10.5t122 -39t109 -73t76 -119.5t30 -171q0 -119 -43.5 -214.5t-115 -157.5t-171 -103.5t-204 -60t-221.5 -21.5q49 -48 105.5 -104t94.5 -94.5t108.5 -112t93.5 -98t108.5 -115t97.5 -103.5h-272q-17 18 -79 83.5t-88 93.5t-82 88.5
t-90.5 100t-81.5 94.5t-87.5 106t-77.5 102h-15q-19 -278 -88 -668zM424 776l22 -20q132 37 342 37q171 0 285.5 102.5t114.5 253.5q0 126 -85 187t-214 61q-201 0 -326 33l-31 -19q-11 -307 -108 -635z" />
    <glyph glyph-name="S.ss01" horiz-adv-x="1325" 
d="M578 -35q-105 0 -195 28t-163 83.5t-119 147.5t-56 212l217 72q16 -172 112.5 -256t239.5 -84q159 0 267 86t108 207q0 41 -15 73.5t-37 54t-57 39.5t-65 28.5t-72 23.5l-10.5 3.5t-9.5 2.5l-137 45q-36 12 -63 22t-67 29t-69.5 39t-61.5 50t-52.5 64t-34 79.5
t-13.5 97.5q0 100 47 194.5t127.5 166t196 114.5t244.5 43q213 0 339 -107.5t140 -269.5l-215 -82q-19 120 -98 189.5t-207 69.5q-141 0 -238.5 -78t-97.5 -185q0 -43 19 -79.5t44 -60t66 -45.5t68 -32.5t67 -23.5l154 -52q128 -44 178 -71q174 -95 174 -283
q0 -105 -49.5 -205.5t-135 -177.5t-209 -124.5t-261.5 -47.5z" />
    <glyph glyph-name="U.ss01" horiz-adv-x="1552" 
d="M614 -35q-87 0 -157.5 21.5t-118.5 57.5t-82.5 86.5t-53 107t-26.5 120t-5.5 124t13.5 120.5l176 995h220l-172 -979q-19 -91 -10.5 -172t38 -142.5t95 -97.5t159.5 -36q95 0 175 36t136.5 98.5t94 142t53.5 171.5l172 979h221l-282 -1597h-211q16 98 73 260h-30
q-83 -154 -197.5 -224.5t-280.5 -70.5z" />
    <glyph glyph-name="Uacute.ss01" horiz-adv-x="1552" 
d="M1319 2062l-393 -342h-189l307 342h275zM614 -35q-87 0 -157.5 21.5t-118.5 57.5t-82.5 86.5t-53 107t-26.5 120t-5.5 124t13.5 120.5l176 995h220l-172 -979q-19 -91 -10.5 -172t38 -142.5t95 -97.5t159.5 -36q95 0 175 36t136.5 98.5t94 142t53.5 171.5l172 979h221
l-282 -1597h-211q16 98 73 260h-30q-83 -154 -197.5 -224.5t-280.5 -70.5z" />
    <glyph glyph-name="Ucircumflex.ss01" horiz-adv-x="1552" 
d="M768 1720h-193l336 330h222l221 -330h-193q-36 42 -53.5 65t-39 69t-30.5 102h-61q-45 -79 -94 -131t-115 -105zM614 -35q-87 0 -157.5 21.5t-118.5 57.5t-82.5 86.5t-53 107t-26.5 120t-5.5 124t13.5 120.5l176 995h220l-172 -979q-19 -91 -10.5 -172t38 -142.5
t95 -97.5t159.5 -36q95 0 175 36t136.5 98.5t94 142t53.5 171.5l172 979h221l-282 -1597h-211q16 98 73 260h-30q-83 -154 -197.5 -224.5t-280.5 -70.5z" />
    <glyph glyph-name="Udieresis.ss01" horiz-adv-x="1552" 
d="M756 1759q-52 0 -84.5 32.5t-32.5 82.5q0 66 50 114t116 48q51 0 83 -31.5t32 -79.5q0 -64 -49.5 -115t-114.5 -51zM1186 1759q-53 0 -85 32.5t-32 82.5q0 66 49 114t115 48q51 0 84 -32t33 -81q0 -62 -50 -113t-114 -51zM614 -35q-87 0 -157.5 21.5t-118.5 57.5
t-82.5 86.5t-53 107t-26.5 120t-5.5 124t13.5 120.5l176 995h220l-172 -979q-19 -91 -10.5 -172t38 -142.5t95 -97.5t159.5 -36q95 0 175 36t136.5 98.5t94 142t53.5 171.5l172 979h221l-282 -1597h-211q16 98 73 260h-30q-83 -154 -197.5 -224.5t-280.5 -70.5z" />
    <glyph glyph-name="Ugrave.ss01" horiz-adv-x="1552" 
d="M1087 1720h-188l-272 340h274zM614 -35q-87 0 -157.5 21.5t-118.5 57.5t-82.5 86.5t-53 107t-26.5 120t-5.5 124t13.5 120.5l176 995h220l-172 -979q-19 -91 -10.5 -172t38 -142.5t95 -97.5t159.5 -36q95 0 175 36t136.5 98.5t94 142t53.5 171.5l172 979h221l-282 -1597
h-211q16 98 73 260h-30q-83 -154 -197.5 -224.5t-280.5 -70.5z" />
    <glyph glyph-name="Uhungarumlaut.ss01" horiz-adv-x="1552" 
d="M1186 2060l-352 -340h-185l277 340h260zM1577 2060l-365 -340h-182l287 340h260zM614 -35q-87 0 -157.5 21.5t-118.5 57.5t-82.5 86.5t-53 107t-26.5 120t-5.5 124t13.5 120.5l176 995h220l-172 -979q-19 -91 -10.5 -172t38 -142.5t95 -97.5t159.5 -36q95 0 175 36
t136.5 98.5t94 142t53.5 171.5l172 979h221l-282 -1597h-211q16 98 73 260h-30q-83 -154 -197.5 -224.5t-280.5 -70.5z" />
    <glyph glyph-name="Umacron.ss01" horiz-adv-x="1552" 
d="M1333 1798h-708l28 162h709zM614 -35q-87 0 -157.5 21.5t-118.5 57.5t-82.5 86.5t-53 107t-26.5 120t-5.5 124t13.5 120.5l176 995h220l-172 -979q-19 -91 -10.5 -172t38 -142.5t95 -97.5t159.5 -36q95 0 175 36t136.5 98.5t94 142t53.5 171.5l172 979h221l-282 -1597
h-211q16 98 73 260h-30q-83 -154 -197.5 -224.5t-280.5 -70.5z" />
    <glyph glyph-name="Uogonek.ss01" horiz-adv-x="1552" 
d="M1260 0h-29q-89 -25 -148 -83.5t-59 -125.5q0 -52 37.5 -84.5t105.5 -32.5q45 0 93 13l-25 -133q-58 -17 -121 -17q-109 0 -180.5 50t-71.5 143q0 91 62 160.5t151 109.5h-26q16 98 73 260h-30q-83 -154 -197.5 -224.5t-280.5 -70.5q-87 0 -157.5 21.5t-118.5 57.5
t-82.5 86.5t-53 107t-26.5 120t-5.5 124t13.5 120.5l176 995h220l-172 -979q-19 -91 -10.5 -172t38 -142.5t95 -97.5t159.5 -36q95 0 175 36t136.5 98.5t94 142t53.5 171.5l172 979h221z" />
    <glyph glyph-name="Uring.ss01" horiz-adv-x="1552" 
d="M963 1712q-91 0 -148 54.5t-57 140.5q0 107 84.5 189.5t201.5 82.5q91 0 148 -53.5t57 -140.5q0 -107 -84.5 -190t-201.5 -83zM981 1825q60 0 102.5 42t42.5 101q0 42 -28.5 69t-73.5 27q-60 0 -102.5 -41.5t-42.5 -99.5q0 -44 28 -71t74 -27zM614 -35q-87 0 -157.5 21.5
t-118.5 57.5t-82.5 86.5t-53 107t-26.5 120t-5.5 124t13.5 120.5l176 995h220l-172 -979q-19 -91 -10.5 -172t38 -142.5t95 -97.5t159.5 -36q95 0 175 36t136.5 98.5t94 142t53.5 171.5l172 979h221l-282 -1597h-211q16 98 73 260h-30q-83 -154 -197.5 -224.5t-280.5 -70.5z
" />
    <glyph glyph-name="V.ss01" horiz-adv-x="1546" 
d="M827 0h-315l-313 1597h233q149 -761 250 -1347h74q440 828 725 1347h233z" />
    <glyph glyph-name="W.ss01" horiz-adv-x="2344" 
d="M688 0h-274l-205 1597h246l133 -1294h22l570 1294h362l107 -1294h22l584 1294h248l-770 -1597h-273l-96 1372h-86z" />
    <glyph glyph-name="Wacute.ss01" horiz-adv-x="2344" 
d="M1855 2060l-391 -340h-190l307 340h274zM688 0h-274l-205 1597h246l133 -1294h22l570 1294h362l107 -1294h22l584 1294h248l-770 -1597h-273l-96 1372h-86z" />
    <glyph glyph-name="Wcircumflex.ss01" horiz-adv-x="2344" 
d="M1182 1720h-193l336 330h221l221 -330h-192q-36 42 -53.5 65t-39 69t-30.5 102h-61q-45 -79 -94 -131t-115 -105zM688 0h-274l-205 1597h246l133 -1294h22l570 1294h362l107 -1294h22l584 1294h248l-770 -1597h-273l-96 1372h-86z" />
    <glyph glyph-name="Wdieresis.ss01" horiz-adv-x="2344" 
d="M1169 1759q-52 0 -84 32.5t-32 82.5q0 66 50 114t116 48q50 0 82 -31.5t32 -79.5q0 -64 -49.5 -115t-114.5 -51zM1599 1759q-53 0 -84.5 32.5t-31.5 82.5q0 66 49 114t115 48q51 0 83.5 -31.5t32.5 -81.5q0 -62 -50 -113t-114 -51zM688 0h-274l-205 1597h246l133 -1294
h22l570 1294h362l107 -1294h22l584 1294h248l-770 -1597h-273l-96 1372h-86z" />
    <glyph glyph-name="Wgrave.ss01" horiz-adv-x="2344" 
d="M1501 1720h-188l-273 340h275zM688 0h-274l-205 1597h246l133 -1294h22l570 1294h362l107 -1294h22l584 1294h248l-770 -1597h-273l-96 1372h-86z" />
    <glyph glyph-name="X.ss01" horiz-adv-x="1437" 
d="M160 0h-248l676 807l2 22l-387 768h248q162 -342 301 -673h65q38 48 123 157.5t122.5 156.5t117.5 145t178 214h241l-657 -768l-6 -22l389 -807h-242q-82 172 -179 393.5t-128 306.5h-65q-46 -60 -122 -160.5t-113 -148t-119.5 -150.5t-196.5 -241z" />
    <glyph glyph-name="Y.ss01" horiz-adv-x="1427" 
d="M418 0h-234q296 391 469 582q-188 394 -436 1015h240q80 -202 114 -290.5t89 -248t96 -306.5h30q208 342 592 845h238z" />
    <glyph glyph-name="Yacute.ss01" horiz-adv-x="1427" 
d="M1368 2062l-391 -342h-191l308 342h274zM418 0h-234q296 391 469 582q-188 394 -436 1015h240q80 -202 114 -290.5t89 -248t96 -306.5h30q208 342 592 845h238z" />
    <glyph glyph-name="Ycircumflex.ss01" horiz-adv-x="1427" 
d="M741 1720h-192l336 330h221l221 -330h-192q-36 42 -53.5 65t-39 69t-30.5 102h-62q-45 -79 -94 -131t-115 -105zM418 0h-234q296 391 469 582q-188 394 -436 1015h240q80 -202 114 -290.5t89 -248t96 -306.5h30q208 342 592 845h238z" />
    <glyph glyph-name="Ydieresis.ss01" horiz-adv-x="1427" 
d="M729 1759q-52 0 -84.5 32.5t-32.5 82.5q0 66 50 114t116 48q51 0 83 -31.5t32 -79.5q0 -64 -49.5 -115t-114.5 -51zM1159 1759q-53 0 -85 32.5t-32 82.5q0 66 49 114t115 48q51 0 84 -32t33 -81q0 -62 -50 -113t-114 -51zM418 0h-234q296 391 469 582q-188 394 -436 1015
h240q80 -202 114 -290.5t89 -248t96 -306.5h30q208 342 592 845h238z" />
    <glyph glyph-name="Ygrave.ss01" horiz-adv-x="1427" 
d="M1061 1720h-189l-272 340h274zM418 0h-234q296 391 469 582q-188 394 -436 1015h240q80 -202 114 -290.5t89 -248t96 -306.5h30q208 342 592 845h238z" />
    <glyph glyph-name="Z.ss01" horiz-adv-x="1413" 
d="M1229 0h-1333q88 98 371.5 413.5t489.5 543t414 450.5l-8 33q-152 -21 -322.5 -31.5t-275.5 -12t-293 -1.5l37 202h1268q-59 -66 -278 -310.5t-331 -369t-303.5 -334t-359.5 -388.5l10 -35q156 22 338 33t296 12.5t317 1.5z" />
    <glyph glyph-name="Zacute.ss01" horiz-adv-x="1413" 
d="M1384 2060l-391 -340h-190l307 340h274zM1229 0h-1333q88 98 371.5 413.5t489.5 543t414 450.5l-8 33q-152 -21 -322.5 -31.5t-275.5 -12t-293 -1.5l37 202h1268q-59 -66 -278 -310.5t-331 -369t-303.5 -334t-359.5 -388.5l10 -35q156 22 338 33t296 12.5t317 1.5z" />
    <glyph glyph-name="Zcaron.ss01" horiz-adv-x="1413" 
d="M1022 1720h-229l-218 330h193q35 -41 52 -63t40 -69.5t35 -102.5h59q29 54 69.5 102.5t63 68.5t74.5 64h195zM1229 0h-1333q88 98 371.5 413.5t489.5 543t414 450.5l-8 33q-152 -21 -322.5 -31.5t-275.5 -12t-293 -1.5l37 202h1268q-59 -66 -278 -310.5t-331 -369
t-303.5 -334t-359.5 -388.5l10 -35q156 22 338 33t296 12.5t317 1.5z" />
    <glyph glyph-name="Zdotaccent.ss01" horiz-adv-x="1413" 
d="M924 1772q-54 0 -87.5 32.5t-33.5 85.5q0 66 52 117t120 51q53 0 87 -33t34 -83q0 -66 -52.5 -118t-119.5 -52zM1229 0h-1333q88 98 371.5 413.5t489.5 543t414 450.5l-8 33q-152 -21 -322.5 -31.5t-275.5 -12t-293 -1.5l37 202h1268q-59 -66 -278 -310.5t-331 -369
t-303.5 -334t-359.5 -388.5l10 -35q156 22 338 33t296 12.5t317 1.5z" />
    <glyph glyph-name="Q.ss02" horiz-adv-x="1792" 
d="M1757 948q0 -174 -67 -341.5t-182.5 -299.5t-281 -222t-352.5 -112q2 -71 -30 -217q96 18 201.5 27t170 10.5t179.5 1.5l-33 -190q-174 0 -253.5 0.5t-213.5 6t-233 17.5q23 223 61 340q-273 28 -439.5 209.5t-166.5 464.5q0 151 49.5 298.5t140 270.5t209.5 217.5
t266 147.5t301 53q196 0 350 -86t239 -241.5t85 -354.5zM905 170q172 38 312.5 148t220.5 268.5t80 331.5q0 224 -131 364.5t-338 140.5q-180 0 -341.5 -105.5t-257.5 -278.5t-96 -363q0 -196 107.5 -329.5t302.5 -174.5q-2 165 47 442h209q-20 -105 -29 -151.5t-33 -133
t-53 -159.5z" />
    <glyph glyph-name="A.ss07" 
d="M868 -315q-236 0 -416.5 95.5t-279 268t-98.5 395.5q0 140 40.5 279t112.5 260t176 225.5t226.5 178.5t268 116.5t296.5 42.5q228 0 408 -91.5t284.5 -267t104.5 -407.5q0 -171 -57 -335.5t-162 -300.5t-243 -239.5t-309.5 -161.5t-351.5 -58zM1038 1096l-549 -963h154
q10 17 38.5 67.5t43.5 78t36.5 71.5t37.5 82l10 10q110 -14 195 -14t192 14l8 -8q5 -128 47 -301h156l-209 963h-160zM868 545l-2 4q137 212 217 414h23q8 -220 65 -414l-2 -4q-94 12 -143 12q-48 0 -158 -12z" />
    <glyph glyph-name="B.ss07" 
d="M868 -315q-236 0 -416.5 95.5t-279 268t-98.5 395.5q0 140 40.5 279t112.5 260t176 225.5t226.5 178.5t268 116.5t296.5 42.5q228 0 408 -91.5t284.5 -267t104.5 -407.5q0 -171 -57 -335.5t-162 -300.5t-243 -239.5t-309.5 -161.5t-351.5 -58zM797 1096l-170 -963h395
q155 0 261 89.5t106 215.5q0 152 -177 183l2 8q101 25 161.5 94.5t60.5 159.5q0 99 -72.5 156t-192.5 57h-374zM860 662l-6 8q52 166 49 305l12 6q21 -7 41 -11.5t44 -6.5t34.5 -2.5t41 0t34.5 0.5q78 0 121 -31.5t43 -89.5q0 -68 -59 -112t-154 -44q-115 0 -201 -22z
M786 250l-8 10q50 148 58 307l10 8q84 -22 209 -22q85 0 131.5 -32t46.5 -93q0 -71 -63 -115.5t-169 -44.5q-121 0 -215 -18z" />
    <glyph glyph-name="C.ss07" 
d="M868 -315q-236 0 -416.5 95.5t-279 268t-98.5 395.5q0 140 40.5 279t112.5 260t176 225.5t226.5 178.5t268 116.5t296.5 42.5q228 0 408 -91.5t284.5 -267t104.5 -407.5q0 -171 -57 -335.5t-162 -300.5t-243 -239.5t-309.5 -161.5t-351.5 -58zM969 113q170 0 307.5 92.5
t216.5 261.5l-127 45q-53 -116 -148.5 -188t-220.5 -72q-122 0 -205 70.5t-83 212.5q0 114 53 215.5t147.5 164t204.5 62.5q105 0 173 -58t89 -157l146 55q-15 96 -71.5 164.5t-137.5 101.5t-178 33q-157 0 -291.5 -84.5t-211.5 -222.5t-77 -293q0 -185 112 -294t302 -109z
" />
    <glyph glyph-name="D.ss07" 
d="M868 -315q-236 0 -416.5 95.5t-279 268t-98.5 395.5q0 140 40.5 279t112.5 260t176 225.5t226.5 178.5t268 116.5t296.5 42.5q228 0 408 -91.5t284.5 -267t104.5 -407.5q0 -171 -57 -335.5t-162 -300.5t-243 -239.5t-309.5 -161.5t-351.5 -58zM762 1096l-170 -963h369
q120 0 223.5 50.5t172 133.5t107.5 190t39 220q0 180 -99.5 274.5t-285.5 94.5h-356zM752 250l-11 10q104 361 125 715l13 6q66 -20 192 -20q275 0 275 -267q0 -112 -44.5 -208.5t-130 -157t-194.5 -60.5q-143 0 -225 -18z" />
    <glyph glyph-name="E.ss07" 
d="M868 -315q-236 0 -416.5 95.5t-279 268t-98.5 395.5q0 140 40.5 279t112.5 260t176 225.5t226.5 178.5t268 116.5t296.5 42.5q228 0 408 -91.5t284.5 -267t104.5 -407.5q0 -171 -57 -335.5t-162 -300.5t-243 -239.5t-309.5 -161.5t-351.5 -58zM815 1096l-170 -963h635
l25 139q-323 0 -500 -24l-8 12q50 153 59 315l10 9q74 -14 163.5 -21t134 -7.5t155.5 -0.5l24 141q-103 0 -152.5 -0.5t-140 -7.5t-169.5 -20l-9 8q50 159 50 299l12 6q49 -7 96.5 -11.5t107.5 -6.5t85.5 -2.5t102.5 0t87 0.5l25 135h-623z" />
    <glyph glyph-name="F.ss07" 
d="M868 -315q-236 0 -416.5 95.5t-279 268t-98.5 395.5q0 140 40.5 279t112.5 260t176 225.5t226.5 178.5t268 116.5t296.5 42.5q228 0 408 -91.5t284.5 -267t104.5 -407.5q0 -171 -57 -335.5t-162 -300.5t-243 -239.5t-309.5 -161.5t-351.5 -58zM836 1096l-170 -963h147
q18 102 25.5 147t16.5 123t13 156l13 8q29 -5 61 -9.5t54.5 -7t59.5 -4.5t52.5 -3t58 -1.5t50.5 -0.5h56.5h51.5l27 139q-109 0 -152 -0.5t-134.5 -7t-172.5 -19.5l-6 9q58 163 55 313l12 6q168 -25 471 -25l25 140h-614z" />
    <glyph glyph-name="G.ss07" 
d="M868 -315q-236 0 -416.5 95.5t-279 268t-98.5 395.5q0 140 40.5 279t112.5 260t176 225.5t226.5 178.5t268 116.5t296.5 42.5q228 0 408 -91.5t284.5 -267t104.5 -407.5q0 -171 -57 -335.5t-162 -300.5t-243 -239.5t-309.5 -161.5t-351.5 -58zM950 113q127 0 222.5 57.5
t170.5 179.5l15 -2q-17 -44 -28 -80.5t-14 -53.5t-6.5 -45l-4.5 -36h116l88 494h-440l-22 -127q190 0 333 35l6 -7q-65 -131 -165.5 -203.5t-221.5 -72.5q-56 0 -106 16t-92 48.5t-67 89t-25 131.5q0 113 53 214t147.5 163.5t204.5 62.5q102 0 170 -56.5t90 -158.5l148 55
q-15 96 -71.5 164.5t-137.5 101.5t-178 33q-157 0 -292 -85t-212.5 -224t-77.5 -295q0 -182 108 -290.5t289 -108.5z" />
    <glyph glyph-name="H.ss07" 
d="M868 -315q-236 0 -416.5 95.5t-279 268t-98.5 395.5q0 140 40.5 279t112.5 260t176 225.5t226.5 178.5t268 116.5t296.5 42.5q228 0 408 -91.5t284.5 -267t104.5 -407.5q0 -171 -57 -335.5t-162 -300.5t-243 -239.5t-309.5 -161.5t-351.5 -58zM733 1096l-170 -963h146
q47 267 59 428l12 6q247 -44 488 0l8 -6q-39 -143 -90 -428h147l170 963h-147q-52 -286 -62 -422l-8 -8q-241 36 -489 0l-9 8q41 141 91 422h-146z" />
    <glyph glyph-name="I.ss07" 
d="M868 -315q-236 0 -416.5 95.5t-279 268t-98.5 395.5q0 140 40.5 279t112.5 260t176 225.5t226.5 178.5t268 116.5t296.5 42.5q228 0 408 -91.5t284.5 -267t104.5 -407.5q0 -171 -57 -335.5t-162 -300.5t-243 -239.5t-309.5 -161.5t-351.5 -58zM1047 1096l-170 -963h145
l170 963h-145z" />
    <glyph glyph-name="J.ss07" 
d="M868 -315q-236 0 -416.5 95.5t-279 268t-98.5 395.5q0 140 40.5 279t112.5 260t176 225.5t226.5 178.5t268 116.5t296.5 42.5q228 0 408 -91.5t284.5 -267t104.5 -407.5q0 -171 -57 -335.5t-162 -300.5t-243 -239.5t-309.5 -161.5t-351.5 -58zM915 123q61 0 112 16.5
t86 41.5t63.5 63.5t45 71.5t30 77t18.5 69t10 58l104 586h-147l-109 -612q-37 -234 -192 -234q-77 0 -120.5 51t-20.5 156l6 35l-146 -19l-8 -37q-15 -82 0 -145.5t54.5 -101.5t93.5 -57t120 -19z" />
    <glyph glyph-name="K.ss07" 
d="M868 -315q-236 0 -416.5 95.5t-279 268t-98.5 395.5q0 140 40.5 279t112.5 260t176 225.5t226.5 178.5t268 116.5t296.5 42.5q228 0 408 -91.5t284.5 -267t104.5 -407.5q0 -171 -57 -335.5t-162 -300.5t-243 -239.5t-309.5 -161.5t-351.5 -58zM786 1096l-170 -963h148
q3 21 21.5 129t27.5 193q67 45 137 118h4q76 -158 240 -440h180q-13 23 -56.5 99.5t-60.5 106t-54 90t-73.5 115t-82.5 118.5l2 10q62 51 130 111t115 102.5t121 109.5t111 101h-176q-315 -286 -525 -488h-8q19 54 34.5 105t29 110.5t19.5 87.5t19 101t15 84h-148z" />
    <glyph glyph-name="L.ss07" 
d="M868 -315q-236 0 -416.5 95.5t-279 268t-98.5 395.5q0 140 40.5 279t112.5 260t176 225.5t226.5 178.5t268 116.5t296.5 42.5q228 0 408 -91.5t284.5 -267t104.5 -407.5q0 -171 -57 -335.5t-162 -300.5t-243 -239.5t-309.5 -161.5t-351.5 -58zM895 1096l-170 -963h600
l25 139q-302 0 -465 -24l-8 12q18 75 35.5 154.5t29 135t28 145.5t23.5 127.5t25.5 142t23.5 131.5h-147z" />
    <glyph glyph-name="M.ss07" 
d="M868 -315q-236 0 -416.5 95.5t-279 268t-98.5 395.5q0 140 40.5 279t112.5 260t176 225.5t226.5 178.5t268 116.5t296.5 42.5q228 0 408 -91.5t284.5 -267t104.5 -407.5q0 -171 -57 -335.5t-162 -300.5t-243 -239.5t-309.5 -161.5t-351.5 -58zM610 1096l-170 -963h148
q5 28 29.5 169.5t33 196.5t20 165t15.5 208h8q21 -93 49 -199.5t46 -170t56 -194.5t50 -175h102q23 37 194 305t269 434h6q-18 -62 -34 -119.5t-30 -120t-23 -101.5t-21.5 -108t-17 -93t-17.5 -103t-16 -94h147l170 963h-156q-295 -432 -483 -779h-12q-75 397 -209 779h-154
z" />
    <glyph glyph-name="N.ss07" 
d="M868 -315q-236 0 -416.5 95.5t-279 268t-98.5 395.5q0 140 40.5 279t112.5 260t176 225.5t226.5 178.5t268 116.5t296.5 42.5q228 0 408 -91.5t284.5 -267t104.5 -407.5q0 -171 -57 -335.5t-162 -300.5t-243 -239.5t-309.5 -161.5t-351.5 -58zM737 1096l-170 -963h148
q31 174 44 249t33.5 219.5t34.5 277.5h7q78 -187 169.5 -360.5t215.5 -385.5h133l170 963h-148q-83 -477 -112 -760h-7q-148 360 -385 760h-133z" />
    <glyph glyph-name="O.ss07" 
d="M868 -315q-236 0 -416.5 95.5t-279 268t-98.5 395.5q0 140 40.5 279t112.5 260t176 225.5t226.5 178.5t268 116.5t296.5 42.5q228 0 408 -91.5t284.5 -267t104.5 -407.5q0 -171 -57 -335.5t-162 -300.5t-243 -239.5t-309.5 -161.5t-351.5 -58zM946 113q154 0 289 84
t214 221.5t79 288.5q0 181 -112.5 295t-291.5 114q-115 0 -223.5 -49.5t-186.5 -131.5t-125.5 -191t-47.5 -224q0 -184 114.5 -295.5t290.5 -111.5zM698 545q0 109 55 209t148.5 161.5t198.5 61.5q122 0 197 -82t75 -211q0 -109 -55 -209t-148 -161.5t-198 -61.5
q-120 0 -196.5 82t-76.5 211z" />
    <glyph glyph-name="P.ss07" 
d="M868 -315q-236 0 -416.5 95.5t-279 268t-98.5 395.5q0 140 40.5 279t112.5 260t176 225.5t226.5 178.5t268 116.5t296.5 42.5q228 0 408 -91.5t284.5 -267t104.5 -407.5q0 -171 -57 -335.5t-162 -300.5t-243 -239.5t-309.5 -161.5t-351.5 -58zM821 1096l-170 -963h148
q43 235 53 389q36 -13 78.5 -19t68.5 -6.5t84 -0.5q106 0 193 50.5t134.5 132t47.5 175.5q0 56 -19 100.5t-47.5 70.5t-67.5 42.5t-74 22.5t-72 6h-357zM872 604l-6 6q60 209 62 365l12 6q66 -20 188 -20q172 0 172 -138q0 -89 -65.5 -140.5t-163.5 -51.5q-119 0 -199 -27z
" />
    <glyph glyph-name="Q.ss07" 
d="M868 -315q-236 0 -416.5 95.5t-279 268t-98.5 395.5q0 140 40.5 279t112.5 260t176 225.5t226.5 178.5t268 116.5t296.5 42.5q228 0 408 -91.5t284.5 -267t104.5 -407.5q0 -171 -57 -335.5t-162 -300.5t-243 -239.5t-309.5 -161.5t-351.5 -58zM1294 53l123 88
q-72 109 -127 160q116 79 182 203.5t66 261.5q0 180 -113.5 294t-298.5 114q-155 0 -291 -83t-216 -220.5t-80 -290.5q0 -184 114.5 -297t294.5 -113q134 0 244 70q27 -75 102 -187zM692 602q0 173 123 302.5t289 129.5q127 0 203.5 -79.5t76.5 -206.5q0 -98 -42 -197
t-113 -168q-40 102 -133 244l-121 -88q5 -7 21.5 -33t24 -37.5t23.5 -34.5t27.5 -37t26.5 -31.5t30 -31.5q-77 -35 -153 -35q-127 0 -205 84.5t-78 218.5z" />
    <glyph glyph-name="R.ss07" 
d="M868 -315q-236 0 -416.5 95.5t-279 268t-98.5 395.5q0 140 40.5 279t112.5 260t176 225.5t226.5 178.5t268 116.5t296.5 42.5q228 0 408 -91.5t284.5 -267t104.5 -407.5q0 -171 -57 -335.5t-162 -300.5t-243 -239.5t-309.5 -161.5t-351.5 -58zM821 1096l-170 -963h148
q45 242 53 391q75 -20 166 -24l174 -367h166l-32 64t-34 67.5t-32 61.5t-36.5 67t-37 61.5t-43.5 65.5v6q142 12 228.5 105t86.5 221q0 57 -19.5 101.5t-49 70.5t-68.5 43t-73.5 23t-69.5 6h-357zM872 598l-6 6q59 200 62 371l12 6q76 -20 184 -20q78 0 127 -34t49 -106
q0 -86 -63.5 -144t-161.5 -59q-129 0 -203 -20z" />
    <glyph glyph-name="S.ss07" 
d="M868 -315q-236 0 -416.5 95.5t-279 268t-98.5 395.5q0 140 40.5 279t112.5 260t176 225.5t226.5 178.5t268 116.5t296.5 42.5q228 0 408 -91.5t284.5 -267t104.5 -407.5q0 -171 -57 -335.5t-162 -300.5t-243 -239.5t-309.5 -161.5t-351.5 -58zM963 113q163 0 281 102
t118 238q0 50 -18.5 88t-51.5 61t-62.5 36.5t-66.5 26.5q-11 3 -16 5l-90 30q-27 9 -46 16.5t-46 23.5t-41.5 40t-14.5 54q0 59 53.5 102t131.5 43q73 0 119 -41.5t57 -114.5l141 56q-6 103 -83.5 170t-207.5 67q-157 0 -267 -94t-110 -221q0 -167 222 -238l82 -24
q81 -27 106 -43q42 -31 43 -80q0 -68 -60.5 -117t-148.5 -49q-89 0 -143.5 53t-61.5 150l-143 -47q10 -147 100.5 -220t223.5 -73z" />
    <glyph glyph-name="T.ss07" 
d="M868 -315q-236 0 -416.5 95.5t-279 268t-98.5 395.5q0 140 40.5 279t112.5 260t176 225.5t226.5 178.5t268 116.5t296.5 42.5q228 0 408 -91.5t284.5 -267t104.5 -407.5q0 -171 -57 -335.5t-162 -300.5t-243 -239.5t-309.5 -161.5t-351.5 -58zM874 133h146
q94 529 135 844q113 -16 315 -16l25 135h-758l-24 -135q204 0 321 16q-76 -352 -160 -844z" />
    <glyph glyph-name="U.ss07" 
d="M868 -315q-236 0 -416.5 95.5t-279 268t-98.5 395.5q0 140 40.5 279t112.5 260t176 225.5t226.5 178.5t268 116.5t296.5 42.5q228 0 408 -91.5t284.5 -267t104.5 -407.5q0 -171 -57 -335.5t-162 -300.5t-243 -239.5t-309.5 -161.5t-351.5 -58zM942 123q85 0 155 24.5
t115.5 63t79.5 91.5t52 103t28 105l105 596h-148l-102 -588q-47 -258 -256 -258q-60 0 -99.5 21.5t-55.5 57.5t-20 82.5t7 96.5l104 588h-147l-105 -596q-8 -59 -10.5 -114.5t15.5 -105t49.5 -87t91 -59t141.5 -21.5z" />
    <glyph glyph-name="V.ss07" 
d="M868 -315q-236 0 -416.5 95.5t-279 268t-98.5 395.5q0 140 40.5 279t112.5 260t176 225.5t226.5 178.5t268 116.5t296.5 42.5q228 0 408 -91.5t284.5 -267t104.5 -407.5q0 -171 -57 -335.5t-162 -300.5t-243 -239.5t-309.5 -161.5t-351.5 -58zM670 1096l209 -963h159
l549 963h-155q-286 -501 -437 -822h-18q-43 362 -154 822h-153z" />
    <glyph glyph-name="W.ss07" 
d="M868 -315q-236 0 -416.5 95.5t-279 268t-98.5 395.5q0 140 40.5 279t112.5 260t176 225.5t226.5 178.5t268 116.5t296.5 42.5q228 0 408 -91.5t284.5 -267t104.5 -407.5q0 -171 -57 -335.5t-162 -300.5t-243 -239.5t-309.5 -161.5t-351.5 -58zM426 1096l125 -963h174
q231 470 354 785h13q15 -348 82 -785h169l465 963h-161q-210 -433 -357 -807h-6q-23 346 -86 807h-160q-246 -509 -366 -801h-8q-16 340 -74 801h-164z" />
    <glyph glyph-name="X.ss07" 
d="M868 -315q-236 0 -416.5 95.5t-279 268t-98.5 395.5q0 140 40.5 279t112.5 260t176 225.5t226.5 178.5t268 116.5t296.5 42.5q228 0 408 -91.5t284.5 -267t104.5 -407.5q0 -171 -57 -335.5t-162 -300.5t-243 -239.5t-309.5 -161.5t-351.5 -58zM541 133h176
q215 265 301 389h8q56 -162 162 -389h174q-178 361 -248 483l2 13q155 164 414 467h-172q-199 -239 -297 -375h-8q-76 204 -164 375h-172q147 -295 246 -467l-2 -13q-105 -116 -420 -483z" />
    <glyph glyph-name="Y.ss07" 
d="M868 -315q-236 0 -416.5 95.5t-279 268t-98.5 395.5q0 140 40.5 279t112.5 260t176 225.5t226.5 178.5t268 116.5t296.5 42.5q228 0 408 -91.5t284.5 -267t104.5 -407.5q0 -171 -57 -335.5t-162 -300.5t-243 -239.5t-309.5 -161.5t-351.5 -58zM874 133h146q43 249 53 344
q85 110 210.5 279.5t254.5 339.5h-158q-240 -331 -350 -510h-6q-48 190 -170 510h-160q93 -244 248 -621q-42 -169 -68 -342z" />
    <glyph glyph-name="Z.ss07" 
d="M868 -315q-236 0 -416.5 95.5t-279 268t-98.5 395.5q0 140 40.5 279t112.5 260t176 225.5t226.5 178.5t268 116.5t296.5 42.5q228 0 408 -91.5t284.5 -267t104.5 -407.5q0 -171 -57 -335.5t-162 -300.5t-243 -239.5t-309.5 -161.5t-351.5 -58zM600 252l-20 -119h745
l25 139q-324 0 -607 -39l-4 7q436 423 725 739l21 117h-715l-25 -135q321 0 574 40v-8q-442 -439 -719 -741z" />
    <glyph glyph-name="A.ss08" 
d="M868 -315q-236 0 -416.5 95.5t-279 268t-98.5 395.5q0 140 40.5 279t112.5 260t176 225.5t226.5 178.5t268 116.5t296.5 42.5q228 0 408 -91.5t284.5 -267t104.5 -407.5q0 -171 -57 -335.5t-162 -300.5t-243 -239.5t-309.5 -161.5t-351.5 -58zM889 -197q196 0 377.5 79
t312.5 209t209 305.5t78 361.5q0 202 -91 355t-247 232.5t-354 79.5q-196 0 -377.5 -80.5t-311.5 -212t-208 -307t-78 -358.5q0 -145 50 -268.5t139.5 -210.5t218.5 -136t282 -49zM774 291h-104l370 647h105l141 -647h-106q-3 14 -9.5 44.5t-10.5 49.5t-8 50t-5 61l-4 4
q-82 -8 -127 -8q-47 0 -129 8l-6 -4q-34 -78 -107 -205zM926 569q68 11 108 11q25 0 53.5 -4.5t38.5 -2.5q-4 20 -17 80t-20.5 105.5t-9.5 89.5h-8q-64 -152 -145 -279z" />
    <glyph glyph-name="B.ss08" 
d="M868 -315q-236 0 -416.5 95.5t-279 268t-98.5 395.5q0 140 40.5 279t112.5 260t176 225.5t226.5 178.5t268 116.5t296.5 42.5q228 0 408 -91.5t284.5 -267t104.5 -407.5q0 -171 -57 -335.5t-162 -300.5t-243 -239.5t-309.5 -161.5t-351.5 -58zM889 -197q196 0 377.5 79
t312.5 209t209 305.5t78 361.5q0 202 -91 355t-247 232.5t-354 79.5q-196 0 -377.5 -80.5t-311.5 -212t-208 -307t-78 -358.5q0 -145 50 -268.5t139.5 -210.5t218.5 -136t282 -49zM1016 291h-266l114 647h250q81 0 128.5 -38.5t47.5 -102.5q0 -63 -39.5 -111t-105.5 -63v-2
q117 -25 117 -125q0 -83 -71 -144t-175 -61zM901 649l2 -2q63 15 135 15q66 0 107 29t41 75q0 37 -30 58.5t-83 21.5q-91 0 -133 12l-2 -2q-3 -99 -37 -207zM852 375l4 -4q59 14 156 14q60 0 101.5 28.5t41.5 78.5q0 38 -31 59.5t-86 21.5q-77 0 -143 13l-4 -2
q-10 -122 -39 -209z" />
    <glyph glyph-name="C.ss08" 
d="M868 -315q-236 0 -416.5 95.5t-279 268t-98.5 395.5q0 140 40.5 279t112.5 260t176 225.5t226.5 178.5t268 116.5t296.5 42.5q228 0 408 -91.5t284.5 -267t104.5 -407.5q0 -171 -57 -335.5t-162 -300.5t-243 -239.5t-309.5 -161.5t-351.5 -58zM889 -197q196 0 377.5 79
t312.5 209t209 305.5t78 361.5q0 202 -91 355t-247 232.5t-354 79.5q-196 0 -377.5 -80.5t-311.5 -212t-208 -307t-78 -358.5q0 -145 50 -268.5t139.5 -210.5t218.5 -136t282 -49zM987 279q-126 0 -201 73.5t-75 196.5q0 104 51.5 196t142 148.5t197.5 56.5
q105 0 174.5 -54.5t81.5 -147.5l-96 -35q-13 68 -60.5 105.5t-118.5 37.5q-109 0 -188.5 -89t-79.5 -206q0 -95 56 -141.5t137 -46.5q80 0 145.5 46.5t101.5 131.5l86 -33q-53 -114 -145 -176.5t-209 -62.5z" />
    <glyph glyph-name="D.ss08" 
d="M868 -315q-236 0 -416.5 95.5t-279 268t-98.5 395.5q0 140 40.5 279t112.5 260t176 225.5t226.5 178.5t268 116.5t296.5 42.5q228 0 408 -91.5t284.5 -267t104.5 -407.5q0 -171 -57 -335.5t-162 -300.5t-243 -239.5t-309.5 -161.5t-351.5 -58zM889 -197q196 0 377.5 79
t312.5 209t209 305.5t78 361.5q0 202 -91 355t-247 232.5t-354 79.5q-196 0 -377.5 -80.5t-311.5 -212t-208 -307t-78 -358.5q0 -145 50 -268.5t139.5 -210.5t218.5 -136t282 -49zM983 291h-246l115 647h238q125 0 191.5 -64t66.5 -186q0 -161 -104.5 -279t-260.5 -118z
M840 375l2 -4q66 14 149 14q111 0 181.5 80.5t70.5 200.5q0 180 -182 180q-88 0 -133 12l-4 -2q-16 -239 -84 -481z" />
    <glyph glyph-name="E.ss08" 
d="M868 -315q-236 0 -416.5 95.5t-279 268t-98.5 395.5q0 140 40.5 279t112.5 260t176 225.5t226.5 178.5t268 116.5t296.5 42.5q228 0 408 -91.5t284.5 -267t104.5 -407.5q0 -171 -57 -335.5t-162 -300.5t-243 -239.5t-309.5 -161.5t-351.5 -58zM889 -197q196 0 377.5 79
t312.5 209t209 305.5t78 361.5q0 202 -91 355t-247 232.5t-354 79.5q-196 0 -377.5 -80.5t-311.5 -212t-208 -307t-78 -358.5q0 -145 50 -268.5t139.5 -210.5t218.5 -136t282 -49zM1200 291h-426l115 647h420l-19 -92q-223 0 -325 12l-4 -2q-3 -102 -33 -201l4 -2
q122 17 311 17l-16 -95q-204 0 -307 17l-5 -2q-6 -117 -38 -215l4 -4q123 14 336 14z" />
    <glyph glyph-name="F.ss08" 
d="M868 -315q-236 0 -416.5 95.5t-279 268t-98.5 395.5q0 140 40.5 279t112.5 260t176 225.5t226.5 178.5t268 116.5t296.5 42.5q228 0 408 -91.5t284.5 -267t104.5 -407.5q0 -171 -57 -335.5t-162 -300.5t-243 -239.5t-309.5 -161.5t-351.5 -58zM889 -197q196 0 377.5 79
t312.5 209t209 305.5t78 361.5q0 202 -91 355t-247 232.5t-354 79.5q-196 0 -377.5 -80.5t-311.5 -212t-208 -307t-78 -358.5q0 -145 50 -268.5t139.5 -210.5t218.5 -136t282 -49zM887 291h-99l115 647h410l-17 -94q-202 0 -317 14l-4 -2q-3 -110 -39 -211l4 -2
q102 16 309 16l-18 -94q-186 0 -299 17l-6 -2q-5 -85 -39 -289z" />
    <glyph glyph-name="G.ss08" 
d="M1194 1546q228 0 408 -91.5t284.5 -267t104.5 -407.5q0 -171 -57 -335.5t-162 -300.5t-243 -239.5t-309.5 -161.5t-351.5 -58q-236 0 -416.5 95.5t-279 268t-98.5 395.5q0 140 40.5 279t112.5 260t176 225.5t226.5 178.5t268 116.5t296.5 42.5zM889 -197q196 0 377.5 79
t312.5 209t209 305.5t78 361.5q0 202 -91 355t-247 232.5t-354 79.5q-196 0 -377.5 -80.5t-311.5 -212t-208 -307t-78 -358.5q0 -145 50 -268.5t139.5 -210.5t218.5 -136t282 -49zM1085 856q-111 0 -189.5 -88t-78.5 -207q0 -96 55.5 -142t135.5 -46q82 0 150.5 48.5
t107.5 137.5q-115 -24 -226 -20l15 84h297l-58 -332h-82q15 98 29 135q-99 -147 -264 -147q-121 0 -193.5 73t-72.5 195q0 159 114.5 281t274.5 122q106 0 176 -54.5t82 -147.5l-94 -35q-15 68 -62 105.5t-117 37.5z" />
    <glyph glyph-name="H.ss08" 
d="M868 -315q-236 0 -416.5 95.5t-279 268t-98.5 395.5q0 140 40.5 279t112.5 260t176 225.5t226.5 178.5t268 116.5t296.5 42.5q228 0 408 -91.5t284.5 -267t104.5 -407.5q0 -171 -57 -335.5t-162 -300.5t-243 -239.5t-309.5 -161.5t-351.5 -58zM889 -197q196 0 377.5 79
t312.5 209t209 305.5t78 361.5q0 202 -91 355t-247 232.5t-354 79.5q-196 0 -377.5 -80.5t-311.5 -212t-208 -307t-78 -358.5q0 -145 50 -268.5t139.5 -210.5t218.5 -136t282 -49zM817 291h-98l115 647h98q-31 -182 -60 -285l5 -2q176 20 327 0l4 2q11 110 41 285h101
l-115 -647h-100q3 16 11 61.5t12.5 70t15 68.5t22.5 89l-4 2q-161 -26 -330 0l-4 -2q-3 -50 -8 -93t-10.5 -73.5t-22.5 -122.5z" />
    <glyph glyph-name="I.ss08" 
d="M868 -315q-236 0 -416.5 95.5t-279 268t-98.5 395.5q0 140 40.5 279t112.5 260t176 225.5t226.5 178.5t268 116.5t296.5 42.5q228 0 408 -91.5t284.5 -267t104.5 -407.5q0 -171 -57 -335.5t-162 -300.5t-243 -239.5t-309.5 -161.5t-351.5 -58zM889 -197q196 0 377.5 79
t312.5 209t209 305.5t78 361.5q0 202 -91 355t-247 232.5t-354 79.5q-196 0 -377.5 -80.5t-311.5 -212t-208 -307t-78 -358.5q0 -145 50 -268.5t139.5 -210.5t218.5 -136t282 -49zM1026 291h-98l114 647h99z" />
    <glyph glyph-name="J.ss08" 
d="M868 -315q-236 0 -416.5 95.5t-279 268t-98.5 395.5q0 140 40.5 279t112.5 260t176 225.5t226.5 178.5t268 116.5t296.5 42.5q228 0 408 -91.5t284.5 -267t104.5 -407.5q0 -171 -57 -335.5t-162 -300.5t-243 -239.5t-309.5 -161.5t-351.5 -58zM889 -197q196 0 377.5 79
t312.5 209t209 305.5t78 361.5q0 202 -91 355t-247 232.5t-354 79.5q-196 0 -377.5 -80.5t-311.5 -212t-208 -307t-78 -358.5q0 -145 50 -268.5t139.5 -210.5t218.5 -136t282 -49zM954 285q-100 0 -147.5 58t-32.5 159l4 26l101 13l-5 -27q-12 -63 12 -100t79 -37
q108 0 131 155l71 412h101l-72 -395q-5 -33 -10.5 -57t-23 -66.5t-41.5 -70t-67.5 -49t-99.5 -21.5z" />
    <glyph glyph-name="K.ss08" 
d="M1194 1546q228 0 408 -91.5t284.5 -267t104.5 -407.5q0 -171 -57 -335.5t-162 -300.5t-243 -239.5t-309.5 -161.5t-351.5 -58q-236 0 -416.5 95.5t-279 268t-98.5 395.5q0 140 40.5 279t112.5 260t176 225.5t226.5 178.5t268 116.5t296.5 42.5zM889 -197q196 0 377.5 79
t312.5 209t209 305.5t78 361.5q0 202 -91 355t-247 232.5t-354 79.5q-196 0 -377.5 -80.5t-311.5 -212t-208 -307t-78 -358.5q0 -145 50 -268.5t139.5 -210.5t218.5 -136t282 -49zM1247 938h121q-40 -35 -95.5 -86t-107 -97.5t-118.5 -101.5l-3 -6q92 -133 220 -356h-121
q-153 273 -164 295q-60 -60 -90 -78q-11 -89 -33 -217h-98l114 647h99q-1 -7 -7.5 -42.5t-8.5 -47t-8 -43t-10.5 -49.5t-11.5 -45.5t-14 -52.5t-16 -50q153 151 352 330z" />
    <glyph glyph-name="L.ss08" 
d="M868 -315q-236 0 -416.5 95.5t-279 268t-98.5 395.5q0 140 40.5 279t112.5 260t176 225.5t226.5 178.5t268 116.5t296.5 42.5q228 0 408 -91.5t284.5 -267t104.5 -407.5q0 -171 -57 -335.5t-162 -300.5t-243 -239.5t-309.5 -161.5t-351.5 -58zM889 -197q196 0 377.5 79
t312.5 209t209 305.5t78 361.5q0 202 -91 355t-247 232.5t-354 79.5q-196 0 -377.5 -80.5t-311.5 -212t-208 -307t-78 -358.5q0 -145 50 -268.5t139.5 -210.5t218.5 -136t282 -49zM1231 291h-404l115 647h98q-68 -380 -110 -563l4 -4q115 14 313 14z" />
    <glyph glyph-name="M.ss08" 
d="M1194 1546q228 0 408 -91.5t284.5 -267t104.5 -407.5q0 -171 -57 -335.5t-162 -300.5t-243 -239.5t-309.5 -161.5t-351.5 -58q-236 0 -416.5 95.5t-279 268t-98.5 395.5q0 140 40.5 279t112.5 260t176 225.5t226.5 178.5t268 116.5t296.5 42.5zM889 -197q196 0 377.5 79
t312.5 209t209 305.5t78 361.5q0 202 -91 355t-247 232.5t-354 79.5q-196 0 -377.5 -80.5t-311.5 -212t-208 -307t-78 -358.5q0 -145 50 -268.5t139.5 -210.5t218.5 -136t282 -49zM995 414h2q178 306 330 524h103l-115 -647h-98q20 117 28.5 167.5t29.5 146.5t46 181
q-60 -102 -174.5 -282.5t-134.5 -212.5h-70q-10 37 -34 119.5t-46.5 166.5t-52.5 203q-14 -178 -72 -489h-100l115 647h104q96 -286 139 -524z" />
    <glyph glyph-name="N.ss08" 
d="M1194 1546q228 0 408 -91.5t284.5 -267t104.5 -407.5q0 -171 -57 -335.5t-162 -300.5t-243 -239.5t-309.5 -161.5t-351.5 -58q-236 0 -416.5 95.5t-279 268t-98.5 395.5q0 140 40.5 279t112.5 260t176 225.5t226.5 178.5t268 116.5t296.5 42.5zM889 -197q196 0 377.5 79
t312.5 209t209 305.5t78 361.5q0 202 -91 355t-247 232.5t-354 79.5q-196 0 -377.5 -80.5t-311.5 -212t-208 -307t-78 -358.5q0 -145 50 -268.5t139.5 -210.5t218.5 -136t282 -49zM1184 428q21 189 78 510h100l-115 -647h-88q-167 287 -260 497q-21 -182 -78 -497h-98
l115 647h88q82 -143 138 -251.5t120 -258.5z" />
    <glyph glyph-name="O.ss08" 
d="M868 -315q-236 0 -416.5 95.5t-279 268t-98.5 395.5q0 140 40.5 279t112.5 260t176 225.5t226.5 178.5t268 116.5t296.5 42.5q228 0 408 -91.5t284.5 -267t104.5 -407.5q0 -171 -57 -335.5t-162 -300.5t-243 -239.5t-309.5 -161.5t-351.5 -58zM889 -197q196 0 377.5 79
t312.5 209t209 305.5t78 361.5q0 202 -91 355t-247 232.5t-354 79.5q-196 0 -377.5 -80.5t-311.5 -212t-208 -307t-78 -358.5q0 -145 50 -268.5t139.5 -210.5t218.5 -136t282 -49zM975 279q-121 0 -197 76t-76 198q0 101 53 193t144 148t195 56q121 0 196.5 -76.5
t75.5 -197.5q0 -156 -117 -276.5t-274 -120.5zM993 373q105 0 187 87.5t82 201.5q0 85 -51.5 139.5t-131.5 54.5q-107 0 -188.5 -88t-81.5 -201q0 -85 50.5 -139.5t133.5 -54.5z" />
    <glyph glyph-name="P.ss08" 
d="M868 -315q-236 0 -416.5 95.5t-279 268t-98.5 395.5q0 140 40.5 279t112.5 260t176 225.5t226.5 178.5t268 116.5t296.5 42.5q228 0 408 -91.5t284.5 -267t104.5 -407.5q0 -171 -57 -335.5t-162 -300.5t-243 -239.5t-309.5 -161.5t-351.5 -58zM889 -197q196 0 377.5 79
t312.5 209t209 305.5t78 361.5q0 202 -91 355t-247 232.5t-354 79.5q-196 0 -377.5 -80.5t-311.5 -212t-208 -307t-78 -358.5q0 -145 50 -268.5t139.5 -210.5t218.5 -136t282 -49zM877 291h-99l113 647h239q32 0 62.5 -7.5t60 -25t47 -51t17.5 -80.5q0 -99 -72.5 -169
t-177.5 -70q-103 0 -156 16q-4 -64 -34 -260zM922 612l2 -4q56 17 135 17q66 0 109.5 35t43.5 94q0 92 -112 92q-86 0 -131 12l-4 -2q-6 -133 -43 -244z" />
    <glyph glyph-name="Q.ss08" 
d="M868 -315q-236 0 -416.5 95.5t-279 268t-98.5 395.5q0 140 40.5 279t112.5 260t176 225.5t226.5 178.5t268 116.5t296.5 42.5q228 0 408 -91.5t284.5 -267t104.5 -407.5q0 -171 -57 -335.5t-162 -300.5t-243 -239.5t-309.5 -161.5t-351.5 -58zM889 -197q196 0 377.5 79
t312.5 209t209 305.5t78 361.5q0 202 -91 355t-247 232.5t-354 79.5q-196 0 -377.5 -80.5t-311.5 -212t-208 -307t-78 -358.5q0 -145 50 -268.5t139.5 -210.5t218.5 -136t282 -49zM1290 297l-82 -59q-53 80 -67 122q-74 -45 -164 -45q-121 0 -198 76.5t-77 198.5
q0 102 53 193.5t144.5 147.5t196.5 56q123 0 198.5 -76t75.5 -196q0 -91 -43 -174t-119 -138q36 -36 82 -106zM993 401q42 0 103 23q-45 47 -103 137l82 62q69 -109 90 -160q49 48 76 112t27 125q0 86 -51.5 140.5t-135.5 54.5q-112 0 -194 -87.5t-82 -203.5
q0 -90 52 -146.5t136 -56.5z" />
    <glyph glyph-name="R.ss08" 
d="M868 -315q-236 0 -416.5 95.5t-279 268t-98.5 395.5q0 140 40.5 279t112.5 260t176 225.5t226.5 178.5t268 116.5t296.5 42.5q228 0 408 -91.5t284.5 -267t104.5 -407.5q0 -171 -57 -335.5t-162 -300.5t-243 -239.5t-309.5 -161.5t-351.5 -58zM889 -197q196 0 377.5 79
t312.5 209t209 305.5t78 361.5q0 202 -91 355t-247 232.5t-354 79.5q-196 0 -377.5 -80.5t-311.5 -212t-208 -307t-78 -358.5q0 -145 50 -268.5t139.5 -210.5t218.5 -136t282 -49zM877 291h-99l115 647h237q30 0 60.5 -7.5t60.5 -25t49 -52t19 -81.5q0 -87 -59 -148.5
t-152 -70.5q22 -31 44 -68.5t35 -62t35 -69.5t31 -62h-114l-115 246q-56 0 -111 14q-6 -92 -36 -260zM922 608l2 -4q51 14 139 14q65 2 107 39.5t42 94.5q0 48 -32.5 71t-83.5 23q-73 0 -127 12l-4 -2q-9 -131 -43 -248z" />
    <glyph glyph-name="S.ss08" 
d="M868 -315q-236 0 -416.5 95.5t-279 268t-98.5 395.5q0 140 40.5 279t112.5 260t176 225.5t226.5 178.5t268 116.5t296.5 42.5q228 0 408 -91.5t284.5 -267t104.5 -407.5q0 -171 -57 -335.5t-162 -300.5t-243 -239.5t-309.5 -161.5t-351.5 -58zM889 -197q196 0 377.5 79
t312.5 209t209 305.5t78 361.5q0 202 -91 355t-247 232.5t-354 79.5q-196 0 -377.5 -80.5t-311.5 -212t-208 -307t-78 -358.5q0 -145 50 -268.5t139.5 -210.5t218.5 -136t282 -49zM985 279q-94 0 -152 51t-65 145l98 33q4 -64 41 -100.5t97 -36.5q59 0 99 32.5t40 77.5
q0 11 -2.5 20.5t-9.5 17t-12 12t-17.5 9.5t-17.5 7.5t-21 7.5t-21 6l-55 19q-27 9 -46.5 18t-45.5 27.5t-40.5 47.5t-14.5 66q0 85 74 148t178 63q83 0 137.5 -43.5t58.5 -115.5l-96 -39q-7 51 -38.5 77.5t-80.5 26.5q-53 0 -88 -27.5t-35 -68.5q0 -56 99 -88l59 -21
q29 -9 38 -12.5t36 -17t38.5 -26.5t23 -37t11.5 -54q0 -91 -80 -158t-190 -67z" />
    <glyph glyph-name="T.ss08" 
d="M868 -315q-236 0 -416.5 95.5t-279 268t-98.5 395.5q0 140 40.5 279t112.5 260t176 225.5t226.5 178.5t268 116.5t296.5 42.5q228 0 408 -91.5t284.5 -267t104.5 -407.5q0 -171 -57 -335.5t-162 -300.5t-243 -239.5t-309.5 -161.5t-351.5 -58zM889 -197q196 0 377.5 79
t312.5 209t209 305.5t78 361.5q0 202 -91 355t-247 232.5t-354 79.5q-196 0 -377.5 -80.5t-311.5 -212t-208 -307t-78 -358.5q0 -145 50 -268.5t139.5 -210.5t218.5 -136t282 -49zM1024 291h-98q61 346 108 565q-80 -10 -215 -10l17 92h505l-16 -92q-135 0 -211 10
q-13 -93 -32 -213t-37 -228t-21 -124z" />
    <glyph glyph-name="U.ss08" 
d="M868 -315q-236 0 -416.5 95.5t-279 268t-98.5 395.5q0 140 40.5 279t112.5 260t176 225.5t226.5 178.5t268 116.5t296.5 42.5q228 0 408 -91.5t284.5 -267t104.5 -407.5q0 -171 -57 -335.5t-162 -300.5t-243 -239.5t-309.5 -161.5t-351.5 -58zM889 -197q196 0 377.5 79
t312.5 209t209 305.5t78 361.5q0 202 -91 355t-247 232.5t-354 79.5q-196 0 -377.5 -80.5t-311.5 -212t-208 -307t-78 -358.5q0 -145 50 -268.5t139.5 -210.5t218.5 -136t282 -49zM973 285q-54 0 -93.5 14.5t-61 39.5t-34 58t-11 70t6.5 76l70 401h100l-69 -397
q-31 -170 112 -170q140 0 168 170l70 397h100l-71 -401q-20 -111 -89.5 -184.5t-197.5 -73.5z" />
    <glyph glyph-name="V.ss08" 
d="M868 -315q-236 0 -416.5 95.5t-279 268t-98.5 395.5q0 140 40.5 279t112.5 260t176 225.5t226.5 178.5t268 116.5t296.5 42.5q228 0 408 -91.5t284.5 -267t104.5 -407.5q0 -171 -57 -335.5t-162 -300.5t-243 -239.5t-309.5 -161.5t-351.5 -58zM889 -197q196 0 377.5 79
t312.5 209t209 305.5t78 361.5q0 202 -91 355t-247 232.5t-354 79.5q-196 0 -377.5 -80.5t-311.5 -212t-208 -307t-78 -358.5q0 -145 50 -268.5t139.5 -210.5t218.5 -136t282 -49zM1036 291h-106l-139 647h102q79 -319 104 -553h7q145 293 296 553h105z" />
    <glyph glyph-name="W.ss08" 
d="M1194 1546q228 0 408 -91.5t284.5 -267t104.5 -407.5q0 -171 -57 -335.5t-162 -300.5t-243 -239.5t-309.5 -161.5t-351.5 -58q-236 0 -416.5 95.5t-279 268t-98.5 395.5q0 140 40.5 279t112.5 260t176 225.5t226.5 178.5t268 116.5t296.5 42.5zM889 -197q196 0 377.5 79
t312.5 209t209 305.5t78 361.5q0 202 -91 355t-247 232.5t-354 79.5q-196 0 -377.5 -80.5t-311.5 -212t-208 -307t-78 -358.5q0 -145 50 -268.5t139.5 -210.5t218.5 -136t282 -49zM1202 401q117 283 242 537h108l-313 -647h-113q-46 321 -55 526h-2q-97 -239 -244 -526h-112
l-84 647h108q49 -383 56 -535q119 279 245 535h105q47 -377 59 -537z" />
    <glyph glyph-name="X.ss08" 
d="M868 -315q-236 0 -416.5 95.5t-279 268t-98.5 395.5q0 140 40.5 279t112.5 260t176 225.5t226.5 178.5t268 116.5t296.5 42.5q228 0 408 -91.5t284.5 -267t104.5 -407.5q0 -171 -57 -335.5t-162 -300.5t-243 -239.5t-309.5 -161.5t-351.5 -58zM889 -197q196 0 377.5 79
t312.5 209t209 305.5t78 361.5q0 202 -91 355t-247 232.5t-354 79.5q-196 0 -377.5 -80.5t-311.5 -212t-208 -307t-78 -358.5q0 -145 50 -268.5t139.5 -210.5t218.5 -136t282 -49zM821 291h-119q174 207 283 325l2 7q-76 130 -166 315h115q60 -124 113 -254h2
q117 157 202 254h115q-187 -218 -278 -315l-3 -7q41 -71 168 -325h-116q-6 14 -30 67t-41.5 95t-39.5 102h-2q-81 -112 -205 -264z" />
    <glyph glyph-name="Y.ss08" 
d="M868 -315q-236 0 -416.5 95.5t-279 268t-98.5 395.5q0 140 40.5 279t112.5 260t176 225.5t226.5 178.5t268 116.5t296.5 42.5q228 0 408 -91.5t284.5 -267t104.5 -407.5q0 -171 -57 -335.5t-162 -300.5t-243 -239.5t-309.5 -161.5t-351.5 -58zM889 -197q196 0 377.5 79
t312.5 209t209 305.5t78 361.5q0 202 -91 355t-247 232.5t-354 79.5q-196 0 -377.5 -80.5t-311.5 -212t-208 -307t-78 -358.5q0 -145 50 -268.5t139.5 -210.5t218.5 -136t282 -49zM1024 291h-98q27 157 45 231q-11 28 -54 139t-112 277h108q80 -212 115 -342h2
q71 114 238 342h106q-250 -332 -315 -414q-4 -60 -35 -233z" />
    <glyph glyph-name="Z.ss08" 
d="M868 -315q-236 0 -416.5 95.5t-279 268t-98.5 395.5q0 140 40.5 279t112.5 260t176 225.5t226.5 178.5t268 116.5t296.5 42.5q228 0 408 -91.5t284.5 -267t104.5 -407.5q0 -171 -57 -335.5t-162 -300.5t-243 -239.5t-309.5 -161.5t-351.5 -58zM889 -197q196 0 377.5 79
t312.5 209t209 305.5t78 361.5q0 202 -91 355t-247 232.5t-354 79.5q-196 0 -377.5 -80.5t-311.5 -212t-208 -307t-78 -358.5q0 -145 50 -268.5t139.5 -210.5t218.5 -136t282 -49zM1233 291h-502l14 80q213 231 484 499h-2q-174 -24 -385 -24l18 92h481l-14 -78
q-216 -233 -487 -498v-2q192 25 409 25z" />
    <glyph glyph-name="i.loclTRK" horiz-adv-x="530" 
d="M406 1360q-53 0 -86 34t-33 87q0 66 51.5 117t120.5 51q52 0 85.5 -34t33.5 -85q0 -66 -52.5 -118t-119.5 -52zM270 0h-207l199 1137h209z" />
    <glyph glyph-name="a.ss01" horiz-adv-x="1368" 
d="M496 -35q-198 0 -313 129.5t-115 341.5q0 140 51.5 274t137 235t205 162.5t247.5 61.5q134 0 222.5 -70.5t115.5 -215.5h28q5 131 27 254h205l-199 -1137h-199q1 4 3 19t3 19.5t3.5 19.5t4 22.5t5 22.5t7 26t8 27.5t10 32t12 34.5t14.5 39h-29q-168 -297 -454 -297z
M575 162q114 0 214.5 70t159.5 184t59 239q0 143 -80.5 231.5t-212.5 88.5q-117 0 -216 -72.5t-153.5 -185.5t-54.5 -236q0 -145 77 -232t207 -87z" />
    </font>
</defs>
</svg>
