<?xml version="1.0" standalone="no"?>
<!DOCTYPE svg PUBLIC "-//W3C//DTD SVG 1.1//EN" "http://www.w3.org/Graphics/SVG/1.1/DTD/svg11.dtd" >
<svg xmlns="http://www.w3.org/2000/svg" xmlns:xlink="http://www.w3.org/1999/xlink" version="1.1">
<metadata>
Created by FontForge 20170731 at Mon Mar 15 14:15:24 2021
 By Aleksey,,,
Copyright (c) 2020 by Matthieu Salvaggio x Blaze Type. All rights reserved.
</metadata>
<defs>
<font id="Area-ExtrablackInktrap" horiz-adv-x="2048" >
  <font-face 
    font-family="Area Extrablack Inktrap"
    font-weight="950"
    font-stretch="normal"
    units-per-em="2048"
    panose-1="0 0 10 0 0 0 0 0 0 0"
    ascent="1638"
    descent="-410"
    x-height="1147"
    cap-height="1597"
    bbox="-1741 -696 2800 2228"
    underline-thickness="102"
    underline-position="-307"
    unicode-range="U+0020-25CA"
  />
<missing-glyph horiz-adv-x="1370" 
d="M1212 0h-1054v1597h1054v-1597zM381 1378v-854l508 854h-508zM989 1151l-557 -932h557v932z" />
    <glyph glyph-name=".notdef" horiz-adv-x="1370" 
d="M1212 0h-1054v1597h1054v-1597zM381 1378v-854l508 854h-508zM989 1151l-557 -932h557v932z" />
    <glyph glyph-name=".null" horiz-adv-x="0" 
 />
    <glyph glyph-name="nonmarkingreturn" horiz-adv-x="682" 
 />
    <glyph glyph-name="space" unicode=" " horiz-adv-x="471" 
 />
    <glyph glyph-name="exclam" unicode="!" horiz-adv-x="610" 
d="M399 541h-186l-88 845v211h362v-211zM307 -14q-86 0 -146.5 62t-60.5 151q0 83 60.5 142.5t146.5 59.5q81 0 143 -60t62 -142q0 -89 -60 -151t-145 -62z" />
    <glyph glyph-name="quotedbl" unicode="&#x22;" horiz-adv-x="1036" 
d="M440 1008h-321v589h321v-589zM918 1008h-322v589h322v-589z" />
    <glyph glyph-name="numbersign" unicode="#" horiz-adv-x="1693" 
d="M551 0h-303q45 231 110 397q-57 -19 -113.5 -28.5t-88 -11t-86.5 -1.5l57 281q55 0 85 -1.5t76.5 -11t84.5 -28.5q11 92 28.5 157.5t57.5 149.5q-55 -19 -109.5 -28.5t-85 -11t-82.5 -1.5l60 281q52 0 81.5 -1.5t82 -11t108.5 -28.5q-7 130 6.5 240.5t42.5 254.5h303
q-50 -244 -86 -362q-20 -66 -45 -133q100 31 179.5 31t179.5 -31q-7 130 6.5 240.5t42.5 254.5h303q-50 -244 -86 -362q-20 -66 -45 -133q60 19 120 28.5t94 11t93 1.5l-59 -281q-58 0 -91.5 1.5t-92.5 11t-119 28.5q18 -92 7.5 -153.5t-53.5 -153.5q58 19 115.5 28.5
t89.5 11t88 1.5l-57 -281q-56 0 -87.5 1.5t-88.5 11t-115 28.5q5 -46 5.5 -93t-1 -80t-8.5 -80.5t-11 -70t-14 -73.5h-303q44 226 111 397q-100 -31 -179 -31t-179 31q5 -46 5.5 -93t-1 -80t-8.5 -80.5t-11 -70t-14 -73.5zM635 596q100 31 179 31t179 -31q-18 92 -8 153.5
t53 153.5q-100 -31 -179 -31t-179 31q18 -92 8 -153.5t-53 -153.5z" />
    <glyph glyph-name="dollar" unicode="$" horiz-adv-x="1302" 
d="M1214 504q0 -93 -35 -174t-100.5 -141.5t-165.5 -96t-223 -37.5v-137h-61v139q-212 9 -352 119t-183 293l322 96q54 -168 213 -192v254l-119 37q-52 16 -93.5 32.5t-98 50.5t-94.5 74t-65.5 102t-27.5 136q0 193 141.5 315.5t356.5 130.5v133h61v-133q188 -10 315 -108.5
t156 -218.5l-293 -136q-22 57 -70 97.5t-108 52.5v-238q3 -2 21 -8l166 -59q35 -12 56 -20.5t60.5 -27.5t65.5 -37.5t58 -49.5t51 -65t32.5 -81.5t13.5 -101.5zM492 1098q0 -43 32.5 -69.5t104.5 -53.5v221q-137 -5 -137 -98zM690 606v-235q67 4 106.5 36.5t39.5 73.5
q0 47 -34.5 72.5t-111.5 52.5z" />
    <glyph glyph-name="percent" unicode="%" horiz-adv-x="2068" 
d="M389 688q-159 0 -250.5 119.5t-91.5 314.5t91.5 314.5t250.5 119.5t250.5 -120t91.5 -314t-91.5 -314t-250.5 -120zM612 0h-317l1139 1468h309zM389 942q17 0 28 13.5t18 54.5t7 112q0 72 -7 114t-18 55.5t-28 13.5q-27 0 -41 -39.5t-14 -143.5q0 -102 14 -141t41 -39z
M1679 -29q-159 0 -250.5 120t-91.5 315t91.5 314.5t250.5 119.5t250.5 -120t91.5 -314t-91.5 -314.5t-250.5 -120.5zM1679 225q17 0 28 14t18.5 55.5t7.5 111.5q0 72 -7.5 113.5t-18.5 55t-28 13.5q-27 0 -41 -39t-14 -143q0 -102 14 -141.5t41 -39.5z" />
    <glyph glyph-name="ampersand" unicode="&#x26;" horiz-adv-x="1552" 
d="M594 -35q-233 0 -380.5 119.5t-147.5 312.5q0 121 86.5 220t253.5 192q-107 67 -166.5 162t-59.5 213q0 89 34 169.5t95.5 142t154 98t202.5 36.5q113 0 206 -39t150.5 -102t89 -139t31.5 -154q0 -55 -19 -103.5t-49 -84.5t-78 -71t-93.5 -59.5t-108.5 -52.5l254 -260
q-7 42 -8 77.5t6 75.5t11 57t17 65l324 -64q-34 -133 -80 -222t-127 -140l414 -412h-459l-146 193q-64 -125 -166 -177.5t-241 -52.5zM668 956q70 55 94 108.5t24 115.5q0 63 -36 104t-91 41q-54 0 -86 -39t-32 -98q0 -62 33.5 -117t93.5 -115zM623 281q83 0 223 61
l-287 309q-81 -66 -112 -112t-31 -93q0 -73 57 -119t150 -46z" />
    <glyph glyph-name="quotesingle" unicode="'" horiz-adv-x="559" 
d="M440 1008h-321v589h321v-589z" />
    <glyph glyph-name="parenleft" unicode="(" horiz-adv-x="776" 
d="M780 -307h-356q-167 198 -255.5 445.5t-88.5 506.5q0 260 88.5 507t255.5 445h356q-166 -200 -256 -447t-90 -505q0 -257 90 -505t256 -447z" />
    <glyph glyph-name="parenright" unicode=")" horiz-adv-x="776" 
d="M352 -307h-356q166 199 256 447t90 505q0 258 -90 505t-256 447h356q167 -198 255.5 -445t88.5 -507q0 -259 -88.5 -506.5t-255.5 -445.5z" />
    <glyph glyph-name="asterisk" unicode="*" horiz-adv-x="763" 
d="M461 1026h-160l4 160l-133 -86l-80 135l160 78l-158 73l78 138l133 -82l-4 155h160l-4 -155l133 82l80 -135l-158 -76l158 -78l-80 -135l-133 86z" />
    <glyph glyph-name="plus" unicode="+" horiz-adv-x="1105" 
d="M696 752h295v-256h-295v-320h-276v320h-305v256h305v321h276v-321z" />
    <glyph glyph-name="comma" unicode="," horiz-adv-x="571" 
d="M221 -291h-186q40 70 60.5 103.5t62.5 87t88 90.5q-72 7 -120 68.5t-48 140.5q0 83 61.5 142.5t147.5 59.5q85 0 145 -59t60 -145q0 -16 -2 -30.5t-8.5 -33t-13 -33.5t-21.5 -41.5t-26.5 -46t-36.5 -57.5t-44 -66.5t-55 -83t-64 -96.5z" />
    <glyph glyph-name="hyphen" unicode="-" horiz-adv-x="950" 
d="M829 479h-708v289h708v-289z" />
    <glyph glyph-name="period" unicode="." horiz-adv-x="567" 
d="M285 -14q-86 0 -146.5 62t-60.5 151q0 83 60.5 142.5t146.5 59.5q85 0 144.5 -59.5t59.5 -142.5q0 -89 -59.5 -151t-144.5 -62z" />
    <glyph glyph-name="slash" unicode="/" horiz-adv-x="966" 
d="M365 -135h-320l557 1773h320z" />
    <glyph glyph-name="zero" unicode="0" horiz-adv-x="1431" 
d="M717 -35q-191 0 -335 105.5t-220 293t-76 431.5q0 245 76 434t220 295t335 106q190 0 333.5 -106t219.5 -295t76 -434q0 -244 -76 -431.5t-219.5 -293t-333.5 -105.5zM717 303q113 0 178.5 123t65.5 371t-65.5 371.5t-178.5 123.5q-115 0 -181.5 -123.5t-66.5 -371.5
t66.5 -371t181.5 -123z" />
    <glyph glyph-name="one" unicode="1" horiz-adv-x="868" 
d="M711 0h-363q0 230 1.5 359t11 343.5t28.5 413.5q-79 -109 -166.5 -172t-169.5 -86v381q128 47 214.5 147t86.5 211h357v-1597z" />
    <glyph glyph-name="two" unicode="2" horiz-adv-x="1320" 
d="M1202 0h-1093v45q0 112 17.5 202t53 166t97.5 146.5t140.5 134.5t192.5 140q76 50 113.5 77.5t77 64.5t54.5 71.5t15 76.5q0 78 -54 128.5t-150 50.5q-128 0 -195.5 -88.5t-69.5 -239.5l-340 55q0 173 79 310.5t219.5 213.5t316.5 76q159 0 288 -60.5t206 -175.5t77 -264
q0 -273 -284 -458q-28 -18 -88 -53.5t-100 -61.5t-90.5 -65.5t-89 -89t-65.5 -107.5q118 19 246.5 28.5t207 11t218.5 1.5v-336z" />
    <glyph glyph-name="three" unicode="3" horiz-adv-x="1359" 
d="M674 -35q-150 0 -282 44.5t-225.5 128.5t-125.5 192l317 159q6 -17 14 -33t32 -46.5t54.5 -52.5t83.5 -39t117 -17q110 0 172 45.5t62 128.5q0 81 -59 132.5t-158 51.5h-164v293h135q92 0 149.5 45t57.5 125q0 79 -58.5 127.5t-148.5 48.5q-96 0 -160 -59.5t-77 -169.5
l-330 76q11 96 58.5 183t122.5 154.5t184 107.5t233 40q149 0 274 -53t202 -155.5t77 -235.5q0 -135 -78.5 -223t-226.5 -95v-41q163 -9 257.5 -102.5t94.5 -247.5q0 -74 -22 -146t-70.5 -138.5t-118 -117t-171 -80.5t-222.5 -30z" />
    <glyph glyph-name="four" unicode="4" horiz-adv-x="1400" 
d="M1137 0h-351q0 71 1 110.5t10 105.5t26 128q-419 -39 -784 0v262l758 991h340q0 -217 -1 -338t-10 -312.5t-26 -356.5q100 28 239 28v-301q-135 0 -239 27q17 -62 26 -128t10 -105.5t1 -110.5zM377 590q126 31 224.5 31t221.5 -31q-28 143 -27.5 280t31.5 338
q-125 -200 -224 -336t-226 -282z" />
    <glyph glyph-name="five" unicode="5" horiz-adv-x="1361" 
d="M655 -35q-213 0 -386.5 102.5t-239.5 280.5l290 191q25 -69 65.5 -120t87.5 -78t93 -39.5t92 -12.5q113 0 188 68.5t75 181.5q0 110 -72.5 175.5t-183.5 65.5q-170 0 -240 -162l-301 74l194 905h881v-315q-137 0 -213.5 1.5t-202.5 11t-241 28.5q14 -106 -9 -192.5
t-100 -204.5h41q76 83 144.5 113t144.5 30q63 0 130.5 -14t142 -50.5t132 -91.5t95.5 -146.5t38 -205.5q0 -176 -86 -313t-232.5 -210t-326.5 -73z" />
    <glyph glyph-name="six" unicode="6" horiz-adv-x="1411" 
d="M727 -35q-144 0 -261.5 47.5t-202.5 139.5t-132 233.5t-47 321.5q0 267 97.5 477t276 328t408.5 118q130 0 250.5 -41t202.5 -131l-189 -260q-116 105 -284 105q-67 0 -125 -25t-101 -65.5t-80.5 -100.5t-63 -120t-48.5 -134h41q69 106 150.5 148.5t203.5 42.5
q135 0 252.5 -63t191.5 -184.5t74 -275.5q0 -116 -43 -218.5t-121 -178.5t-194.5 -120t-255.5 -44zM729 289q92 0 163 59t71 164q0 104 -71 168.5t-161 64.5q-96 0 -165.5 -67t-69.5 -166q0 -101 71.5 -162t161.5 -61z" />
    <glyph glyph-name="seven" unicode="7" horiz-adv-x="1204" 
d="M662 0h-388q0 123 8.5 226.5t39 245t83.5 269.5t149 280t228 296l-20 41q-117 -28 -253 -42.5t-231.5 -17t-240.5 -2.5v301h1126v-303q-106 -93 -189.5 -201.5t-136.5 -222t-89 -224t-54 -229t-25 -214.5t-7 -203z" />
    <glyph glyph-name="eight" unicode="8" horiz-adv-x="1390" 
d="M696 -35q-139 0 -257 39.5t-196.5 106.5t-122.5 156t-44 188q0 150 94 250t244 112v45q-136 26 -200 109t-64 203q0 133 72.5 238t196.5 161.5t275 56.5q149 0 273 -55.5t199 -162.5t75 -245q0 -261 -268 -305v-45q151 -12 246.5 -112.5t95.5 -251.5q0 -98 -44 -186.5
t-122 -155.5t-196 -106.5t-257 -39.5zM696 987q75 0 126.5 47t51.5 119t-51.5 120t-126.5 48q-76 0 -128 -48t-52 -120q0 -71 52 -118.5t128 -47.5zM688 283q100 0 176 60t76 163q0 96 -69 155.5t-175 59.5q-104 0 -174.5 -59t-70.5 -160t69.5 -160t167.5 -59z" />
    <glyph glyph-name="nine" unicode="9" horiz-adv-x="1417" 
d="M602 -35q-161 0 -299.5 55t-206.5 140l185 254q58 -68 138.5 -101.5t162.5 -33.5q178 0 291.5 139.5t113.5 355.5h-41q-77 -229 -336 -229q-102 0 -198.5 36.5t-173.5 101.5t-123.5 165t-46.5 217q0 113 43.5 215.5t121.5 180t195.5 123.5t255.5 46t253.5 -46.5
t204.5 -138t139 -242t50 -345.5q0 -191 -48.5 -354t-139.5 -283t-230 -188t-311 -68zM684 846q94 0 162.5 65t68.5 166q0 103 -72 166.5t-163 63.5q-90 0 -160.5 -61.5t-70.5 -168.5q0 -106 71 -168.5t164 -62.5z" />
    <glyph glyph-name="colon" unicode=":" horiz-adv-x="632" 
d="M317 743q-86 0 -146 62t-60 151q0 84 60 143.5t146 59.5q85 0 145 -60t60 -143q0 -89 -60 -151t-145 -62zM317 -12q-86 0 -146 62t-60 151q0 84 60 143t146 59q85 0 145 -59.5t60 -142.5q0 -89 -60 -151t-145 -62z" />
    <glyph glyph-name="semicolon" unicode=";" horiz-adv-x="634" 
d="M319 743q-86 0 -146 62t-60 151q0 84 60 143.5t146 59.5q85 0 145 -60t60 -143q0 -89 -60 -151t-145 -62zM246 -311h-195l170 321q-50 27 -80 77.5t-30 111.5q0 84 60 143t146 59q85 0 145 -59.5t60 -142.5q0 -61 -47.5 -147.5t-228.5 -362.5z" />
    <glyph glyph-name="less" unicode="&#x3c;" horiz-adv-x="1052" 
d="M930 442v-241l-819 225v365l819 225v-242l-608 -166z" />
    <glyph glyph-name="equal" unicode="=" horiz-adv-x="1144" 
d="M1022 700h-899v256h899v-256zM1022 242h-899v256h899v-256z" />
    <glyph glyph-name="greater" unicode="&#x3e;" horiz-adv-x="1052" 
d="M942 426l-819 -225v241l608 166l-608 166v242l819 -225v-365z" />
    <glyph glyph-name="question" unicode="?" horiz-adv-x="1294" 
d="M786 524h-374q-6 40 -6 78q0 108 65 182.5t191 143.5q81 45 108 68q64 55 64 130q0 73 -56 120.5t-147 47.5q-116 0 -181 -76t-65 -194v-23l-328 58v16q0 129 48 235.5t130.5 175.5t191 106.5t230.5 37.5q153 0 280.5 -55.5t206.5 -164.5t79 -251q0 -61 -15.5 -114.5
t-37.5 -90.5t-58 -73.5t-62.5 -57t-66.5 -47.5q-8 -6 -32 -21.5t-33.5 -22t-30 -21t-29.5 -23t-24 -22t-22 -24.5t-15.5 -25t-11.5 -27.5t-3 -28.5q0 -9 4 -37zM610 -14q-86 0 -147.5 62.5t-61.5 148.5q0 85 60 144.5t145 59.5t146 -60t61 -148q0 -85 -58.5 -146t-144.5 -61
z" />
    <glyph glyph-name="at" unicode="@" horiz-adv-x="1939" 
d="M977 -195q-182 0 -332.5 44t-255 120.5t-176.5 182t-105.5 226.5t-33.5 255q0 157 46.5 306t135 273.5t209.5 218.5t279 146.5t333 52.5q242 0 428 -98t288.5 -278.5t102.5 -417.5q0 -168 -50 -299.5t-151 -210t-239 -78.5q-119 0 -176 60t-63 181h-41
q-32 -73 -72.5 -123.5t-87 -76t-90.5 -35.5t-95 -10q-89 0 -158 29t-111 80.5t-63.5 118.5t-21.5 146q0 112 42 218t111.5 182.5t162.5 123t190 46.5q187 0 227 -187h41q-10 27 -15 49t-5 39.5t1 27t4.5 25t4.5 19.5h238l-82 -504q-4 -25 -4.5 -29.5t-3.5 -32.5t-2 -38.5
t2.5 -34.5t8 -35t16 -25t26 -20t37.5 -6q85 0 135.5 100.5t50.5 280.5q0 305 -154 455.5t-432 150.5q-178 0 -323.5 -60.5t-242 -167t-148.5 -251.5t-52 -315q0 -306 171 -463.5t505 -157.5q292 0 506 144l109 -166q-86 -70 -206 -113t-218 -55.5t-201 -12.5zM926 492
q100 0 166.5 86t66.5 188q0 76 -43.5 124t-114.5 48q-97 0 -168 -86t-71 -193q0 -79 44 -123t120 -44z" />
    <glyph glyph-name="A" unicode="A" horiz-adv-x="1599" 
d="M371 0h-377l592 1597h428l592 -1597h-387q-27 70 -42.5 114.5t-33 120t-21.5 140.5l-26 26q-142 -45 -301 -45q-156 0 -301 45l-27 -26q-8 -146 -96 -375zM594 678l18 -21q86 43 183 43q96 0 182 -43l18 21q-73 151 -110.5 287t-48.5 335h-82q-11 -198 -49 -334
t-111 -288z" />
    <glyph glyph-name="B" unicode="B" horiz-adv-x="1462" 
d="M825 0h-673v1597h704q225 0 352 -113.5t127 -297.5q0 -125 -73 -215.5t-232 -128.5v-41q87 -16 149.5 -40t113.5 -65t76.5 -105t25.5 -151q0 -105 -39 -185.5t-97.5 -127.5t-138 -77t-150.5 -40t-145 -10zM477 924l37 -21q42 28 84 42.5t67 17t66 2.5q31 0 56 2t58 10.5
t55 23.5t38 44t16 69q0 148 -213 148q-9 0 -34.5 -0.5t-36.5 -0.5t-34.5 3t-40 8.5t-39.5 17t-46 27.5l-43 -21q34 -95 36 -178.5t-26 -193.5zM469 319l41 -40q45 27 92.5 40t75.5 15t78 2q250 0 250 158q0 50 -24.5 84t-66 48.5t-75.5 19.5t-72 5q-48 0 -77 2.5t-77 16.5
t-96 43l-41 -21q28 -115 26 -200t-34 -173z" />
    <glyph glyph-name="C" unicode="C" horiz-adv-x="1695" 
d="M907 -35q-240 0 -429 103t-297.5 296t-108.5 443q0 197 69.5 357t185.5 260t261 153t303 53q263 0 459.5 -141t283.5 -373l-338 -135q-132 307 -411 307q-193 0 -313.5 -137t-120.5 -363q0 -104 28 -188.5t73.5 -138t106.5 -89t122.5 -50.5t125.5 -15q149 0 265.5 86.5
t175.5 263.5l338 -114q-41 -124 -103 -222.5t-136.5 -164.5t-164 -109.5t-182 -62.5t-193.5 -19z" />
    <glyph glyph-name="D" unicode="D" horiz-adv-x="1619" 
d="M807 0h-655v1597h636q156 0 283 -40.5t214.5 -112t146.5 -171.5t86.5 -216t27.5 -248q0 -238 -87 -420t-255.5 -285.5t-396.5 -103.5zM469 319l41 -40q42 27 89.5 40t76.5 15t80 2q409 0 409 457q0 76 -12 139.5t-30 109t-48 81.5t-57 58.5t-67 39t-68 24.5t-70 12
t-62.5 4.5t-54.5 0.5q-39 0 -60 2t-56 14.5t-70 38.5l-43 -21q121 -508 2 -977z" />
    <glyph glyph-name="E" unicode="E" horiz-adv-x="1323" 
d="M1231 0h-1079v1597h1058v-335q-143 0 -224 2t-215.5 14.5t-260.5 38.5l-43 -21q35 -94 36.5 -175.5t-26.5 -194.5l25 -21q120 37 248.5 56t205 21.5t213.5 2.5v-354q-103 0 -160 1.5t-149 8.5t-177.5 25.5t-176.5 48.5l-29 -21q28 -120 26.5 -205t-34.5 -170l41 -40
q128 27 266.5 40t222 15t232.5 2v-336z" />
    <glyph glyph-name="F" unicode="F" horiz-adv-x="1265" 
d="M514 0h-362v1597h1042v-335q-142 0 -221 2t-210.5 14.5t-252.5 38.5l-43 -21q39 -105 37.5 -196.5t-43.5 -216.5l24 -21q125 38 254.5 57.5t205 22t208.5 2.5v-354q-137 0 -213.5 2.5t-204 22t-246.5 57.5l-28 -21q25 -120 37 -246t14 -200t2 -205z" />
    <glyph glyph-name="G" unicode="G" horiz-adv-x="1773" 
d="M854 -35q-226 0 -404.5 106.5t-278 296.5t-99.5 431q0 156 43.5 290.5t120 232.5t179.5 168t223.5 105t250.5 35q271 0 467 -143.5t278 -370.5l-338 -135q-135 307 -407 307q-192 0 -315 -135.5t-123 -364.5q0 -109 31.5 -195.5t80.5 -139t113.5 -86.5t124.5 -47t121 -13
q142 0 264.5 67.5t243.5 227.5l-39 41q-63 -32 -128 -52.5t-132 -28t-105.5 -9.5t-99.5 -2v295h735v-846h-275q-1 8 -3.5 31.5t-3.5 34.5t-0.5 34t3.5 41t9.5 44.5t17.5 54.5l-53 20q-85 -157 -207.5 -226t-294.5 -69z" />
    <glyph glyph-name="H" unicode="H" horiz-adv-x="1662" 
d="M514 0h-362v1597h362q0 -138 -1.5 -214t-10 -204t-25.5 -255l37 -21q171 58 319 58.5t316 -58.5l37 21q-17 127 -25.5 255t-10 204t-1.5 214h362v-1597h-362q0 133 1.5 205.5t10 195t25.5 246.5l-41 21q-162 -58 -310.5 -57.5t-316.5 57.5l-41 -21q17 -124 25.5 -246.5
t10 -195t1.5 -205.5z" />
    <glyph glyph-name="I" unicode="I" horiz-adv-x="665" 
d="M514 0h-362v1597h362v-1597z" />
    <glyph glyph-name="J" unicode="J" horiz-adv-x="1318" 
d="M633 -35q-177 0 -313.5 65t-215.5 194t-79 304v60l362 49v-55q0 -122 56.5 -198.5t170.5 -76.5q203 0 203 277v1013h363v-962q0 -43 -0.5 -70.5t-5.5 -85t-14 -98t-28 -98t-45.5 -98.5t-68.5 -85t-95 -71.5t-127.5 -45.5t-162.5 -18z" />
    <glyph glyph-name="K" unicode="K" horiz-adv-x="1505" 
d="M514 0h-362v1597h362v-78.5v-84.5t-1.5 -80t-4 -89.5t-7.5 -87t-13 -98t-19.5 -97t-26.5 -108.5h41q294 377 602 723h426q-386 -441 -649 -710v-43q94 -91 183 -192t182 -223t151.5 -203t159.5 -226h-440q-7 10 -46 66t-49.5 71t-45 65t-48.5 71.5t-43.5 66.5t-47.5 73
t-42.5 67.5t-45 75t-40.5 71.5h-28q-53 -59 -89 -92t-79 -54q20 -174 20 -481z" />
    <glyph glyph-name="L" unicode="L" horiz-adv-x="1198" 
d="M1174 0h-1022v1597h362q0 -280 -1.5 -435t-12 -397.5t-31.5 -445.5l41 -40q115 27 242 40t205 15t217 2v-336z" />
    <glyph glyph-name="M" unicode="M" horiz-adv-x="2093" 
d="M520 0h-368v1597h411q310 -574 453 -1112h61q143 538 453 1112h412v-1597h-369v98v106t1 99t3 111t5 106t8.5 119t13 116t18 132t23.5 133h-41q-97 -249 -263 -609t-188 -411h-213q-22 51 -188 411t-263 609h-40q15 -71 26 -146t18.5 -131.5t13 -137.5t8 -121.5t4 -129
t1.5 -115v-124.5v-115z" />
    <glyph glyph-name="N" unicode="N" horiz-adv-x="1662" 
d="M514 0h-362v1597h333q207 -261 363 -507t301 -566h41q-19 205 -28.5 413t-11 328.5t-1.5 331.5h362v-1597h-333q-109 136 -181 232t-162.5 228t-169.5 273.5t-151 300.5h-41q19 -199 28.5 -400t11 -316.5t1.5 -317.5z" />
    <glyph glyph-name="O" unicode="O" horiz-adv-x="1761" 
d="M881 -35q-166 0 -314.5 61t-258.5 168.5t-174 264t-64 338.5q0 146 41 276.5t116 231.5t175.5 174.5t223 112t255.5 38.5q167 0 316 -61.5t258 -170t173 -264.5t64 -337q0 -179 -63.5 -335t-172 -264.5t-258 -170.5t-317.5 -62zM883 307q187 0 307.5 139t120.5 351
q0 136 -53 247.5t-151.5 177.5t-223.5 66q-186 0 -309 -139t-123 -352q0 -216 123.5 -353t308.5 -137z" />
    <glyph glyph-name="P" unicode="P" horiz-adv-x="1392" 
d="M514 0h-362v1597h636q21 0 38.5 -0.5t60.5 -5.5t79 -13.5t86 -26.5t89.5 -43t81 -65.5t69 -90t45 -120.5t17.5 -155q0 -103 -28.5 -187t-71.5 -137t-103 -92t-112.5 -58t-111 -30.5t-88 -13.5t-53.5 -2q-60 0 -95 2.5t-96 22t-122 57.5q19 -121 28.5 -247.5t11 -198.5
t1.5 -193zM473 829l37 -18q36 37 76 56t64.5 21.5t66.5 2.5q27 0 45 1t52.5 5.5t58.5 17t49 32t38 53.5t13 79q0 38 -10.5 67.5t-25.5 48.5t-39.5 32.5t-44 20t-47.5 10t-42.5 4t-36.5 0.5q-48 0 -74 2t-66.5 14.5t-76.5 38.5l-43 -21q35 -125 35.5 -231.5t-29.5 -235.5z
" />
    <glyph glyph-name="Q" unicode="Q" horiz-adv-x="1802" 
d="M1731 -70l-263 -219q-56 64 -90 106.5t-75.5 111t-57.5 128.5q-140 -92 -344 -92q-174 0 -327 61t-264 168.5t-175.5 264t-64.5 338.5t64.5 338.5t175.5 264.5t264 169t327 61t327.5 -61.5t264.5 -170t175.5 -264.5t64.5 -337q0 -381 -287 -600q54 -33 112 -85.5t91 -88
t82 -93.5zM905 266q87 0 162 19q-44 13 -86.5 41.5t-85 73t-71.5 80t-72 91.5l262 217q217 -263 241 -399q37 41 60.5 91.5t32.5 110.5t11.5 102t2.5 104q0 212 -122 351.5t-337 139.5q-213 0 -338 -136.5t-125 -354.5q0 -143 53.5 -262t161.5 -194t250 -75z" />
    <glyph glyph-name="R" unicode="R" horiz-adv-x="1443" 
d="M514 0h-362v1597h636q15 0 31 -0.5t57.5 -5.5t78 -13.5t86.5 -27t91.5 -44t84 -66.5t71.5 -91.5t47.5 -122.5t18.5 -157q0 -89 -27 -161.5t-71 -119.5t-104 -79.5t-121.5 -47.5t-127.5 -18v-41q55 -48 104.5 -97t97 -105.5t80 -96t79.5 -106t67 -95t70 -102.5h-410
l-377 571q-48 7 -141 68q19 -103 28.5 -231t11 -204.5t1.5 -203.5zM473 807l37 -19q48 37 97.5 48.5t109.5 11.5q25 0 54.5 5t66.5 19.5t66 37t49 63t20 92.5q0 50 -19.5 88.5t-47 59.5t-63.5 34t-63.5 17t-52.5 4q-42 0 -66 1.5t-66 13t-85 34.5l-43 -21q67 -231 6 -489z
" />
    <glyph glyph-name="S" unicode="S" horiz-adv-x="1351" 
d="M694 -35q-252 0 -422 127.5t-223 347.5l338 115q73 -260 301 -260q97 0 159 41.5t62 112.5q0 31 -14 57t-34.5 44.5t-55 35.5t-65 28t-74.5 25l-142 43q-57 17 -105 36.5t-110 58t-104.5 85t-72.5 120t-30 161.5q0 217 159 352t405 135q117 0 218 -32.5t170.5 -86.5
t114.5 -118t62 -131l-332 -136q-72 177 -235 177q-83 0 -132 -38t-49 -94q0 -35 19.5 -64t58.5 -52t78.5 -39t97.5 -35l174 -55q28 -9 48 -15.5t53 -20t57 -27t55 -34.5t53.5 -43.5t46 -53.5t38 -66t23.5 -79.5t9 -94.5q0 -110 -40.5 -205.5t-115.5 -167t-189.5 -113
t-254.5 -41.5z" />
    <glyph glyph-name="T" unicode="T" horiz-adv-x="1320" 
d="M842 0h-363q0 280 1.5 436t11 404t28.5 463q-90 -19 -185 -28.5t-152 -11t-158 -1.5v335h1271v-335q-101 0 -158 1.5t-152 11t-185 28.5q19 -215 28.5 -463t11 -404t1.5 -436z" />
    <glyph glyph-name="U" unicode="U" horiz-adv-x="1521" 
d="M760 -35q-120 0 -217.5 26t-161 66t-110.5 100.5t-72 118t-40 130.5t-18.5 125t-3.5 114v952h363v-921q0 -63 6 -113t23 -99.5t45 -82.5t76 -53.5t112 -20.5t111 20.5t75 53.5t45 82.5t23 99.5t6 113v921h362v-952q0 -62 -3.5 -114t-18 -125t-39.5 -130.5t-72.5 -118
t-111 -100.5t-161 -66t-218.5 -26z" />
    <glyph glyph-name="V" unicode="V" horiz-adv-x="1597" 
d="M1016 0h-432l-590 1597h381q0 -1 19.5 -52.5t32.5 -87.5t40 -111t47.5 -134t49 -144.5t50.5 -156t47 -154t43 -152t33 -138t23 -123.5h82q39 238 171.5 645t209.5 608h381z" />
    <glyph glyph-name="W" unicode="W" horiz-adv-x="2387" 
d="M901 0h-459l-434 1597h418q83 -337 136.5 -602.5t92.5 -580.5h41q39 216 92.5 442t92.5 367t106 374h414q67 -232 106 -374.5t92.5 -373t92.5 -456.5h41q64 542 229 1204h418l-434 -1597h-453q-101 329 -160.5 566t-107.5 550h-62q-46 -310 -107.5 -559.5t-154.5 -556.5z
" />
    <glyph glyph-name="X" unicode="X" horiz-adv-x="1427" 
d="M430 -2h-440q276 432 510 776v41q-122 177 -508 782h428q161 -266 274 -546h41q117 284 279 546h428q-363 -562 -516 -782v-41q231 -344 504 -776h-441q-159 274 -254 534h-41q-105 -264 -264 -534z" />
    <glyph glyph-name="Y" unicode="Y" horiz-adv-x="1449" 
d="M907 0h-362q0 357 20 535q-203 354 -567 1062h389q74 -154 115.5 -243.5t100.5 -240.5t102 -298h40q43 147 102 298t100.5 240.5t115.5 243.5h389q-16 -31 -76 -147t-82 -159t-74.5 -143.5t-84 -159t-77.5 -143.5t-87.5 -159t-83.5 -147q20 -180 20 -539z" />
    <glyph glyph-name="Z" unicode="Z" horiz-adv-x="1394" 
d="M1321 0h-1247v295q200 273 407.5 513t487.5 513l-21 41q-464 -100 -854 -100v335h1211v-301q-193 -258 -402.5 -498t-488.5 -522l20 -40q462 100 887 100v-336z" />
    <glyph glyph-name="bracketleft" unicode="[" horiz-adv-x="901" 
d="M838 -469h-680v2066h680v-309q-75 0 -118 1.5t-117 11t-146 28.5q60 -744 0 -1489q72 19 146 28.5t117 11t118 1.5v-350z" />
    <glyph glyph-name="backslash" unicode="\" horiz-adv-x="966" 
d="M922 -135h-320l-557 1773h320z" />
    <glyph glyph-name="bracketright" unicode="]" horiz-adv-x="901" 
d="M743 -469h-680v350q75 0 118 -1.5t117 -11t146 -28.5q-60 744 0 1489q-72 -19 -146 -28.5t-117 -11t-118 -1.5v309h680v-2066z" />
    <glyph glyph-name="asciicircum" unicode="^" horiz-adv-x="987" 
d="M305 973h-242l289 624h295l277 -624h-242q-39 91 -61 147t-46.5 136t-33.5 147h-86q-11 -67 -37.5 -148.5t-48 -132.5t-64.5 -149z" />
    <glyph glyph-name="underscore" unicode="_" horiz-adv-x="1138" 
d="M1047 -258h-955v268h955v-268z" />
    <glyph glyph-name="a" unicode="a" horiz-adv-x="1206" 
d="M451 -35q-60 0 -116.5 13.5t-107 41.5t-88.5 68.5t-60 98t-22 126.5q0 77 27.5 136.5t78.5 98.5t111 63.5t138 41.5q219 47 275 69t56 71q0 51 -38.5 80.5t-104.5 29.5q-146 0 -192 -160l-318 107q27 89 79.5 154.5t123 103t149.5 55t170 17.5q232 0 353.5 -107.5
t121.5 -308.5v-406q0 -213 37 -358h-340q-13 21 -11 65t30 115h-41q-27 -77 -78 -126.5t-108.5 -69t-124.5 -19.5zM555 225q86 0 138 57.5t52 139.5v67l-206 -51q-107 -29 -107 -114q0 -50 34 -74.5t89 -24.5z" />
    <glyph glyph-name="b" unicode="b" horiz-adv-x="1361" 
d="M784 -35q-114 0 -194 53t-123 146h-41q7 -13 12 -25.5t9 -24t7 -20t4.5 -19.5t2.5 -16.5t1.5 -16.5t0.5 -14v-14.5v-13.5h-338v1638h342q0 -22 1 -148t0 -179.5t-8.5 -162t-21.5 -210.5h41q61 135 142.5 188.5t191.5 53.5q151 0 263.5 -83t168 -218t55.5 -301
q0 -142 -43.5 -260t-116 -194t-164.5 -117.5t-192 -41.5zM705 293q107 0 175 77.5t68 200.5q0 122 -67.5 201.5t-178.5 79.5q-109 0 -176 -79.5t-67 -201.5q0 -123 68.5 -200.5t177.5 -77.5z" />
    <glyph glyph-name="c" unicode="c" horiz-adv-x="1251" 
d="M666 -35q-171 0 -308 71.5t-218 210.5t-81 324q0 138 46 253.5t126 193t188.5 120t233.5 42.5q196 0 344 -100t207 -269l-319 -131q-29 90 -91.5 131t-140.5 41q-106 0 -173.5 -79.5t-67.5 -199.5q0 -127 74.5 -203.5t179.5 -76.5q76 0 140 42.5t97 129.5l322 -131
q-59 -170 -208.5 -269.5t-350.5 -99.5z" />
    <glyph glyph-name="d" unicode="d" horiz-adv-x="1366" 
d="M580 -35q-158 0 -276.5 79.5t-179.5 217t-61 313.5q0 140 40.5 255.5t110.5 191t163 117t198 41.5q122 0 199.5 -59t118.5 -183h41q-18 137 -27 270t-10 217.5t0 212.5h342v-1280q0 -132 9 -207t28 -151h-338q-18 81 -2 164h-41q-76 -199 -315 -199zM662 295
q109 0 176 79t67 201q0 123 -68.5 201t-177.5 78q-107 0 -175 -78t-68 -201q0 -122 67.5 -201t178.5 -79z" />
    <glyph glyph-name="e" unicode="e" horiz-adv-x="1265" 
d="M666 -35q-172 0 -309.5 73t-217.5 211t-80 318q0 264 163.5 438.5t416.5 174.5q118 0 219.5 -41t178.5 -118t121 -197t44 -269v-72h-803q22 -105 94.5 -158t168.5 -53q69 0 128 35.5t91 108.5l321 -131q-58 -137 -199.5 -228.5t-336.5 -91.5zM416 698h444
q-39 191 -223 191q-87 0 -142.5 -51.5t-78.5 -139.5z" />
    <glyph glyph-name="f" unicode="f" horiz-adv-x="829" 
d="M561 0h-342q0 186 1.5 289t11 268t28.5 309q-46 -14 -88 -21t-62.5 -8t-60.5 -1v311q47 0 72.5 -1t65.5 -8.5t73 -21.5q-28 43 -34.5 74t-6.5 84q0 89 26 159t68 114t99 73.5t114 41t117 11.5q101 0 180 -24v-283q-65 16 -102 16q-39 0 -67.5 -4t-45.5 -14t-27 -19
t-14 -27.5t-5 -30.5t-1 -36q0 -31 -1.5 -47t-11 -40.5t-28.5 -47.5q44 14 97 21.5t87 8.5t97 1v-311q-56 0 -84.5 1t-84.5 8t-112 21q19 -144 28.5 -309t11 -268t1.5 -289z" />
    <glyph glyph-name="g" unicode="g" horiz-adv-x="1361" 
d="M649 -483q-80 0 -154 13.5t-154 46.5t-145 100.5t-102 164.5l309 113q40 -81 97 -115.5t137 -34.5q131 0 194.5 72.5t63.5 183.5q0 48 11.5 95t25.5 69h-41q-27 -68 -63 -113.5t-77.5 -67t-79.5 -29t-85 -7.5q-103 0 -190 31.5t-148 85.5t-103.5 128t-63 159t-20.5 178
q0 258 145 424t365 166q256 0 308 -242h41q-21 133 -21 209h338v-1041q0 -134 -33.5 -238.5t-88.5 -169.5t-133 -106.5t-159 -58t-174 -16.5zM659 336q107 0 175.5 76.5t68.5 183.5q0 108 -69 183t-177 75q-106 0 -174.5 -74.5t-68.5 -183.5q0 -110 68.5 -185t176.5 -75z
" />
    <glyph glyph-name="h" unicode="h" horiz-adv-x="1314" 
d="M467 0h-342v1638h342q0 -151 -1.5 -235t-11 -217t-28.5 -248h41q109 242 340 242q169 0 281 -119.5t112 -335.5v-725h-342v573q0 36 -1 57t-5.5 59.5t-16 62.5t-30.5 49.5t-51.5 38t-75.5 12.5q-40 0 -74.5 -12.5t-67 -42t-51 -87t-18.5 -137.5v-573z" />
    <glyph glyph-name="i" unicode="i" horiz-adv-x="591" 
d="M297 1257q-87 0 -145 59t-58 144t59.5 142t143.5 57t141.5 -58t57.5 -139q0 -86 -57 -145.5t-142 -59.5zM467 0h-342v1147h342v-1147z" />
    <glyph glyph-name="j" unicode="j" horiz-adv-x="591" 
d="M297 1257q-86 0 -143.5 60t-57.5 143t57 141t144 58q86 0 143.5 -57.5t57.5 -141.5q0 -85 -57.5 -144t-143.5 -59zM70 -483q-112 0 -236 39v290q102 -24 160 -24q27 0 48.5 5t35 11.5t23 19t14 22.5t7 27.5t3 27.5t0.5 30v1182h342v-1161q0 -59 -1 -91t-8.5 -89.5
t-21.5 -90.5t-43 -76t-70.5 -66t-106 -39.5t-146.5 -16.5z" />
    <glyph glyph-name="k" unicode="k" horiz-adv-x="1220" 
d="M469 0h-344v1638h344v-96v-103.5t-0.5 -95t-1.5 -105t-2.5 -97.5t-4.5 -108t-7 -101t-9 -112.5t-12 -108.5h41q76 120 153.5 218t182.5 218h405l-464 -475q32 -36 63 -72.5t63.5 -78t56.5 -71.5t59 -78t53 -72t56 -78t50.5 -71.5t54.5 -78t51 -72.5h-403
q-63 97 -97 149.5t-87 145t-97 182.5q-32 -66 -56.5 -102.5t-59.5 -73.5q12 -94 12 -301z" />
    <glyph glyph-name="l" unicode="l" horiz-adv-x="591" 
d="M467 0h-342v1638h342v-1638z" />
    <glyph glyph-name="m" unicode="m" horiz-adv-x="2007" 
d="M467 0h-342v1147h338v-16v-18t-0.5 -17.5t-1.5 -20.5t-2.5 -20.5t-4.5 -25t-7 -26.5t-9 -31t-12 -34h41q54 124 142.5 183t189.5 59q112 0 193.5 -64t113.5 -203h41q111 267 342 267q79 0 151.5 -31t128.5 -87.5t89.5 -144t33.5 -192.5v-725h-342v573q0 32 -0.5 50.5
t-3.5 52t-9 54t-18 46.5t-29.5 40.5t-44.5 25t-61 10.5q-38 0 -71.5 -12.5t-64.5 -42t-49.5 -87t-18.5 -137.5v-573h-342v575q0 32 -0.5 50t-3.5 51.5t-9 54t-18 46t-29.5 40t-44.5 25t-61 10.5q-38 0 -71.5 -12.5t-65 -42t-50 -87t-18.5 -137.5v-573z" />
    <glyph glyph-name="n" unicode="n" horiz-adv-x="1314" 
d="M467 0h-342v1147h338q0 -100 -37 -209h41q109 242 340 242q169 0 281 -119.5t112 -335.5v-725h-342v573q0 36 -1 57t-5.5 59.5t-16 62.5t-30.5 49.5t-51.5 38t-75.5 12.5q-40 0 -74.5 -12.5t-67 -42t-51 -87t-18.5 -137.5v-573z" />
    <glyph glyph-name="o" unicode="o" horiz-adv-x="1316" 
d="M659 -35q-266 0 -433 169t-167 437q0 132 44.5 245t122.5 193t190 125.5t243 45.5q264 0 431 -171t167 -438q0 -268 -167 -437t-431 -169zM659 293q107 0 175.5 78t68.5 200q0 124 -68.5 202.5t-175.5 78.5q-108 0 -176.5 -79t-68.5 -202q0 -122 68.5 -200t176.5 -78z
" />
    <glyph glyph-name="p" unicode="p" horiz-adv-x="1361" 
d="M467 -451h-342v1598h338v-16v-18t-0.5 -17.5t-1.5 -21t-2.5 -22t-4.5 -27t-7 -29.5t-9 -36t-12 -40h41q72 148 153 204t191 56q152 0 265 -83t168.5 -217.5t55.5 -299.5q0 -142 -43.5 -260.5t-116 -194.5t-164.5 -118t-192 -42q-228 0 -309 230h-41q12 -77 19.5 -146.5
t10 -150t3.5 -112.5t0.5 -130t-0.5 -107zM705 293q107 0 175 78t68 200q0 123 -68 202t-175 79q-108 0 -177 -79t-69 -202q0 -122 69 -200t177 -78z" />
    <glyph glyph-name="q" unicode="q" horiz-adv-x="1361" 
d="M1237 -451h-342q0 130 1.5 204t11 199.5t28.5 244.5h-41q-116 -232 -340 -232q-147 0 -261 84t-173.5 223.5t-59.5 309.5q0 137 41 251t110.5 189t162 116.5t196.5 41.5q242 0 324 -238h41q-7 20 -12 37.5t-9 33.5t-7 27.5t-4.5 24.5t-2.5 20t-1.5 18.5t-0.5 15v15v13.5
h338v-1598zM659 295q109 0 176.5 79t67.5 201q0 123 -68.5 201t-177.5 78q-107 0 -175 -78t-68 -201q0 -122 67 -201t178 -79z" />
    <glyph glyph-name="r" unicode="r" horiz-adv-x="911" 
d="M467 0h-342v1147h338q0 -1 0.5 -29.5t-0.5 -40t-3.5 -40t-10 -59.5t-19.5 -69h41q88 271 305 271q49 0 105 -19v-385q-64 21 -140 21q-44 0 -81.5 -9.5t-64 -23.5t-47.5 -38t-34 -45.5t-22.5 -55t-14 -56.5t-7 -60t-3 -55.5t-0.5 -52.5v-401z" />
    <glyph glyph-name="s" unicode="s" horiz-adv-x="1075" 
d="M547 -35q-202 0 -336.5 87.5t-173.5 236.5l317 102q60 -147 189 -147q47 0 78.5 18t31.5 55q0 22 -11.5 39.5t-34.5 30t-40.5 19.5t-46.5 16l-127 39q-303 92 -303 344q0 166 124.5 270.5t326.5 104.5q176 0 294.5 -81t155.5 -212l-313 -103q-44 121 -143 121
q-45 0 -74 -22t-29 -56q0 -15 6 -27.5t22.5 -23.5t28 -18t39 -16.5t39 -13t43.5 -13.5l80 -23l40 -12t43.5 -14.5t49.5 -20t46.5 -26t47 -34t39 -42.5t34 -54t20 -65t8.5 -78q0 -178 -126.5 -279.5t-344.5 -101.5z" />
    <glyph glyph-name="t" unicode="t" horiz-adv-x="952" 
d="M676 -35q-69 0 -126.5 11t-98.5 27t-73.5 43t-53 51.5t-35 59.5t-21.5 59.5t-11 60t-4.5 52.5t-0.5 44q0 103 1.5 160.5t11 152t28.5 180.5q-54 -14 -107 -21t-79.5 -8t-79.5 -1v311q149 0 266 -31q-19 64 -28.5 131.5t-11 107.5t-1.5 111h342q0 -71 -1.5 -111
t-11 -107.5t-28.5 -131.5q139 31 336 31v-311q-69 0 -103.5 1t-101 8t-131.5 21q19 -66 28.5 -136.5t11 -113t1.5 -116.5q0 -34 1 -52t4.5 -49.5t13.5 -49t26.5 -37t44 -28t64.5 -8.5q59 0 141 31v-303q-77 -39 -213 -39z" />
    <glyph glyph-name="u" unicode="u" horiz-adv-x="1296" 
d="M528 -35q-201 0 -307 120t-106 343v719h342v-604q0 -250 172 -250q91 0 144.5 67.5t53.5 182.5v604h342v-789q0 -132 9 -207t28 -151h-340q-8 39 -10.5 54.5t3.5 54t26 88.5h-41q-41 -123 -115 -177.5t-201 -54.5z" />
    <glyph glyph-name="v" unicode="v" horiz-adv-x="1210" 
d="M819 0h-426l-389 1147h373q133 -384 203 -807h61q70 423 203 807h360z" />
    <glyph glyph-name="w" unicode="w" horiz-adv-x="1941" 
d="M774 0h-405l-367 1147h391q43 -152 66.5 -245t51.5 -239.5t42 -285.5h61q27 139 65.5 286.5t66 238t77.5 245.5h295q49 -156 76 -246t64 -237.5t63 -286.5h57q15 138 46 287.5t54.5 235.5t69.5 247h389l-364 -1147h-422q-38 131 -60 213.5t-49 209t-41 241.5h-59
q-40 -267 -168 -664z" />
    <glyph glyph-name="x" unicode="x" horiz-adv-x="1181" 
d="M397 0h-401q188 314 381 565v41q-154 187 -377 541h397q119 -204 176 -389h41q20 74 51.5 147.5t57.5 121t70 120.5h385q-226 -366 -375 -541v-41q181 -226 381 -565h-391q-107 187 -179 383h-41q-22 -73 -53.5 -146t-56 -118.5t-66.5 -118.5z" />
    <glyph glyph-name="y" unicode="y" horiz-adv-x="1234" 
d="M659 -451h-370l147 390l-436 1208h377q74 -214 127 -402t98 -430h41q31 165 73 328t69.5 250.5t82.5 253.5h367z" />
    <glyph glyph-name="z" unicode="z" horiz-adv-x="1130" 
d="M1069 0h-991v293q146 161 279.5 292t283.5 249l-20 40q-80 -19 -185.5 -28.5t-168.5 -10.5t-185 -1v313h948v-293q-101 -109 -172.5 -183.5t-180 -175.5t-212.5 -182l20 -41q87 19 199.5 28.5t184.5 11t200 1.5v-313z" />
    <glyph glyph-name="braceleft" unicode="{" horiz-adv-x="980" 
d="M913 -299h-143q-154 0 -261.5 31t-165.5 90.5t-82.5 132.5t-24.5 170v178q0 30 -2.5 54t-5 42.5t-10.5 32t-13.5 22.5t-19 15t-21.5 9.5t-27.5 4.5t-31 1.5t-35.5 0.5h-4v328h1h1h2q84 0 111 13q46 23 53 118q2 23 2 51v179q0 97 24.5 170t82.5 132t165.5 90t261.5 31
h143v-309h-102q-46 0 -79 -4t-65.5 -16.5t-52.5 -34t-32.5 -58.5t-12.5 -88v-96q0 -48 -2 -83t-9 -64.5t-16 -49t-27 -36t-37 -26t-52 -18t-66 -13.5t-84 -11v-88q44 -5 69.5 -8.5t57 -9t47.5 -11t36.5 -15t30 -19.5t21 -26.5t16 -35t9 -45t5.5 -56t1 -69.5v-96
q0 -51 12.5 -88t32.5 -58.5t52.5 -34t65.5 -16.5t79 -4h102v-309z" />
    <glyph glyph-name="bar" unicode="|" horiz-adv-x="591" 
d="M434 -451h-276v2089h276v-2089z" />
    <glyph glyph-name="braceright" unicode="}" horiz-adv-x="980" 
d="M211 -299h-143v309h102q46 0 79 4t65.5 16.5t52.5 34t32.5 58.5t12.5 88v96q0 40 1 69.5t5.5 56t9 45t16 35t21 26.5t30 19.5t36.5 15t47.5 11t57 9t69.5 8.5v88q-51 6 -84 11t-66 13.5t-52 18t-37 26t-27 36t-16 49t-9 64.5t-2 83v96q0 51 -12.5 88t-32.5 58.5t-52.5 34
t-65.5 16.5t-79 4h-102v309h143q154 0 261.5 -31t165.5 -90t82.5 -132t24.5 -170v-179q0 -30 2.5 -54t5 -42.5t10.5 -32t13.5 -22.5t19 -15t21.5 -9.5t27.5 -4.5t31 -1.5t35.5 -0.5h4v-328h-1h-1h-2q-84 0 -111 -13q-46 -23 -53 -118l-2 -51v-178q0 -97 -24.5 -170
t-82.5 -132.5t-165.5 -90.5t-261.5 -31z" />
    <glyph glyph-name="asciitilde" unicode="~" horiz-adv-x="1200" 
d="M817 434q-57 0 -115.5 18t-97 39.5t-81 39.5t-72.5 18q-39 0 -60.5 -32.5t-21.5 -72.5h-263q0 174 84 278.5t209 104.5q53 0 106 -16.5t89 -35.5t81.5 -35.5t86.5 -16.5q35 0 52 27.5t17 70.5h263q0 -188 -74.5 -287.5t-202.5 -99.5z" />
    <glyph glyph-name="uni00A0" unicode="&#xa0;" horiz-adv-x="471" 
 />
    <glyph glyph-name="exclamdown" unicode="&#xa1;" horiz-adv-x="587" 
d="M295 764q-86 0 -146.5 59.5t-60.5 143.5q0 89 60.5 151t146.5 62q85 0 145 -62t60 -151q0 -82 -62 -142.5t-143 -60.5zM475 -432h-362v211l88 835h186l88 -835v-211z" />
    <glyph glyph-name="cent" unicode="&#xa2;" horiz-adv-x="1134" 
d="M813 629l242 -103q-38 -114 -139 -189.5t-236 -90.5v-246h-143v248q-87 13 -164 52.5t-137 102.5t-95 154.5t-35 198.5q0 108 35 200t95.5 155.5t137.5 103.5t163 53v198h143v-198q129 -19 225.5 -94t136.5 -187l-241 -102q-26 86 -121 116v-491q99 29 133 119zM391 758
q0 -93 41.5 -153.5t104.5 -86.5v481q-65 -25 -105.5 -87t-40.5 -154z" />
    <glyph glyph-name="sterling" unicode="&#xa3;" horiz-adv-x="1384" 
d="M1292 0h-1169v303q154 39 207 86t53 139q0 55 10.5 93t46.5 63q-150 -20 -366 -20v159q157 0 317 -20q-201 163 -201 379q0 105 42.5 190.5t115.5 141.5t170 86t207 30q69 0 136 -11.5t142 -43.5t135 -82t109.5 -135.5t71.5 -196.5l-332 -131q-60 279 -242 279
q-80 0 -129 -49t-49 -136q0 -63 40 -164t46 -157q176 20 447 20v-159q-234 0 -412 20q66 -41 66 -129q0 -73 -49 -135t-201 -166l20 -41q52 16 102 29t100.5 22t88.5 15.5t90 10.5t79.5 6.5t82.5 3.5t74 1h78.5h72.5v-301z" />
    <glyph glyph-name="currency" unicode="&#xa4;" horiz-adv-x="1380" 
d="M1120 838q0 -126 -57 -220l246 -286l-205 -178l-248 286q-76 -28 -162 -28q-92 0 -168 30l-250 -288l-204 178l245 286q-59 92 -59 220q0 122 57 219l-243 282l204 179l246 -283q79 31 168 31q84 0 168 -33l246 285l205 -179l-244 -284q55 -99 55 -217zM692 668
q65 0 106.5 47.5t41.5 122.5q0 77 -42.5 124.5t-107.5 47.5q-66 0 -108.5 -48t-42.5 -124q0 -75 43.5 -122.5t109.5 -47.5z" />
    <glyph glyph-name="yen" unicode="&#xa5;" horiz-adv-x="1497" 
d="M930 0h-363q0 48 1.5 75.5t11 77.5t28.5 103q-77 -19 -155 -28.5t-124 -11t-128 -1.5v225q82 0 128 -1.5t124 -11t155 -28.5q-31 61 -31 98t31 68q-77 -19 -155 -28.5t-124 -11t-128 -1.5v226q68 0 107.5 -1.5t107.5 -11t135 -28.5q-175 291 -500 888h385
q64 -128 104.5 -216t93.5 -225t91 -273h45q38 136 91 273t93.5 225t104.5 216h385q-306 -562 -502 -888q68 19 136.5 28.5t108.5 11t109 1.5v-226q-82 0 -128 1.5t-124 11t-155 28.5q31 -31 31 -68t-31 -98q77 19 155 28.5t124 11t128 1.5v-225q-82 0 -128 1.5t-124 11
t-155 28.5q19 -53 28.5 -103t11 -77.5t1.5 -75.5z" />
    <glyph glyph-name="brokenbar" unicode="&#xa6;" horiz-adv-x="591" 
d="M434 829h-276v809h276v-809zM434 -451h-276v803h276v-803z" />
    <glyph glyph-name="section" unicode="&#xa7;" horiz-adv-x="1136" 
d="M582 -301q-194 0 -334 84t-178 229l297 94q17 -43 44 -74t57 -47t57 -23t53 -7q51 0 82.5 22.5t31.5 59.5q0 41 -39.5 69.5t-111.5 57.5l-127 51q-291 118 -291 307q0 40 13 77t40.5 70.5t79.5 56t123 26.5v43q-121 28 -186.5 103t-65.5 167q0 178 126.5 279.5
t321.5 101.5q176 0 295 -81.5t156 -211.5l-307 -102q-40 139 -150 139q-54 0 -81 -27t-27 -65q0 -26 13.5 -47.5t40.5 -38t50.5 -26.5t59.5 -23l100 -35q51 -18 88 -33.5t83.5 -44t75.5 -59.5t49.5 -78.5t20.5 -102.5q0 -101 -72.5 -167t-185.5 -68v-45q128 -21 188 -94.5
t60 -180.5q0 -160 -119.5 -258t-330.5 -98zM567 455l29 -11q51 4 93 31.5t42 81.5q0 14 -3.5 26t-7 20.5t-13 17t-14.5 13t-20 11.5t-20.5 9t-24.5 9t-24 9l-45 16q-49 18 -90 -16.5t-41 -87.5q0 -28 12.5 -50t38 -38t41.5 -23t47 -18z" />
    <glyph glyph-name="copyright" unicode="&#xa9;" horiz-adv-x="1869" 
d="M936 -35q-184 0 -341.5 65.5t-264.5 178.5t-167.5 265.5t-60.5 324.5q0 171 60.5 323.5t167.5 264.5t264.5 177.5t341.5 65.5q183 0 340 -65.5t264 -177.5t167 -264.5t60 -323.5q0 -172 -60 -324.5t-167 -265.5t-264 -178.5t-340 -65.5zM936 133q197 0 350 89.5
t234.5 241t81.5 335.5t-81.5 334.5t-234.5 240.5t-350 90q-149 0 -275 -52.5t-211 -142.5t-132.5 -211.5t-47.5 -258.5q0 -138 47.5 -259.5t132.5 -211.5t211 -142.5t275 -52.5zM956 346q-203 0 -332.5 128t-129.5 329q0 107 39 193.5t103.5 140t143.5 82t164 28.5
q147 0 256.5 -78t157.5 -213l-199 -79q-62 165 -213 165q-102 0 -165.5 -68.5t-63.5 -180.5q0 -67 25 -117t64.5 -75.5t78.5 -37.5t78 -12q81 0 137.5 48t81.5 138l202 -67q-50 -157 -160 -240.5t-268 -83.5z" />
    <glyph glyph-name="guillemotleft" unicode="&#xab;" horiz-adv-x="1404" 
d="M723 164h-350l-293 405v9l293 405h350q-47 -65 -77.5 -103.5t-79 -92t-103.5 -94.5t-119 -75v-90q64 -34 119 -75t103.5 -94t79 -92t77.5 -103zM1298 164h-350l-293 405v9l293 405h350q-47 -64 -77.5 -103t-79 -92t-103 -94.5t-118.5 -75.5v-90q64 -34 118.5 -75
t103.5 -94.5t79 -91.5t77 -103z" />
    <glyph glyph-name="logicalnot" unicode="&#xac;" horiz-adv-x="1093" 
d="M977 135h-277v381h-602v256h879v-637z" />
    <glyph glyph-name="registered" unicode="&#xae;" horiz-adv-x="1107" 
d="M555 717q-199 0 -329 130.5t-130 328.5t130 327t329 129q198 0 327.5 -129.5t129.5 -326.5q0 -198 -129.5 -328.5t-327.5 -130.5zM555 827q149 0 245.5 99.5t96.5 249.5q0 149 -97 248.5t-245 99.5q-150 0 -247 -99t-97 -249q0 -151 97 -250t247 -99zM500 936h-117v489
h201q16 0 35 -2.5t46.5 -12.5t48.5 -26t36.5 -47t15.5 -71q0 -114 -107 -148l121 -182h-125l-112 172h-43v-172zM500 1327v-121h69q70 0 70 62q0 31 -20.5 45t-47.5 14h-71z" />
    <glyph glyph-name="degree" unicode="&#xb0;" horiz-adv-x="729" 
d="M365 1044q-130 0 -216 88t-86 216q0 127 87 214t215 87t214.5 -87.5t86.5 -213.5q0 -127 -86.5 -215.5t-214.5 -88.5zM365 1225q51 0 84.5 35.5t33.5 87.5q0 50 -34 85t-84 35q-51 0 -85 -35t-34 -85q0 -51 34 -87t85 -36z" />
    <glyph glyph-name="plusminus" unicode="&#xb1;" horiz-adv-x="1161" 
d="M1051 872v-249h-336v-193h336v-250h-940v250h327v193h-327v249h327v224h277v-224h336z" />
    <glyph glyph-name="uni00B2" unicode="&#xb2;" horiz-adv-x="768" 
d="M700 707h-628v36q-2 155 49 242t201 182q6 4 26 16.5t30 19.5t24 19t20 24.5t6 25.5q0 18 -13 29.5t-38 11.5q-40 0 -64.5 -30.5t-25.5 -88.5l-250 37q0 148 99.5 236.5t250.5 88.5q139 0 232.5 -77t93.5 -201q0 -76 -36.5 -132t-98.5 -89q-2 -1 -19.5 -10t-26 -13
t-25 -14.5t-27 -18.5t-22 -19.5t-18.5 -23.5h260v-251z" />
    <glyph glyph-name="uni00B3" unicode="&#xb3;" horiz-adv-x="770" 
d="M369 686q-130 0 -226 55t-120 138l239 120q42 -86 107 -86q63 0 63 58q0 22 -8.5 35.5t-25.5 18t-23.5 5t-22.5 0.5h-80v184h78q29 0 55.5 14.5t26.5 43.5q0 23 -17 39t-44 16q-33 0 -53 -23.5t-23 -64.5l-250 57q9 107 104.5 183.5t243.5 76.5q130 0 218.5 -61
t88.5 -164q0 -63 -32.5 -113t-83.5 -59v-2q55 -11 98 -64t43 -122q0 -49 -21.5 -97.5t-63 -91.5t-112 -69.5t-159.5 -26.5z" />
    <glyph glyph-name="paragraph" unicode="&#xb6;" horiz-adv-x="1673" 
d="M961 -287h-359v942h-72q-213 0 -344 133.5t-131 346.5q0 98 33.5 181.5t97 146t162 98.5t221.5 36h392v-1884zM1495 -287h-358v1884h358v-1884z" />
    <glyph glyph-name="periodcentered" unicode="&#xb7;" horiz-adv-x="667" 
d="M334 477q-104 0 -178 76.5t-74 185.5q0 102 74 175t178 73t178 -73t74 -175q0 -109 -74 -185.5t-178 -76.5z" />
    <glyph glyph-name="uni00B9" unicode="&#xb9;" horiz-adv-x="569" 
d="M479 707h-272v440q-90 -62 -166 -82v293q80 30 124 79.5t44 102.5h270v-833z" />
    <glyph glyph-name="guillemotright" unicode="&#xbb;" horiz-adv-x="1404" 
d="M750 569l-293 -405h-351q47 64 77.5 103t79 92t103.5 94t119 75v90q-64 34 -118.5 75.5t-103 94t-80 92.5t-77.5 103h351l293 -405v-9zM1325 569l-293 -405h-350q47 64 77.5 103t79 92t103.5 94t119 75v90q-64 34 -119 75t-103.5 94.5t-79 92t-77.5 103.5h350l293 -405
v-9z" />
    <glyph glyph-name="onequarter" unicode="&#xbc;" horiz-adv-x="1775" 
d="M479 707h-272v440q-90 -62 -166 -82v293q80 30 124 79.5t44 102.5h270v-833zM403 0h-317l1139 1468h309zM1638 -10h-260v135h-364v207l372 491h252v-475h93v-223h-93v-135zM1378 481l-108 -133h108v133z" />
    <glyph glyph-name="onehalf" unicode="&#xbd;" horiz-adv-x="1849" 
d="M479 707h-272v440q-90 -62 -166 -82v293q80 30 124 79.5t44 102.5h270v-833zM403 0h-317l1139 1468h309zM1782 -10h-629v37q-2 155 49 242t201 182q6 4 26 16t30 19.5t23.5 19t20 24t6.5 25.5q0 18 -13 29.5t-38 11.5q-40 0 -64.5 -30.5t-25.5 -88.5l-250 37
q0 149 100 237.5t250 88.5q139 0 232.5 -77.5t93.5 -201.5q0 -76 -36.5 -132t-98.5 -89q-3 -2 -19.5 -10t-25.5 -12.5t-25 -14.5t-26.5 -18t-22 -19.5t-18.5 -23.5h260v-252z" />
    <glyph glyph-name="threequarters" unicode="&#xbe;" horiz-adv-x="1976" 
d="M369 686q-130 0 -226 55t-120 138l239 120q42 -86 107 -86q63 0 63 58q0 22 -8.5 35.5t-25.5 18t-23.5 5t-22.5 0.5h-80v184h78q29 0 55.5 14.5t26.5 43.5q0 23 -17 39t-44 16q-33 0 -53 -23.5t-23 -64.5l-250 57q9 107 104.5 183.5t243.5 76.5q130 0 218.5 -61
t88.5 -164q0 -63 -32.5 -113t-83.5 -59v-2q55 -11 98 -64t43 -122q0 -49 -21.5 -97.5t-63 -91.5t-112 -69.5t-159.5 -26.5zM604 0h-317l1138 1468h310zM1839 -10h-260v135h-365v207l373 491h252v-475h92v-223h-92v-135zM1579 481l-109 -133h109v133z" />
    <glyph glyph-name="questiondown" unicode="&#xbf;" horiz-adv-x="1284" 
d="M682 764q-84 0 -145.5 60.5t-61.5 148.5q0 85 58.5 146t144.5 61t147.5 -62.5t61.5 -148.5q0 -85 -60 -145t-145 -60zM631 -465q-153 0 -280.5 55.5t-206 164.5t-78.5 251q0 61 15.5 114.5t37 90.5t57.5 73.5t62.5 57t66.5 47.5q8 6 32 21.5t33.5 22t30 21t29.5 23t24 22
t22 24.5t15.5 25t11.5 27.5t3 28.5q0 9 -4 37h375q6 -41 6 -78q0 -107 -65 -181.5t-191 -143.5q-82 -46 -111 -71q-61 -55 -61 -128t55.5 -120.5t146.5 -47.5q116 0 181 76t65 194v23l328 -58v-16q0 -129 -48 -235.5t-130.5 -175.5t-191 -106.5t-230.5 -37.5z" />
    <glyph glyph-name="Agrave" unicode="&#xc0;" horiz-adv-x="1599" 
d="M979 1720h-309l-322 375h410zM371 0h-377l592 1597h428l592 -1597h-387q-27 70 -42.5 114.5t-33 120t-21.5 140.5l-26 26q-142 -45 -301 -45q-156 0 -301 45l-27 -26q-8 -146 -96 -375zM594 678l18 -21q86 43 183 43q96 0 182 -43l18 21q-73 151 -110.5 287t-48.5 335
h-82q-11 -198 -49 -334t-111 -288z" />
    <glyph glyph-name="Aacute" unicode="&#xc1;" horiz-adv-x="1599" 
d="M1284 2095l-321 -375h-310l221 375h410zM371 0h-377l592 1597h428l592 -1597h-387q-27 70 -42.5 114.5t-33 120t-21.5 140.5l-26 26q-142 -45 -301 -45q-156 0 -301 45l-27 -26q-8 -146 -96 -375zM594 678l18 -21q86 43 183 43q96 0 182 -43l18 21q-73 151 -110.5 287
t-48.5 335h-82q-11 -198 -49 -334t-111 -288z" />
    <glyph glyph-name="Acircumflex" unicode="&#xc2;" horiz-adv-x="1599" 
d="M657 1720h-317l299 375h317l299 -375h-317q-27 29 -42 48.5t-32 67t-24 112.5h-82q-7 -65 -24.5 -112t-33.5 -68t-43 -48zM371 0h-377l592 1597h428l592 -1597h-387q-27 70 -42.5 114.5t-33 120t-21.5 140.5l-26 26q-142 -45 -301 -45q-156 0 -301 45l-27 -26
q-8 -146 -96 -375zM594 678l18 -21q86 43 183 43q96 0 182 -43l18 21q-73 151 -110.5 287t-48.5 335h-82q-11 -198 -49 -334t-111 -288z" />
    <glyph glyph-name="Atilde" unicode="&#xc3;" horiz-adv-x="1599" 
d="M952 1722q-80 0 -135 35l-63 41q-41 29 -74 29q-32 0 -47 -24.5t-15 -61.5h-241q0 156 79.5 250t200.5 94q78 0 154 -45l55 -33q28 -16 54 -16q47 0 47 80h241q0 -171 -66 -260t-190 -89zM371 0h-377l592 1597h428l592 -1597h-387q-27 70 -42.5 114.5t-33 120
t-21.5 140.5l-26 26q-142 -45 -301 -45q-156 0 -301 45l-27 -26q-8 -146 -96 -375zM594 678l18 -21q86 43 183 43q96 0 182 -43l18 21q-73 151 -110.5 287t-48.5 335h-82q-11 -198 -49 -334t-111 -288z" />
    <glyph glyph-name="Adieresis" unicode="&#xc4;" horiz-adv-x="1599" 
d="M551 1712q-85 0 -142 57.5t-57 143.5q0 80 57.5 136t141.5 56q81 0 137.5 -56t56.5 -136q0 -86 -56 -143.5t-138 -57.5zM1042 1712q-85 0 -141.5 57.5t-56.5 143.5q0 80 57 136t141 56q82 0 138.5 -56t56.5 -136q0 -86 -56.5 -143.5t-138.5 -57.5zM371 0h-377l592 1597
h428l592 -1597h-387q-27 70 -42.5 114.5t-33 120t-21.5 140.5l-26 26q-142 -45 -301 -45q-156 0 -301 45l-27 -26q-8 -146 -96 -375zM594 678l18 -21q86 43 183 43q96 0 182 -43l18 21q-73 151 -110.5 287t-48.5 335h-82q-11 -198 -49 -334t-111 -288z" />
    <glyph glyph-name="Aring" unicode="&#xc5;" horiz-adv-x="1599" 
d="M795 1708q-115 0 -195 76t-80 184q0 110 79.5 185t195.5 75q115 0 193.5 -74t78.5 -186t-78.5 -186t-193.5 -74zM795 1864q42 0 70 31t28 73q0 41 -28 72t-70 31q-45 0 -73 -30.5t-28 -72.5q0 -43 27.5 -73.5t73.5 -30.5zM371 0h-377l592 1597h428l592 -1597h-387
q-27 70 -42.5 114.5t-33 120t-21.5 140.5l-26 26q-142 -45 -301 -45q-156 0 -301 45l-27 -26q-8 -146 -96 -375zM594 678l18 -21q86 43 183 43q96 0 182 -43l18 21q-73 151 -110.5 287t-48.5 335h-82q-11 -198 -49 -334t-111 -288z" />
    <glyph glyph-name="AE" unicode="&#xc6;" horiz-adv-x="2205" 
d="M338 0h-406l883 1597h1278v-335q-154 0 -240.5 1.5t-228 11t-268.5 28.5q31 -100 31 -180.5t-31 -180.5q121 19 254.5 28.5t214.5 11t227 1.5v-352q-146 0 -227 1.5t-214.5 11t-254.5 28.5q31 -104 31 -188.5t-31 -188.5q131 19 276 28.5t233.5 11t248.5 1.5v-336h-1080
q0 78 1.5 122t11 119.5t28.5 149.5q-155 -31 -290.5 -31t-290.5 31q-12 -74 -39.5 -149t-50.5 -120t-66 -122zM692 666q106 31 191.5 31t191.5 -31q-52 283 -20 637h-41q-54 -157 -129.5 -302.5t-192.5 -334.5z" />
    <glyph glyph-name="Ccedilla" unicode="&#xc7;" horiz-adv-x="1695" 
d="M1348 657l338 -114q-47 -143 -121.5 -251.5t-168 -176t-197 -103.5t-220.5 -45q-14 -12 -35 -27.5t-49.5 -36t-46.5 -34.5l20 -21q89 68 142 68q77 0 134.5 -58t57.5 -153q0 -108 -84 -171.5t-219 -63.5q-100 0 -178 35.5t-123 99.5l104 133q73 -98 187 -98q94 0 94 69
q0 33 -25.5 52.5t-66.5 19.5q-50 0 -86 -31l-100 74l96 147q-159 17 -293.5 84t-231 174t-150.5 255.5t-54 322.5q0 197 69.5 357t185.5 260t261 153t303 53q263 0 459.5 -141t283.5 -373l-338 -135q-132 307 -411 307q-193 0 -313.5 -137t-120.5 -363q0 -104 28 -188.5
t73.5 -138t106.5 -89t122.5 -50.5t125.5 -15q149 0 265.5 86.5t175.5 263.5z" />
    <glyph glyph-name="Egrave" unicode="&#xc8;" horiz-adv-x="1323" 
d="M874 1720h-309l-321 375h409zM1231 0h-1079v1597h1058v-335q-143 0 -224 2t-215.5 14.5t-260.5 38.5l-43 -21q35 -94 36.5 -175.5t-26.5 -194.5l25 -21q120 37 248.5 56t205 21.5t213.5 2.5v-354q-103 0 -160 1.5t-149 8.5t-177.5 25.5t-176.5 48.5l-29 -21
q28 -120 26.5 -205t-34.5 -170l41 -40q128 27 266.5 40t222 15t232.5 2v-336z" />
    <glyph glyph-name="Eacute" unicode="&#xc9;" horiz-adv-x="1323" 
d="M1180 2095l-322 -375h-309l221 375h410zM1231 0h-1079v1597h1058v-335q-143 0 -224 2t-215.5 14.5t-260.5 38.5l-43 -21q35 -94 36.5 -175.5t-26.5 -194.5l25 -21q120 37 248.5 56t205 21.5t213.5 2.5v-354q-103 0 -160 1.5t-149 8.5t-177.5 25.5t-176.5 48.5l-29 -21
q28 -120 26.5 -205t-34.5 -170l41 -40q128 27 266.5 40t222 15t232.5 2v-336z" />
    <glyph glyph-name="Ecircumflex" unicode="&#xca;" horiz-adv-x="1323" 
d="M553 1720h-317l299 375h317l299 -375h-317q-28 29 -42.5 48.5t-32 67t-24.5 112.5h-82q-8 -65 -25 -112t-32.5 -68t-42.5 -48zM1231 0h-1079v1597h1058v-335q-143 0 -224 2t-215.5 14.5t-260.5 38.5l-43 -21q35 -94 36.5 -175.5t-26.5 -194.5l25 -21q120 37 248.5 56
t205 21.5t213.5 2.5v-354q-103 0 -160 1.5t-149 8.5t-177.5 25.5t-176.5 48.5l-29 -21q28 -120 26.5 -205t-34.5 -170l41 -40q128 27 266.5 40t222 15t232.5 2v-336z" />
    <glyph glyph-name="Edieresis" unicode="&#xcb;" horiz-adv-x="1323" 
d="M446 1712q-85 0 -141.5 57.5t-56.5 143.5q0 80 57 136t141 56q82 0 138.5 -56t56.5 -136q0 -86 -56.5 -143.5t-138.5 -57.5zM938 1712q-85 0 -142 57.5t-57 143.5q0 80 57.5 136t141.5 56q82 0 138.5 -56t56.5 -136q0 -86 -56.5 -143.5t-138.5 -57.5zM1231 0h-1079v1597
h1058v-335q-143 0 -224 2t-215.5 14.5t-260.5 38.5l-43 -21q35 -94 36.5 -175.5t-26.5 -194.5l25 -21q120 37 248.5 56t205 21.5t213.5 2.5v-354q-103 0 -160 1.5t-149 8.5t-177.5 25.5t-176.5 48.5l-29 -21q28 -120 26.5 -205t-34.5 -170l41 -40q128 27 266.5 40t222 15
t232.5 2v-336z" />
    <glyph glyph-name="Igrave" unicode="&#xcc;" horiz-adv-x="665" 
d="M510 1720h-309l-322 375h410zM514 0h-362v1597h362v-1597z" />
    <glyph glyph-name="Iacute" unicode="&#xcd;" horiz-adv-x="665" 
d="M815 2095l-321 -375h-310l222 375h409zM514 0h-362v1597h362v-1597z" />
    <glyph glyph-name="Icircumflex" unicode="&#xce;" horiz-adv-x="665" 
d="M188 1720h-317l299 375h317l299 -375h-317q-27 29 -42 48.5t-32 67t-24 112.5h-82q-7 -65 -24.5 -112t-33.5 -68t-43 -48zM514 0h-362v1597h362v-1597z" />
    <glyph glyph-name="Idieresis" unicode="&#xcf;" horiz-adv-x="665" 
d="M82 1712q-85 0 -142 57.5t-57 143.5q0 80 57.5 136t141.5 56q81 0 137.5 -56t56.5 -136q0 -86 -56 -143.5t-138 -57.5zM573 1712q-85 0 -141.5 57.5t-56.5 143.5q0 80 57 136t141 56q82 0 138.5 -56t56.5 -136q0 -86 -56.5 -143.5t-138.5 -57.5zM514 0h-362v1597h362
v-1597z" />
    <glyph glyph-name="Eth" unicode="&#xd0;" horiz-adv-x="1619" 
d="M152 1597h636q156 0 283 -40.5t214.5 -112t146.5 -171.5t86.5 -216t27.5 -248q0 -238 -87 -420t-255.5 -285.5t-396.5 -103.5h-655v653h-222v289h222v655zM756 336q409 0 409 457q0 76 -12 139.5t-30 109t-48 81.5t-57 58.5t-67 39t-68 24.5t-70 12t-62.5 4.5t-54.5 0.5
q-39 0 -60 2t-56 14.5t-70 38.5l-43 -21q43 -176 55 -354h260v-289h-260q-13 -180 -53 -334l41 -40q42 27 89.5 40t76.5 15t80 2z" />
    <glyph glyph-name="Ntilde" unicode="&#xd1;" horiz-adv-x="1662" 
d="M977 1714q-80 0 -135 35l-64 41q-41 29 -73 29t-47 -24.5t-15 -61.5h-242q0 156 80 250t201 94q78 0 154 -45l55 -33q30 -17 53 -17q47 0 47 80h242q0 -171 -66 -259.5t-190 -88.5zM514 0h-362v1597h333q207 -261 363 -507t301 -566h41q-19 205 -28.5 413t-11 328.5
t-1.5 331.5h362v-1597h-333q-109 136 -181 232t-162.5 228t-169.5 273.5t-151 300.5h-41q19 -199 28.5 -400t11 -316.5t1.5 -317.5z" />
    <glyph glyph-name="Ograve" unicode="&#xd2;" horiz-adv-x="1761" 
d="M1059 1720h-309l-322 375h410zM881 -35q-166 0 -314.5 61t-258.5 168.5t-174 264t-64 338.5q0 146 41 276.5t116 231.5t175.5 174.5t223 112t255.5 38.5q167 0 316 -61.5t258 -170t173 -264.5t64 -337q0 -179 -63.5 -335t-172 -264.5t-258 -170.5t-317.5 -62zM883 307
q187 0 307.5 139t120.5 351q0 136 -53 247.5t-151.5 177.5t-223.5 66q-186 0 -309 -139t-123 -352q0 -216 123.5 -353t308.5 -137z" />
    <glyph glyph-name="Oacute" unicode="&#xd3;" horiz-adv-x="1761" 
d="M1364 2095l-322 -375h-309l221 375h410zM881 -35q-166 0 -314.5 61t-258.5 168.5t-174 264t-64 338.5q0 146 41 276.5t116 231.5t175.5 174.5t223 112t255.5 38.5q167 0 316 -61.5t258 -170t173 -264.5t64 -337q0 -179 -63.5 -335t-172 -264.5t-258 -170.5t-317.5 -62z
M883 307q187 0 307.5 139t120.5 351q0 136 -53 247.5t-151.5 177.5t-223.5 66q-186 0 -309 -139t-123 -352q0 -216 123.5 -353t308.5 -137z" />
    <glyph glyph-name="Ocircumflex" unicode="&#xd4;" horiz-adv-x="1761" 
d="M737 1720h-317l299 375h317l299 -375h-317q-27 29 -42 48.5t-32 67t-24 112.5h-82q-7 -65 -24.5 -112t-33.5 -68t-43 -48zM881 -35q-166 0 -314.5 61t-258.5 168.5t-174 264t-64 338.5q0 146 41 276.5t116 231.5t175.5 174.5t223 112t255.5 38.5q167 0 316 -61.5
t258 -170t173 -264.5t64 -337q0 -179 -63.5 -335t-172 -264.5t-258 -170.5t-317.5 -62zM883 307q187 0 307.5 139t120.5 351q0 136 -53 247.5t-151.5 177.5t-223.5 66q-186 0 -309 -139t-123 -352q0 -216 123.5 -353t308.5 -137z" />
    <glyph glyph-name="Otilde" unicode="&#xd5;" horiz-adv-x="1761" 
d="M1040 1714q-80 0 -135 35l-63 41q-41 29 -74 29q-32 0 -46.5 -24.5t-14.5 -61.5h-242q0 156 79.5 250t200.5 94q78 0 154 -45l55 -33q30 -17 54 -17q47 0 47 80h241q0 -171 -66 -259.5t-190 -88.5zM881 -35q-166 0 -314.5 61t-258.5 168.5t-174 264t-64 338.5
q0 146 41 276.5t116 231.5t175.5 174.5t223 112t255.5 38.5q167 0 316 -61.5t258 -170t173 -264.5t64 -337q0 -179 -63.5 -335t-172 -264.5t-258 -170.5t-317.5 -62zM883 307q187 0 307.5 139t120.5 351q0 136 -53 247.5t-151.5 177.5t-223.5 66q-186 0 -309 -139t-123 -352
q0 -216 123.5 -353t308.5 -137z" />
    <glyph glyph-name="Odieresis" unicode="&#xd6;" horiz-adv-x="1761" 
d="M631 1712q-85 0 -142 57.5t-57 143.5q0 80 57.5 136t141.5 56q81 0 137.5 -56t56.5 -136q0 -86 -56 -143.5t-138 -57.5zM1122 1712q-85 0 -141.5 57.5t-56.5 143.5q0 80 57 136t141 56q82 0 138.5 -56t56.5 -136q0 -86 -56.5 -143.5t-138.5 -57.5zM881 -35
q-166 0 -314.5 61t-258.5 168.5t-174 264t-64 338.5q0 146 41 276.5t116 231.5t175.5 174.5t223 112t255.5 38.5q167 0 316 -61.5t258 -170t173 -264.5t64 -337q0 -179 -63.5 -335t-172 -264.5t-258 -170.5t-317.5 -62zM883 307q187 0 307.5 139t120.5 351q0 136 -53 247.5
t-151.5 177.5t-223.5 66q-186 0 -309 -139t-123 -352q0 -216 123.5 -353t308.5 -137z" />
    <glyph glyph-name="multiply" unicode="&#xd7;" horiz-adv-x="1060" 
d="M352 623l-272 272l180 182l275 -272l266 266l180 -182l-266 -266l264 -265l-182 -180l-262 264l-273 -272l-182 180z" />
    <glyph glyph-name="Oslash" unicode="&#xd8;" horiz-adv-x="1761" 
d="M1632 1661l-180 -262q113 -113 176.5 -267.5t63.5 -334.5q0 -179 -63.5 -335t-172 -264.5t-258 -170.5t-317.5 -62q-195 0 -357 78l-75 -109h-332l184 269q-110 111 -170.5 263t-60.5 331q0 146 41 276.5t116 231.5t175.5 174.5t223 112t255.5 38.5q182 0 346 -74l71 105
h334zM451 797q0 -157 67 -275l508 742q-64 24 -143 24q-186 0 -309 -139t-123 -352zM883 307q187 0 307.5 139t120.5 351q0 160 -74 286l-512 -745q76 -31 158 -31z" />
    <glyph glyph-name="Ugrave" unicode="&#xd9;" horiz-adv-x="1521" 
d="M946 1720h-309l-322 375h410zM760 -35q-120 0 -217.5 26t-161 66t-110.5 100.5t-72 118t-40 130.5t-18.5 125t-3.5 114v952h363v-921q0 -63 6 -113t23 -99.5t45 -82.5t76 -53.5t112 -20.5t111 20.5t75 53.5t45 82.5t23 99.5t6 113v921h362v-952q0 -62 -3.5 -114t-18 -125
t-39.5 -130.5t-72.5 -118t-111 -100.5t-161 -66t-218.5 -26z" />
    <glyph glyph-name="Uacute" unicode="&#xda;" horiz-adv-x="1521" 
d="M1251 2095l-321 -375h-309l221 375h409zM760 -35q-120 0 -217.5 26t-161 66t-110.5 100.5t-72 118t-40 130.5t-18.5 125t-3.5 114v952h363v-921q0 -63 6 -113t23 -99.5t45 -82.5t76 -53.5t112 -20.5t111 20.5t75 53.5t45 82.5t23 99.5t6 113v921h362v-952
q0 -62 -3.5 -114t-18 -125t-39.5 -130.5t-72.5 -118t-111 -100.5t-161 -66t-218.5 -26z" />
    <glyph glyph-name="Ucircumflex" unicode="&#xdb;" horiz-adv-x="1521" 
d="M625 1720h-318l299 375h318l299 -375h-318q-27 29 -42 48.5t-32 67t-24 112.5h-82q-8 -65 -25 -112t-32.5 -68t-42.5 -48zM760 -35q-120 0 -217.5 26t-161 66t-110.5 100.5t-72 118t-40 130.5t-18.5 125t-3.5 114v952h363v-921q0 -63 6 -113t23 -99.5t45 -82.5t76 -53.5
t112 -20.5t111 20.5t75 53.5t45 82.5t23 99.5t6 113v921h362v-952q0 -62 -3.5 -114t-18 -125t-39.5 -130.5t-72.5 -118t-111 -100.5t-161 -66t-218.5 -26z" />
    <glyph glyph-name="Udieresis" unicode="&#xdc;" horiz-adv-x="1521" 
d="M518 1712q-85 0 -142 57.5t-57 143.5q0 80 57.5 136t141.5 56q82 0 138.5 -56t56.5 -136q0 -86 -56.5 -143.5t-138.5 -57.5zM1010 1712q-85 0 -142 57.5t-57 143.5q0 80 57.5 136t141.5 56q81 0 137.5 -56t56.5 -136q0 -86 -56 -143.5t-138 -57.5zM760 -35
q-120 0 -217.5 26t-161 66t-110.5 100.5t-72 118t-40 130.5t-18.5 125t-3.5 114v952h363v-921q0 -63 6 -113t23 -99.5t45 -82.5t76 -53.5t112 -20.5t111 20.5t75 53.5t45 82.5t23 99.5t6 113v921h362v-952q0 -62 -3.5 -114t-18 -125t-39.5 -130.5t-72.5 -118t-111 -100.5
t-161 -66t-218.5 -26z" />
    <glyph glyph-name="Yacute" unicode="&#xdd;" horiz-adv-x="1449" 
d="M1174 2095l-322 -375h-309l221 375h410zM907 0h-362q0 357 20 535q-203 354 -567 1062h389q74 -154 115.5 -243.5t100.5 -240.5t102 -298h40q43 147 102 298t100.5 240.5t115.5 243.5h389q-16 -31 -76 -147t-82 -159t-74.5 -143.5t-84 -159t-77.5 -143.5t-87.5 -159
t-83.5 -147q20 -180 20 -539z" />
    <glyph glyph-name="Thorn" unicode="&#xde;" horiz-adv-x="1415" 
d="M514 0h-362v1597h362q0 -32 -1 -61t-2.5 -49t-5 -40.5t-5 -31t-7 -27t-6.5 -20.5t-7 -20t-7 -17h315q19 0 36.5 -0.5t60 -5.5t78.5 -13t86 -26t90 -43t81.5 -64.5t69.5 -89t46 -119.5t18 -153q0 -104 -28.5 -189t-70.5 -138.5t-102 -93.5t-112 -59t-111 -30.5
t-88.5 -13.5t-55.5 -2q-60 0 -95 2.5t-96 22t-122 57.5q41 -175 41 -373zM473 563l37 -18q36 37 76 56t64.5 21.5t66.5 2.5q27 0 45 1t52.5 5.5t58.5 17t49 32t38 53.5t13 79q0 38 -10.5 67.5t-25.5 48t-39.5 32t-44 20t-48 10t-42.5 4t-36 0.5q-46 0 -73 2t-67.5 15
t-76.5 39l-43 -21q35 -125 35.5 -231.5t-29.5 -235.5z" />
    <glyph glyph-name="germandbls" unicode="&#xdf;" horiz-adv-x="1404" 
d="M467 0h-342v967q0 107 17.5 204t60.5 190t108.5 161t168 109.5t231.5 41.5t236 -39.5t178 -108t110 -159t39 -192.5q0 -146 -84 -236t-250 -100v-62q190 3 299 -90.5t109 -259.5q0 -65 -16.5 -123t-59 -114.5t-107.5 -97.5t-169.5 -66t-237.5 -25h-152v311h203
q88 0 134 43t46 107q0 66 -53.5 107.5t-134.5 41.5h-119v312h63q74 0 127.5 56t53.5 152q0 103 -63 164.5t-161 61.5q-48 0 -87 -17t-63 -41t-41.5 -61t-25.5 -66.5t-12.5 -68t-5 -54.5t-0.5 -38v-1010z" />
    <glyph glyph-name="agrave" unicode="&#xe0;" horiz-adv-x="1206" 
d="M770 1278h-295l-311 375h393zM451 -35q-60 0 -116.5 13.5t-107 41.5t-88.5 68.5t-60 98t-22 126.5q0 77 27.5 136.5t78.5 98.5t111 63.5t138 41.5q219 47 275 69t56 71q0 51 -38.5 80.5t-104.5 29.5q-146 0 -192 -160l-318 107q27 89 79.5 154.5t123 103t149.5 55
t170 17.5q232 0 353.5 -107.5t121.5 -308.5v-406q0 -213 37 -358h-340q-13 21 -11 65t30 115h-41q-27 -77 -78 -126.5t-108.5 -69t-124.5 -19.5zM555 225q86 0 138 57.5t52 139.5v67l-206 -51q-107 -29 -107 -114q0 -50 34 -74.5t89 -24.5z" />
    <glyph glyph-name="aacute" unicode="&#xe1;" horiz-adv-x="1206" 
d="M1047 1653l-312 -375h-295l213 375h394zM451 -35q-60 0 -116.5 13.5t-107 41.5t-88.5 68.5t-60 98t-22 126.5q0 77 27.5 136.5t78.5 98.5t111 63.5t138 41.5q219 47 275 69t56 71q0 51 -38.5 80.5t-104.5 29.5q-146 0 -192 -160l-318 107q27 89 79.5 154.5t123 103
t149.5 55t170 17.5q232 0 353.5 -107.5t121.5 -308.5v-406q0 -213 37 -358h-340q-13 21 -11 65t30 115h-41q-27 -77 -78 -126.5t-108.5 -69t-124.5 -19.5zM555 225q86 0 138 57.5t52 139.5v67l-206 -51q-107 -29 -107 -114q0 -50 34 -74.5t89 -24.5z" />
    <glyph glyph-name="acircumflex" unicode="&#xe2;" horiz-adv-x="1206" 
d="M471 1278h-321l294 375h334l297 -375h-321q-29 36 -45.5 58.5t-37.5 65t-34 91.5h-49q-13 -49 -34 -91.5t-37.5 -65t-45.5 -58.5zM451 -35q-60 0 -116.5 13.5t-107 41.5t-88.5 68.5t-60 98t-22 126.5q0 77 27.5 136.5t78.5 98.5t111 63.5t138 41.5q219 47 275 69t56 71
q0 51 -38.5 80.5t-104.5 29.5q-146 0 -192 -160l-318 107q27 89 79.5 154.5t123 103t149.5 55t170 17.5q232 0 353.5 -107.5t121.5 -308.5v-406q0 -213 37 -358h-340q-13 21 -11 65t30 115h-41q-27 -77 -78 -126.5t-108.5 -69t-124.5 -19.5zM555 225q86 0 138 57.5t52 139.5
v67l-206 -51q-107 -29 -107 -114q0 -50 34 -74.5t89 -24.5z" />
    <glyph glyph-name="atilde" unicode="&#xe3;" horiz-adv-x="1206" 
d="M778 1264q-82 0 -135 34l-63 41q-41 29 -74 29q-32 0 -47 -24.5t-15 -61.5h-241q0 156 79.5 250t200.5 94q78 0 154 -45l55 -33q28 -16 53 -16q23 0 35.5 21.5t12.5 58.5h241q0 -171 -66 -259.5t-190 -88.5zM451 -35q-60 0 -116.5 13.5t-107 41.5t-88.5 68.5t-60 98
t-22 126.5q0 77 27.5 136.5t78.5 98.5t111 63.5t138 41.5q219 47 275 69t56 71q0 51 -38.5 80.5t-104.5 29.5q-146 0 -192 -160l-318 107q27 89 79.5 154.5t123 103t149.5 55t170 17.5q232 0 353.5 -107.5t121.5 -308.5v-406q0 -213 37 -358h-340q-13 21 -11 65t30 115h-41
q-27 -77 -78 -126.5t-108.5 -69t-124.5 -19.5zM555 225q86 0 138 57.5t52 139.5v67l-206 -51q-107 -29 -107 -114q0 -50 34 -74.5t89 -24.5z" />
    <glyph glyph-name="adieresis" unicode="&#xe4;" horiz-adv-x="1206" 
d="M383 1276q-76 0 -129 54t-53 132q0 73 53 125.5t129 52.5t129 -52.5t53 -125.5q0 -78 -53 -132t-129 -54zM844 1276q-78 0 -131.5 54t-53.5 132q0 73 54 125.5t131 52.5q74 0 127 -53t53 -125q0 -78 -52.5 -132t-127.5 -54zM451 -35q-60 0 -116.5 13.5t-107 41.5
t-88.5 68.5t-60 98t-22 126.5q0 77 27.5 136.5t78.5 98.5t111 63.5t138 41.5q219 47 275 69t56 71q0 51 -38.5 80.5t-104.5 29.5q-146 0 -192 -160l-318 107q27 89 79.5 154.5t123 103t149.5 55t170 17.5q232 0 353.5 -107.5t121.5 -308.5v-406q0 -213 37 -358h-340
q-13 21 -11 65t30 115h-41q-27 -77 -78 -126.5t-108.5 -69t-124.5 -19.5zM555 225q86 0 138 57.5t52 139.5v67l-206 -51q-107 -29 -107 -114q0 -50 34 -74.5t89 -24.5z" />
    <glyph glyph-name="aring" unicode="&#xe5;" horiz-adv-x="1206" 
d="M612 1257q-115 0 -194.5 76.5t-79.5 184.5q0 110 79 185t195 75q115 0 194 -74t79 -186t-79 -186.5t-194 -74.5zM612 1413q42 0 70.5 31.5t28.5 73.5q0 41 -28.5 71.5t-70.5 30.5q-45 0 -72.5 -30t-27.5 -72q0 -43 27.5 -74t72.5 -31zM451 -35q-60 0 -116.5 13.5
t-107 41.5t-88.5 68.5t-60 98t-22 126.5q0 77 27.5 136.5t78.5 98.5t111 63.5t138 41.5q219 47 275 69t56 71q0 51 -38.5 80.5t-104.5 29.5q-146 0 -192 -160l-318 107q27 89 79.5 154.5t123 103t149.5 55t170 17.5q232 0 353.5 -107.5t121.5 -308.5v-406q0 -213 37 -358
h-340q-13 21 -11 65t30 115h-41q-27 -77 -78 -126.5t-108.5 -69t-124.5 -19.5zM555 225q86 0 138 57.5t52 139.5v67l-206 -51q-107 -29 -107 -114q0 -50 34 -74.5t89 -24.5z" />
    <glyph glyph-name="ae" unicode="&#xe6;" horiz-adv-x="1972" 
d="M465 -35q-111 0 -201.5 37.5t-148.5 118t-58 192.5q0 51 13 95t32.5 75.5t51 58t60 43t67.5 31t67 22t64 15.5q32 7 77.5 16t72 15t59.5 14t52 16t37 19.5t25.5 27t7.5 34.5q0 44 -40 76t-101 32q-66 0 -117.5 -40t-76.5 -120l-318 107q35 114 116 190t182.5 108
t223.5 32q127 0 216 -36.5t147 -121.5q132 158 364 158q121 0 224 -41t180.5 -118t121.5 -197t44 -269v-84h-817q23 -91 96.5 -144t165.5 -53q71 0 134 35t95 107l322 -131q-58 -137 -201 -228.5t-344 -91.5q-331 0 -457 260h-41q-74 -145 -174 -202.5t-223 -57.5zM1100 713
h459q-30 93 -92 133.5t-140 40.5q-82 0 -141 -46.5t-86 -127.5zM551 225q92 0 143 59.5t51 137.5v70q-90 -27 -180 -46q-133 -28 -133 -122q0 -52 33.5 -75.5t85.5 -23.5z" />
    <glyph glyph-name="ccedilla" unicode="&#xe7;" horiz-adv-x="1251" 
d="M903 465l322 -131q-56 -162 -194 -260.5t-326 -108.5q-20 -17 -130 -96l21 -21q89 68 141 68q77 0 135 -58t58 -153q0 -108 -84 -171.5t-219 -63.5q-100 0 -178 35.5t-123 99.5l104 133q73 -98 186 -98q44 0 69.5 17.5t25.5 51.5q0 33 -26 52.5t-67 19.5q-50 0 -86 -31
l-100 74l100 153q-212 39 -342.5 196.5t-130.5 397.5q0 138 46 253.5t126 193t188.5 120t233.5 42.5q196 0 344 -100t207 -269l-319 -131q-29 90 -91.5 131t-140.5 41q-106 0 -173.5 -79.5t-67.5 -199.5q0 -127 74.5 -203.5t179.5 -76.5q76 0 140 42.5t97 129.5z" />
    <glyph glyph-name="egrave" unicode="&#xe8;" horiz-adv-x="1265" 
d="M797 1278h-295l-312 375h394zM666 -35q-172 0 -309.5 73t-217.5 211t-80 318q0 264 163.5 438.5t416.5 174.5q118 0 219.5 -41t178.5 -118t121 -197t44 -269v-72h-803q22 -105 94.5 -158t168.5 -53q69 0 128 35.5t91 108.5l321 -131q-58 -137 -199.5 -228.5t-336.5 -91.5
zM416 698h444q-39 191 -223 191q-87 0 -142.5 -51.5t-78.5 -139.5z" />
    <glyph glyph-name="eacute" unicode="&#xe9;" horiz-adv-x="1265" 
d="M1073 1653l-311 -375h-295l213 375h393zM666 -35q-172 0 -309.5 73t-217.5 211t-80 318q0 264 163.5 438.5t416.5 174.5q118 0 219.5 -41t178.5 -118t121 -197t44 -269v-72h-803q22 -105 94.5 -158t168.5 -53q69 0 128 35.5t91 108.5l321 -131q-58 -137 -199.5 -228.5
t-336.5 -91.5zM416 698h444q-39 191 -223 191q-87 0 -142.5 -51.5t-78.5 -139.5z" />
    <glyph glyph-name="ecircumflex" unicode="&#xea;" horiz-adv-x="1265" 
d="M498 1278h-322l295 375h334l297 -375h-322q-29 35 -45.5 58.5t-37 65.5t-33.5 91h-50q-13 -49 -33.5 -91t-37 -65.5t-45.5 -58.5zM666 -35q-172 0 -309.5 73t-217.5 211t-80 318q0 264 163.5 438.5t416.5 174.5q118 0 219.5 -41t178.5 -118t121 -197t44 -269v-72h-803
q22 -105 94.5 -158t168.5 -53q69 0 128 35.5t91 108.5l321 -131q-58 -137 -199.5 -228.5t-336.5 -91.5zM416 698h444q-39 191 -223 191q-87 0 -142.5 -51.5t-78.5 -139.5z" />
    <glyph glyph-name="edieresis" unicode="&#xeb;" horiz-adv-x="1265" 
d="M410 1276q-77 0 -130 54t-53 132q0 73 53.5 125.5t129.5 52.5t129 -52.5t53 -125.5q0 -78 -53 -132t-129 -54zM870 1276q-78 0 -131 54t-53 132q0 73 53.5 125.5t130.5 52.5q75 0 128 -53t53 -125q0 -78 -53 -132t-128 -54zM666 -35q-172 0 -309.5 73t-217.5 211t-80 318
q0 264 163.5 438.5t416.5 174.5q118 0 219.5 -41t178.5 -118t121 -197t44 -269v-72h-803q22 -105 94.5 -158t168.5 -53q69 0 128 35.5t91 108.5l321 -131q-58 -137 -199.5 -228.5t-336.5 -91.5zM416 698h444q-39 191 -223 191q-87 0 -142.5 -51.5t-78.5 -139.5z" />
    <glyph glyph-name="igrave" unicode="&#xec;" horiz-adv-x="591" 
d="M455 1257h-295l-312 375h394zM467 0h-342v1147h342v-1147z" />
    <glyph glyph-name="iacute" unicode="&#xed;" horiz-adv-x="591" 
d="M731 1632l-311 -375h-295l213 375h393zM467 0h-342v1147h342v-1147z" />
    <glyph glyph-name="icircumflex" unicode="&#xee;" horiz-adv-x="591" 
d="M156 1257h-322l295 375h334l297 -375h-322q-28 35 -45 58.5t-37.5 66t-33.5 91.5h-50q-13 -49 -33.5 -91.5t-37.5 -66t-45 -58.5zM467 0h-342v1147h342v-1147z" />
    <glyph glyph-name="idieresis" unicode="&#xef;" horiz-adv-x="591" 
d="M68 1255q-76 0 -129.5 54.5t-53.5 132.5q0 73 53.5 125.5t129.5 52.5t129 -52.5t53 -125.5q0 -78 -53 -132.5t-129 -54.5zM528 1255q-78 0 -131 54.5t-53 132.5q0 73 53.5 125.5t130.5 52.5q75 0 128 -53t53 -125q0 -78 -53 -132.5t-128 -54.5zM467 0h-342v1147h342
v-1147z" />
    <glyph glyph-name="eth" unicode="&#xf0;" horiz-adv-x="1361" 
d="M1087 1497l-116 -67q319 -287 319 -728q0 -215 -72.5 -380t-218 -261t-344.5 -96q-134 0 -247 44t-189.5 120t-119 179.5t-42.5 221.5q0 120 44 222.5t115.5 169t161 104t183.5 37.5q229 0 400 -213h40q-110 251 -313 416l-233 -133l-95 155l160 92q-116 65 -252 113
l92 262q257 -79 453 -205l174 101zM651 281q106 0 174 67.5t68 171.5q0 107 -68 174.5t-174 67.5q-107 0 -174 -68t-67 -174q0 -105 67 -172t174 -67z" />
    <glyph glyph-name="ntilde" unicode="&#xf1;" horiz-adv-x="1314" 
d="M815 1264q-82 0 -135 34l-64 41q-41 29 -73 29t-47 -24.5t-15 -61.5h-241q0 156 79.5 250t200.5 94q78 0 154 -45l55 -33q28 -16 53 -16q47 0 47 80h242q0 -171 -66 -259.5t-190 -88.5zM467 0h-342v1147h338q0 -100 -37 -209h41q109 242 340 242q169 0 281 -119.5
t112 -335.5v-725h-342v573q0 36 -1 57t-5.5 59.5t-16 62.5t-30.5 49.5t-51.5 38t-75.5 12.5q-40 0 -74.5 -12.5t-67 -42t-51 -87t-18.5 -137.5v-573z" />
    <glyph glyph-name="ograve" unicode="&#xf2;" horiz-adv-x="1316" 
d="M817 1278h-295l-311 375h393zM659 -35q-266 0 -433 169t-167 437q0 132 44.5 245t122.5 193t190 125.5t243 45.5q264 0 431 -171t167 -438q0 -268 -167 -437t-431 -169zM659 293q107 0 175.5 78t68.5 200q0 124 -68.5 202.5t-175.5 78.5q-108 0 -176.5 -79t-68.5 -202
q0 -122 68.5 -200t176.5 -78z" />
    <glyph glyph-name="oacute" unicode="&#xf3;" horiz-adv-x="1316" 
d="M1094 1653l-312 -375h-295l213 375h394zM659 -35q-266 0 -433 169t-167 437q0 132 44.5 245t122.5 193t190 125.5t243 45.5q264 0 431 -171t167 -438q0 -268 -167 -437t-431 -169zM659 293q107 0 175.5 78t68.5 200q0 124 -68.5 202.5t-175.5 78.5q-108 0 -176.5 -79
t-68.5 -202q0 -122 68.5 -200t176.5 -78z" />
    <glyph glyph-name="ocircumflex" unicode="&#xf4;" horiz-adv-x="1316" 
d="M518 1278h-321l295 375h333l297 -375h-321q-29 36 -45.5 58.5t-37.5 65t-34 91.5h-49q-13 -49 -34 -91.5t-37.5 -65t-45.5 -58.5zM659 -35q-266 0 -433 169t-167 437q0 132 44.5 245t122.5 193t190 125.5t243 45.5q264 0 431 -171t167 -438q0 -268 -167 -437t-431 -169z
M659 293q107 0 175.5 78t68.5 200q0 124 -68.5 202.5t-175.5 78.5q-108 0 -176.5 -79t-68.5 -202q0 -122 68.5 -200t176.5 -78z" />
    <glyph glyph-name="otilde" unicode="&#xf5;" horiz-adv-x="1316" 
d="M825 1264q-82 0 -135 34l-63 41q-41 29 -74 29q-32 0 -46.5 -24.5t-14.5 -61.5h-242q0 156 79.5 250t200.5 94q78 0 154 -45l55 -33q28 -16 54 -16q47 0 47 80h241q0 -171 -66 -259.5t-190 -88.5zM659 -35q-266 0 -433 169t-167 437q0 132 44.5 245t122.5 193t190 125.5
t243 45.5q264 0 431 -171t167 -438q0 -268 -167 -437t-431 -169zM659 293q107 0 175.5 78t68.5 200q0 124 -68.5 202.5t-175.5 78.5q-108 0 -176.5 -79t-68.5 -202q0 -122 68.5 -200t176.5 -78z" />
    <glyph glyph-name="odieresis" unicode="&#xf6;" horiz-adv-x="1316" 
d="M430 1276q-76 0 -129 54t-53 132q0 73 53 125.5t129 52.5t129 -52.5t53 -125.5q0 -78 -53 -132t-129 -54zM891 1276q-78 0 -131 54t-53 132q0 73 53.5 125.5t130.5 52.5q75 0 127.5 -53t52.5 -125q0 -78 -52.5 -132t-127.5 -54zM659 -35q-266 0 -433 169t-167 437
q0 132 44.5 245t122.5 193t190 125.5t243 45.5q264 0 431 -171t167 -438q0 -268 -167 -437t-431 -169zM659 293q107 0 175.5 78t68.5 200q0 124 -68.5 202.5t-175.5 78.5q-108 0 -176.5 -79t-68.5 -202q0 -122 68.5 -200t176.5 -78z" />
    <glyph glyph-name="divide" unicode="&#xf7;" horiz-adv-x="1140" 
d="M569 870q-70 0 -120 52.5t-50 124.5q0 71 49 120.5t121 49.5t122 -50.5t50 -122.5t-50.5 -123t-121.5 -51zM1051 500h-961v256h961v-256zM569 41q-70 0 -120 52t-50 124q0 71 49 120.5t121 49.5t122 -50t50 -122t-50.5 -123t-121.5 -51z" />
    <glyph glyph-name="oslash" unicode="&#xf8;" horiz-adv-x="1316" 
d="M989 1190h279l-154 -207q143 -165 143 -412q0 -268 -167 -437t-431 -169q-148 0 -266 53l-57 -75h-287l160 211q-150 166 -150 417q0 132 44.5 245t122.5 193t190 125.5t243 45.5q154 0 277 -60zM414 571q0 -65 20 -118l293 389q-33 10 -68 10q-108 0 -176.5 -79
t-68.5 -202zM903 571q0 56 -16 109l-285 -381q27 -6 57 -6q107 0 175.5 78t68.5 200z" />
    <glyph glyph-name="ugrave" unicode="&#xf9;" horiz-adv-x="1296" 
d="M813 1278h-295l-311 375h393zM528 -35q-201 0 -307 120t-106 343v719h342v-604q0 -250 172 -250q91 0 144.5 67.5t53.5 182.5v604h342v-789q0 -132 9 -207t28 -151h-340q-8 39 -10.5 54.5t3.5 54t26 88.5h-41q-41 -123 -115 -177.5t-201 -54.5z" />
    <glyph glyph-name="uacute" unicode="&#xfa;" horiz-adv-x="1296" 
d="M1090 1653l-312 -375h-295l213 375h394zM528 -35q-201 0 -307 120t-106 343v719h342v-604q0 -250 172 -250q91 0 144.5 67.5t53.5 182.5v604h342v-789q0 -132 9 -207t28 -151h-340q-8 39 -10.5 54.5t3.5 54t26 88.5h-41q-41 -123 -115 -177.5t-201 -54.5z" />
    <glyph glyph-name="ucircumflex" unicode="&#xfb;" horiz-adv-x="1296" 
d="M514 1278h-321l294 375h334l297 -375h-321q-29 36 -45.5 58.5t-37.5 65t-34 91.5h-49q-13 -49 -34 -91.5t-37.5 -65t-45.5 -58.5zM528 -35q-201 0 -307 120t-106 343v719h342v-604q0 -250 172 -250q91 0 144.5 67.5t53.5 182.5v604h342v-789q0 -132 9 -207t28 -151h-340
q-8 39 -10.5 54.5t3.5 54t26 88.5h-41q-41 -123 -115 -177.5t-201 -54.5z" />
    <glyph glyph-name="udieresis" unicode="&#xfc;" horiz-adv-x="1296" 
d="M426 1276q-76 0 -129 54t-53 132q0 73 53 125.5t129 52.5t129 -52.5t53 -125.5q0 -78 -53 -132t-129 -54zM887 1276q-78 0 -131.5 54t-53.5 132q0 73 54 125.5t131 52.5q75 0 127.5 -53t52.5 -125q0 -78 -52.5 -132t-127.5 -54zM528 -35q-201 0 -307 120t-106 343v719
h342v-604q0 -250 172 -250q91 0 144.5 67.5t53.5 182.5v604h342v-789q0 -132 9 -207t28 -151h-340q-8 39 -10.5 54.5t3.5 54t26 88.5h-41q-41 -123 -115 -177.5t-201 -54.5z" />
    <glyph glyph-name="yacute" unicode="&#xfd;" horiz-adv-x="1234" 
d="M1053 1653l-312 -375h-295l213 375h394zM659 -451h-370l147 390l-436 1208h377q74 -214 127 -402t98 -430h41q31 165 73 328t69.5 250.5t82.5 253.5h367z" />
    <glyph glyph-name="thorn" unicode="&#xfe;" horiz-adv-x="1361" 
d="M467 -451h-342v2089h342v-88v-96t-1 -88.5t-3 -100t-6 -93.5t-10 -106t-15 -103h41q63 116 143.5 166.5t190.5 50.5q149 0 263 -84.5t172 -222.5t58 -304q0 -137 -42.5 -252t-114 -191t-164 -118.5t-193.5 -42.5q-205 0 -315 199h-41q7 -38 12 -74.5t9 -76t7 -68t4.5 -72
t2.5 -64.5t1.5 -69t0.5 -62v-67v-62zM705 293q107 0 175 78t68 198q0 123 -69 203t-177 80q-109 0 -176 -79.5t-67 -201.5q0 -123 69.5 -200.5t176.5 -77.5z" />
    <glyph glyph-name="ydieresis" unicode="&#xff;" horiz-adv-x="1234" 
d="M389 1276q-76 0 -129 54t-53 132q0 73 53 125.5t129 52.5t129 -52.5t53 -125.5q0 -78 -53 -132t-129 -54zM850 1276q-78 0 -131 54t-53 132q0 73 53.5 125.5t130.5 52.5q74 0 127 -53t53 -125q0 -78 -52.5 -132t-127.5 -54zM659 -451h-370l147 390l-436 1208h377
q74 -214 127 -402t98 -430h41q31 165 73 328t69.5 250.5t82.5 253.5h367z" />
    <glyph glyph-name="Amacron" unicode="&#x100;" horiz-adv-x="1599" 
d="M1186 1741h-783v250h783v-250zM371 0h-377l592 1597h428l592 -1597h-387q-27 70 -42.5 114.5t-33 120t-21.5 140.5l-26 26q-142 -45 -301 -45q-156 0 -301 45l-27 -26q-8 -146 -96 -375zM594 678l18 -21q86 43 183 43q96 0 182 -43l18 21q-73 151 -110.5 287t-48.5 335
h-82q-11 -198 -49 -334t-111 -288z" />
    <glyph glyph-name="amacron" unicode="&#x101;" horiz-adv-x="1206" 
d="M956 1300h-688v236h688v-236zM451 -35q-60 0 -116.5 13.5t-107 41.5t-88.5 68.5t-60 98t-22 126.5q0 77 27.5 136.5t78.5 98.5t111 63.5t138 41.5q219 47 275 69t56 71q0 51 -38.5 80.5t-104.5 29.5q-146 0 -192 -160l-318 107q27 89 79.5 154.5t123 103t149.5 55
t170 17.5q232 0 353.5 -107.5t121.5 -308.5v-406q0 -213 37 -358h-340q-13 21 -11 65t30 115h-41q-27 -77 -78 -126.5t-108.5 -69t-124.5 -19.5zM555 225q86 0 138 57.5t52 139.5v67l-206 -51q-107 -29 -107 -114q0 -50 34 -74.5t89 -24.5z" />
    <glyph glyph-name="Abreve" unicode="&#x102;" horiz-adv-x="1599" 
d="M797 1712q-176 0 -292.5 106t-119.5 275h289q2 -63 31.5 -104t91.5 -41t91.5 41t31.5 104h288q-3 -169 -119 -275t-292 -106zM371 0h-377l592 1597h428l592 -1597h-387q-27 70 -42.5 114.5t-33 120t-21.5 140.5l-26 26q-142 -45 -301 -45q-156 0 -301 45l-27 -26
q-8 -146 -96 -375zM594 678l18 -21q86 43 183 43q96 0 182 -43l18 21q-73 151 -110.5 287t-48.5 335h-82q-11 -198 -49 -334t-111 -288z" />
    <glyph glyph-name="abreve" unicode="&#x103;" horiz-adv-x="1206" 
d="M606 1264q-172 0 -278.5 110.5t-112.5 284.5h274q0 -38 11.5 -72t41.5 -59t74 -25t74 25t41.5 59t11.5 72h275q-6 -176 -116 -285.5t-296 -109.5zM451 -35q-60 0 -116.5 13.5t-107 41.5t-88.5 68.5t-60 98t-22 126.5q0 77 27.5 136.5t78.5 98.5t111 63.5t138 41.5
q219 47 275 69t56 71q0 51 -38.5 80.5t-104.5 29.5q-146 0 -192 -160l-318 107q27 89 79.5 154.5t123 103t149.5 55t170 17.5q232 0 353.5 -107.5t121.5 -308.5v-406q0 -213 37 -358h-340q-13 21 -11 65t30 115h-41q-27 -77 -78 -126.5t-108.5 -69t-124.5 -19.5zM555 225
q86 0 138 57.5t52 139.5v67l-206 -51q-107 -29 -107 -114q0 -50 34 -74.5t89 -24.5z" />
    <glyph glyph-name="Aogonek" unicode="&#x104;" horiz-adv-x="1599" 
d="M1276 -139q0 -40 33 -75.5t108 -35.5q59 0 90 10v-204q-53 -19 -145 -19q-50 0 -96 8.5t-87.5 27.5t-72 46.5t-48.5 67.5t-18 88q0 67 47 128t132 97q-27 70 -42.5 114.5t-33 120t-21.5 140.5l-26 26q-142 -45 -301 -45q-156 0 -301 45l-27 -26q-8 -146 -96 -375h-377
l592 1597h428l592 -1597h-164q-51 -6 -87 -23t-51.5 -40t-21.5 -41t-6 -35zM977 657l18 21q-73 151 -110.5 287t-48.5 335h-82q-11 -198 -49 -334t-111 -288l18 -21q86 43 183 43q96 0 182 -43z" />
    <glyph glyph-name="aogonek" unicode="&#x105;" horiz-adv-x="1206" 
d="M846 -141q0 -40 30 -67.5t87 -27.5q61 0 96 17v-230q-55 -14 -127 -14q-137 0 -227.5 62t-90.5 180q0 76 48.5 136t128.5 85h-7q-13 21 -11 65t30 115h-41q-27 -77 -78 -126.5t-108.5 -69t-124.5 -19.5q-60 0 -116.5 13.5t-107 41.5t-88.5 68.5t-60 98t-22 126.5
q0 77 27.5 136.5t78.5 98.5t111 63.5t138 41.5q219 47 275 69t56 71q0 51 -38.5 80.5t-104.5 29.5q-146 0 -192 -160l-318 107q27 89 79.5 154.5t123 103t149.5 55t170 17.5q232 0 353.5 -107.5t121.5 -308.5v-406q0 -213 37 -358h-123q-59 -9 -96 -35.5t-48 -52t-11 -53.5z
M745 422v67l-206 -51q-107 -29 -107 -114q0 -50 34 -74.5t89 -24.5q86 0 138 57.5t52 139.5z" />
    <glyph glyph-name="Cacute" unicode="&#x106;" horiz-adv-x="1695" 
d="M1376 2095l-321 -375h-310l222 375h409zM907 -35q-240 0 -429 103t-297.5 296t-108.5 443q0 197 69.5 357t185.5 260t261 153t303 53q263 0 459.5 -141t283.5 -373l-338 -135q-132 307 -411 307q-193 0 -313.5 -137t-120.5 -363q0 -104 28 -188.5t73.5 -138t106.5 -89
t122.5 -50.5t125.5 -15q149 0 265.5 86.5t175.5 263.5l338 -114q-41 -124 -103 -222.5t-136.5 -164.5t-164 -109.5t-182 -62.5t-193.5 -19z" />
    <glyph glyph-name="cacute" unicode="&#x107;" horiz-adv-x="1251" 
d="M1049 1653l-312 -375h-295l213 375h394zM666 -35q-171 0 -308 71.5t-218 210.5t-81 324q0 138 46 253.5t126 193t188.5 120t233.5 42.5q196 0 344 -100t207 -269l-319 -131q-29 90 -91.5 131t-140.5 41q-106 0 -173.5 -79.5t-67.5 -199.5q0 -127 74.5 -203.5t179.5 -76.5
q76 0 140 42.5t97 129.5l322 -131q-59 -170 -208.5 -269.5t-350.5 -99.5z" />
    <glyph glyph-name="Cdotaccent" unicode="&#x10a;" horiz-adv-x="1695" 
d="M889 1743q-87 0 -145 59t-58 146q0 81 58 138.5t145 57.5q84 0 141 -57.5t57 -138.5q0 -87 -57 -146t-141 -59zM907 -35q-240 0 -429 103t-297.5 296t-108.5 443q0 197 69.5 357t185.5 260t261 153t303 53q263 0 459.5 -141t283.5 -373l-338 -135q-132 307 -411 307
q-193 0 -313.5 -137t-120.5 -363q0 -104 28 -188.5t73.5 -138t106.5 -89t122.5 -50.5t125.5 -15q149 0 265.5 86.5t175.5 263.5l338 -114q-41 -124 -103 -222.5t-136.5 -164.5t-164 -109.5t-182 -62.5t-193.5 -19z" />
    <glyph glyph-name="cdotaccent" unicode="&#x10b;" horiz-adv-x="1251" 
d="M616 1278q-87 0 -144.5 59t-57.5 146q0 81 58 138.5t144 57.5q84 0 141.5 -58t57.5 -138q0 -86 -57 -145.5t-142 -59.5zM666 -35q-171 0 -308 71.5t-218 210.5t-81 324q0 138 46 253.5t126 193t188.5 120t233.5 42.5q196 0 344 -100t207 -269l-319 -131q-29 90 -91.5 131
t-140.5 41q-106 0 -173.5 -79.5t-67.5 -199.5q0 -127 74.5 -203.5t179.5 -76.5q76 0 140 42.5t97 129.5l322 -131q-59 -170 -208.5 -269.5t-350.5 -99.5z" />
    <glyph glyph-name="Ccaron" unicode="&#x10c;" horiz-adv-x="1695" 
d="M1051 1720h-330l-293 375h317q28 -28 43 -48t33 -67t25 -112h82q5 50 14.5 87t25.5 64t26.5 40.5t31.5 35.5h317zM907 -35q-240 0 -429 103t-297.5 296t-108.5 443q0 197 69.5 357t185.5 260t261 153t303 53q263 0 459.5 -141t283.5 -373l-338 -135q-132 307 -411 307
q-193 0 -313.5 -137t-120.5 -363q0 -104 28 -188.5t73.5 -138t106.5 -89t122.5 -50.5t125.5 -15q149 0 265.5 86.5t175.5 263.5l338 -114q-41 -124 -103 -222.5t-136.5 -164.5t-164 -109.5t-182 -62.5t-193.5 -19z" />
    <glyph glyph-name="ccaron" unicode="&#x10d;" horiz-adv-x="1251" 
d="M780 1298h-334l-294 396h321q8 -14 32 -52.5t34.5 -57t25.5 -54t25 -72.5h49q10 37 25 72.5t25.5 54t34.5 57t32 52.5h321zM666 -35q-171 0 -308 71.5t-218 210.5t-81 324q0 138 46 253.5t126 193t188.5 120t233.5 42.5q196 0 344 -100t207 -269l-319 -131
q-29 90 -91.5 131t-140.5 41q-106 0 -173.5 -79.5t-67.5 -199.5q0 -127 74.5 -203.5t179.5 -76.5q76 0 140 42.5t97 129.5l322 -131q-59 -170 -208.5 -269.5t-350.5 -99.5z" />
    <glyph glyph-name="Dcaron" unicode="&#x10e;" horiz-adv-x="1619" 
d="M922 1720h-330l-293 375h317q28 -28 43 -48t33 -67t25 -112h82q5 50 14.5 87t25.5 64t26.5 40.5t31.5 35.5h317zM807 0h-655v1597h636q156 0 283 -40.5t214.5 -112t146.5 -171.5t86.5 -216t27.5 -248q0 -238 -87 -420t-255.5 -285.5t-396.5 -103.5zM469 319l41 -40
q42 27 89.5 40t76.5 15t80 2q409 0 409 457q0 76 -12 139.5t-30 109t-48 81.5t-57 58.5t-67 39t-68 24.5t-70 12t-62.5 4.5t-54.5 0.5q-39 0 -60 2t-56 14.5t-70 38.5l-43 -21q121 -508 2 -977z" />
    <glyph glyph-name="dcaron" unicode="&#x10f;" horiz-adv-x="1366" 
d="M1497 1063h-194q30 51 47 77.5t47.5 70.5t66 80.5t78.5 72.5q-188 45 -188 188q0 83 61.5 143t147.5 60q85 0 144.5 -58.5t59.5 -140.5q0 -17 -2 -32.5t-8.5 -35t-12.5 -34.5t-21 -41.5t-27 -46t-36.5 -58t-43.5 -66.5t-55 -82.5t-64 -96.5zM580 -35q-158 0 -276.5 79.5
t-179.5 217t-61 313.5q0 140 40.5 255.5t110.5 191t163 117t198 41.5q122 0 199.5 -59t118.5 -183h41q-18 137 -27 270t-10 217.5t0 212.5h342v-1280q0 -132 9 -207t28 -151h-338q-18 81 -2 164h-41q-76 -199 -315 -199zM662 295q109 0 176 79t67 201q0 123 -68.5 201
t-177.5 78q-107 0 -175 -78t-68 -201q0 -122 67.5 -201t178.5 -79z" />
    <glyph glyph-name="Dcroat" unicode="&#x110;" horiz-adv-x="1619" 
d="M152 1597h636q156 0 283 -40.5t214.5 -112t146.5 -171.5t86.5 -216t27.5 -248q0 -238 -87 -420t-255.5 -285.5t-396.5 -103.5h-655v653h-222v289h222v655zM756 336q409 0 409 457q0 76 -12 139.5t-30 109t-48 81.5t-57 58.5t-67 39t-68 24.5t-70 12t-62.5 4.5t-54.5 0.5
q-39 0 -60 2t-56 14.5t-70 38.5l-43 -21q43 -176 55 -354h260v-289h-260q-13 -180 -53 -334l41 -40q42 27 89.5 40t76.5 15t80 2z" />
    <glyph glyph-name="dcroat" unicode="&#x111;" horiz-adv-x="1366" 
d="M1501 1495v-252h-262v-885q0 -132 9 -207t28 -151h-338q-18 81 -2 164h-41q-76 -199 -315 -199q-158 0 -276.5 79.5t-179.5 217t-61 313.5q0 140 40.5 255.5t110.5 191t163 117t198 41.5q122 0 199.5 -59t118.5 -183h41q-23 189 -31 305h-256v252h250v143h342v-143h262z
M662 295q109 0 176 79t67 201q0 123 -68.5 201t-177.5 78q-107 0 -175 -78t-68 -201q0 -122 67.5 -201t178.5 -79z" />
    <glyph glyph-name="Emacron" unicode="&#x112;" horiz-adv-x="1323" 
d="M1081 1741h-782v250h782v-250zM1231 0h-1079v1597h1058v-335q-143 0 -224 2t-215.5 14.5t-260.5 38.5l-43 -21q35 -94 36.5 -175.5t-26.5 -194.5l25 -21q120 37 248.5 56t205 21.5t213.5 2.5v-354q-103 0 -160 1.5t-149 8.5t-177.5 25.5t-176.5 48.5l-29 -21
q28 -120 26.5 -205t-34.5 -170l41 -40q128 27 266.5 40t222 15t232.5 2v-336z" />
    <glyph glyph-name="emacron" unicode="&#x113;" horiz-adv-x="1265" 
d="M983 1300h-688v236h688v-236zM666 -35q-172 0 -309.5 73t-217.5 211t-80 318q0 264 163.5 438.5t416.5 174.5q118 0 219.5 -41t178.5 -118t121 -197t44 -269v-72h-803q22 -105 94.5 -158t168.5 -53q69 0 128 35.5t91 108.5l321 -131q-58 -137 -199.5 -228.5t-336.5 -91.5
zM416 698h444q-39 191 -223 191q-87 0 -142.5 -51.5t-78.5 -139.5z" />
    <glyph glyph-name="Edotaccent" unicode="&#x116;" horiz-adv-x="1323" 
d="M694 1743q-87 0 -144.5 59t-57.5 146q0 81 58 138.5t144 57.5q84 0 141.5 -58t57.5 -138q0 -86 -57 -145.5t-142 -59.5zM1231 0h-1079v1597h1058v-335q-143 0 -224 2t-215.5 14.5t-260.5 38.5l-43 -21q35 -94 36.5 -175.5t-26.5 -194.5l25 -21q120 37 248.5 56t205 21.5
t213.5 2.5v-354q-103 0 -160 1.5t-149 8.5t-177.5 25.5t-176.5 48.5l-29 -21q28 -120 26.5 -205t-34.5 -170l41 -40q128 27 266.5 40t222 15t232.5 2v-336z" />
    <glyph glyph-name="edotaccent" unicode="&#x117;" horiz-adv-x="1265" 
d="M641 1278q-87 0 -145 59t-58 146q0 81 58 138.5t145 57.5q84 0 141.5 -58t57.5 -138q0 -86 -57 -145.5t-142 -59.5zM666 -35q-172 0 -309.5 73t-217.5 211t-80 318q0 264 163.5 438.5t416.5 174.5q118 0 219.5 -41t178.5 -118t121 -197t44 -269v-72h-803
q22 -105 94.5 -158t168.5 -53q69 0 128 35.5t91 108.5l321 -131q-58 -137 -199.5 -228.5t-336.5 -91.5zM416 698h444q-39 191 -223 191q-87 0 -142.5 -51.5t-78.5 -139.5z" />
    <glyph glyph-name="Eogonek" unicode="&#x118;" horiz-adv-x="1323" 
d="M1206 -250q59 0 90 10v-204q-53 -19 -145 -19q-50 0 -96 8.5t-87.5 27.5t-72 46.5t-48.5 67.5t-18 88q0 67 47 128t132 97h-856v1597h1058v-335q-143 0 -224 2t-215.5 14.5t-260.5 38.5l-43 -21q35 -94 36.5 -175.5t-26.5 -194.5l25 -21q120 37 248.5 56t205 21.5
t213.5 2.5v-354q-103 0 -160 1.5t-149 8.5t-177.5 25.5t-176.5 48.5l-29 -21q28 -120 26.5 -205t-34.5 -170l41 -40q128 27 266.5 40t222 15t232.5 2v-336q-51 -6 -87 -23t-51.5 -40t-21.5 -41t-6 -35q0 -40 33 -75.5t108 -35.5z" />
    <glyph glyph-name="eogonek" unicode="&#x119;" horiz-adv-x="1265" 
d="M1202 555v-72h-803q22 -105 94.5 -158t168.5 -53q69 0 128 35.5t91 108.5l321 -131q-46 -110 -148.5 -192.5t-244.5 -112.5q-46 -21 -66 -54.5t-20 -66.5q0 -40 30 -67.5t87 -27.5q61 0 96 17v-230q-55 -14 -127 -14q-137 0 -227 62t-90 180q0 58 28 107.5t78 80.5
q-155 15 -276.5 91.5t-192 209t-70.5 299.5q0 264 163.5 438.5t416.5 174.5q118 0 219.5 -41t178.5 -118t121 -197t44 -269zM416 698h444q-39 191 -223 191q-87 0 -142.5 -51.5t-78.5 -139.5z" />
    <glyph glyph-name="Ecaron" unicode="&#x11a;" horiz-adv-x="1323" 
d="M854 1720h-330l-293 375h318q27 -27 42.5 -47.5t33 -67.5t24.5 -112h82q5 50 14.5 87t25.5 64t26.5 40.5t31.5 35.5h318zM1231 0h-1079v1597h1058v-335q-143 0 -224 2t-215.5 14.5t-260.5 38.5l-43 -21q35 -94 36.5 -175.5t-26.5 -194.5l25 -21q120 37 248.5 56t205 21.5
t213.5 2.5v-354q-103 0 -160 1.5t-149 8.5t-177.5 25.5t-176.5 48.5l-29 -21q28 -120 26.5 -205t-34.5 -170l41 -40q128 27 266.5 40t222 15t232.5 2v-336z" />
    <glyph glyph-name="ecaron" unicode="&#x11b;" horiz-adv-x="1265" 
d="M805 1298h-334l-295 396h322q7 -12 32 -52t34.5 -58t24.5 -53.5t25 -72.5h50q10 37 25 72.5t24.5 53.5t34.5 58t32 52h322zM666 -35q-172 0 -309.5 73t-217.5 211t-80 318q0 264 163.5 438.5t416.5 174.5q118 0 219.5 -41t178.5 -118t121 -197t44 -269v-72h-803
q22 -105 94.5 -158t168.5 -53q69 0 128 35.5t91 108.5l321 -131q-58 -137 -199.5 -228.5t-336.5 -91.5zM416 698h444q-39 191 -223 191q-87 0 -142.5 -51.5t-78.5 -139.5z" />
    <glyph glyph-name="Gbreve" unicode="&#x11e;" horiz-adv-x="1773" 
d="M889 1712q-176 0 -292.5 106t-119.5 275h289q2 -63 31.5 -104t91.5 -41t91.5 41t31.5 104h288q-3 -169 -119 -275t-292 -106zM854 -35q-226 0 -404.5 106.5t-278 296.5t-99.5 431q0 156 43.5 290.5t120 232.5t179.5 168t223.5 105t250.5 35q271 0 467 -143.5t278 -370.5
l-338 -135q-135 307 -407 307q-192 0 -315 -135.5t-123 -364.5q0 -109 31.5 -195.5t80.5 -139t113.5 -86.5t124.5 -47t121 -13q142 0 264.5 67.5t243.5 227.5l-39 41q-63 -32 -128 -52.5t-132 -28t-105.5 -9.5t-99.5 -2v295h735v-846h-275q-1 8 -3.5 31.5t-3.5 34.5t-0.5 34
t3.5 41t9.5 44.5t17.5 54.5l-53 20q-85 -157 -207.5 -226t-294.5 -69z" />
    <glyph glyph-name="gbreve" unicode="&#x11f;" horiz-adv-x="1361" 
d="M682 1264q-172 0 -278.5 110.5t-112.5 284.5h274q0 -38 11.5 -72t41.5 -59t74 -25t74 25t41.5 59t11.5 72h275q-6 -176 -116 -285.5t-296 -109.5zM649 -483q-80 0 -154 13.5t-154 46.5t-145 100.5t-102 164.5l309 113q40 -81 97 -115.5t137 -34.5q131 0 194.5 72.5
t63.5 183.5q0 48 11.5 95t25.5 69h-41q-27 -68 -63 -113.5t-77.5 -67t-79.5 -29t-85 -7.5q-103 0 -190 31.5t-148 85.5t-103.5 128t-63 159t-20.5 178q0 258 145 424t365 166q256 0 308 -242h41q-21 133 -21 209h338v-1041q0 -134 -33.5 -238.5t-88.5 -169.5t-133 -106.5
t-159 -58t-174 -16.5zM659 336q107 0 175.5 76.5t68.5 183.5q0 108 -69 183t-177 75q-106 0 -174.5 -74.5t-68.5 -183.5q0 -110 68.5 -185t176.5 -75z" />
    <glyph glyph-name="Gdotaccent" unicode="&#x120;" horiz-adv-x="1773" 
d="M889 1743q-87 0 -145 59t-58 146q0 81 58 138.5t145 57.5q84 0 141 -57.5t57 -138.5q0 -87 -57 -146t-141 -59zM854 -35q-226 0 -404.5 106.5t-278 296.5t-99.5 431q0 156 43.5 290.5t120 232.5t179.5 168t223.5 105t250.5 35q271 0 467 -143.5t278 -370.5l-338 -135
q-135 307 -407 307q-192 0 -315 -135.5t-123 -364.5q0 -109 31.5 -195.5t80.5 -139t113.5 -86.5t124.5 -47t121 -13q142 0 264.5 67.5t243.5 227.5l-39 41q-63 -32 -128 -52.5t-132 -28t-105.5 -9.5t-99.5 -2v295h735v-846h-275q-1 8 -3.5 31.5t-3.5 34.5t-0.5 34t3.5 41
t9.5 44.5t17.5 54.5l-53 20q-85 -157 -207.5 -226t-294.5 -69z" />
    <glyph glyph-name="gdotaccent" unicode="&#x121;" horiz-adv-x="1361" 
d="M690 1278q-87 0 -145 59t-58 146q0 81 58 138.5t145 57.5q84 0 141.5 -58t57.5 -138q0 -86 -57 -145.5t-142 -59.5zM649 -483q-80 0 -154 13.5t-154 46.5t-145 100.5t-102 164.5l309 113q40 -81 97 -115.5t137 -34.5q131 0 194.5 72.5t63.5 183.5q0 48 11.5 95t25.5 69
h-41q-27 -68 -63 -113.5t-77.5 -67t-79.5 -29t-85 -7.5q-103 0 -190 31.5t-148 85.5t-103.5 128t-63 159t-20.5 178q0 258 145 424t365 166q256 0 308 -242h41q-21 133 -21 209h338v-1041q0 -134 -33.5 -238.5t-88.5 -169.5t-133 -106.5t-159 -58t-174 -16.5zM659 336
q107 0 175.5 76.5t68.5 183.5q0 108 -69 183t-177 75q-106 0 -174.5 -74.5t-68.5 -183.5q0 -110 68.5 -185t176.5 -75z" />
    <glyph glyph-name="uni0122" unicode="&#x122;" horiz-adv-x="1773" 
d="M854 -35q-226 0 -404.5 106.5t-278 296.5t-99.5 431q0 156 43.5 290.5t120 232.5t179.5 168t223.5 105t250.5 35q271 0 467 -143.5t278 -370.5l-338 -135q-135 307 -407 307q-192 0 -315 -135.5t-123 -364.5q0 -109 31.5 -195.5t80.5 -139t113.5 -86.5t124.5 -47t121 -13
q142 0 264.5 67.5t243.5 227.5l-39 41q-63 -32 -128 -52.5t-132 -28t-105.5 -9.5t-99.5 -2v295h735v-846h-275q-1 8 -3.5 31.5t-3.5 34.5t-0.5 34t3.5 41t9.5 44.5t17.5 54.5l-53 20q-85 -157 -207.5 -226t-294.5 -69zM891 -696h-184q31 55 51 86.5t61 79t92 86.5
q-69 0 -117.5 47t-48.5 118q0 75 51 125t128 50q76 0 126 -50t50 -127q0 -25 -5 -46t-23.5 -57.5t-36 -66t-62 -104.5t-82.5 -141z" />
    <glyph glyph-name="uni0123" unicode="&#x123;" horiz-adv-x="1361" 
d="M510 1460q0 25 5 46t23.5 58t35.5 66t62 105t83 141h184q-86 -154 -184 -293q70 6 107.5 -37t37.5 -106q0 -71 -50 -113.5t-124 -42.5q-80 0 -130 49t-50 127zM649 -483q-80 0 -154 13.5t-154 46.5t-145 100.5t-102 164.5l309 113q40 -81 97 -115.5t137 -34.5
q131 0 194.5 72.5t63.5 183.5q0 48 11.5 95t25.5 69h-41q-27 -68 -63 -113.5t-77.5 -67t-79.5 -29t-85 -7.5q-103 0 -190 31.5t-148 85.5t-103.5 128t-63 159t-20.5 178q0 258 145 424t365 166q256 0 308 -242h41q-21 133 -21 209h338v-1041q0 -134 -33.5 -238.5
t-88.5 -169.5t-133 -106.5t-159 -58t-174 -16.5zM659 336q107 0 175.5 76.5t68.5 183.5q0 108 -69 183t-177 75q-106 0 -174.5 -74.5t-68.5 -183.5q0 -110 68.5 -185t176.5 -75z" />
    <glyph glyph-name="Hbar" unicode="&#x126;" horiz-adv-x="1662" 
d="M1511 1366h156v-276h-156v-1090h-362q0 133 1.5 205.5t10 195t25.5 246.5l-41 21q-162 -58 -310.5 -57.5t-316.5 57.5l-41 -21q17 -124 25.5 -246.5t10 -195t1.5 -205.5h-362v1090h-156v276h156v231h362q0 -153 -2 -231h639q-2 78 -2 231h362v-231zM1149 903l37 21
q-14 105 -19 166h-671q-5 -61 -19 -166l37 -21q171 58 319 58.5t316 -58.5z" />
    <glyph glyph-name="hbar" unicode="&#x127;" horiz-adv-x="1314" 
d="M807 1180q169 0 281 -119.5t112 -335.5v-725h-342v573q0 36 -1 57t-5.5 59.5t-16 62.5t-30.5 49.5t-51.5 38t-75.5 12.5q-40 0 -74.5 -12.5t-67 -42t-51 -87t-18.5 -137.5v-573h-342v1235h-231v252h231v151h342v-151h281v-252h-289q-9 -144 -33 -297h41q109 242 340 242z
" />
    <glyph glyph-name="Imacron" unicode="&#x12a;" horiz-adv-x="665" 
d="M717 1741h-783v250h783v-250zM514 0h-362v1597h362v-1597z" />
    <glyph glyph-name="imacron" unicode="&#x12b;" horiz-adv-x="591" 
d="M641 1280h-688v236h688v-236zM467 0h-342v1147h342v-1147z" />
    <glyph glyph-name="Iogonek" unicode="&#x12e;" horiz-adv-x="665" 
d="M494 -250q59 0 90 10v-204q-53 -19 -146 -19q-85 0 -155.5 24t-118 79.5t-47.5 134.5q0 67 46.5 128t131.5 97h-143v1597h362v-1597h4q-51 -6 -87 -23t-51.5 -40t-21.5 -41t-6 -35q0 -39 33.5 -75t108.5 -36z" />
    <glyph glyph-name="iogonek" unicode="&#x12f;" horiz-adv-x="591" 
d="M299 1257q-87 0 -145 59t-58 146q0 81 58.5 139t144.5 58q84 0 141.5 -58t57.5 -139q0 -86 -57 -145.5t-142 -59.5zM270 -141q0 -40 30 -67.5t87 -27.5q61 0 96 17v-230q-55 -14 -127 -14q-137 0 -227 62t-90 180q0 76 48 136t128 85h-90v1147h342v-1147h-41
q-85 -13 -120.5 -54.5t-35.5 -86.5z" />
    <glyph glyph-name="Idotaccent" unicode="&#x130;" horiz-adv-x="665" 
d="M328 1743q-87 0 -145 59t-58 146q0 81 58 138.5t145 57.5q84 0 141 -57.5t57 -138.5q0 -87 -57 -146t-141 -59zM514 0h-362v1597h362v-1597z" />
    <glyph glyph-name="dotlessi" unicode="&#x131;" horiz-adv-x="591" 
d="M467 0h-342v1147h342v-1147z" />
    <glyph glyph-name="uni0136" unicode="&#x136;" horiz-adv-x="1505" 
d="M514 0h-362v1597h362v-78.5v-84.5t-1.5 -80t-4 -89.5t-7.5 -87t-13 -98t-19.5 -97t-26.5 -108.5h41q294 377 602 723h426q-386 -441 -649 -710v-43q94 -91 183 -192t182 -223t151.5 -203t159.5 -226h-440q-7 10 -46 66t-49.5 71t-45 65t-48.5 71.5t-43.5 66.5t-47.5 73
t-42.5 67.5t-45 75t-40.5 71.5h-28q-53 -59 -89 -92t-79 -54q20 -174 20 -481zM782 -696h-184q30 54 51 86.5t62 79.5t92 86q-69 0 -117.5 47t-48.5 118q0 75 51 125t127 50t126 -50t50 -127q0 -25 -5 -46t-23.5 -57.5t-36 -66t-62 -104.5t-82.5 -141z" />
    <glyph glyph-name="uni0137" unicode="&#x137;" horiz-adv-x="1220" 
d="M469 0h-344v1638h344v-96v-103.5t-0.5 -95t-1.5 -105t-2.5 -97.5t-4.5 -108t-7 -101t-9 -112.5t-12 -108.5h41q76 120 153.5 218t182.5 218h405l-464 -475q32 -36 63 -72.5t63.5 -78t56.5 -71.5t59 -78t53 -72t56 -78t50.5 -71.5t54.5 -78t51 -72.5h-403
q-63 97 -97 149.5t-87 145t-97 182.5q-32 -66 -56.5 -102.5t-59.5 -73.5q12 -94 12 -301zM608 -696h-184q30 54 51 86.5t62 79.5t92 86q-69 0 -117.5 47t-48.5 118q0 75 51 125t127 50t126 -50t50 -127q0 -25 -5 -46t-23.5 -57.5t-36 -66t-62 -104.5t-82.5 -141z" />
    <glyph glyph-name="Lacute" unicode="&#x139;" horiz-adv-x="1198" 
d="M860 2095l-321 -375h-310l222 375h409zM1174 0h-1022v1597h362q0 -280 -1.5 -435t-12 -397.5t-31.5 -445.5l41 -40q115 27 242 40t205 15t217 2v-336z" />
    <glyph glyph-name="lacute" unicode="&#x13a;" horiz-adv-x="591" 
d="M788 2136l-321 -375h-309l221 375h409zM467 0h-342v1638h342v-1638z" />
    <glyph glyph-name="uni013B" unicode="&#x13b;" horiz-adv-x="1198" 
d="M1174 0h-1022v1597h362q0 -280 -1.5 -435t-12 -397.5t-31.5 -445.5l41 -40q115 27 242 40t205 15t217 2v-336zM618 -696h-184q30 54 51 86.5t62 79.5t92 86q-69 0 -117.5 47t-48.5 118q0 75 51 125t127 50t126 -50t50 -127q0 -25 -5 -46t-23.5 -57.5t-36 -66t-62 -104.5
t-82.5 -141z" />
    <glyph glyph-name="uni013C" unicode="&#x13c;" horiz-adv-x="591" 
d="M467 0h-342v1638h342v-1638zM276 -696h-184q30 54 51 86.5t62 79.5t92 86q-69 0 -117.5 47t-48.5 118q0 75 51 125t127 50t126 -50t50 -127q0 -25 -5 -46t-23.5 -57.5t-36 -66t-62 -104.5t-82.5 -141z" />
    <glyph glyph-name="Lcaron" unicode="&#x13d;" horiz-adv-x="1198" 
d="M866 981h-194q30 51 47 77.5t47.5 70.5t66 80.5t78.5 72.5q-188 45 -188 188q0 83 61.5 143t147.5 60q85 0 145 -58t60 -140q0 -17 -2 -32.5t-8.5 -35t-13 -35t-21.5 -42t-27 -46t-36.5 -57.5t-43.5 -67t-55 -83zM1174 0h-1022v1597h362q0 -280 -1.5 -435t-12 -397.5
t-31.5 -445.5l41 -40q115 27 242 40t205 15t217 2v-336z" />
    <glyph glyph-name="lcaron" unicode="&#x13e;" horiz-adv-x="591" 
d="M733 981h-194q30 51 47 77.5t47.5 70.5t66 80.5t78.5 72.5q-188 45 -188 188q0 83 61.5 143t147.5 60q85 0 145 -58t60 -140q0 -17 -2 -32.5t-8.5 -35t-13 -35t-21.5 -42t-27 -46t-36.5 -57.5t-43.5 -67t-55 -83zM467 0h-342v1638h342v-1638z" />
    <glyph glyph-name="Lslash" unicode="&#x141;" horiz-adv-x="1198" 
d="M469 319l41 -40q115 27 242 40t205 15t217 2v-336h-1022v664l-160 -74v305l160 74v628h362q0 -304 -2 -458l172 80v-306l-180 -84q-10 -267 -35 -510z" />
    <glyph glyph-name="lslash" unicode="&#x142;" horiz-adv-x="591" 
d="M467 1192l162 117v-293l-162 -117v-899h-342v653l-166 -118v292l166 119v692h342v-446z" />
    <glyph glyph-name="Nacute" unicode="&#x143;" horiz-adv-x="1662" 
d="M1300 2095l-321 -375h-309l221 375h409zM514 0h-362v1597h333q207 -261 363 -507t301 -566h41q-19 205 -28.5 413t-11 328.5t-1.5 331.5h362v-1597h-333q-109 136 -181 232t-162.5 228t-169.5 273.5t-151 300.5h-41q19 -199 28.5 -400t11 -316.5t1.5 -317.5z" />
    <glyph glyph-name="nacute" unicode="&#x144;" horiz-adv-x="1314" 
d="M1083 1653l-311 -375h-295l213 375h393zM467 0h-342v1147h338q0 -100 -37 -209h41q109 242 340 242q169 0 281 -119.5t112 -335.5v-725h-342v573q0 36 -1 57t-5.5 59.5t-16 62.5t-30.5 49.5t-51.5 38t-75.5 12.5q-40 0 -74.5 -12.5t-67 -42t-51 -87t-18.5 -137.5v-573z
" />
    <glyph glyph-name="uni0145" unicode="&#x145;" horiz-adv-x="1662" 
d="M514 0h-362v1597h333q207 -261 363 -507t301 -566h41q-19 205 -28.5 413t-11 328.5t-1.5 331.5h362v-1597h-333q-109 136 -181 232t-162.5 228t-169.5 273.5t-151 300.5h-41q19 -199 28.5 -400t11 -316.5t1.5 -317.5zM836 -696h-185q30 54 51 86.5t62 79.5t92 86
q-69 0 -117.5 47t-48.5 118q0 75 51 125t127 50t126 -50t50 -127q0 -25 -4.5 -46t-23 -57.5t-35.5 -65.5t-62.5 -105t-82.5 -141z" />
    <glyph glyph-name="uni0146" unicode="&#x146;" horiz-adv-x="1314" 
d="M467 0h-342v1147h338q0 -100 -37 -209h41q109 242 340 242q169 0 281 -119.5t112 -335.5v-725h-342v573q0 36 -1 57t-5.5 59.5t-16 62.5t-30.5 49.5t-51.5 38t-75.5 12.5q-40 0 -74.5 -12.5t-67 -42t-51 -87t-18.5 -137.5v-573zM707 -696h-185q30 54 51 86.5t62 79.5
t92 86q-69 0 -117.5 47t-48.5 118q0 75 51 125t127 50t126 -50t50 -127q0 -25 -4.5 -46t-23 -57.5t-35.5 -65.5t-62.5 -105t-82.5 -141z" />
    <glyph glyph-name="Ncaron" unicode="&#x147;" horiz-adv-x="1662" 
d="M975 1720h-330l-293 375h318q27 -27 42.5 -47.5t33 -67.5t24.5 -112h82q5 50 14.5 87t25.5 64t26.5 40.5t31.5 35.5h318zM514 0h-362v1597h333q207 -261 363 -507t301 -566h41q-19 205 -28.5 413t-11 328.5t-1.5 331.5h362v-1597h-333q-109 136 -181 232t-162.5 228
t-169.5 273.5t-151 300.5h-41q19 -199 28.5 -400t11 -316.5t1.5 -317.5z" />
    <glyph glyph-name="ncaron" unicode="&#x148;" horiz-adv-x="1314" 
d="M815 1298h-334l-295 396h322q8 -14 32 -52.5t34.5 -57t25.5 -54t25 -72.5h49q10 37 25 72.5t25.5 54t34.5 57t32 52.5h321zM467 0h-342v1147h338q0 -100 -37 -209h41q109 242 340 242q169 0 281 -119.5t112 -335.5v-725h-342v573q0 36 -1 57t-5.5 59.5t-16 62.5
t-30.5 49.5t-51.5 38t-75.5 12.5q-40 0 -74.5 -12.5t-67 -42t-51 -87t-18.5 -137.5v-573z" />
    <glyph glyph-name="Eng" unicode="&#x14a;" horiz-adv-x="1662" 
d="M993 -483q-88 0 -194 13t-154 26v290q108 -24 242 -24q65 0 105.5 8.5t73.5 32.5t49 70t20 120q-203 257 -348 470t-273 470h-41q19 -180 28.5 -371t11 -305.5t1.5 -316.5h-362v1597h333q202 -254 359.5 -495.5t304.5 -536.5h41q-19 186 -28.5 384.5t-11 317.5t-1.5 330
h362v-1597q0 -42 -4.5 -81.5t-18 -89.5t-36 -92.5t-62.5 -84t-92.5 -70.5t-131 -47t-173.5 -18z" />
    <glyph glyph-name="eng" unicode="&#x14b;" horiz-adv-x="1314" 
d="M803 -483q-113 0 -236 39v290q102 -24 160 -24q27 0 48.5 5t35 11.5t23 19t14 22.5t7 27.5t3 27.5t0.5 30v608q0 36 -1 57t-5.5 59.5t-16 62.5t-30.5 49.5t-51.5 38t-75.5 12.5q-40 0 -74.5 -12.5t-67 -42t-51 -87t-18.5 -137.5v-573h-342v1147h338q0 -100 -37 -209h41
q109 242 340 242q169 0 281 -119.5t112 -335.5v-739q0 -59 -1 -91t-8.5 -89.5t-21.5 -90.5t-43 -76t-70.5 -66t-106 -39.5t-146.5 -16.5z" />
    <glyph glyph-name="Omacron" unicode="&#x14c;" horiz-adv-x="1761" 
d="M1266 1741h-783v250h783v-250zM881 -35q-166 0 -314.5 61t-258.5 168.5t-174 264t-64 338.5q0 146 41 276.5t116 231.5t175.5 174.5t223 112t255.5 38.5q167 0 316 -61.5t258 -170t173 -264.5t64 -337q0 -179 -63.5 -335t-172 -264.5t-258 -170.5t-317.5 -62zM883 307
q187 0 307.5 139t120.5 351q0 136 -53 247.5t-151.5 177.5t-223.5 66q-186 0 -309 -139t-123 -352q0 -216 123.5 -353t308.5 -137z" />
    <glyph glyph-name="omacron" unicode="&#x14d;" horiz-adv-x="1316" 
d="M1004 1300h-689v236h689v-236zM659 -35q-266 0 -433 169t-167 437q0 132 44.5 245t122.5 193t190 125.5t243 45.5q264 0 431 -171t167 -438q0 -268 -167 -437t-431 -169zM659 293q107 0 175.5 78t68.5 200q0 124 -68.5 202.5t-175.5 78.5q-108 0 -176.5 -79t-68.5 -202
q0 -122 68.5 -200t176.5 -78z" />
    <glyph glyph-name="Ohungarumlaut" unicode="&#x150;" horiz-adv-x="1761" 
d="M1063 2093l-320 -373h-294l219 373h395zM1583 2093l-319 -373h-295l219 373h395zM881 -35q-166 0 -314.5 61t-258.5 168.5t-174 264t-64 338.5q0 146 41 276.5t116 231.5t175.5 174.5t223 112t255.5 38.5q167 0 316 -61.5t258 -170t173 -264.5t64 -337q0 -179 -63.5 -335
t-172 -264.5t-258 -170.5t-317.5 -62zM883 307q187 0 307.5 139t120.5 351q0 136 -53 247.5t-151.5 177.5t-223.5 66q-186 0 -309 -139t-123 -352q0 -216 123.5 -353t308.5 -137z" />
    <glyph glyph-name="ohungarumlaut" unicode="&#x151;" horiz-adv-x="1316" 
d="M817 1673l-332 -395h-286l233 395h385zM1339 1673l-331 -395h-287l233 395h385zM659 -35q-266 0 -433 169t-167 437q0 132 44.5 245t122.5 193t190 125.5t243 45.5q264 0 431 -171t167 -438q0 -268 -167 -437t-431 -169zM659 293q107 0 175.5 78t68.5 200
q0 124 -68.5 202.5t-175.5 78.5q-108 0 -176.5 -79t-68.5 -202q0 -122 68.5 -200t176.5 -78z" />
    <glyph glyph-name="OE" unicode="&#x152;" horiz-adv-x="2486" 
d="M874 -35q-166 0 -313.5 61t-255 168.5t-170.5 264t-63 338.5t63 338.5t170.5 264.5t255 169t313.5 61q254 0 441 -151v118h1059v-335q-143 0 -224 2t-216 14.5t-261 38.5l-43 -21q35 -94 36.5 -175.5t-26.5 -194.5l37 -21q115 37 240.5 56t202 21.5t213.5 2.5v-354
q-103 0 -160 1.5t-148 8.5t-174.5 25.5t-169.5 48.5l-41 -21q28 -120 26.5 -205t-34.5 -170l41 -40q128 27 266.5 40t222 15t232.5 2v-336h-1079v115q-187 -150 -441 -150zM877 307q184 0 301.5 138.5t117.5 355.5q0 215 -115 351t-300 136q-188 0 -308 -138.5t-120 -352.5
q0 -217 120 -353.5t304 -136.5z" />
    <glyph glyph-name="oe" unicode="&#x153;" horiz-adv-x="2107" 
d="M659 -35q-266 0 -433 169t-167 437q0 132 44.5 245t122.5 193t190 125.5t243 45.5q251 0 410 -162q70 76 175.5 119t230.5 43q122 0 225.5 -41t180.5 -118t121 -197t44 -269v-47h-817q18 -106 94 -171t168 -65q71 0 134 36t95 108l322 -131q-58 -137 -201 -228.5
t-344 -91.5q-131 0 -242 41t-186 119q-160 -160 -410 -160zM1237 713h459q-30 93 -92.5 135.5t-139.5 42.5q-81 0 -140.5 -48t-86.5 -130zM659 293q107 0 175.5 78t68.5 200q0 123 -68.5 202t-175.5 79q-108 0 -176.5 -79t-68.5 -202q0 -122 68.5 -200t176.5 -78z" />
    <glyph glyph-name="Racute" unicode="&#x154;" horiz-adv-x="1443" 
d="M1116 2095l-321 -375h-310l222 375h409zM514 0h-362v1597h636q15 0 31 -0.5t57.5 -5.5t78 -13.5t86.5 -27t91.5 -44t84 -66.5t71.5 -91.5t47.5 -122.5t18.5 -157q0 -89 -27 -161.5t-71 -119.5t-104 -79.5t-121.5 -47.5t-127.5 -18v-41q55 -48 104.5 -97t97 -105.5t80 -96
t79.5 -106t67 -95t70 -102.5h-410l-377 571q-48 7 -141 68q19 -103 28.5 -231t11 -204.5t1.5 -203.5zM473 807l37 -19q48 37 97.5 48.5t109.5 11.5q25 0 54.5 5t66.5 19.5t66 37t49 63t20 92.5q0 50 -19.5 88.5t-47 59.5t-63.5 34t-63.5 17t-52.5 4q-42 0 -66 1.5t-66 13
t-85 34.5l-43 -21q67 -231 6 -489z" />
    <glyph glyph-name="racute" unicode="&#x155;" horiz-adv-x="911" 
d="M922 1653l-312 -375h-295l213 375h394zM467 0h-342v1147h338q0 -1 0.5 -29.5t-0.5 -40t-3.5 -40t-10 -59.5t-19.5 -69h41q88 271 305 271q49 0 105 -19v-385q-64 21 -140 21q-44 0 -81.5 -9.5t-64 -23.5t-47.5 -38t-34 -45.5t-22.5 -55t-14 -56.5t-7 -60t-3 -55.5
t-0.5 -52.5v-401z" />
    <glyph glyph-name="uni0156" unicode="&#x156;" horiz-adv-x="1443" 
d="M514 0h-362v1597h636q15 0 31 -0.5t57.5 -5.5t78 -13.5t86.5 -27t91.5 -44t84 -66.5t71.5 -91.5t47.5 -122.5t18.5 -157q0 -89 -27 -161.5t-71 -119.5t-104 -79.5t-121.5 -47.5t-127.5 -18v-41q55 -48 104.5 -97t97 -105.5t80 -96t79.5 -106t67 -95t70 -102.5h-410
l-377 571q-48 7 -141 68q19 -103 28.5 -231t11 -204.5t1.5 -203.5zM473 807l37 -19q48 37 97.5 48.5t109.5 11.5q25 0 54.5 5t66.5 19.5t66 37t49 63t20 92.5q0 50 -19.5 88.5t-47 59.5t-63.5 34t-63.5 17t-52.5 4q-42 0 -66 1.5t-66 13t-85 34.5l-43 -21q67 -231 6 -489z
M672 -696h-185q30 54 51 86.5t62 79.5t92 86q-69 0 -117.5 47t-48.5 118q0 75 51 125t128 50q76 0 126 -50t50 -127q0 -25 -5 -46t-23.5 -57.5t-36 -66t-62 -104.5t-82.5 -141z" />
    <glyph glyph-name="uni0157" unicode="&#x157;" horiz-adv-x="911" 
d="M467 0h-342v1147h338q0 -1 0.5 -29.5t-0.5 -40t-3.5 -40t-10 -59.5t-19.5 -69h41q88 271 305 271q49 0 105 -19v-385q-64 21 -140 21q-44 0 -81.5 -9.5t-64 -23.5t-47.5 -38t-34 -45.5t-22.5 -55t-14 -56.5t-7 -60t-3 -55.5t-0.5 -52.5v-401zM270 -696h-184
q30 54 51 86.5t62 79.5t92 86q-69 0 -117.5 47t-48.5 118q0 75 51 125t127 50t126 -50t50 -127q0 -25 -5 -46t-23.5 -57.5t-36 -66t-62 -104.5t-82.5 -141z" />
    <glyph glyph-name="Rcaron" unicode="&#x158;" horiz-adv-x="1443" 
d="M791 1720h-330l-293 375h317q28 -28 43 -48t33 -67t25 -112h82q5 50 14.5 87t25.5 64t26.5 40.5t31.5 35.5h317zM514 0h-362v1597h636q15 0 31 -0.5t57.5 -5.5t78 -13.5t86.5 -27t91.5 -44t84 -66.5t71.5 -91.5t47.5 -122.5t18.5 -157q0 -89 -27 -161.5t-71 -119.5
t-104 -79.5t-121.5 -47.5t-127.5 -18v-41q55 -48 104.5 -97t97 -105.5t80 -96t79.5 -106t67 -95t70 -102.5h-410l-377 571q-48 7 -141 68q19 -103 28.5 -231t11 -204.5t1.5 -203.5zM473 807l37 -19q48 37 97.5 48.5t109.5 11.5q25 0 54.5 5t66.5 19.5t66 37t49 63t20 92.5
q0 50 -19.5 88.5t-47 59.5t-63.5 34t-63.5 17t-52.5 4q-42 0 -66 1.5t-66 13t-85 34.5l-43 -21q67 -231 6 -489z" />
    <glyph glyph-name="rcaron" unicode="&#x159;" horiz-adv-x="911" 
d="M653 1298h-334l-294 396h321q8 -14 32 -52.5t34.5 -57t25.5 -54t25 -72.5h49q10 37 25 72.5t25.5 54t34.5 57t32 52.5h321zM467 0h-342v1147h338q0 -1 0.5 -29.5t-0.5 -40t-3.5 -40t-10 -59.5t-19.5 -69h41q88 271 305 271q49 0 105 -19v-385q-64 21 -140 21
q-44 0 -81.5 -9.5t-64 -23.5t-47.5 -38t-34 -45.5t-22.5 -55t-14 -56.5t-7 -60t-3 -55.5t-0.5 -52.5v-401z" />
    <glyph glyph-name="Sacute" unicode="&#x15a;" horiz-adv-x="1351" 
d="M1090 2095l-322 -375h-309l221 375h410zM694 -35q-252 0 -422 127.5t-223 347.5l338 115q73 -260 301 -260q97 0 159 41.5t62 112.5q0 31 -14 57t-34.5 44.5t-55 35.5t-65 28t-74.5 25l-142 43q-57 17 -105 36.5t-110 58t-104.5 85t-72.5 120t-30 161.5q0 217 159 352
t405 135q117 0 218 -32.5t170.5 -86.5t114.5 -118t62 -131l-332 -136q-72 177 -235 177q-83 0 -132 -38t-49 -94q0 -35 19.5 -64t58.5 -52t78.5 -39t97.5 -35l174 -55q28 -9 48 -15.5t53 -20t57 -27t55 -34.5t53.5 -43.5t46 -53.5t38 -66t23.5 -79.5t9 -94.5
q0 -110 -40.5 -205.5t-115.5 -167t-189.5 -113t-254.5 -41.5z" />
    <glyph glyph-name="sacute" unicode="&#x15b;" horiz-adv-x="1075" 
d="M956 1657l-311 -375h-295l213 375h393zM547 -35q-202 0 -336.5 87.5t-173.5 236.5l317 102q60 -147 189 -147q47 0 78.5 18t31.5 55q0 22 -11.5 39.5t-34.5 30t-40.5 19.5t-46.5 16l-127 39q-303 92 -303 344q0 166 124.5 270.5t326.5 104.5q176 0 294.5 -81t155.5 -212
l-313 -103q-44 121 -143 121q-45 0 -74 -22t-29 -56q0 -15 6 -27.5t22.5 -23.5t28 -18t39 -16.5t39 -13t43.5 -13.5l80 -23l40 -12t43.5 -14.5t49.5 -20t46.5 -26t47 -34t39 -42.5t34 -54t20 -65t8.5 -78q0 -178 -126.5 -279.5t-344.5 -101.5z" />
    <glyph glyph-name="Scedilla" unicode="&#x15e;" horiz-adv-x="1351" 
d="M1294 492q0 -211 -141 -358t-389 -167q-20 -18 -131 -98l20 -21q89 68 142 68q77 0 134.5 -58t57.5 -153q0 -108 -84 -171.5t-219 -63.5q-100 0 -178 35.5t-123 99.5l104 133q73 -98 187 -98q94 0 94 69q0 33 -25.5 52.5t-66.5 19.5q-50 0 -86 -31l-101 74l97 147
q-209 28 -350 152t-187 317l338 115q73 -260 301 -260q97 0 159 41.5t62 112.5q0 31 -14 57t-34.5 44.5t-55 35.5t-65 28t-74.5 25l-142 43q-57 17 -105 36.5t-110 58t-104.5 85t-72.5 120t-30 161.5q0 217 159 352t405 135q117 0 218 -32.5t170.5 -86.5t114.5 -118t62 -131
l-332 -136q-72 177 -235 177q-83 0 -132 -38t-49 -94q0 -35 19.5 -64t58.5 -52t78.5 -39t97.5 -35l174 -55q28 -9 48 -15.5t53 -20t57 -27t55 -34.5t53.5 -43.5t46 -53.5t38 -66t23.5 -79.5t9 -94.5z" />
    <glyph glyph-name="scedilla" unicode="&#x15f;" horiz-adv-x="1075" 
d="M1018 346q0 -165 -110.5 -265t-303.5 -114q-19 -16 -67.5 -51.5t-63.5 -46.5l21 -21q89 68 141 68q77 0 134.5 -58t57.5 -153q0 -108 -84 -171.5t-219 -63.5q-100 0 -178 35.5t-123 99.5l105 133q73 -98 186 -98q94 0 94 69q0 33 -25.5 52.5t-66.5 19.5q-50 0 -86 -31
l-100 74l98 149q-155 24 -256.5 107.5t-134.5 208.5l317 102q60 -147 189 -147q47 0 78.5 18t31.5 55q0 22 -11.5 39.5t-34.5 30t-40.5 19.5t-46.5 16l-127 39q-303 92 -303 344q0 166 124.5 270.5t326.5 104.5q176 0 294.5 -81t155.5 -212l-313 -103q-44 121 -143 121
q-45 0 -74 -22t-29 -56q0 -15 6 -27.5t22.5 -23.5t28 -18t39 -16.5t39 -13t43.5 -13.5l80 -23l40 -12t43.5 -14.5t49.5 -20t46.5 -26t47 -34t39 -42.5t34 -54t20 -65t8.5 -78z" />
    <glyph glyph-name="Scaron" unicode="&#x160;" horiz-adv-x="1351" 
d="M825 1720h-329l-293 375h317q28 -28 43 -48t33 -67t25 -112h81q7 65 24.5 112.5t32 66.5t42.5 48h317zM694 -35q-252 0 -422 127.5t-223 347.5l338 115q73 -260 301 -260q97 0 159 41.5t62 112.5q0 31 -14 57t-34.5 44.5t-55 35.5t-65 28t-74.5 25l-142 43
q-57 17 -105 36.5t-110 58t-104.5 85t-72.5 120t-30 161.5q0 217 159 352t405 135q117 0 218 -32.5t170.5 -86.5t114.5 -118t62 -131l-332 -136q-72 177 -235 177q-83 0 -132 -38t-49 -94q0 -35 19.5 -64t58.5 -52t78.5 -39t97.5 -35l174 -55q28 -9 48 -15.5t53 -20t57 -27
t55 -34.5t53.5 -43.5t46 -53.5t38 -66t23.5 -79.5t9 -94.5q0 -110 -40.5 -205.5t-115.5 -167t-189.5 -113t-254.5 -41.5z" />
    <glyph glyph-name="scaron" unicode="&#x161;" horiz-adv-x="1075" 
d="M688 1303h-334l-295 395h322q8 -14 32 -52.5t34.5 -57t25.5 -54t25 -72.5h49q10 37 25 72.5t25.5 54t34.5 57t32 52.5h321zM547 -35q-202 0 -336.5 87.5t-173.5 236.5l317 102q60 -147 189 -147q47 0 78.5 18t31.5 55q0 22 -11.5 39.5t-34.5 30t-40.5 19.5t-46.5 16
l-127 39q-303 92 -303 344q0 166 124.5 270.5t326.5 104.5q176 0 294.5 -81t155.5 -212l-313 -103q-44 121 -143 121q-45 0 -74 -22t-29 -56q0 -15 6 -27.5t22.5 -23.5t28 -18t39 -16.5t39 -13t43.5 -13.5l80 -23l40 -12t43.5 -14.5t49.5 -20t46.5 -26t47 -34t39 -42.5
t34 -54t20 -65t8.5 -78q0 -178 -126.5 -279.5t-344.5 -101.5z" />
    <glyph glyph-name="uni0162" unicode="&#x162;" horiz-adv-x="1320" 
d="M25 1597h1271v-335q-101 0 -158 1.5t-152 11t-185 28.5q19 -215 28.5 -463t11 -404t1.5 -436h-82q-15 -26 -162 -131l20 -21q89 68 142 68q77 0 134.5 -58t57.5 -153q0 -108 -84 -171.5t-219 -63.5q-100 0 -178 35.5t-123 99.5l105 133q73 -98 186 -98q94 0 94 69
q0 33 -25.5 52.5t-66.5 19.5q-50 0 -86 -31l-100 74l114 176h-90q0 280 1.5 436t11 404t28.5 463q-90 -19 -185 -28.5t-152 -11t-158 -1.5v335z" />
    <glyph glyph-name="uni0163" unicode="&#x163;" horiz-adv-x="952" 
d="M889 1147v-311q-69 0 -103.5 1t-101 8t-131.5 21q19 -66 28.5 -136.5t11 -113t1.5 -116.5q0 -34 1 -52t4.5 -49.5t13.5 -49t26.5 -37t44 -28t64.5 -8.5q59 0 141 31v-303q-77 -39 -213 -39q-40 0 -58 2q-19 -16 -67.5 -51.5t-63.5 -46.5l21 -21q89 68 141 68
q77 0 135 -58t58 -153q0 -108 -84 -171.5t-219 -63.5q-100 0 -178 35.5t-123 99.5l104 133q73 -98 186 -98q44 0 69.5 17.5t25.5 51.5q0 33 -26 52.5t-67 19.5q-50 0 -86 -31l-100 74l115 176h2q-43 17 -77 42.5t-55.5 51t-37 60.5t-23 60.5t-11.5 61t-4.5 53t-0.5 44.5
q0 103 1.5 160.5t11 152t28.5 180.5q-54 -14 -107 -21t-79.5 -8t-79.5 -1v311q149 0 266 -31q-19 64 -28.5 131.5t-11 107.5t-1.5 111h342q0 -71 -1.5 -111t-11 -107.5t-28.5 -131.5q139 31 336 31z" />
    <glyph glyph-name="Tcaron" unicode="&#x164;" horiz-adv-x="1320" 
d="M825 1720h-329l-293 375h317q28 -28 43 -48t33 -67t25 -112h81q7 65 24.5 112.5t32 66.5t42.5 48h317zM842 0h-363q0 280 1.5 436t11 404t28.5 463q-90 -19 -185 -28.5t-152 -11t-158 -1.5v335h1271v-335q-101 0 -158 1.5t-152 11t-185 28.5q19 -215 28.5 -463t11 -404
t1.5 -436z" />
    <glyph glyph-name="tcaron" unicode="&#x165;" horiz-adv-x="952" 
d="M1204 1001h-194q31 52 47 78t47.5 70.5t66.5 81t78 72.5q-188 45 -188 188q0 83 61.5 143t147.5 60q85 0 145 -58.5t60 -140.5q0 -17 -2 -32.5t-8.5 -35t-13 -35t-21.5 -42t-27 -46t-36.5 -57.5t-43.5 -67t-55 -83zM676 -35q-69 0 -126.5 11t-98.5 27t-73.5 43t-53 51.5
t-35 59.5t-21.5 59.5t-11 60t-4.5 52.5t-0.5 44q0 103 1.5 160.5t11 152t28.5 180.5q-54 -14 -107 -21t-79.5 -8t-79.5 -1v311q149 0 266 -31q-19 64 -28.5 131.5t-11 107.5t-1.5 111h342q0 -71 -1.5 -111t-11 -107.5t-28.5 -131.5q139 31 336 31v-311q-69 0 -103.5 1
t-101 8t-131.5 21q19 -66 28.5 -136.5t11 -113t1.5 -116.5q0 -34 1 -52t4.5 -49.5t13.5 -49t26.5 -37t44 -28t64.5 -8.5q59 0 141 31v-303q-77 -39 -213 -39z" />
    <glyph glyph-name="Tbar" unicode="&#x166;" horiz-adv-x="1320" 
d="M1296 1597v-335q-101 0 -158 1.5t-152 11t-185 28.5q15 -188 24 -361h262v-289h-251q6 -221 6 -653h-363q0 432 6 653h-249v289h260q9 173 24 361q-90 -19 -185 -28.5t-152 -11t-158 -1.5v335h1271z" />
    <glyph glyph-name="tbar" unicode="&#x167;" horiz-adv-x="952" 
d="M889 1147v-311q-69 0 -103.5 1t-101 8t-131.5 21q22 -73 33 -168h299v-252h-291q2 -37 8.5 -64t22 -52.5t46.5 -39.5t77 -14q59 0 141 31v-303q-77 -39 -213 -39q-69 0 -126.5 11t-98.5 27t-73.5 43t-53 51.5t-35 59.5t-21.5 59.5t-11 60t-4.5 52.5t-0.5 44v73h-221v252
h233q6 57 29 168q-54 -14 -107 -21t-79.5 -8t-79.5 -1v311q149 0 266 -31q-19 64 -28.5 131.5t-11 107.5t-1.5 111h342q0 -71 -1.5 -111t-11 -107.5t-28.5 -131.5q139 31 336 31z" />
    <glyph glyph-name="Umacron" unicode="&#x16a;" horiz-adv-x="1521" 
d="M1153 1741h-782v250h782v-250zM760 -35q-120 0 -217.5 26t-161 66t-110.5 100.5t-72 118t-40 130.5t-18.5 125t-3.5 114v952h363v-921q0 -63 6 -113t23 -99.5t45 -82.5t76 -53.5t112 -20.5t111 20.5t75 53.5t45 82.5t23 99.5t6 113v921h362v-952q0 -62 -3.5 -114
t-18 -125t-39.5 -130.5t-72.5 -118t-111 -100.5t-161 -66t-218.5 -26z" />
    <glyph glyph-name="umacron" unicode="&#x16b;" horiz-adv-x="1296" 
d="M999 1300h-688v236h688v-236zM528 -35q-201 0 -307 120t-106 343v719h342v-604q0 -250 172 -250q91 0 144.5 67.5t53.5 182.5v604h342v-789q0 -132 9 -207t28 -151h-340q-8 39 -10.5 54.5t3.5 54t26 88.5h-41q-41 -123 -115 -177.5t-201 -54.5z" />
    <glyph glyph-name="Uring" unicode="&#x16e;" horiz-adv-x="1521" 
d="M762 1708q-115 0 -195 76t-80 184q0 110 79.5 185t195.5 75q115 0 193.5 -74t78.5 -186t-78.5 -186t-193.5 -74zM762 1864q42 0 70 31t28 73q0 41 -28 72t-70 31q-45 0 -72.5 -30.5t-27.5 -72.5q0 -43 27 -73.5t73 -30.5zM760 -35q-120 0 -217.5 26t-161 66t-110.5 100.5
t-72 118t-40 130.5t-18.5 125t-3.5 114v952h363v-921q0 -63 6 -113t23 -99.5t45 -82.5t76 -53.5t112 -20.5t111 20.5t75 53.5t45 82.5t23 99.5t6 113v921h362v-952q0 -62 -3.5 -114t-18 -125t-39.5 -130.5t-72.5 -118t-111 -100.5t-161 -66t-218.5 -26z" />
    <glyph glyph-name="uring" unicode="&#x16f;" horiz-adv-x="1296" 
d="M655 1257q-115 0 -194.5 76.5t-79.5 184.5q0 110 79 185t195 75q115 0 194 -74t79 -186t-79 -186.5t-194 -74.5zM655 1413q42 0 70.5 31.5t28.5 73.5q0 41 -28.5 71.5t-70.5 30.5q-45 0 -72.5 -30t-27.5 -72q0 -43 27.5 -74t72.5 -31zM528 -35q-201 0 -307 120t-106 343
v719h342v-604q0 -250 172 -250q91 0 144.5 67.5t53.5 182.5v604h342v-789q0 -132 9 -207t28 -151h-340q-8 39 -10.5 54.5t3.5 54t26 88.5h-41q-41 -123 -115 -177.5t-201 -54.5z" />
    <glyph glyph-name="Uhungarumlaut" unicode="&#x170;" horiz-adv-x="1521" 
d="M950 2093l-319 -373h-295l219 373h395zM1470 2093l-319 -373h-295l219 373h395zM760 -35q-120 0 -217.5 26t-161 66t-110.5 100.5t-72 118t-40 130.5t-18.5 125t-3.5 114v952h363v-921q0 -63 6 -113t23 -99.5t45 -82.5t76 -53.5t112 -20.5t111 20.5t75 53.5t45 82.5
t23 99.5t6 113v921h362v-952q0 -62 -3.5 -114t-18 -125t-39.5 -130.5t-72.5 -118t-111 -100.5t-161 -66t-218.5 -26z" />
    <glyph glyph-name="uhungarumlaut" unicode="&#x171;" horiz-adv-x="1296" 
d="M813 1673l-332 -395h-286l233 395h385zM1335 1673l-331 -395h-287l233 395h385zM528 -35q-201 0 -307 120t-106 343v719h342v-604q0 -250 172 -250q91 0 144.5 67.5t53.5 182.5v604h342v-789q0 -132 9 -207t28 -151h-340q-8 39 -10.5 54.5t3.5 54t26 88.5h-41
q-41 -123 -115 -177.5t-201 -54.5z" />
    <glyph glyph-name="Uogonek" unicode="&#x172;" horiz-adv-x="1521" 
d="M1022 676v921h362v-952q0 -50 -2.5 -93t-11.5 -102t-24 -108.5t-43.5 -104t-66.5 -97t-95.5 -80t-128.5 -60.5h2h-2q-39 -13 -76 -18q-50 -22 -69 -56.5t-19 -64.5q0 -40 33 -75.5t108 -35.5q59 0 90 10v-204q-53 -19 -145 -19q-50 0 -96 8.5t-87.5 27.5t-72 46.5
t-48.5 67.5t-18 88q0 113 115 190q-114 3 -206 31t-152.5 69t-105 101t-68 116.5t-37.5 128t-17.5 122.5t-3.5 112v952h363v-921q0 -63 6 -113t23 -99.5t45 -82.5t76 -53.5t112 -20.5t111 20.5t75 53.5t45 82.5t23 99.5t6 113z" />
    <glyph glyph-name="uogonek" unicode="&#x173;" horiz-adv-x="1296" 
d="M928 -141q0 -40 29.5 -67.5t86.5 -27.5q62 0 97 17v-230q-55 -14 -127 -14q-137 0 -227.5 62t-90.5 180q0 76 48 136t128 85h-6q-8 39 -10.5 54.5t3.5 54t26 88.5h-41q-41 -123 -115 -177.5t-201 -54.5q-201 0 -307 120t-106 343v719h342v-604q0 -250 172 -250
q91 0 144.5 67.5t53.5 182.5v604h342v-789q0 -132 9 -207t28 -151h-123q-59 -9 -96 -35.5t-48 -52t-11 -53.5z" />
    <glyph glyph-name="Wcircumflex" unicode="&#x174;" horiz-adv-x="2387" 
d="M1057 1720h-318l299 375h318l299 -375h-318q-27 29 -42 48.5t-32 67t-24 112.5h-82q-8 -65 -25 -112t-32.5 -68t-42.5 -48zM901 0h-459l-434 1597h418q83 -337 136.5 -602.5t92.5 -580.5h41q39 216 92.5 442t92.5 367t106 374h414q67 -232 106 -374.5t92.5 -373
t92.5 -456.5h41q64 542 229 1204h418l-434 -1597h-453q-101 329 -160.5 566t-107.5 550h-62q-46 -310 -107.5 -559.5t-154.5 -556.5z" />
    <glyph glyph-name="wcircumflex" unicode="&#x175;" horiz-adv-x="1941" 
d="M827 1278h-321l295 375h334l297 -375h-322q-29 36 -45.5 58.5t-37.5 65t-34 91.5h-49q-13 -49 -34 -91.5t-37.5 -65t-45.5 -58.5zM774 0h-405l-367 1147h391q43 -152 66.5 -245t51.5 -239.5t42 -285.5h61q27 139 65.5 286.5t66 238t77.5 245.5h295q49 -156 76 -246
t64 -237.5t63 -286.5h57q15 138 46 287.5t54.5 235.5t69.5 247h389l-364 -1147h-422q-38 131 -60 213.5t-49 209t-41 241.5h-59q-40 -267 -168 -664z" />
    <glyph glyph-name="Ycircumflex" unicode="&#x176;" horiz-adv-x="1449" 
d="M588 1720h-318l299 375h318l299 -375h-318q-27 29 -42 48.5t-32 67t-24 112.5h-82q-8 -65 -25 -112t-32.5 -68t-42.5 -48zM907 0h-362q0 357 20 535q-203 354 -567 1062h389q74 -154 115.5 -243.5t100.5 -240.5t102 -298h40q43 147 102 298t100.5 240.5t115.5 243.5h389
q-16 -31 -76 -147t-82 -159t-74.5 -143.5t-84 -159t-77.5 -143.5t-87.5 -159t-83.5 -147q20 -180 20 -539z" />
    <glyph glyph-name="ycircumflex" unicode="&#x177;" horiz-adv-x="1234" 
d="M477 1278h-321l295 375h333l297 -375h-321q-29 36 -45.5 58.5t-37.5 65t-34 91.5h-49q-13 -49 -34 -91.5t-37.5 -65t-45.5 -58.5zM659 -451h-370l147 390l-436 1208h377q74 -214 127 -402t98 -430h41q31 165 73 328t69.5 250.5t82.5 253.5h367z" />
    <glyph glyph-name="Ydieresis" unicode="&#x178;" horiz-adv-x="1449" 
d="M481 1712q-85 0 -141.5 57.5t-56.5 143.5q0 80 57 136t141 56q82 0 138.5 -56t56.5 -136q0 -86 -56.5 -143.5t-138.5 -57.5zM973 1712q-85 0 -142 57.5t-57 143.5q0 80 57.5 136t141.5 56q81 0 137.5 -56t56.5 -136q0 -86 -56 -143.5t-138 -57.5zM907 0h-362
q0 357 20 535q-203 354 -567 1062h389q74 -154 115.5 -243.5t100.5 -240.5t102 -298h40q43 147 102 298t100.5 240.5t115.5 243.5h389q-16 -31 -76 -147t-82 -159t-74.5 -143.5t-84 -159t-77.5 -143.5t-87.5 -159t-83.5 -147q20 -180 20 -539z" />
    <glyph glyph-name="Zacute" unicode="&#x179;" horiz-adv-x="1394" 
d="M1200 2095l-321 -375h-310l222 375h409zM1321 0h-1247v295q200 273 407.5 513t487.5 513l-21 41q-464 -100 -854 -100v335h1211v-301q-193 -258 -402.5 -498t-488.5 -522l20 -40q462 100 887 100v-336z" />
    <glyph glyph-name="zacute" unicode="&#x17a;" horiz-adv-x="1130" 
d="M997 1653l-311 -375h-295l213 375h393zM1069 0h-991v293q146 161 279.5 292t283.5 249l-20 40q-80 -19 -185.5 -28.5t-168.5 -10.5t-185 -1v313h948v-293q-101 -109 -172.5 -183.5t-180 -175.5t-212.5 -182l20 -41q87 19 199.5 28.5t184.5 11t200 1.5v-313z" />
    <glyph glyph-name="Zdotaccent" unicode="&#x17b;" horiz-adv-x="1394" 
d="M664 1743q-87 0 -145 59t-58 146q0 81 58 138.5t145 57.5q84 0 141 -57.5t57 -138.5q0 -87 -57 -146t-141 -59zM1321 0h-1247v295q200 273 407.5 513t487.5 513l-21 41q-464 -100 -854 -100v335h1211v-301q-193 -258 -402.5 -498t-488.5 -522l20 -40q462 100 887 100
v-336z" />
    <glyph glyph-name="zdotaccent" unicode="&#x17c;" horiz-adv-x="1130" 
d="M565 1278q-87 0 -145 59t-58 146q0 81 58 138.5t145 57.5q84 0 141.5 -58t57.5 -138q0 -86 -57 -145.5t-142 -59.5zM1069 0h-991v293q146 161 279.5 292t283.5 249l-20 40q-80 -19 -185.5 -28.5t-168.5 -10.5t-185 -1v313h948v-293q-101 -109 -172.5 -183.5t-180 -175.5
t-212.5 -182l20 -41q87 19 199.5 28.5t184.5 11t200 1.5v-313z" />
    <glyph glyph-name="Zcaron" unicode="&#x17d;" horiz-adv-x="1394" 
d="M874 1720h-329l-293 375h317q28 -28 43 -48t33 -67t25 -112h82q5 50 14.5 87t25.5 64t26.5 40.5t31.5 35.5h317zM1321 0h-1247v295q200 273 407.5 513t487.5 513l-21 41q-464 -100 -854 -100v335h1211v-301q-193 -258 -402.5 -498t-488.5 -522l20 -40q462 100 887 100
v-336z" />
    <glyph glyph-name="zcaron" unicode="&#x17e;" horiz-adv-x="1130" 
d="M729 1298h-334l-295 396h322q8 -14 32 -52.5t34.5 -57t25.5 -54t25 -72.5h49q10 37 25 72.5t25.5 54t34.5 57t32 52.5h321zM1069 0h-991v293q146 161 279.5 292t283.5 249l-20 40q-80 -19 -185.5 -28.5t-168.5 -10.5t-185 -1v313h948v-293q-101 -109 -172.5 -183.5
t-180 -175.5t-212.5 -182l20 -41q87 19 199.5 28.5t184.5 11t200 1.5v-313z" />
    <glyph glyph-name="uni0218" unicode="&#x218;" horiz-adv-x="1351" 
d="M694 -35q-252 0 -422 127.5t-223 347.5l338 115q73 -260 301 -260q97 0 159 41.5t62 112.5q0 31 -14 57t-34.5 44.5t-55 35.5t-65 28t-74.5 25l-142 43q-57 17 -105 36.5t-110 58t-104.5 85t-72.5 120t-30 161.5q0 217 159 352t405 135q117 0 218 -32.5t170.5 -86.5
t114.5 -118t62 -131l-332 -136q-72 177 -235 177q-83 0 -132 -38t-49 -94q0 -35 19.5 -64t58.5 -52t78.5 -39t97.5 -35l174 -55q28 -9 48 -15.5t53 -20t57 -27t55 -34.5t53.5 -43.5t46 -53.5t38 -66t23.5 -79.5t9 -94.5q0 -110 -40.5 -205.5t-115.5 -167t-189.5 -113
t-254.5 -41.5zM676 -696h-184q31 55 51 86.5t61 79t92 86.5q-69 0 -117.5 47t-48.5 118q0 75 51 125t128 50q76 0 126 -50t50 -127q0 -25 -5 -46t-23.5 -57.5t-36 -66t-62 -104.5t-82.5 -141z" />
    <glyph glyph-name="uni0219" unicode="&#x219;" horiz-adv-x="1075" 
d="M547 -35q-202 0 -336.5 87.5t-173.5 236.5l317 102q60 -147 189 -147q47 0 78.5 18t31.5 55q0 22 -11.5 39.5t-34.5 30t-40.5 19.5t-46.5 16l-127 39q-303 92 -303 344q0 166 124.5 270.5t326.5 104.5q176 0 294.5 -81t155.5 -212l-313 -103q-44 121 -143 121
q-45 0 -74 -22t-29 -56q0 -15 6 -27.5t22.5 -23.5t28 -18t39 -16.5t39 -13t43.5 -13.5l80 -23l40 -12t43.5 -14.5t49.5 -20t46.5 -26t47 -34t39 -42.5t34 -54t20 -65t8.5 -78q0 -178 -126.5 -279.5t-344.5 -101.5zM516 -696h-184q30 54 51 86.5t62 79.5t92 86
q-69 0 -117.5 47t-48.5 118q0 75 51 125t127 50t126 -50t50 -127q0 -25 -5 -46t-23.5 -57.5t-36 -66t-62 -104.5t-82.5 -141z" />
    <glyph glyph-name="uni021A" unicode="&#x21a;" horiz-adv-x="1320" 
d="M842 0h-363q0 280 1.5 436t11 404t28.5 463q-90 -19 -185 -28.5t-152 -11t-158 -1.5v335h1271v-335q-101 0 -158 1.5t-152 11t-185 28.5q19 -215 28.5 -463t11 -404t1.5 -436zM641 -696h-184q30 54 51 86.5t62 79.5t92 86q-69 0 -117.5 47t-48.5 118q0 75 51 125t127 50
t126 -50t50 -127q0 -25 -5 -46t-23.5 -57.5t-36 -66t-62 -104.5t-82.5 -141z" />
    <glyph glyph-name="uni021B" unicode="&#x21b;" horiz-adv-x="952" 
d="M676 -35q-69 0 -126.5 11t-98.5 27t-73.5 43t-53 51.5t-35 59.5t-21.5 59.5t-11 60t-4.5 52.5t-0.5 44q0 103 1.5 160.5t11 152t28.5 180.5q-54 -14 -107 -21t-79.5 -8t-79.5 -1v311q149 0 266 -31q-19 64 -28.5 131.5t-11 107.5t-1.5 111h342q0 -71 -1.5 -111
t-11 -107.5t-28.5 -131.5q139 31 336 31v-311q-69 0 -103.5 1t-101 8t-131.5 21q19 -66 28.5 -136.5t11 -113t1.5 -116.5q0 -34 1 -52t4.5 -49.5t13.5 -49t26.5 -37t44 -28t64.5 -8.5q59 0 141 31v-303q-77 -39 -213 -39zM530 -696h-184q30 54 51 86.5t62 79.5t92 86
q-69 0 -117.5 47t-48.5 118q0 75 51 125t127 50t126 -50t50 -127q0 -25 -5 -46t-23.5 -57.5t-36 -66t-62 -104.5t-82.5 -141z" />
    <glyph glyph-name="gravecomb" unicode="&#x300;" horiz-adv-x="0" 
d="M-39 1278h-295l-311 375h393z" />
    <glyph glyph-name="acutecomb" unicode="&#x301;" horiz-adv-x="0" 
d="M2 1653l-311 -375h-295l213 375h393z" />
    <glyph glyph-name="uni0302" unicode="&#x302;" horiz-adv-x="0" 
d="M-621 1278h-321l295 375h334l297 -375h-322q-29 36 -45.5 58.5t-37.5 65t-34 91.5h-49q-13 -49 -34 -91.5t-37.5 -65t-45.5 -58.5z" />
    <glyph glyph-name="tildecomb" unicode="&#x303;" horiz-adv-x="0" 
d="M-311 1313q-80 0 -135 35l-64 41q-39 28 -74 28q-32 0 -46.5 -24.5t-14.5 -61.5h-242q0 156 80 250t201 94q77 0 153 -45l56 -33q28 -16 53 -16q47 0 47 80h242q0 -171 -66 -259.5t-190 -88.5z" />
    <glyph glyph-name="uni0304" unicode="&#x304;" horiz-adv-x="0" 
d="M-92 1280h-688v236h688v-236z" />
    <glyph glyph-name="uni0306" unicode="&#x306;" horiz-adv-x="0" 
d="M-432 1264q-172 0 -278.5 110.5t-112.5 284.5h274q0 -38 11.5 -72t41.5 -59t74 -25t74 25t41.5 59t11.5 72h275q-6 -176 -116 -285.5t-296 -109.5z" />
    <glyph glyph-name="uni0307" unicode="&#x307;" horiz-adv-x="0" 
d="M-250 1257q-87 0 -145 59t-58 146q0 81 58.5 139t144.5 58q84 0 141.5 -58t57.5 -139q0 -86 -57 -145.5t-142 -59.5z" />
    <glyph glyph-name="uni0308" unicode="&#x308;" horiz-adv-x="0" 
d="M-713 1276q-76 0 -129 54t-53 132q0 73 53 125.5t129 52.5t129.5 -52.5t53.5 -125.5q0 -78 -53 -132t-130 -54zM-252 1276q-78 0 -131 54t-53 132q0 73 53.5 125.5t130.5 52.5q74 0 127 -53t53 -125q0 -78 -52.5 -132t-127.5 -54z" />
    <glyph glyph-name="uni030A" unicode="&#x30a;" horiz-adv-x="0" 
d="M-309 1257q-115 0 -195 76.5t-80 184.5q0 110 79.5 185t195.5 75q115 0 193.5 -74t78.5 -186t-78.5 -186.5t-193.5 -74.5zM-309 1413q42 0 70 31.5t28 73.5q0 41 -28 71.5t-70 30.5q-45 0 -73 -30t-28 -72q0 -43 27.5 -74t73.5 -31z" />
    <glyph glyph-name="uni030B" unicode="&#x30b;" horiz-adv-x="0" 
d="M-502 1673l-332 -395h-286l233 395h385zM20 1673l-331 -395h-287l233 395h385z" />
    <glyph glyph-name="uni030C" unicode="&#x30c;" horiz-adv-x="0" 
d="M-313 1278h-334l-295 395h321q9 -15 32.5 -52.5t34 -56.5t25.5 -54t25 -72h49q10 37 25 72t25.5 54t34 56.5t32.5 52.5h322z" />
    <glyph glyph-name="uni0312" unicode="&#x312;" horiz-adv-x="0" 
d="M-395 1255q0 25 5 46t23.5 58t35.5 66t62 105t83 141h184q-86 -154 -184 -293q70 6 107.5 -37t37.5 -106q0 -71 -50 -113.5t-124 -42.5q-80 0 -130 49t-50 127z" />
    <glyph glyph-name="uni0326" unicode="&#x326;" horiz-adv-x="0" 
d="M-309 -696h-185q30 54 51 86.5t62 79.5t92 86q-69 0 -117.5 47t-48.5 118q0 75 51 125t128 50q76 0 126 -50t50 -127q0 -25 -5 -46t-23.5 -57.5t-36 -66t-62 -104.5t-82.5 -141z" />
    <glyph glyph-name="uni0327" unicode="&#x327;" horiz-adv-x="0" 
d="M-641 -530q-100 0 -178 35.5t-123 99.5l104 133q73 -98 187 -98q94 0 94 69q0 33 -25.5 52.5t-66.5 19.5q-50 0 -86 -31l-101 74l115 176h191q-15 -26 -162 -131l20 -21q89 68 142 68q77 0 134.5 -58t57.5 -153q0 -108 -84 -171.5t-219 -63.5z" />
    <glyph glyph-name="uni0328" unicode="&#x328;" horiz-adv-x="0" 
d="M-631 -483q-137 0 -227 61.5t-90 179.5q0 76 48 136.5t128 85.5h211q-85 -13 -120.5 -55t-35.5 -87q0 -40 30 -67t87 -27q63 0 96 16v-229q-55 -14 -127 -14z" />
    <glyph glyph-name="uni0335" unicode="&#x335;" horiz-adv-x="0" 
d="M-874 705h854v-252h-854v252z" />
    <glyph glyph-name="uni0337" unicode="&#x337;" horiz-adv-x="0" 
d="M-559 383v293l670 481v-293z" />
    <glyph glyph-name="uni0338" unicode="&#x338;" horiz-adv-x="0" 
d="M-963 -68h-286l940 1248h278z" />
    <glyph glyph-name="Wgrave" unicode="&#x1e80;" horiz-adv-x="2387" 
d="M1378 1720h-309l-321 375h409zM901 0h-459l-434 1597h418q83 -337 136.5 -602.5t92.5 -580.5h41q39 216 92.5 442t92.5 367t106 374h414q67 -232 106 -374.5t92.5 -373t92.5 -456.5h41q64 542 229 1204h418l-434 -1597h-453q-101 329 -160.5 566t-107.5 550h-62
q-46 -310 -107.5 -559.5t-154.5 -556.5z" />
    <glyph glyph-name="wgrave" unicode="&#x1e81;" horiz-adv-x="1941" 
d="M1126 1278h-295l-311 375h393zM774 0h-405l-367 1147h391q43 -152 66.5 -245t51.5 -239.5t42 -285.5h61q27 139 65.5 286.5t66 238t77.5 245.5h295q49 -156 76 -246t64 -237.5t63 -286.5h57q15 138 46 287.5t54.5 235.5t69.5 247h389l-364 -1147h-422q-38 131 -60 213.5
t-49 209t-41 241.5h-59q-40 -267 -168 -664z" />
    <glyph glyph-name="Wacute" unicode="&#x1e82;" horiz-adv-x="2387" 
d="M1683 2095l-321 -375h-309l221 375h409zM901 0h-459l-434 1597h418q83 -337 136.5 -602.5t92.5 -580.5h41q39 216 92.5 442t92.5 367t106 374h414q67 -232 106 -374.5t92.5 -373t92.5 -456.5h41q64 542 229 1204h418l-434 -1597h-453q-101 329 -160.5 566t-107.5 550h-62
q-46 -310 -107.5 -559.5t-154.5 -556.5z" />
    <glyph glyph-name="wacute" unicode="&#x1e83;" horiz-adv-x="1941" 
d="M1403 1653l-311 -375h-295l213 375h393zM774 0h-405l-367 1147h391q43 -152 66.5 -245t51.5 -239.5t42 -285.5h61q27 139 65.5 286.5t66 238t77.5 245.5h295q49 -156 76 -246t64 -237.5t63 -286.5h57q15 138 46 287.5t54.5 235.5t69.5 247h389l-364 -1147h-422
q-38 131 -60 213.5t-49 209t-41 241.5h-59q-40 -267 -168 -664z" />
    <glyph glyph-name="Wdieresis" unicode="&#x1e84;" horiz-adv-x="2387" 
d="M950 1712q-85 0 -141.5 57.5t-56.5 143.5q0 80 57 136t141 56q82 0 138.5 -56t56.5 -136q0 -86 -56.5 -143.5t-138.5 -57.5zM1442 1712q-85 0 -142 57.5t-57 143.5q0 80 57.5 136t141.5 56q81 0 137.5 -56t56.5 -136q0 -86 -56 -143.5t-138 -57.5zM901 0h-459l-434 1597
h418q83 -337 136.5 -602.5t92.5 -580.5h41q39 216 92.5 442t92.5 367t106 374h414q67 -232 106 -374.5t92.5 -373t92.5 -456.5h41q64 542 229 1204h418l-434 -1597h-453q-101 329 -160.5 566t-107.5 550h-62q-46 -310 -107.5 -559.5t-154.5 -556.5z" />
    <glyph glyph-name="wdieresis" unicode="&#x1e85;" horiz-adv-x="1941" 
d="M739 1276q-76 0 -129 54t-53 132q0 73 53 125.5t129 52.5t129.5 -52.5t53.5 -125.5q0 -78 -53 -132t-130 -54zM1200 1276q-78 0 -131 54t-53 132q0 73 53.5 125.5t130.5 52.5q74 0 127 -53t53 -125q0 -78 -52.5 -132t-127.5 -54zM774 0h-405l-367 1147h391
q43 -152 66.5 -245t51.5 -239.5t42 -285.5h61q27 139 65.5 286.5t66 238t77.5 245.5h295q49 -156 76 -246t64 -237.5t63 -286.5h57q15 138 46 287.5t54.5 235.5t69.5 247h389l-364 -1147h-422q-38 131 -60 213.5t-49 209t-41 241.5h-59q-40 -267 -168 -664z" />
    <glyph glyph-name="uni1E9E" unicode="&#x1e9e;" horiz-adv-x="1609" 
d="M496 0h-363v872q0 373 182 565.5t510 192.5q147 0 267 -38.5t197.5 -105.5t119 -156t41.5 -191q0 -132 -68 -218t-200 -98v-41q160 0 262 -91.5t102 -250.5q0 -41 -7 -81t-25.5 -84.5t-47.5 -83.5t-75.5 -74.5t-106 -61t-144 -40.5t-184.5 -15h-215v332h246
q84 0 128 35.5t44 95.5q0 62 -46 94.5t-134 32.5h-123v334h53q57 0 106.5 49t49.5 135q0 94 -63.5 142t-172.5 48q-158 0 -245.5 -97t-87.5 -265v-936z" />
    <glyph glyph-name="Ygrave" unicode="&#x1ef2;" horiz-adv-x="1449" 
d="M909 1720h-309l-321 375h409zM907 0h-362q0 357 20 535q-203 354 -567 1062h389q74 -154 115.5 -243.5t100.5 -240.5t102 -298h40q43 147 102 298t100.5 240.5t115.5 243.5h389q-16 -31 -76 -147t-82 -159t-74.5 -143.5t-84 -159t-77.5 -143.5t-87.5 -159t-83.5 -147
q20 -180 20 -539z" />
    <glyph glyph-name="ygrave" unicode="&#x1ef3;" horiz-adv-x="1234" 
d="M776 1278h-295l-311 375h393zM659 -451h-370l147 390l-436 1208h377q74 -214 127 -402t98 -430h41q31 165 73 328t69.5 250.5t82.5 253.5h367z" />
    <glyph glyph-name="uni2000" unicode="&#x2000;" horiz-adv-x="1024" 
 />
    <glyph glyph-name="uni2001" unicode="&#x2001;" 
 />
    <glyph glyph-name="uni2002" unicode="&#x2002;" horiz-adv-x="1024" 
 />
    <glyph glyph-name="uni2003" unicode="&#x2003;" 
 />
    <glyph glyph-name="uni2004" unicode="&#x2004;" horiz-adv-x="681" 
 />
    <glyph glyph-name="uni2005" unicode="&#x2005;" horiz-adv-x="512" 
 />
    <glyph glyph-name="uni2006" unicode="&#x2006;" horiz-adv-x="342" 
 />
    <glyph glyph-name="uni2007" unicode="&#x2007;" horiz-adv-x="464" 
 />
    <glyph glyph-name="uni2008" unicode="&#x2008;" horiz-adv-x="567" 
 />
    <glyph glyph-name="uni2009" unicode="&#x2009;" horiz-adv-x="256" 
 />
    <glyph glyph-name="uni200A" unicode="&#x200a;" horiz-adv-x="86" 
 />
    <glyph glyph-name="uni200B" unicode="&#x200b;" horiz-adv-x="0" 
 />
    <glyph glyph-name="endash" unicode="&#x2013;" horiz-adv-x="1011" 
d="M891 479h-770v289h770v-289z" />
    <glyph glyph-name="emdash" unicode="&#x2014;" horiz-adv-x="1433" 
d="M1317 494h-1200v258h1200v-258z" />
    <glyph glyph-name="quoteleft" unicode="&#x2018;" horiz-adv-x="567" 
d="M328 1638h186q-39 -69 -60 -103.5t-63 -87t-88 -89.5q72 -7 120 -68.5t48 -140.5q0 -83 -61.5 -143t-147.5 -60q-85 0 -145 59.5t-60 145.5q0 16 2 30.5t8.5 33t13 33.5t21 41t27 46t37 57.5t43.5 66.5t55 82.5t64 96.5z" />
    <glyph glyph-name="quoteright" unicode="&#x2019;" horiz-adv-x="581" 
d="M266 981h-194q30 51 47 77.5t47.5 70.5t66 80.5t78.5 72.5q-188 45 -188 188q0 83 61.5 143t147.5 60q85 0 145 -58t60 -140q0 -17 -2 -32.5t-8.5 -35t-13 -35t-21.5 -42t-27 -46t-36.5 -57.5t-43.5 -67t-55 -83z" />
    <glyph glyph-name="quotesinglbase" unicode="&#x201a;" horiz-adv-x="571" 
d="M221 -291h-186q40 70 60.5 103.5t62.5 87t88 90.5q-72 7 -120 68.5t-48 140.5q0 83 61.5 142.5t147.5 59.5q85 0 145 -59t60 -145q0 -16 -2 -30.5t-8.5 -33t-13 -33.5t-21.5 -41.5t-26.5 -46t-36.5 -57.5t-44 -66.5t-55 -83t-64 -96.5z" />
    <glyph glyph-name="quotedblleft" unicode="&#x201c;" horiz-adv-x="1056" 
d="M328 1638h186q-39 -69 -60 -103.5t-63 -87t-88 -89.5q72 -7 120 -68.5t48 -140.5q0 -83 -61.5 -143t-147.5 -60q-85 0 -145 59.5t-60 145.5q0 16 2 30.5t8.5 33t13 33.5t21 41t27 46t37 57.5t43.5 66.5t55 82.5t64 96.5zM817 1638h187q-39 -69 -60 -103.5t-63 -87
t-88 -89.5q72 -7 120 -68.5t48 -140.5q0 -83 -61.5 -143t-147.5 -60q-85 0 -145 59.5t-60 145.5q0 16 2 30.5t8.5 33t12.5 33.5t21 41.5t27 45.5t37 57.5t43.5 66.5t55 82.5t63.5 96.5z" />
    <glyph glyph-name="quotedblright" unicode="&#x201d;" horiz-adv-x="1069" 
d="M262 981h-186q40 70 60.5 103.5t62.5 87t88 90.5q-72 7 -120 68t-48 140q0 83 61.5 143t147.5 60q85 0 144.5 -59.5t59.5 -145.5q0 -16 -2 -30.5t-8.5 -33t-12.5 -33.5t-21 -41.5t-27 -45.5t-37 -57.5t-43.5 -66.5t-55 -82.5t-63.5 -96.5zM754 981h-187q40 70 60.5 103.5
t62.5 87t88 90.5q-72 7 -120 68t-48 140q0 83 61.5 143t147.5 60q85 0 145 -59.5t60 -145.5q0 -16 -2 -30.5t-8.5 -33t-12.5 -33.5t-21 -41.5t-27 -45.5t-37 -57.5t-43.5 -66.5t-55 -82.5t-63.5 -96.5z" />
    <glyph glyph-name="quotedblbase" unicode="&#x201e;" horiz-adv-x="1062" 
d="M221 -260h-186q39 69 60 103.5t63 87t88 89.5q-72 7 -120 68.5t-48 140.5q0 83 61.5 143t147.5 60q85 0 145 -59.5t60 -145.5q0 -16 -2 -30.5t-8.5 -33t-13 -33.5t-21 -41t-27 -46t-37 -57.5t-43.5 -66.5t-55 -82.5t-64 -96.5zM713 -260h-187q39 69 60 103.5t63 87
t88 89.5q-72 7 -120 68.5t-48 140.5q0 83 61.5 143t147.5 60q85 0 145 -59.5t60 -145.5q0 -16 -2 -30.5t-8.5 -33t-12.5 -33.5t-21 -41.5t-27 -45.5t-37 -57.5t-43.5 -66.5t-55 -82.5t-63.5 -96.5z" />
    <glyph glyph-name="dagger" unicode="&#x2020;" horiz-adv-x="1036" 
d="M643 428h-276q0 149 1.5 232t11 219.5t28.5 259.5q-64 -19 -128 -28.5t-101 -11t-101 -1.5v245q67 0 101.5 -1t99.5 -10.5t129 -28.5q-19 65 -28.5 130t-11 102.5t-1.5 102.5h276q0 -65 -1.5 -102.5t-11 -102.5t-28.5 -130q67 19 137.5 28.5t108 10.5t110.5 1v-245
q-70 0 -110 1.5t-109 11t-137 28.5q19 -123 28.5 -259.5t11 -219.5t1.5 -232z" />
    <glyph glyph-name="daggerdbl" unicode="&#x2021;" horiz-adv-x="1064" 
d="M958 1343v-245q-64 0 -100 1.5t-99.5 11t-127.5 28.5q31 -83 31 -146.5t-31 -146.5q64 19 127.5 28.5t99.5 11t100 1.5v-246q-64 0 -100 1.5t-99.5 11t-127.5 28.5q19 -65 28.5 -130.5t11 -103t1.5 -102.5h-277q0 65 1.5 102.5t11 103t28.5 130.5q-64 -19 -128 -28.5
t-101 -11t-101 -1.5v246q64 0 101 -1.5t101 -11t128 -28.5q-31 83 -31 146.5t31 146.5q-64 -19 -128 -28.5t-101 -11t-101 -1.5v245q67 0 101.5 -1t99.5 -10.5t129 -28.5q-19 65 -28.5 130t-11 102.5t-1.5 102.5h277q0 -65 -1.5 -102.5t-11 -102.5t-28.5 -130
q64 19 128 28.5t98.5 10.5t100.5 1z" />
    <glyph glyph-name="bullet" unicode="&#x2022;" horiz-adv-x="964" 
d="M483 446q-145 0 -246.5 105t-101.5 256q0 140 102 241t246 101q142 0 244 -101t102 -241q0 -150 -101.5 -255.5t-244.5 -105.5z" />
    <glyph glyph-name="ellipsis" unicode="&#x2026;" horiz-adv-x="1665" 
d="M285 -14q-86 0 -146.5 62t-60.5 151q0 83 60.5 142.5t146.5 59.5q85 0 144.5 -59.5t59.5 -142.5q0 -89 -59.5 -151t-144.5 -62zM834 -14q-86 0 -146.5 62t-60.5 151q0 83 60.5 142.5t146.5 59.5q85 0 144.5 -59.5t59.5 -142.5q0 -89 -59.5 -151t-144.5 -62zM1382 -14
q-86 0 -146 62t-60 151q0 84 60 143t146 59q85 0 145 -59.5t60 -142.5q0 -89 -60 -151t-145 -62z" />
    <glyph glyph-name="uni202F" unicode="&#x202f;" horiz-adv-x="352" 
 />
    <glyph glyph-name="perthousand" unicode="&#x2030;" horiz-adv-x="2846" 
d="M389 688q-159 0 -250.5 119.5t-91.5 314.5t91.5 314.5t250.5 119.5t250.5 -120t91.5 -314t-91.5 -314t-250.5 -120zM612 0h-317l1139 1468h309zM389 942q17 0 28 13.5t18 54.5t7 112q0 72 -7 114t-18 55.5t-28 13.5q-27 0 -41 -39.5t-14 -143.5q0 -102 14 -141t41 -39z
M1679 -29q-159 0 -250.5 120t-91.5 315t91.5 314.5t250.5 119.5t250.5 -120t91.5 -314t-91.5 -314.5t-250.5 -120.5zM2458 -29q-159 0 -250.5 120t-91.5 315t91.5 314.5t250.5 119.5t250.5 -120t91.5 -314t-91.5 -314.5t-250.5 -120.5zM1679 225q17 0 28 14t18.5 55.5
t7.5 111.5q0 72 -7.5 113.5t-18.5 55t-28 13.5q-27 0 -41 -39t-14 -143q0 -102 14 -141.5t41 -39.5zM2458 225q17 0 28 14t18 55t7 112q0 72 -7 113.5t-18 55t-28 13.5q-27 0 -41.5 -39.5t-14.5 -142.5q0 -102 14.5 -141.5t41.5 -39.5z" />
    <glyph glyph-name="guilsinglleft" unicode="&#x2039;" horiz-adv-x="829" 
d="M723 164h-350l-293 405v9l293 405h350q-46 -63 -77.5 -103t-80 -92.5t-103 -94t-118.5 -75.5v-90q64 -34 119 -75t103.5 -94t79 -92t77.5 -103z" />
    <glyph glyph-name="guilsinglright" unicode="&#x203a;" horiz-adv-x="829" 
d="M457 164h-351q47 64 77.5 103t79 92t103.5 94t119 75v90q-64 34 -118.5 75.5t-103 94t-80 92.5t-77.5 103h351l293 -405v-9z" />
    <glyph glyph-name="fraction" unicode="&#x2044;" horiz-adv-x="512" 
d="M-166 0h-317l1138 1468h310z" />
    <glyph glyph-name="uni205F" unicode="&#x205f;" horiz-adv-x="454" 
 />
    <glyph glyph-name="uni2070" unicode="&#x2070;" horiz-adv-x="778" 
d="M389 688q-159 0 -250.5 119.5t-91.5 314.5t91.5 314.5t250.5 119.5t250.5 -120t91.5 -314t-91.5 -314t-250.5 -120zM389 942q17 0 28 13.5t18 54.5t7 112q0 72 -7 114t-18 55.5t-28 13.5q-27 0 -41 -39.5t-14 -143.5q0 -102 14 -141t41 -39z" />
    <glyph glyph-name="uni2074" unicode="&#x2074;" horiz-adv-x="794" 
d="M657 707h-260v135h-364v207l373 491h251v-475h93v-223h-93v-135zM397 1198l-108 -133h108v133z" />
    <glyph glyph-name="uni2075" unicode="&#x2075;" horiz-adv-x="772" 
d="M365 688q-75 0 -139 16.5t-120 61t-79 113.5l239 120q37 -79 103 -79q71 0 71 75q0 39 -20 60.5t-53 21.5q-30 0 -50 -17t-26 -36l-228 47l105 469h506v-217h-312l-30 -100h4q53 45 145 45q45 0 86 -13.5t78 -42.5t59.5 -82.5t22.5 -125.5q0 -150 -103 -233t-259 -83z
" />
    <glyph glyph-name="uni2076" unicode="&#x2076;" horiz-adv-x="798" 
d="M401 688q-163 0 -259.5 98t-96.5 287q0 211 117.5 347t312.5 136q82 0 156 -26.5t117 -83.5l-138 -178q-59 61 -141 61q-105 0 -152 -115h5q47 39 147 39q119 0 200 -71t81 -193q0 -131 -96 -216t-253 -85zM418 913q36 0 58 23t22 59t-22 58t-58 22q-37 0 -59.5 -21.5
t-22.5 -58.5q0 -36 23 -59t59 -23z" />
    <glyph glyph-name="uni2077" unicode="&#x2077;" horiz-adv-x="636" 
d="M432 707h-293q0 410 152 602h-264v223h587v-223q-50 -42 -85.5 -102.5t-54 -117.5t-28.5 -133t-12 -127t-2 -122z" />
    <glyph glyph-name="uni2078" unicode="&#x2078;" horiz-adv-x="782" 
d="M389 688q-166 0 -257 75.5t-91 182.5q0 74 41.5 130.5t89.5 68.5v2q-88 65 -88 164q0 111 88 178t217 67q80 0 148 -27.5t113.5 -88t45.5 -142.5q0 -52 -20 -87.5t-70 -63.5v-2q49 -14 92 -66.5t43 -128.5q0 -110 -93 -186t-259 -76zM391 1243q27 0 42.5 18t15.5 44
q0 27 -15.5 42t-42.5 15q-25 0 -42 -15.5t-17 -41.5t17 -44t42 -18zM391 926q32 0 51 20t19 51q0 32 -19.5 52t-50.5 20q-30 0 -51 -20t-21 -52q0 -31 20.5 -51t51.5 -20z" />
    <glyph glyph-name="uni2079" unicode="&#x2079;" horiz-adv-x="800" 
d="M344 688q-90 0 -170.5 27t-120.5 82l135 178q30 -31 76 -49.5t86 -18.5q105 0 131 133h-4q-50 -39 -153 -39q-115 0 -195 68t-80 188q0 130 95 214.5t253 84.5q164 0 260.5 -99t96.5 -298q0 -135 -44.5 -239.5t-138.5 -168t-227 -63.5zM381 1184q37 0 59.5 21.5
t22.5 56.5q0 36 -22.5 58.5t-59.5 22.5t-58.5 -22t-21.5 -59q0 -35 21.5 -56.5t58.5 -21.5z" />
    <glyph glyph-name="uni2080" unicode="&#x2080;" horiz-adv-x="778" 
d="M389 -285q-159 0 -250.5 120t-91.5 315t91.5 314.5t250.5 119.5t250.5 -120t91.5 -314t-91.5 -314.5t-250.5 -120.5zM389 -31q17 0 28 14t18 55t7 112q0 72 -7 113.5t-18 55t-28 13.5q-27 0 -41 -39t-14 -143q0 -102 14 -141.5t41 -39.5z" />
    <glyph glyph-name="uni2081" unicode="&#x2081;" horiz-adv-x="569" 
d="M479 -266h-272v440q-90 -62 -166 -82v293q80 30 124 79.5t44 102.5h270v-833z" />
    <glyph glyph-name="uni2082" unicode="&#x2082;" horiz-adv-x="768" 
d="M700 -266h-628v37q-2 155 49 242t201 182q6 4 26 16t30 19.5t23.5 19t20 24t6.5 25.5q0 18 -13 29.5t-38 11.5q-40 0 -64.5 -30.5t-25.5 -88.5l-250 37q0 149 100 237.5t250 88.5q139 0 232.5 -77.5t93.5 -201.5q0 -76 -36.5 -132t-98.5 -89q-1 0 -24 -11.5t-33 -17.5
t-29 -18t-31.5 -24.5t-20.5 -26.5h260v-252z" />
    <glyph glyph-name="uni2083" unicode="&#x2083;" horiz-adv-x="770" 
d="M369 -287q-130 0 -226 55t-120 138l239 121q42 -86 107 -86q63 0 63 57q0 22 -8.5 35.5t-25.5 18t-23.5 5t-22.5 0.5h-80v185h78q29 0 55.5 14t26.5 43q0 23 -17 39t-44 16q-33 0 -53 -23.5t-23 -64.5l-250 58q9 107 104.5 183.5t243.5 76.5q130 0 218.5 -61.5
t88.5 -164.5q0 -63 -32.5 -113t-83.5 -59v-2q55 -11 98 -64t43 -122q0 -49 -21.5 -97.5t-63 -91.5t-112 -69.5t-159.5 -26.5z" />
    <glyph glyph-name="uni2084" unicode="&#x2084;" horiz-adv-x="794" 
d="M657 -266h-260v135h-364v207l373 491h251v-475h93v-223h-93v-135zM397 225l-108 -133h108v133z" />
    <glyph glyph-name="uni2085" unicode="&#x2085;" horiz-adv-x="772" 
d="M365 -285q-75 0 -139 16.5t-120 61t-79 113.5l239 121q38 -80 103 -80q71 0 71 76q0 39 -20 60t-53 21q-30 0 -50 -17t-26 -36l-228 47l105 469h506v-217h-312l-30 -100h4q53 45 145 45q45 0 86 -13.5t78 -42.5t59.5 -82.5t22.5 -125.5q0 -150 -103 -233t-259 -83z" />
    <glyph glyph-name="uni2086" unicode="&#x2086;" horiz-adv-x="798" 
d="M401 -285q-163 0 -259.5 98t-96.5 287q0 211 117.5 347.5t312.5 136.5q82 0 156 -27t117 -84l-138 -178q-59 61 -141 61q-105 0 -152 -114h5q47 39 147 39q119 0 200 -71.5t81 -193.5q0 -131 -96 -216t-253 -85zM418 -59q36 0 58 23t22 59t-22 57.5t-58 21.5
q-37 0 -59.5 -21.5t-22.5 -57.5t23 -59t59 -23z" />
    <glyph glyph-name="uni2087" unicode="&#x2087;" horiz-adv-x="636" 
d="M432 -266h-293q0 410 152 602h-264v223h587v-223q-50 -42 -85.5 -102.5t-54 -117.5t-28.5 -133t-12 -127t-2 -122z" />
    <glyph glyph-name="uni2088" unicode="&#x2088;" horiz-adv-x="782" 
d="M389 -285q-166 0 -257 75.5t-91 182.5q0 74 41.5 130.5t89.5 68.5v2q-88 65 -88 164q0 111 88 178.5t217 67.5q80 0 148 -27.5t113.5 -88t45.5 -142.5q0 -52 -20 -88t-70 -64v-2q49 -14 92 -66.5t43 -128.5q0 -110 -93 -186t-259 -76zM391 270q27 0 42.5 18t15.5 44
t-15.5 41.5t-42.5 15.5q-25 0 -42 -15.5t-17 -41.5t17 -44t42 -18zM391 -47q32 0 51 20.5t19 51.5q0 32 -19.5 51.5t-50.5 19.5q-30 0 -51 -20t-21 -51t20.5 -51.5t51.5 -20.5z" />
    <glyph glyph-name="uni2089" unicode="&#x2089;" horiz-adv-x="800" 
d="M344 -285q-90 0 -170.5 27t-120.5 82l135 178q30 -31 76 -49.5t86 -18.5q105 0 131 134h-4q-50 -39 -153 -39q-115 0 -195 68t-80 188q0 130 95 214.5t253 84.5q164 0 260.5 -99.5t96.5 -298.5q0 -135 -44.5 -239.5t-138.5 -168t-227 -63.5zM381 211q37 0 59.5 21.5
t22.5 56.5q0 36 -23 59t-59 23q-37 0 -58.5 -22.5t-21.5 -59.5q0 -35 21.5 -56.5t58.5 -21.5z" />
    <glyph glyph-name="Euro" unicode="&#x20ac;" horiz-adv-x="1716" 
d="M1098 -35q-185 0 -338 70t-254 204.5t-129 313.5q-117 -21 -289 -21v160q158 0 258 -41q-24 143 -2 256q-98 -41 -256 -41v160q174 0 283 -20q25 188 128.5 331t259 218t339.5 75q75 0 139.5 -7.5t140.5 -27t146.5 -61.5t126.5 -104l-250 -252q-122 110 -303 110
q-276 0 -422 -282q205 20 532 20v-160q-116 0 -181 1.5t-173.5 11t-208.5 28.5q19 -114 4 -256q99 19 207 28.5t172.5 11t179.5 1.5v-160q-309 0 -520 21q78 -129 178.5 -187.5t231.5 -58.5q209 0 352 103l199 -242q-108 -105 -257 -154t-294 -49z" />
    <glyph glyph-name="trademark" unicode="&#x2122;" horiz-adv-x="1632" 
d="M434 903h-176v547h-197v166h572v-166h-199v-547zM901 903h-180v713h184q31 -72 104.5 -236.5t100.5 -224.5q27 60 100.5 224.5t104.5 236.5h184v-713h-180v363q-28 -65 -83.5 -186.5t-78.5 -176.5h-94q-23 55 -78.5 176.5t-83.5 186.5v-363z" />
    <glyph glyph-name="oneeighth" unicode="&#x215b;" horiz-adv-x="1863" 
d="M479 707h-272v440q-90 -62 -166 -82v293q80 30 124 79.5t44 102.5h270v-833zM403 0h-317l1139 1468h309zM1470 -29q-166 0 -257 75.5t-91 182.5q0 74 41.5 130.5t89.5 68.5v2q-88 65 -88 164q0 111 88 178.5t217 67.5q80 0 148.5 -27.5t114 -88t45.5 -142.5
q0 -52 -20 -88t-70 -64v-2q49 -14 92 -66.5t43 -128.5q0 -109 -93 -185.5t-260 -76.5zM1473 526q27 0 42 18t15 44q0 27 -15 42t-42 15q-25 0 -42.5 -15.5t-17.5 -41.5t17.5 -44t42.5 -18zM1473 209q32 0 50.5 20.5t18.5 51.5q0 32 -19 51.5t-50 19.5q-30 0 -51 -20t-21 -51
t20.5 -51.5t51.5 -20.5z" />
    <glyph glyph-name="threeeighths" unicode="&#x215c;" horiz-adv-x="2064" 
d="M369 686q-130 0 -226 55t-120 138l239 120q42 -86 107 -86q63 0 63 58q0 22 -8.5 35.5t-25.5 18t-23.5 5t-22.5 0.5h-80v184h78q29 0 55.5 14.5t26.5 43.5q0 23 -17 39t-44 16q-33 0 -53 -23.5t-23 -64.5l-250 57q9 107 104.5 183.5t243.5 76.5q130 0 218.5 -61
t88.5 -164q0 -63 -32.5 -113t-83.5 -59v-2q55 -11 98 -64t43 -122q0 -49 -21.5 -97.5t-63 -91.5t-112 -69.5t-159.5 -26.5zM604 0h-317l1138 1468h310zM1671 -29q-166 0 -257 75.5t-91 182.5q0 74 41.5 130.5t89.5 68.5v2q-88 65 -88 164q0 111 88 178.5t217 67.5
q80 0 148 -27.5t113.5 -88t45.5 -142.5q0 -52 -20 -88t-70 -64v-2q49 -14 92 -66.5t43 -128.5q0 -110 -93 -186t-259 -76zM1673 526q27 0 42.5 18t15.5 44t-15.5 41.5t-42.5 15.5q-25 0 -42 -15.5t-17 -41.5t17 -44t42 -18zM1673 209q32 0 51 20.5t19 51.5q0 32 -19.5 51.5
t-50.5 19.5q-30 0 -50.5 -19.5t-20.5 -51.5q0 -31 20 -51.5t51 -20.5z" />
    <glyph glyph-name="fiveeighths" unicode="&#x215d;" horiz-adv-x="2066" 
d="M365 688q-75 0 -139 16.5t-120 61t-79 113.5l239 120q37 -79 103 -79q71 0 71 75q0 39 -20 60.5t-53 21.5q-30 0 -50 -17t-26 -36l-228 47l105 469h506v-217h-312l-30 -100h4q53 45 145 45q45 0 86 -13.5t78 -42.5t59.5 -82.5t22.5 -125.5q0 -150 -103 -233t-259 -83z
M606 0h-317l1138 1468h310zM1673 -29q-166 0 -257 75.5t-91 182.5q0 74 41.5 130.5t89.5 68.5v2q-88 65 -88 164q0 111 88 178.5t217 67.5q80 0 148 -27.5t113.5 -88t45.5 -142.5q0 -52 -20 -88t-70 -64v-2q49 -14 92 -66.5t43 -128.5q0 -110 -93 -186t-259 -76zM1675 526
q27 0 42.5 18t15.5 44t-15.5 41.5t-42.5 15.5q-25 0 -42 -15.5t-17 -41.5t17 -44t42 -18zM1675 209q32 0 51 20.5t19 51.5q0 32 -19.5 51.5t-50.5 19.5q-30 0 -50.5 -19.5t-20.5 -51.5q0 -31 20 -51.5t51 -20.5z" />
    <glyph glyph-name="seveneighths" unicode="&#x215e;" horiz-adv-x="1931" 
d="M432 707h-293q0 410 152 602h-264v223h587v-223q-50 -42 -85.5 -102.5t-54 -117.5t-28.5 -133t-12 -127t-2 -122zM471 0h-317l1138 1468h310zM1538 -29q-166 0 -257 75.5t-91 182.5q0 74 41.5 130.5t89.5 68.5v2q-88 65 -88 164q0 111 88 178.5t217 67.5q80 0 148 -27.5
t113.5 -88t45.5 -142.5q0 -52 -20 -88t-70 -64v-2q49 -14 92 -66.5t43 -128.5q0 -110 -93 -186t-259 -76zM1540 526q27 0 42 18t15 44q0 27 -15 42t-42 15q-25 0 -42 -15.5t-17 -41.5t17 -44t42 -18zM1540 209q32 0 51 20.5t19 51.5q0 32 -19.5 51.5t-50.5 19.5
q-30 0 -51 -20t-21 -51t20.5 -51.5t51.5 -20.5z" />
    <glyph glyph-name="arrowleft" unicode="&#x2190;" horiz-adv-x="1366" 
d="M731 236h-307l-340 405v8l340 406h307q-53 -63 -84 -97t-99 -96.5t-151 -124.5q154 19 321 28.5t268 11t280 1.5v-266q-180 0 -281.5 1.5t-269 11t-322.5 28.5q84 -62 152 -123t102 -98t84 -96z" />
    <glyph glyph-name="arrowup" unicode="&#x2191;" horiz-adv-x="995" 
d="M631 20h-266q0 179 1.5 280t11 268t28.5 321q-62 -83 -124.5 -151t-96.5 -99t-97 -84v307l406 340h8l405 -340v-307q-59 50 -96 84t-98 102t-123 152q19 -155 28.5 -322.5t11 -269t1.5 -281.5z" />
    <glyph glyph-name="arrowright" unicode="&#x2192;" horiz-adv-x="1366" 
d="M942 236h-307q50 59 84 96t102 98t152 123q-155 -19 -322.5 -28.5t-269 -11t-281.5 -1.5v266q179 0 280 -1.5t268 -11t321 -28.5q-83 62 -151 124.5t-99 96.5t-84 97h307l340 -406v-8z" />
    <glyph glyph-name="arrowdown" unicode="&#x2193;" horiz-adv-x="995" 
d="M502 20h-8l-406 340v308q63 -53 97 -84t96.5 -99t124.5 -151q-19 154 -28.5 321t-11 267.5t-1.5 279.5h266q0 -180 -1.5 -281t-11 -268.5t-28.5 -322.5q62 84 123 152t98 102t96 84v-308z" />
    <glyph glyph-name="arrowboth" unicode="&#x2194;" horiz-adv-x="1722" 
d="M723 236h-307l-340 405v8l340 406h307q-142 -167 -289 -330q427 59 854 0q-147 163 -289 330h308l340 -406v-8l-340 -405h-308q125 146 289 329q-427 -59 -854 0q164 -183 289 -329z" />
    <glyph glyph-name="arrowupdn" unicode="&#x2195;" horiz-adv-x="1052" 
d="M530 14h-8l-405 299v271q184 -126 317 -230q-31 184 -31 349t31 350q-92 -77 -317 -248v282l405 299h8l406 -299v-282q-209 159 -318 250q31 -186 31 -351.5t-31 -351.5q147 115 318 232v-271z" />
    <glyph glyph-name="uni2196" unicode="&#x2196;" horiz-adv-x="1042" 
d="M965 176l-232 -133q-86 148 -138.5 242.5t-127 242t-135.5 291.5q-12 -105 -30.5 -193t-33.5 -137t-41 -120l-153 266l180 495l8 5l520 -91l154 -266q-111 19 -207 45t-235 84q94 -123 186.5 -263.5t142.5 -225t142 -242.5z" />
    <glyph glyph-name="uni2197" unicode="&#x2197;" horiz-adv-x="1042" 
d="M309 43l-231 133q92 158 142 242.5t142.5 225t186.5 263.5q-138 -58 -234.5 -84t-208.5 -45l154 266l520 91l8 -5l181 -495l-154 -266q-38 106 -62.5 202.5t-41.5 247.5q-61 -143 -136.5 -292.5t-126.5 -240.5t-139 -243z" />
    <glyph glyph-name="uni2198" unicode="&#x2198;" horiz-adv-x="1042" 
d="M76 1044l231 134q87 -150 139 -243t127 -241.5t136 -292.5q17 151 41.5 248.5t62.5 202.5l154 -266l-181 -496l-8 -4l-520 90l-154 266q73 -12 124.5 -23.5t137 -38.5t181.5 -67q-94 123 -186.5 263.5t-142.5 225t-142 242.5z" />
    <glyph glyph-name="uni2199" unicode="&#x2199;" horiz-adv-x="1042" 
d="M735 1178l232 -134q-92 -158 -142 -242.5t-142.5 -225t-186.5 -263.5q139 58 235 84t207 45l-154 -266l-520 -90l-8 4l-180 496l153 266q26 -70 41 -119.5t33.5 -138t30.5 -193.5q61 144 135 291.5t128 243.5t138 242z" />
    <glyph glyph-name="emptyset" unicode="&#x2205;" horiz-adv-x="1452" 
d="M1311 1180l-129 -181q78 -81 121 -191t43 -237q0 -176 -79.5 -314.5t-220.5 -215t-319 -76.5q-135 0 -250 45l-133 -186l-197 133l129 182q-170 170 -170 432q0 176 79.5 315t221 216.5t320.5 77.5q138 0 256 -47l125 176zM461 571q0 -72 28 -133l291 410q-32 4 -53 4
q-116 0 -191 -79t-75 -202zM727 293q114 0 189 78.5t75 199.5q0 69 -24 125l-285 -399q28 -4 45 -4z" />
    <glyph glyph-name="minus" unicode="&#x2212;" horiz-adv-x="1105" 
d="M991 500h-876v256h876v-256z" />
    <glyph glyph-name="infinity" unicode="&#x221e;" horiz-adv-x="1755" 
d="M475 283q-172 0 -275.5 96t-103.5 246q0 95 54.5 175t141.5 123.5t183 43.5q90 0 175 -41.5t227 -161.5q147 120 230.5 161.5t168.5 41.5q172 0 276.5 -96t104.5 -246t-104.5 -246t-276.5 -96q-99 0 -181.5 42t-215.5 160q-130 -126 -213.5 -164t-190.5 -38zM500 496
q46 0 89.5 27.5t127.5 101.5q-87 80 -126.5 105.5t-90.5 25.5q-60 0 -104 -37.5t-44 -93.5q0 -57 44.5 -93t103.5 -36zM1257 498q60 0 102 34.5t42 92.5q0 56 -41.5 91.5t-102.5 35.5q-46 0 -89.5 -26t-127.5 -101q74 -65 123.5 -96t93.5 -31z" />
    <glyph glyph-name="approxequal" unicode="&#x2248;" horiz-adv-x="1161" 
d="M369 641h-263q0 169 82.5 271t212.5 102q50 0 96.5 -16.5t77 -36t67.5 -36t69 -16.5q80 0 80 99h262q0 -180 -72 -278.5t-207 -98.5q-56 0 -107.5 18t-83 39t-67 39t-63.5 18q-41 0 -62.5 -32t-21.5 -72zM369 168h-263q0 169 82.5 271t212.5 102q50 0 96.5 -16.5t77 -36
t67.5 -36t69 -16.5q80 0 80 99h262q0 -180 -72 -278.5t-207 -98.5q-56 0 -107.5 18t-83 39t-67 39t-63.5 18q-41 0 -62.5 -32t-21.5 -72z" />
    <glyph glyph-name="notequal" unicode="&#x2260;" horiz-adv-x="1144" 
d="M1022 963v-256h-342q24 -104 -72 -203h414v-256h-506q3 -8 5.5 -17t3.5 -15.5t0.5 -17t0 -16t-2 -17t-3 -15.5t-4.5 -17t-5 -15.5t-6 -17.5t-5 -16h-232q16 50 37.5 88.5t61.5 75.5h-244v256h336q-25 105 71 203h-407v256h498q-12 22 -12 48.5t4.5 42t15.5 48.5h231
q-10 -29 -18 -47.5t-26.5 -44t-45.5 -47.5h252z" />
    <glyph glyph-name="lessequal" unicode="&#x2264;" horiz-adv-x="1064" 
d="M944 219h-825v215h411l-405 164v262l819 166v-233l-534 -105l534 -242v-227z" />
    <glyph glyph-name="greaterequal" unicode="&#x2265;" horiz-adv-x="1064" 
d="M946 219h-825v227l534 242l-534 105v233l819 -166v-262l-405 -164h411v-215z" />
    <glyph glyph-name="lozenge" unicode="&#x25ca;" horiz-adv-x="1126" 
d="M608 0h-90l-432 694l432 692h90l432 -692zM358 694l203 -336h4l203 336l-203 334h-4z" />
    <glyph glyph-name="A.ss01" horiz-adv-x="1603" 
d="M373 0h-377l571 1597h469l572 -1597h-387q-27 70 -42.5 114.5t-33 120t-21.5 140.5l-26 26q-150 -26 -301 -26q-148 0 -301 26l-27 -26q-8 -146 -96 -375zM596 678l18 -21q108 23 183 23q74 0 182 -23l18 21q-74 154 -108 293t-31 350h-123q3 -211 -31 -350t-108 -293z
" />
    <glyph glyph-name="Aacute.ss01" horiz-adv-x="1603" 
d="M1286 2095l-321 -375h-310l222 375h409zM373 0h-377l571 1597h469l572 -1597h-387q-27 70 -42.5 114.5t-33 120t-21.5 140.5l-26 26q-150 -26 -301 -26q-148 0 -301 26l-27 -26q-8 -146 -96 -375zM596 678l18 -21q108 23 183 23q74 0 182 -23l18 21q-74 154 -108 293
t-31 350h-123q3 -211 -31 -350t-108 -293z" />
    <glyph glyph-name="Abreve.ss01" horiz-adv-x="1603" 
d="M799 1712q-176 0 -292.5 106t-119.5 275h289q2 -63 31.5 -104t91.5 -41t91.5 41t31.5 104h288q-3 -169 -119 -275t-292 -106zM373 0h-377l571 1597h469l572 -1597h-387q-27 70 -42.5 114.5t-33 120t-21.5 140.5l-26 26q-150 -26 -301 -26q-148 0 -301 26l-27 -26
q-8 -146 -96 -375zM596 678l18 -21q108 23 183 23q74 0 182 -23l18 21q-74 154 -108 293t-31 350h-123q3 -211 -31 -350t-108 -293z" />
    <glyph glyph-name="Acircumflex.ss01" horiz-adv-x="1603" 
d="M659 1720h-317l299 375h317l299 -375h-317q-27 29 -42 48.5t-32 67t-24 112.5h-82q-7 -65 -24.5 -112t-33.5 -68t-43 -48zM373 0h-377l571 1597h469l572 -1597h-387q-27 70 -42.5 114.5t-33 120t-21.5 140.5l-26 26q-150 -26 -301 -26q-148 0 -301 26l-27 -26
q-8 -146 -96 -375zM596 678l18 -21q108 23 183 23q74 0 182 -23l18 21q-74 154 -108 293t-31 350h-123q3 -211 -31 -350t-108 -293z" />
    <glyph glyph-name="Adieresis.ss01" horiz-adv-x="1603" 
d="M553 1712q-85 0 -142 57.5t-57 143.5q0 80 57.5 136t141.5 56q82 0 138.5 -56t56.5 -136q0 -86 -56.5 -143.5t-138.5 -57.5zM1044 1712q-85 0 -141.5 57.5t-56.5 143.5q0 80 57 136t141 56q82 0 138.5 -56t56.5 -136q0 -86 -56.5 -143.5t-138.5 -57.5zM373 0h-377
l571 1597h469l572 -1597h-387q-27 70 -42.5 114.5t-33 120t-21.5 140.5l-26 26q-150 -26 -301 -26q-148 0 -301 26l-27 -26q-8 -146 -96 -375zM596 678l18 -21q108 23 183 23q74 0 182 -23l18 21q-74 154 -108 293t-31 350h-123q3 -211 -31 -350t-108 -293z" />
    <glyph glyph-name="Agrave.ss01" horiz-adv-x="1603" 
d="M981 1720h-309l-322 375h410zM373 0h-377l571 1597h469l572 -1597h-387q-27 70 -42.5 114.5t-33 120t-21.5 140.5l-26 26q-150 -26 -301 -26q-148 0 -301 26l-27 -26q-8 -146 -96 -375zM596 678l18 -21q108 23 183 23q74 0 182 -23l18 21q-74 154 -108 293t-31 350h-123
q3 -211 -31 -350t-108 -293z" />
    <glyph glyph-name="Amacron.ss01" horiz-adv-x="1603" 
d="M1188 1741h-782v250h782v-250zM373 0h-377l571 1597h469l572 -1597h-387q-27 70 -42.5 114.5t-33 120t-21.5 140.5l-26 26q-150 -26 -301 -26q-148 0 -301 26l-27 -26q-8 -146 -96 -375zM596 678l18 -21q108 23 183 23q74 0 182 -23l18 21q-74 154 -108 293t-31 350h-123
q3 -211 -31 -350t-108 -293z" />
    <glyph glyph-name="Aogonek.ss01" horiz-adv-x="1603" 
d="M1294 -139q0 -39 33.5 -75t108.5 -36q59 0 90 10v-204q-53 -19 -146 -19q-85 0 -155.5 24t-118 79.5t-47.5 134.5q0 67 46.5 128t131.5 97h-16q-27 70 -42.5 114.5t-33 120t-21.5 140.5l-26 26q-150 -26 -301 -26q-148 0 -301 26l-27 -26q-8 -146 -96 -375h-377l571 1597
h469l572 -1597h-148q-51 -6 -87 -23t-51.5 -40t-21.5 -41t-6 -35zM979 657l18 21q-74 154 -108 293t-31 350h-123q3 -211 -31 -350t-108 -293l18 -21q108 23 183 23q74 0 182 -23z" />
    <glyph glyph-name="Aring.ss01" horiz-adv-x="1603" 
d="M797 1708q-115 0 -195 76t-80 184q0 110 79.5 185t195.5 75q115 0 193.5 -74t78.5 -186t-78.5 -186t-193.5 -74zM797 1864q42 0 70 31t28 73q0 41 -28 72t-70 31q-45 0 -73 -30.5t-28 -72.5q0 -43 27.5 -73.5t73.5 -30.5zM373 0h-377l571 1597h469l572 -1597h-387
q-27 70 -42.5 114.5t-33 120t-21.5 140.5l-26 26q-150 -26 -301 -26q-148 0 -301 26l-27 -26q-8 -146 -96 -375zM596 678l18 -21q108 23 183 23q74 0 182 -23l18 21q-74 154 -108 293t-31 350h-123q3 -211 -31 -350t-108 -293z" />
    <glyph glyph-name="Atilde.ss01" horiz-adv-x="1603" 
d="M954 1722q-80 0 -135 35l-63 41q-41 29 -74 29q-32 0 -46.5 -24.5t-14.5 -61.5h-242q0 156 79.5 250t200.5 94q78 0 154 -45l55 -33q28 -16 54 -16q47 0 47 80h241q0 -171 -66 -260t-190 -89zM373 0h-377l571 1597h469l572 -1597h-387q-27 70 -42.5 114.5t-33 120
t-21.5 140.5l-26 26q-150 -26 -301 -26q-148 0 -301 26l-27 -26q-8 -146 -96 -375zM596 678l18 -21q108 23 183 23q74 0 182 -23l18 21q-74 154 -108 293t-31 350h-123q3 -211 -31 -350t-108 -293z" />
    <glyph glyph-name="B.ss01" horiz-adv-x="1462" 
d="M825 0h-673v1597h704q225 0 352 -113.5t127 -297.5q0 -125 -73 -215.5t-232 -128.5v-41q87 -16 149.5 -40t113.5 -65t76.5 -105t25.5 -151q0 -105 -39 -185.5t-97.5 -127.5t-138 -77t-150.5 -40t-145 -10zM477 924l37 -21q42 28 84 42.5t67 17t66 2.5q31 0 56 2t58 10.5
t55 23.5t38 44t16 69q0 148 -213 148q-9 0 -34.5 -0.5t-36.5 -0.5t-34.5 3t-40 8.5t-39.5 17t-46 27.5l-43 -21q34 -95 36 -178.5t-26 -193.5zM469 319l41 -40q45 27 92.5 40t75.5 15t78 2q250 0 250 158q0 50 -24.5 84t-66 48.5t-75.5 19.5t-72 5q-48 0 -77 2.5t-77 16.5
t-96 43l-41 -21q28 -115 26 -200t-34 -173z" />
    <glyph glyph-name="C.ss01" horiz-adv-x="1695" 
d="M907 -35q-240 0 -429 103t-297.5 296t-108.5 443q0 197 69.5 357t185.5 260t261 153t303 53q263 0 459.5 -141t283.5 -373l-338 -135q-132 307 -411 307q-193 0 -313.5 -137t-120.5 -363q0 -104 28 -188.5t73.5 -138t106.5 -89t122.5 -50.5t125.5 -15q149 0 265.5 86.5
t175.5 263.5l338 -114q-41 -124 -103 -222.5t-136.5 -164.5t-164 -109.5t-182 -62.5t-193.5 -19z" />
    <glyph glyph-name="D.ss01" horiz-adv-x="1619" 
d="M807 0h-655v1597h636q156 0 283 -40.5t214.5 -112t146.5 -171.5t86.5 -216t27.5 -248q0 -238 -87 -420t-255.5 -285.5t-396.5 -103.5zM469 319l41 -40q42 27 89.5 40t76.5 15t80 2q409 0 409 457q0 76 -12 139.5t-30 109t-48 81.5t-57 58.5t-67 39t-68 24.5t-70 12
t-62.5 4.5t-54.5 0.5q-39 0 -60 2t-56 14.5t-70 38.5l-43 -21q121 -508 2 -977z" />
    <glyph glyph-name="E.ss01" horiz-adv-x="1323" 
d="M1231 0h-1079v1597h1058v-335q-143 0 -224 2t-215.5 14.5t-260.5 38.5l-43 -21q35 -94 36.5 -175.5t-26.5 -194.5l25 -21q120 37 248.5 56t205 21.5t213.5 2.5v-354q-103 0 -160 1.5t-149 8.5t-177.5 25.5t-176.5 48.5l-29 -21q28 -120 26.5 -205t-34.5 -170l41 -40
q128 27 266.5 40t222 15t232.5 2v-336z" />
    <glyph glyph-name="F.ss01" horiz-adv-x="1265" 
d="M514 0h-362v1597h1042v-335q-142 0 -221 2t-210.5 14.5t-252.5 38.5l-43 -21q39 -105 37.5 -196.5t-43.5 -216.5l24 -21q125 38 254.5 57.5t205 22t208.5 2.5v-354q-137 0 -213.5 2.5t-204 22t-246.5 57.5l-28 -21q25 -120 37 -246t14 -200t2 -205z" />
    <glyph glyph-name="G.ss01" horiz-adv-x="1730" 
d="M903 -35q-251 0 -440 102.5t-290 290t-101 435.5q0 136 31.5 255t88 210t133 162.5t168 117t191.5 69t205 23.5q269 0 466.5 -143.5t278.5 -370.5l-338 -135q-134 307 -409 307q-191 0 -313.5 -135t-122.5 -360q0 -158 65 -269.5t171.5 -164t242.5 -52.5q64 0 120.5 13
t119.5 44t128.5 91t131.5 147l-39 41q-91 -41 -176.5 -61.5t-136.5 -24t-152 -6.5v295h735v-111q0 -358 -199 -564t-559 -206z" />
    <glyph glyph-name="H.ss01" horiz-adv-x="1662" 
d="M514 0h-362v1597h362q0 -138 -1.5 -214t-10 -204t-25.5 -255l37 -21q171 58 319 58.5t316 -58.5l37 21q-17 127 -25.5 255t-10 204t-1.5 214h362v-1597h-362q0 133 1.5 205.5t10 195t25.5 246.5l-41 21q-162 -58 -310.5 -57.5t-316.5 57.5l-41 -21q17 -124 25.5 -246.5
t10 -195t1.5 -205.5z" />
    <glyph glyph-name="I.ss01" horiz-adv-x="1226" 
d="M1137 0h-1047v336q76 0 119 -1.5t117 -11t147 -28.5q-59 504 0 1008q-74 -19 -150 -28.5t-120.5 -11t-122.5 -1.5v335h1067v-335q-78 0 -122.5 1.5t-120.5 11t-150 28.5q59 -504 0 -1008q73 19 147 28.5t117 11t119 1.5v-336z" />
    <glyph glyph-name="Iacute.ss01" horiz-adv-x="1226" 
d="M1063 2095l-322 -375h-309l221 375h410zM1137 0h-1047v336q76 0 119 -1.5t117 -11t147 -28.5q-59 504 0 1008q-74 -19 -150 -28.5t-120.5 -11t-122.5 -1.5v335h1067v-335q-78 0 -122.5 1.5t-120.5 11t-150 28.5q59 -504 0 -1008q73 19 147 28.5t117 11t119 1.5v-336z" />
    <glyph glyph-name="Icircumflex.ss01" horiz-adv-x="1226" 
d="M477 1720h-317l299 375h317l299 -375h-317q-28 29 -42.5 48.5t-32 67t-24.5 112.5h-81q-7 -65 -24.5 -112t-33.5 -68t-43 -48zM1137 0h-1047v336q76 0 119 -1.5t117 -11t147 -28.5q-59 504 0 1008q-74 -19 -150 -28.5t-120.5 -11t-122.5 -1.5v335h1067v-335
q-78 0 -122.5 1.5t-120.5 11t-150 28.5q59 -504 0 -1008q73 19 147 28.5t117 11t119 1.5v-336z" />
    <glyph glyph-name="Idieresis.ss01" horiz-adv-x="1226" 
d="M371 1712q-85 0 -142 57.5t-57 143.5q0 80 57.5 136t141.5 56q81 0 137.5 -56t56.5 -136q0 -86 -56 -143.5t-138 -57.5zM862 1712q-85 0 -141.5 57.5t-56.5 143.5q0 80 57 136t141 56q82 0 138.5 -56t56.5 -136q0 -86 -56.5 -143.5t-138.5 -57.5zM1137 0h-1047v336
q76 0 119 -1.5t117 -11t147 -28.5q-59 504 0 1008q-74 -19 -150 -28.5t-120.5 -11t-122.5 -1.5v335h1067v-335q-78 0 -122.5 1.5t-120.5 11t-150 28.5q59 -504 0 -1008q73 19 147 28.5t117 11t119 1.5v-336z" />
    <glyph glyph-name="Idotaccent.ss01" horiz-adv-x="1226" 
d="M616 1743q-87 0 -144.5 59t-57.5 146q0 81 58 138.5t144 57.5q84 0 141.5 -58t57.5 -138q0 -86 -57 -145.5t-142 -59.5zM1137 0h-1047v336q76 0 119 -1.5t117 -11t147 -28.5q-59 504 0 1008q-74 -19 -150 -28.5t-120.5 -11t-122.5 -1.5v335h1067v-335q-78 0 -122.5 1.5
t-120.5 11t-150 28.5q59 -504 0 -1008q73 19 147 28.5t117 11t119 1.5v-336z" />
    <glyph glyph-name="Igrave.ss01" horiz-adv-x="1226" 
d="M799 1720h-310l-321 375h410zM1137 0h-1047v336q76 0 119 -1.5t117 -11t147 -28.5q-59 504 0 1008q-74 -19 -150 -28.5t-120.5 -11t-122.5 -1.5v335h1067v-335q-78 0 -122.5 1.5t-120.5 11t-150 28.5q59 -504 0 -1008q73 19 147 28.5t117 11t119 1.5v-336z" />
    <glyph glyph-name="Imacron.ss01" horiz-adv-x="1226" 
d="M1006 1741h-783v250h783v-250zM1137 0h-1047v336q76 0 119 -1.5t117 -11t147 -28.5q-59 504 0 1008q-74 -19 -150 -28.5t-120.5 -11t-122.5 -1.5v335h1067v-335q-78 0 -122.5 1.5t-120.5 11t-150 28.5q59 -504 0 -1008q73 19 147 28.5t117 11t119 1.5v-336z" />
    <glyph glyph-name="J.ss01" horiz-adv-x="1333" 
d="M647 -35q-177 0 -313.5 65t-215.5 194t-79 304v60l362 49v-55q0 -122 57 -198.5t171 -76.5q202 0 202 277q0 142 2 229t13 232.5t33 291.5l-21 39q-169 -61 -306 -87.5t-278 -26.5v335h920v-962q0 -43 -0.5 -70.5t-5.5 -85t-14 -98t-28 -98t-45.5 -98.5t-68.5 -85
t-95 -71.5t-127.5 -45.5t-162.5 -18z" />
    <glyph glyph-name="K.ss01" horiz-adv-x="1515" 
d="M514 0h-362v1597h362q0 -26 1 -107.5t0 -122t-3.5 -109.5t-9.5 -131.5t-19 -127.5h41q197 247 541 598h481l-829 -784v-41q147 -116 276 -234t313 -303t236 -235h-502q-8 8 -63 62.5t-68.5 69t-62 65t-68 75.5t-60 75.5t-65.5 89.5t-57 93t-59 109h-41q18 -301 18 -639z
" />
    <glyph glyph-name="L.ss01" horiz-adv-x="1198" 
d="M1174 0h-1022v1597h362q0 -280 -1.5 -435t-12 -397.5t-31.5 -445.5l41 -40q115 27 242 40t205 15t217 2v-336z" />
    <glyph glyph-name="M.ss01" horiz-adv-x="2052" 
d="M520 0h-368v1597h436q74 -140 112 -213t98.5 -200t107.5 -250.5t89 -259.5h62q42 136 89 259.5t107.5 250.5t98.5 200t112 213h437v-1597h-369q0 32 -1 216t0 260t8.5 226.5t21.5 286.5h-41l-377 -743h-234l-377 743h-40q14 -135 21.5 -284.5t8 -230.5t-0.5 -256t-1 -218
z" />
    <glyph glyph-name="N.ss01" horiz-adv-x="1662" 
d="M514 0h-362v1597h374q135 -206 197 -302.5t181 -304.5t224 -425h62q-19 218 -28.5 421t-11 312.5t-1.5 298.5h362v-1597h-374q-100 152 -146.5 224.5t-133.5 214.5t-164 285.5t-158 309.5h-62q19 -218 28.5 -421.5t11 -313.5t1.5 -299z" />
    <glyph glyph-name="O.ss01" horiz-adv-x="1761" 
d="M881 -35q-166 0 -314.5 61t-258.5 168.5t-174 264t-64 338.5q0 146 41 276.5t116 231.5t175.5 174.5t223 112t255.5 38.5q167 0 316 -61.5t258 -170t173 -264.5t64 -337q0 -179 -63.5 -335t-172 -264.5t-258 -170.5t-317.5 -62zM883 307q187 0 307.5 139t120.5 351
q0 136 -53 247.5t-151.5 177.5t-223.5 66q-186 0 -309 -139t-123 -352q0 -216 123.5 -353t308.5 -137z" />
    <glyph glyph-name="P.ss01" horiz-adv-x="1392" 
d="M514 0h-362v1597h636q21 0 38.5 -0.5t60.5 -5.5t79 -13.5t86 -26.5t89.5 -43t81 -65.5t69 -90t45 -120.5t17.5 -155q0 -103 -28.5 -187t-71.5 -137t-103 -92t-112.5 -58t-111 -30.5t-88 -13.5t-53.5 -2q-60 0 -95 2.5t-96 22t-122 57.5q19 -121 28.5 -247.5t11 -198.5
t1.5 -193zM473 829l37 -18q36 37 76 56t64.5 21.5t66.5 2.5q27 0 45 1t52.5 5.5t58.5 17t49 32t38 53.5t13 79q0 38 -10.5 67.5t-25.5 48.5t-39.5 32.5t-44 20t-47.5 10t-42.5 4t-36.5 0.5q-48 0 -74 2t-66.5 14.5t-76.5 38.5l-43 -21q35 -125 35.5 -231.5t-29.5 -235.5z
" />
    <glyph glyph-name="Q.ss01" horiz-adv-x="1761" 
d="M659 -180v-41q140 36 267 58.5t253 31t202.5 10.5t211.5 2v-311h-1538q85 96 247 275.5t192 213.5q-194 103 -309 296t-115 442q0 146 41 276.5t116 231.5t175.5 174.5t223 112t255.5 38.5q167 0 316 -61.5t258 -170t173 -264.5t64 -337q0 -179 -63.5 -335t-172 -264.5
t-258 -170.5t-317.5 -62h-29q-77 -64 -193 -145zM883 1288q-186 0 -309 -139t-123 -352q0 -216 123.5 -353t308.5 -137q187 0 307.5 139t120.5 351q0 136 -53 247.5t-151.5 177.5t-223.5 66z" />
    <glyph glyph-name="R.ss01" horiz-adv-x="1441" 
d="M514 0h-362v1597h636q15 0 31 -0.5t57.5 -5.5t78 -13.5t86.5 -27t91.5 -44t84 -66.5t71.5 -91.5t47.5 -122.5t18.5 -157q0 -88 -22.5 -157.5t-60.5 -118.5t-100 -88t-129 -64.5t-159 -50.5q24 -24 51 -52t49.5 -51.5t54.5 -58t51.5 -56t56 -62t52.5 -58.5t57 -64
t53.5 -60.5t57.5 -65.5t55 -62h-417q-164 181 -283.5 334t-226.5 338h-21q19 -139 28.5 -273.5t11 -206.5t1.5 -192zM473 807l37 -19q48 37 97.5 48.5t109.5 11.5q25 0 54.5 5t66.5 19.5t66 37t49 63t20 92.5q0 50 -19.5 88.5t-47 59.5t-63.5 34t-63.5 17t-52.5 4
q-42 0 -66 1.5t-66 13t-85 34.5l-43 -21q67 -231 6 -489z" />
    <glyph glyph-name="S.ss01" horiz-adv-x="1351" 
d="M694 -35q-252 0 -422 127.5t-223 347.5l338 115q73 -260 301 -260q97 0 159 41.5t62 112.5q0 31 -14 57t-34.5 44.5t-55 35.5t-65 28t-74.5 25l-142 43q-57 17 -105 36.5t-110 58t-104.5 85t-72.5 120t-30 161.5q0 217 159 352t405 135q117 0 218 -32.5t170.5 -86.5
t114.5 -118t62 -131l-332 -136q-72 177 -235 177q-83 0 -132 -38t-49 -94q0 -35 19.5 -64t58.5 -52t78.5 -39t97.5 -35l174 -55q28 -9 48 -15.5t53 -20t57 -27t55 -34.5t53.5 -43.5t46 -53.5t38 -66t23.5 -79.5t9 -94.5q0 -110 -40.5 -205.5t-115.5 -167t-189.5 -113
t-254.5 -41.5z" />
    <glyph glyph-name="U.ss01" horiz-adv-x="1536" 
d="M666 -35q-85 0 -157 21t-123 54t-92 82.5t-66 97t-44 107t-27.5 103t-13.5 95.5t-5.5 73.5t-0.5 46.5v952h363v-921q0 -369 245 -369q70 0 123 31.5t81 75t45.5 99t22.5 94t5 69.5v921h362v-1597h-342q0 98 37 262h-41q-44 -151 -127.5 -224t-244.5 -73z" />
    <glyph glyph-name="Uacute.ss01" horiz-adv-x="1536" 
d="M1198 2095l-321 -375h-310l221 375h410zM666 -35q-85 0 -157 21t-123 54t-92 82.5t-66 97t-44 107t-27.5 103t-13.5 95.5t-5.5 73.5t-0.5 46.5v952h363v-921q0 -369 245 -369q70 0 123 31.5t81 75t45.5 99t22.5 94t5 69.5v921h362v-1597h-342q0 98 37 262h-41
q-44 -151 -127.5 -224t-244.5 -73z" />
    <glyph glyph-name="Ucircumflex.ss01" horiz-adv-x="1536" 
d="M612 1720h-317l299 375h317l299 -375h-317q-27 29 -42 48.5t-32 67t-24 112.5h-82q-7 -65 -24.5 -112t-33.5 -68t-43 -48zM666 -35q-85 0 -157 21t-123 54t-92 82.5t-66 97t-44 107t-27.5 103t-13.5 95.5t-5.5 73.5t-0.5 46.5v952h363v-921q0 -369 245 -369
q70 0 123 31.5t81 75t45.5 99t22.5 94t5 69.5v921h362v-1597h-342q0 98 37 262h-41q-44 -151 -127.5 -224t-244.5 -73z" />
    <glyph glyph-name="Udieresis.ss01" horiz-adv-x="1536" 
d="M506 1712q-85 0 -142 57.5t-57 143.5q0 80 57.5 136t141.5 56q81 0 137.5 -56t56.5 -136q0 -86 -56 -143.5t-138 -57.5zM997 1712q-85 0 -141.5 57.5t-56.5 143.5q0 80 57 136t141 56q82 0 138.5 -56t56.5 -136q0 -86 -56.5 -143.5t-138.5 -57.5zM666 -35q-85 0 -157 21
t-123 54t-92 82.5t-66 97t-44 107t-27.5 103t-13.5 95.5t-5.5 73.5t-0.5 46.5v952h363v-921q0 -369 245 -369q70 0 123 31.5t81 75t45.5 99t22.5 94t5 69.5v921h362v-1597h-342q0 98 37 262h-41q-44 -151 -127.5 -224t-244.5 -73z" />
    <glyph glyph-name="Ugrave.ss01" horiz-adv-x="1536" 
d="M934 1720h-309l-322 375h410zM666 -35q-85 0 -157 21t-123 54t-92 82.5t-66 97t-44 107t-27.5 103t-13.5 95.5t-5.5 73.5t-0.5 46.5v952h363v-921q0 -369 245 -369q70 0 123 31.5t81 75t45.5 99t22.5 94t5 69.5v921h362v-1597h-342q0 98 37 262h-41q-44 -151 -127.5 -224
t-244.5 -73z" />
    <glyph glyph-name="Uhungarumlaut.ss01" horiz-adv-x="1536" 
d="M938 2093l-320 -373h-294l219 373h395zM1458 2093l-319 -373h-295l219 373h395zM666 -35q-85 0 -157 21t-123 54t-92 82.5t-66 97t-44 107t-27.5 103t-13.5 95.5t-5.5 73.5t-0.5 46.5v952h363v-921q0 -369 245 -369q70 0 123 31.5t81 75t45.5 99t22.5 94t5 69.5v921h362
v-1597h-342q0 98 37 262h-41q-44 -151 -127.5 -224t-244.5 -73z" />
    <glyph glyph-name="Umacron.ss01" horiz-adv-x="1536" 
d="M1141 1741h-783v250h783v-250zM666 -35q-85 0 -157 21t-123 54t-92 82.5t-66 97t-44 107t-27.5 103t-13.5 95.5t-5.5 73.5t-0.5 46.5v952h363v-921q0 -369 245 -369q70 0 123 31.5t81 75t45.5 99t22.5 94t5 69.5v921h362v-1597h-342q0 98 37 262h-41
q-44 -151 -127.5 -224t-244.5 -73z" />
    <glyph glyph-name="Uogonek.ss01" horiz-adv-x="1536" 
d="M1298 -250q60 0 91 10v-204q-53 -19 -146 -19q-85 0 -155.5 24t-118 79.5t-47.5 134.5q0 67 46.5 128t131.5 97h-58q0 98 37 262h-41q-44 -151 -127.5 -224t-244.5 -73q-85 0 -157 21t-123 54t-92 82.5t-66 97t-44 107t-27.5 103t-13.5 95.5t-5.5 73.5t-0.5 46.5v952h363
v-921q0 -369 245 -369q70 0 123 31.5t81 75t45.5 99t22.5 94t5 69.5v921h362v-1597h-61q-51 -6 -87 -23t-51.5 -40t-21.5 -41t-6 -35q0 -40 33 -75.5t108 -35.5z" />
    <glyph glyph-name="Uring.ss01" horiz-adv-x="1536" 
d="M750 1708q-115 0 -195 76t-80 184q0 110 79.5 185t195.5 75q115 0 193.5 -74t78.5 -186t-78.5 -186t-193.5 -74zM750 1864q42 0 70 31t28 73q0 41 -28 72t-70 31q-45 0 -73 -30.5t-28 -72.5q0 -43 27.5 -73.5t73.5 -30.5zM666 -35q-85 0 -157 21t-123 54t-92 82.5t-66 97
t-44 107t-27.5 103t-13.5 95.5t-5.5 73.5t-0.5 46.5v952h363v-921q0 -369 245 -369q70 0 123 31.5t81 75t45.5 99t22.5 94t5 69.5v921h362v-1597h-342q0 98 37 262h-41q-44 -151 -127.5 -224t-244.5 -73z" />
    <glyph glyph-name="V.ss01" horiz-adv-x="1615" 
d="M1034 0h-469l-569 1597h381q230 -639 399 -1159h58q171 520 405 1159h381z" />
    <glyph glyph-name="W.ss01" horiz-adv-x="2387" 
d="M901 0h-459l-434 1597h418l207 -1081h45l248 1081h536l248 -1081h45l207 1081h418l-434 -1597h-453l-256 1219h-86z" />
    <glyph glyph-name="Wacute.ss01" horiz-adv-x="2387" 
d="M1683 2095l-321 -375h-309l221 375h409zM901 0h-459l-434 1597h418l207 -1081h45l248 1081h536l248 -1081h45l207 1081h418l-434 -1597h-453l-256 1219h-86z" />
    <glyph glyph-name="Wcircumflex.ss01" horiz-adv-x="2387" 
d="M1057 1720h-318l299 375h318l299 -375h-318q-27 29 -42 48.5t-32 67t-24 112.5h-82q-8 -65 -25 -112t-32.5 -68t-42.5 -48zM901 0h-459l-434 1597h418l207 -1081h45l248 1081h536l248 -1081h45l207 1081h418l-434 -1597h-453l-256 1219h-86z" />
    <glyph glyph-name="Wdieresis.ss01" horiz-adv-x="2387" 
d="M950 1712q-85 0 -141.5 57.5t-56.5 143.5q0 80 57 136t141 56q82 0 138.5 -56t56.5 -136q0 -86 -56.5 -143.5t-138.5 -57.5zM1442 1712q-85 0 -142 57.5t-57 143.5q0 80 57.5 136t141.5 56q81 0 137.5 -56t56.5 -136q0 -86 -56 -143.5t-138 -57.5zM901 0h-459l-434 1597
h418l207 -1081h45l248 1081h536l248 -1081h45l207 1081h418l-434 -1597h-453l-256 1219h-86z" />
    <glyph glyph-name="Wgrave.ss01" horiz-adv-x="2387" 
d="M1378 1720h-309l-321 375h409zM901 0h-459l-434 1597h418l207 -1081h45l248 1081h536l248 -1081h45l207 1081h418l-434 -1597h-453l-256 1219h-86z" />
    <glyph glyph-name="X.ss01" horiz-adv-x="1499" 
d="M399 0h-407l512 791v45l-516 761h407q152 -247 336 -610h45q195 378 340 610h393l-512 -761v-45l510 -791h-397q-136 219 -334 606h-45q-177 -353 -332 -606z" />
    <glyph glyph-name="Y.ss01" horiz-adv-x="1509" 
d="M670 0h-394q98 177 177.5 306.5t177.5 256.5q-107 161 -222 352.5t-191.5 328.5t-194.5 353h393q63 -119 91 -174t79 -161t89.5 -204t72.5 -206h45q47 142 109 284.5t108 231t123 229.5h393z" />
    <glyph glyph-name="Yacute.ss01" horiz-adv-x="1509" 
d="M1239 2095l-321 -375h-310l221 375h410zM670 0h-394q98 177 177.5 306.5t177.5 256.5q-107 161 -222 352.5t-191.5 328.5t-194.5 353h393q63 -119 91 -174t79 -161t89.5 -204t72.5 -206h45q47 142 109 284.5t108 231t123 229.5h393z" />
    <glyph glyph-name="Ycircumflex.ss01" horiz-adv-x="1509" 
d="M633 1720h-318l299 375h318l299 -375h-318q-27 29 -42 48.5t-32 67t-24 112.5h-82q-8 -65 -25 -112t-32.5 -68t-42.5 -48zM670 0h-394q98 177 177.5 306.5t177.5 256.5q-107 161 -222 352.5t-191.5 328.5t-194.5 353h393q63 -119 91 -174t79 -161t89.5 -204t72.5 -206h45
q47 142 109 284.5t108 231t123 229.5h393z" />
    <glyph glyph-name="Ydieresis.ss01" horiz-adv-x="1509" 
d="M526 1712q-85 0 -141.5 57.5t-56.5 143.5q0 80 57 136t141 56q82 0 138.5 -56t56.5 -136q0 -86 -56.5 -143.5t-138.5 -57.5zM1018 1712q-85 0 -142 57.5t-57 143.5q0 80 57.5 136t141.5 56q81 0 137.5 -56t56.5 -136q0 -86 -56 -143.5t-138 -57.5zM670 0h-394
q98 177 177.5 306.5t177.5 256.5q-107 161 -222 352.5t-191.5 328.5t-194.5 353h393q63 -119 91 -174t79 -161t89.5 -204t72.5 -206h45q47 142 109 284.5t108 231t123 229.5h393z" />
    <glyph glyph-name="Ygrave.ss01" horiz-adv-x="1509" 
d="M954 1720h-309l-321 375h409zM670 0h-394q98 177 177.5 306.5t177.5 256.5q-107 161 -222 352.5t-191.5 328.5t-194.5 353h393q63 -119 91 -174t79 -161t89.5 -204t72.5 -206h45q47 142 109 284.5t108 231t123 229.5h393z" />
    <glyph glyph-name="Z.ss01" horiz-adv-x="1443" 
d="M1360 0h-1383q521 797 865 1282l-21 53q-96 -27 -186.5 -43.5t-189 -22.5t-155.5 -7.5t-167 -1.5v337h1317q-529 -825 -846 -1280l20 -57q133 35 276.5 53t230 20.5t239.5 2.5v-336z" />
    <glyph glyph-name="Zacute.ss01" horiz-adv-x="1443" 
d="M1214 2095l-321 -375h-309l221 375h409zM1360 0h-1383q521 797 865 1282l-21 53q-96 -27 -186.5 -43.5t-189 -22.5t-155.5 -7.5t-167 -1.5v337h1317q-529 -825 -846 -1280l20 -57q133 35 276.5 53t230 20.5t239.5 2.5v-336z" />
    <glyph glyph-name="Zcaron.ss01" horiz-adv-x="1443" 
d="M889 1720h-330l-293 375h318q27 -27 42.5 -47.5t33 -67.5t24.5 -112h82q5 50 14.5 87t25.5 64t26.5 40.5t31.5 35.5h318zM1360 0h-1383q521 797 865 1282l-21 53q-96 -27 -186.5 -43.5t-189 -22.5t-155.5 -7.5t-167 -1.5v337h1317q-529 -825 -846 -1280l20 -57
q133 35 276.5 53t230 20.5t239.5 2.5v-336z" />
    <glyph glyph-name="Zdotaccent.ss01" horiz-adv-x="1443" 
d="M748 1743q-87 0 -145 59t-58 146q0 81 58 138.5t145 57.5q84 0 141 -57.5t57 -138.5q0 -87 -57 -146t-141 -59zM1360 0h-1383q521 797 865 1282l-21 53q-96 -27 -186.5 -43.5t-189 -22.5t-155.5 -7.5t-167 -1.5v337h1317q-529 -825 -846 -1280l20 -57q133 35 276.5 53
t230 20.5t239.5 2.5v-336z" />
    <glyph glyph-name="Q.ss02" horiz-adv-x="1761" 
d="M1024 -18q2 -7 4 -14.5t3 -13.5t2 -15t1.5 -14.5t0 -16t-0.5 -15t-1 -17.5t-1.5 -17t-2 -19.5t-1.5 -19.5q91 28 187 42.5t153.5 16.5t159.5 2v-311q-178 0 -274.5 1.5t-238.5 11t-247 28.5q-26 219 -10 366q-304 48 -496 271t-192 549q0 146 41 276.5t116 231.5
t175.5 174.5t223 112t255.5 38.5q167 0 316 -61.5t258 -170t173 -264.5t64 -337q0 -316 -185 -537.5t-483 -277.5zM451 797q0 -166 80.5 -290t230.5 -188q-16 66 -24.5 134.5t-9.5 108t-1 108.5h342q0 -71 -1.5 -110.5t-11.5 -105t-30 -124.5q139 68 212 189.5t73 277.5
q0 136 -53 247.5t-151.5 177.5t-223.5 66q-186 0 -309 -139t-123 -352z" />
    <glyph glyph-name="A.ss07" 
d="M1020 -315q-197 0 -371.5 71t-298.5 193.5t-196 293.5t-72 365q0 198 72 372.5t196 298.5t298 195.5t372 71.5q200 0 375.5 -71.5t301 -195.5t197.5 -298.5t72 -372.5q0 -259 -123 -470.5t-339.5 -332t-483.5 -120.5zM895 1096l-356 -963h239q56 136 60 227l12 11
q88 -15 174 -15q90 0 176 15l10 -11q6 -83 60 -227h248l-357 963h-266zM920 541l-5 4q42 85 64 165t29 193h34q7 -113 29 -193t64 -165l-5 -4q-58 12 -106 12q-46 0 -104 -12z" />
    <glyph glyph-name="B.ss07" 
d="M1020 -315q-197 0 -371.5 71t-298.5 193.5t-196 293.5t-72 365q0 198 72 372.5t196 298.5t298 195.5t372 71.5q200 0 375.5 -71.5t301 -195.5t197.5 -298.5t72 -372.5q0 -259 -123 -470.5t-339.5 -332t-483.5 -120.5zM686 1096v-963h408q56 0 110.5 11.5t110.5 39
t90.5 83.5t34.5 134q0 95 -51.5 147.5t-165.5 74.5v12q89 22 135.5 75.5t46.5 133.5q0 116 -79.5 184t-213.5 68h-426zM909 686l-12 6q28 119 -6 213l14 8q14 -9 28 -15.5t24 -10t24 -5t20.5 -2t22.5 0t20 0.5q117 0 117 -78q0 -82 -123 -82q-25 0 -39.5 -1t-39.5 -9.5
t-50 -24.5zM907 317l-16 17q34 90 6 213l14 8q27 -16 56 -24.5t46 -9.5t46 -1q133 0 133 -86t-139 -86q-89 0 -146 -31z" />
    <glyph glyph-name="C.ss07" 
d="M1020 -315q-197 0 -371.5 71t-298.5 193.5t-196 293.5t-72 365q0 198 72 372.5t196 298.5t298 195.5t372 71.5q200 0 375.5 -71.5t301 -195.5t197.5 -298.5t72 -372.5q0 -259 -123 -470.5t-339.5 -332t-483.5 -120.5zM1036 113q174 0 295.5 91.5t175.5 264.5l-215 72
q-32 -100 -98 -154.5t-158 -54.5q-38 0 -73.5 8.5t-70 29t-60.5 51t-42 79t-16 108.5q0 130 68.5 209.5t181.5 79.5q162 0 240 -184l215 86q-53 147 -174 232t-279 85q-95 0 -182.5 -32t-157.5 -92.5t-112 -156.5t-42 -214q0 -225 140.5 -366.5t363.5 -141.5z" />
    <glyph glyph-name="D.ss07" 
d="M1020 -315q-197 0 -371.5 71t-298.5 193.5t-196 293.5t-72 365q0 198 72 372.5t196 298.5t298 195.5t372 71.5q200 0 375.5 -71.5t301 -195.5t197.5 -298.5t72 -372.5q0 -259 -123 -470.5t-339.5 -332t-483.5 -120.5zM651 1096v-963h398q203 0 324.5 133t121.5 355
q0 224 -121.5 349.5t-337.5 125.5h-385zM872 317l-16 17q69 270 0 571l14 8q21 -15 43 -22.5t34 -8.5t36 -1q26 0 42.5 -0.5t47.5 -6t52 -15t47 -29.5t41.5 -48t26.5 -72t11 -100q0 -132 -57.5 -197t-175.5 -65q-93 0 -146 -31z" />
    <glyph glyph-name="E.ss07" 
d="M1020 -315q-197 0 -371.5 71t-298.5 193.5t-196 293.5t-72 365q0 198 72 372.5t196 298.5t298 195.5t372 71.5q200 0 375.5 -71.5t301 -195.5t197.5 -298.5t72 -372.5q0 -259 -123 -470.5t-339.5 -332t-483.5 -120.5zM696 1096v-963h656v215q-99 0 -141.5 -0.5
t-128.5 -8.5t-162 -24l-19 17q34 89 6 217l15 8q68 -24 145 -35.5t119 -12.5t131 -1v225q-89 0 -130.5 -1t-119 -12t-147.5 -34l-13 8q15 66 14 112.5t-20 98.5l17 8q76 -15 158.5 -22.5t127.5 -8.5t135 -1v215h-643z" />
    <glyph glyph-name="F.ss07" 
d="M1020 -315q-197 0 -371.5 71t-298.5 193.5t-196 293.5t-72 365q0 198 72 372.5t196 298.5t298 195.5t372 71.5q200 0 375.5 -71.5t301 -195.5t197.5 -298.5t72 -372.5q0 -259 -123 -470.5t-339.5 -332t-483.5 -120.5zM721 1096v-963h231q0 83 -1 123.5t-8 117t-21 148.5
l16 8q67 -23 144.5 -34t119 -12t129.5 -1v226q-87 0 -127.5 -1t-118.5 -12t-151 -34l-12 6q25 70 25.5 124t-21.5 113l16 8q74 -15 154.5 -22.5t125 -8.5t134.5 -1v215h-635z" />
    <glyph glyph-name="G.ss07" 
d="M1020 -315q-197 0 -371.5 71t-298.5 193.5t-196 293.5t-72 365q0 198 72 372.5t196 298.5t298 195.5t372 71.5q200 0 375.5 -71.5t301 -195.5t197.5 -298.5t72 -372.5q0 -259 -123 -470.5t-339.5 -332t-483.5 -120.5zM1006 113q109 0 181.5 46t131.5 150l16 -6
q-14 -34 -20 -63t-6.5 -41.5t2 -36.5t2.5 -29h178v518h-453v-192q4 0 30.5 0.5t37 1t37 2.5t44 5.5t42 9t47 14.5t45.5 20l14 -14q-66 -86 -136 -126t-155 -40q-35 0 -70 7.5t-72 27t-64.5 49.5t-45.5 79.5t-18 112.5q0 129 69 209t183 80q159 0 238 -184l215 86
q-51 146 -173 231.5t-280 85.5q-98 0 -187 -34t-157.5 -96.5t-109 -159t-40.5 -212.5q0 -220 133.5 -360.5t340.5 -140.5z" />
    <glyph glyph-name="H.ss07" 
d="M1020 -315q-197 0 -371.5 71t-298.5 193.5t-196 293.5t-72 365q0 198 72 372.5t196 298.5t298 195.5t372 71.5q200 0 375.5 -71.5t301 -195.5t197.5 -298.5t72 -372.5q0 -259 -123 -470.5t-339.5 -332t-483.5 -120.5zM612 1096v-963h232q0 229 -23 387l17 8
q101 -34 188.5 -34t181.5 34l17 -8q-3 -23 -6 -46.5t-5 -42t-3.5 -42t-2.5 -37.5t-2 -39t-1.5 -35.5t-0.5 -37.5v-34v-37v-36h232v963h-232v-36.5v-38.5v-36t0.5 -38.5t1.5 -36.5t2 -41t2.5 -39.5t3.5 -44t5 -43.5l6 -48l-15 -8q-95 34 -183 34t-191 -34l-15 8
q23 162 23 402h-232z" />
    <glyph glyph-name="I.ss07" 
d="M1020 -315q-197 0 -371.5 71t-298.5 193.5t-196 293.5t-72 365q0 198 72 372.5t196 298.5t298 195.5t372 71.5q200 0 375.5 -71.5t301 -195.5t197.5 -298.5t72 -372.5q0 -259 -123 -470.5t-339.5 -332t-483.5 -120.5zM913 1096v-963h232v963h-232z" />
    <glyph glyph-name="J.ss07" 
d="M1020 -315q-197 0 -371.5 71t-298.5 193.5t-196 293.5t-72 365q0 198 72 372.5t196 298.5t298 195.5t372 71.5q200 0 375.5 -71.5t301 -195.5t197.5 -298.5t72 -372.5q0 -259 -123 -470.5t-339.5 -332t-483.5 -120.5zM1004 123q68 0 122.5 18t88.5 43t58.5 66t36 73
t18 79t7 69t0.5 57v578h-231v-608q0 -156 -111 -156q-61 0 -94 40.5t-33 113.5v43l-231 -31v-43q0 -155 101 -248.5t268 -93.5z" />
    <glyph glyph-name="K.ss07" 
d="M1020 -315q-197 0 -371.5 71t-298.5 193.5t-196 293.5t-72 365q0 198 72 372.5t196 298.5t298 195.5t372 71.5q200 0 375.5 -71.5t301 -195.5t197.5 -298.5t72 -372.5q0 -259 -123 -470.5t-339.5 -332t-483.5 -120.5zM643 1096v-963h231q0 185 -10 289q16 8 34 23t27 24
t33 35h9q72 -128 241 -371h281q-84 121 -129 183t-124.5 159t-154.5 170v19q154 157 396 432h-275q-169 -188 -358 -428h-8q11 42 19 85t12 74t5.5 74.5t2 65t0 68t-0.5 61.5h-231z" />
    <glyph glyph-name="L.ss07" 
d="M1020 -315q-197 0 -371.5 71t-298.5 193.5t-196 293.5t-72 365q0 198 72 372.5t196 298.5t298 195.5t372 71.5q200 0 375.5 -71.5t301 -195.5t197.5 -298.5t72 -372.5q0 -259 -123 -470.5t-339.5 -332t-483.5 -120.5zM786 1096v-963h623v215q-93 0 -132.5 -0.5t-119 -8.5
t-147.5 -24l-19 19q27 260 27 762h-232z" />
    <glyph glyph-name="M.ss07" 
d="M1020 -315q-197 0 -371.5 71t-298.5 193.5t-196 293.5t-72 365q0 198 72 372.5t196 298.5t298 195.5t372 71.5q200 0 375.5 -71.5t301 -195.5t197.5 -298.5t72 -372.5q0 -259 -123 -470.5t-339.5 -332t-483.5 -120.5zM485 1096v-963h234v77v86.5t-1 77.5t-4 92t-7.5 85
t-11.5 100.5t-17 98.5h10q43 -117 90.5 -228t101 -225.5t74.5 -163.5h138q22 51 74.5 164t101 225t92.5 228h8q-10 -54 -17 -103.5t-11.5 -103t-7.5 -86t-4 -91t-1 -76v-83.5v-74h236v963h-258q-183 -341 -271 -658h-22q-88 317 -271 658h-256z" />
    <glyph glyph-name="N.ss07" 
d="M1020 -315q-197 0 -371.5 71t-298.5 193.5t-196 293.5t-72 365q0 198 72 372.5t196 298.5t298 195.5t372 71.5q200 0 375.5 -71.5t301 -195.5t197.5 -298.5t72 -372.5q0 -259 -123 -470.5t-339.5 -332t-483.5 -120.5zM625 1096v-963h231q0 371 -22 612h10
q81 -176 170.5 -310.5t222.5 -301.5h211v963h-231q0 -386 22 -635h-8q-86 189 -179.5 335.5t-215.5 299.5h-211z" />
    <glyph glyph-name="O.ss07" 
d="M1020 -315q-197 0 -371.5 71t-298.5 193.5t-196 293.5t-72 365q0 198 72 372.5t196 298.5t298 195.5t372 71.5q200 0 375.5 -71.5t301 -195.5t197.5 -298.5t72 -372.5q0 -259 -123 -470.5t-339.5 -332t-483.5 -120.5zM1026 113q211 0 350.5 143t139.5 358t-139.5 358.5
t-350.5 143.5q-209 0 -348 -143.5t-139 -358.5q0 -217 138 -359t349 -142zM780 614q0 122 70.5 202.5t177.5 80.5q106 0 176 -80.5t70 -202.5q0 -123 -70 -202.5t-176 -79.5q-107 0 -177.5 79.5t-70.5 202.5z" />
    <glyph glyph-name="P.ss07" 
d="M1020 -315q-197 0 -371.5 71t-298.5 193.5t-196 293.5t-72 365q0 198 72 372.5t196 298.5t298 195.5t372 71.5q200 0 375.5 -71.5t301 -195.5t197.5 -298.5t72 -372.5q0 -259 -123 -470.5t-339.5 -332t-483.5 -120.5zM711 1096v-963h231q0 228 -22 371q34 -19 68 -28.5
t54 -11t54 -1.5q14 0 31.5 1t53 8t67.5 19t68.5 36t62.5 56t43.5 83t17.5 114q0 65 -17.5 116.5t-43 84t-62.5 56t-67.5 34.5t-68 17t-53 7t-32.5 1h-385zM930 633l-12 4q33 142 -3 268l15 8q21 -15 46 -22.5t39.5 -8.5t43.5 -1q24 0 41 -2t43 -10.5t40.5 -31t14.5 -57.5
q0 -29 -11.5 -49.5t-26 -30.5t-38.5 -15.5t-36.5 -6t-32.5 -0.5q-24 0 -38 -1.5t-38.5 -12t-46.5 -31.5z" />
    <glyph glyph-name="Q.ss07" 
d="M1020 -315q-197 0 -371.5 71t-298.5 193.5t-196 293.5t-72 365q0 198 72 372.5t196 298.5t298 195.5t372 71.5q200 0 375.5 -71.5t301 -195.5t197.5 -298.5t72 -372.5q0 -259 -123 -470.5t-339.5 -332t-483.5 -120.5zM1354 35l168 139q-96 115 -166 160q164 132 164 356
q0 217 -142 359.5t-360 142.5q-217 0 -358.5 -142.5t-141.5 -359.5q0 -218 141.5 -360t358.5 -142q115 0 201 50q12 -35 38.5 -77t44 -63.5t52.5 -62.5zM754 690q0 128 73 205.5t193 77.5t192 -77.5t72 -205.5q0 -47 -2 -77.5t-14 -73.5t-35 -74q-21 76 -146 231l-167 -139
q34 -45 51.5 -67.5t51 -54.5t64.5 -46q-37 -6 -65 -6q-118 0 -193 86.5t-75 220.5z" />
    <glyph glyph-name="R.ss07" 
d="M1020 -315q-197 0 -371.5 71t-298.5 193.5t-196 293.5t-72 365q0 198 72 372.5t196 298.5t298 195.5t372 71.5q200 0 375.5 -71.5t301 -195.5t197.5 -298.5t72 -372.5q0 -259 -123 -470.5t-339.5 -332t-483.5 -120.5zM705 1096v-963h231q0 242 -23 373q61 -30 78 -33
l215 -340h262q-110 163 -167 230q-64 76 -136 139v12q50 4 95 19.5t85.5 44.5t64.5 79.5t24 116.5q0 58 -13 106t-37 80t-51 57t-61 39t-60.5 23t-56.5 12t-42 4t-23 1h-385zM924 618l-11 7q33 147 -4 280l17 8q51 -28 127 -28q19 0 39.5 -4.5t44.5 -15t39.5 -35t15.5 -58.5
q0 -35 -16 -60.5t-41 -38t-47 -17.5t-41 -5q-77 0 -123 -33z" />
    <glyph glyph-name="S.ss07" 
d="M1020 -315q-197 0 -371.5 71t-298.5 193.5t-196 293.5t-72 365q0 198 72 372.5t196 298.5t298 195.5t372 71.5q200 0 375.5 -71.5t301 -195.5t197.5 -298.5t72 -372.5q0 -259 -123 -470.5t-339.5 -332t-483.5 -120.5zM1042 113q163 0 264 88.5t101 230.5q0 54 -17.5 98
t-41 71t-59 49.5t-60 32t-55.5 19.5l-103 33q-69 22 -102 43t-33 56q0 29 25 47t65 18q92 0 135 -100l209 86q-17 89 -110 160t-232 71q-154 0 -252 -83.5t-98 -215.5q0 -55 19.5 -101t45.5 -75t66 -53t68 -35.5t63 -22.5l84 -24q62 -18 94.5 -39t32.5 -57t-31.5 -58
t-83.5 -22q-129 0 -170 151l-215 -73q31 -138 135.5 -216.5t255.5 -78.5z" />
    <glyph glyph-name="T.ss07" 
d="M1020 -315q-197 0 -371.5 71t-298.5 193.5t-196 293.5t-72 365q0 198 72 372.5t196 298.5t298 195.5t372 71.5q200 0 375.5 -71.5t301 -195.5t197.5 -298.5t72 -372.5q0 -259 -123 -470.5t-339.5 -332t-483.5 -120.5zM907 133h232q0 498 -23 770q108 -22 293 -22v215
h-772v-215q185 0 293 22q-23 -272 -23 -770z" />
    <glyph glyph-name="U.ss07" 
d="M1020 -315q-197 0 -371.5 71t-298.5 193.5t-196 293.5t-72 365q0 198 72 372.5t196 298.5t298 195.5t372 71.5q200 0 375.5 -71.5t301 -195.5t197.5 -298.5t72 -372.5q0 -259 -123 -470.5t-339.5 -332t-483.5 -120.5zM1020 123q379 0 379 412v571h-232v-553
q0 -109 -34.5 -160t-110.5 -51t-112 51t-36 160v553h-231v-571q0 -412 377 -412z" />
    <glyph glyph-name="V.ss07" 
d="M1020 -315q-197 0 -371.5 71t-298.5 193.5t-196 293.5t-72 365q0 198 72 372.5t196 298.5t298 195.5t372 71.5q200 0 375.5 -71.5t301 -195.5t197.5 -298.5t72 -372.5q0 -259 -123 -470.5t-339.5 -332t-483.5 -120.5zM559 1096l356 -963h269l354 963h-244
q-34 -85 -117.5 -340.5t-109.5 -401.5h-35q-7 47 -22.5 110.5t-35.5 130.5t-41.5 133t-44 130.5t-39 110t-31 85t-15.5 42.5h-244z" />
    <glyph glyph-name="W.ss07" 
d="M1020 -315q-197 0 -371.5 71t-298.5 193.5t-196 293.5t-72 365q0 198 72 372.5t196 298.5t298 195.5t372 71.5q200 0 375.5 -71.5t301 -195.5t197.5 -298.5t72 -372.5q0 -259 -123 -470.5t-339.5 -332t-483.5 -120.5zM311 1096l262 -963h285q113 376 156 662h22
q28 -184 63 -322.5t97 -339.5h281l262 963h-264q-99 -385 -138 -713h-10q-56 312 -174 713h-256q-123 -416 -174 -701h-10q-39 299 -138 701h-264z" />
    <glyph glyph-name="X.ss07" 
d="M1020 -315q-197 0 -371.5 71t-298.5 193.5t-196 293.5t-72 365q0 198 72 372.5t196 298.5t298 195.5t372 71.5q200 0 375.5 -71.5t301 -195.5t197.5 -298.5t72 -372.5q0 -259 -123 -470.5t-339.5 -332t-483.5 -120.5zM594 131h280q104 182 158 318h12q52 -143 152 -318
h281q-190 302 -318 471v21q111 143 326 473h-275q-95 -152 -166 -324h-12q-75 181 -164 324h-274q14 -21 74 -114.5t85.5 -132t73 -106t88.5 -120.5v-21q-134 -174 -321 -471z" />
    <glyph glyph-name="Y.ss07" 
d="M1020 -315q-197 0 -371.5 71t-298.5 193.5t-196 293.5t-72 365q0 198 72 372.5t196 298.5t298 195.5t372 71.5q200 0 375.5 -71.5t301 -195.5t197.5 -298.5t72 -372.5q0 -259 -123 -470.5t-339.5 -332t-483.5 -120.5zM909 133h230q0 226 -11 326q42 75 90.5 164t81 151.5
t87.5 167t81 154.5h-249q-129 -260 -189 -463h-12q-57 193 -191 463h-247q209 -408 340 -639q-11 -100 -11 -324z" />
    <glyph glyph-name="Z.ss07" 
d="M1020 -315q-197 0 -371.5 71t-298.5 193.5t-196 293.5t-72 365q0 198 72 372.5t196 298.5t298 195.5t372 71.5q200 0 375.5 -71.5t301 -195.5t197.5 -298.5t72 -372.5q0 -259 -123 -470.5t-339.5 -332t-483.5 -120.5zM637 319v-186h756v215q-268 0 -543 -69l-6 12
q318 322 538 616v189h-733v-215q249 0 510 71l6 -14q-296 -305 -528 -619z" />
    <glyph glyph-name="A.ss08" 
d="M1020 -315q-197 0 -371.5 71t-298.5 193.5t-196 293.5t-72 365q0 198 72 372.5t196 298.5t298 195.5t372 71.5q200 0 375.5 -71.5t301 -195.5t197.5 -298.5t72 -372.5q0 -259 -123 -470.5t-339.5 -332t-483.5 -120.5zM1020 -139q216 0 392 97.5t276 269t100 382.5
q0 214 -100 388t-276 273t-392 99q-213 0 -387.5 -99t-274.5 -273t-100 -388q0 -157 58.5 -296t160 -238.5t242.5 -157t301 -57.5zM879 322h-152l217 587h164l217 -587h-156q-1 4 -9.5 28.5t-12 36.5t-8.5 33.5t-6 40.5l-5 4q-55 -10 -104 -10q-46 0 -104 10l-5 -4
q-4 -55 -36 -139zM963 573q52 9 61 9q11 0 63 -9q-48 94 -55 213h-14q-7 -112 -55 -213z" />
    <glyph glyph-name="B.ss08" 
d="M1020 -315q-197 0 -371.5 71t-298.5 193.5t-196 293.5t-72 365q0 198 72 372.5t196 298.5t298 195.5t372 71.5q200 0 375.5 -71.5t301 -195.5t197.5 -298.5t72 -372.5q0 -259 -123 -470.5t-339.5 -332t-483.5 -120.5zM1020 -139q216 0 392 97.5t276 269t100 382.5
q0 214 -100 388t-276 273t-392 99q-213 0 -387.5 -99t-274.5 -273t-100 -388q0 -157 58.5 -296t160 -238.5t242.5 -157t301 -57.5zM1040 322h-249v587h260q82 0 131 -42.5t49 -112.5q0 -101 -111 -129v-2q69 -13 100 -46t31 -90q0 -48 -21 -83t-55.5 -51.5t-67 -23.5
t-67.5 -7zM926 664l2 -2q33 20 78 20q71 0 71 45t-67 45h-11.5h-13t-12.5 1t-15 3t-15 5.5t-17 9.5l-4 -3q18 -54 4 -124zM922 446l6 -6q37 19 88 19q80 0 80 47q0 49 -76 49q-53 0 -90 20l-4 -2q14 -76 -4 -127z" />
    <glyph glyph-name="C.ss08" 
d="M1020 -315q-197 0 -371.5 71t-298.5 193.5t-196 293.5t-72 365q0 198 72 372.5t196 298.5t298 195.5t372 71.5q200 0 375.5 -71.5t301 -195.5t197.5 -298.5t72 -372.5q0 -259 -123 -470.5t-339.5 -332t-483.5 -120.5zM1020 -139q216 0 392 97.5t276 269t100 382.5
q0 214 -100 388t-276 273t-392 99q-213 0 -387.5 -99t-274.5 -273t-100 -388q0 -157 58.5 -296t160 -238.5t242.5 -157t301 -57.5zM1030 309q-135 0 -220 86t-85 223q0 141 89 221.5t210 80.5q97 0 171 -53t105 -144l-135 -53q-46 112 -143 112q-66 0 -105.5 -47.5
t-39.5 -124.5q0 -84 45.5 -122.5t107.5 -38.5q114 0 152 126l137 -47q-32 -106 -107 -162.5t-182 -56.5z" />
    <glyph glyph-name="D.ss08" 
d="M1020 -315q-197 0 -371.5 71t-298.5 193.5t-196 293.5t-72 365q0 198 72 372.5t196 298.5t298 195.5t372 71.5q200 0 375.5 -71.5t301 -195.5t197.5 -298.5t72 -372.5q0 -259 -123 -470.5t-339.5 -332t-483.5 -120.5zM1020 -139q216 0 392 97.5t276 269t100 382.5
q0 214 -100 388t-276 273t-392 99q-213 0 -387.5 -99t-274.5 -273t-100 -388q0 -157 58.5 -296t160 -238.5t242.5 -157t301 -57.5zM1036 322h-241v587h235q131 0 205 -77.5t74 -213.5q0 -135 -74 -215.5t-199 -80.5zM926 446l6 -6q35 19 88 19q137 0 137 153q0 46 -12.5 78
t-28 47.5t-41.5 24t-40.5 9.5t-37.5 1q-39 0 -67 19l-4 -3q40 -176 0 -342z" />
    <glyph glyph-name="E.ss08" 
d="M1020 -315q-197 0 -371.5 71t-298.5 193.5t-196 293.5t-72 365q0 198 72 372.5t196 298.5t298 195.5t372 71.5q200 0 375.5 -71.5t301 -195.5t197.5 -298.5t72 -372.5q0 -259 -123 -470.5t-339.5 -332t-483.5 -120.5zM1020 -139q216 0 392 97.5t276 269t100 382.5
q0 214 -100 388t-276 273t-392 99q-213 0 -387.5 -99t-274.5 -273t-100 -388q0 -157 58.5 -296t160 -238.5t242.5 -157t301 -57.5zM1225 322h-402v587h396v-137q-152 0 -258 19l-7 -3q18 -52 4 -124l5 -2q42 13 89 20t72.5 7.5t79.5 0.5v-143h-24.5h-27t-24.5 0.5t-27 1
t-25 2t-28 3.5t-26.5 5t-29.5 7t-29 9l-5 -2q14 -76 -4 -127l9 -8q105 21 262 21v-137z" />
    <glyph glyph-name="F.ss08" 
d="M1020 -315q-197 0 -371.5 71t-298.5 193.5t-196 293.5t-72 365q0 198 72 372.5t196 298.5t298 195.5t372 71.5q200 0 375.5 -71.5t301 -195.5t197.5 -298.5t72 -372.5q0 -259 -123 -470.5t-339.5 -332t-483.5 -120.5zM1020 -139q216 0 392 97.5t276 269t100 382.5
q0 214 -100 388t-276 273t-392 99q-213 0 -387.5 -99t-274.5 -273t-100 -388q0 -157 58.5 -296t160 -238.5t242.5 -157t301 -57.5zM983 322h-145v587h389v-137q-151 0 -252 19l-6 -3q22 -65 -2 -139l4 -2q94 29 241 29v-144q-57 0 -80 0.5t-70.5 7.5t-88.5 21l-6 -4
q16 -82 16 -235z" />
    <glyph glyph-name="G.ss08" 
d="M1020 -315q-197 0 -371.5 71t-298.5 193.5t-196 293.5t-72 365q0 198 72 372.5t196 298.5t298 195.5t372 71.5q200 0 375.5 -71.5t301 -195.5t197.5 -298.5t72 -372.5q0 -259 -123 -470.5t-339.5 -332t-483.5 -120.5zM1020 -139q216 0 392 97.5t276 269t100 382.5
q0 214 -100 388t-276 273t-392 99q-213 0 -387.5 -99t-274.5 -273t-100 -388q0 -157 58.5 -296t160 -238.5t242.5 -157t301 -57.5zM1012 309q-126 0 -206.5 85.5t-80.5 219.5q0 135 84 220.5t215 85.5q97 0 171 -53t105 -144l-135 -53q-47 112 -141 112q-66 0 -106.5 -47.5
t-40.5 -124.5q0 -46 15 -79t40 -50t50.5 -24.5t53.5 -7.5q98 0 170 96l-4 4q-66 -31 -174 -31v121h281v-317h-115q0 2 -2 22t1 37.5t13 44.5h-4q-35 -62 -79.5 -89.5t-110.5 -27.5z" />
    <glyph glyph-name="H.ss08" 
d="M1020 -315q-197 0 -371.5 71t-298.5 193.5t-196 293.5t-72 365q0 198 72 372.5t196 298.5t298 195.5t372 71.5q200 0 375.5 -71.5t301 -195.5t197.5 -298.5t72 -372.5q0 -259 -123 -470.5t-339.5 -332t-483.5 -120.5zM1020 -139q216 0 392 97.5t276 269t100 382.5
q0 214 -100 388t-276 273t-392 99q-213 0 -387.5 -99t-274.5 -273t-100 -388q0 -157 58.5 -296t160 -238.5t242.5 -157t301 -57.5zM918 322h-146v587h146q0 -154 -13 -245l6 -2q117 39 226 0l4 2q-13 106 -13 245h146v-587h-146q0 131 13 235l-6 2q-106 -39 -224 0l-6 -2
q13 -89 13 -235z" />
    <glyph glyph-name="I.ss08" 
d="M1020 -315q-197 0 -371.5 71t-298.5 193.5t-196 293.5t-72 365q0 198 72 372.5t196 298.5t298 195.5t372 71.5q200 0 375.5 -71.5t301 -195.5t197.5 -298.5t72 -372.5q0 -259 -123 -470.5t-339.5 -332t-483.5 -120.5zM1020 -139q216 0 392 97.5t276 269t100 382.5
q0 214 -100 388t-276 273t-392 99q-213 0 -387.5 -99t-274.5 -273t-100 -388q0 -157 58.5 -296t160 -238.5t242.5 -157t301 -57.5zM1098 322h-146v587h146v-587z" />
    <glyph glyph-name="J.ss08" 
d="M1020 -315q-197 0 -371.5 71t-298.5 193.5t-196 293.5t-72 365q0 198 72 372.5t196 298.5t298 195.5t372 71.5q200 0 375.5 -71.5t301 -195.5t197.5 -298.5t72 -372.5q0 -259 -123 -470.5t-339.5 -332t-483.5 -120.5zM1020 -139q216 0 392 97.5t276 269t100 382.5
q0 214 -100 388t-276 273t-392 99q-213 0 -387.5 -99t-274.5 -273t-100 -388q0 -157 58.5 -296t160 -238.5t242.5 -157t301 -57.5zM1012 315q-103 0 -164.5 57t-61.5 152v29l146 20v-30q0 -43 19.5 -65.5t54.5 -22.5q63 0 63 90v370h145v-352q0 -31 -1 -51.5t-12 -61.5
t-30 -67t-60 -47t-99 -21z" />
    <glyph glyph-name="K.ss08" 
d="M1020 -315q-197 0 -371.5 71t-298.5 193.5t-196 293.5t-72 365q0 198 72 372.5t196 298.5t298 195.5t372 71.5q200 0 375.5 -71.5t301 -195.5t197.5 -298.5t72 -372.5q0 -259 -123 -470.5t-339.5 -332t-483.5 -120.5zM1020 -139q216 0 392 97.5t276 269t100 382.5
q0 214 -100 388t-276 273t-392 99q-213 0 -387.5 -99t-274.5 -273t-100 -388q0 -157 58.5 -296t160 -238.5t242.5 -157t301 -57.5zM938 322h-145v587h145v-32.5v-35.5t-0.5 -33t-2 -37.5t-4 -36t-6.5 -42.5t-10 -43q108 140 215 260h175q-115 -133 -242 -266v-8
q98 -98 248 -313h-176q-104 147 -148 223q-39 -39 -55 -47q6 -63 6 -176z" />
    <glyph glyph-name="L.ss08" 
d="M1020 -315q-197 0 -371.5 71t-298.5 193.5t-196 293.5t-72 365q0 198 72 372.5t196 298.5t298 195.5t372 71.5q200 0 375.5 -71.5t301 -195.5t197.5 -298.5t72 -372.5q0 -259 -123 -470.5t-339.5 -332t-483.5 -120.5zM1020 -139q216 0 392 97.5t276 269t100 382.5
q0 214 -100 388t-276 273t-392 99q-213 0 -387.5 -99t-274.5 -273t-100 -388q0 -157 58.5 -296t160 -238.5t242.5 -157t301 -57.5zM1257 322h-380v587h145q0 -325 -14 -463l8 -8q94 21 241 21v-137z" />
    <glyph glyph-name="M.ss08" 
d="M1020 1546q200 0 375.5 -71.5t301 -195.5t197.5 -298.5t72 -372.5q0 -259 -123 -470.5t-339.5 -332t-483.5 -120.5q-197 0 -371.5 71t-298.5 193.5t-196 293.5t-72 365q0 198 72 372.5t196 298.5t298 195.5t372 71.5zM1020 -139q216 0 392 97.5t276 269t100 382.5
q0 214 -100 388t-276 273t-392 99q-213 0 -387.5 -99t-274.5 -273t-100 -388q0 -157 58.5 -296t160 -238.5t242.5 -157t301 -57.5zM1020 512h8q55 197 164 397h160v-587h-148v45v50t0.5 46t2.5 53.5t4.5 51.5t7 61.5t10.5 62.5q-35 -94 -97 -229t-65 -141h-86
q-13 30 -44.5 96.5t-60 131t-53.5 132.5q6 -34 10 -70t6.5 -59.5t3.5 -63.5t1 -53.5v-60v-53.5h-148v587h160q109 -200 164 -397z" />
    <glyph glyph-name="N.ss08" 
d="M1020 -315q-197 0 -371.5 71t-298.5 193.5t-196 293.5t-72 365q0 198 72 372.5t196 298.5t298 195.5t372 71.5q200 0 375.5 -71.5t301 -195.5t197.5 -298.5t72 -372.5q0 -259 -123 -470.5t-339.5 -332t-483.5 -120.5zM1020 -139q216 0 392 97.5t276 269t100 382.5
q0 214 -100 388t-276 273t-392 99q-213 0 -387.5 -99t-274.5 -273t-100 -388q0 -157 58.5 -296t160 -238.5t242.5 -157t301 -57.5zM926 322h-146v587h131q153 -196 238 -385q-12 158 -12 385h145v-587h-131q-57 72 -87 112t-74 111t-79 145q15 -163 15 -368z" />
    <glyph glyph-name="O.ss08" 
d="M1020 -315q-197 0 -371.5 71t-298.5 193.5t-196 293.5t-72 365q0 198 72 372.5t196 298.5t298 195.5t372 71.5q200 0 375.5 -71.5t301 -195.5t197.5 -298.5t72 -372.5q0 -259 -123 -470.5t-339.5 -332t-483.5 -120.5zM1020 -139q216 0 392 97.5t276 269t100 382.5
q0 214 -100 388t-276 273t-392 99q-213 0 -387.5 -99t-274.5 -273t-100 -388q0 -157 58.5 -296t160 -238.5t242.5 -157t301 -57.5zM1026 309q-128 0 -212.5 86.5t-84.5 218.5q0 131 85 218.5t212 87.5q128 0 213.5 -88t85.5 -218t-85.5 -217.5t-213.5 -87.5zM1028 449
q62 0 102.5 46.5t40.5 118.5t-41 120t-102 48q-64 0 -105.5 -48t-41.5 -120t41.5 -118.5t105.5 -46.5z" />
    <glyph glyph-name="P.ss08" 
d="M1020 -315q-197 0 -371.5 71t-298.5 193.5t-196 293.5t-72 365q0 198 72 372.5t196 298.5t298 195.5t372 71.5q200 0 375.5 -71.5t301 -195.5t197.5 -298.5t72 -372.5q0 -259 -123 -470.5t-339.5 -332t-483.5 -120.5zM1020 -139q216 0 392 97.5t276 269t100 382.5
q0 214 -100 388t-276 273t-392 99q-213 0 -387.5 -99t-274.5 -273t-100 -388q0 -157 58.5 -296t160 -238.5t242.5 -157t301 -57.5zM977 322h-146v587h236q13 0 25 -1t40 -5.5t50.5 -17.5t46 -33t36.5 -55.5t13 -81.5q0 -53 -20 -92t-46 -58t-60.5 -30t-52.5 -13t-32 -2
q-59 0 -102 23q12 -77 12 -221zM965 631l2 -2q28 26 75 26q82 0 82 60q0 57 -77 57q-49 0 -80 19l-4 -3q19 -74 2 -157z" />
    <glyph glyph-name="Q.ss08" 
d="M1020 -315q-197 0 -371.5 71t-298.5 193.5t-196 293.5t-72 365q0 198 72 372.5t196 298.5t298 195.5t372 71.5q200 0 375.5 -71.5t301 -195.5t197.5 -298.5t72 -372.5q0 -259 -123 -470.5t-339.5 -332t-483.5 -120.5zM1020 -139q216 0 392 97.5t276 269t100 382.5
q0 214 -100 388t-276 273t-392 99q-213 0 -387.5 -99t-274.5 -273t-100 -388q0 -157 58.5 -296t160 -238.5t242.5 -157t301 -57.5zM1327 348l-104 -88q-69 78 -84 123q-51 -29 -119 -29q-132 0 -218.5 86.5t-86.5 218.5t86.5 219t218.5 87t218.5 -87t86.5 -219t-96 -213
q46 -33 98 -98zM1022 477q4 0 15 1t16 1q-7 4 -14.5 10t-13 10.5t-13.5 13t-11.5 12t-12.5 14.5t-10.5 13t-11.5 15l-10 13l105 88q70 -82 90 -136q27 40 27 127q0 75 -43 121.5t-113 46.5q-72 0 -115 -46.5t-43 -121.5q0 -80 44 -131t114 -51z" />
    <glyph glyph-name="R.ss08" 
d="M1020 -315q-197 0 -371.5 71t-298.5 193.5t-196 293.5t-72 365q0 198 72 372.5t196 298.5t298 195.5t372 71.5q200 0 375.5 -71.5t301 -195.5t197.5 -298.5t72 -372.5q0 -259 -123 -470.5t-339.5 -332t-483.5 -120.5zM1020 -139q216 0 392 97.5t276 269t100 382.5
q0 214 -100 388t-276 273t-392 99q-213 0 -387.5 -99t-274.5 -273t-100 -388q0 -157 58.5 -296t160 -238.5t242.5 -157t301 -57.5zM973 322h-146v587h236q9 0 17.5 -0.5t31 -4t41.5 -10.5t42.5 -21.5t40 -35t27.5 -53t11 -73.5q0 -68 -43.5 -111t-118.5 -49v-2
q16 -14 31 -29t26.5 -27.5t26 -30t22.5 -27.5t22 -29.5t19 -27t20 -29t19 -27.5h-168l-129 204q-7 1 -38 17q10 -65 10 -221zM961 623l2 -2q30 20 75 20q28 0 55 15.5t27 54.5q0 25 -16 40.5t-31 19t-31 3.5q-42 0 -77 17l-7 -3q21 -78 3 -165z" />
    <glyph glyph-name="S.ss08" 
d="M1020 -315q-197 0 -371.5 71t-298.5 193.5t-196 293.5t-72 365q0 198 72 372.5t196 298.5t298 195.5t372 71.5q200 0 375.5 -71.5t301 -195.5t197.5 -298.5t72 -372.5q0 -259 -123 -470.5t-339.5 -332t-483.5 -120.5zM1020 -139q216 0 392 97.5t276 269t100 382.5
q0 214 -100 388t-276 273t-392 99q-213 0 -387.5 -99t-274.5 -273t-100 -388q0 -157 58.5 -296t160 -238.5t242.5 -157t301 -57.5zM1036 309q-93 0 -156.5 49t-82.5 134l135 47q25 -93 100 -93q29 0 47.5 13t18.5 33q0 21 -17.5 31.5t-56.5 21.5l-51 16q-160 47 -160 176
q0 80 60 131.5t153 51.5q78 0 138.5 -41.5t72.5 -102.5l-133 -55q-23 61 -78 61q-23 0 -37 -9.5t-14 -24.5q0 -19 18 -31.5t62 -26.5l61 -20q144 -43 144 -164q0 -87 -62.5 -142t-161.5 -55z" />
    <glyph glyph-name="T.ss08" 
d="M1020 -315q-197 0 -371.5 71t-298.5 193.5t-196 293.5t-72 365q0 198 72 372.5t196 298.5t298 195.5t372 71.5q200 0 375.5 -71.5t301 -195.5t197.5 -298.5t72 -372.5q0 -259 -123 -470.5t-339.5 -332t-483.5 -120.5zM1020 -139q216 0 392 97.5t276 269t100 382.5
q0 214 -100 388t-276 273t-392 99q-213 0 -387.5 -99t-274.5 -273t-100 -388q0 -157 58.5 -296t160 -238.5t242.5 -157t301 -57.5zM1096 322h-146q0 286 15 462q-70 -12 -177 -12v137h469v-137q-106 0 -176 12q15 -176 15 -462z" />
    <glyph glyph-name="U.ss08" 
d="M1020 -315q-197 0 -371.5 71t-298.5 193.5t-196 293.5t-72 365q0 198 72 372.5t196 298.5t298 195.5t372 71.5q200 0 375.5 -71.5t301 -195.5t197.5 -298.5t72 -372.5q0 -259 -123 -470.5t-339.5 -332t-483.5 -120.5zM1020 -139q216 0 392 97.5t276 269t100 382.5
q0 214 -100 388t-276 273t-392 99q-213 0 -387.5 -99t-274.5 -273t-100 -388q0 -157 58.5 -296t160 -238.5t242.5 -157t301 -57.5zM1022 315q-229 0 -229 250v350h145v-337q0 -65 20 -94t66 -29q44 0 64 29t20 94v337h145v-350q0 -250 -231 -250z" />
    <glyph glyph-name="V.ss08" 
d="M1020 -315q-197 0 -371.5 71t-298.5 193.5t-196 293.5t-72 365q0 198 72 372.5t196 298.5t298 195.5t372 71.5q200 0 375.5 -71.5t301 -195.5t197.5 -298.5t72 -372.5q0 -259 -123 -470.5t-339.5 -332t-483.5 -120.5zM1020 -139q216 0 392 97.5t276 269t100 382.5
q0 214 -100 388t-276 273t-392 99q-213 0 -387.5 -99t-274.5 -273t-100 -388q0 -157 58.5 -296t160 -238.5t242.5 -157t301 -57.5zM1122 322h-166l-217 587h154l12 -33q12 -32 30 -84t37 -110t36 -119t24 -102h15q12 65 46 176t60.5 187.5t30.5 84.5h153z" />
    <glyph glyph-name="W.ss08" 
d="M1020 -315q-197 0 -371.5 71t-298.5 193.5t-196 293.5t-72 365q0 198 72 372.5t196 298.5t298 195.5t372 71.5q200 0 375.5 -71.5t301 -195.5t197.5 -298.5t72 -372.5q0 -259 -123 -470.5t-339.5 -332t-483.5 -120.5zM1020 -139q216 0 392 97.5t276 269t100 382.5
q0 214 -100 388t-276 273t-392 99q-213 0 -387.5 -99t-274.5 -273t-100 -388q0 -157 58.5 -296t160 -238.5t242.5 -157t301 -57.5zM926 322h-176l-160 587h166q63 -254 84 -424q33 176 104 424h160q71 -249 104 -430q23 187 84 430h166l-160 -587h-174q-69 224 -96 399h-8
q-25 -165 -94 -399z" />
    <glyph glyph-name="X.ss08" 
d="M1020 -315q-197 0 -371.5 71t-298.5 193.5t-196 293.5t-72 365q0 198 72 372.5t196 298.5t298 195.5t372 71.5q200 0 375.5 -71.5t301 -195.5t197.5 -298.5t72 -372.5q0 -259 -123 -470.5t-339.5 -332t-483.5 -120.5zM1020 -139q216 0 392 97.5t276 269t100 382.5
q0 214 -100 388t-276 273t-392 99q-213 0 -387.5 -99t-274.5 -273t-100 -388q0 -157 58.5 -296t160 -238.5t242.5 -157t301 -57.5zM936 322h-178q118 183 196 286v10q-62 82 -194 291h172q60 -99 98 -196h4q40 95 101 196h172q-119 -188 -199 -291v-10q93 -123 195 -286
h-177q-59 99 -92 190h-4q-36 -93 -94 -190z" />
    <glyph glyph-name="Y.ss08" 
d="M1020 -315q-197 0 -371.5 71t-298.5 193.5t-196 293.5t-72 365q0 198 72 372.5t196 298.5t298 195.5t372 71.5q200 0 375.5 -71.5t301 -195.5t197.5 -298.5t72 -372.5q0 -259 -123 -470.5t-339.5 -332t-483.5 -120.5zM1020 -139q216 0 392 97.5t276 269t100 382.5
q0 214 -100 388t-276 273t-392 99q-213 0 -387.5 -99t-274.5 -273t-100 -388q0 -157 58.5 -296t160 -238.5t242.5 -157t301 -57.5zM1096 322h-146q0 130 8 196q-48 82 -208 391h157q83 -169 115 -280h2q38 121 115 280h157q-21 -40 -63 -121.5t-76 -145.5t-67 -122
q6 -50 6 -198z" />
    <glyph glyph-name="Z.ss08" 
d="M1020 -315q-197 0 -371.5 71t-298.5 193.5t-196 293.5t-72 365q0 198 72 372.5t196 298.5t298 195.5t372 71.5q200 0 375.5 -71.5t301 -195.5t197.5 -298.5t72 -372.5q0 -259 -123 -470.5t-339.5 -332t-483.5 -120.5zM1020 -139q216 0 392 97.5t276 269t100 382.5
q0 214 -100 388t-276 273t-392 99q-213 0 -387.5 -99t-274.5 -273t-100 -388q0 -157 58.5 -296t160 -238.5t242.5 -157t301 -57.5zM1249 322h-461v116q127 174 318 373l-2 2q-153 -41 -309 -41v137h450v-118q-137 -183 -325 -371l2 -4q168 43 327 43v-137z" />
    <glyph glyph-name="i.loclTRK" horiz-adv-x="591" 
d="M299 1257q-87 0 -145 59t-58 146q0 81 58.5 139t144.5 58q84 0 141.5 -58t57.5 -139q0 -86 -57 -145.5t-142 -59.5zM467 0h-342v1147h342v-1147z" />
    <glyph glyph-name="a.ss01" horiz-adv-x="1366" 
d="M575 -33q-121 0 -219.5 48t-162.5 131t-98 192t-34 233q0 140 43.5 257.5t116 193t165 117t192.5 41.5q242 0 305 -242h41q-21 122 -21 209h338v-1147h-323v16v20t1 20.5t3.5 29.5t6.5 34.5t10 47.5t15 57h-41q-29 -80 -69 -134t-87 -79.5t-89 -35t-93 -9.5zM659 295
q109 0 176.5 79t67.5 201q0 123 -68.5 201t-177.5 78q-107 0 -175 -77t-68 -197q0 -127 68 -206t177 -79z" />
    <glyph glyph-name="aacute.ss01" horiz-adv-x="1366" 
d="M1133 1653l-312 -375h-295l213 375h394zM575 -33q-121 0 -219.5 48t-162.5 131t-98 192t-34 233q0 140 43.5 257.5t116 193t165 117t192.5 41.5q242 0 305 -242h41q-21 122 -21 209h338v-1147h-323v16v20t1 20.5t3.5 29.5t6.5 34.5t10 47.5t15 57h-41q-29 -80 -69 -134
t-87 -79.5t-89 -35t-93 -9.5zM659 295q109 0 176.5 79t67.5 201q0 123 -68.5 201t-177.5 78q-107 0 -175 -77t-68 -197q0 -127 68 -206t177 -79z" />
    <glyph glyph-name="abreve.ss01" horiz-adv-x="1366" 
d="M692 1264q-172 0 -278.5 110.5t-112.5 284.5h274q0 -38 11.5 -72t41.5 -59t74 -25t74 25t41.5 59t11.5 72h275q-6 -176 -116 -285.5t-296 -109.5zM575 -33q-121 0 -219.5 48t-162.5 131t-98 192t-34 233q0 140 43.5 257.5t116 193t165 117t192.5 41.5q242 0 305 -242h41
q-21 122 -21 209h338v-1147h-323v16v20t1 20.5t3.5 29.5t6.5 34.5t10 47.5t15 57h-41q-29 -80 -69 -134t-87 -79.5t-89 -35t-93 -9.5zM659 295q109 0 176.5 79t67.5 201q0 123 -68.5 201t-177.5 78q-107 0 -175 -77t-68 -197q0 -127 68 -206t177 -79z" />
    <glyph glyph-name="acircumflex.ss01" horiz-adv-x="1366" 
d="M557 1278h-321l294 375h334l297 -375h-321q-29 36 -45.5 58.5t-37.5 65t-34 91.5h-49q-13 -49 -34 -91.5t-37.5 -65t-45.5 -58.5zM575 -33q-121 0 -219.5 48t-162.5 131t-98 192t-34 233q0 140 43.5 257.5t116 193t165 117t192.5 41.5q242 0 305 -242h41q-21 122 -21 209
h338v-1147h-323v16v20t1 20.5t3.5 29.5t6.5 34.5t10 47.5t15 57h-41q-29 -80 -69 -134t-87 -79.5t-89 -35t-93 -9.5zM659 295q109 0 176.5 79t67.5 201q0 123 -68.5 201t-177.5 78q-107 0 -175 -77t-68 -197q0 -127 68 -206t177 -79z" />
    <glyph glyph-name="adieresis.ss01" horiz-adv-x="1366" 
d="M469 1276q-76 0 -129 54t-53 132q0 73 53 125.5t129 52.5t129 -52.5t53 -125.5q0 -78 -53 -132t-129 -54zM930 1276q-78 0 -131.5 54t-53.5 132q0 73 54 125.5t131 52.5q74 0 127 -53t53 -125q0 -78 -52.5 -132t-127.5 -54zM575 -33q-121 0 -219.5 48t-162.5 131t-98 192
t-34 233q0 140 43.5 257.5t116 193t165 117t192.5 41.5q242 0 305 -242h41q-21 122 -21 209h338v-1147h-323v16v20t1 20.5t3.5 29.5t6.5 34.5t10 47.5t15 57h-41q-29 -80 -69 -134t-87 -79.5t-89 -35t-93 -9.5zM659 295q109 0 176.5 79t67.5 201q0 123 -68.5 201t-177.5 78
q-107 0 -175 -77t-68 -197q0 -127 68 -206t177 -79z" />
    <glyph glyph-name="agrave.ss01" horiz-adv-x="1366" 
d="M856 1278h-295l-311 375h393zM575 -33q-121 0 -219.5 48t-162.5 131t-98 192t-34 233q0 140 43.5 257.5t116 193t165 117t192.5 41.5q242 0 305 -242h41q-21 122 -21 209h338v-1147h-323v16v20t1 20.5t3.5 29.5t6.5 34.5t10 47.5t15 57h-41q-29 -80 -69 -134t-87 -79.5
t-89 -35t-93 -9.5zM659 295q109 0 176.5 79t67.5 201q0 123 -68.5 201t-177.5 78q-107 0 -175 -77t-68 -197q0 -127 68 -206t177 -79z" />
    <glyph glyph-name="amacron.ss01" horiz-adv-x="1366" 
d="M1042 1300h-688v236h688v-236zM575 -33q-121 0 -219.5 48t-162.5 131t-98 192t-34 233q0 140 43.5 257.5t116 193t165 117t192.5 41.5q242 0 305 -242h41q-21 122 -21 209h338v-1147h-323v16v20t1 20.5t3.5 29.5t6.5 34.5t10 47.5t15 57h-41q-29 -80 -69 -134t-87 -79.5
t-89 -35t-93 -9.5zM659 295q109 0 176.5 79t67.5 201q0 123 -68.5 201t-177.5 78q-107 0 -175 -77t-68 -197q0 -127 68 -206t177 -79z" />
    </font>
</defs>
</svg>
