<?xml version="1.0" standalone="no"?>
<!DOCTYPE svg PUBLIC "-//W3C//DTD SVG 1.1//EN" "http://www.w3.org/Graphics/SVG/1.1/DTD/svg11.dtd" >
<svg xmlns="http://www.w3.org/2000/svg" xmlns:xlink="http://www.w3.org/1999/xlink" version="1.1">
<metadata>
Created by FontForge 20170731 at Mon Mar 15 14:15:40 2021
 By Aleksey,,,
Copyright (c) 2020 by Matthieu Salvaggio x Blaze Type. All rights reserved.
</metadata>
<defs>
<font id="Area-ExtrablackInktrapItalic" horiz-adv-x="2048" >
  <font-face 
    font-family="Area Extrablack Inktrap Italic"
    font-weight="950"
    font-style="italic"
    font-stretch="normal"
    units-per-em="2048"
    panose-1="0 0 10 0 0 0 0 0 0 0"
    ascent="1638"
    descent="-410"
    x-height="1147"
    cap-height="1597"
    bbox="-1692 -696 2777 2228"
    underline-thickness="102"
    underline-position="-307"
    slope="-10"
    unicode-range="U+0020-25CA"
  />
<missing-glyph horiz-adv-x="1366" 
d="M1110 0h-1055l283 1597h1055zM522 1378l-151 -854l659 854h-508zM1090 1151l-721 -932h557z" />
    <glyph glyph-name=".notdef" horiz-adv-x="1366" 
d="M1110 0h-1055l283 1597h1055zM522 1378l-151 -854l659 854h-508zM1090 1151l-721 -932h557z" />
    <glyph glyph-name=".null" horiz-adv-x="0" 
 />
    <glyph glyph-name="nonmarkingreturn" horiz-adv-x="682" 
 />
    <glyph glyph-name="space" unicode=" " horiz-adv-x="471" 
 />
    <glyph glyph-name="exclam" unicode="!" horiz-adv-x="610" 
d="M393 541h-186l61 845l37 211h363l-37 -211zM203 -14q-75 0 -123.5 49.5t-48.5 124.5q0 98 75 169.5t168 71.5q75 0 125 -50t50 -122q0 -91 -74.5 -167t-171.5 -76z" />
    <glyph glyph-name="quotedbl" unicode="&#x22;" horiz-adv-x="1030" 
d="M512 1008h-322l105 589h321zM989 1008h-321l104 589h322z" />
    <glyph glyph-name="numbersign" unicode="#" horiz-adv-x="1699" 
d="M453 0h-303q35 90 50.5 129.5t52 116t79.5 151.5q-61 -19 -119.5 -28.5t-90.5 -11t-87 -1.5l106 281q55 0 84.5 -1.5t75 -11t80.5 -28.5q29 95 57.5 160t81.5 147q-58 -19 -113.5 -28.5t-86 -11t-82.5 -1.5l108 281q51 0 80 -1.5t80.5 -11t103.5 -28.5q12 91 36.5 186.5
t44 150.5t57.5 158h303q-109 -293 -220 -495q106 31 184 31t175 -31q12 91 36 185.5t44 152.5t57 157h303q-111 -299 -219 -495q64 19 126 28.5t96 11t93 1.5l-108 -281q-58 0 -91.5 1.5t-91 11t-114.5 28.5q4 -85 -17.5 -149.5t-80.5 -157.5q61 19 119.5 28.5t91 11
t88.5 1.5l-107 -281q-56 0 -87.5 1.5t-85.5 11t-109 28.5q-5 -74 -23.5 -154t-32 -119t-45.5 -124h-303q35 90 50.5 129.5t52 116t79.5 151.5q-106 -31 -185 -31t-173 31q-5 -74 -23 -153t-32.5 -121t-44.5 -123zM643 596q104 31 183.5 31t174.5 -31q-4 84 18 150t81 157
q-104 -31 -184 -31t-175 31q4 -85 -17.5 -149.5t-80.5 -157.5z" />
    <glyph glyph-name="dollar" unicode="$" horiz-adv-x="1306" 
d="M778 946l156 -59q109 -42 160 -81q116 -89 116 -245q0 -100 -46.5 -191.5t-126.5 -159.5t-193.5 -109.5t-241.5 -45.5l-24 -137h-62l25 137q-210 10 -331 120.5t-132 293.5l338 96q13 -87 60.5 -134t119.5 -58l45 254l-113 37q-44 15 -74 27t-80 41t-81.5 62.5
t-55.5 87.5t-24 119q0 91 44 180t120 159t186 115.5t234 49.5l22 133h62l-25 -133q96 -6 175 -37.5t129 -78t78 -101t32 -110.5l-318 -136q-13 60 -52.5 98t-98.5 50l-41 -238zM584 1083q0 -38 27.5 -61t90.5 -47l39 221q-69 -2 -113 -32.5t-44 -80.5zM698 606l-41 -235
q72 4 119 41t47 88q0 40 -30 61.5t-95 44.5z" />
    <glyph glyph-name="percent" unicode="%" horiz-adv-x="2064" 
d="M403 688q-129 0 -199.5 87.5t-70.5 244.5q0 144 57 267t157.5 196t219.5 73q131 0 202 -88t71 -243q0 -143 -57.5 -266.5t-158.5 -197t-221 -73.5zM510 0h-317l1396 1468h309zM449 942q40 0 72 98.5t32 188.5q0 76 -31 76q-39 0 -71.5 -97.5t-32.5 -189.5q0 -76 31 -76z
M1565 -29q-130 0 -200.5 88t-70.5 244q0 144 57.5 267.5t158 196.5t219.5 73q131 0 201.5 -88t70.5 -244q0 -143 -57 -266.5t-158 -197t-221 -73.5zM1610 225q40 0 72 98.5t32 188.5q0 76 -31 76q-39 0 -71.5 -97t-32.5 -190q0 -76 31 -76z" />
    <glyph glyph-name="ampersand" unicode="&#x26;" horiz-adv-x="1533" 
d="M483 -35q-203 0 -330.5 97t-127.5 266q0 139 100 255.5t319 225.5q-165 115 -165 307q0 130 74 248t206.5 192t288.5 74q190 0 298.5 -104.5t108.5 -261.5q0 -51 -13 -97.5t-34 -82.5t-55 -70t-67 -58.5t-79.5 -50t-83.5 -42.5t-87 -38l208 -260q0 53 13 108t23 79.5
t38 87.5l314 -64q-59 -134 -120.5 -222.5t-150.5 -139.5l340 -412h-459l-110 193q-158 -230 -449 -230zM731 956q78 53 120 119.5t42 130.5q0 56 -28.5 87.5t-73.5 31.5q-61 0 -104.5 -50.5t-43.5 -121.5q0 -88 88 -197zM567 281q84 0 236 61l-234 309q-98 -70 -140 -122.5
t-42 -110.5q0 -61 48.5 -99t131.5 -38z" />
    <glyph glyph-name="quotesingle" unicode="'" horiz-adv-x="552" 
d="M512 1008h-322l105 589h321z" />
    <glyph glyph-name="parenleft" unicode="(" horiz-adv-x="770" 
d="M623 -307h-357q-98 147 -148 325t-50 367q0 320 141 642.5t393 569.5h356q-249 -248 -392.5 -567.5t-143.5 -636.5q0 -190 51.5 -370t149.5 -330z" />
    <glyph glyph-name="parenright" unicode=")" horiz-adv-x="768" 
d="M195 -307h-357q253 251 395 571t142 633q0 392 -201 700h356q199 -298 199 -692q0 -321 -142 -644.5t-392 -567.5z" />
    <glyph glyph-name="asterisk" unicode="*" horiz-adv-x="768" 
d="M543 1026h-160l33 160l-150 -86l-55 135l174 78l-145 73l102 138l119 -82l22 155h160l-31 -155l148 82l55 -135l-170 -76l143 -78l-104 -135l-117 86z" />
    <glyph glyph-name="plus" unicode="+" horiz-adv-x="1097" 
d="M725 752h295l-45 -256h-295l-57 -320h-277l57 320h-305l45 256h306l57 321h276z" />
    <glyph glyph-name="comma" unicode="," horiz-adv-x="565" 
d="M78 -291h-187q102 134 146 181q54 56 115 100q-61 6 -98.5 54.5t-37.5 113.5q0 98 76.5 170.5t173.5 72.5q74 0 123 -48.5t49 -125.5q0 -16 -3 -31t-7 -29.5t-14.5 -33.5t-19.5 -34.5t-29.5 -42t-36.5 -47t-47 -58t-55.5 -66.5t-68.5 -81.5t-79 -94.5z" />
    <glyph glyph-name="hyphen" unicode="-" horiz-adv-x="950" 
d="M813 479h-709l52 289h708z" />
    <glyph glyph-name="period" unicode="." horiz-adv-x="559" 
d="M188 -14q-75 0 -123.5 49.5t-48.5 124.5q0 95 74.5 168t171.5 73q74 0 123 -48.5t49 -121.5q0 -93 -75 -169t-171 -76z" />
    <glyph glyph-name="slash" unicode="/" horiz-adv-x="985" 
d="M250 -135h-320l871 1773h319z" />
    <glyph glyph-name="zero" unicode="0" horiz-adv-x="1431" 
d="M606 -35q-239 0 -370.5 164.5t-131.5 454.5q0 154 37 306t108.5 284.5t167.5 235t223 161.5t267 59q237 0 368.5 -165t131.5 -455q0 -127 -26 -255t-74.5 -243.5t-120 -216t-158.5 -173.5t-196 -115t-226 -42zM659 303q76 0 145 61t116 158t74.5 219.5t27.5 245.5
q0 305 -170 305q-100 0 -185.5 -101t-132.5 -257.5t-47 -323.5q0 -307 172 -307z" />
    <glyph glyph-name="one" unicode="1" horiz-adv-x="862" 
d="M606 0h-362q40 225 63.5 352t72 348t101.5 416q-180 -205 -381 -258l68 381q135 47 239.5 147.5t124.5 210.5h357z" />
    <glyph glyph-name="two" unicode="2" horiz-adv-x="1314" 
d="M1100 0h-1094l8 45q25 141 69.5 246t124 198t183 171.5t264.5 173.5q71 43 106 64.5t83 57t70 61.5t38.5 62t16.5 74q0 69 -45 109.5t-131 40.5q-128 0 -210.5 -88.5t-111.5 -239.5l-330 55q46 263 250 431.5t473 168.5q216 0 352 -112.5t136 -305.5q0 -86 -30.5 -167.5
t-71.5 -137.5t-98.5 -108.5t-95 -78t-77.5 -48.5q-31 -18 -97.5 -53t-110.5 -61t-101.5 -65.5t-105 -89t-85.5 -108.5q121 19 251.5 28.5t209.5 11t219 1.5z" />
    <glyph glyph-name="three" unicode="3" horiz-adv-x="1355" 
d="M559 -35q-225 0 -384 101t-179 264l346 159q3 -16 8 -32.5t23.5 -47t45.5 -52.5t77 -39t114 -17q120 0 193.5 56t73.5 147q0 72 -50 113.5t-139 41.5h-164l54 293h135q102 0 170.5 56.5t68.5 140.5q0 69 -50 109t-130 40q-95 0 -169.5 -60.5t-106.5 -168.5l-318 76
q38 129 133 238t241.5 178t311.5 69q134 0 242 -44t172.5 -131t64.5 -204q0 -155 -104 -266t-264 -117l-6 -41q146 -9 221.5 -83t75.5 -203q0 -108 -53 -212t-144.5 -184.5t-225 -130t-284.5 -49.5z" />
    <glyph glyph-name="four" unicode="4" horiz-adv-x="1396" 
d="M1032 0h-350q12 70 21.5 113t29 106t47.5 125q-425 -39 -784 0l47 262l932 991h340q-112 -642 -215 -1007q52 14 100.5 20.5t72.5 7t73 0.5l-54 -301q-135 0 -235 27q13 -141 -25 -344zM377 590q132 31 229 31t217 -31q-2 144 23 281t90 337q-162 -202 -286 -339
t-273 -279z" />
    <glyph glyph-name="five" unicode="5" horiz-adv-x="1363" 
d="M553 -35q-213 0 -370 102.5t-191 280.5l323 191q11 -56 34 -100t52.5 -71.5t65.5 -46t70.5 -25.5t70.5 -7q130 0 222 87t92 206q0 93 -60.5 145.5t-159.5 52.5q-168 0 -268 -162l-287 74l355 905h880l-57 -315q-137 0 -213.5 1.5t-200.5 11t-235 28.5q-5 -105 -43 -192.5
t-135 -204.5h41q90 83 163.5 113t151.5 30q55 0 112.5 -10.5t121 -40t111.5 -73.5t80 -119t32 -169q0 -130 -58 -255.5t-157.5 -222t-242 -155.5t-300.5 -59z" />
    <glyph glyph-name="six" unicode="6" horiz-adv-x="1409" 
d="M614 -35q-247 0 -386.5 140.5t-139.5 420.5q0 134 33.5 269t93 257t148 228t193.5 183.5t233.5 122t263.5 44.5q129 0 242.5 -41t179.5 -131l-236 -260q-94 105 -256 105q-70 0 -133 -23t-112.5 -61t-97.5 -98t-85 -121t-78 -142h41q85 104 176.5 147.5t200.5 43.5
q197 0 321.5 -116t124.5 -312q0 -126 -54 -244.5t-147.5 -209.5t-231 -146.5t-294.5 -55.5zM682 289q106 0 189 78t83 186q0 89 -57 140.5t-139 51.5q-106 0 -191.5 -83.5t-85.5 -188.5q0 -85 59 -134.5t142 -49.5z" />
    <glyph glyph-name="seven" unicode="7" horiz-adv-x="1198" 
d="M555 0h-387q22 123 49 227t83 245.5t131.5 270t198 280t279.5 294.5l-14 41q-122 -28 -260.5 -42.5t-234 -17t-240.5 -2.5l53 301h1126l-53 -303q-106 -80 -197 -173t-158 -184t-123.5 -193.5t-95 -193.5t-70.5 -193t-51 -184t-36 -173z" />
    <glyph glyph-name="eight" unicode="8" horiz-adv-x="1386" 
d="M586 -35q-245 0 -392 116.5t-147 301.5q0 111 54 207.5t147.5 157t206.5 69.5l8 45q-215 43 -215 248q0 98 48.5 192.5t131.5 166.5t201.5 116.5t249.5 44.5q207 0 340 -104.5t133 -288.5q0 -151 -90.5 -252t-239.5 -123l-8 -45q128 -11 206 -90t78 -209
q0 -106 -54.5 -206.5t-147.5 -177t-226.5 -123t-283.5 -46.5zM768 987q87 0 149 59t62 136q0 61 -43 100t-109 39q-85 0 -149 -59.5t-64 -137.5q0 -60 43.5 -98.5t110.5 -38.5zM639 283q117 0 204 78t87 182q0 81 -57.5 129.5t-151.5 48.5q-122 0 -205.5 -76.5t-83.5 -181.5
q0 -86 59 -133t148 -47z" />
    <glyph glyph-name="nine" unicode="9" horiz-adv-x="1415" 
d="M489 -35q-160 0 -287 56t-179 139l229 254q47 -68 120.5 -101.5t155.5 -33.5q178 0 317 139.5t177 355.5h-41q-119 -229 -379 -229q-91 0 -173.5 29.5t-145.5 83.5t-100.5 136.5t-37.5 182.5q0 122 55 239.5t149.5 209t232.5 148t292 56.5q93 0 171.5 -20t145 -64.5
t112.5 -111.5t72 -164t26 -219q0 -131 -29.5 -262.5t-84 -252t-136 -225t-180.5 -181.5t-223.5 -121t-258.5 -44zM733 846q108 0 191.5 83t83.5 189q0 87 -59 138t-142 51q-108 0 -191.5 -82.5t-83.5 -188.5q0 -89 59.5 -139.5t141.5 -50.5z" />
    <glyph glyph-name="colon" unicode=":" horiz-adv-x="626" 
d="M344 743q-75 0 -123.5 50t-48.5 125q0 95 74.5 168t171.5 73q74 0 123 -48.5t49 -121.5q0 -93 -75 -169.5t-171 -76.5zM211 -12q-75 0 -123.5 49.5t-48.5 124.5q0 95 74.5 168t171.5 73q75 0 123.5 -48.5t48.5 -121.5q0 -93 -75 -169t-171 -76z" />
    <glyph glyph-name="semicolon" unicode=";" horiz-adv-x="628" 
d="M346 743q-76 0 -125 50.5t-49 124.5q0 96 75.5 168.5t170.5 72.5q75 0 124.5 -49t49.5 -121q0 -92 -75.5 -169t-170.5 -77zM86 -311h-195l228 321q-38 21 -60 62.5t-22 87.5q0 95 75 168t171 73q74 0 123 -48.5t49 -119.5t-61 -158.5t-308 -385.5z" />
    <glyph glyph-name="less" unicode="&#x3c;" horiz-adv-x="1052" 
d="M905 442l-41 -241l-780 225l63 365l861 225l-43 -242l-637 -166z" />
    <glyph glyph-name="equal" unicode="=" horiz-adv-x="1138" 
d="M1040 700h-899l47 256h899zM961 242h-900l45 256h900z" />
    <glyph glyph-name="greater" unicode="&#x3e;" horiz-adv-x="1050" 
d="M915 426l-858 -225l43 241l637 166l-579 166l43 242l780 -225z" />
    <glyph glyph-name="question" unicode="?" horiz-adv-x="1298" 
d="M780 524h-374q0 35 8 82q19 106 96 179.5t217 142.5q35 18 50 25.5t52 32t55.5 45t35 53t16.5 67.5q0 65 -47.5 104t-128.5 39q-115 0 -193.5 -76t-99.5 -194q-1 -2 -1 -3.5v-2.5t-1 -5.5t-2 -11.5l-318 58q2 6 2 16q23 129 90.5 235.5t162.5 175.5t210 106.5t236 37.5
q211 0 350 -106.5t139 -294.5q0 -74 -25 -142t-57.5 -113.5t-82 -89.5t-79.5 -64t-69 -44q-7 -4 -36.5 -21.5t-37.5 -22.5t-33 -20.5t-34 -23t-28 -22t-27 -25t-19.5 -24.5t-16.5 -27.5t-8 -28.5q-2 -12 -2 -37zM510 -14q-76 0 -126 50.5t-50 123.5q0 94 74.5 167.5
t169.5 73.5q74 0 124 -49t50 -123q0 -95 -74 -169t-168 -74z" />
    <glyph glyph-name="at" unicode="@" horiz-adv-x="1935" 
d="M840 -195q-198 0 -348 51t-241.5 142.5t-137 211.5t-45.5 265q0 170 60.5 340t172 315.5t258 258t330.5 177t377 64.5q320 0 505 -171t185 -470q0 -110 -26 -218.5t-76 -202t-117 -165.5t-156 -113.5t-186 -41.5q-117 0 -163 60t-32 181h-41q-148 -245 -387 -245
q-149 0 -223 79t-74 212q0 113 54 232t139 211t198 151t224 59q188 0 194 -187h41q-5 27 -6.5 48.5t2 39.5t5.5 27.5t9 25.5t8 19h238l-170 -504q-29 -94 -31 -133q-3 -87 70 -88q74 0 137.5 82t98 204.5t34.5 248.5q0 230 -127.5 341t-361.5 111q-165 0 -313.5 -53.5
t-258.5 -145t-191 -210t-122 -253t-41 -269.5q0 -244 143 -364t435 -120q294 0 534 144l80 -166q-98 -70 -226 -113t-228 -55.5t-203 -12.5zM903 492q112 0 202.5 102.5t90.5 208.5q0 62 -35 98.5t-96 36.5q-107 0 -200 -104t-93 -211q0 -62 35 -96.5t96 -34.5z" />
    <glyph glyph-name="A" unicode="A" horiz-adv-x="1593" 
d="M268 0h-377l875 1597h428l309 -1597h-387q-9 44 -13 66t-11 68.5t-9 79.5t-2.5 77t4.5 84l-20 26q-154 -45 -311 -45t-291 45l-33 -26q-35 -148 -162 -375zM610 678l17 -21q91 43 188 43t176 -43l21 21q-23 78 -36 138.5t-21 135.5t-6 159.5t14 188.5h-82
q-48 -199 -110 -336t-161 -286z" />
    <glyph glyph-name="B" unicode="B" horiz-adv-x="1460" 
d="M725 0h-674l283 1597h704q199 0 306.5 -91t107.5 -249q0 -154 -100.5 -265.5t-274.5 -149.5l-6 -41q160 -31 234.5 -94t74.5 -197q0 -222 -182 -366t-473 -144zM541 924l32 -21q47 28 92 42.5t70.5 17t65.5 2.5q115 0 183.5 43.5t68.5 126.5q0 41 -17 68t-47.5 39t-58 16
t-62.5 4q-10 0 -37 -0.5t-38.5 -0.5t-35 3t-38.5 8.5t-36.5 17t-41.5 27.5l-45 -21q15 -95 3 -178.5t-58 -193.5zM426 319l33 -40q104 57 229 57q155 0 231 46.5t76 131.5q0 36 -14.5 62t-35 40t-51 22.5t-56 10.5t-56.5 2q-47 0 -75.5 2.5t-74.5 17t-89 42.5l-43 -21
q6 -112 -11 -199.5t-63 -173.5z" />
    <glyph glyph-name="C" unicode="C" horiz-adv-x="1689" 
d="M797 -35q-210 0 -368.5 80t-246.5 234t-88 364q0 194 76.5 375t206 315.5t311 215.5t381.5 81q269 0 440 -140.5t217 -373.5l-360 -135q-79 307 -358 307q-114 0 -215.5 -52.5t-170 -137.5t-108 -193t-39.5 -219q0 -84 23 -150.5t60 -108.5t87.5 -69.5t102.5 -39
t108 -11.5q162 0 292 93.5t212 256.5l317 -114q-78 -154 -180.5 -268.5t-217.5 -180.5t-234.5 -97.5t-247.5 -31.5z" />
    <glyph glyph-name="D" unicode="D" horiz-adv-x="1619" 
d="M707 0h-656l283 1597h637q165 0 288 -44t198.5 -126.5t112 -193t36.5 -250.5q0 -150 -41 -294.5t-120 -268.5t-186.5 -218.5t-250 -148t-301.5 -53.5zM426 319l33 -40q100 42 122 49.5t46 7.5q155 0 270.5 40.5t185 115.5t103 173.5t33.5 221.5q0 61 -8.5 111.5t-21.5 87
t-35.5 65.5t-42.5 47t-50.5 31t-52 19t-55.5 9.5t-51 4t-48 0.5q-95 0 -129.5 8.5t-83.5 46.5l-45 -21q28 -515 -170 -977z" />
    <glyph glyph-name="E" unicode="E" horiz-adv-x="1320" 
d="M1130 0h-1079l283 1597h1059l-60 -335q-143 0 -223.5 2t-213.5 14.5t-255 38.5l-45 -21q17 -95 5 -175t-60 -195l20 -21q127 37 259 56t209 21.5t214 2.5l-63 -354q-103 0 -160 1.5t-147.5 8.5t-173 25.5t-167.5 48.5l-32 -21q5 -125 -11 -207.5t-63 -167.5l33 -40
q133 27 274 40t224.5 15t232.5 2z" />
    <glyph glyph-name="F" unicode="F" horiz-adv-x="1265" 
d="M414 0h-363l283 1597h1042l-59 -335q-142 0 -221 2t-208 14.5t-247 38.5l-45 -21q19 -105 1.5 -197t-81.5 -216l21 -21q132 38 265 57.5t209 22t208 2.5l-62 -354q-137 0 -213 2.5t-200 22t-236 57.5l-33 -21q4 -173 -12 -319t-49 -332z" />
    <glyph glyph-name="G" unicode="G" horiz-adv-x="1769" 
d="M748 -35q-299 0 -476.5 181t-177.5 487q0 194 75.5 376.5t204.5 319t311 219t384 82.5q139 0 255 -39.5t197.5 -109.5t134.5 -162.5t73 -202.5l-361 -135q-82 307 -354 307q-92 0 -176.5 -33.5t-149 -92.5t-113 -135t-73.5 -164t-25 -177q0 -88 26 -156.5t66.5 -109.5
t95.5 -67.5t107.5 -36t108.5 -9.5q136 0 270 68t283 227l-33 41q-68 -32 -136.5 -52.5t-136 -28t-106.5 -9.5t-100 -2l51 295h735l-149 -846h-275q0 5 2.5 37.5t4.5 44.5t8.5 40.5t19 56.5t31.5 61l-52 20q-113 -157 -246 -226t-304 -69z" />
    <glyph glyph-name="H" unicode="H" horiz-adv-x="1662" 
d="M414 0h-363l283 1597h362q-61 -328 -101 -485q-25 -94 -54 -188l32 -21q181 58 328.5 58.5t306.5 -58.5l41 21q11 289 82 673h363l-283 -1597h-362q22 127 37 205t44.5 197.5t69.5 244.5l-39 21q-171 -58 -319 -57.5t-307 57.5l-43 -21q-5 -122 -17.5 -242.5t-24.5 -196
t-36 -208.5z" />
    <glyph glyph-name="I" unicode="I" horiz-adv-x="665" 
d="M414 0h-363l283 1597h362z" />
    <glyph glyph-name="J" unicode="J" horiz-adv-x="1310" 
d="M522 -35q-271 0 -413 150t-97 413l11 60l370 49l-10 -55q-23 -121 22 -198t158 -77q204 0 252 277l178 1013h363l-170 -962q-10 -56 -18 -94.5t-32 -115t-52.5 -130.5t-81 -121t-116 -109t-158 -71t-206.5 -29z" />
    <glyph glyph-name="K" unicode="K" horiz-adv-x="1499" 
d="M414 0h-363l283 1597h362q-3 -14 -18.5 -103t-21 -116.5t-23.5 -106.5t-34 -128.5t-43 -123t-60 -145.5h41q398 414 731 723h426q-16 -15 -113 -106t-127.5 -120t-116.5 -108.5t-138.5 -127t-130 -116.5t-150.5 -132l-7 -43q78 -93 149.5 -194t142 -222t115.5 -203
t120 -225h-441q-77 148 -111.5 215.5t-90.5 188t-95 223.5h-28q-5 -4 -26.5 -23.5t-26 -23.5t-22.5 -19.5t-24.5 -20.5t-21.5 -16t-25 -17t-23 -13t-26 -13q-10 -178 -63 -481z" />
    <glyph glyph-name="L" unicode="L" horiz-adv-x="1193" 
d="M1073 0h-1022l283 1597h362q-53 -296 -80 -441t-80.5 -389.5t-109.5 -447.5l33 -40q119 27 248.5 40t208 15t217.5 2z" />
    <glyph glyph-name="M" unicode="M" horiz-adv-x="2093" 
d="M420 0h-369l283 1597h411q207 -564 256 -1112h62q239 541 649 1112h412l-283 -1597h-368q3 14 22.5 127.5t25 141.5t25 126t33.5 150t37 139.5t49.5 168t58.5 167.5h-41q-141 -248 -367 -603.5t-263 -416.5h-213q-10 38 -114.5 404t-156.5 616h-41q4 -168 -11.5 -353
t-31.5 -287t-52 -305q-9 -50 -13 -75z" />
    <glyph glyph-name="N" unicode="N" horiz-adv-x="1662" 
d="M414 0h-363l283 1597h334q163 -268 274 -511.5t199 -561.5h41q40 467 149 1073h363l-283 -1597h-334q-86 140 -140 233.5t-122 226.5t-121.5 274t-97.5 300h-41q-16 -200 -42 -400.5t-45 -316t-54 -317.5z" />
    <glyph glyph-name="O" unicode="O" horiz-adv-x="1757" 
d="M772 -35q-197 0 -351 81.5t-241.5 235.5t-87.5 357q0 189 77 370t206 317.5t310.5 220t377.5 83.5q198 0 353 -83t242 -237.5t87 -357.5q0 -190 -77.5 -370.5t-207.5 -316t-311 -218t-377 -82.5zM834 307q142 0 264 84.5t191 220.5t69 287q0 173 -94 281t-256 108
q-107 0 -206 -50.5t-170 -132.5t-113 -190.5t-42 -220.5q0 -177 98.5 -282t258.5 -105z" />
    <glyph glyph-name="P" unicode="P" horiz-adv-x="1390" 
d="M414 0h-363l283 1597h637q30 0 53.5 -1t77.5 -9t94.5 -22t92 -45t85 -73t57 -110t23.5 -153q0 -94 -26.5 -183.5t-83 -170.5t-137.5 -141.5t-198.5 -96t-256.5 -35.5q-152 0 -267 82q-3 -124 -15.5 -250.5t-23.5 -197t-32 -191.5zM518 829l35 -18q90 80 201 80
q65 0 118 10.5t98.5 34.5t71 67.5t25.5 104.5q0 32 -8 57t-19 41t-31.5 27t-36 16.5t-43 8.5t-42.5 3.5t-43 0.5q-43 0 -67.5 2t-64 14.5t-71.5 38.5l-45 -21q12 -125 -6 -230t-72 -237z" />
    <glyph glyph-name="Q" unicode="Q" horiz-adv-x="1796" 
d="M1614 -70l-301 -219q-70 98 -112.5 181t-49.5 165q-158 -92 -360 -92q-206 0 -364.5 82t-247.5 236t-89 358q0 128 35.5 253.5t99 234t155 201.5t200 159t238 103.5t265.5 37.5q206 0 365 -83t247.5 -237.5t88.5 -357.5q0 -226 -107.5 -425.5t-300.5 -329.5
q48 -32 97 -84.5t75 -88t66 -94.5zM848 266q87 0 164 19q-42 13 -79.5 41.5t-72.5 74t-57 79.5t-55 91l301 217q170 -265 170 -399q79 73 133.5 221.5t54.5 288.5q0 176 -98 282.5t-283 106.5q-122 0 -228 -49.5t-178.5 -132t-113.5 -192t-41 -228.5q0 -194 103 -307
t280 -113z" />
    <glyph glyph-name="R" unicode="R" horiz-adv-x="1441" 
d="M414 0h-363l283 1597h637q17 0 31 -0.5t50.5 -4t67 -10.5t73.5 -22t76.5 -35t69 -53t59.5 -73.5t39 -98.5t15 -126q0 -225 -146.5 -372t-390.5 -159l-6 -41q69 -71 124.5 -143t109.5 -165t77 -136.5t80 -157.5h-409l-277 571q-30 6 -56.5 20t-72.5 48q0 -247 -71 -639z
M514 807l35 -19q55 37 105.5 48.5t111.5 11.5q125 2 212 75t87 177q0 53 -24 89t-62 51.5t-68.5 21.5t-60.5 6q-42 0 -65.5 1.5t-64 13t-79.5 34.5l-45 -21q25 -232 -82 -489z" />
    <glyph glyph-name="S" unicode="S" horiz-adv-x="1345" 
d="M580 -35q-248 0 -395.5 128t-161.5 347l358 115q28 -260 254 -260q108 0 180 49.5t72 122.5q0 29 -13.5 53.5t-32.5 41t-50.5 32.5t-55.5 24.5t-61 20.5l-133 43q-50 16 -88.5 32t-90.5 48.5t-86 71t-58.5 99.5t-24.5 134q0 107 48.5 208.5t133 180t208.5 126.5t265 48
q117 0 213 -32.5t156 -86.5t94 -118t39 -131l-357 -136q-40 177 -205 177q-86 0 -145 -43t-59 -105q0 -61 58 -100t165 -74l164 -55q32 -11 53 -18.5t57 -25t60.5 -35t53.5 -46t47 -61t30 -78t12 -97.5q0 -112 -50.5 -219.5t-140 -192t-224 -136.5t-289.5 -52z" />
    <glyph glyph-name="T" unicode="T" horiz-adv-x="1314" 
d="M737 0h-362q55 308 81 448t80 390t111 465q-94 -19 -191 -28.5t-154.5 -11t-158.5 -1.5l60 335h1272l-60 -335q-101 0 -157.5 1.5t-150 11t-179.5 28.5q-19 -213 -52.5 -455.5t-62 -412.5t-76.5 -435z" />
    <glyph glyph-name="U" unicode="U" horiz-adv-x="1519" 
d="M651 -35q-120 0 -212 26t-148.5 66t-93 100.5t-51.5 118t-16.5 130.5t4 125t16.5 114l167 952h363l-162 -921q-6 -33 -10 -59.5t-5.5 -67t3 -71t18 -64.5t37 -56t63 -36.5t91.5 -14.5q53 0 98.5 15.5t76 38t56 57.5t40 65t26.5 70.5t16.5 63t10.5 53.5q1 4 1 6l162 921
h363l-168 -952q-11 -62 -24 -114t-40.5 -125t-62.5 -130t-93 -118t-129 -101t-173.5 -66t-223.5 -26z" />
    <glyph glyph-name="V" unicode="V" horiz-adv-x="1591" 
d="M911 0h-432l-307 1597h381q175 -904 164 -1253h82q83 239 290 653t312 600h381z" />
    <glyph glyph-name="W" unicode="W" horiz-adv-x="2383" 
d="M799 0h-459l-152 1597h418q16 -234 23.5 -395t8 -364.5t-10.5 -423.5h41q185 511 499 1183h414q27 -246 39.5 -376.5t26 -366.5t12.5 -461h41q169 563 442 1204h418l-717 -1597h-452q-29 235 -42.5 360t-23.5 333t-4 423h-61q-103 -312 -211 -568t-250 -548z" />
    <glyph glyph-name="X" unicode="X" horiz-adv-x="1423" 
d="M328 -2h-441q395 482 648 776l6 41q-47 91 -99 200t-86.5 183.5t-95 206.5t-88.5 192h428q117 -276 178 -546h41q173 294 375 546h428q-472 -572 -655 -782l-6 -41q174 -353 366 -776h-440q-115 296 -160 534h-41q-156 -269 -358 -534z" />
    <glyph glyph-name="Y" unicode="Y" horiz-adv-x="1447" 
d="M805 0h-363q66 364 115 535q-154 394 -379 1062h389q55 -181 77 -258.5t54.5 -227t49.5 -296.5h40q101 212 205.5 387.5t249.5 394.5h389q-15 -22 -129 -186t-157.5 -226t-137 -195t-171 -239.5t-156.5 -211.5q-13 -197 -76 -539z" />
    <glyph glyph-name="Z" unicode="Z" horiz-adv-x="1390" 
d="M1219 0h-1248l52 295q246 272 496 511.5t581 514.5l-15 41q-481 -100 -870 -100l59 335h1211l-53 -301q-244 -262 -493 -498.5t-579 -521.5l13 -40q481 100 905 100z" />
    <glyph glyph-name="bracketleft" unicode="[" horiz-adv-x="897" 
d="M653 -469h-680l365 2066h680l-55 -309q-76 0 -118.5 1.5t-114.5 11t-140 28.5q-72 -743 -262 -1489q75 19 150 28.5t118.5 11t118.5 1.5z" />
    <glyph glyph-name="backslash" unicode="\" horiz-adv-x="960" 
d="M795 -135h-320l-244 1773h320z" />
    <glyph glyph-name="bracketright" unicode="]" horiz-adv-x="897" 
d="M557 -469h-680l62 350q75 0 118 -1.5t115 -11t141 -28.5q67 728 262 1489q-76 -19 -151.5 -28.5t-119 -11t-118.5 -1.5l56 309h680z" />
    <glyph glyph-name="asciicircum" unicode="^" horiz-adv-x="991" 
d="M379 973h-242l400 624h294l166 -624h-241q-25 105 -36 154t-21.5 129t-8.5 147h-86q-23 -68 -64 -149.5t-71 -132t-90 -148.5z" />
    <glyph glyph-name="underscore" unicode="_" horiz-adv-x="1132" 
d="M901 -258h-954l47 268h954z" />
    <glyph glyph-name="a" unicode="a" horiz-adv-x="1206" 
d="M338 -35q-89 0 -162 29.5t-121.5 98t-48.5 167.5q0 82 33 149.5t92 114.5t132.5 79t162.5 50q237 49 297.5 72.5t60.5 79.5q0 48 -31.5 73t-88.5 25q-153 0 -226 -160l-299 107q42 89 106.5 154.5t142.5 103t160.5 55t172.5 17.5q231 0 333.5 -108t67.5 -308l-71 -406
q-23 -130 -28 -211.5t1 -146.5h-340q-2 18 -4 35t11 55t44 90h-41q-116 -215 -356 -215zM494 225q85 0 148 58t77 139l12 67q-186 -43 -215 -51q-69 -20 -99 -55.5t-30 -75.5q0 -43 30.5 -62.5t76.5 -19.5z" />
    <glyph glyph-name="b" unicode="b" horiz-adv-x="1355" 
d="M680 -35q-228 0 -287 199h-41q4 -13 7.5 -25t5.5 -23.5t3 -19.5t1 -19v-16t-1.5 -16.5t-2 -14.5t-3 -15.5t-2.5 -14.5h-337l288 1638h342q-4 -24 -24.5 -146.5t-31.5 -179.5t-37 -166t-58 -208h41q84 134 175.5 188t201.5 54q190 0 291.5 -127t101.5 -334
q0 -145 -51 -283t-136 -241.5t-202.5 -166.5t-243.5 -63zM651 293q124 0 212.5 100t88.5 236q0 101 -52.5 162t-145.5 61q-124 0 -213.5 -101t-89.5 -237q0 -101 54 -161t146 -60z" />
    <glyph glyph-name="c" unicode="c" horiz-adv-x="1245" 
d="M555 -35q-230 0 -370 129.5t-140 360.5q0 139 54 271t147 232.5t226.5 161t283.5 60.5q196 0 327.5 -100t159.5 -269l-342 -131q-13 90 -67 131t-127 41q-124 0 -214 -100.5t-90 -233.5q0 -106 59.5 -165.5t151.5 -59.5q75 0 147 42.5t122 129.5l297 -131
q-88 -170 -256 -269.5t-369 -99.5z" />
    <glyph glyph-name="d" unicode="d" horiz-adv-x="1359" 
d="M465 -35q-201 0 -310.5 126.5t-109.5 342.5q0 192 83 363.5t229.5 277t318.5 105.5q122 0 189 -59t87 -183h41q7 140 21.5 275t27.5 213t37 212h342l-225 -1280q-23 -133 -28 -210.5t1 -147.5h-338q-2 46 3 79t24 85h-41q-109 -199 -352 -199zM604 295q124 0 213.5 101
t89.5 237q0 101 -54 161t-146 60q-124 0 -212.5 -100t-88.5 -236q0 -101 52.5 -162t145.5 -61z" />
    <glyph glyph-name="e" unicode="e" horiz-adv-x="1259" 
d="M555 -35q-230 0 -370 131t-140 357q0 109 34 216t98 198.5t149 162t193.5 110.5t225.5 40q118 0 211.5 -40.5t156.5 -119t85.5 -195.5t-2.5 -270l-12 -72h-803q4 -105 67 -158t158 -53q68 0 134.5 36t109.5 108l299 -131q-78 -134 -236.5 -227t-357.5 -93zM436 698h445
q-3 97 -53 144t-138 47q-86 0 -151.5 -52t-102.5 -139z" />
    <glyph glyph-name="f" unicode="f" horiz-adv-x="823" 
d="M457 0h-342q34 191 52.5 289t57.5 265.5t84 311.5q-101 -30 -217 -30l55 311q47 0 72.5 -1t64.5 -8.5t68 -21.5q-16 39 -19.5 63t7.5 99q18 89 56.5 159t87.5 113.5t110 72t118.5 39.5t118.5 11q106 0 179 -24l-49 -283q-63 16 -109 16q-44 0 -74.5 -7t-48 -17
t-28.5 -29.5t-14.5 -34.5t-8.5 -43q-7 -43 -19.5 -72t-46.5 -63q47 14 101 21.5t88.5 8.5t97.5 1l-55 -311q-56 0 -84.5 1t-83 8t-107.5 21q-8 -145 -27 -306.5t-36.5 -273t-48.5 -286.5z" />
    <glyph glyph-name="g" unicode="g" horiz-adv-x="1359" 
d="M463 -483q-64 0 -122.5 8t-121.5 30t-112 56.5t-87.5 94t-54.5 136.5l330 113q25 -82 76.5 -116t134.5 -34q69 0 122 20t87 57t55.5 80.5t34.5 98.5q1 4 5 21t5 22t5 19.5t6.5 20.5t7.5 19t10 21t11.5 19.5t14.5 21.5h-41q-39 -68 -83 -113.5t-90 -67t-85 -29t-86 -7.5
q-206 0 -320 120.5t-114 332.5q0 137 49.5 268.5t133 230.5t200.5 159.5t244 60.5q255 0 264 -242h41q2 122 16 209h338l-182 -1041q-24 -134 -75.5 -238.5t-118 -169.5t-151.5 -106.5t-169 -58t-178 -16.5zM616 336q120 0 207.5 93.5t87.5 215.5q0 95 -56.5 152t-147.5 57
q-121 0 -207 -94t-86 -215q0 -95 56 -152t146 -57z" />
    <glyph glyph-name="h" unicode="h" horiz-adv-x="1310" 
d="M365 0h-342l288 1638h342q-2 -10 -15 -81.5t-16.5 -89t-16 -81t-19 -91t-19.5 -84t-23.5 -93.5t-25 -86t-29.5 -94h41q151 242 383 242q167 0 258.5 -119.5t53.5 -335.5l-127 -725h-342l100 573q5 29 8 48t5 51.5t-0.5 54t-11 47.5t-24.5 41.5t-43 26t-63 10.5
q-40 0 -77.5 -12.5t-75 -42t-66.5 -87t-43 -137.5z" />
    <glyph glyph-name="i" unicode="i" horiz-adv-x="587" 
d="M414 1257q-74 0 -121 47.5t-47 120.5q0 92 72 163t167 71q74 0 121 -46.5t47 -117.5q0 -93 -72 -165.5t-167 -72.5zM365 0h-342l202 1147h342z" />
    <glyph glyph-name="j" unicode="j" horiz-adv-x="587" 
d="M418 1257q-74 0 -122 47.5t-48 120.5q0 92 71.5 163t167.5 71q75 0 122.5 -46.5t47.5 -117.5q0 -92 -72 -165t-167 -73zM-117 -483q-114 0 -229 39l51 290q98 -24 156 -24q38 0 65.5 9.5t42 20.5t25.5 34t14 37t8 42l209 1182h342l-205 -1161q-28 -155 -58 -226
q-82 -195 -299 -233q-57 -10 -122 -10z" />
    <glyph glyph-name="k" unicode="k" horiz-adv-x="1212" 
d="M367 0h-344l288 1638h344q-40 -227 -56 -317t-56.5 -272t-87.5 -338h41q160 195 413 436h406l-549 -475q29 -42 59 -87.5t52 -80t53 -88.5t45.5 -79.5t48 -88t42.5 -79t46.5 -88t42.5 -81.5h-403q-5 10 -22 46t-22 47t-20 43t-21 45t-19 42.5t-19.5 47t-18 46t-19.5 51.5
t-17.5 51.5t-18.5 57.5q-46 -67 -76 -103t-71 -73q-7 -103 -41 -301z" />
    <glyph glyph-name="l" unicode="l" horiz-adv-x="587" 
d="M365 0h-342l288 1638h342z" />
    <glyph glyph-name="m" unicode="m" horiz-adv-x="2002" 
d="M365 0h-342l202 1147h338q-1 -4 -3.5 -19t-4 -20.5t-5 -20t-6.5 -23.5t-8.5 -25t-11.5 -30t-15 -32.5t-20 -38.5h41q75 124 174.5 183t200.5 59q109 0 181 -64t79 -203h41q158 267 389 267q78 0 144.5 -30.5t113 -88.5t64.5 -143t0 -193l-127 -725h-342l100 573
q20 121 13 171q-14 108 -129 108q-37 0 -72.5 -12.5t-72.5 -42t-66 -87t-43 -137.5l-101 -573h-342l103 575q5 26 7 41.5t5.5 43.5t2 47t-4 43.5t-12.5 40.5t-24 31t-37.5 22.5t-53.5 7.5q-38 0 -74 -12.5t-73 -42t-66 -87t-43 -137.5z" />
    <glyph glyph-name="n" unicode="n" horiz-adv-x="1310" 
d="M365 0h-342l202 1147h338q-20 -102 -74 -209h41q151 242 383 242q168 0 259 -119t53 -336l-127 -725h-342l100 573q5 29 8 48t5 51.5t-0.5 54t-11 47.5t-24.5 41.5t-43 26t-63 10.5q-40 0 -77.5 -12.5t-75 -42t-66.5 -87t-43 -137.5z" />
    <glyph glyph-name="o" unicode="o" horiz-adv-x="1310" 
d="M549 -35q-232 0 -368 132t-136 356q0 139 54.5 271t147.5 232.5t229 162t288 61.5q231 0 366.5 -133.5t135.5 -358.5q0 -139 -53.5 -270t-146.5 -231.5t-228.5 -161t-288.5 -60.5zM608 293q122 0 210.5 101.5t88.5 242.5q0 97 -54 156t-146 59q-128 0 -214.5 -104.5
t-86.5 -235.5q0 -99 54 -159t148 -60z" />
    <glyph glyph-name="p" unicode="p" horiz-adv-x="1355" 
d="M285 -451h-342l282 1598h338q-1 -5 -4.5 -24t-5.5 -27.5t-8 -29.5t-13 -39t-19 -46.5t-28 -60.5h41q98 148 189.5 204t199.5 56q184 0 291 -122t107 -337q0 -195 -86.5 -370t-233.5 -280.5t-313 -105.5q-232 0 -272 230h-41q-2 -78 -7.5 -149t-16 -147.5t-16.5 -114.5
t-22.5 -127t-19.5 -108zM653 293q82 0 152 48.5t108.5 126t38.5 163.5q0 101 -53 161t-145 60q-124 0 -213.5 -100.5t-89.5 -235.5q0 -102 54.5 -162.5t147.5 -60.5z" />
    <glyph glyph-name="q" unicode="q" horiz-adv-x="1359" 
d="M1057 -451h-342q54 303 97 462q26 95 56 186h-41q-157 -232 -381 -232q-180 0 -288.5 127t-108.5 348q0 193 83.5 363.5t229 273.5t316.5 103q122 0 191.5 -58.5t91.5 -179.5h40q-5 31 -7.5 57t-3.5 42.5t0 35.5t2 26t4 24t3 20h338zM606 295q124 0 213.5 100t89.5 236
q0 103 -54 163t-146 60q-124 0 -212.5 -100t-88.5 -236q0 -101 52.5 -162t145.5 -61z" />
    <glyph glyph-name="r" unicode="r" horiz-adv-x="909" 
d="M365 0h-342l202 1147h338q0 -1 -4 -27.5t-7.5 -39.5t-11.5 -41t-21 -60t-32 -70h41q137 271 355 271q47 0 100 -19l-68 -385q-62 21 -135 21q-56 0 -103 -15.5t-78.5 -34t-59 -59t-41 -63.5t-29 -76.5t-18.5 -69.5t-13 -69q-1 -6 -2 -9z" />
    <glyph glyph-name="s" unicode="s" horiz-adv-x="1069" 
d="M430 -35q-198 0 -316 88t-130 236l335 102q33 -147 162 -147q57 0 91 24t34 62q0 11 -3.5 20.5t-7.5 16.5t-14 14t-15.5 11t-19 9.5t-18.5 7.5t-20.5 7t-18.5 6l-118 39q-33 11 -53.5 19t-62 33t-66.5 53t-45.5 76.5t-20.5 107.5q0 83 38 160.5t105 137.5t166 96t213 36
q175 0 280 -81.5t117 -211.5l-329 -103q-23 121 -123 121q-48 0 -82.5 -26t-34.5 -62q0 -19 13 -34.5t40.5 -28.5t48 -20.5t58.5 -18.5l76 -23q100 -31 142 -55q129 -77 130 -236q0 -187 -154.5 -311.5t-396.5 -124.5z" />
    <glyph glyph-name="t" unicode="t" horiz-adv-x="942" 
d="M563 -35q-68 0 -123.5 10.5t-93.5 27t-66 43t-44 51t-25 59.5t-11.5 59.5t-0.5 60t4.5 53t7.5 44.5q26 146 54 261t75 232q-57 -14 -111 -21t-81 -8t-80 -1l55 311q149 0 260 -31q-6 49 -6.5 94t4.5 94.5t9 77t13 84.5h342q-36 -213 -102 -350q145 31 342 31l-55 -311
q-69 0 -103.5 1t-99.5 8t-127 21q11 -130 2.5 -182t-24 -126t-15.5 -138q0 -73 25.5 -108.5t99.5 -35.5q59 0 150 31l-56 -303q-82 -39 -219 -39z" />
    <glyph glyph-name="u" unicode="u" horiz-adv-x="1294" 
d="M420 -35q-202 0 -286.5 120t-45.5 343l127 719h342l-106 -604q-11 -48 -9 -93t13.5 -80t42.5 -56t80 -21q91 0 157 67.5t86 182.5l107 604h342l-140 -789q-23 -133 -27.5 -209t1.5 -149h-340q-1 30 -1 53t12.5 58.5t41.5 85.5h-41q-63 -123 -146 -177.5t-210 -54.5z" />
    <glyph glyph-name="v" unicode="v" horiz-adv-x="1206" 
d="M717 0h-426l-187 1147h373q33 -202 48 -385.5t14 -421.5h61q152 441 344 807h361z" />
    <glyph glyph-name="w" unicode="w" horiz-adv-x="1937" 
d="M672 0h-406l-164 1147h392q12 -122 18 -189.5t12 -172.5t4 -203t-10 -205h62q53 142 117 289t107.5 237t119.5 244h295q22 -164 33 -256t21.5 -233t12.5 -281h57q13 45 27.5 90.5t26 81.5t30.5 85t28.5 75t32.5 79.5t30 71t34 76t31 68t34 74.5t32 69h389l-568 -1147
h-421q-35 334 -36 509q-1 80 3 155h-60q-92 -278 -284 -664z" />
    <glyph glyph-name="x" unicode="x" horiz-adv-x="1175" 
d="M295 0h-401q258 331 481 565l6 41q-122 189 -281 541h398q27 -71 43 -118.5t35 -122t28 -148.5h41q35 75 79.5 148.5t78.5 120.5t90 120h385q-104 -130 -161.5 -200t-143 -166t-166.5 -175l-6 -41q144 -234 280 -565h-391q-66 162 -110 383h-41q-82 -167 -244 -383z" />
    <glyph glyph-name="y" unicode="y" horiz-adv-x="1228" 
d="M475 -451h-371l218 390l-224 1208h377q37 -220 57 -406.5t21 -425.5h41q59 163 130.5 326.5t114.5 251t128 254.5h366z" />
    <glyph glyph-name="z" unicode="z" horiz-adv-x="1126" 
d="M967 0h-992l52 293q130 117 209 187t205.5 171.5t244.5 182.5l-14 40q-82 -19 -189.5 -28.5t-171 -10.5t-184.5 -1l55 313h948l-51 -293q-279 -249 -410 -354q-129 -103 -251 -187l12 -41q92 19 206 28.5t186.5 11t199.5 1.5z" />
    <glyph glyph-name="braceleft" unicode="{" horiz-adv-x="974" 
d="M758 -299h-144q-277 0 -386 103.5t-72 320.5l30 178q5 30 7 54t2.5 42.5t-4.5 31.5t-9 22.5t-16.5 15.5t-20 9.5t-27 4.5t-31.5 1.5t-38 0.5l57 328h1h1h2q84 0 114 13q50 23 74 118q6 23 11 51l31 179q12 68 31 121.5t62.5 112.5t106.5 98t168 65t242 26h144l-56 -309
h-102q-31 0 -49 -0.5t-48 -4.5t-49 -11.5t-42.5 -22t-39 -35.5t-29 -53.5t-20.5 -73.5l-16 -96q-8 -47 -13 -73t-14.5 -58t-20 -48.5t-28.5 -37t-41 -31t-56.5 -22t-75 -18.5t-97.5 -13l-16 -88q54 -7 90.5 -12.5t67.5 -16t48.5 -18.5t30 -27.5t16.5 -35t3 -48t-4.5 -60
t-12.5 -77.5l-16 -96q-4 -33 -6 -59t5.5 -46.5t15.5 -35.5t24.5 -25.5t32.5 -17.5t39.5 -10.5t45.5 -5t50 -1.5h102z" />
    <glyph glyph-name="bar" unicode="|" horiz-adv-x="591" 
d="M254 -451h-277l369 2089h277z" />
    <glyph glyph-name="braceright" unicode="}" horiz-adv-x="974" 
d="M53 -299h-143l55 309h103q31 0 47.5 0.5t47 4.5t48.5 11t42.5 21.5t39.5 35.5t29.5 53.5t21.5 74.5l16 96q11 65 19 98.5t24.5 69.5t36 52t58 33t86 25t123.5 17l14 88q-53 7 -90.5 14t-67.5 18t-48.5 21t-30 29.5t-16 36.5t-3.5 49t4.5 59t11.5 74l17 96q9 38 5.5 67
t-8.5 50t-21 36t-32.5 24.5t-42 14.5t-50 7t-56.5 2h-103l54 309h143q284 0 392 -105.5t69 -317.5l-33 -179q-5 -27 -7.5 -49t-2 -39.5t1.5 -31t8 -23.5t11.5 -16.5t17 -11t20.5 -6.5t26.5 -3.5t29.5 -1.5h34l-57 -328q-30 0 -42.5 -0.5t-35 -2.5t-31.5 -6.5t-24.5 -13
t-22.5 -21.5t-17 -32t-16.5 -45t-13.5 -61l-32 -178q-14 -75 -38.5 -135t-70.5 -115.5t-111 -92.5t-164 -59t-225 -22z" />
    <glyph glyph-name="asciitilde" unicode="~" horiz-adv-x="1200" 
d="M788 434q-69 0 -135 29t-117.5 57.5t-84.5 28.5q-41 0 -69.5 -32.5t-35.5 -72.5h-262q30 173 134 278t233 105q60 0 120.5 -26t113 -52t93.5 -26q44 0 66 26t30 72h263q-33 -188 -126 -287.5t-223 -99.5z" />
    <glyph glyph-name="uni00A0" unicode="&#xa0;" horiz-adv-x="471" 
 />
    <glyph glyph-name="exclamdown" unicode="&#xa1;" horiz-adv-x="583" 
d="M324 764q-73 0 -121.5 49t-48.5 121q0 94 75 170t172 76q73 0 121.5 -49.5t48.5 -124.5q0 -97 -77.5 -169.5t-169.5 -72.5zM297 -432h-363l37 211l236 835h186l-59 -835z" />
    <glyph glyph-name="cent" unicode="&#xa2;" horiz-adv-x="1136" 
d="M758 1001l-86 -491q102 29 153 119l224 -103q-60 -115 -173.5 -190t-250.5 -90l-43 -246h-144l43 248q-154 23 -252 129.5t-98 279.5q0 146 69.5 279.5t192.5 223t269 108.5l34 198h144l-35 -198q126 -19 209.5 -93.5t103.5 -187.5l-260 -102q-13 86 -100 116zM420 705
q0 -72 30 -119.5t78 -67.5l86 481q-85 -29 -139.5 -112.5t-54.5 -181.5z" />
    <glyph glyph-name="sterling" unicode="&#xa3;" horiz-adv-x="1386" 
d="M1194 0h-1169l53 303q110 26 172 56.5t89 67.5t38 95q11 62 28 99.5t58 62.5q-154 -20 -371 -20l29 159q157 0 313 -20q-141 135 -141 305q0 141 79 260t222 190.5t319 71.5q69 0 134 -11.5t134.5 -43.5t121 -82t86 -135.5t36.5 -196.5l-354 -131q-2 70 -17 123t-35 82
t-47.5 46.5t-50 22.5t-47.5 5q-92 0 -151 -66.5t-59 -169.5q0 -41 18 -128t14 -142q180 20 451 20l-29 -159q-233 0 -407 20q45 -32 45 -94q0 -90 -69 -162t-236 -174l12 -41q55 16 107 29t104.5 22t91.5 15.5t91.5 10.5t80.5 6.5t83 3.5t74 1h78.5h73.5z" />
    <glyph glyph-name="currency" unicode="&#xa4;" horiz-adv-x="1374" 
d="M1171 913q0 -158 -102 -297l195 -284l-236 -178l-199 286q-79 -28 -165 -28q-92 0 -162 30l-301 -288l-174 178l295 286q-27 69 -27 144q0 156 102 295l-192 282l235 179l195 -283q85 31 172 31q85 0 166 -33l295 285l174 -179l-295 -284q24 -61 24 -142zM580 805
q0 -63 35 -100t92 -37q74 0 127 62.5t53 148.5q0 59 -33 95t-90 36q-75 0 -129.5 -61.5t-54.5 -143.5z" />
    <glyph glyph-name="yen" unicode="&#xa5;" horiz-adv-x="1499" 
d="M827 0h-362q9 48 16 77t25 77.5t47 101.5q-80 -19 -160.5 -28.5t-127 -11t-128.5 -1.5l39 225q82 0 128 -1.5t123 -11t151 -28.5q-20 62 -13.5 98.5t41.5 67.5q-79 -19 -159 -28.5t-126 -11t-128 -1.5l38 226q68 0 107 -1.5t105.5 -11t129.5 -28.5q-129 309 -342 888h385
q63 -195 102.5 -358t59.5 -356h45q89 192 189 359t227 355h385q-27 -37 -105.5 -146t-107.5 -149t-96 -131t-111 -150t-108.5 -143.5t-130.5 -168.5q72 19 142.5 28.5t110.5 11t109 1.5l-39 -226q-82 0 -127.5 1.5t-122.5 11t-151 28.5q25 -31 18.5 -68t-47.5 -98
q79 19 159.5 28.5t126.5 11t128 1.5l-39 -225q-82 0 -127.5 1.5t-122 11t-149.5 28.5q20 -119 -7 -256z" />
    <glyph glyph-name="brokenbar" unicode="&#xa6;" horiz-adv-x="591" 
d="M481 829h-276l143 809h277zM256 -451h-276l141 803h276z" />
    <glyph glyph-name="section" unicode="&#xa7;" horiz-adv-x="1136" 
d="M424 -301q-190 0 -315.5 84.5t-137.5 228.5l314 94q20 -82 72.5 -116.5t111.5 -34.5q55 0 93 27t38 67q0 16 -8.5 31.5t-19 25.5t-31.5 22.5t-34 18.5t-38 17l-119 51q-239 103 -239 270q0 103 81 180.5t220 86.5l6 43q-207 54 -207 235q0 74 37.5 148t103.5 134
t165.5 97t213.5 37q174 0 279.5 -81.5t117.5 -211.5l-325 -102q-14 139 -125 139q-54 0 -89.5 -31t-35.5 -74q0 -25 13 -45.5t37.5 -35t43.5 -23t47 -18.5l94 -35q56 -21 94.5 -40t82.5 -51t67 -77t23 -101q0 -119 -89 -200.5t-216 -83.5l-9 -45q105 -19 155 -73t50 -148
q0 -175 -147.5 -292.5t-374.5 -117.5zM547 455l26 -11q70 4 114 42.5t44 91.5q0 20 -7.5 35t-27.5 26.5t-31.5 16.5t-41.5 16l-43 16q-49 19 -100.5 -22.5t-51.5 -98.5q0 -20 9 -37t18 -27t31 -21.5t29.5 -14.5t31.5 -12z" />
    <glyph glyph-name="copyright" unicode="&#xa9;" horiz-adv-x="1873" 
d="M831 -35q-206 0 -364.5 82t-247 237t-88.5 361q0 191 78.5 371.5t211 315.5t318 216.5t387.5 81.5q207 0 365 -82.5t246 -237t88 -358.5q0 -191 -78.5 -371.5t-210.5 -316t-317.5 -217.5t-387.5 -82zM860 133q164 0 313 65.5t254.5 174t167.5 252.5t62 297
q0 249 -155 395.5t-406 146.5q-163 0 -311 -65.5t-253.5 -173.5t-168 -252.5t-62.5 -298.5q0 -251 155 -396t404 -145zM920 346q-178 0 -285 101t-107 270q0 139 71.5 261t195.5 195.5t268 73.5q148 0 245 -78t122 -213l-213 -79q-33 165 -185 165q-114 0 -196 -88t-82 -206
q0 -46 14.5 -82t36 -57t50.5 -34.5t55.5 -18.5t52.5 -5q83 0 147.5 49.5t103.5 136.5l191 -67q-77 -157 -202 -240.5t-283 -83.5z" />
    <glyph glyph-name="guillemotleft" unicode="&#xab;" horiz-adv-x="1402" 
d="M651 164h-350l-221 405l2 9l364 405h351q-68 -73 -99.5 -105.5t-93 -89t-122 -96.5t-130.5 -74l-16 -90q47 -27 89 -62t70.5 -66t60 -77.5t48.5 -76t47 -82.5zM1227 164h-350l-222 405l2 9l365 405h350q-66 -71 -99 -105t-93.5 -90t-121 -96t-130.5 -74l-17 -90
q47 -27 89 -61.5t71 -66t60.5 -77.5t49.5 -77t46 -82z" />
    <glyph glyph-name="logicalnot" unicode="&#xac;" horiz-adv-x="1087" 
d="M897 135h-276l67 381h-602l45 256h879z" />
    <glyph glyph-name="registered" unicode="&#xae;" horiz-adv-x="1112" 
d="M580 717q-173 0 -278 102.5t-105 270.5q0 140 71.5 264.5t197.5 201t275 76.5q169 0 278 -99t109 -271q0 -141 -72.5 -266.5t-199.5 -202t-276 -76.5zM600 827q113 0 209 59.5t149.5 154t53.5 198.5q0 126 -79 205.5t-208 79.5q-112 0 -207.5 -58.5t-150 -153.5
t-54.5 -202q0 -127 78.5 -205t208.5 -78zM565 936h-116l86 489h200q20 0 42 -4.5t51 -16.5t47 -41t18 -71q0 -59 -36.5 -107.5t-98.5 -66.5l88 -182h-125l-82 172h-43zM635 1327l-21 -121h70q35 0 57.5 19.5t22.5 50.5q0 51 -57 51h-72z" />
    <glyph glyph-name="degree" unicode="&#xb0;" horiz-adv-x="724" 
d="M442 1044q-109 0 -180.5 68t-71.5 180q0 91 48.5 173.5t132 133t178.5 50.5q111 0 182.5 -70t71.5 -180q0 -138 -108 -246.5t-253 -108.5zM475 1225q55 0 98 44t43 101q0 41 -27.5 69.5t-70.5 28.5q-56 0 -98.5 -43t-42.5 -100q0 -43 27 -71.5t71 -28.5z" />
    <glyph glyph-name="plusminus" unicode="&#xb1;" horiz-adv-x="1155" 
d="M1102 872l-45 -249h-336l-33 -193h336l-45 -250h-940l45 250h328l32 193h-327l45 249h327l39 224h277l-39 -224h336z" />
    <glyph glyph-name="uni00B2" unicode="&#xb2;" horiz-adv-x="761" 
d="M723 707h-629l6 36q17 100 46.5 166t96 129.5t183.5 128.5q5 3 20 11.5t24 13.5t23 14t22.5 17t17.5 17.5t13.5 19.5t4.5 20q0 33 -45 33q-40 0 -69.5 -30.5t-41.5 -88.5l-243 37q27 149 142 237t265 88q125 0 203 -63t78 -172q0 -84 -47.5 -154t-130.5 -110
q-122 -56 -154 -99h260z" />
    <glyph glyph-name="uni00B3" unicode="&#xb3;" horiz-adv-x="761" 
d="M385 686q-130 0 -216 55t-95 138l260 120q26 -86 92 -86q35 0 55.5 19t20.5 49q0 50 -68 49h-4h-80l33 184h78q33 0 62.5 17.5t29.5 48.5q0 20 -13.5 33.5t-37.5 13.5q-33 0 -57 -23.5t-35 -64.5l-240 57q29 107 137.5 183.5t255.5 76.5q118 0 195.5 -51t77.5 -139
q0 -71 -46 -134t-106 -73v-2q46 -9 78.5 -52.5t32.5 -100.5q0 -55 -30 -111t-81.5 -102.5t-130.5 -75.5t-168 -29z" />
    <glyph glyph-name="paragraph" unicode="&#xb6;" horiz-adv-x="1677" 
d="M811 -287h-358l165 942h-71q-186 0 -293 104t-107 283q0 111 43.5 212t121 177t192 121t248.5 45h391zM1346 -287h-359l332 1884h358z" />
    <glyph glyph-name="periodcentered" unicode="&#xb7;" horiz-adv-x="661" 
d="M313 477q-92 0 -151.5 60.5t-59.5 152.5q0 117 91 207t210 90q92 0 151.5 -59.5t59.5 -149.5q0 -114 -92 -207.5t-209 -93.5z" />
    <glyph glyph-name="uni00B9" unicode="&#xb9;" horiz-adv-x="567" 
d="M504 707h-273l78 440q-1 0 -18 -10.5t-20 -12t-19 -10.5t-22 -12t-21 -10t-25.5 -10.5t-25 -8t-29.5 -8.5l51 293q85 32 138.5 81t62.5 101h270z" />
    <glyph glyph-name="guillemotright" unicode="&#xbb;" horiz-adv-x="1398" 
d="M745 569l-364 -405h-350q63 69 96.5 103.5t92.5 89.5t120.5 96t132.5 75l16 90q-46 28 -87 63t-70.5 67t-60 76.5t-49.5 77t-46 81.5h350l222 -405zM1321 569l-365 -405h-350q62 68 96.5 103.5t93.5 90t120.5 95.5t132.5 75l16 90q-58 34 -105 76t-86 94.5t-63 91.5
t-59 103h350l221 -405z" />
    <glyph glyph-name="onequarter" unicode="&#xbc;" horiz-adv-x="1765" 
d="M504 707h-273l78 440q-1 0 -18 -10.5t-20 -12t-19 -10.5t-22 -12t-21 -10t-25.5 -10.5t-25 -8t-29.5 -8.5l51 293q85 32 138.5 81t62.5 101h270zM301 0h-317l1396 1468h310zM1528 -10h-260l24 135h-364l37 207l458 491h252l-84 -475h92l-38 -223h-93zM1356 481l-133 -133
h108z" />
    <glyph glyph-name="onehalf" unicode="&#xbd;" horiz-adv-x="1841" 
d="M504 707h-273l78 440q-1 0 -18 -10.5t-20 -12t-19 -10.5t-22 -12t-21 -10t-25.5 -10.5t-25 -8t-29.5 -8.5l51 293q85 32 138.5 81t62.5 101h270zM301 0h-317l1396 1468h310zM1675 -10h-628l6 37q12 75 30.5 128t55 104.5t94 97t145.5 94.5l28 15q27 16 36 22t27.5 20.5
t26 27.5t7.5 27q0 33 -45 33q-40 0 -69 -30.5t-41 -88.5l-244 37q27 149 142 237.5t265 88.5q125 0 203 -63.5t78 -172.5q0 -84 -47.5 -154t-130.5 -110q-123 -56 -154 -98h260z" />
    <glyph glyph-name="threequarters" unicode="&#xbe;" horiz-adv-x="1959" 
d="M385 686q-130 0 -216 55t-95 138l260 120q26 -86 92 -86q35 0 55.5 19t20.5 49q0 50 -68 49h-4h-80l33 184h78q33 0 62.5 17.5t29.5 48.5q0 20 -13.5 33.5t-37.5 13.5q-33 0 -57 -23.5t-35 -64.5l-240 57q29 107 137.5 183.5t255.5 76.5q118 0 195.5 -51t77.5 -139
q0 -71 -46 -134t-106 -73v-2q46 -9 78.5 -52.5t32.5 -100.5q0 -55 -30 -111t-81.5 -102.5t-130.5 -75.5t-168 -29zM496 0h-318l1397 1468h309zM1722 -10h-260l25 135h-365l37 207l459 491h252l-84 -475h92l-39 -223h-92zM1550 481l-133 -133h109z" />
    <glyph glyph-name="questiondown" unicode="&#xbf;" horiz-adv-x="1284" 
d="M717 764q-74 0 -124 49t-50 123q0 95 74 169.5t169 74.5q76 0 125.5 -50.5t49.5 -123.5q0 -94 -74.5 -168t-169.5 -74zM449 -465q-139 0 -248.5 46t-175.5 138.5t-66 217.5q0 72 23.5 138.5t55 111.5t80 88.5t80 65t72.5 46.5q9 6 34 20.5t35 20.5t31.5 19.5t31 20.5
t27 20t25.5 21.5t20 21t18 23.5t12 24t8 26q2 12 2 37h375q0 -37 -8 -84q-19 -103 -98 -176.5t-216 -142.5q-33 -17 -51.5 -26.5t-53 -33t-53.5 -44.5t-35 -53.5t-16 -66.5q0 -64 47.5 -103.5t129.5 -39.5q116 0 193.5 75.5t98.5 194.5v3t0.5 2t1.5 6t2 12l318 -58
q0 -3 -1 -8t-1 -8q-23 -129 -90 -235.5t-161.5 -175.5t-209.5 -106.5t-237 -37.5z" />
    <glyph glyph-name="Agrave" unicode="&#xc0;" horiz-adv-x="1593" 
d="M1180 1720h-310l-256 375h410zM268 0h-377l875 1597h428l309 -1597h-387q-9 44 -13 66t-11 68.5t-9 79.5t-2.5 77t4.5 84l-20 26q-154 -45 -311 -45t-291 45l-33 -26q-35 -148 -162 -375zM610 678l17 -21q91 43 188 43t176 -43l21 21q-23 78 -36 138.5t-21 135.5
t-6 159.5t14 188.5h-82q-48 -199 -110 -336t-161 -286z" />
    <glyph glyph-name="Aacute" unicode="&#xc1;" horiz-adv-x="1593" 
d="M1550 2095l-387 -375h-309l287 375h409zM268 0h-377l875 1597h428l309 -1597h-387q-9 44 -13 66t-11 68.5t-9 79.5t-2.5 77t4.5 84l-20 26q-154 -45 -311 -45t-291 45l-33 -26q-35 -148 -162 -375zM610 678l17 -21q91 43 188 43t176 -43l21 21q-23 78 -36 138.5
t-21 135.5t-6 159.5t14 188.5h-82q-48 -199 -110 -336t-161 -286z" />
    <glyph glyph-name="Acircumflex" unicode="&#xc2;" horiz-adv-x="1593" 
d="M858 1720h-317l364 375h318l233 -375h-317q-23 29 -34 49t-20 67t-4 112h-82q-29 -93 -61.5 -141t-79.5 -87zM268 0h-377l875 1597h428l309 -1597h-387q-9 44 -13 66t-11 68.5t-9 79.5t-2.5 77t4.5 84l-20 26q-154 -45 -311 -45t-291 45l-33 -26q-35 -148 -162 -375z
M610 678l17 -21q91 43 188 43t176 -43l21 21q-23 78 -36 138.5t-21 135.5t-6 159.5t14 188.5h-82q-48 -199 -110 -336t-161 -286z" />
    <glyph glyph-name="Atilde" unicode="&#xc3;" horiz-adv-x="1593" 
d="M1151 1722q-79 0 -127 35l-57 41q-41 29 -70 29q-30 0 -49.5 -24.5t-26.5 -61.5h-241q27 156 124 250t220 94q73 0 143 -45l49 -33q24 -16 49 -16q23 0 39.5 21.5t22.5 58.5h241q-29 -170 -111.5 -259.5t-205.5 -89.5zM268 0h-377l875 1597h428l309 -1597h-387
q-9 44 -13 66t-11 68.5t-9 79.5t-2.5 77t4.5 84l-20 26q-154 -45 -311 -45t-291 45l-33 -26q-35 -148 -162 -375zM610 678l17 -21q91 43 188 43t176 -43l21 21q-23 78 -36 138.5t-21 135.5t-6 159.5t14 188.5h-82q-48 -199 -110 -336t-161 -286z" />
    <glyph glyph-name="Adieresis" unicode="&#xc4;" horiz-adv-x="1593" 
d="M748 1712q-73 0 -119.5 45.5t-46.5 116.5q0 93 70.5 162t164.5 69q72 0 118 -45t46 -114q0 -90 -69.5 -162t-163.5 -72zM1239 1712q-73 0 -119.5 45.5t-46.5 116.5q0 93 71 162t165 69q72 0 118 -45t46 -114q0 -89 -70 -161.5t-164 -72.5zM268 0h-377l875 1597h428
l309 -1597h-387q-9 44 -13 66t-11 68.5t-9 79.5t-2.5 77t4.5 84l-20 26q-154 -45 -311 -45t-291 45l-33 -26q-35 -148 -162 -375zM610 678l17 -21q91 43 188 43t176 -43l21 21q-23 78 -36 138.5t-21 135.5t-6 159.5t14 188.5h-82q-48 -199 -110 -336t-161 -286z" />
    <glyph glyph-name="Aring" unicode="&#xc5;" horiz-adv-x="1593" 
d="M993 1708q-102 0 -167.5 62.5t-65.5 156.5q0 118 97 209.5t226 91.5q102 0 167 -60.5t65 -156.5q0 -119 -96.5 -211t-225.5 -92zM1016 1864q49 0 86 37.5t37 83.5q0 36 -23.5 61t-60.5 25q-47 0 -83 -37t-36 -84q0 -37 21.5 -61.5t58.5 -24.5zM268 0h-377l875 1597h428
l309 -1597h-387q-9 44 -13 66t-11 68.5t-9 79.5t-2.5 77t4.5 84l-20 26q-154 -45 -311 -45t-291 45l-33 -26q-35 -148 -162 -375zM610 678l17 -21q91 43 188 43t176 -43l21 21q-23 78 -36 138.5t-21 135.5t-6 159.5t14 188.5h-82q-48 -199 -110 -336t-161 -286z" />
    <glyph glyph-name="AE" unicode="&#xc6;" horiz-adv-x="2207" 
d="M242 0h-406l1165 1597h1278l-59 -335q-155 0 -241.5 1.5t-226 11t-263.5 28.5q12 -99 -2 -181t-62 -180q125 19 260.5 28.5t217 11t227.5 1.5l-64 -352q-145 0 -226 1.5t-212.5 11t-249.5 28.5q12 -106 -3 -189.5t-64 -187.5q135 19 281 28.5t235 11t250 1.5l-60 -336
h-1079q14 77 23 120.5t32 120t56 150.5q-161 -31 -297 -31t-285 31q-25 -74 -66 -150t-71 -119t-88 -122zM713 666q113 31 197.5 31t185.5 -31q0 163 22.5 310t69.5 327h-41q-152 -284 -434 -637z" />
    <glyph glyph-name="Ccedilla" unicode="&#xc7;" horiz-adv-x="1689" 
d="M856 307q162 0 292 93.5t212 256.5l317 -114q-72 -143 -165.5 -251.5t-199.5 -176t-215.5 -103.5t-228.5 -45q-21 -16 -147 -98l16 -21q101 68 156 68q66 0 112 -45.5t46 -126.5q0 -117 -99.5 -195.5t-251.5 -78.5q-99 0 -170.5 35.5t-105.5 99.5l127 133q57 -98 170 -98
q49 0 78.5 22t29.5 59q0 28 -22 44t-59 16q-52 0 -91 -31l-88 74l121 147q-274 30 -435 207t-161 465q0 194 76.5 375t206 315.5t311 215.5t381.5 81q269 0 440 -140.5t217 -373.5l-360 -135q-79 307 -358 307q-114 0 -215.5 -52.5t-170 -137.5t-108 -193t-39.5 -219
q0 -84 23 -150.5t60 -108.5t87.5 -69.5t102.5 -39t108 -11.5z" />
    <glyph glyph-name="Egrave" unicode="&#xc8;" horiz-adv-x="1320" 
d="M1079 1720h-309l-256 375h410zM1130 0h-1079l283 1597h1059l-60 -335q-143 0 -223.5 2t-213.5 14.5t-255 38.5l-45 -21q17 -95 5 -175t-60 -195l20 -21q127 37 259 56t209 21.5t214 2.5l-63 -354q-103 0 -160 1.5t-147.5 8.5t-173 25.5t-167.5 48.5l-32 -21
q5 -125 -11 -207.5t-63 -167.5l33 -40q133 27 274 40t224.5 15t232.5 2z" />
    <glyph glyph-name="Eacute" unicode="&#xc9;" horiz-adv-x="1320" 
d="M1450 2095l-387 -375h-309l286 375h410zM1130 0h-1079l283 1597h1059l-60 -335q-143 0 -223.5 2t-213.5 14.5t-255 38.5l-45 -21q17 -95 5 -175t-60 -195l20 -21q127 37 259 56t209 21.5t214 2.5l-63 -354q-103 0 -160 1.5t-147.5 8.5t-173 25.5t-167.5 48.5l-32 -21
q5 -125 -11 -207.5t-63 -167.5l33 -40q133 27 274 40t224.5 15t232.5 2z" />
    <glyph glyph-name="Ecircumflex" unicode="&#xca;" horiz-adv-x="1320" 
d="M758 1720h-318l365 375h317l234 -375h-318q-22 29 -33.5 49t-20 67t-3.5 112h-82q-29 -93 -61.5 -141t-79.5 -87zM1130 0h-1079l283 1597h1059l-60 -335q-143 0 -223.5 2t-213.5 14.5t-255 38.5l-45 -21q17 -95 5 -175t-60 -195l20 -21q127 37 259 56t209 21.5t214 2.5
l-63 -354q-103 0 -160 1.5t-147.5 8.5t-173 25.5t-167.5 48.5l-32 -21q5 -125 -11 -207.5t-63 -167.5l33 -40q133 27 274 40t224.5 15t232.5 2z" />
    <glyph glyph-name="Edieresis" unicode="&#xcb;" horiz-adv-x="1320" 
d="M647 1712q-73 0 -119.5 45.5t-46.5 116.5q0 93 71 162t165 69q72 0 118 -45t46 -114q0 -89 -70 -161.5t-164 -72.5zM1139 1712q-73 0 -119.5 45.5t-46.5 116.5q0 93 70.5 162t164.5 69q72 0 118 -45t46 -114q0 -90 -70 -162t-163 -72zM1130 0h-1079l283 1597h1059
l-60 -335q-143 0 -223.5 2t-213.5 14.5t-255 38.5l-45 -21q17 -95 5 -175t-60 -195l20 -21q127 37 259 56t209 21.5t214 2.5l-63 -354q-103 0 -160 1.5t-147.5 8.5t-173 25.5t-167.5 48.5l-32 -21q5 -125 -11 -207.5t-63 -167.5l33 -40q133 27 274 40t224.5 15t232.5 2z" />
    <glyph glyph-name="Igrave" unicode="&#xcc;" horiz-adv-x="665" 
d="M715 1720h-309l-256 375h409zM414 0h-363l283 1597h362z" />
    <glyph glyph-name="Iacute" unicode="&#xcd;" horiz-adv-x="665" 
d="M1085 2095l-387 -375h-309l287 375h409zM414 0h-363l283 1597h362z" />
    <glyph glyph-name="Icircumflex" unicode="&#xce;" horiz-adv-x="665" 
d="M393 1720h-317l364 375h318l233 -375h-317q-23 29 -34 49t-20 67t-4 112h-81q-29 -93 -62 -140.5t-80 -87.5zM414 0h-363l283 1597h362z" />
    <glyph glyph-name="Idieresis" unicode="&#xcf;" horiz-adv-x="665" 
d="M283 1712q-73 0 -119.5 45.5t-46.5 116.5q0 93 70.5 162t164.5 69q72 0 118 -45t46 -114q0 -90 -70 -162t-163 -72zM774 1712q-73 0 -119.5 45.5t-46.5 116.5q0 93 71 162t165 69q72 0 118 -45t46 -114q0 -89 -70 -161.5t-164 -72.5zM414 0h-363l283 1597h362z" />
    <glyph glyph-name="Eth" unicode="&#xd0;" horiz-adv-x="1619" 
d="M334 1597h637q165 0 288 -44t198.5 -126.5t112 -193t36.5 -250.5q0 -150 -41 -294.5t-120 -268.5t-186.5 -218.5t-250 -148t-301.5 -53.5h-656l115 653h-221l51 289h221zM627 336q155 0 270.5 40.5t185 115.5t103 173.5t33.5 221.5q0 61 -8.5 111.5t-21.5 87t-35.5 65.5
t-42.5 47t-50.5 31t-52 19t-55.5 9.5t-51 4t-48 0.5q-95 0 -129.5 8.5t-83.5 46.5l-45 -21q9 -185 -8 -354h260l-51 -289h-258q-44 -170 -113 -334l33 -40q100 42 122 49.5t46 7.5z" />
    <glyph glyph-name="Ntilde" unicode="&#xd1;" horiz-adv-x="1662" 
d="M1180 1714q-79 0 -127 35l-58 41q-41 29 -69 29q-30 0 -49.5 -24.5t-26.5 -61.5h-242q27 156 124 250t220 94q74 0 144 -45l49 -33q25 -17 49 -17q23 0 39 21.5t22 58.5h242q-29 -170 -111.5 -259t-205.5 -89zM414 0h-363l283 1597h334q163 -268 274 -511.5t199 -561.5
h41q40 467 149 1073h363l-283 -1597h-334q-86 140 -140 233.5t-122 226.5t-121.5 274t-97.5 300h-41q-16 -200 -42 -400.5t-45 -316t-54 -317.5z" />
    <glyph glyph-name="Ograve" unicode="&#xd2;" horiz-adv-x="1757" 
d="M1260 1720h-310l-256 375h410zM772 -35q-197 0 -351 81.5t-241.5 235.5t-87.5 357q0 189 77 370t206 317.5t310.5 220t377.5 83.5q198 0 353 -83t242 -237.5t87 -357.5q0 -190 -77.5 -370.5t-207.5 -316t-311 -218t-377 -82.5zM834 307q142 0 264 84.5t191 220.5t69 287
q0 173 -94 281t-256 108q-107 0 -206 -50.5t-170 -132.5t-113 -190.5t-42 -220.5q0 -177 98.5 -282t258.5 -105z" />
    <glyph glyph-name="Oacute" unicode="&#xd3;" horiz-adv-x="1757" 
d="M1630 2095l-387 -375h-309l287 375h409zM772 -35q-197 0 -351 81.5t-241.5 235.5t-87.5 357q0 189 77 370t206 317.5t310.5 220t377.5 83.5q198 0 353 -83t242 -237.5t87 -357.5q0 -190 -77.5 -370.5t-207.5 -316t-311 -218t-377 -82.5zM834 307q142 0 264 84.5
t191 220.5t69 287q0 173 -94 281t-256 108q-107 0 -206 -50.5t-170 -132.5t-113 -190.5t-42 -220.5q0 -177 98.5 -282t258.5 -105z" />
    <glyph glyph-name="Ocircumflex" unicode="&#xd4;" horiz-adv-x="1757" 
d="M938 1720h-317l364 375h318l233 -375h-317q-23 29 -34 49t-20 67t-4 112h-82q-29 -93 -61.5 -141t-79.5 -87zM772 -35q-197 0 -351 81.5t-241.5 235.5t-87.5 357q0 189 77 370t206 317.5t310.5 220t377.5 83.5q198 0 353 -83t242 -237.5t87 -357.5q0 -190 -77.5 -370.5
t-207.5 -316t-311 -218t-377 -82.5zM834 307q142 0 264 84.5t191 220.5t69 287q0 173 -94 281t-256 108q-107 0 -206 -50.5t-170 -132.5t-113 -190.5t-42 -220.5q0 -177 98.5 -282t258.5 -105z" />
    <glyph glyph-name="Otilde" unicode="&#xd5;" horiz-adv-x="1757" 
d="M1239 1714q-79 0 -127 35l-57 41q-41 29 -70 29q-30 0 -49.5 -24.5t-26.5 -61.5h-241q27 156 124 250t220 94q73 0 143 -45l49 -33q25 -17 49 -17q23 0 39.5 21.5t22.5 58.5h241q-29 -170 -111.5 -259t-205.5 -89zM772 -35q-197 0 -351 81.5t-241.5 235.5t-87.5 357
q0 189 77 370t206 317.5t310.5 220t377.5 83.5q198 0 353 -83t242 -237.5t87 -357.5q0 -190 -77.5 -370.5t-207.5 -316t-311 -218t-377 -82.5zM834 307q142 0 264 84.5t191 220.5t69 287q0 173 -94 281t-256 108q-107 0 -206 -50.5t-170 -132.5t-113 -190.5t-42 -220.5
q0 -177 98.5 -282t258.5 -105z" />
    <glyph glyph-name="Odieresis" unicode="&#xd6;" horiz-adv-x="1757" 
d="M827 1712q-73 0 -119 45.5t-46 116.5q0 93 70.5 162t164.5 69q72 0 118 -45t46 -114q0 -89 -70 -161.5t-164 -72.5zM1319 1712q-73 0 -119.5 45.5t-46.5 116.5q0 93 71 162t165 69q72 0 117.5 -45t45.5 -114q0 -90 -70 -162t-163 -72zM772 -35q-197 0 -351 81.5
t-241.5 235.5t-87.5 357q0 189 77 370t206 317.5t310.5 220t377.5 83.5q198 0 353 -83t242 -237.5t87 -357.5q0 -190 -77.5 -370.5t-207.5 -316t-311 -218t-377 -82.5zM834 307q142 0 264 84.5t191 220.5t69 287q0 173 -94 281t-256 108q-107 0 -206 -50.5t-170 -132.5
t-113 -190.5t-42 -220.5q0 -177 98.5 -282t258.5 -105z" />
    <glyph glyph-name="multiply" unicode="&#xd7;" horiz-adv-x="1052" 
d="M356 623l-223 272l213 182l225 -272l314 266l147 -182l-313 -266l219 -265l-215 -180l-215 264l-322 -272l-149 180z" />
    <glyph glyph-name="Oslash" unicode="&#xd8;" horiz-adv-x="1757" 
d="M1489 1661h334l-226 -262q148 -181 148 -447q0 -190 -77.5 -370.5t-207.5 -316t-311 -218t-377 -82.5q-194 0 -344 78l-94 -109h-332l231 269q-141 177 -141 436q0 189 77 370t206 317.5t310.5 220t377.5 83.5q182 0 336 -74zM477 694q0 -96 31 -172l639 742
q-62 24 -139 24q-107 0 -206 -50.5t-170 -132.5t-113 -190.5t-42 -220.5zM1358 899q0 100 -35 184l-641 -745q70 -31 152 -31q142 0 264 84.5t191 220.5t69 287z" />
    <glyph glyph-name="Ugrave" unicode="&#xd9;" horiz-adv-x="1519" 
d="M1149 1720h-309l-256 375h409zM651 -35q-120 0 -212 26t-148.5 66t-93 100.5t-51.5 118t-16.5 130.5t4 125t16.5 114l167 952h363l-162 -921q-6 -33 -10 -59.5t-5.5 -67t3 -71t18 -64.5t37 -56t63 -36.5t91.5 -14.5q53 0 98.5 15.5t76 38t56 57.5t40 65t26.5 70.5
t16.5 63t10.5 53.5q1 4 1 6l162 921h363l-168 -952q-11 -62 -24 -114t-40.5 -125t-62.5 -130t-93 -118t-129 -101t-173.5 -66t-223.5 -26z" />
    <glyph glyph-name="Uacute" unicode="&#xda;" horiz-adv-x="1519" 
d="M1520 2095l-387 -375h-310l287 375h410zM651 -35q-120 0 -212 26t-148.5 66t-93 100.5t-51.5 118t-16.5 130.5t4 125t16.5 114l167 952h363l-162 -921q-6 -33 -10 -59.5t-5.5 -67t3 -71t18 -64.5t37 -56t63 -36.5t91.5 -14.5q53 0 98.5 15.5t76 38t56 57.5t40 65
t26.5 70.5t16.5 63t10.5 53.5q1 4 1 6l162 921h363l-168 -952q-11 -62 -24 -114t-40.5 -125t-62.5 -130t-93 -118t-129 -101t-173.5 -66t-223.5 -26z" />
    <glyph glyph-name="Ucircumflex" unicode="&#xdb;" horiz-adv-x="1519" 
d="M827 1720h-317l364 375h318l233 -375h-317q-22 29 -33.5 49t-20 67t-3.5 112h-82q-29 -93 -62 -140.5t-80 -87.5zM651 -35q-120 0 -212 26t-148.5 66t-93 100.5t-51.5 118t-16.5 130.5t4 125t16.5 114l167 952h363l-162 -921q-6 -33 -10 -59.5t-5.5 -67t3 -71t18 -64.5
t37 -56t63 -36.5t91.5 -14.5q53 0 98.5 15.5t76 38t56 57.5t40 65t26.5 70.5t16.5 63t10.5 53.5q1 4 1 6l162 921h363l-168 -952q-11 -62 -24 -114t-40.5 -125t-62.5 -130t-93 -118t-129 -101t-173.5 -66t-223.5 -26z" />
    <glyph glyph-name="Udieresis" unicode="&#xdc;" horiz-adv-x="1519" 
d="M717 1712q-73 0 -119.5 45.5t-46.5 116.5q0 93 70.5 162t164.5 69q72 0 118 -45t46 -114q0 -90 -70 -162t-163 -72zM1208 1712q-73 0 -119.5 45.5t-46.5 116.5q0 93 71 162t165 69q72 0 118 -45t46 -114q0 -89 -70 -161.5t-164 -72.5zM651 -35q-120 0 -212 26t-148.5 66
t-93 100.5t-51.5 118t-16.5 130.5t4 125t16.5 114l167 952h363l-162 -921q-6 -33 -10 -59.5t-5.5 -67t3 -71t18 -64.5t37 -56t63 -36.5t91.5 -14.5q53 0 98.5 15.5t76 38t56 57.5t40 65t26.5 70.5t16.5 63t10.5 53.5q1 4 1 6l162 921h363l-168 -952q-11 -62 -24 -114
t-40.5 -125t-62.5 -130t-93 -118t-129 -101t-173.5 -66t-223.5 -26z" />
    <glyph glyph-name="Yacute" unicode="&#xdd;" horiz-adv-x="1447" 
d="M1360 2095l-387 -375h-309l286 375h410zM805 0h-363q66 364 115 535q-154 394 -379 1062h389q55 -181 77 -258.5t54.5 -227t49.5 -296.5h40q101 212 205.5 387.5t249.5 394.5h389q-15 -22 -129 -186t-157.5 -226t-137 -195t-171 -239.5t-156.5 -211.5q-13 -197 -76 -539z
" />
    <glyph glyph-name="Thorn" unicode="&#xde;" horiz-adv-x="1413" 
d="M414 0h-363l283 1597h362q-5 -29 -10.5 -54t-11 -46t-9.5 -36.5t-10.5 -31.5t-9.5 -25t-9.5 -22.5t-9 -17.5t-10 -17t-8.5 -16h316q22 0 38 -0.5t54.5 -4t68.5 -10.5t72.5 -21t75 -34t67.5 -51.5t57.5 -71t37 -96t14.5 -122.5q0 -93 -26 -182t-82.5 -170.5t-137.5 -142.5
t-199 -97.5t-259 -36.5q-152 0 -267 82q6 -93 2 -173.5t-26 -199.5zM471 563l35 -18q90 80 201 80q65 0 118 10.5t98.5 34.5t71 67.5t25.5 104.5q0 32 -8 57t-19 41t-31.5 27t-36 16.5t-43 8t-42 3t-43.5 0.5q-42 0 -67.5 2t-64.5 15t-71 39l-45 -21q12 -126 -5.5 -228
t-72.5 -239z" />
    <glyph glyph-name="germandbls" unicode="&#xdf;" horiz-adv-x="1400" 
d="M365 0h-342l170 967q19 106 53.5 203.5t94.5 190.5t137 161t186.5 109.5t238.5 41.5q216 0 349.5 -110.5t133.5 -307.5q0 -174 -107.5 -290.5t-293.5 -126.5l-10 -62q174 1 263 -73t89 -216q0 -99 -44 -186.5t-126.5 -155t-212 -106.5t-289.5 -39h-151l55 311h203
q89 0 149 49.5t60 120.5q0 60 -46 94.5t-118 34.5h-119l53 312h64q93 0 158 78t65 176q0 84 -51 132t-137 48q-48 0 -90 -17t-70.5 -41t-52.5 -61t-37.5 -66.5t-24.5 -67.5t-14.5 -55t-7.5 -38z" />
    <glyph glyph-name="agrave" unicode="&#xe0;" horiz-adv-x="1206" 
d="M897 1278h-295l-246 375h394zM338 -35q-89 0 -162 29.5t-121.5 98t-48.5 167.5q0 82 33 149.5t92 114.5t132.5 79t162.5 50q237 49 297.5 72.5t60.5 79.5q0 48 -31.5 73t-88.5 25q-153 0 -226 -160l-299 107q42 89 106.5 154.5t142.5 103t160.5 55t172.5 17.5
q231 0 333.5 -108t67.5 -308l-71 -406q-23 -130 -28 -211.5t1 -146.5h-340q-2 18 -4 35t11 55t44 90h-41q-116 -215 -356 -215zM494 225q85 0 148 58t77 139l12 67q-186 -43 -215 -51q-69 -20 -99 -55.5t-30 -75.5q0 -43 30.5 -62.5t76.5 -19.5z" />
    <glyph glyph-name="aacute" unicode="&#xe1;" horiz-adv-x="1206" 
d="M1237 1653l-377 -375h-295l279 375h393zM338 -35q-89 0 -162 29.5t-121.5 98t-48.5 167.5q0 82 33 149.5t92 114.5t132.5 79t162.5 50q237 49 297.5 72.5t60.5 79.5q0 48 -31.5 73t-88.5 25q-153 0 -226 -160l-299 107q42 89 106.5 154.5t142.5 103t160.5 55t172.5 17.5
q231 0 333.5 -108t67.5 -308l-71 -406q-23 -130 -28 -211.5t1 -146.5h-340q-2 18 -4 35t11 55t44 90h-41q-116 -215 -356 -215zM494 225q85 0 148 58t77 139l12 67q-186 -43 -215 -51q-69 -20 -99 -55.5t-30 -75.5q0 -43 30.5 -62.5t76.5 -19.5z" />
    <glyph glyph-name="acircumflex" unicode="&#xe2;" horiz-adv-x="1206" 
d="M596 1278h-322l361 375h334l231 -375h-321q-25 39 -37 61.5t-24.5 63.5t-16.5 90h-49q-32 -69 -68.5 -116.5t-87.5 -98.5zM338 -35q-89 0 -162 29.5t-121.5 98t-48.5 167.5q0 82 33 149.5t92 114.5t132.5 79t162.5 50q237 49 297.5 72.5t60.5 79.5q0 48 -31.5 73
t-88.5 25q-153 0 -226 -160l-299 107q42 89 106.5 154.5t142.5 103t160.5 55t172.5 17.5q231 0 333.5 -108t67.5 -308l-71 -406q-23 -130 -28 -211.5t1 -146.5h-340q-2 18 -4 35t11 55t44 90h-41q-116 -215 -356 -215zM494 225q85 0 148 58t77 139l12 67q-186 -43 -215 -51
q-69 -20 -99 -55.5t-30 -75.5q0 -43 30.5 -62.5t76.5 -19.5z" />
    <glyph glyph-name="atilde" unicode="&#xe3;" horiz-adv-x="1206" 
d="M901 1264q-80 0 -127 34l-57 41q-41 29 -70 29q-30 0 -49.5 -24.5t-26.5 -61.5h-241q27 156 124 250t220 94q73 0 143 -45l49 -33q24 -16 49 -16q23 0 39.5 21.5t22.5 58.5h242q-29 -170 -112 -259t-206 -89zM338 -35q-89 0 -162 29.5t-121.5 98t-48.5 167.5
q0 82 33 149.5t92 114.5t132.5 79t162.5 50q237 49 297.5 72.5t60.5 79.5q0 48 -31.5 73t-88.5 25q-153 0 -226 -160l-299 107q42 89 106.5 154.5t142.5 103t160.5 55t172.5 17.5q231 0 333.5 -108t67.5 -308l-71 -406q-23 -130 -28 -211.5t1 -146.5h-340q-2 18 -4 35t11 55
t44 90h-41q-116 -215 -356 -215zM494 225q85 0 148 58t77 139l12 67q-186 -43 -215 -51q-69 -20 -99 -55.5t-30 -75.5q0 -43 30.5 -62.5t76.5 -19.5z" />
    <glyph glyph-name="adieresis" unicode="&#xe4;" horiz-adv-x="1206" 
d="M508 1276q-67 0 -109.5 43t-42.5 108q0 84 65.5 148.5t151.5 64.5q67 0 110.5 -42.5t43.5 -106.5q0 -83 -66 -149t-153 -66zM969 1276q-68 0 -111 43t-43 108q0 86 66 149.5t151 63.5q67 0 110.5 -42.5t43.5 -106.5q0 -81 -65.5 -148t-151.5 -67zM338 -35
q-89 0 -162 29.5t-121.5 98t-48.5 167.5q0 82 33 149.5t92 114.5t132.5 79t162.5 50q237 49 297.5 72.5t60.5 79.5q0 48 -31.5 73t-88.5 25q-153 0 -226 -160l-299 107q42 89 106.5 154.5t142.5 103t160.5 55t172.5 17.5q231 0 333.5 -108t67.5 -308l-71 -406
q-23 -130 -28 -211.5t1 -146.5h-340q-2 18 -4 35t11 55t44 90h-41q-116 -215 -356 -215zM494 225q85 0 148 58t77 139l12 67q-186 -43 -215 -51q-69 -20 -99 -55.5t-30 -75.5q0 -43 30.5 -62.5t76.5 -19.5z" />
    <glyph glyph-name="aring" unicode="&#xe5;" horiz-adv-x="1206" 
d="M735 1257q-102 0 -167.5 62.5t-65.5 157.5q0 118 97 209.5t226 91.5q102 0 167 -60.5t65 -156.5q0 -120 -96.5 -212t-225.5 -92zM758 1413q49 0 86 37.5t37 83.5q0 36 -23.5 61t-60.5 25q-47 0 -83 -37t-36 -84q0 -37 21.5 -61.5t58.5 -24.5zM338 -35q-89 0 -162 29.5
t-121.5 98t-48.5 167.5q0 82 33 149.5t92 114.5t132.5 79t162.5 50q237 49 297.5 72.5t60.5 79.5q0 48 -31.5 73t-88.5 25q-153 0 -226 -160l-299 107q42 89 106.5 154.5t142.5 103t160.5 55t172.5 17.5q231 0 333.5 -108t67.5 -308l-71 -406q-23 -130 -28 -211.5t1 -146.5
h-340q-2 18 -4 35t11 55t44 90h-41q-116 -215 -356 -215zM494 225q85 0 148 58t77 139l12 67q-186 -43 -215 -51q-69 -20 -99 -55.5t-30 -75.5q0 -43 30.5 -62.5t76.5 -19.5z" />
    <glyph glyph-name="ae" unicode="&#xe6;" horiz-adv-x="1968" 
d="M356 -35q-154 0 -252 73.5t-98 221.5q0 60 18.5 112.5t46 89.5t68.5 68.5t76.5 50.5t81.5 35.5t72 23t57 13.5q32 7 82 16.5t77.5 15.5t64.5 15t57 18t40 21.5t28.5 28.5t8.5 37q0 42 -33 70t-89 28q-67 0 -126.5 -40.5t-97.5 -119.5l-299 107q55 114 151 190.5
t203.5 108t229.5 31.5q254 0 332 -158q161 158 393 158q120 0 216 -40.5t159.5 -119t86 -195.5t-2.5 -270l-15 -84h-817q6 -91 71 -144t157 -53q70 0 139.5 35.5t113.5 106.5l299 -131q-82 -137 -241.5 -228.5t-360.5 -91.5q-330 0 -411 260h-41q-99 -145 -210 -202.5
t-235 -57.5zM1124 713h459q-13 93 -68 133.5t-133 40.5q-83 0 -150.5 -48t-107.5 -126zM489 225q92 0 154.5 59.5t75.5 137.5l12 70q-100 -27 -188 -46q-156 -37 -156 -139q0 -82 102 -82z" />
    <glyph glyph-name="ccedilla" unicode="&#xe7;" horiz-adv-x="1245" 
d="M614 293q75 0 147 42.5t122 129.5l297 -131q-84 -161 -239.5 -259.5t-344.5 -107.5q-16 -13 -38.5 -28t-55 -36.5t-51.5 -33.5l16 -21q101 68 156 68q65 0 111 -45.5t46 -126.5q0 -118 -99 -196t-251 -78q-99 0 -170.5 35.5t-105.5 99.5l127 133q57 -98 170 -98
q49 0 78.5 22t29.5 59q0 28 -22.5 44t-59.5 16q-51 0 -90 -31l-88 74l127 153q-176 33 -278.5 157t-102.5 321q0 139 54 271t147 232.5t226.5 161t283.5 60.5q196 0 327.5 -100t159.5 -269l-342 -131q-13 90 -67 131t-127 41q-124 0 -214 -100.5t-90 -233.5
q0 -106 59.5 -165.5t151.5 -59.5z" />
    <glyph glyph-name="egrave" unicode="&#xe8;" horiz-adv-x="1259" 
d="M920 1278h-295l-246 375h393zM555 -35q-230 0 -370 131t-140 357q0 109 34 216t98 198.5t149 162t193.5 110.5t225.5 40q118 0 211.5 -40.5t156.5 -119t85.5 -195.5t-2.5 -270l-12 -72h-803q4 -105 67 -158t158 -53q68 0 134.5 36t109.5 108l299 -131
q-78 -134 -236.5 -227t-357.5 -93zM436 698h445q-3 97 -53 144t-138 47q-86 0 -151.5 -52t-102.5 -139z" />
    <glyph glyph-name="eacute" unicode="&#xe9;" horiz-adv-x="1259" 
d="M1260 1653l-377 -375h-295l278 375h394zM555 -35q-230 0 -370 131t-140 357q0 109 34 216t98 198.5t149 162t193.5 110.5t225.5 40q118 0 211.5 -40.5t156.5 -119t85.5 -195.5t-2.5 -270l-12 -72h-803q4 -105 67 -158t158 -53q68 0 134.5 36t109.5 108l299 -131
q-78 -134 -236.5 -227t-357.5 -93zM436 698h445q-3 97 -53 144t-138 47q-86 0 -151.5 -52t-102.5 -139z" />
    <glyph glyph-name="ecircumflex" unicode="&#xea;" horiz-adv-x="1259" 
d="M618 1278h-321l360 375h334l232 -375h-322q-25 39 -37 61.5t-24.5 63.5t-16.5 90h-49q-32 -69 -68.5 -116.5t-87.5 -98.5zM555 -35q-230 0 -370 131t-140 357q0 109 34 216t98 198.5t149 162t193.5 110.5t225.5 40q118 0 211.5 -40.5t156.5 -119t85.5 -195.5t-2.5 -270
l-12 -72h-803q4 -105 67 -158t158 -53q68 0 134.5 36t109.5 108l299 -131q-78 -134 -236.5 -227t-357.5 -93zM436 698h445q-3 97 -53 144t-138 47q-86 0 -151.5 -52t-102.5 -139z" />
    <glyph glyph-name="edieresis" unicode="&#xeb;" horiz-adv-x="1259" 
d="M530 1276q-67 0 -109 43t-42 108q0 84 65.5 148.5t151.5 64.5q67 0 110.5 -42.5t43.5 -106.5q0 -83 -66.5 -149t-153.5 -66zM991 1276q-68 0 -110.5 43t-42.5 108q0 86 66 149.5t151 63.5q67 0 110 -42.5t43 -106.5q0 -81 -65.5 -148t-151.5 -67zM555 -35
q-230 0 -370 131t-140 357q0 109 34 216t98 198.5t149 162t193.5 110.5t225.5 40q118 0 211.5 -40.5t156.5 -119t85.5 -195.5t-2.5 -270l-12 -72h-803q4 -105 67 -158t158 -53q68 0 134.5 36t109.5 108l299 -131q-78 -134 -236.5 -227t-357.5 -93zM436 698h445
q-3 97 -53 144t-138 47q-86 0 -151.5 -52t-102.5 -139z" />
    <glyph glyph-name="igrave" unicode="&#xec;" horiz-adv-x="587" 
d="M575 1257h-294l-246 375h393zM365 0h-342l202 1147h342z" />
    <glyph glyph-name="iacute" unicode="&#xed;" horiz-adv-x="587" 
d="M915 1632l-376 -375h-295l278 375h393zM365 0h-342l202 1147h342z" />
    <glyph glyph-name="icircumflex" unicode="&#xee;" horiz-adv-x="587" 
d="M274 1257h-321l360 375h334l232 -375h-322q-24 38 -36.5 61.5t-25 64.5t-16.5 90h-49q-51 -111 -156 -216zM365 0h-342l202 1147h342z" />
    <glyph glyph-name="idieresis" unicode="&#xef;" horiz-adv-x="587" 
d="M186 1255q-67 0 -109 43.5t-42 108.5q0 84 65.5 148.5t151.5 64.5q67 0 110.5 -43t43.5 -107q0 -83 -66.5 -149t-153.5 -66zM647 1255q-68 0 -110.5 43.5t-42.5 108.5q0 86 66 149.5t151 63.5q67 0 110 -43t43 -107q0 -81 -65.5 -148t-151.5 -67zM365 0h-342l202 1147
h342z" />
    <glyph glyph-name="eth" unicode="&#xf0;" horiz-adv-x="1355" 
d="M1247 1497l-127 -67q207 -220 207 -551q0 -176 -56.5 -340.5t-156.5 -292t-249 -204.5t-322 -77q-227 0 -366.5 125.5t-139.5 335.5q0 164 85 312t224.5 236.5t292.5 88.5q232 0 367 -213h41q-64 246 -240 416l-256 -133l-68 155l176 92q-110 68 -231 113l137 262
q252 -86 418 -205l191 101zM596 281q120 0 204.5 84.5t84.5 203.5q0 88 -55.5 140.5t-147.5 52.5q-119 0 -204 -84.5t-85 -200.5q0 -90 55 -143t148 -53z" />
    <glyph glyph-name="ntilde" unicode="&#xf1;" horiz-adv-x="1310" 
d="M936 1264q-80 0 -127 34l-57 41q-41 29 -70 29q-30 0 -49.5 -24.5t-26.5 -61.5h-241q27 156 124 250t220 94q73 0 143 -45l49 -33q24 -16 49 -16q23 0 39.5 21.5t22.5 58.5h241q-29 -170 -111.5 -259t-205.5 -89zM365 0h-342l202 1147h338q-20 -102 -74 -209h41
q151 242 383 242q168 0 259 -119t53 -336l-127 -725h-342l100 573q5 29 8 48t5 51.5t-0.5 54t-11 47.5t-24.5 41.5t-43 26t-63 10.5q-40 0 -77.5 -12.5t-75 -42t-66.5 -87t-43 -137.5z" />
    <glyph glyph-name="ograve" unicode="&#xf2;" horiz-adv-x="1310" 
d="M940 1278h-295l-246 375h394zM549 -35q-232 0 -368 132t-136 356q0 139 54.5 271t147.5 232.5t229 162t288 61.5q231 0 366.5 -133.5t135.5 -358.5q0 -139 -53.5 -270t-146.5 -231.5t-228.5 -161t-288.5 -60.5zM608 293q122 0 210.5 101.5t88.5 242.5q0 97 -54 156
t-146 59q-128 0 -214.5 -104.5t-86.5 -235.5q0 -99 54 -159t148 -60z" />
    <glyph glyph-name="oacute" unicode="&#xf3;" horiz-adv-x="1310" 
d="M1280 1653l-377 -375h-295l279 375h393zM549 -35q-232 0 -368 132t-136 356q0 139 54.5 271t147.5 232.5t229 162t288 61.5q231 0 366.5 -133.5t135.5 -358.5q0 -139 -53.5 -270t-146.5 -231.5t-228.5 -161t-288.5 -60.5zM608 293q122 0 210.5 101.5t88.5 242.5
q0 97 -54 156t-146 59q-128 0 -214.5 -104.5t-86.5 -235.5q0 -99 54 -159t148 -60z" />
    <glyph glyph-name="ocircumflex" unicode="&#xf4;" horiz-adv-x="1310" 
d="M639 1278h-322l361 375h334l231 -375h-321q-25 39 -37 61.5t-24.5 63.5t-16.5 90h-49q-32 -69 -68.5 -116.5t-87.5 -98.5zM549 -35q-232 0 -368 132t-136 356q0 139 54.5 271t147.5 232.5t229 162t288 61.5q231 0 366.5 -133.5t135.5 -358.5q0 -139 -53.5 -270
t-146.5 -231.5t-228.5 -161t-288.5 -60.5zM608 293q122 0 210.5 101.5t88.5 242.5q0 97 -54 156t-146 59q-128 0 -214.5 -104.5t-86.5 -235.5q0 -99 54 -159t148 -60z" />
    <glyph glyph-name="otilde" unicode="&#xf5;" horiz-adv-x="1310" 
d="M944 1264q-80 0 -127 34l-57 41q-41 29 -70 29q-30 0 -49.5 -24.5t-26.5 -61.5h-241q27 156 124 250t220 94q73 0 143 -45l49 -33q24 -16 49 -16q23 0 39.5 21.5t22.5 58.5h242q-29 -170 -112 -259t-206 -89zM549 -35q-232 0 -368 132t-136 356q0 139 54.5 271
t147.5 232.5t229 162t288 61.5q231 0 366.5 -133.5t135.5 -358.5q0 -139 -53.5 -270t-146.5 -231.5t-228.5 -161t-288.5 -60.5zM608 293q122 0 210.5 101.5t88.5 242.5q0 97 -54 156t-146 59q-128 0 -214.5 -104.5t-86.5 -235.5q0 -99 54 -159t148 -60z" />
    <glyph glyph-name="odieresis" unicode="&#xf6;" horiz-adv-x="1310" 
d="M551 1276q-67 0 -109.5 43t-42.5 108q0 84 65.5 148.5t151.5 64.5q67 0 110.5 -42.5t43.5 -106.5q0 -83 -66 -149t-153 -66zM1012 1276q-68 0 -111 43t-43 108q0 86 66 149.5t151 63.5q67 0 110.5 -42.5t43.5 -106.5q0 -81 -65.5 -148t-151.5 -67zM549 -35
q-232 0 -368 132t-136 356q0 139 54.5 271t147.5 232.5t229 162t288 61.5q231 0 366.5 -133.5t135.5 -358.5q0 -139 -53.5 -270t-146.5 -231.5t-228.5 -161t-288.5 -60.5zM608 293q122 0 210.5 101.5t88.5 242.5q0 97 -54 156t-146 59q-128 0 -214.5 -104.5t-86.5 -235.5
q0 -99 54 -159t148 -60z" />
    <glyph glyph-name="divide" unicode="&#xf7;" horiz-adv-x="1138" 
d="M623 870q-62 0 -102 42t-40 104q0 79 61.5 140t141.5 61q63 0 103 -40t40 -102q0 -78 -62.5 -141.5t-141.5 -63.5zM1038 500h-960l45 256h960zM477 41q-62 0 -102.5 41.5t-40.5 103.5q0 78 62 139.5t141 61.5q64 0 104.5 -40t40.5 -101q0 -79 -63.5 -142t-141.5 -63z" />
    <glyph glyph-name="oslash" unicode="&#xf8;" horiz-adv-x="1310" 
d="M1096 1190h278l-190 -207q82 -124 82 -295q0 -139 -53.5 -270t-146.5 -231.5t-228.5 -161t-288.5 -60.5q-144 0 -256 53l-70 -75h-286l196 211q-88 120 -88 299q0 139 54.5 271t147.5 232.5t229 162t288 61.5t266 -60zM406 512q0 -32 6 -59l360 389q-33 10 -65 10
q-128 0 -214.5 -104.5t-86.5 -235.5zM907 637q0 15 -4 43l-350 -381q24 -6 55 -6q122 0 210.5 101.5t88.5 242.5z" />
    <glyph glyph-name="ugrave" unicode="&#xf9;" horiz-adv-x="1294" 
d="M938 1278h-295l-246 375h394zM420 -35q-202 0 -286.5 120t-45.5 343l127 719h342l-106 -604q-11 -48 -9 -93t13.5 -80t42.5 -56t80 -21q91 0 157 67.5t86 182.5l107 604h342l-140 -789q-23 -133 -27.5 -209t1.5 -149h-340q-1 30 -1 53t12.5 58.5t41.5 85.5h-41
q-63 -123 -146 -177.5t-210 -54.5z" />
    <glyph glyph-name="uacute" unicode="&#xfa;" horiz-adv-x="1294" 
d="M1278 1653l-377 -375h-295l279 375h393zM420 -35q-202 0 -286.5 120t-45.5 343l127 719h342l-106 -604q-11 -48 -9 -93t13.5 -80t42.5 -56t80 -21q91 0 157 67.5t86 182.5l107 604h342l-140 -789q-23 -133 -27.5 -209t1.5 -149h-340q-1 30 -1 53t12.5 58.5t41.5 85.5h-41
q-63 -123 -146 -177.5t-210 -54.5z" />
    <glyph glyph-name="ucircumflex" unicode="&#xfb;" horiz-adv-x="1294" 
d="M637 1278h-322l361 375h334l231 -375h-321q-25 39 -37 61.5t-24.5 63.5t-16.5 90h-49q-32 -69 -68.5 -116.5t-87.5 -98.5zM420 -35q-202 0 -286.5 120t-45.5 343l127 719h342l-106 -604q-11 -48 -9 -93t13.5 -80t42.5 -56t80 -21q91 0 157 67.5t86 182.5l107 604h342
l-140 -789q-23 -133 -27.5 -209t1.5 -149h-340q-1 30 -1 53t12.5 58.5t41.5 85.5h-41q-63 -123 -146 -177.5t-210 -54.5z" />
    <glyph glyph-name="udieresis" unicode="&#xfc;" horiz-adv-x="1294" 
d="M549 1276q-67 0 -109.5 43t-42.5 108q0 84 65.5 148.5t151.5 64.5q67 0 110.5 -42.5t43.5 -106.5q0 -83 -66 -149t-153 -66zM1010 1276q-68 0 -111 43t-43 108q0 86 66 149.5t151 63.5q67 0 110.5 -42.5t43.5 -106.5q0 -81 -65.5 -148t-151.5 -67zM420 -35
q-202 0 -286.5 120t-45.5 343l127 719h342l-106 -604q-11 -48 -9 -93t13.5 -80t42.5 -56t80 -21q91 0 157 67.5t86 182.5l107 604h342l-140 -789q-23 -133 -27.5 -209t1.5 -149h-340q-1 30 -1 53t12.5 58.5t41.5 85.5h-41q-63 -123 -146 -177.5t-210 -54.5z" />
    <glyph glyph-name="yacute" unicode="&#xfd;" horiz-adv-x="1228" 
d="M1239 1653l-377 -375h-295l279 375h393zM475 -451h-371l218 390l-224 1208h377q37 -220 57 -406.5t21 -425.5h41q59 163 130.5 326.5t114.5 251t128 254.5h366z" />
    <glyph glyph-name="thorn" unicode="&#xfe;" horiz-adv-x="1355" 
d="M285 -451h-342l368 2089h342q-4 -21 -17 -98t-19.5 -110.5t-20.5 -104.5t-26 -119.5t-30.5 -114.5t-39.5 -128h41q83 116 171.5 166.5t198.5 50.5q190 0 295 -131t105 -340q0 -115 -32.5 -226.5t-92 -204t-137 -163.5t-173 -110.5t-194.5 -39.5q-212 0 -285 199h-41
q0 -50 -2 -97.5t-7 -98.5t-8.5 -85t-12 -90t-12.5 -78.5t-15 -86.5t-14 -79zM651 293q123 0 212 100t89 236q0 102 -54 162.5t-146 60.5q-122 0 -211.5 -101t-89.5 -235q0 -102 54.5 -162.5t145.5 -60.5z" />
    <glyph glyph-name="ydieresis" unicode="&#xff;" horiz-adv-x="1228" 
d="M510 1276q-67 0 -109.5 43t-42.5 108q0 84 65.5 148.5t151.5 64.5q67 0 110.5 -42.5t43.5 -106.5q0 -83 -66 -149t-153 -66zM971 1276q-68 0 -111 43t-43 108q0 86 66 149.5t151 63.5q67 0 110.5 -42.5t43.5 -106.5q0 -81 -65.5 -148t-151.5 -67zM475 -451h-371l218 390
l-224 1208h377q37 -220 57 -406.5t21 -425.5h41q59 163 130.5 326.5t114.5 251t128 254.5h366z" />
    <glyph glyph-name="Amacron" unicode="&#x100;" horiz-adv-x="1593" 
d="M1389 1741h-783l45 250h783zM268 0h-377l875 1597h428l309 -1597h-387q-9 44 -13 66t-11 68.5t-9 79.5t-2.5 77t4.5 84l-20 26q-154 -45 -311 -45t-291 45l-33 -26q-35 -148 -162 -375zM610 678l17 -21q91 43 188 43t176 -43l21 21q-23 78 -36 138.5t-21 135.5t-6 159.5
t14 188.5h-82q-48 -199 -110 -336t-161 -286z" />
    <glyph glyph-name="amacron" unicode="&#x101;" horiz-adv-x="1206" 
d="M1085 1300h-688l41 236h688zM338 -35q-89 0 -162 29.5t-121.5 98t-48.5 167.5q0 82 33 149.5t92 114.5t132.5 79t162.5 50q237 49 297.5 72.5t60.5 79.5q0 48 -31.5 73t-88.5 25q-153 0 -226 -160l-299 107q42 89 106.5 154.5t142.5 103t160.5 55t172.5 17.5
q231 0 333.5 -108t67.5 -308l-71 -406q-23 -130 -28 -211.5t1 -146.5h-340q-2 18 -4 35t11 55t44 90h-41q-116 -215 -356 -215zM494 225q85 0 148 58t77 139l12 67q-186 -43 -215 -51q-69 -20 -99 -55.5t-30 -75.5q0 -43 30.5 -62.5t76.5 -19.5z" />
    <glyph glyph-name="Abreve" unicode="&#x102;" horiz-adv-x="1593" 
d="M993 1712q-175 0 -273 106.5t-71 274.5h289q-9 -62 12.5 -103.5t83.5 -41.5q61 0 99 40.5t51 104.5h289q-33 -169 -168.5 -275t-311.5 -106zM268 0h-377l875 1597h428l309 -1597h-387q-9 44 -13 66t-11 68.5t-9 79.5t-2.5 77t4.5 84l-20 26q-154 -45 -311 -45t-291 45
l-33 -26q-35 -148 -162 -375zM610 678l17 -21q91 43 188 43t176 -43l21 21q-23 78 -36 138.5t-21 135.5t-6 159.5t14 188.5h-82q-48 -199 -110 -336t-161 -286z" />
    <glyph glyph-name="abreve" unicode="&#x103;" horiz-adv-x="1206" 
d="M733 1264q-175 0 -262.5 109t-62.5 286h274q-4 -37 -0.5 -71.5t30 -59.5t70.5 -25q63 0 103.5 47.5t50.5 108.5h274q-39 -184 -172 -289.5t-305 -105.5zM338 -35q-89 0 -162 29.5t-121.5 98t-48.5 167.5q0 82 33 149.5t92 114.5t132.5 79t162.5 50q237 49 297.5 72.5
t60.5 79.5q0 48 -31.5 73t-88.5 25q-153 0 -226 -160l-299 107q42 89 106.5 154.5t142.5 103t160.5 55t172.5 17.5q231 0 333.5 -108t67.5 -308l-71 -406q-23 -130 -28 -211.5t1 -146.5h-340q-2 18 -4 35t11 55t44 90h-41q-116 -215 -356 -215zM494 225q85 0 148 58t77 139
l12 67q-186 -43 -215 -51q-69 -20 -99 -55.5t-30 -75.5q0 -43 30.5 -62.5t76.5 -19.5z" />
    <glyph glyph-name="Aogonek" unicode="&#x104;" horiz-adv-x="1593" 
d="M1147 -156q0 -37 28.5 -65.5t94.5 -28.5q58 0 92 10l-37 -204q-56 -19 -149 -19q-76 0 -138 20t-103.5 66t-41.5 111q0 86 61.5 157t159.5 109h2q-9 44 -13 66t-11 68.5t-9 79.5t-2.5 77t4.5 84l-20 26q-154 -45 -311 -45t-291 45l-33 -26q-35 -148 -162 -375h-377
l875 1597h428l309 -1597h-166q-53 -6 -92.5 -24t-59.5 -42.5t-29 -47t-9 -42.5zM991 657l21 21q-23 78 -36 138.5t-21 135.5t-6 159.5t14 188.5h-82q-48 -199 -110 -336t-161 -286l17 -21q91 43 188 43t176 -43z" />
    <glyph glyph-name="aogonek" unicode="&#x105;" horiz-adv-x="1206" 
d="M721 1180q231 0 333.5 -108t67.5 -308l-71 -406q-23 -130 -28 -211.5t1 -146.5h-123q-90 -14 -136 -61t-46 -97q0 -33 25 -55.5t75 -22.5q63 0 101 17l-41 -230q-55 -14 -123 -14q-128 0 -206.5 51t-78.5 150q0 88 60.5 160.5t158.5 101.5h-6q-2 18 -4 35t11 55t44 90
h-41q-116 -215 -356 -215q-89 0 -162 29.5t-121.5 98t-48.5 167.5q0 82 33 149.5t92 114.5t132.5 79t162.5 50q237 49 297.5 72.5t60.5 79.5q0 48 -31.5 73t-88.5 25q-153 0 -226 -160l-299 107q42 89 106.5 154.5t142.5 103t160.5 55t172.5 17.5zM719 422l12 67
q-186 -43 -215 -51q-69 -20 -99 -55.5t-30 -75.5q0 -43 30.5 -62.5t76.5 -19.5q85 0 148 58t77 139z" />
    <glyph glyph-name="Cacute" unicode="&#x106;" horiz-adv-x="1689" 
d="M1642 2095l-387 -375h-309l287 375h409zM797 -35q-210 0 -368.5 80t-246.5 234t-88 364q0 194 76.5 375t206 315.5t311 215.5t381.5 81q269 0 440 -140.5t217 -373.5l-360 -135q-79 307 -358 307q-114 0 -215.5 -52.5t-170 -137.5t-108 -193t-39.5 -219q0 -84 23 -150.5
t60 -108.5t87.5 -69.5t102.5 -39t108 -11.5q162 0 292 93.5t212 256.5l317 -114q-78 -154 -180.5 -268.5t-217.5 -180.5t-234.5 -97.5t-247.5 -31.5z" />
    <glyph glyph-name="cacute" unicode="&#x107;" horiz-adv-x="1245" 
d="M1235 1653l-377 -375h-295l279 375h393zM555 -35q-230 0 -370 129.5t-140 360.5q0 139 54 271t147 232.5t226.5 161t283.5 60.5q196 0 327.5 -100t159.5 -269l-342 -131q-13 90 -67 131t-127 41q-124 0 -214 -100.5t-90 -233.5q0 -106 59.5 -165.5t151.5 -59.5
q75 0 147 42.5t122 129.5l297 -131q-88 -170 -256 -269.5t-369 -99.5z" />
    <glyph glyph-name="Cdotaccent" unicode="&#x10a;" horiz-adv-x="1689" 
d="M1090 1743q-74 0 -121 47.5t-47 120.5q0 92 72 162.5t167 70.5q74 0 121 -46.5t47 -117.5q0 -93 -72 -165t-167 -72zM797 -35q-210 0 -368.5 80t-246.5 234t-88 364q0 194 76.5 375t206 315.5t311 215.5t381.5 81q269 0 440 -140.5t217 -373.5l-360 -135
q-79 307 -358 307q-114 0 -215.5 -52.5t-170 -137.5t-108 -193t-39.5 -219q0 -84 23 -150.5t60 -108.5t87.5 -69.5t102.5 -39t108 -11.5q162 0 292 93.5t212 256.5l317 -114q-78 -154 -180.5 -268.5t-217.5 -180.5t-234.5 -97.5t-247.5 -31.5z" />
    <glyph glyph-name="cdotaccent" unicode="&#x10b;" horiz-adv-x="1245" 
d="M735 1278q-74 0 -121 47.5t-47 120.5q0 92 72.5 162.5t167.5 70.5q74 0 121 -46t47 -117q0 -93 -72.5 -165.5t-167.5 -72.5zM555 -35q-230 0 -370 129.5t-140 360.5q0 139 54 271t147 232.5t226.5 161t283.5 60.5q196 0 327.5 -100t159.5 -269l-342 -131q-13 90 -67 131
t-127 41q-124 0 -214 -100.5t-90 -233.5q0 -106 59.5 -165.5t151.5 -59.5q75 0 147 42.5t122 129.5l297 -131q-88 -170 -256 -269.5t-369 -99.5z" />
    <glyph glyph-name="Ccaron" unicode="&#x10c;" horiz-adv-x="1689" 
d="M1251 1720h-329l-228 375h318q23 -30 34.5 -50t20 -66t4.5 -111h82q18 64 44 111t44.5 67.5t50.5 48.5h318zM797 -35q-210 0 -368.5 80t-246.5 234t-88 364q0 194 76.5 375t206 315.5t311 215.5t381.5 81q269 0 440 -140.5t217 -373.5l-360 -135q-79 307 -358 307
q-114 0 -215.5 -52.5t-170 -137.5t-108 -193t-39.5 -219q0 -84 23 -150.5t60 -108.5t87.5 -69.5t102.5 -39t108 -11.5q162 0 292 93.5t212 256.5l317 -114q-78 -154 -180.5 -268.5t-217.5 -180.5t-234.5 -97.5t-247.5 -31.5z" />
    <glyph glyph-name="ccaron" unicode="&#x10d;" horiz-adv-x="1245" 
d="M905 1298h-334l-225 396h322q3 -7 21.5 -48t25 -59t16 -55t12.5 -74h50q16 37 37 72t34 53t44 57.5t42 53.5h322zM555 -35q-230 0 -370 129.5t-140 360.5q0 139 54 271t147 232.5t226.5 161t283.5 60.5q196 0 327.5 -100t159.5 -269l-342 -131q-13 90 -67 131t-127 41
q-124 0 -214 -100.5t-90 -233.5q0 -106 59.5 -165.5t151.5 -59.5q75 0 147 42.5t122 129.5l297 -131q-88 -170 -256 -269.5t-369 -99.5z" />
    <glyph glyph-name="Dcaron" unicode="&#x10e;" horiz-adv-x="1619" 
d="M1126 1720h-329l-228 375h318q23 -30 34.5 -50t20 -66t4.5 -111h82q18 64 44 111t44.5 67.5t50.5 48.5h318zM707 0h-656l283 1597h637q165 0 288 -44t198.5 -126.5t112 -193t36.5 -250.5q0 -150 -41 -294.5t-120 -268.5t-186.5 -218.5t-250 -148t-301.5 -53.5zM426 319
l33 -40q100 42 122 49.5t46 7.5q155 0 270.5 40.5t185 115.5t103 173.5t33.5 221.5q0 61 -8.5 111.5t-21.5 87t-35.5 65.5t-42.5 47t-50.5 31t-52 19t-55.5 9.5t-51 4t-48 0.5q-95 0 -129.5 8.5t-83.5 46.5l-45 -21q28 -515 -170 -977z" />
    <glyph glyph-name="dcaron" unicode="&#x10f;" horiz-adv-x="1359" 
d="M1563 1063h-195q102 129 157 184q63 65 136 117q-158 39 -158 154q0 92 75.5 164.5t172.5 72.5q75 0 123.5 -48.5t48.5 -121.5q0 -65 -51 -140t-219 -275q-57 -68 -90 -107zM465 -35q-201 0 -310.5 126.5t-109.5 342.5q0 192 83 363.5t229.5 277t318.5 105.5
q122 0 189 -59t87 -183h41q7 140 21.5 275t27.5 213t37 212h342l-225 -1280q-23 -133 -28 -210.5t1 -147.5h-338q-2 46 3 79t24 85h-41q-109 -199 -352 -199zM604 295q124 0 213.5 101t89.5 237q0 101 -54 161t-146 60q-124 0 -212.5 -100t-88.5 -236q0 -101 52.5 -162
t145.5 -61z" />
    <glyph glyph-name="Dcroat" unicode="&#x110;" horiz-adv-x="1619" 
d="M334 1597h637q165 0 288 -44t198.5 -126.5t112 -193t36.5 -250.5q0 -150 -41 -294.5t-120 -268.5t-186.5 -218.5t-250 -148t-301.5 -53.5h-656l115 653h-221l51 289h221zM627 336q155 0 270.5 40.5t185 115.5t103 173.5t33.5 221.5q0 61 -8.5 111.5t-21.5 87t-35.5 65.5
t-42.5 47t-50.5 31t-52 19t-55.5 9.5t-51 4t-48 0.5q-95 0 -129.5 8.5t-83.5 46.5l-45 -21q9 -185 -8 -354h260l-51 -289h-258q-44 -170 -113 -334l33 -40q100 42 122 49.5t46 7.5z" />
    <glyph glyph-name="dcroat" unicode="&#x111;" horiz-adv-x="1359" 
d="M1397 1495h262l-45 -252h-262l-156 -885q-23 -133 -28 -210.5t1 -147.5h-338q-2 46 3 79t24 85h-41q-109 -199 -352 -199q-201 0 -310.5 126.5t-109.5 342.5q0 192 83 363.5t229.5 277t318.5 105.5q122 0 189 -59t87 -183h41q8 151 25 305h-258l45 252h250l24 143h342z
M604 295q124 0 213.5 101t89.5 237q0 101 -54 161t-146 60q-124 0 -212.5 -100t-88.5 -236q0 -101 52.5 -162t145.5 -61z" />
    <glyph glyph-name="Emacron" unicode="&#x112;" horiz-adv-x="1320" 
d="M1288 1741h-782l45 250h782zM1130 0h-1079l283 1597h1059l-60 -335q-143 0 -223.5 2t-213.5 14.5t-255 38.5l-45 -21q17 -95 5 -175t-60 -195l20 -21q127 37 259 56t209 21.5t214 2.5l-63 -354q-103 0 -160 1.5t-147.5 8.5t-173 25.5t-167.5 48.5l-32 -21
q5 -125 -11 -207.5t-63 -167.5l33 -40q133 27 274 40t224.5 15t232.5 2z" />
    <glyph glyph-name="emacron" unicode="&#x113;" horiz-adv-x="1259" 
d="M1108 1300h-688l41 236h688zM555 -35q-230 0 -370 131t-140 357q0 109 34 216t98 198.5t149 162t193.5 110.5t225.5 40q118 0 211.5 -40.5t156.5 -119t85.5 -195.5t-2.5 -270l-12 -72h-803q4 -105 67 -158t158 -53q68 0 134.5 36t109.5 108l299 -131
q-78 -134 -236.5 -227t-357.5 -93zM436 698h445q-3 97 -53 144t-138 47q-86 0 -151.5 -52t-102.5 -139z" />
    <glyph glyph-name="Edotaccent" unicode="&#x116;" horiz-adv-x="1320" 
d="M899 1743q-74 0 -121 47.5t-47 120.5q0 92 72.5 162.5t167.5 70.5q74 0 121 -46.5t47 -117.5q0 -93 -72.5 -165t-167.5 -72zM1130 0h-1079l283 1597h1059l-60 -335q-143 0 -223.5 2t-213.5 14.5t-255 38.5l-45 -21q17 -95 5 -175t-60 -195l20 -21q127 37 259 56t209 21.5
t214 2.5l-63 -354q-103 0 -160 1.5t-147.5 8.5t-173 25.5t-167.5 48.5l-32 -21q5 -125 -11 -207.5t-63 -167.5l33 -40q133 27 274 40t224.5 15t232.5 2z" />
    <glyph glyph-name="edotaccent" unicode="&#x117;" horiz-adv-x="1259" 
d="M760 1278q-74 0 -121 47.5t-47 120.5q0 92 72 162.5t167 70.5q74 0 121 -46t47 -117q0 -93 -72 -165.5t-167 -72.5zM555 -35q-230 0 -370 131t-140 357q0 109 34 216t98 198.5t149 162t193.5 110.5t225.5 40q118 0 211.5 -40.5t156.5 -119t85.5 -195.5t-2.5 -270l-12 -72
h-803q4 -105 67 -158t158 -53q68 0 134.5 36t109.5 108l299 -131q-78 -134 -236.5 -227t-357.5 -93zM436 698h445q-3 97 -53 144t-138 47q-86 0 -151.5 -52t-102.5 -139z" />
    <glyph glyph-name="Eogonek" unicode="&#x118;" horiz-adv-x="1320" 
d="M1393 1597l-60 -335q-143 0 -223.5 2t-213.5 14.5t-255 38.5l-45 -21q17 -95 5 -175t-60 -195l20 -21q127 37 259 56t209 21.5t214 2.5l-63 -354q-103 0 -160 1.5t-147.5 8.5t-173 25.5t-167.5 48.5l-32 -21q5 -125 -11 -207.5t-63 -167.5l33 -40q133 27 274 40t224.5 15
t232.5 2l-60 -336q-53 -6 -92.5 -24t-59.5 -42.5t-29 -47t-9 -42.5q0 -37 28.5 -65.5t94.5 -28.5q58 0 92 10l-37 -204q-56 -19 -149 -19q-76 0 -138 20t-103.5 66t-41.5 111q0 86 61.5 157t159.5 109h-856l283 1597h1059z" />
    <glyph glyph-name="eogonek" unicode="&#x119;" horiz-adv-x="1259" 
d="M745 1180q118 0 211.5 -40.5t156.5 -119t85.5 -195.5t-2.5 -270l-12 -72h-803q4 -105 67 -158t158 -53q68 0 134.5 36t109.5 108l299 -131q-62 -106 -180 -190t-269 -115q-53 -23 -80.5 -62t-27.5 -76q0 -33 25 -55.5t75 -22.5q63 0 101 17l-41 -230q-55 -14 -123 -14
q-128 0 -206.5 51t-78.5 150q0 69 39 130.5t106 98.5q-204 21 -324 149t-120 337q0 109 34 216t98 198.5t149 162t193.5 110.5t225.5 40zM436 698h445q-3 97 -53 144t-138 47q-86 0 -151.5 -52t-102.5 -139z" />
    <glyph glyph-name="Ecaron" unicode="&#x11a;" horiz-adv-x="1320" 
d="M1059 1720h-330l-227 375h317q24 -30 35 -50t20 -66t5 -111h82q18 64 44 111t44.5 67.5t50.5 48.5h317zM1130 0h-1079l283 1597h1059l-60 -335q-143 0 -223.5 2t-213.5 14.5t-255 38.5l-45 -21q17 -95 5 -175t-60 -195l20 -21q127 37 259 56t209 21.5t214 2.5l-63 -354
q-103 0 -160 1.5t-147.5 8.5t-173 25.5t-167.5 48.5l-32 -21q5 -125 -11 -207.5t-63 -167.5l33 -40q133 27 274 40t224.5 15t232.5 2z" />
    <glyph glyph-name="ecaron" unicode="&#x11b;" horiz-adv-x="1259" 
d="M930 1298h-334l-225 396h321q4 -10 22 -49t25 -58t16.5 -55.5t12.5 -73.5h49q16 37 36.5 71.5t34.5 53.5t44.5 57t42.5 54h321zM555 -35q-230 0 -370 131t-140 357q0 109 34 216t98 198.5t149 162t193.5 110.5t225.5 40q118 0 211.5 -40.5t156.5 -119t85.5 -195.5
t-2.5 -270l-12 -72h-803q4 -105 67 -158t158 -53q68 0 134.5 36t109.5 108l299 -131q-78 -134 -236.5 -227t-357.5 -93zM436 698h445q-3 97 -53 144t-138 47q-86 0 -151.5 -52t-102.5 -139z" />
    <glyph glyph-name="Gbreve" unicode="&#x11e;" horiz-adv-x="1769" 
d="M1087 1712q-175 0 -273 106.5t-71 274.5h289q-9 -62 12.5 -103.5t83.5 -41.5q61 0 99 40.5t51 104.5h289q-33 -169 -168.5 -275t-311.5 -106zM748 -35q-299 0 -476.5 181t-177.5 487q0 194 75.5 376.5t204.5 319t311 219t384 82.5q139 0 255 -39.5t197.5 -109.5
t134.5 -162.5t73 -202.5l-361 -135q-82 307 -354 307q-92 0 -176.5 -33.5t-149 -92.5t-113 -135t-73.5 -164t-25 -177q0 -88 26 -156.5t66.5 -109.5t95.5 -67.5t107.5 -36t108.5 -9.5q136 0 270 68t283 227l-33 41q-68 -32 -136.5 -52.5t-136 -28t-106.5 -9.5t-100 -2
l51 295h735l-149 -846h-275q0 5 2.5 37.5t4.5 44.5t8.5 40.5t19 56.5t31.5 61l-52 20q-113 -157 -246 -226t-304 -69z" />
    <glyph glyph-name="gbreve" unicode="&#x11f;" horiz-adv-x="1359" 
d="M807 1264q-175 0 -263 109t-63 286h275q-4 -37 -0.5 -71.5t30 -59.5t70.5 -25q63 0 103.5 47.5t50.5 108.5h274q-39 -184 -172 -289.5t-305 -105.5zM463 -483q-64 0 -122.5 8t-121.5 30t-112 56.5t-87.5 94t-54.5 136.5l330 113q25 -82 76.5 -116t134.5 -34q69 0 122 20
t87 57t55.5 80.5t34.5 98.5q1 4 5 21t5 22t5 19.5t6.5 20.5t7.5 19t10 21t11.5 19.5t14.5 21.5h-41q-39 -68 -83 -113.5t-90 -67t-85 -29t-86 -7.5q-206 0 -320 120.5t-114 332.5q0 137 49.5 268.5t133 230.5t200.5 159.5t244 60.5q255 0 264 -242h41q2 122 16 209h338
l-182 -1041q-24 -134 -75.5 -238.5t-118 -169.5t-151.5 -106.5t-169 -58t-178 -16.5zM616 336q120 0 207.5 93.5t87.5 215.5q0 95 -56.5 152t-147.5 57q-121 0 -207 -94t-86 -215q0 -95 56 -152t146 -57z" />
    <glyph glyph-name="Gdotaccent" unicode="&#x120;" horiz-adv-x="1769" 
d="M1092 1743q-74 0 -121 47.5t-47 120.5q0 92 72 162.5t167 70.5q74 0 121 -46.5t47 -117.5q0 -93 -72 -165t-167 -72zM748 -35q-299 0 -476.5 181t-177.5 487q0 194 75.5 376.5t204.5 319t311 219t384 82.5q139 0 255 -39.5t197.5 -109.5t134.5 -162.5t73 -202.5
l-361 -135q-82 307 -354 307q-92 0 -176.5 -33.5t-149 -92.5t-113 -135t-73.5 -164t-25 -177q0 -88 26 -156.5t66.5 -109.5t95.5 -67.5t107.5 -36t108.5 -9.5q136 0 270 68t283 227l-33 41q-68 -32 -136.5 -52.5t-136 -28t-106.5 -9.5t-100 -2l51 295h735l-149 -846h-275
q0 5 2.5 37.5t4.5 44.5t8.5 40.5t19 56.5t31.5 61l-52 20q-113 -157 -246 -226t-304 -69z" />
    <glyph glyph-name="gdotaccent" unicode="&#x121;" horiz-adv-x="1359" 
d="M811 1278q-74 0 -121 47.5t-47 120.5q0 92 72.5 162.5t167.5 70.5q74 0 121 -46t47 -117q0 -93 -72.5 -165.5t-167.5 -72.5zM463 -483q-64 0 -122.5 8t-121.5 30t-112 56.5t-87.5 94t-54.5 136.5l330 113q25 -82 76.5 -116t134.5 -34q69 0 122 20t87 57t55.5 80.5
t34.5 98.5q1 4 5 21t5 22t5 19.5t6.5 20.5t7.5 19t10 21t11.5 19.5t14.5 21.5h-41q-39 -68 -83 -113.5t-90 -67t-85 -29t-86 -7.5q-206 0 -320 120.5t-114 332.5q0 137 49.5 268.5t133 230.5t200.5 159.5t244 60.5q255 0 264 -242h41q2 122 16 209h338l-182 -1041
q-24 -134 -75.5 -238.5t-118 -169.5t-151.5 -106.5t-169 -58t-178 -16.5zM616 336q120 0 207.5 93.5t87.5 215.5q0 95 -56.5 152t-147.5 57q-121 0 -207 -94t-86 -215q0 -95 56 -152t146 -57z" />
    <glyph glyph-name="uni0122" unicode="&#x122;" horiz-adv-x="1769" 
d="M748 -35q-299 0 -476.5 181t-177.5 487q0 194 75.5 376.5t204.5 319t311 219t384 82.5q139 0 255 -39.5t197.5 -109.5t134.5 -162.5t73 -202.5l-361 -135q-82 307 -354 307q-92 0 -176.5 -33.5t-149 -92.5t-113 -135t-73.5 -164t-25 -177q0 -88 26 -156.5t66.5 -109.5
t95.5 -67.5t107.5 -36t108.5 -9.5q136 0 270 68t283 227l-33 41q-68 -32 -136.5 -52.5t-136 -28t-106.5 -9.5t-100 -2l51 295h735l-149 -846h-275q0 5 2.5 37.5t4.5 44.5t8.5 40.5t19 56.5t31.5 61l-52 20q-113 -157 -246 -226t-304 -69zM666 -696h-185q60 82 114.5 140
t135.5 112q-60 0 -99.5 37.5t-39.5 97.5q0 83 63.5 144t149.5 61q66 0 105.5 -40.5t39.5 -107.5q0 -20 -3 -37t-14.5 -40t-23 -41.5t-38 -55t-50 -66.5t-70 -91t-85.5 -113z" />
    <glyph glyph-name="uni0123" unicode="&#x123;" horiz-adv-x="1359" 
d="M662 1430q0 20 3 37t14.5 40.5t22.5 41.5t38.5 56t50 67t69.5 91t86 113h184q-123 -167 -235 -293q60 4 91.5 -26t31.5 -84q0 -80 -58.5 -134.5t-144.5 -54.5q-71 0 -112 39.5t-41 106.5zM463 -483q-64 0 -122.5 8t-121.5 30t-112 56.5t-87.5 94t-54.5 136.5l330 113
q25 -82 76.5 -116t134.5 -34q69 0 122 20t87 57t55.5 80.5t34.5 98.5q1 4 5 21t5 22t5 19.5t6.5 20.5t7.5 19t10 21t11.5 19.5t14.5 21.5h-41q-39 -68 -83 -113.5t-90 -67t-85 -29t-86 -7.5q-206 0 -320 120.5t-114 332.5q0 137 49.5 268.5t133 230.5t200.5 159.5t244 60.5
q255 0 264 -242h41q2 122 16 209h338l-182 -1041q-24 -134 -75.5 -238.5t-118 -169.5t-151.5 -106.5t-169 -58t-178 -16.5zM616 336q120 0 207.5 93.5t87.5 215.5q0 95 -56.5 152t-147.5 57q-121 0 -207 -94t-86 -215q0 -95 56 -152t146 -57z" />
    <glyph glyph-name="Hbar" unicode="&#x126;" horiz-adv-x="1662" 
d="M1653 1366h155l-49 -276h-155l-193 -1090h-362q22 127 37 205t44.5 197.5t69.5 244.5l-39 21q-171 -58 -319 -57.5t-307 57.5l-43 -21q-5 -122 -17.5 -242.5t-24.5 -196t-36 -208.5h-363l193 1090h-156l49 276h156l41 231h362l-43 -231h639q6 48 39 231h363zM1208 903
l41 21q1 38 11 166h-672q-14 -61 -47 -166l32 -21q181 58 328.5 58.5t306.5 -58.5z" />
    <glyph glyph-name="hbar" unicode="&#x127;" horiz-adv-x="1310" 
d="M913 1180q167 0 258.5 -119.5t53.5 -335.5l-127 -725h-342l100 573q5 29 8 48t5 51.5t-0.5 54t-11 47.5t-24.5 41.5t-43 26t-63 10.5q-40 0 -77.5 -12.5t-75 -42t-66.5 -87t-43 -137.5l-100 -573h-342l217 1235h-232l45 252h232l26 151h342q-5 -26 -14 -77t-14 -74h282
l-45 -252h-289q-43 -181 -84 -297h41q151 242 383 242z" />
    <glyph glyph-name="Imacron" unicode="&#x12a;" horiz-adv-x="665" 
d="M924 1741h-783l45 250h783zM414 0h-363l283 1597h362z" />
    <glyph glyph-name="imacron" unicode="&#x12b;" horiz-adv-x="587" 
d="M764 1280h-688l41 236h688zM365 0h-342l202 1147h342z" />
    <glyph glyph-name="Iogonek" unicode="&#x12e;" horiz-adv-x="665" 
d="M227 -156q0 -37 28.5 -65.5t94.5 -28.5q58 0 92 10l-36 -204q-56 -19 -150 -19q-76 0 -138 20t-103.5 66t-41.5 111q0 86 62 157t160 109h-144l283 1597h362l-282 -1597h4q-100 -11 -145.5 -60t-45.5 -96z" />
    <glyph glyph-name="iogonek" unicode="&#x12f;" horiz-adv-x="587" 
d="M487 1659q74 0 121 -46.5t47 -117.5q0 -93 -72 -165.5t-167 -72.5q-74 0 -121 47.5t-47 120.5q0 92 72 163t167 71zM113 0h-90l202 1147h342l-202 -1147h-41q-90 -14 -136.5 -61t-46.5 -97q0 -33 25.5 -55.5t75.5 -22.5q62 0 100 17l-41 -230q-55 -14 -123 -14
q-127 0 -205.5 51t-78.5 150q0 88 60.5 160.5t158.5 101.5z" />
    <glyph glyph-name="Idotaccent" unicode="&#x130;" horiz-adv-x="665" 
d="M532 1743q-74 0 -120.5 47.5t-46.5 120.5q0 92 72 162.5t167 70.5q74 0 121 -46.5t47 -117.5q0 -93 -72.5 -165t-167.5 -72zM414 0h-363l283 1597h362z" />
    <glyph glyph-name="dotlessi" unicode="&#x131;" horiz-adv-x="587" 
d="M365 0h-342l202 1147h342z" />
    <glyph glyph-name="uni0136" unicode="&#x136;" horiz-adv-x="1499" 
d="M414 0h-363l283 1597h362q-3 -14 -18.5 -103t-21 -116.5t-23.5 -106.5t-34 -128.5t-43 -123t-60 -145.5h41q398 414 731 723h426q-16 -15 -113 -106t-127.5 -120t-116.5 -108.5t-138.5 -127t-130 -116.5t-150.5 -132l-7 -43q78 -93 149.5 -194t142 -222t115.5 -203
t120 -225h-441q-77 148 -111.5 215.5t-90.5 188t-95 223.5h-28q-5 -4 -26.5 -23.5t-26 -23.5t-22.5 -19.5t-24.5 -20.5t-21.5 -16t-25 -17t-23 -13t-26 -13q-10 -178 -63 -481zM559 -696h-184q60 82 114.5 140t135.5 112q-61 0 -100.5 38t-39.5 97q0 83 63.5 144t149.5 61
q66 0 106 -40.5t40 -107.5q0 -20 -3.5 -37t-14.5 -40t-22.5 -41.5t-38.5 -55t-50.5 -67t-69.5 -90.5t-86 -113z" />
    <glyph glyph-name="uni0137" unicode="&#x137;" horiz-adv-x="1212" 
d="M367 0h-344l288 1638h344q-40 -227 -56 -317t-56.5 -272t-87.5 -338h41q160 195 413 436h406l-549 -475q29 -42 59 -87.5t52 -80t53 -88.5t45.5 -79.5t48 -88t42.5 -79t46.5 -88t42.5 -81.5h-403q-5 10 -22 46t-22 47t-20 43t-21 45t-19 42.5t-19.5 47t-18 46t-19.5 51.5
t-17.5 51.5t-18.5 57.5q-46 -67 -76 -103t-71 -73q-7 -103 -41 -301zM383 -696h-184q60 82 114.5 140t135.5 112q-61 0 -100.5 38t-39.5 97q0 83 63.5 144t149.5 61q66 0 106 -40.5t40 -107.5q0 -20 -3.5 -37t-14.5 -40t-22.5 -41.5t-38.5 -55t-50.5 -67t-69.5 -90.5
t-86 -113z" />
    <glyph glyph-name="Lacute" unicode="&#x139;" horiz-adv-x="1193" 
d="M1130 2095l-387 -375h-309l287 375h409zM1073 0h-1022l283 1597h362q-53 -296 -80 -441t-80.5 -389.5t-109.5 -447.5l33 -40q119 27 248.5 40t208 15t217.5 2z" />
    <glyph glyph-name="lacute" unicode="&#x13a;" horiz-adv-x="587" 
d="M1063 2136l-387 -375h-309l286 375h410zM365 0h-342l288 1638h342z" />
    <glyph glyph-name="uni013B" unicode="&#x13b;" horiz-adv-x="1193" 
d="M1073 0h-1022l283 1597h362q-53 -296 -80 -441t-80.5 -389.5t-109.5 -447.5l33 -40q119 27 248.5 40t208 15t217.5 2zM395 -696h-184q60 82 114.5 140t135.5 112q-60 0 -99.5 37.5t-39.5 97.5q0 83 63.5 144t149.5 61q66 0 105.5 -40.5t39.5 -107.5q0 -20 -3.5 -37
t-14.5 -40t-22.5 -41.5t-38.5 -55t-50.5 -67t-69.5 -90.5t-86 -113z" />
    <glyph glyph-name="uni013C" unicode="&#x13c;" horiz-adv-x="587" 
d="M365 0h-342l288 1638h342zM51 -696h-184q60 82 114.5 140t135.5 112q-61 0 -100.5 38t-39.5 97q0 83 63.5 144t149.5 61q66 0 106 -40.5t40 -107.5q0 -20 -3.5 -37t-14.5 -40t-22.5 -41.5t-38.5 -55t-50.5 -67t-69.5 -90.5t-86 -113z" />
    <glyph glyph-name="Lcaron" unicode="&#x13d;" horiz-adv-x="1193" 
d="M938 981h-195q102 129 157 184q63 65 136 117q-157 39 -157 154q0 92 75 164.5t172 72.5q74 0 123 -48.5t49 -121.5q0 -65 -51 -140t-219 -275q-57 -68 -90 -107zM1073 0h-1022l283 1597h362q-53 -296 -80 -441t-80.5 -389.5t-109.5 -447.5l33 -40q119 27 248.5 40
t208 15t217.5 2z" />
    <glyph glyph-name="lcaron" unicode="&#x13e;" horiz-adv-x="587" 
d="M803 981h-195q102 129 157 184q63 65 136 117q-158 39 -158 154q0 92 75.5 164.5t172.5 72.5q75 0 123.5 -48.5t48.5 -121.5q0 -65 -51 -140t-219 -275q-57 -68 -90 -107zM365 0h-342l288 1638h342z" />
    <glyph glyph-name="Lslash" unicode="&#x141;" horiz-adv-x="1193" 
d="M426 319l33 -40q119 27 248.5 40t208 15t217.5 2l-60 -336h-1022l117 664l-172 -74l53 305l174 76l111 626h362q-38 -219 -84 -458l187 80l-54 -306l-194 -84q-60 -271 -125 -510z" />
    <glyph glyph-name="lslash" unicode="&#x142;" horiz-adv-x="587" 
d="M575 1192l183 117l-53 -293l-183 -117l-157 -899h-342l114 653l-186 -118l51 292l186 119l123 692h342z" />
    <glyph glyph-name="Nacute" unicode="&#x143;" horiz-adv-x="1662" 
d="M1571 2095l-387 -375h-310l287 375h410zM414 0h-363l283 1597h334q163 -268 274 -511.5t199 -561.5h41q40 467 149 1073h363l-283 -1597h-334q-86 140 -140 233.5t-122 226.5t-121.5 274t-97.5 300h-41q-16 -200 -42 -400.5t-45 -316t-54 -317.5z" />
    <glyph glyph-name="nacute" unicode="&#x144;" horiz-adv-x="1310" 
d="M1272 1653l-377 -375h-295l279 375h393zM365 0h-342l202 1147h338q-20 -102 -74 -209h41q151 242 383 242q168 0 259 -119t53 -336l-127 -725h-342l100 573q5 29 8 48t5 51.5t-0.5 54t-11 47.5t-24.5 41.5t-43 26t-63 10.5q-40 0 -77.5 -12.5t-75 -42t-66.5 -87
t-43 -137.5z" />
    <glyph glyph-name="uni0145" unicode="&#x145;" horiz-adv-x="1662" 
d="M414 0h-363l283 1597h334q163 -268 274 -511.5t199 -561.5h41q40 467 149 1073h363l-283 -1597h-334q-86 140 -140 233.5t-122 226.5t-121.5 274t-97.5 300h-41q-16 -200 -42 -400.5t-45 -316t-54 -317.5zM612 -696h-184q60 82 114.5 140t135.5 112q-60 0 -99.5 37.5
t-39.5 97.5q0 83 63.5 144t149.5 61q66 0 105.5 -40.5t39.5 -107.5q0 -20 -3.5 -37t-14.5 -40t-22.5 -41.5t-38.5 -55t-50.5 -67t-69.5 -90.5t-86 -113z" />
    <glyph glyph-name="uni0146" unicode="&#x146;" horiz-adv-x="1310" 
d="M365 0h-342l202 1147h338q-20 -102 -74 -209h41q151 242 383 242q168 0 259 -119t53 -336l-127 -725h-342l100 573q5 29 8 48t5 51.5t-0.5 54t-11 47.5t-24.5 41.5t-43 26t-63 10.5q-40 0 -77.5 -12.5t-75 -42t-66.5 -87t-43 -137.5zM481 -696h-184q60 82 114.5 140
t135.5 112q-60 0 -99.5 37.5t-39.5 97.5q0 83 63.5 144t149.5 61q66 0 105.5 -40.5t39.5 -107.5q0 -20 -3.5 -37t-14.5 -40t-22.5 -41.5t-38.5 -55t-50.5 -67t-69.5 -90.5t-86 -113z" />
    <glyph glyph-name="Ncaron" unicode="&#x147;" horiz-adv-x="1662" 
d="M1180 1720h-330l-227 375h317q23 -30 34.5 -50t20 -66t4.5 -111h82q18 64 44 111t45 67.5t51 48.5h317zM414 0h-363l283 1597h334q163 -268 274 -511.5t199 -561.5h41q40 467 149 1073h363l-283 -1597h-334q-86 140 -140 233.5t-122 226.5t-121.5 274t-97.5 300h-41
q-16 -200 -42 -400.5t-45 -316t-54 -317.5z" />
    <glyph glyph-name="ncaron" unicode="&#x148;" horiz-adv-x="1310" 
d="M942 1298h-334l-225 396h322q3 -7 21.5 -48t25 -59t16 -55t12.5 -74h49q16 37 36.5 71.5t34.5 53.5t44.5 57t42.5 54h322zM365 0h-342l202 1147h338q-20 -102 -74 -209h41q151 242 383 242q168 0 259 -119t53 -336l-127 -725h-342l100 573q5 29 8 48t5 51.5t-0.5 54
t-11 47.5t-24.5 41.5t-43 26t-63 10.5q-40 0 -77.5 -12.5t-75 -42t-66.5 -87t-43 -137.5z" />
    <glyph glyph-name="Eng" unicode="&#x14a;" horiz-adv-x="1662" 
d="M807 -483q-88 0 -191 13t-149 26l51 290q100 -24 238 -24q65 0 107 8.5t79 33t61 70.5t41 119q-158 258 -265 470.5t-189 469.5h-41q-14 -181 -38 -372t-43 -305t-54 -316h-363l283 1597h334q155 -254 270.5 -496t210.5 -536h41q31 422 141 1032h363l-283 -1597
q-8 -42 -19 -81.5t-34 -89.5t-52.5 -92.5t-77 -84t-105.5 -70.5t-139.5 -47t-176.5 -18z" />
    <glyph glyph-name="eng" unicode="&#x14b;" horiz-adv-x="1310" 
d="M614 -483q-112 0 -227 39l51 290q98 -24 156 -24q46 0 76.5 11.5t46 36t21.5 43t12 52.5l106 608q5 29 8 48t5 51.5t-0.5 54t-11 47.5t-24.5 41.5t-43 26t-63 10.5q-40 0 -77.5 -12.5t-75 -42t-66.5 -87t-43 -137.5l-100 -573h-342l202 1147h338q-20 -102 -74 -209h41
q151 242 383 242q167 0 258.5 -119.5t53.5 -335.5l-129 -739q-7 -43 -12.5 -70t-17 -70.5t-23.5 -72t-32.5 -66t-44.5 -62t-59 -51.5t-76.5 -42t-97 -25t-119.5 -10z" />
    <glyph glyph-name="Omacron" unicode="&#x14c;" horiz-adv-x="1757" 
d="M1468 1741h-782l45 250h782zM772 -35q-197 0 -351 81.5t-241.5 235.5t-87.5 357q0 189 77 370t206 317.5t310.5 220t377.5 83.5q198 0 353 -83t242 -237.5t87 -357.5q0 -190 -77.5 -370.5t-207.5 -316t-311 -218t-377 -82.5zM834 307q142 0 264 84.5t191 220.5t69 287
q0 173 -94 281t-256 108q-107 0 -206 -50.5t-170 -132.5t-113 -190.5t-42 -220.5q0 -177 98.5 -282t258.5 -105z" />
    <glyph glyph-name="omacron" unicode="&#x14d;" horiz-adv-x="1310" 
d="M1128 1300h-688l41 236h688zM549 -35q-232 0 -368 132t-136 356q0 139 54.5 271t147.5 232.5t229 162t288 61.5q231 0 366.5 -133.5t135.5 -358.5q0 -139 -53.5 -270t-146.5 -231.5t-228.5 -161t-288.5 -60.5zM608 293q122 0 210.5 101.5t88.5 242.5q0 97 -54 156
t-146 59q-128 0 -214.5 -104.5t-86.5 -235.5q0 -99 54 -159t148 -60z" />
    <glyph glyph-name="Ohungarumlaut" unicode="&#x150;" horiz-adv-x="1757" 
d="M1329 2093l-385 -373h-295l285 373h395zM1849 2093l-385 -373h-295l285 373h395zM772 -35q-197 0 -351 81.5t-241.5 235.5t-87.5 357q0 189 77 370t206 317.5t310.5 220t377.5 83.5q198 0 353 -83t242 -237.5t87 -357.5q0 -190 -77.5 -370.5t-207.5 -316t-311 -218
t-377 -82.5zM834 307q142 0 264 84.5t191 220.5t69 287q0 173 -94 281t-256 108q-107 0 -206 -50.5t-170 -132.5t-113 -190.5t-42 -220.5q0 -177 98.5 -282t258.5 -105z" />
    <glyph glyph-name="ohungarumlaut" unicode="&#x151;" horiz-adv-x="1310" 
d="M1008 1673l-402 -395h-287l304 395h385zM1530 1673l-402 -395h-286l303 395h385zM549 -35q-232 0 -368 132t-136 356q0 139 54.5 271t147.5 232.5t229 162t288 61.5q231 0 366.5 -133.5t135.5 -358.5q0 -139 -53.5 -270t-146.5 -231.5t-228.5 -161t-288.5 -60.5zM608 293
q122 0 210.5 101.5t88.5 242.5q0 97 -54 156t-146 59q-128 0 -214.5 -104.5t-86.5 -235.5q0 -99 54 -159t148 -60z" />
    <glyph glyph-name="OE" unicode="&#x152;" horiz-adv-x="2480" 
d="M764 -35q-139 0 -260.5 44.5t-213.5 127t-145 211t-53 287.5q0 192 77 374.5t205.5 318.5t308 219t374.5 83q252 0 413 -151l21 118h1059l-60 -335q-142 0 -222 2t-213.5 14.5t-254.5 38.5l-47 -21q18 -93 6.5 -174t-59.5 -196l33 -21q121 37 250 56t205.5 21.5
t213.5 2.5l-63 -354q-103 0 -159.5 1.5t-146 8.5t-170 25.5t-161.5 48.5l-43 -21q5 -126 -11.5 -208.5t-64.5 -166.5l35 -40q133 27 274 40t224.5 15t232.5 2l-59 -336h-1080l21 115q-213 -150 -467 -150zM825 307q143 0 263.5 87t187.5 225t67 290q0 174 -91 276.5
t-248 102.5q-145 0 -267.5 -86t-191 -223t-68.5 -287q0 -177 94.5 -281t253.5 -104z" />
    <glyph glyph-name="oe" unicode="&#x153;" horiz-adv-x="2101" 
d="M549 -35q-232 0 -368 132t-136 358q0 111 34.5 219t100 198.5t152.5 160t199 108.5t233 39q251 0 381 -162q85 77 197 119.5t237 42.5q121 0 217 -40.5t160 -119t87 -195.5t-3 -270l-8 -47h-818q0 -103 64 -169.5t160 -66.5q69 0 138.5 36t113.5 108l299 -131
q-82 -137 -242 -228.5t-361 -91.5q-131 0 -234.5 41t-164.5 119q-189 -160 -438 -160zM1260 713h458q-14 93 -69 135.5t-131 42.5q-80 0 -148.5 -48.5t-109.5 -129.5zM606 293q122 0 210.5 100.5t88.5 237.5q0 102 -53 161.5t-145 59.5q-126 0 -213.5 -102.5t-87.5 -235.5
q0 -101 53.5 -161t146.5 -60z" />
    <glyph glyph-name="Racute" unicode="&#x154;" horiz-adv-x="1441" 
d="M1386 2095l-387 -375h-309l287 375h409zM414 0h-363l283 1597h637q17 0 31 -0.5t50.5 -4t67 -10.5t73.5 -22t76.5 -35t69 -53t59.5 -73.5t39 -98.5t15 -126q0 -225 -146.5 -372t-390.5 -159l-6 -41q69 -71 124.5 -143t109.5 -165t77 -136.5t80 -157.5h-409l-277 571
q-30 6 -56.5 20t-72.5 48q0 -247 -71 -639zM514 807l35 -19q55 37 105.5 48.5t111.5 11.5q125 2 212 75t87 177q0 53 -24 89t-62 51.5t-68.5 21.5t-60.5 6q-42 0 -65.5 1.5t-64 13t-79.5 34.5l-45 -21q25 -232 -82 -489z" />
    <glyph glyph-name="racute" unicode="&#x155;" horiz-adv-x="909" 
d="M1110 1653l-377 -375h-295l279 375h393zM365 0h-342l202 1147h338q0 -1 -4 -27.5t-7.5 -39.5t-11.5 -41t-21 -60t-32 -70h41q137 271 355 271q47 0 100 -19l-68 -385q-62 21 -135 21q-56 0 -103 -15.5t-78.5 -34t-59 -59t-41 -63.5t-29 -76.5t-18.5 -69.5t-13 -69
q-1 -6 -2 -9z" />
    <glyph glyph-name="uni0156" unicode="&#x156;" horiz-adv-x="1441" 
d="M414 0h-363l283 1597h637q17 0 31 -0.5t50.5 -4t67 -10.5t73.5 -22t76.5 -35t69 -53t59.5 -73.5t39 -98.5t15 -126q0 -225 -146.5 -372t-390.5 -159l-6 -41q69 -71 124.5 -143t109.5 -165t77 -136.5t80 -157.5h-409l-277 571q-30 6 -56.5 20t-72.5 48q0 -247 -71 -639z
M514 807l35 -19q55 37 105.5 48.5t111.5 11.5q125 2 212 75t87 177q0 53 -24 89t-62 51.5t-68.5 21.5t-60.5 6q-42 0 -65.5 1.5t-64 13t-79.5 34.5l-45 -21q25 -232 -82 -489zM449 -696h-185q60 82 114.5 140t135.5 112q-60 0 -99.5 37.5t-39.5 97.5q0 83 63.5 144t149.5 61
q66 0 105.5 -40.5t39.5 -107.5q0 -20 -3 -37t-14.5 -40t-23 -41.5t-38 -55t-50 -66.5t-70 -91t-85.5 -113z" />
    <glyph glyph-name="uni0157" unicode="&#x157;" horiz-adv-x="909" 
d="M365 0h-342l202 1147h338q0 -1 -4 -27.5t-7.5 -39.5t-11.5 -41t-21 -60t-32 -70h41q137 271 355 271q47 0 100 -19l-68 -385q-62 21 -135 21q-56 0 -103 -15.5t-78.5 -34t-59 -59t-41 -63.5t-29 -76.5t-18.5 -69.5t-13 -69q-1 -6 -2 -9zM45 -696h-184q60 82 114.5 140
t135.5 112q-61 0 -100.5 38t-39.5 97q0 83 63.5 144t149.5 61q66 0 106 -40.5t40 -107.5q0 -20 -3.5 -37t-14.5 -40t-22.5 -41.5t-38.5 -55t-50.5 -67t-69.5 -90.5t-86 -113z" />
    <glyph glyph-name="Rcaron" unicode="&#x158;" horiz-adv-x="1441" 
d="M995 1720h-329l-228 375h318q23 -30 34.5 -50t20 -66t4.5 -111h82q18 64 44 111t44.5 67.5t50.5 48.5h318zM414 0h-363l283 1597h637q17 0 31 -0.5t50.5 -4t67 -10.5t73.5 -22t76.5 -35t69 -53t59.5 -73.5t39 -98.5t15 -126q0 -225 -146.5 -372t-390.5 -159l-6 -41
q69 -71 124.5 -143t109.5 -165t77 -136.5t80 -157.5h-409l-277 571q-30 6 -56.5 20t-72.5 48q0 -247 -71 -639zM514 807l35 -19q55 37 105.5 48.5t111.5 11.5q125 2 212 75t87 177q0 53 -24 89t-62 51.5t-68.5 21.5t-60.5 6q-42 0 -65.5 1.5t-64 13t-79.5 34.5l-45 -21
q25 -232 -82 -489z" />
    <glyph glyph-name="rcaron" unicode="&#x159;" horiz-adv-x="909" 
d="M780 1298h-334l-225 396h322q3 -7 21.5 -48t25 -59t16 -55t12.5 -74h50q16 37 37 72t34 53t44 57.5t42 53.5h322zM365 0h-342l202 1147h338q0 -1 -4 -27.5t-7.5 -39.5t-11.5 -41t-21 -60t-32 -70h41q137 271 355 271q47 0 100 -19l-68 -385q-62 21 -135 21
q-56 0 -103 -15.5t-78.5 -34t-59 -59t-41 -63.5t-29 -76.5t-18.5 -69.5t-13 -69q-1 -6 -2 -9z" />
    <glyph glyph-name="Sacute" unicode="&#x15a;" horiz-adv-x="1345" 
d="M1356 2095l-387 -375h-310l287 375h410zM580 -35q-248 0 -395.5 128t-161.5 347l358 115q28 -260 254 -260q108 0 180 49.5t72 122.5q0 29 -13.5 53.5t-32.5 41t-50.5 32.5t-55.5 24.5t-61 20.5l-133 43q-50 16 -88.5 32t-90.5 48.5t-86 71t-58.5 99.5t-24.5 134
q0 107 48.5 208.5t133 180t208.5 126.5t265 48q117 0 213 -32.5t156 -86.5t94 -118t39 -131l-357 -136q-40 177 -205 177q-86 0 -145 -43t-59 -105q0 -61 58 -100t165 -74l164 -55q32 -11 53 -18.5t57 -25t60.5 -35t53.5 -46t47 -61t30 -78t12 -97.5q0 -112 -50.5 -219.5
t-140 -192t-224 -136.5t-289.5 -52z" />
    <glyph glyph-name="sacute" unicode="&#x15b;" horiz-adv-x="1069" 
d="M1143 1657l-377 -375h-295l279 375h393zM430 -35q-198 0 -316 88t-130 236l335 102q33 -147 162 -147q57 0 91 24t34 62q0 11 -3.5 20.5t-7.5 16.5t-14 14t-15.5 11t-19 9.5t-18.5 7.5t-20.5 7t-18.5 6l-118 39q-33 11 -53.5 19t-62 33t-66.5 53t-45.5 76.5t-20.5 107.5
q0 83 38 160.5t105 137.5t166 96t213 36q175 0 280 -81.5t117 -211.5l-329 -103q-23 121 -123 121q-48 0 -82.5 -26t-34.5 -62q0 -19 13 -34.5t40.5 -28.5t48 -20.5t58.5 -18.5l76 -23q100 -31 142 -55q129 -77 130 -236q0 -187 -154.5 -311.5t-396.5 -124.5z" />
    <glyph glyph-name="Scedilla" unicode="&#x15e;" horiz-adv-x="1345" 
d="M807 981l164 -55q32 -11 53 -18.5t57 -25t60.5 -35t53.5 -46t47 -61t30 -78t12 -97.5q0 -141 -75.5 -270t-221.5 -219.5t-332 -106.5q-24 -19 -149 -100l16 -21q101 68 156 68q66 0 112 -45.5t46 -126.5q0 -117 -99.5 -195.5t-251.5 -78.5q-99 0 -170.5 35.5t-105.5 99.5
l127 133q57 -98 170 -98q49 0 78.5 22t29.5 59q0 28 -22.5 44t-59.5 16q-51 0 -90 -31l-88 74l123 147q-203 26 -322.5 150.5t-131.5 318.5l358 115q28 -260 254 -260q108 0 180 49.5t72 122.5q0 29 -13.5 53.5t-32.5 41t-50.5 32.5t-55.5 24.5t-61 20.5l-133 43
q-50 16 -88.5 32t-90.5 48.5t-86 71t-58.5 99.5t-24.5 134q0 107 48.5 208.5t133 180t208.5 126.5t265 48q117 0 213 -32.5t156 -86.5t94 -118t39 -131l-357 -136q-40 177 -205 177q-86 0 -145 -43t-59 -105q0 -61 58 -100t165 -74z" />
    <glyph glyph-name="scedilla" unicode="&#x15f;" horiz-adv-x="1069" 
d="M633 715l76 -23q100 -31 142 -55q129 -77 130 -236q0 -173 -135 -294t-352 -140q-16 -12 -148 -98l16 -21q101 68 156 68q66 0 112 -45.5t46 -126.5q0 -118 -99 -196t-251 -78q-99 0 -171 35.5t-106 99.5l127 133q57 -98 170 -98q49 0 79 22t30 59q0 28 -22.5 44
t-59.5 16q-51 0 -90 -31l-88 74l122 149q-149 23 -235.5 106.5t-97.5 209.5l335 102q33 -147 162 -147q57 0 91 24t34 62q0 11 -3.5 20.5t-7.5 16.5t-14 14t-15.5 11t-19 9.5t-18.5 7.5t-20.5 7t-18.5 6l-118 39q-33 11 -53.5 19t-62 33t-66.5 53t-45.5 76.5t-20.5 107.5
q0 83 38 160.5t105 137.5t166 96t213 36q175 0 280 -81.5t117 -211.5l-329 -103q-23 121 -123 121q-48 0 -82.5 -26t-34.5 -62q0 -19 13 -34.5t40.5 -28.5t48 -20.5t58.5 -18.5z" />
    <glyph glyph-name="Scaron" unicode="&#x160;" horiz-adv-x="1345" 
d="M1026 1720h-330l-227 375h317q24 -30 35 -50t20 -66t5 -111h82q18 64 44 111t44.5 67.5t50.5 48.5h317zM580 -35q-248 0 -395.5 128t-161.5 347l358 115q28 -260 254 -260q108 0 180 49.5t72 122.5q0 29 -13.5 53.5t-32.5 41t-50.5 32.5t-55.5 24.5t-61 20.5l-133 43
q-50 16 -88.5 32t-90.5 48.5t-86 71t-58.5 99.5t-24.5 134q0 107 48.5 208.5t133 180t208.5 126.5t265 48q117 0 213 -32.5t156 -86.5t94 -118t39 -131l-357 -136q-40 177 -205 177q-86 0 -145 -43t-59 -105q0 -61 58 -100t165 -74l164 -55q32 -11 53 -18.5t57 -25t60.5 -35
t53.5 -46t47 -61t30 -78t12 -97.5q0 -112 -50.5 -219.5t-140 -192t-224 -136.5t-289.5 -52z" />
    <glyph glyph-name="scaron" unicode="&#x161;" horiz-adv-x="1069" 
d="M813 1303h-334l-225 395h321q4 -10 22 -49t25 -58t16.5 -55.5t12.5 -73.5h49q16 37 36.5 71.5t34.5 53.5t44.5 57t42.5 54h322zM430 -35q-198 0 -316 88t-130 236l335 102q33 -147 162 -147q57 0 91 24t34 62q0 11 -3.5 20.5t-7.5 16.5t-14 14t-15.5 11t-19 9.5
t-18.5 7.5t-20.5 7t-18.5 6l-118 39q-33 11 -53.5 19t-62 33t-66.5 53t-45.5 76.5t-20.5 107.5q0 83 38 160.5t105 137.5t166 96t213 36q175 0 280 -81.5t117 -211.5l-329 -103q-23 121 -123 121q-48 0 -82.5 -26t-34.5 -62q0 -19 13 -34.5t40.5 -28.5t48 -20.5t58.5 -18.5
l76 -23q100 -31 142 -55q129 -77 130 -236q0 -187 -154.5 -311.5t-396.5 -124.5z" />
    <glyph glyph-name="uni0162" unicode="&#x162;" horiz-adv-x="1314" 
d="M143 1262l60 335h1272l-60 -335q-101 0 -157.5 1.5t-150 11t-179.5 28.5q-19 -213 -52.5 -455.5t-62 -412.5t-76.5 -435h-82q-4 -5 -9.5 -10.5t-14 -12t-16 -12.5t-20 -14.5t-21.5 -14.5t-24.5 -16t-25 -16t-27 -17.5t-26.5 -17.5l16 -21q101 68 156 68q66 0 112 -45.5
t46 -126.5q0 -118 -99 -196t-251 -78q-99 0 -171 35.5t-106 99.5l127 133q57 -98 170 -98q49 0 79 22t30 59q0 28 -22.5 44t-59.5 16q-51 0 -90 -31l-89 74l146 176h-90q55 308 81 448t80 390t111 465q-94 -19 -191 -28.5t-154.5 -11t-158.5 -1.5z" />
    <glyph glyph-name="uni0163" unicode="&#x163;" horiz-adv-x="942" 
d="M985 1147l-55 -311q-69 0 -103.5 1t-99.5 8t-127 21q11 -130 2.5 -182t-24 -126t-15.5 -138q0 -73 25.5 -108.5t99.5 -35.5q59 0 150 31l-56 -303q-82 -39 -219 -39q-39 0 -57 2q-21 -15 -75 -50t-73 -48l17 -21q101 68 155 68q66 0 112 -45.5t46 -126.5q0 -118 -99 -196
t-251 -78q-99 0 -171 35.5t-106 99.5l127 133q57 -98 170 -98q49 0 79 22t30 59q0 28 -22.5 44t-59.5 16q-51 0 -90 -31l-88 74l145 176h2q-46 20 -78.5 49t-48 65t-23.5 68t-6 73.5t4.5 63.5t8.5 54q26 146 54 261t75 232q-57 -14 -111 -21t-81 -8t-80 -1l55 311
q149 0 260 -31q-6 49 -6.5 94t4.5 94.5t9 77t13 84.5h342q-36 -213 -102 -350q145 31 342 31z" />
    <glyph glyph-name="Tcaron" unicode="&#x164;" horiz-adv-x="1314" 
d="M1026 1720h-330l-227 375h317q24 -30 35 -50t20 -66t5 -111h82q18 64 44 111t44.5 67.5t50.5 48.5h317zM737 0h-362q55 308 81 448t80 390t111 465q-94 -19 -191 -28.5t-154.5 -11t-158.5 -1.5l60 335h1272l-60 -335q-101 0 -157.5 1.5t-150 11t-179.5 28.5
q-19 -213 -52.5 -455.5t-62 -412.5t-76.5 -435z" />
    <glyph glyph-name="tcaron" unicode="&#x165;" horiz-adv-x="942" 
d="M1270 1001h-195q2 3 22 28t24 30.5t23 28.5t26.5 31.5t26 29.5t30 32t30.5 30t35 32t36 29t40 31q-158 39 -158 153q0 92 75.5 165t172.5 73q74 0 123 -49t49 -121q0 -66 -50 -139.5t-225 -281.5q-54 -65 -85 -102zM563 -35q-68 0 -123.5 10.5t-93.5 27t-66 43t-44 51
t-25 59.5t-11.5 59.5t-0.5 60t4.5 53t7.5 44.5q26 146 54 261t75 232q-57 -14 -111 -21t-81 -8t-80 -1l55 311q149 0 260 -31q-6 49 -6.5 94t4.5 94.5t9 77t13 84.5h342q-36 -213 -102 -350q145 31 342 31l-55 -311q-69 0 -103.5 1t-99.5 8t-127 21q11 -130 2.5 -182
t-24 -126t-15.5 -138q0 -73 25.5 -108.5t99.5 -35.5q59 0 150 31l-56 -303q-82 -39 -219 -39z" />
    <glyph glyph-name="Tbar" unicode="&#x166;" horiz-adv-x="1314" 
d="M1475 1597l-60 -335q-101 0 -157.5 1.5t-150 11t-179.5 28.5q-8 -95 -39 -361h260l-51 -289h-250q-31 -209 -111 -653h-362q68 387 121 653h-250l51 289h262q54 236 88 361q-94 -19 -191 -28.5t-154.5 -11t-158.5 -1.5l60 335h1272z" />
    <glyph glyph-name="tbar" unicode="&#x167;" horiz-adv-x="942" 
d="M985 1147l-55 -311q-69 0 -103.5 1t-99.5 8t-127 21q11 -93 4 -168h297l-45 -252h-293v-26q0 -73 25.5 -108.5t99.5 -35.5q59 0 150 31l-56 -303q-82 -39 -219 -39q-68 0 -123.5 10.5t-93.5 27t-66 43t-44 51t-25 59.5t-11.5 59.5t-0.5 60t4.5 53t7.5 44.5l12 73h-221
l45 252h236q28 96 57 168q-57 -14 -111 -21t-81 -8t-80 -1l55 311q149 0 260 -31q-6 49 -6.5 94t4.5 94.5t9 77t13 84.5h342q-36 -213 -102 -350q145 31 342 31z" />
    <glyph glyph-name="Umacron" unicode="&#x16a;" horiz-adv-x="1519" 
d="M1358 1741h-783l46 250h782zM651 -35q-120 0 -212 26t-148.5 66t-93 100.5t-51.5 118t-16.5 130.5t4 125t16.5 114l167 952h363l-162 -921q-6 -33 -10 -59.5t-5.5 -67t3 -71t18 -64.5t37 -56t63 -36.5t91.5 -14.5q53 0 98.5 15.5t76 38t56 57.5t40 65t26.5 70.5t16.5 63
t10.5 53.5q1 4 1 6l162 921h363l-168 -952q-11 -62 -24 -114t-40.5 -125t-62.5 -130t-93 -118t-129 -101t-173.5 -66t-223.5 -26z" />
    <glyph glyph-name="umacron" unicode="&#x16b;" horiz-adv-x="1294" 
d="M1126 1300h-688l41 236h688zM420 -35q-202 0 -286.5 120t-45.5 343l127 719h342l-106 -604q-11 -48 -9 -93t13.5 -80t42.5 -56t80 -21q91 0 157 67.5t86 182.5l107 604h342l-140 -789q-23 -133 -27.5 -209t1.5 -149h-340q-1 30 -1 53t12.5 58.5t41.5 85.5h-41
q-63 -123 -146 -177.5t-210 -54.5z" />
    <glyph glyph-name="Uring" unicode="&#x16e;" horiz-adv-x="1519" 
d="M963 1708q-102 0 -168 62.5t-66 156.5q0 118 97.5 209.5t226.5 91.5q102 0 166.5 -60.5t64.5 -156.5q0 -120 -96 -211.5t-225 -91.5zM985 1864q49 0 86 37.5t37 83.5q0 36 -23.5 61t-60.5 25q-47 0 -83 -37t-36 -84q0 -37 21.5 -61.5t58.5 -24.5zM651 -35q-120 0 -212 26
t-148.5 66t-93 100.5t-51.5 118t-16.5 130.5t4 125t16.5 114l167 952h363l-162 -921q-6 -33 -10 -59.5t-5.5 -67t3 -71t18 -64.5t37 -56t63 -36.5t91.5 -14.5q53 0 98.5 15.5t76 38t56 57.5t40 65t26.5 70.5t16.5 63t10.5 53.5q1 4 1 6l162 921h363l-168 -952
q-11 -62 -24 -114t-40.5 -125t-62.5 -130t-93 -118t-129 -101t-173.5 -66t-223.5 -26z" />
    <glyph glyph-name="uring" unicode="&#x16f;" horiz-adv-x="1294" 
d="M776 1257q-102 0 -167.5 62.5t-65.5 157.5q0 118 97 209.5t226 91.5q102 0 167 -60.5t65 -156.5q0 -120 -96.5 -212t-225.5 -92zM799 1413q49 0 86 37.5t37 83.5q0 36 -23.5 61t-60.5 25q-47 0 -83 -37t-36 -84q0 -37 21.5 -61.5t58.5 -24.5zM420 -35q-202 0 -286.5 120
t-45.5 343l127 719h342l-106 -604q-11 -48 -9 -93t13.5 -80t42.5 -56t80 -21q91 0 157 67.5t86 182.5l107 604h342l-140 -789q-23 -133 -27.5 -209t1.5 -149h-340q-1 30 -1 53t12.5 58.5t41.5 85.5h-41q-63 -123 -146 -177.5t-210 -54.5z" />
    <glyph glyph-name="Uhungarumlaut" unicode="&#x170;" horiz-adv-x="1519" 
d="M1219 2093l-385 -373h-295l284 373h396zM1739 2093l-385 -373h-295l284 373h396zM651 -35q-120 0 -212 26t-148.5 66t-93 100.5t-51.5 118t-16.5 130.5t4 125t16.5 114l167 952h363l-162 -921q-6 -33 -10 -59.5t-5.5 -67t3 -71t18 -64.5t37 -56t63 -36.5t91.5 -14.5
q53 0 98.5 15.5t76 38t56 57.5t40 65t26.5 70.5t16.5 63t10.5 53.5q1 4 1 6l162 921h363l-168 -952q-11 -62 -24 -114t-40.5 -125t-62.5 -130t-93 -118t-129 -101t-173.5 -66t-223.5 -26z" />
    <glyph glyph-name="uhungarumlaut" unicode="&#x171;" horiz-adv-x="1294" 
d="M1006 1673l-402 -395h-287l304 395h385zM1528 1673l-402 -395h-286l303 395h385zM420 -35q-202 0 -286.5 120t-45.5 343l127 719h342l-106 -604q-11 -48 -9 -93t13.5 -80t42.5 -56t80 -21q91 0 157 67.5t86 182.5l107 604h342l-140 -789q-23 -133 -27.5 -209t1.5 -149
h-340q-1 30 -1 53t12.5 58.5t41.5 85.5h-41q-63 -123 -146 -177.5t-210 -54.5z" />
    <glyph glyph-name="Uogonek" unicode="&#x172;" horiz-adv-x="1519" 
d="M1040 676l162 921h363l-168 -952q-9 -50 -19 -93t-29.5 -102t-43.5 -108.5t-62 -104t-83.5 -97t-109.5 -80t-139 -60.5h-2q-37 -12 -78 -18q-57 -24 -83.5 -64t-26.5 -74q0 -37 28.5 -65.5t94.5 -28.5q58 0 92 10l-37 -204q-56 -19 -149 -19q-76 0 -138 20t-103.5 66
t-41.5 111q0 70 40.5 130t110.5 101q-113 3 -199.5 31t-139.5 69t-87 101t-48 117t-15 127.5t4.5 122.5t16.5 112l167 952h363l-162 -921q-6 -33 -10 -59.5t-5.5 -67t3 -71t18 -64.5t37 -56t63 -36.5t91.5 -14.5q53 0 98.5 15.5t76 38t56 57.5t40 65t26.5 70.5t16.5 63
t10.5 53.5q1 4 1 6z" />
    <glyph glyph-name="uogonek" unicode="&#x173;" horiz-adv-x="1294" 
d="M928 1147h342l-140 -789q-23 -133 -27.5 -209t1.5 -149h-123q-90 -14 -136 -61t-46 -97q0 -33 25 -55.5t75 -22.5q62 0 100 17l-41 -230q-55 -14 -122 -14q-128 0 -206.5 51t-78.5 150q0 88 60.5 160.5t158.5 101.5h-6q-1 30 -1 53t12.5 58.5t41.5 85.5h-41
q-63 -123 -146 -177.5t-210 -54.5q-202 0 -286.5 120t-45.5 343l127 719h342l-106 -604q-11 -48 -9 -93t13.5 -80t42.5 -56t80 -21q91 0 157 67.5t86 182.5z" />
    <glyph glyph-name="Wcircumflex" unicode="&#x174;" horiz-adv-x="2383" 
d="M1260 1720h-318l365 375h317l234 -375h-318q-22 29 -33.5 49t-20 67t-3.5 112h-82q-29 -93 -61.5 -141t-79.5 -87zM799 0h-459l-152 1597h418q16 -234 23.5 -395t8 -364.5t-10.5 -423.5h41q185 511 499 1183h414q27 -246 39.5 -376.5t26 -366.5t12.5 -461h41
q169 563 442 1204h418l-717 -1597h-452q-29 235 -42.5 360t-23.5 333t-4 423h-61q-103 -312 -211 -568t-250 -548z" />
    <glyph glyph-name="wcircumflex" unicode="&#x175;" horiz-adv-x="1937" 
d="M950 1278h-321l360 375h334l231 -375h-321q-25 39 -37 61.5t-24.5 63.5t-16.5 90h-49q-32 -69 -68.5 -116.5t-87.5 -98.5zM672 0h-406l-164 1147h392q12 -122 18 -189.5t12 -172.5t4 -203t-10 -205h62q53 142 117 289t107.5 237t119.5 244h295q22 -164 33 -256t21.5 -233
t12.5 -281h57q13 45 27.5 90.5t26 81.5t30.5 85t28.5 75t32.5 79.5t30 71t34 76t31 68t34 74.5t32 69h389l-568 -1147h-421q-35 334 -36 509q-1 80 3 155h-60q-92 -278 -284 -664z" />
    <glyph glyph-name="Ycircumflex" unicode="&#x176;" horiz-adv-x="1447" 
d="M791 1720h-318l365 375h317l234 -375h-318q-22 29 -33.5 49t-20 67t-3.5 112h-82q-29 -93 -61.5 -141t-79.5 -87zM805 0h-363q66 364 115 535q-154 394 -379 1062h389q55 -181 77 -258.5t54.5 -227t49.5 -296.5h40q101 212 205.5 387.5t249.5 394.5h389
q-15 -22 -129 -186t-157.5 -226t-137 -195t-171 -239.5t-156.5 -211.5q-13 -197 -76 -539z" />
    <glyph glyph-name="ycircumflex" unicode="&#x177;" horiz-adv-x="1228" 
d="M598 1278h-322l361 375h334l231 -375h-321q-25 39 -37 61.5t-24.5 63.5t-16.5 90h-49q-32 -69 -68.5 -116.5t-87.5 -98.5zM475 -451h-371l218 390l-224 1208h377q37 -220 57 -406.5t21 -425.5h41q59 163 130.5 326.5t114.5 251t128 254.5h366z" />
    <glyph glyph-name="Ydieresis" unicode="&#x178;" horiz-adv-x="1447" 
d="M680 1712q-73 0 -119.5 45.5t-46.5 116.5q0 93 71 162t165 69q72 0 117.5 -45t45.5 -114q0 -90 -69.5 -162t-163.5 -72zM1171 1712q-73 0 -119 45.5t-46 116.5q0 93 70.5 162t164.5 69q72 0 118 -45t46 -114q0 -89 -70 -161.5t-164 -72.5zM805 0h-363q66 364 115 535
q-154 394 -379 1062h389q55 -181 77 -258.5t54.5 -227t49.5 -296.5h40q101 212 205.5 387.5t249.5 394.5h389q-15 -22 -129 -186t-157.5 -226t-137 -195t-171 -239.5t-156.5 -211.5q-13 -197 -76 -539z" />
    <glyph glyph-name="Zacute" unicode="&#x179;" horiz-adv-x="1390" 
d="M1468 2095l-387 -375h-309l287 375h409zM1219 0h-1248l52 295q246 272 496 511.5t581 514.5l-15 41q-481 -100 -870 -100l59 335h1211l-53 -301q-244 -262 -493 -498.5t-579 -521.5l13 -40q481 100 905 100z" />
    <glyph glyph-name="zacute" unicode="&#x17a;" horiz-adv-x="1126" 
d="M1186 1653l-377 -375h-295l279 375h393zM967 0h-992l52 293q130 117 209 187t205.5 171.5t244.5 182.5l-14 40q-82 -19 -189.5 -28.5t-171 -10.5t-184.5 -1l55 313h948l-51 -293q-279 -249 -410 -354q-129 -103 -251 -187l12 -41q92 19 206 28.5t186.5 11t199.5 1.5z" />
    <glyph glyph-name="Zdotaccent" unicode="&#x17b;" horiz-adv-x="1390" 
d="M866 1743q-74 0 -121 47.5t-47 120.5q0 92 72.5 162.5t167.5 70.5q74 0 121 -46.5t47 -117.5q0 -93 -72.5 -165t-167.5 -72zM1219 0h-1248l52 295q246 272 496 511.5t581 514.5l-15 41q-481 -100 -870 -100l59 335h1211l-53 -301q-244 -262 -493 -498.5t-579 -521.5
l13 -40q481 100 905 100z" />
    <glyph glyph-name="zdotaccent" unicode="&#x17c;" horiz-adv-x="1126" 
d="M686 1278q-74 0 -121 47.5t-47 120.5q0 92 72.5 162.5t167.5 70.5q74 0 121 -46t47 -117q0 -93 -72.5 -165.5t-167.5 -72.5zM967 0h-992l52 293q130 117 209 187t205.5 171.5t244.5 182.5l-14 40q-82 -19 -189.5 -28.5t-171 -10.5t-184.5 -1l55 313h948l-51 -293
q-279 -249 -410 -354q-129 -103 -251 -187l12 -41q92 19 206 28.5t186.5 11t199.5 1.5z" />
    <glyph glyph-name="Zcaron" unicode="&#x17d;" horiz-adv-x="1390" 
d="M1077 1720h-329l-228 375h318q23 -30 34.5 -50t20 -66t4.5 -111h82q18 64 44 111t44.5 67.5t50.5 48.5h318zM1219 0h-1248l52 295q246 272 496 511.5t581 514.5l-15 41q-481 -100 -870 -100l59 335h1211l-53 -301q-244 -262 -493 -498.5t-579 -521.5l13 -40
q481 100 905 100z" />
    <glyph glyph-name="zcaron" unicode="&#x17e;" horiz-adv-x="1126" 
d="M856 1298h-334l-225 396h321q4 -10 22 -49t25 -58t16.5 -55.5t12.5 -73.5h49q16 37 36.5 71.5t34.5 53.5t44.5 57t42.5 54h322zM967 0h-992l52 293q130 117 209 187t205.5 171.5t244.5 182.5l-14 40q-82 -19 -189.5 -28.5t-171 -10.5t-184.5 -1l55 313h948l-51 -293
q-279 -249 -410 -354q-129 -103 -251 -187l12 -41q92 19 206 28.5t186.5 11t199.5 1.5z" />
    <glyph glyph-name="uni0218" unicode="&#x218;" horiz-adv-x="1345" 
d="M580 -35q-248 0 -395.5 128t-161.5 347l358 115q28 -260 254 -260q108 0 180 49.5t72 122.5q0 29 -13.5 53.5t-32.5 41t-50.5 32.5t-55.5 24.5t-61 20.5l-133 43q-50 16 -88.5 32t-90.5 48.5t-86 71t-58.5 99.5t-24.5 134q0 107 48.5 208.5t133 180t208.5 126.5t265 48
q117 0 213 -32.5t156 -86.5t94 -118t39 -131l-357 -136q-40 177 -205 177q-86 0 -145 -43t-59 -105q0 -61 58 -100t165 -74l164 -55q32 -11 53 -18.5t57 -25t60.5 -35t53.5 -46t47 -61t30 -78t12 -97.5q0 -112 -50.5 -219.5t-140 -192t-224 -136.5t-289.5 -52zM449 -696
h-185q60 82 114.5 140t135.5 112q-60 0 -99.5 37.5t-39.5 97.5q0 83 63.5 144t149.5 61q66 0 105.5 -40.5t39.5 -107.5q0 -20 -3 -37t-14.5 -40t-23 -41.5t-38 -55t-50 -66.5t-70 -91t-85.5 -113z" />
    <glyph glyph-name="uni0219" unicode="&#x219;" horiz-adv-x="1069" 
d="M430 -35q-198 0 -316 88t-130 236l335 102q33 -147 162 -147q57 0 91 24t34 62q0 11 -3.5 20.5t-7.5 16.5t-14 14t-15.5 11t-19 9.5t-18.5 7.5t-20.5 7t-18.5 6l-118 39q-33 11 -53.5 19t-62 33t-66.5 53t-45.5 76.5t-20.5 107.5q0 83 38 160.5t105 137.5t166 96t213 36
q175 0 280 -81.5t117 -211.5l-329 -103q-23 121 -123 121q-48 0 -82.5 -26t-34.5 -62q0 -19 13 -34.5t40.5 -28.5t48 -20.5t58.5 -18.5l76 -23q100 -31 142 -55q129 -77 130 -236q0 -187 -154.5 -311.5t-396.5 -124.5zM289 -696h-185q60 82 114.5 140t135.5 112
q-60 0 -99.5 37.5t-39.5 97.5q0 83 63.5 144t149.5 61q66 0 105.5 -40.5t39.5 -107.5q0 -20 -3 -37t-14.5 -40t-23 -41.5t-38 -55t-50 -66.5t-70 -91t-85.5 -113z" />
    <glyph glyph-name="uni021A" unicode="&#x21a;" horiz-adv-x="1314" 
d="M737 0h-362q55 308 81 448t80 390t111 465q-94 -19 -191 -28.5t-154.5 -11t-158.5 -1.5l60 335h1272l-60 -335q-101 0 -157.5 1.5t-150 11t-179.5 28.5q-19 -213 -52.5 -455.5t-62 -412.5t-76.5 -435zM414 -696h-185q60 82 114.5 140t135.5 112q-60 0 -99.5 37.5
t-39.5 97.5q0 83 63.5 144t149.5 61q66 0 105.5 -40.5t39.5 -107.5q0 -20 -3 -37t-14.5 -40t-23 -41.5t-38 -55t-50 -66.5t-70 -91t-85.5 -113z" />
    <glyph glyph-name="uni021B" unicode="&#x21b;" horiz-adv-x="942" 
d="M563 -35q-68 0 -123.5 10.5t-93.5 27t-66 43t-44 51t-25 59.5t-11.5 59.5t-0.5 60t4.5 53t7.5 44.5q26 146 54 261t75 232q-57 -14 -111 -21t-81 -8t-80 -1l55 311q149 0 260 -31q-6 49 -6.5 94t4.5 94.5t9 77t13 84.5h342q-36 -213 -102 -350q145 31 342 31l-55 -311
q-69 0 -103.5 1t-99.5 8t-127 21q11 -130 2.5 -182t-24 -126t-15.5 -138q0 -73 25.5 -108.5t99.5 -35.5q59 0 150 31l-56 -303q-82 -39 -219 -39zM301 -696h-184q60 82 114.5 140t135.5 112q-61 0 -100.5 38t-39.5 97q0 83 63.5 144t149.5 61q66 0 106 -40.5t40 -107.5
q0 -20 -3.5 -37t-14.5 -40t-22.5 -41.5t-38.5 -55t-50.5 -67t-69.5 -90.5t-86 -113z" />
    <glyph glyph-name="gravecomb" unicode="&#x300;" horiz-adv-x="0" 
d="M186 1278h-295l-245 375h393z" />
    <glyph glyph-name="acutecomb" unicode="&#x301;" horiz-adv-x="0" 
d="M293 1653l-377 -375h-295l279 375h393z" />
    <glyph glyph-name="uni0302" unicode="&#x302;" horiz-adv-x="0" 
d="M-395 1278h-322l361 375h333l232 -375h-322q-24 38 -36.5 61.5t-24.5 64t-16 89.5h-50q-32 -69 -68 -117t-87 -98z" />
    <glyph glyph-name="tildecomb" unicode="&#x303;" horiz-adv-x="0" 
d="M-80 1313q-79 0 -127 35l-57 41q-39 28 -70 28q-30 0 -49.5 -24.5t-26.5 -61.5h-241q27 156 124 250t220 94q73 0 143 -45l49 -33q24 -16 49 -16q23 0 39.5 21.5t22.5 58.5h242q-29 -170 -112 -259t-206 -89z" />
    <glyph glyph-name="uni0304" unicode="&#x304;" horiz-adv-x="0" 
d="M133 1280h-688l41 236h688z" />
    <glyph glyph-name="uni0306" unicode="&#x306;" horiz-adv-x="0" 
d="M-205 1264q-175 0 -262.5 109t-62.5 286h274q-4 -37 -0.5 -71.5t30 -59.5t70.5 -25q63 0 103.5 47.5t50.5 108.5h274q-39 -184 -172 -289.5t-305 -105.5z" />
    <glyph glyph-name="uni0307" unicode="&#x307;" horiz-adv-x="0" 
d="M-31 1257q-74 0 -121 47.5t-47 120.5q0 92 72.5 163t167.5 71q74 0 121 -46.5t47 -117.5q0 -93 -72.5 -165.5t-167.5 -72.5z" />
    <glyph glyph-name="uni0308" unicode="&#x308;" horiz-adv-x="0" 
d="M-489 1276q-67 0 -109.5 43t-42.5 108q0 84 65.5 148.5t151.5 64.5q67 0 110.5 -42.5t43.5 -106.5q0 -83 -66 -149t-153 -66zM-29 1276q-68 0 -110.5 43t-42.5 108q0 86 66 149.5t151 63.5q67 0 110 -42.5t43 -106.5q0 -81 -65.5 -148t-151.5 -67z" />
    <glyph glyph-name="uni030A" unicode="&#x30a;" horiz-adv-x="0" 
d="M-86 1257q-102 0 -167.5 62.5t-65.5 157.5q0 118 97 209.5t226 91.5q102 0 167 -60.5t65 -156.5q0 -120 -96.5 -212t-225.5 -92zM-63 1413q49 0 85.5 37t36.5 84q0 36 -23.5 61t-60.5 25q-47 0 -82.5 -36.5t-35.5 -84.5q0 -37 21.5 -61.5t58.5 -24.5z" />
    <glyph glyph-name="uni030B" unicode="&#x30b;" horiz-adv-x="0" 
d="M-207 1673l-401 -395h-287l303 395h385zM315 1673l-401 -395h-287l303 395h385z" />
    <glyph glyph-name="uni030C" unicode="&#x30c;" horiz-adv-x="0" 
d="M-88 1278h-334l-225 395h321q5 -11 22 -49t24.5 -57t17 -55.5t12.5 -73.5h49q16 37 36.5 71t35 53.5t44 56.5t42.5 54h322z" />
    <glyph glyph-name="uni0312" unicode="&#x312;" horiz-adv-x="0" 
d="M-178 1225q0 20 3 37t14.5 40.5t22.5 41.5t38.5 56t50 67t69.5 91t86 113h185q-119 -161 -236 -293q60 4 91.5 -26t31.5 -84q0 -80 -58.5 -134.5t-144.5 -54.5q-71 0 -112 39.5t-41 106.5z" />
    <glyph glyph-name="uni0326" unicode="&#x326;" horiz-adv-x="0" 
d="M-432 -696h-184q61 83 114.5 140.5t134.5 111.5q-60 0 -99.5 37.5t-39.5 97.5q0 83 63.5 144t149.5 61q66 0 106 -40.5t40 -107.5q0 -20 -3.5 -37t-14.5 -40t-22.5 -41.5t-38.5 -55t-50.5 -67t-69.5 -90.5t-86 -113z" />
    <glyph glyph-name="uni0327" unicode="&#x327;" horiz-adv-x="0" 
d="M-735 -530q-99 0 -171 35.5t-106 99.5l127 133q57 -98 170 -98q49 0 79 22t30 59q0 28 -22.5 44t-59.5 16q-51 0 -90 -31l-88 74l145 176h191q-5 -6 -13 -13t-20 -16.5t-23 -17t-29.5 -20t-30.5 -20t-34.5 -22.5t-34.5 -22l17 -21q101 68 155 68q66 0 112 -45.5
t46 -126.5q0 -118 -99 -196t-251 -78z" />
    <glyph glyph-name="uni0328" unicode="&#x328;" horiz-adv-x="0" 
d="M-711 -483q-128 0 -206 50.5t-78 149.5q0 88 60.5 161t158.5 102h211q-90 -14 -136.5 -61t-46.5 -97q0 -33 25.5 -55.5t75.5 -22.5q64 0 100 16l-41 -229q-55 -14 -123 -14z" />
    <glyph glyph-name="uni0335" unicode="&#x335;" horiz-adv-x="0" 
d="M-750 705h854l-45 -252h-854z" />
    <glyph glyph-name="uni0337" unicode="&#x337;" horiz-adv-x="0" 
d="M-492 383l52 293l755 481l-53 -293z" />
    <glyph glyph-name="uni0338" unicode="&#x338;" horiz-adv-x="0" 
d="M-975 -68h-287l1160 1248h278z" />
    <glyph glyph-name="Wgrave" unicode="&#x1e80;" horiz-adv-x="2383" 
d="M1581 1720h-309l-256 375h409zM799 0h-459l-152 1597h418q16 -234 23.5 -395t8 -364.5t-10.5 -423.5h41q185 511 499 1183h414q27 -246 39.5 -376.5t26 -366.5t12.5 -461h41q169 563 442 1204h418l-717 -1597h-452q-29 235 -42.5 360t-23.5 333t-4 423h-61
q-103 -312 -211 -568t-250 -548z" />
    <glyph glyph-name="wgrave" unicode="&#x1e81;" horiz-adv-x="1937" 
d="M1251 1278h-295l-245 375h393zM672 0h-406l-164 1147h392q12 -122 18 -189.5t12 -172.5t4 -203t-10 -205h62q53 142 117 289t107.5 237t119.5 244h295q22 -164 33 -256t21.5 -233t12.5 -281h57q13 45 27.5 90.5t26 81.5t30.5 85t28.5 75t32.5 79.5t30 71t34 76t31 68
t34 74.5t32 69h389l-568 -1147h-421q-35 334 -36 509q-1 80 3 155h-60q-92 -278 -284 -664z" />
    <glyph glyph-name="Wacute" unicode="&#x1e82;" horiz-adv-x="2383" 
d="M1952 2095l-387 -375h-310l287 375h410zM799 0h-459l-152 1597h418q16 -234 23.5 -395t8 -364.5t-10.5 -423.5h41q185 511 499 1183h414q27 -246 39.5 -376.5t26 -366.5t12.5 -461h41q169 563 442 1204h418l-717 -1597h-452q-29 235 -42.5 360t-23.5 333t-4 423h-61
q-103 -312 -211 -568t-250 -548z" />
    <glyph glyph-name="wacute" unicode="&#x1e83;" horiz-adv-x="1937" 
d="M1591 1653l-377 -375h-294l278 375h393zM672 0h-406l-164 1147h392q12 -122 18 -189.5t12 -172.5t4 -203t-10 -205h62q53 142 117 289t107.5 237t119.5 244h295q22 -164 33 -256t21.5 -233t12.5 -281h57q13 45 27.5 90.5t26 81.5t30.5 85t28.5 75t32.5 79.5t30 71t34 76
t31 68t34 74.5t32 69h389l-568 -1147h-421q-35 334 -36 509q-1 80 3 155h-60q-92 -278 -284 -664z" />
    <glyph glyph-name="Wdieresis" unicode="&#x1e84;" horiz-adv-x="2383" 
d="M1149 1712q-73 0 -119.5 45.5t-46.5 116.5q0 93 71 162t165 69q72 0 117.5 -45t45.5 -114q0 -90 -70 -162t-163 -72zM1640 1712q-73 0 -119 45.5t-46 116.5q0 93 70.5 162t164.5 69q72 0 118 -45t46 -114q0 -89 -70 -161.5t-164 -72.5zM799 0h-459l-152 1597h418
q16 -234 23.5 -395t8 -364.5t-10.5 -423.5h41q185 511 499 1183h414q27 -246 39.5 -376.5t26 -366.5t12.5 -461h41q169 563 442 1204h418l-717 -1597h-452q-29 235 -42.5 360t-23.5 333t-4 423h-61q-103 -312 -211 -568t-250 -548z" />
    <glyph glyph-name="wdieresis" unicode="&#x1e85;" horiz-adv-x="1937" 
d="M862 1276q-67 0 -109 43t-42 108q0 84 65.5 148.5t151.5 64.5q67 0 110 -42.5t43 -106.5q0 -83 -66 -149t-153 -66zM1323 1276q-68 0 -111 43t-43 108q0 86 66 149.5t151 63.5q67 0 110.5 -42.5t43.5 -106.5q0 -81 -65.5 -148t-151.5 -67zM672 0h-406l-164 1147h392
q12 -122 18 -189.5t12 -172.5t4 -203t-10 -205h62q53 142 117 289t107.5 237t119.5 244h295q22 -164 33 -256t21.5 -233t12.5 -281h57q13 45 27.5 90.5t26 81.5t30.5 85t28.5 75t32.5 79.5t30 71t34 76t31 68t34 74.5t32 69h389l-568 -1147h-421q-35 334 -36 509
q-1 80 3 155h-60q-92 -278 -284 -664z" />
    <glyph glyph-name="uni1E9E" unicode="&#x1e9e;" horiz-adv-x="1605" 
d="M393 0h-362l153 872q18 103 48.5 194.5t77.5 178t112.5 155.5t148.5 121.5t192 80.5t236 28q255 0 406 -109t151 -307q0 -158 -91.5 -268t-239.5 -123l-8 -41q138 0 224.5 -71t86.5 -209q0 -71 -23 -139.5t-75.5 -135t-129 -116.5t-191.5 -80.5t-255 -30.5h-195l60 332
h225q87 0 142 42.5t55 108.5q0 107 -160 107h-123l60 334h53q73 0 131.5 66.5t58.5 148.5q0 80 -62.5 119.5t-164.5 39.5q-159 0 -252 -95t-123 -267z" />
    <glyph glyph-name="Ygrave" unicode="&#x1ef2;" horiz-adv-x="1447" 
d="M1112 1720h-309l-256 375h409zM805 0h-363q66 364 115 535q-154 394 -379 1062h389q55 -181 77 -258.5t54.5 -227t49.5 -296.5h40q101 212 205.5 387.5t249.5 394.5h389q-15 -22 -129 -186t-157.5 -226t-137 -195t-171 -239.5t-156.5 -211.5q-13 -197 -76 -539z" />
    <glyph glyph-name="ygrave" unicode="&#x1ef3;" horiz-adv-x="1228" 
d="M899 1278h-295l-246 375h394zM475 -451h-371l218 390l-224 1208h377q37 -220 57 -406.5t21 -425.5h41q59 163 130.5 326.5t114.5 251t128 254.5h366z" />
    <glyph glyph-name="uni2000" unicode="&#x2000;" horiz-adv-x="1024" 
 />
    <glyph glyph-name="uni2001" unicode="&#x2001;" 
 />
    <glyph glyph-name="uni2002" unicode="&#x2002;" horiz-adv-x="1024" 
 />
    <glyph glyph-name="uni2003" unicode="&#x2003;" 
 />
    <glyph glyph-name="uni2004" unicode="&#x2004;" horiz-adv-x="681" 
 />
    <glyph glyph-name="uni2005" unicode="&#x2005;" horiz-adv-x="512" 
 />
    <glyph glyph-name="uni2006" unicode="&#x2006;" horiz-adv-x="342" 
 />
    <glyph glyph-name="uni2007" unicode="&#x2007;" horiz-adv-x="473" 
 />
    <glyph glyph-name="uni2008" unicode="&#x2008;" horiz-adv-x="559" 
 />
    <glyph glyph-name="uni2009" unicode="&#x2009;" horiz-adv-x="256" 
 />
    <glyph glyph-name="uni200A" unicode="&#x200a;" horiz-adv-x="86" 
 />
    <glyph glyph-name="uni200B" unicode="&#x200b;" horiz-adv-x="0" 
 />
    <glyph glyph-name="endash" unicode="&#x2013;" horiz-adv-x="1011" 
d="M874 479h-770l52 289h770z" />
    <glyph glyph-name="emdash" unicode="&#x2014;" horiz-adv-x="1433" 
d="M1305 494h-1201l46 258h1200z" />
    <glyph glyph-name="quoteleft" unicode="&#x2018;" horiz-adv-x="567" 
d="M512 1638h186q-101 -134 -144 -179q-54 -57 -116 -101q61 -6 98 -54.5t37 -113.5q0 -98 -76 -171t-173 -73q-74 0 -123 48.5t-49 125.5q0 16 3 31t7 29.5t14.5 33.5t19.5 34.5t29.5 42t36.5 47t47 58t55.5 66.5t68.5 81.5t79 94.5z" />
    <glyph glyph-name="quoteright" unicode="&#x2019;" horiz-adv-x="579" 
d="M336 981h-195q102 129 157 184q63 65 136 117q-158 39 -158 154q0 92 75.5 164.5t172.5 72.5q74 0 123 -48.5t49 -121.5q0 -65 -51 -140t-219 -275q-57 -68 -90 -107z" />
    <glyph glyph-name="quotesinglbase" unicode="&#x201a;" horiz-adv-x="565" 
d="M78 -291h-187q102 134 146 181q54 56 115 100q-61 6 -98.5 54.5t-37.5 113.5q0 98 76.5 170.5t173.5 72.5q74 0 123 -48.5t49 -125.5q0 -16 -3 -31t-7 -29.5t-14.5 -33.5t-19.5 -34.5t-29.5 -42t-36.5 -47t-47 -58t-55.5 -66.5t-68.5 -81.5t-79 -94.5z" />
    <glyph glyph-name="quotedblleft" unicode="&#x201c;" horiz-adv-x="1056" 
d="M512 1638h186q-101 -134 -144 -179q-54 -57 -116 -101q61 -6 98 -54.5t37 -113.5q0 -98 -76 -171t-173 -73q-74 0 -123 48.5t-49 125.5q0 16 3 31t7 29.5t14.5 33.5t19.5 34.5t29.5 42t36.5 47t47 58t55.5 66.5t68.5 81.5t79 94.5zM1001 1638h187q-101 -134 -144 -179
q-54 -57 -116 -101q61 -6 98 -54.5t37 -113.5q0 -98 -76.5 -171t-173.5 -73q-74 0 -123 48.5t-49 125.5q0 16 3 31t7 29.5t14.5 33.5t19.5 34.5t29.5 42t36.5 47t47 58t55.5 66.5t68.5 81.5t79 94.5z" />
    <glyph glyph-name="quotedblright" unicode="&#x201d;" horiz-adv-x="1069" 
d="M334 981h-187q102 134 146 181q54 57 115 100q-61 6 -98.5 54.5t-37.5 113.5q0 98 76.5 170.5t173.5 72.5q74 0 123 -48.5t49 -125.5q0 -16 -3 -31t-7 -29.5t-14.5 -33.5t-19.5 -34.5t-29.5 -42t-36.5 -47t-47 -58t-55.5 -66.5t-68.5 -81.5t-79 -94.5zM825 981h-186
q4 6 26.5 35.5t28 36.5t24.5 32t27 33.5t26 29t29.5 31.5t29 27.5t34.5 29.5t35 26q-61 6 -98 54.5t-37 113.5q0 98 76.5 170.5t173.5 72.5q74 0 123 -48.5t49 -125.5q0 -18 -2.5 -33.5t-11 -35t-16.5 -35t-27.5 -43t-35 -48t-48.5 -61t-58.5 -70.5t-74.5 -88t-87 -104z" />
    <glyph glyph-name="quotedblbase" unicode="&#x201e;" horiz-adv-x="1058" 
d="M84 -260h-186q101 134 144 179q54 57 116 101q-61 6 -98 54.5t-37 113.5q0 98 76 171t173 73q74 0 123 -48.5t49 -125.5q0 -16 -3 -31t-7 -29.5t-14.5 -33.5t-19.5 -34.5t-29.5 -42t-36.5 -47t-47 -58t-55.5 -66.5t-68.5 -81.5t-79 -94.5zM575 -260h-186q101 134 144 179
q54 57 116 101q-61 6 -98 54.5t-37 113.5q0 98 76.5 171t173.5 73q74 0 123 -48.5t49 -125.5q0 -18 -2.5 -33.5t-11 -35t-16.5 -35t-27.5 -43t-35 -48t-48.5 -61t-58.5 -70.5t-74.5 -88t-87 -104z" />
    <glyph glyph-name="dagger" unicode="&#x2020;" horiz-adv-x="1034" 
d="M616 428h-276q29 160 44.5 240t49 213.5t74.5 257.5q-68 -19 -134 -28.5t-103 -11t-101 -1.5l43 245q67 0 101.5 -1t98 -10.5t124.5 -28.5q-17 145 18 335h276q-12 -65 -20.5 -103.5t-29.5 -103.5t-50 -128q71 19 142.5 28.5t109.5 10.5t111 1l-43 -245q-70 0 -110 1.5
t-107.5 11t-131.5 28.5q-9 -294 -86 -711z" />
    <glyph glyph-name="daggerdbl" unicode="&#x2021;" horiz-adv-x="1067" 
d="M1096 1343l-43 -245q-63 0 -99 1.5t-98.5 11t-122.5 28.5q15 -83 4 -146.5t-55 -146.5q67 19 132.5 28.5t102 11t99.5 1.5l-43 -246q-64 0 -100 1.5t-98 11t-122 28.5q6 -49 7 -93.5t-4.5 -93.5t-8.5 -71t-12 -78h-277q16 98 36 169.5t65 166.5q-68 -19 -134 -28.5
t-103 -11t-101 -1.5l43 246q64 0 100.5 -1.5t99 -11t123.5 -28.5q-16 78 -4.5 144.5t56.5 148.5q-68 -19 -134 -28.5t-103 -11t-101 -1.5l43 245q66 0 100.5 -1t98.5 -10.5t124 -28.5q-15 147 19 335h276q-10 -62 -18.5 -101.5t-29.5 -104t-52 -129.5q66 19 133 28.5
t101.5 10.5t99.5 1z" />
    <glyph glyph-name="bullet" unicode="&#x2022;" horiz-adv-x="968" 
d="M463 446q-127 0 -209 83.5t-82 211.5q0 105 58 199.5t154.5 151.5t203.5 57q125 0 207 -82.5t82 -204.5q0 -103 -57.5 -199.5t-154 -156.5t-202.5 -60z" />
    <glyph glyph-name="ellipsis" unicode="&#x2026;" horiz-adv-x="1656" 
d="M188 -14q-75 0 -123.5 49.5t-48.5 124.5q0 95 74.5 168t171.5 73q74 0 123 -48.5t49 -121.5q0 -93 -75 -169t-171 -76zM737 -14q-75 0 -123.5 49.5t-48.5 124.5q0 95 74.5 168t171.5 73q75 0 123.5 -48.5t48.5 -121.5q0 -93 -75 -169t-171 -76zM1286 -14
q-75 0 -123.5 49.5t-48.5 124.5q0 95 74.5 168t171.5 73q74 0 123 -48.5t49 -121.5q0 -93 -75 -169t-171 -76z" />
    <glyph glyph-name="uni202F" unicode="&#x202f;" horiz-adv-x="352" 
 />
    <glyph glyph-name="perthousand" unicode="&#x2030;" horiz-adv-x="2840" 
d="M403 688q-129 0 -199.5 87.5t-70.5 244.5q0 144 57 267t157.5 196t219.5 73q131 0 202 -88t71 -243q0 -143 -57.5 -266.5t-158.5 -197t-221 -73.5zM510 0h-317l1396 1468h309zM449 942q40 0 72 98.5t32 188.5q0 76 -31 76q-39 0 -71.5 -97.5t-32.5 -189.5q0 -76 31 -76z
M1565 -29q-130 0 -200.5 88t-70.5 244q0 144 57.5 267.5t158 196.5t219.5 73q131 0 201.5 -88t70.5 -244q0 -143 -57 -266.5t-158 -197t-221 -73.5zM2341 -29q-129 0 -199.5 87.5t-70.5 244.5q0 144 57 267.5t157.5 196.5t219.5 73q131 0 201.5 -88t70.5 -244
q0 -143 -57 -266.5t-158 -197t-221 -73.5zM1610 225q40 0 72 98.5t32 188.5q0 76 -31 76q-39 0 -71.5 -97t-32.5 -190q0 -76 31 -76zM2386 225q40 0 72 98.5t32 188.5q0 76 -30 76q-39 0 -72 -97.5t-33 -189.5q0 -76 31 -76z" />
    <glyph glyph-name="guilsinglleft" unicode="&#x2039;" horiz-adv-x="827" 
d="M651 164h-350l-221 405l2 9l364 405h351q-65 -70 -99 -105t-94.5 -90t-121 -95.5t-130.5 -74.5l-16 -90q47 -27 89 -62t70.5 -66t60 -77.5t48.5 -76t47 -82.5z" />
    <glyph glyph-name="guilsinglright" unicode="&#x203a;" horiz-adv-x="823" 
d="M381 164h-350q63 69 96.5 103.5t92.5 89.5t120.5 96t132.5 75l16 90q-46 28 -87 63t-70.5 67t-60 76.5t-49.5 77t-46 81.5h350l222 -405l-3 -9z" />
    <glyph glyph-name="fraction" unicode="&#x2044;" horiz-adv-x="512" 
d="M-266 0h-318l1397 1468h309z" />
    <glyph glyph-name="uni205F" unicode="&#x205f;" horiz-adv-x="454" 
 />
    <glyph glyph-name="uni2070" unicode="&#x2070;" horiz-adv-x="776" 
d="M403 688q-129 0 -199.5 87.5t-70.5 244.5q0 144 57 267t157.5 196t219.5 73q131 0 202 -88t71 -243q0 -143 -57.5 -266.5t-158.5 -197t-221 -73.5zM449 942q40 0 72 98.5t32 188.5q0 76 -31 76q-39 0 -71.5 -97.5t-32.5 -189.5q0 -76 31 -76z" />
    <glyph glyph-name="uni2074" unicode="&#x2074;" horiz-adv-x="790" 
d="M680 707h-260l24 135h-364l37 207l458 491h252l-84 -475h93l-39 -223h-92zM508 1198l-133 -133h108z" />
    <glyph glyph-name="uni2075" unicode="&#x2075;" horiz-adv-x="765" 
d="M377 688q-50 0 -95 9t-89.5 29t-75 59.5t-39.5 93.5l260 120q23 -79 88 -79q41 0 64.5 26.5t23.5 65.5q0 32 -16.5 48.5t-44.5 16.5q-29 0 -53 -17.5t-31 -35.5l-219 47l186 469h506l-39 -217h-311l-48 -100h5q60 45 151 45q39 0 73.5 -10t65.5 -32.5t49.5 -65
t18.5 -101.5q0 -157 -122 -264t-308 -107z" />
    <glyph glyph-name="uni2076" unicode="&#x2076;" horiz-adv-x="794" 
d="M418 688q-138 0 -216.5 73.5t-78.5 223.5q0 105 39.5 207.5t107.5 183t167 130.5t210 50q81 0 151 -26.5t103 -83.5l-170 -178q-46 61 -129 61q-106 0 -172 -115h4q52 39 154 39q105 0 172 -57.5t67 -161.5q0 -143 -119 -244.5t-290 -101.5zM477 913q39 0 67.5 29.5
t28.5 69.5q0 29 -18 46t-49 17q-41 0 -69.5 -27.5t-28.5 -68.5q0 -30 18.5 -48t50.5 -18z" />
    <glyph glyph-name="uni2077" unicode="&#x2077;" horiz-adv-x="630" 
d="M451 707h-293q78 416 258 602h-264l38 223h588l-39 -223q-48 -35 -88 -81t-68.5 -99.5t-49.5 -104t-37 -112t-25.5 -104.5t-19.5 -101z" />
    <glyph glyph-name="uni2078" unicode="&#x2078;" horiz-adv-x="776" 
d="M403 688q-142 0 -222.5 60.5t-80.5 158.5q0 81 54 152.5t116 85.5v2q-63 53 -63 131q0 112 102.5 195t247.5 83q114 0 191 -56t77 -163q0 -128 -120 -190v-2q42 -14 73 -56t31 -106q0 -124 -117 -209.5t-289 -85.5zM506 1243q29 0 49 22.5t20 53.5q0 19 -12 31t-35 12
q-29 0 -50 -20.5t-21 -49.5q0 -21 14 -35t35 -14zM451 926q34 0 59 25.5t25 60.5q0 27 -16 42t-42 15q-35 0 -60.5 -26t-25.5 -60q0 -25 17 -41t43 -16z" />
    <glyph glyph-name="uni2079" unicode="&#x2079;" horiz-adv-x="796" 
d="M356 688q-84 0 -160 27.5t-106 81.5l166 178q25 -31 68 -49.5t84 -18.5q103 0 153 133h-4q-57 -39 -158 -39q-104 0 -170.5 53.5t-66.5 157.5q0 143 119.5 243.5t293.5 100.5q289 0 289 -305q0 -151 -66 -280t-183.5 -206t-258.5 -77zM485 1184q41 0 70 27t29 67
q0 29 -19 47t-51 18q-40 0 -68 -28.5t-28 -69.5q0 -28 17.5 -44.5t49.5 -16.5z" />
    <glyph glyph-name="uni2080" unicode="&#x2080;" horiz-adv-x="776" 
d="M231 -285q-129 0 -199.5 87.5t-70.5 244.5q0 144 57 267.5t157.5 196.5t219.5 73q131 0 202 -88.5t71 -243.5q0 -143 -57.5 -266.5t-158.5 -197t-221 -73.5zM276 -31q40 0 72.5 98.5t32.5 188.5q0 76 -31 76q-39 0 -71.5 -97t-32.5 -190q0 -76 30 -76z" />
    <glyph glyph-name="uni2081" unicode="&#x2081;" horiz-adv-x="567" 
d="M332 -266h-273l78 440q-1 0 -18 -10.5t-20 -12t-19 -10.5t-22 -12t-21 -10t-25.5 -10.5t-25 -8t-29.5 -8.5l51 293q85 32 138.5 81t62.5 101h270z" />
    <glyph glyph-name="uni2082" unicode="&#x2082;" horiz-adv-x="761" 
d="M551 -266h-629l6 37q17 100 46.5 166t96 129.5t183.5 128.5l28 15q27 16 36 22t27.5 20.5t26 27.5t7.5 27q0 33 -45 33q-40 0 -69.5 -30.5t-41.5 -88.5l-243 37q27 149 142 237.5t265 88.5q125 0 203 -63.5t78 -172.5q0 -84 -48 -154t-131 -110q-121 -55 -153 -98h260z
" />
    <glyph glyph-name="uni2083" unicode="&#x2083;" horiz-adv-x="761" 
d="M213 -287q-130 0 -216 55t-95 138l260 121q26 -86 92 -86q35 0 55.5 18.5t20.5 48.5q0 50 -68 49h-4h-80l33 185h78q33 0 62.5 17t29.5 48q0 20 -13.5 33.5t-37.5 13.5q-33 0 -57 -23.5t-35 -64.5l-240 58q29 107 137.5 183.5t255.5 76.5q118 0 195.5 -51.5t77.5 -139.5
q0 -71 -46 -134t-106 -73v-2q46 -9 78.5 -52.5t32.5 -100.5q0 -55 -30 -111t-81.5 -102.5t-130.5 -75.5t-168 -29z" />
    <glyph glyph-name="uni2084" unicode="&#x2084;" horiz-adv-x="790" 
d="M508 -266h-260l24 135h-364l37 207l458 491h252l-84 -475h93l-39 -223h-93zM336 225l-133 -133h108z" />
    <glyph glyph-name="uni2085" unicode="&#x2085;" horiz-adv-x="765" 
d="M205 -285q-50 0 -95 9t-89.5 29t-75 59.5t-39.5 93.5l260 121q23 -80 88 -80q41 0 64.5 26.5t23.5 65.5q0 32 -16.5 48.5t-44.5 16.5q-29 0 -53 -17.5t-31 -35.5l-220 47l187 469h506l-39 -217h-312l-47 -100h4q60 45 152 45q39 0 73.5 -10t65.5 -32.5t49.5 -65
t18.5 -101.5q0 -157 -122 -264t-308 -107z" />
    <glyph glyph-name="uni2086" unicode="&#x2086;" horiz-adv-x="794" 
d="M246 -285q-138 0 -216.5 73.5t-78.5 223.5q0 105 39.5 208t107.5 183.5t167 130.5t210 50q81 0 151 -27t103 -84l-170 -178q-46 61 -129 61q-107 0 -172 -114h4q52 39 154 39q105 0 172 -58t67 -162q0 -143 -119 -244.5t-290 -101.5zM305 -59q40 0 68 29t28 69
q0 29 -18 46t-49 17q-41 0 -69.5 -27.5t-28.5 -68.5q0 -30 18.5 -47.5t50.5 -17.5z" />
    <glyph glyph-name="uni2087" unicode="&#x2087;" horiz-adv-x="630" 
d="M279 -266h-293q78 416 258 602h-264l38 223h588l-39 -223q-48 -35 -88 -81t-68.5 -99.5t-49.5 -104t-37 -112t-25.5 -104.5t-19.5 -101z" />
    <glyph glyph-name="uni2088" unicode="&#x2088;" horiz-adv-x="776" 
d="M231 -285q-142 0 -222.5 60.5t-80.5 158.5q0 81 54 152.5t116 85.5v2q-63 53 -63 131q0 112 103 195.5t247 83.5q114 0 191 -56t77 -163q0 -129 -121 -191v-2q42 -14 73.5 -56t31.5 -106q0 -124 -117 -209.5t-289 -85.5zM334 270q29 0 49 22.5t20 53.5q0 19 -12 31
t-35 12q-29 0 -50 -20.5t-21 -49.5q0 -21 14 -35t35 -14zM279 -47q34 0 58.5 25.5t24.5 60.5q0 27 -16 42t-41 15q-35 0 -60.5 -26t-25.5 -60q0 -25 17 -41t43 -16z" />
    <glyph glyph-name="uni2089" unicode="&#x2089;" horiz-adv-x="796" 
d="M184 -285q-84 0 -160 27.5t-106 81.5l166 178q25 -31 68 -49.5t84 -18.5q102 0 153 134h-4q-57 -39 -158 -39q-104 0 -170.5 53.5t-66.5 157.5q0 143 119.5 243.5t293.5 100.5q289 0 289 -305q0 -151 -66 -280.5t-183.5 -206.5t-258.5 -77zM313 211q41 0 70 27t29 67
q0 30 -19 48t-51 18q-40 0 -68 -29t-28 -70q0 -28 17.5 -44.5t49.5 -16.5z" />
    <glyph glyph-name="Euro" unicode="&#x20ac;" horiz-adv-x="1716" 
d="M991 -35q-184 0 -324.5 70t-218 204.5t-73.5 313.5q-121 -21 -293 -21l29 160q157 0 249 -41q3 147 43 256q-104 -41 -262 -41l27 160q175 0 281 -20q92 285 320 454.5t538 169.5q352 0 495 -200l-293 -252q-103 110 -278 110q-140 0 -257.5 -67.5t-219.5 -214.5
q207 20 534 20l-26 -160q-116 0 -181 1.5t-171.5 11t-204.5 28.5q0 -113 -41 -256q103 19 212.5 28.5t174.5 11t180 1.5l-29 -160q-309 0 -516 21q32 -67 63 -109.5t65 -70.5t84 -42t104.5 -19t140.5 -5q41 0 79 14t199 89l158 -242q-126 -105 -285 -154t-303 -49z" />
    <glyph glyph-name="trademark" unicode="&#x2122;" horiz-adv-x="1634" 
d="M494 903h-177l97 547h-197l29 166h571l-29 -166h-198zM961 903h-181l125 713h185l124 -461q35 58 138 223t147 238h184l-124 -713h-181l64 363q-37 -61 -114 -183t-111 -180h-95q-12 47 -46 169.5t-52 193.5z" />
    <glyph glyph-name="oneeighth" unicode="&#x215b;" horiz-adv-x="1855" 
d="M504 707h-273l78 440q-1 0 -18 -10.5t-20 -12t-19 -10.5t-22 -12t-21 -10t-25.5 -10.5t-25 -8t-29.5 -8.5l51 293q85 32 138.5 81t62.5 101h270zM301 0h-317l1396 1468h310zM1356 -29q-142 0 -222.5 60.5t-80.5 158.5q0 81 54 152.5t116 85.5v2q-64 54 -64 131
q0 112 103 195.5t247 83.5q114 0 191.5 -56t77.5 -163q0 -129 -121 -191v-2q42 -14 73 -56t31 -106q0 -124 -116.5 -209.5t-288.5 -85.5zM1458 526q29 0 49.5 22.5t20.5 53.5q0 19 -12 31t-35 12q-29 0 -50.5 -20.5t-21.5 -49.5q0 -21 14 -35t35 -14zM1403 209q34 0 59 25.5
t25 60.5q0 27 -16 42t-41 15q-35 0 -61 -26t-26 -60q0 -25 17 -41t43 -16z" />
    <glyph glyph-name="threeeighths" unicode="&#x215c;" horiz-adv-x="2050" 
d="M385 686q-130 0 -216 55t-95 138l260 120q26 -86 92 -86q35 0 55.5 19t20.5 49q0 50 -68 49h-4h-80l33 184h78q33 0 62.5 17.5t29.5 48.5q0 20 -13.5 33.5t-37.5 13.5q-33 0 -57 -23.5t-35 -64.5l-240 57q29 107 137.5 183.5t255.5 76.5q118 0 195.5 -51t77.5 -139
q0 -71 -46 -134t-106 -73v-2q46 -9 78.5 -52.5t32.5 -100.5q0 -55 -30 -111t-81.5 -102.5t-130.5 -75.5t-168 -29zM496 0h-318l1397 1468h309zM1550 -29q-142 0 -222.5 60.5t-80.5 158.5q0 81 54 152.5t116 85.5v2q-63 53 -63 131q0 112 103 195.5t247 83.5q114 0 191 -56
t77 -163q0 -129 -121 -191v-2q42 -14 73.5 -56t31.5 -106q0 -124 -117 -209.5t-289 -85.5zM1653 526q29 0 49 22.5t20 53.5q0 19 -12 31t-35 12q-29 0 -50 -20.5t-21 -49.5q0 -21 14 -35t35 -14zM1597 209q34 0 59 25.5t25 60.5q0 27 -16 42t-41 15q-35 0 -60.5 -26
t-25.5 -60q0 -25 16.5 -41t42.5 -16z" />
    <glyph glyph-name="fiveeighths" unicode="&#x215d;" horiz-adv-x="2054" 
d="M377 688q-50 0 -95 9t-89.5 29t-75 59.5t-39.5 93.5l260 120q23 -79 88 -79q41 0 64.5 26.5t23.5 65.5q0 32 -16.5 48.5t-44.5 16.5q-29 0 -53 -17.5t-31 -35.5l-219 47l186 469h506l-39 -217h-311l-48 -100h5q60 45 151 45q39 0 73.5 -10t65.5 -32.5t49.5 -65
t18.5 -101.5q0 -157 -122 -264t-308 -107zM500 0h-318l1397 1468h309zM1554 -29q-142 0 -222.5 60.5t-80.5 158.5q0 81 54 152.5t116 85.5v2q-63 53 -63 131q0 112 103 195.5t247 83.5q114 0 191 -56t77 -163q0 -129 -121 -191v-2q42 -14 73.5 -56t31.5 -106
q0 -124 -117 -209.5t-289 -85.5zM1657 526q29 0 49 22.5t20 53.5q0 19 -12 31t-35 12q-29 0 -50 -20.5t-21 -49.5q0 -21 14 -35t35 -14zM1602 209q34 0 59 25.5t25 60.5q0 27 -16 42t-42 15q-35 0 -60.5 -26t-25.5 -60q0 -25 17 -41t43 -16z" />
    <glyph glyph-name="seveneighths" unicode="&#x215e;" horiz-adv-x="1918" 
d="M451 707h-293q78 416 258 602h-264l38 223h588l-39 -223q-48 -35 -88 -81t-68.5 -99.5t-49.5 -104t-37 -112t-25.5 -104.5t-19.5 -101zM365 0h-318l1397 1468h309zM1419 -29q-142 0 -222.5 60.5t-80.5 158.5q0 81 54 152.5t116 85.5v2q-63 53 -63 131q0 112 103 195.5
t247 83.5q114 0 191 -56t77 -163q0 -129 -121 -191v-2q42 -14 73.5 -56t31.5 -106q0 -124 -117 -209.5t-289 -85.5zM1522 526q29 0 49 22.5t20 53.5q0 19 -12 31t-35 12q-29 0 -50 -20.5t-21 -49.5q0 -21 14 -35t35 -14zM1466 209q34 0 59 25.5t25 60.5q0 27 -16 42t-41 15
q-35 0 -60.5 -26t-25.5 -60q0 -25 16.5 -41t42.5 -16z" />
    <glyph glyph-name="arrowleft" unicode="&#x2190;" horiz-adv-x="1363" 
d="M672 236h-307l-269 405l2 8l412 406h307q-63 -62 -99.5 -95.5t-117 -97t-174.5 -125.5q158 19 327 28.5t270 11t280 1.5l-48 -266q-180 0 -281 1.5t-267 11t-318 28.5q107 -91 166.5 -161t116.5 -156z" />
    <glyph glyph-name="arrowup" unicode="&#x2191;" horiz-adv-x="991" 
d="M532 20h-266q31 173 49 269.5t59 271.5t87 328q-111 -117 -194 -189t-183 -145l53 307l467 340h8l344 -340l-53 -307q-52 52 -81 83.5t-78.5 100t-98.5 154.5q-8 -158 -29 -330.5t-35.5 -258.5t-48.5 -284z" />
    <glyph glyph-name="arrowright" unicode="&#x2192;" horiz-adv-x="1366" 
d="M883 236h-308q65 62 102 96t118 96.5t176 124.5q-159 -19 -328.5 -28.5t-271 -11t-281.5 -1.5l47 266q179 0 279.5 -1.5t265.5 -11t315 -28.5q-69 58 -124.5 118.5t-77 90t-63.5 93.5q-7 11 -11 16h307l268 -406l-2 -8z" />
    <glyph glyph-name="arrowdown" unicode="&#x2193;" horiz-adv-x="993" 
d="M406 20h-9l-346 340l53 308q50 -48 83 -83t81.5 -101t96.5 -150q7 149 26 313t37 276t47 279h266q-35 -196 -51 -283t-56.5 -261t-86.5 -328q79 85 153 153t115 101t109 84l-54 -308z" />
    <glyph glyph-name="arrowboth" unicode="&#x2194;" horiz-adv-x="1722" 
d="M664 236h-308l-268 405l2 8l412 406h307q-187 -180 -348 -330q438 59 854 0q-159 223 -230 330h308l268 -406l-2 -8l-412 -405h-307q232 221 346 329q-436 -59 -854 0q22 -31 70 -96.5t81.5 -113.5t80.5 -119z" />
    <glyph glyph-name="arrowupdn" unicode="&#x2195;" horiz-adv-x="1052" 
d="M432 14h-8l-352 299l47 271q170 -132 278 -230q3 353 123 699q-74 -54 -132.5 -94.5t-136.5 -92t-93 -61.5l51 282l457 299h8l354 -299l-51 -282q-155 135 -272 250q-6 -360 -125 -703q151 104 358 232l-47 -271z" />
    <glyph glyph-name="uni2196" unicode="&#x2196;" horiz-adv-x="1226" 
d="M1100 174l-232 -133q-132 158 -185 222.5t-157.5 204.5t-189.5 273q0 -100 -8.5 -183t-18.5 -127.5t-28 -111.5l-199 240l127 465l6 4l576 -59l198 -240q-83 9 -138 17t-151 29t-202 54q89 -84 172 -168.5t170.5 -184t128.5 -147t131 -155.5z" />
    <glyph glyph-name="uni2197" unicode="&#x2197;" horiz-adv-x="1112" 
d="M246 41l-232 133q90 108 131 155.5t128.5 147t170.5 184t172 168.5q-106 -33 -202 -54t-151 -29t-138 -17l199 240l575 59l6 -4l127 -465l-198 -240q-19 68 -28.5 111.5t-18.5 127t-9 183.5q-85 -133 -189.5 -273t-157.5 -204.5t-185 -222.5z" />
    <glyph glyph-name="uni2198" unicode="&#x2198;" horiz-adv-x="1232" 
d="M143 1047l232 133q127 -153 183.5 -221.5t159.5 -207.5t189 -272q0 100 9 183.5t18.5 127t28.5 111.5l198 -239l-127 -465l-6 -4l-575 59l-199 240q123 -13 230.5 -33.5t260.5 -67.5q-116 109 -241.5 243.5t-182 201t-178.5 211.5z" />
    <glyph glyph-name="uni2199" unicode="&#x2199;" horiz-adv-x="1112" 
d="M881 1180l231 -133q-122 -145 -178.5 -211.5t-182 -201t-241.5 -243.5q153 47 260.5 67.5t230.5 33.5l-198 -240l-576 -59l-6 4l-127 465l199 239q18 -67 28 -111.5t18.5 -127.5t8.5 -183q81 126 175 253.5t157 205t170 205.5q7 8 11 12.5t9.5 11.5t10.5 13z" />
    <glyph glyph-name="emptyset" unicode="&#x2205;" horiz-adv-x="1454" 
d="M1239 1309l180 -129l-162 -183q101 -125 101 -313q0 -138 -55 -268t-150.5 -230t-235 -160.5t-296.5 -60.5q-137 0 -242 45l-164 -186l-174 133l162 182q-105 127 -105 320q0 139 56 270t152.5 230.5t235.5 160t294 60.5q138 0 247 -47zM457 518q0 -42 12 -80l360 410
q-32 4 -51 4q-132 0 -226.5 -101.5t-94.5 -232.5zM999 627q0 42 -8 69l-356 -399q28 -4 45 -4q132 0 225.5 101t93.5 233z" />
    <glyph glyph-name="minus" unicode="&#x2212;" horiz-adv-x="1097" 
d="M975 500h-877l45 256h877z" />
    <glyph glyph-name="infinity" unicode="&#x221e;" horiz-adv-x="1757" 
d="M434 283q-162 0 -248 76t-86 204q0 88 42.5 166t109 129t146 80t155.5 29q86 0 163.5 -44t194.5 -159q167 119 258.5 161t176.5 42q153 0 240 -78t87 -207q0 -77 -33 -149.5t-90.5 -127.5t-142.5 -88.5t-182 -33.5t-173 42t-188 160q-142 -117 -232 -159.5t-198 -42.5z
M487 496q46 0 93.5 27t146.5 102q-74 80 -109 105.5t-86 25.5q-68 0 -120 -46t-52 -106q0 -49 37 -78.5t90 -29.5zM1251 498q64 0 113 44t49 103q0 47 -34.5 77t-88.5 30q-45 0 -95 -26.5t-144 -100.5q63 -66 107 -96.5t93 -30.5z" />
    <glyph glyph-name="approxequal" unicode="&#x2248;" horiz-adv-x="1163" 
d="M383 641h-262q29 168 130 270.5t230 102.5q49 0 93 -16.5t71 -36t61.5 -36t65.5 -16.5q80 0 96 99h262q-31 -179 -120.5 -278t-223.5 -99q-56 0 -104.5 18t-76 39t-60 39t-60.5 18q-41 0 -68 -32t-34 -72zM299 168h-262q31 169 130.5 271t229.5 102q50 0 94 -16.5
t70.5 -36t60.5 -36t66 -16.5q79 0 98 99h263q-33 -180 -122.5 -278.5t-224.5 -98.5q-56 0 -105 18t-76.5 39t-59.5 39t-58 18q-41 0 -69 -32t-35 -72z" />
    <glyph glyph-name="notequal" unicode="&#x2260;" horiz-adv-x="1138" 
d="M1090 963l-48 -256h-331q-10 -106 -107 -203h404l-45 -256h-496q2 -56 -55 -164h-232q46 98 117 164h-234l46 256h335q-6 97 97 203h-398l47 256h488q-6 50 43 139h231q-49 -92 -104 -139h242z" />
    <glyph glyph-name="lessequal" unicode="&#x2264;" horiz-adv-x="1062" 
d="M881 219h-826l39 215h412l-377 164l45 262l848 166l-41 -233l-553 -105l494 -242z" />
    <glyph glyph-name="greaterequal" unicode="&#x2265;" horiz-adv-x="1062" 
d="M883 219h-826l41 227l576 242l-516 105l41 233l790 -166l-45 -262l-434 -164h412z" />
    <glyph glyph-name="lozenge" unicode="&#x25ca;" horiz-adv-x="1126" 
d="M508 0h-90l-309 694l555 692h90l309 -692zM381 694l143 -336h4l263 336l-144 334h-4z" />
    <glyph glyph-name="A.ss01" horiz-adv-x="1597" 
d="M268 0h-377l854 1597h469l289 -1597h-387q-9 44 -13 66t-11 68.5t-9 79.5t-2.5 77t4.5 84l-20 26q-157 -26 -307 -26q-148 0 -295 26l-33 -26q-35 -148 -162 -375zM610 678l17 -21q112 23 186 23q75 0 178 -23l21 21q-31 106 -44.5 185t-10.5 195.5t30 262.5h-123
q-25 -146 -63.5 -263t-81 -198t-109.5 -182z" />
    <glyph glyph-name="Aacute.ss01" horiz-adv-x="1597" 
d="M1552 2095l-387 -375h-309l287 375h409zM268 0h-377l854 1597h469l289 -1597h-387q-9 44 -13 66t-11 68.5t-9 79.5t-2.5 77t4.5 84l-20 26q-157 -26 -307 -26q-148 0 -295 26l-33 -26q-35 -148 -162 -375zM610 678l17 -21q112 23 186 23q75 0 178 -23l21 21
q-31 106 -44.5 185t-10.5 195.5t30 262.5h-123q-25 -146 -63.5 -263t-81 -198t-109.5 -182z" />
    <glyph glyph-name="Abreve.ss01" horiz-adv-x="1597" 
d="M995 1712q-175 0 -273 106.5t-71 274.5h289q-9 -62 12.5 -103.5t83.5 -41.5q61 0 99 40.5t51 104.5h289q-33 -169 -168.5 -275t-311.5 -106zM268 0h-377l854 1597h469l289 -1597h-387q-9 44 -13 66t-11 68.5t-9 79.5t-2.5 77t4.5 84l-20 26q-157 -26 -307 -26
q-148 0 -295 26l-33 -26q-35 -148 -162 -375zM610 678l17 -21q112 23 186 23q75 0 178 -23l21 21q-31 106 -44.5 185t-10.5 195.5t30 262.5h-123q-25 -146 -63.5 -263t-81 -198t-109.5 -182z" />
    <glyph glyph-name="Acircumflex.ss01" horiz-adv-x="1597" 
d="M860 1720h-317l364 375h318l233 -375h-317q-23 29 -34 49t-20 67t-4 112h-82q-29 -93 -61.5 -141t-79.5 -87zM268 0h-377l854 1597h469l289 -1597h-387q-9 44 -13 66t-11 68.5t-9 79.5t-2.5 77t4.5 84l-20 26q-157 -26 -307 -26q-148 0 -295 26l-33 -26
q-35 -148 -162 -375zM610 678l17 -21q112 23 186 23q75 0 178 -23l21 21q-31 106 -44.5 185t-10.5 195.5t30 262.5h-123q-25 -146 -63.5 -263t-81 -198t-109.5 -182z" />
    <glyph glyph-name="Adieresis.ss01" horiz-adv-x="1597" 
d="M750 1712q-73 0 -119.5 45.5t-46.5 116.5q0 93 70.5 162t164.5 69q72 0 118 -45t46 -114q0 -90 -69.5 -162t-163.5 -72zM1241 1712q-73 0 -119.5 45.5t-46.5 116.5q0 93 71 162t165 69q72 0 118 -45t46 -114q0 -89 -70 -161.5t-164 -72.5zM268 0h-377l854 1597h469
l289 -1597h-387q-9 44 -13 66t-11 68.5t-9 79.5t-2.5 77t4.5 84l-20 26q-157 -26 -307 -26q-148 0 -295 26l-33 -26q-35 -148 -162 -375zM610 678l17 -21q112 23 186 23q75 0 178 -23l21 21q-31 106 -44.5 185t-10.5 195.5t30 262.5h-123q-25 -146 -63.5 -263t-81 -198
t-109.5 -182z" />
    <glyph glyph-name="Agrave.ss01" horiz-adv-x="1597" 
d="M1182 1720h-310l-256 375h410zM268 0h-377l854 1597h469l289 -1597h-387q-9 44 -13 66t-11 68.5t-9 79.5t-2.5 77t4.5 84l-20 26q-157 -26 -307 -26q-148 0 -295 26l-33 -26q-35 -148 -162 -375zM610 678l17 -21q112 23 186 23q75 0 178 -23l21 21q-31 106 -44.5 185
t-10.5 195.5t30 262.5h-123q-25 -146 -63.5 -263t-81 -198t-109.5 -182z" />
    <glyph glyph-name="Amacron.ss01" horiz-adv-x="1597" 
d="M1391 1741h-783l45 250h783zM268 0h-377l854 1597h469l289 -1597h-387q-9 44 -13 66t-11 68.5t-9 79.5t-2.5 77t4.5 84l-20 26q-157 -26 -307 -26q-148 0 -295 26l-33 -26q-35 -148 -162 -375zM610 678l17 -21q112 23 186 23q75 0 178 -23l21 21q-31 106 -44.5 185
t-10.5 195.5t30 262.5h-123q-25 -146 -63.5 -263t-81 -198t-109.5 -182z" />
    <glyph glyph-name="Aogonek.ss01" horiz-adv-x="1597" 
d="M1165 -156q0 -37 28.5 -65.5t94.5 -28.5q58 0 92 10l-37 -204q-56 -19 -149 -19q-76 0 -138 20t-103.5 66t-41.5 111q0 86 62 157t160 109h-17q-9 44 -13 66t-11 68.5t-9 79.5t-2.5 77t4.5 84l-20 26q-157 -26 -307 -26q-148 0 -295 26l-33 -26q-35 -148 -162 -375h-377
l854 1597h469l289 -1597h-147q-100 -11 -145.5 -60t-45.5 -96zM991 657l21 21q-31 106 -44.5 185t-10.5 195.5t30 262.5h-123q-25 -146 -63.5 -263t-81 -198t-109.5 -182l17 -21q112 23 186 23q75 0 178 -23z" />
    <glyph glyph-name="Aring.ss01" horiz-adv-x="1597" 
d="M995 1708q-102 0 -167.5 62.5t-65.5 156.5q0 118 97 209.5t226 91.5q102 0 167 -60.5t65 -156.5q0 -119 -96.5 -211t-225.5 -92zM1018 1864q49 0 86 37.5t37 83.5q0 36 -23.5 61t-60.5 25q-47 0 -83 -37t-36 -84q0 -37 21.5 -61.5t58.5 -24.5zM268 0h-377l854 1597h469
l289 -1597h-387q-9 44 -13 66t-11 68.5t-9 79.5t-2.5 77t4.5 84l-20 26q-157 -26 -307 -26q-148 0 -295 26l-33 -26q-35 -148 -162 -375zM610 678l17 -21q112 23 186 23q75 0 178 -23l21 21q-31 106 -44.5 185t-10.5 195.5t30 262.5h-123q-25 -146 -63.5 -263t-81 -198
t-109.5 -182z" />
    <glyph glyph-name="Atilde.ss01" horiz-adv-x="1597" 
d="M1153 1722q-79 0 -127 35l-57 41q-41 29 -70 29q-30 0 -49.5 -24.5t-26.5 -61.5h-241q27 156 124 250t220 94q73 0 143 -45l49 -33q24 -16 49 -16q23 0 39.5 21.5t22.5 58.5h241q-29 -170 -111.5 -259.5t-205.5 -89.5zM268 0h-377l854 1597h469l289 -1597h-387
q-9 44 -13 66t-11 68.5t-9 79.5t-2.5 77t4.5 84l-20 26q-157 -26 -307 -26q-148 0 -295 26l-33 -26q-35 -148 -162 -375zM610 678l17 -21q112 23 186 23q75 0 178 -23l21 21q-31 106 -44.5 185t-10.5 195.5t30 262.5h-123q-25 -146 -63.5 -263t-81 -198t-109.5 -182z" />
    <glyph glyph-name="B.ss01" horiz-adv-x="1460" 
d="M725 0h-674l283 1597h704q199 0 306.5 -91t107.5 -249q0 -154 -100.5 -265.5t-274.5 -149.5l-6 -41q160 -31 234.5 -94t74.5 -197q0 -222 -182 -366t-473 -144zM541 924l32 -21q47 28 92 42.5t70.5 17t65.5 2.5q115 0 183.5 43.5t68.5 126.5q0 41 -17 68t-47.5 39t-58 16
t-62.5 4q-10 0 -37 -0.5t-38.5 -0.5t-35 3t-38.5 8.5t-36.5 17t-41.5 27.5l-45 -21q15 -95 3 -178.5t-58 -193.5zM426 319l33 -40q104 57 229 57q155 0 231 46.5t76 131.5q0 36 -14.5 62t-35 40t-51 22.5t-56 10.5t-56.5 2q-47 0 -75.5 2.5t-74.5 17t-89 42.5l-43 -21
q6 -112 -11 -199.5t-63 -173.5z" />
    <glyph glyph-name="C.ss01" horiz-adv-x="1689" 
d="M797 -35q-210 0 -368.5 80t-246.5 234t-88 364q0 194 76.5 375t206 315.5t311 215.5t381.5 81q269 0 440 -140.5t217 -373.5l-360 -135q-79 307 -358 307q-114 0 -215.5 -52.5t-170 -137.5t-108 -193t-39.5 -219q0 -84 23 -150.5t60 -108.5t87.5 -69.5t102.5 -39
t108 -11.5q162 0 292 93.5t212 256.5l317 -114q-78 -154 -180.5 -268.5t-217.5 -180.5t-234.5 -97.5t-247.5 -31.5z" />
    <glyph glyph-name="D.ss01" horiz-adv-x="1619" 
d="M707 0h-656l283 1597h637q165 0 288 -44t198.5 -126.5t112 -193t36.5 -250.5q0 -150 -41 -294.5t-120 -268.5t-186.5 -218.5t-250 -148t-301.5 -53.5zM426 319l33 -40q100 42 122 49.5t46 7.5q155 0 270.5 40.5t185 115.5t103 173.5t33.5 221.5q0 61 -8.5 111.5t-21.5 87
t-35.5 65.5t-42.5 47t-50.5 31t-52 19t-55.5 9.5t-51 4t-48 0.5q-95 0 -129.5 8.5t-83.5 46.5l-45 -21q28 -515 -170 -977z" />
    <glyph glyph-name="E.ss01" horiz-adv-x="1320" 
d="M1130 0h-1079l283 1597h1059l-60 -335q-143 0 -223.5 2t-213.5 14.5t-255 38.5l-45 -21q17 -95 5 -175t-60 -195l20 -21q127 37 259 56t209 21.5t214 2.5l-63 -354q-103 0 -160 1.5t-147.5 8.5t-173 25.5t-167.5 48.5l-32 -21q5 -125 -11 -207.5t-63 -167.5l33 -40
q133 27 274 40t224.5 15t232.5 2z" />
    <glyph glyph-name="F.ss01" horiz-adv-x="1265" 
d="M414 0h-363l283 1597h1042l-59 -335q-142 0 -221 2t-208 14.5t-247 38.5l-45 -21q19 -105 1.5 -197t-81.5 -216l21 -21q132 38 265 57.5t209 22t208 2.5l-62 -354q-137 0 -213 2.5t-200 22t-236 57.5l-33 -21q4 -173 -12 -319t-49 -332z" />
    <glyph glyph-name="G.ss01" horiz-adv-x="1726" 
d="M795 -35q-331 0 -517 174.5t-186 485.5q0 195 75.5 378.5t204 321.5t311 221.5t384.5 83.5q274 0 447 -143t215 -371l-363 -135q-78 307 -354 307q-114 0 -215 -51.5t-170.5 -135.5t-109.5 -191.5t-40 -219.5q0 -190 111 -286.5t293 -96.5q133 0 264.5 63.5t288.5 231.5
l-33 41q-98 -41 -187 -61.5t-140.5 -24t-153.5 -6.5l53 295h735l-20 -111q-66 -357 -299 -563.5t-594 -206.5z" />
    <glyph glyph-name="H.ss01" horiz-adv-x="1662" 
d="M414 0h-363l283 1597h362q-61 -328 -101 -485q-25 -94 -54 -188l32 -21q181 58 328.5 58.5t306.5 -58.5l41 21q11 289 82 673h363l-283 -1597h-362q22 127 37 205t44.5 197.5t69.5 244.5l-39 21q-171 -58 -319 -57.5t-307 57.5l-43 -21q-5 -122 -17.5 -242.5t-24.5 -196
t-36 -208.5z" />
    <glyph glyph-name="I.ss01" horiz-adv-x="1220" 
d="M1032 0h-1046l59 336q76 0 119 -1.5t115 -11t141 -28.5q34 513 178 1008q-77 -19 -154.5 -28.5t-122 -11t-122.5 -1.5l59 335h1067l-59 -335q-78 0 -122.5 1.5t-119 11t-145.5 28.5q-28 -496 -179 -1008q77 19 153 28.5t119.5 11t119.5 1.5z" />
    <glyph glyph-name="Iacute.ss01" horiz-adv-x="1220" 
d="M1247 2095l-387 -375h-309l287 375h409zM1032 0h-1046l59 336q76 0 119 -1.5t115 -11t141 -28.5q34 513 178 1008q-77 -19 -154.5 -28.5t-122 -11t-122.5 -1.5l59 335h1067l-59 -335q-78 0 -122.5 1.5t-119 11t-145.5 28.5q-28 -496 -179 -1008q77 19 153 28.5t119.5 11
t119.5 1.5z" />
    <glyph glyph-name="Icircumflex.ss01" horiz-adv-x="1220" 
d="M678 1720h-318l365 375h317l234 -375h-318q-22 29 -33.5 49t-20 67t-3.5 112h-82q-29 -93 -61.5 -141t-79.5 -87zM1032 0h-1046l59 336q76 0 119 -1.5t115 -11t141 -28.5q34 513 178 1008q-77 -19 -154.5 -28.5t-122 -11t-122.5 -1.5l59 335h1067l-59 -335
q-78 0 -122.5 1.5t-119 11t-145.5 28.5q-28 -496 -179 -1008q77 19 153 28.5t119.5 11t119.5 1.5z" />
    <glyph glyph-name="Idieresis.ss01" horiz-adv-x="1220" 
d="M567 1712q-73 0 -119.5 45.5t-46.5 116.5q0 93 71 162t165 69q72 0 118 -45t46 -114q0 -89 -70 -161.5t-164 -72.5zM1059 1712q-73 0 -119.5 45.5t-46.5 116.5q0 93 70.5 162t164.5 69q72 0 118 -45t46 -114q0 -90 -70 -162t-163 -72zM1032 0h-1046l59 336q76 0 119 -1.5
t115 -11t141 -28.5q34 513 178 1008q-77 -19 -154.5 -28.5t-122 -11t-122.5 -1.5l59 335h1067l-59 -335q-78 0 -122.5 1.5t-119 11t-145.5 28.5q-28 -496 -179 -1008q77 19 153 28.5t119.5 11t119.5 1.5z" />
    <glyph glyph-name="Idotaccent.ss01" horiz-adv-x="1220" 
d="M817 1743q-74 0 -121 47.5t-47 120.5q0 92 72.5 162.5t167.5 70.5q74 0 121 -46.5t47 -117.5q0 -93 -72.5 -165t-167.5 -72zM1032 0h-1046l59 336q76 0 119 -1.5t115 -11t141 -28.5q34 513 178 1008q-77 -19 -154.5 -28.5t-122 -11t-122.5 -1.5l59 335h1067l-59 -335
q-78 0 -122.5 1.5t-119 11t-145.5 28.5q-28 -496 -179 -1008q77 19 153 28.5t119.5 11t119.5 1.5z" />
    <glyph glyph-name="Igrave.ss01" horiz-adv-x="1220" 
d="M999 1720h-309l-256 375h410zM1032 0h-1046l59 336q76 0 119 -1.5t115 -11t141 -28.5q34 513 178 1008q-77 -19 -154.5 -28.5t-122 -11t-122.5 -1.5l59 335h1067l-59 -335q-78 0 -122.5 1.5t-119 11t-145.5 28.5q-28 -496 -179 -1008q77 19 153 28.5t119.5 11t119.5 1.5z
" />
    <glyph glyph-name="Imacron.ss01" horiz-adv-x="1220" 
d="M1208 1741h-782l45 250h782zM1032 0h-1046l59 336q76 0 119 -1.5t115 -11t141 -28.5q34 513 178 1008q-77 -19 -154.5 -28.5t-122 -11t-122.5 -1.5l59 335h1067l-59 -335q-78 0 -122.5 1.5t-119 11t-145.5 28.5q-28 -496 -179 -1008q77 19 153 28.5t119.5 11t119.5 1.5z
" />
    <glyph glyph-name="J.ss01" horiz-adv-x="1325" 
d="M537 -35q-271 0 -413 150t-97 413l10 60l371 49l-11 -55q-23 -120 22.5 -197.5t158.5 -77.5q53 0 94.5 19t66 44.5t44.5 67.5t28 72t18 74q124 584 181 753l-15 39q-180 -61 -321.5 -87.5t-282.5 -26.5l60 335h919l-170 -962q-10 -57 -18 -95t-32 -114.5t-52.5 -130.5
t-80.5 -121t-115.5 -109t-158 -71t-206.5 -29z" />
    <glyph glyph-name="K.ss01" horiz-adv-x="1511" 
d="M414 0h-363l283 1597h362q-5 -29 -22 -125.5t-27.5 -151.5t-34.5 -146.5t-53 -174.5h41q254 259 647 598h482l-969 -784l-8 -41q127 -116 235 -234t262.5 -306t192.5 -232h-502q-11 14 -52.5 64t-56.5 68t-51.5 65.5t-54 75t-47.5 76t-48.5 88.5t-40.5 93.5t-40 108.5
h-41q-38 -325 -94 -639z" />
    <glyph glyph-name="L.ss01" horiz-adv-x="1193" 
d="M1073 0h-1022l283 1597h362q-53 -296 -80 -441t-80.5 -389.5t-109.5 -447.5l33 -40q119 27 248.5 40t208 15t217.5 2z" />
    <glyph glyph-name="M.ss01" horiz-adv-x="2052" 
d="M420 0h-369l283 1597h436q41 -114 58.5 -164.5t52.5 -161t54.5 -188t42 -188.5t36.5 -221h61q66 136 135.5 260.5t153 251.5t135 201t148.5 210h436l-283 -1597h-368q9 51 37 218t44 253t49.5 234.5t71.5 283.5h-41l-508 -743h-233l-246 743h-41q-9 -136 -28.5 -285.5
t-32.5 -230t-45 -256t-39 -217.5z" />
    <glyph glyph-name="N.ss01" horiz-adv-x="1662" 
d="M414 0h-363l283 1597h375q93 -193 141 -297t129.5 -311t148.5 -424h62q45 497 141 1032h363l-283 -1597h-375q-102 213 -145.5 307.5t-125.5 302t-149 424.5h-61q-20 -223 -47.5 -432.5t-42.5 -301t-51 -300.5z" />
    <glyph glyph-name="O.ss01" horiz-adv-x="1757" 
d="M772 -35q-197 0 -351 81.5t-241.5 235.5t-87.5 357q0 189 77 370t206 317.5t310.5 220t377.5 83.5q198 0 353 -83t242 -237.5t87 -357.5q0 -190 -77.5 -370.5t-207.5 -316t-311 -218t-377 -82.5zM834 307q142 0 264 84.5t191 220.5t69 287q0 173 -94 281t-256 108
q-107 0 -206 -50.5t-170 -132.5t-113 -190.5t-42 -220.5q0 -177 98.5 -282t258.5 -105z" />
    <glyph glyph-name="P.ss01" horiz-adv-x="1390" 
d="M414 0h-363l283 1597h637q30 0 53.5 -1t77.5 -9t94.5 -22t92 -45t85 -73t57 -110t23.5 -153q0 -94 -26.5 -183.5t-83 -170.5t-137.5 -141.5t-198.5 -96t-256.5 -35.5q-152 0 -267 82q-3 -124 -15.5 -250.5t-23.5 -197t-32 -191.5zM518 829l35 -18q90 80 201 80
q65 0 118 10.5t98.5 34.5t71 67.5t25.5 104.5q0 32 -8 57t-19 41t-31.5 27t-36 16.5t-43 8.5t-42.5 3.5t-43 0.5q-43 0 -67.5 2t-64 14.5t-71.5 38.5l-45 -21q12 -125 -6 -230t-72 -237z" />
    <glyph glyph-name="Q.ss01" horiz-adv-x="1757" 
d="M526 -180l-8 -41q146 36 273.5 58t252 31t206.5 11t220 2l-55 -311h-1538q266 266 516 493q-142 86 -221.5 232.5t-79.5 335.5q0 159 50.5 310.5t142 274.5t212 217t267.5 145.5t301 51.5q197 0 351.5 -83t241.5 -235.5t87 -350.5q0 -197 -79 -381t-210.5 -318.5
t-311 -215.5t-372.5 -81h-29q-84 -62 -217 -145zM1008 1288q-105 0 -202.5 -49t-169 -130t-114.5 -192t-43 -229q0 -171 98 -276t257 -105q139 0 260 82t192.5 219.5t71.5 294.5q0 170 -94 277.5t-256 107.5z" />
    <glyph glyph-name="R.ss01" horiz-adv-x="1441" 
d="M414 0h-363l283 1597h637q27 0 49.5 -1t75.5 -9.5t94.5 -23.5t93 -47.5t86 -76.5t58.5 -115.5t24 -160.5q0 -82 -20 -153.5t-52.5 -124t-80.5 -97.5t-96 -75t-107.5 -55.5t-107 -40t-101.5 -27.5q34 -41 72 -90.5t67.5 -89t75 -102.5t69.5 -96.5t77 -108.5t73 -103h-418
q-86 120 -140.5 201.5t-127 212t-123.5 258.5h-20q-6 -141 -20.5 -277t-25 -203t-32.5 -192zM514 807l35 -19q55 37 105.5 48.5t111.5 11.5q125 2 212 75t87 177q0 53 -24 89t-62 51.5t-68.5 21.5t-60.5 6q-42 0 -65.5 1.5t-64 13t-79.5 34.5l-45 -21q25 -232 -82 -489z" />
    <glyph glyph-name="S.ss01" horiz-adv-x="1345" 
d="M580 -35q-248 0 -395.5 128t-161.5 347l358 115q28 -260 254 -260q108 0 180 49.5t72 122.5q0 29 -13.5 53.5t-32.5 41t-50.5 32.5t-55.5 24.5t-61 20.5l-133 43q-50 16 -88.5 32t-90.5 48.5t-86 71t-58.5 99.5t-24.5 134q0 107 48.5 208.5t133 180t208.5 126.5t265 48
q117 0 213 -32.5t156 -86.5t94 -118t39 -131l-357 -136q-40 177 -205 177q-86 0 -145 -43t-59 -105q0 -61 58 -100t165 -74l164 -55q32 -11 53 -18.5t57 -25t60.5 -35t53.5 -46t47 -61t30 -78t12 -97.5q0 -112 -50.5 -219.5t-140 -192t-224 -136.5t-289.5 -52z" />
    <glyph glyph-name="U.ss01" horiz-adv-x="1533" 
d="M557 -35q-106 0 -186 33t-125 83t-72 119.5t-35 132t-6.5 132t6.5 107.5t10 69q1 3 1 4l167 952h363l-162 -921q-63 -369 180 -369q70 0 128.5 31.5t94.5 75t63 99t39 94t17 69.5l162 921h363l-283 -1597h-342q0 2 3.5 19.5t5.5 25.5t8.5 31t14 45.5t21 59.5t31.5 81h-41
q-70 -150 -167.5 -223.5t-258.5 -73.5z" />
    <glyph glyph-name="Uacute.ss01" horiz-adv-x="1533" 
d="M1384 2095l-387 -375h-309l287 375h409zM557 -35q-106 0 -186 33t-125 83t-72 119.5t-35 132t-6.5 132t6.5 107.5t10 69q1 3 1 4l167 952h363l-162 -921q-63 -369 180 -369q70 0 128.5 31.5t94.5 75t63 99t39 94t17 69.5l162 921h363l-283 -1597h-342q0 2 3.5 19.5
t5.5 25.5t8.5 31t14 45.5t21 59.5t31.5 81h-41q-70 -150 -167.5 -223.5t-258.5 -73.5z" />
    <glyph glyph-name="Ucircumflex.ss01" horiz-adv-x="1533" 
d="M815 1720h-317l364 375h318l233 -375h-317q-23 29 -34 49t-20 67t-4 112h-82q-29 -93 -61.5 -141t-79.5 -87zM557 -35q-106 0 -186 33t-125 83t-72 119.5t-35 132t-6.5 132t6.5 107.5t10 69q1 3 1 4l167 952h363l-162 -921q-63 -369 180 -369q70 0 128.5 31.5t94.5 75
t63 99t39 94t17 69.5l162 921h363l-283 -1597h-342q0 2 3.5 19.5t5.5 25.5t8.5 31t14 45.5t21 59.5t31.5 81h-41q-70 -150 -167.5 -223.5t-258.5 -73.5z" />
    <glyph glyph-name="Udieresis.ss01" horiz-adv-x="1533" 
d="M705 1712q-73 0 -119.5 45.5t-46.5 116.5q0 93 70.5 162t164.5 69q72 0 118 -45t46 -114q0 -90 -70 -162t-163 -72zM1196 1712q-73 0 -119.5 45.5t-46.5 116.5q0 93 71 162t165 69q72 0 118 -45t46 -114q0 -89 -70 -161.5t-164 -72.5zM557 -35q-106 0 -186 33t-125 83
t-72 119.5t-35 132t-6.5 132t6.5 107.5t10 69q1 3 1 4l167 952h363l-162 -921q-63 -369 180 -369q70 0 128.5 31.5t94.5 75t63 99t39 94t17 69.5l162 921h363l-283 -1597h-342q0 2 3.5 19.5t5.5 25.5t8.5 31t14 45.5t21 59.5t31.5 81h-41q-70 -150 -167.5 -223.5
t-258.5 -73.5z" />
    <glyph glyph-name="Ugrave.ss01" horiz-adv-x="1533" 
d="M1137 1720h-310l-256 375h410zM557 -35q-106 0 -186 33t-125 83t-72 119.5t-35 132t-6.5 132t6.5 107.5t10 69q1 3 1 4l167 952h363l-162 -921q-63 -369 180 -369q70 0 128.5 31.5t94.5 75t63 99t39 94t17 69.5l162 921h363l-283 -1597h-342q0 2 3.5 19.5t5.5 25.5
t8.5 31t14 45.5t21 59.5t31.5 81h-41q-70 -150 -167.5 -223.5t-258.5 -73.5z" />
    <glyph glyph-name="Uhungarumlaut.ss01" horiz-adv-x="1533" 
d="M1206 2093l-385 -373h-295l285 373h395zM1726 2093l-385 -373h-294l284 373h395zM557 -35q-106 0 -186 33t-125 83t-72 119.5t-35 132t-6.5 132t6.5 107.5t10 69q1 3 1 4l167 952h363l-162 -921q-63 -369 180 -369q70 0 128.5 31.5t94.5 75t63 99t39 94t17 69.5l162 921
h363l-283 -1597h-342q0 2 3.5 19.5t5.5 25.5t8.5 31t14 45.5t21 59.5t31.5 81h-41q-70 -150 -167.5 -223.5t-258.5 -73.5z" />
    <glyph glyph-name="Umacron.ss01" horiz-adv-x="1533" 
d="M1346 1741h-783l45 250h783zM557 -35q-106 0 -186 33t-125 83t-72 119.5t-35 132t-6.5 132t6.5 107.5t10 69q1 3 1 4l167 952h363l-162 -921q-63 -369 180 -369q70 0 128.5 31.5t94.5 75t63 99t39 94t17 69.5l162 921h363l-283 -1597h-342q0 2 3.5 19.5t5.5 25.5t8.5 31
t14 45.5t21 59.5t31.5 81h-41q-70 -150 -167.5 -223.5t-258.5 -73.5z" />
    <glyph glyph-name="Uogonek.ss01" horiz-adv-x="1533" 
d="M1282 0h-61q-100 -11 -145.5 -60t-45.5 -96q0 -37 28.5 -65.5t94.5 -28.5q58 0 92 10l-37 -204q-56 -19 -149 -19q-76 0 -138 20t-103.5 66t-41.5 111q0 86 61.5 157t159.5 109h-57q0 2 3.5 19.5t5.5 25.5t8.5 31t14 45.5t21 59.5t31.5 81h-41q-70 -150 -167.5 -223.5
t-258.5 -73.5q-106 0 -186 33t-125 83t-72 119.5t-35 132t-6.5 132t6.5 107.5t10 69q1 3 1 4l167 952h363l-162 -921q-63 -369 180 -369q70 0 128.5 31.5t94.5 75t63 99t39 94t17 69.5l162 921h363z" />
    <glyph glyph-name="Uring.ss01" horiz-adv-x="1533" 
d="M950 1708q-102 0 -167.5 62.5t-65.5 156.5q0 118 97 209.5t226 91.5q102 0 167 -60.5t65 -156.5q0 -119 -96.5 -211t-225.5 -92zM973 1864q49 0 86 37.5t37 83.5q0 36 -23.5 61t-60.5 25q-47 0 -83 -37t-36 -84q0 -37 21.5 -61.5t58.5 -24.5zM557 -35q-106 0 -186 33
t-125 83t-72 119.5t-35 132t-6.5 132t6.5 107.5t10 69q1 3 1 4l167 952h363l-162 -921q-63 -369 180 -369q70 0 128.5 31.5t94.5 75t63 99t39 94t17 69.5l162 921h363l-283 -1597h-342q0 2 3.5 19.5t5.5 25.5t8.5 31t14 45.5t21 59.5t31.5 81h-41q-70 -150 -167.5 -223.5
t-258.5 -73.5z" />
    <glyph glyph-name="V.ss01" horiz-adv-x="1607" 
d="M930 0h-469l-287 1597h381q119 -645 195 -1159h57q365 710 610 1159h381z" />
    <glyph glyph-name="W.ss01" horiz-adv-x="2383" 
d="M799 0h-459l-152 1597h418l17 -1081h45l438 1081h536l58 -1081h45l397 1081h418l-717 -1597h-452l-41 1219h-86z" />
    <glyph glyph-name="Wacute.ss01" horiz-adv-x="2383" 
d="M1952 2095l-387 -375h-310l287 375h410zM799 0h-459l-152 1597h418l17 -1081h45l438 1081h536l58 -1081h45l397 1081h418l-717 -1597h-452l-41 1219h-86z" />
    <glyph glyph-name="Wcircumflex.ss01" horiz-adv-x="2383" 
d="M1260 1720h-318l365 375h317l234 -375h-318q-22 29 -33.5 49t-20 67t-3.5 112h-82q-29 -93 -61.5 -141t-79.5 -87zM799 0h-459l-152 1597h418l17 -1081h45l438 1081h536l58 -1081h45l397 1081h418l-717 -1597h-452l-41 1219h-86z" />
    <glyph glyph-name="Wdieresis.ss01" horiz-adv-x="2383" 
d="M1149 1712q-73 0 -119.5 45.5t-46.5 116.5q0 93 71 162t165 69q72 0 117.5 -45t45.5 -114q0 -90 -70 -162t-163 -72zM1640 1712q-73 0 -119 45.5t-46 116.5q0 93 70.5 162t164.5 69q72 0 118 -45t46 -114q0 -89 -70 -161.5t-164 -72.5zM799 0h-459l-152 1597h418
l17 -1081h45l438 1081h536l58 -1081h45l397 1081h418l-717 -1597h-452l-41 1219h-86z" />
    <glyph glyph-name="Wgrave.ss01" horiz-adv-x="2383" 
d="M1581 1720h-309l-256 375h409zM799 0h-459l-152 1597h418l17 -1081h45l438 1081h536l58 -1081h45l397 1081h418l-717 -1597h-452l-41 1219h-86z" />
    <glyph glyph-name="X.ss01" horiz-adv-x="1492" 
d="M295 0h-408l652 791l8 45l-381 761h407q108 -244 228 -610h45q13 19 56.5 80.5t58.5 83t53.5 75t57.5 79.5t52.5 72t57.5 77t54 69.5t58 73.5h394l-648 -761l-8 -45l371 -791h-397q-108 244 -228 606h-45q-249 -365 -438 -606z" />
    <glyph glyph-name="Y.ss01" horiz-adv-x="1505" 
d="M565 0h-393q209 282 312 405q72 85 141 158q-180 372 -424 1034h393q58 -168 83 -243.5t60.5 -217.5t55.5 -284h45q75 146 163 288.5t147.5 228t162.5 228.5h393z" />
    <glyph glyph-name="Yacute.ss01" horiz-adv-x="1505" 
d="M1423 2095l-387 -375h-309l287 375h409zM565 0h-393q209 282 312 405q72 85 141 158q-180 372 -424 1034h393q58 -168 83 -243.5t60.5 -217.5t55.5 -284h45q75 146 163 288.5t147.5 228t162.5 228.5h393z" />
    <glyph glyph-name="Ycircumflex.ss01" horiz-adv-x="1505" 
d="M834 1720h-318l365 375h317l234 -375h-318q-22 29 -33.5 49t-20 67t-3.5 112h-82q-29 -93 -61.5 -141t-79.5 -87zM565 0h-393q209 282 312 405q72 85 141 158q-180 372 -424 1034h393q58 -168 83 -243.5t60.5 -217.5t55.5 -284h45q75 146 163 288.5t147.5 228
t162.5 228.5h393z" />
    <glyph glyph-name="Ydieresis.ss01" horiz-adv-x="1505" 
d="M723 1712q-73 0 -119.5 45.5t-46.5 116.5q0 93 71 162t165 69q72 0 117.5 -45t45.5 -114q0 -90 -70 -162t-163 -72zM1214 1712q-73 0 -119 45.5t-46 116.5q0 93 70.5 162t164.5 69q72 0 118 -45t46 -114q0 -89 -70 -161.5t-164 -72.5zM565 0h-393q209 282 312 405
q72 85 141 158q-180 372 -424 1034h393q58 -168 83 -243.5t60.5 -217.5t55.5 -284h45q75 146 163 288.5t147.5 228t162.5 228.5h393z" />
    <glyph glyph-name="Ygrave.ss01" horiz-adv-x="1505" 
d="M1155 1720h-309l-256 375h409zM565 0h-393q209 282 312 405q72 85 141 158q-180 372 -424 1034h393q58 -168 83 -243.5t60.5 -217.5t55.5 -284h45q75 146 163 288.5t147.5 228t162.5 228.5h393z" />
    <glyph glyph-name="Z.ss01" horiz-adv-x="1447" 
d="M1262 0h-1383q42 50 187 224t219 262t201 238.5t244.5 285.5t238.5 272l-11 53q-101 -27 -195 -43.5t-193 -22.5t-156.5 -7.5t-167.5 -1.5l61 337h1317q-680 -831 -1073 -1280l10 -57q139 35 286 53t234 20.5t240 2.5z" />
    <glyph glyph-name="Zacute.ss01" horiz-adv-x="1447" 
d="M1487 2095l-387 -375h-309l286 375h410zM1262 0h-1383q42 50 187 224t219 262t201 238.5t244.5 285.5t238.5 272l-11 53q-101 -27 -195 -43.5t-193 -22.5t-156.5 -7.5t-167.5 -1.5l61 337h1317q-680 -831 -1073 -1280l10 -57q139 35 286 53t234 20.5t240 2.5z" />
    <glyph glyph-name="Zcaron.ss01" horiz-adv-x="1447" 
d="M1096 1720h-330l-227 375h317q23 -30 34.5 -50t20 -66t4.5 -111h82q18 64 44 111t45 67.5t51 48.5h317zM1262 0h-1383q42 50 187 224t219 262t201 238.5t244.5 285.5t238.5 272l-11 53q-101 -27 -195 -43.5t-193 -22.5t-156.5 -7.5t-167.5 -1.5l61 337h1317
q-680 -831 -1073 -1280l10 -57q139 35 286 53t234 20.5t240 2.5z" />
    <glyph glyph-name="Zdotaccent.ss01" horiz-adv-x="1447" 
d="M954 1743q-74 0 -121 47.5t-47 120.5q0 92 72.5 162.5t167.5 70.5q74 0 121 -46.5t47 -117.5q0 -93 -72.5 -165t-167.5 -72zM1262 0h-1383q42 50 187 224t219 262t201 238.5t244.5 285.5t238.5 272l-11 53q-101 -27 -195 -43.5t-193 -22.5t-156.5 -7.5t-167.5 -1.5
l61 337h1317q-680 -831 -1073 -1280l10 -57q139 35 286 53t234 20.5t240 2.5z" />
    <glyph glyph-name="Q.ss02" horiz-adv-x="1755" 
d="M1743 954q0 -169 -62 -331.5t-169.5 -292.5t-263 -223t-333.5 -125q1 -9 1.5 -18.5t0.5 -16.5t-1.5 -19t-2.5 -18t-4.5 -21t-5 -20.5t-6 -24t-6.5 -24.5q96 28 195 42.5t157 16.5t160 2l-55 -311q-178 0 -274.5 1.5t-237 11t-242.5 28.5q14 229 55 366q-257 42 -408 218
t-151 446q0 189 77.5 370t207 317t311 219t377.5 83q198 0 352 -82.5t241 -236.5t87 -357zM979 330q176 82 276.5 232.5t100.5 334.5q0 175 -94 283t-256 108q-106 0 -205 -50t-169.5 -132t-112.5 -190t-42 -220q0 -265 236 -377q-7 55 -1.5 131t10.5 115t17 105h342
q-12 -70 -20.5 -111.5t-29.5 -105.5t-52 -123z" />
    <glyph glyph-name="A.ss07" 
d="M866 -315q-355 0 -573.5 210t-218.5 549q0 140 40.5 279t112.5 260t176 225.5t226 178.5t267.5 116.5t295.5 42.5q229 0 409.5 -91.5t285 -267t104.5 -407.5q0 -213 -90 -414t-240.5 -350.5t-359.5 -240t-435 -90.5zM987 1096l-526 -963h239q2 4 18 33t20.5 38t17.5 34.5
t19 40.5t13.5 37.5t12.5 43.5l12 11q88 -15 172 -15q93 0 178 15l11 -11q-2 -16 -2.5 -32.5t-0.5 -29.5t1.5 -30.5t2.5 -27.5t3.5 -28.5t4 -26t5 -27.5t4.5 -25h248l-187 963h-266zM913 541l-4 4q57 84 93.5 165t62.5 193h35q-21 -203 28 -358l-4 -4q-55 12 -104 12
q-46 0 -107 -12z" />
    <glyph glyph-name="B.ss07" 
d="M866 -315q-355 0 -573.5 210t-218.5 549q0 140 40.5 279t112.5 260t176 225.5t226 178.5t267.5 116.5t295.5 42.5q229 0 409.5 -91.5t285 -267t104.5 -407.5q0 -213 -90 -414t-240.5 -350.5t-359.5 -240t-435 -90.5zM778 1096l-170 -963h408q174 0 285.5 88t111.5 223
q0 77 -43.5 118.5t-138.5 60.5l2 12q105 25 164 92t59 160q0 100 -67 154.5t-185 54.5h-426zM930 686l-12 6q26 62 33 108t-3 105l17 8q12 -9 25 -15.5t22.5 -10t23.5 -5t20 -2t22 0t20 0.5q56 0 80 -16t24 -52q0 -92 -149 -92q-65 0 -123 -35zM862 317l-14 17
q27 52 37.5 100t7.5 113l14 8q52 -35 127 -35q71 0 103 -17t32 -59q0 -50 -45 -73t-143 -23q-36 0 -119 -31z" />
    <glyph glyph-name="C.ss07" 
d="M866 -315q-355 0 -573.5 210t-218.5 549q0 140 40.5 279t112.5 260t176 225.5t226 178.5t267.5 116.5t295.5 42.5q229 0 409.5 -91.5t285 -267t104.5 -407.5q0 -213 -90 -414t-240.5 -350.5t-359.5 -240t-435 -90.5zM956 113q173 0 312 92t223 264l-203 72
q-52 -101 -127 -155t-168 -54q-40 0 -76.5 11t-69 34.5t-52 68t-19.5 105.5q0 139 90 242.5t219 103.5q157 0 205 -184l230 86q-26 147 -133.5 232t-268.5 85q-119 0 -228.5 -49t-187.5 -130.5t-124 -191t-46 -225.5q0 -187 114.5 -297t309.5 -110z" />
    <glyph glyph-name="D.ss07" 
d="M866 -315q-355 0 -573.5 210t-218.5 549q0 140 40.5 279t112.5 260t176 225.5t226 178.5t267.5 116.5t295.5 42.5q229 0 409.5 -91.5t285 -267t104.5 -407.5q0 -213 -90 -414t-240.5 -350.5t-359.5 -240t-435 -90.5zM743 1096l-170 -963h398q120 0 223.5 50.5t172 133.5
t107.5 190t39 220q0 180 -99.5 274.5t-285.5 94.5h-385zM827 317l-14 17q116 269 100 571l17 8q28 -22 49 -27t76 -5q23 0 36 -0.5t38.5 -4.5t41 -11t35.5 -22t32 -36.5t20 -55t8 -75.5q0 -142 -78.5 -235t-208.5 -93q-95 0 -152 -31z" />
    <glyph glyph-name="E.ss07" 
d="M866 -315q-355 0 -573.5 210t-218.5 549q0 140 40.5 279t112.5 260t176 225.5t226 178.5t267.5 116.5t295.5 42.5q229 0 409.5 -91.5t285 -267t104.5 -407.5q0 -213 -90 -414t-240.5 -350.5t-359.5 -240t-435 -90.5zM788 1096l-170 -963h656l39 215q-100 0 -143 -0.5
t-130 -8.5t-166 -24l-16 17q27 51 37.5 100t7.5 117l15 8q65 -24 140 -35.5t116.5 -12.5t130.5 -1l41 225q-90 0 -132 -1t-121 -12t-153 -34l-12 8q28 68 34 116t-4 95l19 8q74 -15 155 -22.5t125.5 -8.5t135.5 -1l39 215h-644z" />
    <glyph glyph-name="F.ss07" 
d="M866 -315q-355 0 -573.5 210t-218.5 549q0 140 40.5 279t112.5 260t176 225.5t226 178.5t267.5 116.5t295.5 42.5q229 0 409.5 -91.5t285 -267t104.5 -407.5q0 -213 -90 -414t-240.5 -350.5t-359.5 -240t-435 -90.5zM813 1096l-170 -963h231q15 83 21.5 128.5t12.5 116.5
t5 144l17 8q64 -23 139 -34t116.5 -12t129.5 -1l41 226q-88 0 -129 -1t-121.5 -12t-157.5 -34l-10 6q36 70 46 123t-1 114l18 8q71 -15 150 -22.5t123.5 -8.5t134.5 -1l39 215h-635z" />
    <glyph glyph-name="G.ss07" 
d="M866 -315q-355 0 -573.5 210t-218.5 549q0 140 40.5 279t112.5 260t176 225.5t226 178.5t267.5 116.5t295.5 42.5q229 0 409.5 -91.5t285 -267t104.5 -407.5q0 -213 -90 -414t-240.5 -350.5t-359.5 -240t-435 -90.5zM926 113q108 0 188.5 45.5t157.5 150.5l16 -6
q-20 -34 -31.5 -63t-14 -42.5t-4.5 -35.5t-3 -29h178l92 518h-452l-35 -192q3 0 31 0.5t38 1t37 2.5t45 5.5t43.5 9t49.5 14.5t49 20l12 -14q-82 -86 -158 -126t-159 -40q-33 0 -63 5.5t-61.5 21t-54.5 39.5t-38 64t-15 91q0 138 91.5 241t217.5 103q159 0 205 -184l232 86
q-26 147 -133.5 232t-268.5 85q-120 0 -229.5 -50t-188 -132t-124.5 -192.5t-46 -227.5q0 -183 107.5 -292t288.5 -109z" />
    <glyph glyph-name="H.ss07" 
d="M866 -315q-355 0 -573.5 210t-218.5 549q0 140 40.5 279t112.5 260t176 225.5t226 178.5t267.5 116.5t295.5 42.5q229 0 409.5 -91.5t285 -267t104.5 -407.5q0 -213 -90 -414t-240.5 -350.5t-359.5 -240t-435 -90.5zM705 1096l-170 -963h231q1 8 7 44t8 47t7 43t7 48
t5.5 46t5 51.5t3 50.5t2.5 57l18 8q97 -34 184 -34t187 34l14 -8q-9 -29 -17 -57.5t-14 -50.5t-12.5 -51t-10 -45t-9.5 -47.5t-8 -43t-8.5 -47t-8.5 -45.5h232l170 963h-232q-45 -245 -51 -402l-14 -8q-88 33 -173.5 33.5t-201.5 -33.5l-14 8q47 144 94 402h-231z" />
    <glyph glyph-name="I.ss07" 
d="M866 -315q-355 0 -573.5 210t-218.5 549q0 140 40.5 279t112.5 260t176 225.5t226 178.5t267.5 116.5t295.5 42.5q229 0 409.5 -91.5t285 -267t104.5 -407.5q0 -213 -90 -414t-240.5 -350.5t-359.5 -240t-435 -90.5zM1006 1096l-170 -963h231l170 963h-231z" />
    <glyph glyph-name="J.ss07" 
d="M866 -315q-355 0 -573.5 210t-218.5 549q0 140 40.5 279t112.5 260t176 225.5t226 178.5t267.5 116.5t295.5 42.5q229 0 409.5 -91.5t285 -267t104.5 -407.5q0 -213 -90 -414t-240.5 -350.5t-359.5 -240t-435 -90.5zM924 123q54 0 101 11t82 27.5t65 43.5t50.5 52t38 59
t27.5 59.5t19 59.5t12.5 51t7.5 42l103 578h-232l-106 -608q-27 -156 -140 -156q-60 0 -86.5 41t-13.5 113l8 43l-235 -31l-9 -43q-29 -155 55 -248.5t253 -93.5z" />
    <glyph glyph-name="K.ss07" 
d="M866 -315q-355 0 -573.5 210t-218.5 549q0 140 40.5 279t112.5 260t176 225.5t226 178.5t267.5 116.5t295.5 42.5q229 0 409.5 -91.5t285 -267t104.5 -407.5q0 -213 -90 -414t-240.5 -350.5t-359.5 -240t-435 -90.5zM735 1096l-170 -963h232q35 209 41 289q36 18 108 82
h8q50 -130 176 -371h281q-65 124 -95 179.5t-95.5 158t-126.5 174.5l4 19q201 177 471 432h-275q-231 -218 -434 -428h-8q22 50 39 96t29.5 98.5t18 76t16 86t12.5 71.5h-232z" />
    <glyph glyph-name="L.ss07" 
d="M866 -315q-355 0 -573.5 210t-218.5 549q0 140 40.5 279t112.5 260t176 225.5t226 178.5t267.5 116.5t295.5 42.5q229 0 409.5 -91.5t285 -267t104.5 -407.5q0 -213 -90 -414t-240.5 -350.5t-359.5 -240t-435 -90.5zM879 1096l-170 -963h622l39 215q-94 0 -133.5 -0.5
t-119.5 -8.5t-152 -24l-17 19q11 40 22 82.5t19.5 75.5t19 81t16 73t16 78.5t14.5 71.5t15 78t13 71t14 78t13 73h-231z" />
    <glyph glyph-name="M.ss07" 
d="M866 -315q-355 0 -573.5 210t-218.5 549q0 140 40.5 279t112.5 260t176 225.5t226 178.5t267.5 116.5t295.5 42.5q229 0 409.5 -91.5t285 -267t104.5 -407.5q0 -213 -90 -414t-240.5 -350.5t-359.5 -240t-435 -90.5zM578 1096l-170 -963h233q2 10 14 77.5t15 86
t12.5 77.5t12.5 91t8 85t6 101t0 99h10q23 -117 51 -227.5t61 -226t46 -163.5h137q7 12 149.5 236.5t227.5 380.5h8q-19 -54 -35 -103.5t-29.5 -101.5t-22.5 -86t-19.5 -89.5t-15 -77t-15 -83t-13.5 -76.5h236l170 963h-258q-249 -352 -387 -658h-23q-33 326 -153 658h-256z
" />
    <glyph glyph-name="N.ss07" 
d="M866 -315q-355 0 -573.5 210t-218.5 549q0 140 40.5 279t112.5 260t176 225.5t226 178.5t267.5 116.5t295.5 42.5q229 0 409.5 -91.5t285 -267t104.5 -407.5q0 -213 -90 -414t-240.5 -350.5t-359.5 -240t-435 -90.5zM717 1096l-170 -963h231q66 390 86 612h10
q35 -126 87.5 -245.5t89.5 -184.5t108 -182h211l170 963h-231q-63 -358 -90 -635h-9q-52 190 -119 335.5t-163 299.5h-211z" />
    <glyph glyph-name="O.ss07" 
d="M866 -315q-355 0 -573.5 210t-218.5 549q0 140 40.5 279t112.5 260t176 225.5t226 178.5t267.5 116.5t295.5 42.5q229 0 409.5 -91.5t285 -267t104.5 -407.5q0 -213 -90 -414t-240.5 -350.5t-359.5 -240t-435 -90.5zM946 113q118 0 227.5 50t187.5 132.5t124.5 191
t46.5 222.5q0 182 -113 294.5t-297 112.5q-157 0 -293 -84.5t-214 -222t-78 -291.5q0 -187 115.5 -296t293.5 -109zM782 555q0 133 89.5 237.5t213.5 104.5q92 0 146.5 -62t54.5 -163q0 -133 -88.5 -236.5t-212.5 -103.5q-93 0 -148 62t-55 161z" />
    <glyph glyph-name="P.ss07" 
d="M866 -315q-355 0 -573.5 210t-218.5 549q0 140 40.5 279t112.5 260t176 225.5t226 178.5t267.5 116.5t295.5 42.5q229 0 409.5 -91.5t285 -267t104.5 -407.5q0 -213 -90 -414t-240.5 -350.5t-359.5 -240t-435 -90.5zM803 1096l-170 -963h231q1 8 6.5 40.5t7.5 43.5
t6.5 41t6.5 46t5.5 44.5t5 50.5t3 50t2.5 55q29 -19 62.5 -28.5t53 -11t52.5 -1.5q175 0 291.5 110.5t116.5 270.5q0 52 -14.5 93.5t-35.5 67t-52 44.5t-56.5 27.5t-58 13.5t-46.5 5.5t-32 0.5h-385zM940 633l-12 4q32 80 42 139t3 129l16 8q18 -15 41.5 -22.5t37.5 -8.5
t42 -1q27 0 44 -2t39 -9.5t33 -26t11 -48.5q0 -45 -29 -72.5t-65 -36t-80 -8.5q-69 0 -123 -45z" />
    <glyph glyph-name="Q.ss07" 
d="M866 -315q-355 0 -573.5 210t-218.5 549q0 140 40.5 279t112.5 260t176 225.5t226 178.5t267.5 116.5t295.5 42.5q229 0 409.5 -91.5t285 -267t104.5 -407.5q0 -213 -90 -414t-240.5 -350.5t-359.5 -240t-435 -90.5zM1260 35l192 139q-67 108 -137 160q112 79 173.5 197
t61.5 251q0 184 -115.5 297t-306.5 113q-161 0 -299.5 -83t-218.5 -220t-80 -293q0 -190 118 -299t302 -109q117 0 209 50q6 -35 25.5 -77t32.5 -62t43 -64zM768 629q0 142 93.5 243t230.5 101q102 0 160.5 -59t58.5 -158q0 -78 -28.5 -163t-68.5 -128q-11 81 -104 231
l-192 -139q1 -2 15.5 -26t18 -29.5t16.5 -25.5t20.5 -28t19.5 -22t23.5 -22.5t23.5 -14.5q-37 -6 -66 -6q-101 0 -161 66.5t-60 179.5z" />
    <glyph glyph-name="R.ss07" 
d="M866 -315q-355 0 -573.5 210t-218.5 549q0 140 40.5 279t112.5 260t176 225.5t226 178.5t267.5 116.5t295.5 42.5q229 0 409.5 -91.5t285 -267t104.5 -407.5q0 -213 -90 -414t-240.5 -350.5t-359.5 -240t-435 -90.5zM797 1096l-170 -963h231q43 248 43 373q59 -30 72 -33
l155 -340h263q-5 9 -22 42.5t-22.5 44.5t-21 40t-23.5 42.5t-23.5 39t-27.5 41.5l-28.5 38t-33.5 41.5t-36 39.5l2 12q149 10 234.5 102.5t85.5 223.5q0 52 -15 94.5t-37 68.5t-54 45t-58 28t-58 14t-44.5 5.5t-26.5 0.5h-385zM932 618l-10 7q59 152 45 280l18 8
q47 -28 109 -28q135 0 135 -94q0 -58 -48.5 -98t-119.5 -42q-79 0 -129 -33z" />
    <glyph glyph-name="S.ss07" 
d="M866 -315q-355 0 -573.5 210t-218.5 549q0 140 40.5 279t112.5 260t176 225.5t226 178.5t267.5 116.5t295.5 42.5q229 0 409.5 -91.5t285 -267t104.5 -407.5q0 -213 -90 -414t-240.5 -350.5t-359.5 -240t-435 -90.5zM958 113q179 0 305 107t126 257q0 46 -14.5 83
t-32.5 58.5t-49.5 40.5t-48 26t-46.5 17l-98 33q-36 11 -58 20.5t-41.5 28t-19.5 41.5q0 30 29 52t75 22q92 0 117 -100l223 86q-2 89 -82.5 160t-220.5 71q-171 0 -288 -103.5t-117 -240.5q0 -174 217 -242l80 -24q34 -11 53 -18.5t38 -25t19 -40.5q0 -40 -37.5 -66
t-93.5 -26q-128 0 -143 151l-227 -73q6 -137 96.5 -216t238.5 -79z" />
    <glyph glyph-name="T.ss07" 
d="M866 -315q-355 0 -573.5 210t-218.5 549q0 140 40.5 279t112.5 260t176 225.5t226 178.5t267.5 116.5t295.5 42.5q229 0 409.5 -91.5t285 -267t104.5 -407.5q0 -213 -90 -414t-240.5 -350.5t-359.5 -240t-435 -90.5zM831 133h232q89 510 113 770q104 -22 288 -22l39 215
h-772l-39 -215q185 0 297 22q-76 -298 -158 -770z" />
    <glyph glyph-name="U.ss07" 
d="M866 -315q-355 0 -573.5 210t-218.5 549q0 140 40.5 279t112.5 260t176 225.5t226 178.5t267.5 116.5t295.5 42.5q229 0 409.5 -91.5t285 -267t104.5 -407.5q0 -213 -90 -414t-240.5 -350.5t-359.5 -240t-435 -90.5zM940 123q79 0 145 19t109.5 45.5t79.5 69.5t55 76.5
t34.5 80.5t20 68t9.5 53l100 571h-231l-97 -553q-34 -211 -184 -211q-30 0 -52.5 9t-35.5 21.5t-20 34.5t-9 37.5t-0.5 41.5t3.5 36.5t5 30.5l97 553h-232l-100 -571q-7 -38 -10 -68.5t-2.5 -75t9.5 -79t30.5 -71.5t56 -61.5t90.5 -40.5t129 -16z" />
    <glyph glyph-name="V.ss07" 
d="M866 -315q-355 0 -573.5 210t-218.5 549q0 140 40.5 279t112.5 260t176 225.5t226 178.5t267.5 116.5t295.5 42.5q229 0 409.5 -91.5t285 -267t104.5 -407.5q0 -213 -90 -414t-240.5 -350.5t-359.5 -240t-435 -90.5zM651 1096l187 -963h268l524 963h-244
q-30 -55 -88 -165t-145.5 -292t-124.5 -285h-35q1 55 -5 133.5t-16 152t-23 157t-23.5 138.5t-20.5 107.5t-10 53.5h-244z" />
    <glyph glyph-name="W.ss07" 
d="M866 -315q-355 0 -573.5 210t-218.5 549q0 140 40.5 279t112.5 260t176 225.5t226 178.5t267.5 116.5t295.5 42.5q229 0 409.5 -91.5t285 -267t104.5 -407.5q0 -213 -90 -414t-240.5 -350.5t-359.5 -240t-435 -90.5zM403 1096l93 -963h284q64 137 94.5 204t84 200
t94.5 258h22q-4 -184 6.5 -321.5t36.5 -340.5h281l432 963h-264q-177 -422 -262 -713h-11q-2 331 -49 713h-256q-207 -443 -297 -701h-10q14 306 -14 701h-265z" />
    <glyph glyph-name="X.ss07" 
d="M866 -315q-355 0 -573.5 210t-218.5 549q0 140 40.5 279t112.5 260t176 225.5t226 178.5t267.5 116.5t295.5 42.5q229 0 409.5 -91.5t285 -267t104.5 -407.5q0 -213 -90 -414t-240.5 -350.5t-359.5 -240t-435 -90.5zM516 131h281q143 195 213 318h12q31 -154 96 -318h281
q-146 317 -234 471l2 21q36 38 75 80.5t66.5 73.5t72 83.5t62.5 74.5t69.5 84t64.5 77h-274q-123 -156 -224 -324h-12q-48 198 -106 324h-275q11 -22 41.5 -87.5t48.5 -103.5t46 -94t53 -102t49 -86l-2 -21q-178 -189 -406 -471z" />
    <glyph glyph-name="Y.ss07" 
d="M866 -315q-355 0 -573.5 210t-218.5 549q0 140 40.5 279t112.5 260t176 225.5t226 178.5t267.5 116.5t295.5 42.5q229 0 409.5 -91.5t285 -267t104.5 -407.5q0 -213 -90 -414t-240.5 -350.5t-359.5 -240t-435 -90.5zM831 133h230q42 238 47 326q132 177 453 637h-250
q-62 -95 -93 -143t-84 -141t-94 -179h-12q-27 206 -108 463h-248q148 -438 227 -639q-31 -108 -68 -324z" />
    <glyph glyph-name="Z.ss07" 
d="M866 -315q-355 0 -573.5 210t-218.5 549q0 140 40.5 279t112.5 260t176 225.5t226 178.5t267.5 116.5t295.5 42.5q229 0 409.5 -91.5t285 -267t104.5 -407.5q0 -213 -90 -414t-240.5 -350.5t-359.5 -240t-435 -90.5zM592 319l-33 -186h756l39 215q-268 0 -555 -69l-4 12
q389 337 647 616l33 189h-734l-39 -215q249 0 525 71l2 -14q-360 -314 -637 -619z" />
    <glyph glyph-name="A.ss08" 
d="M866 -315q-355 0 -573.5 210t-218.5 549q0 140 40.5 279t112.5 260t176 225.5t226 178.5t267.5 116.5t295.5 42.5q229 0 409.5 -91.5t285 -267t104.5 -407.5q0 -213 -90 -414t-240.5 -350.5t-359.5 -240t-435 -90.5zM899 -139q182 0 350.5 73t290.5 194t195 284.5
t73 337.5q0 187 -85 329.5t-231 216.5t-331 74q-182 0 -350.5 -75t-289.5 -197.5t-193 -286t-72 -334.5q0 -275 177 -445.5t466 -170.5zM836 322h-152l322 587h163l113 -587h-156q-1 8 -5 31.5t-5.5 33.5t-3 35.5t1.5 38.5l-4 4q-55 -10 -106 -10q-45 0 -103 10l-4 -4
q-14 -51 -61 -139zM965 573q52 9 67 9q19 0 31.5 -2t18.5 -4t7 -1.5t1 5.5q0 9 -12.5 80t-6.5 126h-14q-31 -118 -92 -213z" />
    <glyph glyph-name="B.ss08" 
d="M866 -315q-355 0 -573.5 210t-218.5 549q0 140 40.5 279t112.5 260t176 225.5t226 178.5t267.5 116.5t295.5 42.5q229 0 409.5 -91.5t285 -267t104.5 -407.5q0 -213 -90 -414t-240.5 -350.5t-359.5 -240t-435 -90.5zM899 -139q182 0 350.5 73t290.5 194t195 284.5
t73 337.5q0 187 -85 329.5t-231 216.5t-331 74q-182 0 -350.5 -75t-289.5 -197.5t-193 -286t-72 -334.5q0 -275 177 -445.5t466 -170.5zM997 322h-249l104 587h260q72 0 114 -34t42 -91q0 -59 -37 -101.5t-101 -57.5v-2q58 -12 84.5 -38t26.5 -73q0 -82 -68.5 -136
t-175.5 -54zM942 664l2 -2q43 20 74 20q88 0 88 51q0 21 -13.5 30t-45.5 9h-13h-13.5t-12.5 1t-14.5 3t-13.5 5.5t-15 9.5l-4 -3q9 -55 -19 -124zM901 446l4 -6q41 19 92 19q88 0 88 53q0 23 -17.5 33t-57.5 10q-46 0 -78 20l-4 -2q0 -74 -27 -127z" />
    <glyph glyph-name="C.ss08" 
d="M866 -315q-355 0 -573.5 210t-218.5 549q0 140 40.5 279t112.5 260t176 225.5t226 178.5t267.5 116.5t295.5 42.5q229 0 409.5 -91.5t285 -267t104.5 -407.5q0 -213 -90 -414t-240.5 -350.5t-359.5 -240t-435 -90.5zM899 -139q182 0 350.5 73t290.5 194t195 284.5
t73 337.5q0 187 -85 329.5t-231 216.5t-331 74q-182 0 -350.5 -75t-289.5 -197.5t-193 -286t-72 -334.5q0 -275 177 -445.5t466 -170.5zM983 309q-118 0 -187 68t-69 182q0 146 104.5 253.5t251.5 107.5q98 0 163.5 -53t80.5 -144l-145 -53q-24 112 -123 112
q-73 0 -126.5 -61t-53.5 -143q0 -69 37.5 -99t91.5 -30q116 0 174 126l129 -47q-51 -106 -136 -162.5t-192 -56.5z" />
    <glyph glyph-name="D.ss08" 
d="M866 -315q-355 0 -573.5 210t-218.5 549q0 140 40.5 279t112.5 260t176 225.5t226 178.5t267.5 116.5t295.5 42.5q229 0 409.5 -91.5t285 -267t104.5 -407.5q0 -213 -90 -414t-240.5 -350.5t-359.5 -240t-435 -90.5zM899 -139q182 0 350.5 73t290.5 194t195 284.5
t73 337.5q0 187 -85 329.5t-231 216.5t-331 74q-182 0 -350.5 -75t-289.5 -197.5t-193 -286t-72 -334.5q0 -275 177 -445.5t466 -170.5zM993 322h-241l104 587h236q113 0 173 -58.5t60 -168.5q0 -143 -93.5 -251.5t-238.5 -108.5zM905 446l4 -6q39 19 78 19q87 0 134.5 51.5
t47.5 138.5q0 35 -9 60t-20 37t-30.5 18t-31 7t-31.5 1q-34 0 -46 3t-32 16l-4 -3q9 -175 -60 -342z" />
    <glyph glyph-name="E.ss08" 
d="M866 -315q-355 0 -573.5 210t-218.5 549q0 140 40.5 279t112.5 260t176 225.5t226 178.5t267.5 116.5t295.5 42.5q229 0 409.5 -91.5t285 -267t104.5 -407.5q0 -213 -90 -414t-240.5 -350.5t-359.5 -240t-435 -90.5zM899 -139q182 0 350.5 73t290.5 194t195 284.5
t73 337.5q0 187 -85 329.5t-231 216.5t-331 74q-182 0 -350.5 -75t-289.5 -197.5t-193 -286t-72 -334.5q0 -275 177 -445.5t466 -170.5zM1182 322h-402l105 587h395l-25 -137q-153 0 -256 19l-6 -3q8 -55 -18 -124l4 -2q45 13 93.5 20t74.5 7.5t80 0.5l-27 -143h-24h-26.5
t-24 0.5t-26.5 1t-25 2t-27.5 3.5t-25.5 5t-28.5 7t-27.5 9l-4 -2q0 -74 -27 -127l6 -8q109 21 266 21z" />
    <glyph glyph-name="F.ss08" 
d="M866 -315q-355 0 -573.5 210t-218.5 549q0 140 40.5 279t112.5 260t176 225.5t226 178.5t267.5 116.5t295.5 42.5q229 0 409.5 -91.5t285 -267t104.5 -407.5q0 -213 -90 -414t-240.5 -350.5t-359.5 -240t-435 -90.5zM899 -139q182 0 350.5 73t290.5 194t195 284.5
t73 337.5q0 187 -85 329.5t-231 216.5t-331 74q-182 0 -350.5 -75t-289.5 -197.5t-193 -286t-72 -334.5q0 -275 177 -445.5t466 -170.5zM940 322h-145l104 587h389l-24 -137q-151 0 -250 19l-6 -3q12 -66 -27 -139l4 -2q98 29 248 29l-27 -144q-57 0 -80 0.5t-69 7.5t-84 21
l-8 -4q2 -79 -25 -235z" />
    <glyph glyph-name="G.ss08" 
d="M866 -315q-355 0 -573.5 210t-218.5 549q0 140 40.5 279t112.5 260t176 225.5t226 178.5t267.5 116.5t295.5 42.5q229 0 409.5 -91.5t285 -267t104.5 -407.5q0 -213 -90 -414t-240.5 -350.5t-359.5 -240t-435 -90.5zM899 -139q182 0 350.5 73t290.5 194t195 284.5
t73 337.5q0 187 -85 329.5t-231 216.5t-331 74q-182 0 -350.5 -75t-289.5 -197.5t-193 -286t-72 -334.5q0 -275 177 -445.5t466 -170.5zM967 309q-110 0 -175 67.5t-65 178.5q0 147 104 256t250 109q99 0 166 -53.5t80 -143.5l-143 -53q-29 112 -123 112q-73 0 -126.5 -61
t-53.5 -143q0 -70 40 -99.5t95 -29.5q97 0 186 96l-4 4q-71 -31 -178 -31l20 121h281l-55 -317h-115q1 5 2 19.5t2.5 22.5t8 25t18.5 37h-4q-46 -61 -96 -89t-115 -28z" />
    <glyph glyph-name="H.ss08" 
d="M866 -315q-355 0 -573.5 210t-218.5 549q0 140 40.5 279t112.5 260t176 225.5t226 178.5t267.5 116.5t295.5 42.5q229 0 409.5 -91.5t285 -267t104.5 -407.5q0 -213 -90 -414t-240.5 -350.5t-359.5 -240t-435 -90.5zM899 -139q182 0 350.5 73t290.5 194t195 284.5
t73 337.5q0 187 -85 329.5t-231 216.5t-331 74q-182 0 -350.5 -75t-289.5 -197.5t-193 -286t-72 -334.5q0 -275 177 -445.5t466 -170.5zM874 322h-145l105 587h145q-26 -154 -57 -245l6 -2q128 37 225 0l4 2q6 92 33 245h145l-104 -587h-146q28 150 54 235l-6 2
q-116 -37 -224 0l-6 -2q-1 -37 -4 -72t-6.5 -55t-9.5 -56t-9 -52z" />
    <glyph glyph-name="I.ss08" 
d="M866 -315q-355 0 -573.5 210t-218.5 549q0 140 40.5 279t112.5 260t176 225.5t226 178.5t267.5 116.5t295.5 42.5q229 0 409.5 -91.5t285 -267t104.5 -407.5q0 -213 -90 -414t-240.5 -350.5t-359.5 -240t-435 -90.5zM899 -139q182 0 350.5 73t290.5 194t195 284.5
t73 337.5q0 187 -85 329.5t-231 216.5t-331 74q-182 0 -350.5 -75t-289.5 -197.5t-193 -286t-72 -334.5q0 -275 177 -445.5t466 -170.5zM1055 322h-146l105 587h145z" />
    <glyph glyph-name="J.ss08" 
d="M866 -315q-355 0 -573.5 210t-218.5 549q0 140 40.5 279t112.5 260t176 225.5t226 178.5t267.5 116.5t295.5 42.5q229 0 409.5 -91.5t285 -267t104.5 -407.5q0 -213 -90 -414t-240.5 -350.5t-359.5 -240t-435 -90.5zM899 -139q182 0 350.5 73t290.5 194t195 284.5
t73 337.5q0 187 -85 329.5t-231 216.5t-331 74q-182 0 -350.5 -75t-289.5 -197.5t-193 -286t-72 -334.5q0 -275 177 -445.5t466 -170.5zM967 315q-102 0 -152.5 56.5t-36.5 152.5l4 29l150 20l-6 -30q-8 -40 6.5 -64t50.5 -24q67 0 82 90l65 370h146l-64 -352
q-19 -102 -54 -153q-64 -94 -191 -95z" />
    <glyph glyph-name="K.ss08" 
d="M866 -315q-355 0 -573.5 210t-218.5 549q0 140 40.5 279t112.5 260t176 225.5t226 178.5t267.5 116.5t295.5 42.5q229 0 409.5 -91.5t285 -267t104.5 -407.5q0 -213 -90 -414t-240.5 -350.5t-359.5 -240t-435 -90.5zM899 -139q182 0 350.5 73t290.5 194t195 284.5
t73 337.5q0 187 -85 329.5t-231 216.5t-331 74q-182 0 -350.5 -75t-289.5 -197.5t-193 -286t-72 -334.5q0 -275 177 -445.5t466 -170.5zM895 322h-145l104 587h145q-2 -10 -7.5 -40.5t-8 -42.5t-8 -38.5t-11 -44t-14.5 -43t-20 -51.5q150 156 262 260h174
q-23 -22 -62.5 -59.5t-60 -56.5t-64.5 -59t-102 -91l-2 -8q38 -47 75.5 -105.5t58.5 -96t59 -111.5h-176q-79 149 -109 223q-7 -6 -17 -14.5t-15.5 -13t-14 -10t-16.5 -9.5q-5 -59 -25 -176z" />
    <glyph glyph-name="L.ss08" 
d="M866 -315q-355 0 -573.5 210t-218.5 549q0 140 40.5 279t112.5 260t176 225.5t226 178.5t267.5 116.5t295.5 42.5q229 0 409.5 -91.5t285 -267t104.5 -407.5q0 -213 -90 -414t-240.5 -350.5t-359.5 -240t-435 -90.5zM899 -139q182 0 350.5 73t290.5 194t195 284.5
t73 337.5q0 187 -85 329.5t-231 216.5t-331 74q-182 0 -350.5 -75t-289.5 -197.5t-193 -286t-72 -334.5q0 -275 177 -445.5t466 -170.5zM1214 322h-380l104 587h145q-4 -24 -17 -94t-18.5 -99.5t-16.5 -83t-21.5 -97.5t-22.5 -89l6 -8q99 21 246 21z" />
    <glyph glyph-name="M.ss08" 
d="M1192 1546q229 0 409.5 -91.5t285 -267t104.5 -407.5q0 -213 -90 -414t-240.5 -350.5t-359.5 -240t-435 -90.5q-355 0 -573.5 210t-218.5 549q0 140 40.5 279t112.5 260t176 225.5t226 178.5t267.5 116.5t295.5 42.5zM899 -139q182 0 350.5 73t290.5 194t195 284.5
t73 337.5q0 187 -85 329.5t-231 216.5t-331 74q-182 0 -350.5 -75t-289.5 -197.5t-193 -286t-72 -334.5q0 -275 177 -445.5t466 -170.5zM1010 512h8q101 213 235 397h160l-104 -587h-148q13 80 19.5 114t25 108t45.5 148q-39 -70 -80.5 -137.5t-84 -134t-62.5 -98.5h-86
q-1 5 -38 137t-56 223q-2 -132 -43 -360h-148l105 587h160q75 -214 92 -397z" />
    <glyph glyph-name="N.ss08" 
d="M866 -315q-355 0 -573.5 210t-218.5 549q0 140 40.5 279t112.5 260t176 225.5t226 178.5t267.5 116.5t295.5 42.5q229 0 409.5 -91.5t285 -267t104.5 -407.5q0 -213 -90 -414t-240.5 -350.5t-359.5 -240t-435 -90.5zM899 -139q182 0 350.5 73t290.5 194t195 284.5
t73 337.5q0 187 -85 329.5t-231 216.5t-331 74q-182 0 -350.5 -75t-289.5 -197.5t-193 -286t-72 -334.5q0 -275 177 -445.5t466 -170.5zM883 322h-146l105 587h131q57 -98 98 -186t70 -199q15 146 57 385h145l-104 -587h-131q-3 4 -19 31t-19.5 33.5t-18 31.5t-19.5 34.5
t-17.5 33.5t-18.5 37.5t-16 36.5t-17 41.5t-14.5 42t-14.5 46.5q-10 -122 -51 -368z" />
    <glyph glyph-name="O.ss08" 
d="M866 -315q-355 0 -573.5 210t-218.5 549q0 140 40.5 279t112.5 260t176 225.5t226 178.5t267.5 116.5t295.5 42.5q229 0 409.5 -91.5t285 -267t104.5 -407.5q0 -213 -90 -414t-240.5 -350.5t-359.5 -240t-435 -90.5zM899 -139q182 0 350.5 73t290.5 194t195 284.5
t73 337.5q0 187 -85 329.5t-231 216.5t-331 74q-182 0 -350.5 -75t-289.5 -197.5t-193 -286t-72 -334.5q0 -275 177 -445.5t466 -170.5zM979 309q-110 0 -179 69t-69 179q0 142 105 252.5t251 110.5q112 0 181 -69.5t69 -180.5q0 -92 -48 -175t-131 -134.5t-179 -51.5z
M1006 449q71 0 123.5 60t52.5 142q0 58 -32 94.5t-85 36.5q-73 0 -126.5 -61.5t-53.5 -140.5q0 -59 33 -95t88 -36z" />
    <glyph glyph-name="P.ss08" 
d="M866 -315q-355 0 -573.5 210t-218.5 549q0 140 40.5 279t112.5 260t176 225.5t226 178.5t267.5 116.5t295.5 42.5q229 0 409.5 -91.5t285 -267t104.5 -407.5q0 -213 -90 -414t-240.5 -350.5t-359.5 -240t-435 -90.5zM899 -139q182 0 350.5 73t290.5 194t195 284.5
t73 337.5q0 187 -85 329.5t-231 216.5t-331 74q-182 0 -350.5 -75t-289.5 -197.5t-193 -286t-72 -334.5q0 -275 177 -445.5t466 -170.5zM934 322h-146l105 587h235q14 0 24.5 -1t35 -4.5t42.5 -13.5t37.5 -26t30.5 -44.5t11 -65.5q0 -99 -71.5 -166.5t-178.5 -67.5
q-59 0 -98 23q-1 -34 -4 -68.5t-6 -53t-9.5 -54.5t-7.5 -45zM977 631v-2q34 26 74 26q100 0 100 70q0 22 -11.5 33t-23 12.5t-33.5 1.5q-49 0 -77 19l-5 -3q6 -79 -24 -157z" />
    <glyph glyph-name="Q.ss08" 
d="M866 -315q-355 0 -573.5 210t-218.5 549q0 140 40.5 279t112.5 260t176 225.5t226 178.5t267.5 116.5t295.5 42.5q229 0 409.5 -91.5t285 -267t104.5 -407.5q0 -213 -90 -414t-240.5 -350.5t-359.5 -240t-435 -90.5zM899 -139q182 0 350.5 73t290.5 194t195 284.5
t73 337.5q0 187 -85 329.5t-231 216.5t-331 74q-182 0 -350.5 -75t-289.5 -197.5t-193 -286t-72 -334.5q0 -275 177 -445.5t466 -170.5zM1288 348l-121 -88q-54 79 -61 123q-57 -29 -125 -29q-115 0 -185.5 68.5t-70.5 181.5q0 142 107 251.5t258 109.5q116 0 186 -69
t70 -177q0 -82 -37 -154t-103 -119q44 -37 82 -98zM1004 477q7 0 16.5 1t15.5 1q-36 23 -78 101l119 88q58 -85 68 -136q21 26 36 75t15 91q0 59 -34 94t-95 35q-81 0 -135.5 -58.5t-54.5 -145.5q0 -67 34 -106.5t93 -39.5z" />
    <glyph glyph-name="R.ss08" 
d="M866 -315q-355 0 -573.5 210t-218.5 549q0 140 40.5 279t112.5 260t176 225.5t226 178.5t267.5 116.5t295.5 42.5q229 0 409.5 -91.5t285 -267t104.5 -407.5q0 -213 -90 -414t-240.5 -350.5t-359.5 -240t-435 -90.5zM899 -139q182 0 350.5 73t290.5 194t195 284.5
t73 337.5q0 187 -85 329.5t-231 216.5t-331 74q-182 0 -350.5 -75t-289.5 -197.5t-193 -286t-72 -334.5q0 -275 177 -445.5t466 -170.5zM930 322h-146l105 587h235q13 0 26 -1t44 -9.5t53 -23.5t40 -47.5t18 -77.5q0 -81 -53 -136.5t-142 -62.5v-2q15 -16 28.5 -32t26 -34.5
t21 -31t20 -34.5t16.5 -31t17.5 -34t15.5 -30h-168l-92 204q-13 3 -37 17q-1 -59 -28 -221zM971 623l2 -2q32 20 80 20q39 2 66.5 24t27.5 56q0 53 -76 53q-34 0 -67 17l-7 -3q6 -82 -26 -165z" />
    <glyph glyph-name="S.ss08" 
d="M866 -315q-355 0 -573.5 210t-218.5 549q0 140 40.5 279t112.5 260t176 225.5t226 178.5t267.5 116.5t295.5 42.5q229 0 409.5 -91.5t285 -267t104.5 -407.5q0 -213 -90 -414t-240.5 -350.5t-359.5 -240t-435 -90.5zM899 -139q182 0 350.5 73t290.5 194t195 284.5
t73 337.5q0 187 -85 329.5t-231 216.5t-331 74q-182 0 -350.5 -75t-289.5 -197.5t-193 -286t-72 -334.5q0 -275 177 -445.5t466 -170.5zM989 309q-92 0 -148 49t-59 134l144 47q9 -93 84 -93q32 0 52.5 15t20.5 37q0 5 -1 9t-3 7.5t-4 6t-6.5 5t-7.5 4.5t-9.5 4t-9.5 3.5
t-10.5 4t-11.5 3.5l-49 16q-24 8 -41.5 16.5t-40.5 25.5t-36 44t-13 62q0 86 71.5 148.5t171.5 62.5q80 0 135 -41.5t56 -102.5l-144 -55q-13 61 -67 61q-25 0 -41 -11t-16 -30q0 -13 10.5 -22.5t21.5 -14.5t37 -14l58 -20q22 -7 37 -14.5t36.5 -23t33 -42t11.5 -60.5
q0 -90 -77 -155.5t-185 -65.5z" />
    <glyph glyph-name="T.ss08" 
d="M866 -315q-355 0 -573.5 210t-218.5 549q0 140 40.5 279t112.5 260t176 225.5t226 178.5t267.5 116.5t295.5 42.5q229 0 409.5 -91.5t285 -267t104.5 -407.5q0 -213 -90 -414t-240.5 -350.5t-359.5 -240t-435 -90.5zM899 -139q182 0 350.5 73t290.5 194t195 284.5
t73 337.5q0 187 -85 329.5t-231 216.5t-331 74q-182 0 -350.5 -75t-289.5 -197.5t-193 -286t-72 -334.5q0 -275 177 -445.5t466 -170.5zM1051 322h-146q61 329 96 462q-72 -12 -178 -12l25 137h469l-25 -137q-106 0 -174 12q-19 -193 -67 -462z" />
    <glyph glyph-name="U.ss08" 
d="M866 -315q-355 0 -573.5 210t-218.5 549q0 140 40.5 279t112.5 260t176 225.5t226 178.5t267.5 116.5t295.5 42.5q229 0 409.5 -91.5t285 -267t104.5 -407.5q0 -213 -90 -414t-240.5 -350.5t-359.5 -240t-435 -90.5zM899 -139q182 0 350.5 73t290.5 194t195 284.5
t73 337.5q0 187 -85 329.5t-231 216.5t-331 74q-182 0 -350.5 -75t-289.5 -197.5t-193 -286t-72 -334.5q0 -275 177 -445.5t466 -170.5zM977 315q-226 0 -184 250l61 350h145l-59 -337q-4 -29 -6 -56.5t15.5 -47t54.5 -19.5q87 0 106 123l59 337h146l-62 -350
q-42 -250 -276 -250z" />
    <glyph glyph-name="V.ss08" 
d="M866 -315q-355 0 -573.5 210t-218.5 549q0 140 40.5 279t112.5 260t176 225.5t226 178.5t267.5 116.5t295.5 42.5q229 0 409.5 -91.5t285 -267t104.5 -407.5q0 -213 -90 -414t-240.5 -350.5t-359.5 -240t-435 -90.5zM899 -139q182 0 350.5 73t290.5 194t195 284.5
t73 337.5q0 187 -85 329.5t-231 216.5t-331 74q-182 0 -350.5 -75t-289.5 -197.5t-193 -286t-72 -334.5q0 -275 177 -445.5t466 -170.5zM1077 322h-166l-112 587h153l4 -17q3 -18 8.5 -47t12 -66.5t13 -80.5t11.5 -84t8 -82t3 -71h14q24 62 77 172.5t94.5 190t45.5 85.5h154
z" />
    <glyph glyph-name="W.ss08" 
d="M866 -315q-355 0 -573.5 210t-218.5 549q0 140 40.5 279t112.5 260t176 225.5t226 178.5t267.5 116.5t295.5 42.5q229 0 409.5 -91.5t285 -267t104.5 -407.5q0 -213 -90 -414t-240.5 -350.5t-359.5 -240t-435 -90.5zM899 -139q182 0 350.5 73t290.5 194t195 284.5
t73 337.5q0 187 -85 329.5t-231 216.5t-331 74q-182 0 -350.5 -75t-289.5 -197.5t-193 -286t-72 -334.5q0 -275 177 -445.5t466 -170.5zM881 322h-176l-56 587h166q17 -268 10 -424q57 158 179 424h159q29 -267 29 -430q57 184 160 430h166l-265 -587h-174q-11 97 -15 136
t-7.5 113t-1.5 150h-8q-56 -170 -166 -399z" />
    </font>
</defs>
</svg>
