<?xml version="1.0" standalone="no"?>
<!DOCTYPE svg PUBLIC "-//W3C//DTD SVG 1.1//EN" "http://www.w3.org/Graphics/SVG/1.1/DTD/svg11.dtd" >
<svg xmlns="http://www.w3.org/2000/svg" xmlns:xlink="http://www.w3.org/1999/xlink" version="1.1">
<metadata>
Created by FontForge 20170731 at Mon Mar 15 14:15:16 2021
 By Aleksey,,,
Copyright (c) 2020 by Matthieu Salvaggio x Blaze Type. All rights reserved.
</metadata>
<defs>
<font id="Area-ExtraboldInktrapItalic" horiz-adv-x="2048" >
  <font-face 
    font-family="Area Extrabold Inktrap Italic"
    font-weight="800"
    font-style="italic"
    font-stretch="normal"
    units-per-em="2048"
    panose-1="0 0 9 0 0 0 0 0 0 0"
    ascent="1638"
    descent="-410"
    x-height="1139"
    cap-height="1597"
    bbox="-1642 -610 2644 2191"
    underline-thickness="102"
    underline-position="-307"
    slope="-10"
    unicode-range="U+0020-25CA"
  />
<missing-glyph horiz-adv-x="1406" 
d="M1130 0h-1054l282 1597h1055zM504 1430l-189 -1063l818 1063h-629zM1180 1257l-838 -1087h645z" />
    <glyph glyph-name=".notdef" horiz-adv-x="1406" 
d="M1130 0h-1054l282 1597h1055zM504 1430l-189 -1063l818 1063h-629zM1180 1257l-838 -1087h645z" />
    <glyph glyph-name=".null" horiz-adv-x="0" 
 />
    <glyph glyph-name="nonmarkingreturn" horiz-adv-x="682" 
 />
    <glyph glyph-name="space" unicode=" " horiz-adv-x="503" 
 />
    <glyph glyph-name="exclam" unicode="!" horiz-adv-x="569" 
d="M336 467h-135l104 971l29 159h266l-29 -159zM182 -14q-58 0 -95.5 38t-37.5 97q0 77 59 133.5t132 56.5q58 0 96.5 -39t38.5 -96q0 -72 -59 -131t-134 -59z" />
    <glyph glyph-name="quotedbl" unicode="&#x22;" horiz-adv-x="866" 
d="M449 1079h-234l92 518h234zM825 1079h-233l92 518h234z" />
    <glyph glyph-name="numbersign" unicode="#" horiz-adv-x="1564" 
d="M356 0h-217q5 13 23 60t24.5 63t22.5 56t26.5 63.5t26 59.5t32 70t34.5 70q-53 -15 -108.5 -22.5t-84.5 -8.5t-86 -1l76 200q57 0 84 -0.5t74 -7.5t84 -20q62 200 147 362q-52 -15 -104 -23t-82 -9t-82 -1l78 201q156 0 256 -29q39 201 157 514h217q-122 -322 -215 -514
q109 22 199.5 22t194.5 -22q39 201 157 514h217q-122 -322 -215 -514q119 29 291 29l-78 -201q-57 0 -89 1t-85 9t-104 23q-10 -96 -38.5 -178.5t-84.5 -183.5q53 13 108.5 20t84.5 7.5t87 0.5l-75 -200q-58 0 -86.5 1t-81.5 8.5t-101 22.5q-32 -179 -131 -442h-217
q5 13 23 60t24.5 63t22.5 56t26.5 63.5t26 59.5t32 70t34.5 70q-110 -25 -202 -25t-192 25q-13 -77 -36.5 -161.5t-42.5 -139t-52 -141.5zM551 582q109 22 199.5 22t193.5 -22q10 96 38.5 177t84.5 185q-109 -25 -199.5 -25t-193.5 25q-9 -94 -37.5 -176.5t-85.5 -185.5z
" />
    <glyph glyph-name="dollar" unicode="$" horiz-adv-x="1249" 
d="M725 903l102 -37q29 -9 41.5 -13.5t43 -16t47 -20t43.5 -25t43 -32t35.5 -38.5t29.5 -48t17.5 -57.5t7.5 -68.5q0 -123 -72 -227.5t-199.5 -168.5t-283.5 -69l-29 -164h-70l29 166q-181 11 -293.5 109.5t-130.5 275.5l240 72q18 -107 78 -164t147 -68l65 371l-65 20
q-41 12 -75 25t-82.5 40.5t-81.5 60.5t-57 86t-24 116q0 114 68.5 217.5t191 170t267.5 71.5l26 151h70l-27 -153q163 -13 265.5 -104.5t113.5 -215.5l-225 -96q-15 76 -65.5 127t-127.5 66zM494 1087q0 -60 41.5 -95t123.5 -66l60 340q-97 -3 -161 -54t-64 -125zM682 659
l-64 -354q105 4 175.5 61t70.5 136q0 35 -14 61.5t-43 44.5t-56 28.5t-69 22.5z" />
    <glyph glyph-name="percent" unicode="%" horiz-adv-x="1875" 
d="M395 737q-116 0 -179.5 81t-63.5 222q0 130 51 245.5t141.5 186t198.5 70.5q116 0 179.5 -82t63.5 -223q0 -130 -51 -245t-141.5 -185t-198.5 -70zM381 0h-227l1396 1468h219zM426 918q40 0 77 50.5t58 124t21 144.5q0 62 -19 93.5t-51 31.5q-40 0 -77 -50t-58 -124
t-21 -146q0 -124 70 -124zM1401 -29q-116 0 -180 81t-64 222q0 130 51 245.5t141.5 186t198.5 70.5q116 0 180 -82t64 -223q0 -130 -51 -245t-141.5 -185t-198.5 -70zM1432 152q40 0 76.5 50.5t57.5 124t21 144.5q0 62 -18.5 93.5t-50.5 31.5q-40 0 -77 -50t-58 -124
t-21 -146q0 -124 70 -124z" />
    <glyph glyph-name="ampersand" unicode="&#x26;" horiz-adv-x="1462" 
d="M467 -35q-122 0 -217.5 39.5t-153 119.5t-57.5 189q0 287 446 504q-180 162 -180 352q0 90 40.5 174.5t109 147.5t163.5 101t199 38q171 0 269 -95t98 -237q0 -80 -32.5 -150t-94 -127.5t-132 -102.5t-163.5 -89l260 -331q10 44 25 91.5t23.5 70t33.5 82t29 69.5l221 -45
q-55 -128 -114 -221t-138 -154l317 -389h-319l-156 227q-182 -264 -477 -264zM688 924q110 79 173 159t63 172q0 75 -41 115.5t-109 40.5q-89 0 -149 -63t-60 -154q0 -66 31 -127.5t92 -142.5zM522 190q80 0 157 35.5t177 108.5l-283 373q-69 -47 -109 -78t-83 -74
t-62.5 -87t-19.5 -93q0 -85 61.5 -135t161.5 -50z" />
    <glyph glyph-name="quotesingle" unicode="'" horiz-adv-x="489" 
d="M449 1079h-234l92 518h234z" />
    <glyph glyph-name="parenleft" unicode="(" horiz-adv-x="698" 
d="M532 -307h-253q-199 298 -199 692q0 320 141 642.5t393 569.5h254q-248 -247 -390 -568.5t-142 -641.5q0 -393 196 -694z" />
    <glyph glyph-name="parenright" unicode=")" horiz-adv-x="696" 
d="M111 -307h-254q250 249 392 571t142 639q0 393 -198 694h253q199 -298 199 -692q0 -321 -142 -644.5t-392 -567.5z" />
    <glyph glyph-name="asterisk" unicode="*" horiz-adv-x="800" 
d="M543 1026h-127l35 182l-175 -96l-43 109l189 92l-156 88l82 108l139 -92l29 180h127l-33 -180l172 92l43 -108l-184 -88l154 -92l-84 -109l-138 96z" />
    <glyph glyph-name="plus" unicode="+" horiz-adv-x="1048" 
d="M657 719h297l-32 -191h-299l-56 -315h-205l58 315h-303l33 191h303l57 317h203z" />
    <glyph glyph-name="comma" unicode="," horiz-adv-x="505" 
d="M51 -274h-139q53 73 74 101t65.5 77t91.5 86q-53 7 -82.5 44t-29.5 87q0 76 59 133t135 57q59 0 97 -37.5t38 -97.5q0 -52 -39 -110t-191 -243q-50 -62 -79 -97z" />
    <glyph glyph-name="hyphen" unicode="-" horiz-adv-x="872" 
d="M745 520h-634l36 207h635z" />
    <glyph glyph-name="period" unicode="." horiz-adv-x="516" 
d="M170 -14q-58 0 -95.5 38t-37.5 97q0 75 58 132.5t134 57.5q58 0 95.5 -38t37.5 -95q0 -73 -59 -132.5t-133 -59.5z" />
    <glyph glyph-name="slash" unicode="/" horiz-adv-x="925" 
d="M176 -135h-229l870 1773h230z" />
    <glyph glyph-name="zero" unicode="0" horiz-adv-x="1433" 
d="M608 -35q-229 0 -357 164.5t-128 450.5q0 129 26.5 258t74.5 245t119 216.5t156.5 173.5t190.5 115t217 42q229 0 357.5 -165.5t128.5 -452.5q0 -128 -26.5 -256t-74 -244t-118.5 -216.5t-156.5 -173.5t-191 -115t-218.5 -42zM647 205q131 0 240.5 119t169 300t59.5 373
q0 193 -65 293.5t-183 100.5q-97 0 -186.5 -69.5t-151 -181.5t-98.5 -254.5t-37 -285.5q0 -194 67 -294.5t185 -100.5z" />
    <glyph glyph-name="one" unicode="1" horiz-adv-x="825" 
d="M539 0h-258q4 25 22.5 128t24.5 135.5t22.5 125.5t25.5 137.5t25.5 128.5t29 141.5t29.5 134.5t34 149.5t36 146.5q-182 -213 -409 -256l47 264q152 39 265.5 140.5t135.5 221.5h250z" />
    <glyph glyph-name="two" unicode="2" horiz-adv-x="1290" 
d="M1081 0h-1065l4 29q21 94 49 168.5t70.5 140t88.5 117t119 108t144 103.5t181 114q61 36 101 62.5t95 70t87.5 83t56.5 92t24 106.5q0 93 -62 148t-173 55q-154 0 -261.5 -103.5t-138.5 -273.5l-231 41q43 249 233.5 409t446.5 160q205 0 331 -106.5t126 -290.5
q0 -62 -16.5 -122t-41.5 -108t-62 -94.5t-70.5 -79.5t-75.5 -65.5t-69 -50.5t-57 -37q-44 -28 -110.5 -66.5t-109.5 -63.5t-99 -63.5t-95.5 -75t-81.5 -88.5t-75 -112q134 15 283 23t240.5 9t256.5 1z" />
    <glyph glyph-name="three" unicode="3" horiz-adv-x="1329" 
d="M549 -35q-213 0 -361 100.5t-168 264.5l244 112q7 -40 27 -78.5t56.5 -76.5t99 -61t141.5 -23q154 0 254 85.5t100 209.5q0 98 -69.5 154.5t-202.5 56.5h-162l37 209h153q139 0 232.5 79.5t93.5 194.5q0 95 -67 149t-175 54q-122 0 -217.5 -71t-134.5 -198l-225 52
q60 195 237.5 323.5t403.5 128.5q197 0 325.5 -97.5t128.5 -264.5q0 -157 -105.5 -277t-266.5 -137l-4 -33q144 -12 219.5 -88t75.5 -205q0 -106 -50.5 -208t-137 -180.5t-213.5 -126.5t-269 -48z" />
    <glyph glyph-name="four" unicode="4" horiz-adv-x="1357" 
d="M973 0h-250q15 81 24 127.5t28 116t44 135.5q-413 -35 -813 -4l37 198l967 1024h243q-118 -674 -215 -1048q105 24 254 24l-37 -219q-147 0 -245 25q5 -163 -37 -379zM283 553q151 22 284.5 21.5t282.5 -25.5q20 360 135 776q-346 -410 -702 -772z" />
    <glyph glyph-name="five" unicode="5" horiz-adv-x="1333" 
d="M541 -35q-133 0 -246 44t-190.5 130t-98.5 201l232 133q28 -138 124 -208t220 -70q166 0 283.5 116t117.5 269q0 118 -75 187t-199 69q-108 0 -194 -51.5t-146 -137.5l-201 62l348 888h823l-41 -225q-141 0 -220 1t-205.5 9t-237.5 23q-27 -141 -76 -262t-141 -266h31
q157 165 362 165q63 0 124 -13.5t120 -45.5t103 -78t71.5 -117t27.5 -157q0 -125 -55 -245.5t-148.5 -213.5t-228.5 -150t-284 -57z" />
    <glyph glyph-name="six" unicode="6" horiz-adv-x="1384" 
d="M606 -35q-234 0 -365.5 141.5t-131.5 415.5q0 134 32.5 270.5t91.5 258.5t145 228.5t188 184t226 122t255 44.5q255 0 378 -145l-174 -185q-97 97 -260 97q-204 0 -362 -163t-254 -454h33q82 131 199.5 196.5t248.5 65.5q193 0 318.5 -118.5t125.5 -315.5
q0 -98 -33 -193.5t-96 -176t-147 -142t-192.5 -96.5t-225.5 -35zM655 195q147 0 260 111t113 259q0 119 -75.5 190.5t-188.5 71.5q-148 0 -262.5 -114.5t-114.5 -259.5q0 -116 76.5 -187t191.5 -71z" />
    <glyph glyph-name="seven" unicode="7" horiz-adv-x="1193" 
d="M455 0h-273q27 151 90.5 321t164 356.5t253.5 378.5t338 353l-12 31q-136 -23 -296.5 -34.5t-262 -13t-283.5 -1.5l39 219h1126l-41 -224q-176 -136 -326.5 -316.5t-253 -367t-169 -365t-94.5 -337.5z" />
    <glyph glyph-name="eight" unicode="8" horiz-adv-x="1359" 
d="M575 -35q-228 0 -368.5 112t-140.5 294q0 169 117 298t294 152l6 37q-219 55 -219 266q0 96 47 188t126.5 162t192.5 113t238 43q197 0 323 -101t126 -274q0 -149 -93.5 -257.5t-246.5 -139.5l-6 -37q131 -19 205.5 -100.5t74.5 -210.5q0 -106 -52 -205.5t-141 -174
t-215.5 -120t-267.5 -45.5zM748 942q126 0 215.5 83.5t89.5 191.5q0 87 -62.5 140.5t-161.5 53.5q-124 0 -214.5 -81t-90.5 -191q0 -88 63 -142.5t161 -54.5zM612 190q156 0 266.5 100.5t110.5 235.5q0 103 -72.5 163.5t-199.5 60.5q-164 0 -270.5 -93.5t-106.5 -228.5
q0 -112 76 -175t196 -63z" />
    <glyph glyph-name="nine" unicode="9" horiz-adv-x="1398" 
d="M502 -35q-149 0 -272.5 57.5t-186.5 157.5l170 176q115 -168 315 -168q141 0 261 84.5t200.5 232.5t114.5 339h-33q-67 -152 -187.5 -229.5t-265.5 -77.5q-122 0 -223 51t-163 152t-62 235q0 123 53.5 241.5t145 210t224.5 147.5t281 56q85 0 157 -18.5t135 -60.5
t107 -106t69.5 -160t25.5 -218q0 -156 -39.5 -314t-116.5 -299t-180.5 -250.5t-241 -174t-288.5 -64.5zM705 750q100 0 189 57t141 149t52 191q0 119 -76 186.5t-190 67.5q-101 0 -189 -54t-139 -143.5t-51 -189.5q0 -122 75.5 -193t187.5 -71z" />
    <glyph glyph-name="colon" unicode=":" horiz-adv-x="573" 
d="M334 834q-58 0 -95.5 39t-37.5 98q0 74 58 131t134 57q57 0 95 -38t38 -95q0 -73 -59 -132.5t-133 -59.5zM184 -12q-58 0 -95.5 38t-37.5 97q0 75 58 131.5t135 56.5q58 0 95.5 -37.5t37.5 -93.5q0 -74 -59 -133t-134 -59z" />
    <glyph glyph-name="semicolon" unicode=";" horiz-adv-x="604" 
d="M356 834q-59 0 -97 39t-38 98q0 74 58.5 131t132.5 57q58 0 96.5 -38t38.5 -95q0 -72 -58.5 -132t-132.5 -60zM82 -287h-143l200 289q-33 17 -51 49t-18 70q0 75 58.5 132.5t133.5 57.5q58 0 95.5 -37.5t37.5 -93.5q0 -57 -53 -135.5t-260 -331.5z" />
    <glyph glyph-name="less" unicode="&#x3c;" horiz-adv-x="1040" 
d="M872 436l-30 -182l-729 233l43 256l813 234l-33 -182l-627 -181z" />
    <glyph glyph-name="equal" unicode="=" horiz-adv-x="1093" 
d="M985 733h-819l35 191h819zM907 295h-817l33 190h819z" />
    <glyph glyph-name="greater" unicode="&#x3e;" horiz-adv-x="1038" 
d="M899 487l-811 -233l33 182l627 178l-566 181l33 182l729 -234z" />
    <glyph glyph-name="question" unicode="?" horiz-adv-x="1200" 
d="M649 479h-260q4 56 8 74q10 56 34.5 102.5t67.5 87.5t89.5 73t116.5 73q34 20 60 37t64 49t63 63.5t43.5 75t18.5 88.5q0 88 -62.5 140.5t-160.5 52.5q-124 0 -219.5 -83.5t-118.5 -215.5q-1 -6 -4 -43l-225 41q0 27 4 39q19 113 79 207.5t144.5 157.5t188.5 97.5
t213 34.5q189 0 315.5 -100t126.5 -275q0 -54 -14 -105.5t-34.5 -92t-53.5 -81.5t-60 -68t-66.5 -58.5t-60.5 -46t-53 -35.5q-119 -77 -156 -110q-72 -64 -84 -136q-4 -28 -4 -43zM453 -14q-60 0 -99 39t-39 96q0 74 58 132t133 58q57 0 96 -38.5t39 -96.5q0 -73 -58 -131.5
t-130 -58.5z" />
    <glyph glyph-name="at" unicode="@" horiz-adv-x="1947" 
d="M811 -195q-183 0 -324.5 50t-230 139.5t-133.5 208.5t-45 262q0 142 45 286.5t124.5 272.5t193 240t245 192.5t286.5 127t312 46.5q308 0 493 -168t185 -461q0 -141 -45.5 -280.5t-121.5 -247t-184 -174t-225 -66.5q-229 0 -174 256h-26q-168 -249 -410 -249
q-140 0 -214.5 81t-74.5 214q0 114 54.5 233.5t140.5 212t198.5 152t221.5 59.5q207 0 227 -217h27q-3 40 3.5 79t12.5 56t21 55h176l-191 -549q-34 -106 -31 -155q4 -82 85 -82q88 0 169 90t129 229t48 281q0 240 -138 367t-385 127q-164 0 -318.5 -56.5t-275 -154.5
t-211.5 -224t-139.5 -270.5t-48.5 -288.5q0 -249 149 -382.5t439 -133.5q306 0 555 160l63 -129q-143 -99 -318.5 -144t-338.5 -45zM870 422q71 0 141.5 38.5t121.5 98.5t82.5 134t31.5 143q0 79 -43.5 125.5t-120.5 46.5q-94 0 -182.5 -64t-141 -160.5t-52.5 -189.5
q0 -80 43 -126t120 -46z" />
    <glyph glyph-name="A" unicode="A" horiz-adv-x="1552" 
d="M178 0h-268l901 1597h297l338 -1597h-277q-21 97 -31 149.5t-21.5 146t-10.5 171.5l-21 22q-164 -34 -327 -34q-176 0 -320 34l-28 -24q-65 -175 -232 -465zM539 682l14 -20q120 34 250 34q124 0 225 -34l19 20q-52 187 -76.5 344.5t-20.5 347.5h-65
q-68 -195 -150 -355.5t-196 -336.5z" />
    <glyph glyph-name="B" unicode="B" horiz-adv-x="1460" 
d="M741 0h-657l283 1597h639q206 0 316 -94.5t110 -249.5q0 -152 -100 -265.5t-269 -151.5l-6 -37q154 -28 227.5 -99.5t73.5 -197.5q0 -102 -46.5 -194.5t-127.5 -160t-196.5 -107.5t-246.5 -40zM469 895l25 -21q59 20 120 30.5t98.5 12t98.5 1.5q152 0 246 70t94 181
q0 66 -37.5 110t-94.5 62.5t-130 18.5q-8 0 -47.5 -0.5t-51.5 0t-45.5 2.5t-53.5 6.5t-49.5 12.5t-57.5 20l-35 -21q6 -232 -80 -485zM346 227l27 -30q140 41 338 41q176 0 274 72.5t98 185.5q0 101 -78 149.5t-200 48.5q-69 0 -108 1.5t-103.5 11.5t-120.5 30l-35 -20
q-6 -270 -92 -490z" />
    <glyph glyph-name="C" unicode="C" horiz-adv-x="1703" 
d="M803 -35q-315 0 -502.5 181t-187.5 491q0 193 76 375t204.5 318t309 218t378.5 82q253 0 426.5 -131t212.5 -360l-254 -97q-38 160 -148.5 252t-281.5 92q-110 0 -211.5 -40t-180 -109.5t-138 -159.5t-90.5 -195.5t-31 -211.5q0 -97 26.5 -176t70.5 -131t105 -87.5
t127 -51t138 -15.5q200 0 354 114t244 300l223 -82q-138 -279 -365 -427.5t-505 -148.5z" />
    <glyph glyph-name="D" unicode="D" horiz-adv-x="1634" 
d="M702 0h-618l283 1597h600q165 0 288 -44t198.5 -126.5t112 -193t36.5 -250.5q0 -150 -41 -294.5t-120 -268.5t-187 -218.5t-250.5 -148t-301.5 -53.5zM346 227l27 -30q100 27 161.5 34t135.5 7q128 0 235.5 35t184.5 97t131 147t80 185.5t26 212.5q0 105 -24.5 185
t-64.5 128.5t-99 79t-120.5 41.5t-135.5 11q-109 0 -169.5 7t-129.5 34l-35 -21q-21 -590 -203 -1153z" />
    <glyph glyph-name="E" unicode="E" horiz-adv-x="1333" 
d="M1137 0h-1053l283 1597h1032l-43 -237h-72.5h-76.5t-71.5 0.5t-77 1t-73 2t-79.5 3.5t-75.5 5t-82.5 7t-79 9.5t-85 12.5l-35 -21q8 -221 -78 -475l16 -22q135 26 280 38.5t232 14.5t242 2l-45 -248q-153 0 -242.5 2t-226.5 15.5t-260 40.5l-27 -21q-9 -278 -94 -500
l27 -30q140 20 294.5 30t248.5 11.5t262 1.5z" />
    <glyph glyph-name="F" unicode="F" horiz-adv-x="1269" 
d="M340 0h-256l283 1597h1013l-43 -241q-161 0 -250 1.5t-232.5 12t-270.5 31.5l-35 -21q9 -254 -94 -506l18 -20q135 26 279 38.5t229 14.5t236 2l-43 -247q-153 0 -238 2t-223 14.5t-260 38.5l-29 -21q-8 -268 -84 -696z" />
    <glyph glyph-name="G" unicode="G" horiz-adv-x="1781" 
d="M770 -35q-296 0 -476.5 178t-180.5 486q0 155 47.5 305t136.5 274.5t207 219.5t267 148.5t308 53.5q256 0 430 -133t211 -358l-254 -97q-38 160 -148 252t-280 92q-136 0 -259.5 -61.5t-208.5 -161.5t-135 -229.5t-50 -263.5q0 -123 42 -215.5t112 -144t151 -76.5
t170 -25q188 0 351 110t290 320l-22 31q-233 -70 -533 -70l37 213h719l-143 -813h-201q2 12 6.5 51t8 60t11 56.5t19.5 70t29 71.5l-39 13q-228 -357 -623 -357z" />
    <glyph glyph-name="H" unicode="H" horiz-adv-x="1658" 
d="M340 0h-256l283 1597h256q-83 -458 -152 -698l25 -20q221 39 404 39.5t376 -39.5l33 20q17 282 94 698h258l-283 -1597h-258q69 407 152 694l-29 23q-386 -86 -774 0l-35 -23q-7 -123 -24 -255.5t-29.5 -206.5t-40.5 -232z" />
    <glyph glyph-name="I" unicode="I" horiz-adv-x="622" 
d="M340 0h-256l283 1597h256z" />
    <glyph glyph-name="J" unicode="J" horiz-adv-x="1255" 
d="M485 -35q-115 0 -208.5 33t-159.5 97.5t-91.5 170t-0.5 240.5l10 51l258 35l-8 -47q-31 -162 35 -250t194 -88q50 0 92.5 14t72.5 35.5t55.5 55t40.5 64t28.5 71.5t19.5 68t13 63l178 1019h258l-172 -974q-7 -42 -13 -71.5t-20 -85t-29.5 -96.5t-42.5 -96.5t-58.5 -95.5
t-77.5 -82.5t-99 -69.5t-123.5 -44t-151.5 -17z" />
    <glyph glyph-name="K" unicode="K" horiz-adv-x="1433" 
d="M340 0h-256l283 1597h256q-3 -15 -16.5 -93t-17.5 -99t-17 -90.5t-20.5 -101t-22.5 -94t-28.5 -106t-32.5 -101.5t-40 -113h33q390 384 844 798h305q-488 -451 -783 -698l-6 -35q99 -130 202 -292t166 -271t171 -301h-313q-9 16 -27 47q-221 390 -323 603q-15 32 -29 63
h-25q-70 -72 -121 -116t-106 -75q-17 -199 -76 -522z" />
    <glyph glyph-name="L" unicode="L" horiz-adv-x="1198" 
d="M1077 0h-993l283 1597h256q-49 -278 -81 -453.5t-86 -435t-110 -481.5l27 -30q128 20 271 30t231 11.5t245 1.5z" />
    <glyph glyph-name="M" unicode="M" horiz-adv-x="2078" 
d="M344 0h-260l283 1597h284q229 -653 326 -1261h45q319 612 770 1261h287l-283 -1597h-262q6 36 31.5 178.5t35.5 196.5t35.5 180.5t45 208t51 196.5t65.5 224h-33q-152 -256 -423 -683.5t-316 -500.5h-172q-11 39 -139 490.5t-185 693.5h-32q-3 -105 -12.5 -219.5
t-17 -190t-28.5 -212t-28 -178.5t-36 -203.5t-32 -180.5z" />
    <glyph glyph-name="N" unicode="N" horiz-adv-x="1675" 
d="M340 0h-256l283 1597h235q191 -325 333 -610.5t267 -617.5h33q50 492 184 1228h258l-282 -1597h-238q-202 339 -343.5 610.5t-262.5 587.5h-33q-21 -212 -55 -449t-54.5 -356.5t-68.5 -392.5z" />
    <glyph glyph-name="O" unicode="O" horiz-adv-x="1783" 
d="M786 -35q-146 0 -271 48.5t-214 135.5t-139.5 214t-50.5 278q0 189 78 370t207 317t309 219t372 83q198 0 351.5 -85t239 -240t85.5 -355q0 -151 -49.5 -298.5t-140.5 -270t-209.5 -216.5t-266 -147t-301.5 -53zM829 209q129 0 249.5 59.5t207 156.5t139 225.5
t52.5 262.5q0 210 -121.5 341.5t-317.5 131.5q-127 0 -248 -59.5t-208.5 -156.5t-141 -226.5t-53.5 -263.5q0 -212 124 -341.5t318 -129.5z" />
    <glyph glyph-name="P" unicode="P" horiz-adv-x="1378" 
d="M340 0h-256l283 1597h600q26 0 48 -1t73 -8.5t91.5 -21.5t90 -43.5t83 -70.5t56.5 -106.5t23 -147.5q0 -92 -27 -179.5t-82 -164t-131.5 -134t-182 -91t-227.5 -33.5q-73 0 -118.5 2.5t-113 16.5t-126.5 42q-15 -272 -84 -657zM449 797l26 -19q126 56 299 56
q166 0 274.5 81t108.5 226q0 219 -283 219q-62 0 -97 1.5t-90.5 11t-102.5 28.5l-35 -21q-3 -290 -100 -583z" />
    <glyph glyph-name="Q" unicode="Q" horiz-adv-x="1806" 
d="M1577 -88l-211 -156q-66 93 -107 168.5t-61 157.5q-184 -117 -401 -117q-200 0 -355.5 83t-243 237.5t-87.5 357.5q0 190 78.5 371t209.5 316.5t313 217.5t378 82q202 0 358.5 -85.5t243 -240t86.5 -352.5q0 -230 -111.5 -435.5t-310.5 -338.5q44 -35 88 -86t69.5 -87
t63.5 -93zM842 184q119 0 260 54q-54 36 -107.5 96t-86.5 109t-81 126l213 154q162 -248 207 -410q115 105 186.5 271t71.5 331q0 210 -122.5 340.5t-333.5 130.5q-137 0 -261.5 -58.5t-213.5 -155.5t-142 -227t-53 -269q0 -223 128 -357.5t335 -134.5z" />
    <glyph glyph-name="R" unicode="R" horiz-adv-x="1431" 
d="M340 0h-256l283 1597h600q22 0 42.5 -1t71 -8.5t91.5 -21.5t92 -44.5t85.5 -71.5t58.5 -108t24 -150q0 -221 -146.5 -370.5t-386.5 -164.5l-4 -32q26 -33 51 -67t49.5 -72.5t42.5 -66.5t43 -73t37.5 -67t38.5 -73t34 -67l36 -72t33 -67h-289l-297 604q-141 11 -250 53
q-12 -274 -84 -657zM446 784l27 -20q54 19 112 29t97.5 12t99.5 2q159 1 266 96.5t107 233.5q0 62 -24 107.5t-65 70.5t-88 37t-99 12q-63 0 -98 1t-90.5 10t-106.5 26l-35 -21q0 -292 -103 -596z" />
    <glyph glyph-name="S" unicode="S" horiz-adv-x="1331" 
d="M578 -35q-225 0 -373 121t-166 350l254 84q16 -166 105.5 -242.5t222.5 -76.5q146 0 244 76.5t98 185.5q0 38 -15 68.5t-35 50t-56 37.5t-61.5 27t-68.5 23q-11 3 -16 5l-138 45q-51 16 -89.5 32t-92 48.5t-88.5 70t-60.5 98t-25.5 132.5q0 102 47.5 198.5t129 169.5
t199 117.5t249.5 44.5q110 0 200.5 -30.5t149.5 -83t93.5 -119.5t41.5 -142l-252 -96q-19 111 -90.5 174.5t-187.5 63.5q-128 0 -215.5 -69t-87.5 -165q0 -38 17.5 -71t41 -54.5t62.5 -42t66 -31t67 -24.5l155 -53q33 -11 47 -15.5t48.5 -18t52.5 -23t48.5 -28t47.5 -35.5
t39 -43t33.5 -53t19.5 -63t8 -76q0 -106 -50 -208.5t-136.5 -182t-213 -128t-269.5 -48.5z" />
    <glyph glyph-name="T" unicode="T" horiz-adv-x="1302" 
d="M680 0h-258q5 29 29.5 163t32 176.5t30 164.5t34.5 181t33.5 168t38.5 184.5t38.5 171.5t43.5 184q-97 -15 -200 -23t-165 -9t-173 -1l43 237h1255l-43 -237q-111 0 -172.5 1t-161.5 9t-190 23q-56 -491 -215 -1393z" />
    <glyph glyph-name="U" unicode="U" horiz-adv-x="1529" 
d="M657 -35q-100 0 -180 19.5t-134.5 53.5t-93 83t-59 104.5t-28 121.5t-4 130.5t15.5 134.5l174 985h258l-170 -964q-12 -70 -12.5 -130t14 -116t46 -95t87 -62t131.5 -23q78 0 143 24.5t109.5 65t79 97t54.5 115t32 124.5l170 964h258l-174 -985q-18 -96 -46.5 -180
t-84.5 -172.5t-131.5 -151t-192.5 -103t-262 -40.5z" />
    <glyph glyph-name="V" unicode="V" horiz-adv-x="1550" 
d="M825 0h-299l-336 1597h273q194 -948 229 -1355h58q124 282 333.5 677t370.5 678h270z" />
    <glyph glyph-name="W" unicode="W" horiz-adv-x="2355" 
d="M717 0h-324l-190 1597h293q30 -275 46 -439t31.5 -400t20.5 -467h33q234 571 587 1306h293q35 -287 52 -431t39.5 -399.5t33.5 -487.5h33q242 644 561 1318h291l-756 -1597h-317q-53 380 -82 661.5t-37 602.5h-45q-222 -580 -563 -1264z" />
    <glyph glyph-name="X" unicode="X" horiz-adv-x="1376" 
d="M215 -2h-309q450 539 674 793l4 32q-144 268 -387 774h301q164 -341 250 -612h32q211 310 467 612h303q-59 -70 -166.5 -196t-171 -200.5t-155.5 -180t-176 -197.5l-4 -32q127 -245 389 -793h-308q-159 355 -241 627h-33q-175 -261 -469 -627z" />
    <glyph glyph-name="Y" unicode="Y" horiz-adv-x="1427" 
d="M743 0h-258q76 414 115 559q-170 410 -401 1038h276q133 -377 181 -544q44 -151 75 -297h33q30 53 59.5 103.5t64 104.5t58.5 93t64.5 98t59 87.5t64.5 93.5t59.5 84t65 91.5t60.5 85.5h276q-37 -51 -212 -291t-299.5 -407t-256.5 -338q-22 -217 -84 -561z" />
    <glyph glyph-name="Z" unicode="Z" horiz-adv-x="1366" 
d="M1200 0h-1235l37 211q561 617 1180 1188l-13 33q-480 -72 -933 -72l40 237h1188l-37 -213q-529 -569 -1177 -1179l12 -33q464 68 979 68z" />
    <glyph glyph-name="bracketleft" unicode="[" horiz-adv-x="786" 
d="M561 -403h-555l352 2000h555l-39 -219q-68 0 -107 1t-104.5 9t-125.5 23q-98 -810 -285 -1604q66 15 134.5 23t108 9t109.5 1z" />
    <glyph glyph-name="backslash" unicode="\" horiz-adv-x="907" 
d="M725 -135h-229l-244 1773h229z" />
    <glyph glyph-name="bracketright" unicode="]" horiz-adv-x="786" 
d="M438 -403h-555l43 243q69 0 108.5 -1t105 -9t126.5 -23q91 792 285 1604q-143 -33 -352 -33l39 219h553z" />
    <glyph glyph-name="asciicircum" unicode="^" horiz-adv-x="931" 
d="M354 1010h-184l375 587h217l162 -587h-187q-26 106 -38.5 160.5t-26 134.5t-15.5 139h-63q-61 -145 -240 -434z" />
    <glyph glyph-name="underscore" unicode="_" horiz-adv-x="1079" 
d="M879 -242h-955l33 195h954z" />
    <glyph glyph-name="a" unicode="a" horiz-adv-x="1189" 
d="M342 -35q-138 0 -228.5 68.5t-90.5 206.5q0 80 34.5 146.5t96.5 114t140 79.5t173 51q208 41 249 53q97 29 120 81q10 23 10 52q0 70 -49 113t-133 43q-90 0 -165.5 -50.5t-121.5 -148.5l-213 78q53 111 144 184.5t190.5 104t210.5 30.5q202 0 306 -101.5t70 -295.5
l-73 -418q-23 -122 -28.5 -200t1.5 -156h-242q-2 28 -3.5 54t10 69.5t38.5 97.5h-32q-70 -127 -176 -191.5t-238 -64.5zM444 154q125 0 221 89.5t115 192.5l21 119q-33 -20 -79 -36.5t-78 -24.5t-93 -21q-68 -15 -122 -38t-96 -65.5t-42 -95.5q0 -59 42 -89.5t111 -30.5z
" />
    <glyph glyph-name="b" unicode="b" horiz-adv-x="1359" 
d="M664 -35q-129 0 -214 63t-118 179h-33q4 -22 5.5 -43.5t2 -35.5t-2 -36.5t-3.5 -29.5t-5 -32.5t-5 -29.5h-240l289 1638h244q-4 -25 -26.5 -156t-34 -193t-38 -176t-55.5 -214h33q169 272 428 272q193 0 301 -127t108 -337q0 -190 -85 -361t-232.5 -276t-318.5 -105z
M649 195q106 0 197 63.5t143.5 167.5t52.5 219q0 134 -70.5 215.5t-189.5 81.5q-106 0 -199 -63t-147.5 -167t-54.5 -220q0 -135 74 -216t194 -81z" />
    <glyph glyph-name="c" unicode="c" horiz-adv-x="1241" 
d="M553 -35q-223 0 -357.5 129t-134.5 355q0 139 53 270t144.5 231t222.5 160.5t277 60.5q178 0 304 -89t157 -257l-246 -92q-18 103 -86.5 156t-165.5 53q-111 0 -204.5 -64.5t-145.5 -167.5t-52 -218q0 -139 76 -218t201 -79q108 0 203 61.5t157 169.5l209 -88
q-93 -177 -256 -275t-356 -98z" />
    <glyph glyph-name="d" unicode="d" horiz-adv-x="1363" 
d="M487 -35q-198 0 -312 128t-114 343q0 189 84.5 358t232.5 273t320 104q268 0 324 -274h33q11 142 29 282.5t32.5 228t40.5 230.5h242l-225 -1282q-23 -131 -28 -211t1 -145h-242q-3 58 2.5 103t28.5 112h-33q-50 -89 -120.5 -146.5t-143 -80.5t-152.5 -23zM580 197
q107 0 200 63t147 167t54 220q0 134 -73.5 214.5t-192.5 80.5q-107 0 -199 -63t-144.5 -166.5t-52.5 -220.5q0 -133 71 -214t190 -81z" />
    <glyph glyph-name="e" unicode="e" horiz-adv-x="1259" 
d="M549 -35q-221 0 -354.5 129t-133.5 350q0 188 90.5 355t250 269.5t346.5 102.5q68 0 129.5 -14.5t117.5 -44.5t97.5 -77.5t69.5 -114t32.5 -152t-12.5 -193.5l-15 -83h-862q-12 -143 68 -226.5t215 -83.5q103 0 194 57.5t150 157.5l211 -90q-86 -153 -244.5 -247.5
t-349.5 -94.5zM352 692h604q7 70 -11 123.5t-54 85t-82.5 47t-101.5 15.5q-121 0 -216 -75.5t-139 -195.5z" />
    <glyph glyph-name="f" unicode="f" horiz-adv-x="768" 
d="M362 0h-241q39 214 58 316t59.5 289t83.5 341q-92 -26 -209 -26l39 219q128 0 196 -27q-18 83 -2 170q38 193 150 292t280 99q116 0 193 -39l-37 -207q-70 37 -144 37q-35 0 -62.5 -5.5t-46.5 -13t-33.5 -22.5t-23 -28t-16 -37t-10.5 -40t-8 -46q-15 -97 -62 -160
q117 27 322 27l-39 -219q-193 0 -311 26q-13 -155 -37 -332.5t-44 -297.5t-55 -316z" />
    <glyph glyph-name="g" unicode="g" horiz-adv-x="1363" 
d="M467 -483q-67 0 -126 9.5t-117 33t-102.5 59.5t-78.5 93.5t-49 131.5l235 80q46 -200 273 -200q309 0 383 362q1 3 3.5 17.5t3 17.5t3.5 15.5t4 16.5t4 15t5.5 16.5t6 15t7.5 17t9 17t11 18.5h-33q-152 -248 -407 -248q-199 0 -316.5 122.5t-117.5 336.5
q0 138 51.5 268.5t136 226.5t201 154.5t239.5 58.5q135 0 217.5 -71t102.5 -203h33q2 107 24 242h240l-178 -1016q-24 -135 -72.5 -240.5t-111 -173.5t-143 -112t-164 -62t-177.5 -18zM590 236q78 0 151.5 36t126.5 94t85 135.5t32 157.5q0 128 -76 205.5t-194 77.5
q-104 0 -194.5 -60.5t-141.5 -157.5t-51 -204q0 -128 72 -206t190 -78z" />
    <glyph glyph-name="h" unicode="h" horiz-adv-x="1302" 
d="M295 0h-244l289 1638h244q-29 -157 -47 -246.5t-49.5 -224.5t-67.5 -254h33q164 258 417 258q80 0 145.5 -26t114.5 -81.5t65 -141t-3 -205.5l-127 -717h-242l107 610q15 96 5.5 169.5t-58 118t-129.5 44.5q-126 0 -223 -91.5t-126 -248.5z" />
    <glyph glyph-name="i" unicode="i" horiz-adv-x="546" 
d="M408 1333q-59 0 -96.5 37.5t-37.5 95.5q0 72 57.5 128.5t133.5 56.5q58 0 94.5 -36.5t36.5 -92.5q0 -74 -56.5 -131.5t-131.5 -57.5zM295 0h-244l203 1139h242z" />
    <glyph glyph-name="j" unicode="j" horiz-adv-x="546" 
d="M410 1333q-59 0 -96.5 37.5t-37.5 95.5q0 72 57.5 128.5t133.5 56.5q58 0 95.5 -36.5t37.5 -92.5q0 -73 -57 -131t-133 -58zM-147 -483q-128 0 -220 47l39 213q79 -43 166 -43q49 0 86 18t57 40.5t35.5 62.5t20.5 63t12 64l205 1157h242l-203 -1153q-29 -159 -62 -235
q-101 -234 -378 -234z" />
    <glyph glyph-name="k" unicode="k" horiz-adv-x="1138" 
d="M297 0h-246l289 1638h246q-90 -513 -140 -732q-30 -136 -65 -265h33q140 148 239.5 245t272.5 253h291l-537 -459q24 -36 47.5 -72.5t49.5 -79.5t43.5 -71.5t46.5 -80t40.5 -72t44 -80t39.5 -71.5t43 -79.5t39 -73.5h-285q-152 294 -228 464q-16 37 -32 75
q-96 -120 -184 -181q-8 -123 -47 -358z" />
    <glyph glyph-name="l" unicode="l" horiz-adv-x="546" 
d="M295 0h-244l289 1638h244z" />
    <glyph glyph-name="m" unicode="m" horiz-adv-x="2033" 
d="M295 0h-244l203 1139h238q-7 -44 -11.5 -64.5t-20 -67t-40.5 -94.5h33q84 133 191.5 195.5t219.5 62.5q55 0 102.5 -14.5t88 -46.5t65 -89.5t25.5 -135.5h33q167 286 421 286q78 0 143.5 -27t114 -82.5t65.5 -141.5t-1 -203l-125 -717h-244l107 610q28 152 -13.5 242
t-158.5 90q-119 0 -214 -92t-122 -248l-107 -602h-241l108 610q26 149 -16 240.5t-158 91.5q-119 0 -214 -92t-124 -248z" />
    <glyph glyph-name="n" unicode="n" horiz-adv-x="1302" 
d="M295 0h-244l203 1139h238q-7 -39 -12 -63.5t-20.5 -69.5t-39.5 -93h33q164 258 417 258q82 0 147.5 -26t114 -81.5t64 -141t-3.5 -205.5l-127 -717h-242l107 610q28 149 -17.5 240.5t-167.5 91.5q-126 0 -221.5 -91.5t-124.5 -248.5z" />
    <glyph glyph-name="o" unicode="o" horiz-adv-x="1312" 
d="M551 -35q-225 0 -357.5 131t-132.5 353q0 137 53 268t144.5 231.5t224 161.5t281.5 61q224 0 355.5 -131t131.5 -354q0 -138 -52.5 -269t-143 -231t-223 -160.5t-281.5 -60.5zM592 195q111 0 204 64t145 168.5t52 223.5q0 133 -72.5 212t-197.5 79q-114 0 -208 -66.5
t-145 -170.5t-51 -218q0 -133 74 -212.5t199 -79.5z" />
    <glyph glyph-name="p" unicode="p" horiz-adv-x="1359" 
d="M215 -451h-244l283 1590h238q-1 -3 -3.5 -19.5t-3.5 -20.5t-4 -19.5t-4.5 -21.5t-5 -21t-6.5 -24.5t-8 -25t-10.5 -29.5t-12 -31.5t-14.5 -35.5h33q97 151 205 215.5t231 64.5q189 0 300 -123.5t111 -340.5q0 -143 -51 -279t-136.5 -237.5t-203.5 -163.5t-245 -62
q-128 0 -211.5 65t-110.5 193h-33q-3 -48 -7.5 -97.5t-8.5 -89t-11 -90.5t-11.5 -81t-14 -84t-13.5 -76t-14.5 -80.5t-13.5 -75.5zM649 195q106 0 197.5 65t143.5 169t52 218q0 134 -70.5 214.5t-189.5 80.5q-106 0 -199 -63.5t-147.5 -167.5t-54.5 -219q0 -134 74.5 -215.5
t193.5 -81.5z" />
    <glyph glyph-name="q" unicode="q" horiz-adv-x="1363" 
d="M1032 -451h-241q2 13 14.5 84t17 94.5t16 87t20 100.5t21.5 93.5t27.5 108t30.5 104.5h-33q-171 -256 -428 -256q-187 0 -299 127.5t-112 347.5q0 142 50 275.5t134.5 234t202.5 161t247 60.5q270 0 330 -266h33q-2 18 -3 34.5t-1.5 29.5t-0.5 28.5v24t1.5 23.5l2 20
t3 20.5t2.5 17.5t3 19l3 17h240zM582 197q106 0 199 63t147.5 167t54.5 220q0 134 -74.5 214.5t-193.5 80.5q-106 0 -197 -63t-143.5 -166.5t-52.5 -220.5q0 -133 70.5 -214t189.5 -81z" />
    <glyph glyph-name="r" unicode="r" horiz-adv-x="874" 
d="M295 0h-244l203 1139h238q-1 -5 -5 -31.5t-5.5 -36.5t-7.5 -36t-12 -45.5t-16.5 -48.5t-23.5 -60h33q68 144 168 217t219 73q61 0 110 -20l-47 -270q-56 22 -137 22q-74 0 -135.5 -27.5t-102.5 -70t-73 -101.5t-49.5 -114.5t-28.5 -116.5z" />
    <glyph glyph-name="s" unicode="s" horiz-adv-x="1038" 
d="M426 -35q-182 0 -296 87.5t-132 232.5l240 73q22 -95 85.5 -143.5t143.5 -48.5q86 0 145.5 46t59.5 112q0 14 -2.5 26t-9.5 22.5t-12.5 18t-18.5 15.5t-19.5 12.5t-23.5 11t-23.5 9t-26 8.5t-24.5 8l-111 34q-24 7 -38.5 12t-45 18.5t-50.5 27t-46 36.5t-42 48.5t-27 62
t-11 78.5q0 162 137 280.5t340 118.5q161 0 262.5 -79t116.5 -205l-239 -74q-12 70 -57 115t-126 45q-76 0 -130 -43t-54 -105q0 -31 16.5 -56t49 -43t59.5 -28t68 -22l88 -27q101 -33 139 -54q127 -71 127 -218q0 -169 -146 -290.5t-366 -121.5z" />
    <glyph glyph-name="t" unicode="t" horiz-adv-x="856" 
d="M489 -35q-57 0 -102.5 10t-77 25t-54 39.5t-35.5 47.5t-19.5 56t-8.5 57.5t1 58t6 52.5t8 47q65 372 137 588q-111 -26 -264 -26l39 219q150 0 254 -27q-2 34 -2 65.5t2 65.5t4 55t7.5 59.5t7.5 52t9 56.5h244q-37 -216 -96 -354q145 27 358 27l-39 -219q-218 0 -346 26
q-3 -139 -15.5 -236.5t-25 -137.5t-22.5 -96t-10 -124q0 -87 24.5 -126.5t99.5 -39.5q87 0 175 45l-39 -219q-90 -47 -220 -47z" />
    <glyph glyph-name="u" unicode="u" horiz-adv-x="1286" 
d="M442 -35q-187 0 -278 115t-51 344l127 715h243l-110 -629q-27 -152 22 -233.5t156 -81.5q125 0 215 94.5t115 228.5l108 621h244l-139 -783q-21 -128 -26 -202.5t1 -153.5h-244q-1 37 -1 66t11 69t35 90h-32q-75 -138 -171 -199t-225 -61z" />
    <glyph glyph-name="v" unicode="v" horiz-adv-x="1157" 
d="M627 0h-293l-217 1139h266q92 -493 121 -897h45q190 448 436 897h258z" />
    <glyph glyph-name="w" unicode="w" horiz-adv-x="1898" 
d="M584 0h-279l-186 1139h274q29 -201 41 -294t26.5 -261.5t16.5 -321.5h45q20 49 42.5 100t40 91t44 95.5t40.5 85.5t44 91t40 81.5t44 87.5t40.5 79.5t44 86t40.5 79.5h217q35 -216 48 -300t33.5 -254t31.5 -323h43q56 154 131.5 326t120.5 265t141 286h274l-587 -1139
h-289q-82 515 -94 809h-39q-146 -352 -389 -809z" />
    <glyph glyph-name="x" unicode="x" horiz-adv-x="1112" 
d="M193 0h-281q310 369 496 561l4 33q-119 186 -297 545h280q126 -266 172 -434h33q47 77 108 161t99.5 131t118.5 142h274q-311 -367 -489 -545l-6 -33q141 -229 296 -561h-276q-108 227 -174 436h-33q-46 -75 -107 -159t-102 -135t-116 -142z" />
    <glyph glyph-name="y" unicode="y" horiz-adv-x="1171" 
d="M375 -451h-254l231 412l-237 1178h266q101 -511 131 -920h33q186 433 454 920h261z" />
    <glyph glyph-name="z" unicode="z" horiz-adv-x="1060" 
d="M909 0h-942l37 203q218 222 389 389t355 328l-11 32q-225 -37 -587 -37l38 224h879l-35 -203q-6 -6 -84 -84.5t-93 -93t-85 -84t-97 -95t-89 -85t-101.5 -95.5t-93.5 -84.5t-104 -91.5l10 -33q104 15 228.5 23t203.5 9t221 1z" />
    <glyph glyph-name="braceleft" unicode="{" horiz-adv-x="868" 
d="M662 -303h-113q-256 0 -348 108.5t-54 323.5l29 174q8 48 10.5 82t2.5 58.5t-8 40t-15.5 24.5t-26.5 12.5t-33 4.5t-43 1l43 242q30 0 42 0.5t34 4.5t32 12t25 23.5t23.5 40t18.5 59.5t18 83l29 174q13 73 32 128.5t59.5 115.5t98 99t151.5 64t216 25h112l-39 -219h-88
q-63 0 -110 -10.5t-89 -36t-69 -74t-39 -120.5l-26 -146q-10 -60 -18 -95.5t-22 -71.5t-32 -56t-48 -39t-69 -30.5t-96 -20.5l-12 -66q40 -7 67.5 -13.5t50.5 -17t37 -21.5t23.5 -29.5t12.5 -37.5t1.5 -49.5t-6 -62t-12.5 -78.5l-25 -145q-23 -128 30.5 -185t192.5 -57h88z
" />
    <glyph glyph-name="bar" unicode="|" horiz-adv-x="561" 
d="M205 -451h-207l369 2089h206z" />
    <glyph glyph-name="braceright" unicode="}" horiz-adv-x="868" 
d="M12 -303h-112l39 219h88q62 0 108 10t88.5 36t70 75t40.5 121l26 145q11 63 19.5 100.5t23.5 73t32.5 54.5t48 36t67.5 26.5t94 18.5l10 66q-52 9 -85 18.5t-57.5 26.5t-35 36.5t-13.5 55t1.5 74.5t15.5 102l25 146q22 125 -28.5 183t-192.5 58h-88l36 219h113
q259 0 351.5 -109t52.5 -323l-31 -174q-12 -65 -13 -106.5t4 -65.5t25.5 -35t39.5 -13.5t59 -2.5l-43 -242q-23 0 -34 -0.5t-29 -2t-26.5 -5.5t-22 -11.5t-20.5 -19t-16.5 -27.5t-16.5 -39t-14 -52t-14 -66l-31 -174q-14 -76 -35.5 -135t-63.5 -117t-100.5 -96t-149 -61
t-206.5 -23z" />
    <glyph glyph-name="asciitilde" unicode="~" horiz-adv-x="1136" 
d="M745 500q-53 0 -101.5 20t-78.5 43.5t-66 43.5t-67 20q-48 0 -79.5 -36t-39.5 -85h-194q27 149 119 235t204 86q40 0 77 -12.5t64.5 -30t53.5 -35t54.5 -30t56.5 -12.5q89 0 110 118h193q-27 -158 -110.5 -241.5t-195.5 -83.5z" />
    <glyph glyph-name="uni00A0" unicode="&#xa0;" horiz-adv-x="503" 
 />
    <glyph glyph-name="exclamdown" unicode="&#xa1;" horiz-adv-x="540" 
d="M319 846q-58 0 -95.5 38t-37.5 95q0 73 58.5 132.5t134.5 59.5q58 0 95.5 -38t37.5 -97q0 -75 -60.5 -132.5t-132.5 -57.5zM227 -440h-266l27 159l235 965h137l-106 -965z" />
    <glyph glyph-name="cent" unicode="&#xa2;" horiz-adv-x="1138" 
d="M748 1059l-113 -631q74 11 139.5 57.5t106.5 118.5l161 -69q-67 -127 -184 -204t-256 -89l-43 -242h-119l43 244q-153 21 -246.5 126t-93.5 275q0 143 67 274t187 219.5t265 106.5l38 221h119l-39 -219q122 -14 207 -83.5t109 -186.5l-191 -74q-10 65 -53 105t-104 51z
M354 678q0 -98 44.5 -161.5t119.5 -82.5l111 623q-119 -26 -197 -136.5t-78 -242.5z" />
    <glyph glyph-name="sterling" unicode="&#xa3;" horiz-adv-x="1308" 
d="M1120 0h-1104l39 221q189 59 279.5 142t99.5 198q1 5 3 21.5t3 22t3 19.5t4 20.5t5 18.5t6.5 19.5t8 17t10.5 17.5q-142 -21 -350 -21l23 135q164 0 299 -20q-73 90 -110.5 168.5t-37.5 171.5q0 199 160 339t401 140q63 0 122 -10.5t122.5 -40t110.5 -76t79 -125
t35 -180.5l-250 -92q-6 87 -31 148.5t-63 91.5t-76 42.5t-82 12.5q-115 0 -189.5 -74.5t-74.5 -191.5q0 -59 34.5 -163t39.5 -161q176 20 455 20l-25 -135q-233 0 -414 21q47 -44 47 -113q0 -217 -354 -411l17 -33q57 12 116 21.5t102 15.5t108 10.5t93.5 7t100.5 3.5t88 1
h97h89z" />
    <glyph glyph-name="currency" unicode="&#xa4;" horiz-adv-x="1361" 
d="M1143 905q0 -177 -119 -315l203 -301l-172 -131l-207 303q-90 -41 -191 -41q-103 0 -180 41l-313 -303l-127 131l311 303q-37 70 -37 162q0 173 119 315l-203 301l174 131l205 -299q90 41 193 41q106 0 182 -43l309 301l129 -131l-311 -301q35 -72 35 -164zM520 786
q0 -83 46 -131.5t124 -48.5q101 0 172.5 81t71.5 194q0 80 -44.5 128t-121.5 48q-101 0 -174.5 -81t-73.5 -190z" />
    <glyph glyph-name="yen" unicode="&#xa5;" horiz-adv-x="1478" 
d="M764 0h-258q28 155 84 276q-76 -15 -156 -22.5t-123 -8.5t-129 -1l29 172q83 0 129 -1t121.5 -9t146.5 -23q-12 67 -4.5 112.5t39.5 90.5q-76 -15 -153.5 -23t-123.5 -9t-128 -1l28 172q69 0 108.5 -1t105 -9t126.5 -23q-128 299 -368 905h276q179 -484 250 -792h29
q28 47 76.5 128.5t66 110t58 92t79 117.5t101.5 140.5t151 203.5h272q-423 -569 -690 -905q145 33 357 33l-29 -172q-83 0 -129 1t-122.5 9t-147.5 23q15 -45 7.5 -90.5t-42.5 -112.5q76 15 154.5 23t124.5 9t128 1l-28 -172q-87 0 -130.5 1t-120.5 8.5t-147 22.5
q11 -125 -18 -276z" />
    <glyph glyph-name="brokenbar" unicode="&#xa6;" horiz-adv-x="561" 
d="M432 834h-207l144 804h204zM205 -451h-205l139 799h207z" />
    <glyph glyph-name="section" unicode="&#xa7;" horiz-adv-x="1114" 
d="M416 -301q-180 0 -299.5 90t-134.5 236l225 67q22 -98 91.5 -152.5t152.5 -54.5t142.5 48t59.5 114q0 29 -12 51.5t-40 40.5t-49 27.5t-63 26.5l-108 43q-49 19 -86.5 39.5t-78 53t-63 79t-22.5 102.5q0 108 79.5 188t213.5 95l6 36q-192 55 -192 228q0 72 35.5 142
t97 125t153.5 88.5t197 33.5q158 0 258 -76.5t113 -220.5l-236 -74q-19 185 -176 185q-85 0 -141 -46t-56 -112q0 -28 12.5 -52t28 -39t45 -30.5t45.5 -22t48 -18.5l104 -39q42 -15 68 -26.5t65 -34.5t62 -47t40 -62.5t17 -83.5q0 -115 -86.5 -202.5t-214.5 -102.5l-8 -37
q98 -19 147 -70t49 -141q0 -162 -140.5 -278.5t-348.5 -116.5zM524 414l39 -15q96 7 156.5 61.5t60.5 125.5q0 12 -2.5 23.5t-5.5 20t-10.5 17t-12 14t-16.5 12.5t-17 10t-20.5 9.5t-20 8.5t-22.5 8.5t-22 7.5l-60 20q-45 16 -94.5 -4.5t-82 -66t-32.5 -97.5q0 -27 12 -51
t26 -38t41.5 -29t41 -20.5t41.5 -16.5z" />
    <glyph glyph-name="copyright" unicode="&#xa9;" horiz-adv-x="1904" 
d="M848 -35q-206 0 -364.5 82t-247.5 237t-89 361q0 191 78.5 371.5t211 315.5t318 216.5t388.5 81.5q207 0 365 -82.5t245.5 -237t87.5 -358.5q0 -153 -49.5 -300.5t-141.5 -270.5t-213 -217t-274 -146.5t-315 -52.5zM872 106q170 0 325 68.5t264.5 181t174 262.5t64.5 308
q0 258 -161.5 411.5t-422.5 153.5q-169 0 -323 -68t-263 -180t-174 -262.5t-65 -310.5q0 -260 161 -412t420 -152zM930 348q-170 0 -271.5 99t-101.5 266q0 103 40.5 200.5t109.5 171t166.5 118t205.5 44.5q141 0 233.5 -72.5t117.5 -201.5l-170 -62q-15 88 -68.5 133.5
t-136.5 45.5q-134 0 -228 -108.5t-94 -246.5q0 -114 68.5 -171.5t163.5 -57.5q93 0 168.5 54.5t123.5 152.5l148 -51q-75 -151 -199 -232.5t-276 -81.5z" />
    <glyph glyph-name="guillemotleft" unicode="&#xab;" horiz-adv-x="1280" 
d="M596 164h-258l-242 405l2 9l385 405h258q-92 -95 -140 -142t-133 -115t-169 -116l-12 -73q51 -37 95.5 -80t83.5 -95.5t65.5 -93.5t64.5 -104zM1087 164h-256l-241 405l2 9l385 405h256q-85 -89 -137.5 -140.5t-135.5 -118t-167 -114.5l-13 -73q67 -47 127.5 -115
t94 -119.5t85.5 -138.5z" />
    <glyph glyph-name="logicalnot" unicode="&#xac;" horiz-adv-x="1062" 
d="M862 193h-203l62 350h-602l33 190h806z" />
    <glyph glyph-name="registered" unicode="&#xae;" horiz-adv-x="1138" 
d="M596 727q-171 0 -275 102.5t-104 268.5q0 103 42.5 201t114 171t172 117.5t210.5 44.5q169 0 276 -99.5t107 -266.5q0 -139 -72 -263t-198 -200t-273 -76zM614 823q89 0 169 36t136 95t88.5 136t32.5 157q0 130 -82.5 211.5t-216.5 81.5q-87 0 -166.5 -35.5t-136 -94.5
t-90 -136.5t-33.5 -159.5q0 -131 81.5 -211t217.5 -80zM569 940h-98l86 492h191q57 0 105 -30.5t48 -98.5q0 -61 -38.5 -110.5t-100.5 -66.5l92 -186h-106l-86 176h-62zM639 1346l-23 -144h84q41 0 67 24t26 60q0 30 -20 45t-50 15h-84z" />
    <glyph glyph-name="degree" unicode="&#xb0;" horiz-adv-x="749" 
d="M457 1049q-110 0 -180 68t-70 177q0 139 105 247t249 108q110 0 180 -69t70 -177q0 -138 -105.5 -246t-248.5 -108zM481 1188q73 0 129 58.5t56 133.5q0 56 -35.5 92.5t-91.5 36.5q-73 0 -129 -58t-56 -132q0 -58 34.5 -94.5t92.5 -36.5z" />
    <glyph glyph-name="plusminus" unicode="&#xb1;" horiz-adv-x="1101" 
d="M1020 827l-33 -184h-323l-35 -203h321l-32 -182h-842l33 182h317l35 203h-318l35 184h316l41 236h204l-41 -236h322z" />
    <glyph glyph-name="uni00B2" unicode="&#xb2;" horiz-adv-x="700" 
d="M666 754h-557l4 24q27 134 88 210.5t221 168.5q1 0 14 8t17 10.5t17.5 11.5t19.5 13.5t17.5 14t18 16.5t14.5 17t12.5 19t7.5 19.5t3 20.5q0 27 -19.5 43t-54.5 16q-53 0 -92 -37t-51 -102l-174 26q23 130 123.5 209.5t230.5 79.5q109 0 176.5 -56t67.5 -151
q0 -83 -51.5 -150t-126.5 -106q-14 -8 -51.5 -29t-57 -33t-44 -35t-38.5 -48h297z" />
    <glyph glyph-name="uni00B3" unicode="&#xb3;" horiz-adv-x="706" 
d="M373 735q-114 0 -190 50t-85 128l187 86q25 -100 116 -100q50 0 83.5 30t33.5 72q0 74 -102 74h-74l23 135h75q48 0 85.5 27.5t37.5 71.5q0 30 -22 48.5t-58 18.5q-44 0 -77 -27.5t-46 -76.5l-172 41q27 96 122 162.5t218 66.5q103 0 170.5 -47t67.5 -127q0 -67 -45 -127
t-105 -74v-2q47 -9 79 -49t32 -94q0 -109 -102.5 -198t-251.5 -89z" />
    <glyph glyph-name="paragraph" unicode="&#xb6;" horiz-adv-x="1570" 
d="M791 -287h-256l165 942h-145q-186 0 -292.5 104t-106.5 283q0 111 43.5 212t120.5 177t191.5 121t248.5 45h362zM1214 -287h-256l332 1884h256z" />
    <glyph glyph-name="periodcentered" unicode="&#xb7;" horiz-adv-x="608" 
d="M289 477q-71 0 -117.5 47.5t-46.5 118.5q0 92 70.5 161.5t164.5 69.5q70 0 116 -46t46 -115q0 -89 -71 -162.5t-162 -73.5z" />
    <glyph glyph-name="uni00B9" unicode="&#xb9;" horiz-adv-x="507" 
d="M432 754h-194l84 477q-89 -66 -177 -84l37 207q79 27 132.5 73.5t62.5 98.5h190z" />
    <glyph glyph-name="guillemotright" unicode="&#xbb;" horiz-adv-x="1277" 
d="M692 569l-387 -405h-256q82 86 132.5 136t136 119.5t169.5 117.5l15 73q-67 49 -127 116t-95 120t-85 137h256l243 -405zM1184 569l-385 -405h-258q90 93 135 137.5t132.5 116t172.5 119.5l12 73q-51 37 -94.5 80t-83.5 97.5t-64.5 92t-64.5 103.5h258l242 -405z" />
    <glyph glyph-name="onequarter" unicode="&#xbc;" horiz-adv-x="1558" 
d="M432 754h-194l84 477q-89 -66 -177 -84l37 207q79 27 132.5 73.5t62.5 98.5h190zM154 0h-228l1397 1468h219zM1311 -12h-187l25 145h-356l28 154l445 473h180l-82 -465h94l-26 -162h-97zM1217 512l-209 -217h170z" />
    <glyph glyph-name="onehalf" unicode="&#xbd;" horiz-adv-x="1613" 
d="M432 754h-194l84 477q-89 -66 -177 -84l37 207q79 27 132.5 73.5t62.5 98.5h190zM154 0h-228l1397 1468h219zM1444 -12h-557l4 24q27 134 88 210.5t221 168.5q1 0 14 8t17 10.5t17.5 11.5t19.5 13.5t17.5 14t18 16.5t14.5 17t12.5 19t7.5 19.5t3 20.5q0 27 -19 43t-54 16
q-53 0 -92.5 -37t-51.5 -102l-174 26q23 129 124 209t231 80q109 0 176 -56t67 -151q0 -83 -51.5 -150t-126.5 -106q-13 -8 -51 -29t-57 -33t-43.5 -35t-38.5 -48h297z" />
    <glyph glyph-name="threequarters" unicode="&#xbe;" horiz-adv-x="1757" 
d="M373 735q-114 0 -190 50t-85 128l187 86q25 -100 116 -100q50 0 83.5 30t33.5 72q0 74 -102 74h-74l23 135h75q48 0 85.5 27.5t37.5 71.5q0 30 -22 48.5t-58 18.5q-44 0 -77 -27.5t-46 -76.5l-172 41q27 96 122 162.5t218 66.5q103 0 170.5 -47t67.5 -127q0 -67 -45 -127
t-105 -74v-2q47 -9 79 -49t32 -94q0 -109 -102.5 -198t-251.5 -89zM352 0h-227l1397 1468h219zM1509 -12h-186l25 145h-357l29 154l444 473h181l-82 -465h94l-27 -162h-96zM1415 512l-209 -217h170z" />
    <glyph glyph-name="questiondown" unicode="&#xbf;" horiz-adv-x="1181" 
d="M688 846q-58 0 -96.5 38t-38.5 97q0 74 57.5 132t132.5 58q59 0 97.5 -39.5t38.5 -97.5q0 -72 -58 -130t-133 -58zM403 -473q-125 0 -224.5 42.5t-159.5 129t-60 203.5q0 73 26 142.5t59.5 117t87 97t87 73.5t80.5 55q123 79 162 115q67 62 80 133q2 12 2 43h260
q0 -32 -6 -76q-19 -105 -91.5 -177t-213.5 -155q-36 -22 -62.5 -39.5t-65 -49.5t-63 -63t-43 -74.5t-18.5 -88.5q0 -88 61.5 -140.5t159.5 -52.5q125 0 220 82.5t120 214.5q5 42 6 45l223 -41q0 -14 -4 -38q-27 -151 -121 -266t-225 -173.5t-277 -58.5z" />
    <glyph glyph-name="Agrave" unicode="&#xc0;" horiz-adv-x="1552" 
d="M1118 1720h-221l-268 351h311zM178 0h-268l901 1597h297l338 -1597h-277q-21 97 -31 149.5t-21.5 146t-10.5 171.5l-21 22q-164 -34 -327 -34q-176 0 -320 34l-28 -24q-65 -175 -232 -465zM539 682l14 -20q120 34 250 34q124 0 225 -34l19 20q-52 187 -76.5 344.5
t-20.5 347.5h-65q-68 -195 -150 -355.5t-196 -336.5z" />
    <glyph glyph-name="Aacute" unicode="&#xc1;" horiz-adv-x="1552" 
d="M1477 2071l-392 -351h-221l301 351h312zM178 0h-268l901 1597h297l338 -1597h-277q-21 97 -31 149.5t-21.5 146t-10.5 171.5l-21 22q-164 -34 -327 -34q-176 0 -320 34l-28 -24q-65 -175 -232 -465zM539 682l14 -20q120 34 250 34q124 0 225 -34l19 20
q-52 187 -76.5 344.5t-20.5 347.5h-65q-68 -195 -150 -355.5t-196 -336.5z" />
    <glyph glyph-name="Acircumflex" unicode="&#xc2;" horiz-adv-x="1552" 
d="M799 1720h-226l345 342h245l226 -342h-226q-32 37 -49 61t-34 69.5t-23 103.5h-66q-41 -83 -86 -134t-106 -100zM178 0h-268l901 1597h297l338 -1597h-277q-21 97 -31 149.5t-21.5 146t-10.5 171.5l-21 22q-164 -34 -327 -34q-176 0 -320 34l-28 -24q-65 -175 -232 -465z
M539 682l14 -20q120 34 250 34q124 0 225 -34l19 20q-52 187 -76.5 344.5t-20.5 347.5h-65q-68 -195 -150 -355.5t-196 -336.5z" />
    <glyph glyph-name="Atilde" unicode="&#xc3;" horiz-adv-x="1552" 
d="M1135 1735q-75 0 -138 53l-47 37q-44 39 -80 39q-38 0 -65.5 -32t-36.5 -81h-174q24 135 109 217t192 82q75 0 139 -55l45 -35q35 -35 72 -35q34 0 58.5 30t33.5 81h176q-26 -144 -100.5 -222.5t-183.5 -78.5zM178 0h-268l901 1597h297l338 -1597h-277q-21 97 -31 149.5
t-21.5 146t-10.5 171.5l-21 22q-164 -34 -327 -34q-176 0 -320 34l-28 -24q-65 -175 -232 -465zM539 682l14 -20q120 34 250 34q124 0 225 -34l19 20q-52 187 -76.5 344.5t-20.5 347.5h-65q-68 -195 -150 -355.5t-196 -336.5z" />
    <glyph glyph-name="Adieresis" unicode="&#xc4;" horiz-adv-x="1552" 
d="M760 1747q-58 0 -94.5 35.5t-36.5 91.5q0 73 55.5 127.5t128.5 54.5q56 0 92.5 -36t36.5 -89q0 -71 -54.5 -127.5t-127.5 -56.5zM1204 1747q-58 0 -93.5 35.5t-35.5 91.5q0 73 55.5 127.5t129.5 54.5q55 0 90.5 -36.5t35.5 -90.5q0 -70 -55 -126t-127 -56zM178 0h-268
l901 1597h297l338 -1597h-277q-21 97 -31 149.5t-21.5 146t-10.5 171.5l-21 22q-164 -34 -327 -34q-176 0 -320 34l-28 -24q-65 -175 -232 -465zM539 682l14 -20q120 34 250 34q124 0 225 -34l19 20q-52 187 -76.5 344.5t-20.5 347.5h-65q-68 -195 -150 -355.5t-196 -336.5z
" />
    <glyph glyph-name="Aring" unicode="&#xc5;" horiz-adv-x="1552" 
d="M977 1712q-95 0 -154 56.5t-59 144.5q0 110 88.5 194t208.5 84q94 0 152.5 -54.5t58.5 -143.5q0 -112 -87.5 -196.5t-207.5 -84.5zM995 1835q57 0 98.5 41.5t41.5 95.5q0 41 -27 67.5t-70 26.5q-57 0 -98 -40t-41 -97q0 -42 26 -68t70 -26zM178 0h-268l901 1597h297
l338 -1597h-277q-21 97 -31 149.5t-21.5 146t-10.5 171.5l-21 22q-164 -34 -327 -34q-176 0 -320 34l-28 -24q-65 -175 -232 -465zM539 682l14 -20q120 34 250 34q124 0 225 -34l19 20q-52 187 -76.5 344.5t-20.5 347.5h-65q-68 -195 -150 -355.5t-196 -336.5z" />
    <glyph glyph-name="AE" unicode="&#xc6;" horiz-adv-x="2162" 
d="M135 0h-285l1194 1597h1186l-43 -237q-167 0 -262 1t-251.5 10t-293.5 26q4 -131 -15 -246.5t-67 -245.5q135 15 285 23t240.5 9t249.5 1l-45 -248q-484 0 -760 33q0 -138 -21.5 -258.5t-70.5 -261.5q144 17 305 26t258.5 10t269.5 1l-41 -240h-1055q3 15 14 73.5
t15.5 80.5t15.5 74t20 85t22 80t28 90q-295 -47 -575 0q-43 -87 -101 -178t-101 -150.5t-116 -154.5zM623 668q123 25 224.5 25t217.5 -25q15 310 111 725h-41q-98 -172 -219 -340.5t-293 -384.5z" />
    <glyph glyph-name="Ccedilla" unicode="&#xc7;" horiz-adv-x="1703" 
d="M852 209q200 0 354 114t244 300l223 -82q-132 -267 -347.5 -415.5t-479.5 -160.5q-40 -38 -139 -108l12 -17q77 49 131 49q68 0 113 -42t45 -113q0 -102 -89 -174t-221 -72q-85 0 -153 33t-103 92l99 96q28 -47 74.5 -70.5t97.5 -23.5q57 0 94 28.5t37 71.5
q0 32 -25.5 51t-68.5 19q-53 0 -95 -27l-67 62l123 149q-276 26 -437 203.5t-161 464.5q0 193 76 375t204.5 318t309 218t378.5 82q253 0 426.5 -131t212.5 -360l-254 -97q-38 160 -148.5 252t-281.5 92q-110 0 -211.5 -40t-180 -109.5t-138 -159.5t-90.5 -195.5t-31 -211.5
q0 -97 26.5 -176t70.5 -131t105 -87.5t127 -51t138 -15.5z" />
    <glyph glyph-name="Egrave" unicode="&#xc8;" horiz-adv-x="1333" 
d="M1034 1720h-221l-268 351h311zM1137 0h-1053l283 1597h1032l-43 -237h-72.5h-76.5t-71.5 0.5t-77 1t-73 2t-79.5 3.5t-75.5 5t-82.5 7t-79 9.5t-85 12.5l-35 -21q8 -221 -78 -475l16 -22q135 26 280 38.5t232 14.5t242 2l-45 -248q-153 0 -242.5 2t-226.5 15.5t-260 40.5
l-27 -21q-9 -278 -94 -500l27 -30q140 20 294.5 30t248.5 11.5t262 1.5z" />
    <glyph glyph-name="Eacute" unicode="&#xc9;" horiz-adv-x="1333" 
d="M1393 2071l-392 -351h-221l301 351h312zM1137 0h-1053l283 1597h1032l-43 -237h-72.5h-76.5t-71.5 0.5t-77 1t-73 2t-79.5 3.5t-75.5 5t-82.5 7t-79 9.5t-85 12.5l-35 -21q8 -221 -78 -475l16 -22q135 26 280 38.5t232 14.5t242 2l-45 -248q-153 0 -242.5 2t-226.5 15.5
t-260 40.5l-27 -21q-9 -278 -94 -500l27 -30q140 20 294.5 30t248.5 11.5t262 1.5z" />
    <glyph glyph-name="Ecircumflex" unicode="&#xca;" horiz-adv-x="1333" 
d="M715 1720h-226l345 342h245l226 -342h-226q-32 37 -49 61t-34 69.5t-23 103.5h-66q-41 -83 -86 -134t-106 -100zM1137 0h-1053l283 1597h1032l-43 -237h-72.5h-76.5t-71.5 0.5t-77 1t-73 2t-79.5 3.5t-75.5 5t-82.5 7t-79 9.5t-85 12.5l-35 -21q8 -221 -78 -475l16 -22
q135 26 280 38.5t232 14.5t242 2l-45 -248q-153 0 -242.5 2t-226.5 15.5t-260 40.5l-27 -21q-9 -278 -94 -500l27 -30q140 20 294.5 30t248.5 11.5t262 1.5z" />
    <glyph glyph-name="Edieresis" unicode="&#xcb;" horiz-adv-x="1333" 
d="M678 1747q-58 0 -94.5 35.5t-36.5 91.5q0 73 55.5 127.5t128.5 54.5q56 0 92.5 -36t36.5 -89q0 -71 -54.5 -127.5t-127.5 -56.5zM1122 1747q-58 0 -93.5 35.5t-35.5 91.5q0 73 55.5 127.5t129.5 54.5q55 0 91 -36.5t36 -90.5q0 -70 -55 -126t-128 -56zM1137 0h-1053
l283 1597h1032l-43 -237h-72.5h-76.5t-71.5 0.5t-77 1t-73 2t-79.5 3.5t-75.5 5t-82.5 7t-79 9.5t-85 12.5l-35 -21q8 -221 -78 -475l16 -22q135 26 280 38.5t232 14.5t242 2l-45 -248q-153 0 -242.5 2t-226.5 15.5t-260 40.5l-27 -21q-9 -278 -94 -500l27 -30
q140 20 294.5 30t248.5 11.5t262 1.5z" />
    <glyph glyph-name="Igrave" unicode="&#xcc;" horiz-adv-x="622" 
d="M653 1720h-221l-268 351h311zM340 0h-256l283 1597h256z" />
    <glyph glyph-name="Iacute" unicode="&#xcd;" horiz-adv-x="622" 
d="M1012 2071l-391 -351h-222l301 351h312zM340 0h-256l283 1597h256z" />
    <glyph glyph-name="Icircumflex" unicode="&#xce;" horiz-adv-x="622" 
d="M334 1720h-225l344 342h245l226 -342h-226q-32 37 -49 61t-34 69.5t-23 103.5h-66q-41 -83 -86 -134t-106 -100zM340 0h-256l283 1597h256z" />
    <glyph glyph-name="Idieresis" unicode="&#xcf;" horiz-adv-x="622" 
d="M295 1747q-58 0 -94.5 35.5t-36.5 91.5q0 73 55.5 127.5t128.5 54.5q56 0 92.5 -36t36.5 -89q0 -71 -54.5 -127.5t-127.5 -56.5zM739 1747q-58 0 -93.5 35.5t-35.5 91.5q0 73 55.5 127.5t129.5 54.5q55 0 91 -36.5t36 -90.5q0 -70 -55 -126t-128 -56zM340 0h-256
l283 1597h256z" />
    <glyph glyph-name="Eth" unicode="&#xd0;" horiz-adv-x="1634" 
d="M367 1597h600q165 0 288 -44t198.5 -126.5t112 -193t36.5 -250.5q0 -150 -41 -294.5t-120 -268.5t-187 -218.5t-250.5 -148t-301.5 -53.5h-618l123 694h-199l35 207h201zM670 238q128 0 235.5 35t184.5 97t131 147t80 185.5t26 212.5q0 105 -24.5 185t-64.5 128.5t-99 79
t-120.5 41.5t-135.5 11q-109 0 -169.5 7t-129.5 34l-35 -21q-9 -251 -45 -479h391l-35 -207h-391q-49 -231 -123 -467l27 -30q100 27 161.5 34t135.5 7z" />
    <glyph glyph-name="Ntilde" unicode="&#xd1;" horiz-adv-x="1675" 
d="M1188 1755q-74 0 -137 53l-47 37q-44 39 -80 39q-39 0 -66.5 -31.5t-36.5 -80.5h-174q24 135 109 217t192 82q74 0 139 -56l46 -35q34 -34 71 -34q35 0 59 29.5t33 80.5h177q-26 -144 -101 -222.5t-184 -78.5zM340 0h-256l283 1597h235q191 -325 333 -610.5t267 -617.5
h33q50 492 184 1228h258l-282 -1597h-238q-202 339 -343.5 610.5t-262.5 587.5h-33q-21 -212 -55 -449t-54.5 -356.5t-68.5 -392.5z" />
    <glyph glyph-name="Ograve" unicode="&#xd2;" horiz-adv-x="1783" 
d="M1231 1720h-221l-269 351h312zM786 -35q-146 0 -271 48.5t-214 135.5t-139.5 214t-50.5 278q0 189 78 370t207 317t309 219t372 83q198 0 351.5 -85t239 -240t85.5 -355q0 -151 -49.5 -298.5t-140.5 -270t-209.5 -216.5t-266 -147t-301.5 -53zM829 209q129 0 249.5 59.5
t207 156.5t139 225.5t52.5 262.5q0 210 -121.5 341.5t-317.5 131.5q-127 0 -248 -59.5t-208.5 -156.5t-141 -226.5t-53.5 -263.5q0 -212 124 -341.5t318 -129.5z" />
    <glyph glyph-name="Oacute" unicode="&#xd3;" horiz-adv-x="1783" 
d="M1589 2071l-391 -351h-221l301 351h311zM786 -35q-146 0 -271 48.5t-214 135.5t-139.5 214t-50.5 278q0 189 78 370t207 317t309 219t372 83q198 0 351.5 -85t239 -240t85.5 -355q0 -151 -49.5 -298.5t-140.5 -270t-209.5 -216.5t-266 -147t-301.5 -53zM829 209
q129 0 249.5 59.5t207 156.5t139 225.5t52.5 262.5q0 210 -121.5 341.5t-317.5 131.5q-127 0 -248 -59.5t-208.5 -156.5t-141 -226.5t-53.5 -263.5q0 -212 124 -341.5t318 -129.5z" />
    <glyph glyph-name="Ocircumflex" unicode="&#xd4;" horiz-adv-x="1783" 
d="M911 1720h-225l344 342h246l225 -342h-225q-33 38 -49.5 61t-34 69t-23.5 104h-65q-41 -83 -86 -133.5t-107 -100.5zM786 -35q-146 0 -271 48.5t-214 135.5t-139.5 214t-50.5 278q0 189 78 370t207 317t309 219t372 83q198 0 351.5 -85t239 -240t85.5 -355
q0 -151 -49.5 -298.5t-140.5 -270t-209.5 -216.5t-266 -147t-301.5 -53zM829 209q129 0 249.5 59.5t207 156.5t139 225.5t52.5 262.5q0 210 -121.5 341.5t-317.5 131.5q-127 0 -248 -59.5t-208.5 -156.5t-141 -226.5t-53.5 -263.5q0 -212 124 -341.5t318 -129.5z" />
    <glyph glyph-name="Otilde" unicode="&#xd5;" horiz-adv-x="1783" 
d="M1257 1755q-74 0 -137 53l-47 37q-44 39 -80 39q-38 0 -65.5 -31.5t-36.5 -80.5h-174q24 135 109 217t192 82q74 0 139 -56l45 -35q34 -34 72 -34q35 0 59 29.5t33 80.5h176q-26 -144 -101 -222.5t-184 -78.5zM786 -35q-146 0 -271 48.5t-214 135.5t-139.5 214t-50.5 278
q0 189 78 370t207 317t309 219t372 83q198 0 351.5 -85t239 -240t85.5 -355q0 -151 -49.5 -298.5t-140.5 -270t-209.5 -216.5t-266 -147t-301.5 -53zM829 209q129 0 249.5 59.5t207 156.5t139 225.5t52.5 262.5q0 210 -121.5 341.5t-317.5 131.5q-127 0 -248 -59.5
t-208.5 -156.5t-141 -226.5t-53.5 -263.5q0 -212 124 -341.5t318 -129.5z" />
    <glyph glyph-name="Odieresis" unicode="&#xd6;" horiz-adv-x="1783" 
d="M874 1747q-58 0 -94.5 35.5t-36.5 91.5q0 73 56 127.5t129 54.5q56 0 92.5 -36t36.5 -89q0 -71 -55 -127.5t-128 -56.5zM1319 1747q-58 0 -93.5 35.5t-35.5 91.5q0 73 55 127.5t129 54.5q55 0 91 -36.5t36 -90.5q0 -70 -55 -126t-127 -56zM786 -35q-146 0 -271 48.5
t-214 135.5t-139.5 214t-50.5 278q0 189 78 370t207 317t309 219t372 83q198 0 351.5 -85t239 -240t85.5 -355q0 -151 -49.5 -298.5t-140.5 -270t-209.5 -216.5t-266 -147t-301.5 -53zM829 209q129 0 249.5 59.5t207 156.5t139 225.5t52.5 262.5q0 210 -121.5 341.5
t-317.5 131.5q-127 0 -248 -59.5t-208.5 -156.5t-141 -226.5t-53.5 -263.5q0 -212 124 -341.5t318 -129.5z" />
    <glyph glyph-name="multiply" unicode="&#xd7;" horiz-adv-x="991" 
d="M373 623l-207 251l160 138l209 -252l286 244l111 -136l-287 -243l203 -248l-162 -135l-201 247l-292 -249l-111 135z" />
    <glyph glyph-name="Oslash" unicode="&#xd8;" horiz-adv-x="1783" 
d="M1548 1661h248l-209 -242q166 -190 166 -469q0 -151 -49.5 -298.5t-140.5 -270t-209.5 -216.5t-266 -147t-301.5 -53q-212 0 -370 96l-109 -127h-246l211 246q-161 182 -161 461q0 189 78 370t207 317t309 219t372 83q206 0 365 -92zM387 680q0 -164 76 -279l801 928
q-102 57 -226 57q-127 0 -248 -59.5t-208.5 -156.5t-141 -226.5t-53.5 -263.5zM1477 913q0 163 -78 287l-803 -930q106 -61 233 -61q129 0 249.5 59.5t207 156.5t139 225.5t52.5 262.5z" />
    <glyph glyph-name="Ugrave" unicode="&#xd9;" horiz-adv-x="1529" 
d="M1110 1720h-221l-268 351h311zM657 -35q-100 0 -180 19.5t-134.5 53.5t-93 83t-59 104.5t-28 121.5t-4 130.5t15.5 134.5l174 985h258l-170 -964q-12 -70 -12.5 -130t14 -116t46 -95t87 -62t131.5 -23q78 0 143 24.5t109.5 65t79 97t54.5 115t32 124.5l170 964h258
l-174 -985q-18 -96 -46.5 -180t-84.5 -172.5t-131.5 -151t-192.5 -103t-262 -40.5z" />
    <glyph glyph-name="Uacute" unicode="&#xda;" horiz-adv-x="1529" 
d="M1411 2071l-391 -351h-221l303 351h309zM657 -35q-100 0 -180 19.5t-134.5 53.5t-93 83t-59 104.5t-28 121.5t-4 130.5t15.5 134.5l174 985h258l-170 -964q-12 -70 -12.5 -130t14 -116t46 -95t87 -62t131.5 -23q78 0 143 24.5t109.5 65t79 97t54.5 115t32 124.5l170 964
h258l-174 -985q-18 -96 -46.5 -180t-84.5 -172.5t-131.5 -151t-192.5 -103t-262 -40.5z" />
    <glyph glyph-name="Ucircumflex" unicode="&#xdb;" horiz-adv-x="1529" 
d="M791 1720h-226l344 342h246l225 -342h-225q-32 37 -49 61t-34 69.5t-23 103.5h-66q-41 -83 -86 -134t-106 -100zM657 -35q-100 0 -180 19.5t-134.5 53.5t-93 83t-59 104.5t-28 121.5t-4 130.5t15.5 134.5l174 985h258l-170 -964q-12 -70 -12.5 -130t14 -116t46 -95
t87 -62t131.5 -23q78 0 143 24.5t109.5 65t79 97t54.5 115t32 124.5l170 964h258l-174 -985q-18 -96 -46.5 -180t-84.5 -172.5t-131.5 -151t-192.5 -103t-262 -40.5z" />
    <glyph glyph-name="Udieresis" unicode="&#xdc;" horiz-adv-x="1529" 
d="M754 1747q-58 0 -94.5 35.5t-36.5 91.5q0 73 55.5 127.5t128.5 54.5q56 0 92.5 -36t36.5 -89q0 -71 -54.5 -127.5t-127.5 -56.5zM1198 1747q-58 0 -93.5 35.5t-35.5 91.5q0 73 55 127.5t129 54.5q55 0 91 -36.5t36 -90.5q0 -70 -55 -126t-127 -56zM657 -35
q-100 0 -180 19.5t-134.5 53.5t-93 83t-59 104.5t-28 121.5t-4 130.5t15.5 134.5l174 985h258l-170 -964q-12 -70 -12.5 -130t14 -116t46 -95t87 -62t131.5 -23q78 0 143 24.5t109.5 65t79 97t54.5 115t32 124.5l170 964h258l-174 -985q-18 -96 -46.5 -180t-84.5 -172.5
t-131.5 -151t-192.5 -103t-262 -40.5z" />
    <glyph glyph-name="Yacute" unicode="&#xdd;" horiz-adv-x="1427" 
d="M1343 2071l-391 -351h-221l301 351h311zM743 0h-258q76 414 115 559q-170 410 -401 1038h276q133 -377 181 -544q44 -151 75 -297h33q30 53 59.5 103.5t64 104.5t58.5 93t64.5 98t59 87.5t64.5 93.5t59.5 84t65 91.5t60.5 85.5h276q-37 -51 -212 -291t-299.5 -407
t-256.5 -338q-22 -217 -84 -561z" />
    <glyph glyph-name="Thorn" unicode="&#xde;" horiz-adv-x="1402" 
d="M340 0h-256l283 1597h256q-24 -131 -78 -274h373q56 0 112 -8.5t122 -35.5t115.5 -69t83 -116t33.5 -170q0 -113 -43 -219.5t-122.5 -192.5t-205 -138t-278.5 -52q-73 0 -118.5 2.5t-113 16.5t-126.5 42q-4 -206 -37 -383zM401 522l25 -18q55 25 115 38t96.5 15t89.5 2
q165 0 273 81t108 226q0 219 -283 219q-62 0 -96.5 1.5t-89.5 11t-102 28.5l-37 -20q-1 -156 -24.5 -291t-74.5 -293z" />
    <glyph glyph-name="germandbls" unicode="&#xdf;" horiz-adv-x="1331" 
d="M295 0h-244l189 1061q14 79 39 155t75 161.5t116.5 148.5t171 105t230.5 42q205 0 326 -103t121 -282q0 -114 -48.5 -211.5t-139 -158.5t-205.5 -68l-8 -45q161 -4 244 -80.5t83 -214.5q0 -101 -45 -193t-126.5 -162.5t-205 -112.5t-270.5 -42h-147l38 219h181
q134 0 227.5 83t93.5 198q0 89 -61 140.5t-158 51.5h-108l36 219h76q122 0 203.5 98t81.5 224q0 100 -59 158.5t-171 58.5q-74 0 -134 -29.5t-95 -69.5t-61 -94t-36 -90.5t-16 -70.5z" />
    <glyph glyph-name="agrave" unicode="&#xe0;" horiz-adv-x="1189" 
d="M846 1278h-211l-244 383h293zM342 -35q-138 0 -228.5 68.5t-90.5 206.5q0 80 34.5 146.5t96.5 114t140 79.5t173 51q208 41 249 53q97 29 120 81q10 23 10 52q0 70 -49 113t-133 43q-90 0 -165.5 -50.5t-121.5 -148.5l-213 78q53 111 144 184.5t190.5 104t210.5 30.5
q202 0 306 -101.5t70 -295.5l-73 -418q-23 -122 -28.5 -200t1.5 -156h-242q-2 28 -3.5 54t10 69.5t38.5 97.5h-32q-70 -127 -176 -191.5t-238 -64.5zM444 154q125 0 221 89.5t115 192.5l21 119q-33 -20 -79 -36.5t-78 -24.5t-93 -21q-68 -15 -122 -38t-96 -65.5t-42 -95.5
q0 -59 42 -89.5t111 -30.5z" />
    <glyph glyph-name="aacute" unicode="&#xe1;" horiz-adv-x="1189" 
d="M1198 1661l-379 -383h-211l297 383h293zM342 -35q-138 0 -228.5 68.5t-90.5 206.5q0 80 34.5 146.5t96.5 114t140 79.5t173 51q208 41 249 53q97 29 120 81q10 23 10 52q0 70 -49 113t-133 43q-90 0 -165.5 -50.5t-121.5 -148.5l-213 78q53 111 144 184.5t190.5 104
t210.5 30.5q202 0 306 -101.5t70 -295.5l-73 -418q-23 -122 -28.5 -200t1.5 -156h-242q-2 28 -3.5 54t10 69.5t38.5 97.5h-32q-70 -127 -176 -191.5t-238 -64.5zM444 154q125 0 221 89.5t115 192.5l21 119q-33 -20 -79 -36.5t-78 -24.5t-93 -21q-68 -15 -122 -38t-96 -65.5
t-42 -95.5q0 -59 42 -89.5t111 -30.5z" />
    <glyph glyph-name="acircumflex" unicode="&#xe2;" horiz-adv-x="1189" 
d="M535 1278h-230l361 367h258l233 -367h-229q-37 51 -53.5 76t-39 72.5t-34.5 97.5h-49q-42 -71 -93.5 -127t-123.5 -119zM342 -35q-138 0 -228.5 68.5t-90.5 206.5q0 80 34.5 146.5t96.5 114t140 79.5t173 51q208 41 249 53q97 29 120 81q10 23 10 52q0 70 -49 113
t-133 43q-90 0 -165.5 -50.5t-121.5 -148.5l-213 78q53 111 144 184.5t190.5 104t210.5 30.5q202 0 306 -101.5t70 -295.5l-73 -418q-23 -122 -28.5 -200t1.5 -156h-242q-2 28 -3.5 54t10 69.5t38.5 97.5h-32q-70 -127 -176 -191.5t-238 -64.5zM444 154q125 0 221 89.5
t115 192.5l21 119q-33 -20 -79 -36.5t-78 -24.5t-93 -21q-68 -15 -122 -38t-96 -65.5t-42 -95.5q0 -59 42 -89.5t111 -30.5z" />
    <glyph glyph-name="atilde" unicode="&#xe3;" horiz-adv-x="1189" 
d="M895 1296q-73 0 -137 54l-47 36q-44 39 -80 39q-39 0 -66.5 -31.5t-36.5 -80.5h-174q24 135 109 217t192 82q75 0 140 -56l45 -34q35 -35 71 -35q35 0 59.5 30t33.5 80h176q-26 -144 -101 -222.5t-184 -78.5zM342 -35q-138 0 -228.5 68.5t-90.5 206.5q0 80 34.5 146.5
t96.5 114t140 79.5t173 51q208 41 249 53q97 29 120 81q10 23 10 52q0 70 -49 113t-133 43q-90 0 -165.5 -50.5t-121.5 -148.5l-213 78q53 111 144 184.5t190.5 104t210.5 30.5q202 0 306 -101.5t70 -295.5l-73 -418q-23 -122 -28.5 -200t1.5 -156h-242q-2 28 -3.5 54
t10 69.5t38.5 97.5h-32q-70 -127 -176 -191.5t-238 -64.5zM444 154q125 0 221 89.5t115 192.5l21 119q-33 -20 -79 -36.5t-78 -24.5t-93 -21q-68 -15 -122 -38t-96 -65.5t-42 -95.5q0 -59 42 -89.5t111 -30.5z" />
    <glyph glyph-name="adieresis" unicode="&#xe4;" horiz-adv-x="1189" 
d="M535 1321q-53 0 -87 35t-34 88q0 66 52 117t120 51q55 0 89 -33.5t34 -83.5q0 -67 -53 -120.5t-121 -53.5zM946 1321q-55 0 -89 34.5t-34 86.5q0 68 52 119t120 51q54 0 88.5 -34t34.5 -85q0 -65 -52.5 -118.5t-119.5 -53.5zM342 -35q-138 0 -228.5 68.5t-90.5 206.5
q0 80 34.5 146.5t96.5 114t140 79.5t173 51q208 41 249 53q97 29 120 81q10 23 10 52q0 70 -49 113t-133 43q-90 0 -165.5 -50.5t-121.5 -148.5l-213 78q53 111 144 184.5t190.5 104t210.5 30.5q202 0 306 -101.5t70 -295.5l-73 -418q-23 -122 -28.5 -200t1.5 -156h-242
q-2 28 -3.5 54t10 69.5t38.5 97.5h-32q-70 -127 -176 -191.5t-238 -64.5zM444 154q125 0 221 89.5t115 192.5l21 119q-33 -20 -79 -36.5t-78 -24.5t-93 -21q-68 -15 -122 -38t-96 -65.5t-42 -95.5q0 -59 42 -89.5t111 -30.5z" />
    <glyph glyph-name="aring" unicode="&#xe5;" horiz-adv-x="1189" 
d="M727 1253q-95 0 -154 56.5t-59 144.5q0 110 88.5 194.5t208.5 84.5q94 0 152.5 -55t58.5 -144q0 -112 -87.5 -196.5t-207.5 -84.5zM745 1376q57 0 98.5 41.5t41.5 95.5q0 41 -27 68t-70 27q-57 0 -98 -40.5t-41 -97.5q0 -42 26 -68t70 -26zM342 -35q-138 0 -228.5 68.5
t-90.5 206.5q0 80 34.5 146.5t96.5 114t140 79.5t173 51q208 41 249 53q97 29 120 81q10 23 10 52q0 70 -49 113t-133 43q-90 0 -165.5 -50.5t-121.5 -148.5l-213 78q53 111 144 184.5t190.5 104t210.5 30.5q202 0 306 -101.5t70 -295.5l-73 -418q-23 -122 -28.5 -200
t1.5 -156h-242q-2 28 -3.5 54t10 69.5t38.5 97.5h-32q-70 -127 -176 -191.5t-238 -64.5zM444 154q125 0 221 89.5t115 192.5l21 119q-33 -20 -79 -36.5t-78 -24.5t-93 -21q-68 -15 -122 -38t-96 -65.5t-42 -95.5q0 -59 42 -89.5t111 -30.5z" />
    <glyph glyph-name="ae" unicode="&#xe6;" horiz-adv-x="2000" 
d="M350 -35q-147 0 -238.5 68.5t-91.5 204.5q0 75 30.5 138t76 103.5t109 73t117.5 49.5t114 29q28 6 74 14.5t72 13t62.5 13.5t57.5 17t45.5 20.5t37.5 27t21.5 35t8.5 45.5q0 69 -51 112.5t-133 43.5q-89 0 -164 -52.5t-121 -146.5l-213 78q52 109 143 182.5t191.5 105
t210.5 31.5q129 0 219 -49.5t119 -156.5q174 206 440 206q83 0 156 -20.5t136 -65t102 -114.5t53.5 -168.5t-9.5 -227.5l-12 -67h-873q-12 -147 68.5 -235.5t214.5 -88.5q104 0 197.5 57.5t150.5 155.5l213 -90q-89 -155 -248 -248.5t-352 -93.5q-164 0 -274.5 74
t-139.5 229h-32q-92 -152 -217.5 -227.5t-270.5 -75.5zM1079 686h613q4 75 -16 131t-57.5 86.5t-82.5 45t-96 14.5q-119 0 -216 -76t-145 -201zM440 154q65 0 126.5 27t105 69t72 91t36.5 95l21 119q-69 -34 -118.5 -49.5t-115.5 -26.5q-46 -9 -87.5 -23t-87.5 -37.5
t-73.5 -61t-27.5 -83.5q0 -60 41 -90t108 -30z" />
    <glyph glyph-name="ccedilla" unicode="&#xe7;" horiz-adv-x="1241" 
d="M596 195q108 0 203 61.5t157 169.5l209 -88q-88 -168 -242 -266t-337 -107q-51 -48 -140 -108l13 -17q77 49 131 49q68 0 113 -42t45 -113q0 -102 -89 -174t-221 -72q-85 0 -153 33t-103 92l99 96q28 -47 74.5 -70.5t97.5 -23.5q57 0 94 28.5t37 71.5q0 32 -26 51t-69 19
q-52 0 -94 -27l-67 62l125 153q-181 28 -286.5 153t-105.5 323q0 139 53 270t144.5 231t222.5 160.5t277 60.5q178 0 304 -89t157 -257l-246 -92q-18 103 -86.5 156t-165.5 53q-111 0 -204.5 -64.5t-145.5 -167.5t-52 -218q0 -139 76 -218t201 -79z" />
    <glyph glyph-name="egrave" unicode="&#xe8;" horiz-adv-x="1259" 
d="M874 1278h-210l-244 383h293zM549 -35q-221 0 -354.5 129t-133.5 350q0 188 90.5 355t250 269.5t346.5 102.5q68 0 129.5 -14.5t117.5 -44.5t97.5 -77.5t69.5 -114t32.5 -152t-12.5 -193.5l-15 -83h-862q-12 -143 68 -226.5t215 -83.5q103 0 194 57.5t150 157.5l211 -90
q-86 -153 -244.5 -247.5t-349.5 -94.5zM352 692h604q7 70 -11 123.5t-54 85t-82.5 47t-101.5 15.5q-121 0 -216 -75.5t-139 -195.5z" />
    <glyph glyph-name="eacute" unicode="&#xe9;" horiz-adv-x="1259" 
d="M1229 1661l-379 -383h-211l297 383h293zM549 -35q-221 0 -354.5 129t-133.5 350q0 188 90.5 355t250 269.5t346.5 102.5q68 0 129.5 -14.5t117.5 -44.5t97.5 -77.5t69.5 -114t32.5 -152t-12.5 -193.5l-15 -83h-862q-12 -143 68 -226.5t215 -83.5q103 0 194 57.5
t150 157.5l211 -90q-86 -153 -244.5 -247.5t-349.5 -94.5zM352 692h604q7 70 -11 123.5t-54 85t-82.5 47t-101.5 15.5q-121 0 -216 -75.5t-139 -195.5z" />
    <glyph glyph-name="ecircumflex" unicode="&#xea;" horiz-adv-x="1259" 
d="M563 1278h-229l360 367h258l234 -367h-230q-37 51 -53.5 76t-39 72.5t-34.5 97.5h-49q-42 -71 -93.5 -127t-123.5 -119zM549 -35q-221 0 -354.5 129t-133.5 350q0 188 90.5 355t250 269.5t346.5 102.5q68 0 129.5 -14.5t117.5 -44.5t97.5 -77.5t69.5 -114t32.5 -152
t-12.5 -193.5l-15 -83h-862q-12 -143 68 -226.5t215 -83.5q103 0 194 57.5t150 157.5l211 -90q-86 -153 -244.5 -247.5t-349.5 -94.5zM352 692h604q7 70 -11 123.5t-54 85t-82.5 47t-101.5 15.5q-121 0 -216 -75.5t-139 -195.5z" />
    <glyph glyph-name="edieresis" unicode="&#xeb;" horiz-adv-x="1259" 
d="M563 1321q-53 0 -87 35t-34 88q0 66 52 117t120 51q55 0 89 -33.5t34 -83.5q0 -67 -53 -120.5t-121 -53.5zM975 1321q-55 0 -89 34.5t-34 86.5q0 68 52 119t120 51q54 0 88.5 -34t34.5 -85q0 -65 -52.5 -118.5t-119.5 -53.5zM549 -35q-221 0 -354.5 129t-133.5 350
q0 188 90.5 355t250 269.5t346.5 102.5q68 0 129.5 -14.5t117.5 -44.5t97.5 -77.5t69.5 -114t32.5 -152t-12.5 -193.5l-15 -83h-862q-12 -143 68 -226.5t215 -83.5q103 0 194 57.5t150 157.5l211 -90q-86 -153 -244.5 -247.5t-349.5 -94.5zM352 692h604q7 70 -11 123.5
t-54 85t-82.5 47t-101.5 15.5q-121 0 -216 -75.5t-139 -195.5z" />
    <glyph glyph-name="igrave" unicode="&#xec;" horiz-adv-x="546" 
d="M512 1266h-211l-244 383h293zM295 0h-244l203 1139h242z" />
    <glyph glyph-name="iacute" unicode="&#xed;" horiz-adv-x="546" 
d="M864 1649l-379 -383h-211l297 383h293zM295 0h-244l203 1139h242z" />
    <glyph glyph-name="icircumflex" unicode="&#xee;" horiz-adv-x="546" 
d="M201 1266h-230l361 366h258l233 -366h-229q-38 53 -53.5 76.5t-38.5 71.5t-35 97h-49q-41 -71 -92.5 -126t-124.5 -119zM295 0h-244l203 1139h242z" />
    <glyph glyph-name="idieresis" unicode="&#xef;" horiz-adv-x="546" 
d="M201 1309q-53 0 -87 35t-34 88q0 66 52 116.5t120 50.5q55 0 89 -33t34 -83q0 -67 -53 -120.5t-121 -53.5zM612 1309q-55 0 -89 34.5t-34 86.5q0 68 52.5 118.5t120.5 50.5q54 0 88 -33.5t34 -84.5q0 -65 -52.5 -118.5t-119.5 -53.5zM295 0h-244l203 1139h242z" />
    <glyph glyph-name="eth" unicode="&#xf0;" horiz-adv-x="1337" 
d="M1227 1532l-170 -88q231 -225 231 -578q0 -138 -33 -270.5t-98 -246t-154 -200t-207.5 -135.5t-252.5 -49q-220 0 -354 127t-134 336q0 126 51.5 246.5t136.5 210.5t201 145t238 55q245 0 373 -235h32q-64 295 -260 473l-292 -154l-52 119l230 121q-106 65 -252 121
l98 192q231 -75 389 -188l223 117zM580 188q107 0 197.5 57.5t142 151.5t51.5 201q0 125 -74 198.5t-195 73.5q-105 0 -195.5 -56.5t-143 -150t-52.5 -198.5q0 -123 72.5 -200t196.5 -77z" />
    <glyph glyph-name="ntilde" unicode="&#xf1;" horiz-adv-x="1302" 
d="M936 1296q-73 0 -137 54l-47 36q-44 39 -80 39q-39 0 -66.5 -31.5t-36.5 -80.5h-174q24 135 109 217t192 82q75 0 140 -56l45 -34q35 -35 71 -35q35 0 59 29.5t33 80.5h177q-26 -144 -101 -222.5t-184 -78.5zM295 0h-244l203 1139h238q-7 -39 -12 -63.5t-20.5 -69.5
t-39.5 -93h33q164 258 417 258q82 0 147.5 -26t114 -81.5t64 -141t-3.5 -205.5l-127 -717h-242l107 610q28 149 -17.5 240.5t-167.5 91.5q-126 0 -221.5 -91.5t-124.5 -248.5z" />
    <glyph glyph-name="ograve" unicode="&#xf2;" horiz-adv-x="1312" 
d="M897 1278h-211l-244 383h293zM551 -35q-225 0 -357.5 131t-132.5 353q0 137 53 268t144.5 231.5t224 161.5t281.5 61q224 0 355.5 -131t131.5 -354q0 -138 -52.5 -269t-143 -231t-223 -160.5t-281.5 -60.5zM592 195q111 0 204 64t145 168.5t52 223.5q0 133 -72.5 212
t-197.5 79q-114 0 -208 -66.5t-145 -170.5t-51 -218q0 -133 74 -212.5t199 -79.5z" />
    <glyph glyph-name="oacute" unicode="&#xf3;" horiz-adv-x="1312" 
d="M1249 1661l-379 -383h-211l297 383h293zM551 -35q-225 0 -357.5 131t-132.5 353q0 137 53 268t144.5 231.5t224 161.5t281.5 61q224 0 355.5 -131t131.5 -354q0 -138 -52.5 -269t-143 -231t-223 -160.5t-281.5 -60.5zM592 195q111 0 204 64t145 168.5t52 223.5
q0 133 -72.5 212t-197.5 79q-114 0 -208 -66.5t-145 -170.5t-51 -218q0 -133 74 -212.5t199 -79.5z" />
    <glyph glyph-name="ocircumflex" unicode="&#xf4;" horiz-adv-x="1312" 
d="M586 1278h-230l361 367h258l233 -367h-229q-37 51 -53.5 76t-39 72.5t-34.5 97.5h-49q-42 -71 -93.5 -127t-123.5 -119zM551 -35q-225 0 -357.5 131t-132.5 353q0 137 53 268t144.5 231.5t224 161.5t281.5 61q224 0 355.5 -131t131.5 -354q0 -138 -52.5 -269t-143 -231
t-223 -160.5t-281.5 -60.5zM592 195q111 0 204 64t145 168.5t52 223.5q0 133 -72.5 212t-197.5 79q-114 0 -208 -66.5t-145 -170.5t-51 -218q0 -133 74 -212.5t199 -79.5z" />
    <glyph glyph-name="otilde" unicode="&#xf5;" horiz-adv-x="1312" 
d="M946 1296q-73 0 -137 54l-47 36q-44 39 -80 39q-38 0 -65.5 -31.5t-36.5 -80.5h-174q24 135 109 217t192 82q74 0 139 -56l45 -34q35 -35 72 -35q35 0 59 29.5t33 80.5h176q-26 -144 -101 -222.5t-184 -78.5zM551 -35q-225 0 -357.5 131t-132.5 353q0 137 53 268
t144.5 231.5t224 161.5t281.5 61q224 0 355.5 -131t131.5 -354q0 -138 -52.5 -269t-143 -231t-223 -160.5t-281.5 -60.5zM592 195q111 0 204 64t145 168.5t52 223.5q0 133 -72.5 212t-197.5 79q-114 0 -208 -66.5t-145 -170.5t-51 -218q0 -133 74 -212.5t199 -79.5z" />
    <glyph glyph-name="odieresis" unicode="&#xf6;" horiz-adv-x="1312" 
d="M586 1321q-53 0 -87 35t-34 88q0 66 52 117t120 51q55 0 89 -33.5t34 -83.5q0 -67 -53 -120.5t-121 -53.5zM997 1321q-55 0 -89 34.5t-34 86.5q0 68 52.5 119t120.5 51q54 0 88 -34t34 -85q0 -65 -52.5 -118.5t-119.5 -53.5zM551 -35q-225 0 -357.5 131t-132.5 353
q0 137 53 268t144.5 231.5t224 161.5t281.5 61q224 0 355.5 -131t131.5 -354q0 -138 -52.5 -269t-143 -231t-223 -160.5t-281.5 -60.5zM592 195q111 0 204 64t145 168.5t52 223.5q0 133 -72.5 212t-197.5 79q-114 0 -208 -66.5t-145 -170.5t-51 -218q0 -133 74 -212.5
t199 -79.5z" />
    <glyph glyph-name="divide" unicode="&#xf7;" horiz-adv-x="1089" 
d="M596 850q-51 0 -83 34t-32 85q0 65 50 114.5t116 49.5q51 0 84 -32.5t33 -82.5q0 -65 -51 -116.5t-117 -51.5zM967 530h-856l34 193h854zM469 121q-52 0 -84.5 34.5t-32.5 84.5q0 65 50 114t116 49q52 0 85.5 -32t33.5 -82q0 -65 -51.5 -116.5t-116.5 -51.5z" />
    <glyph glyph-name="oslash" unicode="&#xf8;" horiz-adv-x="1312" 
d="M1126 1186h209l-176 -191q92 -128 92 -309q0 -138 -52.5 -269t-143 -231t-223 -160.5t-281.5 -60.5q-158 0 -275 68l-83 -90h-216l181 194q-97 127 -97 312q0 137 53 268t144.5 231.5t224 161.5t281.5 61q162 0 283 -73zM319 487q0 -77 29 -143l520 561q-61 37 -145 37
q-114 0 -208 -66.5t-145 -170.5t-51 -218zM993 651q0 77 -24 135l-514 -559q62 -32 137 -32q111 0 204 64t145 168.5t52 223.5z" />
    <glyph glyph-name="ugrave" unicode="&#xf9;" horiz-adv-x="1286" 
d="M877 1278h-211l-244 383h293zM442 -35q-187 0 -278 115t-51 344l127 715h243l-110 -629q-27 -152 22 -233.5t156 -81.5q125 0 215 94.5t115 228.5l108 621h244l-139 -783q-21 -128 -26 -202.5t1 -153.5h-244q-1 37 -1 66t11 69t35 90h-32q-75 -138 -171 -199t-225 -61z
" />
    <glyph glyph-name="uacute" unicode="&#xfa;" horiz-adv-x="1286" 
d="M1231 1661l-379 -383h-211l297 383h293zM442 -35q-187 0 -278 115t-51 344l127 715h243l-110 -629q-27 -152 22 -233.5t156 -81.5q125 0 215 94.5t115 228.5l108 621h244l-139 -783q-21 -128 -26 -202.5t1 -153.5h-244q-1 37 -1 66t11 69t35 90h-32q-75 -138 -171 -199
t-225 -61z" />
    <glyph glyph-name="ucircumflex" unicode="&#xfb;" horiz-adv-x="1286" 
d="M565 1278h-229l360 367h258l234 -367h-230q-37 51 -53.5 76t-39 72.5t-34.5 97.5h-49q-42 -71 -93.5 -127t-123.5 -119zM442 -35q-187 0 -278 115t-51 344l127 715h243l-110 -629q-27 -152 22 -233.5t156 -81.5q125 0 215 94.5t115 228.5l108 621h244l-139 -783
q-21 -128 -26 -202.5t1 -153.5h-244q-1 37 -1 66t11 69t35 90h-32q-75 -138 -171 -199t-225 -61z" />
    <glyph glyph-name="udieresis" unicode="&#xfc;" horiz-adv-x="1286" 
d="M565 1321q-53 0 -87 35t-34 88q0 66 52 117t120 51q55 0 89 -33.5t34 -83.5q0 -67 -53 -120.5t-121 -53.5zM977 1321q-55 0 -89 34.5t-34 86.5q0 68 52 119t120 51q54 0 88.5 -34t34.5 -85q0 -65 -52.5 -118.5t-119.5 -53.5zM442 -35q-187 0 -278 115t-51 344l127 715
h243l-110 -629q-27 -152 22 -233.5t156 -81.5q125 0 215 94.5t115 228.5l108 621h244l-139 -783q-21 -128 -26 -202.5t1 -153.5h-244q-1 37 -1 66t11 69t35 90h-32q-75 -138 -171 -199t-225 -61z" />
    <glyph glyph-name="yacute" unicode="&#xfd;" horiz-adv-x="1171" 
d="M1174 1661l-379 -383h-211l297 383h293zM375 -451h-254l231 412l-237 1178h266q101 -511 131 -920h33q186 433 454 920h261z" />
    <glyph glyph-name="thorn" unicode="&#xfe;" horiz-adv-x="1359" 
d="M215 -451h-244l369 2089h244q-4 -23 -18 -105t-21 -118t-21.5 -112t-26.5 -128t-30 -122.5t-37 -134.5h33q168 253 424 253q192 0 301.5 -130t109.5 -341q0 -189 -85.5 -358.5t-232 -273t-314.5 -103.5q-120 0 -206 59t-124 181h-33q-2 -51 -5.5 -99.5t-10.5 -104
t-11 -89t-14.5 -98t-14 -84.5t-17 -95t-15.5 -86zM649 195q105 0 196 63.5t144 167.5t53 219q0 135 -71 216t-191 81q-105 0 -197.5 -63.5t-147 -167.5t-54.5 -219q0 -134 74.5 -215.5t193.5 -81.5z" />
    <glyph glyph-name="ydieresis" unicode="&#xff;" horiz-adv-x="1171" 
d="M508 1321q-53 0 -87 35t-34 88q0 66 52 117t120 51q55 0 89 -33.5t34 -83.5q0 -67 -53 -120.5t-121 -53.5zM920 1321q-55 0 -89 34.5t-34 86.5q0 68 52 119t120 51q54 0 88.5 -34t34.5 -85q0 -65 -52.5 -118.5t-119.5 -53.5zM375 -451h-254l231 412l-237 1178h266
q101 -511 131 -920h33q186 433 454 920h261z" />
    <glyph glyph-name="Amacron" unicode="&#x100;" horiz-adv-x="1552" 
d="M1352 1784h-727l32 184h729zM178 0h-268l901 1597h297l338 -1597h-277q-21 97 -31 149.5t-21.5 146t-10.5 171.5l-21 22q-164 -34 -327 -34q-176 0 -320 34l-28 -24q-65 -175 -232 -465zM539 682l14 -20q120 34 250 34q124 0 225 -34l19 20q-52 187 -76.5 344.5
t-20.5 347.5h-65q-68 -195 -150 -355.5t-196 -336.5z" />
    <glyph glyph-name="amacron" unicode="&#x101;" horiz-adv-x="1189" 
d="M1090 1356h-689l31 176h688zM342 -35q-138 0 -228.5 68.5t-90.5 206.5q0 80 34.5 146.5t96.5 114t140 79.5t173 51q208 41 249 53q97 29 120 81q10 23 10 52q0 70 -49 113t-133 43q-90 0 -165.5 -50.5t-121.5 -148.5l-213 78q53 111 144 184.5t190.5 104t210.5 30.5
q202 0 306 -101.5t70 -295.5l-73 -418q-23 -122 -28.5 -200t1.5 -156h-242q-2 28 -3.5 54t10 69.5t38.5 97.5h-32q-70 -127 -176 -191.5t-238 -64.5zM444 154q125 0 221 89.5t115 192.5l21 119q-33 -20 -79 -36.5t-78 -24.5t-93 -21q-68 -15 -122 -38t-96 -65.5t-42 -95.5
q0 -59 42 -89.5t111 -30.5z" />
    <glyph glyph-name="Abreve" unicode="&#x102;" horiz-adv-x="1552" 
d="M977 1718q-170 0 -262 103.5t-70 251.5h209q-8 -72 32.5 -125.5t121.5 -53.5q82 0 141.5 52.5t77.5 126.5h209q-32 -149 -160 -252t-299 -103zM178 0h-268l901 1597h297l338 -1597h-277q-21 97 -31 149.5t-21.5 146t-10.5 171.5l-21 22q-164 -34 -327 -34q-176 0 -320 34
l-28 -24q-65 -175 -232 -465zM539 682l14 -20q120 34 250 34q124 0 225 -34l19 20q-52 187 -76.5 344.5t-20.5 347.5h-65q-68 -195 -150 -355.5t-196 -336.5z" />
    <glyph glyph-name="abreve" unicode="&#x103;" horiz-adv-x="1189" 
d="M729 1270q-173 0 -256.5 109.5t-58.5 285.5h200q-14 -94 25.5 -155.5t124.5 -61.5q86 0 146.5 61t80.5 156h201q-38 -179 -165 -287t-298 -108zM342 -35q-138 0 -228.5 68.5t-90.5 206.5q0 80 34.5 146.5t96.5 114t140 79.5t173 51q208 41 249 53q97 29 120 81
q10 23 10 52q0 70 -49 113t-133 43q-90 0 -165.5 -50.5t-121.5 -148.5l-213 78q53 111 144 184.5t190.5 104t210.5 30.5q202 0 306 -101.5t70 -295.5l-73 -418q-23 -122 -28.5 -200t1.5 -156h-242q-2 28 -3.5 54t10 69.5t38.5 97.5h-32q-70 -127 -176 -191.5t-238 -64.5z
M444 154q125 0 221 89.5t115 192.5l21 119q-33 -20 -79 -36.5t-78 -24.5t-93 -21q-68 -15 -122 -38t-96 -65.5t-42 -95.5q0 -59 42 -89.5t111 -30.5z" />
    <glyph glyph-name="Aogonek" unicode="&#x104;" horiz-adv-x="1552" 
d="M1143 -195q0 -46 35 -78t102 -32q52 0 92 12l-26 -153q-58 -17 -129 -17q-111 0 -185 50.5t-74 144.5q0 89 61 158t152 110h-2q-21 97 -31 149.5t-21.5 146t-10.5 171.5l-21 22q-164 -34 -327 -34q-176 0 -320 34l-28 -24q-65 -175 -232 -465h-268l901 1597h297
l338 -1597h-100q-91 -21 -147 -77.5t-56 -117.5zM1028 662l19 20q-52 187 -76.5 344.5t-20.5 347.5h-65q-68 -195 -150 -355.5t-196 -336.5l14 -20q120 34 250 34q124 0 225 -34z" />
    <glyph glyph-name="aogonek" unicode="&#x105;" horiz-adv-x="1189" 
d="M709 1171q202 0 306 -101.5t70 -295.5l-73 -418q-23 -122 -28.5 -200t1.5 -156h-74q-89 -25 -142.5 -79.5t-53.5 -117.5q0 -45 33.5 -72.5t91.5 -27.5q49 0 96 16l-31 -168q-55 -14 -112 -14q-117 0 -189 51t-72 146q0 90 63.5 161t152.5 105h-5q-2 28 -3.5 54t10 69.5
t38.5 97.5h-32q-70 -127 -176 -191.5t-238 -64.5q-138 0 -228.5 68.5t-90.5 206.5q0 80 34.5 146.5t96.5 114t140 79.5t173 51q208 41 249 53q97 29 120 81q10 23 10 52q0 70 -49 113t-133 43q-90 0 -165.5 -50.5t-121.5 -148.5l-213 78q53 111 144 184.5t190.5 104
t210.5 30.5zM780 436l21 119q-33 -20 -79 -36.5t-78 -24.5t-93 -21q-68 -15 -122 -38t-96 -65.5t-42 -95.5q0 -59 42 -89.5t111 -30.5q125 0 221 89.5t115 192.5z" />
    <glyph glyph-name="Cacute" unicode="&#x106;" horiz-adv-x="1703" 
d="M1579 2071l-391 -351h-221l301 351h311zM803 -35q-315 0 -502.5 181t-187.5 491q0 193 76 375t204.5 318t309 218t378.5 82q253 0 426.5 -131t212.5 -360l-254 -97q-38 160 -148.5 252t-281.5 92q-110 0 -211.5 -40t-180 -109.5t-138 -159.5t-90.5 -195.5t-31 -211.5
q0 -97 26.5 -176t70.5 -131t105 -87.5t127 -51t138 -15.5q200 0 354 114t244 300l223 -82q-138 -279 -365 -427.5t-505 -148.5z" />
    <glyph glyph-name="cacute" unicode="&#x107;" horiz-adv-x="1241" 
d="M1208 1661l-379 -383h-211l297 383h293zM553 -35q-223 0 -357.5 129t-134.5 355q0 139 53 270t144.5 231t222.5 160.5t277 60.5q178 0 304 -89t157 -257l-246 -92q-18 103 -86.5 156t-165.5 53q-111 0 -204.5 -64.5t-145.5 -167.5t-52 -218q0 -139 76 -218t201 -79
q108 0 203 61.5t157 169.5l209 -88q-93 -177 -256 -275t-356 -98z" />
    <glyph glyph-name="Cdotaccent" unicode="&#x10a;" horiz-adv-x="1703" 
d="M1087 1763q-60 0 -96.5 37t-36.5 96q0 72 57 128.5t132 56.5q59 0 96 -36.5t37 -92.5q0 -74 -58 -131.5t-131 -57.5zM803 -35q-315 0 -502.5 181t-187.5 491q0 193 76 375t204.5 318t309 218t378.5 82q253 0 426.5 -131t212.5 -360l-254 -97q-38 160 -148.5 252
t-281.5 92q-110 0 -211.5 -40t-180 -109.5t-138 -159.5t-90.5 -195.5t-31 -211.5q0 -97 26.5 -176t70.5 -131t105 -87.5t127 -51t138 -15.5q200 0 354 114t244 300l223 -82q-138 -279 -365 -427.5t-505 -148.5z" />
    <glyph glyph-name="cdotaccent" unicode="&#x10b;" horiz-adv-x="1241" 
d="M754 1346q-60 0 -96.5 37t-36.5 96q0 72 56.5 128t131.5 56q59 0 96 -36.5t37 -92.5q0 -74 -57 -131t-131 -57zM553 -35q-223 0 -357.5 129t-134.5 355q0 139 53 270t144.5 231t222.5 160.5t277 60.5q178 0 304 -89t157 -257l-246 -92q-18 103 -86.5 156t-165.5 53
q-111 0 -204.5 -64.5t-145.5 -167.5t-52 -218q0 -139 76 -218t201 -79q108 0 203 61.5t157 169.5l209 -88q-93 -177 -256 -275t-356 -98z" />
    <glyph glyph-name="Ccaron" unicode="&#x10c;" horiz-adv-x="1703" 
d="M1206 1720h-254l-221 342h225q32 -37 47.5 -59t35 -69t26.5 -105h65q20 44 42.5 79t51.5 65t45.5 45t51.5 44h225zM803 -35q-315 0 -502.5 181t-187.5 491q0 193 76 375t204.5 318t309 218t378.5 82q253 0 426.5 -131t212.5 -360l-254 -97q-38 160 -148.5 252t-281.5 92
q-110 0 -211.5 -40t-180 -109.5t-138 -159.5t-90.5 -195.5t-31 -211.5q0 -97 26.5 -176t70.5 -131t105 -87.5t127 -51t138 -15.5q200 0 354 114t244 300l223 -82q-138 -279 -365 -427.5t-505 -148.5z" />
    <glyph glyph-name="ccaron" unicode="&#x10d;" horiz-adv-x="1241" 
d="M872 1290h-258l-229 379h229q74 -117 99 -172q18 -43 30 -86h45q18 30 37 57.5t44.5 56t41 45t50 51.5t47.5 48h229zM553 -35q-223 0 -357.5 129t-134.5 355q0 139 53 270t144.5 231t222.5 160.5t277 60.5q178 0 304 -89t157 -257l-246 -92q-18 103 -86.5 156t-165.5 53
q-111 0 -204.5 -64.5t-145.5 -167.5t-52 -218q0 -139 76 -218t201 -79q108 0 203 61.5t157 169.5l209 -88q-93 -177 -256 -275t-356 -98z" />
    <glyph glyph-name="Dcaron" unicode="&#x10e;" horiz-adv-x="1634" 
d="M1094 1720h-254l-222 342h226q31 -36 47 -58.5t35 -69.5t26 -105h66q27 57 62.5 104.5t59 69.5t68.5 59h226zM702 0h-618l283 1597h600q165 0 288 -44t198.5 -126.5t112 -193t36.5 -250.5q0 -150 -41 -294.5t-120 -268.5t-187 -218.5t-250.5 -148t-301.5 -53.5zM346 227
l27 -30q100 27 161.5 34t135.5 7q128 0 235.5 35t184.5 97t131 147t80 185.5t26 212.5q0 105 -24.5 185t-64.5 128.5t-99 79t-120.5 41.5t-135.5 11q-109 0 -169.5 7t-129.5 34l-35 -21q-21 -590 -203 -1153z" />
    <glyph glyph-name="dcaron" unicode="&#x10f;" horiz-adv-x="1363" 
d="M1559 1120h-146q45 62 71 95t76.5 86t104.5 96q-125 29 -125 123q0 72 58.5 129t134.5 57q58 0 95.5 -38t37.5 -95q0 -55 -46 -122t-224 -285q-24 -30 -37 -46zM487 -35q-198 0 -312 128t-114 343q0 189 84.5 358t232.5 273t320 104q268 0 324 -274h33q11 142 29 282.5
t32.5 228t40.5 230.5h242l-225 -1282q-23 -131 -28 -211t1 -145h-242q-3 58 2.5 103t28.5 112h-33q-50 -89 -120.5 -146.5t-143 -80.5t-152.5 -23zM580 197q107 0 200 63t147 167t54 220q0 134 -73.5 214.5t-192.5 80.5q-107 0 -199 -63t-144.5 -166.5t-52.5 -220.5
q0 -133 71 -214t190 -81z" />
    <glyph glyph-name="Dcroat" unicode="&#x110;" horiz-adv-x="1634" 
d="M367 1597h600q165 0 288 -44t198.5 -126.5t112 -193t36.5 -250.5q0 -150 -41 -294.5t-120 -268.5t-187 -218.5t-250.5 -148t-301.5 -53.5h-618l123 694h-199l35 207h201zM670 238q128 0 235.5 35t184.5 97t131 147t80 185.5t26 212.5q0 105 -24.5 185t-64.5 128.5t-99 79
t-120.5 41.5t-135.5 11q-109 0 -169.5 7t-129.5 34l-35 -21q-9 -251 -45 -479h391l-35 -207h-391q-49 -231 -123 -467l27 -30q100 27 161.5 34t135.5 7z" />
    <glyph glyph-name="dcroat" unicode="&#x111;" horiz-adv-x="1363" 
d="M1368 1468h264l-33 -184h-262l-163 -928q-23 -131 -28 -211t1 -145h-242q-3 58 2.5 103t28.5 112h-33q-50 -89 -120.5 -146.5t-143 -80.5t-152.5 -23q-198 0 -312 128t-114 343q0 189 84.5 358t232.5 273t320 104q268 0 324 -274h33q13 195 43 387h-273l33 184h268
l31 170h242zM580 197q107 0 200 63t147 167t54 220q0 134 -73.5 214.5t-192.5 80.5q-107 0 -199 -63t-144.5 -166.5t-52.5 -220.5q0 -133 71 -214t190 -81z" />
    <glyph glyph-name="Emacron" unicode="&#x112;" horiz-adv-x="1333" 
d="M1268 1784h-727l32 184h730zM1137 0h-1053l283 1597h1032l-43 -237h-72.5h-76.5t-71.5 0.5t-77 1t-73 2t-79.5 3.5t-75.5 5t-82.5 7t-79 9.5t-85 12.5l-35 -21q8 -221 -78 -475l16 -22q135 26 280 38.5t232 14.5t242 2l-45 -248q-153 0 -242.5 2t-226.5 15.5t-260 40.5
l-27 -21q-9 -278 -94 -500l27 -30q140 20 294.5 30t248.5 11.5t262 1.5z" />
    <glyph glyph-name="emacron" unicode="&#x113;" horiz-adv-x="1259" 
d="M1118 1356h-688l31 176h688zM549 -35q-221 0 -354.5 129t-133.5 350q0 188 90.5 355t250 269.5t346.5 102.5q68 0 129.5 -14.5t117.5 -44.5t97.5 -77.5t69.5 -114t32.5 -152t-12.5 -193.5l-15 -83h-862q-12 -143 68 -226.5t215 -83.5q103 0 194 57.5t150 157.5l211 -90
q-86 -153 -244.5 -247.5t-349.5 -94.5zM352 692h604q7 70 -11 123.5t-54 85t-82.5 47t-101.5 15.5q-121 0 -216 -75.5t-139 -195.5z" />
    <glyph glyph-name="Edotaccent" unicode="&#x116;" horiz-adv-x="1333" 
d="M903 1763q-60 0 -96.5 37t-36.5 96q0 72 56.5 128.5t131.5 56.5q59 0 96.5 -36.5t37.5 -92.5q0 -74 -58 -131.5t-131 -57.5zM1137 0h-1053l283 1597h1032l-43 -237h-72.5h-76.5t-71.5 0.5t-77 1t-73 2t-79.5 3.5t-75.5 5t-82.5 7t-79 9.5t-85 12.5l-35 -21
q8 -221 -78 -475l16 -22q135 26 280 38.5t232 14.5t242 2l-45 -248q-153 0 -242.5 2t-226.5 15.5t-260 40.5l-27 -21q-9 -278 -94 -500l27 -30q140 20 294.5 30t248.5 11.5t262 1.5z" />
    <glyph glyph-name="edotaccent" unicode="&#x117;" horiz-adv-x="1259" 
d="M774 1346q-60 0 -96.5 37t-36.5 96q0 72 56.5 128t131.5 56q59 0 96.5 -36.5t37.5 -92.5q0 -73 -57.5 -130.5t-131.5 -57.5zM549 -35q-221 0 -354.5 129t-133.5 350q0 188 90.5 355t250 269.5t346.5 102.5q68 0 129.5 -14.5t117.5 -44.5t97.5 -77.5t69.5 -114t32.5 -152
t-12.5 -193.5l-15 -83h-862q-12 -143 68 -226.5t215 -83.5q103 0 194 57.5t150 157.5l211 -90q-86 -153 -244.5 -247.5t-349.5 -94.5zM352 692h604q7 70 -11 123.5t-54 85t-82.5 47t-101.5 15.5q-121 0 -216 -75.5t-139 -195.5z" />
    <glyph glyph-name="Eogonek" unicode="&#x118;" horiz-adv-x="1333" 
d="M84 0l283 1597h1032l-43 -237h-72.5h-76.5t-71.5 0.5t-77 1t-73 2t-79.5 3.5t-75.5 5t-82.5 7t-79 9.5t-85 12.5l-35 -21q8 -221 -78 -475l16 -22q135 26 280 38.5t232 14.5t242 2l-45 -248q-153 0 -242.5 2t-226.5 15.5t-260 40.5l-27 -21q-9 -278 -94 -500l27 -30
q140 20 294.5 30t248.5 11.5t262 1.5l-41 -240q-91 -21 -147 -77.5t-56 -117.5q0 -46 35 -78t102 -32q52 0 92 12l-26 -153q-58 -17 -129 -17q-111 0 -184.5 50.5t-73.5 144.5q0 89 61 158t152 110h-879z" />
    <glyph glyph-name="eogonek" unicode="&#x119;" horiz-adv-x="1259" 
d="M748 1171q68 0 129.5 -14.5t117.5 -44.5t97.5 -77.5t69.5 -114t32.5 -152t-12.5 -193.5l-15 -83h-862q-12 -143 68 -226.5t215 -83.5q103 0 194 57.5t150 157.5l211 -90q-64 -115 -173.5 -199.5t-244.5 -119.5q-74 -29 -117 -78.5t-43 -106.5q0 -45 33.5 -72.5
t91.5 -27.5q49 0 96 16l-30 -168q-55 -14 -113 -14q-117 0 -188.5 51t-71.5 146q0 71 40 130.5t105 100.5q-213 6 -340 134.5t-127 344.5q0 188 90.5 355t250 269.5t346.5 102.5zM352 692h604q7 70 -11 123.5t-54 85t-82.5 47t-101.5 15.5q-121 0 -216 -75.5t-139 -195.5z
" />
    <glyph glyph-name="Ecaron" unicode="&#x11a;" horiz-adv-x="1333" 
d="M1022 1720h-254l-221 342h225q32 -37 47.5 -59t35 -69t26.5 -105h65q20 44 42.5 79t51.5 65t45.5 45t51.5 44h225zM1137 0h-1053l283 1597h1032l-43 -237h-72.5h-76.5t-71.5 0.5t-77 1t-73 2t-79.5 3.5t-75.5 5t-82.5 7t-79 9.5t-85 12.5l-35 -21q8 -221 -78 -475l16 -22
q135 26 280 38.5t232 14.5t242 2l-45 -248q-153 0 -242.5 2t-226.5 15.5t-260 40.5l-27 -21q-9 -278 -94 -500l27 -30q140 20 294.5 30t248.5 11.5t262 1.5z" />
    <glyph glyph-name="ecaron" unicode="&#x11b;" horiz-adv-x="1259" 
d="M891 1290h-258l-230 379h230q74 -117 99 -172q18 -43 30 -86h45q18 30 36.5 57t44.5 57t40 45t50.5 51.5l47.5 47.5h229zM549 -35q-221 0 -354.5 129t-133.5 350q0 188 90.5 355t250 269.5t346.5 102.5q68 0 129.5 -14.5t117.5 -44.5t97.5 -77.5t69.5 -114t32.5 -152
t-12.5 -193.5l-15 -83h-862q-12 -143 68 -226.5t215 -83.5q103 0 194 57.5t150 157.5l211 -90q-86 -153 -244.5 -247.5t-349.5 -94.5zM352 692h604q7 70 -11 123.5t-54 85t-82.5 47t-101.5 15.5q-121 0 -216 -75.5t-139 -195.5z" />
    <glyph glyph-name="Gbreve" unicode="&#x11e;" horiz-adv-x="1781" 
d="M1079 1718q-169 0 -261 103.5t-70 251.5h208q-8 -72 32.5 -125.5t121.5 -53.5q82 0 141.5 52.5t77.5 126.5h209q-32 -149 -160 -252t-299 -103zM770 -35q-296 0 -476.5 178t-180.5 486q0 155 47.5 305t136.5 274.5t207 219.5t267 148.5t308 53.5q256 0 430 -133t211 -358
l-254 -97q-38 160 -148 252t-280 92q-136 0 -259.5 -61.5t-208.5 -161.5t-135 -229.5t-50 -263.5q0 -123 42 -215.5t112 -144t151 -76.5t170 -25q188 0 351 110t290 320l-22 31q-233 -70 -533 -70l37 213h719l-143 -813h-201q2 12 6.5 51t8 60t11 56.5t19.5 70t29 71.5
l-39 13q-228 -357 -623 -357z" />
    <glyph glyph-name="gbreve" unicode="&#x11f;" horiz-adv-x="1363" 
d="M797 1270q-174 0 -257.5 109.5t-58.5 285.5h201q-14 -94 25 -155.5t124 -61.5q86 0 147 61.5t81 155.5h201q-38 -179 -165 -287t-298 -108zM467 -483q-67 0 -126 9.5t-117 33t-102.5 59.5t-78.5 93.5t-49 131.5l235 80q46 -200 273 -200q309 0 383 362q1 3 3.5 17.5
t3 17.5t3.5 15.5t4 16.5t4 15t5.5 16.5t6 15t7.5 17t9 17t11 18.5h-33q-152 -248 -407 -248q-199 0 -316.5 122.5t-117.5 336.5q0 138 51.5 268.5t136 226.5t201 154.5t239.5 58.5q135 0 217.5 -71t102.5 -203h33q2 107 24 242h240l-178 -1016q-24 -135 -72.5 -240.5
t-111 -173.5t-143 -112t-164 -62t-177.5 -18zM590 236q78 0 151.5 36t126.5 94t85 135.5t32 157.5q0 128 -76 205.5t-194 77.5q-104 0 -194.5 -60.5t-141.5 -157.5t-51 -204q0 -128 72 -206t190 -78z" />
    <glyph glyph-name="Gdotaccent" unicode="&#x120;" horiz-adv-x="1781" 
d="M1087 1763q-60 0 -96.5 37t-36.5 96q0 72 57 128.5t132 56.5q59 0 96 -36.5t37 -92.5q0 -74 -58 -131.5t-131 -57.5zM770 -35q-296 0 -476.5 178t-180.5 486q0 155 47.5 305t136.5 274.5t207 219.5t267 148.5t308 53.5q256 0 430 -133t211 -358l-254 -97
q-38 160 -148 252t-280 92q-136 0 -259.5 -61.5t-208.5 -161.5t-135 -229.5t-50 -263.5q0 -123 42 -215.5t112 -144t151 -76.5t170 -25q188 0 351 110t290 320l-22 31q-233 -70 -533 -70l37 213h719l-143 -813h-201q2 12 6.5 51t8 60t11 56.5t19.5 70t29 71.5l-39 13
q-228 -357 -623 -357z" />
    <glyph glyph-name="gdotaccent" unicode="&#x121;" horiz-adv-x="1363" 
d="M813 1346q-60 0 -96.5 37t-36.5 96q0 72 56.5 128t131.5 56q59 0 96 -36.5t37 -92.5q0 -74 -57.5 -131t-130.5 -57zM467 -483q-67 0 -126 9.5t-117 33t-102.5 59.5t-78.5 93.5t-49 131.5l235 80q46 -200 273 -200q309 0 383 362q1 3 3.5 17.5t3 17.5t3.5 15.5t4 16.5
t4 15t5.5 16.5t6 15t7.5 17t9 17t11 18.5h-33q-152 -248 -407 -248q-199 0 -316.5 122.5t-117.5 336.5q0 138 51.5 268.5t136 226.5t201 154.5t239.5 58.5q135 0 217.5 -71t102.5 -203h33q2 107 24 242h240l-178 -1016q-24 -135 -72.5 -240.5t-111 -173.5t-143 -112
t-164 -62t-177.5 -18zM590 236q78 0 151.5 36t126.5 94t85 135.5t32 157.5q0 128 -76 205.5t-194 77.5q-104 0 -194.5 -60.5t-141.5 -157.5t-51 -204q0 -128 72 -206t190 -78z" />
    <glyph glyph-name="uni0122" unicode="&#x122;" horiz-adv-x="1781" 
d="M770 -35q-296 0 -476.5 178t-180.5 486q0 155 47.5 305t136.5 274.5t207 219.5t267 148.5t308 53.5q256 0 430 -133t211 -358l-254 -97q-38 160 -148 252t-280 92q-136 0 -259.5 -61.5t-208.5 -161.5t-135 -229.5t-50 -263.5q0 -123 42 -215.5t112 -144t151 -76.5
t170 -25q188 0 351 110t290 320l-22 31q-233 -70 -533 -70l37 213h719l-143 -813h-201q2 12 6.5 51t8 60t11 56.5t19.5 70t29 71.5l-39 13q-228 -357 -623 -357zM659 -610h-129q99 140 211 227q-58 0 -90.5 31t-32.5 80q0 66 50.5 113.5t119.5 47.5q54 0 86.5 -32t32.5 -86
q0 -13 -1.5 -25t-7.5 -26.5t-11.5 -26t-19 -31.5t-24.5 -35.5t-33.5 -44.5t-40 -51.5t-51 -64.5t-59.5 -76z" />
    <glyph glyph-name="uni0123" unicode="&#x123;" horiz-adv-x="1363" 
d="M666 1386q0 48 33 100t156 211q15 20 24 31t23.5 30t27.5 36h137q-106 -156 -213 -281q51 4 76.5 -20.5t25.5 -69.5q0 -65 -47.5 -109t-117.5 -44q-57 0 -91 31t-34 85zM467 -483q-67 0 -126 9.5t-117 33t-102.5 59.5t-78.5 93.5t-49 131.5l235 80q46 -200 273 -200
q309 0 383 362q1 3 3.5 17.5t3 17.5t3.5 15.5t4 16.5t4 15t5.5 16.5t6 15t7.5 17t9 17t11 18.5h-33q-152 -248 -407 -248q-199 0 -316.5 122.5t-117.5 336.5q0 138 51.5 268.5t136 226.5t201 154.5t239.5 58.5q135 0 217.5 -71t102.5 -203h33q2 107 24 242h240l-178 -1016
q-24 -135 -72.5 -240.5t-111 -173.5t-143 -112t-164 -62t-177.5 -18zM590 236q78 0 151.5 36t126.5 94t85 135.5t32 157.5q0 128 -76 205.5t-194 77.5q-104 0 -194.5 -60.5t-141.5 -157.5t-51 -204q0 -128 72 -206t190 -78z" />
    <glyph glyph-name="Hbar" unicode="&#x126;" horiz-adv-x="1658" 
d="M1614 1327h145l-35 -199h-147l-199 -1128h-258q69 407 152 694l-29 23q-386 -86 -774 0l-35 -23q-7 -123 -24 -255.5t-29.5 -206.5t-40.5 -232h-256l199 1128h-148l35 199h149l48 270h256q-18 -105 -52 -270h785q6 39 47 270h258zM1276 879l33 20q4 82 20 229h-799
q-38 -154 -59 -229l25 -20q221 39 404 39.5t376 -39.5z" />
    <glyph glyph-name="hbar" unicode="&#x127;" horiz-adv-x="1302" 
d="M870 1171q80 0 145.5 -26t114.5 -81.5t65 -141t-3 -205.5l-127 -717h-242l107 610q15 96 5.5 169.5t-58 118t-129.5 44.5q-126 0 -223 -91.5t-126 -248.5l-104 -602h-244l225 1280h-210l32 184h211l31 174h244q-5 -31 -16.5 -89.5t-16.5 -84.5h321l-32 -184h-326
q-45 -200 -94 -367h33q164 258 417 258z" />
    <glyph glyph-name="Imacron" unicode="&#x12a;" horiz-adv-x="622" 
d="M887 1784h-727l33 184h729zM340 0h-256l283 1597h256z" />
    <glyph glyph-name="imacron" unicode="&#x12b;" horiz-adv-x="546" 
d="M756 1343h-688l30 177h688zM295 0h-244l203 1139h242z" />
    <glyph glyph-name="Iogonek" unicode="&#x12e;" horiz-adv-x="622" 
d="M141 -195q0 -46 35.5 -78t102.5 -32q52 0 92 12l-27 -153q-58 -17 -129 -17q-111 0 -184.5 50.5t-73.5 144.5q0 89 61 158t152 110h-86l283 1597h256l-283 -1597h4q-91 -21 -147 -77.5t-56 -117.5z" />
    <glyph glyph-name="iogonek" unicode="&#x12f;" horiz-adv-x="546" 
d="M465 1651q59 0 96 -36.5t37 -92.5q0 -74 -57.5 -131.5t-130.5 -57.5q-60 0 -97 37t-37 96q0 72 57 128.5t132 56.5zM106 0h-55l203 1139h242l-201 -1139h-25q-89 -25 -142.5 -79.5t-53.5 -117.5q0 -45 33.5 -72.5t91.5 -27.5q49 0 96 16l-31 -168q-55 -14 -112 -14
q-117 0 -189 51t-72 146q0 90 63 161t152 105z" />
    <glyph glyph-name="Idotaccent" unicode="&#x130;" horiz-adv-x="622" 
d="M520 1763q-60 0 -96.5 37t-36.5 96q0 72 56.5 128.5t131.5 56.5q59 0 96.5 -36.5t37.5 -92.5q0 -74 -57.5 -131.5t-131.5 -57.5zM340 0h-256l283 1597h256z" />
    <glyph glyph-name="dotlessi" unicode="&#x131;" horiz-adv-x="546" 
d="M295 0h-244l203 1139h242z" />
    <glyph glyph-name="uni0136" unicode="&#x136;" horiz-adv-x="1433" 
d="M340 0h-256l283 1597h256q-3 -15 -16.5 -93t-17.5 -99t-17 -90.5t-20.5 -101t-22.5 -94t-28.5 -106t-32.5 -101.5t-40 -113h33q390 384 844 798h305q-488 -451 -783 -698l-6 -35q99 -130 202 -292t166 -271t171 -301h-313q-9 16 -27 47q-221 390 -323 603q-15 32 -29 63
h-25q-70 -72 -121 -116t-106 -75q-17 -199 -76 -522zM528 -610h-129q99 140 211 227q-58 0 -90.5 31t-32.5 80q0 66 50.5 113.5t119.5 47.5q54 0 86.5 -32t32.5 -86q0 -13 -1.5 -25t-7.5 -26.5t-11.5 -26t-19 -31.5t-24.5 -35.5t-33.5 -44.5t-40 -51.5t-51 -64.5t-59.5 -76z
" />
    <glyph glyph-name="uni0137" unicode="&#x137;" horiz-adv-x="1138" 
d="M297 0h-246l289 1638h246q-90 -513 -140 -732q-30 -136 -65 -265h33q140 148 239.5 245t272.5 253h291l-537 -459q24 -36 47.5 -72.5t49.5 -79.5t43.5 -71.5t46.5 -80t40.5 -72t44 -80t39.5 -71.5t43 -79.5t39 -73.5h-285q-152 294 -228 464q-16 37 -32 75
q-96 -120 -184 -181q-8 -123 -47 -358zM358 -610h-129q99 140 211 227q-58 0 -90.5 31t-32.5 80q0 66 50.5 113.5t119.5 47.5q54 0 86.5 -32t32.5 -86q0 -13 -1.5 -25t-7.5 -26.5t-11.5 -26t-19 -31.5t-24.5 -35.5t-33.5 -44.5t-40 -51.5t-51 -64.5t-59.5 -76z" />
    <glyph glyph-name="Lacute" unicode="&#x139;" horiz-adv-x="1198" 
d="M1059 2071l-391 -351h-222l302 351h311zM1077 0h-993l283 1597h256q-49 -278 -81 -453.5t-86 -435t-110 -481.5l27 -30q128 20 271 30t231 11.5t245 1.5z" />
    <glyph glyph-name="lacute" unicode="&#x13a;" horiz-adv-x="546" 
d="M1001 2111l-391 -350h-221l301 350h311zM295 0h-244l289 1638h244z" />
    <glyph glyph-name="uni013B" unicode="&#x13b;" horiz-adv-x="1198" 
d="M1077 0h-993l283 1597h256q-49 -278 -81 -453.5t-86 -435t-110 -481.5l27 -30q128 20 271 30t231 11.5t245 1.5zM401 -610h-129q99 140 211 227q-58 0 -90.5 31t-32.5 80q0 66 50.5 113.5t119.5 47.5q54 0 86.5 -32t32.5 -86q0 -13 -1.5 -25t-7.5 -26.5t-11.5 -26
t-19 -31.5t-24.5 -35.5t-33.5 -44.5t-40 -51.5t-51 -64.5t-59.5 -76z" />
    <glyph glyph-name="uni013C" unicode="&#x13c;" horiz-adv-x="546" 
d="M295 0h-244l289 1638h244zM35 -610h-129q99 140 211 227q-58 0 -90.5 31t-32.5 80q0 66 50.5 113.5t119.5 47.5q54 0 86.5 -32t32.5 -86q0 -13 -1.5 -25t-7.5 -26.5t-11.5 -26t-19 -31.5t-24.5 -35.5t-33.5 -44.5t-40 -51.5t-51 -64.5t-59.5 -76z" />
    <glyph glyph-name="Lcaron" unicode="&#x13d;" horiz-adv-x="1198" 
d="M963 1071h-146q45 62 71 95t76.5 86t104.5 96q-125 29 -125 122q0 72 58.5 129.5t134.5 57.5q58 0 95.5 -38t37.5 -95q0 -55 -46 -122t-224 -285q-8 -10 -12.5 -15.5t-11.5 -14.5t-13 -16zM1077 0h-993l283 1597h256q-49 -278 -81 -453.5t-86 -435t-110 -481.5l27 -30
q128 20 271 30t231 11.5t245 1.5z" />
    <glyph glyph-name="lcaron" unicode="&#x13e;" horiz-adv-x="546" 
d="M770 1071h-145q45 62 71 95t76.5 86t104.5 96q-125 29 -125 122q0 73 58 130t134 57q58 0 95.5 -38t37.5 -95q0 -55 -46 -122t-224 -285q-8 -10 -12.5 -15.5t-11.5 -14.5t-13 -16zM295 0h-244l289 1638h244z" />
    <glyph glyph-name="Lslash" unicode="&#x141;" horiz-adv-x="1198" 
d="M346 227l27 -30q128 20 271 30t231 11.5t245 1.5l-43 -240h-993l127 717l-182 -78l39 219l182 78l117 661h256q-47 -264 -99 -540l254 108l-37 -219l-260 -112q-59 -303 -135 -607z" />
    <glyph glyph-name="lslash" unicode="&#x142;" horiz-adv-x="546" 
d="M492 1116l200 127l-37 -211l-200 -129l-160 -903h-244l129 729l-203 -129l37 211l203 129l123 698h244z" />
    <glyph glyph-name="Nacute" unicode="&#x143;" horiz-adv-x="1675" 
d="M1522 2071l-392 -351h-221l301 351h312zM340 0h-256l283 1597h235q191 -325 333 -610.5t267 -617.5h33q50 492 184 1228h258l-282 -1597h-238q-202 339 -343.5 610.5t-262.5 587.5h-33q-21 -212 -55 -449t-54.5 -356.5t-68.5 -392.5z" />
    <glyph glyph-name="nacute" unicode="&#x144;" horiz-adv-x="1302" 
d="M1239 1661l-379 -383h-211l297 383h293zM295 0h-244l203 1139h238q-7 -39 -12 -63.5t-20.5 -69.5t-39.5 -93h33q164 258 417 258q82 0 147.5 -26t114 -81.5t64 -141t-3.5 -205.5l-127 -717h-242l107 610q28 149 -17.5 240.5t-167.5 91.5q-126 0 -221.5 -91.5
t-124.5 -248.5z" />
    <glyph glyph-name="uni0145" unicode="&#x145;" horiz-adv-x="1675" 
d="M340 0h-256l283 1597h235q191 -325 333 -610.5t267 -617.5h33q50 492 184 1228h258l-282 -1597h-238q-202 339 -343.5 610.5t-262.5 587.5h-33q-21 -212 -55 -449t-54.5 -356.5t-68.5 -392.5zM623 -610h-129q99 140 211 227q-58 0 -90.5 31t-32.5 80q0 66 50.5 113.5
t119.5 47.5q54 0 86 -32t32 -86q0 -13 -1.5 -24.5t-7.5 -26.5t-11.5 -26.5t-19 -32t-24 -35t-33.5 -44.5t-40 -51.5t-50.5 -64.5t-59.5 -76z" />
    <glyph glyph-name="uni0146" unicode="&#x146;" horiz-adv-x="1302" 
d="M295 0h-244l203 1139h238q-7 -39 -12 -63.5t-20.5 -69.5t-39.5 -93h33q164 258 417 258q82 0 147.5 -26t114 -81.5t64 -141t-3.5 -205.5l-127 -717h-242l107 610q28 149 -17.5 240.5t-167.5 91.5q-126 0 -221.5 -91.5t-124.5 -248.5zM461 -610h-129q99 140 211 227
q-58 0 -90.5 31t-32.5 80q0 66 50.5 113.5t119.5 47.5q54 0 86.5 -32t32.5 -86q0 -13 -1.5 -25t-7.5 -26.5t-11.5 -26t-19 -31.5t-24.5 -35.5t-33.5 -44.5t-40 -51.5t-51 -64.5t-59.5 -76z" />
    <glyph glyph-name="Ncaron" unicode="&#x147;" horiz-adv-x="1675" 
d="M1149 1720h-254l-221 342h225q32 -37 47.5 -59t35 -69t26.5 -105h65q20 44 42.5 79t51.5 65t45.5 45t51.5 44h225zM340 0h-256l283 1597h235q191 -325 333 -610.5t267 -617.5h33q50 492 184 1228h258l-282 -1597h-238q-202 339 -343.5 610.5t-262.5 587.5h-33
q-21 -212 -55 -449t-54.5 -356.5t-68.5 -392.5z" />
    <glyph glyph-name="ncaron" unicode="&#x148;" horiz-adv-x="1302" 
d="M903 1290h-258l-229 379h229q74 -117 99 -172q18 -43 30 -86h45q18 30 36.5 57t44.5 57t40 45t50.5 51.5l47.5 47.5h230zM295 0h-244l203 1139h238q-7 -39 -12 -63.5t-20.5 -69.5t-39.5 -93h33q164 258 417 258q82 0 147.5 -26t114 -81.5t64 -141t-3.5 -205.5l-127 -717
h-242l107 610q28 149 -17.5 240.5t-167.5 91.5q-126 0 -221.5 -91.5t-124.5 -248.5z" />
    <glyph glyph-name="Eng" unicode="&#x14a;" horiz-adv-x="1675" 
d="M846 -483q-81 0 -163.5 14t-121.5 33l37 215q71 -43 217 -43q131 0 209.5 70.5t110.5 226.5q-202 346 -335 598.5t-253 542.5h-33q-19 -201 -52 -431t-53.5 -351t-68.5 -392h-256l283 1597h235q370 -626 606 -1204h33q28 294 70 569t108 635h258l-278 -1564
q-90 -516 -553 -516z" />
    <glyph glyph-name="eng" unicode="&#x14b;" horiz-adv-x="1302" 
d="M621 -483q-126 0 -215 47l36 213q82 -43 168 -43q27 0 50.5 5.5t41 13.5t32.5 23.5t25.5 27.5t20 33.5t14.5 35t10.5 38t8 36t6.5 35.5l111 628q28 149 -16 240.5t-166 91.5q-126 0 -223 -91.5t-126 -248.5l-104 -602h-244l203 1139h238q-7 -39 -12 -63.5t-20.5 -69.5
t-39.5 -93h33q164 258 417 258q81 0 146.5 -26t114 -81t64.5 -140t-3 -203l-129 -735q-7 -40 -11.5 -65.5t-15.5 -68t-22 -71.5t-30 -67t-41.5 -63.5t-55 -53t-70 -43.5t-88 -26.5t-108.5 -10.5z" />
    <glyph glyph-name="Omacron" unicode="&#x14c;" horiz-adv-x="1783" 
d="M1464 1784h-727l33 184h729zM786 -35q-146 0 -271 48.5t-214 135.5t-139.5 214t-50.5 278q0 189 78 370t207 317t309 219t372 83q198 0 351.5 -85t239 -240t85.5 -355q0 -151 -49.5 -298.5t-140.5 -270t-209.5 -216.5t-266 -147t-301.5 -53zM829 209q129 0 249.5 59.5
t207 156.5t139 225.5t52.5 262.5q0 210 -121.5 341.5t-317.5 131.5q-127 0 -248 -59.5t-208.5 -156.5t-141 -226.5t-53.5 -263.5q0 -212 124 -341.5t318 -129.5z" />
    <glyph glyph-name="omacron" unicode="&#x14d;" horiz-adv-x="1312" 
d="M1141 1356h-688l30 176h688zM551 -35q-225 0 -357.5 131t-132.5 353q0 137 53 268t144.5 231.5t224 161.5t281.5 61q224 0 355.5 -131t131.5 -354q0 -138 -52.5 -269t-143 -231t-223 -160.5t-281.5 -60.5zM592 195q111 0 204 64t145 168.5t52 223.5q0 133 -72.5 212
t-197.5 79q-114 0 -208 -66.5t-145 -170.5t-51 -218q0 -133 74 -212.5t199 -79.5z" />
    <glyph glyph-name="Ohungarumlaut" unicode="&#x150;" horiz-adv-x="1783" 
d="M1323 2068l-362 -348h-211l276 348h297zM1747 2068l-369 -348h-213l287 348h295zM786 -35q-146 0 -271 48.5t-214 135.5t-139.5 214t-50.5 278q0 189 78 370t207 317t309 219t372 83q198 0 351.5 -85t239 -240t85.5 -355q0 -151 -49.5 -298.5t-140.5 -270t-209.5 -216.5
t-266 -147t-301.5 -53zM829 209q129 0 249.5 59.5t207 156.5t139 225.5t52.5 262.5q0 210 -121.5 341.5t-317.5 131.5q-127 0 -248 -59.5t-208.5 -156.5t-141 -226.5t-53.5 -263.5q0 -212 124 -341.5t318 -129.5z" />
    <glyph glyph-name="ohungarumlaut" unicode="&#x151;" horiz-adv-x="1312" 
d="M1004 1673l-377 -395h-205l293 395h289zM1432 1673l-385 -395h-205l301 395h289zM551 -35q-225 0 -357.5 131t-132.5 353q0 137 53 268t144.5 231.5t224 161.5t281.5 61q224 0 355.5 -131t131.5 -354q0 -138 -52.5 -269t-143 -231t-223 -160.5t-281.5 -60.5zM592 195
q111 0 204 64t145 168.5t52 223.5q0 133 -72.5 212t-197.5 79q-114 0 -208 -66.5t-145 -170.5t-51 -218q0 -133 74 -212.5t199 -79.5z" />
    <glyph glyph-name="OE" unicode="&#x152;" horiz-adv-x="2580" 
d="M780 -35q-141 0 -263 46.5t-212 131.5t-142 213t-52 283q0 190 77.5 372t206.5 317.5t307.5 218.5t370.5 83q165 0 294 -68t206 -192l39 227h1032l-41 -237h-71.5h-76t-71 0.5t-77.5 1t-73.5 2t-79.5 3.5t-75.5 5t-82 7t-79 9.5t-84.5 12.5l-39 -21q11 -225 -76 -475
l27 -22q130 26 272.5 38.5t229 14.5t241.5 2l-45 -248q-151 0 -240 2t-225 15.5t-256 40.5l-34 -21q-9 -278 -95 -500l27 -30q141 20 296 30t249 11.5t262 1.5l-43 -240h-1053l39 225q-121 -124 -273.5 -192t-316.5 -68zM825 209q129 0 248.5 60.5t205.5 159t137.5 228
t51.5 263.5q0 211 -119.5 338.5t-312.5 127.5q-171 0 -322 -100.5t-239 -263.5t-88 -342q0 -212 121.5 -341.5t316.5 -129.5z" />
    <glyph glyph-name="oe" unicode="&#x153;" horiz-adv-x="2170" 
d="M551 -35q-225 0 -357.5 131.5t-132.5 354.5q0 138 53.5 269t145 230.5t224 160t280.5 60.5q145 0 250 -60.5t157 -168.5q87 107 214 168t270 61q69 0 131.5 -14.5t119.5 -44.5t99.5 -77.5t70.5 -114t32.5 -152t-13.5 -193.5l-8 -47h-873q-15 -155 64.5 -250.5
t216.5 -95.5q103 0 196 58t150 157l213 -90q-89 -155 -248 -248.5t-352 -93.5q-147 0 -255 60t-159 168q-94 -109 -219.5 -168.5t-269.5 -59.5zM1251 686h613q4 75 -16.5 131t-58 87.5t-82 46t-95.5 14.5q-120 0 -217.5 -76.5t-143.5 -202.5zM590 195q111 0 204.5 63.5
t146 167.5t52.5 221q0 136 -72.5 215.5t-197.5 79.5q-112 0 -206 -65.5t-146 -169.5t-52 -218q0 -134 73.5 -214t197.5 -80z" />
    <glyph glyph-name="Racute" unicode="&#x154;" horiz-adv-x="1431" 
d="M1346 2071l-392 -351h-221l301 351h312zM340 0h-256l283 1597h600q22 0 42.5 -1t71 -8.5t91.5 -21.5t92 -44.5t85.5 -71.5t58.5 -108t24 -150q0 -221 -146.5 -370.5t-386.5 -164.5l-4 -32q26 -33 51 -67t49.5 -72.5t42.5 -66.5t43 -73t37.5 -67t38.5 -73t34 -67l36 -72
t33 -67h-289l-297 604q-141 11 -250 53q-12 -274 -84 -657zM446 784l27 -20q54 19 112 29t97.5 12t99.5 2q159 1 266 96.5t107 233.5q0 62 -24 107.5t-65 70.5t-88 37t-99 12q-63 0 -98 1t-90.5 10t-106.5 26l-35 -21q0 -292 -103 -596z" />
    <glyph glyph-name="racute" unicode="&#x155;" horiz-adv-x="874" 
d="M1069 1661l-379 -383h-211l297 383h293zM295 0h-244l203 1139h238q-1 -5 -5 -31.5t-5.5 -36.5t-7.5 -36t-12 -45.5t-16.5 -48.5t-23.5 -60h33q68 144 168 217t219 73q61 0 110 -20l-47 -270q-56 22 -137 22q-74 0 -135.5 -27.5t-102.5 -70t-73 -101.5t-49.5 -114.5
t-28.5 -116.5z" />
    <glyph glyph-name="uni0156" unicode="&#x156;" horiz-adv-x="1431" 
d="M340 0h-256l283 1597h600q22 0 42.5 -1t71 -8.5t91.5 -21.5t92 -44.5t85.5 -71.5t58.5 -108t24 -150q0 -221 -146.5 -370.5t-386.5 -164.5l-4 -32q26 -33 51 -67t49.5 -72.5t42.5 -66.5t43 -73t37.5 -67t38.5 -73t34 -67l36 -72t33 -67h-289l-297 604q-141 11 -250 53
q-12 -274 -84 -657zM446 784l27 -20q54 19 112 29t97.5 12t99.5 2q159 1 266 96.5t107 233.5q0 62 -24 107.5t-65 70.5t-88 37t-99 12q-63 0 -98 1t-90.5 10t-106.5 26l-35 -21q0 -292 -103 -596zM467 -610h-129q99 140 211 227q-58 0 -90.5 31t-32.5 80q0 66 50.5 113.5
t119.5 47.5q54 0 86.5 -32t32.5 -86q0 -13 -1.5 -25t-7.5 -26.5t-11.5 -26t-19 -31.5t-24.5 -35.5t-33.5 -44.5t-40 -51.5t-51 -64.5t-59.5 -76z" />
    <glyph glyph-name="uni0157" unicode="&#x157;" horiz-adv-x="874" 
d="M295 0h-244l203 1139h238q-1 -5 -5 -31.5t-5.5 -36.5t-7.5 -36t-12 -45.5t-16.5 -48.5t-23.5 -60h33q68 144 168 217t219 73q61 0 110 -20l-47 -270q-56 22 -137 22q-74 0 -135.5 -27.5t-102.5 -70t-73 -101.5t-49.5 -114.5t-28.5 -116.5zM29 -610h-129q99 140 211 227
q-58 0 -90.5 31t-32.5 80q0 66 50.5 113.5t119.5 47.5q54 0 86 -32t32 -86q0 -13 -1.5 -24.5t-7.5 -26.5t-11.5 -26.5t-19 -32t-24 -35t-33.5 -44.5t-40 -51.5t-50.5 -64.5t-59.5 -76z" />
    <glyph glyph-name="Rcaron" unicode="&#x158;" horiz-adv-x="1431" 
d="M973 1720h-254l-221 342h225q31 -36 47 -58.5t35 -69.5t26 -105h66q27 57 62.5 104.5t59 69.5t68.5 59h226zM340 0h-256l283 1597h600q22 0 42.5 -1t71 -8.5t91.5 -21.5t92 -44.5t85.5 -71.5t58.5 -108t24 -150q0 -221 -146.5 -370.5t-386.5 -164.5l-4 -32q26 -33 51 -67
t49.5 -72.5t42.5 -66.5t43 -73t37.5 -67t38.5 -73t34 -67l36 -72t33 -67h-289l-297 604q-141 11 -250 53q-12 -274 -84 -657zM446 784l27 -20q54 19 112 29t97.5 12t99.5 2q159 1 266 96.5t107 233.5q0 62 -24 107.5t-65 70.5t-88 37t-99 12q-63 0 -98 1t-90.5 10t-106.5 26
l-35 -21q0 -292 -103 -596z" />
    <glyph glyph-name="rcaron" unicode="&#x159;" horiz-adv-x="874" 
d="M733 1290h-258l-229 379h229q74 -117 99 -172q18 -43 30 -86h45q18 30 36.5 57t44.5 57t40 45t50.5 51.5l47.5 47.5h230zM295 0h-244l203 1139h238q-1 -5 -5 -31.5t-5.5 -36.5t-7.5 -36t-12 -45.5t-16.5 -48.5t-23.5 -60h33q68 144 168 217t219 73q61 0 110 -20l-47 -270
q-56 22 -137 22q-74 0 -135.5 -27.5t-102.5 -70t-73 -101.5t-49.5 -114.5t-28.5 -116.5z" />
    <glyph glyph-name="Sacute" unicode="&#x15a;" horiz-adv-x="1331" 
d="M1305 2071l-392 -351h-221l301 351h312zM578 -35q-225 0 -373 121t-166 350l254 84q16 -166 105.5 -242.5t222.5 -76.5q146 0 244 76.5t98 185.5q0 38 -15 68.5t-35 50t-56 37.5t-61.5 27t-68.5 23q-11 3 -16 5l-138 45q-51 16 -89.5 32t-92 48.5t-88.5 70t-60.5 98
t-25.5 132.5q0 102 47.5 198.5t129 169.5t199 117.5t249.5 44.5q110 0 200.5 -30.5t149.5 -83t93.5 -119.5t41.5 -142l-252 -96q-19 111 -90.5 174.5t-187.5 63.5q-128 0 -215.5 -69t-87.5 -165q0 -38 17.5 -71t41 -54.5t62.5 -42t66 -31t67 -24.5l155 -53q33 -11 47 -15.5
t48.5 -18t52.5 -23t48.5 -28t47.5 -35.5t39 -43t33.5 -53t19.5 -63t8 -76q0 -106 -50 -208.5t-136.5 -182t-213 -128t-269.5 -48.5z" />
    <glyph glyph-name="sacute" unicode="&#x15b;" horiz-adv-x="1038" 
d="M1102 1663l-379 -383h-211l297 383h293zM426 -35q-182 0 -296 87.5t-132 232.5l240 73q22 -95 85.5 -143.5t143.5 -48.5q86 0 145.5 46t59.5 112q0 14 -2.5 26t-9.5 22.5t-12.5 18t-18.5 15.5t-19.5 12.5t-23.5 11t-23.5 9t-26 8.5t-24.5 8l-111 34q-24 7 -38.5 12
t-45 18.5t-50.5 27t-46 36.5t-42 48.5t-27 62t-11 78.5q0 162 137 280.5t340 118.5q161 0 262.5 -79t116.5 -205l-239 -74q-12 70 -57 115t-126 45q-76 0 -130 -43t-54 -105q0 -31 16.5 -56t49 -43t59.5 -28t68 -22l88 -27q101 -33 139 -54q127 -71 127 -218
q0 -169 -146 -290.5t-366 -121.5z" />
    <glyph glyph-name="Scedilla" unicode="&#x15e;" horiz-adv-x="1331" 
d="M748 940l155 -53q33 -11 47 -15.5t48.5 -18t52.5 -23t48.5 -28t47.5 -35.5t39 -43t33.5 -53t19.5 -63t8 -76q0 -101 -45.5 -198.5t-124 -175.5t-195 -130t-249.5 -61q-34 -34 -141 -110l12 -17q77 49 131 49q68 0 113 -42t45 -113q0 -102 -89 -174t-221 -72
q-85 0 -153 33t-103 92l99 96q28 -47 74.5 -70.5t97.5 -23.5q57 0 94 28.5t37 71.5q0 32 -25.5 51t-68.5 19q-53 0 -95 -27l-67 62l123 149q-194 21 -317 140t-140 327l254 84q16 -166 105.5 -242.5t222.5 -76.5q146 0 244 76.5t98 185.5q0 38 -15 68.5t-35 50t-56 37.5
t-61.5 27t-68.5 23q-11 3 -16 5l-138 45q-51 16 -89.5 32t-92 48.5t-88.5 70t-60.5 98t-25.5 132.5q0 102 47.5 198.5t129 169.5t199 117.5t249.5 44.5q110 0 200.5 -30.5t149.5 -83t93.5 -119.5t41.5 -142l-252 -96q-19 111 -90.5 174.5t-187.5 63.5q-128 0 -215.5 -69
t-87.5 -165q0 -38 17.5 -71t41 -54.5t62.5 -42t66 -31t67 -24.5z" />
    <glyph glyph-name="scedilla" unicode="&#x15f;" horiz-adv-x="1038" 
d="M584 676l88 -27q101 -33 139 -54q127 -71 127 -218q0 -159 -131 -278t-332 -132q-42 -40 -141 -110l12 -17q77 49 131 49q68 0 113 -42t45 -113q0 -102 -88.5 -174t-220.5 -72q-85 0 -153 33t-103 92l98 96q28 -47 74.5 -70.5t97.5 -23.5q57 0 94 28.5t37 71.5
q0 32 -25.5 51t-68.5 19q-52 0 -94 -27l-68 62l123 151q-145 20 -235 104t-105 210l240 73q22 -95 85.5 -143.5t143.5 -48.5q86 0 145.5 46t59.5 112q0 14 -2.5 26t-9.5 22.5t-12.5 18t-18.5 15.5t-19.5 12.5t-23.5 11t-23.5 9t-26 8.5t-24.5 8l-111 34q-24 7 -38.5 12
t-45 18.5t-50.5 27t-46 36.5t-42 48.5t-27 62t-11 78.5q0 162 137 280.5t340 118.5q161 0 262.5 -79t116.5 -205l-239 -74q-12 70 -57 115t-126 45q-76 0 -130 -43t-54 -105q0 -31 16.5 -56t49 -43t59.5 -28t68 -22z" />
    <glyph glyph-name="Scaron" unicode="&#x160;" horiz-adv-x="1331" 
d="M985 1720h-254l-221 342h225q32 -37 47.5 -59t35 -69t26.5 -105h65q20 44 42.5 79t51.5 65t45.5 45t51.5 44h225zM578 -35q-225 0 -373 121t-166 350l254 84q16 -166 105.5 -242.5t222.5 -76.5q146 0 244 76.5t98 185.5q0 38 -15 68.5t-35 50t-56 37.5t-61.5 27t-68.5 23
q-11 3 -16 5l-138 45q-51 16 -89.5 32t-92 48.5t-88.5 70t-60.5 98t-25.5 132.5q0 102 47.5 198.5t129 169.5t199 117.5t249.5 44.5q110 0 200.5 -30.5t149.5 -83t93.5 -119.5t41.5 -142l-252 -96q-19 111 -90.5 174.5t-187.5 63.5q-128 0 -215.5 -69t-87.5 -165
q0 -38 17.5 -71t41 -54.5t62.5 -42t66 -31t67 -24.5l155 -53q33 -11 47 -15.5t48.5 -18t52.5 -23t48.5 -28t47.5 -35.5t39 -43t33.5 -53t19.5 -63t8 -76q0 -106 -50 -208.5t-136.5 -182t-213 -128t-269.5 -48.5z" />
    <glyph glyph-name="scaron" unicode="&#x161;" horiz-adv-x="1038" 
d="M766 1292h-258l-229 379h229q74 -117 99 -172q18 -43 30 -86h45q18 30 36.5 57t44.5 57t40 45t50.5 51.5l47.5 47.5h229zM426 -35q-182 0 -296 87.5t-132 232.5l240 73q22 -95 85.5 -143.5t143.5 -48.5q86 0 145.5 46t59.5 112q0 14 -2.5 26t-9.5 22.5t-12.5 18
t-18.5 15.5t-19.5 12.5t-23.5 11t-23.5 9t-26 8.5t-24.5 8l-111 34q-24 7 -38.5 12t-45 18.5t-50.5 27t-46 36.5t-42 48.5t-27 62t-11 78.5q0 162 137 280.5t340 118.5q161 0 262.5 -79t116.5 -205l-239 -74q-12 70 -57 115t-126 45q-76 0 -130 -43t-54 -105q0 -31 16.5 -56
t49 -43t59.5 -28t68 -22l88 -27q101 -33 139 -54q127 -71 127 -218q0 -169 -146 -290.5t-366 -121.5z" />
    <glyph glyph-name="uni0162" unicode="&#x162;" horiz-adv-x="1302" 
d="M164 1360l43 237h1255l-43 -237q-111 0 -172.5 1t-161.5 9t-190 23q-56 -491 -215 -1393h-55q-44 -55 -172 -143l12 -17q77 49 131 49q68 0 113 -42t45 -113q0 -102 -89 -174t-221 -72q-85 0 -153 33t-103 92l99 96q28 -47 74.5 -70.5t97.5 -23.5q57 0 94 28.5t37 71.5
q0 32 -25.5 51t-68.5 19q-53 0 -95 -27l-67 62l147 180h-59q5 29 29.5 163t32 176.5t30 164.5t34.5 181t33.5 168t38.5 184.5t38.5 171.5t43.5 184q-97 -15 -200 -23t-165 -9t-173 -1z" />
    <glyph glyph-name="uni0163" unicode="&#x163;" horiz-adv-x="856" 
d="M907 1139l-39 -219q-218 0 -346 26q-3 -139 -15.5 -236.5t-25 -137.5t-22.5 -96t-10 -124q0 -87 24.5 -126.5t99.5 -39.5q87 0 175 45l-39 -219q-90 -47 -220 -47q-33 0 -47 2q-42 -40 -141 -110l12 -17q77 49 131 49q68 0 113 -42t45 -113q0 -102 -88.5 -174t-220.5 -72
q-85 0 -153 33t-103 92l98 96q28 -47 74.5 -70.5t97.5 -23.5q57 0 94 28.5t37 71.5q0 32 -25.5 51t-68.5 19q-52 0 -94 -27l-68 62l142 174q-40 17 -68 44t-41 61.5t-19.5 65t-3.5 71.5t6 64t9 58q65 372 137 588q-111 -26 -264 -26l39 219q150 0 254 -27q-2 34 -2 65.5
t2 65.5t4 55t7.5 59.5t7.5 52t9 56.5h244q-37 -216 -96 -354q145 27 358 27z" />
    <glyph glyph-name="Tcaron" unicode="&#x164;" horiz-adv-x="1302" 
d="M983 1720h-254l-221 342h225q32 -37 47.5 -59t35 -69t26.5 -105h65q20 44 42.5 79t51.5 65t45.5 45t51.5 44h225zM680 0h-258q5 29 29.5 163t32 176.5t30 164.5t34.5 181t33.5 168t38.5 184.5t38.5 171.5t43.5 184q-97 -15 -200 -23t-165 -9t-173 -1l43 237h1255
l-43 -237q-111 0 -172.5 1t-161.5 9t-190 23q-56 -491 -215 -1393z" />
    <glyph glyph-name="tcaron" unicode="&#x165;" horiz-adv-x="856" 
d="M1128 1083h-143q38 52 53 71.5t50.5 63t71 76.5t77.5 66q-127 29 -127 123q0 72 59 129t134 57q59 0 97 -37.5t38 -95.5q0 -53 -43.5 -117t-204.5 -260q-40 -49 -62 -76zM489 -35q-57 0 -102.5 10t-77 25t-54 39.5t-35.5 47.5t-19.5 56t-8.5 57.5t1 58t6 52.5t8 47
q65 372 137 588q-111 -26 -264 -26l39 219q150 0 254 -27q-2 34 -2 65.5t2 65.5t4 55t7.5 59.5t7.5 52t9 56.5h244q-37 -216 -96 -354q145 27 358 27l-39 -219q-218 0 -346 26q-3 -139 -15.5 -236.5t-25 -137.5t-22.5 -96t-10 -124q0 -87 24.5 -126.5t99.5 -39.5
q87 0 175 45l-39 -219q-90 -47 -220 -47z" />
    <glyph glyph-name="Tbar" unicode="&#x166;" horiz-adv-x="1302" 
d="M1462 1597l-43 -237q-111 0 -172.5 1t-161.5 9t-190 23q-33 -282 -66 -492h308l-35 -207h-303q-69 -413 -119 -694h-258q96 528 129 694h-301l35 207h307q54 266 110 492q-97 -15 -200 -23t-165 -9t-173 -1l43 237h1255z" />
    <glyph glyph-name="tbar" unicode="&#x167;" horiz-adv-x="856" 
d="M907 1139l-39 -219q-218 0 -346 26q-2 -135 -18 -254h313l-33 -184h-319q-16 -69 -16 -156t24.5 -126.5t99.5 -39.5q87 0 175 45l-39 -219q-90 -47 -220 -47q-57 0 -102.5 10t-77 25t-54 39.5t-35.5 47.5t-19.5 56t-8.5 57.5t1 58t6 52.5t8 47l26 150h-223l33 184h229
q33 137 72 254q-111 -26 -264 -26l39 219q150 0 254 -27q-2 34 -2 65.5t2 65.5t4 55t7.5 59.5t7.5 52t9 56.5h244q-37 -216 -96 -354q145 27 358 27z" />
    <glyph glyph-name="Umacron" unicode="&#x16a;" horiz-adv-x="1529" 
d="M1346 1784h-728l33 184h729zM657 -35q-100 0 -180 19.5t-134.5 53.5t-93 83t-59 104.5t-28 121.5t-4 130.5t15.5 134.5l174 985h258l-170 -964q-12 -70 -12.5 -130t14 -116t46 -95t87 -62t131.5 -23q78 0 143 24.5t109.5 65t79 97t54.5 115t32 124.5l170 964h258
l-174 -985q-18 -96 -46.5 -180t-84.5 -172.5t-131.5 -151t-192.5 -103t-262 -40.5z" />
    <glyph glyph-name="umacron" unicode="&#x16b;" horiz-adv-x="1286" 
d="M1120 1356h-688l31 176h688zM442 -35q-187 0 -278 115t-51 344l127 715h243l-110 -629q-27 -152 22 -233.5t156 -81.5q125 0 215 94.5t115 228.5l108 621h244l-139 -783q-21 -128 -26 -202.5t1 -153.5h-244q-1 37 -1 66t11 69t35 90h-32q-75 -138 -171 -199t-225 -61z
" />
    <glyph glyph-name="Uring" unicode="&#x16e;" horiz-adv-x="1529" 
d="M971 1712q-95 0 -154 56.5t-59 144.5q0 110 88.5 194t208.5 84q94 0 152.5 -54.5t58.5 -143.5q0 -112 -87.5 -196.5t-207.5 -84.5zM989 1835q57 0 98 41.5t41 95.5q0 41 -26.5 67.5t-69.5 26.5q-57 0 -98 -40t-41 -97q0 -42 26 -68t70 -26zM657 -35q-100 0 -180 19.5
t-134.5 53.5t-93 83t-59 104.5t-28 121.5t-4 130.5t15.5 134.5l174 985h258l-170 -964q-12 -70 -12.5 -130t14 -116t46 -95t87 -62t131.5 -23q78 0 143 24.5t109.5 65t79 97t54.5 115t32 124.5l170 964h258l-174 -985q-18 -96 -46.5 -180t-84.5 -172.5t-131.5 -151
t-192.5 -103t-262 -40.5z" />
    <glyph glyph-name="uring" unicode="&#x16f;" horiz-adv-x="1286" 
d="M760 1253q-95 0 -154 56.5t-59 144.5q0 110 88.5 194.5t208.5 84.5q94 0 152.5 -55t58.5 -144q0 -112 -87.5 -196.5t-207.5 -84.5zM778 1376q57 0 98.5 41.5t41.5 95.5q0 41 -27 68t-70 27q-57 0 -98 -40.5t-41 -97.5q0 -42 26 -68t70 -26zM442 -35q-187 0 -278 115
t-51 344l127 715h243l-110 -629q-27 -152 22 -233.5t156 -81.5q125 0 215 94.5t115 228.5l108 621h244l-139 -783q-21 -128 -26 -202.5t1 -153.5h-244q-1 37 -1 66t11 69t35 90h-32q-75 -138 -171 -199t-225 -61z" />
    <glyph glyph-name="Uhungarumlaut" unicode="&#x170;" horiz-adv-x="1529" 
d="M1202 2068l-362 -348h-211l276 348h297zM1626 2068l-369 -348h-213l287 348h295zM657 -35q-100 0 -180 19.5t-134.5 53.5t-93 83t-59 104.5t-28 121.5t-4 130.5t15.5 134.5l174 985h258l-170 -964q-12 -70 -12.5 -130t14 -116t46 -95t87 -62t131.5 -23q78 0 143 24.5
t109.5 65t79 97t54.5 115t32 124.5l170 964h258l-174 -985q-18 -96 -46.5 -180t-84.5 -172.5t-131.5 -151t-192.5 -103t-262 -40.5z" />
    <glyph glyph-name="uhungarumlaut" unicode="&#x171;" horiz-adv-x="1286" 
d="M985 1673l-377 -395h-205l293 395h289zM1413 1673l-385 -395h-205l301 395h289zM442 -35q-187 0 -278 115t-51 344l127 715h243l-110 -629q-27 -152 22 -233.5t156 -81.5q125 0 215 94.5t115 228.5l108 621h244l-139 -783q-21 -128 -26 -202.5t1 -153.5h-244q-1 37 -1 66
t11 69t35 90h-32q-75 -138 -171 -199t-225 -61z" />
    <glyph glyph-name="Uogonek" unicode="&#x172;" horiz-adv-x="1529" 
d="M1120 633l170 964h258l-174 -985q-15 -85 -39.5 -160.5t-70 -157t-105.5 -143.5t-152 -110t-204 -66q-61 -29 -97 -76t-36 -94q0 -46 35 -78t102 -32q52 0 92 12l-27 -153q-58 -17 -129 -17q-111 0 -184.5 50.5t-73.5 144.5q0 136 150 233q-95 2 -172 23t-129 55.5
t-89 83.5t-56.5 103.5t-27 120t-3.5 129t16 132.5l174 985h258l-170 -964q-12 -70 -12.5 -130t14 -116t46 -95t87 -62t131.5 -23q78 0 143 24.5t109.5 65t79 97t54.5 115t32 124.5z" />
    <glyph glyph-name="uogonek" unicode="&#x173;" horiz-adv-x="1286" 
d="M989 1139h244l-139 -783q-21 -128 -26 -202.5t1 -153.5h-76q-89 -25 -142.5 -79.5t-53.5 -117.5q0 -45 33.5 -72.5t91.5 -27.5q49 0 96 16l-31 -168q-55 -14 -113 -14q-117 0 -188.5 51t-71.5 146q0 90 63 161t152 105h-4q-1 37 -1 66t11 69t35 90h-32
q-75 -138 -171 -199t-225 -61q-187 0 -278 115t-51 344l127 715h243l-110 -629q-27 -152 22 -233.5t156 -81.5q125 0 215 94.5t115 228.5z" />
    <glyph glyph-name="Wcircumflex" unicode="&#x174;" horiz-adv-x="2355" 
d="M1202 1720h-225l344 342h246l225 -342h-225q-33 38 -49.5 61t-34 69t-23.5 104h-65q-41 -83 -86 -133.5t-107 -100.5zM717 0h-324l-190 1597h293q30 -275 46 -439t31.5 -400t20.5 -467h33q234 571 587 1306h293q35 -287 52 -431t39.5 -399.5t33.5 -487.5h33
q242 644 561 1318h291l-756 -1597h-317q-53 380 -82 661.5t-37 602.5h-45q-222 -580 -563 -1264z" />
    <glyph glyph-name="wcircumflex" unicode="&#x175;" horiz-adv-x="1898" 
d="M877 1278h-230l361 367h258l233 -367h-229q-37 51 -53.5 76t-39 72.5t-34.5 97.5h-49q-42 -71 -93.5 -127t-123.5 -119zM584 0h-279l-186 1139h274q29 -201 41 -294t26.5 -261.5t16.5 -321.5h45q20 49 42.5 100t40 91t44 95.5t40.5 85.5t44 91t40 81.5t44 87.5t40.5 79.5
t44 86t40.5 79.5h217q35 -216 48 -300t33.5 -254t31.5 -323h43q56 154 131.5 326t120.5 265t141 286h274l-587 -1139h-289q-82 515 -94 809h-39q-146 -352 -389 -809z" />
    <glyph glyph-name="Ycircumflex" unicode="&#x176;" horiz-adv-x="1427" 
d="M739 1720h-225l344 342h246l225 -342h-225q-33 38 -49.5 61t-34 69t-23.5 104h-65q-41 -83 -86 -133.5t-107 -100.5zM743 0h-258q76 414 115 559q-170 410 -401 1038h276q133 -377 181 -544q44 -151 75 -297h33q30 53 59.5 103.5t64 104.5t58.5 93t64.5 98t59 87.5
t64.5 93.5t59.5 84t65 91.5t60.5 85.5h276q-37 -51 -212 -291t-299.5 -407t-256.5 -338q-22 -217 -84 -561z" />
    <glyph glyph-name="ycircumflex" unicode="&#x177;" horiz-adv-x="1171" 
d="M508 1278h-229l360 367h258l233 -367h-229q-37 51 -53.5 76t-39 72.5t-34.5 97.5h-49q-42 -71 -93.5 -127t-123.5 -119zM375 -451h-254l231 412l-237 1178h266q101 -511 131 -920h33q186 433 454 920h261z" />
    <glyph glyph-name="Ydieresis" unicode="&#x178;" horiz-adv-x="1427" 
d="M700 1747q-58 0 -94.5 35.5t-36.5 91.5q0 73 56 127.5t129 54.5q56 0 92.5 -36t36.5 -89q0 -71 -55 -127.5t-128 -56.5zM1145 1747q-58 0 -93.5 35.5t-35.5 91.5q0 73 55 127.5t129 54.5q55 0 91 -36.5t36 -90.5q0 -70 -55 -126t-127 -56zM743 0h-258q76 414 115 559
q-170 410 -401 1038h276q133 -377 181 -544q44 -151 75 -297h33q30 53 59.5 103.5t64 104.5t58.5 93t64.5 98t59 87.5t64.5 93.5t59.5 84t65 91.5t60.5 85.5h276q-37 -51 -212 -291t-299.5 -407t-256.5 -338q-22 -217 -84 -561z" />
    <glyph glyph-name="Zacute" unicode="&#x179;" horiz-adv-x="1366" 
d="M1380 2071l-391 -351h-221l301 351h311zM1200 0h-1235l37 211q561 617 1180 1188l-13 33q-480 -72 -933 -72l40 237h1188l-37 -213q-529 -569 -1177 -1179l12 -33q464 68 979 68z" />
    <glyph glyph-name="zacute" unicode="&#x17a;" horiz-adv-x="1060" 
d="M1124 1661l-379 -383h-210l296 383h293zM909 0h-942l37 203q218 222 389 389t355 328l-11 32q-225 -37 -587 -37l38 224h879l-35 -203q-6 -6 -84 -84.5t-93 -93t-85 -84t-97 -95t-89 -85t-101.5 -95.5t-93.5 -84.5t-104 -91.5l10 -33q104 15 228.5 23t203.5 9t221 1z" />
    <glyph glyph-name="Zdotaccent" unicode="&#x17b;" horiz-adv-x="1366" 
d="M866 1763q-60 0 -96.5 37t-36.5 96q0 72 57 128.5t132 56.5q59 0 96 -36.5t37 -92.5q0 -74 -57.5 -131.5t-131.5 -57.5zM1200 0h-1235l37 211q561 617 1180 1188l-13 33q-480 -72 -933 -72l40 237h1188l-37 -213q-529 -569 -1177 -1179l12 -33q464 68 979 68z" />
    <glyph glyph-name="zdotaccent" unicode="&#x17c;" horiz-adv-x="1060" 
d="M670 1346q-60 0 -96.5 37t-36.5 96q0 72 56.5 128t131.5 56q59 0 96 -36.5t37 -92.5q0 -74 -57 -131t-131 -57zM909 0h-942l37 203q218 222 389 389t355 328l-11 32q-225 -37 -587 -37l38 224h879l-35 -203q-6 -6 -84 -84.5t-93 -93t-85 -84t-97 -95t-89 -85
t-101.5 -95.5t-93.5 -84.5t-104 -91.5l10 -33q104 15 228.5 23t203.5 9t221 1z" />
    <glyph glyph-name="Zcaron" unicode="&#x17d;" horiz-adv-x="1366" 
d="M1010 1720h-254l-221 342h225q31 -36 47 -58.5t35 -69.5t26 -105h66q27 57 62.5 104.5t59 69.5t68.5 59h226zM1200 0h-1235l37 211q561 617 1180 1188l-13 33q-480 -72 -933 -72l40 237h1188l-37 -213q-529 -569 -1177 -1179l12 -33q464 68 979 68z" />
    <glyph glyph-name="zcaron" unicode="&#x17e;" horiz-adv-x="1060" 
d="M788 1290h-258l-229 379h229q74 -117 99 -172q18 -43 30 -86h46q18 30 36.5 57t44.5 57t40 45t50.5 51.5l47.5 47.5h229zM909 0h-942l37 203q218 222 389 389t355 328l-11 32q-225 -37 -587 -37l38 224h879l-35 -203q-6 -6 -84 -84.5t-93 -93t-85 -84t-97 -95t-89 -85
t-101.5 -95.5t-93.5 -84.5t-104 -91.5l10 -33q104 15 228.5 23t203.5 9t221 1z" />
    <glyph glyph-name="uni0218" unicode="&#x218;" horiz-adv-x="1331" 
d="M578 -35q-225 0 -373 121t-166 350l254 84q16 -166 105.5 -242.5t222.5 -76.5q146 0 244 76.5t98 185.5q0 38 -15 68.5t-35 50t-56 37.5t-61.5 27t-68.5 23q-11 3 -16 5l-138 45q-51 16 -89.5 32t-92 48.5t-88.5 70t-60.5 98t-25.5 132.5q0 102 47.5 198.5t129 169.5
t199 117.5t249.5 44.5q110 0 200.5 -30.5t149.5 -83t93.5 -119.5t41.5 -142l-252 -96q-19 111 -90.5 174.5t-187.5 63.5q-128 0 -215.5 -69t-87.5 -165q0 -38 17.5 -71t41 -54.5t62.5 -42t66 -31t67 -24.5l155 -53q33 -11 47 -15.5t48.5 -18t52.5 -23t48.5 -28t47.5 -35.5
t39 -43t33.5 -53t19.5 -63t8 -76q0 -106 -50 -208.5t-136.5 -182t-213 -128t-269.5 -48.5zM444 -610h-129q99 140 211 227q-58 0 -90.5 31t-32.5 80q0 66 50.5 113.5t119.5 47.5q54 0 86.5 -32t32.5 -86q0 -13 -1.5 -25t-7.5 -26.5t-11.5 -26t-19 -31.5t-24.5 -35.5
t-33.5 -44.5t-40 -51.5t-51 -64.5t-59.5 -76z" />
    <glyph glyph-name="uni0219" unicode="&#x219;" horiz-adv-x="1038" 
d="M426 -35q-182 0 -296 87.5t-132 232.5l240 73q22 -95 85.5 -143.5t143.5 -48.5q86 0 145.5 46t59.5 112q0 14 -2.5 26t-9.5 22.5t-12.5 18t-18.5 15.5t-19.5 12.5t-23.5 11t-23.5 9t-26 8.5t-24.5 8l-111 34q-24 7 -38.5 12t-45 18.5t-50.5 27t-46 36.5t-42 48.5t-27 62
t-11 78.5q0 162 137 280.5t340 118.5q161 0 262.5 -79t116.5 -205l-239 -74q-12 70 -57 115t-126 45q-76 0 -130 -43t-54 -105q0 -31 16.5 -56t49 -43t59.5 -28t68 -22l88 -27q101 -33 139 -54q127 -71 127 -218q0 -169 -146 -290.5t-366 -121.5zM287 -610h-129
q99 140 211 227q-58 0 -90.5 31t-32.5 80q0 66 50.5 113.5t119.5 47.5q54 0 86.5 -32t32.5 -86q0 -13 -1.5 -25t-7.5 -26.5t-11.5 -26t-19 -31.5t-24.5 -35.5t-33.5 -44.5t-40 -51.5t-51 -64.5t-59.5 -76z" />
    <glyph glyph-name="uni021A" unicode="&#x21a;" horiz-adv-x="1302" 
d="M680 0h-258q5 29 29.5 163t32 176.5t30 164.5t34.5 181t33.5 168t38.5 184.5t38.5 171.5t43.5 184q-97 -15 -200 -23t-165 -9t-173 -1l43 237h1255l-43 -237q-111 0 -172.5 1t-161.5 9t-190 23q-56 -491 -215 -1393zM406 -610h-130q99 140 211 227q-58 0 -90 31t-32 80
q0 66 50.5 113.5t119.5 47.5q54 0 86 -32t32 -86q0 -13 -1.5 -24.5t-7.5 -26.5t-11.5 -26.5t-19 -32t-24 -35t-33.5 -44.5t-40 -51.5t-50.5 -64.5t-59.5 -76z" />
    <glyph glyph-name="uni021B" unicode="&#x21b;" horiz-adv-x="856" 
d="M489 -35q-57 0 -102.5 10t-77 25t-54 39.5t-35.5 47.5t-19.5 56t-8.5 57.5t1 58t6 52.5t8 47q65 372 137 588q-111 -26 -264 -26l39 219q150 0 254 -27q-2 34 -2 65.5t2 65.5t4 55t7.5 59.5t7.5 52t9 56.5h244q-37 -216 -96 -354q145 27 358 27l-39 -219q-218 0 -346 26
q-3 -139 -15.5 -236.5t-25 -137.5t-22.5 -96t-10 -124q0 -87 24.5 -126.5t99.5 -39.5q87 0 175 45l-39 -219q-90 -47 -220 -47zM254 -610h-129q99 140 211 227q-58 0 -90.5 31t-32.5 80q0 66 50.5 113.5t119.5 47.5q54 0 86.5 -32t32.5 -86q0 -13 -1.5 -25t-7.5 -26.5
t-11.5 -26t-19 -31.5t-24.5 -35.5t-33.5 -44.5t-40 -51.5t-51 -64.5t-59.5 -76z" />
    <glyph glyph-name="gravecomb" unicode="&#x300;" horiz-adv-x="0" 
d="M158 1278h-211l-244 383h293z" />
    <glyph glyph-name="acutecomb" unicode="&#x301;" horiz-adv-x="0" 
d="M340 1661l-379 -383h-211l297 383h293z" />
    <glyph glyph-name="uni0302" unicode="&#x302;" horiz-adv-x="0" 
d="M-420 1278h-229l360 367h258l234 -367h-230q-37 51 -53.5 76t-39 72.5t-34.5 97.5h-49q-42 -71 -93.5 -127t-123.5 -119z" />
    <glyph glyph-name="tildecomb" unicode="&#x303;" horiz-adv-x="0" 
d="M-80 1325q-74 0 -137 53l-47 37q-44 39 -80 39q-38 0 -65.5 -32t-36.5 -81h-175q24 134 109 216.5t193 82.5q75 0 139 -55l45 -35q34 -34 72 -34q35 0 59 29.5t33 80.5h176q-26 -144 -101 -222.5t-184 -78.5z" />
    <glyph glyph-name="uni0304" unicode="&#x304;" horiz-adv-x="0" 
d="M145 1343h-688l31 177h688z" />
    <glyph glyph-name="uni0306" unicode="&#x306;" horiz-adv-x="0" 
d="M-193 1270q-173 0 -256.5 109.5t-58.5 285.5h201q-14 -94 25 -155.5t124 -61.5q86 0 147 61.5t81 155.5h200q-38 -179 -165 -287t-298 -108z" />
    <glyph glyph-name="uni0307" unicode="&#x307;" horiz-adv-x="0" 
d="M-14 1333q-60 0 -96.5 37t-36.5 96q0 72 56.5 128.5t131.5 56.5q59 0 96 -36.5t37 -92.5q0 -74 -57.5 -131.5t-130.5 -57.5z" />
    <glyph glyph-name="uni0308" unicode="&#x308;" horiz-adv-x="0" 
d="M-539 1321q-53 0 -86.5 35t-33.5 88q0 66 52 117t120 51q55 0 88.5 -33.5t33.5 -83.5q0 -67 -53 -120.5t-121 -53.5zM-127 1321q-55 0 -89 34.5t-34 86.5q0 68 52 119t120 51q54 0 88.5 -34t34.5 -85q0 -65 -52.5 -118.5t-119.5 -53.5z" />
    <glyph glyph-name="uni030A" unicode="&#x30a;" horiz-adv-x="0" 
d="M-55 1253q-95 0 -154 56.5t-59 144.5q0 110 88.5 194.5t208.5 84.5q94 0 152.5 -55t58.5 -144q0 -112 -87.5 -196.5t-207.5 -84.5zM-37 1376q57 0 98 41t41 96q0 41 -27 68t-69 27q-57 0 -98 -40.5t-41 -97.5q0 -42 26 -68t70 -26z" />
    <glyph glyph-name="uni030B" unicode="&#x30b;" horiz-adv-x="0" 
d="M-43 1673l-377 -395h-205l293 395h289zM385 1673l-385 -395h-205l301 395h289z" />
    <glyph glyph-name="uni030C" unicode="&#x30c;" horiz-adv-x="0" 
d="M-94 1278h-258l-230 379h230q74 -117 99 -172q18 -42 30 -86h45q18 30 36.5 57t44.5 57t40 45t50.5 51.5l47.5 47.5h229z" />
    <glyph glyph-name="uni0312" unicode="&#x312;" horiz-adv-x="0" 
d="M-186 1264q0 48 33 100t151 204q16 21 25.5 33t25 32t29.5 38h137q-103 -151 -213 -280q50 4 76 -21t26 -70q0 -65 -47.5 -109t-117.5 -44q-57 0 -91 31.5t-34 85.5z" />
    <glyph glyph-name="uni0326" unicode="&#x326;" horiz-adv-x="0" 
d="M-428 -610h-129q99 140 211 227q-58 0 -90.5 31t-32.5 80q0 66 50.5 113.5t119.5 47.5q54 0 86.5 -32t32.5 -86q0 -13 -1.5 -25t-7.5 -26.5t-11.5 -26t-19 -31.5t-24.5 -35.5t-33.5 -44.5t-40 -51.5t-51 -64.5t-59.5 -76z" />
    <glyph glyph-name="uni0327" unicode="&#x327;" horiz-adv-x="0" 
d="M-731 -512q-85 0 -153 33t-103 92l98 96q28 -47 74.5 -70.5t97.5 -23.5q57 0 94 28.5t37 71.5q0 32 -25.5 51t-68.5 19q-52 0 -94 -27l-68 62l148 180h143q-44 -55 -172 -143l12 -17q77 49 131 49q68 0 113 -42t45 -113q0 -102 -88.5 -174t-220.5 -72z" />
    <glyph glyph-name="uni0328" unicode="&#x328;" horiz-adv-x="0" 
d="M-717 -483q-117 0 -188.5 50.5t-71.5 145.5q0 90 63 162t152 105h164q-89 -25 -143 -79.5t-54 -117.5q0 -45 33.5 -72.5t91.5 -27.5q50 0 97 16l-31 -168q-55 -14 -113 -14z" />
    <glyph glyph-name="uni0335" unicode="&#x335;" horiz-adv-x="0" 
d="M-692 664h774l-33 -185h-774z" />
    <glyph glyph-name="uni0337" unicode="&#x337;" horiz-adv-x="0" 
d="M-444 449l36 210l678 433l-37 -211z" />
    <glyph glyph-name="uni0338" unicode="&#x338;" horiz-adv-x="0" 
d="M-1006 -63h-215l1149 1243h209z" />
    <glyph glyph-name="Wgrave" unicode="&#x1e80;" horiz-adv-x="2355" 
d="M1522 1720h-222l-268 351h311zM717 0h-324l-190 1597h293q30 -275 46 -439t31.5 -400t20.5 -467h33q234 571 587 1306h293q35 -287 52 -431t39.5 -399.5t33.5 -487.5h33q242 644 561 1318h291l-756 -1597h-317q-53 380 -82 661.5t-37 602.5h-45q-222 -580 -563 -1264z
" />
    <glyph glyph-name="wgrave" unicode="&#x1e81;" horiz-adv-x="1898" 
d="M1188 1278h-211l-244 383h293zM584 0h-279l-186 1139h274q29 -201 41 -294t26.5 -261.5t16.5 -321.5h45q20 49 42.5 100t40 91t44 95.5t40.5 85.5t44 91t40 81.5t44 87.5t40.5 79.5t44 86t40.5 79.5h217q35 -216 48 -300t33.5 -254t31.5 -323h43q56 154 131.5 326
t120.5 265t141 286h274l-587 -1139h-289q-82 515 -94 809h-39q-146 -352 -389 -809z" />
    <glyph glyph-name="Wacute" unicode="&#x1e82;" horiz-adv-x="2355" 
d="M1882 2071l-391 -351h-221l301 351h311zM717 0h-324l-190 1597h293q30 -275 46 -439t31.5 -400t20.5 -467h33q234 571 587 1306h293q35 -287 52 -431t39.5 -399.5t33.5 -487.5h33q242 644 561 1318h291l-756 -1597h-317q-53 380 -82 661.5t-37 602.5h-45
q-222 -580 -563 -1264z" />
    <glyph glyph-name="wacute" unicode="&#x1e83;" horiz-adv-x="1898" 
d="M1540 1661l-379 -383h-211l297 383h293zM584 0h-279l-186 1139h274q29 -201 41 -294t26.5 -261.5t16.5 -321.5h45q20 49 42.5 100t40 91t44 95.5t40.5 85.5t44 91t40 81.5t44 87.5t40.5 79.5t44 86t40.5 79.5h217q35 -216 48 -300t33.5 -254t31.5 -323h43
q56 154 131.5 326t120.5 265t141 286h274l-587 -1139h-289q-82 515 -94 809h-39q-146 -352 -389 -809z" />
    <glyph glyph-name="Wdieresis" unicode="&#x1e84;" horiz-adv-x="2355" 
d="M1165 1747q-58 0 -94.5 35.5t-36.5 91.5q0 73 56 127.5t129 54.5q56 0 92.5 -36t36.5 -89q0 -71 -55 -127.5t-128 -56.5zM1610 1747q-58 0 -93.5 35.5t-35.5 91.5q0 73 55 127.5t129 54.5q55 0 91 -36.5t36 -90.5q0 -70 -55 -126t-127 -56zM717 0h-324l-190 1597h293
q30 -275 46 -439t31.5 -400t20.5 -467h33q234 571 587 1306h293q35 -287 52 -431t39.5 -399.5t33.5 -487.5h33q242 644 561 1318h291l-756 -1597h-317q-53 380 -82 661.5t-37 602.5h-45q-222 -580 -563 -1264z" />
    <glyph glyph-name="wdieresis" unicode="&#x1e85;" horiz-adv-x="1898" 
d="M877 1321q-53 0 -87 35t-34 88q0 66 52 117t120 51q55 0 89 -33.5t34 -83.5q0 -67 -53 -120.5t-121 -53.5zM1288 1321q-55 0 -89 34.5t-34 86.5q0 68 52 119t120 51q54 0 88.5 -34t34.5 -85q0 -65 -52.5 -118.5t-119.5 -53.5zM584 0h-279l-186 1139h274q29 -201 41 -294
t26.5 -261.5t16.5 -321.5h45q20 49 42.5 100t40 91t44 95.5t40.5 85.5t44 91t40 81.5t44 87.5t40.5 79.5t44 86t40.5 79.5h217q35 -216 48 -300t33.5 -254t31.5 -323h43q56 154 131.5 326t120.5 265t141 286h274l-587 -1139h-289q-82 515 -94 809h-39q-146 -352 -389 -809z
" />
    <glyph glyph-name="uni1E9E" unicode="&#x1e9e;" horiz-adv-x="1576" 
d="M319 0h-256l158 905q13 73 31 139t50 141t72.5 137t101 120.5t133 99t171 64.5t213.5 24q247 0 388 -104t141 -291q0 -163 -99.5 -281t-255.5 -133l-8 -33q142 0 230 -75t88 -219q0 -73 -23.5 -142t-75 -133.5t-126.5 -112.5t-185.5 -77t-243.5 -29h-182l43 236h209
q141 0 225 69t84 174q0 89 -61.5 134.5t-175.5 45.5h-117l41 234h82q113 0 192.5 85.5t79.5 199.5q0 108 -79 163.5t-216 55.5q-384 0 -459 -445z" />
    <glyph glyph-name="Ygrave" unicode="&#x1ef2;" horiz-adv-x="1427" 
d="M1059 1720h-221l-269 351h312zM743 0h-258q76 414 115 559q-170 410 -401 1038h276q133 -377 181 -544q44 -151 75 -297h33q30 53 59.5 103.5t64 104.5t58.5 93t64.5 98t59 87.5t64.5 93.5t59.5 84t65 91.5t60.5 85.5h276q-37 -51 -212 -291t-299.5 -407t-256.5 -338
q-22 -217 -84 -561z" />
    <glyph glyph-name="ygrave" unicode="&#x1ef3;" horiz-adv-x="1171" 
d="M821 1278h-211l-243 383h292zM375 -451h-254l231 412l-237 1178h266q101 -511 131 -920h33q186 433 454 920h261z" />
    <glyph glyph-name="uni2000" unicode="&#x2000;" horiz-adv-x="1024" 
 />
    <glyph glyph-name="uni2001" unicode="&#x2001;" 
 />
    <glyph glyph-name="uni2002" unicode="&#x2002;" horiz-adv-x="1024" 
 />
    <glyph glyph-name="uni2003" unicode="&#x2003;" 
 />
    <glyph glyph-name="uni2004" unicode="&#x2004;" horiz-adv-x="681" 
 />
    <glyph glyph-name="uni2005" unicode="&#x2005;" horiz-adv-x="512" 
 />
    <glyph glyph-name="uni2006" unicode="&#x2006;" horiz-adv-x="342" 
 />
    <glyph glyph-name="uni2007" unicode="&#x2007;" horiz-adv-x="516" 
 />
    <glyph glyph-name="uni2008" unicode="&#x2008;" horiz-adv-x="516" 
 />
    <glyph glyph-name="uni2009" unicode="&#x2009;" horiz-adv-x="256" 
 />
    <glyph glyph-name="uni200A" unicode="&#x200a;" horiz-adv-x="86" 
 />
    <glyph glyph-name="uni200B" unicode="&#x200b;" horiz-adv-x="0" 
 />
    <glyph glyph-name="endash" unicode="&#x2013;" horiz-adv-x="1007" 
d="M881 520h-770l36 207h771z" />
    <glyph glyph-name="emdash" unicode="&#x2014;" horiz-adv-x="1433" 
d="M1311 528h-1200l32 189h1200z" />
    <glyph glyph-name="quoteleft" unicode="&#x2018;" horiz-adv-x="518" 
d="M494 1634h139q-6 -8 -27 -36.5t-27.5 -37.5t-25.5 -32.5t-28 -34.5t-26.5 -30.5t-31 -32.5t-31.5 -29t-37 -31q53 -7 83 -44t30 -87q0 -76 -59.5 -133t-135.5 -57q-57 0 -95 37.5t-38 97.5q0 53 41 113t200 253q14 17 22.5 27t21.5 26.5t25 30.5z" />
    <glyph glyph-name="quoteright" unicode="&#x2019;" horiz-adv-x="528" 
d="M322 1071h-144q45 62 71 95t76.5 86t104.5 96q-127 30 -127 122q0 72 59.5 129.5t135.5 57.5q58 0 95.5 -38t37.5 -95t-51.5 -130t-257.5 -323z" />
    <glyph glyph-name="quotesinglbase" unicode="&#x201a;" horiz-adv-x="505" 
d="M51 -274h-139q53 73 74 101t65.5 77t91.5 86q-53 7 -82.5 44t-29.5 87q0 76 59 133t135 57q59 0 97 -37.5t38 -97.5q0 -52 -39 -110t-191 -243q-50 -62 -79 -97z" />
    <glyph glyph-name="quotedblleft" unicode="&#x201c;" horiz-adv-x="925" 
d="M494 1634h139q-6 -8 -27 -36.5t-27.5 -37.5t-25.5 -32.5t-28 -34.5t-26.5 -30.5t-31 -32.5t-31.5 -29t-37 -31q53 -7 83 -44t30 -87q0 -76 -59.5 -133t-135.5 -57q-57 0 -95 37.5t-38 97.5q0 53 41 113t200 253q14 17 22.5 27t21.5 26.5t25 30.5zM901 1634h139
q-53 -73 -74 -101t-65.5 -77t-91.5 -86q53 -7 83 -44t30 -87q0 -76 -59.5 -133t-135.5 -57q-59 0 -97 37.5t-38 97.5q0 52 39 110t191 243q50 62 79 97z" />
    <glyph glyph-name="quotedblright" unicode="&#x201d;" horiz-adv-x="935" 
d="M322 1071h-140q98 133 144 183q42 44 88 81q-53 7 -83 44t-30 87q0 76 59.5 133.5t135.5 57.5q59 0 96 -37.5t37 -97.5q0 -54 -43 -117t-206 -263q-37 -46 -58 -71zM731 1071h-139q53 73 74 101t65.5 77t91.5 86q-53 7 -82.5 44t-29.5 87q0 76 59 133.5t135 57.5
q59 0 96 -37.5t37 -97.5q0 -54 -43 -117t-206 -263q-12 -15 -19 -23.5t-18 -22t-21 -25.5z" />
    <glyph glyph-name="quotedblbase" unicode="&#x201e;" horiz-adv-x="917" 
d="M55 -256h-139q53 73 74 101t65.5 77t91.5 86q-53 7 -82.5 44t-29.5 87q0 76 59 133.5t135 57.5q59 0 96 -37.5t37 -97.5q0 -54 -43 -117t-206 -263q-37 -46 -58 -71zM465 -256h-139q53 73 74 101t65.5 77t91.5 86q-53 7 -83 44t-30 87q0 76 59.5 133.5t135.5 57.5
q59 0 96 -37.5t37 -97.5q0 -54 -43 -117t-206 -263q-37 -46 -58 -71z" />
    <glyph glyph-name="dagger" unicode="&#x2020;" horiz-adv-x="1015" 
d="M580 428h-207q5 25 19.5 104t19.5 107.5t18 95t22 106t22 98t27.5 112.5t30.5 112q-65 -13 -133.5 -20t-104.5 -7.5t-110 -0.5l33 186q209 0 338 -29q-7 139 33 346h207q-37 -207 -93 -346q143 29 363 29l-33 -186q-77 0 -114.5 0.5t-106 7.5t-129.5 20
q-26 -304 -102 -735z" />
    <glyph glyph-name="daggerdbl" unicode="&#x2021;" horiz-adv-x="1077" 
d="M1087 1321l-34 -186q-72 0 -108 1t-103 8.5t-129 22.5q10 -88 -1.5 -159.5t-49.5 -157.5q66 15 133 23t106.5 9t108.5 1l-33 -187q-69 0 -108 1t-104 9t-126 23q0 -47 2 -66t-2 -62t-5 -58.5t-7 -56t-8 -54.5t-9 -53h-207q36 203 97 350q-68 -15 -137 -23t-108.5 -9
t-109.5 -1l33 187q69 0 108.5 -1t105.5 -9t128 -23q-9 86 3.5 158t51.5 159q-67 -15 -136 -22.5t-106 -8.5t-110 -1l33 186q211 0 340 -33q-7 150 31 350h204q-33 -202 -98 -350q147 33 354 33z" />
    <glyph glyph-name="bullet" unicode="&#x2022;" horiz-adv-x="882" 
d="M420 438q-102 0 -167 66.5t-65 167.5q0 130 100.5 228.5t231.5 98.5q101 0 166.5 -65t65.5 -164q0 -126 -101.5 -229t-230.5 -103z" />
    <glyph glyph-name="ellipsis" unicode="&#x2026;" horiz-adv-x="1503" 
d="M170 -14q-58 0 -95.5 38t-37.5 97q0 75 58 132.5t134 57.5q58 0 95.5 -38t37.5 -95q0 -73 -59 -132.5t-133 -59.5zM664 -14q-60 0 -98 38t-38 97q0 75 59 132.5t134 57.5q59 0 97 -37.5t38 -95.5q0 -73 -59 -132.5t-133 -59.5zM1157 -14q-60 0 -97.5 38t-37.5 97
q0 75 58.5 132.5t133.5 57.5q58 0 96 -38t38 -95q0 -73 -58.5 -132.5t-132.5 -59.5z" />
    <glyph glyph-name="uni202F" unicode="&#x202f;" horiz-adv-x="376" 
 />
    <glyph glyph-name="perthousand" unicode="&#x2030;" horiz-adv-x="2611" 
d="M395 737q-116 0 -179.5 81t-63.5 222q0 130 51 245.5t141.5 186t198.5 70.5q116 0 179.5 -82t63.5 -223q0 -130 -51 -245t-141.5 -185t-198.5 -70zM381 0h-227l1396 1468h219zM426 918q40 0 77 50.5t58 124t21 144.5q0 62 -19 93.5t-51 31.5q-40 0 -77 -50t-58 -124
t-21 -146q0 -124 70 -124zM1401 -29q-116 0 -180 81t-64 222q0 130 51 245.5t141.5 186t198.5 70.5q116 0 180 -82t64 -223q0 -130 -51 -245t-141.5 -185t-198.5 -70zM2136 -29q-116 0 -180 81t-64 222q0 97 30.5 188.5t82.5 160.5t125 111t154 42q116 0 179.5 -82
t63.5 -223q0 -130 -51 -245t-141.5 -185t-198.5 -70zM1432 152q40 0 76.5 50.5t57.5 124t21 144.5q0 62 -18.5 93.5t-50.5 31.5q-40 0 -77 -50t-58 -124t-21 -146q0 -124 70 -124zM2167 152q40 0 76.5 50.5t57.5 124t21 144.5q0 62 -18.5 93.5t-50.5 31.5q-40 0 -77 -50
t-58 -124t-21 -146q0 -124 70 -124z" />
    <glyph glyph-name="guilsinglleft" unicode="&#x2039;" horiz-adv-x="786" 
d="M596 164h-258l-242 405l2 9l385 405h258q-92 -95 -140 -142t-133 -115t-169 -116l-12 -73q51 -37 95.5 -80t83.5 -95.5t65.5 -93.5t64.5 -104z" />
    <glyph glyph-name="guilsinglright" unicode="&#x203a;" horiz-adv-x="786" 
d="M305 164h-256q82 86 132.5 136t136 119.5t169.5 117.5l15 73q-67 49 -127 116t-95 120t-85 137h256l243 -405l-2 -9z" />
    <glyph glyph-name="fraction" unicode="&#x2044;" horiz-adv-x="405" 
d="M-354 0h-228l1397 1468h219z" />
    <glyph glyph-name="uni205F" unicode="&#x205f;" horiz-adv-x="454" 
 />
    <glyph glyph-name="uni2070" unicode="&#x2070;" horiz-adv-x="735" 
d="M395 737q-116 0 -179.5 81t-63.5 222q0 130 51 245.5t141.5 186t198.5 70.5q116 0 179.5 -82t63.5 -223q0 -130 -51 -245t-141.5 -185t-198.5 -70zM426 918q40 0 77 50.5t58 124t21 144.5q0 62 -19 93.5t-51 31.5q-40 0 -77 -50t-58 -124t-21 -146q0 -124 70 -124z" />
    <glyph glyph-name="uni2074" unicode="&#x2074;" horiz-adv-x="727" 
d="M614 754h-186l25 145h-357l29 154l444 473h181l-82 -465h94l-27 -162h-96zM520 1278l-209 -217h170z" />
    <glyph glyph-name="uni2075" unicode="&#x2075;" horiz-adv-x="708" 
d="M365 737q-100 0 -176.5 43t-90.5 133l185 86q12 -47 42.5 -71.5t73.5 -24.5q57 0 94 39t37 92q0 42 -25 67t-65 25q-37 0 -68 -20t-48 -47l-156 37l170 430h438l-28 -158h-299l-66 -158h2q63 54 158 54q52 0 94 -18t72 -64t30 -115q0 -138 -107.5 -234t-266.5 -96z" />
    <glyph glyph-name="uni2076" unicode="&#x2076;" horiz-adv-x="735" 
d="M401 737q-120 0 -189 69.5t-69 205.5q0 97 36.5 193t98 170.5t149.5 120.5t185 46q65 0 123.5 -21t89.5 -67l-123 -129q-45 53 -122 53q-76 0 -133 -50.5t-85 -139.5h5q27 33 77.5 51t98.5 18q94 0 156.5 -54.5t62.5 -149.5q0 -128 -105.5 -222t-255.5 -94zM442 899
q54 0 95 41t41 96q0 41 -26.5 66.5t-68.5 25.5q-56 0 -96.5 -40t-40.5 -95q0 -41 26.5 -67.5t69.5 -26.5z" />
    <glyph glyph-name="uni2077" unicode="&#x2077;" horiz-adv-x="595" 
d="M381 754h-209q28 148 108 321t201 289h-313l27 162h544l-28 -164q-92 -70 -164.5 -183t-110 -217.5t-55.5 -207.5z" />
    <glyph glyph-name="uni2078" unicode="&#x2078;" horiz-adv-x="720" 
d="M387 737q-122 0 -193 55.5t-71 143.5q0 76 51.5 142t116.5 81v2q-72 50 -72 129q0 100 91 176t218 76q101 0 168.5 -51t67.5 -141q0 -64 -33.5 -113t-91.5 -76l-2 -2q45 -15 74.5 -54.5t29.5 -98.5q0 -111 -102.5 -190t-251.5 -79zM477 1231q44 0 75.5 30.5t31.5 71.5
q0 30 -20.5 48t-55.5 18q-44 0 -75.5 -28t-31.5 -68q0 -31 21.5 -51.5t54.5 -20.5zM422 907q51 0 87 35t36 84q0 35 -24 56.5t-64 21.5q-54 0 -90.5 -33.5t-36.5 -81.5q0 -36 26 -59t66 -23z" />
    <glyph glyph-name="uni2079" unicode="&#x2079;" horiz-adv-x="741" 
d="M348 737q-72 0 -138 26t-97 79l123 127q26 -36 67 -55t82 -19q74 0 123 58.5t70 144.5h-3q-30 -37 -80 -56.5t-100 -19.5q-95 0 -156 53.5t-61 149.5q0 131 107 224t260 93q116 0 184 -65.5t68 -212.5q0 -139 -59 -260t-163 -194t-227 -73zM457 1155q57 0 98 41.5
t41 97.5q0 42 -27 68.5t-69 26.5q-57 0 -97.5 -42.5t-40.5 -99.5q0 -41 26 -66.5t69 -25.5z" />
    <glyph glyph-name="uni2080" unicode="&#x2080;" horiz-adv-x="735" 
d="M215 -285q-116 0 -180 81t-64 222q0 130 51 245.5t141.5 186t198.5 70.5q116 0 180 -82t64 -223q0 -130 -51 -245t-141.5 -185t-198.5 -70zM246 -104q40 0 76.5 50.5t57.5 124t21 144.5q0 62 -18.5 93.5t-50.5 31.5q-40 0 -77 -50t-58 -124t-21 -146q0 -124 70 -124z" />
    <glyph glyph-name="uni2081" unicode="&#x2081;" horiz-adv-x="507" 
d="M252 -268h-195l84 477q-90 -66 -176 -84l37 207q79 27 132.5 73.5t62.5 98.5h190z" />
    <glyph glyph-name="uni2082" unicode="&#x2082;" horiz-adv-x="700" 
d="M485 -268h-557l4 24q27 134 88 210.5t222 168.5q1 0 14 8t17 10.5t17.5 11.5t19.5 13.5t17.5 14t18 16.5t14.5 17t12.5 19t7.5 19.5t3 20.5q0 27 -19.5 43t-54.5 16q-53 0 -92 -37t-51 -102l-174 26q23 130 123.5 209.5t230.5 79.5q109 0 176.5 -56t67.5 -151
q0 -83 -51.5 -150t-126.5 -106q-14 -8 -51.5 -29t-57 -33t-44 -35t-38.5 -48h297z" />
    <glyph glyph-name="uni2083" unicode="&#x2083;" horiz-adv-x="706" 
d="M193 -287q-114 0 -190 50t-85 128l186 86q25 -100 117 -100q50 0 83.5 30.5t33.5 72.5q0 73 -102 73h-74l22 135h76q48 0 85.5 27.5t37.5 71.5q0 30 -22 48.5t-58 18.5q-44 0 -77 -27.5t-46 -76.5l-172 41q27 96 122 162.5t218 66.5q103 0 170.5 -47t67.5 -127
q0 -67 -45 -127t-105 -74v-2q47 -9 79 -49t32 -94q0 -109 -102.5 -198t-251.5 -89z" />
    <glyph glyph-name="uni2084" unicode="&#x2084;" horiz-adv-x="727" 
d="M434 -268h-186l24 145h-356l29 154l444 473h180l-82 -465h95l-27 -162h-96zM340 256l-209 -217h170z" />
    <glyph glyph-name="uni2085" unicode="&#x2085;" horiz-adv-x="708" 
d="M184 -285q-100 0 -176 43t-90 133l184 86q12 -47 43 -71.5t74 -24.5q57 0 94 39t37 92q0 42 -25 67t-65 25q-37 0 -68.5 -20t-48.5 -47l-155 37l170 430h438l-29 -158h-299l-65 -158h2q63 54 157 54q52 0 94.5 -18t72.5 -64t30 -115q0 -137 -108 -233.5t-267 -96.5z" />
    <glyph glyph-name="uni2086" unicode="&#x2086;" horiz-adv-x="735" 
d="M221 -285q-120 0 -189 69.5t-69 205.5q0 97 36.5 193t98 170.5t149.5 120.5t185 46q65 0 123.5 -21t89.5 -67l-123 -129q-45 53 -123 53q-76 0 -132.5 -50.5t-84.5 -139.5h4q28 33 78 51.5t98 18.5q94 0 157 -55t63 -150q0 -128 -105.5 -222t-255.5 -94zM262 -123
q54 0 94.5 41t40.5 96q0 41 -26.5 66.5t-67.5 25.5q-56 0 -96.5 -40t-40.5 -95q0 -41 26.5 -67.5t69.5 -26.5z" />
    <glyph glyph-name="uni2087" unicode="&#x2087;" horiz-adv-x="595" 
d="M201 -268h-209q28 148 108 321t201 289h-313l26 162h545l-29 -164q-92 -70 -164.5 -183.5t-109.5 -217t-55 -207.5z" />
    <glyph glyph-name="uni2088" unicode="&#x2088;" horiz-adv-x="720" 
d="M207 -285q-122 0 -193 55.5t-71 143.5q0 76 51.5 142t116.5 81v2q-72 50 -72 129q0 100 91 176t218 76q101 0 168.5 -51t67.5 -141q0 -64 -33.5 -113t-91.5 -76l-2 -2q45 -15 74.5 -54.5t29.5 -98.5q0 -111 -102.5 -190t-251.5 -79zM297 209q44 0 75 30t31 72
q0 30 -20 48t-55 18q-44 0 -75.5 -28t-31.5 -68q0 -31 21.5 -51.5t54.5 -20.5zM242 -115q51 0 87 35t36 84q0 35 -24.5 56.5t-64.5 21.5q-53 0 -89.5 -33.5t-36.5 -81.5q0 -36 26 -59t66 -23z" />
    <glyph glyph-name="uni2089" unicode="&#x2089;" horiz-adv-x="741" 
d="M168 -285q-72 0 -138.5 26t-97.5 79l123 127q26 -36 67.5 -55t82.5 -19q74 0 122.5 58.5t69.5 144.5h-2q-30 -37 -80 -56.5t-100 -19.5q-95 0 -156 53.5t-61 149.5q0 131 107 224t260 93q116 0 183.5 -65.5t67.5 -212.5q0 -139 -59 -260t-162.5 -194t-226.5 -73zM276 133
q57 0 98.5 41.5t41.5 97.5q0 42 -27.5 68.5t-69.5 26.5q-57 0 -97 -42.5t-40 -99.5q0 -41 25.5 -66.5t68.5 -25.5z" />
    <glyph glyph-name="Euro" unicode="&#x20ac;" horiz-adv-x="1673" 
d="M975 -35q-285 0 -448 159.5t-156 432.5q-106 -20 -273 -20l25 133q147 0 237 -33q-6 144 48 272q-97 -32 -250 -32l22 133q159 0 262 -21q90 282 308 450.5t522 168.5q84 0 160.5 -13.5t163 -56t143.5 -111.5l-209 -180q-114 119 -311 119q-357 0 -568 -377
q238 21 613 21l-23 -133q-141 0 -210 1t-191 8.5t-228 22.5q-3 -128 -45 -272q111 15 233 23t196.5 9t207.5 1l-24 -133q-379 0 -596 20q57 -195 165 -272.5t322 -77.5q69 0 135.5 21.5t196.5 93.5l119 -175q-123 -97 -268 -139.5t-279 -42.5z" />
    <glyph glyph-name="trademark" unicode="&#x2122;" horiz-adv-x="1599" 
d="M479 920h-139l98 565h-209l25 131h555l-23 -131h-208zM932 920h-144l123 696h144q20 -80 64 -247t65 -247l299 494h143l-123 -696h-141l72 407q-27 -44 -62.5 -101t-77 -124.5t-104.5 -173.5h-84q-69 264 -102 401z" />
    <glyph glyph-name="oneeighth" unicode="&#x215b;" horiz-adv-x="1634" 
d="M432 754h-194l84 477q-89 -66 -177 -84l37 207q79 27 132.5 73.5t62.5 98.5h190zM154 0h-228l1397 1468h219zM1165 -29q-122 0 -193 55.5t-71 143.5q0 76 51.5 142t116.5 81v2q-72 50 -72 129q0 100 91.5 176t218.5 76q101 0 168 -51t67 -141q0 -64 -33.5 -113t-91.5 -76
l-2 -2q45 -15 75 -54.5t30 -98.5q0 -111 -102.5 -190t-252.5 -79zM1255 465q44 0 75.5 30.5t31.5 71.5q0 30 -20.5 48t-55.5 18q-44 0 -75 -28t-31 -68q0 -31 21 -51.5t54 -20.5zM1200 141q51 0 87 35t36 84q0 35 -24 56.5t-64 21.5q-54 0 -90.5 -33.5t-36.5 -81.5
q0 -36 26 -59t66 -23z" />
    <glyph glyph-name="threeeighths" unicode="&#x215c;" horiz-adv-x="1832" 
d="M373 735q-114 0 -190 50t-85 128l187 86q25 -100 116 -100q50 0 83.5 30t33.5 72q0 74 -102 74h-74l23 135h75q48 0 85.5 27.5t37.5 71.5q0 30 -22 48.5t-58 18.5q-44 0 -77 -27.5t-46 -76.5l-172 41q27 96 122 162.5t218 66.5q103 0 170.5 -47t67.5 -127q0 -67 -45 -127
t-105 -74v-2q47 -9 79 -49t32 -94q0 -109 -102.5 -198t-251.5 -89zM352 0h-227l1397 1468h219zM1364 -29q-122 0 -193 55.5t-71 143.5q0 76 51.5 142t116.5 81v2q-72 50 -72 129q0 100 91 176t218 76q101 0 168.5 -51t67.5 -141q0 -64 -33.5 -113t-91.5 -76l-2 -2
q45 -15 74.5 -54.5t29.5 -98.5q0 -111 -102.5 -190t-251.5 -79zM1454 465q44 0 75.5 30.5t31.5 71.5q0 30 -20.5 48t-55.5 18q-44 0 -75.5 -28t-31.5 -68q0 -31 21.5 -51.5t54.5 -20.5zM1399 141q51 0 87 35t36 84q0 35 -24 56.5t-64 21.5q-54 0 -90.5 -33.5t-36.5 -81.5
q0 -36 26 -59t66 -23z" />
    <glyph glyph-name="fiveeighths" unicode="&#x215d;" horiz-adv-x="1835" 
d="M365 737q-100 0 -176.5 43t-90.5 133l185 86q12 -47 42.5 -71.5t73.5 -24.5q57 0 94 39t37 92q0 42 -25 67t-65 25q-37 0 -68 -20t-48 -47l-156 37l170 430h438l-28 -158h-299l-66 -158h2q63 54 158 54q52 0 94 -18t72 -64t30 -115q0 -138 -107.5 -234t-266.5 -96zM354 0
h-227l1397 1468h219zM1366 -29q-122 0 -193 55.5t-71 143.5q0 76 51.5 142t116.5 81v2q-72 50 -72 129q0 100 91 176t218 76q101 0 168.5 -51t67.5 -141q0 -64 -33.5 -113t-91.5 -76l-2 -2q45 -15 74.5 -54.5t29.5 -98.5q0 -111 -102.5 -190t-251.5 -79zM1456 465
q44 0 75.5 30.5t31.5 71.5q0 30 -20.5 48t-55.5 18q-44 0 -75.5 -28t-31.5 -68q0 -31 21.5 -51.5t54.5 -20.5zM1401 141q51 0 87 35t36 84q0 35 -24 56.5t-64 21.5q-54 0 -90.5 -33.5t-36.5 -81.5q0 -36 26 -59t66 -23z" />
    <glyph glyph-name="seveneighths" unicode="&#x215e;" horiz-adv-x="1722" 
d="M381 754h-209q28 148 108 321t201 289h-313l27 162h544l-28 -164q-92 -70 -164.5 -183t-110 -217.5t-55.5 -207.5zM242 0h-228l1397 1468h219zM1253 -29q-122 0 -193 55.5t-71 143.5q0 76 51.5 142t116.5 81v2q-72 50 -72 129q0 100 91.5 176t218.5 76q101 0 168 -51
t67 -141q0 -64 -33.5 -113t-91.5 -76l-2 -2q45 -15 75 -54.5t30 -98.5q0 -111 -102.5 -190t-252.5 -79zM1343 465q44 0 75.5 30.5t31.5 71.5q0 30 -20.5 48t-55.5 18q-44 0 -75 -28t-31 -68q0 -31 21 -51.5t54 -20.5zM1288 141q51 0 87 35t36 84q0 35 -24 56.5t-64 21.5
q-54 0 -90.5 -33.5t-36.5 -81.5q0 -36 26 -59t66 -23z" />
    <glyph glyph-name="arrowleft" unicode="&#x2190;" horiz-adv-x="1392" 
d="M614 236h-233l-268 405l2 8l411 406h234q-73 -71 -112.5 -107.5t-121 -104t-168.5 -130.5q161 15 346.5 22.5t290.5 8.5t318 1l-35 -200q-203 0 -315.5 1t-292.5 9t-338 23q67 -65 125 -132.5t82 -101.5t75 -108z" />
    <glyph glyph-name="arrowup" unicode="&#x2191;" horiz-adv-x="993" 
d="M500 20h-199q40 224 57.5 318.5t58.5 284t85 346.5q-111 -108 -201.5 -182.5t-202.5 -157.5l41 233l465 340h8l346 -340l-40 -233q-60 60 -92 93.5t-87 102.5t-104 146q-29 -362 -135 -951z" />
    <glyph glyph-name="arrowright" unicode="&#x2192;" horiz-adv-x="1390" 
d="M895 236h-233q3 3 32 30.5t34 32.5t32.5 30.5t36.5 33.5t35 31.5t41 35.5t41 33.5t47 37.5t48.5 36.5t55.5 40.5q-162 -15 -345.5 -23t-297 -9t-316.5 -1l37 200q213 0 317.5 -1t287 -8.5t337.5 -22.5q-69 66 -124.5 131.5t-82 103.5t-71.5 107h233l269 -406l-2 -8z" />
    <glyph glyph-name="arrowdown" unicode="&#x2193;" horiz-adv-x="995" 
d="M408 20h-9l-346 340l41 234q60 -60 92 -93.5t87 -102t104 -144.5q32 368 133 948h201q-3 -18 -17.5 -96.5t-19 -104.5t-18 -98t-20.5 -107.5t-20.5 -101.5t-24 -111.5t-24 -105t-28 -115t-29.5 -110.5q200 195 403 342l-41 -234z" />
    <glyph glyph-name="arrowboth" unicode="&#x2194;" horiz-adv-x="1751" 
d="M608 233h-233l-269 406l3 8l411 406h234q-58 -54 -176.5 -168.5t-190.5 -182.5q521 48 1024 0q-208 300 -242 351h234l268 -406l-2 -8l-412 -406h-233q290 280 365 351q-518 -48 -1022 0q107 -151 241 -351z" />
    <glyph glyph-name="arrowupdn" unicode="&#x2195;" horiz-adv-x="1069" 
d="M440 8h-8l-348 316l37 211q144 -125 295 -269q29 439 153 867q-122 -90 -393 -281l39 219l461 315h8l350 -315l-39 -219q-246 234 -293 281q-30 -447 -151 -867q164 119 389 269l-37 -211z" />
    <glyph glyph-name="uni2196" unicode="&#x2196;" horiz-adv-x="1222" 
d="M1085 158l-174 -101q-132 158 -205 247t-184.5 233.5t-202.5 275.5q-4 -92 -16.5 -178.5t-23 -131t-31.5 -126.5l-154 180l129 467l8 4l574 -61l151 -181q-272 30 -518 93q41 -40 80 -80t81.5 -85.5t72 -77.5t76.5 -85t67.5 -76t72 -84t64 -75.5t69.5 -82t64 -75.5z" />
    <glyph glyph-name="uni2197" unicode="&#x2197;" horiz-adv-x="1116" 
d="M203 57l-172 101q7 8 64 75.5t69.5 82t64 75.5t72 84t67.5 76t76.5 85t72 77.5t81.5 85.5t80 80q-246 -63 -518 -93l151 181l574 61l8 -4l127 -467l-152 -180q-31 110 -48.5 206.5t-24.5 229.5q-202 -295 -592 -756z" />
    <glyph glyph-name="uni2198" unicode="&#x2198;" horiz-adv-x="1228" 
d="M156 1063l172 100q136 -163 206 -248t182.5 -230.5t203.5 -276.5q7 133 24.5 229.5t48.5 206.5l152 -180l-129 -467l-6 -4l-574 61l-153 180q279 -30 520 -92q-116 115 -242 253t-201 225.5t-204 242.5z" />
    <glyph glyph-name="uni2199" unicode="&#x2199;" horiz-adv-x="1116" 
d="M928 1163l174 -100q-7 -8 -64 -75.5t-69.5 -82t-64 -75.5t-72 -84t-67.5 -76t-76.5 -85t-72 -77.5t-81.5 -85.5t-80 -80q239 62 518 92l-152 -180l-573 -61l-8 4l-129 467l153 180q22 -86 32 -127.5t23 -129t17 -179.5q91 131 203.5 276.5t182.5 230.5t206 248z" />
    <glyph glyph-name="emptyset" unicode="&#x2205;" horiz-adv-x="1439" 
d="M1251 1286l131 -98l-157 -178q108 -127 108 -326q0 -139 -55 -269.5t-149 -230t-229 -159.5t-286 -60q-150 0 -264 60l-160 -181l-129 101l160 180q-112 128 -112 330q0 138 55 269t149.5 230.5t229 159.5t284.5 60q151 0 269 -62zM362 496q0 -95 41 -166l519 585
q-66 27 -134 27q-115 0 -214 -63.5t-155.5 -166t-56.5 -216.5zM1079 641q0 92 -39 162l-514 -580q56 -26 131 -26q115 0 213 63t153.5 165t55.5 216z" />
    <glyph glyph-name="minus" unicode="&#x2212;" horiz-adv-x="1048" 
d="M922 530h-805l33 193h804z" />
    <glyph glyph-name="infinity" unicode="&#x221e;" horiz-adv-x="1800" 
d="M438 285q-149 0 -233 76t-84 204q0 83 38.5 158.5t100.5 127.5t140 83t157 31q95 0 173 -50t198 -180q172 132 268 181t188 49q142 0 228 -77t86 -206q0 -159 -125.5 -278t-308.5 -119q-100 0 -177.5 49t-195.5 180q-155 -129 -250.5 -179t-202.5 -50zM471 449
q22 0 42.5 3.5t44 14t39.5 18.5t45 28.5t43.5 31.5t51.5 39t54 41q-9 10 -39.5 43t-38.5 41t-31 30t-34.5 28t-32 17t-39.5 14t-41 3q-89 0 -153.5 -61.5t-64.5 -147.5q0 -67 43 -105t111 -38zM1290 451q87 0 149 60t62 146q0 66 -41 104t-110 38q-35 0 -66 -8.5
t-74.5 -35.5t-67 -44.5t-88.5 -68.5q-15 -11 -22 -17q5 -5 26 -27.5t26 -28t23.5 -24t25 -23.5t23 -19.5t25.5 -18.5t24 -13t27 -11.5t27.5 -5.5t30.5 -3z" />
    <glyph glyph-name="approxequal" unicode="&#x2248;" horiz-adv-x="1114" 
d="M346 682h-194q25 146 116 230.5t203 84.5q41 0 76 -12.5t59.5 -30t47 -35t48.5 -30t54 -12.5q88 0 108 116h193q-26 -153 -106.5 -235t-196.5 -82q-45 0 -82.5 13t-63 32t-47.5 37.5t-47 31.5t-51 13q-48 0 -78.5 -36t-38.5 -85zM266 233h-194q27 147 117 231.5t204 84.5
q49 0 91.5 -19t67 -41.5t57.5 -41.5t67 -19q87 0 110 119h193q-27 -155 -107.5 -237.5t-197.5 -82.5q-55 0 -100 20t-70 43.5t-56.5 43.5t-62.5 20q-48 0 -79.5 -36t-39.5 -85z" />
    <glyph glyph-name="notequal" unicode="&#x2260;" horiz-adv-x="1093" 
d="M1020 928l-35 -191h-301q-28 -129 -133 -248h391l-33 -192h-458q-7 -63 -66 -172h-176q51 103 117 172h-236l35 192h309q19 125 127 248h-393l35 191h461q0 25 9.5 55t18 47t27.5 53h176q-52 -98 -109 -155h234z" />
    <glyph glyph-name="lessequal" unicode="&#x2264;" horiz-adv-x="1048" 
d="M860 281h-774l29 161h442l-407 172l32 195l801 174l-31 -178l-569 -121l506 -233z" />
    <glyph glyph-name="greaterequal" unicode="&#x2265;" horiz-adv-x="1050" 
d="M862 281h-772l29 170l588 233l-525 121l31 178l739 -174l-32 -195l-469 -172h442z" />
    <glyph glyph-name="lozenge" unicode="&#x25ca;" horiz-adv-x="1140" 
d="M516 0h-90l-301 694l547 692h90l301 -692zM334 694l180 -432h6l334 432l-180 430h-6z" />
    <glyph glyph-name="A.ss01" horiz-adv-x="1556" 
d="M178 0h-268l881 1597h339l316 -1597h-275q-65 283 -65 467l-19 22q-190 -24 -325 -24q-163 0 -322 24l-28 -24q-67 -176 -234 -465zM539 682l14 -20q138 22 250 22q108 0 227 -22l19 20q-49 190 -69.5 350.5t-4.5 362.5h-107q-59 -205 -136.5 -366t-192.5 -347z" />
    <glyph glyph-name="Aacute.ss01" horiz-adv-x="1556" 
d="M1479 2071l-392 -351h-221l301 351h312zM178 0h-268l881 1597h339l316 -1597h-275q-65 283 -65 467l-19 22q-190 -24 -325 -24q-163 0 -322 24l-28 -24q-67 -176 -234 -465zM539 682l14 -20q138 22 250 22q108 0 227 -22l19 20q-49 190 -69.5 350.5t-4.5 362.5h-107
q-59 -205 -136.5 -366t-192.5 -347z" />
    <glyph glyph-name="Abreve.ss01" horiz-adv-x="1556" 
d="M979 1718q-170 0 -262 103.5t-70 251.5h209q-8 -72 32.5 -125.5t121.5 -53.5q82 0 141.5 52.5t77.5 126.5h209q-32 -149 -160 -252t-299 -103zM178 0h-268l881 1597h339l316 -1597h-275q-65 283 -65 467l-19 22q-190 -24 -325 -24q-163 0 -322 24l-28 -24
q-67 -176 -234 -465zM539 682l14 -20q138 22 250 22q108 0 227 -22l19 20q-49 190 -69.5 350.5t-4.5 362.5h-107q-59 -205 -136.5 -366t-192.5 -347z" />
    <glyph glyph-name="Acircumflex.ss01" horiz-adv-x="1556" 
d="M801 1720h-226l345 342h245l226 -342h-226q-32 37 -49 61t-34 69.5t-23 103.5h-66q-41 -83 -86 -134t-106 -100zM178 0h-268l881 1597h339l316 -1597h-275q-65 283 -65 467l-19 22q-190 -24 -325 -24q-163 0 -322 24l-28 -24q-67 -176 -234 -465zM539 682l14 -20
q138 22 250 22q108 0 227 -22l19 20q-49 190 -69.5 350.5t-4.5 362.5h-107q-59 -205 -136.5 -366t-192.5 -347z" />
    <glyph glyph-name="Adieresis.ss01" horiz-adv-x="1556" 
d="M762 1747q-58 0 -94.5 35.5t-36.5 91.5q0 73 55.5 127.5t128.5 54.5q56 0 92.5 -36t36.5 -89q0 -71 -54.5 -127.5t-127.5 -56.5zM1206 1747q-58 0 -93.5 35.5t-35.5 91.5q0 73 55.5 127.5t129.5 54.5q55 0 91 -36.5t36 -90.5q0 -70 -55 -126t-128 -56zM178 0h-268
l881 1597h339l316 -1597h-275q-65 283 -65 467l-19 22q-190 -24 -325 -24q-163 0 -322 24l-28 -24q-67 -176 -234 -465zM539 682l14 -20q138 22 250 22q108 0 227 -22l19 20q-49 190 -69.5 350.5t-4.5 362.5h-107q-59 -205 -136.5 -366t-192.5 -347z" />
    <glyph glyph-name="Agrave.ss01" horiz-adv-x="1556" 
d="M1120 1720h-221l-268 351h311zM178 0h-268l881 1597h339l316 -1597h-275q-65 283 -65 467l-19 22q-190 -24 -325 -24q-163 0 -322 24l-28 -24q-67 -176 -234 -465zM539 682l14 -20q138 22 250 22q108 0 227 -22l19 20q-49 190 -69.5 350.5t-4.5 362.5h-107
q-59 -205 -136.5 -366t-192.5 -347z" />
    <glyph glyph-name="Amacron.ss01" horiz-adv-x="1556" 
d="M1354 1784h-727l32 184h730zM178 0h-268l881 1597h339l316 -1597h-275q-65 283 -65 467l-19 22q-190 -24 -325 -24q-163 0 -322 24l-28 -24q-67 -176 -234 -465zM539 682l14 -20q138 22 250 22q108 0 227 -22l19 20q-49 190 -69.5 350.5t-4.5 362.5h-107
q-59 -205 -136.5 -366t-192.5 -347z" />
    <glyph glyph-name="Aogonek.ss01" horiz-adv-x="1556" 
d="M1155 -195q0 -46 35 -78t102 -32q52 0 92 12l-26 -153q-58 -17 -129 -17q-111 0 -184.5 50.5t-73.5 144.5q0 89 61 158t152 110h-13q-65 283 -65 467l-19 22q-190 -24 -325 -24q-163 0 -322 24l-28 -24q-67 -176 -234 -465h-268l881 1597h339l316 -1597h-88
q-91 -21 -147 -77.5t-56 -117.5zM1030 662l19 20q-49 190 -69.5 350.5t-4.5 362.5h-107q-59 -205 -136.5 -366t-192.5 -347l14 -20q138 22 250 22q108 0 227 -22z" />
    <glyph glyph-name="Aring.ss01" horiz-adv-x="1556" 
d="M979 1712q-95 0 -154 56.5t-59 144.5q0 110 88.5 194t208.5 84q94 0 152.5 -54.5t58.5 -143.5q0 -112 -87.5 -196.5t-207.5 -84.5zM997 1835q57 0 98.5 41.5t41.5 95.5q0 41 -27 67.5t-70 26.5q-57 0 -98 -40t-41 -97q0 -42 26 -68t70 -26zM178 0h-268l881 1597h339
l316 -1597h-275q-65 283 -65 467l-19 22q-190 -24 -325 -24q-163 0 -322 24l-28 -24q-67 -176 -234 -465zM539 682l14 -20q138 22 250 22q108 0 227 -22l19 20q-49 190 -69.5 350.5t-4.5 362.5h-107q-59 -205 -136.5 -366t-192.5 -347z" />
    <glyph glyph-name="Atilde.ss01" horiz-adv-x="1556" 
d="M1137 1735q-75 0 -138 53l-47 37q-44 39 -80 39q-38 0 -65.5 -32t-36.5 -81h-174q24 135 109 217t192 82q75 0 139 -55l45 -35q35 -35 72 -35q34 0 58.5 30t33.5 81h176q-26 -144 -100.5 -222.5t-183.5 -78.5zM178 0h-268l881 1597h339l316 -1597h-275q-65 283 -65 467
l-19 22q-190 -24 -325 -24q-163 0 -322 24l-28 -24q-67 -176 -234 -465zM539 682l14 -20q138 22 250 22q108 0 227 -22l19 20q-49 190 -69.5 350.5t-4.5 362.5h-107q-59 -205 -136.5 -366t-192.5 -347z" />
    <glyph glyph-name="B.ss01" horiz-adv-x="1460" 
d="M741 0h-657l283 1597h639q206 0 316 -94.5t110 -249.5q0 -152 -100 -265.5t-269 -151.5l-6 -37q154 -28 227.5 -99.5t73.5 -197.5q0 -102 -46.5 -194.5t-127.5 -160t-196.5 -107.5t-246.5 -40zM469 895l25 -21q59 20 120 30.5t98.5 12t98.5 1.5q152 0 246 70t94 181
q0 66 -37.5 110t-94.5 62.5t-130 18.5q-8 0 -47.5 -0.5t-51.5 0t-45.5 2.5t-53.5 6.5t-49.5 12.5t-57.5 20l-35 -21q6 -232 -80 -485zM346 227l27 -30q140 41 338 41q176 0 274 72.5t98 185.5q0 101 -78 149.5t-200 48.5q-69 0 -108 1.5t-103.5 11.5t-120.5 30l-35 -20
q-6 -270 -92 -490z" />
    <glyph glyph-name="C.ss01" horiz-adv-x="1703" 
d="M803 -35q-315 0 -502.5 181t-187.5 491q0 193 76 375t204.5 318t309 218t378.5 82q253 0 426.5 -131t212.5 -360l-254 -97q-38 160 -148.5 252t-281.5 92q-110 0 -211.5 -40t-180 -109.5t-138 -159.5t-90.5 -195.5t-31 -211.5q0 -97 26.5 -176t70.5 -131t105 -87.5
t127 -51t138 -15.5q200 0 354 114t244 300l223 -82q-138 -279 -365 -427.5t-505 -148.5z" />
    <glyph glyph-name="D.ss01" horiz-adv-x="1634" 
d="M702 0h-618l283 1597h600q165 0 288 -44t198.5 -126.5t112 -193t36.5 -250.5q0 -150 -41 -294.5t-120 -268.5t-187 -218.5t-250.5 -148t-301.5 -53.5zM346 227l27 -30q100 27 161.5 34t135.5 7q128 0 235.5 35t184.5 97t131 147t80 185.5t26 212.5q0 105 -24.5 185
t-64.5 128.5t-99 79t-120.5 41.5t-135.5 11q-109 0 -169.5 7t-129.5 34l-35 -21q-21 -590 -203 -1153z" />
    <glyph glyph-name="E.ss01" horiz-adv-x="1333" 
d="M1137 0h-1053l283 1597h1032l-43 -237h-72.5h-76.5t-71.5 0.5t-77 1t-73 2t-79.5 3.5t-75.5 5t-82.5 7t-79 9.5t-85 12.5l-35 -21q8 -221 -78 -475l16 -22q135 26 280 38.5t232 14.5t242 2l-45 -248q-153 0 -242.5 2t-226.5 15.5t-260 40.5l-27 -21q-9 -278 -94 -500
l27 -30q140 20 294.5 30t248.5 11.5t262 1.5z" />
    <glyph glyph-name="F.ss01" horiz-adv-x="1269" 
d="M340 0h-256l283 1597h1013l-43 -241q-161 0 -250 1.5t-232.5 12t-270.5 31.5l-35 -21q9 -254 -94 -506l18 -20q135 26 279 38.5t229 14.5t236 2l-43 -247q-153 0 -238 2t-223 14.5t-260 38.5l-29 -21q-8 -268 -84 -696z" />
    <glyph glyph-name="G.ss01" horiz-adv-x="1738" 
d="M799 -35q-321 0 -504.5 177t-183.5 483q0 195 75.5 378.5t203.5 321.5t309 221.5t380 83.5q255 0 429.5 -132.5t211.5 -358.5l-256 -97q-36 159 -146.5 251.5t-279.5 92.5q-136 0 -258.5 -61t-207.5 -160t-135 -228.5t-50 -264.5q0 -223 129 -343t348 -120q388 0 635 430
l-20 31q-150 -40 -266 -53t-269 -17l39 213h719l-14 -80q-34 -185 -115.5 -331.5t-198 -241.5t-263 -145t-312.5 -50z" />
    <glyph glyph-name="H.ss01" horiz-adv-x="1658" 
d="M340 0h-256l283 1597h256q-83 -458 -152 -698l25 -20q221 39 404 39.5t376 -39.5l33 20q17 282 94 698h258l-283 -1597h-258q69 407 152 694l-29 23q-386 -86 -774 0l-35 -23q-7 -123 -24 -255.5t-29.5 -206.5t-40.5 -232z" />
    <glyph glyph-name="I.ss01" horiz-adv-x="1161" 
d="M979 0h-997l43 238q82 0 128 -1t120.5 -9t142.5 -23q68 618 211 1188q-76 -15 -156 -23t-127.5 -9t-132.5 -1l43 237h1018l-43 -237q-84 0 -131 1t-124.5 9t-148.5 23q-64 -602 -209 -1188q74 15 152 23t124.5 9t129.5 1z" />
    <glyph glyph-name="Iacute.ss01" horiz-adv-x="1161" 
d="M1210 2071l-391 -351h-219l301 351h309zM979 0h-997l43 238q82 0 128 -1t120.5 -9t142.5 -23q68 618 211 1188q-76 -15 -156 -23t-127.5 -9t-132.5 -1l43 237h1018l-43 -237q-84 0 -131 1t-124.5 9t-148.5 23q-64 -602 -209 -1188q74 15 152 23t124.5 9t129.5 1z" />
    <glyph glyph-name="Icircumflex.ss01" horiz-adv-x="1161" 
d="M606 1720h-225l344 342h246l225 -342h-225q-33 38 -49.5 61t-34 69t-23.5 104h-65q-41 -83 -86 -133.5t-107 -100.5zM979 0h-997l43 238q82 0 128 -1t120.5 -9t142.5 -23q68 618 211 1188q-76 -15 -156 -23t-127.5 -9t-132.5 -1l43 237h1018l-43 -237q-84 0 -131 1
t-124.5 9t-148.5 23q-64 -602 -209 -1188q74 15 152 23t124.5 9t129.5 1z" />
    <glyph glyph-name="Idieresis.ss01" horiz-adv-x="1161" 
d="M569 1747q-58 0 -94.5 35.5t-36.5 91.5q0 73 56 127.5t129 54.5q56 0 92.5 -36t36.5 -89q0 -71 -55 -127.5t-128 -56.5zM1014 1747q-58 0 -93.5 35.5t-35.5 91.5q0 73 55 127.5t129 54.5q55 0 91 -36.5t36 -90.5q0 -70 -55 -126t-127 -56zM979 0h-997l43 238q82 0 128 -1
t120.5 -9t142.5 -23q68 618 211 1188q-76 -15 -156 -23t-127.5 -9t-132.5 -1l43 237h1018l-43 -237q-84 0 -131 1t-124.5 9t-148.5 23q-64 -602 -209 -1188q74 15 152 23t124.5 9t129.5 1z" />
    <glyph glyph-name="Idotaccent.ss01" horiz-adv-x="1161" 
d="M793 1763q-60 0 -97 37t-37 96q0 72 57 128.5t132 56.5q59 0 96 -36.5t37 -92.5q0 -74 -57.5 -131.5t-130.5 -57.5zM979 0h-997l43 238q82 0 128 -1t120.5 -9t142.5 -23q68 618 211 1188q-76 -15 -156 -23t-127.5 -9t-132.5 -1l43 237h1018l-43 -237q-84 0 -131 1
t-124.5 9t-148.5 23q-64 -602 -209 -1188q74 15 152 23t124.5 9t129.5 1z" />
    <glyph glyph-name="Igrave.ss01" horiz-adv-x="1161" 
d="M926 1720h-221l-269 351h312zM979 0h-997l43 238q82 0 128 -1t120.5 -9t142.5 -23q68 618 211 1188q-76 -15 -156 -23t-127.5 -9t-132.5 -1l43 237h1018l-43 -237q-84 0 -131 1t-124.5 9t-148.5 23q-64 -602 -209 -1188q74 15 152 23t124.5 9t129.5 1z" />
    <glyph glyph-name="Imacron.ss01" horiz-adv-x="1161" 
d="M1159 1784h-727l33 184h729zM979 0h-997l43 238q82 0 128 -1t120.5 -9t142.5 -23q68 618 211 1188q-76 -15 -156 -23t-127.5 -9t-132.5 -1l43 237h1018l-43 -237q-84 0 -131 1t-124.5 9t-148.5 23q-64 -602 -209 -1188q74 15 152 23t124.5 9t129.5 1z" />
    <glyph glyph-name="J.ss01" horiz-adv-x="1261" 
d="M489 -35q-114 0 -206 32t-159 99.5t-89.5 171t2.5 246.5l8 43l258 35l-8 -41q-17 -89 -7.5 -154t42.5 -107t80 -62.5t106 -20.5q70 0 126.5 27t94 76t61.5 107.5t38 129.5q106 548 186 858l-10 33q-311 -78 -588 -78l43 237h811l-178 -1007q-8 -47 -15.5 -82t-29.5 -105
t-48.5 -122t-75 -115t-107 -104t-145.5 -69t-190 -28z" />
    <glyph glyph-name="K.ss01" horiz-adv-x="1437" 
d="M340 0h-256l283 1597h256q-5 -27 -21 -120.5t-24.5 -137.5t-24.5 -122.5t-33.5 -147.5t-38.5 -141h29q312 284 778 669h342q-678 -544 -991 -790l-6 -33q97 -88 207 -201.5t163.5 -171.5t195.5 -217.5t163 -183.5h-356q-12 13 -37 40q-89 96 -136 149t-118.5 140
t-129 174t-110.5 185h-29q-36 -295 -106 -688z" />
    <glyph glyph-name="L.ss01" horiz-adv-x="1198" 
d="M1077 0h-993l283 1597h256q-49 -278 -81 -453.5t-86 -435t-110 -481.5l27 -30q128 20 271 30t231 11.5t245 1.5z" />
    <glyph glyph-name="M.ss01" horiz-adv-x="1990" 
d="M344 0h-260l283 1597h307q104 -278 178 -513.5t125 -497.5h45q144 261 302 497.5t359 513.5h310l-283 -1597h-262q11 63 44 260t52.5 304.5t56 280t76.5 320.5h-32l-607 -870h-180l-301 870h-33q-12 -151 -36 -323.5t-40 -269t-55 -307.5t-49 -265z" />
    <glyph glyph-name="N.ss01" horiz-adv-x="1675" 
d="M340 0h-256l283 1597h292q120 -257 175 -378t160 -372t188 -482h51q61 535 186 1232h258l-282 -1597h-295q-236 510 -331 740q-100 238 -189 487h-56q-59 -538 -184 -1227z" />
    <glyph glyph-name="O.ss01" horiz-adv-x="1783" 
d="M786 -35q-146 0 -271 48.5t-214 135.5t-139.5 214t-50.5 278q0 189 78 370t207 317t309 219t372 83q198 0 351.5 -85t239 -240t85.5 -355q0 -151 -49.5 -298.5t-140.5 -270t-209.5 -216.5t-266 -147t-301.5 -53zM829 209q129 0 249.5 59.5t207 156.5t139 225.5
t52.5 262.5q0 210 -121.5 341.5t-317.5 131.5q-127 0 -248 -59.5t-208.5 -156.5t-141 -226.5t-53.5 -263.5q0 -212 124 -341.5t318 -129.5z" />
    <glyph glyph-name="P.ss01" horiz-adv-x="1378" 
d="M340 0h-256l283 1597h600q26 0 48 -1t73 -8.5t91.5 -21.5t90 -43.5t83 -70.5t56.5 -106.5t23 -147.5q0 -92 -27 -179.5t-82 -164t-131.5 -134t-182 -91t-227.5 -33.5q-73 0 -118.5 2.5t-113 16.5t-126.5 42q-15 -272 -84 -657zM449 797l26 -19q126 56 299 56
q166 0 274.5 81t108.5 226q0 219 -283 219q-62 0 -97 1.5t-90.5 11t-102.5 28.5l-35 -21q-3 -290 -100 -583z" />
    <glyph glyph-name="Q.ss01" horiz-adv-x="1789" 
d="M690 -29q-118 -102 -250 -194l-6 -33q186 34 376.5 51t312.5 20t323 3l-41 -224h-1430q201 203 467 451q-155 81 -242 232t-87 350q0 201 78 386.5t209 320.5t310 215.5t373 80.5q302 0 488 -183.5t186 -481.5q0 -199 -78 -384t-208.5 -319.5t-310 -215.5t-372.5 -81
q-52 0 -98 6zM1042 1389q-130 0 -251 -58t-209.5 -155t-141.5 -230t-53 -276q0 -209 124 -336t323 -127q173 0 323 98t238 263.5t88 355.5q0 208 -120.5 336.5t-320.5 128.5z" />
    <glyph glyph-name="R.ss01" horiz-adv-x="1425" 
d="M340 0h-256l283 1597h600q55 0 109.5 -8.5t121.5 -36t116.5 -71t83.5 -122t34 -181.5q0 -98 -29 -180.5t-81 -141.5t-118.5 -103.5t-148 -72t-162.5 -42.5t-168 -20q178 -182 563 -618h-311q-5 5 -63.5 71.5t-71 81t-65 75.5t-73 86.5t-65 80.5t-71.5 92.5t-61.5 87
t-64.5 95.5h-16q-17 -290 -86 -670zM446 784l27 -20q54 19 112 29t97.5 12t99.5 2q159 1 266 96.5t107 233.5q0 62 -24 107.5t-65 70.5t-88 37t-99 12q-63 0 -98 1t-90.5 10t-106.5 26l-35 -21q0 -292 -103 -596z" />
    <glyph glyph-name="S.ss01" horiz-adv-x="1331" 
d="M578 -35q-225 0 -373 121t-166 350l254 84q16 -166 105.5 -242.5t222.5 -76.5q146 0 244 76.5t98 185.5q0 38 -15 68.5t-35 50t-56 37.5t-61.5 27t-68.5 23q-11 3 -16 5l-138 45q-51 16 -89.5 32t-92 48.5t-88.5 70t-60.5 98t-25.5 132.5q0 102 47.5 198.5t129 169.5
t199 117.5t249.5 44.5q110 0 200.5 -30.5t149.5 -83t93.5 -119.5t41.5 -142l-252 -96q-19 111 -90.5 174.5t-187.5 63.5q-128 0 -215.5 -69t-87.5 -165q0 -38 17.5 -71t41 -54.5t62.5 -42t66 -31t67 -24.5l155 -53q33 -11 47 -15.5t48.5 -18t52.5 -23t48.5 -28t47.5 -35.5
t39 -43t33.5 -53t19.5 -63t8 -76q0 -106 -50 -208.5t-136.5 -182t-213 -128t-269.5 -48.5z" />
    <glyph glyph-name="U.ss01" horiz-adv-x="1546" 
d="M600 -35q-92 0 -165 24.5t-120.5 65t-80.5 96t-48.5 114t-21 123t-2.5 119t12 105.5l174 985h258l-170 -964q-11 -63 -11.5 -121t13.5 -114.5t43 -98t83 -67t128 -25.5q92 0 169 38t128.5 101.5t84 136t46.5 150.5l170 964h258l-282 -1597h-246q17 91 76 262h-33
q-79 -153 -189 -225t-274 -72z" />
    <glyph glyph-name="Uacute.ss01" horiz-adv-x="1546" 
d="M1335 2071l-391 -351h-219l301 351h309zM600 -35q-92 0 -165 24.5t-120.5 65t-80.5 96t-48.5 114t-21 123t-2.5 119t12 105.5l174 985h258l-170 -964q-11 -63 -11.5 -121t13.5 -114.5t43 -98t83 -67t128 -25.5q92 0 169 38t128.5 101.5t84 136t46.5 150.5l170 964h258
l-282 -1597h-246q17 91 76 262h-33q-79 -153 -189 -225t-274 -72z" />
    <glyph glyph-name="Ucircumflex.ss01" horiz-adv-x="1546" 
d="M780 1720h-225l344 342h246l225 -342h-225q-33 38 -49.5 61t-34 69t-23.5 104h-65q-41 -83 -86 -133.5t-107 -100.5zM600 -35q-92 0 -165 24.5t-120.5 65t-80.5 96t-48.5 114t-21 123t-2.5 119t12 105.5l174 985h258l-170 -964q-11 -63 -11.5 -121t13.5 -114.5t43 -98
t83 -67t128 -25.5q92 0 169 38t128.5 101.5t84 136t46.5 150.5l170 964h258l-282 -1597h-246q17 91 76 262h-33q-79 -153 -189 -225t-274 -72z" />
    <glyph glyph-name="Udieresis.ss01" horiz-adv-x="1546" 
d="M743 1747q-58 0 -94.5 35.5t-36.5 91.5q0 73 56 127.5t129 54.5q56 0 92.5 -36t36.5 -89q0 -71 -55 -127.5t-128 -56.5zM1188 1747q-58 0 -93.5 35.5t-35.5 91.5q0 73 55 127.5t129 54.5q55 0 91 -36.5t36 -90.5q0 -70 -55 -126t-127 -56zM600 -35q-92 0 -165 24.5
t-120.5 65t-80.5 96t-48.5 114t-21 123t-2.5 119t12 105.5l174 985h258l-170 -964q-11 -63 -11.5 -121t13.5 -114.5t43 -98t83 -67t128 -25.5q92 0 169 38t128.5 101.5t84 136t46.5 150.5l170 964h258l-282 -1597h-246q17 91 76 262h-33q-79 -153 -189 -225t-274 -72z" />
    <glyph glyph-name="Ugrave.ss01" horiz-adv-x="1546" 
d="M1100 1720h-221l-269 351h312zM600 -35q-92 0 -165 24.5t-120.5 65t-80.5 96t-48.5 114t-21 123t-2.5 119t12 105.5l174 985h258l-170 -964q-11 -63 -11.5 -121t13.5 -114.5t43 -98t83 -67t128 -25.5q92 0 169 38t128.5 101.5t84 136t46.5 150.5l170 964h258l-282 -1597
h-246q17 91 76 262h-33q-79 -153 -189 -225t-274 -72z" />
    <glyph glyph-name="Uhungarumlaut.ss01" horiz-adv-x="1546" 
d="M1192 2068l-363 -348h-211l277 348h297zM1616 2068l-369 -348h-213l287 348h295zM600 -35q-92 0 -165 24.5t-120.5 65t-80.5 96t-48.5 114t-21 123t-2.5 119t12 105.5l174 985h258l-170 -964q-11 -63 -11.5 -121t13.5 -114.5t43 -98t83 -67t128 -25.5q92 0 169 38
t128.5 101.5t84 136t46.5 150.5l170 964h258l-282 -1597h-246q17 91 76 262h-33q-79 -153 -189 -225t-274 -72z" />
    <glyph glyph-name="Umacron.ss01" horiz-adv-x="1546" 
d="M1335 1784h-727l33 184h729zM600 -35q-92 0 -165 24.5t-120.5 65t-80.5 96t-48.5 114t-21 123t-2.5 119t12 105.5l174 985h258l-170 -964q-11 -63 -11.5 -121t13.5 -114.5t43 -98t83 -67t128 -25.5q92 0 169 38t128.5 101.5t84 136t46.5 150.5l170 964h258l-282 -1597
h-246q17 91 76 262h-33q-79 -153 -189 -225t-274 -72z" />
    <glyph glyph-name="Uogonek.ss01" horiz-adv-x="1546" 
d="M1266 0h-37q-91 -21 -147 -77.5t-56 -117.5q0 -46 35 -78t102 -32q52 0 92 12l-26 -153q-58 -17 -129 -17q-111 0 -184.5 50.5t-73.5 144.5q0 89 61 158t152 110h-35q17 91 76 262h-33q-79 -153 -189 -225t-274 -72q-92 0 -165 24.5t-120.5 65t-80.5 96t-48.5 114
t-21 123t-2.5 119t12 105.5l174 985h258l-170 -964q-11 -63 -11.5 -121t13.5 -114.5t43 -98t83 -67t128 -25.5q92 0 169 38t128.5 101.5t84 136t46.5 150.5l170 964h258z" />
    <glyph glyph-name="Uring.ss01" horiz-adv-x="1546" 
d="M961 1712q-95 0 -154 56.5t-59 144.5q0 110 88 194t208 84q94 0 152.5 -54.5t58.5 -143.5q0 -112 -87 -196.5t-207 -84.5zM979 1835q57 0 98 41.5t41 95.5q0 41 -26.5 67.5t-69.5 26.5q-57 0 -98 -40t-41 -97q0 -42 26 -68t70 -26zM600 -35q-92 0 -165 24.5t-120.5 65
t-80.5 96t-48.5 114t-21 123t-2.5 119t12 105.5l174 985h258l-170 -964q-11 -63 -11.5 -121t13.5 -114.5t43 -98t83 -67t128 -25.5q92 0 169 38t128.5 101.5t84 136t46.5 150.5l170 964h258l-282 -1597h-246q17 91 76 262h-33q-79 -153 -189 -225t-274 -72z" />
    <glyph glyph-name="V.ss01" horiz-adv-x="1562" 
d="M854 0h-354l-307 1597h272q152 -802 235 -1298h70q285 544 694 1298h273z" />
    <glyph glyph-name="W.ss01" horiz-adv-x="2355" 
d="M717 0h-324l-190 1597h293l100 -1237h29l536 1237h408l92 -1237h29l536 1237h291l-756 -1597h-319l-82 1333h-86z" />
    <glyph glyph-name="Wacute.ss01" horiz-adv-x="2355" 
d="M1882 2071l-391 -351h-221l301 351h311zM717 0h-324l-190 1597h293l100 -1237h29l536 1237h408l92 -1237h29l536 1237h291l-756 -1597h-319l-82 1333h-86z" />
    <glyph glyph-name="Wcircumflex.ss01" horiz-adv-x="2355" 
d="M1202 1720h-225l344 342h246l225 -342h-225q-33 38 -49.5 61t-34 69t-23.5 104h-65q-41 -83 -86 -133.5t-107 -100.5zM717 0h-324l-190 1597h293l100 -1237h29l536 1237h408l92 -1237h29l536 1237h291l-756 -1597h-319l-82 1333h-86z" />
    <glyph glyph-name="Wdieresis.ss01" horiz-adv-x="2355" 
d="M1165 1747q-58 0 -94.5 35.5t-36.5 91.5q0 73 56 127.5t129 54.5q56 0 92.5 -36t36.5 -89q0 -71 -55 -127.5t-128 -56.5zM1610 1747q-58 0 -93.5 35.5t-35.5 91.5q0 73 55 127.5t129 54.5q55 0 91 -36.5t36 -90.5q0 -70 -55 -126t-127 -56zM717 0h-324l-190 1597h293
l100 -1237h29l536 1237h408l92 -1237h29l536 1237h291l-756 -1597h-319l-82 1333h-86z" />
    <glyph glyph-name="Wgrave.ss01" horiz-adv-x="2355" 
d="M1522 1720h-222l-268 351h311zM717 0h-324l-190 1597h293l100 -1237h29l536 1237h408l92 -1237h29l536 1237h291l-756 -1597h-319l-82 1333h-86z" />
    <glyph glyph-name="X.ss01" horiz-adv-x="1452" 
d="M197 0h-291l669 803l5 28l-387 766h290q156 -333 281 -657h61q43 57 120.5 158.5t118.5 155t116 147t161 196.5h281l-655 -766l-6 -28l385 -803h-283q-80 171 -166 372.5t-119 303.5h-61q-18 -24 -72 -97.5t-68 -92t-57 -75.5t-66 -87t-66.5 -85.5t-88.5 -111.5
t-102 -127z" />
    <glyph glyph-name="Y.ss01" horiz-adv-x="1447" 
d="M457 0h-277q11 14 57.5 75t64.5 84.5t60.5 78t69.5 87.5t66 80t74.5 88.5t72.5 81.5q-179 375 -432 1022h281q71 -187 104 -277.5t81.5 -243t84.5 -298.5h37q84 145 187 299t178 257.5t194 262.5h278z" />
    <glyph glyph-name="Yacute.ss01" horiz-adv-x="1447" 
d="M1382 2071l-391 -351h-219l301 351h309zM457 0h-277q11 14 57.5 75t64.5 84.5t60.5 78t69.5 87.5t66 80t74.5 88.5t72.5 81.5q-179 375 -432 1022h281q71 -187 104 -277.5t81.5 -243t84.5 -298.5h37q84 145 187 299t178 257.5t194 262.5h278z" />
    <glyph glyph-name="Ycircumflex.ss01" horiz-adv-x="1447" 
d="M766 1720h-225l344 342h245l226 -342h-226q-32 37 -49 61t-34 69.5t-23 103.5h-66q-41 -83 -86 -134t-106 -100zM457 0h-277q11 14 57.5 75t64.5 84.5t60.5 78t69.5 87.5t66 80t74.5 88.5t72.5 81.5q-179 375 -432 1022h281q71 -187 104 -277.5t81.5 -243t84.5 -298.5h37
q84 145 187 299t178 257.5t194 262.5h278z" />
    <glyph glyph-name="Ydieresis.ss01" horiz-adv-x="1447" 
d="M729 1747q-58 0 -94.5 35.5t-36.5 91.5q0 73 55.5 127.5t128.5 54.5q56 0 92.5 -36t36.5 -89q0 -71 -54.5 -127.5t-127.5 -56.5zM1174 1747q-58 0 -94 35.5t-36 91.5q0 73 55.5 127.5t129.5 54.5q55 0 91 -36.5t36 -90.5q0 -70 -55 -126t-127 -56zM457 0h-277
q11 14 57.5 75t64.5 84.5t60.5 78t69.5 87.5t66 80t74.5 88.5t72.5 81.5q-179 375 -432 1022h281q71 -187 104 -277.5t81.5 -243t84.5 -298.5h37q84 145 187 299t178 257.5t194 262.5h278z" />
    <glyph glyph-name="Ygrave.ss01" horiz-adv-x="1447" 
d="M1085 1720h-221l-268 351h311zM457 0h-277q11 14 57.5 75t64.5 84.5t60.5 78t69.5 87.5t66 80t74.5 88.5t72.5 81.5q-179 375 -432 1022h281q71 -187 104 -277.5t81.5 -243t84.5 -298.5h37q84 145 187 299t178 257.5t194 262.5h278z" />
    <glyph glyph-name="Z.ss01" horiz-adv-x="1421" 
d="M1237 0h-1346q86 97 354.5 400.5t469 528t403.5 445.5l-8 39q-147 -25 -307 -37.5t-265.5 -15t-271.5 -2.5l43 239h1280q-56 -64 -213 -243.5t-245 -279t-227.5 -257t-270 -302t-262.5 -288.5l8 -41q152 25 323.5 37.5t282 14.5t295.5 2z" />
    <glyph glyph-name="Zacute.ss01" horiz-adv-x="1421" 
d="M1413 2071l-391 -351h-221l301 351h311zM1237 0h-1346q86 97 354.5 400.5t469 528t403.5 445.5l-8 39q-147 -25 -307 -37.5t-265.5 -15t-271.5 -2.5l43 239h1280q-56 -64 -213 -243.5t-245 -279t-227.5 -257t-270 -302t-262.5 -288.5l8 -41q152 25 323.5 37.5t282 14.5
t295.5 2z" />
    <glyph glyph-name="Zcaron.ss01" horiz-adv-x="1421" 
d="M1040 1720h-254l-221 342h226q31 -36 47 -58.5t35 -69.5t26 -105h66q27 57 62.5 104.5t59 69.5t68.5 59h225zM1237 0h-1346q86 97 354.5 400.5t469 528t403.5 445.5l-8 39q-147 -25 -307 -37.5t-265.5 -15t-271.5 -2.5l43 239h1280q-56 -64 -213 -243.5t-245 -279
t-227.5 -257t-270 -302t-262.5 -288.5l8 -41q152 25 323.5 37.5t282 14.5t295.5 2z" />
    <glyph glyph-name="Zdotaccent.ss01" horiz-adv-x="1421" 
d="M932 1763q-60 0 -96.5 37t-36.5 96q0 72 56.5 128.5t131.5 56.5q59 0 96 -36.5t37 -92.5q0 -74 -57.5 -131.5t-130.5 -57.5zM1237 0h-1346q86 97 354.5 400.5t469 528t403.5 445.5l-8 39q-147 -25 -307 -37.5t-265.5 -15t-271.5 -2.5l43 239h1280q-56 -64 -213 -243.5
t-245 -279t-227.5 -257t-270 -302t-262.5 -288.5l8 -41q152 25 323.5 37.5t282 14.5t295.5 2z" />
    <glyph glyph-name="Q.ss02" horiz-adv-x="1781" 
d="M1753 950q0 -173 -65.5 -339t-179 -297.5t-277 -222.5t-348.5 -116q1 -9 1 -19v-18t-1 -20l-1.5 -18t-3 -20t-3.5 -19t-4.5 -21.5t-4 -20.5t-5 -23t-5.5 -23q96 21 200 31.5t167 12t174 1.5l-39 -224q-166 0 -256.5 1t-224.5 7.5t-234 20.5q22 223 62 350
q-269 30 -431.5 209.5t-162.5 460.5q0 126 35.5 250t98 232.5t152.5 202t196 160t231.5 104.5t254.5 38q197 0 350 -85t238.5 -240t85.5 -355zM924 209q240 65 395.5 262.5t155.5 439.5q0 211 -121.5 343t-317.5 132q-127 0 -247 -59t-208 -156t-141 -226.5t-53 -264.5
q0 -180 94.5 -304t270.5 -169q-3 74 4 156.5t14 128t23 137.5h243q-1 -5 -7.5 -40t-8 -42.5t-7.5 -39.5t-8.5 -43t-9 -39.5t-11 -43t-12 -40.5t-14 -44.5t-15.5 -42t-19 -45.5z" />
    <glyph glyph-name="A.ss07" 
d="M868 -315q-236 0 -416.5 95.5t-279 268t-98.5 395.5q0 140 40.5 279t112.5 260t176 225.5t226.5 178.5t268 116.5t296.5 42.5q228 0 408 -91.5t284.5 -267t104.5 -407.5q0 -171 -57 -335.5t-162 -300.5t-243 -239.5t-309.5 -161.5t-351.5 -58zM1024 1096l-543 -963h176
q105 184 142 281l12 10q85 -14 188 -14q104 0 189 14l8 -10q0 -19 1 -38.5t2.5 -35t4.5 -37.5t4.5 -33.5t6.5 -36.5l6.5 -32.5l7 -35l6.5 -32.5h180l-203 963h-188zM881 543l-4 4q133 205 200 401h27q0 -205 57 -401l-4 -4q-65 12 -133 12q-66 0 -143 -12z" />
    <glyph glyph-name="B.ss07" 
d="M868 -315q-236 0 -416.5 95.5t-279 268t-98.5 395.5q0 140 40.5 279t112.5 260t176 225.5t226.5 178.5t268 116.5t296.5 42.5q228 0 408 -91.5t284.5 -267t104.5 -407.5q0 -171 -57 -335.5t-162 -300.5t-243 -239.5t-309.5 -161.5t-351.5 -58zM793 1096l-170 -963h397
q160 0 267.5 89t107.5 218q0 76 -43.5 120t-132.5 61v10q102 25 161.5 94t59.5 160q0 99 -70 155t-190 56h-387zM879 668l-9 8q50 153 45 280l13 7q64 -25 167 -25h4h3h4q72 0 110.5 -26.5t38.5 -77.5q0 -64 -54 -103t-142 -39q-111 0 -180 -24zM807 268l-10 13
q50 135 55 282l10 6q73 -24 189 -24q79 0 122.5 -28.5t43.5 -84.5q0 -65 -58.5 -103t-163.5 -38q-87 0 -188 -23z" />
    <glyph glyph-name="C.ss07" 
d="M868 -315q-236 0 -416.5 95.5t-279 268t-98.5 395.5q0 140 40.5 279t112.5 260t176 225.5t226.5 178.5t268 116.5t296.5 42.5q228 0 408 -91.5t284.5 -267t104.5 -407.5q0 -171 -57 -335.5t-162 -300.5t-243 -239.5t-309.5 -161.5t-351.5 -58zM965 113q171 0 308.5 92
t219.5 262l-147 53q-54 -113 -144 -180.5t-207 -67.5q-52 0 -98.5 15t-85 45t-61.5 83.5t-23 123.5q0 108 49.5 203.5t137.5 154.5t192 59q101 0 164 -55.5t84 -150.5l166 61q-23 144 -130.5 224.5t-259.5 80.5q-118 0 -226 -49.5t-185.5 -132t-123.5 -192.5t-46 -226
q0 -185 112 -294t304 -109z" />
    <glyph glyph-name="D.ss07" 
d="M868 -315q-236 0 -416.5 95.5t-279 268t-98.5 395.5q0 140 40.5 279t112.5 260t176 225.5t226.5 178.5t268 116.5t296.5 42.5q228 0 408 -91.5t284.5 -267t104.5 -407.5q0 -171 -57 -335.5t-162 -300.5t-243 -239.5t-309.5 -161.5t-351.5 -58zM756 1096l-170 -963h377
q120 0 223.5 50.5t172 133.5t107.5 190t39 220q0 180 -99.5 274.5t-285.5 94.5h-364zM770 268l-10 13q107 328 119 675l14 7q40 -16 76 -20.5t98 -4.5q53 0 95 -10.5t80.5 -36.5t59.5 -77.5t21 -125.5q0 -165 -95.5 -281t-250.5 -116q-129 0 -207 -23z" />
    <glyph glyph-name="E.ss07" 
d="M868 -315q-236 0 -416.5 95.5t-279 268t-98.5 395.5q0 140 40.5 279t112.5 260t176 225.5t226.5 178.5t268 116.5t296.5 42.5q228 0 408 -91.5t284.5 -267t104.5 -407.5q0 -171 -57 -335.5t-162 -300.5t-243 -239.5t-309.5 -161.5t-351.5 -58zM809 1096l-170 -963h639
l29 158h-29q-95 0 -148.5 -1t-140.5 -6.5t-166 -17.5l-10 13q52 143 55 290l11 9q72 -17 158 -25.5t130 -9t148 -0.5l31 162q-106 0 -150 -0.5t-133.5 -8t-167.5 -22.5l-8 8q49 138 43 274l14 7q159 -25 437 -25h9.5h9h9.5l27 158h-627z" />
    <glyph glyph-name="F.ss07" 
d="M868 -315q-236 0 -416.5 95.5t-279 268t-98.5 395.5q0 140 40.5 279t112.5 260t176 225.5t226.5 178.5t268 116.5t296.5 42.5q228 0 408 -91.5t284.5 -267t104.5 -407.5q0 -171 -57 -335.5t-162 -300.5t-243 -239.5t-309.5 -161.5t-351.5 -58zM829 1096l-170 -963h170
q2 14 9 52.5t9 52.5t7.5 47.5t8 51t6 48t5.5 53.5t4 53t3 60l12 8q72 -16 154 -24.5t133 -9.5t143 -1l29 164q-102 0 -145 -0.5t-131.5 -8.5t-168.5 -24l-6 9q60 153 51 292l15 7q164 -25 454 -25l27 158h-619z" />
    <glyph glyph-name="G.ss07" 
d="M868 -315q-236 0 -416.5 95.5t-279 268t-98.5 395.5q0 140 40.5 279t112.5 260t176 225.5t226.5 178.5t268 116.5t296.5 42.5q228 0 408 -91.5t284.5 -267t104.5 -407.5q0 -171 -57 -335.5t-162 -300.5t-243 -239.5t-309.5 -161.5t-351.5 -58zM944 113q122 0 213.5 54.5
t167.5 172.5l14 -4q-18 -41 -29 -75t-14 -50.5t-5.5 -42.5t-4.5 -35h133l88 500h-442l-27 -144q192 0 324 39l8 -8q-69 -119 -164 -183.5t-205 -64.5q-53 0 -100 14.5t-87.5 45t-64.5 84.5t-24 125q0 80 30 155.5t80.5 132.5t121.5 92t149 35q97 0 160.5 -53t85.5 -153
l168 61q-23 144 -130.5 224.5t-259.5 80.5q-118 0 -227 -50.5t-186.5 -133t-123.5 -192.5t-46 -226q0 -183 108 -292t289 -109z" />
    <glyph glyph-name="H.ss07" 
d="M868 -315q-236 0 -416.5 95.5t-279 268t-98.5 395.5q0 140 40.5 279t112.5 260t176 225.5t226.5 178.5t268 116.5t296.5 42.5q228 0 408 -91.5t284.5 -267t104.5 -407.5q0 -171 -57 -335.5t-162 -300.5t-243 -239.5t-309.5 -161.5t-351.5 -58zM725 1096l-170 -963h170
q4 26 15 91.5t16 102t12.5 98.5t11.5 124l13 8q231 -50 456 0l11 -8q-42 -151 -91 -416h170l170 963h-170q-47 -260 -57 -418l-10 -6q-213 43 -461 0l-8 6q41 141 92 418h-170z" />
    <glyph glyph-name="I.ss07" 
d="M868 -315q-236 0 -416.5 95.5t-279 268t-98.5 395.5q0 140 40.5 279t112.5 260t176 225.5t226.5 178.5t268 116.5t296.5 42.5q228 0 408 -91.5t284.5 -267t104.5 -407.5q0 -171 -57 -335.5t-162 -300.5t-243 -239.5t-309.5 -161.5t-351.5 -58zM1034 1096l-170 -963h170
l170 963h-170z" />
    <glyph glyph-name="J.ss07" 
d="M868 -315q-236 0 -416.5 95.5t-279 268t-98.5 395.5q0 140 40.5 279t112.5 260t176 225.5t226.5 178.5t268 116.5t296.5 42.5q228 0 408 -91.5t284.5 -267t104.5 -407.5q0 -171 -57 -335.5t-162 -300.5t-243 -239.5t-309.5 -161.5t-351.5 -58zM918 123q63 0 116 17
t88.5 42t65 64t46 71.5t30 77.5t18.5 69.5t10 57.5l105 584h-170l-107 -612q-38 -211 -180 -211q-73 0 -112 48t-19 144l8 37l-170 -23l-8 -38q-29 -159 51 -243.5t228 -84.5z" />
    <glyph glyph-name="K.ss07" 
d="M868 -315q-236 0 -416.5 95.5t-279 268t-98.5 395.5q0 140 40.5 279t112.5 260t176 225.5t226.5 178.5t268 116.5t296.5 42.5q228 0 408 -91.5t284.5 -267t104.5 -407.5q0 -171 -57 -335.5t-162 -300.5t-243 -239.5t-309.5 -161.5t-351.5 -58zM772 1096l-170 -963h170
q5 29 15.5 89.5t18 111.5t13.5 112q54 34 129 109h6q70 -152 224 -422h206q-14 24 -55.5 98.5t-60.5 107t-55.5 92.5t-73 113.5t-80.5 112.5l2 13q142 120 477 426h-203q-232 -210 -501 -473h-7q17 45 31.5 92t23.5 80.5t19.5 83.5t15 72.5t13.5 76t12 68.5h-170z" />
    <glyph glyph-name="L.ss07" 
d="M868 -315q-236 0 -416.5 95.5t-279 268t-98.5 395.5q0 140 40.5 279t112.5 260t176 225.5t226.5 178.5t268 116.5t296.5 42.5q228 0 408 -91.5t284.5 -267t104.5 -407.5q0 -171 -57 -335.5t-162 -300.5t-243 -239.5t-309.5 -161.5t-351.5 -58zM891 1096l-170 -963h606
l29 158h-27q-269 0 -422 -25l-12 15q14 55 27 112t23 102t22.5 107t19.5 96.5t20 103t17.5 94t18.5 102.5t18 98h-170z" />
    <glyph glyph-name="M.ss07" 
d="M868 -315q-236 0 -416.5 95.5t-279 268t-98.5 395.5q0 140 40.5 279t112.5 260t176 225.5t226.5 178.5t268 116.5t296.5 42.5q228 0 408 -91.5t284.5 -267t104.5 -407.5q0 -171 -57 -335.5t-162 -300.5t-243 -239.5t-309.5 -161.5t-351.5 -58zM602 1096l-170 -963h170
q4 25 19 109.5t20.5 117.5t16.5 107.5t16 123t10.5 116.5t7.5 133h8q27 -118 57.5 -233.5t73.5 -266t58 -207.5h112q45 73 131 206.5t162.5 256.5t147.5 244h6q-21 -69 -40 -140t-31 -120t-27 -123.5t-20.5 -105t-20.5 -114.5t-19 -104h172l170 963h-182
q-278 -400 -459 -748h-14q-59 359 -195 748h-180z" />
    <glyph glyph-name="N.ss07" 
d="M868 -315q-236 0 -416.5 95.5t-279 268t-98.5 395.5q0 140 40.5 279t112.5 260t176 225.5t226.5 178.5t268 116.5t296.5 42.5q228 0 408 -91.5t284.5 -267t104.5 -407.5q0 -171 -57 -335.5t-162 -300.5t-243 -239.5t-309.5 -161.5t-351.5 -58zM733 1096l-170 -963h168
q3 16 19 108.5t20.5 119t17 105.5t18.5 125t14.5 116t15.5 137h8q49 -128 114.5 -263.5t114 -222t129.5 -225.5h154l170 963h-168q-78 -427 -109 -727h-6q-127 343 -356 727h-154z" />
    <glyph glyph-name="O.ss07" 
d="M868 -315q-236 0 -416.5 95.5t-279 268t-98.5 395.5q0 140 40.5 279t112.5 260t176 225.5t226.5 178.5t268 116.5t296.5 42.5q228 0 408 -91.5t284.5 -267t104.5 -407.5q0 -171 -57 -335.5t-162 -300.5t-243 -239.5t-309.5 -161.5t-351.5 -58zM946 113q154 0 290 84.5
t215 221.5t79 288q0 181 -113 295t-295 114q-115 0 -223 -50t-186 -132t-125 -191t-47 -223q0 -186 114 -296.5t291 -110.5zM721 547q0 104 51 198.5t138 152.5t186 58q115 0 184.5 -77t69.5 -199q0 -159 -112.5 -283.5t-262.5 -124.5q-114 0 -184 76.5t-70 198.5z" />
    <glyph glyph-name="P.ss07" 
d="M868 -315q-236 0 -416.5 95.5t-279 268t-98.5 395.5q0 140 40.5 279t112.5 260t176 225.5t226.5 178.5t268 116.5t296.5 42.5q228 0 408 -91.5t284.5 -267t104.5 -407.5q0 -171 -57 -335.5t-162 -300.5t-243 -239.5t-309.5 -161.5t-351.5 -58zM817 1096l-170 -963h168
q43 228 51 385q35 -15 74.5 -22t65.5 -8t75 -1q164 0 273.5 108t109.5 257q0 60 -21 106t-51.5 71.5t-71.5 41t-74 20.5t-66 5h-363zM891 612l-8 4q57 183 57 340l12 7q59 -25 172 -25q160 0 160 -123q0 -82 -62 -127t-153 -45q-105 0 -178 -31z" />
    <glyph glyph-name="Q.ss07" 
d="M868 -315q-236 0 -416.5 95.5t-279 268t-98.5 395.5q0 140 40.5 279t112.5 260t176 225.5t226.5 178.5t268 116.5t296.5 42.5q228 0 408 -91.5t284.5 -267t104.5 -407.5q0 -171 -57 -335.5t-162 -300.5t-243 -239.5t-309.5 -161.5t-351.5 -58zM1286 47l139 103
q-60 98 -129 159q115 79 180.5 202.5t65.5 258.5q0 181 -115 295.5t-301 114.5q-117 0 -226 -49.5t-188.5 -131t-127 -191t-47.5 -224.5q0 -186 115 -297t298 -111q127 0 234 64q4 -15 9.5 -29.5t13.5 -31t13 -27t17 -29.5t15.5 -25t17.5 -27zM713 608q0 165 114 287.5
t273 122.5q120 0 192 -74t72 -194q0 -93 -38 -188t-101 -156q-32 93 -125 239l-139 -102q3 -4 24 -37.5t29.5 -45.5t27 -37.5t35 -42.5t33.5 -32q-68 -26 -131 -26q-121 0 -193.5 79t-72.5 207z" />
    <glyph glyph-name="R.ss07" 
d="M868 -315q-236 0 -416.5 95.5t-279 268t-98.5 395.5q0 140 40.5 279t112.5 260t176 225.5t226.5 178.5t268 116.5t296.5 42.5q228 0 408 -91.5t284.5 -267t104.5 -407.5q0 -171 -57 -335.5t-162 -300.5t-243 -239.5t-309.5 -161.5t-351.5 -58zM815 1096l-170 -963h170
q44 265 49 385q67 -21 142 -24l170 -361h190q-4 7 -24 48t-25 51.5t-23.5 45.5t-27 49.5t-25.5 44.5t-30 49.5t-30.5 44.5t-35.5 48l2 8q143 12 229 105t86 221q0 61 -21.5 108t-53 72.5t-72.5 41.5t-73 21t-62 5h-365zM889 604l-8 6q57 183 57 346l14 7q71 -21 164 -21
q71 0 118.5 -30.5t47.5 -98.5q0 -78 -59.5 -131.5t-151.5 -54.5q-116 0 -182 -23z" />
    <glyph glyph-name="S.ss07" 
d="M868 -315q-236 0 -416.5 95.5t-279 268t-98.5 395.5q0 140 40.5 279t112.5 260t176 225.5t226.5 178.5t268 116.5t296.5 42.5q228 0 408 -91.5t284.5 -267t104.5 -407.5q0 -171 -57 -335.5t-162 -300.5t-243 -239.5t-309.5 -161.5t-351.5 -58zM961 113q167 0 287 103.5
t120 242.5q0 42 -14 76.5t-32 55.5t-49 39t-51 26t-52 19l-9 3l-94 31q-24 8 -36 12.5t-35 16t-35 23t-22.5 30t-10.5 40.5q0 52 46.5 88.5t117.5 36.5q67 0 107.5 -36t51.5 -103l164 64q-5 99 -83 167t-210 68q-163 0 -274 -96.5t-111 -226.5q0 -168 219 -238l82 -25
q80 -25 105 -44q35 -26 35 -68q0 -60 -55 -103t-134 -43q-83 0 -131.5 49t-56.5 140l-166 -55q9 -144 100 -218.5t226 -74.5z" />
    <glyph glyph-name="T.ss07" 
d="M868 -315q-236 0 -416.5 95.5t-279 268t-98.5 395.5q0 140 40.5 279t112.5 260t176 225.5t226.5 178.5t268 116.5t296.5 42.5q228 0 408 -91.5t284.5 -267t104.5 -407.5q0 -171 -57 -335.5t-162 -300.5t-243 -239.5t-309.5 -161.5t-351.5 -58zM862 133h170
q95 547 129 823q111 -18 307 -18l29 158h-762l-26 -158q196 0 313 18q-65 -279 -160 -823z" />
    <glyph glyph-name="U.ss07" 
d="M868 -315q-236 0 -416.5 95.5t-279 268t-98.5 395.5q0 140 40.5 279t112.5 260t176 225.5t226.5 178.5t268 116.5t296.5 42.5q228 0 408 -91.5t284.5 -267t104.5 -407.5q0 -171 -57 -335.5t-162 -300.5t-243 -239.5t-309.5 -161.5t-351.5 -58zM942 123q91 0 164.5 27.5
t118.5 68t78.5 96.5t48.5 103t24 98l105 590h-170l-101 -578q-42 -245 -237 -245q-57 0 -94 22t-49.5 57.5t-15.5 79t7 86.5l103 578h-170l-105 -590q-10 -59 -10.5 -110.5t14 -105t47 -91.5t94 -62t148.5 -24z" />
    <glyph glyph-name="V.ss07" 
d="M868 -315q-236 0 -416.5 95.5t-279 268t-98.5 395.5q0 140 40.5 279t112.5 260t176 225.5t226.5 178.5t268 116.5t296.5 42.5q228 0 408 -91.5t284.5 -267t104.5 -407.5q0 -171 -57 -335.5t-162 -300.5t-243 -239.5t-309.5 -161.5t-351.5 -58zM664 1096l202 -963h191
l540 963h-178q-86 -151 -211 -387.5t-204 -411.5h-23q-15 177 -59.5 416t-79.5 383h-178z" />
    <glyph glyph-name="W.ss07" 
d="M868 -315q-236 0 -416.5 95.5t-279 268t-98.5 395.5q0 140 40.5 279t112.5 260t176 225.5t226.5 178.5t268 116.5t296.5 42.5q228 0 408 -91.5t284.5 -267t104.5 -407.5q0 -171 -57 -335.5t-162 -300.5t-243 -239.5t-309.5 -161.5t-351.5 -58zM420 1096l117 -963h202
q212 434 334 752h14q9 -316 72 -752h199l457 963h-191q-218 -474 -330 -783h-8q-16 325 -76 783h-184q-233 -482 -350 -774h-6q-9 330 -60 774h-190z" />
    <glyph glyph-name="X.ss07" 
d="M868 -315q-236 0 -416.5 95.5t-279 268t-98.5 395.5q0 140 40.5 279t112.5 260t176 225.5t226.5 178.5t268 116.5t296.5 42.5q228 0 408 -91.5t284.5 -267t104.5 -407.5q0 -171 -57 -335.5t-162 -300.5t-243 -239.5t-309.5 -161.5t-351.5 -58zM535 131h202
q199 251 279 373h8q57 -177 145 -373h203q-14 28 -49 100.5t-51 105t-43.5 87.5t-51.5 99t-49 89l2 15q152 160 412 469h-199q-162 -194 -278 -363h-8q-75 212 -150 363h-198q169 -346 243 -469l-2 -15q-147 -160 -415 -481z" />
    <glyph glyph-name="Y.ss07" 
d="M868 -315q-236 0 -416.5 95.5t-279 268t-98.5 395.5q0 140 40.5 279t112.5 260t176 225.5t226.5 178.5t268 116.5t296.5 42.5q228 0 408 -91.5t284.5 -267t104.5 -407.5q0 -171 -57 -335.5t-162 -300.5t-243 -239.5t-309.5 -161.5t-351.5 -58zM862 133h168q46 264 51 338
q92 119 233 312t230 313h-182q-220 -309 -330 -498h-8q-42 195 -154 498h-182q157 -419 244 -625q-29 -106 -70 -338z" />
    <glyph glyph-name="Z.ss07" 
d="M868 -315q-236 0 -416.5 95.5t-279 268t-98.5 395.5q0 140 40.5 279t112.5 260t176 225.5t226.5 178.5t268 116.5t296.5 42.5q228 0 408 -91.5t284.5 -267t104.5 -407.5q0 -171 -57 -335.5t-162 -300.5t-243 -239.5t-309.5 -161.5t-351.5 -58zM598 270l-23 -137h748
l29 158q-318 0 -594 -45l-4 8q402 378 704 707l25 135h-721l-27 -158q282 0 559 51l2 -10q-397 -382 -698 -709z" />
    <glyph glyph-name="A.ss08" 
d="M868 -315q-236 0 -416.5 95.5t-279 268t-98.5 395.5q0 140 40.5 279t112.5 260t176 225.5t226.5 178.5t268 116.5t296.5 42.5q228 0 408 -91.5t284.5 -267t104.5 -407.5q0 -171 -57 -335.5t-162 -300.5t-243 -239.5t-309.5 -161.5t-351.5 -58zM891 -180q192 0 370 77
t307 204.5t206 299.5t77 355q0 149 -52 273t-143 207.5t-216.5 129t-270.5 45.5q-154 0 -300 -50.5t-263.5 -141t-206.5 -207.5t-137.5 -257.5t-48.5 -283.5q0 -191 84.5 -339t239 -230t354.5 -82zM791 299h-117l356 631h121l133 -631h-119l-8 40t-8.5 46t-5.5 45t-4 57
l-4 5q-71 -11 -123 -11q-49 0 -121 11l-6 -5q-34 -85 -94 -188zM936 571q74 9 98 9q20 0 40 -2.5t26 -3.5t18 1q-4 23 -15.5 73t-18.5 95t-7 88h-10q-49 -128 -131 -260z" />
    <glyph glyph-name="B.ss08" 
d="M868 -315q-236 0 -416.5 95.5t-279 268t-98.5 395.5q0 140 40.5 279t112.5 260t176 225.5t226.5 178.5t268 116.5t296.5 42.5q228 0 408 -91.5t284.5 -267t104.5 -407.5q0 -171 -57 -335.5t-162 -300.5t-243 -239.5t-309.5 -161.5t-351.5 -58zM891 -180q192 0 370 77
t307 204.5t206 299.5t77 355q0 149 -52 273t-143 207.5t-216.5 129t-270.5 45.5q-154 0 -300 -50.5t-263.5 -141t-206.5 -207.5t-137.5 -257.5t-48.5 -283.5q0 -191 84.5 -339t239 -230t354.5 -82zM1010 299h-260l110 631h252q79 0 125.5 -37t46.5 -100q0 -61 -38.5 -107
t-104.5 -63q114 -24 114 -123q0 -83 -69.5 -142t-175.5 -59zM913 653l2 -2q52 15 119 15q59 0 94 26t35 66q0 67 -96 67q-79 0 -121 15l-2 -2q0 -88 -31 -185zM864 393l4 -4q55 14 140 14q54 0 91.5 24t37.5 69q0 73 -107 73q-77 0 -127 15l-2 -2q-6 -110 -37 -189z" />
    <glyph glyph-name="C.ss08" 
d="M868 -315q-236 0 -416.5 95.5t-279 268t-98.5 395.5q0 140 40.5 279t112.5 260t176 225.5t226.5 178.5t268 116.5t296.5 42.5q228 0 408 -91.5t284.5 -267t104.5 -407.5q0 -171 -57 -335.5t-162 -300.5t-243 -239.5t-309.5 -161.5t-351.5 -58zM891 -180q192 0 370 77
t307 204.5t206 299.5t77 355q0 149 -52 273t-143 207.5t-216.5 129t-270.5 45.5q-154 0 -300 -50.5t-263.5 -141t-206.5 -207.5t-137.5 -257.5t-48.5 -283.5q0 -191 84.5 -339t239 -230t354.5 -82zM987 287q-124 0 -198 72t-74 192q0 156 112.5 273.5t268.5 117.5
q104 0 172 -54t82 -147l-109 -41q-13 66 -56 102t-108 36q-100 0 -173 -83t-73 -190q0 -88 51 -131t126 -43q74 0 133.5 43.5t93.5 122.5l98 -37q-53 -111 -143 -172t-203 -61z" />
    <glyph glyph-name="D.ss08" 
d="M868 -315q-236 0 -416.5 95.5t-279 268t-98.5 395.5q0 140 40.5 279t112.5 260t176 225.5t226.5 178.5t268 116.5t296.5 42.5q228 0 408 -91.5t284.5 -267t104.5 -407.5q0 -171 -57 -335.5t-162 -300.5t-243 -239.5t-309.5 -161.5t-351.5 -58zM891 -180q192 0 370 77
t307 204.5t206 299.5t77 355q0 149 -52 273t-143 207.5t-216.5 129t-270.5 45.5q-154 0 -300 -50.5t-263.5 -141t-206.5 -207.5t-137.5 -257.5t-48.5 -283.5q0 -191 84.5 -339t239 -230t354.5 -82zM985 299h-244l111 631h240q121 0 185 -62.5t64 -181.5q0 -101 -44.5 -189
t-127.5 -143t-184 -55zM856 393l4 -4q49 14 129 14q104 0 169 74t65 185q0 93 -44.5 128t-121.5 35q-70 0 -119 15l-2 -2q-13 -225 -80 -445z" />
    <glyph glyph-name="E.ss08" 
d="M868 -315q-236 0 -416.5 95.5t-279 268t-98.5 395.5q0 140 40.5 279t112.5 260t176 225.5t226.5 178.5t268 116.5t296.5 42.5q228 0 408 -91.5t284.5 -267t104.5 -407.5q0 -171 -57 -335.5t-162 -300.5t-243 -239.5t-309.5 -161.5t-351.5 -58zM891 -180q192 0 370 77
t307 204.5t206 299.5t77 355q0 149 -52 273t-143 207.5t-216.5 129t-270.5 45.5q-154 0 -300 -50.5t-263.5 -141t-206.5 -207.5t-137.5 -257.5t-48.5 -283.5q0 -191 84.5 -339t239 -230t354.5 -82zM1196 299h-420l111 631h413l-18 -105q-15 0 -57 1l-63 1.5t-56.5 2t-67 4
t-63.5 6.5l-6 -2q3 -84 -29 -181l4 -2q117 21 295 21l-18 -109h-27h-29h-27t-29.5 0.5t-28 1.5t-30 2t-28 2.5t-30.5 3.5t-29 5t-31 6l-4 -2q-6 -111 -37 -193l4 -4q129 17 319 17z" />
    <glyph glyph-name="F.ss08" 
d="M868 -315q-236 0 -416.5 95.5t-279 268t-98.5 395.5q0 140 40.5 279t112.5 260t176 225.5t226.5 178.5t268 116.5t296.5 42.5q228 0 408 -91.5t284.5 -267t104.5 -407.5q0 -171 -57 -335.5t-162 -300.5t-243 -239.5t-309.5 -161.5t-351.5 -58zM891 -180q192 0 370 77
t307 204.5t206 299.5t77 355q0 149 -52 273t-143 207.5t-216.5 129t-270.5 45.5q-154 0 -300 -50.5t-263.5 -141t-206.5 -207.5t-137.5 -257.5t-48.5 -283.5q0 -191 84.5 -339t239 -230t354.5 -82zM901 299h-110l110 631h406l-19 -105q-182 0 -299 15l-6 -2q3 -93 -35 -191
l4 -2q105 19 293 19l-20 -107h-26.5h-28.5h-26.5t-28.5 0.5t-27 1.5t-29.5 2t-28 2.5t-30 3.5t-28 5t-30.5 6l-6 -5q-1 -35 -5.5 -76.5t-7.5 -61t-12 -74.5t-10 -62z" />
    <glyph glyph-name="G.ss08" 
d="M868 -315q-236 0 -416.5 95.5t-279 268t-98.5 395.5q0 140 40.5 279t112.5 260t176 225.5t226.5 178.5t268 116.5t296.5 42.5q228 0 408 -91.5t284.5 -267t104.5 -407.5q0 -171 -57 -335.5t-162 -300.5t-243 -239.5t-309.5 -161.5t-351.5 -58zM891 -180q192 0 370 77
t307 204.5t206 299.5t77 355q0 149 -52 273t-143 207.5t-216.5 129t-270.5 45.5q-154 0 -300 -50.5t-263.5 -141t-206.5 -207.5t-137.5 -257.5t-48.5 -283.5q0 -191 84.5 -339t239 -230t354.5 -82zM975 287q-119 0 -189.5 71.5t-70.5 190.5q0 156 112.5 274.5t268.5 118.5
q103 0 172.5 -54.5t81.5 -146.5l-109 -41q-15 67 -57 102.5t-105 35.5q-101 0 -173 -82t-72 -191q0 -89 51.5 -131.5t124.5 -42.5t134.5 42.5t104.5 121.5l-2 2q-91 -25 -211 -25l15 95h292l-57 -328h-90q1 5 4 27.5t5 33.5t8.5 31.5t15.5 40.5q-98 -145 -254 -145z" />
    <glyph glyph-name="H.ss08" 
d="M868 -315q-236 0 -416.5 95.5t-279 268t-98.5 395.5q0 140 40.5 279t112.5 260t176 225.5t226.5 178.5t268 116.5t296.5 42.5q228 0 408 -91.5t284.5 -267t104.5 -407.5q0 -171 -57 -335.5t-162 -300.5t-243 -239.5t-309.5 -161.5t-351.5 -58zM891 -180q192 0 370 77
t307 204.5t206 299.5t77 355q0 149 -52 273t-143 207.5t-216.5 129t-270.5 45.5q-154 0 -300 -50.5t-263.5 -141t-206.5 -207.5t-137.5 -257.5t-48.5 -283.5q0 -191 84.5 -339t239 -230t354.5 -82zM834 299h-113l113 631h110q-28 -173 -59 -275l4 -2q173 25 301 0l6 2
q8 105 39 275h111l-113 -631h-111q35 184 60 274l-6 2q-147 -29 -302 0l-4 -2q-4 -72 -36 -274z" />
    <glyph glyph-name="I.ss08" 
d="M868 -315q-236 0 -416.5 95.5t-279 268t-98.5 395.5q0 140 40.5 279t112.5 260t176 225.5t226.5 178.5t268 116.5t296.5 42.5q228 0 408 -91.5t284.5 -267t104.5 -407.5q0 -171 -57 -335.5t-162 -300.5t-243 -239.5t-309.5 -161.5t-351.5 -58zM891 -180q192 0 370 77
t307 204.5t206 299.5t77 355q0 149 -52 273t-143 207.5t-216.5 129t-270.5 45.5q-154 0 -300 -50.5t-263.5 -141t-206.5 -207.5t-137.5 -257.5t-48.5 -283.5q0 -191 84.5 -339t239 -230t354.5 -82zM1034 299h-112l112 631h111z" />
    <glyph glyph-name="J.ss08" 
d="M868 -315q-236 0 -416.5 95.5t-279 268t-98.5 395.5q0 140 40.5 279t112.5 260t176 225.5t226.5 178.5t268 116.5t296.5 42.5q228 0 408 -91.5t284.5 -267t104.5 -407.5q0 -171 -57 -335.5t-162 -300.5t-243 -239.5t-309.5 -161.5t-351.5 -58zM891 -180q192 0 370 77
t307 204.5t206 299.5t77 355q0 149 -52 273t-143 207.5t-216.5 129t-270.5 45.5q-154 0 -300 -50.5t-263.5 -141t-206.5 -207.5t-137.5 -257.5t-48.5 -283.5q0 -191 84.5 -339t239 -230t354.5 -82zM958 293q-101 0 -149 57.5t-33 157.5l4 27l113 14l-6 -27
q-9 -58 12.5 -91.5t71.5 -33.5q32 0 54.5 14t34.5 39t17.5 43.5t9.5 43.5l72 399h111l-70 -383q-4 -22 -7 -37.5t-12 -45t-19.5 -50.5t-29.5 -46.5t-42 -42t-57 -27.5t-75 -11z" />
    <glyph glyph-name="K.ss08" 
d="M868 -315q-236 0 -416.5 95.5t-279 268t-98.5 395.5q0 140 40.5 279t112.5 260t176 225.5t226.5 178.5t268 116.5t296.5 42.5q228 0 408 -91.5t284.5 -267t104.5 -407.5q0 -171 -57 -335.5t-162 -300.5t-243 -239.5t-309.5 -161.5t-351.5 -58zM891 -180q192 0 370 77
t307 204.5t206 299.5t77 355q0 149 -52 273t-143 207.5t-216.5 129t-270.5 45.5q-154 0 -300 -50.5t-263.5 -141t-206.5 -207.5t-137.5 -257.5t-48.5 -283.5q0 -191 84.5 -339t239 -230t354.5 -82zM866 299h-110l110 631h113q-2 -11 -8.5 -47t-9.5 -51.5t-10 -48.5t-13 -55
t-14.5 -52t-18.5 -58q138 140 328 312h135q-33 -29 -89.5 -81.5t-105.5 -96t-118 -101.5l-2 -8q16 -22 31 -44t25.5 -37.5t26.5 -41.5t22.5 -36.5t25.5 -42.5t24 -40.5t28.5 -50t29.5 -51.5h-136q-103 179 -149 279q-52 -52 -84 -72q-7 -64 -31 -207z" />
    <glyph glyph-name="L.ss08" 
d="M868 -315q-236 0 -416.5 95.5t-279 268t-98.5 395.5q0 140 40.5 279t112.5 260t176 225.5t226.5 178.5t268 116.5t296.5 42.5q228 0 408 -91.5t284.5 -267t104.5 -407.5q0 -171 -57 -335.5t-162 -300.5t-243 -239.5t-309.5 -161.5t-351.5 -58zM891 -180q192 0 370 77
t307 204.5t206 299.5t77 355q0 149 -52 273t-143 207.5t-216.5 129t-270.5 45.5q-154 0 -300 -50.5t-263.5 -141t-206.5 -207.5t-137.5 -257.5t-48.5 -283.5q0 -191 84.5 -339t239 -230t354.5 -82zM1227 299h-398l111 631h111q-61 -345 -107 -537l4 -4q118 17 297 17z" />
    <glyph glyph-name="M.ss08" 
d="M1194 1546q228 0 408 -91.5t284.5 -267t104.5 -407.5q0 -171 -57 -335.5t-162 -300.5t-243 -239.5t-309.5 -161.5t-351.5 -58q-236 0 -416.5 95.5t-279 268t-98.5 395.5q0 140 40.5 279t112.5 260t176 225.5t226.5 178.5t268 116.5t296.5 42.5zM891 -180q192 0 370 77
t307 204.5t206 299.5t77 355q0 149 -52 273t-143 207.5t-216.5 129t-270.5 45.5q-154 0 -300 -50.5t-263.5 -141t-206.5 -207.5t-137.5 -257.5t-48.5 -283.5q0 -191 84.5 -339t239 -230t354.5 -82zM999 438h5q139 257 303 492h118l-112 -631h-111q1 7 8 47.5t8.5 50.5
t8 46.5t10 51.5t10 47.5t11.5 53t12.5 50t15.5 57t17 55.5q-57 -95 -157 -253t-130 -206h-76q-10 36 -32.5 113.5t-43 156.5t-45.5 183q-13 -179 -65 -453h-113l113 631h118q91 -273 127 -492z" />
    <glyph glyph-name="N.ss08" 
d="M1194 1546q228 0 408 -91.5t284.5 -267t104.5 -407.5q0 -171 -57 -335.5t-162 -300.5t-243 -239.5t-309.5 -161.5t-351.5 -58q-236 0 -416.5 95.5t-279 268t-98.5 395.5q0 140 40.5 279t112.5 260t176 225.5t226.5 178.5t268 116.5t296.5 42.5zM891 -180q192 0 370 77
t307 204.5t206 299.5t77 355q0 149 -52 273t-143 207.5t-216.5 129t-270.5 45.5q-154 0 -300 -50.5t-263.5 -141t-206.5 -207.5t-137.5 -257.5t-48.5 -283.5q0 -191 84.5 -339t239 -230t354.5 -82zM1171 455q19 167 74 475h111l-111 -631h-100q-55 95 -86.5 152t-74 142
t-77.5 169q-17 -185 -69 -463h-111l111 631h100q80 -140 130 -239t103 -236z" />
    <glyph glyph-name="O.ss08" 
d="M868 -315q-236 0 -416.5 95.5t-279 268t-98.5 395.5q0 140 40.5 279t112.5 260t176 225.5t226.5 178.5t268 116.5t296.5 42.5q228 0 408 -91.5t284.5 -267t104.5 -407.5q0 -171 -57 -335.5t-162 -300.5t-243 -239.5t-309.5 -161.5t-351.5 -58zM891 -180q192 0 370 77
t307 204.5t206 299.5t77 355q0 149 -52 273t-143 207.5t-216.5 129t-270.5 45.5q-154 0 -300 -50.5t-263.5 -141t-206.5 -207.5t-137.5 -257.5t-48.5 -283.5q0 -191 84.5 -339t239 -230t354.5 -82zM975 287q-117 0 -190.5 74.5t-73.5 191.5q0 99 51 189t139.5 145t190.5 55
q119 0 192.5 -74.5t73.5 -193.5q0 -99 -51.5 -188.5t-140.5 -144t-191 -54.5zM997 391q95 0 168.5 81t73.5 187q0 77 -45.5 128t-118.5 51q-98 0 -173 -82t-75 -185q0 -79 47 -129.5t123 -50.5z" />
    <glyph glyph-name="P.ss08" 
d="M868 -315q-236 0 -416.5 95.5t-279 268t-98.5 395.5q0 140 40.5 279t112.5 260t176 225.5t226.5 178.5t268 116.5t296.5 42.5q228 0 408 -91.5t284.5 -267t104.5 -407.5q0 -171 -57 -335.5t-162 -300.5t-243 -239.5t-309.5 -161.5t-351.5 -58zM891 -180q192 0 370 77
t307 204.5t206 299.5t77 355q0 149 -52 273t-143 207.5t-216.5 129t-270.5 45.5q-154 0 -300 -50.5t-263.5 -141t-206.5 -207.5t-137.5 -257.5t-48.5 -283.5q0 -191 84.5 -339t239 -230t354.5 -82zM891 299h-111l113 631h235q29 0 57.5 -6.5t60 -22.5t50.5 -49.5t19 -81.5
q0 -100 -72.5 -170t-177.5 -70q-89 0 -141 19q-1 -34 -5.5 -72t-8 -60.5t-10.5 -63t-9 -54.5zM936 616l2 -2q50 19 119 19q60 0 99.5 29.5t39.5 82.5q0 80 -100 80q-75 0 -119 15l-2 -2q-3 -109 -39 -222z" />
    <glyph glyph-name="Q.ss08" 
d="M868 -315q-236 0 -416.5 95.5t-279 268t-98.5 395.5q0 140 40.5 279t112.5 260t176 225.5t226.5 178.5t268 116.5t296.5 42.5q228 0 408 -91.5t284.5 -267t104.5 -407.5q0 -171 -57 -335.5t-162 -300.5t-243 -239.5t-309.5 -161.5t-351.5 -58zM891 -180q192 0 370 77
t307 204.5t206 299.5t77 355q0 149 -52 273t-143 207.5t-216.5 129t-270.5 45.5q-154 0 -300 -50.5t-263.5 -141t-206.5 -207.5t-137.5 -257.5t-48.5 -283.5q0 -191 84.5 -339t239 -230t354.5 -82zM1288 311l-90 -67q-55 80 -68 123q-66 -41 -153 -41q-119 0 -193.5 74
t-74.5 194q0 153 114.5 270t270.5 117q122 0 196 -73.5t74 -190.5q0 -90 -41.5 -169.5t-116.5 -131.5q40 -36 82 -105zM995 422q34 0 84 16q-43 40 -94 129l90 68q62 -92 86 -154q41 42 64.5 102t23.5 117q0 77 -47.5 127t-124.5 50q-104 0 -179 -80.5t-75 -188.5
q0 -83 47.5 -134.5t124.5 -51.5z" />
    <glyph glyph-name="R.ss08" 
d="M868 -315q-236 0 -416.5 95.5t-279 268t-98.5 395.5q0 140 40.5 279t112.5 260t176 225.5t226.5 178.5t268 116.5t296.5 42.5q228 0 408 -91.5t284.5 -267t104.5 -407.5q0 -171 -57 -335.5t-162 -300.5t-243 -239.5t-309.5 -161.5t-351.5 -58zM891 -180q192 0 370 77
t307 204.5t206 299.5t77 355q0 149 -52 273t-143 207.5t-216.5 129t-270.5 45.5q-154 0 -300 -50.5t-263.5 -141t-206.5 -207.5t-137.5 -257.5t-48.5 -283.5q0 -191 84.5 -339t239 -230t354.5 -82zM891 299h-111l111 631h237q20 0 41.5 -3.5t48.5 -14.5t48 -28t35 -47.5
t14 -70.5q0 -85 -57.5 -144.5t-149.5 -68.5q19 -25 35.5 -49.5t33.5 -55.5t25 -46.5t27.5 -55t23.5 -47.5h-127l-110 236q-44 0 -90 14q-4 -57 -35 -250zM934 612l2 -4q55 17 125 17q58 2 96.5 35t38.5 83q0 44 -30.5 64t-75.5 20q-60 0 -111 13l-6 -2q-3 -116 -39 -226z
" />
    <glyph glyph-name="S.ss08" 
d="M868 -315q-236 0 -416.5 95.5t-279 268t-98.5 395.5q0 140 40.5 279t112.5 260t176 225.5t226.5 178.5t268 116.5t296.5 42.5q228 0 408 -91.5t284.5 -267t104.5 -407.5q0 -171 -57 -335.5t-162 -300.5t-243 -239.5t-309.5 -161.5t-351.5 -58zM891 -180q192 0 370 77
t307 204.5t206 299.5t77 355q0 149 -52 273t-143 207.5t-216.5 129t-270.5 45.5q-154 0 -300 -50.5t-263.5 -141t-206.5 -207.5t-137.5 -257.5t-48.5 -283.5q0 -191 84.5 -339t239 -230t354.5 -82zM987 287q-95 0 -152 50.5t-63 141.5l111 37q5 -59 37 -92t86 -33
q52 0 86 27.5t34 66.5q0 12 -4 21.5t-8.5 15t-16 12t-17.5 8.5l-22.5 7.5t-21.5 7.5l-53 18q-143 45 -143 156q0 85 74 148t176 63q82 0 136.5 -43.5t57.5 -112.5l-108 -43q-7 46 -35 70.5t-70 24.5q-46 0 -76 -23.5t-30 -58.5q0 -13 6.5 -25t14 -19.5t22.5 -15.5t22.5 -11
t24.5 -9l59 -21q28 -9 44.5 -16t42.5 -23.5t39 -43t13 -62.5q0 -90 -79 -156.5t-187 -66.5z" />
    <glyph glyph-name="T.ss08" 
d="M868 -315q-236 0 -416.5 95.5t-279 268t-98.5 395.5q0 140 40.5 279t112.5 260t176 225.5t226.5 178.5t268 116.5t296.5 42.5q228 0 408 -91.5t284.5 -267t104.5 -407.5q0 -171 -57 -335.5t-162 -300.5t-243 -239.5t-309.5 -161.5t-351.5 -58zM891 -180q192 0 370 77
t307 204.5t206 299.5t77 355q0 149 -52 273t-143 207.5t-216.5 129t-270.5 45.5q-154 0 -300 -50.5t-263.5 -141t-206.5 -207.5t-137.5 -257.5t-48.5 -283.5q0 -191 84.5 -339t239 -230t354.5 -82zM1030 299h-110q67 368 106 539q-85 -13 -207 -13l21 105h495l-18 -105
q-121 0 -201 13q-42 -308 -86 -539z" />
    <glyph glyph-name="U.ss08" 
d="M868 -315q-236 0 -416.5 95.5t-279 268t-98.5 395.5q0 140 40.5 279t112.5 260t176 225.5t226.5 178.5t268 116.5t296.5 42.5q228 0 408 -91.5t284.5 -267t104.5 -407.5q0 -171 -57 -335.5t-162 -300.5t-243 -239.5t-309.5 -161.5t-351.5 -58zM891 -180q192 0 370 77
t307 204.5t206 299.5t77 355q0 149 -52 273t-143 207.5t-216.5 129t-270.5 45.5q-154 0 -300 -50.5t-263.5 -141t-206.5 -207.5t-137.5 -257.5t-48.5 -283.5q0 -191 84.5 -339t239 -230t354.5 -82zM973 293q-56 0 -96 15.5t-60 41t-31 59t-8.5 69t6.5 71.5l68 387h111
l-68 -381q-25 -158 100 -158q128 0 154 158l65 381h113l-70 -387q-7 -48 -25.5 -90.5t-50.5 -81.5t-85.5 -61.5t-122.5 -22.5z" />
    <glyph glyph-name="V.ss08" 
d="M868 -315q-236 0 -416.5 95.5t-279 268t-98.5 395.5q0 140 40.5 279t112.5 260t176 225.5t226.5 178.5t268 116.5t296.5 42.5q228 0 408 -91.5t284.5 -267t104.5 -407.5q0 -171 -57 -335.5t-162 -300.5t-243 -239.5t-309.5 -161.5t-351.5 -58zM891 -180q192 0 370 77
t307 204.5t206 299.5t77 355q0 149 -52 273t-143 207.5t-216.5 129t-270.5 45.5q-154 0 -300 -50.5t-263.5 -141t-206.5 -207.5t-137.5 -257.5t-48.5 -283.5q0 -191 84.5 -339t239 -230t354.5 -82zM1047 299h-121l-133 631h116q23 -91 52 -248t40 -276h9q56 119 142 282
t132 242h119z" />
    <glyph glyph-name="W.ss08" 
d="M1194 1546q228 0 408 -91.5t284.5 -267t104.5 -407.5q0 -171 -57 -335.5t-162 -300.5t-243 -239.5t-309.5 -161.5t-351.5 -58q-236 0 -416.5 95.5t-279 268t-98.5 395.5q0 140 40.5 279t112.5 260t176 225.5t226.5 178.5t268 116.5t296.5 42.5zM891 -180q192 0 370 77
t307 204.5t206 299.5t77 355q0 149 -52 273t-143 207.5t-216.5 129t-270.5 45.5q-154 0 -300 -50.5t-263.5 -141t-206.5 -207.5t-137.5 -257.5t-48.5 -283.5q0 -191 84.5 -339t239 -230t354.5 -82zM1200 422q97 253 219 508h123l-299 -631h-129q-43 301 -47 494h-4
q-82 -213 -223 -494h-129l-78 631h125q3 -28 12.5 -110.5t14 -128t10 -121t6.5 -144.5q115 270 227 504h121q40 -336 51 -508z" />
    </font>
</defs>
</svg>
