<?xml version="1.0" standalone="no"?>
<!DOCTYPE svg PUBLIC "-//W3C//DTD SVG 1.1//EN" "http://www.w3.org/Graphics/SVG/1.1/DTD/svg11.dtd" >
<svg xmlns="http://www.w3.org/2000/svg" xmlns:xlink="http://www.w3.org/1999/xlink" version="1.1">
<metadata>
Created by FontForge 20170731 at Mon Mar 15 14:15:13 2021
 By Aleksey,,,
Copyright (c) 2020 by Matthieu Salvaggio x Blaze Type. All rights reserved.
</metadata>
<defs>
<font id="Area-ExtralightInktrap" horiz-adv-x="2048" >
  <font-face 
    font-family="Area Extralight Inktrap"
    font-weight="200"
    font-stretch="normal"
    units-per-em="2048"
    panose-1="0 0 3 0 0 0 0 0 0 0"
    ascent="1638"
    descent="-410"
    x-height="1128"
    cap-height="1597"
    bbox="-1645 -498 2611 2144"
    underline-thickness="102"
    underline-position="-307"
    unicode-range="U+0020-25CA"
  />
<missing-glyph horiz-adv-x="1462" 
d="M1257 0h-1054v1597h1054v-1597zM311 1499v-1343l793 1343h-793zM1149 1397l-762 -1293h762v1293z" />
    <glyph glyph-name=".notdef" horiz-adv-x="1462" 
d="M1257 0h-1054v1597h1054v-1597zM311 1499v-1343l793 1343h-793zM1149 1397l-762 -1293h762v1293z" />
    <glyph glyph-name=".null" horiz-adv-x="0" 
 />
    <glyph glyph-name="nonmarkingreturn" horiz-adv-x="682" 
 />
    <glyph glyph-name="space" unicode=" " horiz-adv-x="546" 
 />
    <glyph glyph-name="exclam" unicode="!" horiz-adv-x="516" 
d="M293 371h-68l-35 1136v90h138v-90zM260 -14q-43 0 -72.5 30.5t-29.5 73.5q0 41 29.5 70.5t72.5 29.5q41 0 70.5 -29.5t29.5 -70.5q0 -43 -29.5 -73.5t-70.5 -30.5z" />
    <glyph glyph-name="quotedbl" unicode="&#x22;" horiz-adv-x="653" 
d="M262 1176h-115v421h115v-421zM506 1176h-117v421h117v-421z" />
    <glyph glyph-name="numbersign" unicode="#" horiz-adv-x="1378" 
d="M326 0h-103q7 36 29.5 148t40 193t37.5 163q-90 -23 -248 -23l18 94q158 0 246 -12q21 191 82 436q-90 -20 -248 -20l21 94q155 0 245 -12q24 191 93 536h102q-72 -360 -115 -536q218 17 439 0q28 230 90 536h102q-62 -324 -115 -536q92 12 256 12l-20 -94
q-162 0 -254 20q-16 -184 -80 -436q92 12 254 12l-18 -94q-162 0 -256 23q-20 -204 -82 -504h-103q83 402 107 504q-218 -33 -438 0q-20 -204 -82 -504zM426 563q220 17 440 0q13 163 78 436q-218 -29 -438 0q-15 -189 -80 -436z" />
    <glyph glyph-name="dollar" unicode="$" horiz-adv-x="1167" 
d="M1038 483q0 -155 -110 -257.5t-303 -106.5v-201h-80v205q-153 14 -266 99t-166 247l100 39q93 -253 332 -285v527q-46 11 -89 25.5t-99 45t-97 68.5t-69.5 98.5t-28.5 132.5q0 78 33.5 143t88.5 106t122 65t139 28v176h80v-180q138 -15 247 -99t142 -208l-94 -45
q-34 98 -110 165.5t-185 84.5v-514l8 -2q48 -13 81 -23t79 -27.5t77.5 -35.5t65.5 -45.5t54.5 -59t34 -74t13.5 -92.5zM274 1124q0 -182 271 -262v498q-118 -6 -194.5 -68.5t-76.5 -167.5zM625 731v-512q54 2 105 16t96.5 42t73.5 77t28 113q0 50 -18 90.5t-44.5 67t-70 48
t-80.5 33.5t-90 25z" />
    <glyph glyph-name="percent" unicode="%" horiz-adv-x="1636" 
d="M344 803q-117 0 -189.5 99.5t-72.5 258.5t73 260t189 101t189 -101t73 -260t-72.5 -258.5t-189.5 -99.5zM313 0h-106l1139 1468h98zM344 887q73 0 118.5 74t45.5 200t-45.5 200.5t-118.5 74.5q-74 0 -119 -74.5t-45 -200.5t45 -200t119 -74zM1294 -29q-117 0 -189.5 100
t-72.5 259t72.5 259.5t189.5 100.5t189.5 -100.5t72.5 -259.5t-72.5 -259t-189.5 -100zM1294 55q73 0 118.5 74.5t45.5 200.5t-45.5 200t-118.5 74q-74 0 -119 -74t-45 -200t45 -200.5t119 -74.5z" />
    <glyph glyph-name="ampersand" unicode="&#x26;" horiz-adv-x="1382" 
d="M551 -35q-119 0 -220 45t-165 136t-64 210q0 67 21.5 127t56 107t87 91.5t106.5 78t123 67.5q-56 54 -99 102t-87.5 110.5t-68.5 129t-24 131.5q0 142 107.5 236t265.5 94q162 0 264 -102t102 -242q0 -131 -94.5 -245.5t-247.5 -204.5l404 -426q83 295 98 364l103 -22
q-67 -264 -158 -392l346 -358h-135l-260 274q-161 -311 -461 -311zM573 881q50 43 74.5 64.5t61.5 57.5t54.5 61.5t36.5 60t26.5 70.5t7.5 77q0 121 -70 187.5t-180 66.5q-105 0 -176.5 -61t-71.5 -167q0 -54 18 -107.5t57 -110.5t72 -96.5t90 -102.5zM553 72
q122 0 222 65.5t196 184.5l-432 458q-138 -105 -178 -142q-123 -113 -138 -232q-2 -19 -2 -39q0 -135 96.5 -215t235.5 -80z" />
    <glyph glyph-name="quotesingle" unicode="'" horiz-adv-x="409" 
d="M262 1176h-115v421h115v-421z" />
    <glyph glyph-name="parenleft" unicode="(" horiz-adv-x="600" 
d="M569 -307h-116q-167 198 -255.5 445.5t-88.5 506.5q0 260 88.5 507t255.5 445h116q-164 -198 -251 -445t-87 -507q0 -259 87 -506.5t251 -445.5z" />
    <glyph glyph-name="parenright" unicode=")" horiz-adv-x="600" 
d="M147 -307h-114q164 197 250 444.5t86 507.5q0 261 -86 508t-250 444h114q167 -198 256 -445t89 -507q0 -259 -89 -506.5t-256 -445.5z" />
    <glyph glyph-name="asterisk" unicode="*" horiz-adv-x="849" 
d="M467 1024h-84v213l-186 -107l-41 72l186 109l-186 108l41 72l186 -107v213h84v-213l186 107l41 -72l-186 -108l186 -109l-41 -72l-186 107v-213z" />
    <glyph glyph-name="plus" unicode="+" horiz-adv-x="995" 
d="M551 678h301v-107h-301v-311h-107v311h-301v107h301v311h107v-311z" />
    <glyph glyph-name="comma" unicode="," horiz-adv-x="436" 
d="M147 -254h-75q77 162 151 246q-100 16 -100 98q0 41 29.5 70.5t72.5 29.5q41 0 71 -29.5t30 -70.5q0 -33 -28 -86.5t-116 -200.5q-23 -37 -35 -57z" />
    <glyph glyph-name="hyphen" unicode="-" horiz-adv-x="778" 
d="M657 575h-536v97h536v-97z" />
    <glyph glyph-name="period" unicode="." horiz-adv-x="468" 
d="M236 -14q-43 0 -73 30.5t-30 73.5q0 41 30 70.5t73 29.5q41 0 70.5 -29.5t29.5 -70.5q0 -43 -29.5 -73.5t-70.5 -30.5z" />
    <glyph glyph-name="slash" unicode="/" horiz-adv-x="831" 
d="M190 -135h-108l557 1773h109z" />
    <glyph glyph-name="zero" unicode="0" horiz-adv-x="1439" 
d="M721 -35q-174 0 -309.5 105t-210 294t-74.5 431q0 243 74.5 433.5t210 296t309.5 105.5q172 0 306.5 -105.5t209 -296t74.5 -433.5q0 -242 -74.5 -431t-209 -294t-306.5 -105zM723 76q136 0 240 89.5t161.5 253t57.5 376.5q0 324 -127 524.5t-332 200.5
q-209 0 -338 -200.5t-129 -524.5q0 -322 129 -520.5t338 -198.5z" />
    <glyph glyph-name="one" unicode="1" horiz-adv-x="780" 
d="M553 0h-119q0 887 23 1374q-142 -222 -404 -254v109q172 28 279.5 130.5t107.5 237.5h113v-1597z" />
    <glyph glyph-name="two" unicode="2" horiz-adv-x="1261" 
d="M1155 0h-1030v6q12 105 38 186t61 139.5t93.5 114.5t117.5 100.5t151 108.5q55 37 84 58q48 33 84 61t87 77.5t84.5 97t58 112.5t24.5 131q0 144 -103 238t-268 94q-187 0 -304.5 -123t-117.5 -320l-106 19q0 232 146 381t382 149q216 0 353.5 -123.5t137.5 -320.5
q0 -82 -25 -155.5t-73 -136.5t-99.5 -111t-123.5 -103q-54 -40 -130 -93t-120.5 -84t-100.5 -78.5t-91 -91t-68 -106t-53 -137.5q319 23 911 23v-113z" />
    <glyph glyph-name="three" unicode="3" horiz-adv-x="1296" 
d="M645 -35q-198 0 -348 99.5t-201 265.5l101 51q47 -139 167.5 -224t282.5 -85q176 0 289 98.5t113 259.5q0 152 -112 247t-329 95h-157v100h176q91 0 164 26t119 71t70 103.5t24 125.5q0 149 -107 237.5t-272 88.5q-154 0 -262 -86t-132 -238l-104 21q18 125 89.5 218.5
t180.5 142t240 48.5q132 0 242 -48.5t177.5 -144t67.5 -220.5q0 -141 -82.5 -246.5t-220.5 -134.5v-23q163 -19 256.5 -118t93.5 -257q0 -96 -36.5 -182t-103 -150.5t-166.5 -102.5t-220 -38z" />
    <glyph glyph-name="four" unicode="4" horiz-adv-x="1310" 
d="M993 0h-116q0 268 20 424q-393 -26 -848 -10v114l828 1069h116q0 -722 -20 -1103q102 20 262 20v-111q-155 0 -262 21q20 -156 20 -424zM170 502q381 19 727 -8q-27 437 -8 985q-86 -124 -188 -263.5t-169.5 -230t-189 -252.5t-172.5 -231z" />
    <glyph glyph-name="five" unicode="5" horiz-adv-x="1290" 
d="M635 -35q-197 0 -353 99t-214 268l98 53q56 -146 184.5 -229.5t286.5 -83.5q182 0 306 119.5t124 306.5q0 180 -117 295.5t-295 115.5q-127 0 -231.5 -60.5t-161.5 -160.5l-96 45l186 864h750v-106q-457 0 -690 22q-34 -328 -144 -700h17q55 88 159 141.5t232 53.5
q138 0 254.5 -61t188 -178t71.5 -267q0 -154 -74 -277.5t-201 -191.5t-280 -68z" />
    <glyph glyph-name="six" unicode="6" horiz-adv-x="1351" 
d="M700 -35q-260 0 -417.5 201.5t-157.5 550.5q0 266 93.5 475t258.5 323.5t373 114.5q200 0 344 -108l-78 -86q-123 88 -285 88q-126 0 -233.5 -56t-188.5 -161.5t-131 -267t-59 -363.5h23q44 166 179.5 262t301.5 96q102 0 196.5 -39t167.5 -107.5t116.5 -169t43.5 -216.5
q0 -153 -72 -276t-197 -192t-278 -69zM702 72q176 0 300 122t124 310q0 187 -122.5 308.5t-298.5 121.5q-183 0 -304.5 -127.5t-121.5 -308.5t124 -303.5t299 -122.5z" />
    <glyph glyph-name="seven" unicode="7" horiz-adv-x="1200" 
d="M430 0h-119q0 212 91.5 494.5t258.5 566.5t365 469l-10 16q-69 -7 -138 -12t-146.5 -8t-133 -5t-146 -2.5t-133 -0.5h-147h-137.5v110h1126v-121q-196 -178 -365.5 -451t-267.5 -556.5t-98 -499.5z" />
    <glyph glyph-name="eight" unicode="8" horiz-adv-x="1329" 
d="M666 -35q-236 0 -390.5 131.5t-154.5 327.5q0 152 90 261t250 142v25q-138 43 -209.5 135.5t-71.5 216.5q0 180 137 303t351 123q209 0 345 -119t136 -297q0 -123 -72 -221t-209 -141v-25q160 -33 250 -142t90 -261q0 -198 -153.5 -328.5t-388.5 -130.5zM666 881
q158 0 262 94t104 239q0 139 -104 227.5t-262 88.5q-159 0 -264 -88.5t-105 -227.5q0 -146 104.5 -239.5t264.5 -93.5zM666 68q178 0 297.5 102t119.5 266q0 162 -107.5 258.5t-309.5 96.5q-204 0 -312 -96.5t-108 -258.5q0 -164 120 -266t300 -102z" />
    <glyph glyph-name="nine" unicode="9" horiz-adv-x="1378" 
d="M629 -35q-134 0 -262.5 59t-233.5 183l80 76q179 -213 403 -213q131 0 233 64t167.5 180t99 273t33.5 347h-23q-40 -197 -172 -303.5t-305 -106.5q-107 0 -203.5 41.5t-168 113.5t-114 176t-42.5 222q0 117 42 219t115.5 175.5t178 116t225.5 42.5q90 0 170 -23
t154 -78.5t127 -139.5t84.5 -214.5t31.5 -295.5q0 -145 -23.5 -278t-73 -249.5t-121.5 -202t-175 -135t-227 -49.5zM657 623q185 0 310 140t125 337q0 194 -122 311t-298 117q-181 0 -305.5 -126t-124.5 -327q0 -194 118 -323t297 -129z" />
    <glyph glyph-name="colon" unicode=":" horiz-adv-x="503" 
d="M252 954q-42 0 -71 31t-29 74q0 42 29 71t71 29q41 0 70.5 -29.5t29.5 -70.5q0 -43 -29.5 -74t-70.5 -31zM252 -14q-42 0 -71 30.5t-29 73.5q0 42 29 71t71 29q41 0 70.5 -29.5t29.5 -70.5q0 -43 -29.5 -73.5t-70.5 -30.5z" />
    <glyph glyph-name="semicolon" unicode=";" horiz-adv-x="579" 
d="M303 954q-42 0 -72 31t-30 74q0 41 29.5 70.5t72.5 29.5q41 0 69.5 -29.5t28.5 -70.5q0 -43 -28.5 -74t-69.5 -31zM223 -256h-76l119 250q-30 9 -47.5 35.5t-17.5 60.5q0 42 29 71t73 29q41 0 69.5 -29.5t28.5 -70.5q0 -35 -31.5 -95.5t-146.5 -250.5z" />
    <glyph glyph-name="less" unicode="&#x3c;" horiz-adv-x="1024" 
d="M854 428v-104l-704 243v113l704 244v-105l-580 -196z" />
    <glyph glyph-name="equal" unicode="=" horiz-adv-x="1032" 
d="M870 776h-708v107h708v-107zM870 365h-708v104h708v-104z" />
    <glyph glyph-name="greater" unicode="&#x3e;" horiz-adv-x="1024" 
d="M874 567l-704 -243v104l580 195l-580 196v105l704 -244v-113z" />
    <glyph glyph-name="question" unicode="?" horiz-adv-x="1064" 
d="M500 422h-107q-4 40 -4 59q0 47 12 88t28.5 71.5t50.5 66.5t62.5 60.5t80.5 66.5q114 94 173.5 183t59.5 197q0 142 -97.5 228t-234.5 86q-139 0 -240.5 -91.5t-101.5 -246.5q0 -34 6 -68l-104 19q-6 35 -6 67q0 127 64 224.5t166 147.5t222 50q86 0 166.5 -28t143 -79
t100 -129t37.5 -171q0 -73 -24 -140.5t-69.5 -126.5t-90 -102.5t-107.5 -95.5q-41 -33 -63 -51.5t-50 -48t-41.5 -54.5t-23.5 -59.5t-10 -73.5q0 -31 2 -49zM475 -14q-43 0 -72.5 30.5t-29.5 73.5q0 41 29.5 70.5t72.5 29.5q41 0 70.5 -29.5t29.5 -70.5q0 -43 -29.5 -73.5
t-70.5 -30.5z" />
    <glyph glyph-name="at" unicode="@" horiz-adv-x="1972" 
d="M907 -195q-149 0 -278 41t-225 115t-165 173.5t-104 219t-35 250.5q0 157 50.5 310t144.5 281t218.5 226t282 153.5t324.5 55.5q221 0 399 -93.5t281 -268.5t103 -402q0 -178 -61.5 -328t-168 -236.5t-233.5 -86.5q-115 0 -166 72t-31 202h-6q-80 -132 -184.5 -194
t-212.5 -62q-150 0 -244 111t-94 277q0 108 43 214t112.5 184.5t163 127.5t189.5 49q108 0 190.5 -63.5t126.5 -194.5h4q-6 118 21 231h92l-107 -608q-44 -258 117 -258q136 0 237 158t101 387q0 200 -82 355.5t-236 244t-356 88.5q-185 0 -353.5 -76.5t-289 -203
t-191.5 -297t-71 -353.5q0 -150 49 -278.5t139 -222.5t224.5 -147.5t298.5 -53.5q158 0 301.5 46.5t251.5 131.5l53 -78q-129 -98 -293.5 -148.5t-329.5 -50.5zM870 330q111 0 203 69.5t142.5 179t50.5 228.5q0 133 -66 213t-188 80q-111 0 -203 -68t-142.5 -175.5
t-50.5 -227.5q0 -134 66 -216.5t188 -82.5z" />
    <glyph glyph-name="A" unicode="A" horiz-adv-x="1503" 
d="M160 0h-125l653 1597h125l655 -1597h-125q-152 358 -215 588l-18 18q-244 -22 -344 -22q-150 0 -365 22l-20 -20q-65 -196 -221 -586zM422 690l12 -20q230 20 332 20q115 0 295 -20l12 18q-187 406 -301 787h-43q-123 -389 -307 -785z" />
    <glyph glyph-name="B" unicode="B" horiz-adv-x="1458" 
d="M862 0h-639v1597h557q121 0 219.5 -34.5t161.5 -93t97 -133t34 -156.5q0 -122 -74.5 -219.5t-222.5 -133.5v-32q175 -28 261.5 -130.5t86.5 -238.5q0 -180 -136 -303t-345 -123zM324 856l16 -22q149 22 432 22q184 0 289.5 87.5t105.5 223.5q0 144 -115.5 234t-297.5 90
h-53h-58.5t-52.5 0.5t-61.5 2t-57 3.5t-67 5.5t-64.5 8.5l-21 -18q33 -291 5 -637zM319 106l21 -20q172 20 481 20q184 0 291 89t107 227q0 143 -114 235.5t-302 92.5q-302 0 -463 22l-16 -22q28 -350 -5 -644z" />
    <glyph glyph-name="C" unicode="C" horiz-adv-x="1724" 
d="M918 -35q-234 0 -417.5 105.5t-285.5 294t-102 428.5q0 183 62 340t168.5 265.5t252.5 170t311 61.5q111 0 217.5 -28t201.5 -83t169 -145t111 -205l-105 -43q-73 187 -234 290.5t-358 103.5q-134 0 -254.5 -50t-212.5 -141.5t-146 -231t-54 -306.5q0 -140 38.5 -258.5
t104.5 -201.5t154 -141.5t187.5 -86t205.5 -27.5q128 0 237 40.5t186 111.5t129.5 158t80.5 189l106 -38q-37 -121 -101 -222t-155.5 -181t-218.5 -124.5t-278 -44.5z" />
    <glyph glyph-name="D" unicode="D" horiz-adv-x="1652" 
d="M795 0h-572v1597h553q156 0 283 -40.5t214.5 -112t146.5 -171.5t86.5 -216t27.5 -248q0 -238 -87 -420t-255.5 -285.5t-396.5 -103.5zM319 106l21 -20q168 20 471 20q278 0 439 188.5t161 502.5q0 322 -171.5 508t-487.5 186q-265 0 -412 20l-21 -18q37 -689 0 -1387z
" />
    <glyph glyph-name="E" unicode="E" horiz-adv-x="1351" 
d="M1243 0h-1020v1597h1000v-106q-52 0 -206 -1t-232 -0.5t-206 5.5t-239 16l-21 -18q33 -297 5 -616l16 -23q301 23 842 23v-109q-543 0 -842 23l-16 -23q28 -340 -5 -662l21 -20q319 27 903 27v-113z" />
    <glyph glyph-name="F" unicode="F" horiz-adv-x="1273" 
d="M342 0h-119v1597h979v-114q-197 0 -291.5 0.5t-261.5 7.5t-309 20l-21 -18q34 -315 3 -629l16 -22q282 22 823 22v-108q-535 0 -823 22l-16 -22q20 -252 20 -756z" />
    <glyph glyph-name="G" unicode="G" horiz-adv-x="1802" 
d="M905 -35q-171 0 -318.5 61.5t-251.5 170t-163 262t-59 332.5q0 184 62 341.5t168.5 266t252.5 170t311 61.5q111 0 217.5 -28t201.5 -83t169 -145t111 -205l-105 -43q-73 187 -234 290.5t-358 103.5q-134 0 -254.5 -50t-212.5 -141t-146 -230.5t-54 -307.5
q0 -173 58.5 -312.5t155.5 -225.5t217.5 -131.5t250.5 -45.5q262 0 434.5 170t210.5 444l-13 17q-329 -39 -593 -39v104h696v-772h-100q0 27 -2.5 117t0 154t12.5 132l-23 3q-80 -214 -242.5 -327.5t-398.5 -113.5z" />
    <glyph glyph-name="H" unicode="H" horiz-adv-x="1654" 
d="M342 0h-119v1597h119q0 -498 -18 -729l16 -22q520 29 975 0l18 22q-20 246 -20 729h119v-1597h-119q0 486 20 758l-18 22q-443 -52 -975 0l-16 -22q18 -258 18 -758z" />
    <glyph glyph-name="I" unicode="I" horiz-adv-x="567" 
d="M342 0h-119v1597h119v-1597z" />
    <glyph glyph-name="J" unicode="J" horiz-adv-x="1187" 
d="M543 -35q-72 0 -138.5 15.5t-130.5 53t-111 94.5t-75.5 146t-28.5 201v43l109 14v-34q0 -96 23 -171.5t59.5 -122.5t86.5 -77.5t100 -42.5t104 -12q52 0 95.5 12.5t75 31t56 50.5t40 60t26.5 70.5t16.5 71.5t8 74.5t3 67t0.5 59.5v1028h119v-989q0 -61 -1 -98.5
t-9.5 -112.5t-24 -125.5t-47.5 -113.5t-77 -101t-117 -65t-162 -27z" />
    <glyph glyph-name="K" unicode="K" horiz-adv-x="1351" 
d="M342 0h-119v1597h119v-108v-115.5t-0.5 -107t-1.5 -116.5t-3 -108t-5.5 -118t-8 -110t-10.5 -118h21q237 266 835 901h144q-19 -20 -90 -96t-97.5 -104t-88.5 -93.5t-99.5 -103t-92 -92.5t-103.5 -102t-99 -93v-24q320 -385 711 -889h-146q-385 482 -628 827h-19
q-101 -149 -229 -252q10 -199 10 -575z" />
    <glyph glyph-name="L" unicode="L" horiz-adv-x="1212" 
d="M1182 0h-959v1597h119q0 -975 -23 -1491l21 -20q297 27 842 27v-113z" />
    <glyph glyph-name="M" unicode="M" horiz-adv-x="2058" 
d="M342 0h-119v1597h121q356 -690 674 -1460h22q342 789 674 1460h121v-1597h-119q0 58 -0.5 261.5t0 295.5t3.5 257.5t10.5 306t19.5 282.5h-20q-99 -222 -204 -452t-243 -528.5t-195 -422.5h-116q-475 1034 -639 1403h-23q12 -141 19.5 -281.5t10.5 -306t3.5 -257.5
t0 -296t-0.5 -262z" />
    <glyph glyph-name="N" unicode="N" horiz-adv-x="1693" 
d="M342 0h-119v1597h111q484 -645 1024 -1437h20q-7 119 -12.5 252.5t-8 225.5t-4 256t-1.5 221.5v253v228.5h118v-1597h-110q-591 788 -1022 1415h-21q7 -117 12.5 -246t8 -227t3.5 -246.5t1.5 -223.5t0 -244t-0.5 -228z" />
    <glyph glyph-name="O" unicode="O" horiz-adv-x="1824" 
d="M911 -35q-162 0 -309 63t-255 172t-172 265t-64 332t63.5 331.5t171.5 265t255.5 173t311.5 63.5q166 0 314.5 -65t254.5 -176.5t168 -265.5t62 -326q0 -173 -63 -328t-170.5 -265t-255.5 -174.5t-312 -64.5zM915 76q132 0 254 54.5t213.5 148.5t146 229.5t54.5 288.5
q0 154 -54.5 289.5t-146 230t-213.5 149t-254 54.5q-134 0 -257.5 -54.5t-215.5 -149t-147 -230t-55 -289.5q0 -153 55 -288.5t147 -229.5t215.5 -148.5t257.5 -54.5z" />
    <glyph glyph-name="P" unicode="P" horiz-adv-x="1363" 
d="M342 0h-119v1597h551q237 0 377.5 -129t140.5 -338q0 -219 -136.5 -350t-344.5 -131q-124 0 -185 1t-145 8.5t-159 23.5q20 -250 20 -682zM322 756l18 -23q156 23 430 23q190 0 294.5 96t104.5 268t-112.5 271.5t-304.5 99.5q-262 0 -412 20l-21 -18q34 -363 3 -737z" />
    <glyph glyph-name="Q" unicode="Q" horiz-adv-x="1826" 
d="M1653 -113l-84 -71q-3 4 -22.5 27t-24 28t-22 26.5t-24 29.5t-22.5 27.5t-24 30.5t-21.5 29.5t-23 32.5t-21 31.5t-21.5 34.5q-185 -148 -430 -148q-162 0 -309.5 63t-256 172t-172.5 264.5t-64 332.5q0 176 63.5 331.5t171.5 265t256.5 173t312.5 63.5q133 0 256 -41.5
t221 -118t171.5 -179t113 -230t39.5 -264.5q0 -196 -81 -362.5t-232 -280.5q34 -31 72 -70t58 -61t65 -73.5t55 -62.5zM915 74q182 0 377 102q-33 31 -67 66.5t-59 62t-62.5 68.5t-54.5 62t-58.5 68.5t-54.5 63.5l84 70q216 -255 330 -424q237 258 237 584
q0 154 -54.5 289.5t-146 230t-214.5 149t-257 54.5q-135 0 -258.5 -54.5t-216 -148.5t-147.5 -230t-55 -290t55.5 -290t148 -230t216 -148.5t257.5 -54.5z" />
    <glyph glyph-name="R" unicode="R" horiz-adv-x="1417" 
d="M342 0h-119v1597h551q236 0 377 -129t141 -338q0 -200 -117 -319.5t-317 -134.5v-23q56 -75 119.5 -166t108 -157t114.5 -172t105 -158h-131l-435 649q-255 0 -417 33q20 -248 20 -682zM322 754l18 -23q164 21 430 21q189 0 294 97.5t105 270.5q0 171 -113 271t-304 100
q-251 0 -412 20l-21 -18q33 -377 3 -739z" />
    <glyph glyph-name="S" unicode="S" horiz-adv-x="1316" 
d="M680 -35q-71 0 -139 14t-139.5 48.5t-130 86t-108 133.5t-77.5 185l109 41q51 -191 182.5 -294t304.5 -103q58 0 114 11.5t109 37t93 63.5t64.5 94.5t24.5 125.5q0 59 -21 106t-43.5 74t-77 54.5t-79.5 36.5t-94 30q-25 8 -37 12l-149 47q-44 14 -76 25.5t-82 33.5
t-85.5 44.5t-75.5 58t-65 74.5t-42 93t-17 115q0 83 29.5 152.5t79 118t115.5 82t138.5 49.5t147.5 16q187 0 329 -98.5t196 -284.5l-105 -45q-47 145 -161.5 231.5t-272.5 86.5t-265.5 -82t-107.5 -217q0 -62 28 -116t60 -85.5t90.5 -63t84.5 -41.5t77 -27l4.5 -1.5
t3.5 -1.5l154 -49q11 -4 35 -11q41 -13 62.5 -20t62 -22t64 -27t58 -32t55 -40t44.5 -48t37 -58.5t22 -70t9 -83.5q0 -104 -44.5 -191.5t-119.5 -145.5t-171.5 -90t-201.5 -32z" />
    <glyph glyph-name="T" unicode="T" horiz-adv-x="1298" 
d="M709 0h-119q0 1017 22 1511q-209 -20 -579 -20v106h1233v-106q-371 0 -580 20q23 -516 23 -1511z" />
    <glyph glyph-name="U" unicode="U" horiz-adv-x="1542" 
d="M766 -35q-264 0 -412.5 152t-148.5 454v1026h117v-1019q0 -261 118.5 -383.5t331.5 -122.5q211 0 330 122.5t119 383.5v1019h118v-1026q0 -137 -35.5 -247t-105 -190.5t-179.5 -124.5t-253 -44z" />
    <glyph glyph-name="V" unicode="V" horiz-adv-x="1501" 
d="M813 0h-125l-653 1597h125q346 -826 583 -1488h25q66 185 150 405.5t132.5 345t158 399t134.5 338.5h125z" />
    <glyph glyph-name="W" unicode="W" horiz-adv-x="2318" 
d="M707 0h-140l-526 1597h123q293 -855 465 -1472h22q146 529 443 1472h131q283 -875 450 -1472h21q199 704 458 1472h125l-526 -1597h-139q-267 801 -443 1462h-22q-204 -755 -442 -1462z" />
    <glyph glyph-name="X" unicode="X" horiz-adv-x="1316" 
d="M166 0h-135q36 53 134 197t149 218.5t132 188.5t150 207v20q-207 274 -551 766h135q284 -401 469 -698h21q159 266 469 698h133q-344 -492 -551 -766v-20q69 -93 150 -207t132 -188.5t149 -218.5t134 -197h-133q-298 440 -483 745h-21q-38 -64 -82 -134.5t-74.5 -118
t-86.5 -132t-75.5 -114t-86.5 -129.5t-78 -117z" />
    <glyph glyph-name="Y" unicode="Y" horiz-adv-x="1409" 
d="M762 0h-119q0 395 12 592q-228 363 -612 1005h131q308 -523 437 -765q42 -78 81 -154h23q35 67 70 133.5t77.5 141.5t70.5 125t79.5 137t72 122t80 135.5t74.5 124.5h125q-420 -703 -612 -1005q10 -197 10 -592z" />
    <glyph glyph-name="Z" unicode="Z" horiz-adv-x="1339" 
d="M1278 0h-1219v100q357 483 1067 1401l-10 21q-436 -31 -1016 -31v106h1160v-94q-156 -210 -332 -439t-397 -513t-343 -442l11 -23q403 27 1079 27v-113z" />
    <glyph glyph-name="bracketleft" unicode="[" horiz-adv-x="641" 
d="M592 -317h-389v1914h389v-100q-186 0 -299 23q34 -879 0 -1758q113 23 299 23v-102z" />
    <glyph glyph-name="backslash" unicode="\" horiz-adv-x="831" 
d="M750 -135h-109l-557 1773h109z" />
    <glyph glyph-name="bracketright" unicode="]" horiz-adv-x="641" 
d="M438 -317h-389v102q186 0 299 -23q-30 879 0 1758q-113 -23 -299 -23v100h389v-1914z" />
    <glyph glyph-name="asciicircum" unicode="^" horiz-adv-x="862" 
d="M236 1059h-111l248 538h116l248 -538h-110q-125 278 -181 440h-32q-45 -129 -178 -440z" />
    <glyph glyph-name="underscore" unicode="_" horiz-adv-x="1019" 
d="M987 -219h-954v96h954v-96z" />
    <glyph glyph-name="a" unicode="a" horiz-adv-x="1169" 
d="M455 -35q-98 0 -176.5 30.5t-128.5 97t-50 159.5q0 78 33 138t94 100.5t130.5 66t158.5 43.5l65 12.5t62.5 12t55.5 11.5t51.5 13.5t43 16.5t37 22.5t25.5 29t17.5 37t5.5 46.5q0 104 -86.5 183t-219.5 79q-119 0 -203.5 -67.5t-117.5 -180.5l-111 39q24 77 71 137.5
t106.5 96.5t126.5 54.5t137 18.5q59 0 116 -12.5t111.5 -41.5t95 -71t65.5 -106t25 -142v-436q0 -131 8.5 -204t28.5 -148h-112q-19 69 -22.5 124.5t9.5 149.5h-20q-58 -145 -166 -227t-266 -82zM465 59q91 0 171.5 39.5t132 100t81 129t29.5 129.5v184q-47 -54 -97.5 -76
t-177.5 -45q-42 -8 -66 -13t-70 -17.5t-74 -25t-65 -33.5t-57.5 -44.5t-35.5 -57.5t-15 -73q0 -91 67.5 -144t176.5 -53z" />
    <glyph glyph-name="b" unicode="b" horiz-adv-x="1372" 
d="M745 -35q-145 0 -261.5 76t-182.5 223h-22q7 -29 11 -56.5t5.5 -59t2 -47.5t0 -54t-0.5 -47h-107v1638h111q0 -30 0.5 -178t0 -210.5t-4 -181.5t-10.5 -222h20q69 162 184.5 238.5t256.5 76.5q226 0 375 -168t149 -430q0 -130 -41 -242t-111 -190t-167.5 -122t-207.5 -44
zM733 66q181 0 300.5 141.5t119.5 355.5q0 216 -119.5 357t-300.5 141q-180 0 -306 -141.5t-126 -358.5t125.5 -356t306.5 -139z" />
    <glyph glyph-name="c" unicode="c" horiz-adv-x="1243" 
d="M655 -35q-246 0 -400.5 165.5t-154.5 430.5q0 267 155.5 433.5t401.5 166.5q102 0 190.5 -29.5t167.5 -102t122 -183.5l-109 -41q-45 120 -144 188t-233 68q-196 0 -314 -141t-118 -359q0 -220 123.5 -357.5t319.5 -137.5q154 0 262 85t163 224l101 -33
q-65 -182 -207 -279.5t-326 -97.5z" />
    <glyph glyph-name="d" unicode="d" horiz-adv-x="1374" 
d="M625 -35q-148 0 -268 75.5t-188.5 212t-68.5 308.5q0 131 41 243.5t112 190.5t168.5 122t207.5 44q142 0 256 -77.5t182 -239.5h20q-20 324 -16 794h111v-1286q0 -131 8.5 -204t28.5 -148h-113q-36 134 -14 285h-21q-65 -161 -182.5 -240.5t-263.5 -79.5zM639 66
q181 0 306.5 140t125.5 357q0 218 -125.5 358t-306.5 140q-182 0 -301 -142t-119 -358q0 -215 119.5 -355t300.5 -140z" />
    <glyph glyph-name="e" unicode="e" horiz-adv-x="1269" 
d="M651 -35q-157 0 -282.5 74.5t-197 211t-71.5 310.5q0 264 154.5 432t396.5 168q67 0 131 -13.5t135 -52t123 -98t86.5 -161.5t34.5 -234v-49h-942q1 -218 123 -354t313 -136q152 0 260 86.5t162 223.5l101 -35q-65 -178 -205.5 -275.5t-321.5 -97.5zM223 649h817
q-1 89 -25 160.5t-62.5 118t-90 78t-105.5 44.5t-110 13q-170 0 -284.5 -114.5t-139.5 -299.5z" />
    <glyph glyph-name="f" unicode="f" horiz-adv-x="696" 
d="M338 0h-111q0 670 21 1053q-82 -21 -191 -21v96q118 0 191 -22q-21 78 -21 182q0 49 1.5 84t8 78t18 72.5t33 60t51 49t73.5 30t100 11.5q129 0 215 -57v-107q-102 66 -203 66q-31 0 -55.5 -5t-43 -11.5t-32.5 -21t-23 -26t-15.5 -34.5t-9.5 -38t-5 -45t-2 -47.5v-52.5
q0 -112 -23 -188q129 22 365 22v-96q-221 0 -365 21q23 -365 23 -1053z" />
    <glyph glyph-name="g" unicode="g" horiz-adv-x="1370" 
d="M666 -483q-387 0 -504 331l102 35q42 -126 142 -197t262 -71q64 0 118.5 13.5t108 49t91 90.5t60.5 145t23 206q0 117 16 170h-20q-68 -138 -184.5 -213.5t-255.5 -75.5q-149 0 -270 76.5t-189 210t-68 297.5q0 166 70 298.5t190.5 205.5t266.5 73q137 0 256 -86
t182 -231h22q-12 98 -12 284h107v-983q0 -628 -514 -628zM637 100q179 0 305.5 139.5t126.5 346.5q0 206 -126 340.5t-306 134.5q-120 0 -216.5 -63t-150 -172t-53.5 -242q0 -204 120.5 -344t299.5 -140z" />
    <glyph glyph-name="h" unicode="h" horiz-adv-x="1294" 
d="M301 0h-111v1638h111q0 -347 -31 -759h21q136 282 416 282q62 0 119 -13.5t112 -46.5t95 -83.5t64.5 -130t24.5 -180.5v-707h-110v657q0 110 -28 191.5t-76 126.5t-103.5 65.5t-120.5 20.5q-91 0 -165.5 -38t-121 -100t-71.5 -135.5t-25 -148.5v-639z" />
    <glyph glyph-name="i" unicode="i" horiz-adv-x="491" 
d="M246 1434q-44 0 -74.5 30t-30.5 74q0 42 30.5 72t74.5 30q42 0 71 -30t29 -72q0 -44 -28.5 -74t-71.5 -30zM301 0h-111v1128h111v-1128z" />
    <glyph glyph-name="j" unicode="j" horiz-adv-x="491" 
d="M246 1434q-44 0 -74.5 30t-30.5 74q0 42 30.5 72t74.5 30q42 0 71 -30t29 -72q0 -44 -28.5 -74t-71.5 -30zM-6 -483q-125 0 -213 57v109q99 -68 194 -68q44 0 79.5 15t57.5 36.5t38 58.5t23.5 66t11.5 75.5t4.5 71t0.5 66.5v1124h111v-1142q0 -38 -0.5 -60t-3 -65
t-7.5 -70.5t-16 -67t-25.5 -65.5t-38.5 -55t-53.5 -46t-71 -28.5t-91.5 -11.5z" />
    <glyph glyph-name="k" unicode="k" horiz-adv-x="1050" 
d="M301 0h-111v1638h111q0 -38 0.5 -205.5t0 -234t-2 -198.5t-5.5 -237.5t-11 -211.5h22q225 249 543 577h137l-440 -440q64 -80 137 -175.5t123.5 -163.5t133.5 -181t124 -168h-127q-261 348 -455 623q-94 -120 -200 -191q20 -150 20 -432z" />
    <glyph glyph-name="l" unicode="l" horiz-adv-x="491" 
d="M301 0h-111v1638h111v-1638z" />
    <glyph glyph-name="m" unicode="m" horiz-adv-x="2074" 
d="M301 0h-111v1128h107q0 -151 -27 -249h21q136 282 411 282q61 0 115.5 -15t107 -49t91 -98t53.5 -153h23q124 315 407 315q60 0 114.5 -13.5t108.5 -46.5t93.5 -83.5t63.5 -130t24 -180.5v-707h-113v657q0 89 -18 159.5t-48 115.5t-71.5 75t-85.5 42t-92 12
q-86 0 -158 -38t-118 -99.5t-71.5 -135.5t-25.5 -149v-639h-111v657q0 89 -18.5 159.5t-48.5 115.5t-72 75t-86 42t-92 12q-86 0 -158 -38t-118 -99.5t-71.5 -135.5t-25.5 -149v-639z" />
    <glyph glyph-name="n" unicode="n" horiz-adv-x="1294" 
d="M301 0h-111v1128h107q0 -151 -27 -249h21q136 282 418 282q63 0 119.5 -13.5t111.5 -46.5t94.5 -83.5t63.5 -130t24 -180.5v-707h-110v657q0 110 -28 191.5t-76 126.5t-103.5 65.5t-120.5 20.5q-91 0 -165.5 -38t-121 -99.5t-71.5 -135t-25 -149.5v-639z" />
    <glyph glyph-name="o" unicode="o" horiz-adv-x="1320" 
d="M662 -35q-249 0 -405.5 166.5t-156.5 429.5q0 264 156.5 432t405.5 168q247 0 403 -168t156 -432q0 -263 -156 -429.5t-403 -166.5zM662 66q196 0 318 138t122 357q0 221 -122 360.5t-318 139.5t-319.5 -140t-123.5 -360q0 -219 123.5 -357t319.5 -138z" />
    <glyph glyph-name="p" unicode="p" horiz-adv-x="1372" 
d="M301 -451h-111v1579h107q0 -165 -18 -274h22q69 155 187 231t260 76q226 0 375 -167.5t149 -428.5q0 -131 -40.5 -243.5t-111 -190.5t-168 -122t-207.5 -44q-142 0 -258 75t-182 222h-22q7 -73 11 -144t5.5 -157t2 -129.5t0 -151t-0.5 -131.5zM733 66q181 0 300.5 141.5
t119.5 355.5q0 216 -119.5 357t-300.5 141q-88 0 -167 -37t-137.5 -101.5t-93 -158.5t-34.5 -203q0 -217 125.5 -356t306.5 -139z" />
    <glyph glyph-name="q" unicode="q" horiz-adv-x="1372" 
d="M1182 -451h-111q0 29 -0.5 162.5t0 190.5t4.5 161.5t12 192.5h-22q-69 -144 -184 -217.5t-256 -73.5q-227 0 -376 168.5t-149 429.5q0 262 151.5 430t375.5 168q143 0 261.5 -76.5t186.5 -228.5h21q-21 114 -21 272h107v-1579zM639 66q181 0 306.5 140t125.5 357
q0 218 -126.5 358t-305.5 140q-182 0 -301 -142t-119 -358q0 -215 119.5 -355t300.5 -140z" />
    <glyph glyph-name="r" unicode="r" horiz-adv-x="831" 
d="M301 0h-111v1128h107q0 -17 1 -60t1 -69t-4 -70t-12 -89h22q42 154 143 237.5t232 83.5q75 0 131 -22v-121q-63 29 -139 29q-114 0 -200.5 -70.5t-128.5 -177.5t-42 -230v-569z" />
    <glyph glyph-name="s" unicode="s" horiz-adv-x="1005" 
d="M532 -35q-163 0 -288.5 87t-171.5 229l102 34q44 -110 145.5 -181t212.5 -71q42 0 86 11t88.5 35t72.5 69.5t28 106.5q0 40 -14.5 71.5t-35.5 52.5t-57.5 38.5t-66.5 27.5t-76 23l-106 30q-43 11 -74 21.5t-82.5 37.5t-85 59t-59 86t-25.5 120q0 62 22 114.5t58 87.5
t83.5 60t97.5 36t101 11q138 0 247.5 -78t148.5 -196l-109 -37q-34 91 -112 152t-189 61q-102 0 -168.5 -54.5t-66.5 -144.5q0 -44 18.5 -81t44 -60.5t67 -44.5t71.5 -31.5t73 -23.5l109 -31q35 -10 56.5 -17t57.5 -21.5t58.5 -28.5t50 -37t43 -48t26.5 -60.5t11 -76.5
q0 -142 -110.5 -240t-281.5 -98z" />
    <glyph glyph-name="t" unicode="t" horiz-adv-x="759" 
d="M506 -35q-53 0 -94.5 14.5t-68 34.5t-45.5 55t-28 63t-14 72t-5.5 67t-0.5 63q0 476 22 717q-103 -21 -247 -21v98q153 0 247 -22q-22 127 -22 360h110q0 -227 -20 -360q133 22 373 22v-98q-227 0 -373 21q20 -244 20 -689q0 -38 0.5 -58.5t3.5 -57t8.5 -57t17.5 -47.5
t29 -41t43 -24.5t60 -10.5q95 0 191 65v-108q-89 -58 -207 -58z" />
    <glyph glyph-name="u" unicode="u" horiz-adv-x="1275" 
d="M578 -35q-61 0 -116.5 13.5t-109.5 47t-93 84t-63 130t-24 180.5v708h111v-661q0 -89 19 -160t50 -115t73.5 -73.5t86.5 -41t92 -11.5q87 0 159 38t117 99.5t69 134.5t24 147v643h110v-776q0 -131 8.5 -204t28.5 -148h-112q-20 74 -24 124t11 142h-22
q-118 -301 -395 -301z" />
    <glyph glyph-name="v" unicode="v" horiz-adv-x="1097" 
d="M606 0h-114l-455 1128h121q255 -646 381 -1017h24q112 335 377 1017h121z" />
    <glyph glyph-name="w" unicode="w" horiz-adv-x="1849" 
d="M567 0h-110l-416 1128h121q11 -30 67.5 -186.5t77 -215t63 -182.5t74.5 -225t62 -206h22q22 76 45 151t49.5 157.5t45.5 139t51.5 150t46.5 134t52 147.5t48 136h117q4 -12 43.5 -119t47.5 -129t42 -116t46.5 -131.5t41 -120t46 -135.5t40.5 -125t43 -139h23
q29 105 59.5 206.5t71.5 224.5t61.5 183t74.5 214.5t65 186.5h122l-417 -1128h-113q-240 656 -350 1001h-8q-127 -390 -355 -1001z" />
    <glyph glyph-name="x" unicode="x" horiz-adv-x="1030" 
d="M160 0h-123q214 298 414 557v23q-176 222 -416 548h127q244 -332 342 -493h22q92 147 342 493h129q-310 -415 -417 -548v-23q180 -230 415 -557h-123q-10 14 -57 79.5t-62.5 87.5t-55 78t-61.5 89.5t-53 81t-57 90.5h-22q-26 -43 -56 -90t-53 -82t-60 -88t-56 -79.5
t-62 -86.5t-57 -80z" />
    <glyph glyph-name="y" unicode="y" horiz-adv-x="1099" 
d="M424 -451h-100l174 441l-461 1138h121q222 -548 383 -1038h22q165 510 379 1038h121z" />
    <glyph glyph-name="z" unicode="z" horiz-adv-x="980" 
d="M932 0h-873v82q30 42 128 180.5t144.5 203.5t127.5 177.5t151 206.5t140 186l-9 21q-355 -31 -643 -31v102h787v-81q-447 -624 -695 -945l9 -22q249 22 733 22v-102z" />
    <glyph glyph-name="braceleft" unicode="{" horiz-adv-x="733" 
d="M690 -307h-72q-84 0 -149.5 15.5t-109.5 46t-73.5 68.5t-45 91t-21.5 105t-6 118v168q0 42 -1 75.5t-4.5 60.5t-6.5 47t-10 35t-11.5 25t-15 16.5t-16.5 10t-20.5 5.5t-22 2h-25.5v127q25 0 35.5 0.5t29 5.5t25.5 15t18 29t14.5 49t7 74t3.5 103v170q0 80 8.5 140.5
t34.5 120t69.5 97t117.5 61t175 23.5h72v-100h-67q-86 0 -146 -20.5t-92.5 -61.5t-46.5 -92t-14 -121v-211q0 -77 -6.5 -131t-16.5 -87t-30.5 -55t-40.5 -32.5t-54 -21.5v-37q43 -14 66 -29t44.5 -49t29.5 -94t8 -156v-211q0 -70 14 -121t46.5 -92t92.5 -61.5t146 -20.5h67
v-100z" />
    <glyph glyph-name="bar" unicode="|" horiz-adv-x="520" 
d="M315 -451h-112v2089h112v-2089z" />
    <glyph glyph-name="braceright" unicode="}" horiz-adv-x="733" 
d="M115 -307h-72v100h68q86 0 146 20.5t92.5 61.5t46.5 92t14 121v211q0 96 8 155.5t29 94t44 49.5t66 29v37q-34 11 -54 22t-40.5 32.5t-30.5 55t-16 87t-6 130.5v211q0 70 -14 121t-46.5 92t-92.5 61.5t-146 20.5h-68v100h72q101 0 175 -23.5t117.5 -61t69.5 -97
t34.5 -120t8.5 -140.5v-170q0 -59 3 -102.5t7 -73t14 -49t17.5 -30t24.5 -15t28 -5.5t34 -1h3v-127q-20 0 -28 -0.5t-23.5 -2.5t-22 -7t-17 -14t-15 -23t-11 -34.5t-8.5 -48t-4 -64.5t-2 -83v-168q0 -66 -6 -118t-21.5 -105t-45 -91t-73.5 -68.5t-109.5 -46t-149.5 -15.5z
" />
    <glyph glyph-name="asciitilde" unicode="~" horiz-adv-x="1054" 
d="M688 588q-44 0 -81 14.5t-63.5 35t-50.5 41.5t-52.5 35.5t-59.5 14.5q-57 0 -84 -39.5t-27 -101.5h-104q0 117 66 179t157 62q43 0 79.5 -14.5t62.5 -35.5t50 -42.5t52.5 -36t58.5 -14.5q51 0 75 40t24 103h104q0 -120 -58 -180.5t-149 -60.5z" />
    <glyph glyph-name="uni00A0" unicode="&#xa0;" horiz-adv-x="546" 
 />
    <glyph glyph-name="exclamdown" unicode="&#xa1;" horiz-adv-x="485" 
d="M244 956q-43 0 -73 30t-30 71q0 43 30 73.5t73 30.5q41 0 70.5 -30.5t29.5 -73.5q0 -41 -29.5 -71t-70.5 -30zM311 -449h-137v89l35 1134h67l35 -1134v-89z" />
    <glyph glyph-name="cent" unicode="&#xa2;" horiz-adv-x="1142" 
d="M950 573l86 -30q-53 -140 -160.5 -219.5t-246.5 -87.5v-236h-86v240q-180 20 -291 153t-111 334q0 202 111.5 336t290.5 154v249h86v-245q119 -6 216 -69.5t148 -188.5l-92 -35q-31 88 -102.5 143t-169.5 62v-811q117 9 197.5 76.5t123.5 174.5zM242 727
q0 -162 83 -270.5t218 -130.5v804q-138 -19 -219.5 -129.5t-81.5 -273.5z" />
    <glyph glyph-name="sterling" unicode="&#xa3;" horiz-adv-x="1202" 
d="M1116 0h-1016v113q187 76 293.5 192.5t106.5 251.5q0 78 -45 205q-114 -21 -320 -21v99q162 0 279 -21q-7 10 -41.5 55t-43.5 57t-36.5 51.5t-36.5 57.5t-27 53.5t-24.5 60.5t-12.5 58t-6 66q0 110 56 191t149 121t209 40q56 0 108.5 -9.5t112 -35.5t107.5 -67t89 -110
t62 -159l-106 -43q-25 88 -67 152t-93.5 99t-104.5 51t-110 16q-123 0 -206 -65.5t-83 -184.5q0 -57 22.5 -118.5t51 -107.5t67 -111.5t60.5 -117.5q176 21 459 21v-99q-247 0 -428 21q44 -49 60.5 -93t16.5 -96q0 -134 -85 -257t-244 -207l20 -21q272 25 807 25v-113z" />
    <glyph glyph-name="currency" unicode="&#xa4;" horiz-adv-x="1349" 
d="M1053 821q0 -159 -88 -264l274 -326l-78 -69l-274 325q-88 -57 -209 -57q-124 0 -213 59l-277 -327l-77 69l274 328q-86 106 -86 262q0 157 86 260l-274 328l77 70l277 -324q88 57 211 57t211 -57l274 324l78 -70l-272 -326q86 -106 86 -262zM406 821q0 -132 74 -215.5
t198 -83.5q123 0 195.5 83t72.5 216t-73 216t-197 83q-123 0 -196.5 -83.5t-73.5 -215.5z" />
    <glyph glyph-name="yen" unicode="&#xa5;" horiz-adv-x="1445" 
d="M780 0h-116q0 186 20 303q-145 -20 -393 -20v102q248 0 393 -23q-28 127 0 248q-145 -20 -393 -20v102q217 0 338 -22q-190 303 -563 927h129q56 -96 165 -280t195.5 -332.5t163.5 -282.5h8q94 163 528 895h125q-437 -722 -565 -927q121 22 342 22v-102q-252 0 -397 20
q28 -121 0 -248q145 23 397 23v-102q-252 0 -397 20q20 -117 20 -303z" />
    <glyph glyph-name="brokenbar" unicode="&#xa6;" horiz-adv-x="520" 
d="M315 840h-112v798h112v-798zM315 -451h-112v791h112v-791z" />
    <glyph glyph-name="section" unicode="&#xa7;" horiz-adv-x="1087" 
d="M557 -301q-166 0 -295 97t-174 247l102 31q44 -118 148 -198.5t221 -80.5q41 0 83.5 11t83.5 35t67 68.5t26 104.5q0 29 -7 53t-16.5 41.5t-30 34t-35.5 26.5t-46 22.5t-49 19t-55 18.5l-105 33q-30 10 -49 17t-55.5 23.5t-61.5 33t-55.5 43t-49 55.5t-31.5 69.5
t-13 86.5q0 103 62 170t169 88v26q-95 30 -154 96.5t-59 166.5q0 79 33 140t88 97t119.5 54t134.5 18q65 0 121.5 -15t109.5 -48.5t94 -95t64 -146.5l-111 -33q-37 127 -104 184.5t-184 57.5q-112 0 -182 -54.5t-70 -146.5q0 -43 18.5 -79.5t41.5 -59t65.5 -44.5t68 -32
t70.5 -25l129 -43q35 -12 49 -17t49.5 -20t54 -27.5t45.5 -35t41 -46.5t24.5 -58.5t10.5 -73.5q0 -101 -62.5 -180t-176.5 -107v-27q221 -51 221 -243q0 -138 -109 -235t-274 -97zM532 358l56 -16q43 3 84 16t81 38t64.5 68.5t24.5 100.5q0 40 -14 71.5t-32.5 50.5t-56 37.5
t-62.5 27.5t-75 24l-84 27q-52 16 -97 3.5t-78 -43t-52 -74t-19 -89.5q0 -42 17.5 -78t42.5 -60t63.5 -45.5t68 -33.5t68.5 -25z" />
    <glyph glyph-name="copyright" unicode="&#xa9;" horiz-adv-x="1941" 
d="M973 -35q-184 0 -341.5 65.5t-264.5 178.5t-167.5 265.5t-60.5 324.5q0 171 60.5 323.5t167.5 264.5t264.5 177.5t341.5 65.5q183 0 340 -65.5t264 -177.5t167 -264.5t60 -323.5q0 -172 -60 -324.5t-167 -265.5t-264 -178.5t-340 -65.5zM973 72q161 0 297.5 57.5
t229.5 155.5t145.5 231t52.5 283q0 149 -52.5 282t-145.5 231.5t-229.5 156t-297.5 57.5q-162 0 -299.5 -57.5t-230.5 -156t-145 -231.5t-52 -282q0 -201 88.5 -365.5t256 -263t382.5 -98.5zM977 350q-186 0 -302 124.5t-116 322.5q0 200 117.5 325t302.5 125q133 0 230 -66
t139 -188l-103 -37q-31 94 -101.5 144.5t-168.5 50.5q-134 0 -218.5 -98.5t-84.5 -255.5t86.5 -252.5t224.5 -95.5q107 0 187.5 59.5t119.5 171.5l94 -29q-46 -142 -153.5 -221.5t-253.5 -79.5z" />
    <glyph glyph-name="guillemotleft" unicode="&#xab;" horiz-adv-x="1114" 
d="M588 164h-133l-342 405v9l342 405h133q-77 -90 -120 -139t-113.5 -120t-135.5 -124v-53q65 -53 135.5 -124t113.5 -120t120 -139zM971 164h-133l-342 405v9l342 405h133q-77 -90 -120 -139t-113.5 -120t-135.5 -124v-53q65 -53 135.5 -124t113.5 -120t120 -139z" />
    <glyph glyph-name="logicalnot" unicode="&#xac;" horiz-adv-x="1032" 
d="M868 270h-106v308h-602v104h708v-412z" />
    <glyph glyph-name="registered" unicode="&#xae;" horiz-adv-x="1171" 
d="M586 741q-194 0 -321.5 127.5t-127.5 321.5q0 192 127.5 318t321.5 126q192 0 318 -126.5t126 -317.5q0 -194 -126 -321.5t-318 -127.5zM586 815q161 0 266.5 106t105.5 269q0 160 -105.5 266.5t-266.5 106.5q-163 0 -269 -106t-106 -267q0 -164 106 -269.5t269 -105.5z
M504 946h-74v494h178q75 0 122.5 -42t47.5 -112q0 -55 -30 -95t-80 -54l129 -191h-84l-125 182h-84v-182zM504 1368v-170h104q44 0 69 22.5t25 63.5t-26.5 62.5t-73.5 21.5h-98z" />
    <glyph glyph-name="degree" unicode="&#xb0;" horiz-adv-x="786" 
d="M393 1057q-127 0 -209 84.5t-82 212.5q0 126 82.5 210.5t208.5 84.5q125 0 208 -85t83 -210q0 -127 -83 -212t-208 -85zM393 1139q86 0 142.5 61.5t56.5 153.5q0 90 -56.5 150.5t-142.5 60.5q-85 0 -141.5 -61t-56.5 -150q0 -91 56 -153t142 -62z" />
    <glyph glyph-name="plusminus" unicode="&#xb1;" horiz-adv-x="1034" 
d="M872 770v-102h-303v-213h303v-95h-712v95h303v213h-303v102h303v250h106v-250h303z" />
    <glyph glyph-name="uni00B2" unicode="&#xb2;" horiz-adv-x="626" 
d="M547 817h-461v8q3 42 9.5 74t21.5 60.5t29 48t44 45t53.5 42t69.5 48.5q28 20 43 32t39.5 36.5t36.5 52t12 57.5q0 52 -36 85.5t-95 33.5q-68 0 -111.5 -47.5t-43.5 -124.5l-84 14q0 106 67.5 173t173.5 67q98 0 162 -56t64 -145q0 -69 -35.5 -118t-99.5 -95
q-19 -14 -54.5 -37.5t-52.5 -37t-39.5 -34.5t-35 -44t-19.5 -52h342v-86z" />
    <glyph glyph-name="uni00B3" unicode="&#xb3;" horiz-adv-x="636" 
d="M313 803q-90 0 -158.5 43.5t-91.5 114.5l80 38q21 -54 65 -86t105 -32q63 0 104.5 36t41.5 95q0 56 -42.5 89.5t-117.5 33.5h-68v69h74q63 0 101 33.5t38 85.5q0 54 -39.5 86.5t-99.5 32.5q-57 0 -95.5 -33.5t-47.5 -91.5l-82 18q10 84 75.5 135.5t157.5 51.5
q93 0 157.5 -50t64.5 -131q0 -57 -31 -102.5t-84 -60.5q60 -12 97.5 -56t37.5 -108q0 -86 -65.5 -148.5t-176.5 -62.5z" />
    <glyph glyph-name="paragraph" unicode="&#xb6;" horiz-adv-x="1429" 
d="M913 -287h-118v942h-246q-213 0 -344 133.5t-131 346.5q0 98 33.5 181.5t97 146t162 98.5t221.5 36h325v-1884zM1188 -287h-119v1884h119v-1884z" />
    <glyph glyph-name="periodcentered" unicode="&#xb7;" horiz-adv-x="542" 
d="M272 477q-52 0 -87 37.5t-35 91.5q0 51 35 86t87 35q51 0 87 -35t36 -86q0 -54 -36 -91.5t-87 -37.5z" />
    <glyph glyph-name="uni00B9" unicode="&#xb9;" horiz-adv-x="434" 
d="M295 817h-92v524q-50 -66 -152 -84v91q68 17 112 61.5t44 97.5h88v-690z" />
    <glyph glyph-name="guillemotright" unicode="&#xbb;" horiz-adv-x="1114" 
d="M618 569l-342 -405h-133q104 125 189 215.5t178 167.5v53q-93 77 -178 167.5t-189 215.5h133l342 -405v-9zM1001 569l-344 -405h-131q104 125 189 215.5t178 167.5v53q-93 77 -178 167.5t-189 215.5h131l344 -405v-9z" />
    <glyph glyph-name="onequarter" unicode="&#xbc;" horiz-adv-x="1292" 
d="M295 817h-92v524q-50 -66 -152 -84v91q68 17 112 61.5t44 97.5h88v-690zM61 0h-106l1139 1468h98zM1128 -14h-88v159h-346v82l346 449h88v-453h99v-78h-99v-159zM1040 553l-254 -330h254v330z" />
    <glyph glyph-name="onehalf" unicode="&#xbd;" horiz-adv-x="1325" 
d="M295 817h-92v524q-50 -66 -152 -84v91q68 17 112 61.5t44 97.5h88v-690zM61 0h-106l1139 1468h98zM1245 -14h-461v8q3 42 9.5 74t22 60.5t29 47.5t44.5 44.5t53.5 42t69.5 48.5q28 20 43 32t39.5 36.5t36.5 52t12 57.5q0 52 -36 85.5t-95 33.5q-68 0 -112 -47.5
t-44 -124.5l-84 15q0 105 68 172t174 67q97 0 161 -56t64 -145q0 -69 -35.5 -118t-99.5 -95q-19 -14 -54 -37.5t-52.5 -36.5t-40 -34t-35 -44t-19.5 -52h342v-86z" />
    <glyph glyph-name="threequarters" unicode="&#xbe;" horiz-adv-x="1495" 
d="M313 803q-90 0 -158.5 43.5t-91.5 114.5l80 38q21 -54 65 -86t105 -32q63 0 104.5 36t41.5 95q0 56 -42.5 89.5t-117.5 33.5h-68v69h74q63 0 101 33.5t38 85.5q0 54 -39.5 86.5t-99.5 32.5q-57 0 -95.5 -33.5t-47.5 -91.5l-82 18q10 84 75.5 135.5t157.5 51.5
q93 0 157.5 -50t64.5 -131q0 -57 -31 -102.5t-84 -60.5q60 -12 97.5 -56t37.5 -108q0 -86 -65.5 -148.5t-176.5 -62.5zM264 0h-106l1138 1468h99zM1331 -14h-88v159h-346v82l346 449h88v-453h99v-78h-99v-159zM1243 553l-254 -330h254v330z" />
    <glyph glyph-name="questiondown" unicode="&#xbf;" horiz-adv-x="1044" 
d="M578 956q-41 0 -71 30t-30 71q0 43 30 73.5t71 30.5q42 0 71 -30.5t29 -73.5q0 -42 -29 -71.5t-71 -29.5zM522 -483q-117 0 -217.5 47.5t-164.5 142t-64 217.5q0 73 23.5 141t69 126.5t90.5 102.5t108 95q51 41 76.5 64.5t55.5 59.5t42 74.5t12 86.5q0 33 -2 51h108
q5 -50 5 -61q0 -46 -12 -87t-28.5 -70.5t-52 -67t-62.5 -61t-81 -67.5q-113 -93 -173 -183t-60 -196q0 -143 98 -228t235 -85q65 0 125.5 22.5t108.5 64.5t77 107t29 144q0 33 -6 68l105 -19q6 -37 6 -69q0 -126 -63.5 -223t-165.5 -147t-222 -50z" />
    <glyph glyph-name="Agrave" unicode="&#xc0;" horiz-adv-x="1503" 
d="M831 1720h-104l-340 318h178zM160 0h-125l653 1597h125l655 -1597h-125q-152 358 -215 588l-18 18q-244 -22 -344 -22q-150 0 -365 22l-20 -20q-65 -196 -221 -586zM422 690l12 -20q230 20 332 20q115 0 295 -20l12 18q-187 406 -301 787h-43q-123 -389 -307 -785z" />
    <glyph glyph-name="Aacute" unicode="&#xc1;" horiz-adv-x="1503" 
d="M1118 2038l-342 -318h-102l264 318h180zM160 0h-125l653 1597h125l655 -1597h-125q-152 358 -215 588l-18 18q-244 -22 -344 -22q-150 0 -365 22l-20 -20q-65 -196 -221 -586zM422 690l12 -20q230 20 332 20q115 0 295 -20l12 18q-187 406 -301 787h-43
q-123 -389 -307 -785z" />
    <glyph glyph-name="Acircumflex" unicode="&#xc2;" horiz-adv-x="1503" 
d="M512 1720h-102l264 297h153l265 -297h-105q-54 51 -78 74.5t-65 72t-70 95.5h-45q-29 -47 -71 -95.5t-66.5 -72.5t-79.5 -74zM160 0h-125l653 1597h125l655 -1597h-125q-152 358 -215 588l-18 18q-244 -22 -344 -22q-150 0 -365 22l-20 -20q-65 -196 -221 -586zM422 690
l12 -20q230 20 332 20q115 0 295 -20l12 18q-187 406 -301 787h-43q-123 -389 -307 -785z" />
    <glyph glyph-name="Atilde" unicode="&#xc3;" horiz-adv-x="1503" 
d="M905 1751q-15 0 -29.5 2t-25 4.5t-23.5 8.5l-19.5 9t-19 12.5t-17 12.5t-18 14.5t-16.5 14.5l-37 33q-2 1 -9.5 8t-10 9t-9.5 8t-10.5 8l-10.5 6t-12 6t-12 4t-14 3t-14 1q-49 0 -80 -42.5t-31 -107.5h-86q1 106 57 172t144 66q43 0 76.5 -17.5t73.5 -52.5l41 -37
q23 -19 35 -27.5t35.5 -19t45.5 -10.5q50 0 77.5 41.5t27.5 108.5h86q0 -108 -51.5 -173t-143.5 -65zM160 0h-125l653 1597h125l655 -1597h-125q-152 358 -215 588l-18 18q-244 -22 -344 -22q-150 0 -365 22l-20 -20q-65 -196 -221 -586zM422 690l12 -20q230 20 332 20
q115 0 295 -20l12 18q-187 406 -301 787h-43q-123 -389 -307 -785z" />
    <glyph glyph-name="Adieresis" unicode="&#xc4;" horiz-adv-x="1503" 
d="M559 1794q-41 0 -69.5 28.5t-28.5 69.5q0 39 28.5 68t69.5 29q39 0 66.5 -29t27.5 -68q0 -41 -27 -69.5t-67 -28.5zM942 1794q-42 0 -69 28t-27 70q0 39 27 68t69 29q39 0 67.5 -29t28.5 -68q0 -41 -28 -69.5t-68 -28.5zM160 0h-125l653 1597h125l655 -1597h-125
q-152 358 -215 588l-18 18q-244 -22 -344 -22q-150 0 -365 22l-20 -20q-65 -196 -221 -586zM422 690l12 -20q230 20 332 20q115 0 295 -20l12 18q-187 406 -301 787h-43q-123 -389 -307 -785z" />
    <glyph glyph-name="Aring" unicode="&#xc5;" horiz-adv-x="1503" 
d="M750 1714q-96 0 -159 61t-63 156q0 92 63.5 152.5t158.5 60.5q94 0 156.5 -60.5t62.5 -152.5q0 -95 -62.5 -156t-156.5 -61zM750 1798q59 0 98 36t39 97q0 59 -39 94t-98 35q-60 0 -99 -35t-39 -94q0 -61 39 -97t99 -36zM160 0h-125l653 1597h125l655 -1597h-125
q-152 358 -215 588l-18 18q-244 -22 -344 -22q-150 0 -365 22l-20 -20q-65 -196 -221 -586zM422 690l12 -20q230 20 332 20q115 0 295 -20l12 18q-187 406 -301 787h-43q-123 -389 -307 -785z" />
    <glyph glyph-name="AE" unicode="&#xc6;" horiz-adv-x="2103" 
d="M88 0h-127l950 1597h1061v-106q-573 0 -909 31q43 -325 8 -668q313 23 860 23v-109q-547 0 -860 23q33 -349 0 -709q334 31 922 31v-113h-1018q0 387 12 604q-283 -29 -565 0q-96 -201 -334 -604zM477 672q268 30 520 -2q-29 361 -12 841h-41q-60 -135 -142.5 -288
t-148.5 -263t-176 -288z" />
    <glyph glyph-name="Ccedilla" unicode="&#xc7;" horiz-adv-x="1724" 
d="M920 -35q-52 -72 -107 -127l8 -6q47 21 99 21q79 0 129.5 -44.5t50.5 -115.5q0 -79 -62.5 -129.5t-156.5 -50.5q-71 0 -137.5 30t-110.5 78l51 49q33 -40 85 -65t105 -25q61 0 101.5 31t40.5 80q0 44 -36 73t-93 29q-55 0 -96 -26l-52 49l101 153q-214 17 -379 125.5
t-256.5 290t-91.5 408.5q0 183 62 340t168.5 265.5t252.5 170t311 61.5q111 0 217.5 -28t201.5 -83t169 -145t111 -205l-105 -43q-73 187 -234 290.5t-358 103.5q-134 0 -254.5 -50t-212.5 -141.5t-146 -231t-54 -306.5q0 -140 38.5 -258.5t104.5 -201.5t154 -141.5
t187.5 -86t205.5 -27.5q128 0 237 40.5t186 111.5t129.5 158t80.5 189l106 -38q-29 -96 -75 -180t-112.5 -156.5t-148.5 -124.5t-188 -81.5t-227 -29.5z" />
    <glyph glyph-name="Egrave" unicode="&#xc8;" horiz-adv-x="1351" 
d="M768 1720h-104l-340 318h178zM1243 0h-1020v1597h1000v-106q-52 0 -206 -1t-232 -0.5t-206 5.5t-239 16l-21 -18q33 -297 5 -616l16 -23q301 23 842 23v-109q-543 0 -842 23l-16 -23q28 -340 -5 -662l21 -20q319 27 903 27v-113z" />
    <glyph glyph-name="Eacute" unicode="&#xc9;" horiz-adv-x="1351" 
d="M1057 2038l-342 -318h-103l265 318h180zM1243 0h-1020v1597h1000v-106q-52 0 -206 -1t-232 -0.5t-206 5.5t-239 16l-21 -18q33 -297 5 -616l16 -23q301 23 842 23v-109q-543 0 -842 23l-16 -23q28 -340 -5 -662l21 -20q319 27 903 27v-113z" />
    <glyph glyph-name="Ecircumflex" unicode="&#xca;" horiz-adv-x="1351" 
d="M449 1720h-103l264 297h154l264 -297h-104q-54 51 -78 74.5t-65 72t-70 95.5h-45q-29 -47 -71 -95.5t-66.5 -72.5t-79.5 -74zM1243 0h-1020v1597h1000v-106q-52 0 -206 -1t-232 -0.5t-206 5.5t-239 16l-21 -18q33 -297 5 -616l16 -23q301 23 842 23v-109q-543 0 -842 23
l-16 -23q28 -340 -5 -662l21 -20q319 27 903 27v-113z" />
    <glyph glyph-name="Edieresis" unicode="&#xcb;" horiz-adv-x="1351" 
d="M498 1794q-41 0 -70 28.5t-29 69.5q0 39 29 68t70 29q39 0 66.5 -29t27.5 -68q0 -41 -27 -69.5t-67 -28.5zM881 1794q-42 0 -69.5 28t-27.5 70q0 39 27.5 68t69.5 29q39 0 67.5 -29t28.5 -68q0 -41 -28 -69.5t-68 -28.5zM1243 0h-1020v1597h1000v-106q-52 0 -206 -1
t-232 -0.5t-206 5.5t-239 16l-21 -18q33 -297 5 -616l16 -23q301 23 842 23v-109q-543 0 -842 23l-16 -23q28 -340 -5 -662l21 -20q319 27 903 27v-113z" />
    <glyph glyph-name="Igrave" unicode="&#xcc;" horiz-adv-x="567" 
d="M365 1720h-105l-340 318h178zM342 0h-119v1597h119v-1597z" />
    <glyph glyph-name="Iacute" unicode="&#xcd;" horiz-adv-x="567" 
d="M651 2038l-342 -318h-102l264 318h180zM342 0h-119v1597h119v-1597z" />
    <glyph glyph-name="Icircumflex" unicode="&#xce;" horiz-adv-x="567" 
d="M45 1720h-102l264 297h153l265 -297h-105q-54 51 -78 74.5t-65 72t-70 95.5h-45q-29 -47 -71 -95.5t-66.5 -72.5t-79.5 -74zM342 0h-119v1597h119v-1597z" />
    <glyph glyph-name="Idieresis" unicode="&#xcf;" horiz-adv-x="567" 
d="M92 1794q-42 0 -70 28t-28 70q0 39 28 68t70 29q39 0 66.5 -29t27.5 -68q0 -41 -27 -69.5t-67 -28.5zM475 1794q-42 0 -69 28t-27 70q0 39 27 68t69 29q39 0 67.5 -29t28.5 -68q0 -41 -28 -69.5t-68 -28.5zM342 0h-119v1597h119v-1597z" />
    <glyph glyph-name="Eth" unicode="&#xd0;" horiz-adv-x="1652" 
d="M223 1597h553q156 0 283 -40.5t214.5 -112t146.5 -171.5t86.5 -216t27.5 -248q0 -238 -87 -420t-255.5 -285.5t-396.5 -103.5h-572v750h-166v96h166v751zM811 106q278 0 439 188.5t161 502.5q0 322 -171.5 508t-487.5 186q-265 0 -412 20l-21 -18q19 -344 19 -647h571
v-96h-571q0 -300 -19 -644l21 -20q168 20 471 20z" />
    <glyph glyph-name="Ntilde" unicode="&#xd1;" horiz-adv-x="1693" 
d="M981 1808q-15 0 -29.5 2t-25 4.5t-23.5 8.5l-19.5 9t-19 12.5t-17 12.5t-18 14.5t-16.5 14.5l-37 33q-2 1 -9.5 8t-10 9t-9.5 8t-10.5 8l-10.5 6t-12 6t-12 4t-14 3t-14 1q-49 0 -80 -42t-31 -107h-86q1 106 57 171.5t144 65.5q43 0 76 -17t73 -52l41 -37
q23 -19 35 -27.5t36 -19.5t46 -11q50 0 77.5 41.5t27.5 108.5h86q0 -108 -51.5 -173t-143.5 -65zM342 0h-119v1597h111q484 -645 1024 -1437h20q-7 119 -12.5 252.5t-8 225.5t-4 256t-1.5 221.5v253v228.5h118v-1597h-110q-591 788 -1022 1415h-21q7 -117 12.5 -246t8 -227
t3.5 -246.5t1.5 -223.5t0 -244t-0.5 -228z" />
    <glyph glyph-name="Ograve" unicode="&#xd2;" horiz-adv-x="1824" 
d="M991 1720h-104l-340 318h178zM911 -35q-162 0 -309 63t-255 172t-172 265t-64 332t63.5 331.5t171.5 265t255.5 173t311.5 63.5q166 0 314.5 -65t254.5 -176.5t168 -265.5t62 -326q0 -173 -63 -328t-170.5 -265t-255.5 -174.5t-312 -64.5zM915 76q132 0 254 54.5
t213.5 148.5t146 229.5t54.5 288.5q0 154 -54.5 289.5t-146 230t-213.5 149t-254 54.5q-134 0 -257.5 -54.5t-215.5 -149t-147 -230t-55 -289.5q0 -153 55 -288.5t147 -229.5t215.5 -148.5t257.5 -54.5z" />
    <glyph glyph-name="Oacute" unicode="&#xd3;" horiz-adv-x="1824" 
d="M1278 2038l-342 -318h-102l264 318h180zM911 -35q-162 0 -309 63t-255 172t-172 265t-64 332t63.5 331.5t171.5 265t255.5 173t311.5 63.5q166 0 314.5 -65t254.5 -176.5t168 -265.5t62 -326q0 -173 -63 -328t-170.5 -265t-255.5 -174.5t-312 -64.5zM915 76
q132 0 254 54.5t213.5 148.5t146 229.5t54.5 288.5q0 154 -54.5 289.5t-146 230t-213.5 149t-254 54.5q-134 0 -257.5 -54.5t-215.5 -149t-147 -230t-55 -289.5q0 -153 55 -288.5t147 -229.5t215.5 -148.5t257.5 -54.5z" />
    <glyph glyph-name="Ocircumflex" unicode="&#xd4;" horiz-adv-x="1824" 
d="M672 1720h-103l265 297h153l264 -297h-104q-54 51 -78 74.5t-65 72t-70 95.5h-45q-29 -47 -71 -95.5t-66.5 -72.5t-79.5 -74zM911 -35q-162 0 -309 63t-255 172t-172 265t-64 332t63.5 331.5t171.5 265t255.5 173t311.5 63.5q166 0 314.5 -65t254.5 -176.5t168 -265.5
t62 -326q0 -173 -63 -328t-170.5 -265t-255.5 -174.5t-312 -64.5zM915 76q132 0 254 54.5t213.5 148.5t146 229.5t54.5 288.5q0 154 -54.5 289.5t-146 230t-213.5 149t-254 54.5q-134 0 -257.5 -54.5t-215.5 -149t-147 -230t-55 -289.5q0 -153 55 -288.5t147 -229.5
t215.5 -148.5t257.5 -54.5z" />
    <glyph glyph-name="Otilde" unicode="&#xd5;" horiz-adv-x="1824" 
d="M1065 1808q-15 0 -29.5 2t-25 4.5t-23.5 8.5l-19.5 9t-19 12.5t-17 12.5t-18 14.5t-16.5 14.5l-37 33q-2 1 -9.5 8t-10 9t-9.5 8t-10.5 8l-10.5 6t-12 6t-12 4t-14 3t-14 1q-49 0 -80 -42t-31 -107h-86q1 106 57 171.5t144 65.5q43 0 76 -17t73 -52l41 -37
q23 -19 35 -27.5t36 -19.5t46 -11q50 0 77.5 41.5t27.5 108.5h86q0 -108 -51.5 -173t-143.5 -65zM911 -35q-162 0 -309 63t-255 172t-172 265t-64 332t63.5 331.5t171.5 265t255.5 173t311.5 63.5q166 0 314.5 -65t254.5 -176.5t168 -265.5t62 -326q0 -173 -63 -328
t-170.5 -265t-255.5 -174.5t-312 -64.5zM915 76q132 0 254 54.5t213.5 148.5t146 229.5t54.5 288.5q0 154 -54.5 289.5t-146 230t-213.5 149t-254 54.5q-134 0 -257.5 -54.5t-215.5 -149t-147 -230t-55 -289.5q0 -153 55 -288.5t147 -229.5t215.5 -148.5t257.5 -54.5z" />
    <glyph glyph-name="Odieresis" unicode="&#xd6;" horiz-adv-x="1824" 
d="M719 1794q-41 0 -69.5 28.5t-28.5 69.5q0 39 28.5 68t69.5 29q39 0 66.5 -29t27.5 -68q0 -41 -27 -69.5t-67 -28.5zM1102 1794q-42 0 -69 28t-27 70q0 39 27 68t69 29q39 0 67.5 -29t28.5 -68q0 -41 -28 -69.5t-68 -28.5zM911 -35q-162 0 -309 63t-255 172t-172 265
t-64 332t63.5 331.5t171.5 265t255.5 173t311.5 63.5q166 0 314.5 -65t254.5 -176.5t168 -265.5t62 -326q0 -173 -63 -328t-170.5 -265t-255.5 -174.5t-312 -64.5zM915 76q132 0 254 54.5t213.5 148.5t146 229.5t54.5 288.5q0 154 -54.5 289.5t-146 230t-213.5 149
t-254 54.5q-134 0 -257.5 -54.5t-215.5 -149t-147 -230t-55 -289.5q0 -153 55 -288.5t147 -229.5t215.5 -148.5t257.5 -54.5z" />
    <glyph glyph-name="multiply" unicode="&#xd7;" horiz-adv-x="909" 
d="M383 625l-225 223l75 76l226 -224l215 215l71 -73l-213 -215l222 -226l-76 -73l-221 223l-217 -217l-74 74z" />
    <glyph glyph-name="Oslash" unicode="&#xd8;" horiz-adv-x="1824" 
d="M1567 1661l-148 -215q137 -116 215 -285t78 -364q0 -173 -63 -328t-170.5 -265t-255.5 -174.5t-312 -64.5q-235 0 -424 123l-104 -154h-131l147 218q-135 115 -211.5 281.5t-76.5 363.5q0 176 63.5 331.5t171.5 265t255.5 173t311.5 63.5q229 0 418 -119l103 150h133z
M240 797q0 -163 61 -304.5t168 -240.5l797 1163q-161 105 -351 105q-134 0 -257.5 -54.5t-215.5 -149t-147 -230t-55 -289.5zM915 76q132 0 254 54.5t213.5 148.5t146 229.5t54.5 288.5q0 166 -61.5 307.5t-169.5 243.5l-797 -1164q160 -108 360 -108z" />
    <glyph glyph-name="Ugrave" unicode="&#xd9;" horiz-adv-x="1542" 
d="M852 1720h-104l-340 318h178zM766 -35q-264 0 -412.5 152t-148.5 454v1026h117v-1019q0 -261 118.5 -383.5t331.5 -122.5q211 0 330 122.5t119 383.5v1019h118v-1026q0 -137 -35.5 -247t-105 -190.5t-179.5 -124.5t-253 -44z" />
    <glyph glyph-name="Uacute" unicode="&#xda;" horiz-adv-x="1542" 
d="M1081 2038l-340 -318h-104l266 318h178zM766 -35q-264 0 -412.5 152t-148.5 454v1026h117v-1019q0 -261 118.5 -383.5t331.5 -122.5q211 0 330 122.5t119 383.5v1019h118v-1026q0 -137 -35.5 -247t-105 -190.5t-179.5 -124.5t-253 -44z" />
    <glyph glyph-name="Ucircumflex" unicode="&#xdb;" horiz-adv-x="1542" 
d="M532 1720h-102l264 297h154l264 -297h-104q-54 51 -78 74.5t-65 72t-70 95.5h-45q-29 -47 -71.5 -96t-66 -71t-80.5 -75zM766 -35q-264 0 -412.5 152t-148.5 454v1026h117v-1019q0 -261 118.5 -383.5t331.5 -122.5q211 0 330 122.5t119 383.5v1019h118v-1026
q0 -137 -35.5 -247t-105 -190.5t-179.5 -124.5t-253 -44z" />
    <glyph glyph-name="Udieresis" unicode="&#xdc;" horiz-adv-x="1542" 
d="M580 1794q-41 0 -70 28.5t-29 69.5q0 39 29 68t70 29q39 0 66.5 -29t27.5 -68q0 -41 -27 -69.5t-67 -28.5zM963 1794q-42 0 -69.5 28t-27.5 70q0 39 27.5 68t69.5 29q39 0 67.5 -29t28.5 -68q0 -41 -28 -69.5t-68 -28.5zM766 -35q-264 0 -412.5 152t-148.5 454v1026h117
v-1019q0 -261 118.5 -383.5t331.5 -122.5q211 0 330 122.5t119 383.5v1019h118v-1026q0 -137 -35.5 -247t-105 -190.5t-179.5 -124.5t-253 -44z" />
    <glyph glyph-name="Yacute" unicode="&#xdd;" horiz-adv-x="1409" 
d="M1069 2038l-342 -318h-102l264 318h180zM762 0h-119q0 395 12 592q-228 363 -612 1005h131q308 -523 437 -765q42 -78 81 -154h23q35 67 70 133.5t77.5 141.5t70.5 125t79.5 137t72 122t80 135.5t74.5 124.5h125q-420 -703 -612 -1005q10 -197 10 -592z" />
    <glyph glyph-name="Thorn" unicode="&#xde;" horiz-adv-x="1394" 
d="M342 0h-119v1597h119q0 -116 -16 -284h448q236 0 377 -129t141 -338q0 -147 -64 -258t-172.5 -168.5t-244.5 -57.5q-123 0 -184 1t-145 9t-158 25q18 -193 18 -397zM322 469l18 -20q149 22 430 22q190 0 294.5 96.5t104.5 268.5q0 171 -113 269.5t-304 98.5
q-262 0 -412 23l-21 -19q31 -393 3 -739z" />
    <glyph glyph-name="germandbls" unicode="&#xdf;" horiz-adv-x="1245" 
d="M301 0h-111v1186q0 32 1.5 60t11 80.5t25.5 94.5t49.5 91.5t79 82.5t118 55.5t162.5 22.5q218 0 339.5 -118t121.5 -306q0 -159 -84 -265t-221 -118v-22q164 -13 259 -114.5t95 -262.5q0 -96 -35.5 -180.5t-101 -148.5t-166 -101t-221.5 -37h-146v96h152q174 0 286.5 103
t112.5 262q0 147 -96 244.5t-248 97.5h-98v96h94q134 0 216.5 90.5t82.5 241.5q0 56 -11.5 105t-37.5 93t-65 75.5t-96.5 50t-129.5 18.5q-84 0 -148 -26.5t-99 -64.5t-56.5 -90.5t-28 -94.5t-6.5 -85v-1212z" />
    <glyph glyph-name="agrave" unicode="&#xe0;" horiz-adv-x="1169" 
d="M651 1278h-100l-311 393h161zM455 -35q-98 0 -176.5 30.5t-128.5 97t-50 159.5q0 78 33 138t94 100.5t130.5 66t158.5 43.5l65 12.5t62.5 12t55.5 11.5t51.5 13.5t43 16.5t37 22.5t25.5 29t17.5 37t5.5 46.5q0 104 -86.5 183t-219.5 79q-119 0 -203.5 -67.5
t-117.5 -180.5l-111 39q24 77 71 137.5t106.5 96.5t126.5 54.5t137 18.5q59 0 116 -12.5t111.5 -41.5t95 -71t65.5 -106t25 -142v-436q0 -131 8.5 -204t28.5 -148h-112q-19 69 -22.5 124.5t9.5 149.5h-20q-58 -145 -166 -227t-266 -82zM465 59q91 0 171.5 39.5t132 100
t81 129t29.5 129.5v184q-47 -54 -97.5 -76t-177.5 -45q-42 -8 -66 -13t-70 -17.5t-74 -25t-65 -33.5t-57.5 -44.5t-35.5 -57.5t-15 -73q0 -91 67.5 -144t176.5 -53z" />
    <glyph glyph-name="aacute" unicode="&#xe1;" horiz-adv-x="1169" 
d="M948 1671l-311 -393h-98l249 393h160zM455 -35q-98 0 -176.5 30.5t-128.5 97t-50 159.5q0 78 33 138t94 100.5t130.5 66t158.5 43.5l65 12.5t62.5 12t55.5 11.5t51.5 13.5t43 16.5t37 22.5t25.5 29t17.5 37t5.5 46.5q0 104 -86.5 183t-219.5 79q-119 0 -203.5 -67.5
t-117.5 -180.5l-111 39q24 77 71 137.5t106.5 96.5t126.5 54.5t137 18.5q59 0 116 -12.5t111.5 -41.5t95 -71t65.5 -106t25 -142v-436q0 -131 8.5 -204t28.5 -148h-112q-19 69 -22.5 124.5t9.5 149.5h-20q-58 -145 -166 -227t-266 -82zM465 59q91 0 171.5 39.5t132 100
t81 129t29.5 129.5v184q-47 -54 -97.5 -76t-177.5 -45q-42 -8 -66 -13t-70 -17.5t-74 -25t-65 -33.5t-57.5 -44.5t-35.5 -57.5t-15 -73q0 -91 67.5 -144t176.5 -53z" />
    <glyph glyph-name="acircumflex" unicode="&#xe2;" horiz-adv-x="1169" 
d="M324 1278h-107l297 356h160l297 -356h-107q-55 55 -89.5 91.5t-78.5 90t-75 103.5h-50q-81 -123 -247 -285zM455 -35q-98 0 -176.5 30.5t-128.5 97t-50 159.5q0 78 33 138t94 100.5t130.5 66t158.5 43.5l65 12.5t62.5 12t55.5 11.5t51.5 13.5t43 16.5t37 22.5t25.5 29
t17.5 37t5.5 46.5q0 104 -86.5 183t-219.5 79q-119 0 -203.5 -67.5t-117.5 -180.5l-111 39q24 77 71 137.5t106.5 96.5t126.5 54.5t137 18.5q59 0 116 -12.5t111.5 -41.5t95 -71t65.5 -106t25 -142v-436q0 -131 8.5 -204t28.5 -148h-112q-19 69 -22.5 124.5t9.5 149.5h-20
q-58 -145 -166 -227t-266 -82zM465 59q91 0 171.5 39.5t132 100t81 129t29.5 129.5v184q-47 -54 -97.5 -76t-177.5 -45q-42 -8 -66 -13t-70 -17.5t-74 -25t-65 -33.5t-57.5 -44.5t-35.5 -57.5t-15 -73q0 -91 67.5 -144t176.5 -53z" />
    <glyph glyph-name="atilde" unicode="&#xe3;" horiz-adv-x="1169" 
d="M750 1337q-15 0 -29.5 2t-25 4.5t-23.5 8.5l-19.5 9t-19 12.5t-17 12.5t-18 14.5t-16.5 14.5l-37 33q-45 39 -68 47q-17 6 -35 6q-49 0 -79.5 -42t-30.5 -107h-86q2 106 57 171.5t143 65.5q43 0 76.5 -17.5t73.5 -51.5l41 -37q23 -19 35 -27.5t36 -19.5t46 -11
q50 0 77 41.5t27 108.5h86q0 -108 -51 -173t-143 -65zM455 -35q-98 0 -176.5 30.5t-128.5 97t-50 159.5q0 78 33 138t94 100.5t130.5 66t158.5 43.5l65 12.5t62.5 12t55.5 11.5t51.5 13.5t43 16.5t37 22.5t25.5 29t17.5 37t5.5 46.5q0 104 -86.5 183t-219.5 79
q-119 0 -203.5 -67.5t-117.5 -180.5l-111 39q24 77 71 137.5t106.5 96.5t126.5 54.5t137 18.5q59 0 116 -12.5t111.5 -41.5t95 -71t65.5 -106t25 -142v-436q0 -131 8.5 -204t28.5 -148h-112q-19 69 -22.5 124.5t9.5 149.5h-20q-58 -145 -166 -227t-266 -82zM465 59
q91 0 171.5 39.5t132 100t81 129t29.5 129.5v184q-47 -54 -97.5 -76t-177.5 -45q-42 -8 -66 -13t-70 -17.5t-74 -25t-65 -33.5t-57.5 -44.5t-35.5 -57.5t-15 -73q0 -91 67.5 -144t176.5 -53z" />
    <glyph glyph-name="adieresis" unicode="&#xe4;" horiz-adv-x="1169" 
d="M422 1382q-41 0 -68.5 29.5t-27.5 69.5q0 39 27.5 66.5t68.5 27.5t67.5 -27.5t26.5 -66.5q0 -41 -27 -70t-67 -29zM766 1382q-41 0 -68.5 29.5t-27.5 69.5q0 39 27.5 66.5t68.5 27.5q39 0 66.5 -27.5t27.5 -66.5q0 -40 -27.5 -69.5t-66.5 -29.5zM455 -35
q-98 0 -176.5 30.5t-128.5 97t-50 159.5q0 78 33 138t94 100.5t130.5 66t158.5 43.5l65 12.5t62.5 12t55.5 11.5t51.5 13.5t43 16.5t37 22.5t25.5 29t17.5 37t5.5 46.5q0 104 -86.5 183t-219.5 79q-119 0 -203.5 -67.5t-117.5 -180.5l-111 39q24 77 71 137.5t106.5 96.5
t126.5 54.5t137 18.5q59 0 116 -12.5t111.5 -41.5t95 -71t65.5 -106t25 -142v-436q0 -131 8.5 -204t28.5 -148h-112q-19 69 -22.5 124.5t9.5 149.5h-20q-58 -145 -166 -227t-266 -82zM465 59q91 0 171.5 39.5t132 100t81 129t29.5 129.5v184q-47 -54 -97.5 -76t-177.5 -45
q-42 -8 -66 -13t-70 -17.5t-74 -25t-65 -33.5t-57.5 -44.5t-35.5 -57.5t-15 -73q0 -91 67.5 -144t176.5 -53z" />
    <glyph glyph-name="aring" unicode="&#xe5;" horiz-adv-x="1169" 
d="M596 1245q-96 0 -158.5 61t-62.5 156q0 92 63 152.5t158 60.5q94 0 156.5 -60.5t62.5 -152.5q0 -95 -62.5 -156t-156.5 -61zM596 1329q59 0 97 36t38 97q0 59 -38.5 94t-96.5 35q-61 0 -100 -35t-39 -94q0 -62 39 -97.5t100 -35.5zM455 -35q-98 0 -176.5 30.5t-128.5 97
t-50 159.5q0 78 33 138t94 100.5t130.5 66t158.5 43.5l65 12.5t62.5 12t55.5 11.5t51.5 13.5t43 16.5t37 22.5t25.5 29t17.5 37t5.5 46.5q0 104 -86.5 183t-219.5 79q-119 0 -203.5 -67.5t-117.5 -180.5l-111 39q24 77 71 137.5t106.5 96.5t126.5 54.5t137 18.5
q59 0 116 -12.5t111.5 -41.5t95 -71t65.5 -106t25 -142v-436q0 -131 8.5 -204t28.5 -148h-112q-19 69 -22.5 124.5t9.5 149.5h-20q-58 -145 -166 -227t-266 -82zM465 59q91 0 171.5 39.5t132 100t81 129t29.5 129.5v184q-47 -54 -97.5 -76t-177.5 -45q-42 -8 -66 -13
t-70 -17.5t-74 -25t-65 -33.5t-57.5 -44.5t-35.5 -57.5t-15 -73q0 -91 67.5 -144t176.5 -53z" />
    <glyph glyph-name="ae" unicode="&#xe6;" horiz-adv-x="2052" 
d="M455 -35q-158 0 -256.5 75.5t-98.5 211.5q0 77 32.5 137t92.5 100.5t131 66.5t162 44q26 5 71.5 13.5t69 13t60 13t55.5 17t43 22.5t35.5 30.5t20 39.5t8.5 52q0 104 -86.5 183t-219.5 79q-119 0 -203.5 -67.5t-117.5 -180.5l-111 39q24 77 71 137.5t106.5 96.5
t126.5 54.5t137 18.5q62 0 120.5 -14.5t113.5 -45t97 -85t62 -127.5q70 133 188.5 202.5t268.5 69.5q67 0 131 -13.5t135 -52t123 -98t86.5 -161.5t34.5 -234v-47h-947q1 -218 125 -353.5t316 -135.5q151 0 260 86t162 221l100 -35q-64 -178 -204.5 -275.5t-323.5 -97.5
q-176 0 -308 90.5t-176 268.5h-20q-45 -157 -174.5 -258t-298.5 -101zM1004 649h819q-1 89 -25.5 161t-63.5 118.5t-91 77.5t-105.5 44t-110.5 13q-169 0 -282.5 -114t-140.5 -300zM475 57q85 0 163 40.5t130 101t82.5 130t30.5 128.5v184q-41 -51 -101.5 -76t-173.5 -43
q-385 -60 -385 -264q0 -91 70 -146t184 -55z" />
    <glyph glyph-name="ccedilla" unicode="&#xe7;" horiz-adv-x="1243" 
d="M678 -35q-52 -72 -107 -127l9 -6q46 21 98 21q79 0 129.5 -44.5t50.5 -115.5q0 -79 -62.5 -129.5t-156.5 -50.5q-71 0 -137.5 30t-110.5 78l51 49q33 -40 85 -65t106 -25q61 0 101 31t40 80q0 44 -36 73t-93 29q-55 0 -96 -26l-51 49l100 151q-224 20 -361 182.5
t-137 411.5q0 267 155.5 433.5t401.5 166.5q102 0 190.5 -29.5t167.5 -102t122 -183.5l-109 -41q-45 120 -144 188t-233 68q-196 0 -314 -141t-118 -359q0 -220 123.5 -357.5t319.5 -137.5q154 0 262 85t163 224l101 -33q-63 -176 -198.5 -273.5t-311.5 -103.5z" />
    <glyph glyph-name="egrave" unicode="&#xe8;" horiz-adv-x="1269" 
d="M694 1278h-100l-311 393h161zM651 -35q-157 0 -282.5 74.5t-197 211t-71.5 310.5q0 264 154.5 432t396.5 168q67 0 131 -13.5t135 -52t123 -98t86.5 -161.5t34.5 -234v-49h-942q1 -218 123 -354t313 -136q152 0 260 86.5t162 223.5l101 -35q-65 -178 -205.5 -275.5
t-321.5 -97.5zM223 649h817q-1 89 -25 160.5t-62.5 118t-90 78t-105.5 44.5t-110 13q-170 0 -284.5 -114.5t-139.5 -299.5z" />
    <glyph glyph-name="eacute" unicode="&#xe9;" horiz-adv-x="1269" 
d="M993 1671l-311 -393h-98l250 393h159zM651 -35q-157 0 -282.5 74.5t-197 211t-71.5 310.5q0 264 154.5 432t396.5 168q67 0 131 -13.5t135 -52t123 -98t86.5 -161.5t34.5 -234v-49h-942q1 -218 123 -354t313 -136q152 0 260 86.5t162 223.5l101 -35
q-65 -178 -205.5 -275.5t-321.5 -97.5zM223 649h817q-1 89 -25 160.5t-62.5 118t-90 78t-105.5 44.5t-110 13q-170 0 -284.5 -114.5t-139.5 -299.5z" />
    <glyph glyph-name="ecircumflex" unicode="&#xea;" horiz-adv-x="1269" 
d="M367 1278h-107l297 356h160l297 -356h-107q-55 55 -89.5 91.5t-78.5 90t-75 103.5h-50q-81 -123 -247 -285zM651 -35q-157 0 -282.5 74.5t-197 211t-71.5 310.5q0 264 154.5 432t396.5 168q67 0 131 -13.5t135 -52t123 -98t86.5 -161.5t34.5 -234v-49h-942
q1 -218 123 -354t313 -136q152 0 260 86.5t162 223.5l101 -35q-65 -178 -205.5 -275.5t-321.5 -97.5zM223 649h817q-1 89 -25 160.5t-62.5 118t-90 78t-105.5 44.5t-110 13q-170 0 -284.5 -114.5t-139.5 -299.5z" />
    <glyph glyph-name="edieresis" unicode="&#xeb;" horiz-adv-x="1269" 
d="M467 1382q-41 0 -68.5 29.5t-27.5 69.5q0 39 27.5 66.5t68.5 27.5t67.5 -27.5t26.5 -66.5q0 -41 -27 -70t-67 -29zM811 1382q-41 0 -68.5 29.5t-27.5 69.5q0 39 27.5 66.5t68.5 27.5q39 0 66.5 -27.5t27.5 -66.5q0 -40 -27.5 -69.5t-66.5 -29.5zM651 -35
q-157 0 -282.5 74.5t-197 211t-71.5 310.5q0 264 154.5 432t396.5 168q67 0 131 -13.5t135 -52t123 -98t86.5 -161.5t34.5 -234v-49h-942q1 -218 123 -354t313 -136q152 0 260 86.5t162 223.5l101 -35q-65 -178 -205.5 -275.5t-321.5 -97.5zM223 649h817q-1 89 -25 160.5
t-62.5 118t-90 78t-105.5 44.5t-110 13q-170 0 -284.5 -114.5t-139.5 -299.5z" />
    <glyph glyph-name="igrave" unicode="&#xec;" horiz-adv-x="491" 
d="M301 1276h-100l-312 393h162zM301 0h-111v1128h111v-1128z" />
    <glyph glyph-name="iacute" unicode="&#xed;" horiz-adv-x="491" 
d="M600 1669l-311 -393h-99l250 393h160zM301 0h-111v1128h111v-1128z" />
    <glyph glyph-name="icircumflex" unicode="&#xee;" horiz-adv-x="491" 
d="M-27 1276h-106l297 356h160l297 -356h-107q-57 57 -90.5 92t-78 89t-75.5 104h-49q-79 -120 -248 -285zM301 0h-111v1128h111v-1128z" />
    <glyph glyph-name="idieresis" unicode="&#xef;" horiz-adv-x="491" 
d="M74 1380q-41 0 -69 29.5t-28 69.5q0 39 28 66.5t69 27.5t67.5 -27.5t26.5 -66.5q0 -41 -27 -70t-67 -29zM418 1380q-41 0 -68.5 29.5t-27.5 69.5q0 39 27.5 66.5t68.5 27.5q39 0 66.5 -27.5t27.5 -66.5q0 -40 -27.5 -69.5t-66.5 -29.5zM301 0h-111v1128h111v-1128z" />
    <glyph glyph-name="eth" unicode="&#xf0;" horiz-adv-x="1320" 
d="M1020 1579l-207 -119q389 -284 389 -803q0 -331 -149.5 -511.5t-399.5 -180.5q-167 0 -295 80t-194 210.5t-66 287.5q0 162 71.5 293t195 204.5t274.5 73.5q134 0 236.5 -61.5t197.5 -204.5h23q-61 188 -153 320.5t-236 230.5l-310 -178l-39 69l273 158q-122 70 -303 133
l28 98q226 -69 383 -170l240 140zM649 66q185 0 307.5 131.5t122.5 341.5q0 212 -122.5 344.5t-305.5 132.5q-187 0 -310.5 -136t-123.5 -339q0 -129 53 -237t152.5 -173t226.5 -65z" />
    <glyph glyph-name="ntilde" unicode="&#xf1;" horiz-adv-x="1294" 
d="M797 1337q-15 0 -29.5 2t-25 4.5t-23.5 8.5l-19.5 9t-19 12.5t-17 12.5t-18 14.5t-16.5 14.5l-37 33q-45 39 -68 47q-17 6 -35 6q-49 0 -79.5 -42t-30.5 -107h-86q1 106 57 171.5t144 65.5q43 0 76 -17t73 -52l41 -37q23 -19 35 -27.5t36 -19.5t46 -11q50 0 77 41.5
t27 108.5h86q0 -108 -51 -173t-143 -65zM301 0h-111v1128h107q0 -151 -27 -249h21q136 282 418 282q63 0 119.5 -13.5t111.5 -46.5t94.5 -83.5t63.5 -130t24 -180.5v-707h-110v657q0 110 -28 191.5t-76 126.5t-103.5 65.5t-120.5 20.5q-91 0 -165.5 -38t-121 -99.5
t-71.5 -135t-25 -149.5v-639z" />
    <glyph glyph-name="ograve" unicode="&#xf2;" horiz-adv-x="1320" 
d="M717 1278h-101l-311 393h162zM662 -35q-249 0 -405.5 166.5t-156.5 429.5q0 264 156.5 432t405.5 168q247 0 403 -168t156 -432q0 -263 -156 -429.5t-403 -166.5zM662 66q196 0 318 138t122 357q0 221 -122 360.5t-318 139.5t-319.5 -140t-123.5 -360q0 -219 123.5 -357
t319.5 -138z" />
    <glyph glyph-name="oacute" unicode="&#xf3;" horiz-adv-x="1320" 
d="M1016 1671l-311 -393h-99l250 393h160zM662 -35q-249 0 -405.5 166.5t-156.5 429.5q0 264 156.5 432t405.5 168q247 0 403 -168t156 -432q0 -263 -156 -429.5t-403 -166.5zM662 66q196 0 318 138t122 357q0 221 -122 360.5t-318 139.5t-319.5 -140t-123.5 -360
q0 -219 123.5 -357t319.5 -138z" />
    <glyph glyph-name="ocircumflex" unicode="&#xf4;" horiz-adv-x="1320" 
d="M389 1278h-106l297 356h159l297 -356h-106q-57 57 -90.5 92t-78 89t-75.5 104h-49q-79 -120 -248 -285zM662 -35q-249 0 -405.5 166.5t-156.5 429.5q0 264 156.5 432t405.5 168q247 0 403 -168t156 -432q0 -263 -156 -429.5t-403 -166.5zM662 66q196 0 318 138t122 357
q0 221 -122 360.5t-318 139.5t-319.5 -140t-123.5 -360q0 -219 123.5 -357t319.5 -138z" />
    <glyph glyph-name="otilde" unicode="&#xf5;" horiz-adv-x="1320" 
d="M815 1337q-15 0 -29.5 2t-25 4.5t-23.5 8.5l-19.5 9t-19 12.5t-17 12.5t-18 14.5t-16.5 14.5l-37 33q-2 1 -9.5 8t-10 9t-9.5 8t-10.5 8l-10.5 6t-12 6t-12 4t-14 3t-14 1q-49 0 -80 -42t-31 -107h-86q1 106 57 171.5t144 65.5q43 0 76.5 -17.5t73.5 -51.5l40 -37
q23 -19 35 -27.5t36 -19.5t46 -11q50 0 77.5 41.5t27.5 108.5h86q0 -108 -51.5 -173t-143.5 -65zM662 -35q-249 0 -405.5 166.5t-156.5 429.5q0 264 156.5 432t405.5 168q247 0 403 -168t156 -432q0 -263 -156 -429.5t-403 -166.5zM662 66q196 0 318 138t122 357
q0 221 -122 360.5t-318 139.5t-319.5 -140t-123.5 -360q0 -219 123.5 -357t319.5 -138z" />
    <glyph glyph-name="odieresis" unicode="&#xf6;" horiz-adv-x="1320" 
d="M489 1382q-41 0 -68.5 29.5t-27.5 69.5q0 39 27.5 66.5t68.5 27.5t68 -27.5t27 -66.5q0 -41 -27 -70t-68 -29zM834 1382q-41 0 -69 29.5t-28 69.5q0 39 28 66.5t69 27.5q39 0 66.5 -27.5t27.5 -66.5q0 -40 -27.5 -69.5t-66.5 -29.5zM662 -35q-249 0 -405.5 166.5
t-156.5 429.5q0 264 156.5 432t405.5 168q247 0 403 -168t156 -432q0 -263 -156 -429.5t-403 -166.5zM662 66q196 0 318 138t122 357q0 221 -122 360.5t-318 139.5t-319.5 -140t-123.5 -360q0 -219 123.5 -357t319.5 -138z" />
    <glyph glyph-name="divide" unicode="&#xf7;" horiz-adv-x="1032" 
d="M522 821q-42 0 -71 29.5t-29 71.5q0 41 28.5 69.5t71.5 28.5q40 0 68 -28.5t28 -69.5t-28 -71t-68 -30zM872 571h-712v107h712v-107zM522 227q-42 0 -71 30.5t-29 72.5q0 40 29 69t71 29q40 0 68 -29t28 -69q0 -43 -28 -73t-68 -30z" />
    <glyph glyph-name="oslash" unicode="&#xf8;" horiz-adv-x="1320" 
d="M1178 1180l-127 -172q81 -81 125.5 -196t44.5 -251q0 -263 -156 -429.5t-403 -166.5q-178 0 -314 90l-82 -110h-121l127 170q-83 80 -127.5 194.5t-44.5 251.5q0 264 156.5 432t405.5 168q177 0 317 -94l84 113h115zM219 561q0 -214 121 -354l575 774q-110 80 -253 80
q-196 0 -319.5 -140t-123.5 -360zM662 66q196 0 318 138t122 357t-119 357l-571 -777q107 -75 250 -75z" />
    <glyph glyph-name="ugrave" unicode="&#xf9;" horiz-adv-x="1275" 
d="M672 1278h-101l-311 393h162zM578 -35q-61 0 -116.5 13.5t-109.5 47t-93 84t-63 130t-24 180.5v708h111v-661q0 -89 19 -160t50 -115t73.5 -73.5t86.5 -41t92 -11.5q87 0 159 38t117 99.5t69 134.5t24 147v643h110v-776q0 -131 8.5 -204t28.5 -148h-112q-20 74 -24 124
t11 142h-22q-118 -301 -395 -301z" />
    <glyph glyph-name="uacute" unicode="&#xfa;" horiz-adv-x="1275" 
d="M969 1671l-312 -393h-98l250 393h160zM578 -35q-61 0 -116.5 13.5t-109.5 47t-93 84t-63 130t-24 180.5v708h111v-661q0 -89 19 -160t50 -115t73.5 -73.5t86.5 -41t92 -11.5q87 0 159 38t117 99.5t69 134.5t24 147v643h110v-776q0 -131 8.5 -204t28.5 -148h-112
q-20 74 -24 124t11 142h-22q-118 -301 -395 -301z" />
    <glyph glyph-name="ucircumflex" unicode="&#xfb;" horiz-adv-x="1275" 
d="M344 1278h-106l297 356h159l297 -356h-106q-57 57 -90.5 92t-78 89t-75.5 104h-49q-79 -120 -248 -285zM578 -35q-61 0 -116.5 13.5t-109.5 47t-93 84t-63 130t-24 180.5v708h111v-661q0 -89 19 -160t50 -115t73.5 -73.5t86.5 -41t92 -11.5q87 0 159 38t117 99.5
t69 134.5t24 147v643h110v-776q0 -131 8.5 -204t28.5 -148h-112q-20 74 -24 124t11 142h-22q-118 -301 -395 -301z" />
    <glyph glyph-name="udieresis" unicode="&#xfc;" horiz-adv-x="1275" 
d="M442 1382q-41 0 -68.5 29.5t-27.5 69.5q0 39 27.5 66.5t68.5 27.5t68 -27.5t27 -66.5q0 -41 -27 -70t-68 -29zM786 1382q-41 0 -68.5 29.5t-27.5 69.5q0 39 27.5 66.5t68.5 27.5q40 0 67.5 -27.5t27.5 -66.5q0 -40 -28 -69.5t-67 -29.5zM578 -35q-61 0 -116.5 13.5
t-109.5 47t-93 84t-63 130t-24 180.5v708h111v-661q0 -89 19 -160t50 -115t73.5 -73.5t86.5 -41t92 -11.5q87 0 159 38t117 99.5t69 134.5t24 147v643h110v-776q0 -131 8.5 -204t28.5 -148h-112q-20 74 -24 124t11 142h-22q-118 -301 -395 -301z" />
    <glyph glyph-name="yacute" unicode="&#xfd;" horiz-adv-x="1099" 
d="M891 1671l-311 -393h-99l250 393h160zM424 -451h-100l174 441l-461 1138h121q222 -548 383 -1038h22q165 510 379 1038h121z" />
    <glyph glyph-name="thorn" unicode="&#xfe;" horiz-adv-x="1372" 
d="M301 -451h-111v2089h111q0 -26 0.5 -145t0 -166.5t-2 -141.5t-5.5 -171t-11 -156h22q69 153 185.5 228t257.5 75q224 0 374 -168.5t150 -429.5q0 -130 -41 -242t-111 -190t-167.5 -122t-207.5 -44q-143 0 -258 74t-182 221h-22q7 -72 11 -142.5t5.5 -156.5t2 -129.5
t0 -151t-0.5 -131.5zM733 66q181 0 300.5 141.5t119.5 355.5q0 216 -119.5 357t-300.5 141q-180 0 -306 -141.5t-126 -358.5t125.5 -356t306.5 -139z" />
    <glyph glyph-name="ydieresis" unicode="&#xff;" horiz-adv-x="1099" 
d="M365 1382q-41 0 -69 29.5t-28 69.5q0 39 28 66.5t69 27.5t67.5 -27.5t26.5 -66.5q0 -41 -27 -70t-67 -29zM709 1382q-41 0 -69 29.5t-28 69.5q0 39 28 66.5t69 27.5q39 0 66.5 -27.5t27.5 -66.5q0 -40 -27.5 -69.5t-66.5 -29.5zM424 -451h-100l174 441l-461 1138h121
q222 -548 383 -1038h22q165 510 379 1038h121z" />
    <glyph glyph-name="Amacron" unicode="&#x100;" horiz-adv-x="1503" 
d="M1079 1839h-655v100h655v-100zM160 0h-125l653 1597h125l655 -1597h-125q-152 358 -215 588l-18 18q-244 -22 -344 -22q-150 0 -365 22l-20 -20q-65 -196 -221 -586zM422 690l12 -20q230 20 332 20q115 0 295 -20l12 18q-187 406 -301 787h-43q-123 -389 -307 -785z" />
    <glyph glyph-name="amacron" unicode="&#x101;" horiz-adv-x="1169" 
d="M940 1430h-688v98h688v-98zM455 -35q-98 0 -176.5 30.5t-128.5 97t-50 159.5q0 78 33 138t94 100.5t130.5 66t158.5 43.5l65 12.5t62.5 12t55.5 11.5t51.5 13.5t43 16.5t37 22.5t25.5 29t17.5 37t5.5 46.5q0 104 -86.5 183t-219.5 79q-119 0 -203.5 -67.5t-117.5 -180.5
l-111 39q24 77 71 137.5t106.5 96.5t126.5 54.5t137 18.5q59 0 116 -12.5t111.5 -41.5t95 -71t65.5 -106t25 -142v-436q0 -131 8.5 -204t28.5 -148h-112q-19 69 -22.5 124.5t9.5 149.5h-20q-58 -145 -166 -227t-266 -82zM465 59q91 0 171.5 39.5t132 100t81 129t29.5 129.5
v184q-47 -54 -97.5 -76t-177.5 -45q-42 -8 -66 -13t-70 -17.5t-74 -25t-65 -33.5t-57.5 -44.5t-35.5 -57.5t-15 -73q0 -91 67.5 -144t176.5 -53z" />
    <glyph glyph-name="Abreve" unicode="&#x102;" horiz-adv-x="1503" 
d="M752 1726q-84 0 -155 29.5t-116.5 76.5t-72 102.5t-29.5 111.5h102q6 -87 83.5 -155t187.5 -68t187 68t83 155h102q-2 -56 -28.5 -111.5t-72 -102.5t-116.5 -76.5t-155 -29.5zM160 0h-125l653 1597h125l655 -1597h-125q-152 358 -215 588l-18 18q-244 -22 -344 -22
q-150 0 -365 22l-20 -20q-65 -196 -221 -586zM422 690l12 -20q230 20 332 20q115 0 295 -20l12 18q-187 406 -301 787h-43q-123 -389 -307 -785z" />
    <glyph glyph-name="abreve" unicode="&#x103;" horiz-adv-x="1169" 
d="M594 1278q-169 0 -267 110.5t-104 284.5h103q6 -138 80.5 -218.5t189.5 -80.5q116 0 190 80.5t78 218.5h105q-6 -174 -105 -284.5t-270 -110.5zM455 -35q-98 0 -176.5 30.5t-128.5 97t-50 159.5q0 78 33 138t94 100.5t130.5 66t158.5 43.5l65 12.5t62.5 12t55.5 11.5
t51.5 13.5t43 16.5t37 22.5t25.5 29t17.5 37t5.5 46.5q0 104 -86.5 183t-219.5 79q-119 0 -203.5 -67.5t-117.5 -180.5l-111 39q24 77 71 137.5t106.5 96.5t126.5 54.5t137 18.5q59 0 116 -12.5t111.5 -41.5t95 -71t65.5 -106t25 -142v-436q0 -131 8.5 -204t28.5 -148h-112
q-19 69 -22.5 124.5t9.5 149.5h-20q-58 -145 -166 -227t-266 -82zM465 59q91 0 171.5 39.5t132 100t81 129t29.5 129.5v184q-47 -54 -97.5 -76t-177.5 -45q-42 -8 -66 -13t-70 -17.5t-74 -25t-65 -33.5t-57.5 -44.5t-35.5 -57.5t-15 -73q0 -91 67.5 -144t176.5 -53z" />
    <glyph glyph-name="Aogonek" unicode="&#x104;" horiz-adv-x="1503" 
d="M1462 -379q40 0 88 14v-84q-55 -14 -96 -14q-114 0 -190 63t-76 169q0 133 160 231h-5q-152 358 -215 588l-18 18q-244 -22 -344 -22q-150 0 -365 22l-20 -20q-65 -196 -221 -586h-125l653 1597h125l655 -1597h-12q-178 -93 -178 -217q0 -73 52.5 -117.5t131.5 -44.5z
M1061 670l12 18q-187 406 -301 787h-43q-123 -389 -307 -785l12 -20q230 20 332 20q115 0 295 -20z" />
    <glyph glyph-name="aogonek" unicode="&#x105;" horiz-adv-x="1169" 
d="M1028 -379q40 0 88 14v-84q-55 -14 -98 -14q-112 0 -187 62.5t-75 164.5q0 139 164 236q-19 69 -22.5 124.5t9.5 149.5h-20q-58 -145 -166 -227t-266 -82q-98 0 -176.5 30.5t-128.5 97t-50 159.5q0 78 33 138t94 100.5t130.5 66t158.5 43.5l65 12.5t62.5 12t55.5 11.5
t51.5 13.5t43 16.5t37 22.5t25.5 29t17.5 37t5.5 46.5q0 104 -86.5 183t-219.5 79q-119 0 -203.5 -67.5t-117.5 -180.5l-111 39q24 77 71 137.5t106.5 96.5t126.5 54.5t137 18.5q59 0 116 -12.5t111.5 -41.5t95 -71t65.5 -106t25 -142v-436q0 -131 8.5 -204t28.5 -148h-10
q-176 -95 -176 -217q0 -73 53 -117.5t129 -44.5zM879 457v184q-47 -54 -97.5 -76t-177.5 -45q-42 -8 -66 -13t-70 -17.5t-74 -25t-65 -33.5t-57.5 -44.5t-35.5 -57.5t-15 -73q0 -91 67.5 -144t176.5 -53q91 0 171.5 39.5t132 100t81 129t29.5 129.5z" />
    <glyph glyph-name="Cacute" unicode="&#x106;" horiz-adv-x="1724" 
d="M1233 2038l-342 -318h-103l265 318h180zM918 -35q-234 0 -417.5 105.5t-285.5 294t-102 428.5q0 183 62 340t168.5 265.5t252.5 170t311 61.5q111 0 217.5 -28t201.5 -83t169 -145t111 -205l-105 -43q-73 187 -234 290.5t-358 103.5q-134 0 -254.5 -50t-212.5 -141.5
t-146 -231t-54 -306.5q0 -140 38.5 -258.5t104.5 -201.5t154 -141.5t187.5 -86t205.5 -27.5q128 0 237 40.5t186 111.5t129.5 158t80.5 189l106 -38q-37 -121 -101 -222t-155.5 -181t-218.5 -124.5t-278 -44.5z" />
    <glyph glyph-name="cacute" unicode="&#x107;" horiz-adv-x="1243" 
d="M979 1671l-311 -393h-99l250 393h160zM655 -35q-246 0 -400.5 165.5t-154.5 430.5q0 267 155.5 433.5t401.5 166.5q102 0 190.5 -29.5t167.5 -102t122 -183.5l-109 -41q-45 120 -144 188t-233 68q-196 0 -314 -141t-118 -359q0 -220 123.5 -357.5t319.5 -137.5
q154 0 262 85t163 224l101 -33q-65 -182 -207 -279.5t-326 -97.5z" />
    <glyph glyph-name="Cdotaccent" unicode="&#x10a;" horiz-adv-x="1724" 
d="M866 1790q-44 0 -74 31t-30 75q0 42 30 71.5t74 29.5q43 0 73 -30t30 -71q0 -44 -30 -75t-73 -31zM918 -35q-234 0 -417.5 105.5t-285.5 294t-102 428.5q0 183 62 340t168.5 265.5t252.5 170t311 61.5q111 0 217.5 -28t201.5 -83t169 -145t111 -205l-105 -43
q-73 187 -234 290.5t-358 103.5q-134 0 -254.5 -50t-212.5 -141.5t-146 -231t-54 -306.5q0 -140 38.5 -258.5t104.5 -201.5t154 -141.5t187.5 -86t205.5 -27.5q128 0 237 40.5t186 111.5t129.5 158t80.5 189l106 -38q-37 -121 -101 -222t-155.5 -181t-218.5 -124.5
t-278 -44.5z" />
    <glyph glyph-name="cdotaccent" unicode="&#x10b;" horiz-adv-x="1243" 
d="M627 1436q-44 0 -74.5 30t-30.5 74q0 42 30.5 72t74.5 30q42 0 71 -30t29 -72q0 -44 -28.5 -74t-71.5 -30zM655 -35q-246 0 -400.5 165.5t-154.5 430.5q0 267 155.5 433.5t401.5 166.5q102 0 190.5 -29.5t167.5 -102t122 -183.5l-109 -41q-45 120 -144 188t-233 68
q-196 0 -314 -141t-118 -359q0 -220 123.5 -357.5t319.5 -137.5q154 0 262 85t163 224l101 -33q-65 -182 -207 -279.5t-326 -97.5z" />
    <glyph glyph-name="Ccaron" unicode="&#x10c;" horiz-adv-x="1724" 
d="M942 1720h-154l-264 297h103q57 -53 80 -74.5t65.5 -70.5t71.5 -96h45q29 47 71 96t64 70.5t78 74.5h104zM918 -35q-234 0 -417.5 105.5t-285.5 294t-102 428.5q0 183 62 340t168.5 265.5t252.5 170t311 61.5q111 0 217.5 -28t201.5 -83t169 -145t111 -205l-105 -43
q-73 187 -234 290.5t-358 103.5q-134 0 -254.5 -50t-212.5 -141.5t-146 -231t-54 -306.5q0 -140 38.5 -258.5t104.5 -201.5t154 -141.5t187.5 -86t205.5 -27.5q128 0 237 40.5t186 111.5t129.5 158t80.5 189l106 -38q-37 -121 -101 -222t-155.5 -181t-218.5 -124.5
t-278 -44.5z" />
    <glyph glyph-name="ccaron" unicode="&#x10d;" horiz-adv-x="1243" 
d="M702 1280h-159l-297 356h106q172 -168 252 -286h39q34 51 81 106.5t77 86.5t92 93h106zM655 -35q-246 0 -400.5 165.5t-154.5 430.5q0 267 155.5 433.5t401.5 166.5q102 0 190.5 -29.5t167.5 -102t122 -183.5l-109 -41q-45 120 -144 188t-233 68q-196 0 -314 -141
t-118 -359q0 -220 123.5 -357.5t319.5 -137.5q154 0 262 85t163 224l101 -33q-65 -182 -207 -279.5t-326 -97.5z" />
    <glyph glyph-name="Dcaron" unicode="&#x10e;" horiz-adv-x="1652" 
d="M842 1720h-154l-264 297h102q57 -53 80 -74.5t65.5 -70.5t71.5 -96h45q29 47 71 96t64 70.5t78 74.5h105zM795 0h-572v1597h553q156 0 283 -40.5t214.5 -112t146.5 -171.5t86.5 -216t27.5 -248q0 -238 -87 -420t-255.5 -285.5t-396.5 -103.5zM319 106l21 -20
q168 20 471 20q278 0 439 188.5t161 502.5q0 322 -171.5 508t-487.5 186q-265 0 -412 20l-21 -18q37 -689 0 -1387z" />
    <glyph glyph-name="dcaron" unicode="&#x10f;" horiz-adv-x="1374" 
d="M625 -35q-148 0 -268 75.5t-188.5 212t-68.5 308.5q0 131 41 243.5t112 190.5t168.5 122t207.5 44q142 0 256 -77.5t182 -239.5h20q-20 324 -16 794h111v-1286q0 -131 8.5 -204t28.5 -148h-113q-36 134 -14 285h-21q-65 -161 -182.5 -240.5t-263.5 -79.5zM1442 1194h-76
q74 159 154 248q-101 18 -101 96q0 42 29.5 71t73.5 29q41 0 69.5 -28.5t28.5 -69.5q0 -36 -30.5 -93.5t-147.5 -252.5zM639 66q181 0 306.5 140t125.5 357q0 218 -125.5 358t-306.5 140q-182 0 -301 -142t-119 -358q0 -215 119.5 -355t300.5 -140z" />
    <glyph glyph-name="Dcroat" unicode="&#x110;" horiz-adv-x="1652" 
d="M223 1597h553q156 0 283 -40.5t214.5 -112t146.5 -171.5t86.5 -216t27.5 -248q0 -238 -87 -420t-255.5 -285.5t-396.5 -103.5h-572v750h-166v96h166v751zM811 106q278 0 439 188.5t161 502.5q0 322 -171.5 508t-487.5 186q-265 0 -412 20l-21 -18q19 -344 19 -647h571
v-96h-571q0 -300 -19 -644l21 -20q168 20 471 20z" />
    <glyph glyph-name="dcroat" unicode="&#x111;" horiz-adv-x="1374" 
d="M1448 1436v-95h-266v-989q0 -131 8.5 -204t28.5 -148h-113q-36 134 -14 285h-21q-65 -161 -182.5 -240.5t-263.5 -79.5q-148 0 -268 75.5t-188.5 212t-68.5 308.5q0 131 41 243.5t112 190.5t168.5 122t207.5 44q142 0 256 -77.5t182 -239.5h20q-16 285 -16 497h-293v95
h293v202h111v-202h266zM639 66q181 0 306.5 140t125.5 357q0 218 -125.5 358t-306.5 140q-182 0 -301 -142t-119 -358q0 -215 119.5 -355t300.5 -140z" />
    <glyph glyph-name="Emacron" unicode="&#x112;" horiz-adv-x="1351" 
d="M1016 1839h-656v100h656v-100zM1243 0h-1020v1597h1000v-106q-52 0 -206 -1t-232 -0.5t-206 5.5t-239 16l-21 -18q33 -297 5 -616l16 -23q301 23 842 23v-109q-543 0 -842 23l-16 -23q28 -340 -5 -662l21 -20q319 27 903 27v-113z" />
    <glyph glyph-name="emacron" unicode="&#x113;" horiz-adv-x="1269" 
d="M983 1430h-688v98h688v-98zM651 -35q-157 0 -282.5 74.5t-197 211t-71.5 310.5q0 264 154.5 432t396.5 168q67 0 131 -13.5t135 -52t123 -98t86.5 -161.5t34.5 -234v-49h-942q1 -218 123 -354t313 -136q152 0 260 86.5t162 223.5l101 -35q-65 -178 -205.5 -275.5
t-321.5 -97.5zM223 649h817q-1 89 -25 160.5t-62.5 118t-90 78t-105.5 44.5t-110 13q-170 0 -284.5 -114.5t-139.5 -299.5z" />
    <glyph glyph-name="Edotaccent" unicode="&#x116;" horiz-adv-x="1351" 
d="M688 1790q-44 0 -74 31t-30 75q0 42 30 71.5t74 29.5q43 0 73 -30t30 -71q0 -44 -30 -75t-73 -31zM1243 0h-1020v1597h1000v-106q-52 0 -206 -1t-232 -0.5t-206 5.5t-239 16l-21 -18q33 -297 5 -616l16 -23q301 23 842 23v-109q-543 0 -842 23l-16 -23q28 -340 -5 -662
l21 -20q319 27 903 27v-113z" />
    <glyph glyph-name="edotaccent" unicode="&#x117;" horiz-adv-x="1269" 
d="M641 1436q-44 0 -74 30t-30 74q0 42 30 72t74 30q42 0 71 -30t29 -72q0 -44 -28.5 -74t-71.5 -30zM651 -35q-157 0 -282.5 74.5t-197 211t-71.5 310.5q0 264 154.5 432t396.5 168q67 0 131 -13.5t135 -52t123 -98t86.5 -161.5t34.5 -234v-49h-942q1 -218 123 -354
t313 -136q152 0 260 86.5t162 223.5l101 -35q-65 -178 -205.5 -275.5t-321.5 -97.5zM223 649h817q-1 89 -25 160.5t-62.5 118t-90 78t-105.5 44.5t-110 13q-170 0 -284.5 -114.5t-139.5 -299.5z" />
    <glyph glyph-name="Eogonek" unicode="&#x118;" horiz-adv-x="1351" 
d="M1249 -379q40 0 88 14v-84q-55 -14 -96 -14q-114 0 -190 63t-76 169q0 133 160 231h-912v1597h1000v-106q-52 0 -206 -1t-232 -0.5t-206 5.5t-239 16l-21 -18q33 -297 5 -616l16 -23q301 23 842 23v-109q-543 0 -842 23l-16 -23q28 -340 -5 -662l21 -20q319 27 903 27
v-113q-178 -93 -178 -217q0 -73 52.5 -117.5t131.5 -44.5z" />
    <glyph glyph-name="eogonek" unicode="&#x119;" horiz-adv-x="1269" 
d="M846 -2q-172 -95 -172 -215q0 -73 53 -117.5t129 -44.5q40 0 88 14v-84q-55 -14 -98 -14q-112 0 -187 62.5t-75 164.5q0 120 114 203q-16 -2 -47 -2q-157 0 -282.5 74.5t-197 211t-71.5 310.5q0 264 154.5 432t396.5 168q67 0 131 -13.5t135 -52t123 -98t86.5 -161.5
t34.5 -234v-49h-942q1 -218 123 -354t313 -136q152 0 260 86.5t162 223.5l101 -35q-47 -126 -132.5 -213t-199.5 -127zM647 1063q-170 0 -284.5 -114.5t-139.5 -299.5h817q-1 89 -25 160.5t-62.5 118t-90 78t-105.5 44.5t-110 13z" />
    <glyph glyph-name="Ecaron" unicode="&#x11a;" horiz-adv-x="1351" 
d="M764 1720h-154l-264 297h103q57 -53 80 -74.5t65.5 -70.5t71.5 -96h45q29 47 71 96t64 70.5t78 74.5h104zM1243 0h-1020v1597h1000v-106q-52 0 -206 -1t-232 -0.5t-206 5.5t-239 16l-21 -18q33 -297 5 -616l16 -23q301 23 842 23v-109q-543 0 -842 23l-16 -23
q28 -340 -5 -662l21 -20q319 27 903 27v-113z" />
    <glyph glyph-name="ecaron" unicode="&#x11b;" horiz-adv-x="1269" 
d="M717 1280h-160l-297 356h107q169 -165 251 -286h39q34 51 81 106.5t77 86.5t92 93h107zM651 -35q-157 0 -282.5 74.5t-197 211t-71.5 310.5q0 264 154.5 432t396.5 168q67 0 131 -13.5t135 -52t123 -98t86.5 -161.5t34.5 -234v-49h-942q1 -218 123 -354t313 -136
q152 0 260 86.5t162 223.5l101 -35q-65 -178 -205.5 -275.5t-321.5 -97.5zM223 649h817q-1 89 -25 160.5t-62.5 118t-90 78t-105.5 44.5t-110 13q-170 0 -284.5 -114.5t-139.5 -299.5z" />
    <glyph glyph-name="Gbreve" unicode="&#x11e;" horiz-adv-x="1802" 
d="M866 1726q-84 0 -155 29.5t-116 76.5t-71.5 102.5t-29.5 111.5h102q6 -87 83 -155t187 -68t187.5 68t83.5 155h102q-2 -56 -28.5 -111.5t-72 -102.5t-117 -76.5t-155.5 -29.5zM905 -35q-171 0 -318.5 61.5t-251.5 170t-163 262t-59 332.5q0 184 62 341.5t168.5 266
t252.5 170t311 61.5q111 0 217.5 -28t201.5 -83t169 -145t111 -205l-105 -43q-73 187 -234 290.5t-358 103.5q-134 0 -254.5 -50t-212.5 -141t-146 -230.5t-54 -307.5q0 -173 58.5 -312.5t155.5 -225.5t217.5 -131.5t250.5 -45.5q262 0 434.5 170t210.5 444l-13 17
q-329 -39 -593 -39v104h696v-772h-100q0 27 -2.5 117t0 154t12.5 132l-23 3q-80 -214 -242.5 -327.5t-398.5 -113.5z" />
    <glyph glyph-name="gbreve" unicode="&#x11f;" horiz-adv-x="1370" 
d="M659 1278q-169 0 -266.5 110.5t-103.5 284.5h102q6 -138 80.5 -218.5t190.5 -80.5t190 80.5t78 218.5h104q-6 -174 -105 -284.5t-270 -110.5zM666 -483q-387 0 -504 331l102 35q42 -126 142 -197t262 -71q64 0 118.5 13.5t108 49t91 90.5t60.5 145t23 206q0 117 16 170
h-20q-68 -138 -184.5 -213.5t-255.5 -75.5q-149 0 -270 76.5t-189 210t-68 297.5q0 166 70 298.5t190.5 205.5t266.5 73q137 0 256 -86t182 -231h22q-12 98 -12 284h107v-983q0 -628 -514 -628zM637 100q179 0 305.5 139.5t126.5 346.5q0 206 -126 340.5t-306 134.5
q-120 0 -216.5 -63t-150 -172t-53.5 -242q0 -204 120.5 -344t299.5 -140z" />
    <glyph glyph-name="Gdotaccent" unicode="&#x120;" horiz-adv-x="1802" 
d="M866 1790q-44 0 -74 31t-30 75q0 42 30 71.5t74 29.5q43 0 73 -30t30 -71q0 -44 -30 -75t-73 -31zM905 -35q-171 0 -318.5 61.5t-251.5 170t-163 262t-59 332.5q0 184 62 341.5t168.5 266t252.5 170t311 61.5q111 0 217.5 -28t201.5 -83t169 -145t111 -205l-105 -43
q-73 187 -234 290.5t-358 103.5q-134 0 -254.5 -50t-212.5 -141t-146 -230.5t-54 -307.5q0 -173 58.5 -312.5t155.5 -225.5t217.5 -131.5t250.5 -45.5q262 0 434.5 170t210.5 444l-13 17q-329 -39 -593 -39v104h696v-772h-100q0 27 -2.5 117t0 154t12.5 132l-23 3
q-80 -214 -242.5 -327.5t-398.5 -113.5z" />
    <glyph glyph-name="gdotaccent" unicode="&#x121;" horiz-adv-x="1370" 
d="M662 1436q-44 0 -74.5 30t-30.5 74q0 42 30.5 72t74.5 30q42 0 71 -30t29 -72q0 -44 -28.5 -74t-71.5 -30zM666 -483q-387 0 -504 331l102 35q42 -126 142 -197t262 -71q64 0 118.5 13.5t108 49t91 90.5t60.5 145t23 206q0 117 16 170h-20q-68 -138 -184.5 -213.5
t-255.5 -75.5q-149 0 -270 76.5t-189 210t-68 297.5q0 166 70 298.5t190.5 205.5t266.5 73q137 0 256 -86t182 -231h22q-12 98 -12 284h107v-983q0 -628 -514 -628zM637 100q179 0 305.5 139.5t126.5 346.5q0 206 -126 340.5t-306 134.5q-120 0 -216.5 -63t-150 -172
t-53.5 -242q0 -204 120.5 -344t299.5 -140z" />
    <glyph glyph-name="uni0122" unicode="&#x122;" horiz-adv-x="1802" 
d="M905 -35q-171 0 -318.5 61.5t-251.5 170t-163 262t-59 332.5q0 184 62 341.5t168.5 266t252.5 170t311 61.5q111 0 217.5 -28t201.5 -83t169 -145t111 -205l-105 -43q-73 187 -234 290.5t-358 103.5q-134 0 -254.5 -50t-212.5 -141t-146 -230.5t-54 -307.5
q0 -173 58.5 -312.5t155.5 -225.5t217.5 -131.5t250.5 -45.5q262 0 434.5 170t210.5 444l-13 17q-329 -39 -593 -39v104h696v-772h-100q0 27 -2.5 117t0 154t12.5 132l-23 3q-80 -214 -242.5 -327.5t-398.5 -113.5zM842 -498h-58q65 125 125 199q-62 0 -89 25.5t-27 64.5
q0 40 29 65t71 25q41 0 69.5 -28t28.5 -68q0 -38 -28 -89.5t-121 -193.5z" />
    <glyph glyph-name="uni0123" unicode="&#x123;" horiz-adv-x="1370" 
d="M535 1348q0 36 29.5 91.5t146.5 248.5h75q-90 -180 -141 -267q44 6 66 -18.5t22 -61.5q0 -43 -28 -67.5t-68 -24.5q-44 0 -73 28.5t-29 70.5zM666 -483q-387 0 -504 331l102 35q42 -126 142 -197t262 -71q64 0 118.5 13.5t108 49t91 90.5t60.5 145t23 206q0 117 16 170
h-20q-68 -138 -184.5 -213.5t-255.5 -75.5q-149 0 -270 76.5t-189 210t-68 297.5q0 166 70 298.5t190.5 205.5t266.5 73q137 0 256 -86t182 -231h22q-12 98 -12 284h107v-983q0 -628 -514 -628zM637 100q179 0 305.5 139.5t126.5 346.5q0 206 -126 340.5t-306 134.5
q-120 0 -216.5 -63t-150 -172t-53.5 -242q0 -204 120.5 -344t299.5 -140z" />
    <glyph glyph-name="Hbar" unicode="&#x126;" horiz-adv-x="1654" 
d="M1432 1276h135v-96h-135v-1180h-119q0 486 20 758l-18 22q-443 -52 -975 0l-16 -22q18 -258 18 -758h-119v1180h-135v96h135v321h119q0 -215 -2 -321h975q-2 109 -2 321h119v-321zM1315 846l18 22q-13 172 -16 312h-979q-3 -179 -14 -312l16 -22q520 29 975 0z" />
    <glyph glyph-name="hbar" unicode="&#x127;" horiz-adv-x="1294" 
d="M707 1161q62 0 119 -13.5t112 -46.5t95 -83.5t64.5 -130t24.5 -180.5v-707h-110v657q0 110 -28 191.5t-76 126.5t-103.5 65.5t-120.5 20.5q-91 0 -165.5 -38t-121 -100t-71.5 -135.5t-25 -148.5v-639h-111v1339h-186v95h186v204h111q0 -134 -2 -204h375v-95h-377
q-9 -214 -27 -460h21q136 282 416 282z" />
    <glyph glyph-name="Imacron" unicode="&#x12a;" horiz-adv-x="567" 
d="M612 1839h-655v100h655v-100zM342 0h-119v1597h119v-1597z" />
    <glyph glyph-name="imacron" unicode="&#x12b;" horiz-adv-x="491" 
d="M590 1427h-688v99h688v-99zM301 0h-111v1128h111v-1128z" />
    <glyph glyph-name="Iogonek" unicode="&#x12e;" horiz-adv-x="567" 
d="M348 -379q40 0 88 14v-84q-55 -14 -96 -14q-114 0 -190 63t-76 169q0 73 41 128.5t118 102.5h-10v1597h119v-1597q-178 -93 -178 -217q0 -73 52.5 -117.5t131.5 -44.5z" />
    <glyph glyph-name="iogonek" unicode="&#x12f;" horiz-adv-x="491" 
d="M248 1434q-44 0 -74.5 30t-30.5 74q0 42 30.5 72t74.5 30q42 0 71 -30t29 -72q0 -44 -28.5 -74t-71.5 -30zM305 -379q40 0 88 14v-84q-55 -14 -98 -14q-112 0 -187 62.5t-75 164.5q0 139 164 236h-7v1128h111v-1128h-2q-176 -95 -176 -217q0 -73 53 -117.5t129 -44.5z
" />
    <glyph glyph-name="Idotaccent" unicode="&#x130;" horiz-adv-x="567" 
d="M285 1790q-44 0 -74.5 31t-30.5 75q0 42 30.5 71.5t74.5 29.5q43 0 72.5 -29.5t29.5 -71.5q0 -44 -29.5 -75t-72.5 -31zM342 0h-119v1597h119v-1597z" />
    <glyph glyph-name="dotlessi" unicode="&#x131;" horiz-adv-x="491" 
d="M301 0h-111v1128h111v-1128z" />
    <glyph glyph-name="uni0136" unicode="&#x136;" horiz-adv-x="1351" 
d="M342 0h-119v1597h119v-108v-115.5t-0.5 -107t-1.5 -116.5t-3 -108t-5.5 -118t-8 -110t-10.5 -118h21q237 266 835 901h144q-19 -20 -90 -96t-97.5 -104t-88.5 -93.5t-99.5 -103t-92 -92.5t-103.5 -102t-99 -93v-24q320 -385 711 -889h-146q-385 482 -628 827h-19
q-101 -149 -229 -252q10 -199 10 -575zM676 -498h-58q65 125 125 199q-62 0 -89 25.5t-27 64.5q0 40 29 65t71 25q41 0 69.5 -28t28.5 -68q0 -38 -28 -89.5t-121 -193.5z" />
    <glyph glyph-name="uni0137" unicode="&#x137;" horiz-adv-x="1050" 
d="M301 0h-111v1638h111q0 -38 0.5 -205.5t0 -234t-2 -198.5t-5.5 -237.5t-11 -211.5h22q225 249 543 577h137l-440 -440q64 -80 137 -175.5t123.5 -163.5t133.5 -181t124 -168h-127q-261 348 -455 623q-94 -120 -200 -191q20 -150 20 -432zM512 -498h-57q65 125 125 199
q-62 0 -89.5 25.5t-27.5 64.5q0 40 29 65t71 25q41 0 70 -28t29 -68q0 -38 -27.5 -88.5t-122.5 -194.5z" />
    <glyph glyph-name="Lacute" unicode="&#x139;" horiz-adv-x="1212" 
d="M700 2038l-342 -318h-102l264 318h180zM1182 0h-959v1597h119q0 -975 -23 -1491l21 -20q297 27 842 27v-113z" />
    <glyph glyph-name="lacute" unicode="&#x13a;" horiz-adv-x="491" 
d="M651 2079l-342 -318h-102l264 318h180zM301 0h-111v1638h111v-1638z" />
    <glyph glyph-name="uni013B" unicode="&#x13b;" horiz-adv-x="1212" 
d="M1182 0h-959v1597h119q0 -975 -23 -1491l21 -20q297 27 842 27v-113zM598 -498h-57q65 125 125 199q-62 0 -89.5 25.5t-27.5 64.5q0 40 29 65t71 25q41 0 70 -28t29 -68q0 -38 -27.5 -88.5t-122.5 -194.5z" />
    <glyph glyph-name="uni013C" unicode="&#x13c;" horiz-adv-x="491" 
d="M301 0h-111v1638h111v-1638zM201 -498h-58q65 125 125 199q-62 0 -89 25.5t-27 64.5q0 40 29 65t71 25q41 0 69.5 -28t28.5 -68q0 -38 -28 -89.5t-121 -193.5z" />
    <glyph glyph-name="Lcaron" unicode="&#x13d;" horiz-adv-x="1212" 
d="M881 1190h-76q29 58 43.5 85.5t45 75t64.5 85.5q-100 18 -100 98q0 41 30 69.5t73 28.5q41 0 70.5 -28.5t29.5 -69.5q0 -36 -31.5 -94.5t-148.5 -249.5zM1182 0h-959v1597h119q0 -975 -23 -1491l21 -20q297 27 842 27v-113z" />
    <glyph glyph-name="lcaron" unicode="&#x13e;" horiz-adv-x="491" 
d="M301 0h-111v1638h111v-1638zM612 1190h-75q2 5 12 24.5t13 25.5t12 23.5t13.5 25t13.5 24t15 25.5t15.5 23.5t18 25.5t19 24t21.5 25q-100 18 -100 98q0 41 29.5 69.5t72.5 28.5q42 0 71.5 -28.5t29.5 -69.5q0 -36 -30.5 -92.5t-150.5 -251.5z" />
    <glyph glyph-name="Lslash" unicode="&#x141;" horiz-adv-x="1212" 
d="M319 106l21 -20q297 27 842 27v-113h-959v788l-174 -81v102l174 82v706h119q0 -434 -2 -653l319 150v-103l-319 -149q-6 -357 -21 -736z" />
    <glyph glyph-name="lslash" unicode="&#x142;" horiz-adv-x="491" 
d="M301 1014l201 143v-102l-201 -144v-911h-111v834l-202 -146v100l202 146v704h111v-624z" />
    <glyph glyph-name="Nacute" unicode="&#x143;" horiz-adv-x="1693" 
d="M1194 2038l-342 -318h-102l264 318h180zM342 0h-119v1597h111q484 -645 1024 -1437h20q-7 119 -12.5 252.5t-8 225.5t-4 256t-1.5 221.5v253v228.5h118v-1597h-110q-591 788 -1022 1415h-21q7 -117 12.5 -246t8 -227t3.5 -246.5t1.5 -223.5t0 -244t-0.5 -228z" />
    <glyph glyph-name="nacute" unicode="&#x144;" horiz-adv-x="1294" 
d="M997 1671l-311 -393h-98l250 393h159zM301 0h-111v1128h107q0 -151 -27 -249h21q136 282 418 282q63 0 119.5 -13.5t111.5 -46.5t94.5 -83.5t63.5 -130t24 -180.5v-707h-110v657q0 110 -28 191.5t-76 126.5t-103.5 65.5t-120.5 20.5q-91 0 -165.5 -38t-121 -99.5
t-71.5 -135t-25 -149.5v-639z" />
    <glyph glyph-name="uni0145" unicode="&#x145;" horiz-adv-x="1693" 
d="M342 0h-119v1597h111q484 -645 1024 -1437h20q-7 119 -12.5 252.5t-8 225.5t-4 256t-1.5 221.5v253v228.5h118v-1597h-110q-591 788 -1022 1415h-21q7 -117 12.5 -246t8 -227t3.5 -246.5t1.5 -223.5t0 -244t-0.5 -228zM823 -498h-57q65 125 125 199q-62 0 -89.5 25.5
t-27.5 64.5q0 40 29 65t71 25q41 0 70 -28t29 -68q0 -38 -27.5 -88.5t-122.5 -194.5z" />
    <glyph glyph-name="uni0146" unicode="&#x146;" horiz-adv-x="1294" 
d="M301 0h-111v1128h107q0 -151 -27 -249h21q136 282 418 282q63 0 119.5 -13.5t111.5 -46.5t94.5 -83.5t63.5 -130t24 -180.5v-707h-110v657q0 110 -28 191.5t-76 126.5t-103.5 65.5t-120.5 20.5q-91 0 -165.5 -38t-121 -99.5t-71.5 -135t-25 -149.5v-639zM623 -498h-58
q65 125 125 199q-62 0 -89.5 25.5t-27.5 64.5q0 40 29.5 65t71.5 25q41 0 69.5 -28t28.5 -68q0 -38 -28 -89.5t-121 -193.5z" />
    <glyph glyph-name="Ncaron" unicode="&#x147;" horiz-adv-x="1693" 
d="M903 1720h-153l-265 297h103q57 -53 80 -74.5t65.5 -70.5t71.5 -96h45q29 47 71 96t64 70.5t78 74.5h104zM342 0h-119v1597h111q484 -645 1024 -1437h20q-7 119 -12.5 252.5t-8 225.5t-4 256t-1.5 221.5v253v228.5h118v-1597h-110q-591 788 -1022 1415h-21
q7 -117 12.5 -246t8 -227t3.5 -246.5t1.5 -223.5t0 -244t-0.5 -228z" />
    <glyph glyph-name="ncaron" unicode="&#x148;" horiz-adv-x="1294" 
d="M723 1280h-160l-297 356h107q172 -168 252 -286h39q34 51 80 106t78 88t91 92h107zM301 0h-111v1128h107q0 -151 -27 -249h21q136 282 418 282q63 0 119.5 -13.5t111.5 -46.5t94.5 -83.5t63.5 -130t24 -180.5v-707h-110v657q0 110 -28 191.5t-76 126.5t-103.5 65.5
t-120.5 20.5q-91 0 -165.5 -38t-121 -99.5t-71.5 -135t-25 -149.5v-639z" />
    <glyph glyph-name="Eng" unicode="&#x14a;" horiz-adv-x="1693" 
d="M1081 -483q-134 0 -225 57v115q96 -68 205 -68q138 0 215.5 104.5t77.5 278.5q-511 681 -1016 1409h-21q7 -116 12.5 -245t8 -227t3.5 -246t1.5 -223t0 -244t-0.5 -228h-119v1597h111q465 -620 1024 -1433h20q-7 117 -12.5 250t-8 224.5t-4 255.5t-1.5 221.5v253v228.5
h118v-1521q0 -559 -389 -559z" />
    <glyph glyph-name="eng" unicode="&#x14b;" horiz-adv-x="1294" 
d="M815 -483q-125 0 -213 57v109q99 -68 195 -68q35 0 64 9t50 23t37.5 37.5t27 44.5t18 54t11 55.5t5.5 58.5t2 54v51v655q0 110 -28 191.5t-76 126.5t-103.5 65.5t-120.5 20.5q-91 0 -165.5 -38t-121 -99.5t-71.5 -135t-25 -149.5v-639h-111v1128h107q0 -151 -27 -249h21
q136 282 418 282q62 0 119 -13t111.5 -45.5t94 -82t64 -127.5t24.5 -176v-731q0 -38 -0.5 -60t-3 -65t-7.5 -70.5t-16 -67t-25.5 -65.5t-38.5 -55t-53.5 -46t-71 -28.5t-91.5 -11.5z" />
    <glyph glyph-name="Omacron" unicode="&#x14c;" horiz-adv-x="1824" 
d="M1239 1839h-655v100h655v-100zM911 -35q-162 0 -309 63t-255 172t-172 265t-64 332t63.5 331.5t171.5 265t255.5 173t311.5 63.5q166 0 314.5 -65t254.5 -176.5t168 -265.5t62 -326q0 -173 -63 -328t-170.5 -265t-255.5 -174.5t-312 -64.5zM915 76q132 0 254 54.5
t213.5 148.5t146 229.5t54.5 288.5q0 154 -54.5 289.5t-146 230t-213.5 149t-254 54.5q-134 0 -257.5 -54.5t-215.5 -149t-147 -230t-55 -289.5q0 -153 55 -288.5t147 -229.5t215.5 -148.5t257.5 -54.5z" />
    <glyph glyph-name="omacron" unicode="&#x14d;" horiz-adv-x="1320" 
d="M1006 1430h-689v98h689v-98zM662 -35q-249 0 -405.5 166.5t-156.5 429.5q0 264 156.5 432t405.5 168q247 0 403 -168t156 -432q0 -263 -156 -429.5t-403 -166.5zM662 66q196 0 318 138t122 357q0 221 -122 360.5t-318 139.5t-319.5 -140t-123.5 -360q0 -219 123.5 -357
t319.5 -138z" />
    <glyph glyph-name="Ohungarumlaut" unicode="&#x150;" horiz-adv-x="1824" 
d="M1053 2038l-275 -318h-102l213 318h164zM1352 2038l-293 -318h-103l232 318h164zM911 -35q-162 0 -309 63t-255 172t-172 265t-64 332t63.5 331.5t171.5 265t255.5 173t311.5 63.5q166 0 314.5 -65t254.5 -176.5t168 -265.5t62 -326q0 -173 -63 -328t-170.5 -265
t-255.5 -174.5t-312 -64.5zM915 76q132 0 254 54.5t213.5 148.5t146 229.5t54.5 288.5q0 154 -54.5 289.5t-146 230t-213.5 149t-254 54.5q-134 0 -257.5 -54.5t-215.5 -149t-147 -230t-55 -289.5q0 -153 55 -288.5t147 -229.5t215.5 -148.5t257.5 -54.5z" />
    <glyph glyph-name="ohungarumlaut" unicode="&#x151;" horiz-adv-x="1320" 
d="M807 1673l-275 -395h-98l211 395h162zM1110 1673l-295 -395h-98l231 395h162zM662 -35q-249 0 -405.5 166.5t-156.5 429.5q0 264 156.5 432t405.5 168q247 0 403 -168t156 -432q0 -263 -156 -429.5t-403 -166.5zM662 66q196 0 318 138t122 357q0 221 -122 360.5
t-318 139.5t-319.5 -140t-123.5 -360q0 -219 123.5 -357t319.5 -138z" />
    <glyph glyph-name="OE" unicode="&#x152;" horiz-adv-x="2721" 
d="M911 -35q-162 0 -309 63t-254.5 172t-171 264.5t-63.5 332.5q0 176 63 331.5t170 265t255 173t312 63.5q218 0 397.5 -109.5t282.5 -295.5v372h998v-106q-52 0 -205.5 -1t-232 -0.5t-206 5.5t-237.5 16l-20 -18q33 -298 2 -616l18 -23q301 23 840 23v-109q-541 0 -840 23
l-18 -23q31 -339 -2 -662l20 -20q319 27 901 27v-113h-1018v371q-104 -187 -284.5 -296.5t-397.5 -109.5zM915 76q132 0 254 54.5t213.5 148.5t146 229.5t54.5 288.5q0 154 -54.5 289.5t-146 230t-213.5 149t-254 54.5q-134 0 -257.5 -54.5t-215.5 -149t-147 -230
t-55 -289.5q0 -153 55 -288.5t147 -229.5t215.5 -148.5t257.5 -54.5z" />
    <glyph glyph-name="oe" unicode="&#x153;" horiz-adv-x="2273" 
d="M662 -35q-249 0 -405.5 166.5t-156.5 429.5q0 264 156.5 432t405.5 168q172 0 303 -85.5t196 -235.5q65 149 195.5 235t298.5 86q67 0 131 -13.5t135 -52t123 -98t86.5 -161.5t34.5 -234v-45h-946q1 -219 125 -356.5t315 -137.5q151 0 260 87t162 223l100 -35
q-64 -178 -204.5 -275.5t-323.5 -97.5q-169 0 -298.5 85t-193.5 233q-65 -148 -196.5 -233t-302.5 -85zM1225 649h817q-1 89 -25 161t-62.5 118.5t-90.5 77.5t-105 44t-110 13q-170 0 -284.5 -114.5t-139.5 -299.5zM662 66q196 0 318 138t122 357q0 221 -122 360.5
t-318 139.5t-319.5 -140t-123.5 -360q0 -219 123.5 -357t319.5 -138z" />
    <glyph glyph-name="Racute" unicode="&#x154;" horiz-adv-x="1417" 
d="M1028 2038l-342 -318h-102l264 318h180zM342 0h-119v1597h551q236 0 377 -129t141 -338q0 -200 -117 -319.5t-317 -134.5v-23q56 -75 119.5 -166t108 -157t114.5 -172t105 -158h-131l-435 649q-255 0 -417 33q20 -248 20 -682zM322 754l18 -23q164 21 430 21
q189 0 294 97.5t105 270.5q0 171 -113 271t-304 100q-251 0 -412 20l-21 -18q33 -377 3 -739z" />
    <glyph glyph-name="racute" unicode="&#x155;" horiz-adv-x="831" 
d="M819 1671l-311 -393h-98l249 393h160zM301 0h-111v1128h107q0 -17 1 -60t1 -69t-4 -70t-12 -89h22q42 154 143 237.5t232 83.5q75 0 131 -22v-121q-63 29 -139 29q-114 0 -200.5 -70.5t-128.5 -177.5t-42 -230v-569z" />
    <glyph glyph-name="uni0156" unicode="&#x156;" horiz-adv-x="1417" 
d="M342 0h-119v1597h551q236 0 377 -129t141 -338q0 -200 -117 -319.5t-317 -134.5v-23q56 -75 119.5 -166t108 -157t114.5 -172t105 -158h-131l-435 649q-255 0 -417 33q20 -248 20 -682zM322 754l18 -23q164 21 430 21q189 0 294 97.5t105 270.5q0 171 -113 271t-304 100
q-251 0 -412 20l-21 -18q33 -377 3 -739zM678 -498h-57q67 128 124 199q-62 0 -89 25.5t-27 64.5q0 40 29 65t71 25q41 0 69.5 -28t28.5 -68q0 -38 -28 -89.5t-121 -193.5z" />
    <glyph glyph-name="uni0157" unicode="&#x157;" horiz-adv-x="831" 
d="M301 0h-111v1128h107q0 -17 1 -60t1 -69t-4 -70t-12 -89h22q42 154 143 237.5t232 83.5q75 0 131 -22v-121q-63 29 -139 29q-114 0 -200.5 -70.5t-128.5 -177.5t-42 -230v-569zM193 -498h-58q65 125 125 199q-62 0 -89.5 25.5t-27.5 64.5q0 40 29.5 65t71.5 25
q41 0 69.5 -28t28.5 -68q0 -38 -28 -89.5t-121 -193.5z" />
    <glyph glyph-name="Rcaron" unicode="&#x158;" horiz-adv-x="1417" 
d="M737 1720h-153l-265 297h103q57 -53 80 -74.5t65.5 -70.5t71.5 -96h45q29 47 71 96t64 70.5t78 74.5h104zM342 0h-119v1597h551q236 0 377 -129t141 -338q0 -200 -117 -319.5t-317 -134.5v-23q56 -75 119.5 -166t108 -157t114.5 -172t105 -158h-131l-435 649
q-255 0 -417 33q20 -248 20 -682zM322 754l18 -23q164 21 430 21q189 0 294 97.5t105 270.5q0 171 -113 271t-304 100q-251 0 -412 20l-21 -18q33 -377 3 -739z" />
    <glyph glyph-name="rcaron" unicode="&#x159;" horiz-adv-x="831" 
d="M543 1280h-160l-297 356h107q169 -165 251 -286h39q34 51 81 106.5t77 86.5t92 93h107zM301 0h-111v1128h107q0 -17 1 -60t1 -69t-4 -70t-12 -89h22q42 154 143 237.5t232 83.5q75 0 131 -22v-121q-63 29 -139 29q-114 0 -200.5 -70.5t-128.5 -177.5t-42 -230v-569z" />
    <glyph glyph-name="Sacute" unicode="&#x15a;" horiz-adv-x="1316" 
d="M958 2038l-342 -318h-102l264 318h180zM680 -35q-71 0 -139 14t-139.5 48.5t-130 86t-108 133.5t-77.5 185l109 41q51 -191 182.5 -294t304.5 -103q58 0 114 11.5t109 37t93 63.5t64.5 94.5t24.5 125.5q0 59 -21 106t-43.5 74t-77 54.5t-79.5 36.5t-94 30q-25 8 -37 12
l-149 47q-44 14 -76 25.5t-82 33.5t-85.5 44.5t-75.5 58t-65 74.5t-42 93t-17 115q0 83 29.5 152.5t79 118t115.5 82t138.5 49.5t147.5 16q187 0 329 -98.5t196 -284.5l-105 -45q-47 145 -161.5 231.5t-272.5 86.5t-265.5 -82t-107.5 -217q0 -62 28 -116t60 -85.5t90.5 -63
t84.5 -41.5t77 -27l4.5 -1.5t3.5 -1.5l154 -49q11 -4 35 -11q41 -13 62.5 -20t62 -22t64 -27t58 -32t55 -40t44.5 -48t37 -58.5t22 -70t9 -83.5q0 -104 -44.5 -191.5t-119.5 -145.5t-171.5 -90t-201.5 -32z" />
    <glyph glyph-name="sacute" unicode="&#x15b;" horiz-adv-x="1005" 
d="M856 1671l-311 -393h-99l250 393h160zM532 -35q-163 0 -288.5 87t-171.5 229l102 34q44 -110 145.5 -181t212.5 -71q42 0 86 11t88.5 35t72.5 69.5t28 106.5q0 40 -14.5 71.5t-35.5 52.5t-57.5 38.5t-66.5 27.5t-76 23l-106 30q-43 11 -74 21.5t-82.5 37.5t-85 59t-59 86
t-25.5 120q0 62 22 114.5t58 87.5t83.5 60t97.5 36t101 11q138 0 247.5 -78t148.5 -196l-109 -37q-34 91 -112 152t-189 61q-102 0 -168.5 -54.5t-66.5 -144.5q0 -44 18.5 -81t44 -60.5t67 -44.5t71.5 -31.5t73 -23.5l109 -31q35 -10 56.5 -17t57.5 -21.5t58.5 -28.5t50 -37
t43 -48t26.5 -60.5t11 -76.5q0 -142 -110.5 -240t-281.5 -98z" />
    <glyph glyph-name="Scedilla" unicode="&#x15e;" horiz-adv-x="1316" 
d="M707 -35q-52 -72 -107 -127l8 -6q46 21 99 21q79 0 129.5 -44.5t50.5 -115.5q0 -79 -62.5 -129.5t-156.5 -50.5q-71 0 -137.5 30t-110.5 78l51 49q33 -40 85 -65t106 -25q61 0 101 31t40 80q0 44 -36 73t-93 29q-55 0 -96 -26l-52 49l101 151q-85 6 -163 34t-153 80.5
t-134 142.5t-91 208l109 41q51 -191 182.5 -294t304.5 -103q58 0 114 11.5t109 37t93 63.5t64.5 94.5t24.5 125.5q0 59 -21 106t-43.5 74t-77 54.5t-79.5 36.5t-94 30q-25 8 -37 12l-149 47q-44 14 -76 25.5t-82 33.5t-85.5 44.5t-75.5 58t-65 74.5t-42 93t-17 115
q0 83 29.5 152.5t79 118t115.5 82t138.5 49.5t147.5 16q187 0 329 -98.5t196 -284.5l-105 -45q-47 145 -161.5 231.5t-272.5 86.5t-265.5 -82t-107.5 -217q0 -62 28 -116t60 -85.5t90.5 -63t84.5 -41.5t77 -27l4.5 -1.5t3.5 -1.5l154 -49q11 -4 35 -11q41 -13 62.5 -20
t62 -22t64 -27t58 -32t55 -40t44.5 -48t37 -58.5t22 -70t9 -83.5q0 -132 -72 -236.5t-187 -160.5t-251 -62z" />
    <glyph glyph-name="scedilla" unicode="&#x15f;" horiz-adv-x="1005" 
d="M553 -35q-52 -72 -107 -127l9 -6q47 21 98 21q79 0 129.5 -44.5t50.5 -115.5q0 -79 -62.5 -129.5t-156.5 -50.5q-71 0 -137.5 30t-110.5 78l51 49q33 -40 85 -65t106 -25q61 0 101 31t40 80q0 44 -36 73t-93 29q-55 0 -96 -26l-51 49l100 153q-144 15 -252 99t-149 213
l102 34q44 -110 145.5 -181t212.5 -71q42 0 86 11t88.5 35t72.5 69.5t28 106.5q0 40 -14.5 71.5t-35.5 52.5t-57.5 38.5t-66.5 27.5t-76 23l-106 30q-43 11 -74 21.5t-82.5 37.5t-85 59t-59 86t-25.5 120q0 62 22 114.5t58 87.5t83.5 60t97.5 36t101 11q138 0 247.5 -78
t148.5 -196l-109 -37q-34 91 -112 152t-189 61q-102 0 -168.5 -54.5t-66.5 -144.5q0 -44 18.5 -81t44 -60.5t67 -44.5t71.5 -31.5t73 -23.5l109 -31q35 -10 56.5 -17t57.5 -21.5t58.5 -28.5t50 -37t43 -48t26.5 -60.5t11 -76.5q0 -137 -104 -234t-267 -104z" />
    <glyph glyph-name="Scaron" unicode="&#x160;" horiz-adv-x="1316" 
d="M727 1720h-154l-264 297h103q57 -53 80 -74.5t65.5 -70.5t71.5 -96h45q29 47 71 96t64 70.5t78 74.5h104zM680 -35q-71 0 -139 14t-139.5 48.5t-130 86t-108 133.5t-77.5 185l109 41q51 -191 182.5 -294t304.5 -103q58 0 114 11.5t109 37t93 63.5t64.5 94.5t24.5 125.5
q0 59 -21 106t-43.5 74t-77 54.5t-79.5 36.5t-94 30q-25 8 -37 12l-149 47q-44 14 -76 25.5t-82 33.5t-85.5 44.5t-75.5 58t-65 74.5t-42 93t-17 115q0 83 29.5 152.5t79 118t115.5 82t138.5 49.5t147.5 16q187 0 329 -98.5t196 -284.5l-105 -45q-47 145 -161.5 231.5
t-272.5 86.5t-265.5 -82t-107.5 -217q0 -62 28 -116t60 -85.5t90.5 -63t84.5 -41.5t77 -27l4.5 -1.5t3.5 -1.5l154 -49q11 -4 35 -11q41 -13 62.5 -20t62 -22t64 -27t58 -32t55 -40t44.5 -48t37 -58.5t22 -70t9 -83.5q0 -104 -44.5 -191.5t-119.5 -145.5t-171.5 -90
t-201.5 -32z" />
    <glyph glyph-name="scaron" unicode="&#x161;" horiz-adv-x="1005" 
d="M580 1280h-160l-297 356h106q172 -168 252 -286h39q34 51 81 106.5t77 86.5t92 93h107zM532 -35q-163 0 -288.5 87t-171.5 229l102 34q44 -110 145.5 -181t212.5 -71q42 0 86 11t88.5 35t72.5 69.5t28 106.5q0 40 -14.5 71.5t-35.5 52.5t-57.5 38.5t-66.5 27.5t-76 23
l-106 30q-43 11 -74 21.5t-82.5 37.5t-85 59t-59 86t-25.5 120q0 62 22 114.5t58 87.5t83.5 60t97.5 36t101 11q138 0 247.5 -78t148.5 -196l-109 -37q-34 91 -112 152t-189 61q-102 0 -168.5 -54.5t-66.5 -144.5q0 -44 18.5 -81t44 -60.5t67 -44.5t71.5 -31.5t73 -23.5
l109 -31q35 -10 56.5 -17t57.5 -21.5t58.5 -28.5t50 -37t43 -48t26.5 -60.5t11 -76.5q0 -142 -110.5 -240t-281.5 -98z" />
    <glyph glyph-name="uni0162" unicode="&#x162;" horiz-adv-x="1298" 
d="M709 0h-17q-76 -110 -131 -162l8 -6q47 21 99 21q79 0 129.5 -44.5t50.5 -115.5q0 -79 -62.5 -129.5t-156.5 -50.5q-71 0 -137.5 30t-110.5 78l51 49q33 -40 85 -65t106 -25q61 0 101 31t40 80q0 44 -36 73t-93 29q-55 0 -96 -26l-52 49l121 184h-18q0 1017 22 1511
q-209 -20 -579 -20v106h1233v-106q-371 0 -580 20q23 -516 23 -1511z" />
    <glyph glyph-name="uni0163" unicode="&#x163;" horiz-adv-x="759" 
d="M713 1128v-98q-227 0 -373 21q20 -244 20 -689q0 -38 0.5 -58.5t3.5 -57t8.5 -57t17.5 -47.5t29 -41t43 -24.5t60 -10.5q95 0 191 65v-108q-89 -58 -207 -58q-27 0 -39 2q-58 -80 -109 -129l9 -6q47 21 98 21q79 0 129.5 -44.5t50.5 -115.5q0 -79 -62.5 -129.5
t-156.5 -50.5q-71 0 -137.5 30t-110.5 78l51 49q33 -40 85 -65t106 -25q61 0 101 31t40 80q0 44 -36 73t-93 29q-55 0 -96 -26l-51 49l110 168q-35 14 -61 37.5t-41 56t-24.5 61t-13 70t-4.5 64t-1 61.5q0 476 22 717q-103 -21 -247 -21v98q153 0 247 -22q-22 127 -22 360
h110q0 -227 -20 -360q133 22 373 22z" />
    <glyph glyph-name="Tcaron" unicode="&#x164;" horiz-adv-x="1298" 
d="M727 1720h-154l-264 297h103q57 -53 80 -74.5t65.5 -70.5t71.5 -96h45q29 47 71 96t64 70.5t78 74.5h104zM709 0h-119q0 1017 22 1511q-209 -20 -579 -20v106h1233v-106q-371 0 -580 20q23 -516 23 -1511z" />
    <glyph glyph-name="tcaron" unicode="&#x165;" horiz-adv-x="759" 
d="M838 1190h-76q29 59 43 86.5t44.5 75t65.5 86.5q-100 18 -100 96q0 41 30 70.5t73 29.5q41 0 70.5 -29t29.5 -69q0 -36 -31 -94t-149 -252zM506 -35q-53 0 -94.5 14.5t-68 34.5t-45.5 55t-28 63t-14 72t-5.5 67t-0.5 63q0 476 22 717q-103 -21 -247 -21v98q153 0 247 -22
q-22 127 -22 360h110q0 -227 -20 -360q133 22 373 22v-98q-227 0 -373 21q20 -244 20 -689q0 -38 0.5 -58.5t3.5 -57t8.5 -57t17.5 -47.5t29 -41t43 -24.5t60 -10.5q95 0 191 65v-108q-89 -58 -207 -58z" />
    <glyph glyph-name="Tbar" unicode="&#x166;" horiz-adv-x="1298" 
d="M1266 1597v-106q-371 0 -580 20q12 -262 19 -665h370v-96h-368q2 -252 2 -750h-119q0 498 2 750h-369v96h371q8 441 18 665q-209 -20 -579 -20v106h1233z" />
    <glyph glyph-name="tbar" unicode="&#x167;" horiz-adv-x="759" 
d="M713 1128v-98q-227 0 -373 21q15 -191 18 -365h338v-94h-336v-230q0 -38 0.5 -58.5t3.5 -57t8.5 -57t17.5 -47.5t29 -41t43 -24.5t60 -10.5q95 0 191 65v-108q-89 -58 -207 -58q-53 0 -94.5 14.5t-68 34.5t-45.5 55t-28 63t-14 72t-5.5 67t-0.5 63q0 172 2 258h-225v94
h225q7 198 20 365q-103 -21 -247 -21v98q153 0 247 -22q-22 127 -22 360h110q0 -227 -20 -360q133 22 373 22z" />
    <glyph glyph-name="Umacron" unicode="&#x16a;" horiz-adv-x="1542" 
d="M1100 1839h-656v100h656v-100zM766 -35q-264 0 -412.5 152t-148.5 454v1026h117v-1019q0 -261 118.5 -383.5t331.5 -122.5q211 0 330 122.5t119 383.5v1019h118v-1026q0 -137 -35.5 -247t-105 -190.5t-179.5 -124.5t-253 -44z" />
    <glyph glyph-name="umacron" unicode="&#x16b;" horiz-adv-x="1275" 
d="M961 1430h-689v98h689v-98zM578 -35q-61 0 -116.5 13.5t-109.5 47t-93 84t-63 130t-24 180.5v708h111v-661q0 -89 19 -160t50 -115t73.5 -73.5t86.5 -41t92 -11.5q87 0 159 38t117 99.5t69 134.5t24 147v643h110v-776q0 -131 8.5 -204t28.5 -148h-112q-20 74 -24 124
t11 142h-22q-118 -301 -395 -301z" />
    <glyph glyph-name="Uring" unicode="&#x16e;" horiz-adv-x="1542" 
d="M770 1714q-96 0 -158.5 61t-62.5 156q0 92 63 152.5t158 60.5q94 0 156.5 -60.5t62.5 -152.5q0 -95 -62.5 -156t-156.5 -61zM770 1798q59 0 98 36t39 97q0 59 -39 94t-98 35q-60 0 -98.5 -35t-38.5 -94q0 -62 38.5 -97.5t98.5 -35.5zM766 -35q-264 0 -412.5 152
t-148.5 454v1026h117v-1019q0 -261 118.5 -383.5t331.5 -122.5q211 0 330 122.5t119 383.5v1019h118v-1026q0 -137 -35.5 -247t-105 -190.5t-179.5 -124.5t-253 -44z" />
    <glyph glyph-name="uring" unicode="&#x16f;" horiz-adv-x="1275" 
d="M616 1245q-96 0 -158.5 61t-62.5 156q0 92 63 152.5t158 60.5q94 0 157 -60.5t63 -152.5q0 -95 -63 -156t-157 -61zM616 1329q59 0 97.5 36t38.5 97q0 59 -38.5 94t-97.5 35q-61 0 -100 -35t-39 -94q0 -62 39 -97.5t100 -35.5zM578 -35q-61 0 -116.5 13.5t-109.5 47
t-93 84t-63 130t-24 180.5v708h111v-661q0 -89 19 -160t50 -115t73.5 -73.5t86.5 -41t92 -11.5q87 0 159 38t117 99.5t69 134.5t24 147v643h110v-776q0 -131 8.5 -204t28.5 -148h-112q-20 74 -24 124t11 142h-22q-118 -301 -395 -301z" />
    <glyph glyph-name="Uhungarumlaut" unicode="&#x170;" horiz-adv-x="1542" 
d="M913 2038l-274 -318h-102l213 318h163zM1212 2038l-292 -318h-103l232 318h163zM766 -35q-264 0 -412.5 152t-148.5 454v1026h117v-1019q0 -261 118.5 -383.5t331.5 -122.5q211 0 330 122.5t119 383.5v1019h118v-1026q0 -137 -35.5 -247t-105 -190.5t-179.5 -124.5
t-253 -44z" />
    <glyph glyph-name="uhungarumlaut" unicode="&#x171;" horiz-adv-x="1275" 
d="M760 1673l-275 -395h-98l211 395h162zM1063 1673l-295 -395h-98l231 395h162zM578 -35q-61 0 -116.5 13.5t-109.5 47t-93 84t-63 130t-24 180.5v708h111v-661q0 -89 19 -160t50 -115t73.5 -73.5t86.5 -41t92 -11.5q87 0 159 38t117 99.5t69 134.5t24 147v643h110v-776
q0 -131 8.5 -204t28.5 -148h-112q-20 74 -24 124t11 142h-22q-118 -301 -395 -301z" />
    <glyph glyph-name="Uogonek" unicode="&#x172;" horiz-adv-x="1542" 
d="M1221 578v1019h118v-1026q0 -253 -119 -411.5t-352 -188.5q-129 -83 -129 -188q0 -73 53 -117.5t132 -44.5q40 0 88 14v-84q-55 -14 -97 -14q-114 0 -190 63t-76 169q0 114 109 196q-261 2 -407 154t-146 452v1026h117v-1019q0 -261 118.5 -383.5t331.5 -122.5
q211 0 330 122.5t119 383.5z" />
    <glyph glyph-name="uogonek" unicode="&#x173;" horiz-adv-x="1275" 
d="M1116 -379q40 0 88 14v-84q-55 -14 -98 -14q-112 0 -187 62.5t-75 164.5q0 139 164 236q-20 74 -24 124t11 142h-22q-118 -301 -395 -301q-61 0 -116.5 13.5t-109.5 47t-93 84t-63 130t-24 180.5v708h111v-661q0 -89 19 -160t50 -115t73.5 -73.5t86.5 -41t92 -11.5
q87 0 159 38t117 99.5t69 134.5t24 147v643h110v-776q0 -131 8.5 -204t28.5 -148h-10q-176 -95 -176 -217q0 -73 53 -117.5t129 -44.5z" />
    <glyph glyph-name="Wcircumflex" unicode="&#x174;" horiz-adv-x="2318" 
d="M920 1720h-103l264 297h154l264 -297h-104q-54 51 -78 74.5t-65 72t-70 95.5h-45q-29 -47 -71 -95.5t-66.5 -72.5t-79.5 -74zM707 0h-140l-526 1597h123q293 -855 465 -1472h22q146 529 443 1472h131q283 -875 450 -1472h21q199 704 458 1472h125l-526 -1597h-139
q-267 801 -443 1462h-22q-204 -755 -442 -1462z" />
    <glyph glyph-name="wcircumflex" unicode="&#x175;" horiz-adv-x="1849" 
d="M651 1278h-106l297 356h159l297 -356h-106q-57 57 -90.5 92t-78 89t-75.5 104h-49q-79 -120 -248 -285zM567 0h-110l-416 1128h121q11 -30 67.5 -186.5t77 -215t63 -182.5t74.5 -225t62 -206h22q22 76 45 151t49.5 157.5t45.5 139t51.5 150t46.5 134t52 147.5t48 136h117
q4 -12 43.5 -119t47.5 -129t42 -116t46.5 -131.5t41 -120t46 -135.5t40.5 -125t43 -139h23q29 105 59.5 206.5t71.5 224.5t61.5 183t74.5 214.5t65 186.5h122l-417 -1128h-113q-240 656 -350 1001h-8q-127 -390 -355 -1001z" />
    <glyph glyph-name="Ycircumflex" unicode="&#x176;" horiz-adv-x="1409" 
d="M465 1720h-103l265 297h153l264 -297h-104q-54 51 -78 74.5t-65 72t-70 95.5h-45q-29 -47 -71 -95.5t-66.5 -72.5t-79.5 -74zM762 0h-119q0 395 12 592q-228 363 -612 1005h131q308 -523 437 -765q42 -78 81 -154h23q35 67 70 133.5t77.5 141.5t70.5 125t79.5 137t72 122
t80 135.5t74.5 124.5h125q-420 -703 -612 -1005q10 -197 10 -592z" />
    <glyph glyph-name="ycircumflex" unicode="&#x177;" horiz-adv-x="1099" 
d="M264 1278h-106l297 356h159l297 -356h-106q-57 57 -90.5 92t-78 89t-75.5 104h-49q-79 -120 -248 -285zM424 -451h-100l174 441l-461 1138h121q222 -548 383 -1038h22q165 510 379 1038h121z" />
    <glyph glyph-name="Ydieresis" unicode="&#x178;" horiz-adv-x="1409" 
d="M512 1794q-41 0 -69.5 28.5t-28.5 69.5q0 39 28.5 68t69.5 29q39 0 66.5 -29t27.5 -68q0 -41 -27 -69.5t-67 -28.5zM895 1794q-42 0 -69 28t-27 70q0 39 27 68t69 29q39 0 67.5 -29t28.5 -68q0 -41 -28 -69.5t-68 -28.5zM762 0h-119q0 395 12 592q-228 363 -612 1005h131
q308 -523 437 -765q42 -78 81 -154h23q35 67 70 133.5t77.5 141.5t70.5 125t79.5 137t72 122t80 135.5t74.5 124.5h125q-420 -703 -612 -1005q10 -197 10 -592z" />
    <glyph glyph-name="Zacute" unicode="&#x179;" horiz-adv-x="1339" 
d="M1006 2038l-342 -318h-103l264 318h181zM1278 0h-1219v100q357 483 1067 1401l-10 21q-436 -31 -1016 -31v106h1160v-94q-156 -210 -332 -439t-397 -513t-343 -442l11 -23q403 27 1079 27v-113z" />
    <glyph glyph-name="zacute" unicode="&#x17a;" horiz-adv-x="980" 
d="M846 1671l-311 -393h-99l250 393h160zM932 0h-873v82q30 42 128 180.5t144.5 203.5t127.5 177.5t151 206.5t140 186l-9 21q-355 -31 -643 -31v102h787v-81q-447 -624 -695 -945l9 -22q249 22 733 22v-102z" />
    <glyph glyph-name="Zdotaccent" unicode="&#x17b;" horiz-adv-x="1339" 
d="M653 1790q-44 0 -74 31t-30 75q0 42 30 71.5t74 29.5q43 0 73 -30t30 -71q0 -44 -30 -75t-73 -31zM1278 0h-1219v100q357 483 1067 1401l-10 21q-436 -31 -1016 -31v106h1160v-94q-156 -210 -332 -439t-397 -513t-343 -442l11 -23q403 27 1079 27v-113z" />
    <glyph glyph-name="zdotaccent" unicode="&#x17c;" horiz-adv-x="980" 
d="M496 1436q-44 0 -74.5 30t-30.5 74q0 42 30.5 72t74.5 30q42 0 71 -30t29 -72q0 -44 -28.5 -74t-71.5 -30zM932 0h-873v82q30 42 128 180.5t144.5 203.5t127.5 177.5t151 206.5t140 186l-9 21q-355 -31 -643 -31v102h787v-81q-447 -624 -695 -945l9 -22q249 22 733 22
v-102z" />
    <glyph glyph-name="Zcaron" unicode="&#x17d;" horiz-adv-x="1339" 
d="M715 1720h-154l-264 297h102q57 -53 80 -74.5t65.5 -70.5t71.5 -96h46q29 47 70 95t64.5 71.5t77.5 74.5h105zM1278 0h-1219v100q357 483 1067 1401l-10 21q-436 -31 -1016 -31v106h1160v-94q-156 -210 -332 -439t-397 -513t-343 -442l11 -23q403 27 1079 27v-113z" />
    <glyph glyph-name="zcaron" unicode="&#x17e;" horiz-adv-x="980" 
d="M571 1280h-159l-297 356h106q172 -168 252 -286h39q34 51 81 106.5t77 86.5t92 93h106zM932 0h-873v82q30 42 128 180.5t144.5 203.5t127.5 177.5t151 206.5t140 186l-9 21q-355 -31 -643 -31v102h787v-81q-447 -624 -695 -945l9 -22q249 22 733 22v-102z" />
    <glyph glyph-name="uni0218" unicode="&#x218;" horiz-adv-x="1316" 
d="M680 -35q-71 0 -139 14t-139.5 48.5t-130 86t-108 133.5t-77.5 185l109 41q51 -191 182.5 -294t304.5 -103q58 0 114 11.5t109 37t93 63.5t64.5 94.5t24.5 125.5q0 59 -21 106t-43.5 74t-77 54.5t-79.5 36.5t-94 30q-25 8 -37 12l-149 47q-44 14 -76 25.5t-82 33.5
t-85.5 44.5t-75.5 58t-65 74.5t-42 93t-17 115q0 83 29.5 152.5t79 118t115.5 82t138.5 49.5t147.5 16q187 0 329 -98.5t196 -284.5l-105 -45q-47 145 -161.5 231.5t-272.5 86.5t-265.5 -82t-107.5 -217q0 -62 28 -116t60 -85.5t90.5 -63t84.5 -41.5t77 -27l4.5 -1.5
t3.5 -1.5l154 -49q11 -4 35 -11q41 -13 62.5 -20t62 -22t64 -27t58 -32t55 -40t44.5 -48t37 -58.5t22 -70t9 -83.5q0 -104 -44.5 -191.5t-119.5 -145.5t-171.5 -90t-201.5 -32zM629 -498h-58q65 125 125 199q-62 0 -89 25.5t-27 64.5q0 40 29 65t71 25q41 0 69.5 -28
t28.5 -68q0 -38 -28 -89.5t-121 -193.5z" />
    <glyph glyph-name="uni0219" unicode="&#x219;" horiz-adv-x="1005" 
d="M532 -35q-163 0 -288.5 87t-171.5 229l102 34q44 -110 145.5 -181t212.5 -71q42 0 86 11t88.5 35t72.5 69.5t28 106.5q0 40 -14.5 71.5t-35.5 52.5t-57.5 38.5t-66.5 27.5t-76 23l-106 30q-43 11 -74 21.5t-82.5 37.5t-85 59t-59 86t-25.5 120q0 62 22 114.5t58 87.5
t83.5 60t97.5 36t101 11q138 0 247.5 -78t148.5 -196l-109 -37q-34 91 -112 152t-189 61q-102 0 -168.5 -54.5t-66.5 -144.5q0 -44 18.5 -81t44 -60.5t67 -44.5t71.5 -31.5t73 -23.5l109 -31q35 -10 56.5 -17t57.5 -21.5t58.5 -28.5t50 -37t43 -48t26.5 -60.5t11 -76.5
q0 -142 -110.5 -240t-281.5 -98zM477 -498h-57q65 125 125 199q-62 0 -89.5 25.5t-27.5 64.5q0 40 29 65t71 25q41 0 70 -28t29 -68q0 -38 -27.5 -88.5t-122.5 -194.5z" />
    <glyph glyph-name="uni021A" unicode="&#x21a;" horiz-adv-x="1298" 
d="M709 0h-119q0 1017 22 1511q-209 -20 -579 -20v106h1233v-106q-371 0 -580 20q23 -516 23 -1511zM590 -498h-58q65 125 125 199q-62 0 -89 25.5t-27 64.5q0 40 29 65t71 25q41 0 69.5 -28t28.5 -68q0 -38 -28 -89.5t-121 -193.5z" />
    <glyph glyph-name="uni021B" unicode="&#x21b;" horiz-adv-x="759" 
d="M506 -35q-53 0 -94.5 14.5t-68 34.5t-45.5 55t-28 63t-14 72t-5.5 67t-0.5 63q0 476 22 717q-103 -21 -247 -21v98q153 0 247 -22q-22 127 -22 360h110q0 -227 -20 -360q133 22 373 22v-98q-227 0 -373 21q20 -244 20 -689q0 -38 0.5 -58.5t3.5 -57t8.5 -57t17.5 -47.5
t29 -41t43 -24.5t60 -10.5q95 0 191 65v-108q-89 -58 -207 -58zM387 -498h-57q65 125 125 199q-62 0 -89.5 25.5t-27.5 64.5q0 40 29 65t71 25q41 0 70 -28t29 -68q0 -38 -27.5 -88.5t-122.5 -194.5z" />
    <glyph glyph-name="gravecomb" unicode="&#x300;" horiz-adv-x="0" 
d="M-104 1278h-101l-311 393h162z" />
    <glyph glyph-name="acutecomb" unicode="&#x301;" horiz-adv-x="0" 
d="M106 1671l-311 -393h-98l250 393h159z" />
    <glyph glyph-name="uni0302" unicode="&#x302;" horiz-adv-x="0" 
d="M-678 1278h-106l297 356h159l297 -356h-106q-57 57 -90.5 92t-78 89t-75.5 104h-49q-79 -120 -248 -285z" />
    <glyph glyph-name="tildecomb" unicode="&#x303;" horiz-adv-x="0" 
d="M-317 1341q-15 0 -29.5 2t-25 4.5t-23.5 8.5l-19.5 9t-19 12.5t-17 12.5t-18 14.5t-16.5 14.5l-37 33q-45 39 -68 47q-17 6 -35 6q-49 0 -79.5 -42t-30.5 -107h-86q2 106 57 171.5t143 65.5q43 0 76.5 -17.5t73.5 -51.5l41 -37q22 -18 35 -27t36.5 -19.5t45.5 -10.5
q50 0 77 41t27 108h86q0 -108 -51 -173t-143 -65z" />
    <glyph glyph-name="uni0304" unicode="&#x304;" horiz-adv-x="0" 
d="M-90 1427h-688v99h688v-99z" />
    <glyph glyph-name="uni0306" unicode="&#x306;" horiz-adv-x="0" 
d="M-403 1278q-169 0 -267 110.5t-104 284.5h102q6 -138 80.5 -218.5t190.5 -80.5t190 80.5t78 218.5h104q-6 -174 -104.5 -284.5t-269.5 -110.5z" />
    <glyph glyph-name="uni0307" unicode="&#x307;" horiz-adv-x="0" 
d="M-246 1434q-44 0 -74 30t-30 74q0 42 30 72t74 30q42 0 71.5 -30t29.5 -72q0 -44 -29 -74t-72 -30z" />
    <glyph glyph-name="uni0308" unicode="&#x308;" horiz-adv-x="0" 
d="M-848 1382q-41 0 -68.5 29.5t-27.5 69.5q0 39 27.5 66.5t68.5 27.5t67.5 -27.5t26.5 -66.5q0 -41 -27 -70t-67 -29zM-504 1382q-41 0 -68.5 29.5t-27.5 69.5q0 39 27.5 66.5t68.5 27.5q39 0 66.5 -27.5t27.5 -66.5q0 -40 -27.5 -69.5t-66.5 -29.5z" />
    <glyph glyph-name="uni030A" unicode="&#x30a;" horiz-adv-x="0" 
d="M-236 1245q-96 0 -158.5 61t-62.5 156q0 92 63 152.5t158 60.5q94 0 157 -60.5t63 -152.5q0 -95 -63 -156t-157 -61zM-236 1329q59 0 97.5 36t38.5 97q0 59 -38.5 94t-97.5 35q-61 0 -100 -35t-39 -94q0 -62 39 -97.5t100 -35.5z" />
    <glyph glyph-name="uni030B" unicode="&#x30b;" horiz-adv-x="0" 
d="M-117 1673l-274 -395h-98l210 395h162zM186 1673l-295 -395h-98l232 395h161z" />
    <glyph glyph-name="uni030C" unicode="&#x30c;" horiz-adv-x="0" 
d="M-328 1278h-159l-297 356h106q172 -168 252 -286h39q34 51 81 106.5t77 86.5t92 93h106z" />
    <glyph glyph-name="uni0312" unicode="&#x312;" horiz-adv-x="0" 
d="M-428 1333q0 36 29.5 91.5t146.5 248.5h76q-87 -174 -141 -266q44 6 66 -18.5t22 -61.5q0 -42 -28.5 -67t-68.5 -25q-44 0 -73 28t-29 70z" />
    <glyph glyph-name="uni0326" unicode="&#x326;" horiz-adv-x="0" 
d="M-334 -498h-57q65 125 125 199q-62 0 -89.5 25.5t-27.5 64.5q0 40 29 65t71 25q41 0 70 -28t29 -68q0 -38 -27.5 -88.5t-122.5 -194.5z" />
    <glyph glyph-name="uni0327" unicode="&#x327;" horiz-adv-x="0" 
d="M-639 -487q-71 0 -137.5 30t-110.5 78l51 49q33 -40 85 -65t106 -25q61 0 101 31t40 80q0 44 -36 73t-93 29q-55 0 -96 -26l-51 49l121 184h84q-74 -107 -132 -162l9 -6q47 21 98 21q79 0 129.5 -44.5t50.5 -115.5q0 -79 -62.5 -129.5t-156.5 -50.5z" />
    <glyph glyph-name="uni0328" unicode="&#x328;" horiz-adv-x="0" 
d="M-641 -483q-112 0 -187 62.5t-75 164.5q0 139 164 236h102q-176 -95 -176 -218q0 -73 53 -117t129 -44q40 0 88 14v-84q-55 -14 -98 -14z" />
    <glyph glyph-name="uni0335" unicode="&#x335;" horiz-adv-x="0" 
d="M-725 610h670v-94h-670v94z" />
    <glyph glyph-name="uni0337" unicode="&#x337;" horiz-adv-x="0" 
d="M-477 537v100l514 369v-103z" />
    <glyph glyph-name="uni0338" unicode="&#x338;" horiz-adv-x="0" 
d="M-1034 -55h-121l917 1235h115z" />
    <glyph glyph-name="Wgrave" unicode="&#x1e80;" horiz-adv-x="2318" 
d="M1239 1720h-104l-340 318h178zM707 0h-140l-526 1597h123q293 -855 465 -1472h22q146 529 443 1472h131q283 -875 450 -1472h21q199 704 458 1472h125l-526 -1597h-139q-267 801 -443 1462h-22q-204 -755 -442 -1462z" />
    <glyph glyph-name="wgrave" unicode="&#x1e81;" horiz-adv-x="1849" 
d="M979 1278h-100l-312 393h162zM567 0h-110l-416 1128h121q11 -30 67.5 -186.5t77 -215t63 -182.5t74.5 -225t62 -206h22q22 76 45 151t49.5 157.5t45.5 139t51.5 150t46.5 134t52 147.5t48 136h117q4 -12 43.5 -119t47.5 -129t42 -116t46.5 -131.5t41 -120t46 -135.5
t40.5 -125t43 -139h23q29 105 59.5 206.5t71.5 224.5t61.5 183t74.5 214.5t65 186.5h122l-417 -1128h-113q-240 656 -350 1001h-8q-127 -390 -355 -1001z" />
    <glyph glyph-name="Wacute" unicode="&#x1e82;" horiz-adv-x="2318" 
d="M1528 2038l-342 -318h-103l265 318h180zM707 0h-140l-526 1597h123q293 -855 465 -1472h22q146 529 443 1472h131q283 -875 450 -1472h21q199 704 458 1472h125l-526 -1597h-139q-267 801 -443 1462h-22q-204 -755 -442 -1462z" />
    <glyph glyph-name="wacute" unicode="&#x1e83;" horiz-adv-x="1849" 
d="M1278 1671l-311 -393h-99l250 393h160zM567 0h-110l-416 1128h121q11 -30 67.5 -186.5t77 -215t63 -182.5t74.5 -225t62 -206h22q22 76 45 151t49.5 157.5t45.5 139t51.5 150t46.5 134t52 147.5t48 136h117q4 -12 43.5 -119t47.5 -129t42 -116t46.5 -131.5t41 -120
t46 -135.5t40.5 -125t43 -139h23q29 105 59.5 206.5t71.5 224.5t61.5 183t74.5 214.5t65 186.5h122l-417 -1128h-113q-240 656 -350 1001h-8q-127 -390 -355 -1001z" />
    <glyph glyph-name="Wdieresis" unicode="&#x1e84;" horiz-adv-x="2318" 
d="M969 1794q-41 0 -70 28.5t-29 69.5q0 39 29 68t70 29q39 0 66.5 -29t27.5 -68q0 -41 -27 -69.5t-67 -28.5zM1352 1794q-42 0 -69.5 28t-27.5 70q0 39 27.5 68t69.5 29q39 0 67.5 -29t28.5 -68q0 -41 -28 -69.5t-68 -28.5zM707 0h-140l-526 1597h123q293 -855 465 -1472
h22q146 529 443 1472h131q283 -875 450 -1472h21q199 704 458 1472h125l-526 -1597h-139q-267 801 -443 1462h-22q-204 -755 -442 -1462z" />
    <glyph glyph-name="wdieresis" unicode="&#x1e85;" horiz-adv-x="1849" 
d="M752 1382q-41 0 -69 29.5t-28 69.5q0 39 28 66.5t69 27.5t67.5 -27.5t26.5 -66.5q0 -41 -27 -70t-67 -29zM1096 1382q-41 0 -69 29.5t-28 69.5q0 39 28 66.5t69 27.5q39 0 66.5 -27.5t27.5 -66.5q0 -40 -27.5 -69.5t-66.5 -29.5zM567 0h-110l-416 1128h121
q11 -30 67.5 -186.5t77 -215t63 -182.5t74.5 -225t62 -206h22q22 76 45 151t49.5 157.5t45.5 139t51.5 150t46.5 134t52 147.5t48 136h117q4 -12 43.5 -119t47.5 -129t42 -116t46.5 -131.5t41 -120t46 -135.5t40.5 -125t43 -139h23q29 105 59.5 206.5t71.5 224.5t61.5 183
t74.5 214.5t65 186.5h122l-417 -1128h-113q-240 656 -350 1001h-8q-127 -390 -355 -1001z" />
    <glyph glyph-name="uni1E9E" unicode="&#x1e9e;" horiz-adv-x="1540" 
d="M322 0h-119v948q0 46 1.5 81.5t7.5 91.5t17 100.5t32 99.5t50.5 96.5t74.5 83.5t101 68.5t134 43.5t170 17q256 0 411.5 -117t155.5 -331q0 -152 -84 -249t-232 -114v-22q165 0 275 -103.5t110 -277.5q0 -60 -14 -115t-52 -111.5t-97 -97t-157.5 -66.5t-225.5 -26h-166
v106h190q89 0 158.5 17.5t114.5 47t74 71t41 86t12 94.5q0 157 -110.5 244.5t-287.5 87.5h-108v100h123q31 0 65.5 5.5t81 25.5t82 51.5t61 90.5t25.5 136q0 172 -118.5 269.5t-323.5 97.5q-75 0 -138.5 -14t-109 -36t-82 -57t-59.5 -68.5t-40 -79t-25 -80.5t-12.5 -81.5
t-5.5 -73t-1 -63.5v-977z" />
    <glyph glyph-name="Ygrave" unicode="&#x1ef2;" horiz-adv-x="1409" 
d="M784 1720h-104l-340 318h178zM762 0h-119q0 395 12 592q-228 363 -612 1005h131q308 -523 437 -765q42 -78 81 -154h23q35 67 70 133.5t77.5 141.5t70.5 125t79.5 137t72 122t80 135.5t74.5 124.5h125q-420 -703 -612 -1005q10 -197 10 -592z" />
    <glyph glyph-name="ygrave" unicode="&#x1ef3;" horiz-adv-x="1099" 
d="M592 1278h-100l-312 393h162zM424 -451h-100l174 441l-461 1138h121q222 -548 383 -1038h22q165 510 379 1038h121z" />
    <glyph glyph-name="uni2000" unicode="&#x2000;" horiz-adv-x="1024" 
 />
    <glyph glyph-name="uni2001" unicode="&#x2001;" 
 />
    <glyph glyph-name="uni2002" unicode="&#x2002;" horiz-adv-x="1024" 
 />
    <glyph glyph-name="uni2003" unicode="&#x2003;" 
 />
    <glyph glyph-name="uni2004" unicode="&#x2004;" horiz-adv-x="681" 
 />
    <glyph glyph-name="uni2005" unicode="&#x2005;" horiz-adv-x="512" 
 />
    <glyph glyph-name="uni2006" unicode="&#x2006;" horiz-adv-x="342" 
 />
    <glyph glyph-name="uni2007" unicode="&#x2007;" horiz-adv-x="567" 
 />
    <glyph glyph-name="uni2008" unicode="&#x2008;" horiz-adv-x="468" 
 />
    <glyph glyph-name="uni2009" unicode="&#x2009;" horiz-adv-x="256" 
 />
    <glyph glyph-name="uni200A" unicode="&#x200a;" horiz-adv-x="86" 
 />
    <glyph glyph-name="uni200B" unicode="&#x200b;" horiz-adv-x="0" 
 />
    <glyph glyph-name="endash" unicode="&#x2013;" horiz-adv-x="1011" 
d="M891 575h-770v97h770v-97z" />
    <glyph glyph-name="emdash" unicode="&#x2014;" horiz-adv-x="1441" 
d="M1321 575h-1200v97h1200v-97z" />
    <glyph glyph-name="quoteleft" unicode="&#x2018;" horiz-adv-x="450" 
d="M285 1630h75q-29 -58 -43.5 -85.5t-45 -75t-64.5 -85.5q100 -16 100 -98q0 -41 -29.5 -70.5t-72.5 -29.5q-41 0 -71 29.5t-30 70.5q0 33 27 84.5t124 210.5q6 10 10 16t9.5 15.5t10.5 17.5z" />
    <glyph glyph-name="quoteright" unicode="&#x2019;" horiz-adv-x="456" 
d="M197 1190h-78q29 58 43.5 85.5t45 75t64.5 85.5q-100 18 -100 98q0 41 29.5 69.5t72.5 28.5q42 0 71.5 -28.5t29.5 -69.5q0 -36 -30.5 -93.5t-147.5 -250.5z" />
    <glyph glyph-name="quotesinglbase" unicode="&#x201a;" horiz-adv-x="436" 
d="M147 -254h-75q77 162 151 246q-100 16 -100 98q0 41 29.5 70.5t72.5 29.5q41 0 71 -29.5t30 -70.5q0 -33 -28 -86.5t-116 -200.5q-23 -37 -35 -57z" />
    <glyph glyph-name="quotedblleft" unicode="&#x201c;" horiz-adv-x="751" 
d="M285 1630h75q-29 -58 -43.5 -85.5t-45 -75t-64.5 -85.5q100 -16 100 -98q0 -41 -29.5 -70.5t-72.5 -29.5q-41 0 -71 29.5t-30 70.5q0 33 27 84.5t124 210.5q6 10 10 16t9.5 15.5t10.5 17.5zM584 1630h75q-77 -162 -151 -246q100 -16 100 -98q0 -41 -29.5 -70.5
t-72.5 -29.5q-41 0 -70.5 29.5t-29.5 70.5q0 36 29 90t149 254z" />
    <glyph glyph-name="quotedblright" unicode="&#x201d;" horiz-adv-x="757" 
d="M195 1190h-76q29 58 43.5 85.5t45 75t64.5 85.5q-100 16 -100 98q0 41 29.5 69.5t72.5 28.5q42 0 71.5 -28.5t29.5 -69.5q0 -36 -31.5 -94.5t-148.5 -249.5zM496 1190h-76l13.5 27t14.5 28.5t13.5 26t15 28.5t15 26t18 28.5t18 26t21 29t22.5 26.5q-98 16 -98 98
q0 41 29.5 69.5t72.5 28.5q42 0 71.5 -28.5t29.5 -69.5q0 -36 -31.5 -94.5t-148.5 -249.5z" />
    <glyph glyph-name="quotedblbase" unicode="&#x201e;" horiz-adv-x="735" 
d="M145 -252h-75q77 162 151 246q-100 16 -100 98q0 42 29.5 71.5t72.5 29.5q41 0 71 -30t30 -71q0 -33 -28 -86.5t-116 -200.5q-23 -37 -35 -57zM446 -252h-75q77 162 151 246q-100 16 -100 98q0 42 30 71.5t72 29.5q41 0 71 -30t30 -71q0 -33 -28 -86.5t-116 -200.5
q-23 -37 -35 -57z" />
    <glyph glyph-name="dagger" unicode="&#x2020;" horiz-adv-x="983" 
d="M547 430h-111q0 480 13 766q-129 -12 -359 -12v106q230 0 359 -12q-13 138 -13 360h111q0 -233 -12 -360q129 12 358 12v-106q-229 0 -358 12q12 -264 12 -766z" />
    <glyph glyph-name="daggerdbl" unicode="&#x2021;" horiz-adv-x="1087" 
d="M944 1290v-106q-234 0 -375 22q45 -170 11 -350q144 21 364 21v-107q-227 0 -364 23q22 -131 22 -369h-113q0 225 21 369q-137 -23 -367 -23v107q223 0 367 -21q-28 174 0 350q-131 -22 -367 -22v106q236 0 367 -22q-21 144 -21 370h113q0 -77 -1 -120.5t-9 -114.5
t-23 -135q141 22 375 22z" />
    <glyph glyph-name="bullet" unicode="&#x2022;" horiz-adv-x="765" 
d="M385 426q-76 0 -128 54.5t-52 131.5q0 74 52 126.5t128 52.5q75 0 126.5 -52.5t51.5 -126.5q0 -77 -51.5 -131.5t-126.5 -54.5z" />
    <glyph glyph-name="ellipsis" unicode="&#x2026;" horiz-adv-x="1306" 
d="M236 -14q-43 0 -73 30.5t-30 73.5q0 41 30 70.5t73 29.5q41 0 70.5 -29.5t29.5 -70.5q0 -43 -29.5 -73.5t-70.5 -30.5zM653 -14q-42 0 -71 30.5t-29 73.5q0 42 29 71t71 29q43 0 72 -29t29 -71q0 -43 -29.5 -73.5t-71.5 -30.5zM1073 -14q-43 0 -72.5 30.5t-29.5 73.5
q0 41 29.5 70.5t72.5 29.5q41 0 71 -29.5t30 -70.5q0 -43 -30 -73.5t-71 -30.5z" />
    <glyph glyph-name="uni202F" unicode="&#x202f;" horiz-adv-x="409" 
 />
    <glyph glyph-name="perthousand" unicode="&#x2030;" horiz-adv-x="2322" 
d="M344 803q-117 0 -189.5 99.5t-72.5 258.5t73 260t189 101t189 -101t73 -260t-72.5 -258.5t-189.5 -99.5zM313 0h-106l1139 1468h98zM344 887q73 0 118.5 74t45.5 200t-45.5 200.5t-118.5 74.5q-74 0 -119 -74.5t-45 -200.5t45 -200t119 -74zM1294 -29q-117 0 -189.5 100
t-72.5 259t72.5 259.5t189.5 100.5t189.5 -100.5t72.5 -259.5t-72.5 -259t-189.5 -100zM1980 -29q-117 0 -189.5 100t-72.5 259t72.5 259.5t189.5 100.5t190 -100.5t73 -259.5t-73 -259t-190 -100zM1294 55q73 0 118.5 74.5t45.5 200.5t-45.5 200t-118.5 74q-74 0 -119 -74
t-45 -200t45 -200.5t119 -74.5zM1980 55q73 0 118.5 74.5t45.5 200.5t-45.5 200t-118.5 74q-74 0 -118.5 -73.5t-44.5 -200.5t44.5 -201t118.5 -74z" />
    <glyph glyph-name="guilsinglleft" unicode="&#x2039;" horiz-adv-x="731" 
d="M588 164h-133l-342 405v9l342 405h133q-77 -90 -120 -139t-113.5 -120t-135.5 -124v-53q65 -53 135.5 -124t113.5 -120t120 -139z" />
    <glyph glyph-name="guilsinglright" unicode="&#x203a;" horiz-adv-x="731" 
d="M276 164h-133q104 125 189 215.5t178 167.5v53q-93 77 -178 167.5t-189 215.5h133l342 -405v-9z" />
    <glyph glyph-name="fraction" unicode="&#x2044;" horiz-adv-x="264" 
d="M-373 0h-106l1138 1468h99z" />
    <glyph glyph-name="uni205F" unicode="&#x205f;" horiz-adv-x="454" 
 />
    <glyph glyph-name="uni2070" unicode="&#x2070;" horiz-adv-x="686" 
d="M344 803q-117 0 -189.5 99.5t-72.5 258.5t73 260t189 101t189 -101t73 -260t-72.5 -258.5t-189.5 -99.5zM344 887q73 0 118.5 74t45.5 200t-45.5 200.5t-118.5 74.5q-74 0 -119 -74.5t-45 -200.5t45 -200t119 -74z" />
    <glyph glyph-name="uni2074" unicode="&#x2074;" horiz-adv-x="645" 
d="M481 817h-88v160h-346v82l346 448h88v-452h99v-78h-99v-160zM393 1384l-254 -329h254v329z" />
    <glyph glyph-name="uni2075" unicode="&#x2075;" horiz-adv-x="634" 
d="M309 803q-90 0 -160 42.5t-94 115.5l80 40q21 -56 69 -87t105 -31q67 0 111.5 43.5t44.5 111.5q0 67 -43 109.5t-107 42.5q-93 0 -145 -84l-74 24l80 377h346v-77h-282l-50 -236q23 30 66 48t88 18q89 0 154 -59.5t65 -160.5q0 -105 -73.5 -171t-180.5 -66z" />
    <glyph glyph-name="uni2076" unicode="&#x2076;" horiz-adv-x="663" 
d="M340 803q-117 0 -187.5 85.5t-70.5 235.5q0 174 90 286t231 112q103 0 164 -58l-49 -63q-49 41 -121 41q-96 0 -158.5 -76.5t-66.5 -214.5h2q21 53 73.5 84t112.5 31q93 0 161.5 -64t68.5 -164q0 -101 -71.5 -168t-178.5 -67zM344 881q63 0 109.5 45t46.5 114
q0 68 -45.5 113t-108.5 45q-68 0 -113 -47t-45 -113q0 -67 46 -112t110 -45z" />
    <glyph glyph-name="uni2077" unicode="&#x2077;" horiz-adv-x="557" 
d="M250 817h-96q0 139 75 322t191 299h-379v80h485v-84q-123 -110 -199.5 -291t-76.5 -326z" />
    <glyph glyph-name="uni2078" unicode="&#x2078;" horiz-adv-x="653" 
d="M326 803q-109 0 -177.5 57.5t-68.5 143.5q0 67 37.5 113.5t93.5 60.5v4q-105 46 -105 149q0 82 63 136.5t157 54.5q93 0 156 -53t63 -134q0 -48 -25.5 -89.5t-77.5 -63.5v-4q58 -15 94.5 -62t36.5 -110q0 -87 -69 -145t-178 -58zM328 1212q56 0 94.5 35t38.5 88
q0 50 -38.5 82.5t-94.5 32.5q-58 0 -95.5 -32.5t-37.5 -82.5q0 -53 37.5 -88t95.5 -35zM328 883q64 0 106.5 37t42.5 96q0 61 -39.5 97t-109.5 36q-73 0 -113.5 -36t-40.5 -97q0 -58 44.5 -95.5t109.5 -37.5z" />
    <glyph glyph-name="uni2079" unicode="&#x2079;" horiz-adv-x="671" 
d="M303 803q-137 0 -219 100l55 60q63 -82 162 -82q96 0 145.5 82t49.5 208q-19 -57 -72 -89.5t-115 -32.5q-94 0 -161.5 65t-67.5 164q0 105 71 174.5t181 69.5q112 0 184 -78.5t72 -245.5q0 -108 -29.5 -195.5t-95.5 -143.5t-160 -56zM322 1116q68 0 113.5 50.5
t45.5 121.5t-44.5 114.5t-108.5 43.5q-68 0 -113 -46t-45 -120q0 -70 43.5 -117t108.5 -47z" />
    <glyph glyph-name="uni2080" unicode="&#x2080;" horiz-adv-x="686" 
d="M344 -285q-117 0 -189.5 100t-72.5 259t72.5 259.5t189.5 100.5t189.5 -100.5t72.5 -259.5t-72.5 -259t-189.5 -100zM344 -201q73 0 118.5 74.5t45.5 200.5t-45.5 200t-118.5 74q-74 0 -119 -74t-45 -200t45 -200.5t119 -74.5z" />
    <glyph glyph-name="uni2081" unicode="&#x2081;" horiz-adv-x="434" 
d="M295 -270h-92v524q-50 -66 -152 -84v90q68 17 112 61.5t44 98.5h88v-690z" />
    <glyph glyph-name="uni2082" unicode="&#x2082;" horiz-adv-x="626" 
d="M547 -270h-461v8q4 50 15 88.5t25 65t46.5 56.5t58.5 49.5t82 57.5q28 20 43 32t39.5 36.5t36.5 52t12 57.5q0 52 -36 85.5t-95 33.5q-68 0 -111.5 -47.5t-43.5 -124.5l-84 15q0 106 67.5 172.5t173.5 66.5q98 0 162 -56t64 -145q0 -69 -35.5 -118t-99.5 -95
q-19 -14 -54 -37.5t-52.5 -36.5t-40 -34t-35 -44t-19.5 -52h342v-86z" />
    <glyph glyph-name="uni2083" unicode="&#x2083;" horiz-adv-x="636" 
d="M313 -285q-90 0 -158.5 43.5t-91.5 114.5l80 39q21 -54 65 -86.5t105 -32.5q63 0 104.5 36t41.5 95q0 56 -42.5 89.5t-117.5 33.5h-68v70h74q63 0 101 33.5t38 85.5q0 54 -39.5 86t-99.5 32q-57 0 -95.5 -33.5t-47.5 -91.5l-82 19q10 84 75.5 135t157.5 51
q94 0 158 -49.5t64 -130.5q0 -57 -31 -103t-84 -61q60 -12 97.5 -56t37.5 -108q0 -86 -65.5 -148.5t-176.5 -62.5z" />
    <glyph glyph-name="uni2084" unicode="&#x2084;" horiz-adv-x="645" 
d="M481 -270h-88v159h-346v82l346 449h88v-453h99v-78h-99v-159zM393 297l-254 -330h254v330z" />
    <glyph glyph-name="uni2085" unicode="&#x2085;" horiz-adv-x="634" 
d="M309 -285q-90 0 -160 42.5t-94 115.5l80 41q21 -56 69 -88.5t105 -32.5q67 0 111.5 44.5t44.5 113.5q0 67 -43 109t-107 42q-93 0 -145 -84l-74 25l80 377h346v-78h-282l-50 -236q23 30 66 48t88 18q89 0 154 -59t65 -160q0 -105 -73.5 -171.5t-180.5 -66.5z" />
    <glyph glyph-name="uni2086" unicode="&#x2086;" horiz-adv-x="663" 
d="M340 -285q-117 0 -187.5 86t-70.5 236q0 174 90 285.5t231 111.5q104 0 164 -57l-49 -64q-49 41 -121 41q-96 0 -158.5 -76.5t-66.5 -214.5h2q21 53 73.5 84t112.5 31q93 0 161.5 -64t68.5 -163q0 -101 -71.5 -168.5t-178.5 -67.5zM344 -207q63 0 109.5 45.5t46.5 114.5
q0 68 -45.5 113t-108.5 45q-68 0 -113 -47t-45 -113q0 -67 46 -112.5t110 -45.5z" />
    <glyph glyph-name="uni2087" unicode="&#x2087;" horiz-adv-x="557" 
d="M250 -270h-96q0 139 74.5 321t191.5 299h-379v80h485v-84q-123 -110 -199.5 -290.5t-76.5 -325.5z" />
    <glyph glyph-name="uni2088" unicode="&#x2088;" horiz-adv-x="653" 
d="M326 -285q-109 0 -177.5 57.5t-68.5 143.5q0 67 37.5 113.5t93.5 60.5v4q-105 46 -105 150q0 82 63 136t157 54q93 0 156 -52.5t63 -133.5q0 -48 -25.5 -90t-77.5 -64v-4q58 -15 94.5 -62t36.5 -110q0 -87 -69 -145t-178 -58zM328 125q56 0 94.5 35t38.5 88
q0 50 -38.5 82t-94.5 32q-58 0 -95.5 -32t-37.5 -82q0 -53 37.5 -88t95.5 -35zM328 -205q64 0 106.5 37t42.5 96q0 61 -39.5 97t-109.5 36q-73 0 -113.5 -36t-40.5 -97q0 -58 44.5 -95.5t109.5 -37.5z" />
    <glyph glyph-name="uni2089" unicode="&#x2089;" horiz-adv-x="671" 
d="M303 -285q-136 0 -219 101l55 59q63 -82 162 -82q96 0 145.5 82.5t49.5 208.5q-19 -58 -72 -90.5t-115 -32.5q-94 0 -161.5 65t-67.5 164q0 105 71 174.5t181 69.5q112 0 184 -78t72 -245q0 -108 -29.5 -195.5t-95.5 -144t-160 -56.5zM322 29q68 0 113.5 50.5t45.5 121.5
t-44.5 114t-108.5 43q-69 0 -113.5 -45.5t-44.5 -119.5q0 -70 43.5 -117t108.5 -47z" />
    <glyph glyph-name="Euro" unicode="&#x20ac;" horiz-adv-x="1615" 
d="M1057 -35q-290 0 -471 160t-221 438q-94 -20 -242 -20v98q137 0 225 -23q-46 148 0 293q-84 -22 -225 -22v98q147 0 239 -20q18 135 70.5 246.5t137 193.5t205 127t267.5 45q278 0 459 -156l-84 -86q-152 133 -379 133q-228 0 -379 -132.5t-217 -370.5q252 20 711 20v-98
q-482 0 -727 22q19 -149 2 -293q256 23 725 23v-98q-457 0 -707 20q68 -236 224.5 -363.5t384.5 -127.5t385 133l82 -84q-187 -156 -465 -156z" />
    <glyph glyph-name="trademark" unicode="&#x2122;" horiz-adv-x="1548" 
d="M393 944h-90v588h-225v84h538v-84h-223v-588zM827 944h-92v672h90q112 -266 228 -535q44 101 121.5 289t101.5 246h90v-672h-90v467q-18 -42 -86 -203.5t-103 -249.5h-71q-180 434 -189 457v-471z" />
    <glyph glyph-name="oneeighth" unicode="&#x215b;" horiz-adv-x="1351" 
d="M295 817h-92v524q-50 -66 -152 -84v91q68 17 112 61.5t44 97.5h88v-690zM61 0h-106l1139 1468h98zM1024 -29q-109 0 -177.5 57.5t-68.5 143.5q0 67 37.5 113.5t93.5 60.5v4q-104 46 -104 150q0 82 62.5 136t156.5 54q93 0 156 -52.5t63 -133.5q0 -49 -25 -90.5t-77 -63.5
v-4q58 -15 94.5 -62t36.5 -110q0 -87 -69.5 -145t-178.5 -58zM1026 381q56 0 94.5 35t38.5 88q0 50 -38.5 82t-94.5 32q-58 0 -95.5 -32t-37.5 -82q0 -53 37.5 -88t95.5 -35zM1026 51q64 0 107 37t43 96q0 61 -40 97t-110 36q-73 0 -113.5 -36t-40.5 -97q0 -58 44.5 -95.5
t109.5 -37.5z" />
    <glyph glyph-name="threeeighths" unicode="&#x215c;" horiz-adv-x="1554" 
d="M313 803q-90 0 -158.5 43.5t-91.5 114.5l80 38q21 -54 65 -86t105 -32q63 0 104.5 36t41.5 95q0 56 -42.5 89.5t-117.5 33.5h-68v69h74q63 0 101 33.5t38 85.5q0 54 -39.5 86.5t-99.5 32.5q-57 0 -95.5 -33.5t-47.5 -91.5l-82 18q10 84 75.5 135.5t157.5 51.5
q93 0 157.5 -50t64.5 -131q0 -57 -31 -102.5t-84 -60.5q60 -12 97.5 -56t37.5 -108q0 -86 -65.5 -148.5t-176.5 -62.5zM264 0h-106l1138 1468h99zM1227 -29q-109 0 -177.5 57.5t-68.5 143.5q0 67 37.5 113.5t93.5 60.5v4q-104 46 -104 150q0 82 62.5 136t156.5 54
q93 0 156 -52.5t63 -133.5q0 -48 -25.5 -90t-77.5 -64v-4q58 -15 95 -62t37 -110q0 -87 -69.5 -145t-178.5 -58zM1229 381q56 0 94.5 35t38.5 88q0 50 -38.5 82t-94.5 32q-58 0 -95.5 -32t-37.5 -82q0 -53 37.5 -88t95.5 -35zM1229 51q64 0 106.5 37t42.5 96q0 61 -39.5 97
t-109.5 36q-73 0 -113.5 -36t-40.5 -97q0 -58 44.5 -95.5t109.5 -37.5z" />
    <glyph glyph-name="fiveeighths" unicode="&#x215d;" horiz-adv-x="1552" 
d="M309 803q-90 0 -160 42.5t-94 115.5l80 40q21 -56 69 -87t105 -31q67 0 111.5 43.5t44.5 111.5q0 67 -43 109.5t-107 42.5q-93 0 -145 -84l-74 24l80 377h346v-77h-282l-50 -236q23 30 66 48t88 18q89 0 154 -59.5t65 -160.5q0 -105 -73.5 -171t-180.5 -66zM262 0h-106
l1138 1468h99zM1225 -29q-109 0 -177.5 57.5t-68.5 143.5q0 67 37.5 113.5t93.5 60.5v4q-104 46 -104 150q0 82 62.5 136t156.5 54q93 0 156 -52.5t63 -133.5q0 -48 -25.5 -90t-77.5 -64v-4q58 -15 95 -62t37 -110q0 -87 -69.5 -145t-178.5 -58zM1227 381q56 0 94.5 35
t38.5 88q0 50 -38.5 82t-94.5 32q-58 0 -95.5 -32t-37.5 -82q0 -53 37.5 -88t95.5 -35zM1227 51q64 0 106.5 37t42.5 96q0 61 -39.5 97t-109.5 36q-73 0 -113.5 -36t-40.5 -97q0 -58 44.5 -95.5t109.5 -37.5z" />
    <glyph glyph-name="seveneighths" unicode="&#x215e;" horiz-adv-x="1474" 
d="M250 817h-96q0 139 75 322t191 299h-379v80h485v-84q-123 -110 -199.5 -291t-76.5 -326zM184 0h-106l1139 1468h98zM1147 -29q-109 0 -177.5 57.5t-68.5 143.5q0 67 37.5 113.5t93.5 60.5v4q-104 46 -104 150q0 82 62.5 136t156.5 54q93 0 156 -52.5t63 -133.5
q0 -49 -25 -90.5t-77 -63.5v-4q58 -15 94.5 -62t36.5 -110q0 -87 -69.5 -145t-178.5 -58zM1149 381q56 0 94.5 35t38.5 88q0 50 -38.5 82t-94.5 32q-58 0 -95.5 -32t-37.5 -82q0 -53 37.5 -88t95.5 -35zM1149 51q64 0 106.5 37t42.5 96q0 61 -39.5 97t-109.5 36
q-73 0 -113.5 -36t-40.5 -97q0 -58 44.5 -95.5t109.5 -37.5z" />
    <glyph glyph-name="arrowleft" unicode="&#x2190;" horiz-adv-x="1429" 
d="M596 236h-135l-340 405v8l340 406h135q-192 -228 -350 -377q341 22 1057 22v-112q-716 0 -1055 22q176 -169 348 -374z" />
    <glyph glyph-name="arrowup" unicode="&#x2191;" horiz-adv-x="987" 
d="M551 20h-113q0 701 23 1055q-154 -161 -377 -348v135l405 340h9l405 -340v-135q-220 184 -375 346q23 -354 23 -1053z" />
    <glyph glyph-name="arrowright" unicode="&#x2192;" horiz-adv-x="1429" 
d="M969 236h-135q181 216 348 374q-341 -22 -1055 -22v112q716 0 1055 -22q-161 154 -348 377h135l340 -406v-8z" />
    <glyph glyph-name="arrowdown" unicode="&#x2193;" horiz-adv-x="991" 
d="M500 20h-8l-406 340v136q218 -183 377 -349q-23 354 -23 1055h113q0 -698 -23 -1052q155 162 375 346v-136z" />
    <glyph glyph-name="arrowboth" unicode="&#x2194;" horiz-adv-x="1787" 
d="M594 231h-137l-340 406v8l340 406h137l-326 -377q625 34 1252 0q-251 287 -326 377h135l340 -406v-8l-340 -406h-135q251 294 324 375q-625 -30 -1248 0q71 -79 183.5 -210.5t140.5 -164.5z" />
    <glyph glyph-name="arrowupdn" unicode="&#x2195;" horiz-adv-x="1091" 
d="M549 0h-8l-406 338v133q246 -207 377 -321q-34 545 0 1087q-291 -250 -377 -322v134l406 337h8l405 -337v-134q-352 301 -374 320q34 -540 0 -1083q83 73 224 192t150 127v-133z" />
    <glyph glyph-name="uni2196" unicode="&#x2196;" horiz-adv-x="1038" 
d="M930 137l-96 -55q-342 588 -508 924q-51 -214 -152 -490l-68 119l183 495l6 5l522 -91l68 -118q-309 58 -502 114q212 -319 547 -903z" />
    <glyph glyph-name="uni2197" unicode="&#x2197;" horiz-adv-x="1038" 
d="M205 82l-96 55q342 595 546 903q-195 -56 -501 -114l67 118l522 91l7 -5l182 -495l-68 -119q-98 269 -151 490q-166 -336 -508 -924z" />
    <glyph glyph-name="uni2198" unicode="&#x2198;" horiz-adv-x="1036" 
d="M106 1083l97 56q342 -588 508 -924q53 221 151 490l68 -119l-182 -496l-7 -4l-522 90l-67 119q297 -56 501 -115q-212 319 -547 903z" />
    <glyph glyph-name="uni2199" unicode="&#x2199;" horiz-adv-x="1036" 
d="M834 1139l96 -56q-335 -584 -547 -903q203 59 502 115l-68 -119l-522 -90l-6 4l-183 496l70 119q103 -293 150 -490q26 52 52 103.5t56.5 109t53.5 99.5t59 106.5t54.5 98t60 106t55.5 97.5t60 105t57 99z" />
    <glyph glyph-name="emptyset" unicode="&#x2205;" horiz-adv-x="1417" 
d="M1219 1198l-123 -174q91 -82 140.5 -201t49.5 -258q0 -167 -71.5 -303.5t-204.5 -216.5t-301 -80q-172 0 -308 84l-125 -176l-77 57l125 176q-92 83 -142.5 202t-50.5 257q0 169 72 305.5t205 215.5t303 79q171 0 307 -84l123 174zM246 563q0 -108 37.5 -203t105.5 -161
l565 794q-111 68 -243 68q-135 0 -242 -67t-165 -180.5t-58 -250.5zM711 70q134 0 240 65.5t163 178t57 249.5q0 109 -37.5 205t-105.5 164l-563 -795q109 -67 246 -67z" />
    <glyph glyph-name="minus" unicode="&#x2212;" horiz-adv-x="995" 
d="M852 571h-709v107h709v-107z" />
    <glyph glyph-name="infinity" unicode="&#x221e;" horiz-adv-x="1851" 
d="M489 287q-148 0 -250 96t-102 242t102.5 242t249.5 96q106 0 196 -59t241 -210q79 78 127.5 121.5t102.5 81t102 52t104 14.5q148 0 250 -96t102 -242t-102 -242t-250 -96q-106 0 -196 59t-240 209q-77 -77 -126 -121t-103 -81t-103 -51.5t-105 -14.5zM483 387
q44 0 82 11t79 39.5t65.5 48.5t75.5 69t75 70q-24 22 -64 59.5t-61.5 57.5t-56 46.5t-61.5 40t-62 23.5t-72 10q-106 0 -168.5 -64t-62.5 -173q0 -112 63.5 -175t167.5 -63zM1370 387q104 0 168 63t64 175q0 109 -63 173t-169 64q-37 0 -72 -10t-62 -23.5t-61.5 -40
t-56 -46.5t-61.5 -57.5t-64 -59.5q24 -22 63.5 -59t61.5 -57.5t56.5 -47t61 -40.5t62 -24t72.5 -10z" />
    <glyph glyph-name="approxequal" unicode="&#x2248;" horiz-adv-x="1052" 
d="M268 735h-104q0 117 65.5 178.5t157.5 61.5q42 0 78.5 -14.5t62 -35.5t49 -41.5t51.5 -35t58 -14.5q52 0 76 39t24 102h105q0 -119 -58.5 -180.5t-150.5 -61.5q-43 0 -80 15t-62.5 36t-49 42t-52 36t-59.5 15q-56 0 -83.5 -40t-27.5 -102zM268 322h-104q0 117 65.5 178
t157.5 61q42 0 78.5 -14.5t62 -35.5t49 -41.5t51.5 -35t58 -14.5q52 0 76 39t24 102h105q0 -120 -58.5 -181t-150.5 -61q-43 0 -80 15t-62.5 36t-49 42t-52 36t-59.5 15q-56 0 -83.5 -40t-27.5 -101z" />
    <glyph glyph-name="notequal" unicode="&#x2260;" horiz-adv-x="1032" 
d="M870 883v-107h-262q-25 -157 -112 -307h374v-104h-411q0 -70 -45 -185h-105q2 6 9.5 25t11 27.5l10.5 25.5t12.5 28t13 25.5t16 27.5t17.5 26h-239v104h276q25 162 111 307h-387v107h426q0 12 0.5 24t3.5 26.5t4.5 23t7.5 27.5t7.5 23.5l9 27t8.5 24.5h104
q-38 -113 -86 -176h225z" />
    <glyph glyph-name="lessequal" unicode="&#x2264;" horiz-adv-x="1034" 
d="M868 362h-706v93h483l-481 182v104l704 185v-105l-563 -143l563 -221v-95z" />
    <glyph glyph-name="greaterequal" unicode="&#x2265;" horiz-adv-x="1034" 
d="M872 362h-706v95l563 221l-563 143v105l704 -185v-104l-481 -182h483v-93z" />
    <glyph glyph-name="lozenge" unicode="&#x25ca;" horiz-adv-x="1161" 
d="M625 0h-90l-412 694l412 692h90l413 -692zM248 694l327 -561h9l329 561l-329 559h-9z" />
    <glyph glyph-name="A.ss01" horiz-adv-x="1507" 
d="M162 0h-125l633 1597h166l634 -1597h-124q-155 364 -216 588l-18 18q-244 -22 -344 -22q-150 0 -365 22l-20 -20q-65 -196 -221 -586zM424 690l12 -20q230 20 332 20q115 0 295 -20l12 18q-71 179 -107 273.5t-87 247t-86 286.5h-84q-37 -137 -89.5 -289t-91.5 -251.5
t-106 -264.5z" />
    <glyph glyph-name="Aacute.ss01" horiz-adv-x="1507" 
d="M1120 2038l-342 -318h-102l264 318h180zM162 0h-125l633 1597h166l634 -1597h-124q-155 364 -216 588l-18 18q-244 -22 -344 -22q-150 0 -365 22l-20 -20q-65 -196 -221 -586zM424 690l12 -20q230 20 332 20q115 0 295 -20l12 18q-71 179 -107 273.5t-87 247t-86 286.5
h-84q-37 -137 -89.5 -289t-91.5 -251.5t-106 -264.5z" />
    <glyph glyph-name="Abreve.ss01" horiz-adv-x="1507" 
d="M754 1726q-84 0 -155 29.5t-116.5 76.5t-72 102.5t-29.5 111.5h102q6 -87 83.5 -155t187.5 -68t187 68t83 155h102q-2 -56 -28.5 -111.5t-72 -102.5t-116.5 -76.5t-155 -29.5zM162 0h-125l633 1597h166l634 -1597h-124q-155 364 -216 588l-18 18q-244 -22 -344 -22
q-150 0 -365 22l-20 -20q-65 -196 -221 -586zM424 690l12 -20q230 20 332 20q115 0 295 -20l12 18q-71 179 -107 273.5t-87 247t-86 286.5h-84q-37 -137 -89.5 -289t-91.5 -251.5t-106 -264.5z" />
    <glyph glyph-name="Acircumflex.ss01" horiz-adv-x="1507" 
d="M514 1720h-102l264 297h153l265 -297h-105q-54 51 -78 74.5t-65 72t-70 95.5h-45q-29 -47 -71 -95.5t-66.5 -72.5t-79.5 -74zM162 0h-125l633 1597h166l634 -1597h-124q-155 364 -216 588l-18 18q-244 -22 -344 -22q-150 0 -365 22l-20 -20q-65 -196 -221 -586zM424 690
l12 -20q230 20 332 20q115 0 295 -20l12 18q-71 179 -107 273.5t-87 247t-86 286.5h-84q-37 -137 -89.5 -289t-91.5 -251.5t-106 -264.5z" />
    <glyph glyph-name="Adieresis.ss01" horiz-adv-x="1507" 
d="M561 1794q-41 0 -69.5 28.5t-28.5 69.5q0 39 28.5 68t69.5 29q39 0 66.5 -29t27.5 -68q0 -41 -27 -69.5t-67 -28.5zM944 1794q-42 0 -69 28t-27 70q0 39 27 68t69 29q39 0 67.5 -29t28.5 -68q0 -41 -28 -69.5t-68 -28.5zM162 0h-125l633 1597h166l634 -1597h-124
q-155 364 -216 588l-18 18q-244 -22 -344 -22q-150 0 -365 22l-20 -20q-65 -196 -221 -586zM424 690l12 -20q230 20 332 20q115 0 295 -20l12 18q-71 179 -107 273.5t-87 247t-86 286.5h-84q-37 -137 -89.5 -289t-91.5 -251.5t-106 -264.5z" />
    <glyph glyph-name="Agrave.ss01" horiz-adv-x="1507" 
d="M834 1720h-105l-340 318h178zM162 0h-125l633 1597h166l634 -1597h-124q-155 364 -216 588l-18 18q-244 -22 -344 -22q-150 0 -365 22l-20 -20q-65 -196 -221 -586zM424 690l12 -20q230 20 332 20q115 0 295 -20l12 18q-71 179 -107 273.5t-87 247t-86 286.5h-84
q-37 -137 -89.5 -289t-91.5 -251.5t-106 -264.5z" />
    <glyph glyph-name="Amacron.ss01" horiz-adv-x="1507" 
d="M1081 1839h-655v100h655v-100zM162 0h-125l633 1597h166l634 -1597h-124q-155 364 -216 588l-18 18q-244 -22 -344 -22q-150 0 -365 22l-20 -20q-65 -196 -221 -586zM424 690l12 -20q230 20 332 20q115 0 295 -20l12 18q-71 179 -107 273.5t-87 247t-86 286.5h-84
q-37 -137 -89.5 -289t-91.5 -251.5t-106 -264.5z" />
    <glyph glyph-name="Aogonek.ss01" horiz-adv-x="1507" 
d="M1466 -379q40 0 88 14v-84q-55 -14 -96 -14q-114 0 -190 63t-76 169q0 133 160 231h-6q-155 364 -216 588l-18 18q-244 -22 -344 -22q-150 0 -365 22l-20 -20q-65 -196 -221 -586h-125l633 1597h166l634 -1597h-10q-178 -93 -178 -217q0 -73 52.5 -117.5t131.5 -44.5z
M1063 670l12 18q-71 179 -107 273.5t-87 247t-86 286.5h-84q-37 -137 -89.5 -289t-91.5 -251.5t-106 -264.5l12 -20q230 20 332 20q115 0 295 -20z" />
    <glyph glyph-name="Aring.ss01" horiz-adv-x="1507" 
d="M752 1714q-96 0 -159 61t-63 156q0 92 63.5 152.5t158.5 60.5q94 0 156.5 -60.5t62.5 -152.5q0 -95 -62.5 -156t-156.5 -61zM752 1798q59 0 98 36t39 97q0 59 -39 94t-98 35q-60 0 -99 -35t-39 -94q0 -61 39 -97t99 -36zM162 0h-125l633 1597h166l634 -1597h-124
q-155 364 -216 588l-18 18q-244 -22 -344 -22q-150 0 -365 22l-20 -20q-65 -196 -221 -586zM424 690l12 -20q230 20 332 20q115 0 295 -20l12 18q-71 179 -107 273.5t-87 247t-86 286.5h-84q-37 -137 -89.5 -289t-91.5 -251.5t-106 -264.5z" />
    <glyph glyph-name="Atilde.ss01" horiz-adv-x="1507" 
d="M907 1751q-15 0 -29.5 2t-25 4.5t-23.5 8.5l-19.5 9t-19 12.5t-17 12.5t-18 14.5t-16.5 14.5l-37 33q-2 1 -9.5 8t-10 9t-9.5 8t-10.5 8l-10.5 6t-12 6t-12 4t-14 3t-14 1q-49 0 -80 -42.5t-31 -107.5h-86q1 106 57 172t144 66q43 0 76.5 -17.5t73.5 -52.5l41 -37
q23 -19 35 -27.5t35.5 -19t45.5 -10.5q50 0 77.5 41.5t27.5 108.5h86q0 -108 -51.5 -173t-143.5 -65zM162 0h-125l633 1597h166l634 -1597h-124q-155 364 -216 588l-18 18q-244 -22 -344 -22q-150 0 -365 22l-20 -20q-65 -196 -221 -586zM424 690l12 -20q230 20 332 20
q115 0 295 -20l12 18q-71 179 -107 273.5t-87 247t-86 286.5h-84q-37 -137 -89.5 -289t-91.5 -251.5t-106 -264.5z" />
    <glyph glyph-name="B.ss01" horiz-adv-x="1458" 
d="M862 0h-639v1597h557q121 0 219.5 -34.5t161.5 -93t97 -133t34 -156.5q0 -122 -74.5 -219.5t-222.5 -133.5v-32q175 -28 261.5 -130.5t86.5 -238.5q0 -180 -136 -303t-345 -123zM324 856l16 -22q149 22 432 22q184 0 289.5 87.5t105.5 223.5q0 144 -115.5 234t-297.5 90
h-53h-58.5t-52.5 0.5t-61.5 2t-57 3.5t-67 5.5t-64.5 8.5l-21 -18q33 -291 5 -637zM319 106l21 -20q172 20 481 20q184 0 291 89t107 227q0 143 -114 235.5t-302 92.5q-302 0 -463 22l-16 -22q28 -350 -5 -644z" />
    <glyph glyph-name="C.ss01" horiz-adv-x="1724" 
d="M918 -35q-234 0 -417.5 105.5t-285.5 294t-102 428.5q0 183 62 340t168.5 265.5t252.5 170t311 61.5q111 0 217.5 -28t201.5 -83t169 -145t111 -205l-105 -43q-73 187 -234 290.5t-358 103.5q-134 0 -254.5 -50t-212.5 -141.5t-146 -231t-54 -306.5q0 -140 38.5 -258.5
t104.5 -201.5t154 -141.5t187.5 -86t205.5 -27.5q128 0 237 40.5t186 111.5t129.5 158t80.5 189l106 -38q-37 -121 -101 -222t-155.5 -181t-218.5 -124.5t-278 -44.5z" />
    <glyph glyph-name="D.ss01" horiz-adv-x="1652" 
d="M795 0h-572v1597h553q156 0 283 -40.5t214.5 -112t146.5 -171.5t86.5 -216t27.5 -248q0 -238 -87 -420t-255.5 -285.5t-396.5 -103.5zM319 106l21 -20q168 20 471 20q278 0 439 188.5t161 502.5q0 322 -171.5 508t-487.5 186q-265 0 -412 20l-21 -18q37 -689 0 -1387z
" />
    <glyph glyph-name="E.ss01" horiz-adv-x="1351" 
d="M1243 0h-1020v1597h1000v-106q-52 0 -206 -1t-232 -0.5t-206 5.5t-239 16l-21 -18q33 -297 5 -616l16 -23q301 23 842 23v-109q-543 0 -842 23l-16 -23q28 -340 -5 -662l21 -20q319 27 903 27v-113z" />
    <glyph glyph-name="F.ss01" horiz-adv-x="1273" 
d="M342 0h-119v1597h979v-114q-197 0 -291.5 0.5t-261.5 7.5t-309 20l-21 -18q34 -315 3 -629l16 -22q282 22 823 22v-108q-535 0 -823 22l-16 -22q20 -252 20 -756z" />
    <glyph glyph-name="G.ss01" horiz-adv-x="1761" 
d="M913 -35q-177 0 -327 62.5t-253.5 172t-161.5 262t-58 329.5q0 184 62 341.5t168.5 266t252.5 170t311 61.5q111 0 217.5 -28t201.5 -83t169 -145t111 -205l-105 -43q-73 187 -234 290.5t-358 103.5q-134 0 -254.5 -50t-212.5 -140.5t-146 -230t-54 -306.5
q0 -322 191 -519.5t505 -197.5q277 0 442 168t189 446l-13 17q-337 -39 -593 -39v104h696v-41q0 -160 -41.5 -290t-112 -217.5t-167 -146.5t-203 -85.5t-222.5 -26.5z" />
    <glyph glyph-name="H.ss01" horiz-adv-x="1654" 
d="M342 0h-119v1597h119q0 -498 -18 -729l16 -22q520 29 975 0l18 22q-20 246 -20 729h119v-1597h-119q0 486 20 758l-18 22q-443 -52 -975 0l-16 -22q18 -258 18 -758z" />
    <glyph glyph-name="I.ss01" horiz-adv-x="1093" 
d="M1012 0h-932v106q273 0 420 -20q-18 713 0 1425q-152 -20 -430 -20v106h952v-106q-276 0 -428 20q18 -713 0 -1425q147 20 418 20v-106z" />
    <glyph glyph-name="Iacute.ss01" horiz-adv-x="1093" 
d="M911 2038l-340 -318h-102l264 318h178zM1012 0h-932v106q273 0 420 -20q-18 713 0 1425q-152 -20 -430 -20v106h952v-106q-276 0 -428 20q18 -713 0 -1425q147 20 418 20v-106z" />
    <glyph glyph-name="Icircumflex.ss01" horiz-adv-x="1093" 
d="M309 1720h-102l264 297h154l264 -297h-105q-54 51 -78 74.5t-65 72t-70 95.5h-45q-29 -47 -71 -95.5t-66.5 -72.5t-79.5 -74zM1012 0h-932v106q273 0 420 -20q-18 713 0 1425q-152 -20 -430 -20v106h952v-106q-276 0 -428 20q18 -713 0 -1425q147 20 418 20v-106z" />
    <glyph glyph-name="Idieresis.ss01" horiz-adv-x="1093" 
d="M356 1794q-41 0 -69.5 28.5t-28.5 69.5q0 39 28.5 68t69.5 29q39 0 67 -29t28 -68q0 -41 -27.5 -69.5t-67.5 -28.5zM739 1794q-42 0 -69 28t-27 70q0 39 27 68t69 29q39 0 68 -29t29 -68q0 -41 -28.5 -69.5t-68.5 -28.5zM1012 0h-932v106q273 0 420 -20q-18 713 0 1425
q-152 -20 -430 -20v106h952v-106q-276 0 -428 20q18 -713 0 -1425q147 20 418 20v-106z" />
    <glyph glyph-name="Idotaccent.ss01" horiz-adv-x="1093" 
d="M547 1790q-44 0 -74.5 31t-30.5 75q0 42 30.5 71.5t74.5 29.5q43 0 72.5 -29.5t29.5 -71.5q0 -44 -29.5 -75t-72.5 -31zM1012 0h-932v106q273 0 420 -20q-18 713 0 1425q-152 -20 -430 -20v106h952v-106q-276 0 -428 20q18 -713 0 -1425q147 20 418 20v-106z" />
    <glyph glyph-name="Igrave.ss01" horiz-adv-x="1093" 
d="M629 1720h-105l-340 318h178zM1012 0h-932v106q273 0 420 -20q-18 713 0 1425q-152 -20 -430 -20v106h952v-106q-276 0 -428 20q18 -713 0 -1425q147 20 418 20v-106z" />
    <glyph glyph-name="Imacron.ss01" horiz-adv-x="1093" 
d="M874 1839h-655v100h655v-100zM1012 0h-932v106q273 0 420 -20q-18 713 0 1425q-152 -20 -430 -20v106h952v-106q-276 0 -428 20q18 -713 0 -1425q147 20 418 20v-106z" />
    <glyph glyph-name="J.ss01" horiz-adv-x="1185" 
d="M539 -35q-70 0 -133.5 14.5t-126 52.5t-108 96t-73.5 152t-28 214v24l108 14v-20q0 -102 23 -181.5t58.5 -127t83.5 -78t94 -42t95 -11.5q155 0 242.5 114t87.5 308q0 603 23 1001l-13 23q-219 -27 -559 -27v106h668v-1065q0 -29 -0.5 -49t-4.5 -66t-11 -81t-22.5 -84.5
t-37 -86.5t-55.5 -76.5t-76.5 -65t-103 -42t-131.5 -16.5z" />
    <glyph glyph-name="K.ss01" horiz-adv-x="1345" 
d="M342 0h-119v1597h119q0 -546 -10 -766h10q554 521 819 766h154q-416 -391 -879 -798v-21q59 -46 122 -97t113.5 -92.5t120 -100.5t110 -93.5t117.5 -101.5t108.5 -94.5t116.5 -102t110 -96.5h-164q-21 18 -103 88t-110 94t-101 87t-110 95.5t-102 90.5t-111 100t-103 96
t-110 105h-8q10 -281 10 -756z" />
    <glyph glyph-name="L.ss01" horiz-adv-x="1212" 
d="M1182 0h-959v1597h119q0 -975 -23 -1491l21 -20q297 27 842 27v-113z" />
    <glyph glyph-name="M.ss01" horiz-adv-x="1910" 
d="M342 0h-119v1597h139q330 -582 582 -1130h23q257 557 581 1130h140v-1597h-119q0 112 -2 336t-2.5 362.5t5 335.5t17.5 365h-22l-553 -1039h-113l-553 1039h-22q12 -168 17.5 -365t5 -335.5t-2.5 -362.5t-2 -336z" />
    <glyph glyph-name="N.ss01" horiz-adv-x="1693" 
d="M342 0h-119v1597h189q614 -980 921 -1501h39q-20 547 -20 1501h118v-1597h-188q-12 19 -87.5 138.5t-93 147.5t-86 137t-93.5 149.5t-87.5 140t-95 153.5t-88.5 145t-96.5 159t-90.5 151.5t-97 163.5h-45q20 -543 20 -1485z" />
    <glyph glyph-name="O.ss01" horiz-adv-x="1824" 
d="M911 -35q-162 0 -309 63t-255 172t-172 265t-64 332t63.5 331.5t171.5 265t255.5 173t311.5 63.5q166 0 314.5 -65t254.5 -176.5t168 -265.5t62 -326q0 -173 -63 -328t-170.5 -265t-255.5 -174.5t-312 -64.5zM915 76q132 0 254 54.5t213.5 148.5t146 229.5t54.5 288.5
q0 154 -54.5 289.5t-146 230t-213.5 149t-254 54.5q-134 0 -257.5 -54.5t-215.5 -149t-147 -230t-55 -289.5q0 -153 55 -288.5t147 -229.5t215.5 -148.5t257.5 -54.5z" />
    <glyph glyph-name="P.ss01" horiz-adv-x="1363" 
d="M342 0h-119v1597h551q237 0 377.5 -129t140.5 -338q0 -219 -136.5 -350t-344.5 -131q-124 0 -185 1t-145 8.5t-159 23.5q20 -250 20 -682zM322 756l18 -23q156 23 430 23q190 0 294.5 96t104.5 268t-112.5 271.5t-304.5 99.5q-262 0 -412 20l-21 -18q34 -363 3 -737z" />
    <glyph glyph-name="Q.ss01" horiz-adv-x="1837" 
d="M473 -283v-22q179 17 385.5 26t336.5 10t364 1v-103h-1287q159 178 342 394q-227 86 -361 290.5t-134 483.5q0 184 60.5 340t167 264t255 168.5t320.5 60.5q231 0 413.5 -107t283.5 -297t101 -429q0 -181 -60 -335.5t-166 -263t-254 -170t-320 -61.5q-104 0 -207 25
q-136 -162 -240 -275zM242 797q0 -252 122.5 -432.5t325.5 -251.5q209 250 400 493l84 -69q-52 -61 -179.5 -214t-199.5 -237q61 -12 129 -12q140 0 263.5 52t214 145t143 229.5t52.5 296.5q0 161 -52.5 298t-143 230.5t-214 146t-263.5 52.5q-143 0 -268 -52.5t-216.5 -146
t-144.5 -230.5t-53 -298z" />
    <glyph glyph-name="R.ss01" horiz-adv-x="1411" 
d="M342 0h-119v1597h551q236 0 377 -129t141 -338q0 -92 -23.5 -165.5t-66 -123t-101 -87t-128.5 -57t-149.5 -32t-163 -12.5t-168.5 2q131 -98 263.5 -199.5t329 -254.5t258.5 -201h-167q-603 466 -844 666h-10q20 -233 20 -666zM322 754l18 -23q164 21 430 21
q189 0 294 97.5t105 270.5q0 171 -113 271t-304 100q-251 0 -412 20l-21 -18q33 -377 3 -739z" />
    <glyph glyph-name="S.ss01" horiz-adv-x="1316" 
d="M680 -35q-71 0 -139 14t-139.5 48.5t-130 86t-108 133.5t-77.5 185l109 41q51 -191 182.5 -294t304.5 -103q58 0 114 11.5t109 37t93 63.5t64.5 94.5t24.5 125.5q0 59 -21 106t-43.5 74t-77 54.5t-79.5 36.5t-94 30q-25 8 -37 12l-149 47q-44 14 -76 25.5t-82 33.5
t-85.5 44.5t-75.5 58t-65 74.5t-42 93t-17 115q0 83 29.5 152.5t79 118t115.5 82t138.5 49.5t147.5 16q187 0 329 -98.5t196 -284.5l-105 -45q-47 145 -161.5 231.5t-272.5 86.5t-265.5 -82t-107.5 -217q0 -62 28 -116t60 -85.5t90.5 -63t84.5 -41.5t77 -27l4.5 -1.5
t3.5 -1.5l154 -49q11 -4 35 -11q41 -13 62.5 -20t62 -22t64 -27t58 -32t55 -40t44.5 -48t37 -58.5t22 -70t9 -83.5q0 -104 -44.5 -191.5t-119.5 -145.5t-171.5 -90t-201.5 -32z" />
    <glyph glyph-name="U.ss01" horiz-adv-x="1562" 
d="M760 -35q-259 0 -407 155t-148 451v1026h117v-1019q0 -258 118.5 -382t329.5 -124q212 0 331.5 124t119.5 382v1019h118v-1597h-116q0 81 18 260h-22q-64 -158 -177 -226.5t-282 -68.5z" />
    <glyph glyph-name="Uacute.ss01" horiz-adv-x="1562" 
d="M1092 2038l-340 -318h-105l266 318h179zM760 -35q-259 0 -407 155t-148 451v1026h117v-1019q0 -258 118.5 -382t329.5 -124q212 0 331.5 124t119.5 382v1019h118v-1597h-116q0 81 18 260h-22q-64 -158 -177 -226.5t-282 -68.5z" />
    <glyph glyph-name="Ucircumflex.ss01" horiz-adv-x="1562" 
d="M526 1720h-102l264 297h154l264 -297h-105q-54 51 -78 74.5t-65 72t-70 95.5h-45q-29 -47 -71 -95.5t-66.5 -72.5t-79.5 -74zM760 -35q-259 0 -407 155t-148 451v1026h117v-1019q0 -258 118.5 -382t329.5 -124q212 0 331.5 124t119.5 382v1019h118v-1597h-116
q0 81 18 260h-22q-64 -158 -177 -226.5t-282 -68.5z" />
    <glyph glyph-name="Udieresis.ss01" horiz-adv-x="1562" 
d="M573 1794q-41 0 -69.5 28.5t-28.5 69.5q0 39 28.5 68t69.5 29q39 0 67 -29t28 -68q0 -41 -27.5 -69.5t-67.5 -28.5zM956 1794q-42 0 -69 28t-27 70q0 39 27 68t69 29q39 0 68 -29t29 -68q0 -41 -28.5 -69.5t-68.5 -28.5zM760 -35q-259 0 -407 155t-148 451v1026h117
v-1019q0 -258 118.5 -382t329.5 -124q212 0 331.5 124t119.5 382v1019h118v-1597h-116q0 81 18 260h-22q-64 -158 -177 -226.5t-282 -68.5z" />
    <glyph glyph-name="Ugrave.ss01" horiz-adv-x="1562" 
d="M846 1720h-105l-340 318h179zM760 -35q-259 0 -407 155t-148 451v1026h117v-1019q0 -258 118.5 -382t329.5 -124q212 0 331.5 124t119.5 382v1019h118v-1597h-116q0 81 18 260h-22q-64 -158 -177 -226.5t-282 -68.5z" />
    <glyph glyph-name="Uhungarumlaut.ss01" horiz-adv-x="1562" 
d="M907 2038l-274 -318h-103l213 318h164zM1206 2038l-293 -318h-102l231 318h164zM760 -35q-259 0 -407 155t-148 451v1026h117v-1019q0 -258 118.5 -382t329.5 -124q212 0 331.5 124t119.5 382v1019h118v-1597h-116q0 81 18 260h-22q-64 -158 -177 -226.5t-282 -68.5z" />
    <glyph glyph-name="Umacron.ss01" horiz-adv-x="1562" 
d="M1092 1839h-656v100h656v-100zM760 -35q-259 0 -407 155t-148 451v1026h117v-1019q0 -258 118.5 -382t329.5 -124q212 0 331.5 124t119.5 382v1019h118v-1597h-116q0 81 18 260h-22q-64 -158 -177 -226.5t-282 -68.5z" />
    <glyph glyph-name="Uogonek.ss01" horiz-adv-x="1562" 
d="M1341 -379q41 0 89 14v-84q-55 -14 -97 -14q-114 0 -190 63t-76 169q0 133 160 231h-4q0 81 18 260h-22q-64 -158 -177 -226.5t-282 -68.5q-259 0 -407 155t-148 451v1026h117v-1019q0 -258 118.5 -382t329.5 -124q212 0 331.5 124t119.5 382v1019h118v-1597h-4
q-178 -93 -178 -217q0 -73 52.5 -117.5t131.5 -44.5z" />
    <glyph glyph-name="Uring.ss01" horiz-adv-x="1562" 
d="M764 1714q-96 0 -158.5 61t-62.5 156q0 92 63 152.5t158 60.5q94 0 156.5 -60.5t62.5 -152.5q0 -95 -62.5 -156t-156.5 -61zM764 1798q59 0 98 36t39 97q0 59 -39 94t-98 35q-60 0 -98.5 -35t-38.5 -94q0 -62 38.5 -97.5t98.5 -35.5zM760 -35q-259 0 -407 155t-148 451
v1026h117v-1019q0 -258 118.5 -382t329.5 -124q212 0 331.5 124t119.5 382v1019h118v-1597h-116q0 81 18 260h-22q-64 -158 -177 -226.5t-282 -68.5z" />
    <glyph glyph-name="V.ss01" horiz-adv-x="1507" 
d="M854 0h-203l-614 1597h125q392 -1038 553 -1482h84q215 595 547 1482h124z" />
    <glyph glyph-name="W.ss01" horiz-adv-x="2318" 
d="M711 0h-144l-526 1597h123l471 -1445h6l410 1445h235l397 -1445h7l464 1445h125l-526 -1597h-143l-398 1483h-86z" />
    <glyph glyph-name="Wacute.ss01" horiz-adv-x="2318" 
d="M1528 2038l-342 -318h-103l265 318h180zM711 0h-144l-526 1597h123l471 -1445h6l410 1445h235l397 -1445h7l464 1445h125l-526 -1597h-143l-398 1483h-86z" />
    <glyph glyph-name="Wcircumflex.ss01" horiz-adv-x="2318" 
d="M920 1720h-103l264 297h154l264 -297h-104q-54 51 -78 74.5t-65 72t-70 95.5h-45q-29 -47 -71 -95.5t-66.5 -72.5t-79.5 -74zM711 0h-144l-526 1597h123l471 -1445h6l410 1445h235l397 -1445h7l464 1445h125l-526 -1597h-143l-398 1483h-86z" />
    <glyph glyph-name="Wdieresis.ss01" horiz-adv-x="2318" 
d="M969 1794q-41 0 -70 28.5t-29 69.5q0 39 29 68t70 29q39 0 66.5 -29t27.5 -68q0 -41 -27 -69.5t-67 -28.5zM1352 1794q-42 0 -69.5 28t-27.5 70q0 39 27.5 68t69.5 29q39 0 67.5 -29t28.5 -68q0 -41 -28 -69.5t-68 -28.5zM711 0h-144l-526 1597h123l471 -1445h6l410 1445
h235l397 -1445h7l464 1445h125l-526 -1597h-143l-398 1483h-86z" />
    <glyph glyph-name="Wgrave.ss01" horiz-adv-x="2318" 
d="M1239 1720h-104l-340 318h178zM711 0h-144l-526 1597h123l471 -1445h6l410 1445h235l397 -1445h7l464 1445h125l-526 -1597h-143l-398 1483h-86z" />
    <glyph glyph-name="X.ss01" horiz-adv-x="1402" 
d="M164 0h-131l547 819l-5 6l-528 772h133q225 -327 482 -718h79q273 412 482 718h133l-531 -772l-4 -6l549 -819h-131q-251 382 -498 768h-79q-405 -626 -498 -768z" />
    <glyph glyph-name="Y.ss01" horiz-adv-x="1378" 
d="M422 0h-121q226 377 377 594q-255 386 -623 1003h129q32 -53 128 -214.5t143.5 -242.5t123.5 -213.5t138 -246.5h22q74 151 171 327t159 281.5t184 308.5h125z" />
    <glyph glyph-name="Yacute.ss01" horiz-adv-x="1378" 
d="M1083 2038l-342 -318h-102l264 318h180zM422 0h-121q226 377 377 594q-255 386 -623 1003h129q32 -53 128 -214.5t143.5 -242.5t123.5 -213.5t138 -246.5h22q74 151 171 327t159 281.5t184 308.5h125z" />
    <glyph glyph-name="Ycircumflex.ss01" horiz-adv-x="1378" 
d="M477 1720h-102l264 297h154l264 -297h-105q-54 51 -78 74.5t-65 72t-70 95.5h-45q-29 -47 -71 -95.5t-66.5 -72.5t-79.5 -74zM422 0h-121q226 377 377 594q-255 386 -623 1003h129q32 -53 128 -214.5t143.5 -242.5t123.5 -213.5t138 -246.5h22q74 151 171 327t159 281.5
t184 308.5h125z" />
    <glyph glyph-name="Ydieresis.ss01" horiz-adv-x="1378" 
d="M526 1794q-41 0 -69.5 28.5t-28.5 69.5q0 39 28.5 68t69.5 29q39 0 67 -29t28 -68q0 -41 -27.5 -69.5t-67.5 -28.5zM909 1794q-42 0 -69 28t-27 70q0 39 27 68t69 29q39 0 68 -29t29 -68q0 -41 -28.5 -69.5t-68.5 -28.5zM422 0h-121q226 377 377 594q-255 386 -623 1003
h129q32 -53 128 -214.5t143.5 -242.5t123.5 -213.5t138 -246.5h22q74 151 171 327t159 281.5t184 308.5h125z" />
    <glyph glyph-name="Ygrave.ss01" horiz-adv-x="1378" 
d="M797 1720h-105l-340 318h178zM422 0h-121q226 377 377 594q-255 386 -623 1003h129q32 -53 128 -214.5t143.5 -242.5t123.5 -213.5t138 -246.5h22q74 151 171 327t159 281.5t184 308.5h125z" />
    <glyph glyph-name="Z.ss01" horiz-adv-x="1386" 
d="M1305 0h-1301q119 155 353.5 462t426 557.5t367.5 477.5l-10 19q-383 -25 -1014 -25v106h1233q-88 -115 -275 -360t-299.5 -391.5t-275 -355t-301.5 -381.5l10 -21q360 25 1086 25v-113z" />
    <glyph glyph-name="Zacute.ss01" horiz-adv-x="1386" 
d="M1051 2038l-342 -318h-103l264 318h181zM1305 0h-1301q119 155 353.5 462t426 557.5t367.5 477.5l-10 19q-383 -25 -1014 -25v106h1233q-88 -115 -275 -360t-299.5 -391.5t-275 -355t-301.5 -381.5l10 -21q360 25 1086 25v-113z" />
    <glyph glyph-name="Zcaron.ss01" horiz-adv-x="1386" 
d="M760 1720h-154l-264 297h102q3 -3 22.5 -20.5t24 -22t22 -21t23.5 -23t21.5 -22t23 -24.5t20.5 -24t22 -27t19.5 -27t19.5 -30h45q29 47 71 96t64 70.5t78 74.5h104zM1305 0h-1301q119 155 353.5 462t426 557.5t367.5 477.5l-10 19q-383 -25 -1014 -25v106h1233
q-88 -115 -275 -360t-299.5 -391.5t-275 -355t-301.5 -381.5l10 -21q360 25 1086 25v-113z" />
    <glyph glyph-name="Zdotaccent.ss01" horiz-adv-x="1386" 
d="M684 1790q-44 0 -74 31t-30 75q0 42 30 71.5t74 29.5q42 0 72 -29.5t30 -71.5q0 -44 -29.5 -75t-72.5 -31zM1305 0h-1301q119 155 353.5 462t426 557.5t367.5 477.5l-10 19q-383 -25 -1014 -25v106h1233q-88 -115 -275 -360t-299.5 -391.5t-275 -355t-301.5 -381.5
l10 -21q360 25 1086 25v-113z" />
    <glyph glyph-name="Q.ss02" horiz-adv-x="1824" 
d="M952 -33q18 -104 11 -256q201 23 575 23v-105q-433 0 -664 13q-8 208 9 323q-161 9 -303.5 76t-245.5 175.5t-163 259.5t-60 321q0 176 63.5 331.5t171.5 265t255.5 173t311.5 63.5q166 0 314.5 -65t254.5 -176.5t168 -265.5t62 -326q0 -223 -96.5 -406t-270 -294.5
t-393.5 -129.5zM240 797q0 -192 80 -348.5t227.5 -254t339.5 -116.5q-25 166 -25 495h113q0 -331 -25 -497q130 12 246 70.5t201.5 152t135.5 223t50 275.5q0 154 -54.5 289.5t-146 230t-213.5 149t-254 54.5q-134 0 -257.5 -54.5t-215.5 -149t-147 -230t-55 -289.5z" />
    <glyph glyph-name="A.ss07" 
d="M1020 -315q-197 0 -371.5 71t-298.5 193.5t-196 293.5t-72 365q0 198 72 372.5t196 298.5t298 195.5t372 71.5q200 0 375.5 -71.5t301 -195.5t197.5 -298.5t72 -372.5q0 -259 -123 -470.5t-339.5 -332t-483.5 -120.5zM981 1096l-395 -963h92q96 238 133 352l8 9
q111 -13 213 -13q99 0 201 13l6 -9q36 -128 129 -352h92l-395 963h-84zM840 547l-2 4q104 230 180 455h12q64 -210 174 -455l-2 -4q-102 12 -170 12q-60 0 -192 -12z" />
    <glyph glyph-name="B.ss07" 
d="M1020 -315q-197 0 -371.5 71t-298.5 193.5t-196 293.5t-72 365q0 198 72 372.5t196 298.5t298 195.5t372 71.5q200 0 375.5 -71.5t301 -195.5t197.5 -298.5t72 -372.5q0 -259 -123 -470.5t-339.5 -332t-483.5 -120.5zM717 1096v-963h387q123 0 208 73.5t85 186.5
q0 91 -55 150.5t-152 74.5v7q83 22 129.5 79.5t46.5 137.5q0 111 -87.5 182.5t-223.5 71.5h-338zM797 645l-4 6q15 202 -2 373l6 6q94 -14 241 -14q106 0 172 -50t66 -132q0 -81 -62.5 -130t-162.5 -49q-162 0 -254 -10zM797 201l-6 8q17 172 2 375l4 6q98 -12 272 -12
q106 0 172 -52t66 -135q0 -81 -62.5 -129.5t-165.5 -48.5q-182 0 -282 -12z" />
    <glyph glyph-name="C.ss07" 
d="M1020 -315q-197 0 -371.5 71t-298.5 193.5t-196 293.5t-72 365q0 198 72 372.5t196 298.5t298 195.5t372 71.5q200 0 375.5 -71.5t301 -195.5t197.5 -298.5t72 -372.5q0 -259 -123 -470.5t-339.5 -332t-483.5 -120.5zM1055 113q169 0 289 92.5t167 259.5l-77 29
q-21 -82 -65.5 -147t-124 -108.5t-181.5 -43.5q-78 0 -148.5 26t-127.5 75.5t-91 130.5t-34 183q0 186 110 305t279 119q120 0 213 -63.5t131 -171.5l78 30q-28 95 -97.5 162t-152.5 96t-174 29q-205 0 -341.5 -143t-136.5 -363t135 -358.5t349 -138.5z" />
    <glyph glyph-name="D.ss07" 
d="M1020 -315q-197 0 -371.5 71t-298.5 193.5t-196 293.5t-72 365q0 198 72 372.5t196 298.5t298 195.5t372 71.5q200 0 375.5 -71.5t301 -195.5t197.5 -298.5t72 -372.5q0 -259 -123 -470.5t-339.5 -332t-483.5 -120.5zM680 1096v-963h348q203 0 325 133t122 355
q0 224 -121.5 349.5t-337.5 125.5h-336zM760 201l-6 8q21 406 0 815l6 6q86 -14 239 -14q180 0 281.5 -105t101.5 -297q0 -186 -93 -293.5t-253 -107.5q-178 0 -276 -12z" />
    <glyph glyph-name="E.ss07" 
d="M1020 -315q-197 0 -371.5 71t-298.5 193.5t-196 293.5t-72 365q0 198 72 372.5t196 298.5t298 195.5t372 71.5q200 0 375.5 -71.5t301 -195.5t197.5 -298.5t72 -372.5q0 -259 -123 -470.5t-339.5 -332t-483.5 -120.5zM739 1096v-963h621v84q-346 0 -539 -16l-8 6
q20 192 2 387l6 8q178 -14 504 -14v80q-311 0 -504 -13l-6 9q18 186 -2 360l8 6q66 -7 144 -10.5t120 -4t143 0t122 0.5v80h-611z" />
    <glyph glyph-name="F.ss07" 
d="M1020 -315q-197 0 -371.5 71t-298.5 193.5t-196 293.5t-72 365q0 198 72 372.5t196 298.5t298 195.5t372 71.5q200 0 375.5 -71.5t301 -195.5t197.5 -298.5t72 -372.5q0 -259 -123 -470.5t-339.5 -332t-483.5 -120.5zM760 1096v-963h86q0 303 -12 455l6 8
q178 -16 491 -16v82q-326 0 -493 -15l-4 8q18 185 -3 369l9 6q182 -18 516 -18v84h-596z" />
    <glyph glyph-name="G.ss07" 
d="M1020 -315q-197 0 -371.5 71t-298.5 193.5t-196 293.5t-72 365q0 198 72 372.5t196 298.5t298 195.5t372 71.5q200 0 375.5 -71.5t301 -195.5t197.5 -298.5t72 -372.5q0 -259 -123 -470.5t-339.5 -332t-483.5 -120.5zM1047 113q280 0 378 266h15q-6 -46 -9.5 -88.5
t-4 -60t0 -56t0.5 -41.5h76v475h-430v-80q162 0 357 25l2 -4q-23 -162 -123.5 -258t-249.5 -96q-76 0 -146 26t-127 75.5t-90.5 130.5t-33.5 183q0 186 110 305t279 119q119 0 211.5 -63t132.5 -172l78 30q-28 95 -97.5 162t-152.5 96t-174 29q-205 0 -341.5 -143.5
t-136.5 -362.5q0 -218 134.5 -357.5t341.5 -139.5z" />
    <glyph glyph-name="H.ss07" 
d="M1020 -315q-197 0 -371.5 71t-298.5 193.5t-196 293.5t-72 365q0 198 72 372.5t196 298.5t298 195.5t372 71.5q200 0 375.5 -71.5t301 -195.5t197.5 -298.5t72 -372.5q0 -259 -123 -470.5t-339.5 -332t-483.5 -120.5zM657 1096v-963h88q0 299 -12 457l6 6q302 -29 570 0
l6 -6q-12 -164 -12 -457h88v963h-88q0 -289 12 -439l-6 -6q-267 15 -570 0l-6 6q12 141 12 439h-88z" />
    <glyph glyph-name="I.ss07" 
d="M1020 -315q-197 0 -371.5 71t-298.5 193.5t-196 293.5t-72 365q0 198 72 372.5t196 298.5t298 195.5t372 71.5q200 0 375.5 -71.5t301 -195.5t197.5 -298.5t72 -372.5q0 -259 -123 -470.5t-339.5 -332t-483.5 -120.5zM981 1096v-963h86v963h-86z" />
    <glyph glyph-name="J.ss07" 
d="M1020 -315q-197 0 -371.5 71t-298.5 193.5t-196 293.5t-72 365q0 198 72 372.5t196 298.5t298 195.5t372 71.5q200 0 375.5 -71.5t301 -195.5t197.5 -298.5t72 -372.5q0 -259 -123 -470.5t-339.5 -332t-483.5 -120.5zM987 123q43 0 79.5 10t62.5 25.5t46.5 40.5t33.5 48
t22.5 56.5t14 56.5t6.5 57.5t2.5 51.5t0.5 45v592h-86v-617q0 -33 -1.5 -56t-6 -61t-17 -64t-31.5 -52t-52 -39.5t-76 -13.5q-39 0 -74 11.5t-68 37t-52 75.5t-19 119v29l-80 -8v-35q0 -84 26 -146t70 -96.5t94 -50.5t105 -16z" />
    <glyph glyph-name="K.ss07" 
d="M1020 -315q-197 0 -371.5 71t-298.5 193.5t-196 293.5t-72 365q0 198 72 372.5t196 298.5t298 195.5t372 71.5q200 0 375.5 -71.5t301 -195.5t197.5 -298.5t72 -372.5q0 -259 -123 -470.5t-339.5 -332t-483.5 -120.5zM729 1096v-963h86q0 225 -6 346q64 49 133 146h2
q43 -63 96 -134.5t87 -115t100.5 -128.5t89.5 -114h106q-237 308 -430 539v6q52 48 111 107t96 97.5t107 112.5t96 101h-109q-358 -380 -493 -531h-6q5 41 8.5 81t5.5 84.5t3.5 72t2 79.5t0.5 68.5v76.5v69h-86z" />
    <glyph glyph-name="L.ss07" 
d="M1020 -315q-197 0 -371.5 71t-298.5 193.5t-196 293.5t-72 365q0 198 72 372.5t196 298.5t298 195.5t372 71.5q200 0 375.5 -71.5t301 -195.5t197.5 -298.5t72 -372.5q0 -259 -123 -470.5t-339.5 -332t-483.5 -120.5zM813 1096v-963h584v84q-326 0 -504 -16l-6 8
q12 307 12 887h-86z" />
    <glyph glyph-name="M.ss07" 
d="M1020 -315q-197 0 -371.5 71t-298.5 193.5t-196 293.5t-72 365q0 198 72 372.5t196 298.5t298 195.5t372 71.5q200 0 375.5 -71.5t301 -195.5t197.5 -298.5t72 -372.5q0 -259 -123 -470.5t-339.5 -332t-483.5 -120.5zM539 1096v-963h86q0 89 -0.5 195t-1 200.5t-6 209
t-15.5 220.5h4q211 -469 377 -825h80q166 356 377 825h4q-8 -88 -12.5 -173t-6.5 -183.5t-2.5 -150t0 -171t0.5 -147.5h86v963h-84q-214 -432 -401 -867h-2q-179 437 -401 867h-82z" />
    <glyph glyph-name="N.ss07" 
d="M1020 -315q-197 0 -371.5 71t-298.5 193.5t-196 293.5t-72 365q0 198 72 372.5t196 298.5t298 195.5t372 71.5q200 0 375.5 -71.5t301 -195.5t197.5 -298.5t72 -372.5q0 -259 -123 -470.5t-339.5 -332t-483.5 -120.5zM659 1096v-963h86q0 28 0.5 154t0 176.5t-2 152
t-5.5 186t-11 171.5h4q239 -348 604 -840h78v963h-86v-79.5v-84.5v-78.5t0.5 -85.5t1.5 -80.5t2 -87.5t2.5 -83t3.5 -91t5 -86.5t6 -93.5h-5q-301 443 -606 850h-78z" />
    <glyph glyph-name="O.ss07" 
d="M1020 -315q-197 0 -371.5 71t-298.5 193.5t-196 293.5t-72 365q0 198 72 372.5t196 298.5t298 195.5t372 71.5q200 0 375.5 -71.5t301 -195.5t197.5 -298.5t72 -372.5q0 -259 -123 -470.5t-339.5 -332t-483.5 -120.5zM1024 113q133 0 244 66t175 181.5t64 253.5
t-64 253.5t-174.5 182t-242.5 66.5q-204 0 -343.5 -145t-139.5 -357t139 -356.5t342 -144.5zM633 614q0 175 114.5 297.5t278.5 122.5q161 0 275 -122.5t114 -297.5t-114 -297t-275 -122q-164 0 -278.5 121.5t-114.5 297.5z" />
    <glyph glyph-name="P.ss07" 
d="M1020 -315q-197 0 -371.5 71t-298.5 193.5t-196 293.5t-72 365q0 198 72 372.5t196 298.5t298 195.5t372 71.5q200 0 375.5 -71.5t301 -195.5t197.5 -298.5t72 -372.5q0 -259 -123 -470.5t-339.5 -332t-483.5 -120.5zM741 1096v-963h86q0 257 -10 404q93 -19 281 -19
q126 0 210.5 79.5t84.5 213.5q0 133 -89 209t-227 76h-336zM821 586l-4 6q15 221 -2 432l6 6q86 -14 242 -14q108 0 172.5 -56t64.5 -153q0 -102 -59.5 -155.5t-167.5 -53.5q-162 0 -252 -12z" />
    <glyph glyph-name="Q.ss07" 
d="M1020 -315q-197 0 -371.5 71t-298.5 193.5t-196 293.5t-72 365q0 198 72 372.5t196 298.5t298 195.5t372 71.5q200 0 375.5 -71.5t301 -195.5t197.5 -298.5t72 -372.5q0 -259 -123 -470.5t-339.5 -332t-483.5 -120.5zM1409 66l61 53q-6 7 -32 37t-38 42.5t-34 35.5
t-43 42q88 68 135 166.5t47 216.5q0 138 -64 253.5t-175 182t-244 66.5q-205 0 -345 -145t-140 -357t139.5 -356.5t343.5 -144.5q144 0 254 84q39 -63 135 -176zM629 659q0 177 113.5 298.5t279.5 121.5q163 0 276 -121.5t113 -298.5q0 -187 -131 -333q-85 124 -197 249
l-61 -51q154 -178 209 -231q-107 -55 -209 -55q-166 0 -279.5 122t-113.5 299z" />
    <glyph glyph-name="R.ss07" 
d="M1020 -315q-197 0 -371.5 71t-298.5 193.5t-196 293.5t-72 365q0 198 72 372.5t196 298.5t298 195.5t372 71.5q200 0 375.5 -71.5t301 -195.5t197.5 -298.5t72 -372.5q0 -259 -123 -470.5t-339.5 -332t-483.5 -120.5zM745 1096v-963h89q0 245 -13 404q102 -19 236 -19
l256 -385h98q-215 320 -272 399v3q119 12 188.5 85t69.5 191q0 133 -89 209t-227 76h-336zM827 584l-6 6q18 217 -2 434l8 6q98 -14 240 -14q110 0 175 -56t65 -153q0 -102 -60.5 -156.5t-167.5 -54.5q-162 0 -252 -12z" />
    <glyph glyph-name="S.ss07" 
d="M1020 -315q-197 0 -371.5 71t-298.5 193.5t-196 293.5t-72 365q0 198 72 372.5t196 298.5t298 195.5t372 71.5q200 0 375.5 -71.5t301 -195.5t197.5 -298.5t72 -372.5q0 -259 -123 -470.5t-339.5 -332t-483.5 -120.5zM1040 113q139 0 232.5 79.5t93.5 200.5q0 26 -5 49.5
t-12 41.5t-21 35t-25 28.5t-31.5 24.5t-32.5 19.5t-37 16.5t-35.5 13.5t-36.5 12t-34 11.5l-92 29q-26 8 -43.5 14.5t-50 23.5t-53 36t-36.5 50t-16 68q0 74 59 121t152 47q92 0 159 -50.5t93 -141.5l78 32q-29 113 -115 177.5t-207 64.5q-57 0 -111 -16t-99.5 -46.5
t-73 -81.5t-27.5 -114q0 -51 20 -93.5t46 -69t68 -50.5t68.5 -34t65.5 -23l88 -27q7 -2 32 -10t33.5 -11t30 -11t30 -14t25 -16.5t23.5 -21t15.5 -25t12 -32t3.5 -37.5q0 -93 -70.5 -140.5t-161.5 -47.5q-105 0 -180.5 63.5t-103.5 175.5l-80 -31q16 -64 46 -115t66 -83
t80 -53.5t85.5 -30t84.5 -8.5z" />
    <glyph glyph-name="T.ss07" 
d="M1020 -315q-197 0 -371.5 71t-298.5 193.5t-196 293.5t-72 365q0 198 72 372.5t196 298.5t298 195.5t372 71.5q200 0 375.5 -71.5t301 -195.5t197.5 -298.5t72 -372.5q0 -259 -123 -470.5t-339.5 -332t-483.5 -120.5zM979 133h88q0 590 -8 895q117 -12 336 -12v80h-746
v-80q219 0 336 12q-6 -229 -6 -895z" />
    <glyph glyph-name="U.ss07" 
d="M1020 -315q-197 0 -371.5 71t-298.5 193.5t-196 293.5t-72 365q0 198 72 372.5t196 298.5t298 195.5t372 71.5q200 0 375.5 -71.5t301 -195.5t197.5 -298.5t72 -372.5q0 -259 -123 -470.5t-339.5 -332t-483.5 -120.5zM1020 123q169 0 258.5 98.5t89.5 270.5v614h-86v-612
q0 -291 -258 -291t-258 291v612h-86v-614q0 -174 86.5 -271.5t253.5 -97.5z" />
    <glyph glyph-name="V.ss07" 
d="M1020 -315q-197 0 -371.5 71t-298.5 193.5t-196 293.5t-72 365q0 198 72 372.5t196 298.5t298 195.5t372 71.5q200 0 375.5 -71.5t301 -195.5t197.5 -298.5t72 -372.5q0 -259 -123 -470.5t-339.5 -332t-483.5 -120.5zM588 1096l395 -963h84l395 963h-92
q-229 -571 -340 -877h-6q-156 432 -346 877h-90z" />
    <glyph glyph-name="W.ss07" 
d="M1020 -315q-197 0 -371.5 71t-298.5 193.5t-196 293.5t-72 365q0 198 72 372.5t196 298.5t298 195.5t372 71.5q200 0 375.5 -71.5t301 -195.5t197.5 -298.5t72 -372.5q0 -259 -123 -470.5t-339.5 -332t-483.5 -120.5zM350 1096l318 -963h94q155 474 260 871h4
q114 -436 262 -871h92l318 963h-90q-129 -381 -269 -873h-4q-101 361 -266 873h-90q-175 -555 -264 -873h-4q-107 390 -271 873h-90z" />
    <glyph glyph-name="X.ss07" 
d="M1020 -315q-197 0 -371.5 71t-298.5 193.5t-196 293.5t-72 365q0 198 72 372.5t196 298.5t298 195.5t372 71.5q200 0 375.5 -71.5t301 -195.5t197.5 -298.5t72 -372.5q0 -259 -123 -470.5t-339.5 -332t-483.5 -120.5zM635 133h100q189 276 287 442h4q116 -192 287 -442
h98q-22 32 -102.5 150.5t-133.5 194t-108 147.5v8q142 188 336 463h-98q-178 -245 -279 -414h-4q-95 156 -279 414h-100q155 -220 336 -463v-8q-71 -95 -201 -284t-143 -208z" />
    <glyph glyph-name="Y.ss07" 
d="M1020 -315q-197 0 -371.5 71t-298.5 193.5t-196 293.5t-72 365q0 198 72 372.5t196 298.5t298 195.5t372 71.5q200 0 375.5 -71.5t301 -195.5t197.5 -298.5t72 -372.5q0 -259 -123 -470.5t-339.5 -332t-483.5 -120.5zM979 133h88q0 237 -8 356q126 199 368 607h-92
q-205 -340 -311 -545h-2q-118 229 -309 545h-95q190 -320 369 -607q-8 -119 -8 -356z" />
    <glyph glyph-name="Z.ss07" 
d="M1020 -315q-197 0 -371.5 71t-298.5 193.5t-196 293.5t-72 365q0 198 72 372.5t196 298.5t298 195.5t372 71.5q200 0 375.5 -71.5t301 -195.5t197.5 -298.5t72 -372.5q0 -259 -123 -470.5t-339.5 -332t-483.5 -120.5zM672 203v-70h737v84q-388 0 -641 -16l-2 2
q69 90 202 261t236 306t195 260v66h-703v-80q343 0 607 20v-2q-77 -102 -295.5 -387.5t-335.5 -443.5z" />
    <glyph glyph-name="A.ss08" 
d="M1020 -315q-197 0 -371.5 71t-298.5 193.5t-196 293.5t-72 365q0 198 72 372.5t196 298.5t298 195.5t372 71.5q200 0 375.5 -71.5t301 -195.5t197.5 -298.5t72 -372.5q0 -259 -123 -470.5t-339.5 -332t-483.5 -120.5zM1020 -236q244 0 441.5 109.5t310 303.5t112.5 433
q0 181 -66 340t-180.5 272t-275 178.5t-342.5 65.5q-180 0 -339 -65.5t-273 -178.5t-180 -272.5t-66 -339.5q0 -178 66 -335t180 -269t273 -177t339 -65zM780 270h-67l280 688h64l282 -688h-71q-60 146 -92 252l-5 4q-86 -8 -139 -8q-57 0 -151 8l-7 -4q-38 -120 -94 -252z
M895 567q86 11 137 11q50 0 121 -11q-83 183 -125 324h-6q-59 -179 -127 -324z" />
    <glyph glyph-name="B.ss08" 
d="M1020 -315q-197 0 -371.5 71t-298.5 193.5t-196 293.5t-72 365q0 198 72 372.5t196 298.5t298 195.5t372 71.5q200 0 375.5 -71.5t301 -195.5t197.5 -298.5t72 -372.5q0 -259 -123 -470.5t-339.5 -332t-483.5 -120.5zM1020 -236q244 0 441.5 109.5t310 303.5t112.5 433
q0 181 -66 340t-180.5 272t-275 178.5t-342.5 65.5q-180 0 -339 -65.5t-273 -178.5t-180 -272.5t-66 -339.5q0 -178 66 -335t180 -269t273 -177t339 -65zM1079 270h-276v688h239q99 0 162.5 -51.5t63.5 -132.5q0 -56 -33.5 -97t-91.5 -56q68 -14 107.5 -57t39.5 -105
q0 -82 -61 -135.5t-150 -53.5zM858 641l2 -2q66 6 180 6q72 0 117 34.5t45 90.5q0 57 -48 92t-122 35q-106 0 -172 10l-2 -2q12 -128 0 -264zM858 324l2 -2q74 10 201 10q73 0 116.5 33t43.5 90q0 59 -46.5 96t-119.5 37q-125 0 -195 6l-2 -2q12 -138 0 -268z" />
    <glyph glyph-name="C.ss08" 
d="M1020 -315q-197 0 -371.5 71t-298.5 193.5t-196 293.5t-72 365q0 198 72 372.5t196 298.5t298 195.5t372 71.5q200 0 375.5 -71.5t301 -195.5t197.5 -298.5t72 -372.5q0 -259 -123 -470.5t-339.5 -332t-483.5 -120.5zM1020 -236q244 0 441.5 109.5t310 303.5t112.5 433
q0 181 -66 340t-180.5 272t-275 178.5t-342.5 65.5q-180 0 -339 -65.5t-273 -178.5t-180 -272.5t-66 -339.5q0 -178 66 -335t180 -269t273 -177t339 -65zM1044 256q-152 0 -249 98.5t-97 255.5q0 158 97.5 260.5t244.5 102.5q112 0 193.5 -56.5t109.5 -150.5l-55 -25
q-29 78 -95 123t-151 45q-120 0 -197 -83.5t-77 -215.5q0 -94 41.5 -162.5t104.5 -99.5t137 -31q99 0 169 57t93 158l59 -22q-34 -121 -120 -187.5t-208 -66.5z" />
    <glyph glyph-name="D.ss08" 
d="M1020 -315q-197 0 -371.5 71t-298.5 193.5t-196 293.5t-72 365q0 198 72 372.5t196 298.5t298 195.5t372 71.5q200 0 375.5 -71.5t301 -195.5t197.5 -298.5t72 -372.5q0 -259 -123 -470.5t-339.5 -332t-483.5 -120.5zM1020 -236q244 0 441.5 109.5t310 303.5t112.5 433
q0 181 -66 340t-180.5 272t-275 178.5t-342.5 65.5q-180 0 -339 -65.5t-273 -178.5t-180 -272.5t-66 -339.5q0 -178 66 -335t180 -269t273 -177t339 -65zM1026 270h-248v688h240q154 0 241 -90t87 -250q0 -158 -87.5 -253t-232.5 -95zM834 324l2 -2q72 10 198 10
q113 0 179.5 75.5t66.5 206.5q0 136 -72 209.5t-198 73.5q-113 0 -174 10l-2 -2q15 -289 0 -581z" />
    <glyph glyph-name="E.ss08" 
d="M1020 -315q-197 0 -371.5 71t-298.5 193.5t-196 293.5t-72 365q0 198 72 372.5t196 298.5t298 195.5t372 71.5q200 0 375.5 -71.5t301 -195.5t197.5 -298.5t72 -372.5q0 -259 -123 -470.5t-339.5 -332t-483.5 -120.5zM1020 -236q244 0 441.5 109.5t310 303.5t112.5 433
q0 181 -66 340t-180.5 272t-275 178.5t-342.5 65.5q-180 0 -339 -65.5t-273 -178.5t-180 -272.5t-66 -339.5q0 -178 66 -335t180 -269t273 -177t339 -65zM1266 270h-447v688h438v-61q-29 0 -113 0.5t-144 2.5t-121 7l-2 -2q12 -130 0 -256l4 -2q129 8 358 8v-61
q-231 0 -358 10l-4 -4q12 -139 0 -276l2 -2q137 12 387 12v-64z" />
    <glyph glyph-name="F.ss08" 
d="M1020 -315q-197 0 -371.5 71t-298.5 193.5t-196 293.5t-72 365q0 198 72 372.5t196 298.5t298 195.5t372 71.5q200 0 375.5 -71.5t301 -195.5t197.5 -298.5t72 -372.5q0 -259 -123 -470.5t-339.5 -332t-483.5 -120.5zM1020 -236q244 0 441.5 109.5t310 303.5t112.5 433
q0 181 -66 340t-180.5 272t-275 178.5t-342.5 65.5q-180 0 -339 -65.5t-273 -178.5t-180 -272.5t-66 -339.5q0 -178 66 -335t180 -269t273 -177t339 -65zM899 270h-65v688h428v-61q-238 0 -369 10l-2 -2q12 -131 0 -262l4 -2q100 8 350 8v-59q-225 0 -350 8l-4 -2
q8 -111 8 -326z" />
    <glyph glyph-name="G.ss08" 
d="M1020 1546q200 0 375.5 -71.5t301 -195.5t197.5 -298.5t72 -372.5q0 -259 -123 -470.5t-339.5 -332t-483.5 -120.5q-197 0 -371.5 71t-298.5 193.5t-196 293.5t-72 365q0 198 72 372.5t196 298.5t298 195.5t372 71.5zM1020 -236q244 0 441.5 109.5t310 303.5t112.5 433
q0 181 -66 340t-180.5 272t-275 178.5t-342.5 65.5q-180 0 -339 -65.5t-273 -178.5t-180 -272.5t-66 -339.5q0 -178 66 -335t180 -269t273 -177t339 -65zM1057 553v57h309v-340h-57q0 16 -1 47t-1 56t2 47q-37 -79 -106.5 -121.5t-162.5 -42.5q-151 0 -246.5 99.5
t-95.5 254.5q0 157 97 260t245 103q112 0 193.5 -56.5t109.5 -150.5l-55 -25q-29 78 -95 123t-151 45q-120 0 -197 -83.5t-77 -215.5q0 -141 82.5 -217t198.5 -76q105 0 176 67.5t86 182.5q-149 -17 -254 -14z" />
    <glyph glyph-name="H.ss08" 
d="M1020 -315q-197 0 -371.5 71t-298.5 193.5t-196 293.5t-72 365q0 198 72 372.5t196 298.5t298 195.5t372 71.5q200 0 375.5 -71.5t301 -195.5t197.5 -298.5t72 -372.5q0 -259 -123 -470.5t-339.5 -332t-483.5 -120.5zM1020 -236q244 0 441.5 109.5t310 303.5t112.5 433
q0 181 -66 340t-180.5 272t-275 178.5t-342.5 65.5q-180 0 -339 -65.5t-273 -178.5t-180 -272.5t-66 -339.5q0 -178 66 -335t180 -269t273 -177t339 -65zM827 270h-65v688h65q0 -211 -8 -311l4 -4q214 9 404 0l4 4q-8 104 -8 311h65v-688h-65q0 207 8 326l-4 4
q-190 -24 -406 0l-2 -4q8 -113 8 -326z" />
    <glyph glyph-name="I.ss08" 
d="M1020 -315q-197 0 -371.5 71t-298.5 193.5t-196 293.5t-72 365q0 198 72 372.5t196 298.5t298 195.5t372 71.5q200 0 375.5 -71.5t301 -195.5t197.5 -298.5t72 -372.5q0 -259 -123 -470.5t-339.5 -332t-483.5 -120.5zM1020 -236q244 0 441.5 109.5t310 303.5t112.5 433
q0 181 -66 340t-180.5 272t-275 178.5t-342.5 65.5q-180 0 -339 -65.5t-273 -178.5t-180 -272.5t-66 -339.5q0 -178 66 -335t180 -269t273 -177t339 -65zM1057 270h-66v688h66v-688z" />
    <glyph glyph-name="J.ss08" 
d="M1020 -315q-197 0 -371.5 71t-298.5 193.5t-196 293.5t-72 365q0 198 72 372.5t196 298.5t298 195.5t372 71.5q200 0 375.5 -71.5t301 -195.5t197.5 -298.5t72 -372.5q0 -259 -123 -470.5t-339.5 -332t-483.5 -120.5zM1020 -236q244 0 441.5 109.5t310 303.5t112.5 433
q0 181 -66 340t-180.5 272t-275 178.5t-342.5 65.5q-180 0 -339 -65.5t-273 -178.5t-180 -272.5t-66 -339.5q0 -178 66 -335t180 -269t273 -177t339 -65zM997 262q-98 0 -154.5 59t-56.5 162v27l62 8v-24q0 -80 39 -126t108 -46q36 0 62 15t38.5 35t19.5 52t8 51.5t1 48.5
v441h66v-424q0 -26 -0.5 -42t-4 -48.5t-10.5 -54.5t-21 -49.5t-34 -44t-51.5 -28.5t-71.5 -12z" />
    <glyph glyph-name="K.ss08" 
d="M1020 1546q200 0 375.5 -71.5t301 -195.5t197.5 -298.5t72 -372.5q0 -259 -123 -470.5t-339.5 -332t-483.5 -120.5q-197 0 -371.5 71t-298.5 193.5t-196 293.5t-72 365q0 198 72 372.5t196 298.5t298 195.5t372 71.5zM1020 -236q244 0 441.5 109.5t310 303.5t112.5 433
q0 181 -66 340t-180.5 272t-275 178.5t-342.5 65.5q-180 0 -339 -65.5t-273 -178.5t-180 -272.5t-66 -339.5q0 -178 66 -335t180 -269t273 -177t339 -65zM1006 659v-4q137 -164 307 -385h-82q-215 277 -264 346q-39 -55 -93 -100q5 -105 5 -246h-66v688h66q0 -258 -11 -378
q66 77 112 127.5t119 126.5t118 124h81q-20 -21 -86.5 -91.5t-112.5 -117.5t-93 -90z" />
    <glyph glyph-name="L.ss08" 
d="M1020 -315q-197 0 -371.5 71t-298.5 193.5t-196 293.5t-72 365q0 198 72 372.5t196 298.5t298 195.5t372 71.5q200 0 375.5 -71.5t301 -195.5t197.5 -298.5t72 -372.5q0 -259 -123 -470.5t-339.5 -332t-483.5 -120.5zM1020 -236q244 0 441.5 109.5t310 303.5t112.5 433
q0 181 -66 340t-180.5 272t-275 178.5t-342.5 65.5q-180 0 -339 -65.5t-273 -178.5t-180 -272.5t-66 -339.5q0 -178 66 -335t180 -269t273 -177t339 -65zM1292 270h-420v688h66q0 -413 -8 -634l2 -2q129 12 360 12v-64z" />
    <glyph glyph-name="M.ss08" 
d="M1020 1546q200 0 375.5 -71.5t301 -195.5t197.5 -298.5t72 -372.5q0 -259 -123 -470.5t-339.5 -332t-483.5 -120.5q-197 0 -371.5 71t-298.5 193.5t-196 293.5t-72 365q0 198 72 372.5t196 298.5t298 195.5t372 71.5zM1020 -236q244 0 441.5 109.5t310 303.5t112.5 433
q0 181 -66 340t-180.5 272t-275 178.5t-342.5 65.5q-180 0 -339 -65.5t-273 -178.5t-180 -272.5t-66 -339.5q0 -178 66 -335t180 -269t273 -177t339 -65zM1024 344q103 244 285 614h61v-688h-65q0 28 -0.5 109.5t0 122t1.5 107.5t3.5 124.5t7.5 114.5q-95 -217 -264 -578
h-58q-147 310 -264 578q5 -59 7.5 -117.5t3.5 -125.5t1.5 -107.5t0 -120.5t-0.5 -107h-65v688h61q164 -321 285 -614z" />
    <glyph glyph-name="N.ss08" 
d="M1020 1546q200 0 375.5 -71.5t301 -195.5t197.5 -298.5t72 -372.5q0 -259 -123 -470.5t-339.5 -332t-483.5 -120.5q-197 0 -371.5 71t-298.5 193.5t-196 293.5t-72 365q0 198 72 372.5t196 298.5t298 195.5t372 71.5zM1020 -236q244 0 441.5 109.5t310 303.5t112.5 433
q0 181 -66 340t-180.5 272t-275 178.5t-342.5 65.5q-180 0 -339 -65.5t-273 -178.5t-180 -272.5t-66 -339.5q0 -178 66 -335t180 -269t273 -177t339 -65zM1249 358q-12 205 -12 600h66v-688h-56q-235 312 -430 594q12 -203 12 -594h-65v688h55q263 -352 430 -600z" />
    <glyph glyph-name="O.ss08" 
d="M1020 -315q-197 0 -371.5 71t-298.5 193.5t-196 293.5t-72 365q0 198 72 372.5t196 298.5t298 195.5t372 71.5q200 0 375.5 -71.5t301 -195.5t197.5 -298.5t72 -372.5q0 -259 -123 -470.5t-339.5 -332t-483.5 -120.5zM1020 -236q244 0 441.5 109.5t310 303.5t112.5 433
q0 181 -66 340t-180.5 272t-275 178.5t-342.5 65.5q-180 0 -339 -65.5t-273 -178.5t-180 -272.5t-66 -339.5q0 -178 66 -335t180 -269t273 -177t339 -65zM1024 256q-145 0 -244.5 103t-99.5 255q0 151 100 255t246 104q145 0 244.5 -104t99.5 -255t-100 -254.5t-246 -103.5z
M1026 317q115 0 194.5 86t79.5 211q0 124 -79 209.5t-195 85.5t-196 -85.5t-80 -209.5t80 -210.5t196 -86.5z" />
    <glyph glyph-name="P.ss08" 
d="M1020 -315q-197 0 -371.5 71t-298.5 193.5t-196 293.5t-72 365q0 198 72 372.5t196 298.5t298 195.5t372 71.5q200 0 375.5 -71.5t301 -195.5t197.5 -298.5t72 -372.5q0 -259 -123 -470.5t-339.5 -332t-483.5 -120.5zM1020 -236q244 0 441.5 109.5t310 303.5t112.5 433
q0 181 -66 340t-180.5 272t-275 178.5t-342.5 65.5q-180 0 -339 -65.5t-273 -178.5t-180 -272.5t-66 -339.5q0 -178 66 -335t180 -269t273 -177t339 -65zM885 270h-66v688h240q100 0 163.5 -54t63.5 -148q0 -98 -59.5 -155.5t-151.5 -57.5q-135 0 -198 14q8 -106 8 -287z
M877 598l2 -4q66 10 178 10q77 0 120.5 38.5t43.5 109.5q0 67 -46.5 106t-123.5 39q-111 0 -172 10l-2 -2q12 -153 0 -307z" />
    <glyph glyph-name="Q.ss08" 
d="M1020 -315q-197 0 -371.5 71t-298.5 193.5t-196 293.5t-72 365q0 198 72 372.5t196 298.5t298 195.5t372 71.5q200 0 375.5 -71.5t301 -195.5t197.5 -298.5t72 -372.5q0 -259 -123 -470.5t-339.5 -332t-483.5 -120.5zM1020 -236q244 0 441.5 109.5t310 303.5t112.5 433
q0 181 -66 340t-180.5 272t-275 178.5t-342.5 65.5q-180 0 -339 -65.5t-273 -178.5t-180 -272.5t-66 -339.5q0 -178 66 -335t180 -269t273 -177t339 -65zM1341 260l-45 -39q-59 66 -94 123q-82 -57 -182 -57q-145 0 -245.5 103t-100.5 255t101 256.5t247 104.5
q145 0 244.5 -104.5t99.5 -256.5q0 -83 -32.5 -153t-92.5 -117q39 -37 100 -115zM1022 348q70 0 145 37q-43 41 -147 164l47 41q90 -109 139 -178q92 106 92 233q0 124 -80 210.5t-196 86.5q-117 0 -198 -86t-81 -211t81 -211t198 -86z" />
    <glyph glyph-name="R.ss08" 
d="M1020 1546q200 0 375.5 -71.5t301 -195.5t197.5 -298.5t72 -372.5q0 -259 -123 -470.5t-339.5 -332t-483.5 -120.5q-197 0 -371.5 71t-298.5 193.5t-196 293.5t-72 365q0 198 72 372.5t196 298.5t298 195.5t372 71.5zM1020 -236q244 0 441.5 109.5t310 303.5t112.5 433
q0 181 -66 340t-180.5 272t-275 178.5t-342.5 65.5q-180 0 -339 -65.5t-273 -178.5t-180 -272.5t-66 -339.5q0 -178 66 -335t180 -269t273 -177t339 -65zM1288 754q0 -84 -47.5 -136t-132.5 -63q31 -43 64 -91t71.5 -105.5t59.5 -88.5h-76l-183 273q-94 0 -163 14
q8 -106 8 -287h-66v688h240q100 0 162.5 -54t62.5 -150zM881 598l2 -4q66 8 178 8q76 0 119 39.5t43 110.5q0 67 -45.5 107t-122.5 40q-111 0 -172 8l-2 -2q12 -156 0 -307z" />
    <glyph glyph-name="S.ss08" 
d="M1020 -315q-197 0 -371.5 71t-298.5 193.5t-196 293.5t-72 365q0 198 72 372.5t196 298.5t298 195.5t372 71.5q200 0 375.5 -71.5t301 -195.5t197.5 -298.5t72 -372.5q0 -259 -123 -470.5t-339.5 -332t-483.5 -120.5zM1020 -236q244 0 441.5 109.5t310 303.5t112.5 433
q0 181 -66 340t-180.5 272t-275 178.5t-342.5 65.5q-180 0 -339 -65.5t-273 -178.5t-180 -272.5t-66 -339.5q0 -178 66 -335t180 -269t273 -177t339 -65zM1036 256q-98 0 -166.5 55.5t-93.5 153.5l60 22q20 -79 74 -124.5t128 -45.5q64 0 113 34t49 100q0 24 -8 42t-19 29.5
t-30.5 21t-35 14.5t-39.5 12q-7 2 -11 3l-64 21q-30 11 -46.5 17t-48.5 23.5t-49.5 36t-32.5 49.5t-15 68q0 88 68.5 136.5t156.5 48.5q86 0 146.5 -46t82.5 -128l-57 -25q-19 64 -66.5 99.5t-113.5 35.5t-107 -32t-41 -84q0 -90 142 -136l63 -20q30 -9 36.5 -11t35.5 -12.5
t39.5 -17.5t31.5 -22t29.5 -30t16.5 -38t8 -49q0 -86 -68 -143.5t-168 -57.5z" />
    <glyph glyph-name="T.ss08" 
d="M1020 -315q-197 0 -371.5 71t-298.5 193.5t-196 293.5t-72 365q0 198 72 372.5t196 298.5t298 195.5t372 71.5q200 0 375.5 -71.5t301 -195.5t197.5 -298.5t72 -372.5q0 -259 -123 -470.5t-339.5 -332t-483.5 -120.5zM1020 -236q244 0 441.5 109.5t310 303.5t112.5 433
q0 181 -66 340t-180.5 272t-275 178.5t-342.5 65.5q-180 0 -339 -65.5t-273 -178.5t-180 -272.5t-66 -339.5q0 -178 66 -335t180 -269t273 -177t339 -65zM1055 270h-64q0 420 4 637q-84 -10 -239 -10v61h534v-61q-155 0 -239 10q4 -217 4 -637z" />
    <glyph glyph-name="U.ss08" 
d="M1020 -315q-197 0 -371.5 71t-298.5 193.5t-196 293.5t-72 365q0 198 72 372.5t196 298.5t298 195.5t372 71.5q200 0 375.5 -71.5t301 -195.5t197.5 -298.5t72 -372.5q0 -259 -123 -470.5t-339.5 -332t-483.5 -120.5zM1020 -236q244 0 441.5 109.5t310 303.5t112.5 433
q0 181 -66 340t-180.5 272t-275 178.5t-342.5 65.5q-180 0 -339 -65.5t-273 -178.5t-180 -272.5t-66 -339.5q0 -178 66 -335t180 -269t273 -177t339 -65zM1022 262q-120 0 -182 68.5t-62 193.5v441h64v-439q0 -204 182 -204q180 0 180 204v439h66v-441q0 -123 -64 -192.5
t-184 -69.5z" />
    <glyph glyph-name="V.ss08" 
d="M1020 -315q-197 0 -371.5 71t-298.5 193.5t-196 293.5t-72 365q0 198 72 372.5t196 298.5t298 195.5t372 71.5q200 0 375.5 -71.5t301 -195.5t197.5 -298.5t72 -372.5q0 -259 -123 -470.5t-339.5 -332t-483.5 -120.5zM1020 -236q244 0 441.5 109.5t310 303.5t112.5 433
q0 181 -66 340t-180.5 272t-275 178.5t-342.5 65.5q-180 0 -339 -65.5t-273 -178.5t-180 -272.5t-66 -339.5q0 -178 66 -335t180 -269t273 -177t339 -65zM1057 270h-62l-282 688h67q140 -325 248 -626q36 100 76 204t92.5 236.5l73.5 185.5h69z" />
    <glyph glyph-name="W.ss08" 
d="M1020 1546q200 0 375.5 -71.5t301 -195.5t197.5 -298.5t72 -372.5q0 -259 -123 -470.5t-339.5 -332t-483.5 -120.5q-197 0 -371.5 71t-298.5 193.5t-196 293.5t-72 365q0 198 72 372.5t196 298.5t298 195.5t372 71.5zM1020 -236q244 0 441.5 109.5t310 303.5t112.5 433
q0 181 -66 340t-180.5 272t-275 178.5t-342.5 65.5q-180 0 -339 -65.5t-273 -178.5t-180 -272.5t-66 -339.5q0 -178 66 -335t180 -269t273 -177t339 -65zM1247 344q90 319 193 614h65l-225 -688h-70q-93 273 -186 609q-100 -361 -186 -609h-70l-225 688h67
q124 -360 195 -612q86 307 186 612h68q86 -264 188 -614z" />
    <glyph glyph-name="X.ss08" 
d="M1020 -315q-197 0 -371.5 71t-298.5 193.5t-196 293.5t-72 365q0 198 72 372.5t196 298.5t298 195.5t372 71.5q200 0 375.5 -71.5t301 -195.5t197.5 -298.5t72 -372.5q0 -259 -123 -470.5t-339.5 -332t-483.5 -120.5zM1020 -236q244 0 441.5 109.5t310 303.5t112.5 433
q0 181 -66 340t-180.5 272t-275 178.5t-342.5 65.5q-180 0 -339 -65.5t-273 -178.5t-180 -272.5t-66 -339.5q0 -178 66 -335t180 -269t273 -177t339 -65zM819 270h-76q26 38 76 111.5t91.5 132t80.5 109.5v4q-82 106 -241 331h75q109 -150 199 -294q68 114 199 294h73
q-111 -161 -239 -331v-4q54 -72 246 -353h-74q-100 146 -205 314q-79 -130 -205 -314z" />
    <glyph glyph-name="Y.ss08" 
d="M1020 -315q-197 0 -371.5 71t-298.5 193.5t-196 293.5t-72 365q0 198 72 372.5t196 298.5t298 195.5t372 71.5q200 0 375.5 -71.5t301 -195.5t197.5 -298.5t72 -372.5q0 -259 -123 -470.5t-339.5 -332t-483.5 -120.5zM1020 -236q244 0 441.5 109.5t310 303.5t112.5 433
q0 181 -66 340t-180.5 272t-275 178.5t-342.5 65.5q-180 0 -339 -65.5t-273 -178.5t-180 -272.5t-66 -339.5q0 -178 66 -335t180 -269t273 -177t339 -65zM1055 270h-64q0 170 4 256q-64 100 -264 432h74q127 -215 219 -387q83 160 221 387h70q-200 -332 -264 -432
q4 -57 4 -256z" />
    <glyph glyph-name="Z.ss08" 
d="M1020 -315q-197 0 -371.5 71t-298.5 193.5t-196 293.5t-72 365q0 198 72 372.5t196 298.5t298 195.5t372 71.5q200 0 375.5 -71.5t301 -195.5t197.5 -298.5t72 -372.5q0 -259 -123 -470.5t-339.5 -332t-483.5 -120.5zM1020 -236q244 0 441.5 109.5t310 303.5t112.5 433
q0 181 -66 340t-180.5 272t-275 178.5t-342.5 65.5q-180 0 -339 -65.5t-273 -178.5t-180 -272.5t-66 -339.5q0 -178 66 -335t180 -269t273 -177t339 -65zM1303 270h-529v52q125 171 449 589q-266 -14 -432 -14v61h503v-49q-66 -90 -137.5 -183t-170.5 -220t-142 -182v-2
q190 12 459 12v-64z" />
    <glyph glyph-name="i.loclTRK" horiz-adv-x="491" 
d="M248 1434q-44 0 -74.5 30t-30.5 74q0 42 30.5 72t74.5 30q42 0 71 -30t29 -72q0 -44 -28.5 -74t-71.5 -30zM301 0h-111v1128h111v-1128z" />
    <glyph glyph-name="a.ss01" horiz-adv-x="1378" 
d="M625 -35q-149 0 -269 76t-188 212.5t-68 307.5q0 131 41 243.5t112 190.5t168.5 122t207.5 44q143 0 259.5 -78.5t182.5 -238.5h23q-17 124 -17 284h111v-1128h-111q0 12 -0.5 47t0 54.5t1.5 52t5 66t11 69.5h-23q-65 -164 -182 -244t-264 -80zM641 66q183 0 306.5 145
t123.5 356q0 213 -125 353.5t-307 140.5t-301 -141.5t-119 -356.5q0 -216 120 -356.5t302 -140.5z" />
    <glyph glyph-name="aacute.ss01" horiz-adv-x="1378" 
d="M1044 1671l-311 -393h-98l250 393h159zM625 -35q-149 0 -269 76t-188 212.5t-68 307.5q0 131 41 243.5t112 190.5t168.5 122t207.5 44q143 0 259.5 -78.5t182.5 -238.5h23q-17 124 -17 284h111v-1128h-111q0 12 -0.5 47t0 54.5t1.5 52t5 66t11 69.5h-23
q-65 -164 -182 -244t-264 -80zM641 66q183 0 306.5 145t123.5 356q0 213 -125 353.5t-307 140.5t-301 -141.5t-119 -356.5q0 -216 120 -356.5t302 -140.5z" />
    <glyph glyph-name="abreve.ss01" horiz-adv-x="1378" 
d="M690 1278q-169 0 -267 110.5t-104 284.5h103q6 -138 80.5 -218.5t189.5 -80.5q116 0 190.5 80.5t78.5 218.5h104q-6 -174 -105 -284.5t-270 -110.5zM625 -35q-149 0 -269 76t-188 212.5t-68 307.5q0 131 41 243.5t112 190.5t168.5 122t207.5 44q143 0 259.5 -78.5
t182.5 -238.5h23q-17 124 -17 284h111v-1128h-111q0 12 -0.5 47t0 54.5t1.5 52t5 66t11 69.5h-23q-65 -164 -182 -244t-264 -80zM641 66q183 0 306.5 145t123.5 356q0 213 -125 353.5t-307 140.5t-301 -141.5t-119 -356.5q0 -216 120 -356.5t302 -140.5z" />
    <glyph glyph-name="acircumflex.ss01" horiz-adv-x="1378" 
d="M420 1278h-107l297 356h160l297 -356h-106q-57 57 -90.5 92t-78 89t-75.5 104h-49q-79 -120 -248 -285zM625 -35q-149 0 -269 76t-188 212.5t-68 307.5q0 131 41 243.5t112 190.5t168.5 122t207.5 44q143 0 259.5 -78.5t182.5 -238.5h23q-17 124 -17 284h111v-1128h-111
q0 12 -0.5 47t0 54.5t1.5 52t5 66t11 69.5h-23q-65 -164 -182 -244t-264 -80zM641 66q183 0 306.5 145t123.5 356q0 213 -125 353.5t-307 140.5t-301 -141.5t-119 -356.5q0 -216 120 -356.5t302 -140.5z" />
    <glyph glyph-name="adieresis.ss01" horiz-adv-x="1378" 
d="M518 1382q-41 0 -68.5 29.5t-27.5 69.5q0 39 27.5 66.5t68.5 27.5t67.5 -27.5t26.5 -66.5q0 -41 -27 -70t-67 -29zM862 1382q-41 0 -68.5 29.5t-27.5 69.5q0 39 27.5 66.5t68.5 27.5q39 0 66.5 -27.5t27.5 -66.5q0 -40 -27.5 -69.5t-66.5 -29.5zM625 -35q-149 0 -269 76
t-188 212.5t-68 307.5q0 131 41 243.5t112 190.5t168.5 122t207.5 44q143 0 259.5 -78.5t182.5 -238.5h23q-17 124 -17 284h111v-1128h-111q0 12 -0.5 47t0 54.5t1.5 52t5 66t11 69.5h-23q-65 -164 -182 -244t-264 -80zM641 66q183 0 306.5 145t123.5 356q0 213 -125 353.5
t-307 140.5t-301 -141.5t-119 -356.5q0 -216 120 -356.5t302 -140.5z" />
    <glyph glyph-name="agrave.ss01" horiz-adv-x="1378" 
d="M745 1278h-100l-311 393h162zM625 -35q-149 0 -269 76t-188 212.5t-68 307.5q0 131 41 243.5t112 190.5t168.5 122t207.5 44q143 0 259.5 -78.5t182.5 -238.5h23q-17 124 -17 284h111v-1128h-111q0 12 -0.5 47t0 54.5t1.5 52t5 66t11 69.5h-23q-65 -164 -182 -244
t-264 -80zM641 66q183 0 306.5 145t123.5 356q0 213 -125 353.5t-307 140.5t-301 -141.5t-119 -356.5q0 -216 120 -356.5t302 -140.5z" />
    <glyph glyph-name="amacron.ss01" horiz-adv-x="1378" 
d="M1034 1430h-688v98h688v-98zM625 -35q-149 0 -269 76t-188 212.5t-68 307.5q0 131 41 243.5t112 190.5t168.5 122t207.5 44q143 0 259.5 -78.5t182.5 -238.5h23q-17 124 -17 284h111v-1128h-111q0 12 -0.5 47t0 54.5t1.5 52t5 66t11 69.5h-23q-65 -164 -182 -244
t-264 -80zM641 66q183 0 306.5 145t123.5 356q0 213 -125 353.5t-307 140.5t-301 -141.5t-119 -356.5q0 -216 120 -356.5t302 -140.5z" />
    <glyph glyph-name="aogonek.ss01" horiz-adv-x="1378" 
d="M1188 -379q40 0 88 14v-84q-55 -14 -98 -14q-112 0 -187.5 62.5t-75.5 164.5q0 139 164 236h-2q0 12 -0.5 47t0 54.5t1.5 52t5 66t11 69.5h-23q-65 -164 -182 -244t-264 -80q-149 0 -269 76t-188 212.5t-68 307.5q0 131 41 243.5t112 190.5t168.5 122t207.5 44
q143 0 259.5 -78.5t182.5 -238.5h23q-17 124 -17 284h111v-1128h-6q-176 -95 -176 -217q0 -73 53 -117.5t129 -44.5zM641 66q183 0 306.5 145t123.5 356q0 213 -125 353.5t-307 140.5t-301 -141.5t-119 -356.5q0 -216 120 -356.5t302 -140.5z" />
    <glyph glyph-name="aring.ss01" horiz-adv-x="1378" 
d="M692 1245q-96 0 -158.5 61t-62.5 156q0 92 63 152.5t158 60.5q94 0 156.5 -60.5t62.5 -152.5q0 -95 -62.5 -156t-156.5 -61zM692 1329q59 0 97 36t38 97q0 59 -38.5 94t-96.5 35q-61 0 -100 -35t-39 -94q0 -62 39 -97.5t100 -35.5zM625 -35q-149 0 -269 76t-188 212.5
t-68 307.5q0 131 41 243.5t112 190.5t168.5 122t207.5 44q143 0 259.5 -78.5t182.5 -238.5h23q-17 124 -17 284h111v-1128h-111q0 12 -0.5 47t0 54.5t1.5 52t5 66t11 69.5h-23q-65 -164 -182 -244t-264 -80zM641 66q183 0 306.5 145t123.5 356q0 213 -125 353.5t-307 140.5
t-301 -141.5t-119 -356.5q0 -216 120 -356.5t302 -140.5z" />
    <glyph glyph-name="atilde.ss01" horiz-adv-x="1378" 
d="M846 1337q-15 0 -29.5 2t-25 4.5t-23.5 8.5l-19.5 9t-19 12.5t-17 12.5t-18 14.5t-16.5 14.5l-37 33q-2 1 -9.5 8t-10 9t-9.5 8t-10.5 8l-10.5 6t-12 6t-12 4t-14 3t-14 1q-49 0 -80 -42t-31 -107h-86q1 106 57 171.5t144 65.5q43 0 76 -17t73 -52l41 -37
q23 -19 35 -27.5t36 -19.5t46 -11q50 0 77 41.5t27 108.5h86q0 -108 -51 -173t-143 -65zM625 -35q-149 0 -269 76t-188 212.5t-68 307.5q0 131 41 243.5t112 190.5t168.5 122t207.5 44q143 0 259.5 -78.5t182.5 -238.5h23q-17 124 -17 284h111v-1128h-111q0 12 -0.5 47
t0 54.5t1.5 52t5 66t11 69.5h-23q-65 -164 -182 -244t-264 -80zM641 66q183 0 306.5 145t123.5 356q0 213 -125 353.5t-307 140.5t-301 -141.5t-119 -356.5q0 -216 120 -356.5t302 -140.5z" />
    <glyph glyph-name="b.ss01" horiz-adv-x="1159" 
d="M662 -35q-259 0 -363 225h-20q6 -22 9.5 -42.5t5 -44t2 -33.5t0 -38.5t-0.5 -31.5h-105v1638h111q0 -35 0.5 -192.5t0 -220t-2 -187.5t-5.5 -226t-11 -204h22q52 103 144.5 154t209.5 51q191 0 311 -122.5t120 -305.5q0 -178 -119.5 -299t-308.5 -121zM653 59
q137 0 230.5 94t93.5 236q0 134 -86.5 230t-237.5 96q-153 0 -241 -95t-88 -225q0 -137 94.5 -236.5t234.5 -99.5z" />
    <glyph glyph-name="d.ss01" horiz-adv-x="1370" 
d="M625 -35q-149 0 -269 76t-188 212.5t-68 307.5q0 131 41 243.5t112 190.5t168.5 122t207.5 44q141 0 255.5 -77.5t182.5 -239.5h20q-16 293 -16 794h111v-1638h-107q0 154 17 285h-21q-65 -161 -182.5 -240.5t-263.5 -79.5zM639 66q181 0 306.5 140t125.5 357
q0 218 -126.5 358t-305.5 140q-182 0 -301 -141.5t-119 -356.5q0 -216 119.5 -356.5t300.5 -140.5z" />
    <glyph glyph-name="dcaron.ss01" horiz-adv-x="1370" 
d="M625 -35q-149 0 -269 76t-188 212.5t-68 307.5q0 131 41 243.5t112 190.5t168.5 122t207.5 44q141 0 255.5 -77.5t182.5 -239.5h20q-16 293 -16 794h111v-1638h-107q0 154 17 285h-21q-65 -161 -182.5 -240.5t-263.5 -79.5zM1442 1194h-76q74 159 154 248
q-101 18 -101 96q0 42 29.5 71t71.5 29q43 0 71.5 -28.5t28.5 -69.5q0 -36 -30.5 -93.5t-147.5 -252.5zM639 66q181 0 306.5 140t125.5 357q0 218 -126.5 358t-305.5 140q-182 0 -301 -141.5t-119 -356.5q0 -216 119.5 -356.5t300.5 -140.5z" />
    <glyph glyph-name="dcroat.ss01" horiz-adv-x="1370" 
d="M1182 1436h266v-95h-266v-1341h-107q0 154 17 285h-21q-65 -161 -182.5 -240.5t-263.5 -79.5q-149 0 -269 76t-188 212.5t-68 307.5q0 131 41 243.5t112 190.5t168.5 122t207.5 44q141 0 255.5 -77.5t182.5 -239.5h20q-12 222 -16 497h-293v95h293v202h111v-202zM639 66
q181 0 306.5 140t125.5 357q0 218 -126.5 358t-305.5 140q-182 0 -301 -141.5t-119 -356.5q0 -216 119.5 -356.5t300.5 -140.5z" />
    <glyph glyph-name="g.ss01" horiz-adv-x="1370" 
d="M1180 -451h-1012v103q600 0 922 -23q-40 457 -5 660h-20q-68 -142 -183.5 -215.5t-256.5 -73.5q-149 0 -270 76.5t-189 210t-68 297.5q0 166 70 298.5t190.5 205.5t266.5 73q144 0 259.5 -78.5t178.5 -238.5h22q-12 121 -12 284h107v-1579zM637 100q179 0 305.5 139.5
t126.5 346.5q0 206 -126 340.5t-306 134.5q-120 0 -216.5 -63t-150 -172t-53.5 -242q0 -204 120.5 -344t299.5 -140z" />
    <glyph glyph-name="gbreve.ss01" horiz-adv-x="1370" 
d="M686 1278q-169 0 -267 110.5t-104 284.5h103q6 -138 80.5 -218.5t189.5 -80.5q116 0 190 80.5t78 218.5h105q-6 -174 -105 -284.5t-270 -110.5zM1180 -451h-1012v103q600 0 922 -23q-40 457 -5 660h-20q-68 -142 -183.5 -215.5t-256.5 -73.5q-149 0 -270 76.5t-189 210
t-68 297.5q0 166 70 298.5t190.5 205.5t266.5 73q144 0 259.5 -78.5t178.5 -238.5h22q-12 121 -12 284h107v-1579zM637 100q179 0 305.5 139.5t126.5 346.5q0 206 -126 340.5t-306 134.5q-120 0 -216.5 -63t-150 -172t-53.5 -242q0 -204 120.5 -344t299.5 -140z" />
    <glyph glyph-name="uni0123.ss01" horiz-adv-x="1370" 
d="M561 1348q0 36 29.5 91.5t146.5 248.5h76q-90 -180 -141 -267q44 6 66 -18.5t22 -61.5q0 -43 -28 -67.5t-68 -24.5q-44 0 -73.5 28.5t-29.5 70.5zM1180 -451h-1012v103q600 0 922 -23q-40 457 -5 660h-20q-68 -142 -183.5 -215.5t-256.5 -73.5q-149 0 -270 76.5t-189 210
t-68 297.5q0 166 70 298.5t190.5 205.5t266.5 73q144 0 259.5 -78.5t178.5 -238.5h22q-12 121 -12 284h107v-1579zM637 100q179 0 305.5 139.5t126.5 346.5q0 206 -126 340.5t-306 134.5q-120 0 -216.5 -63t-150 -172t-53.5 -242q0 -204 120.5 -344t299.5 -140z" />
    <glyph glyph-name="gdotaccent.ss01" horiz-adv-x="1370" 
d="M688 1436q-44 0 -74 30t-30 74q0 42 30 72t74 30q42 0 71 -30t29 -72q0 -44 -28.5 -74t-71.5 -30zM1180 -451h-1012v103q600 0 922 -23q-40 457 -5 660h-20q-68 -142 -183.5 -215.5t-256.5 -73.5q-149 0 -270 76.5t-189 210t-68 297.5q0 166 70 298.5t190.5 205.5
t266.5 73q144 0 259.5 -78.5t178.5 -238.5h22q-12 121 -12 284h107v-1579zM637 100q179 0 305.5 139.5t126.5 346.5q0 206 -126 340.5t-306 134.5q-120 0 -216.5 -63t-150 -172t-53.5 -242q0 -204 120.5 -344t299.5 -140z" />
    <glyph glyph-name="i.ss01" horiz-adv-x="688" 
d="M358 1434q-45 0 -74.5 29.5t-29.5 74.5q0 42 29.5 72t74.5 30q42 0 71.5 -30t29.5 -72q0 -44 -29 -74t-72 -30zM662 0h-359q0 684 23 1049q-117 -23 -306 -23v102h396q0 -632 -23 -1048q99 22 269 22v-102z" />
    <glyph glyph-name="dotlessi.ss01" horiz-adv-x="688" 
d="M662 0h-359q0 228 1 354.5t9 327.5t23 375q-127 -31 -316 -31v102h396q0 -661 -33 -1058q54 15 109 22.5t83.5 8.5t86.5 1v-102z" />
    <glyph glyph-name="iacute.ss01" horiz-adv-x="688" 
d="M655 1671l-311 -393h-98l250 393h159zM662 0h-359q0 228 1 354.5t9 327.5t23 375q-127 -31 -316 -31v102h396q0 -661 -33 -1058q54 15 109 22.5t83.5 8.5t86.5 1v-102z" />
    <glyph glyph-name="icircumflex.ss01" horiz-adv-x="688" 
d="M29 1278h-107l297 356h160l297 -356h-107q-55 55 -89.5 91.5t-78.5 90t-75 103.5h-50q-81 -123 -247 -285zM662 0h-359q0 228 1 354.5t9 327.5t23 375q-127 -31 -316 -31v102h396q0 -661 -33 -1058q54 15 109 22.5t83.5 8.5t86.5 1v-102z" />
    <glyph glyph-name="idieresis.ss01" horiz-adv-x="688" 
d="M129 1382q-41 0 -68.5 29.5t-27.5 69.5q0 39 27.5 66.5t68.5 27.5t67.5 -27.5t26.5 -66.5q0 -41 -27 -70t-67 -29zM473 1382q-41 0 -68.5 29.5t-27.5 69.5q0 39 27.5 66.5t68.5 27.5q39 0 66.5 -27.5t27.5 -66.5q0 -40 -27.5 -69.5t-66.5 -29.5zM662 0h-359
q0 228 1 354.5t9 327.5t23 375q-127 -31 -316 -31v102h396q0 -661 -33 -1058q54 15 109 22.5t83.5 8.5t86.5 1v-102z" />
    </font>
</defs>
</svg>
