<?xml version="1.0" standalone="no"?>
<!DOCTYPE svg PUBLIC "-//W3C//DTD SVG 1.1//EN" "http://www.w3.org/Graphics/SVG/1.1/DTD/svg11.dtd" >
<svg xmlns="http://www.w3.org/2000/svg" xmlns:xlink="http://www.w3.org/1999/xlink" version="1.1">
<metadata>
Created by FontForge 20170731 at Mon Mar 15 14:15:18 2021
 By Aleksey,,,
Copyright (c) 2020 by Matthieu Salvaggio x Blaze Type. All rights reserved.
</metadata>
<defs>
<font id="Area-ExtralightInktrapItalic" horiz-adv-x="2048" >
  <font-face 
    font-family="Area Extralight Inktrap Italic"
    font-weight="200"
    font-style="italic"
    font-stretch="normal"
    units-per-em="2048"
    panose-1="0 0 3 0 0 0 0 0 0 0"
    ascent="1638"
    descent="-410"
    x-height="1128"
    cap-height="1597"
    bbox="-1577 -498 2771 2144"
    underline-thickness="102"
    underline-position="-307"
    slope="-10"
    unicode-range="U+0020-25CA"
  />
<missing-glyph horiz-adv-x="1462" 
d="M1159 0h-1055l283 1597h1055zM479 1499l-237 -1343l1028 1343h-791zM1298 1397l-993 -1293h764z" />
    <glyph glyph-name=".notdef" horiz-adv-x="1462" 
d="M1159 0h-1055l283 1597h1055zM479 1499l-237 -1343l1028 1343h-791zM1298 1397l-993 -1293h764z" />
    <glyph glyph-name=".null" horiz-adv-x="0" 
 />
    <glyph glyph-name="nonmarkingreturn" horiz-adv-x="682" 
 />
    <glyph glyph-name="space" unicode=" " horiz-adv-x="546" 
 />
    <glyph glyph-name="exclam" unicode="!" horiz-adv-x="516" 
d="M260 371h-67l163 1136l17 90h137l-16 -90zM158 -14q-38 0 -62 24t-24 60q0 49 37.5 84.5t85.5 35.5q36 0 58.5 -24t22.5 -60q0 -46 -36 -83t-82 -37z" />
    <glyph glyph-name="quotedbl" unicode="&#x22;" horiz-adv-x="647" 
d="M365 1176h-115l74 421h114zM608 1176h-116l73 421h117z" />
    <glyph glyph-name="numbersign" unicode="#" horiz-adv-x="1382" 
d="M229 0h-102q134 359 195 504q-94 -23 -252 -23l34 94q160 0 244 -12q51 170 158 436q-92 -20 -250 -20l37 94q158 0 246 -12q61 212 184 536h102q-12 -31 -52.5 -139t-75.5 -197.5t-81 -199.5q219 18 439 0q61 212 184 536h102q-124 -335 -208 -536q96 12 258 12l-37 -94
q-162 0 -252 20q-46 -179 -156 -436q94 12 256 12l-35 -94q-161 0 -249 23q-71 -236 -173 -504h-102q131 348 197 504q-228 -34 -439 0q-60 -201 -172 -504zM430 563q220 17 438 0q51 189 156 436q-224 -29 -438 0q-52 -194 -156 -436z" />
    <glyph glyph-name="dollar" unicode="$" horiz-adv-x="1171" 
d="M676 842l8 -2q31 -9 44 -12.5t45 -13.5t48 -17.5t45 -20.5t45 -25.5t38 -30t34.5 -37t25 -43t18 -52t5.5 -60.5q0 -164 -139.5 -283t-343.5 -126l-35 -201h-80l35 203q-146 15 -246 99.5t-125 248.5l109 39q23 -133 98 -201.5t182 -83.5l95 527h-2q-41 10 -76.5 22.5
t-83.5 38.5t-82 58t-58 83.5t-24 112.5q0 103 61 193t165 145t225 59l30 176h80l-31 -180q137 -18 230.5 -101t103.5 -206l-102 -45q-18 98 -82.5 165.5t-167.5 84.5zM373 1092q0 -49 20 -89t56.5 -66.5t71 -43t79.5 -31.5l88 498q-134 -6 -224.5 -84t-90.5 -184zM657 731
l-90 -512q150 4 250.5 87t100.5 200q0 43 -16.5 78t-39.5 57t-61.5 40.5t-68.5 28.5t-75 21z" />
    <glyph glyph-name="percent" unicode="%" horiz-adv-x="1628" 
d="M383 803q-96 0 -151.5 72t-55.5 194q0 112 43.5 216t122 170.5t170.5 66.5q96 0 151.5 -73t55.5 -198q0 -111 -43.5 -214t-122 -168.5t-170.5 -65.5zM211 0h-107l1397 1468h98zM397 887q88 0 156 110.5t68 249.5q0 90 -32.5 139.5t-88.5 49.5q-90 0 -158 -110t-68 -249
q0 -91 32.5 -140.5t90.5 -49.5zM1182 -29q-96 0 -151.5 72.5t-55.5 194.5q0 112 43.5 216t122 170t170.5 66q96 0 151.5 -72.5t55.5 -197.5q0 -111 -43.5 -214t-122 -169t-170.5 -66zM1196 55q88 0 155.5 111t67.5 250q0 90 -32.5 139t-88.5 49q-90 0 -157.5 -109.5
t-67.5 -248.5q0 -91 32.5 -141t90.5 -50z" />
    <glyph glyph-name="ampersand" unicode="&#x26;" horiz-adv-x="1368" 
d="M444 -35q-106 0 -192 36.5t-139.5 112.5t-53.5 181q0 311 482 532q-90 105 -144.5 206t-54.5 206q0 162 129.5 276.5t304.5 114.5q144 0 227.5 -82t83.5 -205q0 -138 -110.5 -269t-312.5 -238l327 -426q137 302 162 364l98 -22q-110 -263 -227 -392l285 -358h-135
l-213 274q-213 -311 -517 -311zM631 881q141 106 194 158q137 136 138 282q0 101 -57 153t-154 52q-125 0 -207 -80t-82 -199q0 -61 27 -130t56 -114t85 -122zM465 72q123 0 235 65.5t228 184.5l-350 458l-54 -36t-56.5 -38t-53.5 -38t-54 -41.5t-47 -42t-44.5 -46.5
t-35.5 -48t-29.5 -53.5t-16.5 -56t-7 -61.5q0 -117 80 -182t205 -65z" />
    <glyph glyph-name="quotesingle" unicode="'" horiz-adv-x="403" 
d="M365 1176h-115l74 421h114z" />
    <glyph glyph-name="parenleft" unicode="(" horiz-adv-x="602" 
d="M414 -307h-117q-199 298 -199 692q0 320 141.5 642t393.5 570h117q-247 -244 -388 -569.5t-141 -648.5q0 -390 193 -686z" />
    <glyph glyph-name="parenright" unicode=")" horiz-adv-x="600" 
d="M-2 -307h-117q247 244 389 569.5t142 648.5q0 388 -195 686h117q198 -296 198 -692q0 -321 -142 -644.5t-392 -567.5z" />
    <glyph glyph-name="asterisk" unicode="*" horiz-adv-x="845" 
d="M543 1024h-84l39 213l-207 -107l-29 72l207 109l-168 108l55 72l168 -107l35 213h84l-37 -213l205 107l29 -72l-205 -108l168 -109l-55 -72l-166 107z" />
    <glyph glyph-name="plus" unicode="+" horiz-adv-x="985" 
d="M567 678h301l-18 -107h-301l-55 -311h-107l55 311h-303l19 107h303l55 311h107z" />
    <glyph glyph-name="comma" unicode="," horiz-adv-x="428" 
d="M14 -254h-75q42 62 61.5 89.5t57 73t77.5 83.5q-84 14 -84 80q0 46 36 82t85 36q36 0 60 -24t24 -60q0 -38 -40.5 -97t-201.5 -263z" />
    <glyph glyph-name="hyphen" unicode="-" horiz-adv-x="770" 
d="M655 575h-536l16 97h537z" />
    <glyph glyph-name="period" unicode="." horiz-adv-x="460" 
d="M147 -14q-38 0 -62 24t-24 60q0 49 36.5 84.5t86.5 35.5q36 0 59 -24t23 -60q0 -46 -36.5 -83t-82.5 -37z" />
    <glyph glyph-name="slash" unicode="/" horiz-adv-x="845" 
d="M76 -135h-109l871 1773h108z" />
    <glyph glyph-name="zero" unicode="0" horiz-adv-x="1435" 
d="M610 -35q-216 0 -340.5 163.5t-124.5 446.5q0 154 37 308.5t107 288t163 236.5t211.5 162.5t245.5 59.5q216 0 339.5 -164.5t123.5 -449.5q0 -154 -37 -308t-106.5 -286.5t-161.5 -235.5t-211 -162t-246 -59zM631 76q128 0 244 82.5t195.5 215t126 300t46.5 336.5
q0 241 -92.5 375.5t-257.5 134.5q-128 0 -244.5 -82.5t-197.5 -214.5t-129 -299.5t-48 -335.5q0 -241 94.5 -376.5t262.5 -135.5z" />
    <glyph glyph-name="one" unicode="1" horiz-adv-x="774" 
d="M449 0h-119q7 37 31 173.5t31.5 178t29 160t32 173t30.5 158.5t35 177t35 167.5t40 186.5q-182 -223 -449 -254l21 109q175 28 301 130.5t149 237.5h113z" />
    <glyph glyph-name="two" unicode="2" horiz-adv-x="1255" 
d="M1059 0h-1030v6q38 130 84 219.5t134.5 171t154.5 127t227 145.5q44 28 67 42q39 25 63.5 41t74.5 53t84 67.5t76.5 77t68.5 90t44.5 98.5t18.5 109q0 126 -85.5 201.5t-231.5 75.5q-187 0 -326 -123t-174 -320l-102 19q40 232 213 381t409 149q191 0 305.5 -99.5
t114.5 -268.5q0 -62 -17.5 -122.5t-43 -108.5t-65.5 -97t-74.5 -83t-81 -71t-73.5 -55.5t-63 -42.5q-62 -42 -149 -95.5t-137 -85t-114 -78.5t-105.5 -90t-85 -105.5t-76.5 -137.5q322 23 913 23z" />
    <glyph glyph-name="three" unicode="3" horiz-adv-x="1292" 
d="M537 -35q-197 0 -329.5 100t-154.5 265l109 51q24 -139 130.5 -224t266.5 -85q100 0 188.5 34.5t150 92.5t97 133.5t35.5 156.5q0 131 -96.5 207t-288.5 76h-160l19 100h174q187 0 313.5 110t126.5 267q0 129 -88.5 202t-232.5 73q-158 0 -280.5 -85.5t-172.5 -238.5
l-102 21q59 188 220 298.5t361 110.5q183 0 302.5 -92t119.5 -250q0 -160 -109 -290t-270 -162l-2 -23q141 -17 216 -95.5t75 -207.5q0 -102 -47 -200.5t-127 -175t-197 -123t-247 -46.5z" />
    <glyph glyph-name="four" unicode="4" horiz-adv-x="1306" 
d="M893 0h-117q43 257 96 424q-401 -26 -852 -10l21 114l1016 1069h117q-118 -678 -216 -1103q104 20 265 20l-19 -111q-155 0 -258 21q-4 -162 -53 -424zM160 502q380 19 725 -8q49 451 164 985q-108 -123 -233.5 -262t-214.5 -236t-229.5 -249t-211.5 -230z" />
    <glyph glyph-name="five" unicode="5" horiz-adv-x="1292" 
d="M526 -35q-192 0 -332 99.5t-167 267.5l108 53q30 -145 143 -229t267 -84q143 0 263.5 72.5t187.5 187.5t67 243q0 152 -94.5 243t-251.5 91q-127 0 -241.5 -60.5t-192.5 -160.5l-86 45l338 864h749l-20 -106q-456 0 -684 22q-87 -312 -267 -700h17q71 88 184.5 141.5
t241.5 53.5q187 0 309.5 -111.5t122.5 -302.5q0 -118 -51 -232t-138 -201.5t-211.5 -141.5t-261.5 -54z" />
    <glyph glyph-name="six" unicode="6" horiz-adv-x="1351" 
d="M596 -35q-218 0 -340.5 143t-122.5 410q0 163 44.5 326t128 303t193.5 249t250.5 171.5t288.5 62.5q201 0 324 -108l-92 -86q-104 88 -269 88q-124 0 -241 -55.5t-216.5 -161t-178.5 -267.5t-123 -364h20q74 166 227 262t316 96q188 0 314 -121.5t126 -318.5
q0 -120 -51.5 -235t-137.5 -201.5t-207 -139.5t-253 -53zM618 72q132 0 249.5 71.5t187 190t69.5 250.5q0 158 -99 254t-253 96q-133 0 -252.5 -73t-189.5 -190.5t-70 -244.5q0 -156 101 -255t257 -99z" />
    <glyph glyph-name="seven" unicode="7" horiz-adv-x="1189" 
d="M319 0h-118q28 157 119 363.5t221.5 415.5t301 410.5t343.5 340.5l-8 16q-69 -7 -139 -12t-148.5 -8t-134.5 -5t-147 -2.5t-133.5 -0.5h-146h-136.5l18 110h1126l-20 -121q-228 -178 -446 -451t-365.5 -556t-186.5 -500z" />
    <glyph glyph-name="eight" unicode="8" horiz-adv-x="1325" 
d="M561 -35q-208 0 -340.5 106t-132.5 283q0 169 117.5 302.5t300.5 170.5l4 25q-223 75 -223 291q0 93 44.5 181.5t119.5 156t181 108.5t222 41q184 0 300 -96t116 -254q0 -145 -98 -264.5t-254 -163.5l-5 -25q133 -29 205 -115.5t72 -213.5q0 -139 -82.5 -261.5t-228 -197
t-318.5 -74.5zM721 881q88 0 168 32.5t137 85t91 122.5t34 143q0 122 -88 194t-229 72q-179 0 -303.5 -109t-124.5 -262q0 -128 88.5 -203t226.5 -75zM575 68q105 0 197.5 36.5t156.5 96.5t101 138.5t37 162.5q0 134 -93 211.5t-265 77.5q-217 0 -354.5 -116.5
t-137.5 -291.5q0 -149 99 -232t259 -83z" />
    <glyph glyph-name="nine" unicode="9" horiz-adv-x="1376" 
d="M516 -35q-131 0 -248.5 60.5t-199.5 181.5l94 76q141 -213 366 -213q173 0 314 112.5t233 304.5t137 447h-22q-75 -197 -226.5 -303.5t-322.5 -106.5q-122 0 -221 52.5t-159 156t-60 240.5q0 125 51.5 244.5t139 210.5t214 146.5t266.5 55.5q75 0 139 -15.5t123.5 -54.5
t101 -98.5t66.5 -154t25 -215.5q0 -155 -37.5 -315.5t-110.5 -305t-170 -258.5t-225.5 -181t-267.5 -67zM666 623q137 0 260 82t194.5 211.5t71.5 267.5q0 161 -98.5 252.5t-251.5 91.5q-141 0 -261 -76.5t-188.5 -201.5t-68.5 -265q0 -165 96.5 -263.5t245.5 -98.5z" />
    <glyph glyph-name="colon" unicode=":" horiz-adv-x="501" 
d="M322 954q-37 0 -60.5 25t-23.5 61q0 47 36.5 83t83.5 36q35 0 58.5 -23.5t23.5 -58.5q0 -46 -36.5 -84.5t-81.5 -38.5zM150 -14q-38 0 -61 24t-23 60q0 49 36 84.5t86 35.5q35 0 58.5 -23.5t23.5 -57.5q0 -48 -36.5 -85.5t-83.5 -37.5z" />
    <glyph glyph-name="semicolon" unicode=";" horiz-adv-x="573" 
d="M369 954q-37 0 -60.5 25t-23.5 61q0 47 36 83t82 36q37 0 61.5 -23.5t24.5 -58.5q0 -46 -36.5 -84.5t-83.5 -38.5zM76 -256h-76l164 250q-24 7 -37.5 27.5t-13.5 46.5q0 49 36.5 85.5t86.5 36.5q36 0 58.5 -23.5t22.5 -57.5q0 -39 -41.5 -101.5t-199.5 -263.5z" />
    <glyph glyph-name="less" unicode="&#x3c;" horiz-adv-x="1021" 
d="M829 428l-18 -104l-661 243l18 113l747 244l-18 -105l-612 -196z" />
    <glyph glyph-name="equal" unicode="=" horiz-adv-x="1034" 
d="M911 776h-710l18 107h711zM838 365h-709l18 104h709z" />
    <glyph glyph-name="greater" unicode="&#x3e;" horiz-adv-x="1024" 
d="M877 567l-748 -243l18 104l615 195l-545 196l19 105l661 -244z" />
    <glyph glyph-name="question" unicode="?" horiz-adv-x="1071" 
d="M477 422h-108q3 43 6 59q11 58 33.5 104.5t67 91t84.5 75.5t116 84q301 216 301 434q0 120 -80 189t-203 69q-137 0 -254 -91t-145 -245q-6 -34 -6 -70l-103 19q4 55 7 67q32 184 185 303t343 119q161 0 270 -90.5t109 -247.5q0 -75 -28.5 -148.5t-66.5 -126.5t-97 -109
t-97.5 -85t-89.5 -65q-59 -43 -87.5 -65.5t-66 -60t-57 -76t-27.5 -85.5q-6 -48 -6 -49zM375 -14q-38 0 -61 24t-23 60q0 47 36.5 83.5t82.5 36.5q36 0 60 -24t24 -60q0 -46 -36.5 -83t-82.5 -37z" />
    <glyph glyph-name="at" unicode="@" horiz-adv-x="1966" 
d="M772 -195q-162 0 -292 49t-214.5 136t-129 204.5t-44.5 256.5q0 143 47 289.5t129.5 276t198.5 243t248.5 195t286 128.5t305.5 47q191 0 340 -71t236 -211.5t87 -331.5q0 -145 -50.5 -291t-131.5 -258t-191 -182t-221 -70q-114 0 -152 72.5t5 201.5h-6
q-102 -132 -218.5 -194t-224.5 -62q-128 0 -202 84.5t-74 219.5q0 114 55.5 234t141.5 213t198.5 152.5t220.5 59.5t179 -63.5t92 -194.5h4q19 123 63 231h92l-213 -608q-8 -23 -12 -36t-12 -43.5t-9.5 -50.5t1.5 -46.5t14 -42.5t33.5 -27.5t56.5 -11.5q79 0 160.5 60
t144 155.5t102 222t39.5 250.5q0 250 -152 397.5t-413 147.5q-137 0 -274.5 -43t-256 -118t-221.5 -178.5t-175.5 -221t-114 -249.5t-41.5 -261q0 -256 157 -408.5t443 -152.5q157 0 308.5 46.5t275.5 131.5l39 -78q-146 -98 -319.5 -148.5t-338.5 -50.5zM827 330
q121 0 235.5 84.5t183.5 211.5t69 251q0 104 -54 163.5t-155 59.5q-92 0 -182.5 -49.5t-156 -127.5t-106 -176t-40.5 -192q0 -106 52 -165.5t154 -59.5z" />
    <glyph glyph-name="A" unicode="A" horiz-adv-x="1497" 
d="M59 0h-127l938 1597h125l373 -1597h-127q-91 380 -111 588l-16 18q-244 -22 -350 -22q-149 0 -356 22l-23 -20q-132 -255 -326 -586zM442 690l11 -20q234 20 333 20q113 0 293 -20l15 18q-119 443 -162 787h-43q-180 -369 -447 -785z" />
    <glyph glyph-name="B" unicode="B" horiz-adv-x="1458" 
d="M764 0h-639l283 1597h557q213 0 327.5 -100.5t114.5 -251.5q0 -149 -101 -264.5t-264 -153.5l-6 -32q149 -23 220 -105.5t71 -197.5q0 -127 -75 -240t-205.5 -182.5t-282.5 -69.5zM375 856l14 -22q153 22 434 22q203 0 330 106t127 252q0 127 -98.5 202t-263.5 75h-53
h-58.5t-52.5 0.5t-61 2t-56 3.5t-66 5.5t-63 8.5l-23 -18q-24 -308 -110 -637zM242 106l14 -20q178 20 483 20q104 0 192 30t146 80.5t90.5 116.5t32.5 138q0 127 -97 203t-267 76q-302 0 -457 22l-23 -22q-35 -356 -114 -644z" />
    <glyph glyph-name="C" unicode="C" horiz-adv-x="1722" 
d="M811 -35q-310 0 -492 180.5t-182 483.5q0 192 76 374.5t203.5 320.5t306.5 222t373 84q111 0 212 -28t186 -83t143 -145t75 -205l-113 -43q-40 187 -183.5 290.5t-340.5 103.5q-133 0 -258 -48t-223.5 -132.5t-173 -194t-114.5 -239t-40 -261.5q0 -141 47 -252
t128.5 -179t184 -103t220.5 -35q129 0 245.5 41t206 112t157.5 158t114 188l96 -38q-57 -119 -138 -219.5t-186.5 -181t-241.5 -126t-288 -45.5z" />
    <glyph glyph-name="D" unicode="D" horiz-adv-x="1652" 
d="M696 0h-571l283 1597h553q165 0 288 -44t198 -126.5t111.5 -193t36.5 -250.5q0 -150 -41 -294.5t-120 -268.5t-186.5 -218.5t-250 -148t-301.5 -53.5zM242 106l14 -20q176 20 469 20q133 0 251.5 46.5t207.5 127.5t154 188t98.5 231t33.5 253q0 261 -140 400t-410 139
q-267 0 -412 20l-23 -18q-86 -695 -243 -1387z" />
    <glyph glyph-name="E" unicode="E" horiz-adv-x="1347" 
d="M1145 0h-1020l283 1597h999l-21 -106q-53 0 -206.5 -1t-231.5 -0.5t-204.5 5.5t-235.5 16l-23 -18q-24 -309 -106 -616l12 -23q307 23 846 23l-18 -109q-543 0 -838 23l-21 -23q-31 -338 -118 -662l14 -20q326 27 907 27z" />
    <glyph glyph-name="F" unicode="F" horiz-adv-x="1277" 
d="M244 0h-119l283 1597h978l-22 -114q-196 0 -290 0.5t-260 7.5t-306 20l-23 -18q-23 -316 -110 -629l12 -22q288 22 827 22l-18 -108q-535 0 -817 22l-23 -22q-34 -322 -112 -756z" />
    <glyph glyph-name="G" unicode="G" horiz-adv-x="1798" 
d="M801 -35q-142 0 -263 43.5t-211 125t-141 207.5t-51 284q0 193 76 377t203.5 322t306 222t373.5 84q111 0 212 -28t186.5 -83t143.5 -145t76 -205l-115 -43q-40 187 -183.5 290.5t-340.5 103.5q-166 0 -317.5 -74.5t-258.5 -195.5t-170 -280.5t-63 -324.5
q0 -141 46.5 -252t126.5 -179t181 -103t216 -35q262 0 465 170t290 444l-8 17q-339 -39 -602 -39l18 104h697l-135 -772h-101q2 14 13 85.5t17 106.5t20 96.5t30 114.5l-22 3q-118 -214 -300 -327.5t-415 -113.5z" />
    <glyph glyph-name="H" unicode="H" horiz-adv-x="1654" 
d="M244 0h-119l283 1597h118q-4 -22 -23 -127t-24.5 -134.5t-21.5 -112.5t-26 -127t-24.5 -108t-29.5 -120l14 -22q524 29 973 0l22 22q31 288 111 729h119l-283 -1597h-119q88 499 154 758l-14 22q-465 -51 -973 0l-23 -22q-26 -263 -114 -758z" />
    <glyph glyph-name="I" unicode="I" horiz-adv-x="567" 
d="M244 0h-119l283 1597h118z" />
    <glyph glyph-name="J" unicode="J" horiz-adv-x="1183" 
d="M434 -35q-59 0 -113 11t-106.5 35.5t-90.5 64t-65 96t-31 132t13 171.5l8 43l111 14l-6 -34q-13 -82 -11 -145.5t23 -111t50 -79.5t69 -52t80.5 -29t85.5 -9q52 0 98 12.5t80.5 31.5t64.5 50t51 60t39.5 70.5t29 72t21 74t15 67t10.5 59.5l182 1028h119l-174 -989
q-38 -211 -93 -332q-142 -311 -460 -311z" />
    <glyph glyph-name="K" unicode="K" horiz-adv-x="1345" 
d="M244 0h-119l283 1597h118q-3 -18 -19.5 -112.5t-21 -118t-19.5 -105.5t-22 -116t-21.5 -104.5t-26 -117t-27 -108t-31.5 -119.5h20q99 92 194.5 180.5t220.5 201t178.5 160.5t217 193.5t185.5 165.5h143q-35 -31 -176.5 -157.5t-211 -187t-187 -161t-215.5 -178.5l-5 -24
q231 -353 553 -889h-145q-315 509 -483 827h-21q-126 -150 -272 -252q-26 -219 -90 -575z" />
    <glyph glyph-name="L" unicode="L" horiz-adv-x="1206" 
d="M1083 0h-958l283 1597h118q-4 -21 -46.5 -260.5t-57.5 -320.5t-50.5 -271.5t-66 -339.5t-63.5 -299l14 -20q303 27 846 27z" />
    <glyph glyph-name="M" unicode="M" horiz-adv-x="2058" 
d="M244 0h-119l283 1597h120q244 -729 416 -1460h23q512 838 931 1460h121l-282 -1597h-119q13 73 45 259t51 290.5t50 264t64 303.5t70 286h-22q-211 -340 -887 -1403h-117q-213 741 -393 1403h-20q-13 -141 -30.5 -282t-43.5 -304t-42 -259t-52 -294.5t-47 -263.5z" />
    <glyph glyph-name="N" unicode="N" horiz-adv-x="1693" 
d="M244 0h-119l283 1597h108q388 -679 770 -1437h21q12 105 26 208t31.5 220t30 195t36 214t33 191t37.5 212.5t35 196.5h117l-283 -1597h-108q-506 891 -773 1415h-22q-16 -142 -34 -279.5t-46.5 -312t-42 -253.5t-53.5 -304.5t-47 -265.5z" />
    <glyph glyph-name="O" unicode="O" horiz-adv-x="1818" 
d="M805 -35q-144 0 -268 49.5t-212.5 138t-139 215t-50.5 275.5q0 188 79 369.5t209 316.5t308.5 218t366.5 83q196 0 348.5 -88t235.5 -243t83 -351q0 -125 -36 -249.5t-99.5 -232t-153.5 -201t-195 -159.5t-228 -103.5t-248 -37.5zM825 76q157 0 306.5 72.5t259 191
t176.5 275.5t67 319q0 258 -157 422t-400 164q-124 0 -246 -46t-222.5 -128t-178 -188.5t-121 -235.5t-43.5 -260q0 -172 73 -306t200 -207t286 -73z" />
    <glyph glyph-name="P" unicode="P" horiz-adv-x="1361" 
d="M244 0h-119l283 1597h550q22 0 42 -1t68.5 -8t87.5 -20t87.5 -41.5t81.5 -67t55.5 -100.5t22.5 -140q0 -112 -43.5 -216t-119 -182t-184.5 -125t-233 -47q-123 0 -183.5 1t-143 8.5t-154.5 23.5q-27 -288 -98 -682zM358 756l15 -23q158 23 430 23q206 0 339.5 121.5
t133.5 306.5q0 150 -95 228.5t-266 78.5q-262 0 -407 20l-23 -18q-39 -384 -127 -737z" />
    <glyph glyph-name="Q" unicode="Q" horiz-adv-x="1820" 
d="M1530 -113l-94 -71q-121 179 -174 297q-214 -148 -457 -148q-144 0 -268 49.5t-212.5 138t-139 215.5t-50.5 277q0 151 50.5 298.5t141.5 270t210 217t265 147t296 52.5q197 0 350.5 -88t237 -242.5t83.5 -347.5q0 -234 -118 -448t-324 -350q24 -25 46 -50t46.5 -58.5
t36 -49.5t40.5 -59t34 -50zM834 74q178 0 387 102q-24 27 -46 54.5t-46 59t-40 53t-42 59t-36.5 53t-40 58.5t-36.5 54l96 70q172 -259 256 -424q163 148 257.5 337.5t94.5 385.5q0 257 -157.5 420.5t-401.5 163.5q-125 0 -247.5 -46t-223.5 -128t-179 -188.5t-121.5 -235.5
t-43.5 -260q0 -174 74 -308.5t203.5 -207t292.5 -72.5z" />
    <glyph glyph-name="R" unicode="R" horiz-adv-x="1417" 
d="M244 0h-119l283 1597h550q16 0 29.5 -0.5t47 -4t62 -9.5t67.5 -19.5t70.5 -32t64 -48t54.5 -66.5t36 -89t14 -114q0 -139 -64.5 -257t-185.5 -193.5t-276 -87.5l-3 -23q43 -75 93 -170t76.5 -149t87.5 -180t75 -154h-131l-321 649q-256 0 -412 33q-28 -290 -98 -682z
M358 754l13 -23q168 21 434 21q205 1 337 124.5t132 307.5q0 150 -94 228.5t-262 78.5q-253 0 -410 20l-23 -18q-34 -369 -127 -739z" />
    <glyph glyph-name="S" unicode="S" horiz-adv-x="1310" 
d="M575 -35q-72 0 -138 14t-131.5 48.5t-115 86t-84.5 133.5t-45 185l115 41q17 -190 132 -293.5t292 -103.5q195 0 329 112t134 267q0 27 -5.5 51.5t-12.5 43t-22 36.5t-26.5 30t-34 25t-36 20.5t-41 17.5t-41 14.5t-43.5 14t-41 13.5l-142 47q-37 12 -64.5 22t-68.5 29
t-71 38.5t-63 49.5t-54 63.5t-35 78.5t-14 96q0 129 77 240t212.5 178t296.5 67q202 0 322.5 -104t139.5 -279l-112 -45q-21 145 -121 231.5t-258 86.5q-181 0 -305.5 -102t-124.5 -242q0 -40 13 -75.5t29 -60.5t47.5 -50t51.5 -38t58.5 -30t50.5 -21t45 -16l145 -49
q139 -46 180 -66q158 -73 191 -202q10 -38 10 -81q0 -132 -82.5 -252t-227 -195t-311.5 -75z" />
    <glyph glyph-name="T" unicode="T" horiz-adv-x="1288" 
d="M604 0h-119q180 1017 289 1511q-211 -20 -584 -20l21 106h1233l-19 -106q-372 0 -575 20q-18 -133 -39.5 -275t-37.5 -245t-43 -262.5t-39.5 -232.5t-44.5 -256.5t-42 -239.5z" />
    <glyph glyph-name="U" unicode="U" horiz-adv-x="1544" 
d="M666 -35q-265 0 -388 152t-69 454l180 1026h119l-180 -1019q-46 -259 50.5 -382.5t307.5 -123.5q213 0 354 124t185 382l182 1019h117l-181 -1026q-49 -280 -221.5 -443t-455.5 -163z" />
    <glyph glyph-name="V" unicode="V" horiz-adv-x="1497" 
d="M713 0h-125l-373 1597h127q217 -990 320 -1488h24q120 222 253 458.5t331 582t256 447.5h125z" />
    <glyph glyph-name="W" unicode="W" horiz-adv-x="2316" 
d="M606 0h-141l-242 1597h123q150 -911 205 -1472h20q232 505 705 1472h131q129 -897 188 -1472h23q336 729 719 1472h125l-809 -1597h-140q-121 772 -184 1462h-24q-321 -729 -699 -1462z" />
    <glyph glyph-name="X" unicode="X" horiz-adv-x="1312" 
d="M63 0h-135q43 49 148 171.5t156 181t132 151.5t146 166t127 141l4 20q-184 323 -414 766h135q236 -450 345 -698h20q222 284 592 698h135q-468 -529 -686 -766l-4 -20q53 -93 114 -208.5t98.5 -188.5t111.5 -219.5t98 -194.5h-133q-222 439 -351 745h-22
q-39 -50 -80.5 -103t-75 -94t-80.5 -98t-73.5 -88.5t-79 -94t-73 -86.5t-79.5 -93t-76 -88z" />
    <glyph glyph-name="Y" unicode="Y" horiz-adv-x="1402" 
d="M659 0h-118q84 454 116 592q-236 533 -434 1005h131q6 -14 43 -104t47 -114.5t43.5 -107t48.5 -120t43.5 -111.5t47 -124t41.5 -114.5t43 -123.5h22q54 79 117 166.5t105 145t123 164.5t106 139.5t124 160t111 143.5h125q-539 -696 -788 -1005q-31 -230 -97 -592z" />
    <glyph glyph-name="Z" unicode="Z" horiz-adv-x="1331" 
d="M1176 0h-1219l16 100q312 341 1315 1401l-6 21q-444 -31 -1022 -31l21 106h1159l-19 -94q-196 -214 -396 -426.5t-512 -539t-409 -428.5l9 -23q405 27 1081 27z" />
    <glyph glyph-name="bracketleft" unicode="[" horiz-adv-x="638" 
d="M438 -317h-389l338 1914h389l-18 -100q-184 0 -293 23q-118 -846 -313 -1758q119 23 303 23z" />
    <glyph glyph-name="backslash" unicode="\" horiz-adv-x="837" 
d="M631 -135h-111l-244 1773h111z" />
    <glyph glyph-name="bracketright" unicode="]" horiz-adv-x="638" 
d="M281 -317h-390l19 102q186 0 295 -23q129 908 311 1758q-117 -23 -303 -23l16 100h389z" />
    <glyph glyph-name="asciicircum" unicode="^" horiz-adv-x="854" 
d="M322 1059h-111l344 538h117l151 -538h-108q-80 288 -103 440h-32q-100 -188 -258 -440z" />
    <glyph glyph-name="underscore" unicode="_" horiz-adv-x="1007" 
d="M848 -219h-954l16 96h954z" />
    <glyph glyph-name="a" unicode="a" horiz-adv-x="1169" 
d="M350 -35q-137 0 -222 61t-85 185q0 64 25 119.5t68 97t104.5 75.5t131 57.5t150.5 39.5q27 5 76 14t75.5 14t66.5 15t62.5 19.5t49.5 26t41 35.5t23.5 46.5t9.5 60.5q0 100 -70.5 166t-191.5 66q-119 0 -215 -67.5t-152 -180.5l-102 39q49 102 132.5 173t175 102.5
t187.5 31.5q60 0 114.5 -13t104 -40.5t81.5 -71.5t46.5 -105.5t-0.5 -142.5l-78 -436q-20 -113 -25.5 -186t1.5 -166h-113q-5 71 1.5 132.5t35.5 141.5h-22q-175 -309 -486 -309zM377 59q76 0 149 26.5t128.5 69.5t100.5 95.5t72 106t35 100.5l31 184q-57 -56 -109.5 -76
t-187.5 -45l-70 -14t-77.5 -19.5t-83 -28.5t-75.5 -38t-66 -49.5t-43 -63t-17 -78.5q0 -81 57 -125.5t156 -44.5z" />
    <glyph glyph-name="b" unicode="b" horiz-adv-x="1368" 
d="M641 -35q-145 0 -249 76t-144 223h-21q1 -30 0 -58t-4.5 -59t-6 -47t-9 -53t-8.5 -47h-107l289 1638h111q-6 -34 -23.5 -136t-28 -161.5t-28 -151.5t-36.5 -176.5t-40 -166.5h22q96 162 225.5 238.5t270.5 76.5q194 0 312 -129t118 -344q0 -137 -50.5 -269t-136 -232
t-205.5 -161t-251 -61zM645 66q139 0 259.5 86.5t189.5 225.5t69 292q0 177 -93.5 284t-248.5 107q-104 0 -202.5 -51t-170 -133.5t-114.5 -192.5t-43 -223q0 -180 99.5 -287.5t254.5 -107.5z" />
    <glyph glyph-name="c" unicode="c" horiz-adv-x="1236" 
d="M549 -35q-214 0 -338.5 127.5t-124.5 347.5q0 110 32 217t93 197.5t142.5 159.5t187 108t219.5 39q73 0 138.5 -16.5t124.5 -52t102 -98.5t61 -148l-117 -41q-25 121 -112 188.5t-218 67.5q-113 0 -213.5 -52t-169.5 -136.5t-109 -194t-40 -223.5q0 -180 98 -284.5
t268 -104.5q153 0 277 85.5t203 223.5l94 -33q-98 -185 -257.5 -281t-340.5 -96z" />
    <glyph glyph-name="d" unicode="d" horiz-adv-x="1372" 
d="M516 -35q-194 0 -312 128.5t-118 344.5q0 137 51 269t136.5 232t205.5 161t250 61q142 0 243.5 -77.5t141.5 -239.5h23q35 324 123 794h110l-227 -1286q-23 -129 -28 -210.5t3 -141.5h-112q-8 61 -1.5 129.5t35.5 155.5h-20q-95 -161 -226.5 -240.5t-277.5 -79.5zM549 66
q140 0 263 85.5t195 224.5t72 292q0 178 -100 285.5t-256 107.5q-139 0 -259 -87t-188.5 -226.5t-68.5 -292.5q0 -175 93.5 -282t248.5 -107z" />
    <glyph glyph-name="e" unicode="e" horiz-adv-x="1261" 
d="M541 -35q-207 0 -331 127.5t-124 345.5q0 138 51.5 269.5t139 231.5t213 161t264.5 61q39 0 77 -5t81 -17t78.5 -32.5t71 -51.5t58.5 -73t40 -97.5t16 -125.5t-13 -157l-8 -49h-942q-35 -216 62 -353t290 -137q152 0 274.5 86.5t200.5 223.5l95 -35q-94 -177 -252.5 -275
t-341.5 -98zM236 649h817q17 92 4 161t-42.5 117.5t-77 78.5t-99 43.5t-107.5 13.5q-169 0 -303 -114t-192 -300z" />
    <glyph glyph-name="f" unicode="f" horiz-adv-x="694" 
d="M240 0h-111q129 722 207 1053q-88 -21 -197 -21l19 96q117 0 186 -22q-7 84 10 182q9 50 17.5 86t23 78.5t31.5 72.5t43.5 60t59 48t77.5 29t99 11q131 0 208 -57l-20 -107q-89 66 -191 66q-39 0 -69.5 -8t-52 -18.5t-39 -33.5t-27.5 -41.5t-19.5 -53t-14 -57.5
t-11.5 -67q-20 -114 -57 -190q133 22 368 22l-16 -96q-223 0 -361 21q-40 -334 -163 -1053z" />
    <glyph glyph-name="g" unicode="g" horiz-adv-x="1368" 
d="M475 -483q-380 0 -440 331l108 35q21 -128 108.5 -198t242.5 -70q401 0 495 504q1 5 3 14q15 84 40 146l4 10h-22q-91 -138 -220.5 -213.5t-269.5 -75.5q-190 0 -312 125.5t-122 341.5q0 138 54 267.5t141.5 222t202 148.5t231.5 56q147 0 250.5 -85t142.5 -232h23
q4 99 36 284h107l-172 -983q-111 -628 -631 -628zM553 100q137 0 260 83.5t195.5 218t72.5 278.5q0 170 -101 275.5t-257 105.5q-136 0 -255 -82t-188 -215t-69 -279q0 -170 94 -277.5t248 -107.5z" />
    <glyph glyph-name="h" unicode="h" horiz-adv-x="1294" 
d="M203 0h-111l289 1638h111q-72 -392 -166 -759h22q184 282 465 282q64 0 118.5 -14.5t104 -47t79 -85t42 -129t-7.5 -178.5l-125 -707h-113l117 657q18 92 10 160t-30 115t-61 75.5t-82 41t-93 12.5q-89 0 -170.5 -37.5t-139 -99t-96.5 -135.5t-53 -150z" />
    <glyph glyph-name="i" unicode="i" horiz-adv-x="491" 
d="M399 1434q-38 0 -62 24.5t-24 61.5q0 47 37 83.5t86 36.5q38 0 62 -24t24 -60q0 -47 -38 -84.5t-85 -37.5zM203 0h-111l199 1128h110z" />
    <glyph glyph-name="j" unicode="j" horiz-adv-x="491" 
d="M401 1434q-39 0 -62.5 24.5t-23.5 61.5q0 47 37 83.5t86 36.5q38 0 61 -24t23 -60q0 -47 -37 -84.5t-84 -37.5zM-188 -483q-124 0 -203 57l18 109q85 -68 183 -68q44 0 81.5 14.5t64 37.5t48 56t35 66t24 73t16.5 70.5t12 64.5q1 5 1 7l199 1124h110l-200 -1142
q-7 -39 -11 -60t-14.5 -64.5t-20 -70.5t-27.5 -67t-37 -66t-48 -55.5t-61.5 -46t-76 -28t-93.5 -11.5z" />
    <glyph glyph-name="k" unicode="k" horiz-adv-x="1042" 
d="M203 0h-111l289 1638h111q-10 -58 -47 -265t-53.5 -295t-48 -243t-62.5 -284h22q59 54 149 135.5t135.5 123t140 125t220.5 193.5h137l-518 -440q117 -189 398 -688h-127q-231 410 -346 623q-107 -116 -234 -191q-9 -171 -55 -432z" />
    <glyph glyph-name="l" unicode="l" horiz-adv-x="491" 
d="M203 0h-111l289 1638h111z" />
    <glyph glyph-name="m" unicode="m" horiz-adv-x="2072" 
d="M203 0h-111l199 1128h106q-26 -151 -71 -249h22q184 282 461 282q60 0 111.5 -15t98.5 -49t74 -98t27 -153h21q181 315 465 315q61 0 114 -14t101 -46.5t76 -85t40 -129t-8 -179.5l-125 -707h-112l116 657q17 92 9.5 160t-29 115t-59 75.5t-79 41t-89.5 12.5
q-85 0 -164 -38t-135.5 -99.5t-95.5 -135.5t-52 -149l-110 -639h-113l117 657q17 115 6 192.5t-51.5 124.5t-90 67t-110.5 20q-86 0 -165 -38t-135.5 -99.5t-95.5 -135.5t-53 -149z" />
    <glyph glyph-name="n" unicode="n" horiz-adv-x="1294" 
d="M203 0h-111l199 1128h106q-26 -151 -71 -249h22q184 282 467 282q53 0 100 -10t91 -32t75 -57t53 -85.5t25 -117.5t-10 -152l-125 -707h-113l117 657q17 115 5.5 192.5t-53.5 124.5t-94.5 67t-117.5 20q-89 0 -169.5 -38t-137.5 -99.5t-95.5 -135t-52.5 -149.5z" />
    <glyph glyph-name="o" unicode="o" horiz-adv-x="1314" 
d="M553 -35q-216 0 -341.5 129t-125.5 348q0 137 51 267t139 230t216 161t272 61q215 0 341 -129.5t126 -349.5q0 -136 -51 -266t-139 -229.5t-216 -160.5t-272 -61zM569 66q115 0 217.5 51.5t172.5 136t110.5 193.5t40.5 223q0 179 -97 285t-265 106q-152 0 -278 -87.5
t-194.5 -225.5t-68.5 -291q0 -180 97.5 -285.5t264.5 -105.5z" />
    <glyph glyph-name="p" unicode="p" horiz-adv-x="1368" 
d="M123 -451h-111l279 1579h106q-29 -169 -65 -274h20q97 156 228.5 231.5t273.5 75.5q194 0 312 -128t118 -345q0 -138 -51 -270t-136.5 -231.5t-205.5 -160.5t-250 -61q-143 0 -245.5 75.5t-141.5 221.5h-23q-24 -246 -108 -713zM645 66q104 0 200.5 51.5t165 135
t109.5 193.5t41 224q0 177 -92.5 284t-247.5 107q-105 0 -203.5 -51t-169.5 -134t-114 -192.5t-43 -222.5q0 -178 99 -286.5t255 -108.5z" />
    <glyph glyph-name="q" unicode="q" horiz-adv-x="1368" 
d="M1001 -451h-110q6 34 22 132.5t25 147t24 130t32 153t36 144.5h-22q-93 -144 -221.5 -217.5t-270.5 -73.5q-194 0 -312 128.5t-118 344.5q0 138 51 270t136.5 231.5t205.5 160.5t250 61q143 0 248.5 -76.5t146.5 -228.5h23q-4 104 24 272h107zM549 66q140 0 263 85.5
t195 224.5t72 292q0 178 -100 285.5t-256 107.5q-139 0 -259 -87t-188.5 -226.5t-68.5 -292.5q0 -175 93.5 -282t248.5 -107z" />
    <glyph glyph-name="r" unicode="r" horiz-adv-x="829" 
d="M203 0h-111l199 1128h106q-4 -20 -11 -63.5t-11.5 -70t-15.5 -69.5t-25 -85h20q69 154 185.5 237.5t246.5 83.5q73 0 127 -22l-22 -121q-56 29 -141 29q-110 0 -207 -70t-158 -178t-82 -230z" />
    <glyph glyph-name="s" unicode="s" horiz-adv-x="999" 
d="M420 -35q-160 0 -270 87t-132 229l109 34q28 -114 115.5 -183t203.5 -69q125 0 219.5 75t94.5 177q0 29 -7.5 52.5t-25 41t-33.5 30t-47 24.5t-50 18t-56 17l-101 30q-30 9 -42 13t-47.5 18t-54 26t-47.5 35t-44 47t-27 59.5t-12 76.5q0 146 124 252t294 106
q141 0 236 -77t116 -197l-117 -37q-16 90 -84 151.5t-178 61.5q-115 0 -193.5 -66.5t-78.5 -162.5q0 -38 16 -70t37 -52.5t56.5 -39.5t60.5 -28t63 -21l105 -31l46.5 -15t47.5 -18t50 -24t43 -31t38 -41.5t23 -51.5t10 -65q0 -70 -35.5 -138.5t-95.5 -122.5t-147 -87
t-183 -33z" />
    <glyph glyph-name="t" unicode="t" horiz-adv-x="743" 
d="M391 -35q-53 0 -92 14.5t-62 35t-35.5 55t-17 63t-1.5 72.5t7 68.5t11 64.5q85 470 149 713q-107 -21 -252 -21l17 98q153 0 243 -22q1 40 3 77t7.5 81.5t8 63t12 74.5t10.5 64h111q-2 -11 -8.5 -49.5t-10 -56t-11 -54t-14.5 -63t-17.5 -63.5t-22.5 -74q137 22 379 22
l-19 -98q-226 0 -368 21q-16 -178 -34.5 -303t-33 -180t-26.5 -97t-18.5 -88t-6.5 -119q0 -109 23 -153.5t100 -44.5q98 0 207 65l-21 -108q-99 -58 -217 -58z" />
    <glyph glyph-name="u" unicode="u" horiz-adv-x="1275" 
d="M473 -35q-50 0 -95 9.5t-88.5 31t-74.5 56.5t-53.5 85.5t-25 118t10.5 154.5l125 708h111l-115 -661q-12 -79 -11 -139t18.5 -105t41.5 -75t58 -48t68.5 -26t72.5 -8q88 0 166.5 38t133.5 99.5t92 134.5t50 147l115 643h111l-137 -776q-38 -213 -25 -352h-113
q-7 59 -0.5 125t33.5 141h-20q-173 -301 -449 -301z" />
    <glyph glyph-name="v" unicode="v" horiz-adv-x="1093" 
d="M506 0h-115l-256 1128h121q143 -657 203 -1017h22q187 360 559 1017h119z" />
    <glyph glyph-name="w" unicode="w" horiz-adv-x="1845" 
d="M467 0h-111l-217 1128h121q6 -31 35 -190t39 -216t30.5 -180.5t34 -223.5t25.5 -205h25q182 388 516 1015h116q6 -32 26.5 -139.5t28 -148t24.5 -134t26 -149.5t22 -137.5t23.5 -156t19.5 -150.5h23q79 171 178 369t157 309t177 337h123l-617 -1128h-112
q-134 718 -176 1001h-7q-228 -453 -530 -1001z" />
    <glyph glyph-name="x" unicode="x" horiz-adv-x="1026" 
d="M59 0h-125q346 381 515 557l4 23q-137 220 -320 548h129q190 -349 254 -493h23q114 143 428 493h129q-320 -349 -514 -548l-4 -23q155 -258 317 -557h-123q-192 359 -258 506h-20q-46 -59 -107.5 -132t-102.5 -119.5t-120 -136t-105 -118.5z" />
    <glyph glyph-name="y" unicode="y" horiz-adv-x="1095" 
d="M242 -451h-99l250 441l-258 1138h121q134 -589 201 -1038h20q245 485 563 1038h121z" />
    <glyph glyph-name="z" unicode="z" horiz-adv-x="974" 
d="M831 0h-872l14 82q70 79 205.5 231.5t220 247.5t205.5 228.5t227 246.5l-6 21q-361 -31 -645 -31l17 102h786l-14 -81q-24 -27 -115 -128.5t-126 -140t-115.5 -127.5t-129 -142.5t-118.5 -130t-133 -143.5t-126 -133l7 -22q251 22 735 22z" />
    <glyph glyph-name="braceleft" unicode="{" horiz-adv-x="724" 
d="M535 -307h-72q-119 0 -195 32t-108 90.5t-38.5 140t13.5 181.5l29 168q10 58 14.5 100.5t6 72.5t-4.5 49.5t-12 30.5t-21 16.5t-28 6.5t-37 1l22 127q20 0 28 0.5t24.5 2.5t23 6.5l19.5 13.5t19.5 23t17 34.5t17.5 48t15.5 64.5t16.5 83l28 170q11 64 26 115t39.5 104
t60.5 91t85.5 69t119 47t155.5 16h71l-16 -100h-70q-158 0 -240.5 -73t-109.5 -222l-37 -211q-30 -166 -69 -231t-138 -96l-6 -37q43 -16 66 -35.5t34.5 -56.5t8.5 -92t-19 -144l-36 -211q-14 -62 -8.5 -116t28 -94t79.5 -62.5t146 -22.5h68z" />
    <glyph glyph-name="bar" unicode="|" horiz-adv-x="520" 
d="M137 -451h-112l368 2089h113z" />
    <glyph glyph-name="braceright" unicode="}" horiz-adv-x="724" 
d="M-43 -307h-72l17 100h69q157 0 240.5 72.5t110.5 222.5l36 211q21 119 45.5 181.5t60.5 94.5t101 52l4 37q-41 14 -62 29.5t-35 50.5t-11 93.5t20 153.5l37 211q8 49 9.5 87t-10 79t-38 67.5t-79 44t-128.5 17.5h-67l16 100h70q119 0 195 -31t109.5 -88.5t40 -139.5
t-14.5 -183l-31 -170q-14 -80 -18 -130.5t-1.5 -80.5t18.5 -44t33.5 -17.5t51.5 -3.5l-23 -127q-34 0 -50.5 -3t-38 -16.5t-34.5 -43t-27.5 -81.5t-29.5 -133l-31 -168q-14 -78 -32.5 -136.5t-54.5 -119.5t-85.5 -99.5t-128.5 -63.5t-182 -25z" />
    <glyph glyph-name="asciitilde" unicode="~" horiz-adv-x="1050" 
d="M688 588q-43 0 -77.5 14.5t-56.5 35t-42.5 41.5t-46.5 35.5t-57 14.5q-57 0 -92 -39.5t-46 -101.5h-104q14 79 58 135.5t98 81t112 24.5q50 0 90.5 -22.5t62.5 -49t54 -49t68 -22.5q51 0 83 40t42 103h104q-21 -119 -90.5 -180t-159.5 -61z" />
    <glyph glyph-name="uni00A0" unicode="&#xa0;" horiz-adv-x="546" 
 />
    <glyph glyph-name="exclamdown" unicode="&#xa1;" horiz-adv-x="485" 
d="M311 956q-35 0 -59.5 23.5t-24.5 58.5q0 47 37 85t86 38q36 0 59 -25t23 -61q0 -46 -37 -82.5t-84 -36.5zM133 -449h-137l16 89l236 1134h67l-165 -1134z" />
    <glyph glyph-name="cent" unicode="&#xa2;" horiz-adv-x="1142" 
d="M731 1133l-143 -811q116 7 210 75.5t154 175.5l82 -30q-77 -140 -199.5 -219.5t-263.5 -87.5l-41 -236h-86l43 240q-152 17 -238.5 119.5t-86.5 267.5q0 106 37 208t101 182.5t158 134.5t201 65l46 249h86l-43 -245q117 -7 202.5 -69.5t114.5 -188.5l-96 -35
q-17 88 -80 143t-158 62zM266 641q0 -131 63 -213.5t173 -101.5l143 804q-163 -23 -271 -167t-108 -322z" />
    <glyph glyph-name="sterling" unicode="&#xa3;" horiz-adv-x="1206" 
d="M1024 0h-1016l19 113q228 88 355.5 219.5t127.5 281.5q2 36 -14 148q-119 -21 -324 -21l18 99q163 0 277 -21q-10 18 -37 63t-38 64.5t-30.5 58.5t-28 66t-15.5 63t-7 72q0 180 136.5 302t345.5 122q56 0 107.5 -9.5t106 -35.5t95.5 -67t69.5 -110t34.5 -159l-112 -43
q-10 88 -41 152t-76.5 99t-96 51t-108.5 16q-144 0 -240 -86t-96 -219q0 -61 23 -126t56.5 -140.5t47.5 -133.5q176 21 459 21l-16 -99q-248 0 -422 21q47 -65 47 -137q0 -140 -116 -283.5t-300 -232.5l16 -21q279 25 811 25z" />
    <glyph glyph-name="currency" unicode="&#xa4;" horiz-adv-x="1345" 
d="M1104 897q0 -98 -37.5 -186t-103.5 -154l217 -326l-90 -69l-220 325q-102 -57 -221 -57q-121 0 -198 59l-334 -327l-68 69l336 328q-49 76 -49 184q0 93 36 181.5t101 156.5l-215 328l90 70l219 -326q105 59 224 59t198 -57l332 324l68 -70l-334 -326q49 -76 49 -186z
M442 764q0 -111 60 -176.5t164 -65.5q137 0 234 106.5t97 254.5q0 108 -59 172.5t-162 64.5q-137 0 -235.5 -105.5t-98.5 -250.5z" />
    <glyph glyph-name="yen" unicode="&#xa5;" horiz-adv-x="1452" 
d="M680 0h-119q31 175 78 303q-152 -20 -399 -20l18 102q248 0 389 -23q-2 76 8 129.5t37 118.5q-150 -20 -397 -20l18 102q216 0 334 -22q-130 295 -401 927h131q268 -647 366 -895h9q65 85 134 178t161.5 212.5t390.5 504.5h125q-540 -692 -729 -927q125 22 346 22
l-17 -102q-252 0 -397 20q5 -67 -4.5 -121t-38.5 -127q152 23 401 23l-16 -102q-252 0 -395 20q2 -119 -33 -303z" />
    <glyph glyph-name="brokenbar" unicode="&#xa6;" horiz-adv-x="520" 
d="M365 840h-113l141 798h113zM137 -451h-112l139 791h112z" />
    <glyph glyph-name="section" unicode="&#xa7;" horiz-adv-x="1085" 
d="M403 -301q-165 0 -276.5 97t-130.5 247l108 31q25 -122 114.5 -200.5t209.5 -78.5q118 0 207.5 74t89.5 176q0 24 -6.5 44.5t-14 35t-27.5 29.5t-30 22t-40.5 19.5t-41 16.5t-47.5 17l-98 33q-26 9 -42 15.5t-47 21t-51 28.5t-45.5 37t-40.5 47.5t-25.5 59t-10.5 72.5
q0 111 77 195.5t205 109.5l4 26q-170 57 -170 220q0 142 124 247t309 105q64 0 118 -15t101 -48.5t77.5 -95t38.5 -146.5l-114 -33q-15 125 -73.5 183.5t-170.5 58.5q-127 0 -210 -66t-83 -162q0 -33 9 -60t29 -48t38 -36t50 -29.5t49 -21t50 -18.5l119 -43q29 -10 42 -14.5
t42.5 -17.5t45.5 -24t38.5 -30t34 -39t20.5 -48.5t9 -61.5q0 -110 -83 -205t-210 -125l-6 -27q182 -44 182 -200q0 -69 -35 -137t-94 -120.5t-143 -85t-175 -32.5zM496 358l53 -16q132 9 214.5 84.5t82.5 171.5q0 40 -13.5 68.5t-49.5 50t-55.5 29t-74.5 25.5q-9 3 -14 5
l-78 27q-62 20 -129.5 -8.5t-112.5 -90.5t-45 -131q0 -39 16.5 -72t38 -54t55.5 -40.5t57 -28.5t55 -20z" />
    <glyph glyph-name="copyright" unicode="&#xa9;" horiz-adv-x="1945" 
d="M870 -35q-206 0 -364.5 82t-247 237t-88.5 361q0 191 78.5 371.5t211 315.5t318 216.5t387.5 81.5q207 0 365 -82.5t246 -237t88 -358.5q0 -191 -78.5 -371.5t-210.5 -316t-317.5 -217.5t-387.5 -82zM889 72q177 0 339 71.5t276.5 190t182.5 276t68 324.5
q0 270 -168.5 431t-441.5 161q-177 0 -338.5 -71.5t-276.5 -189.5t-183 -275.5t-68 -325.5q0 -272 168.5 -432t441.5 -160zM942 350q-161 0 -254.5 96t-93.5 261q0 138 65 261.5t183.5 201t261.5 77.5q130 0 215.5 -66t107.5 -188l-110 -37q-13 93 -75.5 144t-158.5 51
q-108 0 -195.5 -65t-133 -163t-45.5 -202q0 -129 69.5 -200.5t188.5 -71.5q106 0 196 59.5t150 171.5l90 -29q-70 -142 -192 -221.5t-269 -79.5z" />
    <glyph glyph-name="guillemotleft" unicode="&#xab;" horiz-adv-x="1116" 
d="M522 164h-133l-270 405l2 9l414 405h133q-99 -95 -150 -143.5t-132.5 -117.5t-156.5 -122l-8 -53q56 -53 113.5 -123.5t92.5 -120.5t95 -139zM905 164h-133l-270 405l2 9l414 405h133q-8 -7 -49 -46.5t-50.5 -48.5t-45 -42.5t-49.5 -45.5t-45 -40t-50 -43.5t-46.5 -38
t-52.5 -41.5t-51 -37l-8 -53q56 -53 113.5 -123.5t92.5 -120.5t95 -139z" />
    <glyph glyph-name="logicalnot" unicode="&#xac;" horiz-adv-x="1032" 
d="M817 270h-106l53 308h-602l18 104h709z" />
    <glyph glyph-name="registered" unicode="&#xae;" horiz-adv-x="1175" 
d="M618 741q-171 0 -273.5 100.5t-102.5 264.5q0 102 42 198.5t112.5 169t170.5 116.5t209 44q168 0 271.5 -100.5t103.5 -263.5q0 -135 -70.5 -256.5t-194.5 -197t-268 -75.5zM633 815q93 0 177 38t141.5 99.5t91.5 141.5t34 163q0 137 -86 221.5t-227 84.5
q-122 0 -226 -63t-162.5 -164.5t-58.5 -215.5q0 -137 86 -221t230 -84zM573 946h-73l86 494h178q66 0 105.5 -33t39.5 -90q0 -62 -39 -113.5t-100 -66.5l96 -191h-84l-92 182h-84zM647 1368l-29 -170h105q49 0 80 29t31 71q0 70 -89 70h-98z" />
    <glyph glyph-name="degree" unicode="&#xb0;" horiz-adv-x="782" 
d="M475 1057q-112 0 -178 66.5t-66 174.5q0 89 46 170t127 131t176 50q109 0 176 -67.5t67 -174.5q0 -137 -103 -243.5t-245 -106.5zM489 1139q97 0 169.5 77.5t72.5 176.5q0 76 -46 124t-120 48q-98 0 -168.5 -77t-70.5 -177q0 -76 44.5 -124t118.5 -48z" />
    <glyph glyph-name="plusminus" unicode="&#xb1;" horiz-adv-x="1032" 
d="M911 770l-18 -102h-303l-39 -213h303l-16 -95h-713l16 95h303l39 213h-303l19 102h303l41 250h108l-43 -250h303z" />
    <glyph glyph-name="uni00B2" unicode="&#xb2;" horiz-adv-x="618" 
d="M592 817h-463l4 8q28 112 81 170t202 148q166 101 166 198q0 44 -30.5 71.5t-82.5 27.5q-69 0 -121 -47t-65 -125l-82 14q17 105 97 172.5t185 67.5q87 0 141 -45t54 -121q0 -37 -13 -72t-30 -59t-44.5 -49t-45.5 -38.5t-43 -29.5q-23 -15 -62 -38t-59 -36.5t-46 -34
t-42.5 -44t-28.5 -52.5h342z" />
    <glyph glyph-name="uni00B3" unicode="&#xb3;" horiz-adv-x="632" 
d="M356 803q-90 0 -151 43.5t-70 114.5l86 38q11 -55 48.5 -86.5t99.5 -31.5q71 0 120.5 44t49.5 105q0 51 -37 78t-103 27h-69l12 69h74q69 0 116.5 41t47.5 101q0 44 -33 70t-86 26q-59 0 -103 -33.5t-63 -91.5l-80 18q24 83 100.5 135t167.5 52q82 0 137.5 -41.5
t55.5 -110.5q0 -63 -44 -119t-106 -73q51 -11 81 -45.5t30 -85.5q0 -99 -83 -171.5t-198 -72.5z" />
    <glyph glyph-name="paragraph" unicode="&#xb6;" horiz-adv-x="1431" 
d="M764 -287h-119l166 942h-246q-186 0 -292.5 104t-106.5 283q0 111 43.5 212t120.5 177t191.5 121t248.5 45h326zM1038 -287h-118l331 1884h119z" />
    <glyph glyph-name="periodcentered" unicode="&#xb7;" horiz-adv-x="538" 
d="M256 477q-45 0 -73.5 30.5t-28.5 74.5q0 58 44 101.5t103 43.5q44 0 72 -28.5t28 -71.5q0 -57 -44 -103.5t-101 -46.5z" />
    <glyph glyph-name="uni00B9" unicode="&#xb9;" horiz-adv-x="428" 
d="M338 817h-92l92 524q-71 -68 -168 -84l16 91q71 18 123.5 62t61.5 97h88z" />
    <glyph glyph-name="guillemotright" unicode="&#xbb;" horiz-adv-x="1118" 
d="M621 569l-416 -405h-133q10 10 64.5 62t73.5 70t67 62t78 69t72 59t81 61l8 53q-79 78 -147 168t-152 215h133l273 -405zM1001 569l-413 -405h-133q10 10 64.5 62t73.5 70t67 62t78 69t72 59t81 61l8 53q-56 54 -113 124t-93 121.5t-93 137.5h133l271 -405z" />
    <glyph glyph-name="onequarter" unicode="&#xbc;" horiz-adv-x="1280" 
d="M338 817h-92l92 524q-71 -68 -168 -84l16 91q71 18 123.5 62t61.5 97h88zM-43 0h-107l1397 1468h99zM1018 -14h-88l28 159h-346l15 82l426 449h88l-80 -453h98l-14 -78h-98zM1030 553l-311 -330h254z" />
    <glyph glyph-name="onehalf" unicode="&#xbd;" horiz-adv-x="1310" 
d="M338 817h-92l92 524q-71 -68 -168 -84l16 91q71 18 123.5 62t61.5 97h88zM-43 0h-107l1397 1468h99zM1137 -14h-463l4 8q28 112 80.5 169t202.5 148q165 101 165 199q0 44 -30 71t-82 27q-70 0 -122 -47.5t-65 -124.5l-82 15q17 105 97.5 172t185.5 67q87 0 141 -45
t54 -121q0 -37 -13 -72t-30 -59t-44.5 -49t-45.5 -38.5t-43 -29.5q-24 -15 -62.5 -38t-59 -36.5t-46 -33.5t-42 -43.5t-28.5 -52.5h342z" />
    <glyph glyph-name="threequarters" unicode="&#xbe;" horiz-adv-x="1484" 
d="M356 803q-90 0 -151 43.5t-70 114.5l86 38q11 -55 48.5 -86.5t99.5 -31.5q71 0 120.5 44t49.5 105q0 51 -37 78t-103 27h-69l12 69h74q69 0 116.5 41t47.5 101q0 44 -33 70t-86 26q-59 0 -103 -33.5t-63 -91.5l-80 18q24 83 100.5 135t167.5 52q82 0 137.5 -41.5
t55.5 -110.5q0 -63 -44 -119t-106 -73q51 -11 81 -45.5t30 -85.5q0 -99 -83 -171.5t-198 -72.5zM162 0h-107l1397 1468h98zM1223 -14h-88l28 159h-346l14 82l426 449h89l-80 -453h98l-14 -78h-99zM1235 553l-311 -330h254z" />
    <glyph glyph-name="questiondown" unicode="&#xbf;" horiz-adv-x="1046" 
d="M649 956q-35 0 -59.5 23.5t-24.5 58.5q0 47 37 85t84 38q38 0 62 -25t24 -61q0 -47 -36.5 -83t-86.5 -36zM342 -483q-164 0 -273.5 90.5t-109.5 247.5q0 63 18 123.5t53 112.5t70 94.5t85 84.5t81 65.5t74 53.5q58 41 87 64t66 59.5t56.5 75t28.5 86.5q6 36 6 51h106
q0 -29 -6 -63q-8 -46 -27 -86.5t-40.5 -70t-63 -66t-73 -60t-91.5 -66.5q-43 -30 -76.5 -56.5t-79.5 -72t-76.5 -89t-52.5 -101.5t-22 -117q0 -119 81 -188.5t202 -69.5q88 0 171 38t146.5 116t81.5 180q8 39 8 72l100 -19q0 -39 -6 -69q-33 -185 -184 -302.5t-340 -117.5z
" />
    <glyph glyph-name="Agrave" unicode="&#xc0;" horiz-adv-x="1497" 
d="M1034 1720h-104l-285 318h180zM59 0h-127l938 1597h125l373 -1597h-127q-91 380 -111 588l-16 18q-244 -22 -350 -22q-149 0 -356 22l-23 -20q-132 -255 -326 -586zM442 690l11 -20q234 20 333 20q113 0 293 -20l15 18q-119 443 -162 787h-43q-180 -369 -447 -785z" />
    <glyph glyph-name="Aacute" unicode="&#xc1;" horiz-adv-x="1497" 
d="M1378 2038l-397 -318h-102l321 318h178zM59 0h-127l938 1597h125l373 -1597h-127q-91 380 -111 588l-16 18q-244 -22 -350 -22q-149 0 -356 22l-23 -20q-132 -255 -326 -586zM442 690l11 -20q234 20 333 20q113 0 293 -20l15 18q-119 443 -162 787h-43
q-180 -369 -447 -785z" />
    <glyph glyph-name="Acircumflex" unicode="&#xc2;" horiz-adv-x="1497" 
d="M719 1720h-105l318 297h151l213 -297h-102q-47 53 -68.5 78t-52 70.5t-51.5 93.5h-45q-38 -47 -89.5 -96.5t-77.5 -71t-91 -74.5zM59 0h-127l938 1597h125l373 -1597h-127q-91 380 -111 588l-16 18q-244 -22 -350 -22q-149 0 -356 22l-23 -20q-132 -255 -326 -586z
M442 690l11 -20q234 20 333 20q113 0 293 -20l15 18q-119 443 -162 787h-43q-180 -369 -447 -785z" />
    <glyph glyph-name="Atilde" unicode="&#xc3;" horiz-adv-x="1497" 
d="M1108 1751q-16 0 -30 1.5t-27.5 7.5t-21 9t-20.5 13.5t-16.5 13.5t-18 17t-16.5 16l-32 33q-3 3 -12.5 12t-14 13t-13.5 10.5t-15.5 9.5t-16.5 5.5t-20 2.5q-50 0 -88 -42t-50 -108h-88q22 106 90 172t156 66q43 0 73 -18t62 -52l37 -37q52 -57 104 -57q49 0 85 42
t47 108h88q-21 -108 -85.5 -173t-156.5 -65zM59 0h-127l938 1597h125l373 -1597h-127q-91 380 -111 588l-16 18q-244 -22 -350 -22q-149 0 -356 22l-23 -20q-132 -255 -326 -586zM442 690l11 -20q234 20 333 20q113 0 293 -20l15 18q-119 443 -162 787h-43
q-180 -369 -447 -785z" />
    <glyph glyph-name="Adieresis" unicode="&#xc4;" horiz-adv-x="1497" 
d="M776 1794q-36 0 -59 23t-23 59q0 44 35.5 78.5t79.5 34.5q36 0 58 -22.5t22 -55.5q0 -46 -34.5 -81.5t-78.5 -35.5zM1161 1794q-37 0 -59.5 22.5t-22.5 57.5q0 46 34.5 80.5t80.5 34.5q35 0 57.5 -23t22.5 -57q0 -44 -35 -79.5t-78 -35.5zM59 0h-127l938 1597h125
l373 -1597h-127q-91 380 -111 588l-16 18q-244 -22 -350 -22q-149 0 -356 22l-23 -20q-132 -255 -326 -586zM442 690l11 -20q234 20 333 20q113 0 293 -20l15 18q-119 443 -162 787h-43q-180 -369 -447 -785z" />
    <glyph glyph-name="Aring" unicode="&#xc5;" horiz-adv-x="1497" 
d="M952 1714q-83 0 -133.5 49t-50.5 129q0 101 77 176.5t185 75.5q83 0 133.5 -49t50.5 -129q0 -100 -77.5 -176t-184.5 -76zM969 1798q67 0 114 47t47 113q0 47 -32 74.5t-84 27.5q-69 0 -115.5 -45.5t-46.5 -111.5q0 -49 32 -77t85 -28zM59 0h-127l938 1597h125l373 -1597
h-127q-91 380 -111 588l-16 18q-244 -22 -350 -22q-149 0 -356 22l-23 -20q-132 -255 -326 -586zM442 690l11 -20q234 20 333 20q113 0 293 -20l15 18q-119 443 -162 787h-43q-180 -369 -447 -785z" />
    <glyph glyph-name="AE" unicode="&#xc6;" horiz-adv-x="2105" 
d="M-4 0h-127l1231 1597h1063l-19 -106q-573 0 -907 31q-13 -320 -107 -668q317 23 865 23l-21 -109q-547 0 -856 23q-28 -339 -125 -709q340 31 928 31l-20 -113h-1018q67 383 118 604q-289 -29 -567 0q-145 -224 -438 -604zM504 672q271 30 520 -2q39 388 137 841h-41
q-122 -193 -267 -388t-349 -451z" />
    <glyph glyph-name="Ccedilla" unicode="&#xc7;" horiz-adv-x="1722" 
d="M846 76q129 0 245.5 41t206 112t157.5 158t114 188l96 -38q-45 -94 -104.5 -176.5t-138.5 -155.5t-169.5 -125.5t-202.5 -83t-233 -31.5q-73 -80 -129 -127l6 -6q52 21 101 21q72 0 113.5 -36t41.5 -96q0 -84 -73 -146t-179 -62q-68 0 -130.5 29t-98.5 79l59 49
q26 -40 74 -65t100 -25q67 0 114.5 37t47.5 90q0 38 -30.5 62t-79.5 24q-57 0 -101 -26l-43 49l125 151q-277 23 -437.5 200.5t-160.5 461.5q0 192 76 374.5t203.5 320.5t306.5 222t373 84q111 0 212 -28t186 -83t143 -145t75 -205l-113 -43q-40 187 -183.5 290.5
t-340.5 103.5q-133 0 -258 -48t-223.5 -132.5t-173 -194t-114.5 -239t-40 -261.5q0 -141 47 -252t128.5 -179t184 -103t220.5 -35z" />
    <glyph glyph-name="Egrave" unicode="&#xc8;" horiz-adv-x="1347" 
d="M975 1720h-105l-284 318h180zM1145 0h-1020l283 1597h999l-21 -106q-53 0 -206.5 -1t-231.5 -0.5t-204.5 5.5t-235.5 16l-23 -18q-24 -309 -106 -616l12 -23q307 23 846 23l-18 -109q-543 0 -838 23l-21 -23q-31 -338 -118 -662l14 -20q326 27 907 27z" />
    <glyph glyph-name="Eacute" unicode="&#xc9;" horiz-adv-x="1347" 
d="M1319 2038l-397 -318h-103l322 318h178zM1145 0h-1020l283 1597h999l-21 -106q-53 0 -206.5 -1t-231.5 -0.5t-204.5 5.5t-235.5 16l-23 -18q-24 -309 -106 -616l12 -23q307 23 846 23l-18 -109q-543 0 -838 23l-21 -23q-31 -338 -118 -662l14 -20q326 27 907 27z" />
    <glyph glyph-name="Ecircumflex" unicode="&#xca;" horiz-adv-x="1347" 
d="M657 1720h-104l317 297h152l213 -297h-102q-47 53 -68.5 78t-52 70.5t-51.5 93.5h-46q-38 -47 -89.5 -96.5t-77.5 -71t-91 -74.5zM1145 0h-1020l283 1597h999l-21 -106q-53 0 -206.5 -1t-231.5 -0.5t-204.5 5.5t-235.5 16l-23 -18q-24 -309 -106 -616l12 -23
q307 23 846 23l-18 -109q-543 0 -838 23l-21 -23q-31 -338 -118 -662l14 -20q326 27 907 27z" />
    <glyph glyph-name="Edieresis" unicode="&#xcb;" horiz-adv-x="1347" 
d="M715 1794q-36 0 -59 23t-23 59q0 44 35.5 78.5t79.5 34.5q36 0 57.5 -22.5t21.5 -55.5q0 -46 -34 -81.5t-78 -35.5zM1100 1794q-37 0 -59.5 22.5t-22.5 57.5q0 46 34.5 80.5t80.5 34.5q35 0 57 -23t22 -57q0 -44 -34.5 -79.5t-77.5 -35.5zM1145 0h-1020l283 1597h999
l-21 -106q-53 0 -206.5 -1t-231.5 -0.5t-204.5 5.5t-235.5 16l-23 -18q-24 -309 -106 -616l12 -23q307 23 846 23l-18 -109q-543 0 -838 23l-21 -23q-31 -338 -118 -662l14 -20q326 27 907 27z" />
    <glyph glyph-name="Igrave" unicode="&#xcc;" horiz-adv-x="567" 
d="M569 1720h-104l-285 318h180zM244 0h-119l283 1597h118z" />
    <glyph glyph-name="Iacute" unicode="&#xcd;" horiz-adv-x="567" 
d="M913 2038l-397 -318h-102l321 318h178zM244 0h-119l283 1597h118z" />
    <glyph glyph-name="Icircumflex" unicode="&#xce;" horiz-adv-x="567" 
d="M254 1720h-104l317 297h151l213 -297h-102q-47 53 -68.5 78t-52 70.5t-51.5 93.5h-45q-38 -47 -89.5 -96.5t-77.5 -71t-91 -74.5zM244 0h-119l283 1597h118z" />
    <glyph glyph-name="Idieresis" unicode="&#xcf;" horiz-adv-x="567" 
d="M311 1794q-36 0 -59 23t-23 59q0 44 35.5 78.5t79.5 34.5q36 0 58 -22.5t22 -55.5q0 -46 -34.5 -81.5t-78.5 -35.5zM696 1794q-37 0 -59.5 22.5t-22.5 57.5q0 46 34.5 80.5t80.5 34.5q35 0 57.5 -23t22.5 -57q0 -44 -35 -79.5t-78 -35.5zM244 0h-119l283 1597h118z" />
    <glyph glyph-name="Eth" unicode="&#xd0;" horiz-adv-x="1652" 
d="M408 1597h553q165 0 288 -44t198 -126.5t111.5 -193t36.5 -250.5q0 -150 -41 -294.5t-120 -268.5t-186.5 -218.5t-250 -148t-301.5 -53.5h-571l133 750h-168l19 96h165zM725 106q133 0 251.5 46.5t207.5 127.5t154 188t98.5 231t33.5 253q0 261 -140 400t-410 139
q-267 0 -412 20l-23 -18q-41 -330 -96 -647h572l-19 -96h-569q-64 -352 -131 -644l14 -20q176 20 469 20z" />
    <glyph glyph-name="Ntilde" unicode="&#xd1;" horiz-adv-x="1693" 
d="M1198 1808q-16 0 -30 2t-27 7t-21 9t-20 13.5t-16.5 13.5t-17.5 17t-17 16l-33 33q-3 3 -12.5 12t-14 13t-13.5 10.5t-15.5 9.5t-16.5 5.5t-20 2.5q-50 0 -88 -41.5t-50 -107.5h-88q22 106 90 171.5t156 65.5q43 0 73 -17.5t62 -51.5l37 -37q53 -58 105 -58q49 0 84.5 42
t46.5 108h88q-21 -108 -85.5 -173t-156.5 -65zM244 0h-119l283 1597h108q388 -679 770 -1437h21q12 105 26 208t31.5 220t30 195t36 214t33 191t37.5 212.5t35 196.5h117l-283 -1597h-108q-506 891 -773 1415h-22q-16 -142 -34 -279.5t-46.5 -312t-42 -253.5t-53.5 -304.5
t-47 -265.5z" />
    <glyph glyph-name="Ograve" unicode="&#xd2;" horiz-adv-x="1818" 
d="M1194 1720h-104l-285 318h180zM805 -35q-144 0 -268 49.5t-212.5 138t-139 215t-50.5 275.5q0 188 79 369.5t209 316.5t308.5 218t366.5 83q196 0 348.5 -88t235.5 -243t83 -351q0 -125 -36 -249.5t-99.5 -232t-153.5 -201t-195 -159.5t-228 -103.5t-248 -37.5zM825 76
q157 0 306.5 72.5t259 191t176.5 275.5t67 319q0 258 -157 422t-400 164q-124 0 -246 -46t-222.5 -128t-178 -188.5t-121 -235.5t-43.5 -260q0 -172 73 -306t200 -207t286 -73z" />
    <glyph glyph-name="Oacute" unicode="&#xd3;" horiz-adv-x="1818" 
d="M1536 2038l-397 -318h-103l322 318h178zM805 -35q-144 0 -268 49.5t-212.5 138t-139 215t-50.5 275.5q0 188 79 369.5t209 316.5t308.5 218t366.5 83q196 0 348.5 -88t235.5 -243t83 -351q0 -125 -36 -249.5t-99.5 -232t-153.5 -201t-195 -159.5t-228 -103.5t-248 -37.5z
M825 76q157 0 306.5 72.5t259 191t176.5 275.5t67 319q0 258 -157 422t-400 164q-124 0 -246 -46t-222.5 -128t-178 -188.5t-121 -235.5t-43.5 -260q0 -172 73 -306t200 -207t286 -73z" />
    <glyph glyph-name="Ocircumflex" unicode="&#xd4;" horiz-adv-x="1818" 
d="M877 1720h-105l318 297h151l213 -297h-102q-47 53 -68.5 78t-52 70.5t-51.5 93.5h-45q-38 -47 -89.5 -96.5t-77.5 -71t-91 -74.5zM805 -35q-144 0 -268 49.5t-212.5 138t-139 215t-50.5 275.5q0 188 79 369.5t209 316.5t308.5 218t366.5 83q196 0 348.5 -88t235.5 -243
t83 -351q0 -125 -36 -249.5t-99.5 -232t-153.5 -201t-195 -159.5t-228 -103.5t-248 -37.5zM825 76q157 0 306.5 72.5t259 191t176.5 275.5t67 319q0 258 -157 422t-400 164q-124 0 -246 -46t-222.5 -128t-178 -188.5t-121 -235.5t-43.5 -260q0 -172 73 -306t200 -207
t286 -73z" />
    <glyph glyph-name="Otilde" unicode="&#xd5;" horiz-adv-x="1818" 
d="M1278 1808q-16 0 -30 1.5t-27.5 7.5t-21 9t-20.5 13.5t-16.5 13.5t-18 17t-16.5 16l-32 33q-3 3 -12.5 12t-14 13t-13.5 10.5t-15.5 9.5t-16.5 5.5t-20 2.5q-50 0 -88 -41.5t-50 -107.5h-88q22 106 90 171.5t156 65.5q43 0 73 -17.5t62 -51.5l37 -37q53 -58 104 -58
q49 0 85 42t47 108h88q-21 -108 -85.5 -173t-156.5 -65zM805 -35q-144 0 -268 49.5t-212.5 138t-139 215t-50.5 275.5q0 188 79 369.5t209 316.5t308.5 218t366.5 83q196 0 348.5 -88t235.5 -243t83 -351q0 -125 -36 -249.5t-99.5 -232t-153.5 -201t-195 -159.5t-228 -103.5
t-248 -37.5zM825 76q157 0 306.5 72.5t259 191t176.5 275.5t67 319q0 258 -157 422t-400 164q-124 0 -246 -46t-222.5 -128t-178 -188.5t-121 -235.5t-43.5 -260q0 -172 73 -306t200 -207t286 -73z" />
    <glyph glyph-name="Odieresis" unicode="&#xd6;" horiz-adv-x="1818" 
d="M934 1794q-36 0 -59 23t-23 59q0 44 35.5 78.5t79.5 34.5q36 0 58 -22.5t22 -55.5q0 -46 -34.5 -81.5t-78.5 -35.5zM1319 1794q-37 0 -59.5 22.5t-22.5 57.5q0 46 34.5 80.5t80.5 34.5q35 0 57.5 -23t22.5 -57q0 -44 -35 -79.5t-78 -35.5zM805 -35q-144 0 -268 49.5
t-212.5 138t-139 215t-50.5 275.5q0 188 79 369.5t209 316.5t308.5 218t366.5 83q196 0 348.5 -88t235.5 -243t83 -351q0 -125 -36 -249.5t-99.5 -232t-153.5 -201t-195 -159.5t-228 -103.5t-248 -37.5zM825 76q157 0 306.5 72.5t259 191t176.5 275.5t67 319q0 258 -157 422
t-400 164q-124 0 -246 -46t-222.5 -128t-178 -188.5t-121 -235.5t-43.5 -260q0 -172 73 -306t200 -207t286 -73z" />
    <glyph glyph-name="multiply" unicode="&#xd7;" horiz-adv-x="909" 
d="M395 625l-186 223l90 76l184 -224l252 215l62 -73l-252 -215l182 -226l-88 -73l-182 223l-256 -217l-62 74z" />
    <glyph glyph-name="Oslash" unicode="&#xd8;" horiz-adv-x="1818" 
d="M1759 1661l-186 -215q192 -192 192 -498q0 -125 -36 -249.5t-99.5 -232t-153.5 -201t-195 -159.5t-228 -103.5t-248 -37.5q-233 0 -404 123l-131 -154h-131l187 218q-191 191 -191 491q0 188 79 369.5t209 316.5t308.5 218t366.5 83q230 0 399 -121l129 152h133zM266 662
q0 -245 146 -410l1001 1161q-145 107 -336 107q-124 0 -246 -46t-222.5 -128t-178 -188.5t-121 -235.5t-43.5 -260zM825 76q157 0 306.5 72.5t259 191t176.5 275.5t67 319q0 249 -147 412l-1002 -1162q145 -108 340 -108z" />
    <glyph glyph-name="Ugrave" unicode="&#xd9;" horiz-adv-x="1544" 
d="M1059 1720h-105l-284 318h180zM666 -35q-265 0 -388 152t-69 454l180 1026h119l-180 -1019q-46 -259 50.5 -382.5t307.5 -123.5q213 0 354 124t185 382l182 1019h117l-181 -1026q-49 -280 -221.5 -443t-455.5 -163z" />
    <glyph glyph-name="Uacute" unicode="&#xda;" horiz-adv-x="1544" 
d="M1268 2038l-398 -318h-102l322 318h178zM666 -35q-265 0 -388 152t-69 454l180 1026h119l-180 -1019q-46 -259 50.5 -382.5t307.5 -123.5q213 0 354 124t185 382l182 1019h117l-181 -1026q-49 -280 -221.5 -443t-455.5 -163z" />
    <glyph glyph-name="Ucircumflex" unicode="&#xdb;" horiz-adv-x="1544" 
d="M743 1720h-104l317 297h152l213 -297h-102q-47 53 -68.5 78t-52 70.5t-51.5 93.5h-46q-38 -47 -89.5 -96.5t-77.5 -71t-91 -74.5zM666 -35q-265 0 -388 152t-69 454l180 1026h119l-180 -1019q-46 -259 50.5 -382.5t307.5 -123.5q213 0 354 124t185 382l182 1019h117
l-181 -1026q-49 -280 -221.5 -443t-455.5 -163z" />
    <glyph glyph-name="Udieresis" unicode="&#xdc;" horiz-adv-x="1544" 
d="M801 1794q-36 0 -59 23t-23 59q0 44 35.5 78.5t79.5 34.5q36 0 57.5 -22.5t21.5 -55.5q0 -46 -34 -81.5t-78 -35.5zM1186 1794q-37 0 -59.5 22.5t-22.5 57.5q0 46 34.5 80.5t80.5 34.5q35 0 57 -23t22 -57q0 -44 -34.5 -79.5t-77.5 -35.5zM666 -35q-265 0 -388 152
t-69 454l180 1026h119l-180 -1019q-46 -259 50.5 -382.5t307.5 -123.5q213 0 354 124t185 382l182 1019h117l-181 -1026q-49 -280 -221.5 -443t-455.5 -163z" />
    <glyph glyph-name="Yacute" unicode="&#xdd;" horiz-adv-x="1402" 
d="M1321 2038l-395 -318h-105l322 318h178zM659 0h-118q84 454 116 592q-236 533 -434 1005h131q6 -14 43 -104t47 -114.5t43.5 -107t48.5 -120t43.5 -111.5t47 -124t41.5 -114.5t43 -123.5h22q54 79 117 166.5t105 145t123 164.5t106 139.5t124 160t111 143.5h125
q-539 -696 -788 -1005q-31 -230 -97 -592z" />
    <glyph glyph-name="Thorn" unicode="&#xde;" horiz-adv-x="1390" 
d="M244 0h-119l283 1597h118q-21 -121 -67 -284h450q208 0 325.5 -102.5t117.5 -280.5q0 -145 -72 -274.5t-206.5 -211.5t-299.5 -82q-170 0 -272.5 6t-206.5 29q-4 -28 -12 -101.5t-17.5 -150t-21.5 -145.5zM307 469l15 -20q151 22 430 22q208 0 341.5 121t133.5 305
q0 151 -95 229t-266 78q-264 0 -407 23l-25 -19q-35 -369 -127 -739z" />
    <glyph glyph-name="germandbls" unicode="&#xdf;" horiz-adv-x="1241" 
d="M203 0h-111l209 1186q6 32 12 60t25 80.5t42.5 94.5t65.5 91.5t93.5 82.5t128 55.5t166.5 22.5q190 0 292.5 -92.5t102.5 -251.5q0 -114 -50.5 -218t-139 -170.5t-191.5 -74.5l-4 -22q144 -13 219.5 -91.5t75.5 -211.5q0 -104 -47 -202t-127 -173t-196 -120.5t-245 -45.5
h-145l16 96h154q194 0 330.5 127t136.5 299q0 129 -80 205t-209 76h-98l16 96h94q80 0 149.5 34.5t116 91.5t73 130.5t26.5 151.5q0 122 -68.5 194t-214.5 72q-84 0 -153 -26.5t-111 -65t-73 -90t-45 -94t-21 -85.5z" />
    <glyph glyph-name="agrave" unicode="&#xe0;" horiz-adv-x="1169" 
d="M778 1278h-100l-242 393h162zM350 -35q-137 0 -222 61t-85 185q0 64 25 119.5t68 97t104.5 75.5t131 57.5t150.5 39.5q27 5 76 14t75.5 14t66.5 15t62.5 19.5t49.5 26t41 35.5t23.5 46.5t9.5 60.5q0 100 -70.5 166t-191.5 66q-119 0 -215 -67.5t-152 -180.5l-102 39
q49 102 132.5 173t175 102.5t187.5 31.5q60 0 114.5 -13t104 -40.5t81.5 -71.5t46.5 -105.5t-0.5 -142.5l-78 -436q-20 -113 -25.5 -186t1.5 -166h-113q-5 71 1.5 132.5t35.5 141.5h-22q-175 -309 -486 -309zM377 59q76 0 149 26.5t128.5 69.5t100.5 95.5t72 106t35 100.5
l31 184q-57 -56 -109.5 -76t-187.5 -45l-70 -14t-77.5 -19.5t-83 -28.5t-75.5 -38t-66 -49.5t-43 -63t-17 -78.5q0 -81 57 -125.5t156 -44.5z" />
    <glyph glyph-name="aacute" unicode="&#xe1;" horiz-adv-x="1169" 
d="M1145 1671l-381 -393h-98l319 393h160zM350 -35q-137 0 -222 61t-85 185q0 64 25 119.5t68 97t104.5 75.5t131 57.5t150.5 39.5q27 5 76 14t75.5 14t66.5 15t62.5 19.5t49.5 26t41 35.5t23.5 46.5t9.5 60.5q0 100 -70.5 166t-191.5 66q-119 0 -215 -67.5t-152 -180.5
l-102 39q49 102 132.5 173t175 102.5t187.5 31.5q60 0 114.5 -13t104 -40.5t81.5 -71.5t46.5 -105.5t-0.5 -142.5l-78 -436q-20 -113 -25.5 -186t1.5 -166h-113q-5 71 1.5 132.5t35.5 141.5h-22q-175 -309 -486 -309zM377 59q76 0 149 26.5t128.5 69.5t100.5 95.5t72 106
t35 100.5l31 184q-57 -56 -109.5 -76t-187.5 -45l-70 -14t-77.5 -19.5t-83 -28.5t-75.5 -38t-66 -49.5t-43 -63t-17 -78.5q0 -81 57 -125.5t156 -44.5z" />
    <glyph glyph-name="acircumflex" unicode="&#xe2;" horiz-adv-x="1169" 
d="M451 1278h-107l361 356h159l234 -356h-107q-146 178 -194 285h-45q-103 -128 -301 -285zM350 -35q-137 0 -222 61t-85 185q0 64 25 119.5t68 97t104.5 75.5t131 57.5t150.5 39.5q27 5 76 14t75.5 14t66.5 15t62.5 19.5t49.5 26t41 35.5t23.5 46.5t9.5 60.5
q0 100 -70.5 166t-191.5 66q-119 0 -215 -67.5t-152 -180.5l-102 39q49 102 132.5 173t175 102.5t187.5 31.5q60 0 114.5 -13t104 -40.5t81.5 -71.5t46.5 -105.5t-0.5 -142.5l-78 -436q-20 -113 -25.5 -186t1.5 -166h-113q-5 71 1.5 132.5t35.5 141.5h-22
q-175 -309 -486 -309zM377 59q76 0 149 26.5t128.5 69.5t100.5 95.5t72 106t35 100.5l31 184q-57 -56 -109.5 -76t-187.5 -45l-70 -14t-77.5 -19.5t-83 -28.5t-75.5 -38t-66 -49.5t-43 -63t-17 -78.5q0 -81 57 -125.5t156 -44.5z" />
    <glyph glyph-name="atilde" unicode="&#xe3;" horiz-adv-x="1169" 
d="M885 1337q-16 0 -30 1.5t-27.5 7.5t-21 9t-20.5 13.5t-16.5 13.5t-18 17t-16.5 16l-33 33q-3 3 -12.5 12t-14 13t-13.5 10.5t-15.5 9.5t-16.5 5.5t-20 2.5q-50 0 -87.5 -41.5t-49.5 -107.5h-88q22 106 90 171.5t156 65.5q43 0 73 -17.5t62 -51.5l37 -37q53 -58 104 -58
q49 0 84.5 42t46.5 108h88q-21 -108 -85 -173t-156 -65zM350 -35q-137 0 -222 61t-85 185q0 64 25 119.5t68 97t104.5 75.5t131 57.5t150.5 39.5q27 5 76 14t75.5 14t66.5 15t62.5 19.5t49.5 26t41 35.5t23.5 46.5t9.5 60.5q0 100 -70.5 166t-191.5 66q-119 0 -215 -67.5
t-152 -180.5l-102 39q49 102 132.5 173t175 102.5t187.5 31.5q60 0 114.5 -13t104 -40.5t81.5 -71.5t46.5 -105.5t-0.5 -142.5l-78 -436q-20 -113 -25.5 -186t1.5 -166h-113q-5 71 1.5 132.5t35.5 141.5h-22q-175 -309 -486 -309zM377 59q76 0 149 26.5t128.5 69.5
t100.5 95.5t72 106t35 100.5l31 184q-57 -56 -109.5 -76t-187.5 -45l-70 -14t-77.5 -19.5t-83 -28.5t-75.5 -38t-66 -49.5t-43 -63t-17 -78.5q0 -81 57 -125.5t156 -44.5z" />
    <glyph glyph-name="adieresis" unicode="&#xe4;" horiz-adv-x="1169" 
d="M567 1382q-35 0 -57.5 23.5t-22.5 58.5q0 44 35 77.5t78 33.5q36 0 58 -22t22 -54q0 -46 -34.5 -81.5t-78.5 -35.5zM913 1382q-37 0 -59.5 22.5t-22.5 57.5q0 46 34.5 79.5t80.5 33.5q33 0 55.5 -22.5t22.5 -55.5q0 -44 -34 -79.5t-77 -35.5zM350 -35q-137 0 -222 61
t-85 185q0 64 25 119.5t68 97t104.5 75.5t131 57.5t150.5 39.5q27 5 76 14t75.5 14t66.5 15t62.5 19.5t49.5 26t41 35.5t23.5 46.5t9.5 60.5q0 100 -70.5 166t-191.5 66q-119 0 -215 -67.5t-152 -180.5l-102 39q49 102 132.5 173t175 102.5t187.5 31.5q60 0 114.5 -13
t104 -40.5t81.5 -71.5t46.5 -105.5t-0.5 -142.5l-78 -436q-20 -113 -25.5 -186t1.5 -166h-113q-5 71 1.5 132.5t35.5 141.5h-22q-175 -309 -486 -309zM377 59q76 0 149 26.5t128.5 69.5t100.5 95.5t72 106t35 100.5l31 184q-57 -56 -109.5 -76t-187.5 -45l-70 -14
t-77.5 -19.5t-83 -28.5t-75.5 -38t-66 -49.5t-43 -63t-17 -78.5q0 -81 57 -125.5t156 -44.5z" />
    <glyph glyph-name="aring" unicode="&#xe5;" horiz-adv-x="1169" 
d="M717 1245q-83 0 -135 49.5t-52 128.5q0 101 77.5 176.5t185.5 75.5q83 0 134.5 -49t51.5 -129q0 -100 -77.5 -176t-184.5 -76zM731 1329q68 0 116 47t48 113q0 46 -33 74t-84 28q-69 0 -116.5 -45.5t-47.5 -111.5q0 -49 32.5 -77t84.5 -28zM350 -35q-137 0 -222 61
t-85 185q0 64 25 119.5t68 97t104.5 75.5t131 57.5t150.5 39.5q27 5 76 14t75.5 14t66.5 15t62.5 19.5t49.5 26t41 35.5t23.5 46.5t9.5 60.5q0 100 -70.5 166t-191.5 66q-119 0 -215 -67.5t-152 -180.5l-102 39q49 102 132.5 173t175 102.5t187.5 31.5q60 0 114.5 -13
t104 -40.5t81.5 -71.5t46.5 -105.5t-0.5 -142.5l-78 -436q-20 -113 -25.5 -186t1.5 -166h-113q-5 71 1.5 132.5t35.5 141.5h-22q-175 -309 -486 -309zM377 59q76 0 149 26.5t128.5 69.5t100.5 95.5t72 106t35 100.5l31 184q-57 -56 -109.5 -76t-187.5 -45l-70 -14
t-77.5 -19.5t-83 -28.5t-75.5 -38t-66 -49.5t-43 -63t-17 -78.5q0 -81 57 -125.5t156 -44.5z" />
    <glyph glyph-name="ae" unicode="&#xe6;" horiz-adv-x="2045" 
d="M342 -35q-139 0 -220 61.5t-81 182.5q0 80 37.5 146t105 113t151.5 79.5t187 52.5q24 5 66.5 12t67 12t61 12.5t58 16t49 20.5t43.5 26.5t31 34t21.5 45t6.5 55.5q0 104 -74.5 166.5t-189.5 62.5q-118 0 -214.5 -67.5t-150.5 -180.5l-102 39q49 102 132.5 173
t174.5 102.5t186 31.5q62 0 118 -14.5t105.5 -45t82.5 -85t40 -127.5q94 133 225 202.5t279 69.5q35 0 69.5 -4t72 -14t72 -25t67 -39t58.5 -55t46 -73.5t30 -93t9.5 -115.5t-14.5 -140l-9 -47h-944q-36 -218 63 -353.5t290 -135.5q153 0 276 85.5t201 221.5l96 -35
q-97 -178 -255.5 -275.5t-340.5 -97.5q-114 0 -203.5 37t-148 119.5t-66.5 202.5h-22q-76 -159 -221 -259t-322 -100zM1020 649h817q16 92 2.5 161.5t-42.5 117.5t-76 78t-98 43.5t-107 13.5q-169 0 -303 -112.5t-193 -301.5zM377 57q88 0 175.5 40.5t150.5 101.5t106 129.5
t53 128.5l31 184q-51 -51 -115 -76t-178 -43q-28 -4 -55.5 -9t-73.5 -17t-85 -26t-82 -37.5t-73 -50.5t-49.5 -66t-19.5 -83q0 -83 59.5 -129.5t155.5 -46.5z" />
    <glyph glyph-name="ccedilla" unicode="&#xe7;" horiz-adv-x="1236" 
d="M573 66q153 0 277 85.5t203 223.5l94 -33q-95 -179 -247 -275t-327 -102q-60 -69 -129 -127l7 -6q52 21 100 21q72 0 114 -36t42 -96q0 -84 -73 -146t-179 -62q-69 0 -131.5 29t-98.5 79l60 49q26 -40 74 -65t100 -25q67 0 114.5 37t47.5 90q0 38 -31 62t-80 24
q-56 0 -100 -26l-43 49l125 151q-190 19 -298 144.5t-108 328.5q0 110 32 217t93 197.5t142.5 159.5t187 108t219.5 39q73 0 138.5 -16.5t124.5 -52t102 -98.5t61 -148l-117 -41q-25 121 -112 188.5t-218 67.5q-113 0 -213.5 -52t-169.5 -136.5t-109 -194t-40 -223.5
q0 -180 98 -284.5t268 -104.5z" />
    <glyph glyph-name="egrave" unicode="&#xe8;" horiz-adv-x="1261" 
d="M817 1278h-100l-242 393h162zM541 -35q-207 0 -331 127.5t-124 345.5q0 138 51.5 269.5t139 231.5t213 161t264.5 61q39 0 77 -5t81 -17t78.5 -32.5t71 -51.5t58.5 -73t40 -97.5t16 -125.5t-13 -157l-8 -49h-942q-35 -216 62 -353t290 -137q152 0 274.5 86.5t200.5 223.5
l95 -35q-94 -177 -252.5 -275t-341.5 -98zM236 649h817q17 92 4 161t-42.5 117.5t-77 78.5t-99 43.5t-107.5 13.5q-169 0 -303 -114t-192 -300z" />
    <glyph glyph-name="eacute" unicode="&#xe9;" horiz-adv-x="1261" 
d="M1186 1671l-381 -393h-98l319 393h160zM541 -35q-207 0 -331 127.5t-124 345.5q0 138 51.5 269.5t139 231.5t213 161t264.5 61q39 0 77 -5t81 -17t78.5 -32.5t71 -51.5t58.5 -73t40 -97.5t16 -125.5t-13 -157l-8 -49h-942q-35 -216 62 -353t290 -137q152 0 274.5 86.5
t200.5 223.5l95 -35q-94 -177 -252.5 -275t-341.5 -98zM236 649h817q17 92 4 161t-42.5 117.5t-77 78.5t-99 43.5t-107.5 13.5q-169 0 -303 -114t-192 -300z" />
    <glyph glyph-name="ecircumflex" unicode="&#xea;" horiz-adv-x="1261" 
d="M489 1278h-106l360 356h160l234 -356h-107q-146 178 -194 285h-45q-101 -126 -302 -285zM541 -35q-207 0 -331 127.5t-124 345.5q0 138 51.5 269.5t139 231.5t213 161t264.5 61q39 0 77 -5t81 -17t78.5 -32.5t71 -51.5t58.5 -73t40 -97.5t16 -125.5t-13 -157l-8 -49h-942
q-35 -216 62 -353t290 -137q152 0 274.5 86.5t200.5 223.5l95 -35q-94 -177 -252.5 -275t-341.5 -98zM236 649h817q17 92 4 161t-42.5 117.5t-77 78.5t-99 43.5t-107.5 13.5q-169 0 -303 -114t-192 -300z" />
    <glyph glyph-name="edieresis" unicode="&#xeb;" horiz-adv-x="1261" 
d="M608 1382q-35 0 -57.5 23.5t-22.5 58.5q0 44 35 77.5t78 33.5q36 0 58 -22t22 -54q0 -46 -34.5 -81.5t-78.5 -35.5zM954 1382q-37 0 -59.5 22.5t-22.5 57.5q0 46 34.5 79.5t80.5 33.5q33 0 55.5 -22.5t22.5 -55.5q0 -44 -34 -79.5t-77 -35.5zM541 -35q-207 0 -331 127.5
t-124 345.5q0 138 51.5 269.5t139 231.5t213 161t264.5 61q39 0 77 -5t81 -17t78.5 -32.5t71 -51.5t58.5 -73t40 -97.5t16 -125.5t-13 -157l-8 -49h-942q-35 -216 62 -353t290 -137q152 0 274.5 86.5t200.5 223.5l95 -35q-94 -177 -252.5 -275t-341.5 -98zM236 649h817
q17 92 4 161t-42.5 117.5t-77 78.5t-99 43.5t-107.5 13.5q-169 0 -303 -114t-192 -300z" />
    <glyph glyph-name="igrave" unicode="&#xec;" horiz-adv-x="491" 
d="M428 1276h-100l-242 393h162zM203 0h-111l199 1128h110z" />
    <glyph glyph-name="iacute" unicode="&#xed;" horiz-adv-x="491" 
d="M795 1669l-381 -393h-99l320 393h160zM203 0h-111l199 1128h110z" />
    <glyph glyph-name="icircumflex" unicode="&#xee;" horiz-adv-x="491" 
d="M100 1276h-106l360 356h160l234 -356h-107q-48 59 -74.5 93t-62.5 89t-58 103h-45q-103 -128 -301 -285zM203 0h-111l199 1128h110z" />
    <glyph glyph-name="idieresis" unicode="&#xef;" horiz-adv-x="491" 
d="M219 1380q-35 0 -57.5 23.5t-22.5 58.5q0 44 35 77.5t78 33.5q36 0 58 -22t22 -54q0 -46 -34.5 -81.5t-78.5 -35.5zM565 1380q-37 0 -59.5 22.5t-22.5 57.5q0 46 34.5 79.5t80.5 33.5q33 0 55.5 -22.5t22.5 -55.5q0 -44 -34 -79.5t-77 -35.5zM203 0h-111l199 1128h110z
" />
    <glyph glyph-name="eth" unicode="&#xf0;" horiz-adv-x="1314" 
d="M1198 1579l-229 -119q266 -225 266 -610q0 -135 -30 -265t-89.5 -241.5t-141.5 -196.5t-192.5 -133.5t-236.5 -48.5q-212 0 -338.5 129t-126.5 336q0 130 52.5 255t140 219.5t210 152t254.5 57.5t222.5 -61.5t160.5 -204.5h23q-28 187 -97 320t-194 231l-342 -178l-27 69
l299 158q-110 71 -278 133l47 98q209 -68 352 -168l264 138zM559 66q108 0 206 48t167 127t110 183.5t41 214.5q0 173 -98.5 275t-257.5 102q-140 0 -261.5 -80.5t-192 -212t-70.5 -277.5q0 -167 95.5 -273.5t260.5 -106.5z" />
    <glyph glyph-name="ntilde" unicode="&#xf1;" horiz-adv-x="1294" 
d="M932 1337q-16 0 -30 1.5t-27.5 7.5t-21 9t-20.5 13.5t-16.5 13.5t-18 17t-16.5 16l-32 33q-2 2 -12.5 12t-14.5 13t-13.5 10.5t-16 10t-16.5 5t-20 2.5q-50 0 -87.5 -41.5t-49.5 -107.5h-88q22 106 90 171.5t156 65.5q43 0 73 -17.5t62 -51.5l37 -37q53 -58 104 -58
q49 0 84.5 42t46.5 108h89q-21 -108 -85.5 -173t-156.5 -65zM203 0h-111l199 1128h106q-26 -151 -71 -249h22q184 282 467 282q53 0 100 -10t91 -32t75 -57t53 -85.5t25 -117.5t-10 -152l-125 -707h-113l117 657q17 115 5.5 192.5t-53.5 124.5t-94.5 67t-117.5 20
q-89 0 -169.5 -38t-137.5 -99.5t-95.5 -135t-52.5 -149.5z" />
    <glyph glyph-name="ograve" unicode="&#xf2;" horiz-adv-x="1314" 
d="M840 1278h-101l-241 393h161zM553 -35q-216 0 -341.5 129t-125.5 348q0 137 51 267t139 230t216 161t272 61q215 0 341 -129.5t126 -349.5q0 -136 -51 -266t-139 -229.5t-216 -160.5t-272 -61zM569 66q115 0 217.5 51.5t172.5 136t110.5 193.5t40.5 223q0 179 -97 285
t-265 106q-152 0 -278 -87.5t-194.5 -225.5t-68.5 -291q0 -180 97.5 -285.5t264.5 -105.5z" />
    <glyph glyph-name="oacute" unicode="&#xf3;" horiz-adv-x="1314" 
d="M1208 1671l-381 -393h-98l320 393h159zM553 -35q-216 0 -341.5 129t-125.5 348q0 137 51 267t139 230t216 161t272 61q215 0 341 -129.5t126 -349.5q0 -136 -51 -266t-139 -229.5t-216 -160.5t-272 -61zM569 66q115 0 217.5 51.5t172.5 136t110.5 193.5t40.5 223
q0 179 -97 285t-265 106q-152 0 -278 -87.5t-194.5 -225.5t-68.5 -291q0 -180 97.5 -285.5t264.5 -105.5z" />
    <glyph glyph-name="ocircumflex" unicode="&#xf4;" horiz-adv-x="1314" 
d="M512 1278h-106l360 356h160l233 -356h-106q-48 59 -74.5 93t-62.5 89t-58 103h-45q-103 -128 -301 -285zM553 -35q-216 0 -341.5 129t-125.5 348q0 137 51 267t139 230t216 161t272 61q215 0 341 -129.5t126 -349.5q0 -136 -51 -266t-139 -229.5t-216 -160.5t-272 -61z
M569 66q115 0 217.5 51.5t172.5 136t110.5 193.5t40.5 223q0 179 -97 285t-265 106q-152 0 -278 -87.5t-194.5 -225.5t-68.5 -291q0 -180 97.5 -285.5t264.5 -105.5z" />
    <glyph glyph-name="otilde" unicode="&#xf5;" horiz-adv-x="1314" 
d="M946 1337q-16 0 -30 2t-27 7t-21 9t-20 13.5t-16.5 13.5t-17.5 17t-17 16l-33 33q-3 3 -12.5 12t-14 13t-13.5 10.5t-15.5 9.5t-16.5 5.5t-20 2.5q-50 0 -87.5 -41.5t-49.5 -107.5h-89q22 106 90 171.5t156 65.5q43 0 73 -17.5t62 -51.5l37 -37q53 -58 105 -58
q49 0 84.5 42t46.5 108h88q-21 -108 -85.5 -173t-156.5 -65zM553 -35q-216 0 -341.5 129t-125.5 348q0 137 51 267t139 230t216 161t272 61q215 0 341 -129.5t126 -349.5q0 -136 -51 -266t-139 -229.5t-216 -160.5t-272 -61zM569 66q115 0 217.5 51.5t172.5 136t110.5 193.5
t40.5 223q0 179 -97 285t-265 106q-152 0 -278 -87.5t-194.5 -225.5t-68.5 -291q0 -180 97.5 -285.5t264.5 -105.5z" />
    <glyph glyph-name="odieresis" unicode="&#xf6;" horiz-adv-x="1314" 
d="M631 1382q-35 0 -57.5 23.5t-22.5 58.5q0 44 35 77.5t78 33.5q36 0 57.5 -22t21.5 -54q0 -46 -34 -81.5t-78 -35.5zM977 1382q-37 0 -59.5 22.5t-22.5 57.5q0 46 34.5 79.5t80.5 33.5q33 0 55 -22.5t22 -55.5q0 -44 -33.5 -79.5t-76.5 -35.5zM553 -35q-216 0 -341.5 129
t-125.5 348q0 137 51 267t139 230t216 161t272 61q215 0 341 -129.5t126 -349.5q0 -136 -51 -266t-139 -229.5t-216 -160.5t-272 -61zM569 66q115 0 217.5 51.5t172.5 136t110.5 193.5t40.5 223q0 179 -97 285t-265 106q-152 0 -278 -87.5t-194.5 -225.5t-68.5 -291
q0 -180 97.5 -285.5t264.5 -105.5z" />
    <glyph glyph-name="divide" unicode="&#xf7;" horiz-adv-x="1021" 
d="M561 821q-35 0 -58.5 24.5t-23.5 59.5q0 45 36 80t83 35q35 0 58.5 -23t23.5 -57q0 -45 -36 -82t-83 -37zM870 571h-714l18 107h715zM459 227q-38 0 -61 24t-23 60q0 46 36.5 81.5t82.5 35.5q35 0 58 -23.5t23 -58.5q0 -45 -36 -82t-80 -37z" />
    <glyph glyph-name="oslash" unicode="&#xf8;" horiz-adv-x="1314" 
d="M1169 1180h115l-158 -172q105 -127 105 -326q0 -136 -51 -266t-139 -229.5t-216 -160.5t-272 -61q-174 0 -297 90l-100 -110h-121l158 172q-107 122 -107 325q0 137 51 267t139 230t216 161t272 61q181 0 301 -94zM207 457q0 -149 69 -250l711 774q-96 80 -239 80
q-152 0 -278 -87.5t-194.5 -225.5t-68.5 -291zM1110 670q0 150 -68 245l-706 -774q90 -75 233 -75q115 0 217.5 51.5t172.5 136t110.5 193.5t40.5 223z" />
    <glyph glyph-name="ugrave" unicode="&#xf9;" horiz-adv-x="1275" 
d="M799 1278h-101l-241 393h161zM473 -35q-50 0 -95 9.5t-88.5 31t-74.5 56.5t-53.5 85.5t-25 118t10.5 154.5l125 708h111l-115 -661q-12 -79 -11 -139t18.5 -105t41.5 -75t58 -48t68.5 -26t72.5 -8q88 0 166.5 38t133.5 99.5t92 134.5t50 147l115 643h111l-137 -776
q-38 -213 -25 -352h-113q-7 59 -0.5 125t33.5 141h-20q-173 -301 -449 -301z" />
    <glyph glyph-name="uacute" unicode="&#xfa;" horiz-adv-x="1275" 
d="M1165 1671l-381 -393h-98l320 393h159zM473 -35q-50 0 -95 9.5t-88.5 31t-74.5 56.5t-53.5 85.5t-25 118t10.5 154.5l125 708h111l-115 -661q-12 -79 -11 -139t18.5 -105t41.5 -75t58 -48t68.5 -26t72.5 -8q88 0 166.5 38t133.5 99.5t92 134.5t50 147l115 643h111
l-137 -776q-38 -213 -25 -352h-113q-7 59 -0.5 125t33.5 141h-20q-173 -301 -449 -301z" />
    <glyph glyph-name="ucircumflex" unicode="&#xfb;" horiz-adv-x="1275" 
d="M471 1278h-106l360 356h160l233 -356h-106q-48 59 -74.5 93t-62.5 89t-58 103h-45q-103 -128 -301 -285zM473 -35q-50 0 -95 9.5t-88.5 31t-74.5 56.5t-53.5 85.5t-25 118t10.5 154.5l125 708h111l-115 -661q-12 -79 -11 -139t18.5 -105t41.5 -75t58 -48t68.5 -26
t72.5 -8q88 0 166.5 38t133.5 99.5t92 134.5t50 147l115 643h111l-137 -776q-38 -213 -25 -352h-113q-7 59 -0.5 125t33.5 141h-20q-173 -301 -449 -301z" />
    <glyph glyph-name="udieresis" unicode="&#xfc;" horiz-adv-x="1275" 
d="M588 1382q-35 0 -57.5 23.5t-22.5 58.5q0 44 35 77.5t78 33.5q36 0 57.5 -22t21.5 -54q0 -46 -34 -81.5t-78 -35.5zM934 1382q-37 0 -59.5 22.5t-22.5 57.5q0 46 34.5 79.5t80.5 33.5q33 0 55 -22.5t22 -55.5q0 -44 -33.5 -79.5t-76.5 -35.5zM473 -35q-50 0 -95 9.5
t-88.5 31t-74.5 56.5t-53.5 85.5t-25 118t10.5 154.5l125 708h111l-115 -661q-12 -79 -11 -139t18.5 -105t41.5 -75t58 -48t68.5 -26t72.5 -8q88 0 166.5 38t133.5 99.5t92 134.5t50 147l115 643h111l-137 -776q-38 -213 -25 -352h-113q-7 59 -0.5 125t33.5 141h-20
q-173 -301 -449 -301z" />
    <glyph glyph-name="yacute" unicode="&#xfd;" horiz-adv-x="1095" 
d="M1085 1671l-380 -393h-99l320 393h159zM242 -451h-99l250 441l-258 1138h121q134 -589 201 -1038h20q245 485 563 1038h121z" />
    <glyph glyph-name="thorn" unicode="&#xfe;" horiz-adv-x="1368" 
d="M123 -451h-111l369 2089h111q-6 -35 -24 -136.5t-28.5 -159t-28 -147.5t-36 -173t-39.5 -164h22q96 154 225 228.5t271 74.5q193 0 311.5 -129t118.5 -344q0 -138 -51 -270t-136.5 -231.5t-205.5 -160.5t-250 -61q-142 0 -245.5 74.5t-143.5 220.5h-21
q-24 -244 -108 -711zM645 66q139 0 259 86.5t188.5 225.5t68.5 292q0 177 -92.5 284t-247.5 107q-105 0 -203.5 -51t-169.5 -134t-114 -192.5t-43 -222.5q0 -178 99 -286.5t255 -108.5z" />
    <glyph glyph-name="ydieresis" unicode="&#xff;" horiz-adv-x="1095" 
d="M508 1382q-35 0 -57.5 23.5t-22.5 58.5q0 44 35 77.5t78 33.5q36 0 58 -22t22 -54q0 -46 -34.5 -81.5t-78.5 -35.5zM854 1382q-37 0 -59.5 22.5t-22.5 57.5q0 46 34.5 79.5t80.5 33.5q33 0 55.5 -22.5t22.5 -55.5q0 -44 -34 -79.5t-77 -35.5zM242 -451h-99l250 441
l-258 1138h121q134 -589 201 -1038h20q245 485 563 1038h121z" />
    <glyph glyph-name="Amacron" unicode="&#x100;" horiz-adv-x="1497" 
d="M1305 1839h-658l19 100h657zM59 0h-127l938 1597h125l373 -1597h-127q-91 380 -111 588l-16 18q-244 -22 -350 -22q-149 0 -356 22l-23 -20q-132 -255 -326 -586zM442 690l11 -20q234 20 333 20q113 0 293 -20l15 18q-119 443 -162 787h-43q-180 -369 -447 -785z" />
    <glyph glyph-name="amacron" unicode="&#x101;" horiz-adv-x="1169" 
d="M1094 1430h-688l18 98h688zM350 -35q-137 0 -222 61t-85 185q0 64 25 119.5t68 97t104.5 75.5t131 57.5t150.5 39.5q27 5 76 14t75.5 14t66.5 15t62.5 19.5t49.5 26t41 35.5t23.5 46.5t9.5 60.5q0 100 -70.5 166t-191.5 66q-119 0 -215 -67.5t-152 -180.5l-102 39
q49 102 132.5 173t175 102.5t187.5 31.5q60 0 114.5 -13t104 -40.5t81.5 -71.5t46.5 -105.5t-0.5 -142.5l-78 -436q-20 -113 -25.5 -186t1.5 -166h-113q-5 71 1.5 132.5t35.5 141.5h-22q-175 -309 -486 -309zM377 59q76 0 149 26.5t128.5 69.5t100.5 95.5t72 106t35 100.5
l31 184q-57 -56 -109.5 -76t-187.5 -45l-70 -14t-77.5 -19.5t-83 -28.5t-75.5 -38t-66 -49.5t-43 -63t-17 -78.5q0 -81 57 -125.5t156 -44.5z" />
    <glyph glyph-name="Abreve" unicode="&#x102;" horiz-adv-x="1497" 
d="M954 1726q-83 0 -149 29.5t-103.5 76.5t-54.5 102.5t-10 111.5h104q-9 -87 56 -155t174 -68q108 0 197 68t112 155h104q-13 -56 -49.5 -111.5t-90.5 -102.5t-130 -76.5t-160 -29.5zM59 0h-127l938 1597h125l373 -1597h-127q-91 380 -111 588l-16 18q-244 -22 -350 -22
q-149 0 -356 22l-23 -20q-132 -255 -326 -586zM442 690l11 -20q234 20 333 20q113 0 293 -20l15 18q-119 443 -162 787h-43q-180 -369 -447 -785z" />
    <glyph glyph-name="abreve" unicode="&#x103;" horiz-adv-x="1169" 
d="M721 1278q-113 0 -188 52.5t-102.5 141t-10.5 201.5h102q-20 -137 41 -218t176 -81q114 0 203 80.5t119 218.5h104q-38 -174 -156.5 -284.5t-287.5 -110.5zM350 -35q-137 0 -222 61t-85 185q0 64 25 119.5t68 97t104.5 75.5t131 57.5t150.5 39.5q27 5 76 14t75.5 14
t66.5 15t62.5 19.5t49.5 26t41 35.5t23.5 46.5t9.5 60.5q0 100 -70.5 166t-191.5 66q-119 0 -215 -67.5t-152 -180.5l-102 39q49 102 132.5 173t175 102.5t187.5 31.5q60 0 114.5 -13t104 -40.5t81.5 -71.5t46.5 -105.5t-0.5 -142.5l-78 -436q-20 -113 -25.5 -186t1.5 -166
h-113q-5 71 1.5 132.5t35.5 141.5h-22q-175 -309 -486 -309zM377 59q76 0 149 26.5t128.5 69.5t100.5 95.5t72 106t35 100.5l31 184q-57 -56 -109.5 -76t-187.5 -45l-70 -14t-77.5 -19.5t-83 -28.5t-75.5 -38t-66 -49.5t-43 -63t-17 -78.5q0 -81 57 -125.5t156 -44.5z" />
    <glyph glyph-name="Aogonek" unicode="&#x104;" horiz-adv-x="1497" 
d="M1294 -379q40 0 92 14l-16 -84q-57 -14 -98 -14q-101 0 -165.5 50.5t-64.5 140.5q0 160 205 272h-6q-91 380 -111 588l-16 18q-244 -22 -350 -22q-149 0 -356 22l-23 -20q-132 -255 -326 -586h-127l938 1597h125l373 -1597h-12q-219 -105 -219 -248q0 -60 44 -95.5
t113 -35.5zM1079 670l15 18q-119 443 -162 787h-43q-180 -369 -447 -785l11 -20q234 20 333 20q113 0 293 -20z" />
    <glyph glyph-name="aogonek" unicode="&#x105;" horiz-adv-x="1169" 
d="M690 1161q60 0 114.5 -13t104 -40.5t81.5 -71.5t46.5 -105.5t-0.5 -142.5l-78 -436q-20 -113 -25.5 -186t1.5 -166h-10q-92 -44 -153.5 -106t-61.5 -142q0 -60 43.5 -95.5t111.5 -35.5q40 0 90 14l-16 -84q-55 -14 -98 -14q-102 0 -165 51t-63 140q0 160 209 272
q-5 71 1.5 132.5t35.5 141.5h-22q-175 -309 -486 -309q-137 0 -222 61t-85 185q0 64 25 119.5t68 97t104.5 75.5t131 57.5t150.5 39.5q27 5 76 14t75.5 14t66.5 15t62.5 19.5t49.5 26t41 35.5t23.5 46.5t9.5 60.5q0 100 -70.5 166t-191.5 66q-119 0 -215 -67.5t-152 -180.5
l-102 39q49 102 132.5 173t175 102.5t187.5 31.5zM377 59q76 0 149 26.5t128.5 69.5t100.5 95.5t72 106t35 100.5l31 184q-57 -56 -109.5 -76t-187.5 -45l-70 -14t-77.5 -19.5t-83 -28.5t-75.5 -38t-66 -49.5t-43 -63t-17 -78.5q0 -81 57 -125.5t156 -44.5z" />
    <glyph glyph-name="Cacute" unicode="&#x106;" horiz-adv-x="1722" 
d="M1493 2038l-397 -318h-103l322 318h178zM811 -35q-310 0 -492 180.5t-182 483.5q0 192 76 374.5t203.5 320.5t306.5 222t373 84q111 0 212 -28t186 -83t143 -145t75 -205l-113 -43q-40 187 -183.5 290.5t-340.5 103.5q-133 0 -258 -48t-223.5 -132.5t-173 -194
t-114.5 -239t-40 -261.5q0 -141 47 -252t128.5 -179t184 -103t220.5 -35q129 0 245.5 41t206 112t157.5 158t114 188l96 -38q-57 -119 -138 -219.5t-186.5 -181t-241.5 -126t-288 -45.5z" />
    <glyph glyph-name="cacute" unicode="&#x107;" horiz-adv-x="1236" 
d="M1171 1671l-380 -393h-99l320 393h159zM549 -35q-214 0 -338.5 127.5t-124.5 347.5q0 110 32 217t93 197.5t142.5 159.5t187 108t219.5 39q73 0 138.5 -16.5t124.5 -52t102 -98.5t61 -148l-117 -41q-25 121 -112 188.5t-218 67.5q-113 0 -213.5 -52t-169.5 -136.5
t-109 -194t-40 -223.5q0 -180 98 -284.5t268 -104.5q153 0 277 85.5t203 223.5l94 -33q-98 -185 -257.5 -281t-340.5 -96z" />
    <glyph glyph-name="Cdotaccent" unicode="&#x10a;" horiz-adv-x="1722" 
d="M1083 1790q-38 0 -62 24.5t-24 61.5q0 48 37 84.5t86 36.5q38 0 62 -24t24 -60q0 -47 -38 -85t-85 -38zM811 -35q-310 0 -492 180.5t-182 483.5q0 192 76 374.5t203.5 320.5t306.5 222t373 84q111 0 212 -28t186 -83t143 -145t75 -205l-113 -43q-40 187 -183.5 290.5
t-340.5 103.5q-133 0 -258 -48t-223.5 -132.5t-173 -194t-114.5 -239t-40 -261.5q0 -141 47 -252t128.5 -179t184 -103t220.5 -35q129 0 245.5 41t206 112t157.5 158t114 188l96 -38q-57 -119 -138 -219.5t-186.5 -181t-241.5 -126t-288 -45.5z" />
    <glyph glyph-name="cdotaccent" unicode="&#x10b;" horiz-adv-x="1236" 
d="M778 1436q-38 0 -62 24t-24 62q0 47 37 83.5t86 36.5q38 0 62 -23.5t24 -59.5q0 -47 -38 -85t-85 -38zM549 -35q-214 0 -338.5 127.5t-124.5 347.5q0 110 32 217t93 197.5t142.5 159.5t187 108t219.5 39q73 0 138.5 -16.5t124.5 -52t102 -98.5t61 -148l-117 -41
q-25 121 -112 188.5t-218 67.5q-113 0 -213.5 -52t-169.5 -136.5t-109 -194t-40 -223.5q0 -180 98 -284.5t268 -104.5q153 0 277 85.5t203 223.5l94 -33q-98 -185 -257.5 -281t-340.5 -96z" />
    <glyph glyph-name="Ccaron" unicode="&#x10c;" horiz-adv-x="1722" 
d="M1147 1720h-154l-213 297h105q3 -3 18 -20t19.5 -21.5t18 -20.5t19 -22.5t17.5 -22t18.5 -25t16.5 -24.5t17 -27t15 -27.5t15 -30.5h43q39 48 88.5 96t78.5 71.5t91 73.5h104zM811 -35q-310 0 -492 180.5t-182 483.5q0 192 76 374.5t203.5 320.5t306.5 222t373 84
q111 0 212 -28t186 -83t143 -145t75 -205l-113 -43q-40 187 -183.5 290.5t-340.5 103.5q-133 0 -258 -48t-223.5 -132.5t-173 -194t-114.5 -239t-40 -261.5q0 -141 47 -252t128.5 -179t184 -103t220.5 -35q129 0 245.5 41t206 112t157.5 158t114 188l96 -38
q-57 -119 -138 -219.5t-186.5 -181t-241.5 -126t-288 -45.5z" />
    <glyph glyph-name="ccaron" unicode="&#x10d;" horiz-adv-x="1236" 
d="M827 1280h-159l-232 356h105q51 -61 79 -96t62.5 -87t60.5 -103h37q58 74 126.5 137t174.5 149h107zM549 -35q-214 0 -338.5 127.5t-124.5 347.5q0 110 32 217t93 197.5t142.5 159.5t187 108t219.5 39q73 0 138.5 -16.5t124.5 -52t102 -98.5t61 -148l-117 -41
q-25 121 -112 188.5t-218 67.5q-113 0 -213.5 -52t-169.5 -136.5t-109 -194t-40 -223.5q0 -180 98 -284.5t268 -104.5q153 0 277 85.5t203 223.5l94 -33q-98 -185 -257.5 -281t-340.5 -96z" />
    <glyph glyph-name="Dcaron" unicode="&#x10e;" horiz-adv-x="1652" 
d="M1049 1720h-154l-213 297h104q3 -3 22.5 -25t24.5 -27.5t22 -25.5t24 -29.5t21.5 -29t22.5 -33.5t18.5 -33t19.5 -38h43q39 48 88.5 96t78.5 71.5t91 73.5h104zM696 0h-571l283 1597h553q165 0 288 -44t198 -126.5t111.5 -193t36.5 -250.5q0 -150 -41 -294.5t-120 -268.5
t-186.5 -218.5t-250 -148t-301.5 -53.5zM242 106l14 -20q176 20 469 20q133 0 251.5 46.5t207.5 127.5t154 188t98.5 231t33.5 253q0 261 -140 400t-410 139q-267 0 -412 20l-23 -18q-86 -695 -243 -1387z" />
    <glyph glyph-name="dcaron" unicode="&#x10f;" horiz-adv-x="1372" 
d="M516 -35q-194 0 -312 128.5t-118 344.5q0 137 51 269t136.5 232t205.5 161t250 61q142 0 243.5 -77.5t141.5 -239.5h23q35 324 123 794h110l-227 -1286q-23 -129 -28 -210.5t3 -141.5h-112q-8 61 -1.5 129.5t35.5 155.5h-20q-95 -161 -226.5 -240.5t-277.5 -79.5z
M1550 1194h-75q49 77 93.5 134.5t104.5 113.5q-86 16 -86 80q0 45 36.5 80.5t86.5 35.5q35 0 58.5 -23.5t23.5 -58.5q0 -38 -41 -99.5t-201 -262.5zM549 66q140 0 263 85.5t195 224.5t72 292q0 178 -100 285.5t-256 107.5q-139 0 -259 -87t-188.5 -226.5t-68.5 -292.5
q0 -175 93.5 -282t248.5 -107z" />
    <glyph glyph-name="Dcroat" unicode="&#x110;" horiz-adv-x="1652" 
d="M408 1597h553q165 0 288 -44t198 -126.5t111.5 -193t36.5 -250.5q0 -150 -41 -294.5t-120 -268.5t-186.5 -218.5t-250 -148t-301.5 -53.5h-571l133 750h-168l19 96h165zM725 106q133 0 251.5 46.5t207.5 127.5t154 188t98.5 231t33.5 253q0 261 -140 400t-410 139
q-267 0 -412 20l-23 -18q-41 -330 -96 -647h572l-19 -96h-569q-64 -352 -131 -644l14 -20q176 20 469 20z" />
    <glyph glyph-name="dcroat" unicode="&#x111;" horiz-adv-x="1372" 
d="M1335 1436h262l-16 -95h-264l-174 -989q-23 -129 -28 -210.5t3 -141.5h-112q-8 61 -1.5 129.5t35.5 155.5h-20q-95 -161 -226.5 -240.5t-277.5 -79.5q-194 0 -312 128.5t-118 344.5q0 137 51 269t136.5 232t205.5 161t250 61q142 0 243.5 -77.5t141.5 -239.5h23
q30 275 69 497h-293l17 95h293l37 202h110zM549 66q140 0 263 85.5t195 224.5t72 292q0 178 -100 285.5t-256 107.5q-139 0 -259 -87t-188.5 -226.5t-68.5 -292.5q0 -175 93.5 -282t248.5 -107z" />
    <glyph glyph-name="Emacron" unicode="&#x112;" horiz-adv-x="1347" 
d="M1245 1839h-657l18 100h658zM1145 0h-1020l283 1597h999l-21 -106q-53 0 -206.5 -1t-231.5 -0.5t-204.5 5.5t-235.5 16l-23 -18q-24 -309 -106 -616l12 -23q307 23 846 23l-18 -109q-543 0 -838 23l-21 -23q-31 -338 -118 -662l14 -20q326 27 907 27z" />
    <glyph glyph-name="emacron" unicode="&#x113;" horiz-adv-x="1261" 
d="M1133 1430h-689l19 98h688zM541 -35q-207 0 -331 127.5t-124 345.5q0 138 51.5 269.5t139 231.5t213 161t264.5 61q39 0 77 -5t81 -17t78.5 -32.5t71 -51.5t58.5 -73t40 -97.5t16 -125.5t-13 -157l-8 -49h-942q-35 -216 62 -353t290 -137q152 0 274.5 86.5t200.5 223.5
l95 -35q-94 -177 -252.5 -275t-341.5 -98zM236 649h817q17 92 4 161t-42.5 117.5t-77 78.5t-99 43.5t-107.5 13.5q-169 0 -303 -114t-192 -300z" />
    <glyph glyph-name="Edotaccent" unicode="&#x116;" horiz-adv-x="1347" 
d="M905 1790q-38 0 -62 24.5t-24 61.5q0 48 37 84.5t86 36.5q38 0 62 -24t24 -60q0 -47 -38 -85t-85 -38zM1145 0h-1020l283 1597h999l-21 -106q-53 0 -206.5 -1t-231.5 -0.5t-204.5 5.5t-235.5 16l-23 -18q-24 -309 -106 -616l12 -23q307 23 846 23l-18 -109
q-543 0 -838 23l-21 -23q-31 -338 -118 -662l14 -20q326 27 907 27z" />
    <glyph glyph-name="edotaccent" unicode="&#x117;" horiz-adv-x="1261" 
d="M791 1436q-38 0 -62 24t-24 62q0 48 36.5 84t85.5 36q38 0 62 -23.5t24 -59.5q0 -47 -37.5 -85t-84.5 -38zM541 -35q-207 0 -331 127.5t-124 345.5q0 138 51.5 269.5t139 231.5t213 161t264.5 61q39 0 77 -5t81 -17t78.5 -32.5t71 -51.5t58.5 -73t40 -97.5t16 -125.5
t-13 -157l-8 -49h-942q-35 -216 62 -353t290 -137q152 0 274.5 86.5t200.5 223.5l95 -35q-94 -177 -252.5 -275t-341.5 -98zM236 649h817q17 92 4 161t-42.5 117.5t-77 78.5t-99 43.5t-107.5 13.5q-169 0 -303 -114t-192 -300z" />
    <glyph glyph-name="Eogonek" unicode="&#x118;" horiz-adv-x="1347" 
d="M508 1511l-23 -18q-24 -309 -106 -616l12 -23q307 23 846 23l-18 -109q-543 0 -838 23l-21 -23q-31 -338 -118 -662l14 -20q326 27 907 27l-18 -113q-219 -105 -219 -248q0 -60 44 -95.5t113 -35.5q41 0 93 14l-17 -84q-57 -14 -98 -14q-101 0 -165.5 50.5t-64.5 140.5
q0 160 205 272h-911l283 1597h999l-21 -106q-53 0 -206.5 -1t-231.5 -0.5t-204.5 5.5t-235.5 16z" />
    <glyph glyph-name="eogonek" unicode="&#x119;" horiz-adv-x="1261" 
d="M754 1161q39 0 77 -5t81 -17t78.5 -32.5t71 -51.5t58.5 -73t40 -97.5t16 -125.5t-13 -157l-8 -49h-942q-35 -216 62 -353t290 -137q152 0 274.5 86.5t200.5 223.5l95 -35q-66 -125 -168 -212.5t-224 -127.5q-90 -43 -150.5 -105t-60.5 -141q0 -60 44 -95.5t112 -35.5
q40 0 90 14l-16 -84q-55 -14 -98 -14q-102 0 -165 51t-63 140q0 137 154 239q-16 -2 -49 -2q-207 0 -331 127.5t-124 345.5q0 138 51.5 269.5t139 231.5t213 161t264.5 61zM236 649h817q17 92 4 161t-42.5 117.5t-77 78.5t-99 43.5t-107.5 13.5q-169 0 -303 -114t-192 -300z
" />
    <glyph glyph-name="Ecaron" unicode="&#x11a;" horiz-adv-x="1347" 
d="M971 1720h-154l-213 297h105q3 -3 18 -20t19.5 -21.5t18 -20.5t19 -22.5t17.5 -22t18.5 -25t16.5 -24.5t17 -27t15 -27.5t15 -30.5h43q39 48 88.5 96t78.5 71.5t91 73.5h104zM1145 0h-1020l283 1597h999l-21 -106q-53 0 -206.5 -1t-231.5 -0.5t-204.5 5.5t-235.5 16
l-23 -18q-24 -309 -106 -616l12 -23q307 23 846 23l-18 -109q-543 0 -838 23l-21 -23q-31 -338 -118 -662l14 -20q326 27 907 27z" />
    <glyph glyph-name="ecaron" unicode="&#x11b;" horiz-adv-x="1261" 
d="M842 1280h-160l-231 356h104q53 -63 79.5 -96.5t62 -86t61.5 -103.5h37q58 74 126.5 137t174.5 149h106zM541 -35q-207 0 -331 127.5t-124 345.5q0 138 51.5 269.5t139 231.5t213 161t264.5 61q39 0 77 -5t81 -17t78.5 -32.5t71 -51.5t58.5 -73t40 -97.5t16 -125.5
t-13 -157l-8 -49h-942q-35 -216 62 -353t290 -137q152 0 274.5 86.5t200.5 223.5l95 -35q-94 -177 -252.5 -275t-341.5 -98zM236 649h817q17 92 4 161t-42.5 117.5t-77 78.5t-99 43.5t-107.5 13.5q-169 0 -303 -114t-192 -300z" />
    <glyph glyph-name="Gbreve" unicode="&#x11e;" horiz-adv-x="1798" 
d="M1071 1726q-83 0 -149 29.5t-103.5 76.5t-54.5 102.5t-10 111.5h104q-9 -87 55.5 -155t173.5 -68q108 0 197.5 68t112.5 155h104q-13 -56 -49.5 -111.5t-90.5 -102.5t-130 -76.5t-160 -29.5zM801 -35q-142 0 -263 43.5t-211 125t-141 207.5t-51 284q0 193 76 377
t203.5 322t306 222t373.5 84q111 0 212 -28t186.5 -83t143.5 -145t76 -205l-115 -43q-40 187 -183.5 290.5t-340.5 103.5q-166 0 -317.5 -74.5t-258.5 -195.5t-170 -280.5t-63 -324.5q0 -141 46.5 -252t126.5 -179t181 -103t216 -35q262 0 465 170t290 444l-8 17
q-339 -39 -602 -39l18 104h697l-135 -772h-101q2 14 13 85.5t17 106.5t20 96.5t30 114.5l-22 3q-118 -214 -300 -327.5t-415 -113.5z" />
    <glyph glyph-name="gbreve" unicode="&#x11f;" horiz-adv-x="1368" 
d="M782 1278q-113 0 -188 52.5t-102.5 141t-10.5 201.5h103q-20 -137 41 -218t176 -81q114 0 202.5 80.5t118.5 218.5h105q-38 -174 -157 -284.5t-288 -110.5zM475 -483q-380 0 -440 331l108 35q21 -128 108.5 -198t242.5 -70q401 0 495 504q1 5 3 14q15 84 40 146l4 10h-22
q-91 -138 -220.5 -213.5t-269.5 -75.5q-190 0 -312 125.5t-122 341.5q0 138 54 267.5t141.5 222t202 148.5t231.5 56q147 0 250.5 -85t142.5 -232h23q4 99 36 284h107l-172 -983q-111 -628 -631 -628zM553 100q137 0 260 83.5t195.5 218t72.5 278.5q0 170 -101 275.5
t-257 105.5q-136 0 -255 -82t-188 -215t-69 -279q0 -170 94 -277.5t248 -107.5z" />
    <glyph glyph-name="Gdotaccent" unicode="&#x120;" horiz-adv-x="1798" 
d="M1081 1790q-38 0 -62 24.5t-24 61.5q0 48 37 84.5t86 36.5q38 0 62 -24t24 -60q0 -47 -38 -85t-85 -38zM801 -35q-142 0 -263 43.5t-211 125t-141 207.5t-51 284q0 193 76 377t203.5 322t306 222t373.5 84q111 0 212 -28t186.5 -83t143.5 -145t76 -205l-115 -43
q-40 187 -183.5 290.5t-340.5 103.5q-166 0 -317.5 -74.5t-258.5 -195.5t-170 -280.5t-63 -324.5q0 -141 46.5 -252t126.5 -179t181 -103t216 -35q262 0 465 170t290 444l-8 17q-339 -39 -602 -39l18 104h697l-135 -772h-101q2 14 13 85.5t17 106.5t20 96.5t30 114.5l-22 3
q-118 -214 -300 -327.5t-415 -113.5z" />
    <glyph glyph-name="gdotaccent" unicode="&#x121;" horiz-adv-x="1368" 
d="M813 1436q-38 0 -62 24t-24 62q0 47 37 83.5t86 36.5q38 0 62 -23.5t24 -59.5q0 -47 -38 -85t-85 -38zM475 -483q-380 0 -440 331l108 35q21 -128 108.5 -198t242.5 -70q401 0 495 504q1 5 3 14q15 84 40 146l4 10h-22q-91 -138 -220.5 -213.5t-269.5 -75.5
q-190 0 -312 125.5t-122 341.5q0 138 54 267.5t141.5 222t202 148.5t231.5 56q147 0 250.5 -85t142.5 -232h23q4 99 36 284h107l-172 -983q-111 -628 -631 -628zM553 100q137 0 260 83.5t195.5 218t72.5 278.5q0 170 -101 275.5t-257 105.5q-136 0 -255 -82t-188 -215
t-69 -279q0 -170 94 -277.5t248 -107.5z" />
    <glyph glyph-name="uni0122" unicode="&#x122;" horiz-adv-x="1798" 
d="M801 -35q-142 0 -263 43.5t-211 125t-141 207.5t-51 284q0 193 76 377t203.5 322t306 222t373.5 84q111 0 212 -28t186.5 -83t143.5 -145t76 -205l-115 -43q-40 187 -183.5 290.5t-340.5 103.5q-166 0 -317.5 -74.5t-258.5 -195.5t-170 -280.5t-63 -324.5
q0 -141 46.5 -252t126.5 -179t181 -103t216 -35q262 0 465 170t290 444l-8 17q-339 -39 -602 -39l18 104h697l-135 -772h-101q2 14 13 85.5t17 106.5t20 96.5t30 114.5l-22 3q-118 -214 -300 -327.5t-415 -113.5zM653 -498h-57q84 123 160 199q-103 0 -103 74q0 43 35 74.5
t80 31.5q38 0 62 -22.5t24 -57.5q0 -40 -36.5 -92t-164.5 -207z" />
    <glyph glyph-name="uni0123" unicode="&#x123;" horiz-adv-x="1368" 
d="M672 1331q0 40 41 101.5t194 255.5h74q-93 -150 -184 -267q73 8 73 -61q0 -45 -32.5 -78t-79.5 -33q-38 0 -62 23t-24 59zM475 -483q-380 0 -440 331l108 35q21 -128 108.5 -198t242.5 -70q401 0 495 504q1 5 3 14q15 84 40 146l4 10h-22q-91 -138 -220.5 -213.5
t-269.5 -75.5q-190 0 -312 125.5t-122 341.5q0 138 54 267.5t141.5 222t202 148.5t231.5 56q147 0 250.5 -85t142.5 -232h23q4 99 36 284h107l-172 -983q-111 -628 -631 -628zM553 100q137 0 260 83.5t195.5 218t72.5 278.5q0 170 -101 275.5t-257 105.5q-136 0 -255 -82
t-188 -215t-69 -279q0 -170 94 -277.5t248 -107.5z" />
    <glyph glyph-name="Hbar" unicode="&#x126;" horiz-adv-x="1654" 
d="M1559 1276h135l-17 -96h-135l-209 -1180h-119q88 499 154 758l-14 22q-465 -51 -973 0l-23 -22q-26 -263 -114 -758h-119l209 1180h-137l16 96h137l58 321h118q-37 -206 -59 -321h975q9 65 31 186t24 135h119zM1364 846l22 22q13 131 41 312h-978q-26 -139 -72 -312
l14 -22q524 29 973 0z" />
    <glyph glyph-name="hbar" unicode="&#x127;" horiz-adv-x="1294" 
d="M813 1161q64 0 118.5 -14.5t104 -47t79 -85t42 -129t-7.5 -178.5l-125 -707h-113l117 657q18 92 10 160t-30 115t-61 75.5t-82 41t-93 12.5q-89 0 -170.5 -37.5t-139 -99t-96.5 -135.5t-53 -150l-110 -639h-111l236 1339h-185l17 95h184l37 204h111q-7 -39 -20.5 -108
t-18.5 -96h374l-16 -95h-379q-43 -212 -106 -460h22q184 282 465 282z" />
    <glyph glyph-name="Imacron" unicode="&#x12a;" horiz-adv-x="567" 
d="M840 1839h-658l19 100h657zM244 0h-119l283 1597h118z" />
    <glyph glyph-name="imacron" unicode="&#x12b;" horiz-adv-x="491" 
d="M743 1427h-688l19 99h688zM203 0h-111l199 1128h110z" />
    <glyph glyph-name="Iogonek" unicode="&#x12e;" horiz-adv-x="567" 
d="M25 -248q0 -60 44 -95.5t113 -35.5q40 0 92 14l-16 -84q-57 -14 -98 -14q-101 0 -165.5 50.5t-64.5 140.5q0 160 205 272h-10l283 1597h118l-282 -1597q-219 -105 -219 -248z" />
    <glyph glyph-name="iogonek" unicode="&#x12f;" horiz-adv-x="491" 
d="M438 1640q38 0 62 -24t24 -60q0 -47 -38 -84.5t-85 -37.5q-38 0 -62 24t-24 62q0 47 37 83.5t86 36.5zM203 0h-2q-92 -44 -153.5 -106t-61.5 -142q0 -60 43.5 -95.5t111.5 -35.5q40 0 90 14l-16 -84q-55 -14 -98 -14q-102 0 -165 51t-63 140q0 160 209 272h-6l199 1128
h110z" />
    <glyph glyph-name="Idotaccent" unicode="&#x130;" horiz-adv-x="567" 
d="M500 1790q-38 0 -62 24.5t-24 61.5q0 48 37 84.5t86 36.5q38 0 62 -24t24 -60q0 -47 -38 -85t-85 -38zM244 0h-119l283 1597h118z" />
    <glyph glyph-name="dotlessi" unicode="&#x131;" horiz-adv-x="491" 
d="M203 0h-111l199 1128h110z" />
    <glyph glyph-name="uni0136" unicode="&#x136;" horiz-adv-x="1345" 
d="M244 0h-119l283 1597h118q-3 -18 -19.5 -112.5t-21 -118t-19.5 -105.5t-22 -116t-21.5 -104.5t-26 -117t-27 -108t-31.5 -119.5h20q99 92 194.5 180.5t220.5 201t178.5 160.5t217 193.5t185.5 165.5h143q-35 -31 -176.5 -157.5t-211 -187t-187 -161t-215.5 -178.5l-5 -24
q231 -353 553 -889h-145q-315 509 -483 827h-21q-126 -150 -272 -252q-26 -219 -90 -575zM489 -498h-57q84 123 160 199q-103 0 -103 74q0 43 35 74.5t80 31.5q38 0 62 -22.5t24 -57.5q0 -40 -36.5 -92t-164.5 -207z" />
    <glyph glyph-name="uni0137" unicode="&#x137;" horiz-adv-x="1042" 
d="M203 0h-111l289 1638h111q-10 -58 -47 -265t-53.5 -295t-48 -243t-62.5 -284h22q59 54 149 135.5t135.5 123t140 125t220.5 193.5h137l-518 -440q117 -189 398 -688h-127q-231 410 -346 623q-107 -116 -234 -191q-9 -171 -55 -432zM324 -498h-58q84 123 160 199
q-102 0 -102 74q0 44 34.5 75t79.5 31q38 0 62 -22.5t24 -57.5q0 -40 -37 -93t-163 -206z" />
    <glyph glyph-name="Lacute" unicode="&#x139;" horiz-adv-x="1206" 
d="M963 2038l-398 -318h-102l321 318h179zM1083 0h-958l283 1597h118q-4 -21 -46.5 -260.5t-57.5 -320.5t-50.5 -271.5t-66 -339.5t-63.5 -299l14 -20q303 27 846 27z" />
    <glyph glyph-name="lacute" unicode="&#x13a;" horiz-adv-x="491" 
d="M920 2079l-398 -318h-102l321 318h179zM203 0h-111l289 1638h111z" />
    <glyph glyph-name="uni013B" unicode="&#x13b;" horiz-adv-x="1206" 
d="M1083 0h-958l283 1597h118q-4 -21 -46.5 -260.5t-57.5 -320.5t-50.5 -271.5t-66 -339.5t-63.5 -299l14 -20q303 27 846 27zM412 -498h-58q84 123 160 199q-102 0 -102 74q0 44 34.5 75t79.5 31q38 0 62 -22.5t24 -57.5q0 -40 -37 -93t-163 -206z" />
    <glyph glyph-name="uni013C" unicode="&#x13c;" horiz-adv-x="491" 
d="M203 0h-111l289 1638h111zM14 -498h-57q84 123 160 199q-103 0 -103 74q0 43 35 74.5t80 31.5q38 0 62 -22.5t24 -57.5q0 -40 -36.5 -92t-164.5 -207z" />
    <glyph glyph-name="Lcaron" unicode="&#x13d;" horiz-adv-x="1206" 
d="M993 1190h-75q97 154 196 246q-84 16 -84 80q0 45 36 80.5t85 35.5q36 0 59 -23t23 -59q0 -37 -40 -96.5t-200 -263.5zM1083 0h-958l283 1597h118q-4 -21 -46.5 -260.5t-57.5 -320.5t-50.5 -271.5t-66 -339.5t-63.5 -299l14 -20q303 27 846 27z" />
    <glyph glyph-name="lcaron" unicode="&#x13e;" horiz-adv-x="491" 
d="M203 0h-111l289 1638h111zM725 1190h-76q96 152 197 246q-86 16 -86 80q0 45 37 80.5t86 35.5q36 0 59 -23t23 -59q0 -37 -40 -96.5t-200 -263.5z" />
    <glyph glyph-name="Lslash" unicode="&#x141;" horiz-adv-x="1206" 
d="M242 106l14 -20q303 27 846 27l-19 -113h-958l139 788l-188 -81l18 102l189 82l125 706h118l-116 -653l344 150l-19 -103l-346 -149q-91 -482 -147 -736z" />
    <glyph glyph-name="lslash" unicode="&#x142;" horiz-adv-x="491" 
d="M381 1014l225 143l-18 -102l-223 -142l-162 -913h-111l148 834l-230 -146l19 100l227 146l125 704h111z" />
    <glyph glyph-name="Nacute" unicode="&#x143;" horiz-adv-x="1693" 
d="M1456 2038l-397 -318h-103l322 318h178zM244 0h-119l283 1597h108q388 -679 770 -1437h21q12 105 26 208t31.5 220t30 195t36 214t33 191t37.5 212.5t35 196.5h117l-283 -1597h-108q-506 891 -773 1415h-22q-16 -142 -34 -279.5t-46.5 -312t-42 -253.5t-53.5 -304.5
t-47 -265.5z" />
    <glyph glyph-name="nacute" unicode="&#x144;" horiz-adv-x="1294" 
d="M1194 1671l-381 -393h-98l319 393h160zM203 0h-111l199 1128h106q-26 -151 -71 -249h22q184 282 467 282q53 0 100 -10t91 -32t75 -57t53 -85.5t25 -117.5t-10 -152l-125 -707h-113l117 657q17 115 5.5 192.5t-53.5 124.5t-94.5 67t-117.5 20q-89 0 -169.5 -38
t-137.5 -99.5t-95.5 -135t-52.5 -149.5z" />
    <glyph glyph-name="uni0145" unicode="&#x145;" horiz-adv-x="1693" 
d="M244 0h-119l283 1597h108q388 -679 770 -1437h21q12 105 26 208t31.5 220t30 195t36 214t33 191t37.5 212.5t35 196.5h117l-283 -1597h-108q-506 891 -773 1415h-22q-16 -142 -34 -279.5t-46.5 -312t-42 -253.5t-53.5 -304.5t-47 -265.5zM637 -498h-57q86 126 159 199
q-102 0 -102 74q0 43 35 74.5t80 31.5q38 0 62 -22.5t24 -57.5q0 -40 -36.5 -92t-164.5 -207z" />
    <glyph glyph-name="uni0146" unicode="&#x146;" horiz-adv-x="1294" 
d="M203 0h-111l199 1128h106q-26 -151 -71 -249h22q184 282 467 282q53 0 100 -10t91 -32t75 -57t53 -85.5t25 -117.5t-10 -152l-125 -707h-113l117 657q17 115 5.5 192.5t-53.5 124.5t-94.5 67t-117.5 20q-89 0 -169.5 -38t-137.5 -99.5t-95.5 -135t-52.5 -149.5zM436 -498
h-57q84 123 160 199q-103 0 -103 74q0 43 35 74.5t80 31.5q38 0 62 -22.5t24 -57.5q0 -40 -36.5 -92t-164.5 -207z" />
    <glyph glyph-name="Ncaron" unicode="&#x147;" horiz-adv-x="1693" 
d="M1108 1720h-154l-213 297h105q3 -3 18 -20t19.5 -21.5t18 -20.5t19 -22.5t17.5 -22t18.5 -25t16.5 -24.5t17 -27t15 -27.5t15 -30.5h43q39 48 88.5 96t78.5 71.5t91 73.5h104zM244 0h-119l283 1597h108q388 -679 770 -1437h21q12 105 26 208t31.5 220t30 195t36 214
t33 191t37.5 212.5t35 196.5h117l-283 -1597h-108q-506 891 -773 1415h-22q-16 -142 -34 -279.5t-46.5 -312t-42 -253.5t-53.5 -304.5t-47 -265.5z" />
    <glyph glyph-name="ncaron" unicode="&#x148;" horiz-adv-x="1294" 
d="M850 1280h-160l-231 356h104q53 -63 79.5 -96.5t62 -86t61.5 -103.5h37q58 74 126.5 137t174.5 149h106zM203 0h-111l199 1128h106q-26 -151 -71 -249h22q184 282 467 282q53 0 100 -10t91 -32t75 -57t53 -85.5t25 -117.5t-10 -152l-125 -707h-113l117 657
q17 115 5.5 192.5t-53.5 124.5t-94.5 67t-117.5 20q-89 0 -169.5 -38t-137.5 -99.5t-95.5 -135t-52.5 -149.5z" />
    <glyph glyph-name="Eng" unicode="&#x14a;" horiz-adv-x="1693" 
d="M897 -483q-134 0 -213 57l18 115q84 -68 193 -68q137 0 233 104t127 279q-415 731 -766 1409h-22q-16 -142 -34.5 -279t-46.5 -310.5t-41.5 -253.5t-53.5 -304t-47 -266h-119l283 1597h108q416 -733 770 -1433h23q12 104 25 206t31 220t29.5 193t35.5 214.5t33 190
t38 213.5t35 196h117l-269 -1521q-97 -559 -487 -559z" />
    <glyph glyph-name="eng" unicode="&#x14b;" horiz-adv-x="1294" 
d="M629 -483q-122 0 -201 57l21 109q84 -68 182 -68q31 0 59 6.5t50.5 21t41 29t34 40t26.5 43.5t21.5 50.5t16.5 50t13 53t9.5 48t8.5 45.5l117 655q18 92 10 160t-29.5 115t-60 75.5t-81.5 41t-95 12.5q-90 0 -171.5 -38t-138.5 -99.5t-96 -135t-53 -149.5l-110 -639h-111
l199 1128h106q-26 -151 -71 -249h22q184 282 467 282q64 0 118.5 -14t104 -46t78.5 -83.5t41.5 -126t-6.5 -174.5l-129 -731q-8 -42 -11.5 -60t-15 -64t-21 -71t-27.5 -67t-37 -66.5t-48.5 -54.5t-62 -46.5t-76.5 -28t-94 -11.5z" />
    <glyph glyph-name="Omacron" unicode="&#x14c;" horiz-adv-x="1818" 
d="M1464 1839h-657l18 100h658zM805 -35q-144 0 -268 49.5t-212.5 138t-139 215t-50.5 275.5q0 188 79 369.5t209 316.5t308.5 218t366.5 83q196 0 348.5 -88t235.5 -243t83 -351q0 -125 -36 -249.5t-99.5 -232t-153.5 -201t-195 -159.5t-228 -103.5t-248 -37.5zM825 76
q157 0 306.5 72.5t259 191t176.5 275.5t67 319q0 258 -157 422t-400 164q-124 0 -246 -46t-222.5 -128t-178 -188.5t-121 -235.5t-43.5 -260q0 -172 73 -306t200 -207t286 -73z" />
    <glyph glyph-name="omacron" unicode="&#x14d;" horiz-adv-x="1314" 
d="M1155 1430h-688l18 98h689zM553 -35q-216 0 -341.5 129t-125.5 348q0 137 51 267t139 230t216 161t272 61q215 0 341 -129.5t126 -349.5q0 -136 -51 -266t-139 -229.5t-216 -160.5t-272 -61zM569 66q115 0 217.5 51.5t172.5 136t110.5 193.5t40.5 223q0 179 -97 285
t-265 106q-152 0 -278 -87.5t-194.5 -225.5t-68.5 -291q0 -180 97.5 -285.5t264.5 -105.5z" />
    <glyph glyph-name="Ohungarumlaut" unicode="&#x150;" horiz-adv-x="1818" 
d="M1311 2038l-330 -318h-102l268 318h164zM1610 2038l-348 -318h-103l287 318h164zM805 -35q-144 0 -268 49.5t-212.5 138t-139 215t-50.5 275.5q0 188 79 369.5t209 316.5t308.5 218t366.5 83q196 0 348.5 -88t235.5 -243t83 -351q0 -125 -36 -249.5t-99.5 -232
t-153.5 -201t-195 -159.5t-228 -103.5t-248 -37.5zM825 76q157 0 306.5 72.5t259 191t176.5 275.5t67 319q0 258 -157 422t-400 164q-124 0 -246 -46t-222.5 -128t-178 -188.5t-121 -235.5t-43.5 -260q0 -172 73 -306t200 -207t286 -73z" />
    <glyph glyph-name="ohungarumlaut" unicode="&#x151;" horiz-adv-x="1314" 
d="M999 1673l-344 -395h-98l281 395h161zM1303 1673l-365 -395h-98l301 395h162zM553 -35q-216 0 -341.5 129t-125.5 348q0 137 51 267t139 230t216 161t272 61q215 0 341 -129.5t126 -349.5q0 -136 -51 -266t-139 -229.5t-216 -160.5t-272 -61zM569 66q115 0 217.5 51.5
t172.5 136t110.5 193.5t40.5 223q0 179 -97 285t-265 106q-152 0 -278 -87.5t-194.5 -225.5t-68.5 -291q0 -180 97.5 -285.5t264.5 -105.5z" />
    <glyph glyph-name="OE" unicode="&#x152;" horiz-adv-x="2713" 
d="M805 -35q-192 0 -344.5 84t-239 239t-86.5 355q0 188 79 369.5t209 316.5t308.5 218t366.5 83q218 0 378.5 -109.5t229.5 -295.5l68 372h997l-18 -106q-52 0 -205.5 -1t-232 -0.5t-205.5 5.5t-236 16l-25 -18q-19 -305 -106 -616l16 -23q303 23 844 23l-20 -109
q-541 0 -836 23l-21 -23q-29 -328 -120 -662l18 -20q324 27 905 27l-20 -113h-1018l65 371q-137 -187 -335.5 -296.5t-415.5 -109.5zM825 76q157 0 306.5 72.5t259 191t176.5 275.5t67 319q0 259 -158 422.5t-399 163.5q-124 0 -246 -46t-222.5 -128t-178 -188.5
t-121 -235.5t-43.5 -260q0 -172 73 -306t200 -207t286 -73z" />
    <glyph glyph-name="oe" unicode="&#x153;" horiz-adv-x="2265" 
d="M553 -35q-216 0 -341.5 129t-125.5 348q0 137 51.5 267.5t139.5 230.5t216 160.5t271 60.5q173 0 289 -85.5t155 -235.5q90 149 236 235t313 86q40 0 79 -5t82.5 -17.5t80 -33t72 -51.5t58.5 -73.5t39.5 -97.5t15 -125t-14.5 -156l-8 -45h-944q-38 -222 62.5 -358
t289.5 -136q152 0 274.5 86.5t200.5 223.5l96 -35q-95 -178 -254 -275.5t-342 -97.5q-168 0 -282.5 85t-151.5 233q-92 -148 -239 -233t-318 -85zM1239 649h817q17 92 3.5 161.5t-43 117.5t-77 78t-98 43.5t-106.5 13.5q-170 0 -304 -114t-192 -300zM569 66
q115 0 217.5 51.5t172.5 136t110.5 193.5t40.5 223q0 179 -97 285t-265 106q-114 0 -216 -51.5t-172.5 -136t-111.5 -193.5t-41 -223q0 -180 97.5 -285.5t264.5 -105.5z" />
    <glyph glyph-name="Racute" unicode="&#x154;" horiz-adv-x="1417" 
d="M1290 2038l-397 -318h-102l321 318h178zM244 0h-119l283 1597h550q16 0 29.5 -0.5t47 -4t62 -9.5t67.5 -19.5t70.5 -32t64 -48t54.5 -66.5t36 -89t14 -114q0 -139 -64.5 -257t-185.5 -193.5t-276 -87.5l-3 -23q43 -75 93 -170t76.5 -149t87.5 -180t75 -154h-131l-321 649
q-256 0 -412 33q-28 -290 -98 -682zM358 754l13 -23q168 21 434 21q205 1 337 124.5t132 307.5q0 150 -94 228.5t-262 78.5q-253 0 -410 20l-23 -18q-34 -369 -127 -739z" />
    <glyph glyph-name="racute" unicode="&#x155;" horiz-adv-x="829" 
d="M1016 1671l-381 -393h-98l319 393h160zM203 0h-111l199 1128h106q-4 -20 -11 -63.5t-11.5 -70t-15.5 -69.5t-25 -85h20q69 154 185.5 237.5t246.5 83.5q73 0 127 -22l-22 -121q-56 29 -141 29q-110 0 -207 -70t-158 -178t-82 -230z" />
    <glyph glyph-name="uni0156" unicode="&#x156;" horiz-adv-x="1417" 
d="M244 0h-119l283 1597h550q16 0 29.5 -0.5t47 -4t62 -9.5t67.5 -19.5t70.5 -32t64 -48t54.5 -66.5t36 -89t14 -114q0 -139 -64.5 -257t-185.5 -193.5t-276 -87.5l-3 -23q43 -75 93 -170t76.5 -149t87.5 -180t75 -154h-131l-321 649q-256 0 -412 33q-28 -290 -98 -682z
M358 754l13 -23q168 21 434 21q205 1 337 124.5t132 307.5q0 150 -94 228.5t-262 78.5q-253 0 -410 20l-23 -18q-34 -369 -127 -739zM492 -498h-58q84 123 160 199q-102 0 -102 74q0 44 34.5 75t79.5 31q38 0 62 -22.5t24 -57.5q0 -40 -37 -93t-163 -206z" />
    <glyph glyph-name="uni0157" unicode="&#x157;" horiz-adv-x="829" 
d="M203 0h-111l199 1128h106q-4 -20 -11 -63.5t-11.5 -70t-15.5 -69.5t-25 -85h20q69 154 185.5 237.5t246.5 83.5q73 0 127 -22l-22 -121q-56 29 -141 29q-110 0 -207 -70t-158 -178t-82 -230zM6 -498h-57q84 123 160 199q-103 0 -103 74q0 43 35 74.5t80 31.5
q38 0 62 -22.5t24 -57.5q0 -40 -36.5 -92t-164.5 -207z" />
    <glyph glyph-name="Rcaron" unicode="&#x158;" horiz-adv-x="1417" 
d="M944 1720h-153l-213 297h104q3 -3 18 -20t19.5 -21.5t18 -20.5t19 -22.5t17.5 -22t18.5 -25t16.5 -24.5t17 -27t15 -27.5t15 -30.5h43q39 48 88.5 96t78.5 71.5t91 73.5h105zM244 0h-119l283 1597h550q16 0 29.5 -0.5t47 -4t62 -9.5t67.5 -19.5t70.5 -32t64 -48
t54.5 -66.5t36 -89t14 -114q0 -139 -64.5 -257t-185.5 -193.5t-276 -87.5l-3 -23q43 -75 93 -170t76.5 -149t87.5 -180t75 -154h-131l-321 649q-256 0 -412 33q-28 -290 -98 -682zM358 754l13 -23q168 21 434 21q205 1 337 124.5t132 307.5q0 150 -94 228.5t-262 78.5
q-253 0 -410 20l-23 -18q-34 -369 -127 -739z" />
    <glyph glyph-name="rcaron" unicode="&#x159;" horiz-adv-x="829" 
d="M670 1280h-160l-231 356h104q53 -63 79.5 -96.5t62 -86t61.5 -103.5h37q58 74 126.5 137t174.5 149h106zM203 0h-111l199 1128h106q-4 -20 -11 -63.5t-11.5 -70t-15.5 -69.5t-25 -85h20q69 154 185.5 237.5t246.5 83.5q73 0 127 -22l-22 -121q-56 29 -141 29
q-110 0 -207 -70t-158 -178t-82 -230z" />
    <glyph glyph-name="Sacute" unicode="&#x15a;" horiz-adv-x="1310" 
d="M1235 2038l-395 -318h-105l322 318h178zM575 -35q-72 0 -138 14t-131.5 48.5t-115 86t-84.5 133.5t-45 185l115 41q17 -190 132 -293.5t292 -103.5q195 0 329 112t134 267q0 27 -5.5 51.5t-12.5 43t-22 36.5t-26.5 30t-34 25t-36 20.5t-41 17.5t-41 14.5t-43.5 14
t-41 13.5l-142 47q-37 12 -64.5 22t-68.5 29t-71 38.5t-63 49.5t-54 63.5t-35 78.5t-14 96q0 129 77 240t212.5 178t296.5 67q202 0 322.5 -104t139.5 -279l-112 -45q-21 145 -121 231.5t-258 86.5q-181 0 -305.5 -102t-124.5 -242q0 -40 13 -75.5t29 -60.5t47.5 -50
t51.5 -38t58.5 -30t50.5 -21t45 -16l145 -49q139 -46 180 -66q158 -73 191 -202q10 -38 10 -81q0 -132 -82.5 -252t-227 -195t-311.5 -75z" />
    <glyph glyph-name="sacute" unicode="&#x15b;" horiz-adv-x="999" 
d="M1049 1671l-381 -393h-99l320 393h160zM420 -35q-160 0 -270 87t-132 229l109 34q28 -114 115.5 -183t203.5 -69q125 0 219.5 75t94.5 177q0 29 -7.5 52.5t-25 41t-33.5 30t-47 24.5t-50 18t-56 17l-101 30q-30 9 -42 13t-47.5 18t-54 26t-47.5 35t-44 47t-27 59.5
t-12 76.5q0 146 124 252t294 106q141 0 236 -77t116 -197l-117 -37q-16 90 -84 151.5t-178 61.5q-115 0 -193.5 -66.5t-78.5 -162.5q0 -38 16 -70t37 -52.5t56.5 -39.5t60.5 -28t63 -21l105 -31l46.5 -15t47.5 -18t50 -24t43 -31t38 -41.5t23 -51.5t10 -65
q0 -70 -35.5 -138.5t-95.5 -122.5t-147 -87t-183 -33z" />
    <glyph glyph-name="Scedilla" unicode="&#x15e;" horiz-adv-x="1310" 
d="M670 885l145 -49q139 -46 180 -66q158 -73 191 -202q10 -38 10 -81q0 -96 -46.5 -189t-125.5 -165t-190 -118t-232 -50q-60 -69 -129 -127l6 -6q53 21 101 21q72 0 113.5 -36t41.5 -96q0 -84 -73 -146t-179 -62q-68 0 -130.5 29t-98.5 79l59 49q26 -40 74 -65t100 -25
q67 0 114.5 37t47.5 90q0 38 -30.5 62t-79.5 24q-57 0 -101 -26l-43 49l125 151q-66 6 -126 23.5t-117.5 53.5t-101.5 87.5t-74.5 128.5t-39.5 172l115 41q17 -190 132 -293.5t292 -103.5q195 0 329 112t134 267q0 27 -5.5 51.5t-12.5 43t-22 36.5t-26.5 30t-34 25t-36 20.5
t-41 17.5t-41 14.5t-43.5 14t-41 13.5l-142 47q-37 12 -64.5 22t-68.5 29t-71 38.5t-63 49.5t-54 63.5t-35 78.5t-14 96q0 129 77 240t212.5 178t296.5 67q202 0 322.5 -104t139.5 -279l-112 -45q-21 145 -121 231.5t-258 86.5q-181 0 -305.5 -102t-124.5 -242
q0 -40 13 -75.5t29 -60.5t47.5 -50t51.5 -38t58.5 -30t50.5 -21t45 -16z" />
    <glyph glyph-name="scedilla" unicode="&#x15f;" horiz-adv-x="999" 
d="M518 623l105 -31l46.5 -15t47.5 -18t50 -24t43 -31t38 -41.5t23 -51.5t10 -65q0 -141 -126.5 -256.5t-308.5 -124.5q-60 -69 -129 -127l7 -6q53 21 100 21q72 0 114 -36t42 -96q0 -84 -73 -146t-179 -62q-69 0 -131.5 29t-98.5 79l60 49q26 -40 74 -65t100 -25
q67 0 114.5 37t47.5 90q0 38 -31 62t-80 24q-56 0 -100 -26l-43 49l125 151q-139 15 -233 100t-114 214l109 34q28 -114 115.5 -183t203.5 -69q125 0 219.5 75t94.5 177q0 29 -7.5 52.5t-25 41t-33.5 30t-47 24.5t-50 18t-56 17l-101 30q-30 9 -42 13t-47.5 18t-54 26
t-47.5 35t-44 47t-27 59.5t-12 76.5q0 146 124 252t294 106q141 0 236 -77t116 -197l-117 -37q-16 90 -84 151.5t-178 61.5q-115 0 -193.5 -66.5t-78.5 -162.5q0 -38 16 -70t37 -52.5t56.5 -39.5t60.5 -28t63 -21z" />
    <glyph glyph-name="Scaron" unicode="&#x160;" horiz-adv-x="1310" 
d="M930 1720h-154l-213 297h105q3 -3 18 -20t19.5 -21.5t18 -20.5t19 -22.5t17.5 -22t18.5 -25t16.5 -24.5t17 -27t15 -27.5t15 -30.5h43q39 48 88.5 96t78.5 71.5t91 73.5h104zM575 -35q-72 0 -138 14t-131.5 48.5t-115 86t-84.5 133.5t-45 185l115 41q17 -190 132 -293.5
t292 -103.5q195 0 329 112t134 267q0 27 -5.5 51.5t-12.5 43t-22 36.5t-26.5 30t-34 25t-36 20.5t-41 17.5t-41 14.5t-43.5 14t-41 13.5l-142 47q-37 12 -64.5 22t-68.5 29t-71 38.5t-63 49.5t-54 63.5t-35 78.5t-14 96q0 129 77 240t212.5 178t296.5 67q202 0 322.5 -104
t139.5 -279l-112 -45q-21 145 -121 231.5t-258 86.5q-181 0 -305.5 -102t-124.5 -242q0 -40 13 -75.5t29 -60.5t47.5 -50t51.5 -38t58.5 -30t50.5 -21t45 -16l145 -49q139 -46 180 -66q158 -73 191 -202q10 -38 10 -81q0 -132 -82.5 -252t-227 -195t-311.5 -75z" />
    <glyph glyph-name="scaron" unicode="&#x161;" horiz-adv-x="999" 
d="M702 1280h-159l-232 356h105q51 -61 79 -96t62.5 -87t60.5 -103h37q58 74 126.5 137t174.5 149h107zM420 -35q-160 0 -270 87t-132 229l109 34q28 -114 115.5 -183t203.5 -69q125 0 219.5 75t94.5 177q0 29 -7.5 52.5t-25 41t-33.5 30t-47 24.5t-50 18t-56 17l-101 30
q-30 9 -42 13t-47.5 18t-54 26t-47.5 35t-44 47t-27 59.5t-12 76.5q0 146 124 252t294 106q141 0 236 -77t116 -197l-117 -37q-16 90 -84 151.5t-178 61.5q-115 0 -193.5 -66.5t-78.5 -162.5q0 -38 16 -70t37 -52.5t56.5 -39.5t60.5 -28t63 -21l105 -31l46.5 -15t47.5 -18
t50 -24t43 -31t38 -41.5t23 -51.5t10 -65q0 -70 -35.5 -138.5t-95.5 -122.5t-147 -87t-183 -33z" />
    <glyph glyph-name="uni0162" unicode="&#x162;" horiz-adv-x="1288" 
d="M190 1491l21 106h1233l-19 -106q-372 0 -575 20q-18 -133 -39.5 -275t-37.5 -245t-43 -262.5t-39.5 -232.5t-44.5 -256.5t-42 -239.5h-16q-81 -98 -158 -162l6 -6q52 21 101 21q72 0 113.5 -36t41.5 -96q0 -84 -73 -146t-179 -62q-68 0 -130.5 29t-98.5 79l59 49
q26 -40 74 -65t100 -25q67 0 114.5 37t47.5 90q0 38 -30.5 62t-79.5 24q-57 0 -101 -26l-43 49l152 184h-19q180 1017 289 1511q-211 -20 -584 -20z" />
    <glyph glyph-name="uni0163" unicode="&#x163;" horiz-adv-x="743" 
d="M805 1128l-19 -98q-226 0 -368 21q-16 -178 -34.5 -303t-33 -180t-26.5 -97t-18.5 -88t-6.5 -119q0 -109 23 -153.5t100 -44.5q98 0 207 65l-21 -108q-99 -58 -217 -58q-27 0 -39 2q-66 -77 -129 -129l6 -6q53 21 101 21q72 0 113.5 -36t41.5 -96q0 -84 -73 -146
t-179 -62q-68 0 -130.5 29t-98.5 79l59 49q26 -40 74.5 -65t100.5 -25q67 0 114 37t47 90q0 38 -30.5 62t-79.5 24q-57 0 -101 -26l-43 49l140 168q-32 14 -54.5 37.5t-32 56t-14 61t-0.5 70.5t7 65.5t10 63.5q85 470 149 713q-107 -21 -252 -21l17 98q153 0 243 -22
q1 40 3 77t7.5 81.5t8 63t12 74.5t10.5 64h111q-2 -11 -8.5 -49.5t-10 -56t-11 -54t-14.5 -63t-17.5 -63.5t-22.5 -74q137 22 379 22z" />
    <glyph glyph-name="Tcaron" unicode="&#x164;" horiz-adv-x="1288" 
d="M926 1720h-154l-213 297h105q3 -3 18 -20t19.5 -21.5t18 -20.5t19 -22.5t17.5 -22t18.5 -25t16.5 -24.5t17 -27t15 -27.5t15 -30.5h43q39 48 88.5 96t78.5 71.5t91 73.5h104zM604 0h-119q180 1017 289 1511q-211 -20 -584 -20l21 106h1233l-19 -106q-372 0 -575 20
q-18 -133 -39.5 -275t-37.5 -245t-43 -262.5t-39.5 -232.5t-44.5 -256.5t-42 -239.5z" />
    <glyph glyph-name="tcaron" unicode="&#x165;" horiz-adv-x="743" 
d="M940 1190h-76q93 151 197 248q-86 16 -86 80q0 45 37 80.5t86 35.5q36 0 59 -23t23 -59q0 -38 -41 -99t-199 -263zM391 -35q-53 0 -92 14.5t-62 35t-35.5 55t-17 63t-1.5 72.5t7 68.5t11 64.5q85 470 149 713q-107 -21 -252 -21l17 98q153 0 243 -22q1 40 3 77t7.5 81.5
t8 63t12 74.5t10.5 64h111q-2 -11 -8.5 -49.5t-10 -56t-11 -54t-14.5 -63t-17.5 -63.5t-22.5 -74q137 22 379 22l-19 -98q-226 0 -368 21q-16 -178 -34.5 -303t-33 -180t-26.5 -97t-18.5 -88t-6.5 -119q0 -109 23 -153.5t100 -44.5q98 0 207 65l-21 -108q-99 -58 -217 -58z
" />
    <glyph glyph-name="Tbar" unicode="&#x166;" horiz-adv-x="1288" 
d="M1444 1597l-19 -106q-372 0 -575 20q-58 -409 -100 -665h370l-18 -96h-369q-24 -147 -71 -416.5t-58 -333.5h-119q70 395 136 750h-371l18 96h371q75 385 135 665q-211 -20 -584 -20l21 106h1233z" />
    <glyph glyph-name="tbar" unicode="&#x167;" horiz-adv-x="743" 
d="M805 1128l-19 -98q-226 0 -368 21q-16 -192 -45 -365h336l-17 -94h-338q-10 -47 -26.5 -107t-22.5 -102.5t-6 -118.5q0 -109 23 -153.5t100 -44.5q98 0 207 65l-21 -108q-99 -58 -217 -58q-53 0 -92 14.5t-62 35t-35.5 55t-17 63t-1.5 72.5t7 68.5t11 64.5q5 25 21.5 115
t25.5 139h-223l16 94h225q40 201 84 365q-107 -21 -252 -21l17 98q153 0 243 -22q1 40 3 77t7.5 81.5t8 63t12 74.5t10.5 64h111q-2 -11 -8.5 -49.5t-10 -56t-11 -54t-14.5 -63t-17.5 -63.5t-22.5 -74q137 22 379 22z" />
    <glyph glyph-name="Umacron" unicode="&#x16a;" horiz-adv-x="1544" 
d="M1329 1839h-657l18 100h658zM666 -35q-265 0 -388 152t-69 454l180 1026h119l-180 -1019q-46 -259 50.5 -382.5t307.5 -123.5q213 0 354 124t185 382l182 1019h117l-181 -1026q-49 -280 -221.5 -443t-455.5 -163z" />
    <glyph glyph-name="umacron" unicode="&#x16b;" horiz-adv-x="1275" 
d="M1114 1430h-688l18 98h689zM473 -35q-50 0 -95 9.5t-88.5 31t-74.5 56.5t-53.5 85.5t-25 118t10.5 154.5l125 708h111l-115 -661q-12 -79 -11 -139t18.5 -105t41.5 -75t58 -48t68.5 -26t72.5 -8q88 0 166.5 38t133.5 99.5t92 134.5t50 147l115 643h111l-137 -776
q-38 -213 -25 -352h-113q-7 59 -0.5 125t33.5 141h-20q-173 -301 -449 -301z" />
    <glyph glyph-name="Uring" unicode="&#x16e;" horiz-adv-x="1544" 
d="M977 1714q-83 0 -133.5 49t-50.5 129q0 101 77 176.5t185 75.5q83 0 133.5 -49t50.5 -129q0 -100 -77.5 -176t-184.5 -76zM993 1798q67 0 114.5 47t47.5 113q0 47 -32.5 74.5t-84.5 27.5q-69 0 -115 -45.5t-46 -111.5q0 -49 31.5 -77t84.5 -28zM666 -35q-265 0 -388 152
t-69 454l180 1026h119l-180 -1019q-46 -259 50.5 -382.5t307.5 -123.5q213 0 354 124t185 382l182 1019h117l-181 -1026q-49 -280 -221.5 -443t-455.5 -163z" />
    <glyph glyph-name="uring" unicode="&#x16f;" horiz-adv-x="1275" 
d="M737 1245q-83 0 -134.5 49t-51.5 129q0 101 77 176.5t185 75.5q83 0 134.5 -49t51.5 -129q0 -100 -77.5 -176t-184.5 -76zM752 1329q67 0 115 47t48 113q0 46 -32.5 74t-83.5 28q-69 0 -116.5 -45.5t-47.5 -111.5q0 -49 32.5 -77t84.5 -28zM473 -35q-50 0 -95 9.5
t-88.5 31t-74.5 56.5t-53.5 85.5t-25 118t10.5 154.5l125 708h111l-115 -661q-12 -79 -11 -139t18.5 -105t41.5 -75t58 -48t68.5 -26t72.5 -8q88 0 166.5 38t133.5 99.5t92 134.5t50 147l115 643h111l-137 -776q-38 -213 -25 -352h-113q-7 59 -0.5 125t33.5 141h-20
q-173 -301 -449 -301z" />
    <glyph glyph-name="Uhungarumlaut" unicode="&#x170;" horiz-adv-x="1544" 
d="M1178 2038l-330 -318h-103l269 318h164zM1477 2038l-349 -318h-102l287 318h164zM666 -35q-265 0 -388 152t-69 454l180 1026h119l-180 -1019q-46 -259 50.5 -382.5t307.5 -123.5q213 0 354 124t185 382l182 1019h117l-181 -1026q-49 -280 -221.5 -443t-455.5 -163z" />
    <glyph glyph-name="uhungarumlaut" unicode="&#x171;" horiz-adv-x="1275" 
d="M956 1673l-344 -395h-98l281 395h161zM1260 1673l-365 -395h-98l301 395h162zM473 -35q-50 0 -95 9.5t-88.5 31t-74.5 56.5t-53.5 85.5t-25 118t10.5 154.5l125 708h111l-115 -661q-12 -79 -11 -139t18.5 -105t41.5 -75t58 -48t68.5 -26t72.5 -8q88 0 166.5 38
t133.5 99.5t92 134.5t50 147l115 643h111l-137 -776q-38 -213 -25 -352h-113q-7 59 -0.5 125t33.5 141h-20q-173 -301 -449 -301z" />
    <glyph glyph-name="Uogonek" unicode="&#x172;" horiz-adv-x="1544" 
d="M1225 578l182 1019h117l-181 -1026q-29 -167 -101.5 -293t-193.5 -207t-282 -100q-164 -94 -164 -219q0 -60 44.5 -95.5t113.5 -35.5q40 0 92 14l-16 -84q-57 -14 -99 -14q-101 0 -165 50.5t-64 140.5q0 136 147 237q-260 3 -380 155t-66 451l180 1026h119l-180 -1019
q-46 -259 50.5 -382.5t307.5 -123.5q213 0 354 124t185 382z" />
    <glyph glyph-name="uogonek" unicode="&#x173;" horiz-adv-x="1275" 
d="M1073 1128h111l-137 -776q-38 -213 -25 -352h-10q-92 -44 -153.5 -106t-61.5 -142q0 -60 43.5 -95.5t111.5 -35.5q40 0 90 14l-16 -84q-55 -14 -98 -14q-102 0 -165 51t-63 140q0 160 209 272q-7 59 -0.5 125t33.5 141h-20q-173 -301 -449 -301q-50 0 -95 9.5t-88.5 31
t-74.5 56.5t-53.5 85.5t-25 118t10.5 154.5l125 708h111l-115 -661q-12 -79 -11 -139t18.5 -105t41.5 -75t58 -48t68.5 -26t72.5 -8q88 0 166.5 38t133.5 99.5t92 134.5t50 147z" />
    <glyph glyph-name="Wcircumflex" unicode="&#x174;" horiz-adv-x="2316" 
d="M1126 1720h-104l317 297h152l213 -297h-102q-47 53 -68.5 78t-52 70.5t-51.5 93.5h-46q-38 -47 -89.5 -96.5t-77.5 -71t-91 -74.5zM606 0h-141l-242 1597h123q150 -911 205 -1472h20q232 505 705 1472h131q129 -897 188 -1472h23q336 729 719 1472h125l-809 -1597h-140
q-121 772 -184 1462h-24q-321 -729 -699 -1462z" />
    <glyph glyph-name="wcircumflex" unicode="&#x175;" horiz-adv-x="1845" 
d="M776 1278h-106l360 356h160l233 -356h-106q-48 59 -74.5 93t-62.5 89t-58 103h-45q-103 -128 -301 -285zM467 0h-111l-217 1128h121q6 -31 35 -190t39 -216t30.5 -180.5t34 -223.5t25.5 -205h25q182 388 516 1015h116q6 -32 26.5 -139.5t28 -148t24.5 -134t26 -149.5
t22 -137.5t23.5 -156t19.5 -150.5h23q79 171 178 369t157 309t177 337h123l-617 -1128h-112q-134 718 -176 1001h-7q-228 -453 -530 -1001z" />
    <glyph glyph-name="Ycircumflex" unicode="&#x176;" horiz-adv-x="1402" 
d="M670 1720h-105l318 297h151l213 -297h-102q-47 53 -68.5 78t-52 70.5t-51.5 93.5h-45q-38 -47 -89.5 -96.5t-77.5 -71t-91 -74.5zM659 0h-118q84 454 116 592q-236 533 -434 1005h131q6 -14 43 -104t47 -114.5t43.5 -107t48.5 -120t43.5 -111.5t47 -124t41.5 -114.5
t43 -123.5h22q54 79 117 166.5t105 145t123 164.5t106 139.5t124 160t111 143.5h125q-539 -696 -788 -1005q-31 -230 -97 -592z" />
    <glyph glyph-name="ycircumflex" unicode="&#x177;" horiz-adv-x="1095" 
d="M389 1278h-106l360 356h160l233 -356h-106q-48 59 -74.5 93t-62.5 89t-58 103h-45q-103 -128 -301 -285zM242 -451h-99l250 441l-258 1138h121q134 -589 201 -1038h20q245 485 563 1038h121z" />
    <glyph glyph-name="Ydieresis" unicode="&#x178;" horiz-adv-x="1402" 
d="M727 1794q-36 0 -59 23t-23 59q0 44 35.5 78.5t79.5 34.5q36 0 58 -22.5t22 -55.5q0 -46 -34.5 -81.5t-78.5 -35.5zM1112 1794q-37 0 -59.5 22.5t-22.5 57.5q0 46 34.5 80.5t80.5 34.5q35 0 57.5 -23t22.5 -57q0 -44 -35 -79.5t-78 -35.5zM659 0h-118q84 454 116 592
q-236 533 -434 1005h131q6 -14 43 -104t47 -114.5t43.5 -107t48.5 -120t43.5 -111.5t47 -124t41.5 -114.5t43 -123.5h22q54 79 117 166.5t105 145t123 164.5t106 139.5t124 160t111 143.5h125q-539 -696 -788 -1005q-31 -230 -97 -592z" />
    <glyph glyph-name="Zacute" unicode="&#x179;" horiz-adv-x="1331" 
d="M1264 2038l-398 -318h-102l321 318h179zM1176 0h-1219l16 100q312 341 1315 1401l-6 21q-444 -31 -1022 -31l21 106h1159l-19 -94q-196 -214 -396 -426.5t-512 -539t-409 -428.5l9 -23q405 27 1081 27z" />
    <glyph glyph-name="zacute" unicode="&#x17a;" horiz-adv-x="974" 
d="M1040 1671l-381 -393h-98l320 393h159zM831 0h-872l14 82q70 79 205.5 231.5t220 247.5t205.5 228.5t227 246.5l-6 21q-361 -31 -645 -31l17 102h786l-14 -81q-24 -27 -115 -128.5t-126 -140t-115.5 -127.5t-129 -142.5t-118.5 -130t-133 -143.5t-126 -133l7 -22
q251 22 735 22z" />
    <glyph glyph-name="Zdotaccent" unicode="&#x17b;" horiz-adv-x="1331" 
d="M866 1790q-38 0 -62 24.5t-24 61.5q0 48 37 84.5t86 36.5q38 0 62 -24t24 -60q0 -47 -38 -85t-85 -38zM1176 0h-1219l16 100q312 341 1315 1401l-6 21q-444 -31 -1022 -31l21 106h1159l-19 -94q-196 -214 -396 -426.5t-512 -539t-409 -428.5l9 -23q405 27 1081 27z" />
    <glyph glyph-name="zdotaccent" unicode="&#x17c;" horiz-adv-x="974" 
d="M647 1436q-38 0 -62 24t-24 62q0 47 37 83.5t86 36.5q38 0 62 -23.5t24 -59.5q0 -47 -38 -85t-85 -38zM831 0h-872l14 82q70 79 205.5 231.5t220 247.5t205.5 228.5t227 246.5l-6 21q-361 -31 -645 -31l17 102h786l-14 -81q-24 -27 -115 -128.5t-126 -140t-115.5 -127.5
t-129 -142.5t-118.5 -130t-133 -143.5t-126 -133l7 -22q251 22 735 22z" />
    <glyph glyph-name="Zcaron" unicode="&#x17d;" horiz-adv-x="1331" 
d="M918 1720h-154l-213 297h104q3 -3 18 -20t19.5 -21.5t18 -20.5t19 -22.5t17.5 -22t18.5 -25t16.5 -24.5t17 -27t15 -27.5t15 -30.5h43q39 48 88.5 96t78.5 71.5t91 73.5h105zM1176 0h-1219l16 100q312 341 1315 1401l-6 21q-444 -31 -1022 -31l21 106h1159l-19 -94
q-196 -214 -396 -426.5t-512 -539t-409 -428.5l9 -23q405 27 1081 27z" />
    <glyph glyph-name="zcaron" unicode="&#x17e;" horiz-adv-x="974" 
d="M696 1280h-159l-232 356h105q51 -61 79 -96t62.5 -87t60.5 -103h37q58 74 126.5 137t174.5 149h107zM831 0h-872l14 82q70 79 205.5 231.5t220 247.5t205.5 228.5t227 246.5l-6 21q-361 -31 -645 -31l17 102h786l-14 -81q-24 -27 -115 -128.5t-126 -140t-115.5 -127.5
t-129 -142.5t-118.5 -130t-133 -143.5t-126 -133l7 -22q251 22 735 22z" />
    <glyph glyph-name="uni0218" unicode="&#x218;" horiz-adv-x="1310" 
d="M575 -35q-72 0 -138 14t-131.5 48.5t-115 86t-84.5 133.5t-45 185l115 41q17 -190 132 -293.5t292 -103.5q195 0 329 112t134 267q0 27 -5.5 51.5t-12.5 43t-22 36.5t-26.5 30t-34 25t-36 20.5t-41 17.5t-41 14.5t-43.5 14t-41 13.5l-142 47q-37 12 -64.5 22t-68.5 29
t-71 38.5t-63 49.5t-54 63.5t-35 78.5t-14 96q0 129 77 240t212.5 178t296.5 67q202 0 322.5 -104t139.5 -279l-112 -45q-21 145 -121 231.5t-258 86.5q-181 0 -305.5 -102t-124.5 -242q0 -40 13 -75.5t29 -60.5t47.5 -50t51.5 -38t58.5 -30t50.5 -21t45 -16l145 -49
q139 -46 180 -66q158 -73 191 -202q10 -38 10 -81q0 -132 -82.5 -252t-227 -195t-311.5 -75zM440 -498h-57q84 123 160 199q-103 0 -103 74q0 43 35 74.5t80 31.5q38 0 62 -22.5t24 -57.5q0 -40 -36.5 -92t-164.5 -207z" />
    <glyph glyph-name="uni0219" unicode="&#x219;" horiz-adv-x="999" 
d="M420 -35q-160 0 -270 87t-132 229l109 34q28 -114 115.5 -183t203.5 -69q125 0 219.5 75t94.5 177q0 29 -7.5 52.5t-25 41t-33.5 30t-47 24.5t-50 18t-56 17l-101 30q-30 9 -42 13t-47.5 18t-54 26t-47.5 35t-44 47t-27 59.5t-12 76.5q0 146 124 252t294 106
q141 0 236 -77t116 -197l-117 -37q-16 90 -84 151.5t-178 61.5q-115 0 -193.5 -66.5t-78.5 -162.5q0 -38 16 -70t37 -52.5t56.5 -39.5t60.5 -28t63 -21l105 -31l46.5 -15t47.5 -18t50 -24t43 -31t38 -41.5t23 -51.5t10 -65q0 -70 -35.5 -138.5t-95.5 -122.5t-147 -87
t-183 -33zM285 -498h-58q84 123 160 199q-102 0 -102 74q0 44 34.5 75t79.5 31q38 0 62 -22.5t24 -57.5q0 -40 -37 -93t-163 -206z" />
    <glyph glyph-name="uni021A" unicode="&#x21a;" horiz-adv-x="1288" 
d="M604 0h-119q180 1017 289 1511q-211 -20 -584 -20l21 106h1233l-19 -106q-372 0 -575 20q-18 -133 -39.5 -275t-37.5 -245t-43 -262.5t-39.5 -232.5t-44.5 -256.5t-42 -239.5zM397 -498h-57q84 123 160 199q-103 0 -103 74q0 43 35 74.5t80 31.5q38 0 62 -22.5t24 -57.5
q0 -40 -36.5 -92t-164.5 -207z" />
    <glyph glyph-name="uni021B" unicode="&#x21b;" horiz-adv-x="743" 
d="M391 -35q-53 0 -92 14.5t-62 35t-35.5 55t-17 63t-1.5 72.5t7 68.5t11 64.5q85 470 149 713q-107 -21 -252 -21l17 98q153 0 243 -22q1 40 3 77t7.5 81.5t8 63t12 74.5t10.5 64h111q-2 -11 -8.5 -49.5t-10 -56t-11 -54t-14.5 -63t-17.5 -63.5t-22.5 -74q137 22 379 22
l-19 -98q-226 0 -368 21q-16 -178 -34.5 -303t-33 -180t-26.5 -97t-18.5 -88t-6.5 -119q0 -109 23 -153.5t100 -44.5q98 0 207 65l-21 -108q-99 -58 -217 -58zM190 -498h-57q84 123 160 199q-103 0 -103 74q0 43 35 74.5t80 31.5q38 0 62 -22.5t24 -57.5q0 -40 -36.5 -92
t-164.5 -207z" />
    <glyph glyph-name="gravecomb" unicode="&#x300;" horiz-adv-x="0" 
d="M121 1278h-101l-241 393h162z" />
    <glyph glyph-name="acutecomb" unicode="&#x301;" horiz-adv-x="0" 
d="M401 1671l-381 -393h-98l320 393h159z" />
    <glyph glyph-name="uni0302" unicode="&#x302;" horiz-adv-x="0" 
d="M-453 1278h-106l360 356h160l234 -356h-107q-146 178 -194 285h-46q-103 -128 -301 -285z" />
    <glyph glyph-name="tildecomb" unicode="&#x303;" horiz-adv-x="0" 
d="M-84 1341q-16 0 -30 2t-27 7t-21 9t-20 13.5t-16.5 13.5t-17.5 17t-17 16l-33 33q-3 3 -12.5 12t-14 13t-13.5 10.5t-15.5 9.5t-16.5 5.5t-20 2.5q-50 0 -88 -41.5t-50 -107.5h-88q22 106 90 171.5t156 65.5q43 0 73 -17.5t62 -51.5l37 -37q52 -57 105 -57
q49 0 84.5 41.5t46.5 107.5h88q-21 -108 -85.5 -173t-156.5 -65z" />
    <glyph glyph-name="uni0304" unicode="&#x304;" horiz-adv-x="0" 
d="M162 1427h-688l18 99h688z" />
    <glyph glyph-name="uni0306" unicode="&#x306;" horiz-adv-x="0" 
d="M-178 1278q-113 0 -188 52.5t-102.5 141t-10.5 201.5h102q-20 -137 41 -218t176 -81q114 0 203 80.5t119 218.5h104q-38 -174 -156.5 -284.5t-287.5 -110.5z" />
    <glyph glyph-name="uni0307" unicode="&#x307;" horiz-adv-x="0" 
d="M6 1434q-38 0 -62 24t-24 62q0 47 37 83.5t86 36.5q38 0 62 -24t24 -60q0 -47 -38 -84.5t-85 -37.5z" />
    <glyph glyph-name="uni0308" unicode="&#x308;" horiz-adv-x="0" 
d="M-604 1382q-35 0 -57.5 23.5t-22.5 58.5q0 44 35 77.5t78 33.5q36 0 57.5 -22t21.5 -54q0 -46 -34 -81.5t-78 -35.5zM-258 1382q-37 0 -59.5 22.5t-22.5 57.5q0 46 34.5 79.5t80.5 33.5q33 0 55.5 -22.5t22.5 -55.5q0 -44 -34 -79.5t-77 -35.5z" />
    <glyph glyph-name="uni030A" unicode="&#x30a;" horiz-adv-x="0" 
d="M-16 1245q-83 0 -135 49.5t-52 128.5q0 101 77 176.5t185 75.5q83 0 135 -49.5t52 -128.5q0 -100 -77.5 -176t-184.5 -76zM-2 1329q68 0 116 47t48 113q0 46 -33 74t-84 28q-69 0 -116.5 -45.5t-47.5 -111.5q0 -49 32.5 -77t84.5 -28z" />
    <glyph glyph-name="uni030B" unicode="&#x30b;" horiz-adv-x="0" 
d="M178 1673l-344 -395h-98l280 395h162zM481 1673l-364 -395h-99l301 395h162z" />
    <glyph glyph-name="uni030C" unicode="&#x30c;" horiz-adv-x="0" 
d="M-102 1278h-160l-232 356h105q53 -63 79.5 -96.5t62 -86t61.5 -103.5h36q40 51 94.5 104.5t95.5 88.5t112 93h106z" />
    <glyph glyph-name="uni0312" unicode="&#x312;" horiz-adv-x="0" 
d="M-193 1317q0 40 40 99t196 257h74q-86 -138 -185 -266q74 8 74 -61q0 -45 -32.5 -78t-79.5 -33q-38 0 -62.5 23.5t-24.5 58.5z" />
    <glyph glyph-name="uni0326" unicode="&#x326;" horiz-adv-x="0" 
d="M-422 -498h-57q84 123 160 199q-103 0 -103 74q0 43 35 74.5t80 31.5q38 0 62 -22.5t24 -57.5q0 -40 -36.5 -92t-164.5 -207z" />
    <glyph glyph-name="uni0327" unicode="&#x327;" horiz-adv-x="0" 
d="M-723 -487q-68 0 -130.5 29t-98.5 79l59 49q26 -40 74 -65t100 -25q67 0 114.5 37t47.5 90q0 38 -31 62t-80 24q-56 0 -100 -26l-43 49l152 184h84q-81 -98 -158 -162l6 -6q53 21 100 21q72 0 114 -36t42 -96q0 -84 -73 -146t-179 -62z" />
    <glyph glyph-name="uni0328" unicode="&#x328;" horiz-adv-x="0" 
d="M-725 -483q-102 0 -164.5 50.5t-62.5 139.5q0 161 209 273h102q-92 -44 -153.5 -106t-61.5 -142q0 -60 44 -95.5t112 -35.5q40 0 90 14l-17 -84q-55 -14 -98 -14z" />
    <glyph glyph-name="uni0335" unicode="&#x335;" horiz-adv-x="0" 
d="M-616 610h667l-16 -94h-668z" />
    <glyph glyph-name="uni0337" unicode="&#x337;" horiz-adv-x="0" 
d="M-383 537l18 100l578 369l-18 -103z" />
    <glyph glyph-name="uni0338" unicode="&#x338;" horiz-adv-x="0" 
d="M-1044 -55h-121l1134 1235h115z" />
    <glyph glyph-name="Wgrave" unicode="&#x1e80;" horiz-adv-x="2316" 
d="M1444 1720h-105l-284 318h180zM606 0h-141l-242 1597h123q150 -911 205 -1472h20q232 505 705 1472h131q129 -897 188 -1472h23q336 729 719 1472h125l-809 -1597h-140q-121 772 -184 1462h-24q-321 -729 -699 -1462z" />
    <glyph glyph-name="wgrave" unicode="&#x1e81;" horiz-adv-x="1845" 
d="M1104 1278h-100l-242 393h162zM467 0h-111l-217 1128h121q6 -31 35 -190t39 -216t30.5 -180.5t34 -223.5t25.5 -205h25q182 388 516 1015h116q6 -32 26.5 -139.5t28 -148t24.5 -134t26 -149.5t22 -137.5t23.5 -156t19.5 -150.5h23q79 171 178 369t157 309t177 337h123
l-617 -1128h-112q-134 718 -176 1001h-7q-228 -453 -530 -1001z" />
    <glyph glyph-name="Wacute" unicode="&#x1e82;" horiz-adv-x="2316" 
d="M1788 2038l-397 -318h-103l322 318h178zM606 0h-141l-242 1597h123q150 -911 205 -1472h20q232 505 705 1472h131q129 -897 188 -1472h23q336 729 719 1472h125l-809 -1597h-140q-121 772 -184 1462h-24q-321 -729 -699 -1462z" />
    <glyph glyph-name="wacute" unicode="&#x1e83;" horiz-adv-x="1845" 
d="M1470 1671l-380 -393h-99l320 393h159zM467 0h-111l-217 1128h121q6 -31 35 -190t39 -216t30.5 -180.5t34 -223.5t25.5 -205h25q182 388 516 1015h116q6 -32 26.5 -139.5t28 -148t24.5 -134t26 -149.5t22 -137.5t23.5 -156t19.5 -150.5h23q79 171 178 369t157 309
t177 337h123l-617 -1128h-112q-134 718 -176 1001h-7q-228 -453 -530 -1001z" />
    <glyph glyph-name="Wdieresis" unicode="&#x1e84;" horiz-adv-x="2316" 
d="M1186 1794q-36 0 -59 23t-23 59q0 44 35.5 78.5t79.5 34.5q36 0 57.5 -22.5t21.5 -55.5q0 -46 -34 -81.5t-78 -35.5zM1571 1794q-37 0 -59.5 22.5t-22.5 57.5q0 46 34.5 80.5t80.5 34.5q35 0 57 -23t22 -57q0 -44 -34.5 -79.5t-77.5 -35.5zM606 0h-141l-242 1597h123
q150 -911 205 -1472h20q232 505 705 1472h131q129 -897 188 -1472h23q336 729 719 1472h125l-809 -1597h-140q-121 772 -184 1462h-24q-321 -729 -699 -1462z" />
    <glyph glyph-name="wdieresis" unicode="&#x1e85;" horiz-adv-x="1845" 
d="M895 1382q-35 0 -57.5 23.5t-22.5 58.5q0 44 35 77.5t78 33.5q36 0 58 -22t22 -54q0 -46 -34.5 -81.5t-78.5 -35.5zM1241 1382q-37 0 -59.5 22.5t-22.5 57.5q0 46 34.5 79.5t80.5 33.5q33 0 55.5 -22.5t22.5 -55.5q0 -44 -34 -79.5t-77 -35.5zM467 0h-111l-217 1128h121
q6 -31 35 -190t39 -216t30.5 -180.5t34 -223.5t25.5 -205h25q182 388 516 1015h116q6 -32 26.5 -139.5t28 -148t24.5 -134t26 -149.5t22 -137.5t23.5 -156t19.5 -150.5h23q79 171 178 369t157 309t177 337h123l-617 -1128h-112q-134 718 -176 1001h-7q-228 -453 -530 -1001z
" />
    <glyph glyph-name="uni1E9E" unicode="&#x1e9e;" horiz-adv-x="1538" 
d="M223 0h-119l168 948q8 46 14.5 77t22 89t33 100.5t48.5 99.5t67 98.5t89.5 85t115.5 70.5t145 44.5t178 17.5q235 0 363.5 -96.5t128.5 -273.5q0 -169 -109 -296.5t-278 -144.5l-5 -22q143 0 233.5 -82.5t90.5 -231.5q0 -96 -39 -181.5t-114 -153.5t-197.5 -108
t-276.5 -40h-164l19 106h188q213 0 337 105t124 264q0 136 -92.5 207.5t-253.5 71.5h-106l16 100h123q163 0 270 109.5t107 267.5q0 146 -99 222.5t-282 76.5q-97 0 -179 -23.5t-137 -57.5t-100 -88t-70 -99t-45 -107.5t-27.5 -96.5t-15.5 -81z" />
    <glyph glyph-name="Ygrave" unicode="&#x1ef2;" horiz-adv-x="1402" 
d="M987 1720h-104l-285 318h180zM659 0h-118q84 454 116 592q-236 533 -434 1005h131q6 -14 43 -104t47 -114.5t43.5 -107t48.5 -120t43.5 -111.5t47 -124t41.5 -114.5t43 -123.5h22q54 79 117 166.5t105 145t123 164.5t106 139.5t124 160t111 143.5h125
q-539 -696 -788 -1005q-31 -230 -97 -592z" />
    <glyph glyph-name="ygrave" unicode="&#x1ef3;" horiz-adv-x="1095" 
d="M717 1278h-101l-241 393h162zM242 -451h-99l250 441l-258 1138h121q134 -589 201 -1038h20q245 485 563 1038h121z" />
    <glyph glyph-name="uni2000" unicode="&#x2000;" horiz-adv-x="1024" 
 />
    <glyph glyph-name="uni2001" unicode="&#x2001;" 
 />
    <glyph glyph-name="uni2002" unicode="&#x2002;" horiz-adv-x="1024" 
 />
    <glyph glyph-name="uni2003" unicode="&#x2003;" 
 />
    <glyph glyph-name="uni2004" unicode="&#x2004;" horiz-adv-x="681" 
 />
    <glyph glyph-name="uni2005" unicode="&#x2005;" horiz-adv-x="512" 
 />
    <glyph glyph-name="uni2006" unicode="&#x2006;" horiz-adv-x="342" 
 />
    <glyph glyph-name="uni2007" unicode="&#x2007;" horiz-adv-x="571" 
 />
    <glyph glyph-name="uni2008" unicode="&#x2008;" horiz-adv-x="460" 
 />
    <glyph glyph-name="uni2009" unicode="&#x2009;" horiz-adv-x="256" 
 />
    <glyph glyph-name="uni200A" unicode="&#x200a;" horiz-adv-x="86" 
 />
    <glyph glyph-name="uni200B" unicode="&#x200b;" horiz-adv-x="0" 
 />
    <glyph glyph-name="endash" unicode="&#x2013;" horiz-adv-x="1001" 
d="M889 575h-770l16 97h770z" />
    <glyph glyph-name="emdash" unicode="&#x2014;" horiz-adv-x="1431" 
d="M1319 575h-1200l16 97h1200z" />
    <glyph glyph-name="quoteleft" unicode="&#x2018;" horiz-adv-x="452" 
d="M469 1630h76q-40 -59 -61 -88.5t-58.5 -74t-77.5 -83.5q84 -14 84 -79q0 -47 -36.5 -83t-86.5 -36q-35 0 -58.5 24.5t-23.5 59.5q0 38 40.5 97t201.5 263z" />
    <glyph glyph-name="quoteright" unicode="&#x2019;" horiz-adv-x="458" 
d="M303 1190h-76q34 52 57 84.5t61 77.5t79 84q-84 16 -84 80q0 45 36 80.5t85 35.5q37 0 60.5 -23.5t23.5 -58.5q0 -38 -40.5 -97t-201.5 -263z" />
    <glyph glyph-name="quotesinglbase" unicode="&#x201a;" horiz-adv-x="428" 
d="M14 -254h-75q42 62 61.5 89.5t57 73t77.5 83.5q-84 14 -84 80q0 46 36 82t85 36q36 0 60 -24t24 -60q0 -38 -40.5 -97t-201.5 -263z" />
    <glyph glyph-name="quotedblleft" unicode="&#x201c;" horiz-adv-x="753" 
d="M469 1630h76q-40 -59 -61 -88.5t-58.5 -74t-77.5 -83.5q84 -14 84 -79q0 -47 -36.5 -83t-86.5 -36q-35 0 -58.5 24.5t-23.5 59.5q0 38 40.5 97t201.5 263zM768 1630h76q-54 -83 -95.5 -136.5t-99.5 -109.5q84 -14 84 -79q0 -46 -37 -82.5t-86 -36.5q-35 0 -58.5 24.5
t-23.5 59.5q0 37 40 96.5t200 263.5z" />
    <glyph glyph-name="quotedblright" unicode="&#x201d;" horiz-adv-x="759" 
d="M303 1190h-76q34 52 57 85t60.5 77.5t77.5 83.5q-82 14 -82 80q0 46 36 81t85 35q36 0 59 -23t23 -59q0 -38 -40.5 -99t-199.5 -261zM604 1190h-76q45 66 61.5 90t55 71t78.5 85q-84 14 -84 80q0 46 37 81t86 35q36 0 59 -23t23 -59q0 -38 -40.5 -99t-199.5 -261z" />
    <glyph glyph-name="quotedblbase" unicode="&#x201e;" horiz-adv-x="729" 
d="M14 -252h-75q42 62 61.5 89.5t57 73t77.5 83.5q-84 14 -84 80q0 47 36.5 83t86.5 36q35 0 58.5 -24.5t23.5 -59.5q0 -38 -41 -98.5t-201 -262.5zM315 -252h-75q42 62 61.5 89.5t57 73t77.5 83.5q-84 14 -84 80q0 46 36 82.5t85 36.5q36 0 60 -24t24 -60q0 -38 -41 -98.5
t-201 -262.5z" />
    <glyph glyph-name="dagger" unicode="&#x2020;" horiz-adv-x="993" 
d="M530 430h-112q6 31 27 150.5t28.5 160.5t24.5 131.5t32.5 165t34.5 158.5q-131 -12 -360 -12l18 106q230 0 355 -12q16 157 53 360h112q-38 -219 -77 -360q131 12 360 12l-16 -106q-232 0 -357 12q-36 -264 -123 -766z" />
    <glyph glyph-name="daggerdbl" unicode="&#x2021;" horiz-adv-x="1089" 
d="M1075 1290l-20 -106q-236 0 -371 22q11 -168 -51 -350q146 21 368 21l-18 -107q-229 0 -362 23q-2 -129 -43 -369h-113q3 14 11 57.5t11.5 62t12 57t15 64t17 60.5t21.5 68q-143 -23 -373 -23l19 107q222 0 364 -21q0 178 62 350q-135 -22 -373 -22l20 106q238 0 365 -22
q2 134 43 370h113q-41 -227 -99 -370q145 22 381 22z" />
    <glyph glyph-name="bullet" unicode="&#x2022;" horiz-adv-x="765" 
d="M360 426q-66 0 -108.5 44t-42.5 108q0 84 66 148.5t151 64.5q65 0 106 -42t41 -106q0 -84 -65 -150.5t-148 -66.5z" />
    <glyph glyph-name="ellipsis" unicode="&#x2026;" horiz-adv-x="1298" 
d="M147 -14q-38 0 -62 24t-24 60q0 49 36.5 84.5t86.5 35.5q36 0 59 -24t23 -60q0 -46 -36.5 -83t-82.5 -37zM565 -14q-38 0 -61 24t-23 60q0 49 36.5 84.5t84.5 35.5q36 0 60 -24t24 -60q0 -46 -37 -83t-84 -37zM985 -14q-38 0 -61 24t-23 60q0 49 36.5 84.5t84.5 35.5
q36 0 59 -24t23 -60q0 -46 -36.5 -83t-82.5 -37z" />
    <glyph glyph-name="uni202F" unicode="&#x202f;" horiz-adv-x="409" 
 />
    <glyph glyph-name="perthousand" unicode="&#x2030;" horiz-adv-x="2310" 
d="M383 803q-96 0 -151.5 72t-55.5 194q0 112 43.5 216t122 170.5t170.5 66.5q96 0 151.5 -73t55.5 -198q0 -111 -43.5 -214t-122 -168.5t-170.5 -65.5zM211 0h-107l1397 1468h98zM397 887q88 0 156 110.5t68 249.5q0 90 -32.5 139.5t-88.5 49.5q-90 0 -158 -110t-68 -249
q0 -91 32.5 -140.5t90.5 -49.5zM1182 -29q-96 0 -151.5 72.5t-55.5 194.5q0 112 43.5 216t122 170t170.5 66q96 0 151.5 -72.5t55.5 -197.5q0 -111 -43.5 -214t-122 -169t-170.5 -66zM1864 -29q-96 0 -151.5 72.5t-55.5 194.5q0 112 43.5 216t122 170t170.5 66
q96 0 151.5 -72.5t55.5 -197.5q0 -111 -43.5 -214t-122 -169t-170.5 -66zM1196 55q88 0 155.5 111t67.5 250q0 90 -32.5 139t-88.5 49q-90 0 -157.5 -109.5t-67.5 -248.5q0 -91 32.5 -141t90.5 -50zM1878 55q88 0 155.5 111t67.5 250q0 90 -32.5 139t-88.5 49
q-90 0 -157.5 -109.5t-67.5 -248.5q0 -91 32.5 -141t90.5 -50z" />
    <glyph glyph-name="guilsinglleft" unicode="&#x2039;" horiz-adv-x="733" 
d="M522 164h-133l-270 405l2 9l414 405h133q-99 -95 -150 -143.5t-132.5 -117.5t-156.5 -122l-8 -53q56 -53 113.5 -123.5t92.5 -120.5t95 -139z" />
    <glyph glyph-name="guilsinglright" unicode="&#x203a;" horiz-adv-x="735" 
d="M205 164h-133q10 10 64.5 62t73.5 70t67 62t78 69t72 59t81 61l8 53q-79 78 -147 168t-152 215h133l273 -405l-2 -9z" />
    <glyph glyph-name="fraction" unicode="&#x2044;" horiz-adv-x="264" 
d="M-471 0h-107l1397 1468h99z" />
    <glyph glyph-name="uni205F" unicode="&#x205f;" horiz-adv-x="454" 
 />
    <glyph glyph-name="uni2070" unicode="&#x2070;" horiz-adv-x="681" 
d="M383 803q-96 0 -151.5 72t-55.5 194q0 112 43.5 216t122 170.5t170.5 66.5q96 0 151.5 -73t55.5 -198q0 -111 -43.5 -214t-122 -168.5t-170.5 -65.5zM397 887q88 0 156 110.5t68 249.5q0 90 -32.5 139.5t-88.5 49.5q-90 0 -158 -110t-68 -249q0 -91 32.5 -140.5
t90.5 -49.5z" />
    <glyph glyph-name="uni2074" unicode="&#x2074;" horiz-adv-x="641" 
d="M526 817h-88l29 160h-346l14 82l426 448h88l-80 -452h99l-15 -78h-98zM539 1384l-312 -329h254z" />
    <glyph glyph-name="uni2075" unicode="&#x2075;" horiz-adv-x="630" 
d="M352 803q-90 0 -153.5 43t-73.5 115l86 40q10 -55 54 -86.5t100 -31.5q77 0 131.5 55t54.5 127q0 57 -35 91t-90 34q-97 0 -160 -84l-71 24l147 377h346l-12 -77h-283l-92 -236q27 30 74.5 48t91.5 18q78 0 130 -47.5t52 -133.5q0 -113 -88 -194.5t-209 -81.5z" />
    <glyph glyph-name="uni2076" unicode="&#x2076;" horiz-adv-x="657" 
d="M381 803q-100 0 -155.5 63t-55.5 181t53 227.5t146 178.5t198 69q108 0 158 -58l-61 -63q-41 41 -113 41q-96 0 -172.5 -76.5t-104.5 -214.5h2q28 52 87 83.5t120 31.5q80 0 135.5 -51.5t55.5 -135.5q0 -107 -86 -191.5t-207 -84.5zM399 881q72 0 128.5 57t56.5 129
q0 58 -36.5 94.5t-92.5 36.5q-73 0 -130 -57t-57 -129q0 -57 37 -94t94 -37z" />
    <glyph glyph-name="uni2077" unicode="&#x2077;" horiz-adv-x="550" 
d="M291 817h-98q24 138 132 322t244 299h-381l15 80h487l-14 -84q-142 -111 -251.5 -292t-133.5 -325z" />
    <glyph glyph-name="uni2078" unicode="&#x2078;" horiz-adv-x="647" 
d="M367 803q-96 0 -154.5 48t-58.5 122q0 69 47.5 128.5t115.5 76.5l2 4q-79 37 -79 123q0 85 74.5 151t179.5 66q83 0 136.5 -43.5t53.5 -112.5q0 -59 -36.5 -110t-96.5 -74l-2 -4q49 -13 76.5 -50.5t27.5 -91.5q0 -95 -83 -164t-203 -69zM440 1212q63 0 110.5 43t47.5 97
q0 44 -33 71t-84 27q-63 0 -108 -39.5t-45 -95.5q0 -45 31 -74t81 -29zM383 883q74 0 125 47t51 114q0 48 -33.5 76.5t-95.5 28.5q-76 0 -127 -43.5t-51 -106.5q0 -54 36.5 -85t94.5 -31z" />
    <glyph glyph-name="uni2079" unicode="&#x2079;" horiz-adv-x="667" 
d="M340 803q-131 0 -197 100l64 60q53 -82 149 -82t159.5 82t86.5 208q-29 -57 -88 -89.5t-121 -32.5q-83 0 -137.5 53t-54.5 139q0 114 90 197.5t213 83.5q92 0 147.5 -56.5t55.5 -185.5q0 -122 -49 -232t-134.5 -177.5t-183.5 -67.5zM418 1116q76 0 135 63t59 140
q0 59 -37 93t-94 34q-76 0 -133 -59.5t-57 -137.5q0 -59 35 -96t92 -37z" />
    <glyph glyph-name="uni2080" unicode="&#x2080;" horiz-adv-x="681" 
d="M190 -285q-96 0 -151 72.5t-55 194.5q0 112 43.5 216t121.5 170t170 66q96 0 151.5 -72.5t55.5 -197.5q0 -111 -43.5 -214t-122 -169t-170.5 -66zM205 -201q88 0 155.5 111t67.5 250q0 90 -32.5 139t-88.5 49q-90 0 -157.5 -109.5t-67.5 -248.5q0 -91 32.5 -141t90.5 -50
z" />
    <glyph glyph-name="uni2081" unicode="&#x2081;" horiz-adv-x="428" 
d="M145 -270h-92l92 524q-71 -68 -168 -84l17 90q70 18 122.5 62.5t61.5 97.5h88z" />
    <glyph glyph-name="uni2082" unicode="&#x2082;" horiz-adv-x="618" 
d="M399 -270h-462l4 8q28 113 80.5 170t201.5 147q166 101 166 199q0 43 -30.5 70.5t-82.5 27.5q-69 0 -121 -47t-65 -125l-82 15q17 105 97.5 172t185.5 67q87 0 140.5 -45t53.5 -121q0 -37 -13 -72t-30 -59t-44.5 -49t-45.5 -38.5t-43 -29.5q-23 -15 -62 -38t-59 -36.5
t-45.5 -33.5t-42 -43.5t-28.5 -52.5h342z" />
    <glyph glyph-name="uni2083" unicode="&#x2083;" horiz-adv-x="632" 
d="M164 -285q-90 0 -151 43.5t-70 114.5l86 39q11 -55 48 -87t99 -32q71 0 120.5 44.5t49.5 105.5q0 51 -36 77.5t-103 26.5h-70l13 70h73q69 0 116.5 40.5t47.5 100.5q0 44 -33 70t-86 26q-59 0 -103 -33.5t-63 -91.5l-79 19q24 83 100.5 134.5t167.5 51.5q82 0 137 -41
t55 -110q0 -63 -43.5 -119.5t-105.5 -73.5q51 -11 80.5 -45t29.5 -86q0 -99 -82.5 -171.5t-197.5 -72.5z" />
    <glyph glyph-name="uni2084" unicode="&#x2084;" horiz-adv-x="641" 
d="M334 -270h-88l28 159h-346l15 82l426 449h88l-80 -453h98l-14 -78h-99zM346 297l-311 -330h254z" />
    <glyph glyph-name="uni2085" unicode="&#x2085;" horiz-adv-x="630" 
d="M160 -285q-90 0 -154 43t-74 115l86 41q10 -55 54 -88t100 -33q76 0 131 56t55 128q0 57 -35 91t-90 34q-96 0 -159 -84l-72 25l148 377h346l-13 -78h-282l-92 -236q27 30 74 48t91 18q78 0 130.5 -47.5t52.5 -132.5q0 -113 -88 -195t-209 -82z" />
    <glyph glyph-name="uni2086" unicode="&#x2086;" horiz-adv-x="657" 
d="M188 -285q-100 0 -155.5 63t-55.5 181t53.5 227.5t146.5 178.5t198 69q108 0 157 -57l-61 -64q-41 41 -113 41q-96 0 -172 -76.5t-104 -214.5h2q28 52 87 83.5t120 31.5q80 0 135 -51t55 -135q0 -107 -86 -192t-207 -85zM207 -207q72 0 128 57.5t56 129.5
q0 58 -36.5 94.5t-92.5 36.5q-73 0 -129.5 -57.5t-56.5 -129.5q0 -57 37 -94t94 -37z" />
    <glyph glyph-name="uni2087" unicode="&#x2087;" horiz-adv-x="550" 
d="M98 -270h-98q24 138 132.5 321t244.5 299h-381l14 80h488l-15 -84q-142 -111 -251.5 -291.5t-133.5 -324.5z" />
    <glyph glyph-name="uni2088" unicode="&#x2088;" horiz-adv-x="647" 
d="M174 -285q-96 0 -154.5 48t-58.5 122q0 69 48 128.5t116 76.5l2 4q-80 38 -80 123t74.5 151t179.5 66q84 0 137.5 -43t53.5 -112q0 -59 -37 -110.5t-97 -74.5l-2 -4q50 -14 77.5 -50.5t27.5 -90.5q0 -95 -83.5 -164.5t-203.5 -69.5zM248 125q63 0 110.5 42.5t47.5 96.5
q0 44 -33 71t-84 27q-63 0 -108.5 -40t-45.5 -95q0 -45 31 -73.5t82 -28.5zM190 -205q74 0 125.5 47.5t51.5 114.5q0 48 -33.5 76t-95.5 28q-76 0 -127.5 -43t-51.5 -106q0 -54 36.5 -85.5t94.5 -31.5z" />
    <glyph glyph-name="uni2089" unicode="&#x2089;" horiz-adv-x="667" 
d="M147 -285q-129 0 -196 101l63 59q53 -82 150 -82q96 0 159.5 82.5t86.5 208.5q-30 -58 -88.5 -90.5t-120.5 -32.5q-83 0 -138 53.5t-55 139.5q0 114 90 197t213 83q203 0 203 -241q0 -122 -49 -232t-134.5 -178t-183.5 -68zM225 29q76 0 135.5 62.5t59.5 139.5
q0 59 -37 93t-94 34q-76 0 -133.5 -59t-57.5 -137q0 -59 35 -96t92 -37z" />
    <glyph glyph-name="Euro" unicode="&#x20ac;" horiz-adv-x="1615" 
d="M952 -35q-290 0 -443 160.5t-142 437.5q-98 -20 -246 -20l16 98q137 0 221 -23q-16 150 54 293q-90 -22 -230 -22l17 98q147 0 235 -20q58 182 165 318t268.5 215t357.5 79q279 0 430 -156l-101 -86q-125 133 -354 133q-226 0 -400.5 -132.5t-283.5 -370.5q254 20 713 20
l-17 -98q-482 0 -723 22q-11 -166 -51 -293q262 23 729 23l-16 -98q-456 0 -702 20q28 -239 161.5 -365t364.5 -126q220 0 405 133l64 -84q-211 -156 -492 -156z" />
    <glyph glyph-name="trademark" unicode="&#x2122;" horiz-adv-x="1552" 
d="M459 944h-90l104 588h-225l14 84h539l-17 -84h-221zM891 944h-90l119 672h90q23 -95 68.5 -275.5t64.5 -259.5q53 88 158.5 267.5t158.5 267.5h90l-118 -672h-93l84 467l-270 -453h-72q-10 44 -30.5 137.5t-75.5 319.5z" />
    <glyph glyph-name="oneeighth" unicode="&#x215b;" horiz-adv-x="1339" 
d="M338 817h-92l92 524q-71 -68 -168 -84l16 91q71 18 123.5 62t61.5 97h88zM-43 0h-107l1397 1468h99zM911 -29q-96 0 -154.5 48t-58.5 122q0 69 48 128.5t116 76.5l2 4q-80 38 -80 123t74.5 151t179.5 66q84 0 137.5 -43t53.5 -112q0 -59 -36.5 -110.5t-96.5 -74.5l-2 -4
q50 -14 77 -50.5t27 -90.5q0 -95 -83.5 -164.5t-203.5 -69.5zM985 381q63 0 110.5 42.5t47.5 96.5q0 44 -33 71t-84 27q-63 0 -108.5 -40t-45.5 -95q0 -45 31 -73.5t82 -28.5zM928 51q73 0 124.5 47t51.5 115q0 48 -33.5 76t-95.5 28q-76 0 -127 -43t-51 -106
q0 -54 36.5 -85.5t94.5 -31.5z" />
    <glyph glyph-name="threeeighths" unicode="&#x215c;" horiz-adv-x="1544" 
d="M356 803q-90 0 -151 43.5t-70 114.5l86 38q11 -55 48.5 -86.5t99.5 -31.5q71 0 120.5 44t49.5 105q0 51 -37 78t-103 27h-69l12 69h74q69 0 116.5 41t47.5 101q0 44 -33 70t-86 26q-59 0 -103 -33.5t-63 -91.5l-80 18q24 83 100.5 135t167.5 52q82 0 137.5 -41.5
t55.5 -110.5q0 -63 -44 -119t-106 -73q51 -11 81 -45.5t30 -85.5q0 -99 -83 -171.5t-198 -72.5zM162 0h-107l1397 1468h98zM1116 -29q-96 0 -154.5 48t-58.5 122q0 69 48 128.5t116 76.5l2 4q-80 38 -80 123t74.5 151t179.5 66q84 0 137.5 -43t53.5 -112q0 -59 -37 -110.5
t-97 -74.5l-2 -4q50 -14 77.5 -50.5t27.5 -90.5q0 -95 -83.5 -164.5t-203.5 -69.5zM1190 381q63 0 110.5 42.5t47.5 96.5q0 44 -33 71t-84 27q-63 0 -108.5 -40t-45.5 -95q0 -45 31 -73.5t82 -28.5zM1133 51q73 0 124.5 47t51.5 115q0 48 -33.5 76t-95.5 28
q-76 0 -127.5 -43t-51.5 -106q0 -54 37 -85.5t95 -31.5z" />
    <glyph glyph-name="fiveeighths" unicode="&#x215d;" horiz-adv-x="1542" 
d="M352 803q-90 0 -153.5 43t-73.5 115l86 40q10 -55 54 -86.5t100 -31.5q77 0 131.5 55t54.5 127q0 57 -35 91t-90 34q-97 0 -160 -84l-71 24l147 377h346l-12 -77h-283l-92 -236q27 30 74.5 48t91.5 18q78 0 130 -47.5t52 -133.5q0 -113 -88 -194.5t-209 -81.5zM160 0
h-107l1397 1468h98zM1114 -29q-96 0 -154.5 48t-58.5 122q0 69 48 128.5t116 76.5l2 4q-80 38 -80 123t74.5 151t179.5 66q84 0 137.5 -43t53.5 -112q0 -59 -37 -110.5t-97 -74.5l-2 -4q50 -14 77.5 -50.5t27.5 -90.5q0 -95 -83.5 -164.5t-203.5 -69.5zM1188 381
q63 0 110.5 42.5t47.5 96.5q0 44 -33 71t-84 27q-63 0 -108.5 -40t-45.5 -95q0 -45 31 -73.5t82 -28.5zM1130 51q74 0 125.5 47.5t51.5 114.5q0 48 -33.5 76t-95.5 28q-76 0 -127.5 -43t-51.5 -106q0 -54 36.5 -85.5t94.5 -31.5z" />
    <glyph glyph-name="seveneighths" unicode="&#x215e;" horiz-adv-x="1462" 
d="M291 817h-98q24 138 132 322t244 299h-381l15 80h487l-14 -84q-142 -111 -251.5 -292t-133.5 -325zM80 0h-107l1397 1468h98zM1034 -29q-96 0 -154.5 48t-58.5 122q0 69 48 128.5t116 76.5l2 4q-80 38 -80 123t74.5 151t179.5 66q84 0 137.5 -43t53.5 -112
q0 -59 -36.5 -110.5t-96.5 -74.5l-2 -4q50 -14 77 -50.5t27 -90.5q0 -95 -83.5 -164.5t-203.5 -69.5zM1108 381q63 0 110.5 42.5t47.5 96.5q0 44 -33 71t-84 27q-63 0 -108.5 -40t-45.5 -95q0 -45 31 -73.5t82 -28.5zM1051 51q73 0 124.5 47t51.5 115q0 48 -33.5 76
t-95.5 28q-76 0 -127 -43t-51 -106q0 -54 36.5 -85.5t94.5 -31.5z" />
    <glyph glyph-name="arrowleft" unicode="&#x2190;" horiz-adv-x="1429" 
d="M539 236h-136l-268 405l2 8l412 406h135q-12 -11 -60 -57t-66 -63t-62 -58t-73 -66.5t-71.5 -62t-83.5 -70.5q342 22 1059 22l-20 -112q-714 0 -1049 22q129 -152 281 -374z" />
    <glyph glyph-name="arrowup" unicode="&#x2191;" horiz-adv-x="995" 
d="M459 20h-113q127 712 209 1055q-199 -174 -438 -348l24 135l465 340h8l347 -340l-25 -135q-193 193 -313 346q-38 -328 -164 -1053z" />
    <glyph glyph-name="arrowright" unicode="&#x2192;" horiz-adv-x="1425" 
d="M909 236h-135q5 5 42 40.5t44.5 42.5t40 38t45 42t42 38t48 43t46 40t53 45.5t53.5 44.5q-342 -22 -1057 -22l21 112q715 0 1050 -22q-144 166 -282 377h135l268 -406l-2 -8z" />
    <glyph glyph-name="arrowdown" unicode="&#x2193;" horiz-adv-x="999" 
d="M410 20h-9l-346 340l25 136q5 -5 47 -48.5t53.5 -55.5t47.5 -51t56 -62.5t50.5 -60t58.5 -71.5q12 105 26.5 209.5t34 226t31.5 195.5t37.5 222t34.5 202h113q-127 -718 -207 -1052q200 175 436 346l-25 -136z" />
    <glyph glyph-name="arrowboth" unicode="&#x2194;" horiz-adv-x="1787" 
d="M537 231h-138l-268 406l2 8l412 406h137q-54 -50 -116 -109.5t-144 -139t-133 -128.5q628 34 1251 0q-163 233 -258 377h135l269 -406l-3 -8l-411 -406h-135q36 35 113.5 111t142.5 138.5t133 125.5q-628 -30 -1245 0q52 -74 135.5 -198t120.5 -177z" />
    <glyph glyph-name="arrowupdn" unicode="&#x2195;" horiz-adv-x="1091" 
d="M453 0h-9l-346 338l25 133q200 -200 317 -321q69 557 193 1087q-89 -66 -228 -169.5t-206 -152.5l24 134l465 337h8l346 -337l-24 -134q-53 55 -161 163l-157 157q-64 -541 -190 -1083q104 79 256.5 190.5t175.5 128.5l-24 -133z" />
    <glyph glyph-name="uni2196" unicode="&#x2196;" horiz-adv-x="1218" 
d="M1067 135l-98 -55q-444 527 -668 829q-28 -196 -98 -456l-90 104l131 467l6 4l573 -61l88 -105q-292 31 -553 84q41 -43 80 -85t83.5 -92t74 -83t81.5 -93t73.5 -84.5t81.5 -95.5t73.5 -87t83 -98t78.5 -93z" />
    <glyph glyph-name="uni2197" unicode="&#x2197;" horiz-adv-x="1122" 
d="M150 80l-99 55q9 11 78.5 93t83 98t73.5 87t81.5 95.5t73.5 84.5t81.5 93t74 83t83.5 92t80 85q-263 -53 -555 -84l90 105l573 61l6 -4l130 -467l-89 -104q-70 260 -98 456q-201 -271 -667 -829z" />
    <glyph glyph-name="uni2198" unicode="&#x2198;" horiz-adv-x="1224" 
d="M170 1085l96 56q435 -517 670 -830q26 197 96 457l90 -104l-129 -467l-8 -4l-573 61l-88 104q292 -31 553 -84q-116 122 -249 273.5t-213 246t-245 291.5z" />
    <glyph glyph-name="uni2199" unicode="&#x2199;" horiz-adv-x="1124" 
d="M991 1141l96 -56q-457 -546 -706 -811q261 53 553 84l-88 -104l-574 -61l-8 4l-129 467l90 104q72 -267 97 -457q223 300 669 830z" />
    <glyph glyph-name="emptyset" unicode="&#x2205;" horiz-adv-x="1421" 
d="M1266 1255l67 -57l-153 -174q120 -129 120 -342q0 -139 -54.5 -270t-146.5 -229.5t-221.5 -158t-271.5 -59.5q-170 0 -291 82l-155 -174l-70 57l156 176q-123 129 -123 343q0 186 91.5 350.5t253 265t351.5 100.5q171 0 293 -84zM240 467q0 -159 88 -268l704 794
q-96 68 -231 68q-150 0 -280.5 -84t-205.5 -221t-75 -289zM1184 662q0 164 -86 270l-705 -795q98 -67 234 -67q150 0 279.5 83.5t203.5 220t74 288.5z" />
    <glyph glyph-name="minus" unicode="&#x2212;" horiz-adv-x="985" 
d="M850 571h-711l19 107h710z" />
    <glyph glyph-name="infinity" unicode="&#x221e;" horiz-adv-x="1855" 
d="M446 287q-133 0 -217 77.5t-84 202.5q0 156 125.5 276t294.5 120q103 0 181 -58.5t206 -210.5q177 150 278.5 209.5t205.5 59.5q128 0 212.5 -76.5t84.5 -202.5q0 -103 -56.5 -194.5t-153 -147t-206.5 -55.5q-107 0 -185.5 58t-203.5 210q-176 -149 -277 -208.5
t-205 -59.5zM451 387q45 0 86 11t87 39t74.5 49t87.5 69t88 70q-21 23 -54 59.5t-51.5 57t-48 47t-54 40t-57.5 23.5t-70 10q-119 0 -199 -82.5t-80 -201.5q0 -93 51.5 -142t139.5 -49zM1341 387q118 0 198.5 83t80.5 202q0 91 -51.5 140.5t-141.5 49.5q-38 0 -75.5 -10
t-66.5 -23t-68.5 -40.5t-64 -46.5t-71.5 -57.5t-73 -59.5q20 -22 52.5 -59t51 -57.5t48 -47t53.5 -40.5t57.5 -24t70.5 -10z" />
    <glyph glyph-name="approxequal" unicode="&#x2248;" horiz-adv-x="1046" 
d="M295 735h-105q22 116 100 178t169 62q42 0 76 -14.5t56 -35.5t42 -41.5t44.5 -35t53.5 -14.5q53 0 85 41t40 100h105q-21 -119 -90.5 -180.5t-159.5 -61.5q-44 0 -78.5 15t-56.5 36t-42 42t-45.5 36t-56.5 15q-55 0 -90.5 -40t-46.5 -102zM223 322h-104q14 79 57.5 135
t97 80t111.5 24q42 0 75.5 -14.5t55 -35.5t41.5 -41.5t45 -35t55 -14.5q52 0 84 39.5t43 101.5h105q-22 -120 -91.5 -181t-160.5 -61q-43 0 -77.5 15t-56.5 36t-42 42t-45.5 36t-55.5 15q-56 0 -90.5 -40t-46.5 -101z" />
    <glyph glyph-name="notequal" unicode="&#x2260;" horiz-adv-x="1034" 
d="M928 883l-19 -107h-262q-58 -166 -166 -307h375l-18 -104h-412q-13 -69 -78 -185h-102q65 123 121 185h-240l18 104h277q55 164 164 307h-387l18 107h426q11 56 74 176h104q-2 -4 -20.5 -37t-27 -46.5t-28 -41t-40.5 -51.5h223z" />
    <glyph glyph-name="lessequal" unicode="&#x2264;" horiz-adv-x="1030" 
d="M831 362h-706l16 93h484l-451 182l19 104l737 185l-19 -105l-587 -143l524 -221z" />
    <glyph glyph-name="greaterequal" unicode="&#x2265;" horiz-adv-x="1032" 
d="M838 362h-707l16 95l603 221l-537 143l18 105l672 -185l-18 -104l-514 -182h481z" />
    <glyph glyph-name="lozenge" unicode="&#x25ca;" horiz-adv-x="1161" 
d="M526 0h-90l-289 694l535 692h90l291 -692zM272 694l230 -561h8l428 561l-229 559h-9z" />
    <glyph glyph-name="A.ss01" horiz-adv-x="1501" 
d="M59 0h-125l918 1597h166l352 -1597h-127q-89 372 -110 588l-17 18q-244 -22 -350 -22q-145 0 -356 22l-23 -20q-142 -275 -328 -586zM444 690l11 -20q230 20 333 20q113 0 293 -20l15 18q-85 393 -111 572q-18 123 -27 235h-84q-61 -137 -140.5 -289t-136 -251.5
t-153.5 -264.5z" />
    <glyph glyph-name="Aacute.ss01" horiz-adv-x="1501" 
d="M1380 2038l-397 -318h-102l321 318h178zM59 0h-125l918 1597h166l352 -1597h-127q-89 372 -110 588l-17 18q-244 -22 -350 -22q-145 0 -356 22l-23 -20q-142 -275 -328 -586zM444 690l11 -20q230 20 333 20q113 0 293 -20l15 18q-85 393 -111 572q-18 123 -27 235h-84
q-61 -137 -140.5 -289t-136 -251.5t-153.5 -264.5z" />
    <glyph glyph-name="Abreve.ss01" horiz-adv-x="1501" 
d="M956 1726q-83 0 -149 29.5t-103.5 76.5t-54.5 102.5t-10 111.5h104q-9 -87 56 -155t174 -68q108 0 197 68t112 155h104q-13 -56 -49.5 -111.5t-90.5 -102.5t-130 -76.5t-160 -29.5zM59 0h-125l918 1597h166l352 -1597h-127q-89 372 -110 588l-17 18q-244 -22 -350 -22
q-145 0 -356 22l-23 -20q-142 -275 -328 -586zM444 690l11 -20q230 20 333 20q113 0 293 -20l15 18q-85 393 -111 572q-18 123 -27 235h-84q-61 -137 -140.5 -289t-136 -251.5t-153.5 -264.5z" />
    <glyph glyph-name="Acircumflex.ss01" horiz-adv-x="1501" 
d="M721 1720h-105l318 297h151l213 -297h-102q-47 53 -68.5 78t-52 70.5t-51.5 93.5h-45q-38 -47 -89.5 -96.5t-77.5 -71t-91 -74.5zM59 0h-125l918 1597h166l352 -1597h-127q-89 372 -110 588l-17 18q-244 -22 -350 -22q-145 0 -356 22l-23 -20q-142 -275 -328 -586z
M444 690l11 -20q230 20 333 20q113 0 293 -20l15 18q-85 393 -111 572q-18 123 -27 235h-84q-61 -137 -140.5 -289t-136 -251.5t-153.5 -264.5z" />
    <glyph glyph-name="Adieresis.ss01" horiz-adv-x="1501" 
d="M778 1794q-36 0 -59 23t-23 59q0 44 35.5 78.5t79.5 34.5q36 0 58 -22.5t22 -55.5q0 -46 -34.5 -81.5t-78.5 -35.5zM1163 1794q-37 0 -59.5 22.5t-22.5 57.5q0 46 34.5 80.5t80.5 34.5q35 0 57.5 -23t22.5 -57q0 -44 -35 -79.5t-78 -35.5zM59 0h-125l918 1597h166
l352 -1597h-127q-89 372 -110 588l-17 18q-244 -22 -350 -22q-145 0 -356 22l-23 -20q-142 -275 -328 -586zM444 690l11 -20q230 20 333 20q113 0 293 -20l15 18q-85 393 -111 572q-18 123 -27 235h-84q-61 -137 -140.5 -289t-136 -251.5t-153.5 -264.5z" />
    <glyph glyph-name="Agrave.ss01" horiz-adv-x="1501" 
d="M1036 1720h-104l-285 318h180zM59 0h-125l918 1597h166l352 -1597h-127q-89 372 -110 588l-17 18q-244 -22 -350 -22q-145 0 -356 22l-23 -20q-142 -275 -328 -586zM444 690l11 -20q230 20 333 20q113 0 293 -20l15 18q-85 393 -111 572q-18 123 -27 235h-84
q-61 -137 -140.5 -289t-136 -251.5t-153.5 -264.5z" />
    <glyph glyph-name="Amacron.ss01" horiz-adv-x="1501" 
d="M1307 1839h-658l19 100h657zM59 0h-125l918 1597h166l352 -1597h-127q-89 372 -110 588l-17 18q-244 -22 -350 -22q-145 0 -356 22l-23 -20q-142 -275 -328 -586zM444 690l11 -20q230 20 333 20q113 0 293 -20l15 18q-85 393 -111 572q-18 123 -27 235h-84
q-61 -137 -140.5 -289t-136 -251.5t-153.5 -264.5z" />
    <glyph glyph-name="Aogonek.ss01" horiz-adv-x="1501" 
d="M1298 -379q40 0 93 14l-17 -84q-57 -14 -98 -14q-101 0 -165 50.5t-64 140.5q0 161 204 272h-8q-89 372 -110 588l-17 18q-244 -22 -350 -22q-145 0 -356 22l-23 -20q-142 -275 -328 -586h-125l918 1597h166l352 -1597h-10q-219 -105 -219 -248q0 -60 44 -95.5t113 -35.5
zM1081 670l15 18q-85 393 -111 572q-18 123 -27 235h-84q-61 -137 -140.5 -289t-136 -251.5t-153.5 -264.5l11 -20q230 20 333 20q113 0 293 -20z" />
    <glyph glyph-name="Aring.ss01" horiz-adv-x="1501" 
d="M954 1714q-83 0 -133.5 49t-50.5 129q0 101 77 176.5t185 75.5q83 0 134 -49t51 -129q0 -100 -78 -176t-185 -76zM971 1798q67 0 114.5 47t47.5 113q0 47 -32.5 74.5t-84.5 27.5q-69 0 -115.5 -45.5t-46.5 -111.5q0 -49 32 -77t85 -28zM59 0h-125l918 1597h166l352 -1597
h-127q-89 372 -110 588l-17 18q-244 -22 -350 -22q-145 0 -356 22l-23 -20q-142 -275 -328 -586zM444 690l11 -20q230 20 333 20q113 0 293 -20l15 18q-85 393 -111 572q-18 123 -27 235h-84q-61 -137 -140.5 -289t-136 -251.5t-153.5 -264.5z" />
    <glyph glyph-name="Atilde.ss01" horiz-adv-x="1501" 
d="M1110 1751q-16 0 -30 2t-27 7t-21 9t-20 13.5t-16.5 13.5t-17.5 17t-17 16l-33 33q-3 3 -12.5 12t-14 13t-13.5 10.5t-15.5 9.5t-16.5 5.5t-20 2.5q-50 0 -88 -42t-50 -108h-88q22 106 90 172t156 66q43 0 73 -18t62 -52l37 -37q52 -57 105 -57q49 0 84.5 42t46.5 108h88
q-21 -108 -85.5 -173t-156.5 -65zM59 0h-125l918 1597h166l352 -1597h-127q-89 372 -110 588l-17 18q-244 -22 -350 -22q-145 0 -356 22l-23 -20q-142 -275 -328 -586zM444 690l11 -20q230 20 333 20q113 0 293 -20l15 18q-85 393 -111 572q-18 123 -27 235h-84
q-61 -137 -140.5 -289t-136 -251.5t-153.5 -264.5z" />
    <glyph glyph-name="B.ss01" horiz-adv-x="1458" 
d="M764 0h-639l283 1597h557q213 0 327.5 -100.5t114.5 -251.5q0 -149 -101 -264.5t-264 -153.5l-6 -32q149 -23 220 -105.5t71 -197.5q0 -127 -75 -240t-205.5 -182.5t-282.5 -69.5zM375 856l14 -22q153 22 434 22q203 0 330 106t127 252q0 127 -98.5 202t-263.5 75h-53
h-58.5t-52.5 0.5t-61 2t-56 3.5t-66 5.5t-63 8.5l-23 -18q-24 -308 -110 -637zM242 106l14 -20q178 20 483 20q104 0 192 30t146 80.5t90.5 116.5t32.5 138q0 127 -97 203t-267 76q-302 0 -457 22l-23 -22q-35 -356 -114 -644z" />
    <glyph glyph-name="C.ss01" horiz-adv-x="1722" 
d="M811 -35q-310 0 -492 180.5t-182 483.5q0 192 76 374.5t203.5 320.5t306.5 222t373 84q111 0 212 -28t186 -83t143 -145t75 -205l-113 -43q-40 187 -183.5 290.5t-340.5 103.5q-133 0 -258 -48t-223.5 -132.5t-173 -194t-114.5 -239t-40 -261.5q0 -141 47 -252
t128.5 -179t184 -103t220.5 -35q129 0 245.5 41t206 112t157.5 158t114 188l96 -38q-57 -119 -138 -219.5t-186.5 -181t-241.5 -126t-288 -45.5z" />
    <glyph glyph-name="D.ss01" horiz-adv-x="1652" 
d="M696 0h-571l283 1597h553q165 0 288 -44t198 -126.5t111.5 -193t36.5 -250.5q0 -150 -41 -294.5t-120 -268.5t-186.5 -218.5t-250 -148t-301.5 -53.5zM242 106l14 -20q176 20 469 20q133 0 251.5 46.5t207.5 127.5t154 188t98.5 231t33.5 253q0 261 -140 400t-410 139
q-267 0 -412 20l-23 -18q-86 -695 -243 -1387z" />
    <glyph glyph-name="E.ss01" horiz-adv-x="1347" 
d="M1145 0h-1020l283 1597h999l-21 -106q-53 0 -206.5 -1t-231.5 -0.5t-204.5 5.5t-235.5 16l-23 -18q-24 -309 -106 -616l12 -23q307 23 846 23l-18 -109q-543 0 -838 23l-21 -23q-31 -338 -118 -662l14 -20q326 27 907 27z" />
    <glyph glyph-name="F.ss01" horiz-adv-x="1277" 
d="M244 0h-119l283 1597h978l-22 -114q-196 0 -290 0.5t-260 7.5t-306 20l-23 -18q-23 -316 -110 -629l12 -22q288 22 827 22l-18 -108q-535 0 -817 22l-23 -22q-34 -322 -112 -756z" />
    <glyph glyph-name="G.ss01" horiz-adv-x="1755" 
d="M807 -35q-207 0 -360 83t-232.5 232.5t-79.5 346.5q0 193 76 376.5t204 321t306.5 221.5t372.5 84q110 0 211 -28t186.5 -83t144 -145t76.5 -205l-115 -43q-40 187 -183.5 290.5t-340.5 103.5q-133 0 -257.5 -47.5t-223 -131t-172.5 -192.5t-114 -239t-40 -263
q0 -265 154.5 -418t423.5 -153q281 0 476 166.5t267 447.5l-6 17q-347 -39 -602 -39l16 104h699l-8 -41q-29 -160 -93 -290t-150 -217.5t-192.5 -146.5t-217 -85.5t-226.5 -26.5z" />
    <glyph glyph-name="H.ss01" horiz-adv-x="1654" 
d="M244 0h-119l283 1597h118q-4 -22 -23 -127t-24.5 -134.5t-21.5 -112.5t-26 -127t-24.5 -108t-29.5 -120l14 -22q524 29 973 0l22 22q31 288 111 729h119l-283 -1597h-119q88 499 154 758l-14 22q-465 -51 -973 0l-23 -22q-26 -263 -114 -758z" />
    <glyph glyph-name="I.ss01" horiz-adv-x="1081" 
d="M907 0h-932l21 106q271 0 414 -20q114 736 254 1425q-158 -20 -435 -20l19 106h952l-18 -106q-276 0 -426 20q-104 -687 -252 -1425q152 20 424 20z" />
    <glyph glyph-name="Iacute.ss01" horiz-adv-x="1081" 
d="M1163 2038l-397 -318h-102l321 318h178zM907 0h-932l21 106q271 0 414 -20q114 736 254 1425q-158 -20 -435 -20l19 106h952l-18 -106q-276 0 -426 20q-104 -687 -252 -1425q152 20 424 20z" />
    <glyph glyph-name="Icircumflex.ss01" horiz-adv-x="1081" 
d="M512 1720h-104l317 297h152l213 -297h-103q-47 53 -68.5 78t-52 70.5t-51.5 93.5h-45q-38 -47 -89.5 -96.5t-77.5 -71t-91 -74.5zM907 0h-932l21 106q271 0 414 -20q114 736 254 1425q-158 -20 -435 -20l19 106h952l-18 -106q-276 0 -426 20q-104 -687 -252 -1425
q152 20 424 20z" />
    <glyph glyph-name="Idieresis.ss01" horiz-adv-x="1081" 
d="M569 1794q-36 0 -59 23t-23 59q0 44 35.5 78.5t79.5 34.5q36 0 58 -22.5t22 -55.5q0 -46 -34.5 -81.5t-78.5 -35.5zM954 1794q-37 0 -59.5 22.5t-22.5 57.5q0 46 34.5 80.5t80.5 34.5q35 0 57.5 -23t22.5 -57q0 -44 -35 -79.5t-78 -35.5zM907 0h-932l21 106
q271 0 414 -20q114 736 254 1425q-158 -20 -435 -20l19 106h952l-18 -106q-276 0 -426 20q-104 -687 -252 -1425q152 20 424 20z" />
    <glyph glyph-name="Idotaccent.ss01" horiz-adv-x="1081" 
d="M758 1790q-38 0 -62 24.5t-24 61.5q0 48 37 84.5t86 36.5q38 0 62 -24t24 -60q0 -47 -38 -85t-85 -38zM907 0h-932l21 106q271 0 414 -20q114 736 254 1425q-158 -20 -435 -20l19 106h952l-18 -106q-276 0 -426 20q-104 -687 -252 -1425q152 20 424 20z" />
    <glyph glyph-name="Igrave.ss01" horiz-adv-x="1081" 
d="M827 1720h-104l-285 318h180zM907 0h-932l21 106q271 0 414 -20q114 736 254 1425q-158 -20 -435 -20l19 106h952l-18 -106q-276 0 -426 20q-104 -687 -252 -1425q152 20 424 20z" />
    <glyph glyph-name="Imacron.ss01" horiz-adv-x="1081" 
d="M1098 1839h-658l19 100h657zM907 0h-932l21 106q271 0 414 -20q114 736 254 1425q-158 -20 -435 -20l19 106h952l-18 -106q-276 0 -426 20q-104 -687 -252 -1425q152 20 424 20z" />
    <glyph glyph-name="J.ss01" horiz-adv-x="1175" 
d="M426 -35q-58 0 -110.5 10.5t-104.5 35.5t-89 65t-63.5 99t-28 138.5t18.5 182.5l4 22l113 14l-4 -20q-17 -88 -17.5 -155t20.5 -115.5t49.5 -81.5t68.5 -52.5t77 -27.5t76 -8q155 0 263 113t145 313q111 630 196 997l-6 23q-228 -27 -567 -27l20 106h668l-188 -1065
q-4 -26 -8.5 -48.5t-16.5 -66.5t-25.5 -81t-37.5 -85t-52 -86t-69 -77t-88 -64.5t-110 -42t-134 -16.5z" />
    <glyph glyph-name="K.ss01" horiz-adv-x="1339" 
d="M244 0h-119l283 1597h118q-93 -521 -147 -766h12q619 502 952 766h156q-744 -588 -1020 -798l-4 -21q124 -114 272 -260t245 -245.5t263 -272.5h-163q-181 181 -258 258.5t-212 222t-247 275.5h-8q-45 -324 -123 -756z" />
    <glyph glyph-name="L.ss01" horiz-adv-x="1206" 
d="M1083 0h-958l283 1597h118q-4 -21 -46.5 -260.5t-57.5 -320.5t-50.5 -271.5t-66 -339.5t-63.5 -299l14 -20q303 27 846 27z" />
    <glyph glyph-name="M.ss01" horiz-adv-x="1910" 
d="M244 0h-119l283 1597h139q220 -567 381 -1130h22q371 578 783 1130h139l-283 -1597h-119q13 77 53.5 315.5t64 373t65 339.5t82.5 371h-21l-737 -1039h-111l-372 1039h-23q-17 -168 -46.5 -365.5t-54 -335.5t-66 -363.5t-60.5 -334.5z" />
    <glyph glyph-name="N.ss01" horiz-adv-x="1693" 
d="M244 0h-119l283 1597h188q424 -938 655 -1501h39q89 630 246 1501h117l-283 -1597h-186q-12 27 -68.5 150t-70.5 154.5t-63.5 141t-67.5 150t-62 138t-66.5 149.5t-61 140.5t-66 154t-62 147t-66.5 160.5h-45q-92 -652 -241 -1485z" />
    <glyph glyph-name="O.ss01" horiz-adv-x="1818" 
d="M805 -35q-144 0 -268 49.5t-212.5 138t-139 215t-50.5 275.5q0 188 79 369.5t209 316.5t308.5 218t366.5 83q196 0 348.5 -88t235.5 -243t83 -351q0 -125 -36 -249.5t-99.5 -232t-153.5 -201t-195 -159.5t-228 -103.5t-248 -37.5zM825 76q157 0 306.5 72.5t259 191
t176.5 275.5t67 319q0 258 -157 422t-400 164q-124 0 -246 -46t-222.5 -128t-178 -188.5t-121 -235.5t-43.5 -260q0 -172 73 -306t200 -207t286 -73z" />
    <glyph glyph-name="P.ss01" horiz-adv-x="1361" 
d="M244 0h-119l283 1597h550q22 0 42 -1t68.5 -8t87.5 -20t87.5 -41.5t81.5 -67t55.5 -100.5t22.5 -140q0 -112 -43.5 -216t-119 -182t-184.5 -125t-233 -47q-123 0 -183.5 1t-143 8.5t-154.5 23.5q-27 -288 -98 -682zM358 756l15 -23q158 23 430 23q206 0 339.5 121.5
t133.5 306.5q0 150 -95 228.5t-266 78.5q-262 0 -407 20l-23 -18q-39 -384 -127 -737z" />
    <glyph glyph-name="Q.ss01" horiz-adv-x="1832" 
d="M610 -8q-151 -151 -286 -275l-5 -22q181 17 389.5 26t338.5 10t364 1l-18 -103h-1287q138 130 410 394q-176 72 -275.5 230t-99.5 380q0 127 33.5 252t94 235t148.5 204t193.5 161.5t233 106t262.5 38.5q308 0 489 -182t181 -487q0 -192 -74.5 -373.5t-201 -318
t-307 -219.5t-380.5 -83q-105 0 -203 25zM266 653q0 -200 90.5 -340t249.5 -200q253 247 490 493l71 -69q-40 -40 -201.5 -200t-256.5 -253q65 -10 125 -10q113 0 220.5 33.5t196.5 92.5t164 141t126 177.5t79.5 204.5t28.5 219q0 268 -155 425t-407 157q-168 0 -322 -73.5
t-262.5 -193.5t-172.5 -279t-64 -325z" />
    <glyph glyph-name="R.ss01" horiz-adv-x="1404" 
d="M244 0h-119l283 1597h550q212 0 328.5 -102.5t116.5 -296.5q0 -123 -47.5 -220.5t-129.5 -161t-196 -103t-244 -53t-276 -5.5q147 -128 735 -655h-168q-52 47 -216.5 195t-285.5 259t-225 212h-10q-23 -259 -96 -666zM358 754l13 -23q168 21 434 21q205 1 337 124.5
t132 307.5q0 150 -94 228.5t-262 78.5q-253 0 -410 20l-23 -18q-34 -369 -127 -739z" />
    <glyph glyph-name="S.ss01" horiz-adv-x="1310" 
d="M575 -35q-72 0 -138 14t-131.5 48.5t-115 86t-84.5 133.5t-45 185l115 41q17 -190 132 -293.5t292 -103.5q195 0 329 112t134 267q0 27 -5.5 51.5t-12.5 43t-22 36.5t-26.5 30t-34 25t-36 20.5t-41 17.5t-41 14.5t-43.5 14t-41 13.5l-142 47q-37 12 -64.5 22t-68.5 29
t-71 38.5t-63 49.5t-54 63.5t-35 78.5t-14 96q0 129 77 240t212.5 178t296.5 67q202 0 322.5 -104t139.5 -279l-112 -45q-21 145 -121 231.5t-258 86.5q-181 0 -305.5 -102t-124.5 -242q0 -40 13 -75.5t29 -60.5t47.5 -50t51.5 -38t58.5 -30t50.5 -21t45 -16l145 -49
q139 -46 180 -66q158 -73 191 -202q10 -38 10 -81q0 -132 -82.5 -252t-227 -195t-311.5 -75z" />
    <glyph glyph-name="U.ss01" horiz-adv-x="1564" 
d="M655 -35q-257 0 -378 155.5t-68 450.5l180 1026h119l-180 -1019q-44 -258 51 -382t305 -124q213 0 355 124t186 382l182 1019h117l-283 -1597h-117q5 28 12.5 59t14 53.5t19.5 69.5t22 78h-23q-92 -158 -217.5 -226.5t-296.5 -68.5z" />
    <glyph glyph-name="Uacute.ss01" horiz-adv-x="1564" 
d="M1272 2038l-398 -318h-102l322 318h178zM655 -35q-257 0 -378 155.5t-68 450.5l180 1026h119l-180 -1019q-44 -258 51 -382t305 -124q213 0 355 124t186 382l182 1019h117l-283 -1597h-117q5 28 12.5 59t14 53.5t19.5 69.5t22 78h-23q-92 -158 -217.5 -226.5
t-296.5 -68.5z" />
    <glyph glyph-name="Ucircumflex.ss01" horiz-adv-x="1564" 
d="M735 1720h-104l317 297h152l213 -297h-103q-47 53 -68.5 78t-52 70.5t-51.5 93.5h-45q-38 -47 -89.5 -96.5t-77.5 -71t-91 -74.5zM655 -35q-257 0 -378 155.5t-68 450.5l180 1026h119l-180 -1019q-44 -258 51 -382t305 -124q213 0 355 124t186 382l182 1019h117
l-283 -1597h-117q5 28 12.5 59t14 53.5t19.5 69.5t22 78h-23q-92 -158 -217.5 -226.5t-296.5 -68.5z" />
    <glyph glyph-name="Udieresis.ss01" horiz-adv-x="1564" 
d="M795 1794q-36 0 -59 23t-23 59q0 44 35 78.5t79 34.5q36 0 58 -22.5t22 -55.5q0 -46 -34 -81.5t-78 -35.5zM1180 1794q-37 0 -59.5 22.5t-22.5 57.5q0 46 34 80.5t80 34.5q35 0 57.5 -23t22.5 -57q0 -44 -34.5 -79.5t-77.5 -35.5zM655 -35q-257 0 -378 155.5t-68 450.5
l180 1026h119l-180 -1019q-44 -258 51 -382t305 -124q213 0 355 124t186 382l182 1019h117l-283 -1597h-117q5 28 12.5 59t14 53.5t19.5 69.5t22 78h-23q-92 -158 -217.5 -226.5t-296.5 -68.5z" />
    <glyph glyph-name="Ugrave.ss01" horiz-adv-x="1564" 
d="M1053 1720h-105l-284 318h180zM655 -35q-257 0 -378 155.5t-68 450.5l180 1026h119l-180 -1019q-44 -258 51 -382t305 -124q213 0 355 124t186 382l182 1019h117l-283 -1597h-117q5 28 12.5 59t14 53.5t19.5 69.5t22 78h-23q-92 -158 -217.5 -226.5t-296.5 -68.5z" />
    <glyph glyph-name="Uhungarumlaut.ss01" horiz-adv-x="1564" 
d="M1171 2038l-329 -318h-103l269 318h163zM1470 2038l-348 -318h-102l287 318h163zM655 -35q-257 0 -378 155.5t-68 450.5l180 1026h119l-180 -1019q-44 -258 51 -382t305 -124q213 0 355 124t186 382l182 1019h117l-283 -1597h-117q5 28 12.5 59t14 53.5t19.5 69.5t22 78
h-23q-92 -158 -217.5 -226.5t-296.5 -68.5z" />
    <glyph glyph-name="Umacron.ss01" horiz-adv-x="1564" 
d="M1323 1839h-657l18 100h657zM655 -35q-257 0 -378 155.5t-68 450.5l180 1026h119l-180 -1019q-44 -258 51 -382t305 -124q213 0 355 124t186 382l182 1019h117l-283 -1597h-117q5 28 12.5 59t14 53.5t19.5 69.5t22 78h-23q-92 -158 -217.5 -226.5t-296.5 -68.5z" />
    <glyph glyph-name="Uogonek.ss01" horiz-adv-x="1564" 
d="M1018 -248q0 -60 44.5 -95.5t113.5 -35.5q40 0 92 14l-17 -84q-57 -14 -98 -14q-101 0 -165 50.5t-64 140.5q0 161 204 272h-4q5 28 12.5 59t14 53.5t19.5 69.5t22 78h-23q-92 -158 -217.5 -226.5t-296.5 -68.5q-257 0 -378 155.5t-68 450.5l180 1026h119l-180 -1019
q-44 -258 51 -382t305 -124q213 0 355 124t186 382l182 1019h117l-283 -1597h-4q-219 -105 -219 -248z" />
    <glyph glyph-name="Uring.ss01" horiz-adv-x="1564" 
d="M971 1714q-83 0 -134 49t-51 129q0 101 77.5 176.5t185.5 75.5q83 0 133.5 -49t50.5 -129q0 -100 -77.5 -176t-184.5 -76zM987 1798q67 0 114.5 47t47.5 113q0 47 -32.5 74.5t-84.5 27.5q-69 0 -115.5 -45.5t-46.5 -111.5q0 -49 32 -77t85 -28zM655 -35
q-257 0 -378 155.5t-68 450.5l180 1026h119l-180 -1019q-44 -258 51 -382t305 -124q213 0 355 124t186 382l182 1019h117l-283 -1597h-117q5 28 12.5 59t14 53.5t19.5 69.5t22 78h-23q-92 -158 -217.5 -226.5t-296.5 -68.5z" />
    <glyph glyph-name="V.ss01" horiz-adv-x="1503" 
d="M754 0h-203l-334 1597h127q228 -1144 291 -1482h84q354 658 809 1482h125z" />
    <glyph glyph-name="W.ss01" horiz-adv-x="2316" 
d="M610 0h-145l-242 1597h123l215 -1445h8l664 1445h235l142 -1445h8l719 1445h125l-809 -1597h-144l-135 1483h-86z" />
    <glyph glyph-name="Wacute.ss01" horiz-adv-x="2316" 
d="M1788 2038l-397 -318h-103l322 318h178zM610 0h-145l-242 1597h123l215 -1445h8l664 1445h235l142 -1445h8l719 1445h125l-809 -1597h-144l-135 1483h-86z" />
    <glyph glyph-name="Wcircumflex.ss01" horiz-adv-x="2316" 
d="M1126 1720h-104l317 297h152l213 -297h-102q-47 53 -68.5 78t-52 70.5t-51.5 93.5h-46q-38 -47 -89.5 -96.5t-77.5 -71t-91 -74.5zM610 0h-145l-242 1597h123l215 -1445h8l664 1445h235l142 -1445h8l719 1445h125l-809 -1597h-144l-135 1483h-86z" />
    <glyph glyph-name="Wdieresis.ss01" horiz-adv-x="2316" 
d="M1186 1794q-36 0 -59 23t-23 59q0 44 35.5 78.5t79.5 34.5q36 0 57.5 -22.5t21.5 -55.5q0 -46 -34 -81.5t-78 -35.5zM1571 1794q-37 0 -59.5 22.5t-22.5 57.5q0 46 34.5 80.5t80.5 34.5q35 0 57 -23t22 -57q0 -44 -34.5 -79.5t-77.5 -35.5zM610 0h-145l-242 1597h123
l215 -1445h8l664 1445h235l142 -1445h8l719 1445h125l-809 -1597h-144l-135 1483h-86z" />
    <glyph glyph-name="Wgrave.ss01" horiz-adv-x="2316" 
d="M1444 1720h-105l-284 318h180zM610 0h-145l-242 1597h123l215 -1445h8l664 1445h235l142 -1445h8l719 1445h125l-809 -1597h-144l-135 1483h-86z" />
    <glyph glyph-name="X.ss01" horiz-adv-x="1396" 
d="M63 0h-133l695 819l-4 6l-392 772h133q187 -365 353 -718h82q466 552 608 718h131l-666 -772l-4 -6l404 -819h-131q-91 186 -222 464t-141 304h-82q-71 -87 -155.5 -191.5t-179.5 -220.5t-296 -356z" />
    <glyph glyph-name="Y.ss01" horiz-adv-x="1372" 
d="M313 0h-120q330 422 481 594q-216 453 -445 1003h129q267 -639 369 -917h23q259 385 677 917h125z" />
    <glyph glyph-name="Yacute.ss01" horiz-adv-x="1372" 
d="M1329 2038l-395 -318h-105l322 318h178zM313 0h-120q330 422 481 594q-216 453 -445 1003h129q267 -639 369 -917h23q259 385 677 917h125z" />
    <glyph glyph-name="Ycircumflex.ss01" horiz-adv-x="1372" 
d="M676 1720h-105l318 297h151l213 -297h-102q-47 53 -68.5 78t-52 70.5t-51.5 93.5h-45q-38 -47 -89.5 -96.5t-77.5 -71t-91 -74.5zM313 0h-120q330 422 481 594q-216 453 -445 1003h129q267 -639 369 -917h23q259 385 677 917h125z" />
    <glyph glyph-name="Ydieresis.ss01" horiz-adv-x="1372" 
d="M735 1794q-36 0 -59 23t-23 59q0 44 35.5 78.5t79.5 34.5q36 0 58 -22.5t22 -55.5q0 -46 -34.5 -81.5t-78.5 -35.5zM1120 1794q-37 0 -59.5 22.5t-22.5 57.5q0 46 34.5 80.5t80.5 34.5q35 0 57.5 -23t22.5 -57q0 -44 -35 -79.5t-78 -35.5zM313 0h-120q330 422 481 594
q-216 453 -445 1003h129q267 -639 369 -917h23q259 385 677 917h125z" />
    <glyph glyph-name="Ygrave.ss01" horiz-adv-x="1372" 
d="M993 1720h-104l-285 318h180zM313 0h-120q330 422 481 594q-216 453 -445 1003h129q267 -639 369 -917h23q259 385 677 917h125z" />
    <glyph glyph-name="Z.ss01" horiz-adv-x="1386" 
d="M1206 0h-1300q123 130 625.5 665.5t783.5 831.5l-6 19q-387 -25 -1018 -25l20 106h1233q-129 -136 -410 -435.5t-527 -558.5t-478 -494l8 -21q362 25 1088 25z" />
    <glyph glyph-name="Zacute.ss01" horiz-adv-x="1386" 
d="M1313 2038l-398 -318h-102l322 318h178zM1206 0h-1300q123 130 625.5 665.5t783.5 831.5l-6 19q-387 -25 -1018 -25l20 106h1233q-129 -136 -410 -435.5t-527 -558.5t-478 -494l8 -21q362 25 1088 25z" />
    <glyph glyph-name="Zcaron.ss01" horiz-adv-x="1386" 
d="M965 1720h-154l-213 297h104q3 -3 22.5 -25t24.5 -27.5t22 -25.5t24 -29.5t21.5 -29t22.5 -33.5t18.5 -33t19.5 -38h43q39 48 88.5 96t78.5 71.5t91 73.5h104zM1206 0h-1300q123 130 625.5 665.5t783.5 831.5l-6 19q-387 -25 -1018 -25l20 106h1233
q-129 -136 -410 -435.5t-527 -558.5t-478 -494l8 -21q362 25 1088 25z" />
    <glyph glyph-name="Zdotaccent.ss01" horiz-adv-x="1386" 
d="M901 1790q-38 0 -62 24.5t-24 61.5q0 48 37 84.5t86 36.5q38 0 62 -24t24 -60q0 -47 -38 -85t-85 -38zM1206 0h-1300q123 130 625.5 665.5t783.5 831.5l-6 19q-387 -25 -1018 -25l20 106h1233q-129 -136 -410 -435.5t-527 -558.5t-478 -494l8 -21q362 25 1088 25z" />
    <glyph glyph-name="Q.ss02" horiz-adv-x="1818" 
d="M1765 944q0 -178 -70.5 -349t-192 -303.5t-293.5 -220.5t-365 -104q0 -25 -1.5 -49t-6 -54t-7 -46t-9.5 -55.5t-9 -51.5q205 23 578 23l-19 -105q-433 0 -659 13q2 13 7.5 52t8.5 56l9 51t11 56.5t13.5 52t17.5 55.5q-284 14 -463.5 201t-179.5 479q0 188 79 368.5
t209.5 315.5t309 218t367.5 83q196 0 347.5 -88t234.5 -244t83 -354zM266 659q0 -240 142 -397.5t389 -183.5q3 77 15 174.5t20 146.5t30 174h113q-3 -15 -17.5 -94t-20.5 -108.5t-19 -90.5t-26 -108.5t-28 -95.5q205 17 383 140t282.5 314.5t104.5 401.5q0 171 -72 305.5
t-198.5 208.5t-286.5 74q-155 0 -304 -72t-260 -189.5t-179 -276t-68 -323.5z" />
    <glyph glyph-name="A.ss07" 
d="M868 -315q-355 0 -573.5 210t-218.5 549q0 140 40.5 279t112.5 260t176 225.5t226 178.5t267.5 116.5t295.5 42.5q229 0 409.5 -91.5t285 -267t104.5 -407.5q0 -213 -90 -414t-240.5 -350.5t-359.5 -240t-435 -90.5zM1075 1096l-565 -963h92q149 258 195 352l10 9
q107 -13 211 -13q96 0 203 13l4 -9q16 -137 67 -352h92l-225 963h-84zM838 547l-2 4q144 228 260 455h14q23 -194 92 -455l-2 -4q-102 12 -168 12q-62 0 -194 -12z" />
    <glyph glyph-name="B.ss07" 
d="M868 -315q-355 0 -573.5 210t-218.5 549q0 140 40.5 279t112.5 260t176 225.5t226 178.5t267.5 116.5t295.5 42.5q229 0 409.5 -91.5t285 -267t104.5 -407.5q0 -213 -90 -414t-240.5 -350.5t-359.5 -240t-435 -90.5zM811 1096l-170 -963h387q139 0 240.5 91t101.5 210
q0 75 -44 122.5t-126 61.5v7q99 24 159 95.5t60 160.5q0 97 -75 156t-195 59h-338zM811 645l-4 6q55 216 63 373l9 6q92 -14 239 -14q95 0 152 -42.5t57 -115.5q0 -82 -73 -142.5t-187 -60.5q-162 0 -256 -10zM733 201l-6 8q51 186 70 375l4 6q96 -12 270 -12
q94 0 150.5 -43.5t56.5 -116.5q0 -87 -74 -146t-188 -59q-179 0 -283 -12z" />
    <glyph glyph-name="C.ss07" 
d="M868 -315q-355 0 -573.5 210t-218.5 549q0 140 40.5 279t112.5 260t176 225.5t226 178.5t267.5 116.5t295.5 42.5q229 0 409.5 -91.5t285 -267t104.5 -407.5q0 -213 -90 -414t-240.5 -350.5t-359.5 -240t-435 -90.5zM977 113q168 0 305 92.5t213 259.5l-74 29
q-54 -128 -163.5 -213.5t-258.5 -85.5q-144 0 -240.5 84t-96.5 245q0 129 62 246.5t172 190.5t239 73q120 0 201.5 -63.5t101.5 -171.5l84 30q-18 140 -126 213.5t-249 73.5q-154 0 -288 -85.5t-211 -224.5t-77 -294q0 -182 109.5 -290.5t296.5 -108.5z" />
    <glyph glyph-name="D.ss07" 
d="M868 -315q-355 0 -573.5 210t-218.5 549q0 140 40.5 279t112.5 260t176 225.5t226 178.5t267.5 116.5t295.5 42.5q229 0 409.5 -91.5t285 -267t104.5 -407.5q0 -213 -90 -414t-240.5 -350.5t-359.5 -240t-435 -90.5zM774 1096l-170 -963h348q120 0 223.5 50.5
t172.5 133.5t108 190t39 220q0 180 -99.5 274.5t-285.5 94.5h-336zM696 201l-6 8q90 396 144 815l8 6q86 -14 239 -14q155 0 237.5 -77.5t82.5 -231.5q0 -94 -30.5 -182.5t-84.5 -158t-135.5 -111.5t-175.5 -42q-179 0 -279 -12z" />
    <glyph glyph-name="E.ss07" 
d="M868 -315q-355 0 -573.5 210t-218.5 549q0 140 40.5 279t112.5 260t176 225.5t226 178.5t267.5 116.5t295.5 42.5q229 0 409.5 -91.5t285 -267t104.5 -407.5q0 -213 -90 -414t-240.5 -350.5t-359.5 -240t-435 -90.5zM834 1096l-170 -963h620l14 84q-347 0 -542 -16l-4 6
q55 208 69 387l6 8q178 -14 502 -14l14 80q-310 0 -505 -13l-7 9q53 183 62 360l10 6q65 -7 142.5 -10.5t119.5 -4t143 0t122 0.5l14 80h-610z" />
    <glyph glyph-name="F.ss07" 
d="M868 -315q-355 0 -573.5 210t-218.5 549q0 140 40.5 279t112.5 260t176 225.5t226 178.5t267.5 116.5t295.5 42.5q229 0 409.5 -91.5t285 -267t104.5 -407.5q0 -213 -90 -414t-240.5 -350.5t-359.5 -240t-435 -90.5zM854 1096l-170 -963h86q53 305 68 455l6 8
q178 -16 489 -16l15 82q-327 0 -496 -15l-2 8q51 191 63 369l9 6q180 -18 514 -18l14 84h-596z" />
    <glyph glyph-name="G.ss07" 
d="M868 -315q-355 0 -573.5 210t-218.5 549q0 140 40.5 279t112.5 260t176 225.5t226 178.5t267.5 116.5t295.5 42.5q229 0 409.5 -91.5t285 -267t104.5 -407.5q0 -213 -90 -414t-240.5 -350.5t-359.5 -240t-435 -90.5zM969 113q278 0 426 266h14q-16 -49 -26.5 -91
t-14 -62.5t-8 -50.5t-6.5 -42h73l84 475h-430l-14 -80q158 0 363 25l2 -4q-53 -162 -171 -258t-268 -96q-141 0 -236 85t-95 246q0 128 62 245t172 190t239 73q119 0 201 -63.5t102 -171.5l84 30q-18 140 -126 213.5t-249 73.5q-154 0 -288 -86t-211 -225t-77 -293
q0 -182 107.5 -290.5t290.5 -108.5z" />
    <glyph glyph-name="H.ss07" 
d="M868 -315q-355 0 -573.5 210t-218.5 549q0 140 40.5 279t112.5 260t176 225.5t226 178.5t267.5 116.5t295.5 42.5q229 0 409.5 -91.5t285 -267t104.5 -407.5q0 -213 -90 -414t-240.5 -350.5t-359.5 -240t-435 -90.5zM752 1096l-170 -963h88q3 21 28.5 177t40.5 280l4 6
q297 -29 572 0l4 -6q-35 -147 -92 -457h88l170 963h-88q-51 -285 -66 -439l-6 -6q-321 14 -571 0l-4 6q31 119 90 439h-88z" />
    <glyph glyph-name="I.ss07" 
d="M868 -315q-355 0 -573.5 210t-218.5 549q0 140 40.5 279t112.5 260t176 225.5t226 178.5t267.5 116.5t295.5 42.5q229 0 409.5 -91.5t285 -267t104.5 -407.5q0 -213 -90 -414t-240.5 -350.5t-359.5 -240t-435 -90.5zM1075 1096l-170 -963h86l170 963h-86z" />
    <glyph glyph-name="J.ss07" 
d="M868 -315q-355 0 -573.5 210t-218.5 549q0 140 40.5 279t112.5 260t176 225.5t226 178.5t267.5 116.5t295.5 42.5q229 0 409.5 -91.5t285 -267t104.5 -407.5q0 -213 -90 -414t-240.5 -350.5t-359.5 -240t-435 -90.5zM909 123q55 0 102 16.5t79 40t58.5 61.5t41.5 69.5
t28 75.5t18 68.5t11 59.5l105 592h-86l-109 -617q-6 -39 -13 -68.5t-24.5 -73.5t-41 -72.5t-63.5 -50t-91 -21.5q-39 0 -73 11.5t-64 39t-38 74.5t5 118l6 29l-84 -8l-6 -35q-15 -72 -5 -125t31.5 -88.5t58 -56.5t74 -30t80.5 -9z" />
    <glyph glyph-name="K.ss07" 
d="M868 -315q-355 0 -573.5 210t-218.5 549q0 140 40.5 279t112.5 260t176 225.5t226 178.5t267.5 116.5t295.5 42.5q229 0 409.5 -91.5t285 -267t104.5 -407.5q0 -213 -90 -414t-240.5 -350.5t-359.5 -240t-435 -90.5zM823 1096l-170 -963h86q7 44 17.5 100t19.5 112
t19 134q79 57 157 146h2q28 -53 55.5 -103.5t61 -107t53.5 -89.5t61.5 -101t55.5 -91h107q-31 50 -76.5 126t-72 119.5t-75.5 121.5t-110 172v6q59 48 127.5 106t116.5 100.5t124 110t115 101.5h-108q-45 -41 -168 -149.5t-223 -199t-199 -182.5h-6q17 57 31.5 111.5t28 120
t19.5 96t20.5 110.5t16.5 93h-86z" />
    <glyph glyph-name="L.ss07" 
d="M868 -315q-355 0 -573.5 210t-218.5 549q0 140 40.5 279t112.5 260t176 225.5t226 178.5t267.5 116.5t295.5 42.5q229 0 409.5 -91.5t285 -267t104.5 -407.5q0 -213 -90 -414t-240.5 -350.5t-359.5 -240t-435 -90.5zM907 1096l-170 -963h584l14 84q-326 0 -506 -16l-6 8
q26 118 52 249.5t38.5 198.5t42.5 234.5t37 204.5h-86z" />
    <glyph glyph-name="M.ss07" 
d="M868 -315q-355 0 -573.5 210t-218.5 549q0 140 40.5 279t112.5 260t176 225.5t226 178.5t267.5 116.5t295.5 42.5q229 0 409.5 -91.5t285 -267t104.5 -407.5q0 -213 -90 -414t-240.5 -350.5t-359.5 -240t-435 -90.5zM633 1096l-170 -963h86q8 44 28.5 160t29.5 171.5
t23.5 149t23.5 176t16 168.5h6q160 -581 231 -825h80q48 77 232 366.5t290 458.5h4q-29 -114 -56 -236.5t-40.5 -195t-37.5 -208.5t-33 -185h88l170 963h-84q-331 -496 -553 -867h-4q-119 483 -248 867h-82z" />
    <glyph glyph-name="N.ss07" 
d="M868 -315q-355 0 -573.5 210t-218.5 549q0 140 40.5 279t112.5 260t176 225.5t226 178.5t267.5 116.5t295.5 42.5q229 0 409.5 -91.5t285 -267t104.5 -407.5q0 -213 -90 -414t-240.5 -350.5t-359.5 -240t-435 -90.5zM754 1096l-170 -963h86q7 42 28 161t30.5 175t25 152
t26 180.5t19.5 171.5h6q198 -393 455 -840h77l170 963h-86q-98 -542 -131 -850h-4q-250 497 -455 850h-77z" />
    <glyph glyph-name="O.ss07" 
d="M868 -315q-355 0 -573.5 210t-218.5 549q0 140 40.5 279t112.5 260t176 225.5t226 178.5t267.5 116.5t295.5 42.5q229 0 409.5 -91.5t285 -267t104.5 -407.5q0 -213 -90 -414t-240.5 -350.5t-359.5 -240t-435 -90.5zM946 113q113 0 220.5 50t186 131.5t126 190
t47.5 220.5q0 179 -112 295t-290 116q-151 0 -285.5 -83.5t-214 -221t-79.5 -289.5q0 -183 113 -296t288 -113zM637 537q0 127 65.5 242t175.5 185t232 70q144 0 234 -96.5t90 -245.5q0 -126 -65.5 -241t-175 -185.5t-230.5 -70.5q-142 0 -234 95.5t-92 246.5z" />
    <glyph glyph-name="P.ss07" 
d="M868 -315q-355 0 -573.5 210t-218.5 549q0 140 40.5 279t112.5 260t176 225.5t226 178.5t267.5 116.5t295.5 42.5q229 0 409.5 -91.5t285 -267t104.5 -407.5q0 -213 -90 -414t-240.5 -350.5t-359.5 -240t-435 -90.5zM836 1096l-170 -963h86q44 250 59 404q93 -19 279 -19
q150 0 251 104t101 240q0 113 -74.5 173.5t-196.5 60.5h-335zM825 586l-4 6q62 252 74 432l8 6q84 -14 240 -14q97 0 151 -44t54 -130q0 -105 -76 -174.5t-195 -69.5q-160 0 -252 -12z" />
    <glyph glyph-name="Q.ss07" 
d="M868 -315q-355 0 -573.5 210t-218.5 549q0 140 40.5 279t112.5 260t176 225.5t226 178.5t267.5 116.5t295.5 42.5q229 0 409.5 -91.5t285 -267t104.5 -407.5q0 -213 -90 -414t-240.5 -350.5t-359.5 -240t-435 -90.5zM1321 66l70 53q-77 112 -117 157q118 82 187 210
t69 268q0 176 -113 291.5t-293 115.5q-150 0 -284.5 -83.5t-214.5 -221t-80 -289.5q0 -181 112 -295t291 -114q145 0 269 84q30 -64 104 -176zM639 584q0 126 65.5 240.5t175.5 184.5t232 70q143 0 233.5 -96t90.5 -242q0 -112 -51.5 -219.5t-145.5 -195.5q-57 112 -154 249
l-69 -51q101 -151 166 -231q-116 -55 -217 -55q-145 0 -235.5 97t-90.5 249z" />
    <glyph glyph-name="R.ss07" 
d="M868 -315q-355 0 -573.5 210t-218.5 549q0 140 40.5 279t112.5 260t176 225.5t226 178.5t267.5 116.5t295.5 42.5q229 0 409.5 -91.5t285 -267t104.5 -407.5q0 -213 -90 -414t-240.5 -350.5t-359.5 -240t-435 -90.5zM840 1096l-170 -963h88q49 302 59 404q97 -19 232 -19
l188 -385h98q-9 18 -83 169t-117 230v3q136 13 223.5 106t87.5 219q0 115 -74 175.5t-196 60.5h-336zM831 584l-6 6q57 222 74 434l10 6q96 -14 238 -14q98 0 152.5 -44t54.5 -130q0 -106 -75.5 -176t-195.5 -70q-162 0 -252 -12z" />
    <glyph glyph-name="S.ss07" 
d="M868 -315q-355 0 -573.5 210t-218.5 549q0 140 40.5 279t112.5 260t176 225.5t226 178.5t267.5 116.5t295.5 42.5q229 0 409.5 -91.5t285 -267t104.5 -407.5q0 -213 -90 -414t-240.5 -350.5t-359.5 -240t-435 -90.5zM965 113q153 0 265.5 97.5t112.5 223.5q0 26 -7 49.5
t-15 39.5t-28 33l-30 25.5t-39 21t-37 15.5t-41 14.5t-36 12.5l-84 29q-24 8 -37.5 13t-42.5 20t-45.5 30.5t-30.5 43t-14 59.5q0 79 70.5 136.5t173.5 57.5q91 0 150.5 -51.5t68.5 -140.5l84 32q-11 113 -86.5 177.5t-196.5 64.5q-149 0 -253.5 -88.5t-104.5 -208.5
q0 -43 16.5 -80t39 -60t57 -43t58 -29t54.5 -19l84 -27q6 -2 27.5 -9t28.5 -9.5t25.5 -9.5t26 -12t21.5 -14t20 -18t13.5 -21t10.5 -26.5t3 -31.5q0 -87 -76.5 -151t-189.5 -64q-106 0 -172.5 63.5t-73.5 175.5l-84 -31q6 -79 36.5 -138t76.5 -90.5t96 -46.5t105 -15z" />
    <glyph glyph-name="T.ss07" 
d="M868 -315q-355 0 -573.5 210t-218.5 549q0 140 40.5 279t112.5 260t176 225.5t226 178.5t267.5 116.5t295.5 42.5q229 0 409.5 -91.5t285 -267t104.5 -407.5q0 -213 -90 -414t-240.5 -350.5t-359.5 -240t-435 -90.5zM903 133h88q12 73 43.5 254t57 333.5t49.5 307.5
q115 -12 336 -12l12 80h-746l-14 -80q219 0 338 12q-48 -244 -164 -895z" />
    <glyph glyph-name="U.ss07" 
d="M868 -315q-355 0 -573.5 210t-218.5 549q0 140 40.5 279t112.5 260t176 225.5t226 178.5t267.5 116.5t295.5 42.5q229 0 409.5 -91.5t285 -267t104.5 -407.5q0 -213 -90 -414t-240.5 -350.5t-359.5 -240t-435 -90.5zM944 123q168 0 275 99t137 270l108 614h-86l-108 -612
q-25 -142 -102 -216.5t-205 -74.5q-130 0 -182 75t-27 216l108 612h-86l-108 -614q-31 -174 38.5 -271.5t237.5 -97.5z" />
    <glyph glyph-name="V.ss07" 
d="M868 -315q-355 0 -573.5 210t-218.5 549q0 140 40.5 279t112.5 260t176 225.5t226 178.5t267.5 116.5t295.5 42.5q229 0 409.5 -91.5t285 -267t104.5 -407.5q0 -213 -90 -414t-240.5 -350.5t-359.5 -240t-435 -90.5zM682 1096l225 -963h84l565 963h-92
q-308 -531 -493 -877h-6q-82 431 -193 877h-90z" />
    <glyph glyph-name="W.ss07" 
d="M868 -315q-355 0 -573.5 210t-218.5 549q0 140 40.5 279t112.5 260t176 225.5t226 178.5t267.5 116.5t295.5 42.5q229 0 409.5 -91.5t285 -267t104.5 -407.5q0 -213 -90 -414t-240.5 -350.5t-359.5 -240t-435 -90.5zM444 1096l148 -963h92q248 488 414 871h6
q46 -496 108 -871h93l487 963h-90q-214 -425 -422 -873h-4q-32 304 -113 873h-90q-277 -564 -418 -873h-4q-44 421 -116 873h-91z" />
    <glyph glyph-name="X.ss07" 
d="M868 -315q-355 0 -573.5 210t-218.5 549q0 140 40.5 279t112.5 260t176 225.5t226 178.5t267.5 116.5t295.5 42.5q229 0 409.5 -91.5t285 -267t104.5 -407.5q0 -213 -90 -414t-240.5 -350.5t-359.5 -240t-435 -90.5zM559 133h100q274 325 365 442h4q80 -185 209 -442h98
q-199 390 -258 492l2 8q187 199 418 463h-98q-210 -233 -352 -414h-3q-104 222 -206 414h-101q128 -244 254 -463l-2 -8q-39 -43 -430 -492z" />
    <glyph glyph-name="Y.ss07" 
d="M868 -315q-355 0 -573.5 210t-218.5 549q0 140 40.5 279t112.5 260t176 225.5t226 178.5t267.5 116.5t295.5 42.5q229 0 409.5 -91.5t285 -267t104.5 -407.5q0 -213 -90 -414t-240.5 -350.5t-359.5 -240t-435 -90.5zM903 133h88q46 271 56 356q146 183 475 607h-92
q-14 -19 -62.5 -81.5t-70.5 -91t-66 -86.5t-73 -97t-66 -91t-68 -98h-4q-82 241 -213 545h-94q102 -250 260 -607q-14 -57 -30.5 -142.5t-27.5 -147.5t-12 -66z" />
    <glyph glyph-name="Z.ss07" 
d="M868 -315q-355 0 -573.5 210t-218.5 549q0 140 40.5 279t112.5 260t176 225.5t226 178.5t267.5 116.5t295.5 42.5q229 0 409.5 -91.5t285 -267t104.5 -407.5q0 -213 -90 -414t-240.5 -350.5t-359.5 -240t-435 -90.5zM606 203l-10 -70h737l15 84q-389 0 -646 -16l-2 2
q89 94 250.5 263t289.5 304t243 260l10 66h-702l-15 -80q342 0 608 20v-2q-78 -83 -353.5 -376t-424.5 -455z" />
    <glyph glyph-name="A.ss08" 
d="M868 -315q-355 0 -573.5 210t-218.5 549q0 140 40.5 279t112.5 260t176 225.5t226 178.5t267.5 116.5t295.5 42.5q229 0 409.5 -91.5t285 -267t104.5 -407.5q0 -213 -90 -414t-240.5 -350.5t-359.5 -240t-435 -90.5zM883 -236q137 0 269.5 37.5t244.5 104t207.5 161
t161.5 204t103.5 237.5t37.5 258q0 212 -94.5 372.5t-258.5 244t-372 83.5q-205 0 -395.5 -84.5t-327.5 -222.5t-219 -322t-82 -376q0 -204 90 -362.5t255.5 -246.5t379.5 -88zM729 270h-67l403 688h63l160 -688h-69q-4 18 -16 67t-20.5 91.5t-13.5 93.5l-2 4
q-94 -8 -143 -8q-57 0 -147 8l-9 -4q-54 -110 -139 -252zM897 567q86 11 139 11q51 0 119 -11q-54 211 -70 324h-6q-82 -165 -182 -324z" />
    <glyph glyph-name="B.ss08" 
d="M868 -315q-355 0 -573.5 210t-218.5 549q0 140 40.5 279t112.5 260t176 225.5t226 178.5t267.5 116.5t295.5 42.5q229 0 409.5 -91.5t285 -267t104.5 -407.5q0 -213 -90 -414t-240.5 -350.5t-359.5 -240t-435 -90.5zM883 -236q137 0 269.5 37.5t244.5 104t207.5 161
t161.5 204t103.5 237.5t37.5 258q0 212 -94.5 372.5t-258.5 244t-372 83.5q-205 0 -395.5 -84.5t-327.5 -222.5t-219 -322t-82 -376q0 -204 90 -362.5t255.5 -246.5t379.5 -88zM1028 270h-276l120 688h242q88 0 141.5 -42t53.5 -111q0 -64 -43 -115.5t-111 -68.5
q57 -12 89 -48t32 -88q0 -84 -73 -149.5t-175 -65.5zM872 641l2 -2q68 6 181 6q78 0 132 42.5t54 103.5q0 48 -40.5 77t-108.5 29q-107 0 -168 10l-4 -2q-9 -121 -48 -264zM817 324l2 -2q76 10 203 10q79 0 131.5 40.5t52.5 102.5q0 51 -40 82t-107 31q-123 0 -193 6l-2 -2
q-13 -148 -47 -268z" />
    <glyph glyph-name="C.ss08" 
d="M868 -315q-355 0 -573.5 210t-218.5 549q0 140 40.5 279t112.5 260t176 225.5t226 178.5t267.5 116.5t295.5 42.5q229 0 409.5 -91.5t285 -267t104.5 -407.5q0 -213 -90 -414t-240.5 -350.5t-359.5 -240t-435 -90.5zM883 -236q137 0 269.5 37.5t244.5 104t207.5 161
t161.5 204t103.5 237.5t37.5 258q0 212 -94.5 372.5t-258.5 244t-372 83.5q-205 0 -395.5 -84.5t-327.5 -222.5t-219 -322t-82 -376q0 -204 90 -362.5t255.5 -246.5t379.5 -88zM991 256q-133 0 -212 78t-79 209q0 81 32.5 159.5t87 138t132 96t162.5 36.5q109 0 182.5 -56.5
t83.5 -150.5l-61 -25q-15 78 -73 123t-144 45q-136 0 -234 -109t-98 -249q0 -115 68 -174.5t170 -59.5q99 0 178.5 57t120.5 158l55 -22q-53 -118 -150.5 -186t-220.5 -68z" />
    <glyph glyph-name="D.ss08" 
d="M868 -315q-355 0 -573.5 210t-218.5 549q0 140 40.5 279t112.5 260t176 225.5t226 178.5t267.5 116.5t295.5 42.5q229 0 409.5 -91.5t285 -267t104.5 -407.5q0 -213 -90 -414t-240.5 -350.5t-359.5 -240t-435 -90.5zM883 -236q137 0 269.5 37.5t244.5 104t207.5 161
t161.5 204t103.5 237.5t37.5 258q0 212 -94.5 372.5t-258.5 244t-372 83.5q-205 0 -395.5 -84.5t-327.5 -222.5t-219 -322t-82 -376q0 -204 90 -362.5t255.5 -246.5t379.5 -88zM977 270h-250l121 688h242q132 0 203 -67.5t71 -196.5q0 -113 -50.5 -210.5t-140 -155.5
t-196.5 -58zM793 324l2 -2q74 10 198 10q128 0 214.5 101.5t86.5 244.5q0 219 -225 219q-99 0 -170 10l-4 -2q-42 -319 -102 -581z" />
    <glyph glyph-name="E.ss08" 
d="M868 -315q-355 0 -573.5 210t-218.5 549q0 140 40.5 279t112.5 260t176 225.5t226 178.5t267.5 116.5t295.5 42.5q229 0 409.5 -91.5t285 -267t104.5 -407.5q0 -213 -90 -414t-240.5 -350.5t-359.5 -240t-435 -90.5zM883 -236q137 0 269.5 37.5t244.5 104t207.5 161
t161.5 204t103.5 237.5t37.5 258q0 212 -94.5 372.5t-258.5 244t-372 83.5q-205 0 -395.5 -84.5t-327.5 -222.5t-219 -322t-82 -376q0 -204 90 -362.5t255.5 -246.5t379.5 -88zM1214 270h-446l123 688h436l-10 -61q-29 0 -112.5 0.5t-144 2.5t-120.5 7l-2 -2
q-14 -143 -45 -256l4 -2q129 8 358 8l-10 -61q-231 0 -356 10l-4 -4q-13 -133 -49 -276l2 -2q137 12 387 12z" />
    <glyph glyph-name="F.ss08" 
d="M868 -315q-355 0 -573.5 210t-218.5 549q0 140 40.5 279t112.5 260t176 225.5t226 178.5t267.5 116.5t295.5 42.5q229 0 409.5 -91.5t285 -267t104.5 -407.5q0 -213 -90 -414t-240.5 -350.5t-359.5 -240t-435 -90.5zM883 -236q137 0 269.5 37.5t244.5 104t207.5 161
t161.5 204t103.5 237.5t37.5 258q0 212 -94.5 372.5t-258.5 244t-372 83.5q-205 0 -395.5 -84.5t-327.5 -222.5t-219 -322t-82 -376q0 -204 90 -362.5t255.5 -246.5t379.5 -88zM848 270h-66l123 688h426l-10 -61q-238 0 -367 10l-2 -2q-12 -139 -47 -262l4 -2q102 8 353 8
l-13 -59q-223 0 -346 8l-6 -2q-9 -100 -49 -326z" />
    <glyph glyph-name="G.ss08" 
d="M1194 1546q229 0 409.5 -91.5t285 -267t104.5 -407.5q0 -213 -90 -414t-240.5 -350.5t-359.5 -240t-435 -90.5q-355 0 -573.5 210t-218.5 549q0 140 40.5 279t112.5 260t176 225.5t226 178.5t267.5 116.5t295.5 42.5zM883 -236q137 0 269.5 37.5t244.5 104t207.5 161
t161.5 204t103.5 237.5t37.5 258q0 212 -94.5 372.5t-258.5 244t-372 83.5q-205 0 -395.5 -84.5t-327.5 -222.5t-219 -322t-82 -376q0 -204 90 -362.5t255.5 -246.5t379.5 -88zM1102 909q-136 0 -234 -108t-98 -250q0 -115 66.5 -174.5t164.5 -59.5q107 0 191 67.5
t121 182.5q-156 -17 -256 -14l8 57h309l-59 -340h-58q0 2 9.5 61t17.5 89q-108 -164 -299 -164q-130 0 -207.5 78t-77.5 207q0 110 54.5 209t151 161t208.5 62q109 0 182.5 -56.5t83.5 -150.5l-61 -25q-15 78 -73 123t-144 45z" />
    <glyph glyph-name="H.ss08" 
d="M868 -315q-355 0 -573.5 210t-218.5 549q0 140 40.5 279t112.5 260t176 225.5t226 178.5t267.5 116.5t295.5 42.5q229 0 409.5 -91.5t285 -267t104.5 -407.5q0 -213 -90 -414t-240.5 -350.5t-359.5 -240t-435 -90.5zM883 -236q137 0 269.5 37.5t244.5 104t207.5 161
t161.5 204t103.5 237.5t37.5 258q0 212 -94.5 372.5t-258.5 244t-372 83.5q-205 0 -395.5 -84.5t-327.5 -222.5t-219 -322t-82 -376q0 -204 90 -362.5t255.5 -246.5t379.5 -88zM778 270h-65l121 688h65q-40 -224 -63 -311l2 -4q215 9 403 0l6 4q12 123 45 311h66l-121 -688
h-66q4 19 15.5 84.5t22.5 119.5t28 122l-4 4q-195 -23 -404 0l-2 -4q-17 -149 -49 -326z" />
    <glyph glyph-name="I.ss08" 
d="M868 -315q-355 0 -573.5 210t-218.5 549q0 140 40.5 279t112.5 260t176 225.5t226 178.5t267.5 116.5t295.5 42.5q229 0 409.5 -91.5t285 -267t104.5 -407.5q0 -213 -90 -414t-240.5 -350.5t-359.5 -240t-435 -90.5zM883 -236q137 0 269.5 37.5t244.5 104t207.5 161
t161.5 204t103.5 237.5t37.5 258q0 212 -94.5 372.5t-258.5 244t-372 83.5q-205 0 -395.5 -84.5t-327.5 -222.5t-219 -322t-82 -376q0 -204 90 -362.5t255.5 -246.5t379.5 -88zM1006 270h-66l121 688h65z" />
    <glyph glyph-name="J.ss08" 
d="M868 -315q-355 0 -573.5 210t-218.5 549q0 140 40.5 279t112.5 260t176 225.5t226 178.5t267.5 116.5t295.5 42.5q229 0 409.5 -91.5t285 -267t104.5 -407.5q0 -213 -90 -414t-240.5 -350.5t-359.5 -240t-435 -90.5zM883 -236q137 0 269.5 37.5t244.5 104t207.5 161
t161.5 204t103.5 237.5t37.5 258q0 212 -94.5 372.5t-258.5 244t-372 83.5q-205 0 -395.5 -84.5t-327.5 -222.5t-219 -322t-82 -376q0 -204 90 -362.5t255.5 -246.5t379.5 -88zM946 262q-98 0 -144.5 59t-29.5 162l4 27l64 8l-4 -24q-12 -80 18.5 -126t97.5 -46
q37 0 66 15.5t45 35t28.5 52t17 51.5t9.5 48l78 441h66l-76 -424q-4 -24 -8 -42t-13 -49t-20 -54t-30 -49.5t-41.5 -44t-55.5 -29t-72 -11.5z" />
    <glyph glyph-name="K.ss08" 
d="M1194 1546q229 0 409.5 -91.5t285 -267t104.5 -407.5q0 -213 -90 -414t-240.5 -350.5t-359.5 -240t-435 -90.5q-355 0 -573.5 210t-218.5 549q0 140 40.5 279t112.5 260t176 225.5t226 178.5t267.5 116.5t295.5 42.5zM883 -236q137 0 269.5 37.5t244.5 104t207.5 161
t161.5 204t103.5 237.5t37.5 258q0 212 -94.5 372.5t-258.5 244t-372 83.5q-205 0 -395.5 -84.5t-327.5 -222.5t-219 -322t-82 -376q0 -204 90 -362.5t255.5 -246.5t379.5 -88zM1288 958h82q-36 -31 -106.5 -94t-123.5 -108.5t-116 -96.5v-4q116 -180 238 -385h-80
q-130 211 -205 346q-45 -50 -109 -100q-14 -86 -41 -246h-63l121 688h65q-47 -262 -80 -378q59 56 112.5 105t87 79t102 90.5t116.5 103.5z" />
    <glyph glyph-name="L.ss08" 
d="M868 -315q-355 0 -573.5 210t-218.5 549q0 140 40.5 279t112.5 260t176 225.5t226 178.5t267.5 116.5t295.5 42.5q229 0 409.5 -91.5t285 -267t104.5 -407.5q0 -213 -90 -414t-240.5 -350.5t-359.5 -240t-435 -90.5zM883 -236q137 0 269.5 37.5t244.5 104t207.5 161
t161.5 204t103.5 237.5t37.5 258q0 212 -94.5 372.5t-258.5 244t-372 83.5q-205 0 -395.5 -84.5t-327.5 -222.5t-219 -322t-82 -376q0 -204 90 -362.5t255.5 -246.5t379.5 -88zM1241 270h-420l123 688h66q-75 -416 -121 -634l2 -2q129 12 362 12z" />
    <glyph glyph-name="M.ss08" 
d="M1194 1546q229 0 409.5 -91.5t285 -267t104.5 -407.5q0 -213 -90 -414t-240.5 -350.5t-359.5 -240t-435 -90.5q-355 0 -573.5 210t-218.5 549q0 140 40.5 279t112.5 260t176 225.5t226 178.5t267.5 116.5t295.5 42.5zM883 -236q137 0 269.5 37.5t244.5 104t207.5 161
t161.5 204t103.5 237.5t37.5 258q0 212 -94.5 372.5t-258.5 244t-372 83.5q-205 0 -395.5 -84.5t-327.5 -222.5t-219 -322t-82 -376q0 -204 90 -362.5t255.5 -246.5t379.5 -88zM985 344q189 306 393 614h64l-121 -688h-66q6 35 24 140.5t27.5 155.5t27 133t36.5 153
q-39 -62 -114 -181.5t-137 -218.5t-115 -182h-60q-7 27 -57.5 200t-104.5 378q-6 -58 -13 -115t-18.5 -127.5t-17.5 -105.5t-22 -123t-19 -107h-65l121 688h63q118 -366 174 -614z" />
    <glyph glyph-name="N.ss08" 
d="M1194 1546q229 0 409.5 -91.5t285 -267t104.5 -407.5q0 -213 -90 -414t-240.5 -350.5t-359.5 -240t-435 -90.5q-355 0 -573.5 210t-218.5 549q0 140 40.5 279t112.5 260t176 225.5t226 178.5t267.5 116.5t295.5 42.5zM883 -236q137 0 269.5 37.5t244.5 104t207.5 161
t161.5 204t103.5 237.5t37.5 258q0 212 -94.5 372.5t-258.5 244t-372 83.5q-205 0 -395.5 -84.5t-327.5 -222.5t-219 -322t-82 -376q0 -204 90 -362.5t255.5 -246.5t379.5 -88zM1212 358q22 174 97 600h65l-121 -688h-57q-186 328 -324 592q-26 -207 -94 -592h-65l121 688
h57q156 -275 321 -600z" />
    <glyph glyph-name="O.ss08" 
d="M868 -315q-355 0 -573.5 210t-218.5 549q0 140 40.5 279t112.5 260t176 225.5t226 178.5t267.5 116.5t295.5 42.5q229 0 409.5 -91.5t285 -267t104.5 -407.5q0 -213 -90 -414t-240.5 -350.5t-359.5 -240t-435 -90.5zM883 -236q137 0 269.5 37.5t244.5 104t207.5 161
t161.5 204t103.5 237.5t37.5 258q0 212 -94.5 372.5t-258.5 244t-372 83.5q-205 0 -395.5 -84.5t-327.5 -222.5t-219 -322t-82 -376q0 -204 90 -362.5t255.5 -246.5t379.5 -88zM971 256q-127 0 -207 82.5t-80 210.5q0 107 56.5 205t153 158.5t206.5 60.5q127 0 206.5 -82.5
t79.5 -210.5q0 -108 -57 -206t-153.5 -158t-204.5 -60zM985 317q129 0 230.5 108t101.5 245q0 103 -64.5 171t-165.5 68q-130 0 -231.5 -106.5t-101.5 -243.5q0 -105 64.5 -173.5t166.5 -68.5z" />
    <glyph glyph-name="P.ss08" 
d="M868 -315q-355 0 -573.5 210t-218.5 549q0 140 40.5 279t112.5 260t176 225.5t226 178.5t267.5 116.5t295.5 42.5q229 0 409.5 -91.5t285 -267t104.5 -407.5q0 -213 -90 -414t-240.5 -350.5t-359.5 -240t-435 -90.5zM883 -236q137 0 269.5 37.5t244.5 104t207.5 161
t161.5 204t103.5 237.5t37.5 258q0 212 -94.5 372.5t-258.5 244t-372 83.5q-205 0 -395.5 -84.5t-327.5 -222.5t-219 -322t-82 -376q0 -204 90 -362.5t255.5 -246.5t379.5 -88zM836 270h-66l121 688h239q89 0 141 -43t52 -124q0 -101 -73.5 -174.5t-176.5 -73.5
q-135 0 -196 14q-6 -63 -41 -287zM883 598l2 -4q66 10 180 10q84 0 137 48.5t53 121.5q0 61 -37.5 92t-107.5 31q-111 0 -170 10l-2 -2q-14 -156 -55 -307z" />
    <glyph glyph-name="Q.ss08" 
d="M868 -315q-355 0 -573.5 210t-218.5 549q0 140 40.5 279t112.5 260t176 225.5t226 178.5t267.5 116.5t295.5 42.5q229 0 409.5 -91.5t285 -267t104.5 -407.5q0 -213 -90 -414t-240.5 -350.5t-359.5 -240t-435 -90.5zM883 -236q137 0 269.5 37.5t244.5 104t207.5 161
t161.5 204t103.5 237.5t37.5 258q0 212 -94.5 372.5t-258.5 244t-372 83.5q-205 0 -395.5 -84.5t-327.5 -222.5t-219 -322t-82 -376q0 -204 90 -362.5t255.5 -246.5t379.5 -88zM1290 260l-53 -39q-7 10 -19.5 30t-19.5 31t-16.5 28t-16.5 34q-88 -57 -192 -57
q-124 0 -206.5 82t-82.5 211q0 109 57.5 207.5t154.5 158.5t206 60q127 0 207 -83t80 -210q0 -97 -48.5 -188.5t-132.5 -149.5q29 -33 82 -115zM987 348q72 0 150 37q-61 79 -117 164l53 41q80 -123 109 -178q68 65 103.5 141t35.5 149q0 103 -65 171.5t-166 68.5
q-132 0 -234 -107.5t-102 -244.5q0 -105 65.5 -173.5t167.5 -68.5z" />
    <glyph glyph-name="R.ss08" 
d="M1194 1546q229 0 409.5 -91.5t285 -267t104.5 -407.5q0 -213 -90 -414t-240.5 -350.5t-359.5 -240t-435 -90.5q-355 0 -573.5 210t-218.5 549q0 140 40.5 279t112.5 260t176 225.5t226 178.5t267.5 116.5t295.5 42.5zM883 -236q137 0 269.5 37.5t244.5 104t207.5 161
t161.5 204t103.5 237.5t37.5 258q0 212 -94.5 372.5t-258.5 244t-372 83.5q-205 0 -395.5 -84.5t-327.5 -222.5t-219 -322t-82 -376q0 -204 90 -362.5t255.5 -246.5t379.5 -88zM895 958h240q87 0 139.5 -43t52.5 -124q0 -92 -62.5 -158.5t-156.5 -77.5q32 -57 82 -160
t61 -125h-73l-136 273q-94 0 -161 14q-10 -101 -43 -287h-66zM1069 602q84 0 137.5 49.5t53.5 122.5q0 61 -39 93t-109 32q-89 0 -168 8l-2 -2q-17 -166 -55 -307l2 -4q68 8 180 8z" />
    <glyph glyph-name="S.ss08" 
d="M868 -315q-355 0 -573.5 210t-218.5 549q0 140 40.5 279t112.5 260t176 225.5t226 178.5t267.5 116.5t295.5 42.5q229 0 409.5 -91.5t285 -267t104.5 -407.5q0 -213 -90 -414t-240.5 -350.5t-359.5 -240t-435 -90.5zM883 -236q137 0 269.5 37.5t244.5 104t207.5 161
t161.5 204t103.5 237.5t37.5 258q0 212 -94.5 372.5t-258.5 244t-372 83.5q-205 0 -395.5 -84.5t-327.5 -222.5t-219 -322t-82 -376q0 -204 90 -362.5t255.5 -246.5t379.5 -88zM983 256q-95 0 -154.5 54t-68.5 155l65 22q4 -78 51.5 -124t122.5 -46q77 0 131 45.5t54 106.5
q0 18 -6 32.5t-12.5 23t-22.5 17t-24 12t-30 10.5t-28 9l-62 21q-159 50 -159 166q0 86 76 149.5t182 63.5q85 0 139 -46.5t61 -127.5l-63 -25q-6 64 -48.5 99.5t-107.5 35.5q-71 0 -120.5 -39t-49.5 -96q0 -78 121 -117l62 -20q2 -1 25.5 -8.5t29 -10t26 -11.5t27.5 -15
t21.5 -18t20 -24t10.5 -29t5 -36q0 -91 -82 -160t-192 -69z" />
    <glyph glyph-name="T.ss08" 
d="M868 -315q-355 0 -573.5 210t-218.5 549q0 140 40.5 279t112.5 260t176 225.5t226 178.5t267.5 116.5t295.5 42.5q229 0 409.5 -91.5t285 -267t104.5 -407.5q0 -213 -90 -414t-240.5 -350.5t-359.5 -240t-435 -90.5zM883 -236q137 0 269.5 37.5t244.5 104t207.5 161
t161.5 204t103.5 237.5t37.5 258q0 212 -94.5 372.5t-258.5 244t-372 83.5q-205 0 -395.5 -84.5t-327.5 -222.5t-219 -322t-82 -376q0 -204 90 -362.5t255.5 -246.5t379.5 -88zM1006 270h-66q6 33 43 239.5t74 397.5q-86 -10 -242 -10l12 61h533l-10 -61q-156 0 -238 10
q-16 -104 -42.5 -260.5t-44.5 -263t-19 -113.5z" />
    <glyph glyph-name="U.ss08" 
d="M868 -315q-355 0 -573.5 210t-218.5 549q0 140 40.5 279t112.5 260t176 225.5t226 178.5t267.5 116.5t295.5 42.5q229 0 409.5 -91.5t285 -267t104.5 -407.5q0 -213 -90 -414t-240.5 -350.5t-359.5 -240t-435 -90.5zM883 -236q137 0 269.5 37.5t244.5 104t207.5 161
t161.5 204t103.5 237.5t37.5 258q0 212 -94.5 372.5t-258.5 244t-372 83.5q-205 0 -395.5 -84.5t-327.5 -222.5t-219 -322t-82 -376q0 -204 90 -362.5t255.5 -246.5t379.5 -88zM969 262q-121 0 -170 70.5t-27 191.5l76 441h65l-75 -439q-38 -204 147 -204q177 0 215 204
l76 439h65l-75 -441q-22 -123 -100 -192.5t-197 -69.5z" />
    <glyph glyph-name="V.ss08" 
d="M1194 1546q229 0 409.5 -91.5t285 -267t104.5 -407.5q0 -213 -90 -414t-240.5 -350.5t-359.5 -240t-435 -90.5q-355 0 -573.5 210t-218.5 549q0 140 40.5 279t112.5 260t176 225.5t226 178.5t267.5 116.5t295.5 42.5zM883 -236q137 0 269.5 37.5t244.5 104t207.5 161
t161.5 204t103.5 237.5t37.5 258q0 212 -94.5 372.5t-258.5 244t-372 83.5q-205 0 -395.5 -84.5t-327.5 -222.5t-219 -322t-82 -376q0 -204 90 -362.5t255.5 -246.5t379.5 -88zM989 334q91 169 350 624h72l-403 -688h-64l-160 688h68q77 -307 137 -624z" />
    <glyph glyph-name="W.ss08" 
d="M1194 1546q229 0 409.5 -91.5t285 -267t104.5 -407.5q0 -213 -90 -414t-240.5 -350.5t-359.5 -240t-435 -90.5q-355 0 -573.5 210t-218.5 549q0 140 40.5 279t112.5 260t176 225.5t226 178.5t267.5 116.5t295.5 42.5zM883 -236q137 0 269.5 37.5t244.5 104t207.5 161
t161.5 204t103.5 237.5t37.5 258q0 212 -94.5 372.5t-258.5 244t-372 83.5q-205 0 -395.5 -84.5t-327.5 -222.5t-219 -322t-82 -376q0 -204 90 -362.5t255.5 -246.5t379.5 -88zM1208 342q158 340 301 616h68l-348 -688h-70q-57 380 -78 609q-131 -291 -295 -609h-67
l-107 688h70q64 -400 86 -612q114 248 295 612h65q50 -346 80 -616z" />
    <glyph glyph-name="X.ss08" 
d="M868 -315q-355 0 -573.5 210t-218.5 549q0 140 40.5 279t112.5 260t176 225.5t226 178.5t267.5 116.5t295.5 42.5q229 0 409.5 -91.5t285 -267t104.5 -407.5q0 -213 -90 -414t-240.5 -350.5t-359.5 -240t-435 -90.5zM883 -236q137 0 269.5 37.5t244.5 104t207.5 161
t161.5 204t103.5 237.5t37.5 258q0 212 -94.5 372.5t-258.5 244t-372 83.5q-205 0 -395.5 -84.5t-327.5 -222.5t-219 -322t-82 -376q0 -204 90 -362.5t255.5 -246.5t379.5 -88zM768 270h-74q20 23 89 104t120.5 139t100.5 110v4q-80 134 -183 331h76q79 -151 145 -294h2
q97 124 248 294h76q-270 -300 -299 -331v-4q32 -55 60.5 -109.5t68.5 -136.5t53 -107h-71q-97 194 -150 314q-97 -122 -262 -314z" />
    <glyph glyph-name="Y.ss08" 
d="M868 -315q-355 0 -573.5 210t-218.5 549q0 140 40.5 279t112.5 260t176 225.5t226 178.5t267.5 116.5t295.5 42.5q229 0 409.5 -91.5t285 -267t104.5 -407.5q0 -213 -90 -414t-240.5 -350.5t-359.5 -240t-435 -90.5zM883 -236q137 0 269.5 37.5t244.5 104t207.5 161
t161.5 204t103.5 237.5t37.5 258q0 212 -94.5 372.5t-258.5 244t-372 83.5q-205 0 -395.5 -84.5t-327.5 -222.5t-219 -322t-82 -376q0 -204 90 -362.5t255.5 -246.5t379.5 -88zM1006 270h-66q31 183 49 256q-17 39 -29.5 67.5t-22 49.5t-43.5 99.5t-93 215.5h73
q8 -19 28 -66t31 -74.5t28.5 -70.5t33 -86.5t31.5 -89.5q92 133 291 387h69q-13 -17 -143 -182t-199 -250q-11 -102 -38 -256z" />
    <glyph glyph-name="Z.ss08" 
d="M868 -315q-355 0 -573.5 210t-218.5 549q0 140 40.5 279t112.5 260t176 225.5t226 178.5t267.5 116.5t295.5 42.5q229 0 409.5 -91.5t285 -267t104.5 -407.5q0 -213 -90 -414t-240.5 -350.5t-359.5 -240t-435 -90.5zM883 -236q137 0 269.5 37.5t244.5 104t207.5 161
t161.5 204t103.5 237.5t37.5 258q0 212 -94.5 372.5t-258.5 244t-372 83.5q-205 0 -395.5 -84.5t-327.5 -222.5t-219 -322t-82 -376q0 -204 90 -362.5t255.5 -246.5t379.5 -88zM1251 270h-528l8 52q209 228 553 589q-266 -14 -434 -14l12 61h504l-10 -49
q-82 -90 -167 -179.5t-215.5 -225.5t-172.5 -180v-2q194 12 463 12z" />
    <glyph glyph-name="i.loclTRK" horiz-adv-x="491" 
d="M401 1434q-38 0 -62 24t-24 62q0 47 37 83.5t86 36.5q38 0 62 -24t24 -60q0 -47 -38 -84.5t-85 -37.5zM203 0h-111l199 1128h110z" />
    <glyph glyph-name="a.ss01" horiz-adv-x="1374" 
d="M516 -35q-195 0 -312.5 129t-117.5 344q0 184 86 350.5t235.5 269.5t321.5 103q144 0 247.5 -78.5t143.5 -238.5h21q4 103 33 284h110l-197 -1128h-110q1 7 7.5 47.5t9.5 56.5t10.5 50.5t17 66.5t22.5 68h-22q-96 -164 -228 -244t-278 -80zM551 66q105 0 203 51.5
t169 135.5t113.5 193.5t42.5 221.5q0 175 -99 284t-257 109q-105 0 -202 -52t-165 -136t-108.5 -194t-40.5 -222q0 -176 94 -283.5t250 -107.5z" />
    <glyph glyph-name="aacute.ss01" horiz-adv-x="1374" 
d="M1237 1671l-381 -393h-98l319 393h160zM516 -35q-195 0 -312.5 129t-117.5 344q0 184 86 350.5t235.5 269.5t321.5 103q144 0 247.5 -78.5t143.5 -238.5h21q4 103 33 284h110l-197 -1128h-110q1 7 7.5 47.5t9.5 56.5t10.5 50.5t17 66.5t22.5 68h-22q-96 -164 -228 -244
t-278 -80zM551 66q105 0 203 51.5t169 135.5t113.5 193.5t42.5 221.5q0 175 -99 284t-257 109q-105 0 -202 -52t-165 -136t-108.5 -194t-40.5 -222q0 -176 94 -283.5t250 -107.5z" />
    <glyph glyph-name="abreve.ss01" horiz-adv-x="1374" 
d="M813 1278q-113 0 -188 52.5t-102.5 141t-10.5 201.5h102q-20 -137 41 -218t176 -81q114 0 203 80.5t119 218.5h104q-38 -174 -156.5 -284.5t-287.5 -110.5zM516 -35q-195 0 -312.5 129t-117.5 344q0 184 86 350.5t235.5 269.5t321.5 103q144 0 247.5 -78.5t143.5 -238.5
h21q4 103 33 284h110l-197 -1128h-110q1 7 7.5 47.5t9.5 56.5t10.5 50.5t17 66.5t22.5 68h-22q-96 -164 -228 -244t-278 -80zM551 66q105 0 203 51.5t169 135.5t113.5 193.5t42.5 221.5q0 175 -99 284t-257 109q-105 0 -202 -52t-165 -136t-108.5 -194t-40.5 -222
q0 -176 94 -283.5t250 -107.5z" />
    <glyph glyph-name="acircumflex.ss01" horiz-adv-x="1374" 
d="M543 1278h-107l361 356h159l234 -356h-107q-146 178 -194 285h-45q-103 -128 -301 -285zM516 -35q-195 0 -312.5 129t-117.5 344q0 184 86 350.5t235.5 269.5t321.5 103q144 0 247.5 -78.5t143.5 -238.5h21q4 103 33 284h110l-197 -1128h-110q1 7 7.5 47.5t9.5 56.5
t10.5 50.5t17 66.5t22.5 68h-22q-96 -164 -228 -244t-278 -80zM551 66q105 0 203 51.5t169 135.5t113.5 193.5t42.5 221.5q0 175 -99 284t-257 109q-105 0 -202 -52t-165 -136t-108.5 -194t-40.5 -222q0 -176 94 -283.5t250 -107.5z" />
    <glyph glyph-name="adieresis.ss01" horiz-adv-x="1374" 
d="M659 1382q-35 0 -57 23t-22 59q0 44 34.5 77.5t77.5 33.5q36 0 58 -22t22 -54q0 -46 -34.5 -81.5t-78.5 -35.5zM1006 1382q-37 0 -59.5 22.5t-22.5 57.5q0 46 34 79.5t80 33.5q33 0 55.5 -22.5t22.5 -55.5q0 -44 -33.5 -79.5t-76.5 -35.5zM516 -35q-195 0 -312.5 129
t-117.5 344q0 184 86 350.5t235.5 269.5t321.5 103q144 0 247.5 -78.5t143.5 -238.5h21q4 103 33 284h110l-197 -1128h-110q1 7 7.5 47.5t9.5 56.5t10.5 50.5t17 66.5t22.5 68h-22q-96 -164 -228 -244t-278 -80zM551 66q105 0 203 51.5t169 135.5t113.5 193.5t42.5 221.5
q0 175 -99 284t-257 109q-105 0 -202 -52t-165 -136t-108.5 -194t-40.5 -222q0 -176 94 -283.5t250 -107.5z" />
    <glyph glyph-name="agrave.ss01" horiz-adv-x="1374" 
d="M868 1278h-100l-242 393h162zM516 -35q-195 0 -312.5 129t-117.5 344q0 184 86 350.5t235.5 269.5t321.5 103q144 0 247.5 -78.5t143.5 -238.5h21q4 103 33 284h110l-197 -1128h-110q1 7 7.5 47.5t9.5 56.5t10.5 50.5t17 66.5t22.5 68h-22q-96 -164 -228 -244t-278 -80z
M551 66q105 0 203 51.5t169 135.5t113.5 193.5t42.5 221.5q0 175 -99 284t-257 109q-105 0 -202 -52t-165 -136t-108.5 -194t-40.5 -222q0 -176 94 -283.5t250 -107.5z" />
    <glyph glyph-name="amacron.ss01" horiz-adv-x="1374" 
d="M1184 1430h-688l18 98h688zM516 -35q-195 0 -312.5 129t-117.5 344q0 184 86 350.5t235.5 269.5t321.5 103q144 0 247.5 -78.5t143.5 -238.5h21q4 103 33 284h110l-197 -1128h-110q1 7 7.5 47.5t9.5 56.5t10.5 50.5t17 66.5t22.5 68h-22q-96 -164 -228 -244t-278 -80z
M551 66q105 0 203 51.5t169 135.5t113.5 193.5t42.5 221.5q0 175 -99 284t-257 109q-105 0 -202 -52t-165 -136t-108.5 -194t-40.5 -222q0 -176 94 -283.5t250 -107.5z" />
    </font>
</defs>
</svg>
