<?xml version="1.0" standalone="no"?>
<!DOCTYPE svg PUBLIC "-//W3C//DTD SVG 1.1//EN" "http://www.w3.org/Graphics/SVG/1.1/DTD/svg11.dtd" >
<svg xmlns="http://www.w3.org/2000/svg" xmlns:xlink="http://www.w3.org/1999/xlink" version="1.1">
<metadata>
Created by FontForge 20170731 at Mon Mar 15 14:15:15 2021
 By Aleksey,,,
Copyright (c) 2020 by Matthieu Salvaggio x Blaze Type. All rights reserved.
</metadata>
<defs>
<font id="Area-HairlineInktrap" horiz-adv-x="2048" >
  <font-face 
    font-family="Area Hairline Inktrap"
    font-weight="50"
    font-stretch="normal"
    units-per-em="2048"
    panose-1="0 0 1 0 0 0 0 0 0 0"
    ascent="1638"
    descent="-410"
    x-height="1126"
    cap-height="1597"
    bbox="-1638 -485 2628 2138"
    underline-thickness="102"
    underline-position="-307"
    unicode-range="U+0020-25CA"
  />
<missing-glyph horiz-adv-x="1468" 
d="M1262 0h-1055v1597h1055v-1597zM307 1507v-1378l813 1378h-813zM1161 1415l-778 -1319h778v1319z" />
    <glyph glyph-name=".notdef" horiz-adv-x="1468" 
d="M1262 0h-1055v1597h1055v-1597zM307 1507v-1378l813 1378h-813zM1161 1415l-778 -1319h778v1319z" />
    <glyph glyph-name=".null" horiz-adv-x="0" 
 />
    <glyph glyph-name="nonmarkingreturn" horiz-adv-x="682" 
 />
    <glyph glyph-name="space" unicode=" " horiz-adv-x="552" 
 />
    <glyph glyph-name="exclam" unicode="!" horiz-adv-x="509" 
d="M285 358h-60l-30 1158v81h120v-81zM256 -14q-40 0 -67 28t-27 68q0 38 27 65t67 27q38 0 65 -27t27 -65q0 -40 -27 -68t-65 -28z" />
    <glyph glyph-name="quotedbl" unicode="&#x22;" horiz-adv-x="624" 
d="M250 1188h-100v409h100v-409zM475 1188h-100v409h100v-409z" />
    <glyph glyph-name="numbersign" unicode="#" horiz-adv-x="1355" 
d="M309 0h-88q78 390 107 512q-88 -20 -246 -20l16 79q158 0 246 -10q18 172 82 447q-92 -21 -246 -21l17 80q157 0 245 -10q26 192 95 540h88q-72 -363 -115 -540q222 15 444 0q26 192 95 540h88q-72 -363 -115 -540q90 10 252 10l-17 -80q-157 0 -251 21
q-19 -193 -82 -447q90 10 252 10l-17 -79q-162 0 -252 20q-28 -223 -86 -512h-88q78 390 107 512q-222 -29 -445 0q-28 -223 -86 -512zM412 561q222 15 444 0q18 172 82 447q-222 -29 -444 0q-19 -193 -82 -447z" />
    <glyph glyph-name="dollar" unicode="$" horiz-adv-x="1157" 
d="M1026 481q0 -152 -108.5 -253t-296.5 -105v-205h-82v209q-148 14 -258.5 98t-165.5 244l84 35q93 -259 340 -291v545q-46 11 -88 26t-97 45.5t-94.5 68t-67.5 97t-28 129.5q0 77 33 141t87.5 104t120 63t134.5 26v180h82v-184q135 -15 242.5 -98t140.5 -207l-80 -39
q-35 101 -113.5 171t-189.5 87v-534q48 -12 82.5 -22.5t79.5 -28t77 -35.5t65.5 -45.5t54 -58.5t33.5 -72.5t13 -90.5zM258 1126q0 -192 281 -270v516q-121 -6 -201 -71t-80 -175zM621 739v-530q55 2 107 16.5t100 43t77 80t29 118.5q0 52 -18.5 94t-46.5 69t-72.5 49
t-83 34.5t-92.5 25.5z" />
    <glyph glyph-name="percent" unicode="%" horiz-adv-x="1605" 
d="M340 811q-114 0 -185 98t-71 254q0 157 71 257t185 100t185 -100t71 -257q0 -156 -71 -254t-185 -98zM293 0h-92l1138 1468h84zM340 883q77 0 124.5 76t47.5 204t-47.5 205.5t-124.5 77.5t-124.5 -77.5t-47.5 -205.5t47.5 -204t124.5 -76zM1266 -29q-114 0 -185 98.5
t-71 254.5q0 157 71 256.5t185 99.5t185 -99.5t71 -256.5q0 -156 -71 -254.5t-185 -98.5zM1266 43q77 0 124.5 76.5t47.5 204.5t-47.5 205t-124.5 77t-124.5 -77t-47.5 -205t47.5 -204.5t124.5 -76.5z" />
    <glyph glyph-name="ampersand" unicode="&#x26;" horiz-adv-x="1370" 
d="M547 -35q-116 0 -215.5 44.5t-163.5 135t-64 209.5q0 68 22 129t57 108.5t88.5 92t107.5 77.5t123 68q-45 44 -79 80.5t-74.5 88.5t-67 99t-44.5 103t-18 109q0 139 106 230t259 91q158 0 258 -100t100 -238q0 -131 -94 -248t-246 -208l414 -439q72 235 102 373l88 -20
q-66 -263 -155 -394l342 -354h-111l-270 281q-163 -318 -465 -318zM567 874q42 37 51.5 45t45 40t45 42.5t35.5 39t34 43.5t24 41.5t21 48t10 48.5t5 56q0 125 -72.5 193.5t-187.5 68.5q-109 0 -182.5 -61.5t-73.5 -171.5q0 -45 14.5 -92.5t34.5 -86t57 -88t64.5 -82
t74.5 -84.5zM547 55q127 0 231.5 69.5t202.5 194.5l-444 472q-13 -10 -38 -29q-44 -33 -65.5 -50t-58.5 -48.5t-56.5 -52.5t-44.5 -53t-37 -60.5t-21 -64t-9 -73.5q0 -139 99.5 -222t240.5 -83z" />
    <glyph glyph-name="quotesingle" unicode="'" horiz-adv-x="399" 
d="M250 1188h-100v409h100v-409z" />
    <glyph glyph-name="parenleft" unicode="(" horiz-adv-x="587" 
d="M553 -307h-98q-167 198 -255.5 445.5t-88.5 506.5q0 260 88.5 507t255.5 445h98q-164 -197 -250 -444t-86 -508q0 -260 86 -507.5t250 -444.5z" />
    <glyph glyph-name="parenright" unicode=")" horiz-adv-x="587" 
d="M133 -307h-98q164 197 250 444.5t86 507.5q0 261 -86 508t-250 444h98q167 -198 255.5 -445t88.5 -507q0 -259 -88.5 -506.5t-255.5 -445.5z" />
    <glyph glyph-name="asterisk" unicode="*" horiz-adv-x="856" 
d="M467 1024h-78v217l-190 -108l-39 67l188 111l-188 110l39 68l190 -109v217h78v-217l190 109l39 -68l-188 -110l188 -111l-39 -67l-190 108v-217z" />
    <glyph glyph-name="plus" unicode="+" horiz-adv-x="987" 
d="M541 672h301v-94h-301v-312h-95v312h-301v94h301v311h95v-311z" />
    <glyph glyph-name="comma" unicode="," horiz-adv-x="425" 
d="M141 -252h-67q26 55 41 84.5t44 75.5t62 84q-94 16 -94 90q0 38 27 65t67 27q38 0 65 -27t27 -65q0 -34 -30.5 -91.5t-141.5 -242.5z" />
    <glyph glyph-name="hyphen" unicode="-" horiz-adv-x="765" 
d="M645 582h-524v84h524v-84z" />
    <glyph glyph-name="period" unicode="." horiz-adv-x="460" 
d="M231 -14q-40 0 -67 28t-27 68q0 38 27 65t67 27q38 0 65.5 -27t27.5 -65q0 -40 -27.5 -68t-65.5 -28z" />
    <glyph glyph-name="slash" unicode="/" horiz-adv-x="821" 
d="M178 -135h-94l557 1773h94z" />
    <glyph glyph-name="zero" unicode="0" horiz-adv-x="1439" 
d="M721 -35q-172 0 -306.5 105t-209 294t-74.5 431q0 243 74.5 433.5t209 296t306.5 105.5q171 0 305 -105.5t208.5 -296t74.5 -433.5q0 -242 -74.5 -431t-208.5 -294t-305 -105zM723 59q141 0 249 92.5t167 260t59 383.5q0 217 -59 385.5t-167 262t-249 93.5
q-216 0 -349.5 -206t-133.5 -535q0 -216 60 -383.5t170 -260t253 -92.5z" />
    <glyph glyph-name="one" unicode="1" horiz-adv-x="774" 
d="M541 0h-101q0 876 21 1393q-139 -222 -408 -254v90q174 26 283.5 128.5t109.5 239.5h95v-1597z" />
    <glyph glyph-name="two" unicode="2" horiz-adv-x="1257" 
d="M1151 0h-1024v4q15 127 45 215.5t100 166t122.5 119.5t181.5 131q21 15 32.5 23t30.5 21.5t35 24.5q48 34 83 61t88 78.5t87.5 100t60 116t25.5 135.5q0 150 -106.5 247t-276.5 97q-192 0 -313 -125.5t-121 -324.5l-88 16q0 230 144 377t378 147q214 0 349.5 -122.5
t135.5 -317.5q0 -82 -25 -156t-74 -137.5t-101 -112.5t-125 -104q-55 -42 -133.5 -96.5t-124 -86.5t-102.5 -80.5t-92 -92.5t-67.5 -108t-52.5 -140q324 20 928 20v-96z" />
    <glyph glyph-name="three" unicode="3" horiz-adv-x="1292" 
d="M643 -35q-196 0 -344 99.5t-199 265.5l84 43q50 -145 174.5 -231.5t288.5 -86.5q180 0 297 102.5t117 268.5q0 159 -116 256.5t-341 97.5h-158v86h179q186 0 287.5 96.5t101.5 241.5q0 154 -110 245t-281 91q-159 0 -269.5 -87.5t-134.5 -242.5l-88 17q27 187 166.5 295
t335.5 108q131 0 240 -48t176 -143t67 -220q0 -141 -82.5 -248t-220.5 -137v-21q163 -20 256.5 -119.5t93.5 -257.5q0 -97 -36.5 -182.5t-102.5 -149.5t-164.5 -101.5t-216.5 -37.5z" />
    <glyph glyph-name="four" unicode="4" horiz-adv-x="1304" 
d="M983 0h-100q0 272 20 430q-395 -26 -854 -10v102l834 1075h100q0 -727 -20 -1112q107 21 264 21v-96q-162 0 -264 20q20 -158 20 -430zM156 496q391 16 747 -11q-26 440 -10 1014q-113 -160 -233.5 -324.5t-277 -374t-226.5 -304.5z" />
    <glyph glyph-name="five" unicode="5" horiz-adv-x="1284" 
d="M633 -35q-195 0 -350 98.5t-213 266.5l84 43q58 -147 189 -232.5t292 -85.5q186 0 314 124t128 317q0 185 -120 304.5t-302 119.5q-130 0 -237.5 -62.5t-167.5 -165.5l-80 43l184 862h740v-90q-437 0 -693 21q-37 -336 -145 -723h14q54 89 161 144t239 55
q140 0 256.5 -62.5t186 -179t69.5 -264.5q0 -152 -73.5 -275t-199 -190.5t-276.5 -67.5z" />
    <glyph glyph-name="six" unicode="6" horiz-adv-x="1347" 
d="M698 -35q-258 0 -413.5 202t-155.5 550q0 200 54 370.5t149 289.5t228.5 186t287.5 67q195 0 336 -104l-70 -72q-121 86 -285 86q-128 0 -238 -57.5t-193.5 -166t-134.5 -276.5t-58 -378h20q43 171 182 270.5t308 99.5q102 0 197.5 -39t168.5 -107.5t116.5 -169
t43.5 -216.5q0 -152 -72.5 -275.5t-196.5 -191.5t-274 -68zM700 55q182 0 310.5 127.5t128.5 321.5q0 193 -127 318.5t-310 125.5q-189 0 -314.5 -132t-125.5 -318q0 -187 128 -315t310 -128z" />
    <glyph glyph-name="seven" unicode="7" horiz-adv-x="1200" 
d="M414 0h-101q0 213 96 502t267 576t368 468l-10 15q-70 -6 -139 -11t-152 -8t-132.5 -4.5t-151.5 -2.5t-133 -1h-152.5h-138.5v96h1126v-106q-195 -179 -368.5 -454.5t-276 -564t-102.5 -505.5z" />
    <glyph glyph-name="eight" unicode="8" horiz-adv-x="1325" 
d="M664 -35q-234 0 -386.5 130.5t-152.5 326.5q0 153 89.5 261.5t250.5 143.5v25q-138 43 -210.5 136.5t-72.5 217.5q0 178 136 301t348 123q207 0 342 -118t135 -293q0 -124 -73 -224t-210 -143v-25q161 -35 250.5 -143.5t89.5 -261.5q0 -130 -69.5 -234.5t-192 -163.5
t-274.5 -59zM664 872q163 0 271.5 98.5t108.5 248.5q0 144 -108 235.5t-272 91.5q-166 0 -274.5 -91.5t-108.5 -235.5q0 -151 108.5 -249t274.5 -98zM664 51q184 0 307 106t123 275q0 165 -110.5 264t-319.5 99q-211 0 -322 -99t-111 -264q0 -169 123.5 -275t309.5 -106z
" />
    <glyph glyph-name="nine" unicode="9" horiz-adv-x="1376" 
d="M631 -35q-288 0 -496 246l74 61q180 -217 409 -217q178 0 302 116t182.5 313.5t58.5 461.5h-20q-28 -137 -103 -234.5t-174 -143.5t-213 -46q-143 0 -263 71t-191.5 199t-71.5 285q0 239 157.5 396t399.5 157q89 0 167.5 -22.5t152 -77.5t126 -139t84 -214.5t31.5 -295.5
q0 -145 -23 -278t-72 -249.5t-119.5 -202.5t-173 -136t-224.5 -50zM655 606q127 0 230.5 67.5t161 181t57.5 247.5t-59.5 236t-157 154t-215.5 52q-189 0 -317 -130.5t-128 -338.5q0 -201 121.5 -335t306.5 -134z" />
    <glyph glyph-name="colon" unicode=":" horiz-adv-x="493" 
d="M248 971q-40 0 -67 28t-27 68q0 38 27 65t67 27q38 0 65 -27t27 -65q0 -40 -27 -68t-65 -28zM248 -14q-40 0 -67 28t-27 68q0 38 27 65t67 27q38 0 65 -27t27 -65q0 -40 -27 -68t-65 -28z" />
    <glyph glyph-name="semicolon" unicode=";" horiz-adv-x="575" 
d="M301 971q-40 0 -67 28t-27 68q0 38 27 65t67 27q38 0 65 -27t27 -65q0 -40 -27 -68t-65 -28zM221 -252h-67l116 244q-30 9 -46.5 33t-16.5 57q0 38 27 65t67 27q38 0 65 -27t27 -65q0 -34 -30.5 -91.5t-141.5 -242.5z" />
    <glyph glyph-name="less" unicode="&#x3c;" horiz-adv-x="1021" 
d="M848 426v-94l-696 246v94l696 246v-95l-578 -198z" />
    <glyph glyph-name="equal" unicode="=" horiz-adv-x="1024" 
d="M860 782h-696v95h696v-95zM860 373h-696v94h696v-94z" />
    <glyph glyph-name="greater" unicode="&#x3e;" horiz-adv-x="1021" 
d="M870 578l-696 -246v94l578 199l-578 198v95l696 -246v-94z" />
    <glyph glyph-name="question" unicode="?" horiz-adv-x="1048" 
d="M479 414h-88q-4 40 -4 59q0 47 12 88t27.5 70t52 67.5t61.5 60.5t81 68q115 96 176 190t61 204q0 99 -49 174t-125.5 112t-167.5 37q-89 0 -167 -38.5t-129.5 -118t-51.5 -185.5q0 -34 6 -72l-88 17q-6 37 -6 72q0 123 62 218t161.5 144t216.5 49q85 0 163.5 -27.5
t140 -78t98 -128t36.5 -169.5q0 -73 -24 -141t-69.5 -127.5t-91 -104.5t-109.5 -98q-52 -42 -78 -66t-55.5 -60.5t-41.5 -75.5t-12 -89q0 -33 2 -51zM465 -14q-40 0 -67 28t-27 68q0 38 27 65t67 27q38 0 65 -27t27 -65q0 -40 -27 -68t-65 -28z" />
    <glyph glyph-name="at" unicode="@" horiz-adv-x="1974" 
d="M903 -195q-182 0 -334.5 63t-253.5 172t-157 253.5t-56 308.5q0 157 51 310t145 281.5t219 227t282.5 154t324.5 55.5q220 0 396.5 -93t279.5 -267.5t103 -401.5q0 -179 -62.5 -330t-169.5 -238t-233 -87q-114 0 -164.5 72.5t-28.5 203.5h-4q-55 -90 -125.5 -149
t-138 -83t-137.5 -24q-147 0 -241.5 111.5t-94.5 276.5q0 108 43 214t112.5 184.5t163 127.5t189.5 49q110 0 193.5 -65t129.5 -197h2q-3 122 23 235h82l-109 -616q-45 -260 119 -260q140 0 245 162.5t105 394.5q0 199 -83 356.5t-238.5 247.5t-358.5 90q-185 0 -356 -77.5
t-293 -205.5t-195 -300.5t-73 -356.5q0 -150 49.5 -279.5t140 -224.5t226 -149.5t299.5 -54.5q158 0 303 48t252 134l49 -72q-128 -98 -292 -149.5t-329 -51.5zM866 317q114 0 209 72t147 184.5t52 235.5q0 137 -68 220t-194 83q-114 0 -208.5 -69.5t-146 -180.5t-51.5 -235
q0 -139 67.5 -224.5t192.5 -85.5z" />
    <glyph glyph-name="A" unicode="A" horiz-adv-x="1495" 
d="M143 0h-106l659 1597h103l659 -1597h-106q-162 385 -224 604l-18 17q-22 -2 -103 -8.5t-135 -9.5t-108 -3q-123 0 -369 21l-20 -19q-74 -215 -232 -602zM410 690l12 -20q234 20 342 20q119 0 303 -20l12 18q-191 421 -311 799h-41q-133 -398 -317 -797z" />
    <glyph glyph-name="B" unicode="B" horiz-adv-x="1458" 
d="M864 0h-635v1597h545q121 0 220.5 -35t162.5 -93.5t97 -132.5t34 -156q0 -122 -74 -220t-221 -133v-32q90 -14 159 -51t108.5 -88.5t59 -109.5t19.5 -120q0 -176 -133 -301t-342 -125zM311 852l17 -23q169 19 446 19q193 0 301.5 92t108.5 231q0 148 -120 242t-310 94
q-253 0 -426 19l-19 -19q29 -308 2 -655zM309 90l19 -18q178 18 497 18q193 0 301.5 92.5t108.5 233.5q0 148 -117.5 245t-312.5 97q-305 0 -477 18l-17 -22q27 -351 -2 -664z" />
    <glyph glyph-name="C" unicode="C" horiz-adv-x="1726" 
d="M918 -35q-174 0 -323.5 61.5t-254 170t-164 262t-59.5 332.5q0 183 61.5 340t167 266t251.5 171t312 62q109 0 214 -27t200.5 -80.5t169.5 -143.5t111 -205l-88 -37q-50 128 -144.5 219t-212 135.5t-248.5 44.5q-110 0 -211.5 -32t-187.5 -95t-150.5 -151.5
t-100.5 -208.5t-36 -258q0 -142 39.5 -263t107 -206.5t158 -145.5t193 -88.5t211.5 -28.5q133 0 245 42t190 114.5t131 161.5t81 192l88 -32q-36 -119 -98.5 -219t-153 -180.5t-219 -126.5t-280.5 -46z" />
    <glyph glyph-name="D" unicode="D" horiz-adv-x="1654" 
d="M795 0h-566v1597h547q156 0 283 -40.5t214.5 -112t146.5 -171.5t86.5 -216t27.5 -248q0 -238 -87 -420t-255.5 -285.5t-396.5 -103.5zM309 90l19 -18q174 18 487 18q191 0 331 90t212 249t72 368q0 158 -42.5 287.5t-125.5 224t-212 146.5t-294 52q-265 0 -428 19
l-19 -19q30 -701 0 -1417z" />
    <glyph glyph-name="E" unicode="E" horiz-adv-x="1353" 
d="M1243 0h-1014v1597h994v-90q-51 0 -209 -1t-236.5 -0.5t-208.5 5.5t-241 15l-19 -19q30 -315 2 -635l17 -22q305 18 854 18v-90q-534 0 -854 19l-17 -23q27 -341 -2 -684l19 -18q311 24 915 24v-96z" />
    <glyph glyph-name="F" unicode="F" horiz-adv-x="1273" 
d="M330 0h-101v1597h973v-98q-565 0 -874 27l-19 -19q29 -326 2 -645l17 -22q297 18 833 18v-90q-530 0 -833 18l-17 -22q19 -266 19 -764z" />
    <glyph glyph-name="G" unicode="G" horiz-adv-x="1804" 
d="M909 -35q-171 0 -318.5 61.5t-251.5 170t-163 262t-59 332.5q0 183 61.5 340t167 266t251.5 171t312 62q109 0 214 -27t200.5 -80.5t169.5 -143.5t111 -205l-88 -37q-50 128 -144.5 219t-212 135.5t-248.5 44.5q-110 0 -211.5 -32t-187.5 -95t-150.5 -151.5
t-100.5 -208.5t-36 -258q0 -176 59.5 -318.5t158.5 -231t222.5 -135.5t258.5 -47q271 0 447.5 177t207.5 460l-10 15q-414 -35 -604 -35v90h694v-766h-88q0 20 -2 119t0.5 163.5t11.5 133.5h-20q-80 -218 -246 -334.5t-406 -116.5z" />
    <glyph glyph-name="H" unicode="H" horiz-adv-x="1654" 
d="M330 0h-101v1597h101q0 -491 -19 -733l17 -22q535 23 999 0l16 22q-18 244 -18 733h100v-1597h-100q0 494 18 766l-16 22q-466 -48 -999 0l-17 -22q19 -272 19 -766z" />
    <glyph glyph-name="I" unicode="I" horiz-adv-x="559" 
d="M330 0h-101v1597h101v-1597z" />
    <glyph glyph-name="J" unicode="J" horiz-adv-x="1177" 
d="M537 -35q-70 0 -134.5 15t-128 51.5t-110 92.5t-75 145.5t-28.5 201.5v41l91 12v-32q0 -99 24 -177t62 -126t90 -79t102.5 -43t104.5 -12t99 13t77 32.5t57.5 52.5t41.5 62t27.5 73t16.5 74t8 76.5t3.5 69t0.5 61.5v1028h101v-991q0 -47 -0.5 -75t-4.5 -84.5t-11 -95
t-22 -93t-35.5 -92t-54 -78.5t-75 -65.5t-99.5 -41t-128 -16.5z" />
    <glyph glyph-name="K" unicode="K" horiz-adv-x="1339" 
d="M330 0h-101v1597h101v-124.5v-138t-1 -121t-2.5 -138.5t-4.5 -122.5t-8 -140t-11 -128.5h21q83 93 167 184.5t184 198t157.5 167.5t181 191.5t162.5 171.5h122q-26 -27 -106 -112t-114 -121t-105 -109t-117.5 -119.5t-109 -107t-119.5 -113.5v-22q355 -433 712 -893h-122
q-420 524 -646 842h-18q-98 -146 -234 -260q11 -221 11 -582z" />
    <glyph glyph-name="L" unicode="L" horiz-adv-x="1214" 
d="M1182 0h-953v1597h101q0 -959 -21 -1507l19 -18q289 24 854 24v-96z" />
    <glyph glyph-name="M" unicode="M" horiz-adv-x="2056" 
d="M330 0h-101v1597h99q365 -712 690 -1486h20q340 773 691 1486h98v-1597h-101q0 66 -1 268.5t0 301t3.5 265t9.5 310t19 287.5h-20q-181 -404 -654 -1432h-110q-473 1028 -654 1432h-20q12 -144 19 -287.5t9.5 -310t3.5 -265t0 -301t-1 -268.5z" />
    <glyph glyph-name="N" unicode="N" horiz-adv-x="1695" 
d="M330 0h-101v1597h93q488 -653 1050 -1464h21q-6 103 -11 205t-8 224.5t-4.5 195.5t-2.5 222t-1 194.5v222v200.5h100v-1597h-92q-562 751 -1048 1444h-21q7 -118 12.5 -249t8 -231t3.5 -251.5t1.5 -228.5t0 -250t-0.5 -234z" />
    <glyph glyph-name="O" unicode="O" horiz-adv-x="1828" 
d="M913 -35q-162 0 -308.5 63.5t-254.5 172.5t-171.5 264.5t-63.5 331.5q0 175 63 330.5t170.5 265.5t255 173.5t311.5 63.5q222 0 405.5 -111t288.5 -302.5t105 -419.5q0 -230 -107 -421.5t-291 -301t-403 -109.5zM918 59q136 0 261 56t219 152t150 234.5t56 295.5t-56 296
t-150 235.5t-219 152t-261 55.5q-138 0 -265 -55.5t-222 -152t-151.5 -235.5t-56.5 -296t56.5 -295.5t151.5 -234.5t222 -152t265 -56z" />
    <glyph glyph-name="P" unicode="P" horiz-adv-x="1361" 
d="M330 0h-101v1597h545q123 0 221.5 -36t162 -98.5t97 -146t33.5 -181.5q0 -214 -131 -347t-344 -133q-129 0 -192 1t-149.5 8t-162.5 22q21 -263 21 -686zM311 750l17 -23q162 18 446 18q197 0 303.5 101t106.5 278q0 175 -115.5 279t-314.5 104q-263 0 -426 19l-19 -19
q30 -375 2 -757z" />
    <glyph glyph-name="Q" unicode="Q" horiz-adv-x="1828" 
d="M1647 -117l-70 -59q-156 185 -225 293q-189 -152 -439 -152q-162 0 -308.5 63.5t-254.5 172.5t-171.5 264.5t-63.5 331.5q0 175 63 330.5t170.5 265.5t255 173.5t311.5 63.5q222 0 405.5 -111t288.5 -302.5t105 -419.5q0 -198 -81.5 -365.5t-233.5 -281.5
q28 -25 54 -50.5t56 -58.5t44 -48.5t50.5 -58.5t43.5 -51zM915 59q192 0 394 109q-137 137 -359 399l70 60q208 -245 336 -426q248 265 248 596q0 157 -56 296t-150.5 235.5t-220.5 152t-262 55.5q-137 0 -263 -55.5t-221 -151.5t-151.5 -235t-56.5 -297t57 -297t152 -234.5
t221 -151t262 -55.5z" />
    <glyph glyph-name="R" unicode="R" horiz-adv-x="1415" 
d="M330 0h-101v1597h545q123 0 221.5 -36t162 -98.5t97 -146t33.5 -181.5q0 -198 -116.5 -319t-317.5 -138v-21q69 -96 143.5 -205.5t164 -246t136.5 -205.5h-110l-440 655q-93 0 -144.5 1t-135.5 8.5t-159 21.5q21 -263 21 -686zM311 750l17 -23q162 18 446 18
q197 0 303.5 101t106.5 278q0 175 -115.5 279t-314.5 104q-248 0 -426 19l-19 -19q28 -390 2 -757z" />
    <glyph glyph-name="S" unicode="S" horiz-adv-x="1314" 
d="M678 -35q-68 0 -134.5 13.5t-137.5 47t-130 85t-109.5 134t-78.5 187.5l92 35q52 -193 188 -300.5t314 -107.5q59 0 116.5 11.5t112.5 38.5t96.5 65.5t67 97.5t25.5 131q0 62 -21.5 111t-45.5 77.5t-79.5 56.5t-83 37.5t-96.5 30.5q-23 7 -35 11l-149 47
q-44 14 -76.5 25.5t-82 33.5t-85.5 44.5t-76.5 58t-65.5 74.5t-42 92.5t-17 114.5q0 83 29.5 152t79.5 116.5t116 80.5t137.5 48.5t145.5 15.5q183 0 324.5 -98t196.5 -287l-89 -37q-47 150 -165 239t-283 89q-106 0 -193.5 -37t-140.5 -108.5t-53 -165.5q0 -49 16 -92.5
t37 -74t58 -59.5t63.5 -45t70 -34.5t60 -24t51.5 -16.5l152 -50q154 -50 190 -65q179 -74 234 -199q28 -64 28 -145q0 -137 -77 -243t-197 -159t-258 -53z" />
    <glyph glyph-name="T" unicode="T" horiz-adv-x="1296" 
d="M698 0h-100q0 1006 20 1528q-219 -21 -585 -21v90h1231v-90q-367 0 -586 21q20 -522 20 -1528z" />
    <glyph glyph-name="U" unicode="U" horiz-adv-x="1544" 
d="M766 -35q-124 0 -224 34.5t-175.5 105t-116.5 187.5t-41 273v1032h100v-1028q0 -268 123 -391t340 -123t340 123t123 391v1028h100v-1032q0 -282 -146 -441t-423 -159z" />
    <glyph glyph-name="V" unicode="V" horiz-adv-x="1495" 
d="M799 0h-103l-659 1597h106q340 -808 598 -1507h21q70 189 152 402t141 361.5t153.5 384.5t143.5 359h106z" />
    <glyph glyph-name="W" unicode="W" horiz-adv-x="2314" 
d="M692 0h-117l-532 1597h102q311 -901 482 -1493h20q154 543 455 1493h110q305 -951 461 -1493h21q211 725 475 1493h102l-532 -1597h-117q-261 776 -455 1487h-20q-215 -777 -455 -1487z" />
    <glyph glyph-name="X" unicode="X" horiz-adv-x="1308" 
d="M145 0h-112q48 69 137.5 200.5t146.5 213.5t136.5 194.5t148.5 204.5v21q-264 350 -553 763h113q309 -433 483 -710h21q163 270 481 710h113q-289 -413 -553 -763v-21q90 -119 179 -245.5t218.5 -316.5t171.5 -251h-111q-280 409 -499 762h-21q-39 -65 -84 -136
t-77.5 -122t-88.5 -134.5t-79 -118t-89 -131.5t-82 -120z" />
    <glyph glyph-name="Y" unicode="Y" horiz-adv-x="1404" 
d="M752 0h-101q0 377 11 596q-266 421 -615 1001h111q351 -585 534 -929h21q31 59 66.5 123t63 113.5t70 122.5t64.5 111t71 120t65 109t71.5 119t66.5 111h107q-434 -713 -617 -1001q11 -219 11 -596z" />
    <glyph glyph-name="Z" unicode="Z" horiz-adv-x="1335" 
d="M1274 0h-1217v86q159 215 333.5 445.5t407 534.5t341.5 447l-11 21q-475 -27 -1028 -27v90h1155v-79q-210 -284 -613 -809t-470 -613l10 -20q373 20 1092 20v-96z" />
    <glyph glyph-name="bracketleft" unicode="[" horiz-adv-x="622" 
d="M573 -307h-366v1904h366v-84q-175 0 -292 21q30 -889 0 -1778q117 21 292 21v-84z" />
    <glyph glyph-name="backslash" unicode="\" horiz-adv-x="821" 
d="M737 -135h-94l-557 1773h94z" />
    <glyph glyph-name="bracketright" unicode="]" horiz-adv-x="622" 
d="M416 -307h-367v84q176 0 293 -21q-30 889 0 1778q-117 -21 -293 -21v84h367v-1904z" />
    <glyph glyph-name="asciicircum" unicode="^" horiz-adv-x="851" 
d="M229 1065h-100l246 532h102l246 -532h-100q-124 275 -183 440h-28q-59 -165 -183 -440z" />
    <glyph glyph-name="underscore" unicode="_" horiz-adv-x="1011" 
d="M983 -217h-954v84h954v-84z" />
    <glyph glyph-name="a" unicode="a" horiz-adv-x="1167" 
d="M455 -35q-151 0 -251 73.5t-100 209.5q0 78 33.5 138t95 100.5t131.5 66t160 43.5q27 5 80.5 14.5t78.5 15t65 16t60 23t41.5 31.5t30.5 45t9 60q0 109 -89.5 191.5t-228.5 82.5q-123 0 -209.5 -69t-121.5 -185l-95 33q32 101 102.5 172t155 102t177.5 31q57 0 112.5 -12
t110 -40t95.5 -69.5t66 -105t25 -141.5v-439q0 -131 8.5 -204t28.5 -148h-96q-19 74 -23.5 129.5t8.5 151.5h-20q-59 -147 -168.5 -231.5t-271.5 -84.5zM459 47q95 0 178.5 41.5t137 104t84 133.5t30.5 133v192q-47 -56 -96.5 -78t-184.5 -47q-44 -8 -68.5 -13t-73 -18
t-78 -25.5t-68.5 -34.5t-61 -46.5t-38 -60t-16 -76.5q0 -94 70 -149.5t184 -55.5z" />
    <glyph glyph-name="b" unicode="b" horiz-adv-x="1372" 
d="M743 -35q-147 0 -267 78t-187 229h-21q5 -25 8.5 -52t5 -44t2.5 -49t1 -40.5v-46v-40.5h-90v1638h94q0 -37 0.5 -146t0 -164.5t-1.5 -147.5t-4.5 -174t-9.5 -166h21q69 164 186.5 241.5t261.5 77.5q225 0 376 -167.5t151 -428.5q0 -262 -150.5 -430t-376.5 -168zM735 49
q187 0 309.5 146t122.5 368t-123.5 367t-308.5 145q-186 0 -316 -145t-130 -369q0 -112 36 -208.5t96.5 -162.5t142 -103.5t171.5 -37.5z" />
    <glyph glyph-name="c" unicode="c" horiz-adv-x="1243" 
d="M655 -35q-246 0 -399.5 166t-153.5 430q0 265 154.5 431.5t400.5 166.5q74 0 141.5 -16.5t131.5 -52t117 -97t86 -145.5l-95 -33q-45 121 -147 190.5t-240 69.5q-202 0 -324 -145t-122 -369q0 -228 127 -370t330 -142q160 0 271.5 88.5t168.5 231.5l84 -27
q-66 -183 -207 -280t-324 -97z" />
    <glyph glyph-name="d" unicode="d" horiz-adv-x="1374" 
d="M629 -35q-226 0 -376.5 168t-150.5 428q0 262 152 430t379 168q143 0 260 -78.5t186 -242.5h21q-21 338 -17 800h95v-1286q0 -132 8.5 -205.5t27.5 -146.5h-96q-19 74 -23 131.5t9 161.5h-21q-67 -164 -186 -246t-268 -82zM637 49q186 0 316 145t130 369q0 112 -36 208.5
t-96.5 162.5t-142 103.5t-171.5 37.5q-187 0 -309.5 -146t-122.5 -368t123.5 -367t308.5 -145z" />
    <glyph glyph-name="e" unicode="e" horiz-adv-x="1269" 
d="M649 -35q-156 0 -280.5 74.5t-195.5 211t-71 310.5q0 263 154.5 430.5t394.5 167.5q65 0 127.5 -12.5t133.5 -49.5t123 -95.5t87 -160.5t35 -235v-49h-952q0 -225 126 -366.5t324 -141.5q158 0 270 90t167 230l84 -27q-65 -181 -205.5 -279t-321.5 -98zM209 645h844
q0 93 -24.5 168t-64.5 123t-94 80t-109 45.5t-114 13.5q-176 0 -294.5 -118.5t-143.5 -311.5z" />
    <glyph glyph-name="f" unicode="f" horiz-adv-x="686" 
d="M322 0h-95q0 680 21 1067q-78 -20 -191 -20v79q113 0 191 -20q-21 78 -21 182q0 40 0.5 63t3 60.5t7.5 60t14.5 53.5t23 50t34.5 39.5t47.5 32t63.5 19t81 7.5q131 0 217 -59v-94q-99 69 -209 69q-28 0 -51 -3t-41 -11.5t-31.5 -16.5t-23.5 -23.5t-17.5 -27.5
t-11.5 -34.5t-6.5 -37t-4 -43t-1.5 -45v-49.5q0 -110 -21 -192q137 20 371 20v-79q-234 0 -371 20q21 -387 21 -1067z" />
    <glyph glyph-name="g" unicode="g" horiz-adv-x="1370" 
d="M668 -483q-189 0 -315 79.5t-187 251.5l88 29q42 -128 145.5 -202t270.5 -74q65 0 120.5 13.5t110.5 49.5t93.5 93t62.5 150.5t24 215.5q0 112 17 170h-21q-69 -139 -188 -216t-262 -77q-148 0 -268.5 76t-189.5 210t-69 298q0 250 152.5 412.5t376.5 162.5
q138 0 260 -87.5t188 -233.5h21q-13 104 -13 288h91v-979q0 -630 -508 -630zM635 84q184 0 315 144t131 358q0 106 -36 198t-96.5 155.5t-142 99.5t-171.5 36q-186 0 -309 -141.5t-123 -349.5q0 -211 124 -355.5t308 -144.5z" />
    <glyph glyph-name="h" unicode="h" horiz-adv-x="1292" 
d="M289 0h-94v1638h94q0 -349 -31 -764h21q136 285 419 285q63 0 119.5 -13t112.5 -46t96 -83t65 -130t25 -182v-705h-94v664q0 93 -20 166t-52 118t-77 74.5t-91 41t-98 11.5q-94 0 -171.5 -40t-125 -104t-73 -138.5t-25.5 -149.5v-643z" />
    <glyph glyph-name="i" unicode="i" horiz-adv-x="483" 
d="M242 1446q-41 0 -69 28.5t-28 69.5q0 39 28 66.5t69 27.5q39 0 66.5 -27.5t27.5 -66.5q0 -41 -27 -69.5t-67 -28.5zM289 0h-94v1126h94v-1126z" />
    <glyph glyph-name="j" unicode="j" horiz-adv-x="483" 
d="M242 1446q-41 0 -69 28.5t-28 69.5q0 39 28 66.5t69 27.5q39 0 66.5 -27.5t27.5 -66.5q0 -41 -27 -69.5t-67 -28.5zM-12 -483q-125 0 -211 59v94q99 -69 196 -69q32 0 59.5 7t48.5 21.5t37.5 31t28 41.5t20 46.5t14 52.5t8.5 53t4 54.5t1.5 50.5t0.5 47v1120h94v-1140
q0 -38 -0.5 -59.5t-3 -64.5t-7.5 -70.5t-15.5 -67t-25 -65.5t-37.5 -55.5t-52.5 -46.5t-70 -28.5t-89.5 -11.5z" />
    <glyph glyph-name="k" unicode="k" horiz-adv-x="1038" 
d="M289 0h-94v1638h94v-151.5v-163.5t-0.5 -148.5t-1.5 -164t-3 -150t-5 -165.5t-7 -156h21q168 183 557 587h119l-439 -436q122 -155 519 -690h-107q-259 344 -467 633q-101 -122 -207 -191q21 -162 21 -442z" />
    <glyph glyph-name="l" unicode="l" horiz-adv-x="483" 
d="M289 0h-94v1638h94v-1638z" />
    <glyph glyph-name="m" unicode="m" horiz-adv-x="2078" 
d="M289 0h-94v1126h90q0 -154 -27 -252h21q136 285 415 285q62 0 117.5 -15t109 -49t92.5 -98.5t54 -154.5h20q125 317 412 317q60 0 114.5 -13t108.5 -46t93 -83t63.5 -130t24.5 -182v-705h-95v664q0 93 -19.5 166t-51 118t-75 74.5t-88 41t-93.5 11.5q-89 0 -164 -40
t-122 -103.5t-73 -138.5t-26 -150v-643h-95v664q0 93 -19.5 166t-51 118t-75 74.5t-88 41t-93.5 11.5q-89 0 -164 -40t-122 -103.5t-73 -138.5t-26 -150v-643z" />
    <glyph glyph-name="n" unicode="n" horiz-adv-x="1292" 
d="M289 0h-94v1126h90q0 -154 -27 -252h21q136 285 421 285q63 0 120 -13t112 -46t95 -83t64.5 -130t24.5 -182v-705h-94v664q0 93 -20 166t-52 118t-77 74.5t-91 41t-98 11.5q-76 0 -141.5 -26t-111 -69.5t-78.5 -100t-48.5 -116.5t-15.5 -120v-643z" />
    <glyph glyph-name="o" unicode="o" horiz-adv-x="1320" 
d="M662 -35q-247 0 -403.5 166.5t-156.5 429.5q0 264 156.5 431t403.5 167q246 0 401.5 -167t155.5 -431q0 -263 -155.5 -429.5t-401.5 -166.5zM662 49q202 0 328 143t126 369q0 227 -126 370.5t-328 143.5t-329.5 -144t-127.5 -370t127.5 -369t329.5 -143z" />
    <glyph glyph-name="p" unicode="p" horiz-adv-x="1372" 
d="M289 -451h-94v1577h90q0 -163 -17 -276h21q69 155 189 232t265 77q225 0 376 -167.5t151 -428.5q0 -262 -150.5 -430t-376.5 -168q-145 0 -264 76.5t-186 224.5h-21q4 -52 7 -104.5t5 -110t3 -98.5t1.5 -106.5t0.5 -96v-104.5v-97zM735 49q187 0 309.5 146t122.5 368
t-123.5 367t-308.5 145q-186 0 -316 -145t-130 -369q0 -112 36 -208.5t96.5 -162.5t142 -103.5t171.5 -37.5z" />
    <glyph glyph-name="q" unicode="q" horiz-adv-x="1372" 
d="M1178 -451h-95q0 34 -0.5 133t0 149t1.5 132t4.5 153.5t9.5 143.5h-21q-69 -145 -186.5 -220t-261.5 -75q-226 0 -376.5 168t-150.5 428q0 130 41 242.5t112 190t168.5 121.5t207.5 44q145 0 266 -77t190 -232h21q-21 111 -21 276h91v-1577zM637 49q186 0 316 145
t130 369q0 112 -36 208.5t-96.5 162.5t-142 103.5t-171.5 37.5q-187 0 -309.5 -146t-122.5 -368t123.5 -367t308.5 -145z" />
    <glyph glyph-name="r" unicode="r" horiz-adv-x="825" 
d="M289 0h-94v1126h90q0 -15 0.5 -61t0.5 -71t-3.5 -69.5t-10.5 -88.5h21q42 155 144.5 239t234.5 84q77 0 133 -22v-101q-60 29 -139 29q-112 0 -200 -70t-132.5 -179t-44.5 -234v-582z" />
    <glyph glyph-name="s" unicode="s" horiz-adv-x="1001" 
d="M530 -35q-159 0 -283.5 87t-172.5 229l88 28q44 -113 148.5 -186.5t221.5 -73.5q43 0 89 12t92 37t76 73t30 112q0 41 -15 74.5t-36.5 54.5t-59.5 39.5t-69 28.5t-80 24l-104 28q-31 9 -49 14.5t-57 20.5t-64.5 30.5t-58 41.5t-52 55.5t-33.5 71.5t-14 90q0 62 22 114
t58 86t83 58t96 34.5t97 10.5q135 0 243.5 -77.5t147.5 -194.5l-94 -33q-33 94 -114.5 157.5t-196.5 63.5q-107 0 -176.5 -57t-69.5 -152q0 -46 19 -84.5t45.5 -63t68.5 -46.5t73.5 -33t74.5 -23l112 -32q35 -10 56.5 -17t57 -21.5t58.5 -28.5t50 -36.5t42.5 -47.5
t26.5 -59.5t11 -74.5q0 -139 -110 -236.5t-278 -97.5z" />
    <glyph glyph-name="t" unicode="t" horiz-adv-x="745" 
d="M494 -35q-50 0 -90 14t-65 34t-43 55t-27 62t-13.5 71t-5 67t-0.5 64q0 475 20 733q-101 -21 -245 -21v82q149 0 245 -20q-20 133 -20 360h94q0 -227 -20 -360q139 20 376 20v-82q-230 0 -376 21q20 -252 20 -713q0 -39 0.5 -59.5t3.5 -58t8.5 -58.5t17.5 -48.5t29 -42.5
t43 -25.5t60 -10.5q94 0 194 70v-94q-88 -60 -206 -60z" />
    <glyph glyph-name="u" unicode="u" horiz-adv-x="1273" 
d="M582 -35q-59 0 -114 13t-109 46t-94 83.5t-64.5 130.5t-24.5 182v706h94v-665q0 -115 29.5 -199t79.5 -128.5t105.5 -64.5t117.5 -20q90 0 164.5 40t120.5 103.5t71 138.5t25 150v645h94v-774q0 -131 8.5 -204t28.5 -148h-96q-19 74 -23 127.5t9 142.5h-21
q-120 -305 -401 -305z" />
    <glyph glyph-name="v" unicode="v" horiz-adv-x="1089" 
d="M590 0h-90l-461 1126h102q267 -669 396 -1032h20q119 340 391 1032h103z" />
    <glyph glyph-name="w" unicode="w" horiz-adv-x="1843" 
d="M553 0h-90l-420 1126h102q8 -22 50.5 -138t55 -151.5t48.5 -135.5t54.5 -154.5t48 -140.5t53 -161t47.5 -153h20q111 372 348 1034h103q246 -663 360 -1034h21q18 61 35.5 120t39 126t36 111t40.5 121t36 108t41 118.5t37 105t41 116.5t38 108h102l-420 -1126h-90
q-227 607 -366 1026h-4q-131 -394 -367 -1026z" />
    <glyph glyph-name="x" unicode="x" horiz-adv-x="1019" 
d="M141 0h-102q244 335 418 557v21q-150 187 -420 548h108q258 -350 355 -499h20q104 160 354 499h109q-270 -361 -420 -548v-21q174 -222 418 -557h-102q-20 27 -71 97.5t-77.5 108t-68 96t-76 110t-66.5 102.5h-20q-32 -51 -66.5 -102.5t-76 -110t-68 -96t-77.5 -108
t-71 -97.5z" />
    <glyph glyph-name="y" unicode="y" horiz-adv-x="1089" 
d="M406 -451h-80l176 445l-463 1132h102q233 -568 396 -1052h20q173 520 391 1052h103z" />
    <glyph glyph-name="z" unicode="z" horiz-adv-x="970" 
d="M922 0h-865v66q42 60 206.5 295.5t273.5 387.5t221 302l-8 20q-361 -31 -650 -31v86h774v-65q-408 -579 -704 -975l8 -20q264 20 744 20v-86z" />
    <glyph glyph-name="braceleft" unicode="{" horiz-adv-x="714" 
d="M674 -307h-66q-100 0 -172.5 23.5t-115 61.5t-68 98t-33.5 120.5t-8 140.5v168q0 54 -1.5 95t-7 71t-9.5 50.5t-14.5 33.5t-17.5 20.5t-23 10.5t-25.5 3.5t-30.5 0.5v110q21 0 30.5 0.5t25.5 3.5t23 10.5t17.5 20.5t14.5 33.5t9.5 50.5t7 71t1.5 95v168q0 80 8 140.5
t33.5 120.5t68 98t115 61.5t172.5 23.5h66v-84h-66q-88 0 -149 -22t-94 -64.5t-46.5 -94.5t-13.5 -122v-219q0 -96 -8 -156t-27.5 -94t-41 -49.5t-60.5 -29.5v-33q39 -14 60.5 -29.5t41 -50t27.5 -94.5t8 -156v-219q0 -70 13.5 -122t46.5 -94.5t94 -64.5t149 -22h66v-84z
" />
    <glyph glyph-name="bar" unicode="|" horiz-adv-x="514" 
d="M307 -451h-100v2089h100v-2089z" />
    <glyph glyph-name="braceright" unicode="}" horiz-adv-x="714" 
d="M106 -307h-65v84h65q88 0 149 22t94 64.5t47 94.5t14 122v219q0 96 8 156t27.5 94.5t41 50t60.5 29.5v33q-39 14 -60.5 29.5t-41 49.5t-27.5 94t-8 156v219q0 70 -14 122t-47 94.5t-94 64.5t-149 22h-65v84h65q100 0 172.5 -23.5t115.5 -61.5t68 -98t33.5 -120.5
t8.5 -140.5v-168q0 -54 1.5 -95t7 -71t9.5 -50.5t14.5 -33.5t17.5 -20.5t23 -10.5t25.5 -3.5t30.5 -0.5v-110q-21 0 -30.5 -0.5t-25.5 -3.5t-23 -10.5t-17.5 -20.5t-14.5 -33.5t-9.5 -50.5t-7 -71t-1.5 -95v-168q0 -80 -8.5 -140.5t-33.5 -120.5t-68 -98t-115.5 -61.5
t-172.5 -23.5z" />
    <glyph glyph-name="asciitilde" unicode="~" horiz-adv-x="1044" 
d="M678 598q-43 0 -79.5 15t-62 36t-49.5 42.5t-52.5 36.5t-59.5 15q-57 0 -85 -41t-28 -104h-92q0 113 65 172t154 59q42 0 78 -15t61.5 -36t49 -42.5t51 -36.5t57.5 -15q52 0 77 40.5t25 104.5h93q0 -115 -57.5 -173t-145.5 -58z" />
    <glyph glyph-name="uni00A0" unicode="&#xa0;" horiz-adv-x="552" 
 />
    <glyph glyph-name="exclamdown" unicode="&#xa1;" horiz-adv-x="477" 
d="M240 971q-40 0 -67.5 27t-27.5 65q0 40 27.5 68t67.5 28q38 0 65 -28t27 -68q0 -38 -27 -65t-65 -27zM299 -451h-121v80l31 1157h59l31 -1157v-80z" />
    <glyph glyph-name="cent" unicode="&#xa2;" horiz-adv-x="1142" 
d="M961 569l73 -24q-53 -143 -161 -222t-248 -87v-236h-82v238q-179 20 -289.5 153.5t-110.5 333.5q0 201 110 334t290 153v254h82v-249q120 -7 216.5 -68t147.5 -188l-80 -29q-32 91 -107 146.5t-177 62.5v-832q123 7 207.5 77.5t128.5 182.5zM231 725q0 -166 86 -278
t226 -134v826q-143 -19 -227.5 -133.5t-84.5 -280.5z" />
    <glyph glyph-name="sterling" unicode="&#xa3;" horiz-adv-x="1187" 
d="M1104 0h-1006v98q190 79 300 201t110 260q0 81 -53 209q-104 -20 -316 -20v94q166 0 277 -21q-11 14 -54.5 73t-57 78t-44 68.5t-41.5 80t-22 75t-11 88.5q0 162 115 254t289 92q55 0 107 -9.5t110 -35t105 -66t87.5 -108.5t61.5 -156l-88 -36q-26 88 -68.5 152.5
t-95 100t-107.5 52t-114 16.5q-126 0 -211.5 -67t-85.5 -189q0 -58 23 -120.5t53 -109.5t70 -114t63 -119q174 21 458 21v-94q-258 0 -428 20q45 -52 61.5 -97t16.5 -96q0 -138 -87.5 -266t-248.5 -211l21 -20q270 20 811 20v-98z" />
    <glyph glyph-name="currency" unicode="&#xa4;" horiz-adv-x="1347" 
d="M1049 819q0 -157 -91 -266l277 -330l-70 -61l-278 330q-88 -60 -211 -60q-124 0 -215 62l-279 -332l-69 61l278 332q-90 107 -90 264q0 159 88 264l-276 332l69 62l279 -330q89 61 215 61q124 0 213 -61l276 330l70 -62l-277 -330q91 -109 91 -266zM395 819
q0 -135 77 -221t204 -86t202.5 85.5t75.5 221.5q0 137 -75.5 223t-202.5 86q-128 0 -204.5 -86t-76.5 -223z" />
    <glyph glyph-name="yen" unicode="&#xa5;" horiz-adv-x="1441" 
d="M770 0h-100q0 190 20 307q-145 -20 -393 -20v94q241 0 393 -21q-28 127 0 254q-145 -20 -393 -20v94q211 0 338 -20q-266 424 -569 929h110l543 -909h4l547 909h106q-401 -660 -571 -929q127 20 342 20v-94q-252 0 -397 20q28 -127 0 -254q152 21 397 21v-94
q-252 0 -397 20q20 -117 20 -307z" />
    <glyph glyph-name="brokenbar" unicode="&#xa6;" horiz-adv-x="514" 
d="M307 840h-100v798h100v-798zM307 -451h-100v791h100v-791z" />
    <glyph glyph-name="section" unicode="&#xa7;" horiz-adv-x="1083" 
d="M555 -301q-164 0 -292 97.5t-173 248.5l88 27q44 -120 151.5 -204.5t227.5 -84.5q33 0 67.5 6.5t72 23.5t66.5 42t47.5 66t18.5 91q0 30 -7.5 55t-17 43.5t-31 35.5t-37 27t-47.5 22.5t-50 19t-57 18.5l-103 33q-30 10 -48 16.5t-55.5 23t-61.5 32t-56 42.5t-50.5 56
t-32 70.5t-13.5 87.5q0 105 62 172t167 88v27q-93 30 -151 95.5t-58 166.5q0 78 33 138.5t87.5 95t117.5 52t131 17.5q301 0 385 -305l-96 -29q-39 131 -108.5 190.5t-190.5 59.5q-117 0 -189.5 -56t-72.5 -153q0 -32 9.5 -61t24 -50t38.5 -40.5t45 -32t52.5 -26.5t51.5 -21
t51 -17l129 -43q111 -38 158 -69q113 -75 114 -207q0 -102 -61.5 -181t-175.5 -110v-25q219 -52 219 -241q0 -137 -108.5 -233.5t-270.5 -96.5zM530 352l58 -18q44 3 86.5 16.5t83.5 39t66.5 71t25.5 104.5q0 41 -14.5 73.5t-33.5 52.5t-57.5 39t-64.5 28.5t-78 25.5l-86 27
q-69 21 -129.5 -6t-93.5 -83t-33 -120q0 -44 18 -81.5t44 -62.5t65.5 -47t71 -34t71.5 -25z" />
    <glyph glyph-name="copyright" unicode="&#xa9;" horiz-adv-x="1947" 
d="M975 -35q-184 0 -341.5 65.5t-264.5 178.5t-167.5 265.5t-60.5 324.5q0 171 60.5 323.5t167.5 264.5t264.5 177.5t341.5 65.5q183 0 340 -65.5t264 -177.5t167 -264.5t60 -323.5q0 -172 -60 -324.5t-167 -265.5t-264 -178.5t-340 -65.5zM975 68q216 0 384 99t257.5 264.5
t89.5 367.5q0 201 -89.5 366.5t-258 265t-383.5 99.5q-216 0 -384.5 -99.5t-257.5 -265t-89 -366.5q0 -202 89 -367.5t257.5 -264.5t384.5 -99zM979 350q-184 0 -300 124.5t-116 322.5q0 200 116 325t302 125q132 0 228.5 -65t138.5 -187l-97 -32q-31 94 -102.5 145
t-171.5 51q-136 0 -222.5 -101t-86.5 -261t88 -258.5t229 -98.5q108 0 190 61.5t123 174.5l86 -27q-46 -141 -153 -220t-252 -79z" />
    <glyph glyph-name="guillemotleft" unicode="&#xab;" horiz-adv-x="1091" 
d="M578 164h-117l-346 405v9l346 405h117q-72 -84 -119 -137.5t-116 -123.5t-132 -124v-49q63 -54 132 -124t116 -123.5t119 -137.5zM946 164h-117l-346 405v9l346 405h117q-74 -87 -119 -138t-114.5 -122t-132.5 -125v-49q63 -54 132.5 -125t114.5 -122t119 -138z" />
    <glyph glyph-name="logicalnot" unicode="&#xac;" horiz-adv-x="1028" 
d="M860 281h-94v301h-602v94h696v-395z" />
    <glyph glyph-name="registered" unicode="&#xae;" horiz-adv-x="1175" 
d="M588 743q-193 0 -320 127.5t-127 319.5t127 318t320 126q192 0 318 -126.5t126 -317.5q0 -192 -126 -319.5t-318 -127.5zM588 815q163 0 269 106t106 269q0 162 -106.5 268.5t-268.5 106.5q-164 0 -270.5 -106t-106.5 -269q0 -164 106.5 -269.5t270.5 -105.5zM504 946
h-70v494h176q76 0 122 -42t46 -110q0 -56 -29.5 -96t-80.5 -53l131 -193h-82l-125 184h-88v-184zM504 1372v-174h106q46 0 71.5 23t25.5 65q0 41 -27.5 63.5t-75.5 22.5h-100z" />
    <glyph glyph-name="degree" unicode="&#xb0;" horiz-adv-x="790" 
d="M395 1057q-127 0 -209 84.5t-82 212.5q0 126 82.5 210.5t208.5 84.5q125 0 208 -85t83 -210q0 -127 -83 -212t-208 -85zM395 1133q89 0 147 63t58 158q0 93 -58 156t-147 63q-87 0 -146 -63t-59 -156q0 -94 58 -157.5t147 -63.5z" />
    <glyph glyph-name="plusminus" unicode="&#xb1;" horiz-adv-x="1024" 
d="M860 762v-90h-301v-215h301v-84h-696v84h301v215h-301v90h301v252h94v-252h301z" />
    <glyph glyph-name="uni00B2" unicode="&#xb2;" horiz-adv-x="616" 
d="M535 825h-449v6q3 35 10.5 64.5t14 51t25.5 45t29 36t42 37t46.5 35t59.5 41.5q27 20 43 32.5t40.5 37.5t37 53.5t12.5 60.5q0 53 -38 88t-99 35q-71 0 -116.5 -48.5t-45.5 -125.5l-71 12q0 102 65.5 168t167.5 66q95 0 157 -55t62 -142q0 -68 -35.5 -116.5t-99.5 -94.5
q-20 -15 -56.5 -39.5t-54.5 -38.5t-41 -35.5t-35.5 -45.5t-19.5 -54h349v-74z" />
    <glyph glyph-name="uni00B3" unicode="&#xb3;" horiz-adv-x="626" 
d="M309 811q-88 0 -153.5 42.5t-87.5 113.5l67 32q21 -56 66 -88t108 -32q66 0 109 37t43 98q0 59 -43 94t-123 35h-68v61h74q66 0 104.5 34.5t38.5 88.5q0 56 -40.5 89.5t-102.5 33.5q-59 0 -99.5 -34t-49.5 -93l-70 14q10 82 73.5 132.5t151.5 50.5q90 0 152.5 -49.5
t62.5 -129.5q0 -56 -30.5 -101t-83.5 -60q60 -12 97.5 -56t37.5 -108q0 -84 -64 -144.5t-170 -60.5z" />
    <glyph glyph-name="paragraph" unicode="&#xb6;" horiz-adv-x="1411" 
d="M909 -287h-100v942h-258q-213 0 -344 133.5t-131 346.5q0 98 33.5 181.5t97 146t162 98.5t221.5 36h319v-1884zM1165 -287h-100v1884h100v-1884z" />
    <glyph glyph-name="periodcentered" unicode="&#xb7;" horiz-adv-x="534" 
d="M268 477q-49 0 -81.5 34.5t-32.5 84.5q0 47 32.5 80t81.5 33q47 0 80 -33.5t33 -79.5q0 -50 -33 -84.5t-80 -34.5z" />
    <glyph glyph-name="uni00B9" unicode="&#xb9;" horiz-adv-x="423" 
d="M281 825h-78v531q-52 -69 -152 -84v76q68 15 112 58.5t44 98.5h74v-680z" />
    <glyph glyph-name="guillemotright" unicode="&#xbb;" horiz-adv-x="1091" 
d="M608 569l-346 -405h-117q72 84 119 137.5t116 123.5t132 124v49q-63 54 -132 124t-116 123.5t-119 137.5h117l346 -405v-9zM977 569l-346 -405h-117q72 84 119 137.5t116 123.5t132 124v49q-63 54 -132 124t-116 123.5t-119 137.5h117l346 -405v-9z" />
    <glyph glyph-name="onequarter" unicode="&#xbc;" horiz-adv-x="1257" 
d="M281 825h-78v531q-52 -69 -152 -84v76q68 15 112 58.5t44 98.5h74v-680zM37 0h-92l1138 1468h84zM1092 -14h-76v161h-344v72l344 447h76v-451h98v-68h-98v-161zM1016 559l-264 -344h264v344z" />
    <glyph glyph-name="onehalf" unicode="&#xbd;" horiz-adv-x="1286" 
d="M281 825h-78v531q-52 -69 -152 -84v76q68 15 112 58.5t44 98.5h74v-680zM37 0h-92l1138 1468h84zM1204 -14h-448v6q3 40 10 71t22 58t27.5 45t41.5 42.5t49.5 39t63.5 44.5q9 6 13 9q27 20 43 32.5t40.5 37.5t37 53.5t12.5 60.5q0 53 -38 88t-99 35q-71 0 -116.5 -48.5
t-45.5 -125.5l-72 12q0 102 66 168t168 66q95 0 157 -55t62 -142q0 -68 -35.5 -116.5t-99.5 -94.5q-20 -15 -56.5 -39.5t-54.5 -38.5t-41 -35.5t-35.5 -45.5t-19.5 -54h348v-73z" />
    <glyph glyph-name="threequarters" unicode="&#xbe;" horiz-adv-x="1460" 
d="M309 811q-88 0 -153.5 42.5t-87.5 113.5l67 32q21 -56 66 -88t108 -32q66 0 109 37t43 98q0 59 -43 94t-123 35h-68v61h74q66 0 104.5 34.5t38.5 88.5q0 56 -40.5 89.5t-102.5 33.5q-59 0 -99.5 -34t-49.5 -93l-70 14q10 82 73.5 132.5t151.5 50.5q90 0 152.5 -49.5
t62.5 -129.5q0 -56 -30.5 -101t-83.5 -60q60 -12 97.5 -56t37.5 -108q0 -84 -64 -144.5t-170 -60.5zM240 0h-93l1139 1468h84zM1294 -14h-75v161h-345v72l345 447h75v-451h99v-68h-99v-161zM1219 559l-265 -344h265v344z" />
    <glyph glyph-name="questiondown" unicode="&#xbf;" horiz-adv-x="1026" 
d="M569 971q-38 0 -65 27t-27 65q0 40 27 68t65 28q40 0 67.5 -28t27.5 -68q0 -38 -27.5 -65t-67.5 -27zM514 -485q-85 0 -163.5 27.5t-140 78t-98 128t-36.5 169.5q0 73 24 141t70 128t91.5 104.5t109.5 97.5q51 42 77.5 66t55.5 60.5t41 75.5t12 89q0 33 -2 51h88
q4 -40 4 -59q0 -47 -12 -88t-27.5 -70.5t-51 -67t-62 -61t-80.5 -68.5q-116 -96 -177 -189.5t-61 -203.5q0 -99 49 -174t125.5 -112t167.5 -37q89 0 167 38.5t129.5 118t51.5 185.5q0 34 -6 71l88 -16q6 -38 6 -72q0 -123 -62 -218t-161.5 -144t-216.5 -49z" />
    <glyph glyph-name="Agrave" unicode="&#xc0;" horiz-adv-x="1495" 
d="M819 1720h-88l-342 314h162zM143 0h-106l659 1597h103l659 -1597h-106q-162 385 -224 604l-18 17q-22 -2 -103 -8.5t-135 -9.5t-108 -3q-123 0 -369 21l-20 -19q-74 -215 -232 -602zM410 690l12 -20q234 20 342 20q119 0 303 -20l12 18q-191 421 -311 799h-41
q-133 -398 -317 -797z" />
    <glyph glyph-name="Aacute" unicode="&#xc1;" horiz-adv-x="1495" 
d="M1106 2034l-342 -314h-88l268 314h162zM143 0h-106l659 1597h103l659 -1597h-106q-162 385 -224 604l-18 17q-22 -2 -103 -8.5t-135 -9.5t-108 -3q-123 0 -369 21l-20 -19q-74 -215 -232 -602zM410 690l12 -20q234 20 342 20q119 0 303 -20l12 18q-191 421 -311 799h-41
q-133 -398 -317 -797z" />
    <glyph glyph-name="Acircumflex" unicode="&#xc2;" horiz-adv-x="1495" 
d="M502 1720h-88l262 293h141l262 -293h-88q-50 46 -79.5 75t-70.5 75.5t-73 93.5h-41q-32 -47 -74.5 -94.5t-69.5 -73.5t-81 -76zM143 0h-106l659 1597h103l659 -1597h-106q-162 385 -224 604l-18 17q-22 -2 -103 -8.5t-135 -9.5t-108 -3q-123 0 -369 21l-20 -19
q-74 -215 -232 -602zM410 690l12 -20q234 20 342 20q119 0 303 -20l12 18q-191 421 -311 799h-41q-133 -398 -317 -797z" />
    <glyph glyph-name="Atilde" unicode="&#xc3;" horiz-adv-x="1495" 
d="M901 1753q-16 0 -30.5 2t-25.5 4.5t-24 9t-19.5 10t-19 13t-16.5 13t-18 15.5t-17 15l-35 31q-2 2 -9 8t-9.5 8t-9 7.5t-9.5 7.5t-9.5 6.5t-10.5 6t-10.5 4.5t-11.5 4t-11.5 2t-13.5 1q-51 0 -83 -43.5t-32 -110.5h-76q2 102 56.5 166t140.5 64q43 0 75.5 -18t71.5 -54
l41 -37q70 -61 121 -61t80 43.5t29 111.5h76q0 -103 -51 -166t-140 -63zM143 0h-106l659 1597h103l659 -1597h-106q-162 385 -224 604l-18 17q-22 -2 -103 -8.5t-135 -9.5t-108 -3q-123 0 -369 21l-20 -19q-74 -215 -232 -602zM410 690l12 -20q234 20 342 20q119 0 303 -20
l12 18q-191 421 -311 799h-41q-133 -398 -317 -797z" />
    <glyph glyph-name="Adieresis" unicode="&#xc4;" horiz-adv-x="1495" 
d="M559 1800q-38 0 -64 27t-26 65q0 36 26 62t64 26t63 -26t25 -62q0 -39 -25 -65.5t-63 -26.5zM936 1800q-39 0 -64.5 26.5t-25.5 65.5q0 36 25.5 62t64.5 26q36 0 62 -26t26 -62q0 -38 -25.5 -65t-62.5 -27zM143 0h-106l659 1597h103l659 -1597h-106q-162 385 -224 604
l-18 17q-22 -2 -103 -8.5t-135 -9.5t-108 -3q-123 0 -369 21l-20 -19q-74 -215 -232 -602zM410 690l12 -20q234 20 342 20q119 0 303 -20l12 18q-191 421 -311 799h-41q-133 -398 -317 -797z" />
    <glyph glyph-name="Aring" unicode="&#xc5;" horiz-adv-x="1495" 
d="M748 1716q-94 0 -156 60t-62 153q0 91 62 150t156 59q93 0 154 -59.5t61 -149.5q0 -93 -61 -153t-154 -60zM748 1794q60 0 99.5 36t39.5 99q0 60 -39.5 95.5t-99.5 35.5q-62 0 -102 -35.5t-40 -95.5q0 -63 40 -99t102 -36zM143 0h-106l659 1597h103l659 -1597h-106
q-162 385 -224 604l-18 17q-22 -2 -103 -8.5t-135 -9.5t-108 -3q-123 0 -369 21l-20 -19q-74 -215 -232 -602zM410 690l12 -20q234 20 342 20q119 0 303 -20l12 18q-191 421 -311 799h-41q-133 -398 -317 -797z" />
    <glyph glyph-name="AE" unicode="&#xc6;" horiz-adv-x="2095" 
d="M70 0h-107l955 1597h1046v-90q-582 0 -924 31q42 -330 11 -690q317 20 872 20v-90q-539 0 -872 21q29 -359 0 -733q156 14 343 21t289 8t302 1v-96h-1014q0 400 10 621q-283 -29 -565 0q-108 -219 -346 -621zM461 672q269 26 530 -2q-26 384 -10 858h-41
q-89 -199 -200.5 -394t-278.5 -462z" />
    <glyph glyph-name="Ccedilla" unicode="&#xc7;" horiz-adv-x="1726" 
d="M918 -35h-3q-55 -80 -104 -129l6 -6q43 18 94 18q80 0 130.5 -43t50.5 -112q0 -77 -60.5 -126.5t-152.5 -49.5q-68 0 -134.5 29t-109.5 77l47 43q33 -40 85 -65t105 -25q62 0 104 32t42 81q0 46 -37 75t-94 29q-56 0 -99 -24l-47 47l101 151q-323 28 -524 255t-201 569
q0 183 61.5 340t167 266t251.5 171t312 62q109 0 214 -27t200.5 -80.5t169.5 -143.5t111 -205l-88 -37q-50 128 -144.5 219t-212 135.5t-248.5 44.5q-110 0 -211.5 -32t-187.5 -95t-150.5 -151.5t-100.5 -208.5t-36 -258q0 -142 39.5 -263t107 -206.5t158 -145.5t193 -88.5
t211.5 -28.5q133 0 245 42t190 114.5t131 161.5t81 192l88 -32q-36 -119 -98.5 -219t-153 -180.5t-219 -126.5t-280.5 -46z" />
    <glyph glyph-name="Egrave" unicode="&#xc8;" horiz-adv-x="1353" 
d="M760 1720h-88l-342 314h162zM1243 0h-1014v1597h994v-90q-51 0 -209 -1t-236.5 -0.5t-208.5 5.5t-241 15l-19 -19q30 -315 2 -635l17 -22q305 18 854 18v-90q-534 0 -854 19l-17 -23q27 -341 -2 -684l19 -18q311 24 915 24v-96z" />
    <glyph glyph-name="Eacute" unicode="&#xc9;" horiz-adv-x="1353" 
d="M1047 2034l-342 -314h-89l269 314h162zM1243 0h-1014v1597h994v-90q-51 0 -209 -1t-236.5 -0.5t-208.5 5.5t-241 15l-19 -19q30 -315 2 -635l17 -22q305 18 854 18v-90q-534 0 -854 19l-17 -23q27 -341 -2 -684l19 -18q311 24 915 24v-96z" />
    <glyph glyph-name="Ecircumflex" unicode="&#xca;" horiz-adv-x="1353" 
d="M442 1720h-88l262 293h142l262 -293h-88q-50 46 -79.5 75t-70.5 75.5t-73 93.5h-41q-32 -46 -75.5 -95t-68.5 -72.5t-82 -76.5zM1243 0h-1014v1597h994v-90q-51 0 -209 -1t-236.5 -0.5t-208.5 5.5t-241 15l-19 -19q30 -315 2 -635l17 -22q305 18 854 18v-90
q-534 0 -854 19l-17 -23q27 -341 -2 -684l19 -18q311 24 915 24v-96z" />
    <glyph glyph-name="Edieresis" unicode="&#xcb;" horiz-adv-x="1353" 
d="M500 1800q-38 0 -64 27t-26 65q0 36 26 62t64 26t63 -26t25 -62q0 -39 -25 -65.5t-63 -26.5zM877 1800q-39 0 -65 26.5t-26 65.5q0 36 26 62t65 26q36 0 62 -26t26 -62q0 -38 -25.5 -65t-62.5 -27zM1243 0h-1014v1597h994v-90q-51 0 -209 -1t-236.5 -0.5t-208.5 5.5
t-241 15l-19 -19q30 -315 2 -635l17 -22q305 18 854 18v-90q-534 0 -854 19l-17 -23q27 -341 -2 -684l19 -18q311 24 915 24v-96z" />
    <glyph glyph-name="Igrave" unicode="&#xcc;" horiz-adv-x="559" 
d="M352 1720h-88l-342 314h162zM330 0h-101v1597h101v-1597z" />
    <glyph glyph-name="Iacute" unicode="&#xcd;" horiz-adv-x="559" 
d="M639 2034l-342 -314h-88l268 314h162zM330 0h-101v1597h101v-1597z" />
    <glyph glyph-name="Icircumflex" unicode="&#xce;" horiz-adv-x="559" 
d="M35 1720h-88l262 293h141l262 -293h-88q-50 46 -79.5 75t-70.5 75.5t-73 93.5h-41q-32 -47 -74.5 -94.5t-69.5 -73.5t-81 -76zM330 0h-101v1597h101v-1597z" />
    <glyph glyph-name="Idieresis" unicode="&#xcf;" horiz-adv-x="559" 
d="M92 1800q-38 0 -64 27t-26 65q0 36 26 62t64 26t63 -26t25 -62q0 -39 -25 -65.5t-63 -26.5zM469 1800q-39 0 -64.5 26.5t-25.5 65.5q0 36 25.5 62t64.5 26q36 0 62 -26t26 -62q0 -38 -25.5 -65t-62.5 -27zM330 0h-101v1597h101v-1597z" />
    <glyph glyph-name="Eth" unicode="&#xd0;" horiz-adv-x="1654" 
d="M229 1597h547q156 0 283 -40.5t214.5 -112t146.5 -171.5t86.5 -216t27.5 -248q0 -238 -87 -420t-255.5 -285.5t-396.5 -103.5h-566v756h-161v84h161v757zM815 90q191 0 331 90t212 249t72 368q0 158 -42.5 287.5t-125.5 224t-212 146.5t-294 52q-265 0 -428 19l-19 -19
q15 -335 15 -667h596v-84h-596q0 -328 -15 -666l19 -18q174 18 487 18z" />
    <glyph glyph-name="Ntilde" unicode="&#xd1;" horiz-adv-x="1695" 
d="M981 1815q-16 0 -30.5 2.5t-25 4t-24 8.5t-19.5 9.5t-20 13.5t-16.5 12.5t-18 15.5t-16.5 15l-35 31q-2 2 -9 8t-9.5 8t-9 7.5t-9.5 7.5t-9.5 6.5t-10.5 6t-10.5 4.5t-11.5 4t-11.5 2t-13.5 1q-51 0 -83 -43.5t-32 -109.5h-76q2 101 56.5 165t140.5 64q43 0 75.5 -18
t71.5 -53l41 -37q71 -62 121 -62q51 0 80 44t29 112h75q0 -103 -50.5 -166t-139.5 -63zM330 0h-101v1597h93q488 -653 1050 -1464h21q-6 103 -11 205t-8 224.5t-4.5 195.5t-2.5 222t-1 194.5v222v200.5h100v-1597h-92q-562 751 -1048 1444h-21q7 -118 12.5 -249t8 -231
t3.5 -251.5t1.5 -228.5t0 -250t-0.5 -234z" />
    <glyph glyph-name="Ograve" unicode="&#xd2;" horiz-adv-x="1828" 
d="M985 1720h-88l-342 314h162zM913 -35q-162 0 -308.5 63.5t-254.5 172.5t-171.5 264.5t-63.5 331.5q0 175 63 330.5t170.5 265.5t255 173.5t311.5 63.5q222 0 405.5 -111t288.5 -302.5t105 -419.5q0 -230 -107 -421.5t-291 -301t-403 -109.5zM918 59q136 0 261 56t219 152
t150 234.5t56 295.5t-56 296t-150 235.5t-219 152t-261 55.5q-138 0 -265 -55.5t-222 -152t-151.5 -235.5t-56.5 -296t56.5 -295.5t151.5 -234.5t222 -152t265 -56z" />
    <glyph glyph-name="Oacute" unicode="&#xd3;" horiz-adv-x="1828" 
d="M1272 2034l-342 -314h-88l268 314h162zM913 -35q-162 0 -308.5 63.5t-254.5 172.5t-171.5 264.5t-63.5 331.5q0 175 63 330.5t170.5 265.5t255 173.5t311.5 63.5q222 0 405.5 -111t288.5 -302.5t105 -419.5q0 -230 -107 -421.5t-291 -301t-403 -109.5zM918 59
q136 0 261 56t219 152t150 234.5t56 295.5t-56 296t-150 235.5t-219 152t-261 55.5q-138 0 -265 -55.5t-222 -152t-151.5 -235.5t-56.5 -296t56.5 -295.5t151.5 -234.5t222 -152t265 -56z" />
    <glyph glyph-name="Ocircumflex" unicode="&#xd4;" horiz-adv-x="1828" 
d="M668 1720h-88l262 293h141l262 -293h-88q-50 46 -79.5 75t-70.5 75.5t-73 93.5h-41q-32 -47 -74.5 -94.5t-69.5 -73.5t-81 -76zM913 -35q-162 0 -308.5 63.5t-254.5 172.5t-171.5 264.5t-63.5 331.5q0 175 63 330.5t170.5 265.5t255 173.5t311.5 63.5q222 0 405.5 -111
t288.5 -302.5t105 -419.5q0 -230 -107 -421.5t-291 -301t-403 -109.5zM918 59q136 0 261 56t219 152t150 234.5t56 295.5t-56 296t-150 235.5t-219 152t-261 55.5q-138 0 -265 -55.5t-222 -152t-151.5 -235.5t-56.5 -296t56.5 -295.5t151.5 -234.5t222 -152t265 -56z" />
    <glyph glyph-name="Otilde" unicode="&#xd5;" horiz-adv-x="1828" 
d="M1067 1815q-16 0 -30.5 2.5t-25 4t-24 8.5t-19.5 9.5t-20 13.5t-16.5 12.5t-18 15.5t-16.5 15l-35 31q-2 2 -9 8t-9.5 8t-9 7.5t-9.5 7.5t-9.5 6.5t-10.5 6t-10.5 4.5t-11.5 4t-11.5 2t-13.5 1q-51 0 -83 -43.5t-32 -109.5h-76q2 101 56.5 165t140.5 64q43 0 75.5 -18
t71.5 -53l41 -37q71 -62 121 -62q51 0 80 44t29 112h75q0 -103 -50.5 -166t-139.5 -63zM913 -35q-162 0 -308.5 63.5t-254.5 172.5t-171.5 264.5t-63.5 331.5q0 175 63 330.5t170.5 265.5t255 173.5t311.5 63.5q222 0 405.5 -111t288.5 -302.5t105 -419.5
q0 -230 -107 -421.5t-291 -301t-403 -109.5zM918 59q136 0 261 56t219 152t150 234.5t56 295.5t-56 296t-150 235.5t-219 152t-261 55.5q-138 0 -265 -55.5t-222 -152t-151.5 -235.5t-56.5 -296t56.5 -295.5t151.5 -234.5t222 -152t265 -56z" />
    <glyph glyph-name="Odieresis" unicode="&#xd6;" horiz-adv-x="1828" 
d="M725 1800q-38 0 -64 27t-26 65q0 36 26 62t64 26t63 -26t25 -62q0 -39 -25 -65.5t-63 -26.5zM1102 1800q-39 0 -64.5 26.5t-25.5 65.5q0 36 25.5 62t64.5 26q36 0 62 -26t26 -62q0 -38 -25.5 -65t-62.5 -27zM913 -35q-162 0 -308.5 63.5t-254.5 172.5t-171.5 264.5
t-63.5 331.5q0 175 63 330.5t170.5 265.5t255 173.5t311.5 63.5q222 0 405.5 -111t288.5 -302.5t105 -419.5q0 -230 -107 -421.5t-291 -301t-403 -109.5zM918 59q136 0 261 56t219 152t150 234.5t56 295.5t-56 296t-150 235.5t-219 152t-261 55.5q-138 0 -265 -55.5
t-222 -152t-151.5 -235.5t-56.5 -296t56.5 -295.5t151.5 -234.5t222 -152t265 -56z" />
    <glyph glyph-name="multiply" unicode="&#xd7;" horiz-adv-x="897" 
d="M385 625l-221 219l67 67l222 -219l211 211l65 -65l-211 -211l219 -221l-67 -68l-219 221l-213 -213l-66 66z" />
    <glyph glyph-name="Oslash" unicode="&#xd8;" horiz-adv-x="1828" 
d="M1563 1661l-146 -211q139 -118 218 -287.5t79 -365.5q0 -230 -107 -421.5t-291 -301t-403 -109.5q-233 0 -428 125l-106 -156h-117l146 213q-137 115 -215 283.5t-78 366.5q0 175 63 330.5t170.5 265.5t255 173.5t311.5 63.5q230 0 424 -123l105 154h119zM223 797
q0 -170 65.5 -316.5t178.5 -247.5l815 1190q-166 113 -364 113q-138 0 -265 -55.5t-222 -152t-151.5 -235.5t-56.5 -296zM918 59q136 0 261 56t219 152t150 234.5t56 295.5q0 172 -65 319t-179 248l-817 -1190q173 -115 375 -115z" />
    <glyph glyph-name="Ugrave" unicode="&#xd9;" horiz-adv-x="1544" 
d="M844 1720h-88l-342 314h161zM766 -35q-124 0 -224 34.5t-175.5 105t-116.5 187.5t-41 273v1032h100v-1028q0 -268 123 -391t340 -123t340 123t123 391v1028h100v-1032q0 -282 -146 -441t-423 -159z" />
    <glyph glyph-name="Uacute" unicode="&#xda;" horiz-adv-x="1544" 
d="M1069 2034l-342 -314h-88l268 314h162zM766 -35q-124 0 -224 34.5t-175.5 105t-116.5 187.5t-41 273v1032h100v-1028q0 -268 123 -391t340 -123t340 123t123 391v1028h100v-1032q0 -282 -146 -441t-423 -159z" />
    <glyph glyph-name="Ucircumflex" unicode="&#xdb;" horiz-adv-x="1544" 
d="M526 1720h-88l262 293h142l262 -293h-88q-50 46 -79.5 75t-70.5 75.5t-73 93.5h-41q-32 -46 -75.5 -95t-68.5 -72.5t-82 -76.5zM766 -35q-124 0 -224 34.5t-175.5 105t-116.5 187.5t-41 273v1032h100v-1028q0 -268 123 -391t340 -123t340 123t123 391v1028h100v-1032
q0 -282 -146 -441t-423 -159z" />
    <glyph glyph-name="Udieresis" unicode="&#xdc;" horiz-adv-x="1544" 
d="M584 1800q-38 0 -64 27t-26 65q0 36 26 62t64 26t63 -26t25 -62q0 -39 -25 -65.5t-63 -26.5zM961 1800q-39 0 -65 26.5t-26 65.5q0 36 26 62t65 26q36 0 62 -26t26 -62q0 -38 -25.5 -65t-62.5 -27zM766 -35q-124 0 -224 34.5t-175.5 105t-116.5 187.5t-41 273v1032h100
v-1028q0 -268 123 -391t340 -123t340 123t123 391v1028h100v-1032q0 -282 -146 -441t-423 -159z" />
    <glyph glyph-name="Yacute" unicode="&#xdd;" horiz-adv-x="1404" 
d="M1061 2034l-342 -314h-88l268 314h162zM752 0h-101q0 377 11 596q-266 421 -615 1001h111q351 -585 534 -929h21q31 59 66.5 123t63 113.5t70 122.5t64.5 111t71 120t65 109t71.5 119t66.5 111h107q-434 -713 -617 -1001q11 -219 11 -596z" />
    <glyph glyph-name="Thorn" unicode="&#xde;" horiz-adv-x="1392" 
d="M330 0h-101v1597h101q0 -66 -15 -286h459q243 0 378.5 -130.5t135.5 -332.5q0 -214 -131 -346.5t-344 -132.5q-135 0 -192.5 1t-145 7.5t-162.5 21.5q17 -244 17 -399zM311 463l17 -23q171 19 446 19q197 0 303.5 101t106.5 278q0 175 -115.5 279t-314.5 104
q-272 0 -426 18l-19 -18q28 -398 2 -758z" />
    <glyph glyph-name="germandbls" unicode="&#xdf;" horiz-adv-x="1232" 
d="M289 0h-94v1202q0 22 0.5 38.5t4.5 54.5t11 67t22.5 70.5t36.5 72.5t54.5 64t75.5 54.5t101.5 35.5t129.5 14q215 0 334.5 -116t119.5 -302q0 -160 -84 -267.5t-219 -119.5v-20q161 -14 256 -115.5t95 -261.5q0 -199 -143 -335t-378 -136h-145v80h149q179 0 296.5 107
t117.5 274q0 153 -99 254.5t-255 101.5h-96v80h96q139 0 223 93t84 249q0 71 -19 132t-59 111t-109 78.5t-161 28.5q-85 0 -150 -26t-101 -64t-58.5 -89.5t-29.5 -94.5t-7 -88v-1227z" />
    <glyph glyph-name="agrave" unicode="&#xe0;" horiz-adv-x="1167" 
d="M641 1278h-84l-311 395h143zM455 -35q-151 0 -251 73.5t-100 209.5q0 78 33.5 138t95 100.5t131.5 66t160 43.5q27 5 80.5 14.5t78.5 15t65 16t60 23t41.5 31.5t30.5 45t9 60q0 109 -89.5 191.5t-228.5 82.5q-123 0 -209.5 -69t-121.5 -185l-95 33q32 101 102.5 172
t155 102t177.5 31q57 0 112.5 -12t110 -40t95.5 -69.5t66 -105t25 -141.5v-439q0 -131 8.5 -204t28.5 -148h-96q-19 74 -23.5 129.5t8.5 151.5h-20q-59 -147 -168.5 -231.5t-271.5 -84.5zM459 47q95 0 178.5 41.5t137 104t84 133.5t30.5 133v192q-47 -56 -96.5 -78
t-184.5 -47q-44 -8 -68.5 -13t-73 -18t-78 -25.5t-68.5 -34.5t-61 -46.5t-38 -60t-16 -76.5q0 -94 70 -149.5t184 -55.5z" />
    <glyph glyph-name="aacute" unicode="&#xe1;" horiz-adv-x="1167" 
d="M942 1673l-311 -395h-84l252 395h143zM455 -35q-151 0 -251 73.5t-100 209.5q0 78 33.5 138t95 100.5t131.5 66t160 43.5q27 5 80.5 14.5t78.5 15t65 16t60 23t41.5 31.5t30.5 45t9 60q0 109 -89.5 191.5t-228.5 82.5q-123 0 -209.5 -69t-121.5 -185l-95 33
q32 101 102.5 172t155 102t177.5 31q57 0 112.5 -12t110 -40t95.5 -69.5t66 -105t25 -141.5v-439q0 -131 8.5 -204t28.5 -148h-96q-19 74 -23.5 129.5t8.5 151.5h-20q-59 -147 -168.5 -231.5t-271.5 -84.5zM459 47q95 0 178.5 41.5t137 104t84 133.5t30.5 133v192
q-47 -56 -96.5 -78t-184.5 -47q-44 -8 -68.5 -13t-73 -18t-78 -25.5t-68.5 -34.5t-61 -46.5t-38 -60t-16 -76.5q0 -94 70 -149.5t184 -55.5z" />
    <glyph glyph-name="acircumflex" unicode="&#xe2;" horiz-adv-x="1167" 
d="M313 1278h-90l297 354h146l297 -354h-91q-66 66 -94.5 95.5t-78 87t-81.5 108.5h-49q-76 -115 -256 -291zM455 -35q-151 0 -251 73.5t-100 209.5q0 78 33.5 138t95 100.5t131.5 66t160 43.5q27 5 80.5 14.5t78.5 15t65 16t60 23t41.5 31.5t30.5 45t9 60
q0 109 -89.5 191.5t-228.5 82.5q-123 0 -209.5 -69t-121.5 -185l-95 33q32 101 102.5 172t155 102t177.5 31q57 0 112.5 -12t110 -40t95.5 -69.5t66 -105t25 -141.5v-439q0 -131 8.5 -204t28.5 -148h-96q-19 74 -23.5 129.5t8.5 151.5h-20q-59 -147 -168.5 -231.5
t-271.5 -84.5zM459 47q95 0 178.5 41.5t137 104t84 133.5t30.5 133v192q-47 -56 -96.5 -78t-184.5 -47q-44 -8 -68.5 -13t-73 -18t-78 -25.5t-68.5 -34.5t-61 -46.5t-38 -60t-16 -76.5q0 -94 70 -149.5t184 -55.5z" />
    <glyph glyph-name="atilde" unicode="&#xe3;" horiz-adv-x="1167" 
d="M748 1343q-16 0 -30.5 2t-25.5 4.5t-24 9t-19.5 10t-19 13t-16.5 13t-18 15.5t-17 15l-35 31q-46 40 -70 49q-17 6 -35 6q-51 0 -82.5 -43t-31.5 -110h-76q2 102 56 165.5t140 63.5q43 0 76 -18t72 -53l41 -37q71 -62 121 -62q51 0 79.5 44t28.5 112h76
q0 -103 -50.5 -166.5t-139.5 -63.5zM455 -35q-151 0 -251 73.5t-100 209.5q0 78 33.5 138t95 100.5t131.5 66t160 43.5q27 5 80.5 14.5t78.5 15t65 16t60 23t41.5 31.5t30.5 45t9 60q0 109 -89.5 191.5t-228.5 82.5q-123 0 -209.5 -69t-121.5 -185l-95 33q32 101 102.5 172
t155 102t177.5 31q57 0 112.5 -12t110 -40t95.5 -69.5t66 -105t25 -141.5v-439q0 -131 8.5 -204t28.5 -148h-96q-19 74 -23.5 129.5t8.5 151.5h-20q-59 -147 -168.5 -231.5t-271.5 -84.5zM459 47q95 0 178.5 41.5t137 104t84 133.5t30.5 133v192q-47 -56 -96.5 -78
t-184.5 -47q-44 -8 -68.5 -13t-73 -18t-78 -25.5t-68.5 -34.5t-61 -46.5t-38 -60t-16 -76.5q0 -94 70 -149.5t184 -55.5z" />
    <glyph glyph-name="adieresis" unicode="&#xe4;" horiz-adv-x="1167" 
d="M426 1391q-38 0 -64 27t-26 65q0 36 26 62t64 26t63 -26t25 -62q0 -39 -25 -65.5t-63 -26.5zM762 1391q-39 0 -64.5 26.5t-25.5 65.5q0 36 25.5 62t64.5 26q36 0 62 -26t26 -62q0 -38 -25.5 -65t-62.5 -27zM455 -35q-151 0 -251 73.5t-100 209.5q0 78 33.5 138t95 100.5
t131.5 66t160 43.5q27 5 80.5 14.5t78.5 15t65 16t60 23t41.5 31.5t30.5 45t9 60q0 109 -89.5 191.5t-228.5 82.5q-123 0 -209.5 -69t-121.5 -185l-95 33q32 101 102.5 172t155 102t177.5 31q57 0 112.5 -12t110 -40t95.5 -69.5t66 -105t25 -141.5v-439q0 -131 8.5 -204
t28.5 -148h-96q-19 74 -23.5 129.5t8.5 151.5h-20q-59 -147 -168.5 -231.5t-271.5 -84.5zM459 47q95 0 178.5 41.5t137 104t84 133.5t30.5 133v192q-47 -56 -96.5 -78t-184.5 -47q-44 -8 -68.5 -13t-73 -18t-78 -25.5t-68.5 -34.5t-61 -46.5t-38 -60t-16 -76.5
q0 -94 70 -149.5t184 -55.5z" />
    <glyph glyph-name="aring" unicode="&#xe5;" horiz-adv-x="1167" 
d="M594 1245q-94 0 -155.5 60t-61.5 153q0 91 61.5 150t155.5 59q93 0 154 -59.5t61 -149.5q0 -93 -61 -153t-154 -60zM594 1323q60 0 99.5 36t39.5 99q0 60 -39.5 95.5t-99.5 35.5q-62 0 -101.5 -35.5t-39.5 -95.5q0 -63 39.5 -99t101.5 -36zM455 -35q-151 0 -251 73.5
t-100 209.5q0 78 33.5 138t95 100.5t131.5 66t160 43.5q27 5 80.5 14.5t78.5 15t65 16t60 23t41.5 31.5t30.5 45t9 60q0 109 -89.5 191.5t-228.5 82.5q-123 0 -209.5 -69t-121.5 -185l-95 33q32 101 102.5 172t155 102t177.5 31q57 0 112.5 -12t110 -40t95.5 -69.5t66 -105
t25 -141.5v-439q0 -131 8.5 -204t28.5 -148h-96q-19 74 -23.5 129.5t8.5 151.5h-20q-59 -147 -168.5 -231.5t-271.5 -84.5zM459 47q95 0 178.5 41.5t137 104t84 133.5t30.5 133v192q-47 -56 -96.5 -78t-184.5 -47q-44 -8 -68.5 -13t-73 -18t-78 -25.5t-68.5 -34.5t-61 -46.5
t-38 -60t-16 -76.5q0 -94 70 -149.5t184 -55.5z" />
    <glyph glyph-name="ae" unicode="&#xe6;" horiz-adv-x="2058" 
d="M455 -35q-158 0 -254.5 74t-96.5 209q0 76 32 136t92.5 100.5t132.5 67t165 44.5q25 5 64 12t62 11.5t55.5 11.5t52 14t43.5 17.5t37.5 23t26.5 29.5t18.5 38.5t5.5 47.5q0 109 -89.5 191.5t-228.5 82.5q-123 0 -209.5 -69t-121.5 -185l-95 33q32 101 102.5 172t155 102
t177.5 31q62 0 121 -15t114.5 -46t98 -87.5t61.5 -131.5q70 136 190 208t273 72q65 0 127.5 -12.5t133.5 -49.5t123 -95.5t87 -160.5t35 -235v-45h-955q0 -228 127 -370t326 -142q158 0 269 90t167 230l84 -27q-65 -181 -205 -279t-321 -98q-115 0 -212 37.5t-171.5 122
t-102.5 207.5h-20q-42 -158 -173 -262.5t-304 -104.5zM997 645h844q0 115 -36.5 202t-97 134.5t-129 70.5t-142.5 23q-178 0 -296 -118.5t-143 -311.5zM469 45q88 0 169 42t135 105t86 134.5t32 132.5v192q-40 -53 -102 -79t-179 -44q-405 -61 -405 -274q0 -94 73 -151.5
t191 -57.5z" />
    <glyph glyph-name="ccedilla" unicode="&#xe7;" horiz-adv-x="1243" 
d="M1102 369l84 -27q-64 -178 -199.5 -274.5t-310.5 -102.5q-62 -86 -105 -129l7 -6q44 18 94 18q80 0 130 -43t50 -112q0 -77 -60.5 -126.5t-152.5 -49.5q-68 0 -134.5 29t-109.5 77l47 43q33 -40 85 -65t106 -25q62 0 103.5 32t41.5 81q0 46 -37 75t-94 29q-55 0 -98 -24
l-47 47l100 151q-225 20 -362.5 183t-137.5 411q0 265 154.5 431.5t400.5 166.5q74 0 141.5 -16.5t131.5 -52t117 -97t86 -145.5l-95 -33q-45 121 -147 190.5t-240 69.5q-202 0 -324 -145t-122 -369q0 -228 127 -370t330 -142q160 0 271.5 88.5t168.5 231.5z" />
    <glyph glyph-name="egrave" unicode="&#xe8;" horiz-adv-x="1269" 
d="M686 1278h-84l-311 395h143zM649 -35q-156 0 -280.5 74.5t-195.5 211t-71 310.5q0 263 154.5 430.5t394.5 167.5q65 0 127.5 -12.5t133.5 -49.5t123 -95.5t87 -160.5t35 -235v-49h-952q0 -225 126 -366.5t324 -141.5q158 0 270 90t167 230l84 -27q-65 -181 -205.5 -279
t-321.5 -98zM209 645h844q0 93 -24.5 168t-64.5 123t-94 80t-109 45.5t-114 13.5q-176 0 -294.5 -118.5t-143.5 -311.5z" />
    <glyph glyph-name="eacute" unicode="&#xe9;" horiz-adv-x="1269" 
d="M987 1673l-311 -395h-84l252 395h143zM649 -35q-156 0 -280.5 74.5t-195.5 211t-71 310.5q0 263 154.5 430.5t394.5 167.5q65 0 127.5 -12.5t133.5 -49.5t123 -95.5t87 -160.5t35 -235v-49h-952q0 -225 126 -366.5t324 -141.5q158 0 270 90t167 230l84 -27
q-65 -181 -205.5 -279t-321.5 -98zM209 645h844q0 93 -24.5 168t-64.5 123t-94 80t-109 45.5t-114 13.5q-176 0 -294.5 -118.5t-143.5 -311.5z" />
    <glyph glyph-name="ecircumflex" unicode="&#xea;" horiz-adv-x="1269" 
d="M358 1278h-90l297 354h146l297 -354h-90q-66 66 -94.5 95.5t-78 87t-81.5 108.5h-50q-76 -115 -256 -291zM649 -35q-156 0 -280.5 74.5t-195.5 211t-71 310.5q0 263 154.5 430.5t394.5 167.5q65 0 127.5 -12.5t133.5 -49.5t123 -95.5t87 -160.5t35 -235v-49h-952
q0 -225 126 -366.5t324 -141.5q158 0 270 90t167 230l84 -27q-65 -181 -205.5 -279t-321.5 -98zM209 645h844q0 93 -24.5 168t-64.5 123t-94 80t-109 45.5t-114 13.5q-176 0 -294.5 -118.5t-143.5 -311.5z" />
    <glyph glyph-name="edieresis" unicode="&#xeb;" horiz-adv-x="1269" 
d="M471 1391q-38 0 -64 27t-26 65q0 36 26 62t64 26t63 -26t25 -62q0 -39 -25 -65.5t-63 -26.5zM807 1391q-39 0 -64.5 26.5t-25.5 65.5q0 36 25.5 62t64.5 26q36 0 62 -26t26 -62q0 -38 -25.5 -65t-62.5 -27zM649 -35q-156 0 -280.5 74.5t-195.5 211t-71 310.5
q0 263 154.5 430.5t394.5 167.5q65 0 127.5 -12.5t133.5 -49.5t123 -95.5t87 -160.5t35 -235v-49h-952q0 -225 126 -366.5t324 -141.5q158 0 270 90t167 230l84 -27q-65 -181 -205.5 -279t-321.5 -98zM209 645h844q0 93 -24.5 168t-64.5 123t-94 80t-109 45.5t-114 13.5
q-176 0 -294.5 -118.5t-143.5 -311.5z" />
    <glyph glyph-name="igrave" unicode="&#xec;" horiz-adv-x="483" 
d="M289 1278h-84l-311 395h143zM289 0h-94v1126h94v-1126z" />
    <glyph glyph-name="iacute" unicode="&#xed;" horiz-adv-x="483" 
d="M590 1673l-311 -395h-84l251 395h144zM289 0h-94v1126h94v-1126z" />
    <glyph glyph-name="icircumflex" unicode="&#xee;" horiz-adv-x="483" 
d="M-39 1278h-90l297 354h145l297 -354h-90q-66 66 -94.5 95.5t-78 87t-81.5 108.5h-49q-76 -115 -256 -291zM289 0h-94v1126h94v-1126z" />
    <glyph glyph-name="idieresis" unicode="&#xef;" horiz-adv-x="483" 
d="M74 1391q-38 0 -64 27t-26 65q0 36 26 62t64 26t63 -26t25 -62q0 -39 -25 -65.5t-63 -26.5zM410 1391q-39 0 -65 26.5t-26 65.5q0 36 26 62t65 26q36 0 62 -26t26 -62q0 -38 -25.5 -65t-62.5 -27zM289 0h-94v1126h94v-1126z" />
    <glyph glyph-name="eth" unicode="&#xf0;" horiz-adv-x="1316" 
d="M1016 1585l-215 -123q395 -286 395 -809q0 -331 -148.5 -509.5t-394.5 -178.5q-125 0 -230 47t-175 126.5t-109 184t-39 220.5q0 162 71.5 294t196 206.5t277.5 74.5q135 0 237.5 -62t198.5 -208h21q-62 193 -154 327.5t-239 233.5l-316 -182l-35 63l281 162
q-138 77 -307 135l24 86q214 -64 377 -166l246 142zM649 49q192 0 318.5 137t126.5 355q0 219 -127 356t-316 137q-193 0 -320.5 -140.5t-127.5 -350.5q0 -134 55 -246.5t158 -180t233 -67.5z" />
    <glyph glyph-name="ntilde" unicode="&#xf1;" horiz-adv-x="1292" 
d="M797 1343q-16 0 -30.5 2t-25.5 4.5t-24 9t-19.5 10t-19 13t-16.5 13t-18 15.5t-17 15l-35 31q-46 40 -70 49q-17 6 -35 6q-51 0 -82.5 -43t-31.5 -110h-76q2 101 56.5 165t140.5 64q43 0 75.5 -18t71.5 -53l41 -37q71 -62 121 -62q51 0 79.5 44t28.5 112h76
q0 -103 -50.5 -166.5t-139.5 -63.5zM289 0h-94v1126h90q0 -154 -27 -252h21q136 285 421 285q63 0 120 -13t112 -46t95 -83t64.5 -130t24.5 -182v-705h-94v664q0 93 -20 166t-52 118t-77 74.5t-91 41t-98 11.5q-76 0 -141.5 -26t-111 -69.5t-78.5 -100t-48.5 -116.5
t-15.5 -120v-643z" />
    <glyph glyph-name="ograve" unicode="&#xf2;" horiz-adv-x="1320" 
d="M709 1278h-84l-312 395h144zM662 -35q-247 0 -403.5 166.5t-156.5 429.5q0 264 156.5 431t403.5 167q246 0 401.5 -167t155.5 -431q0 -263 -155.5 -429.5t-401.5 -166.5zM662 49q202 0 328 143t126 369q0 227 -126 370.5t-328 143.5t-329.5 -144t-127.5 -370t127.5 -369
t329.5 -143z" />
    <glyph glyph-name="oacute" unicode="&#xf3;" horiz-adv-x="1320" 
d="M1010 1673l-312 -395h-84l252 395h144zM662 -35q-247 0 -403.5 166.5t-156.5 429.5q0 264 156.5 431t403.5 167q246 0 401.5 -167t155.5 -431q0 -263 -155.5 -429.5t-401.5 -166.5zM662 49q202 0 328 143t126 369q0 227 -126 370.5t-328 143.5t-329.5 -144t-127.5 -370
t127.5 -369t329.5 -143z" />
    <glyph glyph-name="ocircumflex" unicode="&#xf4;" horiz-adv-x="1320" 
d="M381 1278h-90l297 354h145l297 -354h-90q-66 66 -94.5 95.5t-78 87t-81.5 108.5h-49q-76 -115 -256 -291zM662 -35q-247 0 -403.5 166.5t-156.5 429.5q0 264 156.5 431t403.5 167q246 0 401.5 -167t155.5 -431q0 -263 -155.5 -429.5t-401.5 -166.5zM662 49q202 0 328 143
t126 369q0 227 -126 370.5t-328 143.5t-329.5 -144t-127.5 -370t127.5 -369t329.5 -143z" />
    <glyph glyph-name="otilde" unicode="&#xf5;" horiz-adv-x="1320" 
d="M815 1343q-16 0 -30.5 2t-25.5 4.5t-24 9t-19.5 10t-19 13t-16.5 13t-18 15.5t-17 15l-35 31q-2 2 -9 8t-9.5 8t-9 7.5t-9.5 7.5t-9.5 6.5t-10.5 6t-10.5 4.5t-11.5 4t-11.5 2t-13.5 1q-51 0 -83 -43.5t-32 -109.5h-76q2 101 56.5 165t140.5 64q43 0 75.5 -18t71.5 -53
l41 -37q71 -62 121 -62q51 0 80 44t29 112h76q0 -103 -51 -166.5t-140 -63.5zM662 -35q-247 0 -403.5 166.5t-156.5 429.5q0 264 156.5 431t403.5 167q246 0 401.5 -167t155.5 -431q0 -263 -155.5 -429.5t-401.5 -166.5zM662 49q202 0 328 143t126 369q0 227 -126 370.5
t-328 143.5t-329.5 -144t-127.5 -370t127.5 -369t329.5 -143z" />
    <glyph glyph-name="odieresis" unicode="&#xf6;" horiz-adv-x="1320" 
d="M494 1391q-38 0 -64.5 27t-26.5 65q0 36 26.5 62t64.5 26t63 -26t25 -62q0 -39 -25 -65.5t-63 -26.5zM829 1391q-39 0 -64.5 26.5t-25.5 65.5q0 36 25.5 62t64.5 26q37 0 63 -26.5t26 -61.5q0 -38 -26 -65t-63 -27zM662 -35q-247 0 -403.5 166.5t-156.5 429.5
q0 264 156.5 431t403.5 167q246 0 401.5 -167t155.5 -431q0 -263 -155.5 -429.5t-401.5 -166.5zM662 49q202 0 328 143t126 369q0 227 -126 370.5t-328 143.5t-329.5 -144t-127.5 -370t127.5 -369t329.5 -143z" />
    <glyph glyph-name="divide" unicode="&#xf7;" horiz-adv-x="1024" 
d="M518 817q-40 0 -67 28t-27 68q0 39 27 66t67 27q38 0 65 -27.5t27 -65.5q0 -40 -27 -68t-65 -28zM860 578h-696v94h696v-94zM518 242q-40 0 -67 28t-27 68q0 38 27 65t67 27q38 0 65 -27t27 -65q0 -40 -27 -68t-65 -28z" />
    <glyph glyph-name="oslash" unicode="&#xf8;" horiz-adv-x="1320" 
d="M1171 1180l-124 -170q83 -80 127.5 -195.5t44.5 -253.5q0 -263 -155.5 -429.5t-401.5 -166.5q-182 0 -318 94l-84 -114h-108l124 168q-83 81 -128.5 196t-45.5 252q0 264 156.5 431t403.5 167q179 0 321 -96l86 117h102zM205 561q0 -229 129 -371l594 799
q-113 86 -266 86q-202 0 -329.5 -144t-127.5 -370zM662 49q202 0 328 143t126 369q0 228 -127 371l-592 -801q114 -82 265 -82z" />
    <glyph glyph-name="ugrave" unicode="&#xf9;" horiz-adv-x="1273" 
d="M659 1278h-84l-311 395h144zM582 -35q-59 0 -114 13t-109 46t-94 83.5t-64.5 130.5t-24.5 182v706h94v-665q0 -115 29.5 -199t79.5 -128.5t105.5 -64.5t117.5 -20q90 0 164.5 40t120.5 103.5t71 138.5t25 150v645h94v-774q0 -131 8.5 -204t28.5 -148h-96
q-19 74 -23 127.5t9 142.5h-21q-120 -305 -401 -305z" />
    <glyph glyph-name="uacute" unicode="&#xfa;" horiz-adv-x="1273" 
d="M961 1673l-312 -395h-84l252 395h144zM582 -35q-59 0 -114 13t-109 46t-94 83.5t-64.5 130.5t-24.5 182v706h94v-665q0 -115 29.5 -199t79.5 -128.5t105.5 -64.5t117.5 -20q90 0 164.5 40t120.5 103.5t71 138.5t25 150v645h94v-774q0 -131 8.5 -204t28.5 -148h-96
q-19 74 -23 127.5t9 142.5h-21q-120 -305 -401 -305z" />
    <glyph glyph-name="ucircumflex" unicode="&#xfb;" horiz-adv-x="1273" 
d="M332 1278h-90l297 354h145l297 -354h-90q-66 66 -94.5 95.5t-78 87t-81.5 108.5h-49q-76 -115 -256 -291zM582 -35q-59 0 -114 13t-109 46t-94 83.5t-64.5 130.5t-24.5 182v706h94v-665q0 -115 29.5 -199t79.5 -128.5t105.5 -64.5t117.5 -20q90 0 164.5 40t120.5 103.5
t71 138.5t25 150v645h94v-774q0 -131 8.5 -204t28.5 -148h-96q-19 74 -23 127.5t9 142.5h-21q-120 -305 -401 -305z" />
    <glyph glyph-name="udieresis" unicode="&#xfc;" horiz-adv-x="1273" 
d="M444 1391q-38 0 -64 27t-26 65q0 36 26 62t64 26t63 -26t25 -62q0 -39 -25 -65.5t-63 -26.5zM780 1391q-39 0 -64.5 26.5t-25.5 65.5q0 36 25.5 62t64.5 26q36 0 62 -26t26 -62q0 -38 -25.5 -65t-62.5 -27zM582 -35q-59 0 -114 13t-109 46t-94 83.5t-64.5 130.5
t-24.5 182v706h94v-665q0 -115 29.5 -199t79.5 -128.5t105.5 -64.5t117.5 -20q90 0 164.5 40t120.5 103.5t71 138.5t25 150v645h94v-774q0 -131 8.5 -204t28.5 -148h-96q-19 74 -23 127.5t9 142.5h-21q-120 -305 -401 -305z" />
    <glyph glyph-name="yacute" unicode="&#xfd;" horiz-adv-x="1089" 
d="M879 1673l-312 -395h-84l252 395h144zM406 -451h-80l176 445l-463 1132h102q233 -568 396 -1052h20q173 520 391 1052h103z" />
    <glyph glyph-name="thorn" unicode="&#xfe;" horiz-adv-x="1372" 
d="M289 -451h-94v2089h94v-107v-115.5t-0.5 -105.5t-1.5 -117t-3 -108t-5 -120.5t-7 -114.5h21q69 155 187.5 232t262.5 77q225 0 376 -167.5t151 -428.5q0 -262 -150.5 -430t-376.5 -168q-145 0 -264 76.5t-186 224.5h-21q4 -52 7 -104.5t5 -110t3 -98.5t1.5 -106.5
t0.5 -96v-104.5v-97zM735 49q187 0 309.5 146t122.5 368t-123.5 367t-308.5 145q-186 0 -316 -145t-130 -369q0 -112 36 -208.5t96.5 -162.5t142 -103.5t171.5 -37.5z" />
    <glyph glyph-name="ydieresis" unicode="&#xff;" horiz-adv-x="1089" 
d="M362 1391q-38 0 -64 27t-26 65q0 36 26 62t64 26t63.5 -26t25.5 -62q0 -39 -25.5 -65.5t-63.5 -26.5zM698 1391q-39 0 -64.5 26.5t-25.5 65.5q0 36 25.5 62t64.5 26q36 0 62 -26t26 -62q0 -38 -25.5 -65t-62.5 -27zM406 -451h-80l176 445l-463 1132h102
q233 -568 396 -1052h20q173 520 391 1052h103z" />
    <glyph glyph-name="Amacron" unicode="&#x100;" horiz-adv-x="1495" 
d="M1071 1847h-647v88h647v-88zM143 0h-106l659 1597h103l659 -1597h-106q-162 385 -224 604l-18 17q-22 -2 -103 -8.5t-135 -9.5t-108 -3q-123 0 -369 21l-20 -19q-74 -215 -232 -602zM410 690l12 -20q234 20 342 20q119 0 303 -20l12 18q-191 421 -311 799h-41
q-133 -398 -317 -797z" />
    <glyph glyph-name="amacron" unicode="&#x101;" horiz-adv-x="1167" 
d="M938 1438h-688v88h688v-88zM455 -35q-151 0 -251 73.5t-100 209.5q0 78 33.5 138t95 100.5t131.5 66t160 43.5q27 5 80.5 14.5t78.5 15t65 16t60 23t41.5 31.5t30.5 45t9 60q0 109 -89.5 191.5t-228.5 82.5q-123 0 -209.5 -69t-121.5 -185l-95 33q32 101 102.5 172
t155 102t177.5 31q57 0 112.5 -12t110 -40t95.5 -69.5t66 -105t25 -141.5v-439q0 -131 8.5 -204t28.5 -148h-96q-19 74 -23.5 129.5t8.5 151.5h-20q-59 -147 -168.5 -231.5t-271.5 -84.5zM459 47q95 0 178.5 41.5t137 104t84 133.5t30.5 133v192q-47 -56 -96.5 -78
t-184.5 -47q-44 -8 -68.5 -13t-73 -18t-78 -25.5t-68.5 -34.5t-61 -46.5t-38 -60t-16 -76.5q0 -94 70 -149.5t184 -55.5z" />
    <glyph glyph-name="Abreve" unicode="&#x102;" horiz-adv-x="1495" 
d="M748 1729q-84 0 -154.5 29t-116 75.5t-71.5 100.5t-29 108h90q6 -88 87 -157.5t194 -69.5t193.5 69t86.5 158h90q-3 -54 -29 -108t-71 -100.5t-115.5 -75.5t-154.5 -29zM143 0h-106l659 1597h103l659 -1597h-106q-162 385 -224 604l-18 17q-22 -2 -103 -8.5t-135 -9.5
t-108 -3q-123 0 -369 21l-20 -19q-74 -215 -232 -602zM410 690l12 -20q234 20 342 20q119 0 303 -20l12 18q-191 421 -311 799h-41q-133 -398 -317 -797z" />
    <glyph glyph-name="abreve" unicode="&#x103;" horiz-adv-x="1167" 
d="M594 1278q-169 0 -267 111t-104 284h90q6 -144 84 -226.5t197 -82.5t196.5 82.5t83.5 226.5h91q-6 -173 -104 -284t-267 -111zM455 -35q-151 0 -251 73.5t-100 209.5q0 78 33.5 138t95 100.5t131.5 66t160 43.5q27 5 80.5 14.5t78.5 15t65 16t60 23t41.5 31.5t30.5 45
t9 60q0 109 -89.5 191.5t-228.5 82.5q-123 0 -209.5 -69t-121.5 -185l-95 33q32 101 102.5 172t155 102t177.5 31q57 0 112.5 -12t110 -40t95.5 -69.5t66 -105t25 -141.5v-439q0 -131 8.5 -204t28.5 -148h-96q-19 74 -23.5 129.5t8.5 151.5h-20q-59 -147 -168.5 -231.5
t-271.5 -84.5zM459 47q95 0 178.5 41.5t137 104t84 133.5t30.5 133v192q-47 -56 -96.5 -78t-184.5 -47q-44 -8 -68.5 -13t-73 -18t-78 -25.5t-68.5 -34.5t-61 -46.5t-38 -60t-16 -76.5q0 -94 70 -149.5t184 -55.5z" />
    <glyph glyph-name="Aogonek" unicode="&#x104;" horiz-adv-x="1495" 
d="M1466 -389q38 0 88 14v-74q-55 -14 -92 -14q-113 0 -187.5 63t-74.5 169q0 132 158 231h-6q-162 385 -224 604l-18 17q-22 -2 -103 -8.5t-135 -9.5t-108 -3q-123 0 -369 21l-20 -19q-74 -215 -232 -602h-106l659 1597h103l659 -1597q-88 -50 -133 -103.5t-45 -119.5
q0 -75 54 -120.5t132 -45.5zM1067 670l12 18q-191 421 -311 799h-41q-133 -398 -317 -797l12 -20q234 20 342 20q119 0 303 -20z" />
    <glyph glyph-name="aogonek" unicode="&#x105;" horiz-adv-x="1167" 
d="M1034 -389q38 0 88 14v-74q-55 -14 -96 -14q-110 0 -184 62.5t-74 164.5q0 75 42.5 131t119.5 105q-19 74 -23.5 129.5t8.5 151.5h-20q-59 -147 -168.5 -231.5t-271.5 -84.5q-151 0 -251 73.5t-100 209.5q0 78 33.5 138t95 100.5t131.5 66t160 43.5q27 5 80.5 14.5
t78.5 15t65 16t60 23t41.5 31.5t30.5 45t9 60q0 109 -89.5 191.5t-228.5 82.5q-123 0 -209.5 -69t-121.5 -185l-95 33q32 101 102.5 172t155 102t177.5 31q57 0 112.5 -12t110 -40t95.5 -69.5t66 -105t25 -141.5v-439q0 -131 8.5 -204t28.5 -148h-2q-87 -50 -131.5 -103.5
t-44.5 -119.5q0 -75 54 -120.5t132 -45.5zM889 459v192q-47 -56 -96.5 -78t-184.5 -47q-44 -8 -68.5 -13t-73 -18t-78 -25.5t-68.5 -34.5t-61 -46.5t-38 -60t-16 -76.5q0 -94 70 -149.5t184 -55.5q95 0 178.5 41.5t137 104t84 133.5t30.5 133z" />
    <glyph glyph-name="Cacute" unicode="&#x106;" horiz-adv-x="1726" 
d="M1223 2034l-342 -314h-88l268 314h162zM918 -35q-174 0 -323.5 61.5t-254 170t-164 262t-59.5 332.5q0 183 61.5 340t167 266t251.5 171t312 62q109 0 214 -27t200.5 -80.5t169.5 -143.5t111 -205l-88 -37q-50 128 -144.5 219t-212 135.5t-248.5 44.5q-110 0 -211.5 -32
t-187.5 -95t-150.5 -151.5t-100.5 -208.5t-36 -258q0 -142 39.5 -263t107 -206.5t158 -145.5t193 -88.5t211.5 -28.5q133 0 245 42t190 114.5t131 161.5t81 192l88 -32q-36 -119 -98.5 -219t-153 -180.5t-219 -126.5t-280.5 -46z" />
    <glyph glyph-name="cacute" unicode="&#x107;" horiz-adv-x="1243" 
d="M973 1673l-311 -395h-84l251 395h144zM655 -35q-246 0 -399.5 166t-153.5 430q0 265 154.5 431.5t400.5 166.5q74 0 141.5 -16.5t131.5 -52t117 -97t86 -145.5l-95 -33q-45 121 -147 190.5t-240 69.5q-202 0 -324 -145t-122 -369q0 -228 127 -370t330 -142
q160 0 271.5 88.5t168.5 231.5l84 -27q-66 -183 -207 -280t-324 -97z" />
    <glyph glyph-name="Cdotaccent" unicode="&#x10a;" horiz-adv-x="1726" 
d="M864 1794q-41 0 -68.5 28.5t-27.5 69.5q0 39 27.5 67t68.5 28q39 0 66.5 -28t27.5 -67q0 -41 -27 -69.5t-67 -28.5zM918 -35q-174 0 -323.5 61.5t-254 170t-164 262t-59.5 332.5q0 183 61.5 340t167 266t251.5 171t312 62q109 0 214 -27t200.5 -80.5t169.5 -143.5
t111 -205l-88 -37q-50 128 -144.5 219t-212 135.5t-248.5 44.5q-110 0 -211.5 -32t-187.5 -95t-150.5 -151.5t-100.5 -208.5t-36 -258q0 -142 39.5 -263t107 -206.5t158 -145.5t193 -88.5t211.5 -28.5q133 0 245 42t190 114.5t131 161.5t81 192l88 -32q-36 -119 -98.5 -219
t-153 -180.5t-219 -126.5t-280.5 -46z" />
    <glyph glyph-name="cdotaccent" unicode="&#x10b;" horiz-adv-x="1243" 
d="M627 1446q-41 0 -69 28.5t-28 69.5q0 39 28 66.5t69 27.5q39 0 66.5 -27.5t27.5 -66.5q0 -41 -27 -69.5t-67 -28.5zM655 -35q-246 0 -399.5 166t-153.5 430q0 265 154.5 431.5t400.5 166.5q74 0 141.5 -16.5t131.5 -52t117 -97t86 -145.5l-95 -33q-45 121 -147 190.5
t-240 69.5q-202 0 -324 -145t-122 -369q0 -228 127 -370t330 -142q160 0 271.5 88.5t168.5 231.5l84 -27q-66 -183 -207 -280t-324 -97z" />
    <glyph glyph-name="Ccaron" unicode="&#x10c;" horiz-adv-x="1726" 
d="M934 1720h-141l-263 293h88q57 -53 82 -76.5t68.5 -72.5t75.5 -95h41q32 47 73 93.5t70.5 75.5t79.5 75h88zM918 -35q-174 0 -323.5 61.5t-254 170t-164 262t-59.5 332.5q0 183 61.5 340t167 266t251.5 171t312 62q109 0 214 -27t200.5 -80.5t169.5 -143.5t111 -205
l-88 -37q-50 128 -144.5 219t-212 135.5t-248.5 44.5q-110 0 -211.5 -32t-187.5 -95t-150.5 -151.5t-100.5 -208.5t-36 -258q0 -142 39.5 -263t107 -206.5t158 -145.5t193 -88.5t211.5 -28.5q133 0 245 42t190 114.5t131 161.5t81 192l88 -32q-36 -119 -98.5 -219
t-153 -180.5t-219 -126.5t-280.5 -46z" />
    <glyph glyph-name="ccaron" unicode="&#x10d;" horiz-adv-x="1243" 
d="M696 1278h-145l-297 354h90q179 -175 262 -291h37q35 51 86 109t78.5 86t95.5 96h90zM655 -35q-246 0 -399.5 166t-153.5 430q0 265 154.5 431.5t400.5 166.5q74 0 141.5 -16.5t131.5 -52t117 -97t86 -145.5l-95 -33q-45 121 -147 190.5t-240 69.5q-202 0 -324 -145
t-122 -369q0 -228 127 -370t330 -142q160 0 271.5 88.5t168.5 231.5l84 -27q-66 -183 -207 -280t-324 -97z" />
    <glyph glyph-name="Dcaron" unicode="&#x10e;" horiz-adv-x="1654" 
d="M836 1720h-142l-262 293h88q54 -50 81 -76t69.5 -73.5t74.5 -94.5h41q32 47 73.5 94t70 74.5t80.5 75.5h88zM795 0h-566v1597h547q156 0 283 -40.5t214.5 -112t146.5 -171.5t86.5 -216t27.5 -248q0 -238 -87 -420t-255.5 -285.5t-396.5 -103.5zM309 90l19 -18
q174 18 487 18q191 0 331 90t212 249t72 368q0 158 -42.5 287.5t-125.5 224t-212 146.5t-294 52q-265 0 -428 19l-19 -19q30 -701 0 -1417z" />
    <glyph glyph-name="dcaron" unicode="&#x10f;" horiz-adv-x="1374" 
d="M629 -35q-226 0 -376.5 168t-150.5 428q0 262 152 430t379 168q143 0 260 -78.5t186 -242.5h21q-21 338 -17 800h95v-1286q0 -132 8.5 -205.5t27.5 -146.5h-96q-19 74 -23 131.5t9 161.5h-21q-67 -164 -186 -246t-268 -82zM1438 1204h-68q25 52 41 83.5t45 77t62 83.5
q-95 16 -95 90q0 38 27.5 65t67.5 27q38 0 65 -27t27 -65q0 -34 -30.5 -91.5t-141.5 -242.5zM637 49q186 0 316 145t130 369q0 112 -36 208.5t-96.5 162.5t-142 103.5t-171.5 37.5q-187 0 -309.5 -146t-122.5 -368t123.5 -367t308.5 -145z" />
    <glyph glyph-name="Dcroat" unicode="&#x110;" horiz-adv-x="1654" 
d="M229 1597h547q156 0 283 -40.5t214.5 -112t146.5 -171.5t86.5 -216t27.5 -248q0 -238 -87 -420t-255.5 -285.5t-396.5 -103.5h-566v756h-161v84h161v757zM815 90q191 0 331 90t212 249t72 368q0 158 -42.5 287.5t-125.5 224t-212 146.5t-294 52q-265 0 -428 19l-19 -19
q15 -335 15 -667h596v-84h-596q0 -328 -15 -666l19 -18q174 18 487 18z" />
    <glyph glyph-name="dcroat" unicode="&#x111;" horiz-adv-x="1374" 
d="M1444 1432v-84h-266v-996q0 -132 8.5 -205.5t27.5 -146.5h-96q-19 74 -23 131.5t9 161.5h-21q-67 -164 -186 -246t-268 -82q-226 0 -376.5 168t-150.5 428q0 262 152 430t379 168q143 0 260 -78.5t186 -242.5h21q-17 258 -17 510h-295v84h295v206h95v-206h266zM637 49
q186 0 316 145t130 369q0 112 -36 208.5t-96.5 162.5t-142 103.5t-171.5 37.5q-187 0 -309.5 -146t-122.5 -368t123.5 -367t308.5 -145z" />
    <glyph glyph-name="Emacron" unicode="&#x112;" horiz-adv-x="1353" 
d="M1012 1847h-647v88h647v-88zM1243 0h-1014v1597h994v-90q-51 0 -209 -1t-236.5 -0.5t-208.5 5.5t-241 15l-19 -19q30 -315 2 -635l17 -22q305 18 854 18v-90q-534 0 -854 19l-17 -23q27 -341 -2 -684l19 -18q311 24 915 24v-96z" />
    <glyph glyph-name="emacron" unicode="&#x113;" horiz-adv-x="1269" 
d="M983 1438h-688v88h688v-88zM649 -35q-156 0 -280.5 74.5t-195.5 211t-71 310.5q0 263 154.5 430.5t394.5 167.5q65 0 127.5 -12.5t133.5 -49.5t123 -95.5t87 -160.5t35 -235v-49h-952q0 -225 126 -366.5t324 -141.5q158 0 270 90t167 230l84 -27q-65 -181 -205.5 -279
t-321.5 -98zM209 645h844q0 93 -24.5 168t-64.5 123t-94 80t-109 45.5t-114 13.5q-176 0 -294.5 -118.5t-143.5 -311.5z" />
    <glyph glyph-name="Edotaccent" unicode="&#x116;" horiz-adv-x="1353" 
d="M688 1794q-41 0 -68.5 28.5t-27.5 69.5q0 39 27.5 67t68.5 28q39 0 66.5 -28t27.5 -67q0 -41 -27 -69.5t-67 -28.5zM1243 0h-1014v1597h994v-90q-51 0 -209 -1t-236.5 -0.5t-208.5 5.5t-241 15l-19 -19q30 -315 2 -635l17 -22q305 18 854 18v-90q-534 0 -854 19l-17 -23
q27 -341 -2 -684l19 -18q311 24 915 24v-96z" />
    <glyph glyph-name="edotaccent" unicode="&#x117;" horiz-adv-x="1269" 
d="M641 1446q-41 0 -68.5 28.5t-27.5 69.5q0 39 27.5 66.5t68.5 27.5q39 0 66.5 -27.5t27.5 -66.5q0 -41 -27 -69.5t-67 -28.5zM649 -35q-156 0 -280.5 74.5t-195.5 211t-71 310.5q0 263 154.5 430.5t394.5 167.5q65 0 127.5 -12.5t133.5 -49.5t123 -95.5t87 -160.5t35 -235
v-49h-952q0 -225 126 -366.5t324 -141.5q158 0 270 90t167 230l84 -27q-65 -181 -205.5 -279t-321.5 -98zM209 645h844q0 93 -24.5 168t-64.5 123t-94 80t-109 45.5t-114 13.5q-176 0 -294.5 -118.5t-143.5 -311.5z" />
    <glyph glyph-name="Eogonek" unicode="&#x118;" horiz-adv-x="1353" 
d="M1251 -389q38 0 88 14v-74q-55 -14 -92 -14q-113 0 -187.5 63t-74.5 169q0 132 158 231h-914v1597h994v-90q-51 0 -209 -1t-236.5 -0.5t-208.5 5.5t-241 15l-19 -19q30 -315 2 -635l17 -22q305 18 854 18v-90q-534 0 -854 19l-17 -23q27 -341 -2 -684l19 -18
q311 24 915 24v-96q-88 -50 -133 -103.5t-45 -119.5q0 -75 54 -120.5t132 -45.5z" />
    <glyph glyph-name="eogonek" unicode="&#x119;" horiz-adv-x="1269" 
d="M844 -2q-86 -50 -129 -102.5t-43 -118.5q0 -75 54 -120.5t132 -45.5q38 0 88 14v-74q-55 -14 -96 -14q-110 0 -184 62.5t-74 164.5q0 117 115 203q-18 -2 -58 -2q-156 0 -280.5 74.5t-195.5 211t-71 310.5q0 263 154.5 430.5t394.5 167.5q65 0 127.5 -12.5t133.5 -49.5
t123 -95.5t87 -160.5t35 -235v-49h-952q0 -225 126 -366.5t324 -141.5q158 0 270 90t167 230l84 -27q-45 -128 -131 -215.5t-201 -128.5zM647 1075q-176 0 -294.5 -118.5t-143.5 -311.5h844q0 93 -24.5 168t-64.5 123t-94 80t-109 45.5t-114 13.5z" />
    <glyph glyph-name="Ecaron" unicode="&#x11a;" horiz-adv-x="1353" 
d="M758 1720h-142l-262 293h88q57 -53 82 -76.5t68.5 -72.5t75.5 -95h41q32 47 73 93.5t70.5 75.5t79.5 75h88zM1243 0h-1014v1597h994v-90q-51 0 -209 -1t-236.5 -0.5t-208.5 5.5t-241 15l-19 -19q30 -315 2 -635l17 -22q305 18 854 18v-90q-534 0 -854 19l-17 -23
q27 -341 -2 -684l19 -18q311 24 915 24v-96z" />
    <glyph glyph-name="ecaron" unicode="&#x11b;" horiz-adv-x="1269" 
d="M711 1278h-146l-297 354h90q183 -179 263 -291h36q12 18 25 35t29 36t26.5 32t31 34.5t28 30t31.5 33t28.5 29l32 32l29.5 29.5h90zM649 -35q-156 0 -280.5 74.5t-195.5 211t-71 310.5q0 263 154.5 430.5t394.5 167.5q65 0 127.5 -12.5t133.5 -49.5t123 -95.5t87 -160.5
t35 -235v-49h-952q0 -225 126 -366.5t324 -141.5q158 0 270 90t167 230l84 -27q-65 -181 -205.5 -279t-321.5 -98zM209 645h844q0 93 -24.5 168t-64.5 123t-94 80t-109 45.5t-114 13.5q-176 0 -294.5 -118.5t-143.5 -311.5z" />
    <glyph glyph-name="Gbreve" unicode="&#x11e;" horiz-adv-x="1804" 
d="M864 1729q-84 0 -154.5 29t-115.5 75.5t-71 100.5t-29 108h90q6 -89 86.5 -158t193.5 -69t194 69.5t87 157.5h90q-3 -54 -29 -108t-71.5 -100.5t-116 -75.5t-154.5 -29zM909 -35q-171 0 -318.5 61.5t-251.5 170t-163 262t-59 332.5q0 183 61.5 340t167 266t251.5 171
t312 62q109 0 214 -27t200.5 -80.5t169.5 -143.5t111 -205l-88 -37q-50 128 -144.5 219t-212 135.5t-248.5 44.5q-110 0 -211.5 -32t-187.5 -95t-150.5 -151.5t-100.5 -208.5t-36 -258q0 -176 59.5 -318.5t158.5 -231t222.5 -135.5t258.5 -47q271 0 447.5 177t207.5 460
l-10 15q-414 -35 -604 -35v90h694v-766h-88q0 20 -2 119t0.5 163.5t11.5 133.5h-20q-80 -218 -246 -334.5t-406 -116.5z" />
    <glyph glyph-name="gbreve" unicode="&#x11f;" horiz-adv-x="1370" 
d="M657 1278q-169 0 -266.5 111t-103.5 284h90q6 -144 83.5 -226.5t196.5 -82.5t197 82.5t84 226.5h90q-6 -173 -104 -284t-267 -111zM668 -483q-189 0 -315 79.5t-187 251.5l88 29q42 -128 145.5 -202t270.5 -74q65 0 120.5 13.5t110.5 49.5t93.5 93t62.5 150.5t24 215.5
q0 112 17 170h-21q-69 -139 -188 -216t-262 -77q-148 0 -268.5 76t-189.5 210t-69 298q0 250 152.5 412.5t376.5 162.5q138 0 260 -87.5t188 -233.5h21q-13 104 -13 288h91v-979q0 -630 -508 -630zM635 84q184 0 315 144t131 358q0 106 -36 198t-96.5 155.5t-142 99.5
t-171.5 36q-186 0 -309 -141.5t-123 -349.5q0 -211 124 -355.5t308 -144.5z" />
    <glyph glyph-name="Gdotaccent" unicode="&#x120;" horiz-adv-x="1804" 
d="M864 1794q-41 0 -68.5 28.5t-27.5 69.5q0 39 27.5 67t68.5 28q39 0 66.5 -28t27.5 -67q0 -41 -27 -69.5t-67 -28.5zM909 -35q-171 0 -318.5 61.5t-251.5 170t-163 262t-59 332.5q0 183 61.5 340t167 266t251.5 171t312 62q109 0 214 -27t200.5 -80.5t169.5 -143.5
t111 -205l-88 -37q-50 128 -144.5 219t-212 135.5t-248.5 44.5q-110 0 -211.5 -32t-187.5 -95t-150.5 -151.5t-100.5 -208.5t-36 -258q0 -176 59.5 -318.5t158.5 -231t222.5 -135.5t258.5 -47q271 0 447.5 177t207.5 460l-10 15q-414 -35 -604 -35v90h694v-766h-88
q0 20 -2 119t0.5 163.5t11.5 133.5h-20q-80 -218 -246 -334.5t-406 -116.5z" />
    <glyph glyph-name="gdotaccent" unicode="&#x121;" horiz-adv-x="1370" 
d="M659 1446q-41 0 -68.5 28.5t-27.5 69.5q0 39 27.5 66.5t68.5 27.5q39 0 67 -28t28 -66q0 -41 -27.5 -69.5t-67.5 -28.5zM668 -483q-189 0 -315 79.5t-187 251.5l88 29q42 -128 145.5 -202t270.5 -74q65 0 120.5 13.5t110.5 49.5t93.5 93t62.5 150.5t24 215.5
q0 112 17 170h-21q-69 -139 -188 -216t-262 -77q-148 0 -268.5 76t-189.5 210t-69 298q0 250 152.5 412.5t376.5 162.5q138 0 260 -87.5t188 -233.5h21q-13 104 -13 288h91v-979q0 -630 -508 -630zM635 84q184 0 315 144t131 358q0 106 -36 198t-96.5 155.5t-142 99.5
t-171.5 36q-186 0 -309 -141.5t-123 -349.5q0 -211 124 -355.5t308 -144.5z" />
    <glyph glyph-name="uni0122" unicode="&#x122;" horiz-adv-x="1804" 
d="M909 -35q-171 0 -318.5 61.5t-251.5 170t-163 262t-59 332.5q0 183 61.5 340t167 266t251.5 171t312 62q109 0 214 -27t200.5 -80.5t169.5 -143.5t111 -205l-88 -37q-50 128 -144.5 219t-212 135.5t-248.5 44.5q-110 0 -211.5 -32t-187.5 -95t-150.5 -151.5
t-100.5 -208.5t-36 -258q0 -176 59.5 -318.5t158.5 -231t222.5 -135.5t258.5 -47q271 0 447.5 177t207.5 460l-10 15q-414 -35 -604 -35v90h694v-766h-88q0 20 -2 119t0.5 163.5t11.5 133.5h-20q-80 -218 -246 -334.5t-406 -116.5zM838 -483h-47q64 127 118 194
q-112 0 -112 86q0 38 27 61t67 23q38 0 65 -27t27 -65q0 -35 -28 -86.5t-117 -185.5z" />
    <glyph glyph-name="uni0123" unicode="&#x123;" horiz-adv-x="1370" 
d="M537 1339q0 35 30.5 94t141.5 240h67q-73 -153 -137 -264q42 6 63 -17.5t21 -58.5q0 -40 -26.5 -63t-63.5 -23q-41 0 -68.5 26.5t-27.5 65.5zM668 -483q-189 0 -315 79.5t-187 251.5l88 29q42 -128 145.5 -202t270.5 -74q65 0 120.5 13.5t110.5 49.5t93.5 93t62.5 150.5
t24 215.5q0 112 17 170h-21q-69 -139 -188 -216t-262 -77q-148 0 -268.5 76t-189.5 210t-69 298q0 250 152.5 412.5t376.5 162.5q138 0 260 -87.5t188 -233.5h21q-13 104 -13 288h91v-979q0 -630 -508 -630zM635 84q184 0 315 144t131 358q0 106 -36 198t-96.5 155.5
t-142 99.5t-171.5 36q-186 0 -309 -141.5t-123 -349.5q0 -211 124 -355.5t308 -144.5z" />
    <glyph glyph-name="Hbar" unicode="&#x126;" horiz-adv-x="1654" 
d="M1425 1270h136v-84h-136v-1186h-100q0 494 18 766l-16 22q-466 -48 -999 0l-17 -22q19 -272 19 -766h-101v1186h-135v84h135v327h101q0 -218 -2 -327h999q-2 111 -2 327h100v-327zM1327 842l16 22q-11 140 -14 322h-1003q-3 -170 -15 -322l17 -22q535 23 999 0z" />
    <glyph glyph-name="hbar" unicode="&#x127;" horiz-adv-x="1292" 
d="M698 1159q63 0 119.5 -13t112.5 -46t96 -83t65 -130t25 -182v-705h-94v664q0 93 -20 166t-52 118t-77 74.5t-91 41t-98 11.5q-94 0 -171.5 -40t-125 -104t-73 -138.5t-25.5 -149.5v-643h-94v1348h-183v84h183v206h94q0 -136 -2 -206h381v-84h-383q-9 -225 -27 -474h21
q136 285 419 285z" />
    <glyph glyph-name="Imacron" unicode="&#x12a;" horiz-adv-x="559" 
d="M604 1847h-647v88h647v-88zM330 0h-101v1597h101v-1597z" />
    <glyph glyph-name="imacron" unicode="&#x12b;" horiz-adv-x="483" 
d="M586 1438h-688v88h688v-88zM289 0h-94v1126h94v-1126z" />
    <glyph glyph-name="Iogonek" unicode="&#x12e;" horiz-adv-x="559" 
d="M338 -389q38 0 88 14v-74q-55 -14 -92 -14q-113 0 -187.5 63t-74.5 169q0 72 40.5 127.5t116.5 103.5v1597h101v-1597q-88 -50 -133 -103.5t-45 -119.5q0 -75 54 -120.5t132 -45.5z" />
    <glyph glyph-name="iogonek" unicode="&#x12f;" horiz-adv-x="483" 
d="M244 1446q-41 0 -69 28.5t-28 69.5q0 39 28 66.5t69 27.5q39 0 66.5 -27.5t27.5 -66.5q0 -41 -27 -69.5t-67 -28.5zM299 -389q38 0 88 14v-74q-55 -14 -96 -14q-110 0 -184 62.5t-74 164.5q0 75 42.5 131t119.5 105v1126h94v-1126q-87 -50 -131.5 -103.5t-44.5 -119.5
q0 -75 54 -120.5t132 -45.5z" />
    <glyph glyph-name="Idotaccent" unicode="&#x130;" horiz-adv-x="559" 
d="M281 1794q-41 0 -69 28.5t-28 69.5q0 39 28 67t69 28q39 0 66.5 -28t27.5 -67q0 -41 -27 -69.5t-67 -28.5zM330 0h-101v1597h101v-1597z" />
    <glyph glyph-name="dotlessi" unicode="&#x131;" horiz-adv-x="483" 
d="M289 0h-94v1126h94v-1126z" />
    <glyph glyph-name="uni0136" unicode="&#x136;" horiz-adv-x="1339" 
d="M330 0h-101v1597h101v-124.5v-138t-1 -121t-2.5 -138.5t-4.5 -122.5t-8 -140t-11 -128.5h21q83 93 167 184.5t184 198t157.5 167.5t181 191.5t162.5 171.5h122q-26 -27 -106 -112t-114 -121t-105 -109t-117.5 -119.5t-109 -107t-119.5 -113.5v-22q355 -433 712 -893h-122
q-420 524 -646 842h-18q-98 -146 -234 -260q11 -221 11 -582zM668 -483h-47q64 127 118 194q-112 0 -112 86q0 38 27 61t67 23q38 0 65 -27t27 -65q0 -35 -28 -86.5t-117 -185.5z" />
    <glyph glyph-name="uni0137" unicode="&#x137;" horiz-adv-x="1038" 
d="M289 0h-94v1638h94v-151.5v-163.5t-0.5 -148.5t-1.5 -164t-3 -150t-5 -165.5t-7 -156h21q168 183 557 587h119l-439 -436q122 -155 519 -690h-107q-259 344 -467 633q-101 -122 -207 -191q21 -162 21 -442zM504 -483h-47q64 127 118 194q-112 0 -112 86q0 38 27 61t67 23
q38 0 65 -27t27 -65q0 -35 -28 -86.5t-117 -185.5z" />
    <glyph glyph-name="Lacute" unicode="&#x139;" horiz-adv-x="1214" 
d="M688 2034l-342 -314h-88l268 314h162zM1182 0h-953v1597h101q0 -959 -21 -1507l19 -18q289 24 854 24v-96z" />
    <glyph glyph-name="lacute" unicode="&#x13a;" horiz-adv-x="483" 
d="M641 2075l-342 -314h-88l268 314h162zM289 0h-94v1638h94v-1638z" />
    <glyph glyph-name="uni013B" unicode="&#x13b;" horiz-adv-x="1214" 
d="M1182 0h-953v1597h101q0 -959 -21 -1507l19 -18q289 24 854 24v-96zM596 -483h-47q22 44 32.5 64t35 58t51.5 72q-113 0 -113 86q0 38 27 61t67 23q38 0 65 -27t27 -65q0 -35 -28 -86.5t-117 -185.5z" />
    <glyph glyph-name="uni013C" unicode="&#x13c;" horiz-adv-x="483" 
d="M289 0h-94v1638h94v-1638zM195 -483h-48q22 44 32.5 64t35 58t51.5 72q-112 0 -112 86q0 38 27 61t67 23q38 0 65 -27t27 -65q0 -35 -28 -86.5t-117 -185.5z" />
    <glyph glyph-name="Lcaron" unicode="&#x13d;" horiz-adv-x="1214" 
d="M883 1204h-68q25 52 41 83.5t45 77t62 83.5q-95 16 -95 90q0 38 27.5 65t67.5 27q38 0 65 -27t27 -65q0 -34 -30.5 -91.5t-141.5 -242.5zM1182 0h-953v1597h101q0 -959 -21 -1507l19 -18q289 24 854 24v-96z" />
    <glyph glyph-name="lcaron" unicode="&#x13e;" horiz-adv-x="483" 
d="M289 0h-94v1638h94v-1638zM604 1204h-67q26 55 41 84.5t44 75.5t62 84q-94 16 -94 90q0 38 27 65t67 27q38 0 65 -27t27 -65q0 -34 -30.5 -91.5t-141.5 -242.5z" />
    <glyph glyph-name="Lslash" unicode="&#x141;" horiz-adv-x="1214" 
d="M309 90l19 -18q289 24 854 24v-96h-953v797l-176 -82v88l176 82v712h101q0 -444 -2 -665l329 153v-88l-329 -153q-7 -452 -19 -754z" />
    <glyph glyph-name="lslash" unicode="&#x142;" horiz-adv-x="483" 
d="M289 999l203 146v-88l-203 -146v-911h-94v844l-205 -146v88l205 146v706h94v-639z" />
    <glyph glyph-name="Nacute" unicode="&#x143;" horiz-adv-x="1695" 
d="M1186 2034l-342 -314h-88l268 314h162zM330 0h-101v1597h93q488 -653 1050 -1464h21q-6 103 -11 205t-8 224.5t-4.5 195.5t-2.5 222t-1 194.5v222v200.5h100v-1597h-92q-562 751 -1048 1444h-21q7 -118 12.5 -249t8 -231t3.5 -251.5t1.5 -228.5t0 -250t-0.5 -234z" />
    <glyph glyph-name="nacute" unicode="&#x144;" horiz-adv-x="1292" 
d="M991 1673l-311 -395h-84l252 395h143zM289 0h-94v1126h90q0 -154 -27 -252h21q136 285 421 285q63 0 120 -13t112 -46t95 -83t64.5 -130t24.5 -182v-705h-94v664q0 93 -20 166t-52 118t-77 74.5t-91 41t-98 11.5q-76 0 -141.5 -26t-111 -69.5t-78.5 -100t-48.5 -116.5
t-15.5 -120v-643z" />
    <glyph glyph-name="uni0145" unicode="&#x145;" horiz-adv-x="1695" 
d="M330 0h-101v1597h93q488 -653 1050 -1464h21q-6 103 -11 205t-8 224.5t-4.5 195.5t-2.5 222t-1 194.5v222v200.5h100v-1597h-92q-562 751 -1048 1444h-21q7 -118 12.5 -249t8 -231t3.5 -251.5t1.5 -228.5t0 -250t-0.5 -234zM821 -483h-47q22 44 32.5 64t35 58t51.5 72
q-113 0 -113 86q0 38 27 61t67 23q38 0 65.5 -27t27.5 -65q0 -35 -28 -85.5t-118 -186.5z" />
    <glyph glyph-name="uni0146" unicode="&#x146;" horiz-adv-x="1292" 
d="M289 0h-94v1126h90q0 -154 -27 -252h21q136 285 421 285q63 0 120 -13t112 -46t95 -83t64.5 -130t24.5 -182v-705h-94v664q0 93 -20 166t-52 118t-77 74.5t-91 41t-98 11.5q-76 0 -141.5 -26t-111 -69.5t-78.5 -100t-48.5 -116.5t-15.5 -120v-643zM616 -483h-47
q22 44 32.5 64t35 58t51.5 72q-113 0 -113 86q0 38 27 61t68 23q38 0 65 -27t27 -65q0 -35 -28 -85.5t-118 -186.5z" />
    <glyph glyph-name="Ncaron" unicode="&#x147;" horiz-adv-x="1695" 
d="M897 1720h-141l-262 293h88q54 -50 81 -76t69.5 -73.5t74.5 -94.5h41q32 47 73 93.5t70.5 75.5t79.5 75h88zM330 0h-101v1597h93q488 -653 1050 -1464h21q-6 103 -11 205t-8 224.5t-4.5 195.5t-2.5 222t-1 194.5v222v200.5h100v-1597h-92q-562 751 -1048 1444h-21
q7 -118 12.5 -249t8 -231t3.5 -251.5t1.5 -228.5t0 -250t-0.5 -234z" />
    <glyph glyph-name="ncaron" unicode="&#x148;" horiz-adv-x="1292" 
d="M715 1278h-146l-297 354h90q183 -179 263 -291h37q35 51 86 109t78.5 86t95.5 96h90zM289 0h-94v1126h90q0 -154 -27 -252h21q136 285 421 285q63 0 120 -13t112 -46t95 -83t64.5 -130t24.5 -182v-705h-94v664q0 93 -20 166t-52 118t-77 74.5t-91 41t-98 11.5
q-76 0 -141.5 -26t-111 -69.5t-78.5 -100t-48.5 -116.5t-15.5 -120v-643z" />
    <glyph glyph-name="Eng" unicode="&#x14a;" horiz-adv-x="1695" 
d="M1087 -483q-126 0 -215 59v100q96 -69 201 -69q139 0 218 108.5t79 284.5q-518 695 -1044 1444h-21q7 -118 12.5 -249t8 -231t3.5 -251.5t1.5 -228.5t0 -250t-0.5 -234h-101v1597h93q488 -653 1050 -1464h21q-6 103 -11 205t-8 224.5t-4.5 195.5t-2.5 222t-1 194.5v222
v200.5h100v-1515q0 -565 -379 -565z" />
    <glyph glyph-name="eng" unicode="&#x14b;" horiz-adv-x="1292" 
d="M815 -483q-125 0 -211 59v94q99 -69 197 -69q46 0 82 15.5t58.5 38t39 60.5t24.5 68.5t12 78.5t4.5 73t0.5 69v660q0 93 -20 166t-52 118t-77 74.5t-91 41t-98 11.5q-76 0 -141.5 -26t-111 -69.5t-78.5 -100t-48.5 -116.5t-15.5 -120v-643h-94v1126h90q0 -154 -27 -252
h21q136 285 421 285q63 0 119.5 -12.5t112 -44.5t95.5 -81t64.5 -127t24.5 -177v-731q0 -38 -0.5 -59.5t-3 -64.5t-7.5 -70.5t-15.5 -67t-25 -65.5t-37.5 -55.5t-52.5 -46.5t-70 -28.5t-89.5 -11.5z" />
    <glyph glyph-name="Omacron" unicode="&#x14c;" horiz-adv-x="1828" 
d="M1237 1847h-647v88h647v-88zM913 -35q-162 0 -308.5 63.5t-254.5 172.5t-171.5 264.5t-63.5 331.5q0 175 63 330.5t170.5 265.5t255 173.5t311.5 63.5q222 0 405.5 -111t288.5 -302.5t105 -419.5q0 -230 -107 -421.5t-291 -301t-403 -109.5zM918 59q136 0 261 56t219 152
t150 234.5t56 295.5t-56 296t-150 235.5t-219 152t-261 55.5q-138 0 -265 -55.5t-222 -152t-151.5 -235.5t-56.5 -296t56.5 -295.5t151.5 -234.5t222 -152t265 -56z" />
    <glyph glyph-name="omacron" unicode="&#x14d;" horiz-adv-x="1320" 
d="M1006 1438h-689v88h689v-88zM662 -35q-247 0 -403.5 166.5t-156.5 429.5q0 264 156.5 431t403.5 167q246 0 401.5 -167t155.5 -431q0 -263 -155.5 -429.5t-401.5 -166.5zM662 49q202 0 328 143t126 369q0 227 -126 370.5t-328 143.5t-329.5 -144t-127.5 -370t127.5 -369
t329.5 -143z" />
    <glyph glyph-name="Ohungarumlaut" unicode="&#x150;" horiz-adv-x="1828" 
d="M1053 2034l-271 -314h-88l211 314h148zM1335 2034l-291 -314h-88l232 314h147zM913 -35q-162 0 -308.5 63.5t-254.5 172.5t-171.5 264.5t-63.5 331.5q0 175 63 330.5t170.5 265.5t255 173.5t311.5 63.5q222 0 405.5 -111t288.5 -302.5t105 -419.5q0 -230 -107 -421.5
t-291 -301t-403 -109.5zM918 59q136 0 261 56t219 152t150 234.5t56 295.5t-56 296t-150 235.5t-219 152t-261 55.5q-138 0 -265 -55.5t-222 -152t-151.5 -235.5t-56.5 -296t56.5 -295.5t151.5 -234.5t222 -152t265 -56z" />
    <glyph glyph-name="ohungarumlaut" unicode="&#x151;" horiz-adv-x="1320" 
d="M805 1673l-270 -395h-84l211 395h143zM1092 1673l-291 -395h-84l231 395h144zM662 -35q-247 0 -403.5 166.5t-156.5 429.5q0 264 156.5 431t403.5 167q246 0 401.5 -167t155.5 -431q0 -263 -155.5 -429.5t-401.5 -166.5zM662 49q202 0 328 143t126 369q0 227 -126 370.5
t-328 143.5t-329.5 -144t-127.5 -370t127.5 -369t329.5 -143z" />
    <glyph glyph-name="OE" unicode="&#x152;" horiz-adv-x="2738" 
d="M913 -35q-162 0 -308.5 63.5t-254.5 172.5t-171.5 264.5t-63.5 331.5q0 175 63 330.5t170.5 265.5t255 173.5t311.5 63.5q225 0 410.5 -115t288.5 -309v391h993v-90q-51 0 -209 -1t-236.5 -0.5t-208.5 5.5t-241 15l-18 -19q30 -315 2 -635l16 -22q305 18 854 18v-90
q-534 0 -854 19l-16 -23q27 -341 -2 -684l18 -18q311 24 916 24v-96h-1014v389q-104 -195 -290.5 -309.5t-410.5 -114.5zM918 59q136 0 261 56t219 152t150 234.5t56 295.5t-56 296t-150 235.5t-219 152t-261 55.5q-138 0 -265 -55.5t-222 -152t-151.5 -235.5t-56.5 -296
t56.5 -295.5t151.5 -234.5t222 -152t265 -56z" />
    <glyph glyph-name="oe" unicode="&#x153;" horiz-adv-x="2285" 
d="M662 -35q-247 0 -403.5 166.5t-156.5 429.5q0 264 156.5 431t403.5 167q176 0 308.5 -89t196.5 -243q65 154 197 243t303 89q65 0 127.5 -12.5t133.5 -49.5t123 -95.5t87 -160.5t35 -235v-45h-954q0 -228 126.5 -370t325.5 -142q158 0 269 90t167 230l84 -27
q-65 -181 -205 -279t-321 -98q-172 0 -303 88t-195 242q-64 -154 -197 -242t-308 -88zM662 49q202 0 328 143t126 369q0 227 -126 370.5t-328 143.5t-329.5 -144t-127.5 -370t127.5 -369t329.5 -143zM1225 645h843q0 115 -36.5 202t-97 134.5t-129 70.5t-142.5 23
q-177 0 -295 -118.5t-143 -311.5z" />
    <glyph glyph-name="Racute" unicode="&#x154;" horiz-adv-x="1415" 
d="M1022 2034l-342 -314h-88l268 314h162zM330 0h-101v1597h545q123 0 221.5 -36t162 -98.5t97 -146t33.5 -181.5q0 -198 -116.5 -319t-317.5 -138v-21q69 -96 143.5 -205.5t164 -246t136.5 -205.5h-110l-440 655q-93 0 -144.5 1t-135.5 8.5t-159 21.5q21 -263 21 -686z
M311 750l17 -23q162 18 446 18q197 0 303.5 101t106.5 278q0 175 -115.5 279t-314.5 104q-248 0 -426 19l-19 -19q28 -390 2 -757z" />
    <glyph glyph-name="racute" unicode="&#x155;" horiz-adv-x="825" 
d="M811 1673l-311 -395h-84l252 395h143zM289 0h-94v1126h90q0 -15 0.5 -61t0.5 -71t-3.5 -69.5t-10.5 -88.5h21q42 155 144.5 239t234.5 84q77 0 133 -22v-101q-60 29 -139 29q-112 0 -200 -70t-132.5 -179t-44.5 -234v-582z" />
    <glyph glyph-name="uni0156" unicode="&#x156;" horiz-adv-x="1415" 
d="M330 0h-101v1597h545q123 0 221.5 -36t162 -98.5t97 -146t33.5 -181.5q0 -198 -116.5 -319t-317.5 -138v-21q69 -96 143.5 -205.5t164 -246t136.5 -205.5h-110l-440 655q-93 0 -144.5 1t-135.5 8.5t-159 21.5q21 -263 21 -686zM311 750l17 -23q162 18 446 18
q197 0 303.5 101t106.5 278q0 175 -115.5 279t-314.5 104q-248 0 -426 19l-19 -19q28 -390 2 -757zM678 -483h-47q22 44 32.5 64t35 58t51.5 72q-113 0 -113 86q0 38 27 61t67 23q38 0 65 -27t27 -65q0 -35 -28 -86.5t-117 -185.5z" />
    <glyph glyph-name="uni0157" unicode="&#x157;" horiz-adv-x="825" 
d="M289 0h-94v1126h90q0 -15 0.5 -61t0.5 -71t-3.5 -69.5t-10.5 -88.5h21q42 155 144.5 239t234.5 84q77 0 133 -22v-101q-60 29 -139 29q-112 0 -200 -70t-132.5 -179t-44.5 -234v-582zM186 -483h-47q22 44 32.5 64t35 58t51.5 72q-113 0 -113 86q0 38 27 61t68 23
q38 0 65 -27t27 -65q0 -35 -28 -85.5t-118 -186.5z" />
    <glyph glyph-name="Rcaron" unicode="&#x158;" horiz-adv-x="1415" 
d="M733 1720h-141l-262 293h88q54 -50 81 -76t69.5 -73.5t74.5 -94.5h41q32 47 73 93.5t70.5 75.5t79.5 75h88zM330 0h-101v1597h545q123 0 221.5 -36t162 -98.5t97 -146t33.5 -181.5q0 -198 -116.5 -319t-317.5 -138v-21q69 -96 143.5 -205.5t164 -246t136.5 -205.5h-110
l-440 655q-93 0 -144.5 1t-135.5 8.5t-159 21.5q21 -263 21 -686zM311 750l17 -23q162 18 446 18q197 0 303.5 101t106.5 278q0 175 -115.5 279t-314.5 104q-248 0 -426 19l-19 -19q28 -390 2 -757z" />
    <glyph glyph-name="rcaron" unicode="&#x159;" horiz-adv-x="825" 
d="M535 1278h-146l-297 354h90q179 -175 262 -291h37q35 51 86 109t78.5 86t95.5 96h90zM289 0h-94v1126h90q0 -15 0.5 -61t0.5 -71t-3.5 -69.5t-10.5 -88.5h21q42 155 144.5 239t234.5 84q77 0 133 -22v-101q-60 29 -139 29q-112 0 -200 -70t-132.5 -179t-44.5 -234v-582z
" />
    <glyph glyph-name="Sacute" unicode="&#x15a;" horiz-adv-x="1314" 
d="M948 2034l-342 -314h-88l268 314h162zM678 -35q-68 0 -134.5 13.5t-137.5 47t-130 85t-109.5 134t-78.5 187.5l92 35q52 -193 188 -300.5t314 -107.5q59 0 116.5 11.5t112.5 38.5t96.5 65.5t67 97.5t25.5 131q0 62 -21.5 111t-45.5 77.5t-79.5 56.5t-83 37.5t-96.5 30.5
q-23 7 -35 11l-149 47q-44 14 -76.5 25.5t-82 33.5t-85.5 44.5t-76.5 58t-65.5 74.5t-42 92.5t-17 114.5q0 83 29.5 152t79.5 116.5t116 80.5t137.5 48.5t145.5 15.5q183 0 324.5 -98t196.5 -287l-89 -37q-47 150 -165 239t-283 89q-106 0 -193.5 -37t-140.5 -108.5
t-53 -165.5q0 -49 16 -92.5t37 -74t58 -59.5t63.5 -45t70 -34.5t60 -24t51.5 -16.5l152 -50q154 -50 190 -65q179 -74 234 -199q28 -64 28 -145q0 -137 -77 -243t-197 -159t-258 -53z" />
    <glyph glyph-name="sacute" unicode="&#x15b;" horiz-adv-x="1001" 
d="M848 1673l-311 -395h-84l252 395h143zM530 -35q-159 0 -283.5 87t-172.5 229l88 28q44 -113 148.5 -186.5t221.5 -73.5q43 0 89 12t92 37t76 73t30 112q0 41 -15 74.5t-36.5 54.5t-59.5 39.5t-69 28.5t-80 24l-104 28q-31 9 -49 14.5t-57 20.5t-64.5 30.5t-58 41.5
t-52 55.5t-33.5 71.5t-14 90q0 62 22 114t58 86t83 58t96 34.5t97 10.5q135 0 243.5 -77.5t147.5 -194.5l-94 -33q-33 94 -114.5 157.5t-196.5 63.5q-107 0 -176.5 -57t-69.5 -152q0 -46 19 -84.5t45.5 -63t68.5 -46.5t73.5 -33t74.5 -23l112 -32q35 -10 56.5 -17t57 -21.5
t58.5 -28.5t50 -36.5t42.5 -47.5t26.5 -59.5t11 -74.5q0 -139 -110 -236.5t-278 -97.5z" />
    <glyph glyph-name="Scedilla" unicode="&#x15e;" horiz-adv-x="1314" 
d="M1210 420q0 -133 -73 -237t-187.5 -158.5t-247.5 -59.5q-65 -90 -104 -129l6 -6q44 18 94 18q80 0 130.5 -43t50.5 -112q0 -77 -60.5 -126.5t-152.5 -49.5q-68 0 -134.5 29t-109.5 77l47 43q33 -40 85 -65t105 -25q62 0 104 32t42 81q0 46 -37 75t-94 29q-56 0 -99 -24
l-47 47l99 151q-65 5 -126.5 22t-126 52.5t-117.5 86.5t-98 129t-71 175l92 35q52 -193 188 -300.5t314 -107.5q59 0 116.5 11.5t112.5 38.5t96.5 65.5t67 97.5t25.5 131q0 62 -21.5 111t-45.5 77.5t-79.5 56.5t-83 37.5t-96.5 30.5q-23 7 -35 11l-149 47q-44 14 -76.5 25.5
t-82 33.5t-85.5 44.5t-76.5 58t-65.5 74.5t-42 92.5t-17 114.5q0 83 29.5 152t79.5 116.5t116 80.5t137.5 48.5t145.5 15.5q183 0 324.5 -98t196.5 -287l-89 -37q-47 150 -165 239t-283 89q-106 0 -193.5 -37t-140.5 -108.5t-53 -165.5q0 -49 16 -92.5t37 -74t58 -59.5
t63.5 -45t70 -34.5t60 -24t51.5 -16.5l152 -50q154 -50 190 -65q179 -74 234 -199q28 -64 28 -145z" />
    <glyph glyph-name="scedilla" unicode="&#x15f;" horiz-adv-x="1001" 
d="M918 299q0 -134 -103.5 -231t-263.5 -103q-62 -86 -105 -129l7 -6q43 18 94 18q80 0 130 -43t50 -112q0 -77 -60.5 -126.5t-152.5 -49.5q-68 0 -134.5 29t-109.5 77l47 43q33 -40 85 -65t106 -25q62 0 103.5 32t41.5 81q0 46 -37 75t-94 29q-55 0 -98 -24l-47 47l100 151
q-142 15 -251 100t-152 214l88 28q44 -113 148.5 -186.5t221.5 -73.5q43 0 89 12t92 37t76 73t30 112q0 41 -15 74.5t-36.5 54.5t-59.5 39.5t-69 28.5t-80 24l-104 28q-31 9 -49 14.5t-57 20.5t-64.5 30.5t-58 41.5t-52 55.5t-33.5 71.5t-14 90q0 62 22 114t58 86t83 58
t96 34.5t97 10.5q135 0 243.5 -77.5t147.5 -194.5l-94 -33q-33 94 -114.5 157.5t-196.5 63.5q-107 0 -176.5 -57t-69.5 -152q0 -46 19 -84.5t45.5 -63t68.5 -46.5t73.5 -33t74.5 -23l112 -32q35 -10 56.5 -17t57 -21.5t58.5 -28.5t50 -36.5t42.5 -47.5t26.5 -59.5t11 -74.5z
" />
    <glyph glyph-name="Scaron" unicode="&#x160;" horiz-adv-x="1314" 
d="M721 1720h-141l-263 293h89q54 -50 81 -76t69.5 -73.5t74.5 -94.5h41q32 47 73 93.5t70.5 75.5t79.5 75h88zM678 -35q-68 0 -134.5 13.5t-137.5 47t-130 85t-109.5 134t-78.5 187.5l92 35q52 -193 188 -300.5t314 -107.5q59 0 116.5 11.5t112.5 38.5t96.5 65.5t67 97.5
t25.5 131q0 62 -21.5 111t-45.5 77.5t-79.5 56.5t-83 37.5t-96.5 30.5q-23 7 -35 11l-149 47q-44 14 -76.5 25.5t-82 33.5t-85.5 44.5t-76.5 58t-65.5 74.5t-42 92.5t-17 114.5q0 83 29.5 152t79.5 116.5t116 80.5t137.5 48.5t145.5 15.5q183 0 324.5 -98t196.5 -287
l-89 -37q-47 150 -165 239t-283 89q-106 0 -193.5 -37t-140.5 -108.5t-53 -165.5q0 -49 16 -92.5t37 -74t58 -59.5t63.5 -45t70 -34.5t60 -24t51.5 -16.5l152 -50q154 -50 190 -65q179 -74 234 -199q28 -64 28 -145q0 -137 -77 -243t-197 -159t-258 -53z" />
    <glyph glyph-name="scaron" unicode="&#x161;" horiz-adv-x="1001" 
d="M571 1278h-145l-297 354h90q179 -175 262 -291h37q35 51 86 109t78.5 86t95.5 96h90zM530 -35q-159 0 -283.5 87t-172.5 229l88 28q44 -113 148.5 -186.5t221.5 -73.5q43 0 89 12t92 37t76 73t30 112q0 41 -15 74.5t-36.5 54.5t-59.5 39.5t-69 28.5t-80 24l-104 28
q-31 9 -49 14.5t-57 20.5t-64.5 30.5t-58 41.5t-52 55.5t-33.5 71.5t-14 90q0 62 22 114t58 86t83 58t96 34.5t97 10.5q135 0 243.5 -77.5t147.5 -194.5l-94 -33q-33 94 -114.5 157.5t-196.5 63.5q-107 0 -176.5 -57t-69.5 -152q0 -46 19 -84.5t45.5 -63t68.5 -46.5
t73.5 -33t74.5 -23l112 -32q35 -10 56.5 -17t57 -21.5t58.5 -28.5t50 -36.5t42.5 -47.5t26.5 -59.5t11 -74.5q0 -139 -110 -236.5t-278 -97.5z" />
    <glyph glyph-name="uni0162" unicode="&#x162;" horiz-adv-x="1296" 
d="M698 0h-12q-76 -113 -127 -164l6 -6q43 18 94 18q80 0 130.5 -43t50.5 -112q0 -77 -60.5 -126.5t-152.5 -49.5q-68 0 -134.5 29t-109.5 77l47 43q33 -40 85 -65t106 -25q62 0 103.5 32t41.5 81q0 46 -37 75t-94 29q-55 0 -98 -24l-48 47l121 184h-12q0 1006 20 1528
q-219 -21 -585 -21v90h1231v-90q-367 0 -586 21q20 -522 20 -1528z" />
    <glyph glyph-name="uni0163" unicode="&#x163;" horiz-adv-x="745" 
d="M700 1126v-82q-230 0 -376 21q20 -252 20 -713q0 -39 0.5 -59.5t3.5 -58t8.5 -58.5t17.5 -48.5t29 -42.5t43 -25.5t60 -10.5q94 0 194 70v-94q-88 -60 -206 -60q-27 0 -39 2q-58 -84 -105 -131l6 -6q43 18 95 18q80 0 130 -43t50 -112q0 -77 -60.5 -126.5t-152.5 -49.5
q-68 0 -134.5 29t-109.5 77l47 43q33 -40 85 -65t106 -25q62 0 103.5 32t41.5 81q0 46 -37 75t-94 29q-55 0 -98 -24l-47 47l110 168q-29 12 -52 32t-37.5 41.5t-25 52.5t-15.5 54.5t-7.5 59.5t-3 55t-0.5 53q0 475 20 733q-101 -21 -245 -21v82q149 0 245 -20
q-20 133 -20 360h94q0 -227 -20 -360q139 20 376 20z" />
    <glyph glyph-name="Tcaron" unicode="&#x164;" horiz-adv-x="1296" 
d="M719 1720h-141l-263 293h88q57 -53 82 -76.5t68.5 -72.5t75.5 -95h41q32 47 73 93.5t70.5 75.5t79.5 75h88zM698 0h-100q0 1006 20 1528q-219 -21 -585 -21v90h1231v-90q-367 0 -586 21q20 -522 20 -1528z" />
    <glyph glyph-name="tcaron" unicode="&#x165;" horiz-adv-x="745" 
d="M811 1204h-68q25 52 41 83.5t45 77t62 83.5q-94 16 -94 90q0 38 27 65t67 27q38 0 65 -27t27 -65q0 -34 -30.5 -91.5t-141.5 -242.5zM494 -35q-50 0 -90 14t-65 34t-43 55t-27 62t-13.5 71t-5 67t-0.5 64q0 475 20 733q-101 -21 -245 -21v82q149 0 245 -20
q-20 133 -20 360h94q0 -227 -20 -360q139 20 376 20v-82q-230 0 -376 21q20 -252 20 -713q0 -39 0.5 -59.5t3.5 -58t8.5 -58.5t17.5 -48.5t29 -42.5t43 -25.5t60 -10.5q94 0 194 70v-94q-88 -60 -206 -60z" />
    <glyph glyph-name="Tbar" unicode="&#x166;" horiz-adv-x="1296" 
d="M1264 1597v-90q-367 0 -586 21q13 -389 16 -688h381v-84h-379q2 -254 2 -756h-100q0 502 2 756h-377v84h379q3 299 16 688q-219 -21 -585 -21v90h1231z" />
    <glyph glyph-name="tbar" unicode="&#x167;" horiz-adv-x="745" 
d="M700 1126v-82q-230 0 -376 21q15 -197 18 -379h340v-84h-338v-250q0 -39 0.5 -59.5t3.5 -58t8.5 -58.5t17.5 -48.5t29 -42.5t43 -25.5t60 -10.5q94 0 194 70v-94q-88 -60 -206 -60q-50 0 -90 14t-65 34t-43 55t-27 62t-13.5 71t-5 67t-0.5 64q0 180 2 270h-225v84h225
q3 182 18 379q-101 -21 -245 -21v82q149 0 245 -20q-20 133 -20 360h94q0 -227 -20 -360q139 20 376 20z" />
    <glyph glyph-name="Umacron" unicode="&#x16a;" horiz-adv-x="1544" 
d="M1096 1847h-647v88h647v-88zM766 -35q-124 0 -224 34.5t-175.5 105t-116.5 187.5t-41 273v1032h100v-1028q0 -268 123 -391t340 -123t340 123t123 391v1028h100v-1032q0 -282 -146 -441t-423 -159z" />
    <glyph glyph-name="umacron" unicode="&#x16b;" horiz-adv-x="1273" 
d="M956 1438h-688v88h688v-88zM582 -35q-59 0 -114 13t-109 46t-94 83.5t-64.5 130.5t-24.5 182v706h94v-665q0 -115 29.5 -199t79.5 -128.5t105.5 -64.5t117.5 -20q90 0 164.5 40t120.5 103.5t71 138.5t25 150v645h94v-774q0 -131 8.5 -204t28.5 -148h-96q-19 74 -23 127.5
t9 142.5h-21q-120 -305 -401 -305z" />
    <glyph glyph-name="Uring" unicode="&#x16e;" horiz-adv-x="1544" 
d="M772 1716q-94 0 -155.5 60t-61.5 153q0 91 61.5 150t155.5 59q93 0 154 -59.5t61 -149.5q0 -93 -61 -153t-154 -60zM772 1794q60 0 99.5 36t39.5 99q0 60 -39.5 95.5t-99.5 35.5q-62 0 -101.5 -35.5t-39.5 -95.5q0 -63 39.5 -99t101.5 -36zM766 -35q-124 0 -224 34.5
t-175.5 105t-116.5 187.5t-41 273v1032h100v-1028q0 -268 123 -391t340 -123t340 123t123 391v1028h100v-1032q0 -282 -146 -441t-423 -159z" />
    <glyph glyph-name="uring" unicode="&#x16f;" horiz-adv-x="1273" 
d="M612 1245q-94 0 -155.5 60t-61.5 153q0 91 61.5 150t155.5 59q93 0 154 -59.5t61 -149.5q0 -93 -61 -153t-154 -60zM612 1323q61 0 100.5 36t39.5 99q0 60 -40 95.5t-100 35.5q-62 0 -101.5 -35.5t-39.5 -95.5q0 -63 39.5 -99t101.5 -36zM582 -35q-59 0 -114 13t-109 46
t-94 83.5t-64.5 130.5t-24.5 182v706h94v-665q0 -115 29.5 -199t79.5 -128.5t105.5 -64.5t117.5 -20q90 0 164.5 40t120.5 103.5t71 138.5t25 150v645h94v-774q0 -131 8.5 -204t28.5 -148h-96q-19 74 -23 127.5t9 142.5h-21q-120 -305 -401 -305z" />
    <glyph glyph-name="Uhungarumlaut" unicode="&#x170;" horiz-adv-x="1544" 
d="M911 2034l-270 -314h-88l211 314h147zM1194 2034l-291 -314h-88l232 314h147zM766 -35q-124 0 -224 34.5t-175.5 105t-116.5 187.5t-41 273v1032h100v-1028q0 -268 123 -391t340 -123t340 123t123 391v1028h100v-1032q0 -282 -146 -441t-423 -159z" />
    <glyph glyph-name="uhungarumlaut" unicode="&#x171;" horiz-adv-x="1273" 
d="M756 1673l-271 -395h-84l211 395h144zM1042 1673l-290 -395h-84l231 395h143zM582 -35q-59 0 -114 13t-109 46t-94 83.5t-64.5 130.5t-24.5 182v706h94v-665q0 -115 29.5 -199t79.5 -128.5t105.5 -64.5t117.5 -20q90 0 164.5 40t120.5 103.5t71 138.5t25 150v645h94v-774
q0 -131 8.5 -204t28.5 -148h-96q-19 74 -23 127.5t9 142.5h-21q-120 -305 -401 -305z" />
    <glyph glyph-name="Uogonek" unicode="&#x172;" horiz-adv-x="1544" 
d="M1235 569v1028h100v-1032q0 -256 -120.5 -411.5t-350.5 -182.5q-131 -88 -131 -194q0 -75 54.5 -120.5t132.5 -45.5q38 0 88 14v-74q-55 -14 -93 -14q-113 0 -187.5 63t-74.5 169q0 114 109 196q-124 1 -223 35.5t-174 105.5t-115.5 187.5t-40.5 271.5v1032h100v-1028
q0 -268 123 -391t340 -123t340 123t123 391z" />
    <glyph glyph-name="uogonek" unicode="&#x173;" horiz-adv-x="1273" 
d="M1122 -389q38 0 88 14v-74q-55 -14 -96 -14q-110 0 -184 62.5t-74 164.5q0 75 42.5 131t119.5 105q-19 74 -23 127.5t9 142.5h-21q-120 -305 -401 -305q-59 0 -114 13t-109 46t-94 83.5t-64.5 130.5t-24.5 182v706h94v-665q0 -115 29.5 -199t79.5 -128.5t105.5 -64.5
t117.5 -20q90 0 164.5 40t120.5 103.5t71 138.5t25 150v645h94v-774q0 -131 8.5 -204t28.5 -148h-2q-87 -50 -131.5 -103.5t-44.5 -119.5q0 -75 54 -120.5t132 -45.5z" />
    <glyph glyph-name="Wcircumflex" unicode="&#x174;" horiz-adv-x="2314" 
d="M911 1720h-88l262 293h142l262 -293h-88q-50 46 -79.5 75t-70.5 75.5t-73 93.5h-41q-32 -46 -75.5 -95t-68.5 -72.5t-82 -76.5zM692 0h-117l-532 1597h102q311 -901 482 -1493h20q154 543 455 1493h110q305 -951 461 -1493h21q211 725 475 1493h102l-532 -1597h-117
q-261 776 -455 1487h-20q-215 -777 -455 -1487z" />
    <glyph glyph-name="wcircumflex" unicode="&#x175;" horiz-adv-x="1843" 
d="M639 1278h-90l297 354h145l297 -354h-90q-66 66 -94.5 95.5t-78 87t-81.5 108.5h-49q-76 -115 -256 -291zM553 0h-90l-420 1126h102q8 -22 50.5 -138t55 -151.5t48.5 -135.5t54.5 -154.5t48 -140.5t53 -161t47.5 -153h20q111 372 348 1034h103q246 -663 360 -1034h21
q18 61 35.5 120t39 126t36 111t40.5 121t36 108t41 118.5t37 105t41 116.5t38 108h102l-420 -1126h-90q-227 607 -366 1026h-4q-131 -394 -367 -1026z" />
    <glyph glyph-name="Ycircumflex" unicode="&#x176;" horiz-adv-x="1404" 
d="M457 1720h-88l262 293h141l262 -293h-88q-50 46 -79.5 75t-70.5 75.5t-73 93.5h-41q-32 -47 -74.5 -94.5t-69.5 -73.5t-81 -76zM752 0h-101q0 377 11 596q-266 421 -615 1001h111q351 -585 534 -929h21q31 59 66.5 123t63 113.5t70 122.5t64.5 111t71 120t65 109
t71.5 119t66.5 111h107q-434 -713 -617 -1001q11 -219 11 -596z" />
    <glyph glyph-name="ycircumflex" unicode="&#x177;" horiz-adv-x="1089" 
d="M250 1278h-90l297 354h145l297 -354h-90q-66 66 -94.5 95.5t-78 87t-81.5 108.5h-49q-76 -115 -256 -291zM406 -451h-80l176 445l-463 1132h102q233 -568 396 -1052h20q173 520 391 1052h103z" />
    <glyph glyph-name="Ydieresis" unicode="&#x178;" horiz-adv-x="1404" 
d="M514 1800q-38 0 -64 27t-26 65q0 36 26 62t64 26t63 -26t25 -62q0 -39 -25 -65.5t-63 -26.5zM891 1800q-39 0 -64.5 26.5t-25.5 65.5q0 36 25.5 62t64.5 26q36 0 62 -26t26 -62q0 -38 -25.5 -65t-62.5 -27zM752 0h-101q0 377 11 596q-266 421 -615 1001h111
q351 -585 534 -929h21q31 59 66.5 123t63 113.5t70 122.5t64.5 111t71 120t65 109t71.5 119t66.5 111h107q-434 -713 -617 -1001q11 -219 11 -596z" />
    <glyph glyph-name="Zacute" unicode="&#x179;" horiz-adv-x="1335" 
d="M991 2034l-342 -314h-88l268 314h162zM1274 0h-1217v86q159 215 333.5 445.5t407 534.5t341.5 447l-11 21q-475 -27 -1028 -27v90h1155v-79q-210 -284 -613 -809t-470 -613l10 -20q373 20 1092 20v-96z" />
    <glyph glyph-name="zacute" unicode="&#x17a;" horiz-adv-x="970" 
d="M836 1673l-312 -395h-84l252 395h144zM922 0h-865v66q42 60 206.5 295.5t273.5 387.5t221 302l-8 20q-361 -31 -650 -31v86h774v-65q-408 -579 -704 -975l8 -20q264 20 744 20v-86z" />
    <glyph glyph-name="Zdotaccent" unicode="&#x17b;" horiz-adv-x="1335" 
d="M653 1794q-41 0 -68.5 28.5t-27.5 69.5q0 39 27.5 67t68.5 28q39 0 67 -28t28 -67q0 -41 -27.5 -69.5t-67.5 -28.5zM1274 0h-1217v86q159 215 333.5 445.5t407 534.5t341.5 447l-11 21q-475 -27 -1028 -27v90h1155v-79q-210 -284 -613 -809t-470 -613l10 -20
q373 20 1092 20v-96z" />
    <glyph glyph-name="zdotaccent" unicode="&#x17c;" horiz-adv-x="970" 
d="M489 1446q-41 0 -68.5 28.5t-27.5 69.5q0 39 27.5 66.5t68.5 27.5q39 0 67 -28t28 -66q0 -41 -27.5 -69.5t-67.5 -28.5zM922 0h-865v66q42 60 206.5 295.5t273.5 387.5t221 302l-8 20q-361 -31 -650 -31v86h774v-65q-408 -579 -704 -975l8 -20q264 20 744 20v-86z" />
    <glyph glyph-name="Zcaron" unicode="&#x17d;" horiz-adv-x="1335" 
d="M702 1720h-141l-262 293h88q54 -50 81 -76t69.5 -73.5t74.5 -94.5h41q32 47 73.5 94t70 74.5t80.5 75.5h88zM1274 0h-1217v86q159 215 333.5 445.5t407 534.5t341.5 447l-11 21q-475 -27 -1028 -27v90h1155v-79q-210 -284 -613 -809t-470 -613l10 -20q373 20 1092 20v-96
z" />
    <glyph glyph-name="zcaron" unicode="&#x17e;" horiz-adv-x="970" 
d="M559 1278h-145l-297 354h90q179 -175 262 -291h37q35 51 86 109t78.5 86t95.5 96h90zM922 0h-865v66q42 60 206.5 295.5t273.5 387.5t221 302l-8 20q-361 -31 -650 -31v86h774v-65q-408 -579 -704 -975l8 -20q264 20 744 20v-86z" />
    <glyph glyph-name="uni0218" unicode="&#x218;" horiz-adv-x="1314" 
d="M678 -35q-68 0 -134.5 13.5t-137.5 47t-130 85t-109.5 134t-78.5 187.5l92 35q52 -193 188 -300.5t314 -107.5q59 0 116.5 11.5t112.5 38.5t96.5 65.5t67 97.5t25.5 131q0 62 -21.5 111t-45.5 77.5t-79.5 56.5t-83 37.5t-96.5 30.5q-23 7 -35 11l-149 47
q-44 14 -76.5 25.5t-82 33.5t-85.5 44.5t-76.5 58t-65.5 74.5t-42 92.5t-17 114.5q0 83 29.5 152t79.5 116.5t116 80.5t137.5 48.5t145.5 15.5q183 0 324.5 -98t196.5 -287l-89 -37q-47 150 -165 239t-283 89q-106 0 -193.5 -37t-140.5 -108.5t-53 -165.5q0 -49 16 -92.5
t37 -74t58 -59.5t63.5 -45t70 -34.5t60 -24t51.5 -16.5l152 -50q154 -50 190 -65q179 -74 234 -199q28 -64 28 -145q0 -137 -77 -243t-197 -159t-258 -53zM625 -483h-47q64 127 118 194q-112 0 -112 86q0 38 27 61t67 23q38 0 65 -27t27 -65q0 -35 -28 -86.5t-117 -185.5z
" />
    <glyph glyph-name="uni0219" unicode="&#x219;" horiz-adv-x="1001" 
d="M530 -35q-159 0 -283.5 87t-172.5 229l88 28q44 -113 148.5 -186.5t221.5 -73.5q43 0 89 12t92 37t76 73t30 112q0 41 -15 74.5t-36.5 54.5t-59.5 39.5t-69 28.5t-80 24l-104 28q-31 9 -49 14.5t-57 20.5t-64.5 30.5t-58 41.5t-52 55.5t-33.5 71.5t-14 90q0 62 22 114
t58 86t83 58t96 34.5t97 10.5q135 0 243.5 -77.5t147.5 -194.5l-94 -33q-33 94 -114.5 157.5t-196.5 63.5q-107 0 -176.5 -57t-69.5 -152q0 -46 19 -84.5t45.5 -63t68.5 -46.5t73.5 -33t74.5 -23l112 -32q35 -10 56.5 -17t57 -21.5t58.5 -28.5t50 -36.5t42.5 -47.5
t26.5 -59.5t11 -74.5q0 -139 -110 -236.5t-278 -97.5zM473 -483h-47q22 44 32.5 64t35 58t51.5 72q-113 0 -113 86q0 38 27 61t67 23q38 0 65 -27t27 -65q0 -35 -28 -86.5t-117 -185.5z" />
    <glyph glyph-name="uni021A" unicode="&#x21a;" horiz-adv-x="1296" 
d="M698 0h-100q0 1006 20 1528q-219 -21 -585 -21v90h1231v-90q-367 0 -586 21q20 -522 20 -1528zM586 -483h-47q64 127 118 194q-112 0 -112 86q0 38 27 61t67 23q38 0 65 -27t27 -65q0 -35 -28 -86.5t-117 -185.5z" />
    <glyph glyph-name="uni021B" unicode="&#x21b;" horiz-adv-x="745" 
d="M494 -35q-50 0 -90 14t-65 34t-43 55t-27 62t-13.5 71t-5 67t-0.5 64q0 475 20 733q-101 -21 -245 -21v82q149 0 245 -20q-20 133 -20 360h94q0 -227 -20 -360q139 20 376 20v-82q-230 0 -376 21q20 -252 20 -713q0 -39 0.5 -59.5t3.5 -58t8.5 -58.5t17.5 -48.5t29 -42.5
t43 -25.5t60 -10.5q94 0 194 70v-94q-88 -60 -206 -60zM377 -483h-47q22 44 32.5 64t35 58t51.5 72q-113 0 -113 86q0 38 27 61t67 23q38 0 65 -27t27 -65q0 -35 -28 -86.5t-117 -185.5z" />
    <glyph glyph-name="gravecomb" unicode="&#x300;" horiz-adv-x="0" 
d="M-111 1278h-84l-311 395h144z" />
    <glyph glyph-name="acutecomb" unicode="&#x301;" horiz-adv-x="0" 
d="M115 1673l-312 -395h-84l252 395h144z" />
    <glyph glyph-name="uni0302" unicode="&#x302;" horiz-adv-x="0" 
d="M-682 1278h-90l297 354h145l297 -354h-90q-66 66 -94.5 95.5t-78 87t-81.5 108.5h-49q-76 -115 -256 -291z" />
    <glyph glyph-name="tildecomb" unicode="&#x303;" horiz-adv-x="0" 
d="M-317 1343q-16 0 -30.5 2t-25.5 4.5t-24 9t-19.5 10t-19 13t-16.5 13t-18 15.5t-17 15l-35 31q-46 40 -70 49q-17 6 -35 6q-51 0 -82.5 -43t-31.5 -110h-76q2 102 56 165.5t140 63.5q43 0 76 -18t72 -53l41 -37q71 -62 121 -62q51 0 79.5 44t28.5 112h76
q0 -103 -50.5 -166.5t-139.5 -63.5z" />
    <glyph glyph-name="uni0304" unicode="&#x304;" horiz-adv-x="0" 
d="M-90 1438h-688v88h688v-88z" />
    <glyph glyph-name="uni0306" unicode="&#x306;" horiz-adv-x="0" 
d="M-401 1278q-169 0 -267 111t-104 284h90q6 -144 84 -226.5t197 -82.5t196.5 82.5t83.5 226.5h90q-6 -173 -103.5 -284t-266.5 -111z" />
    <glyph glyph-name="uni0307" unicode="&#x307;" horiz-adv-x="0" 
d="M-246 1446q-41 0 -68.5 28.5t-27.5 69.5q0 39 27.5 66.5t68.5 27.5q39 0 66.5 -27.5t27.5 -66.5q0 -41 -27 -69.5t-67 -28.5z" />
    <glyph glyph-name="uni0308" unicode="&#x308;" horiz-adv-x="0" 
d="M-858 1391q-38 0 -64 27t-26 65q0 36 26 62t64 26t63 -26t25 -62q0 -39 -25 -65.5t-63 -26.5zM-522 1391q-39 0 -64.5 26.5t-25.5 65.5q0 36 25.5 62t64.5 26q36 0 62 -26t26 -62q0 -38 -25.5 -65t-62.5 -27z" />
    <glyph glyph-name="uni030A" unicode="&#x30a;" horiz-adv-x="0" 
d="M-231 1245q-94 0 -156 60t-62 153q0 91 62 150t156 59q93 0 154 -59.5t61 -149.5q0 -93 -61 -153t-154 -60zM-231 1323q60 0 99.5 36t39.5 99q0 60 -39.5 95.5t-99.5 35.5q-62 0 -102 -35.5t-40 -95.5q0 -63 40 -99t102 -36z" />
    <glyph glyph-name="uni030B" unicode="&#x30b;" horiz-adv-x="0" 
d="M-90 1673l-270 -395h-84l211 395h143zM197 1673l-291 -395h-84l231 395h144z" />
    <glyph glyph-name="uni030C" unicode="&#x30c;" horiz-adv-x="0" 
d="M-330 1278h-145l-297 354h90q179 -175 262 -291h37q35 51 86 109t78.5 86t95.5 96h90z" />
    <glyph glyph-name="uni0312" unicode="&#x312;" horiz-adv-x="0" 
d="M-430 1339q0 35 30.5 94t141.5 240h68q-68 -143 -138 -264q42 6 63 -17.5t21 -58.5q0 -40 -26.5 -63t-63.5 -23q-41 0 -68.5 26.5t-27.5 65.5z" />
    <glyph glyph-name="uni0326" unicode="&#x326;" horiz-adv-x="0" 
d="M-336 -483h-47q22 44 32.5 64t35 58t51.5 72q-113 0 -113 86q0 38 27 61t67 23q38 0 65.5 -27t27.5 -65q0 -35 -28 -85.5t-118 -186.5z" />
    <glyph glyph-name="uni0327" unicode="&#x327;" horiz-adv-x="0" 
d="M-639 -483q-68 0 -134.5 29t-109.5 77l47 43q33 -40 85 -65t106 -25q62 0 103.5 32t41.5 81q0 46 -37 75t-94 29q-55 0 -98 -24l-47 47l121 184h75q-76 -113 -127 -164l7 -6q44 18 94 18q80 0 130 -43t50 -112q0 -77 -60.5 -126.5t-152.5 -49.5z" />
    <glyph glyph-name="uni0328" unicode="&#x328;" horiz-adv-x="0" 
d="M-641 -483q-110 0 -184 62.5t-74 164.5q0 75 42.5 131t119.5 105h94q-87 -49 -131.5 -103.5t-44.5 -120.5q0 -75 54 -120.5t132 -45.5q34 0 88 15v-74q-55 -14 -96 -14z" />
    <glyph glyph-name="uni0335" unicode="&#x335;" horiz-adv-x="0" 
d="M-715 604h656v-84h-656v84z" />
    <glyph glyph-name="uni0337" unicode="&#x337;" horiz-adv-x="0" 
d="M-471 547v88l502 358v-88z" />
    <glyph glyph-name="uni0338" unicode="&#x338;" horiz-adv-x="0" 
d="M-1040 -55h-109l918 1235h102z" />
    <glyph glyph-name="Wgrave" unicode="&#x1e80;" horiz-adv-x="2314" 
d="M1229 1720h-88l-342 314h162zM692 0h-117l-532 1597h102q311 -901 482 -1493h20q154 543 455 1493h110q305 -951 461 -1493h21q211 725 475 1493h102l-532 -1597h-117q-261 776 -455 1487h-20q-215 -777 -455 -1487z" />
    <glyph glyph-name="wgrave" unicode="&#x1e81;" horiz-adv-x="1843" 
d="M967 1278h-84l-312 395h144zM553 0h-90l-420 1126h102q8 -22 50.5 -138t55 -151.5t48.5 -135.5t54.5 -154.5t48 -140.5t53 -161t47.5 -153h20q111 372 348 1034h103q246 -663 360 -1034h21q18 61 35.5 120t39 126t36 111t40.5 121t36 108t41 118.5t37 105t41 116.5
t38 108h102l-420 -1126h-90q-227 607 -366 1026h-4q-131 -394 -367 -1026z" />
    <glyph glyph-name="Wacute" unicode="&#x1e82;" horiz-adv-x="2314" 
d="M1516 2034l-342 -314h-89l269 314h162zM692 0h-117l-532 1597h102q311 -901 482 -1493h20q154 543 455 1493h110q305 -951 461 -1493h21q211 725 475 1493h102l-532 -1597h-117q-261 776 -455 1487h-20q-215 -777 -455 -1487z" />
    <glyph glyph-name="wacute" unicode="&#x1e83;" horiz-adv-x="1843" 
d="M1268 1673l-312 -395h-84l252 395h144zM553 0h-90l-420 1126h102q8 -22 50.5 -138t55 -151.5t48.5 -135.5t54.5 -154.5t48 -140.5t53 -161t47.5 -153h20q111 372 348 1034h103q246 -663 360 -1034h21q18 61 35.5 120t39 126t36 111t40.5 121t36 108t41 118.5t37 105
t41 116.5t38 108h102l-420 -1126h-90q-227 607 -366 1026h-4q-131 -394 -367 -1026z" />
    <glyph glyph-name="Wdieresis" unicode="&#x1e84;" horiz-adv-x="2314" 
d="M969 1800q-38 0 -64 27t-26 65q0 36 26 62t64 26t63 -26t25 -62q0 -39 -25 -65.5t-63 -26.5zM1346 1800q-39 0 -65 26.5t-26 65.5q0 36 26 62t65 26q36 0 62 -26t26 -62q0 -38 -25.5 -65t-62.5 -27zM692 0h-117l-532 1597h102q311 -901 482 -1493h20q154 543 455 1493
h110q305 -951 461 -1493h21q211 725 475 1493h102l-532 -1597h-117q-261 776 -455 1487h-20q-215 -777 -455 -1487z" />
    <glyph glyph-name="wdieresis" unicode="&#x1e85;" horiz-adv-x="1843" 
d="M752 1391q-38 0 -64 27t-26 65q0 36 26 62t64 26t63 -26t25 -62q0 -39 -25 -65.5t-63 -26.5zM1087 1391q-39 0 -64.5 26.5t-25.5 65.5q0 36 25.5 62t64.5 26q37 0 63 -26.5t26 -61.5q0 -38 -26 -65t-63 -27zM553 0h-90l-420 1126h102q8 -22 50.5 -138t55 -151.5
t48.5 -135.5t54.5 -154.5t48 -140.5t53 -161t47.5 -153h20q111 372 348 1034h103q246 -663 360 -1034h21q18 61 35.5 120t39 126t36 111t40.5 121t36 108t41 118.5t37 105t41 116.5t38 108h102l-420 -1126h-90q-227 607 -366 1026h-4q-131 -394 -367 -1026z" />
    <glyph glyph-name="uni1E9E" unicode="&#x1e9e;" horiz-adv-x="1536" 
d="M309 0h-100v954v1q0 62 1.5 100.5t12.5 117t31.5 131.5t63 120t102 108t154.5 69.5t214 28.5q253 0 408.5 -115.5t155.5 -328.5q0 -154 -85 -252t-235 -115v-22q165 0 276 -104t111 -279q0 -60 -14 -115t-52 -111t-97.5 -96.5t-157.5 -66t-224 -25.5h-161v90h186
q115 0 199 27.5t129.5 76t66.5 104.5t21 122q0 163 -115 254.5t-299 91.5h-106v82h127q32 0 67.5 5.5t84 25.5t85.5 53t63.5 94t26.5 141q0 179 -121.5 279t-334.5 100q-100 0 -179 -24t-128.5 -58.5t-85.5 -90.5t-53 -101t-26.5 -110.5t-10.5 -98.5t-1 -84v-979z" />
    <glyph glyph-name="Ygrave" unicode="&#x1ef2;" horiz-adv-x="1404" 
d="M774 1720h-88l-342 314h162zM752 0h-101q0 377 11 596q-266 421 -615 1001h111q351 -585 534 -929h21q31 59 66.5 123t63 113.5t70 122.5t64.5 111t71 120t65 109t71.5 119t66.5 111h107q-434 -713 -617 -1001q11 -219 11 -596z" />
    <glyph glyph-name="ygrave" unicode="&#x1ef3;" horiz-adv-x="1089" 
d="M578 1278h-84l-312 395h144zM406 -451h-80l176 445l-463 1132h102q233 -568 396 -1052h20q173 520 391 1052h103z" />
    <glyph glyph-name="uni2000" unicode="&#x2000;" horiz-adv-x="1024" 
 />
    <glyph glyph-name="uni2001" unicode="&#x2001;" 
 />
    <glyph glyph-name="uni2002" unicode="&#x2002;" horiz-adv-x="1024" 
 />
    <glyph glyph-name="uni2003" unicode="&#x2003;" 
 />
    <glyph glyph-name="uni2004" unicode="&#x2004;" horiz-adv-x="681" 
 />
    <glyph glyph-name="uni2005" unicode="&#x2005;" horiz-adv-x="512" 
 />
    <glyph glyph-name="uni2006" unicode="&#x2006;" horiz-adv-x="342" 
 />
    <glyph glyph-name="uni2007" unicode="&#x2007;" horiz-adv-x="575" 
 />
    <glyph glyph-name="uni2008" unicode="&#x2008;" horiz-adv-x="460" 
 />
    <glyph glyph-name="uni2009" unicode="&#x2009;" horiz-adv-x="256" 
 />
    <glyph glyph-name="uni200A" unicode="&#x200a;" horiz-adv-x="86" 
 />
    <glyph glyph-name="uni200B" unicode="&#x200b;" horiz-adv-x="0" 
 />
    <glyph glyph-name="endash" unicode="&#x2013;" horiz-adv-x="1011" 
d="M891 582h-770v84h770v-84z" />
    <glyph glyph-name="emdash" unicode="&#x2014;" horiz-adv-x="1441" 
d="M1321 582h-1200v84h1200v-84z" />
    <glyph glyph-name="quoteleft" unicode="&#x2018;" horiz-adv-x="442" 
d="M281 1630h67q-26 -55 -41 -84.5t-44 -75.5t-62 -84q94 -16 94 -90q0 -38 -27 -65t-67 -27q-38 0 -65 27t-27 65q0 34 30.5 91.5t141.5 242.5z" />
    <glyph glyph-name="quoteright" unicode="&#x2019;" horiz-adv-x="448" 
d="M190 1204h-67q26 55 41 84.5t44 75.5t62 84q-94 16 -94 90q0 38 27 65t67 27q38 0 65 -27t27 -65q0 -34 -30.5 -91.5t-141.5 -242.5z" />
    <glyph glyph-name="quotesinglbase" unicode="&#x201a;" horiz-adv-x="425" 
d="M141 -252h-67q26 55 41 84.5t44 75.5t62 84q-94 16 -94 90q0 38 27 65t67 27q38 0 65 -27t27 -65q0 -34 -30.5 -91.5t-141.5 -242.5z" />
    <glyph glyph-name="quotedblleft" unicode="&#x201c;" horiz-adv-x="729" 
d="M281 1630h67q-26 -55 -41 -84.5t-44 -75.5t-62 -84q94 -16 94 -90q0 -38 -27 -65t-67 -27q-38 0 -65 27t-27 65q0 34 30.5 91.5t141.5 242.5zM567 1630h68q-25 -52 -41 -83.5t-45 -77t-62 -83.5q95 -16 95 -90q0 -38 -27.5 -65t-67.5 -27q-38 0 -65 27t-27 65
q0 34 30.5 91.5t141.5 242.5z" />
    <glyph glyph-name="quotedblright" unicode="&#x201d;" horiz-adv-x="735" 
d="M190 1204h-67q26 55 41 84.5t44 75.5t62 84q-94 16 -94 90q0 38 27 65t67 27q38 0 65 -27t27 -65q0 -34 -30.5 -91.5t-141.5 -242.5zM477 1204h-67q26 55 41 84.5t44 75.5t62 84q-94 16 -94 90q0 38 27 65t67 27q38 0 65 -27t27 -65q0 -34 -30.5 -91.5t-141.5 -242.5z
" />
    <glyph glyph-name="quotedblbase" unicode="&#x201e;" horiz-adv-x="710" 
d="M139 -252h-67q26 55 41 84.5t44 75.5t62 84q-94 16 -94 90q0 38 27 65t67 27q38 0 65 -27t27 -65q0 -34 -30.5 -91.5t-141.5 -242.5zM426 -252h-68q25 52 41 83.5t45 77t62 83.5q-94 16 -94 90q0 38 27 65t67 27q38 0 65 -27t27 -65q0 -34 -30.5 -91.5t-141.5 -242.5z
" />
    <glyph glyph-name="dagger" unicode="&#x2020;" horiz-adv-x="978" 
d="M541 430h-101q0 480 11 770q-127 -10 -361 -10v96q234 0 361 -10q-11 140 -11 362h101q0 -222 -11 -362q127 10 359 10v-96q-232 0 -359 10q11 -290 11 -770z" />
    <glyph glyph-name="daggerdbl" unicode="&#x2021;" horiz-adv-x="1089" 
d="M944 1286v-96q-232 0 -379 20q41 -163 10 -354q144 21 369 21v-97q-225 0 -369 21q21 -144 21 -371h-100q0 234 20 371q-144 -21 -371 -21v97q227 0 371 -21q-28 177 0 354q-137 -20 -371 -20v96q234 0 371 -20q-20 137 -20 372h100q0 -78 -1 -122t-8.5 -115t-21.5 -135
q147 20 379 20z" />
    <glyph glyph-name="bullet" unicode="&#x2022;" horiz-adv-x="751" 
d="M379 424q-72 0 -121 51t-49 123q0 68 49 116t121 48q67 0 115.5 -48t48.5 -116q0 -72 -48 -123t-116 -51z" />
    <glyph glyph-name="ellipsis" unicode="&#x2026;" horiz-adv-x="1280" 
d="M231 -14q-40 0 -67 28t-27 68q0 38 27 65t67 27q38 0 65.5 -27t27.5 -65q0 -40 -27.5 -68t-65.5 -28zM641 -14q-40 0 -67 28t-27 68q0 38 27 65t67 27q38 0 65 -27t27 -65q0 -40 -27 -68t-65 -28zM1051 -14q-40 0 -67.5 28t-27.5 68q0 38 27.5 65t67.5 27q38 0 65 -27
t27 -65q0 -40 -27 -68t-65 -28z" />
    <glyph glyph-name="uni202F" unicode="&#x202f;" horiz-adv-x="413" 
 />
    <glyph glyph-name="perthousand" unicode="&#x2030;" horiz-adv-x="2285" 
d="M340 811q-114 0 -185 98t-71 254q0 157 71 257t185 100t185 -100t71 -257q0 -156 -71 -254t-185 -98zM293 0h-92l1138 1468h84zM340 883q77 0 124.5 76t47.5 204t-47.5 205.5t-124.5 77.5t-124.5 -77.5t-47.5 -205.5t47.5 -204t124.5 -76zM1266 -29q-114 0 -185 98.5
t-71 254.5q0 157 71 256.5t185 99.5t185 -99.5t71 -256.5q0 -156 -71 -254.5t-185 -98.5zM1946 -29q-114 0 -185 98.5t-71 254.5q0 157 71 256.5t185 99.5t185 -99.5t71 -256.5q0 -156 -71 -254.5t-185 -98.5zM1266 43q77 0 124.5 76.5t47.5 204.5t-47.5 205t-124.5 77
t-124.5 -77t-47.5 -205t47.5 -204.5t124.5 -76.5zM1946 43q77 0 124.5 76.5t47.5 204.5t-47.5 205t-124.5 77t-124.5 -77t-47.5 -205t47.5 -204.5t124.5 -76.5z" />
    <glyph glyph-name="guilsinglleft" unicode="&#x2039;" horiz-adv-x="722" 
d="M578 164h-117l-346 405v9l346 405h117q-72 -84 -119 -137.5t-116 -123.5t-132 -124v-49q63 -54 132 -124t116 -123.5t119 -137.5z" />
    <glyph glyph-name="guilsinglright" unicode="&#x203a;" horiz-adv-x="722" 
d="M262 164h-117q72 84 119 137.5t116 123.5t132 124v49q-63 54 -132 124t-116 123.5t-119 137.5h117l346 -405v-9z" />
    <glyph glyph-name="fraction" unicode="&#x2044;" horiz-adv-x="245" 
d="M-387 0h-92l1138 1468h84z" />
    <glyph glyph-name="uni205F" unicode="&#x205f;" horiz-adv-x="454" 
 />
    <glyph glyph-name="uni2070" unicode="&#x2070;" horiz-adv-x="679" 
d="M340 811q-114 0 -185 98t-71 254q0 157 71 257t185 100t185 -100t71 -257q0 -156 -71 -254t-185 -98zM340 883q77 0 124.5 76t47.5 204t-47.5 205.5t-124.5 77.5t-124.5 -77.5t-47.5 -205.5t47.5 -204t124.5 -76z" />
    <glyph glyph-name="uni2074" unicode="&#x2074;" horiz-adv-x="634" 
d="M469 825h-76v162h-344v72l344 446h76v-450h98v-68h-98v-162zM393 1399l-264 -344h264v344z" />
    <glyph glyph-name="uni2075" unicode="&#x2075;" horiz-adv-x="624" 
d="M305 811q-88 0 -156.5 43t-91.5 113l68 34q21 -57 71 -89.5t109 -32.5q69 0 115.5 45t46.5 116q0 70 -44.5 114t-111.5 44q-98 0 -149 -86l-64 23l78 370h336v-67h-281l-51 -246q21 30 65 49t89 19q88 0 152.5 -60t64.5 -158q0 -101 -71.5 -166t-174.5 -65z" />
    <glyph glyph-name="uni2076" unicode="&#x2076;" horiz-adv-x="653" 
d="M336 811q-114 0 -183 85t-69 232q0 170 88.5 281t224.5 111q97 0 158 -56l-43 -53q-51 39 -121 39q-98 0 -162 -79.5t-67 -223.5h2q20 54 73 86.5t115 32.5q91 0 158.5 -63.5t67.5 -160.5q0 -99 -69.5 -165t-172.5 -66zM338 879q66 0 114 46.5t48 118.5q0 69 -47 115.5
t-113 46.5q-69 0 -115.5 -48.5t-46.5 -117.5q0 -68 47.5 -114.5t112.5 -46.5z" />
    <glyph glyph-name="uni2077" unicode="&#x2077;" horiz-adv-x="550" 
d="M236 825h-82q0 139 78.5 322t197.5 299h-389v70h479v-74q-124 -111 -204 -292.5t-80 -324.5z" />
    <glyph glyph-name="uni2078" unicode="&#x2078;" horiz-adv-x="643" 
d="M322 811q-105 0 -172.5 56.5t-67.5 140.5q0 65 37.5 111.5t93.5 60.5v4q-104 46 -104 149q0 79 61 133t152 54t152 -52.5t61 -130.5q0 -48 -26 -89.5t-79 -63.5v-4q59 -15 95 -61t36 -109q0 -86 -67 -142.5t-172 -56.5zM324 1210q58 0 97.5 36t39.5 91q0 52 -39.5 85.5
t-97.5 33.5q-61 0 -100.5 -34t-39.5 -85q0 -54 39.5 -90.5t100.5 -36.5zM324 879q66 0 110.5 38.5t44.5 100.5t-41 99.5t-114 37.5q-75 0 -117.5 -37.5t-42.5 -99.5q0 -61 46 -100t114 -39z" />
    <glyph glyph-name="uni2079" unicode="&#x2079;" horiz-adv-x="661" 
d="M301 811q-133 0 -215 100l49 50q66 -82 162 -82q99 0 150 85.5t51 217.5q-19 -60 -73.5 -94.5t-117.5 -34.5q-93 0 -159 64.5t-66 162.5q0 103 69.5 171.5t176.5 68.5t177 -77.5t70 -242.5q0 -106 -28.5 -192t-92 -141.5t-153.5 -55.5zM317 1110q70 0 118 53t48 127
t-46.5 119t-112.5 45q-70 0 -117 -48t-47 -124q0 -74 45 -123t112 -49z" />
    <glyph glyph-name="uni2080" unicode="&#x2080;" horiz-adv-x="679" 
d="M340 -285q-114 0 -185 98.5t-71 254.5q0 157 71 256.5t185 99.5t185 -99.5t71 -256.5q0 -156 -71 -254.5t-185 -98.5zM340 -213q77 0 124.5 76.5t47.5 204.5t-47.5 205t-124.5 77t-124.5 -77t-47.5 -205t47.5 -204.5t124.5 -76.5z" />
    <glyph glyph-name="uni2081" unicode="&#x2081;" horiz-adv-x="423" 
d="M281 -270h-78v530q-52 -69 -152 -84v76q68 15 112 59t44 99h74v-680z" />
    <glyph glyph-name="uni2082" unicode="&#x2082;" horiz-adv-x="616" 
d="M535 -270h-449v6q3 40 10 71t22 58t27.5 45t41.5 42.5t49.5 39t63.5 44.5q9 6 13 9q27 20 43 32.5t40.5 37.5t37 53.5t12.5 60.5q0 53 -38 88t-99 35q-71 0 -116.5 -48.5t-45.5 -125.5l-71 12q0 102 65.5 168t167.5 66q95 0 157 -55t62 -142q0 -68 -35.5 -116.5
t-99.5 -94.5q-20 -15 -56.5 -39.5t-54.5 -38.5t-41 -35.5t-35.5 -45.5t-19.5 -54h349v-73z" />
    <glyph glyph-name="uni2083" unicode="&#x2083;" horiz-adv-x="626" 
d="M309 -285q-88 0 -153.5 42.5t-87.5 113.5l67 33q21 -56 66 -88.5t108 -32.5q66 0 109 37t43 98q0 59 -43 94t-123 35h-68v62h74q66 0 104.5 34t38.5 88q0 56 -40.5 89.5t-102.5 33.5q-59 0 -99.5 -34t-49.5 -93l-70 15q10 82 73.5 132t151.5 50q90 0 152.5 -49t62.5 -129
q0 -56 -31 -101.5t-83 -60.5q60 -12 97.5 -56t37.5 -108q0 -84 -64 -144.5t-170 -60.5z" />
    <glyph glyph-name="uni2084" unicode="&#x2084;" horiz-adv-x="634" 
d="M469 -270h-76v161h-344v72l344 447h76v-451h98v-68h-98v-161zM393 303l-264 -344h264v344z" />
    <glyph glyph-name="uni2085" unicode="&#x2085;" horiz-adv-x="624" 
d="M305 -285q-88 0 -156.5 43t-91.5 113l68 35q21 -57 71 -90t109 -33q69 0 115.5 45.5t46.5 116.5q0 70 -44.5 113.5t-111.5 43.5q-98 0 -149 -86l-64 23l78 371h336v-68h-281l-51 -246q21 30 65 49t89 19q88 0 152.5 -59.5t64.5 -157.5q0 -101 -71.5 -166.5t-174.5 -65.5z
" />
    <glyph glyph-name="uni2086" unicode="&#x2086;" horiz-adv-x="653" 
d="M336 -285q-114 0 -183 85t-69 233q0 170 88.5 280.5t224.5 110.5q98 0 158 -55l-43 -54q-51 39 -121 39q-98 0 -162 -79.5t-67 -223.5h2q20 54 73 86.5t115 32.5q91 0 158.5 -63t67.5 -160q0 -99 -69.5 -165.5t-172.5 -66.5zM338 -217q66 0 114 47t48 119q0 69 -47 115.5
t-113 46.5q-69 0 -115.5 -48.5t-46.5 -117.5q0 -68 47.5 -115t112.5 -47z" />
    <glyph glyph-name="uni2087" unicode="&#x2087;" horiz-adv-x="550" 
d="M236 -270h-82q0 139 78.5 321.5t197.5 298.5h-389v70h479v-74q-124 -111 -204 -292t-80 -324z" />
    <glyph glyph-name="uni2088" unicode="&#x2088;" horiz-adv-x="643" 
d="M322 -285q-105 0 -172.5 56.5t-67.5 140.5q0 65 37.5 111.5t93.5 60.5v4q-104 46 -104 150q0 79 60.5 132.5t152.5 53.5q91 0 152 -52t61 -130q0 -48 -26.5 -90t-78.5 -64v-4q59 -15 95 -61t36 -109q0 -86 -67 -142.5t-172 -56.5zM324 115q58 0 97.5 36t39.5 91
q0 52 -39.5 85t-97.5 33q-61 0 -100.5 -33.5t-39.5 -84.5q0 -54 39.5 -90.5t100.5 -36.5zM324 -217q66 0 110.5 38.5t44.5 100.5t-41 99.5t-114 37.5q-75 0 -117.5 -37.5t-42.5 -99.5q0 -61 46 -100t114 -39z" />
    <glyph glyph-name="uni2089" unicode="&#x2089;" horiz-adv-x="661" 
d="M301 -285q-132 0 -215 101l49 49q66 -82 162 -82q99 0 150 85.5t51 217.5q-19 -60 -73.5 -94.5t-117.5 -34.5q-93 0 -159 64.5t-66 162.5q0 103 69.5 171.5t176.5 68.5t177 -77.5t70 -242.5q0 -106 -28.5 -192t-92 -141.5t-153.5 -55.5zM317 14q70 0 118 53.5t48 127.5
t-46.5 118.5t-112.5 44.5q-70 0 -117 -48t-47 -124q0 -74 45 -123t112 -49z" />
    <glyph glyph-name="Euro" unicode="&#x20ac;" horiz-adv-x="1607" 
d="M1055 -35q-292 0 -471.5 160t-218.5 438q-94 -20 -240 -20v94q131 0 223 -21q-46 148 0 295q-88 -20 -223 -20v94q145 0 237 -20q37 277 211 443.5t465 166.5q271 0 453 -152l-72 -73q-157 135 -385 135q-235 0 -389 -138t-219 -382q254 20 723 20v-94q-479 0 -739 20
q19 -150 2 -295q273 21 737 21v-94q-467 0 -721 20q68 -244 228.5 -376t394.5 -132q232 0 389 135l71 -73q-182 -152 -456 -152z" />
    <glyph glyph-name="trademark" unicode="&#x2122;" horiz-adv-x="1542" 
d="M391 946h-84v592h-227v78h534v-78h-223v-592zM821 946h-84v670h82q38 -90 115 -270.5t115 -270.5q38 90 112.5 270.5t112.5 270.5h82v-670h-84v475l-191 -458h-69l-191 462v-479z" />
    <glyph glyph-name="oneeighth" unicode="&#x215b;" horiz-adv-x="1312" 
d="M281 825h-78v531q-52 -69 -152 -84v76q68 15 112 58.5t44 98.5h74v-680zM37 0h-92l1138 1468h84zM991 -29q-105 0 -172 56.5t-67 140.5q0 65 37.5 111.5t93.5 60.5v4q-105 46 -105 150q0 79 60.5 132.5t152.5 53.5q91 0 152 -52t61 -130q0 -48 -26 -90t-78 -64v-4
q59 -15 95 -61t36 -109q0 -85 -67.5 -142t-172.5 -57zM993 371q58 0 97.5 36t39.5 91q0 52 -39.5 85t-97.5 33q-61 0 -100 -33.5t-39 -84.5q0 -55 39 -91t100 -36zM993 39q66 0 111 38.5t45 100.5t-41.5 99.5t-114.5 37.5q-75 0 -117 -37t-42 -100q0 -61 45.5 -100
t113.5 -39z" />
    <glyph glyph-name="threeeighths" unicode="&#x215c;" horiz-adv-x="1515" 
d="M309 811q-88 0 -153.5 42.5t-87.5 113.5l67 32q21 -56 66 -88t108 -32q66 0 109 37t43 98q0 59 -43 94t-123 35h-68v61h74q66 0 104.5 34.5t38.5 88.5q0 56 -40.5 89.5t-102.5 33.5q-59 0 -99.5 -34t-49.5 -93l-70 14q10 82 73.5 132.5t151.5 50.5q90 0 152.5 -49.5
t62.5 -129.5q0 -56 -30.5 -101t-83.5 -60q60 -12 97.5 -56t37.5 -108q0 -84 -64 -144.5t-170 -60.5zM240 0h-93l1139 1468h84zM1194 -29q-105 0 -172.5 56.5t-67.5 140.5q0 65 37.5 111.5t93.5 60.5v4q-104 46 -104 150q0 79 60.5 132.5t152.5 53.5q91 0 152 -52t61 -130
q0 -48 -26 -90t-78 -64v-4q59 -15 95 -61t36 -109q0 -85 -67.5 -142t-172.5 -57zM1196 371q58 0 97.5 36t39.5 91q0 52 -39.5 85t-97.5 33q-61 0 -100 -33.5t-39 -84.5q0 -55 39 -91t100 -36zM1196 39q66 0 111 38.5t45 100.5t-41.5 99.5t-114.5 37.5q-75 0 -117.5 -37.5
t-42.5 -99.5q0 -61 46 -100t114 -39z" />
    <glyph glyph-name="fiveeighths" unicode="&#x215d;" horiz-adv-x="1513" 
d="M305 811q-88 0 -156.5 43t-91.5 113l68 34q21 -57 71 -89.5t109 -32.5q69 0 115.5 45t46.5 116q0 70 -44.5 114t-111.5 44q-98 0 -149 -86l-64 23l78 370h336v-67h-281l-51 -246q21 30 65 49t89 19q88 0 152.5 -60t64.5 -158q0 -101 -71.5 -166t-174.5 -65zM238 0h-93
l1139 1468h84zM1192 -29q-105 0 -172.5 56.5t-67.5 140.5q0 65 37.5 111.5t93.5 60.5v4q-104 46 -104 150q0 79 60.5 132.5t152.5 53.5q91 0 152 -52t61 -130q0 -48 -26.5 -90t-78.5 -64v-4q59 -15 95.5 -61.5t36.5 -108.5q0 -85 -67.5 -142t-172.5 -57zM1194 371
q58 0 97.5 36t39.5 91q0 52 -39.5 85t-97.5 33q-61 0 -100 -33.5t-39 -84.5q0 -55 39 -91t100 -36zM1194 39q66 0 111 38.5t45 100.5t-41.5 99.5t-114.5 37.5q-75 0 -117.5 -37.5t-42.5 -99.5q0 -61 46 -100t114 -39z" />
    <glyph glyph-name="seveneighths" unicode="&#x215e;" horiz-adv-x="1439" 
d="M236 825h-82q0 139 78.5 322t197.5 299h-389v70h479v-74q-124 -111 -204 -292.5t-80 -324.5zM164 0h-92l1138 1468h84zM1118 -29q-105 0 -172 56.5t-67 140.5q0 65 37.5 111.5t93.5 60.5v4q-105 46 -105 150q0 79 60.5 132.5t152.5 53.5q91 0 152 -52t61 -130
q0 -48 -26 -90t-78 -64v-4q59 -15 95 -61t36 -109q0 -85 -67.5 -142t-172.5 -57zM1120 371q58 0 97.5 36t39.5 91q0 52 -39.5 85t-97.5 33q-61 0 -100 -33.5t-39 -84.5q0 -55 39 -91t100 -36zM1120 39q66 0 111 38.5t45 100.5t-41.5 99.5t-114.5 37.5q-75 0 -117 -37
t-42 -100q0 -61 45.5 -100t113.5 -39z" />
    <glyph glyph-name="arrowleft" unicode="&#x2190;" horiz-adv-x="1433" 
d="M586 236h-123l-340 405v8l340 406h123q-190 -226 -350 -381q356 20 1069 20v-100q-711 0 -1067 20q166 -161 348 -378z" />
    <glyph glyph-name="arrowup" unicode="&#x2191;" horiz-adv-x="987" 
d="M545 20h-101q0 696 21 1070q-161 -165 -381 -351v123l405 340h9l405 -340v-123q-222 187 -379 348q21 -374 21 -1067z" />
    <glyph glyph-name="arrowright" unicode="&#x2192;" horiz-adv-x="1433" 
d="M971 236h-123q182 217 348 378q-356 -20 -1067 -20v100q713 0 1069 -20q-160 155 -350 381h123l340 -406v-8z" />
    <glyph glyph-name="arrowdown" unicode="&#x2193;" horiz-adv-x="991" 
d="M500 20h-8l-406 340v123q226 -190 381 -350q-21 374 -21 1069h101q0 -693 -21 -1067q157 161 379 348v-123z" />
    <glyph glyph-name="arrowboth" unicode="&#x2194;" horiz-adv-x="1792" 
d="M584 231h-123l-340 406v8l340 406h123q-125 -149 -328 -381q640 29 1280 0q-203 232 -328 381h123l340 -406v-8l-340 -406h-123q290 338 326 379q-638 -30 -1276 0q36 -41 326 -379z" />
    <glyph glyph-name="arrowupdn" unicode="&#x2195;" horiz-adv-x="1093" 
d="M551 0h-8l-406 340v123q149 -125 381 -328q-29 558 0 1116q-198 -173 -381 -327v123l406 339h8l405 -339v-123q-342 293 -378 325q29 -556 0 -1112q72 64 378 326v-123z" />
    <glyph glyph-name="uni2196" unicode="&#x2196;" horiz-adv-x="1038" 
d="M928 135l-86 -51q-360 625 -516 934q-48 -188 -154 -490l-61 107l180 495l8 5l520 -91l62 -106q-266 46 -506 113q183 -277 553 -916z" />
    <glyph glyph-name="uni2197" unicode="&#x2197;" horiz-adv-x="1038" 
d="M197 84l-86 51q370 639 553 916q-240 -67 -506 -113l61 106l520 91l9 -5l180 -495l-62 -107q-103 292 -153 490q-156 -309 -516 -934z" />
    <glyph glyph-name="uni2198" unicode="&#x2198;" horiz-adv-x="1036" 
d="M109 1085l86 52q360 -625 516 -934q49 194 153 489l62 -106l-181 -496l-8 -4l-520 90l-61 107q266 -46 506 -113q-92 139 -200 317t-165.5 276t-187.5 322z" />
    <glyph glyph-name="uni2199" unicode="&#x2199;" horiz-adv-x="1036" 
d="M842 1137l86 -52q-130 -224 -187.5 -322t-165.5 -276t-200 -317q240 67 506 113l-62 -107l-520 -90l-8 4l-180 496l61 106q107 -305 154 -489q156 309 516 934z" />
    <glyph glyph-name="emptyset" unicode="&#x2205;" horiz-adv-x="1415" 
d="M1212 1200l-125 -174q93 -82 144 -202t51 -259q0 -167 -71 -303t-203.5 -216.5t-300.5 -80.5q-176 0 -310 86l-125 -174l-69 51l125 176q-93 82 -144 202t-51 259q0 168 71.5 304t203.5 215t301 79q173 0 311 -86l123 174zM229 563q0 -114 40.5 -212.5t113.5 -170.5
l582 821q-113 74 -256 74q-139 0 -249.5 -68.5t-170.5 -185t-60 -258.5zM709 53q139 0 249 68t169 184t59 258q0 115 -40 214.5t-114 170.5l-581 -821q113 -74 258 -74z" />
    <glyph glyph-name="minus" unicode="&#x2212;" horiz-adv-x="987" 
d="M842 578h-697v94h697v-94z" />
    <glyph glyph-name="infinity" unicode="&#x221e;" horiz-adv-x="1859" 
d="M492 287q-147 0 -249 96t-102 242t102 242t249 96q56 0 105 -15t104 -54t103 -82.5t126 -121.5q78 78 126 121.5t103 82.5t104 54t105 15q147 0 248.5 -96t101.5 -242t-101.5 -242t-248.5 -96q-74 0 -143.5 32.5t-130 84t-164.5 155.5q-104 -104 -164.5 -155.5t-130 -84
t-143.5 -32.5zM481 379q45 0 85 11.5t82 41t68 51t77.5 71t76.5 71.5q-24 22 -76.5 71.5t-77.5 70.5t-67.5 50.5t-82 41t-85.5 11.5q-109 0 -173 -65.5t-64 -179.5q0 -116 65 -181t172 -65zM1378 379q107 0 172.5 65t65.5 181q0 114 -64.5 179.5t-173.5 65.5
q-46 0 -85.5 -11.5t-82 -41t-67.5 -50.5t-77.5 -70.5t-76.5 -71.5q25 -22 76.5 -71.5t77.5 -71t68 -51t82 -41t85 -11.5z" />
    <glyph glyph-name="approxequal" unicode="&#x2248;" horiz-adv-x="1044" 
d="M260 741h-92q0 113 65 172.5t154 59.5q51 0 95 -23t70 -50t61 -50t71 -23q52 0 77 41t25 105h93q0 -115 -57.5 -173.5t-145.5 -58.5q-52 0 -96.5 23t-70.5 50t-62 50t-74 23q-57 0 -85 -41.5t-28 -104.5zM260 332h-92q0 113 65 172t154 59q42 0 78 -15t61.5 -36t49 -42.5
t51 -36.5t57.5 -15q52 0 77 40.5t25 104.5h93q0 -115 -57.5 -173t-145.5 -58q-43 0 -79.5 15t-62 36t-49.5 42.5t-52.5 36.5t-59.5 15q-57 0 -85 -41t-28 -104z" />
    <glyph glyph-name="notequal" unicode="&#x2260;" horiz-adv-x="1024" 
d="M858 877v-95h-256q-28 -162 -115 -315h371v-94h-403q-2 -68 -47 -187h-95q50 134 88 187h-239v94h272q28 162 115 315h-387v95h422q0 12 1 24.5t4 27t5 24t8 27t7.5 24t9 27t8.5 24.5h94q-38 -112 -84 -178h221z" />
    <glyph glyph-name="lessequal" unicode="&#x2264;" horiz-adv-x="1032" 
d="M862 373h-696v84h487l-487 182v94l696 185v-95l-565 -145l565 -221v-84z" />
    <glyph glyph-name="greaterequal" unicode="&#x2265;" horiz-adv-x="1032" 
d="M866 373h-696v84l565 221l-565 145v95l696 -185v-94l-487 -182h487v-84z" />
    <glyph glyph-name="lozenge" unicode="&#x25ca;" horiz-adv-x="1163" 
d="M627 0h-90l-412 694l412 692h90l411 -692zM240 694l338 -577h8l338 577l-338 576h-8z" />
    <glyph glyph-name="A.ss01" horiz-adv-x="1499" 
d="M145 0h-106l639 1597h143l639 -1597h-106q-162 385 -224 604l-18 17q-22 -2 -103 -8.5t-135 -9.5t-108 -3q-123 0 -369 21l-20 -19q-74 -215 -232 -602zM412 690l12 -20q234 20 342 20q119 0 303 -20l12 18q-208 526 -290 819h-82q-80 -272 -277 -766q-13 -34 -20 -51z
" />
    <glyph glyph-name="Aacute.ss01" horiz-adv-x="1499" 
d="M1108 2034l-342 -314h-88l268 314h162zM145 0h-106l639 1597h143l639 -1597h-106q-162 385 -224 604l-18 17q-22 -2 -103 -8.5t-135 -9.5t-108 -3q-123 0 -369 21l-20 -19q-74 -215 -232 -602zM412 690l12 -20q234 20 342 20q119 0 303 -20l12 18q-208 526 -290 819h-82
q-80 -272 -277 -766q-13 -34 -20 -51z" />
    <glyph glyph-name="Abreve.ss01" horiz-adv-x="1499" 
d="M750 1729q-84 0 -154.5 29t-116 75.5t-71.5 100.5t-29 108h90q6 -88 87 -157.5t194 -69.5t193.5 69t86.5 158h90q-3 -54 -29 -108t-71 -100.5t-115.5 -75.5t-154.5 -29zM145 0h-106l639 1597h143l639 -1597h-106q-162 385 -224 604l-18 17q-22 -2 -103 -8.5t-135 -9.5
t-108 -3q-123 0 -369 21l-20 -19q-74 -215 -232 -602zM412 690l12 -20q234 20 342 20q119 0 303 -20l12 18q-208 526 -290 819h-82q-80 -272 -277 -766q-13 -34 -20 -51z" />
    <glyph glyph-name="Acircumflex.ss01" horiz-adv-x="1499" 
d="M504 1720h-88l262 293h141l262 -293h-88q-50 46 -79.5 75t-70.5 75.5t-73 93.5h-41q-32 -47 -74.5 -94.5t-69.5 -73.5t-81 -76zM145 0h-106l639 1597h143l639 -1597h-106q-162 385 -224 604l-18 17q-22 -2 -103 -8.5t-135 -9.5t-108 -3q-123 0 -369 21l-20 -19
q-74 -215 -232 -602zM412 690l12 -20q234 20 342 20q119 0 303 -20l12 18q-208 526 -290 819h-82q-80 -272 -277 -766q-13 -34 -20 -51z" />
    <glyph glyph-name="Adieresis.ss01" horiz-adv-x="1499" 
d="M561 1800q-38 0 -64 27t-26 65q0 36 26 62t64 26t63 -26t25 -62q0 -39 -25 -65.5t-63 -26.5zM938 1800q-39 0 -64.5 26.5t-25.5 65.5q0 36 25.5 62t64.5 26q36 0 62 -26t26 -62q0 -38 -25.5 -65t-62.5 -27zM145 0h-106l639 1597h143l639 -1597h-106q-162 385 -224 604
l-18 17q-22 -2 -103 -8.5t-135 -9.5t-108 -3q-123 0 -369 21l-20 -19q-74 -215 -232 -602zM412 690l12 -20q234 20 342 20q119 0 303 -20l12 18q-208 526 -290 819h-82q-80 -272 -277 -766q-13 -34 -20 -51z" />
    <glyph glyph-name="Agrave.ss01" horiz-adv-x="1499" 
d="M821 1720h-88l-342 314h162zM145 0h-106l639 1597h143l639 -1597h-106q-162 385 -224 604l-18 17q-22 -2 -103 -8.5t-135 -9.5t-108 -3q-123 0 -369 21l-20 -19q-74 -215 -232 -602zM412 690l12 -20q234 20 342 20q119 0 303 -20l12 18q-208 526 -290 819h-82
q-80 -272 -277 -766q-13 -34 -20 -51z" />
    <glyph glyph-name="Amacron.ss01" horiz-adv-x="1499" 
d="M1073 1847h-647v88h647v-88zM145 0h-106l639 1597h143l639 -1597h-106q-162 385 -224 604l-18 17q-22 -2 -103 -8.5t-135 -9.5t-108 -3q-123 0 -369 21l-20 -19q-74 -215 -232 -602zM412 690l12 -20q234 20 342 20q119 0 303 -20l12 18q-208 526 -290 819h-82
q-80 -272 -277 -766q-13 -34 -20 -51z" />
    <glyph glyph-name="Aogonek.ss01" horiz-adv-x="1499" 
d="M1468 -389q38 0 88 14v-74q-55 -14 -92 -14q-113 0 -187.5 63t-74.5 169q0 132 158 231h-6q-162 385 -224 604l-18 17q-22 -2 -103 -8.5t-135 -9.5t-108 -3q-123 0 -369 21l-20 -19q-74 -215 -232 -602h-106l639 1597h143l639 -1597q-88 -50 -133 -103.5t-45 -119.5
q0 -75 54 -120.5t132 -45.5zM1069 670l12 18q-208 526 -290 819h-82q-80 -272 -277 -766q-13 -34 -20 -51l12 -20q234 20 342 20q119 0 303 -20z" />
    <glyph glyph-name="Aring.ss01" horiz-adv-x="1499" 
d="M750 1716q-94 0 -156 60t-62 153q0 91 62 150t156 59q93 0 154 -59.5t61 -149.5q0 -93 -61 -153t-154 -60zM750 1794q60 0 99.5 36t39.5 99q0 60 -39.5 95.5t-99.5 35.5q-62 0 -102 -35.5t-40 -95.5q0 -63 40 -99t102 -36zM145 0h-106l639 1597h143l639 -1597h-106
q-162 385 -224 604l-18 17q-22 -2 -103 -8.5t-135 -9.5t-108 -3q-123 0 -369 21l-20 -19q-74 -215 -232 -602zM412 690l12 -20q234 20 342 20q119 0 303 -20l12 18q-208 526 -290 819h-82q-80 -272 -277 -766q-13 -34 -20 -51z" />
    <glyph glyph-name="Atilde.ss01" horiz-adv-x="1499" 
d="M903 1753q-16 0 -30.5 2t-25.5 4.5t-24 9t-19.5 10t-19 13t-16.5 13t-18 15.5t-17 15l-35 31q-2 2 -9 8t-9.5 8t-9 7.5t-9.5 7.5t-9.5 6.5t-10.5 6t-10.5 4.5t-11.5 4t-11.5 2t-13.5 1q-51 0 -83 -43.5t-32 -110.5h-76q2 102 56.5 166t140.5 64q43 0 76 -18t72 -54
l40 -37q70 -61 121 -61t80 43.5t29 111.5h76q0 -103 -51 -166t-140 -63zM145 0h-106l639 1597h143l639 -1597h-106q-162 385 -224 604l-18 17q-22 -2 -103 -8.5t-135 -9.5t-108 -3q-123 0 -369 21l-20 -19q-74 -215 -232 -602zM412 690l12 -20q234 20 342 20q119 0 303 -20
l12 18q-208 526 -290 819h-82q-80 -272 -277 -766q-13 -34 -20 -51z" />
    <glyph glyph-name="B.ss01" horiz-adv-x="1458" 
d="M864 0h-635v1597h545q121 0 220.5 -35t162.5 -93.5t97 -132.5t34 -156q0 -122 -74 -220t-221 -133v-32q90 -14 159 -51t108.5 -88.5t59 -109.5t19.5 -120q0 -176 -133 -301t-342 -125zM311 852l17 -23q169 19 446 19q193 0 301.5 92t108.5 231q0 148 -120 242t-310 94
q-253 0 -426 19l-19 -19q29 -308 2 -655zM309 90l19 -18q178 18 497 18q193 0 301.5 92.5t108.5 233.5q0 148 -117.5 245t-312.5 97q-305 0 -477 18l-17 -22q27 -351 -2 -664z" />
    <glyph glyph-name="C.ss01" horiz-adv-x="1726" 
d="M918 -35q-174 0 -323.5 61.5t-254 170t-164 262t-59.5 332.5q0 183 61.5 340t167 266t251.5 171t312 62q109 0 214 -27t200.5 -80.5t169.5 -143.5t111 -205l-88 -37q-50 128 -144.5 219t-212 135.5t-248.5 44.5q-110 0 -211.5 -32t-187.5 -95t-150.5 -151.5
t-100.5 -208.5t-36 -258q0 -142 39.5 -263t107 -206.5t158 -145.5t193 -88.5t211.5 -28.5q133 0 245 42t190 114.5t131 161.5t81 192l88 -32q-36 -119 -98.5 -219t-153 -180.5t-219 -126.5t-280.5 -46z" />
    <glyph glyph-name="D.ss01" horiz-adv-x="1654" 
d="M795 0h-566v1597h547q156 0 283 -40.5t214.5 -112t146.5 -171.5t86.5 -216t27.5 -248q0 -238 -87 -420t-255.5 -285.5t-396.5 -103.5zM309 90l19 -18q174 18 487 18q191 0 331 90t212 249t72 368q0 158 -42.5 287.5t-125.5 224t-212 146.5t-294 52q-265 0 -428 19
l-19 -19q30 -701 0 -1417z" />
    <glyph glyph-name="E.ss01" horiz-adv-x="1353" 
d="M1243 0h-1014v1597h994v-90q-51 0 -209 -1t-236.5 -0.5t-208.5 5.5t-241 15l-19 -19q30 -315 2 -635l17 -22q305 18 854 18v-90q-534 0 -854 19l-17 -23q27 -341 -2 -684l19 -18q311 24 915 24v-96z" />
    <glyph glyph-name="F.ss01" horiz-adv-x="1273" 
d="M330 0h-101v1597h973v-98q-565 0 -874 27l-19 -19q29 -326 2 -645l17 -22q297 18 833 18v-90q-530 0 -833 18l-17 -22q19 -266 19 -764z" />
    <glyph glyph-name="G.ss01" horiz-adv-x="1763" 
d="M913 -35q-176 0 -325 63t-252 172.5t-161 262t-58 328.5q0 183 61.5 340t167 266t251.5 171t312 62q109 0 214 -27t200.5 -80.5t169.5 -143.5t111 -205l-88 -37q-50 128 -144.5 219t-212 135.5t-248.5 44.5q-138 0 -261.5 -51t-218 -144t-150.5 -235t-56 -313
q0 -328 196 -531t517 -203q193 0 336 83t219 225t86 329l-10 15q-362 -35 -604 -35v90h694v-35q0 -161 -42.5 -292t-113.5 -218t-168 -145.5t-202.5 -84.5t-219.5 -26z" />
    <glyph glyph-name="H.ss01" horiz-adv-x="1654" 
d="M330 0h-101v1597h101q0 -491 -19 -733l17 -22q535 23 999 0l16 22q-18 244 -18 733h100v-1597h-100q0 494 18 766l-16 22q-466 -48 -999 0l-17 -22q19 -272 19 -766z" />
    <glyph glyph-name="I.ss01" horiz-adv-x="1083" 
d="M1004 0h-924v90q275 0 422 -20q-15 729 0 1458q-160 -21 -432 -21v90h944v-90q-272 0 -432 21q15 -729 0 -1458q147 20 422 20v-90z" />
    <glyph glyph-name="Iacute.ss01" horiz-adv-x="1083" 
d="M901 2034l-342 -314h-88l268 314h162zM1004 0h-924v90q275 0 422 -20q-15 729 0 1458q-160 -21 -432 -21v90h944v-90q-272 0 -432 21q15 -729 0 -1458q147 20 422 20v-90z" />
    <glyph glyph-name="Icircumflex.ss01" horiz-adv-x="1083" 
d="M297 1720h-88l262 293h141l262 -293h-88q-50 46 -79.5 75t-70.5 75.5t-73 93.5h-41q-32 -47 -74.5 -94.5t-69.5 -73.5t-81 -76zM1004 0h-924v90q275 0 422 -20q-15 729 0 1458q-160 -21 -432 -21v90h944v-90q-272 0 -432 21q15 -729 0 -1458q147 20 422 20v-90z" />
    <glyph glyph-name="Idieresis.ss01" horiz-adv-x="1083" 
d="M354 1800q-38 0 -64 27t-26 65q0 36 26 62t64 26t63 -26t25 -62q0 -39 -25 -65.5t-63 -26.5zM731 1800q-39 0 -64.5 26.5t-25.5 65.5q0 36 25.5 62t64.5 26q36 0 62 -26t26 -62q0 -38 -25.5 -65t-62.5 -27zM1004 0h-924v90q275 0 422 -20q-15 729 0 1458
q-160 -21 -432 -21v90h944v-90q-272 0 -432 21q15 -729 0 -1458q147 20 422 20v-90z" />
    <glyph glyph-name="Idotaccent.ss01" horiz-adv-x="1083" 
d="M543 1794q-41 0 -69 28.5t-28 69.5q0 39 28 67t69 28q39 0 66.5 -28t27.5 -67q0 -41 -27 -69.5t-67 -28.5zM1004 0h-924v90q275 0 422 -20q-15 729 0 1458q-160 -21 -432 -21v90h944v-90q-272 0 -432 21q15 -729 0 -1458q147 20 422 20v-90z" />
    <glyph glyph-name="Igrave.ss01" horiz-adv-x="1083" 
d="M614 1720h-88l-342 314h162zM1004 0h-924v90q275 0 422 -20q-15 729 0 1458q-160 -21 -432 -21v90h944v-90q-272 0 -432 21q15 -729 0 -1458q147 20 422 20v-90z" />
    <glyph glyph-name="Imacron.ss01" horiz-adv-x="1083" 
d="M866 1847h-647v88h647v-88zM1004 0h-924v90q275 0 422 -20q-15 729 0 1458q-160 -21 -432 -21v90h944v-90q-272 0 -432 21q15 -729 0 -1458q147 20 422 20v-90z" />
    <glyph glyph-name="J.ss01" horiz-adv-x="1175" 
d="M530 -35q-67 0 -128 14t-123 51t-106.5 94.5t-72.5 152t-28 215.5v20l90 12v-16q0 -89 16.5 -162t45 -121t64 -82.5t77.5 -53t80.5 -26.5t78.5 -8q158 0 249 115.5t91 316.5q0 614 21 1020l-11 21q-213 -21 -559 -21v90h650v-1073q0 -27 -0.5 -47t-4.5 -64.5t-11 -79.5
t-22.5 -83.5t-36.5 -85.5t-54.5 -76t-75.5 -64.5t-101 -42t-129 -16.5z" />
    <glyph glyph-name="K.ss01" horiz-adv-x="1333" 
d="M330 0h-101v1597h101q0 -485 -11 -778h9q137 126 415 385t424 393h131q-461 -430 -882 -798v-21q53 -41 104.5 -82.5t109 -89t100 -82.5t107 -90t97.5 -83t105.5 -90.5t96.5 -83.5t104.5 -91t98.5 -86h-139q-198 167 -299.5 253.5t-268.5 233.5t-306 277h-7
q11 -307 11 -764z" />
    <glyph glyph-name="L.ss01" horiz-adv-x="1214" 
d="M1182 0h-953v1597h101q0 -959 -21 -1507l19 -18q289 24 854 24v-96z" />
    <glyph glyph-name="M.ss01" horiz-adv-x="1900" 
d="M330 0h-101v1597h117q324 -571 594 -1144h21q275 584 593 1144h117v-1597h-100q0 115 -2 344.5t-2.5 371t5 342.5t17.5 372h-20l-568 -1061h-102l-567 1061h-21q12 -171 17.5 -372.5t5.5 -341.5t-2 -372.5t-2 -343.5z" />
    <glyph glyph-name="N.ss01" horiz-adv-x="1695" 
d="M330 0h-101v1597h174q687 -1100 945 -1536h38q-20 553 -20 1536h100v-1597h-174q-637 1013 -938 1518h-45q21 -574 21 -1518z" />
    <glyph glyph-name="O.ss01" horiz-adv-x="1828" 
d="M913 -35q-162 0 -308.5 63.5t-254.5 172.5t-171.5 264.5t-63.5 331.5q0 175 63 330.5t170.5 265.5t255 173.5t311.5 63.5q222 0 405.5 -111t288.5 -302.5t105 -419.5q0 -230 -107 -421.5t-291 -301t-403 -109.5zM918 59q136 0 261 56t219 152t150 234.5t56 295.5t-56 296
t-150 235.5t-219 152t-261 55.5q-138 0 -265 -55.5t-222 -152t-151.5 -235.5t-56.5 -296t56.5 -295.5t151.5 -234.5t222 -152t265 -56z" />
    <glyph glyph-name="P.ss01" horiz-adv-x="1361" 
d="M330 0h-101v1597h545q123 0 221.5 -36t162 -98.5t97 -146t33.5 -181.5q0 -214 -131 -347t-344 -133q-129 0 -192 1t-149.5 8t-162.5 22q21 -263 21 -686zM311 750l17 -23q162 18 446 18q197 0 303.5 101t106.5 278q0 175 -115.5 279t-314.5 104q-263 0 -426 19l-19 -19
q30 -375 2 -757z" />
    <glyph glyph-name="Q.ss01" horiz-adv-x="1843" 
d="M465 -289v-20q175 14 386 21t332.5 8t372.5 1v-88h-1267q149 168 336 385q-230 85 -366 291t-136 488q0 184 60.5 340t166.5 264t254 168.5t320 60.5q232 0 414.5 -107t283 -297t100.5 -429q0 -241 -102.5 -430.5t-285 -294.5t-412.5 -105q-113 0 -215 27
q-195 -229 -242 -283zM225 797q0 -258 127.5 -444t335.5 -257q199 234 428 531l70 -60l-412 -495q92 -15 152 -15q144 0 270.5 53t220 148t147.5 234.5t54 304.5t-54 305.5t-147.5 235.5t-220 148.5t-270.5 53.5q-146 0 -274.5 -53.5t-223 -148.5t-149 -235t-54.5 -306z" />
    <glyph glyph-name="R.ss01" horiz-adv-x="1409" 
d="M330 0h-101v1597h545q123 0 221.5 -36t162 -98.5t97 -146t33.5 -181.5q0 -94 -24.5 -169t-68.5 -125.5t-105 -88.5t-133.5 -57t-154 -30.5t-167 -10t-172.5 4.5q177 -131 874 -659h-149q-646 490 -869 666h-10q21 -240 21 -666zM311 750l17 -23q162 18 446 18
q197 0 303.5 101t106.5 278q0 175 -115.5 279t-314.5 104q-248 0 -426 19l-19 -19q28 -390 2 -757z" />
    <glyph glyph-name="S.ss01" horiz-adv-x="1314" 
d="M678 -35q-68 0 -134.5 13.5t-137.5 47t-130 85t-109.5 134t-78.5 187.5l92 35q52 -193 188 -300.5t314 -107.5q59 0 116.5 11.5t112.5 38.5t96.5 65.5t67 97.5t25.5 131q0 62 -21.5 111t-45.5 77.5t-79.5 56.5t-83 37.5t-96.5 30.5q-23 7 -35 11l-149 47
q-44 14 -76.5 25.5t-82 33.5t-85.5 44.5t-76.5 58t-65.5 74.5t-42 92.5t-17 114.5q0 83 29.5 152t79.5 116.5t116 80.5t137.5 48.5t145.5 15.5q183 0 324.5 -98t196.5 -287l-89 -37q-47 150 -165 239t-283 89q-106 0 -193.5 -37t-140.5 -108.5t-53 -165.5q0 -49 16 -92.5
t37 -74t58 -59.5t63.5 -45t70 -34.5t60 -24t51.5 -16.5l152 -50q154 -50 190 -65q179 -74 234 -199q28 -64 28 -145q0 -137 -77 -243t-197 -159t-258 -53z" />
    <glyph glyph-name="U.ss01" horiz-adv-x="1564" 
d="M766 -35q-124 0 -224 34.5t-175.5 105t-116.5 187.5t-41 273v1032h100v-1028q0 -268 123 -391t340 -123t340 123t123 391v1028h100v-1597h-100q0 53 18 260h-20q-67 -158 -182 -226.5t-285 -68.5z" />
    <glyph glyph-name="Uacute.ss01" horiz-adv-x="1564" 
d="M1083 2034l-342 -314h-88l269 314h161zM766 -35q-124 0 -224 34.5t-175.5 105t-116.5 187.5t-41 273v1032h100v-1028q0 -268 123 -391t340 -123t340 123t123 391v1028h100v-1597h-100q0 53 18 260h-20q-67 -158 -182 -226.5t-285 -68.5z" />
    <glyph glyph-name="Ucircumflex.ss01" horiz-adv-x="1564" 
d="M520 1720h-88l262 293h142l262 -293h-88q-52 48 -80.5 75.5t-70 74.5t-73.5 94h-41q-32 -47 -74.5 -94.5t-69.5 -73.5t-81 -76zM766 -35q-124 0 -224 34.5t-175.5 105t-116.5 187.5t-41 273v1032h100v-1028q0 -268 123 -391t340 -123t340 123t123 391v1028h100v-1597
h-100q0 53 18 260h-20q-67 -158 -182 -226.5t-285 -68.5z" />
    <glyph glyph-name="Udieresis.ss01" horiz-adv-x="1564" 
d="M578 1800q-38 0 -64.5 27t-26.5 65q0 36 26.5 62t64.5 26t63 -26t25 -62q0 -39 -25 -65.5t-63 -26.5zM954 1800q-39 0 -64.5 26.5t-25.5 65.5q0 36 25.5 62t64.5 26q36 0 62 -26t26 -62q0 -38 -25.5 -65t-62.5 -27zM766 -35q-124 0 -224 34.5t-175.5 105t-116.5 187.5
t-41 273v1032h100v-1028q0 -268 123 -391t340 -123t340 123t123 391v1028h100v-1597h-100q0 53 18 260h-20q-67 -158 -182 -226.5t-285 -68.5z" />
    <glyph glyph-name="Ugrave.ss01" horiz-adv-x="1564" 
d="M838 1720h-88l-342 314h161zM766 -35q-124 0 -224 34.5t-175.5 105t-116.5 187.5t-41 273v1032h100v-1028q0 -268 123 -391t340 -123t340 123t123 391v1028h100v-1597h-100q0 53 18 260h-20q-67 -158 -182 -226.5t-285 -68.5z" />
    <glyph glyph-name="Uhungarumlaut.ss01" horiz-adv-x="1564" 
d="M905 2034l-270 -314h-88l211 314h147zM1188 2034l-291 -314h-88l231 314h148zM766 -35q-124 0 -224 34.5t-175.5 105t-116.5 187.5t-41 273v1032h100v-1028q0 -268 123 -391t340 -123t340 123t123 391v1028h100v-1597h-100q0 53 18 260h-20q-67 -158 -182 -226.5
t-285 -68.5z" />
    <glyph glyph-name="Umacron.ss01" horiz-adv-x="1564" 
d="M1090 1847h-648v88h648v-88zM766 -35q-124 0 -224 34.5t-175.5 105t-116.5 187.5t-41 273v1032h100v-1028q0 -268 123 -391t340 -123t340 123t123 391v1028h100v-1597h-100q0 53 18 260h-20q-67 -158 -182 -226.5t-285 -68.5z" />
    <glyph glyph-name="Uogonek.ss01" horiz-adv-x="1564" 
d="M1343 -389q39 0 89 14v-74q-55 -14 -93 -14q-113 0 -187.5 63t-74.5 169q0 132 158 231q0 53 18 260h-20q-67 -158 -182 -226.5t-285 -68.5q-124 0 -224 34.5t-175.5 105t-116.5 187.5t-41 273v1032h100v-1028q0 -268 123 -391t340 -123t340 123t123 391v1028h100v-1597
q-88 -50 -133 -103.5t-45 -119.5q0 -75 54 -120.5t132 -45.5z" />
    <glyph glyph-name="Uring.ss01" horiz-adv-x="1564" 
d="M766 1716q-94 0 -155.5 60t-61.5 153q0 91 61.5 150t155.5 59q93 0 154 -59.5t61 -149.5q0 -93 -61 -153t-154 -60zM766 1794q60 0 99.5 36t39.5 99q0 60 -39.5 95.5t-99.5 35.5q-62 0 -101.5 -35.5t-39.5 -95.5q0 -63 39.5 -99t101.5 -36zM766 -35q-124 0 -224 34.5
t-175.5 105t-116.5 187.5t-41 273v1032h100v-1028q0 -268 123 -391t340 -123t340 123t123 391v1028h100v-1597h-100q0 53 18 260h-20q-67 -158 -182 -226.5t-285 -68.5z" />
    <glyph glyph-name="V.ss01" horiz-adv-x="1499" 
d="M842 0h-185l-618 1597h106q437 -1153 566 -1507h86q201 559 557 1507h106z" />
    <glyph glyph-name="W.ss01" horiz-adv-x="2314" 
d="M696 0h-121l-532 1597h102l490 -1472h4l422 1472h213l407 -1472h5l483 1472h102l-532 -1597h-121l-408 1503h-86z" />
    <glyph glyph-name="Wacute.ss01" horiz-adv-x="2314" 
d="M1516 2034l-342 -314h-89l269 314h162zM696 0h-121l-532 1597h102l490 -1472h4l422 1472h213l407 -1472h5l483 1472h102l-532 -1597h-121l-408 1503h-86z" />
    <glyph glyph-name="Wcircumflex.ss01" horiz-adv-x="2314" 
d="M911 1720h-88l262 293h142l262 -293h-88q-50 46 -79.5 75t-70.5 75.5t-73 93.5h-41q-32 -46 -75.5 -95t-68.5 -72.5t-82 -76.5zM696 0h-121l-532 1597h102l490 -1472h4l422 1472h213l407 -1472h5l483 1472h102l-532 -1597h-121l-408 1503h-86z" />
    <glyph glyph-name="Wdieresis.ss01" horiz-adv-x="2314" 
d="M969 1800q-38 0 -64 27t-26 65q0 36 26 62t64 26t63 -26t25 -62q0 -39 -25 -65.5t-63 -26.5zM1346 1800q-39 0 -65 26.5t-26 65.5q0 36 26 62t65 26q36 0 62 -26t26 -62q0 -38 -25.5 -65t-62.5 -27zM696 0h-121l-532 1597h102l490 -1472h4l422 1472h213l407 -1472h5
l483 1472h102l-532 -1597h-121l-408 1503h-86z" />
    <glyph glyph-name="Wgrave.ss01" horiz-adv-x="2314" 
d="M1229 1720h-88l-342 314h162zM696 0h-121l-532 1597h102l490 -1472h4l422 1472h213l407 -1472h5l483 1472h102l-532 -1597h-121l-408 1503h-86z" />
    <glyph glyph-name="X.ss01" horiz-adv-x="1394" 
d="M147 0h-112l551 821l-4 4l-531 772h113q156 -223 491 -727h84q298 443 492 727h112l-530 -772l-4 -4l551 -821h-111q-171 257 -510 780h-84q-334 -515 -508 -780z" />
    <glyph glyph-name="Y.ss01" horiz-adv-x="1368" 
d="M403 0h-100q222 371 379 596q-250 377 -625 1001h111q35 -59 165.5 -276.5t215 -362t166.5 -290.5h20q75 151 177 332t160 278.5t190 318.5h106z" />
    <glyph glyph-name="Yacute.ss01" horiz-adv-x="1368" 
d="M1071 2034l-342 -314h-88l268 314h162zM403 0h-100q222 371 379 596q-250 377 -625 1001h111q35 -59 165.5 -276.5t215 -362t166.5 -290.5h20q75 151 177 332t160 278.5t190 318.5h106z" />
    <glyph glyph-name="Ycircumflex.ss01" horiz-adv-x="1368" 
d="M467 1720h-88l262 293h141l262 -293h-88q-50 46 -79.5 75t-70.5 75.5t-73 93.5h-41q-32 -47 -74.5 -94.5t-69.5 -73.5t-81 -76zM403 0h-100q222 371 379 596q-250 377 -625 1001h111q35 -59 165.5 -276.5t215 -362t166.5 -290.5h20q75 151 177 332t160 278.5t190 318.5
h106z" />
    <glyph glyph-name="Ydieresis.ss01" horiz-adv-x="1368" 
d="M524 1800q-38 0 -64 27t-26 65q0 36 26 62t64 26t63 -26t25 -62q0 -39 -25 -65.5t-63 -26.5zM901 1800q-39 0 -64.5 26.5t-25.5 65.5q0 36 25.5 62t64.5 26q36 0 62 -26t26 -62q0 -38 -25.5 -65t-62.5 -27zM403 0h-100q222 371 379 596q-250 377 -625 1001h111
q35 -59 165.5 -276.5t215 -362t166.5 -290.5h20q75 151 177 332t160 278.5t190 318.5h106z" />
    <glyph glyph-name="Ygrave.ss01" horiz-adv-x="1368" 
d="M784 1720h-88l-342 314h162zM403 0h-100q222 371 379 596q-250 377 -625 1001h111q35 -59 165.5 -276.5t215 -362t166.5 -290.5h20q75 151 177 332t160 278.5t190 318.5h106z" />
    <glyph glyph-name="Z.ss01" horiz-adv-x="1382" 
d="M1300 0h-1294q1062 1377 1168 1513l-11 15q-418 -21 -1036 -21v90h1227q-83 -107 -280 -363.5t-308 -400t-278 -355.5t-308 -386l10 -16q365 20 1110 20v-96z" />
    <glyph glyph-name="Zacute.ss01" horiz-adv-x="1382" 
d="M1038 2034l-342 -314h-88l269 314h161zM1300 0h-1294q1062 1377 1168 1513l-11 15q-418 -21 -1036 -21v90h1227q-83 -107 -280 -363.5t-308 -400t-278 -355.5t-308 -386l10 -16q365 20 1110 20v-96z" />
    <glyph glyph-name="Zcaron.ss01" horiz-adv-x="1382" 
d="M750 1720h-142l-262 293h88q54 -50 81 -76t69.5 -73.5t74.5 -94.5h41q32 47 73.5 94t70 74.5t80.5 75.5h88zM1300 0h-1294q1062 1377 1168 1513l-11 15q-418 -21 -1036 -21v90h1227q-83 -107 -280 -363.5t-308 -400t-278 -355.5t-308 -386l10 -16q365 20 1110 20v-96z
" />
    <glyph glyph-name="Zdotaccent.ss01" horiz-adv-x="1382" 
d="M680 1794q-41 0 -68.5 28.5t-27.5 69.5q0 39 27.5 67t68.5 28q39 0 66.5 -28t27.5 -67q0 -41 -27 -69.5t-67 -28.5zM1300 0h-1294q1062 1377 1168 1513l-11 15q-418 -21 -1036 -21v90h1227q-83 -107 -280 -363.5t-308 -400t-278 -355.5t-308 -386l10 -16q365 20 1110 20
v-96z" />
    <glyph glyph-name="Q.ss02" horiz-adv-x="1828" 
d="M948 -33q14 -95 10 -264q211 21 580 21v-91q-423 0 -655 11q-8 202 12 321q-162 7 -306 73.5t-248.5 175t-165 260.5t-60.5 323q0 175 63 330.5t170.5 265.5t255 173.5t311.5 63.5q222 0 405.5 -111t288.5 -302.5t105 -419.5q0 -223 -97 -406.5t-272 -295.5t-397 -128z
M223 797q0 -198 84 -359t237 -260.5t351 -116.5q-23 168 -23 506h97q0 -338 -23 -508q133 9 253.5 68t210 154.5t142 230t52.5 285.5q0 157 -56 296t-150 235.5t-219 152t-261 55.5q-138 0 -265 -55.5t-222 -152t-151.5 -235.5t-56.5 -296z" />
    <glyph glyph-name="A.ss07" 
d="M1020 -315q-197 0 -371.5 71t-298.5 193.5t-196 293.5t-72 365q0 198 72 372.5t196 298.5t298 195.5t372 71.5q200 0 375.5 -71.5t301 -195.5t197.5 -298.5t72 -372.5q0 -259 -123 -470.5t-339.5 -332t-483.5 -120.5zM987 1096l-397 -963h80q102 252 139 361l8 8
q147 -13 215 -13q66 0 203 13l6 -6q37 -129 135 -363h80l-397 963h-72zM834 547l-3 4q109 239 187 463h12q68 -215 180 -463l-2 -4q-106 12 -176 12q-62 0 -198 -12z" />
    <glyph glyph-name="B.ss07" 
d="M1020 -315q-197 0 -371.5 71t-298.5 193.5t-196 293.5t-72 365q0 198 72 372.5t196 298.5t298 195.5t372 71.5q200 0 375.5 -71.5t301 -195.5t197.5 -298.5t72 -372.5q0 -259 -123 -470.5t-339.5 -332t-483.5 -120.5zM719 1096v-963h385q123 0 206 75t83 185
q0 89 -55 149.5t-150 75.5v7q82 22 129 80t47 137q0 110 -88.5 182t-224.5 72h-332zM788 641l-4 8q15 206 -2 383l6 6q96 -12 250 -12q109 0 177.5 -52.5t68.5 -137.5q0 -83 -63.5 -134t-169.5 -51q-169 0 -263 -10zM788 193l-6 6q17 179 2 387l4 6q100 -10 281 -10
q109 0 177.5 -54.5t68.5 -140.5q0 -83 -64 -133.5t-170 -50.5q-189 0 -293 -10z" />
    <glyph glyph-name="C.ss07" 
d="M1020 -315q-197 0 -371.5 71t-298.5 193.5t-196 293.5t-72 365q0 198 72 372.5t196 298.5t298 195.5t372 71.5q200 0 375.5 -71.5t301 -195.5t197.5 -298.5t72 -372.5q0 -259 -123 -470.5t-339.5 -332t-483.5 -120.5zM1057 113q168 0 287.5 92.5t166.5 259.5l-67 24
q-15 -62 -45.5 -115t-76 -96.5t-112 -68.5t-145.5 -25q-80 0 -153 27t-131.5 78t-93 134t-34.5 187q0 190 113 312t287 122q122 0 217 -64.5t135 -174.5l68 26q-42 140 -161.5 212.5t-260.5 72.5q-206 0 -342 -144t-136 -362q0 -220 135 -358.5t349 -138.5z" />
    <glyph glyph-name="D.ss07" 
d="M1020 -315q-197 0 -371.5 71t-298.5 193.5t-196 293.5t-72 365q0 198 72 372.5t196 298.5t298 195.5t372 71.5q200 0 375.5 -71.5t301 -195.5t197.5 -298.5t72 -372.5q0 -259 -123 -470.5t-339.5 -332t-483.5 -120.5zM682 1096v-963h344q203 0 325 133t122 355
q0 224 -121.5 349.5t-337.5 125.5h-332zM752 193l-7 6q18 418 0 833l7 6q90 -12 249 -12q186 0 289 -109t103 -303q0 -189 -96 -300t-259 -111q-184 0 -286 -10z" />
    <glyph glyph-name="E.ss07" 
d="M1020 -315q-197 0 -371.5 71t-298.5 193.5t-196 293.5t-72 365q0 198 72 372.5t196 298.5t298 195.5t372 71.5q200 0 375.5 -71.5t301 -195.5t197.5 -298.5t72 -372.5q0 -259 -123 -470.5t-339.5 -332t-483.5 -120.5zM743 1096v-963h617v74q-352 0 -547 -14l-6 6
q17 196 2 399l4 8q182 -12 512 -12v70q-312 0 -512 -11l-4 9q15 191 -2 370l6 6q67 -6 145 -9t124 -3.5t142.5 0t125.5 0.5v70h-607z" />
    <glyph glyph-name="F.ss07" 
d="M1020 -315q-197 0 -371.5 71t-298.5 193.5t-196 293.5t-72 365q0 198 72 372.5t196 298.5t298 195.5t372 71.5q200 0 375.5 -71.5t301 -195.5t197.5 -298.5t72 -372.5q0 -259 -123 -470.5t-339.5 -332t-483.5 -120.5zM762 1096v-963h76q0 292 -11 459l4 8
q182 -12 500 -12v69q-352 0 -500 -10l-4 8q16 194 -2 377l6 6q184 -16 525 -16v74h-594z" />
    <glyph glyph-name="G.ss07" 
d="M1020 -315q-197 0 -371.5 71t-298.5 193.5t-196 293.5t-72 365q0 198 72 372.5t196 298.5t298 195.5t372 71.5q200 0 375.5 -71.5t301 -195.5t197.5 -298.5t72 -372.5q0 -259 -123 -470.5t-339.5 -332t-483.5 -120.5zM1051 113q285 0 383 272h14q-12 -101 -12 -252h67
v471h-428v-69q128 -2 363 20l2 -2q-20 -168 -123 -268.5t-258 -100.5q-78 0 -150 27t-129.5 78.5t-92 134.5t-34.5 186q0 190 113 312t287 122q122 0 217 -64.5t135 -174.5l68 26q-42 140 -161.5 212.5t-260.5 72.5q-206 0 -342 -144t-136 -362t134.5 -357.5t343.5 -139.5z
" />
    <glyph glyph-name="H.ss07" 
d="M1020 -315q-197 0 -371.5 71t-298.5 193.5t-196 293.5t-72 365q0 198 72 372.5t196 298.5t298 195.5t372 71.5q200 0 375.5 -71.5t301 -195.5t197.5 -298.5t72 -372.5q0 -259 -123 -470.5t-339.5 -332t-483.5 -120.5zM662 1096v-963h75q0 305 -10 461l4 6q311 -26 586 0
l4 -6q-10 -164 -10 -461h75v963h-75q0 -294 10 -441l-4 -6q-273 12 -586 0l-4 6q10 139 10 441h-75z" />
    <glyph glyph-name="I.ss07" 
d="M1020 -315q-197 0 -371.5 71t-298.5 193.5t-196 293.5t-72 365q0 198 72 372.5t196 298.5t298 195.5t372 71.5q200 0 375.5 -71.5t301 -195.5t197.5 -298.5t72 -372.5q0 -259 -123 -470.5t-339.5 -332t-483.5 -120.5zM985 1096v-963h76v963h-76z" />
    <glyph glyph-name="J.ss07" 
d="M1020 -315q-197 0 -371.5 71t-298.5 193.5t-196 293.5t-72 365q0 198 72 372.5t196 298.5t298 195.5t372 71.5q200 0 375.5 -71.5t301 -195.5t197.5 -298.5t72 -372.5q0 -259 -123 -470.5t-339.5 -332t-483.5 -120.5zM985 123q54 0 97.5 16.5t70.5 39.5t46.5 61t29 68.5
t14.5 76t5.5 68t0.5 59.5v594h-75v-617q0 -29 -0.5 -47.5t-4 -53t-10.5 -57.5t-21 -51.5t-33.5 -45.5t-50 -29t-69.5 -12q-40 0 -76 11.5t-69.5 37.5t-53.5 77.5t-20 122.5v29l-70 -8v-33q0 -84 26 -146.5t69.5 -96t91.5 -49t102 -15.5z" />
    <glyph glyph-name="K.ss07" 
d="M1020 -315q-197 0 -371.5 71t-298.5 193.5t-196 293.5t-72 365q0 198 72 372.5t196 298.5t298 195.5t372 71.5q200 0 375.5 -71.5t301 -195.5t197.5 -298.5t72 -372.5q0 -259 -123 -470.5t-339.5 -332t-483.5 -120.5zM735 1096v-963h76q0 229 -6 350q71 57 135 150h2
q111 -157 383 -500h94q-258 330 -432 541v6q42 39 83 79t88.5 88.5t75.5 78t86 90t77 80.5h-97q-387 -410 -503 -539h-6q5 42 8.5 82t5.5 85.5t3.5 73t2 80.5t0.5 69.5v78v70.5h-76z" />
    <glyph glyph-name="L.ss07" 
d="M1020 -315q-197 0 -371.5 71t-298.5 193.5t-196 293.5t-72 365q0 198 72 372.5t196 298.5t298 195.5t372 71.5q200 0 375.5 -71.5t301 -195.5t197.5 -298.5t72 -372.5q0 -259 -123 -470.5t-339.5 -332t-483.5 -120.5zM815 1096v-963h582v74q-332 0 -512 -14l-6 6
q12 311 12 897h-76z" />
    <glyph glyph-name="M.ss07" 
d="M1020 -315q-197 0 -371.5 71t-298.5 193.5t-196 293.5t-72 365q0 198 72 372.5t196 298.5t298 195.5t372 71.5q200 0 375.5 -71.5t301 -195.5t197.5 -298.5t72 -372.5q0 -259 -123 -470.5t-339.5 -332t-483.5 -120.5zM543 1096v-963h75v199.5t-0.5 205t-6 213
t-15.5 224.5h4q228 -507 385 -842h76q157 335 385 842h4q-8 -90 -12.5 -177.5t-6 -184t-2 -156t0 -171.5t0.5 -153h75v963h-71q-209 -425 -410 -881h-2q-196 466 -410 881h-69z" />
    <glyph glyph-name="N.ss07" 
d="M1020 -315q-197 0 -371.5 71t-298.5 193.5t-196 293.5t-72 365q0 198 72 372.5t196 298.5t298 195.5t372 71.5q200 0 375.5 -71.5t301 -195.5t197.5 -298.5t72 -372.5q0 -259 -123 -470.5t-339.5 -332t-483.5 -120.5zM662 1096v-963h75q0 29 0.5 157.5t0 180.5t-2 155
t-5.5 188.5t-11 174.5h4q293 -416 620 -856h68v963h-76v-81.5v-86v-80.5t0.5 -87.5t1.5 -82t2 -89.5t2.5 -84.5t3.5 -92.5t5 -88.5t6 -94.5h-4q-352 507 -623 867h-67z" />
    <glyph glyph-name="O.ss07" 
d="M1020 -315q-197 0 -371.5 71t-298.5 193.5t-196 293.5t-72 365q0 198 72 372.5t196 298.5t298 195.5t372 71.5q200 0 375.5 -71.5t301 -195.5t197.5 -298.5t72 -372.5q0 -259 -123 -470.5t-339.5 -332t-483.5 -120.5zM1024 113q133 0 244 66t175 181.5t64 253.5
t-64 253.5t-174.5 182t-242.5 66.5q-204 0 -343.5 -145t-139.5 -357t139 -356.5t342 -144.5zM623 614q0 180 117 305t286 125q166 0 282.5 -125t116.5 -305t-116.5 -305t-282.5 -125q-168 0 -285.5 124.5t-117.5 305.5z" />
    <glyph glyph-name="P.ss07" 
d="M1020 -315q-197 0 -371.5 71t-298.5 193.5t-196 293.5t-72 365q0 198 72 372.5t196 298.5t298 195.5t372 71.5q200 0 375.5 -71.5t301 -195.5t197.5 -298.5t72 -372.5q0 -259 -123 -470.5t-339.5 -332t-483.5 -120.5zM743 1096v-963h76q0 259 -10 406q96 -17 289 -17
q129 0 210 80.5t81 210.5q0 129 -86 206t-228 77h-332zM813 582l-4 6q16 229 -2 444l6 6q90 -12 250 -12q114 0 180 -58.5t66 -158.5q0 -104 -61 -160.5t-173 -56.5q-168 0 -262 -10z" />
    <glyph glyph-name="Q.ss07" 
d="M1020 -315q-197 0 -371.5 71t-298.5 193.5t-196 293.5t-72 365q0 198 72 372.5t196 298.5t298 195.5t372 71.5q200 0 375.5 -71.5t301 -195.5t197.5 -298.5t72 -372.5q0 -259 -123 -470.5t-339.5 -332t-483.5 -120.5zM1413 68l53 47q-9 10 -32.5 37.5t-36.5 41.5
t-34.5 36.5t-41.5 41.5q88 68 135 167.5t47 217.5q0 138 -64 253.5t-174.5 182t-242.5 66.5q-204 0 -343.5 -145t-139.5 -357t139 -356.5t342 -144.5q146 0 258 86q42 -64 135 -174zM618 657q0 180 117.5 305t286.5 125q166 0 282.5 -125t116.5 -305q0 -190 -137 -342
q-91 126 -201 252l-53 -45q132 -156 211 -235q-111 -60 -219 -60q-169 0 -286.5 125t-117.5 305z" />
    <glyph glyph-name="R.ss07" 
d="M1020 -315q-197 0 -371.5 71t-298.5 193.5t-196 293.5t-72 365q0 198 72 372.5t196 298.5t298 195.5t372 71.5q200 0 375.5 -71.5t301 -195.5t197.5 -298.5t72 -372.5q0 -259 -123 -470.5t-339.5 -332t-483.5 -120.5zM750 1096v-963h75q0 259 -10 406q94 -17 246 -17
l260 -389h86q-29 43 -83 125t-99.5 150t-87.5 127v2q120 12 189 85.5t69 190.5q0 129 -86 206t-228 77h-331zM819 582l-4 6q15 222 -2 444l6 6q106 -12 250 -12q114 0 180 -58.5t66 -158.5q0 -104 -61 -160.5t-173 -56.5q-168 0 -262 -10z" />
    <glyph glyph-name="S.ss07" 
d="M1020 -315q-197 0 -371.5 71t-298.5 193.5t-196 293.5t-72 365q0 198 72 372.5t196 298.5t298 195.5t372 71.5q200 0 375.5 -71.5t301 -195.5t197.5 -298.5t72 -372.5q0 -259 -123 -470.5t-339.5 -332t-483.5 -120.5zM1040 113q137 0 230.5 79.5t93.5 198.5q0 26 -5 49
t-12 41t-21.5 35t-25.5 28.5t-32 24t-33 19t-37 16.5t-36 13.5t-37.5 12t-34.5 11.5l-91 29q-22 7 -35.5 12t-42 17t-47 26.5t-38.5 34.5t-30.5 48t-10.5 60q0 77 61.5 126.5t159.5 49.5q95 0 164.5 -53t95.5 -145l67 28q-31 114 -115 178t-204 64q-76 0 -144 -26
t-116.5 -86t-48.5 -142q0 -51 20 -93.5t46.5 -69t68.5 -50.5t69 -34t66 -23l88 -27q7 -2 29 -9t30.5 -9.5t28.5 -10t28.5 -12t24.5 -13.5t23.5 -17.5t17.5 -21t15 -25.5t8.5 -30t3.5 -36q0 -67 -38 -113t-90 -65t-112 -19q-108 0 -186 65.5t-106 180.5l-70 -27
q20 -80 61 -139.5t92 -90.5t102.5 -45.5t104.5 -14.5z" />
    <glyph glyph-name="T.ss07" 
d="M1020 -315q-197 0 -371.5 71t-298.5 193.5t-196 293.5t-72 365q0 198 72 372.5t196 298.5t298 195.5t372 71.5q200 0 375.5 -71.5t301 -195.5t197.5 -298.5t72 -372.5q0 -259 -123 -470.5t-339.5 -332t-483.5 -120.5zM985 133h76q0 596 -6 905q117 -12 340 -12v70h-746
v-70q223 0 340 12q-4 -206 -4 -905z" />
    <glyph glyph-name="U.ss07" 
d="M1020 -315q-197 0 -371.5 71t-298.5 193.5t-196 293.5t-72 365q0 198 72 372.5t196 298.5t298 195.5t372 71.5q200 0 375.5 -71.5t301 -195.5t197.5 -298.5t72 -372.5q0 -259 -123 -470.5t-339.5 -332t-483.5 -120.5zM1020 123q164 0 255 95.5t91 268.5v619h-76v-617
q0 -296 -266 -296t-266 296v617h-76v-619q0 -175 87 -269.5t251 -94.5z" />
    <glyph glyph-name="V.ss07" 
d="M1020 -315q-197 0 -371.5 71t-298.5 193.5t-196 293.5t-72 365q0 198 72 372.5t196 298.5t298 195.5t372 71.5q200 0 375.5 -71.5t301 -195.5t197.5 -298.5t72 -372.5q0 -259 -123 -470.5t-339.5 -332t-483.5 -120.5zM590 1096l397 -963h72l397 963h-80
q-233 -577 -348 -887h-4q-157 421 -354 887h-80z" />
    <glyph glyph-name="W.ss07" 
d="M1020 -315q-197 0 -371.5 71t-298.5 193.5t-196 293.5t-72 365q0 198 72 372.5t196 298.5t298 195.5t372 71.5q200 0 375.5 -71.5t301 -195.5t197.5 -298.5t72 -372.5q0 -259 -123 -470.5t-339.5 -332t-483.5 -120.5zM352 1096l322 -963h80q158 474 268 887h4
q122 -457 268 -887h80l322 963h-78q-138 -405 -279 -885h-4q-100 354 -272 885h-78q-184 -582 -270 -885h-4q-109 380 -281 885h-78z" />
    <glyph glyph-name="X.ss07" 
d="M1020 -315q-197 0 -371.5 71t-298.5 193.5t-196 293.5t-72 365q0 198 72 372.5t196 298.5t298 195.5t372 71.5q200 0 375.5 -71.5t301 -195.5t197.5 -298.5t72 -372.5q0 -259 -123 -470.5t-339.5 -332t-483.5 -120.5zM639 133h86q214 314 297 453h2q101 -165 297 -453h86
q-39 56 -107.5 156.5t-126.5 183t-112 154.5v6q142 188 336 463h-86q-184 -252 -287 -420h-2q-95 152 -287 420h-88q155 -220 336 -463v-6q-70 -95 -193.5 -275.5t-150.5 -218.5z" />
    <glyph glyph-name="Y.ss07" 
d="M1020 -315q-197 0 -371.5 71t-298.5 193.5t-196 293.5t-72 365q0 198 72 372.5t196 298.5t298 195.5t372 71.5q200 0 375.5 -71.5t301 -195.5t197.5 -298.5t72 -372.5q0 -259 -123 -470.5t-339.5 -332t-483.5 -120.5zM985 133h76q0 240 -6 359q121 191 370 604h-82
q-203 -331 -319 -551h-2q-129 243 -317 551h-84q201 -333 370 -604q-6 -119 -6 -359z" />
    <glyph glyph-name="Z.ss07" 
d="M1020 -315q-197 0 -371.5 71t-298.5 193.5t-196 293.5t-72 365q0 198 72 372.5t196 298.5t298 195.5t372 71.5q200 0 375.5 -71.5t301 -195.5t197.5 -298.5t72 -372.5q0 -259 -123 -470.5t-339.5 -332t-483.5 -120.5zM674 195v-62h737v74q-428 0 -649 -12l-2 2
q77 101 299 390t342 451v58h-701v-70q332 0 613 16v-2q-90 -120 -306.5 -404t-332.5 -441z" />
    <glyph glyph-name="A.ss08" 
d="M1020 -315q-197 0 -371.5 71t-298.5 193.5t-196 293.5t-72 365q0 198 72 372.5t196 298.5t298 195.5t372 71.5q200 0 375.5 -71.5t301 -195.5t197.5 -298.5t72 -372.5q0 -259 -123 -470.5t-339.5 -332t-483.5 -120.5zM1020 -244q246 0 445 111t312 306.5t113 436.5
q0 182 -66.5 342.5t-181.5 274.5t-276.5 180t-345.5 66q-182 0 -342.5 -66t-275.5 -180t-181.5 -274.5t-66.5 -342.5q0 -179 66.5 -337.5t181.5 -272t275.5 -179t342.5 -65.5zM772 266h-61l286 697h56l286 -697h-63q-67 160 -96 260l-4 4q-90 -8 -144 -8q-59 0 -153 8l-7 -4
q-39 -118 -100 -260zM891 567q86 11 141 11q54 0 125 -11q-86 196 -129 332h-6q-57 -168 -131 -332z" />
    <glyph glyph-name="B.ss08" 
d="M1020 -315q-197 0 -371.5 71t-298.5 193.5t-196 293.5t-72 365q0 198 72 372.5t196 298.5t298 195.5t372 71.5q200 0 375.5 -71.5t301 -195.5t197.5 -298.5t72 -372.5q0 -259 -123 -470.5t-339.5 -332t-483.5 -120.5zM1020 -244q246 0 445 111t312 306.5t113 436.5
q0 182 -66.5 342.5t-181.5 274.5t-276.5 180t-345.5 66q-182 0 -342.5 -66t-275.5 -180t-181.5 -274.5t-66.5 -342.5q0 -179 66.5 -337.5t181.5 -272t275.5 -179t342.5 -65.5zM1081 266h-278v697h239q100 0 164 -52.5t64 -134.5q0 -57 -33.5 -98.5t-91.5 -56.5
q68 -14 107.5 -57.5t39.5 -106.5q0 -82 -60 -136.5t-151 -54.5zM854 639l2 -2q68 6 186 6q75 0 121.5 36.5t46.5 94.5t-49.5 95.5t-126.5 37.5q-110 0 -178 8l-2 -2q12 -131 0 -274zM854 315l2 -2q86 9 209 9q75 0 120.5 35.5t45.5 93.5q0 61 -48.5 100t-125.5 39
q-129 0 -201 6l-2 -2q12 -145 0 -279z" />
    <glyph glyph-name="C.ss08" 
d="M1020 -315q-197 0 -371.5 71t-298.5 193.5t-196 293.5t-72 365q0 198 72 372.5t196 298.5t298 195.5t372 71.5q200 0 375.5 -71.5t301 -195.5t197.5 -298.5t72 -372.5q0 -259 -123 -470.5t-339.5 -332t-483.5 -120.5zM1020 -244q246 0 445 111t312 306.5t113 436.5
q0 182 -66.5 342.5t-181.5 274.5t-276.5 180t-345.5 66q-182 0 -342.5 -66t-275.5 -180t-181.5 -274.5t-66.5 -342.5q0 -179 66.5 -337.5t181.5 -272t275.5 -179t342.5 -65.5zM1047 252q-154 0 -252.5 100t-98.5 258t98.5 262.5t247.5 104.5q112 0 195 -56.5t111 -150.5
l-52 -22q-29 79 -97.5 125.5t-154.5 46.5q-125 0 -204.5 -87t-79.5 -223q0 -144 86 -223.5t207 -79.5q101 0 173 59t97 162l53 -20q-34 -121 -120.5 -188.5t-208.5 -67.5z" />
    <glyph glyph-name="D.ss08" 
d="M1020 -315q-197 0 -371.5 71t-298.5 193.5t-196 293.5t-72 365q0 198 72 372.5t196 298.5t298 195.5t372 71.5q200 0 375.5 -71.5t301 -195.5t197.5 -298.5t72 -372.5q0 -259 -123 -470.5t-339.5 -332t-483.5 -120.5zM1020 -244q246 0 445 111t312 306.5t113 436.5
q0 182 -66.5 342.5t-181.5 274.5t-276.5 180t-345.5 66q-182 0 -342.5 -66t-275.5 -180t-181.5 -274.5t-66.5 -342.5q0 -179 66.5 -337.5t181.5 -272t275.5 -179t342.5 -65.5zM1026 266h-250v697h242q155 0 242.5 -91.5t87.5 -253.5q0 -160 -88 -256t-234 -96zM827 315l2 -2
q83 9 205 9q117 0 185.5 78.5t68.5 213.5q0 139 -73.5 216t-204.5 77q-118 0 -181 8l-2 -2q12 -298 0 -598z" />
    <glyph glyph-name="E.ss08" 
d="M1020 -315q-197 0 -371.5 71t-298.5 193.5t-196 293.5t-72 365q0 198 72 372.5t196 298.5t298 195.5t372 71.5q200 0 375.5 -71.5t301 -195.5t197.5 -298.5t72 -372.5q0 -259 -123 -470.5t-339.5 -332t-483.5 -120.5zM1020 -244q246 0 445 111t312 306.5t113 436.5
q0 182 -66.5 342.5t-181.5 274.5t-276.5 180t-345.5 66q-182 0 -342.5 -66t-275.5 -180t-181.5 -274.5t-66.5 -342.5q0 -179 66.5 -337.5t181.5 -272t275.5 -179t342.5 -65.5zM1268 266h-449v697h441v-56q-70 1 -126 0t-128.5 1t-133.5 7l-2 -2q12 -134 0 -264l4 -4
q131 8 367 8v-55q-238 0 -367 8l-4 -4q12 -145 0 -287l2 -2q153 11 396 11v-58z" />
    <glyph glyph-name="F.ss08" 
d="M1020 -315q-197 0 -371.5 71t-298.5 193.5t-196 293.5t-72 365q0 198 72 372.5t196 298.5t298 195.5t372 71.5q200 0 375.5 -71.5t301 -195.5t197.5 -298.5t72 -372.5q0 -259 -123 -470.5t-339.5 -332t-483.5 -120.5zM1020 -244q246 0 445 111t312 306.5t113 436.5
q0 182 -66.5 342.5t-181.5 274.5t-276.5 180t-345.5 66q-182 0 -342.5 -66t-275.5 -180t-181.5 -274.5t-66.5 -342.5q0 -179 66.5 -337.5t181.5 -272t275.5 -179t342.5 -65.5zM893 266h-59v697h430v-58q-244 0 -377 10l-2 -2q12 -135 0 -270l4 -2q95 6 358 6v-53
q-229 0 -358 6l-4 -2q8 -111 8 -332z" />
    <glyph glyph-name="G.ss08" 
d="M1020 1546q200 0 375.5 -71.5t301 -195.5t197.5 -298.5t72 -372.5q0 -259 -123 -470.5t-339.5 -332t-483.5 -120.5q-197 0 -371.5 71t-298.5 193.5t-196 293.5t-72 365q0 198 72 372.5t196 298.5t298 195.5t372 71.5zM1020 -244q246 0 445 111t312 306.5t113 436.5
q0 182 -66.5 342.5t-181.5 274.5t-276.5 180t-345.5 66q-182 0 -342.5 -66t-275.5 -180t-181.5 -274.5t-66.5 -342.5q0 -179 66.5 -337.5t181.5 -272t275.5 -179t342.5 -65.5zM1059 555v53h311v-342h-53q0 17 -1 49t-1 58t2 49q-77 -170 -275 -170q-152 0 -249 100.5
t-97 257.5q0 158 98.5 262.5t247.5 104.5q112 0 195 -56.5t111 -150.5l-52 -22q-29 79 -97.5 125.5t-154.5 46.5q-125 0 -204.5 -87t-79.5 -223q0 -144 85 -223.5t204 -79.5q109 0 183 71t87 191q-182 -16 -260 -14z" />
    <glyph glyph-name="H.ss08" 
d="M1020 -315q-197 0 -371.5 71t-298.5 193.5t-196 293.5t-72 365q0 198 72 372.5t196 298.5t298 195.5t372 71.5q200 0 375.5 -71.5t301 -195.5t197.5 -298.5t72 -372.5q0 -259 -123 -470.5t-339.5 -332t-483.5 -120.5zM1020 -244q246 0 445 111t312 306.5t113 436.5
q0 182 -66.5 342.5t-181.5 274.5t-276.5 180t-345.5 66q-182 0 -342.5 -66t-275.5 -180t-181.5 -274.5t-66.5 -342.5q0 -179 66.5 -337.5t181.5 -272t275.5 -179t342.5 -65.5zM821 266h-59v697h59q0 -218 -8 -318l4 -4q220 9 416 0l4 4q-8 106 -8 318h59v-697h-59
q0 213 8 332l-4 4q-195 -21 -418 0l-2 -4q8 -113 8 -332z" />
    <glyph glyph-name="I.ss08" 
d="M1020 -315q-197 0 -371.5 71t-298.5 193.5t-196 293.5t-72 365q0 198 72 372.5t196 298.5t298 195.5t372 71.5q200 0 375.5 -71.5t301 -195.5t197.5 -298.5t72 -372.5q0 -259 -123 -470.5t-339.5 -332t-483.5 -120.5zM1020 -244q246 0 445 111t312 306.5t113 436.5
q0 182 -66.5 342.5t-181.5 274.5t-276.5 180t-345.5 66q-182 0 -342.5 -66t-275.5 -180t-181.5 -274.5t-66.5 -342.5q0 -179 66.5 -337.5t181.5 -272t275.5 -179t342.5 -65.5zM1053 266h-60v697h60v-697z" />
    <glyph glyph-name="J.ss08" 
d="M1020 -315q-197 0 -371.5 71t-298.5 193.5t-196 293.5t-72 365q0 198 72 372.5t196 298.5t298 195.5t372 71.5q200 0 375.5 -71.5t301 -195.5t197.5 -298.5t72 -372.5q0 -259 -123 -470.5t-339.5 -332t-483.5 -120.5zM1020 -244q246 0 445 111t312 306.5t113 436.5
q0 182 -66.5 342.5t-181.5 274.5t-276.5 180t-345.5 66q-182 0 -342.5 -66t-275.5 -180t-181.5 -274.5t-66.5 -342.5q0 -179 66.5 -337.5t181.5 -272t275.5 -179t342.5 -65.5zM997 258q-98 0 -154.5 59.5t-56.5 163.5v25l56 8v-25q0 -83 40.5 -130.5t112.5 -47.5
q38 0 65 16.5t39.5 36.5t19.5 54.5t8 53.5t1 50v447h60v-430q0 -26 -0.5 -42.5t-4 -49t-10.5 -55t-21 -50t-34 -44t-51 -28.5t-70 -12z" />
    <glyph glyph-name="K.ss08" 
d="M1020 1546q200 0 375.5 -71.5t301 -195.5t197.5 -298.5t72 -372.5q0 -259 -123 -470.5t-339.5 -332t-483.5 -120.5q-197 0 -371.5 71t-298.5 193.5t-196 293.5t-72 365q0 198 72 372.5t196 298.5t298 195.5t372 71.5zM1020 -244q246 0 445 111t312 306.5t113 436.5
q0 182 -66.5 342.5t-181.5 274.5t-276.5 180t-345.5 66q-182 0 -342.5 -66t-275.5 -180t-181.5 -274.5t-66.5 -342.5q0 -179 66.5 -337.5t181.5 -272t275.5 -179t342.5 -65.5zM1001 662v-5q164 -201 312 -391h-74q-201 257 -272 357q-44 -61 -97 -105q4 -86 4 -252h-59v697
h59q0 -279 -10 -390q54 63 100.5 114.5t73 80t86 90.5t99.5 105h75q-226 -236 -297 -301z" />
    <glyph glyph-name="L.ss08" 
d="M1020 -315q-197 0 -371.5 71t-298.5 193.5t-196 293.5t-72 365q0 198 72 372.5t196 298.5t298 195.5t372 71.5q200 0 375.5 -71.5t301 -195.5t197.5 -298.5t72 -372.5q0 -259 -123 -470.5t-339.5 -332t-483.5 -120.5zM1020 -244q246 0 445 111t312 306.5t113 436.5
q0 182 -66.5 342.5t-181.5 274.5t-276.5 180t-345.5 66q-182 0 -342.5 -66t-275.5 -180t-181.5 -274.5t-66.5 -342.5q0 -179 66.5 -337.5t181.5 -272t275.5 -179t342.5 -65.5zM1294 266h-422v697h60q0 -423 -8 -648l2 -2q144 11 368 11v-58z" />
    <glyph glyph-name="M.ss08" 
d="M1020 1546q200 0 375.5 -71.5t301 -195.5t197.5 -298.5t72 -372.5q0 -259 -123 -470.5t-339.5 -332t-483.5 -120.5q-197 0 -371.5 71t-298.5 193.5t-196 293.5t-72 365q0 198 72 372.5t196 298.5t298 195.5t372 71.5zM1020 -244q246 0 445 111t312 306.5t113 436.5
q0 182 -66.5 342.5t-181.5 274.5t-276.5 180t-345.5 66q-182 0 -342.5 -66t-275.5 -180t-181.5 -274.5t-66.5 -342.5q0 -179 66.5 -337.5t181.5 -272t275.5 -179t342.5 -65.5zM1024 332q115 266 293 631h55v-697h-59q0 19 -0.5 138t0 164t3 132.5t7.5 159.5
q-23 -53 -270 -594h-58q-157 338 -270 594q5 -74 7.5 -162t3 -133t0 -162.5t-0.5 -136.5h-59v697h55q174 -344 293 -631z" />
    <glyph glyph-name="N.ss08" 
d="M1020 1546q200 0 375.5 -71.5t301 -195.5t197.5 -298.5t72 -372.5q0 -259 -123 -470.5t-339.5 -332t-483.5 -120.5q-197 0 -371.5 71t-298.5 193.5t-196 293.5t-72 365q0 198 72 372.5t196 298.5t298 195.5t372 71.5zM1020 -244q246 0 445 111t312 306.5t113 436.5
q0 182 -66.5 342.5t-181.5 274.5t-276.5 180t-345.5 66q-182 0 -342.5 -66t-275.5 -180t-181.5 -274.5t-66.5 -342.5q0 -179 66.5 -337.5t181.5 -272t275.5 -179t342.5 -65.5zM1257 346q-12 209 -12 617h60v-697h-52q-250 335 -442 608q10 -173 10 -608h-59v697h51
q203 -272 444 -617z" />
    <glyph glyph-name="O.ss08" 
d="M1020 -315q-197 0 -371.5 71t-298.5 193.5t-196 293.5t-72 365q0 198 72 372.5t196 298.5t298 195.5t372 71.5q200 0 375.5 -71.5t301 -195.5t197.5 -298.5t72 -372.5q0 -259 -123 -470.5t-339.5 -332t-483.5 -120.5zM1020 -244q246 0 445 111t312 306.5t113 436.5
q0 182 -66.5 342.5t-181.5 274.5t-276.5 180t-345.5 66q-182 0 -342.5 -66t-275.5 -180t-181.5 -274.5t-66.5 -342.5q0 -179 66.5 -337.5t181.5 -272t275.5 -179t342.5 -65.5zM1024 252q-147 0 -247.5 104.5t-100.5 257.5q0 152 101 257.5t249 105.5q146 0 247 -105.5
t101 -257.5t-101 -257t-249 -105zM1026 307q118 0 201.5 89.5t83.5 217.5q0 127 -83 216.5t-202 89.5q-120 0 -203.5 -89t-83.5 -217t83.5 -217.5t203.5 -89.5z" />
    <glyph glyph-name="P.ss08" 
d="M1020 -315q-197 0 -371.5 71t-298.5 193.5t-196 293.5t-72 365q0 198 72 372.5t196 298.5t298 195.5t372 71.5q200 0 375.5 -71.5t301 -195.5t197.5 -298.5t72 -372.5q0 -259 -123 -470.5t-339.5 -332t-483.5 -120.5zM1020 -244q246 0 445 111t312 306.5t113 436.5
q0 182 -66.5 342.5t-181.5 274.5t-276.5 180t-345.5 66q-182 0 -342.5 -66t-275.5 -180t-181.5 -274.5t-66.5 -342.5q0 -179 66.5 -337.5t181.5 -272t275.5 -179t342.5 -65.5zM879 266h-60v697h240q103 0 165 -55.5t62 -149.5q0 -95 -58 -154t-153 -59q-139 0 -205 12
q9 -119 9 -291zM870 596l2 -4q68 8 187 8q80 0 124 40.5t44 113.5q0 71 -47 112t-129 41q-116 0 -179 8l-2 -2q12 -160 0 -317z" />
    <glyph glyph-name="Q.ss08" 
d="M1020 -315q-197 0 -371.5 71t-298.5 193.5t-196 293.5t-72 365q0 198 72 372.5t196 298.5t298 195.5t372 71.5q200 0 375.5 -71.5t301 -195.5t197.5 -298.5t72 -372.5q0 -259 -123 -470.5t-339.5 -332t-483.5 -120.5zM1020 -244q246 0 445 111t312 306.5t113 436.5
q0 182 -66.5 342.5t-181.5 274.5t-276.5 180t-345.5 66q-182 0 -342.5 -66t-275.5 -180t-181.5 -274.5t-66.5 -342.5q0 -179 66.5 -337.5t181.5 -272t275.5 -179t342.5 -65.5zM1343 254l-40 -35q-61 68 -97 123q-80 -59 -186 -59q-147 0 -247.5 104.5t-100.5 257.5
q0 152 101 257.5t249 105.5q146 0 247 -105.5t101 -257.5q0 -172 -129 -276q28 -26 102 -115zM1022 338q74 0 154 41q-58 58 -152 168l43 37q100 -121 143 -181q97 111 97 242q0 127 -83 216t-202 89q-120 0 -203.5 -88.5t-83.5 -216.5q0 -129 83.5 -218t203.5 -89z" />
    <glyph glyph-name="R.ss08" 
d="M1020 1546q200 0 375.5 -71.5t301 -195.5t197.5 -298.5t72 -372.5q0 -259 -123 -470.5t-339.5 -332t-483.5 -120.5q-197 0 -371.5 71t-298.5 193.5t-196 293.5t-72 365q0 198 72 372.5t196 298.5t298 195.5t372 71.5zM1020 -244q246 0 445 111t312 306.5t113 436.5
q0 182 -66.5 342.5t-181.5 274.5t-276.5 180t-345.5 66q-182 0 -342.5 -66t-275.5 -180t-181.5 -274.5t-66.5 -342.5q0 -179 66.5 -337.5t181.5 -272t275.5 -179t342.5 -65.5zM1290 758q0 -86 -48.5 -139t-133.5 -64q24 -34 195 -289h-68l-186 279q-112 0 -175 12
q9 -119 9 -291h-60v697h240q103 0 165 -55.5t62 -149.5zM874 596l3 -4q68 8 186 8q80 0 124 40.5t44 113.5q0 71 -47 112t-129 41q-94 0 -178 8l-3 -2q12 -162 0 -317z" />
    <glyph glyph-name="S.ss08" 
d="M1020 -315q-197 0 -371.5 71t-298.5 193.5t-196 293.5t-72 365q0 198 72 372.5t196 298.5t298 195.5t372 71.5q200 0 375.5 -71.5t301 -195.5t197.5 -298.5t72 -372.5q0 -259 -123 -470.5t-339.5 -332t-483.5 -120.5zM1020 -244q246 0 445 111t312 306.5t113 436.5
q0 182 -66.5 342.5t-181.5 274.5t-276.5 180t-345.5 66q-182 0 -342.5 -66t-275.5 -180t-181.5 -274.5t-66.5 -342.5q0 -179 66.5 -337.5t181.5 -272t275.5 -179t342.5 -65.5zM1036 252q-98 0 -167 55.5t-95 155.5l55 20q20 -82 76 -129t133 -47q67 0 118.5 35t51.5 104
q0 27 -10 47.5t-20 31.5t-37 22.5t-37.5 14.5t-44.5 13l-64 21q-37 13 -61 23.5t-59.5 33.5t-54.5 58.5t-19 81.5q0 88 68.5 136t156.5 48q86 0 147 -46.5t84 -129.5l-53 -23q-19 66 -68 104t-118 38t-112.5 -34.5t-43.5 -88.5q0 -33 15.5 -59t44 -43t44.5 -24t42 -16
l65 -20q90 -28 122 -47q76 -48 77 -135q0 -86 -68 -143.5t-168 -57.5z" />
    <glyph glyph-name="T.ss08" 
d="M1020 -315q-197 0 -371.5 71t-298.5 193.5t-196 293.5t-72 365q0 198 72 372.5t196 298.5t298 195.5t372 71.5q200 0 375.5 -71.5t301 -195.5t197.5 -298.5t72 -372.5q0 -259 -123 -470.5t-339.5 -332t-483.5 -120.5zM1020 -244q246 0 445 111t312 306.5t113 436.5
q0 182 -66.5 342.5t-181.5 274.5t-276.5 180t-345.5 66q-182 0 -342.5 -66t-275.5 -180t-181.5 -274.5t-66.5 -342.5q0 -179 66.5 -337.5t181.5 -272t275.5 -179t342.5 -65.5zM1053 266h-60q0 428 4 649q-84 -8 -243 -8v56h538v-56q-159 0 -243 8q4 -221 4 -649z" />
    <glyph glyph-name="U.ss08" 
d="M1020 -315q-197 0 -371.5 71t-298.5 193.5t-196 293.5t-72 365q0 198 72 372.5t196 298.5t298 195.5t372 71.5q200 0 375.5 -71.5t301 -195.5t197.5 -298.5t72 -372.5q0 -259 -123 -470.5t-339.5 -332t-483.5 -120.5zM1020 -244q246 0 445 111t312 306.5t113 436.5
q0 182 -66.5 342.5t-181.5 274.5t-276.5 180t-345.5 66q-182 0 -342.5 -66t-275.5 -180t-181.5 -274.5t-66.5 -342.5q0 -179 66.5 -337.5t181.5 -272t275.5 -179t342.5 -65.5zM1022 258q-119 0 -182.5 68.5t-63.5 195.5v447h60v-447q0 -211 188 -211t188 211v447h60v-447
q0 -126 -65.5 -195t-184.5 -69z" />
    <glyph glyph-name="V.ss08" 
d="M1020 1546q200 0 375.5 -71.5t301 -195.5t197.5 -298.5t72 -372.5q0 -259 -123 -470.5t-339.5 -332t-483.5 -120.5q-197 0 -371.5 71t-298.5 193.5t-196 293.5t-72 365q0 198 72 372.5t196 298.5t298 195.5t372 71.5zM1020 -244q246 0 445 111t312 306.5t113 436.5
q0 182 -66.5 342.5t-181.5 274.5t-276.5 180t-345.5 66q-182 0 -342.5 -66t-275.5 -180t-181.5 -274.5t-66.5 -342.5q0 -179 66.5 -337.5t181.5 -272t275.5 -179t342.5 -65.5zM1028 324q37 103 76.5 206t95 241t76.5 192h63l-286 -697h-56l-286 697h61q146 -339 256 -639z
" />
    <glyph glyph-name="W.ss08" 
d="M1020 1546q200 0 375.5 -71.5t301 -195.5t197.5 -298.5t72 -372.5q0 -259 -123 -470.5t-339.5 -332t-483.5 -120.5q-197 0 -371.5 71t-298.5 193.5t-196 293.5t-72 365q0 198 72 372.5t196 298.5t298 195.5t372 71.5zM1020 -244q246 0 445 111t312 306.5t113 436.5
q0 182 -66.5 342.5t-181.5 274.5t-276.5 180t-345.5 66q-182 0 -342.5 -66t-275.5 -180t-181.5 -274.5t-66.5 -342.5q0 -179 66.5 -337.5t181.5 -272t275.5 -179t342.5 -65.5zM1249 334q111 371 201 629h59l-231 -697h-61q-94 274 -193 625q-101 -360 -193 -625h-61
l-231 697h61q120 -347 203 -629q93 327 192 629h60q75 -231 194 -629z" />
    <glyph glyph-name="X.ss08" 
d="M1020 -315q-197 0 -371.5 71t-298.5 193.5t-196 293.5t-72 365q0 198 72 372.5t196 298.5t298 195.5t372 71.5q200 0 375.5 -71.5t301 -195.5t197.5 -298.5t72 -372.5q0 -259 -123 -470.5t-339.5 -332t-483.5 -120.5zM1020 -244q246 0 445 111t312 306.5t113 436.5
q0 182 -66.5 342.5t-181.5 274.5t-276.5 180t-345.5 66q-182 0 -342.5 -66t-275.5 -180t-181.5 -274.5t-66.5 -342.5q0 -179 66.5 -337.5t181.5 -272t275.5 -179t342.5 -65.5zM811 266h-68q17 24 75 109.5t96.5 140.5t78.5 107v4q-115 152 -243 336h67q93 -127 207 -304
q86 142 205 304h67q-128 -184 -243 -336v-4q40 -52 78.5 -107t96.5 -140.5t75 -109.5h-66q-109 156 -213 324q-73 -118 -213 -324z" />
    <glyph glyph-name="Y.ss08" 
d="M1020 -315q-197 0 -371.5 71t-298.5 193.5t-196 293.5t-72 365q0 198 72 372.5t196 298.5t298 195.5t372 71.5q200 0 375.5 -71.5t301 -195.5t197.5 -298.5t72 -372.5q0 -259 -123 -470.5t-339.5 -332t-483.5 -120.5zM1020 -244q246 0 445 111t312 306.5t113 436.5
q0 182 -66.5 342.5t-181.5 274.5t-276.5 180t-345.5 66q-182 0 -342.5 -66t-275.5 -180t-181.5 -274.5t-66.5 -342.5q0 -179 66.5 -337.5t181.5 -272t275.5 -179t342.5 -65.5zM1053 266h-60q0 174 4 260q-64 101 -268 437h68q123 -203 227 -396q69 132 229 396h64
q-204 -336 -268 -437q4 -86 4 -260z" />
    <glyph glyph-name="Z.ss08" 
d="M1020 -315q-197 0 -371.5 71t-298.5 193.5t-196 293.5t-72 365q0 198 72 372.5t196 298.5t298 195.5t372 71.5q200 0 375.5 -71.5t301 -195.5t197.5 -298.5t72 -372.5q0 -259 -123 -470.5t-339.5 -332t-483.5 -120.5zM1020 -244q246 0 445 111t312 306.5t113 436.5
q0 182 -66.5 342.5t-181.5 274.5t-276.5 180t-345.5 66q-182 0 -342.5 -66t-275.5 -180t-181.5 -274.5t-66.5 -342.5q0 -179 66.5 -337.5t181.5 -272t275.5 -179t342.5 -65.5zM1307 266h-535v47q111 149 459 607q-247 -13 -440 -13v56h507v-45q-90 -121 -260 -342.5
t-200 -260.5q180 9 469 9v-58z" />
    <glyph glyph-name="i.loclTRK" horiz-adv-x="483" 
d="M244 1446q-41 0 -69 28.5t-28 69.5q0 39 28 66.5t69 27.5q39 0 66.5 -27.5t27.5 -66.5q0 -41 -27 -69.5t-67 -28.5zM289 0h-94v1126h94v-1126z" />
    <glyph glyph-name="a.ss01" horiz-adv-x="1378" 
d="M629 -35q-226 0 -376.5 168t-150.5 428q0 262 152 430t379 168q145 0 264 -79t188 -242h21q-16 119 -16 288h94v-1126h-94q0 10 -0.5 60.5t0 73.5t4 69t10.5 90h-21q-67 -164 -186 -246t-268 -82zM639 49q189 0 316.5 150t127.5 368q0 219 -129 363.5t-317 144.5
q-187 0 -309.5 -146t-122.5 -368t123.5 -367t310.5 -145z" />
    <glyph glyph-name="aacute.ss01" horiz-adv-x="1378" 
d="M1038 1673l-311 -395h-84l252 395h143zM629 -35q-226 0 -376.5 168t-150.5 428q0 262 152 430t379 168q145 0 264 -79t188 -242h21q-16 119 -16 288h94v-1126h-94q0 10 -0.5 60.5t0 73.5t4 69t10.5 90h-21q-67 -164 -186 -246t-268 -82zM639 49q189 0 316.5 150
t127.5 368q0 219 -129 363.5t-317 144.5q-187 0 -309.5 -146t-122.5 -368t123.5 -367t310.5 -145z" />
    <glyph glyph-name="abreve.ss01" horiz-adv-x="1378" 
d="M690 1278q-169 0 -267 111t-104 284h91q6 -144 83.5 -226.5t196.5 -82.5t197 82.5t84 226.5h90q-6 -173 -104 -284t-267 -111zM629 -35q-226 0 -376.5 168t-150.5 428q0 262 152 430t379 168q145 0 264 -79t188 -242h21q-16 119 -16 288h94v-1126h-94q0 10 -0.5 60.5
t0 73.5t4 69t10.5 90h-21q-67 -164 -186 -246t-268 -82zM639 49q189 0 316.5 150t127.5 368q0 219 -129 363.5t-317 144.5q-187 0 -309.5 -146t-122.5 -368t123.5 -367t310.5 -145z" />
    <glyph glyph-name="acircumflex.ss01" horiz-adv-x="1378" 
d="M410 1278h-91l297 354h146l297 -354h-90q-66 66 -94.5 95.5t-78 87t-81.5 108.5h-49q-76 -115 -256 -291zM629 -35q-226 0 -376.5 168t-150.5 428q0 262 152 430t379 168q145 0 264 -79t188 -242h21q-16 119 -16 288h94v-1126h-94q0 10 -0.5 60.5t0 73.5t4 69t10.5 90
h-21q-67 -164 -186 -246t-268 -82zM639 49q189 0 316.5 150t127.5 368q0 219 -129 363.5t-317 144.5q-187 0 -309.5 -146t-122.5 -368t123.5 -367t310.5 -145z" />
    <glyph glyph-name="adieresis.ss01" horiz-adv-x="1378" 
d="M522 1391q-38 0 -64 27t-26 65q0 36 26 62t64 26t63 -26t25 -62q0 -39 -25 -65.5t-63 -26.5zM858 1391q-39 0 -64.5 26.5t-25.5 65.5q0 36 25.5 62t64.5 26q36 0 62 -26t26 -62q0 -38 -25.5 -65t-62.5 -27zM629 -35q-226 0 -376.5 168t-150.5 428q0 262 152 430t379 168
q145 0 264 -79t188 -242h21q-16 119 -16 288h94v-1126h-94q0 10 -0.5 60.5t0 73.5t4 69t10.5 90h-21q-67 -164 -186 -246t-268 -82zM639 49q189 0 316.5 150t127.5 368q0 219 -129 363.5t-317 144.5q-187 0 -309.5 -146t-122.5 -368t123.5 -367t310.5 -145z" />
    <glyph glyph-name="agrave.ss01" horiz-adv-x="1378" 
d="M737 1278h-84l-311 395h143zM629 -35q-226 0 -376.5 168t-150.5 428q0 262 152 430t379 168q145 0 264 -79t188 -242h21q-16 119 -16 288h94v-1126h-94q0 10 -0.5 60.5t0 73.5t4 69t10.5 90h-21q-67 -164 -186 -246t-268 -82zM639 49q189 0 316.5 150t127.5 368
q0 219 -129 363.5t-317 144.5q-187 0 -309.5 -146t-122.5 -368t123.5 -367t310.5 -145z" />
    <glyph glyph-name="amacron.ss01" horiz-adv-x="1378" 
d="M1034 1438h-688v88h688v-88zM629 -35q-226 0 -376.5 168t-150.5 428q0 262 152 430t379 168q145 0 264 -79t188 -242h21q-16 119 -16 288h94v-1126h-94q0 10 -0.5 60.5t0 73.5t4 69t10.5 90h-21q-67 -164 -186 -246t-268 -82zM639 49q189 0 316.5 150t127.5 368
q0 219 -129 363.5t-317 144.5q-187 0 -309.5 -146t-122.5 -368t123.5 -367t310.5 -145z" />
    <glyph glyph-name="aogonek.ss01" horiz-adv-x="1378" 
d="M1194 -389q38 0 88 14v-74q-55 -14 -96 -14q-110 0 -184 62.5t-74 164.5q0 75 42.5 131t119.5 105q0 10 -0.5 60.5t0 73.5t4 69t10.5 90h-21q-67 -164 -186 -246t-268 -82q-226 0 -376.5 168t-150.5 428q0 262 152 430t379 168q145 0 264 -79t188 -242h21
q-16 119 -16 288h94v-1126q-87 -50 -131.5 -103.5t-44.5 -119.5q0 -75 54 -120.5t132 -45.5zM639 49q189 0 316.5 150t127.5 368q0 219 -129 363.5t-317 144.5q-187 0 -309.5 -146t-122.5 -368t123.5 -367t310.5 -145z" />
    <glyph glyph-name="aring.ss01" horiz-adv-x="1378" 
d="M690 1245q-94 0 -155.5 60t-61.5 153q0 91 61.5 150t155.5 59q93 0 154 -59.5t61 -149.5q0 -93 -61 -153t-154 -60zM690 1323q60 0 99.5 36t39.5 99q0 60 -39.5 95.5t-99.5 35.5q-62 0 -101.5 -35.5t-39.5 -95.5q0 -63 39.5 -99t101.5 -36zM629 -35q-226 0 -376.5 168
t-150.5 428q0 262 152 430t379 168q145 0 264 -79t188 -242h21q-16 119 -16 288h94v-1126h-94q0 10 -0.5 60.5t0 73.5t4 69t10.5 90h-21q-67 -164 -186 -246t-268 -82zM639 49q189 0 316.5 150t127.5 368q0 219 -129 363.5t-317 144.5q-187 0 -309.5 -146t-122.5 -368
t123.5 -367t310.5 -145z" />
    <glyph glyph-name="atilde.ss01" horiz-adv-x="1378" 
d="M844 1343q-16 0 -30.5 2t-25.5 4.5t-24 9t-19.5 10t-19 13t-16.5 13t-18 15.5t-17 15l-35 31q-2 2 -9 8t-9.5 8t-9 7.5t-9.5 7.5t-9.5 6.5t-10.5 6t-10.5 4.5t-11.5 4t-11.5 2t-13.5 1q-51 0 -83 -43.5t-32 -109.5h-76q2 101 56.5 165t140.5 64q43 0 75.5 -18t71.5 -53
l41 -37q71 -62 121 -62q51 0 79.5 44t28.5 112h76q0 -103 -50.5 -166.5t-139.5 -63.5zM629 -35q-226 0 -376.5 168t-150.5 428q0 262 152 430t379 168q145 0 264 -79t188 -242h21q-16 119 -16 288h94v-1126h-94q0 10 -0.5 60.5t0 73.5t4 69t10.5 90h-21q-67 -164 -186 -246
t-268 -82zM639 49q189 0 316.5 150t127.5 368q0 219 -129 363.5t-317 144.5q-187 0 -309.5 -146t-122.5 -368t123.5 -367t310.5 -145z" />
    <glyph glyph-name="b.ss01" horiz-adv-x="1157" 
d="M653 -35q-260 0 -364 228h-21q5 -19 8.5 -38.5t5 -32t2.5 -35t1 -28.5v-31.5v-27.5h-90v1638h94v-141v-151.5t-0.5 -138.5t-1.5 -153.5t-3 -141t-5 -156.5t-7 -148h21q54 105 147.5 156t212.5 51q193 0 312.5 -123t119.5 -305q0 -180 -120 -301t-312 -121zM653 45
q142 0 240 98t98 246q0 90 -38 166.5t-116.5 126t-183.5 49.5q-160 0 -253 -99.5t-93 -234.5q0 -144 99.5 -248t246.5 -104z" />
    <glyph glyph-name="d.ss01" horiz-adv-x="1370" 
d="M629 -35q-226 0 -376.5 168t-150.5 428q0 262 152 430t379 168q143 0 260 -78.5t186 -242.5h21q-17 311 -17 800h95v-1638h-91q0 160 17 293h-21q-67 -164 -186 -246t-268 -82zM637 49q186 0 316 145t130 369q0 112 -36 208.5t-96.5 162.5t-142 103.5t-171.5 37.5
q-187 0 -309.5 -146t-122.5 -368t123.5 -367t308.5 -145z" />
    <glyph glyph-name="dcaron.ss01" horiz-adv-x="1370" 
d="M629 -35q-226 0 -376.5 168t-150.5 428q0 262 152 430t379 168q143 0 260 -78.5t186 -242.5h21q-17 311 -17 800h95v-1638h-91q0 160 17 293h-21q-67 -164 -186 -246t-268 -82zM1438 1204h-68q25 52 41 83.5t45 77t62 83.5q-95 16 -95 90q0 38 27.5 65t67.5 27
q38 0 65 -27t27 -65q0 -34 -30.5 -91.5t-141.5 -242.5zM637 49q186 0 316 145t130 369q0 112 -36 208.5t-96.5 162.5t-142 103.5t-171.5 37.5q-187 0 -309.5 -146t-122.5 -368t123.5 -367t308.5 -145z" />
    <glyph glyph-name="dcroat.ss01" horiz-adv-x="1370" 
d="M1178 1432h266v-84h-266v-1348h-91q0 160 17 293h-21q-67 -164 -186 -246t-268 -82q-226 0 -376.5 168t-150.5 428q0 262 152 430t379 168q143 0 260 -78.5t186 -242.5h21q-14 251 -17 510h-295v84h295v206h95v-206zM637 49q186 0 316 145t130 369q0 112 -36 208.5
t-96.5 162.5t-142 103.5t-171.5 37.5q-187 0 -309.5 -146t-122.5 -368t123.5 -367t308.5 -145z" />
    <glyph glyph-name="g.ss01" horiz-adv-x="1370" 
d="M1176 -451h-1010v86q610 0 936 -20q-40 473 -4 678h-21q-68 -142 -186.5 -217.5t-263.5 -75.5q-148 0 -268.5 76t-189.5 210t-69 298q0 250 152.5 412.5t376.5 162.5q146 0 264 -79t184 -242h21q-13 129 -13 288h91v-1577zM635 84q184 0 315 144t131 358q0 106 -36 198
t-96.5 155.5t-142 99.5t-171.5 36q-186 0 -309 -141.5t-123 -349.5q0 -211 124 -355.5t308 -144.5z" />
    <glyph glyph-name="gbreve.ss01" horiz-adv-x="1370" 
d="M686 1278q-169 0 -267 111t-104 284h91q6 -144 83.5 -226.5t196.5 -82.5t197 82.5t84 226.5h90q-6 -173 -104 -284t-267 -111zM1176 -451h-1010v86q610 0 936 -20q-40 473 -4 678h-21q-68 -142 -186.5 -217.5t-263.5 -75.5q-148 0 -268.5 76t-189.5 210t-69 298
q0 250 152.5 412.5t376.5 162.5q146 0 264 -79t184 -242h21q-13 129 -13 288h91v-1577zM635 84q184 0 315 144t131 358q0 106 -36 198t-96.5 155.5t-142 99.5t-171.5 36q-186 0 -309 -141.5t-123 -349.5q0 -211 124 -355.5t308 -144.5z" />
    <glyph glyph-name="uni0123.ss01" horiz-adv-x="1370" 
d="M565 1339q0 35 30.5 94t141.5 240h68q-73 -153 -137 -264q42 6 63 -17.5t21 -58.5q0 -40 -26.5 -63t-63.5 -23q-41 0 -69 27t-28 65zM1176 -451h-1010v86q610 0 936 -20q-40 473 -4 678h-21q-68 -142 -186.5 -217.5t-263.5 -75.5q-148 0 -268.5 76t-189.5 210t-69 298
q0 250 152.5 412.5t376.5 162.5q146 0 264 -79t184 -242h21q-13 129 -13 288h91v-1577zM635 84q184 0 315 144t131 358q0 106 -36 198t-96.5 155.5t-142 99.5t-171.5 36q-186 0 -309 -141.5t-123 -349.5q0 -211 124 -355.5t308 -144.5z" />
    <glyph glyph-name="gdotaccent.ss01" horiz-adv-x="1370" 
d="M688 1446q-41 0 -68.5 28.5t-27.5 69.5q0 39 27.5 66.5t68.5 27.5q39 0 66.5 -27.5t27.5 -66.5q0 -41 -27 -69.5t-67 -28.5zM1176 -451h-1010v86q610 0 936 -20q-40 473 -4 678h-21q-68 -142 -186.5 -217.5t-263.5 -75.5q-148 0 -268.5 76t-189.5 210t-69 298
q0 250 152.5 412.5t376.5 162.5q146 0 264 -79t184 -242h21q-13 129 -13 288h91v-1577zM635 84q184 0 315 144t131 358q0 106 -36 198t-96.5 155.5t-142 99.5t-171.5 36q-186 0 -309 -141.5t-123 -349.5q0 -211 124 -355.5t308 -144.5z" />
    <glyph glyph-name="i.ss01" horiz-adv-x="677" 
d="M354 1446q-41 0 -68.5 28.5t-27.5 69.5q0 39 27.5 66.5t68.5 27.5q40 0 67.5 -28t27.5 -66q0 -41 -27.5 -69.5t-67.5 -28.5zM653 0h-346q0 676 21 1061q-123 -21 -308 -21v86h381q0 -693 -20 -1060q104 20 272 20v-86z" />
    <glyph glyph-name="dotlessi.ss01" horiz-adv-x="677" 
d="M653 0h-346q0 231 1 359t8.5 332t21.5 380q-127 -31 -318 -31v86h381q0 -244 -1 -362.5t-8 -326t-21 -382.5q115 31 282 31v-86z" />
    <glyph glyph-name="iacute.ss01" horiz-adv-x="677" 
d="M641 1673l-311 -395h-84l252 395h143zM653 0h-346q0 231 1 359t8.5 332t21.5 380q-127 -31 -318 -31v86h381q0 -244 -1 -362.5t-8 -326t-21 -382.5q115 31 282 31v-86z" />
    <glyph glyph-name="icircumflex.ss01" horiz-adv-x="677" 
d="M12 1278h-90l297 354h146l297 -354h-91q-66 66 -94.5 95.5t-78 87t-81.5 108.5h-49q-76 -115 -256 -291zM653 0h-346q0 231 1 359t8.5 332t21.5 380q-127 -31 -318 -31v86h381q0 -244 -1 -362.5t-8 -326t-21 -382.5q115 31 282 31v-86z" />
    <glyph glyph-name="idieresis.ss01" horiz-adv-x="677" 
d="M125 1391q-38 0 -64 27t-26 65q0 36 26 62t64 26t63 -26t25 -62q0 -39 -25 -65.5t-63 -26.5zM461 1391q-39 0 -64.5 26.5t-25.5 65.5q0 36 25.5 62t64.5 26q36 0 62 -26t26 -62q0 -38 -25.5 -65t-62.5 -27zM653 0h-346q0 231 1 359t8.5 332t21.5 380q-127 -31 -318 -31
v86h381q0 -244 -1 -362.5t-8 -326t-21 -382.5q115 31 282 31v-86z" />
    <glyph glyph-name="i.loclTRK.ss01" horiz-adv-x="677" 
d="M336 1446q-41 0 -68.5 28.5t-27.5 69.5q0 39 27.5 66.5t68.5 27.5q39 0 66.5 -27.5t27.5 -66.5q0 -41 -27 -69.5t-67 -28.5zM653 0h-346q0 231 1 359t8.5 332t21.5 380q-127 -31 -318 -31v86h381q0 -244 -1 -362.5t-8 -326t-21 -382.5q115 31 282 31v-86z" />
    <glyph glyph-name="igrave.ss01" horiz-adv-x="677" 
d="M340 1278h-84l-311 395h143zM653 0h-346q0 231 1 359t8.5 332t21.5 380q-127 -31 -318 -31v86h381q0 -244 -1 -362.5t-8 -326t-21 -382.5q115 31 282 31v-86z" />
    <glyph glyph-name="imacron.ss01" horiz-adv-x="677" 
d="M637 1438h-688v88h688v-88zM653 0h-346q0 231 1 359t8.5 332t21.5 380q-127 -31 -318 -31v86h381q0 -244 -1 -362.5t-8 -326t-21 -382.5q115 31 282 31v-86z" />
    <glyph glyph-name="iogonek.ss01" horiz-adv-x="677" 
d="M295 1446q-41 0 -68.5 28.5t-27.5 69.5q0 39 27.5 66.5t68.5 27.5q39 0 66.5 -27.5t27.5 -66.5q0 -41 -27 -69.5t-67 -28.5zM653 0h-252q-87 -50 -131.5 -103.5t-44.5 -119.5q0 -75 54.5 -120.5t132.5 -45.5q38 0 88 14v-74q-55 -14 -97 -14q-110 0 -184 62.5t-74 164.5
q0 75 42.5 131t119.5 105q0 231 1 359t8.5 332t21.5 380q-127 -31 -318 -31v86h381q0 -244 -1 -362.5t-8 -326t-21 -382.5q115 31 282 31v-86z" />
    <glyph glyph-name="j.ss01" horiz-adv-x="595" 
d="M354 1446q-41 0 -68.5 28.5t-27.5 69.5q0 39 27.5 66.5t68.5 27.5q40 0 67.5 -28t27.5 -66q0 -41 -27.5 -69.5t-67.5 -28.5zM401 -451h-512v86q279 0 439 -20q-30 723 0 1446q-123 -21 -308 -21v86h381v-1577z" />
    <glyph glyph-name="l.ss01" horiz-adv-x="741" 
d="M735 0h-532v1638h94q0 -345 -1 -535.5t-8.5 -491t-21.5 -556.5q176 31 469 31v-86z" />
    <glyph glyph-name="lacute.ss01" horiz-adv-x="741" 
d="M713 2075l-342 -314h-88l268 314h162zM735 0h-532v1638h94q0 -345 -1 -535.5t-8.5 -491t-21.5 -556.5q176 31 469 31v-86z" />
    <glyph glyph-name="lcaron.ss01" horiz-adv-x="741" 
d="M735 0h-532v1638h94q0 -345 -1 -535.5t-8.5 -491t-21.5 -556.5q176 31 469 31v-86zM612 1204h-67q26 55 41 84.5t44 75.5t62 84q-94 16 -94 90q0 38 27 65t67 27q38 0 65 -27t27 -65q0 -34 -30.5 -91.5t-141.5 -242.5z" />
    <glyph glyph-name="uni013C.ss01" horiz-adv-x="741" 
d="M735 0h-532v1638h94q0 -345 -1 -535.5t-8.5 -491t-21.5 -556.5q176 31 469 31v-86zM328 -483h-47q64 127 118 194q-112 0 -112 86q0 38 27 61t67 23q38 0 65 -27t27 -65q0 -35 -28 -86.5t-117 -185.5z" />
    <glyph glyph-name="lslash.ss01" horiz-adv-x="741" 
d="M266 55q176 31 469 31v-86h-532v850l-213 -152v88l213 152v700h94q0 -421 -2 -634l197 141v-88l-197 -142q-6 -441 -29 -860z" />
    </font>
</defs>
</svg>
