<?xml version="1.0" standalone="no"?>
<!DOCTYPE svg PUBLIC "-//W3C//DTD SVG 1.1//EN" "http://www.w3.org/Graphics/SVG/1.1/DTD/svg11.dtd" >
<svg xmlns="http://www.w3.org/2000/svg" xmlns:xlink="http://www.w3.org/1999/xlink" version="1.1">
<metadata>
Created by FontForge 20170731 at Mon Mar 15 14:15:19 2021
 By Aleksey,,,
Copyright (c) 2020 by Matthieu Salvaggio x Blaze Type. All rights reserved.
</metadata>
<defs>
<font id="Area-HairlineInktrapItalic" horiz-adv-x="2048" >
  <font-face 
    font-family="Area Hairline Inktrap Italic"
    font-weight="50"
    font-style="italic"
    font-stretch="normal"
    units-per-em="2048"
    panose-1="0 0 1 0 0 0 0 0 0 0"
    ascent="1638"
    descent="-410"
    x-height="1126"
    cap-height="1597"
    bbox="-1569 -485 2787 2138"
    underline-thickness="102"
    underline-position="-307"
    slope="-10"
    unicode-range="U+0020-25CA"
  />
<missing-glyph horiz-adv-x="1468" 
d="M1163 0h-1054l282 1597h1055zM475 1507l-244 -1378l1057 1378h-813zM1313 1415l-1012 -1319h778z" />
    <glyph glyph-name=".notdef" horiz-adv-x="1468" 
d="M1163 0h-1054l282 1597h1055zM475 1507l-244 -1378l1057 1378h-813zM1313 1415l-1012 -1319h778z" />
    <glyph glyph-name=".null" horiz-adv-x="0" 
 />
    <glyph glyph-name="nonmarkingreturn" horiz-adv-x="682" 
 />
    <glyph glyph-name="space" unicode=" " horiz-adv-x="552" 
 />
    <glyph glyph-name="exclam" unicode="!" horiz-adv-x="509" 
d="M250 358h-60l172 1158l15 81h121l-15 -81zM154 -14q-35 0 -56.5 22t-21.5 55q0 44 34 77.5t78 33.5q33 0 54.5 -21.5t21.5 -54.5q0 -43 -33.5 -77.5t-76.5 -34.5z" />
    <glyph glyph-name="quotedbl" unicode="&#x22;" horiz-adv-x="618" 
d="M354 1188h-100l72 409h100zM580 1188h-101l72 409h100z" />
    <glyph glyph-name="numbersign" unicode="#" horiz-adv-x="1359" 
d="M213 0h-88q154 408 197 512q-92 -20 -250 -20l30 79q158 0 244 -10q47 160 160 447q-94 -21 -248 -21l31 80q157 0 243 -10q53 177 189 540h88q-150 -396 -209 -540q222 15 444 0q53 177 189 540h88q-150 -396 -209 -540q92 10 254 10l-31 -80q-158 0 -250 21
q-55 -199 -159 -447q92 10 254 10l-31 -79q-162 0 -248 20q-70 -226 -176 -512h-88q154 408 197 512q-229 -29 -445 0q-70 -226 -176 -512zM414 561q223 15 444 0q47 160 160 447q-225 -29 -445 0q-55 -199 -159 -447z" />
    <glyph glyph-name="dollar" unicode="$" horiz-adv-x="1161" 
d="M1110 1149l-88 -39q-18 101 -84 171t-172 87l-94 -534q44 -12 65.5 -18.5t65 -22t67.5 -29.5t57 -38.5t50 -51.5t30 -65t13 -83q0 -105 -62 -196t-170.5 -146.5t-240.5 -60.5l-37 -205h-82l37 207q-142 15 -240.5 98.5t-124.5 245.5l90 35q17 -94 62 -158.5t101 -93.5
t126 -39l96 545q-315 82 -315 311q0 154 130 268.5t308 120.5l33 180h82l-33 -184q134 -19 226 -101t104 -204zM356 1092q0 -165 238 -236l90 516q-138 -6 -233 -88t-95 -192zM924 506q0 45 -17 81t-41 59t-63.5 42.5t-71 29.5t-76.5 21l-94 -530q156 4 259.5 89.5
t103.5 207.5z" />
    <glyph glyph-name="percent" unicode="%" horiz-adv-x="1597" 
d="M381 811q-95 0 -149 70.5t-54 191.5q0 110 42.5 212.5t119 168.5t166.5 66q95 0 149 -72.5t54 -194.5q0 -109 -42.5 -210.5t-119 -166.5t-166.5 -65zM190 0h-92l1397 1468h84zM391 883q93 0 163.5 111t70.5 253q0 95 -34.5 147t-94.5 52q-93 0 -163.5 -111.5
t-70.5 -253.5q0 -94 34 -146t95 -52zM1155 -29q-95 0 -149 70.5t-54 191.5q0 110 42.5 212.5t119 168.5t166.5 66q95 0 149 -72t54 -194q0 -109 -42.5 -211t-119 -167t-166.5 -65zM1165 43q93 0 163.5 111.5t70.5 253.5q0 94 -34 146t-95 52q-93 0 -163.5 -111t-70.5 -253
q0 -95 34.5 -147t94.5 -52z" />
    <glyph glyph-name="ampersand" unicode="&#x26;" horiz-adv-x="1355" 
d="M442 -35q-104 0 -189 36t-138.5 111.5t-53.5 180.5q0 314 488 536q-92 110 -147.5 211t-55.5 207q0 160 127 271.5t297 111.5q142 0 223.5 -80t81.5 -200q0 -137 -111 -271t-313 -243l336 -439q116 241 168 373l84 -20q-111 -262 -225 -394l280 -354h-110l-221 281
q-219 -318 -521 -318zM623 874q9 7 27 20q143 109 202 171q117 126 117 264q0 104 -59.5 157.5t-159.5 53.5q-130 0 -215.5 -82t-85.5 -205q0 -48 13 -96t42.5 -101t52.5 -87t66 -95zM457 55q129 0 245 69.5t236 194.5l-360 472q-157 -106 -190 -131q-171 -130 -209 -260
q-13 -44 -13 -89q0 -120 82.5 -188t208.5 -68z" />
    <glyph glyph-name="quotesingle" unicode="'" horiz-adv-x="393" 
d="M354 1188h-100l72 409h100z" />
    <glyph glyph-name="parenleft" unicode="(" horiz-adv-x="589" 
d="M397 -307h-98q-199 298 -199 692q0 320 141.5 642t393.5 570h98q-246 -244 -386 -569.5t-140 -650.5q0 -392 190 -684z" />
    <glyph glyph-name="parenright" unicode=")" horiz-adv-x="587" 
d="M-16 -307h-99q246 245 387.5 570.5t141.5 649.5q0 389 -193 684h98q199 -298 199 -692q0 -321 -142 -644.5t-392 -567.5z" />
    <glyph glyph-name="asterisk" unicode="*" horiz-adv-x="851" 
d="M543 1024h-78l39 217l-211 -108l-27 67l209 111l-170 110l51 68l172 -109l37 217h78l-37 -217l209 109l27 -68l-207 -110l168 -111l-51 -67l-170 108z" />
    <glyph glyph-name="plus" unicode="+" horiz-adv-x="976" 
d="M555 672h301l-16 -94h-301l-56 -312h-94l55 312h-301l17 94h301l55 311h94z" />
    <glyph glyph-name="comma" unicode="," horiz-adv-x="417" 
d="M10 -252h-67q38 59 58.5 88t56 73t75.5 83q-80 14 -80 74q0 42 34 75t79 33q33 0 54.5 -21.5t21.5 -54.5q0 -35 -39.5 -94.5t-192.5 -255.5z" />
    <glyph glyph-name="hyphen" unicode="-" horiz-adv-x="755" 
d="M643 582h-524l14 84h524z" />
    <glyph glyph-name="period" unicode="." horiz-adv-x="452" 
d="M143 -14q-35 0 -56 22t-21 55q0 44 34 77.5t78 33.5q33 0 54.5 -21.5t21.5 -54.5q0 -43 -34 -77.5t-77 -34.5z" />
    <glyph glyph-name="slash" unicode="/" horiz-adv-x="835" 
d="M63 -135h-94l871 1773h94z" />
    <glyph glyph-name="zero" unicode="0" horiz-adv-x="1435" 
d="M610 -35q-215 0 -337.5 163.5t-122.5 446.5q0 193 59 383.5t158.5 339t242.5 240.5t299 92q215 0 338 -164.5t123 -449.5q0 -128 -26.5 -257.5t-74 -245.5t-117 -217t-152 -174t-183.5 -115t-207 -42zM629 59q132 0 251.5 84t201.5 219.5t130 306.5t48 343
q0 246 -96.5 385t-268.5 139q-106 0 -205 -54.5t-176 -148.5t-135.5 -214t-89.5 -258.5t-31 -274.5q0 -246 99 -386.5t272 -140.5z" />
    <glyph glyph-name="one" unicode="1" horiz-adv-x="768" 
d="M436 0h-100q5 29 31.5 177t32.5 183t28.5 161t32.5 176.5t30.5 159t35 179.5t35 167.5t40.5 189.5q-182 -223 -452 -254l16 90q179 26 306.5 129t150.5 239h94z" />
    <glyph glyph-name="two" unicode="2" horiz-adv-x="1251" 
d="M1055 0h-1024v4q30 103 72 183.5t80.5 133.5t118 116t132.5 98t176 112q57 36 88 55q441 274 441 551q0 131 -89.5 209t-238.5 78q-192 0 -335.5 -125.5t-178.5 -324.5l-86 16q40 229 211 376.5t405 147.5q189 0 301.5 -98.5t112.5 -265.5q0 -85 -33 -168t-76.5 -141.5
t-110 -119.5t-106.5 -90t-94 -65q-64 -43 -154 -99t-141 -87.5t-116.5 -80t-107 -92.5t-85 -107t-76.5 -140q326 20 930 20z" />
    <glyph glyph-name="three" unicode="3" horiz-adv-x="1288" 
d="M535 -35q-195 0 -325.5 99.5t-152.5 265.5l93 43q23 -145 133 -231.5t272 -86.5q103 0 194.5 36t154.5 96t99.5 138.5t36.5 161.5q0 136 -99.5 214.5t-299.5 78.5h-158l15 86h178q193 0 323.5 114t130.5 277q0 134 -90.5 208.5t-240.5 74.5q-163 0 -289 -87t-178 -243
l-86 17q60 187 218.5 295t354.5 108q180 0 299 -91.5t119 -248.5q0 -160 -109 -291t-270 -165l-2 -21q141 -19 216 -97.5t75 -207.5q0 -102 -46.5 -200.5t-126 -174t-195 -122t-244.5 -46.5z" />
    <glyph glyph-name="four" unicode="4" horiz-adv-x="1300" 
d="M883 0h-101q47 263 97 430q-401 -26 -856 -10l18 102l1022 1075h100q-124 -715 -215 -1112q109 21 266 21l-16 -96q-162 0 -260 20q-7 -166 -55 -430zM143 496q392 16 746 -11q54 463 168 1014q-140 -159 -296 -330t-337 -367t-281 -306z" />
    <glyph glyph-name="five" unicode="5" horiz-adv-x="1286" 
d="M524 -35q-190 0 -329 99t-166 266l92 43q32 -146 147.5 -232t272.5 -86q110 0 210 44.5t170 116.5t111 166.5t41 192.5q0 155 -97 250t-257 95q-130 0 -249 -62.5t-198 -165.5l-71 43l336 862h739l-16 -90q-437 0 -689 21q-95 -332 -272 -723h14q69 89 186 144t249 55
q189 0 310.5 -112.5t121.5 -301.5q0 -94 -32 -186t-92 -170.5t-139.5 -139t-181.5 -95t-211 -34.5z" />
    <glyph glyph-name="six" unicode="6" horiz-adv-x="1347" 
d="M594 -35q-216 0 -336.5 143t-120.5 410q0 163 44.5 326t127.5 303t192 249t248.5 171.5t286.5 62.5q197 0 318 -104l-82 -72q-106 86 -268 86q-128 0 -248 -57.5t-223.5 -166t-184.5 -276.5t-125 -378h21q48 114 139.5 199.5t199 128t216.5 42.5q187 0 313.5 -121.5
t126.5 -318.5q0 -160 -86 -304.5t-236 -233.5t-323 -89zM614 55q136 0 257.5 74.5t193.5 197.5t72 259q0 163 -102.5 262.5t-262.5 99.5q-103 0 -201 -45t-169.5 -117.5t-114.5 -168.5t-43 -195q0 -161 104 -264t266 -103z" />
    <glyph glyph-name="seven" unicode="7" horiz-adv-x="1189" 
d="M303 0h-100q38 213 185 502t368.5 576t449.5 468l-8 15q-71 -6 -140.5 -11t-153.5 -8t-134 -4.5t-152 -2.5t-133 -1h-152h-138l16 96h1126l-18 -106q-227 -179 -448.5 -454.5t-375.5 -564t-192 -505.5z" />
    <glyph glyph-name="eight" unicode="8" horiz-adv-x="1320" 
d="M559 -35q-205 0 -336 105t-131 282q0 169 117 303t301 172l4 25q-112 38 -168.5 113t-56.5 180q0 124 74.5 235.5t205.5 180.5t283 69q182 0 297 -95.5t115 -250.5q0 -145 -98.5 -265.5t-256.5 -166.5l-4 -25q134 -30 205.5 -117t71.5 -214q0 -139 -82 -261t-226 -196
t-315 -74zM717 872q91 0 174.5 33.5t142.5 88.5t94 127.5t35 148.5q0 126 -90.5 201t-238.5 75q-185 0 -315 -113t-130 -272q0 -132 92.5 -210.5t235.5 -78.5zM571 51q108 0 203 37.5t161 99.5t104 143.5t38 168.5q0 138 -95 216.5t-273 78.5q-225 0 -366.5 -118
t-141.5 -300q0 -153 102.5 -239.5t267.5 -86.5z" />
    <glyph glyph-name="nine" unicode="9" horiz-adv-x="1374" 
d="M518 -35q-129 0 -246.5 60.5t-199.5 185.5l84 61q78 -117 169.5 -167t202.5 -50q133 0 249 66t203 185.5t150 281.5t97 358h-21q-76 -203 -232 -313.5t-331 -110.5q-187 0 -312.5 123t-125.5 328q0 100 32 197t93 179.5t141.5 145.5t184.5 99t216 36q74 0 136.5 -15
t121.5 -53.5t100.5 -98t66 -153.5t24.5 -216q0 -128 -27 -262.5t-76 -259.5t-121.5 -236t-159.5 -193t-195.5 -130t-223.5 -48zM662 606q142 0 269 85t201 219.5t74 277.5q0 167 -101.5 261.5t-260.5 94.5q-146 0 -270.5 -79.5t-195.5 -209t-71 -274.5q0 -172 100 -273.5
t255 -101.5z" />
    <glyph glyph-name="colon" unicode=":" horiz-adv-x="491" 
d="M319 971q-34 0 -55.5 22.5t-21.5 55.5q0 44 34 77t78 33q32 0 54 -22t22 -54q0 -43 -34 -77.5t-77 -34.5zM145 -14q-35 0 -56 22t-21 55q0 44 34 77.5t78 33.5q33 0 54.5 -21.5t21.5 -54.5q0 -43 -34 -77.5t-77 -34.5z" />
    <glyph glyph-name="semicolon" unicode=";" horiz-adv-x="569" 
d="M371 971q-35 0 -56.5 22.5t-21.5 55.5q0 44 33.5 77t76.5 33q34 0 56 -22t22 -54q0 -43 -33.5 -77.5t-76.5 -34.5zM76 -252h-68l160 244q-49 15 -49 69q0 45 33.5 79t78.5 34q33 0 54.5 -21.5t21.5 -54.5q0 -36 -39.5 -95.5t-191.5 -254.5z" />
    <glyph glyph-name="less" unicode="&#x3c;" horiz-adv-x="1019" 
d="M823 426l-16 -94l-653 246l16 94l739 246l-16 -95l-612 -198z" />
    <glyph glyph-name="equal" unicode="=" horiz-adv-x="1026" 
d="M901 782h-696l16 95h697zM829 373h-696l17 94h696z" />
    <glyph glyph-name="greater" unicode="&#x3e;" horiz-adv-x="1021" 
d="M874 578l-739 -246l17 94l612 199l-543 198l17 95l653 -246z" />
    <glyph glyph-name="question" unicode="?" horiz-adv-x="1054" 
d="M455 414h-88q3 43 6 59q9 47 28 88t40 70.5t63 67t73.5 61.5t94.5 69q309 221 309 449q0 123 -83 194.5t-208 71.5q-140 0 -259.5 -92t-147.5 -248q-7 -44 -7 -74l-86 17q0 44 7 72q30 178 179.5 294.5t334.5 116.5q158 0 265 -89.5t107 -244.5q0 -54 -15.5 -108
t-37.5 -97t-58.5 -89t-67 -77t-74.5 -68t-69 -55.5t-63 -45.5q-57 -41 -87 -65.5t-66.5 -61.5t-56 -76.5t-27.5 -87.5q-6 -48 -6 -51zM365 -14q-35 0 -56.5 22t-21.5 55q0 44 33.5 77.5t76.5 33.5q34 0 56 -22t22 -54q0 -43 -33.5 -77.5t-76.5 -34.5z" />
    <glyph glyph-name="at" unicode="@" horiz-adv-x="1968" 
d="M768 -195q-212 0 -366.5 85t-231 229t-76.5 330q0 143 47.5 290t130.5 276t199.5 243t249 196t286 129t304.5 47q189 0 337 -70.5t235 -210.5t87 -331q0 -146 -51 -293t-133 -259t-191.5 -182.5t-220.5 -70.5q-112 0 -149.5 72.5t6.5 203.5h-4q-104 -132 -221 -194
t-226 -62q-126 0 -200 85t-74 219q0 91 35.5 187.5t97.5 179.5t139 149.5t167.5 104.5t176.5 38q110 0 182 -65t95 -197h2q27 144 65 235h82l-217 -616q-8 -22 -12.5 -35.5t-12 -44t-9 -51t1.5 -47t14.5 -43t34.5 -28t57 -11.5q109 0 217 102t176 265.5t68 332.5
q0 251 -154 401t-418 150q-137 0 -275.5 -43.5t-258 -118.5t-224 -180t-178.5 -223t-116.5 -252t-42.5 -264q0 -256 158 -411.5t444 -155.5q159 0 312 48t276 134l36 -72q-147 -99 -319.5 -150t-337.5 -51zM821 317q94 0 187 52t161.5 133t111 183t42.5 198
q0 108 -54.5 168.5t-158.5 60.5q-126 0 -244 -85.5t-188 -215.5t-70 -260q0 -109 54 -171.5t159 -62.5z" />
    <glyph glyph-name="A" unicode="A" horiz-adv-x="1490" 
d="M43 0h-106l942 1597h102l377 -1597h-107q-91 377 -116 604l-17 17q-27 -2 -82.5 -6.5t-91 -7t-86 -5t-94.5 -2.5q-120 0 -361 21l-22 -19q-119 -228 -338 -602zM430 690l10 -20q238 20 344 20q117 0 301 -20l15 18q-120 445 -170 799h-41q-197 -389 -459 -797z" />
    <glyph glyph-name="B" unicode="B" horiz-adv-x="1458" 
d="M766 0h-635l283 1597h544q214 0 329.5 -101t115.5 -251q0 -149 -101 -265t-262 -153l-6 -32q100 -16 167 -63t94.5 -108t27.5 -135q0 -125 -74.5 -237.5t-204 -182t-278.5 -69.5zM362 852l13 -23q173 19 450 19q140 0 249 53t165.5 137.5t56.5 182.5q0 131 -101.5 208.5
t-272.5 77.5q-253 0 -424 19l-21 -19q-26 -310 -115 -655zM227 90l15 -18q182 18 501 18q210 0 340.5 111t130.5 266q0 132 -98.5 211.5t-275.5 79.5q-305 0 -473 18l-21 -22q-36 -352 -119 -664z" />
    <glyph glyph-name="C" unicode="C" horiz-adv-x="1724" 
d="M813 -35q-309 0 -490.5 180.5t-181.5 483.5q0 191 75.5 373.5t202.5 320.5t306 222.5t373 84.5q109 0 209 -27t185.5 -80.5t144 -143.5t75.5 -205l-96 -37q-40 191 -187.5 295t-349.5 104q-170 0 -325 -76t-264.5 -199.5t-174.5 -286t-65 -331.5q0 -116 31.5 -213
t87 -164.5t131 -114.5t163 -69.5t183.5 -22.5q133 0 252.5 42t210.5 115t159.5 161.5t114.5 191.5l82 -32q-56 -117 -135 -216.5t-184 -181t-242.5 -128t-290.5 -46.5z" />
    <glyph glyph-name="D" unicode="D" horiz-adv-x="1654" 
d="M696 0h-565l283 1597h547q165 0 288 -44t198 -126.5t111.5 -193t36.5 -250.5q0 -150 -41 -294.5t-120 -268.5t-186.5 -218.5t-250 -148t-301.5 -53.5zM227 90l15 -18q178 18 491 18q133 0 253.5 48t210.5 131t157 192.5t101 236.5t34 258q0 263 -142 407t-423 144
q-266 0 -426 19l-21 -19q-93 -692 -250 -1417z" />
    <glyph glyph-name="E" unicode="E" horiz-adv-x="1349" 
d="M1145 0h-1014l283 1597h993l-16 -90q-51 0 -209.5 -1t-237 -0.5t-207.5 5.5t-239 15l-21 -19q-27 -318 -110 -635l12 -22q309 18 858 18l-16 -90q-534 0 -850 19l-21 -23q-36 -346 -123 -684l15 -18q315 24 919 24z" />
    <glyph glyph-name="F" unicode="F" horiz-adv-x="1277" 
d="M231 0h-100l283 1597h972l-18 -98q-565 0 -870 27l-21 -19q-29 -330 -112 -645l12 -22q301 18 837 18l-16 -90q-530 0 -829 18l-21 -22q-33 -285 -117 -764z" />
    <glyph glyph-name="G" unicode="G" horiz-adv-x="1800" 
d="M805 -35q-142 0 -262.5 43t-211 124.5t-141.5 208t-51 284.5q0 129 34.5 255.5t95.5 237t150 205.5t193.5 162.5t229 106t254.5 38.5q109 0 209 -27t185.5 -80.5t144 -143.5t75.5 -205l-96 -37q-40 191 -187.5 295t-349.5 104q-170 0 -325 -75.5t-264.5 -199
t-174.5 -286.5t-65 -332q0 -116 31 -213t85 -164.5t128 -115t159 -69.5t178 -22q273 0 482.5 177t290.5 460l-9 15q-422 -35 -610 -35l16 90h695l-135 -766h-89q5 27 14.5 91t16.5 106t21 104t30 115h-20q-118 -217 -304 -334t-423 -117z" />
    <glyph glyph-name="H" unicode="H" horiz-adv-x="1654" 
d="M231 0h-100l283 1597h100q-93 -514 -149 -733l12 -22q539 23 999 0l21 22q30 275 112 733h101l-283 -1597h-100q87 498 153 766l-12 22q-492 -47 -999 0l-21 -22q-7 -65 -16 -136t-16 -121.5t-20.5 -133.5t-19.5 -118t-23 -133t-22 -124z" />
    <glyph glyph-name="I" unicode="I" horiz-adv-x="559" 
d="M231 0h-100l283 1597h100z" />
    <glyph glyph-name="J" unicode="J" horiz-adv-x="1173" 
d="M428 -35q-49 0 -94.5 7.5t-91 25t-82.5 45t-67.5 67t-45.5 92t-18.5 119.5t14.5 150l8 41l92 12l-6 -32q-13 -85 -11 -150.5t24 -114t51.5 -81.5t71 -53t83 -29t86.5 -9q69 0 126.5 21t97 51t73 80t52 89.5t35.5 100t23 91t15 81.5l183 1028h100l-174 -991
q-8 -46 -13.5 -74.5t-19.5 -85t-28 -95t-39 -93t-52.5 -92t-68 -78.5t-86.5 -65.5t-107 -41t-131 -16.5z" />
    <glyph glyph-name="K" unicode="K" horiz-adv-x="1333" 
d="M231 0h-100l283 1597h100q-5 -26 -27 -151.5t-29 -162t-26.5 -139t-32 -159.5t-32.5 -141t-41 -160h20q268 250 1014 913h123q-14 -12 -139.5 -124t-170 -150.5t-145 -126t-179.5 -153t-159 -128.5l-4 -22q266 -411 555 -893h-123q-318 509 -497 842h-19
q-127 -150 -278 -260q-28 -216 -93 -582z" />
    <glyph glyph-name="L" unicode="L" horiz-adv-x="1206" 
d="M1083 0h-952l283 1597h100q-179 -1004 -287 -1507l15 -18q293 24 858 24z" />
    <glyph glyph-name="M" unicode="M" horiz-adv-x="2056" 
d="M231 0h-100l283 1597h98q245 -741 428 -1486h21q529 855 952 1486h98l-282 -1597h-101q13 75 46 265.5t52.5 297.5t50.5 269.5t64 309.5t70 290h-21q-389 -623 -905 -1432h-111q-228 795 -401 1432h-20q-13 -144 -31.5 -288.5t-45 -307.5t-44 -267t-53 -298.5
t-48.5 -270.5z" />
    <glyph glyph-name="N" unicode="N" horiz-adv-x="1695" 
d="M231 0h-100l283 1597h92q390 -688 790 -1464h21q12 106 26 210.5t32 222.5t30.5 198.5t36 218t34 195.5t38.5 217t36 202h101l-283 -1597h-92q-477 839 -795 1444h-20q-16 -144 -36 -287.5t-47 -309.5t-44.5 -266.5t-53.5 -304t-49 -276.5z" />
    <glyph glyph-name="O" unicode="O" horiz-adv-x="1822" 
d="M807 -35q-192 0 -344 85t-238 240t-86 353q0 188 79 369.5t209 316.5t307.5 218t365.5 83q196 0 348.5 -88.5t235.5 -243.5t83 -350q0 -188 -79.5 -368.5t-209.5 -315t-307.5 -217t-363.5 -82.5zM825 59q107 0 213 34t197 93t169 142.5t133 179.5t86.5 206.5t31.5 221.5
q0 175 -74.5 312.5t-204.5 212.5t-293 75q-159 0 -312 -73.5t-267 -193t-184 -281t-70 -329.5q0 -132 44 -244.5t120.5 -190t182.5 -121.5t228 -44z" />
    <glyph glyph-name="P" unicode="P" horiz-adv-x="1359" 
d="M231 0h-100l283 1597h544q21 0 40.5 -1t67.5 -8t87 -20t87 -41t81 -66.5t55.5 -100.5t22.5 -139q0 -149 -73.5 -278.5t-205.5 -208.5t-291 -79q-129 0 -191.5 1t-147.5 8t-158 22q-29 -280 -101 -686zM346 750l12 -23q164 18 449 18q212 0 347.5 127t135.5 318
q0 154 -96 235.5t-272 81.5q-264 0 -424 19l-21 -19q-41 -390 -131 -757z" />
    <glyph glyph-name="Q" unicode="Q" horiz-adv-x="1822" 
d="M1524 -117l-80 -59q-5 7 -30 45t-32 49t-27 43t-30.5 51t-26 48t-28.5 57q-215 -152 -463 -152q-292 0 -480 189t-188 491q0 188 79 369t209.5 316t308 217.5t364.5 82.5q147 0 272 -51.5t211.5 -142t135 -215.5t48.5 -269q0 -235 -118 -450t-326 -352l26 -28t26 -30.5
t23 -28.5t24 -31.5t20.5 -28.5t22 -31.5t19.5 -28.5t20.5 -31t19.5 -29zM831 59q186 0 406 109q-113 137 -289 399l80 60q172 -258 262 -426q170 153 267.5 345t97.5 392q0 174 -74.5 311t-204.5 212t-293 75q-159 0 -312 -73.5t-267 -193t-184 -281t-70 -329.5
q0 -267 164 -433.5t417 -166.5z" />
    <glyph glyph-name="R" unicode="R" horiz-adv-x="1415" 
d="M231 0h-100l283 1597h544q21 0 40.5 -1t67.5 -8t87 -20t87 -41.5t81 -67t55.5 -100.5t22.5 -140q0 -139 -65 -257.5t-185.5 -194.5t-274.5 -89l-2 -21q53 -97 105.5 -202t124.5 -253.5t98 -201.5h-110l-326 655q-278 0 -432 31q-29 -280 -101 -686zM346 750l12 -23
q164 18 449 18q212 0 347.5 127t135.5 318q0 154 -96 235.5t-272 81.5q-252 0 -424 19l-21 -19q-41 -389 -131 -757z" />
    <glyph glyph-name="S" unicode="S" horiz-adv-x="1308" 
d="M575 -35q-70 0 -134.5 13.5t-130 47t-115.5 85t-86 134t-46 187.5l99 35q17 -193 135 -300.5t301 -107.5q201 0 339 117.5t138 278.5q0 28 -5 53t-13 44.5t-22.5 37.5t-27 30.5t-34.5 25.5t-37 20.5t-41.5 17.5t-42 15t-44 14t-42.5 14l-141 47q-37 12 -64.5 22t-69 29
t-71.5 38.5t-63.5 49.5t-55 63.5t-35.5 78.5t-14 96q0 95 45.5 183.5t123 153t185.5 103.5t228 39q200 0 319.5 -104t138.5 -281l-94 -37q-21 150 -124.5 239t-266.5 89q-188 0 -317.5 -106.5t-129.5 -251.5q0 -41 13 -78.5t30.5 -63.5t48 -51t53 -39.5t58.5 -30t51.5 -21
t44.5 -15.5l144 -50q140 -48 168 -60q157 -67 200 -179q19 -49 19 -109q0 -98 -49 -192t-131 -165.5t-197 -115t-238 -43.5z" />
    <glyph glyph-name="T" unicode="T" horiz-adv-x="1286" 
d="M594 0h-100q5 25 27 150.5t29.5 167.5t28.5 160t32 177.5t31 167.5t35 182t33.5 170t37 182.5t36.5 170.5q-224 -21 -589 -21l16 90h1231l-17 -90q-366 0 -581 21q-14 -102 -30.5 -210.5t-28.5 -188t-32 -203.5t-29 -178t-33.5 -196.5t-30 -174.5t-34.5 -195.5
t-32 -181.5z" />
    <glyph glyph-name="U" unicode="U" horiz-adv-x="1546" 
d="M666 -35q-124 0 -218 34t-158.5 106.5t-83.5 186t7 273.5l182 1032h101l-183 -1028q-22 -141 -8.5 -238.5t67 -159t130.5 -89t182 -27.5t192.5 28t161.5 87.5t125.5 160.5t75.5 238l182 1028h101l-183 -1032q-50 -282 -223.5 -441t-449.5 -159z" />
    <glyph glyph-name="V" unicode="V" horiz-adv-x="1490" 
d="M698 0h-102l-377 1597h107l331 -1507h21q123 223 266 475t318.5 557t271.5 475h106z" />
    <glyph glyph-name="W" unicode="W" horiz-adv-x="2312" 
d="M592 0h-117l-250 1597h103q54 -325 82.5 -502t67.5 -457.5t67 -533.5h20q243 526 719 1493h111q134 -925 196 -1493h21q350 745 739 1493h103l-816 -1597h-116q-123 781 -193 1487h-20q-346 -769 -717 -1487z" />
    <glyph glyph-name="X" unicode="X" horiz-adv-x="1304" 
d="M45 0h-113q30 34 147 170.5t160.5 186t130 148.5t150 170t125.5 138l4 21q-201 344 -418 763h113q237 -443 356 -710h21q224 286 608 710h113q-415 -469 -688 -763l-4 -21q69 -119 135.5 -245.5t165 -320.5t125.5 -247h-111q-222 437 -365 762h-20
q-78 -100 -169.5 -211.5t-145 -175t-170 -199.5t-150.5 -176z" />
    <glyph glyph-name="Y" unicode="Y" horiz-adv-x="1398" 
d="M649 0h-100q79 433 117 596q-248 548 -439 1001h111q255 -602 371 -929h20q56 79 120 167t108 147t125.5 165t109.5 142t126.5 162t113.5 146h106q-63 -80 -221.5 -282.5t-293 -372t-278.5 -346.5q-33 -247 -96 -596z" />
    <glyph glyph-name="Z" unicode="Z" horiz-adv-x="1327" 
d="M1171 0h-1216l14 86q261 284 761.5 817t572.5 610l-7 21q-481 -27 -1032 -27l17 90h1155l-15 -79q-196 -213 -418.5 -450t-490.5 -520.5t-426 -451.5l8 -20q375 20 1094 20z" />
    <glyph glyph-name="bracketleft" unicode="[" horiz-adv-x="620" 
d="M422 -307h-367l336 1904h367l-15 -84q-177 0 -288 21q-120 -854 -316 -1778q121 21 297 21z" />
    <glyph glyph-name="backslash" unicode="\" horiz-adv-x="829" 
d="M618 -135h-94l-243 1773h94z" />
    <glyph glyph-name="bracketright" unicode="]" horiz-adv-x="620" 
d="M260 -307h-366l14 84q178 0 289 -21q131 910 315 1778q-121 -21 -297 -21l14 84h367z" />
    <glyph glyph-name="asciicircum" unicode="^" horiz-adv-x="843" 
d="M317 1065h-100l340 532h102l152 -532h-100q-75 270 -105 440h-28q-115 -207 -261 -440z" />
    <glyph glyph-name="underscore" unicode="_" horiz-adv-x="999" 
d="M844 -217h-955l15 84h954z" />
    <glyph glyph-name="a" unicode="a" horiz-adv-x="1167" 
d="M350 -35q-88 0 -155 24t-108.5 79.5t-41.5 138.5q0 80 37.5 145.5t106 112t153 78.5t188.5 53q24 5 65.5 12t66.5 12t61 13t58.5 16t50 20t44 27.5t31.5 35t22 45.5t7 57q0 103 -73.5 172t-198.5 69q-123 0 -222 -69t-155 -185l-88 33q49 101 132 172t173 102t184 31
q58 0 111 -12.5t102.5 -39.5t81.5 -70t47 -104t0 -142l-78 -439q-20 -111 -25.5 -184.5t1.5 -167.5h-97q-11 150 35 281h-20q-180 -316 -496 -316zM369 47q97 0 189 42t156 105.5t106 133.5t52 131l33 192q-59 -59 -110 -79t-193 -46q-42 -8 -72 -14t-81.5 -20t-88 -29
t-79.5 -39t-70 -51.5t-45.5 -66.5t-18.5 -83q0 -84 59 -130t163 -46z" />
    <glyph glyph-name="b" unicode="b" horiz-adv-x="1368" 
d="M639 -35q-147 0 -253 78t-148 229h-21q1 -38 -2 -79t-6.5 -64.5t-11.5 -68.5t-11 -60h-90l289 1638h94q-5 -31 -23 -137t-28.5 -164t-28 -152t-36 -178.5t-39.5 -166.5h20q98 164 230 241.5t276 77.5q195 0 313.5 -128.5t118.5 -344.5q0 -137 -50.5 -268t-136 -231
t-205.5 -161t-251 -61zM645 49q142 0 267 89.5t196.5 233t71.5 300.5q0 183 -97.5 293t-257.5 110q-143 0 -270 -88t-201.5 -231t-74.5 -299q0 -186 103 -297t263 -111z" />
    <glyph glyph-name="c" unicode="c" horiz-adv-x="1236" 
d="M549 -35q-214 0 -337.5 127t-123.5 346q0 138 51 269t138.5 231t214 160.5t268.5 60.5q72 0 135.5 -15.5t122.5 -50t102 -97t62 -148.5l-101 -33q-25 123 -115 191.5t-225 68.5q-117 0 -221 -53.5t-174.5 -141t-111.5 -200t-41 -229.5q0 -186 100.5 -294t275.5 -108
q160 0 287.5 89t208.5 231l80 -27q-99 -185 -258 -281t-338 -96z" />
    <glyph glyph-name="d" unicode="d" horiz-adv-x="1372" 
d="M520 -35q-195 0 -313.5 128.5t-118.5 344.5q0 137 51.5 269t137 231t206 160t250.5 61q145 0 248.5 -78.5t144.5 -242.5h21q36 321 125 800h94l-227 -1286q-23 -129 -28 -210.5t3 -141.5h-96q-8 63 -0.5 133t37.5 160h-21q-96 -164 -230.5 -246t-283.5 -82zM545 49
q108 0 209.5 53t175 138.5t118 199t44.5 230.5q0 183 -103 294t-264 111q-143 0 -267 -89.5t-194.5 -233.5t-70.5 -301q0 -182 96 -292t256 -110z" />
    <glyph glyph-name="e" unicode="e" horiz-adv-x="1261" 
d="M541 -35q-207 0 -330 127t-123 346q0 138 51.5 269t139 231t212.5 160.5t263 60.5q38 0 74.5 -4.5t79 -16t78 -31t71.5 -49.5t59 -71.5t40.5 -97t17 -125.5t-12.5 -158l-8 -49h-952q-38 -224 62 -366t300 -142q158 0 285 90t207 230l80 -27q-96 -181 -254.5 -279
t-339.5 -98zM221 645h844q19 96 5.5 168.5t-44 122t-79.5 80.5t-101.5 45t-110.5 14q-176 0 -315.5 -118.5t-198.5 -311.5z" />
    <glyph glyph-name="f" unicode="f" horiz-adv-x="684" 
d="M223 0h-94q6 32 34.5 191.5t41.5 227t38 198t47.5 238t47.5 212.5q-82 -20 -195 -20l15 79q112 0 186 -20q-7 82 12 182q7 41 12 66t14.5 62t18.5 60t23.5 53t31.5 48.5t41 39t52 31.5t65 18t80 7q134 0 211 -59l-16 -94q-89 69 -197 69q-31 0 -57 -5t-45.5 -12
t-36.5 -21.5t-28.5 -26.5t-22 -35.5t-16.5 -39.5t-13 -46.5t-10.5 -48.5t-9.5 -54q-19 -114 -56 -194q141 20 375 20l-14 -79q-234 0 -367 20q-44 -361 -168 -1067z" />
    <glyph glyph-name="g" unicode="g" horiz-adv-x="1368" 
d="M475 -483q-376 0 -436 331l92 29q21 -130 112 -203t251 -73q412 0 510 522q2 10 5.5 30t5 27.5t5 23.5t7 27t9 27.5t13.5 34.5h-21q-93 -139 -226 -216t-276 -77q-123 0 -220.5 54.5t-155.5 161.5t-58 251q0 111 35 217.5t96.5 191t141 149t172.5 99.5t186 35
q149 0 254 -86t147 -235h21q5 83 39 288h90l-172 -979q-112 -630 -627 -630zM549 84q141 0 268 86t202 224.5t75 287.5q0 176 -104.5 284.5t-264.5 108.5q-141 0 -263.5 -84.5t-193.5 -221.5t-71 -288q0 -176 96.5 -286.5t255.5 -110.5z" />
    <glyph glyph-name="h" unicode="h" horiz-adv-x="1292" 
d="M190 0h-94l289 1638h94q-70 -385 -166 -764h21q187 285 471 285q53 0 100 -9.5t91.5 -31t76.5 -56.5t54.5 -85.5t25.5 -118t-10 -153.5l-125 -705h-94l116 664q19 96 9.5 166.5t-32.5 117.5t-63.5 75t-84 40t-93.5 12q-93 0 -177.5 -39.5t-144 -103t-99 -138.5
t-52.5 -151z" />
    <glyph glyph-name="i" unicode="i" horiz-adv-x="483" 
d="M397 1446q-35 0 -57.5 23t-22.5 57q0 44 34.5 78t80.5 34q35 0 57.5 -22t22.5 -55q0 -44 -35.5 -79.5t-79.5 -35.5zM190 0h-94l199 1126h94z" />
    <glyph glyph-name="j" unicode="j" horiz-adv-x="483" 
d="M399 1446q-36 0 -58 23t-22 57q0 44 34.5 78t80.5 34q35 0 56.5 -22t21.5 -55q0 -44 -34.5 -79.5t-78.5 -35.5zM-195 -483q-123 0 -200 59l16 94q85 -69 184 -69q63 0 112.5 30t77.5 66t51.5 102t30.5 99.5t19 97.5q1 7 2 10l197 1120h94l-201 -1140q-7 -39 -11 -59.5
t-14.5 -64.5t-20 -70.5t-27 -67t-36.5 -66t-47.5 -55t-60.5 -46.5t-74.5 -28.5t-91.5 -11.5z" />
    <glyph glyph-name="k" unicode="k" horiz-adv-x="1030" 
d="M190 0h-94l289 1638h94q-8 -47 -38 -216.5t-42.5 -238.5t-37 -199t-46.5 -234.5t-47 -210.5h21q384 345 661 587h119l-516 -436q110 -181 397 -690h-106q-263 462 -357 633q-118 -121 -239 -191q-8 -154 -58 -442z" />
    <glyph glyph-name="l" unicode="l" horiz-adv-x="483" 
d="M190 0h-94l289 1638h94z" />
    <glyph glyph-name="m" unicode="m" horiz-adv-x="2078" 
d="M190 0h-94l199 1126h90q-26 -152 -72 -252h21q187 285 467 285q61 0 113.5 -15t100 -49t75 -98.5t26.5 -154.5h21q182 317 469 317q62 0 114.5 -14t101 -46t76.5 -84t39.5 -129t-8.5 -181l-125 -705h-94l117 664q19 96 10 166.5t-31.5 117.5t-62.5 75t-81.5 40t-90.5 12
q-89 0 -171 -40t-140 -103.5t-97.5 -138.5t-52.5 -150l-113 -643h-94l117 664q19 96 10 166.5t-31.5 117.5t-62.5 75t-81.5 40t-90.5 12q-89 0 -171 -40t-140 -103.5t-97.5 -138.5t-52.5 -150z" />
    <glyph glyph-name="n" unicode="n" horiz-adv-x="1292" 
d="M190 0h-94l199 1126h90q-26 -152 -72 -252h21q187 285 473 285q65 0 120 -14t104.5 -46t78.5 -84.5t41 -129.5t-8 -180l-125 -705h-94l116 664q19 96 9.5 166.5t-32.5 117.5t-64.5 75t-85 40t-95.5 12q-93 0 -177 -39.5t-142.5 -103.5t-97 -139t-52.5 -150z" />
    <glyph glyph-name="o" unicode="o" horiz-adv-x="1314" 
d="M553 -35q-215 0 -340 129t-125 348q0 136 51 266t139 229.5t215.5 160.5t270.5 61q214 0 339.5 -128.5t125.5 -348.5q0 -136 -51 -266t-139 -229.5t-215.5 -160.5t-270.5 -61zM567 49q158 0 288 91t199.5 233t69.5 299q0 185 -100 294t-274 109q-118 0 -223 -53
t-177.5 -140t-114.5 -199.5t-42 -229.5q0 -186 100.5 -295t273.5 -109z" />
    <glyph glyph-name="p" unicode="p" horiz-adv-x="1368" 
d="M111 -451h-95l279 1577h90q-27 -157 -66 -276h21q97 156 231.5 232.5t278.5 76.5q194 0 313 -128.5t119 -344.5q0 -137 -51 -268.5t-136.5 -231t-205.5 -160.5t-250 -61q-145 0 -251 76.5t-146 224.5h-21q-22 -223 -110 -717zM645 49q142 0 266.5 89.5t195.5 233
t71 300.5q0 183 -96.5 293t-256.5 110q-144 0 -271 -88.5t-201 -231t-74 -298.5q0 -184 103 -296t263 -112z" />
    <glyph glyph-name="q" unicode="q" horiz-adv-x="1368" 
d="M997 -451h-94q7 42 28.5 167t32.5 187t33 165t45 192h-20q-94 -145 -225 -220t-275 -75q-196 0 -315 128.5t-119 344.5q0 137 51.5 269t137 231t206 160t250.5 61q145 0 253.5 -77t150.5 -232h20q-2 99 27 276h90zM545 49q108 0 209.5 53t175 138.5t118 199t44.5 230.5
q0 183 -103 294t-264 111q-143 0 -267 -89.5t-194.5 -233.5t-70.5 -301q0 -182 96 -292t256 -110z" />
    <glyph glyph-name="r" unicode="r" horiz-adv-x="823" 
d="M190 0h-94l199 1126h90q-4 -20 -11 -64.5t-11.5 -71t-15.5 -69.5t-25 -85h20q68 155 186.5 239t249.5 84q75 0 129 -22l-18 -101q-53 29 -141 29q-108 0 -206.5 -70t-162.5 -179.5t-86 -233.5z" />
    <glyph glyph-name="s" unicode="s" horiz-adv-x="993" 
d="M420 -35q-158 0 -267.5 87t-132.5 229l93 28q28 -116 119 -188t212 -72q130 0 228 79t98 187q0 36 -13.5 64t-30.5 45t-53 34t-58 24.5t-70 21.5l-99 28q-29 9 -42.5 13t-48 18t-54.5 26t-48 34.5t-43.5 47t-27.5 60t-12 76.5q0 144 122 248t288 104q138 0 232.5 -76
t115.5 -196l-101 -33q-16 94 -86.5 157.5t-185.5 63.5q-119 0 -202 -70t-83 -169q0 -40 16.5 -73.5t38.5 -55t58 -41t62.5 -29t64.5 -21.5l106 -32l46.5 -15t47 -17.5t50 -24t42.5 -31t37.5 -40.5t23 -50.5t9.5 -63.5q0 -69 -35 -136.5t-94 -121t-144 -86.5t-179 -33z" />
    <glyph glyph-name="t" unicode="t" horiz-adv-x="729" 
d="M379 -35q-40 0 -71 8.5t-52.5 21.5t-36.5 35.5t-23 43t-11 51.5t-3.5 52.5t3.5 56t7 52.5t9 50q84 477 149 729q-105 -21 -250 -21l15 82q149 0 241 -20q1 40 4 77.5t8.5 80t8.5 64.5t11.5 73.5t10.5 64.5h95q-2 -11 -8.5 -49.5t-10 -56t-11 -54t-14.5 -63t-17.5 -63.5
t-22.5 -74q143 20 381 20l-15 -82q-231 0 -373 21q-18 -187 -38 -317t-34.5 -186t-26.5 -99t-18.5 -89t-6.5 -122q0 -56 4 -89.5t16 -61.5t37 -40t65 -12q100 0 211 70l-16 -94q-97 -60 -217 -60z" />
    <glyph glyph-name="u" unicode="u" horiz-adv-x="1273" 
d="M477 -35q-49 0 -93 9.5t-87.5 30.5t-74.5 55.5t-54 85t-26 118.5t10 156l124 706h95l-117 -665q-19 -98 -9 -169t33 -118t63.5 -74.5t82 -39t88.5 -11.5q73 0 140.5 26t119.5 69.5t93.5 100t67 116.5t36.5 120l114 645h95l-138 -774q-38 -207 -24 -352h-96q-7 61 -1 128
t33 142h-20q-174 -305 -455 -305z" />
    <glyph glyph-name="v" unicode="v" horiz-adv-x="1085" 
d="M489 0h-90l-262 1126h103q156 -709 213 -1032h20q191 362 574 1032h102z" />
    <glyph glyph-name="w" unicode="w" horiz-adv-x="1839" 
d="M453 0h-91l-221 1126h103q9 -49 36.5 -196t40 -215.5t33 -188.5t36 -223.5t28.5 -210.5h20q159 338 531 1034h102q46 -236 67.5 -350t54.5 -312t56 -372h21q36 78 73 154t79.5 160.5t71.5 142.5t79.5 154.5t71.5 136.5t79 149.5t72 136.5h102l-618 -1126h-90
q-131 676 -186 1026h-5q-200 -394 -546 -1026z" />
    <glyph glyph-name="x" unicode="x" horiz-adv-x="1015" 
d="M41 0h-102q337 371 516 557l4 21q-119 189 -324 548h109q193 -345 266 -499h20l60 72t65 76t59.5 67.5t66.5 74t61 67t68 73.5t63 69h108q-290 -317 -516 -548l-4 -21q173 -292 320 -557h-103q-11 20 -55 100.5t-60 110t-48.5 91t-56.5 111t-48 101.5h-21
q-110 -137 -448 -514z" />
    <glyph glyph-name="y" unicode="y" horiz-adv-x="1085" 
d="M225 -451h-80l254 445l-262 1132h103q131 -560 209 -1052h20q274 532 578 1052h102z" />
    <glyph glyph-name="z" unicode="z" horiz-adv-x="962" 
d="M821 0h-864l12 66q59 67 261 298t337.5 383.5t274.5 303.5l-4 20q-369 -31 -654 -31l15 86h774l-12 -65q-45 -51 -203.5 -228.5t-234 -262.5t-203.5 -226t-236 -258l6 -20q266 20 746 20z" />
    <glyph glyph-name="braceleft" unicode="{" horiz-adv-x="706" 
d="M518 -307h-65q-118 0 -193 32.5t-105.5 90.5t-36 140t14.5 181l29 168q12 69 17.5 117t3 79.5t-7 49.5t-20 26.5t-30 10.5t-41.5 2l20 110q28 0 40.5 1.5t32.5 9t31 24.5t25.5 48.5t26 81t23.5 120.5l28 168q14 79 32 139t54 120t85.5 98.5t127 62.5t178.5 24h66l-14 -84
h-66q-163 0 -246 -76t-110 -227l-39 -219q-30 -165 -68.5 -231t-128.5 -98l-6 -33q52 -22 73.5 -52t25.5 -98t-19 -180l-39 -219q-9 -54 -9.5 -96t12 -82t41 -66.5t80.5 -42.5t126 -16h65z" />
    <glyph glyph-name="bar" unicode="|" horiz-adv-x="514" 
d="M129 -451h-100l368 2089h101z" />
    <glyph glyph-name="braceright" unicode="}" horiz-adv-x="706" 
d="M-51 -307h-66l15 84h65q161 0 245 75t111 228l39 219q21 117 45.5 181.5t58.5 96t93 52.5l4 33q-36 14 -55.5 30t-32 50.5t-10 94t19.5 154.5l39 219q9 49 10.5 87t-9.5 81t-38 70.5t-81 46t-132 18.5h-65l14 84h66q116 0 190.5 -31.5t106.5 -89.5t37.5 -140t-15.5 -183
l-31 -168q-15 -81 -19.5 -133.5t-2 -83.5t18 -45.5t33 -18.5t50.5 -4l-20 -110q-33 0 -49 -3t-37 -17t-34 -44.5t-28 -83.5t-30 -137l-31 -168q-10 -55 -21.5 -98t-30.5 -90.5t-43 -83.5t-60 -69.5t-80.5 -55t-105.5 -34.5t-134 -13z" />
    <glyph glyph-name="asciitilde" unicode="~" horiz-adv-x="1040" 
d="M680 598q-43 0 -77 15t-55.5 36t-41.5 42.5t-46 36.5t-57 15q-57 0 -92.5 -41t-46.5 -104h-92q20 113 95.5 172t164.5 59q42 0 75.5 -15t54.5 -36t40.5 -42.5t44.5 -36.5t55 -15q52 0 85 40.5t44 104.5h93q-21 -115 -89.5 -173t-154.5 -58z" />
    <glyph glyph-name="uni00A0" unicode="&#xa0;" horiz-adv-x="552" 
 />
    <glyph glyph-name="exclamdown" unicode="&#xa1;" horiz-adv-x="477" 
d="M311 971q-34 0 -56 22t-22 54q0 43 34.5 77.5t78.5 34.5q33 0 54.5 -22.5t21.5 -55.5q0 -43 -33.5 -76.5t-77.5 -33.5zM121 -451h-121l14 80l236 1157h59l-174 -1157z" />
    <glyph glyph-name="cent" unicode="&#xa2;" horiz-adv-x="1142" 
d="M729 1141l-147 -832q123 7 221 78t160 182l69 -24q-77 -144 -200 -222.5t-265 -86.5l-41 -236h-82l43 238q-151 17 -237 120t-86 267q0 141 62 269.5t177 215.5t256 102l46 254h81l-45 -249q119 -7 205 -67.5t115 -188.5l-84 -29q-17 91 -82.5 146.5t-165.5 62.5z
M254 637q0 -135 65 -220t181 -104l147 826q-169 -23 -281 -171t-112 -331z" />
    <glyph glyph-name="sterling" unicode="&#xa3;" horiz-adv-x="1191" 
d="M1012 0h-1006l17 98q233 91 365 229.5t132 293.5q0 54 -22 147q-109 -20 -320 -20l17 94q165 0 274 -21q-11 21 -43 75t-45 80t-33 70.5t-27.5 84.5t-7.5 83q0 176 133.5 296t337.5 120q55 0 105.5 -9.5t104 -35t93.5 -66t68.5 -108.5t34.5 -156l-94 -36
q-10 88 -42 152.5t-78.5 100t-99 52t-112.5 16.5q-147 0 -245.5 -87.5t-98.5 -223.5q0 -62 24 -128.5t59 -144t50 -135.5q176 21 461 21l-17 -94q-258 0 -424 20q50 -72 50 -141q0 -143 -119.5 -292.5t-306.5 -236.5l18 -20q272 20 813 20z" />
    <glyph glyph-name="currency" unicode="&#xa4;" horiz-adv-x="1343" 
d="M1100 895q0 -99 -38.5 -187.5t-107.5 -154.5l220 -330l-80 -61l-222 332q-105 -62 -225 -62t-201 62l-335 -332l-60 61l338 332q-51 79 -51 186q0 96 37 185.5t106 156.5l-219 332l80 62l221 -330q99 61 225 61q127 0 203 -61l334 330l59 -62l-335 -330q51 -79 51 -190z
M432 760q0 -115 62 -181.5t170 -66.5q142 0 242 109t100 262q0 113 -61 179t-169 66q-142 0 -243 -108.5t-101 -259.5z" />
    <glyph glyph-name="yen" unicode="&#xa5;" horiz-adv-x="1447" 
d="M670 0h-101q31 178 76 307q-150 -20 -397 -20l16 94q241 0 389 -21q-2 76 8 131t37 123q-147 -20 -395 -20l16 94q211 0 334 -20q-199 445 -405 929h110q63 -152 191.5 -455t191.5 -454h4l707 909h107q-552 -701 -736 -929q129 20 346 20l-16 -94q-252 0 -395 20
q6 -127 -45 -254q157 21 401 21l-16 -94q-252 0 -393 20q0 -120 -35 -307z" />
    <glyph glyph-name="brokenbar" unicode="&#xa6;" horiz-adv-x="514" 
d="M356 840h-100l141 798h101zM129 -451h-100l139 791h100z" />
    <glyph glyph-name="section" unicode="&#xa7;" horiz-adv-x="1081" 
d="M401 -301q-163 0 -273.5 97.5t-129.5 248.5l92 27q27 -126 118.5 -207.5t215.5 -81.5t217.5 78t93.5 184q0 25 -7 46t-14.5 36t-27.5 30t-31 23t-41.5 20t-42.5 16t-49 17l-96 33q-26 9 -41.5 15t-46.5 20t-51.5 28t-46.5 37t-41 47.5t-26 59.5t-11 74q0 113 76.5 197.5
t203.5 109.5l4 27q-167 59 -167 217q0 141 122 244.5t304 103.5q63 0 115 -14.5t99.5 -47.5t78 -94.5t38.5 -148.5l-100 -29q-15 130 -75.5 190t-176.5 60q-132 0 -218.5 -68.5t-86.5 -169.5q0 -23 5.5 -43.5t12 -36t22 -31.5t24.5 -26t32 -22.5t32 -18t36 -16t33 -13
t34 -12.5l121 -43q101 -36 143 -65q87 -62 87 -168q0 -110 -82.5 -205.5t-210.5 -128.5l-6 -25q182 -45 182 -198q0 -92 -58.5 -177.5t-162 -140.5t-222.5 -55zM492 352l55 -18q136 10 221.5 88.5t85.5 177.5q0 41 -13.5 70t-49 50.5t-56.5 30.5t-74 26q-4 2 -5.5 2.5
l-4.5 1.5t-5.5 1.5t-4.5 1.5l-82 27q-64 21 -134 -8t-116.5 -93t-46.5 -137q0 -40 17 -74t39.5 -56t58 -41.5t59.5 -29t56 -20.5z" />
    <glyph glyph-name="copyright" unicode="&#xa9;" horiz-adv-x="1951" 
d="M872 -35q-206 0 -364.5 82t-247 237t-88.5 361q0 191 78.5 371.5t211 315.5t318 216.5t387.5 81.5q207 0 365 -82.5t246 -237t88 -358.5q0 -191 -78.5 -371.5t-210.5 -316t-317.5 -217.5t-387.5 -82zM891 68q178 0 341 72t278.5 191t184 277t68.5 326q0 272 -169 434
t-445 162q-178 0 -341 -71.5t-279 -190.5t-184.5 -277.5t-68.5 -326.5q0 -181 78 -317t217 -207.5t320 -71.5zM944 350q-160 0 -253 96.5t-93 260.5q0 138 64.5 261.5t182.5 201t261 77.5q130 0 214.5 -65t106.5 -187l-102 -32q-13 93 -76.5 144.5t-161.5 51.5
q-110 0 -200 -67t-136 -167t-46 -206q0 -130 70 -204.5t192 -74.5q108 0 200.5 61.5t153.5 174.5l82 -27q-70 -141 -192 -220t-267 -79z" />
    <glyph glyph-name="guillemotleft" unicode="&#xab;" horiz-adv-x="1095" 
d="M512 164h-117l-274 405l2 9l418 405h116q-7 -6 -44 -42t-45.5 -43.5t-41.5 -39t-44 -41.5t-40.5 -37t-44.5 -39.5t-41 -35t-45 -38t-43 -34t-47 -35.5l-8 -49q78 -78 145.5 -167.5t153.5 -217.5zM881 164h-117l-275 405l3 9l417 405h117q-7 -6 -44 -42t-45.5 -43.5
t-41.5 -39t-44 -41.5t-40.5 -37t-44.5 -39.5t-41 -35t-45 -38t-43 -34t-47 -35.5l-8 -49q78 -78 145.5 -167.5t153.5 -217.5z" />
    <glyph glyph-name="logicalnot" unicode="&#xac;" horiz-adv-x="1028" 
d="M811 281h-94l53 301h-602l16 94h697z" />
    <glyph glyph-name="registered" unicode="&#xae;" horiz-adv-x="1179" 
d="M621 743q-170 0 -272.5 101t-102.5 264q0 101 42 197.5t112.5 168.5t169.5 116t208 44q168 0 271.5 -100.5t103.5 -263.5q0 -134 -70 -255t-194 -196.5t-268 -75.5zM635 815q94 0 178 38t142 100t92 142.5t34 164.5q0 137 -86.5 221t-228.5 84q-123 0 -227 -63t-163 -165
t-59 -217q0 -137 86.5 -221t231.5 -84zM573 946h-69l86 494h176q68 0 106.5 -33t38.5 -88q0 -62 -40 -113.5t-101 -66.5l98 -193h-82l-92 184h-88zM647 1372l-29 -174h107q50 0 81.5 29t31.5 73q0 72 -90 72h-101z" />
    <glyph glyph-name="degree" unicode="&#xb0;" horiz-adv-x="786" 
d="M477 1057q-111 0 -177.5 67t-66.5 174q0 89 46 170t127 131t176 50q109 0 176 -67.5t67 -174.5q0 -137 -103 -243.5t-245 -106.5zM492 1133q100 0 173.5 79.5t73.5 182.5q0 79 -47 128.5t-123 49.5q-101 0 -174 -80.5t-73 -183.5q0 -78 46.5 -127t123.5 -49z" />
    <glyph glyph-name="plusminus" unicode="&#xb1;" horiz-adv-x="1024" 
d="M897 762l-16 -90h-301l-39 -215h301l-15 -84h-696l14 84h301l39 215h-301l17 90h301l43 252h94l-43 -252h301z" />
    <glyph glyph-name="uni00B2" unicode="&#xb2;" horiz-adv-x="608" 
d="M580 825h-449l2 6q16 58 33.5 95.5t52.5 73.5t75.5 64t119.5 77q168 102 168 205q0 45 -32 73.5t-85 28.5q-71 0 -125.5 -48.5t-67.5 -125.5l-69 12q17 101 95 167.5t179 66.5q84 0 135.5 -44.5t51.5 -117.5q0 -45 -17.5 -85.5t-49.5 -73t-54 -49.5t-54 -38
q-24 -15 -65 -40t-61 -38.5t-46.5 -35t-43.5 -45t-29 -54.5h348z" />
    <glyph glyph-name="uni00B3" unicode="&#xb3;" horiz-adv-x="622" 
d="M352 811q-88 0 -147 43t-68 113l74 32q11 -56 49 -88t102 -32q74 0 126.5 46t52.5 109q0 51 -38 80t-108 29h-67l10 61h74q72 0 120 42t48 104q0 45 -34 72.5t-89 27.5q-60 0 -106 -33.5t-66 -93.5l-68 14q24 82 97.5 132.5t160.5 50.5q80 0 133.5 -41t53.5 -109
q0 -63 -43 -118t-105 -72q51 -11 81 -45.5t30 -85.5q0 -97 -81.5 -167.5t-191.5 -70.5z" />
    <glyph glyph-name="paragraph" unicode="&#xb6;" horiz-adv-x="1413" 
d="M760 -287h-101l166 942h-258q-186 0 -292.5 104t-106.5 283q0 111 43.5 212t120.5 177t191.5 121t248.5 45h320zM1016 -287h-101l332 1884h101z" />
    <glyph glyph-name="periodcentered" unicode="&#xb7;" horiz-adv-x="530" 
d="M252 477q-42 0 -69 28t-27 68q0 54 42 95t97 41q39 0 65.5 -27t26.5 -66q0 -54 -41.5 -96.5t-93.5 -42.5z" />
    <glyph glyph-name="uni00B9" unicode="&#xb9;" horiz-adv-x="417" 
d="M324 825h-78l92 531q-70 -70 -166 -84l14 76q69 15 121.5 59t61.5 98h73z" />
    <glyph glyph-name="guillemotright" unicode="&#xbb;" horiz-adv-x="1097" 
d="M610 569l-417 -405h-117q10 9 55.5 53t62 59.5t57.5 54t65.5 59.5t60.5 52.5t68.5 57t64.5 49.5l8 49q-78 79 -146 169.5t-151 215.5h117l274 -405zM979 569l-418 -405h-117q6 6 48.5 46.5t54 51.5t50.5 47.5t56.5 52t52.5 47t59 51t55 44t59 45.5l8 49
q-78 79 -146 169.5t-151 215.5h117l274 -405z" />
    <glyph glyph-name="onequarter" unicode="&#xbc;" horiz-adv-x="1245" 
d="M324 825h-78l92 531q-70 -70 -166 -84l14 76q69 15 121.5 59t61.5 98h73zM-68 0h-92l1397 1468h84zM981 -14h-76l29 161h-344l12 72l424 447h76l-80 -451h98l-12 -68h-98zM1006 559l-324 -344h264z" />
    <glyph glyph-name="onehalf" unicode="&#xbd;" horiz-adv-x="1271" 
d="M324 825h-78l92 531q-70 -70 -166 -84l14 76q69 15 121.5 59t61.5 98h73zM-68 0h-92l1397 1468h84zM1096 -14h-449l2 6q30 110 80.5 163.5t200.5 145.5q168 102 168 205q0 45 -32 73.5t-85 28.5q-71 0 -125.5 -48.5t-67.5 -125.5l-69 12q17 101 95 167.5t179 66.5
q84 0 135.5 -44.5t51.5 -117.5q0 -37 -13 -72t-30 -59t-45 -49t-44.5 -37.5t-41.5 -28.5q-23 -15 -55.5 -34.5t-51.5 -31t-43 -29t-39.5 -33t-31 -37.5t-25.5 -48h348z" />
    <glyph glyph-name="threequarters" unicode="&#xbe;" horiz-adv-x="1449" 
d="M352 811q-88 0 -147 43t-68 113l74 32q11 -56 49 -88t102 -32q74 0 126.5 46t52.5 109q0 51 -38 80t-108 29h-67l10 61h74q72 0 120 42t48 104q0 45 -34 72.5t-89 27.5q-60 0 -106 -33.5t-66 -93.5l-68 14q24 82 97.5 132.5t160.5 50.5q80 0 133.5 -41t53.5 -109
q0 -63 -43 -118t-105 -72q51 -11 81 -45.5t30 -85.5q0 -97 -81.5 -167.5t-191.5 -70.5zM137 0h-92l1397 1468h84zM1186 -14h-76l29 161h-344l12 72l424 447h76l-80 -451h98l-12 -68h-99zM1210 559l-323 -344h264z" />
    <glyph glyph-name="questiondown" unicode="&#xbf;" horiz-adv-x="1028" 
d="M645 971q-34 0 -56 22t-22 54q0 43 34 77.5t77 34.5q35 0 57.5 -23t22.5 -57q0 -42 -34 -75t-79 -33zM334 -485q-159 0 -267 89t-108 244q0 54 15.5 108t37.5 97.5t58.5 89t67 77t74.5 68t69.5 55.5t62.5 46q58 42 87.5 65.5t66 60t56 76t28.5 89.5q6 36 6 51h88
q0 -31 -6 -61q-8 -46 -26.5 -86.5t-40 -70t-62.5 -66t-72.5 -61t-91.5 -67.5q-44 -32 -78.5 -59.5t-82 -74.5t-79 -92.5t-54 -105.5t-22.5 -120q0 -123 83 -194.5t208 -71.5q88 0 173 38t150.5 117t84.5 183q8 41 8 75l84 -16q0 -42 -6 -72q-32 -181 -180 -296t-332 -115z
" />
    <glyph glyph-name="Agrave" unicode="&#xc0;" horiz-adv-x="1490" 
d="M1024 1720h-88l-287 314h162zM43 0h-106l942 1597h102l377 -1597h-107q-91 377 -116 604l-17 17q-27 -2 -82.5 -6.5t-91 -7t-86 -5t-94.5 -2.5q-120 0 -361 21l-22 -19q-119 -228 -338 -602zM430 690l10 -20q238 20 344 20q117 0 301 -20l15 18q-120 445 -170 799h-41
q-197 -389 -459 -797z" />
    <glyph glyph-name="Aacute" unicode="&#xc1;" horiz-adv-x="1490" 
d="M1366 2034l-397 -314h-88l323 314h162zM43 0h-106l942 1597h102l377 -1597h-107q-91 377 -116 604l-17 17q-27 -2 -82.5 -6.5t-91 -7t-86 -5t-94.5 -2.5q-120 0 -361 21l-22 -19q-119 -228 -338 -602zM430 690l10 -20q238 20 344 20q117 0 301 -20l15 18
q-120 445 -170 799h-41q-197 -389 -459 -797z" />
    <glyph glyph-name="Acircumflex" unicode="&#xc2;" horiz-adv-x="1490" 
d="M707 1720h-89l314 293h141l211 -293h-88q-49 55 -70.5 80t-54 71t-55.5 93h-41q-40 -46 -92 -94.5t-83 -74.5t-93 -75zM43 0h-106l942 1597h102l377 -1597h-107q-91 377 -116 604l-17 17q-27 -2 -82.5 -6.5t-91 -7t-86 -5t-94.5 -2.5q-120 0 -361 21l-22 -19
q-119 -228 -338 -602zM430 690l10 -20q238 20 344 20q117 0 301 -20l15 18q-120 445 -170 799h-41q-197 -389 -459 -797z" />
    <glyph glyph-name="Atilde" unicode="&#xc3;" horiz-adv-x="1490" 
d="M1106 1753q-17 0 -31 2t-27.5 8t-21.5 9t-21 14t-16.5 14t-18 18t-16.5 17l-30 31l-9.5 9.5l-10.5 10.5t-9.5 9t-11.5 9t-11 6.5t-13 6t-14 3t-16 1.5q-52 0 -90.5 -43.5t-50.5 -110.5h-76q20 102 86 166t152 64q41 0 71 -18.5t64 -53.5l35 -37q56 -61 108 -61
q51 0 88.5 43.5t49.5 111.5h75q-19 -103 -81.5 -166t-153.5 -63zM43 0h-106l942 1597h102l377 -1597h-107q-91 377 -116 604l-17 17q-27 -2 -82.5 -6.5t-91 -7t-86 -5t-94.5 -2.5q-120 0 -361 21l-22 -19q-119 -228 -338 -602zM430 690l10 -20q238 20 344 20q117 0 301 -20
l15 18q-120 445 -170 799h-41q-197 -389 -459 -797z" />
    <glyph glyph-name="Adieresis" unicode="&#xc4;" horiz-adv-x="1490" 
d="M778 1800q-33 0 -54.5 21.5t-21.5 54.5q0 41 32.5 72.5t74.5 31.5q33 0 53.5 -20.5t20.5 -50.5q0 -43 -32 -76t-73 -33zM1155 1800q-34 0 -55 21t-21 53q0 43 32 74.5t75 31.5q32 0 53 -21t21 -52q0 -41 -32.5 -74t-72.5 -33zM43 0h-106l942 1597h102l377 -1597h-107
q-91 377 -116 604l-17 17q-27 -2 -82.5 -6.5t-91 -7t-86 -5t-94.5 -2.5q-120 0 -361 21l-22 -19q-119 -228 -338 -602zM430 690l10 -20q238 20 344 20q117 0 301 -20l15 18q-120 445 -170 799h-41q-197 -389 -459 -797z" />
    <glyph glyph-name="Aring" unicode="&#xc5;" horiz-adv-x="1490" 
d="M950 1716q-82 0 -132 48t-50 126q0 99 76 173.5t182 74.5q82 0 132 -48t50 -126q0 -98 -76 -173t-182 -75zM965 1794q69 0 117 47t48 115q0 48 -33 76t-85 28q-70 0 -118 -45.5t-48 -113.5q0 -50 32.5 -78.5t86.5 -28.5zM43 0h-106l942 1597h102l377 -1597h-107
q-91 377 -116 604l-17 17q-27 -2 -82.5 -6.5t-91 -7t-86 -5t-94.5 -2.5q-120 0 -361 21l-22 -19q-119 -228 -338 -602zM430 690l10 -20q238 20 344 20q117 0 301 -20l15 18q-120 445 -170 799h-41q-197 -389 -459 -797z" />
    <glyph glyph-name="AE" unicode="&#xc6;" horiz-adv-x="2097" 
d="M-23 0h-106l1237 1597h1046l-16 -90q-581 0 -919 31q-16 -327 -111 -690q322 20 877 20l-17 -90q-539 0 -868 21q-38 -373 -129 -733q158 14 346 21t290 8t302 1l-17 -96h-1013q80 445 118 621q-286 -29 -565 0q-28 -42 -58.5 -86t-54 -77.5t-59 -82.5t-53.5 -73.5
t-59.5 -79t-54.5 -71t-60 -78t-56 -73.5zM487 672q273 26 531 -2q41 386 141 858h-41q-124 -197 -272 -395t-359 -461z" />
    <glyph glyph-name="Ccedilla" unicode="&#xc7;" horiz-adv-x="1724" 
d="M846 59q133 0 252.5 42t210.5 115t159.5 161.5t114.5 191.5l82 -32q-56 -117 -135 -216.5t-184 -181t-242.5 -128t-290.5 -46.5h-2q-73 -84 -127 -129l6 -6q46 18 96 18q72 0 114 -35t42 -94q0 -81 -71.5 -141.5t-174.5 -60.5q-66 0 -127.5 28t-97.5 78l55 43
q25 -40 73.5 -65t100.5 -25q69 0 117.5 38t48.5 91q0 40 -31 64t-81 24q-57 0 -103 -24l-39 47l125 151q-277 23 -436.5 200.5t-159.5 461.5q0 191 75.5 373.5t202.5 320.5t306 222.5t373 84.5q109 0 209 -27t185.5 -80.5t144 -143.5t75.5 -205l-96 -37q-40 191 -187.5 295
t-349.5 104q-170 0 -325 -76t-264.5 -199.5t-174.5 -286t-65 -331.5q0 -116 31.5 -213t87 -164.5t131 -114.5t163 -69.5t183.5 -22.5z" />
    <glyph glyph-name="Egrave" unicode="&#xc8;" horiz-adv-x="1349" 
d="M967 1720h-88l-287 314h162zM1145 0h-1014l283 1597h993l-16 -90q-51 0 -209.5 -1t-237 -0.5t-207.5 5.5t-239 15l-21 -19q-27 -318 -110 -635l12 -22q309 18 858 18l-16 -90q-534 0 -850 19l-21 -23q-36 -346 -123 -684l15 -18q315 24 919 24z" />
    <glyph glyph-name="Eacute" unicode="&#xc9;" horiz-adv-x="1349" 
d="M1309 2034l-398 -314h-88l324 314h162zM1145 0h-1014l283 1597h993l-16 -90q-51 0 -209.5 -1t-237 -0.5t-207.5 5.5t-239 15l-21 -19q-27 -318 -110 -635l12 -22q309 18 858 18l-16 -90q-534 0 -850 19l-21 -23q-36 -346 -123 -684l15 -18q315 24 919 24z" />
    <glyph glyph-name="Ecircumflex" unicode="&#xca;" horiz-adv-x="1349" 
d="M649 1720h-88l313 293h142l211 -293h-88q-52 57 -72 80t-53 70t-56 94h-40q-40 -46 -93 -95.5t-82 -73t-94 -75.5zM1145 0h-1014l283 1597h993l-16 -90q-51 0 -209.5 -1t-237 -0.5t-207.5 5.5t-239 15l-21 -19q-27 -318 -110 -635l12 -22q309 18 858 18l-16 -90
q-534 0 -850 19l-21 -23q-36 -346 -123 -684l15 -18q315 24 919 24z" />
    <glyph glyph-name="Edieresis" unicode="&#xcb;" horiz-adv-x="1349" 
d="M721 1800q-33 0 -54.5 21.5t-21.5 54.5q0 41 32.5 72.5t74.5 31.5q33 0 53 -20.5t20 -50.5q0 -43 -31.5 -76t-72.5 -33zM1098 1800q-34 0 -55 21t-21 53q0 43 31.5 74.5t74.5 31.5q32 0 53 -21t21 -52q0 -41 -32 -74t-72 -33zM1145 0h-1014l283 1597h993l-16 -90
q-51 0 -209.5 -1t-237 -0.5t-207.5 5.5t-239 15l-21 -19q-27 -318 -110 -635l12 -22q309 18 858 18l-16 -90q-534 0 -850 19l-21 -23q-36 -346 -123 -684l15 -18q315 24 919 24z" />
    <glyph glyph-name="Igrave" unicode="&#xcc;" horiz-adv-x="559" 
d="M559 1720h-88l-287 314h162zM231 0h-100l283 1597h100z" />
    <glyph glyph-name="Iacute" unicode="&#xcd;" horiz-adv-x="559" 
d="M901 2034l-397 -314h-88l323 314h162zM231 0h-100l283 1597h100z" />
    <glyph glyph-name="Icircumflex" unicode="&#xce;" horiz-adv-x="559" 
d="M242 1720h-88l313 293h141l211 -293h-88q-49 55 -70.5 80t-54 71t-55.5 93h-41q-40 -46 -92 -94.5t-83 -74.5t-93 -75zM231 0h-100l283 1597h100z" />
    <glyph glyph-name="Idieresis" unicode="&#xcf;" horiz-adv-x="559" 
d="M313 1800q-33 0 -54 21.5t-21 54.5q0 41 32.5 72.5t73.5 31.5q33 0 53.5 -20.5t20.5 -50.5q0 -43 -32 -76t-73 -33zM690 1800q-34 0 -55 21t-21 53q0 43 32 74.5t75 31.5q32 0 53 -21t21 -52q0 -41 -32.5 -74t-72.5 -33zM231 0h-100l283 1597h100z" />
    <glyph glyph-name="Eth" unicode="&#xd0;" horiz-adv-x="1654" 
d="M414 1597h547q165 0 288 -44t198 -126.5t111.5 -193t36.5 -250.5q0 -150 -41 -294.5t-120 -268.5t-186.5 -218.5t-250 -148t-301.5 -53.5h-565l133 756h-162l15 84h164zM733 90q133 0 253.5 48t210.5 131t157 192.5t101 236.5t34 258q0 263 -142 407t-423 144
q-266 0 -426 19l-21 -19q-57 -408 -102 -667h594l-15 -84h-594q-72 -390 -133 -666l15 -18q178 18 491 18z" />
    <glyph glyph-name="Ntilde" unicode="&#xd1;" horiz-adv-x="1695" 
d="M1200 1815q-17 0 -31 1.5t-27.5 7.5t-21 9t-20.5 14.5t-16.5 14t-18 17.5t-16.5 17l-31 31q-2 2 -11 11.5t-12 11.5t-11 9.5t-13 10t-13 6t-16.5 5t-17.5 1.5q-52 0 -91 -43t-51 -110h-75q20 102 85.5 165.5t151.5 63.5q42 0 72 -18t63 -53l35 -37q57 -62 109 -62
q51 0 88 44t49 112h76q-19 -103 -82 -166t-154 -63zM231 0h-100l283 1597h92q390 -688 790 -1464h21q12 106 26 210.5t32 222.5t30.5 198.5t36 218t34 195.5t38.5 217t36 202h101l-283 -1597h-92q-477 839 -795 1444h-20q-16 -144 -36 -287.5t-47 -309.5t-44.5 -266.5
t-53.5 -304t-49 -276.5z" />
    <glyph glyph-name="Ograve" unicode="&#xd2;" horiz-adv-x="1822" 
d="M1188 1720h-88l-287 314h162zM807 -35q-192 0 -344 85t-238 240t-86 353q0 188 79 369.5t209 316.5t307.5 218t365.5 83q196 0 348.5 -88.5t235.5 -243.5t83 -350q0 -188 -79.5 -368.5t-209.5 -315t-307.5 -217t-363.5 -82.5zM825 59q107 0 213 34t197 93t169 142.5
t133 179.5t86.5 206.5t31.5 221.5q0 175 -74.5 312.5t-204.5 212.5t-293 75q-159 0 -312 -73.5t-267 -193t-184 -281t-70 -329.5q0 -132 44 -244.5t120.5 -190t182.5 -121.5t228 -44z" />
    <glyph glyph-name="Oacute" unicode="&#xd3;" horiz-adv-x="1822" 
d="M1530 2034l-397 -314h-89l324 314h162zM807 -35q-192 0 -344 85t-238 240t-86 353q0 188 79 369.5t209 316.5t307.5 218t365.5 83q196 0 348.5 -88.5t235.5 -243.5t83 -350q0 -188 -79.5 -368.5t-209.5 -315t-307.5 -217t-363.5 -82.5zM825 59q107 0 213 34t197 93
t169 142.5t133 179.5t86.5 206.5t31.5 221.5q0 175 -74.5 312.5t-204.5 212.5t-293 75q-159 0 -312 -73.5t-267 -193t-184 -281t-70 -329.5q0 -132 44 -244.5t120.5 -190t182.5 -121.5t228 -44z" />
    <glyph glyph-name="Ocircumflex" unicode="&#xd4;" horiz-adv-x="1822" 
d="M870 1720h-88l314 293h141l211 -293h-88q-49 55 -70.5 80t-54 71t-55.5 93h-41q-40 -46 -93 -95.5t-82 -73t-94 -75.5zM807 -35q-192 0 -344 85t-238 240t-86 353q0 188 79 369.5t209 316.5t307.5 218t365.5 83q196 0 348.5 -88.5t235.5 -243.5t83 -350
q0 -188 -79.5 -368.5t-209.5 -315t-307.5 -217t-363.5 -82.5zM825 59q107 0 213 34t197 93t169 142.5t133 179.5t86.5 206.5t31.5 221.5q0 175 -74.5 312.5t-204.5 212.5t-293 75q-159 0 -312 -73.5t-267 -193t-184 -281t-70 -329.5q0 -132 44 -244.5t120.5 -190
t182.5 -121.5t228 -44z" />
    <glyph glyph-name="Otilde" unicode="&#xd5;" horiz-adv-x="1822" 
d="M1282 1815q-15 0 -28.5 2t-23 4.5t-21.5 9t-17.5 9.5t-17 13t-14.5 13l-15.5 15.5l-14.5 14.5l-30 31q-2 2 -11 11.5t-12 11.5t-11 9.5t-13 10t-13 6t-16.5 5t-17.5 1.5q-52 0 -91 -43t-51 -110h-76q20 102 86 165.5t152 63.5q42 0 72 -18t63 -53l35 -37q57 -62 109 -62
q51 0 88 44t49 112h76q-19 -103 -82 -166t-154 -63zM807 -35q-192 0 -344 85t-238 240t-86 353q0 188 79 369.5t209 316.5t307.5 218t365.5 83q196 0 348.5 -88.5t235.5 -243.5t83 -350q0 -188 -79.5 -368.5t-209.5 -315t-307.5 -217t-363.5 -82.5zM825 59q107 0 213 34
t197 93t169 142.5t133 179.5t86.5 206.5t31.5 221.5q0 175 -74.5 312.5t-204.5 212.5t-293 75q-159 0 -312 -73.5t-267 -193t-184 -281t-70 -329.5q0 -132 44 -244.5t120.5 -190t182.5 -121.5t228 -44z" />
    <glyph glyph-name="Odieresis" unicode="&#xd6;" horiz-adv-x="1822" 
d="M942 1800q-33 0 -54.5 21.5t-21.5 54.5q0 41 32.5 72.5t74.5 31.5q33 0 53.5 -20.5t20.5 -50.5q0 -43 -32 -76t-73 -33zM1319 1800q-34 0 -55 21t-21 53q0 43 32 74.5t75 31.5q32 0 52.5 -21t20.5 -52q0 -41 -32 -74t-72 -33zM807 -35q-192 0 -344 85t-238 240t-86 353
q0 188 79 369.5t209 316.5t307.5 218t365.5 83q196 0 348.5 -88.5t235.5 -243.5t83 -350q0 -188 -79.5 -368.5t-209.5 -315t-307.5 -217t-363.5 -82.5zM825 59q107 0 213 34t197 93t169 142.5t133 179.5t86.5 206.5t31.5 221.5q0 175 -74.5 312.5t-204.5 212.5t-293 75
q-159 0 -312 -73.5t-267 -193t-184 -281t-70 -329.5q0 -132 44 -244.5t120.5 -190t182.5 -121.5t228 -44z" />
    <glyph glyph-name="multiply" unicode="&#xd7;" horiz-adv-x="899" 
d="M397 625l-182 219l80 67l182 -219l248 211l55 -65l-248 -211l179 -221l-78 -68l-180 221l-252 -213l-54 66z" />
    <glyph glyph-name="Oslash" unicode="&#xd8;" horiz-adv-x="1822" 
d="M1755 1661l-184 -213q94 -91 145 -220t51 -280q0 -188 -79.5 -368.5t-209.5 -315t-307.5 -217t-363.5 -82.5q-233 0 -406 125l-135 -156h-116l184 213q-94 91 -144.5 217.5t-50.5 278.5q0 188 79 369.5t209 316.5t307.5 218t365.5 83q231 0 403 -123l133 154h119z
M250 659q0 -258 158 -426l1024 1190q-148 113 -349 113q-159 0 -312 -73.5t-267 -193t-184 -281t-70 -329.5zM825 59q107 0 213 34t197 93t169 142.5t133 179.5t86.5 206.5t31.5 221.5q0 256 -156 428l-1026 -1190q149 -115 352 -115z" />
    <glyph glyph-name="Ugrave" unicode="&#xd9;" horiz-adv-x="1546" 
d="M1053 1720h-88l-287 314h162zM666 -35q-124 0 -218 34t-158.5 106.5t-83.5 186t7 273.5l182 1032h101l-183 -1028q-22 -141 -8.5 -238.5t67 -159t130.5 -89t182 -27.5t192.5 28t161.5 87.5t125.5 160.5t75.5 238l182 1028h101l-183 -1032q-50 -282 -223.5 -441
t-449.5 -159z" />
    <glyph glyph-name="Uacute" unicode="&#xda;" horiz-adv-x="1546" 
d="M1249 2034l-397 -314h-88l323 314h162zM666 -35q-124 0 -218 34t-158.5 106.5t-83.5 186t7 273.5l182 1032h101l-183 -1028q-22 -141 -8.5 -238.5t67 -159t130.5 -89t182 -27.5t192.5 28t161.5 87.5t125.5 160.5t75.5 238l182 1028h101l-183 -1032q-50 -282 -223.5 -441
t-449.5 -159z" />
    <glyph glyph-name="Ucircumflex" unicode="&#xdb;" horiz-adv-x="1546" 
d="M735 1720h-88l314 293h141l211 -293h-88q-52 57 -72 80t-53 70t-56 94h-40q-40 -46 -93 -95.5t-82 -73t-94 -75.5zM666 -35q-124 0 -218 34t-158.5 106.5t-83.5 186t7 273.5l182 1032h101l-183 -1028q-22 -141 -8.5 -238.5t67 -159t130.5 -89t182 -27.5t192.5 28
t161.5 87.5t125.5 160.5t75.5 238l182 1028h101l-183 -1032q-50 -282 -223.5 -441t-449.5 -159z" />
    <glyph glyph-name="Udieresis" unicode="&#xdc;" horiz-adv-x="1546" 
d="M807 1800q-33 0 -54.5 21.5t-21.5 54.5q0 41 32.5 72.5t74.5 31.5q33 0 53 -20.5t20 -50.5q0 -43 -31.5 -76t-72.5 -33zM1184 1800q-34 0 -55 21t-21 53q0 43 31.5 74.5t74.5 31.5q32 0 53 -21t21 -52q0 -41 -32 -74t-72 -33zM666 -35q-124 0 -218 34t-158.5 106.5
t-83.5 186t7 273.5l182 1032h101l-183 -1028q-22 -141 -8.5 -238.5t67 -159t130.5 -89t182 -27.5t192.5 28t161.5 87.5t125.5 160.5t75.5 238l182 1028h101l-183 -1032q-50 -282 -223.5 -441t-449.5 -159z" />
    <glyph glyph-name="Yacute" unicode="&#xdd;" horiz-adv-x="1398" 
d="M1319 2034l-397 -314h-88l323 314h162zM649 0h-100q79 433 117 596q-248 548 -439 1001h111q255 -602 371 -929h20q56 79 120 167t108 147t125.5 165t109.5 142t126.5 162t113.5 146h106q-63 -80 -221.5 -282.5t-293 -372t-278.5 -346.5q-33 -247 -96 -596z" />
    <glyph glyph-name="Thorn" unicode="&#xde;" horiz-adv-x="1388" 
d="M231 0h-100l283 1597h100q-18 -99 -65 -286h458q215 0 328 -104t113 -277q0 -107 -43 -208.5t-116.5 -179.5t-181 -125.5t-227.5 -47.5q-134 0 -191.5 1t-144 7.5t-159.5 21.5q-5 -30 -22 -170t-32 -229zM295 463l12 -23q173 19 449 19q213 0 349 126t136 316
q0 155 -97.5 237.5t-273.5 82.5q-271 0 -421 18l-23 -18q-43 -397 -131 -758z" />
    <glyph glyph-name="germandbls" unicode="&#xdf;" horiz-adv-x="1228" 
d="M190 0h-94l213 1202q4 21 7.5 38.5t13.5 54.5t22.5 67t35 70.5t49 72t66 64.5t85 54.5t107.5 35.5t132 14q189 0 289.5 -91.5t100.5 -246.5q0 -114 -51 -219t-139 -172.5t-189 -75.5l-4 -20q141 -13 215.5 -92t74.5 -211q0 -104 -47 -203.5t-127 -174.5t-194.5 -121
t-241.5 -46h-145l14 80h149q100 0 191 36.5t155.5 97t103 142.5t38.5 170q0 133 -82.5 212t-216.5 79h-96l14 80h96q109 0 196.5 61t133 156t45.5 203q0 124 -70 198t-221 74q-85 0 -155 -26t-112.5 -64t-74.5 -89.5t-46.5 -94.5t-22.5 -88z" />
    <glyph glyph-name="agrave" unicode="&#xe0;" horiz-adv-x="1167" 
d="M768 1278h-84l-242 395h144zM350 -35q-88 0 -155 24t-108.5 79.5t-41.5 138.5q0 80 37.5 145.5t106 112t153 78.5t188.5 53q24 5 65.5 12t66.5 12t61 13t58.5 16t50 20t44 27.5t31.5 35t22 45.5t7 57q0 103 -73.5 172t-198.5 69q-123 0 -222 -69t-155 -185l-88 33
q49 101 132 172t173 102t184 31q58 0 111 -12.5t102.5 -39.5t81.5 -70t47 -104t0 -142l-78 -439q-20 -111 -25.5 -184.5t1.5 -167.5h-97q-11 150 35 281h-20q-180 -316 -496 -316zM369 47q97 0 189 42t156 105.5t106 133.5t52 131l33 192q-59 -59 -110 -79t-193 -46
q-42 -8 -72 -14t-81.5 -20t-88 -29t-79.5 -39t-70 -51.5t-45.5 -66.5t-18.5 -83q0 -84 59 -130t163 -46z" />
    <glyph glyph-name="aacute" unicode="&#xe1;" horiz-adv-x="1167" 
d="M1139 1673l-381 -395h-84l321 395h144zM350 -35q-88 0 -155 24t-108.5 79.5t-41.5 138.5q0 80 37.5 145.5t106 112t153 78.5t188.5 53q24 5 65.5 12t66.5 12t61 13t58.5 16t50 20t44 27.5t31.5 35t22 45.5t7 57q0 103 -73.5 172t-198.5 69q-123 0 -222 -69t-155 -185
l-88 33q49 101 132 172t173 102t184 31q58 0 111 -12.5t102.5 -39.5t81.5 -70t47 -104t0 -142l-78 -439q-20 -111 -25.5 -184.5t1.5 -167.5h-97q-11 150 35 281h-20q-180 -316 -496 -316zM369 47q97 0 189 42t156 105.5t106 133.5t52 131l33 192q-59 -59 -110 -79t-193 -46
q-42 -8 -72 -14t-81.5 -20t-88 -29t-79.5 -39t-70 -51.5t-45.5 -66.5t-18.5 -83q0 -84 59 -130t163 -46z" />
    <glyph glyph-name="acircumflex" unicode="&#xe2;" horiz-adv-x="1167" 
d="M440 1278h-90l361 354h145l234 -354h-91q-52 63 -77.5 95.5t-63.5 89.5t-61 106h-45q-103 -127 -312 -291zM350 -35q-88 0 -155 24t-108.5 79.5t-41.5 138.5q0 80 37.5 145.5t106 112t153 78.5t188.5 53q24 5 65.5 12t66.5 12t61 13t58.5 16t50 20t44 27.5t31.5 35
t22 45.5t7 57q0 103 -73.5 172t-198.5 69q-123 0 -222 -69t-155 -185l-88 33q49 101 132 172t173 102t184 31q58 0 111 -12.5t102.5 -39.5t81.5 -70t47 -104t0 -142l-78 -439q-20 -111 -25.5 -184.5t1.5 -167.5h-97q-11 150 35 281h-20q-180 -316 -496 -316zM369 47
q97 0 189 42t156 105.5t106 133.5t52 131l33 192q-59 -59 -110 -79t-193 -46q-42 -8 -72 -14t-81.5 -20t-88 -29t-79.5 -39t-70 -51.5t-45.5 -66.5t-18.5 -83q0 -84 59 -130t163 -46z" />
    <glyph glyph-name="atilde" unicode="&#xe3;" horiz-adv-x="1167" 
d="M883 1343q-17 0 -31 2t-27.5 8t-21.5 9t-21 14t-16.5 14t-18 18t-16.5 17l-31 31q-2 2 -11 11.5t-12 11.5t-11 9.5t-13 10t-13 6t-16.5 5t-17.5 1.5q-52 0 -90.5 -43t-50.5 -110h-76q20 102 86 165.5t152 63.5q42 0 72 -18t63 -53l35 -37q57 -62 108 -62t88 44t49 112h76
q-19 -103 -82 -166.5t-153 -63.5zM350 -35q-88 0 -155 24t-108.5 79.5t-41.5 138.5q0 80 37.5 145.5t106 112t153 78.5t188.5 53q24 5 65.5 12t66.5 12t61 13t58.5 16t50 20t44 27.5t31.5 35t22 45.5t7 57q0 103 -73.5 172t-198.5 69q-123 0 -222 -69t-155 -185l-88 33
q49 101 132 172t173 102t184 31q58 0 111 -12.5t102.5 -39.5t81.5 -70t47 -104t0 -142l-78 -439q-20 -111 -25.5 -184.5t1.5 -167.5h-97q-11 150 35 281h-20q-180 -316 -496 -316zM369 47q97 0 189 42t156 105.5t106 133.5t52 131l33 192q-59 -59 -110 -79t-193 -46
q-42 -8 -72 -14t-81.5 -20t-88 -29t-79.5 -39t-70 -51.5t-45.5 -66.5t-18.5 -83q0 -84 59 -130t163 -46z" />
    <glyph glyph-name="adieresis" unicode="&#xe4;" horiz-adv-x="1167" 
d="M573 1391q-33 0 -54 21t-21 54q0 41 32.5 73t73.5 32q33 0 53.5 -21t20.5 -51q0 -43 -32 -75.5t-73 -32.5zM909 1391q-34 0 -54.5 20.5t-20.5 52.5q0 43 31.5 75t74.5 32q32 0 53 -21.5t21 -52.5q0 -41 -32.5 -73.5t-72.5 -32.5zM350 -35q-88 0 -155 24t-108.5 79.5
t-41.5 138.5q0 80 37.5 145.5t106 112t153 78.5t188.5 53q24 5 65.5 12t66.5 12t61 13t58.5 16t50 20t44 27.5t31.5 35t22 45.5t7 57q0 103 -73.5 172t-198.5 69q-123 0 -222 -69t-155 -185l-88 33q49 101 132 172t173 102t184 31q58 0 111 -12.5t102.5 -39.5t81.5 -70
t47 -104t0 -142l-78 -439q-20 -111 -25.5 -184.5t1.5 -167.5h-97q-11 150 35 281h-20q-180 -316 -496 -316zM369 47q97 0 189 42t156 105.5t106 133.5t52 131l33 192q-59 -59 -110 -79t-193 -46q-42 -8 -72 -14t-81.5 -20t-88 -29t-79.5 -39t-70 -51.5t-45.5 -66.5
t-18.5 -83q0 -84 59 -130t163 -46z" />
    <glyph glyph-name="aring" unicode="&#xe5;" horiz-adv-x="1167" 
d="M715 1245q-82 0 -132.5 48t-50.5 126q0 99 76.5 173.5t182.5 74.5q82 0 132 -48t50 -126q0 -98 -76 -173t-182 -75zM729 1323q69 0 117.5 47.5t48.5 114.5q0 48 -33.5 76t-85.5 28q-70 0 -118 -45.5t-48 -113.5q0 -50 32.5 -78.5t86.5 -28.5zM350 -35q-88 0 -155 24
t-108.5 79.5t-41.5 138.5q0 80 37.5 145.5t106 112t153 78.5t188.5 53q24 5 65.5 12t66.5 12t61 13t58.5 16t50 20t44 27.5t31.5 35t22 45.5t7 57q0 103 -73.5 172t-198.5 69q-123 0 -222 -69t-155 -185l-88 33q49 101 132 172t173 102t184 31q58 0 111 -12.5t102.5 -39.5
t81.5 -70t47 -104t0 -142l-78 -439q-20 -111 -25.5 -184.5t1.5 -167.5h-97q-11 150 35 281h-20q-180 -316 -496 -316zM369 47q97 0 189 42t156 105.5t106 133.5t52 131l33 192q-59 -59 -110 -79t-193 -46q-42 -8 -72 -14t-81.5 -20t-88 -29t-79.5 -39t-70 -51.5t-45.5 -66.5
t-18.5 -83q0 -84 59 -130t163 -46z" />
    <glyph glyph-name="ae" unicode="&#xe6;" horiz-adv-x="2052" 
d="M340 -35q-137 0 -217 61t-80 179q0 78 36.5 143.5t104 113t153.5 81t193 53.5q25 5 67 12t66.5 12t61 12.5t58.5 16t49.5 20.5t43.5 27.5t31.5 35.5t22 46t6.5 58q0 108 -77.5 173.5t-196.5 65.5q-122 0 -221 -69t-154 -185l-88 33q49 101 132 172t172.5 102t182.5 31
q48 0 93.5 -9t90 -30t78.5 -52t56.5 -79.5t27.5 -109.5q95 138 227.5 209t284.5 71q38 0 75.5 -5t80.5 -16.5t79 -31.5t72 -50t59 -71.5t40.5 -96.5t16 -125t-14.5 -157l-8 -45h-955q-39 -227 63 -369.5t300 -142.5q158 0 285.5 90t207.5 230l80 -27q-98 -181 -256 -279
t-338 -98q-115 0 -205 37.5t-149 122t-66 207.5h-20q-74 -161 -221.5 -264t-329.5 -103zM1012 645h843q18 96 4.5 168.5t-43 122t-78.5 80.5t-101.5 45t-110.5 14q-175 0 -314.5 -117t-199.5 -313zM369 45q91 0 182 42t156.5 105t110 134.5t54.5 132.5l33 192
q-50 -53 -116 -79t-185 -44q-35 -5 -69 -12t-92.5 -21.5t-106 -37.5t-93.5 -54t-72 -76.5t-26 -99.5q0 -85 62 -133.5t162 -48.5z" />
    <glyph glyph-name="ccedilla" unicode="&#xe7;" horiz-adv-x="1236" 
d="M569 49q160 0 287.5 89t208.5 231l80 -27q-96 -180 -249 -275.5t-327 -101.5q-62 -74 -127 -129l7 -6q47 18 96 18q72 0 113.5 -35t41.5 -94q0 -81 -71.5 -141.5t-173.5 -60.5q-66 0 -128 28t-98 78l56 43q25 -40 73.5 -65t100.5 -25q69 0 117.5 38t48.5 91
q0 39 -31.5 63.5t-81.5 24.5q-56 0 -102 -24l-39 47l125 151q-191 17 -299.5 142t-108.5 329q0 138 51 269t138.5 231t214 160.5t268.5 60.5q72 0 135.5 -15.5t122.5 -50t102 -97t62 -148.5l-101 -33q-25 123 -115 191.5t-225 68.5q-117 0 -221 -53.5t-174.5 -141
t-111.5 -200t-41 -229.5q0 -186 100.5 -294t275.5 -108z" />
    <glyph glyph-name="egrave" unicode="&#xe8;" horiz-adv-x="1261" 
d="M809 1278h-84l-242 395h144zM541 -35q-207 0 -330 127t-123 346q0 138 51.5 269t139 231t212.5 160.5t263 60.5q38 0 74.5 -4.5t79 -16t78 -31t71.5 -49.5t59 -71.5t40.5 -97t17 -125.5t-12.5 -158l-8 -49h-952q-38 -224 62 -366t300 -142q158 0 285 90t207 230l80 -27
q-96 -181 -254.5 -279t-339.5 -98zM221 645h844q19 96 5.5 168.5t-44 122t-79.5 80.5t-101.5 45t-110.5 14q-176 0 -315.5 -118.5t-198.5 -311.5z" />
    <glyph glyph-name="eacute" unicode="&#xe9;" horiz-adv-x="1261" 
d="M1180 1673l-381 -395h-84l321 395h144zM541 -35q-207 0 -330 127t-123 346q0 138 51.5 269t139 231t212.5 160.5t263 60.5q38 0 74.5 -4.5t79 -16t78 -31t71.5 -49.5t59 -71.5t40.5 -97t17 -125.5t-12.5 -158l-8 -49h-952q-38 -224 62 -366t300 -142q158 0 285 90
t207 230l80 -27q-96 -181 -254.5 -279t-339.5 -98zM221 645h844q19 96 5.5 168.5t-44 122t-79.5 80.5t-101.5 45t-110.5 14q-176 0 -315.5 -118.5t-198.5 -311.5z" />
    <glyph glyph-name="ecircumflex" unicode="&#xea;" horiz-adv-x="1261" 
d="M481 1278h-90l361 354h145l233 -354h-90q-52 63 -77.5 95.5t-63.5 89.5t-61 106h-45q-103 -127 -312 -291zM541 -35q-207 0 -330 127t-123 346q0 138 51.5 269t139 231t212.5 160.5t263 60.5q38 0 74.5 -4.5t79 -16t78 -31t71.5 -49.5t59 -71.5t40.5 -97t17 -125.5
t-12.5 -158l-8 -49h-952q-38 -224 62 -366t300 -142q158 0 285 90t207 230l80 -27q-96 -181 -254.5 -279t-339.5 -98zM221 645h844q19 96 5.5 168.5t-44 122t-79.5 80.5t-101.5 45t-110.5 14q-176 0 -315.5 -118.5t-198.5 -311.5z" />
    <glyph glyph-name="edieresis" unicode="&#xeb;" horiz-adv-x="1261" 
d="M614 1391q-33 0 -54 21t-21 54q0 41 32.5 73t73.5 32q33 0 53.5 -21t20.5 -51q0 -43 -32 -75.5t-73 -32.5zM950 1391q-34 0 -55 20.5t-21 52.5q0 43 32 75t75 32q32 0 53 -21.5t21 -52.5q0 -41 -32.5 -73.5t-72.5 -32.5zM541 -35q-207 0 -330 127t-123 346
q0 138 51.5 269t139 231t212.5 160.5t263 60.5q38 0 74.5 -4.5t79 -16t78 -31t71.5 -49.5t59 -71.5t40.5 -97t17 -125.5t-12.5 -158l-8 -49h-952q-38 -224 62 -366t300 -142q158 0 285 90t207 230l80 -27q-96 -181 -254.5 -279t-339.5 -98zM221 645h844q19 96 5.5 168.5
t-44 122t-79.5 80.5t-101.5 45t-110.5 14q-176 0 -315.5 -118.5t-198.5 -311.5z" />
    <glyph glyph-name="igrave" unicode="&#xec;" horiz-adv-x="483" 
d="M416 1278h-84l-242 395h143zM190 0h-94l199 1126h94z" />
    <glyph glyph-name="iacute" unicode="&#xed;" horiz-adv-x="483" 
d="M786 1673l-380 -395h-84l321 395h143zM190 0h-94l199 1126h94z" />
    <glyph glyph-name="icircumflex" unicode="&#xee;" horiz-adv-x="483" 
d="M88 1278h-90l360 354h146l233 -354h-90q-55 66 -78.5 96t-62.5 88t-62 107h-45q-105 -129 -311 -291zM190 0h-94l199 1126h94z" />
    <glyph glyph-name="idieresis" unicode="&#xef;" horiz-adv-x="483" 
d="M221 1391q-33 0 -54.5 21.5t-21.5 53.5q0 41 33 73t74 32q33 0 53.5 -21t20.5 -51q0 -43 -32 -75.5t-73 -32.5zM557 1391q-35 0 -55.5 20.5t-20.5 52.5q0 43 32 75t75 32q32 0 53 -21.5t21 -52.5q0 -41 -32.5 -73.5t-72.5 -32.5zM190 0h-94l199 1126h94z" />
    <glyph glyph-name="eth" unicode="&#xf0;" horiz-adv-x="1310" 
d="M1194 1585l-236 -123q271 -226 271 -614q0 -135 -30 -264t-89 -241t-140 -196.5t-191 -133t-234 -48.5q-210 0 -335.5 128.5t-125.5 336.5q0 131 52.5 256.5t140 220.5t211 153t257.5 58q132 0 222 -62t161 -208h21q-27 191 -95.5 326t-197.5 235l-348 -182l-25 63
l310 162q-107 70 -283 135l39 86q210 -69 348 -166l270 142zM557 49q148 0 274 85t196.5 221t70.5 288q0 180 -101.5 285.5t-265.5 105.5q-145 0 -271 -83.5t-199 -219.5t-73 -287q0 -173 99 -284t270 -111z" />
    <glyph glyph-name="ntilde" unicode="&#xf1;" horiz-adv-x="1292" 
d="M932 1343q-17 0 -31 2t-27.5 8t-21.5 9t-21 14t-16.5 14t-18 18t-16.5 17l-30 31l-9.5 9.5l-10.5 10.5t-9.5 9t-11.5 9t-11 6.5t-13 6t-14 3t-16 1.5q-52 0 -90.5 -43t-50.5 -110h-76q20 102 86 165.5t152 63.5q42 0 72 -18t63 -53l35 -37q57 -62 108 -62t88.5 44
t49.5 112h75q-19 -103 -82 -166.5t-153 -63.5zM190 0h-94l199 1126h90q-26 -152 -72 -252h21q187 285 473 285q65 0 120 -14t104.5 -46t78.5 -84.5t41 -129.5t-8 -180l-125 -705h-94l116 664q19 96 9.5 166.5t-32.5 117.5t-64.5 75t-85 40t-95.5 12q-93 0 -177 -39.5
t-142.5 -103.5t-97 -139t-52.5 -150z" />
    <glyph glyph-name="ograve" unicode="&#xf2;" horiz-adv-x="1314" 
d="M831 1278h-83l-242 395h143zM553 -35q-215 0 -340 129t-125 348q0 136 51 266t139 229.5t215.5 160.5t270.5 61q214 0 339.5 -128.5t125.5 -348.5q0 -136 -51 -266t-139 -229.5t-215.5 -160.5t-270.5 -61zM567 49q158 0 288 91t199.5 233t69.5 299q0 185 -100 294
t-274 109q-118 0 -223 -53t-177.5 -140t-114.5 -199.5t-42 -229.5q0 -186 100.5 -295t273.5 -109z" />
    <glyph glyph-name="oacute" unicode="&#xf3;" horiz-adv-x="1314" 
d="M1202 1673l-381 -395h-84l322 395h143zM553 -35q-215 0 -340 129t-125 348q0 136 51 266t139 229.5t215.5 160.5t270.5 61q214 0 339.5 -128.5t125.5 -348.5q0 -136 -51 -266t-139 -229.5t-215.5 -160.5t-270.5 -61zM567 49q158 0 288 91t199.5 233t69.5 299
q0 185 -100 294t-274 109q-118 0 -223 -53t-177.5 -140t-114.5 -199.5t-42 -229.5q0 -186 100.5 -295t273.5 -109z" />
    <glyph glyph-name="ocircumflex" unicode="&#xf4;" horiz-adv-x="1314" 
d="M504 1278h-90l360 354h146l233 -354h-90q-55 66 -78.5 96t-62.5 88t-62 107h-45q-105 -129 -311 -291zM553 -35q-215 0 -340 129t-125 348q0 136 51 266t139 229.5t215.5 160.5t270.5 61q214 0 339.5 -128.5t125.5 -348.5q0 -136 -51 -266t-139 -229.5t-215.5 -160.5
t-270.5 -61zM567 49q158 0 288 91t199.5 233t69.5 299q0 185 -100 294t-274 109q-118 0 -223 -53t-177.5 -140t-114.5 -199.5t-42 -229.5q0 -186 100.5 -295t273.5 -109z" />
    <glyph glyph-name="otilde" unicode="&#xf5;" horiz-adv-x="1314" 
d="M946 1343q-17 0 -31 2t-27 7.5t-21.5 9.5t-20.5 14t-16.5 14t-18 18t-16.5 17l-31 31q-2 2 -11 11.5t-12 11.5t-11 9.5t-13 10t-13 6t-16.5 5t-17.5 1.5q-52 0 -91 -43t-51 -110h-75q20 102 85.5 165.5t151.5 63.5q42 0 72 -18t63 -53l35 -37q57 -62 109 -62q51 0 88 44
t49 112h76q-19 -103 -82 -166.5t-154 -63.5zM553 -35q-215 0 -340 129t-125 348q0 136 51 266t139 229.5t215.5 160.5t270.5 61q214 0 339.5 -128.5t125.5 -348.5q0 -136 -51 -266t-139 -229.5t-215.5 -160.5t-270.5 -61zM567 49q158 0 288 91t199.5 233t69.5 299
q0 185 -100 294t-274 109q-118 0 -223 -53t-177.5 -140t-114.5 -199.5t-42 -229.5q0 -186 100.5 -295t273.5 -109z" />
    <glyph glyph-name="odieresis" unicode="&#xf6;" horiz-adv-x="1314" 
d="M637 1391q-33 0 -54.5 21.5t-21.5 53.5q0 41 33 73t74 32q33 0 53 -21t20 -51q0 -43 -31.5 -75.5t-72.5 -32.5zM973 1391q-35 0 -55.5 20.5t-20.5 52.5q0 43 32 75t75 32q32 0 52.5 -21.5t20.5 -52.5q0 -41 -32 -73.5t-72 -32.5zM553 -35q-215 0 -340 129t-125 348
q0 136 51 266t139 229.5t215.5 160.5t270.5 61q214 0 339.5 -128.5t125.5 -348.5q0 -136 -51 -266t-139 -229.5t-215.5 -160.5t-270.5 -61zM567 49q158 0 288 91t199.5 233t69.5 299q0 185 -100 294t-274 109q-118 0 -223 -53t-177.5 -140t-114.5 -199.5t-42 -229.5
q0 -186 100.5 -295t273.5 -109z" />
    <glyph glyph-name="divide" unicode="&#xf7;" horiz-adv-x="1013" 
d="M557 817q-34 0 -56 23t-22 57q0 42 34 75.5t79 33.5q34 0 56 -22t22 -54q0 -42 -34.5 -77.5t-78.5 -35.5zM858 578h-696l16 94h696zM457 242q-35 0 -56.5 22t-21.5 55q0 44 33.5 77.5t76.5 33.5q34 0 56 -22t22 -54q0 -43 -33.5 -77.5t-76.5 -34.5z" />
    <glyph glyph-name="oslash" unicode="&#xf8;" horiz-adv-x="1314" 
d="M1176 1180h102l-156 -170q107 -129 107 -328q0 -136 -51 -266t-139 -229.5t-215.5 -160.5t-270.5 -61q-182 0 -299 94l-104 -114h-109l156 168q-109 128 -109 329q0 136 51 266t139 229.5t215.5 160.5t270.5 61q180 0 303 -96zM193 453q0 -157 73 -263l735 799
q-99 86 -251 86q-118 0 -223 -53t-177.5 -140t-114.5 -199.5t-42 -229.5zM1124 672q0 159 -73 260l-732 -801q97 -82 248 -82q158 0 288 91t199.5 233t69.5 299z" />
    <glyph glyph-name="ugrave" unicode="&#xf9;" horiz-adv-x="1273" 
d="M786 1278h-84l-241 395h143zM477 -35q-49 0 -93 9.5t-87.5 30.5t-74.5 55.5t-54 85t-26 118.5t10 156l124 706h95l-117 -665q-19 -98 -9 -169t33 -118t63.5 -74.5t82 -39t88.5 -11.5q73 0 140.5 26t119.5 69.5t93.5 100t67 116.5t36.5 120l114 645h95l-138 -774
q-38 -207 -24 -352h-96q-7 61 -1 128t33 142h-20q-174 -305 -455 -305z" />
    <glyph glyph-name="uacute" unicode="&#xfa;" horiz-adv-x="1273" 
d="M1157 1673l-381 -395h-84l322 395h143zM477 -35q-49 0 -93 9.5t-87.5 30.5t-74.5 55.5t-54 85t-26 118.5t10 156l124 706h95l-117 -665q-19 -98 -9 -169t33 -118t63.5 -74.5t82 -39t88.5 -11.5q73 0 140.5 26t119.5 69.5t93.5 100t67 116.5t36.5 120l114 645h95
l-138 -774q-38 -207 -24 -352h-96q-7 61 -1 128t33 142h-20q-174 -305 -455 -305z" />
    <glyph glyph-name="ucircumflex" unicode="&#xfb;" horiz-adv-x="1273" 
d="M459 1278h-90l360 354h145l234 -354h-90q-55 66 -78.5 96t-62.5 88t-62 107h-45q-105 -129 -311 -291zM477 -35q-49 0 -93 9.5t-87.5 30.5t-74.5 55.5t-54 85t-26 118.5t10 156l124 706h95l-117 -665q-19 -98 -9 -169t33 -118t63.5 -74.5t82 -39t88.5 -11.5
q73 0 140.5 26t119.5 69.5t93.5 100t67 116.5t36.5 120l114 645h95l-138 -774q-38 -207 -24 -352h-96q-7 61 -1 128t33 142h-20q-174 -305 -455 -305z" />
    <glyph glyph-name="udieresis" unicode="&#xfc;" horiz-adv-x="1273" 
d="M592 1391q-34 0 -55 21.5t-21 53.5q0 41 33 73t74 32q33 0 53 -21t20 -51q0 -43 -31.5 -75.5t-72.5 -32.5zM928 1391q-34 0 -55 20.5t-21 52.5q0 43 31.5 75t74.5 32q32 0 53 -21.5t21 -52.5q0 -41 -32 -73.5t-72 -32.5zM477 -35q-49 0 -93 9.5t-87.5 30.5t-74.5 55.5
t-54 85t-26 118.5t10 156l124 706h95l-117 -665q-19 -98 -9 -169t33 -118t63.5 -74.5t82 -39t88.5 -11.5q73 0 140.5 26t119.5 69.5t93.5 100t67 116.5t36.5 120l114 645h95l-138 -774q-38 -207 -24 -352h-96q-7 61 -1 128t33 142h-20q-174 -305 -455 -305z" />
    <glyph glyph-name="yacute" unicode="&#xfd;" horiz-adv-x="1085" 
d="M1073 1673l-381 -395h-84l322 395h143zM225 -451h-80l254 445l-262 1132h103q131 -560 209 -1052h20q274 532 578 1052h102z" />
    <glyph glyph-name="thorn" unicode="&#xfe;" horiz-adv-x="1368" 
d="M111 -451h-95l369 2089h94q-6 -32 -30 -171.5t-37 -208.5t-38 -188t-50 -220h20q97 156 229.5 232.5t276.5 76.5q194 0 313 -128.5t119 -344.5q0 -137 -51 -268.5t-136.5 -231t-205.5 -160.5t-250 -61q-145 0 -251 76.5t-146 224.5h-21q-22 -223 -110 -717zM645 49
q142 0 266.5 89.5t195.5 233t71 300.5q0 183 -96.5 293t-256.5 110q-144 0 -271 -88.5t-201 -231t-74 -298.5q0 -184 103 -296t263 -112z" />
    <glyph glyph-name="ydieresis" unicode="&#xff;" horiz-adv-x="1085" 
d="M508 1391q-34 0 -55 21.5t-21 53.5q0 41 33 73t74 32q33 0 53 -21t20 -51q0 -43 -31.5 -75.5t-72.5 -32.5zM844 1391q-34 0 -55 20.5t-21 52.5q0 43 31.5 75t74.5 32q32 0 53 -21.5t21 -52.5q0 -41 -32 -73.5t-72 -32.5zM225 -451h-80l254 445l-262 1132h103
q131 -560 209 -1052h20q274 532 578 1052h102z" />
    <glyph glyph-name="Amacron" unicode="&#x100;" horiz-adv-x="1490" 
d="M1298 1847h-647l17 88h647zM43 0h-106l942 1597h102l377 -1597h-107q-91 377 -116 604l-17 17q-27 -2 -82.5 -6.5t-91 -7t-86 -5t-94.5 -2.5q-120 0 -361 21l-22 -19q-119 -228 -338 -602zM430 690l10 -20q238 20 344 20q117 0 301 -20l15 18q-120 445 -170 799h-41
q-197 -389 -459 -797z" />
    <glyph glyph-name="amacron" unicode="&#x101;" horiz-adv-x="1167" 
d="M1094 1438h-688l16 88h688zM350 -35q-88 0 -155 24t-108.5 79.5t-41.5 138.5q0 80 37.5 145.5t106 112t153 78.5t188.5 53q24 5 65.5 12t66.5 12t61 13t58.5 16t50 20t44 27.5t31.5 35t22 45.5t7 57q0 103 -73.5 172t-198.5 69q-123 0 -222 -69t-155 -185l-88 33
q49 101 132 172t173 102t184 31q58 0 111 -12.5t102.5 -39.5t81.5 -70t47 -104t0 -142l-78 -439q-20 -111 -25.5 -184.5t1.5 -167.5h-97q-11 150 35 281h-20q-180 -316 -496 -316zM369 47q97 0 189 42t156 105.5t106 133.5t52 131l33 192q-59 -59 -110 -79t-193 -46
q-42 -8 -72 -14t-81.5 -20t-88 -29t-79.5 -39t-70 -51.5t-45.5 -66.5t-18.5 -83q0 -84 59 -130t163 -46z" />
    <glyph glyph-name="Abreve" unicode="&#x102;" horiz-adv-x="1490" 
d="M952 1729q-83 0 -148.5 29t-102.5 75.5t-53.5 100.5t-10.5 108h90q-9 -88 59.5 -157.5t180.5 -69.5q113 0 205.5 69t115.5 158h90q-13 -54 -48.5 -108t-88.5 -100.5t-129 -75.5t-160 -29zM43 0h-106l942 1597h102l377 -1597h-107q-91 377 -116 604l-17 17
q-27 -2 -82.5 -6.5t-91 -7t-86 -5t-94.5 -2.5q-120 0 -361 21l-22 -19q-119 -228 -338 -602zM430 690l10 -20q238 20 344 20q117 0 301 -20l15 18q-120 445 -170 799h-41q-197 -389 -459 -797z" />
    <glyph glyph-name="abreve" unicode="&#x103;" horiz-adv-x="1167" 
d="M721 1278q-169 0 -247 111t-54 284h90q-20 -143 43.5 -226t181.5 -83q119 0 211.5 82.5t124.5 226.5h90q-37 -172 -154.5 -283.5t-285.5 -111.5zM350 -35q-88 0 -155 24t-108.5 79.5t-41.5 138.5q0 80 37.5 145.5t106 112t153 78.5t188.5 53q24 5 65.5 12t66.5 12t61 13
t58.5 16t50 20t44 27.5t31.5 35t22 45.5t7 57q0 103 -73.5 172t-198.5 69q-123 0 -222 -69t-155 -185l-88 33q49 101 132 172t173 102t184 31q58 0 111 -12.5t102.5 -39.5t81.5 -70t47 -104t0 -142l-78 -439q-20 -111 -25.5 -184.5t1.5 -167.5h-97q-11 150 35 281h-20
q-180 -316 -496 -316zM369 47q97 0 189 42t156 105.5t106 133.5t52 131l33 192q-59 -59 -110 -79t-193 -46q-42 -8 -72 -14t-81.5 -20t-88 -29t-79.5 -39t-70 -51.5t-45.5 -66.5t-18.5 -83q0 -84 59 -130t163 -46z" />
    <glyph glyph-name="Aogonek" unicode="&#x104;" horiz-adv-x="1490" 
d="M1296 -389q40 0 93 14l-15 -74q-57 -14 -94 -14q-101 0 -163 50.5t-62 140.5q0 159 202 272h-6q-91 377 -116 604l-17 17q-27 -2 -82.5 -6.5t-91 -7t-86 -5t-94.5 -2.5q-120 0 -361 21l-22 -19q-119 -228 -338 -602h-106l942 1597h102l377 -1597q-42 -22 -74 -43t-69 -53
t-57.5 -72.5t-20.5 -85.5q0 -63 45.5 -99t113.5 -36zM1085 670l15 18q-120 445 -170 799h-41q-197 -389 -459 -797l10 -20q238 20 344 20q117 0 301 -20z" />
    <glyph glyph-name="aogonek" unicode="&#x105;" horiz-adv-x="1167" 
d="M1030 791l-78 -439q-20 -111 -25.5 -184.5t1.5 -167.5h-2q-217 -111 -217 -254q0 -63 44.5 -99t114.5 -36q38 0 90 14l-14 -74q-55 -14 -96 -14q-100 0 -161.5 51t-61.5 140q0 155 206 272q-11 150 35 281h-20q-180 -316 -496 -316q-88 0 -155 24t-108.5 79.5
t-41.5 138.5q0 80 37.5 145.5t106 112t153 78.5t188.5 53q24 5 65.5 12t66.5 12t61 13t58.5 16t50 20t44 27.5t31.5 35t22 45.5t7 57q0 103 -73.5 172t-198.5 69q-123 0 -222 -69t-155 -185l-88 33q49 101 132 172t173 102t184 31q58 0 111 -12.5t102.5 -39.5t81.5 -70
t47 -104t0 -142zM369 47q97 0 189 42t156 105.5t106 133.5t52 131l33 192q-59 -59 -110 -79t-193 -46q-42 -8 -72 -14t-81.5 -20t-88 -29t-79.5 -39t-70 -51.5t-45.5 -66.5t-18.5 -83q0 -84 59 -130t163 -46z" />
    <glyph glyph-name="Cacute" unicode="&#x106;" horiz-adv-x="1724" 
d="M1483 2034l-398 -314h-88l324 314h162zM813 -35q-309 0 -490.5 180.5t-181.5 483.5q0 191 75.5 373.5t202.5 320.5t306 222.5t373 84.5q109 0 209 -27t185.5 -80.5t144 -143.5t75.5 -205l-96 -37q-40 191 -187.5 295t-349.5 104q-170 0 -325 -76t-264.5 -199.5
t-174.5 -286t-65 -331.5q0 -116 31.5 -213t87 -164.5t131 -114.5t163 -69.5t183.5 -22.5q133 0 252.5 42t210.5 115t159.5 161.5t114.5 191.5l82 -32q-56 -117 -135 -216.5t-184 -181t-242.5 -128t-290.5 -46.5z" />
    <glyph glyph-name="cacute" unicode="&#x107;" horiz-adv-x="1236" 
d="M1167 1673l-381 -395h-84l322 395h143zM549 -35q-214 0 -337.5 127t-123.5 346q0 138 51 269t138.5 231t214 160.5t268.5 60.5q72 0 135.5 -15.5t122.5 -50t102 -97t62 -148.5l-101 -33q-25 123 -115 191.5t-225 68.5q-117 0 -221 -53.5t-174.5 -141t-111.5 -200
t-41 -229.5q0 -186 100.5 -294t275.5 -108q160 0 287.5 89t208.5 231l80 -27q-99 -185 -258 -281t-338 -96z" />
    <glyph glyph-name="Cdotaccent" unicode="&#x10a;" horiz-adv-x="1724" 
d="M1081 1794q-35 0 -57.5 22.5t-22.5 57.5q0 44 34.5 78.5t80.5 34.5q35 0 57.5 -22.5t22.5 -55.5q0 -44 -35.5 -79.5t-79.5 -35.5zM813 -35q-309 0 -490.5 180.5t-181.5 483.5q0 191 75.5 373.5t202.5 320.5t306 222.5t373 84.5q109 0 209 -27t185.5 -80.5t144 -143.5
t75.5 -205l-96 -37q-40 191 -187.5 295t-349.5 104q-170 0 -325 -76t-264.5 -199.5t-174.5 -286t-65 -331.5q0 -116 31.5 -213t87 -164.5t131 -114.5t163 -69.5t183.5 -22.5q133 0 252.5 42t210.5 115t159.5 161.5t114.5 191.5l82 -32q-56 -117 -135 -216.5t-184 -181
t-242.5 -128t-290.5 -46.5z" />
    <glyph glyph-name="cdotaccent" unicode="&#x10b;" horiz-adv-x="1236" 
d="M780 1446q-35 0 -57.5 22.5t-22.5 57.5q0 44 34.5 78t80.5 34q35 0 57.5 -22t22.5 -55q0 -44 -35.5 -79.5t-79.5 -35.5zM549 -35q-214 0 -337.5 127t-123.5 346q0 138 51 269t138.5 231t214 160.5t268.5 60.5q72 0 135.5 -15.5t122.5 -50t102 -97t62 -148.5l-101 -33
q-25 123 -115 191.5t-225 68.5q-117 0 -221 -53.5t-174.5 -141t-111.5 -200t-41 -229.5q0 -186 100.5 -294t275.5 -108q160 0 287.5 89t208.5 231l80 -27q-99 -185 -258 -281t-338 -96z" />
    <glyph glyph-name="Ccaron" unicode="&#x10c;" horiz-adv-x="1724" 
d="M1139 1720h-142l-211 293h88q4 -4 21 -23t22 -25t20.5 -23.5t22.5 -26t20 -25t21 -29t19 -28.5t20 -31.5t17 -32.5h41q40 47 92 96t79.5 71.5t94.5 76.5h88zM813 -35q-309 0 -490.5 180.5t-181.5 483.5q0 191 75.5 373.5t202.5 320.5t306 222.5t373 84.5q109 0 209 -27
t185.5 -80.5t144 -143.5t75.5 -205l-96 -37q-40 191 -187.5 295t-349.5 104q-170 0 -325 -76t-264.5 -199.5t-174.5 -286t-65 -331.5q0 -116 31.5 -213t87 -164.5t131 -114.5t163 -69.5t183.5 -22.5q133 0 252.5 42t210.5 115t159.5 161.5t114.5 191.5l82 -32
q-56 -117 -135 -216.5t-184 -181t-242.5 -128t-290.5 -46.5z" />
    <glyph glyph-name="ccaron" unicode="&#x10d;" horiz-adv-x="1236" 
d="M821 1278h-145l-234 354h90q52 -62 81 -98t65.5 -89t64.5 -104h37q59 74 131 138.5t181 152.5h90zM549 -35q-214 0 -337.5 127t-123.5 346q0 138 51 269t138.5 231t214 160.5t268.5 60.5q72 0 135.5 -15.5t122.5 -50t102 -97t62 -148.5l-101 -33q-25 123 -115 191.5
t-225 68.5q-117 0 -221 -53.5t-174.5 -141t-111.5 -200t-41 -229.5q0 -186 100.5 -294t275.5 -108q160 0 287.5 89t208.5 231l80 -27q-99 -185 -258 -281t-338 -96z" />
    <glyph glyph-name="Dcaron" unicode="&#x10e;" horiz-adv-x="1654" 
d="M1042 1720h-141l-211 293h88q4 -4 21 -23t22 -25t20.5 -23.5t22.5 -26t20 -25t21 -29t19 -28.5t20 -31.5t17 -32.5h40q80 95 248 228l4.5 4.5t4.5 3.5t5.5 4t4.5 4h88zM696 0h-565l283 1597h547q165 0 288 -44t198 -126.5t111.5 -193t36.5 -250.5q0 -150 -41 -294.5
t-120 -268.5t-186.5 -218.5t-250 -148t-301.5 -53.5zM227 90l15 -18q178 18 491 18q133 0 253.5 48t210.5 131t157 192.5t101 236.5t34 258q0 263 -142 407t-423 144q-266 0 -426 19l-21 -19q-93 -692 -250 -1417z" />
    <glyph glyph-name="dcaron" unicode="&#x10f;" horiz-adv-x="1372" 
d="M520 -35q-195 0 -313.5 128.5t-118.5 344.5q0 137 51.5 269t137 231t206 160t250.5 61q145 0 248.5 -78.5t144.5 -242.5h21q36 321 125 800h94l-227 -1286q-23 -129 -28 -210.5t3 -141.5h-96q-8 63 -0.5 133t37.5 160h-21q-96 -164 -230.5 -246t-283.5 -82zM1550 1204
h-67q96 152 190 244q-80 14 -80 74q0 42 34 75t79 33q33 0 54.5 -21.5t21.5 -54.5q0 -35 -39.5 -94.5t-192.5 -255.5zM545 49q108 0 209.5 53t175 138.5t118 199t44.5 230.5q0 183 -103 294t-264 111q-143 0 -267 -89.5t-194.5 -233.5t-70.5 -301q0 -182 96 -292t256 -110z
" />
    <glyph glyph-name="Dcroat" unicode="&#x110;" horiz-adv-x="1654" 
d="M414 1597h547q165 0 288 -44t198 -126.5t111.5 -193t36.5 -250.5q0 -150 -41 -294.5t-120 -268.5t-186.5 -218.5t-250 -148t-301.5 -53.5h-565l133 756h-162l15 84h164zM733 90q133 0 253.5 48t210.5 131t157 192.5t101 236.5t34 258q0 263 -142 407t-423 144
q-266 0 -426 19l-21 -19q-57 -408 -102 -667h594l-15 -84h-594q-72 -390 -133 -666l15 -18q178 18 491 18z" />
    <glyph glyph-name="dcroat" unicode="&#x111;" horiz-adv-x="1372" 
d="M1329 1432h264l-14 -84h-264l-176 -996q-23 -129 -28 -210.5t3 -141.5h-96q-8 63 -0.5 133t37.5 160h-21q-96 -164 -230.5 -246t-283.5 -82q-195 0 -313.5 128.5t-118.5 344.5q0 137 51.5 269t137 231t206 160t250.5 61q145 0 248.5 -78.5t144.5 -242.5h21q25 240 72 510
h-295l14 84h297l37 206h94zM545 49q108 0 209.5 53t175 138.5t118 199t44.5 230.5q0 183 -103 294t-264 111q-143 0 -267 -89.5t-194.5 -233.5t-70.5 -301q0 -182 96 -292t256 -110z" />
    <glyph glyph-name="Emacron" unicode="&#x112;" horiz-adv-x="1349" 
d="M1241 1847h-647l16 88h647zM1145 0h-1014l283 1597h993l-16 -90q-51 0 -209.5 -1t-237 -0.5t-207.5 5.5t-239 15l-21 -19q-27 -318 -110 -635l12 -22q309 18 858 18l-16 -90q-534 0 -850 19l-21 -23q-36 -346 -123 -684l15 -18q315 24 919 24z" />
    <glyph glyph-name="emacron" unicode="&#x113;" horiz-adv-x="1261" 
d="M1135 1438h-689l17 88h688zM541 -35q-207 0 -330 127t-123 346q0 138 51.5 269t139 231t212.5 160.5t263 60.5q38 0 74.5 -4.5t79 -16t78 -31t71.5 -49.5t59 -71.5t40.5 -97t17 -125.5t-12.5 -158l-8 -49h-952q-38 -224 62 -366t300 -142q158 0 285 90t207 230l80 -27
q-96 -181 -254.5 -279t-339.5 -98zM221 645h844q19 96 5.5 168.5t-44 122t-79.5 80.5t-101.5 45t-110.5 14q-176 0 -315.5 -118.5t-198.5 -311.5z" />
    <glyph glyph-name="Edotaccent" unicode="&#x116;" horiz-adv-x="1349" 
d="M905 1794q-35 0 -57.5 22.5t-22.5 57.5q0 44 34.5 78.5t80.5 34.5q35 0 57.5 -22.5t22.5 -55.5q0 -44 -35.5 -79.5t-79.5 -35.5zM1145 0h-1014l283 1597h993l-16 -90q-51 0 -209.5 -1t-237 -0.5t-207.5 5.5t-239 15l-21 -19q-27 -318 -110 -635l12 -22q309 18 858 18
l-16 -90q-534 0 -850 19l-21 -23q-36 -346 -123 -684l15 -18q315 24 919 24z" />
    <glyph glyph-name="edotaccent" unicode="&#x117;" horiz-adv-x="1261" 
d="M793 1446q-35 0 -57.5 22.5t-22.5 57.5q0 44 34 78t80 34q35 0 57.5 -22t22.5 -55q0 -44 -35 -79.5t-79 -35.5zM541 -35q-207 0 -330 127t-123 346q0 138 51.5 269t139 231t212.5 160.5t263 60.5q38 0 74.5 -4.5t79 -16t78 -31t71.5 -49.5t59 -71.5t40.5 -97t17 -125.5
t-12.5 -158l-8 -49h-952q-38 -224 62 -366t300 -142q158 0 285 90t207 230l80 -27q-96 -181 -254.5 -279t-339.5 -98zM221 645h844q19 96 5.5 168.5t-44 122t-79.5 80.5t-101.5 45t-110.5 14q-176 0 -315.5 -118.5t-198.5 -311.5z" />
    <glyph glyph-name="Eogonek" unicode="&#x118;" horiz-adv-x="1349" 
d="M498 1526l-21 -19q-27 -318 -110 -635l12 -22q309 18 858 18l-16 -90q-534 0 -850 19l-21 -23q-36 -346 -123 -684l15 -18q315 24 919 24l-16 -96q-42 -22 -74 -43t-69 -53t-57.5 -72.5t-20.5 -85.5q0 -63 45.5 -99t113.5 -36q41 0 93 14l-15 -74q-57 -14 -94 -14
q-101 0 -163 50.5t-62 140.5q0 159 202 272h-913l283 1597h993l-16 -90q-51 0 -209.5 -1t-237 -0.5t-207.5 5.5t-239 15z" />
    <glyph glyph-name="eogonek" unicode="&#x119;" horiz-adv-x="1261" 
d="M754 1159q38 0 74.5 -4.5t79 -16t78 -31t71.5 -49.5t59 -71.5t40.5 -97t17 -125.5t-12.5 -158l-8 -49h-952q-38 -224 62 -366t300 -142q158 0 285 90t207 230l80 -27q-67 -128 -169.5 -215.5t-224.5 -128.5q-213 -109 -213 -252q0 -63 45 -99t115 -36q38 0 90 14l-14 -74
q-55 -14 -96 -14q-100 0 -162 51t-62 140q0 140 156 239q-20 -2 -59 -2q-207 0 -330 127t-123 346q0 138 51.5 269t139 231t212.5 160.5t263 60.5zM221 645h844q19 96 5.5 168.5t-44 122t-79.5 80.5t-101.5 45t-110.5 14q-176 0 -315.5 -118.5t-198.5 -311.5z" />
    <glyph glyph-name="Ecaron" unicode="&#x11a;" horiz-adv-x="1349" 
d="M965 1720h-142l-211 293h88q4 -4 21 -23t22 -25t20.5 -23.5t22.5 -26t20 -25t21 -29t19 -28.5t20 -31.5t17 -32.5h41q40 47 92 96t79.5 71.5t94.5 76.5h88zM1145 0h-1014l283 1597h993l-16 -90q-51 0 -209.5 -1t-237 -0.5t-207.5 5.5t-239 15l-21 -19q-27 -318 -110 -635
l12 -22q309 18 858 18l-16 -90q-534 0 -850 19l-21 -23q-36 -346 -123 -684l15 -18q315 24 919 24z" />
    <glyph glyph-name="ecaron" unicode="&#x11b;" horiz-adv-x="1261" 
d="M834 1278h-146l-233 354h90q52 -62 81 -98t65.5 -89t64.5 -104h37q60 74 131.5 139.5t179.5 151.5h90zM541 -35q-207 0 -330 127t-123 346q0 138 51.5 269t139 231t212.5 160.5t263 60.5q38 0 74.5 -4.5t79 -16t78 -31t71.5 -49.5t59 -71.5t40.5 -97t17 -125.5
t-12.5 -158l-8 -49h-952q-38 -224 62 -366t300 -142q158 0 285 90t207 230l80 -27q-96 -181 -254.5 -279t-339.5 -98zM221 645h844q19 96 5.5 168.5t-44 122t-79.5 80.5t-101.5 45t-110.5 14q-176 0 -315.5 -118.5t-198.5 -311.5z" />
    <glyph glyph-name="Gbreve" unicode="&#x11e;" horiz-adv-x="1800" 
d="M1069 1729q-83 0 -148.5 29t-102.5 75.5t-53.5 100.5t-10.5 108h90q-9 -88 59 -157.5t180 -69.5q113 0 206 69t116 158h90q-13 -54 -48.5 -108t-88.5 -100.5t-129 -75.5t-160 -29zM805 -35q-142 0 -262.5 43t-211 124.5t-141.5 208t-51 284.5q0 129 34.5 255.5t95.5 237
t150 205.5t193.5 162.5t229 106t254.5 38.5q109 0 209 -27t185.5 -80.5t144 -143.5t75.5 -205l-96 -37q-40 191 -187.5 295t-349.5 104q-170 0 -325 -75.5t-264.5 -199t-174.5 -286.5t-65 -332q0 -116 31 -213t85 -164.5t128 -115t159 -69.5t178 -22q273 0 482.5 177
t290.5 460l-9 15q-422 -35 -610 -35l16 90h695l-135 -766h-89q5 27 14.5 91t16.5 106t21 104t30 115h-20q-118 -217 -304 -334t-423 -117z" />
    <glyph glyph-name="gbreve" unicode="&#x11f;" horiz-adv-x="1368" 
d="M782 1278q-169 0 -247 111t-54 284h90q-20 -143 44 -226t182 -83q119 0 211.5 82.5t124.5 226.5h90q-37 -172 -155 -283.5t-286 -111.5zM475 -483q-376 0 -436 331l92 29q21 -130 112 -203t251 -73q412 0 510 522q2 10 5.5 30t5 27.5t5 23.5t7 27t9 27.5t13.5 34.5h-21
q-93 -139 -226 -216t-276 -77q-123 0 -220.5 54.5t-155.5 161.5t-58 251q0 111 35 217.5t96.5 191t141 149t172.5 99.5t186 35q149 0 254 -86t147 -235h21q5 83 39 288h90l-172 -979q-112 -630 -627 -630zM549 84q141 0 268 86t202 224.5t75 287.5q0 176 -104.5 284.5
t-264.5 108.5q-141 0 -263.5 -84.5t-193.5 -221.5t-71 -288q0 -176 96.5 -286.5t255.5 -110.5z" />
    <glyph glyph-name="Gdotaccent" unicode="&#x120;" horiz-adv-x="1800" 
d="M1079 1794q-35 0 -57.5 22.5t-22.5 57.5q0 44 34.5 78.5t80.5 34.5q35 0 57.5 -22.5t22.5 -55.5q0 -44 -35.5 -79.5t-79.5 -35.5zM805 -35q-142 0 -262.5 43t-211 124.5t-141.5 208t-51 284.5q0 129 34.5 255.5t95.5 237t150 205.5t193.5 162.5t229 106t254.5 38.5
q109 0 209 -27t185.5 -80.5t144 -143.5t75.5 -205l-96 -37q-40 191 -187.5 295t-349.5 104q-170 0 -325 -75.5t-264.5 -199t-174.5 -286.5t-65 -332q0 -116 31 -213t85 -164.5t128 -115t159 -69.5t178 -22q273 0 482.5 177t290.5 460l-9 15q-422 -35 -610 -35l16 90h695
l-135 -766h-89q5 27 14.5 91t16.5 106t21 104t30 115h-20q-118 -217 -304 -334t-423 -117z" />
    <glyph glyph-name="gdotaccent" unicode="&#x121;" horiz-adv-x="1368" 
d="M813 1446q-35 0 -57.5 22.5t-22.5 57.5q0 44 34.5 78t80.5 34q35 0 57.5 -22t22.5 -55q0 -44 -35.5 -79.5t-79.5 -35.5zM475 -483q-376 0 -436 331l92 29q21 -130 112 -203t251 -73q412 0 510 522q2 10 5.5 30t5 27.5t5 23.5t7 27t9 27.5t13.5 34.5h-21
q-93 -139 -226 -216t-276 -77q-123 0 -220.5 54.5t-155.5 161.5t-58 251q0 111 35 217.5t96.5 191t141 149t172.5 99.5t186 35q149 0 254 -86t147 -235h21q5 83 39 288h90l-172 -979q-112 -630 -627 -630zM549 84q141 0 268 86t202 224.5t75 287.5q0 176 -104.5 284.5
t-264.5 108.5q-141 0 -263.5 -84.5t-193.5 -221.5t-71 -288q0 -176 96.5 -286.5t255.5 -110.5z" />
    <glyph glyph-name="uni0122" unicode="&#x122;" horiz-adv-x="1800" 
d="M805 -35q-142 0 -262.5 43t-211 124.5t-141.5 208t-51 284.5q0 129 34.5 255.5t95.5 237t150 205.5t193.5 162.5t229 106t254.5 38.5q109 0 209 -27t185.5 -80.5t144 -143.5t75.5 -205l-96 -37q-40 191 -187.5 295t-349.5 104q-170 0 -325 -75.5t-264.5 -199
t-174.5 -286.5t-65 -332q0 -116 31 -213t85 -164.5t128 -115t159 -69.5t178 -22q273 0 482.5 177t290.5 460l-9 15q-422 -35 -610 -35l16 90h695l-135 -766h-89q5 27 14.5 91t16.5 106t21 104t30 115h-20q-118 -217 -304 -334t-423 -117zM651 -483h-47q82 122 154 194
q-101 0 -101 70q0 41 33 70.5t76 29.5q35 0 57.5 -21.5t22.5 -54.5q0 -38 -36 -89.5t-159 -198.5z" />
    <glyph glyph-name="uni0123" unicode="&#x123;" horiz-adv-x="1368" 
d="M672 1323q0 38 40 97.5t191 252.5h68q-79 -128 -183 -264q37 4 54.5 -12t17.5 -45q0 -43 -31 -74t-75 -31q-36 0 -59 21.5t-23 54.5zM475 -483q-376 0 -436 331l92 29q21 -130 112 -203t251 -73q412 0 510 522q2 10 5.5 30t5 27.5t5 23.5t7 27t9 27.5t13.5 34.5h-21
q-93 -139 -226 -216t-276 -77q-123 0 -220.5 54.5t-155.5 161.5t-58 251q0 111 35 217.5t96.5 191t141 149t172.5 99.5t186 35q149 0 254 -86t147 -235h21q5 83 39 288h90l-172 -979q-112 -630 -627 -630zM549 84q141 0 268 86t202 224.5t75 287.5q0 176 -104.5 284.5
t-264.5 108.5q-141 0 -263.5 -84.5t-193.5 -221.5t-71 -288q0 -176 96.5 -286.5t255.5 -110.5z" />
    <glyph glyph-name="Hbar" unicode="&#x126;" horiz-adv-x="1654" 
d="M1552 1270h134l-15 -84h-135l-209 -1186h-100q87 498 153 766l-12 22q-492 -47 -999 0l-21 -22q-7 -65 -16 -136t-16 -121.5t-20.5 -133.5t-19.5 -118t-23 -133t-22 -124h-100l209 1186h-135l14 84h137l58 327h100l-59 -327h997q9 58 29 167t28 160h101zM1376 842l21 22
q15 137 43 322h-1002q-39 -190 -73 -322l12 -22q539 23 999 0z" />
    <glyph glyph-name="hbar" unicode="&#x127;" horiz-adv-x="1292" 
d="M805 1159q53 0 100 -9.5t91.5 -31t76.5 -56.5t54.5 -85.5t25.5 -118t-10 -153.5l-125 -705h-94l116 664q19 96 9.5 166.5t-32.5 117.5t-63.5 75t-84 40t-93.5 12q-93 0 -177.5 -39.5t-144 -103t-99 -138.5t-52.5 -151l-113 -643h-94l238 1348h-182l14 84h182l37 206h94
q-7 -39 -20.5 -108t-18.5 -98h381l-14 -84h-385q-43 -215 -109 -474h21q187 285 471 285z" />
    <glyph glyph-name="Imacron" unicode="&#x12a;" horiz-adv-x="559" 
d="M834 1847h-648l17 88h647zM231 0h-100l283 1597h100z" />
    <glyph glyph-name="imacron" unicode="&#x12b;" horiz-adv-x="483" 
d="M741 1438h-688l17 88h688zM190 0h-94l199 1126h94z" />
    <glyph glyph-name="Iogonek" unicode="&#x12e;" horiz-adv-x="559" 
d="M10 -254q0 -62 45.5 -98.5t114.5 -36.5q39 0 92 14l-14 -74q-57 -14 -94 -14q-101 0 -163.5 50.5t-62.5 140.5q0 158 203 272l283 1597h100l-283 -1597q-42 -22 -74 -43t-69 -53t-57.5 -72.5t-20.5 -85.5z" />
    <glyph glyph-name="iogonek" unicode="&#x12f;" horiz-adv-x="483" 
d="M434 1638q35 0 57.5 -22t22.5 -55q0 -44 -35.5 -79.5t-79.5 -35.5q-35 0 -57.5 22.5t-22.5 57.5q0 44 34.5 78t80.5 34zM389 1126l-199 -1126q-217 -111 -217 -254q0 -63 45 -99t115 -36q37 0 90 14l-14 -74q-55 -14 -96 -14q-100 0 -162 51t-62 140q0 155 207 272
l199 1126h94z" />
    <glyph glyph-name="Idotaccent" unicode="&#x130;" horiz-adv-x="559" 
d="M498 1794q-35 0 -57.5 22.5t-22.5 57.5q0 44 34 78.5t80 34.5q35 0 57.5 -22.5t22.5 -55.5q0 -44 -35 -79.5t-79 -35.5zM231 0h-100l283 1597h100z" />
    <glyph glyph-name="dotlessi" unicode="&#x131;" horiz-adv-x="483" 
d="M190 0h-94l199 1126h94z" />
    <glyph glyph-name="uni0136" unicode="&#x136;" horiz-adv-x="1333" 
d="M231 0h-100l283 1597h100q-5 -26 -27 -151.5t-29 -162t-26.5 -139t-32 -159.5t-32.5 -141t-41 -160h20q268 250 1014 913h123q-14 -12 -139.5 -124t-170 -150.5t-145 -126t-179.5 -153t-159 -128.5l-4 -22q266 -411 555 -893h-123q-318 509 -497 842h-19
q-127 -150 -278 -260q-28 -216 -93 -582zM483 -483h-47q82 122 154 194q-101 0 -101 70q0 41 33 70.5t76 29.5q35 0 57.5 -21.5t22.5 -54.5q0 -38 -36 -89.5t-159 -198.5z" />
    <glyph glyph-name="uni0137" unicode="&#x137;" horiz-adv-x="1030" 
d="M190 0h-94l289 1638h94q-8 -47 -38 -216.5t-42.5 -238.5t-37 -199t-46.5 -234.5t-47 -210.5h21q384 345 661 587h119l-516 -436q110 -181 397 -690h-106q-263 462 -357 633q-118 -121 -239 -191q-8 -154 -58 -442zM319 -483h-47q82 122 154 194q-100 0 -100 70
q0 41 32.5 70.5t75.5 29.5q35 0 57.5 -21.5t22.5 -54.5q0 -38 -36 -89.5t-159 -198.5z" />
    <glyph glyph-name="Lacute" unicode="&#x139;" horiz-adv-x="1206" 
d="M950 2034l-397 -314h-88l323 314h162zM1083 0h-952l283 1597h100q-179 -1004 -287 -1507l15 -18q293 24 858 24z" />
    <glyph glyph-name="lacute" unicode="&#x13a;" horiz-adv-x="483" 
d="M909 2075l-397 -314h-88l324 314h161zM190 0h-94l289 1638h94z" />
    <glyph glyph-name="uni013B" unicode="&#x13b;" horiz-adv-x="1206" 
d="M1083 0h-952l283 1597h100q-179 -1004 -287 -1507l15 -18q293 24 858 24zM412 -483h-47q84 125 153 194q-100 0 -100 70q0 41 32.5 70.5t75.5 29.5q35 0 57.5 -21.5t22.5 -54.5q0 -39 -36.5 -91t-157.5 -197z" />
    <glyph glyph-name="uni013C" unicode="&#x13c;" horiz-adv-x="483" 
d="M190 0h-94l289 1638h94zM10 -483h-47q82 122 154 194q-101 0 -101 70q0 41 33 70.5t76 29.5q35 0 57.5 -21.5t22.5 -54.5q0 -38 -36 -89.5t-159 -198.5z" />
    <glyph glyph-name="Lcaron" unicode="&#x13d;" horiz-adv-x="1206" 
d="M997 1204h-67q96 152 190 244q-80 14 -80 74q0 42 34 75t79 33q33 0 54.5 -21.5t21.5 -54.5q0 -35 -39.5 -94.5t-192.5 -255.5zM1083 0h-952l283 1597h100q-179 -1004 -287 -1507l15 -18q293 24 858 24z" />
    <glyph glyph-name="lcaron" unicode="&#x13e;" horiz-adv-x="483" 
d="M190 0h-94l289 1638h94zM719 1204h-68q95 150 191 244q-80 14 -80 74q0 42 33.5 75t78.5 33q33 0 54.5 -21.5t21.5 -54.5q0 -36 -39.5 -95.5t-191.5 -254.5z" />
    <glyph glyph-name="Lslash" unicode="&#x141;" horiz-adv-x="1206" 
d="M227 90l15 -18q293 24 858 24l-17 -96h-952l141 797l-190 -82l16 88l189 82l127 712h100q-80 -453 -121 -667l359 155l-17 -88l-358 -155q-70 -380 -150 -752z" />
    <glyph glyph-name="lslash" unicode="&#x142;" horiz-adv-x="483" 
d="M367 999l227 146l-14 -88l-230 -146l-160 -911h-94l150 844l-232 -146l17 88l229 146l125 706h94z" />
    <glyph glyph-name="Nacute" unicode="&#x143;" horiz-adv-x="1695" 
d="M1448 2034l-397 -314h-88l323 314h162zM231 0h-100l283 1597h92q390 -688 790 -1464h21q12 106 26 210.5t32 222.5t30.5 198.5t36 218t34 195.5t38.5 217t36 202h101l-283 -1597h-92q-477 839 -795 1444h-20q-16 -144 -36 -287.5t-47 -309.5t-44.5 -266.5t-53.5 -304
t-49 -276.5z" />
    <glyph glyph-name="nacute" unicode="&#x144;" horiz-adv-x="1292" 
d="M1188 1673l-381 -395h-84l321 395h144zM190 0h-94l199 1126h90q-26 -152 -72 -252h21q187 285 473 285q65 0 120 -14t104.5 -46t78.5 -84.5t41 -129.5t-8 -180l-125 -705h-94l116 664q19 96 9.5 166.5t-32.5 117.5t-64.5 75t-85 40t-95.5 12q-93 0 -177 -39.5
t-142.5 -103.5t-97 -139t-52.5 -150z" />
    <glyph glyph-name="uni0145" unicode="&#x145;" horiz-adv-x="1695" 
d="M231 0h-100l283 1597h92q390 -688 790 -1464h21q12 106 26 210.5t32 222.5t30.5 198.5t36 218t34 195.5t38.5 217t36 202h101l-283 -1597h-92q-477 839 -795 1444h-20q-16 -144 -36 -287.5t-47 -309.5t-44.5 -266.5t-53.5 -304t-49 -276.5zM637 -483h-47q84 125 153 194
q-100 0 -100 70q0 41 33 70.5t76 29.5q35 0 57 -21.5t22 -54.5q0 -39 -36.5 -91t-157.5 -197z" />
    <glyph glyph-name="uni0146" unicode="&#x146;" horiz-adv-x="1292" 
d="M190 0h-94l199 1126h90q-26 -152 -72 -252h21q187 285 473 285q65 0 120 -14t104.5 -46t78.5 -84.5t41 -129.5t-8 -180l-125 -705h-94l116 664q19 96 9.5 166.5t-32.5 117.5t-64.5 75t-85 40t-95.5 12q-93 0 -177 -39.5t-142.5 -103.5t-97 -139t-52.5 -150zM432 -483h-47
q82 122 154 194q-101 0 -101 70q0 41 33 70.5t76 29.5q35 0 57.5 -21.5t22.5 -54.5q0 -38 -36 -89.5t-159 -198.5z" />
    <glyph glyph-name="Ncaron" unicode="&#x147;" horiz-adv-x="1695" 
d="M1104 1720h-141l-211 293h88q97 -108 134 -162q27 -40 48 -82h41q40 47 92 96t79.5 71.5t94.5 76.5h88zM231 0h-100l283 1597h92q390 -688 790 -1464h21q12 106 26 210.5t32 222.5t30.5 198.5t36 218t34 195.5t38.5 217t36 202h101l-283 -1597h-92q-477 839 -795 1444
h-20q-16 -144 -36 -287.5t-47 -309.5t-44.5 -266.5t-53.5 -304t-49 -276.5z" />
    <glyph glyph-name="ncaron" unicode="&#x148;" horiz-adv-x="1292" 
d="M842 1278h-146l-233 354h90q52 -62 81 -98t65.5 -89t64.5 -104h37q60 74 131.5 139.5t179.5 151.5h90zM190 0h-94l199 1126h90q-26 -152 -72 -252h21q187 285 473 285q65 0 120 -14t104.5 -46t78.5 -84.5t41 -129.5t-8 -180l-125 -705h-94l116 664q19 96 9.5 166.5
t-32.5 117.5t-64.5 75t-85 40t-95.5 12q-93 0 -177 -39.5t-142.5 -103.5t-97 -139t-52.5 -150z" />
    <glyph glyph-name="Eng" unicode="&#x14a;" horiz-adv-x="1695" 
d="M903 -483q-126 0 -203 59l17 100q86 -69 188 -69q139 0 237.5 108.5t129.5 284.5q-418 738 -791 1444h-20q-16 -144 -36 -287.5t-47 -309.5t-44.5 -266.5t-53.5 -304t-49 -276.5h-100l283 1597h92q390 -688 790 -1464h21q12 106 26 210.5t32 222.5t30.5 198.5t36 218
t34 195.5t38.5 217t36 202h101l-269 -1515q-22 -127 -60 -227t-95 -177.5t-139 -119t-185 -41.5z" />
    <glyph glyph-name="eng" unicode="&#x14b;" horiz-adv-x="1292" 
d="M631 -483q-125 0 -199 59l17 94q86 -69 184 -69q62 0 111 30t76 63.5t51 101t31 98.5t20 101q1 6 2 9l116 660q19 96 10 166.5t-31.5 117.5t-63 75t-84 40t-95.5 12q-94 0 -178.5 -39.5t-143.5 -103.5t-98.5 -139t-52.5 -150l-113 -643h-94l199 1126h90
q-26 -152 -72 -252h21q187 285 473 285q53 0 99.5 -9.5t91 -30.5t76.5 -55t54.5 -83t26 -114.5t-9.5 -149.5l-129 -731q-7 -38 -11 -59.5t-14.5 -64.5t-20.5 -70.5t-27.5 -67t-36.5 -65.5t-47.5 -55.5t-61 -46.5t-75 -28.5t-91.5 -11.5z" />
    <glyph glyph-name="Omacron" unicode="&#x14c;" horiz-adv-x="1822" 
d="M1462 1847h-647l16 88h648zM807 -35q-192 0 -344 85t-238 240t-86 353q0 188 79 369.5t209 316.5t307.5 218t365.5 83q196 0 348.5 -88.5t235.5 -243.5t83 -350q0 -188 -79.5 -368.5t-209.5 -315t-307.5 -217t-363.5 -82.5zM825 59q107 0 213 34t197 93t169 142.5
t133 179.5t86.5 206.5t31.5 221.5q0 175 -74.5 312.5t-204.5 212.5t-293 75q-159 0 -312 -73.5t-267 -193t-184 -281t-70 -329.5q0 -132 44 -244.5t120.5 -190t182.5 -121.5t228 -44z" />
    <glyph glyph-name="omacron" unicode="&#x14d;" horiz-adv-x="1314" 
d="M1157 1438h-688l16 88h689zM553 -35q-215 0 -340 129t-125 348q0 136 51 266t139 229.5t215.5 160.5t270.5 61q214 0 339.5 -128.5t125.5 -348.5q0 -136 -51 -266t-139 -229.5t-215.5 -160.5t-270.5 -61zM567 49q158 0 288 91t199.5 233t69.5 299q0 185 -100 294
t-274 109q-118 0 -223 -53t-177.5 -140t-114.5 -199.5t-42 -229.5q0 -186 100.5 -295t273.5 -109z" />
    <glyph glyph-name="Ohungarumlaut" unicode="&#x150;" horiz-adv-x="1822" 
d="M1311 2034l-326 -314h-88l266 314h148zM1593 2034l-346 -314h-88l287 314h147zM807 -35q-192 0 -344 85t-238 240t-86 353q0 188 79 369.5t209 316.5t307.5 218t365.5 83q196 0 348.5 -88.5t235.5 -243.5t83 -350q0 -188 -79.5 -368.5t-209.5 -315t-307.5 -217
t-363.5 -82.5zM825 59q107 0 213 34t197 93t169 142.5t133 179.5t86.5 206.5t31.5 221.5q0 175 -74.5 312.5t-204.5 212.5t-293 75q-159 0 -312 -73.5t-267 -193t-184 -281t-70 -329.5q0 -132 44 -244.5t120.5 -190t182.5 -121.5t228 -44z" />
    <glyph glyph-name="ohungarumlaut" unicode="&#x151;" horiz-adv-x="1314" 
d="M997 1673l-340 -395h-84l281 395h143zM1284 1673l-360 -395h-84l301 395h143zM553 -35q-215 0 -340 129t-125 348q0 136 51 266t139 229.5t215.5 160.5t270.5 61q214 0 339.5 -128.5t125.5 -348.5q0 -136 -51 -266t-139 -229.5t-215.5 -160.5t-270.5 -61zM567 49
q158 0 288 91t199.5 233t69.5 299q0 185 -100 294t-274 109q-118 0 -223 -53t-177.5 -140t-114.5 -199.5t-42 -229.5q0 -186 100.5 -295t273.5 -109z" />
    <glyph glyph-name="OE" unicode="&#x152;" horiz-adv-x="2729" 
d="M807 -35q-192 0 -344 85t-238 240t-86 353q0 188 79 369.5t209 316.5t307.5 218t365.5 83q225 0 390 -115t234 -309l70 391h993l-16 -90q-50 0 -208 -1t-236.5 -0.5t-208 5.5t-238.5 15l-22 -19q-24 -305 -111 -635l14 -22q307 18 856 18l-16 -90q-534 0 -850 19l-20 -23
q-35 -347 -123 -684l16 -18q315 24 920 24l-19 -96h-1014l70 389q-139 -195 -344.5 -309.5t-429.5 -114.5zM825 59q107 0 213 34t197 93t169 142.5t133 179.5t86.5 206.5t31.5 221.5q0 175 -74.5 312.5t-204.5 212.5t-293 75q-159 0 -312 -73.5t-267 -193t-184 -281
t-70 -329.5q0 -132 44 -244.5t120.5 -190t182.5 -121.5t228 -44z" />
    <glyph glyph-name="oe" unicode="&#x153;" horiz-adv-x="2277" 
d="M553 -35q-215 0 -340 129t-125 348q0 137 51.5 267t139.5 229.5t215 160t270 60.5q176 0 293.5 -89t154.5 -243q92 154 239.5 243t317.5 89q35 0 68.5 -3.5t71.5 -13t72 -24t67 -38t59 -53.5t46 -72t30.5 -92.5t10 -116t-14.5 -140.5l-8 -45h-954q-41 -231 62 -371.5
t300 -140.5q158 0 285 90t207 230l79 -27q-96 -181 -254.5 -279t-339.5 -98q-172 0 -287 88t-151 242q-92 -154 -241 -242t-324 -88zM567 49q158 0 288 91t199.5 233t69.5 299q0 185 -100 294t-274 109q-118 0 -223 -53t-177.5 -140t-114.5 -199.5t-42 -229.5
q0 -186 100.5 -295t273.5 -109zM1237 645h844q19 96 5.5 168.5t-44 122t-79.5 80.5t-101.5 45t-110.5 14q-177 0 -316 -118.5t-198 -311.5z" />
    <glyph glyph-name="Racute" unicode="&#x154;" horiz-adv-x="1415" 
d="M1284 2034l-397 -314h-88l323 314h162zM231 0h-100l283 1597h544q21 0 40.5 -1t67.5 -8t87 -20t87 -41.5t81 -67t55.5 -100.5t22.5 -140q0 -139 -65 -257.5t-185.5 -194.5t-274.5 -89l-2 -21q53 -97 105.5 -202t124.5 -253.5t98 -201.5h-110l-326 655q-278 0 -432 31
q-29 -280 -101 -686zM346 750l12 -23q164 18 449 18q212 0 347.5 127t135.5 318q0 154 -96 235.5t-272 81.5q-252 0 -424 19l-21 -19q-41 -389 -131 -757z" />
    <glyph glyph-name="racute" unicode="&#x155;" horiz-adv-x="823" 
d="M1008 1673l-381 -395h-84l321 395h144zM190 0h-94l199 1126h90q-4 -20 -11 -64.5t-11.5 -71t-15.5 -69.5t-25 -85h20q68 155 186.5 239t249.5 84q75 0 129 -22l-18 -101q-53 29 -141 29q-108 0 -206.5 -70t-162.5 -179.5t-86 -233.5z" />
    <glyph glyph-name="uni0156" unicode="&#x156;" horiz-adv-x="1415" 
d="M231 0h-100l283 1597h544q21 0 40.5 -1t67.5 -8t87 -20t87 -41.5t81 -67t55.5 -100.5t22.5 -140q0 -139 -65 -257.5t-185.5 -194.5t-274.5 -89l-2 -21q53 -97 105.5 -202t124.5 -253.5t98 -201.5h-110l-326 655q-278 0 -432 31q-29 -280 -101 -686zM346 750l12 -23
q164 18 449 18q212 0 347.5 127t135.5 318q0 154 -96 235.5t-272 81.5q-252 0 -424 19l-21 -19q-41 -389 -131 -757zM494 -483h-48q82 122 154 194q-100 0 -100 70q0 41 32.5 70.5t75.5 29.5q35 0 57.5 -21.5t22.5 -54.5q0 -39 -36.5 -91t-157.5 -197z" />
    <glyph glyph-name="uni0157" unicode="&#x157;" horiz-adv-x="823" 
d="M190 0h-94l199 1126h90q-4 -20 -11 -64.5t-11.5 -71t-15.5 -69.5t-25 -85h20q68 155 186.5 239t249.5 84q75 0 129 -22l-18 -101q-53 29 -141 29q-108 0 -206.5 -70t-162.5 -179.5t-86 -233.5zM2 -483h-47q82 122 154 194q-101 0 -101 70q0 41 33 70.5t76 29.5
q35 0 57.5 -21.5t22.5 -54.5q0 -38 -36 -89.5t-159 -198.5z" />
    <glyph glyph-name="Rcaron" unicode="&#x158;" horiz-adv-x="1415" 
d="M940 1720h-141l-211 293h88q97 -108 134 -162q27 -40 48 -82h41q40 47 92 96t79.5 71.5t94.5 76.5h88zM231 0h-100l283 1597h544q21 0 40.5 -1t67.5 -8t87 -20t87 -41.5t81 -67t55.5 -100.5t22.5 -140q0 -139 -65 -257.5t-185.5 -194.5t-274.5 -89l-2 -21
q53 -97 105.5 -202t124.5 -253.5t98 -201.5h-110l-326 655q-278 0 -432 31q-29 -280 -101 -686zM346 750l12 -23q164 18 449 18q212 0 347.5 127t135.5 318q0 154 -96 235.5t-272 81.5q-252 0 -424 19l-21 -19q-41 -389 -131 -757z" />
    <glyph glyph-name="rcaron" unicode="&#x159;" horiz-adv-x="823" 
d="M662 1278h-146l-233 354h90q52 -62 81 -98t65.5 -89t64.5 -104h37q60 74 131.5 139.5t179.5 151.5h90zM190 0h-94l199 1126h90q-4 -20 -11 -64.5t-11.5 -71t-15.5 -69.5t-25 -85h20q68 155 186.5 239t249.5 84q75 0 129 -22l-18 -101q-53 29 -141 29q-108 0 -206.5 -70
t-162.5 -179.5t-86 -233.5z" />
    <glyph glyph-name="Sacute" unicode="&#x15a;" horiz-adv-x="1308" 
d="M1227 2034l-398 -314h-88l324 314h162zM575 -35q-70 0 -134.5 13.5t-130 47t-115.5 85t-86 134t-46 187.5l99 35q17 -193 135 -300.5t301 -107.5q201 0 339 117.5t138 278.5q0 28 -5 53t-13 44.5t-22.5 37.5t-27 30.5t-34.5 25.5t-37 20.5t-41.5 17.5t-42 15t-44 14
t-42.5 14l-141 47q-37 12 -64.5 22t-69 29t-71.5 38.5t-63.5 49.5t-55 63.5t-35.5 78.5t-14 96q0 95 45.5 183.5t123 153t185.5 103.5t228 39q200 0 319.5 -104t138.5 -281l-94 -37q-21 150 -124.5 239t-266.5 89q-188 0 -317.5 -106.5t-129.5 -251.5q0 -41 13 -78.5
t30.5 -63.5t48 -51t53 -39.5t58.5 -30t51.5 -21t44.5 -15.5l144 -50q140 -48 168 -60q157 -67 200 -179q19 -49 19 -109q0 -98 -49 -192t-131 -165.5t-197 -115t-238 -43.5z" />
    <glyph glyph-name="sacute" unicode="&#x15b;" horiz-adv-x="993" 
d="M1040 1673l-381 -395h-84l322 395h143zM420 -35q-158 0 -267.5 87t-132.5 229l93 28q28 -116 119 -188t212 -72q130 0 228 79t98 187q0 36 -13.5 64t-30.5 45t-53 34t-58 24.5t-70 21.5l-99 28q-29 9 -42.5 13t-48 18t-54.5 26t-48 34.5t-43.5 47t-27.5 60t-12 76.5
q0 144 122 248t288 104q138 0 232.5 -76t115.5 -196l-101 -33q-16 94 -86.5 157.5t-185.5 63.5q-119 0 -202 -70t-83 -169q0 -40 16.5 -73.5t38.5 -55t58 -41t62.5 -29t64.5 -21.5l106 -32l46.5 -15t47 -17.5t50 -24t42.5 -31t37.5 -40.5t23 -50.5t9.5 -63.5
q0 -69 -35 -136.5t-94 -121t-144 -86.5t-179 -33z" />
    <glyph glyph-name="Scedilla" unicode="&#x15e;" horiz-adv-x="1308" 
d="M807 1536q-188 0 -317.5 -106.5t-129.5 -251.5q0 -41 13 -78.5t30.5 -63.5t48 -51t53 -39.5t58.5 -30t51.5 -21t44.5 -15.5l144 -50q140 -48 168 -60q157 -67 200 -179q19 -49 19 -109q0 -95 -47 -187.5t-126.5 -163.5t-190 -116t-230.5 -49q-62 -74 -127 -129l6 -6
q47 18 96 18q72 0 114 -35t42 -94q0 -81 -71.5 -141.5t-174.5 -60.5q-66 0 -127.5 28t-97.5 78l55 43q25 -40 73.5 -65t100.5 -25q69 0 117.5 38t48.5 91q0 40 -31 64t-81 24q-57 0 -103 -24l-39 47l125 151q-65 5 -124 22t-117 52.5t-102 86.5t-75 129t-41 175l99 35
q17 -193 135 -300.5t301 -107.5q201 0 339 117.5t138 278.5q0 28 -5 53t-13 44.5t-22.5 37.5t-27 30.5t-34.5 25.5t-37 20.5t-41.5 17.5t-42 15t-44 14t-42.5 14l-141 47q-37 12 -64.5 22t-69 29t-71.5 38.5t-63.5 49.5t-55 63.5t-35.5 78.5t-14 96q0 95 45.5 183.5t123 153
t185.5 103.5t228 39q200 0 319.5 -104t138.5 -281l-94 -37q-21 150 -124.5 239t-266.5 89z" />
    <glyph glyph-name="scedilla" unicode="&#x15f;" horiz-adv-x="993" 
d="M510 616l106 -32l46.5 -15t47 -17.5t50 -24t42.5 -31t37.5 -40.5t23 -50.5t9.5 -63.5q0 -66 -33 -132.5t-89 -119t-137.5 -87t-170.5 -38.5q-62 -74 -127 -129l7 -6q46 18 96 18q72 0 113.5 -35t41.5 -94q0 -81 -71.5 -141.5t-173.5 -60.5q-66 0 -128 28t-98 78l56 43
q25 -40 73.5 -65t100.5 -25q69 0 117.5 38t48.5 91q0 39 -31.5 63.5t-81.5 24.5q-56 0 -102 -24l-39 47l125 151q-138 13 -232.5 99t-116.5 215l93 28q28 -116 119 -188t212 -72q130 0 228 79t98 187q0 36 -13.5 64t-30.5 45t-53 34t-58 24.5t-70 21.5l-99 28
q-29 9 -42.5 13t-48 18t-54.5 26t-48 34.5t-43.5 47t-27.5 60t-12 76.5q0 144 122 248t288 104q138 0 232.5 -76t115.5 -196l-101 -33q-16 94 -86.5 157.5t-185.5 63.5q-119 0 -202 -70t-83 -169q0 -40 16.5 -73.5t38.5 -55t58 -41t62.5 -29t64.5 -21.5z" />
    <glyph glyph-name="Scaron" unicode="&#x160;" horiz-adv-x="1308" 
d="M924 1720h-142l-211 293h88q4 -4 21 -23t22 -25t20.5 -23.5t22.5 -26t20 -25t21 -29t19 -28.5t20 -31.5t17 -32.5h41q40 47 92 96t79.5 71.5t94.5 76.5h88zM575 -35q-70 0 -134.5 13.5t-130 47t-115.5 85t-86 134t-46 187.5l99 35q17 -193 135 -300.5t301 -107.5
q201 0 339 117.5t138 278.5q0 28 -5 53t-13 44.5t-22.5 37.5t-27 30.5t-34.5 25.5t-37 20.5t-41.5 17.5t-42 15t-44 14t-42.5 14l-141 47q-37 12 -64.5 22t-69 29t-71.5 38.5t-63.5 49.5t-55 63.5t-35.5 78.5t-14 96q0 95 45.5 183.5t123 153t185.5 103.5t228 39
q200 0 319.5 -104t138.5 -281l-94 -37q-21 150 -124.5 239t-266.5 89q-188 0 -317.5 -106.5t-129.5 -251.5q0 -41 13 -78.5t30.5 -63.5t48 -51t53 -39.5t58.5 -30t51.5 -21t44.5 -15.5l144 -50q140 -48 168 -60q157 -67 200 -179q19 -49 19 -109q0 -98 -49 -192t-131 -165.5
t-197 -115t-238 -43.5z" />
    <glyph glyph-name="scaron" unicode="&#x161;" horiz-adv-x="993" 
d="M694 1278h-145l-234 354h91q76 -91 123 -154t87 -137h37q59 74 131 138.5t181 152.5h90zM420 -35q-158 0 -267.5 87t-132.5 229l93 28q28 -116 119 -188t212 -72q130 0 228 79t98 187q0 36 -13.5 64t-30.5 45t-53 34t-58 24.5t-70 21.5l-99 28q-29 9 -42.5 13t-48 18
t-54.5 26t-48 34.5t-43.5 47t-27.5 60t-12 76.5q0 144 122 248t288 104q138 0 232.5 -76t115.5 -196l-101 -33q-16 94 -86.5 157.5t-185.5 63.5q-119 0 -202 -70t-83 -169q0 -40 16.5 -73.5t38.5 -55t58 -41t62.5 -29t64.5 -21.5l106 -32l46.5 -15t47 -17.5t50 -24t42.5 -31
t37.5 -40.5t23 -50.5t9.5 -63.5q0 -69 -35 -136.5t-94 -121t-144 -86.5t-179 -33z" />
    <glyph glyph-name="uni0162" unicode="&#x162;" horiz-adv-x="1286" 
d="M195 1507l16 90h1231l-17 -90q-366 0 -581 21q-14 -102 -30.5 -210.5t-28.5 -188t-32 -203.5t-29 -178t-33.5 -196.5t-30 -174.5t-34.5 -195.5t-32 -181.5h-12q-93 -112 -156 -164l6 -6q46 18 96 18q72 0 114 -35t42 -94q0 -81 -71.5 -141.5t-174.5 -60.5
q-66 0 -127.5 28t-97.5 78l55 43q25 -40 73.5 -65t100.5 -25q69 0 117.5 38t48.5 91q0 40 -31 64t-81 24q-57 0 -103 -24l-39 47l152 184h-12q5 25 27 150.5t29.5 167.5t28.5 160t32 177.5t31 167.5t35 182t33.5 170t37 182.5t36.5 170.5q-224 -21 -589 -21z" />
    <glyph glyph-name="uni0163" unicode="&#x163;" horiz-adv-x="729" 
d="M791 1126l-15 -82q-231 0 -373 21q-18 -187 -38 -317t-34.5 -186t-26.5 -99t-18.5 -89t-6.5 -122q0 -56 4 -89.5t16 -61.5t37 -40t65 -12q100 0 211 70l-16 -94q-97 -60 -217 -60q-27 0 -37 2q-80 -91 -129 -131l6 -6q47 18 96 18q72 0 114 -35t42 -94
q0 -81 -71.5 -141.5t-174.5 -60.5q-66 0 -127.5 28t-97.5 78l55 43q25 -40 73.5 -65t100.5 -25q69 0 117.5 38t48.5 91q0 40 -31 64t-81 24q-57 0 -103 -24l-39 47l138 168q-27 12 -46.5 32.5t-30 41t-15 53.5t-5.5 54.5t3 60.5t7 55.5t9 54.5q84 477 149 729
q-105 -21 -250 -21l15 82q149 0 241 -20q1 40 4 77.5t8.5 80t8.5 64.5t11.5 73.5t10.5 64.5h95q-2 -11 -8.5 -49.5t-10 -56t-11 -54t-14.5 -63t-17.5 -63.5t-22.5 -74q143 20 381 20z" />
    <glyph glyph-name="Tcaron" unicode="&#x164;" horiz-adv-x="1286" 
d="M920 1720h-142l-211 293h88q4 -4 21 -23t22 -25t20.5 -23.5t22.5 -26t20 -25t21 -29t19 -28.5t20 -31.5t17 -32.5h41q40 47 92 96t79.5 71.5t94.5 76.5h88zM594 0h-100q5 25 27 150.5t29.5 167.5t28.5 160t32 177.5t31 167.5t35 182t33.5 170t37 182.5t36.5 170.5
q-224 -21 -589 -21l16 90h1231l-17 -90q-366 0 -581 21q-14 -102 -30.5 -210.5t-28.5 -188t-32 -203.5t-29 -178t-33.5 -196.5t-30 -174.5t-34.5 -195.5t-32 -181.5z" />
    <glyph glyph-name="tcaron" unicode="&#x165;" horiz-adv-x="729" 
d="M915 1204h-67q96 152 190 244q-80 14 -80 74q0 42 34 75t79 33q33 0 54.5 -21.5t21.5 -54.5q0 -35 -39.5 -94.5t-192.5 -255.5zM379 -35q-40 0 -71 8.5t-52.5 21.5t-36.5 35.5t-23 43t-11 51.5t-3.5 52.5t3.5 56t7 52.5t9 50q84 477 149 729q-105 -21 -250 -21l15 82
q149 0 241 -20q1 40 4 77.5t8.5 80t8.5 64.5t11.5 73.5t10.5 64.5h95q-2 -11 -8.5 -49.5t-10 -56t-11 -54t-14.5 -63t-17.5 -63.5t-22.5 -74q143 20 381 20l-15 -82q-231 0 -373 21q-18 -187 -38 -317t-34.5 -186t-26.5 -99t-18.5 -89t-6.5 -122q0 -56 4 -89.5t16 -61.5
t37 -40t65 -12q100 0 211 70l-16 -94q-97 -60 -217 -60z" />
    <glyph glyph-name="Tbar" unicode="&#x166;" horiz-adv-x="1286" 
d="M1442 1597l-17 -90q-366 0 -581 21q-43 -303 -105 -688h379l-14 -84h-379q-49 -291 -131 -756h-100q112 626 137 756h-379l14 84h379q68 361 139 688q-224 -21 -589 -21l16 90h1231z" />
    <glyph glyph-name="tbar" unicode="&#x167;" horiz-adv-x="729" 
d="M791 1126l-15 -82q-231 0 -373 21q-20 -211 -47 -379h338l-14 -84h-340q-12 -54 -30.5 -118t-24.5 -107t-6 -125q0 -56 4 -89.5t16 -61.5t37 -40t65 -12q100 0 211 70l-16 -94q-97 -60 -217 -60q-40 0 -71 8.5t-52.5 21.5t-36.5 35.5t-23 43t-11 51.5t-3.5 52.5t3.5 56
t7 52.5t9 50q5 28 21.5 121.5l25.5 144.5h-223l14 84h225q48 233 86 379q-105 -21 -250 -21l15 82q149 0 241 -20q1 40 4 77.5t8.5 80t8.5 64.5t11.5 73.5t10.5 64.5h95q-2 -11 -8.5 -49.5t-10 -56t-11 -54t-14.5 -63t-17.5 -63.5t-22.5 -74q143 20 381 20z" />
    <glyph glyph-name="Umacron" unicode="&#x16a;" horiz-adv-x="1546" 
d="M1327 1847h-647l16 88h647zM666 -35q-124 0 -218 34t-158.5 106.5t-83.5 186t7 273.5l182 1032h101l-183 -1028q-22 -141 -8.5 -238.5t67 -159t130.5 -89t182 -27.5t192.5 28t161.5 87.5t125.5 160.5t75.5 238l182 1028h101l-183 -1032q-50 -282 -223.5 -441t-449.5 -159
z" />
    <glyph glyph-name="umacron" unicode="&#x16b;" horiz-adv-x="1273" 
d="M1112 1438h-688l16 88h688zM477 -35q-49 0 -93 9.5t-87.5 30.5t-74.5 55.5t-54 85t-26 118.5t10 156l124 706h95l-117 -665q-19 -98 -9 -169t33 -118t63.5 -74.5t82 -39t88.5 -11.5q73 0 140.5 26t119.5 69.5t93.5 100t67 116.5t36.5 120l114 645h95l-138 -774
q-38 -207 -24 -352h-96q-7 61 -1 128t33 142h-20q-174 -305 -455 -305z" />
    <glyph glyph-name="Uring" unicode="&#x16e;" horiz-adv-x="1546" 
d="M979 1716q-82 0 -132 48t-50 126q0 99 76 173.5t182 74.5q82 0 132 -48t50 -126q0 -98 -76 -173t-182 -75zM993 1794q69 0 117.5 47.5t48.5 114.5q0 48 -33.5 76t-85.5 28q-70 0 -118 -45.5t-48 -113.5q0 -50 32.5 -78.5t86.5 -28.5zM666 -35q-124 0 -218 34
t-158.5 106.5t-83.5 186t7 273.5l182 1032h101l-183 -1028q-22 -141 -8.5 -238.5t67 -159t130.5 -89t182 -27.5t192.5 28t161.5 87.5t125.5 160.5t75.5 238l182 1028h101l-183 -1032q-50 -282 -223.5 -441t-449.5 -159z" />
    <glyph glyph-name="uring" unicode="&#x16f;" horiz-adv-x="1273" 
d="M733 1245q-82 0 -132 48t-50 126q0 99 76 173.5t182 74.5q82 0 132 -48t50 -126q0 -98 -76 -173t-182 -75zM748 1323q69 0 117 47t48 115q0 48 -33 76t-85 28q-70 0 -118 -45.5t-48 -113.5q0 -50 32.5 -78.5t86.5 -28.5zM477 -35q-49 0 -93 9.5t-87.5 30.5t-74.5 55.5
t-54 85t-26 118.5t10 156l124 706h95l-117 -665q-19 -98 -9 -169t33 -118t63.5 -74.5t82 -39t88.5 -11.5q73 0 140.5 26t119.5 69.5t93.5 100t67 116.5t36.5 120l114 645h95l-138 -774q-38 -207 -24 -352h-96q-7 61 -1 128t33 142h-20q-174 -305 -455 -305z" />
    <glyph glyph-name="Uhungarumlaut" unicode="&#x170;" horiz-adv-x="1546" 
d="M1176 2034l-326 -314h-88l266 314h148zM1458 2034l-346 -314h-88l287 314h147zM666 -35q-124 0 -218 34t-158.5 106.5t-83.5 186t7 273.5l182 1032h101l-183 -1028q-22 -141 -8.5 -238.5t67 -159t130.5 -89t182 -27.5t192.5 28t161.5 87.5t125.5 160.5t75.5 238l182 1028
h101l-183 -1032q-50 -282 -223.5 -441t-449.5 -159z" />
    <glyph glyph-name="uhungarumlaut" unicode="&#x171;" horiz-adv-x="1273" 
d="M952 1673l-340 -395h-84l281 395h143zM1239 1673l-360 -395h-84l301 395h143zM477 -35q-49 0 -93 9.5t-87.5 30.5t-74.5 55.5t-54 85t-26 118.5t10 156l124 706h95l-117 -665q-19 -98 -9 -169t33 -118t63.5 -74.5t82 -39t88.5 -11.5q73 0 140.5 26t119.5 69.5t93.5 100
t67 116.5t36.5 120l114 645h95l-138 -774q-38 -207 -24 -352h-96q-7 61 -1 128t33 142h-20q-174 -305 -455 -305z" />
    <glyph glyph-name="Uogonek" unicode="&#x172;" horiz-adv-x="1546" 
d="M1239 569l182 1028h101l-183 -1032q-45 -256 -193 -411.5t-384 -182.5q-168 -103 -168 -225q0 -62 45.5 -98.5t114.5 -36.5q40 0 92 14l-15 -74q-57 -14 -94 -14q-101 0 -163 50.5t-62 140.5q0 136 147 237q-123 1 -215 35t-156 106.5t-82.5 186t7.5 272.5l182 1032h101
l-183 -1028q-22 -141 -8.5 -238.5t67 -159t130.5 -89t182 -27.5t192.5 28t161.5 87.5t125.5 160.5t75.5 238z" />
    <glyph glyph-name="uogonek" unicode="&#x173;" horiz-adv-x="1273" 
d="M797 -254q0 -63 44.5 -99t114.5 -36q38 0 91 14l-15 -74q-55 -14 -96 -14q-100 0 -161.5 51t-61.5 140q0 155 207 272q-7 61 -1 128t33 142h-20q-174 -305 -455 -305q-49 0 -93 9.5t-87.5 30.5t-74.5 55.5t-54 85t-26 118.5t10 156l124 706h95l-117 -665q-19 -98 -9 -169
t33 -118t63.5 -74.5t82 -39t88.5 -11.5q73 0 140.5 26t119.5 69.5t93.5 100t67 116.5t36.5 120l114 645h95l-138 -774q-38 -207 -24 -352h-2q-217 -111 -217 -254z" />
    <glyph glyph-name="Wcircumflex" unicode="&#x174;" horiz-adv-x="2312" 
d="M1116 1720h-88l313 293h142l211 -293h-88q-52 57 -72 80t-53 70t-56 94h-41q-40 -46 -92 -94.5t-83 -74.5t-93 -75zM592 0h-117l-250 1597h103q54 -325 82.5 -502t67.5 -457.5t67 -533.5h20q243 526 719 1493h111q134 -925 196 -1493h21q350 745 739 1493h103l-816 -1597
h-116q-123 781 -193 1487h-20q-346 -769 -717 -1487z" />
    <glyph glyph-name="wcircumflex" unicode="&#x175;" horiz-adv-x="1839" 
d="M764 1278h-90l360 354h146l233 -354h-90q-55 66 -78.5 96t-62.5 88t-62 107h-45q-105 -129 -311 -291zM453 0h-91l-221 1126h103q9 -49 36.5 -196t40 -215.5t33 -188.5t36 -223.5t28.5 -210.5h20q159 338 531 1034h102q46 -236 67.5 -350t54.5 -312t56 -372h21
q36 78 73 154t79.5 160.5t71.5 142.5t79.5 154.5t71.5 136.5t79 149.5t72 136.5h102l-618 -1126h-90q-131 676 -186 1026h-5q-200 -394 -546 -1026z" />
    <glyph glyph-name="Ycircumflex" unicode="&#x176;" horiz-adv-x="1398" 
d="M659 1720h-88l314 293h141l211 -293h-88q-49 55 -70.5 80t-54 71t-55.5 93h-41q-40 -46 -93 -95.5t-82 -73t-94 -75.5zM649 0h-100q79 433 117 596q-248 548 -439 1001h111q255 -602 371 -929h20q56 79 120 167t108 147t125.5 165t109.5 142t126.5 162t113.5 146h106
q-63 -80 -221.5 -282.5t-293 -372t-278.5 -346.5q-33 -247 -96 -596z" />
    <glyph glyph-name="ycircumflex" unicode="&#x177;" horiz-adv-x="1085" 
d="M375 1278h-90l360 354h146l233 -354h-90q-55 66 -78.5 96t-62.5 88t-62 107h-45q-105 -129 -311 -291zM225 -451h-80l254 445l-262 1132h103q131 -560 209 -1052h20q274 532 578 1052h102z" />
    <glyph glyph-name="Ydieresis" unicode="&#x178;" horiz-adv-x="1398" 
d="M731 1800q-33 0 -54.5 21.5t-21.5 54.5q0 41 32.5 72.5t74.5 31.5q33 0 53.5 -20.5t20.5 -50.5q0 -43 -32 -76t-73 -33zM1108 1800q-34 0 -55 21t-21 53q0 43 32 74.5t75 31.5q32 0 52.5 -21t20.5 -52q0 -41 -32 -74t-72 -33zM649 0h-100q79 433 117 596
q-248 548 -439 1001h111q255 -602 371 -929h20q56 79 120 167t108 147t125.5 165t109.5 142t126.5 162t113.5 146h106q-63 -80 -221.5 -282.5t-293 -372t-278.5 -346.5q-33 -247 -96 -596z" />
    <glyph glyph-name="Zacute" unicode="&#x179;" horiz-adv-x="1327" 
d="M1249 2034l-397 -314h-88l323 314h162zM1171 0h-1216l14 86q261 284 761.5 817t572.5 610l-7 21q-481 -27 -1032 -27l17 90h1155l-15 -79q-196 -213 -418.5 -450t-490.5 -520.5t-426 -451.5l8 -20q375 20 1094 20z" />
    <glyph glyph-name="zacute" unicode="&#x17a;" horiz-adv-x="962" 
d="M1030 1673l-381 -395h-84l322 395h143zM821 0h-864l12 66q59 67 261 298t337.5 383.5t274.5 303.5l-4 20q-369 -31 -654 -31l15 86h774l-12 -65q-45 -51 -203.5 -228.5t-234 -262.5t-203.5 -226t-236 -258l6 -20q266 20 746 20z" />
    <glyph glyph-name="Zdotaccent" unicode="&#x17b;" horiz-adv-x="1327" 
d="M866 1794q-35 0 -57.5 22.5t-22.5 57.5q0 44 34.5 78.5t80.5 34.5q35 0 57.5 -22.5t22.5 -55.5q0 -44 -35.5 -79.5t-79.5 -35.5zM1171 0h-1216l14 86q261 284 761.5 817t572.5 610l-7 21q-481 -27 -1032 -27l17 90h1155l-15 -79q-196 -213 -418.5 -450t-490.5 -520.5
t-426 -451.5l8 -20q375 20 1094 20z" />
    <glyph glyph-name="zdotaccent" unicode="&#x17c;" horiz-adv-x="962" 
d="M643 1446q-35 0 -57.5 22.5t-22.5 57.5q0 44 34.5 78t80.5 34q35 0 57.5 -22t22.5 -55q0 -44 -35.5 -79.5t-79.5 -35.5zM821 0h-864l12 66q59 67 261 298t337.5 383.5t274.5 303.5l-4 20q-369 -31 -654 -31l15 86h774l-12 -65q-45 -51 -203.5 -228.5t-234 -262.5
t-203.5 -226t-236 -258l6 -20q266 20 746 20z" />
    <glyph glyph-name="Zcaron" unicode="&#x17d;" horiz-adv-x="1327" 
d="M905 1720h-141l-211 293h88q97 -108 134 -162q27 -40 48 -82h41q40 47 92 96t79.5 71.5t94.5 76.5h89zM1171 0h-1216l14 86q261 284 761.5 817t572.5 610l-7 21q-481 -27 -1032 -27l17 90h1155l-15 -79q-196 -213 -418.5 -450t-490.5 -520.5t-426 -451.5l8 -20
q375 20 1094 20z" />
    <glyph glyph-name="zcaron" unicode="&#x17e;" horiz-adv-x="962" 
d="M684 1278h-145l-234 354h90q52 -62 81 -98t65.5 -89t64.5 -104h37q60 74 131.5 139.5t179.5 151.5h90zM821 0h-864l12 66q59 67 261 298t337.5 383.5t274.5 303.5l-4 20q-369 -31 -654 -31l15 86h774l-12 -65q-45 -51 -203.5 -228.5t-234 -262.5t-203.5 -226t-236 -258
l6 -20q266 20 746 20z" />
    <glyph glyph-name="uni0218" unicode="&#x218;" horiz-adv-x="1308" 
d="M575 -35q-70 0 -134.5 13.5t-130 47t-115.5 85t-86 134t-46 187.5l99 35q17 -193 135 -300.5t301 -107.5q201 0 339 117.5t138 278.5q0 28 -5 53t-13 44.5t-22.5 37.5t-27 30.5t-34.5 25.5t-37 20.5t-41.5 17.5t-42 15t-44 14t-42.5 14l-141 47q-37 12 -64.5 22t-69 29
t-71.5 38.5t-63.5 49.5t-55 63.5t-35.5 78.5t-14 96q0 95 45.5 183.5t123 153t185.5 103.5t228 39q200 0 319.5 -104t138.5 -281l-94 -37q-21 150 -124.5 239t-266.5 89q-188 0 -317.5 -106.5t-129.5 -251.5q0 -41 13 -78.5t30.5 -63.5t48 -51t53 -39.5t58.5 -30t51.5 -21
t44.5 -15.5l144 -50q140 -48 168 -60q157 -67 200 -179q19 -49 19 -109q0 -98 -49 -192t-131 -165.5t-197 -115t-238 -43.5zM438 -483h-47q82 122 154 194q-101 0 -101 70q0 41 33 70.5t76 29.5q35 0 57.5 -21.5t22.5 -54.5q0 -38 -36 -89.5t-159 -198.5z" />
    <glyph glyph-name="uni0219" unicode="&#x219;" horiz-adv-x="993" 
d="M420 -35q-158 0 -267.5 87t-132.5 229l93 28q28 -116 119 -188t212 -72q130 0 228 79t98 187q0 36 -13.5 64t-30.5 45t-53 34t-58 24.5t-70 21.5l-99 28q-29 9 -42.5 13t-48 18t-54.5 26t-48 34.5t-43.5 47t-27.5 60t-12 76.5q0 144 122 248t288 104q138 0 232.5 -76
t115.5 -196l-101 -33q-16 94 -86.5 157.5t-185.5 63.5q-119 0 -202 -70t-83 -169q0 -40 16.5 -73.5t38.5 -55t58 -41t62.5 -29t64.5 -21.5l106 -32l46.5 -15t47 -17.5t50 -24t42.5 -31t37.5 -40.5t23 -50.5t9.5 -63.5q0 -69 -35 -136.5t-94 -121t-144 -86.5t-179 -33z
M285 -483h-47q84 125 153 194q-100 0 -100 70q0 41 32.5 70.5t75.5 29.5q35 0 57.5 -21.5t22.5 -54.5q0 -39 -36.5 -91t-157.5 -197z" />
    <glyph glyph-name="uni021A" unicode="&#x21a;" horiz-adv-x="1286" 
d="M594 0h-100q5 25 27 150.5t29.5 167.5t28.5 160t32 177.5t31 167.5t35 182t33.5 170t37 182.5t36.5 170.5q-224 -21 -589 -21l16 90h1231l-17 -90q-366 0 -581 21q-14 -102 -30.5 -210.5t-28.5 -188t-32 -203.5t-29 -178t-33.5 -196.5t-30 -174.5t-34.5 -195.5
t-32 -181.5zM395 -483h-47q82 122 154 194q-101 0 -101 70q0 41 33 70.5t76 29.5q35 0 57.5 -21.5t22.5 -54.5q0 -38 -36 -89.5t-159 -198.5z" />
    <glyph glyph-name="uni021B" unicode="&#x21b;" horiz-adv-x="729" 
d="M379 -35q-40 0 -71 8.5t-52.5 21.5t-36.5 35.5t-23 43t-11 51.5t-3.5 52.5t3.5 56t7 52.5t9 50q84 477 149 729q-105 -21 -250 -21l15 82q149 0 241 -20q1 40 4 77.5t8.5 80t8.5 64.5t11.5 73.5t10.5 64.5h95q-2 -11 -8.5 -49.5t-10 -56t-11 -54t-14.5 -63t-17.5 -63.5
t-22.5 -74q143 20 381 20l-15 -82q-231 0 -373 21q-18 -187 -38 -317t-34.5 -186t-26.5 -99t-18.5 -89t-6.5 -122q0 -56 4 -89.5t16 -61.5t37 -40t65 -12q100 0 211 70l-16 -94q-97 -60 -217 -60zM182 -483h-47q82 122 154 194q-101 0 -101 70q0 41 33 70.5t76 29.5
q35 0 57.5 -21.5t22.5 -54.5q0 -38 -36 -89.5t-159 -198.5z" />
    <glyph glyph-name="gravecomb" unicode="&#x300;" horiz-adv-x="0" 
d="M115 1278h-84l-242 395h143z" />
    <glyph glyph-name="acutecomb" unicode="&#x301;" horiz-adv-x="0" 
d="M410 1673l-381 -395h-84l321 395h144z" />
    <glyph glyph-name="uni0302" unicode="&#x302;" horiz-adv-x="0" 
d="M-457 1278h-90l361 354h145l234 -354h-91q-52 63 -77.5 95.5t-63.5 89.5t-61 106h-45q-103 -127 -312 -291z" />
    <glyph glyph-name="tildecomb" unicode="&#x303;" horiz-adv-x="0" 
d="M-84 1343q-17 0 -31 2t-27.5 8t-21.5 9t-21 14t-16.5 14t-18 18t-16.5 17l-30 31q-2 2 -11 11.5t-12 11.5t-11 9.5t-13 10t-13 6t-16.5 5t-17.5 1.5q-52 0 -91 -43t-51 -110h-76q20 102 86 165.5t152 63.5q42 0 72 -18t63 -53l35 -37q57 -62 109 -62q51 0 88 44t49 112
h76q-19 -103 -82 -166.5t-154 -63.5z" />
    <glyph glyph-name="uni0304" unicode="&#x304;" horiz-adv-x="0" 
d="M164 1438h-688l16 88h688z" />
    <glyph glyph-name="uni0306" unicode="&#x306;" horiz-adv-x="0" 
d="M-176 1278q-169 0 -247 111t-54 284h90q-20 -143 43.5 -226t181.5 -83q119 0 211.5 82.5t124.5 226.5h90q-37 -172 -154.5 -283.5t-285.5 -111.5z" />
    <glyph glyph-name="uni0307" unicode="&#x307;" horiz-adv-x="0" 
d="M8 1446q-35 0 -57.5 22.5t-22.5 57.5q0 44 34.5 78t80.5 34q35 0 57.5 -22t22.5 -55q0 -44 -35.5 -79.5t-79.5 -35.5z" />
    <glyph glyph-name="uni0308" unicode="&#x308;" horiz-adv-x="0" 
d="M-612 1391q-34 0 -55 21.5t-21 53.5q0 41 32.5 73t73.5 32q33 0 53.5 -21t20.5 -51q0 -43 -31.5 -75.5t-72.5 -32.5zM-276 1391q-34 0 -55 20.5t-21 52.5q0 43 31.5 75t74.5 32q32 0 53 -21.5t21 -52.5q0 -41 -32 -73.5t-72 -32.5z" />
    <glyph glyph-name="uni030A" unicode="&#x30a;" horiz-adv-x="0" 
d="M-12 1245q-82 0 -132.5 48t-50.5 126q0 99 76 173.5t182 74.5q82 0 132.5 -48t50.5 -126q0 -98 -76 -173t-182 -75zM2 1323q69 0 117.5 47.5t48.5 114.5q0 48 -33.5 76t-85.5 28q-70 0 -118 -45.5t-48 -113.5q0 -50 32.5 -78.5t86.5 -28.5z" />
    <glyph glyph-name="uni030B" unicode="&#x30b;" horiz-adv-x="0" 
d="M205 1673l-340 -395h-84l280 395h144zM492 1673l-361 -395h-84l301 395h144z" />
    <glyph glyph-name="uni030C" unicode="&#x30c;" horiz-adv-x="0" 
d="M-104 1278h-146l-233 354h90q52 -62 81 -98t65.5 -89t64.5 -104h37q60 74 131.5 139.5t179.5 151.5h90z" />
    <glyph glyph-name="uni0312" unicode="&#x312;" horiz-adv-x="0" 
d="M-195 1323q0 38 39.5 96.5t192.5 253.5h67q-84 -135 -182 -264q37 4 54.5 -12t17.5 -45q0 -43 -31.5 -74t-75.5 -31q-36 0 -59 21.5t-23 54.5z" />
    <glyph glyph-name="uni0326" unicode="&#x326;" horiz-adv-x="0" 
d="M-422 -483h-47q82 122 154 194q-101 0 -101 70q0 41 33 70.5t76 29.5q35 0 57.5 -21.5t22.5 -54.5q0 -38 -36 -89.5t-159 -198.5z" />
    <glyph glyph-name="uni0327" unicode="&#x327;" horiz-adv-x="0" 
d="M-723 -483q-66 0 -127.5 28t-97.5 78l55 43q25 -40 73.5 -65t100.5 -25q69 0 117.5 38t48.5 91q0 39 -31.5 63.5t-81.5 24.5q-56 0 -102 -24l-39 47l152 184h75q-35 -41 -51.5 -60.5t-45.5 -49.5t-58 -54l6 -6q47 18 96 18q72 0 114 -35t42 -94q0 -81 -71.5 -141.5
t-174.5 -60.5z" />
    <glyph glyph-name="uni0328" unicode="&#x328;" horiz-adv-x="0" 
d="M-725 -483q-100 0 -161.5 50.5t-61.5 139.5q0 156 207 273h94q-217 -111 -217 -254q0 -63 45 -99.5t114 -36.5q35 0 91 15l-15 -74q-55 -14 -96 -14z" />
    <glyph glyph-name="uni0335" unicode="&#x335;" horiz-adv-x="0" 
d="M-608 604h655l-14 -84h-656z" />
    <glyph glyph-name="uni0337" unicode="&#x337;" horiz-adv-x="0" 
d="M-375 547l17 88l563 358l-15 -88z" />
    <glyph glyph-name="uni0338" unicode="&#x338;" horiz-adv-x="0" 
d="M-1051 -55h-108l1134 1235h103z" />
    <glyph glyph-name="Wgrave" unicode="&#x1e80;" horiz-adv-x="2312" 
d="M1434 1720h-88l-287 314h162zM592 0h-117l-250 1597h103q54 -325 82.5 -502t67.5 -457.5t67 -533.5h20q243 526 719 1493h111q134 -925 196 -1493h21q350 745 739 1493h103l-816 -1597h-116q-123 781 -193 1487h-20q-346 -769 -717 -1487z" />
    <glyph glyph-name="wgrave" unicode="&#x1e81;" horiz-adv-x="1839" 
d="M1092 1278h-84l-242 395h143zM453 0h-91l-221 1126h103q9 -49 36.5 -196t40 -215.5t33 -188.5t36 -223.5t28.5 -210.5h20q159 338 531 1034h102q46 -236 67.5 -350t54.5 -312t56 -372h21q36 78 73 154t79.5 160.5t71.5 142.5t79.5 154.5t71.5 136.5t79 149.5t72 136.5
h102l-618 -1126h-90q-131 676 -186 1026h-5q-200 -394 -546 -1026z" />
    <glyph glyph-name="Wacute" unicode="&#x1e82;" horiz-adv-x="2312" 
d="M1776 2034l-398 -314h-88l324 314h162zM592 0h-117l-250 1597h103q54 -325 82.5 -502t67.5 -457.5t67 -533.5h20q243 526 719 1493h111q134 -925 196 -1493h21q350 745 739 1493h103l-816 -1597h-116q-123 781 -193 1487h-20q-346 -769 -717 -1487z" />
    <glyph glyph-name="wacute" unicode="&#x1e83;" horiz-adv-x="1839" 
d="M1462 1673l-381 -395h-84l322 395h143zM453 0h-91l-221 1126h103q9 -49 36.5 -196t40 -215.5t33 -188.5t36 -223.5t28.5 -210.5h20q159 338 531 1034h102q46 -236 67.5 -350t54.5 -312t56 -372h21q36 78 73 154t79.5 160.5t71.5 142.5t79.5 154.5t71.5 136.5t79 149.5
t72 136.5h102l-618 -1126h-90q-131 676 -186 1026h-5q-200 -394 -546 -1026z" />
    <glyph glyph-name="Wdieresis" unicode="&#x1e84;" horiz-adv-x="2312" 
d="M1188 1800q-33 0 -54.5 21.5t-21.5 54.5q0 41 32.5 72.5t74.5 31.5q33 0 53 -20.5t20 -50.5q0 -43 -31.5 -76t-72.5 -33zM1565 1800q-34 0 -55 21t-21 53q0 43 31.5 74.5t74.5 31.5q32 0 53 -21t21 -52q0 -41 -32 -74t-72 -33zM592 0h-117l-250 1597h103
q54 -325 82.5 -502t67.5 -457.5t67 -533.5h20q243 526 719 1493h111q134 -925 196 -1493h21q350 745 739 1493h103l-816 -1597h-116q-123 781 -193 1487h-20q-346 -769 -717 -1487z" />
    <glyph glyph-name="wdieresis" unicode="&#x1e85;" horiz-adv-x="1839" 
d="M897 1391q-33 0 -54.5 21.5t-21.5 53.5q0 41 33 73t74 32q33 0 53 -21t20 -51q0 -43 -31.5 -75.5t-72.5 -32.5zM1233 1391q-35 0 -55.5 20.5t-20.5 52.5q0 43 32 75t75 32q32 0 52.5 -21.5t20.5 -52.5q0 -41 -32 -73.5t-72 -32.5zM453 0h-91l-221 1126h103
q9 -49 36.5 -196t40 -215.5t33 -188.5t36 -223.5t28.5 -210.5h20q159 338 531 1034h102q46 -236 67.5 -350t54.5 -312t56 -372h21q36 78 73 154t79.5 160.5t71.5 142.5t79.5 154.5t71.5 136.5t79 149.5t72 136.5h102l-618 -1126h-90q-131 676 -186 1026h-5
q-200 -394 -546 -1026z" />
    <glyph glyph-name="uni1E9E" unicode="&#x1e9e;" horiz-adv-x="1533" 
d="M211 0h-100l168 954q32 181 77 287q167 389 629 389q232 0 358.5 -96t126.5 -270q0 -170 -110.5 -299t-280.5 -146l-4 -22q145 0 235.5 -82.5t90.5 -233.5q0 -76 -24 -146t-75 -131.5t-123.5 -106.5t-176 -71t-226.5 -26h-162l17 90h186q222 0 350.5 109t128.5 276
q0 142 -95.5 216.5t-262.5 74.5h-107l15 82h127q170 0 280.5 113t110.5 276q0 151 -102 230t-291 79q-139 0 -246 -47t-164 -102.5t-99.5 -151.5t-53 -140.5t-24.5 -122.5q-1 -1 -1 -1.5v-1.5z" />
    <glyph glyph-name="Ygrave" unicode="&#x1ef2;" horiz-adv-x="1398" 
d="M977 1720h-88l-287 314h162zM649 0h-100q79 433 117 596q-248 548 -439 1001h111q255 -602 371 -929h20q56 79 120 167t108 147t125.5 165t109.5 142t126.5 162t113.5 146h106q-63 -80 -221.5 -282.5t-293 -372t-278.5 -346.5q-33 -247 -96 -596z" />
    <glyph glyph-name="ygrave" unicode="&#x1ef3;" horiz-adv-x="1085" 
d="M702 1278h-84l-241 395h143zM225 -451h-80l254 445l-262 1132h103q131 -560 209 -1052h20q274 532 578 1052h102z" />
    <glyph glyph-name="uni2000" unicode="&#x2000;" horiz-adv-x="1024" 
 />
    <glyph glyph-name="uni2001" unicode="&#x2001;" 
 />
    <glyph glyph-name="uni2002" unicode="&#x2002;" horiz-adv-x="1024" 
 />
    <glyph glyph-name="uni2003" unicode="&#x2003;" 
 />
    <glyph glyph-name="uni2004" unicode="&#x2004;" horiz-adv-x="681" 
 />
    <glyph glyph-name="uni2005" unicode="&#x2005;" horiz-adv-x="512" 
 />
    <glyph glyph-name="uni2006" unicode="&#x2006;" horiz-adv-x="342" 
 />
    <glyph glyph-name="uni2007" unicode="&#x2007;" horiz-adv-x="579" 
 />
    <glyph glyph-name="uni2008" unicode="&#x2008;" horiz-adv-x="452" 
 />
    <glyph glyph-name="uni2009" unicode="&#x2009;" horiz-adv-x="256" 
 />
    <glyph glyph-name="uni200A" unicode="&#x200a;" horiz-adv-x="86" 
 />
    <glyph glyph-name="uni200B" unicode="&#x200b;" horiz-adv-x="0" 
 />
    <glyph glyph-name="endash" unicode="&#x2013;" horiz-adv-x="1001" 
d="M889 582h-770l14 84h770z" />
    <glyph glyph-name="emdash" unicode="&#x2014;" horiz-adv-x="1431" 
d="M1319 582h-1200l14 84h1200z" />
    <glyph glyph-name="quoteleft" unicode="&#x2018;" horiz-adv-x="444" 
d="M465 1630h67q-38 -59 -58.5 -88t-56 -73t-75.5 -83q80 -14 80 -73q0 -42 -34 -75.5t-79 -33.5q-33 0 -54.5 21.5t-21.5 54.5q0 35 39.5 94.5t192.5 255.5z" />
    <glyph glyph-name="quoteright" unicode="&#x2019;" horiz-adv-x="450" 
d="M301 1204h-68q95 150 191 244q-80 14 -80 74q0 42 34 75t79 33q33 0 54 -21.5t21 -54.5q0 -36 -39.5 -95.5t-191.5 -254.5z" />
    <glyph glyph-name="quotesinglbase" unicode="&#x201a;" horiz-adv-x="417" 
d="M10 -252h-67q38 59 58.5 88t56 73t75.5 83q-80 14 -80 74q0 42 34 75t79 33q33 0 54.5 -21.5t21.5 -54.5q0 -35 -39.5 -94.5t-192.5 -255.5z" />
    <glyph glyph-name="quotedblleft" unicode="&#x201c;" horiz-adv-x="731" 
d="M465 1630h67q-38 -59 -58.5 -88t-56 -73t-75.5 -83q80 -14 80 -73q0 -42 -34 -75.5t-79 -33.5q-33 0 -54.5 21.5t-21.5 54.5q0 35 39.5 94.5t192.5 255.5zM752 1630h67q-38 -59 -58.5 -88t-56 -73t-75.5 -83q80 -14 80 -73q0 -42 -34 -75.5t-79 -33.5q-33 0 -54.5 21.5
t-21.5 54.5q0 35 39.5 94.5t192.5 255.5z" />
    <glyph glyph-name="quotedblright" unicode="&#x201d;" horiz-adv-x="737" 
d="M301 1204h-68q95 150 191 244q-80 14 -80 74q0 42 34 75t79 33q33 0 54 -21.5t21 -54.5q0 -36 -39.5 -95.5t-191.5 -254.5zM588 1204h-68q37 56 58.5 87.5t57 74.5t75.5 82q-80 14 -80 74q0 42 33.5 75t78.5 33q33 0 54.5 -21.5t21.5 -54.5q0 -36 -39.5 -95.5
t-191.5 -254.5z" />
    <glyph glyph-name="quotedblbase" unicode="&#x201e;" horiz-adv-x="704" 
d="M10 -252h-67q38 59 58.5 88t56 73t75.5 83q-80 14 -80 74q0 42 34 75t79 33q33 0 54.5 -21.5t21.5 -54.5q0 -35 -39.5 -94.5t-192.5 -255.5zM297 -252h-68q37 56 58.5 87.5t57 74.5t75.5 82q-80 14 -80 74q0 42 34 75t79 33q33 0 54 -21.5t21 -54.5q0 -36 -39.5 -95.5
t-191.5 -254.5z" />
    <glyph glyph-name="dagger" unicode="&#x2020;" horiz-adv-x="989" 
d="M524 430h-100q90 513 145 770q-129 -10 -362 -10l16 96q234 0 359 -10q16 153 55 362h100q-39 -228 -75 -362q129 10 360 10l-16 -96q-232 0 -357 10q-33 -231 -125 -770z" />
    <glyph glyph-name="daggerdbl" unicode="&#x2021;" horiz-adv-x="1091" 
d="M1073 1286l-18 -96q-232 0 -375 20q11 -169 -51 -354q146 21 370 21l-16 -97q-225 0 -365 21q-4 -130 -45 -371h-100q3 15 13 68.5t15 77t14.5 67t20 81.5t23.5 77q-148 -21 -375 -21l17 97q226 0 368 -21q0 174 62 354q-141 -20 -375 -20l18 96q234 0 367 -20
q4 131 45 372h100q-42 -235 -96 -372q152 20 383 20z" />
    <glyph glyph-name="bullet" unicode="&#x2022;" horiz-adv-x="751" 
d="M352 424q-62 0 -100.5 40.5t-38.5 98.5q0 79 61 139t140 60q61 0 99 -38.5t38 -96.5q0 -77 -61.5 -140t-137.5 -63z" />
    <glyph glyph-name="ellipsis" unicode="&#x2026;" horiz-adv-x="1271" 
d="M143 -14q-35 0 -56 22t-21 55q0 44 34 77.5t78 33.5q33 0 54.5 -21.5t21.5 -54.5q0 -43 -34 -77.5t-77 -34.5zM553 -14q-35 0 -56.5 22t-21.5 55q0 44 34.5 77.5t78.5 33.5q33 0 54.5 -21.5t21.5 -54.5q0 -43 -34 -77.5t-77 -34.5zM963 -14q-35 0 -56.5 22t-21.5 55
q0 44 34 77.5t78 33.5q33 0 54.5 -21.5t21.5 -54.5q0 -43 -33.5 -77.5t-76.5 -34.5z" />
    <glyph glyph-name="uni202F" unicode="&#x202f;" horiz-adv-x="413" 
 />
    <glyph glyph-name="perthousand" unicode="&#x2030;" horiz-adv-x="2273" 
d="M381 811q-95 0 -149 70.5t-54 191.5q0 110 42.5 212.5t119 168.5t166.5 66q95 0 149 -72.5t54 -194.5q0 -109 -42.5 -210.5t-119 -166.5t-166.5 -65zM190 0h-92l1397 1468h84zM391 883q93 0 163.5 111t70.5 253q0 95 -34.5 147t-94.5 52q-93 0 -163.5 -111.5
t-70.5 -253.5q0 -94 34 -146t95 -52zM1155 -29q-95 0 -149 70.5t-54 191.5q0 110 42.5 212.5t119 168.5t166.5 66q95 0 149 -72t54 -194q0 -109 -42.5 -211t-119 -167t-166.5 -65zM1831 -29q-95 0 -149 70.5t-54 191.5q0 110 42.5 212.5t119 168.5t166.5 66q95 0 149 -72
t54 -194q0 -109 -42.5 -211t-119 -167t-166.5 -65zM1165 43q93 0 163.5 111.5t70.5 253.5q0 94 -34 146t-95 52q-93 0 -163.5 -111t-70.5 -253q0 -95 34.5 -147t94.5 -52zM1841 43q93 0 163.5 111.5t70.5 253.5q0 94 -34 146t-95 52q-93 0 -163.5 -111t-70.5 -253
q0 -95 34.5 -147t94.5 -52z" />
    <glyph glyph-name="guilsinglleft" unicode="&#x2039;" horiz-adv-x="727" 
d="M512 164h-117l-274 405l2 9l418 405h116q-7 -6 -44 -42t-45.5 -43.5t-41.5 -39t-44 -41.5t-40.5 -37t-44.5 -39.5t-41 -35t-45 -38t-43 -34t-47 -35.5l-8 -49q78 -78 145.5 -167.5t153.5 -217.5z" />
    <glyph glyph-name="guilsinglright" unicode="&#x203a;" horiz-adv-x="729" 
d="M193 164h-117q10 9 55.5 53t62 59.5t57.5 54t65.5 59.5t60.5 52.5t68.5 57t64.5 49.5l8 49q-78 79 -146 169.5t-151 215.5h117l274 -405l-2 -9z" />
    <glyph glyph-name="fraction" unicode="&#x2044;" horiz-adv-x="245" 
d="M-485 0h-93l1397 1468h84z" />
    <glyph glyph-name="uni205F" unicode="&#x205f;" horiz-adv-x="454" 
 />
    <glyph glyph-name="uni2070" unicode="&#x2070;" horiz-adv-x="675" 
d="M381 811q-95 0 -149 70.5t-54 191.5q0 110 42.5 212.5t119 168.5t166.5 66q95 0 149 -72.5t54 -194.5q0 -109 -42.5 -210.5t-119 -166.5t-166.5 -65zM391 883q93 0 163.5 111t70.5 253q0 95 -34.5 147t-94.5 52q-93 0 -163.5 -111.5t-70.5 -253.5q0 -94 34 -146t95 -52z
" />
    <glyph glyph-name="uni2074" unicode="&#x2074;" horiz-adv-x="630" 
d="M514 825h-76l29 162h-344l12 72l424 446h76l-80 -450h98l-12 -68h-98zM539 1399l-324 -344h264z" />
    <glyph glyph-name="uni2075" unicode="&#x2075;" horiz-adv-x="620" 
d="M348 811q-88 0 -149.5 43t-71.5 113l74 34q10 -57 54.5 -89.5t102.5 -32.5q80 0 137.5 57.5t57.5 132.5q0 59 -36.5 94t-94.5 35q-99 0 -164 -86l-61 23l143 370h336l-10 -67h-281l-96 -246q27 30 74.5 49t91.5 19q77 0 129.5 -48t52.5 -131q0 -109 -86 -189.5
t-203 -80.5z" />
    <glyph glyph-name="uni2076" unicode="&#x2076;" horiz-adv-x="647" 
d="M377 811q-96 0 -150.5 62t-54.5 178q0 115 52.5 223.5t143 177t191.5 68.5t152 -56l-54 -53q-42 39 -112 39q-98 0 -176.5 -79.5t-106.5 -223.5h2q28 54 87.5 86.5t121.5 32.5q79 0 134 -51.5t55 -133.5q0 -104 -83.5 -187t-201.5 -83zM391 879q75 0 134 58.5t59 133.5
q0 60 -38 97.5t-97 37.5q-75 0 -134 -58.5t-59 -133.5q0 -58 38 -96.5t97 -38.5z" />
    <glyph glyph-name="uni2077" unicode="&#x2077;" horiz-adv-x="544" 
d="M276 825h-81q24 139 135.5 322.5t249.5 298.5h-390l13 70h479l-12 -74q-143 -112 -256.5 -293.5t-137.5 -323.5z" />
    <glyph glyph-name="uni2078" unicode="&#x2078;" horiz-adv-x="636" 
d="M362 811q-93 0 -149.5 47t-56.5 119q0 69 47 127.5t116 75.5l3 4q-82 39 -82 123q0 82 72.5 147.5t174.5 65.5q81 0 133 -43t52 -109q0 -59 -36.5 -110t-96.5 -74l-2 -4q49 -13 76.5 -50t27.5 -90q0 -93 -81.5 -161t-197.5 -68zM434 1210q65 0 114.5 44t49.5 100
q0 45 -34 73.5t-87 28.5q-66 0 -113 -41t-47 -98q0 -47 32 -77t85 -30zM377 879q76 0 129 49.5t53 118.5q0 50 -34.5 79t-98.5 29q-79 0 -132.5 -45t-53.5 -111q0 -56 38 -88t99 -32z" />
    <glyph glyph-name="uni2079" unicode="&#x2079;" horiz-adv-x="657" 
d="M338 811q-127 0 -193 100l58 50q53 -82 147 -82q99 0 165 85.5t89 217.5q-29 -60 -89.5 -94.5t-123.5 -34.5q-81 0 -134.5 52.5t-53.5 137.5q0 111 88 194t207 83q88 0 142 -56t54 -182q0 -120 -47.5 -228.5t-130.5 -175.5t-178 -67zM412 1110q78 0 139 66t61 145
q0 61 -38 97t-97 36q-79 0 -137.5 -61.5t-58.5 -143.5q0 -62 36.5 -100.5t94.5 -38.5z" />
    <glyph glyph-name="uni2080" unicode="&#x2080;" horiz-adv-x="675" 
d="M188 -285q-95 0 -148.5 70.5t-53.5 191.5q0 110 42 212.5t118.5 168.5t166.5 66q95 0 149 -72t54 -194q0 -109 -42.5 -211t-119 -167t-166.5 -65zM199 -213q93 0 163 111.5t70 253.5q0 94 -34 146t-95 52q-93 0 -163 -111t-70 -253q0 -95 34.5 -147t94.5 -52z" />
    <glyph glyph-name="uni2081" unicode="&#x2081;" horiz-adv-x="417" 
d="M131 -270h-78l92 530q-71 -70 -165 -84l14 76q69 15 121 59.5t61 98.5h74z" />
    <glyph glyph-name="uni2082" unicode="&#x2082;" horiz-adv-x="608" 
d="M387 -270h-448l2 6q16 58 33 95t52.5 73t75.5 64t119 77q168 102 168 205q0 45 -32 73.5t-85 28.5q-71 0 -125 -48.5t-67 -125.5l-70 12q17 101 95.5 167.5t179.5 66.5q84 0 135 -44.5t51 -117.5q0 -37 -13 -72t-30 -59t-45 -49t-44.5 -37.5t-41.5 -28.5
q-23 -15 -55.5 -34.5t-51.5 -31t-43 -29t-39.5 -33t-31 -37.5t-25.5 -48h348z" />
    <glyph glyph-name="uni2083" unicode="&#x2083;" horiz-adv-x="622" 
d="M160 -285q-88 0 -147 43t-68 113l73 33q11 -56 49.5 -88.5t102.5 -32.5q74 0 126 46t52 110q0 51 -37.5 79.5t-107.5 28.5h-68l10 62h74q72 0 120 41.5t48 103.5q0 45 -34 72.5t-89 27.5q-60 0 -106 -33.5t-66 -93.5l-67 15q24 81 97.5 131.5t160.5 50.5q80 0 133 -41
t53 -109q0 -63 -42.5 -118t-104.5 -72q51 -11 80.5 -45t29.5 -86q0 -97 -81 -167.5t-191 -70.5z" />
    <glyph glyph-name="uni2084" unicode="&#x2084;" horiz-adv-x="630" 
d="M322 -270h-76l28 161h-344l13 72l424 447h75l-80 -451h99l-12 -68h-99zM346 303l-323 -344h264z" />
    <glyph glyph-name="uni2085" unicode="&#x2085;" horiz-adv-x="620" 
d="M156 -285q-88 0 -150 43t-72 113l74 35q10 -57 55 -90t103 -33q80 0 137 57.5t57 132.5q0 59 -36.5 94t-94.5 35q-98 0 -163 -86l-62 23l143 371h336l-10 -68h-280l-97 -246q27 30 74.5 49t91.5 19q77 0 129.5 -47.5t52.5 -130.5q0 -109 -85.5 -190t-202.5 -81z" />
    <glyph glyph-name="uni2086" unicode="&#x2086;" horiz-adv-x="647" 
d="M184 -285q-96 0 -150 62t-54 178q0 115 52.5 223.5t143 177t191.5 68.5t151 -55l-53 -54q-42 39 -113 39q-98 0 -176 -79.5t-106 -223.5h2q28 54 87.5 86.5t121.5 32.5q79 0 133.5 -51t54.5 -133q0 -105 -83.5 -188t-201.5 -83zM199 -217q75 0 133.5 58.5t58.5 133.5
q0 60 -38 98t-97 38q-75 0 -134 -59t-59 -134q0 -58 38.5 -96.5t97.5 -38.5z" />
    <glyph glyph-name="uni2087" unicode="&#x2087;" horiz-adv-x="544" 
d="M84 -270h-82q24 138 135.5 321.5t249.5 298.5h-389l12 70h479l-12 -74q-143 -112 -256 -293t-137 -323z" />
    <glyph glyph-name="uni2088" unicode="&#x2088;" horiz-adv-x="636" 
d="M170 -285q-94 0 -150.5 47t-56.5 119q0 69 47.5 127.5t116.5 75.5l2 4q-82 39 -82 123q0 82 73 147.5t175 65.5q81 0 132.5 -43t51.5 -109q0 -59 -36.5 -110t-96.5 -74l-2 -4q50 -14 77.5 -50.5t27.5 -88.5q0 -93 -81.5 -161.5t-197.5 -68.5zM242 115q65 0 114.5 43.5
t49.5 99.5q0 45 -34 73.5t-87 28.5q-66 0 -113 -41t-47 -98q0 -47 32 -76.5t85 -29.5zM184 -217q76 0 129.5 49.5t53.5 118.5q0 50 -35 79t-99 29q-79 0 -132.5 -44.5t-53.5 -110.5q0 -56 38 -88.5t99 -32.5z" />
    <glyph glyph-name="uni2089" unicode="&#x2089;" horiz-adv-x="657" 
d="M145 -285q-125 0 -192 101l57 49q53 -82 148 -82q99 0 165 85.5t89 217.5q-29 -60 -89.5 -94.5t-123.5 -34.5q-81 0 -135 52.5t-54 137.5q0 111 88 194t207 83q88 0 142.5 -56t54.5 -182q0 -120 -48 -228.5t-131 -175.5t-178 -67zM219 14q78 0 139.5 66t61.5 145
q0 61 -38 97t-97 36q-79 0 -138 -61t-59 -143q0 -62 36.5 -101t94.5 -39z" />
    <glyph glyph-name="Euro" unicode="&#x20ac;" horiz-adv-x="1607" 
d="M950 -35q-291 0 -442.5 160t-140.5 438q-98 -20 -244 -20l16 94q131 0 219 -21q-16 151 54 295q-92 -20 -228 -20l17 94q145 0 233 -20q86 277 290 443.5t495 166.5q272 0 426 -152l-86 -73q-130 135 -361 135q-233 0 -412 -137.5t-288 -382.5q258 20 727 20l-17 -94
q-479 0 -735 20q-11 -168 -51 -295q277 21 741 21l-16 -94q-467 0 -717 20q25 -244 162 -376t371 -132q233 0 413 135l58 -73q-207 -152 -484 -152z" />
    <glyph glyph-name="trademark" unicode="&#x2122;" horiz-adv-x="1546" 
d="M457 946h-84l104 592h-227l14 78h535l-15 -78h-223zM887 946h-84l119 670h82q22 -90 66.5 -270.5t66.5 -270.5q54 90 160 270.5t161 270.5h82l-119 -670h-84l84 475q-26 -44 -74.5 -126t-197.5 -332h-70q-15 63 -34 147.5t-74 314.5z" />
    <glyph glyph-name="oneeighth" unicode="&#x215b;" horiz-adv-x="1300" 
d="M324 825h-78l92 531q-70 -70 -166 -84l14 76q69 15 121.5 59t61.5 98h73zM-68 0h-92l1397 1468h84zM879 -29q-94 0 -150.5 47t-56.5 119q0 69 47.5 127.5t116.5 75.5l2 4q-82 39 -82 123q0 82 73 147.5t175 65.5q81 0 132.5 -43t51.5 -109q0 -59 -36.5 -110t-96.5 -74
l-2 -4q49 -13 76.5 -49.5t27.5 -89.5q0 -93 -81 -161.5t-197 -68.5zM950 371q65 0 114.5 43.5t49.5 99.5q0 45 -34 73.5t-87 28.5q-66 0 -112.5 -41t-46.5 -98q0 -47 31.5 -76.5t84.5 -29.5zM893 39q76 0 129 49.5t53 118.5q0 50 -34.5 79t-98.5 29q-79 0 -132.5 -44.5
t-53.5 -110.5q0 -56 38 -88.5t99 -32.5z" />
    <glyph glyph-name="threeeighths" unicode="&#x215c;" horiz-adv-x="1505" 
d="M352 811q-88 0 -147 43t-68 113l74 32q11 -56 49 -88t102 -32q74 0 126.5 46t52.5 109q0 51 -38 80t-108 29h-67l10 61h74q72 0 120 42t48 104q0 45 -34 72.5t-89 27.5q-60 0 -106 -33.5t-66 -93.5l-68 14q24 82 97.5 132.5t160.5 50.5q80 0 133.5 -41t53.5 -109
q0 -63 -43 -118t-105 -72q51 -11 81 -45.5t30 -85.5q0 -97 -81.5 -167.5t-191.5 -70.5zM137 0h-92l1397 1468h84zM1083 -29q-93 0 -149.5 47t-56.5 119q0 69 47 127.5t116 75.5l2 4q-81 38 -81 123q0 82 72.5 147.5t174.5 65.5q81 0 133 -43t52 -109q0 -59 -36.5 -110
t-96.5 -74l-3 -4q50 -14 77.5 -50.5t27.5 -88.5q0 -93 -81.5 -161.5t-197.5 -68.5zM1155 371q65 0 114.5 43.5t49.5 99.5q0 45 -34 73.5t-87 28.5q-66 0 -113 -41t-47 -98q0 -47 32 -76.5t85 -29.5zM1098 39q76 0 129 49.5t53 118.5q0 50 -34.5 79t-98.5 29
q-79 0 -132.5 -44.5t-53.5 -110.5q0 -56 38 -88.5t99 -32.5z" />
    <glyph glyph-name="fiveeighths" unicode="&#x215d;" horiz-adv-x="1503" 
d="M348 811q-88 0 -149.5 43t-71.5 113l74 34q10 -57 54.5 -89.5t102.5 -32.5q80 0 137.5 57.5t57.5 132.5q0 59 -36.5 94t-94.5 35q-99 0 -164 -86l-61 23l143 370h336l-10 -67h-281l-96 -246q27 30 74.5 49t91.5 19q77 0 129.5 -48t52.5 -131q0 -109 -86 -189.5
t-203 -80.5zM135 0h-92l1397 1468h84zM1081 -29q-94 0 -150.5 47t-56.5 119q0 69 47.5 127.5t116.5 75.5l2 4q-82 39 -82 123q0 82 73 147.5t175 65.5q81 0 133 -43t52 -109q0 -59 -37 -110t-97 -74l-2 -4q50 -14 77.5 -50.5t27.5 -88.5q0 -93 -81.5 -161.5t-197.5 -68.5z
M1153 371q65 0 114.5 43.5t49.5 99.5q0 45 -34 73.5t-87 28.5q-66 0 -113 -41t-47 -98q0 -47 32 -76.5t85 -29.5zM1096 39q76 0 129 49.5t53 118.5q0 50 -34.5 79t-98.5 29q-80 0 -133.5 -44.5t-53.5 -110.5q0 -56 38.5 -88.5t99.5 -32.5z" />
    <glyph glyph-name="seveneighths" unicode="&#x215e;" horiz-adv-x="1427" 
d="M276 825h-81q24 139 135.5 322.5t249.5 298.5h-390l13 70h479l-12 -74q-143 -112 -256.5 -293.5t-137.5 -323.5zM59 0h-92l1397 1468h84zM1006 -29q-94 0 -150.5 47t-56.5 119q0 69 47.5 127.5t116.5 75.5l2 4q-82 39 -82 123q0 82 72.5 147.5t174.5 65.5q81 0 133 -43
t52 -109q0 -59 -36.5 -110t-96.5 -74l-2 -4q49 -13 76.5 -49.5t27.5 -89.5q0 -93 -81 -161.5t-197 -68.5zM1077 371q65 0 114.5 43.5t49.5 99.5q0 45 -34 73.5t-87 28.5q-66 0 -112.5 -41t-46.5 -98q0 -47 31.5 -76.5t84.5 -29.5zM1020 39q76 0 129 49.5t53 118.5
q0 50 -34.5 79t-98.5 29q-79 0 -132.5 -44.5t-53.5 -110.5q0 -56 38 -88.5t99 -32.5z" />
    <glyph glyph-name="arrowleft" unicode="&#x2190;" horiz-adv-x="1433" 
d="M528 236h-122l-269 405l2 8l412 406h123q-15 -14 -61 -58.5t-66.5 -63.5t-63 -59t-72.5 -66.5t-72 -63t-83 -70.5q360 20 1073 20l-18 -100q-711 0 -1063 20q132 -157 280 -378z" />
    <glyph glyph-name="arrowup" unicode="&#x2191;" horiz-adv-x="995" 
d="M453 20h-101q132 739 209 1070q-212 -182 -442 -351l22 123l465 340h8l347 -340l-23 -123q-196 196 -317 348q-44 -365 -168 -1067z" />
    <glyph glyph-name="arrowright" unicode="&#x2192;" horiz-adv-x="1429" 
d="M911 236h-123q8 8 42.5 41t45 43t41 39t45 42t42.5 39t47.5 43t46.5 41t53 45.5t53 44.5q-360 -20 -1071 -20l19 100q713 0 1065 -20q-145 172 -283 381h123l268 -406l-2 -8z" />
    <glyph glyph-name="arrowdown" unicode="&#x2193;" horiz-adv-x="999" 
d="M410 20h-9l-346 340l23 123q8 -8 57 -58.5t67 -70t57 -62t71 -80t65 -79.5q37 307 168 1069h101q-124 -712 -207 -1067q204 176 440 348l-23 -123z" />
    <glyph glyph-name="arrowboth" unicode="&#x2194;" horiz-adv-x="1792" 
d="M526 231h-123l-268 406l2 8l412 406h123q-68 -64 -204 -195.5t-192 -185.5q641 29 1280 0q-194 282 -260 381h123l269 -406l-2 -8l-412 -406h-123q337 326 393 379q-644 -30 -1276 0q56 -79 143 -208.5t115 -170.5z" />
    <glyph glyph-name="arrowupdn" unicode="&#x2195;" horiz-adv-x="1093" 
d="M455 0h-9l-346 340l23 123q29 -30 91 -93t119.5 -121.5t110.5 -113.5q72 564 197 1116q-63 -47 -211 -158t-227 -169l22 123l465 339h8l346 -339l-22 -123q-37 38 -146 147t-176 178q-73 -581 -194 -1112q62 47 436 326l-22 -123z" />
    <glyph glyph-name="uni2196" unicode="&#x2196;" horiz-adv-x="1218" 
d="M1063 133l-86 -51q-432 512 -680 840q-27 -184 -100 -459l-80 94l129 467l6 4l573 -61l82 -95q-291 31 -559 82q116 -123 252 -278t211.5 -244t251.5 -299z" />
    <glyph glyph-name="uni2197" unicode="&#x2197;" horiz-adv-x="1122" 
d="M141 82l-86 51q176 210 251.5 299t211.5 244t252 278q-268 -51 -559 -82l82 95l573 61l6 -4l129 -467l-79 -94q-76 284 -101 459q-248 -328 -680 -840z" />
    <glyph glyph-name="uni2198" unicode="&#x2198;" horiz-adv-x="1224" 
d="M172 1087l86 52q432 -512 680 -840q27 184 100 459l80 -94l-129 -467l-6 -4l-573 61l-82 94q291 -31 559 -82q-116 123 -252 278t-211.5 244t-251.5 299z" />
    <glyph glyph-name="uni2199" unicode="&#x2199;" horiz-adv-x="1124" 
d="M999 1139l86 -52q-12 -14 -72.5 -86t-74.5 -89t-68 -81t-73.5 -86t-67.5 -78.5t-72.5 -84.5t-67.5 -76.5t-74 -82.5t-69 -76t-75 -81q268 51 559 82l-82 -94l-574 -61l-6 4l-129 467l80 94q73 -275 100 -459q248 328 680 840z" />
    <glyph glyph-name="emptyset" unicode="&#x2205;" horiz-adv-x="1419" 
d="M1268 1251l59 -51l-153 -174q122 -128 122 -344q0 -139 -54.5 -270t-146.5 -229.5t-221 -158t-270 -59.5q-170 0 -295 86l-153 -174l-62 51l156 176q-125 128 -125 345q0 139 54.5 269.5t146 228.5t220.5 157t271 59q173 0 295 -86zM223 463q0 -171 94 -283l730 821
q-104 74 -244 74q-117 0 -225 -51.5t-185 -135.5t-123.5 -196t-46.5 -229zM1198 664q0 169 -94 284l-727 -821q104 -74 246 -74q155 0 288.5 86.5t210 227t76.5 297.5z" />
    <glyph glyph-name="minus" unicode="&#x2212;" horiz-adv-x="976" 
d="M840 578h-697l17 94h696z" />
    <glyph glyph-name="infinity" unicode="&#x221e;" horiz-adv-x="1863" 
d="M446 287q-130 0 -213 77.5t-83 202.5q0 156 123.5 276t291.5 120q56 0 102 -15t94 -54t88 -82t105 -122q122 103 193 155.5t146.5 85t148.5 32.5q126 0 210.5 -76.5t84.5 -202.5q0 -103 -56.5 -194.5t-152.5 -147t-205 -55.5q-56 0 -102.5 15t-94.5 53.5t-89 82
t-105 121.5q-122 -103 -192.5 -155t-145.5 -84.5t-148 -32.5zM449 379q39 0 78 10.5t70 24.5t71 41.5t67 49t74 59.5t76 61q-22 24 -64.5 72t-65 70t-59 51t-74.5 40.5t-83 11.5q-122 0 -204.5 -85.5t-82.5 -209.5q0 -96 52.5 -146t144.5 -50zM1348 379q122 0 204 85.5
t82 209.5q0 95 -51.5 145.5t-144.5 50.5q-47 0 -89.5 -11.5t-90 -41t-76 -50t-90 -71t-88.5 -71.5q21 -23 54.5 -61t52.5 -59.5t49 -48.5t55 -41.5t60 -25t73 -10.5z" />
    <glyph glyph-name="approxequal" unicode="&#x2248;" horiz-adv-x="1038" 
d="M289 741h-92q20 113 96.5 172.5t163.5 59.5q42 0 75.5 -15t55 -36.5t41.5 -43t45 -36.5t55 -15q53 0 85 42.5t42 103.5h92q-21 -115 -88 -173.5t-155 -58.5q-43 0 -77 15t-55.5 36.5t-41.5 43t-46 36.5t-57 15q-57 0 -92.5 -41.5t-46.5 -104.5zM217 332h-92
q20 113 95.5 172t164.5 59q42 0 75.5 -15t54.5 -36t40.5 -42.5t44.5 -36.5t55 -15q52 0 85 40.5t44 104.5h93q-21 -115 -89.5 -173t-154.5 -58q-43 0 -77 15t-55.5 36t-41.5 42.5t-46 36.5t-57 15q-57 0 -92.5 -41t-46.5 -104z" />
    <glyph glyph-name="notequal" unicode="&#x2260;" horiz-adv-x="1026" 
d="M915 877l-16 -95h-256q-60 -168 -170 -315h371l-17 -94h-403q-15 -66 -80 -187h-94q69 128 121 187h-240l16 94h273q65 174 170 315h-387l16 95h422q3 15 8 31.5t9.5 28.5t14 31.5t13.5 27.5t16 31t15 28h94q-4 -7 -16.5 -30t-20 -35.5t-20.5 -33t-28 -40t-32 -39.5h221z
" />
    <glyph glyph-name="lessequal" unicode="&#x2264;" horiz-adv-x="1028" 
d="M827 373h-696l14 84h488l-455 182l17 94l729 185l-17 -95l-592 -145l527 -221z" />
    <glyph glyph-name="greaterequal" unicode="&#x2265;" horiz-adv-x="1030" 
d="M834 373h-697l15 84l604 221l-539 145l16 95l664 -185l-16 -94l-521 -182h488z" />
    <glyph glyph-name="lozenge" unicode="&#x25ca;" horiz-adv-x="1163" 
d="M528 0h-90l-288 694l534 692h90l289 -692zM264 694l236 -577h8l440 577l-235 576h-8z" />
    <glyph glyph-name="A.ss01" horiz-adv-x="1495" 
d="M45 0h-106l921 1597h144l356 -1597h-107q-91 377 -116 604l-17 17q-27 -2 -82.5 -6.5t-91 -7t-86 -5t-94.5 -2.5q-118 0 -360 21l-23 -19q-119 -228 -338 -602zM432 690l10 -20q238 20 344 20q117 0 301 -20l15 18q-4 18 -20 93.5t-21.5 102t-20 96.5t-21 106.5t-18 100
t-18.5 109.5t-14.5 102.5t-12.5 108.5h-82q-64 -136 -146.5 -291.5t-138.5 -253.5t-157 -272z" />
    <glyph glyph-name="Aacute.ss01" horiz-adv-x="1495" 
d="M1368 2034l-397 -314h-88l323 314h162zM45 0h-106l921 1597h144l356 -1597h-107q-91 377 -116 604l-17 17q-27 -2 -82.5 -6.5t-91 -7t-86 -5t-94.5 -2.5q-118 0 -360 21l-23 -19q-119 -228 -338 -602zM432 690l10 -20q238 20 344 20q117 0 301 -20l15 18q-4 18 -20 93.5
t-21.5 102t-20 96.5t-21 106.5t-18 100t-18.5 109.5t-14.5 102.5t-12.5 108.5h-82q-64 -136 -146.5 -291.5t-138.5 -253.5t-157 -272z" />
    <glyph glyph-name="Abreve.ss01" horiz-adv-x="1495" 
d="M954 1729q-83 0 -148.5 29t-102.5 75.5t-53.5 100.5t-10.5 108h90q-9 -88 59.5 -157.5t180.5 -69.5q113 0 205.5 69t115.5 158h90q-13 -54 -48.5 -108t-88.5 -100.5t-129 -75.5t-160 -29zM45 0h-106l921 1597h144l356 -1597h-107q-91 377 -116 604l-17 17
q-27 -2 -82.5 -6.5t-91 -7t-86 -5t-94.5 -2.5q-118 0 -360 21l-23 -19q-119 -228 -338 -602zM432 690l10 -20q238 20 344 20q117 0 301 -20l15 18q-4 18 -20 93.5t-21.5 102t-20 96.5t-21 106.5t-18 100t-18.5 109.5t-14.5 102.5t-12.5 108.5h-82q-64 -136 -146.5 -291.5
t-138.5 -253.5t-157 -272z" />
    <glyph glyph-name="Acircumflex.ss01" horiz-adv-x="1495" 
d="M709 1720h-88l313 293h141l211 -293h-88q-49 55 -70.5 80t-54 71t-55.5 93h-41q-40 -46 -92 -94.5t-83 -74.5t-93 -75zM45 0h-106l921 1597h144l356 -1597h-107q-91 377 -116 604l-17 17q-27 -2 -82.5 -6.5t-91 -7t-86 -5t-94.5 -2.5q-118 0 -360 21l-23 -19
q-119 -228 -338 -602zM432 690l10 -20q238 20 344 20q117 0 301 -20l15 18q-4 18 -20 93.5t-21.5 102t-20 96.5t-21 106.5t-18 100t-18.5 109.5t-14.5 102.5t-12.5 108.5h-82q-64 -136 -146.5 -291.5t-138.5 -253.5t-157 -272z" />
    <glyph glyph-name="Adieresis.ss01" horiz-adv-x="1495" 
d="M780 1800q-33 0 -54 21.5t-21 54.5q0 41 32.5 72.5t73.5 31.5q33 0 53.5 -20.5t20.5 -50.5q0 -43 -32 -76t-73 -33zM1157 1800q-34 0 -55 21t-21 53q0 43 32 74.5t75 31.5q32 0 53 -21t21 -52q0 -41 -32.5 -74t-72.5 -33zM45 0h-106l921 1597h144l356 -1597h-107
q-91 377 -116 604l-17 17q-27 -2 -82.5 -6.5t-91 -7t-86 -5t-94.5 -2.5q-118 0 -360 21l-23 -19q-119 -228 -338 -602zM432 690l10 -20q238 20 344 20q117 0 301 -20l15 18q-4 18 -20 93.5t-21.5 102t-20 96.5t-21 106.5t-18 100t-18.5 109.5t-14.5 102.5t-12.5 108.5h-82
q-64 -136 -146.5 -291.5t-138.5 -253.5t-157 -272z" />
    <glyph glyph-name="Agrave.ss01" horiz-adv-x="1495" 
d="M1026 1720h-88l-287 314h162zM45 0h-106l921 1597h144l356 -1597h-107q-91 377 -116 604l-17 17q-27 -2 -82.5 -6.5t-91 -7t-86 -5t-94.5 -2.5q-118 0 -360 21l-23 -19q-119 -228 -338 -602zM432 690l10 -20q238 20 344 20q117 0 301 -20l15 18q-4 18 -20 93.5t-21.5 102
t-20 96.5t-21 106.5t-18 100t-18.5 109.5t-14.5 102.5t-12.5 108.5h-82q-64 -136 -146.5 -291.5t-138.5 -253.5t-157 -272z" />
    <glyph glyph-name="Amacron.ss01" horiz-adv-x="1495" 
d="M1300 1847h-647l17 88h647zM45 0h-106l921 1597h144l356 -1597h-107q-91 377 -116 604l-17 17q-27 -2 -82.5 -6.5t-91 -7t-86 -5t-94.5 -2.5q-118 0 -360 21l-23 -19q-119 -228 -338 -602zM432 690l10 -20q238 20 344 20q117 0 301 -20l15 18q-4 18 -20 93.5t-21.5 102
t-20 96.5t-21 106.5t-18 100t-18.5 109.5t-14.5 102.5t-12.5 108.5h-82q-64 -136 -146.5 -291.5t-138.5 -253.5t-157 -272z" />
    <glyph glyph-name="Aogonek.ss01" horiz-adv-x="1495" 
d="M1298 -389q40 0 93 14l-15 -74q-57 -14 -94 -14q-101 0 -163 50.5t-62 140.5q0 158 203 272h-7q-91 377 -116 604l-17 17q-27 -2 -82.5 -6.5t-91 -7t-86 -5t-94.5 -2.5q-118 0 -360 21l-23 -19q-119 -228 -338 -602h-106l921 1597h144l356 -1597q-42 -22 -74 -43t-69 -53
t-57.5 -72.5t-20.5 -85.5q0 -63 45.5 -99t113.5 -36zM1087 670l15 18q-4 18 -20 93.5t-21.5 102t-20 96.5t-21 106.5t-18 100t-18.5 109.5t-14.5 102.5t-12.5 108.5h-82q-64 -136 -146.5 -291.5t-138.5 -253.5t-157 -272l10 -20q238 20 344 20q117 0 301 -20z" />
    <glyph glyph-name="Aring.ss01" horiz-adv-x="1495" 
d="M952 1716q-82 0 -132 48t-50 126q0 99 76 173.5t182 74.5q82 0 132 -48t50 -126q0 -98 -76 -173t-182 -75zM967 1794q69 0 117.5 47.5t48.5 114.5q0 48 -33.5 76t-85.5 28q-70 0 -118 -45.5t-48 -113.5q0 -50 32.5 -78.5t86.5 -28.5zM45 0h-106l921 1597h144l356 -1597
h-107q-91 377 -116 604l-17 17q-27 -2 -82.5 -6.5t-91 -7t-86 -5t-94.5 -2.5q-118 0 -360 21l-23 -19q-119 -228 -338 -602zM432 690l10 -20q238 20 344 20q117 0 301 -20l15 18q-4 18 -20 93.5t-21.5 102t-20 96.5t-21 106.5t-18 100t-18.5 109.5t-14.5 102.5t-12.5 108.5
h-82q-64 -136 -146.5 -291.5t-138.5 -253.5t-157 -272z" />
    <glyph glyph-name="Atilde.ss01" horiz-adv-x="1495" 
d="M1108 1753q-17 0 -31 2t-27.5 8t-21.5 9t-21 14t-16.5 14t-18 18t-16.5 17l-30 31l-9.5 9.5l-10.5 10.5t-9.5 9t-11.5 9t-11 6.5t-13 6t-14 3t-16 1.5q-52 0 -90.5 -43.5t-50.5 -110.5h-76q20 102 86 166t152 64q41 0 71 -18.5t64 -53.5l35 -37q56 -61 108 -61
q51 0 88.5 43.5t49.5 111.5h75q-19 -103 -81.5 -166t-153.5 -63zM45 0h-106l921 1597h144l356 -1597h-107q-91 377 -116 604l-17 17q-27 -2 -82.5 -6.5t-91 -7t-86 -5t-94.5 -2.5q-118 0 -360 21l-23 -19q-119 -228 -338 -602zM432 690l10 -20q238 20 344 20q117 0 301 -20
l15 18q-4 18 -20 93.5t-21.5 102t-20 96.5t-21 106.5t-18 100t-18.5 109.5t-14.5 102.5t-12.5 108.5h-82q-64 -136 -146.5 -291.5t-138.5 -253.5t-157 -272z" />
    <glyph glyph-name="B.ss01" horiz-adv-x="1458" 
d="M766 0h-635l283 1597h544q214 0 329.5 -101t115.5 -251q0 -149 -101 -265t-262 -153l-6 -32q100 -16 167 -63t94.5 -108t27.5 -135q0 -125 -74.5 -237.5t-204 -182t-278.5 -69.5zM362 852l13 -23q173 19 450 19q140 0 249 53t165.5 137.5t56.5 182.5q0 131 -101.5 208.5
t-272.5 77.5q-253 0 -424 19l-21 -19q-26 -310 -115 -655zM227 90l15 -18q182 18 501 18q210 0 340.5 111t130.5 266q0 132 -98.5 211.5t-275.5 79.5q-305 0 -473 18l-21 -22q-36 -352 -119 -664z" />
    <glyph glyph-name="C.ss01" horiz-adv-x="1724" 
d="M813 -35q-309 0 -490.5 180.5t-181.5 483.5q0 191 75.5 373.5t202.5 320.5t306 222.5t373 84.5q109 0 209 -27t185.5 -80.5t144 -143.5t75.5 -205l-96 -37q-40 191 -187.5 295t-349.5 104q-170 0 -325 -76t-264.5 -199.5t-174.5 -286t-65 -331.5q0 -116 31.5 -213
t87 -164.5t131 -114.5t163 -69.5t183.5 -22.5q133 0 252.5 42t210.5 115t159.5 161.5t114.5 191.5l82 -32q-56 -117 -135 -216.5t-184 -181t-242.5 -128t-290.5 -46.5z" />
    <glyph glyph-name="D.ss01" horiz-adv-x="1654" 
d="M696 0h-565l283 1597h547q165 0 288 -44t198 -126.5t111.5 -193t36.5 -250.5q0 -150 -41 -294.5t-120 -268.5t-186.5 -218.5t-250 -148t-301.5 -53.5zM227 90l15 -18q178 18 491 18q133 0 253.5 48t210.5 131t157 192.5t101 236.5t34 258q0 263 -142 407t-423 144
q-266 0 -426 19l-21 -19q-93 -692 -250 -1417z" />
    <glyph glyph-name="E.ss01" horiz-adv-x="1349" 
d="M1145 0h-1014l283 1597h993l-16 -90q-51 0 -209.5 -1t-237 -0.5t-207.5 5.5t-239 15l-21 -19q-27 -318 -110 -635l12 -22q309 18 858 18l-16 -90q-534 0 -850 19l-21 -23q-36 -346 -123 -684l15 -18q315 24 919 24z" />
    <glyph glyph-name="F.ss01" horiz-adv-x="1277" 
d="M231 0h-100l283 1597h972l-18 -98q-565 0 -870 27l-21 -19q-29 -330 -112 -645l12 -22q301 18 837 18l-16 -90q-530 0 -829 18l-21 -22q-33 -285 -117 -764z" />
    <glyph glyph-name="G.ss01" horiz-adv-x="1757" 
d="M807 -35q-206 0 -358 83.5t-231 233t-79 345.5q0 193 76 376.5t203.5 321t306 221.5t371.5 84q109 0 208.5 -27t185.5 -80.5t144.5 -143.5t75.5 -205l-96 -37q-40 191 -187.5 295t-349.5 104q-169 0 -323.5 -75t-264 -198t-174.5 -286t-65 -334q0 -271 158 -427.5
t434 -156.5q195 0 353 82t259.5 224.5t144.5 330.5l-6 15q-368 -35 -610 -35l14 90h695l-6 -35q-28 -161 -93.5 -292t-152 -218t-193.5 -145.5t-216.5 -84.5t-223.5 -26z" />
    <glyph glyph-name="H.ss01" horiz-adv-x="1654" 
d="M231 0h-100l283 1597h100q-93 -514 -149 -733l12 -22q539 23 999 0l21 22q30 275 112 733h101l-283 -1597h-100q87 498 153 766l-12 22q-492 -47 -999 0l-21 -22q-7 -65 -16 -136t-16 -121.5t-20.5 -133.5t-19.5 -118t-23 -133t-22 -124z" />
    <glyph glyph-name="I.ss01" horiz-adv-x="1071" 
d="M899 0h-924l17 90q275 0 418 -20q131 817 258 1458q-164 -21 -437 -21l17 90h944l-16 -90q-274 0 -428 21q-113 -716 -259 -1458q152 20 426 20z" />
    <glyph glyph-name="Iacute.ss01" horiz-adv-x="1071" 
d="M1157 2034l-397 -314h-88l323 314h162zM899 0h-924l17 90q275 0 418 -20q131 817 258 1458q-164 -21 -437 -21l17 90h944l-16 -90q-274 0 -428 21q-113 -716 -259 -1458q152 20 426 20z" />
    <glyph glyph-name="Icircumflex.ss01" horiz-adv-x="1071" 
d="M498 1720h-88l313 293h141l211 -293h-88q-49 55 -70.5 80t-54 71t-55.5 93h-41q-40 -46 -92 -94.5t-83 -74.5t-93 -75zM899 0h-924l17 90q275 0 418 -20q131 817 258 1458q-164 -21 -437 -21l17 90h944l-16 -90q-274 0 -428 21q-113 -716 -259 -1458q152 20 426 20z" />
    <glyph glyph-name="Idieresis.ss01" horiz-adv-x="1071" 
d="M569 1800q-33 0 -54 21.5t-21 54.5q0 41 32.5 72.5t73.5 31.5q33 0 53.5 -20.5t20.5 -50.5q0 -43 -32 -76t-73 -33zM946 1800q-34 0 -55 21t-21 53q0 43 32 74.5t75 31.5q32 0 53 -21t21 -52q0 -41 -32.5 -74t-72.5 -33zM899 0h-924l17 90q275 0 418 -20
q131 817 258 1458q-164 -21 -437 -21l17 90h944l-16 -90q-274 0 -428 21q-113 -716 -259 -1458q152 20 426 20z" />
    <glyph glyph-name="Idotaccent.ss01" horiz-adv-x="1071" 
d="M754 1794q-35 0 -57.5 22.5t-22.5 57.5q0 44 34 78.5t80 34.5q35 0 57.5 -22.5t22.5 -55.5q0 -44 -35 -79.5t-79 -35.5zM899 0h-924l17 90q275 0 418 -20q131 817 258 1458q-164 -21 -437 -21l17 90h944l-16 -90q-274 0 -428 21q-113 -716 -259 -1458q152 20 426 20z" />
    <glyph glyph-name="Igrave.ss01" horiz-adv-x="1071" 
d="M815 1720h-88l-287 314h162zM899 0h-924l17 90q275 0 418 -20q131 817 258 1458q-164 -21 -437 -21l17 90h944l-16 -90q-274 0 -428 21q-113 -716 -259 -1458q152 20 426 20z" />
    <glyph glyph-name="Imacron.ss01" horiz-adv-x="1071" 
d="M1090 1847h-648l17 88h647zM899 0h-924l17 90q275 0 418 -20q131 817 258 1458q-164 -21 -437 -21l17 90h944l-16 -90q-274 0 -428 21q-113 -716 -259 -1458q152 20 426 20z" />
    <glyph glyph-name="J.ss01" horiz-adv-x="1165" 
d="M418 -35q-47 0 -91 7.5t-89 25t-81.5 44.5t-65.5 69.5t-44.5 95.5t-15 126.5t19.5 160.5l4 18l92 12l-4 -18q-17 -76 -17.5 -140.5t12.5 -110t36.5 -81t53 -57.5t65 -36.5t68 -20t65.5 -5.5q158 0 270 115t148 322q113 639 198 1015l-6 21q-217 -21 -563 -21l16 90h650
l-189 -1073q-5 -27 -9 -47t-16 -64.5t-25 -79.5t-37 -83.5t-51.5 -85.5t-68 -76t-86.5 -64.5t-107.5 -42t-131.5 -16.5z" />
    <glyph glyph-name="K.ss01" horiz-adv-x="1327" 
d="M231 0h-100l283 1597h100q-110 -600 -147 -778h8q969 772 977 778h131q-689 -544 -1024 -798l-4 -21q285 -261 786 -778h-139q-184 183 -265 264t-219.5 225.5t-255.5 274.5h-6q-37 -264 -125 -764z" />
    <glyph glyph-name="L.ss01" horiz-adv-x="1206" 
d="M1083 0h-952l283 1597h100q-179 -1004 -287 -1507l15 -18q293 24 858 24z" />
    <glyph glyph-name="M.ss01" horiz-adv-x="1900" 
d="M231 0h-100l283 1597h116q227 -585 392 -1144h20q388 595 797 1144h116l-282 -1597h-100q17 94 55.5 325.5t64 377t67 353t83.5 374.5h-21l-753 -1061h-103l-381 1061h-20q-18 -171 -48 -372.5t-55.5 -343.5t-68 -371t-62.5 -343z" />
    <glyph glyph-name="N.ss01" horiz-adv-x="1695" 
d="M231 0h-100l283 1597h174q8 -17 85 -189t98.5 -220t89.5 -201t104 -236t93.5 -215t105.5 -246t96 -229h38q92 641 252 1536h101l-283 -1597h-174q-16 35 -87 192t-90 199.5t-80 177.5t-86.5 193t-77.5 175.5t-85.5 196t-78 182t-85.5 202.5h-45q-95 -656 -248 -1518z" />
    <glyph glyph-name="O.ss01" horiz-adv-x="1822" 
d="M807 -35q-192 0 -344 85t-238 240t-86 353q0 188 79 369.5t209 316.5t307.5 218t365.5 83q196 0 348.5 -88.5t235.5 -243.5t83 -350q0 -188 -79.5 -368.5t-209.5 -315t-307.5 -217t-363.5 -82.5zM825 59q107 0 213 34t197 93t169 142.5t133 179.5t86.5 206.5t31.5 221.5
q0 175 -74.5 312.5t-204.5 212.5t-293 75q-159 0 -312 -73.5t-267 -193t-184 -281t-70 -329.5q0 -132 44 -244.5t120.5 -190t182.5 -121.5t228 -44z" />
    <glyph glyph-name="P.ss01" horiz-adv-x="1359" 
d="M231 0h-100l283 1597h544q21 0 40.5 -1t67.5 -8t87 -20t87 -41t81 -66.5t55.5 -100.5t22.5 -139q0 -149 -73.5 -278.5t-205.5 -208.5t-291 -79q-129 0 -191.5 1t-147.5 8t-158 22q-29 -280 -101 -686zM346 750l12 -23q164 18 449 18q212 0 347.5 127t135.5 318
q0 154 -96 235.5t-272 81.5q-264 0 -424 19l-21 -19q-41 -390 -131 -757z" />
    <glyph glyph-name="Q.ss01" horiz-adv-x="1839" 
d="M604 -6q-198 -194 -291 -283l-4 -20q178 14 390.5 21t334.5 8t373 1l-16 -88h-1268q61 57 129 122t148.5 142.5t125.5 120.5q-180 72 -280.5 231t-100.5 384q0 127 33.5 252t93.5 235t148.5 204t193.5 161.5t233 106t263 38.5q308 0 488 -181.5t180 -487.5
q0 -154 -47 -302t-134.5 -272t-204.5 -219t-266.5 -148t-310.5 -53q-112 0 -211 27zM250 649q0 -207 94.5 -350t259.5 -203q312 308 522 531l58 -60l-500 -495q88 -15 150 -15q173 0 330 74.5t267 197.5t175 285t65 332q0 276 -159 435t-418 159q-173 0 -330.5 -74.5
t-269.5 -197.5t-178 -285.5t-66 -333.5z" />
    <glyph glyph-name="R.ss01" horiz-adv-x="1402" 
d="M231 0h-100l283 1597h544q217 0 329 -103.5t112 -293.5q0 -154 -72.5 -267t-200.5 -175.5t-290.5 -87t-354.5 -11.5q170 -144 758 -659h-149q-68 60 -226.5 199t-288 253.5t-237.5 213.5h-10q-22 -244 -97 -666zM346 750l12 -23q164 18 449 18q212 0 347.5 127t135.5 318
q0 154 -96 235.5t-272 81.5q-252 0 -424 19l-21 -19q-41 -389 -131 -757z" />
    <glyph glyph-name="S.ss01" horiz-adv-x="1308" 
d="M575 -35q-70 0 -134.5 13.5t-130 47t-115.5 85t-86 134t-46 187.5l99 35q17 -193 135 -300.5t301 -107.5q201 0 339 117.5t138 278.5q0 28 -5 53t-13 44.5t-22.5 37.5t-27 30.5t-34.5 25.5t-37 20.5t-41.5 17.5t-42 15t-44 14t-42.5 14l-141 47q-37 12 -64.5 22t-69 29
t-71.5 38.5t-63.5 49.5t-55 63.5t-35.5 78.5t-14 96q0 95 45.5 183.5t123 153t185.5 103.5t228 39q200 0 319.5 -104t138.5 -281l-94 -37q-21 150 -124.5 239t-266.5 89q-188 0 -317.5 -106.5t-129.5 -251.5q0 -41 13 -78.5t30.5 -63.5t48 -51t53 -39.5t58.5 -30t51.5 -21
t44.5 -15.5l144 -50q140 -48 168 -60q157 -67 200 -179q19 -49 19 -109q0 -98 -49 -192t-131 -165.5t-197 -115t-238 -43.5z" />
    <glyph glyph-name="U.ss01" horiz-adv-x="1566" 
d="M664 -35q-124 0 -217 34t-157.5 106.5t-83.5 186t7 273.5l182 1032h101l-183 -1028q-22 -141 -8.5 -238.5t67 -159t130.5 -89t182 -27.5t192.5 28t161.5 87.5t125.5 160.5t75.5 238l182 1028h101l-283 -1597h-100q9 54 65 260h-20q-95 -158 -222.5 -226.5t-297.5 -68.5z
" />
    <glyph glyph-name="Uacute.ss01" horiz-adv-x="1566" 
d="M1264 2034l-398 -314h-88l324 314h162zM664 -35q-124 0 -217 34t-157.5 106.5t-83.5 186t7 273.5l182 1032h101l-183 -1028q-22 -141 -8.5 -238.5t67 -159t130.5 -89t182 -27.5t192.5 28t161.5 87.5t125.5 160.5t75.5 238l182 1028h101l-283 -1597h-100q9 54 65 260h-20
q-95 -158 -222.5 -226.5t-297.5 -68.5z" />
    <glyph glyph-name="Ucircumflex.ss01" horiz-adv-x="1566" 
d="M729 1720h-88l313 293h142l211 -293h-88q-52 57 -72 80t-53 70t-56 94h-41q-40 -46 -92 -94.5t-83 -74.5t-93 -75zM664 -35q-124 0 -217 34t-157.5 106.5t-83.5 186t7 273.5l182 1032h101l-183 -1028q-22 -141 -8.5 -238.5t67 -159t130.5 -89t182 -27.5t192.5 28
t161.5 87.5t125.5 160.5t75.5 238l182 1028h101l-283 -1597h-100q9 54 65 260h-20q-95 -158 -222.5 -226.5t-297.5 -68.5z" />
    <glyph glyph-name="Udieresis.ss01" horiz-adv-x="1566" 
d="M801 1800q-33 0 -54.5 21.5t-21.5 54.5q0 41 32.5 72.5t73.5 31.5q33 0 53.5 -20.5t20.5 -50.5q0 -43 -31.5 -76t-72.5 -33zM1178 1800q-34 0 -55 21t-21 53q0 43 31.5 74.5t74.5 31.5q32 0 53 -21t21 -52q0 -41 -32 -74t-72 -33zM664 -35q-124 0 -217 34t-157.5 106.5
t-83.5 186t7 273.5l182 1032h101l-183 -1028q-22 -141 -8.5 -238.5t67 -159t130.5 -89t182 -27.5t192.5 28t161.5 87.5t125.5 160.5t75.5 238l182 1028h101l-283 -1597h-100q9 54 65 260h-20q-95 -158 -222.5 -226.5t-297.5 -68.5z" />
    <glyph glyph-name="Ugrave.ss01" horiz-adv-x="1566" 
d="M1047 1720h-89l-286 314h162zM664 -35q-124 0 -217 34t-157.5 106.5t-83.5 186t7 273.5l182 1032h101l-183 -1028q-22 -141 -8.5 -238.5t67 -159t130.5 -89t182 -27.5t192.5 28t161.5 87.5t125.5 160.5t75.5 238l182 1028h101l-283 -1597h-100q9 54 65 260h-20
q-95 -158 -222.5 -226.5t-297.5 -68.5z" />
    <glyph glyph-name="Uhungarumlaut.ss01" horiz-adv-x="1566" 
d="M1169 2034l-325 -314h-88l266 314h147zM1452 2034l-346 -314h-88l287 314h147zM664 -35q-124 0 -217 34t-157.5 106.5t-83.5 186t7 273.5l182 1032h101l-183 -1028q-22 -141 -8.5 -238.5t67 -159t130.5 -89t182 -27.5t192.5 28t161.5 87.5t125.5 160.5t75.5 238l182 1028
h101l-283 -1597h-100q9 54 65 260h-20q-95 -158 -222.5 -226.5t-297.5 -68.5z" />
    <glyph glyph-name="Umacron.ss01" horiz-adv-x="1566" 
d="M1321 1847h-647l16 88h647zM664 -35q-124 0 -217 34t-157.5 106.5t-83.5 186t7 273.5l182 1032h101l-183 -1028q-22 -141 -8.5 -238.5t67 -159t130.5 -89t182 -27.5t192.5 28t161.5 87.5t125.5 160.5t75.5 238l182 1028h101l-283 -1597h-100q9 54 65 260h-20
q-95 -158 -222.5 -226.5t-297.5 -68.5z" />
    <glyph glyph-name="Uogonek.ss01" horiz-adv-x="1566" 
d="M1018 -254q0 -62 45.5 -98.5t114.5 -36.5q40 0 92 14l-15 -74q-57 -14 -94 -14q-101 0 -163 50.5t-62 140.5q0 158 203 272q9 54 65 260h-20q-95 -158 -222.5 -226.5t-297.5 -68.5q-124 0 -217 34t-157.5 106.5t-83.5 186t7 273.5l182 1032h101l-183 -1028
q-22 -141 -8.5 -238.5t67 -159t130.5 -89t182 -27.5t192.5 28t161.5 87.5t125.5 160.5t75.5 238l182 1028h101l-283 -1597q-42 -22 -74 -43t-69 -53t-57.5 -72.5t-20.5 -85.5z" />
    <glyph glyph-name="Uring.ss01" horiz-adv-x="1566" 
d="M973 1716q-82 0 -132 48t-50 126q0 99 76 173.5t182 74.5q82 0 132 -48t50 -126q0 -98 -76 -173t-182 -75zM987 1794q69 0 117.5 47.5t48.5 114.5q0 48 -33.5 76t-85.5 28q-70 0 -118 -45.5t-48 -113.5q0 -50 32.5 -78.5t86.5 -28.5zM664 -35q-124 0 -217 34
t-157.5 106.5t-83.5 186t7 273.5l182 1032h101l-183 -1028q-22 -141 -8.5 -238.5t67 -159t130.5 -89t182 -27.5t192.5 28t161.5 87.5t125.5 160.5t75.5 238l182 1028h101l-283 -1597h-100q9 54 65 260h-20q-95 -158 -222.5 -226.5t-297.5 -68.5z" />
    <glyph glyph-name="V.ss01" horiz-adv-x="1495" 
d="M741 0h-184l-336 1597h107q227 -1126 299 -1507h86q407 753 823 1507h106z" />
    <glyph glyph-name="W.ss01" horiz-adv-x="2312" 
d="M596 0h-121l-250 1597h103l229 -1472h4l682 1472h213l148 -1472h4l743 1472h103l-816 -1597h-120l-142 1503h-86z" />
    <glyph glyph-name="Wacute.ss01" horiz-adv-x="2312" 
d="M1776 2034l-398 -314h-88l324 314h162zM596 0h-121l-250 1597h103l229 -1472h4l682 1472h213l148 -1472h4l743 1472h103l-816 -1597h-120l-142 1503h-86z" />
    <glyph glyph-name="Wcircumflex.ss01" horiz-adv-x="2312" 
d="M1116 1720h-88l313 293h142l211 -293h-88q-52 57 -72 80t-53 70t-56 94h-41q-40 -46 -92 -94.5t-83 -74.5t-93 -75zM596 0h-121l-250 1597h103l229 -1472h4l682 1472h213l148 -1472h4l743 1472h103l-816 -1597h-120l-142 1503h-86z" />
    <glyph glyph-name="Wdieresis.ss01" horiz-adv-x="2312" 
d="M1188 1800q-33 0 -54.5 21.5t-21.5 54.5q0 41 32.5 72.5t74.5 31.5q33 0 53 -20.5t20 -50.5q0 -43 -31.5 -76t-72.5 -33zM1565 1800q-34 0 -55 21t-21 53q0 43 31.5 74.5t74.5 31.5q32 0 53 -21t21 -52q0 -41 -32 -74t-72 -33zM596 0h-121l-250 1597h103l229 -1472h4
l682 1472h213l148 -1472h4l743 1472h103l-816 -1597h-120l-142 1503h-86z" />
    <glyph glyph-name="Wgrave.ss01" horiz-adv-x="2312" 
d="M1434 1720h-88l-287 314h162zM596 0h-121l-250 1597h103l229 -1472h4l682 1472h213l148 -1472h4l743 1472h103l-816 -1597h-120l-142 1503h-86z" />
    <glyph glyph-name="X.ss01" horiz-adv-x="1390" 
d="M47 0h-113l697 821l-4 4l-394 772h113q155 -301 363 -727h84q52 61 225 265t395 462h113l-668 -772l-4 -4l406 -821h-111q-60 122 -151 313t-156 327.5t-66 139.5h-84q-83 -100 -231.5 -281t-413.5 -499z" />
    <glyph glyph-name="Y.ss01" horiz-adv-x="1361" 
d="M295 0h-100q328 419 483 596q-212 445 -447 1001h111q33 -79 98 -234t100.5 -240.5t87 -213t95.5 -241.5h20q257 374 693 929h106z" />
    <glyph glyph-name="Yacute.ss01" horiz-adv-x="1361" 
d="M1323 2034l-397 -314h-88l323 314h162zM295 0h-100q328 419 483 596q-212 445 -447 1001h111q33 -79 98 -234t100.5 -240.5t87 -213t95.5 -241.5h20q257 374 693 929h106z" />
    <glyph glyph-name="Ycircumflex.ss01" horiz-adv-x="1361" 
d="M664 1720h-89l314 293h141l211 -293h-88q-49 55 -70.5 80t-54 71t-55.5 93h-41q-40 -46 -92 -94.5t-83 -74.5t-93 -75zM295 0h-100q328 419 483 596q-212 445 -447 1001h111q33 -79 98 -234t100.5 -240.5t87 -213t95.5 -241.5h20q257 374 693 929h106z" />
    <glyph glyph-name="Ydieresis.ss01" horiz-adv-x="1361" 
d="M735 1800q-33 0 -54.5 21.5t-21.5 54.5q0 41 32.5 72.5t74.5 31.5q33 0 53.5 -20.5t20.5 -50.5q0 -43 -32 -76t-73 -33zM1112 1800q-34 0 -55 21t-21 53q0 43 32 74.5t75 31.5q32 0 53 -21t21 -52q0 -41 -32.5 -74t-72.5 -33zM295 0h-100q328 419 483 596
q-212 445 -447 1001h111q33 -79 98 -234t100.5 -240.5t87 -213t95.5 -241.5h20q257 374 693 929h106z" />
    <glyph glyph-name="Ygrave.ss01" horiz-adv-x="1361" 
d="M981 1720h-88l-287 314h162zM295 0h-100q328 419 483 596q-212 445 -447 1001h111q33 -79 98 -234t100.5 -240.5t87 -213t95.5 -241.5h20q257 374 693 929h106z" />
    <glyph glyph-name="Z.ss01" horiz-adv-x="1382" 
d="M1202 0h-1294q1169 1236 1433 1513l-6 15q-422 -21 -1040 -21l16 90h1227q-125 -131 -416 -439t-540 -568.5t-484 -497.5l8 -16q367 20 1113 20z" />
    <glyph glyph-name="Zacute.ss01" horiz-adv-x="1382" 
d="M1300 2034l-397 -314h-88l324 314h161zM1202 0h-1294q1169 1236 1433 1513l-6 15q-422 -21 -1040 -21l16 90h1227q-125 -131 -416 -439t-540 -568.5t-484 -497.5l8 -16q367 20 1113 20z" />
    <glyph glyph-name="Zcaron.ss01" horiz-adv-x="1382" 
d="M956 1720h-141l-211 293h88q97 -108 134 -162q27 -40 48 -82h41q80 95 248 228l4.5 4.5t4.5 3.5t5.5 4t4.5 4h88zM1202 0h-1294q1169 1236 1433 1513l-6 15q-422 -21 -1040 -21l16 90h1227q-125 -131 -416 -439t-540 -568.5t-484 -497.5l8 -16q367 20 1113 20z" />
    <glyph glyph-name="Zdotaccent.ss01" horiz-adv-x="1382" 
d="M897 1794q-35 0 -57.5 22.5t-22.5 57.5q0 44 34.5 78.5t80.5 34.5q35 0 57.5 -22.5t22.5 -55.5q0 -44 -35.5 -79.5t-79.5 -35.5zM1202 0h-1294q1169 1236 1433 1513l-6 15q-422 -21 -1040 -21l16 90h1227q-125 -131 -416 -439t-540 -568.5t-484 -497.5l8 -16
q367 20 1113 20z" />
    <glyph glyph-name="Q.ss02" horiz-adv-x="1822" 
d="M1767 944q0 -179 -71.5 -350.5t-193.5 -304t-295.5 -220t-366.5 -102.5q-1 -25 -3 -50t-6 -56t-7 -48t-10 -57t-9 -53q215 21 584 21l-17 -91q-423 0 -653 11q1 5 6.5 43t7.5 48.5t7.5 43t9 48.5t9.5 43t12.5 49.5t14.5 45.5q-187 8 -334 94.5t-230 239t-83 346.5
q0 188 79 368.5t209 315.5t308.5 218t366.5 83q195 0 347.5 -88.5t235 -244.5t82.5 -353zM250 657q0 -250 148.5 -412t404.5 -184q7 157 67 506h97q-66 -359 -111 -508q158 11 305.5 87.5t255.5 195t173 274.5t65 318q0 266 -162 434t-410 168q-159 0 -312 -73.5
t-267 -193.5t-184 -282t-70 -330z" />
    <glyph glyph-name="A.ss07" 
d="M868 -315q-355 0 -573.5 210t-218.5 549q0 140 40.5 279t112.5 260t176 225.5t226 178.5t267.5 116.5t295.5 42.5q229 0 409.5 -91.5t285 -267t104.5 -407.5q0 -213 -90 -414t-240.5 -350.5t-359.5 -240t-435 -90.5zM1081 1096l-567 -963h80q140 239 203 361l10 8
q143 -13 213 -13q62 0 205 13l4 -6q20 -156 71 -363h80l-227 963h-72zM831 547l-2 4q159 254 269 463h12q33 -220 98 -463l-2 -4q-106 12 -174 12q-65 0 -201 -12z" />
    <glyph glyph-name="B.ss07" 
d="M868 -315q-355 0 -573.5 210t-218.5 549q0 140 40.5 279t112.5 260t176 225.5t226 178.5t267.5 116.5t295.5 42.5q229 0 409.5 -91.5t285 -267t104.5 -407.5q0 -213 -90 -414t-240.5 -350.5t-359.5 -240t-435 -90.5zM813 1096l-170 -963h385q138 0 238 91t100 210
q0 74 -44.5 122.5t-123.5 61.5v7q98 25 158.5 96.5t60.5 159.5q0 97 -76 156t-196 59h-332zM803 641l-4 8q54 215 65 383l8 6q94 -12 248 -12q96 0 155.5 -44t59.5 -120q0 -86 -75 -148.5t-193 -62.5q-168 0 -264 -10zM723 193l-4 6q49 184 69 387l5 6q100 -10 280 -10
q96 0 154.5 -45t58.5 -121q0 -90 -76 -151.5t-192 -61.5q-189 0 -295 -10z" />
    <glyph glyph-name="C.ss07" 
d="M868 -315q-355 0 -573.5 210t-218.5 549q0 140 40.5 279t112.5 260t176 225.5t226 178.5t267.5 116.5t295.5 42.5q229 0 409.5 -91.5t285 -267t104.5 -407.5q0 -213 -90 -414t-240.5 -350.5t-359.5 -240t-435 -90.5zM979 113q166 0 303 92.5t213 259.5l-63 24
q-54 -130 -167 -217.5t-266 -87.5q-70 0 -131.5 21t-110 61t-76.5 106t-28 150q0 132 63.5 252t176.5 195t246 75q122 0 205.5 -64.5t103.5 -174.5l74 26q-12 95 -70.5 161.5t-136 95t-166.5 28.5q-154 0 -288 -85.5t-211 -224.5t-77 -294q0 -182 109.5 -290.5t296.5 -108.5
z" />
    <glyph glyph-name="D.ss07" 
d="M868 -315q-355 0 -573.5 210t-218.5 549q0 140 40.5 279t112.5 260t176 225.5t226 178.5t267.5 116.5t295.5 42.5q229 0 409.5 -91.5t285 -267t104.5 -407.5q0 -213 -90 -414t-240.5 -350.5t-359.5 -240t-435 -90.5zM776 1096l-170 -963h344q120 0 223.5 50.5
t172.5 133.5t108 190t39 220q0 180 -99.5 274.5t-285.5 94.5h-332zM686 193l-4 6q90 419 145 833l9 6q88 -12 247 -12t243.5 -80.5t84.5 -236.5q0 -129 -52.5 -243.5t-154 -188.5t-229.5 -74q-185 0 -289 -10z" />
    <glyph glyph-name="E.ss07" 
d="M868 -315q-355 0 -573.5 210t-218.5 549q0 140 40.5 279t112.5 260t176 225.5t226 178.5t267.5 116.5t295.5 42.5q229 0 409.5 -91.5t285 -267t104.5 -407.5q0 -213 -90 -414t-240.5 -350.5t-359.5 -240t-435 -90.5zM838 1096l-170 -963h616l12 74q-351 0 -548 -14l-5 6
q55 216 72 399l6 8q180 -12 510 -12l12 70q-314 0 -514 -11l-4 9q52 196 64 370l8 6q65 -6 143 -9t124.5 -3.5t143 0t124.5 0.5l12 70h-606z" />
    <glyph glyph-name="F.ss07" 
d="M868 -315q-355 0 -573.5 210t-218.5 549q0 140 40.5 279t112.5 260t176 225.5t226 178.5t267.5 116.5t295.5 42.5q229 0 409.5 -91.5t285 -267t104.5 -407.5q0 -213 -90 -414t-240.5 -350.5t-359.5 -240t-435 -90.5zM856 1096l-170 -963h76q55 323 69 459l7 8
q180 -12 497 -12l13 69q-352 0 -502 -10l-2 8q52 207 63 377l8 6q182 -16 523 -16l12 74h-594z" />
    <glyph glyph-name="G.ss07" 
d="M868 -315q-355 0 -573.5 210t-218.5 549q0 140 40.5 279t112.5 260t176 225.5t226 178.5t267.5 116.5t295.5 42.5q229 0 409.5 -91.5t285 -267t104.5 -407.5q0 -213 -90 -414t-240.5 -350.5t-359.5 -240t-435 -90.5zM973 113q285 0 430 272h14q-15 -51 -25.5 -94
t-14 -62.5t-9 -53t-6.5 -42.5h68l81 471h-428l-12 -69q125 -2 367 20l2 -2q-51 -168 -172 -268.5t-275 -100.5q-93 0 -168 35.5t-123.5 114.5t-48.5 190q0 131 63.5 250.5t176.5 194.5t246 75q122 0 205.5 -64.5t103.5 -174.5l74 26q-12 95 -70.5 161.5t-136 95t-166.5 28.5
q-154 0 -288 -86t-211 -225t-77 -293q0 -182 108.5 -290.5t291.5 -108.5z" />
    <glyph glyph-name="H.ss07" 
d="M868 -315q-355 0 -573.5 210t-218.5 549q0 140 40.5 279t112.5 260t176 225.5t226 178.5t267.5 116.5t295.5 42.5q229 0 409.5 -91.5t285 -267t104.5 -407.5q0 -213 -90 -414t-240.5 -350.5t-359.5 -240t-435 -90.5zM756 1096l-170 -963h76q6 33 17 98.5t18 107t17 111.5
t19 144l4 6q305 -26 586 0l4 -6q-37 -155 -92 -461h76l170 963h-76q-55 -307 -68 -441l-6 -6q-312 10 -586 0l-2 6q30 120 88 441h-75z" />
    <glyph glyph-name="I.ss07" 
d="M868 -315q-355 0 -573.5 210t-218.5 549q0 140 40.5 279t112.5 260t176 225.5t226 178.5t267.5 116.5t295.5 42.5q229 0 409.5 -91.5t285 -267t104.5 -407.5q0 -213 -90 -414t-240.5 -350.5t-359.5 -240t-435 -90.5zM1079 1096l-170 -963h76l170 963h-76z" />
    <glyph glyph-name="J.ss07" 
d="M868 -315q-355 0 -573.5 210t-218.5 549q0 140 40.5 279t112.5 260t176 225.5t226 178.5t267.5 116.5t295.5 42.5q229 0 409.5 -91.5t285 -267t104.5 -407.5q0 -213 -90 -414t-240.5 -350.5t-359.5 -240t-435 -90.5zM909 123q42 0 79.5 10t65.5 25.5t53 40t42 48t32 55.5
t23.5 56.5t16.5 57.5t12 51.5t8 44.5l105 594h-76l-109 -617q-7 -41 -13.5 -70t-24.5 -75.5t-41.5 -76t-65 -52t-94.5 -22.5q-32 0 -60.5 7t-56.5 24t-44.5 45.5t-23 71t7.5 101.5l7 29l-72 -8l-6 -33q-9 -61 -7 -107.5t19.5 -80.5t40.5 -57t54.5 -36.5t62.5 -19.5t65 -6z
" />
    <glyph glyph-name="K.ss07" 
d="M868 -315q-355 0 -573.5 210t-218.5 549q0 140 40.5 279t112.5 260t176 225.5t226 178.5t267.5 116.5t295.5 42.5q229 0 409.5 -91.5t285 -267t104.5 -407.5q0 -213 -90 -414t-240.5 -350.5t-359.5 -240t-435 -90.5zM829 1096l-170 -963h76q4 29 23.5 136t32.5 214
q89 65 161 150h2q74 -140 295 -500h94q-35 57 -94 155t-110.5 180t-130.5 206v6q60 47 128.5 105.5t115 99t125.5 110.5t114 101h-96q-54 -49 -172 -154t-223 -199t-205 -186h-7q53 179 117 539h-76z" />
    <glyph glyph-name="L.ss07" 
d="M868 -315q-355 0 -573.5 210t-218.5 549q0 140 40.5 279t112.5 260t176 225.5t226 178.5t267.5 116.5t295.5 42.5q229 0 409.5 -91.5t285 -267t104.5 -407.5q0 -213 -90 -414t-240.5 -350.5t-359.5 -240t-435 -90.5zM909 1096l-170 -963h582l12 74q-332 0 -514 -14l-4 6
q63 298 170 897h-76z" />
    <glyph glyph-name="M.ss07" 
d="M868 -315q-355 0 -573.5 210t-218.5 549q0 140 40.5 279t112.5 260t176 225.5t226 178.5t267.5 116.5t295.5 42.5q229 0 409.5 -91.5t285 -267t104.5 -407.5q0 -213 -90 -414t-240.5 -350.5t-359.5 -240t-435 -90.5zM637 1096l-170 -963h76q10 58 35.5 204t37.5 219
t27.5 192.5t24.5 226.5h4q206 -734 237 -842h76q448 706 533 842h4q-30 -116 -57 -242.5t-39.5 -195t-38.5 -217.5t-33 -187h76l169 963h-71q-294 -441 -565 -881h-2q-125 497 -254 881h-70z" />
    <glyph glyph-name="N.ss07" 
d="M868 -315q-355 0 -573.5 210t-218.5 549q0 140 40.5 279t112.5 260t176 225.5t226 178.5t267.5 116.5t295.5 42.5q229 0 409.5 -91.5t285 -267t104.5 -407.5q0 -213 -90 -414t-240.5 -350.5t-359.5 -240t-435 -90.5zM756 1096l-170 -963h76q7 38 25 139.5t25.5 146
t22 132.5t23 146.5t19 137.5t18.5 154h4q228 -433 469 -856h67l170 963h-75q-104 -585 -134 -867h-4q-285 549 -469 867h-67z" />
    <glyph glyph-name="O.ss07" 
d="M868 -315q-355 0 -573.5 210t-218.5 549q0 140 40.5 279t112.5 260t176 225.5t226 178.5t267.5 116.5t295.5 42.5q229 0 409.5 -91.5t285 -267t104.5 -407.5q0 -213 -90 -414t-240.5 -350.5t-359.5 -240t-435 -90.5zM946 113q113 0 220.5 50t186 131.5t126 190
t47.5 220.5q0 179 -112 295t-290 116q-150 0 -284.5 -83.5t-214.5 -221t-80 -289.5q0 -183 113 -296t288 -113zM627 535q0 97 40 190.5t106 163.5t155.5 112.5t183.5 42.5q147 0 239.5 -99t92.5 -251q0 -129 -67 -247t-179.5 -190.5t-236.5 -72.5q-145 0 -239.5 98
t-94.5 253z" />
    <glyph glyph-name="P.ss07" 
d="M868 -315q-355 0 -573.5 210t-218.5 549q0 140 40.5 279t112.5 260t176 225.5t226 178.5t267.5 116.5t295.5 42.5q229 0 409.5 -91.5t285 -267t104.5 -407.5q0 -213 -90 -414t-240.5 -350.5t-359.5 -240t-435 -90.5zM838 1096l-170 -963h75q47 270 62 406q93 -17 287 -17
q99 0 179.5 50t123.5 127.5t43 164.5q0 109 -72.5 170.5t-196.5 61.5h-331zM817 582l-4 6q61 255 76 444l8 6q88 -12 248 -12q101 0 156 -46t55 -134q0 -109 -77 -181.5t-200 -72.5q-168 0 -262 -10z" />
    <glyph glyph-name="Q.ss07" 
d="M868 -315q-355 0 -573.5 210t-218.5 549q0 140 40.5 279t112.5 260t176 225.5t226 178.5t267.5 116.5t295.5 42.5q229 0 409.5 -91.5t285 -267t104.5 -407.5q0 -213 -90 -414t-240.5 -350.5t-359.5 -240t-435 -90.5zM1325 68l61 47q-81 117 -116 157q120 81 189 210.5
t69 269.5q0 176 -113 291.5t-291 115.5q-149 0 -283 -83.5t-214 -221t-80 -289.5q0 -180 111 -294.5t290 -114.5q148 0 273 86q34 -68 104 -174zM629 580q0 96 40 189.5t106 163t155.5 112t183.5 42.5q146 0 239 -98.5t93 -249.5q0 -113 -53.5 -222.5t-151.5 -201.5
q-57 108 -158 252l-59 -45q113 -168 168 -235q-120 -60 -229 -60q-148 0 -241 99.5t-93 253.5z" />
    <glyph glyph-name="R.ss07" 
d="M868 -315q-355 0 -573.5 210t-218.5 549q0 140 40.5 279t112.5 260t176 225.5t226 178.5t267.5 116.5t295.5 42.5q229 0 409.5 -91.5t285 -267t104.5 -407.5q0 -213 -90 -414t-240.5 -350.5t-359.5 -240t-435 -90.5zM844 1096l-170 -963h76q45 255 61 406q91 -17 244 -17
l190 -389h86q-24 49 -91.5 188t-106.5 214v2q135 13 223 106t88 219q0 111 -72 172.5t-196 61.5h-332zM823 582l-4 6q58 240 76 444l8 6q103 -12 248 -12q101 0 156 -46t55 -134q0 -109 -77 -181.5t-200 -72.5q-168 0 -262 -10z" />
    <glyph glyph-name="S.ss07" 
d="M868 -315q-355 0 -573.5 210t-218.5 549q0 140 40.5 279t112.5 260t176 225.5t226 178.5t267.5 116.5t295.5 42.5q229 0 409.5 -91.5t285 -267t104.5 -407.5q0 -213 -90 -414t-240.5 -350.5t-359.5 -240t-435 -90.5zM965 113q151 0 262.5 96.5t111.5 220.5q0 21 -4.5 40
t-10.5 34t-18 29.5t-21.5 24t-27.5 20t-28.5 16.5t-32 14.5t-31 12t-32 11t-29.5 9.5l-84 29q-87 29 -124 63q-47 45 -48 107q0 84 73 144t179 60q96 0 157 -53t70 -145l74 28q-10 114 -85.5 178t-195.5 64q-147 0 -250.5 -87t-103.5 -206q0 -43 16.5 -80t39 -60t57 -43
t58 -29t54.5 -19l84 -27q6 -2 27.5 -8.5t29.5 -9.5t26.5 -10t26.5 -12t22 -14t20.5 -18.5t14 -22t10.5 -27.5t3 -33q0 -91 -79 -158.5t-195 -67.5q-109 0 -178 65.5t-76 180.5l-74 -27q5 -65 26.5 -116.5t52.5 -83t71 -52.5t80 -29.5t82 -8.5z" />
    <glyph glyph-name="T.ss07" 
d="M868 -315q-355 0 -573.5 210t-218.5 549q0 140 40.5 279t112.5 260t176 225.5t226 178.5t267.5 116.5t295.5 42.5q229 0 409.5 -91.5t285 -267t104.5 -407.5q0 -213 -90 -414t-240.5 -350.5t-359.5 -240t-435 -90.5zM909 133h76q115 659 154 905q115 -12 338 -12l12 70
h-746l-12 -70q223 0 342 12q-49 -249 -164 -905z" />
    <glyph glyph-name="U.ss07" 
d="M868 -315q-355 0 -573.5 210t-218.5 549q0 140 40.5 279t112.5 260t176 225.5t226 178.5t267.5 116.5t295.5 42.5q229 0 409.5 -91.5t285 -267t104.5 -407.5q0 -213 -90 -414t-240.5 -350.5t-359.5 -240t-435 -90.5zM944 123q164 0 271.5 95.5t138.5 268.5l108 619h-76
l-108 -617q-53 -296 -317 -296q-269 0 -216 296l109 617h-76l-108 -619q-31 -175 39.5 -269.5t234.5 -94.5z" />
    <glyph glyph-name="V.ss07" 
d="M868 -315q-355 0 -573.5 210t-218.5 549q0 140 40.5 279t112.5 260t176 225.5t226 178.5t267.5 116.5t295.5 42.5q229 0 409.5 -91.5t285 -267t104.5 -407.5q0 -213 -90 -414t-240.5 -350.5t-359.5 -240t-435 -90.5zM684 1096l227 -963h72l567 963h-80
q-313 -537 -503 -887h-4q-86 432 -199 887h-80z" />
    <glyph glyph-name="W.ss07" 
d="M868 -315q-355 0 -573.5 210t-218.5 549q0 140 40.5 279t112.5 260t176 225.5t226 178.5t267.5 116.5t295.5 42.5q229 0 409.5 -91.5t285 -267t104.5 -407.5q0 -213 -90 -414t-240.5 -350.5t-359.5 -240t-435 -90.5zM446 1096l152 -963h80q270 535 424 887h4
q48 -487 113 -887h79l492 963h-78q-223 -436 -434 -885h-4q-41 368 -117 885h-78q-296 -601 -426 -885h-4q-48 412 -125 885h-78z" />
    <glyph glyph-name="X.ss07" 
d="M868 -315q-355 0 -573.5 210t-218.5 549q0 140 40.5 279t112.5 260t176 225.5t226 178.5t267.5 116.5t295.5 42.5q229 0 409.5 -91.5t285 -267t104.5 -407.5q0 -213 -90 -414t-240.5 -350.5t-359.5 -240t-435 -90.5zM563 133h86q250 289 377 453h2q81 -183 217 -453h86
q-29 55 -83.5 162t-95 183.5t-81.5 148.5l2 6q187 199 418 463h-86q-235 -260 -361 -420h-2q-99 209 -213 420h-88q109 -207 254 -463l-2 -6q-86 -96 -248 -283.5t-182 -210.5z" />
    <glyph glyph-name="Y.ss07" 
d="M868 -315q-355 0 -573.5 210t-218.5 549q0 140 40.5 279t112.5 260t176 225.5t226 178.5t267.5 116.5t295.5 42.5q229 0 409.5 -91.5t285 -267t104.5 -407.5q0 -213 -90 -414t-240.5 -350.5t-359.5 -240t-435 -90.5zM909 133h76q48 283 57 359q45 56 112 138.5t133 167
t233 298.5h-82q-19 -25 -76.5 -98.5t-88.5 -114t-80 -105t-90.5 -121.5t-80.5 -112h-2q-104 284 -221 551h-84q112 -266 264 -604q-14 -58 -31 -145.5t-28 -150t-11 -63.5z" />
    <glyph glyph-name="Z.ss07" 
d="M868 -315q-355 0 -573.5 210t-218.5 549q0 140 40.5 279t112.5 260t176 225.5t226 178.5t267.5 116.5t295.5 42.5q229 0 409.5 -91.5t285 -267t104.5 -407.5q0 -213 -90 -414t-240.5 -350.5t-359.5 -240t-435 -90.5zM608 195l-10 -62h737l13 74q-429 0 -652 -12l-2 2
q100 107 371.5 393.5t419.5 447.5l10 58h-700l-13 -70q331 0 615 16v-2q-113 -122 -379.5 -405.5t-409.5 -439.5z" />
    <glyph glyph-name="A.ss08" 
d="M868 -315q-355 0 -573.5 210t-218.5 549q0 140 40.5 279t112.5 260t176 225.5t226 178.5t267.5 116.5t295.5 42.5q229 0 409.5 -91.5t285 -267t104.5 -407.5q0 -213 -90 -414t-240.5 -350.5t-359.5 -240t-435 -90.5zM881 -244q207 0 399 83.5t330.5 221.5t221.5 324
t83 383q0 213 -96 374.5t-261.5 246t-375.5 84.5q-206 0 -398 -85.5t-330 -224.5t-221 -325t-83 -379q0 -154 53.5 -284.5t148.5 -222.5t231.5 -144t297.5 -52zM721 266h-62l410 697h55l164 -697h-63q-4 19 -16 69.5t-20.5 94t-14.5 96.5l-3 4q-94 -8 -145 -8q-62 0 -152 8
l-8 -4q-59 -117 -145 -260zM893 567q86 11 143 11q52 0 123 -11q-54 204 -72 332h-6q-82 -163 -188 -332z" />
    <glyph glyph-name="B.ss08" 
d="M868 -315q-355 0 -573.5 210t-218.5 549q0 140 40.5 279t112.5 260t176 225.5t226 178.5t267.5 116.5t295.5 42.5q229 0 409.5 -91.5t285 -267t104.5 -407.5q0 -213 -90 -414t-240.5 -350.5t-359.5 -240t-435 -90.5zM881 -244q207 0 399 83.5t330.5 221.5t221.5 324
t83 383q0 213 -96 374.5t-261.5 246t-375.5 84.5q-206 0 -398 -85.5t-330 -224.5t-221 -325t-83 -379q0 -154 53.5 -284.5t148.5 -222.5t231.5 -144t297.5 -52zM1030 266h-278l122 697h240q89 0 143 -43.5t54 -112.5q0 -66 -43 -117.5t-111 -68.5q57 -12 89 -48.5t32 -89.5
q0 -84 -73 -150.5t-175 -66.5zM868 639l2 -2q68 6 187 6q82 0 138 44t56 108q0 50 -42.5 81t-112.5 31q-110 0 -176 8l-2 -2q-12 -131 -50 -274zM811 315l2 -2q88 9 211 9q82 0 136 42.5t54 108.5q0 53 -41 85t-110 32q-129 0 -201 6l-2 -2q-17 -164 -49 -279z" />
    <glyph glyph-name="C.ss08" 
d="M868 -315q-355 0 -573.5 210t-218.5 549q0 140 40.5 279t112.5 260t176 225.5t226 178.5t267.5 116.5t295.5 42.5q229 0 409.5 -91.5t285 -267t104.5 -407.5q0 -213 -90 -414t-240.5 -350.5t-359.5 -240t-435 -90.5zM881 -244q207 0 399 83.5t330.5 221.5t221.5 324
t83 383q0 213 -96 374.5t-261.5 246t-375.5 84.5q-206 0 -398 -85.5t-330 -224.5t-221 -325t-83 -379q0 -154 53.5 -284.5t148.5 -222.5t231.5 -144t297.5 -52zM991 252q-133 0 -213 79t-80 210q0 110 54.5 210t152 163t211.5 63q110 0 184 -56.5t84 -150.5l-55 -22
q-15 79 -75 125.5t-148 46.5q-94 0 -174 -53t-125 -138.5t-45 -179.5q0 -118 70.5 -180t175.5 -62q101 0 183.5 59t125.5 162l49 -20q-53 -119 -152 -187.5t-223 -68.5z" />
    <glyph glyph-name="D.ss08" 
d="M868 -315q-355 0 -573.5 210t-218.5 549q0 140 40.5 279t112.5 260t176 225.5t226 178.5t267.5 116.5t295.5 42.5q229 0 409.5 -91.5t285 -267t104.5 -407.5q0 -213 -90 -414t-240.5 -350.5t-359.5 -240t-435 -90.5zM881 -244q207 0 399 83.5t330.5 221.5t221.5 324
t83 383q0 213 -96 374.5t-261.5 246t-375.5 84.5q-206 0 -398 -85.5t-330 -224.5t-221 -325t-83 -379q0 -154 53.5 -284.5t148.5 -222.5t231.5 -144t297.5 -52zM975 266h-250l123 697h242q133 0 204.5 -69t71.5 -200q0 -175 -113.5 -301.5t-277.5 -126.5zM784 315l2 -2
q86 9 207 9q131 0 221.5 105.5t90.5 252.5q0 113 -60 170t-174 57q-117 0 -178 8l-2 -2q-55 -365 -107 -598z" />
    <glyph glyph-name="E.ss08" 
d="M868 -315q-355 0 -573.5 210t-218.5 549q0 140 40.5 279t112.5 260t176 225.5t226 178.5t267.5 116.5t295.5 42.5q229 0 409.5 -91.5t285 -267t104.5 -407.5q0 -213 -90 -414t-240.5 -350.5t-359.5 -240t-435 -90.5zM881 -244q207 0 399 83.5t330.5 221.5t221.5 324
t83 383q0 213 -96 374.5t-261.5 246t-375.5 84.5q-206 0 -398 -85.5t-330 -224.5t-221 -325t-83 -379q0 -154 53.5 -284.5t148.5 -222.5t231.5 -144t297.5 -52zM1217 266h-449l123 697h440l-10 -56q-69 1 -124.5 0t-128 1t-132.5 7l-2 -2q-13 -138 -47 -264l4 -4
q131 8 366 8l-8 -55q-237 0 -366 8l-4 -4q-14 -143 -52 -287l2 -2q155 11 398 11z" />
    <glyph glyph-name="F.ss08" 
d="M868 -315q-355 0 -573.5 210t-218.5 549q0 140 40.5 279t112.5 260t176 225.5t226 178.5t267.5 116.5t295.5 42.5q229 0 409.5 -91.5t285 -267t104.5 -407.5q0 -213 -90 -414t-240.5 -350.5t-359.5 -240t-435 -90.5zM881 -244q207 0 399 83.5t330.5 221.5t221.5 324
t83 383q0 213 -96 374.5t-261.5 246t-375.5 84.5q-206 0 -398 -85.5t-330 -224.5t-221 -325t-83 -379q0 -154 53.5 -284.5t148.5 -222.5t231.5 -144t297.5 -52zM842 266h-60l123 697h430l-10 -58q-244 0 -375 10l-2 -2q-16 -152 -49 -270l4 -2q97 6 361 6l-11 -53
q-229 0 -356 6l-4 -2q-10 -92 -51 -332z" />
    <glyph glyph-name="G.ss08" 
d="M1194 1546q229 0 409.5 -91.5t285 -267t104.5 -407.5q0 -213 -90 -414t-240.5 -350.5t-359.5 -240t-435 -90.5q-355 0 -573.5 210t-218.5 549q0 140 40.5 279t112.5 260t176 225.5t226 178.5t267.5 116.5t295.5 42.5zM881 -244q207 0 399 83.5t330.5 221.5t221.5 324
t83 383q0 213 -96 374.5t-261.5 246t-375.5 84.5q-206 0 -398 -85.5t-330 -224.5t-221 -325t-83 -379q0 -154 53.5 -284.5t148.5 -222.5t231.5 -144t297.5 -52zM1106 920q-142 0 -243 -112t-101 -259q0 -118 68.5 -180t170.5 -62q111 0 198 71t122 191q-189 -16 -262 -14
l8 53h311l-59 -342h-53q1 6 9.5 65.5t16.5 90.5q-52 -83 -130.5 -126.5t-174.5 -43.5q-132 0 -210.5 79t-78.5 210q0 111 55 211t152.5 162.5t210.5 62.5q110 0 184 -56.5t84 -150.5l-55 -22q-15 79 -75 125.5t-148 46.5z" />
    <glyph glyph-name="H.ss08" 
d="M868 -315q-355 0 -573.5 210t-218.5 549q0 140 40.5 279t112.5 260t176 225.5t226 178.5t267.5 116.5t295.5 42.5q229 0 409.5 -91.5t285 -267t104.5 -407.5q0 -213 -90 -414t-240.5 -350.5t-359.5 -240t-435 -90.5zM881 -244q207 0 399 83.5t330.5 221.5t221.5 324
t83 383q0 213 -96 374.5t-261.5 246t-375.5 84.5q-206 0 -398 -85.5t-330 -224.5t-221 -325t-83 -379q0 -154 53.5 -284.5t148.5 -222.5t231.5 -144t297.5 -52zM770 266h-59l123 697h59q-37 -211 -64 -318l2 -4q222 9 416 0l6 4q10 102 47 318h60l-123 -697h-59
q3 17 15 85.5t23 123t29 123.5l-4 4q-200 -20 -418 0l-2 -4q-17 -142 -51 -332z" />
    <glyph glyph-name="I.ss08" 
d="M868 -315q-355 0 -573.5 210t-218.5 549q0 140 40.5 279t112.5 260t176 225.5t226 178.5t267.5 116.5t295.5 42.5q229 0 409.5 -91.5t285 -267t104.5 -407.5q0 -213 -90 -414t-240.5 -350.5t-359.5 -240t-435 -90.5zM881 -244q207 0 399 83.5t330.5 221.5t221.5 324
t83 383q0 213 -96 374.5t-261.5 246t-375.5 84.5q-206 0 -398 -85.5t-330 -224.5t-221 -325t-83 -379q0 -154 53.5 -284.5t148.5 -222.5t231.5 -144t297.5 -52zM1001 266h-59l123 697h59z" />
    <glyph glyph-name="J.ss08" 
d="M868 -315q-355 0 -573.5 210t-218.5 549q0 140 40.5 279t112.5 260t176 225.5t226 178.5t267.5 116.5t295.5 42.5q229 0 409.5 -91.5t285 -267t104.5 -407.5q0 -213 -90 -414t-240.5 -350.5t-359.5 -240t-435 -90.5zM881 -244q207 0 399 83.5t330.5 221.5t221.5 324
t83 383q0 213 -96 374.5t-261.5 246t-375.5 84.5q-206 0 -398 -85.5t-330 -224.5t-221 -325t-83 -379q0 -154 53.5 -284.5t148.5 -222.5t231.5 -144t297.5 -52zM944 258q-98 0 -143.5 59.5t-28.5 163.5l4 25l58 8l-5 -25q-14 -83 18.5 -130.5t102.5 -47.5q38 0 68 16
t46.5 37t30 54.5t18 54t9.5 49.5l78 447h60l-76 -430q-47 -281 -240 -281z" />
    <glyph glyph-name="K.ss08" 
d="M1194 1546q229 0 409.5 -91.5t285 -267t104.5 -407.5q0 -213 -90 -414t-240.5 -350.5t-359.5 -240t-435 -90.5q-355 0 -573.5 210t-218.5 549q0 140 40.5 279t112.5 260t176 225.5t226 178.5t267.5 116.5t295.5 42.5zM881 -244q207 0 399 83.5t330.5 221.5t221.5 324
t83 383q0 213 -96 374.5t-261.5 246t-375.5 84.5q-206 0 -398 -85.5t-330 -224.5t-221 -325t-83 -379q0 -154 53.5 -284.5t148.5 -222.5t231.5 -144t297.5 -52zM1294 963h76q-29 -26 -107 -95t-129.5 -113t-113.5 -93v-5q174 -278 242 -391h-74q-139 226 -211 357
q-58 -64 -113 -105q-21 -133 -41 -252h-59l123 697h59q-50 -282 -80 -390q61 58 115.5 109t87.5 80.5t105.5 94t119.5 106.5z" />
    <glyph glyph-name="L.ss08" 
d="M868 -315q-355 0 -573.5 210t-218.5 549q0 140 40.5 279t112.5 260t176 225.5t226 178.5t267.5 116.5t295.5 42.5q229 0 409.5 -91.5t285 -267t104.5 -407.5q0 -213 -90 -414t-240.5 -350.5t-359.5 -240t-435 -90.5zM881 -244q207 0 399 83.5t330.5 221.5t221.5 324
t83 383q0 213 -96 374.5t-261.5 246t-375.5 84.5q-206 0 -398 -85.5t-330 -224.5t-221 -325t-83 -379q0 -154 53.5 -284.5t148.5 -222.5t231.5 -144t297.5 -52zM1243 266h-422l123 697h60q-78 -436 -123 -648l2 -2q146 11 370 11z" />
    <glyph glyph-name="M.ss08" 
d="M1194 1546q229 0 409.5 -91.5t285 -267t104.5 -407.5q0 -213 -90 -414t-240.5 -350.5t-359.5 -240t-435 -90.5q-355 0 -573.5 210t-218.5 549q0 140 40.5 279t112.5 260t176 225.5t226 178.5t267.5 116.5t295.5 42.5zM881 -244q207 0 399 83.5t330.5 221.5t221.5 324
t83 383q0 213 -96 374.5t-261.5 246t-375.5 84.5q-206 0 -398 -85.5t-330 -224.5t-221 -325t-83 -379q0 -154 53.5 -284.5t148.5 -222.5t231.5 -144t297.5 -52zM983 332q198 318 406 631h55l-123 -697h-59q9 50 26 147t27.5 155t27.5 140t35 152q-210 -332 -377 -594h-57
q-1 2 -54.5 190t-111.5 404q-22 -195 -94 -594h-59l123 697h55q114 -343 180 -631z" />
    <glyph glyph-name="N.ss08" 
d="M1194 1546q229 0 409.5 -91.5t285 -267t104.5 -407.5q0 -213 -90 -414t-240.5 -350.5t-359.5 -240t-435 -90.5q-355 0 -573.5 210t-218.5 549q0 140 40.5 279t112.5 260t176 225.5t226 178.5t267.5 116.5t295.5 42.5zM881 -244q207 0 399 83.5t330.5 221.5t221.5 324
t83 383q0 213 -96 374.5t-261.5 246t-375.5 84.5q-206 0 -398 -85.5t-330 -224.5t-221 -325t-83 -379q0 -154 53.5 -284.5t148.5 -222.5t231.5 -144t297.5 -52zM1219 346q31 244 98 617h59l-123 -697h-51q-184 326 -334 608q-27 -219 -98 -608h-59l123 697h51
q169 -299 334 -617z" />
    <glyph glyph-name="O.ss08" 
d="M868 -315q-355 0 -573.5 210t-218.5 549q0 140 40.5 279t112.5 260t176 225.5t226 178.5t267.5 116.5t295.5 42.5q229 0 409.5 -91.5t285 -267t104.5 -407.5q0 -213 -90 -414t-240.5 -350.5t-359.5 -240t-435 -90.5zM881 -244q207 0 399 83.5t330.5 221.5t221.5 324
t83 383q0 213 -96 374.5t-261.5 246t-375.5 84.5q-206 0 -398 -85.5t-330 -224.5t-221 -325t-83 -379q0 -154 53.5 -284.5t148.5 -222.5t231.5 -144t297.5 -52zM971 252q-128 0 -209.5 83.5t-81.5 213.5q0 108 57.5 207t155 160t207.5 61q128 0 209.5 -83.5t81.5 -213.5
q0 -109 -58 -208t-155.5 -159.5t-206.5 -60.5zM983 307q133 0 238.5 112t105.5 253q0 107 -66.5 177.5t-170.5 70.5q-135 0 -241 -111t-106 -252q0 -108 67.5 -179t172.5 -71z" />
    <glyph glyph-name="P.ss08" 
d="M868 -315q-355 0 -573.5 210t-218.5 549q0 140 40.5 279t112.5 260t176 225.5t226 178.5t267.5 116.5t295.5 42.5q229 0 409.5 -91.5t285 -267t104.5 -407.5q0 -213 -90 -414t-240.5 -350.5t-359.5 -240t-435 -90.5zM881 -244q207 0 399 83.5t330.5 221.5t221.5 324
t83 383q0 213 -96 374.5t-261.5 246t-375.5 84.5q-206 0 -398 -85.5t-330 -224.5t-221 -325t-83 -379q0 -154 53.5 -284.5t148.5 -222.5t231.5 -144t297.5 -52zM827 266h-59l123 697h239q91 0 143 -44.5t52 -125.5q0 -100 -74 -174t-178 -74q-140 0 -203 12
q-10 -100 -43 -291zM877 596l2 -4q68 8 188 8q87 0 142 51t55 127q0 63 -39.5 96t-112.5 33q-115 0 -176 8l-2 -2q-18 -170 -57 -317z" />
    <glyph glyph-name="Q.ss08" 
d="M868 -315q-355 0 -573.5 210t-218.5 549q0 140 40.5 279t112.5 260t176 225.5t226 178.5t267.5 116.5t295.5 42.5q229 0 409.5 -91.5t285 -267t104.5 -407.5q0 -213 -90 -414t-240.5 -350.5t-359.5 -240t-435 -90.5zM881 -244q207 0 399 83.5t330.5 221.5t221.5 324
t83 383q0 213 -96 374.5t-261.5 246t-375.5 84.5q-206 0 -398 -85.5t-330 -224.5t-221 -325t-83 -379q0 -154 53.5 -284.5t148.5 -222.5t231.5 -144t297.5 -52zM1290 254l-47 -35q-50 75 -74 123q-89 -59 -196 -59q-126 0 -208.5 82t-82.5 213q0 110 58 209.5t155.5 160
t206.5 60.5q128 0 209.5 -83.5t81.5 -211.5q0 -99 -49.5 -191.5t-135.5 -152.5q29 -33 82 -115zM985 338q73 0 160 41q-59 76 -121 168l49 37q76 -117 111 -181q72 67 108.5 145t36.5 154q0 107 -66.5 177.5t-170.5 70.5q-136 0 -241.5 -111t-105.5 -251q0 -108 67.5 -179
t172.5 -71z" />
    <glyph glyph-name="R.ss08" 
d="M1194 1546q229 0 409.5 -91.5t285 -267t104.5 -407.5q0 -213 -90 -414t-240.5 -350.5t-359.5 -240t-435 -90.5q-355 0 -573.5 210t-218.5 549q0 140 40.5 279t112.5 260t176 225.5t226 178.5t267.5 116.5t295.5 42.5zM881 -244q207 0 399 83.5t330.5 221.5t221.5 324
t83 383q0 213 -96 374.5t-261.5 246t-375.5 84.5q-206 0 -398 -85.5t-330 -224.5t-221 -325t-83 -379q0 -154 53.5 -284.5t148.5 -222.5t231.5 -144t297.5 -52zM895 963h240q91 0 142.5 -44.5t51.5 -125.5q0 -92 -63.5 -159.5t-157.5 -78.5q31 -58 81.5 -162.5t61.5 -126.5
h-67l-137 279q-112 0 -173 12q-10 -100 -43 -291h-59zM1071 600q87 0 142 51t55 127q0 63 -39.5 96t-112.5 33q-95 0 -176 8l-2 -2q-20 -177 -57 -317l2 -4q70 8 188 8z" />
    <glyph glyph-name="S.ss08" 
d="M868 -315q-355 0 -573.5 210t-218.5 549q0 140 40.5 279t112.5 260t176 225.5t226 178.5t267.5 116.5t295.5 42.5q229 0 409.5 -91.5t285 -267t104.5 -407.5q0 -213 -90 -414t-240.5 -350.5t-359.5 -240t-435 -90.5zM881 -244q207 0 399 83.5t330.5 221.5t221.5 324
t83 383q0 213 -96 374.5t-261.5 246t-375.5 84.5q-206 0 -398 -85.5t-330 -224.5t-221 -325t-83 -379q0 -154 53.5 -284.5t148.5 -222.5t231.5 -144t297.5 -52zM983 252q-96 0 -156 54.5t-69 156.5l59 20q4 -81 54 -128.5t128 -47.5q80 0 136.5 48t56.5 112q0 19 -6.5 34
t-13 24t-23.5 18t-25.5 12t-31.5 10.5t-29 9.5l-62 21q-161 51 -161 168q0 86 76 149.5t182 63.5q87 0 141 -46.5t61 -129.5l-57 -23q-6 66 -50 104t-112 38q-75 0 -126.5 -42t-51.5 -102q0 -81 123 -121l61 -20q3 -1 26 -8.5t30 -10t27 -11.5t28 -15t22.5 -18t20.5 -24.5
t11 -29.5t5 -37q0 -91 -82 -160t-192 -69z" />
    <glyph glyph-name="T.ss08" 
d="M868 -315q-355 0 -573.5 210t-218.5 549q0 140 40.5 279t112.5 260t176 225.5t226 178.5t267.5 116.5t295.5 42.5q229 0 409.5 -91.5t285 -267t104.5 -407.5q0 -213 -90 -414t-240.5 -350.5t-359.5 -240t-435 -90.5zM881 -244q207 0 399 83.5t330.5 221.5t221.5 324
t83 383q0 213 -96 374.5t-261.5 246t-375.5 84.5q-206 0 -398 -85.5t-330 -224.5t-221 -325t-83 -379q0 -154 53.5 -284.5t148.5 -222.5t231.5 -144t297.5 -52zM1001 266h-59q12 62 30 166.5t39 219.5t50 263q-86 -8 -246 -8l10 56h539l-10 -56q-160 0 -242 8
q-11 -68 -26 -158.5t-29.5 -173t-26.5 -153t-20.5 -117t-8.5 -47.5z" />
    <glyph glyph-name="U.ss08" 
d="M868 -315q-355 0 -573.5 210t-218.5 549q0 140 40.5 279t112.5 260t176 225.5t226 178.5t267.5 116.5t295.5 42.5q229 0 409.5 -91.5t285 -267t104.5 -407.5q0 -213 -90 -414t-240.5 -350.5t-359.5 -240t-435 -90.5zM881 -244q207 0 399 83.5t330.5 221.5t221.5 324
t83 383q0 213 -96 374.5t-261.5 246t-375.5 84.5q-206 0 -398 -85.5t-330 -224.5t-221 -325t-83 -379q0 -154 53.5 -284.5t148.5 -222.5t231.5 -144t297.5 -52zM969 258q-121 0 -171 70t-28 194l78 447h59l-78 -447q-19 -104 20.5 -157.5t133.5 -53.5q185 0 223 211l78 447
h59l-77 -447q-22 -125 -100.5 -194.5t-196.5 -69.5z" />
    <glyph glyph-name="V.ss08" 
d="M1194 1546q229 0 409.5 -91.5t285 -267t104.5 -407.5q0 -213 -90 -414t-240.5 -350.5t-359.5 -240t-435 -90.5q-355 0 -573.5 210t-218.5 549q0 140 40.5 279t112.5 260t176 225.5t226 178.5t267.5 116.5t295.5 42.5zM881 -244q207 0 399 83.5t330.5 221.5t221.5 324
t83 383q0 213 -96 374.5t-261.5 246t-375.5 84.5q-206 0 -398 -85.5t-330 -224.5t-221 -325t-83 -379q0 -154 53.5 -284.5t148.5 -222.5t231.5 -144t297.5 -52zM987 324q54 102 112 205t138 241t111 193h63l-410 -697h-55l-164 697h62q85 -339 143 -639z" />
    <glyph glyph-name="W.ss08" 
d="M1194 1546q229 0 409.5 -91.5t285 -267t104.5 -407.5q0 -213 -90 -414t-240.5 -350.5t-359.5 -240t-435 -90.5q-355 0 -573.5 210t-218.5 549q0 140 40.5 279t112.5 260t176 225.5t226 178.5t267.5 116.5t295.5 42.5zM881 -244q207 0 399 83.5t330.5 221.5t221.5 324
t83 383q0 213 -96 374.5t-261.5 246t-375.5 84.5q-206 0 -398 -85.5t-330 -224.5t-221 -325t-83 -379q0 -154 53.5 -284.5t148.5 -222.5t231.5 -144t297.5 -52zM1210 334q165 344 312 629h59l-354 -697h-62q-55 353 -82 625q-114 -256 -303 -625h-61l-109 697h62
q66 -394 92 -629q98 213 303 629h59q48 -337 84 -629z" />
    <glyph glyph-name="X.ss08" 
d="M868 -315q-355 0 -573.5 210t-218.5 549q0 140 40.5 279t112.5 260t176 225.5t226 178.5t267.5 116.5t295.5 42.5q229 0 409.5 -91.5t285 -267t104.5 -407.5q0 -213 -90 -414t-240.5 -350.5t-359.5 -240t-435 -90.5zM881 -244q207 0 399 83.5t330.5 221.5t221.5 324
t83 383q0 213 -96 374.5t-261.5 246t-375.5 84.5q-206 0 -398 -85.5t-330 -224.5t-221 -325t-83 -379q0 -154 53.5 -284.5t148.5 -222.5t231.5 -144t297.5 -52zM760 266h-68q16 19 89 104t124.5 143t100.5 110v4q-101 172 -185 336h68q85 -160 153 -304q120 151 258 304h68
q-191 -216 -303 -336v-4q32 -55 62 -112t69 -135l55 -110h-65q-12 25 -40 79.5t-54 109t-62 135.5q-78 -97 -270 -324z" />
    <glyph glyph-name="Y.ss08" 
d="M868 -315q-355 0 -573.5 210t-218.5 549q0 140 40.5 279t112.5 260t176 225.5t226 178.5t267.5 116.5t295.5 42.5q229 0 409.5 -91.5t285 -267t104.5 -407.5q0 -213 -90 -414t-240.5 -350.5t-359.5 -240t-435 -90.5zM881 -244q207 0 399 83.5t330.5 221.5t221.5 324
t83 383q0 213 -96 374.5t-261.5 246t-375.5 84.5q-206 0 -398 -85.5t-330 -224.5t-221 -325t-83 -379q0 -154 53.5 -284.5t148.5 -222.5t231.5 -144t297.5 -52zM1001 266h-59q23 137 49 260q-181 417 -190 437h67q110 -263 158 -396q69 100 299 396h64
q-18 -22 -147.5 -186.5t-199.5 -250.5q-14 -111 -41 -260z" />
    <glyph glyph-name="Z.ss08" 
d="M868 -315q-355 0 -573.5 210t-218.5 549q0 140 40.5 279t112.5 260t176 225.5t226 178.5t267.5 116.5t295.5 42.5q229 0 409.5 -91.5t285 -267t104.5 -407.5q0 -213 -90 -414t-240.5 -350.5t-359.5 -240t-435 -90.5zM881 -244q207 0 399 83.5t330.5 221.5t221.5 324
t83 383q0 213 -96 374.5t-261.5 246t-375.5 84.5q-206 0 -398 -85.5t-330 -224.5t-221 -325t-83 -379q0 -154 53.5 -284.5t148.5 -222.5t231.5 -144t297.5 -52zM1255 266h-534l8 47q153 166 565 607q-250 -13 -442 -13l10 56h508l-8 -45q-84 -92 -176.5 -190t-211 -223
t-179.5 -190q182 9 471 9z" />
    <glyph glyph-name="i.loclTRK" horiz-adv-x="483" 
d="M399 1446q-35 0 -57.5 22.5t-22.5 57.5q0 44 34.5 78t80.5 34q35 0 57.5 -22t22.5 -55q0 -44 -35.5 -79.5t-79.5 -35.5zM190 0h-94l199 1126h94z" />
    <glyph glyph-name="a.ss01" horiz-adv-x="1374" 
d="M520 -35q-195 0 -313.5 128.5t-118.5 344.5q0 137 51.5 269t137 231t206 160t250.5 61q146 0 252.5 -79t147.5 -242h20q4 108 33 288h94l-197 -1126h-94q1 6 6.5 42t7.5 47t8 42.5t11 51t14 50t19 60.5h-21q-96 -164 -230.5 -246t-283.5 -82zM547 49q108 0 209.5 53.5
t174.5 140t117 199.5t44 228q0 181 -102 293t-265 112q-108 0 -208 -53.5t-170 -140t-112 -199.5t-42 -229q0 -182 96.5 -293t257.5 -111z" />
    <glyph glyph-name="aacute.ss01" horiz-adv-x="1374" 
d="M1231 1673l-381 -395h-84l321 395h144zM520 -35q-195 0 -313.5 128.5t-118.5 344.5q0 137 51.5 269t137 231t206 160t250.5 61q146 0 252.5 -79t147.5 -242h20q4 108 33 288h94l-197 -1126h-94q1 6 6.5 42t7.5 47t8 42.5t11 51t14 50t19 60.5h-21q-96 -164 -230.5 -246
t-283.5 -82zM547 49q108 0 209.5 53.5t174.5 140t117 199.5t44 228q0 181 -102 293t-265 112q-108 0 -208 -53.5t-170 -140t-112 -199.5t-42 -229q0 -182 96.5 -293t257.5 -111z" />
    <glyph glyph-name="abreve.ss01" horiz-adv-x="1374" 
d="M813 1278q-169 0 -247 111t-54 284h90q-20 -143 43.5 -226t181.5 -83q119 0 211.5 82.5t124.5 226.5h90q-37 -172 -154.5 -283.5t-285.5 -111.5zM520 -35q-195 0 -313.5 128.5t-118.5 344.5q0 137 51.5 269t137 231t206 160t250.5 61q146 0 252.5 -79t147.5 -242h20
q4 108 33 288h94l-197 -1126h-94q1 6 6.5 42t7.5 47t8 42.5t11 51t14 50t19 60.5h-21q-96 -164 -230.5 -246t-283.5 -82zM547 49q108 0 209.5 53.5t174.5 140t117 199.5t44 228q0 181 -102 293t-265 112q-108 0 -208 -53.5t-170 -140t-112 -199.5t-42 -229q0 -182 96.5 -293
t257.5 -111z" />
    <glyph glyph-name="acircumflex.ss01" horiz-adv-x="1374" 
d="M532 1278h-90l361 354h145l234 -354h-90q-55 66 -78.5 96t-62.5 88t-62 107h-45q-103 -127 -312 -291zM520 -35q-195 0 -313.5 128.5t-118.5 344.5q0 137 51.5 269t137 231t206 160t250.5 61q146 0 252.5 -79t147.5 -242h20q4 108 33 288h94l-197 -1126h-94q1 6 6.5 42
t7.5 47t8 42.5t11 51t14 50t19 60.5h-21q-96 -164 -230.5 -246t-283.5 -82zM547 49q108 0 209.5 53.5t174.5 140t117 199.5t44 228q0 181 -102 293t-265 112q-108 0 -208 -53.5t-170 -140t-112 -199.5t-42 -229q0 -182 96.5 -293t257.5 -111z" />
    <glyph glyph-name="adieresis.ss01" horiz-adv-x="1374" 
d="M666 1391q-34 0 -55 21.5t-21 53.5q0 41 32.5 73t73.5 32q33 0 53.5 -21t20.5 -51q0 -43 -31.5 -75.5t-72.5 -32.5zM1001 1391q-34 0 -54.5 20.5t-20.5 52.5q0 43 31.5 75t74.5 32q32 0 53 -21.5t21 -52.5q0 -41 -32.5 -73.5t-72.5 -32.5zM520 -35q-195 0 -313.5 128.5
t-118.5 344.5q0 137 51.5 269t137 231t206 160t250.5 61q146 0 252.5 -79t147.5 -242h20q4 108 33 288h94l-197 -1126h-94q1 6 6.5 42t7.5 47t8 42.5t11 51t14 50t19 60.5h-21q-96 -164 -230.5 -246t-283.5 -82zM547 49q108 0 209.5 53.5t174.5 140t117 199.5t44 228
q0 181 -102 293t-265 112q-108 0 -208 -53.5t-170 -140t-112 -199.5t-42 -229q0 -182 96.5 -293t257.5 -111z" />
    <glyph glyph-name="agrave.ss01" horiz-adv-x="1374" 
d="M860 1278h-84l-241 395h143zM520 -35q-195 0 -313.5 128.5t-118.5 344.5q0 137 51.5 269t137 231t206 160t250.5 61q146 0 252.5 -79t147.5 -242h20q4 108 33 288h94l-197 -1126h-94q1 6 6.5 42t7.5 47t8 42.5t11 51t14 50t19 60.5h-21q-96 -164 -230.5 -246t-283.5 -82z
M547 49q108 0 209.5 53.5t174.5 140t117 199.5t44 228q0 181 -102 293t-265 112q-108 0 -208 -53.5t-170 -140t-112 -199.5t-42 -229q0 -182 96.5 -293t257.5 -111z" />
    </font>
</defs>
</svg>
