<?xml version="1.0" standalone="no"?>
<!DOCTYPE svg PUBLIC "-//W3C//DTD SVG 1.1//EN" "http://www.w3.org/Graphics/SVG/1.1/DTD/svg11.dtd" >
<svg xmlns="http://www.w3.org/2000/svg" xmlns:xlink="http://www.w3.org/1999/xlink" version="1.1">
<metadata>
Created by FontForge 20170731 at Mon Mar 15 14:15:34 2021
 By Aleksey,,,
Copyright (c) 2020 by Matthieu Salvaggio x Blaze Type. All rights reserved.
</metadata>
<defs>
<font id="Area-LightInktrap" horiz-adv-x="2048" >
  <font-face 
    font-family="Area Light Inktrap"
    font-weight="300"
    font-stretch="normal"
    units-per-em="2048"
    panose-1="0 0 4 0 0 0 0 0 0 0"
    ascent="1638"
    descent="-410"
    x-height="1128"
    cap-height="1597"
    bbox="-1651 -508 2601 2148"
    underline-thickness="102"
    underline-position="-307"
    unicode-range="U+0020-25CA"
  />
<missing-glyph horiz-adv-x="1456" 
d="M1255 0h-1054v1597h1054v-1597zM315 1493v-1319l779 1319h-779zM1141 1384l-752 -1273h752v1273z" />
    <glyph glyph-name=".notdef" horiz-adv-x="1456" 
d="M1255 0h-1054v1597h1054v-1597zM315 1493v-1319l779 1319h-779zM1141 1384l-752 -1273h752v1273z" />
    <glyph glyph-name=".null" horiz-adv-x="0" 
 />
    <glyph glyph-name="nonmarkingreturn" horiz-adv-x="682" 
 />
    <glyph glyph-name="space" unicode=" " horiz-adv-x="542" 
 />
    <glyph glyph-name="exclam" unicode="!" horiz-adv-x="522" 
d="M299 379h-76l-37 1122v96h150v-96zM262 -14q-45 0 -75.5 32t-30.5 78q0 43 30.5 74t75.5 31q43 0 74 -31t31 -74q0 -46 -31 -78t-74 -32z" />
    <glyph glyph-name="quotedbl" unicode="&#x22;" horiz-adv-x="671" 
d="M272 1167h-127v430h127v-430zM526 1167h-125v430h125v-430z" />
    <glyph glyph-name="numbersign" unicode="#" horiz-adv-x="1394" 
d="M338 0h-113q64 325 107 498q-92 -23 -252 -23l22 105q152 0 246 -15q21 188 82 430q-88 -22 -250 -22l23 102q156 0 248 -12q20 186 90 534h112q-74 -367 -116 -534q217 17 434 0q17 162 88 534h115q-70 -348 -117 -534q94 12 258 12l-23 -102q-166 0 -258 22
q-13 -194 -76 -430q99 15 256 15l-20 -105q-164 0 -258 23q-16 -184 -78 -498h-115q8 38 24 116.5t26 127t26.5 120t32.5 134.5q-218 -33 -436 0q-16 -184 -78 -498zM438 565q217 20 434 0q12 168 78 430q-217 -33 -434 0q-15 -197 -78 -430z" />
    <glyph glyph-name="dollar" unicode="$" horiz-adv-x="1173" 
d="M1049 483q0 -157 -112.5 -260.5t-307.5 -107.5v-197h-80v199q-155 16 -269.5 103t-166.5 249l110 41q90 -247 326 -279v512l-6 2q-47 12 -89 26.5t-99 45t-97 68.5t-69 98.5t-29 132.5q0 106 58 185.5t144.5 119t186.5 43.5v174h80v-178q140 -15 250 -99t143 -208
l-104 -51q-34 96 -109 162.5t-180 83.5v-502l16 -4q48 -13 80.5 -23t78.5 -27.5t77 -36t65.5 -46t55 -59t34 -74.5t13.5 -93zM285 1122q0 -54 23.5 -97.5t66 -73.5t82.5 -48.5t92 -34.5v484q-114 -6 -189 -67t-75 -163zM629 723v-496q53 2 102.5 16t93.5 41.5t70.5 75
t26.5 109.5q0 60 -23.5 104.5t-69.5 73t-90.5 45t-109.5 31.5z" />
    <glyph glyph-name="percent" unicode="%" horiz-adv-x="1660" 
d="M346 797q-119 0 -192.5 100.5t-73.5 261.5t73.5 263t192.5 102q118 0 192 -102.5t74 -262.5t-74 -261t-192 -101zM332 0h-119l1139 1468h110zM346 889q72 0 115 72t43 198q0 125 -43.5 198t-114.5 73t-115.5 -73.5t-44.5 -197.5q0 -125 44 -197.5t116 -72.5zM1315 -29
q-119 0 -192.5 101t-73.5 262t73.5 262.5t192.5 101.5q118 0 192 -102t74 -262t-74 -261.5t-192 -101.5zM1315 63q71 0 114.5 72.5t43.5 198.5q0 125 -43.5 197.5t-114.5 72.5q-72 0 -116 -73t-44 -197q0 -126 44 -198.5t116 -72.5z" />
    <glyph glyph-name="ampersand" unicode="&#x26;" horiz-adv-x="1390" 
d="M553 -35q-121 0 -223 45.5t-166 136.5t-64 211q0 66 21 125.5t55.5 106t87 91t106 77.5t122.5 69q-56 53 -99 100.5t-86.5 108.5t-67.5 127t-24 131q0 145 109 240.5t270 95.5q164 0 267.5 -103.5t103.5 -244.5q0 -132 -93 -245t-247 -203l395 -416q12 49 45.5 170.5
t48.5 189.5l115 -24q-65 -262 -162 -392l350 -360h-151l-256 270q-156 -307 -457 -307zM580 885q69 59 105.5 93.5t75 82.5t54.5 97t16 108q0 118 -68 184t-175 66q-103 0 -172.5 -59.5t-69.5 -164.5q0 -43 14 -87.5t33 -80t54.5 -83t61 -77t71.5 -79.5zM555 82
q119 0 217.5 63t192.5 177l-426 452q-10 -8 -30 -23q-59 -45 -88 -68.5t-72.5 -65.5t-64.5 -74.5t-37 -78t-16 -93.5q0 -132 94 -210.5t230 -78.5z" />
    <glyph glyph-name="quotesingle" unicode="'" horiz-adv-x="417" 
d="M272 1167h-127v430h127v-430z" />
    <glyph glyph-name="parenleft" unicode="(" horiz-adv-x="610" 
d="M580 -307h-129q-167 198 -256 445.5t-89 506.5q0 260 89 507t256 445h129q-164 -198 -251 -445t-87 -507q0 -259 87 -506.5t251 -445.5z" />
    <glyph glyph-name="parenright" unicode=")" horiz-adv-x="610" 
d="M158 -307h-127q164 197 250 444.5t86 507.5q0 261 -86 508t-250 444h127q167 -198 255.5 -445t88.5 -507q0 -259 -88.5 -506.5t-255.5 -445.5z" />
    <glyph glyph-name="asterisk" unicode="*" horiz-adv-x="845" 
d="M467 1024h-88v211l-184 -107l-43 76l186 107l-186 106l43 76l184 -107v211h88l-2 -211l184 107l43 -76l-184 -106l184 -107l-43 -76l-184 107z" />
    <glyph glyph-name="plus" unicode="+" horiz-adv-x="1001" 
d="M559 682h299v-115h-299v-311h-117v311h-301v115h301v311h117v-311z" />
    <glyph glyph-name="comma" unicode="," horiz-adv-x="442" 
d="M152 -256h-82q27 56 43 86.5t46 77t64 84.5q-102 17 -102 104q0 43 31.5 74t76.5 31q43 0 74 -31t31 -74q0 -34 -26.5 -85.5t-122.5 -211.5z" />
    <glyph glyph-name="hyphen" unicode="-" horiz-adv-x="786" 
d="M666 569h-545v109h545v-109z" />
    <glyph glyph-name="period" unicode="." horiz-adv-x="473" 
d="M238 -14q-44 0 -75.5 32t-31.5 78q0 43 31.5 74t75.5 31t74 -31t30 -74q0 -46 -30 -78t-74 -32z" />
    <glyph glyph-name="slash" unicode="/" horiz-adv-x="837" 
d="M201 -135h-121l557 1773h121z" />
    <glyph glyph-name="zero" unicode="0" horiz-adv-x="1439" 
d="M721 -35q-175 0 -311 105t-210.5 294t-74.5 431q0 182 43.5 337.5t121.5 265t189 171t242 61.5q173 0 308 -105.5t209.5 -296t74.5 -433.5q0 -242 -74.5 -431t-209.5 -294t-308 -105zM723 88q201 0 324.5 194t123.5 513q0 321 -123.5 516.5t-324.5 195.5
q-204 0 -330.5 -196t-126.5 -516q0 -210 57.5 -371t161 -248.5t238.5 -87.5z" />
    <glyph glyph-name="one" unicode="1" horiz-adv-x="784" 
d="M561 0h-131q0 877 23 1360q-144 -222 -400 -254v125q169 28 276 130t107 236h125v-1597z" />
    <glyph glyph-name="two" unicode="2" horiz-adv-x="1265" 
d="M1157 0h-1032v8q9 89 27 159.5t49 128.5t65.5 103t90 92.5t108.5 86t133 94.5q15 10 23 15.5t21 14.5t24 17q49 35 84 62t86.5 76t84 95t56.5 109t24 127q0 141 -100.5 233t-261.5 92q-185 0 -299.5 -122t-116.5 -316l-117 23q0 232 148 382t385 150q218 0 357 -124.5
t139 -321.5q0 -67 -18 -128.5t-46 -111t-71.5 -98.5t-86 -86.5t-98.5 -79.5q-52 -39 -126.5 -90.5t-119 -82.5t-100 -78t-90.5 -89.5t-68 -104.5t-53 -135q315 25 899 25v-125z" />
    <glyph glyph-name="three" unicode="3" horiz-adv-x="1300" 
d="M647 -35q-200 0 -351 99.5t-202 265.5l111 57q46 -135 164.5 -219t279.5 -84q171 0 281 96t110 252q0 149 -108.5 241.5t-319.5 92.5h-157v111h172q175 0 271.5 90.5t96.5 226.5q0 146 -104 231.5t-266 85.5q-151 0 -255.5 -84t-127.5 -233l-117 23q27 188 169.5 300.5
t344.5 112.5q133 0 244 -49t179 -145t68 -222q0 -140 -83 -244.5t-222 -131.5v-23q164 -19 258.5 -118t94.5 -257q0 -96 -37 -182t-103.5 -151.5t-168 -103.5t-222.5 -38z" />
    <glyph glyph-name="four" unicode="4" horiz-adv-x="1314" 
d="M1001 0h-129q0 258 21 420q-404 -27 -846 -8v120l825 1065h129q0 -735 -22 -1099q102 20 260 20v-119q-153 0 -260 21q22 -147 22 -420zM182 506q376 23 711 -8q-27 428 -8 966q-108 -156 -222.5 -312.5t-264.5 -356.5t-216 -289z" />
    <glyph glyph-name="five" unicode="5" horiz-adv-x="1292" 
d="M635 -35q-197 0 -354 99t-215 268l106 59q58 -144 185 -226.5t280 -82.5q178 0 300 117.5t122 300.5q0 177 -114.5 290t-289.5 113q-125 0 -226 -60t-159 -159l-106 47l186 866h756v-116q-455 0 -688 22q-32 -329 -142 -684h19q57 88 158.5 140.5t226.5 52.5
q101 0 194.5 -35.5t165 -99.5t114 -160.5t42.5 -210.5q0 -155 -75 -279.5t-203 -193t-283 -68.5z" />
    <glyph glyph-name="six" unicode="6" horiz-adv-x="1355" 
d="M702 -35q-263 0 -421 200.5t-158 549.5q0 267 93.5 476t259 324t374.5 115q208 0 350 -112l-84 -95q-117 90 -285 90q-252 0 -416 -218t-184 -611h23q46 164 178 257t295 93q102 0 197.5 -39t168.5 -107t116.5 -168t43.5 -216q0 -232 -158.5 -385.5t-392.5 -153.5z
M705 82q170 0 291.5 119.5t121.5 302.5q0 184 -120 302t-291 118q-179 0 -298.5 -124t-119.5 -300q0 -178 122.5 -298t293.5 -120z" />
    <glyph glyph-name="seven" unicode="7" horiz-adv-x="1200" 
d="M442 0h-133q0 211 88 489t253 561t364 470l-10 16q-60 -6 -125 -10.5t-117 -8t-126 -5.5t-115.5 -3t-125.5 -1.5t-115.5 -0.5h-125.5h-119v119h1126v-129q-196 -179 -363 -450t-261.5 -551t-94.5 -496z" />
    <glyph glyph-name="eight" unicode="8" horiz-adv-x="1333" 
d="M668 -35q-239 0 -394 132t-155 329q0 152 90 259.5t250 139.5v29q-138 40 -209.5 132.5t-71.5 215.5q0 181 139 304.5t353 123.5q210 0 347.5 -119.5t137.5 -298.5q0 -124 -71.5 -221.5t-211.5 -136.5v-29q160 -32 251 -139.5t91 -259.5q0 -198 -155 -329.5t-391 -131.5z
M668 887q153 0 254.5 91.5t101.5 231.5q0 136 -101.5 223t-254.5 87q-155 0 -258 -87.5t-103 -222.5q0 -141 102.5 -232t258.5 -91zM666 78q175 0 292 100.5t117 261.5q0 157 -105.5 251.5t-301.5 94.5q-198 0 -305 -94t-107 -252q0 -161 117.5 -261.5t292.5 -100.5z" />
    <glyph glyph-name="nine" unicode="9" horiz-adv-x="1380" 
d="M627 -35q-136 0 -265 58.5t-231 181.5l86 84q173 -207 397 -207q171 0 291 109.5t178 297t58 437.5h-23q-41 -193 -171.5 -297.5t-299.5 -104.5q-106 0 -202.5 41.5t-168.5 113t-114.5 175t-42.5 221.5q0 156 71.5 282.5t200.5 199.5t291 73q92 0 172.5 -23.5t155 -79
t127.5 -139.5t84.5 -214.5t31.5 -294.5q0 -146 -24 -279t-74.5 -249.5t-123 -202t-176.5 -134.5t-228 -49zM659 635q181 0 301.5 135.5t120.5 329.5q0 189 -118.5 303.5t-290.5 114.5q-176 0 -297 -123t-121 -320q0 -189 115 -314.5t290 -125.5z" />
    <glyph glyph-name="colon" unicode=":" horiz-adv-x="509" 
d="M256 944q-45 0 -75.5 32.5t-30.5 78.5q0 43 30.5 73.5t75.5 30.5q43 0 73.5 -30.5t30.5 -73.5q0 -46 -30.5 -78.5t-73.5 -32.5zM256 -14q-45 0 -75.5 32t-30.5 78q0 43 30.5 74t75.5 31q43 0 73.5 -31t30.5 -74q0 -46 -30.5 -78t-73.5 -32z" />
    <glyph glyph-name="semicolon" unicode=";" horiz-adv-x="581" 
d="M303 944q-44 0 -75 32.5t-31 78.5q0 43 31 73.5t75 30.5t74.5 -30.5t30.5 -73.5q0 -46 -30.5 -78.5t-74.5 -32.5zM223 -258h-82l123 252q-32 10 -49.5 37.5t-17.5 64.5q0 43 30.5 74t75.5 31q43 0 74 -31t31 -74q0 -37 -33 -99.5t-152 -254.5z" />
    <glyph glyph-name="less" unicode="&#x3c;" horiz-adv-x="1026" 
d="M858 428v-111l-711 242v127l711 244v-113l-582 -194z" />
    <glyph glyph-name="equal" unicode="=" horiz-adv-x="1038" 
d="M879 772h-719v115h719v-115zM879 358h-719v113h719v-113z" />
    <glyph glyph-name="greater" unicode="&#x3e;" horiz-adv-x="1026" 
d="M879 559l-711 -242v111l582 195l-582 194v113l711 -244v-127z" />
    <glyph glyph-name="question" unicode="?" horiz-adv-x="1077" 
d="M514 426h-121q-4 46 -4 61q0 47 12 88t28.5 71t52 67t63 60.5t80.5 66.5q112 89 171.5 176.5t59.5 193.5q0 137 -96.5 221.5t-229.5 84.5q-138 0 -237.5 -90.5t-99.5 -243.5q0 -32 6 -66l-117 21q-4 46 -4 65q0 129 64.5 228t168.5 149.5t226 50.5q118 0 220 -48
t167 -143.5t65 -219.5q0 -59 -17 -116t-43 -101.5t-66.5 -91t-77 -80t-85.5 -72.5q-52 -41 -77.5 -63.5t-55.5 -58.5t-42.5 -74.5t-12.5 -86.5q0 -31 2 -49zM481 -14q-44 0 -75 32t-31 78q0 43 31 74t75 31q43 0 75 -31.5t32 -75.5t-31.5 -76t-75.5 -32z" />
    <glyph glyph-name="at" unicode="@" horiz-adv-x="1970" 
d="M911 -195q-187 0 -342 64t-257 173.5t-158 254.5t-56 309q0 196 79.5 383t214.5 328t326 227t400 86q166 0 310.5 -55t249.5 -153t165 -242.5t60 -315.5q0 -177 -61 -326t-167.5 -235t-234.5 -86q-115 0 -166.5 71t-32.5 201h-8q-78 -133 -181 -193t-212 -60
q-151 0 -245.5 110t-94.5 275q0 145 72 279t190 215t246 81q108 0 189 -63t124 -191h6q-8 103 19 227h100l-105 -604q-44 -256 113 -256q134 0 233 155.5t99 381.5q0 149 -47.5 275.5t-134 217t-212 141t-276.5 50.5q-184 0 -351.5 -75.5t-287 -201t-190 -295t-70.5 -352.5
q0 -150 49 -278t139 -221.5t224.5 -146t298.5 -52.5q155 0 298.5 46.5t250.5 131.5l55 -82q-127 -99 -291.5 -149t-329.5 -50zM872 338q109 0 199.5 68.5t139.5 175t49 223.5q0 130 -65 208.5t-185 78.5q-108 0 -197.5 -66t-138.5 -171.5t-49 -223.5q0 -132 64 -212.5
t183 -80.5z" />
    <glyph glyph-name="A" unicode="A" horiz-adv-x="1507" 
d="M170 0h-137l651 1597h139l652 -1597h-140q-150 363 -207 578l-20 18q-227 -25 -340 -25q-155 0 -360 25l-23 -21q-60 -191 -215 -575zM430 688l14 -20q190 24 324 24q135 0 289 -24l12 18q-190 418 -293 778h-45q-115 -380 -301 -776z" />
    <glyph glyph-name="B" unicode="B" horiz-adv-x="1458" 
d="M860 0h-639v1597h563q120 0 218.5 -34t161 -92.5t96.5 -133t34 -157.5q0 -122 -74.5 -219t-222.5 -132v-34q175 -28 262 -129.5t87 -237.5q0 -184 -139 -306t-347 -122zM330 860l20 -22q146 24 420 24q179 0 283 84.5t104 218.5q0 140 -114.5 227t-290.5 87h-45.5h-48.5
t-45.5 0.5t-51 1t-48.5 2.5t-54 4t-52.5 5.5t-58.5 8.5l-20 -18q33 -286 2 -623zM328 117l20 -21q170 23 469 23q181 0 286 85t105 220q0 142 -112.5 231.5t-294.5 89.5q-287 0 -451 23l-20 -20q31 -344 -2 -631z" />
    <glyph glyph-name="C" unicode="C" horiz-adv-x="1722" 
d="M915 -35q-233 0 -416.5 105t-285.5 294t-102 429q0 184 62.5 342t169.5 265.5t253 168.5t311 61q112 0 218.5 -28.5t201.5 -83.5t169 -145.5t112 -205.5l-117 -49q-73 185 -231 287t-353 102q-132 0 -250 -49t-208.5 -139t-143.5 -227t-53 -301q0 -138 38 -255
t103 -198.5t151.5 -138.5t184 -84t201.5 -27q125 0 232 39.5t183 109t128 156t81 187.5l117 -43q-30 -97 -76.5 -181.5t-114 -157t-150 -124t-189 -80.5t-226.5 -29z" />
    <glyph glyph-name="D" unicode="D" horiz-adv-x="1650" 
d="M797 0h-576v1597h557q156 0 283 -40.5t214.5 -112t146.5 -171.5t86.5 -216t27.5 -248q0 -238 -87 -420t-255.5 -285.5t-396.5 -103.5zM328 117l20 -21q166 23 461 23q273 0 431.5 183.5t158.5 494.5q0 320 -171 501t-478 181q-263 0 -402 22l-20 -18q40 -677 0 -1366z
" />
    <glyph glyph-name="E" unicode="E" horiz-adv-x="1349" 
d="M1241 0h-1020v1597h1000v-118q-30 0 -199.5 -1t-236.5 0t-197 6.5t-240 16.5l-20 -18q33 -290 2 -604l18 -23q299 27 832 27v-121q-547 0 -832 24l-18 -22q31 -333 -2 -647l20 -21q319 29 893 29v-125z" />
    <glyph glyph-name="F" unicode="F" horiz-adv-x="1273" 
d="M350 0h-129v1597h981v-124q-195 0 -288 0.5t-258.5 7.5t-307.5 20l-20 -18q37 -314 0 -619l18 -22q136 13 294.5 19t246.5 6.5t274 0.5v-120q-530 0 -815 24l-18 -20q22 -243 22 -752z" />
    <glyph glyph-name="G" unicode="G" horiz-adv-x="1800" 
d="M903 -35q-171 0 -318.5 61.5t-251.5 170t-163 262t-59 332.5q0 184 62 342t169 266.5t253.5 169.5t311.5 61q112 0 219.5 -28.5t202 -84t168.5 -146t111 -204.5l-117 -49q-73 185 -230.5 287t-351.5 102q-133 0 -251.5 -49t-209 -138.5t-143.5 -226.5t-53 -302
q0 -138 38 -255t102.5 -198.5t150.5 -138.5t182.5 -84t198.5 -27q255 0 425 164.5t214 433.5l-15 16q-310 -40 -587 -40v114h698v-776h-109q0 17 -2 88.5t-2 104t3.5 91.5t11.5 111l-25 2q-80 -211 -240.5 -321.5t-392.5 -110.5z" />
    <glyph glyph-name="H" unicode="H" horiz-adv-x="1654" 
d="M350 0h-129v1597h129q0 -491 -20 -727l20 -22q508 37 957 0l18 22q-20 248 -20 727h131v-1597h-131q0 482 20 752l-18 22q-449 -54 -957 0l-20 -22q20 -258 20 -752z" />
    <glyph glyph-name="I" unicode="I" horiz-adv-x="571" 
d="M350 0h-129v1597h129v-1597z" />
    <glyph glyph-name="J" unicode="J" horiz-adv-x="1193" 
d="M547 -35q-74 0 -142 16t-132.5 54t-111.5 95t-75.5 146t-28.5 201v43l121 17v-35q0 -93 22.5 -166.5t58 -120t84.5 -77t99 -42.5t103 -12q51 0 93.5 12t72.5 30.5t54.5 49t40 59t26.5 69t16 70.5t8 72.5t3.5 65.5t0.5 59v1026h131v-987q0 -61 -1 -98.5t-9.5 -113
t-24 -126t-48.5 -114t-78.5 -101.5t-118 -65t-164.5 -27z" />
    <glyph glyph-name="K" unicode="K" horiz-adv-x="1357" 
d="M350 0h-129v1597h129v-140.5v-155.5t-1.5 -137t-5 -158.5t-9.5 -140.5t-15 -158h23q68 77 144.5 161.5t130 142.5t146 157.5t127.5 136.5t144.5 153t130.5 139h158q-11 -11 -70.5 -74.5t-75 -80t-69 -73t-76 -80t-70.5 -73.5t-78 -80l-72.5 -72.5t-81 -79t-77.5 -73.5
v-24q342 -405 709 -887h-160q-379 477 -616 817h-21q-100 -148 -225 -248q10 -197 10 -569z" />
    <glyph glyph-name="L" unicode="L" horiz-adv-x="1212" 
d="M1182 0h-961v1597h129q0 -990 -22 -1480l20 -21q295 29 834 29v-125z" />
    <glyph glyph-name="M" unicode="M" horiz-adv-x="2060" 
d="M352 0h-131v1597h133q372 -721 664 -1443h24q321 755 664 1443h135v-1597h-133q0 42 -0.5 254.5t0 294t4 250.5t12 306t21.5 279h-25q-168 -382 -628 -1384h-123q-483 1052 -629 1384h-25q13 -140 21.5 -276.5t12 -305.5t4 -250.5t0 -295t-0.5 -256.5z" />
    <glyph glyph-name="N" unicode="N" horiz-adv-x="1691" 
d="M350 0h-129v1597h119q545 -726 1006 -1419h22q-6 102 -11 201.5t-8 218.5t-4.5 190.5t-2.5 215.5t-1 187.5v213v192.5h132v-1597h-121q-586 776 -1004 1397h-22q9 -138 14.5 -275.5t7.5 -304t2.5 -255.5t0 -298t-0.5 -264z" />
    <glyph glyph-name="O" unicode="O" horiz-adv-x="1820" 
d="M909 -35q-162 0 -309 63t-255 172t-172 265t-64 332t63.5 331.5t171.5 265t255.5 173t311.5 63.5q166 0 315 -65t255.5 -176t168.5 -265.5t62 -326.5q0 -173 -63 -328t-170.5 -265t-256 -174.5t-313.5 -64.5zM913 88q131 0 251 53.5t209.5 146t142.5 225.5t53 284
t-53 284t-142.5 226t-209.5 146.5t-251 53.5q-132 0 -253.5 -53.5t-212 -146t-144 -225.5t-53.5 -285q0 -151 53.5 -284t144 -225.5t212 -146t253.5 -53.5z" />
    <glyph glyph-name="P" unicode="P" horiz-adv-x="1366" 
d="M350 0h-129v1597h555q232 0 376 -127.5t144 -341.5q0 -113 -39.5 -206.5t-106.5 -153.5t-155 -92.5t-186 -32.5q-120 0 -179.5 1.5t-143 9.5t-158.5 26q22 -239 22 -680zM330 760l18 -23q154 25 420 25q184 0 287.5 93.5t103.5 262.5t-111.5 265t-297.5 96
q-263 0 -402 22l-20 -18q33 -351 2 -723z" />
    <glyph glyph-name="Q" unicode="Q" horiz-adv-x="1824" 
d="M1657 -111l-92 -77q-155 179 -226 299q-186 -146 -428 -146q-162 0 -309.5 63t-256 172t-172.5 264.5t-64 332.5q0 176 63.5 331.5t171.5 265t256.5 173t312.5 63.5q167 0 316 -65t256 -176t169 -265.5t62 -326.5q0 -197 -80 -362t-231 -279q35 -30 73 -68.5t59.5 -62
t64.5 -73t55 -63.5zM913 84q186 0 367 98q-20 18 -40 38t-36.5 36t-38.5 40t-34 37t-36.5 40.5t-33 37t-35 40.5t-32 37.5t-34.5 41t-32 37.5l92 78q208 -245 323 -422q232 246 232 574q0 151 -53.5 284t-143 226t-211 146.5t-254.5 53.5q-132 0 -253.5 -53t-212.5 -145.5
t-145 -226t-54 -285.5t54 -285.5t144.5 -226.5t212.5 -147t254 -54z" />
    <glyph glyph-name="R" unicode="R" horiz-adv-x="1419" 
d="M350 0h-129v1597h555q229 0 374.5 -128t145.5 -343q0 -199 -118.5 -318t-317.5 -134v-23q74 -96 146 -199t172 -253.5t133 -198.5h-146l-434 645q-253 4 -403 35q22 -235 22 -680zM330 756l18 -23q152 25 420 25q183 0 287 95t104 265q0 167 -112 264t-297 97
q-245 0 -402 22l-20 -18q32 -364 2 -727z" />
    <glyph glyph-name="S" unicode="S" horiz-adv-x="1318" 
d="M680 -35q-72 0 -141 14.5t-140.5 49t-130.5 86.5t-108 133.5t-76 183.5l121 45q50 -187 179 -289t298 -102q72 0 140 19t126 56t93.5 101.5t35.5 147.5q0 58 -19 104t-48 75t-74 52.5t-85 37.5t-92 30q-19 5 -28 8l-149 47q-44 14 -75.5 25t-81 33.5t-85 45t-75.5 58
t-65 74.5t-42 93t-17 115q0 103 44.5 185.5t118.5 133t164 77t187 26.5q188 0 330 -99.5t195 -283.5l-117 -49q-45 143 -156 227t-266 84t-260 -80t-105 -210q0 -45 15 -85.5t35 -69t55.5 -56t60.5 -43t68 -33.5t59 -23.5t52 -17.5l155 -51q152 -48 206 -72
q184 -85 226 -237q13 -48 13 -103q0 -104 -44.5 -192t-119 -146.5t-172.5 -91.5t-205 -33z" />
    <glyph glyph-name="T" unicode="T" horiz-adv-x="1298" 
d="M715 0h-131q0 1009 22 1501q-198 -22 -573 -22v118h1235v-118q-378 0 -576 22q23 -514 23 -1501z" />
    <glyph glyph-name="U" unicode="U" horiz-adv-x="1542" 
d="M766 -35q-270 0 -417.5 155t-147.5 455v1022h131v-1015q0 -256 115 -377t323 -121q209 0 324.5 121t115.5 377v1015h131v-1022q0 -135 -34.5 -245t-103 -192.5t-180 -127.5t-257.5 -45z" />
    <glyph glyph-name="V" unicode="V" horiz-adv-x="1507" 
d="M823 0h-139l-651 1597h137q339 -811 573 -1478h29q38 108 77 216t86 232t77.5 204.5t87.5 225.5t77 195.5t85 214.5t75 190h138z" />
    <glyph glyph-name="W" unicode="W" horiz-adv-x="2322" 
d="M717 0h-158l-520 1597h139q286 -846 453 -1456h22q148 546 434 1456h148q291 -913 440 -1460h23q189 697 446 1460h140l-521 -1597h-155q-249 741 -434 1444h-25q-184 -702 -432 -1444z" />
    <glyph glyph-name="X" unicode="X" horiz-adv-x="1323" 
d="M178 0h-149q43 63 135.5 199t146 215t132.5 191t147 204v22q-232 311 -547 766h150q278 -395 458 -692h23q160 275 456 692h150q-289 -418 -549 -766v-22q69 -92 148.5 -204t133.5 -191.5t145.5 -214.5t135.5 -199h-149q-266 391 -471 735h-23q-147 -250 -473 -735z" />
    <glyph glyph-name="Y" unicode="Y" horiz-adv-x="1411" 
d="M770 0h-131q0 393 12 590q-239 381 -610 1007h143q337 -572 510 -913h23q26 53 52.5 104t59 110.5t53 97.5t60.5 108t53.5 94.5t61 105.5t54.5 93.5t61.5 104t56.5 95.5h139q-403 -681 -610 -1007q12 -197 12 -590z" />
    <glyph glyph-name="Z" unicode="Z" horiz-adv-x="1341" 
d="M1280 0h-1221v111q375 507 1059 1380l-10 22q-446 -34 -1008 -34v118h1162v-106q-122 -163 -268.5 -354.5t-246.5 -320t-282 -361.5t-264 -338l10 -23q428 31 1069 31v-125z" />
    <glyph glyph-name="bracketleft" unicode="[" horiz-adv-x="655" 
d="M604 -326h-403v1923h403v-110q-193 0 -303 22q34 -871 0 -1742q110 22 303 22v-115z" />
    <glyph glyph-name="backslash" unicode="\" horiz-adv-x="837" 
d="M758 -135h-119l-557 1773h119z" />
    <glyph glyph-name="bracketright" unicode="]" horiz-adv-x="655" 
d="M455 -326h-404v115q191 0 303 -22q-34 871 0 1742q-112 -22 -303 -22v110h404v-1923z" />
    <glyph glyph-name="asciicircum" unicode="^" horiz-adv-x="868" 
d="M238 1055h-117l252 542h125l247 -542h-116q-135 315 -176 438h-37q-54 -161 -178 -438z" />
    <glyph glyph-name="underscore" unicode="_" horiz-adv-x="1026" 
d="M991 -221h-954v104h954v-104z" />
    <glyph glyph-name="a" unicode="a" horiz-adv-x="1171" 
d="M455 -35q-154 0 -255.5 75t-101.5 216q0 63 22.5 114.5t59.5 87.5t92 64.5t112 46.5t128 33q27 5 73 14t69.5 13.5t59.5 13.5t54.5 17t42 22t34.5 30t19 38.5t8 50.5q0 101 -83.5 177.5t-213.5 76.5q-116 0 -199 -65.5t-116 -176.5l-121 41q47 152 171 229.5t274 77.5
q77 0 148.5 -21.5t133 -64t98.5 -117.5t37 -172v-434q0 -131 8.5 -204t28.5 -148h-125q-13 46 -19 81t-4.5 83.5t13.5 103.5h-24q-56 -142 -163 -222.5t-261 -80.5zM469 68q89 0 167.5 38.5t128.5 97t78.5 125t28.5 126.5v178q-46 -51 -96.5 -72t-175.5 -45
q-40 -8 -63.5 -13t-67.5 -17.5t-71.5 -24.5t-62.5 -32.5t-55 -43t-34.5 -55t-14.5 -70.5q0 -89 66 -140.5t172 -51.5z" />
    <glyph glyph-name="b" unicode="b" horiz-adv-x="1370" 
d="M748 -35q-143 0 -258.5 75.5t-180.5 219.5h-22q7 -29 11 -56.5t5.5 -58.5t2 -46.5t0 -53t-0.5 -45.5h-119v1638h123q0 -31 0.5 -176.5t0 -208.5t-4.5 -181t-12 -220h22q69 159 183.5 234t253.5 75q225 0 373.5 -168t148.5 -428q0 -174 -70 -312t-189.5 -213t-266.5 -75z
M731 78q178 0 295 138t117 347q0 211 -117 348.5t-295 137.5q-176 0 -299 -137t-123 -349t123 -348.5t299 -136.5z" />
    <glyph glyph-name="c" unicode="c" horiz-adv-x="1243" 
d="M657 -35q-248 0 -403.5 166t-155.5 432t155.5 432t403.5 166q161 0 290.5 -77t193.5 -240l-121 -45q-43 118 -140 184t-229 66q-190 0 -306 -137.5t-116 -348.5q0 -217 120.5 -351t312.5 -134q151 0 257 82.5t160 218.5l111 -37q-65 -182 -207 -279.5t-326 -97.5z" />
    <glyph glyph-name="d" unicode="d" horiz-adv-x="1374" 
d="M623 -35q-227 0 -376 168.5t-149 429.5q0 263 151.5 430.5t377.5 167.5q141 0 253 -76t177 -235h24q-24 304 -20 788h123v-1286q0 -131 8.5 -204t28.5 -148h-123q-19 69 -23 125t8 154h-22q-63 -158 -179 -236t-259 -78zM639 78q115 0 211.5 60.5t154.5 173t58 253.5
q0 212 -123.5 348t-300.5 136q-178 0 -294 -138t-116 -348t117 -347.5t293 -137.5z" />
    <glyph glyph-name="e" unicode="e" horiz-adv-x="1269" 
d="M651 -35q-241 0 -397 166t-156 430t154.5 432t396.5 168q47 0 93.5 -7t98.5 -24.5t97.5 -45t87.5 -72t71.5 -101t47.5 -136.5t18 -175v-51h-936q3 -211 122.5 -342t305.5 -131q148 0 253.5 83t158.5 216l113 -39q-65 -177 -206 -274t-323 -97zM233 651h797q-1 86 -24 156
t-61 115t-88.5 75.5t-103 43t-108.5 12.5q-165 0 -276 -110.5t-136 -291.5z" />
    <glyph glyph-name="f" unicode="f" horiz-adv-x="702" 
d="M350 0h-123q0 682 23 1044q-77 -22 -193 -22v106q115 0 193 -20q-23 72 -23 178q0 69 5 119t22.5 104t48 87.5t85 55t130.5 21.5q125 0 213 -55v-117q-97 64 -196 64q-30 0 -54.5 -4.5t-43 -11t-32.5 -20.5t-23 -25.5t-15.5 -33t-9.5 -37t-4.5 -44t-2 -46t-0.5 -51.5
q0 -113 -24 -184q133 20 360 20v-106q-229 0 -360 22q24 -348 24 -1044z" />
    <glyph glyph-name="g" unicode="g" horiz-adv-x="1370" 
d="M666 -483q-389 0 -508 331l112 37q92 -260 396 -260q63 0 117.5 13.5t106.5 48.5t88.5 89.5t58.5 141.5t22 199q0 111 20 168h-24q-66 -137 -180.5 -211t-251.5 -74q-150 0 -271 77t-188.5 210.5t-67.5 296.5q0 125 41 233t111.5 183t167.5 118t207 43q136 0 253 -84
t179 -227h22q-14 98 -14 278h119v-985q0 -169 -38 -292.5t-108.5 -195t-162 -105t-207.5 -33.5zM637 113q175 0 299.5 136.5t124.5 338.5q0 199 -124 330t-300 131q-177 0 -293.5 -133t-116.5 -330q0 -200 118 -336.5t292 -136.5z" />
    <glyph glyph-name="h" unicode="h" horiz-adv-x="1294" 
d="M309 0h-123v1638h123q0 -411 -30 -755h22q133 278 410 278q63 0 120 -13.5t112 -47t94.5 -84t64 -130t24.5 -179.5v-707h-122v653q0 106 -26.5 185.5t-72.5 124t-101 65.5t-120 21q-71 0 -132.5 -24t-105 -65t-75 -94t-47 -112t-15.5 -119v-635z" />
    <glyph glyph-name="i" unicode="i" horiz-adv-x="495" 
d="M248 1423q-46 0 -77.5 32.5t-31.5 78.5q0 44 31.5 75t77.5 31q45 0 75.5 -31.5t30.5 -74.5q0 -46 -30.5 -78.5t-75.5 -32.5zM309 0h-123v1128h123v-1128z" />
    <glyph glyph-name="j" unicode="j" horiz-adv-x="495" 
d="M248 1423q-46 0 -77.5 32.5t-31.5 78.5q0 43 32 74.5t77 31.5t75.5 -30.5t30.5 -75.5q0 -46 -30.5 -78.5t-75.5 -32.5zM-2 -483q-127 0 -215 57v117q97 -64 192 -64q44 0 78 14.5t56 35t37.5 56t23 63.5t11.5 72.5t4.5 68.5t0.5 65v1126h123v-1142q0 -39 -0.5 -60.5
t-3 -65t-8 -70.5t-16 -67t-25.5 -65.5t-39 -55t-54 -46t-72.5 -28t-92.5 -11.5z" />
    <glyph glyph-name="k" unicode="k" horiz-adv-x="1058" 
d="M309 0h-123v1638h123q0 -37 0.5 -203.5t0 -232.5t-2 -196.5t-5.5 -235.5t-11 -211h22q214 239 533 569h151l-442 -440q172 -217 518 -688h-141q-252 334 -445 614q-90 -116 -196 -188q18 -147 18 -426z" />
    <glyph glyph-name="l" unicode="l" horiz-adv-x="495" 
d="M309 0h-123v1638h123v-1638z" />
    <glyph glyph-name="m" unicode="m" horiz-adv-x="2070" 
d="M309 0h-123v1128h119q0 -151 -26 -245h22q130 278 406 278q61 0 115 -15t106 -48.5t90 -96.5t53 -151h23q123 311 403 311q61 0 116.5 -13.5t109 -47t92.5 -84t62.5 -130t23.5 -179.5v-707h-123v653q0 107 -26 186.5t-71 123.5t-97.5 65t-113.5 21q-110 0 -195.5 -63
t-127 -156t-41.5 -195v-635h-123v653q0 107 -26 186.5t-70.5 123.5t-97.5 65t-115 21q-109 0 -194.5 -62.5t-128 -156t-42.5 -195.5v-635z" />
    <glyph glyph-name="n" unicode="n" horiz-adv-x="1294" 
d="M309 0h-123v1128h119q0 -151 -26 -245h22q133 278 412 278q63 0 120 -13.5t111.5 -47t94 -84t63.5 -130t24 -179.5v-707h-122v653q0 106 -26.5 185.5t-72.5 124t-101 65.5t-120 21q-88 0 -161 -36.5t-118.5 -96t-70.5 -132.5t-25 -149v-635z" />
    <glyph glyph-name="o" unicode="o" horiz-adv-x="1320" 
d="M662 -35q-250 0 -407 167t-157 431t157 431t407 167q248 0 404.5 -167t156.5 -431t-156.5 -431t-404.5 -167zM662 78q192 0 311 134.5t119 350.5q0 215 -119.5 350.5t-310.5 135.5q-192 0 -312.5 -136t-120.5 -350q0 -215 120.5 -350t312.5 -135z" />
    <glyph glyph-name="p" unicode="p" horiz-adv-x="1370" 
d="M309 -451h-123v1579h119q0 -161 -18 -270h22q69 154 185.5 228.5t257.5 74.5q225 0 373.5 -168t148.5 -428q0 -174 -70 -312t-189.5 -213t-266.5 -75q-142 0 -256.5 74.5t-178.5 218.5h-22q7 -73 11 -143.5t5.5 -156.5t2 -129t0 -149.5t-0.5 -130.5zM731 78
q178 0 295 138t117 347q0 211 -118 348.5t-294 137.5t-299 -137t-123 -349t123 -348.5t299 -136.5z" />
    <glyph glyph-name="q" unicode="q" horiz-adv-x="1370" 
d="M1184 -451h-123q0 23 -0.5 129.5t0 149t2 127.5t5.5 155t11 142h-22q-69 -142 -183 -214.5t-253 -72.5q-225 0 -374 169t-149 429q0 131 41 243.5t111.5 189.5t167.5 121t207 44q141 0 257.5 -75t182.5 -226h22q-22 104 -22 268h119v-1579zM639 78q115 0 211.5 60.5
t154.5 173t58 253.5q0 212 -123.5 348t-300.5 136q-178 0 -294 -138t-116 -348t117 -347.5t293 -137.5z" />
    <glyph glyph-name="r" unicode="r" horiz-adv-x="835" 
d="M309 0h-123v1128h119q0 -16 1 -58.5t1 -67.5t-4 -69.5t-12 -88.5h22q42 153 141.5 235t229.5 82q73 0 129 -22v-133q-58 28 -139 28q-114 0 -199 -70.5t-125.5 -176.5t-40.5 -226v-561z" />
    <glyph glyph-name="s" unicode="s" horiz-adv-x="1009" 
d="M532 -35q-164 0 -290 87t-172 229l114 38q42 -109 141.5 -178t209.5 -69q40 0 82.5 11t85.5 34t70.5 67t27.5 103q0 38 -14.5 69t-35 51t-57 37.5t-65 27t-74.5 22.5l-106 30q-29 8 -51 15t-58.5 22t-63 31.5t-57.5 42.5t-50.5 55.5t-32.5 71t-13 88.5q0 77 33 138.5
t87 98t117.5 55.5t128.5 19q141 0 251 -77.5t149 -196.5l-121 -41q-32 89 -108 149t-183 60q-100 0 -164.5 -52.5t-64.5 -140.5q0 -43 18 -79t43.5 -59t65.5 -43t69.5 -30t71.5 -22l109 -33q34 -10 56.5 -17t57.5 -21t58.5 -28.5t50.5 -37.5t43.5 -48.5t27.5 -61.5t11 -77
q0 -143 -112.5 -241.5t-285.5 -98.5z" />
    <glyph glyph-name="t" unicode="t" horiz-adv-x="770" 
d="M514 -35q-43 0 -78.5 9t-61 22.5t-46 36.5t-33.5 43t-22 51.5t-13.5 53.5t-6.5 56t-2.5 51.5t-0.5 47.5q0 467 22 706q-94 -22 -247 -22v108q149 0 247 -20q-22 127 -22 358h123q0 -225 -23 -358q139 20 373 20v-108q-240 0 -373 22q23 -240 23 -673q0 -38 0.5 -58
t3.5 -56t8.5 -56.5t17.5 -47t29 -40.5t43 -24.5t60 -10.5q92 0 188 65v-118q-85 -58 -209 -58z" />
    <glyph glyph-name="u" unicode="u" horiz-adv-x="1275" 
d="M575 -35q-78 0 -147 23.5t-128.5 74t-94.5 142t-35 215.5v708h123v-657q0 -108 27 -187.5t73 -122.5t99 -63t114 -20q68 0 126.5 24.5t100.5 65.5t72.5 94t45 110.5t14.5 114.5v641h122v-776q0 -131 8.5 -204t28.5 -148h-125q-12 50 -17 82.5t-4.5 80t11.5 99.5h-22
q-116 -297 -392 -297z" />
    <glyph glyph-name="v" unicode="v" horiz-adv-x="1103" 
d="M616 0h-129l-452 1128h133q252 -637 373 -1005h26q121 370 369 1005h133z" />
    <glyph glyph-name="w" unicode="w" horiz-adv-x="1855" 
d="M580 0h-127l-414 1128h135q87 -243 121.5 -338.5t100 -295.5t112.5 -369h24q97 340 309 938q15 43 23 65h125q198 -541 279 -797q34 -105 63 -206h25q103 377 325 1003h136l-414 -1128h-129q-222 604 -342 983h-10q-105 -338 -342 -983z" />
    <glyph glyph-name="x" unicode="x" horiz-adv-x="1038" 
d="M172 0h-137q231 326 411 557v25q-134 168 -413 546h141q5 -7 37.5 -51.5t40 -55t36 -50t39.5 -55.5t35.5 -51t39 -56.5t35 -52.5t37.5 -59l34 -56h22l34 56t37.5 59t35 52.5t39 56.5t35.5 51t39.5 55.5t36 50t40 55t37.5 51.5h142q-267 -363 -414 -546v-25
q150 -189 414 -557h-138q-8 11 -37.5 53t-40 56.5t-37 52t-39.5 56.5t-36.5 53.5t-39 58t-35.5 54t-38 59t-35 57.5h-22q-37 -62 -84.5 -135t-76.5 -115t-93.5 -134t-81.5 -116z" />
    <glyph glyph-name="y" unicode="y" horiz-adv-x="1105" 
d="M434 -451h-112l172 439l-459 1140h133q223 -552 377 -1026h22q143 454 371 1026h133z" />
    <glyph glyph-name="z" unicode="z" horiz-adv-x="989" 
d="M938 0h-879v92q29 40 157 219.5t183.5 256t156.5 212.5t187 246l-8 23q-326 -33 -637 -33v112h795v-92q-401 -555 -688 -923l8 -23q256 23 725 23v-113z" />
    <glyph glyph-name="braceleft" unicode="{" horiz-adv-x="745" 
d="M702 -307h-75q-102 0 -177 23.5t-120 61.5t-72 97t-36 120t-9 140v170q0 58 -3 101t-7 72.5t-14.5 49t-18 29.5t-25.5 14.5t-29 5.5t-36 1v135q25 0 36 0.5t29 5.5t25.5 15t18 29t14.5 49t7 73t3 102v168q0 79 9 140t36 120t72 97t120 61.5t177 23.5h75v-110h-69
q-164 0 -230.5 -74.5t-66.5 -216.5v-205q0 -77 -6.5 -130t-16.5 -86.5t-31.5 -55t-43 -32.5t-58.5 -21v-41q37 -10 58.5 -21t43 -32t31.5 -55t16.5 -87t6.5 -131v-205q0 -142 66.5 -216.5t230.5 -74.5h69v-110z" />
    <glyph glyph-name="bar" unicode="|" horiz-adv-x="522" 
d="M322 -451h-121v2089h121v-2089z" />
    <glyph glyph-name="braceright" unicode="}" horiz-adv-x="745" 
d="M119 -307h-74v110h70q163 0 229 74.5t66 216.5v205q0 78 6 131t16.5 87t31.5 55t42.5 32t58.5 21v41q-46 13 -71 28t-46.5 49t-29.5 93t-8 155v205q0 142 -66 216.5t-229 74.5h-70v110h74q103 0 178 -23.5t119.5 -61.5t71 -97t35.5 -119.5t9 -140.5v-168q0 -58 3 -101.5
t7 -73t14.5 -48.5t18 -29.5t25 -15t29 -5.5t35.5 -1h2v-135q-25 0 -36 -0.5t-29 -5.5t-26 -15t-18.5 -29.5t-14.5 -49t-7 -72.5t-3 -101v-170q0 -80 -9 -140.5t-35.5 -119.5t-71 -97t-119.5 -61.5t-178 -23.5z" />
    <glyph glyph-name="asciitilde" unicode="~" horiz-adv-x="1062" 
d="M694 580q-53 0 -99 22t-73.5 48.5t-64.5 48.5t-74 22q-54 0 -81.5 -40t-27.5 -101h-112q0 121 67.5 185t161.5 64q51 0 95.5 -22t71.5 -48.5t63 -48.5t73 -22q51 0 75 39.5t24 101.5h112q0 -124 -59.5 -186.5t-151.5 -62.5z" />
    <glyph glyph-name="uni00A0" unicode="&#xa0;" horiz-adv-x="542" 
 />
    <glyph glyph-name="exclamdown" unicode="&#xa1;" horiz-adv-x="489" 
d="M246 946q-44 0 -75.5 31.5t-31.5 75.5t31.5 76t75.5 32t75 -32t31 -76t-31.5 -75.5t-74.5 -31.5zM319 -449h-149v95l39 1120h74l36 -1120v-95z" />
    <glyph glyph-name="cent" unicode="&#xa2;" horiz-adv-x="1142" 
d="M944 575l92 -32q-51 -140 -158.5 -219t-246.5 -88v-236h-88v240q-179 19 -291.5 153t-112.5 336t112.5 336.5t291.5 153.5v247h88v-243q121 -8 217.5 -71t146.5 -187l-98 -39q-31 86 -101.5 138.5t-164.5 61.5v-794q112 7 191.5 73t121.5 170zM250 729q0 -158 81 -264.5
t212 -128.5v788q-134 -20 -213.5 -128.5t-79.5 -266.5z" />
    <glyph glyph-name="sterling" unicode="&#xa3;" horiz-adv-x="1210" 
d="M1126 0h-1026v123q186 74 290 187t104 245q0 71 -41 203q-114 -21 -322 -21v103q164 0 283 -21q-6 7 -34.5 43.5t-35 45t-30.5 41t-31.5 44.5t-26 41.5t-24.5 46t-18 44t-16 48.5t-8 47t-4 52q0 167 119.5 262.5t300.5 95.5q56 0 110 -9.5t114 -36t109 -68t90.5 -111.5
t62.5 -160l-117 -49q-25 88 -67 152.5t-92.5 99t-102 50t-107.5 15.5q-121 0 -201.5 -64.5t-80.5 -182.5q0 -72 32 -143.5t85 -158.5t77 -145q174 21 457 21v-103q-247 0 -426 21q76 -85 76 -185q0 -131 -83 -250.5t-243 -205.5l20 -23q276 29 807 29v-123z" />
    <glyph glyph-name="currency" unicode="&#xa4;" horiz-adv-x="1351" 
d="M1057 821q0 -157 -86 -260l272 -325l-84 -74l-274 323q-90 -55 -207 -55q-120 0 -211 57l-274 -325l-84 74l274 325q-86 106 -86 260q0 152 84 260l-272 326l84 74l274 -322q93 55 211 55q119 0 209 -55l272 322l84 -74l-272 -324q86 -106 86 -262zM412 821
q0 -129 73 -210t193 -81t191 81t71 210q0 131 -71 212t-191 81t-193 -81.5t-73 -211.5z" />
    <glyph glyph-name="yen" unicode="&#xa5;" horiz-adv-x="1447" 
d="M788 0h-131q0 184 23 301q-141 -22 -393 -22v108q252 0 393 -22q-17 69 -17 124t17 119q-141 -22 -393 -22v108q215 0 338 -22q-245 395 -562 925h144q392 -671 512 -886h10q165 292 516 886h139q-347 -580 -563 -925q123 22 342 22v-108q-256 0 -397 22q17 -64 17 -119
t-17 -124q141 22 397 22v-108q-256 0 -397 22q22 -112 22 -301z" />
    <glyph glyph-name="brokenbar" unicode="&#xa6;" horiz-adv-x="522" 
d="M322 838h-121v800h121v-800zM322 -451h-121v793h121v-793z" />
    <glyph glyph-name="section" unicode="&#xa7;" horiz-adv-x="1089" 
d="M559 -301q-168 0 -298 96t-173 246l113 35q42 -115 143.5 -194t214.5 -79q40 0 81.5 11t81.5 34t65.5 66t25.5 100q0 28 -7 52t-16.5 41.5t-29.5 33.5t-35.5 26t-45 22t-47.5 18l-54 18l-107 35q-31 11 -49.5 18t-55.5 24t-61 33t-54.5 42.5t-48.5 55t-31 68.5t-13 85
q0 103 62 170t169 86v28q-95 30 -154 97t-59 168q0 79 33 140.5t88.5 97.5t120.5 54.5t135 18.5q66 0 123.5 -15.5t111 -49t94.5 -94t64 -144.5l-121 -37q-36 122 -101 178.5t-179 56.5q-110 0 -178 -52t-68 -142q0 -35 11 -65t33 -53t44 -40t57 -33t57 -24.5t58 -20.5
l127 -41q113 -39 160 -70q117 -75 117 -212q0 -101 -63 -178.5t-177 -104.5v-29q223 -51 223 -243q0 -140 -110 -237t-277 -97zM535 365l53 -19q42 3 82.5 16t79.5 37t62.5 67t23.5 99q0 32 -8 58t-26.5 46.5t-35.5 34t-50 27.5t-53 21t-61 20l-82 25q-64 21 -120.5 -4.5
t-87.5 -78.5t-31 -114q0 -51 23.5 -91.5t66 -68t79 -44t85.5 -31.5z" />
    <glyph glyph-name="copyright" unicode="&#xa9;" horiz-adv-x="1939" 
d="M971 -35q-184 0 -341.5 65.5t-264.5 178.5t-167.5 265.5t-60.5 324.5q0 171 60.5 323.5t167.5 264.5t264.5 177.5t341.5 65.5q183 0 340 -65.5t264 -177.5t167 -264.5t60 -323.5q0 -172 -60 -324.5t-167 -265.5t-264 -178.5t-340 -65.5zM971 76q161 0 297.5 57t229 155
t144.5 230t52 281q0 148 -52 280t-144.5 230t-229.5 155.5t-297 57.5q-161 0 -298 -57t-229.5 -155.5t-144 -230.5t-51.5 -280q0 -149 51.5 -281t144 -230t229.5 -155t298 -57zM977 350q-187 0 -304.5 124.5t-117.5 322.5q0 201 118 325.5t304 124.5q133 0 231 -66.5
t142 -189.5l-109 -39q-31 93 -101 143t-167 50q-132 0 -215.5 -97t-83.5 -251q0 -156 86.5 -250t222.5 -94q105 0 184 59.5t117 169.5l100 -31q-46 -142 -153.5 -221.5t-253.5 -79.5z" />
    <glyph glyph-name="guillemotleft" unicode="&#xab;" horiz-adv-x="1128" 
d="M594 164h-143l-340 405v9l340 405h143q-71 -85 -117 -137.5t-115.5 -122.5t-134.5 -123v-53q65 -53 134.5 -123t115.5 -122.5t117 -137.5zM987 164h-143l-340 405v9l340 405h143q-71 -85 -117 -137.5t-116 -122.5t-136 -123v-53q66 -53 136 -123t116 -122.5t117 -137.5z
" />
    <glyph glyph-name="logicalnot" unicode="&#xac;" horiz-adv-x="1036" 
d="M874 264h-116v309h-602v113h718v-422z" />
    <glyph glyph-name="registered" unicode="&#xae;" horiz-adv-x="1167" 
d="M584 739q-193 0 -321 128.5t-128 320.5q0 193 127.5 319.5t321.5 126.5q193 0 319.5 -127t126.5 -319q0 -193 -126.5 -321t-319.5 -128zM584 817q161 0 265.5 105t104.5 266q0 160 -104.5 266.5t-265.5 106.5q-162 0 -267.5 -105.5t-105.5 -267.5q0 -163 105 -267
t268 -104zM504 944h-76v494h178q74 0 122 -41t48 -111q0 -56 -29 -95.5t-79 -53.5l129 -193h-86l-125 184h-82v-184zM504 1366v-168h102q43 0 67.5 22t24.5 64q0 39 -26.5 60.5t-71.5 21.5h-96z" />
    <glyph glyph-name="degree" unicode="&#xb0;" horiz-adv-x="784" 
d="M391 1055q-127 0 -209 85.5t-82 213.5q0 126 82.5 210.5t208.5 84.5q125 0 209 -85t84 -210q0 -127 -84 -213t-209 -86zM391 1143q85 0 140 60t55 151q0 87 -55.5 147t-139.5 60q-83 0 -138.5 -60t-55.5 -147q0 -90 55 -150.5t139 -60.5z" />
    <glyph glyph-name="plusminus" unicode="&#xb1;" horiz-adv-x="1040" 
d="M883 774v-108h-305v-213h305v-103h-725v103h303v213h-303v108h303v250h117v-250h305z" />
    <glyph glyph-name="uni00B2" unicode="&#xb2;" horiz-adv-x="634" 
d="M553 811h-469v10q4 51 15 89.5t25.5 66.5t46 57.5t59.5 50.5t83 58q30 21 43 31.5t39 35.5t37.5 52t11.5 57q0 48 -35.5 80.5t-91.5 32.5q-68 0 -110.5 -46t-42.5 -122l-92 16q0 107 69 175.5t176 68.5q101 0 166.5 -58t65.5 -149q0 -69 -36 -118.5t-99 -92.5
q-19 -14 -52.5 -36.5t-51 -36t-40 -34t-35.5 -43.5t-20 -51h338v-94z" />
    <glyph glyph-name="uni00B3" unicode="&#xb3;" horiz-adv-x="643" 
d="M315 797q-92 0 -161.5 43.5t-92.5 115.5l89 43q21 -54 63.5 -85t101.5 -31q61 0 101.5 35t40.5 92q0 56 -41.5 88t-114.5 32h-68v76h74q61 0 98 32t37 83q0 52 -37.5 83.5t-95.5 31.5q-56 0 -94 -32.5t-47 -90.5l-90 20q10 84 77.5 137.5t161.5 53.5q95 0 160.5 -51
t65.5 -134q0 -56 -31.5 -102t-83.5 -59q60 -12 97.5 -57t37.5 -111q0 -87 -67 -150t-181 -63z" />
    <glyph glyph-name="paragraph" unicode="&#xb6;" horiz-adv-x="1441" 
d="M915 -287h-131v942h-235q-213 0 -344 133.5t-131 346.5q0 98 33.5 181.5t97 146t162 98.5t221.5 36h327v-1884zM1204 -287h-131v1884h131v-1884z" />
    <glyph glyph-name="periodcentered" unicode="&#xb7;" horiz-adv-x="550" 
d="M276 477q-55 0 -93 39.5t-38 95.5q0 54 38 91.5t93 37.5q54 0 92 -37.5t38 -91.5q0 -56 -38 -95.5t-92 -39.5z" />
    <glyph glyph-name="uni00B9" unicode="&#xb9;" horiz-adv-x="440" 
d="M303 811h-100v520q-57 -67 -154 -84v103q70 18 114 61t44 98h96v-698z" />
    <glyph glyph-name="guillemotright" unicode="&#xbb;" horiz-adv-x="1128" 
d="M625 569l-340 -405h-144q71 85 117 137.5t115.5 122.5t134.5 123v53q-65 53 -134.5 123t-115.5 122.5t-117 137.5h144l340 -405v-9zM1018 569l-340 -405h-143q73 87 117.5 138t114 121.5t134.5 123.5v53q-65 53 -134.5 123.5t-114 121.5t-117.5 138h143l340 -405v-9z" />
    <glyph glyph-name="onequarter" unicode="&#xbc;" horiz-adv-x="1316" 
d="M303 811h-100v520q-57 -67 -154 -84v103q70 18 114 61t44 98h96v-698zM80 0h-119l1139 1468h110zM1155 -14h-98v159h-346v86l348 453h96v-453h96v-86h-96v-159zM1057 551l-246 -320h246v320z" />
    <glyph glyph-name="onehalf" unicode="&#xbd;" horiz-adv-x="1351" 
d="M303 811h-100v520q-57 -67 -154 -84v103q70 18 114 61t44 98h96v-698zM80 0h-119l1139 1468h110zM1270 -14h-469v10q4 51 15 89.5t25.5 66t46 57.5t59.5 50.5t83 57.5q29 20 43 31.5t39 36t37 52t12 57.5q0 48 -35.5 80t-91.5 32q-68 0 -110.5 -46t-42.5 -122l-93 17
q0 107 69 175t177 68q101 0 166.5 -57.5t65.5 -148.5q0 -69 -36.5 -118.5t-99.5 -92.5q-15 -11 -63 -44t-64.5 -47t-39 -44.5t-31.5 -65.5h338v-94z" />
    <glyph glyph-name="threequarters" unicode="&#xbe;" horiz-adv-x="1519" 
d="M315 797q-92 0 -161.5 43.5t-92.5 115.5l89 43q21 -54 63.5 -85t101.5 -31q61 0 101.5 35t40.5 92q0 56 -41.5 88t-114.5 32h-68v76h74q61 0 98 32t37 83q0 52 -37.5 83.5t-95.5 31.5q-56 0 -94 -32.5t-47 -90.5l-90 20q10 84 77.5 137.5t161.5 53.5q95 0 160.5 -51
t65.5 -134q0 -56 -31.5 -102t-83.5 -59q60 -12 97.5 -57t37.5 -111q0 -87 -67 -150t-181 -63zM283 0h-119l1139 1468h110zM1358 -14h-98v159h-347v86l349 453h96v-453h96v-86h-96v-159zM1260 551l-246 -320h246v320z" />
    <glyph glyph-name="questiondown" unicode="&#xbf;" horiz-adv-x="1056" 
d="M582 946q-43 0 -74 31.5t-31 75.5t31 76t74 32q45 0 76.5 -31.5t31.5 -76.5t-31 -76t-77 -31zM528 -483q-120 0 -222 48t-167 143.5t-65 219.5q0 59 17 116t43 101.5t66.5 91t76.5 79.5t85 73q43 34 63.5 51.5t50 47t42.5 53.5t23 58t10 73q0 31 -2 49h121q4 -40 4 -62
q0 -47 -12 -88t-28.5 -71t-52 -66.5t-62.5 -60t-81 -66.5q-111 -88 -170 -175.5t-59 -192.5q0 -140 95.5 -224t230.5 -84q88 0 163 38t123.5 116t48.5 180q0 31 -6 66l117 -21q6 -34 6 -65q0 -128 -64.5 -227t-168.5 -150t-226 -51z" />
    <glyph glyph-name="Agrave" unicode="&#xc0;" horiz-adv-x="1507" 
d="M838 1720h-113l-340 322h190zM170 0h-137l651 1597h139l652 -1597h-140q-150 363 -207 578l-20 18q-227 -25 -340 -25q-155 0 -360 25l-23 -21q-60 -191 -215 -575zM430 688l14 -20q190 24 324 24q135 0 289 -24l12 18q-190 418 -293 778h-45q-115 -380 -301 -776z" />
    <glyph glyph-name="Aacute" unicode="&#xc1;" horiz-adv-x="1507" 
d="M1126 2042l-340 -322h-112l262 322h190zM170 0h-137l651 1597h139l652 -1597h-140q-150 363 -207 578l-20 18q-227 -25 -340 -25q-155 0 -360 25l-23 -21q-60 -191 -215 -575zM430 688l14 -20q190 24 324 24q135 0 289 -24l12 18q-190 418 -293 778h-45
q-115 -380 -301 -776z" />
    <glyph glyph-name="Acircumflex" unicode="&#xc2;" horiz-adv-x="1507" 
d="M518 1720h-115l267 303h161l269 -303h-115q-53 50 -77 73.5t-64 72t-68 96.5h-47q-9 -15 -19 -30.5t-18.5 -27.5t-21.5 -27.5t-20 -24t-22 -24.5t-21 -22l-23 -23t-21 -20.5t-23 -21.5t-22 -21zM170 0h-137l651 1597h139l652 -1597h-140q-150 363 -207 578l-20 18
q-227 -25 -340 -25q-155 0 -360 25l-23 -21q-60 -191 -215 -575zM430 688l14 -20q190 24 324 24q135 0 289 -24l12 18q-190 418 -293 778h-45q-115 -380 -301 -776z" />
    <glyph glyph-name="Atilde" unicode="&#xc3;" horiz-adv-x="1507" 
d="M907 1749q-15 0 -29 2t-24.5 4.5t-23 8.5t-19.5 9t-19 12t-16.5 13t-17.5 15t-17 14l-36 31q-21 18 -31.5 26t-31 17.5t-40.5 9.5q-47 0 -77.5 -42.5t-30.5 -105.5h-95q1 109 58.5 176.5t148.5 67.5q70 0 148 -68l43 -36q67 -58 112 -58q48 0 75.5 41.5t27.5 106.5h94
q0 -111 -52.5 -177.5t-146.5 -66.5zM170 0h-137l651 1597h139l652 -1597h-140q-150 363 -207 578l-20 18q-227 -25 -340 -25q-155 0 -360 25l-23 -21q-60 -191 -215 -575zM430 688l14 -20q190 24 324 24q135 0 289 -24l12 18q-190 418 -293 778h-45q-115 -380 -301 -776z
" />
    <glyph glyph-name="Adieresis" unicode="&#xc4;" horiz-adv-x="1507" 
d="M559 1790q-44 0 -73 30.5t-29 73.5q0 42 29 71.5t73 29.5q42 0 71 -29.5t29 -71.5q0 -43 -29 -73.5t-71 -30.5zM948 1790q-44 0 -73 30.5t-29 73.5q0 42 29 71.5t73 29.5q42 0 71.5 -29.5t29.5 -71.5q0 -43 -29.5 -73.5t-71.5 -30.5zM170 0h-137l651 1597h139l652 -1597
h-140q-150 363 -207 578l-20 18q-227 -25 -340 -25q-155 0 -360 25l-23 -21q-60 -191 -215 -575zM430 688l14 -20q190 24 324 24q135 0 289 -24l12 18q-190 418 -293 778h-45q-115 -380 -301 -776z" />
    <glyph glyph-name="Aring" unicode="&#xc5;" horiz-adv-x="1507" 
d="M754 1716q-97 0 -161.5 61t-64.5 156q0 93 64.5 154t161.5 61q94 0 157.5 -61t63.5 -154q0 -95 -63 -156t-158 -61zM754 1802q57 0 95 35.5t38 95.5q0 59 -38 94t-95 35q-60 0 -99 -35t-39 -94q0 -60 39 -95.5t99 -35.5zM170 0h-137l651 1597h139l652 -1597h-140
q-150 363 -207 578l-20 18q-227 -25 -340 -25q-155 0 -360 25l-23 -21q-60 -191 -215 -575zM430 688l14 -20q190 24 324 24q135 0 289 -24l12 18q-190 418 -293 778h-45q-115 -380 -301 -776z" />
    <glyph glyph-name="AE" unicode="&#xc6;" horiz-adv-x="2107" 
d="M100 0h-141l946 1597h1073v-118q-190 0 -288 1t-278 8.5t-335 22.5q43 -317 8 -653q311 25 852 25v-121q-555 0 -852 22q33 -340 0 -692q332 33 914 33v-125h-1020q0 381 12 594q-282 -34 -567 0q-100 -217 -324 -594zM487 672q267 30 514 -2q-29 355 -12 831h-41
q-85 -195 -193.5 -386t-267.5 -443z" />
    <glyph glyph-name="Ccedilla" unicode="&#xc7;" horiz-adv-x="1722" 
d="M922 -35q-63 -83 -107 -125l8 -8q52 25 99 25q80 0 131 -45t51 -117q0 -82 -63 -133t-160 -51q-73 0 -140 30t-110 80l53 53q34 -41 85 -65.5t105 -24.5q59 0 99.5 30t40.5 77q0 44 -35.5 72t-91.5 28q-53 0 -96 -24l-54 49l99 153q-212 17 -377 125.5t-256.5 290
t-91.5 408.5q0 184 62.5 342t169.5 265.5t253 168.5t311 61q112 0 218.5 -28.5t201.5 -83.5t169 -145.5t112 -205.5l-117 -49q-73 185 -231 287t-353 102q-132 0 -250 -49t-208.5 -139t-143.5 -227t-53 -301q0 -138 38 -255t103 -198.5t151.5 -138.5t184 -84t201.5 -27
q125 0 232 39.5t183 109t128 156t81 187.5l117 -43q-38 -121 -102.5 -222.5t-156 -180.5t-217 -123.5t-273.5 -45.5z" />
    <glyph glyph-name="Egrave" unicode="&#xc8;" horiz-adv-x="1349" 
d="M772 1720h-113l-340 322h191zM1241 0h-1020v1597h1000v-118q-30 0 -199.5 -1t-236.5 0t-197 6.5t-240 16.5l-20 -18q33 -290 2 -604l18 -23q299 27 832 27v-121q-547 0 -832 24l-18 -22q31 -333 -2 -647l20 -21q319 29 893 29v-125z" />
    <glyph glyph-name="Eacute" unicode="&#xc9;" horiz-adv-x="1349" 
d="M1061 2042l-340 -322h-113l262 322h191zM1241 0h-1020v1597h1000v-118q-30 0 -199.5 -1t-236.5 0t-197 6.5t-240 16.5l-20 -18q33 -290 2 -604l18 -23q299 27 832 27v-121q-547 0 -832 24l-18 -22q31 -333 -2 -647l20 -21q319 29 893 29v-125z" />
    <glyph glyph-name="Ecircumflex" unicode="&#xca;" horiz-adv-x="1349" 
d="M455 1720h-115l266 303h162l268 -303h-114q-53 50 -77 73.5t-64 72t-68 96.5h-47q-9 -15 -19 -30.5t-18.5 -27.5t-21.5 -27.5t-20 -24t-22 -24.5t-21 -22l-23 -23t-21 -20.5t-23 -21.5t-22 -21zM1241 0h-1020v1597h1000v-118q-30 0 -199.5 -1t-236.5 0t-197 6.5
t-240 16.5l-20 -18q33 -290 2 -604l18 -23q299 27 832 27v-121q-547 0 -832 24l-18 -22q31 -333 -2 -647l20 -21q319 29 893 29v-125z" />
    <glyph glyph-name="Edieresis" unicode="&#xcb;" horiz-adv-x="1349" 
d="M494 1790q-44 0 -73.5 30.5t-29.5 73.5q0 42 29.5 71.5t73.5 29.5q42 0 71 -29.5t29 -71.5q0 -43 -29 -73.5t-71 -30.5zM883 1790q-44 0 -73.5 30.5t-29.5 73.5q0 42 29.5 71.5t73.5 29.5q42 0 71 -29.5t29 -71.5q0 -43 -29 -73.5t-71 -30.5zM1241 0h-1020v1597h1000
v-118q-30 0 -199.5 -1t-236.5 0t-197 6.5t-240 16.5l-20 -18q33 -290 2 -604l18 -23q299 27 832 27v-121q-547 0 -832 24l-18 -22q31 -333 -2 -647l20 -21q319 29 893 29v-125z" />
    <glyph glyph-name="Igrave" unicode="&#xcc;" horiz-adv-x="571" 
d="M371 1720h-113l-340 322h191zM350 0h-129v1597h129v-1597z" />
    <glyph glyph-name="Iacute" unicode="&#xcd;" horiz-adv-x="571" 
d="M659 2042l-340 -322h-112l262 322h190zM350 0h-129v1597h129v-1597z" />
    <glyph glyph-name="Icircumflex" unicode="&#xce;" horiz-adv-x="571" 
d="M51 1720h-114l266 303h162l268 -303h-115q-53 50 -77 73.5t-64 72t-68 96.5h-47q-9 -15 -19 -30.5t-18.5 -27.5t-21.5 -27.5t-20 -24t-22 -24.5t-21 -22l-23 -23t-21 -20.5t-23 -21.5t-22 -21zM350 0h-129v1597h129v-1597z" />
    <glyph glyph-name="Idieresis" unicode="&#xcf;" horiz-adv-x="571" 
d="M92 1790q-44 0 -73 30.5t-29 73.5q0 42 29 71.5t73 29.5q42 0 71.5 -29.5t29.5 -71.5q0 -43 -29.5 -73.5t-71.5 -30.5zM481 1790q-44 0 -73 30.5t-29 73.5q0 42 29 71.5t73 29.5q42 0 71.5 -29.5t29.5 -71.5q0 -43 -29.5 -73.5t-71.5 -30.5zM350 0h-129v1597h129v-1597z
" />
    <glyph glyph-name="Eth" unicode="&#xd0;" horiz-adv-x="1650" 
d="M221 1597h557q156 0 283 -40.5t214.5 -112t146.5 -171.5t86.5 -216t27.5 -248q0 -238 -87 -420t-255.5 -285.5t-396.5 -103.5h-576v743h-170v109h170v745zM809 119q273 0 431.5 183.5t158.5 494.5q0 320 -171 501t-478 181q-263 0 -402 22l-20 -18q17 -296 20 -631h555
v-109h-555q-3 -330 -20 -626l20 -21q166 23 461 23z" />
    <glyph glyph-name="Ntilde" unicode="&#xd1;" horiz-adv-x="1691" 
d="M981 1802q-15 0 -29 2t-24.5 4.5t-23 8.5t-19.5 9t-19 12t-16.5 13t-17.5 15t-17 14l-37 31q-22 19 -31.5 26.5t-30 17t-40.5 9.5q-47 0 -78 -42t-31 -105h-94q1 109 58.5 176t148.5 67q42 0 75 -16.5t72 -50.5l43 -37q67 -58 113 -58q48 0 75 41.5t27 106.5h95
q0 -111 -52.5 -177.5t-146.5 -66.5zM350 0h-129v1597h119q545 -726 1006 -1419h22q-6 102 -11 201.5t-8 218.5t-4.5 190.5t-2.5 215.5t-1 187.5v213v192.5h132v-1597h-121q-586 776 -1004 1397h-22q9 -138 14.5 -275.5t7.5 -304t2.5 -255.5t0 -298t-0.5 -264z" />
    <glyph glyph-name="Ograve" unicode="&#xd2;" horiz-adv-x="1820" 
d="M993 1720h-112l-340 322h190zM909 -35q-162 0 -309 63t-255 172t-172 265t-64 332t63.5 331.5t171.5 265t255.5 173t311.5 63.5q166 0 315 -65t255.5 -176t168.5 -265.5t62 -326.5q0 -173 -63 -328t-170.5 -265t-256 -174.5t-313.5 -64.5zM913 88q131 0 251 53.5
t209.5 146t142.5 225.5t53 284t-53 284t-142.5 226t-209.5 146.5t-251 53.5q-132 0 -253.5 -53.5t-212 -146t-144 -225.5t-53.5 -285q0 -151 53.5 -284t144 -225.5t212 -146t253.5 -53.5z" />
    <glyph glyph-name="Oacute" unicode="&#xd3;" horiz-adv-x="1820" 
d="M1282 2042l-340 -322h-113l263 322h190zM909 -35q-162 0 -309 63t-255 172t-172 265t-64 332t63.5 331.5t171.5 265t255.5 173t311.5 63.5q166 0 315 -65t255.5 -176t168.5 -265.5t62 -326.5q0 -173 -63 -328t-170.5 -265t-256 -174.5t-313.5 -64.5zM913 88
q131 0 251 53.5t209.5 146t142.5 225.5t53 284t-53 284t-142.5 226t-209.5 146.5t-251 53.5q-132 0 -253.5 -53.5t-212 -146t-144 -225.5t-53.5 -285q0 -151 53.5 -284t144 -225.5t212 -146t253.5 -53.5z" />
    <glyph glyph-name="Ocircumflex" unicode="&#xd4;" horiz-adv-x="1820" 
d="M676 1720h-115l266 303h162l268 -303h-114q-53 50 -77 73.5t-64 72t-68 96.5h-47q-9 -15 -19 -30.5t-18.5 -27.5t-21.5 -27.5t-20 -24t-22 -24.5t-21 -22l-23 -23t-21 -20.5t-23 -21.5t-22 -21zM909 -35q-162 0 -309 63t-255 172t-172 265t-64 332t63.5 331.5t171.5 265
t255.5 173t311.5 63.5q166 0 315 -65t255.5 -176t168.5 -265.5t62 -326.5q0 -173 -63 -328t-170.5 -265t-256 -174.5t-313.5 -64.5zM913 88q131 0 251 53.5t209.5 146t142.5 225.5t53 284t-53 284t-142.5 226t-209.5 146.5t-251 53.5q-132 0 -253.5 -53.5t-212 -146
t-144 -225.5t-53.5 -285q0 -151 53.5 -284t144 -225.5t212 -146t253.5 -53.5z" />
    <glyph glyph-name="Otilde" unicode="&#xd5;" horiz-adv-x="1820" 
d="M1063 1802q-15 0 -29 2t-24.5 4.5t-23 8.5t-19.5 9t-19 12t-16.5 13t-17.5 15t-17 14l-37 31q-22 19 -31.5 26.5t-30 17t-40.5 9.5q-47 0 -78 -42t-31 -105h-94q1 109 58.5 176t148.5 67q42 0 75 -16.5t72 -50.5l43 -37q67 -58 113 -58q48 0 75 41.5t27 106.5h95
q0 -111 -52.5 -177.5t-146.5 -66.5zM909 -35q-162 0 -309 63t-255 172t-172 265t-64 332t63.5 331.5t171.5 265t255.5 173t311.5 63.5q166 0 315 -65t255.5 -176t168.5 -265.5t62 -326.5q0 -173 -63 -328t-170.5 -265t-256 -174.5t-313.5 -64.5zM913 88q131 0 251 53.5
t209.5 146t142.5 225.5t53 284t-53 284t-142.5 226t-209.5 146.5t-251 53.5q-132 0 -253.5 -53.5t-212 -146t-144 -225.5t-53.5 -285q0 -151 53.5 -284t144 -225.5t212 -146t253.5 -53.5z" />
    <glyph glyph-name="Odieresis" unicode="&#xd6;" horiz-adv-x="1820" 
d="M715 1790q-44 0 -73.5 30.5t-29.5 73.5q0 42 29.5 71.5t73.5 29.5q42 0 71 -29.5t29 -71.5q0 -43 -29 -73.5t-71 -30.5zM1104 1790q-44 0 -73.5 30.5t-29.5 73.5q0 42 29.5 71.5t73.5 29.5q42 0 71 -29.5t29 -71.5q0 -43 -29 -73.5t-71 -30.5zM909 -35q-162 0 -309 63
t-255 172t-172 265t-64 332t63.5 331.5t171.5 265t255.5 173t311.5 63.5q166 0 315 -65t255.5 -176t168.5 -265.5t62 -326.5q0 -173 -63 -328t-170.5 -265t-256 -174.5t-313.5 -64.5zM913 88q131 0 251 53.5t209.5 146t142.5 225.5t53 284t-53 284t-142.5 226t-209.5 146.5
t-251 53.5q-132 0 -253.5 -53.5t-212 -146t-144 -225.5t-53.5 -285q0 -151 53.5 -284t144 -225.5t212 -146t253.5 -53.5z" />
    <glyph glyph-name="multiply" unicode="&#xd7;" horiz-adv-x="915" 
d="M381 625l-227 225l82 80l227 -225l217 219l78 -80l-217 -217l225 -228l-82 -80l-223 226l-221 -219l-78 80z" />
    <glyph glyph-name="Oslash" unicode="&#xd8;" horiz-adv-x="1820" 
d="M1571 1661l-150 -217q136 -116 213.5 -284.5t77.5 -362.5q0 -173 -63 -328t-170.5 -265t-256 -174.5t-313.5 -64.5q-227 0 -420 119l-102 -150h-141l149 220q-134 116 -210 281.5t-76 361.5q0 176 63.5 331.5t171.5 265t255.5 173t311.5 63.5q225 0 416 -117l100 148h144
zM250 797q0 -161 58.5 -298t162.5 -235l782 1143q-159 100 -340 100q-132 0 -253.5 -53.5t-212 -146t-144 -225.5t-53.5 -285zM913 88q131 0 251 53.5t209.5 146t142.5 225.5t53 284q0 162 -59.5 300t-163.5 236l-783 -1140q157 -105 350 -105z" />
    <glyph glyph-name="Ugrave" unicode="&#xd9;" horiz-adv-x="1542" 
d="M854 1720h-113l-340 322h191zM766 -35q-270 0 -417.5 155t-147.5 455v1022h131v-1015q0 -256 115 -377t323 -121q209 0 324.5 121t115.5 377v1015h131v-1022q0 -135 -34.5 -245t-103 -192.5t-180 -127.5t-257.5 -45z" />
    <glyph glyph-name="Uacute" unicode="&#xda;" horiz-adv-x="1542" 
d="M1090 2040l-338 -320h-115l262 320h191zM766 -35q-270 0 -417.5 155t-147.5 455v1022h131v-1015q0 -256 115 -377t323 -121q209 0 324.5 121t115.5 377v1015h131v-1022q0 -135 -34.5 -245t-103 -192.5t-180 -127.5t-257.5 -45z" />
    <glyph glyph-name="Ucircumflex" unicode="&#xdb;" horiz-adv-x="1542" 
d="M537 1720h-115l266 303h162l268 -303h-114q-53 50 -77 73.5t-64 72t-68 96.5h-47q-9 -15 -19 -30.5t-18.5 -27.5t-21.5 -27.5t-20 -24t-22 -24.5t-21 -22l-23 -23t-21 -20.5t-23 -21.5t-22 -21zM766 -35q-270 0 -417.5 155t-147.5 455v1022h131v-1015q0 -256 115 -377
t323 -121q209 0 324.5 121t115.5 377v1015h131v-1022q0 -135 -34.5 -245t-103 -192.5t-180 -127.5t-257.5 -45z" />
    <glyph glyph-name="Udieresis" unicode="&#xdc;" horiz-adv-x="1542" 
d="M575 1790q-44 0 -73 30.5t-29 73.5q0 42 29 71.5t73 29.5q42 0 71.5 -29.5t29.5 -71.5q0 -43 -29.5 -73.5t-71.5 -30.5zM965 1790q-44 0 -73.5 30.5t-29.5 73.5q0 42 29.5 71.5t73.5 29.5q42 0 71 -29.5t29 -71.5q0 -43 -29 -73.5t-71 -30.5zM766 -35q-270 0 -417.5 155
t-147.5 455v1022h131v-1015q0 -256 115 -377t323 -121q209 0 324.5 121t115.5 377v1015h131v-1022q0 -135 -34.5 -245t-103 -192.5t-180 -127.5t-257.5 -45z" />
    <glyph glyph-name="Yacute" unicode="&#xdd;" horiz-adv-x="1411" 
d="M1073 2040l-338 -320h-114l262 320h190zM770 0h-131q0 393 12 590q-239 381 -610 1007h143q337 -572 510 -913h23q26 53 52.5 104t59 110.5t53 97.5t60.5 108t53.5 94.5t61 105.5t54.5 93.5t61.5 104t56.5 95.5h139q-403 -681 -610 -1007q12 -197 12 -590z" />
    <glyph glyph-name="Thorn" unicode="&#xde;" horiz-adv-x="1394" 
d="M350 0h-129v1597h129q0 -116 -16 -284h442q230 0 375 -127.5t145 -341.5q0 -113 -39 -206t-106 -153t-155 -92.5t-187 -32.5q-119 0 -178 1t-142 9t-157 25q18 -193 18 -395zM330 475l18 -22q148 24 420 24q184 0 287.5 94t103.5 265q0 168 -111.5 263t-297.5 95
q-257 0 -402 23l-20 -19q33 -351 2 -723z" />
    <glyph glyph-name="germandbls" unicode="&#xdf;" horiz-adv-x="1253" 
d="M309 0h-123v1176q0 33 2 63.5t12 83.5t27 96.5t51.5 92.5t80.5 82.5t119 56t163 22.5q220 0 343.5 -119.5t123.5 -308.5q0 -158 -84 -263.5t-223 -117.5v-24q164 -12 260 -113t96 -262q0 -94 -35.5 -178t-101 -148t-167 -101.5t-224.5 -37.5h-146v106h156
q168 0 277.5 100t109.5 255q0 143 -94 237.5t-242 94.5h-98v106h92q132 0 212.5 89t80.5 239q0 68 -19 127t-57.5 106.5t-104.5 75t-153 27.5q-84 0 -147 -26.5t-97.5 -65t-56 -91t-27.5 -94t-6 -84.5v-1202z" />
    <glyph glyph-name="agrave" unicode="&#xe0;" horiz-adv-x="1171" 
d="M657 1278h-108l-311 393h172zM455 -35q-154 0 -255.5 75t-101.5 216q0 63 22.5 114.5t59.5 87.5t92 64.5t112 46.5t128 33q27 5 73 14t69.5 13.5t59.5 13.5t54.5 17t42 22t34.5 30t19 38.5t8 50.5q0 101 -83.5 177.5t-213.5 76.5q-116 0 -199 -65.5t-116 -176.5l-121 41
q47 152 171 229.5t274 77.5q77 0 148.5 -21.5t133 -64t98.5 -117.5t37 -172v-434q0 -131 8.5 -204t28.5 -148h-125q-13 46 -19 81t-4.5 83.5t13.5 103.5h-24q-56 -142 -163 -222.5t-261 -80.5zM469 68q89 0 167.5 38.5t128.5 97t78.5 125t28.5 126.5v178q-46 -51 -96.5 -72
t-175.5 -45q-40 -8 -63.5 -13t-67.5 -17.5t-71.5 -24.5t-62.5 -32.5t-55 -43t-34.5 -55t-14.5 -70.5q0 -89 66 -140.5t172 -51.5z" />
    <glyph glyph-name="aacute" unicode="&#xe1;" horiz-adv-x="1171" 
d="M954 1671l-311 -393h-108l247 393h172zM455 -35q-154 0 -255.5 75t-101.5 216q0 63 22.5 114.5t59.5 87.5t92 64.5t112 46.5t128 33q27 5 73 14t69.5 13.5t59.5 13.5t54.5 17t42 22t34.5 30t19 38.5t8 50.5q0 101 -83.5 177.5t-213.5 76.5q-116 0 -199 -65.5t-116 -176.5
l-121 41q47 152 171 229.5t274 77.5q77 0 148.5 -21.5t133 -64t98.5 -117.5t37 -172v-434q0 -131 8.5 -204t28.5 -148h-125q-13 46 -19 81t-4.5 83.5t13.5 103.5h-24q-56 -142 -163 -222.5t-261 -80.5zM469 68q89 0 167.5 38.5t128.5 97t78.5 125t28.5 126.5v178
q-46 -51 -96.5 -72t-175.5 -45q-40 -8 -63.5 -13t-67.5 -17.5t-71.5 -24.5t-62.5 -32.5t-55 -43t-34.5 -55t-14.5 -70.5q0 -89 66 -140.5t172 -51.5z" />
    <glyph glyph-name="acircumflex" unicode="&#xe2;" horiz-adv-x="1171" 
d="M332 1278h-117l297 356h168l297 -356h-117q-56 56 -88 90t-76 88t-75 105h-50q-73 -121 -239 -283zM455 -35q-154 0 -255.5 75t-101.5 216q0 63 22.5 114.5t59.5 87.5t92 64.5t112 46.5t128 33q27 5 73 14t69.5 13.5t59.5 13.5t54.5 17t42 22t34.5 30t19 38.5t8 50.5
q0 101 -83.5 177.5t-213.5 76.5q-116 0 -199 -65.5t-116 -176.5l-121 41q47 152 171 229.5t274 77.5q77 0 148.5 -21.5t133 -64t98.5 -117.5t37 -172v-434q0 -131 8.5 -204t28.5 -148h-125q-13 46 -19 81t-4.5 83.5t13.5 103.5h-24q-56 -142 -163 -222.5t-261 -80.5zM469 68
q89 0 167.5 38.5t128.5 97t78.5 125t28.5 126.5v178q-46 -51 -96.5 -72t-175.5 -45q-40 -8 -63.5 -13t-67.5 -17.5t-71.5 -24.5t-62.5 -32.5t-55 -43t-34.5 -55t-14.5 -70.5q0 -89 66 -140.5t172 -51.5z" />
    <glyph glyph-name="atilde" unicode="&#xe3;" horiz-adv-x="1171" 
d="M752 1333q-15 0 -29 2t-24.5 4.5t-23 8.5t-19.5 9t-19 12t-16.5 13t-17.5 15t-17 14l-37 31q-21 18 -31.5 26t-31 17.5t-40.5 9.5q-47 0 -77.5 -42t-30.5 -105h-94q1 109 58.5 176t148.5 67q42 0 75 -16.5t72 -50.5l43 -37q66 -57 113 -57q48 0 75 41t27 106h94
q0 -111 -52 -177.5t-146 -66.5zM455 -35q-154 0 -255.5 75t-101.5 216q0 63 22.5 114.5t59.5 87.5t92 64.5t112 46.5t128 33q27 5 73 14t69.5 13.5t59.5 13.5t54.5 17t42 22t34.5 30t19 38.5t8 50.5q0 101 -83.5 177.5t-213.5 76.5q-116 0 -199 -65.5t-116 -176.5l-121 41
q47 152 171 229.5t274 77.5q77 0 148.5 -21.5t133 -64t98.5 -117.5t37 -172v-434q0 -131 8.5 -204t28.5 -148h-125q-13 46 -19 81t-4.5 83.5t13.5 103.5h-24q-56 -142 -163 -222.5t-261 -80.5zM469 68q89 0 167.5 38.5t128.5 97t78.5 125t28.5 126.5v178q-46 -51 -96.5 -72
t-175.5 -45q-40 -8 -63.5 -13t-67.5 -17.5t-71.5 -24.5t-62.5 -32.5t-55 -43t-34.5 -55t-14.5 -70.5q0 -89 66 -140.5t172 -51.5z" />
    <glyph glyph-name="adieresis" unicode="&#xe4;" horiz-adv-x="1171" 
d="M420 1376q-42 0 -71.5 31t-29.5 74q0 40 29.5 69t71.5 29t71 -29t29 -69q0 -43 -29 -74t-71 -31zM770 1376q-42 0 -71 31t-29 74q0 40 29 69t71 29q41 0 70.5 -29t29.5 -69q0 -43 -29.5 -74t-70.5 -31zM455 -35q-154 0 -255.5 75t-101.5 216q0 63 22.5 114.5t59.5 87.5
t92 64.5t112 46.5t128 33q27 5 73 14t69.5 13.5t59.5 13.5t54.5 17t42 22t34.5 30t19 38.5t8 50.5q0 101 -83.5 177.5t-213.5 76.5q-116 0 -199 -65.5t-116 -176.5l-121 41q47 152 171 229.5t274 77.5q77 0 148.5 -21.5t133 -64t98.5 -117.5t37 -172v-434q0 -131 8.5 -204
t28.5 -148h-125q-13 46 -19 81t-4.5 83.5t13.5 103.5h-24q-56 -142 -163 -222.5t-261 -80.5zM469 68q89 0 167.5 38.5t128.5 97t78.5 125t28.5 126.5v178q-46 -51 -96.5 -72t-175.5 -45q-40 -8 -63.5 -13t-67.5 -17.5t-71.5 -24.5t-62.5 -32.5t-55 -43t-34.5 -55
t-14.5 -70.5q0 -89 66 -140.5t172 -51.5z" />
    <glyph glyph-name="aring" unicode="&#xe5;" horiz-adv-x="1171" 
d="M598 1247q-97 0 -161 61t-64 156q0 93 64 154t161 61q94 0 157.5 -61t63.5 -154q0 -95 -63 -156t-158 -61zM598 1333q57 0 95 35.5t38 95.5q0 59 -38 94t-95 35q-61 0 -99 -35t-38 -94q0 -61 38 -96t99 -35zM455 -35q-154 0 -255.5 75t-101.5 216q0 63 22.5 114.5
t59.5 87.5t92 64.5t112 46.5t128 33q27 5 73 14t69.5 13.5t59.5 13.5t54.5 17t42 22t34.5 30t19 38.5t8 50.5q0 101 -83.5 177.5t-213.5 76.5q-116 0 -199 -65.5t-116 -176.5l-121 41q47 152 171 229.5t274 77.5q77 0 148.5 -21.5t133 -64t98.5 -117.5t37 -172v-434
q0 -131 8.5 -204t28.5 -148h-125q-13 46 -19 81t-4.5 83.5t13.5 103.5h-24q-56 -142 -163 -222.5t-261 -80.5zM469 68q89 0 167.5 38.5t128.5 97t78.5 125t28.5 126.5v178q-46 -51 -96.5 -72t-175.5 -45q-40 -8 -63.5 -13t-67.5 -17.5t-71.5 -24.5t-62.5 -32.5t-55 -43
t-34.5 -55t-14.5 -70.5q0 -89 66 -140.5t172 -51.5z" />
    <glyph glyph-name="ae" unicode="&#xe6;" 
d="M457 -35q-160 0 -259.5 76t-99.5 215q0 78 32.5 138t93 100t129.5 65.5t159 42.5q26 5 71.5 13t69 13t59.5 13.5t55.5 17t43 22t35 30t20 39.5t8.5 51q0 101 -83.5 177.5t-212.5 76.5q-117 0 -200 -66t-118 -176l-119 41q47 151 171.5 229t273.5 78q62 0 119.5 -14
t112 -44t96.5 -83t63 -125q70 130 186.5 198t263.5 68q69 0 134.5 -14t136.5 -52.5t123.5 -99t86.5 -162.5t34 -233v-49h-938q1 -212 122 -343.5t308 -131.5q147 0 252.5 83.5t158.5 215.5l113 -39q-64 -176 -205 -273.5t-323 -97.5q-176 0 -307.5 89t-176.5 265h-22
q-46 -156 -174 -255t-293 -99zM1010 653h798q-1 86 -25 156t-62 114.5t-88.5 74.5t-102.5 42.5t-107 12.5q-166 0 -277 -110t-136 -290zM479 66q82 0 158 39.5t126.5 98.5t80.5 126t30 125v178q-43 -48 -102.5 -72.5t-167.5 -42.5q-373 -59 -373 -256q0 -89 68.5 -142.5
t179.5 -53.5z" />
    <glyph glyph-name="ccedilla" unicode="&#xe7;" horiz-adv-x="1243" 
d="M678 -35q-43 -61 -107 -125l9 -8q52 25 98 25q80 0 131 -45t51 -117q0 -82 -63 -133t-160 -51q-73 0 -140 30t-110 80l53 53q34 -41 85.5 -65.5t105.5 -24.5q59 0 99 30t40 77q0 44 -35.5 72t-91.5 28q-53 0 -96 -24l-53 49l98 153q-222 22 -358 184t-136 410
q0 266 155.5 432t403.5 166q161 0 290.5 -77t193.5 -240l-121 -45q-43 118 -140 184t-229 66q-190 0 -306 -137.5t-116 -348.5q0 -217 120.5 -351t312.5 -134q151 0 257 82.5t160 218.5l111 -37q-63 -176 -199 -273.5t-313 -103.5z" />
    <glyph glyph-name="egrave" unicode="&#xe8;" horiz-adv-x="1269" 
d="M698 1278h-108l-311 393h172zM651 -35q-241 0 -397 166t-156 430t154.5 432t396.5 168q47 0 93.5 -7t98.5 -24.5t97.5 -45t87.5 -72t71.5 -101t47.5 -136.5t18 -175v-51h-936q3 -211 122.5 -342t305.5 -131q148 0 253.5 83t158.5 216l113 -39q-65 -177 -206 -274
t-323 -97zM233 651h797q-1 86 -24 156t-61 115t-88.5 75.5t-103 43t-108.5 12.5q-165 0 -276 -110.5t-136 -291.5z" />
    <glyph glyph-name="eacute" unicode="&#xe9;" horiz-adv-x="1269" 
d="M997 1671l-311 -393h-108l247 393h172zM651 -35q-241 0 -397 166t-156 430t154.5 432t396.5 168q47 0 93.5 -7t98.5 -24.5t97.5 -45t87.5 -72t71.5 -101t47.5 -136.5t18 -175v-51h-936q3 -211 122.5 -342t305.5 -131q148 0 253.5 83t158.5 216l113 -39
q-65 -177 -206 -274t-323 -97zM233 651h797q-1 86 -24 156t-61 115t-88.5 75.5t-103 43t-108.5 12.5q-165 0 -276 -110.5t-136 -291.5z" />
    <glyph glyph-name="ecircumflex" unicode="&#xea;" horiz-adv-x="1269" 
d="M375 1278h-117l297 356h168l297 -356h-117q-56 56 -88 90t-76 88t-75 105h-50q-73 -121 -239 -283zM651 -35q-241 0 -397 166t-156 430t154.5 432t396.5 168q47 0 93.5 -7t98.5 -24.5t97.5 -45t87.5 -72t71.5 -101t47.5 -136.5t18 -175v-51h-936q3 -211 122.5 -342
t305.5 -131q148 0 253.5 83t158.5 216l113 -39q-65 -177 -206 -274t-323 -97zM233 651h797q-1 86 -24 156t-61 115t-88.5 75.5t-103 43t-108.5 12.5q-165 0 -276 -110.5t-136 -291.5z" />
    <glyph glyph-name="edieresis" unicode="&#xeb;" horiz-adv-x="1269" 
d="M463 1376q-42 0 -71.5 31t-29.5 74q0 40 29.5 69t71.5 29t71 -29t29 -69q0 -43 -29 -74t-71 -31zM813 1376q-42 0 -71 31t-29 74q0 40 29 69t71 29q41 0 70.5 -29t29.5 -69q0 -43 -29.5 -74t-70.5 -31zM651 -35q-241 0 -397 166t-156 430t154.5 432t396.5 168
q47 0 93.5 -7t98.5 -24.5t97.5 -45t87.5 -72t71.5 -101t47.5 -136.5t18 -175v-51h-936q3 -211 122.5 -342t305.5 -131q148 0 253.5 83t158.5 216l113 -39q-65 -177 -206 -274t-323 -97zM233 651h797q-1 86 -24 156t-61 115t-88.5 75.5t-103 43t-108.5 12.5
q-165 0 -276 -110.5t-136 -291.5z" />
    <glyph glyph-name="igrave" unicode="&#xec;" horiz-adv-x="495" 
d="M309 1276h-108l-312 393h172zM309 0h-123v1128h123v-1128z" />
    <glyph glyph-name="iacute" unicode="&#xed;" horiz-adv-x="495" 
d="M606 1669l-311 -393h-109l248 393h172zM309 0h-123v1128h123v-1128z" />
    <glyph glyph-name="icircumflex" unicode="&#xee;" horiz-adv-x="495" 
d="M-16 1276h-117l297 356h168l297 -356h-117q-58 58 -89 90.5t-75.5 87t-75.5 105.5h-49q-73 -121 -239 -283zM309 0h-123v1128h123v-1128z" />
    <glyph glyph-name="idieresis" unicode="&#xef;" horiz-adv-x="495" 
d="M72 1374q-42 0 -71.5 31t-29.5 74q0 40 29.5 69t71.5 29t71 -29t29 -69q0 -43 -29 -74t-71 -31zM422 1374q-42 0 -71 31t-29 74q0 40 29 69t71 29q41 0 70.5 -29t29.5 -69q0 -43 -29.5 -74t-70.5 -31zM309 0h-123v1128h123v-1128z" />
    <glyph glyph-name="eth" unicode="&#xf0;" horiz-adv-x="1323" 
d="M1024 1575l-203 -117q385 -286 385 -799q0 -332 -150 -513t-403 -181q-167 0 -295.5 80t-195 210t-66.5 286q0 121 42 228t114.5 182t172 118t210.5 43q133 0 235 -62t197 -202h23q-61 185 -152.5 316.5t-230.5 228.5l-308 -176l-41 73l267 154q-134 76 -301 133l32 106
q222 -68 387 -172l236 138zM649 76q182 0 302 129t120 334q0 206 -120 335.5t-300 129.5q-182 0 -303 -133t-121 -330q0 -195 118 -330t304 -135z" />
    <glyph glyph-name="ntilde" unicode="&#xf1;" horiz-adv-x="1294" 
d="M799 1333q-15 0 -29 2t-24.5 4.5t-23 8.5t-19.5 9t-19 12t-16.5 13t-17.5 15t-17 14l-37 31q-22 19 -31.5 26.5t-30 17t-40.5 9.5q-47 0 -78 -42t-31 -105h-94q1 109 58.5 176t148.5 67q42 0 75 -16.5t72 -50.5l43 -37q66 -57 113 -57q48 0 75 41t27 106h94
q0 -111 -52 -177.5t-146 -66.5zM309 0h-123v1128h119q0 -151 -26 -245h22q133 278 412 278q63 0 120 -13.5t111.5 -47t94 -84t63.5 -130t24 -179.5v-707h-122v653q0 106 -26.5 185.5t-72.5 124t-101 65.5t-120 21q-88 0 -161 -36.5t-118.5 -96t-70.5 -132.5t-25 -149v-635z
" />
    <glyph glyph-name="ograve" unicode="&#xf2;" horiz-adv-x="1320" 
d="M721 1278h-109l-311 393h172zM662 -35q-250 0 -407 167t-157 431t157 431t407 167q248 0 404.5 -167t156.5 -431t-156.5 -431t-404.5 -167zM662 78q192 0 311 134.5t119 350.5q0 215 -119.5 350.5t-310.5 135.5q-192 0 -312.5 -136t-120.5 -350q0 -215 120.5 -350
t312.5 -135z" />
    <glyph glyph-name="oacute" unicode="&#xf3;" horiz-adv-x="1320" 
d="M1020 1671l-311 -393h-109l248 393h172zM662 -35q-250 0 -407 167t-157 431t157 431t407 167q248 0 404.5 -167t156.5 -431t-156.5 -431t-404.5 -167zM662 78q192 0 311 134.5t119 350.5q0 215 -119.5 350.5t-310.5 135.5q-192 0 -312.5 -136t-120.5 -350
q0 -215 120.5 -350t312.5 -135z" />
    <glyph glyph-name="ocircumflex" unicode="&#xf4;" horiz-adv-x="1320" 
d="M397 1278h-116l297 356h167l297 -356h-116q-58 58 -89 90.5t-75.5 87t-75.5 105.5h-49q-72 -119 -240 -283zM662 -35q-250 0 -407 167t-157 431t157 431t407 167q248 0 404.5 -167t156.5 -431t-156.5 -431t-404.5 -167zM662 78q192 0 311 134.5t119 350.5
q0 215 -119.5 350.5t-310.5 135.5q-192 0 -312.5 -136t-120.5 -350q0 -215 120.5 -350t312.5 -135z" />
    <glyph glyph-name="otilde" unicode="&#xf5;" horiz-adv-x="1320" 
d="M815 1333q-15 0 -29 2t-24.5 4.5t-23 8.5t-19.5 9t-19 12t-16.5 13t-17.5 15t-17 14l-37 31q-22 19 -31.5 26.5t-30 17t-40.5 9.5q-47 0 -78 -42t-31 -105h-94q1 109 58.5 176t148.5 67q71 0 148 -67l43 -37q66 -57 112 -57q48 0 75.5 41t27.5 106h94
q0 -111 -52.5 -177.5t-146.5 -66.5zM662 -35q-250 0 -407 167t-157 431t157 431t407 167q248 0 404.5 -167t156.5 -431t-156.5 -431t-404.5 -167zM662 78q192 0 311 134.5t119 350.5q0 215 -119.5 350.5t-310.5 135.5q-192 0 -312.5 -136t-120.5 -350q0 -215 120.5 -350
t312.5 -135z" />
    <glyph glyph-name="odieresis" unicode="&#xf6;" horiz-adv-x="1320" 
d="M485 1376q-42 0 -71 31t-29 74q0 40 29 69t71 29t71.5 -29t29.5 -69q0 -43 -29.5 -74t-71.5 -31zM836 1376q-42 0 -71.5 31t-29.5 74q0 40 29.5 69t71.5 29q41 0 70.5 -29t29.5 -69q0 -43 -29.5 -74t-70.5 -31zM662 -35q-250 0 -407 167t-157 431t157 431t407 167
q248 0 404.5 -167t156.5 -431t-156.5 -431t-404.5 -167zM662 78q192 0 311 134.5t119 350.5q0 215 -119.5 350.5t-310.5 135.5q-192 0 -312.5 -136t-120.5 -350q0 -215 120.5 -350t312.5 -135z" />
    <glyph glyph-name="divide" unicode="&#xf7;" horiz-adv-x="1038" 
d="M524 823q-43 0 -72.5 31.5t-29.5 75.5q0 42 29 71t73 29q42 0 71.5 -30t29.5 -72q0 -43 -30 -74t-71 -31zM883 569h-727v113h727v-113zM524 219q-42 0 -72 31t-30 74t29 72.5t73 29.5q42 0 71.5 -30t29.5 -72q0 -43 -30 -74t-71 -31z" />
    <glyph glyph-name="oslash" unicode="&#xf8;" horiz-adv-x="1320" 
d="M1184 1182l-129 -176q80 -79 124 -193.5t44 -249.5q0 -264 -156.5 -431t-404.5 -167q-178 0 -314 88l-80 -108h-129l129 174q-81 79 -125.5 193.5t-44.5 250.5q0 264 157 431t407 167q178 0 315 -92l84 113h123zM229 563q0 -210 115 -344l561 754q-105 76 -243 76
q-192 0 -312.5 -136t-120.5 -350zM662 78q192 0 311 134.5t119 350.5q0 207 -113 342l-559 -755q109 -72 242 -72z" />
    <glyph glyph-name="ugrave" unicode="&#xf9;" horiz-adv-x="1275" 
d="M678 1278h-109l-311 393h172zM575 -35q-78 0 -147 23.5t-128.5 74t-94.5 142t-35 215.5v708h123v-657q0 -108 27 -187.5t73 -122.5t99 -63t114 -20q68 0 126.5 24.5t100.5 65.5t72.5 94t45 110.5t14.5 114.5v641h122v-776q0 -131 8.5 -204t28.5 -148h-125
q-12 50 -17 82.5t-4.5 80t11.5 99.5h-22q-116 -297 -392 -297z" />
    <glyph glyph-name="uacute" unicode="&#xfa;" horiz-adv-x="1275" 
d="M977 1671l-311 -393h-109l248 393h172zM575 -35q-78 0 -147 23.5t-128.5 74t-94.5 142t-35 215.5v708h123v-657q0 -108 27 -187.5t73 -122.5t99 -63t114 -20q68 0 126.5 24.5t100.5 65.5t72.5 94t45 110.5t14.5 114.5v641h122v-776q0 -131 8.5 -204t28.5 -148h-125
q-12 50 -17 82.5t-4.5 80t11.5 99.5h-22q-116 -297 -392 -297z" />
    <glyph glyph-name="ucircumflex" unicode="&#xfb;" horiz-adv-x="1275" 
d="M352 1278h-116l296 356h168l297 -356h-116q-58 58 -89 90.5t-75.5 87t-75.5 105.5h-49q-72 -119 -240 -283zM575 -35q-78 0 -147 23.5t-128.5 74t-94.5 142t-35 215.5v708h123v-657q0 -108 27 -187.5t73 -122.5t99 -63t114 -20q68 0 126.5 24.5t100.5 65.5t72.5 94
t45 110.5t14.5 114.5v641h122v-776q0 -131 8.5 -204t28.5 -148h-125q-12 50 -17 82.5t-4.5 80t11.5 99.5h-22q-116 -297 -392 -297z" />
    <glyph glyph-name="udieresis" unicode="&#xfc;" horiz-adv-x="1275" 
d="M442 1376q-42 0 -71 31t-29 74q0 40 29 69t71 29t71.5 -29t29.5 -69q0 -43 -29.5 -74t-71.5 -31zM793 1376q-42 0 -71.5 31t-29.5 74q0 40 29.5 69t71.5 29q41 0 70.5 -29t29.5 -69q0 -43 -29.5 -74t-70.5 -31zM575 -35q-78 0 -147 23.5t-128.5 74t-94.5 142t-35 215.5
v708h123v-657q0 -108 27 -187.5t73 -122.5t99 -63t114 -20q68 0 126.5 24.5t100.5 65.5t72.5 94t45 110.5t14.5 114.5v641h122v-776q0 -131 8.5 -204t28.5 -148h-125q-12 50 -17 82.5t-4.5 80t11.5 99.5h-22q-116 -297 -392 -297z" />
    <glyph glyph-name="yacute" unicode="&#xfd;" horiz-adv-x="1105" 
d="M899 1671l-311 -393h-109l248 393h172zM434 -451h-112l172 439l-459 1140h133q223 -552 377 -1026h22q143 454 371 1026h133z" />
    <glyph glyph-name="thorn" unicode="&#xfe;" horiz-adv-x="1370" 
d="M309 -451h-123v2089h123q0 -26 0.5 -144t0 -165t-2 -141t-5.5 -170.5t-11 -155.5h22q69 151 183.5 225t255.5 74q224 0 373 -168.5t149 -429.5q0 -174 -69.5 -311t-189 -212t-267.5 -75q-140 0 -255 73t-180 216h-22q7 -72 11 -142t5.5 -155t2 -128t0 -149.5t-0.5 -130.5
zM731 78q178 0 295 138t117 347q0 211 -118 348.5t-294 137.5t-299 -137t-123 -349q0 -213 123 -349t299 -136z" />
    <glyph glyph-name="ydieresis" unicode="&#xff;" horiz-adv-x="1105" 
d="M365 1376q-42 0 -71.5 31t-29.5 74q0 40 29.5 69t71.5 29t71 -29t29 -69q0 -43 -29 -74t-71 -31zM715 1376q-42 0 -71.5 31t-29.5 74q0 40 29.5 69t71.5 29q41 0 70.5 -29t29.5 -69q0 -43 -29.5 -74t-70.5 -31zM434 -451h-112l172 439l-459 1140h133q223 -552 377 -1026
h22q143 454 371 1026h133z" />
    <glyph glyph-name="Amacron" unicode="&#x100;" horiz-adv-x="1507" 
d="M1085 1835h-663v107h663v-107zM170 0h-137l651 1597h139l652 -1597h-140q-150 363 -207 578l-20 18q-227 -25 -340 -25q-155 0 -360 25l-23 -21q-60 -191 -215 -575zM430 688l14 -20q190 24 324 24q135 0 289 -24l12 18q-190 418 -293 778h-45q-115 -380 -301 -776z" />
    <glyph glyph-name="amacron" unicode="&#x101;" horiz-adv-x="1171" 
d="M940 1421h-688v105h688v-105zM455 -35q-154 0 -255.5 75t-101.5 216q0 63 22.5 114.5t59.5 87.5t92 64.5t112 46.5t128 33q27 5 73 14t69.5 13.5t59.5 13.5t54.5 17t42 22t34.5 30t19 38.5t8 50.5q0 101 -83.5 177.5t-213.5 76.5q-116 0 -199 -65.5t-116 -176.5l-121 41
q47 152 171 229.5t274 77.5q77 0 148.5 -21.5t133 -64t98.5 -117.5t37 -172v-434q0 -131 8.5 -204t28.5 -148h-125q-13 46 -19 81t-4.5 83.5t13.5 103.5h-24q-56 -142 -163 -222.5t-261 -80.5zM469 68q89 0 167.5 38.5t128.5 97t78.5 125t28.5 126.5v178q-46 -51 -96.5 -72
t-175.5 -45q-40 -8 -63.5 -13t-67.5 -17.5t-71.5 -24.5t-62.5 -32.5t-55 -43t-34.5 -55t-14.5 -70.5q0 -89 66 -140.5t172 -51.5z" />
    <glyph glyph-name="Abreve" unicode="&#x102;" horiz-adv-x="1507" 
d="M754 1726q-84 0 -155 29t-117 76t-73 103.5t-30 113.5h113q6 -85 81 -151t181 -66q107 0 182 66t80 151h112q-2 -57 -28.5 -113.5t-72.5 -103.5t-117.5 -76t-155.5 -29zM170 0h-137l651 1597h139l652 -1597h-140q-150 363 -207 578l-20 18q-227 -25 -340 -25
q-155 0 -360 25l-23 -21q-60 -191 -215 -575zM430 688l14 -20q190 24 324 24q135 0 289 -24l12 18q-190 418 -293 778h-45q-115 -380 -301 -776z" />
    <glyph glyph-name="abreve" unicode="&#x103;" horiz-adv-x="1171" 
d="M594 1276q-169 0 -268 111.5t-105 283.5h113q4 -133 77 -212t185 -79q114 0 186 78.5t76 212.5h113q-6 -173 -105.5 -284t-271.5 -111zM455 -35q-154 0 -255.5 75t-101.5 216q0 63 22.5 114.5t59.5 87.5t92 64.5t112 46.5t128 33q27 5 73 14t69.5 13.5t59.5 13.5t54.5 17
t42 22t34.5 30t19 38.5t8 50.5q0 101 -83.5 177.5t-213.5 76.5q-116 0 -199 -65.5t-116 -176.5l-121 41q47 152 171 229.5t274 77.5q77 0 148.5 -21.5t133 -64t98.5 -117.5t37 -172v-434q0 -131 8.5 -204t28.5 -148h-125q-13 46 -19 81t-4.5 83.5t13.5 103.5h-24
q-56 -142 -163 -222.5t-261 -80.5zM469 68q89 0 167.5 38.5t128.5 97t78.5 125t28.5 126.5v178q-46 -51 -96.5 -72t-175.5 -45q-40 -8 -63.5 -13t-67.5 -17.5t-71.5 -24.5t-62.5 -32.5t-55 -43t-34.5 -55t-14.5 -70.5q0 -89 66 -140.5t172 -51.5z" />
    <glyph glyph-name="Aogonek" unicode="&#x104;" horiz-adv-x="1507" 
d="M1460 -373q37 0 88 15v-91q-55 -14 -98 -14q-116 0 -192 62.5t-76 169.5q0 137 159 231h-6q-150 363 -207 578l-20 18q-227 -25 -340 -25q-155 0 -360 25l-23 -21q-60 -191 -215 -575h-137l651 1597h139l652 -1597h-19q-176 -87 -176 -213q0 -72 51 -116t129 -44z
M1057 668l12 18q-190 418 -293 778h-45q-115 -380 -301 -776l14 -20q190 24 324 24q135 0 289 -24z" />
    <glyph glyph-name="aogonek" unicode="&#x105;" horiz-adv-x="1171" 
d="M1026 -371q37 0 88 15v-93q-55 -14 -98 -14q-114 0 -190 62.5t-76 167.5q0 140 163 233q-13 46 -19 81t-4.5 83.5t13.5 103.5h-24q-56 -142 -163 -222.5t-261 -80.5t-255.5 75t-101.5 216q0 63 22.5 114.5t59.5 87.5t92 64.5t112 46.5t128 33q27 5 73 14t69.5 13.5
t59.5 13.5t54.5 17t42 22t34.5 30t19 38.5t8 50.5q0 101 -83.5 177.5t-213.5 76.5q-116 0 -199 -65.5t-116 -176.5l-121 41q47 152 171 229.5t274 77.5q77 0 148.5 -21.5t133 -64t98.5 -117.5t37 -172v-434q0 -131 8.5 -204t28.5 -148h-16q-174 -91 -174 -213q0 -72 51 -115
t127 -43zM872 455v178q-46 -51 -96.5 -72t-175.5 -45q-40 -8 -63.5 -13t-67.5 -17.5t-71.5 -24.5t-62.5 -32.5t-55 -43t-34.5 -55t-14.5 -70.5q0 -89 66 -140.5t172 -51.5q89 0 167.5 38.5t128.5 97t78.5 125t28.5 126.5z" />
    <glyph glyph-name="Cacute" unicode="&#x106;" horiz-adv-x="1722" 
d="M1239 2042l-340 -322h-113l263 322h190zM915 -35q-233 0 -416.5 105t-285.5 294t-102 429q0 184 62.5 342t169.5 265.5t253 168.5t311 61q112 0 218.5 -28.5t201.5 -83.5t169 -145.5t112 -205.5l-117 -49q-73 185 -231 287t-353 102q-132 0 -250 -49t-208.5 -139
t-143.5 -227t-53 -301q0 -138 38 -255t103 -198.5t151.5 -138.5t184 -84t201.5 -27q125 0 232 39.5t183 109t128 156t81 187.5l117 -43q-30 -97 -76.5 -181.5t-114 -157t-150 -124t-189 -80.5t-226.5 -29z" />
    <glyph glyph-name="cacute" unicode="&#x107;" horiz-adv-x="1243" 
d="M983 1671l-311 -393h-109l248 393h172zM657 -35q-248 0 -403.5 166t-155.5 432t155.5 432t403.5 166q161 0 290.5 -77t193.5 -240l-121 -45q-43 118 -140 184t-229 66q-190 0 -306 -137.5t-116 -348.5q0 -217 120.5 -351t312.5 -134q151 0 257 82.5t160 218.5l111 -37
q-65 -182 -207 -279.5t-326 -97.5z" />
    <glyph glyph-name="Cdotaccent" unicode="&#x10a;" horiz-adv-x="1722" 
d="M866 1788q-46 0 -77 32t-31 78q0 43 31.5 75t76.5 32q44 0 75.5 -32t31.5 -75q0 -46 -31.5 -78t-75.5 -32zM915 -35q-233 0 -416.5 105t-285.5 294t-102 429q0 184 62.5 342t169.5 265.5t253 168.5t311 61q112 0 218.5 -28.5t201.5 -83.5t169 -145.5t112 -205.5l-117 -49
q-73 185 -231 287t-353 102q-132 0 -250 -49t-208.5 -139t-143.5 -227t-53 -301q0 -138 38 -255t103 -198.5t151.5 -138.5t184 -84t201.5 -27q125 0 232 39.5t183 109t128 156t81 187.5l117 -43q-30 -97 -76.5 -181.5t-114 -157t-150 -124t-189 -80.5t-226.5 -29z" />
    <glyph glyph-name="cdotaccent" unicode="&#x10b;" horiz-adv-x="1243" 
d="M627 1425q-47 0 -78 32.5t-31 78.5q0 44 31 75t78 31q44 0 75 -31.5t31 -74.5q0 -46 -31 -78.5t-75 -32.5zM657 -35q-248 0 -403.5 166t-155.5 432t155.5 432t403.5 166q161 0 290.5 -77t193.5 -240l-121 -45q-43 118 -140 184t-229 66q-190 0 -306 -137.5t-116 -348.5
q0 -217 120.5 -351t312.5 -134q151 0 257 82.5t160 218.5l111 -37q-65 -182 -207 -279.5t-326 -97.5z" />
    <glyph glyph-name="Ccaron" unicode="&#x10c;" horiz-adv-x="1722" 
d="M948 1720h-164l-266 303h115q5 -5 24 -23t25.5 -24t24 -23t25.5 -25.5t23 -24.5t24.5 -28t21.5 -28t22.5 -32t20.5 -33h47q11 19 24 38t23 33t27 33t25 28.5t28 29.5l25.5 25.5t28.5 28t26 25.5h114zM915 -35q-233 0 -416.5 105t-285.5 294t-102 429q0 184 62.5 342
t169.5 265.5t253 168.5t311 61q112 0 218.5 -28.5t201.5 -83.5t169 -145.5t112 -205.5l-117 -49q-73 185 -231 287t-353 102q-132 0 -250 -49t-208.5 -139t-143.5 -227t-53 -301q0 -138 38 -255t103 -198.5t151.5 -138.5t184 -84t201.5 -27q125 0 232 39.5t183 109t128 156
t81 187.5l117 -43q-30 -97 -76.5 -181.5t-114 -157t-150 -124t-189 -80.5t-226.5 -29z" />
    <glyph glyph-name="ccaron" unicode="&#x10d;" horiz-adv-x="1243" 
d="M707 1280h-168l-297 358h116q56 -56 89 -90.5t78 -88.5t79 -105h39q32 51 80.5 108t72 82t91.5 94h117zM657 -35q-248 0 -403.5 166t-155.5 432t155.5 432t403.5 166q161 0 290.5 -77t193.5 -240l-121 -45q-43 118 -140 184t-229 66q-190 0 -306 -137.5t-116 -348.5
q0 -217 120.5 -351t312.5 -134q151 0 257 82.5t160 218.5l111 -37q-65 -182 -207 -279.5t-326 -97.5z" />
    <glyph glyph-name="Dcaron" unicode="&#x10e;" horiz-adv-x="1650" 
d="M846 1720h-164l-266 303h114q5 -5 24 -23t25.5 -24t24 -23t25.5 -25.5t23 -24.5t24.5 -28t21.5 -28t22.5 -32t20.5 -33h47q11 19 24 38t23 33t27 33t25 28.5t28 29.5l25.5 25.5t28.5 28t26 25.5h115zM797 0h-576v1597h557q156 0 283 -40.5t214.5 -112t146.5 -171.5
t86.5 -216t27.5 -248q0 -238 -87 -420t-255.5 -285.5t-396.5 -103.5zM328 117l20 -21q166 23 461 23q273 0 431.5 183.5t158.5 494.5q0 320 -171 501t-478 181q-263 0 -402 22l-20 -18q40 -677 0 -1366z" />
    <glyph glyph-name="dcaron" unicode="&#x10f;" horiz-adv-x="1374" 
d="M1444 1188h-82q26 54 43 86t48 78.5t67 85.5q-105 21 -105 102q0 43 32 74t77 31q43 0 73.5 -31t30.5 -74q0 -40 -49 -126q-22 -40 -135 -226zM623 -35q-227 0 -376 168.5t-149 429.5q0 263 151.5 430.5t377.5 167.5q141 0 253 -76t177 -235h24q-24 304 -20 788h123
v-1286q0 -131 8.5 -204t28.5 -148h-123q-19 69 -23 125t8 154h-22q-63 -158 -179 -236t-259 -78zM639 78q115 0 211.5 60.5t154.5 173t58 253.5q0 212 -123.5 348t-300.5 136q-178 0 -294 -138t-116 -348t117 -347.5t293 -137.5z" />
    <glyph glyph-name="Dcroat" unicode="&#x110;" horiz-adv-x="1650" 
d="M221 1597h557q156 0 283 -40.5t214.5 -112t146.5 -171.5t86.5 -216t27.5 -248q0 -238 -87 -420t-255.5 -285.5t-396.5 -103.5h-576v743h-170v109h170v745zM809 119q273 0 431.5 183.5t158.5 494.5q0 320 -171 501t-478 181q-263 0 -402 22l-20 -18q17 -296 20 -631h555
v-109h-555q-3 -330 -20 -626l20 -21q166 23 461 23z" />
    <glyph glyph-name="dcroat" unicode="&#x111;" horiz-adv-x="1374" 
d="M1452 1440v-105h-268v-983q0 -131 8.5 -204t28.5 -148h-123q-19 69 -23 125t8 154h-22q-63 -158 -179 -236t-259 -78q-227 0 -376 168.5t-149 429.5q0 263 151.5 430.5t377.5 167.5q141 0 253 -76t177 -235h24q-16 202 -20 485h-289v105h289v198h123v-198h268zM639 78
q115 0 211.5 60.5t154.5 173t58 253.5q0 212 -123.5 348t-300.5 136q-178 0 -294 -138t-116 -348t117 -347.5t293 -137.5z" />
    <glyph glyph-name="Emacron" unicode="&#x112;" horiz-adv-x="1349" 
d="M1020 1835h-664v107h664v-107zM1241 0h-1020v1597h1000v-118q-30 0 -199.5 -1t-236.5 0t-197 6.5t-240 16.5l-20 -18q33 -290 2 -604l18 -23q299 27 832 27v-121q-547 0 -832 24l-18 -22q31 -333 -2 -647l20 -21q319 29 893 29v-125z" />
    <glyph glyph-name="emacron" unicode="&#x113;" horiz-adv-x="1269" 
d="M983 1421h-688v105h688v-105zM651 -35q-241 0 -397 166t-156 430t154.5 432t396.5 168q47 0 93.5 -7t98.5 -24.5t97.5 -45t87.5 -72t71.5 -101t47.5 -136.5t18 -175v-51h-936q3 -211 122.5 -342t305.5 -131q148 0 253.5 83t158.5 216l113 -39q-65 -177 -206 -274
t-323 -97zM233 651h797q-1 86 -24 156t-61 115t-88.5 75.5t-103 43t-108.5 12.5q-165 0 -276 -110.5t-136 -291.5z" />
    <glyph glyph-name="Edotaccent" unicode="&#x116;" horiz-adv-x="1349" 
d="M688 1788q-46 0 -77 32t-31 78q0 43 31.5 75t76.5 32q44 0 75.5 -32t31.5 -75q0 -46 -31.5 -78t-75.5 -32zM1241 0h-1020v1597h1000v-118q-30 0 -199.5 -1t-236.5 0t-197 6.5t-240 16.5l-20 -18q33 -290 2 -604l18 -23q299 27 832 27v-121q-547 0 -832 24l-18 -22
q31 -333 -2 -647l20 -21q319 29 893 29v-125z" />
    <glyph glyph-name="edotaccent" unicode="&#x117;" horiz-adv-x="1269" 
d="M641 1425q-47 0 -78 32.5t-31 78.5q0 44 31 75t78 31q44 0 75.5 -31.5t31.5 -74.5q0 -46 -31.5 -78.5t-75.5 -32.5zM651 -35q-241 0 -397 166t-156 430t154.5 432t396.5 168q47 0 93.5 -7t98.5 -24.5t97.5 -45t87.5 -72t71.5 -101t47.5 -136.5t18 -175v-51h-936
q3 -211 122.5 -342t305.5 -131q148 0 253.5 83t158.5 216l113 -39q-65 -177 -206 -274t-323 -97zM233 651h797q-1 86 -24 156t-61 115t-88.5 75.5t-103 43t-108.5 12.5q-165 0 -276 -110.5t-136 -291.5z" />
    <glyph glyph-name="Eogonek" unicode="&#x118;" horiz-adv-x="1349" 
d="M1245 -373q37 0 88 15v-91q-55 -14 -98 -14q-116 0 -192 62.5t-76 169.5q0 137 159 231h-905v1597h1000v-118q-30 0 -199.5 -1t-236.5 0t-197 6.5t-240 16.5l-20 -18q33 -290 2 -604l18 -23q299 27 832 27v-121q-547 0 -832 24l-18 -22q31 -333 -2 -647l20 -21
q319 29 893 29v-125q-176 -87 -176 -213q0 -72 51 -116t129 -44z" />
    <glyph glyph-name="eogonek" unicode="&#x119;" horiz-adv-x="1269" 
d="M848 -2q-170 -90 -170 -211q0 -72 51 -115t127 -43q37 0 88 15v-93q-55 -14 -98 -14q-114 0 -190 62.5t-76 167.5q0 116 112 200q-14 -2 -41 -2q-241 0 -397 166t-156 430t154.5 432t396.5 168q47 0 93.5 -7t98.5 -24.5t97.5 -45t87.5 -72t71.5 -101t47.5 -136.5t18 -175
v-51h-936q3 -211 122.5 -342t305.5 -131q148 0 253.5 83t158.5 216l113 -39q-45 -124 -131.5 -211t-200.5 -127zM645 1053q-165 0 -276 -110.5t-136 -291.5h797q-1 86 -24 156t-61 115t-88.5 75.5t-103 43t-108.5 12.5z" />
    <glyph glyph-name="Ecaron" unicode="&#x11a;" horiz-adv-x="1349" 
d="M770 1720h-164l-266 303h115q5 -5 24 -23t25.5 -24t24 -23t25.5 -25.5t23 -24.5t24.5 -28t21.5 -28t22.5 -32t20.5 -33h47q11 19 24 38t23 33t27 33t25 28.5t28 29.5l25.5 25.5t28.5 28t26 25.5h114zM1241 0h-1020v1597h1000v-118q-30 0 -199.5 -1t-236.5 0t-197 6.5
t-240 16.5l-20 -18q33 -290 2 -604l18 -23q299 27 832 27v-121q-547 0 -832 24l-18 -22q31 -333 -2 -647l20 -21q319 29 893 29v-125z" />
    <glyph glyph-name="ecaron" unicode="&#x11b;" horiz-adv-x="1269" 
d="M723 1280h-168l-297 358h117q56 -56 89 -90.5t78 -88.5t79 -105h38q32 51 80.5 108t72 82t91.5 94h117zM651 -35q-241 0 -397 166t-156 430t154.5 432t396.5 168q47 0 93.5 -7t98.5 -24.5t97.5 -45t87.5 -72t71.5 -101t47.5 -136.5t18 -175v-51h-936q3 -211 122.5 -342
t305.5 -131q148 0 253.5 83t158.5 216l113 -39q-65 -177 -206 -274t-323 -97zM233 651h797q-1 86 -24 156t-61 115t-88.5 75.5t-103 43t-108.5 12.5q-165 0 -276 -110.5t-136 -291.5z" />
    <glyph glyph-name="Gbreve" unicode="&#x11e;" horiz-adv-x="1800" 
d="M866 1726q-84 0 -155 29t-117 76t-72.5 103.5t-29.5 113.5h112q6 -85 81 -151t181 -66q107 0 182 66t80 151h113q-2 -57 -29 -113.5t-73 -103.5t-117.5 -76t-155.5 -29zM903 -35q-171 0 -318.5 61.5t-251.5 170t-163 262t-59 332.5q0 184 62 342t169 266.5t253.5 169.5
t311.5 61q112 0 219.5 -28.5t202 -84t168.5 -146t111 -204.5l-117 -49q-73 185 -230.5 287t-351.5 102q-133 0 -251.5 -49t-209 -138.5t-143.5 -226.5t-53 -302q0 -138 38 -255t102.5 -198.5t150.5 -138.5t182.5 -84t198.5 -27q255 0 425 164.5t214 433.5l-15 16
q-310 -40 -587 -40v114h698v-776h-109q0 17 -2 88.5t-2 104t3.5 91.5t11.5 111l-25 2q-80 -211 -240.5 -321.5t-392.5 -110.5z" />
    <glyph glyph-name="gbreve" unicode="&#x11f;" horiz-adv-x="1370" 
d="M659 1276q-169 0 -267.5 111.5t-104.5 283.5h112q4 -133 77.5 -212t185.5 -79q114 0 186 78.5t76 212.5h112q-6 -173 -105.5 -284t-271.5 -111zM666 -483q-389 0 -508 331l112 37q92 -260 396 -260q63 0 117.5 13.5t106.5 48.5t88.5 89.5t58.5 141.5t22 199q0 111 20 168
h-24q-66 -137 -180.5 -211t-251.5 -74q-150 0 -271 77t-188.5 210.5t-67.5 296.5q0 125 41 233t111.5 183t167.5 118t207 43q136 0 253 -84t179 -227h22q-14 98 -14 278h119v-985q0 -169 -38 -292.5t-108.5 -195t-162 -105t-207.5 -33.5zM637 113q175 0 299.5 136.5
t124.5 338.5q0 199 -124 330t-300 131q-177 0 -293.5 -133t-116.5 -330q0 -200 118 -336.5t292 -136.5z" />
    <glyph glyph-name="Gdotaccent" unicode="&#x120;" horiz-adv-x="1800" 
d="M866 1788q-46 0 -77 32t-31 78q0 43 31.5 75t76.5 32q44 0 75.5 -32t31.5 -75q0 -46 -31.5 -78t-75.5 -32zM903 -35q-171 0 -318.5 61.5t-251.5 170t-163 262t-59 332.5q0 184 62 342t169 266.5t253.5 169.5t311.5 61q112 0 219.5 -28.5t202 -84t168.5 -146t111 -204.5
l-117 -49q-73 185 -230.5 287t-351.5 102q-133 0 -251.5 -49t-209 -138.5t-143.5 -226.5t-53 -302q0 -138 38 -255t102.5 -198.5t150.5 -138.5t182.5 -84t198.5 -27q255 0 425 164.5t214 433.5l-15 16q-310 -40 -587 -40v114h698v-776h-109q0 17 -2 88.5t-2 104t3.5 91.5
t11.5 111l-25 2q-80 -211 -240.5 -321.5t-392.5 -110.5z" />
    <glyph glyph-name="gdotaccent" unicode="&#x121;" horiz-adv-x="1370" 
d="M664 1425q-47 0 -78 32.5t-31 78.5q0 44 31.5 75t77.5 31q44 0 75 -31.5t31 -74.5q0 -46 -31 -78.5t-75 -32.5zM666 -483q-389 0 -508 331l112 37q92 -260 396 -260q63 0 117.5 13.5t106.5 48.5t88.5 89.5t58.5 141.5t22 199q0 111 20 168h-24q-66 -137 -180.5 -211
t-251.5 -74q-150 0 -271 77t-188.5 210.5t-67.5 296.5q0 125 41 233t111.5 183t167.5 118t207 43q136 0 253 -84t179 -227h22q-14 98 -14 278h119v-985q0 -169 -38 -292.5t-108.5 -195t-162 -105t-207.5 -33.5zM637 113q175 0 299.5 136.5t124.5 338.5q0 199 -124 330
t-300 131q-177 0 -293.5 -133t-116.5 -330q0 -200 118 -336.5t292 -136.5z" />
    <glyph glyph-name="uni0122" unicode="&#x122;" horiz-adv-x="1800" 
d="M903 -35q-171 0 -318.5 61.5t-251.5 170t-163 262t-59 332.5q0 184 62 342t169 266.5t253.5 169.5t311.5 61q112 0 219.5 -28.5t202 -84t168.5 -146t111 -204.5l-117 -49q-73 185 -230.5 287t-351.5 102q-133 0 -251.5 -49t-209 -138.5t-143.5 -226.5t-53 -302
q0 -138 38 -255t102.5 -198.5t150.5 -138.5t182.5 -84t198.5 -27q255 0 425 164.5t214 433.5l-15 16q-310 -40 -587 -40v114h698v-776h-109q0 17 -2 88.5t-2 104t3.5 91.5t11.5 111l-25 2q-80 -211 -240.5 -321.5t-392.5 -110.5zM846 -508h-64q2 3 14 26t15 29t14 26
t18 30.5t18.5 27.5t23.5 32t26 30q-63 0 -90.5 27t-27.5 69q0 41 29.5 67.5t72.5 26.5t72.5 -29.5t29.5 -72.5q0 -37 -28 -89t-123 -200z" />
    <glyph glyph-name="uni0123" unicode="&#x123;" horiz-adv-x="1370" 
d="M532 1354q0 37 29.5 91.5t149.5 252.5h80q-58 -122 -142 -268q46 6 68 -19.5t22 -64.5q0 -43 -29.5 -69t-70.5 -26q-45 0 -76 30t-31 73zM666 -483q-389 0 -508 331l112 37q92 -260 396 -260q63 0 117.5 13.5t106.5 48.5t88.5 89.5t58.5 141.5t22 199q0 111 20 168h-24
q-66 -137 -180.5 -211t-251.5 -74q-150 0 -271 77t-188.5 210.5t-67.5 296.5q0 125 41 233t111.5 183t167.5 118t207 43q136 0 253 -84t179 -227h22q-14 98 -14 278h119v-985q0 -169 -38 -292.5t-108.5 -195t-162 -105t-207.5 -33.5zM637 113q175 0 299.5 136.5t124.5 338.5
q0 199 -124 330t-300 131q-177 0 -293.5 -133t-116.5 -330q0 -200 118 -336.5t292 -136.5z" />
    <glyph glyph-name="Hbar" unicode="&#x126;" horiz-adv-x="1654" 
d="M1436 1280h137v-104h-137v-1176h-131q0 482 20 752l-18 22q-449 -54 -957 0l-20 -22q20 -258 20 -752h-129v1176h-139v104h139v317h129q0 -211 -2 -317h959q-2 106 -2 317h131v-317zM1307 848l18 22q-13 169 -16 306h-963q-3 -140 -16 -306l20 -22q508 37 957 0z" />
    <glyph glyph-name="hbar" unicode="&#x127;" horiz-adv-x="1294" 
d="M711 1161q63 0 120 -13.5t112 -47t94.5 -84t64 -130t24.5 -179.5v-707h-122v653q0 106 -26.5 185.5t-72.5 124t-101 65.5t-120 21q-71 0 -132.5 -24t-105 -65t-75 -94t-47 -112t-15.5 -119v-635h-123v1333h-188v105h188v200h123q0 -132 -2 -200h371v-105h-373
q-5 -175 -26 -450h22q133 278 410 278z" />
    <glyph glyph-name="Imacron" unicode="&#x12a;" horiz-adv-x="571" 
d="M618 1835h-663v107h663v-107zM350 0h-129v1597h129v-1597z" />
    <glyph glyph-name="imacron" unicode="&#x12b;" horiz-adv-x="495" 
d="M592 1419h-688v105h688v-105zM309 0h-123v1128h123v-1128z" />
    <glyph glyph-name="Iogonek" unicode="&#x12e;" horiz-adv-x="571" 
d="M356 -373q37 0 88 15v-91q-55 -14 -98 -14q-116 0 -192 62.5t-76 169.5q0 136 160 231h-17v1597h129v-1597h2q-176 -87 -176 -213q0 -72 51 -116t129 -44z" />
    <glyph glyph-name="iogonek" unicode="&#x12f;" horiz-adv-x="495" 
d="M250 1423q-47 0 -78 32.5t-31 78.5q0 44 31.5 75t77.5 31q44 0 75 -31.5t31 -74.5q0 -46 -31 -78.5t-75 -32.5zM309 -371q37 0 88 15v-93q-55 -14 -98 -14q-114 0 -190 62.5t-76 167.5q0 139 164 233h-11v1128h123v-1128h-4q-174 -91 -174 -213q0 -72 51 -115t127 -43z
" />
    <glyph glyph-name="Idotaccent" unicode="&#x130;" horiz-adv-x="571" 
d="M287 1788q-46 0 -77.5 32t-31.5 78q0 43 32 75t77 32q44 0 75 -32t31 -75q0 -46 -31 -78t-75 -32zM350 0h-129v1597h129v-1597z" />
    <glyph glyph-name="dotlessi" unicode="&#x131;" horiz-adv-x="495" 
d="M309 0h-123v1128h123v-1128z" />
    <glyph glyph-name="uni0136" unicode="&#x136;" horiz-adv-x="1357" 
d="M350 0h-129v1597h129v-140.5v-155.5t-1.5 -137t-5 -158.5t-9.5 -140.5t-15 -158h23q68 77 144.5 161.5t130 142.5t146 157.5t127.5 136.5t144.5 153t130.5 139h158q-11 -11 -70.5 -74.5t-75 -80t-69 -73t-76 -80t-70.5 -73.5t-78 -80l-72.5 -72.5t-81 -79t-77.5 -73.5
v-24q342 -405 709 -887h-160q-379 477 -616 817h-21q-100 -148 -225 -248q10 -197 10 -569zM682 -508h-64q1 2 10.5 20.5t11.5 22t11 20.5t13 23t13 21t15.5 23.5t16 22t19 25t20.5 23.5q-63 0 -91 27.5t-28 68.5t29.5 67.5t72.5 26.5t73 -29.5t30 -72.5q0 -37 -27.5 -87.5
t-124.5 -201.5z" />
    <glyph glyph-name="uni0137" unicode="&#x137;" horiz-adv-x="1058" 
d="M309 0h-123v1638h123q0 -37 0.5 -203.5t0 -232.5t-2 -196.5t-5.5 -235.5t-11 -211h22q214 239 533 569h151l-442 -440q172 -217 518 -688h-141q-252 334 -445 614q-90 -116 -196 -188q18 -147 18 -426zM516 -508h-63q2 3 14 26t15 29t14 26t18 30.5t18.5 27.5t23.5 32
t26 30q-63 0 -91 27.5t-28 68.5t29.5 67.5t72.5 26.5t73 -29.5t30 -72.5q0 -37 -27.5 -87.5t-124.5 -201.5z" />
    <glyph glyph-name="Lacute" unicode="&#x139;" horiz-adv-x="1212" 
d="M707 2042l-340 -322h-113l262 322h191zM1182 0h-961v1597h129q0 -990 -22 -1480l20 -21q295 29 834 29v-125z" />
    <glyph glyph-name="lacute" unicode="&#x13a;" horiz-adv-x="495" 
d="M657 2083l-340 -322h-112l262 322h190zM309 0h-123v1638h123v-1638z" />
    <glyph glyph-name="uni013B" unicode="&#x13b;" horiz-adv-x="1212" 
d="M1182 0h-961v1597h129q0 -990 -22 -1480l20 -21q295 29 834 29v-125zM600 -508h-63q2 3 14 26t15 29t14 26t18 30.5t18.5 27.5t23.5 32t26 30q-63 0 -91 27.5t-28 68.5t29.5 67.5t72.5 26.5t73 -29.5t30 -72.5q0 -37 -27.5 -87.5t-124.5 -201.5z" />
    <glyph glyph-name="uni013C" unicode="&#x13c;" horiz-adv-x="495" 
d="M309 0h-123v1638h123v-1638zM205 -508h-64q2 3 14 26t15 29t14 26t18 30.5t18.5 27.5t23.5 32t26 30q-63 0 -90.5 27t-27.5 69q0 41 29.5 67.5t72.5 26.5t72.5 -29.5t29.5 -72.5q0 -37 -28 -89t-123 -200z" />
    <glyph glyph-name="Lcaron" unicode="&#x13d;" horiz-adv-x="1212" 
d="M881 1178h-82q29 59 44 87.5t46.5 77t66.5 87.5q-104 18 -104 100q0 44 31 74t75 30q45 0 76 -30t31 -74q0 -40 -49 -126q-22 -40 -135 -226zM1182 0h-961v1597h129q0 -990 -22 -1480l20 -21q295 29 834 29v-125z" />
    <glyph glyph-name="lcaron" unicode="&#x13e;" horiz-adv-x="495" 
d="M309 0h-123v1638h123v-1638zM618 1178h-81q29 59 44 87.5t46.5 77t66.5 87.5q-104 18 -104 100q0 44 31 74t77 30q43 0 74 -30t31 -74q0 -34 -25 -82t-122 -207q-24 -41 -38 -63z" />
    <glyph glyph-name="Lslash" unicode="&#x141;" horiz-adv-x="1212" 
d="M328 117l20 -21q295 29 834 29v-125h-961v782l-174 -82v113l174 82v702h129q0 -428 -2 -643l314 148v-115l-316 -147q-3 -350 -18 -723z" />
    <glyph glyph-name="lslash" unicode="&#x142;" horiz-adv-x="495" 
d="M309 1022l199 141v-110l-199 -142v-911h-123v823l-200 -143v111l200 143v704h123v-616z" />
    <glyph glyph-name="Nacute" unicode="&#x143;" horiz-adv-x="1691" 
d="M1198 2042l-340 -322h-113l263 322h190zM350 0h-129v1597h119q545 -726 1006 -1419h22q-6 102 -11 201.5t-8 218.5t-4.5 190.5t-2.5 215.5t-1 187.5v213v192.5h132v-1597h-121q-586 776 -1004 1397h-22q9 -138 14.5 -275.5t7.5 -304t2.5 -255.5t0 -298t-0.5 -264z" />
    <glyph glyph-name="nacute" unicode="&#x144;" horiz-adv-x="1294" 
d="M1001 1671l-311 -393h-108l247 393h172zM309 0h-123v1128h119q0 -151 -26 -245h22q133 278 412 278q63 0 120 -13.5t111.5 -47t94 -84t63.5 -130t24 -179.5v-707h-122v653q0 106 -26.5 185.5t-72.5 124t-101 65.5t-120 21q-88 0 -161 -36.5t-118.5 -96t-70.5 -132.5
t-25 -149v-635z" />
    <glyph glyph-name="uni0145" unicode="&#x145;" horiz-adv-x="1691" 
d="M350 0h-129v1597h119q545 -726 1006 -1419h22q-6 102 -11 201.5t-8 218.5t-4.5 190.5t-2.5 215.5t-1 187.5v213v192.5h132v-1597h-121q-586 776 -1004 1397h-22q9 -138 14.5 -275.5t7.5 -304t2.5 -255.5t0 -298t-0.5 -264zM823 -508h-63q2 3 14 26t15 29t14 26t18 30.5
t18.5 27.5t23.5 32t26 30q-63 0 -91 27.5t-28 68.5t29.5 67.5t72.5 26.5t73 -29.5t30 -72.5q0 -37 -27.5 -87.5t-124.5 -201.5z" />
    <glyph glyph-name="uni0146" unicode="&#x146;" horiz-adv-x="1294" 
d="M309 0h-123v1128h119q0 -151 -26 -245h22q133 278 412 278q63 0 120 -13.5t111.5 -47t94 -84t63.5 -130t24 -179.5v-707h-122v653q0 106 -26.5 185.5t-72.5 124t-101 65.5t-120 21q-88 0 -161 -36.5t-118.5 -96t-70.5 -132.5t-25 -149v-635zM629 -508h-64q2 3 14 26
t15 29t14 26t18 30.5t18.5 27.5t23.5 32t26 30q-63 0 -91 27.5t-28 68.5t30 67.5t73 26.5t72.5 -29.5t29.5 -72.5q0 -37 -28 -89t-123 -200z" />
    <glyph glyph-name="Ncaron" unicode="&#x147;" horiz-adv-x="1691" 
d="M907 1720h-164l-266 303h115q5 -5 24 -23t25.5 -24t24 -23t25.5 -25.5t23 -24.5t24.5 -28t21.5 -28t22.5 -32t20.5 -33h47q11 19 24 38t23 33t27 33t25 28.5t28 29.5l25.5 25.5t28.5 28t26 25.5h114zM350 0h-129v1597h119q545 -726 1006 -1419h22q-6 102 -11 201.5
t-8 218.5t-4.5 190.5t-2.5 215.5t-1 187.5v213v192.5h132v-1597h-121q-586 776 -1004 1397h-22q9 -138 14.5 -275.5t7.5 -304t2.5 -255.5t0 -298t-0.5 -264z" />
    <glyph glyph-name="ncaron" unicode="&#x148;" horiz-adv-x="1294" 
d="M727 1280h-168l-297 358h117q56 -56 89 -90.5t78 -88.5t79 -105h39q33 51 79.5 107t73.5 84t90 93h117zM309 0h-123v1128h119q0 -151 -26 -245h22q133 278 412 278q63 0 120 -13.5t111.5 -47t94 -84t63.5 -130t24 -179.5v-707h-122v653q0 106 -26.5 185.5t-72.5 124
t-101 65.5t-120 21q-88 0 -161 -36.5t-118.5 -96t-70.5 -132.5t-25 -149v-635z" />
    <glyph glyph-name="Eng" unicode="&#x14a;" horiz-adv-x="1691" 
d="M1077 -483q-140 0 -231 57v123q92 -66 205 -66q137 0 213.5 101t78.5 274q-507 673 -995 1385h-22q9 -137 14.5 -273t7.5 -302t2.5 -254.5t0 -297.5t-0.5 -264h-129v1597h119q530 -706 1006 -1413h22q-6 101 -11 199.5t-8 217t-4.5 189.5t-2.5 214.5t-1 187v213v192.5
h132v-1525q0 -555 -396 -555z" />
    <glyph glyph-name="eng" unicode="&#x14b;" horiz-adv-x="1294" 
d="M813 -483q-125 0 -213 57v117q97 -64 193 -64q44 0 78 14.5t56 34.5t37.5 55.5t23 63t11.5 72.5t4.5 68.5t0.5 64.5v653q0 106 -26.5 185.5t-72.5 124t-101 65.5t-120 21q-88 0 -161 -36.5t-118.5 -96t-70.5 -132.5t-25 -149v-635h-123v1128h119q0 -151 -26 -245h22
q133 278 412 278q63 0 120 -13.5t111.5 -46t94 -82t63.5 -127t24 -175.5v-731q0 -50 -1 -79.5t-6.5 -85t-17 -91t-34.5 -80t-55 -70.5t-83 -44.5t-116 -18.5z" />
    <glyph glyph-name="Omacron" unicode="&#x14c;" horiz-adv-x="1820" 
d="M1241 1835h-663v107h663v-107zM909 -35q-162 0 -309 63t-255 172t-172 265t-64 332t63.5 331.5t171.5 265t255.5 173t311.5 63.5q166 0 315 -65t255.5 -176t168.5 -265.5t62 -326.5q0 -173 -63 -328t-170.5 -265t-256 -174.5t-313.5 -64.5zM913 88q131 0 251 53.5
t209.5 146t142.5 225.5t53 284t-53 284t-142.5 226t-209.5 146.5t-251 53.5q-132 0 -253.5 -53.5t-212 -146t-144 -225.5t-53.5 -285q0 -151 53.5 -284t144 -225.5t212 -146t253.5 -53.5z" />
    <glyph glyph-name="omacron" unicode="&#x14d;" horiz-adv-x="1320" 
d="M1006 1421h-689v105h689v-105zM662 -35q-250 0 -407 167t-157 431t157 431t407 167q248 0 404.5 -167t156.5 -431t-156.5 -431t-404.5 -167zM662 78q192 0 311 134.5t119 350.5q0 215 -119.5 350.5t-310.5 135.5q-192 0 -312.5 -136t-120.5 -350q0 -215 120.5 -350
t312.5 -135z" />
    <glyph glyph-name="Ohungarumlaut" unicode="&#x150;" horiz-adv-x="1820" 
d="M1055 2042l-277 -322h-112l213 322h176zM1364 2042l-293 -322h-113l230 322h176zM909 -35q-162 0 -309 63t-255 172t-172 265t-64 332t63.5 331.5t171.5 265t255.5 173t311.5 63.5q166 0 315 -65t255.5 -176t168.5 -265.5t62 -326.5q0 -173 -63 -328t-170.5 -265
t-256 -174.5t-313.5 -64.5zM913 88q131 0 251 53.5t209.5 146t142.5 225.5t53 284t-53 284t-142.5 226t-209.5 146.5t-251 53.5q-132 0 -253.5 -53.5t-212 -146t-144 -225.5t-53.5 -285q0 -151 53.5 -284t144 -225.5t212 -146t253.5 -53.5z" />
    <glyph glyph-name="ohungarumlaut" unicode="&#x151;" horiz-adv-x="1320" 
d="M807 1673l-279 -395h-106l213 395h172zM1120 1673l-295 -395h-108l231 395h172zM662 -35q-250 0 -407 167t-157 431t157 431t407 167q248 0 404.5 -167t156.5 -431t-156.5 -431t-404.5 -167zM662 78q192 0 311 134.5t119 350.5q0 215 -119.5 350.5t-310.5 135.5
q-192 0 -312.5 -136t-120.5 -350q0 -215 120.5 -350t312.5 -135z" />
    <glyph glyph-name="OE" unicode="&#x152;" horiz-adv-x="2709" 
d="M909 -35q-162 0 -309 63t-254.5 172t-171 264.5t-63.5 332.5q0 176 63 331.5t170 265t255 173t312 63.5q213 0 389 -105.5t279 -287.5v360h1001v-118q-30 0 -199.5 -1t-236.5 0t-196.5 6.5t-239.5 16.5l-22 -18q35 -286 4 -604l18 -23q299 27 832 27v-121q-547 0 -832 24
l-18 -22q31 -333 -2 -647l20 -21q317 29 893 29v-125h-1022v356q-103 -181 -280 -286t-390 -105zM913 88q130 0 250 53.5t209.5 146t143 225.5t53.5 284t-53.5 284.5t-143 226t-209.5 146t-250 53.5q-132 0 -253.5 -53.5t-212 -146t-144 -225.5t-53.5 -285q0 -151 53.5 -284
t144 -225.5t212 -146t253.5 -53.5z" />
    <glyph glyph-name="oe" unicode="&#x153;" horiz-adv-x="2265" 
d="M662 -35q-250 0 -407 167t-157 431t157 431t407 167q169 0 298 -83t195 -228q67 144 196 227.5t294 83.5q47 0 93.5 -7t98.5 -24.5t97.5 -45t87.5 -72t71.5 -101t47.5 -136.5t18 -175v-45h-938q1 -214 122 -346.5t308 -132.5q147 0 252.5 83.5t158.5 215.5l113 -39
q-65 -177 -206 -274t-324 -97q-166 0 -295.5 82.5t-194.5 226.5q-65 -144 -195 -226.5t-298 -82.5zM1227 653h798q-2 86 -26 156t-62 115t-88.5 75.5t-102 43t-106.5 12.5q-166 0 -277 -111t-136 -291zM662 78q192 0 311 134.5t119 350.5q0 215 -119.5 350.5t-310.5 135.5
q-192 0 -312.5 -136t-120.5 -350q0 -215 120.5 -350t312.5 -135z" />
    <glyph glyph-name="Racute" unicode="&#x154;" horiz-adv-x="1419" 
d="M1032 2042l-340 -322h-112l262 322h190zM350 0h-129v1597h555q229 0 374.5 -128t145.5 -343q0 -199 -118.5 -318t-317.5 -134v-23q74 -96 146 -199t172 -253.5t133 -198.5h-146l-434 645q-253 4 -403 35q22 -235 22 -680zM330 756l18 -23q152 25 420 25q183 0 287 95
t104 265q0 167 -112 264t-297 97q-245 0 -402 22l-20 -18q32 -364 2 -727z" />
    <glyph glyph-name="racute" unicode="&#x155;" horiz-adv-x="835" 
d="M825 1671l-311 -393h-108l247 393h172zM309 0h-123v1128h119q0 -16 1 -58.5t1 -67.5t-4 -69.5t-12 -88.5h22q42 153 141.5 235t229.5 82q73 0 129 -22v-133q-58 28 -139 28q-114 0 -199 -70.5t-125.5 -176.5t-40.5 -226v-561z" />
    <glyph glyph-name="uni0156" unicode="&#x156;" horiz-adv-x="1419" 
d="M350 0h-129v1597h555q229 0 374.5 -128t145.5 -343q0 -199 -118.5 -318t-317.5 -134v-23q74 -96 146 -199t172 -253.5t133 -198.5h-146l-434 645q-253 4 -403 35q22 -235 22 -680zM330 756l18 -23q152 25 420 25q183 0 287 95t104 265q0 167 -112 264t-297 97
q-245 0 -402 22l-20 -18q32 -364 2 -727zM678 -508h-64q2 3 14 26t15 29t14 26t18 30.5t18.5 27.5t23.5 32t26 30q-63 0 -90.5 27t-27.5 69q0 41 29.5 67.5t72.5 26.5t72.5 -29.5t29.5 -72.5q0 -37 -28 -89t-123 -200z" />
    <glyph glyph-name="uni0157" unicode="&#x157;" horiz-adv-x="835" 
d="M309 0h-123v1128h119q0 -16 1 -58.5t1 -67.5t-4 -69.5t-12 -88.5h22q42 153 141.5 235t229.5 82q73 0 129 -22v-133q-58 28 -139 28q-114 0 -199 -70.5t-125.5 -176.5t-40.5 -226v-561zM197 -508h-64q2 3 14 26t15 29t14 26t18 30.5t18.5 27.5t23.5 32t26 30
q-63 0 -91 27.5t-28 68.5t30 67.5t73 26.5t72.5 -29.5t29.5 -72.5q0 -37 -28 -89t-123 -200z" />
    <glyph glyph-name="Rcaron" unicode="&#x158;" horiz-adv-x="1419" 
d="M741 1720h-163l-267 303h115q5 -5 24 -23t25.5 -24t24 -23t25.5 -25.5t23 -24.5t24.5 -28t21.5 -28t22.5 -32t20.5 -33h47q11 19 24 38t23 33t27 33t25 28.5t28 29.5l25.5 25.5t28.5 28t26 25.5h115zM350 0h-129v1597h555q229 0 374.5 -128t145.5 -343
q0 -199 -118.5 -318t-317.5 -134v-23q74 -96 146 -199t172 -253.5t133 -198.5h-146l-434 645q-253 4 -403 35q22 -235 22 -680zM330 756l18 -23q152 25 420 25q183 0 287 95t104 265q0 167 -112 264t-297 97q-245 0 -402 22l-20 -18q32 -364 2 -727z" />
    <glyph glyph-name="rcaron" unicode="&#x159;" horiz-adv-x="835" 
d="M549 1280h-168l-297 358h117q169 -169 245 -284h39q32 51 80.5 108t72 82t91.5 94h117zM309 0h-123v1128h119q0 -16 1 -58.5t1 -67.5t-4 -69.5t-12 -88.5h22q42 153 141.5 235t229.5 82q73 0 129 -22v-133q-58 28 -139 28q-114 0 -199 -70.5t-125.5 -176.5t-40.5 -226
v-561z" />
    <glyph glyph-name="Sacute" unicode="&#x15a;" horiz-adv-x="1318" 
d="M965 2040l-340 -320h-113l262 320h191zM680 -35q-72 0 -141 14.5t-140.5 49t-130.5 86.5t-108 133.5t-76 183.5l121 45q50 -187 179 -289t298 -102q72 0 140 19t126 56t93.5 101.5t35.5 147.5q0 58 -19 104t-48 75t-74 52.5t-85 37.5t-92 30q-19 5 -28 8l-149 47
q-44 14 -75.5 25t-81 33.5t-85 45t-75.5 58t-65 74.5t-42 93t-17 115q0 103 44.5 185.5t118.5 133t164 77t187 26.5q188 0 330 -99.5t195 -283.5l-117 -49q-45 143 -156 227t-266 84t-260 -80t-105 -210q0 -45 15 -85.5t35 -69t55.5 -56t60.5 -43t68 -33.5t59 -23.5
t52 -17.5l155 -51q152 -48 206 -72q184 -85 226 -237q13 -48 13 -103q0 -104 -44.5 -192t-119 -146.5t-172.5 -91.5t-205 -33z" />
    <glyph glyph-name="sacute" unicode="&#x15b;" horiz-adv-x="1009" 
d="M860 1671l-311 -393h-109l248 393h172zM532 -35q-164 0 -290 87t-172 229l114 38q42 -109 141.5 -178t209.5 -69q40 0 82.5 11t85.5 34t70.5 67t27.5 103q0 38 -14.5 69t-35 51t-57 37.5t-65 27t-74.5 22.5l-106 30q-29 8 -51 15t-58.5 22t-63 31.5t-57.5 42.5
t-50.5 55.5t-32.5 71t-13 88.5q0 77 33 138.5t87 98t117.5 55.5t128.5 19q141 0 251 -77.5t149 -196.5l-121 -41q-32 89 -108 149t-183 60q-100 0 -164.5 -52.5t-64.5 -140.5q0 -43 18 -79t43.5 -59t65.5 -43t69.5 -30t71.5 -22l109 -33q34 -10 56.5 -17t57.5 -21
t58.5 -28.5t50.5 -37.5t43.5 -48.5t27.5 -61.5t11 -77q0 -143 -112.5 -241.5t-285.5 -98.5z" />
    <glyph glyph-name="Scedilla" unicode="&#x15e;" horiz-adv-x="1318" 
d="M709 -35q-44 -61 -107 -125l8 -8q52 25 99 25q80 0 131 -45t51 -117q0 -82 -63 -133t-160 -51q-73 0 -140 30t-110 80l53 53q34 -41 85.5 -65.5t105.5 -24.5q59 0 99 30t40 77q0 44 -35.5 72t-91.5 28q-53 0 -96 -24l-54 49l99 151q-85 7 -163.5 35.5t-153 81.5t-133 142
t-89.5 206l121 45q50 -187 179 -289t298 -102q72 0 140 19t126 56t93.5 101.5t35.5 147.5q0 58 -19 104t-48 75t-74 52.5t-85 37.5t-92 30q-19 5 -28 8l-149 47q-44 14 -75.5 25t-81 33.5t-85 45t-75.5 58t-65 74.5t-42 93t-17 115q0 103 44.5 185.5t118.5 133t164 77
t187 26.5q188 0 330 -99.5t195 -283.5l-117 -49q-45 143 -156 227t-266 84t-260 -80t-105 -210q0 -45 15 -85.5t35 -69t55.5 -56t60.5 -43t68 -33.5t59 -23.5t52 -17.5l155 -51q152 -48 206 -72q184 -85 226 -237q13 -48 13 -103q0 -133 -71.5 -238t-187.5 -162t-253 -63z
" />
    <glyph glyph-name="scedilla" unicode="&#x15f;" horiz-adv-x="1009" 
d="M557 -35q-46 -65 -106 -125l8 -8q52 25 98 25q80 0 131 -45t51 -117q0 -82 -63 -133t-160 -51q-73 0 -140 30t-110 80l53 53q34 -41 85.5 -65.5t105.5 -24.5q59 0 99 30t40 77q0 44 -35.5 72t-91.5 28q-53 0 -96 -24l-53 49l98 153q-144 15 -252 99.5t-149 212.5l114 38
q42 -109 141.5 -178t209.5 -69q40 0 82.5 11t85.5 34t70.5 67t27.5 103q0 38 -14.5 69t-35 51t-57 37.5t-65 27t-74.5 22.5l-106 30q-29 8 -51 15t-58.5 22t-63 31.5t-57.5 42.5t-50.5 55.5t-32.5 71t-13 88.5q0 77 33 138.5t87 98t117.5 55.5t128.5 19q141 0 251 -77.5
t149 -196.5l-121 -41q-32 89 -108 149t-183 60q-100 0 -164.5 -52.5t-64.5 -140.5q0 -43 18 -79t43.5 -59t65.5 -43t69.5 -30t71.5 -22l109 -33q34 -10 56.5 -17t57.5 -21t58.5 -28.5t50.5 -37.5t43.5 -48.5t27.5 -61.5t11 -77q0 -138 -104.5 -235.5t-268.5 -104.5z" />
    <glyph glyph-name="Scaron" unicode="&#x160;" horiz-adv-x="1318" 
d="M733 1720h-164l-266 303h115q5 -5 24 -23t25.5 -24t24 -23t25.5 -25.5t23 -24.5t24.5 -28t21.5 -28t22.5 -32t20.5 -33h47q11 19 24 38t23 33t27 33t25 28.5t28 29.5l25.5 25.5t28.5 28t26 25.5h114zM680 -35q-72 0 -141 14.5t-140.5 49t-130.5 86.5t-108 133.5
t-76 183.5l121 45q50 -187 179 -289t298 -102q72 0 140 19t126 56t93.5 101.5t35.5 147.5q0 58 -19 104t-48 75t-74 52.5t-85 37.5t-92 30q-19 5 -28 8l-149 47q-44 14 -75.5 25t-81 33.5t-85 45t-75.5 58t-65 74.5t-42 93t-17 115q0 103 44.5 185.5t118.5 133t164 77
t187 26.5q188 0 330 -99.5t195 -283.5l-117 -49q-45 143 -156 227t-266 84t-260 -80t-105 -210q0 -45 15 -85.5t35 -69t55.5 -56t60.5 -43t68 -33.5t59 -23.5t52 -17.5l155 -51q152 -48 206 -72q184 -85 226 -237q13 -48 13 -103q0 -104 -44.5 -192t-119 -146.5
t-172.5 -91.5t-205 -33z" />
    <glyph glyph-name="scaron" unicode="&#x161;" horiz-adv-x="1009" 
d="M586 1280h-168l-297 358h117q169 -169 245 -284h39q32 51 80.5 108t72 82t91.5 94h117zM532 -35q-164 0 -290 87t-172 229l114 38q42 -109 141.5 -178t209.5 -69q40 0 82.5 11t85.5 34t70.5 67t27.5 103q0 38 -14.5 69t-35 51t-57 37.5t-65 27t-74.5 22.5l-106 30
q-29 8 -51 15t-58.5 22t-63 31.5t-57.5 42.5t-50.5 55.5t-32.5 71t-13 88.5q0 77 33 138.5t87 98t117.5 55.5t128.5 19q141 0 251 -77.5t149 -196.5l-121 -41q-32 89 -108 149t-183 60q-100 0 -164.5 -52.5t-64.5 -140.5q0 -43 18 -79t43.5 -59t65.5 -43t69.5 -30t71.5 -22
l109 -33q34 -10 56.5 -17t57.5 -21t58.5 -28.5t50.5 -37.5t43.5 -48.5t27.5 -61.5t11 -77q0 -143 -112.5 -241.5t-285.5 -98.5z" />
    <glyph glyph-name="uni0162" unicode="&#x162;" horiz-adv-x="1298" 
d="M715 0h-21q-69 -100 -131 -160l8 -8q52 25 99 25q80 0 131 -45t51 -117q0 -82 -63 -133t-160 -51q-73 0 -140 30t-110 80l53 53q34 -41 85.5 -65.5t105.5 -24.5q59 0 99 30t40 77q0 44 -35.5 72t-91.5 28q-53 0 -96 -24l-54 49l119 184h-20q0 1009 22 1501
q-198 -22 -573 -22v118h1235v-118q-378 0 -576 22q23 -514 23 -1501z" />
    <glyph glyph-name="uni0163" unicode="&#x163;" horiz-adv-x="770" 
d="M723 1128v-108q-240 0 -373 22q23 -240 23 -673q0 -38 0.5 -58t3.5 -56t8.5 -56.5t17.5 -47t29 -40.5t43 -24.5t60 -10.5q92 0 188 65v-118q-85 -58 -209 -58q-27 0 -39 2q-55 -77 -108 -127l8 -8q52 25 98 25q80 0 131 -45t51 -117q0 -82 -63 -133t-160 -51
q-73 0 -140 30t-110 80l54 53q34 -41 85 -65.5t105 -24.5q59 0 99 30t40 77q0 44 -35.5 72t-91.5 28q-53 0 -96 -24l-53 49l108 170q-35 14 -61.5 37.5t-42 56.5t-25 61.5t-13 70t-4.5 64t-1 60.5q0 467 22 706q-94 -22 -247 -22v108q149 0 247 -20q-22 127 -22 358h123
q0 -225 -23 -358q139 20 373 20z" />
    <glyph glyph-name="Tcaron" unicode="&#x164;" horiz-adv-x="1298" 
d="M731 1720h-164l-266 303h115q5 -5 24 -23t25.5 -24t24 -23t25.5 -25.5t23 -24.5t24.5 -28t21.5 -28t22.5 -32t20.5 -33h47q11 19 24 38t23 33t27 33t25 28.5t28 29.5l25.5 25.5t28.5 28t26 25.5h114zM715 0h-131q0 1009 22 1501q-198 -22 -573 -22v118h1235v-118
q-378 0 -576 22q23 -514 23 -1501z" />
    <glyph glyph-name="tcaron" unicode="&#x165;" horiz-adv-x="770" 
d="M856 1180h-82q78 164 158 252q-105 18 -105 100q0 44 31.5 75t77.5 31q43 0 73.5 -30.5t30.5 -73.5q0 -36 -26.5 -87t-130.5 -222q-5 -9 -8.5 -14.5t-9 -14.5t-9.5 -16zM514 -35q-43 0 -78.5 9t-61 22.5t-46 36.5t-33.5 43t-22 51.5t-13.5 53.5t-6.5 56t-2.5 51.5
t-0.5 47.5q0 467 22 706q-94 -22 -247 -22v108q149 0 247 -20q-22 127 -22 358h123q0 -225 -23 -358q139 20 373 20v-108q-240 0 -373 22q23 -240 23 -673q0 -38 0.5 -58t3.5 -56t8.5 -56.5t17.5 -47t29 -40.5t43 -24.5t60 -10.5q92 0 188 65v-118q-85 -58 -209 -58z" />
    <glyph glyph-name="Tbar" unicode="&#x166;" horiz-adv-x="1298" 
d="M1268 1597v-118q-378 0 -576 22q12 -253 19 -649h366v-109h-364q2 -250 2 -743h-131q0 493 2 743h-361v109h363q8 433 18 649q-198 -22 -573 -22v118h1235z" />
    <glyph glyph-name="tbar" unicode="&#x167;" horiz-adv-x="770" 
d="M723 1128v-108q-240 0 -373 22q14 -138 21 -354h336v-104h-334v-215q0 -38 0.5 -58t3.5 -56t8.5 -56.5t17.5 -47t29 -40.5t43 -24.5t60 -10.5q92 0 188 65v-118q-85 -58 -209 -58q-43 0 -78.5 9t-61 22.5t-46 36.5t-33.5 43t-22 51.5t-13.5 53.5t-6.5 56t-2.5 51.5
t-0.5 47.5q0 164 2 248h-225v104h225q7 189 20 354q-94 -22 -247 -22v108q149 0 247 -20q-22 127 -22 358h123q0 -225 -23 -358q139 20 373 20z" />
    <glyph glyph-name="Umacron" unicode="&#x16a;" horiz-adv-x="1542" 
d="M1102 1835h-664v107h664v-107zM766 -35q-270 0 -417.5 155t-147.5 455v1022h131v-1015q0 -256 115 -377t323 -121q209 0 324.5 121t115.5 377v1015h131v-1022q0 -135 -34.5 -245t-103 -192.5t-180 -127.5t-257.5 -45z" />
    <glyph glyph-name="umacron" unicode="&#x16b;" horiz-adv-x="1275" 
d="M963 1421h-689v105h689v-105zM575 -35q-78 0 -147 23.5t-128.5 74t-94.5 142t-35 215.5v708h123v-657q0 -108 27 -187.5t73 -122.5t99 -63t114 -20q68 0 126.5 24.5t100.5 65.5t72.5 94t45 110.5t14.5 114.5v641h122v-776q0 -131 8.5 -204t28.5 -148h-125
q-12 50 -17 82.5t-4.5 80t11.5 99.5h-22q-116 -297 -392 -297z" />
    <glyph glyph-name="Uring" unicode="&#x16e;" horiz-adv-x="1542" 
d="M772 1716q-97 0 -161 61t-64 156q0 93 64 154t161 61q94 0 157.5 -61t63.5 -154q0 -95 -63 -156t-158 -61zM772 1802q57 0 95 35.5t38 95.5q0 59 -38 94t-95 35q-60 0 -98.5 -35t-38.5 -94q0 -60 38.5 -95.5t98.5 -35.5zM766 -35q-270 0 -417.5 155t-147.5 455v1022h131
v-1015q0 -256 115 -377t323 -121q209 0 324.5 121t115.5 377v1015h131v-1022q0 -135 -34.5 -245t-103 -192.5t-180 -127.5t-257.5 -45z" />
    <glyph glyph-name="uring" unicode="&#x16f;" horiz-adv-x="1275" 
d="M618 1247q-97 0 -161 61t-64 156q0 93 64 154t161 61q94 0 158 -61t64 -154q0 -94 -63.5 -155.5t-158.5 -61.5zM618 1333q57 0 95.5 35.5t38.5 95.5q0 58 -38.5 93.5t-95.5 35.5q-61 0 -99 -35t-38 -94q0 -61 38 -96t99 -35zM575 -35q-78 0 -147 23.5t-128.5 74
t-94.5 142t-35 215.5v708h123v-657q0 -108 27 -187.5t73 -122.5t99 -63t114 -20q68 0 126.5 24.5t100.5 65.5t72.5 94t45 110.5t14.5 114.5v641h122v-776q0 -131 8.5 -204t28.5 -148h-125q-12 50 -17 82.5t-4.5 80t11.5 99.5h-22q-116 -297 -392 -297z" />
    <glyph glyph-name="Uhungarumlaut" unicode="&#x170;" horiz-adv-x="1542" 
d="M915 2042l-276 -322h-113l213 322h176zM1225 2042l-293 -322h-113l230 322h176zM766 -35q-270 0 -417.5 155t-147.5 455v1022h131v-1015q0 -256 115 -377t323 -121q209 0 324.5 121t115.5 377v1015h131v-1022q0 -135 -34.5 -245t-103 -192.5t-180 -127.5t-257.5 -45z" />
    <glyph glyph-name="uhungarumlaut" unicode="&#x171;" horiz-adv-x="1275" 
d="M764 1673l-279 -395h-106l213 395h172zM1077 1673l-295 -395h-108l231 395h172zM575 -35q-78 0 -147 23.5t-128.5 74t-94.5 142t-35 215.5v708h123v-657q0 -108 27 -187.5t73 -122.5t99 -63t114 -20q68 0 126.5 24.5t100.5 65.5t72.5 94t45 110.5t14.5 114.5v641h122
v-776q0 -131 8.5 -204t28.5 -148h-125q-12 50 -17 82.5t-4.5 80t11.5 99.5h-22q-116 -297 -392 -297z" />
    <glyph glyph-name="Uogonek" unicode="&#x172;" horiz-adv-x="1542" 
d="M1210 582v1015h131v-1022q0 -123 -28 -224.5t-84 -181.5t-146.5 -131t-210.5 -67q-124 -77 -124 -184q0 -72 51 -116t129 -44q37 0 88 15v-91q-55 -14 -98 -14q-116 0 -192.5 62.5t-76.5 169.5q0 114 109 196q-266 3 -411.5 158t-145.5 452v1022h131v-1015
q0 -256 115 -377t323 -121q209 0 324.5 121t115.5 377z" />
    <glyph glyph-name="uogonek" unicode="&#x173;" horiz-adv-x="1275" 
d="M1114 -371q37 0 88 15v-93q-55 -14 -98 -14q-114 0 -190 62.5t-76 167.5q0 140 163 233h-2q-12 50 -17 82.5t-4.5 80t11.5 99.5h-22q-116 -297 -392 -297q-78 0 -147 23.5t-128.5 74t-94.5 142t-35 215.5v708h123v-657q0 -108 27 -187.5t73 -122.5t99 -63t114 -20
q68 0 126.5 24.5t100.5 65.5t72.5 94t45 110.5t14.5 114.5v641h122v-776q0 -131 8.5 -204t28.5 -148h-14q-174 -91 -174 -213q0 -72 51 -115t127 -43z" />
    <glyph glyph-name="Wcircumflex" unicode="&#x174;" horiz-adv-x="2322" 
d="M928 1720h-115l266 303h162l268 -303h-114q-53 50 -77 73.5t-64 72t-68 96.5h-47q-9 -15 -19 -30.5t-18.5 -27.5t-21.5 -27.5t-20 -24t-22 -24.5t-21 -22l-23 -23t-21 -20.5t-23 -21.5t-22 -21zM717 0h-158l-520 1597h139q286 -846 453 -1456h22q148 546 434 1456h148
q291 -913 440 -1460h23q189 697 446 1460h140l-521 -1597h-155q-249 741 -434 1444h-25q-184 -702 -432 -1444z" />
    <glyph glyph-name="wcircumflex" unicode="&#x175;" horiz-adv-x="1855" 
d="M659 1278h-116l297 356h168l297 -356h-117q-58 58 -89 90.5t-75.5 87t-75.5 105.5h-49q-72 -119 -240 -283zM580 0h-127l-414 1128h135q87 -243 121.5 -338.5t100 -295.5t112.5 -369h24q97 340 309 938q15 43 23 65h125q198 -541 279 -797q34 -105 63 -206h25
q103 377 325 1003h136l-414 -1128h-129q-222 604 -342 983h-10q-105 -338 -342 -983z" />
    <glyph glyph-name="Ycircumflex" unicode="&#x176;" horiz-adv-x="1411" 
d="M471 1720h-115l267 303h161l269 -303h-115q-53 50 -77 73.5t-64 72t-68 96.5h-47q-9 -15 -19 -30.5t-18.5 -27.5t-21.5 -27.5t-20 -24t-22 -24.5t-21 -22l-23 -23t-21 -20.5t-23 -21.5t-22 -21zM770 0h-131q0 393 12 590q-239 381 -610 1007h143q337 -572 510 -913h23
q26 53 52.5 104t59 110.5t53 97.5t60.5 108t53.5 94.5t61 105.5t54.5 93.5t61.5 104t56.5 95.5h139q-403 -681 -610 -1007q12 -197 12 -590z" />
    <glyph glyph-name="ycircumflex" unicode="&#x177;" horiz-adv-x="1105" 
d="M276 1278h-116l297 356h168l297 -356h-117q-58 58 -89 90.5t-75.5 87t-75.5 105.5h-49q-72 -119 -240 -283zM434 -451h-112l172 439l-459 1140h133q223 -552 377 -1026h22q143 454 371 1026h133z" />
    <glyph glyph-name="Ydieresis" unicode="&#x178;" horiz-adv-x="1411" 
d="M510 1790q-44 0 -73 30.5t-29 73.5q0 42 29 71.5t73 29.5q42 0 71 -29.5t29 -71.5q0 -43 -29 -73.5t-71 -30.5zM899 1790q-44 0 -73 30.5t-29 73.5q0 42 29 71.5t73 29.5q42 0 71 -29.5t29 -71.5q0 -43 -29 -73.5t-71 -30.5zM770 0h-131q0 393 12 590q-239 381 -610 1007
h143q337 -572 510 -913h23q26 53 52.5 104t59 110.5t53 97.5t60.5 108t53.5 94.5t61 105.5t54.5 93.5t61.5 104t56.5 95.5h139q-403 -681 -610 -1007q12 -197 12 -590z" />
    <glyph glyph-name="Zacute" unicode="&#x179;" horiz-adv-x="1341" 
d="M1016 2042l-340 -322h-113l262 322h191zM1280 0h-1221v111q375 507 1059 1380l-10 22q-446 -34 -1008 -34v118h1162v-106q-122 -163 -268.5 -354.5t-246.5 -320t-282 -361.5t-264 -338l10 -23q428 31 1069 31v-125z" />
    <glyph glyph-name="zacute" unicode="&#x17a;" horiz-adv-x="989" 
d="M854 1671l-311 -393h-109l248 393h172zM938 0h-879v92q29 40 157 219.5t183.5 256t156.5 212.5t187 246l-8 23q-326 -33 -637 -33v112h795v-92q-401 -555 -688 -923l8 -23q256 23 725 23v-113z" />
    <glyph glyph-name="Zdotaccent" unicode="&#x17b;" horiz-adv-x="1341" 
d="M653 1788q-46 0 -77 32t-31 78q0 43 31.5 75t76.5 32q44 0 75.5 -32t31.5 -75q0 -46 -31.5 -78t-75.5 -32zM1280 0h-1221v111q375 507 1059 1380l-10 22q-446 -34 -1008 -34v118h1162v-106q-122 -163 -268.5 -354.5t-246.5 -320t-282 -361.5t-264 -338l10 -23
q428 31 1069 31v-125z" />
    <glyph glyph-name="zdotaccent" unicode="&#x17c;" horiz-adv-x="989" 
d="M500 1425q-47 0 -78 32.5t-31 78.5q0 44 31.5 75t77.5 31q44 0 75 -31.5t31 -74.5q0 -46 -31 -78.5t-75 -32.5zM938 0h-879v92q29 40 157 219.5t183.5 256t156.5 212.5t187 246l-8 23q-326 -33 -637 -33v112h795v-92q-401 -555 -688 -923l8 -23q256 23 725 23v-113z" />
    <glyph glyph-name="Zcaron" unicode="&#x17d;" horiz-adv-x="1341" 
d="M723 1720h-164l-266 303h115q3 -3 22 -20.5t23 -21.5t21 -20.5t23 -23t20.5 -22t22 -24.5l20 -24t21 -27t18.5 -27.5t19 -30.5h48q10 17 20 32.5t23 32.5t21 27.5t24 28.5t21.5 24.5t25 26l22.5 22.5t25.5 24.5t23.5 22.5h115zM1280 0h-1221v111q375 507 1059 1380
l-10 22q-446 -34 -1008 -34v118h1162v-106q-122 -163 -268.5 -354.5t-246.5 -320t-282 -361.5t-264 -338l10 -23q428 31 1069 31v-125z" />
    <glyph glyph-name="zcaron" unicode="&#x17e;" horiz-adv-x="989" 
d="M580 1280h-168l-297 358h116q56 -56 89 -90.5t78 -88.5t79 -105h39q32 51 80.5 108t72 82t91.5 94h117zM938 0h-879v92q29 40 157 219.5t183.5 256t156.5 212.5t187 246l-8 23q-326 -33 -637 -33v112h795v-92q-401 -555 -688 -923l8 -23q256 23 725 23v-113z" />
    <glyph glyph-name="uni0218" unicode="&#x218;" horiz-adv-x="1318" 
d="M680 -35q-72 0 -141 14.5t-140.5 49t-130.5 86.5t-108 133.5t-76 183.5l121 45q50 -187 179 -289t298 -102q72 0 140 19t126 56t93.5 101.5t35.5 147.5q0 58 -19 104t-48 75t-74 52.5t-85 37.5t-92 30q-19 5 -28 8l-149 47q-44 14 -75.5 25t-81 33.5t-85 45t-75.5 58
t-65 74.5t-42 93t-17 115q0 103 44.5 185.5t118.5 133t164 77t187 26.5q188 0 330 -99.5t195 -283.5l-117 -49q-45 143 -156 227t-266 84t-260 -80t-105 -210q0 -45 15 -85.5t35 -69t55.5 -56t60.5 -43t68 -33.5t59 -23.5t52 -17.5l155 -51q152 -48 206 -72
q184 -85 226 -237q13 -48 13 -103q0 -104 -44.5 -192t-119 -146.5t-172.5 -91.5t-205 -33zM631 -508h-64q2 3 14 26t15 29t14 26t18 30.5t18.5 27.5t23.5 32t26 30q-63 0 -90.5 27t-27.5 69q0 41 29.5 67.5t72.5 26.5t72.5 -29.5t29.5 -72.5q0 -37 -28 -89t-123 -200z" />
    <glyph glyph-name="uni0219" unicode="&#x219;" horiz-adv-x="1009" 
d="M532 -35q-164 0 -290 87t-172 229l114 38q42 -109 141.5 -178t209.5 -69q40 0 82.5 11t85.5 34t70.5 67t27.5 103q0 38 -14.5 69t-35 51t-57 37.5t-65 27t-74.5 22.5l-106 30q-29 8 -51 15t-58.5 22t-63 31.5t-57.5 42.5t-50.5 55.5t-32.5 71t-13 88.5q0 77 33 138.5
t87 98t117.5 55.5t128.5 19q141 0 251 -77.5t149 -196.5l-121 -41q-32 89 -108 149t-183 60q-100 0 -164.5 -52.5t-64.5 -140.5q0 -43 18 -79t43.5 -59t65.5 -43t69.5 -30t71.5 -22l109 -33q34 -10 56.5 -17t57.5 -21t58.5 -28.5t50.5 -37.5t43.5 -48.5t27.5 -61.5t11 -77
q0 -143 -112.5 -241.5t-285.5 -98.5zM479 -508h-63q2 3 14 26t15 29t14 26t18 30.5t18.5 27.5t23.5 32t26 30q-63 0 -91 27.5t-28 68.5t29.5 67.5t72.5 26.5t73 -29.5t30 -72.5q0 -37 -27.5 -87.5t-124.5 -201.5z" />
    <glyph glyph-name="uni021A" unicode="&#x21a;" horiz-adv-x="1298" 
d="M715 0h-131q0 1009 22 1501q-198 -22 -573 -22v118h1235v-118q-378 0 -576 22q23 -514 23 -1501zM594 -508h-64q2 3 14 26t15 29t14 26t18 30.5t18.5 27.5t23.5 32t26 30q-63 0 -90.5 27t-27.5 69q0 41 29.5 67.5t72.5 26.5t72.5 -29.5t29.5 -72.5q0 -37 -28 -89
t-123 -200z" />
    <glyph glyph-name="uni021B" unicode="&#x21b;" horiz-adv-x="770" 
d="M514 -35q-43 0 -78.5 9t-61 22.5t-46 36.5t-33.5 43t-22 51.5t-13.5 53.5t-6.5 56t-2.5 51.5t-0.5 47.5q0 467 22 706q-94 -22 -247 -22v108q149 0 247 -20q-22 127 -22 358h123q0 -225 -23 -358q139 20 373 20v-108q-240 0 -373 22q23 -240 23 -673q0 -38 0.5 -58
t3.5 -56t8.5 -56.5t17.5 -47t29 -40.5t43 -24.5t60 -10.5q92 0 188 65v-118q-85 -58 -209 -58zM395 -508h-63q2 3 14 26t15 29t14 26t18 30.5t18.5 27.5t23.5 32t26 30q-63 0 -91 27.5t-28 68.5t29.5 67.5t72.5 26.5t73 -29.5t30 -72.5q0 -37 -27.5 -87.5t-124.5 -201.5z
" />
    <glyph glyph-name="gravecomb" unicode="&#x300;" horiz-adv-x="0" 
d="M-102 1278h-109l-311 393h172z" />
    <glyph glyph-name="acutecomb" unicode="&#x301;" horiz-adv-x="0" 
d="M102 1671l-311 -393h-108l247 393h172z" />
    <glyph glyph-name="uni0302" unicode="&#x302;" horiz-adv-x="0" 
d="M-676 1278h-117l297 356h168l297 -356h-116q-58 58 -89 90.5t-75.5 87t-75.5 105.5h-49q-72 -119 -240 -283z" />
    <glyph glyph-name="tildecomb" unicode="&#x303;" horiz-adv-x="0" 
d="M-317 1339q-15 0 -29 2t-24.5 4.5t-23 8.5t-19.5 9t-19 12t-16.5 13t-17.5 15t-17 14l-37 31q-21 18 -31.5 26t-31 17.5t-40.5 9.5q-47 0 -77.5 -42t-30.5 -105h-94q1 109 58.5 176t148.5 67q42 0 75 -16.5t72 -50.5l43 -37q66 -57 113 -57q48 0 75 41t27 106h94
q0 -111 -52 -177.5t-146 -66.5z" />
    <glyph glyph-name="uni0304" unicode="&#x304;" horiz-adv-x="0" 
d="M-90 1419h-688v105h688v-105z" />
    <glyph glyph-name="uni0306" unicode="&#x306;" horiz-adv-x="0" 
d="M-406 1276q-169 0 -267.5 111.5t-104.5 283.5h112q4 -133 77.5 -212t185.5 -79q114 0 186 78.5t76 212.5h112q-6 -173 -105.5 -284t-271.5 -111z" />
    <glyph glyph-name="uni0307" unicode="&#x307;" horiz-adv-x="0" 
d="M-246 1423q-47 0 -77.5 32.5t-30.5 78.5q0 44 31 75t77 31q44 0 75.5 -31.5t31.5 -74.5q0 -46 -31.5 -78.5t-75.5 -32.5z" />
    <glyph glyph-name="uni0308" unicode="&#x308;" horiz-adv-x="0" 
d="M-842 1376q-42 0 -71 31t-29 74q0 40 29 69t71 29t71.5 -29t29.5 -69q0 -43 -29.5 -74t-71.5 -31zM-492 1376q-42 0 -71 31t-29 74q0 40 29 69t71 29q41 0 71 -29t30 -69q0 -43 -30 -74t-71 -31z" />
    <glyph glyph-name="uni030A" unicode="&#x30a;" horiz-adv-x="0" 
d="M-240 1247q-97 0 -161 61t-64 156q0 93 64 154t161 61q94 0 158 -61t64 -154q0 -94 -63.5 -155.5t-158.5 -61.5zM-240 1333q57 0 95.5 35.5t38.5 95.5q0 58 -38.5 93.5t-95.5 35.5q-61 0 -99 -35t-38 -94q0 -61 38 -96t99 -35z" />
    <glyph glyph-name="uni030B" unicode="&#x30b;" horiz-adv-x="0" 
d="M-137 1673l-279 -395h-106l213 395h172zM176 1673l-295 -395h-108l231 395h172z" />
    <glyph glyph-name="uni030C" unicode="&#x30c;" horiz-adv-x="0" 
d="M-328 1278h-168l-297 358h117q56 -56 89 -90.5t78 -88.5t79 -105h39q32 51 80.5 108t72 82t91.5 94h116z" />
    <glyph glyph-name="uni0312" unicode="&#x312;" horiz-adv-x="0" 
d="M-426 1329q0 37 30 93.5t148 250.5h80q-63 -132 -141 -268q46 6 68 -19.5t22 -64.5q0 -43 -29 -68.5t-71 -25.5q-46 0 -76.5 29.5t-30.5 72.5z" />
    <glyph glyph-name="uni0326" unicode="&#x326;" horiz-adv-x="0" 
d="M-332 -508h-63q2 3 14 26t15 29t14 26t18 30.5t18.5 27.5t23.5 32t26 30q-63 0 -91 27.5t-28 68.5t29.5 67.5t72.5 26.5t73 -29.5t30 -72.5q0 -37 -27.5 -87.5t-124.5 -201.5z" />
    <glyph glyph-name="uni0327" unicode="&#x327;" horiz-adv-x="0" 
d="M-639 -489q-73 0 -140 30t-110 80l53 53q34 -41 85.5 -65.5t105.5 -24.5q59 0 99 30t40 77q0 44 -35.5 72t-91.5 28q-53 0 -96 -24l-53 49l118 184h91q-67 -97 -132 -160l9 -8q52 25 98 25q80 0 131 -45t51 -117q0 -82 -63 -133t-160 -51z" />
    <glyph glyph-name="uni0328" unicode="&#x328;" horiz-adv-x="0" 
d="M-639 -483q-114 0 -190 62.5t-76 166.5q0 140 164 234h108q-174 -91 -174 -213q0 -72 51 -115t127 -43q40 0 88 14v-92q-55 -14 -98 -14z" />
    <glyph glyph-name="uni0335" unicode="&#x335;" horiz-adv-x="0" 
d="M-733 616h680v-104h-680v104z" />
    <glyph glyph-name="uni0337" unicode="&#x337;" horiz-adv-x="0" 
d="M-481 528v111l522 373v-111z" />
    <glyph glyph-name="uni0338" unicode="&#x338;" horiz-adv-x="0" 
d="M-1032 -57h-129l921 1237h123z" />
    <glyph glyph-name="Wgrave" unicode="&#x1e80;" horiz-adv-x="2322" 
d="M1245 1720h-112l-340 322h190zM717 0h-158l-520 1597h139q286 -846 453 -1456h22q148 546 434 1456h148q291 -913 440 -1460h23q189 697 446 1460h140l-521 -1597h-155q-249 741 -434 1444h-25q-184 -702 -432 -1444z" />
    <glyph glyph-name="wgrave" unicode="&#x1e81;" horiz-adv-x="1855" 
d="M985 1278h-108l-312 393h172zM580 0h-127l-414 1128h135q87 -243 121.5 -338.5t100 -295.5t112.5 -369h24q97 340 309 938q15 43 23 65h125q198 -541 279 -797q34 -105 63 -206h25q103 377 325 1003h136l-414 -1128h-129q-222 604 -342 983h-10q-105 -338 -342 -983z" />
    <glyph glyph-name="Wacute" unicode="&#x1e82;" horiz-adv-x="2322" 
d="M1534 2042l-340 -322h-113l262 322h191zM717 0h-158l-520 1597h139q286 -846 453 -1456h22q148 546 434 1456h148q291 -913 440 -1460h23q189 697 446 1460h140l-521 -1597h-155q-249 741 -434 1444h-25q-184 -702 -432 -1444z" />
    <glyph glyph-name="wacute" unicode="&#x1e83;" horiz-adv-x="1855" 
d="M1284 1671l-311 -393h-109l248 393h172zM580 0h-127l-414 1128h135q87 -243 121.5 -338.5t100 -295.5t112.5 -369h24q97 340 309 938q15 43 23 65h125q198 -541 279 -797q34 -105 63 -206h25q103 377 325 1003h136l-414 -1128h-129q-222 604 -342 983h-10
q-105 -338 -342 -983z" />
    <glyph glyph-name="Wdieresis" unicode="&#x1e84;" horiz-adv-x="2322" 
d="M967 1790q-44 0 -73.5 30.5t-29.5 73.5q0 42 29.5 71.5t73.5 29.5q42 0 71 -29.5t29 -71.5q0 -43 -29 -73.5t-71 -30.5zM1356 1790q-44 0 -73.5 30.5t-29.5 73.5q0 42 29.5 71.5t73.5 29.5q42 0 71 -29.5t29 -71.5q0 -43 -29 -73.5t-71 -30.5zM717 0h-158l-520 1597h139
q286 -846 453 -1456h22q148 546 434 1456h148q291 -913 440 -1460h23q189 697 446 1460h140l-521 -1597h-155q-249 741 -434 1444h-25q-184 -702 -432 -1444z" />
    <glyph glyph-name="wdieresis" unicode="&#x1e85;" horiz-adv-x="1855" 
d="M750 1376q-42 0 -71.5 31t-29.5 74q0 40 29.5 69t71.5 29t71 -29t29 -69q0 -43 -29 -74t-71 -31zM1100 1376q-42 0 -71.5 31t-29.5 74q0 40 29.5 69t71.5 29q41 0 70.5 -29t29.5 -69q0 -43 -29.5 -74t-70.5 -31zM580 0h-127l-414 1128h135q87 -243 121.5 -338.5
t100 -295.5t112.5 -369h24q97 340 309 938q15 43 23 65h125q198 -541 279 -797q34 -105 63 -206h25q103 377 325 1003h136l-414 -1128h-129q-222 604 -342 983h-10q-105 -338 -342 -983z" />
    <glyph glyph-name="uni1E9E" unicode="&#x1e9e;" horiz-adv-x="1544" 
d="M332 0h-131v944q0 61 3 111.5t16.5 124.5t36.5 132t67.5 120t105.5 103t154 68t209 27q258 0 414.5 -118t156.5 -332q0 -151 -83 -247.5t-232 -113.5v-24q165 0 275 -102.5t110 -274.5q0 -60 -14 -115t-52.5 -112t-98 -98t-158.5 -67t-226 -26h-168v119h192q106 0 184 25
t121 69.5t62.5 96.5t19.5 114q0 152 -107 236.5t-280 84.5h-108v111h119q31 0 65 6t79.5 26t80.5 51.5t59.5 89t24.5 132.5q0 168 -115.5 262.5t-316.5 94.5q-93 0 -168 -22t-122.5 -55t-82.5 -84t-52 -96t-27 -105t-11.5 -96.5t-1.5 -84.5v-975z" />
    <glyph glyph-name="Ygrave" unicode="&#x1ef2;" horiz-adv-x="1411" 
d="M788 1720h-112l-340 322h190zM770 0h-131q0 393 12 590q-239 381 -610 1007h143q337 -572 510 -913h23q26 53 52.5 104t59 110.5t53 97.5t60.5 108t53.5 94.5t61 105.5t54.5 93.5t61.5 104t56.5 95.5h139q-403 -681 -610 -1007q12 -197 12 -590z" />
    <glyph glyph-name="ygrave" unicode="&#x1ef3;" horiz-adv-x="1105" 
d="M600 1278h-108l-312 393h172zM434 -451h-112l172 439l-459 1140h133q223 -552 377 -1026h22q143 454 371 1026h133z" />
    <glyph glyph-name="uni2000" unicode="&#x2000;" horiz-adv-x="1024" 
 />
    <glyph glyph-name="uni2001" unicode="&#x2001;" 
 />
    <glyph glyph-name="uni2002" unicode="&#x2002;" horiz-adv-x="1024" 
 />
    <glyph glyph-name="uni2003" unicode="&#x2003;" 
 />
    <glyph glyph-name="uni2004" unicode="&#x2004;" horiz-adv-x="681" 
 />
    <glyph glyph-name="uni2005" unicode="&#x2005;" horiz-adv-x="512" 
 />
    <glyph glyph-name="uni2006" unicode="&#x2006;" horiz-adv-x="342" 
 />
    <glyph glyph-name="uni2007" unicode="&#x2007;" horiz-adv-x="563" 
 />
    <glyph glyph-name="uni2008" unicode="&#x2008;" horiz-adv-x="473" 
 />
    <glyph glyph-name="uni2009" unicode="&#x2009;" horiz-adv-x="256" 
 />
    <glyph glyph-name="uni200A" unicode="&#x200a;" horiz-adv-x="86" 
 />
    <glyph glyph-name="uni200B" unicode="&#x200b;" horiz-adv-x="0" 
 />
    <glyph glyph-name="endash" unicode="&#x2013;" horiz-adv-x="1011" 
d="M891 569h-770v109h770v-109z" />
    <glyph glyph-name="emdash" unicode="&#x2014;" horiz-adv-x="1441" 
d="M1321 571h-1200v105h1200v-105z" />
    <glyph glyph-name="quoteleft" unicode="&#x2018;" horiz-adv-x="456" 
d="M287 1630h80q-26 -54 -43 -86t-47 -78t-64 -84q102 -17 102 -102q0 -44 -31 -75t-77 -31q-43 0 -74 31t-31 75q0 34 27.5 86t134.5 226q5 8 7.5 12.5t7 12t8.5 13.5z" />
    <glyph glyph-name="quoteright" unicode="&#x2019;" horiz-adv-x="464" 
d="M199 1178h-82q29 59 44 87.5t46.5 77t66.5 87.5q-104 18 -104 100q0 44 31 74t75 30q45 0 76 -30t31 -74q0 -40 -49 -126q-22 -40 -135 -226z" />
    <glyph glyph-name="quotesinglbase" unicode="&#x201a;" horiz-adv-x="442" 
d="M152 -256h-82q27 56 43 86.5t46 77t64 84.5q-102 17 -102 104q0 43 31.5 74t76.5 31q43 0 74 -31t31 -74q0 -34 -26.5 -85.5t-122.5 -211.5z" />
    <glyph glyph-name="quotedblleft" unicode="&#x201c;" horiz-adv-x="768" 
d="M287 1630h80q-26 -54 -43 -86t-47 -78t-64 -84q102 -17 102 -102q0 -44 -31 -75t-77 -31q-43 0 -74 31t-31 75q0 34 27.5 86t134.5 226q5 8 7.5 12.5t7 12t8.5 13.5zM596 1630h82q-26 -54 -43 -86t-47.5 -78t-65.5 -84q105 -17 105 -102q0 -44 -32 -75t-77 -31
q-43 0 -73.5 31t-30.5 75q0 37 32.5 98t149.5 252z" />
    <glyph glyph-name="quotedblright" unicode="&#x201d;" horiz-adv-x="774" 
d="M199 1178h-82q28 57 43.5 86.5t46 76.5t65.5 84q-102 16 -102 105q0 44 31 74t75 30q45 0 76 -30t31 -74q0 -40 -49 -126q-22 -40 -135 -226zM510 1178h-82q27 55 43.5 86t47 77.5t65.5 83.5q-105 17 -105 105q0 44 31.5 74t77.5 30q43 0 73.5 -30t30.5 -74
q0 -38 -31 -96.5t-151 -255.5z" />
    <glyph glyph-name="quotedblbase" unicode="&#x201e;" horiz-adv-x="751" 
d="M150 -252h-82q27 56 43 86.5t46.5 77t65.5 84.5q-104 16 -104 102q0 44 31.5 75.5t76.5 31.5q43 0 74 -31.5t31 -75.5q0 -37 -32.5 -98t-149.5 -252zM459 -252h-80q27 56 43 86.5t46 77t64 84.5q-102 17 -102 102q0 44 31.5 75.5t75.5 31.5t75 -31.5t31 -75.5
q0 -36 -31.5 -94t-152.5 -256z" />
    <glyph glyph-name="dagger" unicode="&#x2020;" horiz-adv-x="985" 
d="M553 430h-121q0 500 14 764q-129 -14 -358 -14v112q229 0 358 -12q-14 127 -14 358h121q0 -231 -14 -358q129 12 358 12v-112q-229 0 -358 14q14 -264 14 -764z" />
    <glyph glyph-name="daggerdbl" unicode="&#x2021;" horiz-adv-x="1087" 
d="M946 1292v-112q-234 0 -373 22q42 -167 9 -348q137 25 364 25v-115q-233 0 -364 22q22 -131 22 -366h-121q0 229 23 366q-131 -22 -365 -22v115q228 0 365 -25q-32 175 0 348q-131 -22 -365 -22v112q234 0 365 -22q-23 137 -23 368h121q0 -77 -1 -120t-8.5 -113.5
t-21.5 -134.5q139 22 373 22z" />
    <glyph glyph-name="bullet" unicode="&#x2022;" horiz-adv-x="776" 
d="M391 428q-81 0 -135.5 56.5t-54.5 138.5q0 77 54.5 131.5t135.5 54.5q77 0 132 -55t55 -131q0 -81 -55 -138t-132 -57z" />
    <glyph glyph-name="ellipsis" unicode="&#x2026;" horiz-adv-x="1325" 
d="M238 -14q-44 0 -75.5 32t-31.5 78q0 43 31.5 74t75.5 31t74 -31t30 -74q0 -46 -30 -78t-74 -32zM664 -14q-45 0 -76 32t-31 78q0 43 31 74t76 31q43 0 73.5 -31t30.5 -74q0 -46 -30.5 -78t-73.5 -32zM1090 -14q-46 0 -77.5 32t-31.5 78q0 43 32 74t77 31q43 0 73.5 -31
t30.5 -74q0 -46 -30.5 -78t-73.5 -32z" />
    <glyph glyph-name="uni202F" unicode="&#x202f;" horiz-adv-x="407" 
 />
    <glyph glyph-name="perthousand" unicode="&#x2030;" horiz-adv-x="2353" 
d="M346 797q-119 0 -192.5 100.5t-73.5 261.5t73.5 263t192.5 102q118 0 192 -102.5t74 -262.5t-74 -261t-192 -101zM332 0h-119l1139 1468h110zM346 889q72 0 115 72t43 198q0 125 -43.5 198t-114.5 73t-115.5 -73.5t-44.5 -197.5q0 -125 44 -197.5t116 -72.5zM1315 -29
q-119 0 -192.5 101t-73.5 262t73.5 262.5t192.5 101.5q118 0 192 -102t74 -262t-74 -261.5t-192 -101.5zM2007 -29q-119 0 -192.5 101t-73.5 262t73.5 262.5t192.5 101.5q118 0 192 -102t74 -262t-74 -261.5t-192 -101.5zM1315 63q71 0 114.5 72.5t43.5 198.5
q0 125 -43.5 197.5t-114.5 72.5q-72 0 -116 -73t-44 -197q0 -126 44 -198.5t116 -72.5zM2007 63q71 0 114.5 72.5t43.5 198.5q0 125 -43.5 197.5t-114.5 72.5q-72 0 -116 -73t-44 -197q0 -126 44 -198.5t116 -72.5z" />
    <glyph glyph-name="guilsinglleft" unicode="&#x2039;" horiz-adv-x="735" 
d="M594 164h-143l-340 405v9l340 405h143q-71 -85 -117 -137.5t-115.5 -122.5t-134.5 -123v-53q65 -53 134.5 -123t115.5 -122.5t117 -137.5z" />
    <glyph glyph-name="guilsinglright" unicode="&#x203a;" horiz-adv-x="735" 
d="M285 164h-144q71 85 117 137.5t115.5 122.5t134.5 123v53q-65 53 -134.5 123t-115.5 122.5t-117 137.5h144l340 -405v-9z" />
    <glyph glyph-name="fraction" unicode="&#x2044;" horiz-adv-x="276" 
d="M-360 0h-119l1138 1468h111z" />
    <glyph glyph-name="uni205F" unicode="&#x205f;" horiz-adv-x="454" 
 />
    <glyph glyph-name="uni2070" unicode="&#x2070;" horiz-adv-x="692" 
d="M346 797q-119 0 -192.5 100.5t-73.5 261.5t73.5 263t192.5 102q118 0 192 -102.5t74 -262.5t-74 -261t-192 -101zM346 889q72 0 115 72t43 198q0 125 -43.5 198t-114.5 73t-115.5 -73.5t-44.5 -197.5q0 -125 44 -197.5t116 -72.5z" />
    <glyph glyph-name="uni2074" unicode="&#x2074;" horiz-adv-x="653" 
d="M492 811h-99v160h-346v86l348 452h97v-452h96v-86h-96v-160zM393 1376l-246 -319h246v319z" />
    <glyph glyph-name="uni2075" unicode="&#x2075;" horiz-adv-x="641" 
d="M311 797q-91 0 -162.5 42.5t-95.5 116.5l88 45q21 -56 68 -87t104 -31q65 0 107.5 42.5t42.5 108.5q0 67 -41 108.5t-105 41.5q-92 0 -141 -82l-82 24l82 383h354v-86h-284l-47 -227q23 29 65.5 46.5t85.5 17.5q89 0 155 -60t66 -162q0 -107 -75 -174t-185 -67z" />
    <glyph glyph-name="uni2076" unicode="&#x2076;" horiz-adv-x="669" 
d="M344 797q-120 0 -192 86t-72 239q0 175 92 288.5t234 113.5q107 0 172 -62l-54 -67q-52 41 -125 41q-92 0 -153.5 -74t-65.5 -207h2q21 50 73.5 79.5t111.5 29.5q94 0 162.5 -64t68.5 -164q0 -103 -72.5 -171t-181.5 -68zM348 883q62 0 107 44t45 111q0 66 -44.5 110
t-107.5 44q-65 0 -108 -46t-43 -112q0 -64 44.5 -107.5t106.5 -43.5z" />
    <glyph glyph-name="uni2077" unicode="&#x2077;" horiz-adv-x="561" 
d="M258 811h-106q0 140 73 321.5t189 297.5h-375v88h491v-93q-82 -73 -145.5 -184.5t-95 -223.5t-31.5 -206z" />
    <glyph glyph-name="uni2078" unicode="&#x2078;" horiz-adv-x="659" 
d="M330 797q-112 0 -182 58t-70 144q0 67 37.5 115t93.5 62v4q-103 45 -103 151q0 82 64 137.5t160 55.5q95 0 159 -53.5t64 -137.5q0 -110 -102 -153v-4q58 -15 94.5 -62t36.5 -110q0 -89 -70 -148t-182 -59zM332 1214q54 0 90.5 33.5t36.5 85.5q0 49 -36.5 81t-90.5 32
q-56 0 -93.5 -32.5t-37.5 -80.5q0 -51 37 -85t94 -34zM332 885q62 0 103.5 36t41.5 95t-38.5 94t-106.5 35q-71 0 -110.5 -35t-39.5 -94q0 -58 43 -94.5t107 -36.5z" />
    <glyph glyph-name="uni2079" unicode="&#x2079;" horiz-adv-x="677" 
d="M305 797q-141 0 -223 100l59 66q65 -80 162 -80q94 0 142.5 79.5t50.5 202.5q-21 -56 -73 -87t-114 -31q-95 0 -163 65.5t-68 165.5q0 106 72.5 176t185.5 70t186.5 -79.5t73.5 -248.5q0 -110 -30.5 -198t-97.5 -144.5t-163 -56.5zM326 1118q65 0 110 49t45 119
t-44.5 113t-106.5 43q-65 0 -109.5 -45.5t-44.5 -116.5q0 -69 43 -115.5t107 -46.5z" />
    <glyph glyph-name="uni2080" unicode="&#x2080;" horiz-adv-x="692" 
d="M346 -285q-119 0 -192.5 101t-73.5 262t73.5 262.5t192.5 101.5q118 0 192 -102t74 -262t-74 -261.5t-192 -101.5zM346 -193q71 0 114.5 72.5t43.5 198.5q0 125 -43.5 197.5t-114.5 72.5q-72 0 -116 -73t-44 -197q0 -126 44 -198.5t116 -72.5z" />
    <glyph glyph-name="uni2081" unicode="&#x2081;" horiz-adv-x="440" 
d="M303 -270h-100v520q-57 -67 -154 -84v102q70 17 114 61t44 99h96v-698z" />
    <glyph glyph-name="uni2082" unicode="&#x2082;" horiz-adv-x="634" 
d="M553 -270h-469v10q4 51 15 89.5t25.5 66t46 57.5t59.5 50.5t83 57.5q29 20 43 31.5t39 36t37 52t12 57.5q0 48 -35.5 80t-91.5 32q-68 0 -110.5 -46t-42.5 -122l-92 17q0 107 69 175t176 68q101 0 166.5 -57.5t65.5 -148.5q0 -69 -36 -118.5t-99 -92.5
q-19 -14 -52.5 -36.5t-51 -36t-40 -34t-35.5 -43.5t-20 -51h338v-94z" />
    <glyph glyph-name="uni2083" unicode="&#x2083;" horiz-adv-x="643" 
d="M315 -285q-92 0 -161.5 44t-92.5 116l89 43q21 -54 63.5 -85.5t101.5 -31.5q61 0 101.5 35t40.5 92q0 56 -41.5 88.5t-114.5 32.5h-68v76h74q61 0 98 32t37 83q0 52 -37.5 83t-95.5 31q-56 0 -94 -32.5t-47 -90.5l-90 21q10 84 77.5 137t161.5 53q95 0 160.5 -50.5
t65.5 -133.5q0 -56 -31.5 -102.5t-83.5 -59.5q60 -12 97.5 -57t37.5 -111q0 -87 -67 -150t-181 -63z" />
    <glyph glyph-name="uni2084" unicode="&#x2084;" horiz-adv-x="653" 
d="M492 -270h-99v159h-346v86l348 453h97v-453h96v-86h-96v-159zM393 295l-246 -320h246v320z" />
    <glyph glyph-name="uni2085" unicode="&#x2085;" horiz-adv-x="641" 
d="M311 -285q-91 0 -162.5 43t-95.5 117l88 45q21 -56 68 -87.5t104 -31.5q65 0 107.5 43t42.5 109q0 67 -41 108t-105 41q-92 0 -141 -82l-82 25l82 383h354v-86h-284l-47 -227q23 29 65 46t86 17q89 0 155 -59.5t66 -161.5q0 -107 -75 -174.5t-185 -67.5z" />
    <glyph glyph-name="uni2086" unicode="&#x2086;" horiz-adv-x="669" 
d="M344 -285q-120 0 -192 86.5t-72 239.5q0 175 92 288t234 113q108 0 172 -61l-54 -68q-52 41 -125 41q-92 0 -153.5 -74t-65.5 -206h2q21 49 73.5 78.5t111.5 29.5q94 0 162.5 -63.5t68.5 -163.5q0 -103 -72.5 -171.5t-181.5 -68.5zM348 -199q62 0 107 44.5t45 111.5
q0 66 -44.5 110t-107.5 44q-65 0 -108 -46t-43 -112q0 -64 44.5 -108t106.5 -44z" />
    <glyph glyph-name="uni2087" unicode="&#x2087;" horiz-adv-x="561" 
d="M258 -270h-106q0 140 73 321t189 297h-375v88h491v-92q-82 -73 -145.5 -184.5t-95 -223.5t-31.5 -206z" />
    <glyph glyph-name="uni2088" unicode="&#x2088;" horiz-adv-x="659" 
d="M330 -285q-112 0 -182 58.5t-70 144.5q0 67 37.5 114.5t93.5 61.5v4q-103 45 -103 152q0 82 64 137t160 55q95 0 159 -53t64 -137q0 -111 -102 -154v-4q58 -15 94.5 -62t36.5 -110q0 -89 -70 -148t-182 -59zM332 133q54 0 90.5 33.5t36.5 85.5q0 49 -36.5 81t-90.5 32
q-56 0 -93.5 -32.5t-37.5 -80.5q0 -51 37 -85t94 -34zM332 -197q62 0 103.5 36t41.5 95t-38.5 94t-106.5 35q-71 0 -110.5 -35t-39.5 -94q0 -58 43 -94.5t107 -36.5z" />
    <glyph glyph-name="uni2089" unicode="&#x2089;" horiz-adv-x="677" 
d="M305 -285q-140 0 -223 101l59 65q65 -80 162 -80q94 0 142.5 80t50.5 203q-21 -56 -73.5 -87.5t-113.5 -31.5q-95 0 -163 66t-68 166q0 106 72.5 175.5t185.5 69.5t186.5 -79t73.5 -248q0 -110 -30.5 -198.5t-97.5 -145t-163 -56.5zM326 37q65 0 110 49t45 119
t-44.5 112.5t-106.5 42.5q-66 0 -110 -45t-44 -116q0 -69 43 -115.5t107 -46.5z" />
    <glyph glyph-name="Euro" unicode="&#x20ac;" horiz-adv-x="1619" 
d="M1059 -35q-290 0 -471.5 159.5t-220.5 436.5q-96 -20 -246 -20v102q141 0 227 -22q-45 147 0 290q-86 -22 -227 -22v100q149 0 241 -20q25 182 109.5 318.5t231.5 215t341 78.5q284 0 465 -158l-92 -94q-152 133 -375 133t-372 -129.5t-215 -363.5q248 20 700 20v-100
q-474 0 -719 22q19 -148 2 -290q245 22 717 22v-102q-448 0 -696 20q69 -230 222.5 -353.5t375.5 -123.5q228 0 385 131l86 -92q-186 -158 -469 -158z" />
    <glyph glyph-name="trademark" unicode="&#x2122;" horiz-adv-x="1552" 
d="M395 942h-94v586h-223v88h538v-88h-221v-586zM831 942h-96v674h94l226 -531q43 98 119.5 282.5t103.5 248.5h94v-674h-94v461q-13 -32 -82.5 -196.5t-105.5 -250.5h-72q-183 440 -187 451v-465z" />
    <glyph glyph-name="oneeighth" unicode="&#x215b;" horiz-adv-x="1376" 
d="M303 811h-100v520q-57 -67 -154 -84v103q70 18 114 61t44 98h96v-698zM80 0h-119l1139 1468h110zM1047 -29q-112 0 -182 58.5t-70 144.5q0 67 37.5 114.5t93.5 61.5v4q-103 45 -103 152q0 82 64 137t160 55q95 0 159 -53t64 -137q0 -49 -25 -90.5t-78 -63.5v-4
q58 -15 94.5 -62t36.5 -110q0 -89 -69.5 -148t-181.5 -59zM1049 389q54 0 90.5 33.5t36.5 85.5q0 49 -36.5 81t-90.5 32q-56 0 -93.5 -32.5t-37.5 -80.5q0 -51 37 -85t94 -34zM1049 59q62 0 103.5 36t41.5 95t-38.5 94t-106.5 35q-71 0 -110.5 -35t-39.5 -94q0 -58 43 -94.5
t107 -36.5z" />
    <glyph glyph-name="threeeighths" unicode="&#x215c;" horiz-adv-x="1579" 
d="M315 797q-92 0 -161.5 43.5t-92.5 115.5l89 43q21 -54 63.5 -85t101.5 -31q61 0 101.5 35t40.5 92q0 56 -41.5 88t-114.5 32h-68v76h74q61 0 98 32t37 83q0 52 -37.5 83.5t-95.5 31.5q-56 0 -94 -32.5t-47 -90.5l-90 20q10 84 77.5 137.5t161.5 53.5q95 0 160.5 -51
t65.5 -134q0 -56 -31.5 -102t-83.5 -59q60 -12 97.5 -57t37.5 -111q0 -87 -67 -150t-181 -63zM283 0h-119l1139 1468h110zM1249 -29q-112 0 -182 58.5t-70 144.5q0 67 37.5 114.5t93.5 61.5v4q-102 45 -102 152q0 82 63.5 137t159.5 55q95 0 159.5 -53t64.5 -137
q0 -49 -25 -90.5t-78 -63.5v-4q58 -15 94.5 -62t36.5 -110q0 -89 -70 -148t-182 -59zM1251 389q54 0 90.5 33.5t36.5 85.5q0 49 -36.5 81t-90.5 32q-56 0 -93.5 -32.5t-37.5 -80.5q0 -51 37 -85t94 -34zM1251 59q62 0 104 36t42 95t-39 94t-107 35q-71 0 -110 -35t-39 -94
q0 -58 42.5 -94.5t106.5 -36.5z" />
    <glyph glyph-name="fiveeighths" unicode="&#x215d;" horiz-adv-x="1576" 
d="M311 797q-91 0 -162.5 42.5t-95.5 116.5l88 45q21 -56 68 -87t104 -31q65 0 107.5 42.5t42.5 108.5q0 67 -41 108.5t-105 41.5q-92 0 -141 -82l-82 24l82 383h354v-86h-284l-47 -227q23 29 65.5 46.5t85.5 17.5q89 0 155 -60t66 -162q0 -107 -75 -174t-185 -67zM281 0
h-119l1138 1468h111zM1247 -29q-112 0 -182 58.5t-70 144.5q0 67 37.5 114.5t93.5 61.5v4q-102 45 -102 152q0 82 63.5 137t159.5 55q95 0 159 -53t64 -137q0 -111 -102 -154v-4q58 -15 94.5 -62t36.5 -110q0 -89 -70 -148t-182 -59zM1249 389q54 0 90.5 33.5t36.5 85.5
q0 49 -36.5 81t-90.5 32q-56 0 -93.5 -32.5t-37.5 -80.5q0 -51 37 -85t94 -34zM1249 59q62 0 104 36t42 95t-39 94t-107 35q-71 0 -110 -35t-39 -94q0 -58 42.5 -94.5t106.5 -36.5z" />
    <glyph glyph-name="seveneighths" unicode="&#x215e;" horiz-adv-x="1497" 
d="M258 811h-106q0 140 73 321.5t189 297.5h-375v88h491v-93q-82 -73 -145.5 -184.5t-95 -223.5t-31.5 -206zM201 0h-119l1139 1468h110zM1167 -29q-112 0 -182 58.5t-70 144.5q0 67 38 114.5t94 61.5v4q-103 45 -103 152q0 82 63.5 137t159.5 55q95 0 159.5 -53t64.5 -137
q0 -49 -25 -90.5t-78 -63.5v-4q58 -15 94.5 -62t36.5 -110q0 -89 -70 -148t-182 -59zM1169 389q54 0 90.5 33.5t36.5 85.5q0 49 -36.5 81t-90.5 32q-56 0 -93.5 -32.5t-37.5 -80.5q0 -51 37 -85t94 -34zM1169 59q62 0 104 36t42 95t-39 94t-107 35q-71 0 -110 -35t-39 -94
q0 -58 42.5 -94.5t106.5 -36.5z" />
    <glyph glyph-name="arrowleft" unicode="&#x2190;" horiz-adv-x="1425" 
d="M602 236h-143l-340 405v8l340 406h143q-189 -226 -348 -373q354 23 1046 23v-121q-247 0 -361.5 0.5t-316.5 6t-366 17.5q168 -159 346 -372z" />
    <glyph glyph-name="arrowup" unicode="&#x2191;" horiz-adv-x="987" 
d="M555 20h-121q0 693 25 1047q-163 -173 -375 -348v143l405 340h9l405 -340v-143q-219 183 -371 346q23 -354 23 -1045z" />
    <glyph glyph-name="arrowright" unicode="&#x2192;" horiz-adv-x="1425" 
d="M967 236h-144q197 231 346 372q-164 -12 -366 -17.5t-316.5 -6t-361.5 -0.5v121q692 0 1046 -23q-70 65 -140 139t-101.5 110t-106.5 124h144l340 -406v-8z" />
    <glyph glyph-name="arrowdown" unicode="&#x2193;" horiz-adv-x="991" 
d="M500 20h-8l-406 340v144q225 -189 375 -348q-25 354 -25 1046h121q0 -705 -22 -1044q156 167 370 346v-144z" />
    <glyph glyph-name="arrowboth" unicode="&#x2194;" horiz-adv-x="1783" 
d="M600 231h-145l-340 406v8l340 406h145q-152 -177 -324 -375q616 34 1231 0q-123 141 -323 375h145l340 -406v-8l-340 -406h-145q275 322 321 373q-613 -34 -1226 0q46 -51 321 -373z" />
    <glyph glyph-name="arrowupdn" unicode="&#x2195;" horiz-adv-x="1089" 
d="M549 2h-8l-406 334v141q234 -196 373 -317q-34 535 0 1069q-160 -142 -373 -320v142l406 335h8l405 -335v-142q-177 148 -372 318q34 -533 0 -1065q104 90 372 315v-141z" />
    <glyph glyph-name="uni2196" unicode="&#x2196;" horiz-adv-x="1038" 
d="M932 139l-103 -59q-327 562 -503 915q-47 -206 -148 -485l-72 125l181 495l6 5l522 -91l72 -124q-288 51 -498 114q203 -304 543 -895z" />
    <glyph glyph-name="uni2197" unicode="&#x2197;" horiz-adv-x="1038" 
d="M211 80l-105 59q14 25 63.5 110t68 116.5t63.5 108t69 116.5t65 108t71.5 116t68.5 107t74 113q-211 -63 -497 -114l71 124l522 91l7 -5l182 -495l-74 -125q-92 254 -147 485q-158 -317 -502 -915z" />
    <glyph glyph-name="uni2198" unicode="&#x2198;" horiz-adv-x="1036" 
d="M104 1081l105 60q340 -592 502 -916q56 234 147 486l74 -125l-182 -496l-7 -4l-522 90l-71 125q278 -49 497 -115q-36 54 -74 113t-68.5 107t-71.5 116t-65 108t-69 116.5t-63.5 108t-68 116.5t-63.5 110z" />
    <glyph glyph-name="uni2199" unicode="&#x2199;" horiz-adv-x="1036" 
d="M829 1141l103 -60q-340 -591 -543 -895q218 65 498 115l-72 -125l-520 -90l-8 4l-181 496l72 125q100 -278 148 -486q179 360 503 916z" />
    <glyph glyph-name="emptyset" unicode="&#x2205;" horiz-adv-x="1419" 
d="M1225 1198l-125 -176q91 -82 140.5 -200t49.5 -257q0 -167 -72.5 -303.5t-206 -216.5t-302.5 -80q-168 0 -303 80l-125 -174l-84 61l125 177q-92 83 -142.5 200.5t-50.5 255.5q0 169 72.5 305.5t206 215.5t303.5 79t305 -80l123 172zM256 563q0 -214 137 -354l551 776
q-103 64 -233 64q-132 0 -236.5 -64.5t-161.5 -175.5t-57 -246zM711 82q131 0 235 64t160.5 173.5t56.5 243.5q0 105 -36 197.5t-101 159.5l-551 -775q104 -63 236 -63z" />
    <glyph glyph-name="minus" unicode="&#x2212;" horiz-adv-x="1001" 
d="M858 569h-717v113h717v-113z" />
    <glyph glyph-name="infinity" unicode="&#x221e;" horiz-adv-x="1847" 
d="M489 287q-149 0 -251.5 96t-102.5 242t103.5 242t250.5 96q104 0 193.5 -58t241.5 -207q78 76 127 119.5t103 80t102 51t102 14.5q149 0 251.5 -96t102.5 -242t-102.5 -242t-251.5 -96q-73 0 -141 30.5t-129.5 81.5t-163.5 152q-149 -149 -238.5 -206.5t-196.5 -57.5z
M483 393q42 0 79 10.5t78 38.5t64 47t74.5 67.5t73.5 68.5q-23 21 -63 58.5t-61 56.5t-55 45t-60 39t-60 22.5t-70 9.5q-103 0 -165 -62t-62 -169q0 -110 63 -171t164 -61zM1364 393q102 0 164.5 61t62.5 171q0 107 -62 169t-165 62q-36 0 -70 -9.5t-60 -22.5t-60 -39
t-55 -45t-61 -56.5t-63 -58.5q23 -21 62.5 -58t60.5 -56t55 -45.5t60.5 -39.5t60.5 -23t70 -10z" />
    <glyph glyph-name="approxequal" unicode="&#x2248;" horiz-adv-x="1058" 
d="M272 729h-110q0 120 66.5 184t160.5 64q42 0 78.5 -14.5t62 -34.5t49 -40.5t51.5 -35t58 -14.5q51 0 74.5 38.5t23.5 100.5h113q0 -122 -59 -185t-152 -63q-44 0 -81 14.5t-63 35.5t-50 41.5t-52.5 35t-58.5 14.5q-55 0 -83 -40t-28 -101zM272 313h-110q0 119 66.5 183.5
t160.5 64.5q42 0 78.5 -14.5t62 -35.5t49 -41.5t51.5 -35t58 -14.5q51 0 74.5 39t23.5 100h113q0 -122 -59 -185t-152 -63q-44 0 -81 14.5t-63 35.5t-50 42t-52.5 35.5t-58.5 14.5q-55 0 -83 -40t-28 -100z" />
    <glyph glyph-name="notequal" unicode="&#x2260;" horiz-adv-x="1038" 
d="M877 887v-113h-267q-22 -157 -108 -303h375v-113h-416q2 -64 -43 -184h-111q48 127 90 184h-239v113h278q21 151 111 303h-389v113h430q-2 53 39 174h110q-37 -108 -84 -174h224z" />
    <glyph glyph-name="lessequal" unicode="&#x2264;" horiz-adv-x="1036" 
d="M872 354h-712v101h479l-477 180v113l710 182v-111l-563 -139l563 -225v-101z" />
    <glyph glyph-name="greaterequal" unicode="&#x2265;" horiz-adv-x="1036" 
d="M877 354h-713v101l561 225l-561 139v111l710 -182v-113l-477 -180h480v-101z" />
    <glyph glyph-name="lozenge" unicode="&#x25ca;" horiz-adv-x="1159" 
d="M625 0h-90l-414 694l414 692h90l413 -692zM254 694l321 -549h9l321 549l-321 547h-9z" />
    <glyph glyph-name="A.ss01" horiz-adv-x="1511" 
d="M172 0h-137l631 1597h180l631 -1597h-140q-150 363 -207 578l-20 18q-251 -23 -340 -23q-140 0 -360 23l-23 -21q-60 -191 -215 -575zM432 688l14 -20q185 20 324 20t289 -20l12 18q-66 165 -105 267.5t-86.5 249.5t-80.5 282h-86q-36 -137 -86 -285.5t-90 -251
t-105 -260.5z" />
    <glyph glyph-name="Aacute.ss01" horiz-adv-x="1511" 
d="M1128 2042l-340 -322h-112l262 322h190zM172 0h-137l631 1597h180l631 -1597h-140q-150 363 -207 578l-20 18q-251 -23 -340 -23q-140 0 -360 23l-23 -21q-60 -191 -215 -575zM432 688l14 -20q185 20 324 20t289 -20l12 18q-66 165 -105 267.5t-86.5 249.5t-80.5 282h-86
q-36 -137 -86 -285.5t-90 -251t-105 -260.5z" />
    <glyph glyph-name="Abreve.ss01" horiz-adv-x="1511" 
d="M756 1726q-84 0 -155 29t-117 76t-73 103.5t-30 113.5h113q6 -85 81 -151t181 -66q107 0 182 66t80 151h112q-2 -57 -28.5 -113.5t-72.5 -103.5t-117.5 -76t-155.5 -29zM172 0h-137l631 1597h180l631 -1597h-140q-150 363 -207 578l-20 18q-251 -23 -340 -23
q-140 0 -360 23l-23 -21q-60 -191 -215 -575zM432 688l14 -20q185 20 324 20t289 -20l12 18q-66 165 -105 267.5t-86.5 249.5t-80.5 282h-86q-36 -137 -86 -285.5t-90 -251t-105 -260.5z" />
    <glyph glyph-name="Acircumflex.ss01" horiz-adv-x="1511" 
d="M520 1720h-114l266 303h162l268 -303h-115q-53 50 -77 73.5t-64 72t-68 96.5h-47q-9 -15 -19 -30.5t-18.5 -27.5t-21.5 -27.5t-20 -24t-22 -24.5t-21 -22l-23 -23t-21 -20.5t-23 -21.5t-22 -21zM172 0h-137l631 1597h180l631 -1597h-140q-150 363 -207 578l-20 18
q-251 -23 -340 -23q-140 0 -360 23l-23 -21q-60 -191 -215 -575zM432 688l14 -20q185 20 324 20t289 -20l12 18q-66 165 -105 267.5t-86.5 249.5t-80.5 282h-86q-36 -137 -86 -285.5t-90 -251t-105 -260.5z" />
    <glyph glyph-name="Adieresis.ss01" horiz-adv-x="1511" 
d="M561 1790q-44 0 -73 30.5t-29 73.5q0 42 29 71.5t73 29.5q42 0 71.5 -29.5t29.5 -71.5q0 -43 -29.5 -73.5t-71.5 -30.5zM950 1790q-44 0 -73 30.5t-29 73.5q0 42 29 71.5t73 29.5q42 0 71.5 -29.5t29.5 -71.5q0 -43 -29.5 -73.5t-71.5 -30.5zM172 0h-137l631 1597h180
l631 -1597h-140q-150 363 -207 578l-20 18q-251 -23 -340 -23q-140 0 -360 23l-23 -21q-60 -191 -215 -575zM432 688l14 -20q185 20 324 20t289 -20l12 18q-66 165 -105 267.5t-86.5 249.5t-80.5 282h-86q-36 -137 -86 -285.5t-90 -251t-105 -260.5z" />
    <glyph glyph-name="Agrave.ss01" horiz-adv-x="1511" 
d="M840 1720h-113l-340 322h191zM172 0h-137l631 1597h180l631 -1597h-140q-150 363 -207 578l-20 18q-251 -23 -340 -23q-140 0 -360 23l-23 -21q-60 -191 -215 -575zM432 688l14 -20q185 20 324 20t289 -20l12 18q-66 165 -105 267.5t-86.5 249.5t-80.5 282h-86
q-36 -137 -86 -285.5t-90 -251t-105 -260.5z" />
    <glyph glyph-name="Amacron.ss01" horiz-adv-x="1511" 
d="M1087 1835h-663v107h663v-107zM172 0h-137l631 1597h180l631 -1597h-140q-150 363 -207 578l-20 18q-251 -23 -340 -23q-140 0 -360 23l-23 -21q-60 -191 -215 -575zM432 688l14 -20q185 20 324 20t289 -20l12 18q-66 165 -105 267.5t-86.5 249.5t-80.5 282h-86
q-36 -137 -86 -285.5t-90 -251t-105 -260.5z" />
    <glyph glyph-name="Aogonek.ss01" horiz-adv-x="1511" 
d="M1464 -373q37 0 88 15v-91q-55 -14 -98 -14q-116 0 -192 62.5t-76 169.5q0 136 160 231h-9q-150 363 -207 578l-20 18q-251 -23 -340 -23q-140 0 -360 23l-23 -21q-60 -191 -215 -575h-137l631 1597h180l631 -1597h-17q-176 -87 -176 -213q0 -72 51 -116t129 -44z
M1059 668l12 18q-66 165 -105 267.5t-86.5 249.5t-80.5 282h-86q-36 -137 -86 -285.5t-90 -251t-105 -260.5l14 -20q185 20 324 20t289 -20z" />
    <glyph glyph-name="Aring.ss01" horiz-adv-x="1511" 
d="M756 1716q-97 0 -161.5 61t-64.5 156q0 93 64.5 154t161.5 61q94 0 157.5 -61t63.5 -154q0 -95 -63 -156t-158 -61zM756 1802q57 0 95 35.5t38 95.5q0 59 -38 94t-95 35q-60 0 -99 -35t-39 -94q0 -60 39 -95.5t99 -35.5zM172 0h-137l631 1597h180l631 -1597h-140
q-150 363 -207 578l-20 18q-251 -23 -340 -23q-140 0 -360 23l-23 -21q-60 -191 -215 -575zM432 688l14 -20q185 20 324 20t289 -20l12 18q-66 165 -105 267.5t-86.5 249.5t-80.5 282h-86q-36 -137 -86 -285.5t-90 -251t-105 -260.5z" />
    <glyph glyph-name="Atilde.ss01" horiz-adv-x="1511" 
d="M909 1749q-15 0 -29 2t-24.5 4.5t-23 8.5t-19.5 9t-19 12t-16.5 13t-17.5 15t-17 14l-36 31q-21 18 -31.5 26t-31 17.5t-40.5 9.5q-47 0 -77.5 -42.5t-30.5 -105.5h-95q1 109 58.5 176.5t148.5 67.5q70 0 148 -68l43 -36q67 -58 112 -58q48 0 75.5 41.5t27.5 106.5h94
q0 -111 -52.5 -177.5t-146.5 -66.5zM172 0h-137l631 1597h180l631 -1597h-140q-150 363 -207 578l-20 18q-251 -23 -340 -23q-140 0 -360 23l-23 -21q-60 -191 -215 -575zM432 688l14 -20q185 20 324 20t289 -20l12 18q-66 165 -105 267.5t-86.5 249.5t-80.5 282h-86
q-36 -137 -86 -285.5t-90 -251t-105 -260.5z" />
    <glyph glyph-name="B.ss01" horiz-adv-x="1458" 
d="M860 0h-639v1597h563q120 0 218.5 -34t161 -92.5t96.5 -133t34 -157.5q0 -122 -74.5 -219t-222.5 -132v-34q175 -28 262 -129.5t87 -237.5q0 -184 -139 -306t-347 -122zM330 860l20 -22q146 24 420 24q179 0 283 84.5t104 218.5q0 140 -114.5 227t-290.5 87h-45.5h-48.5
t-45.5 0.5t-51 1t-48.5 2.5t-54 4t-52.5 5.5t-58.5 8.5l-20 -18q33 -286 2 -623zM328 117l20 -21q170 23 469 23q181 0 286 85t105 220q0 142 -112.5 231.5t-294.5 89.5q-287 0 -451 23l-20 -20q31 -344 -2 -631z" />
    <glyph glyph-name="C.ss01" horiz-adv-x="1722" 
d="M915 -35q-233 0 -416.5 105t-285.5 294t-102 429q0 184 62.5 342t169.5 265.5t253 168.5t311 61q112 0 218.5 -28.5t201.5 -83.5t169 -145.5t112 -205.5l-117 -49q-73 185 -231 287t-353 102q-132 0 -250 -49t-208.5 -139t-143.5 -227t-53 -301q0 -138 38 -255
t103 -198.5t151.5 -138.5t184 -84t201.5 -27q125 0 232 39.5t183 109t128 156t81 187.5l117 -43q-30 -97 -76.5 -181.5t-114 -157t-150 -124t-189 -80.5t-226.5 -29z" />
    <glyph glyph-name="D.ss01" horiz-adv-x="1650" 
d="M797 0h-576v1597h557q156 0 283 -40.5t214.5 -112t146.5 -171.5t86.5 -216t27.5 -248q0 -238 -87 -420t-255.5 -285.5t-396.5 -103.5zM328 117l20 -21q166 23 461 23q273 0 431.5 183.5t158.5 494.5q0 320 -171 501t-478 181q-263 0 -402 22l-20 -18q40 -677 0 -1366z
" />
    <glyph glyph-name="E.ss01" horiz-adv-x="1349" 
d="M1241 0h-1020v1597h1000v-118q-30 0 -199.5 -1t-236.5 0t-197 6.5t-240 16.5l-20 -18q33 -290 2 -604l18 -23q299 27 832 27v-121q-547 0 -832 24l-18 -22q31 -333 -2 -647l20 -21q319 29 893 29v-125z" />
    <glyph glyph-name="F.ss01" horiz-adv-x="1273" 
d="M350 0h-129v1597h981v-124q-195 0 -288 0.5t-258.5 7.5t-307.5 20l-20 -18q37 -314 0 -619l18 -22q136 13 294.5 19t246.5 6.5t274 0.5v-120q-530 0 -815 24l-18 -20q22 -243 22 -752z" />
    <glyph glyph-name="G.ss01" horiz-adv-x="1759" 
d="M911 -35q-177 0 -327 62.5t-253.5 172t-161.5 262t-58 329.5q0 185 62.5 343t169.5 266t253 169t311 61q112 0 219.5 -28.5t202 -84t168.5 -146t111 -204.5l-117 -49q-73 185 -230.5 287t-351.5 102q-133 0 -251.5 -49t-209 -138t-143.5 -225.5t-53 -301.5
q0 -318 188.5 -511.5t497.5 -193.5q268 0 430.5 162.5t194.5 435.5l-15 16q-321 -40 -587 -40v114h698v-45q0 -159 -41 -288.5t-111.5 -217t-167 -147t-203.5 -86.5t-225 -27z" />
    <glyph glyph-name="H.ss01" horiz-adv-x="1654" 
d="M350 0h-129v1597h129q0 -491 -20 -727l20 -22q508 37 957 0l18 22q-20 248 -20 727h131v-1597h-131q0 482 20 752l-18 22q-449 -54 -957 0l-20 -22q20 -258 20 -752z" />
    <glyph glyph-name="I.ss01" horiz-adv-x="1099" 
d="M1020 0h-938v119q269 0 416 -23q-18 703 0 1405q-145 -22 -426 -22v118h958v-118q-283 0 -428 22q21 -703 0 -1405q147 23 418 23v-119z" />
    <glyph glyph-name="Iacute.ss01" horiz-adv-x="1099" 
d="M920 2040l-340 -320h-113l262 320h191zM1020 0h-938v119q269 0 416 -23q-18 703 0 1405q-145 -22 -426 -22v118h958v-118q-283 0 -428 22q21 -703 0 -1405q147 23 418 23v-119z" />
    <glyph glyph-name="Icircumflex.ss01" horiz-adv-x="1099" 
d="M317 1720h-114l266 303h162l268 -303h-115q-53 50 -77 73.5t-64 72t-68 96.5h-47q-9 -15 -19 -30.5t-18.5 -27.5t-21.5 -27.5t-20 -24t-22 -24.5t-21 -22l-23 -23t-21 -20.5t-23 -21.5t-22 -21zM1020 0h-938v119q269 0 416 -23q-18 703 0 1405q-145 -22 -426 -22v118h958
v-118q-283 0 -428 22q21 -703 0 -1405q147 23 418 23v-119z" />
    <glyph glyph-name="Idieresis.ss01" horiz-adv-x="1099" 
d="M356 1790q-44 0 -73 30.5t-29 73.5q0 42 29 71.5t73 29.5q42 0 71.5 -29.5t29.5 -71.5q0 -43 -29.5 -73.5t-71.5 -30.5zM745 1790q-44 0 -73 30.5t-29 73.5q0 42 29 71.5t73 29.5q42 0 71.5 -29.5t29.5 -71.5q0 -43 -29.5 -73.5t-71.5 -30.5zM1020 0h-938v119
q269 0 416 -23q-18 703 0 1405q-145 -22 -426 -22v118h958v-118q-283 0 -428 22q21 -703 0 -1405q147 23 418 23v-119z" />
    <glyph glyph-name="Idotaccent.ss01" horiz-adv-x="1099" 
d="M551 1788q-46 0 -77.5 32t-31.5 78q0 43 32 75t77 32q44 0 75 -32t31 -75q0 -46 -31 -78t-75 -32zM1020 0h-938v119q269 0 416 -23q-18 703 0 1405q-145 -22 -426 -22v118h958v-118q-283 0 -428 22q21 -703 0 -1405q147 23 418 23v-119z" />
    <glyph glyph-name="Igrave.ss01" horiz-adv-x="1099" 
d="M635 1720h-113l-340 322h191zM1020 0h-938v119q269 0 416 -23q-18 703 0 1405q-145 -22 -426 -22v118h958v-118q-283 0 -428 22q21 -703 0 -1405q147 23 418 23v-119z" />
    <glyph glyph-name="Imacron.ss01" horiz-adv-x="1099" 
d="M883 1835h-664v107h664v-107zM1020 0h-938v119q269 0 416 -23q-18 703 0 1405q-145 -22 -426 -22v118h958v-118q-283 0 -428 22q21 -703 0 -1405q147 23 418 23v-119z" />
    <glyph glyph-name="J.ss01" horiz-adv-x="1193" 
d="M545 -35q-72 0 -137 15t-128.5 53.5t-109.5 97t-74 152.5t-28 213v24l122 17v-21q0 -99 22 -176.5t56.5 -124.5t82 -77.5t92.5 -42t94 -11.5q153 0 238 112t85 302q0 615 25 989l-13 22q-228 -30 -561 -30v118h680v-1060q0 -39 -1 -68t-9.5 -93t-24 -112t-49 -107.5
t-79 -98.5t-118.5 -66t-165 -27z" />
    <glyph glyph-name="K.ss01" horiz-adv-x="1353" 
d="M350 0h-129v1597h129q0 -532 -12 -757h12q382 363 805 757h172q-432 -406 -876 -796v-23q92 -73 182 -146.5t200 -168t165.5 -142.5t194.5 -170.5t171 -150.5h-182q-24 20 -114.5 98.5t-124 107t-112.5 97.5t-125 111t-113 103t-126 118t-117 115h-10q10 -281 10 -750z
" />
    <glyph glyph-name="L.ss01" horiz-adv-x="1212" 
d="M1182 0h-961v1597h129q0 -990 -22 -1480l20 -21q295 29 834 29v-125z" />
    <glyph glyph-name="M.ss01" horiz-adv-x="1918" 
d="M352 0h-131v1597h154q322 -567 571 -1118h25q256 558 573 1118h154v-1597h-131q0 111 -2 331t-2.5 356t5 330t17.5 361h-22l-545 -1024h-117l-547 1024h-22q13 -167 18.5 -361.5t5.5 -329t-2 -357.5t-2 -330z" />
    <glyph glyph-name="N.ss01" horiz-adv-x="1691" 
d="M350 0h-129v1597h197q14 -23 107 -171t116 -185t105.5 -169t118 -189t107.5 -175t120 -197.5t110.5 -185t120.5 -204.5h41q-23 543 -23 1476h132v-1597h-199q-601 952 -899 1462h-47q22 -516 22 -1462z" />
    <glyph glyph-name="O.ss01" horiz-adv-x="1820" 
d="M909 -35q-162 0 -309 63t-255 172t-172 265t-64 332t63.5 331.5t171.5 265t255.5 173t311.5 63.5q166 0 315 -65t255.5 -176t168.5 -265.5t62 -326.5q0 -173 -63 -328t-170.5 -265t-256 -174.5t-313.5 -64.5zM913 88q131 0 251 53.5t209.5 146t142.5 225.5t53 284
t-53 284t-142.5 226t-209.5 146.5t-251 53.5q-132 0 -253.5 -53.5t-212 -146t-144 -225.5t-53.5 -285q0 -151 53.5 -284t144 -225.5t212 -146t253.5 -53.5z" />
    <glyph glyph-name="P.ss01" horiz-adv-x="1366" 
d="M350 0h-129v1597h555q232 0 376 -127.5t144 -341.5q0 -113 -39.5 -206.5t-106.5 -153.5t-155 -92.5t-186 -32.5q-120 0 -179.5 1.5t-143 9.5t-158.5 26q22 -239 22 -680zM330 760l18 -23q154 25 420 25q184 0 287.5 93.5t103.5 262.5t-111.5 265t-297.5 96
q-263 0 -402 22l-20 -18q33 -351 2 -723z" />
    <glyph glyph-name="Q.ss01" horiz-adv-x="1832" 
d="M481 -279v-22q180 19 386 28.5t334.5 11t359.5 1.5v-115h-1299q75 84 346 398q-226 88 -358.5 291.5t-132.5 482.5q0 184 60.5 340t167 264t255 168.5t320.5 60.5q230 0 412.5 -107t284 -297t101.5 -429q0 -181 -60 -335.5t-166 -263t-254 -170t-320 -61.5q-96 0 -199 23
q-162 -187 -238 -269zM252 797q0 -248 120 -425.5t320 -246.5q232 281 379 467l94 -76q-226 -274 -354 -422q47 -8 111 -8q137 0 258.5 51.5t210.5 143t140.5 225.5t51.5 291q0 158 -51.5 292.5t-140.5 226.5t-210.5 143.5t-258.5 51.5q-187 0 -339 -87.5t-241.5 -251.5
t-89.5 -375z" />
    <glyph glyph-name="R.ss01" horiz-adv-x="1413" 
d="M350 0h-129v1597h555q229 0 374.5 -128t145.5 -343q0 -90 -23.5 -162t-63 -122t-100 -86.5t-125 -57.5t-147.5 -32.5t-158.5 -14t-166.5 -0.5q366 -278 836 -651h-181q-526 409 -827 666h-12q22 -228 22 -666zM330 756l18 -23q152 25 420 25q183 0 287 95t104 265
q0 167 -112 264t-297 97q-245 0 -402 22l-20 -18q32 -364 2 -727z" />
    <glyph glyph-name="S.ss01" horiz-adv-x="1318" 
d="M680 -35q-72 0 -141 14.5t-140.5 49t-130.5 86.5t-108 133.5t-76 183.5l121 45q50 -187 179 -289t298 -102q72 0 140 19t126 56t93.5 101.5t35.5 147.5q0 58 -19 104t-48 75t-74 52.5t-85 37.5t-92 30q-19 5 -28 8l-149 47q-44 14 -75.5 25t-81 33.5t-85 45t-75.5 58
t-65 74.5t-42 93t-17 115q0 103 44.5 185.5t118.5 133t164 77t187 26.5q188 0 330 -99.5t195 -283.5l-117 -49q-45 143 -156 227t-266 84t-260 -80t-105 -210q0 -45 15 -85.5t35 -69t55.5 -56t60.5 -43t68 -33.5t59 -23.5t52 -17.5l155 -51q152 -48 206 -72
q184 -85 226 -237q13 -48 13 -103q0 -104 -44.5 -192t-119 -146.5t-172.5 -91.5t-205 -33z" />
    <glyph glyph-name="U.ss01" horiz-adv-x="1560" 
d="M754 -35q-260 0 -406.5 160.5t-146.5 449.5v1022h131v-1015q0 -249 114.5 -373.5t321.5 -124.5q209 0 325.5 124.5t116.5 373.5v1015h131v-1597h-129q0 76 21 260h-23q-64 -157 -175.5 -226t-280.5 -69z" />
    <glyph glyph-name="Uacute.ss01" horiz-adv-x="1560" 
d="M1098 2040l-340 -320h-115l262 320h193zM754 -35q-260 0 -406.5 160.5t-146.5 449.5v1022h131v-1015q0 -249 114.5 -373.5t321.5 -124.5q209 0 325.5 124.5t116.5 373.5v1015h131v-1597h-129q0 76 21 260h-23q-64 -157 -175.5 -226t-280.5 -69z" />
    <glyph glyph-name="Ucircumflex.ss01" horiz-adv-x="1560" 
d="M530 1720h-114l266 303h162l268 -303h-115q-53 50 -77 73.5t-64 72t-68 96.5h-47q-9 -15 -19 -30.5t-18.5 -27.5t-21.5 -27.5t-20 -24t-22 -24.5t-21 -22l-23 -23t-21 -20.5t-23 -21.5t-22 -21zM754 -35q-260 0 -406.5 160.5t-146.5 449.5v1022h131v-1015
q0 -249 114.5 -373.5t321.5 -124.5q209 0 325.5 124.5t116.5 373.5v1015h131v-1597h-129q0 76 21 260h-23q-64 -157 -175.5 -226t-280.5 -69z" />
    <glyph glyph-name="Udieresis.ss01" horiz-adv-x="1560" 
d="M569 1790q-44 0 -73 30.5t-29 73.5q0 42 29 71.5t73 29.5q42 0 71.5 -29.5t29.5 -71.5q0 -43 -29.5 -73.5t-71.5 -30.5zM958 1790q-44 0 -73 30.5t-29 73.5q0 42 29 71.5t73 29.5q42 0 71.5 -29.5t29.5 -71.5q0 -43 -29.5 -73.5t-71.5 -30.5zM754 -35
q-260 0 -406.5 160.5t-146.5 449.5v1022h131v-1015q0 -249 114.5 -373.5t321.5 -124.5q209 0 325.5 124.5t116.5 373.5v1015h131v-1597h-129q0 76 21 260h-23q-64 -157 -175.5 -226t-280.5 -69z" />
    <glyph glyph-name="Ugrave.ss01" horiz-adv-x="1560" 
d="M848 1720h-113l-340 322h191zM754 -35q-260 0 -406.5 160.5t-146.5 449.5v1022h131v-1015q0 -249 114.5 -373.5t321.5 -124.5q209 0 325.5 124.5t116.5 373.5v1015h131v-1597h-129q0 76 21 260h-23q-64 -157 -175.5 -226t-280.5 -69z" />
    <glyph glyph-name="Uhungarumlaut.ss01" horiz-adv-x="1560" 
d="M909 2042l-276 -322h-113l213 322h176zM1219 2042l-293 -322h-113l229 322h177zM754 -35q-260 0 -406.5 160.5t-146.5 449.5v1022h131v-1015q0 -249 114.5 -373.5t321.5 -124.5q209 0 325.5 124.5t116.5 373.5v1015h131v-1597h-129q0 76 21 260h-23q-64 -157 -175.5 -226
t-280.5 -69z" />
    <glyph glyph-name="Umacron.ss01" horiz-adv-x="1560" 
d="M1096 1835h-664v107h664v-107zM754 -35q-260 0 -406.5 160.5t-146.5 449.5v1022h131v-1015q0 -249 114.5 -373.5t321.5 -124.5q209 0 325.5 124.5t116.5 373.5v1015h131v-1597h-129q0 76 21 260h-23q-64 -157 -175.5 -226t-280.5 -69z" />
    <glyph glyph-name="Uogonek.ss01" horiz-adv-x="1560" 
d="M1337 -373q37 0 88 15v-91q-55 -14 -98 -14q-116 0 -192 62.5t-76 169.5q0 136 160 231h-7q0 76 21 260h-23q-64 -157 -175.5 -226t-280.5 -69q-260 0 -406.5 160.5t-146.5 449.5v1022h131v-1015q0 -249 114.5 -373.5t321.5 -124.5q209 0 325.5 124.5t116.5 373.5v1015
h131v-1597h-8q-176 -87 -176 -213q0 -72 51 -116t129 -44z" />
    <glyph glyph-name="Uring.ss01" horiz-adv-x="1560" 
d="M764 1716q-97 0 -161 61t-64 156q0 93 64 154t161 61q94 0 157.5 -61t63.5 -154q0 -95 -63 -156t-158 -61zM764 1802q57 0 95 35.5t38 95.5q0 59 -38 94t-95 35q-60 0 -98.5 -35t-38.5 -94q0 -60 38.5 -95.5t98.5 -35.5zM754 -35q-260 0 -406.5 160.5t-146.5 449.5v1022
h131v-1015q0 -249 114.5 -373.5t321.5 -124.5q209 0 325.5 124.5t116.5 373.5v1015h131v-1597h-129q0 76 21 260h-23q-64 -157 -175.5 -226t-280.5 -69z" />
    <glyph glyph-name="V.ss01" horiz-adv-x="1513" 
d="M864 0h-217l-612 1597h137q386 -1020 547 -1466h82q222 621 538 1466h140z" />
    <glyph glyph-name="W.ss01" horiz-adv-x="2322" 
d="M721 0h-162l-520 1597h139l457 -1427h8l401 1427h252l390 -1427h8l450 1427h140l-521 -1597h-159l-390 1470h-86z" />
    <glyph glyph-name="Wacute.ss01" horiz-adv-x="2322" 
d="M1534 2042l-340 -322h-113l262 322h191zM721 0h-162l-520 1597h139l457 -1427h8l401 1427h252l390 -1427h8l450 1427h140l-521 -1597h-159l-390 1470h-86z" />
    <glyph glyph-name="Wcircumflex.ss01" horiz-adv-x="2322" 
d="M928 1720h-115l266 303h162l268 -303h-114q-53 50 -77 73.5t-64 72t-68 96.5h-47q-9 -15 -19 -30.5t-18.5 -27.5t-21.5 -27.5t-20 -24t-22 -24.5t-21 -22l-23 -23t-21 -20.5t-23 -21.5t-22 -21zM721 0h-162l-520 1597h139l457 -1427h8l401 1427h252l390 -1427h8l450 1427
h140l-521 -1597h-159l-390 1470h-86z" />
    <glyph glyph-name="Wdieresis.ss01" horiz-adv-x="2322" 
d="M967 1790q-44 0 -73.5 30.5t-29.5 73.5q0 42 29.5 71.5t73.5 29.5q42 0 71 -29.5t29 -71.5q0 -43 -29 -73.5t-71 -30.5zM1356 1790q-44 0 -73.5 30.5t-29.5 73.5q0 42 29.5 71.5t73.5 29.5q42 0 71 -29.5t29 -71.5q0 -43 -29 -73.5t-71 -30.5zM721 0h-162l-520 1597h139
l457 -1427h8l401 1427h252l390 -1427h8l450 1427h140l-521 -1597h-159l-390 1470h-86z" />
    <glyph glyph-name="Wgrave.ss01" horiz-adv-x="2322" 
d="M1245 1720h-112l-340 322h190zM721 0h-162l-520 1597h139l457 -1427h8l401 1427h252l390 -1427h8l450 1427h140l-521 -1597h-159l-390 1470h-86z" />
    <glyph glyph-name="X.ss01" horiz-adv-x="1406" 
d="M176 0h-145l544 817l-2 10l-530 770h147q203 -292 474 -712h79l474 712h145l-528 -770l-3 -10l545 -817h-143q-225 344 -490 760h-79q-328 -516 -488 -760z" />
    <glyph glyph-name="Y.ss01" horiz-adv-x="1384" 
d="M434 0h-135q242 401 377 592q-279 424 -623 1005h144q25 -43 124 -210.5t143 -243t119 -209t136 -246.5h22q105 217 223 425.5t283 483.5h139z" />
    <glyph glyph-name="Yacute.ss01" horiz-adv-x="1384" 
d="M1092 2040l-340 -320h-115l262 320h193zM434 0h-135q242 401 377 592q-279 424 -623 1005h144q25 -43 124 -210.5t143 -243t119 -209t136 -246.5h22q105 217 223 425.5t283 483.5h139z" />
    <glyph glyph-name="Ycircumflex.ss01" horiz-adv-x="1384" 
d="M485 1720h-114l266 303h162l268 -303h-115q-53 50 -77 73.5t-64 72t-68 96.5h-47q-9 -15 -19 -30.5t-18.5 -27.5t-21.5 -27.5t-20 -24t-22 -24.5t-21 -22l-23 -23t-21 -20.5t-23 -21.5t-22 -21zM434 0h-135q242 401 377 592q-279 424 -623 1005h144q25 -43 124 -210.5
t143 -243t119 -209t136 -246.5h22q105 217 223 425.5t283 483.5h139z" />
    <glyph glyph-name="Ydieresis.ss01" horiz-adv-x="1384" 
d="M524 1790q-44 0 -73 30.5t-29 73.5q0 42 29 71.5t73 29.5q42 0 71.5 -29.5t29.5 -71.5q0 -43 -29.5 -73.5t-71.5 -30.5zM913 1790q-44 0 -73 30.5t-29 73.5q0 42 29 71.5t73 29.5q42 0 71.5 -29.5t29.5 -71.5q0 -43 -29.5 -73.5t-71.5 -30.5zM434 0h-135q242 401 377 592
q-279 424 -623 1005h144q25 -43 124 -210.5t143 -243t119 -209t136 -246.5h22q105 217 223 425.5t283 483.5h139z" />
    <glyph glyph-name="Ygrave.ss01" horiz-adv-x="1384" 
d="M803 1720h-113l-340 322h191zM434 0h-135q242 401 377 592q-279 424 -623 1005h144q25 -43 124 -210.5t143 -243t119 -209t136 -246.5h22q105 217 223 425.5t283 483.5h139z" />
    <glyph glyph-name="Z.ss01" horiz-adv-x="1388" 
d="M1307 0h-1305q121 158 515 677t618 810l-11 18q-362 -26 -997 -26v118h1237q-66 -86 -267.5 -352t-302 -397.5t-264.5 -343t-303 -385.5l13 -23q356 29 1067 29v-125z" />
    <glyph glyph-name="Zacute.ss01" horiz-adv-x="1388" 
d="M1059 2042l-340 -322h-113l262 322h191zM1307 0h-1305q121 158 515 677t618 810l-11 18q-362 -26 -997 -26v118h1237q-66 -86 -267.5 -352t-302 -397.5t-264.5 -343t-303 -385.5l13 -23q356 29 1067 29v-125z" />
    <glyph glyph-name="Zcaron.ss01" horiz-adv-x="1388" 
d="M766 1720h-164l-266 303h115q5 -5 24 -23t25.5 -24t24 -23t25.5 -25.5t23 -24.5t24.5 -28t21.5 -28t22.5 -32t20.5 -33h47q10 17 20 32.5t23 32.5t21 27.5t24 28.5t21.5 24.5t25 26l22.5 22.5t25.5 24.5t23.5 22.5h115zM1307 0h-1305q121 158 515 677t618 810l-11 18
q-362 -26 -997 -26v118h1237q-66 -86 -267.5 -352t-302 -397.5t-264.5 -343t-303 -385.5l13 -23q356 29 1067 29v-125z" />
    <glyph glyph-name="Zdotaccent.ss01" horiz-adv-x="1388" 
d="M688 1788q-46 0 -77 32t-31 78q0 43 31.5 75t76.5 32q44 0 75.5 -32t31.5 -75q0 -46 -31.5 -78t-75.5 -32zM1307 0h-1305q121 158 515 677t618 810l-11 18q-362 -26 -997 -26v118h1237q-66 -86 -267.5 -352t-302 -397.5t-264.5 -343t-303 -385.5l13 -23q356 29 1067 29
v-125z" />
    <glyph glyph-name="Q.ss02" horiz-adv-x="1820" 
d="M956 -31q15 -84 11 -252q201 25 569 25v-117q-440 0 -668 15q-8 209 9 327q-160 10 -302 76.5t-244.5 174.5t-162 258.5t-59.5 320.5q0 176 63.5 331.5t171.5 265t255.5 173t311.5 63.5q166 0 315 -65t255.5 -176t168.5 -265.5t62 -326.5q0 -222 -96.5 -404
t-268.5 -293.5t-391 -130.5zM250 797q0 -189 78 -342.5t221.5 -249.5t329.5 -117q-23 168 -23 492h125q0 -326 -27 -494q127 13 240 71.5t196 150.5t131 219t48 270q0 151 -53 284t-142.5 226t-209.5 146.5t-251 53.5q-132 0 -253.5 -53.5t-212 -146t-144 -225.5t-53.5 -285
z" />
    <glyph glyph-name="A.ss07" 
d="M1020 -315q-197 0 -371.5 71t-298.5 193.5t-196 293.5t-72 365q0 198 72 372.5t196 298.5t298 195.5t372 71.5q200 0 375.5 -71.5t301 -195.5t197.5 -298.5t72 -372.5q0 -259 -123 -470.5t-339.5 -332t-483.5 -120.5zM977 1096l-393 -963h98q98 240 131 344l8 10
q115 -14 211 -14q89 0 199 14l6 -8q40 -140 127 -346h98l-391 963h-94zM844 547l-2 4q109 236 174 450h16q53 -193 170 -450l-2 -4q-106 12 -168 12t-188 -12z" />
    <glyph glyph-name="B.ss07" 
d="M1020 -315q-197 0 -371.5 71t-298.5 193.5t-196 293.5t-72 365q0 198 72 372.5t196 298.5t298 195.5t372 71.5q200 0 375.5 -71.5t301 -195.5t197.5 -298.5t72 -372.5q0 -259 -123 -470.5t-339.5 -332t-483.5 -120.5zM715 1096v-963h387q124 0 210.5 72.5t86.5 187.5
q0 91 -55 150.5t-152 74.5v9q83 22 129.5 78.5t46.5 136.5q0 112 -87 183t-224 71h-342zM803 647l-6 6q18 197 -2 365l8 6q79 -14 235 -14q104 0 168 -49.5t64 -129.5q0 -79 -61 -125.5t-160 -46.5q-156 0 -246 -12zM803 207l-8 8q20 169 2 367l6 6q104 -13 264 -13
q104 0 168.5 -51t64.5 -131q0 -79 -60.5 -126.5t-162.5 -47.5q-176 0 -274 -12z" />
    <glyph glyph-name="C.ss07" 
d="M1020 -315q-197 0 -371.5 71t-298.5 193.5t-196 293.5t-72 365q0 198 72 372.5t196 298.5t298 195.5t372 71.5q200 0 375.5 -71.5t301 -195.5t197.5 -298.5t72 -372.5q0 -259 -123 -470.5t-339.5 -332t-483.5 -120.5zM1055 113q167 0 286.5 92.5t169.5 259.5l-86 31
q-32 -128 -124.5 -211.5t-239.5 -83.5q-77 0 -146 25.5t-125 74t-89 128.5t-33 181q0 183 107.5 300.5t273.5 117.5q118 0 210 -63.5t130 -169.5l84 32q-42 141 -161.5 215t-262.5 74q-135 0 -244.5 -64t-172.5 -179.5t-63 -260.5q0 -221 135.5 -360t350.5 -139z" />
    <glyph glyph-name="D.ss07" 
d="M1020 -315q-197 0 -371.5 71t-298.5 193.5t-196 293.5t-72 365q0 198 72 372.5t196 298.5t298 195.5t372 71.5q200 0 375.5 -71.5t301 -195.5t197.5 -298.5t72 -372.5q0 -259 -123 -470.5t-339.5 -332t-483.5 -120.5zM678 1096v-963h350q203 0 325 133t122 355
q0 224 -121.5 349.5t-337.5 125.5h-338zM766 207l-8 8q24 400 0 803l8 6q84 -14 233 -14q175 0 276 -103t101 -293q0 -183 -91.5 -289t-248.5 -106q-174 0 -270 -12z" />
    <glyph glyph-name="E.ss07" 
d="M1020 -315q-197 0 -371.5 71t-298.5 193.5t-196 293.5t-72 365q0 198 72 372.5t196 298.5t298 195.5t372 71.5q200 0 375.5 -71.5t301 -195.5t197.5 -298.5t72 -372.5q0 -259 -123 -470.5t-339.5 -332t-483.5 -120.5zM737 1096v-963h623v90q-345 0 -535 -16l-8 8
q20 178 4 377l4 8q178 -16 500 -16v88q-309 0 -500 -15l-4 9q16 187 -4 352l8 6q65 -7 142.5 -10.5t119 -4t141.5 0t120 0.5v86h-611z" />
    <glyph glyph-name="F.ss07" 
d="M1020 -315q-197 0 -371.5 71t-298.5 193.5t-196 293.5t-72 365q0 198 72 372.5t196 298.5t298 195.5t372 71.5q200 0 375.5 -71.5t301 -195.5t197.5 -298.5t72 -372.5q0 -259 -123 -470.5t-339.5 -332t-483.5 -120.5zM758 1096v-963h94q0 299 -14 451l6 8
q189 -17 487 -17v89q-322 0 -487 -15l-6 8q21 180 0 361l6 6q182 -18 512 -18v90h-598z" />
    <glyph glyph-name="G.ss07" 
d="M1020 -315q-197 0 -371.5 71t-298.5 193.5t-196 293.5t-72 365q0 198 72 372.5t196 298.5t298 195.5t372 71.5q200 0 375.5 -71.5t301 -195.5t197.5 -298.5t72 -372.5q0 -259 -123 -470.5t-339.5 -332t-483.5 -120.5zM1044 113q278 0 375 264l17 -2q-6 -37 -9.5 -68
t-4.5 -58t-1.5 -42t0 -40.5t0.5 -33.5h80v477h-430v-84q159 -3 352 25l4 -4q-25 -159 -124 -252.5t-246 -93.5q-74 0 -142.5 25.5t-124 74.5t-89 129t-33.5 180q0 183 107.5 300.5t273.5 117.5q117 0 208.5 -63t131.5 -170l84 32q-42 141 -161.5 215t-262.5 74
q-207 0 -343.5 -143t-136.5 -363q0 -218 134 -357.5t341 -139.5z" />
    <glyph glyph-name="H.ss07" 
d="M1020 -315q-197 0 -371.5 71t-298.5 193.5t-196 293.5t-72 365q0 198 72 372.5t196 298.5t298 195.5t372 71.5q200 0 375.5 -71.5t301 -195.5t197.5 -298.5t72 -372.5q0 -259 -123 -470.5t-339.5 -332t-483.5 -120.5zM655 1096v-963h95q0 284 -13 453l6 6q298 -33 562 0
l6 -6q-13 -178 -13 -453h95v963h-95q0 -274 13 -437l-6 -6q-263 18 -562 0l-6 6q13 153 13 437h-95z" />
    <glyph glyph-name="I.ss07" 
d="M1020 -315q-197 0 -371.5 71t-298.5 193.5t-196 293.5t-72 365q0 198 72 372.5t196 298.5t298 195.5t372 71.5q200 0 375.5 -71.5t301 -195.5t197.5 -298.5t72 -372.5q0 -259 -123 -470.5t-339.5 -332t-483.5 -120.5zM977 1096v-963h94v963h-94z" />
    <glyph glyph-name="J.ss07" 
d="M1020 -315q-197 0 -371.5 71t-298.5 193.5t-196 293.5t-72 365q0 198 72 372.5t196 298.5t298 195.5t372 71.5q200 0 375.5 -71.5t301 -195.5t197.5 -298.5t72 -372.5q0 -259 -123 -470.5t-339.5 -332t-483.5 -120.5zM987 123q56 0 100.5 16.5t72.5 40t48.5 62t30 69.5
t15 76t6 68t0.5 59v592h-95v-617q0 -33 -1.5 -55.5t-6 -59.5t-16.5 -62.5t-31 -51t-51 -38.5t-74 -13q-39 0 -73.5 12t-65.5 38t-49.5 74.5t-18.5 115.5v30l-88 -10v-35q0 -83 26 -145.5t69.5 -97.5t94 -51.5t107.5 -16.5z" />
    <glyph glyph-name="K.ss07" 
d="M1020 -315q-197 0 -371.5 71t-298.5 193.5t-196 293.5t-72 365q0 198 72 372.5t196 298.5t298 195.5t372 71.5q200 0 375.5 -71.5t301 -195.5t197.5 -298.5t72 -372.5q0 -259 -123 -470.5t-339.5 -332t-483.5 -120.5zM725 1096v-963h94q0 223 -8 344q70 50 131 141h2
q42 -62 94 -131.5t87 -115t97.5 -125t88.5 -113.5h116q-264 343 -430 537v8q52 48 111 107t96 97.5t107 112.5t96 101h-119q-36 -39 -115.5 -124t-126.5 -135.5t-115.5 -125.5t-127.5 -142h-6q5 36 8.5 74t5.5 68t4 70.5t2.5 63t1 66.5t0.5 60v64.5v60.5h-94z" />
    <glyph glyph-name="L.ss07" 
d="M1020 -315q-197 0 -371.5 71t-298.5 193.5t-196 293.5t-72 365q0 198 72 372.5t196 298.5t298 195.5t372 71.5q200 0 375.5 -71.5t301 -195.5t197.5 -298.5t72 -372.5q0 -259 -123 -470.5t-339.5 -332t-483.5 -120.5zM811 1096v-963h588v90q-324 0 -500 -16l-8 8
q14 305 14 881h-94z" />
    <glyph glyph-name="M.ss07" 
d="M1020 -315q-197 0 -371.5 71t-298.5 193.5t-196 293.5t-72 365q0 198 72 372.5t196 298.5t298 195.5t372 71.5q200 0 375.5 -71.5t301 -195.5t197.5 -298.5t72 -372.5q0 -259 -123 -470.5t-339.5 -332t-483.5 -120.5zM537 1096v-963h94q0 45 -0.5 185.5t-1.5 212.5
t-6.5 191.5t-16.5 225.5h4q166 -375 371 -815h84q205 440 371 815h4q-8 -88 -13.5 -171t-7.5 -183.5t-2.5 -146t0 -170t0.5 -144.5h94v963h-92q-220 -445 -393 -854h-6q-168 418 -393 854h-90z" />
    <glyph glyph-name="N.ss07" 
d="M1020 -315q-197 0 -371.5 71t-298.5 193.5t-196 293.5t-72 365q0 198 72 372.5t196 298.5t298 195.5t372 71.5q200 0 375.5 -71.5t301 -195.5t197.5 -298.5t72 -372.5q0 -259 -123 -470.5t-339.5 -332t-483.5 -120.5zM657 1096v-963h95v128.5v140t-1 127t-3 145.5
t-5.5 135t-9.5 152h4q259 -381 594 -828h84v963h-94v-110v-122.5t0.5 -109t2 -125.5t3.5 -114t5.5 -133t8.5 -126h-4q-314 468 -596 840h-84z" />
    <glyph glyph-name="O.ss07" 
d="M1020 -315q-197 0 -371.5 71t-298.5 193.5t-196 293.5t-72 365q0 198 72 372.5t196 298.5t298 195.5t372 71.5q200 0 375.5 -71.5t301 -195.5t197.5 -298.5t72 -372.5q0 -259 -123 -470.5t-339.5 -332t-483.5 -120.5zM1024 113q134 0 245 66t174.5 181.5t63.5 253.5
q0 211 -139.5 356.5t-341.5 145.5q-204 0 -343.5 -145t-139.5 -357t139 -356.5t342 -144.5zM641 614q0 173 112 293.5t273 120.5q160 0 270.5 -120.5t110.5 -293.5t-110.5 -293t-270.5 -120t-272.5 119.5t-112.5 293.5z" />
    <glyph glyph-name="P.ss07" 
d="M1020 -315q-197 0 -371.5 71t-298.5 193.5t-196 293.5t-72 365q0 198 72 372.5t196 298.5t298 195.5t372 71.5q200 0 375.5 -71.5t301 -195.5t197.5 -298.5t72 -372.5q0 -259 -123 -470.5t-339.5 -332t-483.5 -120.5zM739 1096v-963h95q0 243 -13 402q93 -19 277 -19
q123 0 210 79t87 214t-91 211t-227 76h-338zM827 588l-6 6q19 217 -2 424l8 6q84 -14 236 -14q106 0 169.5 -54t63.5 -151q0 -99 -59 -151t-164 -52q-158 0 -246 -14z" />
    <glyph glyph-name="Q.ss07" 
d="M1020 -315q-197 0 -371.5 71t-298.5 193.5t-196 293.5t-72 365q0 198 72 372.5t196 298.5t298 195.5t372 71.5q200 0 375.5 -71.5t301 -195.5t197.5 -298.5t72 -372.5q0 -259 -123 -470.5t-339.5 -332t-483.5 -120.5zM1407 63l66 58q-9 10 -32.5 37.5t-37 42.5
t-35.5 37.5t-43 40.5q88 67 134 165.5t46 217.5q0 138 -64 253.5t-175 181.5t-244 66q-205 0 -345 -144.5t-140 -356.5q0 -213 139.5 -357.5t343.5 -144.5q145 0 252 82q42 -69 135 -179zM635 662q0 173 112 292t275 119q160 0 271.5 -119t111.5 -292q0 -189 -127 -330
q-82 120 -195 250l-65 -56q126 -152 205 -227q-100 -53 -201 -53q-163 0 -275 120.5t-112 295.5z" />
    <glyph glyph-name="R.ss07" 
d="M1020 -315q-197 0 -371.5 71t-298.5 193.5t-196 293.5t-72 365q0 198 72 372.5t196 298.5t298 195.5t372 71.5q200 0 375.5 -71.5t301 -195.5t197.5 -298.5t72 -372.5q0 -259 -123 -470.5t-339.5 -332t-483.5 -120.5zM743 1096v-963h95q0 243 -11 402q97 -19 226 -19
l254 -383h106q-12 18 -62 93.5t-72.5 109t-63 91t-74.5 103.5v5q119 11 188.5 83t69.5 191q0 135 -91.5 211t-226.5 76h-338zM831 586l-4 6q15 219 -4 426l8 6q98 -14 236 -14q106 0 169.5 -54.5t63.5 -150.5q0 -100 -59.5 -153.5t-163.5 -53.5q-158 0 -246 -12z" />
    <glyph glyph-name="S.ss07" 
d="M1020 -315q-197 0 -371.5 71t-298.5 193.5t-196 293.5t-72 365q0 198 72 372.5t196 298.5t298 195.5t372 71.5q200 0 375.5 -71.5t301 -195.5t197.5 -298.5t72 -372.5q0 -259 -123 -470.5t-339.5 -332t-483.5 -120.5zM1040 113q140 0 234 80.5t94 201.5q0 48 -16.5 86.5
t-38.5 61.5t-60 44t-63.5 30.5t-67.5 22.5q-15 5 -22 7l-92 31q-26 8 -44 14.5t-50 23t-51.5 34.5t-35.5 48t-16 66q0 71 58 117.5t149 46.5q89 0 154 -50t90 -138l86 37q-30 110 -116 174.5t-208 64.5q-58 0 -112.5 -16.5t-100 -47.5t-73 -82t-27.5 -114q0 -51 20 -94
t46.5 -70t67.5 -50t69 -34t65 -22l88 -27q7 -2 31 -10l33 -11t29.5 -11t29.5 -14t24.5 -16t22.5 -20.5t15.5 -24t12 -30.5t3.5 -37q0 -47 -20.5 -83.5t-54 -58t-72 -32t-79.5 -10.5q-103 0 -177.5 62.5t-100.5 172.5l-88 -33q20 -79 60 -137.5t91 -90.5t104.5 -47t108.5 -15
z" />
    <glyph glyph-name="T.ss07" 
d="M1020 -315q-197 0 -371.5 71t-298.5 193.5t-196 293.5t-72 365q0 198 72 372.5t196 298.5t298 195.5t372 71.5q200 0 375.5 -71.5t301 -195.5t197.5 -298.5t72 -372.5q0 -259 -123 -470.5t-339.5 -332t-483.5 -120.5zM977 133h92q0 584 -8 889q117 -12 336 -12v86h-750
v-86q219 0 336 12q-6 -229 -6 -889z" />
    <glyph glyph-name="U.ss07" 
d="M1020 -315q-197 0 -371.5 71t-298.5 193.5t-196 293.5t-72 365q0 198 72 372.5t196 298.5t298 195.5t372 71.5q200 0 375.5 -71.5t301 -195.5t197.5 -298.5t72 -372.5q0 -259 -123 -470.5t-339.5 -332t-483.5 -120.5zM1020 123q172 0 261 100t89 271v612h-94v-608
q0 -289 -252 -289t-252 289v608h-94v-612q0 -174 85 -272.5t257 -98.5z" />
    <glyph glyph-name="V.ss07" 
d="M1020 -315q-197 0 -371.5 71t-298.5 193.5t-196 293.5t-72 365q0 198 72 372.5t196 298.5t298 195.5t372 71.5q200 0 375.5 -71.5t301 -195.5t197.5 -298.5t72 -372.5q0 -259 -123 -470.5t-339.5 -332t-483.5 -120.5zM586 1096l393 -963h94l393 963h-100
q-220 -551 -334 -871h-8q-154 437 -338 871h-100z" />
    <glyph glyph-name="W.ss07" 
d="M1020 -315q-197 0 -371.5 71t-298.5 193.5t-196 293.5t-72 365q0 198 72 372.5t196 298.5t298 195.5t372 71.5q200 0 375.5 -71.5t301 -195.5t197.5 -298.5t72 -372.5q0 -259 -123 -470.5t-339.5 -332t-483.5 -120.5zM348 1096l314 -963h104q151 453 256 860h6
q104 -415 254 -860h104l314 963h-98q-135 -405 -263 -865h-4q-78 287 -262 865h-98q-197 -632 -260 -865h-4q-102 378 -265 865h-98z" />
    <glyph glyph-name="X.ss07" 
d="M1020 -315q-197 0 -371.5 71t-298.5 193.5t-196 293.5t-72 365q0 198 72 372.5t196 298.5t298 195.5t372 71.5q200 0 375.5 -71.5t301 -195.5t197.5 -298.5t72 -372.5q0 -259 -123 -470.5t-339.5 -332t-483.5 -120.5zM633 133h108q193 284 283 436h2q103 -174 281 -436
h108q-26 38 -103.5 151.5t-131 190.5t-107.5 150v6q97 128 334 465h-109q-174 -246 -272 -410h-2q-89 146 -272 410h-111q210 -299 334 -465v-6q-69 -94 -190.5 -271.5t-151.5 -220.5z" />
    <glyph glyph-name="Y.ss07" 
d="M1020 -315q-197 0 -371.5 71t-298.5 193.5t-196 293.5t-72 365q0 198 72 372.5t196 298.5t298 195.5t372 71.5q200 0 375.5 -71.5t301 -195.5t197.5 -298.5t72 -372.5q0 -259 -123 -470.5t-339.5 -332t-483.5 -120.5zM977 133h92q0 266 -6 354q146 232 367 609h-101
q-201 -337 -305 -541h-2q-115 226 -303 541h-103q181 -309 367 -609q-6 -117 -6 -354z" />
    <glyph glyph-name="Z.ss07" 
d="M1020 -315q-197 0 -371.5 71t-298.5 193.5t-196 293.5t-72 365q0 198 72 372.5t196 298.5t298 195.5t372 71.5q200 0 375.5 -71.5t301 -195.5t197.5 -298.5t72 -372.5q0 -259 -123 -470.5t-339.5 -332t-483.5 -120.5zM670 209v-76h739v90q-388 0 -637 -18l-2 2
q472 606 629 817v72h-705v-86q342 0 600 22l2 -4q-473 -613 -626 -819z" />
    <glyph glyph-name="A.ss08" 
d="M1020 -315q-197 0 -371.5 71t-298.5 193.5t-196 293.5t-72 365q0 198 72 372.5t196 298.5t298 195.5t372 71.5q200 0 375.5 -71.5t301 -195.5t197.5 -298.5t72 -372.5q0 -259 -123 -470.5t-339.5 -332t-483.5 -120.5zM1020 -231q182 0 341.5 64t272.5 175.5t178.5 267.5
t65.5 334q0 179 -65.5 337t-178.5 271t-272.5 178.5t-341.5 65.5q-179 0 -337.5 -65.5t-272 -178t-179 -271t-65.5 -337.5q0 -176 65.5 -332t179 -267.5t272 -176.5t337.5 -65zM784 272h-71l278 684h68l278 -684h-73q-61 145 -90 246l-5 4q-86 -8 -137 -8q-55 0 -149 8
l-6 -4q-31 -105 -93 -246zM899 567q83 11 133 11q49 0 117 -11q-78 176 -121 320h-6q-47 -156 -123 -320z" />
    <glyph glyph-name="B.ss08" 
d="M1020 -315q-197 0 -371.5 71t-298.5 193.5t-196 293.5t-72 365q0 198 72 372.5t196 298.5t298 195.5t372 71.5q200 0 375.5 -71.5t301 -195.5t197.5 -298.5t72 -372.5q0 -259 -123 -470.5t-339.5 -332t-483.5 -120.5zM1020 -231q182 0 341.5 64t272.5 175.5t178.5 267.5
t65.5 334q0 179 -65.5 337t-178.5 271t-272.5 178.5t-341.5 65.5q-179 0 -337.5 -65.5t-272 -178t-179 -271t-65.5 -337.5q0 -176 65.5 -332t179 -267.5t272 -176.5t337.5 -65zM1077 272h-276v684h241q98 0 161 -51t63 -131q0 -57 -33 -97.5t-90 -55.5q68 -14 106.5 -56.5
t38.5 -103.5q0 -83 -61.5 -136t-149.5 -53zM862 641l2 -2q63 8 174 8q70 0 113 33.5t43 87.5q0 55 -45.5 89t-116.5 34q-105 0 -168 10l-2 -2q12 -122 0 -258zM862 330l2 -2q72 10 195 10q70 0 112.5 32t42.5 87q0 57 -44.5 93t-116.5 36q-121 0 -189 8l-2 -2
q12 -137 0 -262z" />
    <glyph glyph-name="C.ss08" 
d="M1020 -315q-197 0 -371.5 71t-298.5 193.5t-196 293.5t-72 365q0 198 72 372.5t196 298.5t298 195.5t372 71.5q200 0 375.5 -71.5t301 -195.5t197.5 -298.5t72 -372.5q0 -259 -123 -470.5t-339.5 -332t-483.5 -120.5zM1020 -231q182 0 341.5 64t272.5 175.5t178.5 267.5
t65.5 334q0 179 -65.5 337t-178.5 271t-272.5 178.5t-341.5 65.5q-179 0 -337.5 -65.5t-272 -178t-179 -271t-65.5 -337.5q0 -176 65.5 -332t179 -267.5t272 -176.5t337.5 -65zM1044 258q-152 0 -248 98.5t-96 253.5q0 157 97 259t243 102q110 0 191.5 -56.5t109.5 -150.5
l-59 -25q-29 76 -93.5 120t-146.5 44q-118 0 -193 -82t-75 -211q0 -137 81.5 -211.5t195.5 -74.5q95 0 163 56.5t93 154.5l63 -25q-34 -120 -120 -186t-206 -66z" />
    <glyph glyph-name="D.ss08" 
d="M1020 -315q-197 0 -371.5 71t-298.5 193.5t-196 293.5t-72 365q0 198 72 372.5t196 298.5t298 195.5t372 71.5q200 0 375.5 -71.5t301 -195.5t197.5 -298.5t72 -372.5q0 -259 -123 -470.5t-339.5 -332t-483.5 -120.5zM1020 -231q182 0 341.5 64t272.5 175.5t178.5 267.5
t65.5 334q0 179 -65.5 337t-178.5 271t-272.5 178.5t-341.5 65.5q-179 0 -337.5 -65.5t-272 -178t-179 -271t-65.5 -337.5q0 -176 65.5 -332t179 -267.5t272 -176.5t337.5 -65zM1028 272h-250v684h242q152 0 237.5 -89.5t85.5 -248.5q0 -157 -86 -251.5t-229 -94.5zM840 330
l2 -2q68 10 190 10q113 0 177.5 73.5t64.5 202.5q0 134 -71.5 205.5t-194.5 71.5q-107 0 -166 10l-2 -2q15 -282 0 -569z" />
    <glyph glyph-name="E.ss08" 
d="M1020 -315q-197 0 -371.5 71t-298.5 193.5t-196 293.5t-72 365q0 198 72 372.5t196 298.5t298 195.5t372 71.5q200 0 375.5 -71.5t301 -195.5t197.5 -298.5t72 -372.5q0 -259 -123 -470.5t-339.5 -332t-483.5 -120.5zM1020 -231q182 0 341.5 64t272.5 175.5t178.5 267.5
t65.5 334q0 179 -65.5 337t-178.5 271t-272.5 178.5t-341.5 65.5q-179 0 -337.5 -65.5t-272 -178t-179 -271t-65.5 -337.5q0 -176 65.5 -332t179 -267.5t272 -176.5t337.5 -65zM1264 272h-445v684h436v-65q-29 0 -111 0.5t-141.5 2.5t-119.5 7l-2 -2q12 -124 0 -248l4 -4
q127 10 352 10v-65q-227 0 -352 10l-4 -4q12 -136 0 -268l2 -2q135 12 381 12v-68z" />
    <glyph glyph-name="F.ss08" 
d="M1020 -315q-197 0 -371.5 71t-298.5 193.5t-196 293.5t-72 365q0 198 72 372.5t196 298.5t298 195.5t372 71.5q200 0 375.5 -71.5t301 -195.5t197.5 -298.5t72 -372.5q0 -259 -123 -470.5t-339.5 -332t-483.5 -120.5zM1020 -231q182 0 341.5 64t272.5 175.5t178.5 267.5
t65.5 334q0 179 -65.5 337t-178.5 271t-272.5 178.5t-341.5 65.5q-179 0 -337.5 -65.5t-272 -178t-179 -271t-65.5 -337.5q0 -176 65.5 -332t179 -267.5t272 -176.5t337.5 -65zM903 272h-69v684h426v-67q-234 0 -363 12l-2 -2q12 -128 0 -256l4 -2q103 10 344 10v-63
q-246 0 -344 8l-4 -2q8 -109 8 -322z" />
    <glyph glyph-name="G.ss08" 
d="M1020 1546q200 0 375.5 -71.5t301 -195.5t197.5 -298.5t72 -372.5q0 -259 -123 -470.5t-339.5 -332t-483.5 -120.5q-197 0 -371.5 71t-298.5 193.5t-196 293.5t-72 365q0 198 72 372.5t196 298.5t298 195.5t372 71.5zM1020 -231q182 0 341.5 64t272.5 175.5t178.5 267.5
t65.5 334q0 179 -65.5 337t-178.5 271t-272.5 178.5t-341.5 65.5q-179 0 -337.5 -65.5t-272 -178t-179 -271t-65.5 -337.5q0 -176 65.5 -332t179 -267.5t272 -176.5t337.5 -65zM1055 551v61h309v-340h-61q0 13 -1 46.5t-0.5 58.5t3.5 49q-74 -168 -267 -168
q-149 0 -243.5 99t-94.5 253q0 156 96.5 258.5t243.5 102.5q110 0 191.5 -56.5t109.5 -150.5l-59 -25q-29 76 -93.5 120t-146.5 44q-118 0 -193 -82t-75 -211q0 -70 23 -126.5t62 -90.5t87 -51.5t101 -17.5q103 0 173 65.5t87 177.5h-2q-138 -19 -250 -16z" />
    <glyph glyph-name="H.ss08" 
d="M1020 -315q-197 0 -371.5 71t-298.5 193.5t-196 293.5t-72 365q0 198 72 372.5t196 298.5t298 195.5t372 71.5q200 0 375.5 -71.5t301 -195.5t197.5 -298.5t72 -372.5q0 -259 -123 -470.5t-339.5 -332t-483.5 -120.5zM1020 -231q182 0 341.5 64t272.5 175.5t178.5 267.5
t65.5 334q0 179 -65.5 337t-178.5 271t-272.5 178.5t-341.5 65.5q-179 0 -337.5 -65.5t-272 -178t-179 -271t-65.5 -337.5q0 -176 65.5 -332t179 -267.5t272 -176.5t337.5 -65zM831 272h-67v684h67q0 -229 -8 -309l4 -4q210 12 396 0l4 4q-10 106 -10 309h69v-684h-69
q0 205 10 322l-6 4q-183 -23 -396 0l-2 -4q8 -89 8 -322z" />
    <glyph glyph-name="I.ss08" 
d="M1020 -315q-197 0 -371.5 71t-298.5 193.5t-196 293.5t-72 365q0 198 72 372.5t196 298.5t298 195.5t372 71.5q200 0 375.5 -71.5t301 -195.5t197.5 -298.5t72 -372.5q0 -259 -123 -470.5t-339.5 -332t-483.5 -120.5zM1020 -231q182 0 341.5 64t272.5 175.5t178.5 267.5
t65.5 334q0 179 -65.5 337t-178.5 271t-272.5 178.5t-341.5 65.5q-179 0 -337.5 -65.5t-272 -178t-179 -271t-65.5 -337.5q0 -176 65.5 -332t179 -267.5t272 -176.5t337.5 -65zM1059 272h-70v684h70v-684z" />
    <glyph glyph-name="J.ss08" 
d="M1020 -315q-197 0 -371.5 71t-298.5 193.5t-196 293.5t-72 365q0 198 72 372.5t196 298.5t298 195.5t372 71.5q200 0 375.5 -71.5t301 -195.5t197.5 -298.5t72 -372.5q0 -259 -123 -470.5t-339.5 -332t-483.5 -120.5zM1020 -231q182 0 341.5 64t272.5 175.5t178.5 267.5
t65.5 334q0 179 -65.5 337t-178.5 271t-272.5 178.5t-341.5 65.5q-179 0 -337.5 -65.5t-272 -178t-179 -271t-65.5 -337.5q0 -176 65.5 -332t179 -267.5t272 -176.5t337.5 -65zM999 264q-100 0 -156.5 59t-56.5 162v27l66 8v-24q0 -78 38 -123t107 -45q34 0 59 14.5t37.5 34
t19.5 50t8 50.5t1 47v439h70v-422q0 -25 -0.5 -41t-4 -48t-10.5 -54t-21 -49.5t-34 -44t-51.5 -28.5t-71.5 -12z" />
    <glyph glyph-name="K.ss08" 
d="M1020 1546q200 0 375.5 -71.5t301 -195.5t197.5 -298.5t72 -372.5q0 -259 -123 -470.5t-339.5 -332t-483.5 -120.5q-197 0 -371.5 71t-298.5 193.5t-196 293.5t-72 365q0 198 72 372.5t196 298.5t298 195.5t372 71.5zM1020 -231q182 0 341.5 64t272.5 175.5t178.5 267.5
t65.5 334q0 179 -65.5 337t-178.5 271t-272.5 178.5t-341.5 65.5q-179 0 -337.5 -65.5t-272 -178t-179 -271t-65.5 -337.5q0 -176 65.5 -332t179 -267.5t272 -176.5t337.5 -65zM1008 659v-4q109 -129 305 -383h-86q-198 255 -258 340q-44 -59 -92 -96q6 -84 6 -244h-70v684
h70q0 -252 -13 -374q51 60 95.5 109.5t70 77.5t82.5 87.5t94 99.5h86q-206 -220 -290 -297z" />
    <glyph glyph-name="L.ss08" 
d="M1020 -315q-197 0 -371.5 71t-298.5 193.5t-196 293.5t-72 365q0 198 72 372.5t196 298.5t298 195.5t372 71.5q200 0 375.5 -71.5t301 -195.5t197.5 -298.5t72 -372.5q0 -259 -123 -470.5t-339.5 -332t-483.5 -120.5zM1020 -231q182 0 341.5 64t272.5 175.5t178.5 267.5
t65.5 334q0 179 -65.5 337t-178.5 271t-272.5 178.5t-341.5 65.5q-179 0 -337.5 -65.5t-272 -178t-179 -271t-65.5 -337.5q0 -176 65.5 -332t179 -267.5t272 -176.5t337.5 -65zM1290 272h-418v684h70q0 -407 -8 -626l2 -2q127 12 354 12v-68z" />
    <glyph glyph-name="M.ss08" 
d="M1020 1546q200 0 375.5 -71.5t301 -195.5t197.5 -298.5t72 -372.5q0 -259 -123 -470.5t-339.5 -332t-483.5 -120.5q-197 0 -371.5 71t-298.5 193.5t-196 293.5t-72 365q0 198 72 372.5t196 298.5t298 195.5t372 71.5zM1020 -231q182 0 341.5 64t272.5 175.5t178.5 267.5
t65.5 334q0 179 -65.5 337t-178.5 271t-272.5 178.5t-341.5 65.5q-179 0 -337.5 -65.5t-272 -178t-179 -271t-65.5 -337.5q0 -176 65.5 -332t179 -267.5t272 -176.5t337.5 -65zM1024 352q100 240 279 604h67v-684h-70v91v98t0.5 89.5t2 100t4 92.5t6.5 101
q-54 -121 -151.5 -336.5t-106.5 -235.5h-62q-165 359 -256 568q11 -160 11 -568h-70v684h67q163 -318 279 -604z" />
    <glyph glyph-name="N.ss08" 
d="M1020 1546q200 0 375.5 -71.5t301 -195.5t197.5 -298.5t72 -372.5q0 -259 -123 -470.5t-339.5 -332t-483.5 -120.5q-197 0 -371.5 71t-298.5 193.5t-196 293.5t-72 365q0 198 72 372.5t196 298.5t298 195.5t372 71.5zM1020 -231q182 0 341.5 64t272.5 175.5t178.5 267.5
t65.5 334q0 179 -65.5 337t-178.5 271t-272.5 178.5t-341.5 65.5q-179 0 -337.5 -65.5t-272 -178t-179 -271t-65.5 -337.5q0 -176 65.5 -332t179 -267.5t272 -176.5t337.5 -65zM1245 367q-12 203 -12 589h70v-684h-62q-270 364 -418 580q11 -184 11 -580h-70v684h61
q261 -353 420 -589z" />
    <glyph glyph-name="O.ss08" 
d="M1020 -315q-197 0 -371.5 71t-298.5 193.5t-196 293.5t-72 365q0 198 72 372.5t196 298.5t298 195.5t372 71.5q200 0 375.5 -71.5t301 -195.5t197.5 -298.5t72 -372.5q0 -259 -123 -470.5t-339.5 -332t-483.5 -120.5zM1020 -231q182 0 341.5 64t272.5 175.5t178.5 267.5
t65.5 334q0 179 -65.5 337t-178.5 271t-272.5 178.5t-341.5 65.5q-179 0 -337.5 -65.5t-272 -178t-179 -271t-65.5 -337.5q0 -176 65.5 -332t179 -267.5t272 -176.5t337.5 -65zM1024 258q-143 0 -242.5 103t-99.5 253q0 149 99.5 253t244.5 104q144 0 243 -103.5t99 -253.5
t-99 -253t-245 -103zM1026 324q112 0 190 84t78 206q0 121 -77.5 205t-190.5 84q-114 0 -192 -83.5t-78 -205.5t78 -206t192 -84z" />
    <glyph glyph-name="P.ss08" 
d="M1020 -315q-197 0 -371.5 71t-298.5 193.5t-196 293.5t-72 365q0 198 72 372.5t196 298.5t298 195.5t372 71.5q200 0 375.5 -71.5t301 -195.5t197.5 -298.5t72 -372.5q0 -259 -123 -470.5t-339.5 -332t-483.5 -120.5zM1020 -231q182 0 341.5 64t272.5 175.5t178.5 267.5
t65.5 334q0 179 -65.5 337t-178.5 271t-272.5 178.5t-341.5 65.5q-179 0 -337.5 -65.5t-272 -178t-179 -271t-65.5 -337.5q0 -176 65.5 -332t179 -267.5t272 -176.5t337.5 -65zM891 272h-70v684h238q98 0 162.5 -53t64.5 -149q0 -98 -60.5 -154.5t-150.5 -56.5
q-131 0 -194 12q10 -104 10 -283zM881 600l2 -4q63 10 174 10q73 0 115 37.5t42 106.5q0 67 -44 104t-119 37q-109 0 -168 10l-2 -2q15 -151 0 -299z" />
    <glyph glyph-name="Q.ss08" 
d="M1020 -315q-197 0 -371.5 71t-298.5 193.5t-196 293.5t-72 365q0 198 72 372.5t196 298.5t298 195.5t372 71.5q200 0 375.5 -71.5t301 -195.5t197.5 -298.5t72 -372.5q0 -259 -123 -470.5t-339.5 -332t-483.5 -120.5zM1020 -231q182 0 341.5 64t272.5 175.5t178.5 267.5
t65.5 334q0 179 -65.5 337t-178.5 271t-272.5 178.5t-341.5 65.5q-179 0 -337.5 -65.5t-272 -178t-179 -271t-65.5 -337.5q0 -176 65.5 -332t179 -267.5t272 -176.5t337.5 -65zM1341 264l-49 -41q-69 82 -94 123q-76 -55 -178 -55q-145 0 -244.5 102t-99.5 254
q0 150 100 253.5t246 103.5q144 0 243 -103.5t99 -253.5q0 -167 -125 -270q46 -41 102 -113zM1022 354q66 0 139 37q-50 49 -145 160l51 43q84 -102 137 -176q88 105 88 229q0 121 -78.5 205t-191.5 84q-114 0 -193 -84t-79 -205q0 -123 79 -208t193 -85z" />
    <glyph glyph-name="R.ss08" 
d="M1020 1546q200 0 375.5 -71.5t301 -195.5t197.5 -298.5t72 -372.5q0 -259 -123 -470.5t-339.5 -332t-483.5 -120.5q-197 0 -371.5 71t-298.5 193.5t-196 293.5t-72 365q0 198 72 372.5t196 298.5t298 195.5t372 71.5zM1020 -231q182 0 341.5 64t272.5 175.5t178.5 267.5
t65.5 334q0 179 -65.5 337t-178.5 271t-272.5 178.5t-341.5 65.5q-179 0 -337.5 -65.5t-272 -178t-179 -271t-65.5 -337.5q0 -176 65.5 -332t179 -267.5t272 -176.5t337.5 -65zM1288 752q0 -83 -47.5 -135.5t-132.5 -61.5q31 -42 63.5 -88.5t72.5 -107t59 -87.5h-80
l-181 271q-100 0 -157 12q8 -102 8 -283h-70v684h240q97 0 161 -53.5t64 -150.5zM885 600l2 -4q63 8 174 8q73 0 115.5 38t42.5 108q0 65 -45.5 103t-120.5 38q-92 0 -166 10l-2 -2q12 -152 0 -299z" />
    <glyph glyph-name="S.ss08" 
d="M1020 -315q-197 0 -371.5 71t-298.5 193.5t-196 293.5t-72 365q0 198 72 372.5t196 298.5t298 195.5t372 71.5q200 0 375.5 -71.5t301 -195.5t197.5 -298.5t72 -372.5q0 -259 -123 -470.5t-339.5 -332t-483.5 -120.5zM1020 -231q182 0 341.5 64t272.5 175.5t178.5 267.5
t65.5 334q0 179 -65.5 337t-178.5 271t-272.5 178.5t-341.5 65.5q-179 0 -337.5 -65.5t-272 -178t-179 -271t-65.5 -337.5q0 -176 65.5 -332t179 -267.5t272 -176.5t337.5 -65zM1036 258q-98 0 -166 55t-94 154l66 22q19 -77 71 -121t125 -44q62 0 110 32.5t48 96.5
q0 24 -9.5 43t-19.5 29.5t-34.5 20.5t-35.5 13.5t-42 11.5l-62 21q-29 10 -47 17t-48.5 24t-48.5 35.5t-32 49.5t-14 68q0 88 67.5 136.5t155.5 48.5q85 0 146 -46t83 -126l-63 -27q-17 62 -63.5 96.5t-110.5 34.5q-63 0 -103.5 -31.5t-40.5 -80.5q0 -30 14.5 -54t41 -40
t43 -23t41.5 -15l63 -20q36 -11 51.5 -16t48.5 -20.5t49 -32t30 -46t14 -65.5q0 -86 -67 -143.5t-167 -57.5z" />
    <glyph glyph-name="T.ss08" 
d="M1020 -315q-197 0 -371.5 71t-298.5 193.5t-196 293.5t-72 365q0 198 72 372.5t196 298.5t298 195.5t372 71.5q200 0 375.5 -71.5t301 -195.5t197.5 -298.5t72 -372.5q0 -259 -123 -470.5t-339.5 -332t-483.5 -120.5zM1020 -231q182 0 341.5 64t272.5 175.5t178.5 267.5
t65.5 334q0 179 -65.5 337t-178.5 271t-272.5 178.5t-341.5 65.5q-179 0 -337.5 -65.5t-272 -178t-179 -271t-65.5 -337.5q0 -176 65.5 -332t179 -267.5t272 -176.5t337.5 -65zM1057 272h-68q0 414 4 629q-82 -10 -235 -10v65h530v-65q-153 0 -235 10q4 -215 4 -629z" />
    <glyph glyph-name="U.ss08" 
d="M1020 -315q-197 0 -371.5 71t-298.5 193.5t-196 293.5t-72 365q0 198 72 372.5t196 298.5t298 195.5t372 71.5q200 0 375.5 -71.5t301 -195.5t197.5 -298.5t72 -372.5q0 -259 -123 -470.5t-339.5 -332t-483.5 -120.5zM1020 -231q182 0 341.5 64t272.5 175.5t178.5 267.5
t65.5 334q0 179 -65.5 337t-178.5 271t-272.5 178.5t-341.5 65.5q-179 0 -337.5 -65.5t-272 -178t-179 -271t-65.5 -337.5q0 -176 65.5 -332t179 -267.5t272 -176.5t337.5 -65zM1022 264q-120 0 -182 69.5t-62 192.5v437h70v-435q0 -200 176 -200t176 200v435h70v-437
q0 -121 -64 -191.5t-184 -70.5z" />
    <glyph glyph-name="V.ss08" 
d="M1020 -315q-197 0 -371.5 71t-298.5 193.5t-196 293.5t-72 365q0 198 72 372.5t196 298.5t298 195.5t372 71.5q200 0 375.5 -71.5t301 -195.5t197.5 -298.5t72 -372.5q0 -259 -123 -470.5t-339.5 -332t-483.5 -120.5zM1020 -231q182 0 341.5 64t272.5 175.5t178.5 267.5
t65.5 334q0 179 -65.5 337t-178.5 271t-272.5 178.5t-341.5 65.5q-179 0 -337.5 -65.5t-272 -178t-179 -271t-65.5 -337.5q0 -176 65.5 -332t179 -267.5t272 -176.5t337.5 -65zM1061 272h-68l-278 684h71q136 -314 242 -618q67 189 238 618h73z" />
    <glyph glyph-name="W.ss08" 
d="M1020 1546q200 0 375.5 -71.5t301 -195.5t197.5 -298.5t72 -372.5q0 -259 -123 -470.5t-339.5 -332t-483.5 -120.5q-197 0 -371.5 71t-298.5 193.5t-196 293.5t-72 365q0 198 72 372.5t196 298.5t298 195.5t372 71.5zM1020 -231q182 0 341.5 64t272.5 175.5t178.5 267.5
t65.5 334q0 179 -65.5 337t-178.5 271t-272.5 178.5t-341.5 65.5q-179 0 -337.5 -65.5t-272 -178t-179 -271t-65.5 -337.5q0 -176 65.5 -332t179 -267.5t272 -176.5t337.5 -65zM1245 352q86 308 187 604h71l-223 -684h-74q-103 305 -182 598q-91 -333 -182 -598h-74
l-223 684h73q123 -363 189 -602q65 237 182 602h72q71 -225 184 -604z" />
    <glyph glyph-name="X.ss08" 
d="M1020 -315q-197 0 -371.5 71t-298.5 193.5t-196 293.5t-72 365q0 198 72 372.5t196 298.5t298 195.5t372 71.5q200 0 375.5 -71.5t301 -195.5t197.5 -298.5t72 -372.5q0 -259 -123 -470.5t-339.5 -332t-483.5 -120.5zM1020 -231q182 0 341.5 64t272.5 175.5t178.5 267.5
t65.5 334q0 179 -65.5 337t-178.5 271t-272.5 178.5t-341.5 65.5q-179 0 -337.5 -65.5t-272 -178t-179 -271t-65.5 -337.5q0 -176 65.5 -332t179 -267.5t272 -176.5t337.5 -65zM825 272h-80q191 280 244 349v6q-92 119 -237 329h79q107 -147 193 -290h2q72 123 193 290h79
q-128 -186 -239 -329v-6q53 -69 244 -349h-78q-114 162 -199 310h-2q-67 -116 -199 -310z" />
    <glyph glyph-name="Y.ss08" 
d="M1020 -315q-197 0 -371.5 71t-298.5 193.5t-196 293.5t-72 365q0 198 72 372.5t196 298.5t298 195.5t372 71.5q200 0 375.5 -71.5t301 -195.5t197.5 -298.5t72 -372.5q0 -259 -123 -470.5t-339.5 -332t-483.5 -120.5zM1020 -231q182 0 341.5 64t272.5 175.5t178.5 267.5
t65.5 334q0 179 -65.5 337t-178.5 271t-272.5 178.5t-341.5 65.5q-179 0 -337.5 -65.5t-272 -178t-179 -271t-65.5 -337.5q0 -176 65.5 -332t179 -267.5t272 -176.5t337.5 -65zM1057 272h-68q0 170 4 254q-76 121 -262 430h78q119 -197 215 -383q57 113 215 383h76
q-186 -309 -262 -430q4 -56 4 -254z" />
    <glyph glyph-name="Z.ss08" 
d="M1020 -315q-197 0 -371.5 71t-298.5 193.5t-196 293.5t-72 365q0 198 72 372.5t196 298.5t298 195.5t372 71.5q200 0 375.5 -71.5t301 -195.5t197.5 -298.5t72 -372.5q0 -259 -123 -470.5t-339.5 -332t-483.5 -120.5zM1020 -231q182 0 341.5 64t272.5 175.5t178.5 267.5
t65.5 334q0 179 -65.5 337t-178.5 271t-272.5 178.5t-341.5 65.5q-179 0 -337.5 -65.5t-272 -178t-179 -271t-65.5 -337.5q0 -176 65.5 -332t179 -267.5t272 -176.5t337.5 -65zM1300 272h-526v56q92 125 443 579q-200 -16 -426 -16v65h501v-53q-88 -120 -444 -575
q187 12 452 12v-68z" />
    <glyph glyph-name="i.loclTRK" horiz-adv-x="495" 
d="M250 1423q-47 0 -78 32.5t-31 78.5q0 44 31.5 75t77.5 31q44 0 75 -31.5t31 -74.5q0 -46 -31 -78.5t-75 -32.5zM309 0h-123v1128h123v-1128z" />
    <glyph glyph-name="a.ss01" horiz-adv-x="1376" 
d="M623 -35q-228 0 -376.5 169t-148.5 429q0 131 41.5 243.5t112.5 189.5t168 121t207 44q141 0 256 -77t178 -234h24q-18 127 -18 278h123v-1128h-121q0 5 -0.5 56t0 71.5t5 66.5t13.5 91h-24q-65 -163 -180.5 -241.5t-259.5 -78.5zM641 78q180 0 301 142t121 347
q0 209 -122.5 345.5t-301.5 136.5q-178 0 -294 -138t-116 -348q0 -211 117 -348t295 -137z" />
    <glyph glyph-name="aacute.ss01" horiz-adv-x="1376" 
d="M1051 1671l-312 -393h-108l248 393h172zM623 -35q-228 0 -376.5 169t-148.5 429q0 131 41.5 243.5t112.5 189.5t168 121t207 44q141 0 256 -77t178 -234h24q-18 127 -18 278h123v-1128h-121q0 5 -0.5 56t0 71.5t5 66.5t13.5 91h-24q-65 -163 -180.5 -241.5t-259.5 -78.5z
M641 78q180 0 301 142t121 347q0 209 -122.5 345.5t-301.5 136.5q-178 0 -294 -138t-116 -348q0 -211 117 -348t295 -137z" />
    <glyph glyph-name="abreve.ss01" horiz-adv-x="1376" 
d="M690 1276q-169 0 -268 111.5t-105 283.5h113q4 -133 77 -212t185 -79q114 0 186 78.5t76 212.5h113q-6 -173 -105.5 -284t-271.5 -111zM623 -35q-228 0 -376.5 169t-148.5 429q0 131 41.5 243.5t112.5 189.5t168 121t207 44q141 0 256 -77t178 -234h24q-18 127 -18 278
h123v-1128h-121q0 5 -0.5 56t0 71.5t5 66.5t13.5 91h-24q-65 -163 -180.5 -241.5t-259.5 -78.5zM641 78q180 0 301 142t121 347q0 209 -122.5 345.5t-301.5 136.5q-178 0 -294 -138t-116 -348q0 -211 117 -348t295 -137z" />
    <glyph glyph-name="acircumflex.ss01" horiz-adv-x="1376" 
d="M426 1278h-117l297 356h168l297 -356h-117q-56 56 -88 90t-76 88t-75 105h-49q-72 -119 -240 -283zM623 -35q-228 0 -376.5 169t-148.5 429q0 131 41.5 243.5t112.5 189.5t168 121t207 44q141 0 256 -77t178 -234h24q-18 127 -18 278h123v-1128h-121q0 5 -0.5 56t0 71.5
t5 66.5t13.5 91h-24q-65 -163 -180.5 -241.5t-259.5 -78.5zM641 78q180 0 301 142t121 347q0 209 -122.5 345.5t-301.5 136.5q-178 0 -294 -138t-116 -348q0 -211 117 -348t295 -137z" />
    <glyph glyph-name="adieresis.ss01" horiz-adv-x="1376" 
d="M516 1376q-42 0 -71 31t-29 74q0 40 29 69t71 29t71 -29t29 -69q0 -43 -29 -74t-71 -31zM866 1376q-42 0 -71 31t-29 74q0 40 29 69t71 29q41 0 71 -29t30 -69q0 -43 -30 -74t-71 -31zM623 -35q-228 0 -376.5 169t-148.5 429q0 131 41.5 243.5t112.5 189.5t168 121
t207 44q141 0 256 -77t178 -234h24q-18 127 -18 278h123v-1128h-121q0 5 -0.5 56t0 71.5t5 66.5t13.5 91h-24q-65 -163 -180.5 -241.5t-259.5 -78.5zM641 78q180 0 301 142t121 347q0 209 -122.5 345.5t-301.5 136.5q-178 0 -294 -138t-116 -348q0 -211 117 -348t295 -137z
" />
    <glyph glyph-name="agrave.ss01" horiz-adv-x="1376" 
d="M752 1278h-109l-311 393h172zM623 -35q-228 0 -376.5 169t-148.5 429q0 131 41.5 243.5t112.5 189.5t168 121t207 44q141 0 256 -77t178 -234h24q-18 127 -18 278h123v-1128h-121q0 5 -0.5 56t0 71.5t5 66.5t13.5 91h-24q-65 -163 -180.5 -241.5t-259.5 -78.5zM641 78
q180 0 301 142t121 347q0 209 -122.5 345.5t-301.5 136.5q-178 0 -294 -138t-116 -348q0 -211 117 -348t295 -137z" />
    <glyph glyph-name="amacron.ss01" horiz-adv-x="1376" 
d="M1036 1421h-688v105h688v-105zM623 -35q-228 0 -376.5 169t-148.5 429q0 131 41.5 243.5t112.5 189.5t168 121t207 44q141 0 256 -77t178 -234h24q-18 127 -18 278h123v-1128h-121q0 5 -0.5 56t0 71.5t5 66.5t13.5 91h-24q-65 -163 -180.5 -241.5t-259.5 -78.5zM641 78
q180 0 301 142t121 347q0 209 -122.5 345.5t-301.5 136.5q-178 0 -294 -138t-116 -348q0 -211 117 -348t295 -137z" />
    <glyph glyph-name="aogonek.ss01" horiz-adv-x="1376" 
d="M1184 -371q37 0 88 15v-93q-55 -14 -98 -14q-114 0 -190.5 63t-76.5 167q0 139 164 233h-2q0 5 -0.5 56t0 71.5t5 66.5t13.5 91h-24q-65 -163 -180.5 -241.5t-259.5 -78.5q-228 0 -376.5 169t-148.5 429q0 131 41.5 243.5t112.5 189.5t168 121t207 44q141 0 256 -77
t178 -234h24q-18 127 -18 278h123v-1128h-10q-174 -91 -174 -213q0 -72 51 -115t127 -43zM641 78q180 0 301 142t121 347q0 209 -122.5 345.5t-301.5 136.5q-178 0 -294 -138t-116 -348q0 -211 117 -348t295 -137z" />
    <glyph glyph-name="aring.ss01" horiz-adv-x="1376" 
d="M692 1247q-97 0 -161 61t-64 156q0 93 64 154t161 61q94 0 157.5 -61t63.5 -154q0 -95 -63 -156t-158 -61zM692 1333q57 0 95 35.5t38 95.5q0 59 -38 94t-95 35q-61 0 -99 -35t-38 -94q0 -61 38 -96t99 -35zM623 -35q-228 0 -376.5 169t-148.5 429q0 131 41.5 243.5
t112.5 189.5t168 121t207 44q141 0 256 -77t178 -234h24q-18 127 -18 278h123v-1128h-121q0 5 -0.5 56t0 71.5t5 66.5t13.5 91h-24q-65 -163 -180.5 -241.5t-259.5 -78.5zM641 78q180 0 301 142t121 347q0 209 -122.5 345.5t-301.5 136.5q-178 0 -294 -138t-116 -348
q0 -211 117 -348t295 -137z" />
    <glyph glyph-name="atilde.ss01" horiz-adv-x="1376" 
d="M846 1333q-15 0 -29 2t-24.5 4.5t-23 8.5t-19.5 9t-19 12t-16.5 13t-17.5 15t-17 14l-37 31q-22 19 -31.5 26.5t-30 17t-40.5 9.5q-47 0 -78 -42t-31 -105h-94q1 109 58.5 176t148.5 67q42 0 75 -16.5t72 -50.5l43 -37q66 -57 113 -57q48 0 75 41t27 106h94
q0 -111 -52 -177.5t-146 -66.5zM623 -35q-228 0 -376.5 169t-148.5 429q0 131 41.5 243.5t112.5 189.5t168 121t207 44q141 0 256 -77t178 -234h24q-18 127 -18 278h123v-1128h-121q0 5 -0.5 56t0 71.5t5 66.5t13.5 91h-24q-65 -163 -180.5 -241.5t-259.5 -78.5zM641 78
q180 0 301 142t121 347q0 209 -122.5 345.5t-301.5 136.5q-178 0 -294 -138t-116 -348q0 -211 117 -348t295 -137z" />
    <glyph glyph-name="b.ss01" horiz-adv-x="1159" 
d="M666 -35q-124 0 -216.5 57t-142.5 168h-22q7 -23 11 -44t5.5 -43.5t2 -33.5t0 -37t-0.5 -32h-117v1638h123q0 -35 0.5 -192t0 -220t-2 -187.5t-5.5 -226t-11 -204.5h22q51 101 143 152t208 51q189 0 308.5 -122.5t119.5 -303.5q0 -178 -119.5 -299t-306.5 -121zM655 70
q132 0 223 90t91 227q0 130 -85 224t-229 94q-149 0 -235 -92.5t-86 -217.5q0 -134 92 -229.5t229 -95.5z" />
    <glyph glyph-name="d.ss01" horiz-adv-x="1368" 
d="M623 -35q-228 0 -376.5 169t-148.5 429q0 131 41.5 243.5t112.5 189.5t168 121t207 44q141 0 253 -76t177 -235h22q-18 293 -18 788h123v-1638h-117q0 158 16 279h-22q-63 -158 -179 -236t-259 -78zM639 78q115 0 211.5 60.5t154.5 173t58 253.5q0 212 -123.5 348
t-300.5 136q-178 0 -294 -138t-116 -348q0 -211 117 -348t293 -137z" />
    <glyph glyph-name="dcaron.ss01" horiz-adv-x="1368" 
d="M1444 1188h-82q26 54 43 86t48 78.5t67 85.5q-105 21 -105 102q0 43 31.5 74t75.5 31t75 -31t31 -74q0 -40 -49 -126q-22 -40 -135 -226zM623 -35q-228 0 -376.5 169t-148.5 429q0 131 41.5 243.5t112.5 189.5t168 121t207 44q141 0 253 -76t177 -235h22q-18 293 -18 788
h123v-1638h-117q0 158 16 279h-22q-63 -158 -179 -236t-259 -78zM639 78q115 0 211.5 60.5t154.5 173t58 253.5q0 212 -123.5 348t-300.5 136q-178 0 -294 -138t-116 -348q0 -211 117 -348t293 -137z" />
    <glyph glyph-name="dcroat.ss01" horiz-adv-x="1368" 
d="M1184 1440h266v-105h-266v-1335h-117q0 158 16 279h-22q-63 -158 -179 -236t-259 -78q-228 0 -376.5 169t-148.5 429q0 131 41.5 243.5t112.5 189.5t168 121t207 44q141 0 253 -76t177 -235h22q-16 278 -16 485h-293v105h291v198h123v-198zM639 78q115 0 211.5 60.5
t154.5 173t58 253.5q0 212 -123.5 348t-300.5 136q-178 0 -294 -138t-116 -348q0 -211 117 -348t293 -137z" />
    <glyph glyph-name="g.ss01" horiz-adv-x="1370" 
d="M1182 -451h-1012v113q605 0 913 -22q-46 418 -4 645h-24q-66 -141 -179.5 -213t-252.5 -72q-150 0 -271 77t-188.5 210.5t-67.5 296.5q0 125 41 233t111.5 183t167.5 118t207 43q143 0 256.5 -76.5t175.5 -234.5h22q-14 119 -14 278h119v-1579zM637 113
q175 0 299.5 136.5t124.5 338.5q0 199 -124 330t-300 131q-177 0 -293.5 -133t-116.5 -330q0 -200 118 -336.5t292 -136.5z" />
    <glyph glyph-name="gbreve.ss01" horiz-adv-x="1370" 
d="M686 1276q-169 0 -268 111.5t-105 283.5h113q4 -133 77 -212t185 -79q114 0 186 78.5t76 212.5h113q-6 -173 -105.5 -284t-271.5 -111zM1182 -451h-1012v113q605 0 913 -22q-46 418 -4 645h-24q-66 -141 -179.5 -213t-252.5 -72q-150 0 -271 77t-188.5 210.5t-67.5 296.5
q0 125 41 233t111.5 183t167.5 118t207 43q143 0 256.5 -76.5t175.5 -234.5h22q-14 119 -14 278h119v-1579zM637 113q175 0 299.5 136.5t124.5 338.5q0 199 -124 330t-300 131q-177 0 -293.5 -133t-116.5 -330q0 -200 118 -336.5t292 -136.5z" />
    <glyph glyph-name="uni0123.ss01" horiz-adv-x="1370" 
d="M559 1354q0 37 30 93.5t148 250.5h80q-63 -132 -141 -268q46 6 68 -19.5t22 -64.5q0 -43 -29.5 -69t-70.5 -26q-45 0 -76 30t-31 73zM1182 -451h-1012v113q605 0 913 -22q-46 418 -4 645h-24q-66 -141 -179.5 -213t-252.5 -72q-150 0 -271 77t-188.5 210.5t-67.5 296.5
q0 125 41 233t111.5 183t167.5 118t207 43q143 0 256.5 -76.5t175.5 -234.5h22q-14 119 -14 278h119v-1579zM637 113q175 0 299.5 136.5t124.5 338.5q0 199 -124 330t-300 131q-177 0 -293.5 -133t-116.5 -330q0 -200 118 -336.5t292 -136.5z" />
    <glyph glyph-name="gdotaccent.ss01" horiz-adv-x="1370" 
d="M690 1425q-47 0 -77.5 32.5t-30.5 78.5q0 44 31 75t77 31q44 0 75.5 -31.5t31.5 -74.5q0 -46 -31.5 -78.5t-75.5 -32.5zM1182 -451h-1012v113q605 0 913 -22q-46 418 -4 645h-24q-66 -141 -179.5 -213t-252.5 -72q-150 0 -271 77t-188.5 210.5t-67.5 296.5q0 125 41 233
t111.5 183t167.5 118t207 43q143 0 256.5 -76.5t175.5 -234.5h22q-14 119 -14 278h119v-1579zM637 113q175 0 299.5 136.5t124.5 338.5q0 199 -124 330t-300 131q-177 0 -293.5 -133t-116.5 -330q0 -200 118 -336.5t292 -136.5z" />
    <glyph glyph-name="i.ss01" horiz-adv-x="694" 
d="M360 1423q-47 0 -77.5 32.5t-30.5 78.5q0 44 31 75t77 31q44 0 74.5 -31.5t30.5 -74.5q0 -46 -30.5 -78.5t-74.5 -32.5zM670 0h-369q0 678 23 1040q-112 -24 -304 -24v112h404q0 -678 -23 -1038q104 23 269 23v-113z" />
    <glyph glyph-name="dotlessi.ss01" horiz-adv-x="694" 
d="M670 0h-369q0 226 1 351t9 325t23 373q-59 -15 -120 -23t-96 -9t-98 -1v112h404q0 -225 -1 -350.5t-9 -325t-23 -372.5q54 15 108 23t85 9t86 1v-113z" />
    <glyph glyph-name="iacute.ss01" horiz-adv-x="694" 
d="M666 1671l-312 -393h-108l248 393h172zM670 0h-369q0 226 1 351t9 325t23 373q-59 -15 -120 -23t-96 -9t-98 -1v112h404q0 -225 -1 -350.5t-9 -325t-23 -372.5q54 15 108 23t85 9t86 1v-113z" />
    <glyph glyph-name="icircumflex.ss01" horiz-adv-x="694" 
d="M41 1278h-117l297 356h168l297 -356h-117q-56 56 -88 90t-76 88t-75 105h-49q-72 -119 -240 -283zM670 0h-369q0 226 1 351t9 325t23 373q-59 -15 -120 -23t-96 -9t-98 -1v112h404q0 -225 -1 -350.5t-9 -325t-23 -372.5q54 15 108 23t85 9t86 1v-113z" />
    <glyph glyph-name="idieresis.ss01" horiz-adv-x="694" 
d="M131 1376q-42 0 -71 31t-29 74q0 40 29 69t71 29t71 -29t29 -69q0 -43 -29 -74t-71 -31zM481 1376q-42 0 -71 31t-29 74q0 40 29 69t71 29q41 0 71 -29t30 -69q0 -43 -30 -74t-71 -31zM670 0h-369q0 226 1 351t9 325t23 373q-59 -15 -120 -23t-96 -9t-98 -1v112h404
q0 -225 -1 -350.5t-9 -325t-23 -372.5q54 15 108 23t85 9t86 1v-113z" />
    <glyph glyph-name="i.loclTRK.ss01" horiz-adv-x="694" 
d="M344 1425q-46 0 -77 33t-31 80q0 43 31.5 73.5t76.5 30.5q44 0 75.5 -30.5t31.5 -73.5q0 -47 -31.5 -80t-75.5 -33zM670 0h-369q0 226 1 351t9 325t23 373q-59 -15 -120 -23t-96 -9t-98 -1v112h404q0 -225 -1 -350.5t-9 -325t-23 -372.5q54 15 108 23t85 9t86 1v-113z
" />
    </font>
</defs>
</svg>
