<?xml version="1.0" standalone="no"?>
<!DOCTYPE svg PUBLIC "-//W3C//DTD SVG 1.1//EN" "http://www.w3.org/Graphics/SVG/1.1/DTD/svg11.dtd" >
<svg xmlns="http://www.w3.org/2000/svg" xmlns:xlink="http://www.w3.org/1999/xlink" version="1.1">
<metadata>
Created by FontForge 20170731 at Mon Mar 15 14:15:27 2021
 By Aleksey,,,
Copyright (c) 2020 by Matthieu Salvaggio x Blaze Type. All rights reserved.
</metadata>
<defs>
<font id="Area-LightInktrapItalic" horiz-adv-x="2048" >
  <font-face 
    font-family="Area Light Inktrap Italic"
    font-weight="300"
    font-style="italic"
    font-stretch="normal"
    units-per-em="2048"
    panose-1="0 0 4 0 0 0 0 0 0 0"
    ascent="1638"
    descent="-410"
    x-height="1128"
    cap-height="1597"
    bbox="-1583 -508 2761 2148"
    underline-thickness="102"
    underline-position="-307"
    slope="-10"
    unicode-range="U+0020-25CA"
  />
<missing-glyph horiz-adv-x="1456" 
d="M1157 0h-1055l283 1597h1055zM481 1493l-233 -1319l1009 1319h-776zM1286 1384l-977 -1273h752z" />
    <glyph glyph-name=".notdef" horiz-adv-x="1456" 
d="M1157 0h-1055l283 1597h1055zM481 1493l-233 -1319l1009 1319h-776zM1286 1384l-977 -1273h752z" />
    <glyph glyph-name=".null" horiz-adv-x="0" 
 />
    <glyph glyph-name="nonmarkingreturn" horiz-adv-x="682" 
 />
    <glyph glyph-name="space" unicode=" " horiz-adv-x="542" 
 />
    <glyph glyph-name="exclam" unicode="!" horiz-adv-x="522" 
d="M266 379h-73l159 1122l17 96h149l-18 -96zM160 -14q-39 0 -64.5 25.5t-25.5 62.5q0 52 38.5 89.5t90.5 37.5q38 0 62 -25.5t24 -62.5q0 -48 -38 -87.5t-87 -39.5z" />
    <glyph glyph-name="quotedbl" unicode="&#x22;" horiz-adv-x="665" 
d="M373 1167h-127l76 430h127zM627 1167h-125l76 430h124z" />
    <glyph glyph-name="numbersign" unicode="#" horiz-adv-x="1398" 
d="M242 0h-115q134 353 197 498q-98 -23 -256 -23l38 105q154 0 244 -15q56 193 158 430q-90 -22 -252 -22l39 102q158 0 246 -12q59 203 184 534h113q-146 -381 -211 -534q221 17 434 0q44 153 182 534h115q-146 -381 -211 -534q98 12 260 12l-39 -102q-168 0 -256 22
q-51 -211 -151 -430q103 15 258 15l-39 -105q-162 0 -252 23q-51 -185 -168 -498h-113q138 364 195 498q-224 -33 -434 0q-57 -206 -166 -498zM440 565q221 20 434 0q50 187 154 430q-224 -33 -434 0q-54 -210 -154 -430z" />
    <glyph glyph-name="dollar" unicode="$" horiz-adv-x="1177" 
d="M682 846l14 -4q43 -12 64 -18.5t64 -22.5t67.5 -30t57 -39t50 -52t30.5 -66t13 -84q0 -108 -63 -201.5t-175.5 -151t-250.5 -62.5l-35 -197h-80l35 199q-148 13 -249.5 100t-125.5 252l119 41q23 -131 98 -198.5t179 -80.5l90 512l-6 2q-40 10 -76 22.5t-84 38.5
t-82 58.5t-58 84t-24 112.5q0 158 135.5 277.5t321.5 125.5l30 174h80l-30 -178q138 -18 232.5 -101.5t104.5 -205.5l-114 -51q-18 97 -80 163t-164 83zM383 1092q0 -156 223 -224l84 484q-130 -6 -218.5 -81.5t-88.5 -178.5zM659 723l-86 -496q146 4 242 84t96 195
q0 50 -21 88t-61.5 62.5t-77.5 38.5t-92 28z" />
    <glyph glyph-name="percent" unicode="%" horiz-adv-x="1652" 
d="M383 797q-98 0 -153.5 72.5t-55.5 197.5q0 114 43.5 218.5t123 171.5t173.5 67q98 0 154.5 -74.5t56.5 -200.5q0 -113 -44 -217t-124 -169.5t-174 -65.5zM227 0h-116l1396 1468h109zM397 889q88 0 153.5 109.5t65.5 246.5q0 88 -31 136.5t-85 48.5q-57 0 -108 -51.5
t-81 -134t-30 -171.5q0 -88 30.5 -136t85.5 -48zM1202 -29q-98 0 -153.5 73t-55.5 198q0 114 43.5 218.5t123 171t173.5 66.5q98 0 154.5 -74t56.5 -200q0 -113 -44 -217t-124 -170t-174 -66zM1217 63q88 0 153.5 110t65.5 247q0 88 -31 136t-86 48q-57 0 -108 -51
t-81 -133.5t-30 -171.5q0 -88 31 -136.5t86 -48.5z" />
    <glyph glyph-name="ampersand" unicode="&#x26;" horiz-adv-x="1376" 
d="M446 -35q-166 0 -277.5 87.5t-111.5 244.5q0 309 480 530q-199 225 -199 406q0 108 61 200t162.5 144.5t216.5 52.5q147 0 232.5 -83t85.5 -208q0 -139 -111 -269t-313 -236l321 -416q19 44 75 167.5t83 192.5l111 -24q-117 -270 -232 -392l289 -360h-152l-209 270
q-210 -307 -512 -307zM635 885q45 34 60 45.5t55.5 43.5t57 49t47.5 48.5t45 55.5t31 56t23.5 64.5t6.5 67.5q0 98 -56.5 149.5t-150.5 51.5q-121 0 -202 -79t-81 -196q0 -45 12.5 -90.5t39.5 -94t49.5 -83t62.5 -88.5zM469 82q120 0 229 62.5t224 177.5l-344 452
q-152 -103 -194 -136q-160 -127 -186 -257q-5 -28 -5 -57q0 -114 77.5 -178t198.5 -64z" />
    <glyph glyph-name="quotesingle" unicode="'" horiz-adv-x="411" 
d="M373 1167h-127l76 430h127z" />
    <glyph glyph-name="parenleft" unicode="(" horiz-adv-x="610" 
d="M424 -307h-129q-199 298 -199 692q0 320 141.5 642t393.5 570h129q-246 -245 -387.5 -570t-141.5 -648q0 -390 193 -686z" />
    <glyph glyph-name="parenright" unicode=")" horiz-adv-x="608" 
d="M8 -307h-129q248 246 389.5 571t141.5 647q0 388 -195 686h129q199 -298 199 -692q0 -320 -142.5 -644t-392.5 -568z" />
    <glyph glyph-name="asterisk" unicode="*" horiz-adv-x="841" 
d="M543 1024h-88l39 211l-205 -107l-29 76l205 107l-168 106l57 76l166 -107l35 211h88l-37 -211l203 107l29 -76l-201 -106l164 -107l-58 -76l-163 107z" />
    <glyph glyph-name="plus" unicode="+" horiz-adv-x="991" 
d="M575 682h299l-18 -115h-301l-55 -311h-115l55 311h-303l21 115h301l55 311h117z" />
    <glyph glyph-name="comma" unicode="," horiz-adv-x="434" 
d="M18 -256h-81q39 59 60.5 89.5t59 75t78.5 83.5q-86 14 -86 84q0 50 38.5 87.5t90.5 37.5q38 0 62 -25t24 -63q0 -39 -41.5 -100.5t-204.5 -268.5z" />
    <glyph glyph-name="hyphen" unicode="-" horiz-adv-x="778" 
d="M664 569h-547l18 109h547z" />
    <glyph glyph-name="period" unicode="." horiz-adv-x="464" 
d="M150 -14q-39 0 -65 25.5t-26 62.5q0 51 39 89t90 38q38 0 62 -24.5t24 -61.5q0 -50 -37.5 -89.5t-86.5 -39.5z" />
    <glyph glyph-name="slash" unicode="/" horiz-adv-x="851" 
d="M86 -135h-121l871 1773h120z" />
    <glyph glyph-name="zero" unicode="0" horiz-adv-x="1435" 
d="M610 -35q-218 0 -342.5 163.5t-124.5 446.5q0 155 37.5 309t107.5 287.5t162.5 236.5t212 162.5t246.5 59.5q218 0 341.5 -164.5t123.5 -449.5q0 -154 -37 -307.5t-106.5 -286.5t-162 -236t-211.5 -162t-247 -59zM633 88q125 0 239 81.5t191.5 212t123.5 296t46 332.5
q0 234 -91 365.5t-251 131.5q-126 0 -240 -81.5t-193.5 -211.5t-126 -295t-46.5 -331q0 -236 92.5 -368t255.5 -132z" />
    <glyph glyph-name="one" unicode="1" horiz-adv-x="778" 
d="M457 0h-131q135 762 207 1107q27 126 55 253q-181 -222 -445 -254l23 125q173 28 298 130t148 236h125z" />
    <glyph glyph-name="two" unicode="2" horiz-adv-x="1259" 
d="M1061 0h-1032v8q22 77 48.5 140t55.5 113.5t71 97t82 82.5t101 79t116.5 78.5t138.5 86.5q34 21 52 32q33 21 48.5 31t55 37.5t63 46.5t61 52t61.5 60t52 64.5t44.5 72.5t27.5 77t11 83q0 124 -84 198t-225 74q-185 0 -321.5 -122t-170.5 -316l-114 23q42 232 216.5 382
t411.5 150q193 0 307.5 -100t114.5 -270q0 -62 -17 -122.5t-42.5 -108.5t-65 -97t-73.5 -83t-80 -71t-72.5 -55.5t-62.5 -42.5q-60 -40 -145.5 -92.5t-135 -83t-113 -77t-105 -89t-85 -103.5t-76.5 -135q317 25 901 25z" />
    <glyph glyph-name="three" unicode="3" horiz-adv-x="1296" 
d="M537 -35q-199 0 -332.5 100t-153.5 265l121 57q22 -134 126 -218.5t263 -84.5q130 0 237 57.5t165.5 150t58.5 197.5q0 129 -93.5 203t-281.5 74h-160l21 111h172q183 0 306.5 107t123.5 261q0 126 -86.5 196t-228.5 70q-155 0 -275 -83.5t-170 -233.5l-112 23
q61 188 223 300.5t364 112.5q183 0 303.5 -93t120.5 -251q0 -160 -108 -288.5t-269 -159.5l-4 -23q142 -17 217.5 -95.5t75.5 -207.5q0 -103 -47.5 -202t-128.5 -175t-198.5 -123t-249.5 -47z" />
    <glyph glyph-name="four" unicode="4" horiz-adv-x="1310" 
d="M899 0h-129q50 270 96 420q-409 -27 -848 -8l23 120l1012 1065h129q-118 -679 -215 -1099q104 20 262 20l-21 -119q-153 0 -256 21q-4 -162 -53 -420zM170 506q381 23 711 -8q51 463 161 966q-107 -122 -235 -264t-198 -218.5t-236.5 -256.5t-202.5 -219z" />
    <glyph glyph-name="five" unicode="5" horiz-adv-x="1294" 
d="M528 -35q-194 0 -335 99.5t-168 267.5l118 59q32 -144 143.5 -226.5t262.5 -82.5q105 0 200.5 41.5t161.5 110t105 158t39 183.5q0 149 -92.5 238.5t-245.5 89.5q-125 0 -238.5 -60t-187.5 -159l-96 47l337 866h756l-20 -116q-454 0 -684 22q-85 -315 -262 -684h18
q72 88 183.5 140.5t236.5 52.5q121 0 218.5 -47.5t156.5 -143t59 -223.5q0 -79 -23 -157.5t-65 -148.5t-103 -130t-133.5 -103.5t-160.5 -68.5t-181 -25z" />
    <glyph glyph-name="six" unicode="6" horiz-adv-x="1353" 
d="M596 -35q-220 0 -342.5 142.5t-122.5 410.5q0 204 71 405t190.5 357t290 253t355.5 97q208 0 330 -112l-100 -95q-104 90 -267 90q-123 0 -238 -54.5t-213 -158t-175.5 -261t-122.5 -355.5h24q74 163 223.5 256.5t309.5 93.5q189 0 315.5 -120.5t126.5 -317.5
q0 -121 -51.5 -236t-138.5 -202t-209.5 -140t-255.5 -53zM623 82q128 0 242.5 70t182.5 185.5t68 244.5q0 155 -97.5 248.5t-248.5 93.5q-130 0 -246 -70.5t-185 -185.5t-69 -240q0 -153 100 -249.5t253 -96.5z" />
    <glyph glyph-name="seven" unicode="7" horiz-adv-x="1189" 
d="M332 0h-133q28 156 116.5 359.5t216 410.5t296.5 408t343 342l-8 16q-61 -6 -126.5 -10.5t-118 -8t-127 -5.5t-116.5 -3t-126 -1.5t-115.5 -0.5h-125h-118.5l21 119h1126l-22 -129q-227 -178 -442 -450t-358.5 -551.5t-182.5 -495.5z" />
    <glyph glyph-name="eight" unicode="8" horiz-adv-x="1329" 
d="M563 -35q-210 0 -343.5 106.5t-133.5 284.5q0 169 117.5 301.5t300.5 167.5l4 29q-111 34 -167 108.5t-56 178.5q0 93 45 182.5t120.5 157t182 108.5t223.5 41q184 0 301 -96.5t117 -255.5q0 -145 -97.5 -263t-254.5 -161l-4 -29q133 -28 205.5 -113.5t72.5 -213.5
q0 -139 -83 -261.5t-229.5 -197t-320.5 -74.5zM723 887q172 0 296 113t124 260q0 119 -85.5 189.5t-223.5 70.5q-174 0 -296 -106.5t-122 -256.5q0 -124 86 -197t221 -73zM580 78q102 0 192.5 35.5t153 94.5t99 136.5t36.5 159.5q0 131 -91 206.5t-259 75.5
q-214 0 -349 -113.5t-135 -285.5q0 -146 98 -227.5t255 -81.5z" />
    <glyph glyph-name="nine" unicode="9" horiz-adv-x="1378" 
d="M514 -35q-132 0 -250.5 60t-197.5 180l100 84q138 -207 362 -207q170 0 309.5 109.5t230.5 297.5t134 437h-22q-49 -130 -137.5 -222.5t-191.5 -136t-212 -43.5q-187 0 -313.5 122.5t-126.5 326.5q0 125 51.5 244t139.5 210.5t214.5 147t267.5 55.5q76 0 141 -16t125 -55
t101.5 -99t66.5 -154.5t25 -215.5q0 -155 -38 -315.5t-111 -304.5t-171 -257.5t-227.5 -180.5t-269.5 -67zM670 635q101 0 196.5 47t164.5 123t111 175.5t42 199.5q0 158 -97 248t-247 90q-137 0 -254.5 -75t-184.5 -197t-67 -259q0 -162 95 -257t241 -95z" />
    <glyph glyph-name="colon" unicode=":" horiz-adv-x="507" 
d="M322 944q-39 0 -64 25.5t-25 64.5q0 49 39 87t90 38q37 0 62 -24.5t25 -61.5q0 -50 -39 -89.5t-88 -39.5zM154 -14q-40 0 -65.5 26t-25.5 64q0 49 39.5 87t90.5 38q38 0 62 -24.5t24 -61.5q0 -50 -38 -89.5t-87 -39.5z" />
    <glyph glyph-name="semicolon" unicode=";" horiz-adv-x="575" 
d="M369 944q-41 0 -65.5 25.5t-24.5 64.5q0 50 38.5 87.5t88.5 37.5q38 0 63 -24.5t25 -61.5q0 -50 -38 -89.5t-87 -39.5zM78 -258h-84l168 252q-25 9 -39 31t-14 49q0 50 38.5 88.5t90.5 38.5q38 0 62 -24.5t24 -61.5q0 -40 -42.5 -105t-203.5 -268z" />
    <glyph glyph-name="less" unicode="&#x3c;" horiz-adv-x="1024" 
d="M834 428l-21 -111l-668 242l23 127l754 244l-21 -113l-614 -194z" />
    <glyph glyph-name="equal" unicode="=" horiz-adv-x="1038" 
d="M918 772h-721l20 115h721zM844 358h-719l20 113h719z" />
    <glyph glyph-name="greater" unicode="&#x3e;" horiz-adv-x="1026" 
d="M879 559l-752 -242l18 111l615 195l-547 194l20 113l668 -244z" />
    <glyph glyph-name="question" unicode="?" horiz-adv-x="1083" 
d="M492 426h-121q4 47 6 63q7 39 20 72.5t34.5 64t43 54.5t58 54t66 51.5t79.5 56.5q297 206 297 422q0 117 -78.5 184.5t-198.5 67.5q-88 0 -170 -38t-144 -115t-81 -179q-4 -46 -4 -68l-115 21q4 58 6 65q32 187 188 307.5t349 120.5q106 0 192.5 -38.5t139.5 -117.5
t53 -186q0 -63 -18 -123t-53 -112.5t-69 -93.5t-85 -83.5t-79.5 -64.5t-72.5 -53q-47 -34 -69.5 -51t-57.5 -48t-52.5 -54.5t-34 -57.5t-23.5 -72q-6 -42 -6 -49zM381 -14q-39 0 -63.5 25.5t-24.5 62.5q0 51 37.5 89t87.5 38q38 0 64 -25t26 -63q0 -49 -39 -88t-88 -39z" />
    <glyph glyph-name="at" unicode="@" horiz-adv-x="1964" 
d="M776 -195q-165 0 -296 49t-216 136.5t-129.5 205.5t-44.5 257q0 143 47 289t129 275t198 242.5t248.5 195t286.5 128.5t306 47q143 0 264.5 -41.5t210 -118.5t138.5 -194.5t50 -261.5q0 -145 -50 -290t-130.5 -256.5t-190 -181t-221.5 -69.5t-150.5 71.5t1.5 200.5h-8
q-100 -133 -215 -193t-224 -60q-130 0 -204 83t-74 218q0 114 55.5 234t141.5 213t198.5 152.5t220.5 59.5t177 -63t89 -191h9q16 124 59 227h100l-211 -604q-93 -256 70 -256q105 0 207.5 99.5t166.5 259t64 323.5q0 248 -151.5 393.5t-411.5 145.5q-137 0 -274 -43
t-254.5 -117t-219.5 -176.5t-173.5 -219.5t-112.5 -248t-41 -259q0 -256 157 -407.5t443 -151.5q156 0 306.5 46.5t275.5 131.5l41 -82q-146 -99 -319.5 -149t-338.5 -50zM831 338q89 0 178 49.5t154 126t105.5 172.5t40.5 186q0 103 -52.5 161.5t-152.5 58.5
q-120 0 -232 -81.5t-178.5 -205t-66.5 -246.5q0 -104 51.5 -162.5t152.5 -58.5z" />
    <glyph glyph-name="A" unicode="A" horiz-adv-x="1503" 
d="M70 0h-140l936 1597h140l368 -1597h-139q-31 134 -44 192.5t-34 175t-29 210.5l-16 18q-231 -25 -350 -25q-150 0 -352 25l-23 -21q-113 -224 -317 -575zM451 688l12 -20q194 24 325 24q133 0 287 -24l15 18q-119 439 -156 778h-45q-191 -393 -438 -776z" />
    <glyph glyph-name="B" unicode="B" horiz-adv-x="1458" 
d="M762 0h-641l282 1597h566q212 0 326 -99.5t114 -250.5q0 -150 -101 -265.5t-264 -152.5l-6 -34q149 -24 220 -104.5t71 -198.5q0 -95 -45 -185t-120 -157.5t-181 -108.5t-221 -41zM383 860l14 -22q152 24 426 24q198 0 321.5 102.5t123.5 245.5q0 125 -96.5 197
t-256.5 72h-45.5h-49t-46 0.5t-50.5 1t-47.5 2.5t-53.5 4t-52 5.5t-57 8.5l-22 -18q-20 -294 -109 -623zM250 117l16 -21q174 23 471 23q203 0 328 104t125 250q0 125 -95.5 198.5t-260.5 73.5q-287 0 -447 23l-22 -20q-29 -335 -115 -631z" />
    <glyph glyph-name="C" unicode="C" horiz-adv-x="1720" 
d="M811 -35q-310 0 -493 180.5t-183 485.5q0 191 76 373.5t203.5 320t306.5 221.5t373 84q112 0 214 -28.5t187 -83.5t143 -145.5t76 -205.5l-127 -49q-39 185 -179.5 287t-336.5 102q-164 0 -313 -73.5t-253.5 -193t-166.5 -275.5t-62 -318q0 -139 46.5 -248t126.5 -176
t181.5 -101t217.5 -34q101 0 195.5 26.5t170.5 72t142 109t115 134.5t85 150l111 -43q-59 -121 -141 -222t-188 -181t-241 -124.5t-286 -44.5z" />
    <glyph glyph-name="D" unicode="D" horiz-adv-x="1650" 
d="M698 0h-577l282 1597h560q165 0 288 -44t198 -126.5t111.5 -193t36.5 -250.5q0 -150 -41 -294.5t-120 -268.5t-186.5 -218.5t-250 -148t-301.5 -53.5zM250 117l16 -21q172 23 455 23q165 0 305.5 70t233.5 185.5t145.5 265t52.5 308.5q0 260 -139 395.5t-404 135.5
q-266 0 -401 22l-22 -18q-85 -701 -242 -1366z" />
    <glyph glyph-name="E" unicode="E" horiz-adv-x="1345" 
d="M1143 0h-1022l282 1597h1002l-21 -118q-30 0 -200.5 -1t-237 0t-195.5 6.5t-237 16.5l-22 -18q-20 -289 -105 -604l12 -23q305 27 838 27l-20 -121q-547 0 -828 24l-22 -22q-27 -320 -117 -647l16 -21q324 29 899 29z" />
    <glyph glyph-name="F" unicode="F" horiz-adv-x="1275" 
d="M252 0h-131l282 1597h981l-22 -124q-194 0 -287 0.5t-257.5 7.5t-303.5 20l-22 -18q-23 -309 -109 -619l12 -22q139 13 298.5 19t247.5 6.5t273 0.5l-20 -120q-528 0 -809 24l-23 -20q-31 -311 -110 -752z" />
    <glyph glyph-name="G" unicode="G" horiz-adv-x="1796" 
d="M799 -35q-143 0 -264 43.5t-211 125.5t-140.5 208t-50.5 283q0 194 76 378t203.5 321.5t306 221.5t373.5 84q90 0 173.5 -17.5t159 -55t134 -91t99 -130.5t54.5 -169l-127 -49q-39 185 -179 287t-337 102q-163 0 -312 -73t-253.5 -192.5t-167 -276t-62.5 -318.5
q0 -139 46.5 -248.5t126 -176t178.5 -100.5t211 -34q256 0 455.5 164.5t289.5 433.5l-10 16q-319 -40 -594 -40l18 114h701l-137 -776h-111q4 23 17 109t27 153t36 133l-23 2q-118 -210 -297.5 -321t-408.5 -111z" />
    <glyph glyph-name="H" unicode="H" horiz-adv-x="1654" 
d="M252 0h-131l282 1597h132q-84 -474 -150 -727l14 -22q517 37 957 0l24 22q29 285 109 727h131l-283 -1597h-131q87 489 154 752l-17 22q-457 -54 -956 0l-22 -22q-23 -250 -113 -752z" />
    <glyph glyph-name="I" unicode="I" horiz-adv-x="571" 
d="M252 0h-131l282 1597h132z" />
    <glyph glyph-name="J" unicode="J" horiz-adv-x="1189" 
d="M438 -35q-60 0 -115.5 11.5t-108.5 36.5t-91.5 64.5t-65.5 96.5t-31 132t13 171l8 43l125 17l-6 -35q-19 -95 -8.5 -165.5t36.5 -118.5t70 -78t91.5 -43t101.5 -13q65 0 119.5 19.5t92 48.5t69 75t50 85t34 94.5t22 87t14.5 77.5l182 1026h131l-174 -987
q-38 -209 -92 -329q-143 -316 -467 -316z" />
    <glyph glyph-name="K" unicode="K" horiz-adv-x="1351" 
d="M252 0h-131l282 1597h132q-3 -17 -22.5 -125.5t-24 -134.5t-21.5 -116t-27 -133t-26 -117t-32.5 -136.5t-35.5 -127.5h23q336 315 981 890h157q-41 -36 -177.5 -158t-208.5 -185t-188.5 -163t-215.5 -180l-4 -24q225 -338 551 -887h-160q-305 496 -473 817h-21
q-128 -148 -268 -248q-26 -219 -90 -569z" />
    <glyph glyph-name="L" unicode="L" horiz-adv-x="1204" 
d="M1081 0h-960l282 1597h132q-166 -949 -285 -1480l16 -21q301 29 838 29z" />
    <glyph glyph-name="M" unicode="M" horiz-adv-x="2060" 
d="M254 0h-133l282 1597h136q240 -714 407 -1443h27q491 818 917 1443h133l-282 -1597h-131q10 56 55 314t66.5 371.5t66 319t90.5 379.5h-22q-234 -378 -873 -1384h-123q-316 1117 -387 1384h-22q-11 -140 -27.5 -279.5t-41.5 -300t-41 -256t-51 -289.5t-46 -259z" />
    <glyph glyph-name="N" unicode="N" horiz-adv-x="1691" 
d="M252 0h-131l282 1597h121q407 -710 754 -1419h22q8 74 18 151.5t18.5 141.5t22 149t21.5 137.5t23.5 145.5l22.5 135t25.5 144t24 134.5t25.5 144t25 136.5h129l-283 -1597h-119q-468 815 -757 1397h-25q-11 -103 -23.5 -203t-30 -216t-28 -188t-34.5 -209.5t-32 -183.5
t-37 -207t-34 -190z" />
    <glyph glyph-name="O" unicode="O" horiz-adv-x="1814" 
d="M803 -35q-192 0 -344.5 84t-239 239t-86.5 355q0 188 79 369.5t209 316.5t308.5 218t366.5 83q196 0 349 -88t236.5 -243t83.5 -351q0 -150 -50.5 -297.5t-141.5 -269.5t-209.5 -216.5t-264.5 -147t-296 -52.5zM825 88q154 0 301.5 71.5t255 187.5t173 270.5t65.5 314.5
q0 255 -153.5 415t-391.5 160q-153 0 -300 -70.5t-256 -186t-176 -270.5t-67 -316q0 -255 156 -415.5t393 -160.5z" />
    <glyph glyph-name="P" unicode="P" horiz-adv-x="1363" 
d="M252 0h-131l282 1597h558q22 0 42 -1t68.5 -8t87.5 -20t87 -41.5t81 -67t55.5 -101.5t22.5 -141q0 -150 -73.5 -281t-209 -212t-301.5 -81q-167 0 -268.5 6.5t-202.5 30.5q-27 -288 -98 -680zM367 760l14 -23q156 25 420 25q202 0 332.5 118t130.5 300q0 148 -92.5 223.5
t-258.5 75.5q-264 0 -399 22l-22 -18q-35 -367 -125 -723z" />
    <glyph glyph-name="Q" unicode="Q" horiz-adv-x="1818" 
d="M1534 -111l-104 -77q-44 63 -66 96.5t-53.5 90t-55.5 112.5q-208 -146 -450 -146q-145 0 -269 49.5t-213 137.5t-139.5 215t-50.5 278q0 188 79 369t210 316t309.5 217.5t366.5 82.5q197 0 350.5 -88t237 -242.5t83.5 -347.5q0 -233 -117 -446.5t-323 -349.5
q20 -20 41 -44t35.5 -42t36 -48t30.5 -43t33 -47.5t29 -42.5zM834 84q178 0 376 98q-119 132 -284 385l104 78q158 -233 252 -422q158 142 251 330t93 381q0 254 -154.5 413.5t-394.5 159.5q-155 0 -303 -70.5t-257.5 -185.5t-176 -270t-66.5 -317q0 -172 72.5 -304.5
t200 -204t287.5 -71.5z" />
    <glyph glyph-name="R" unicode="R" horiz-adv-x="1419" 
d="M252 0h-131l282 1597h558q21 0 41 -1t68 -8.5t87 -20.5t87.5 -42t81.5 -68t56 -102.5t23 -142.5q0 -140 -64.5 -258t-185.5 -193t-276 -87l-2 -23q44 -75 92.5 -166.5t80 -154.5t85.5 -173t77 -157h-145l-319 645q-258 4 -398 35q-28 -296 -98 -680zM367 756l14 -23
q154 25 422 25q201 0 331 120.5t130 301.5q0 147 -93.5 223t-257.5 76q-246 0 -399 22l-22 -18q-35 -372 -125 -727z" />
    <glyph glyph-name="S" unicode="S" horiz-adv-x="1312" 
d="M575 -35q-72 0 -139 14.5t-132.5 49t-115.5 86.5t-84.5 133.5t-44.5 183.5l127 45q17 -187 130.5 -289t285.5 -102q191 0 321 109.5t130 261.5q0 26 -5 49.5t-12 42t-22 35.5t-26 29t-33 25t-35.5 20t-40.5 17t-40 14.5t-42.5 14t-40.5 13.5l-142 47q-37 12 -64 22
t-68 29t-71 38.5t-63 49.5t-53.5 63.5t-34.5 78.5t-14 96q0 130 77 242t213.5 179.5t299.5 67.5q204 0 324 -104.5t138 -278.5l-124 -49q-21 142 -118 226.5t-251 84.5q-176 0 -297 -98.5t-121 -234.5q0 -39 12 -73.5t29.5 -60t45.5 -48.5t51 -37.5t56 -29t51 -21t44 -15.5
l147 -51q139 -45 187 -69q166 -81 187 -230q3 -24 3 -49q0 -99 -49.5 -195t-132 -169t-199.5 -118t-244 -45z" />
    <glyph glyph-name="T" unicode="T" horiz-adv-x="1290" 
d="M610 0h-131q177 994 289 1501q-202 -22 -580 -22l23 118h1235l-23 -118q-375 0 -569 22q-18 -132 -39 -273t-37 -243.5t-42.5 -260t-39.5 -231t-44.5 -254.5t-41.5 -239z" />
    <glyph glyph-name="U" unicode="U" horiz-adv-x="1542" 
d="M664 -35q-269 0 -390.5 155t-68.5 455l182 1022h129l-178 -1015q-45 -252 48 -375t302 -123t346.5 124t182.5 374l180 1015h129l-180 -1022q-23 -135 -76.5 -245t-137 -192.5t-203 -127.5t-265.5 -45z" />
    <glyph glyph-name="V" unicode="V" horiz-adv-x="1503" 
d="M723 0h-141l-369 1597h139q217 -996 312 -1478h28q90 170 206 380t202.5 362.5t220.5 388t197 347.5h139z" />
    <glyph glyph-name="W" unicode="W" horiz-adv-x="2320" 
d="M616 0h-157l-238 1597h139q71 -450 116 -774t79 -682h23q70 155 138 302t149.5 317t126 262.5t146.5 303t132 271.5h147q125 -886 182 -1460h23q326 722 705 1460h139l-803 -1597h-156q-125 806 -178 1444h-26q-299 -685 -687 -1444z" />
    <glyph glyph-name="X" unicode="X" horiz-adv-x="1318" 
d="M78 0h-152q40 47 146.5 170.5t156 180t130.5 150t146 166.5t128 142l4 22q-176 304 -412 766h150q222 -423 334 -692h24q211 279 580 692h149q-459 -523 -684 -766l-4 -22q52 -92 113 -208t97 -186.5t112.5 -221.5t97.5 -193h-150q-205 408 -339 735h-25
q-50 -66 -106.5 -137t-95 -118.5t-106 -129t-92.5 -111t-105.5 -125t-96.5 -114.5z" />
    <glyph glyph-name="Y" unicode="Y" horiz-adv-x="1404" 
d="M668 0h-131q7 35 25 135.5t28.5 157.5t28.5 143t34 154q-195 434 -432 1007h144q84 -204 123.5 -301.5t108 -279.5t116.5 -332h22q54 79 115 165t106 148t118.5 160t106 141t119 155.5t109.5 143.5h139q-55 -71 -172.5 -224t-193.5 -251t-193 -246.5t-227 -285.5
q-24 -190 -94 -590z" />
    <glyph glyph-name="Z" unicode="Z" horiz-adv-x="1335" 
d="M1178 0h-1221l18 111q456 496 1303 1380l-6 22q-451 -34 -1014 -34l23 118h1161l-19 -106q-123 -133 -247.5 -265.5t-277.5 -293.5t-239.5 -251.5t-282 -294.5t-257.5 -269l8 -23q431 31 1071 31z" />
    <glyph glyph-name="bracketleft" unicode="[" horiz-adv-x="653" 
d="M449 -326h-404l340 1923h403l-20 -110q-191 0 -297 22q-116 -844 -309 -1742q114 22 307 22z" />
    <glyph glyph-name="backslash" unicode="\" horiz-adv-x="843" 
d="M639 -135h-121l-244 1773h121z" />
    <glyph glyph-name="bracketright" unicode="]" horiz-adv-x="653" 
d="M295 -326h-404l21 115q191 0 299 -22q121 882 309 1742q-116 -22 -309 -22l20 110h402z" />
    <glyph glyph-name="asciicircum" unicode="^" horiz-adv-x="860" 
d="M324 1055h-117l348 542h125l154 -542h-117q-81 289 -101 438h-34q-93 -174 -258 -438z" />
    <glyph glyph-name="underscore" unicode="_" horiz-adv-x="1015" 
d="M850 -221h-954l18 104h954z" />
    <glyph glyph-name="a" unicode="a" horiz-adv-x="1171" 
d="M348 -35q-137 0 -222 61.5t-85 186.5q0 80 37 145.5t104 112.5t150.5 79t185.5 52q28 6 77 15t75.5 14t66 15t61.5 19.5t48.5 25.5t39.5 34.5t22.5 45t9.5 58.5q0 98 -68.5 162t-185.5 64q-116 0 -210.5 -65.5t-148.5 -176.5l-112 41q49 103 133.5 174t176.5 102t189 31
q62 0 117.5 -13t104.5 -41t81 -72t46 -106t-1 -143l-75 -434q-21 -111 -27 -188.5t0 -163.5h-123q-8 50 -0.5 120t37.5 148h-25q-170 -303 -479 -303zM383 68q91 0 177 39t146 98.5t99 125.5t49 124l31 178q-57 -53 -109 -72.5t-184 -44.5q-46 -9 -81 -17.5t-88.5 -24.5
t-92.5 -37t-76.5 -49.5t-57.5 -68t-20 -86.5q0 -79 55.5 -122t151.5 -43z" />
    <glyph glyph-name="b" unicode="b" horiz-adv-x="1366" 
d="M643 -35q-143 0 -245 75t-142 220h-23q-1 -49 1 -60t-3.5 -54.5t-6.5 -50t-8.5 -47.5t-8.5 -48h-119l289 1638h123q-6 -34 -23 -134.5t-28 -160t-28.5 -150.5t-36.5 -175.5t-40 -165.5h23q96 159 224 234t267 75q194 0 311 -128t117 -343q0 -110 -32 -218t-91.5 -198.5
t-138 -160.5t-177.5 -109t-204 -39zM645 78q136 0 254 84t186 220t68 286q0 172 -92 276.5t-244 104.5q-136 0 -256.5 -83.5t-191 -219t-70.5 -283.5q0 -176 97 -280.5t249 -104.5z" />
    <glyph glyph-name="c" unicode="c" horiz-adv-x="1236" 
d="M549 -35q-214 0 -339.5 128t-125.5 347q0 138 51.5 269t139.5 231t215 160.5t270 60.5q74 0 140 -17t125 -52.5t102 -99t61 -148.5l-127 -45q-23 119 -109 184.5t-215 65.5q-110 0 -208.5 -50.5t-166 -133t-106.5 -189t-39 -217.5q0 -177 96 -279t262 -102
q149 0 270 82.5t199 218.5l105 -37q-98 -185 -257.5 -281t-342.5 -96z" />
    <glyph glyph-name="d" unicode="d" horiz-adv-x="1370" 
d="M514 -35q-195 0 -312.5 128.5t-117.5 344.5q0 138 51 270t136.5 231.5t205.5 160.5t250 61q142 0 241.5 -76t137.5 -235h22q32 297 121 788h123l-227 -1286q-23 -129 -28 -209.5t3 -142.5h-125q-5 74 1.5 133.5t35.5 145.5h-22q-93 -158 -223 -236t-273 -78zM551 78
q137 0 258 84t191.5 219.5t70.5 284.5q0 174 -97.5 278.5t-250.5 104.5q-137 0 -254.5 -84.5t-184.5 -220.5t-67 -285q0 -172 91 -276.5t243 -104.5z" />
    <glyph glyph-name="e" unicode="e" horiz-adv-x="1261" 
d="M543 -35q-210 0 -334.5 127.5t-124.5 347.5q0 185 86.5 350t242 268t341.5 103q40 0 79 -5t82 -17.5t79 -33.5t71 -52t58 -73t39.5 -98t15.5 -126t-13 -156l-8 -51h-936q-34 -211 62 -342t284 -131q148 0 267.5 83t195.5 216l107 -39q-94 -176 -252.5 -273.5
t-341.5 -97.5zM246 651h798q16 89 3 156.5t-42 114t-75 76t-96 42.5t-105 13q-165 0 -296 -110.5t-187 -291.5z" />
    <glyph glyph-name="f" unicode="f" horiz-adv-x="700" 
d="M250 0h-123q8 43 43 234.5t52.5 281.5t49.5 245.5t62 282.5q-80 -22 -197 -22l19 106q116 0 188 -20q-7 81 10 178q13 72 27.5 122.5t41.5 104t63 86t93 53.5t132 21q128 0 207 -55l-21 -117q-86 64 -186 64q-30 0 -55.5 -4.5t-45 -11t-35.5 -20.5t-27.5 -25.5t-21.5 -33
t-16 -36.5t-12.5 -43.5t-9.5 -46t-9 -50.5q-20 -114 -57 -186q137 20 364 20l-18 -106q-231 0 -356 22q-44 -386 -162 -1044z" />
    <glyph glyph-name="g" unicode="g" horiz-adv-x="1368" 
d="M473 -483q-380 0 -442 331l119 37q22 -124 108.5 -192t237.5 -68q390 0 485 492q2 9 6 33.5t6.5 33.5t7 27.5t11 35.5t16.5 38h-22q-91 -137 -219 -211t-265 -74q-191 0 -312.5 125.5t-121.5 341.5q0 138 54 267.5t141.5 222t202 148.5t231.5 56q146 0 247 -83t140 -228
h22q6 109 37 278h119l-174 -985q-111 -626 -635 -626zM557 113q134 0 254 81t191 212t71 272q0 167 -98.5 269t-251.5 102q-133 0 -250 -80t-184.5 -209t-67.5 -271q0 -167 92.5 -271.5t243.5 -104.5z" />
    <glyph glyph-name="h" unicode="h" horiz-adv-x="1294" 
d="M211 0h-123l289 1638h123q-80 -430 -166 -755h22q183 278 461 278q64 0 119 -14.5t104.5 -47t78.5 -85t41.5 -129t-7.5 -178.5l-125 -707h-125l117 653q16 111 5 186.5t-51 122t-90.5 67t-113.5 20.5q-116 0 -214.5 -62.5t-157 -155t-76.5 -196.5z" />
    <glyph glyph-name="i" unicode="i" horiz-adv-x="495" 
d="M399 1423q-39 0 -64.5 25.5t-25.5 64.5q0 51 38.5 89t90.5 38q39 0 64.5 -25.5t25.5 -62.5q0 -50 -39 -89.5t-90 -39.5zM211 0h-123l199 1128h123z" />
    <glyph glyph-name="j" unicode="j" horiz-adv-x="495" 
d="M401 1423q-41 0 -65.5 25.5t-24.5 64.5q0 51 38.5 89t90.5 38q39 0 63.5 -25.5t24.5 -62.5q0 -50 -38.5 -89.5t-88.5 -39.5zM-186 -483q-124 0 -203 57l20 117q83 -64 181 -64q35 0 65.5 9.5t53 22t43.5 38t34 43.5t26.5 53.5t19.5 52.5t15 57.5t10.5 51t8.5 47.5
l199 1126h123l-201 -1142q-7 -39 -11 -60.5t-14.5 -65t-20.5 -71t-27.5 -67t-37.5 -65.5t-49 -55t-62.5 -45.5t-77.5 -28t-95 -11.5z" />
    <glyph glyph-name="k" unicode="k" horiz-adv-x="1050" 
d="M211 0h-123l289 1638h123q-5 -30 -24 -136t-25 -142t-23 -129t-25.5 -139t-24.5 -127.5t-28 -138.5t-27.5 -128.5t-31.5 -138.5h22q29 27 89.5 82.5t81 74.5t68 62.5t77.5 70t81.5 72t107 94.5t128.5 113h152l-520 -440q100 -160 397 -688h-141q-233 416 -338 614
q-109 -115 -230 -188q-9 -169 -55 -426z" />
    <glyph glyph-name="l" unicode="l" horiz-adv-x="495" 
d="M211 0h-123l289 1638h123z" />
    <glyph glyph-name="m" unicode="m" horiz-adv-x="2070" 
d="M211 0h-123l199 1128h119q-26 -150 -72 -245h22q94 145 212 211.5t245 66.5q60 0 111.5 -15t97.5 -48.5t73 -97t27 -150.5h23q177 311 459 311q62 0 115 -14.5t101 -47t76 -85t39.5 -129t-8.5 -178.5l-125 -707h-123l115 653q17 111 6.5 187t-49 122.5t-87.5 66.5
t-110 20q-83 0 -159.5 -36.5t-132 -96t-93.5 -132.5t-51 -149l-110 -635h-125l116 653q16 111 5.5 186.5t-49 122t-87 67t-108.5 20.5q-83 0 -160 -36.5t-133 -96t-94 -132.5t-51 -149z" />
    <glyph glyph-name="n" unicode="n" horiz-adv-x="1294" 
d="M211 0h-123l199 1128h119q-26 -150 -72 -245h22q183 278 463 278q65 0 120 -14.5t104 -47t77.5 -85t40.5 -129t-8 -178.5l-125 -707h-125l117 653q16 111 5 186.5t-51.5 122t-91.5 67t-116 20.5q-87 0 -165.5 -36.5t-134 -96t-93.5 -132.5t-51 -149z" />
    <glyph glyph-name="o" unicode="o" horiz-adv-x="1314" 
d="M553 -35q-218 0 -343.5 129t-125.5 350q0 136 51.5 266t140 229.5t216.5 160.5t272 61q216 0 342.5 -129t126.5 -350q0 -136 -51.5 -266t-140 -229.5t-216.5 -160.5t-272 -61zM571 78q112 0 212 50t168.5 132.5t108.5 189t40 218.5q0 174 -95.5 277.5t-259.5 103.5
q-148 0 -271 -85.5t-190 -220t-67 -284.5q0 -175 95 -278t259 -103z" />
    <glyph glyph-name="p" unicode="p" horiz-adv-x="1366" 
d="M131 -451h-123l279 1579h119q-29 -158 -68 -270h24q97 154 226.5 228.5t269.5 74.5q192 0 310 -127.5t118 -343.5q0 -139 -51 -271.5t-137 -232t-206 -160.5t-249 -61q-141 0 -242.5 74.5t-140.5 218.5h-22q-7 -72 -15.5 -144.5t-21.5 -153t-21.5 -132.5t-25.5 -146.5
t-23 -132.5zM645 78q136 0 253.5 84.5t185 220.5t67.5 285q0 172 -91 276.5t-243 104.5q-137 0 -257.5 -83.5t-190.5 -218.5t-70 -284q0 -173 97 -279t249 -106z" />
    <glyph glyph-name="q" unicode="q" horiz-adv-x="1368" 
d="M1004 -451h-123q8 44 29 164t32.5 183t33.5 165t46 191h-23q-93 -142 -219.5 -214.5t-265.5 -72.5q-194 0 -312 128.5t-118 344.5q0 138 51 270t136.5 231.5t205.5 160.5t250 61q143 0 246 -75t143 -226h23q-4 108 24 268h119zM551 78q137 0 258 84t191.5 219.5
t70.5 284.5q0 174 -97.5 278.5t-250.5 104.5q-137 0 -254.5 -84.5t-184.5 -220.5t-67 -285q0 -172 91 -276.5t243 -104.5z" />
    <glyph glyph-name="r" unicode="r" horiz-adv-x="833" 
d="M211 0h-123l199 1128h119q-2 -12 -7.5 -48t-9 -55t-10.5 -51t-16.5 -63.5t-22.5 -66.5h25q67 152 182 234.5t244 82.5q70 0 124 -22l-22 -133q-54 28 -141 28q-110 0 -206.5 -70.5t-156 -176.5t-80.5 -226z" />
    <glyph glyph-name="s" unicode="s" horiz-adv-x="1001" 
d="M422 -35q-163 0 -273.5 87t-132.5 229l121 38q26 -112 112.5 -179.5t199.5 -67.5q122 0 212.5 72t90.5 173q0 28 -7 50.5t-25 40t-32.5 28.5t-46 23.5t-47.5 17.5t-55 17l-101 30q-30 9 -42 13t-47 18t-54 26t-48 35t-44 47.5t-27 60.5t-12 77q0 147 125 253.5t299 106.5
q143 0 238 -76.5t116 -197.5l-129 -41q-15 89 -80.5 149t-173.5 60q-112 0 -188 -64.5t-76 -156.5q0 -46 20.5 -81.5t59 -59.5t71 -37t78.5 -27l103 -33q27 -8 36 -11t36.5 -13t39.5 -16t36 -19t36 -25t29 -30t25 -37t14 -44t6 -53q0 -147 -135.5 -265t-327.5 -118z" />
    <glyph glyph-name="t" unicode="t" horiz-adv-x="753" 
d="M399 -35q-43 0 -77 9t-57 22t-39.5 36t-25.5 43.5t-12.5 52t-4 53.5t3.5 57t7 53t9 49q82 468 145 702q-98 -22 -252 -22l19 108q149 0 245 -20q0 34 2 68.5t4 59.5t7 62t7.5 54.5t9.5 59t9 54.5h123q-2 -11 -8.5 -49.5t-10 -56t-11 -54.5t-14.5 -63.5t-18 -63t-24 -71.5
q143 20 377 20l-18 -108q-240 0 -369 22q-18 -210 -40.5 -346.5t-38 -179t-26 -100.5t-10.5 -144q0 -108 23 -152t100 -44q99 0 205 65l-21 -118q-94 -58 -219 -58z" />
    <glyph glyph-name="u" unicode="u" horiz-adv-x="1275" 
d="M471 -35q-62 0 -115.5 14.5t-102 47t-77 85t-41 129t7.5 179.5l127 708h123l-117 -657q-18 -91 -9 -158t30 -112t58.5 -72.5t77.5 -39t87 -11.5q85 0 161.5 37t130.5 97t90.5 131.5t49.5 143.5l113 641h123l-137 -776q-38 -215 -25 -352h-125q-7 58 0 122.5t35 139.5h-23
q-168 -297 -442 -297z" />
    <glyph glyph-name="v" unicode="v" horiz-adv-x="1099" 
d="M516 0h-129l-254 1128h133q139 -629 197 -1005h24q194 380 547 1005h133z" />
    <glyph glyph-name="w" unicode="w" horiz-adv-x="1851" 
d="M477 0h-125l-215 1128h135q6 -36 33.5 -188t37.5 -211.5t30 -180t33 -219.5t24 -204h25q41 88 88 185t78.5 161t91.5 180t78.5 152t91 172.5t80.5 152.5h124q45 -235 64.5 -340.5t50.5 -299t51 -363.5h25q76 169 175 369t150 298t177 336h135l-612 -1128h-129
q-118 617 -168 983h-11q-223 -446 -518 -983z" />
    <glyph glyph-name="x" unicode="x" horiz-adv-x="1034" 
d="M70 0h-138q40 44 125 138.5t128.5 142t115.5 125t143 151.5l7 25q-118 184 -320 546h141q174 -313 248 -487h25q33 42 70.5 88t63.5 77t74.5 86.5t65 74t76 85t68.5 76.5h141q-324 -358 -510 -546l-4 -25q156 -262 313 -557h-135q-185 349 -250 500h-22
q-125 -162 -426 -500z" />
    <glyph glyph-name="y" unicode="y" horiz-adv-x="1101" 
d="M254 -451h-113l250 439l-258 1140h133q124 -536 195 -1026h22q248 497 553 1026h133z" />
    <glyph glyph-name="z" unicode="z" horiz-adv-x="980" 
d="M838 0h-879l16 92q34 38 196 220t229 256.5t192 210.5t231 247l-4 23q-331 -33 -641 -33l19 112h794l-16 -92q-548 -607 -852 -923l6 -23q258 23 729 23z" />
    <glyph glyph-name="braceleft" unicode="{" horiz-adv-x="737" 
d="M547 -307h-76q-121 0 -198 31.5t-110.5 89.5t-40.5 139.5t13 181.5l29 170q11 67 16.5 112.5t2.5 76.5t-8 47.5t-21 25t-30.5 10t-43.5 1.5l24 135q35 0 50 2t38 15t36 41.5t28.5 81t30.5 134.5l28 168q9 54 20.5 99t31 91.5t45 82.5t63 69t84 54t110 33.5t138.5 12.5h76
l-21 -110h-69q-155 0 -237.5 -71.5t-109.5 -219.5l-36 -205q-30 -167 -70 -231t-143 -94l-9 -41q47 -15 72 -34t37 -56.5t9 -91.5t-19 -144l-37 -205q-14 -62 -8 -115.5t29.5 -92.5t80 -61t144.5 -22h69z" />
    <glyph glyph-name="bar" unicode="|" horiz-adv-x="522" 
d="M143 -451h-120l368 2089h121z" />
    <glyph glyph-name="braceright" unicode="}" horiz-adv-x="737" 
d="M-39 -307h-74l19 110h69q154 0 237.5 71t109.5 220l36 205q30 173 72 235.5t143 90.5l5 41q-45 14 -68 29.5t-37.5 50.5t-11.5 92.5t20 152.5l37 205q8 49 9 87t-11 78t-38.5 66.5t-78.5 43t-127 16.5h-69l18 110h76q120 0 197 -31t111.5 -88t41.5 -139t-14 -184
l-31 -168q-14 -78 -18 -128.5t-1 -80t19.5 -44t34 -18t51.5 -3.5l-24 -135q-25 0 -37.5 -1t-30.5 -6t-28 -16t-22.5 -30t-22 -48.5t-19.5 -71.5t-21 -100l-32 -170q-10 -54 -21.5 -97.5t-31.5 -91t-44.5 -83t-62 -69t-83.5 -55t-109 -34t-138 -12.5z" />
    <glyph glyph-name="asciitilde" unicode="~" horiz-adv-x="1058" 
d="M692 580q-43 0 -78 14.5t-57.5 35t-43.5 41.5t-47 35.5t-56 14.5q-56 0 -91 -40t-45 -101h-112q22 120 100.5 184.5t171.5 64.5q41 0 75.5 -14.5t57 -35.5t43.5 -41.5t46.5 -35t54.5 -14.5q52 0 83.5 39.5t41.5 101.5h112q-22 -124 -92.5 -186.5t-163.5 -62.5z" />
    <glyph glyph-name="uni00A0" unicode="&#xa0;" horiz-adv-x="542" 
 />
    <glyph glyph-name="exclamdown" unicode="&#xa1;" horiz-adv-x="489" 
d="M313 946q-38 0 -64 25.5t-26 62.5q0 48 39.5 87.5t89.5 39.5q38 0 62 -25.5t24 -62.5q0 -51 -37.5 -89t-87.5 -38zM141 -449h-149l18 95l236 1120h73l-161 -1120z" />
    <glyph glyph-name="cent" unicode="&#xa2;" horiz-adv-x="1142" 
d="M733 1126l-141 -794q112 7 204 73t150 170l88 -32q-75 -140 -197.5 -219.5t-263.5 -87.5l-41 -236h-88l43 240q-152 17 -239.5 120t-87.5 269q0 142 63 271.5t179.5 216.5t259.5 102l43 247h88l-43 -243q118 -8 203.5 -71t113.5 -187l-104 -39q-15 85 -76.5 138
t-153.5 62zM272 645q0 -129 61.5 -209.5t170.5 -99.5l139 788q-159 -23 -265 -164.5t-106 -314.5z" />
    <glyph glyph-name="sterling" unicode="&#xa3;" horiz-adv-x="1214" 
d="M1032 0h-1024l21 123q224 85 349 212t126 273q2 41 -10 150q-121 -21 -326 -21l18 103q162 0 279 -21q-7 12 -31.5 52t-33 55t-27.5 49.5t-26.5 55.5t-17.5 52t-14 59.5t-4 59.5q0 182 138 305t350 123q57 0 109 -9.5t107.5 -36t97 -68t70.5 -111.5t34 -160l-123 -49
q-10 88 -40.5 152t-75.5 98.5t-95 50.5t-107 16q-141 0 -234 -85t-93 -218q0 -59 22 -123.5t53.5 -138t44.5 -129.5q179 21 461 21l-18 -103q-248 0 -422 21q49 -65 49 -135q0 -137 -115 -277.5t-299 -228.5l19 -23q281 29 809 29z" />
    <glyph glyph-name="currency" unicode="&#xa4;" horiz-adv-x="1347" 
d="M1108 897q0 -198 -141 -336l217 -325l-99 -74l-217 325q-102 -57 -219 -57q-116 0 -196 55l-332 -323l-72 74l332 325q-47 74 -47 182q0 93 36 181.5t101 154.5l-215 328l98 74l217 -324q97 57 220 57q119 0 198 -57l330 324l72 -74l-330 -326q47 -74 47 -184zM449 766
q0 -109 58.5 -172.5t160.5 -63.5q134 0 228.5 104t94.5 249q0 107 -57.5 169t-159.5 62q-134 0 -229.5 -103t-95.5 -245z" />
    <glyph glyph-name="yen" unicode="&#xa5;" horiz-adv-x="1454" 
d="M688 0h-131q31 174 78 301q-147 -22 -399 -22l18 108q254 0 391 -22q-5 74 4.5 126.5t38.5 116.5q-145 -22 -397 -22l18 108q216 0 334 -22q-154 349 -397 925h143q266 -651 356 -886h9q70 94 121 163.5t80.5 109t142 186t329.5 427.5h140q-564 -722 -727 -925
q125 22 348 22l-19 -108q-258 0 -397 22q6 -65 -3.5 -118.5t-39.5 -124.5q145 22 404 22l-19 -108q-258 0 -395 22q2 -127 -31 -301z" />
    <glyph glyph-name="brokenbar" unicode="&#xa6;" horiz-adv-x="522" 
d="M371 838h-121l141 800h121zM143 -451h-120l139 793h121z" />
    <glyph glyph-name="section" unicode="&#xa7;" horiz-adv-x="1087" 
d="M403 -301q-165 0 -277.5 96t-131.5 246l119 35q27 -121 113.5 -197t203.5 -76q115 0 202 71.5t87 170.5q0 33 -12 59t-26.5 42t-47.5 32.5t-52.5 24t-64.5 22.5l-98 35q-36 12 -63 23.5t-67.5 36t-66.5 52t-45.5 72.5t-19.5 97q0 110 77.5 194t204.5 107l4 28
q-172 57 -172 220q0 143 126 249.5t313 106.5q65 0 120 -15.5t102.5 -49t78 -94.5t37.5 -144l-127 -37q-14 120 -71 177.5t-165 57.5q-123 0 -204 -64t-81 -157q0 -27 8 -51t19 -41.5t32 -34.5t36 -27t43.5 -22.5t41.5 -17.5t42 -15l116 -41q27 -10 33 -12t33 -13t36 -16.5
t32.5 -19t33 -24t25.5 -28t23 -35t12.5 -40.5t5.5 -49q0 -111 -83 -205t-210 -123l-6 -29q184 -43 184 -200q0 -146 -133.5 -261.5t-319.5 -115.5zM498 365l53 -19q128 10 208.5 84t80.5 168q0 17 -3.5 31.5t-7.5 26.5t-14 23t-17 18.5t-22.5 16.5t-23 14t-27 12.5
t-27.5 10.5t-30 11t-29 10l-78 25q-60 20 -126 -8t-110 -88t-44 -128q0 -46 21.5 -83t59.5 -61.5t67.5 -38t68.5 -25.5z" />
    <glyph glyph-name="copyright" unicode="&#xa9;" horiz-adv-x="1943" 
d="M868 -35q-206 0 -364.5 82t-247 237t-88.5 361q0 191 78.5 371.5t211 315.5t318 216.5t387.5 81.5q207 0 365 -82.5t246 -237t88 -358.5q0 -191 -78.5 -371.5t-210.5 -316t-317.5 -217.5t-387.5 -82zM887 76q177 0 338 71.5t275.5 189t182.5 274t68 321.5
q0 269 -168 429.5t-440 160.5q-177 0 -338 -71t-275.5 -188.5t-182.5 -274t-68 -322.5q0 -272 168 -431t440 -159zM942 350q-163 0 -257.5 96.5t-94.5 262.5q0 138 65.5 261t184.5 200t262 77q132 0 217.5 -66.5t107.5 -189.5l-114 -39q-13 93 -75 143t-157 50
q-107 0 -193.5 -63.5t-131.5 -159.5t-45 -199q0 -128 69 -199t187 -71q104 0 193.5 60t148.5 169l94 -31q-70 -142 -192 -221.5t-269 -79.5z" />
    <glyph glyph-name="guillemotleft" unicode="&#xab;" horiz-adv-x="1130" 
d="M528 164h-143l-268 405l2 9l411 405h144q-201 -194 -286 -266q-76 -64 -152 -117l-9 -53q82 -76 149 -165t152 -218zM922 164h-146l-268 405l2 9l412 405h145q-102 -99 -150.5 -144.5t-130.5 -115.5t-157 -123l-8 -53q82 -76 149 -165t152 -218z" />
    <glyph glyph-name="logicalnot" unicode="&#xac;" horiz-adv-x="1034" 
d="M821 264h-114l53 309h-602l20 113h717z" />
    <glyph glyph-name="registered" unicode="&#xae;" horiz-adv-x="1171" 
d="M616 739q-171 0 -273.5 101.5t-102.5 265.5q0 101 42 197.5t112.5 169.5t170.5 117t209 44q169 0 273 -100t104 -264q0 -135 -71 -257t-195.5 -198t-268.5 -76zM631 817q93 0 176.5 37.5t141 99t91 141t33.5 162.5q0 136 -85.5 220t-225.5 84q-122 0 -225 -63
t-161.5 -164.5t-58.5 -215.5q0 -136 85 -218.5t229 -82.5zM573 944h-75l86 494h178q66 0 106.5 -33t40.5 -90q0 -61 -40 -112t-101 -66l98 -193h-88l-90 184h-84zM645 1366l-27 -168h103q48 0 78 29t30 71q0 68 -86 68h-98z" />
    <glyph glyph-name="degree" unicode="&#xb0;" horiz-adv-x="780" 
d="M473 1055q-111 0 -177.5 67.5t-66.5 175.5q0 89 46 170t127 131t176 50q110 0 177.5 -67.5t67.5 -174.5q0 -90 -46.5 -171t-128 -131t-175.5 -50zM489 1143q96 0 166 76t70 174q0 74 -44.5 121t-117.5 47q-95 0 -165 -76t-70 -174q0 -74 44 -121t117 -47z" />
    <glyph glyph-name="plusminus" unicode="&#xb1;" horiz-adv-x="1038" 
d="M922 774l-21 -108h-305l-39 -213h305l-16 -103h-725l18 103h303l39 213h-305l21 108h303l43 250h114l-41 -250h306z" />
    <glyph glyph-name="uni00B2" unicode="&#xb2;" horiz-adv-x="626" 
d="M596 811h-469l2 10q30 115 83.5 174t203.5 148q162 99 162 194q0 42 -29.5 68.5t-79.5 26.5q-67 0 -118 -46t-64 -122l-90 16q19 107 100.5 175.5t189.5 68.5q88 0 142.5 -46.5t54.5 -123.5q0 -140 -174 -248q-23 -15 -73 -45.5t-71.5 -45.5t-49 -45t-42.5 -65h338z" />
    <glyph glyph-name="uni00B3" unicode="&#xb3;" horiz-adv-x="638" 
d="M356 797q-92 0 -154 43.5t-71 115.5l94 43q11 -54 48 -85t98 -31q70 0 118 43t48 102q0 49 -36.5 75.5t-101.5 26.5h-69l14 76h74q68 0 114 38.5t46 96.5q0 43 -32 69t-83 26q-57 0 -100.5 -32.5t-63.5 -90.5l-88 20q26 84 103.5 137.5t170.5 53.5q85 0 141 -42.5
t56 -111.5q0 -65 -43 -121t-104 -71q49 -11 79.5 -47t30.5 -89q0 -99 -85 -172t-204 -73z" />
    <glyph glyph-name="paragraph" unicode="&#xb6;" horiz-adv-x="1443" 
d="M766 -287h-131l166 942h-236q-186 0 -292.5 104t-106.5 283q0 111 43.5 212t120.5 177t191.5 121t248.5 45h328zM1055 -287h-131l331 1884h131z" />
    <glyph glyph-name="periodcentered" unicode="&#xb7;" horiz-adv-x="544" 
d="M258 477q-48 0 -78 32t-30 79q0 61 47 107t110 46q45 0 76 -30.5t31 -75.5q0 -60 -48 -109t-108 -49z" />
    <glyph glyph-name="uni00B9" unicode="&#xb9;" horiz-adv-x="434" 
d="M344 811h-100l92 520q-76 -68 -168 -84l18 103q71 18 123.5 61.5t61.5 97.5h96z" />
    <glyph glyph-name="guillemotright" unicode="&#xbb;" horiz-adv-x="1132" 
d="M627 569l-412 -405h-145q7 6 43.5 41.5t47 46t44 42.5t49 46t46 42t51.5 45t49 40t54 42.5t52 37.5l8 53q-56 54 -113 124t-93 121.5t-93 137.5h145l269 -405zM1018 569l-412 -405h-143q7 6 43.5 41.5t47 46t44 42.5t49 46t46 42t51.5 45t49 40t54 42.5t52 37.5l8 53
q-82 78 -149.5 167.5t-149.5 215.5h144l268 -405z" />
    <glyph glyph-name="onequarter" unicode="&#xbc;" horiz-adv-x="1304" 
d="M344 811h-100l92 520q-76 -68 -168 -84l18 103q71 18 123.5 61.5t61.5 97.5h96zM-27 0h-116l1396 1468h109zM1044 -14h-98l29 159h-346l14 86l428 453h96l-80 -453h99l-17 -86h-98zM1044 551l-301 -320h246z" />
    <glyph glyph-name="onehalf" unicode="&#xbd;" horiz-adv-x="1337" 
d="M344 811h-100l92 520q-76 -68 -168 -84l18 103q71 18 123.5 61.5t61.5 97.5h96zM-27 0h-116l1396 1468h109zM1161 -14h-469l2 10q30 115 83 173.5t204 147.5q162 99 162 195q0 42 -29.5 68t-79.5 26q-67 0 -118 -46t-64 -122l-90 17q19 107 101 175t190 68q88 0 142 -46
t54 -124q0 -139 -174 -247q-23 -15 -60 -37.5t-57.5 -36t-45.5 -33t-42.5 -42.5t-29.5 -52h338z" />
    <glyph glyph-name="threequarters" unicode="&#xbe;" horiz-adv-x="1509" 
d="M356 797q-92 0 -154 43.5t-71 115.5l94 43q11 -54 48 -85t98 -31q70 0 118 43t48 102q0 49 -36.5 75.5t-101.5 26.5h-69l14 76h74q68 0 114 38.5t46 96.5q0 43 -32 69t-83 26q-57 0 -100.5 -32.5t-63.5 -90.5l-88 20q26 84 103.5 137.5t170.5 53.5q85 0 141 -42.5
t56 -111.5q0 -65 -43 -121t-104 -71q49 -11 79.5 -47t30.5 -89q0 -99 -85 -172t-204 -73zM178 0h-117l1397 1468h109zM1249 -14h-98l29 159h-346l14 86l428 453h96l-80 -453h99l-17 -86h-98zM1249 551l-301 -320h246z" />
    <glyph glyph-name="questiondown" unicode="&#xbf;" horiz-adv-x="1058" 
d="M653 946q-38 0 -63 25t-25 63q0 50 38 88.5t87 38.5q40 0 66 -26t26 -64q0 -48 -38.5 -86.5t-90.5 -38.5zM348 -483q-166 0 -277.5 91.5t-111.5 250.5q0 75 28.5 148t66 125.5t96.5 108t96.5 84t89.5 64.5q50 35 70.5 50.5t56.5 46.5t53 54.5t33.5 58t23.5 73.5
q7 42 7 49h120q0 -34 -6 -64q-8 -46 -27 -86t-41 -70.5t-62.5 -66t-73 -60t-91.5 -65.5q-303 -209 -303 -426q0 -117 78.5 -184.5t198.5 -67.5q137 0 252.5 90.5t142.5 241.5q2 11 3.5 27.5t2.5 27t2 13.5l111 -21q0 -38 -6 -65q-22 -125 -102 -224t-193.5 -151.5
t-237.5 -52.5z" />
    <glyph glyph-name="Agrave" unicode="&#xc0;" horiz-adv-x="1503" 
d="M1042 1720h-114l-283 322h191zM70 0h-140l936 1597h140l368 -1597h-139q-31 134 -44 192.5t-34 175t-29 210.5l-16 18q-231 -25 -350 -25q-150 0 -352 25l-23 -21q-113 -224 -317 -575zM451 688l12 -20q194 24 325 24q133 0 287 -24l15 18q-119 439 -156 778h-45
q-191 -393 -438 -776z" />
    <glyph glyph-name="Aacute" unicode="&#xc1;" horiz-adv-x="1503" 
d="M1386 2042l-395 -322h-114l319 322h190zM70 0h-140l936 1597h140l368 -1597h-139q-31 134 -44 192.5t-34 175t-29 210.5l-16 18q-231 -25 -350 -25q-150 0 -352 25l-23 -21q-113 -224 -317 -575zM451 688l12 -20q194 24 325 24q133 0 287 -24l15 18q-119 439 -156 778
h-45q-191 -393 -438 -776z" />
    <glyph glyph-name="Acircumflex" unicode="&#xc2;" horiz-adv-x="1503" 
d="M725 1720h-115l318 303h162l215 -303h-115q-46 52 -67 76.5t-50.5 70.5t-48.5 95h-47q-17 -22 -33.5 -41.5t-38.5 -41t-34 -34t-39 -36t-33.5 -29t-39 -32t-34.5 -28.5zM70 0h-140l936 1597h140l368 -1597h-139q-31 134 -44 192.5t-34 175t-29 210.5l-16 18
q-231 -25 -350 -25q-150 0 -352 25l-23 -21q-113 -224 -317 -575zM451 688l12 -20q194 24 325 24q133 0 287 -24l15 18q-119 439 -156 778h-45q-191 -393 -438 -776z" />
    <glyph glyph-name="Atilde" unicode="&#xc3;" horiz-adv-x="1503" 
d="M1110 1749q-36 0 -65 13t-42 24.5t-40 40.5l-35 31q-1 1 -8 8.5t-8.5 8.5t-8.5 7.5t-10 8t-9 6.5t-10.5 6.5t-11 3.5t-13 3t-13.5 1q-48 0 -85 -41.5t-49 -106.5h-94q20 109 89.5 176.5t160.5 67.5q30 0 56 -10.5t41.5 -23t37.5 -34.5l37 -36q53 -58 103 -58q46 0 81 42
t46 106h96q-21 -110 -86.5 -177t-159.5 -67zM70 0h-140l936 1597h140l368 -1597h-139q-31 134 -44 192.5t-34 175t-29 210.5l-16 18q-231 -25 -350 -25q-150 0 -352 25l-23 -21q-113 -224 -317 -575zM451 688l12 -20q194 24 325 24q133 0 287 -24l15 18q-119 439 -156 778
h-45q-191 -393 -438 -776z" />
    <glyph glyph-name="Adieresis" unicode="&#xc4;" horiz-adv-x="1503" 
d="M774 1790q-38 0 -62 24.5t-24 61.5q0 47 37 83t84 36q37 0 60.5 -23.5t23.5 -58.5q0 -48 -36 -85.5t-83 -37.5zM1163 1790q-38 0 -62 24t-24 60q0 49 36.5 85t86.5 36q36 0 60 -24t24 -60q0 -46 -37 -83.5t-84 -37.5zM70 0h-140l936 1597h140l368 -1597h-139
q-31 134 -44 192.5t-34 175t-29 210.5l-16 18q-231 -25 -350 -25q-150 0 -352 25l-23 -21q-113 -224 -317 -575zM451 688l12 -20q194 24 325 24q133 0 287 -24l15 18q-119 439 -156 778h-45q-191 -393 -438 -776z" />
    <glyph glyph-name="Aring" unicode="&#xc5;" horiz-adv-x="1503" 
d="M956 1716q-85 0 -136.5 49t-51.5 129q0 102 78.5 178t187.5 76q83 0 135 -49.5t52 -128.5q0 -101 -78 -177.5t-187 -76.5zM971 1802q68 0 115 46t47 112q0 46 -32.5 74t-82.5 28q-67 0 -113.5 -45t-46.5 -110q0 -49 30.5 -77t82.5 -28zM70 0h-140l936 1597h140l368 -1597
h-139q-31 134 -44 192.5t-34 175t-29 210.5l-16 18q-231 -25 -350 -25q-150 0 -352 25l-23 -21q-113 -224 -317 -575zM451 688l12 -20q194 24 325 24q133 0 287 -24l15 18q-119 439 -156 778h-45q-191 -393 -438 -776z" />
    <glyph glyph-name="AE" unicode="&#xc6;" horiz-adv-x="2109" 
d="M8 0h-141l1229 1597h1073l-21 -118q-191 0 -289.5 1t-277.5 8.5t-332 22.5q-11 -312 -104 -653q315 25 856 25l-21 -121q-555 0 -847 22q-29 -341 -123 -692q336 33 919 33l-22 -125h-1022q63 357 119 594q-289 -34 -568 0q-29 -46 -58.5 -90.5t-63.5 -92.5t-57.5 -81.5
t-64.5 -87.5t-58.5 -77.5t-65 -85t-60.5 -79.5zM514 672q270 30 512 -2q39 380 137 831h-41q-203 -324 -608 -829z" />
    <glyph glyph-name="Ccedilla" unicode="&#xc7;" horiz-adv-x="1720" 
d="M848 88q101 0 195.5 26.5t170.5 72t142 109t115 134.5t85 150l111 -43q-47 -96 -107.5 -179t-139.5 -156t-170 -124.5t-202 -81.5t-231 -31q-71 -79 -129 -125l8 -8q58 25 103 25q70 0 112.5 -37t42.5 -99q0 -85 -75 -147.5t-183 -62.5q-69 0 -132 29.5t-99 80.5l63 53
q26 -41 74 -65.5t100 -24.5q67 0 113.5 36t46.5 87q0 38 -30 61t-78 23q-57 0 -103 -24l-43 49l125 153q-277 23 -437.5 200.5t-160.5 461.5q0 191 76 373.5t203.5 320t306.5 221.5t373 84q112 0 214 -28.5t187 -83.5t143 -145.5t76 -205.5l-127 -49q-39 185 -179.5 287
t-336.5 102q-164 0 -313 -73.5t-253.5 -193t-166.5 -275.5t-62 -318q0 -139 46.5 -248t126.5 -176t181.5 -101t217.5 -34z" />
    <glyph glyph-name="Egrave" unicode="&#xc8;" horiz-adv-x="1345" 
d="M981 1720h-115l-282 322h190zM1143 0h-1022l282 1597h1002l-21 -118q-30 0 -200.5 -1t-237 0t-195.5 6.5t-237 16.5l-22 -18q-20 -289 -105 -604l12 -23q305 27 838 27l-20 -121q-547 0 -828 24l-22 -22q-27 -320 -117 -647l16 -21q324 29 899 29z" />
    <glyph glyph-name="Eacute" unicode="&#xc9;" horiz-adv-x="1345" 
d="M1325 2042l-395 -322h-115l320 322h190zM1143 0h-1022l282 1597h1002l-21 -118q-30 0 -200.5 -1t-237 0t-195.5 6.5t-237 16.5l-22 -18q-20 -289 -105 -604l12 -23q305 27 838 27l-20 -121q-547 0 -828 24l-22 -22q-27 -320 -117 -647l16 -21q324 29 899 29z" />
    <glyph glyph-name="Ecircumflex" unicode="&#xca;" horiz-adv-x="1345" 
d="M664 1720h-115l317 303h162l215 -303h-115q-45 50 -66.5 76t-50.5 71.5t-48 94.5h-48q-15 -19 -31.5 -38.5t-29 -33t-34 -34t-29.5 -28.5t-34 -30t-29.5 -25.5t-33.5 -28.5zM1143 0h-1022l282 1597h1002l-21 -118q-30 0 -200.5 -1t-237 0t-195.5 6.5t-237 16.5l-22 -18
q-20 -289 -105 -604l12 -23q305 27 838 27l-20 -121q-547 0 -828 24l-22 -22q-27 -320 -117 -647l16 -21q324 29 899 29z" />
    <glyph glyph-name="Edieresis" unicode="&#xcb;" horiz-adv-x="1345" 
d="M713 1790q-38 0 -62 24.5t-24 61.5q0 47 37 83t84 36q37 0 60 -23.5t23 -58.5q0 -48 -35.5 -85.5t-82.5 -37.5zM1102 1790q-38 0 -62 24t-24 60q0 49 36.5 85t86.5 36q36 0 60 -24t24 -60q0 -46 -37 -83.5t-84 -37.5zM1143 0h-1022l282 1597h1002l-21 -118
q-30 0 -200.5 -1t-237 0t-195.5 6.5t-237 16.5l-22 -18q-20 -289 -105 -604l12 -23q305 27 838 27l-20 -121q-547 0 -828 24l-22 -22q-27 -320 -117 -647l16 -21q324 29 899 29z" />
    <glyph glyph-name="Igrave" unicode="&#xcc;" horiz-adv-x="571" 
d="M578 1720h-115l-283 322h191zM252 0h-131l282 1597h132z" />
    <glyph glyph-name="Iacute" unicode="&#xcd;" horiz-adv-x="571" 
d="M922 2042l-396 -322h-114l319 322h191zM252 0h-131l282 1597h132z" />
    <glyph glyph-name="Icircumflex" unicode="&#xce;" horiz-adv-x="571" 
d="M260 1720h-115l318 303h162l215 -303h-115q-46 52 -67 76.5t-50.5 70.5t-48.5 95h-47q-17 -22 -33.5 -41.5t-38.5 -41t-34 -34t-39 -36t-33.5 -29t-39 -32t-34.5 -28.5zM252 0h-131l282 1597h132z" />
    <glyph glyph-name="Idieresis" unicode="&#xcf;" horiz-adv-x="571" 
d="M309 1790q-38 0 -62 24.5t-24 61.5q0 47 37 83t84 36q37 0 60.5 -23.5t23.5 -58.5q0 -48 -36 -85.5t-83 -37.5zM698 1790q-38 0 -62 24t-24 60q0 49 36.5 85t86.5 36q36 0 60 -24t24 -60q0 -46 -37 -83.5t-84 -37.5zM252 0h-131l282 1597h132z" />
    <glyph glyph-name="Eth" unicode="&#xd0;" horiz-adv-x="1650" 
d="M403 1597h560q165 0 288 -44t198 -126.5t111.5 -193t36.5 -250.5q0 -150 -41 -294.5t-120 -268.5t-186.5 -218.5t-250 -148t-301.5 -53.5h-577l131 743h-168l18 109h170zM721 119q165 0 305.5 70t233.5 185.5t145.5 265t52.5 308.5q0 260 -139 395.5t-404 135.5
q-266 0 -401 22l-22 -18q-48 -372 -93 -631h555l-18 -109h-555q-62 -328 -131 -626l16 -21q172 23 455 23z" />
    <glyph glyph-name="Ntilde" unicode="&#xd1;" horiz-adv-x="1691" 
d="M1198 1802q-36 0 -65 13t-42 24.5t-40 40.5l-35 31q-1 1 -8 8.5t-8.5 8.5t-8.5 7.5t-10 8t-9 6.5t-10.5 6.5t-11 3.5t-13 3t-13.5 1q-48 0 -84.5 -41t-48.5 -106h-95q20 109 89.5 176t160.5 67q43 0 72.5 -17t62.5 -50l37 -37q53 -58 103 -58q46 0 81 42t46 106h96
q-21 -110 -86.5 -177t-159.5 -67zM252 0h-131l282 1597h121q407 -710 754 -1419h22q8 74 18 151.5t18.5 141.5t22 149t21.5 137.5t23.5 145.5l22.5 135t25.5 144t24 134.5t25.5 144t25 136.5h129l-283 -1597h-119q-468 815 -757 1397h-25q-11 -103 -23.5 -203t-30 -216
t-28 -188t-34.5 -209.5t-32 -183.5t-37 -207t-34 -190z" />
    <glyph glyph-name="Ograve" unicode="&#xd2;" horiz-adv-x="1814" 
d="M1196 1720h-115l-282 322h190zM803 -35q-192 0 -344.5 84t-239 239t-86.5 355q0 188 79 369.5t209 316.5t308.5 218t366.5 83q196 0 349 -88t236.5 -243t83.5 -351q0 -150 -50.5 -297.5t-141.5 -269.5t-209.5 -216.5t-264.5 -147t-296 -52.5zM825 88q154 0 301.5 71.5
t255 187.5t173 270.5t65.5 314.5q0 255 -153.5 415t-391.5 160q-153 0 -300 -70.5t-256 -186t-176 -270.5t-67 -316q0 -255 156 -415.5t393 -160.5z" />
    <glyph glyph-name="Oacute" unicode="&#xd3;" horiz-adv-x="1814" 
d="M1542 2042l-395 -322h-115l320 322h190zM803 -35q-192 0 -344.5 84t-239 239t-86.5 355q0 188 79 369.5t209 316.5t308.5 218t366.5 83q196 0 349 -88t236.5 -243t83.5 -351q0 -150 -50.5 -297.5t-141.5 -269.5t-209.5 -216.5t-264.5 -147t-296 -52.5zM825 88
q154 0 301.5 71.5t255 187.5t173 270.5t65.5 314.5q0 255 -153.5 415t-391.5 160q-153 0 -300 -70.5t-256 -186t-176 -270.5t-67 -316q0 -255 156 -415.5t393 -160.5z" />
    <glyph glyph-name="Ocircumflex" unicode="&#xd4;" horiz-adv-x="1814" 
d="M879 1720h-115l317 303h162l215 -303h-115q-45 50 -66.5 76t-50.5 71.5t-48 94.5h-48q-15 -19 -31.5 -38.5t-29 -33t-34 -34t-29.5 -28.5t-34 -30t-29.5 -25.5t-33.5 -28.5zM803 -35q-192 0 -344.5 84t-239 239t-86.5 355q0 188 79 369.5t209 316.5t308.5 218t366.5 83
q196 0 349 -88t236.5 -243t83.5 -351q0 -150 -50.5 -297.5t-141.5 -269.5t-209.5 -216.5t-264.5 -147t-296 -52.5zM825 88q154 0 301.5 71.5t255 187.5t173 270.5t65.5 314.5q0 255 -153.5 415t-391.5 160q-153 0 -300 -70.5t-256 -186t-176 -270.5t-67 -316
q0 -255 156 -415.5t393 -160.5z" />
    <glyph glyph-name="Otilde" unicode="&#xd5;" horiz-adv-x="1814" 
d="M1276 1802q-36 0 -65 13t-42.5 25t-40.5 40l-34 31q-19 19 -27 26.5t-27 17t-39 9.5q-48 0 -84.5 -41t-48.5 -106h-94q20 109 89.5 176t160.5 67q43 0 72.5 -17t62.5 -50l37 -37q53 -58 102 -58q46 0 81 42t46 106h97q-21 -110 -86.5 -177t-159.5 -67zM803 -35
q-192 0 -344.5 84t-239 239t-86.5 355q0 188 79 369.5t209 316.5t308.5 218t366.5 83q196 0 349 -88t236.5 -243t83.5 -351q0 -150 -50.5 -297.5t-141.5 -269.5t-209.5 -216.5t-264.5 -147t-296 -52.5zM825 88q154 0 301.5 71.5t255 187.5t173 270.5t65.5 314.5
q0 255 -153.5 415t-391.5 160q-153 0 -300 -70.5t-256 -186t-176 -270.5t-67 -316q0 -255 156 -415.5t393 -160.5z" />
    <glyph glyph-name="Odieresis" unicode="&#xd6;" horiz-adv-x="1814" 
d="M930 1790q-38 0 -62 24.5t-24 61.5q0 47 37 83t84 36q37 0 60.5 -23.5t23.5 -58.5q0 -48 -36 -85.5t-83 -37.5zM1319 1790q-38 0 -62 24t-24 60q0 49 36.5 85t86.5 36q36 0 60 -24t24 -60q0 -46 -37 -83.5t-84 -37.5zM803 -35q-192 0 -344.5 84t-239 239t-86.5 355
q0 188 79 369.5t209 316.5t308.5 218t366.5 83q196 0 349 -88t236.5 -243t83.5 -351q0 -150 -50.5 -297.5t-141.5 -269.5t-209.5 -216.5t-264.5 -147t-296 -52.5zM825 88q154 0 301.5 71.5t255 187.5t173 270.5t65.5 314.5q0 255 -153.5 415t-391.5 160q-153 0 -300 -70.5
t-256 -186t-176 -270.5t-67 -316q0 -255 156 -415.5t393 -160.5z" />
    <glyph glyph-name="multiply" unicode="&#xd7;" horiz-adv-x="917" 
d="M393 625l-188 225l96 80l186 -225l256 219l66 -80l-254 -217l182 -228l-94 -80l-184 226l-260 -219l-64 80z" />
    <glyph glyph-name="Oslash" unicode="&#xd8;" horiz-adv-x="1814" 
d="M1763 1661l-188 -219q92 -92 141 -218.5t49 -275.5q0 -150 -50.5 -297.5t-141.5 -269.5t-209.5 -216.5t-264.5 -147t-296 -52.5q-226 0 -400 119l-129 -150h-141l189 220q-189 189 -189 489q0 188 79 369.5t209 316.5t308.5 218t366.5 83q225 0 397 -117l127 148h143z
M276 664q0 -239 142 -400l983 1141q-139 102 -326 102q-153 0 -300 -70.5t-256 -186t-176 -270.5t-67 -316zM825 88q154 0 301.5 71.5t255 187.5t173 270.5t65.5 314.5q0 243 -139 401l-985 -1140q142 -105 329 -105z" />
    <glyph glyph-name="Ugrave" unicode="&#xd9;" horiz-adv-x="1542" 
d="M1065 1720h-115l-282 322h190zM664 -35q-269 0 -390.5 155t-68.5 455l182 1022h129l-178 -1015q-45 -252 48 -375t302 -123t346.5 124t182.5 374l180 1015h129l-180 -1022q-23 -135 -76.5 -245t-137 -192.5t-203 -127.5t-265.5 -45z" />
    <glyph glyph-name="Uacute" unicode="&#xda;" horiz-adv-x="1542" 
d="M1280 2040l-395 -320h-115l320 320h190zM664 -35q-269 0 -390.5 155t-68.5 455l182 1022h129l-178 -1015q-45 -252 48 -375t302 -123t346.5 124t182.5 374l180 1015h129l-180 -1022q-23 -135 -76.5 -245t-137 -192.5t-203 -127.5t-265.5 -45z" />
    <glyph glyph-name="Ucircumflex" unicode="&#xdb;" horiz-adv-x="1542" 
d="M748 1720h-115l317 303h162l215 -303h-115q-45 50 -66.5 76t-50.5 71.5t-48 94.5h-48q-15 -19 -31.5 -38.5t-29 -33t-34 -34t-29.5 -28.5t-34 -30t-29.5 -25.5t-33.5 -28.5zM664 -35q-269 0 -390.5 155t-68.5 455l182 1022h129l-178 -1015q-45 -252 48 -375t302 -123
t346.5 124t182.5 374l180 1015h129l-180 -1022q-23 -135 -76.5 -245t-137 -192.5t-203 -127.5t-265.5 -45z" />
    <glyph glyph-name="Udieresis" unicode="&#xdc;" horiz-adv-x="1542" 
d="M797 1790q-38 0 -62 24.5t-24 61.5q0 47 36.5 83t83.5 36q37 0 60.5 -23.5t23.5 -58.5q0 -48 -35.5 -85.5t-82.5 -37.5zM1186 1790q-38 0 -62 24t-24 60q0 49 36.5 85t86.5 36q36 0 60 -24t24 -60q0 -46 -37 -83.5t-84 -37.5zM664 -35q-269 0 -390.5 155t-68.5 455
l182 1022h129l-178 -1015q-45 -252 48 -375t302 -123t346.5 124t182.5 374l180 1015h129l-180 -1022q-23 -135 -76.5 -245t-137 -192.5t-203 -127.5t-265.5 -45z" />
    <glyph glyph-name="Yacute" unicode="&#xdd;" horiz-adv-x="1404" 
d="M1323 2040l-395 -320h-115l320 320h190zM668 0h-131q7 35 25 135.5t28.5 157.5t28.5 143t34 154q-195 434 -432 1007h144q84 -204 123.5 -301.5t108 -279.5t116.5 -332h22q54 79 115 165t106 148t118.5 160t106 141t119 155.5t109.5 143.5h139q-55 -71 -172.5 -224
t-193.5 -251t-193 -246.5t-227 -285.5q-24 -190 -94 -590z" />
    <glyph glyph-name="Thorn" unicode="&#xde;" horiz-adv-x="1390" 
d="M252 0h-131l282 1597h132q-14 -78 -68 -284h442q205 0 325 -101.5t120 -283.5q0 -108 -42.5 -210.5t-117 -182t-185 -127.5t-237.5 -48q-118 0 -177 1t-141 9t-151 25q-4 -28 -11.5 -100.5t-17 -148.5t-22.5 -146zM315 475l15 -22q150 24 420 24q203 0 333.5 118
t130.5 300q0 148 -93 223.5t-259 75.5q-256 0 -397 23l-25 -19q-33 -371 -125 -723z" />
    <glyph glyph-name="germandbls" unicode="&#xdf;" horiz-adv-x="1249" 
d="M211 0h-123l207 1176q6 33 13.5 63.5t26.5 83.5t44 96.5t67.5 92.5t95 82.5t128.5 56t166 22.5q193 0 297 -94t104 -254q0 -174 -112.5 -311.5t-270.5 -149.5l-4 -24q145 -12 222 -90t77 -211q0 -104 -47 -202t-127.5 -172.5t-197 -119.5t-247.5 -45h-145l18 106h156
q188 0 321.5 124t133.5 290q0 126 -78.5 199.5t-204.5 73.5h-98l18 106h92q104 0 187 58t126.5 149.5t43.5 193.5q0 120 -68 191.5t-211 71.5q-70 0 -129 -18t-99.5 -49t-71.5 -67.5t-50.5 -79.5t-30 -78t-16.5 -69z" />
    <glyph glyph-name="agrave" unicode="&#xe0;" horiz-adv-x="1171" 
d="M784 1278h-108l-242 393h172zM348 -35q-137 0 -222 61.5t-85 186.5q0 80 37 145.5t104 112.5t150.5 79t185.5 52q28 6 77 15t75.5 14t66 15t61.5 19.5t48.5 25.5t39.5 34.5t22.5 45t9.5 58.5q0 98 -68.5 162t-185.5 64q-116 0 -210.5 -65.5t-148.5 -176.5l-112 41
q49 103 133.5 174t176.5 102t189 31q62 0 117.5 -13t104.5 -41t81 -72t46 -106t-1 -143l-75 -434q-21 -111 -27 -188.5t0 -163.5h-123q-8 50 -0.5 120t37.5 148h-25q-170 -303 -479 -303zM383 68q91 0 177 39t146 98.5t99 125.5t49 124l31 178q-57 -53 -109 -72.5
t-184 -44.5q-46 -9 -81 -17.5t-88.5 -24.5t-92.5 -37t-76.5 -49.5t-57.5 -68t-20 -86.5q0 -79 55.5 -122t151.5 -43z" />
    <glyph glyph-name="aacute" unicode="&#xe1;" horiz-adv-x="1171" 
d="M1151 1671l-381 -393h-108l315 393h174zM348 -35q-137 0 -222 61.5t-85 186.5q0 80 37 145.5t104 112.5t150.5 79t185.5 52q28 6 77 15t75.5 14t66 15t61.5 19.5t48.5 25.5t39.5 34.5t22.5 45t9.5 58.5q0 98 -68.5 162t-185.5 64q-116 0 -210.5 -65.5t-148.5 -176.5
l-112 41q49 103 133.5 174t176.5 102t189 31q62 0 117.5 -13t104.5 -41t81 -72t46 -106t-1 -143l-75 -434q-21 -111 -27 -188.5t0 -163.5h-123q-8 50 -0.5 120t37.5 148h-25q-170 -303 -479 -303zM383 68q91 0 177 39t146 98.5t99 125.5t49 124l31 178q-57 -53 -109 -72.5
t-184 -44.5q-46 -9 -81 -17.5t-88.5 -24.5t-92.5 -37t-76.5 -49.5t-57.5 -68t-20 -86.5q0 -79 55.5 -122t151.5 -43z" />
    <glyph glyph-name="acircumflex" unicode="&#xe2;" horiz-adv-x="1171" 
d="M459 1278h-117l360 356h168l234 -356h-117q-44 53 -72.5 90t-62 90t-53.5 103h-47q-101 -132 -293 -283zM348 -35q-137 0 -222 61.5t-85 186.5q0 80 37 145.5t104 112.5t150.5 79t185.5 52q28 6 77 15t75.5 14t66 15t61.5 19.5t48.5 25.5t39.5 34.5t22.5 45t9.5 58.5
q0 98 -68.5 162t-185.5 64q-116 0 -210.5 -65.5t-148.5 -176.5l-112 41q49 103 133.5 174t176.5 102t189 31q62 0 117.5 -13t104.5 -41t81 -72t46 -106t-1 -143l-75 -434q-21 -111 -27 -188.5t0 -163.5h-123q-8 50 -0.5 120t37.5 148h-25q-170 -303 -479 -303zM383 68
q91 0 177 39t146 98.5t99 125.5t49 124l31 178q-57 -53 -109 -72.5t-184 -44.5q-46 -9 -81 -17.5t-88.5 -24.5t-92.5 -37t-76.5 -49.5t-57.5 -68t-20 -86.5q0 -79 55.5 -122t151.5 -43z" />
    <glyph glyph-name="atilde" unicode="&#xe3;" horiz-adv-x="1171" 
d="M885 1333q-36 0 -65 13t-42.5 25t-40.5 40l-35 31q-1 1 -8 8.5t-8.5 8.5t-8.5 7.5t-10 8t-9 6.5t-10.5 6.5t-11 3.5t-13 3t-13.5 1q-48 0 -84.5 -41t-48.5 -106h-94q20 109 89.5 176t160.5 67q43 0 72.5 -17t62.5 -50l37 -37q52 -57 102 -57q46 0 81 41.5t46 105.5h96
q-21 -111 -86 -177.5t-159 -66.5zM348 -35q-137 0 -222 61.5t-85 186.5q0 80 37 145.5t104 112.5t150.5 79t185.5 52q28 6 77 15t75.5 14t66 15t61.5 19.5t48.5 25.5t39.5 34.5t22.5 45t9.5 58.5q0 98 -68.5 162t-185.5 64q-116 0 -210.5 -65.5t-148.5 -176.5l-112 41
q49 103 133.5 174t176.5 102t189 31q62 0 117.5 -13t104.5 -41t81 -72t46 -106t-1 -143l-75 -434q-21 -111 -27 -188.5t0 -163.5h-123q-8 50 -0.5 120t37.5 148h-25q-170 -303 -479 -303zM383 68q91 0 177 39t146 98.5t99 125.5t49 124l31 178q-57 -53 -109 -72.5
t-184 -44.5q-46 -9 -81 -17.5t-88.5 -24.5t-92.5 -37t-76.5 -49.5t-57.5 -68t-20 -86.5q0 -79 55.5 -122t151.5 -43z" />
    <glyph glyph-name="adieresis" unicode="&#xe4;" horiz-adv-x="1171" 
d="M565 1376q-37 0 -60.5 24.5t-23.5 61.5q0 46 36.5 81.5t82.5 35.5q37 0 60.5 -23.5t23.5 -56.5q0 -48 -36 -85.5t-83 -37.5zM915 1376q-38 0 -61 24t-23 60q0 47 36 83t83 36q36 0 60 -24t24 -58q0 -46 -36.5 -83.5t-82.5 -37.5zM348 -35q-137 0 -222 61.5t-85 186.5
q0 80 37 145.5t104 112.5t150.5 79t185.5 52q28 6 77 15t75.5 14t66 15t61.5 19.5t48.5 25.5t39.5 34.5t22.5 45t9.5 58.5q0 98 -68.5 162t-185.5 64q-116 0 -210.5 -65.5t-148.5 -176.5l-112 41q49 103 133.5 174t176.5 102t189 31q62 0 117.5 -13t104.5 -41t81 -72
t46 -106t-1 -143l-75 -434q-21 -111 -27 -188.5t0 -163.5h-123q-8 50 -0.5 120t37.5 148h-25q-170 -303 -479 -303zM383 68q91 0 177 39t146 98.5t99 125.5t49 124l31 178q-57 -53 -109 -72.5t-184 -44.5q-46 -9 -81 -17.5t-88.5 -24.5t-92.5 -37t-76.5 -49.5t-57.5 -68
t-20 -86.5q0 -79 55.5 -122t151.5 -43z" />
    <glyph glyph-name="aring" unicode="&#xe5;" horiz-adv-x="1171" 
d="M717 1247q-85 0 -137 49t-52 129q0 102 79 178t188 76q83 0 134.5 -49t51.5 -129q0 -101 -77.5 -177.5t-186.5 -76.5zM731 1333q68 0 115 46t47 112q0 46 -32.5 74t-82.5 28q-67 0 -114.5 -45t-47.5 -110q0 -49 31.5 -77t83.5 -28zM348 -35q-137 0 -222 61.5t-85 186.5
q0 80 37 145.5t104 112.5t150.5 79t185.5 52q28 6 77 15t75.5 14t66 15t61.5 19.5t48.5 25.5t39.5 34.5t22.5 45t9.5 58.5q0 98 -68.5 162t-185.5 64q-116 0 -210.5 -65.5t-148.5 -176.5l-112 41q49 103 133.5 174t176.5 102t189 31q62 0 117.5 -13t104.5 -41t81 -72
t46 -106t-1 -143l-75 -434q-21 -111 -27 -188.5t0 -163.5h-123q-8 50 -0.5 120t37.5 148h-25q-170 -303 -479 -303zM383 68q91 0 177 39t146 98.5t99 125.5t49 124l31 178q-57 -53 -109 -72.5t-184 -44.5q-46 -9 -81 -17.5t-88.5 -24.5t-92.5 -37t-76.5 -49.5t-57.5 -68
t-20 -86.5q0 -79 55.5 -122t151.5 -43z" />
    <glyph glyph-name="ae" unicode="&#xe6;" horiz-adv-x="2041" 
d="M342 -35q-139 0 -221 62t-82 184q0 66 25.5 122.5t69 98.5t105.5 76t130.5 56.5t148.5 37.5q23 4 60 10.5t60 11t55.5 11.5t53.5 13t47 15.5t42 20t33.5 25.5t27 32.5t15.5 40t6 49.5q0 101 -72.5 162.5t-183.5 61.5q-114 0 -208.5 -66t-148.5 -176l-112 41
q49 102 133 173t176 102.5t188 31.5q62 0 117.5 -14t105 -44t82 -83t39.5 -125q95 132 224 199t276 67q41 0 80 -5.5t82.5 -18t80 -33.5t72 -52t58.5 -73.5t39 -98t15 -125t-15 -155.5l-9 -49h-938q-35 -212 63 -343.5t284 -131.5q147 0 268.5 83.5t197.5 215.5l105 -39
q-96 -176 -254 -273.5t-340 -97.5q-175 0 -290.5 89t-129.5 265h-22q-77 -159 -220.5 -256.5t-318.5 -97.5zM1024 653h801q15 89 1.5 156.5t-42.5 113.5t-75 75t-95.5 42t-104.5 13q-164 0 -295 -108.5t-190 -291.5zM383 66q86 0 171 39t146.5 98.5t102.5 126.5t51 125
l31 178q-53 -49 -115.5 -73t-171.5 -42q-28 -4 -55.5 -9t-71.5 -16.5t-82 -25.5t-79 -36.5t-70 -49t-47.5 -63.5t-18.5 -80q0 -82 57.5 -127t151.5 -45z" />
    <glyph glyph-name="ccedilla" unicode="&#xe7;" horiz-adv-x="1236" 
d="M575 78q149 0 270 82.5t199 218.5l105 -37q-95 -179 -248 -275t-330 -102q-71 -79 -129 -125l9 -8q58 25 102 25q71 0 113.5 -37.5t42.5 -98.5q0 -85 -75 -147.5t-183 -62.5q-69 0 -132.5 29.5t-99.5 80.5l64 53q26 -41 74 -65.5t100 -24.5q67 0 113 36t46 87
q0 38 -30 61t-78 23q-56 0 -102 -24l-44 49l123 153q-187 19 -294 144t-107 327q0 138 51.5 269t139.5 231t215 160.5t270 60.5q74 0 140 -17t125 -52.5t102 -99t61 -148.5l-127 -45q-23 119 -109 184.5t-215 65.5q-110 0 -208.5 -50.5t-166 -133t-106.5 -189t-39 -217.5
q0 -177 96 -279t262 -102z" />
    <glyph glyph-name="egrave" unicode="&#xe8;" horiz-adv-x="1261" 
d="M821 1278h-108l-242 393h172zM543 -35q-210 0 -334.5 127.5t-124.5 347.5q0 185 86.5 350t242 268t341.5 103q40 0 79 -5t82 -17.5t79 -33.5t71 -52t58 -73t39.5 -98t15.5 -126t-13 -156l-8 -51h-936q-34 -211 62 -342t284 -131q148 0 267.5 83t195.5 216l107 -39
q-94 -176 -252.5 -273.5t-341.5 -97.5zM246 651h798q16 89 3 156.5t-42 114t-75 76t-96 42.5t-105 13q-165 0 -296 -110.5t-187 -291.5z" />
    <glyph glyph-name="eacute" unicode="&#xe9;" horiz-adv-x="1261" 
d="M1190 1671l-381 -393h-109l316 393h174zM543 -35q-210 0 -334.5 127.5t-124.5 347.5q0 185 86.5 350t242 268t341.5 103q40 0 79 -5t82 -17.5t79 -33.5t71 -52t58 -73t39.5 -98t15.5 -126t-13 -156l-8 -51h-936q-34 -211 62 -342t284 -131q148 0 267.5 83t195.5 216
l107 -39q-94 -176 -252.5 -273.5t-341.5 -97.5zM246 651h798q16 89 3 156.5t-42 114t-75 76t-96 42.5t-105 13q-165 0 -296 -110.5t-187 -291.5z" />
    <glyph glyph-name="ecircumflex" unicode="&#xea;" horiz-adv-x="1261" 
d="M498 1278h-117l360 356h168l234 -356h-117q-44 53 -72.5 90t-62 90t-53.5 103h-47q-101 -132 -293 -283zM543 -35q-210 0 -334.5 127.5t-124.5 347.5q0 185 86.5 350t242 268t341.5 103q40 0 79 -5t82 -17.5t79 -33.5t71 -52t58 -73t39.5 -98t15.5 -126t-13 -156l-8 -51
h-936q-34 -211 62 -342t284 -131q148 0 267.5 83t195.5 216l107 -39q-94 -176 -252.5 -273.5t-341.5 -97.5zM246 651h798q16 89 3 156.5t-42 114t-75 76t-96 42.5t-105 13q-165 0 -296 -110.5t-187 -291.5z" />
    <glyph glyph-name="edieresis" unicode="&#xeb;" horiz-adv-x="1261" 
d="M604 1376q-37 0 -60.5 24.5t-23.5 61.5q0 46 36.5 81.5t82.5 35.5q37 0 60.5 -23.5t23.5 -56.5q0 -48 -36 -85.5t-83 -37.5zM954 1376q-38 0 -61 24t-23 60q0 47 36 83t83 36q36 0 60 -24t24 -58q0 -46 -36.5 -83.5t-82.5 -37.5zM543 -35q-210 0 -334.5 127.5
t-124.5 347.5q0 185 86.5 350t242 268t341.5 103q40 0 79 -5t82 -17.5t79 -33.5t71 -52t58 -73t39.5 -98t15.5 -126t-13 -156l-8 -51h-936q-34 -211 62 -342t284 -131q148 0 267.5 83t195.5 216l107 -39q-94 -176 -252.5 -273.5t-341.5 -97.5zM246 651h798q16 89 3 156.5
t-42 114t-75 76t-96 42.5t-105 13q-165 0 -296 -110.5t-187 -291.5z" />
    <glyph glyph-name="igrave" unicode="&#xec;" horiz-adv-x="495" 
d="M434 1276h-108l-242 393h172zM211 0h-123l199 1128h123z" />
    <glyph glyph-name="iacute" unicode="&#xed;" horiz-adv-x="495" 
d="M803 1669l-381 -393h-109l316 393h174zM211 0h-123l199 1128h123z" />
    <glyph glyph-name="icircumflex" unicode="&#xee;" horiz-adv-x="495" 
d="M109 1276h-117l360 356h168l234 -356h-117q-44 53 -72.5 90t-62 90t-53.5 103h-48q-103 -134 -292 -283zM211 0h-123l199 1128h123z" />
    <glyph glyph-name="idieresis" unicode="&#xef;" horiz-adv-x="495" 
d="M217 1374q-37 0 -60.5 24.5t-23.5 61.5q0 46 36.5 81.5t82.5 35.5q37 0 60.5 -23.5t23.5 -56.5q0 -48 -36 -85.5t-83 -37.5zM567 1374q-38 0 -61 24t-23 60q0 47 36 83t83 36q36 0 60 -24t24 -58q0 -46 -36.5 -83.5t-82.5 -37.5zM211 0h-123l199 1128h123z" />
    <glyph glyph-name="eth" unicode="&#xf0;" horiz-adv-x="1316" 
d="M1200 1575l-223 -117q264 -225 264 -606q0 -170 -49 -329t-136.5 -283.5t-220.5 -199.5t-290 -75q-212 0 -339.5 128.5t-127.5 336.5q0 130 52.5 254.5t139.5 218.5t209 151.5t254 57.5q130 0 220.5 -62t160.5 -202h23q-28 183 -96.5 314.5t-190.5 230.5l-338 -176
l-29 73l293 154q-127 80 -276 133l51 106q221 -74 356 -172l260 138zM561 76q140 0 259 79.5t186 207.5t67 272q0 170 -96 269.5t-252 99.5q-137 0 -256 -78.5t-187.5 -206.5t-68.5 -270q0 -164 93 -268.5t255 -104.5z" />
    <glyph glyph-name="ntilde" unicode="&#xf1;" horiz-adv-x="1294" 
d="M932 1333q-36 0 -65 13t-42.5 25t-40.5 40l-34 31q-19 19 -27 26.5t-27 17t-39 9.5q-48 0 -84.5 -41t-48.5 -106h-94q20 109 89.5 176t160.5 67q43 0 72.5 -17t62.5 -50l37 -37q52 -57 102 -57q46 0 81 41.5t46 105.5h97q-21 -110 -86.5 -177t-159.5 -67zM211 0h-123
l199 1128h119q-26 -150 -72 -245h22q183 278 463 278q65 0 120 -14.5t104 -47t77.5 -85t40.5 -129t-8 -178.5l-125 -707h-125l117 653q16 111 5 186.5t-51.5 122t-91.5 67t-116 20.5q-87 0 -165.5 -36.5t-134 -96t-93.5 -132.5t-51 -149z" />
    <glyph glyph-name="ograve" unicode="&#xf2;" horiz-adv-x="1314" 
d="M844 1278h-109l-241 393h172zM553 -35q-218 0 -343.5 129t-125.5 350q0 136 51.5 266t140 229.5t216.5 160.5t272 61q216 0 342.5 -129t126.5 -350q0 -136 -51.5 -266t-140 -229.5t-216.5 -160.5t-272 -61zM571 78q112 0 212 50t168.5 132.5t108.5 189t40 218.5
q0 174 -95.5 277.5t-259.5 103.5q-148 0 -271 -85.5t-190 -220t-67 -284.5q0 -175 95 -278t259 -103z" />
    <glyph glyph-name="oacute" unicode="&#xf3;" horiz-adv-x="1314" 
d="M1212 1671l-381 -393h-108l315 393h174zM553 -35q-218 0 -343.5 129t-125.5 350q0 136 51.5 266t140 229.5t216.5 160.5t272 61q216 0 342.5 -129t126.5 -350q0 -136 -51.5 -266t-140 -229.5t-216.5 -160.5t-272 -61zM571 78q112 0 212 50t168.5 132.5t108.5 189
t40 218.5q0 174 -95.5 277.5t-259.5 103.5q-148 0 -271 -85.5t-190 -220t-67 -284.5q0 -175 95 -278t259 -103z" />
    <glyph glyph-name="ocircumflex" unicode="&#xf4;" horiz-adv-x="1314" 
d="M518 1278h-117l361 356h168l233 -356h-116q-45 54 -73 90t-62 89.5t-54 103.5h-47q-101 -132 -293 -283zM553 -35q-218 0 -343.5 129t-125.5 350q0 136 51.5 266t140 229.5t216.5 160.5t272 61q216 0 342.5 -129t126.5 -350q0 -136 -51.5 -266t-140 -229.5t-216.5 -160.5
t-272 -61zM571 78q112 0 212 50t168.5 132.5t108.5 189t40 218.5q0 174 -95.5 277.5t-259.5 103.5q-148 0 -271 -85.5t-190 -220t-67 -284.5q0 -175 95 -278t259 -103z" />
    <glyph glyph-name="otilde" unicode="&#xf5;" horiz-adv-x="1314" 
d="M946 1333q-36 0 -65 13t-42 24.5t-40 40.5l-35 31q-1 1 -8 8.5t-8.5 8.5t-8.5 7.5t-10 8t-9 6.5t-10.5 6.5t-11 3.5t-13 3t-13.5 1q-48 0 -84.5 -41t-48.5 -106h-95q20 109 89.5 176t160.5 67q43 0 72.5 -17t62.5 -50l37 -37q52 -57 103 -57q46 0 81 41.5t46 105.5h96
q-21 -110 -86.5 -177t-159.5 -67zM553 -35q-218 0 -343.5 129t-125.5 350q0 136 51.5 266t140 229.5t216.5 160.5t272 61q216 0 342.5 -129t126.5 -350q0 -136 -51.5 -266t-140 -229.5t-216.5 -160.5t-272 -61zM571 78q112 0 212 50t168.5 132.5t108.5 189t40 218.5
q0 174 -95.5 277.5t-259.5 103.5q-148 0 -271 -85.5t-190 -220t-67 -284.5q0 -175 95 -278t259 -103z" />
    <glyph glyph-name="odieresis" unicode="&#xf6;" horiz-adv-x="1314" 
d="M627 1376q-37 0 -60.5 24.5t-23.5 61.5q0 46 36.5 81.5t82.5 35.5q37 0 60 -23.5t23 -56.5q0 -48 -35.5 -85.5t-82.5 -37.5zM977 1376q-38 0 -61 24t-23 60q0 47 36 83t83 36q36 0 60 -24t24 -58q0 -46 -36.5 -83.5t-82.5 -37.5zM553 -35q-218 0 -343.5 129t-125.5 350
q0 136 51.5 266t140 229.5t216.5 160.5t272 61q216 0 342.5 -129t126.5 -350q0 -136 -51.5 -266t-140 -229.5t-216.5 -160.5t-272 -61zM571 78q112 0 212 50t168.5 132.5t108.5 189t40 218.5q0 174 -95.5 277.5t-259.5 103.5q-148 0 -271 -85.5t-190 -220t-67 -284.5
q0 -175 95 -278t259 -103z" />
    <glyph glyph-name="divide" unicode="&#xf7;" horiz-adv-x="1028" 
d="M565 823q-37 0 -61.5 25.5t-24.5 62.5q0 46 37 82.5t86 36.5q37 0 61.5 -24.5t24.5 -59.5q0 -46 -38 -84.5t-85 -38.5zM879 569h-727l20 113h727zM459 219q-38 0 -62 24t-24 60q0 49 37.5 86t85.5 37q37 0 61.5 -24.5t24.5 -59.5q0 -47 -38 -85t-85 -38z" />
    <glyph glyph-name="oslash" unicode="&#xf8;" horiz-adv-x="1314" 
d="M1167 1182h123l-162 -176q105 -124 105 -324q0 -136 -51.5 -266t-140 -229.5t-216.5 -160.5t-272 -61q-178 0 -295 88l-100 -108h-129l159 174q-104 125 -104 325q0 136 51.5 266t140 229.5t216.5 160.5t272 61q180 0 299 -92zM217 459q0 -142 64 -240l694 754
q-92 76 -230 76q-148 0 -271 -85.5t-190 -220t-67 -284.5zM1100 668q0 139 -64 237l-690 -755q87 -72 225 -72q112 0 212 50t168.5 132.5t108.5 189t40 218.5z" />
    <glyph glyph-name="ugrave" unicode="&#xf9;" horiz-adv-x="1275" 
d="M805 1278h-109l-241 393h172zM471 -35q-62 0 -115.5 14.5t-102 47t-77 85t-41 129t7.5 179.5l127 708h123l-117 -657q-18 -91 -9 -158t30 -112t58.5 -72.5t77.5 -39t87 -11.5q85 0 161.5 37t130.5 97t90.5 131.5t49.5 143.5l113 641h123l-137 -776q-38 -215 -25 -352
h-125q-7 58 0 122.5t35 139.5h-23q-168 -297 -442 -297z" />
    <glyph glyph-name="uacute" unicode="&#xfa;" horiz-adv-x="1275" 
d="M1171 1671l-380 -393h-109l315 393h174zM471 -35q-62 0 -115.5 14.5t-102 47t-77 85t-41 129t7.5 179.5l127 708h123l-117 -657q-18 -91 -9 -158t30 -112t58.5 -72.5t77.5 -39t87 -11.5q85 0 161.5 37t130.5 97t90.5 131.5t49.5 143.5l113 641h123l-137 -776
q-38 -215 -25 -352h-125q-7 58 0 122.5t35 139.5h-23q-168 -297 -442 -297z" />
    <glyph glyph-name="ucircumflex" unicode="&#xfb;" horiz-adv-x="1275" 
d="M479 1278h-117l361 356h168l233 -356h-116q-45 54 -73 90t-62 89.5t-54 103.5h-47q-101 -132 -293 -283zM471 -35q-62 0 -115.5 14.5t-102 47t-77 85t-41 129t7.5 179.5l127 708h123l-117 -657q-18 -91 -9 -158t30 -112t58.5 -72.5t77.5 -39t87 -11.5q85 0 161.5 37
t130.5 97t90.5 131.5t49.5 143.5l113 641h123l-137 -776q-38 -215 -25 -352h-125q-7 58 0 122.5t35 139.5h-23q-168 -297 -442 -297z" />
    <glyph glyph-name="udieresis" unicode="&#xfc;" horiz-adv-x="1275" 
d="M586 1376q-37 0 -60.5 24.5t-23.5 61.5q0 46 36.5 81.5t82.5 35.5q37 0 60.5 -23.5t23.5 -56.5q0 -48 -36 -85.5t-83 -37.5zM936 1376q-38 0 -61 24t-23 60q0 47 36 83t83 36q36 0 60 -24t24 -58q0 -46 -36.5 -83.5t-82.5 -37.5zM471 -35q-62 0 -115.5 14.5t-102 47
t-77 85t-41 129t7.5 179.5l127 708h123l-117 -657q-18 -91 -9 -158t30 -112t58.5 -72.5t77.5 -39t87 -11.5q85 0 161.5 37t130.5 97t90.5 131.5t49.5 143.5l113 641h123l-137 -776q-38 -215 -25 -352h-125q-7 58 0 122.5t35 139.5h-23q-168 -297 -442 -297z" />
    <glyph glyph-name="yacute" unicode="&#xfd;" horiz-adv-x="1101" 
d="M1094 1671l-381 -393h-109l316 393h174zM254 -451h-113l250 439l-258 1140h133q124 -536 195 -1026h22q248 497 553 1026h133z" />
    <glyph glyph-name="thorn" unicode="&#xfe;" horiz-adv-x="1366" 
d="M131 -451h-123l369 2089h123q-6 -35 -30 -169t-37 -203.5t-38 -186.5t-51 -217h23q96 152 223 225.5t266 73.5q194 0 312 -128.5t118 -344.5q0 -138 -51 -270t-137 -231.5t-206 -160.5t-249 -61q-139 0 -241 73t-142 216h-22q-7 -71 -16 -143t-21.5 -151t-21 -132
t-25 -146.5t-23.5 -132.5zM645 78q136 0 253.5 84t185 220t67.5 286q0 172 -91 276.5t-243 104.5q-137 0 -257.5 -83.5t-190.5 -218.5t-70 -284q0 -173 97 -279t249 -106z" />
    <glyph glyph-name="ydieresis" unicode="&#xff;" horiz-adv-x="1101" 
d="M508 1376q-37 0 -60.5 24.5t-23.5 61.5q0 46 36.5 81.5t82.5 35.5q37 0 60.5 -23.5t23.5 -56.5q0 -48 -36 -85.5t-83 -37.5zM858 1376q-38 0 -61 24t-23 60q0 47 36 83t83 36q36 0 60 -24t24 -58q0 -46 -36.5 -83.5t-82.5 -37.5zM254 -451h-113l250 439l-258 1140h133
q124 -536 195 -1026h22q248 497 553 1026h133z" />
    <glyph glyph-name="Amacron" unicode="&#x100;" horiz-adv-x="1503" 
d="M1309 1835h-664l21 107h661zM70 0h-140l936 1597h140l368 -1597h-139q-31 134 -44 192.5t-34 175t-29 210.5l-16 18q-231 -25 -350 -25q-150 0 -352 25l-23 -21q-113 -224 -317 -575zM451 688l12 -20q194 24 325 24q133 0 287 -24l15 18q-119 439 -156 778h-45
q-191 -393 -438 -776z" />
    <glyph glyph-name="amacron" unicode="&#x101;" horiz-adv-x="1171" 
d="M1092 1421h-689l21 105h688zM348 -35q-137 0 -222 61.5t-85 186.5q0 80 37 145.5t104 112.5t150.5 79t185.5 52q28 6 77 15t75.5 14t66 15t61.5 19.5t48.5 25.5t39.5 34.5t22.5 45t9.5 58.5q0 98 -68.5 162t-185.5 64q-116 0 -210.5 -65.5t-148.5 -176.5l-112 41
q49 103 133.5 174t176.5 102t189 31q62 0 117.5 -13t104.5 -41t81 -72t46 -106t-1 -143l-75 -434q-21 -111 -27 -188.5t0 -163.5h-123q-8 50 -0.5 120t37.5 148h-25q-170 -303 -479 -303zM383 68q91 0 177 39t146 98.5t99 125.5t49 124l31 178q-57 -53 -109 -72.5
t-184 -44.5q-46 -9 -81 -17.5t-88.5 -24.5t-92.5 -37t-76.5 -49.5t-57.5 -68t-20 -86.5q0 -79 55.5 -122t151.5 -43z" />
    <glyph glyph-name="Abreve" unicode="&#x102;" horiz-adv-x="1503" 
d="M956 1726q-83 0 -149 29t-104 76t-55.5 103.5t-10.5 113.5h115q-9 -85 53.5 -151t167.5 -66q106 0 193 65.5t110 151.5h113q-13 -57 -50 -113.5t-91.5 -103.5t-131 -76t-160.5 -29zM70 0h-140l936 1597h140l368 -1597h-139q-31 134 -44 192.5t-34 175t-29 210.5l-16 18
q-231 -25 -350 -25q-150 0 -352 25l-23 -21q-113 -224 -317 -575zM451 688l12 -20q194 24 325 24q133 0 287 -24l15 18q-119 439 -156 778h-45q-191 -393 -438 -776z" />
    <glyph glyph-name="abreve" unicode="&#x103;" horiz-adv-x="1171" 
d="M723 1276q-171 0 -250 110.5t-55 284.5h112q-20 -133 39.5 -212t171.5 -79t198.5 79t115.5 212h112q-38 -174 -157.5 -284.5t-286.5 -110.5zM348 -35q-137 0 -222 61.5t-85 186.5q0 80 37 145.5t104 112.5t150.5 79t185.5 52q28 6 77 15t75.5 14t66 15t61.5 19.5
t48.5 25.5t39.5 34.5t22.5 45t9.5 58.5q0 98 -68.5 162t-185.5 64q-116 0 -210.5 -65.5t-148.5 -176.5l-112 41q49 103 133.5 174t176.5 102t189 31q62 0 117.5 -13t104.5 -41t81 -72t46 -106t-1 -143l-75 -434q-21 -111 -27 -188.5t0 -163.5h-123q-8 50 -0.5 120t37.5 148
h-25q-170 -303 -479 -303zM383 68q91 0 177 39t146 98.5t99 125.5t49 124l31 178q-57 -53 -109 -72.5t-184 -44.5q-46 -9 -81 -17.5t-88.5 -24.5t-92.5 -37t-76.5 -49.5t-57.5 -68t-20 -86.5q0 -79 55.5 -122t151.5 -43z" />
    <glyph glyph-name="Aogonek" unicode="&#x104;" horiz-adv-x="1503" 
d="M1294 -373q38 0 92 15l-18 -91q-57 -14 -100 -14q-103 0 -167.5 50.5t-64.5 140.5q0 49 19 93t51.5 77.5t64.5 57.5t70 44h-6q-31 134 -44 192.5t-34 175t-29 210.5l-16 18q-231 -25 -350 -25q-150 0 -352 25l-23 -21q-113 -224 -317 -575h-140l936 1597h140l368 -1597
h-18q-89 -40 -153 -101.5t-64 -140.5q0 -60 43 -95.5t112 -35.5zM1075 668l15 18q-119 439 -156 778h-45q-191 -393 -438 -776l12 -20q194 24 325 24q133 0 287 -24z" />
    <glyph glyph-name="aogonek" unicode="&#x105;" horiz-adv-x="1171" 
d="M692 1161q62 0 117.5 -13t104.5 -41t81 -72t46 -106t-1 -143l-75 -434q-21 -111 -27 -188.5t0 -163.5h-14q-91 -41 -152 -103t-61 -141q0 -59 42 -93t109 -34q38 0 92 15l-18 -93q-55 -14 -98 -14q-104 0 -168 51.5t-64 141.5q0 160 209 270q-8 50 -0.5 120t37.5 148h-25
q-170 -303 -479 -303q-137 0 -222 61.5t-85 186.5q0 80 37 145.5t104 112.5t150.5 79t185.5 52q28 6 77 15t75.5 14t66 15t61.5 19.5t48.5 25.5t39.5 34.5t22.5 45t9.5 58.5q0 98 -68.5 162t-185.5 64q-116 0 -210.5 -65.5t-148.5 -176.5l-112 41q49 103 133.5 174
t176.5 102t189 31zM383 68q91 0 177 39t146 98.5t99 125.5t49 124l31 178q-57 -53 -109 -72.5t-184 -44.5q-46 -9 -81 -17.5t-88.5 -24.5t-92.5 -37t-76.5 -49.5t-57.5 -68t-20 -86.5q0 -79 55.5 -122t151.5 -43z" />
    <glyph glyph-name="Cacute" unicode="&#x106;" horiz-adv-x="1720" 
d="M1501 2042l-395 -322h-115l320 322h190zM811 -35q-310 0 -493 180.5t-183 485.5q0 191 76 373.5t203.5 320t306.5 221.5t373 84q112 0 214 -28.5t187 -83.5t143 -145.5t76 -205.5l-127 -49q-39 185 -179.5 287t-336.5 102q-164 0 -313 -73.5t-253.5 -193t-166.5 -275.5
t-62 -318q0 -139 46.5 -248t126.5 -176t181.5 -101t217.5 -34q101 0 195.5 26.5t170.5 72t142 109t115 134.5t85 150l111 -43q-59 -121 -141 -222t-188 -181t-241 -124.5t-286 -44.5z" />
    <glyph glyph-name="cacute" unicode="&#x107;" horiz-adv-x="1236" 
d="M1176 1671l-381 -393h-109l315 393h175zM549 -35q-214 0 -339.5 128t-125.5 347q0 138 51.5 269t139.5 231t215 160.5t270 60.5q74 0 140 -17t125 -52.5t102 -99t61 -148.5l-127 -45q-23 119 -109 184.5t-215 65.5q-110 0 -208.5 -50.5t-166 -133t-106.5 -189t-39 -217.5
q0 -177 96 -279t262 -102q149 0 270 82.5t199 218.5l105 -37q-98 -185 -257.5 -281t-342.5 -96z" />
    <glyph glyph-name="Cdotaccent" unicode="&#x10a;" horiz-adv-x="1720" 
d="M1083 1788q-40 0 -65 25t-25 65q0 51 38.5 89t90.5 38q39 0 64.5 -25.5t25.5 -62.5q0 -51 -39.5 -90t-89.5 -39zM811 -35q-310 0 -493 180.5t-183 485.5q0 191 76 373.5t203.5 320t306.5 221.5t373 84q112 0 214 -28.5t187 -83.5t143 -145.5t76 -205.5l-127 -49
q-39 185 -179.5 287t-336.5 102q-164 0 -313 -73.5t-253.5 -193t-166.5 -275.5t-62 -318q0 -139 46.5 -248t126.5 -176t181.5 -101t217.5 -34q101 0 195.5 26.5t170.5 72t142 109t115 134.5t85 150l111 -43q-59 -121 -141 -222t-188 -181t-241 -124.5t-286 -44.5z" />
    <glyph glyph-name="cdotaccent" unicode="&#x10b;" horiz-adv-x="1236" 
d="M776 1425q-39 0 -64.5 26t-25.5 65q0 51 38.5 88.5t90.5 37.5q39 0 64.5 -25.5t25.5 -62.5q0 -50 -39 -89.5t-90 -39.5zM549 -35q-214 0 -339.5 128t-125.5 347q0 138 51.5 269t139.5 231t215 160.5t270 60.5q74 0 140 -17t125 -52.5t102 -99t61 -148.5l-127 -45
q-23 119 -109 184.5t-215 65.5q-110 0 -208.5 -50.5t-166 -133t-106.5 -189t-39 -217.5q0 -177 96 -279t262 -102q149 0 270 82.5t199 218.5l105 -37q-98 -185 -257.5 -281t-342.5 -96z" />
    <glyph glyph-name="Ccaron" unicode="&#x10c;" horiz-adv-x="1720" 
d="M1151 1720h-164l-213 303h115q85 -94 116 -142q31 -47 52 -99h47q19 26 41.5 51t39 42t44.5 42t39.5 35t45 37.5t40.5 33.5h116zM811 -35q-310 0 -493 180.5t-183 485.5q0 191 76 373.5t203.5 320t306.5 221.5t373 84q112 0 214 -28.5t187 -83.5t143 -145.5t76 -205.5
l-127 -49q-39 185 -179.5 287t-336.5 102q-164 0 -313 -73.5t-253.5 -193t-166.5 -275.5t-62 -318q0 -139 46.5 -248t126.5 -176t181.5 -101t217.5 -34q101 0 195.5 26.5t170.5 72t142 109t115 134.5t85 150l111 -43q-59 -121 -141 -222t-188 -181t-241 -124.5t-286 -44.5z
" />
    <glyph glyph-name="ccaron" unicode="&#x10d;" horiz-adv-x="1236" 
d="M831 1280h-167l-234 358h119q110 -139 149 -202q25 -40 45 -82h39q38 51 91 104.5t91.5 86.5t110.5 93h117zM549 -35q-214 0 -339.5 128t-125.5 347q0 138 51.5 269t139.5 231t215 160.5t270 60.5q74 0 140 -17t125 -52.5t102 -99t61 -148.5l-127 -45q-23 119 -109 184.5
t-215 65.5q-110 0 -208.5 -50.5t-166 -133t-106.5 -189t-39 -217.5q0 -177 96 -279t262 -102q149 0 270 82.5t199 218.5l105 -37q-98 -185 -257.5 -281t-342.5 -96z" />
    <glyph glyph-name="Dcaron" unicode="&#x10e;" horiz-adv-x="1650" 
d="M1053 1720h-164l-213 303h115q45 -50 64 -72.5t51 -71t52 -97.5h48q19 26 42 51.5t37.5 41t45 43t38.5 34t46 38t40 33.5h117zM698 0h-577l282 1597h560q165 0 288 -44t198 -126.5t111.5 -193t36.5 -250.5q0 -150 -41 -294.5t-120 -268.5t-186.5 -218.5t-250 -148
t-301.5 -53.5zM250 117l16 -21q172 23 455 23q165 0 305.5 70t233.5 185.5t145.5 265t52.5 308.5q0 260 -139 395.5t-404 135.5q-266 0 -401 22l-22 -18q-85 -701 -242 -1366z" />
    <glyph glyph-name="dcaron" unicode="&#x10f;" horiz-adv-x="1370" 
d="M1552 1188h-84q105 159 203 250q-88 16 -88 84q0 48 38.5 85.5t90.5 37.5q38 0 62 -24.5t24 -61.5q0 -40 -41.5 -102t-204.5 -269zM514 -35q-195 0 -312.5 128.5t-117.5 344.5q0 138 51 270t136.5 231.5t205.5 160.5t250 61q142 0 241.5 -76t137.5 -235h22
q32 297 121 788h123l-227 -1286q-23 -129 -28 -209.5t3 -142.5h-125q-5 74 1.5 133.5t35.5 145.5h-22q-93 -158 -223 -236t-273 -78zM551 78q137 0 258 84t191.5 219.5t70.5 284.5q0 174 -97.5 278.5t-250.5 104.5q-137 0 -254.5 -84.5t-184.5 -220.5t-67 -285
q0 -172 91 -276.5t243 -104.5z" />
    <glyph glyph-name="Dcroat" unicode="&#x110;" horiz-adv-x="1650" 
d="M403 1597h560q165 0 288 -44t198 -126.5t111.5 -193t36.5 -250.5q0 -150 -41 -294.5t-120 -268.5t-186.5 -218.5t-250 -148t-301.5 -53.5h-577l131 743h-168l18 109h170zM721 119q165 0 305.5 70t233.5 185.5t145.5 265t52.5 308.5q0 260 -139 395.5t-404 135.5
q-266 0 -401 22l-22 -18q-48 -372 -93 -631h555l-18 -109h-555q-62 -328 -131 -626l16 -21q172 23 455 23z" />
    <glyph glyph-name="dcroat" unicode="&#x111;" horiz-adv-x="1370" 
d="M1337 1440h265l-19 -105h-264l-174 -983q-23 -129 -28 -209.5t3 -142.5h-125q-5 74 1.5 133.5t35.5 145.5h-22q-93 -158 -223 -236t-273 -78q-195 0 -312.5 128.5t-117.5 344.5q0 138 51 270t136.5 231.5t205.5 160.5t250 61q142 0 241.5 -76t137.5 -235h22
q20 204 68 485h-291l17 105h292q4 29 10 62t13.5 73t11.5 63h123zM551 78q137 0 258 84t191.5 219.5t70.5 284.5q0 174 -97.5 278.5t-250.5 104.5q-137 0 -254.5 -84.5t-184.5 -220.5t-67 -285q0 -172 91 -276.5t243 -104.5z" />
    <glyph glyph-name="Emacron" unicode="&#x112;" horiz-adv-x="1345" 
d="M1247 1835h-663l20 107h662zM1143 0h-1022l282 1597h1002l-21 -118q-30 0 -200.5 -1t-237 0t-195.5 6.5t-237 16.5l-22 -18q-20 -289 -105 -604l12 -23q305 27 838 27l-20 -121q-547 0 -828 24l-22 -22q-27 -320 -117 -647l16 -21q324 29 899 29z" />
    <glyph glyph-name="emacron" unicode="&#x113;" horiz-adv-x="1261" 
d="M1130 1421h-688l21 105h688zM543 -35q-210 0 -334.5 127.5t-124.5 347.5q0 185 86.5 350t242 268t341.5 103q40 0 79 -5t82 -17.5t79 -33.5t71 -52t58 -73t39.5 -98t15.5 -126t-13 -156l-8 -51h-936q-34 -211 62 -342t284 -131q148 0 267.5 83t195.5 216l107 -39
q-94 -176 -252.5 -273.5t-341.5 -97.5zM246 651h798q16 89 3 156.5t-42 114t-75 76t-96 42.5t-105 13q-165 0 -296 -110.5t-187 -291.5z" />
    <glyph glyph-name="Edotaccent" unicode="&#x116;" horiz-adv-x="1345" 
d="M905 1788q-40 0 -65 25t-25 65q0 51 38.5 89t90.5 38q39 0 64.5 -25.5t25.5 -62.5q0 -51 -39.5 -90t-89.5 -39zM1143 0h-1022l282 1597h1002l-21 -118q-30 0 -200.5 -1t-237 0t-195.5 6.5t-237 16.5l-22 -18q-20 -289 -105 -604l12 -23q305 27 838 27l-20 -121
q-547 0 -828 24l-22 -22q-27 -320 -117 -647l16 -21q324 29 899 29z" />
    <glyph glyph-name="edotaccent" unicode="&#x117;" horiz-adv-x="1261" 
d="M788 1425q-39 0 -64.5 26t-25.5 65q0 51 38.5 88.5t90.5 37.5q39 0 65 -25.5t26 -62.5q0 -50 -39.5 -89.5t-90.5 -39.5zM543 -35q-210 0 -334.5 127.5t-124.5 347.5q0 185 86.5 350t242 268t341.5 103q40 0 79 -5t82 -17.5t79 -33.5t71 -52t58 -73t39.5 -98t15.5 -126
t-13 -156l-8 -51h-936q-34 -211 62 -342t284 -131q148 0 267.5 83t195.5 216l107 -39q-94 -176 -252.5 -273.5t-341.5 -97.5zM246 651h798q16 89 3 156.5t-42 114t-75 76t-96 42.5t-105 13q-165 0 -296 -110.5t-187 -291.5z" />
    <glyph glyph-name="Eogonek" unicode="&#x118;" horiz-adv-x="1345" 
d="M514 1501l-22 -18q-20 -289 -105 -604l12 -23q305 27 838 27l-20 -121q-547 0 -828 24l-22 -22q-27 -320 -117 -647l16 -21q324 29 899 29l-22 -125q-89 -40 -153 -101.5t-64 -140.5q0 -60 43 -95.5t112 -35.5q39 0 93 15l-19 -91q-57 -14 -100 -14q-103 0 -167.5 50.5
t-64.5 140.5q0 49 19 93t51.5 77.5t64.5 57.5t70 44h-907l282 1597h1002l-21 -118q-30 0 -200.5 -1t-237 0t-195.5 6.5t-237 16.5z" />
    <glyph glyph-name="eogonek" unicode="&#x119;" horiz-adv-x="1261" 
d="M754 1161q40 0 79 -5t82 -17.5t79 -33.5t71 -52t58 -73t39.5 -98t15.5 -126t-13 -156l-8 -51h-936q-34 -211 62 -342t284 -131q148 0 267.5 83t195.5 216l107 -39q-67 -126 -169 -212.5t-225 -125.5q-88 -41 -147 -102.5t-59 -139.5q0 -59 42 -93t109 -34q38 0 92 15
l-18 -93q-55 -14 -98 -14q-104 0 -168 51.5t-64 141.5q0 134 152 237q-12 -2 -41 -2q-210 0 -334.5 127.5t-124.5 347.5q0 185 86.5 350t242 268t341.5 103zM246 651h798q16 89 3 156.5t-42 114t-75 76t-96 42.5t-105 13q-165 0 -296 -110.5t-187 -291.5z" />
    <glyph glyph-name="Ecaron" unicode="&#x11a;" horiz-adv-x="1345" 
d="M975 1720h-164l-213 303h115q85 -94 116 -142q31 -47 52 -99h47q19 26 41.5 51t39 42t44.5 42t39.5 35t45 37.5t40.5 33.5h116zM1143 0h-1022l282 1597h1002l-21 -118q-30 0 -200.5 -1t-237 0t-195.5 6.5t-237 16.5l-22 -18q-20 -289 -105 -604l12 -23q305 27 838 27
l-20 -121q-547 0 -828 24l-22 -22q-27 -320 -117 -647l16 -21q324 29 899 29z" />
    <glyph glyph-name="ecaron" unicode="&#x11b;" horiz-adv-x="1261" 
d="M846 1280h-168l-234 358h119q5 -7 24.5 -31t25 -31.5t22.5 -29t24 -31.5t20.5 -29t21.5 -32t19 -30.5t20 -34.5t18 -35h39q38 51 91 104.5t91.5 86.5t110.5 93h116zM543 -35q-210 0 -334.5 127.5t-124.5 347.5q0 185 86.5 350t242 268t341.5 103q40 0 79 -5t82 -17.5
t79 -33.5t71 -52t58 -73t39.5 -98t15.5 -126t-13 -156l-8 -51h-936q-34 -211 62 -342t284 -131q148 0 267.5 83t195.5 216l107 -39q-94 -176 -252.5 -273.5t-341.5 -97.5zM246 651h798q16 89 3 156.5t-42 114t-75 76t-96 42.5t-105 13q-165 0 -296 -110.5t-187 -291.5z" />
    <glyph glyph-name="Gbreve" unicode="&#x11e;" horiz-adv-x="1796" 
d="M1071 1726q-83 0 -149 29t-104 76t-55.5 103.5t-10.5 113.5h114q-9 -85 53.5 -151t167.5 -66q106 0 193.5 66t110.5 151h112q-13 -57 -50 -113.5t-91 -103.5t-130.5 -76t-160.5 -29zM799 -35q-143 0 -264 43.5t-211 125.5t-140.5 208t-50.5 283q0 194 76 378t203.5 321.5
t306 221.5t373.5 84q90 0 173.5 -17.5t159 -55t134 -91t99 -130.5t54.5 -169l-127 -49q-39 185 -179 287t-337 102q-163 0 -312 -73t-253.5 -192.5t-167 -276t-62.5 -318.5q0 -139 46.5 -248.5t126 -176t178.5 -100.5t211 -34q256 0 455.5 164.5t289.5 433.5l-10 16
q-319 -40 -594 -40l18 114h701l-137 -776h-111q4 23 17 109t27 153t36 133l-23 2q-118 -210 -297.5 -321t-408.5 -111z" />
    <glyph glyph-name="gbreve" unicode="&#x11f;" horiz-adv-x="1368" 
d="M786 1276q-171 0 -250 110.5t-55 284.5h113q-20 -133 39.5 -212t171.5 -79t198 79t115 212h113q-38 -174 -158 -284.5t-287 -110.5zM473 -483q-380 0 -442 331l119 37q22 -124 108.5 -192t237.5 -68q390 0 485 492q2 9 6 33.5t6.5 33.5t7 27.5t11 35.5t16.5 38h-22
q-91 -137 -219 -211t-265 -74q-191 0 -312.5 125.5t-121.5 341.5q0 138 54 267.5t141.5 222t202 148.5t231.5 56q146 0 247 -83t140 -228h22q6 109 37 278h119l-174 -985q-111 -626 -635 -626zM557 113q134 0 254 81t191 212t71 272q0 167 -98.5 269t-251.5 102
q-133 0 -250 -80t-184.5 -209t-67.5 -271q0 -167 92.5 -271.5t243.5 -104.5z" />
    <glyph glyph-name="Gdotaccent" unicode="&#x120;" horiz-adv-x="1796" 
d="M1081 1788q-40 0 -65 25t-25 65q0 51 38.5 89t90.5 38q39 0 64.5 -25.5t25.5 -62.5q0 -51 -39.5 -90t-89.5 -39zM799 -35q-143 0 -264 43.5t-211 125.5t-140.5 208t-50.5 283q0 194 76 378t203.5 321.5t306 221.5t373.5 84q90 0 173.5 -17.5t159 -55t134 -91t99 -130.5
t54.5 -169l-127 -49q-39 185 -179 287t-337 102q-163 0 -312 -73t-253.5 -192.5t-167 -276t-62.5 -318.5q0 -139 46.5 -248.5t126 -176t178.5 -100.5t211 -34q256 0 455.5 164.5t289.5 433.5l-10 16q-319 -40 -594 -40l18 114h701l-137 -776h-111q4 23 17 109t27 153t36 133
l-23 2q-118 -210 -297.5 -321t-408.5 -111z" />
    <glyph glyph-name="gdotaccent" unicode="&#x121;" horiz-adv-x="1368" 
d="M813 1425q-39 0 -64.5 26t-25.5 65q0 51 38.5 88.5t90.5 37.5q39 0 64.5 -25.5t25.5 -62.5q0 -50 -39 -89.5t-90 -39.5zM473 -483q-380 0 -442 331l119 37q22 -124 108.5 -192t237.5 -68q390 0 485 492q2 9 6 33.5t6.5 33.5t7 27.5t11 35.5t16.5 38h-22
q-91 -137 -219 -211t-265 -74q-191 0 -312.5 125.5t-121.5 341.5q0 138 54 267.5t141.5 222t202 148.5t231.5 56q146 0 247 -83t140 -228h22q6 109 37 278h119l-174 -985q-111 -626 -635 -626zM557 113q134 0 254 81t191 212t71 272q0 167 -98.5 269t-251.5 102
q-133 0 -250 -80t-184.5 -209t-67.5 -271q0 -167 92.5 -271.5t243.5 -104.5z" />
    <glyph glyph-name="uni0122" unicode="&#x122;" horiz-adv-x="1796" 
d="M799 -35q-143 0 -264 43.5t-211 125.5t-140.5 208t-50.5 283q0 194 76 378t203.5 321.5t306 221.5t373.5 84q90 0 173.5 -17.5t159 -55t134 -91t99 -130.5t54.5 -169l-127 -49q-39 185 -179 287t-337 102q-163 0 -312 -73t-253.5 -192.5t-167 -276t-62.5 -318.5
q0 -139 46.5 -248.5t126 -176t178.5 -100.5t211 -34q256 0 455.5 164.5t289.5 433.5l-10 16q-319 -40 -594 -40l18 114h701l-137 -776h-111q4 23 17 109t27 153t36 133l-23 2q-118 -210 -297.5 -321t-408.5 -111zM651 -508h-61q81 125 164 201q-105 0 -105 78
q0 45 36.5 78.5t84.5 33.5q38 0 63 -24t25 -60q0 -41 -37.5 -95t-169.5 -212z" />
    <glyph glyph-name="uni0123" unicode="&#x123;" horiz-adv-x="1368" 
d="M670 1335q0 42 38.5 99.5t198.5 263.5h82q-91 -143 -188 -268q40 4 59 -14t19 -50q0 -48 -34 -81.5t-85 -33.5q-39 0 -64.5 24t-25.5 60zM473 -483q-380 0 -442 331l119 37q22 -124 108.5 -192t237.5 -68q390 0 485 492q2 9 6 33.5t6.5 33.5t7 27.5t11 35.5t16.5 38h-22
q-91 -137 -219 -211t-265 -74q-191 0 -312.5 125.5t-121.5 341.5q0 138 54 267.5t141.5 222t202 148.5t231.5 56q146 0 247 -83t140 -228h22q6 109 37 278h119l-174 -985q-111 -626 -635 -626zM557 113q134 0 254 81t191 212t71 272q0 167 -98.5 269t-251.5 102
q-133 0 -250 -80t-184.5 -209t-67.5 -271q0 -167 92.5 -271.5t243.5 -104.5z" />
    <glyph glyph-name="Hbar" unicode="&#x126;" horiz-adv-x="1654" 
d="M1565 1280h135l-19 -104h-135l-209 -1176h-131q87 489 154 752l-17 22q-457 -54 -956 0l-22 -22q-23 -250 -113 -752h-131l209 1176h-140l19 104h139l55 317h132l-58 -317h957l55 317h131zM1356 848l24 22q14 139 37 306h-960q-52 -229 -72 -306l14 -22q517 37 957 0z
" />
    <glyph glyph-name="hbar" unicode="&#x127;" horiz-adv-x="1294" 
d="M817 1161q64 0 119 -14.5t104.5 -47t78.5 -85t41.5 -129t-7.5 -178.5l-125 -707h-125l117 653q16 111 5 186.5t-51 122t-90.5 67t-113.5 20.5q-116 0 -214.5 -62.5t-157 -155t-76.5 -196.5l-111 -635h-123l236 1333h-189l17 105h190l35 200h123q-14 -84 -39 -200h370
l-18 -105h-373q-47 -222 -106 -450h22q183 278 461 278z" />
    <glyph glyph-name="Imacron" unicode="&#x12a;" horiz-adv-x="571" 
d="M844 1835h-664l21 107h661zM252 0h-131l282 1597h132z" />
    <glyph glyph-name="imacron" unicode="&#x12b;" horiz-adv-x="495" 
d="M743 1419h-688l21 105h688zM211 0h-123l199 1128h123z" />
    <glyph glyph-name="Iogonek" unicode="&#x12e;" horiz-adv-x="571" 
d="M37 -242q0 -60 43.5 -95.5t112.5 -35.5q38 0 92 15l-19 -91q-57 -14 -100 -14q-103 0 -167.5 50.5t-64.5 140.5q0 49 19 93t51.5 77.5t64.5 57.5t70 44h-18l282 1597h132l-283 -1597h2q-89 -40 -153 -101.5t-64 -140.5z" />
    <glyph glyph-name="iogonek" unicode="&#x12f;" horiz-adv-x="495" 
d="M440 1640q39 0 64.5 -25.5t25.5 -62.5q0 -50 -39 -89.5t-90 -39.5q-39 0 -64.5 25.5t-25.5 64.5q0 51 38.5 89t90.5 38zM211 0h-4q-91 -41 -152 -103t-61 -141q0 -59 42 -93t109 -34q39 0 93 15l-19 -93q-55 -14 -98 -14q-104 0 -168 51.5t-64 141.5q0 160 209 270h-10
l199 1128h123z" />
    <glyph glyph-name="Idotaccent" unicode="&#x130;" horiz-adv-x="571" 
d="M502 1788q-40 0 -65 25t-25 65q0 51 38.5 89t90.5 38q39 0 64.5 -25.5t25.5 -62.5q0 -51 -39.5 -90t-89.5 -39zM252 0h-131l282 1597h132z" />
    <glyph glyph-name="dotlessi" unicode="&#x131;" horiz-adv-x="495" 
d="M211 0h-123l199 1128h123z" />
    <glyph glyph-name="uni0136" unicode="&#x136;" horiz-adv-x="1351" 
d="M252 0h-131l282 1597h132q-3 -17 -22.5 -125.5t-24 -134.5t-21.5 -116t-27 -133t-26 -117t-32.5 -136.5t-35.5 -127.5h23q336 315 981 890h157q-41 -36 -177.5 -158t-208.5 -185t-188.5 -163t-215.5 -180l-4 -24q225 -338 551 -887h-160q-305 496 -473 817h-21
q-128 -148 -268 -248q-26 -219 -90 -569zM492 -508h-62q81 125 164 201q-105 0 -105 78q0 45 36.5 78.5t84.5 33.5q38 0 63 -24t25 -60q0 -42 -38 -96t-168 -211z" />
    <glyph glyph-name="uni0137" unicode="&#x137;" horiz-adv-x="1050" 
d="M211 0h-123l289 1638h123q-5 -30 -24 -136t-25 -142t-23 -129t-25.5 -139t-24.5 -127.5t-28 -138.5t-27.5 -128.5t-31.5 -138.5h22q29 27 89.5 82.5t81 74.5t68 62.5t77.5 70t81.5 72t107 94.5t128.5 113h152l-520 -440q100 -160 397 -688h-141q-233 416 -338 614
q-109 -115 -230 -188q-9 -169 -55 -426zM326 -508h-62q81 125 164 201q-104 0 -104 78q0 45 36 78.5t84 33.5q38 0 63 -24t25 -60q0 -42 -38 -96t-168 -211z" />
    <glyph glyph-name="Lacute" unicode="&#x139;" horiz-adv-x="1204" 
d="M971 2042l-396 -322h-114l319 322h191zM1081 0h-960l282 1597h132q-166 -949 -285 -1480l16 -21q301 29 838 29z" />
    <glyph glyph-name="lacute" unicode="&#x13a;" horiz-adv-x="495" 
d="M928 2083l-396 -322h-114l319 322h191zM211 0h-123l289 1638h123z" />
    <glyph glyph-name="uni013B" unicode="&#x13b;" horiz-adv-x="1204" 
d="M1081 0h-960l282 1597h132q-166 -949 -285 -1480l16 -21q301 29 838 29zM410 -508h-62q81 125 164 201q-104 0 -104 78q0 45 36 78.5t84 33.5q38 0 63 -24t25 -60q0 -42 -38 -96t-168 -211z" />
    <glyph glyph-name="uni013C" unicode="&#x13c;" horiz-adv-x="495" 
d="M211 0h-123l289 1638h123zM14 -508h-61q81 125 164 201q-105 0 -105 78q0 45 36.5 78.5t84.5 33.5q38 0 63 -24t25 -60q0 -41 -37.5 -95t-169.5 -212z" />
    <glyph glyph-name="Lcaron" unicode="&#x13d;" horiz-adv-x="1204" 
d="M991 1178h-84q54 81 98 138t105 114q-88 16 -88 81q0 48 38 85.5t89 37.5q39 0 63.5 -24.5t24.5 -61.5q0 -39 -42 -101.5t-204 -268.5zM1081 0h-960l282 1597h132q-166 -949 -285 -1480l16 -21q301 29 838 29z" />
    <glyph glyph-name="lcaron" unicode="&#x13e;" horiz-adv-x="495" 
d="M211 0h-123l289 1638h123zM729 1178h-82q102 160 201 252q-88 16 -88 81q0 48 38.5 85.5t90.5 37.5q38 0 62 -24.5t24 -61.5q0 -39 -42 -101.5t-204 -268.5z" />
    <glyph glyph-name="Lslash" unicode="&#x141;" horiz-adv-x="1204" 
d="M250 117l16 -21q301 29 838 29l-23 -125h-960l137 780l-186 -80l20 113l187 82l124 702h132q-38 -221 -115 -643l338 148l-21 -115l-338 -145q-76 -398 -149 -725z" />
    <glyph glyph-name="lslash" unicode="&#x142;" horiz-adv-x="495" 
d="M391 1022l221 141l-18 -110l-223 -142l-160 -911h-123l145 823l-227 -143l21 111l225 143l125 704h123z" />
    <glyph glyph-name="Nacute" unicode="&#x143;" horiz-adv-x="1691" 
d="M1462 2042l-395 -322h-115l320 322h190zM252 0h-131l282 1597h121q407 -710 754 -1419h22q8 74 18 151.5t18.5 141.5t22 149t21.5 137.5t23.5 145.5l22.5 135t25.5 144t24 134.5t25.5 144t25 136.5h129l-283 -1597h-119q-468 815 -757 1397h-25q-11 -103 -23.5 -203
t-30 -216t-28 -188t-34.5 -209.5t-32 -183.5t-37 -207t-34 -190z" />
    <glyph glyph-name="nacute" unicode="&#x144;" horiz-adv-x="1294" 
d="M1198 1671l-381 -393h-108l315 393h174zM211 0h-123l199 1128h119q-26 -150 -72 -245h22q183 278 463 278q65 0 120 -14.5t104 -47t77.5 -85t40.5 -129t-8 -178.5l-125 -707h-125l117 653q16 111 5 186.5t-51.5 122t-91.5 67t-116 20.5q-87 0 -165.5 -36.5t-134 -96
t-93.5 -132.5t-51 -149z" />
    <glyph glyph-name="uni0145" unicode="&#x145;" horiz-adv-x="1691" 
d="M252 0h-131l282 1597h121q407 -710 754 -1419h22q8 74 18 151.5t18.5 141.5t22 149t21.5 137.5t23.5 145.5l22.5 135t25.5 144t24 134.5t25.5 144t25 136.5h129l-283 -1597h-119q-468 815 -757 1397h-25q-11 -103 -23.5 -203t-30 -216t-28 -188t-34.5 -209.5t-32 -183.5
t-37 -207t-34 -190zM633 -508h-62q81 125 164 201q-104 0 -104 78q0 45 36.5 78.5t84.5 33.5q38 0 63 -24t25 -60q0 -41 -37.5 -95t-169.5 -212z" />
    <glyph glyph-name="uni0146" unicode="&#x146;" horiz-adv-x="1294" 
d="M211 0h-123l199 1128h119q-26 -150 -72 -245h22q183 278 463 278q65 0 120 -14.5t104 -47t77.5 -85t40.5 -129t-8 -178.5l-125 -707h-125l117 653q16 111 5 186.5t-51.5 122t-91.5 67t-116 20.5q-87 0 -165.5 -36.5t-134 -96t-93.5 -132.5t-51 -149zM436 -508h-61
q81 125 164 201q-105 0 -105 78q0 45 36.5 78.5t84.5 33.5q38 0 63 -24t25 -60q0 -41 -37.5 -95t-169.5 -212z" />
    <glyph glyph-name="Ncaron" unicode="&#x147;" horiz-adv-x="1691" 
d="M1112 1720h-164l-213 303h115q85 -94 116 -142q31 -47 52 -99h47q19 26 41.5 51t39 42t44.5 42t39.5 35t45 37.5t40.5 33.5h117zM252 0h-131l282 1597h121q407 -710 754 -1419h22q8 74 18 151.5t18.5 141.5t22 149t21.5 137.5t23.5 145.5l22.5 135t25.5 144t24 134.5
t25.5 144t25 136.5h129l-283 -1597h-119q-468 815 -757 1397h-25q-11 -103 -23.5 -203t-30 -216t-28 -188t-34.5 -209.5t-32 -183.5t-37 -207t-34 -190z" />
    <glyph glyph-name="ncaron" unicode="&#x148;" horiz-adv-x="1294" 
d="M854 1280h-168l-233 358h118q5 -7 24.5 -31t25 -31.5t22.5 -29t24 -31.5t20.5 -29t21.5 -32t19 -30.5t20 -34.5t18 -35h39q38 51 91 104.5t91.5 86.5t110.5 93h116zM211 0h-123l199 1128h119q-26 -150 -72 -245h22q183 278 463 278q65 0 120 -14.5t104 -47t77.5 -85
t40.5 -129t-8 -178.5l-125 -707h-125l117 653q16 111 5 186.5t-51.5 122t-91.5 67t-116 20.5q-87 0 -165.5 -36.5t-134 -96t-93.5 -132.5t-51 -149z" />
    <glyph glyph-name="Eng" unicode="&#x14a;" horiz-adv-x="1691" 
d="M893 -483q-140 0 -219 57l20 123q79 -66 195 -66q136 0 230.5 101t125.5 274q-418 735 -751 1385h-23q-11 -101 -23.5 -200t-30 -214.5t-28 -187t-34.5 -209t-32 -183t-37 -207.5t-34 -190h-131l282 1597h121q410 -719 756 -1413h23q26 230 68 506.5t67.5 419.5t87.5 487
h129l-269 -1525q-99 -555 -493 -555z" />
    <glyph glyph-name="eng" unicode="&#x14b;" horiz-adv-x="1294" 
d="M629 -483q-124 0 -203 57l20 117q82 -64 183 -64q50 0 89.5 15t68 51t46 61.5t33.5 83t20 76t15 77.5q1 6 2 9l117 653q16 111 5.5 186.5t-50 122t-90 67t-115.5 20.5q-87 0 -166.5 -36.5t-136 -96t-94.5 -132.5t-51 -149l-111 -635h-123l199 1128h119q-26 -150 -72 -245
h22q183 278 463 278q64 0 119 -14.5t104 -46.5t78 -83.5t41.5 -126t-6.5 -173.5l-129 -731q-7 -40 -11.5 -60.5t-15.5 -64.5t-21 -71t-28 -67.5t-37.5 -65.5t-49 -54.5t-62.5 -46t-77.5 -28t-94.5 -11.5z" />
    <glyph glyph-name="Omacron" unicode="&#x14c;" horiz-adv-x="1814" 
d="M1464 1835h-663l20 107h662zM803 -35q-192 0 -344.5 84t-239 239t-86.5 355q0 188 79 369.5t209 316.5t308.5 218t366.5 83q196 0 349 -88t236.5 -243t83.5 -351q0 -150 -50.5 -297.5t-141.5 -269.5t-209.5 -216.5t-264.5 -147t-296 -52.5zM825 88q154 0 301.5 71.5
t255 187.5t173 270.5t65.5 314.5q0 255 -153.5 415t-391.5 160q-153 0 -300 -70.5t-256 -186t-176 -270.5t-67 -316q0 -255 156 -415.5t393 -160.5z" />
    <glyph glyph-name="omacron" unicode="&#x14d;" horiz-adv-x="1314" 
d="M1153 1421h-688l20 105h689zM553 -35q-218 0 -343.5 129t-125.5 350q0 136 51.5 266t140 229.5t216.5 160.5t272 61q216 0 342.5 -129t126.5 -350q0 -136 -51.5 -266t-140 -229.5t-216.5 -160.5t-272 -61zM571 78q112 0 212 50t168.5 132.5t108.5 189t40 218.5
q0 174 -95.5 277.5t-259.5 103.5q-148 0 -271 -85.5t-190 -220t-67 -284.5q0 -175 95 -278t259 -103z" />
    <glyph glyph-name="Ohungarumlaut" unicode="&#x150;" horiz-adv-x="1814" 
d="M1313 2042l-334 -322h-113l271 322h176zM1622 2042l-350 -322h-113l287 322h176zM803 -35q-192 0 -344.5 84t-239 239t-86.5 355q0 188 79 369.5t209 316.5t308.5 218t366.5 83q196 0 349 -88t236.5 -243t83.5 -351q0 -150 -50.5 -297.5t-141.5 -269.5t-209.5 -216.5
t-264.5 -147t-296 -52.5zM825 88q154 0 301.5 71.5t255 187.5t173 270.5t65.5 314.5q0 255 -153.5 415t-391.5 160q-153 0 -300 -70.5t-256 -186t-176 -270.5t-67 -316q0 -255 156 -415.5t393 -160.5z" />
    <glyph glyph-name="ohungarumlaut" unicode="&#x151;" horiz-adv-x="1314" 
d="M999 1673l-348 -395h-106l282 395h172zM1313 1673l-365 -395h-108l301 395h172zM553 -35q-218 0 -343.5 129t-125.5 350q0 136 51.5 266t140 229.5t216.5 160.5t272 61q216 0 342.5 -129t126.5 -350q0 -136 -51.5 -266t-140 -229.5t-216.5 -160.5t-272 -61zM571 78
q112 0 212 50t168.5 132.5t108.5 189t40 218.5q0 174 -95.5 277.5t-259.5 103.5q-148 0 -271 -85.5t-190 -220t-67 -284.5q0 -175 95 -278t259 -103z" />
    <glyph glyph-name="OE" unicode="&#x152;" horiz-adv-x="2701" 
d="M803 -35q-192 0 -344 83.5t-239 239t-87 355.5q0 151 50 298.5t141 270.5t209.5 217.5t264.5 147.5t298 53q213 0 370.5 -105.5t229.5 -287.5l63 360h1002l-23 -118q-29 0 -198.5 -1t-236.5 0t-196 6.5t-237 16.5l-25 -18q-16 -293 -104 -604l16 -23q303 27 836 27
l-23 -121q-546 0 -825 24l-23 -22q-27 -326 -116 -647l18 -21q322 29 897 29l-22 -125h-1022l63 356q-135 -181 -330 -286t-407 -105zM825 88q154 0 301 71.5t254.5 188t172.5 271t65 313.5q0 255 -153.5 415t-391.5 160q-153 0 -299.5 -70.5t-255.5 -186t-175.5 -270.5
t-66.5 -316q0 -255 156 -415.5t393 -160.5z" />
    <glyph glyph-name="oe" unicode="&#x153;" horiz-adv-x="2256" 
d="M553 -35q-218 0 -343.5 129t-125.5 350q0 137 51.5 267t140.5 229.5t217 160t271 60.5q169 0 284.5 -83t155.5 -228q92 144 235.5 227.5t307.5 83.5q48 0 93.5 -7t95 -24t89 -45.5t75 -71.5t53.5 -102t24 -136t-14 -175l-9 -45h-937q-36 -216 62 -347.5t284 -131.5
q147 0 266.5 83t195.5 216l107 -39q-96 -177 -254 -274t-342 -97q-166 0 -279.5 82.5t-152.5 226.5q-93 -144 -238 -226.5t-313 -82.5zM1239 653h799q16 89 3 156.5t-42 114t-75 76t-95.5 42.5t-104.5 13q-166 0 -296.5 -111t-188.5 -291zM571 78q112 0 212 50t168.5 132.5
t108.5 189t40 218.5q0 174 -95.5 277.5t-259.5 103.5q-148 0 -271 -85.5t-190 -220t-67 -284.5q0 -175 95 -278t259 -103z" />
    <glyph glyph-name="Racute" unicode="&#x154;" horiz-adv-x="1419" 
d="M1296 2042l-395 -322h-115l320 322h190zM252 0h-131l282 1597h558q21 0 41 -1t68 -8.5t87 -20.5t87.5 -42t81.5 -68t56 -102.5t23 -142.5q0 -140 -64.5 -258t-185.5 -193t-276 -87l-2 -23q44 -75 92.5 -166.5t80 -154.5t85.5 -173t77 -157h-145l-319 645q-258 4 -398 35
q-28 -296 -98 -680zM367 756l14 -23q154 25 422 25q201 0 331 120.5t130 301.5q0 147 -93.5 223t-257.5 76q-246 0 -399 22l-22 -18q-35 -372 -125 -727z" />
    <glyph glyph-name="racute" unicode="&#x155;" horiz-adv-x="833" 
d="M1020 1671l-381 -393h-109l316 393h174zM211 0h-123l199 1128h119q-2 -12 -7.5 -48t-9 -55t-10.5 -51t-16.5 -63.5t-22.5 -66.5h25q67 152 182 234.5t244 82.5q70 0 124 -22l-22 -133q-54 28 -141 28q-110 0 -206.5 -70.5t-156 -176.5t-80.5 -226z" />
    <glyph glyph-name="uni0156" unicode="&#x156;" horiz-adv-x="1419" 
d="M252 0h-131l282 1597h558q21 0 41 -1t68 -8.5t87 -20.5t87.5 -42t81.5 -68t56 -102.5t23 -142.5q0 -140 -64.5 -258t-185.5 -193t-276 -87l-2 -23q44 -75 92.5 -166.5t80 -154.5t85.5 -173t77 -157h-145l-319 645q-258 4 -398 35q-28 -296 -98 -680zM367 756l14 -23
q154 25 422 25q201 0 331 120.5t130 301.5q0 147 -93.5 223t-257.5 76q-246 0 -399 22l-22 -18q-35 -372 -125 -727zM487 -508h-61q81 125 164 201q-105 0 -105 78q0 45 36.5 78.5t84.5 33.5q38 0 63 -24t25 -60q0 -41 -37.5 -95t-169.5 -212z" />
    <glyph glyph-name="uni0157" unicode="&#x157;" horiz-adv-x="833" 
d="M211 0h-123l199 1128h119q-2 -12 -7.5 -48t-9 -55t-10.5 -51t-16.5 -63.5t-22.5 -66.5h25q67 152 182 234.5t244 82.5q70 0 124 -22l-22 -133q-54 28 -141 28q-110 0 -206.5 -70.5t-156 -176.5t-80.5 -226zM6 -508h-61q81 125 164 201q-105 0 -105 78q0 45 36.5 78.5
t84.5 33.5q38 0 63 -24t25 -60q0 -41 -37.5 -95t-169.5 -212z" />
    <glyph glyph-name="Rcaron" unicode="&#x158;" horiz-adv-x="1419" 
d="M946 1720h-164l-213 303h115q85 -94 116 -142q31 -47 52 -99h47q19 26 41.5 51t39 42t44.5 42t39.5 35t45 37.5t40.5 33.5h117zM252 0h-131l282 1597h558q21 0 41 -1t68 -8.5t87 -20.5t87.5 -42t81.5 -68t56 -102.5t23 -142.5q0 -140 -64.5 -258t-185.5 -193t-276 -87
l-2 -23q44 -75 92.5 -166.5t80 -154.5t85.5 -173t77 -157h-145l-319 645q-258 4 -398 35q-28 -296 -98 -680zM367 756l14 -23q154 25 422 25q201 0 331 120.5t130 301.5q0 147 -93.5 223t-257.5 76q-246 0 -399 22l-22 -18q-35 -372 -125 -727z" />
    <glyph glyph-name="rcaron" unicode="&#x159;" horiz-adv-x="833" 
d="M676 1280h-168l-234 358h119q5 -7 24.5 -31t25 -31.5t22.5 -29t24 -31.5t20.5 -29t21.5 -32t19 -30.5t20 -34.5t18 -35h39q38 51 91 104.5t91.5 86.5t110.5 93h116zM211 0h-123l199 1128h119q-2 -12 -7.5 -48t-9 -55t-10.5 -51t-16.5 -63.5t-22.5 -66.5h25
q67 152 182 234.5t244 82.5q70 0 124 -22l-22 -133q-54 28 -141 28q-110 0 -206.5 -70.5t-156 -176.5t-80.5 -226z" />
    <glyph glyph-name="Sacute" unicode="&#x15a;" horiz-adv-x="1312" 
d="M1241 2040l-395 -320h-115l320 320h190zM575 -35q-72 0 -139 14.5t-132.5 49t-115.5 86.5t-84.5 133.5t-44.5 183.5l127 45q17 -187 130.5 -289t285.5 -102q191 0 321 109.5t130 261.5q0 26 -5 49.5t-12 42t-22 35.5t-26 29t-33 25t-35.5 20t-40.5 17t-40 14.5t-42.5 14
t-40.5 13.5l-142 47q-37 12 -64 22t-68 29t-71 38.5t-63 49.5t-53.5 63.5t-34.5 78.5t-14 96q0 130 77 242t213.5 179.5t299.5 67.5q204 0 324 -104.5t138 -278.5l-124 -49q-21 142 -118 226.5t-251 84.5q-176 0 -297 -98.5t-121 -234.5q0 -39 12 -73.5t29.5 -60t45.5 -48.5
t51 -37.5t56 -29t51 -21t44 -15.5l147 -51q139 -45 187 -69q166 -81 187 -230q3 -24 3 -49q0 -99 -49.5 -195t-132 -169t-199.5 -118t-244 -45z" />
    <glyph glyph-name="sacute" unicode="&#x15b;" horiz-adv-x="1001" 
d="M1053 1671l-381 -393h-109l316 393h174zM422 -35q-163 0 -273.5 87t-132.5 229l121 38q26 -112 112.5 -179.5t199.5 -67.5q122 0 212.5 72t90.5 173q0 28 -7 50.5t-25 40t-32.5 28.5t-46 23.5t-47.5 17.5t-55 17l-101 30q-30 9 -42 13t-47 18t-54 26t-48 35t-44 47.5
t-27 60.5t-12 77q0 147 125 253.5t299 106.5q143 0 238 -76.5t116 -197.5l-129 -41q-15 89 -80.5 149t-173.5 60q-112 0 -188 -64.5t-76 -156.5q0 -46 20.5 -81.5t59 -59.5t71 -37t78.5 -27l103 -33q27 -8 36 -11t36.5 -13t39.5 -16t36 -19t36 -25t29 -30t25 -37t14 -44
t6 -53q0 -147 -135.5 -265t-327.5 -118z" />
    <glyph glyph-name="Scedilla" unicode="&#x15e;" horiz-adv-x="1312" 
d="M676 891l147 -51q139 -45 187 -69q166 -81 187 -230q3 -24 3 -49q0 -130 -78.5 -248.5t-217 -195t-302.5 -83.5q-71 -79 -129 -125l8 -8q58 25 103 25q70 0 112.5 -37t42.5 -99q0 -85 -75 -147.5t-183 -62.5q-69 0 -132 29.5t-99 80.5l63 53q26 -41 74 -65.5t100 -24.5
q67 0 113.5 36t46.5 87q0 38 -30 61t-78 23q-57 0 -103 -24l-43 49l123 151q-66 6 -126.5 24.5t-117.5 55t-100.5 88t-73.5 127.5t-39 170l127 45q17 -187 130.5 -289t285.5 -102q191 0 321 109.5t130 261.5q0 26 -5 49.5t-12 42t-22 35.5t-26 29t-33 25t-35.5 20t-40.5 17
t-40 14.5t-42.5 14t-40.5 13.5l-142 47q-37 12 -64 22t-68 29t-71 38.5t-63 49.5t-53.5 63.5t-34.5 78.5t-14 96q0 130 77 242t213.5 179.5t299.5 67.5q204 0 324 -104.5t138 -278.5l-124 -49q-21 142 -118 226.5t-251 84.5q-176 0 -297 -98.5t-121 -234.5q0 -39 12 -73.5
t29.5 -60t45.5 -48.5t51 -37.5t56 -29t51 -21t44 -15.5z" />
    <glyph glyph-name="scedilla" unicode="&#x15f;" horiz-adv-x="1001" 
d="M524 629l103 -33q27 -8 36 -11t36.5 -13t39.5 -16t36 -19t36 -25t29 -30t25 -37t14 -44t6 -53q0 -142 -126 -257.5t-310 -125.5q-69 -76 -130 -125l9 -8q58 25 102 25q71 0 113.5 -37.5t42.5 -98.5q0 -85 -75 -147.5t-183 -62.5q-69 0 -132.5 29.5t-99.5 80.5l64 53
q26 -41 74 -65.5t100 -24.5q67 0 113.5 36t46.5 87q0 38 -30.5 61t-78.5 23q-56 0 -102 -24l-43 49l122 153q-141 15 -233.5 99t-112.5 213l121 38q26 -112 112.5 -179.5t199.5 -67.5q122 0 212.5 72t90.5 173q0 28 -7 50.5t-25 40t-32.5 28.5t-46 23.5t-47.5 17.5t-55 17
l-101 30q-30 9 -42 13t-47 18t-54 26t-48 35t-44 47.5t-27 60.5t-12 77q0 147 125 253.5t299 106.5q143 0 238 -76.5t116 -197.5l-129 -41q-15 89 -80.5 149t-173.5 60q-112 0 -188 -64.5t-76 -156.5q0 -46 20.5 -81.5t59 -59.5t71 -37t78.5 -27z" />
    <glyph glyph-name="Scaron" unicode="&#x160;" horiz-adv-x="1312" 
d="M936 1720h-164l-213 303h115q85 -94 116 -142q31 -47 52 -99h47q19 26 41.5 51t39 42t44.5 42t39.5 35t45 37.5t40.5 33.5h116zM575 -35q-72 0 -139 14.5t-132.5 49t-115.5 86.5t-84.5 133.5t-44.5 183.5l127 45q17 -187 130.5 -289t285.5 -102q191 0 321 109.5
t130 261.5q0 26 -5 49.5t-12 42t-22 35.5t-26 29t-33 25t-35.5 20t-40.5 17t-40 14.5t-42.5 14t-40.5 13.5l-142 47q-37 12 -64 22t-68 29t-71 38.5t-63 49.5t-53.5 63.5t-34.5 78.5t-14 96q0 130 77 242t213.5 179.5t299.5 67.5q204 0 324 -104.5t138 -278.5l-124 -49
q-21 142 -118 226.5t-251 84.5q-176 0 -297 -98.5t-121 -234.5q0 -39 12 -73.5t29.5 -60t45.5 -48.5t51 -37.5t56 -29t51 -21t44 -15.5l147 -51q139 -45 187 -69q166 -81 187 -230q3 -24 3 -49q0 -99 -49.5 -195t-132 -169t-199.5 -118t-244 -45z" />
    <glyph glyph-name="scaron" unicode="&#x161;" horiz-adv-x="1001" 
d="M709 1280h-168l-234 358h119q5 -7 24.5 -31t25 -31.5t22.5 -29t24 -31.5t20.5 -29t21.5 -32t19 -30.5t20 -34.5t18 -35h38q38 51 91 104.5t91.5 86.5t110.5 93h117zM422 -35q-163 0 -273.5 87t-132.5 229l121 38q26 -112 112.5 -179.5t199.5 -67.5q122 0 212.5 72
t90.5 173q0 28 -7 50.5t-25 40t-32.5 28.5t-46 23.5t-47.5 17.5t-55 17l-101 30q-30 9 -42 13t-47 18t-54 26t-48 35t-44 47.5t-27 60.5t-12 77q0 147 125 253.5t299 106.5q143 0 238 -76.5t116 -197.5l-129 -41q-15 89 -80.5 149t-173.5 60q-112 0 -188 -64.5t-76 -156.5
q0 -46 20.5 -81.5t59 -59.5t71 -37t78.5 -27l103 -33q27 -8 36 -11t36.5 -13t39.5 -16t36 -19t36 -25t29 -30t25 -37t14 -44t6 -53q0 -147 -135.5 -265t-327.5 -118z" />
    <glyph glyph-name="uni0162" unicode="&#x162;" horiz-adv-x="1290" 
d="M188 1479l23 118h1235l-23 -118q-375 0 -569 22q-18 -132 -39 -273t-37 -243.5t-42.5 -260t-39.5 -231t-44.5 -254.5t-41.5 -239h-20q-86 -100 -160 -160l8 -8q58 25 103 25q70 0 112.5 -37t42.5 -99q0 -85 -75 -147.5t-183 -62.5q-69 0 -132 29.5t-99 80.5l63 53
q26 -41 74 -65.5t100 -24.5q67 0 113.5 36t46.5 87q0 38 -30 61t-78 23q-57 0 -103 -24l-43 49l150 184h-21q177 994 289 1501q-202 -22 -580 -22z" />
    <glyph glyph-name="uni0163" unicode="&#x163;" horiz-adv-x="753" 
d="M813 1128l-18 -108q-240 0 -369 22q-18 -210 -40.5 -346.5t-38 -179t-26 -100.5t-10.5 -144q0 -108 23 -152t100 -44q99 0 205 65l-21 -118q-94 -58 -219 -58q-27 0 -39 2q-62 -72 -131 -127l9 -8q58 25 102 25q71 0 113.5 -37.5t42.5 -98.5q0 -85 -75 -147.5t-183 -62.5
q-69 0 -132.5 29.5t-99.5 80.5l64 53q26 -41 74 -65.5t100 -24.5q67 0 113 36t46 87q0 38 -30 61t-78 23q-56 0 -102 -24l-43 49l137 170q-28 12 -48.5 33t-32 42.5t-16.5 54t-6 55.5t3 60.5t7 56t9 52.5q82 468 145 702q-98 -22 -252 -22l19 108q149 0 245 -20q0 34 2 68.5
t4 59.5t7 62t7.5 54.5t9.5 59t9 54.5h123q-2 -11 -8.5 -49.5t-10 -56t-11 -54.5t-14.5 -63.5t-18 -63t-24 -71.5q143 20 377 20z" />
    <glyph glyph-name="Tcaron" unicode="&#x164;" horiz-adv-x="1290" 
d="M932 1720h-164l-213 303h115q85 -94 116 -142q31 -47 52 -99h47q19 26 41.5 51t39 42t44.5 42t39.5 35t45 37.5t40.5 33.5h116zM610 0h-131q177 994 289 1501q-202 -22 -580 -22l23 118h1235l-23 -118q-375 0 -569 22q-18 -132 -39 -273t-37 -243.5t-42.5 -260
t-39.5 -231t-44.5 -254.5t-41.5 -239z" />
    <glyph glyph-name="tcaron" unicode="&#x165;" horiz-adv-x="753" 
d="M956 1180h-82q99 155 203 252q-90 16 -90 81q0 48 38.5 86.5t90.5 38.5q38 0 62 -25.5t24 -62.5q0 -39 -42 -101.5t-204 -268.5zM399 -35q-43 0 -77 9t-57 22t-39.5 36t-25.5 43.5t-12.5 52t-4 53.5t3.5 57t7 53t9 49q82 468 145 702q-98 -22 -252 -22l19 108
q149 0 245 -20q0 34 2 68.5t4 59.5t7 62t7.5 54.5t9.5 59t9 54.5h123q-2 -11 -8.5 -49.5t-10 -56t-11 -54.5t-14.5 -63.5t-18 -63t-24 -71.5q143 20 377 20l-18 -108q-240 0 -369 22q-18 -210 -40.5 -346.5t-38 -179t-26 -100.5t-10.5 -144q0 -108 23 -152t100 -44
q99 0 205 65l-21 -118q-94 -58 -219 -58z" />
    <glyph glyph-name="Tbar" unicode="&#x166;" horiz-adv-x="1290" 
d="M1446 1597l-23 -118q-375 0 -569 22q-42 -310 -96 -649h364l-18 -109h-365q-19 -109 -62.5 -357.5t-66.5 -385.5h-131q96 534 135 743h-362l18 109h365q61 318 133 649q-202 -22 -580 -22l23 118h1235z" />
    <glyph glyph-name="tbar" unicode="&#x167;" horiz-adv-x="753" 
d="M813 1128l-18 -108q-240 0 -369 22q-18 -210 -43 -354h336l-19 -104h-335q-9 -37 -21 -81.5t-18 -67t-10.5 -64.5t-4.5 -99q0 -108 23 -152t100 -44q99 0 205 65l-21 -118q-94 -58 -219 -58q-43 0 -77 9t-57 22t-39.5 36t-25.5 43.5t-12.5 52t-4 53.5t3.5 57t7 53t9 49
l43 244h-223l16 104h227q39 189 82 354q-98 -22 -252 -22l19 108q149 0 245 -20q0 34 2 68.5t4 59.5t7 62t7.5 54.5t9.5 59t9 54.5h123q-2 -11 -8.5 -49.5t-10 -56t-11 -54.5t-14.5 -63.5t-18 -63t-24 -71.5q143 20 377 20z" />
    <glyph glyph-name="Umacron" unicode="&#x16a;" horiz-adv-x="1542" 
d="M1331 1835h-663l20 107h662zM664 -35q-269 0 -390.5 155t-68.5 455l182 1022h129l-178 -1015q-45 -252 48 -375t302 -123t346.5 124t182.5 374l180 1015h129l-180 -1022q-23 -135 -76.5 -245t-137 -192.5t-203 -127.5t-265.5 -45z" />
    <glyph glyph-name="umacron" unicode="&#x16b;" horiz-adv-x="1275" 
d="M1114 1421h-688l20 105h689zM471 -35q-62 0 -115.5 14.5t-102 47t-77 85t-41 129t7.5 179.5l127 708h123l-117 -657q-18 -91 -9 -158t30 -112t58.5 -72.5t77.5 -39t87 -11.5q85 0 161.5 37t130.5 97t90.5 131.5t49.5 143.5l113 641h123l-137 -776q-38 -215 -25 -352h-125
q-7 58 0 122.5t35 139.5h-23q-168 -297 -442 -297z" />
    <glyph glyph-name="Uring" unicode="&#x16e;" horiz-adv-x="1542" 
d="M977 1716q-85 0 -137 49t-52 129q0 102 79 178t188 76q83 0 134.5 -49t51.5 -129q0 -101 -77.5 -177.5t-186.5 -76.5zM991 1802q68 0 115 46t47 112q0 46 -32.5 74t-82.5 28q-67 0 -113 -45t-46 -110q0 -49 30.5 -77t81.5 -28zM664 -35q-269 0 -390.5 155t-68.5 455
l182 1022h129l-178 -1015q-45 -252 48 -375t302 -123t346.5 124t182.5 374l180 1015h129l-180 -1022q-23 -135 -76.5 -245t-137 -192.5t-203 -127.5t-265.5 -45z" />
    <glyph glyph-name="uring" unicode="&#x16f;" horiz-adv-x="1275" 
d="M739 1247q-85 0 -136.5 49t-51.5 129q0 102 78.5 178t187.5 76q83 0 135 -49.5t52 -128.5q0 -101 -78 -177.5t-187 -76.5zM754 1333q67 0 114 46t47 112q0 47 -32 74.5t-82 27.5q-67 0 -114.5 -45t-47.5 -110q0 -49 31.5 -77t83.5 -28zM471 -35q-62 0 -115.5 14.5
t-102 47t-77 85t-41 129t7.5 179.5l127 708h123l-117 -657q-18 -91 -9 -158t30 -112t58.5 -72.5t77.5 -39t87 -11.5q85 0 161.5 37t130.5 97t90.5 131.5t49.5 143.5l113 641h123l-137 -776q-38 -215 -25 -352h-125q-7 58 0 122.5t35 139.5h-23q-168 -297 -442 -297z" />
    <glyph glyph-name="Uhungarumlaut" unicode="&#x170;" horiz-adv-x="1542" 
d="M1182 2042l-334 -322h-113l271 322h176zM1491 2042l-350 -322h-113l287 322h176zM664 -35q-269 0 -390.5 155t-68.5 455l182 1022h129l-178 -1015q-45 -252 48 -375t302 -123t346.5 124t182.5 374l180 1015h129l-180 -1022q-23 -135 -76.5 -245t-137 -192.5t-203 -127.5
t-265.5 -45z" />
    <glyph glyph-name="uhungarumlaut" unicode="&#x171;" horiz-adv-x="1275" 
d="M958 1673l-348 -395h-106l282 395h172zM1272 1673l-365 -395h-108l301 395h172zM471 -35q-62 0 -115.5 14.5t-102 47t-77 85t-41 129t7.5 179.5l127 708h123l-117 -657q-18 -91 -9 -158t30 -112t58.5 -72.5t77.5 -39t87 -11.5q85 0 161.5 37t130.5 97t90.5 131.5
t49.5 143.5l113 641h123l-137 -776q-38 -215 -25 -352h-125q-7 58 0 122.5t35 139.5h-23q-168 -297 -442 -297z" />
    <glyph glyph-name="Uogonek" unicode="&#x172;" horiz-adv-x="1542" 
d="M1217 582l180 1015h129l-180 -1022q-43 -251 -189 -412.5t-387 -191.5q-162 -93 -162 -213q0 -60 43.5 -95.5t112.5 -35.5q38 0 92 15l-18 -91q-57 -14 -101 -14q-103 0 -167 50.5t-64 140.5q0 136 147 237q-264 3 -382.5 158.5t-65.5 451.5l182 1022h129l-178 -1015
q-45 -252 48 -375t302 -123t346.5 124t182.5 374z" />
    <glyph glyph-name="uogonek" unicode="&#x173;" horiz-adv-x="1275" 
d="M1065 1128h123l-137 -776q-38 -215 -25 -352h-16q-91 -41 -152 -103t-61 -141q0 -59 42 -93t109 -34q38 0 92 15l-18 -93q-55 -14 -98 -14q-104 0 -168 51.5t-64 141.5q0 160 209 270q-7 58 0 122.5t35 139.5h-23q-168 -297 -442 -297q-62 0 -115.5 14.5t-102 47t-77 85
t-41 129t7.5 179.5l127 708h123l-117 -657q-18 -91 -9 -158t30 -112t58.5 -72.5t77.5 -39t87 -11.5q85 0 161.5 37t130.5 97t90.5 131.5t49.5 143.5z" />
    <glyph glyph-name="Wcircumflex" unicode="&#x174;" horiz-adv-x="2320" 
d="M1135 1720h-115l317 303h162l215 -303h-115q-45 50 -66.5 76t-50.5 71.5t-48 94.5h-48q-15 -19 -31.5 -38.5t-29 -33t-34 -34t-29.5 -28.5t-34 -30t-29.5 -25.5t-33.5 -28.5zM616 0h-157l-238 1597h139q71 -450 116 -774t79 -682h23q70 155 138 302t149.5 317t126 262.5
t146.5 303t132 271.5h147q125 -886 182 -1460h23q326 722 705 1460h139l-803 -1597h-156q-125 806 -178 1444h-26q-299 -685 -687 -1444z" />
    <glyph glyph-name="wcircumflex" unicode="&#x175;" horiz-adv-x="1851" 
d="M784 1278h-116l360 356h168l234 -356h-117q-45 54 -73 90t-62 89.5t-54 103.5h-47q-101 -132 -293 -283zM477 0h-125l-215 1128h135q6 -36 33.5 -188t37.5 -211.5t30 -180t33 -219.5t24 -204h25q41 88 88 185t78.5 161t91.5 180t78.5 152t91 172.5t80.5 152.5h124
q45 -235 64.5 -340.5t50.5 -299t51 -363.5h25q76 169 175 369t150 298t177 336h135l-612 -1128h-129q-118 617 -168 983h-11q-223 -446 -518 -983z" />
    <glyph glyph-name="Ycircumflex" unicode="&#x176;" horiz-adv-x="1404" 
d="M676 1720h-115l318 303h161l215 -303h-114q-46 52 -67 76.5t-50.5 70.5t-48.5 95h-47q-17 -22 -33.5 -41.5t-38.5 -41t-34 -34t-39 -36t-33.5 -29t-39 -32t-34.5 -28.5zM668 0h-131q7 35 25 135.5t28.5 157.5t28.5 143t34 154q-195 434 -432 1007h144
q84 -204 123.5 -301.5t108 -279.5t116.5 -332h22q54 79 115 165t106 148t118.5 160t106 141t119 155.5t109.5 143.5h139q-55 -71 -172.5 -224t-193.5 -251t-193 -246.5t-227 -285.5q-24 -190 -94 -590z" />
    <glyph glyph-name="ycircumflex" unicode="&#x177;" horiz-adv-x="1101" 
d="M399 1278h-116l360 356h168l233 -356h-116q-45 54 -73 90t-62 89.5t-54 103.5h-47q-101 -132 -293 -283zM254 -451h-113l250 439l-258 1140h133q124 -536 195 -1026h22q248 497 553 1026h133z" />
    <glyph glyph-name="Ydieresis" unicode="&#x178;" horiz-adv-x="1404" 
d="M725 1790q-38 0 -62 24.5t-24 61.5q0 47 37 83t84 36q37 0 60.5 -23.5t23.5 -58.5q0 -48 -36 -85.5t-83 -37.5zM1114 1790q-38 0 -62 24t-24 60q0 49 36.5 85t86.5 36q36 0 60 -24t24 -60q0 -46 -37 -83.5t-84 -37.5zM668 0h-131q7 35 25 135.5t28.5 157.5t28.5 143
t34 154q-195 434 -432 1007h144q84 -204 123.5 -301.5t108 -279.5t116.5 -332h22q54 79 115 165t106 148t118.5 160t106 141t119 155.5t109.5 143.5h139q-55 -71 -172.5 -224t-193.5 -251t-193 -246.5t-227 -285.5q-24 -190 -94 -590z" />
    <glyph glyph-name="Zacute" unicode="&#x179;" horiz-adv-x="1335" 
d="M1274 2042l-395 -322h-115l319 322h191zM1178 0h-1221l18 111q456 496 1303 1380l-6 22q-451 -34 -1014 -34l23 118h1161l-19 -106q-123 -133 -247.5 -265.5t-277.5 -293.5t-239.5 -251.5t-282 -294.5t-257.5 -269l8 -23q431 31 1071 31z" />
    <glyph glyph-name="zacute" unicode="&#x17a;" horiz-adv-x="980" 
d="M1049 1671l-381 -393h-109l315 393h175zM838 0h-879l16 92q34 38 196 220t229 256.5t192 210.5t231 247l-4 23q-331 -33 -641 -33l19 112h794l-16 -92q-548 -607 -852 -923l6 -23q258 23 729 23z" />
    <glyph glyph-name="Zdotaccent" unicode="&#x17b;" horiz-adv-x="1335" 
d="M866 1788q-40 0 -65 25t-25 65q0 51 38.5 89t90.5 38q39 0 64.5 -25.5t25.5 -62.5q0 -51 -39.5 -90t-89.5 -39zM1178 0h-1221l18 111q456 496 1303 1380l-6 22q-451 -34 -1014 -34l23 118h1161l-19 -106q-123 -133 -247.5 -265.5t-277.5 -293.5t-239.5 -251.5
t-282 -294.5t-257.5 -269l8 -23q431 31 1071 31z" />
    <glyph glyph-name="zdotaccent" unicode="&#x17c;" horiz-adv-x="980" 
d="M649 1425q-39 0 -64.5 26t-25.5 65q0 51 38.5 88.5t90.5 37.5q39 0 64.5 -25.5t25.5 -62.5q0 -50 -39 -89.5t-90 -39.5zM838 0h-879l16 92q34 38 196 220t229 256.5t192 210.5t231 247l-4 23q-331 -33 -641 -33l19 112h794l-16 -92q-548 -607 -852 -923l6 -23
q258 23 729 23z" />
    <glyph glyph-name="Zcaron" unicode="&#x17d;" horiz-adv-x="1335" 
d="M926 1720h-164l-213 303h115q45 -50 64 -72.5t51 -71t52 -97.5h48q19 26 42 51.5t37.5 41t45 43t38.5 34t46 38t40 33.5h117zM1178 0h-1221l18 111q456 496 1303 1380l-6 22q-451 -34 -1014 -34l23 118h1161l-19 -106q-123 -133 -247.5 -265.5t-277.5 -293.5
t-239.5 -251.5t-282 -294.5t-257.5 -269l8 -23q431 31 1071 31z" />
    <glyph glyph-name="zcaron" unicode="&#x17e;" horiz-adv-x="980" 
d="M705 1280h-168l-234 358h119q110 -139 149 -202q25 -40 45 -82h39q38 51 91 104.5t91.5 86.5t110.5 93h117zM838 0h-879l16 92q34 38 196 220t229 256.5t192 210.5t231 247l-4 23q-331 -33 -641 -33l19 112h794l-16 -92q-548 -607 -852 -923l6 -23q258 23 729 23z" />
    <glyph glyph-name="uni0218" unicode="&#x218;" horiz-adv-x="1312" 
d="M575 -35q-72 0 -139 14.5t-132.5 49t-115.5 86.5t-84.5 133.5t-44.5 183.5l127 45q17 -187 130.5 -289t285.5 -102q191 0 321 109.5t130 261.5q0 26 -5 49.5t-12 42t-22 35.5t-26 29t-33 25t-35.5 20t-40.5 17t-40 14.5t-42.5 14t-40.5 13.5l-142 47q-37 12 -64 22
t-68 29t-71 38.5t-63 49.5t-53.5 63.5t-34.5 78.5t-14 96q0 130 77 242t213.5 179.5t299.5 67.5q204 0 324 -104.5t138 -278.5l-124 -49q-21 142 -118 226.5t-251 84.5q-176 0 -297 -98.5t-121 -234.5q0 -39 12 -73.5t29.5 -60t45.5 -48.5t51 -37.5t56 -29t51 -21t44 -15.5
l147 -51q139 -45 187 -69q166 -81 187 -230q3 -24 3 -49q0 -99 -49.5 -195t-132 -169t-199.5 -118t-244 -45zM438 -508h-61q81 125 164 201q-105 0 -105 78q0 45 36.5 78.5t84.5 33.5q38 0 63 -24t25 -60q0 -41 -37.5 -95t-169.5 -212z" />
    <glyph glyph-name="uni0219" unicode="&#x219;" horiz-adv-x="1001" 
d="M422 -35q-163 0 -273.5 87t-132.5 229l121 38q26 -112 112.5 -179.5t199.5 -67.5q122 0 212.5 72t90.5 173q0 28 -7 50.5t-25 40t-32.5 28.5t-46 23.5t-47.5 17.5t-55 17l-101 30q-30 9 -42 13t-47 18t-54 26t-48 35t-44 47.5t-27 60.5t-12 77q0 147 125 253.5t299 106.5
q143 0 238 -76.5t116 -197.5l-129 -41q-15 89 -80.5 149t-173.5 60q-112 0 -188 -64.5t-76 -156.5q0 -46 20.5 -81.5t59 -59.5t71 -37t78.5 -27l103 -33q27 -8 36 -11t36.5 -13t39.5 -16t36 -19t36 -25t29 -30t25 -37t14 -44t6 -53q0 -147 -135.5 -265t-327.5 -118z
M285 -508h-62q81 125 164 201q-104 0 -104 78q0 45 36 78.5t84 33.5q38 0 63.5 -24.5t25.5 -59.5q0 -41 -37.5 -95t-169.5 -212z" />
    <glyph glyph-name="uni021A" unicode="&#x21a;" horiz-adv-x="1290" 
d="M610 0h-131q177 994 289 1501q-202 -22 -580 -22l23 118h1235l-23 -118q-375 0 -569 22q-18 -132 -39 -273t-37 -243.5t-42.5 -260t-39.5 -231t-44.5 -254.5t-41.5 -239zM397 -508h-61q81 125 164 201q-105 0 -105 78q0 45 36.5 78.5t84.5 33.5q38 0 63 -24t25 -60
q0 -41 -37.5 -95t-169.5 -212z" />
    <glyph glyph-name="uni021B" unicode="&#x21b;" horiz-adv-x="753" 
d="M399 -35q-43 0 -77 9t-57 22t-39.5 36t-25.5 43.5t-12.5 52t-4 53.5t3.5 57t7 53t9 49q82 468 145 702q-98 -22 -252 -22l19 108q149 0 245 -20q0 34 2 68.5t4 59.5t7 62t7.5 54.5t9.5 59t9 54.5h123q-2 -11 -8.5 -49.5t-10 -56t-11 -54.5t-14.5 -63.5t-18 -63t-24 -71.5
q143 20 377 20l-18 -108q-240 0 -369 22q-18 -210 -40.5 -346.5t-38 -179t-26 -100.5t-10.5 -144q0 -108 23 -152t100 -44q99 0 205 65l-21 -118q-94 -58 -219 -58zM195 -508h-62q81 125 164 201q-104 0 -104 78q0 45 36 78.5t84 33.5q38 0 63 -24t25 -60q0 -42 -38 -96
t-168 -211z" />
    <glyph glyph-name="gravecomb" unicode="&#x300;" horiz-adv-x="0" 
d="M123 1278h-109l-241 393h172z" />
    <glyph glyph-name="acutecomb" unicode="&#x301;" horiz-adv-x="0" 
d="M397 1671l-381 -393h-108l315 393h174z" />
    <glyph glyph-name="uni0302" unicode="&#x302;" horiz-adv-x="0" 
d="M-451 1278h-116l360 356h168l234 -356h-117q-45 54 -73 90t-62 89.5t-54 103.5h-47q-101 -132 -293 -283z" />
    <glyph glyph-name="tildecomb" unicode="&#x303;" horiz-adv-x="0" 
d="M-84 1339q-36 0 -65 13t-42 24.5t-40 40.5l-35 31q-1 1 -8 8.5t-8.5 8.5t-8.5 7.5t-10 8t-9 6.5t-10.5 6.5t-11 3.5t-13 3t-13.5 1q-49 0 -85.5 -41.5t-48.5 -105.5h-94q20 109 89.5 176t160.5 67q43 0 72.5 -17t62.5 -50l37 -37q52 -57 103 -57q46 0 81 41.5t46 105.5
h96q-21 -110 -86.5 -177t-159.5 -67z" />
    <glyph glyph-name="uni0304" unicode="&#x304;" horiz-adv-x="0" 
d="M160 1419h-688l20 105h688z" />
    <glyph glyph-name="uni0306" unicode="&#x306;" horiz-adv-x="0" 
d="M-178 1276q-171 0 -250 110.5t-55 284.5h112q-20 -133 39.5 -212t171.5 -79t198.5 79t115.5 212h112q-38 -174 -157.5 -284.5t-286.5 -110.5z" />
    <glyph glyph-name="uni0307" unicode="&#x307;" horiz-adv-x="0" 
d="M4 1423q-39 0 -64.5 25.5t-25.5 64.5q0 51 38.5 89t90.5 38q39 0 64.5 -25.5t25.5 -62.5q0 -50 -39 -89.5t-90 -39.5z" />
    <glyph glyph-name="uni0308" unicode="&#x308;" horiz-adv-x="0" 
d="M-598 1376q-37 0 -60.5 24.5t-23.5 61.5q0 46 36.5 81.5t82.5 35.5q37 0 60.5 -23.5t23.5 -56.5q0 -48 -36 -85.5t-83 -37.5zM-248 1376q-38 0 -61 24t-23 60q0 47 36 83t83 36q36 0 60 -24t24 -58q0 -46 -36.5 -83.5t-82.5 -37.5z" />
    <glyph glyph-name="uni030A" unicode="&#x30a;" horiz-adv-x="0" 
d="M-20 1247q-85 0 -137 49t-52 129q0 102 78.5 178t187.5 76q83 0 135 -49.5t52 -128.5q0 -101 -77.5 -177.5t-186.5 -76.5zM-6 1333q68 0 115 46t47 112q0 46 -32.5 74t-82.5 28q-67 0 -114.5 -45t-47.5 -110q0 -49 31.5 -77t83.5 -28z" />
    <glyph glyph-name="uni030B" unicode="&#x30b;" horiz-adv-x="0" 
d="M158 1673l-348 -395h-107l283 395h172zM471 1673l-365 -395h-108l301 395h172z" />
    <glyph glyph-name="uni030C" unicode="&#x30c;" horiz-adv-x="0" 
d="M-102 1278h-168l-234 358h119q5 -7 24.5 -31t25 -31.5t22.5 -29t24 -31.5t20.5 -29t21.5 -32t19 -30.5t20 -34.5t18 -35h38q38 51 91 104.5t91.5 86.5t110.5 93h117z" />
    <glyph glyph-name="uni0312" unicode="&#x312;" horiz-adv-x="0" 
d="M-193 1311q0 39 33 89t166 222q25 33 39 51h82q-91 -143 -188 -268q77 8 77 -64q0 -48 -33.5 -81t-84.5 -33q-39 0 -65 24t-26 60z" />
    <glyph glyph-name="uni0326" unicode="&#x326;" horiz-adv-x="0" 
d="M-424 -508h-61q83 127 163 201q-104 0 -104 78q0 45 36.5 78.5t84.5 33.5q38 0 63 -24t25 -60q0 -41 -37.5 -95t-169.5 -212z" />
    <glyph glyph-name="uni0327" unicode="&#x327;" horiz-adv-x="0" 
d="M-725 -489q-69 0 -132 29.5t-99 80.5l63 53q26 -41 74 -65.5t100 -24.5q67 0 113.5 36t46.5 87q0 38 -30.5 61t-78.5 23q-56 0 -102 -24l-43 49l149 184h91q-86 -100 -160 -160l8 -8q58 25 102 25q71 0 113.5 -37.5t42.5 -98.5q0 -85 -75 -147.5t-183 -62.5z" />
    <glyph glyph-name="uni0328" unicode="&#x328;" horiz-adv-x="0" 
d="M-723 -483q-104 0 -167.5 51t-63.5 141q0 49 20 94t54.5 78.5t66.5 56.5t68 42h108q-91 -41 -152 -103t-61 -141q0 -59 42.5 -93t109.5 -34q42 0 92 14l-19 -92q-55 -14 -98 -14z" />
    <glyph glyph-name="uni0335" unicode="&#x335;" horiz-adv-x="0" 
d="M-625 616h680l-18 -104h-678z" />
    <glyph glyph-name="uni0337" unicode="&#x337;" horiz-adv-x="0" 
d="M-389 528l20 111l586 373l-18 -111z" />
    <glyph glyph-name="uni0338" unicode="&#x338;" horiz-adv-x="0" 
d="M-1042 -57h-129l1138 1237h123z" />
    <glyph glyph-name="Wgrave" unicode="&#x1e80;" horiz-adv-x="2320" 
d="M1452 1720h-115l-282 322h190zM616 0h-157l-238 1597h139q71 -450 116 -774t79 -682h23q70 155 138 302t149.5 317t126 262.5t146.5 303t132 271.5h147q125 -886 182 -1460h23q326 722 705 1460h139l-803 -1597h-156q-125 806 -178 1444h-26q-299 -685 -687 -1444z" />
    <glyph glyph-name="wgrave" unicode="&#x1e81;" horiz-adv-x="1851" 
d="M1110 1278h-109l-241 393h172zM477 0h-125l-215 1128h135q6 -36 33.5 -188t37.5 -211.5t30 -180t33 -219.5t24 -204h25q41 88 88 185t78.5 161t91.5 180t78.5 152t91 172.5t80.5 152.5h124q45 -235 64.5 -340.5t50.5 -299t51 -363.5h25q76 169 175 369t150 298t177 336
h135l-612 -1128h-129q-118 617 -168 983h-11q-223 -446 -518 -983z" />
    <glyph glyph-name="Wacute" unicode="&#x1e82;" horiz-adv-x="2320" 
d="M1796 2042l-395 -322h-115l320 322h190zM616 0h-157l-238 1597h139q71 -450 116 -774t79 -682h23q70 155 138 302t149.5 317t126 262.5t146.5 303t132 271.5h147q125 -886 182 -1460h23q326 722 705 1460h139l-803 -1597h-156q-125 806 -178 1444h-26
q-299 -685 -687 -1444z" />
    <glyph glyph-name="wacute" unicode="&#x1e83;" horiz-adv-x="1851" 
d="M1479 1671l-381 -393h-109l316 393h174zM477 0h-125l-215 1128h135q6 -36 33.5 -188t37.5 -211.5t30 -180t33 -219.5t24 -204h25q41 88 88 185t78.5 161t91.5 180t78.5 152t91 172.5t80.5 152.5h124q45 -235 64.5 -340.5t50.5 -299t51 -363.5h25q76 169 175 369t150 298
t177 336h135l-612 -1128h-129q-118 617 -168 983h-11q-223 -446 -518 -983z" />
    <glyph glyph-name="Wdieresis" unicode="&#x1e84;" horiz-adv-x="2320" 
d="M1184 1790q-38 0 -62 24.5t-24 61.5q0 47 37 83t84 36q37 0 60.5 -23.5t23.5 -58.5q0 -48 -36 -85.5t-83 -37.5zM1573 1790q-38 0 -62 24t-24 60q0 49 36.5 85t86.5 36q36 0 60 -24t24 -60q0 -46 -37 -83.5t-84 -37.5zM616 0h-157l-238 1597h139q71 -450 116 -774
t79 -682h23q70 155 138 302t149.5 317t126 262.5t146.5 303t132 271.5h147q125 -886 182 -1460h23q326 722 705 1460h139l-803 -1597h-156q-125 806 -178 1444h-26q-299 -685 -687 -1444z" />
    <glyph glyph-name="wdieresis" unicode="&#x1e85;" horiz-adv-x="1851" 
d="M893 1376q-37 0 -60.5 24.5t-23.5 61.5q0 46 36.5 81.5t82.5 35.5q37 0 60.5 -23.5t23.5 -56.5q0 -48 -36 -85.5t-83 -37.5zM1243 1376q-38 0 -61 24t-23 60q0 47 36 83t83 36q36 0 60 -24t24 -58q0 -46 -36.5 -83.5t-82.5 -37.5zM477 0h-125l-215 1128h135
q6 -36 33.5 -188t37.5 -211.5t30 -180t33 -219.5t24 -204h25q41 88 88 185t78.5 161t91.5 180t78.5 152t91 172.5t80.5 152.5h124q45 -235 64.5 -340.5t50.5 -299t51 -363.5h25q76 169 175 369t150 298t177 336h135l-612 -1128h-129q-118 617 -168 983h-11
q-223 -446 -518 -983z" />
    <glyph glyph-name="uni1E9E" unicode="&#x1e9e;" horiz-adv-x="1542" 
d="M231 0h-131l168 944q8 46 15 80t23 91.5t34.5 101t49.5 99.5t68 98t90.5 84.5t115.5 70t145 44.5t178 17q235 0 364.5 -98t129.5 -275q0 -168 -108.5 -294.5t-276.5 -143.5l-4 -24q143 0 233 -81.5t90 -230.5q0 -95 -39 -180.5t-114.5 -154t-198.5 -108.5t-279 -40h-163
l20 119h190q208 0 327.5 101t119.5 255q0 132 -89.5 201t-246.5 69h-106l18 111h119q159 0 262.5 107.5t103.5 261.5q0 143 -96.5 218t-275.5 75q-75 0 -140 -14t-114 -35.5t-91 -56.5t-70.5 -67.5t-53 -78t-38.5 -79t-27 -80t-18 -71t-12 -61.5z" />
    <glyph glyph-name="Ygrave" unicode="&#x1ef2;" horiz-adv-x="1404" 
d="M993 1720h-114l-283 322h190zM668 0h-131q7 35 25 135.5t28.5 157.5t28.5 143t34 154q-195 434 -432 1007h144q84 -204 123.5 -301.5t108 -279.5t116.5 -332h22q54 79 115 165t106 148t118.5 160t106 141t119 155.5t109.5 143.5h139q-55 -71 -172.5 -224t-193.5 -251
t-193 -246.5t-227 -285.5q-24 -190 -94 -590z" />
    <glyph glyph-name="ygrave" unicode="&#x1ef3;" horiz-adv-x="1101" 
d="M725 1278h-109l-241 393h172zM254 -451h-113l250 439l-258 1140h133q124 -536 195 -1026h22q248 497 553 1026h133z" />
    <glyph glyph-name="uni2000" unicode="&#x2000;" horiz-adv-x="1024" 
 />
    <glyph glyph-name="uni2001" unicode="&#x2001;" 
 />
    <glyph glyph-name="uni2002" unicode="&#x2002;" horiz-adv-x="1024" 
 />
    <glyph glyph-name="uni2003" unicode="&#x2003;" 
 />
    <glyph glyph-name="uni2004" unicode="&#x2004;" horiz-adv-x="681" 
 />
    <glyph glyph-name="uni2005" unicode="&#x2005;" horiz-adv-x="512" 
 />
    <glyph glyph-name="uni2006" unicode="&#x2006;" horiz-adv-x="342" 
 />
    <glyph glyph-name="uni2007" unicode="&#x2007;" horiz-adv-x="567" 
 />
    <glyph glyph-name="uni2008" unicode="&#x2008;" horiz-adv-x="464" 
 />
    <glyph glyph-name="uni2009" unicode="&#x2009;" horiz-adv-x="256" 
 />
    <glyph glyph-name="uni200A" unicode="&#x200a;" horiz-adv-x="86" 
 />
    <glyph glyph-name="uni200B" unicode="&#x200b;" horiz-adv-x="0" 
 />
    <glyph glyph-name="endash" unicode="&#x2013;" horiz-adv-x="1003" 
d="M887 569h-770l18 109h770z" />
    <glyph glyph-name="emdash" unicode="&#x2014;" horiz-adv-x="1431" 
d="M1317 571h-1200l18 105h1200z" />
    <glyph glyph-name="quoteleft" unicode="&#x2018;" horiz-adv-x="458" 
d="M471 1630h80q-38 -57 -60.5 -89t-59.5 -76t-79 -83q88 -14 88 -84q0 -48 -38.5 -86t-90.5 -38q-38 0 -63 25t-25 63q0 39 41.5 99.5t206.5 268.5z" />
    <glyph glyph-name="quoteright" unicode="&#x2019;" horiz-adv-x="464" 
d="M305 1178h-82q102 160 203 252q-90 16 -90 81q0 48 38.5 85.5t90.5 37.5q38 0 62 -24.5t24 -61.5q0 -39 -42 -101.5t-204 -268.5z" />
    <glyph glyph-name="quotesinglbase" unicode="&#x201a;" horiz-adv-x="434" 
d="M18 -256h-81q39 59 60.5 89.5t59 75t78.5 83.5q-86 14 -86 84q0 50 38.5 87.5t90.5 37.5q38 0 62 -25t24 -63q0 -39 -41.5 -100.5t-204.5 -268.5z" />
    <glyph glyph-name="quotedblleft" unicode="&#x201c;" horiz-adv-x="768" 
d="M471 1630h80q-38 -57 -60.5 -89t-59.5 -76t-79 -83q88 -14 88 -84q0 -48 -38.5 -86t-90.5 -38q-38 0 -63 25t-25 63q0 39 41.5 99.5t206.5 268.5zM780 1630h82q-39 -59 -60.5 -89.5t-59 -75t-78.5 -83.5q86 -14 86 -84q0 -48 -38.5 -86t-90.5 -38q-38 0 -62 25t-24 63
q0 39 41 100.5t204 267.5z" />
    <glyph glyph-name="quotedblright" unicode="&#x201d;" horiz-adv-x="776" 
d="M305 1178h-82q104 161 199 247q-86 14 -86 86q0 48 38.5 85.5t90.5 37.5q38 0 62 -24.5t24 -61.5q0 -39 -40.5 -99.5t-205.5 -270.5zM614 1178h-79q41 61 61 90.5t58 74t79 82.5q-86 14 -86 86q0 48 38 85.5t89 37.5q38 0 63 -24.5t25 -61.5q0 -39 -41 -99.5t-207 -270.5
z" />
    <glyph glyph-name="quotedblbase" unicode="&#x201e;" horiz-adv-x="745" 
d="M18 -252h-81l63 91t56.5 72.5t78.5 84.5q-86 14 -86 84q0 48 38.5 86.5t90.5 38.5q38 0 63 -25t25 -63q0 -39 -42 -101t-206 -268zM330 -252h-82q39 59 60.5 89.5t59 75t78.5 83.5q-86 14 -86 84q0 48 38.5 86.5t90.5 38.5q38 0 62 -25t24 -63q0 -39 -41.5 -101.5
t-203.5 -267.5z" />
    <glyph glyph-name="dagger" unicode="&#x2020;" horiz-adv-x="995" 
d="M535 430h-121q5 28 26.5 149.5t29 160.5t24.5 130.5t33 165t36 158.5q-131 -14 -360 -14l18 112q229 0 354 -12q13 144 52 358h121q-39 -225 -78 -358q131 12 360 12l-18 -112q-230 0 -357 14q-39 -301 -120 -764z" />
    <glyph glyph-name="daggerdbl" unicode="&#x2021;" horiz-adv-x="1089" 
d="M1075 1292l-20 -112q-234 0 -369 22q13 -164 -51 -348q139 25 366 25l-20 -115q-231 0 -358 22q-2 -130 -43 -366h-121q2 8 11 57t12 62.5t11.5 54.5t15 64.5t17 59t21.5 68.5q-135 -22 -371 -22l21 115q229 0 362 -25q-3 171 62 348q-135 -22 -371 -22l20 112
q236 0 363 -22q2 144 41 368h121q-34 -212 -97 -368q145 22 377 22z" />
    <glyph glyph-name="bullet" unicode="&#x2022;" horiz-adv-x="776" 
d="M365 428q-69 0 -113.5 45.5t-44.5 112.5q0 89 69 156t160 67q67 0 110.5 -44t43.5 -110q0 -87 -69 -157t-156 -70z" />
    <glyph glyph-name="ellipsis" unicode="&#x2026;" horiz-adv-x="1316" 
d="M150 -14q-39 0 -65 25.5t-26 62.5q0 51 39 89t90 38q38 0 62 -24.5t24 -61.5q0 -50 -37.5 -89.5t-86.5 -39.5zM573 -14q-39 0 -63.5 25.5t-24.5 62.5q0 51 39 89t90 38q38 0 62 -24.5t24 -61.5q0 -50 -38.5 -89.5t-88.5 -39.5zM999 -14q-39 0 -63.5 25.5t-24.5 62.5
q0 51 39 89t90 38q38 0 62 -24.5t24 -61.5q0 -50 -39 -89.5t-88 -39.5z" />
    <glyph glyph-name="uni202F" unicode="&#x202f;" horiz-adv-x="407" 
 />
    <glyph glyph-name="perthousand" unicode="&#x2030;" horiz-adv-x="2340" 
d="M383 797q-98 0 -153.5 72.5t-55.5 197.5q0 114 43.5 218.5t123 171.5t173.5 67q98 0 154.5 -74.5t56.5 -200.5q0 -113 -44 -217t-124 -169.5t-174 -65.5zM227 0h-116l1396 1468h109zM397 889q88 0 153.5 109.5t65.5 246.5q0 88 -31 136.5t-85 48.5q-57 0 -108 -51.5
t-81 -134t-30 -171.5q0 -88 30.5 -136t85.5 -48zM1202 -29q-98 0 -153.5 73t-55.5 198q0 114 43.5 218.5t123 171t173.5 66.5q98 0 154.5 -74t56.5 -200q0 -113 -44 -217t-124 -170t-174 -66zM1890 -29q-98 0 -153.5 73t-55.5 198q0 114 43.5 218.5t123 171t173.5 66.5
q98 0 154.5 -74t56.5 -200q0 -113 -44 -217t-124 -170t-174 -66zM1217 63q88 0 153.5 110t65.5 247q0 88 -31 136t-86 48q-57 0 -108 -51t-81 -133.5t-30 -171.5q0 -88 31 -136.5t86 -48.5zM1905 63q88 0 153.5 110t65.5 247q0 88 -31 136t-86 48q-57 0 -108 -51t-81 -133.5
t-30 -171.5q0 -88 31 -136.5t86 -48.5z" />
    <glyph glyph-name="guilsinglleft" unicode="&#x2039;" horiz-adv-x="739" 
d="M528 164h-143l-268 405l2 9l411 405h144q-201 -194 -286 -266q-76 -64 -152 -117l-9 -53q82 -76 149 -165t152 -218z" />
    <glyph glyph-name="guilsinglright" unicode="&#x203a;" horiz-adv-x="739" 
d="M215 164h-145q7 6 43.5 41.5t47 46t44 42.5t49 46t46 42t51.5 45t49 40t54 42.5t52 37.5l8 53q-56 54 -113 124t-93 121.5t-93 137.5h145l269 -405l-2 -9z" />
    <glyph glyph-name="fraction" unicode="&#x2044;" horiz-adv-x="276" 
d="M-461 0h-117l1397 1468h109z" />
    <glyph glyph-name="uni205F" unicode="&#x205f;" horiz-adv-x="454" 
 />
    <glyph glyph-name="uni2070" unicode="&#x2070;" horiz-adv-x="688" 
d="M383 797q-98 0 -153.5 72.5t-55.5 197.5q0 114 43.5 218.5t123 171.5t173.5 67q98 0 154.5 -74.5t56.5 -200.5q0 -113 -44 -217t-124 -169.5t-174 -65.5zM397 889q88 0 153.5 109.5t65.5 246.5q0 88 -31 136.5t-85 48.5q-57 0 -108 -51.5t-81 -134t-30 -171.5
q0 -88 30.5 -136t85.5 -48z" />
    <glyph glyph-name="uni2074" unicode="&#x2074;" horiz-adv-x="649" 
d="M535 811h-99l29 160h-346l14 86l428 452h96l-79 -452h98l-17 -86h-98zM535 1376l-302 -319h246z" />
    <glyph glyph-name="uni2075" unicode="&#x2075;" horiz-adv-x="636" 
d="M352 797q-90 0 -154.5 43t-76.5 116l96 45q10 -55 52.5 -86.5t97.5 -31.5q75 0 128.5 54.5t53.5 125.5q0 56 -34 88.5t-89 32.5q-92 0 -156 -82l-80 24l150 383h356l-14 -86h-285l-90 -227q29 29 75.5 46.5t88.5 17.5q78 0 132 -48t54 -133q0 -115 -90 -198.5t-215 -83.5
z" />
    <glyph glyph-name="uni2076" unicode="&#x2076;" horiz-adv-x="663" 
d="M381 797q-100 0 -157.5 63t-57.5 182t54.5 230.5t148.5 181.5t200 70q113 0 164 -62l-67 -67q-41 41 -115 41q-93 0 -167 -74.5t-101 -206.5h2q28 50 85.5 79.5t116.5 29.5q82 0 138.5 -52t56.5 -137q0 -109 -88 -193.5t-213 -84.5zM401 883q71 0 127 55t56 127
q0 55 -36.5 91t-92.5 36q-70 0 -125.5 -55.5t-55.5 -126.5q0 -56 36 -91.5t91 -35.5z" />
    <glyph glyph-name="uni2077" unicode="&#x2077;" horiz-adv-x="555" 
d="M297 811h-107q25 139 130.5 321.5t240.5 297.5h-375l15 88h493l-16 -93q-142 -109 -249 -288.5t-132 -325.5z" />
    <glyph glyph-name="uni2078" unicode="&#x2078;" horiz-adv-x="653" 
d="M367 797q-98 0 -157.5 48.5t-59.5 123.5q0 70 47.5 130t115.5 77l2 4q-79 39 -79 123q0 87 76.5 154t183.5 67q85 0 139.5 -44t54.5 -116q0 -60 -36 -110.5t-95 -73.5l-2 -4q48 -14 76.5 -51.5t28.5 -90.5q0 -98 -85.5 -167.5t-209.5 -69.5zM442 1214q61 0 107.5 41.5
t46.5 94.5q0 43 -31.5 69.5t-81.5 26.5q-61 0 -105 -39t-44 -92q0 -44 29.5 -72.5t78.5 -28.5zM385 885q72 0 122 46t50 111q0 47 -33 75t-92 28q-75 0 -124.5 -42.5t-49.5 -105.5q0 -53 35 -82.5t92 -29.5z" />
    <glyph glyph-name="uni2079" unicode="&#x2079;" horiz-adv-x="673" 
d="M340 797q-135 0 -201 100l70 66q55 -80 147 -80q95 0 158 79.5t86 202.5h-2q-29 -56 -87 -87t-118 -31q-85 0 -139.5 52t-54.5 140q0 116 91 200.5t218 84.5q93 0 150 -57.5t57 -188.5q0 -123 -50 -233.5t-137 -179t-188 -68.5zM420 1118q74 0 132 61.5t58 137.5
q0 57 -36.5 91t-92.5 34q-75 0 -129.5 -58t-54.5 -135q0 -59 34 -95t89 -36z" />
    <glyph glyph-name="uni2080" unicode="&#x2080;" horiz-adv-x="688" 
d="M193 -285q-98 0 -153.5 73t-55.5 198q0 114 43.5 218.5t123 171t173.5 66.5q98 0 154.5 -74t56.5 -200q0 -113 -44 -217t-124 -170t-174 -66zM207 -193q88 0 153.5 110t65.5 247q0 88 -31 136t-86 48q-57 0 -108 -51t-81 -133.5t-30 -171.5q0 -88 31 -136.5t86 -48.5z
" />
    <glyph glyph-name="uni2081" unicode="&#x2081;" horiz-adv-x="434" 
d="M154 -270h-101l92 520q-76 -68 -168 -84l19 102q71 18 123 62t61 98h96z" />
    <glyph glyph-name="uni2082" unicode="&#x2082;" horiz-adv-x="626" 
d="M406 -270h-469l2 10q30 115 83 173.5t203 147.5q162 99 162 195q0 42 -29 68t-79 26q-67 0 -118.5 -46t-64.5 -122l-90 17q19 107 101 175t190 68q88 0 142.5 -46.5t54.5 -123.5q0 -138 -175 -247q-23 -15 -60 -37.5t-57.5 -36t-45.5 -33t-42.5 -42.5t-29.5 -52h338z" />
    <glyph glyph-name="uni2083" unicode="&#x2083;" horiz-adv-x="638" 
d="M166 -285q-92 0 -154 44t-71 116l94 43q11 -55 47.5 -86t97.5 -31q70 0 118 43.5t48 102.5q0 49 -36 75.5t-101 26.5h-70l15 76h73q68 0 114 38.5t46 96.5q0 42 -32 68t-83 26q-57 0 -100 -32.5t-63 -90.5l-89 21q26 84 104 137t171 53q85 0 141 -42t56 -111
q0 -65 -43.5 -121.5t-104.5 -71.5q49 -11 80 -47t31 -88q0 -99 -85 -172.5t-204 -73.5z" />
    <glyph glyph-name="uni2084" unicode="&#x2084;" horiz-adv-x="649" 
d="M344 -270h-98l28 159h-346l15 86l428 453h96l-80 -453h98l-16 -86h-98zM344 295l-301 -320h246z" />
    <glyph glyph-name="uni2085" unicode="&#x2085;" horiz-adv-x="636" 
d="M162 -285q-90 0 -155 43.5t-77 116.5l97 45q10 -55 52 -87t97 -32q75 0 128.5 55t53.5 126q0 56 -33.5 88t-88.5 32q-92 0 -156 -82l-80 25l150 383h356l-14 -86h-285l-90 -227q28 28 74.5 45.5t89.5 17.5q78 0 132 -47.5t54 -132.5q0 -116 -90.5 -199.5t-214.5 -83.5z
" />
    <glyph glyph-name="uni2086" unicode="&#x2086;" horiz-adv-x="663" 
d="M190 -285q-100 0 -157.5 63.5t-57.5 182.5t54.5 230t149 181t200.5 70q113 0 164 -61l-68 -68q-41 41 -115 41q-93 0 -167 -74t-101 -206h2q28 49 86 78.5t117 29.5q82 0 138.5 -51.5t56.5 -136.5q0 -109 -88.5 -194t-213.5 -85zM211 -199q71 0 126.5 55.5t55.5 127.5
q0 55 -36.5 91t-92.5 36q-70 0 -125 -56t-55 -127q0 -56 36 -91.5t91 -35.5z" />
    <glyph glyph-name="uni2087" unicode="&#x2087;" horiz-adv-x="555" 
d="M106 -270h-106q25 139 130.5 321t240.5 297h-375l14 88h494l-17 -92q-142 -109 -249 -288.5t-132 -325.5z" />
    <glyph glyph-name="uni2088" unicode="&#x2088;" horiz-adv-x="653" 
d="M176 -285q-98 0 -157.5 48.5t-59.5 123.5q0 70 48 130t116 77l2 4q-80 39 -80 123q0 87 76.5 154t183.5 67q86 0 140.5 -44t54.5 -115q0 -60 -36 -111t-95 -74l-2 -4q48 -14 76 -51t28 -90q0 -98 -86 -168t-209 -70zM252 133q61 0 107.5 41t46.5 94q0 43 -31.5 70
t-81.5 27q-61 0 -105.5 -39.5t-44.5 -92.5q0 -43 30 -71.5t79 -28.5zM195 -197q72 0 122 46.5t50 111.5q0 47 -33 74.5t-92 27.5q-75 0 -124.5 -42t-49.5 -105q0 -53 35 -83t92 -30z" />
    <glyph glyph-name="uni2089" unicode="&#x2089;" horiz-adv-x="673" 
d="M150 -285q-134 0 -201 101l69 65q55 -80 148 -80q94 0 157.5 80t86.5 203h-2q-29 -56 -87 -87.5t-118 -31.5q-85 0 -140 52.5t-55 140.5q0 116 91 200t218 84q94 0 150.5 -57t56.5 -188q0 -123 -49.5 -234t-136.5 -179.5t-188 -68.5zM229 37q74 0 132.5 61.5t58.5 137.5
q0 57 -36.5 90.5t-92.5 33.5q-75 0 -130 -57.5t-55 -134.5q0 -59 34 -95t89 -36z" />
    <glyph glyph-name="Euro" unicode="&#x20ac;" horiz-adv-x="1619" 
d="M954 -35q-289 0 -442.5 159.5t-144.5 436.5q-98 -20 -248 -20l16 102q143 0 223 -22q-13 153 54 290q-90 -22 -232 -22l17 100q149 0 239 -20q86 278 293 445t500 167q283 0 434 -158l-111 -94q-125 133 -350 133q-223 0 -395 -129.5t-279 -363.5q252 20 705 20l-19 -100
q-475 0 -714 22q-11 -170 -49 -290q247 22 720 22l-18 -102q-448 0 -692 20q31 -235 162 -356t360 -121q206 0 399 131l68 -92q-208 -158 -496 -158z" />
    <glyph glyph-name="trademark" unicode="&#x2122;" horiz-adv-x="1556" 
d="M461 942h-94l102 586h-223l16 88h539l-17 -88h-219zM895 942h-94l119 674h94q13 -55 60 -243t71 -288q63 103 183.5 306t133.5 225h94l-118 -674h-97l82 461q-32 -53 -82.5 -139t-183.5 -308h-74q-15 63 -35.5 152.5t-70.5 298.5z" />
    <glyph glyph-name="oneeighth" unicode="&#x215b;" horiz-adv-x="1363" 
d="M344 811h-100l92 520q-76 -68 -168 -84l18 103q71 18 123.5 61.5t61.5 97.5h96zM-27 0h-116l1396 1468h109zM932 -29q-98 0 -157.5 48.5t-59.5 123.5q0 70 48 130t116 77l2 4q-80 39 -80 123q0 87 76.5 154t183.5 67q85 0 139.5 -44t54.5 -115q0 -60 -36 -111t-95 -74
l-2 -4q48 -14 76.5 -51t28.5 -90q0 -98 -86 -168t-209 -70zM1008 389q61 0 107 41t46 94q0 43 -31.5 70t-80.5 27q-61 0 -105.5 -39.5t-44.5 -92.5q0 -43 30 -71.5t79 -28.5zM950 59q72 0 122 46.5t50 111.5q0 47 -33 74.5t-92 27.5q-75 0 -124.5 -42t-49.5 -105
q0 -53 35 -83t92 -30z" />
    <glyph glyph-name="threeeighths" unicode="&#x215c;" horiz-adv-x="1568" 
d="M356 797q-92 0 -154 43.5t-71 115.5l94 43q11 -54 48 -85t98 -31q70 0 118 43t48 102q0 49 -36.5 75.5t-101.5 26.5h-69l14 76h74q68 0 114 38.5t46 96.5q0 43 -32 69t-83 26q-57 0 -100.5 -32.5t-63.5 -90.5l-88 20q26 84 103.5 137.5t170.5 53.5q85 0 141 -42.5
t56 -111.5q0 -65 -43 -121t-104 -71q49 -11 79.5 -47t30.5 -89q0 -99 -85 -172t-204 -73zM178 0h-117l1397 1468h109zM1137 -29q-98 0 -157.5 48.5t-59.5 123.5q0 70 47.5 130t115.5 77l2 4q-79 39 -79 123q0 87 76.5 154t183.5 67q85 0 139.5 -44t54.5 -115q0 -60 -36 -111
t-95 -74l-2 -4q48 -14 76.5 -51t28.5 -90q0 -98 -86 -168t-209 -70zM1212 389q61 0 107.5 41t46.5 94q0 43 -31.5 70t-81.5 27q-61 0 -105 -39.5t-44 -92.5q0 -43 29.5 -71.5t78.5 -28.5zM1155 59q72 0 122 46.5t50 111.5q0 47 -33 74.5t-92 27.5q-75 0 -124.5 -42
t-49.5 -105q0 -53 35 -83t92 -30z" />
    <glyph glyph-name="fiveeighths" unicode="&#x215d;" horiz-adv-x="1566" 
d="M352 797q-90 0 -154.5 43t-76.5 116l96 45q10 -55 52.5 -86.5t97.5 -31.5q75 0 128.5 54.5t53.5 125.5q0 56 -34 88.5t-89 32.5q-92 0 -156 -82l-80 24l150 383h356l-14 -86h-285l-90 -227q29 29 75.5 46.5t88.5 17.5q78 0 132 -48t54 -133q0 -115 -90 -198.5t-215 -83.5
zM176 0h-117l1397 1468h109zM1135 -29q-98 0 -157.5 48.5t-59.5 123.5q0 70 47.5 130t115.5 77l2 4q-79 39 -79 123q0 87 76.5 154t183.5 67q85 0 139.5 -44t54.5 -115q0 -60 -36 -111t-95 -74l-2 -4q48 -14 76.5 -51t28.5 -90q0 -98 -86 -168t-209 -70zM1210 389
q61 0 107.5 41t46.5 94q0 43 -31.5 70t-81.5 27q-61 0 -105 -39.5t-44 -92.5q0 -43 29.5 -71.5t78.5 -28.5zM1153 59q72 0 122 46.5t50 111.5q0 47 -33 74.5t-92 27.5q-75 0 -124.5 -42t-49.5 -105q0 -53 35 -83t92 -30z" />
    <glyph glyph-name="seveneighths" unicode="&#x215e;" horiz-adv-x="1484" 
d="M297 811h-107q25 139 130.5 321.5t240.5 297.5h-375l15 88h493l-16 -93q-142 -109 -249 -288.5t-132 -325.5zM94 0h-117l1397 1468h109zM1053 -29q-98 0 -157.5 48.5t-59.5 123.5q0 70 47.5 130t115.5 77l2 4q-79 39 -79 123q0 87 76.5 154t183.5 67q85 0 139.5 -44
t54.5 -115q0 -60 -36 -111t-95 -74l-2 -4q48 -14 76.5 -51t28.5 -90q0 -98 -86 -168t-209 -70zM1128 389q61 0 107.5 41t46.5 94q0 43 -31.5 70t-81.5 27q-61 0 -105 -39.5t-44 -92.5q0 -43 29.5 -71.5t78.5 -28.5zM1071 59q72 0 122 46.5t50 111.5q0 47 -33 74.5t-92 27.5
q-75 0 -124.5 -42t-49.5 -105q0 -53 35 -83t92 -30z" />
    <glyph glyph-name="arrowleft" unicode="&#x2190;" horiz-adv-x="1425" 
d="M545 236h-144l-268 405l2 8l412 406h143q-14 -13 -70 -66.5t-81 -77t-73.5 -68t-94 -83t-95.5 -78.5q356 23 1049 23l-20 -121q-247 0 -361.5 0.5t-315.5 6t-364 17.5q133 -154 281 -372z" />
    <glyph glyph-name="arrowup" unicode="&#x2191;" horiz-adv-x="995" 
d="M463 20h-121q6 35 27 151t29 159t26 141.5t29.5 155t28.5 139.5t33 155.5t34 145.5q-208 -184 -434 -348l26 143l465 340h8l347 -340l-27 -143q-187 183 -311 346q-38 -356 -160 -1045z" />
    <glyph glyph-name="arrowright" unicode="&#x2192;" horiz-adv-x="1421" 
d="M907 236h-143q7 7 37.5 36t39 37.5t36.5 34.5t39.5 36.5t37.5 34.5t41.5 38t41 36t45.5 39.5t45.5 38.5t50.5 41q-344 -24 -1049 -24l21 121q692 0 1042 -23q-64 72 -119 142.5t-84 112.5t-80 118h144l268 -406l-2 -8z" />
    <glyph glyph-name="arrowdown" unicode="&#x2193;" horiz-adv-x="999" 
d="M410 20h-9l-346 340l27 144q72 -74 102.5 -105.5t92.5 -102t114 -140.5q9 76 19 151t22.5 159t21.5 142.5t25 155t23 140.5t26 154t25 144h119q-117 -677 -205 -1044q214 190 434 346l-27 -144z" />
    <glyph glyph-name="arrowboth" unicode="&#x2194;" horiz-adv-x="1783" 
d="M543 231h-146l-268 406l2 8l412 406h145q-4 -4 -391 -375q620 34 1231 0q-39 58 -114.5 167.5t-141.5 207.5h143l268 -406l-2 -8l-411 -406h-144q206 202 387 373q-617 -34 -1226 0q28 -39 256 -373z" />
    <glyph glyph-name="arrowupdn" unicode="&#x2195;" horiz-adv-x="1089" 
d="M453 2h-9l-348 334l27 141q256 -256 315 -317q68 559 189 1069q-291 -219 -430 -320l26 142l465 335h8l346 -335l-26 -142q-48 49 -152 153t-164 165q-62 -545 -186 -1065q77 59 151 113.5t153.5 111.5t123.5 90l-27 -141z" />
    <glyph glyph-name="uni2196" unicode="&#x2196;" horiz-adv-x="1218" 
d="M1067 137l-102 -59q-431 508 -662 823q-25 -195 -96 -457l-94 113l129 467l6 4l573 -61l94 -113q-328 39 -550 86q116 -122 249.5 -273.5t210 -242t242.5 -287.5z" />
    <glyph glyph-name="uni2197" unicode="&#x2197;" horiz-adv-x="1120" 
d="M154 78l-105 59q23 27 99 117t104.5 123t93.5 109t103.5 119.5t94.5 107t106 118t102 109.5q-221 -47 -551 -86l96 113l571 61l9 -4l129 -467l-95 -113q-71 262 -96 457q-238 -324 -661 -823z" />
    <glyph glyph-name="uni2198" unicode="&#x2198;" horiz-adv-x="1224" 
d="M168 1083l104 60q433 -516 662 -824q25 195 96 457l94 -112l-129 -467l-8 -4l-573 61l-95 113q325 -39 551 -86q-116 123 -247 271t-214.5 246t-240.5 285z" />
    <glyph glyph-name="uni2199" unicode="&#x2199;" horiz-adv-x="1122" 
d="M985 1143l105 -60q-15 -18 -87 -102.5t-91.5 -107.5t-82 -96.5t-90 -105t-82.5 -94t-91.5 -103t-85 -93t-93.5 -100.5q226 47 551 86l-96 -113l-572 -61l-8 4l-129 467l94 112q73 -269 97 -457q236 318 661 824z" />
    <glyph glyph-name="emptyset" unicode="&#x2205;" horiz-adv-x="1423" 
d="M1264 1257l73 -59l-155 -176q121 -131 121 -340q0 -139 -54.5 -270t-147 -229.5t-222.5 -158t-273 -59.5q-167 0 -289 80l-155 -174l-74 61l156 177q-123 129 -123 342q0 185 92 349t254 264.5t352 100.5q167 0 291 -82zM250 469q0 -155 84 -260l688 776q-92 64 -221 64
q-111 0 -213.5 -48.5t-176 -128.5t-117.5 -186t-44 -217zM1176 659q0 155 -84 263l-686 -777q94 -63 223 -63q111 0 213 48t174.5 127.5t116 185t43.5 216.5z" />
    <glyph glyph-name="minus" unicode="&#x2212;" horiz-adv-x="991" 
d="M856 569h-719l21 113h716z" />
    <glyph glyph-name="infinity" unicode="&#x221e;" horiz-adv-x="1851" 
d="M444 287q-133 0 -217 77.5t-84 202.5q0 103 58 194.5t155.5 146.5t206.5 55q54 0 99.5 -14.5t93 -52t88.5 -80t106 -118.5q176 147 277.5 206t204.5 59q129 0 213 -76t84 -203q0 -158 -124 -277.5t-294 -119.5q-55 0 -100.5 14.5t-92.5 50.5t-89 80t-105 119
q-175 -148 -274.5 -206t-205.5 -58zM453 393q44 0 83.5 10.5t85.5 38.5t72.5 47t86 67.5t85.5 68.5q-21 22 -53.5 58.5t-50.5 56t-47 45.5t-52.5 39t-55.5 22.5t-68 9.5q-117 0 -196 -80t-79 -196q0 -91 51 -139t138 -48zM1337 393q115 0 193 80.5t78 196.5q0 90 -49 138
t-138 48q-44 0 -83.5 -10.5t-84.5 -38t-72 -46.5t-86 -67.5t-85 -68.5q19 -20 52 -57.5t50.5 -56.5t47 -45.5t53 -39.5t56 -23t68.5 -10z" />
    <glyph glyph-name="approxequal" unicode="&#x2248;" horiz-adv-x="1052" 
d="M299 729h-111q20 119 99.5 183.5t171.5 64.5q42 0 76 -14.5t56.5 -34.5t42.5 -40.5t45 -35t54 -14.5q53 0 84 40t41 99h111q-21 -122 -91 -185t-163 -63q-44 0 -78.5 14.5t-57 35.5t-42.5 41.5t-46 35t-57 14.5q-55 0 -89.5 -39.5t-45.5 -101.5zM227 313h-112
q22 119 100.5 183.5t171.5 64.5q41 0 74.5 -14.5t55.5 -35.5t42 -41.5t45 -35t55 -14.5q51 0 82 39t43 100h113q-22 -122 -93 -185t-163 -63q-44 0 -78.5 14.5t-56.5 35.5t-42.5 42t-46 35.5t-55.5 14.5q-55 0 -90 -40t-45 -100z" />
    <glyph glyph-name="notequal" unicode="&#x2260;" horiz-adv-x="1038" 
d="M936 887l-21 -113h-264q-53 -161 -164 -303h375l-18 -113h-416q-13 -67 -76 -184h-110q66 124 120 184h-239l20 113h279q56 164 162 303h-387l18 113h430q4 21 12.5 46.5t15.5 39.5t23 46.5t21 41.5h110q-4 -8 -16.5 -30t-20 -34.5t-20 -32.5t-26.5 -39t-31 -38h223z" />
    <glyph glyph-name="lessequal" unicode="&#x2264;" horiz-adv-x="1032" 
d="M834 354h-711l16 101h479l-446 180l21 113l743 182l-21 -111l-587 -139l524 -225z" />
    <glyph glyph-name="greaterequal" unicode="&#x2265;" horiz-adv-x="1034" 
d="M840 354h-713l18 101l600 225l-534 139l18 111l678 -182l-18 -113l-512 -180h479z" />
    <glyph glyph-name="lozenge" unicode="&#x25ca;" horiz-adv-x="1159" 
d="M526 0h-90l-291 694l537 692h90l291 -692zM279 694l223 -549h8l420 549l-225 547h-7z" />
    <glyph glyph-name="A.ss01" horiz-adv-x="1507" 
d="M72 0h-140l914 1597h182l348 -1597h-139q-31 134 -44 192.5t-34 175t-29 210.5l-16 18q-255 -23 -348 -23q-134 0 -354 23l-23 -21q-113 -224 -317 -575zM453 688l10 -20q192 20 328 20t286 -20l15 18q-39 178 -56.5 263t-42 244t-32.5 292h-89q-59 -136 -136.5 -286.5
t-132.5 -248.5t-150 -262z" />
    <glyph glyph-name="Aacute.ss01" horiz-adv-x="1507" 
d="M1389 2042l-396 -322h-114l319 322h191zM72 0h-140l914 1597h182l348 -1597h-139q-31 134 -44 192.5t-34 175t-29 210.5l-16 18q-255 -23 -348 -23q-134 0 -354 23l-23 -21q-113 -224 -317 -575zM453 688l10 -20q192 20 328 20t286 -20l15 18q-39 178 -56.5 263t-42 244
t-32.5 292h-89q-59 -136 -136.5 -286.5t-132.5 -248.5t-150 -262z" />
    <glyph glyph-name="Abreve.ss01" horiz-adv-x="1507" 
d="M958 1726q-83 0 -149 29t-104 76t-55.5 103.5t-10.5 113.5h115q-9 -85 53.5 -151t167.5 -66q106 0 193 65.5t110 151.5h113q-13 -57 -50 -113.5t-91.5 -103.5t-131 -76t-160.5 -29zM72 0h-140l914 1597h182l348 -1597h-139q-31 134 -44 192.5t-34 175t-29 210.5l-16 18
q-255 -23 -348 -23q-134 0 -354 23l-23 -21q-113 -224 -317 -575zM453 688l10 -20q192 20 328 20t286 -20l15 18q-39 178 -56.5 263t-42 244t-32.5 292h-89q-59 -136 -136.5 -286.5t-132.5 -248.5t-150 -262z" />
    <glyph glyph-name="Acircumflex.ss01" horiz-adv-x="1507" 
d="M727 1720h-115l318 303h162l215 -303h-115q-46 52 -67 76.5t-50.5 70.5t-48.5 95h-47q-17 -22 -33.5 -41.5t-38.5 -41t-34 -34t-39 -36t-33.5 -29t-39 -32t-34.5 -28.5zM72 0h-140l914 1597h182l348 -1597h-139q-31 134 -44 192.5t-34 175t-29 210.5l-16 18
q-255 -23 -348 -23q-134 0 -354 23l-23 -21q-113 -224 -317 -575zM453 688l10 -20q192 20 328 20t286 -20l15 18q-39 178 -56.5 263t-42 244t-32.5 292h-89q-59 -136 -136.5 -286.5t-132.5 -248.5t-150 -262z" />
    <glyph glyph-name="Adieresis.ss01" horiz-adv-x="1507" 
d="M776 1790q-38 0 -62 24.5t-24 61.5q0 47 37 83t84 36q37 0 60.5 -23.5t23.5 -58.5q0 -48 -36 -85.5t-83 -37.5zM1165 1790q-38 0 -62 24t-24 60q0 49 36.5 85t86.5 36q36 0 60 -24t24 -60q0 -46 -37 -83.5t-84 -37.5zM72 0h-140l914 1597h182l348 -1597h-139
q-31 134 -44 192.5t-34 175t-29 210.5l-16 18q-255 -23 -348 -23q-134 0 -354 23l-23 -21q-113 -224 -317 -575zM453 688l10 -20q192 20 328 20t286 -20l15 18q-39 178 -56.5 263t-42 244t-32.5 292h-89q-59 -136 -136.5 -286.5t-132.5 -248.5t-150 -262z" />
    <glyph glyph-name="Agrave.ss01" horiz-adv-x="1507" 
d="M1044 1720h-114l-283 322h191zM72 0h-140l914 1597h182l348 -1597h-139q-31 134 -44 192.5t-34 175t-29 210.5l-16 18q-255 -23 -348 -23q-134 0 -354 23l-23 -21q-113 -224 -317 -575zM453 688l10 -20q192 20 328 20t286 -20l15 18q-39 178 -56.5 263t-42 244t-32.5 292
h-89q-59 -136 -136.5 -286.5t-132.5 -248.5t-150 -262z" />
    <glyph glyph-name="Amacron.ss01" horiz-adv-x="1507" 
d="M1311 1835h-664l21 107h661zM72 0h-140l914 1597h182l348 -1597h-139q-31 134 -44 192.5t-34 175t-29 210.5l-16 18q-255 -23 -348 -23q-134 0 -354 23l-23 -21q-113 -224 -317 -575zM453 688l10 -20q192 20 328 20t286 -20l15 18q-39 178 -56.5 263t-42 244t-32.5 292
h-89q-59 -136 -136.5 -286.5t-132.5 -248.5t-150 -262z" />
    <glyph glyph-name="Aogonek.ss01" horiz-adv-x="1507" 
d="M1298 -373q39 0 93 15l-19 -91q-57 -14 -100 -14q-103 0 -167.5 50.5t-64.5 140.5q0 49 19 93t51.5 77.5t64.5 57.5t70 44h-8q-31 134 -44 192.5t-34 175t-29 210.5l-16 18q-255 -23 -348 -23q-134 0 -354 23l-23 -21q-113 -224 -317 -575h-140l914 1597h182l348 -1597
h-16q-89 -40 -153 -101.5t-64 -140.5q0 -60 43 -95.5t112 -35.5zM1077 668l15 18q-39 178 -56.5 263t-42 244t-32.5 292h-89q-59 -136 -136.5 -286.5t-132.5 -248.5t-150 -262l10 -20q192 20 328 20t286 -20z" />
    <glyph glyph-name="Aring.ss01" horiz-adv-x="1507" 
d="M958 1716q-85 0 -136.5 49t-51.5 129q0 102 78.5 178t187.5 76q83 0 135 -49.5t52 -128.5q0 -101 -78 -177.5t-187 -76.5zM973 1802q68 0 115 46t47 112q0 46 -32.5 74t-82.5 28q-67 0 -113.5 -45t-46.5 -110q0 -49 30.5 -77t82.5 -28zM72 0h-140l914 1597h182l348 -1597
h-139q-31 134 -44 192.5t-34 175t-29 210.5l-16 18q-255 -23 -348 -23q-134 0 -354 23l-23 -21q-113 -224 -317 -575zM453 688l10 -20q192 20 328 20t286 -20l15 18q-39 178 -56.5 263t-42 244t-32.5 292h-89q-59 -136 -136.5 -286.5t-132.5 -248.5t-150 -262z" />
    <glyph glyph-name="Atilde.ss01" horiz-adv-x="1507" 
d="M1112 1749q-36 0 -65 13t-42 24.5t-40 40.5l-35 31q-1 1 -8 8.5t-8.5 8.5t-8.5 7.5t-10 8t-9 6.5t-10.5 6.5t-11 3.5t-13 3t-13.5 1q-48 0 -84.5 -41.5t-48.5 -106.5h-95q20 109 89.5 176.5t160.5 67.5q30 0 56 -10.5t41.5 -23t37.5 -34.5l37 -36q53 -58 103 -58
q46 0 81 42t46 106h96q-21 -110 -86.5 -177t-159.5 -67zM72 0h-140l914 1597h182l348 -1597h-139q-31 134 -44 192.5t-34 175t-29 210.5l-16 18q-255 -23 -348 -23q-134 0 -354 23l-23 -21q-113 -224 -317 -575zM453 688l10 -20q192 20 328 20t286 -20l15 18
q-39 178 -56.5 263t-42 244t-32.5 292h-89q-59 -136 -136.5 -286.5t-132.5 -248.5t-150 -262z" />
    <glyph glyph-name="B.ss01" horiz-adv-x="1458" 
d="M762 0h-641l282 1597h566q212 0 326 -99.5t114 -250.5q0 -150 -101 -265.5t-264 -152.5l-6 -34q149 -24 220 -104.5t71 -198.5q0 -95 -45 -185t-120 -157.5t-181 -108.5t-221 -41zM383 860l14 -22q152 24 426 24q198 0 321.5 102.5t123.5 245.5q0 125 -96.5 197
t-256.5 72h-45.5h-49t-46 0.5t-50.5 1t-47.5 2.5t-53.5 4t-52 5.5t-57 8.5l-22 -18q-20 -294 -109 -623zM250 117l16 -21q174 23 471 23q203 0 328 104t125 250q0 125 -95.5 198.5t-260.5 73.5q-287 0 -447 23l-22 -20q-29 -335 -115 -631z" />
    <glyph glyph-name="C.ss01" horiz-adv-x="1720" 
d="M811 -35q-310 0 -493 180.5t-183 485.5q0 191 76 373.5t203.5 320t306.5 221.5t373 84q112 0 214 -28.5t187 -83.5t143 -145.5t76 -205.5l-127 -49q-39 185 -179.5 287t-336.5 102q-164 0 -313 -73.5t-253.5 -193t-166.5 -275.5t-62 -318q0 -139 46.5 -248t126.5 -176
t181.5 -101t217.5 -34q101 0 195.5 26.5t170.5 72t142 109t115 134.5t85 150l111 -43q-59 -121 -141 -222t-188 -181t-241 -124.5t-286 -44.5z" />
    <glyph glyph-name="D.ss01" horiz-adv-x="1650" 
d="M698 0h-577l282 1597h560q165 0 288 -44t198 -126.5t111.5 -193t36.5 -250.5q0 -150 -41 -294.5t-120 -268.5t-186.5 -218.5t-250 -148t-301.5 -53.5zM250 117l16 -21q172 23 455 23q165 0 305.5 70t233.5 185.5t145.5 265t52.5 308.5q0 260 -139 395.5t-404 135.5
q-266 0 -401 22l-22 -18q-85 -701 -242 -1366z" />
    <glyph glyph-name="E.ss01" horiz-adv-x="1345" 
d="M1143 0h-1022l282 1597h1002l-21 -118q-30 0 -200.5 -1t-237 0t-195.5 6.5t-237 16.5l-22 -18q-20 -289 -105 -604l12 -23q305 27 838 27l-20 -121q-547 0 -828 24l-22 -22q-27 -320 -117 -647l16 -21q324 29 899 29z" />
    <glyph glyph-name="F.ss01" horiz-adv-x="1275" 
d="M252 0h-131l282 1597h981l-22 -124q-194 0 -287 0.5t-257.5 7.5t-303.5 20l-22 -18q-23 -309 -109 -619l12 -22q139 13 298.5 19t247.5 6.5t273 0.5l-20 -120q-528 0 -809 24l-23 -20q-31 -311 -110 -752z" />
    <glyph glyph-name="G.ss01" horiz-adv-x="1753" 
d="M805 -35q-207 0 -360 83t-232.5 232.5t-79.5 346.5q0 193 76 376.5t204 321t306.5 221.5t372.5 84q89 0 172.5 -17.5t159 -55t134.5 -91t99.5 -130.5t54.5 -169l-127 -49q-39 185 -179 287t-337 102q-130 0 -252.5 -46.5t-219 -129t-169.5 -190t-112.5 -235t-39.5 -257.5
q0 -262 152.5 -411.5t417.5 -149.5q272 0 464.5 161.5t270.5 436.5l-10 16q-328 -40 -596 -40l20 114h699l-8 -45q-28 -159 -92 -288.5t-149.5 -217t-192 -147t-218 -86.5t-229.5 -27z" />
    <glyph glyph-name="H.ss01" horiz-adv-x="1654" 
d="M252 0h-131l282 1597h132q-84 -474 -150 -727l14 -22q517 37 957 0l24 22q29 285 109 727h131l-283 -1597h-131q87 489 154 752l-17 22q-457 -54 -956 0l-22 -22q-23 -250 -113 -752z" />
    <glyph glyph-name="I.ss01" horiz-adv-x="1087" 
d="M915 0h-938l21 119q269 0 414 -23q109 733 247 1405q-149 -22 -432 -22l23 118h958l-22 -118q-281 0 -424 22q-112 -745 -248 -1405q154 23 422 23z" />
    <glyph glyph-name="Iacute.ss01" horiz-adv-x="1087" 
d="M1167 2040l-395 -320h-115l320 320h190zM915 0h-938l21 119q269 0 414 -23q109 733 247 1405q-149 -22 -432 -22l23 118h958l-22 -118q-281 0 -424 22q-112 -745 -248 -1405q154 23 422 23z" />
    <glyph glyph-name="Icircumflex.ss01" horiz-adv-x="1087" 
d="M520 1720h-114l317 303h162l215 -303h-115q-46 52 -67 76.5t-50.5 70.5t-48.5 95h-47q-17 -22 -33.5 -41.5t-38.5 -41t-34 -34t-39 -36t-33.5 -29t-39 -32t-34.5 -28.5zM915 0h-938l21 119q269 0 414 -23q109 733 247 1405q-149 -22 -432 -22l23 118h958l-22 -118
q-281 0 -424 22q-112 -745 -248 -1405q154 23 422 23z" />
    <glyph glyph-name="Idieresis.ss01" horiz-adv-x="1087" 
d="M569 1790q-38 0 -62 24.5t-24 61.5q0 47 37 83t84 36q37 0 60.5 -23.5t23.5 -58.5q0 -48 -36 -85.5t-83 -37.5zM958 1790q-38 0 -62 24t-24 60q0 49 36.5 85t86.5 36q36 0 60 -24t24 -60q0 -46 -37 -83.5t-84 -37.5zM915 0h-938l21 119q269 0 414 -23q109 733 247 1405
q-149 -22 -432 -22l23 118h958l-22 -118q-281 0 -424 22q-112 -745 -248 -1405q154 23 422 23z" />
    <glyph glyph-name="Idotaccent.ss01" horiz-adv-x="1087" 
d="M762 1788q-40 0 -65 25t-25 65q0 51 38.5 89t90.5 38q39 0 64.5 -25.5t25.5 -62.5q0 -51 -39.5 -90t-89.5 -39zM915 0h-938l21 119q269 0 414 -23q109 733 247 1405q-149 -22 -432 -22l23 118h958l-22 -118q-281 0 -424 22q-112 -745 -248 -1405q154 23 422 23z" />
    <glyph glyph-name="Igrave.ss01" horiz-adv-x="1087" 
d="M838 1720h-115l-283 322h191zM915 0h-938l21 119q269 0 414 -23q109 733 247 1405q-149 -22 -432 -22l23 118h958l-22 -118q-281 0 -424 22q-112 -745 -248 -1405q154 23 422 23z" />
    <glyph glyph-name="Imacron.ss01" horiz-adv-x="1087" 
d="M1104 1835h-664l21 107h661zM915 0h-938l21 119q269 0 414 -23q109 733 247 1405q-149 -22 -432 -22l23 118h958l-22 -118q-281 0 -424 22q-112 -745 -248 -1405q154 23 422 23z" />
    <glyph glyph-name="J.ss01" horiz-adv-x="1183" 
d="M432 -35q-59 0 -113 11t-107 36t-90.5 65.5t-63.5 100t-27.5 139t18.5 181.5l4 22l125 17l-6 -23q-25 -101 -15 -175t35.5 -123t70.5 -78.5t89 -41.5t92 -12q153 0 258.5 111.5t139.5 306.5q120 658 196 985l-6 22q-234 -30 -569 -30l22 118h680l-186 -1060
q-7 -39 -13 -68t-26.5 -93t-44.5 -112t-67.5 -107.5t-96 -98.5t-130.5 -66t-169 -27z" />
    <glyph glyph-name="K.ss01" horiz-adv-x="1347" 
d="M252 0h-131l282 1597h132q-104 -565 -146 -757h12q647 526 938 757h172q-766 -605 -1017 -796l-5 -23q124 -114 273 -262t239.5 -242t262.5 -274h-181q-173 174 -251 254t-208.5 222.5t-238.5 273.5h-10q-47 -337 -123 -750z" />
    <glyph glyph-name="L.ss01" horiz-adv-x="1204" 
d="M1081 0h-960l282 1597h132q-166 -949 -285 -1480l16 -21q301 29 838 29z" />
    <glyph glyph-name="M.ss01" horiz-adv-x="1918" 
d="M254 0h-133l282 1597h156q232 -608 373 -1118h26q334 530 771 1118h153l-283 -1597h-131q16 92 53.5 313.5t62 361t65 339.5t82.5 364h-23l-725 -1024h-119l-364 1024h-23q-17 -167 -46 -361.5t-53 -331t-64.5 -357t-59.5 -328.5z" />
    <glyph glyph-name="N.ss01" horiz-adv-x="1691" 
d="M252 0h-131l282 1597h199q17 -39 95.5 -213t109.5 -244t102 -230.5t116 -265t106 -248.5t114 -275h41q85 616 240 1476h129l-283 -1597h-196q-11 24 -73.5 162t-76.5 169.5t-68 151t-74 165t-66 149.5t-73 166.5t-66.5 154.5t-74 174.5t-69.5 169.5h-48
q-88 -636 -235 -1462z" />
    <glyph glyph-name="O.ss01" horiz-adv-x="1814" 
d="M803 -35q-192 0 -344.5 84t-239 239t-86.5 355q0 188 79 369.5t209 316.5t308.5 218t366.5 83q196 0 349 -88t236.5 -243t83.5 -351q0 -150 -50.5 -297.5t-141.5 -269.5t-209.5 -216.5t-264.5 -147t-296 -52.5zM825 88q154 0 301.5 71.5t255 187.5t173 270.5t65.5 314.5
q0 255 -153.5 415t-391.5 160q-153 0 -300 -70.5t-256 -186t-176 -270.5t-67 -316q0 -255 156 -415.5t393 -160.5z" />
    <glyph glyph-name="P.ss01" horiz-adv-x="1363" 
d="M252 0h-131l282 1597h558q22 0 42 -1t68.5 -8t87.5 -20t87 -41.5t81 -67t55.5 -101.5t22.5 -141q0 -150 -73.5 -281t-209 -212t-301.5 -81q-167 0 -268.5 6.5t-202.5 30.5q-27 -288 -98 -680zM367 760l14 -23q156 25 420 25q202 0 332.5 118t130.5 300q0 148 -92.5 223.5
t-258.5 75.5q-264 0 -399 22l-22 -18q-35 -367 -125 -723z" />
    <glyph glyph-name="Q.ss01" horiz-adv-x="1828" 
d="M616 -10q-166 -159 -286 -269l-4 -22q183 19 391 28.5t337 11t361 1.5l-22 -115h-1299q140 132 416 400q-174 72 -272.5 229.5t-98.5 378.5q0 127 33.5 252t94 235t148.5 204t193.5 161.5t233 106t262.5 38.5q308 0 489 -182t181 -487q0 -192 -74.5 -373.5t-201 -318
t-307 -219.5t-380.5 -83q-98 0 -195 23zM276 655q0 -197 89 -334.5t245 -197.5q211 209 465 469l80 -76q-296 -291 -430 -422q47 -8 109 -8q166 0 316 72t255 190t167 273.5t62 318.5q0 264 -151.5 417.5t-399.5 153.5q-165 0 -316 -72t-258 -190t-170 -274t-63 -320z" />
    <glyph glyph-name="R.ss01" horiz-adv-x="1406" 
d="M252 0h-131l282 1597h558q206 0 325 -102t119 -299q0 -123 -47 -220t-127.5 -160.5t-193 -103.5t-239.5 -54t-270 -7q169 -148 721 -651h-182q-48 45 -164.5 151.5t-190 174t-174.5 164.5t-180 176h-12q-20 -259 -94 -666zM367 756l14 -23q154 25 422 25q201 0 331 120.5
t130 301.5q0 147 -93.5 223t-257.5 76q-246 0 -399 22l-22 -18q-35 -372 -125 -727z" />
    <glyph glyph-name="S.ss01" horiz-adv-x="1312" 
d="M575 -35q-72 0 -139 14.5t-132.5 49t-115.5 86.5t-84.5 133.5t-44.5 183.5l127 45q17 -187 130.5 -289t285.5 -102q191 0 321 109.5t130 261.5q0 26 -5 49.5t-12 42t-22 35.5t-26 29t-33 25t-35.5 20t-40.5 17t-40 14.5t-42.5 14t-40.5 13.5l-142 47q-37 12 -64 22
t-68 29t-71 38.5t-63 49.5t-53.5 63.5t-34.5 78.5t-14 96q0 130 77 242t213.5 179.5t299.5 67.5q204 0 324 -104.5t138 -278.5l-124 -49q-21 142 -118 226.5t-251 84.5q-176 0 -297 -98.5t-121 -234.5q0 -39 12 -73.5t29.5 -60t45.5 -48.5t51 -37.5t56 -29t51 -21t44 -15.5
l147 -51q139 -45 187 -69q166 -81 187 -230q3 -24 3 -49q0 -99 -49.5 -195t-132 -169t-199.5 -118t-244 -45z" />
    <glyph glyph-name="U.ss01" horiz-adv-x="1562" 
d="M651 -35q-260 0 -378.5 160.5t-67.5 449.5l182 1022h129l-178 -1015q-43 -249 48.5 -373.5t299.5 -124.5t348 125t183 373l180 1015h129l-283 -1597h-127q11 71 68 260h-23q-93 -157 -217.5 -226t-292.5 -69z" />
    <glyph glyph-name="Uacute.ss01" horiz-adv-x="1562" 
d="M1278 2040l-397 -320h-113l319 320h191zM651 -35q-260 0 -378.5 160.5t-67.5 449.5l182 1022h129l-178 -1015q-43 -249 48.5 -373.5t299.5 -124.5t348 125t183 373l180 1015h129l-283 -1597h-127q11 71 68 260h-23q-93 -157 -217.5 -226t-292.5 -69z" />
    <glyph glyph-name="Ucircumflex.ss01" horiz-adv-x="1562" 
d="M739 1720h-114l317 303h162l215 -303h-115q-46 52 -67 76.5t-50.5 70.5t-48.5 95h-47q-17 -22 -33.5 -41.5t-38.5 -41t-34 -34t-39 -36t-33.5 -29t-39 -32t-34.5 -28.5zM651 -35q-260 0 -378.5 160.5t-67.5 449.5l182 1022h129l-178 -1015q-43 -249 48.5 -373.5
t299.5 -124.5t348 125t183 373l180 1015h129l-283 -1597h-127q11 71 68 260h-23q-93 -157 -217.5 -226t-292.5 -69z" />
    <glyph glyph-name="Udieresis.ss01" horiz-adv-x="1562" 
d="M791 1790q-38 0 -62 24.5t-24 61.5q0 47 36.5 83t83.5 36q37 0 60.5 -23.5t23.5 -58.5q0 -48 -35.5 -85.5t-82.5 -37.5zM1180 1790q-38 0 -62 24t-24 60q0 49 36.5 85t86.5 36q36 0 59.5 -24t23.5 -60q0 -46 -36.5 -83.5t-83.5 -37.5zM651 -35q-260 0 -378.5 160.5
t-67.5 449.5l182 1022h129l-178 -1015q-43 -249 48.5 -373.5t299.5 -124.5t348 125t183 373l180 1015h129l-283 -1597h-127q11 71 68 260h-23q-93 -157 -217.5 -226t-292.5 -69z" />
    <glyph glyph-name="Ugrave.ss01" horiz-adv-x="1562" 
d="M1057 1720h-115l-283 322h191zM651 -35q-260 0 -378.5 160.5t-67.5 449.5l182 1022h129l-178 -1015q-43 -249 48.5 -373.5t299.5 -124.5t348 125t183 373l180 1015h129l-283 -1597h-127q11 71 68 260h-23q-93 -157 -217.5 -226t-292.5 -69z" />
    <glyph glyph-name="Uhungarumlaut.ss01" horiz-adv-x="1562" 
d="M1176 2042l-334 -322h-113l270 322h177zM1485 2042l-350 -322h-113l287 322h176zM651 -35q-260 0 -378.5 160.5t-67.5 449.5l182 1022h129l-178 -1015q-43 -249 48.5 -373.5t299.5 -124.5t348 125t183 373l180 1015h129l-283 -1597h-127q11 71 68 260h-23
q-93 -157 -217.5 -226t-292.5 -69z" />
    <glyph glyph-name="Umacron.ss01" horiz-adv-x="1562" 
d="M1325 1835h-663l20 107h661zM651 -35q-260 0 -378.5 160.5t-67.5 449.5l182 1022h129l-178 -1015q-43 -249 48.5 -373.5t299.5 -124.5t348 125t183 373l180 1015h129l-283 -1597h-127q11 71 68 260h-23q-93 -157 -217.5 -226t-292.5 -69z" />
    <glyph glyph-name="Uogonek.ss01" horiz-adv-x="1562" 
d="M1020 -242q0 -60 43.5 -95.5t112.5 -35.5q38 0 92 15l-19 -91q-57 -14 -100 -14q-103 0 -167 50.5t-64 140.5q0 163 204 272h-6q11 71 68 260h-23q-93 -157 -217.5 -226t-292.5 -69q-260 0 -378.5 160.5t-67.5 449.5l182 1022h129l-178 -1015q-43 -249 48.5 -373.5
t299.5 -124.5t348 125t183 373l180 1015h129l-283 -1597h-6q-89 -40 -153 -101.5t-64 -140.5z" />
    <glyph glyph-name="Uring.ss01" horiz-adv-x="1562" 
d="M971 1716q-85 0 -137 49t-52 129q0 102 79 178t188 76q83 0 134.5 -49t51.5 -129q0 -101 -77.5 -177.5t-186.5 -76.5zM985 1802q68 0 115 46t47 112q0 46 -32.5 74t-82.5 28q-67 0 -113.5 -45t-46.5 -110q0 -49 30.5 -77t82.5 -28zM651 -35q-260 0 -378.5 160.5
t-67.5 449.5l182 1022h129l-178 -1015q-43 -249 48.5 -373.5t299.5 -124.5t348 125t183 373l180 1015h129l-283 -1597h-127q11 71 68 260h-23q-93 -157 -217.5 -226t-292.5 -69z" />
    <glyph glyph-name="V.ss01" horiz-adv-x="1507" 
d="M764 0h-217l-332 1597h139q199 -994 287 -1466h82q368 685 799 1466h139z" />
    <glyph glyph-name="W.ss01" horiz-adv-x="2320" 
d="M621 0h-162l-238 1597h139l205 -1427h8l654 1427h252l135 -1427h10l703 1427h139l-803 -1597h-160l-131 1470h-86z" />
    <glyph glyph-name="Wacute.ss01" horiz-adv-x="2320" 
d="M1796 2042l-395 -322h-115l320 322h190zM621 0h-162l-238 1597h139l205 -1427h8l654 1427h252l135 -1427h10l703 1427h139l-803 -1597h-160l-131 1470h-86z" />
    <glyph glyph-name="Wcircumflex.ss01" horiz-adv-x="2320" 
d="M1135 1720h-115l317 303h162l215 -303h-115q-45 50 -66.5 76t-50.5 71.5t-48 94.5h-48q-15 -19 -31.5 -38.5t-29 -33t-34 -34t-29.5 -28.5t-34 -30t-29.5 -25.5t-33.5 -28.5zM621 0h-162l-238 1597h139l205 -1427h8l654 1427h252l135 -1427h10l703 1427h139l-803 -1597
h-160l-131 1470h-86z" />
    <glyph glyph-name="Wdieresis.ss01" horiz-adv-x="2320" 
d="M1184 1790q-38 0 -62 24.5t-24 61.5q0 47 37 83t84 36q37 0 60.5 -23.5t23.5 -58.5q0 -48 -36 -85.5t-83 -37.5zM1573 1790q-38 0 -62 24t-24 60q0 49 36.5 85t86.5 36q36 0 60 -24t24 -60q0 -46 -37 -83.5t-84 -37.5zM621 0h-162l-238 1597h139l205 -1427h8l654 1427
h252l135 -1427h10l703 1427h139l-803 -1597h-160l-131 1470h-86z" />
    <glyph glyph-name="Wgrave.ss01" horiz-adv-x="2320" 
d="M1452 1720h-115l-282 322h190zM621 0h-162l-238 1597h139l205 -1427h8l654 1427h252l135 -1427h10l703 1427h139l-803 -1597h-160l-131 1470h-86z" />
    <glyph glyph-name="X.ss01" horiz-adv-x="1402" 
d="M76 0h-148l693 817l-5 10l-391 770h148q172 -339 346 -712h80q78 92 165 196.5t183 219t252 296.5h145l-665 -770l-5 -10l402 -817h-143q-90 185 -217 455.5t-140 304.5h-80q-59 -73 -152.5 -189.5t-182.5 -225.5t-285 -345z" />
    <glyph glyph-name="Y.ss01" horiz-adv-x="1378" 
d="M326 0h-133q305 395 479 592q-220 462 -445 1005h144q19 -46 74.5 -181t79 -193t65.5 -162.5t75 -192t66 -180.5h23q244 368 667 909h140z" />
    <glyph glyph-name="Yacute.ss01" horiz-adv-x="1378" 
d="M1335 2040l-397 -320h-113l320 320h190zM326 0h-133q305 395 479 592q-220 462 -445 1005h144q19 -46 74.5 -181t79 -193t65.5 -162.5t75 -192t66 -180.5h23q244 368 667 909h140z" />
    <glyph glyph-name="Ycircumflex.ss01" horiz-adv-x="1378" 
d="M684 1720h-115l318 303h162l215 -303h-115q-46 52 -67 76.5t-50.5 70.5t-48.5 95h-47q-17 -22 -33.5 -41.5t-38.5 -41t-34 -34t-39 -36t-33.5 -29t-39 -32t-34.5 -28.5zM326 0h-133q305 395 479 592q-220 462 -445 1005h144q19 -46 74.5 -181t79 -193t65.5 -162.5
t75 -192t66 -180.5h23q244 368 667 909h140z" />
    <glyph glyph-name="Ydieresis.ss01" horiz-adv-x="1378" 
d="M733 1790q-38 0 -62 24.5t-24 61.5q0 47 37 83t84 36q37 0 60.5 -23.5t23.5 -58.5q0 -48 -36 -85.5t-83 -37.5zM1122 1790q-38 0 -62 24t-24 60q0 49 36.5 85t86.5 36q36 0 60 -24t24 -60q0 -46 -37 -83.5t-84 -37.5zM326 0h-133q305 395 479 592q-220 462 -445 1005h144
q19 -46 74.5 -181t79 -193t65.5 -162.5t75 -192t66 -180.5h23q244 368 667 909h140z" />
    <glyph glyph-name="Ygrave.ss01" horiz-adv-x="1378" 
d="M1001 1720h-114l-283 322h191zM326 0h-133q305 395 479 592q-220 462 -445 1005h144q19 -46 74.5 -181t79 -193t65.5 -162.5t75 -192t66 -180.5h23q244 368 667 909h140z" />
    <glyph glyph-name="Z.ss01" horiz-adv-x="1390" 
d="M1208 0h-1304q180 191 653.5 698t740.5 789l-6 18q-368 -26 -1003 -26l22 118h1237q-107 -113 -399.5 -427t-529.5 -564.5t-467 -486.5l8 -23q358 29 1071 29z" />
    <glyph glyph-name="Zacute.ss01" horiz-adv-x="1390" 
d="M1323 2042l-395 -322h-115l320 322h190zM1208 0h-1304q180 191 653.5 698t740.5 789l-6 18q-368 -26 -1003 -26l22 118h1237q-107 -113 -399.5 -427t-529.5 -564.5t-467 -486.5l8 -23q358 29 1071 29z" />
    <glyph glyph-name="Zcaron.ss01" horiz-adv-x="1390" 
d="M973 1720h-164l-213 303h115q85 -94 116 -142q31 -47 52 -99h47q19 26 41.5 51t39 42t44.5 42t39.5 35t45 37.5t40.5 33.5h116zM1208 0h-1304q180 191 653.5 698t740.5 789l-6 18q-368 -26 -1003 -26l22 118h1237q-107 -113 -399.5 -427t-529.5 -564.5t-467 -486.5l8 -23
q358 29 1071 29z" />
    <glyph glyph-name="Zdotaccent.ss01" horiz-adv-x="1390" 
d="M905 1788q-40 0 -65 25t-25 65q0 51 38.5 89t90.5 38q39 0 64.5 -25.5t25.5 -62.5q0 -51 -39.5 -90t-89.5 -39zM1208 0h-1304q180 191 653.5 698t740.5 789l-6 18q-368 -26 -1003 -26l22 118h1237q-107 -113 -399.5 -427t-529.5 -564.5t-467 -486.5l8 -23q358 29 1071 29
z" />
    <glyph glyph-name="Q.ss02" horiz-adv-x="1814" 
d="M1765 946q0 -178 -70.5 -349t-191 -303.5t-292 -221t-363.5 -105.5q0 -30 -3.5 -65.5t-6 -53t-12 -69.5t-11.5 -62q205 25 576 25l-21 -117q-441 0 -665 15q27 211 65 327q-283 17 -460 202.5t-177 475.5q0 188 79 368.5t209.5 315.5t309 218t367.5 83q195 0 347.5 -88
t236 -243.5t83.5 -352.5zM276 662q0 -235 138 -390.5t379 -183.5q6 175 63 492h125q-2 -9 -15 -79t-16.5 -88t-15.5 -76t-20 -88.5t-21 -76.5t-27 -86q202 21 376 142.5t276 309t102 392.5q0 256 -154 416.5t-391 160.5q-122 0 -242 -45t-219 -126t-176 -186t-119.5 -232
t-42.5 -256z" />
    <glyph glyph-name="A.ss07" 
d="M868 -315q-355 0 -573.5 210t-218.5 549q0 140 40.5 279t112.5 260t176 225.5t226 178.5t267.5 116.5t295.5 42.5q229 0 409.5 -91.5t285 -267t104.5 -407.5q0 -171 -57.5 -335.5t-162.5 -300.5t-243 -239.5t-310 -161.5t-352 -58zM1071 1096l-563 -963h98
q10 18 45.5 78.5t53 91t44.5 81.5t48 93l10 10q116 -14 209 -14q88 0 203 14l4 -8q13 -133 65 -346h98l-221 963h-94zM842 547l-2 4q164 263 254 450h14q25 -204 90 -450l-2 -4q-102 12 -166 12q-62 0 -188 -12z" />
    <glyph glyph-name="B.ss07" 
d="M868 -315q-355 0 -573.5 210t-218.5 549q0 140 40.5 279t112.5 260t176 225.5t226 178.5t267.5 116.5t295.5 42.5q229 0 409.5 -91.5t285 -267t104.5 -407.5q0 -171 -57.5 -335.5t-162.5 -300.5t-243 -239.5t-310 -161.5t-352 -58zM809 1096l-170 -963h387
q143 0 244.5 90.5t101.5 212.5q0 74 -44 121.5t-126 60.5v9q99 25 159 95t60 159q0 98 -75 156.5t-195 58.5h-342zM817 647l-4 6q53 203 61 365l9 6q79 -14 235 -14q92 0 146.5 -41.5t54.5 -112.5q0 -81 -71 -139t-183 -58q-156 0 -248 -12zM739 207l-6 8q51 182 68 367l6 6
q102 -13 262 -13q93 0 148 -41.5t55 -113.5q0 -86 -72 -143.5t-186 -57.5q-173 0 -275 -12z" />
    <glyph glyph-name="C.ss07" 
d="M868 -315q-355 0 -573.5 210t-218.5 549q0 140 40.5 279t112.5 260t176 225.5t226 178.5t267.5 116.5t295.5 42.5q229 0 409.5 -91.5t285 -267t104.5 -407.5q0 -171 -57.5 -335.5t-162.5 -300.5t-243 -239.5t-310 -161.5t-352 -58zM977 113q166 0 303 92.5t215 259.5
l-80 31q-54 -127 -162.5 -211t-253.5 -84q-142 0 -236.5 82.5t-94.5 242.5q0 127 60.5 242.5t169 187.5t235.5 72q118 0 197.5 -63t99.5 -170l92 32q-10 72 -45.5 128.5t-87.5 91t-114 52t-130 17.5q-155 0 -288.5 -85t-210.5 -224t-77 -295q0 -182 110 -290.5t298 -108.5z
" />
    <glyph glyph-name="D.ss07" 
d="M868 -315q-355 0 -573.5 210t-218.5 549q0 140 40.5 279t112.5 260t176 225.5t226 178.5t267.5 116.5t295.5 42.5q229 0 409.5 -91.5t285 -267t104.5 -407.5q0 -171 -57.5 -335.5t-162.5 -300.5t-243 -239.5t-310 -161.5t-352 -58zM772 1096l-170 -963h350
q120 0 223.5 50.5t172.5 133.5t108 190t39 220q0 180 -99.5 274.5t-285.5 94.5h-338zM702 207l-6 8q98 422 142 803l8 6q84 -14 233 -14q151 0 233.5 -76t82.5 -229q0 -124 -50.5 -234.5t-148.5 -181t-221 -70.5q-175 0 -273 -12z" />
    <glyph glyph-name="E.ss07" 
d="M868 -315q-355 0 -573.5 210t-218.5 549q0 140 40.5 279t112.5 260t176 225.5t226 178.5t267.5 116.5t295.5 42.5q229 0 409.5 -91.5t285 -267t104.5 -407.5q0 -171 -57.5 -335.5t-162.5 -300.5t-243 -239.5t-310 -161.5t-352 -58zM831 1096l-169 -963h620l16 90
q-341 0 -536 -16l-4 8q52 192 67 377l6 8q176 -16 496 -16l16 88q-308 0 -501 -15l-4 9q50 180 59 352l10 6q64 -7 141 -10.5t118 -4t140.5 0t120.5 0.5l15 86h-611z" />
    <glyph glyph-name="F.ss07" 
d="M868 -315q-355 0 -573.5 210t-218.5 549q0 140 40.5 279t112.5 260t176 225.5t226 178.5t267.5 116.5t295.5 42.5q229 0 409.5 -91.5t285 -267t104.5 -407.5q0 -171 -57.5 -335.5t-162.5 -300.5t-243 -239.5t-310 -161.5t-352 -58zM852 1096l-170 -963h92q5 27 16.5 91
t16 92.5t12.5 78.5t13 94.5t10 94.5l6 8q187 -17 485 -17l15 89q-323 0 -490 -15l-4 8q56 199 61 361l11 6q178 -18 508 -18l16 90h-598z" />
    <glyph glyph-name="G.ss07" 
d="M868 -315q-355 0 -573.5 210t-218.5 549q0 140 40.5 279t112.5 260t176 225.5t226 178.5t267.5 116.5t295.5 42.5q229 0 409.5 -91.5t285 -267t104.5 -407.5q0 -171 -57.5 -335.5t-162.5 -300.5t-243 -239.5t-310 -161.5t-352 -58zM967 113q275 0 422 264l14 -2
q-16 -49 -26.5 -90t-14 -61t-8 -50t-6.5 -41h79l84 477h-432l-14 -84q156 -3 358 25l2 -4q-54 -159 -169.5 -252.5t-260.5 -93.5q-66 0 -124 20t-104 59t-72.5 102.5t-26.5 145.5q0 126 60.5 241t169 187t235.5 72q117 0 197 -63t100 -170l92 32q-10 72 -45.5 128.5
t-87.5 91t-114 52t-130 17.5q-154 0 -288 -86t-211 -225t-77 -293q0 -182 107.5 -290.5t290.5 -108.5z" />
    <glyph glyph-name="H.ss07" 
d="M868 -315q-355 0 -573.5 210t-218.5 549q0 140 40.5 279t112.5 260t176 225.5t226 178.5t267.5 116.5t295.5 42.5q229 0 409.5 -91.5t285 -267t104.5 -407.5q0 -171 -57.5 -335.5t-162.5 -300.5t-243 -239.5t-310 -161.5t-352 -58zM750 1096l-170 -963h94q5 27 17 96.5
t18 108t15.5 107.5t16.5 141l7 6q293 -33 561 0l6 -6q-32 -127 -92 -453h94l170 963h-94q-55 -307 -66 -437l-8 -6q-282 16 -561 0l-2 6q27 103 88 437h-94z" />
    <glyph glyph-name="I.ss07" 
d="M868 -315q-355 0 -573.5 210t-218.5 549q0 140 40.5 279t112.5 260t176 225.5t226 178.5t267.5 116.5t295.5 42.5q229 0 409.5 -91.5t285 -267t104.5 -407.5q0 -171 -57.5 -335.5t-162.5 -300.5t-243 -239.5t-310 -161.5t-352 -58zM1071 1096l-170 -963h94l170 963h-94z
" />
    <glyph glyph-name="J.ss07" 
d="M868 -315q-355 0 -573.5 210t-218.5 549q0 140 40.5 279t112.5 260t176 225.5t226 178.5t267.5 116.5t295.5 42.5q229 0 409.5 -91.5t285 -267t104.5 -407.5q0 -171 -57.5 -335.5t-162.5 -300.5t-243 -239.5t-310 -161.5t-352 -58zM911 123q56 0 103 16.5t79 40t59 62
t42 69.5t28 76t18 68.5t11 58.5l105 592h-94l-109 -617q-6 -39 -13 -68t-24 -72t-39.5 -71t-61.5 -48.5t-89 -20.5q-39 0 -72.5 11.5t-63 39.5t-37 74t4.5 115l6 30l-90 -10l-6 -35q-15 -72 -5.5 -124.5t31.5 -88.5t58.5 -57.5t75.5 -31t83 -9.5z" />
    <glyph glyph-name="K.ss07" 
d="M868 -315q-355 0 -573.5 210t-218.5 549q0 140 40.5 279t112.5 260t176 225.5t226 178.5t267.5 116.5t295.5 42.5q229 0 409.5 -91.5t285 -267t104.5 -407.5q0 -171 -57.5 -335.5t-162.5 -300.5t-243 -239.5t-310 -161.5t-352 -58zM819 1096l-170 -963h92q7 42 17.5 99
t19.5 112.5t19 132.5q78 53 155 141h2q73 -140 281 -485h117q-21 35 -74.5 123.5t-76 125.5t-73 116.5t-110.5 171.5v8q60 48 129.5 107t114 98.5t125.5 112t112 100.5h-117q-365 -327 -579 -527h-6q11 36 21.5 74.5t18 68t16.5 71.5t13.5 63.5t13 67t11 60t11 64.5t9.5 58
h-92z" />
    <glyph glyph-name="L.ss07" 
d="M868 -315q-355 0 -573.5 210t-218.5 549q0 140 40.5 279t112.5 260t176 225.5t226 178.5t267.5 116.5t295.5 42.5q229 0 409.5 -91.5t285 -267t104.5 -407.5q0 -171 -57.5 -335.5t-162.5 -300.5t-243 -239.5t-310 -161.5t-352 -58zM905 1096l-170 -963h588l14 90
q-321 0 -501 -16l-5 8q71 327 168 881h-94z" />
    <glyph glyph-name="M.ss07" 
d="M868 -315q-355 0 -573.5 210t-218.5 549q0 140 40.5 279t112.5 260t176 225.5t226 178.5t267.5 116.5t295.5 42.5q229 0 409.5 -91.5t285 -267t104.5 -407.5q0 -171 -57.5 -335.5t-162.5 -300.5t-243 -239.5t-310 -161.5t-352 -58zM631 1096l-170 -963h94q8 46 34 194.5
t36.5 215t25 183.5t21.5 222h6q69 -259 227 -815h84q508 805 514 815h4q-20 -78 -38.5 -157.5t-31 -138t-28.5 -140.5t-23.5 -123.5t-23 -132t-21.5 -123.5h95l170 963h-93q-294 -438 -544 -854h-4q-116 479 -244 854h-90z" />
    <glyph glyph-name="N.ss07" 
d="M868 -315q-355 0 -573.5 210t-218.5 549q0 140 40.5 279t112.5 260t176 225.5t226 178.5t267.5 116.5t295.5 42.5q229 0 409.5 -91.5t285 -267t104.5 -407.5q0 -171 -57.5 -335.5t-162.5 -300.5t-243 -239.5t-310 -161.5t-352 -58zM752 1096l-170 -963h94
q10 57 34.5 197.5t36.5 214t28.5 191.5t27.5 225h4q197 -391 448 -828h84l170 963h-94q-99 -562 -127 -840h-6q-231 473 -446 840h-84z" />
    <glyph glyph-name="O.ss07" 
d="M868 -315q-355 0 -573.5 210t-218.5 549q0 140 40.5 279t112.5 260t176 225.5t226 178.5t267.5 116.5t295.5 42.5q229 0 409.5 -91.5t285 -267t104.5 -407.5q0 -171 -57.5 -335.5t-162.5 -300.5t-243 -239.5t-310 -161.5t-352 -58zM946 113q152 0 286.5 84t214 221
t79.5 287q0 179 -112 295t-290 116q-151 0 -285.5 -83.5t-214 -221t-79.5 -289.5q0 -184 113 -296.5t288 -112.5zM645 537q0 125 64 238.5t171.5 183t227.5 69.5q140 0 228.5 -95t88.5 -241q0 -124 -63.5 -237.5t-171 -183.5t-227.5 -70q-139 0 -228.5 94t-89.5 242z" />
    <glyph glyph-name="P.ss07" 
d="M868 -315q-355 0 -573.5 210t-218.5 549q0 140 40.5 279t112.5 260t176 225.5t226 178.5t267.5 116.5t295.5 42.5q229 0 409.5 -91.5t285 -267t104.5 -407.5q0 -171 -57.5 -335.5t-162.5 -300.5t-243 -239.5t-310 -161.5t-352 -58zM834 1096l-170 -963h94q44 245 59 402
q89 -19 273 -19q152 0 253 104.5t101 241.5q0 115 -77 174.5t-196 59.5h-337zM831 588l-4 6q59 242 72 424l8 6q82 -14 234 -14q96 0 148 -42.5t52 -127.5q0 -103 -74 -170.5t-190 -67.5q-158 0 -246 -14z" />
    <glyph glyph-name="Q.ss07" 
d="M868 -315q-355 0 -573.5 210t-218.5 549q0 140 40.5 279t112.5 260t176 225.5t226 178.5t267.5 116.5t295.5 42.5q229 0 409.5 -91.5t285 -267t104.5 -407.5q0 -171 -57.5 -335.5t-162.5 -300.5t-243 -239.5t-310 -161.5t-352 -58zM1317 63l78 58q-79 114 -119 158
q118 82 186 209.5t68 267.5q0 176 -113 291.5t-293 115.5q-150 0 -284.5 -83.5t-214.5 -221t-80 -289.5q0 -182 111.5 -295.5t291.5 -113.5q145 0 266 82q28 -65 103 -179zM645 586q0 125 64.5 237.5t173 181t229.5 68.5q140 0 229 -94t89 -238q0 -108 -51 -215t-142 -194
q-45 98 -150 250l-75 -56q90 -140 164 -227q-109 -53 -209 -53q-144 0 -233 95.5t-89 244.5z" />
    <glyph glyph-name="R.ss07" 
d="M868 -315q-355 0 -573.5 210t-218.5 549q0 140 40.5 279t112.5 260t176 225.5t226 178.5t267.5 116.5t295.5 42.5q229 0 409.5 -91.5t285 -267t104.5 -407.5q0 -171 -57.5 -335.5t-162.5 -300.5t-243 -239.5t-310 -161.5t-352 -58zM838 1096l-170 -963h94q44 242 59 402
q95 -19 223 -19l187 -383h106q-20 40 -60.5 124t-74 149t-67.5 124v5q137 12 225 105.5t88 219.5q0 116 -76.5 176t-195.5 60h-338zM836 586l-5 6q56 225 72 426l10 6q93 -14 232 -14q95 0 148 -43t53 -127q0 -103 -73 -172.5t-190 -69.5q-159 0 -247 -12z" />
    <glyph glyph-name="S.ss07" 
d="M868 -315q-355 0 -573.5 210t-218.5 549q0 140 40.5 279t112.5 260t176 225.5t226 178.5t267.5 116.5t295.5 42.5q229 0 409.5 -91.5t285 -267t104.5 -407.5q0 -171 -57.5 -335.5t-162.5 -300.5t-243 -239.5t-310 -161.5t-352 -58zM965 113q155 0 268 98.5t113 224.5
q0 48 -18 84t-57 60t-64 34.5t-75 26.5q-4 1 -6.5 2t-5.5 2l-6 2l-84 31q-18 6 -25 8.5t-28.5 11t-33 16t-29 21t-26.5 27t-16.5 34t-7.5 42.5q0 78 68 134t166 56q91 0 148.5 -50t66.5 -138l90 37q-9 109 -85 174t-198 65q-150 0 -255 -89.5t-105 -209.5q0 -43 16.5 -80
t39 -60t57 -43t58 -29t54.5 -19l84 -27q4 -1 29.5 -9.5t31.5 -11t27.5 -11.5t28.5 -14.5t21 -17t19 -22.5t10 -27t5 -34q0 -86 -74.5 -148.5t-183.5 -62.5q-105 0 -170 62.5t-72 172.5l-92 -33q6 -79 36.5 -137.5t76 -90.5t96.5 -47t107 -15z" />
    <glyph glyph-name="T.ss07" 
d="M868 -315q-355 0 -573.5 210t-218.5 549q0 140 40.5 279t112.5 260t176 225.5t226 178.5t267.5 116.5t295.5 42.5q229 0 409.5 -91.5t285 -267t104.5 -407.5q0 -171 -57.5 -335.5t-162.5 -300.5t-243 -239.5t-310 -161.5t-352 -58zM901 133h92q107 603 150 889
q115 -12 332 -12l16 86h-750l-14 -86q217 0 336 12q-67 -340 -162 -889z" />
    <glyph glyph-name="U.ss07" 
d="M868 -315q-355 0 -573.5 210t-218.5 549q0 140 40.5 279t112.5 260t176 225.5t226 178.5t267.5 116.5t295.5 42.5q229 0 409.5 -91.5t285 -267t104.5 -407.5q0 -171 -57.5 -335.5t-162.5 -300.5t-243 -239.5t-310 -161.5t-352 -58zM944 123q172 0 278.5 101.5
t135.5 269.5l108 612h-94l-106 -608q-52 -289 -303 -289q-252 0 -203 289l108 608h-94l-108 -612q-30 -173 38 -272t240 -99z" />
    <glyph glyph-name="V.ss07" 
d="M868 -315q-355 0 -573.5 210t-218.5 549q0 140 40.5 279t112.5 260t176 225.5t226 178.5t267.5 116.5t295.5 42.5q229 0 409.5 -91.5t285 -267t104.5 -407.5q0 -171 -57.5 -335.5t-162.5 -300.5t-243 -239.5t-310 -161.5t-352 -58zM680 1096l223 -963h94l564 963h-101
q-273 -466 -487 -871h-6q-75 418 -189 871h-98z" />
    <glyph glyph-name="W.ss07" 
d="M868 -315q-355 0 -573.5 210t-218.5 549q0 140 40.5 279t112.5 260t176 225.5t226 178.5t267.5 116.5t295.5 42.5q229 0 409.5 -91.5t285 -267t104.5 -407.5q0 -171 -57.5 -335.5t-162.5 -300.5t-243 -239.5t-310 -161.5t-352 -58zM442 1096l144 -963h104
q240 473 406 860h6q39 -456 104 -860h105l483 963h-98q-227 -449 -414 -865h-6q-34 345 -109 865h-98q-274 -557 -412 -865h-4q-38 380 -112 865h-99z" />
    <glyph glyph-name="X.ss07" 
d="M868 -315q-355 0 -573.5 210t-218.5 549q0 140 40.5 279t112.5 260t176 225.5t226 178.5t267.5 116.5t295.5 42.5q229 0 409.5 -91.5t285 -267t104.5 -407.5q0 -171 -57.5 -335.5t-162.5 -300.5t-243 -239.5t-310 -161.5t-352 -58zM557 133h109q233 272 358 436h4
q78 -184 203 -436h108q-199 390 -258 492l2 6q160 170 418 465h-108q-233 -266 -344 -410h-5q-107 238 -200 410h-109q161 -306 252 -465l-2 -6q-86 -96 -244.5 -279.5t-183.5 -212.5z" />
    <glyph glyph-name="Y.ss07" 
d="M868 -315q-355 0 -573.5 210t-218.5 549q0 140 40.5 279t112.5 260t176 225.5t226 178.5t267.5 116.5t295.5 42.5q229 0 409.5 -91.5t285 -267t104.5 -407.5q0 -171 -57.5 -335.5t-162.5 -300.5t-243 -239.5t-310 -161.5t-352 -58zM901 133h92q4 25 18.5 104t24 138
t15.5 112q156 198 473 609h-101q-5 -6 -52.5 -67.5t-60 -78t-54 -71t-62 -83t-54.5 -75t-61.5 -86.5t-54.5 -80h-4q-77 236 -207 541h-102q60 -150 258 -609q-13 -56 -28.5 -138.5t-27.5 -148.5t-12 -67z" />
    <glyph glyph-name="Z.ss07" 
d="M868 -315q-355 0 -573.5 210t-218.5 549q0 140 40.5 279t112.5 260t176 225.5t226 178.5t267.5 116.5t295.5 42.5q229 0 409.5 -91.5t285 -267t104.5 -407.5q0 -171 -57.5 -335.5t-162.5 -300.5t-243 -239.5t-310 -161.5t-352 -58zM606 209l-12 -76h739l15 90
q-388 0 -639 -18l-2 2q92 97 249.5 261.5t284.5 298.5t240 257l12 72h-705l-16 -86q341 0 604 22v-4q-594 -628 -770 -819z" />
    <glyph glyph-name="A.ss08" 
d="M868 -315q-355 0 -573.5 210t-218.5 549q0 140 40.5 279t112.5 260t176 225.5t226 178.5t267.5 116.5t295.5 42.5q229 0 409.5 -91.5t285 -267t104.5 -407.5q0 -171 -57.5 -335.5t-162.5 -300.5t-243 -239.5t-310 -161.5t-352 -58zM883 -231q204 0 393.5 82t326 217.5
t218.5 318.5t82 377q0 211 -94.5 371t-258 243.5t-370.5 83.5q-137 0 -269 -38.5t-243 -106t-205.5 -162t-160.5 -204.5t-103 -236t-37 -254q0 -202 90 -359.5t254.5 -245t376.5 -87.5zM735 272h-73l399 684h69l158 -684h-76q-4 20 -14.5 66.5t-18.5 88.5t-12 91l-2 4
q-94 -8 -141 -8q-59 0 -145 8l-9 -4q-66 -132 -135 -246zM901 567q83 11 135 11q36 0 115 -9q-54 218 -66 318h-6q-71 -149 -178 -320z" />
    <glyph glyph-name="B.ss08" 
d="M868 -315q-355 0 -573.5 210t-218.5 549q0 140 40.5 279t112.5 260t176 225.5t226 178.5t267.5 116.5t295.5 42.5q229 0 409.5 -91.5t285 -267t104.5 -407.5q0 -171 -57.5 -335.5t-162.5 -300.5t-243 -239.5t-310 -161.5t-352 -58zM883 -231q204 0 393.5 82t326 217.5
t218.5 318.5t82 377q0 211 -94.5 371t-258 243.5t-370.5 83.5q-137 0 -269 -38.5t-243 -106t-205.5 -162t-160.5 -204.5t-103 -236t-37 -254q0 -202 90 -359.5t254.5 -245t376.5 -87.5zM1026 272h-274l120 684h242q87 0 140 -41.5t53 -109.5q0 -65 -43 -116t-111 -68
q57 -12 89 -47.5t32 -86.5q0 -84 -73 -149.5t-175 -65.5zM877 641l2 -2q66 8 174 8q77 0 129.5 40.5t52.5 100.5q0 45 -40 74t-105 29q-103 0 -164 10l-4 -2q-10 -134 -45 -258zM821 330l2 -2q74 10 197 10q76 0 128 39t52 100q0 50 -38.5 79.5t-104.5 29.5q-119 0 -187 8
l-2 -2q-17 -160 -47 -262z" />
    <glyph glyph-name="C.ss08" 
d="M868 -315q-355 0 -573.5 210t-218.5 549q0 140 40.5 279t112.5 260t176 225.5t226 178.5t267.5 116.5t295.5 42.5q229 0 409.5 -91.5t285 -267t104.5 -407.5q0 -171 -57.5 -335.5t-162.5 -300.5t-243 -239.5t-310 -161.5t-352 -58zM883 -231q204 0 393.5 82t326 217.5
t218.5 318.5t82 377q0 211 -94.5 371t-258 243.5t-370.5 83.5q-137 0 -269 -38.5t-243 -106t-205.5 -162t-160.5 -204.5t-103 -236t-37 -254q0 -202 90 -359.5t254.5 -245t376.5 -87.5zM991 258q-132 0 -210.5 78t-78.5 207q0 108 53.5 206.5t149 160t207.5 61.5
q109 0 181.5 -56.5t84.5 -150.5l-65 -25q-15 76 -72 120t-141 44q-133 0 -228.5 -106.5t-95.5 -243.5q0 -113 66 -171t166 -58q96 0 173.5 56t118.5 155l60 -25q-53 -117 -150.5 -184.5t-218.5 -67.5z" />
    <glyph glyph-name="D.ss08" 
d="M868 -315q-355 0 -573.5 210t-218.5 549q0 140 40.5 279t112.5 260t176 225.5t226 178.5t267.5 116.5t295.5 42.5q229 0 409.5 -91.5t285 -267t104.5 -407.5q0 -171 -57.5 -335.5t-162.5 -300.5t-243 -239.5t-310 -161.5t-352 -58zM883 -231q204 0 393.5 82t326 217.5
t218.5 318.5t82 377q0 211 -94.5 371t-258 243.5t-370.5 83.5q-137 0 -269 -38.5t-243 -106t-205.5 -162t-160.5 -204.5t-103 -236t-37 -254q0 -202 90 -359.5t254.5 -245t376.5 -87.5zM977 272h-248l119 684h242q131 0 201.5 -67t70.5 -197q0 -171 -111.5 -295.5
t-273.5 -124.5zM799 330l2 -2q72 10 192 10q125 0 210 99.5t85 238.5q0 215 -219 215q-111 0 -168 10l-2 -2q-44 -329 -100 -569z" />
    <glyph glyph-name="E.ss08" 
d="M868 -315q-355 0 -573.5 210t-218.5 549q0 140 40.5 279t112.5 260t176 225.5t226 178.5t267.5 116.5t295.5 42.5q229 0 409.5 -91.5t285 -267t104.5 -407.5q0 -171 -57.5 -335.5t-162.5 -300.5t-243 -239.5t-310 -161.5t-352 -58zM883 -231q204 0 393.5 82t326 217.5
t218.5 318.5t82 377q0 211 -94.5 371t-258 243.5t-370.5 83.5q-137 0 -269 -38.5t-243 -106t-205.5 -162t-160.5 -204.5t-103 -236t-37 -254q0 -202 90 -359.5t254.5 -245t376.5 -87.5zM1212 272h-442l121 684h434l-12 -65q-28 0 -109.5 0.5t-141 2.5t-118.5 7l-4 -2
q-10 -130 -43 -248l4 -4q127 10 352 10l-10 -65q-227 0 -350 10l-4 -4q-15 -149 -49 -268l2 -2q137 12 383 12z" />
    <glyph glyph-name="F.ss08" 
d="M868 -315q-355 0 -573.5 210t-218.5 549q0 140 40.5 279t112.5 260t176 225.5t226 178.5t267.5 116.5t295.5 42.5q229 0 409.5 -91.5t285 -267t104.5 -407.5q0 -171 -57.5 -335.5t-162.5 -300.5t-243 -239.5t-310 -161.5t-352 -58zM883 -231q204 0 393.5 82t326 217.5
t218.5 318.5t82 377q0 211 -94.5 371t-258 243.5t-370.5 83.5q-137 0 -269 -38.5t-243 -106t-205.5 -162t-160.5 -204.5t-103 -236t-37 -254q0 -202 90 -359.5t254.5 -245t376.5 -87.5zM854 272h-70l121 684h424l-10 -67q-234 0 -361 12l-4 -2q-13 -147 -45 -256l4 -2
q104 10 347 10l-13 -63q-244 0 -342 8l-4 -2q-7 -74 -47 -322z" />
    <glyph glyph-name="G.ss08" 
d="M1194 1546q229 0 409.5 -91.5t285 -267t104.5 -407.5q0 -171 -57.5 -335.5t-162.5 -300.5t-243 -239.5t-310 -161.5t-352 -58q-355 0 -573.5 210t-218.5 549q0 140 40.5 279t112.5 260t176 225.5t226 178.5t267.5 116.5t295.5 42.5zM883 -231q204 0 393.5 82t326 217.5
t218.5 318.5t82 377q0 211 -94.5 371t-258 243.5t-370.5 83.5q-137 0 -269 -38.5t-243 -106t-205.5 -162t-160.5 -204.5t-103 -236t-37 -254q0 -202 90 -359.5t254.5 -245t376.5 -87.5zM1100 903q-133 0 -228.5 -105.5t-95.5 -244.5q0 -113 65.5 -171t162.5 -58
q103 0 184.5 65.5t118.5 177.5q-147 -19 -252 -16l8 61h309l-59 -340h-62q0 3 9.5 60.5t17.5 89.5q-108 -164 -293 -164q-130 0 -206.5 77.5t-76.5 207.5q0 109 54 207.5t149.5 159.5t206.5 61q109 0 182.5 -56.5t83.5 -150.5l-65 -25q-15 76 -72 120t-141 44z" />
    <glyph glyph-name="H.ss08" 
d="M868 -315q-355 0 -573.5 210t-218.5 549q0 140 40.5 279t112.5 260t176 225.5t226 178.5t267.5 116.5t295.5 42.5q229 0 409.5 -91.5t285 -267t104.5 -407.5q0 -171 -57.5 -335.5t-162.5 -300.5t-243 -239.5t-310 -161.5t-352 -58zM883 -231q204 0 393.5 82t326 217.5
t218.5 318.5t82 377q0 211 -94.5 371t-258 243.5t-370.5 83.5q-137 0 -269 -38.5t-243 -106t-205.5 -162t-160.5 -204.5t-103 -236t-37 -254q0 -202 90 -359.5t254.5 -245t376.5 -87.5zM782 272h-69l121 684h69q-44 -241 -63 -309l2 -4q211 12 395 0l6 4q7 94 45 309h70
l-121 -684h-70q3 15 15 83t23 120.5t28 118.5l-4 4q-190 -23 -395 0l-3 -4q-17 -147 -49 -322z" />
    <glyph glyph-name="I.ss08" 
d="M868 -315q-355 0 -573.5 210t-218.5 549q0 140 40.5 279t112.5 260t176 225.5t226 178.5t267.5 116.5t295.5 42.5q229 0 409.5 -91.5t285 -267t104.5 -407.5q0 -171 -57.5 -335.5t-162.5 -300.5t-243 -239.5t-310 -161.5t-352 -58zM883 -231q204 0 393.5 82t326 217.5
t218.5 318.5t82 377q0 211 -94.5 371t-258 243.5t-370.5 83.5q-137 0 -269 -38.5t-243 -106t-205.5 -162t-160.5 -204.5t-103 -236t-37 -254q0 -202 90 -359.5t254.5 -245t376.5 -87.5zM1008 272h-70l121 684h69z" />
    <glyph glyph-name="J.ss08" 
d="M868 -315q-355 0 -573.5 210t-218.5 549q0 140 40.5 279t112.5 260t176 225.5t226 178.5t267.5 116.5t295.5 42.5q229 0 409.5 -91.5t285 -267t104.5 -407.5q0 -171 -57.5 -335.5t-162.5 -300.5t-243 -239.5t-310 -161.5t-352 -58zM883 -231q204 0 393.5 82t326 217.5
t218.5 318.5t82 377q0 211 -94.5 371t-258 243.5t-370.5 83.5q-137 0 -269 -38.5t-243 -106t-205.5 -162t-160.5 -204.5t-103 -236t-37 -254q0 -202 90 -359.5t254.5 -245t376.5 -87.5zM946 264q-98 0 -143.5 59t-30.5 162l4 27l70 8l-6 -24q-12 -79 17.5 -123.5t96.5 -44.5
q36 0 64 15t43.5 34t28 50.5t17 50t9.5 46.5l76 439h70l-74 -422q-48 -277 -242 -277z" />
    <glyph glyph-name="K.ss08" 
d="M1194 1546q229 0 409.5 -91.5t285 -267t104.5 -407.5q0 -171 -57.5 -335.5t-162.5 -300.5t-243 -239.5t-310 -161.5t-352 -58q-355 0 -573.5 210t-218.5 549q0 140 40.5 279t112.5 260t176 225.5t226 178.5t267.5 116.5t295.5 42.5zM883 -231q204 0 393.5 82t326 217.5
t218.5 318.5t82 377q0 211 -94.5 371t-258 243.5t-370.5 83.5q-137 0 -269 -38.5t-243 -106t-205.5 -162t-160.5 -204.5t-103 -236t-37 -254q0 -202 90 -359.5t254.5 -245t376.5 -87.5zM1282 956h88q-37 -32 -106 -93.5t-122 -107t-116 -96.5v-4q99 -154 236 -383h-84
q-144 235 -201 340q-55 -58 -107 -96q-11 -77 -39 -244h-69l121 684h69q-49 -270 -78 -374q57 56 109 105t85.5 79t99.5 88.5t114 101.5z" />
    <glyph glyph-name="L.ss08" 
d="M868 -315q-355 0 -573.5 210t-218.5 549q0 140 40.5 279t112.5 260t176 225.5t226 178.5t267.5 116.5t295.5 42.5q229 0 409.5 -91.5t285 -267t104.5 -407.5q0 -171 -57.5 -335.5t-162.5 -300.5t-243 -239.5t-310 -161.5t-352 -58zM883 -231q204 0 393.5 82t326 217.5
t218.5 318.5t82 377q0 211 -94.5 371t-258 243.5t-370.5 83.5q-137 0 -269 -38.5t-243 -106t-205.5 -162t-160.5 -204.5t-103 -236t-37 -254q0 -202 90 -359.5t254.5 -245t376.5 -87.5zM1239 272h-416l121 684h70q-84 -461 -121 -626l2 -2q129 12 356 12z" />
    <glyph glyph-name="M.ss08" 
d="M1194 1546q229 0 409.5 -91.5t285 -267t104.5 -407.5q0 -171 -57.5 -335.5t-162.5 -300.5t-243 -239.5t-310 -161.5t-352 -58q-355 0 -573.5 210t-218.5 549q0 140 40.5 279t112.5 260t176 225.5t226 178.5t267.5 116.5t295.5 42.5zM883 -231q204 0 393.5 82t326 217.5
t218.5 318.5t82 377q0 211 -94.5 371t-258 243.5t-370.5 83.5q-137 0 -269 -38.5t-243 -106t-205.5 -162t-160.5 -204.5t-103 -236t-37 -254q0 -202 90 -359.5t254.5 -245t376.5 -87.5zM987 352q187 308 385 604h68l-121 -684h-70q6 35 24 137.5t27.5 152.5t27 131.5
t36.5 150.5q-270 -432 -360 -572h-60q-14 51 -39 136.5t-52.5 183.5t-66.5 248q-19 -185 -88 -568h-69l121 684h67q112 -350 170 -604z" />
    <glyph glyph-name="N.ss08" 
d="M1194 1546q229 0 409.5 -91.5t285 -267t104.5 -407.5q0 -171 -57.5 -335.5t-162.5 -300.5t-243 -239.5t-310 -161.5t-352 -58q-355 0 -573.5 210t-218.5 549q0 140 40.5 279t112.5 260t176 225.5t226 178.5t267.5 116.5t295.5 42.5zM883 -231q204 0 393.5 82t326 217.5
t218.5 318.5t82 377q0 211 -94.5 371t-258 243.5t-370.5 83.5q-137 0 -269 -38.5t-243 -106t-205.5 -162t-160.5 -204.5t-103 -236t-37 -254q0 -202 90 -359.5t254.5 -245t376.5 -87.5zM1210 365q24 208 93 591h69l-121 -684h-59q-201 352 -315 580q-23 -185 -95 -580h-67
l119 684h61q189 -332 315 -591z" />
    <glyph glyph-name="O.ss08" 
d="M868 -315q-355 0 -573.5 210t-218.5 549q0 140 40.5 279t112.5 260t176 225.5t226 178.5t267.5 116.5t295.5 42.5q229 0 409.5 -91.5t285 -267t104.5 -407.5q0 -171 -57.5 -335.5t-162.5 -300.5t-243 -239.5t-310 -161.5t-352 -58zM883 -231q204 0 393.5 82t326 217.5
t218.5 318.5t82 377q0 211 -94.5 371t-258 243.5t-370.5 83.5q-137 0 -269 -38.5t-243 -106t-205.5 -162t-160.5 -204.5t-103 -236t-37 -254q0 -202 90 -359.5t254.5 -245t376.5 -87.5zM971 258q-125 0 -205 82t-80 209q0 107 56.5 204.5t152 157.5t203.5 60
q127 0 206.5 -82.5t79.5 -210.5q0 -164 -124.5 -292t-288.5 -128zM985 324q127 0 226.5 105.5t99.5 240.5q0 100 -63 166.5t-161 66.5q-129 0 -228 -104.5t-99 -239.5q0 -102 63 -168.5t162 -66.5z" />
    <glyph glyph-name="P.ss08" 
d="M868 -315q-355 0 -573.5 210t-218.5 549q0 140 40.5 279t112.5 260t176 225.5t226 178.5t267.5 116.5t295.5 42.5q229 0 409.5 -91.5t285 -267t104.5 -407.5q0 -171 -57.5 -335.5t-162.5 -300.5t-243 -239.5t-310 -161.5t-352 -58zM883 -231q204 0 393.5 82t326 217.5
t218.5 318.5t82 377q0 211 -94.5 371t-258 243.5t-370.5 83.5q-137 0 -269 -38.5t-243 -106t-205.5 -162t-160.5 -204.5t-103 -236t-37 -254q0 -202 90 -359.5t254.5 -245t376.5 -87.5zM840 272h-70l121 684h239q87 0 140 -43t53 -125q0 -100 -74 -172.5t-178 -72.5
q-129 0 -190 12q-8 -103 -41 -283zM889 600l2 -4q63 10 174 10q81 0 133.5 47t52.5 119q0 59 -37 89t-106 30q-107 0 -164 10l-2 -2q-14 -145 -53 -299z" />
    <glyph glyph-name="Q.ss08" 
d="M868 -315q-355 0 -573.5 210t-218.5 549q0 140 40.5 279t112.5 260t176 225.5t226 178.5t267.5 116.5t295.5 42.5q229 0 409.5 -91.5t285 -267t104.5 -407.5q0 -171 -57.5 -335.5t-162.5 -300.5t-243 -239.5t-310 -161.5t-352 -58zM883 -231q204 0 393.5 82t326 217.5
t218.5 318.5t82 377q0 211 -94.5 371t-258 243.5t-370.5 83.5q-137 0 -269 -38.5t-243 -106t-205.5 -162t-160.5 -204.5t-103 -236t-37 -254q0 -202 90 -359.5t254.5 -245t376.5 -87.5zM1290 264l-55 -41q-50 75 -74 123q-82 -55 -188 -55q-124 0 -205.5 81t-81.5 210
q0 107 57 204.5t153 157.5t204 60q127 0 206.5 -82t79.5 -209q0 -96 -47.5 -187t-130.5 -149q30 -32 82 -113zM987 354q68 0 146 37q-57 69 -117 160l57 43q75 -115 107 -176q66 63 99.5 137t33.5 147q0 101 -62.5 167.5t-160.5 66.5q-130 0 -230 -105t-100 -239
q0 -103 64 -170.5t163 -67.5z" />
    <glyph glyph-name="R.ss08" 
d="M1194 1546q229 0 409.5 -91.5t285 -267t104.5 -407.5q0 -171 -57.5 -335.5t-162.5 -300.5t-243 -239.5t-310 -161.5t-352 -58q-355 0 -573.5 210t-218.5 549q0 140 40.5 279t112.5 260t176 225.5t226 178.5t267.5 116.5t295.5 42.5zM883 -231q204 0 393.5 82t326 217.5
t218.5 318.5t82 377q0 211 -94.5 371t-258 243.5t-370.5 83.5q-137 0 -269 -38.5t-243 -106t-205.5 -162t-160.5 -204.5t-103 -236t-37 -254q0 -202 90 -359.5t254.5 -245t376.5 -87.5zM895 956h238q86 0 140 -43t54 -125q0 -92 -62.5 -157t-156.5 -76q36 -63 143 -283h-77
l-134 271q-100 0 -155 12q-7 -68 -41 -283h-70zM1069 604q81 0 132.5 48.5t51.5 119.5q0 59 -37.5 89t-105.5 30q-91 0 -162 10l-4 -2q-19 -176 -53 -299l2 -4q66 8 176 8z" />
    <glyph glyph-name="S.ss08" 
d="M868 -315q-355 0 -573.5 210t-218.5 549q0 140 40.5 279t112.5 260t176 225.5t226 178.5t267.5 116.5t295.5 42.5q229 0 409.5 -91.5t285 -267t104.5 -407.5q0 -171 -57.5 -335.5t-162.5 -300.5t-243 -239.5t-310 -161.5t-352 -58zM883 -231q204 0 393.5 82t326 217.5
t218.5 318.5t82 377q0 211 -94.5 371t-258 243.5t-370.5 83.5q-137 0 -269 -38.5t-243 -106t-205.5 -162t-160.5 -204.5t-103 -236t-37 -254q0 -202 90 -359.5t254.5 -245t376.5 -87.5zM983 258q-95 0 -154.5 54t-68.5 155l69 22q4 -76 51 -120.5t121 -44.5t126.5 44
t52.5 103q0 17 -6 31t-12 22.5t-23 17t-23.5 11t-29.5 10t-27 8.5l-62 21q-157 51 -157 166q0 85 75.5 149t180.5 64q86 0 140 -46.5t60 -125.5l-65 -27q-7 61 -48 96t-104 35q-69 0 -116.5 -38t-47.5 -93q0 -75 117 -113l62 -20q5 -2 24.5 -8.5t28 -10t26.5 -11.5t27 -15
t22 -18.5t19 -23.5t11 -29t5 -36q0 -91 -82 -160t-192 -69z" />
    <glyph glyph-name="T.ss08" 
d="M868 -315q-355 0 -573.5 210t-218.5 549q0 140 40.5 279t112.5 260t176 225.5t226 178.5t267.5 116.5t295.5 42.5q229 0 409.5 -91.5t285 -267t104.5 -407.5q0 -171 -57.5 -335.5t-162.5 -300.5t-243 -239.5t-310 -161.5t-352 -58zM883 -231q204 0 393.5 82t326 217.5
t218.5 318.5t82 377q0 211 -94.5 371t-258 243.5t-370.5 83.5q-137 0 -269 -38.5t-243 -106t-205.5 -162t-160.5 -204.5t-103 -236t-37 -254q0 -202 90 -359.5t254.5 -245t376.5 -87.5zM1008 272h-70q4 22 42 232t75 397q-86 -10 -240 -10l12 65h531l-10 -65q-154 0 -236 10
q-15 -104 -40.5 -254.5t-44 -258.5t-19.5 -116z" />
    <glyph glyph-name="U.ss08" 
d="M868 -315q-355 0 -573.5 210t-218.5 549q0 140 40.5 279t112.5 260t176 225.5t226 178.5t267.5 116.5t295.5 42.5q229 0 409.5 -91.5t285 -267t104.5 -407.5q0 -171 -57.5 -335.5t-162.5 -300.5t-243 -239.5t-310 -161.5t-352 -58zM883 -231q204 0 393.5 82t326 217.5
t218.5 318.5t82 377q0 211 -94.5 371t-258 243.5t-370.5 83.5q-137 0 -269 -38.5t-243 -106t-205.5 -162t-160.5 -204.5t-103 -236t-37 -254q0 -202 90 -359.5t254.5 -245t376.5 -87.5zM969 264q-121 0 -169.5 71.5t-27.5 190.5l76 437h70l-76 -435q-17 -98 18.5 -149
t124.5 -51q172 0 211 200l74 435h69l-75 -437q-21 -121 -97.5 -191.5t-197.5 -70.5z" />
    <glyph glyph-name="V.ss08" 
d="M868 -315q-355 0 -573.5 210t-218.5 549q0 140 40.5 279t112.5 260t176 225.5t226 178.5t267.5 116.5t295.5 42.5q229 0 409.5 -91.5t285 -267t104.5 -407.5q0 -171 -57.5 -335.5t-162.5 -300.5t-243 -239.5t-310 -161.5t-352 -58zM883 -231q204 0 393.5 82t326 217.5
t218.5 318.5t82 377q0 211 -94.5 371t-258 243.5t-370.5 83.5q-137 0 -269 -38.5t-243 -106t-205.5 -162t-160.5 -204.5t-103 -236t-37 -254q0 -202 90 -359.5t254.5 -245t376.5 -87.5zM1010 272h-68l-158 684h72q83 -326 133 -618q82 155 346 618h74z" />
    <glyph glyph-name="W.ss08" 
d="M1194 1546q229 0 409.5 -91.5t285 -267t104.5 -407.5q0 -171 -57.5 -335.5t-162.5 -300.5t-243 -239.5t-310 -161.5t-352 -58q-355 0 -573.5 210t-218.5 549q0 140 40.5 279t112.5 260t176 225.5t226 178.5t267.5 116.5t295.5 42.5zM883 -231q204 0 393.5 82t326 217.5
t218.5 318.5t82 377q0 211 -94.5 371t-258 243.5t-370.5 83.5q-137 0 -269 -38.5t-243 -106t-205.5 -162t-160.5 -204.5t-103 -236t-37 -254q0 -202 90 -359.5t254.5 -245t376.5 -87.5zM1208 352q142 304 293 604h72l-342 -684h-76q-53 344 -76 598q-104 -240 -286 -598h-76
l-103 684h74q62 -389 82 -606q172 370 289 606h71q54 -392 78 -604z" />
    <glyph glyph-name="X.ss08" 
d="M868 -315q-355 0 -573.5 210t-218.5 549q0 140 40.5 279t112.5 260t176 225.5t226 178.5t267.5 116.5t295.5 42.5q229 0 409.5 -91.5t285 -267t104.5 -407.5q0 -171 -57.5 -335.5t-162.5 -300.5t-243 -239.5t-310 -161.5t-352 -58zM883 -231q204 0 393.5 82t326 217.5
t218.5 318.5t82 377q0 211 -94.5 371t-258 243.5t-370.5 83.5q-137 0 -269 -38.5t-243 -106t-205.5 -162t-160.5 -204.5t-103 -236t-37 -254q0 -202 90 -359.5t254.5 -245t376.5 -87.5zM776 272h-82q21 24 88.5 103.5t118.5 137t100 108.5v6q-81 133 -180 329h80
q79 -151 143 -290q110 141 244 290h80q-210 -238 -297 -329v-6q58 -99 180 -349h-77q-13 28 -37.5 78t-49.5 103.5t-57 128.5h-2q-76 -100 -252 -310z" />
    <glyph glyph-name="Y.ss08" 
d="M868 -315q-355 0 -573.5 210t-218.5 549q0 140 40.5 279t112.5 260t176 225.5t226 178.5t267.5 116.5t295.5 42.5q229 0 409.5 -91.5t285 -267t104.5 -407.5q0 -171 -57.5 -335.5t-162.5 -300.5t-243 -239.5t-310 -161.5t-352 -58zM883 -231q204 0 393.5 82t326 217.5
t218.5 318.5t82 377q0 211 -94.5 371t-258 243.5t-370.5 83.5q-137 0 -269 -38.5t-243 -106t-205.5 -162t-160.5 -204.5t-103 -236t-37 -254q0 -202 90 -359.5t254.5 -245t376.5 -87.5zM1008 272h-70q30 175 49 254q-61 137 -186 430h80q108 -271 145 -383q90 134 285 383
h73q-289 -371 -337 -430q-10 -94 -39 -254z" />
    <glyph glyph-name="Z.ss08" 
d="M868 -315q-355 0 -573.5 210t-218.5 549q0 140 40.5 279t112.5 260t176 225.5t226 178.5t267.5 116.5t295.5 42.5q229 0 409.5 -91.5t285 -267t104.5 -407.5q0 -171 -57.5 -335.5t-162.5 -300.5t-243 -239.5t-310 -161.5t-352 -58zM883 -231q204 0 393.5 82t326 217.5
t218.5 318.5t82 377q0 211 -94.5 371t-258 243.5t-370.5 83.5q-137 0 -269 -38.5t-243 -106t-205.5 -162t-160.5 -204.5t-103 -236t-37 -254q0 -202 90 -359.5t254.5 -245t376.5 -87.5zM1249 272h-526l10 56q156 170 545 579q-203 -16 -428 -16l12 65h500l-8 -53
q-81 -87 -168 -179t-206 -215.5t-173 -180.5q192 12 455 12z" />
    <glyph glyph-name="i.loclTRK" horiz-adv-x="495" 
d="M401 1423q-39 0 -64.5 25.5t-25.5 64.5q0 51 38.5 89t90.5 38q39 0 64.5 -25.5t25.5 -62.5q0 -50 -39 -89.5t-90 -39.5zM211 0h-123l199 1128h123z" />
    <glyph glyph-name="a.ss01" horiz-adv-x="1372" 
d="M514 -35q-195 0 -312.5 129t-117.5 344q0 138 51 270t137 231.5t206 160.5t249 61q142 0 244 -77t139 -234h23q4 110 32 278h121l-196 -1128h-121q1 6 9 57.5t12.5 71.5t16.5 65.5t29 90.5h-22q-96 -163 -226 -241.5t-274 -78.5zM553 78q103 0 199 50.5t165.5 132
t111.5 188.5t42 217q0 172 -96.5 277.5t-251.5 105.5q-138 0 -256 -85.5t-184 -221t-66 -283.5q0 -171 92 -276t244 -105z" />
    <glyph glyph-name="aacute.ss01" horiz-adv-x="1372" 
d="M1241 1671l-381 -393h-108l315 393h174zM514 -35q-195 0 -312.5 129t-117.5 344q0 138 51 270t137 231.5t206 160.5t249 61q142 0 244 -77t139 -234h23q4 110 32 278h121l-196 -1128h-121q1 6 9 57.5t12.5 71.5t16.5 65.5t29 90.5h-22q-96 -163 -226 -241.5t-274 -78.5z
M553 78q103 0 199 50.5t165.5 132t111.5 188.5t42 217q0 172 -96.5 277.5t-251.5 105.5q-138 0 -256 -85.5t-184 -221t-66 -283.5q0 -171 92 -276t244 -105z" />
    <glyph glyph-name="abreve.ss01" horiz-adv-x="1372" 
d="M815 1276q-171 0 -250 110.5t-55 284.5h113q-20 -133 39.5 -212t171.5 -79t198 79t115 212h113q-38 -174 -158 -284.5t-287 -110.5zM514 -35q-195 0 -312.5 129t-117.5 344q0 138 51 270t137 231.5t206 160.5t249 61q142 0 244 -77t139 -234h23q4 110 32 278h121
l-196 -1128h-121q1 6 9 57.5t12.5 71.5t16.5 65.5t29 90.5h-22q-96 -163 -226 -241.5t-274 -78.5zM553 78q103 0 199 50.5t165.5 132t111.5 188.5t42 217q0 172 -96.5 277.5t-251.5 105.5q-138 0 -256 -85.5t-184 -221t-66 -283.5q0 -171 92 -276t244 -105z" />
    <glyph glyph-name="acircumflex.ss01" horiz-adv-x="1372" 
d="M549 1278h-117l361 356h168l233 -356h-117q-44 53 -72.5 90t-62 90t-53.5 103h-47q-101 -132 -293 -283zM514 -35q-195 0 -312.5 129t-117.5 344q0 138 51 270t137 231.5t206 160.5t249 61q142 0 244 -77t139 -234h23q4 110 32 278h121l-196 -1128h-121q1 6 9 57.5
t12.5 71.5t16.5 65.5t29 90.5h-22q-96 -163 -226 -241.5t-274 -78.5zM553 78q103 0 199 50.5t165.5 132t111.5 188.5t42 217q0 172 -96.5 277.5t-251.5 105.5q-138 0 -256 -85.5t-184 -221t-66 -283.5q0 -171 92 -276t244 -105z" />
    <glyph glyph-name="adieresis.ss01" horiz-adv-x="1372" 
d="M657 1376q-37 0 -60.5 24.5t-23.5 61.5q0 46 36.5 81.5t82.5 35.5q37 0 60.5 -23.5t23.5 -56.5q0 -48 -36 -85.5t-83 -37.5zM1008 1376q-38 0 -61 24t-23 60q0 47 35.5 83t82.5 36q36 0 60 -24t24 -58q0 -46 -36.5 -83.5t-81.5 -37.5zM514 -35q-195 0 -312.5 129
t-117.5 344q0 138 51 270t137 231.5t206 160.5t249 61q142 0 244 -77t139 -234h23q4 110 32 278h121l-196 -1128h-121q1 6 9 57.5t12.5 71.5t16.5 65.5t29 90.5h-22q-96 -163 -226 -241.5t-274 -78.5zM553 78q103 0 199 50.5t165.5 132t111.5 188.5t42 217
q0 172 -96.5 277.5t-251.5 105.5q-138 0 -256 -85.5t-184 -221t-66 -283.5q0 -171 92 -276t244 -105z" />
    <glyph glyph-name="agrave.ss01" horiz-adv-x="1372" 
d="M874 1278h-108l-242 393h172zM514 -35q-195 0 -312.5 129t-117.5 344q0 138 51 270t137 231.5t206 160.5t249 61q142 0 244 -77t139 -234h23q4 110 32 278h121l-196 -1128h-121q1 6 9 57.5t12.5 71.5t16.5 65.5t29 90.5h-22q-96 -163 -226 -241.5t-274 -78.5zM553 78
q103 0 199 50.5t165.5 132t111.5 188.5t42 217q0 172 -96.5 277.5t-251.5 105.5q-138 0 -256 -85.5t-184 -221t-66 -283.5q0 -171 92 -276t244 -105z" />
    <glyph glyph-name="amacron.ss01" horiz-adv-x="1372" 
d="M1184 1421h-688l20 105h688zM514 -35q-195 0 -312.5 129t-117.5 344q0 138 51 270t137 231.5t206 160.5t249 61q142 0 244 -77t139 -234h23q4 110 32 278h121l-196 -1128h-121q1 6 9 57.5t12.5 71.5t16.5 65.5t29 90.5h-22q-96 -163 -226 -241.5t-274 -78.5zM553 78
q103 0 199 50.5t165.5 132t111.5 188.5t42 217q0 172 -96.5 277.5t-251.5 105.5q-138 0 -256 -85.5t-184 -221t-66 -283.5q0 -171 92 -276t244 -105z" />
    </font>
</defs>
</svg>
