<?xml version="1.0" standalone="no"?>
<!DOCTYPE svg PUBLIC "-//W3C//DTD SVG 1.1//EN" "http://www.w3.org/Graphics/SVG/1.1/DTD/svg11.dtd" >
<svg xmlns="http://www.w3.org/2000/svg" xmlns:xlink="http://www.w3.org/1999/xlink" version="1.1">
<metadata>
Created by FontForge 20170731 at Mon Mar 15 14:15:37 2021
 By Aleksey,,,
Copyright (c) 2020 by Matthieu Salvaggio x Blaze Type. All rights reserved.
</metadata>
<defs>
<font id="Area-MediumInktrap" horiz-adv-x="2048" >
  <font-face 
    font-family="Area Medium Inktrap"
    font-weight="500"
    font-stretch="normal"
    units-per-em="2048"
    panose-1="0 0 6 0 0 0 0 0 0 0"
    ascent="1638"
    descent="-410"
    x-height="1133"
    cap-height="1597"
    bbox="-1663 -537 2570 2163"
    underline-thickness="102"
    underline-position="-307"
    unicode-range="U+0020-25CA"
  />
<missing-glyph horiz-adv-x="1443" 
d="M1249 0h-1054v1597h1054v-1597zM326 1475v-1248l737 1248h-737zM1118 1350l-723 -1223h723v1223z" />
    <glyph glyph-name=".notdef" horiz-adv-x="1443" 
d="M1249 0h-1054v1597h1054v-1597zM326 1475v-1248l737 1248h-737zM1118 1350l-723 -1223h723v1223z" />
    <glyph glyph-name=".null" horiz-adv-x="0" 
 />
    <glyph glyph-name="nonmarkingreturn" horiz-adv-x="682" 
 />
    <glyph glyph-name="space" unicode=" " horiz-adv-x="532" 
 />
    <glyph glyph-name="exclam" unicode="!" horiz-adv-x="534" 
d="M313 403h-90l-45 1080v114h180v-114zM268 -14q-51 0 -86 36t-35 89q0 51 35 85.5t86 34.5q50 0 85.5 -34.5t35.5 -85.5q0 -53 -35 -89t-86 -36z" />
    <glyph glyph-name="quotedbl" unicode="&#x22;" horiz-adv-x="727" 
d="M297 1143h-156v454h156v-454zM586 1143h-156v454h156v-454z" />
    <glyph glyph-name="numbersign" unicode="#" horiz-adv-x="1439" 
d="M371 0h-144q65 324 109 483q-92 -24 -256 -24l26 129q153 0 246 -19q18 183 82 412q-96 -25 -254 -25l29 129q156 0 252 -16q16 190 82 528h143q-78 -377 -119 -528q210 23 422 0q18 206 84 528h141q-6 -28 -20.5 -99t-22.5 -110t-21 -99t-26 -113.5t-28 -106.5
q100 16 266 16l-29 -129q-164 0 -264 25q-8 -191 -72 -412q103 19 263 19l-27 -129q-168 0 -262 24q-13 -188 -72 -483h-141q54 284 106 483q-212 -36 -422 0q-11 -165 -71 -483zM467 569q212 26 424 0q8 182 72 412q-210 -36 -422 0q-8 -196 -74 -412z" />
    <glyph glyph-name="dollar" unicode="$" horiz-adv-x="1193" 
d="M1073 487q0 -162 -116.5 -269.5t-317.5 -111.5v-188h-78v191q-162 14 -280 104.5t-170 255.5l143 51q81 -238 307 -266v473l-22 6q-32 8 -61.5 17.5t-69.5 27t-73.5 37t-67.5 49.5t-57.5 64.5t-38.5 81t-15 98.5q0 82 34 150.5t91.5 113t129.5 70t150 28.5v168h78v-170
q146 -15 258.5 -101.5t144.5 -209.5l-133 -63q-32 90 -102.5 153.5t-167.5 77.5v-463l41 -14q45 -12 76.5 -22t76 -27.5t75 -36t64 -46.5t54 -60t34 -75.5t13.5 -93.5zM317 1120q0 -50 20.5 -89.5t58.5 -67t76 -45t89 -33.5v444q-107 -6 -175.5 -62t-68.5 -147zM639 707
v-457q50 2 96 15.5t86 39t64 68.5t24 98q0 54 -21 94t-63.5 67t-83.5 43t-102 32z" />
    <glyph glyph-name="percent" unicode="%" horiz-adv-x="1722" 
d="M352 780q-125 0 -200.5 103.5t-75.5 269.5q0 167 75.5 272t200.5 105t202 -105t77 -272q0 -165 -77 -269t-202 -104zM373 0h-148l1139 1468h139zM352 897q65 0 104.5 67t39.5 189t-39.5 190t-104.5 68q-64 0 -103.5 -68t-39.5 -190t39 -189t104 -67zM1370 -29
q-125 0 -200.5 103.5t-75.5 269.5q0 167 75.5 272t200.5 105t202 -105t77 -272q0 -165 -77 -269t-202 -104zM1370 88q65 0 104 67t39 189t-39.5 190t-103.5 68t-103.5 -68t-39.5 -190t39 -189t104 -67z" />
    <glyph glyph-name="ampersand" unicode="&#x26;" horiz-adv-x="1415" 
d="M559 -35q-125 0 -230 47t-170 139.5t-65 213.5q0 78 29 146.5t84.5 124.5t119 99.5t150.5 89.5q-268 239 -268 453q0 151 113 251.5t282 100.5q174 0 281.5 -108.5t107.5 -253.5q0 -243 -342 -434l373 -394q15 72 46 195t38 153l147 -32q-35 -130 -73 -223.5t-97 -161.5
l361 -369h-197l-239 258q-153 -295 -451 -295zM592 895q62 53 99 88.5t71 80t48.5 90t14.5 99.5q0 110 -63.5 172t-163.5 62q-94 0 -157.5 -56t-63.5 -153q0 -50 16.5 -99.5t50.5 -100.5t66 -89.5t82 -93.5zM565 113q107 0 197.5 55t185.5 158l-405 430q-134 -104 -179 -149
q-104 -106 -104 -224q0 -124 88 -197t217 -73z" />
    <glyph glyph-name="quotesingle" unicode="'" horiz-adv-x="440" 
d="M297 1143h-156v454h156v-454z" />
    <glyph glyph-name="parenleft" unicode="(" horiz-adv-x="634" 
d="M610 -307h-164q-167 198 -255.5 445.5t-88.5 506.5q0 260 88.5 507t255.5 445h164q-164 -198 -251 -445t-87 -507q0 -259 87 -506.5t251 -445.5z" />
    <glyph glyph-name="parenright" unicode=")" horiz-adv-x="634" 
d="M188 -307h-163q165 198 252.5 446t87.5 506q0 260 -87.5 507t-252.5 445h163q167 -198 255.5 -445t88.5 -507q0 -259 -88.5 -506.5t-255.5 -445.5z" />
    <glyph glyph-name="asterisk" unicode="*" horiz-adv-x="833" 
d="M465 1024h-98l2 203l-176 -103l-50 84l181 103l-181 102l50 84l176 -100l-2 200h98v-200l176 100l49 -84l-180 -102l180 -103l-49 -84l-176 103v-203z" />
    <glyph glyph-name="plus" unicode="+" horiz-adv-x="1017" 
d="M580 692h299v-135h-299v-313h-140v313h-303v135h303v314h140v-314z" />
    <glyph glyph-name="comma" unicode="," horiz-adv-x="462" 
d="M162 -262h-99q34 64 48 90.5t47.5 76t68.5 87.5q-56 9 -84 41.5t-28 77.5q0 51 36 85.5t87 34.5t85.5 -34.5t34.5 -85.5q0 -38 -30.5 -96t-130.5 -221q-23 -36 -35 -56z" />
    <glyph glyph-name="hyphen" unicode="-" horiz-adv-x="813" 
d="M692 557h-571v135h571v-135z" />
    <glyph glyph-name="period" unicode="." horiz-adv-x="487" 
d="M246 -14q-52 0 -87.5 36t-35.5 89q0 51 35.5 85.5t87.5 34.5q50 0 84.5 -34.5t34.5 -85.5q0 -52 -34.5 -88.5t-84.5 -36.5z" />
    <glyph glyph-name="slash" unicode="/" horiz-adv-x="858" 
d="M225 -135h-151l557 1773h151z" />
    <glyph glyph-name="zero" unicode="0" horiz-adv-x="1437" 
d="M721 -35q-177 0 -313.5 105t-211.5 294t-75 431q0 244 75 434t211.5 295.5t313.5 105.5q176 0 312 -105.5t211 -295.5t75 -434q0 -242 -75 -431t-211 -294t-312 -105zM721 121q188 0 303 183.5t115 490.5q0 310 -114.5 495t-303.5 185q-190 0 -307 -185t-117 -495
q0 -307 117 -490.5t307 -183.5z" />
    <glyph glyph-name="one" unicode="1" horiz-adv-x="798" 
d="M584 0h-166q0 867 24 1323q-140 -216 -389 -254v162q163 32 267 134t104 232h160v-1597z" />
    <glyph glyph-name="two" unicode="2" horiz-adv-x="1273" 
d="M1163 0h-1040v14q7 79 22 144.5t35 117.5t55 100.5t68.5 85.5t89 81.5t104 79.5t124.5 89q24 16 36 25q49 34 85 61t84.5 73t79.5 89t53 101t22 117q0 132 -93 217.5t-245 85.5q-176 0 -283.5 -116.5t-107.5 -303.5l-152 26q0 238 151 390.5t394 152.5
q221 0 364.5 -126.5t143.5 -327.5q0 -82 -24.5 -155t-72 -134.5t-98 -109t-120.5 -99.5q-49 -36 -119 -83.5t-113 -77t-96.5 -73.5t-88 -85t-67.5 -100t-53 -128q305 25 862 25v-156z" />
    <glyph glyph-name="three" unicode="3" horiz-adv-x="1308" 
d="M651 -35q-204 0 -359 100t-206 265l141 71q42 -122 154 -203t270 -81q162 0 265.5 88t103.5 233q0 140 -101.5 226t-295.5 86h-160v139h168q163 0 253.5 83.5t90.5 211.5q0 135 -97.5 216t-248.5 81q-142 0 -241 -80.5t-122 -224.5l-147 30q26 190 171.5 307t354.5 117
q135 0 248 -49.5t182.5 -146.5t69.5 -224q0 -139 -81.5 -240.5t-221.5 -127.5v-25q162 -17 256 -115.5t94 -255.5q0 -96 -36.5 -182.5t-103.5 -153t-171 -106t-230 -39.5z" />
    <glyph glyph-name="four" unicode="4" horiz-adv-x="1329" 
d="M1022 0h-164q0 258 25 410q-403 -31 -836 -9v142l815 1054h160q0 -708 -25 -1085q102 23 258 23v-148q-156 0 -258 23q25 -152 25 -410zM211 520q354 25 672 -8q-33 401 -6 915q-216 -316 -623 -850q-29 -38 -43 -57z" />
    <glyph glyph-name="five" unicode="5" horiz-adv-x="1304" 
d="M639 -35q-200 0 -359.5 99.5t-220.5 269.5l136 80q55 -142 177.5 -220.5t268.5 -78.5q167 0 282 109.5t115 281.5q0 166 -108.5 272.5t-272.5 106.5q-120 0 -215.5 -58t-148.5 -153l-135 51l188 872h774v-145q-440 0 -684 25q-19 -304 -135 -641h21q61 87 157 135.5
t213 48.5q99 0 191 -33.5t166 -95.5t118.5 -160t44.5 -217q0 -159 -76.5 -285t-207 -195t-289.5 -69z" />
    <glyph glyph-name="six" unicode="6" horiz-adv-x="1363" 
d="M707 -35q-267 0 -427.5 199.5t-160.5 550.5q0 200 54.5 370.5t151 290t232.5 187t295 67.5q220 0 367 -121l-101 -118q-117 90 -284 90q-237 0 -392.5 -204.5t-181.5 -565.5h27q50 155 174 240t280 85q138 0 257 -65t193.5 -188t74.5 -277q0 -233 -159 -387t-400 -154z
M709 115q159 0 273 109.5t114 281.5q0 171 -113 281t-272 110q-166 0 -277.5 -115.5t-111.5 -279.5q0 -166 113.5 -276.5t273.5 -110.5z" />
    <glyph glyph-name="seven" unicode="7" horiz-adv-x="1202" 
d="M475 0h-172q0 208 79.5 473.5t237.5 543.5t359 472l-12 20q-46 -5 -96 -9.5t-89.5 -8t-98 -6t-89 -4.5t-97 -3t-88.5 -1.5t-97 -1t-88.5 -0.5h-97.5h-91v147h1126v-156q-198 -178 -357.5 -445.5t-244 -536t-84.5 -484.5z" />
    <glyph glyph-name="eight" unicode="8" horiz-adv-x="1341" 
d="M672 -35q-244 0 -401.5 133.5t-157.5 331.5q0 152 91 259t249 136v29q-137 40 -208 131t-71 213q0 184 141.5 308t358.5 124q212 0 352.5 -120.5t140.5 -303.5q0 -123 -69.5 -218.5t-208.5 -133.5v-29q158 -29 249 -136t91 -259q0 -199 -157 -332t-400 -133zM672 901
q141 0 235 85.5t94 215.5q0 126 -93.5 207.5t-235.5 81.5t-237 -82t-95 -207q0 -130 94.5 -215.5t237.5 -85.5zM670 109q164 0 274.5 94.5t110.5 247.5q0 148 -100 236.5t-283 88.5q-184 0 -284.5 -88t-100.5 -237q0 -153 109.5 -247.5t273.5 -94.5z" />
    <glyph glyph-name="nine" unicode="9" horiz-adv-x="1386" 
d="M625 -35q-140 0 -270.5 58t-229.5 176l102 108q166 -196 383 -196q162 0 278 102.5t173 279.5t57 410h-26q-40 -182 -163.5 -278.5t-287.5 -96.5q-105 0 -202 40.5t-169.5 111t-115.5 174t-43 221.5q0 155 72 281.5t203 200t296 73.5q94 0 177.5 -24t159 -81t129.5 -142
t86 -215.5t32 -293.5q0 -147 -25 -280t-77 -248.5t-126.5 -200t-180.5 -132.5t-232 -48zM664 666q167 0 280 125t113 305q0 118 -54 208t-140 135.5t-189 45.5q-163 0 -277 -113.5t-114 -296.5q0 -176 109.5 -292.5t271.5 -116.5z" />
    <glyph glyph-name="colon" unicode=":" horiz-adv-x="528" 
d="M266 913q-52 0 -87.5 37t-35.5 90q0 50 35.5 84.5t87.5 34.5q50 0 84.5 -34.5t34.5 -84.5q0 -53 -35 -90t-84 -37zM266 -14q-52 0 -87.5 37t-35.5 90q0 50 35.5 84t87.5 34q50 0 84.5 -34.5t34.5 -83.5q0 -53 -35 -90t-84 -37z" />
    <glyph glyph-name="semicolon" unicode=";" horiz-adv-x="589" 
d="M305 913q-51 0 -86 37t-35 90q0 50 35 84.5t86 34.5t86 -34.5t35 -84.5q0 -53 -35 -90t-86 -37zM227 -266h-98l129 262q-35 13 -55.5 44.5t-20.5 70.5q0 51 36 85.5t87 34.5t86 -34.5t35 -85.5q0 -39 -34.5 -103.5t-164.5 -273.5z" />
    <glyph glyph-name="less" unicode="&#x3c;" horiz-adv-x="1030" 
d="M868 430v-131l-727 242v161l727 240v-131l-585 -190z" />
    <glyph glyph-name="equal" unicode="=" horiz-adv-x="1054" 
d="M901 762h-747v135h747v-135zM901 340h-747v135h747v-135z" />
    <glyph glyph-name="greater" unicode="&#x3e;" horiz-adv-x="1030" 
d="M889 541l-727 -242v131l586 191l-586 190v131l727 -240v-161z" />
    <glyph glyph-name="question" unicode="?" horiz-adv-x="1110" 
d="M557 442h-160q-6 30 -6 64q0 57 15.5 103.5t52 89.5t72 73.5t100.5 79.5q107 85 164 165.5t57 180.5q0 128 -89.5 206.5t-217.5 78.5q-133 0 -227.5 -89t-94.5 -237q0 -39 4 -59l-147 26q-6 30 -6 60q0 102 39.5 187t106 141t153 87t182.5 31q124 0 229.5 -49
t172.5 -146.5t67 -224.5q0 -60 -17 -116t-41.5 -99t-65 -88t-75 -76t-82.5 -69q-44 -35 -62 -50t-49 -45.5t-44 -53t-24 -55.5t-11 -69q0 -15 4 -47zM502 -14q-52 0 -87.5 36.5t-35.5 88.5q0 51 35 85.5t86 34.5t86 -34.5t35 -85.5q0 -53 -34 -89t-85 -36z" />
    <glyph glyph-name="at" unicode="@" horiz-adv-x="1966" 
d="M922 -195q-193 0 -351 64t-261 174.5t-158.5 256t-55.5 310.5q0 131 35.5 259.5t99.5 240.5t157 208.5t203.5 165t244.5 107.5t276 39q169 0 314.5 -55t250 -154t164.5 -244t60 -317q0 -176 -59 -322.5t-164.5 -231.5t-235.5 -85q-115 0 -166.5 69.5t-36.5 198.5h-14
q-143 -253 -387 -253q-153 0 -246.5 110t-93.5 275q0 146 71.5 279t189.5 213.5t247 80.5q221 0 299 -244h12q-13 106 14 217h121l-102 -587q-4 -26 -6.5 -43.5t-4.5 -51.5t4 -57t17.5 -47.5t36.5 -37.5t61 -13q127 0 218 146.5t91 365.5q0 303 -178.5 487t-476.5 184
q-184 0 -348.5 -73t-280.5 -195.5t-184 -288.5t-68 -346q0 -202 82.5 -356.5t243 -242t379.5 -87.5q319 0 543 172l65 -94q-127 -99 -292 -148t-330 -49zM881 360q77 0 146 38t116 100t74.5 141t27.5 160q0 122 -61 196t-174 74q-102 0 -187 -62.5t-131.5 -161.5t-46.5 -210
q0 -124 61.5 -199.5t174.5 -75.5z" />
    <glyph glyph-name="A" unicode="A" horiz-adv-x="1521" 
d="M201 0h-174l643 1597h182l643 -1597h-176q-140 335 -193 547l-20 18q-202 -26 -334 -26q-138 0 -352 26l-23 -20q-62 -217 -196 -545zM457 688l12 -20q178 24 303 24t272 -24l15 18q-185 397 -275 754h-51q-98 -372 -276 -752z" />
    <glyph glyph-name="B" unicode="B" horiz-adv-x="1460" 
d="M854 0h-643v1597h584q119 0 216.5 -33.5t159.5 -91t95.5 -132t33.5 -158.5q0 -124 -73.5 -220t-222.5 -131v-34q174 -28 262 -127t88 -240q0 -128 -69 -227.5t-182 -151t-249 -51.5zM352 870l23 -22q141 29 389 29q165 0 263.5 76.5t98.5 203.5q0 132 -106.5 210.5
t-267.5 78.5q-88 0 -124 0.5t-111.5 7.5t-143.5 21l-25 -21q40 -281 4 -584zM350 147l23 -24q158 29 436 29q165 0 267 78t102 206q0 133 -107 214t-274 81q-266 0 -422 29l-23 -21q36 -306 -2 -592z" />
    <glyph glyph-name="C" unicode="C" horiz-adv-x="1718" 
d="M915 -35q-234 0 -418.5 105t-287.5 294.5t-103 430.5q0 186 63.5 344t172 264.5t254 166.5t309.5 60q154 0 293.5 -51t251.5 -159.5t162 -260.5l-152 -61q-70 178 -218.5 277.5t-336.5 99.5q-127 0 -240 -47.5t-198 -133.5t-134.5 -216.5t-49.5 -286.5q0 -133 36.5 -245
t98.5 -189.5t145 -131.5t175 -79t190 -25q117 0 217.5 36.5t173.5 102t124.5 149t80.5 183.5l149 -53q-40 -128 -107.5 -232t-161 -181t-218.5 -119t-271 -42z" />
    <glyph glyph-name="D" unicode="D" horiz-adv-x="1646" 
d="M799 0h-588v1597h569q156 0 283 -40.5t214.5 -112t146.5 -171.5t86.5 -216t27.5 -248q0 -238 -87 -420t-255.5 -285.5t-396.5 -103.5zM350 147l23 -24q154 29 428 29q257 0 410 171t153 474q0 315 -168 482t-455 167q-233 0 -368 29l-25 -21q55 -645 2 -1307z" />
    <glyph glyph-name="E" unicode="E" horiz-adv-x="1345" 
d="M1241 0h-1030v1597h1010v-151q-28 0 -155.5 -0.5t-178.5 0t-153.5 3t-187.5 9t-173 17.5l-25 -21q42 -273 4 -567l19 -23q138 15 291.5 23t249 9t268.5 1v-156q-173 0 -268.5 1t-249 9.5t-289.5 24.5l-21 -22q37 -309 -2 -607l23 -24q145 15 310.5 23t268.5 9t289 1v-156
z" />
    <glyph glyph-name="F" unicode="F" horiz-adv-x="1271" 
d="M377 0h-166v1597h989v-157q-176 0 -274.5 1t-256 9.5t-296.5 24.5l-25 -21q42 -294 0 -586l19 -22q136 16 287.5 24.5t244.5 9.5t260 1v-158q-167 0 -259.5 1t-243.5 9.5t-287 24.5l-21 -23q29 -252 29 -735z" />
    <glyph glyph-name="G" unicode="G" horiz-adv-x="1796" 
d="M895 -35q-171 0 -317.5 62t-250 170.5t-162.5 262.5t-59 333q0 186 62.5 343.5t170.5 265t254 168t312 60.5q240 0 436.5 -123.5t270.5 -347.5l-152 -61q-70 178 -218.5 277.5t-336.5 99.5q-126 0 -239 -47t-198 -133t-135 -216.5t-50 -287.5q0 -134 37 -246t99 -189.5
t145 -131t174 -78.5t186 -25q237 0 399 149.5t219 403.5l-18 20q-269 -49 -570 -49v141h705v-786h-133q0 22 -2.5 83.5t-2.5 95.5t4 89t13 105l-29 4q-168 -412 -614 -412z" />
    <glyph glyph-name="H" unicode="H" horiz-adv-x="1656" 
d="M377 0h-166v1597h166q0 -476 -25 -718l23 -21q480 45 907 0l23 21q-23 252 -23 718h166v-1597h-166q0 467 23 737l-23 21q-427 -63 -907 0l-23 -21q25 -260 25 -737z" />
    <glyph glyph-name="I" unicode="I" horiz-adv-x="585" 
d="M377 0h-166v1597h166v-1597z" />
    <glyph glyph-name="J" unicode="J" horiz-adv-x="1212" 
d="M561 -35q-79 0 -150.5 17t-137.5 56.5t-114.5 98.5t-77 148t-28.5 200v45l158 23v-39q0 -106 30 -185.5t80.5 -123.5t109 -65t124.5 -21q61 0 109.5 18t79 44.5t53 69.5t33 78.5t16.5 87.5t7 82t1 74v1024h166v-983q0 -61 -1 -98.5t-10 -113t-25 -126.5t-50 -115
t-81 -102.5t-122 -66t-170 -27.5z" />
    <glyph glyph-name="K" unicode="K" horiz-adv-x="1380" 
d="M377 0h-166v1597h166v-91v-98t-0.5 -89t-1.5 -99.5t-3 -90.5t-5 -101.5t-7 -93t-9.5 -104.5t-12.5 -99h27q285 327 788 866h199q-12 -13 -62.5 -67t-66 -70.5t-62 -66.5t-66.5 -71.5t-63 -67t-68.5 -71t-65.5 -66.5t-71 -71.5t-68 -66.5t-73 -70v-28q289 -334 703 -881
h-201q-141 180 -206.5 264.5t-178.5 238t-201 285.5h-22q-102 -145 -218 -231q15 -209 15 -557z" />
    <glyph glyph-name="L" unicode="L" horiz-adv-x="1210" 
d="M1180 0h-969v1597h166q0 -948 -27 -1450l23 -24q135 15 289 23t250 9t268 1v-156z" />
    <glyph glyph-name="M" unicode="M" horiz-adv-x="2066" 
d="M377 0h-166v1597h176q369 -718 631 -1392h31q277 688 630 1392h176v-1597h-167q0 31 -0.5 204.5t0 227.5t2.5 203t6.5 236.5t12.5 214.5t20 243h-25q-122 -279 -336 -745.5t-266 -583.5h-137q-59 130 -182.5 397.5t-225.5 492.5t-195 439h-26q12 -114 20.5 -238.5
t13 -218t6.5 -231t2 -208t-0.5 -224.5t-0.5 -209z" />
    <glyph glyph-name="N" unicode="N" horiz-adv-x="1687" 
d="M377 0h-166v1597h151q539 -712 955 -1366h24q-7 100 -12 199.5t-8 209t-5 187.5t-2.5 202.5t-0.5 183v199.5v185h166v-1597h-154q-576 760 -952 1341h-25q6 -86 10.5 -178.5t8 -166t5.5 -176t3 -160.5t1.5 -172t0.5 -157.5v-170.5v-160z" />
    <glyph glyph-name="O" unicode="O" horiz-adv-x="1812" 
d="M905 -35q-163 0 -310 62.5t-255 171.5t-172 265t-64 333t63.5 332.5t171.5 265t255.5 172.5t312.5 63q166 0 314.5 -64.5t255.5 -175t169 -265t62 -328.5t-63 -329t-170.5 -265t-256 -174t-313.5 -64zM909 121q125 0 238.5 51t198 139.5t134.5 215.5t50 270t-49.5 270
t-134 216t-198.5 140.5t-239 51.5q-126 0 -241 -51t-200.5 -140t-136 -216t-50.5 -271t50.5 -271t136 -215t200.5 -139t241 -51z" />
    <glyph glyph-name="P" unicode="P" horiz-adv-x="1370" 
d="M377 0h-166v1597h567q103 0 196 -29.5t167.5 -86.5t119 -150.5t44.5 -210.5q0 -98 -30 -181t-79.5 -138.5t-114.5 -94.5t-134 -57t-140 -18q-112 0 -168 1.5t-136 11.5t-153 30q27 -252 27 -674zM352 770l21 -22q66 16 141.5 24t118 9t127.5 1q169 0 269.5 85t100.5 247
q0 159 -106.5 245.5t-275.5 86.5q-240 0 -375 29l-25 -21q40 -320 4 -684z" />
    <glyph glyph-name="Q" unicode="Q" horiz-adv-x="1822" 
d="M1667 -104l-117 -101q-55 65 -82.5 98.5t-70.5 94t-72 114.5q-175 -137 -414 -137q-165 0 -313.5 62.5t-257 171.5t-172.5 265t-64 333t63.5 332.5t171.5 265t257 172.5t315 63q169 0 318.5 -64.5t256.5 -175t169.5 -265t62.5 -328.5q0 -195 -78.5 -358.5t-228.5 -276.5
q17 -14 32.5 -27.5t33 -31t29 -28t31 -31.5t26.5 -28.5t28.5 -32t24.5 -28l27 -31.5zM913 111q164 0 336 86q-90 75 -171 164t-177 208l117 99q208 -248 313 -420q213 233 213 549q0 191 -85 347.5t-229.5 243.5t-316.5 87q-129 0 -245.5 -51t-202 -139.5t-136 -215.5
t-50.5 -272q0 -144 50.5 -272.5t136 -218.5t202 -142.5t245.5 -52.5z" />
    <glyph glyph-name="R" unicode="R" horiz-adv-x="1423" 
d="M377 0h-166v1597h567q80 0 155.5 -18t143 -57t118.5 -94.5t80.5 -135t29.5 -174.5q0 -201 -121.5 -317.5t-317.5 -130.5v-27q50 -60 98 -123t100.5 -138t84 -121t93.5 -138t83 -123h-186l-424 635q-221 4 -365 39q27 -242 27 -674zM352 764l21 -21q149 29 387 29
q167 0 268.5 88t101.5 250q0 160 -107 249t-275 89q-229 0 -375 27l-25 -21q41 -348 4 -690z" />
    <glyph glyph-name="S" unicode="S" horiz-adv-x="1325" 
d="M682 -35q-76 0 -148.5 15.5t-144 51t-130 88.5t-106.5 133.5t-75 180.5l153 55q49 -182 171.5 -276t281.5 -94q54 0 105.5 10.5t99.5 33.5t84 57t58 84.5t22 111.5q0 55 -19 98.5t-46 70t-72.5 50t-82 35.5t-91.5 29l-21 6l-148 47q-42 13 -75 24.5t-81 33t-84 45
t-75.5 59t-64.5 75t-41.5 94t-16.5 115.5q0 104 44 188t118 136t166.5 80t193.5 28q194 0 337 -101.5t194 -279.5l-150 -61q-44 135 -146.5 213t-248.5 78q-142 0 -238 -74t-96 -193q0 -42 13.5 -79.5t32.5 -64.5t51 -52t58 -40t64 -31t58.5 -23t52.5 -17l158 -51
q148 -48 201 -74q187 -89 223 -251q10 -43 10 -91q0 -140 -74.5 -249t-199 -166.5t-275.5 -57.5z" />
    <glyph glyph-name="T" unicode="T" horiz-adv-x="1302" 
d="M735 0h-166q0 965 25 1473q-205 -27 -563 -27v151h1241v-151q-358 0 -563 27q13 -236 19 -521.5t6.5 -447.5t0.5 -504z" />
    <glyph glyph-name="U" unicode="U" horiz-adv-x="1538" 
d="M764 -35q-284 0 -429 164.5t-145 456.5v1011h166v-1001q0 -242 107 -359.5t307 -117.5q199 0 305.5 117.5t106.5 359.5v1001h166v-1011q0 -104 -19.5 -194t-63.5 -169.5t-110.5 -136t-166 -89t-224.5 -32.5z" />
    <glyph glyph-name="V" unicode="V" horiz-adv-x="1521" 
d="M854 0h-186l-641 1597h174q336 -803 544 -1443h37q155 472 537 1443h176z" />
    <glyph glyph-name="W" unicode="W" horiz-adv-x="2332" 
d="M745 0h-202l-508 1597h180q137 -421 234 -741t186 -674h24q142 542 414 1415h187q272 -861 417 -1421h27q154 616 414 1421h180l-508 -1597h-201q-253 766 -407 1395h-31q-170 -686 -406 -1395z" />
    <glyph glyph-name="X" unicode="X" horiz-adv-x="1339" 
d="M217 0h-194q39 57 133.5 196.5t146 215t130 188t145.5 203.5v26q-201 270 -543 768h192q265 -383 430 -669h27q145 262 430 669h191q-299 -439 -543 -768v-26q86 -117 171.5 -240.5t214.5 -315t167 -247.5h-193q-249 371 -438 705h-27q-143 -255 -440 -705z" />
    <glyph glyph-name="Y" unicode="Y" horiz-adv-x="1417" 
d="M791 0h-166q0 387 12 582q-181 293 -602 1015h180q304 -522 481 -892h25q22 47 46.5 97t45.5 91t49.5 94.5t46 87t50 91.5t47.5 85t51 90t47.5 83t51 88.5t48.5 84.5h178q-48 -81 -145 -247.5t-156 -266.5t-144 -241.5t-159 -259.5q13 -211 13 -582z" />
    <glyph glyph-name="Z" unicode="Z" horiz-adv-x="1349" 
d="M1286 0h-1225v139q441 596 1035 1327l-13 25q-455 -45 -985 -45v151h1170v-135q-373 -502 -1035 -1321l13 -24q411 39 1040 39v-156z" />
    <glyph glyph-name="bracketleft" unicode="[" horiz-adv-x="692" 
d="M639 -348h-444v1945h444v-139q-192 0 -313 25q37 -853 0 -1706q117 26 313 26v-151z" />
    <glyph glyph-name="backslash" unicode="\" horiz-adv-x="858" 
d="M784 -135h-151l-557 1773h151z" />
    <glyph glyph-name="bracketright" unicode="]" horiz-adv-x="692" 
d="M498 -348h-445v151q198 0 316 -26q-40 853 0 1706q-123 -25 -316 -25v139h445v-1945z" />
    <glyph glyph-name="asciicircum" unicode="^" horiz-adv-x="886" 
d="M248 1042h-135l256 555h151l254 -555h-137q-127 293 -172 439h-43q-53 -173 -174 -439z" />
    <glyph glyph-name="underscore" unicode="_" horiz-adv-x="1044" 
d="M999 -227h-954v129h954v-129z" />
    <glyph glyph-name="a" unicode="a" horiz-adv-x="1177" 
d="M455 -35q-99 0 -179.5 32t-132 101t-51.5 166q0 78 32 138t91 100t126.5 65.5t154.5 42.5q27 6 68.5 14t64 12.5t55 12t50 14t40 16t34.5 20.5t23.5 26t16 33t4.5 41q0 95 -76 164t-196 69q-109 0 -187.5 -61t-109.5 -168l-152 51q48 155 174.5 233t282.5 78
q83 0 157.5 -22.5t135.5 -67t97 -119.5t36 -172v-430q0 -131 9 -205.5t28 -148.5h-158q-11 44 -16 76t-3.5 78.5t13.5 101.5h-25q-54 -139 -157 -215t-250 -76zM483 92q82 0 154 35t118 89.5t72.5 116.5t26.5 118v159q-46 -43 -99.5 -64t-162.5 -42q-40 -8 -69.5 -15
t-72 -20.5t-72 -30.5t-58 -40.5t-43.5 -56t-15 -71.5q0 -83 61 -130.5t160 -47.5z" />
    <glyph glyph-name="b" unicode="b" horiz-adv-x="1370" 
d="M754 -35q-139 0 -249 72.5t-171 208.5h-27q6 -20 10 -39.5t6.5 -40t4 -34.5t2 -35.5t0.5 -31.5v-34v-31h-152v1638h156q0 -27 0.5 -171.5t0 -205t-5 -177.5t-14.5 -220h27q66 156 175 228.5t245 72.5q225 0 370.5 -169t145.5 -429q0 -177 -70.5 -315.5t-189.5 -212.5
t-264 -74zM727 111q167 0 276 128.5t109 325.5q0 196 -109.5 325.5t-275.5 129.5t-280.5 -129t-114.5 -328q0 -198 114.5 -325t280.5 -127z" />
    <glyph glyph-name="c" unicode="c" horiz-adv-x="1245" 
d="M657 -35q-249 0 -407 165.5t-158 432.5q0 269 158 435.5t407 166.5q165 0 298 -80.5t196 -244.5l-152 -58q-39 113 -131.5 175.5t-216.5 62.5q-178 0 -286.5 -129t-108.5 -326q0 -204 114 -329t294 -125q140 0 240 76.5t149 205.5l143 -53q-65 -180 -208 -277.5
t-331 -97.5z" />
    <glyph glyph-name="d" unicode="d" horiz-adv-x="1372" 
d="M616 -35q-229 0 -376.5 169t-147.5 431q0 176 70.5 314t190 212t265.5 74q138 0 245 -74.5t169 -228.5h27q-27 316 -23 776h158v-1284q0 -131 9 -205.5t28 -148.5h-158q-17 68 -20 117t10 143h-27q-60 -150 -171 -222.5t-249 -72.5zM643 111q167 0 281 128t114 328
q0 198 -114.5 325.5t-280.5 127.5q-167 0 -276 -129t-109 -326q0 -196 109.5 -325t275.5 -129z" />
    <glyph glyph-name="e" unicode="e" horiz-adv-x="1269" 
d="M653 -35q-244 0 -402.5 166t-158.5 432q0 264 156.5 433t400.5 169q71 0 139.5 -15.5t139 -56.5t122.5 -103.5t85.5 -164.5t33.5 -231v-70h-915q6 -193 118 -306.5t285 -113.5q135 0 234 76.5t147 200.5l144 -53q-63 -170 -203.5 -266.5t-325.5 -96.5zM260 659h746
q-2 79 -24.5 143t-57.5 105.5t-82 69t-95.5 39.5t-101.5 12q-154 0 -257 -101.5t-128 -267.5z" />
    <glyph glyph-name="f" unicode="f" horiz-adv-x="722" 
d="M381 0h-156q0 664 27 1018q-84 -25 -197 -25v140q121 0 197 -25q-27 72 -27 176q0 70 8 125t29.5 106t56 84.5t89.5 53.5t129 20q122 0 208 -51v-141q-93 57 -182 57q-27 0 -49.5 -3t-39.5 -10t-30.5 -13.5t-23 -20.5t-16.5 -24t-11.5 -30t-7 -32.5t-3.5 -37t-1 -38.5
v-43q0 -106 -25 -178q127 25 349 25v-140q-216 0 -349 25q25 -354 25 -1018z" />
    <glyph glyph-name="g" unicode="g" horiz-adv-x="1368" 
d="M664 -483q-396 0 -517 329l144 50q89 -244 371 -244q62 0 114.5 13.5t101 47t82.5 84.5t54 130.5t20 181.5q0 97 23 167h-27q-64 -137 -173 -205.5t-241 -68.5q-153 0 -274 77.5t-186.5 210.5t-65.5 296q0 252 151 415.5t373 163.5q135 0 246 -81t168 -222h25
q-15 111 -15 271h154v-996q0 -136 -26.5 -242t-73 -176.5t-114 -116.5t-144.5 -65.5t-170 -19.5zM641 147q165 0 280 127t115 314q0 186 -115 309t-280 123q-166 0 -275.5 -124.5t-109.5 -307.5q0 -187 110 -314t275 -127z" />
    <glyph glyph-name="h" unicode="h" horiz-adv-x="1298" 
d="M334 0h-156v1638h156q0 -401 -33 -747h25q130 274 399 274q63 0 120.5 -14.5t111.5 -48.5t93 -85t63 -129.5t24 -176.5v-711h-156v641q0 190 -82.5 284.5t-216.5 94.5q-106 0 -187 -57t-121 -145t-40 -191v-627z" />
    <glyph glyph-name="i" unicode="i" horiz-adv-x="509" 
d="M256 1399q-53 0 -88 36t-35 89q0 51 35.5 86t87.5 35q51 0 86 -35.5t35 -85.5q0 -53 -35 -89t-86 -36zM334 0h-156v1133h156v-1133z" />
    <glyph glyph-name="j" unicode="j" horiz-adv-x="509" 
d="M256 1399q-53 0 -88 36t-35 89q0 50 35 85.5t88 35.5q51 0 86 -35.5t35 -85.5q0 -53 -35 -89t-86 -36zM8 -483q-125 0 -217 53v143q93 -57 186 -57q42 0 74.5 13t53.5 31.5t35.5 50.5t21.5 57t11 66t4.5 62.5t0.5 59.5v1137h156v-1147q0 -61 -2 -96.5t-10 -100
t-29 -104.5t-55 -83t-93 -64t-137 -21z" />
    <glyph glyph-name="k" unicode="k" horiz-adv-x="1083" 
d="M334 0h-156v1638h156v-167v-185.5t-1 -162.5t-3.5 -188t-6.5 -166t-10 -187h25q169 198 502 551h190l-444 -447q64 -79 137.5 -175t124 -164t132 -180t122.5 -167h-182q-266 364 -420 594q-86 -118 -185 -186q19 -147 19 -408z" />
    <glyph glyph-name="l" unicode="l" horiz-adv-x="509" 
d="M334 0h-156v1638h156v-1638z" />
    <glyph glyph-name="m" unicode="m" horiz-adv-x="2060" 
d="M334 0h-156v1133h152q0 -142 -29 -242h25q67 143 169.5 208.5t225.5 65.5q59 0 112.5 -15t104 -48.5t87.5 -95t52 -146.5h25q123 305 395 305q76 0 145 -24.5t128.5 -75.5t95 -142t35.5 -212v-711h-156v641q0 191 -81 285t-208 94q-101 0 -180 -56.5t-119.5 -145.5
t-40.5 -191v-627h-155v641q0 190 -80.5 284.5t-206.5 94.5q-101 0 -180 -56.5t-119.5 -145.5t-40.5 -191v-627z" />
    <glyph glyph-name="n" unicode="n" horiz-adv-x="1298" 
d="M334 0h-156v1133h152q0 -142 -29 -242h25q130 274 401 274q80 0 150.5 -24.5t130 -75t94.5 -141.5t35 -213v-711h-156v641q0 190 -82.5 284.5t-216.5 94.5q-106 0 -187 -57t-121 -145t-40 -191v-627z" />
    <glyph glyph-name="o" unicode="o" horiz-adv-x="1320" 
d="M662 -35q-252 0 -411 167t-159 431q0 266 159 434t411 168q250 0 408.5 -168t158.5 -434q0 -264 -158.5 -431t-408.5 -167zM662 111q178 0 289.5 126t111.5 326q0 202 -111.5 329.5t-289.5 127.5q-179 0 -291.5 -127.5t-112.5 -329.5q0 -200 112 -326t292 -126z" />
    <glyph glyph-name="p" unicode="p" horiz-adv-x="1370" 
d="M334 -451h-156v1584h152q0 -152 -23 -265h27q137 297 426 297q149 0 267.5 -77t184.5 -213.5t66 -307.5q0 -177 -70.5 -315.5t-189.5 -212.5t-264 -74q-138 0 -246 71.5t-170 211.5h-25q6 -62 10 -129.5t6.5 -112.5t3.5 -124.5t1 -106.5v-119.5v-106.5zM727 111
q167 0 276 128.5t109 325.5q0 198 -109.5 326.5t-275.5 128.5t-280.5 -129t-114.5 -328q0 -198 114.5 -325t280.5 -127z" />
    <glyph glyph-name="q" unicode="q" horiz-adv-x="1370" 
d="M1192 -451h-156v106.5v119.5t1 106t3.5 124t6.5 111.5t10 127.5h-25q-67 -140 -177.5 -209.5t-244.5 -69.5q-224 0 -371 170.5t-147 431.5q0 264 150.5 431t373.5 167q139 0 250.5 -73t173.5 -220h25q-25 111 -25 261h152v-1584zM643 111q166 0 280.5 128.5t114.5 327.5
q0 198 -114.5 325.5t-280.5 127.5q-167 0 -276 -129t-109 -326q0 -196 109.5 -325t275.5 -129z" />
    <glyph glyph-name="r" unicode="r" horiz-adv-x="847" 
d="M334 0h-156v1133h152q0 -8 0.5 -55t0 -68.5t-5.5 -66t-14 -89.5h27q42 151 137.5 231t222.5 80q69 0 125 -22v-172q-56 26 -139 26q-88 0 -157 -40.5t-110 -107.5t-62 -146.5t-21 -165.5v-537z" />
    <glyph glyph-name="s" unicode="s" horiz-adv-x="1019" 
d="M535 -35q-169 0 -296.5 87.5t-172.5 230.5l145 47q41 -104 132.5 -168t191.5 -64q38 0 77.5 10t78 31t63 60.5t24.5 91.5q0 36 -13.5 65t-32 47t-53.5 34.5t-60 24.5t-70 21l-109 31q-44 13 -77 25.5t-82.5 40t-81.5 60.5t-56 86.5t-24 117.5q0 78 33 141t88 101.5
t121 58.5t137 20q146 0 256.5 -79t148.5 -199l-147 -49q-30 82 -101 138t-170 56q-91 0 -150 -48t-59 -128q0 -39 17 -71.5t40.5 -53.5t62 -40t66.5 -28.5t68 -21.5l105 -31q35 -10 56 -16.5t57.5 -21.5t59 -29t51 -37.5t44.5 -50t27.5 -64t11.5 -80.5q0 -150 -113 -248
t-294 -98z" />
    <glyph glyph-name="t" unicode="t" horiz-adv-x="796" 
d="M539 -35q-47 0 -86 9t-67 23t-50 37.5t-36.5 44.5t-24.5 53t-14.5 54.5t-7 56.5t-3 51.5t-0.5 47.5q0 154 0.5 227t6.5 204t19 243q-102 -23 -251 -23v140q149 0 251 -25q-26 130 -26 358h158q0 -223 -27 -358q139 25 367 25v-140q-228 0 -367 23q27 -225 27 -627
q0 -37 0.5 -56t3.5 -54t8.5 -54.5t17 -45.5t28 -39.5t42.5 -23.5t59 -10q89 0 181 60v-146q-85 -55 -209 -55z" />
    <glyph glyph-name="u" unicode="u" horiz-adv-x="1280" 
d="M569 -35q-82 0 -152.5 24.5t-129 76.5t-92 143t-33.5 213v711h155v-652q0 -99 24.5 -173t66.5 -115.5t92 -61.5t108 -20q79 0 144.5 34.5t106.5 90.5t63 124t22 138v635h156v-779q0 -131 9 -205.5t28 -148.5h-156q-12 48 -17 78t-3.5 76t14.5 98h-27q-59 -153 -154 -220
t-225 -67z" />
    <glyph glyph-name="v" unicode="v" horiz-adv-x="1120" 
d="M647 0h-174l-442 1133h170q210 -538 346 -977h31q130 420 344 977h168z" />
    <glyph glyph-name="w" unicode="w" horiz-adv-x="1867" 
d="M608 0h-168l-407 1133h174q73 -206 112 -320t96 -299t99 -350h31q24 85 51.5 177.5t48 158t55.5 170.5t50 148.5t56.5 164.5t51.5 150h152q74 -207 114 -320.5t100 -298.5t107 -350h29q19 74 38.5 145.5t43.5 151.5t40 132t46.5 144t42 127t47 140.5t43.5 128.5h174
l-405 -1133h-175q-199 552 -311 936h-18q-110 -371 -318 -936z" />
    <glyph glyph-name="x" unicode="x" horiz-adv-x="1060" 
d="M205 0h-176q223 323 407 559v27q-135 166 -407 547h180q11 -16 51.5 -74.5t56 -81t49.5 -73.5t54.5 -83t47.5 -76.5t50 -85.5h27q44 79 101 169t96.5 147t111.5 158h178q-272 -380 -409 -547v-27q182 -230 409 -559h-174q-211 302 -313 481h-27q-45 -80 -105 -173.5
t-95 -144.5t-113 -163z" />
    <glyph glyph-name="y" unicode="y" horiz-adv-x="1126" 
d="M469 -451h-152l168 431l-456 1153h172q215 -544 352 -998h27q136 455 348 998h170z" />
    <glyph glyph-name="z" unicode="z" horiz-adv-x="1011" 
d="M958 0h-895v123l1 1v1l1 1l1 1l1 1v1l1 1l1 1l1 1v1l1 1l1 1l1 1v1l1 1l1 1v1l1 1l1 1l1 1v1l1 1l1 1l1 1v1l1 1l1 1v1l1 1l1 1l1 1v1l1 1l1 1l1 1v1l1 1l1 1l1 1v1l1 1l1 1v1l1 1l1 1l1 1v1l1 1l1 1l1 1v1l1 1l1 1l1 1v1l1 2q367 500 572 753l53 64l-12 25
q-286 -33 -621 -33v144h817v-123q-407 -550 -669 -867l12 -26q114 13 250 19t212.5 6.5t239.5 0.5v-143z" />
    <glyph glyph-name="braceleft" unicode="{" horiz-adv-x="782" 
d="M733 -305h-84q-106 0 -184 23t-125 60.5t-75 96t-38 119.5t-10 141v170q0 77 -6.5 126t-14.5 76t-29 39.5t-36.5 14.5t-50.5 2h-2v166h2q35 0 50.5 2t36.5 14.5t29 39.5t14.5 76t6.5 126v172q0 79 10 140t38 119t75 95.5t125 60.5t184 23h84v-139h-74q-156 0 -222 -69.5
t-66 -208.5v-189q0 -96 -8 -153.5t-31.5 -91.5t-52.5 -48.5t-84 -27.5v-47q44 -11 69 -21.5t49 -31.5t34.5 -54t17 -85t6.5 -130v-188q0 -139 66 -209t222 -70h74v-139z" />
    <glyph glyph-name="bar" unicode="|" horiz-adv-x="534" 
d="M340 -451h-145v2089h145v-2089z" />
    <glyph glyph-name="braceright" unicode="}" horiz-adv-x="782" 
d="M133 -305h-86v139h76q155 0 221 70t66 209v188q0 78 6.5 130t17.5 85t35 54t48.5 31.5t68.5 21.5v47q-43 10 -68.5 21t-49 31.5t-34.5 54t-17.5 85.5t-6.5 129v189q0 138 -66 208t-221 70h-76v139h86q106 0 184 -23t125 -60.5t75 -95.5t38 -119t10 -140v-172
q0 -55 3.5 -96t7.5 -69t15 -46t19 -27.5t27 -14t30 -5t38 -0.5v-166q-27 0 -38 -0.5t-30 -5t-27 -14t-19 -27.5t-15 -46t-7.5 -69t-3.5 -96v-170q0 -80 -10 -141t-38 -119.5t-75 -96t-125 -60.5t-184 -23z" />
    <glyph glyph-name="asciitilde" unicode="~" horiz-adv-x="1083" 
d="M713 557q-54 0 -102 21.5t-76.5 47t-67 47t-74.5 21.5q-52 0 -78 -38t-26 -97h-135q0 129 70 199.5t167 70.5q43 0 80.5 -14t65 -33.5t53.5 -39.5t55.5 -34t59.5 -14q48 0 71 37t23 96h135q0 -132 -62 -201t-159 -69z" />
    <glyph glyph-name="uni00A0" unicode="&#xa0;" horiz-adv-x="532" 
 />
    <glyph glyph-name="exclamdown" unicode="&#xa1;" horiz-adv-x="505" 
d="M254 920q-52 0 -87.5 34t-35.5 84q0 53 35.5 90t87.5 37q50 0 85.5 -37.5t35.5 -89.5q0 -49 -35.5 -83.5t-85.5 -34.5zM344 -446h-182v112l45 1077h92l45 -1077v-112z" />
    <glyph glyph-name="cent" unicode="&#xa2;" horiz-adv-x="1140" 
d="M924 584l116 -43q-50 -136 -156 -214t-245 -87v-240h-98v242q-180 21 -293 154t-113 337q0 202 114 337t292 157v239h98v-237q123 -8 220.5 -73.5t144.5 -188.5l-121 -47q-29 81 -93.5 130t-150.5 58v-748q101 9 174.5 69.5t110.5 154.5zM272 733q0 -149 74 -247.5
t195 -120.5v741q-123 -22 -196 -123.5t-73 -249.5z" />
    <glyph glyph-name="sterling" unicode="&#xa3;" horiz-adv-x="1236" 
d="M1151 0h-1047v150q181 69 277 171.5t96 229.5q0 23 -3 51t-5 43.5t-9 53.5t-9 49q-121 -21 -328 -21v111q162 0 287 -21q-56 68 -86.5 108.5t-67 99.5t-52.5 116t-16 119q0 116 59 201t157 127t221 42q58 0 113.5 -10t117.5 -37t112.5 -70t93 -115t64.5 -165l-149 -62
q-24 88 -64 151.5t-88.5 97t-97 48.5t-100.5 15q-113 0 -190 -63t-77 -175q0 -54 20.5 -111.5t46.5 -101t60 -105t52 -110.5q176 21 454 21v-111q-243 0 -424 21q76 -78 76 -177q0 -123 -78 -234t-237 -200l20 -24q132 18 289.5 26.5t240 9.5t271.5 1v-150z" />
    <glyph glyph-name="currency" unicode="&#xa4;" horiz-adv-x="1355" 
d="M1067 823q0 -147 -82 -256l268 -317l-102 -90l-270 319q-88 -51 -201 -51q-115 0 -203 51l-270 -319l-105 90l269 319q-80 107 -80 254t80 254l-269 320l105 90l268 -316q90 52 205 52q114 0 205 -54l266 318l102 -90l-268 -318q82 -105 82 -256zM432 823
q0 -120 67.5 -196t180.5 -76q112 0 179 76t67 196q0 123 -67.5 200t-178.5 77q-113 0 -180.5 -77t-67.5 -200z" />
    <glyph glyph-name="yen" unicode="&#xa5;" horiz-adv-x="1456" 
d="M811 0h-166q0 178 25 295q-150 -27 -398 -27v127q254 0 398 -24q-19 67 -19 119t19 112q-144 -24 -398 -24v127q211 0 342 -27q-188 303 -553 919h181q336 -586 479 -860h14q176 332 482 860h176q-398 -671 -553 -919q131 27 344 27v-127q-256 0 -400 24q20 -60 20 -112
t-20 -119q144 24 400 24v-127q-250 0 -400 27q27 -117 27 -295z" />
    <glyph glyph-name="brokenbar" unicode="&#xa6;" horiz-adv-x="534" 
d="M340 838h-145v800h145v-800zM340 -451h-145v795h145v-795z" />
    <glyph glyph-name="section" unicode="&#xa7;" horiz-adv-x="1097" 
d="M561 -301q-171 0 -301.5 94t-173.5 244l139 43q41 -110 137 -182t201 -72q38 0 76 10t74 31t59 60.5t23 90.5q0 36 -13 64.5t-29.5 46.5t-51.5 36t-58.5 27t-71.5 25l-108 37q-43 15 -74 28t-80 41.5t-79.5 60t-54 82t-23.5 109.5q0 102 62 168.5t175 85.5v31
q-100 29 -160.5 97t-60.5 167q0 80 33.5 143.5t89 101.5t123.5 57.5t143 19.5q94 0 170 -28t139 -97.5t92 -175.5l-149 -47q-33 113 -94 167t-166 54q-102 0 -163.5 -48.5t-61.5 -131.5q0 -39 16.5 -71.5t38.5 -53.5t60.5 -41t63 -29.5t66.5 -23.5l123 -41
q35 -12 51.5 -18.5t52 -22t55 -29t47 -37t42 -48t25 -59t10.5 -73.5q0 -100 -64.5 -176.5t-177.5 -100.5v-30q225 -48 225 -250q0 -142 -111 -239t-286 -97zM541 379l49 -17q38 2 76 14t74 34.5t58.5 62t22.5 90.5q0 26 -7 48.5t-15.5 38t-28.5 30.5t-32.5 23.5t-42.5 20
t-44 16.5t-49 16l-76 24q-90 29 -156.5 -31.5t-66.5 -150.5q0 -47 22 -85t62 -63.5t74 -41t80 -29.5z" />
    <glyph glyph-name="copyright" unicode="&#xa9;" horiz-adv-x="1929" 
d="M965 -35q-184 0 -341.5 65.5t-264.5 178.5t-167.5 265.5t-60.5 324.5q0 171 60.5 323.5t167.5 264.5t264.5 177.5t341.5 65.5q183 0 340 -65.5t264 -177.5t167 -264.5t60 -323.5q0 -172 -60 -324.5t-167 -265.5t-264 -178.5t-340 -65.5zM965 84q159 0 294 56.5t226.5 153
t142.5 227.5t51 278t-51 277.5t-142.5 227t-226.5 153t-294 56.5t-294 -56.5t-226.5 -153t-143 -227t-51.5 -277.5t51.5 -278t143 -227.5t226.5 -153t294 -56.5zM973 350q-189 0 -307.5 125t-118.5 324q0 201 121 324.5t305 123.5q135 0 235 -68.5t142 -193.5l-121 -43
q-31 91 -98.5 139.5t-161.5 48.5q-128 0 -208.5 -92.5t-80.5 -240.5q0 -152 85.5 -240t213.5 -88q102 0 178 58t113 165l114 -37q-46 -146 -153.5 -225.5t-257.5 -79.5z" />
    <glyph glyph-name="guillemotleft" unicode="&#xab;" horiz-adv-x="1169" 
d="M614 164h-176l-332 405v9l332 405h176q-72 -88 -115.5 -138t-114.5 -120t-140 -121v-59q69 -52 140 -122t114.5 -120.5t115.5 -138.5zM1034 164h-174l-334 405v9l334 405h174q-72 -88 -115.5 -138t-114 -120t-138.5 -121v-59q68 -52 138.5 -122t114 -120.5t115.5 -138.5z
" />
    <glyph glyph-name="logicalnot" unicode="&#xac;" horiz-adv-x="1044" 
d="M889 244h-139v321h-603v135h742v-456z" />
    <glyph glyph-name="registered" unicode="&#xae;" horiz-adv-x="1159" 
d="M580 737q-195 0 -322 127.5t-127 321.5t127 321t322 127q193 0 320.5 -128t127.5 -320q0 -194 -127.5 -321.5t-320.5 -127.5zM580 819q159 0 262.5 104t103.5 263t-103.5 263.5t-262.5 104.5q-161 0 -265 -104t-104 -264t104 -263.5t265 -103.5zM504 944h-82v492h182
q70 0 121 -40t51 -114q0 -57 -30.5 -96t-79.5 -51l129 -191h-93l-122 180h-76v-180zM504 1362v-162h96q42 0 66 21t24 61q0 39 -25.5 59.5t-68.5 20.5h-92z" />
    <glyph glyph-name="degree" unicode="&#xb0;" horiz-adv-x="776" 
d="M387 1055q-127 0 -210 84.5t-83 212.5q0 126 83.5 211.5t209.5 85.5q127 0 211 -86t84 -211q0 -127 -84 -212t-211 -85zM387 1155q79 0 131.5 56.5t52.5 140.5q0 82 -52.5 138t-131.5 56q-78 0 -130 -56t-52 -138q0 -84 52 -140.5t130 -56.5z" />
    <glyph glyph-name="plusminus" unicode="&#xb1;" horiz-adv-x="1058" 
d="M907 791v-132h-309v-208h309v-125h-755v125h307v208h-307v132h307v243h139v-243h309z" />
    <glyph glyph-name="uni00B2" unicode="&#xb2;" horiz-adv-x="655" 
d="M575 797h-493v12q4 66 17 111t45 84.5t67 67.5t104 75q28 20 41 30t38 33.5t36.5 49t11.5 53.5q0 44 -31.5 73t-84.5 29q-64 0 -104 -44.5t-40 -117.5l-116 19q0 115 74.5 186.5t189.5 71.5q105 0 175 -60.5t70 -156.5q0 -123 -135 -215q-16 -12 -48 -32.5t-49 -32.5
t-38.5 -31t-34.5 -41t-20 -48h325v-116z" />
    <glyph glyph-name="uni00B3" unicode="&#xb3;" horiz-adv-x="663" 
d="M324 780q-98 0 -171.5 45.5t-95.5 118.5l111 55q21 -53 60.5 -82.5t95.5 -29.5q57 0 94 31.5t37 85.5q0 53 -40 81.5t-106 28.5h-69v92h73q57 0 93 30.5t36 76.5q0 48 -35 77t-88 29t-88.5 -30.5t-42.5 -85.5l-114 24q9 88 81.5 145.5t174.5 57.5q100 0 168.5 -52.5
t68.5 -138.5q0 -57 -31.5 -103.5t-82.5 -59.5v-2q59 -11 97 -56.5t38 -111.5q0 -91 -70 -158.5t-194 -67.5z" />
    <glyph glyph-name="paragraph" unicode="&#xb6;" horiz-adv-x="1476" 
d="M922 -287h-164v942h-211q-213 0 -344 133.5t-131 346.5q0 98 33.5 181.5t97 146t162 98.5t221.5 36h336v-1884zM1247 -287h-164v1884h164v-1884z" />
    <glyph glyph-name="periodcentered" unicode="&#xb7;" horiz-adv-x="567" 
d="M285 477q-63 0 -106.5 45.5t-43.5 108.5q0 62 43.5 104.5t106.5 42.5q61 0 104 -43t43 -104q0 -63 -43 -108.5t-104 -45.5z" />
    <glyph glyph-name="uni00B9" unicode="&#xb9;" horiz-adv-x="460" 
d="M330 797h-125v508q-61 -68 -156 -84v129q71 20 114.5 64.5t43.5 98.5h123v-716z" />
    <glyph glyph-name="guillemotright" unicode="&#xbb;" horiz-adv-x="1169" 
d="M643 569l-332 -405h-176q71 86 116 138t115.5 121.5t139.5 121.5v59q-98 74 -182.5 163t-188.5 216h176l332 -405v-9zM1065 569l-334 -405h-174q70 86 115.5 138t115.5 121.5t138 121.5v59q-68 51 -138.5 120.5t-115 121t-115.5 137.5h174l334 -405v-9z" />
    <glyph glyph-name="onequarter" unicode="&#xbc;" horiz-adv-x="1386" 
d="M330 797h-125v508q-61 -68 -156 -84v129q71 20 114.5 64.5t43.5 98.5h123v-716zM129 0h-149l1140 1468h140zM1229 -14h-121v155h-350v107l352 457h119v-457h96v-107h-96v-155zM1108 541l-225 -293h225v293z" />
    <glyph glyph-name="onehalf" unicode="&#xbd;" horiz-adv-x="1427" 
d="M330 797h-125v508q-61 -68 -156 -84v129q71 20 114.5 64.5t43.5 98.5h123v-716zM129 0h-149l1140 1468h140zM1350 -14h-494v14q4 66 17 111t45.5 84.5t67.5 67.5t104 75q28 20 41 30t38 33.5t36.5 49t11.5 53.5q0 44 -32 73t-85 29q-64 0 -104 -44.5t-40 -117.5l-116 19
q0 115 74.5 186.5t189.5 71.5q106 0 176 -60.5t70 -156.5q0 -70 -36.5 -121t-99.5 -94q-16 -12 -48 -32.5t-49 -32.5t-38.5 -31t-34.5 -41t-20 -48h326v-118z" />
    <glyph glyph-name="threequarters" unicode="&#xbe;" horiz-adv-x="1589" 
d="M324 780q-98 0 -171.5 45.5t-95.5 118.5l111 55q21 -53 60.5 -82.5t95.5 -29.5q57 0 94 31.5t37 85.5q0 53 -40 81.5t-106 28.5h-69v92h73q57 0 93 30.5t36 76.5q0 48 -35 77t-88 29t-88.5 -30.5t-42.5 -85.5l-114 24q9 88 81.5 145.5t174.5 57.5q100 0 168.5 -52.5
t68.5 -138.5q0 -57 -31.5 -103.5t-82.5 -59.5v-2q59 -11 97 -56.5t38 -111.5q0 -91 -70 -158.5t-194 -67.5zM332 0h-148l1139 1468h139zM1432 -14h-121v155h-350v107l352 457h119v-457h96v-107h-96v-155zM1311 541l-226 -293h226v293z" />
    <glyph glyph-name="questiondown" unicode="&#xbf;" horiz-adv-x="1091" 
d="M598 920q-50 0 -85.5 34.5t-35.5 85.5t35 88t84 37q52 0 87.5 -36.5t35.5 -88.5q0 -51 -35 -85.5t-86 -34.5zM543 -481q-124 0 -229.5 49.5t-172.5 147.5t-67 225q0 60 17 116t41.5 99t64.5 88t74.5 76t82.5 69q42 32 63 49.5t50.5 46.5t43 52t24 56t10.5 69q0 31 -2 47
h159q5 -57 5 -64q0 -46 -12 -87t-29.5 -71t-52.5 -65.5t-64.5 -60t-81.5 -64.5q-106 -83 -163.5 -163.5t-57.5 -180.5q0 -129 89.5 -207t217.5 -78q134 0 229 88.5t95 235.5q0 24 -7 59l150 -26q4 -36 4 -58q0 -135 -67.5 -238.5t-176 -156.5t-237.5 -53z" />
    <glyph glyph-name="Agrave" unicode="&#xc0;" horiz-adv-x="1521" 
d="M860 1722h-143l-338 328h223zM201 0h-174l643 1597h182l643 -1597h-176q-140 335 -193 547l-20 18q-202 -26 -334 -26q-138 0 -352 26l-23 -20q-62 -217 -196 -545zM457 688l12 -20q178 24 303 24t272 -24l15 18q-185 397 -275 754h-51q-98 -372 -276 -752z" />
    <glyph glyph-name="Aacute" unicode="&#xc1;" horiz-adv-x="1521" 
d="M1151 2050l-338 -328h-143l256 328h225zM201 0h-174l643 1597h182l643 -1597h-176q-140 335 -193 547l-20 18q-202 -26 -334 -26q-138 0 -352 26l-23 -20q-62 -217 -196 -545zM457 688l12 -20q178 24 303 24t272 -24l15 18q-185 397 -275 754h-51q-98 -372 -276 -752z
" />
    <glyph glyph-name="Acircumflex" unicode="&#xc2;" horiz-adv-x="1521" 
d="M541 1722h-146l271 314h186l270 -314h-145q-44 41 -70 67t-61 73.5t-60 99.5h-51q-37 -75 -82.5 -128t-111.5 -112zM201 0h-174l643 1597h182l643 -1597h-176q-140 335 -193 547l-20 18q-202 -26 -334 -26q-138 0 -352 26l-23 -20q-62 -217 -196 -545zM457 688l12 -20
q178 24 303 24t272 -24l15 18q-185 397 -275 754h-51q-98 -372 -276 -752z" />
    <glyph glyph-name="Atilde" unicode="&#xc3;" horiz-adv-x="1521" 
d="M915 1745q-36 0 -68.5 12.5t-46 22.5t-46.5 37l-43 32q-20 17 -29.5 24.5t-29 16t-38.5 8.5q-45 0 -72.5 -38.5t-27.5 -98.5h-119q1 115 62 186.5t157 71.5q70 0 148 -65l45 -35q60 -51 104 -51q43 0 68 38.5t25 98.5h118q0 -121 -54.5 -190.5t-152.5 -69.5zM201 0h-174
l643 1597h182l643 -1597h-176q-140 335 -193 547l-20 18q-202 -26 -334 -26q-138 0 -352 26l-23 -20q-62 -217 -196 -545zM457 688l12 -20q178 24 303 24t272 -24l15 18q-185 397 -275 754h-51q-98 -372 -276 -752z" />
    <glyph glyph-name="Adieresis" unicode="&#xc4;" horiz-adv-x="1521" 
d="M559 1780q-51 0 -85 33.5t-34 84.5q0 47 34.5 81t84.5 34q49 0 82 -34t33 -81q0 -51 -32.5 -84.5t-82.5 -33.5zM965 1780q-52 0 -85.5 33.5t-33.5 84.5q0 47 34 81t85 34q47 0 80.5 -34.5t33.5 -80.5q0 -51 -33 -84.5t-81 -33.5zM201 0h-174l643 1597h182l643 -1597h-176
q-140 335 -193 547l-20 18q-202 -26 -334 -26q-138 0 -352 26l-23 -20q-62 -217 -196 -545zM457 688l12 -20q178 24 303 24t272 -24l15 18q-185 397 -275 754h-51q-98 -372 -276 -752z" />
    <glyph glyph-name="Aring" unicode="&#xc5;" horiz-adv-x="1521" 
d="M760 1716q-100 0 -166 63t-66 160t66 160.5t166 63.5q97 0 163 -64t66 -160q0 -97 -65.5 -160t-163.5 -63zM760 1812q55 0 92 35t37 92q0 56 -37 90.5t-92 34.5q-58 0 -94.5 -34.5t-36.5 -90.5q0 -58 36.5 -92.5t94.5 -34.5zM201 0h-174l643 1597h182l643 -1597h-176
q-140 335 -193 547l-20 18q-202 -26 -334 -26q-138 0 -352 26l-23 -20q-62 -217 -196 -545zM457 688l12 -20q178 24 303 24t272 -24l15 18q-185 397 -275 754h-51q-98 -372 -276 -752z" />
    <glyph glyph-name="AE" unicode="&#xc6;" horiz-adv-x="2123" 
d="M137 0h-182l938 1597h1104v-151q-553 0 -877 33q46 -300 6 -607q303 25 830 25v-156q-527 0 -830 27q39 -317 0 -645q324 33 891 33v-156h-1030q0 347 19 563q-286 -36 -570 0q-18 -43 -37.5 -84t-43.5 -88t-39.5 -77t-46 -83.5t-42 -73.5t-47.5 -82t-43 -75zM518 670
q248 36 494 0q-32 356 -13 803h-41q-80 -190 -184.5 -376.5t-255.5 -426.5z" />
    <glyph glyph-name="Ccedilla" unicode="&#xc7;" horiz-adv-x="1718" 
d="M932 -35q-52 -70 -111 -121l10 -10q53 31 105 31q79 0 131.5 -47.5t52.5 -122.5q0 -85 -66.5 -138t-168.5 -53q-76 0 -145.5 31t-112.5 84l61 66q33 -44 84.5 -68.5t104.5 -24.5q57 0 95 28.5t38 72.5q0 42 -34 69t-87 27q-51 0 -96 -25l-60 54l98 151
q-212 18 -377 126.5t-256.5 290.5t-91.5 409q0 186 63.5 344t172 264.5t254 166.5t309.5 60q154 0 293.5 -51t251.5 -159.5t162 -260.5l-152 -61q-70 178 -218.5 277.5t-336.5 99.5q-127 0 -240 -47.5t-198 -133.5t-134.5 -216.5t-49.5 -286.5q0 -133 36.5 -245t98.5 -189.5
t145 -131.5t175 -79t190 -25q117 0 217.5 36.5t173.5 102t124.5 149t80.5 183.5l149 -53q-39 -126 -105 -229t-157.5 -180t-213.5 -120t-265 -45z" />
    <glyph glyph-name="Egrave" unicode="&#xc8;" horiz-adv-x="1345" 
d="M791 1722h-144l-338 328h223zM1241 0h-1030v1597h1010v-151q-28 0 -155.5 -0.5t-178.5 0t-153.5 3t-187.5 9t-173 17.5l-25 -21q42 -273 4 -567l19 -23q138 15 291.5 23t249 9t268.5 1v-156q-173 0 -268.5 1t-249 9.5t-289.5 24.5l-21 -22q37 -309 -2 -607l23 -24
q145 15 310.5 23t268.5 9t289 1v-156z" />
    <glyph glyph-name="Eacute" unicode="&#xc9;" horiz-adv-x="1345" 
d="M1081 2050l-338 -328h-143l256 328h225zM1241 0h-1030v1597h1010v-151q-28 0 -155.5 -0.5t-178.5 0t-153.5 3t-187.5 9t-173 17.5l-25 -21q42 -273 4 -567l19 -23q138 15 291.5 23t249 9t268.5 1v-156q-173 0 -268.5 1t-249 9.5t-289.5 24.5l-21 -22q37 -309 -2 -607
l23 -24q145 15 310.5 23t268.5 9t289 1v-156z" />
    <glyph glyph-name="Ecircumflex" unicode="&#xca;" horiz-adv-x="1345" 
d="M471 1722h-145l270 314h186l271 -314h-146q-43 40 -69.5 67t-61 74t-59.5 99h-51q-37 -75 -82.5 -127.5t-112.5 -112.5zM1241 0h-1030v1597h1010v-151q-28 0 -155.5 -0.5t-178.5 0t-153.5 3t-187.5 9t-173 17.5l-25 -21q42 -273 4 -567l19 -23q138 15 291.5 23t249 9
t268.5 1v-156q-173 0 -268.5 1t-249 9.5t-289.5 24.5l-21 -22q37 -309 -2 -607l23 -24q145 15 310.5 23t268.5 9t289 1v-156z" />
    <glyph glyph-name="Edieresis" unicode="&#xcb;" horiz-adv-x="1345" 
d="M487 1780q-51 0 -84.5 33.5t-33.5 84.5q0 47 34 81t84 34q49 0 82 -34t33 -81q0 -51 -32.5 -84.5t-82.5 -33.5zM893 1780q-52 0 -85.5 33.5t-33.5 84.5q0 47 34 81t85 34q47 0 81 -34.5t34 -80.5q0 -50 -33.5 -84t-81.5 -34zM1241 0h-1030v1597h1010v-151
q-28 0 -155.5 -0.5t-178.5 0t-153.5 3t-187.5 9t-173 17.5l-25 -21q42 -273 4 -567l19 -23q138 15 291.5 23t249 9t268.5 1v-156q-173 0 -268.5 1t-249 9.5t-289.5 24.5l-21 -22q37 -309 -2 -607l23 -24q145 15 310.5 23t268.5 9t289 1v-156z" />
    <glyph glyph-name="Igrave" unicode="&#xcc;" horiz-adv-x="585" 
d="M393 1722h-143l-338 328h223zM377 0h-166v1597h166v-1597z" />
    <glyph glyph-name="Iacute" unicode="&#xcd;" horiz-adv-x="585" 
d="M684 2050l-338 -328h-143l256 328h225zM377 0h-166v1597h166v-1597z" />
    <glyph glyph-name="Icircumflex" unicode="&#xce;" horiz-adv-x="585" 
d="M74 1722h-146l271 314h186l270 -314h-145q-44 41 -70 67t-61 73.5t-60 99.5h-51q-37 -75 -82.5 -128t-111.5 -112zM377 0h-166v1597h166v-1597z" />
    <glyph glyph-name="Idieresis" unicode="&#xcf;" horiz-adv-x="585" 
d="M90 1780q-51 0 -85 33.5t-34 84.5q0 47 34.5 81t84.5 34q49 0 82 -34t33 -81q0 -51 -32.5 -84.5t-82.5 -33.5zM496 1780q-52 0 -85.5 33.5t-33.5 84.5q0 47 34 81t85 34q47 0 80.5 -34.5t33.5 -80.5q0 -51 -33 -84.5t-81 -33.5zM377 0h-166v1597h166v-1597z" />
    <glyph glyph-name="Eth" unicode="&#xd0;" horiz-adv-x="1646" 
d="M211 1597h569q156 0 283 -40.5t214.5 -112t146.5 -171.5t86.5 -216t27.5 -248q0 -238 -87 -420t-255.5 -285.5t-396.5 -103.5h-588v731h-178v135h178v731zM801 152q257 0 410 171t153 474q0 315 -168 482t-455 167q-233 0 -368 29l-25 -21q27 -332 27 -588h510v-135h-508
q-3 -288 -27 -584l23 -24q154 29 428 29z" />
    <glyph glyph-name="Ntilde" unicode="&#xd1;" horiz-adv-x="1687" 
d="M981 1790q-36 0 -68.5 12t-47 23t-46.5 37l-43 32l-8 8q-9 7 -10.5 8t-9 7t-10.5 7.5t-10 6t-11.5 6t-11 4t-12.5 3t-13 0.5q-45 0 -72.5 -39t-27.5 -99h-119q1 115 62 186.5t157 71.5q69 0 147 -65l45 -35q60 -51 105 -51q43 0 67.5 38.5t24.5 98.5h119
q0 -121 -54.5 -190.5t-152.5 -69.5zM377 0h-166v1597h151q539 -712 955 -1366h24q-7 100 -12 199.5t-8 209t-5 187.5t-2.5 202.5t-0.5 183v199.5v185h166v-1597h-154q-576 760 -952 1341h-25q6 -86 10.5 -178.5t8 -166t5.5 -176t3 -160.5t1.5 -172t0.5 -157.5v-170.5v-160z
" />
    <glyph glyph-name="Ograve" unicode="&#xd2;" horiz-adv-x="1812" 
d="M1006 1722h-144l-338 328h224zM905 -35q-163 0 -310 62.5t-255 171.5t-172 265t-64 333t63.5 332.5t171.5 265t255.5 172.5t312.5 63q166 0 314.5 -64.5t255.5 -175t169 -265t62 -328.5t-63 -329t-170.5 -265t-256 -174t-313.5 -64zM909 121q125 0 238.5 51t198 139.5
t134.5 215.5t50 270t-49.5 270t-134 216t-198.5 140.5t-239 51.5q-126 0 -241 -51t-200.5 -140t-136 -216t-50.5 -271t50.5 -271t136 -215t200.5 -139t241 -51z" />
    <glyph glyph-name="Oacute" unicode="&#xd3;" horiz-adv-x="1812" 
d="M1296 2050l-338 -328h-143l256 328h225zM905 -35q-163 0 -310 62.5t-255 171.5t-172 265t-64 333t63.5 332.5t171.5 265t255.5 172.5t312.5 63q166 0 314.5 -64.5t255.5 -175t169 -265t62 -328.5t-63 -329t-170.5 -265t-256 -174t-313.5 -64zM909 121q125 0 238.5 51
t198 139.5t134.5 215.5t50 270t-49.5 270t-134 216t-198.5 140.5t-239 51.5q-126 0 -241 -51t-200.5 -140t-136 -216t-50.5 -271t50.5 -271t136 -215t200.5 -139t241 -51z" />
    <glyph glyph-name="Ocircumflex" unicode="&#xd4;" horiz-adv-x="1812" 
d="M686 1722h-145l270 314h186l271 -314h-146q-43 40 -69.5 67t-61 74t-59.5 99h-51q-37 -75 -82.5 -127.5t-112.5 -112.5zM905 -35q-163 0 -310 62.5t-255 171.5t-172 265t-64 333t63.5 332.5t171.5 265t255.5 172.5t312.5 63q166 0 314.5 -64.5t255.5 -175t169 -265
t62 -328.5t-63 -329t-170.5 -265t-256 -174t-313.5 -64zM909 121q125 0 238.5 51t198 139.5t134.5 215.5t50 270t-49.5 270t-134 216t-198.5 140.5t-239 51.5q-126 0 -241 -51t-200.5 -140t-136 -216t-50.5 -271t50.5 -271t136 -215t200.5 -139t241 -51z" />
    <glyph glyph-name="Otilde" unicode="&#xd5;" horiz-adv-x="1812" 
d="M1061 1790q-36 0 -68.5 12t-47 23t-46.5 37l-43 32l-8 8q-9 7 -10.5 8t-9 7t-10.5 7.5t-10 6t-11.5 6t-11 4t-12.5 3t-13 0.5q-45 0 -73 -39.5t-28 -98.5h-118q1 115 62 186.5t157 71.5q69 0 147 -65l45 -35q60 -51 105 -51q43 0 67.5 38.5t24.5 98.5h119
q0 -121 -54.5 -190.5t-152.5 -69.5zM905 -35q-163 0 -310 62.5t-255 171.5t-172 265t-64 333t63.5 332.5t171.5 265t255.5 172.5t312.5 63q166 0 314.5 -64.5t255.5 -175t169 -265t62 -328.5t-63 -329t-170.5 -265t-256 -174t-313.5 -64zM909 121q125 0 238.5 51t198 139.5
t134.5 215.5t50 270t-49.5 270t-134 216t-198.5 140.5t-239 51.5q-126 0 -241 -51t-200.5 -140t-136 -216t-50.5 -271t50.5 -271t136 -215t200.5 -139t241 -51z" />
    <glyph glyph-name="Odieresis" unicode="&#xd6;" horiz-adv-x="1812" 
d="M702 1780q-51 0 -84.5 33.5t-33.5 84.5q0 47 34 81t84 34q49 0 82 -34t33 -81q0 -51 -32.5 -84.5t-82.5 -33.5zM1108 1780q-52 0 -85.5 33.5t-33.5 84.5q0 47 34 81t85 34q47 0 81 -34.5t34 -80.5q0 -50 -33.5 -84t-81.5 -34zM905 -35q-163 0 -310 62.5t-255 171.5
t-172 265t-64 333t63.5 332.5t171.5 265t255.5 172.5t312.5 63q166 0 314.5 -64.5t255.5 -175t169 -265t62 -328.5t-63 -329t-170.5 -265t-256 -174t-313.5 -64zM909 121q125 0 238.5 51t198 139.5t134.5 215.5t50 270t-49.5 270t-134 216t-198.5 140.5t-239 51.5
q-126 0 -241 -51t-200.5 -140t-136 -216t-50.5 -271t50.5 -271t136 -215t200.5 -139t241 -51z" />
    <glyph glyph-name="multiply" unicode="&#xd7;" horiz-adv-x="937" 
d="M377 625l-234 231l97 96l233 -231l225 225l95 -96l-226 -223l232 -234l-97 -94l-231 231l-227 -227l-94 94z" />
    <glyph glyph-name="Oslash" unicode="&#xd8;" horiz-adv-x="1812" 
d="M1579 1661l-154 -223q133 -116 208 -282t75 -359q0 -174 -63 -329t-170.5 -265t-256 -174t-313.5 -64q-221 0 -411 113l-99 -144h-170l156 228q-129 113 -203 277.5t-74 357.5q0 177 63.5 332.5t171.5 265t255.5 172.5t312.5 63q223 0 404 -108l96 139h172zM281 797
q0 -149 51.5 -276t144.5 -220l742 1085q-141 89 -310 89q-126 0 -241 -51t-200.5 -140t-136 -216t-50.5 -271zM909 121q125 0 238.5 51t198 139.5t134.5 215.5t50 270q0 150 -53 279t-146 222l-743 -1085q147 -92 321 -92z" />
    <glyph glyph-name="Ugrave" unicode="&#xd9;" horiz-adv-x="1538" 
d="M870 1722h-143l-338 328h223zM764 -35q-284 0 -429 164.5t-145 456.5v1011h166v-1001q0 -242 107 -359.5t307 -117.5q199 0 305.5 117.5t106.5 359.5v1001h166v-1011q0 -104 -19.5 -194t-63.5 -169.5t-110.5 -136t-166 -89t-224.5 -32.5z" />
    <glyph glyph-name="Uacute" unicode="&#xda;" horiz-adv-x="1538" 
d="M1114 2050l-336 -330h-143l256 330h223zM764 -35q-284 0 -429 164.5t-145 456.5v1011h166v-1001q0 -242 107 -359.5t307 -117.5q199 0 305.5 117.5t106.5 359.5v1001h166v-1011q0 -104 -19.5 -194t-63.5 -169.5t-110.5 -136t-166 -89t-224.5 -32.5z" />
    <glyph glyph-name="Ucircumflex" unicode="&#xdb;" horiz-adv-x="1538" 
d="M551 1722h-145l270 314h186l271 -314h-146q-43 40 -69.5 67t-61 74t-59.5 99h-52q-37 -75 -82.5 -128t-111.5 -112zM764 -35q-284 0 -429 164.5t-145 456.5v1011h166v-1001q0 -242 107 -359.5t307 -117.5q199 0 305.5 117.5t106.5 359.5v1001h166v-1011
q0 -104 -19.5 -194t-63.5 -169.5t-110.5 -136t-166 -89t-224.5 -32.5z" />
    <glyph glyph-name="Udieresis" unicode="&#xdc;" horiz-adv-x="1538" 
d="M569 1780q-51 0 -84.5 33.5t-33.5 84.5q0 47 34 81t84 34q49 0 82 -34t33 -81q0 -51 -32.5 -84.5t-82.5 -33.5zM975 1780q-52 0 -85.5 33.5t-33.5 84.5q0 47 34 81t85 34q47 0 81 -34.5t34 -80.5q0 -50 -33.5 -84t-81.5 -34zM764 -35q-284 0 -429 164.5t-145 456.5v1011
h166v-1001q0 -242 107 -359.5t307 -117.5q199 0 305.5 117.5t106.5 359.5v1001h166v-1011q0 -104 -19.5 -194t-63.5 -169.5t-110.5 -136t-166 -89t-224.5 -32.5z" />
    <glyph glyph-name="Yacute" unicode="&#xdd;" horiz-adv-x="1417" 
d="M1090 2050l-338 -330h-144l258 330h224zM791 0h-166q0 387 12 582q-181 293 -602 1015h180q304 -522 481 -892h25q22 47 46.5 97t45.5 91t49.5 94.5t46 87t50 91.5t47.5 85t51 90t47.5 83t51 88.5t48.5 84.5h178q-48 -81 -145 -247.5t-156 -266.5t-144 -241.5
t-159 -259.5q13 -211 13 -582z" />
    <glyph glyph-name="Thorn" unicode="&#xde;" horiz-adv-x="1398" 
d="M377 0h-166v1597h166q0 -101 -23 -280h424q103 0 196 -29.5t167.5 -86.5t119 -150.5t44.5 -210.5q0 -122 -45 -219t-118 -154.5t-159 -87t-176 -29.5q-111 0 -166.5 1.5t-135.5 11.5t-151 30q23 -207 23 -393zM352 487l21 -20q66 15 140.5 23t120 9t126.5 1q168 0 269 85
t101 246q0 160 -106.5 247t-275.5 87q-240 0 -375 27l-25 -18q39 -338 4 -687z" />
    <glyph glyph-name="germandbls" unicode="&#xdf;" horiz-adv-x="1275" 
d="M334 0h-156v1143q0 39 3 76.5t14.5 92.5t30.5 102t55 96.5t84.5 84t122 56.5t163.5 22q225 0 353.5 -123t128.5 -315q0 -157 -84.5 -260t-227.5 -115v-31q169 -9 267 -108t98 -260q0 -94 -34.5 -176t-100 -146.5t-169 -101.5t-233.5 -37h-147v137h164q156 0 255 92
t99 232q0 132 -87.5 218.5t-225.5 86.5h-101v137h88q122 0 198.5 84t76.5 225q0 139 -80 229.5t-238 90.5q-81 0 -141.5 -27.5t-93 -66t-52 -91t-25 -92.5t-5.5 -81v-1174z" />
    <glyph glyph-name="agrave" unicode="&#xe0;" horiz-adv-x="1177" 
d="M674 1278h-137l-312 391h205zM455 -35q-99 0 -179.5 32t-132 101t-51.5 166q0 78 32 138t91 100t126.5 65.5t154.5 42.5q27 6 68.5 14t64 12.5t55 12t50 14t40 16t34.5 20.5t23.5 26t16 33t4.5 41q0 95 -76 164t-196 69q-109 0 -187.5 -61t-109.5 -168l-152 51
q48 155 174.5 233t282.5 78q83 0 157.5 -22.5t135.5 -67t97 -119.5t36 -172v-430q0 -131 9 -205.5t28 -148.5h-158q-11 44 -16 76t-3.5 78.5t13.5 101.5h-25q-54 -139 -157 -215t-250 -76zM483 92q82 0 154 35t118 89.5t72.5 116.5t26.5 118v159q-46 -43 -99.5 -64
t-162.5 -42q-40 -8 -69.5 -15t-72 -20.5t-72 -30.5t-58 -40.5t-43.5 -56t-15 -71.5q0 -83 61 -130.5t160 -47.5z" />
    <glyph glyph-name="aacute" unicode="&#xe1;" horiz-adv-x="1177" 
d="M969 1669l-312 -391h-137l242 391h207zM455 -35q-99 0 -179.5 32t-132 101t-51.5 166q0 78 32 138t91 100t126.5 65.5t154.5 42.5q27 6 68.5 14t64 12.5t55 12t50 14t40 16t34.5 20.5t23.5 26t16 33t4.5 41q0 95 -76 164t-196 69q-109 0 -187.5 -61t-109.5 -168l-152 51
q48 155 174.5 233t282.5 78q83 0 157.5 -22.5t135.5 -67t97 -119.5t36 -172v-430q0 -131 9 -205.5t28 -148.5h-158q-11 44 -16 76t-3.5 78.5t13.5 101.5h-25q-54 -139 -157 -215t-250 -76zM483 92q82 0 154 35t118 89.5t72.5 116.5t26.5 118v159q-46 -43 -99.5 -64
t-162.5 -42q-40 -8 -69.5 -15t-72 -20.5t-72 -30.5t-58 -40.5t-43.5 -56t-15 -71.5q0 -83 61 -130.5t160 -47.5z" />
    <glyph glyph-name="acircumflex" unicode="&#xe2;" horiz-adv-x="1177" 
d="M352 1278h-147l297 360h192l297 -360h-147q-60 62 -84 87t-67 79.5t-70 105.5h-50q-28 -51 -68 -103t-70 -84t-83 -85zM455 -35q-99 0 -179.5 32t-132 101t-51.5 166q0 78 32 138t91 100t126.5 65.5t154.5 42.5q27 6 68.5 14t64 12.5t55 12t50 14t40 16t34.5 20.5
t23.5 26t16 33t4.5 41q0 95 -76 164t-196 69q-109 0 -187.5 -61t-109.5 -168l-152 51q48 155 174.5 233t282.5 78q83 0 157.5 -22.5t135.5 -67t97 -119.5t36 -172v-430q0 -131 9 -205.5t28 -148.5h-158q-11 44 -16 76t-3.5 78.5t13.5 101.5h-25q-54 -139 -157 -215t-250 -76
zM483 92q82 0 154 35t118 89.5t72.5 116.5t26.5 118v159q-46 -43 -99.5 -64t-162.5 -42q-40 -8 -69.5 -15t-72 -20.5t-72 -30.5t-58 -40.5t-43.5 -56t-15 -71.5q0 -83 61 -130.5t160 -47.5z" />
    <glyph glyph-name="atilde" unicode="&#xe3;" horiz-adv-x="1177" 
d="M756 1323q-36 0 -68.5 12t-47 23t-46.5 37l-43 32l-9 7q-8 8 -9.5 9t-9 7t-10.5 7.5t-10 6t-11.5 6t-11 4t-12.5 3t-13 0.5q-45 0 -73 -39.5t-28 -98.5h-118q1 115 62 186.5t157 71.5q69 0 147 -65l45 -35q60 -51 105 -51q43 0 67.5 38.5t24.5 98.5h119
q0 -121 -54.5 -190.5t-152.5 -69.5zM455 -35q-99 0 -179.5 32t-132 101t-51.5 166q0 78 32 138t91 100t126.5 65.5t154.5 42.5q27 6 68.5 14t64 12.5t55 12t50 14t40 16t34.5 20.5t23.5 26t16 33t4.5 41q0 95 -76 164t-196 69q-109 0 -187.5 -61t-109.5 -168l-152 51
q48 155 174.5 233t282.5 78q83 0 157.5 -22.5t135.5 -67t97 -119.5t36 -172v-430q0 -131 9 -205.5t28 -148.5h-158q-11 44 -16 76t-3.5 78.5t13.5 101.5h-25q-54 -139 -157 -215t-250 -76zM483 92q82 0 154 35t118 89.5t72.5 116.5t26.5 118v159q-46 -43 -99.5 -64
t-162.5 -42q-40 -8 -69.5 -15t-72 -20.5t-72 -30.5t-58 -40.5t-43.5 -56t-15 -71.5q0 -83 61 -130.5t160 -47.5z" />
    <glyph glyph-name="adieresis" unicode="&#xe4;" horiz-adv-x="1177" 
d="M416 1362q-47 0 -80 34t-33 83q0 45 33 77.5t80 32.5t78.5 -32.5t31.5 -77.5q0 -50 -31.5 -83.5t-78.5 -33.5zM782 1362q-49 0 -80.5 33.5t-31.5 83.5q0 45 32 77.5t80 32.5q46 0 78.5 -32.5t32.5 -77.5q0 -49 -32.5 -83t-78.5 -34zM455 -35q-99 0 -179.5 32t-132 101
t-51.5 166q0 78 32 138t91 100t126.5 65.5t154.5 42.5q27 6 68.5 14t64 12.5t55 12t50 14t40 16t34.5 20.5t23.5 26t16 33t4.5 41q0 95 -76 164t-196 69q-109 0 -187.5 -61t-109.5 -168l-152 51q48 155 174.5 233t282.5 78q83 0 157.5 -22.5t135.5 -67t97 -119.5t36 -172
v-430q0 -131 9 -205.5t28 -148.5h-158q-11 44 -16 76t-3.5 78.5t13.5 101.5h-25q-54 -139 -157 -215t-250 -76zM483 92q82 0 154 35t118 89.5t72.5 116.5t26.5 118v159q-46 -43 -99.5 -64t-162.5 -42q-40 -8 -69.5 -15t-72 -20.5t-72 -30.5t-58 -40.5t-43.5 -56t-15 -71.5
q0 -83 61 -130.5t160 -47.5z" />
    <glyph glyph-name="aring" unicode="&#xe5;" horiz-adv-x="1177" 
d="M600 1249q-100 0 -165.5 63.5t-65.5 160.5t65.5 160t165.5 63q97 0 163 -63.5t66 -159.5q0 -97 -65.5 -160.5t-163.5 -63.5zM600 1346q55 0 92 35t37 92q0 56 -37 90t-92 34q-58 0 -94.5 -34t-36.5 -90q0 -58 36.5 -92.5t94.5 -34.5zM455 -35q-99 0 -179.5 32t-132 101
t-51.5 166q0 78 32 138t91 100t126.5 65.5t154.5 42.5q27 6 68.5 14t64 12.5t55 12t50 14t40 16t34.5 20.5t23.5 26t16 33t4.5 41q0 95 -76 164t-196 69q-109 0 -187.5 -61t-109.5 -168l-152 51q48 155 174.5 233t282.5 78q83 0 157.5 -22.5t135.5 -67t97 -119.5t36 -172
v-430q0 -131 9 -205.5t28 -148.5h-158q-11 44 -16 76t-3.5 78.5t13.5 101.5h-25q-54 -139 -157 -215t-250 -76zM483 92q82 0 154 35t118 89.5t72.5 116.5t26.5 118v159q-46 -43 -99.5 -64t-162.5 -42q-40 -8 -69.5 -15t-72 -20.5t-72 -30.5t-58 -40.5t-43.5 -56t-15 -71.5
q0 -83 61 -130.5t160 -47.5z" />
    <glyph glyph-name="ae" unicode="&#xe6;" horiz-adv-x="2037" 
d="M457 -35q-161 0 -263 78t-102 221q0 80 33 141t93 100.5t127 63.5t153 41q27 6 70.5 14t68 13t59 13.5t54 16.5t42.5 21t34.5 28t19.5 36t8 47q0 93 -76.5 163t-195.5 70q-109 0 -187.5 -61.5t-111.5 -167.5l-150 51q33 104 106 176t162 103.5t189 31.5q84 0 157.5 -23
t137.5 -81t92 -146q70 122 183 186t255 64q72 0 140.5 -15.5t139 -56.5t123 -103.5t86 -164.5t33.5 -231v-55h-921q6 -193 119.5 -313t285.5 -120q136 0 236.5 76t148.5 199l144 -53q-63 -170 -204.5 -266.5t-326.5 -96.5q-172 0 -301 84.5t-178 255.5h-25
q-53 -155 -176 -247.5t-282 -92.5zM1024 662h748q-3 79 -26.5 143t-59.5 104.5t-83 68t-95 39t-99 11.5q-153 0 -256.5 -100.5t-128.5 -265.5zM489 90q78 0 148 36t116.5 91t73.5 117.5t27 116.5v161q-43 -43 -101.5 -66.5t-152.5 -37.5q-338 -54 -338 -236q0 -84 63 -133
t164 -49z" />
    <glyph glyph-name="ccedilla" unicode="&#xe7;" horiz-adv-x="1245" 
d="M686 -35q-59 -74 -113 -121l11 -10q53 31 104 31q79 0 131.5 -47.5t52.5 -122.5q0 -85 -66.5 -138t-168.5 -53q-76 0 -145.5 31t-112.5 84l61 66q33 -44 84.5 -68.5t104.5 -24.5q57 0 95 28.5t38 72.5q0 42 -34 69t-87 27q-51 0 -96 -25l-60 54l99 151
q-221 25 -356.5 186t-135.5 408q0 269 158 435.5t407 166.5q165 0 298 -80.5t196 -244.5l-152 -58q-39 113 -131.5 175.5t-216.5 62.5q-178 0 -286.5 -129t-108.5 -326q0 -204 114 -329t294 -125q140 0 240 76.5t149 205.5l143 -53q-62 -172 -197.5 -269.5t-312.5 -105.5z
" />
    <glyph glyph-name="egrave" unicode="&#xe8;" horiz-adv-x="1269" 
d="M715 1278h-137l-312 391h205zM653 -35q-244 0 -402.5 166t-158.5 432q0 264 156.5 433t400.5 169q71 0 139.5 -15.5t139 -56.5t122.5 -103.5t85.5 -164.5t33.5 -231v-70h-915q6 -193 118 -306.5t285 -113.5q135 0 234 76.5t147 200.5l144 -53q-63 -170 -203.5 -266.5
t-325.5 -96.5zM260 659h746q-2 79 -24.5 143t-57.5 105.5t-82 69t-95.5 39.5t-101.5 12q-154 0 -257 -101.5t-128 -267.5z" />
    <glyph glyph-name="eacute" unicode="&#xe9;" horiz-adv-x="1269" 
d="M1010 1669l-312 -391h-137l242 391h207zM653 -35q-244 0 -402.5 166t-158.5 432q0 264 156.5 433t400.5 169q71 0 139.5 -15.5t139 -56.5t122.5 -103.5t85.5 -164.5t33.5 -231v-70h-915q6 -193 118 -306.5t285 -113.5q135 0 234 76.5t147 200.5l144 -53
q-63 -170 -203.5 -266.5t-325.5 -96.5zM260 659h746q-2 79 -24.5 143t-57.5 105.5t-82 69t-95.5 39.5t-101.5 12q-154 0 -257 -101.5t-128 -267.5z" />
    <glyph glyph-name="ecircumflex" unicode="&#xea;" horiz-adv-x="1269" 
d="M393 1278h-147l297 360h192l297 -360h-147q-60 62 -84 87t-67 79.5t-70 105.5h-50q-28 -51 -68 -103t-70 -84t-83 -85zM653 -35q-244 0 -402.5 166t-158.5 432q0 264 156.5 433t400.5 169q71 0 139.5 -15.5t139 -56.5t122.5 -103.5t85.5 -164.5t33.5 -231v-70h-915
q6 -193 118 -306.5t285 -113.5q135 0 234 76.5t147 200.5l144 -53q-63 -170 -203.5 -266.5t-325.5 -96.5zM260 659h746q-2 79 -24.5 143t-57.5 105.5t-82 69t-95.5 39.5t-101.5 12q-154 0 -257 -101.5t-128 -267.5z" />
    <glyph glyph-name="edieresis" unicode="&#xeb;" horiz-adv-x="1269" 
d="M457 1362q-47 0 -80 34t-33 83q0 45 33 77.5t80 32.5t78.5 -32.5t31.5 -77.5q0 -50 -31.5 -83.5t-78.5 -33.5zM823 1362q-49 0 -80.5 33.5t-31.5 83.5q0 45 32 77.5t80 32.5q45 0 78 -32.5t33 -77.5q0 -49 -32.5 -83t-78.5 -34zM653 -35q-244 0 -402.5 166t-158.5 432
q0 264 156.5 433t400.5 169q71 0 139.5 -15.5t139 -56.5t122.5 -103.5t85.5 -164.5t33.5 -231v-70h-915q6 -193 118 -306.5t285 -113.5q135 0 234 76.5t147 200.5l144 -53q-63 -170 -203.5 -266.5t-325.5 -96.5zM260 659h746q-2 79 -24.5 143t-57.5 105.5t-82 69t-95.5 39.5
t-101.5 12q-154 0 -257 -101.5t-128 -267.5z" />
    <glyph glyph-name="igrave" unicode="&#xec;" horiz-adv-x="509" 
d="M332 1272h-137l-312 391h205zM334 0h-156v1133h156v-1133z" />
    <glyph glyph-name="iacute" unicode="&#xed;" horiz-adv-x="509" 
d="M627 1663l-312 -391h-137l242 391h207zM334 0h-156v1133h156v-1133z" />
    <glyph glyph-name="icircumflex" unicode="&#xee;" horiz-adv-x="509" 
d="M8 1272h-147l297 360h192l297 -360h-147q-60 62 -84 87t-67 79.5t-70 105.5h-50q-28 -51 -68 -103t-70 -84t-83 -85zM334 0h-156v1133h156v-1133z" />
    <glyph glyph-name="idieresis" unicode="&#xef;" horiz-adv-x="509" 
d="M72 1356q-48 0 -81.5 34t-33.5 83q0 44 34 77t81 33t78.5 -32.5t31.5 -77.5q0 -50 -31.5 -83.5t-78.5 -33.5zM438 1356q-49 0 -80.5 33.5t-31.5 83.5q0 45 32 77.5t80 32.5q46 0 78.5 -32.5t32.5 -77.5q0 -49 -32.5 -83t-78.5 -34zM334 0h-156v1133h156v-1133z" />
    <glyph glyph-name="eth" unicode="&#xf0;" horiz-adv-x="1329" 
d="M1034 1563l-188 -109q375 -290 375 -788q0 -330 -154 -515.5t-414 -185.5q-168 0 -298 79.5t-197.5 210t-67.5 286.5q0 121 42.5 226.5t114.5 179t170 115.5t208 42q131 0 233 -61.5t193 -194.5h26q-62 176 -152 303.5t-220 222.5l-295 -170l-52 86l250 144
q-121 71 -293 131l43 129q223 -69 396 -176l227 131zM649 106q170 0 282.5 120.5t112.5 310.5q0 191 -112.5 310.5t-280.5 119.5q-171 0 -284 -122.5t-113 -307.5q0 -118 49 -216t140 -156.5t206 -58.5z" />
    <glyph glyph-name="ntilde" unicode="&#xf1;" horiz-adv-x="1298" 
d="M803 1323q-36 0 -68.5 12t-47 23t-46.5 37l-43 32l-8 7q-9 8 -10.5 9t-9 7t-10.5 7.5t-10 6t-11.5 6t-11 4t-12.5 3t-13 0.5q-45 0 -73 -39.5t-28 -98.5h-118q1 115 62 186.5t157 71.5q69 0 147 -65l45 -35q60 -51 105 -51q43 0 67.5 38.5t24.5 98.5h119
q0 -121 -54.5 -190.5t-152.5 -69.5zM334 0h-156v1133h152q0 -142 -29 -242h25q130 274 401 274q80 0 150.5 -24.5t130 -75t94.5 -141.5t35 -213v-711h-156v641q0 190 -82.5 284.5t-216.5 94.5q-106 0 -187 -57t-121 -145t-40 -191v-627z" />
    <glyph glyph-name="ograve" unicode="&#xf2;" horiz-adv-x="1320" 
d="M737 1278h-137l-311 391h205zM662 -35q-252 0 -411 167t-159 431q0 266 159 434t411 168q250 0 408.5 -168t158.5 -434q0 -264 -158.5 -431t-408.5 -167zM662 111q178 0 289.5 126t111.5 326q0 202 -111.5 329.5t-289.5 127.5q-179 0 -291.5 -127.5t-112.5 -329.5
q0 -200 112 -326t292 -126z" />
    <glyph glyph-name="oacute" unicode="&#xf3;" horiz-adv-x="1320" 
d="M1032 1669l-311 -391h-137l241 391h207zM662 -35q-252 0 -411 167t-159 431q0 266 159 434t411 168q250 0 408.5 -168t158.5 -434q0 -264 -158.5 -431t-408.5 -167zM662 111q178 0 289.5 126t111.5 326q0 202 -111.5 329.5t-289.5 127.5q-179 0 -291.5 -127.5
t-112.5 -329.5q0 -200 112 -326t292 -126z" />
    <glyph glyph-name="ocircumflex" unicode="&#xf4;" horiz-adv-x="1320" 
d="M416 1278h-148l297 360h193l297 -360h-148q-60 62 -84 87t-67 79.5t-70 105.5h-49q-28 -51 -68 -103t-70 -84t-83 -85zM662 -35q-252 0 -411 167t-159 431q0 266 159 434t411 168q250 0 408.5 -168t158.5 -434q0 -264 -158.5 -431t-408.5 -167zM662 111q178 0 289.5 126
t111.5 326q0 202 -111.5 329.5t-289.5 127.5q-179 0 -291.5 -127.5t-112.5 -329.5q0 -200 112 -326t292 -126z" />
    <glyph glyph-name="otilde" unicode="&#xf5;" horiz-adv-x="1320" 
d="M819 1323q-36 0 -68.5 12t-47 23t-46.5 37l-43 32l-8 7q-9 8 -10.5 9t-9 7t-10.5 7.5t-10 6t-11.5 6t-11 4t-12.5 3t-13 0.5q-45 0 -72.5 -39t-27.5 -99h-119q1 115 62 186.5t157 71.5q70 0 148 -65l45 -35q60 -51 104 -51q43 0 67.5 38.5t24.5 98.5h119
q0 -121 -54.5 -190.5t-152.5 -69.5zM662 -35q-252 0 -411 167t-159 431q0 266 159 434t411 168q250 0 408.5 -168t158.5 -434q0 -264 -158.5 -431t-408.5 -167zM662 111q178 0 289.5 126t111.5 326q0 202 -111.5 329.5t-289.5 127.5q-179 0 -291.5 -127.5t-112.5 -329.5
q0 -200 112 -326t292 -126z" />
    <glyph glyph-name="odieresis" unicode="&#xf6;" horiz-adv-x="1320" 
d="M479 1362q-47 0 -79.5 34t-32.5 83q0 45 32.5 77.5t79.5 32.5t79 -32.5t32 -77.5q0 -50 -32 -83.5t-79 -33.5zM846 1362q-49 0 -81 33.5t-32 83.5q0 45 32 77.5t81 32.5q45 0 77.5 -32.5t32.5 -77.5q0 -49 -32 -83t-78 -34zM662 -35q-252 0 -411 167t-159 431
q0 266 159 434t411 168q250 0 408.5 -168t158.5 -434q0 -264 -158.5 -431t-408.5 -167zM662 111q178 0 289.5 126t111.5 326q0 202 -111.5 329.5t-289.5 127.5q-179 0 -291.5 -127.5t-112.5 -329.5q0 -200 112 -326t292 -126z" />
    <glyph glyph-name="divide" unicode="&#xf7;" horiz-adv-x="1052" 
d="M530 831q-47 0 -79.5 33.5t-32.5 81.5q0 47 32.5 80t79.5 33t80 -33t33 -80t-33 -81t-80 -34zM907 559h-762v133h762v-133zM530 193q-47 0 -79.5 33.5t-32.5 80.5t32.5 80t79.5 33t80 -33t33 -80t-33 -80.5t-80 -33.5z" />
    <glyph glyph-name="oslash" unicode="&#xf8;" horiz-adv-x="1320" 
d="M1196 1182l-131 -178q78 -81 121 -194.5t43 -246.5q0 -264 -158.5 -431t-408.5 -167q-173 0 -306 82l-75 -104h-154l133 180q-80 79 -124 192t-44 248q0 266 159 434t411 168q178 0 311 -88l78 105h145zM258 563q0 -187 100 -311l523 702q-94 66 -219 66
q-179 0 -291.5 -127.5t-112.5 -329.5zM662 111q178 0 289.5 126t111.5 326q0 183 -96 309l-518 -702q89 -59 213 -59z" />
    <glyph glyph-name="ugrave" unicode="&#xf9;" horiz-adv-x="1280" 
d="M698 1278h-137l-311 391h205zM569 -35q-82 0 -152.5 24.5t-129 76.5t-92 143t-33.5 213v711h155v-652q0 -99 24.5 -173t66.5 -115.5t92 -61.5t108 -20q79 0 144.5 34.5t106.5 90.5t63 124t22 138v635h156v-779q0 -131 9 -205.5t28 -148.5h-156q-12 48 -17 78t-3.5 76
t14.5 98h-27q-59 -153 -154 -220t-225 -67z" />
    <glyph glyph-name="uacute" unicode="&#xfa;" horiz-adv-x="1280" 
d="M993 1669l-311 -391h-137l241 391h207zM569 -35q-82 0 -152.5 24.5t-129 76.5t-92 143t-33.5 213v711h155v-652q0 -99 24.5 -173t66.5 -115.5t92 -61.5t108 -20q79 0 144.5 34.5t106.5 90.5t63 124t22 138v635h156v-779q0 -131 9 -205.5t28 -148.5h-156q-12 48 -17 78
t-3.5 76t14.5 98h-27q-59 -153 -154 -220t-225 -67z" />
    <glyph glyph-name="ucircumflex" unicode="&#xfb;" horiz-adv-x="1280" 
d="M377 1278h-148l297 360h193l297 -360h-148q-60 62 -84 87t-67 79.5t-70 105.5h-49q-28 -51 -68 -103t-70 -84t-83 -85zM569 -35q-82 0 -152.5 24.5t-129 76.5t-92 143t-33.5 213v711h155v-652q0 -99 24.5 -173t66.5 -115.5t92 -61.5t108 -20q79 0 144.5 34.5t106.5 90.5
t63 124t22 138v635h156v-779q0 -131 9 -205.5t28 -148.5h-156q-12 48 -17 78t-3.5 76t14.5 98h-27q-59 -153 -154 -220t-225 -67z" />
    <glyph glyph-name="udieresis" unicode="&#xfc;" horiz-adv-x="1280" 
d="M440 1362q-47 0 -79.5 34t-32.5 83q0 45 32.5 77.5t79.5 32.5t79 -32.5t32 -77.5q0 -50 -32 -83.5t-79 -33.5zM807 1362q-49 0 -81 33.5t-32 83.5q0 45 32 77.5t81 32.5q45 0 78 -32.5t33 -77.5q0 -49 -32.5 -83t-78.5 -34zM569 -35q-82 0 -152.5 24.5t-129 76.5t-92 143
t-33.5 213v711h155v-652q0 -99 24.5 -173t66.5 -115.5t92 -61.5t108 -20q79 0 144.5 34.5t106.5 90.5t63 124t22 138v635h156v-779q0 -131 9 -205.5t28 -148.5h-156q-12 48 -17 78t-3.5 76t14.5 98h-27q-59 -153 -154 -220t-225 -67z" />
    <glyph glyph-name="yacute" unicode="&#xfd;" horiz-adv-x="1126" 
d="M924 1669l-312 -391h-137l242 391h207zM469 -451h-152l168 431l-456 1153h172q215 -544 352 -998h27q136 455 348 998h170z" />
    <glyph glyph-name="thorn" unicode="&#xfe;" horiz-adv-x="1370" 
d="M334 -451h-156v2089h156v-118v-131.5t-1 -116t-3.5 -135.5t-6.5 -121t-10 -137h25q68 146 177 216t245 70q148 0 266.5 -77.5t185 -214.5t66.5 -308q0 -175 -70 -313t-189 -212.5t-265 -74.5q-133 0 -242.5 70t-173.5 207h-27q6 -52 10 -103t6.5 -107t4 -95t2 -102.5
t0.5 -92.5v-100.5v-92.5zM727 111q167 0 276 128.5t109 325.5q0 198 -109.5 326.5t-275.5 128.5t-280.5 -129t-114.5 -328q0 -198 115 -325t280 -127z" />
    <glyph glyph-name="ydieresis" unicode="&#xff;" horiz-adv-x="1126" 
d="M371 1362q-47 0 -80 34t-33 83q0 45 33 77.5t80 32.5t78.5 -32.5t31.5 -77.5q0 -50 -31.5 -83.5t-78.5 -33.5zM737 1362q-49 0 -80.5 33.5t-31.5 83.5q0 45 32 77.5t80 32.5q45 0 78 -32.5t33 -77.5q0 -49 -32.5 -83t-78.5 -34zM469 -451h-152l168 431l-456 1153h172
q215 -544 352 -998h27q136 455 348 998h170z" />
    <glyph glyph-name="Amacron" unicode="&#x100;" horiz-adv-x="1521" 
d="M1100 1821h-680v129h680v-129zM201 0h-174l643 1597h182l643 -1597h-176q-140 335 -193 547l-20 18q-202 -26 -334 -26q-138 0 -352 26l-23 -20q-62 -217 -196 -545zM457 688l12 -20q178 24 303 24t272 -24l15 18q-185 397 -275 754h-51q-98 -372 -276 -752z" />
    <glyph glyph-name="amacron" unicode="&#x101;" horiz-adv-x="1177" 
d="M944 1405h-688v125h688v-125zM455 -35q-99 0 -179.5 32t-132 101t-51.5 166q0 78 32 138t91 100t126.5 65.5t154.5 42.5q27 6 68.5 14t64 12.5t55 12t50 14t40 16t34.5 20.5t23.5 26t16 33t4.5 41q0 95 -76 164t-196 69q-109 0 -187.5 -61t-109.5 -168l-152 51
q48 155 174.5 233t282.5 78q83 0 157.5 -22.5t135.5 -67t97 -119.5t36 -172v-430q0 -131 9 -205.5t28 -148.5h-158q-11 44 -16 76t-3.5 78.5t13.5 101.5h-25q-54 -139 -157 -215t-250 -76zM483 92q82 0 154 35t118 89.5t72.5 116.5t26.5 118v159q-46 -43 -99.5 -64
t-162.5 -42q-40 -8 -69.5 -15t-72 -20.5t-72 -30.5t-58 -40.5t-43.5 -56t-15 -71.5q0 -83 61 -130.5t160 -47.5z" />
    <glyph glyph-name="Abreve" unicode="&#x102;" horiz-adv-x="1521" 
d="M760 1724q-165 0 -270 100.5t-111 229.5h141q5 -81 73 -144t167 -63q100 0 168 63t73 144h140q-2 -61 -29.5 -119.5t-75 -105.5t-120 -76t-156.5 -29zM201 0h-174l643 1597h182l643 -1597h-176q-140 335 -193 547l-20 18q-202 -26 -334 -26q-138 0 -352 26l-23 -20
q-62 -217 -196 -545zM457 688l12 -20q178 24 303 24t272 -24l15 18q-185 397 -275 754h-51q-98 -372 -276 -752z" />
    <glyph glyph-name="abreve" unicode="&#x103;" horiz-adv-x="1177" 
d="M598 1274q-170 0 -269.5 111t-105.5 284h135q4 -121 71 -195.5t171 -74.5q106 0 172.5 74t71.5 196h135q-6 -174 -106.5 -284.5t-274.5 -110.5zM455 -35q-99 0 -179.5 32t-132 101t-51.5 166q0 78 32 138t91 100t126.5 65.5t154.5 42.5q27 6 68.5 14t64 12.5t55 12t50 14
t40 16t34.5 20.5t23.5 26t16 33t4.5 41q0 95 -76 164t-196 69q-109 0 -187.5 -61t-109.5 -168l-152 51q48 155 174.5 233t282.5 78q83 0 157.5 -22.5t135.5 -67t97 -119.5t36 -172v-430q0 -131 9 -205.5t28 -148.5h-158q-11 44 -16 76t-3.5 78.5t13.5 101.5h-25
q-54 -139 -157 -215t-250 -76zM483 92q82 0 154 35t118 89.5t72.5 116.5t26.5 118v159q-46 -43 -99.5 -64t-162.5 -42q-40 -8 -69.5 -15t-72 -20.5t-72 -30.5t-58 -40.5t-43.5 -56t-15 -71.5q0 -83 61 -130.5t160 -47.5z" />
    <glyph glyph-name="Aogonek" unicode="&#x104;" horiz-adv-x="1521" 
d="M1454 -354q44 0 88 12v-107q-55 -14 -104 -14q-119 0 -198 62t-79 172q0 137 162 229h-4q-140 335 -193 547l-20 18q-202 -26 -334 -26q-138 0 -352 26l-23 -20q-62 -217 -196 -545h-174l643 1597h182l643 -1597h-41q-87 -37 -130.5 -90t-43.5 -113q0 -66 49 -108.5
t125 -42.5zM1044 668l15 18q-185 397 -275 754h-51q-98 -372 -276 -752l12 -20q178 24 303 24t272 -24z" />
    <glyph glyph-name="aogonek" unicode="&#x105;" horiz-adv-x="1177" 
d="M1016 -350q44 0 90 14v-113q-55 -14 -105 -14q-117 0 -194.5 62.5t-77.5 169.5q0 141 166 231h-2q-11 44 -16 76t-3.5 78.5t13.5 101.5h-25q-54 -139 -157 -215t-250 -76q-99 0 -179.5 32t-132 101t-51.5 166q0 78 32 138t91 100t126.5 65.5t154.5 42.5q27 6 68.5 14
t64 12.5t55 12t50 14t40 16t34.5 20.5t23.5 26t16 33t4.5 41q0 95 -76 164t-196 69q-109 0 -187.5 -61t-109.5 -168l-152 51q48 155 174.5 233t282.5 78q83 0 157.5 -22.5t135.5 -67t97 -119.5t36 -172v-430q0 -131 9 -205.5t28 -148.5h-33q-170 -78 -170 -203
q0 -66 48 -106.5t120 -40.5zM854 451v159q-46 -43 -99.5 -64t-162.5 -42q-40 -8 -69.5 -15t-72 -20.5t-72 -30.5t-58 -40.5t-43.5 -56t-15 -71.5q0 -83 61 -130.5t160 -47.5q82 0 154 35t118 89.5t72.5 116.5t26.5 118z" />
    <glyph glyph-name="Cacute" unicode="&#x106;" horiz-adv-x="1718" 
d="M1262 2050l-338 -328h-144l256 328h226zM915 -35q-234 0 -418.5 105t-287.5 294.5t-103 430.5q0 186 63.5 344t172 264.5t254 166.5t309.5 60q154 0 293.5 -51t251.5 -159.5t162 -260.5l-152 -61q-70 178 -218.5 277.5t-336.5 99.5q-127 0 -240 -47.5t-198 -133.5
t-134.5 -216.5t-49.5 -286.5q0 -133 36.5 -245t98.5 -189.5t145 -131.5t175 -79t190 -25q117 0 217.5 36.5t173.5 102t124.5 149t80.5 183.5l149 -53q-40 -128 -107.5 -232t-161 -181t-218.5 -119t-271 -42z" />
    <glyph glyph-name="cacute" unicode="&#x107;" horiz-adv-x="1245" 
d="M993 1669l-311 -391h-137l241 391h207zM657 -35q-249 0 -407 165.5t-158 432.5q0 269 158 435.5t407 166.5q165 0 298 -80.5t196 -244.5l-152 -58q-39 113 -131.5 175.5t-216.5 62.5q-178 0 -286.5 -129t-108.5 -326q0 -204 114 -329t294 -125q140 0 240 76.5t149 205.5
l143 -53q-65 -180 -208 -277.5t-331 -97.5z" />
    <glyph glyph-name="Cdotaccent" unicode="&#x10a;" horiz-adv-x="1718" 
d="M870 1782q-52 0 -87 36t-35 89q0 50 35 84t87 34t86.5 -34t34.5 -84q0 -53 -34.5 -89t-86.5 -36zM915 -35q-234 0 -418.5 105t-287.5 294.5t-103 430.5q0 186 63.5 344t172 264.5t254 166.5t309.5 60q154 0 293.5 -51t251.5 -159.5t162 -260.5l-152 -61
q-70 178 -218.5 277.5t-336.5 99.5q-127 0 -240 -47.5t-198 -133.5t-134.5 -216.5t-49.5 -286.5q0 -133 36.5 -245t98.5 -189.5t145 -131.5t175 -79t190 -25q117 0 217.5 36.5t173.5 102t124.5 149t80.5 183.5l149 -53q-40 -128 -107.5 -232t-161 -181t-218.5 -119t-271 -42
z" />
    <glyph glyph-name="cdotaccent" unicode="&#x10b;" horiz-adv-x="1245" 
d="M625 1405q-53 0 -88 36t-35 89q0 50 35 85.5t88 35.5q50 0 84 -35.5t34 -85.5q0 -53 -33.5 -89t-84.5 -36zM657 -35q-249 0 -407 165.5t-158 432.5q0 269 158 435.5t407 166.5q165 0 298 -80.5t196 -244.5l-152 -58q-39 113 -131.5 175.5t-216.5 62.5q-178 0 -286.5 -129
t-108.5 -326q0 -204 114 -329t294 -125q140 0 240 76.5t149 205.5l143 -53q-65 -180 -208 -277.5t-331 -97.5z" />
    <glyph glyph-name="Ccaron" unicode="&#x10c;" horiz-adv-x="1718" 
d="M963 1722h-189l-268 314h145q3 -3 20.5 -19.5t21 -20.5t19.5 -20t21.5 -22t19.5 -21.5t20.5 -24.5t18 -24t19 -27.5t16.5 -28.5t17 -32h51q26 51 62.5 99t59 71t70.5 70h146zM915 -35q-234 0 -418.5 105t-287.5 294.5t-103 430.5q0 186 63.5 344t172 264.5t254 166.5
t309.5 60q154 0 293.5 -51t251.5 -159.5t162 -260.5l-152 -61q-70 178 -218.5 277.5t-336.5 99.5q-127 0 -240 -47.5t-198 -133.5t-134.5 -216.5t-49.5 -286.5q0 -133 36.5 -245t98.5 -189.5t145 -131.5t175 -79t190 -25q117 0 217.5 36.5t173.5 102t124.5 149t80.5 183.5
l149 -53q-40 -128 -107.5 -232t-161 -181t-218.5 -119t-271 -42z" />
    <glyph glyph-name="ccaron" unicode="&#x10d;" horiz-adv-x="1245" 
d="M719 1284h-193l-297 365h148q51 -53 82.5 -88.5t72.5 -87t72 -101.5h39q9 16 20 32t19.5 28.5t22 30t21 27.5t24 28.5t22.5 25.5t25 28t22.5 25t25 27t23.5 25h148zM657 -35q-249 0 -407 165.5t-158 432.5q0 269 158 435.5t407 166.5q165 0 298 -80.5t196 -244.5
l-152 -58q-39 113 -131.5 175.5t-216.5 62.5q-178 0 -286.5 -129t-108.5 -326q0 -204 114 -329t294 -125q140 0 240 76.5t149 205.5l143 -53q-65 -180 -208 -277.5t-331 -97.5z" />
    <glyph glyph-name="Dcaron" unicode="&#x10e;" horiz-adv-x="1646" 
d="M856 1722h-188l-269 314h146q52 -50 72 -70.5t57.5 -69.5t62.5 -100h51q26 51 63 99.5t58.5 70t71.5 70.5h145zM799 0h-588v1597h569q156 0 283 -40.5t214.5 -112t146.5 -171.5t86.5 -216t27.5 -248q0 -238 -87 -420t-255.5 -285.5t-396.5 -103.5zM350 147l23 -24
q154 29 428 29q257 0 410 171t153 474q0 315 -168 482t-455 167q-233 0 -368 29l-25 -21q55 -645 2 -1307z" />
    <glyph glyph-name="dcaron" unicode="&#x10f;" horiz-adv-x="1372" 
d="M1452 1169h-98q27 54 46 88t52.5 82t71.5 88q-117 23 -117 115q0 50 35.5 84.5t87.5 34.5q50 0 84.5 -34.5t34.5 -84.5q0 -42 -34.5 -105t-162.5 -268zM616 -35q-229 0 -376.5 169t-147.5 431q0 176 70.5 314t190 212t265.5 74q138 0 245 -74.5t169 -228.5h27
q-27 316 -23 776h158v-1284q0 -131 9 -205.5t28 -148.5h-158q-17 68 -20 117t10 143h-27q-60 -150 -171 -222.5t-249 -72.5zM643 111q167 0 281 128t114 328q0 198 -114.5 325.5t-280.5 127.5q-167 0 -276 -129t-109 -326q0 -196 109.5 -325t275.5 -129z" />
    <glyph glyph-name="Dcroat" unicode="&#x110;" horiz-adv-x="1646" 
d="M211 1597h569q156 0 283 -40.5t214.5 -112t146.5 -171.5t86.5 -216t27.5 -248q0 -238 -87 -420t-255.5 -285.5t-396.5 -103.5h-588v731h-178v135h178v731zM801 152q257 0 410 171t153 474q0 315 -168 482t-455 167q-233 0 -368 29l-25 -21q27 -332 27 -588h510v-135h-508
q-3 -288 -27 -584l23 -24q154 29 428 29z" />
    <glyph glyph-name="dcroat" unicode="&#x111;" horiz-adv-x="1372" 
d="M1458 1448v-125h-264v-969q0 -131 9 -205.5t28 -148.5h-158q-17 68 -20 117t10 143h-27q-60 -150 -171 -222.5t-249 -72.5q-229 0 -376.5 169t-147.5 431q0 176 70.5 314t190 212t265.5 74q138 0 245 -74.5t169 -228.5h27q-20 239 -23 461h-282v125h282v190h158v-190h264
zM643 111q167 0 281 128t114 328q0 198 -114.5 325.5t-280.5 127.5q-167 0 -276 -129t-109 -326q0 -196 109.5 -325t275.5 -129z" />
    <glyph glyph-name="Emacron" unicode="&#x112;" horiz-adv-x="1345" 
d="M1028 1821h-680v129h680v-129zM1241 0h-1030v1597h1010v-151q-28 0 -155.5 -0.5t-178.5 0t-153.5 3t-187.5 9t-173 17.5l-25 -21q42 -273 4 -567l19 -23q138 15 291.5 23t249 9t268.5 1v-156q-173 0 -268.5 1t-249 9.5t-289.5 24.5l-21 -22q37 -309 -2 -607l23 -24
q145 15 310.5 23t268.5 9t289 1v-156z" />
    <glyph glyph-name="emacron" unicode="&#x113;" horiz-adv-x="1269" 
d="M983 1405h-688v125h688v-125zM653 -35q-244 0 -402.5 166t-158.5 432q0 264 156.5 433t400.5 169q71 0 139.5 -15.5t139 -56.5t122.5 -103.5t85.5 -164.5t33.5 -231v-70h-915q6 -193 118 -306.5t285 -113.5q135 0 234 76.5t147 200.5l144 -53q-63 -170 -203.5 -266.5
t-325.5 -96.5zM260 659h746q-2 79 -24.5 143t-57.5 105.5t-82 69t-95.5 39.5t-101.5 12q-154 0 -257 -101.5t-128 -267.5z" />
    <glyph glyph-name="Edotaccent" unicode="&#x116;" horiz-adv-x="1345" 
d="M690 1782q-52 0 -87.5 36t-35.5 89q0 50 35.5 84t87.5 34t86.5 -34t34.5 -84q0 -53 -34.5 -89t-86.5 -36zM1241 0h-1030v1597h1010v-151q-28 0 -155.5 -0.5t-178.5 0t-153.5 3t-187.5 9t-173 17.5l-25 -21q42 -273 4 -567l19 -23q138 15 291.5 23t249 9t268.5 1v-156
q-173 0 -268.5 1t-249 9.5t-289.5 24.5l-21 -22q37 -309 -2 -607l23 -24q145 15 310.5 23t268.5 9t289 1v-156z" />
    <glyph glyph-name="edotaccent" unicode="&#x117;" horiz-adv-x="1269" 
d="M643 1405q-53 0 -88 36t-35 89q0 50 35 85.5t88 35.5q50 0 84.5 -35.5t34.5 -85.5q0 -53 -34 -89t-85 -36zM653 -35q-244 0 -402.5 166t-158.5 432q0 264 156.5 433t400.5 169q71 0 139.5 -15.5t139 -56.5t122.5 -103.5t85.5 -164.5t33.5 -231v-70h-915
q6 -193 118 -306.5t285 -113.5q135 0 234 76.5t147 200.5l144 -53q-63 -170 -203.5 -266.5t-325.5 -96.5zM260 659h746q-2 79 -24.5 143t-57.5 105.5t-82 69t-95.5 39.5t-101.5 12q-154 0 -257 -101.5t-128 -267.5z" />
    <glyph glyph-name="Eogonek" unicode="&#x118;" horiz-adv-x="1345" 
d="M1241 -354q44 0 88 12v-107q-55 -14 -104 -14q-119 0 -198 62t-79 172q0 137 162 229h-899v1597h1010v-151q-28 0 -155.5 -0.5t-178.5 0t-153.5 3t-187.5 9t-173 17.5l-25 -21q42 -273 4 -567l19 -23q138 15 291.5 23t249 9t268.5 1v-156q-173 0 -268.5 1t-249 9.5
t-289.5 24.5l-21 -22q37 -309 -2 -607l23 -24q145 15 310.5 23t268.5 9t289 1v-156q-87 -37 -130.5 -90t-43.5 -113q0 -66 49 -108.5t125 -42.5z" />
    <glyph glyph-name="eogonek" unicode="&#x119;" horiz-adv-x="1269" 
d="M848 -4q-162 -76 -162 -199q0 -66 48 -106.5t120 -40.5q44 0 90 14v-113q-55 -14 -104 -14q-117 0 -195 62.5t-78 169.5q0 116 111 196h-25q-244 0 -402.5 166t-158.5 432q0 264 156.5 433t400.5 169q71 0 139.5 -15.5t139 -56.5t122.5 -103.5t85.5 -164.5t33.5 -231v-70
h-915q6 -193 118 -306.5t285 -113.5q135 0 234 76.5t147 200.5l144 -53q-44 -122 -130.5 -207t-203.5 -125zM645 1028q-154 0 -257 -101.5t-128 -267.5h746q-2 79 -24.5 143t-57.5 105.5t-82 69t-95.5 39.5t-101.5 12z" />
    <glyph glyph-name="Ecaron" unicode="&#x11a;" horiz-adv-x="1345" 
d="M782 1722h-188l-268 314h145q3 -3 20.5 -19.5t21 -20.5t19.5 -20t21.5 -22t19.5 -21.5t20.5 -24.5t18 -24t19 -27.5t16.5 -28.5t17 -32h51q26 51 62.5 99t59 71t70.5 70h146zM1241 0h-1030v1597h1010v-151q-28 0 -155.5 -0.5t-178.5 0t-153.5 3t-187.5 9t-173 17.5
l-25 -21q42 -273 4 -567l19 -23q138 15 291.5 23t249 9t268.5 1v-156q-173 0 -268.5 1t-249 9.5t-289.5 24.5l-21 -22q37 -309 -2 -607l23 -24q145 15 310.5 23t268.5 9t289 1v-156z" />
    <glyph glyph-name="ecaron" unicode="&#x11b;" horiz-adv-x="1269" 
d="M735 1284h-192l-297 365h147q52 -55 83 -89t72.5 -86t72.5 -102h38q12 19 25.5 39.5t24.5 35.5t29 37l27 33t31 35.5t28 31t31.5 34t29.5 31.5h147zM653 -35q-244 0 -402.5 166t-158.5 432q0 264 156.5 433t400.5 169q71 0 139.5 -15.5t139 -56.5t122.5 -103.5
t85.5 -164.5t33.5 -231v-70h-915q6 -193 118 -306.5t285 -113.5q135 0 234 76.5t147 200.5l144 -53q-63 -170 -203.5 -266.5t-325.5 -96.5zM260 659h746q-2 79 -24.5 143t-57.5 105.5t-82 69t-95.5 39.5t-101.5 12q-154 0 -257 -101.5t-128 -267.5z" />
    <glyph glyph-name="Gbreve" unicode="&#x11e;" horiz-adv-x="1796" 
d="M870 1724q-165 0 -270 100.5t-111 229.5h142q5 -81 72.5 -144t166.5 -63q100 0 168.5 63t73.5 144h139q-2 -61 -29.5 -119.5t-75 -105.5t-120 -76t-156.5 -29zM895 -35q-171 0 -317.5 62t-250 170.5t-162.5 262.5t-59 333q0 186 62.5 343.5t170.5 265t254 168t312 60.5
q240 0 436.5 -123.5t270.5 -347.5l-152 -61q-70 178 -218.5 277.5t-336.5 99.5q-126 0 -239 -47t-198 -133t-135 -216.5t-50 -287.5q0 -134 37 -246t99 -189.5t145 -131t174 -78.5t186 -25q237 0 399 149.5t219 403.5l-18 20q-269 -49 -570 -49v141h705v-786h-133
q0 22 -2.5 83.5t-2.5 95.5t4 89t13 105l-29 4q-168 -412 -614 -412z" />
    <glyph glyph-name="gbreve" unicode="&#x11f;" horiz-adv-x="1368" 
d="M664 1274q-170 0 -269.5 111t-105.5 284h135q4 -121 71 -195.5t171 -74.5q106 0 172 74t71 196h135q-6 -174 -106 -284.5t-274 -110.5zM664 -483q-396 0 -517 329l144 50q89 -244 371 -244q62 0 114.5 13.5t101 47t82.5 84.5t54 130.5t20 181.5q0 97 23 167h-27
q-64 -137 -173 -205.5t-241 -68.5q-153 0 -274 77.5t-186.5 210.5t-65.5 296q0 252 151 415.5t373 163.5q135 0 246 -81t168 -222h25q-15 111 -15 271h154v-996q0 -136 -26.5 -242t-73 -176.5t-114 -116.5t-144.5 -65.5t-170 -19.5zM641 147q165 0 280 127t115 314
q0 186 -115 309t-280 123q-166 0 -275.5 -124.5t-109.5 -307.5q0 -187 110 -314t275 -127z" />
    <glyph glyph-name="Gdotaccent" unicode="&#x120;" horiz-adv-x="1796" 
d="M870 1782q-52 0 -87 36t-35 89q0 50 35 84t87 34t86.5 -34t34.5 -84q0 -53 -34.5 -89t-86.5 -36zM895 -35q-171 0 -317.5 62t-250 170.5t-162.5 262.5t-59 333q0 186 62.5 343.5t170.5 265t254 168t312 60.5q240 0 436.5 -123.5t270.5 -347.5l-152 -61
q-70 178 -218.5 277.5t-336.5 99.5q-126 0 -239 -47t-198 -133t-135 -216.5t-50 -287.5q0 -134 37 -246t99 -189.5t145 -131t174 -78.5t186 -25q237 0 399 149.5t219 403.5l-18 20q-269 -49 -570 -49v141h705v-786h-133q0 22 -2.5 83.5t-2.5 95.5t4 89t13 105l-29 4
q-168 -412 -614 -412z" />
    <glyph glyph-name="gdotaccent" unicode="&#x121;" horiz-adv-x="1368" 
d="M668 1405q-53 0 -88 36t-35 89q0 50 35 85.5t88 35.5q50 0 84 -35.5t34 -85.5q0 -53 -33.5 -89t-84.5 -36zM664 -483q-396 0 -517 329l144 50q89 -244 371 -244q62 0 114.5 13.5t101 47t82.5 84.5t54 130.5t20 181.5q0 97 23 167h-27q-64 -137 -173 -205.5t-241 -68.5
q-153 0 -274 77.5t-186.5 210.5t-65.5 296q0 252 151 415.5t373 163.5q135 0 246 -81t168 -222h25q-15 111 -15 271h154v-996q0 -136 -26.5 -242t-73 -176.5t-114 -116.5t-144.5 -65.5t-170 -19.5zM641 147q165 0 280 127t115 314q0 186 -115 309t-280 123
q-166 0 -275.5 -124.5t-109.5 -307.5q0 -187 110 -314t275 -127z" />
    <glyph glyph-name="uni0122" unicode="&#x122;" horiz-adv-x="1796" 
d="M895 -35q-171 0 -317.5 62t-250 170.5t-162.5 262.5t-59 333q0 186 62.5 343.5t170.5 265t254 168t312 60.5q240 0 436.5 -123.5t270.5 -347.5l-152 -61q-70 178 -218.5 277.5t-336.5 99.5q-126 0 -239 -47t-198 -133t-135 -216.5t-50 -287.5q0 -134 37 -246t99 -189.5
t145 -131t174 -78.5t186 -25q237 0 399 149.5t219 403.5l-18 20q-269 -49 -570 -49v141h705v-786h-133q0 22 -2.5 83.5t-2.5 95.5t4 89t13 105l-29 4q-168 -412 -614 -412zM850 -537h-80q25 49 37 71t40 62.5t62 75.5q-64 0 -94.5 30t-30.5 77t32.5 76.5t82.5 29.5
q48 0 80.5 -32.5t32.5 -81.5q0 -37 -26 -86t-111 -183q-16 -25 -25 -39z" />
    <glyph glyph-name="uni0123" unicode="&#x123;" horiz-adv-x="1368" 
d="M530 1370q0 36 23.5 82t112.5 196q28 48 45 76h96q-79 -158 -148 -272q49 6 74 -22.5t25 -69.5q0 -48 -32.5 -75.5t-78.5 -27.5q-51 0 -84 32t-33 81zM664 -483q-396 0 -517 329l144 50q89 -244 371 -244q62 0 114.5 13.5t101 47t82.5 84.5t54 130.5t20 181.5
q0 97 23 167h-27q-64 -137 -173 -205.5t-241 -68.5q-153 0 -274 77.5t-186.5 210.5t-65.5 296q0 252 151 415.5t373 163.5q135 0 246 -81t168 -222h25q-15 111 -15 271h154v-996q0 -136 -26.5 -242t-73 -176.5t-114 -116.5t-144.5 -65.5t-170 -19.5zM641 147q165 0 280 127
t115 314q0 186 -115 309t-280 123q-166 0 -275.5 -124.5t-109.5 -307.5q0 -187 110 -314t275 -127z" />
    <glyph glyph-name="Hbar" unicode="&#x126;" horiz-adv-x="1656" 
d="M1448 1294h139v-133h-139v-1161h-166q0 467 23 737l-23 21q-427 -63 -907 0l-23 -21q25 -260 25 -737h-166v1161h-141v133h141v303h166q0 -201 -2 -303h909q-2 102 -2 303h166v-303zM1282 858l23 21q-15 176 -17 282h-917q-3 -129 -19 -282l23 -21q480 45 907 0z" />
    <glyph glyph-name="hbar" unicode="&#x127;" horiz-adv-x="1298" 
d="M725 1165q63 0 120.5 -14.5t111.5 -48.5t93 -85t63 -129.5t24 -176.5v-711h-156v641q0 190 -82.5 284.5t-216.5 94.5q-106 0 -187 -57t-121 -145t-40 -191v-627h-156v1321h-196v125h196v192h156q0 -126 -2 -192h356v-125h-360q-6 -210 -27 -430h25q130 274 399 274z" />
    <glyph glyph-name="Imacron" unicode="&#x12a;" horiz-adv-x="585" 
d="M631 1821h-680v129h680v-129zM377 0h-166v1597h166v-1597z" />
    <glyph glyph-name="imacron" unicode="&#x12b;" horiz-adv-x="509" 
d="M600 1399h-688v125h688v-125zM334 0h-156v1133h156v-1133z" />
    <glyph glyph-name="Iogonek" unicode="&#x12e;" horiz-adv-x="585" 
d="M377 -354q44 0 88 12v-107q-55 -14 -105 -14q-119 0 -197.5 62t-78.5 172q0 137 162 229h-35v1597h166v-1597q-87 -37 -130.5 -90t-43.5 -113q0 -66 49 -108.5t125 -42.5z" />
    <glyph glyph-name="iogonek" unicode="&#x12f;" horiz-adv-x="509" 
d="M258 1399q-53 0 -88 36t-35 89q0 50 35 85.5t88 35.5q50 0 84.5 -35.5t34.5 -85.5q0 -53 -34 -89t-85 -36zM322 -350q44 0 90 14v-113q-55 -14 -105 -14q-117 0 -194.5 62.5t-77.5 169.5q0 141 166 231h-23v1133h156v-1133h-10q-170 -78 -170 -203q0 -66 48 -106.5
t120 -40.5z" />
    <glyph glyph-name="Idotaccent" unicode="&#x130;" horiz-adv-x="585" 
d="M293 1782q-52 0 -87.5 36t-35.5 89q0 50 35.5 84t87.5 34t86.5 -34t34.5 -84q0 -53 -34.5 -89t-86.5 -36zM377 0h-166v1597h166v-1597z" />
    <glyph glyph-name="dotlessi" unicode="&#x131;" horiz-adv-x="509" 
d="M334 0h-156v1133h156v-1133z" />
    <glyph glyph-name="uni0136" unicode="&#x136;" horiz-adv-x="1380" 
d="M377 0h-166v1597h166v-91v-98t-0.5 -89t-1.5 -99.5t-3 -90.5t-5 -101.5t-7 -93t-9.5 -104.5t-12.5 -99h27q285 327 788 866h199q-12 -13 -62.5 -67t-66 -70.5t-62 -66.5t-66.5 -71.5t-63 -67t-68.5 -71t-65.5 -66.5t-71 -71.5t-68 -66.5t-73 -70v-28q289 -334 703 -881
h-201q-141 180 -206.5 264.5t-178.5 238t-201 285.5h-22q-102 -145 -218 -231q15 -209 15 -557zM696 -537h-80q24 46 37 70t41 64t62 75q-64 0 -94.5 30t-30.5 77t32 76.5t82 29.5q48 0 80.5 -32.5t32.5 -81.5q0 -37 -26 -86t-111 -183q-16 -25 -25 -39z" />
    <glyph glyph-name="uni0137" unicode="&#x137;" horiz-adv-x="1083" 
d="M334 0h-156v1638h156v-167v-185.5t-1 -162.5t-3.5 -188t-6.5 -166t-10 -187h25q169 198 502 551h190l-444 -447q64 -79 137.5 -175t124 -164t132 -180t122.5 -167h-182q-266 364 -420 594q-86 -118 -185 -186q19 -147 19 -408zM530 -537h-79q25 49 37 71t40 62.5t62 75.5
q-64 0 -94.5 30t-30.5 77t32.5 76.5t82.5 29.5q48 0 80 -32.5t32 -81.5q0 -37 -26 -86t-111 -183q-16 -25 -25 -39z" />
    <glyph glyph-name="Lacute" unicode="&#x139;" horiz-adv-x="1210" 
d="M733 2050l-338 -328h-143l256 328h225zM1180 0h-969v1597h166q0 -948 -27 -1450l23 -24q135 15 289 23t250 9t268 1v-156z" />
    <glyph glyph-name="lacute" unicode="&#x13a;" horiz-adv-x="509" 
d="M680 2091l-338 -328h-143l256 328h225zM334 0h-156v1638h156v-1638z" />
    <glyph glyph-name="uni013B" unicode="&#x13b;" horiz-adv-x="1210" 
d="M1180 0h-969v1597h166q0 -948 -27 -1450l23 -24q135 15 289 23t250 9t268 1v-156zM602 -537h-80q24 46 37 70t41 64t62 75q-64 0 -94.5 30t-30.5 77t32 76.5t82 29.5q48 0 80.5 -32.5t32.5 -81.5q0 -37 -26 -86t-111 -183q-16 -25 -25 -39z" />
    <glyph glyph-name="uni013C" unicode="&#x13c;" horiz-adv-x="509" 
d="M334 0h-156v1638h156v-1638zM215 -537h-80q25 49 37 71t40 62.5t62 75.5q-63 0 -93.5 30t-30.5 77t32 76.5t82 29.5q48 0 80.5 -32.5t32.5 -81.5q0 -37 -26 -86t-111 -183q-16 -25 -25 -39z" />
    <glyph glyph-name="Lcaron" unicode="&#x13d;" horiz-adv-x="1210" 
d="M879 1149h-99q27 54 46 88t52.5 82t71.5 88q-119 24 -119 115q0 49 36 83.5t87 34.5t86 -34t35 -84q0 -42 -34.5 -106.5t-161.5 -266.5zM1180 0h-969v1597h166q0 -948 -27 -1450l23 -24q135 15 289 23t250 9t268 1v-156z" />
    <glyph glyph-name="lcaron" unicode="&#x13e;" horiz-adv-x="509" 
d="M637 1149h-100q33 63 48 90.5t50 77.5t74 90q-119 24 -119 115q0 49 36 83.5t87 34.5t86 -34t35 -84q0 -39 -29.5 -94.5t-138.5 -231.5q-19 -30 -29 -47zM334 0h-156v1638h156v-1638z" />
    <glyph glyph-name="Lslash" unicode="&#x141;" horiz-adv-x="1210" 
d="M350 147l23 -24q135 15 289 23t250 9t268 1v-156h-969v764l-172 -80v141l172 80v692h166q0 -409 -2 -614l291 135v-141l-293 -137q-7 -366 -23 -693z" />
    <glyph glyph-name="lslash" unicode="&#x142;" horiz-adv-x="509" 
d="M334 1049l192 137v-139l-192 -138v-909h-156v799l-196 -142v140l196 141v700h156v-589z" />
    <glyph glyph-name="Nacute" unicode="&#x143;" horiz-adv-x="1687" 
d="M1217 2050l-338 -328h-144l256 328h226zM377 0h-166v1597h151q539 -712 955 -1366h24q-7 100 -12 199.5t-8 209t-5 187.5t-2.5 202.5t-0.5 183v199.5v185h166v-1597h-154q-576 760 -952 1341h-25q6 -86 10.5 -178.5t8 -166t5.5 -176t3 -160.5t1.5 -172t0.5 -157.5v-170.5
v-160z" />
    <glyph glyph-name="nacute" unicode="&#x144;" horiz-adv-x="1298" 
d="M1016 1669l-311 -391h-138l242 391h207zM334 0h-156v1133h152q0 -142 -29 -242h25q130 274 401 274q80 0 150.5 -24.5t130 -75t94.5 -141.5t35 -213v-711h-156v641q0 190 -82.5 284.5t-216.5 94.5q-106 0 -187 -57t-121 -145t-40 -191v-627z" />
    <glyph glyph-name="uni0145" unicode="&#x145;" horiz-adv-x="1687" 
d="M377 0h-166v1597h151q539 -712 955 -1366h24q-7 100 -12 199.5t-8 209t-5 187.5t-2.5 202.5t-0.5 183v199.5v185h166v-1597h-154q-576 760 -952 1341h-25q6 -86 10.5 -178.5t8 -166t5.5 -176t3 -160.5t1.5 -172t0.5 -157.5v-170.5v-160zM825 -537h-80q24 46 37 70t41 64
t62 75q-64 0 -94.5 30t-30.5 77t32 76.5t82 29.5q48 0 80.5 -32.5t32.5 -81.5q0 -37 -26 -86t-111 -183q-16 -25 -25 -39z" />
    <glyph glyph-name="uni0146" unicode="&#x146;" horiz-adv-x="1298" 
d="M334 0h-156v1133h152q0 -142 -29 -242h25q130 274 401 274q80 0 150.5 -24.5t130 -75t94.5 -141.5t35 -213v-711h-156v641q0 190 -82.5 284.5t-216.5 94.5q-106 0 -187 -57t-121 -145t-40 -191v-627zM639 -537h-80q25 49 37 71t40 62.5t62 75.5q-64 0 -94.5 30t-30.5 77
t32.5 76.5t82.5 29.5q48 0 80.5 -32.5t32.5 -81.5q0 -37 -26 -86t-111 -183q-16 -25 -25 -39z" />
    <glyph glyph-name="Ncaron" unicode="&#x147;" horiz-adv-x="1687" 
d="M915 1722h-188l-268 314h145q3 -3 20.5 -19.5t21 -20.5t19.5 -20t21.5 -22t19.5 -21.5t20.5 -24.5t18 -24t19 -27.5t16.5 -28.5t17 -32h51q26 51 62.5 99t59 71t70.5 70h146zM377 0h-166v1597h151q539 -712 955 -1366h24q-7 100 -12 199.5t-8 209t-5 187.5t-2.5 202.5
t-0.5 183v199.5v185h166v-1597h-154q-576 760 -952 1341h-25q6 -86 10.5 -178.5t8 -166t5.5 -176t3 -160.5t1.5 -172t0.5 -157.5v-170.5v-160z" />
    <glyph glyph-name="ncaron" unicode="&#x148;" horiz-adv-x="1298" 
d="M741 1284h-192l-297 365h147q52 -55 83 -89t72.5 -86t72.5 -102h39q9 16 20 32t19.5 28.5t22 30t21 27.5t24 28.5t22.5 25.5t25 28t22.5 25t25 27t23.5 25h147zM334 0h-156v1133h152q0 -142 -29 -242h25q130 274 401 274q80 0 150.5 -24.5t130 -75t94.5 -141.5t35 -213
v-711h-156v641q0 190 -82.5 284.5t-216.5 94.5q-106 0 -187 -57t-121 -145t-40 -191v-627z" />
    <glyph glyph-name="Eng" unicode="&#x14a;" horiz-adv-x="1687" 
d="M1065 -483q-155 0 -250 53v149q86 -59 211 -59q136 0 209.5 92.5t75.5 261.5q-530 703 -938 1317h-25q6 -85 10.5 -175.5t8 -163t5.5 -174.5t3 -159.5t1.5 -171.5t0.5 -157v-170v-160h-166v1597h151q524 -691 955 -1355h24q-7 98 -12 195.5t-8 206t-5 186t-2.5 201.5
t-0.5 182v199v185h166v-1536q0 -544 -414 -544z" />
    <glyph glyph-name="eng" unicode="&#x14b;" horiz-adv-x="1298" 
d="M813 -483q-125 0 -217 53v143q93 -57 186 -57q41 0 73.5 13t53 31.5t35 50.5t21.5 57t11 65.5t4.5 61.5t0.5 59v647q0 190 -82.5 284.5t-216.5 94.5q-106 0 -187 -57t-121 -145t-40 -191v-627h-156v1133h152q0 -142 -29 -242h25q130 274 401 274q80 0 150 -24t130 -74
t95 -139.5t35 -208.5v-733q0 -40 -0.5 -62t-3.5 -65.5t-8 -71t-16.5 -67t-27 -65t-40.5 -54.5t-56.5 -45.5t-75 -27.5t-96.5 -11z" />
    <glyph glyph-name="Omacron" unicode="&#x14c;" horiz-adv-x="1812" 
d="M1243 1821h-680v129h680v-129zM905 -35q-163 0 -310 62.5t-255 171.5t-172 265t-64 333t63.5 332.5t171.5 265t255.5 172.5t312.5 63q166 0 314.5 -64.5t255.5 -175t169 -265t62 -328.5t-63 -329t-170.5 -265t-256 -174t-313.5 -64zM909 121q125 0 238.5 51t198 139.5
t134.5 215.5t50 270t-49.5 270t-134 216t-198.5 140.5t-239 51.5q-126 0 -241 -51t-200.5 -140t-136 -216t-50.5 -271t50.5 -271t136 -215t200.5 -139t241 -51z" />
    <glyph glyph-name="omacron" unicode="&#x14d;" horiz-adv-x="1320" 
d="M1006 1405h-689v125h689v-125zM662 -35q-252 0 -411 167t-159 431q0 266 159 434t411 168q250 0 408.5 -168t158.5 -434q0 -264 -158.5 -431t-408.5 -167zM662 111q178 0 289.5 126t111.5 326q0 202 -111.5 329.5t-289.5 127.5q-179 0 -291.5 -127.5t-112.5 -329.5
q0 -200 112 -326t292 -126z" />
    <glyph glyph-name="Ohungarumlaut" unicode="&#x150;" horiz-adv-x="1812" 
d="M1057 2050l-283 -328h-141l213 328h211zM1399 2050l-299 -328h-139l227 328h211zM905 -35q-163 0 -310 62.5t-255 171.5t-172 265t-64 333t63.5 332.5t171.5 265t255.5 172.5t312.5 63q166 0 314.5 -64.5t255.5 -175t169 -265t62 -328.5t-63 -329t-170.5 -265t-256 -174
t-313.5 -64zM909 121q125 0 238.5 51t198 139.5t134.5 215.5t50 270t-49.5 270t-134 216t-198.5 140.5t-239 51.5q-126 0 -241 -51t-200.5 -140t-136 -216t-50.5 -271t50.5 -271t136 -215t200.5 -139t241 -51z" />
    <glyph glyph-name="ohungarumlaut" unicode="&#x151;" horiz-adv-x="1320" 
d="M807 1673l-285 -395h-135l217 395h203zM1153 1673l-301 -395h-135l233 395h203zM662 -35q-252 0 -411 167t-159 431q0 266 159 434t411 168q250 0 408.5 -168t158.5 -434q0 -264 -158.5 -431t-408.5 -167zM662 111q178 0 289.5 126t111.5 326q0 202 -111.5 329.5
t-289.5 127.5q-179 0 -291.5 -127.5t-112.5 -329.5q0 -200 112 -326t292 -126z" />
    <glyph glyph-name="OE" unicode="&#x152;" horiz-adv-x="2674" 
d="M903 -35q-162 0 -309 62.5t-255 171.5t-171.5 265t-63.5 333t63.5 332.5t171 265t255 172.5t311.5 63q199 0 365.5 -95t269.5 -261v323h1010v-151q-28 0 -155.5 -0.5t-178.5 0t-153.5 3t-187.5 9t-173 17.5l-25 -21q42 -273 4 -567l23 -23q136 15 289 23t248 9t268 1
v-156q-173 0 -268.5 1t-248.5 9.5t-288 24.5l-23 -22q37 -309 -2 -607l23 -24q145 15 310.5 23t268.5 9t289 1v-156h-1030v322q-103 -167 -270 -262t-367 -95zM907 121q125 0 238.5 51t198 140t134.5 216t50 271t-50 271t-134 215t-197.5 139t-237.5 51q-127 0 -242 -51
t-200 -140t-135.5 -216t-50.5 -271t50.5 -271t135.5 -215t199.5 -139t240.5 -51z" />
    <glyph glyph-name="oe" unicode="&#x153;" horiz-adv-x="2240" 
d="M662 -35q-252 0 -411 167t-159 431q0 266 159 434t411 168q163 0 288.5 -77.5t192.5 -213.5q67 136 192 213.5t285 77.5q72 0 140.5 -15.5t139 -56.5t123 -103.5t86 -164.5t33.5 -231v-45h-921q4 -198 118.5 -321.5t286.5 -123.5q135 0 236 77t149 200l143 -53
q-63 -170 -204 -266.5t-326 -96.5q-162 0 -288 76t-193 211q-67 -134 -193 -210.5t-288 -76.5zM1229 662h747q-4 98 -38 172t-87.5 115.5t-113 61t-123.5 19.5q-153 0 -256.5 -101.5t-128.5 -266.5zM662 111q178 0 289.5 126t111.5 326q0 202 -111.5 329.5t-289.5 127.5
q-179 0 -291.5 -127.5t-112.5 -329.5q0 -200 112 -326t292 -126z" />
    <glyph glyph-name="Racute" unicode="&#x154;" horiz-adv-x="1423" 
d="M1047 2050l-338 -328h-144l256 328h226zM377 0h-166v1597h567q80 0 155.5 -18t143 -57t118.5 -94.5t80.5 -135t29.5 -174.5q0 -201 -121.5 -317.5t-317.5 -130.5v-27q50 -60 98 -123t100.5 -138t84 -121t93.5 -138t83 -123h-186l-424 635q-221 4 -365 39q27 -242 27 -674
zM352 764l21 -21q149 29 387 29q167 0 268.5 88t101.5 250q0 160 -107 249t-275 89q-229 0 -375 27l-25 -21q41 -348 4 -690z" />
    <glyph glyph-name="racute" unicode="&#x155;" horiz-adv-x="847" 
d="M840 1669l-312 -391h-137l242 391h207zM334 0h-156v1133h152q0 -8 0.5 -55t0 -68.5t-5.5 -66t-14 -89.5h27q42 151 137.5 231t222.5 80q69 0 125 -22v-172q-56 26 -139 26q-88 0 -157 -40.5t-110 -107.5t-62 -146.5t-21 -165.5v-537z" />
    <glyph glyph-name="uni0156" unicode="&#x156;" horiz-adv-x="1423" 
d="M377 0h-166v1597h567q80 0 155.5 -18t143 -57t118.5 -94.5t80.5 -135t29.5 -174.5q0 -201 -121.5 -317.5t-317.5 -130.5v-27q50 -60 98 -123t100.5 -138t84 -121t93.5 -138t83 -123h-186l-424 635q-221 4 -365 39q27 -242 27 -674zM352 764l21 -21q149 29 387 29
q167 0 268.5 88t101.5 250q0 160 -107 249t-275 89q-229 0 -375 27l-25 -21q41 -348 4 -690zM676 -537h-80q25 49 37 71t40 62.5t62 75.5q-64 0 -94.5 30t-30.5 77t32.5 76.5t82.5 29.5q48 0 80.5 -32.5t32.5 -81.5q0 -37 -26 -86t-111 -183q-16 -25 -25 -39z" />
    <glyph glyph-name="uni0157" unicode="&#x157;" horiz-adv-x="847" 
d="M334 0h-156v1133h152q0 -8 0.5 -55t0 -68.5t-5.5 -66t-14 -89.5h27q42 151 137.5 231t222.5 80q69 0 125 -22v-172q-56 26 -139 26q-88 0 -157 -40.5t-110 -107.5t-62 -146.5t-21 -165.5v-537zM207 -537h-80q25 49 37 71t40 62.5t62 75.5q-64 0 -94.5 30t-30.5 77
t32.5 76.5t82.5 29.5q48 0 80.5 -32.5t32.5 -81.5q0 -37 -26 -86t-111 -183q-16 -25 -25 -39z" />
    <glyph glyph-name="Rcaron" unicode="&#x158;" horiz-adv-x="1423" 
d="M748 1722h-189l-268 314h145q3 -3 20.5 -19.5t21 -20.5t19.5 -20t21.5 -22t19.5 -21.5t20.5 -24.5t18 -24t19 -27.5t16.5 -28.5t17 -32h51q26 51 62.5 99t59 71t70.5 70h146zM377 0h-166v1597h567q80 0 155.5 -18t143 -57t118.5 -94.5t80.5 -135t29.5 -174.5
q0 -201 -121.5 -317.5t-317.5 -130.5v-27q50 -60 98 -123t100.5 -138t84 -121t93.5 -138t83 -123h-186l-424 635q-221 4 -365 39q27 -242 27 -674zM352 764l21 -21q149 29 387 29q167 0 268.5 88t101.5 250q0 160 -107 249t-275 89q-229 0 -375 27l-25 -21q41 -348 4 -690z
" />
    <glyph glyph-name="rcaron" unicode="&#x159;" horiz-adv-x="847" 
d="M565 1284h-192l-297 365h147q52 -55 83 -89t72.5 -86t72.5 -102h38q12 19 25.5 39.5t24.5 35.5t29 37l27 33t31 35.5t28 31t31.5 34t29.5 31.5h147zM334 0h-156v1133h152q0 -8 0.5 -55t0 -68.5t-5.5 -66t-14 -89.5h27q42 151 137.5 231t222.5 80q69 0 125 -22v-172
q-56 26 -139 26q-88 0 -157 -40.5t-110 -107.5t-62 -146.5t-21 -165.5v-537z" />
    <glyph glyph-name="Sacute" unicode="&#x15a;" horiz-adv-x="1325" 
d="M983 2050l-336 -330h-143l256 330h223zM682 -35q-76 0 -148.5 15.5t-144 51t-130 88.5t-106.5 133.5t-75 180.5l153 55q49 -182 171.5 -276t281.5 -94q54 0 105.5 10.5t99.5 33.5t84 57t58 84.5t22 111.5q0 55 -19 98.5t-46 70t-72.5 50t-82 35.5t-91.5 29l-21 6l-148 47
q-42 13 -75 24.5t-81 33t-84 45t-75.5 59t-64.5 75t-41.5 94t-16.5 115.5q0 104 44 188t118 136t166.5 80t193.5 28q194 0 337 -101.5t194 -279.5l-150 -61q-44 135 -146.5 213t-248.5 78q-142 0 -238 -74t-96 -193q0 -42 13.5 -79.5t32.5 -64.5t51 -52t58 -40t64 -31
t58.5 -23t52.5 -17l158 -51q148 -48 201 -74q187 -89 223 -251q10 -43 10 -91q0 -140 -74.5 -249t-199 -166.5t-275.5 -57.5z" />
    <glyph glyph-name="sacute" unicode="&#x15b;" horiz-adv-x="1019" 
d="M877 1671l-312 -391h-137l242 391h207zM535 -35q-169 0 -296.5 87.5t-172.5 230.5l145 47q41 -104 132.5 -168t191.5 -64q38 0 77.5 10t78 31t63 60.5t24.5 91.5q0 36 -13.5 65t-32 47t-53.5 34.5t-60 24.5t-70 21l-109 31q-44 13 -77 25.5t-82.5 40t-81.5 60.5t-56 86.5
t-24 117.5q0 78 33 141t88 101.5t121 58.5t137 20q146 0 256.5 -79t148.5 -199l-147 -49q-30 82 -101 138t-170 56q-91 0 -150 -48t-59 -128q0 -39 17 -71.5t40.5 -53.5t62 -40t66.5 -28.5t68 -21.5l105 -31q35 -10 56 -16.5t57.5 -21.5t59 -29t51 -37.5t44.5 -50t27.5 -64
t11.5 -80.5q0 -150 -113 -248t-294 -98z" />
    <glyph glyph-name="Scedilla" unicode="&#x15e;" horiz-adv-x="1325" 
d="M721 -35q-59 -74 -113 -121l10 -10q53 31 105 31q79 0 131.5 -47.5t52.5 -122.5q0 -85 -66.5 -138t-168.5 -53q-76 0 -145.5 31t-112.5 84l61 66q33 -44 84.5 -68.5t104.5 -24.5q57 0 95 28.5t38 72.5q0 42 -34 69t-87 27q-51 0 -96 -25l-60 54l98 149q-89 8 -169.5 38
t-153.5 84t-130 142.5t-87 202.5l153 55q49 -182 171.5 -276t281.5 -94q54 0 105.5 10.5t99.5 33.5t84 57t58 84.5t22 111.5q0 55 -19 98.5t-46 70t-72.5 50t-82 35.5t-91.5 29l-21 6l-148 47q-42 13 -75 24.5t-81 33t-84 45t-75.5 59t-64.5 75t-41.5 94t-16.5 115.5
q0 104 44 188t118 136t166.5 80t193.5 28q194 0 337 -101.5t194 -279.5l-150 -61q-44 135 -146.5 213t-248.5 78q-142 0 -238 -74t-96 -193q0 -42 13.5 -79.5t32.5 -64.5t51 -52t58 -40t64 -31t58.5 -23t52.5 -17l158 -51q148 -48 201 -74q187 -89 223 -251q10 -43 10 -91
q0 -134 -68.5 -240t-184 -165.5t-257.5 -67.5z" />
    <glyph glyph-name="scedilla" unicode="&#x15f;" horiz-adv-x="1019" 
d="M565 -35q-61 -77 -112 -121l10 -10q53 31 104 31q79 0 132 -47.5t53 -122.5q0 -85 -66.5 -138t-169.5 -53q-76 0 -145.5 31t-112.5 84l61 66q33 -44 84.5 -68.5t104.5 -24.5q57 0 95 28.5t38 72.5q0 42 -34 69t-87 27q-51 0 -96 -25l-59 54l98 151q-145 19 -251 103
t-146 211l145 47q41 -104 132.5 -168t191.5 -64q38 0 77.5 10t78 31t63 60.5t24.5 91.5q0 36 -13.5 65t-32 47t-53.5 34.5t-60 24.5t-70 21l-109 31q-44 13 -77 25.5t-82.5 40t-81.5 60.5t-56 86.5t-24 117.5q0 78 33 141t88 101.5t121 58.5t137 20q146 0 256.5 -79
t148.5 -199l-147 -49q-30 82 -101 138t-170 56q-91 0 -150 -48t-59 -128q0 -39 17 -71.5t40.5 -53.5t62 -40t66.5 -28.5t68 -21.5l105 -31q35 -10 56 -16.5t57.5 -21.5t59 -29t51 -37.5t44.5 -50t27.5 -64t11.5 -80.5q0 -142 -104 -239.5t-273 -106.5z" />
    <glyph glyph-name="Scaron" unicode="&#x160;" horiz-adv-x="1325" 
d="M748 1722h-189l-268 314h145q3 -3 20.5 -19.5t21 -20.5t19.5 -20t21.5 -22t19.5 -21.5t20.5 -24.5t18 -24t19 -27.5t16.5 -28.5t17 -32h51q26 51 62.5 99t59 71t70.5 70h146zM682 -35q-76 0 -148.5 15.5t-144 51t-130 88.5t-106.5 133.5t-75 180.5l153 55
q49 -182 171.5 -276t281.5 -94q54 0 105.5 10.5t99.5 33.5t84 57t58 84.5t22 111.5q0 55 -19 98.5t-46 70t-72.5 50t-82 35.5t-91.5 29l-21 6l-148 47q-42 13 -75 24.5t-81 33t-84 45t-75.5 59t-64.5 75t-41.5 94t-16.5 115.5q0 104 44 188t118 136t166.5 80t193.5 28
q194 0 337 -101.5t194 -279.5l-150 -61q-44 135 -146.5 213t-248.5 78q-142 0 -238 -74t-96 -193q0 -42 13.5 -79.5t32.5 -64.5t51 -52t58 -40t64 -31t58.5 -23t52.5 -17l158 -51q148 -48 201 -74q187 -89 223 -251q10 -43 10 -91q0 -140 -74.5 -249t-199 -166.5
t-275.5 -57.5z" />
    <glyph glyph-name="scaron" unicode="&#x161;" horiz-adv-x="1019" 
d="M602 1284h-192l-297 365h147q51 -53 82.5 -88.5t72.5 -87t72 -101.5h39q12 19 25.5 39.5t24.5 35.5t29 37l27 33t31 35.5t28 31t31.5 34t29.5 31.5h147zM535 -35q-169 0 -296.5 87.5t-172.5 230.5l145 47q41 -104 132.5 -168t191.5 -64q38 0 77.5 10t78 31t63 60.5
t24.5 91.5q0 36 -13.5 65t-32 47t-53.5 34.5t-60 24.5t-70 21l-109 31q-44 13 -77 25.5t-82.5 40t-81.5 60.5t-56 86.5t-24 117.5q0 78 33 141t88 101.5t121 58.5t137 20q146 0 256.5 -79t148.5 -199l-147 -49q-30 82 -101 138t-170 56q-91 0 -150 -48t-59 -128
q0 -39 17 -71.5t40.5 -53.5t62 -40t66.5 -28.5t68 -21.5l105 -31q35 -10 56 -16.5t57.5 -21.5t59 -29t51 -37.5t44.5 -50t27.5 -64t11.5 -80.5q0 -150 -113 -248t-294 -98z" />
    <glyph glyph-name="uni0162" unicode="&#x162;" horiz-adv-x="1302" 
d="M735 0h-30q-50 -79 -136 -156l11 -10q53 31 104 31q79 0 131.5 -47.5t52.5 -122.5q0 -85 -66.5 -138t-168.5 -53q-76 0 -145.5 31t-112.5 84l61 66q33 -44 84.5 -68.5t104.5 -24.5q57 0 95 28.5t38 72.5q0 42 -34 69t-87 27q-51 0 -96 -25l-60 54l119 182h-31
q0 965 25 1473q-205 -27 -563 -27v151h1241v-151q-358 0 -563 27q13 -236 19 -521.5t6.5 -447.5t0.5 -504z" />
    <glyph glyph-name="uni0163" unicode="&#x163;" horiz-adv-x="796" 
d="M748 1133v-140q-228 0 -367 23q27 -225 27 -627q0 -37 0.5 -56t3.5 -54t8.5 -54.5t17 -45.5t28 -39.5t42.5 -23.5t59 -10q89 0 181 60v-146q-85 -55 -209 -55q-29 0 -41 2q-40 -56 -113 -123l10 -10q53 31 105 31q79 0 131.5 -47.5t52.5 -122.5q0 -85 -66.5 -138
t-168.5 -53q-76 0 -146 31t-113 84l62 66q33 -44 84 -68.5t104 -24.5q57 0 95 28.5t38 72.5q0 43 -33.5 69.5t-86.5 26.5q-52 0 -97 -25l-59 54l111 170q-38 15 -66.5 39.5t-45 58t-26.5 62.5t-14 70.5t-5 63.5t-1 60q0 154 0.5 227t6.5 204t19 243q-102 -23 -251 -23v140
q149 0 251 -25q-26 130 -26 358h158q0 -223 -27 -358q139 25 367 25z" />
    <glyph glyph-name="Tcaron" unicode="&#x164;" horiz-adv-x="1302" 
d="M745 1722h-188l-268 314h145q3 -3 20.5 -19.5t21 -20.5t19.5 -20t21.5 -22t19.5 -21.5t20.5 -24.5t18 -24t19 -27.5t16.5 -28.5t17 -32h51q26 51 62.5 99t59 71t70.5 70h146zM735 0h-166q0 965 25 1473q-205 -27 -563 -27v151h1241v-151q-358 0 -563 27
q13 -236 19 -521.5t6.5 -447.5t0.5 -504z" />
    <glyph glyph-name="tcaron" unicode="&#x165;" horiz-adv-x="796" 
d="M909 1153h-98q39 80 76.5 140t93.5 118q-119 24 -119 115q0 51 36 86t87 35t86 -34.5t35 -84.5q0 -43 -33 -103.5t-164 -271.5zM539 -35q-47 0 -86 9t-67 23t-50 37.5t-36.5 44.5t-24.5 53t-14.5 54.5t-7 56.5t-3 51.5t-0.5 47.5q0 154 0.5 227t6.5 204t19 243
q-102 -23 -251 -23v140q149 0 251 -25q-26 130 -26 358h158q0 -223 -27 -358q139 25 367 25v-140q-228 0 -367 23q27 -225 27 -627q0 -37 0.5 -56t3.5 -54t8.5 -54.5t17 -45.5t28 -39.5t42.5 -23.5t59 -10q89 0 181 60v-146q-85 -55 -209 -55z" />
    <glyph glyph-name="Tbar" unicode="&#x166;" horiz-adv-x="1302" 
d="M1272 1597v-151q-358 0 -563 27q13 -272 20 -607h350v-135h-348q4 -246 4 -731h-166q0 485 4 731h-346v135h348q3 274 19 607q-205 -27 -563 -27v151h1241z" />
    <glyph glyph-name="tbar" unicode="&#x167;" horiz-adv-x="796" 
d="M748 1133v-140q-228 0 -367 23q19 -153 22 -328h330v-125h-325v-174q0 -37 0.5 -56t3.5 -54t8.5 -54.5t17 -45.5t28 -39.5t42.5 -23.5t59 -10q89 0 181 60v-146q-85 -55 -209 -55q-47 0 -86 9t-67 23t-50 37.5t-36.5 44.5t-24.5 53t-14.5 54.5t-7 56.5t-3 51.5t-0.5 47.5
q0 147 2 221h-223v125h225q7 187 22 328q-102 -23 -251 -23v140q149 0 251 -25q-26 130 -26 358h158q0 -223 -27 -358q139 25 367 25z" />
    <glyph glyph-name="Umacron" unicode="&#x16a;" horiz-adv-x="1538" 
d="M1110 1821h-680v129h680v-129zM764 -35q-284 0 -429 164.5t-145 456.5v1011h166v-1001q0 -242 107 -359.5t307 -117.5q199 0 305.5 117.5t106.5 359.5v1001h166v-1011q0 -104 -19.5 -194t-63.5 -169.5t-110.5 -136t-166 -89t-224.5 -32.5z" />
    <glyph glyph-name="umacron" unicode="&#x16b;" horiz-adv-x="1280" 
d="M969 1405h-688v125h688v-125zM569 -35q-82 0 -152.5 24.5t-129 76.5t-92 143t-33.5 213v711h155v-652q0 -99 24.5 -173t66.5 -115.5t92 -61.5t108 -20q79 0 144.5 34.5t106.5 90.5t63 124t22 138v635h156v-779q0 -131 9 -205.5t28 -148.5h-156q-12 48 -17 78t-3.5 76
t14.5 98h-27q-59 -153 -154 -220t-225 -67z" />
    <glyph glyph-name="Uring" unicode="&#x16e;" horiz-adv-x="1538" 
d="M770 1716q-100 0 -165.5 63t-65.5 160t65.5 160.5t165.5 63.5q97 0 163 -64t66 -160q0 -97 -65.5 -160t-163.5 -63zM770 1812q55 0 92 35t37 92q0 56 -37 90.5t-92 34.5q-58 0 -94.5 -34.5t-36.5 -90.5q0 -58 36.5 -92.5t94.5 -34.5zM764 -35q-284 0 -429 164.5
t-145 456.5v1011h166v-1001q0 -242 107 -359.5t307 -117.5q199 0 305.5 117.5t106.5 359.5v1001h166v-1011q0 -104 -19.5 -194t-63.5 -169.5t-110.5 -136t-166 -89t-224.5 -32.5z" />
    <glyph glyph-name="uring" unicode="&#x16f;" horiz-adv-x="1280" 
d="M625 1249q-100 0 -166 63.5t-66 160.5t66 160t166 63q97 0 163 -63.5t66 -159.5q0 -97 -65.5 -160.5t-163.5 -63.5zM625 1346q55 0 92 35t37 92q0 56 -37 90t-92 34q-58 0 -94.5 -34t-36.5 -90q0 -58 36.5 -92.5t94.5 -34.5zM569 -35q-82 0 -152.5 24.5t-129 76.5
t-92 143t-33.5 213v711h155v-652q0 -99 24.5 -173t66.5 -115.5t92 -61.5t108 -20q79 0 144.5 34.5t106.5 90.5t63 124t22 138v635h156v-779q0 -131 9 -205.5t28 -148.5h-156q-12 48 -17 78t-3.5 76t14.5 98h-27q-59 -153 -154 -220t-225 -67z" />
    <glyph glyph-name="Uhungarumlaut" unicode="&#x170;" horiz-adv-x="1538" 
d="M922 2050l-283 -328h-141l213 328h211zM1264 2050l-299 -328h-140l228 328h211zM764 -35q-284 0 -429 164.5t-145 456.5v1011h166v-1001q0 -242 107 -359.5t307 -117.5q199 0 305.5 117.5t106.5 359.5v1001h166v-1011q0 -104 -19.5 -194t-63.5 -169.5t-110.5 -136
t-166 -89t-224.5 -32.5z" />
    <glyph glyph-name="uhungarumlaut" unicode="&#x171;" horiz-adv-x="1280" 
d="M770 1673l-285 -395h-135l217 395h203zM1116 1673l-301 -395h-135l233 395h203zM569 -35q-82 0 -152.5 24.5t-129 76.5t-92 143t-33.5 213v711h155v-652q0 -99 24.5 -173t66.5 -115.5t92 -61.5t108 -20q79 0 144.5 34.5t106.5 90.5t63 124t22 138v635h156v-779
q0 -131 9 -205.5t28 -148.5h-156q-12 48 -17 78t-3.5 76t14.5 98h-27q-59 -153 -154 -220t-225 -67z" />
    <glyph glyph-name="Uogonek" unicode="&#x172;" horiz-adv-x="1538" 
d="M1182 596v1001h166v-1011q0 -117 -25.5 -216.5t-78.5 -183.5t-144.5 -139.5t-214.5 -73.5q-121 -72 -121 -176q0 -66 49 -108.5t125 -42.5q44 0 88 12v-107q-55 -14 -104 -14q-119 0 -198 62t-79 172q0 112 109 194q-279 3 -421.5 167.5t-142.5 453.5v1011h166v-1001
q0 -242 107 -359.5t307 -117.5q199 0 305.5 117.5t106.5 359.5z" />
    <glyph glyph-name="uogonek" unicode="&#x173;" horiz-adv-x="1280" 
d="M1104 -350q44 0 90 14v-113q-55 -14 -104 -14q-117 0 -195 62.5t-78 169.5q0 141 166 231h-2q-12 48 -17 78t-3.5 76t14.5 98h-27q-59 -153 -154 -220t-225 -67q-82 0 -152.5 24.5t-129 76.5t-92 143t-33.5 213v711h155v-652q0 -99 24.5 -173t66.5 -115.5t92 -61.5
t108 -20q79 0 144.5 34.5t106.5 90.5t63 124t22 138v635h156v-779q0 -131 9 -205.5t28 -148.5h-31q-170 -78 -170 -203q0 -66 48 -106.5t120 -40.5z" />
    <glyph glyph-name="Wcircumflex" unicode="&#x174;" horiz-adv-x="2332" 
d="M948 1722h-145l270 314h187l270 -314h-146q-43 40 -69.5 67t-61 74t-59.5 99h-51q-37 -75 -82.5 -127.5t-112.5 -112.5zM745 0h-202l-508 1597h180q137 -421 234 -741t186 -674h24q142 542 414 1415h187q272 -861 417 -1421h27q154 616 414 1421h180l-508 -1597h-201
q-253 766 -407 1395h-31q-170 -686 -406 -1395z" />
    <glyph glyph-name="wcircumflex" unicode="&#x175;" horiz-adv-x="1867" 
d="M686 1278h-147l297 360h192l297 -360h-147q-3 3 -23.5 24t-25 25.5t-23 24t-24.5 26.5t-22 25t-23.5 28t-21 27t-22 30t-18.5 29.5t-19 32.5h-49q-28 -51 -68 -103t-70 -84t-83 -85zM608 0h-168l-407 1133h174q73 -206 112 -320t96 -299t99 -350h31q24 85 51.5 177.5
t48 158t55.5 170.5t50 148.5t56.5 164.5t51.5 150h152q74 -207 114 -320.5t100 -298.5t107 -350h29q19 74 38.5 145.5t43.5 151.5t40 132t46.5 144t42 127t47 140.5t43.5 128.5h174l-405 -1133h-175q-199 552 -311 936h-18q-110 -371 -318 -936z" />
    <glyph glyph-name="Ycircumflex" unicode="&#x176;" horiz-adv-x="1417" 
d="M489 1722h-145l270 314h187l270 -314h-145q-44 41 -70 67t-61 73.5t-60 99.5h-51q-37 -75 -82.5 -127.5t-112.5 -112.5zM791 0h-166q0 387 12 582q-181 293 -602 1015h180q304 -522 481 -892h25q22 47 46.5 97t45.5 91t49.5 94.5t46 87t50 91.5t47.5 85t51 90t47.5 83
t51 88.5t48.5 84.5h178q-48 -81 -145 -247.5t-156 -266.5t-144 -241.5t-159 -259.5q13 -211 13 -582z" />
    <glyph glyph-name="ycircumflex" unicode="&#x177;" horiz-adv-x="1126" 
d="M307 1278h-147l297 360h192l297 -360h-147q-60 62 -84 87t-67 79.5t-70 105.5h-50q-28 -51 -68 -103t-70 -84t-83 -85zM469 -451h-152l168 431l-456 1153h172q215 -544 352 -998h27q136 455 348 998h170z" />
    <glyph glyph-name="Ydieresis" unicode="&#x178;" horiz-adv-x="1417" 
d="M508 1780q-51 0 -85 33.5t-34 84.5q0 47 34.5 81t84.5 34q49 0 82 -34t33 -81q0 -51 -32.5 -84.5t-82.5 -33.5zM913 1780q-52 0 -85 33.5t-33 84.5q0 47 33.5 81t84.5 34q47 0 81 -34.5t34 -80.5q0 -50 -33.5 -84t-81.5 -34zM791 0h-166q0 387 12 582q-181 293 -602 1015
h180q304 -522 481 -892h25q22 47 46.5 97t45.5 91t49.5 94.5t46 87t50 91.5t47.5 85t51 90t47.5 83t51 88.5t48.5 84.5h178q-48 -81 -145 -247.5t-156 -266.5t-144 -241.5t-159 -259.5q13 -211 13 -582z" />
    <glyph glyph-name="Zacute" unicode="&#x179;" horiz-adv-x="1349" 
d="M1044 2050l-337 -328h-144l256 328h225zM1286 0h-1225v139q441 596 1035 1327l-13 25q-455 -45 -985 -45v151h1170v-135q-373 -502 -1035 -1321l13 -24q411 39 1040 39v-156z" />
    <glyph glyph-name="zacute" unicode="&#x17a;" horiz-adv-x="1011" 
d="M877 1669l-312 -391h-137l242 391h207zM958 0h-895v123l1 1v1l1 1l1 1l1 1v1l1 1l1 1l1 1v1l1 1l1 1l1 1v1l1 1l1 1v1l1 1l1 1l1 1v1l1 1l1 1l1 1v1l1 1l1 1v1l1 1l1 1l1 1v1l1 1l1 1l1 1v1l1 1l1 1l1 1v1l1 1l1 1v1l1 1l1 1l1 1v1l1 1l1 1l1 1v1l1 1l1 1l1 1v1l1 2
q367 500 572 753l53 64l-12 25q-286 -33 -621 -33v144h817v-123q-407 -550 -669 -867l12 -26q114 13 250 19t212.5 6.5t239.5 0.5v-143z" />
    <glyph glyph-name="Zdotaccent" unicode="&#x17b;" horiz-adv-x="1349" 
d="M655 1782q-52 0 -87.5 36t-35.5 89q0 50 35.5 84t87.5 34t86.5 -34t34.5 -84q0 -53 -34.5 -89t-86.5 -36zM1286 0h-1225v139q441 596 1035 1327l-13 25q-455 -45 -985 -45v151h1170v-135q-373 -502 -1035 -1321l13 -24q411 39 1040 39v-156z" />
    <glyph glyph-name="zdotaccent" unicode="&#x17c;" horiz-adv-x="1011" 
d="M510 1405q-53 0 -88 36t-35 89q0 50 35 85.5t88 35.5q50 0 84.5 -35.5t34.5 -85.5q0 -53 -34 -89t-85 -36zM958 0h-895v123l1 1v1l1 1l1 1l1 1v1l1 1l1 1l1 1v1l1 1l1 1l1 1v1l1 1l1 1v1l1 1l1 1l1 1v1l1 1l1 1l1 1v1l1 1l1 1v1l1 1l1 1l1 1v1l1 1l1 1l1 1v1l1 1l1 1l1 1
v1l1 1l1 1v1l1 1l1 1l1 1v1l1 1l1 1l1 1v1l1 1l1 1l1 1v1l1 2q367 500 572 753l53 64l-12 25q-286 -33 -621 -33v144h817v-123q-407 -550 -669 -867l12 -26q114 13 250 19t212.5 6.5t239.5 0.5v-143z" />
    <glyph glyph-name="Zcaron" unicode="&#x17d;" horiz-adv-x="1349" 
d="M745 1722h-188l-268 314h145q3 -3 20.5 -19.5t21 -20.5t19.5 -20t21.5 -22t19.5 -21.5t20.5 -24.5t18 -24t19 -27.5t16.5 -28.5t17 -32h51q26 51 62.5 99t59 71t70.5 70h146zM1286 0h-1225v139q441 596 1035 1327l-13 25q-455 -45 -985 -45v151h1170v-135
q-373 -502 -1035 -1321l13 -24q411 39 1040 39v-156z" />
    <glyph glyph-name="zcaron" unicode="&#x17e;" horiz-adv-x="1011" 
d="M602 1284h-192l-297 365h147q51 -53 82.5 -88.5t72.5 -87t72 -101.5h39q12 19 25.5 39.5t24.5 35.5t29 37l27 33t31 35.5t28 31t31.5 34t29.5 31.5h147zM958 0h-895v123l1 1v1l1 1l1 1l1 1v1l1 1l1 1l1 1v1l1 1l1 1l1 1v1l1 1l1 1v1l1 1l1 1l1 1v1l1 1l1 1l1 1v1l1 1l1 1
v1l1 1l1 1l1 1v1l1 1l1 1l1 1v1l1 1l1 1l1 1v1l1 1l1 1v1l1 1l1 1l1 1v1l1 1l1 1l1 1v1l1 1l1 1l1 1v1l1 2q367 500 572 753l53 64l-12 25q-286 -33 -621 -33v144h817v-123q-407 -550 -669 -867l12 -26q114 13 250 19t212.5 6.5t239.5 0.5v-143z" />
    <glyph glyph-name="uni0218" unicode="&#x218;" horiz-adv-x="1325" 
d="M682 -35q-76 0 -148.5 15.5t-144 51t-130 88.5t-106.5 133.5t-75 180.5l153 55q49 -182 171.5 -276t281.5 -94q54 0 105.5 10.5t99.5 33.5t84 57t58 84.5t22 111.5q0 55 -19 98.5t-46 70t-72.5 50t-82 35.5t-91.5 29l-21 6l-148 47q-42 13 -75 24.5t-81 33t-84 45
t-75.5 59t-64.5 75t-41.5 94t-16.5 115.5q0 104 44 188t118 136t166.5 80t193.5 28q194 0 337 -101.5t194 -279.5l-150 -61q-44 135 -146.5 213t-248.5 78q-142 0 -238 -74t-96 -193q0 -42 13.5 -79.5t32.5 -64.5t51 -52t58 -40t64 -31t58.5 -23t52.5 -17l158 -51
q148 -48 201 -74q187 -89 223 -251q10 -43 10 -91q0 -140 -74.5 -249t-199 -166.5t-275.5 -57.5zM637 -537h-80q25 49 37 71t40 62.5t62 75.5q-64 0 -94.5 30t-30.5 77t32.5 76.5t82.5 29.5q48 0 80.5 -32.5t32.5 -81.5q0 -37 -26 -86t-111 -183q-16 -25 -25 -39z" />
    <glyph glyph-name="uni0219" unicode="&#x219;" horiz-adv-x="1019" 
d="M535 -35q-169 0 -296.5 87.5t-172.5 230.5l145 47q41 -104 132.5 -168t191.5 -64q38 0 77.5 10t78 31t63 60.5t24.5 91.5q0 36 -13.5 65t-32 47t-53.5 34.5t-60 24.5t-70 21l-109 31q-44 13 -77 25.5t-82.5 40t-81.5 60.5t-56 86.5t-24 117.5q0 78 33 141t88 101.5
t121 58.5t137 20q146 0 256.5 -79t148.5 -199l-147 -49q-30 82 -101 138t-170 56q-91 0 -150 -48t-59 -128q0 -39 17 -71.5t40.5 -53.5t62 -40t66.5 -28.5t68 -21.5l105 -31q35 -10 56 -16.5t57.5 -21.5t59 -29t51 -37.5t44.5 -50t27.5 -64t11.5 -80.5q0 -150 -113 -248
t-294 -98zM483 -537h-80q24 46 37 70t41 64t62 75q-64 0 -94.5 30t-30.5 77t32 76.5t82 29.5q48 0 80.5 -32.5t32.5 -81.5q0 -37 -26 -86t-111 -183q-16 -25 -25 -39z" />
    <glyph glyph-name="uni021A" unicode="&#x21a;" horiz-adv-x="1302" 
d="M735 0h-166q0 965 25 1473q-205 -27 -563 -27v151h1241v-151q-358 0 -563 27q13 -236 19 -521.5t6.5 -447.5t0.5 -504zM600 -537h-80q25 49 37 71t40 62.5t62 75.5q-63 0 -93.5 30t-30.5 77t32 76.5t82 29.5q48 0 80.5 -32.5t32.5 -81.5q0 -37 -26 -86t-111 -183
q-16 -25 -25 -39z" />
    <glyph glyph-name="uni021B" unicode="&#x21b;" horiz-adv-x="796" 
d="M539 -35q-47 0 -86 9t-67 23t-50 37.5t-36.5 44.5t-24.5 53t-14.5 54.5t-7 56.5t-3 51.5t-0.5 47.5q0 154 0.5 227t6.5 204t19 243q-102 -23 -251 -23v140q149 0 251 -25q-26 130 -26 358h158q0 -223 -27 -358q139 25 367 25v-140q-228 0 -367 23q27 -225 27 -627
q0 -37 0.5 -56t3.5 -54t8.5 -54.5t17 -45.5t28 -39.5t42.5 -23.5t59 -10q89 0 181 60v-146q-85 -55 -209 -55zM416 -537h-80q25 49 37 71t40 62.5t62 75.5q-64 0 -94.5 30t-30.5 77t32.5 76.5t82.5 29.5q48 0 80.5 -32.5t32.5 -81.5q0 -37 -26 -86t-111 -183
q-16 -25 -25 -39z" />
    <glyph glyph-name="gravecomb" unicode="&#x300;" horiz-adv-x="0" 
d="M-92 1278h-137l-312 391h205z" />
    <glyph glyph-name="acutecomb" unicode="&#x301;" horiz-adv-x="0" 
d="M88 1669l-313 -391h-137l241 391h209z" />
    <glyph glyph-name="uni0302" unicode="&#x302;" horiz-adv-x="0" 
d="M-668 1278h-147l297 360h192l297 -360h-147q-60 62 -84 87t-67 79.5t-70 105.5h-49q-28 -51 -68.5 -103.5t-69.5 -83t-84 -85.5z" />
    <glyph glyph-name="tildecomb" unicode="&#x303;" horiz-adv-x="0" 
d="M-315 1335q-36 0 -68.5 12t-47 23t-46.5 37l-43 33q-20 17 -29 24t-28.5 16t-38.5 9q-45 0 -73 -39t-28 -98h-119q1 115 62.5 186.5t157.5 71.5q67 0 147 -66l45 -35q60 -51 105 -51q43 0 67.5 38.5t24.5 98.5h118q0 -121 -54.5 -190.5t-151.5 -69.5z" />
    <glyph glyph-name="uni0304" unicode="&#x304;" horiz-adv-x="0" 
d="M-90 1399h-688v125h688v-125z" />
    <glyph glyph-name="uni0306" unicode="&#x306;" horiz-adv-x="0" 
d="M-410 1274q-170 0 -269 111t-105 284h135q5 -122 71 -196t170 -74q106 0 172.5 74t71.5 196h135q-6 -174 -106.5 -284.5t-274.5 -110.5z" />
    <glyph glyph-name="uni0307" unicode="&#x307;" horiz-adv-x="0" 
d="M-246 1399q-53 0 -88 36t-35 89q0 50 35 85.5t88 35.5q50 0 84.5 -35.5t34.5 -85.5q0 -53 -34 -89t-85 -36z" />
    <glyph glyph-name="uni0308" unicode="&#x308;" horiz-adv-x="0" 
d="M-821 1362q-47 0 -80 34t-33 83q0 45 33 77.5t80 32.5t78.5 -32.5t31.5 -77.5q0 -50 -31.5 -83.5t-78.5 -33.5zM-455 1362q-49 0 -80.5 33.5t-31.5 83.5q0 45 32 77.5t80 32.5q45 0 78 -32.5t33 -77.5q0 -49 -32.5 -83t-78.5 -34z" />
    <glyph glyph-name="uni030A" unicode="&#x30a;" horiz-adv-x="0" 
d="M-250 1249q-100 0 -165.5 63.5t-65.5 160.5t65.5 160t165.5 63q97 0 163.5 -63.5t66.5 -159.5q0 -97 -66 -160.5t-164 -63.5zM-250 1346q55 0 92 35t37 92q0 56 -37 90t-92 34q-58 0 -94.5 -34t-36.5 -90q0 -58 36.5 -92.5t94.5 -34.5z" />
    <glyph glyph-name="uni030B" unicode="&#x30b;" horiz-adv-x="0" 
d="M-195 1673l-284 -395h-135l217 395h202zM154 1673l-304 -395h-135l234 395h205z" />
    <glyph glyph-name="uni030C" unicode="&#x30c;" horiz-adv-x="0" 
d="M-326 1278h-192l-297 364h147q54 -57 83.5 -89t71.5 -84.5t73 -102.5h39q12 19 25.5 39.5t24 35.5t29 37t27 32.5t30.5 35t28 31t32 34.5t29 31h147z" />
    <glyph glyph-name="uni0312" unicode="&#x312;" horiz-adv-x="0" 
d="M-420 1319q0 37 25.5 87t117.5 205q24 40 37 62h97q-79 -158 -148 -272q49 6 73.5 -22t24.5 -70q0 -48 -32 -75.5t-78 -27.5q-51 0 -84 32t-33 81z" />
    <glyph glyph-name="uni0326" unicode="&#x326;" horiz-adv-x="0" 
d="M-330 -537h-80q24 46 37 70t41 64t62 75q-64 0 -94.5 30t-30.5 77t32 76.5t82 29.5q48 0 80.5 -32.5t32.5 -81.5q0 -37 -26 -86t-111 -183q-16 -25 -25 -39z" />
    <glyph glyph-name="uni0327" unicode="&#x327;" horiz-adv-x="0" 
d="M-639 -496q-76 0 -145.5 31t-112.5 84l61 66q33 -44 84.5 -68.5t104.5 -24.5q57 0 95 28.5t38 72.5q0 42 -34 69t-87 27q-51 0 -96 -25l-60 54l119 182h105q-51 -81 -135 -156l10 -10q53 31 104 31q79 0 132 -47.5t53 -122.5q0 -85 -66.5 -138t-169.5 -53z" />
    <glyph glyph-name="uni0328" unicode="&#x328;" horiz-adv-x="0" 
d="M-639 -483q-117 0 -194.5 62t-77.5 169q0 142 166 232h122q-170 -78 -170 -203q0 -66 48 -107t120 -41q41 0 90 15v-113q-55 -14 -104 -14z" />
    <glyph glyph-name="uni0335" unicode="&#x335;" horiz-adv-x="0" 
d="M-754 629h705v-125h-705v125z" />
    <glyph glyph-name="uni0337" unicode="&#x337;" horiz-adv-x="0" 
d="M-494 506v139l545 389v-139z" />
    <glyph glyph-name="uni0338" unicode="&#x338;" horiz-adv-x="0" 
d="M-1020 -59h-154l924 1239h146z" />
    <glyph glyph-name="Wgrave" unicode="&#x1e80;" horiz-adv-x="2332" 
d="M1268 1722h-144l-338 328h224zM745 0h-202l-508 1597h180q137 -421 234 -741t186 -674h24q142 542 414 1415h187q272 -861 417 -1421h27q154 616 414 1421h180l-508 -1597h-201q-253 766 -407 1395h-31q-170 -686 -406 -1395z" />
    <glyph glyph-name="wgrave" unicode="&#x1e81;" horiz-adv-x="1867" 
d="M1008 1278h-138l-311 391h205zM608 0h-168l-407 1133h174q73 -206 112 -320t96 -299t99 -350h31q24 85 51.5 177.5t48 158t55.5 170.5t50 148.5t56.5 164.5t51.5 150h152q74 -207 114 -320.5t100 -298.5t107 -350h29q19 74 38.5 145.5t43.5 151.5t40 132t46.5 144t42 127
t47 140.5t43.5 128.5h174l-405 -1133h-175q-199 552 -311 936h-18q-110 -371 -318 -936z" />
    <glyph glyph-name="Wacute" unicode="&#x1e82;" horiz-adv-x="2332" 
d="M1559 2050l-338 -328h-144l256 328h226zM745 0h-202l-508 1597h180q137 -421 234 -741t186 -674h24q142 542 414 1415h187q272 -861 417 -1421h27q154 616 414 1421h180l-508 -1597h-201q-253 766 -407 1395h-31q-170 -686 -406 -1395z" />
    <glyph glyph-name="wacute" unicode="&#x1e83;" horiz-adv-x="1867" 
d="M1303 1669l-312 -391h-137l242 391h207zM608 0h-168l-407 1133h174q73 -206 112 -320t96 -299t99 -350h31q24 85 51.5 177.5t48 158t55.5 170.5t50 148.5t56.5 164.5t51.5 150h152q74 -207 114 -320.5t100 -298.5t107 -350h29q19 74 38.5 145.5t43.5 151.5t40 132
t46.5 144t42 127t47 140.5t43.5 128.5h174l-405 -1133h-175q-199 552 -311 936h-18q-110 -371 -318 -936z" />
    <glyph glyph-name="Wdieresis" unicode="&#x1e84;" horiz-adv-x="2332" 
d="M965 1780q-51 0 -85 33.5t-34 84.5q0 47 34.5 81t84.5 34q49 0 81.5 -34t32.5 -81q0 -51 -32.5 -84.5t-81.5 -33.5zM1370 1780q-52 0 -85.5 33.5t-33.5 84.5q0 47 34 81t85 34q47 0 81 -34.5t34 -80.5q0 -50 -33.5 -84t-81.5 -34zM745 0h-202l-508 1597h180
q137 -421 234 -741t186 -674h24q142 542 414 1415h187q272 -861 417 -1421h27q154 616 414 1421h180l-508 -1597h-201q-253 766 -407 1395h-31q-170 -686 -406 -1395z" />
    <glyph glyph-name="wdieresis" unicode="&#x1e85;" horiz-adv-x="1867" 
d="M750 1362q-47 0 -80 34t-33 83q0 45 33 77.5t80 32.5t78.5 -32.5t31.5 -77.5q0 -50 -31.5 -83.5t-78.5 -33.5zM1116 1362q-49 0 -80.5 33.5t-31.5 83.5q0 45 32 77.5t80 32.5q46 0 78.5 -32.5t32.5 -77.5q0 -49 -32.5 -83t-78.5 -34zM608 0h-168l-407 1133h174
q73 -206 112 -320t96 -299t99 -350h31q24 85 51.5 177.5t48 158t55.5 170.5t50 148.5t56.5 164.5t51.5 150h152q74 -207 114 -320.5t100 -298.5t107 -350h29q19 74 38.5 145.5t43.5 151.5t40 132t46.5 144t42 127t47 140.5t43.5 128.5h174l-405 -1133h-175
q-199 552 -311 936h-18q-110 -371 -318 -936z" />
    <glyph glyph-name="uni1E9E" unicode="&#x1e9e;" horiz-adv-x="1554" 
d="M356 0h-166v934q0 66 5 125t21 131.5t42.5 132t73 118.5t109 99t154 65t204.5 25q262 0 419.5 -121t157.5 -335q0 -148 -80.5 -243t-226.5 -110v-28q165 0 274 -100.5t109 -272.5q0 -60 -14 -115t-52.5 -112t-99 -98.5t-161 -68t-230.5 -26.5h-174v152h201q97 0 168 23
t110 63t57.5 87.5t18.5 104.5q0 138 -97.5 215.5t-256.5 77.5h-111v143h109q28 0 60.5 6t73.5 25t73.5 49t54.5 84t22 123q0 157 -107.5 244.5t-293.5 87.5q-447 0 -447 -516v-969z" />
    <glyph glyph-name="Ygrave" unicode="&#x1ef2;" horiz-adv-x="1417" 
d="M809 1722h-143l-338 328h223zM791 0h-166q0 387 12 582q-181 293 -602 1015h180q304 -522 481 -892h25q22 47 46.5 97t45.5 91t49.5 94.5t46 87t50 91.5t47.5 85t51 90t47.5 83t51 88.5t48.5 84.5h178q-48 -81 -145 -247.5t-156 -266.5t-144 -241.5t-159 -259.5
q13 -211 13 -582z" />
    <glyph glyph-name="ygrave" unicode="&#x1ef3;" horiz-adv-x="1126" 
d="M629 1278h-137l-312 391h205zM469 -451h-152l168 431l-456 1153h172q215 -544 352 -998h27q136 455 348 998h170z" />
    <glyph glyph-name="uni2000" unicode="&#x2000;" horiz-adv-x="1024" 
 />
    <glyph glyph-name="uni2001" unicode="&#x2001;" 
 />
    <glyph glyph-name="uni2002" unicode="&#x2002;" horiz-adv-x="1024" 
 />
    <glyph glyph-name="uni2003" unicode="&#x2003;" 
 />
    <glyph glyph-name="uni2004" unicode="&#x2004;" horiz-adv-x="681" 
 />
    <glyph glyph-name="uni2005" unicode="&#x2005;" horiz-adv-x="512" 
 />
    <glyph glyph-name="uni2006" unicode="&#x2006;" horiz-adv-x="342" 
 />
    <glyph glyph-name="uni2007" unicode="&#x2007;" horiz-adv-x="548" 
 />
    <glyph glyph-name="uni2008" unicode="&#x2008;" horiz-adv-x="487" 
 />
    <glyph glyph-name="uni2009" unicode="&#x2009;" horiz-adv-x="256" 
 />
    <glyph glyph-name="uni200A" unicode="&#x200a;" horiz-adv-x="86" 
 />
    <glyph glyph-name="uni200B" unicode="&#x200b;" horiz-adv-x="0" 
 />
    <glyph glyph-name="endash" unicode="&#x2013;" horiz-adv-x="1011" 
d="M891 557h-770v135h770v-135z" />
    <glyph glyph-name="emdash" unicode="&#x2014;" horiz-adv-x="1439" 
d="M1321 559h-1200v129h1200v-129z" />
    <glyph glyph-name="quoteleft" unicode="&#x2018;" horiz-adv-x="473" 
d="M293 1632h96q-29 -57 -45.5 -88.5t-49 -79t-67.5 -84.5q56 -9 84.5 -41t28.5 -79q0 -49 -36 -84t-87 -35t-86 34.5t-35 84.5q0 42 33.5 103.5t163.5 268.5z" />
    <glyph glyph-name="quoteright" unicode="&#x2019;" horiz-adv-x="481" 
d="M209 1149h-98q27 54 46 88t52.5 82t71.5 88q-117 23 -117 115q0 50 35.5 84t87.5 34q50 0 84.5 -34.5t34.5 -83.5q0 -42 -34.5 -105t-162.5 -268z" />
    <glyph glyph-name="quotesinglbase" unicode="&#x201a;" horiz-adv-x="462" 
d="M162 -262h-99q34 64 48 90.5t47.5 76t68.5 87.5q-56 9 -84 41.5t-28 77.5q0 51 36 85.5t87 34.5t85.5 -34.5t34.5 -85.5q0 -38 -30.5 -96t-130.5 -221q-23 -36 -35 -56z" />
    <glyph glyph-name="quotedblleft" unicode="&#x201c;" horiz-adv-x="811" 
d="M293 1632h96q-29 -57 -45.5 -88.5t-49 -79t-67.5 -84.5q56 -9 84.5 -41t28.5 -79q0 -49 -36 -84t-87 -35t-86 34.5t-35 84.5q0 42 33.5 103.5t163.5 268.5zM631 1632h96q-29 -57 -46 -88.5t-49.5 -79t-68.5 -84.5q57 -9 85 -41t28 -79q0 -50 -35.5 -84.5t-87.5 -34.5
q-49 0 -84 34.5t-35 84.5q0 42 33.5 103.5t163.5 268.5z" />
    <glyph glyph-name="quotedblright" unicode="&#x201d;" horiz-adv-x="819" 
d="M209 1149h-98q2 4 13 25t14 27t13.5 25t15 26.5t14.5 24.5t16 26t16.5 24t19 25.5t19.5 23.5t22 25q-56 9 -84 41.5t-28 79.5q0 49 36 83.5t87 34.5t86 -34t35 -84q0 -39 -29.5 -94.5t-138.5 -231.5q-6 -10 -9.5 -15.5t-9 -14.5t-10.5 -17zM547 1149h-98q2 4 13 25t14 27
t13.5 25t15 26.5t14.5 24.5t16 26t16.5 24t19 25.5t19.5 23.5t22 25q-56 9 -84 41.5t-28 79.5q0 49 36 83.5t87 34.5t85.5 -34t34.5 -84q0 -41 -33 -102t-163 -271z" />
    <glyph glyph-name="quotedblbase" unicode="&#x201e;" horiz-adv-x="798" 
d="M160 -254h-97q29 57 45.5 88.5t49 79t67.5 84.5q-56 9 -84 42t-28 79q0 50 36 85.5t87 35.5t85.5 -35t34.5 -86q0 -42 -34.5 -106.5t-161.5 -266.5zM498 -254h-97q29 57 45.5 88.5t49 79t67.5 84.5q-56 9 -84 42t-28 79q0 50 35.5 85.5t86.5 35.5t86 -35t35 -86
q0 -42 -34.5 -106.5t-161.5 -266.5z" />
    <glyph glyph-name="dagger" unicode="&#x2020;" horiz-adv-x="993" 
d="M567 430h-145q0 492 18 756q-136 -19 -352 -19v133q223 0 352 -18q-18 131 -18 356h145q0 -225 -18 -356q131 18 358 18v-133q-220 0 -358 19q18 -264 18 -756z" />
    <glyph glyph-name="daggerdbl" unicode="&#x2021;" horiz-adv-x="1083" 
d="M948 1300v-133q-221 0 -366 25q24 -89 25.5 -169t-17.5 -169q137 25 358 25v-134q-221 0 -358 27q24 -133 24 -362h-143q0 223 25 362q-137 -27 -361 -27v134q224 0 361 -25q-35 169 0 338q-137 -25 -361 -25v133q229 0 361 -24q-25 137 -25 362h143q0 -79 -1 -118
t-8.5 -109.5t-22.5 -134.5q139 24 366 24z" />
    <glyph glyph-name="bullet" unicode="&#x2022;" horiz-adv-x="804" 
d="M406 430q-91 0 -153.5 64.5t-62.5 156.5q0 88 62.5 149.5t153.5 61.5q88 0 150 -61.5t62 -149.5q0 -92 -62 -156.5t-150 -64.5z" />
    <glyph glyph-name="ellipsis" unicode="&#x2026;" horiz-adv-x="1376" 
d="M246 -14q-52 0 -87.5 36t-35.5 89q0 51 35.5 85.5t87.5 34.5q50 0 84.5 -34.5t34.5 -85.5q0 -52 -34.5 -88.5t-84.5 -36.5zM690 -14q-52 0 -87.5 36t-35.5 89q0 51 35.5 85.5t87.5 34.5q50 0 84.5 -34.5t34.5 -85.5q0 -52 -34.5 -88.5t-84.5 -36.5zM1135 -14
q-52 0 -87.5 36t-35.5 89q0 51 35.5 85.5t87.5 34.5q50 0 84 -34.5t34 -85.5q0 -52 -34 -88.5t-84 -36.5z" />
    <glyph glyph-name="uni202F" unicode="&#x202f;" horiz-adv-x="399" 
 />
    <glyph glyph-name="perthousand" unicode="&#x2030;" horiz-adv-x="2426" 
d="M352 780q-125 0 -200.5 103.5t-75.5 269.5q0 167 75.5 272t200.5 105t202 -105t77 -272q0 -165 -77 -269t-202 -104zM373 0h-148l1139 1468h139zM352 897q65 0 104.5 67t39.5 189t-39.5 190t-104.5 68q-64 0 -103.5 -68t-39.5 -190t39 -189t104 -67zM1370 -29
q-125 0 -200.5 103.5t-75.5 269.5q0 167 75.5 272t200.5 105t202 -105t77 -272q0 -165 -77 -269t-202 -104zM2075 -29q-125 0 -201 103.5t-76 269.5q0 167 76 272t201 105t201.5 -105t76.5 -272q0 -165 -76.5 -269t-201.5 -104zM1370 88q65 0 104 67t39 189t-39.5 190
t-103.5 68t-103.5 -68t-39.5 -190t39 -189t104 -67zM2075 88q65 0 104 67t39 189t-39.5 190t-103.5 68q-65 0 -104.5 -68t-39.5 -190t39.5 -189t104.5 -67z" />
    <glyph glyph-name="guilsinglleft" unicode="&#x2039;" horiz-adv-x="749" 
d="M614 164h-176l-332 405v9l332 405h176q-72 -88 -115.5 -138t-114.5 -120t-140 -121v-59q69 -52 140 -122t114.5 -120.5t115.5 -138.5z" />
    <glyph glyph-name="guilsinglright" unicode="&#x203a;" horiz-adv-x="749" 
d="M311 164h-176q71 86 116 138t115.5 121.5t139.5 121.5v59q-98 74 -182.5 163t-188.5 216h176l332 -405v-9z" />
    <glyph glyph-name="fraction" unicode="&#x2044;" horiz-adv-x="313" 
d="M-332 0h-149l1140 1468h140z" />
    <glyph glyph-name="uni205F" unicode="&#x205f;" horiz-adv-x="454" 
 />
    <glyph glyph-name="uni2070" unicode="&#x2070;" horiz-adv-x="704" 
d="M352 780q-125 0 -200.5 103.5t-75.5 269.5q0 167 75.5 272t200.5 105t202 -105t77 -272q0 -165 -77 -269t-202 -104zM352 897q65 0 104.5 67t39.5 189t-39.5 190t-104.5 68q-64 0 -103.5 -68t-39.5 -190t39 -189t104 -67z" />
    <glyph glyph-name="uni2074" unicode="&#x2074;" horiz-adv-x="675" 
d="M516 797h-121v153h-350v107l352 456h119v-456h96v-107h-96v-153zM395 1350l-225 -293h225v293z" />
    <glyph glyph-name="uni2075" unicode="&#x2075;" horiz-adv-x="661" 
d="M319 780q-94 0 -168.5 43.5t-101.5 120.5l111 57q21 -54 65 -83t97 -29q61 0 100 39.5t39 101.5t-38.5 99.5t-96.5 37.5q-90 0 -131 -77l-105 28l84 395h379v-104h-289l-45 -209q24 28 66.5 45t85.5 17q91 0 158 -60.5t67 -169.5q0 -113 -80 -182.5t-197 -69.5z" />
    <glyph glyph-name="uni2076" unicode="&#x2076;" horiz-adv-x="690" 
d="M352 780q-125 0 -201.5 88.5t-76.5 245.5q0 181 96.5 298.5t247.5 117.5q119 0 186 -70l-67 -84q-51 43 -125 43q-90 0 -147 -67t-64 -189h2q23 46 73.5 73.5t104.5 27.5q98 0 169 -65.5t71 -168.5q0 -108 -76 -179t-193 -71zM358 887q58 0 100 41t42 104q0 62 -41 102
t-99 40q-62 0 -102.5 -41.5t-40.5 -102.5t41 -102t100 -41z" />
    <glyph glyph-name="uni2077" unicode="&#x2077;" horiz-adv-x="573" 
d="M285 797h-135q0 139 66.5 318.5t178.5 295.5h-358v109h508v-111q-122 -107 -191 -284t-69 -328z" />
    <glyph glyph-name="uni2078" unicode="&#x2078;" horiz-adv-x="677" 
d="M338 780q-120 0 -193 61.5t-73 151.5q0 67 38.5 115.5t92.5 62.5v5q-101 51 -101 151q0 87 68 145t168 58q99 0 168 -56.5t69 -146.5q0 -105 -100 -151v-5q56 -16 93.5 -63.5t37.5 -112.5q0 -92 -73.5 -153.5t-194.5 -61.5zM340 1219q51 0 85 31.5t34 78.5q0 46 -34 75.5
t-85 29.5q-52 0 -85.5 -30t-33.5 -75q0 -46 33.5 -78t85.5 -32zM340 891q58 0 96.5 34t38.5 89t-36.5 88t-98.5 33q-64 0 -100.5 -33t-36.5 -88q0 -54 39 -88.5t98 -34.5z" />
    <glyph glyph-name="uni2079" unicode="&#x2079;" horiz-adv-x="696" 
d="M311 780q-65 0 -127.5 25.5t-105.5 77.5l72 82q65 -78 161 -78q89 0 135 74t48 186q-22 -51 -73.5 -79t-109.5 -28q-98 0 -167.5 65.5t-69.5 168.5q0 110 76 183t196 73t197.5 -83t77.5 -257q0 -84 -19 -157t-56.5 -130t-97.5 -90t-137 -33zM334 1128q61 0 103 45.5
t42 110.5q0 64 -41 103.5t-100 39.5q-62 0 -102.5 -41.5t-40.5 -107.5q0 -65 39.5 -107.5t99.5 -42.5z" />
    <glyph glyph-name="uni2080" unicode="&#x2080;" horiz-adv-x="704" 
d="M352 -285q-125 0 -200.5 103.5t-75.5 269.5q0 167 75.5 272t200.5 105t202 -105t77 -272q0 -165 -77 -269t-202 -104zM352 -168q65 0 104.5 67t39.5 189t-39.5 190t-104.5 68q-64 0 -103.5 -68t-39.5 -190t39 -189t104 -67z" />
    <glyph glyph-name="uni2081" unicode="&#x2081;" horiz-adv-x="460" 
d="M330 -270h-125v510q-61 -68 -156 -84v129q71 20 114.5 65t43.5 99h123v-719z" />
    <glyph glyph-name="uni2082" unicode="&#x2082;" horiz-adv-x="655" 
d="M575 -270h-493v14q4 66 17 111t45 84.5t67 67.5t104 75q28 20 41 30t38 33.5t36.5 49t11.5 53.5q0 44 -31.5 73t-84.5 29q-64 0 -104 -44.5t-40 -117.5l-116 19q0 115 74.5 186.5t189.5 71.5q105 0 175 -60.5t70 -156.5q0 -123 -135 -215q-16 -11 -48.5 -32.5
t-48.5 -33.5t-38 -31t-35 -40.5t-20 -47.5h325v-118z" />
    <glyph glyph-name="uni2083" unicode="&#x2083;" horiz-adv-x="663" 
d="M324 -285q-98 0 -171.5 45t-95.5 119l111 55q43 -112 156 -112q57 0 94 31.5t37 85.5q0 53 -40 81.5t-106 28.5h-69v92h73q57 0 93 30.5t36 76.5q0 48 -35 77t-88 29t-88.5 -30.5t-42.5 -85.5l-114 24q9 88 81.5 145.5t174.5 57.5q100 0 168.5 -52.5t68.5 -138.5
q0 -57 -31.5 -103.5t-82.5 -59.5v-2q59 -11 97 -57t38 -113q0 -90 -70.5 -157t-193.5 -67z" />
    <glyph glyph-name="uni2084" unicode="&#x2084;" horiz-adv-x="675" 
d="M516 -270h-121v155h-350v107l352 457h119v-457h96v-107h-96v-155zM395 285l-225 -293h225v293z" />
    <glyph glyph-name="uni2085" unicode="&#x2085;" horiz-adv-x="661" 
d="M319 -285q-94 0 -168.5 43.5t-101.5 120.5l111 58q21 -54 65 -83.5t97 -29.5q62 0 100.5 39t38.5 100q0 63 -38.5 101t-96.5 38q-90 0 -131 -77l-105 28l84 396h379v-105h-289l-45 -209q24 28 66.5 45t85.5 17q91 0 158 -60.5t67 -169.5q0 -114 -79.5 -183t-197.5 -69z
" />
    <glyph glyph-name="uni2086" unicode="&#x2086;" horiz-adv-x="690" 
d="M352 -285q-125 0 -201.5 88.5t-76.5 245.5q0 181 96.5 298.5t247.5 117.5q119 0 186 -70l-67 -84q-51 43 -125 43q-90 0 -147 -67t-64 -189h2q23 46 73.5 73.5t104.5 27.5q99 0 169.5 -66t70.5 -170q0 -106 -76.5 -177t-192.5 -71zM358 -178q58 0 100 41t42 104
q0 62 -41 102t-99 40q-62 0 -102.5 -42t-40.5 -104q0 -60 41 -100.5t100 -40.5z" />
    <glyph glyph-name="uni2087" unicode="&#x2087;" horiz-adv-x="573" 
d="M285 -270h-135q0 140 66.5 320t178.5 296h-358v109h508v-111q-122 -107 -191 -284.5t-69 -329.5z" />
    <glyph glyph-name="uni2088" unicode="&#x2088;" horiz-adv-x="677" 
d="M338 -285q-120 0 -193 61t-73 150q0 69 38.5 117.5t92.5 62.5v5q-101 51 -101 151q0 87 68 145t168 58q99 0 168 -56.5t69 -146.5q0 -105 -100 -151v-5q56 -16 93.5 -63.5t37.5 -112.5q0 -92 -73.5 -153.5t-194.5 -61.5zM340 154q51 0 85 31.5t34 78.5q0 46 -34 75.5
t-85 29.5q-52 0 -85.5 -30t-33.5 -75q0 -46 33.5 -78t85.5 -32zM340 -174q58 0 96.5 34t38.5 87q0 56 -36 89.5t-99 33.5q-64 0 -100.5 -33.5t-36.5 -89.5q0 -53 39 -87t98 -34z" />
    <glyph glyph-name="uni2089" unicode="&#x2089;" horiz-adv-x="696" 
d="M311 -285q-150 0 -233 103l72 82q64 -80 161 -80q89 0 135 74.5t48 187.5q-22 -51 -73.5 -79t-109.5 -28q-98 0 -167.5 65.5t-69.5 168.5q0 110 76 183t196 73t197.5 -83t77.5 -257q0 -84 -19 -157t-56.5 -130t-97.5 -90t-137 -33zM334 63q61 0 103 45.5t42 110.5
q0 64 -41 103.5t-100 39.5q-62 0 -102.5 -41.5t-40.5 -107.5q0 -65 39.5 -107.5t99.5 -42.5z" />
    <glyph glyph-name="Euro" unicode="&#x20ac;" horiz-adv-x="1634" 
d="M1065 -35q-289 0 -473 160t-223 436q-98 -20 -252 -20v110q142 0 231 -26q-42 148 0 286q-89 -26 -231 -26v110q152 0 248 -20q38 280 219 447t469 167q297 0 479 -164l-117 -118q-148 129 -364 129q-210 0 -352.5 -120.5t-209.5 -340.5q242 20 674 20v-110
q-158 0 -233.5 0.5t-210.5 6.5t-250 19q18 -143 2 -286q115 13 250 19t210 6.5t232 0.5v-110q-429 0 -669 20q71 -216 215.5 -329t353.5 -113q226 0 379 127l104 -117q-190 -164 -481 -164z" />
    <glyph glyph-name="trademark" unicode="&#x2122;" horiz-adv-x="1564" 
d="M401 936h-106v580h-219v100h542v-100h-217v-580zM842 936h-109v680h109q75 -180 223 -520q27 63 102.5 244t116.5 276h109v-680h-109v446q-29 -71 -91.5 -215.5t-92.5 -218.5h-76l-182 438v-450z" />
    <glyph glyph-name="oneeighth" unicode="&#x215b;" horiz-adv-x="1452" 
d="M330 797h-125v508q-61 -68 -156 -84v129q71 20 114.5 64.5t43.5 98.5h123v-716zM129 0h-149l1140 1468h140zM1112 -29q-120 0 -193 61.5t-73 151.5q0 67 38.5 115.5t92.5 62.5v5q-100 51 -100 151q0 87 67.5 145t167.5 58q99 0 168.5 -56.5t69.5 -146.5q0 -105 -101 -151
v-5q56 -16 93.5 -63.5t37.5 -112.5q0 -92 -73.5 -153.5t-194.5 -61.5zM1114 410q51 0 85 31.5t34 78.5q0 46 -34 75.5t-85 29.5q-52 0 -85.5 -30t-33.5 -75q0 -46 33.5 -78t85.5 -32zM1114 82q58 0 96.5 34t38.5 89t-36.5 88t-98.5 33q-64 0 -100.5 -33t-36.5 -88
q0 -54 39 -88.5t98 -34.5z" />
    <glyph glyph-name="threeeighths" unicode="&#x215c;" horiz-adv-x="1654" 
d="M324 780q-98 0 -171.5 45.5t-95.5 118.5l111 55q21 -53 60.5 -82.5t95.5 -29.5q57 0 94 31.5t37 85.5q0 53 -40 81.5t-106 28.5h-69v92h73q57 0 93 30.5t36 76.5q0 48 -35 77t-88 29t-88.5 -30.5t-42.5 -85.5l-114 24q9 88 81.5 145.5t174.5 57.5q100 0 168.5 -52.5
t68.5 -138.5q0 -57 -31.5 -103.5t-82.5 -59.5v-2q59 -11 97 -56.5t38 -111.5q0 -91 -70 -158.5t-194 -67.5zM332 0h-148l1139 1468h139zM1315 -29q-120 0 -193 61.5t-73 151.5q0 67 38.5 115.5t92.5 62.5v5q-101 51 -101 151q0 87 68 145t168 58q99 0 168 -56.5t69 -146.5
q0 -105 -100 -151v-5q56 -16 93.5 -63.5t37.5 -112.5q0 -92 -73.5 -153.5t-194.5 -61.5zM1317 410q51 0 85 31.5t34 78.5q0 46 -34 75.5t-85 29.5q-52 0 -85.5 -30t-33.5 -75q0 -46 33.5 -78t85.5 -32zM1317 82q58 0 96.5 34t38.5 89t-36.5 88t-98.5 33q-64 0 -100.5 -33
t-36.5 -88q0 -54 39 -88.5t98 -34.5z" />
    <glyph glyph-name="fiveeighths" unicode="&#x215d;" horiz-adv-x="1652" 
d="M319 780q-94 0 -168.5 43.5t-101.5 120.5l111 57q21 -54 65 -83t97 -29q61 0 100 39.5t39 101.5t-38.5 99.5t-96.5 37.5q-90 0 -131 -77l-105 28l84 395h379v-104h-289l-45 -209q24 28 66.5 45t85.5 17q91 0 158 -60.5t67 -169.5q0 -113 -80 -182.5t-197 -69.5zM330 0
h-148l1139 1468h139zM1313 -29q-120 0 -193 61.5t-73 151.5q0 67 38.5 115.5t92.5 62.5v5q-101 51 -101 151q0 87 68 145t168 58q99 0 168 -56.5t69 -146.5q0 -105 -100 -151v-5q56 -16 93.5 -63.5t37.5 -112.5q0 -92 -73.5 -153.5t-194.5 -61.5zM1315 410q51 0 85 31.5
t34 78.5q0 46 -34 75.5t-85 29.5q-52 0 -85.5 -30t-33.5 -75q0 -46 33.5 -78t85.5 -32zM1315 82q58 0 96.5 34t38.5 89t-36.5 88t-98.5 33q-64 0 -100.5 -33t-36.5 -88q0 -54 39 -88.5t98 -34.5z" />
    <glyph glyph-name="seveneighths" unicode="&#x215e;" horiz-adv-x="1564" 
d="M285 797h-135q0 139 66.5 318.5t178.5 295.5h-358v109h508v-111q-122 -107 -191 -284t-69 -328zM242 0h-148l1139 1468h139zM1225 -29q-120 0 -193.5 61.5t-73.5 151.5q0 67 39 115.5t93 62.5v5q-101 51 -101 151q0 87 68 145t168 58q99 0 168 -56.5t69 -146.5
q0 -105 -100 -151v-5q56 -16 93.5 -63.5t37.5 -112.5q0 -92 -73.5 -153.5t-194.5 -61.5zM1227 410q51 0 85 31.5t34 78.5q0 46 -34 75.5t-85 29.5q-52 0 -85.5 -30t-33.5 -75q0 -46 33.5 -78t85.5 -32zM1227 82q58 0 96.5 34t38.5 89t-36.5 88t-98.5 33q-64 0 -100.5 -33
t-36.5 -88q0 -54 39 -88.5t98 -34.5z" />
    <glyph glyph-name="arrowleft" unicode="&#x2190;" horiz-adv-x="1417" 
d="M623 236h-170l-340 405v8l340 406h170q-62 -72 -101 -116.5t-106.5 -114t-139.5 -134.5q350 25 1018 25v-142q-668 0 -1018 27q177 -160 347 -364z" />
    <glyph glyph-name="arrowup" unicode="&#x2191;" horiz-adv-x="989" 
d="M567 20h-143q0 670 27 1020q-65 -72 -135 -140t-112.5 -105t-117.5 -101v168l406 340h8l405 -340v-168q-216 179 -364 344q13 -163 19 -359.5t6.5 -308.5t0.5 -350z" />
    <glyph glyph-name="arrowright" unicode="&#x2192;" horiz-adv-x="1417" 
d="M965 236h-170q84 101 162.5 185t183.5 179q-350 -27 -1018 -27v142q668 0 1018 -25q-72 65 -140 135t-105 112.5t-101 117.5h170l340 -406v-8z" />
    <glyph glyph-name="arrowdown" unicode="&#x2193;" horiz-adv-x="993" 
d="M500 20h-8l-406 340v170q222 -185 367 -346q-27 348 -27 1018h141q0 -682 -24 -1018q64 71 134.5 139.5t110.5 104.5t117 102v-170z" />
    <glyph glyph-name="arrowboth" unicode="&#x2194;" horiz-adv-x="1775" 
d="M618 233h-167l-340 406v8l340 406h167q-159 -190 -317 -369q586 37 1174 0q-176 199 -318 369h168l340 -406v-8l-340 -406h-168q211 248 316 367q-586 -40 -1170 0q80 -91 315 -367z" />
    <glyph glyph-name="arrowupdn" unicode="&#x2195;" horiz-adv-x="1083" 
d="M547 4h-8l-406 330v160q202 -165 365 -304q-39 506 0 1012q-87 -76 -365 -307v162l406 329h8l405 -329v-162q-304 253 -364 305q40 -504 0 -1010q140 122 364 304v-160z" />
    <glyph glyph-name="uni2196" unicode="&#x2196;" horiz-adv-x="1040" 
d="M936 145l-123 -71q-279 488 -392 708q-49 96 -93 187q-46 -215 -144 -482l-84 148l183 495l6 5l522 -91l84 -147q-289 53 -489 117q92 -135 194 -299.5t163 -270t173 -299.5z" />
    <glyph glyph-name="uni2197" unicode="&#x2197;" horiz-adv-x="1040" 
d="M225 74l-123 71q10 18 54.5 94.5t58.5 100.5t54.5 93t59.5 100.5t56 92.5t62 100.5t58.5 92.5t65.5 100.5t64 94.5q-198 -63 -490 -117l84 147l521 91l8 -5l180 -495l-84 -148q-96 273 -141 482q-159 -325 -488 -895z" />
    <glyph glyph-name="uni2198" unicode="&#x2198;" horiz-adv-x="1038" 
d="M100 1075l123 72q329 -570 488 -895q44 206 141 481l84 -147l-180 -496l-8 -4l-521 90l-84 148q292 -54 490 -117q-29 43 -59.5 89t-55 83t-57.5 90.5t-52 83t-55 90.5t-50 83t-53.5 90.5t-48.5 83.5t-52.5 90t-49.5 85z" />
    <glyph glyph-name="uni2199" unicode="&#x2199;" horiz-adv-x="1038" 
d="M815 1147l123 -72q-124 -213 -177.5 -304t-158 -260.5t-196.5 -303.5q205 65 489 117l-84 -148l-522 -90l-6 4l-183 496l86 147q33 -95 50.5 -147t44.5 -146t47 -188q164 336 487 895z" />
    <glyph glyph-name="emptyset" unicode="&#x2205;" horiz-adv-x="1425" 
d="M1237 1196l-125 -176q88 -82 137 -200t49 -253q0 -169 -73 -306t-207 -216.5t-305 -79.5q-162 0 -297 74l-125 -176l-103 71l127 179q-90 82 -139 199.5t-49 254.5q0 170 73 306.5t207.5 215t305.5 78.5q167 0 299 -75l123 174zM287 565q0 -192 121 -323l514 725
q-89 53 -209 53q-187 0 -306.5 -131t-119.5 -324zM713 113q187 0 305.5 129.5t118.5 322.5q0 194 -117 324l-514 -725q91 -51 207 -51z" />
    <glyph glyph-name="minus" unicode="&#x2212;" horiz-adv-x="1017" 
d="M879 559h-742v133h742v-133z" />
    <glyph glyph-name="infinity" unicode="&#x221e;" horiz-adv-x="1832" 
d="M487 287q-153 0 -254.5 95.5t-101.5 242.5q0 146 104.5 243t251.5 97q102 0 191 -55.5t240 -200.5q151 145 239.5 200.5t188.5 55.5q153 0 255.5 -96.5t102.5 -243.5t-102.5 -242.5t-255.5 -95.5q-105 0 -193.5 55.5t-234.5 198.5q-145 -143 -235 -198.5t-196 -55.5z
M485 408q39 0 73 9.5t72.5 36t59.5 43.5t71 63.5t70 64.5q-21 19 -60.5 56.5t-58 54t-51 41.5t-56 36t-55.5 20t-65 9q-96 0 -155.5 -59t-59.5 -158q0 -100 60 -158.5t155 -58.5zM1348 410q96 0 155.5 57t59.5 158q0 99 -59 158t-156 59q-32 0 -63.5 -9t-54.5 -20t-56.5 -36
t-52 -41.5t-59 -54t-61.5 -56.5q19 -17 59.5 -54t58.5 -53t52 -41.5t57.5 -37t55.5 -20.5t64 -9z" />
    <glyph glyph-name="approxequal" unicode="&#x2248;" horiz-adv-x="1073" 
d="M287 717h-133q0 127 69 196.5t168 69.5q50 0 95 -21t72 -46.5t62.5 -46.5t69.5 -21q51 0 74.5 37.5t23.5 95.5h134q0 -130 -61 -198t-161 -68q-44 0 -82 14t-64.5 34.5t-51 40.5t-52.5 34t-57 14q-53 0 -79.5 -38.5t-26.5 -96.5zM287 291h-133q0 127 69 196.5t168 69.5
q50 0 95 -21t72 -46.5t62.5 -46.5t69.5 -21q51 0 74.5 38t23.5 97h134q0 -131 -61 -199.5t-161 -68.5q-44 0 -82 14t-64.5 34t-51 40.5t-52.5 34.5t-57 14q-53 0 -79.5 -38.5t-26.5 -96.5z" />
    <glyph glyph-name="notequal" unicode="&#x2260;" horiz-adv-x="1054" 
d="M899 899v-135h-276q-16 -149 -105 -287h381v-135h-428q4 -64 -41 -180h-127q40 117 90 180h-241v135h288q16 146 105 287h-393v135h442q1 19 -1 23.5t2 24t4 24t5.5 24t7 24t7.5 24t8 24.5h129q-32 -102 -86 -168h229z" />
    <glyph glyph-name="lessequal" unicode="&#x2264;" horiz-adv-x="1040" 
d="M883 334h-729v117h469l-467 178v137l727 178v-129l-557 -135l557 -225v-121z" />
    <glyph glyph-name="greaterequal" unicode="&#x2265;" horiz-adv-x="1040" 
d="M887 334h-729v121l557 225l-557 135v129l727 -178v-137l-467 -178h469v-117z" />
    <glyph glyph-name="lozenge" unicode="&#x25ca;" horiz-adv-x="1155" 
d="M623 0h-91l-417 694l417 692h91l415 -692zM270 694l303 -516h9l303 516l-303 516h-9z" />
    <glyph glyph-name="A.ss01" horiz-adv-x="1525" 
d="M203 0h-174l622 1597h223l623 -1597h-176q-140 335 -193 547l-20 18q-218 -20 -334 -20q-160 0 -352 20l-23 -20q-62 -217 -196 -545zM459 688l12 -20q208 20 303 20q101 0 273 -20l14 18q-94 229 -154 403t-100 371h-92q-43 -199 -103.5 -374.5t-152.5 -397.5z" />
    <glyph glyph-name="Aacute.ss01" horiz-adv-x="1525" 
d="M1153 2050l-338 -328h-143l256 328h225zM203 0h-174l622 1597h223l623 -1597h-176q-140 335 -193 547l-20 18q-218 -20 -334 -20q-160 0 -352 20l-23 -20q-62 -217 -196 -545zM459 688l12 -20q208 20 303 20q101 0 273 -20l14 18q-94 229 -154 403t-100 371h-92
q-43 -199 -103.5 -374.5t-152.5 -397.5z" />
    <glyph glyph-name="Abreve.ss01" horiz-adv-x="1525" 
d="M762 1724q-165 0 -270 100.5t-111 229.5h141q5 -81 73 -144t167 -63q100 0 168.5 63t73.5 144h139q-2 -61 -29.5 -119.5t-75 -105.5t-120 -76t-156.5 -29zM203 0h-174l622 1597h223l623 -1597h-176q-140 335 -193 547l-20 18q-218 -20 -334 -20q-160 0 -352 20l-23 -20
q-62 -217 -196 -545zM459 688l12 -20q208 20 303 20q101 0 273 -20l14 18q-94 229 -154 403t-100 371h-92q-43 -199 -103.5 -374.5t-152.5 -397.5z" />
    <glyph glyph-name="Acircumflex.ss01" horiz-adv-x="1525" 
d="M543 1722h-146l271 314h186l270 -314h-145q-44 41 -70 67t-61 73.5t-60 99.5h-51q-37 -75 -82.5 -128t-111.5 -112zM203 0h-174l622 1597h223l623 -1597h-176q-140 335 -193 547l-20 18q-218 -20 -334 -20q-160 0 -352 20l-23 -20q-62 -217 -196 -545zM459 688l12 -20
q208 20 303 20q101 0 273 -20l14 18q-94 229 -154 403t-100 371h-92q-43 -199 -103.5 -374.5t-152.5 -397.5z" />
    <glyph glyph-name="Adieresis.ss01" horiz-adv-x="1525" 
d="M561 1780q-51 0 -85 33.5t-34 84.5q0 47 34.5 81t84.5 34q49 0 82 -34t33 -81q0 -51 -32.5 -84.5t-82.5 -33.5zM967 1780q-52 0 -85.5 33.5t-33.5 84.5q0 47 34 81t85 34q47 0 80.5 -34.5t33.5 -80.5q0 -51 -33 -84.5t-81 -33.5zM203 0h-174l622 1597h223l623 -1597h-176
q-140 335 -193 547l-20 18q-218 -20 -334 -20q-160 0 -352 20l-23 -20q-62 -217 -196 -545zM459 688l12 -20q208 20 303 20q101 0 273 -20l14 18q-94 229 -154 403t-100 371h-92q-43 -199 -103.5 -374.5t-152.5 -397.5z" />
    <glyph glyph-name="Agrave.ss01" horiz-adv-x="1525" 
d="M862 1722h-143l-338 328h223zM203 0h-174l622 1597h223l623 -1597h-176q-140 335 -193 547l-20 18q-218 -20 -334 -20q-160 0 -352 20l-23 -20q-62 -217 -196 -545zM459 688l12 -20q208 20 303 20q101 0 273 -20l14 18q-94 229 -154 403t-100 371h-92
q-43 -199 -103.5 -374.5t-152.5 -397.5z" />
    <glyph glyph-name="Amacron.ss01" horiz-adv-x="1525" 
d="M1102 1821h-680v129h680v-129zM203 0h-174l622 1597h223l623 -1597h-176q-140 335 -193 547l-20 18q-218 -20 -334 -20q-160 0 -352 20l-23 -20q-62 -217 -196 -545zM459 688l12 -20q208 20 303 20q101 0 273 -20l14 18q-94 229 -154 403t-100 371h-92
q-43 -199 -103.5 -374.5t-152.5 -397.5z" />
    <glyph glyph-name="Aogonek.ss01" horiz-adv-x="1525" 
d="M1460 -354q44 0 88 12v-107q-55 -14 -104 -14q-119 0 -198 62t-79 172q0 137 162 229h-8q-140 335 -193 547l-20 18q-218 -20 -334 -20q-160 0 -352 20l-23 -20q-62 -217 -196 -545h-174l622 1597h223l623 -1597h-37q-87 -37 -130.5 -90t-43.5 -113q0 -66 49 -108.5
t125 -42.5zM1047 668l14 18q-94 229 -154 403t-100 371h-92q-43 -199 -103.5 -374.5t-152.5 -397.5l12 -20q208 20 303 20q101 0 273 -20z" />
    <glyph glyph-name="Aring.ss01" horiz-adv-x="1525" 
d="M762 1716q-100 0 -166 63t-66 160t66 160.5t166 63.5q97 0 163 -64t66 -160q0 -97 -65.5 -160t-163.5 -63zM762 1812q55 0 92 35t37 92q0 56 -37 90.5t-92 34.5q-58 0 -94.5 -34.5t-36.5 -90.5q0 -58 36.5 -92.5t94.5 -34.5zM203 0h-174l622 1597h223l623 -1597h-176
q-140 335 -193 547l-20 18q-218 -20 -334 -20q-160 0 -352 20l-23 -20q-62 -217 -196 -545zM459 688l12 -20q208 20 303 20q101 0 273 -20l14 18q-94 229 -154 403t-100 371h-92q-43 -199 -103.5 -374.5t-152.5 -397.5z" />
    <glyph glyph-name="Atilde.ss01" horiz-adv-x="1525" 
d="M918 1745q-36 0 -68.5 12t-47 23t-46.5 37l-43 32q-20 17 -29.5 24.5t-29 16t-38.5 8.5q-45 0 -72.5 -38.5t-27.5 -98.5h-119q1 115 62 186.5t157 71.5q70 0 148 -65l45 -35q60 -51 104 -51q43 0 68 38.5t25 98.5h118q0 -121 -54.5 -190.5t-151.5 -69.5zM203 0h-174
l622 1597h223l623 -1597h-176q-140 335 -193 547l-20 18q-218 -20 -334 -20q-160 0 -352 20l-23 -20q-62 -217 -196 -545zM459 688l12 -20q208 20 303 20q101 0 273 -20l14 18q-94 229 -154 403t-100 371h-92q-43 -199 -103.5 -374.5t-152.5 -397.5z" />
    <glyph glyph-name="B.ss01" horiz-adv-x="1460" 
d="M854 0h-643v1597h584q119 0 216.5 -33.5t159.5 -91t95.5 -132t33.5 -158.5q0 -124 -73.5 -220t-222.5 -131v-34q174 -28 262 -127t88 -240q0 -128 -69 -227.5t-182 -151t-249 -51.5zM352 870l23 -22q141 29 389 29q165 0 263.5 76.5t98.5 203.5q0 132 -106.5 210.5
t-267.5 78.5q-88 0 -124 0.5t-111.5 7.5t-143.5 21l-25 -21q40 -281 4 -584zM350 147l23 -24q158 29 436 29q165 0 267 78t102 206q0 133 -107 214t-274 81q-266 0 -422 29l-23 -21q36 -306 -2 -592z" />
    <glyph glyph-name="C.ss01" horiz-adv-x="1718" 
d="M915 -35q-234 0 -418.5 105t-287.5 294.5t-103 430.5q0 186 63.5 344t172 264.5t254 166.5t309.5 60q154 0 293.5 -51t251.5 -159.5t162 -260.5l-152 -61q-70 178 -218.5 277.5t-336.5 99.5q-127 0 -240 -47.5t-198 -133.5t-134.5 -216.5t-49.5 -286.5q0 -133 36.5 -245
t98.5 -189.5t145 -131.5t175 -79t190 -25q117 0 217.5 36.5t173.5 102t124.5 149t80.5 183.5l149 -53q-40 -128 -107.5 -232t-161 -181t-218.5 -119t-271 -42z" />
    <glyph glyph-name="D.ss01" horiz-adv-x="1646" 
d="M799 0h-588v1597h569q156 0 283 -40.5t214.5 -112t146.5 -171.5t86.5 -216t27.5 -248q0 -238 -87 -420t-255.5 -285.5t-396.5 -103.5zM350 147l23 -24q154 29 428 29q257 0 410 171t153 474q0 315 -168 482t-455 167q-233 0 -368 29l-25 -21q55 -645 2 -1307z" />
    <glyph glyph-name="E.ss01" horiz-adv-x="1345" 
d="M1241 0h-1030v1597h1010v-151q-28 0 -155.5 -0.5t-178.5 0t-153.5 3t-187.5 9t-173 17.5l-25 -21q42 -273 4 -567l19 -23q138 15 291.5 23t249 9t268.5 1v-156q-173 0 -268.5 1t-249 9.5t-289.5 24.5l-21 -22q37 -309 -2 -607l23 -24q145 15 310.5 23t268.5 9t289 1v-156
z" />
    <glyph glyph-name="F.ss01" horiz-adv-x="1271" 
d="M377 0h-166v1597h989v-157q-176 0 -274.5 1t-256 9.5t-296.5 24.5l-25 -21q42 -294 0 -586l19 -22q136 16 287.5 24.5t244.5 9.5t260 1v-158q-167 0 -259.5 1t-243.5 9.5t-287 24.5l-21 -23q29 -252 29 -735z" />
    <glyph glyph-name="G.ss01" horiz-adv-x="1755" 
d="M911 -35q-179 0 -330 62t-255 171t-162 262t-58 331q0 188 63 346.5t171.5 265.5t254.5 167t310 60q115 0 224.5 -30t204 -87.5t168 -148.5t110.5 -205l-152 -61q-70 178 -218.5 277.5t-336.5 99.5q-126 0 -239 -47t-198 -132.5t-135 -216t-50 -286.5q0 -305 180 -488.5
t473 -183.5q247 0 403 147t203 406l-18 20q-283 -49 -570 -49v141h705v-53q0 -156 -40 -284.5t-109 -217.5t-164.5 -149.5t-204.5 -88.5t-230 -28z" />
    <glyph glyph-name="H.ss01" horiz-adv-x="1656" 
d="M377 0h-166v1597h166q0 -476 -25 -718l23 -21q480 45 907 0l23 21q-23 252 -23 718h166v-1597h-166q0 467 23 737l-23 21q-427 -63 -907 0l-23 -21q25 -260 25 -737z" />
    <glyph glyph-name="I.ss01" horiz-adv-x="1120" 
d="M1036 0h-954v152q264 0 414 -25q-26 672 0 1346q-154 -27 -424 -27v151h975v-151q-268 0 -422 27q26 -674 0 -1346q150 25 411 25v-152z" />
    <glyph glyph-name="Iacute.ss01" horiz-adv-x="1120" 
d="M942 2050l-338 -330h-143l258 330h223zM1036 0h-954v152q264 0 414 -25q-26 672 0 1346q-154 -27 -424 -27v151h975v-151q-268 0 -422 27q26 -674 0 -1346q150 25 411 25v-152z" />
    <glyph glyph-name="Icircumflex.ss01" horiz-adv-x="1120" 
d="M342 1722h-145l270 314h186l271 -314h-146q-43 40 -69.5 67t-61 74t-59.5 99h-51q-37 -75 -82.5 -127.5t-112.5 -112.5zM1036 0h-954v152q264 0 414 -25q-26 672 0 1346q-154 -27 -424 -27v151h975v-151q-268 0 -422 27q26 -674 0 -1346q150 25 411 25v-152z" />
    <glyph glyph-name="Idieresis.ss01" horiz-adv-x="1120" 
d="M360 1780q-51 0 -84.5 33.5t-33.5 84.5q0 47 34 81t84 34q49 0 82 -34t33 -81q0 -51 -32.5 -84.5t-82.5 -33.5zM766 1780q-52 0 -85.5 33.5t-33.5 84.5q0 47 34 81t85 34q47 0 81 -34.5t34 -80.5q0 -50 -33.5 -84t-81.5 -34zM1036 0h-954v152q264 0 414 -25
q-26 672 0 1346q-154 -27 -424 -27v151h975v-151q-268 0 -422 27q26 -674 0 -1346q150 25 411 25v-152z" />
    <glyph glyph-name="Idotaccent.ss01" horiz-adv-x="1120" 
d="M561 1782q-52 0 -87.5 36t-35.5 89q0 50 35.5 84t87.5 34t86.5 -34t34.5 -84q0 -53 -34.5 -89t-86.5 -36zM1036 0h-954v152q264 0 414 -25q-26 672 0 1346q-154 -27 -424 -27v151h975v-151q-268 0 -422 27q26 -674 0 -1346q150 25 411 25v-152z" />
    <glyph glyph-name="Igrave.ss01" horiz-adv-x="1120" 
d="M662 1722h-144l-338 328h223zM1036 0h-954v152q264 0 414 -25q-26 672 0 1346q-154 -27 -424 -27v151h975v-151q-268 0 -422 27q26 -674 0 -1346q150 25 411 25v-152z" />
    <glyph glyph-name="Imacron.ss01" horiz-adv-x="1120" 
d="M901 1821h-680v129h680v-129zM1036 0h-954v152q264 0 414 -25q-26 672 0 1346q-154 -27 -424 -27v151h975v-151q-268 0 -422 27q26 -674 0 -1346q150 25 411 25v-152z" />
    <glyph glyph-name="J.ss01" horiz-adv-x="1214" 
d="M559 -35q-77 0 -146 16.5t-134 56t-112 99.5t-75.5 153.5t-28.5 211.5v28l158 23v-27q0 -113 29.5 -195.5t79.5 -127t105 -64.5t116 -20q148 0 226.5 107.5t78.5 285.5q0 587 27 952l-13 27q-254 -45 -565 -45v151h717v-1044q0 -32 -0.5 -53.5t-4.5 -69.5t-12 -84.5
t-24 -87.5t-38.5 -89t-58 -78.5t-80 -66t-107.5 -42.5t-138 -17z" />
    <glyph glyph-name="K.ss01" horiz-adv-x="1378" 
d="M377 0h-166v1597h166q0 -491 -17 -733h17q380 372 766 733h217q-433 -407 -868 -794v-27q92 -72 181.5 -146t196.5 -167t163.5 -142.5t190 -169.5t167.5 -151h-230q-184 159 -271.5 236t-238 220.5t-272.5 276.5h-14q12 -285 12 -733z" />
    <glyph glyph-name="L.ss01" horiz-adv-x="1210" 
d="M1180 0h-969v1597h166q0 -948 -27 -1450l23 -24q135 15 289 23t250 9t268 1v-156z" />
    <glyph glyph-name="M.ss01" horiz-adv-x="1939" 
d="M377 0h-166v1597h197q331 -594 546 -1089h31q201 467 547 1089h197v-1597h-168q0 92 -1.5 312t-1.5 344t6 312.5t19 350.5h-27l-520 -981h-135l-518 981h-27q13 -162 19 -349.5t6 -314.5t-2 -342.5t-2 -312.5z" />
    <glyph glyph-name="N.ss01" horiz-adv-x="1687" 
d="M377 0h-166v1597h223q10 -16 90 -142.5t97.5 -154.5t88.5 -141.5t98.5 -158.5t90.5 -147t100.5 -165.5t92 -155t103 -175t97.5 -169.5h45q-24 509 -24 1409h166v-1597h-226q-15 24 -89.5 142t-96 152t-89 141t-97.5 156t-90 146.5t-99.5 163t-93 155t-102 172.5
t-97.5 169h-49q27 -526 27 -1397z" />
    <glyph glyph-name="O.ss01" horiz-adv-x="1812" 
d="M905 -35q-163 0 -310 62.5t-255 171.5t-172 265t-64 333t63.5 332.5t171.5 265t255.5 172.5t312.5 63q166 0 314.5 -64.5t255.5 -175t169 -265t62 -328.5t-63 -329t-170.5 -265t-256 -174t-313.5 -64zM909 121q125 0 238.5 51t198 139.5t134.5 215.5t50 270t-49.5 270
t-134 216t-198.5 140.5t-239 51.5q-126 0 -241 -51t-200.5 -140t-136 -216t-50.5 -271t50.5 -271t136 -215t200.5 -139t241 -51z" />
    <glyph glyph-name="P.ss01" horiz-adv-x="1370" 
d="M377 0h-166v1597h567q103 0 196 -29.5t167.5 -86.5t119 -150.5t44.5 -210.5q0 -98 -30 -181t-79.5 -138.5t-114.5 -94.5t-134 -57t-140 -18q-112 0 -168 1.5t-136 11.5t-153 30q27 -252 27 -674zM352 770l21 -22q66 16 141.5 24t118 9t127.5 1q169 0 269.5 85t100.5 247
q0 159 -106.5 245.5t-275.5 86.5q-240 0 -375 29l-25 -21q40 -320 4 -684z" />
    <glyph glyph-name="Q.ss01" horiz-adv-x="1822" 
d="M498 -266v-27q185 25 390 37t330 14t349 2v-143h-1336q181 205 357 414q-219 89 -348 291t-129 475q0 184 61 340t167.5 264t254.5 168.5t319 60.5q172 0 321 -62.5t254.5 -172t165.5 -264.5t60 -334q0 -181 -60.5 -335.5t-167 -263t-255 -170t-320.5 -61.5
q-79 0 -176 17q-160 -173 -237 -250zM283 797q0 -234 112.5 -402.5t298.5 -236.5q178 210 326 393l123 -94q-180 -213 -285 -334q20 -2 57 -2q130 0 245.5 49t199.5 136t133 214.5t49 276.5t-48.5 277t-132.5 216t-199.5 137.5t-246.5 49.5q-133 0 -249 -49t-200.5 -136.5
t-133.5 -215.5t-49 -279z" />
    <glyph glyph-name="R.ss01" horiz-adv-x="1417" 
d="M377 0h-166v1597h567q80 0 155.5 -18t143 -57t118.5 -94.5t80.5 -135t29.5 -174.5q0 -86 -22 -155.5t-58.5 -118.5t-92.5 -85t-116.5 -58t-139 -35t-150 -18t-159.5 -5q285 -224 791 -643h-215q-20 16 -96.5 79t-103 84.5t-95 78.5t-102.5 86t-94 80t-101.5 88t-92 83
t-96.5 89h-12q27 -248 27 -668zM352 764l21 -21q149 29 387 29q167 0 268.5 88t101.5 250q0 160 -107 249t-275 89q-229 0 -375 27l-25 -21q41 -348 4 -690z" />
    <glyph glyph-name="S.ss01" horiz-adv-x="1325" 
d="M682 -35q-76 0 -148.5 15.5t-144 51t-130 88.5t-106.5 133.5t-75 180.5l153 55q49 -182 171.5 -276t281.5 -94q54 0 105.5 10.5t99.5 33.5t84 57t58 84.5t22 111.5q0 55 -19 98.5t-46 70t-72.5 50t-82 35.5t-91.5 29l-21 6l-148 47q-42 13 -75 24.5t-81 33t-84 45
t-75.5 59t-64.5 75t-41.5 94t-16.5 115.5q0 104 44 188t118 136t166.5 80t193.5 28q194 0 337 -101.5t194 -279.5l-150 -61q-44 135 -146.5 213t-248.5 78q-142 0 -238 -74t-96 -193q0 -42 13.5 -79.5t32.5 -64.5t51 -52t58 -40t64 -31t58.5 -23t52.5 -17l158 -51
q148 -48 201 -74q187 -89 223 -251q10 -43 10 -91q0 -140 -74.5 -249t-199 -166.5t-275.5 -57.5z" />
    <glyph glyph-name="U.ss01" horiz-adv-x="1558" 
d="M741 -35q-110 0 -201 32t-155 88t-108.5 134.5t-65.5 170.5t-21 196v1011h166v-1001q0 -227 106 -352t304 -125q199 0 307.5 125.5t108.5 351.5v1001h166v-1597h-160q0 100 22 260h-26q-60 -156 -168 -225.5t-275 -69.5z" />
    <glyph glyph-name="Uacute.ss01" horiz-adv-x="1558" 
d="M1112 2050l-336 -330h-143l256 330h223zM741 -35q-110 0 -201 32t-155 88t-108.5 134.5t-65.5 170.5t-21 196v1011h166v-1001q0 -227 106 -352t304 -125q199 0 307.5 125.5t108.5 351.5v1001h166v-1597h-160q0 100 22 260h-26q-60 -156 -168 -225.5t-275 -69.5z" />
    <glyph glyph-name="Ucircumflex.ss01" horiz-adv-x="1558" 
d="M545 1722h-146l271 314h186l270 -314h-145q-43 40 -69.5 67t-61 74t-59.5 99h-52q-37 -75 -82.5 -128t-111.5 -112zM741 -35q-110 0 -201 32t-155 88t-108.5 134.5t-65.5 170.5t-21 196v1011h166v-1001q0 -227 106 -352t304 -125q199 0 307.5 125.5t108.5 351.5v1001h166
v-1597h-160q0 100 22 260h-26q-60 -156 -168 -225.5t-275 -69.5z" />
    <glyph glyph-name="Udieresis.ss01" horiz-adv-x="1558" 
d="M561 1780q-51 0 -85 33.5t-34 84.5q0 47 34.5 81t84.5 34q49 0 82 -34t33 -81q0 -51 -32.5 -84.5t-82.5 -33.5zM967 1780q-52 0 -85.5 33.5t-33.5 84.5q0 47 34 81t85 34q47 0 80.5 -34.5t33.5 -80.5q0 -51 -33 -84.5t-81 -33.5zM741 -35q-110 0 -201 32t-155 88
t-108.5 134.5t-65.5 170.5t-21 196v1011h166v-1001q0 -227 106 -352t304 -125q199 0 307.5 125.5t108.5 351.5v1001h166v-1597h-160q0 100 22 260h-26q-60 -156 -168 -225.5t-275 -69.5z" />
    <glyph glyph-name="Ugrave.ss01" horiz-adv-x="1558" 
d="M862 1722h-143l-338 328h223zM741 -35q-110 0 -201 32t-155 88t-108.5 134.5t-65.5 170.5t-21 196v1011h166v-1001q0 -227 106 -352t304 -125q199 0 307.5 125.5t108.5 351.5v1001h166v-1597h-160q0 100 22 260h-26q-60 -156 -168 -225.5t-275 -69.5z" />
    <glyph glyph-name="Uhungarumlaut.ss01" horiz-adv-x="1558" 
d="M915 2050l-282 -328h-141l213 328h210zM1257 2050l-299 -328h-139l228 328h210zM741 -35q-110 0 -201 32t-155 88t-108.5 134.5t-65.5 170.5t-21 196v1011h166v-1001q0 -227 106 -352t304 -125q199 0 307.5 125.5t108.5 351.5v1001h166v-1597h-160q0 100 22 260h-26
q-60 -156 -168 -225.5t-275 -69.5z" />
    <glyph glyph-name="Umacron.ss01" horiz-adv-x="1558" 
d="M1102 1821h-680v129h680v-129zM741 -35q-110 0 -201 32t-155 88t-108.5 134.5t-65.5 170.5t-21 196v1011h166v-1001q0 -227 106 -352t304 -125q199 0 307.5 125.5t108.5 351.5v1001h166v-1597h-160q0 100 22 260h-26q-60 -156 -168 -225.5t-275 -69.5z" />
    <glyph glyph-name="Uogonek.ss01" horiz-adv-x="1558" 
d="M1333 -354q44 0 88 12v-107q-55 -14 -104 -14q-119 0 -198 62t-79 172q0 137 162 229h-14q0 100 22 260h-26q-60 -156 -168 -225.5t-275 -69.5q-110 0 -201 32t-155 88t-108.5 134.5t-65.5 170.5t-21 196v1011h166v-1001q0 -227 106 -352t304 -125q199 0 307.5 125.5
t108.5 351.5v1001h166v-1597h-15q-87 -37 -130.5 -90t-43.5 -113q0 -66 49 -108.5t125 -42.5z" />
    <glyph glyph-name="Uring.ss01" horiz-adv-x="1558" 
d="M762 1716q-100 0 -166 63t-66 160t66 160.5t166 63.5q97 0 163 -64t66 -160q0 -97 -65.5 -160t-163.5 -63zM762 1812q55 0 92 35t37 92q0 56 -37 90.5t-92 34.5q-58 0 -94.5 -34.5t-36.5 -90.5q0 -58 36.5 -92.5t94.5 -34.5zM741 -35q-110 0 -201 32t-155 88
t-108.5 134.5t-65.5 170.5t-21 196v1011h166v-1001q0 -227 106 -352t304 -125q199 0 307.5 125.5t108.5 351.5v1001h166v-1597h-160q0 100 22 260h-26q-60 -156 -168 -225.5t-275 -69.5z" />
    <glyph glyph-name="V.ss01" horiz-adv-x="1527" 
d="M891 0h-256l-606 1597h174q298 -785 524 -1419h80q223 635 518 1419h176z" />
    <glyph glyph-name="W.ss01" horiz-adv-x="2332" 
d="M748 0h-205l-508 1597h180l420 -1374h14l379 1374h293l369 -1374h14l414 1374h180l-508 -1597h-203l-370 1432h-87z" />
    <glyph glyph-name="Wacute.ss01" horiz-adv-x="2332" 
d="M1559 2050l-338 -328h-144l256 328h226zM748 0h-205l-508 1597h180l420 -1374h14l379 1374h293l369 -1374h14l414 1374h180l-508 -1597h-203l-370 1432h-87z" />
    <glyph glyph-name="Wcircumflex.ss01" horiz-adv-x="2332" 
d="M948 1722h-145l270 314h187l270 -314h-146q-43 40 -69.5 67t-61 74t-59.5 99h-51q-37 -75 -82.5 -127.5t-112.5 -112.5zM748 0h-205l-508 1597h180l420 -1374h14l379 1374h293l369 -1374h14l414 1374h180l-508 -1597h-203l-370 1432h-87z" />
    <glyph glyph-name="Wdieresis.ss01" horiz-adv-x="2332" 
d="M965 1780q-51 0 -85 33.5t-34 84.5q0 47 34.5 81t84.5 34q49 0 81.5 -34t32.5 -81q0 -51 -32.5 -84.5t-81.5 -33.5zM1370 1780q-52 0 -85.5 33.5t-33.5 84.5q0 47 34 81t85 34q47 0 81 -34.5t34 -80.5q0 -50 -33.5 -84t-81.5 -34zM748 0h-205l-508 1597h180l420 -1374h14
l379 1374h293l369 -1374h14l414 1374h180l-508 -1597h-203l-370 1432h-87z" />
    <glyph glyph-name="Wgrave.ss01" horiz-adv-x="2332" 
d="M1268 1722h-144l-338 328h224zM748 0h-205l-508 1597h180l420 -1374h14l379 1374h293l369 -1374h14l414 1374h180l-508 -1597h-203l-370 1432h-87z" />
    <glyph glyph-name="X.ss01" horiz-adv-x="1421" 
d="M211 0h-186l540 813l-2 14l-528 770h186q206 -300 453 -698h76q208 331 452 698h182l-524 -770l-4 -14l541 -813h-183q-193 296 -464 737h-76q-240 -391 -463 -737z" />
    <glyph glyph-name="Y.ss01" horiz-adv-x="1402" 
d="M471 0h-174q212 363 373 588q-252 380 -621 1009h180q9 -15 54 -92t58 -99t53 -91t57.5 -100t53 -93t57.5 -102.5t52 -96t56.5 -106t52.5 -102.5h27q69 148 159 317t148.5 270.5t171.5 294.5h178z" />
    <glyph glyph-name="Yacute.ss01" horiz-adv-x="1402" 
d="M1114 2050l-338 -330h-143l256 330h225zM471 0h-174q212 363 373 588q-252 380 -621 1009h180q9 -15 54 -92t58 -99t53 -91t57.5 -100t53 -93t57.5 -102.5t52 -96t56.5 -106t52.5 -102.5h27q69 148 159 317t148.5 270.5t171.5 294.5h178z" />
    <glyph glyph-name="Ycircumflex.ss01" horiz-adv-x="1402" 
d="M510 1722h-145l270 314h186l271 -314h-146q-43 40 -69.5 67t-61 74t-59.5 99h-51q-37 -75 -82.5 -127.5t-112.5 -112.5zM471 0h-174q212 363 373 588q-252 380 -621 1009h180q9 -15 54 -92t58 -99t53 -91t57.5 -100t53 -93t57.5 -102.5t52 -96t56.5 -106t52.5 -102.5h27
q69 148 159 317t148.5 270.5t171.5 294.5h178z" />
    <glyph glyph-name="Ydieresis.ss01" horiz-adv-x="1402" 
d="M526 1780q-51 0 -84.5 33.5t-33.5 84.5q0 47 34 81t84 34q49 0 82 -34t33 -81q0 -51 -32.5 -84.5t-82.5 -33.5zM932 1780q-52 0 -85.5 33.5t-33.5 84.5q0 47 34 81t85 34q47 0 81 -34.5t34 -80.5q0 -50 -33.5 -84t-81.5 -34zM471 0h-174q212 363 373 588
q-252 380 -621 1009h180q9 -15 54 -92t58 -99t53 -91t57.5 -100t53 -93t57.5 -102.5t52 -96t56.5 -106t52.5 -102.5h27q69 148 159 317t148.5 270.5t171.5 294.5h178z" />
    <glyph glyph-name="Ygrave.ss01" horiz-adv-x="1402" 
d="M827 1722h-143l-338 328h223zM471 0h-174q212 363 373 588q-252 380 -621 1009h180q9 -15 54 -92t58 -99t53 -91t57.5 -100t53 -93t57.5 -102.5t52 -96t56.5 -106t52.5 -102.5h27q69 148 159 317t148.5 270.5t171.5 294.5h178z" />
    <glyph glyph-name="Z.ss01" horiz-adv-x="1398" 
d="M1315 0h-1317q823 1102 1094 1456l-15 25q-356 -35 -950 -35v151h1249q-88 -118 -259 -348.5t-280 -376t-263 -348.5t-289 -374l12 -27q160 15 354.5 23t318 9t345.5 1v-156z" />
    <glyph glyph-name="Zacute.ss01" horiz-adv-x="1398" 
d="M1083 2050l-338 -328h-143l256 328h225zM1315 0h-1317q823 1102 1094 1456l-15 25q-356 -35 -950 -35v151h1249q-88 -118 -259 -348.5t-280 -376t-263 -348.5t-289 -374l12 -27q160 15 354.5 23t318 9t345.5 1v-156z" />
    <glyph glyph-name="Zcaron.ss01" horiz-adv-x="1398" 
d="M784 1722h-188l-268 314h145q3 -3 20.5 -19.5t21 -20.5t19.5 -20t21.5 -22t19.5 -21.5t20.5 -24.5t18 -24t19 -27.5t16.5 -28.5t17 -32h51q26 51 62.5 99t59 71t70.5 70h146zM1315 0h-1317q823 1102 1094 1456l-15 25q-356 -35 -950 -35v151h1249q-88 -118 -259 -348.5
t-280 -376t-263 -348.5t-289 -374l12 -27q160 15 354.5 23t318 9t345.5 1v-156z" />
    <glyph glyph-name="Zdotaccent.ss01" horiz-adv-x="1398" 
d="M696 1782q-52 0 -87.5 36t-35.5 89q0 50 35.5 84t87.5 34t86.5 -34t34.5 -84q0 -53 -34.5 -89t-86.5 -36zM1315 0h-1317q823 1102 1094 1456l-15 25q-356 -35 -950 -35v151h1249q-88 -118 -259 -348.5t-280 -376t-263 -348.5t-289 -374l12 -27q160 15 354.5 23t318 9
t345.5 1v-156z" />
    <glyph glyph-name="Q.ss02" horiz-adv-x="1812" 
d="M965 -31q16 -73 12 -237q93 14 200.5 21t169 8t189.5 1v-145q-467 0 -682 18q-11 209 6 332q-159 12 -298.5 79.5t-240.5 175.5t-159 257t-58 318q0 177 63.5 332.5t171.5 265t255.5 172.5t312.5 63q166 0 314.5 -64.5t255.5 -175t169 -265t62 -328.5
q0 -220 -94.5 -401.5t-263.5 -293.5t-385 -133zM281 797q0 -268 159 -453t424 -223q-14 77 -20.5 168t-7 143t-0.5 162h157q0 -110 -1 -163t-8 -145t-21 -167q246 36 406.5 223.5t160.5 454.5q0 143 -49.5 270t-134 216t-198.5 140.5t-239 51.5q-126 0 -241 -51t-200.5 -140
t-136 -216t-50.5 -271z" />
    <glyph glyph-name="A.ss07" 
d="M1020 -315q-197 0 -371.5 71t-298.5 193.5t-196 293.5t-72 365q0 198 72 372.5t196 298.5t298 195.5t372 71.5q200 0 375.5 -71.5t301 -195.5t197.5 -298.5t72 -372.5q0 -259 -123 -470.5t-339.5 -332t-483.5 -120.5zM965 1096l-387 -963h118q90 222 121 328l8 8
q132 -12 205 -12q75 0 197 12l6 -6q36 -137 117 -330h123l-388 963h-120zM856 545l-4 4q103 220 164 438h18q52 -210 158 -438l-2 -4q-77 12 -160 12q-86 0 -174 -12z" />
    <glyph glyph-name="B.ss07" 
d="M1020 -315q-197 0 -371.5 71t-298.5 193.5t-196 293.5t-72 365q0 198 72 372.5t196 298.5t298 195.5t372 71.5q200 0 375.5 -71.5t301 -195.5t197.5 -298.5t72 -372.5q0 -259 -123 -470.5t-339.5 -332t-483.5 -120.5zM711 1096v-963h391q124 0 213.5 71.5t89.5 190.5
q0 91 -54.5 150t-154.5 76v6q84 22 131 78.5t47 136.5q0 112 -86 183t-221 71h-356zM819 653l-6 6q18 187 -4 342l8 7q93 -19 223 -19q97 0 155 -44t58 -118t-56.5 -115.5t-147.5 -41.5q-141 0 -230 -17zM819 223l-10 10q22 152 4 342l6 9q96 -17 248 -17q98 0 157.5 -46.5
t59.5 -121.5q0 -74 -56 -116.5t-153 -42.5q-158 0 -256 -17z" />
    <glyph glyph-name="C.ss07" 
d="M1020 -315q-197 0 -371.5 71t-298.5 193.5t-196 293.5t-72 365q0 198 72 372.5t196 298.5t298 195.5t372 71.5q200 0 375.5 -71.5t301 -195.5t197.5 -298.5t72 -372.5q0 -259 -123 -470.5t-339.5 -332t-483.5 -120.5zM1053 113q169 0 289 92.5t169 261.5l-104 35
q-33 -124 -121.5 -202.5t-226.5 -78.5q-72 0 -137.5 23.5t-119.5 69.5t-86 122.5t-32 173.5q0 174 102 286t261 112q112 0 198 -61.5t125 -164.5l105 41q-44 142 -164.5 217.5t-266.5 75.5q-204 0 -342.5 -141t-138.5 -363q0 -221 136.5 -360t353.5 -139z" />
    <glyph glyph-name="D.ss07" 
d="M1020 -315q-197 0 -371.5 71t-298.5 193.5t-196 293.5t-72 365q0 198 72 372.5t196 298.5t298 195.5t372 71.5q200 0 375.5 -71.5t301 -195.5t197.5 -298.5t72 -372.5q0 -259 -123 -470.5t-339.5 -332t-483.5 -120.5zM674 1096v-963h358q203 0 325 133t122 355
q0 224 -121.5 349.5t-337.5 125.5h-346zM782 223l-8 10q30 383 0 768l8 7q82 -19 215 -19q164 0 262.5 -94t98.5 -281q0 -175 -86.5 -274.5t-237.5 -99.5q-156 0 -252 -17z" />
    <glyph glyph-name="E.ss07" 
d="M1020 -315q-197 0 -371.5 71t-298.5 193.5t-196 293.5t-72 365q0 198 72 372.5t196 298.5t298 195.5t372 71.5q200 0 375.5 -71.5t301 -195.5t197.5 -298.5t72 -372.5q0 -259 -123 -470.5t-339.5 -332t-483.5 -120.5zM731 1096v-963h627v109q-341 0 -518 -19l-9 8
q21 176 3 355l6 8q26 -3 52.5 -6t48.5 -5t51.5 -3.5t47 -2.5t49.5 -2t45.5 -1.5t49 -0.5h45h48.5h46v109q-309 0 -483 -20l-6 8q18 168 -3 331l9 7q44 -6 92.5 -9.5t82.5 -5.5t89 -3t78 -1h86.5h79.5v107h-617z" />
    <glyph glyph-name="F.ss07" 
d="M1020 -315q-197 0 -371.5 71t-298.5 193.5t-196 293.5t-72 365q0 198 72 372.5t196 298.5t298 195.5t372 71.5q200 0 375.5 -71.5t301 -195.5t197.5 -298.5t72 -372.5q0 -259 -123 -470.5t-339.5 -332t-483.5 -120.5zM752 1096v-963h114q0 288 -14 442l6 9
q174 -23 473 -23v109q-310 0 -473 -19l-6 8q21 176 -2 342l10 7q185 -21 496 -21v109h-604z" />
    <glyph glyph-name="G.ss07" 
d="M1020 -315q-197 0 -371.5 71t-298.5 193.5t-196 293.5t-72 365q0 198 72 372.5t196 298.5t298 195.5t372 71.5q200 0 375.5 -71.5t301 -195.5t197.5 -298.5t72 -372.5q0 -259 -123 -470.5t-339.5 -332t-483.5 -120.5zM1040 113q266 0 365 254l14 -2q-7 -44 -10.5 -83.5
t-4 -57t0 -52t0.5 -39.5h96v483h-434v-100q169 -3 342 29l4 -6q-31 -147 -126 -232.5t-232 -85.5q-70 0 -134.5 24t-118 69.5t-86 122t-32.5 173.5q0 174 102 286t261 112q111 0 197 -60.5t126 -165.5l105 41q-44 142 -164.5 217.5t-266.5 75.5q-205 0 -343 -142t-138 -362
t134 -359.5t343 -139.5z" />
    <glyph glyph-name="H.ss07" 
d="M1020 -315q-197 0 -371.5 71t-298.5 193.5t-196 293.5t-72 365q0 198 72 372.5t196 298.5t298 195.5t372 71.5q200 0 375.5 -71.5t301 -195.5t197.5 -298.5t72 -372.5q0 -259 -123 -470.5t-339.5 -332t-483.5 -120.5zM649 1096v-963h115q0 286 -12 442l6 7q283 -36 532 0
l6 -7q-12 -162 -12 -442h115v963h-115q0 -278 12 -430l-6 -7q-249 23 -532 0l-6 7q12 145 12 430h-115z" />
    <glyph glyph-name="I.ss07" 
d="M1020 -315q-197 0 -371.5 71t-298.5 193.5t-196 293.5t-72 365q0 198 72 372.5t196 298.5t298 195.5t372 71.5q200 0 375.5 -71.5t301 -195.5t197.5 -298.5t72 -372.5q0 -259 -123 -470.5t-339.5 -332t-483.5 -120.5zM967 1096v-963h114v963h-114z" />
    <glyph glyph-name="J.ss07" 
d="M1020 -315q-197 0 -371.5 71t-298.5 193.5t-196 293.5t-72 365q0 198 72 372.5t196 298.5t298 195.5t372 71.5q200 0 375.5 -71.5t301 -195.5t197.5 -298.5t72 -372.5q0 -259 -123 -470.5t-339.5 -332t-483.5 -120.5zM989 123q46 0 84.5 10t65.5 25.5t49 41t35.5 49
t23.5 57t14.5 57t7 58t3 51t0.5 44.5v590h-115v-614q0 -38 -2 -67t-12 -68t-27 -65t-50 -44.5t-79 -18.5q-38 0 -71 11.5t-62 36.5t-46 71.5t-17 108.5v30l-109 -12v-37q0 -82 25.5 -144.5t70 -98.5t97.5 -54t114 -18z" />
    <glyph glyph-name="K.ss07" 
d="M1020 -315q-197 0 -371.5 71t-298.5 193.5t-196 293.5t-72 365q0 198 72 372.5t196 298.5t298 195.5t372 71.5q200 0 375.5 -71.5t301 -195.5t197.5 -298.5t72 -372.5q0 -259 -123 -470.5t-339.5 -332t-483.5 -120.5zM713 1096v-963h114q0 219 -8 336q64 45 125 131h4
q117 -170 348 -467h142q-262 345 -426 535v8q52 50 110.5 109.5t94 97t106 113t94.5 100.5h-141q-287 -306 -467 -510h-6q7 47 12 96.5t7.5 84t3.5 89.5t1 78v85v77h-114z" />
    <glyph glyph-name="L.ss07" 
d="M1020 -315q-197 0 -371.5 71t-298.5 193.5t-196 293.5t-72 365q0 198 72 372.5t196 298.5t298 195.5t372 71.5q200 0 375.5 -71.5t301 -195.5t197.5 -298.5t72 -372.5q0 -259 -123 -470.5t-339.5 -332t-483.5 -120.5zM809 1096v-963h592v109q-323 0 -486 -19l-8 10
q17 316 17 863h-115z" />
    <glyph glyph-name="M.ss07" 
d="M1020 -315q-197 0 -371.5 71t-298.5 193.5t-196 293.5t-72 365q0 198 72 372.5t196 298.5t298 195.5t372 71.5q200 0 375.5 -71.5t301 -195.5t197.5 -298.5t72 -372.5q0 -259 -123 -470.5t-339.5 -332t-483.5 -120.5zM528 1096v-963h115q0 27 0.5 120t0 131.5t-2 121.5
t-4 137.5t-8 130t-13.5 146.5h7q105 -244 354 -787h92q255 556 356 787h5q-7 -72 -12.5 -148.5t-8 -133t-3.5 -137t-1.5 -121t0 -129t0.5 -118.5h115v963h-119q-201 -401 -375 -826h-6q-166 426 -375 826h-117z" />
    <glyph glyph-name="N.ss07" 
d="M1020 -315q-197 0 -371.5 71t-298.5 193.5t-196 293.5t-72 365q0 198 72 372.5t196 298.5t298 195.5t372 71.5q200 0 375.5 -71.5t301 -195.5t197.5 -298.5t72 -372.5q0 -259 -123 -470.5t-339.5 -332t-483.5 -120.5zM653 1096v-963h115v104.5v115t-0.5 102.5t-2 119
t-3.5 108t-5.5 126t-8.5 120h6q223 -344 563 -795h104v963h-114v-105.5v-116.5t0.5 -104t2 -121t3.5 -110t5.5 -128.5t8.5 -123.5h-6q-250 396 -565 809h-103z" />
    <glyph glyph-name="O.ss07" 
d="M1020 -315q-197 0 -371.5 71t-298.5 193.5t-196 293.5t-72 365q0 198 72 372.5t196 298.5t298 195.5t372 71.5q200 0 375.5 -71.5t301 -195.5t197.5 -298.5t72 -372.5q0 -259 -123 -470.5t-339.5 -332t-483.5 -120.5zM1024 113q205 0 345 144.5t140 356.5t-139.5 357
t-343.5 145q-135 0 -246 -65.5t-174 -181t-63 -255.5q0 -213 138.5 -357t342.5 -144zM662 614q0 166 105 280t259 114q152 0 257.5 -114t105.5 -280t-105.5 -279.5t-257.5 -113.5q-153 0 -258.5 114t-105.5 279z" />
    <glyph glyph-name="P.ss07" 
d="M1020 -315q-197 0 -371.5 71t-298.5 193.5t-196 293.5t-72 365q0 198 72 372.5t196 298.5t298 195.5t372 71.5q200 0 375.5 -71.5t301 -195.5t197.5 -298.5t72 -372.5q0 -259 -123 -470.5t-339.5 -332t-483.5 -120.5zM735 1096v-963h115q0 250 -12 397q39 -11 86.5 -16
t76 -5.5t97.5 -0.5q54 0 106 18t97 52.5t72.5 93.5t27.5 133q0 75 -28 133t-75.5 91.5t-102 50t-114.5 16.5h-346zM842 594l-6 6q21 205 -2 401l8 7q84 -19 221 -19q97 0 158 -48t61 -138q0 -94 -58 -141.5t-155 -47.5q-143 0 -227 -20z" />
    <glyph glyph-name="Q.ss07" 
d="M1020 -315q-197 0 -371.5 71t-298.5 193.5t-196 293.5t-72 365q0 198 72 372.5t196 298.5t298 195.5t372 71.5q200 0 375.5 -71.5t301 -195.5t197.5 -298.5t72 -372.5q0 -259 -123 -470.5t-339.5 -332t-483.5 -120.5zM1399 59l82 70q-7 8 -33 38t-38.5 44t-36 37
t-44.5 41q86 66 132 163t46 214q0 212 -140.5 356.5t-344.5 144.5q-207 0 -347 -143.5t-140 -357.5q0 -140 63.5 -255.5t175 -181t246.5 -65.5q137 0 244 78q39 -70 135 -183zM653 666q0 167 106 280t263 113q154 0 259 -113t105 -280q0 -183 -114 -314q-65 101 -187 248
l-81 -70q111 -139 198 -217q-87 -47 -180 -47q-156 0 -262.5 116t-106.5 284z" />
    <glyph glyph-name="R.ss07" 
d="M1020 -315q-197 0 -371.5 71t-298.5 193.5t-196 293.5t-72 365q0 198 72 372.5t196 298.5t298 195.5t372 71.5q200 0 375.5 -71.5t301 -195.5t197.5 -298.5t72 -372.5q0 -259 -123 -470.5t-339.5 -332t-483.5 -120.5zM739 1096v-963h115q0 254 -14 397q76 -16 204 -20
l248 -377h131q-18 26 -64 94.5t-71 105t-65.5 92.5t-77.5 101v4q117 12 188.5 83.5t71.5 189.5q0 61 -19.5 111t-51.5 83.5t-74.5 56t-86.5 32.5t-90 10h-344zM846 592l-6 6q19 189 -2 403l8 7q97 -17 219 -17q97 0 158 -50t61 -140q0 -95 -57.5 -145t-153.5 -50
q-145 0 -227 -14z" />
    <glyph glyph-name="S.ss07" 
d="M1020 -315q-197 0 -371.5 71t-298.5 193.5t-196 293.5t-72 365q0 198 72 372.5t196 298.5t298 195.5t372 71.5q200 0 375.5 -71.5t301 -195.5t197.5 -298.5t72 -372.5q0 -259 -123 -470.5t-339.5 -332t-483.5 -120.5zM1040 113q145 0 239.5 81t94.5 207q0 48 -15.5 87
t-40.5 64t-57.5 44t-65.5 31.5t-65 23.5q-14 4 -20 6l-92 29q-28 9 -44.5 15t-48 21.5t-49.5 32.5t-32.5 44.5t-14.5 60.5q0 65 53 106.5t136 41.5q85 0 144.5 -45.5t84.5 -128.5l103 43q-27 108 -113.5 173.5t-210.5 65.5q-83 0 -154 -29t-118 -90.5t-47 -144.5
q0 -52 19.5 -95.5t46.5 -71t67 -51t69 -34.5t66 -22l86 -27q4 -1 26.5 -8.5t28 -9t25.5 -9t26 -11.5t21.5 -12.5t21 -15t15.5 -17.5t13.5 -22.5t7 -26t3.5 -30.5q0 -83 -62.5 -125.5t-146.5 -42.5q-97 0 -166.5 58.5t-95.5 162.5l-104 -36q19 -77 58.5 -135.5t90 -92
t105 -49.5t112.5 -16z" />
    <glyph glyph-name="T.ss07" 
d="M1020 -315q-197 0 -371.5 71t-298.5 193.5t-196 293.5t-72 365q0 198 72 372.5t196 298.5t298 195.5t372 71.5q200 0 375.5 -71.5t301 -195.5t197.5 -298.5t72 -372.5q0 -259 -123 -470.5t-339.5 -332t-483.5 -120.5zM967 133h114q0 572 -10 873q122 -17 328 -17v107
h-752v-107q204 0 328 17q-8 -241 -8 -873z" />
    <glyph glyph-name="U.ss07" 
d="M1020 -315q-197 0 -371.5 71t-298.5 193.5t-196 293.5t-72 365q0 198 72 372.5t196 298.5t298 195.5t372 71.5q200 0 375.5 -71.5t301 -195.5t197.5 -298.5t72 -372.5q0 -259 -123 -470.5t-339.5 -332t-483.5 -120.5zM1020 123q92 0 162 29t111 81.5t61 119t20 147.5v606
h-114v-600q0 -277 -236 -277q-238 0 -238 277v600h-114v-606q0 -170 84.5 -273.5t263.5 -103.5z" />
    <glyph glyph-name="V.ss07" 
d="M1020 -315q-197 0 -371.5 71t-298.5 193.5t-196 293.5t-72 365q0 198 72 372.5t196 298.5t298 195.5t372 71.5q200 0 375.5 -71.5t301 -195.5t197.5 -298.5t72 -372.5q0 -259 -123 -470.5t-339.5 -332t-483.5 -120.5zM582 1096l387 -963h121l387 963h-121
q-198 -487 -318 -850h-12q-120 362 -324 850h-120z" />
    <glyph glyph-name="W.ss07" 
d="M1020 -315q-197 0 -371.5 71t-298.5 193.5t-196 293.5t-72 365q0 198 72 372.5t196 298.5t298 195.5t372 71.5q200 0 375.5 -71.5t301 -195.5t197.5 -298.5t72 -372.5q0 -259 -123 -470.5t-339.5 -332t-483.5 -120.5zM342 1096l307 -963h131q150 457 240 832h8
q101 -409 242 -832h131l305 963h-123q-123 -372 -244 -842h-6q-91 350 -248 842h-122q-163 -523 -246 -838h-6q-94 373 -244 838h-125z" />
    <glyph glyph-name="X.ss07" 
d="M1020 -315q-197 0 -371.5 71t-298.5 193.5t-196 293.5t-72 365q0 198 72 372.5t196 298.5t298 195.5t372 71.5q200 0 375.5 -71.5t301 -195.5t197.5 -298.5t72 -372.5q0 -259 -123 -470.5t-339.5 -332t-483.5 -120.5zM629 133h133q174 262 262 418h6q98 -175 260 -418
h135q-25 37 -102.5 150.5t-130.5 189.5t-107 148v10q127 165 334 465h-133q-152 -214 -256 -396h-6q-104 182 -256 396h-133q205 -297 332 -465v-10q-86 -115 -338 -488z" />
    <glyph glyph-name="Y.ss07" 
d="M1020 -315q-197 0 -371.5 71t-298.5 193.5t-196 293.5t-72 365q0 198 72 372.5t196 298.5t298 195.5t372 71.5q200 0 375.5 -71.5t301 -195.5t197.5 -298.5t72 -372.5q0 -259 -123 -470.5t-339.5 -332t-483.5 -120.5zM967 133h114q0 233 -8 350q139 225 363 613h-123
q-194 -332 -287 -529h-4q-105 218 -287 529h-125q268 -458 363 -613q-6 -117 -6 -350z" />
    <glyph glyph-name="Z.ss07" 
d="M1020 -315q-197 0 -371.5 71t-298.5 193.5t-196 293.5t-72 365q0 198 72 372.5t196 298.5t298 195.5t372 71.5q200 0 375.5 -71.5t301 -195.5t197.5 -298.5t72 -372.5q0 -259 -123 -470.5t-339.5 -332t-483.5 -120.5zM666 225v-92h741v109q-382 0 -623 -27l-4 6
q383 471 617 785v90h-709v-107q324 0 586 31l2 -4q-339 -424 -610 -791z" />
    <glyph glyph-name="A.ss08" 
d="M1020 -315q-197 0 -371.5 71t-298.5 193.5t-196 293.5t-72 365q0 198 72 372.5t196 298.5t298 195.5t372 71.5q200 0 375.5 -71.5t301 -195.5t197.5 -298.5t72 -372.5q0 -259 -123 -470.5t-339.5 -332t-483.5 -120.5zM1020 -217q178 0 335 63t268.5 172.5t176 263
t64.5 328.5q0 235 -109.5 427t-303 301.5t-431.5 109.5q-235 0 -427.5 -109.5t-302.5 -301.5t-110 -427q0 -232 110 -421.5t302.5 -297.5t427.5 -108zM799 281h-84l270 669h82l268 -669h-86q-59 145 -82 229l-4 4q-82 -8 -133 -8t-141 8l-6 -4q-26 -91 -84 -229zM909 569
q75 11 121 11q47 0 111 -11q-79 171 -111 301h-8q-44 -148 -113 -301z" />
    <glyph glyph-name="B.ss08" 
d="M1020 -315q-197 0 -371.5 71t-298.5 193.5t-196 293.5t-72 365q0 198 72 372.5t196 298.5t298 195.5t372 71.5q200 0 375.5 -71.5t301 -195.5t197.5 -298.5t72 -372.5q0 -259 -123 -470.5t-339.5 -332t-483.5 -120.5zM1020 -217q178 0 335 63t268.5 172.5t176 263
t64.5 328.5q0 235 -109.5 427t-303 301.5t-431.5 109.5q-235 0 -427.5 -109.5t-302.5 -301.5t-110 -427q0 -232 110 -421.5t302.5 -297.5t427.5 -108zM1071 281h-270v669h243q95 0 155.5 -50.5t60.5 -129.5q0 -54 -32 -94t-89 -53v-2q68 -14 105.5 -54.5t37.5 -101.5
q0 -84 -62 -134t-149 -50zM872 645l2 -2q59 10 160 10q65 0 104.5 30t39.5 79q0 51 -41.5 81.5t-108.5 30.5q-100 0 -154 11l-4 -2q14 -109 2 -238zM870 348l4 -2q66 10 179 10q64 0 104.5 29t40.5 80q0 52 -41.5 84.5t-107.5 32.5q-112 0 -175 10l-2 -2q12 -132 -2 -242z
" />
    <glyph glyph-name="C.ss08" 
d="M1020 -315q-197 0 -371.5 71t-298.5 193.5t-196 293.5t-72 365q0 198 72 372.5t196 298.5t298 195.5t372 71.5q200 0 375.5 -71.5t301 -195.5t197.5 -298.5t72 -372.5q0 -259 -123 -470.5t-339.5 -332t-483.5 -120.5zM1020 -217q178 0 335 63t268.5 172.5t176 263
t64.5 328.5q0 235 -109.5 427t-303 301.5t-431.5 109.5q-235 0 -427.5 -109.5t-302.5 -301.5t-110 -427q0 -232 110 -421.5t302.5 -297.5t427.5 -108zM1042 266q-149 0 -243 97t-94 249q0 155 95.5 253t237.5 98q107 0 188 -55.5t109 -149.5l-71 -29q-28 73 -88.5 114.5
t-137.5 41.5q-109 0 -179.5 -77t-70.5 -198q0 -128 76.5 -198t182.5 -70q91 0 154.5 52.5t86.5 146.5l74 -27q-34 -118 -117.5 -183t-202.5 -65z" />
    <glyph glyph-name="D.ss08" 
d="M1020 -315q-197 0 -371.5 71t-298.5 193.5t-196 293.5t-72 365q0 198 72 372.5t196 298.5t298 195.5t372 71.5q200 0 375.5 -71.5t301 -195.5t197.5 -298.5t72 -372.5q0 -259 -123 -470.5t-339.5 -332t-483.5 -120.5zM1020 -217q178 0 335 63t268.5 172.5t176 263
t64.5 328.5q0 235 -109.5 427t-303 301.5t-431.5 109.5q-235 0 -427.5 -109.5t-302.5 -301.5t-110 -427q0 -232 110 -421.5t302.5 -297.5t427.5 -108zM1028 281h-248v669h242q149 0 232 -88t83 -244q0 -154 -84 -245.5t-225 -91.5zM852 348l4 -2q63 10 174 10
q106 0 165.5 68.5t59.5 189.5q0 130 -67 195t-180 65q-94 0 -154 11l-2 -2q18 -267 0 -535z" />
    <glyph glyph-name="E.ss08" 
d="M1020 -315q-197 0 -371.5 71t-298.5 193.5t-196 293.5t-72 365q0 198 72 372.5t196 298.5t298 195.5t372 71.5q200 0 375.5 -71.5t301 -195.5t197.5 -298.5t72 -372.5q0 -259 -123 -470.5t-339.5 -332t-483.5 -120.5zM1020 -217q178 0 335 63t268.5 172.5t176 263
t64.5 328.5q0 235 -109.5 427t-303 301.5t-431.5 109.5q-235 0 -427.5 -109.5t-302.5 -301.5t-110 -427q0 -232 110 -421.5t302.5 -297.5t427.5 -108zM1257 281h-436v669h428v-76q-254 0 -354 11l-4 -2q14 -109 2 -230l4 -4q130 15 336 15v-78q-217 0 -336 12l-4 -2
q12 -133 -2 -248l4 -4q129 14 362 14v-77z" />
    <glyph glyph-name="F.ss08" 
d="M1020 -315q-197 0 -371.5 71t-298.5 193.5t-196 293.5t-72 365q0 198 72 372.5t196 298.5t298 195.5t372 71.5q200 0 375.5 -71.5t301 -195.5t197.5 -298.5t72 -372.5q0 -259 -123 -470.5t-339.5 -332t-483.5 -120.5zM1020 -217q178 0 335 63t268.5 172.5t176 263
t64.5 328.5q0 235 -109.5 427t-303 301.5t-431.5 109.5q-235 0 -427.5 -109.5t-302.5 -301.5t-110 -427q0 -232 110 -421.5t302.5 -297.5t427.5 -108zM915 281h-79v669h419v-78q-213 0 -346 13l-4 -2q15 -118 0 -238l4 -2q119 12 330 12v-75q-231 0 -330 10l-4 -2
q10 -106 10 -307z" />
    <glyph glyph-name="G.ss08" 
d="M1020 1546q200 0 375.5 -71.5t301 -195.5t197.5 -298.5t72 -372.5q0 -259 -123 -470.5t-339.5 -332t-483.5 -120.5q-197 0 -371.5 71t-298.5 193.5t-196 293.5t-72 365q0 198 72 372.5t196 298.5t298 195.5t372 71.5zM1020 -217q178 0 335 63t268.5 172.5t176 263
t64.5 328.5q0 235 -109.5 427t-303 301.5t-431.5 109.5q-235 0 -427.5 -109.5t-302.5 -301.5t-110 -427q0 -232 110 -421.5t302.5 -297.5t427.5 -108zM1051 547v69h305v-335h-70q0 13 -1.5 43t-1 53.5t4.5 46.5q-74 -158 -254 -158q-145 0 -237 97t-92 249t94 251.5
t239 99.5q107 0 188 -55.5t109 -149.5l-71 -29q-28 73 -88 114.5t-136 41.5q-111 0 -181.5 -77t-70.5 -198q0 -129 77 -198.5t182 -69.5q94 0 158.5 59t84.5 162v2q-129 -21 -239 -18z" />
    <glyph glyph-name="H.ss08" 
d="M1020 -315q-197 0 -371.5 71t-298.5 193.5t-196 293.5t-72 365q0 198 72 372.5t196 298.5t298 195.5t372 71.5q200 0 375.5 -71.5t301 -195.5t197.5 -298.5t72 -372.5q0 -259 -123 -470.5t-339.5 -332t-483.5 -120.5zM1020 -217q178 0 335 63t268.5 172.5t176 263
t64.5 328.5q0 235 -109.5 427t-303 301.5t-431.5 109.5q-235 0 -427.5 -109.5t-302.5 -301.5t-110 -427q0 -232 110 -421.5t302.5 -297.5t427.5 -108zM846 281h-82v669h82q0 -201 -10 -301l6 -2q192 15 366 0l4 2q-8 104 -8 301h80v-669h-80q0 194 8 307l-4 4
q-174 -26 -368 0l-4 -4q10 -109 10 -307z" />
    <glyph glyph-name="I.ss08" 
d="M1020 -315q-197 0 -371.5 71t-298.5 193.5t-196 293.5t-72 365q0 198 72 372.5t196 298.5t298 195.5t372 71.5q200 0 375.5 -71.5t301 -195.5t197.5 -298.5t72 -372.5q0 -259 -123 -470.5t-339.5 -332t-483.5 -120.5zM1020 -217q178 0 335 63t268.5 172.5t176 263
t64.5 328.5q0 235 -109.5 427t-303 301.5t-431.5 109.5q-235 0 -427.5 -109.5t-302.5 -301.5t-110 -427q0 -232 110 -421.5t302.5 -297.5t427.5 -108zM1065 281h-82v669h82v-669z" />
    <glyph glyph-name="J.ss08" 
d="M1020 -315q-197 0 -371.5 71t-298.5 193.5t-196 293.5t-72 365q0 198 72 372.5t196 298.5t298 195.5t372 71.5q200 0 375.5 -71.5t301 -195.5t197.5 -298.5t72 -372.5q0 -259 -123 -470.5t-339.5 -332t-483.5 -120.5zM1020 -217q178 0 335 63t268.5 172.5t176 263
t64.5 328.5q0 235 -109.5 427t-303 301.5t-431.5 109.5q-235 0 -427.5 -109.5t-302.5 -301.5t-110 -427q0 -232 110 -421.5t302.5 -297.5t427.5 -108zM1001 272q-100 0 -157.5 59.5t-57.5 160.5v26l78 10v-24q0 -74 35 -115t98 -41q32 0 55 13t34.5 30.5t18 44.5t8 46.5
t1.5 45.5v428h80v-411v-30.5t-2 -35t-5 -40t-10 -40t-16 -39.5t-24 -34t-33.5 -29t-45 -18t-57.5 -7z" />
    <glyph glyph-name="K.ss08" 
d="M1020 1546q200 0 375.5 -71.5t301 -195.5t197.5 -298.5t72 -372.5q0 -259 -123 -470.5t-339.5 -332t-483.5 -120.5q-197 0 -371.5 71t-298.5 193.5t-196 293.5t-72 365q0 198 72 372.5t196 298.5t298 195.5t372 71.5zM1020 -217q178 0 335 63t268.5 172.5t176 263
t64.5 328.5q0 235 -109.5 427t-303 301.5t-431.5 109.5q-235 0 -427.5 -109.5t-302.5 -301.5t-110 -427q0 -232 110 -421.5t302.5 -297.5t427.5 -108zM1018 657v-6q127 -150 295 -370h-101q-173 224 -241 321q-41 -56 -84 -88q4 -82 4 -233h-82v669h82q0 -247 -14 -358
q39 47 70 82.5t65 73t52 56.5t65 70t71 76h100q-173 -188 -282 -293z" />
    <glyph glyph-name="L.ss08" 
d="M1020 -315q-197 0 -371.5 71t-298.5 193.5t-196 293.5t-72 365q0 198 72 372.5t196 298.5t298 195.5t372 71.5q200 0 375.5 -71.5t301 -195.5t197.5 -298.5t72 -372.5q0 -259 -123 -470.5t-339.5 -332t-483.5 -120.5zM1020 -217q178 0 335 63t268.5 172.5t176 263
t64.5 328.5q0 235 -109.5 427t-303 301.5t-431.5 109.5q-235 0 -427.5 -109.5t-302.5 -301.5t-110 -427q0 -232 110 -421.5t302.5 -297.5t427.5 -108zM1286 281h-412v669h80q0 -393 -10 -602l4 -4q121 14 338 14v-77z" />
    <glyph glyph-name="M.ss08" 
d="M1020 1546q200 0 375.5 -71.5t301 -195.5t197.5 -298.5t72 -372.5q0 -259 -123 -470.5t-339.5 -332t-483.5 -120.5q-197 0 -371.5 71t-298.5 193.5t-196 293.5t-72 365q0 198 72 372.5t196 298.5t298 195.5t372 71.5zM1020 -217q178 0 335 63t268.5 172.5t176 263
t64.5 328.5q0 235 -109.5 427t-303 301.5t-431.5 109.5q-235 0 -427.5 -109.5t-302.5 -301.5t-110 -427q0 -232 110 -421.5t302.5 -297.5t427.5 -108zM1024 375q110 272 262 575h82v-669h-82q0 26 -0.5 100t0 111t1.5 98.5t3.5 115t7.5 107.5q-37 -86 -78.5 -177t-89 -194.5
t-73.5 -160.5h-66q-177 385 -241 538q5 -56 7.5 -111t3.5 -117t1.5 -99t0 -111t-0.5 -100h-80v669h80q153 -299 262 -575z" />
    <glyph glyph-name="N.ss08" 
d="M1020 1546q200 0 375.5 -71.5t301 -195.5t197.5 -298.5t72 -372.5q0 -259 -123 -470.5t-339.5 -332t-483.5 -120.5q-197 0 -371.5 71t-298.5 193.5t-196 293.5t-72 365q0 198 72 372.5t196 298.5t298 195.5t372 71.5zM1020 -217q178 0 335 63t268.5 172.5t176 263
t64.5 328.5q0 235 -109.5 427t-303 301.5t-431.5 109.5q-235 0 -427.5 -109.5t-302.5 -301.5t-110 -427q0 -232 110 -421.5t302.5 -297.5t427.5 -108zM1231 391q-12 195 -12 559h79v-669h-69q-215 280 -393 548q12 -165 12 -548h-82v669h72q207 -271 393 -559z" />
    <glyph glyph-name="O.ss08" 
d="M1020 -315q-197 0 -371.5 71t-298.5 193.5t-196 293.5t-72 365q0 198 72 372.5t196 298.5t298 195.5t372 71.5q200 0 375.5 -71.5t301 -195.5t197.5 -298.5t72 -372.5q0 -259 -123 -470.5t-339.5 -332t-483.5 -120.5zM1020 -217q178 0 335 63t268.5 172.5t176 263
t64.5 328.5q0 235 -109.5 427t-303 301.5t-431.5 109.5q-235 0 -427.5 -109.5t-302.5 -301.5t-110 -427q0 -232 110 -421.5t302.5 -297.5t427.5 -108zM1024 266q-141 0 -237.5 100t-96.5 248t97 248.5t239 100.5q141 0 238.5 -101t97.5 -248q0 -146 -98 -247t-240 -101z
M1026 342q104 0 177 79t73 193t-73 192.5t-177 78.5q-106 0 -179 -78.5t-73 -192.5t73 -193t179 -79z" />
    <glyph glyph-name="P.ss08" 
d="M1020 -315q-197 0 -371.5 71t-298.5 193.5t-196 293.5t-72 365q0 198 72 372.5t196 298.5t298 195.5t372 71.5q200 0 375.5 -71.5t301 -195.5t197.5 -298.5t72 -372.5q0 -259 -123 -470.5t-339.5 -332t-483.5 -120.5zM1020 -217q178 0 335 63t268.5 172.5t176 263
t64.5 328.5q0 235 -109.5 427t-303 301.5t-431.5 109.5q-235 0 -427.5 -109.5t-302.5 -301.5t-110 -427q0 -232 110 -421.5t302.5 -297.5t427.5 -108zM903 281h-80v669h238q91 0 157 -51.5t66 -150.5q0 -100 -63 -154.5t-148 -54.5q-119 0 -178 14q8 -102 8 -272zM895 604
l2 -2q57 12 158 12q67 0 107 32.5t40 96.5q0 63 -42 97t-109 34q-96 0 -154 11l-4 -2q14 -134 2 -279z" />
    <glyph glyph-name="Q.ss08" 
d="M1020 -315q-197 0 -371.5 71t-298.5 193.5t-196 293.5t-72 365q0 198 72 372.5t196 298.5t298 195.5t372 71.5q200 0 375.5 -71.5t301 -195.5t197.5 -298.5t72 -372.5q0 -259 -123 -470.5t-339.5 -332t-483.5 -120.5zM1020 -217q178 0 335 63t268.5 172.5t176 263
t64.5 328.5q0 235 -109.5 427t-303 301.5t-431.5 109.5q-235 0 -427.5 -109.5t-302.5 -301.5t-110 -427q0 -232 110 -421.5t302.5 -297.5t427.5 -108zM1339 279l-57 -50q-68 81 -92 123q-71 -51 -170 -51q-143 0 -240.5 99.5t-97.5 248.5q0 148 97.5 248t242.5 100
q143 0 240.5 -100t97.5 -248q0 -79 -31.5 -146.5t-89.5 -113.5q35 -32 100 -110zM1022 373q51 0 123 30q-43 40 -137 152l57 49q74 -87 131 -168q78 93 78 213q0 114 -73 192.5t-179 78.5q-107 0 -180.5 -78.5t-73.5 -192.5q0 -117 73.5 -196.5t180.5 -79.5z" />
    <glyph glyph-name="R.ss08" 
d="M1020 -315q-197 0 -371.5 71t-298.5 193.5t-196 293.5t-72 365q0 198 72 372.5t196 298.5t298 195.5t372 71.5q200 0 375.5 -71.5t301 -195.5t197.5 -298.5t72 -372.5q0 -259 -123 -470.5t-339.5 -332t-483.5 -120.5zM1020 -217q178 0 335 63t268.5 172.5t176 263
t64.5 328.5q0 235 -109.5 427t-303 301.5t-431.5 109.5q-235 0 -427.5 -109.5t-302.5 -301.5t-110 -427q0 -232 110 -421.5t302.5 -297.5t427.5 -108zM905 281h-80v669h238q89 0 156 -52.5t67 -152.5q0 -81 -47 -131t-131 -59q33 -41 64.5 -84t74.5 -107.5t56 -82.5h-95
l-172 260q-78 0 -139 12q8 -98 8 -272zM897 602l2 -2q57 10 158 10q67 0 107 34.5t40 98.5q0 61 -42.5 96t-108.5 35q-78 0 -154 11l-4 -2q14 -136 2 -281z" />
    <glyph glyph-name="S.ss08" 
d="M1020 -315q-197 0 -371.5 71t-298.5 193.5t-196 293.5t-72 365q0 198 72 372.5t196 298.5t298 195.5t372 71.5q200 0 375.5 -71.5t301 -195.5t197.5 -298.5t72 -372.5q0 -259 -123 -470.5t-339.5 -332t-483.5 -120.5zM1020 -217q178 0 335 63t268.5 172.5t176 263
t64.5 328.5q0 235 -109.5 427t-303 301.5t-431.5 109.5q-235 0 -427.5 -109.5t-302.5 -301.5t-110 -427q0 -232 110 -421.5t302.5 -297.5t427.5 -108zM1036 266q-97 0 -164 54t-92 151l76 27q17 -72 65 -114t115 -42q59 0 102.5 30t43.5 87q0 25 -10 43.5t-28 29.5t-37 18
t-44 14q-4 1 -6.5 1.5t-5.5 1.5l-62 21q-33 10 -57 21t-57 33t-51.5 56.5t-18.5 79.5q0 87 66 136t155 49q84 0 144.5 -45t82.5 -123l-73 -31q-17 58 -59 89.5t-101 31.5q-57 0 -93 -28.5t-36 -72.5q0 -22 10 -40.5t21.5 -29.5t33.5 -22.5t32.5 -15.5l31.5 -12l63 -21
q31 -9 48 -14.5t47.5 -20t47.5 -31.5t30.5 -45.5t13.5 -64.5q0 -87 -67 -144t-167 -57z" />
    <glyph glyph-name="T.ss08" 
d="M1020 -315q-197 0 -371.5 71t-298.5 193.5t-196 293.5t-72 365q0 198 72 372.5t196 298.5t298 195.5t372 71.5q200 0 375.5 -71.5t301 -195.5t197.5 -298.5t72 -372.5q0 -259 -123 -470.5t-339.5 -332t-483.5 -120.5zM1020 -217q178 0 335 63t268.5 172.5t176 263
t64.5 328.5q0 235 -109.5 427t-303 301.5t-431.5 109.5q-235 0 -427.5 -109.5t-302.5 -301.5t-110 -427q0 -232 110 -421.5t302.5 -297.5t427.5 -108zM1063 281h-80q0 395 6 602q-90 -9 -227 -9v76h522v-76q-137 0 -227 9q6 -207 6 -602z" />
    <glyph glyph-name="U.ss08" 
d="M1020 -315q-197 0 -371.5 71t-298.5 193.5t-196 293.5t-72 365q0 198 72 372.5t196 298.5t298 195.5t372 71.5q200 0 375.5 -71.5t301 -195.5t197.5 -298.5t72 -372.5q0 -259 -123 -470.5t-339.5 -332t-483.5 -120.5zM1020 -217q178 0 335 63t268.5 172.5t176 263
t64.5 328.5q0 235 -109.5 427t-303 301.5t-431.5 109.5q-235 0 -427.5 -109.5t-302.5 -301.5t-110 -427q0 -232 110 -421.5t302.5 -297.5t427.5 -108zM1022 272q-123 0 -182.5 71t-59.5 189v424h82v-419q0 -189 162 -189t162 189v419h82v-424q0 -116 -61.5 -188t-184.5 -72z
" />
    <glyph glyph-name="V.ss08" 
d="M1020 -315q-197 0 -371.5 71t-298.5 193.5t-196 293.5t-72 365q0 198 72 372.5t196 298.5t298 195.5t372 71.5q200 0 375.5 -71.5t301 -195.5t197.5 -298.5t72 -372.5q0 -259 -123 -470.5t-339.5 -332t-483.5 -120.5zM1020 -217q178 0 335 63t268.5 172.5t176 263
t64.5 328.5q0 235 -109.5 427t-303 301.5t-431.5 109.5q-235 0 -427.5 -109.5t-302.5 -301.5t-110 -427q0 -232 110 -421.5t302.5 -297.5t427.5 -108zM1071 281h-84l-268 669h84q126 -294 227 -594h2q73 219 221 594h86z" />
    <glyph glyph-name="W.ss08" 
d="M1020 1546q200 0 375.5 -71.5t301 -195.5t197.5 -298.5t72 -372.5q0 -259 -123 -470.5t-339.5 -332t-483.5 -120.5q-197 0 -371.5 71t-298.5 193.5t-196 293.5t-72 365q0 198 72 372.5t196 298.5t298 195.5t372 71.5zM1020 -217q178 0 335 63t268.5 172.5t176 263
t64.5 328.5q0 235 -109.5 427t-303 301.5t-431.5 109.5q-235 0 -427.5 -109.5t-302.5 -301.5t-110 -427q0 -232 110 -421.5t302.5 -297.5t427.5 -108zM1239 375q86 317 172 575h86l-213 -669h-90q-101 302 -170 573q-63 -252 -168 -573h-90l-215 669h88q122 -373 174 -579
q47 187 170 579h84q110 -349 172 -575z" />
    <glyph glyph-name="X.ss08" 
d="M1020 -315q-197 0 -371.5 71t-298.5 193.5t-196 293.5t-72 365q0 198 72 372.5t196 298.5t298 195.5t372 71.5q200 0 375.5 -71.5t301 -195.5t197.5 -298.5t72 -372.5q0 -259 -123 -470.5t-339.5 -332t-483.5 -120.5zM1020 -217q178 0 335 63t268.5 172.5t176 263
t64.5 328.5q0 235 -109.5 427t-303 301.5t-431.5 109.5q-235 0 -427.5 -109.5t-302.5 -301.5t-110 -427q0 -232 110 -421.5t302.5 -297.5t427.5 -108zM842 281h-94q20 29 71.5 105t89 129.5t74.5 102.5v7q-114 151 -231 325h94q99 -141 180 -276q65 112 180 276h92
q-117 -174 -231 -325v-7q73 -95 236 -337h-93q-101 144 -184 290q-57 -101 -184 -290z" />
    <glyph glyph-name="Y.ss08" 
d="M1020 -315q-197 0 -371.5 71t-298.5 193.5t-196 293.5t-72 365q0 198 72 372.5t196 298.5t298 195.5t372 71.5q200 0 375.5 -71.5t301 -195.5t197.5 -298.5t72 -372.5q0 -259 -123 -470.5t-339.5 -332t-483.5 -120.5zM1020 -217q178 0 335 63t268.5 172.5t176 263
t64.5 328.5q0 235 -109.5 427t-303 301.5t-431.5 109.5q-235 0 -427.5 -109.5t-302.5 -301.5t-110 -427q0 -232 110 -421.5t302.5 -297.5t427.5 -108zM1063 281h-80q0 163 4 243q-95 152 -252 426h90q145 -254 199 -366q43 90 201 366h88q-249 -419 -254 -426q4 -53 4 -243z
" />
    <glyph glyph-name="Z.ss08" 
d="M1020 -315q-197 0 -371.5 71t-298.5 193.5t-196 293.5t-72 365q0 198 72 372.5t196 298.5t298 195.5t372 71.5q200 0 375.5 -71.5t301 -195.5t197.5 -298.5t72 -372.5q0 -259 -123 -470.5t-339.5 -332t-483.5 -120.5zM1020 -217q178 0 335 63t268.5 172.5t176 263
t64.5 328.5q0 235 -109.5 427t-303 301.5t-431.5 109.5q-235 0 -427.5 -109.5t-302.5 -301.5t-110 -427q0 -232 110 -421.5t302.5 -297.5t427.5 -108zM1292 281h-516v63q204 274 424 549q-200 -19 -407 -19v76h493v-63q-147 -198 -428 -545v-2q176 18 434 18v-77z" />
    <glyph glyph-name="i.loclTRK" horiz-adv-x="509" 
d="M258 1399q-53 0 -88 36t-35 89q0 50 35 85.5t88 35.5q50 0 84.5 -35.5t34.5 -85.5q0 -53 -34 -89t-85 -36zM334 0h-156v1133h156v-1133z" />
    <glyph glyph-name="a.ss01" horiz-adv-x="1376" 
d="M616 -35q-229 0 -376.5 169.5t-147.5 428.5q0 177 71.5 315.5t191 212.5t263.5 74q139 0 248 -74.5t168 -228.5h27q-19 126 -19 271h156v-1133h-151q0 11 -0.5 43t0 50t2 49t6 64t12.5 70h-27q-63 -161 -174 -236t-250 -75zM645 111q169 0 281 132t112 326
q0 195 -114 323t-281 128t-276 -129t-109 -326q0 -198 109.5 -326t277.5 -128z" />
    <glyph glyph-name="aacute.ss01" horiz-adv-x="1376" 
d="M1063 1669l-311 -391h-138l242 391h207zM616 -35q-229 0 -376.5 169.5t-147.5 428.5q0 177 71.5 315.5t191 212.5t263.5 74q139 0 248 -74.5t168 -228.5h27q-19 126 -19 271h156v-1133h-151q0 11 -0.5 43t0 50t2 49t6 64t12.5 70h-27q-63 -161 -174 -236t-250 -75z
M645 111q169 0 281 132t112 326q0 195 -114 323t-281 128t-276 -129t-109 -326q0 -198 109.5 -326t277.5 -128z" />
    <glyph glyph-name="abreve.ss01" horiz-adv-x="1376" 
d="M690 1274q-170 0 -269.5 111t-105.5 284h136q5 -122 71 -196t170 -74q106 0 172.5 74t71.5 196h135q-6 -174 -106.5 -284.5t-274.5 -110.5zM616 -35q-229 0 -376.5 169.5t-147.5 428.5q0 177 71.5 315.5t191 212.5t263.5 74q139 0 248 -74.5t168 -228.5h27
q-19 126 -19 271h156v-1133h-151q0 11 -0.5 43t0 50t2 49t6 64t12.5 70h-27q-63 -161 -174 -236t-250 -75zM645 111q169 0 281 132t112 326q0 195 -114 323t-281 128t-276 -129t-109 -326q0 -198 109.5 -326t277.5 -128z" />
    <glyph glyph-name="acircumflex.ss01" horiz-adv-x="1376" 
d="M446 1278h-147l297 360h192l297 -360h-147q-60 62 -84 87t-67 79.5t-70 105.5h-49q-28 -51 -68.5 -103.5t-69.5 -83t-84 -85.5zM616 -35q-229 0 -376.5 169.5t-147.5 428.5q0 177 71.5 315.5t191 212.5t263.5 74q139 0 248 -74.5t168 -228.5h27q-19 126 -19 271h156
v-1133h-151q0 11 -0.5 43t0 50t2 49t6 64t12.5 70h-27q-63 -161 -174 -236t-250 -75zM645 111q169 0 281 132t112 326q0 195 -114 323t-281 128t-276 -129t-109 -326q0 -198 109.5 -326t277.5 -128z" />
    <glyph glyph-name="adieresis.ss01" horiz-adv-x="1376" 
d="M510 1362q-47 0 -80 34t-33 83q0 45 33 77.5t80 32.5t79 -32.5t32 -77.5q0 -50 -32 -83.5t-79 -33.5zM877 1362q-49 0 -81 33.5t-32 83.5q0 45 32 77.5t81 32.5q45 0 77.5 -32.5t32.5 -77.5q0 -49 -32 -83t-78 -34zM616 -35q-229 0 -376.5 169.5t-147.5 428.5
q0 177 71.5 315.5t191 212.5t263.5 74q139 0 248 -74.5t168 -228.5h27q-19 126 -19 271h156v-1133h-151q0 11 -0.5 43t0 50t2 49t6 64t12.5 70h-27q-63 -161 -174 -236t-250 -75zM645 111q169 0 281 132t112 326q0 195 -114 323t-281 128t-276 -129t-109 -326
q0 -198 109.5 -326t277.5 -128z" />
    <glyph glyph-name="agrave.ss01" horiz-adv-x="1376" 
d="M768 1278h-137l-312 391h205zM616 -35q-229 0 -376.5 169.5t-147.5 428.5q0 177 71.5 315.5t191 212.5t263.5 74q139 0 248 -74.5t168 -228.5h27q-19 126 -19 271h156v-1133h-151q0 11 -0.5 43t0 50t2 49t6 64t12.5 70h-27q-63 -161 -174 -236t-250 -75zM645 111
q169 0 281 132t112 326q0 195 -114 323t-281 128t-276 -129t-109 -326q0 -198 109.5 -326t277.5 -128z" />
    <glyph glyph-name="amacron.ss01" horiz-adv-x="1376" 
d="M1036 1405h-688v125h688v-125zM616 -35q-229 0 -376.5 169.5t-147.5 428.5q0 177 71.5 315.5t191 212.5t263.5 74q139 0 248 -74.5t168 -228.5h27q-19 126 -19 271h156v-1133h-151q0 11 -0.5 43t0 50t2 49t6 64t12.5 70h-27q-63 -161 -174 -236t-250 -75zM645 111
q169 0 281 132t112 326q0 195 -114 323t-281 128t-276 -129t-109 -326q0 -198 109.5 -326t277.5 -128z" />
    <glyph glyph-name="aogonek.ss01" horiz-adv-x="1376" 
d="M1169 -350q45 0 91 14v-113q-55 -14 -105 -14q-117 0 -194.5 62.5t-77.5 169.5q0 141 166 231h-2q0 11 -0.5 43t0 50t2 49t6 64t12.5 70h-27q-63 -161 -174 -236t-250 -75q-229 0 -376.5 169.5t-147.5 428.5q0 177 71.5 315.5t191 212.5t263.5 74q139 0 248 -74.5
t168 -228.5h27q-19 126 -19 271h156v-1133h-27q-170 -78 -170 -203q0 -66 48 -106.5t120 -40.5zM645 111q169 0 281 132t112 326q0 195 -114 323t-281 128t-276 -129t-109 -326q0 -198 109.5 -326t277.5 -128z" />
    <glyph glyph-name="aring.ss01" horiz-adv-x="1376" 
d="M692 1249q-100 0 -165.5 63.5t-65.5 160.5t65.5 160t165.5 63q97 0 163.5 -63.5t66.5 -159.5q0 -97 -66 -160.5t-164 -63.5zM692 1346q55 0 92 35t37 92q0 56 -37 90t-92 34q-58 0 -94.5 -34t-36.5 -90q0 -58 36.5 -92.5t94.5 -34.5zM616 -35q-229 0 -376.5 169.5
t-147.5 428.5q0 177 71.5 315.5t191 212.5t263.5 74q139 0 248 -74.5t168 -228.5h27q-19 126 -19 271h156v-1133h-151q0 11 -0.5 43t0 50t2 49t6 64t12.5 70h-27q-63 -161 -174 -236t-250 -75zM645 111q169 0 281 132t112 326q0 195 -114 323t-281 128t-276 -129t-109 -326
q0 -198 109.5 -326t277.5 -128z" />
    <glyph glyph-name="atilde.ss01" horiz-adv-x="1376" 
d="M850 1323q-36 0 -68.5 12t-47 23t-46.5 37l-43 32l-9 7q-8 8 -9.5 9t-9 7t-10.5 7.5t-10 6t-11.5 6t-11 4t-12.5 3t-13 0.5q-45 0 -72.5 -39t-27.5 -99h-119q1 115 62 186.5t157 71.5q69 0 147 -65l45 -35q60 -51 105 -51q43 0 67.5 38.5t24.5 98.5h119
q0 -121 -54.5 -190.5t-152.5 -69.5zM616 -35q-229 0 -376.5 169.5t-147.5 428.5q0 177 71.5 315.5t191 212.5t263.5 74q139 0 248 -74.5t168 -228.5h27q-19 126 -19 271h156v-1133h-151q0 11 -0.5 43t0 50t2 49t6 64t12.5 70h-27q-63 -161 -174 -236t-250 -75zM645 111
q169 0 281 132t112 326q0 195 -114 323t-281 128t-276 -129t-109 -326q0 -198 109.5 -326t277.5 -128z" />
    <glyph glyph-name="b.ss01" horiz-adv-x="1161" 
d="M680 -35q-122 0 -212.5 57.5t-137.5 165.5h-27q7 -20 11.5 -40.5t6.5 -33t3.5 -33.5t1.5 -26v-29.5v-25.5h-148v1638h156v-139v-149.5t-0.5 -137t-2 -153t-4 -141.5t-6.5 -158.5t-10 -151.5h27q49 97 137.5 147t202.5 50q183 0 302.5 -121t119.5 -301q0 -178 -117.5 -298
t-302.5 -120zM655 96q122 0 204.5 82t82.5 207q0 120 -77 204.5t-208 84.5q-135 0 -213.5 -83.5t-78.5 -199.5q0 -122 83 -208.5t207 -86.5z" />
    <glyph glyph-name="d.ss01" horiz-adv-x="1368" 
d="M616 -35q-230 0 -377 169t-147 429q0 177 71.5 315.5t191 212.5t263.5 74q138 0 245 -74.5t169 -228.5h27q-23 293 -23 776h156v-1638h-148q0 138 17 260h-25q-60 -150 -171 -222.5t-249 -72.5zM643 111q166 0 280.5 128.5t114.5 327.5q0 198 -114.5 325.5t-280.5 127.5
q-167 0 -276 -129t-109 -326t109.5 -325.5t275.5 -128.5z" />
    <glyph glyph-name="dcaron.ss01" horiz-adv-x="1368" 
d="M1452 1169h-98q27 54 46 88t52.5 82t71.5 88q-119 24 -119 115q0 49 36 84t87 35t86 -34.5t35 -84.5q0 -42 -34.5 -105t-162.5 -268zM616 -35q-230 0 -377 169t-147 429q0 177 71.5 315.5t191 212.5t263.5 74q138 0 245 -74.5t169 -228.5h27q-23 293 -23 776h156v-1638
h-148q0 138 17 260h-25q-60 -150 -171 -222.5t-249 -72.5zM643 111q166 0 280.5 128.5t114.5 327.5q0 198 -114.5 325.5t-280.5 127.5q-167 0 -276 -129t-109 -326t109.5 -325.5t275.5 -128.5z" />
    <glyph glyph-name="dcroat.ss01" horiz-adv-x="1368" 
d="M1192 1448h266v-125h-266v-1323h-148q0 138 17 260h-25q-60 -150 -171 -222.5t-249 -72.5q-230 0 -377 169t-147 429q0 177 71.5 315.5t191 212.5t263.5 74q138 0 245 -74.5t169 -228.5h27q-18 253 -21 461h-284v125h282v190h156v-190zM643 111q166 0 280.5 128.5
t114.5 327.5q0 198 -114.5 325.5t-280.5 127.5q-167 0 -276 -129t-109 -326t109.5 -325.5t275.5 -128.5z" />
    <glyph glyph-name="g.ss01" horiz-adv-x="1368" 
d="M1192 -451h-1018v142q574 0 887 -25q-48 373 -4 610h-27q-63 -139 -171.5 -206.5t-242.5 -67.5q-153 0 -274 77.5t-186.5 210.5t-65.5 296q0 252 151 415.5t373 163.5q141 0 248.5 -74.5t165.5 -228.5h25q-15 130 -15 271h154v-1584zM641 147q165 0 280 127t115 314
q0 186 -115 309t-280 123q-166 0 -275.5 -124.5t-109.5 -307.5q0 -187 110 -314t275 -127z" />
    <glyph glyph-name="gbreve.ss01" horiz-adv-x="1368" 
d="M688 1274q-170 0 -269.5 111t-105.5 284h136q5 -122 71 -196t170 -74q106 0 172.5 74t71.5 196h135q-6 -174 -106.5 -284.5t-274.5 -110.5zM1192 -451h-1018v142q574 0 887 -25q-48 373 -4 610h-27q-63 -139 -171.5 -206.5t-242.5 -67.5q-153 0 -274 77.5t-186.5 210.5
t-65.5 296q0 252 151 415.5t373 163.5q141 0 248.5 -74.5t165.5 -228.5h25q-15 130 -15 271h154v-1584zM641 147q165 0 280 127t115 314q0 186 -115 309t-280 123q-166 0 -275.5 -124.5t-109.5 -307.5q0 -187 110 -314t275 -127z" />
    <glyph glyph-name="uni0123.ss01" horiz-adv-x="1368" 
d="M555 1370q0 37 25.5 87t117.5 205q24 40 37 62h96q-84 -168 -147 -272q49 6 73.5 -22t24.5 -70q0 -48 -32 -75.5t-78 -27.5q-51 0 -84 32t-33 81zM1192 -451h-1018v142q574 0 887 -25q-48 373 -4 610h-27q-63 -139 -171.5 -206.5t-242.5 -67.5q-153 0 -274 77.5
t-186.5 210.5t-65.5 296q0 252 151 415.5t373 163.5q141 0 248.5 -74.5t165.5 -228.5h25q-15 130 -15 271h154v-1584zM641 147q165 0 280 127t115 314q0 186 -115 309t-280 123q-166 0 -275.5 -124.5t-109.5 -307.5q0 -187 110 -314t275 -127z" />
    <glyph glyph-name="gdotaccent.ss01" horiz-adv-x="1368" 
d="M692 1405q-53 0 -88 36t-35 89q0 50 35 85.5t88 35.5q50 0 84.5 -35.5t34.5 -85.5q0 -53 -34 -89t-85 -36zM1192 -451h-1018v142q574 0 887 -25q-48 373 -4 610h-27q-63 -139 -171.5 -206.5t-242.5 -67.5q-153 0 -274 77.5t-186.5 210.5t-65.5 296q0 252 151 415.5
t373 163.5q141 0 248.5 -74.5t165.5 -228.5h25q-15 130 -15 271h154v-1584zM641 147q165 0 280 127t115 314q0 186 -115 309t-280 123q-166 0 -275.5 -124.5t-109.5 -307.5q0 -187 110 -314t275 -127z" />
    <glyph glyph-name="i.ss01" horiz-adv-x="714" 
d="M367 1399q-53 0 -88 36t-35 89q0 50 35 85.5t88 35.5q50 0 84 -35.5t34 -85.5q0 -53 -33.5 -89t-84.5 -36zM686 0h-391q0 674 24 1016q-117 -27 -296 -27v144h428q0 -662 -27 -1016q100 26 262 26v-143z" />
    <glyph glyph-name="dotlessi.ss01" horiz-adv-x="714" 
d="M686 0h-391q0 220 1 342t9 316.5t23 363.5q-58 -15 -117 -23t-93 -9t-95 -1v144h428q0 -220 -1 -342.5t-9 -317.5t-23 -364q52 16 105 24t80.5 9t82.5 1v-143z" />
    <glyph glyph-name="iacute.ss01" horiz-adv-x="714" 
d="M692 1669l-311 -391h-137l241 391h207zM686 0h-391q0 220 1 342t9 316.5t23 363.5q-58 -15 -117 -23t-93 -9t-95 -1v144h428q0 -220 -1 -342.5t-9 -317.5t-23 -364q52 16 105 24t80.5 9t82.5 1v-143z" />
    </font>
</defs>
</svg>
