<?xml version="1.0" standalone="no"?>
<!DOCTYPE svg PUBLIC "-//W3C//DTD SVG 1.1//EN" "http://www.w3.org/Graphics/SVG/1.1/DTD/svg11.dtd" >
<svg xmlns="http://www.w3.org/2000/svg" xmlns:xlink="http://www.w3.org/1999/xlink" version="1.1">
<metadata>
Created by FontForge 20170731 at Mon Mar 15 14:15:22 2021
 By Aleksey,,,
Copyright (c) 2020 by Matthieu Salvaggio x Blaze Type. All rights reserved.
</metadata>
<defs>
<font id="Area-MediumInktrapItalic" horiz-adv-x="2048" >
  <font-face 
    font-family="Area Medium Inktrap Italic"
    font-weight="500"
    font-style="italic"
    font-stretch="normal"
    units-per-em="2048"
    panose-1="0 0 6 0 0 0 0 0 0 0"
    ascent="1638"
    descent="-410"
    x-height="1133"
    cap-height="1597"
    bbox="-1599 -537 2728 2163"
    underline-thickness="102"
    underline-position="-307"
    slope="-10"
    unicode-range="U+0020-25CA"
  />
<missing-glyph horiz-adv-x="1443" 
d="M1151 0h-1055l283 1597h1055zM487 1475l-221 -1248l959 1248h-738zM1257 1350l-940 -1223h723z" />
    <glyph glyph-name=".notdef" horiz-adv-x="1443" 
d="M1151 0h-1055l283 1597h1055zM487 1475l-221 -1248l959 1248h-738zM1257 1350l-940 -1223h723z" />
    <glyph glyph-name=".null" horiz-adv-x="0" 
 />
    <glyph glyph-name="nonmarkingreturn" horiz-adv-x="682" 
 />
    <glyph glyph-name="space" unicode=" " horiz-adv-x="532" 
 />
    <glyph glyph-name="exclam" unicode="!" horiz-adv-x="534" 
d="M287 403h-92l145 1080l18 114h183l-21 -114zM166 -14q-44 0 -72 29.5t-28 72.5q0 58 43.5 100.5t101.5 42.5q43 0 71.5 -28.5t28.5 -71.5q0 -55 -44.5 -100t-100.5 -45z" />
    <glyph glyph-name="quotedbl" unicode="&#x22;" horiz-adv-x="720" 
d="M393 1143h-155l79 454h156zM682 1143h-156l80 454h156z" />
    <glyph glyph-name="numbersign" unicode="#" horiz-adv-x="1445" 
d="M272 0h-141q119 318 193 483q-96 -24 -261 -24l50 129q154 0 241 -19q64 213 156 412q-98 -25 -256 -25l49 129q158 0 250 -16q46 184 174 528h143q-119 -318 -213 -528q216 23 424 0q42 167 176 528h142q-120 -321 -211 -528q102 16 268 16l-49 -129q-166 0 -262 25
q-41 -191 -146 -412q108 19 267 19l-49 -129q-169 0 -259 24q-41 -168 -155 -483h-144q118 315 195 483q-221 -36 -424 0q-50 -194 -158 -483zM471 569q216 26 424 0q40 183 143 412q-216 -36 -422 0q-42 -195 -145 -412z" />
    <glyph glyph-name="dollar" unicode="$" horiz-adv-x="1198" 
d="M692 862l41 -14q39 -11 60.5 -17.5t62 -22t65 -30.5t55.5 -39.5t48.5 -52t30 -67t12.5 -84.5q0 -172 -146.5 -297.5t-361.5 -131.5l-33 -188h-75l32 191q-157 13 -261 102.5t-128 257.5l154 51q22 -126 91.5 -189.5t170.5 -76.5l84 473l-25 6q-321 88 -321 320
q0 107 63.5 201.5t174 153t239.5 62.5l29 168h75l-30 -172q146 -15 243.5 -101t108.5 -208l-145 -63q-18 91 -77.5 152.5t-154.5 78.5zM414 1090q0 -43 17.5 -77.5t50.5 -58.5t64.5 -39.5t74.5 -29.5l77 444q-121 -4 -202.5 -73.5t-81.5 -165.5zM666 707l-80 -457
q134 4 223.5 77.5t89.5 176.5q0 38 -14 68.5t-34.5 50.5t-54.5 37t-61.5 26.5t-68.5 20.5z" />
    <glyph glyph-name="percent" unicode="%" horiz-adv-x="1714" 
d="M387 780q-102 0 -160.5 75.5t-58.5 205.5q0 118 46 225.5t128.5 175.5t179.5 68q103 0 162 -76.5t59 -206.5q0 -119 -46 -226t-129 -174t-181 -67zM270 0h-149l1397 1468h141zM408 897q51 0 98 51.5t74.5 131.5t27.5 163q0 82 -28 125t-76 43q-53 0 -100 -51t-74 -131
t-27 -164q0 -81 27.5 -124.5t77.5 -43.5zM1257 -29q-102 0 -160.5 75.5t-58.5 205.5q0 118 46 225.5t129 175.5t180 68q103 0 162 -76.5t59 -206.5q0 -119 -46 -226t-129.5 -174t-181.5 -67zM1278 88q78 0 139.5 109t61.5 237q0 81 -28.5 124.5t-76.5 43.5q-53 0 -99.5 -51
t-73.5 -131t-27 -164q0 -81 27 -124.5t77 -43.5z" />
    <glyph glyph-name="ampersand" unicode="&#x26;" horiz-adv-x="1400" 
d="M453 -35q-111 0 -200 37.5t-144.5 115t-55.5 183.5q0 77 31.5 149t77.5 124.5t114 103.5t123.5 82.5t122.5 64.5q-192 204 -192 389q0 112 63 208.5t169.5 152t228.5 55.5q153 0 241 -86.5t88 -214.5q0 -143 -111.5 -268t-310.5 -227l303 -394q29 76 79.5 193t66.5 155
l141 -32q-115 -265 -237 -385l295 -369h-197l-195 258q-203 -295 -501 -295zM649 895q56 41 90 68.5t79.5 70.5t70.5 80t43 85.5t18 98.5q0 93 -51 141t-139 48q-113 0 -187.5 -74t-74.5 -184q0 -56 24 -118t51 -104.5t76 -111.5zM485 113q108 0 208.5 55t211.5 158
l-330 430q-150 -103 -201 -147q-150 -135 -153 -271q0 -105 74 -165t190 -60z" />
    <glyph glyph-name="quotesingle" unicode="'" horiz-adv-x="434" 
d="M393 1143h-155l79 454h156z" />
    <glyph glyph-name="parenleft" unicode="(" horiz-adv-x="634" 
d="M455 -307h-164q-199 298 -199 692q0 320 141.5 642t393.5 570h164q-248 -245 -389.5 -569.5t-141.5 -646.5q0 -389 195 -688z" />
    <glyph glyph-name="parenright" unicode=")" horiz-adv-x="632" 
d="M37 -307h-164q248 245 389 569.5t141 646.5q0 396 -194 688h164q198 -296 198 -692q0 -321 -142 -644.5t-392 -567.5z" />
    <glyph glyph-name="asterisk" unicode="*" horiz-adv-x="831" 
d="M543 1024h-99l37 203l-194 -103l-35 84l201 103l-164 102l63 84l160 -100l33 200h98l-35 -200l193 100l35 -84l-199 -102l162 -103l-64 -84l-157 103z" />
    <glyph glyph-name="plus" unicode="+" horiz-adv-x="1007" 
d="M598 692h299l-23 -135h-301l-55 -313h-139l55 313h-301l23 135h303l55 314h139z" />
    <glyph glyph-name="comma" unicode="," horiz-adv-x="454" 
d="M27 -262h-97q45 66 65.5 94.5t60 75t81.5 84.5q-92 14 -92 96q0 57 43.5 100t101.5 43q44 0 72.5 -28.5t28.5 -71.5q0 -44 -42.5 -106t-221.5 -287z" />
    <glyph glyph-name="hyphen" unicode="-" horiz-adv-x="804" 
d="M686 557h-571l24 135h570z" />
    <glyph glyph-name="period" unicode="." horiz-adv-x="479" 
d="M156 -14q-45 0 -74 29.5t-29 72.5q0 57 44.5 100t101.5 43q44 0 72 -28.5t28 -71.5q0 -56 -44 -100.5t-99 -44.5z" />
    <glyph glyph-name="slash" unicode="/" horiz-adv-x="872" 
d="M111 -135h-152l870 1773h152z" />
    <glyph glyph-name="zero" unicode="0" horiz-adv-x="1435" 
d="M610 -35q-222 0 -346.5 163.5t-124.5 449.5q0 154 37 308t107 286.5t163.5 236t213.5 162.5t249 59q221 0 346 -164.5t125 -451.5q0 -128 -26.5 -257t-74 -244.5t-118 -216.5t-154 -174t-186.5 -115t-211 -42zM637 121q157 0 288.5 132.5t203 335t71.5 417.5
q0 224 -83 346.5t-232 122.5q-118 0 -225.5 -78t-182 -203t-118.5 -284t-44 -318q0 -224 86 -347.5t236 -123.5z" />
    <glyph glyph-name="one" unicode="1" horiz-adv-x="792" 
d="M479 0h-166q57 323 81.5 458t74.5 387t102 478q-179 -216 -434 -254l29 162q168 32 290 134t144 232h160z" />
    <glyph glyph-name="two" unicode="2" horiz-adv-x="1267" 
d="M1067 0h-1042l2 14q25 93 56 166.5t74.5 135t90.5 109.5t118 100.5t142 97.5t176 110q3 1 4 2q40 25 66 42t73 51t79 62.5t71 70.5t62.5 81.5t40 88.5t16.5 98q0 116 -78 184t-211 68q-176 0 -304.5 -116.5t-162.5 -303.5l-145 26q42 238 220.5 390.5t422.5 152.5
q195 0 313.5 -102.5t118.5 -274.5q0 -85 -32.5 -168t-75 -140.5t-107.5 -116.5t-104 -87t-91 -61q-56 -37 -135.5 -85t-127.5 -77.5t-109.5 -73.5t-102.5 -84.5t-84 -99.5t-76 -129q309 25 869 25z" />
    <glyph glyph-name="three" unicode="3" horiz-adv-x="1304" 
d="M541 -35q-202 0 -340 100t-158 265l156 71q20 -122 117 -203t253 -81q92 0 173 31t137 82.5t88 120t32 141.5q0 121 -86.5 189.5t-259.5 68.5h-159l24 139h168q170 0 284.5 100t114.5 242q0 118 -80 184t-212 66q-145 0 -259.5 -80.5t-160.5 -224.5l-144 30
q60 190 226 307t376 117q187 0 310 -94.5t123 -255.5q0 -158 -107.5 -284t-269.5 -154l-2 -25q142 -17 217.5 -94.5t75.5 -206.5q0 -104 -48.5 -203.5t-131 -176.5t-203 -124t-254.5 -47z" />
    <glyph glyph-name="four" unicode="4" horiz-adv-x="1325" 
d="M920 0h-162q45 254 96 410q-409 -31 -838 -9l25 142l999 1054h162q-119 -686 -215 -1085q104 23 260 23l-24 -148q-156 0 -254 23q-2 -169 -49 -410zM203 520q355 25 669 -8q40 407 154 915q-283 -329 -823 -907z" />
    <glyph glyph-name="five" unicode="5" horiz-adv-x="1306" 
d="M532 -35q-197 0 -340 99.5t-172 269.5l150 80q30 -142 137.5 -220.5t249.5 -78.5q99 0 189 39t153 103t100 148.5t37 172.5q0 139 -88 223t-233 84q-120 0 -225.5 -58t-176.5 -153l-125 51l340 872h775l-27 -145q-438 0 -678 25q-79 -315 -250 -641h23q74 87 179.5 135.5
t223.5 48.5q87 0 164.5 -26.5t139 -77t98 -131t36.5 -179.5q0 -120 -52.5 -236.5t-141.5 -205.5t-217 -144t-269 -55z" />
    <glyph glyph-name="six" unicode="6" horiz-adv-x="1363" 
d="M600 -35q-225 0 -350 142t-125 413q0 162 45 325t129 302.5t195 248.5t253 171.5t293 62.5q220 0 344 -121l-120 -118q-104 90 -265 90q-238 0 -429.5 -203t-282.5 -567h26q75 154 215.5 239.5t294.5 85.5q190 0 316.5 -120t126.5 -316q0 -122 -52 -237.5t-140 -203
t-212.5 -141t-261.5 -53.5zM631 115q120 0 226.5 64.5t170.5 171.5t64 227q0 144 -91.5 231.5t-232.5 87.5q-120 0 -228 -65.5t-172.5 -173t-64.5 -224.5q0 -141 93.5 -230t234.5 -89z" />
    <glyph glyph-name="seven" unicode="7" horiz-adv-x="1191" 
d="M367 0h-172q27 154 109 348.5t201.5 395.5t284.5 399.5t343 345.5l-11 20q-47 -5 -97.5 -9.5t-90.5 -8t-99 -6t-90 -4.5t-97.5 -3t-89 -1.5t-97.5 -1t-88.5 -0.5h-96.5h-90l25 147h1126l-26 -156q-172 -134 -335.5 -324t-286.5 -387.5t-208.5 -396t-113.5 -358.5z" />
    <glyph glyph-name="eight" unicode="8" horiz-adv-x="1337" 
d="M565 -35q-215 0 -349 107.5t-134 287.5q0 169 116.5 301t297.5 164l6 29q-223 69 -223 283q0 94 45.5 184t122 158t185 109.5t226.5 41.5q189 0 308.5 -97.5t119.5 -260.5q0 -146 -96.5 -262t-251.5 -156l-6 -29q133 -26 205.5 -110.5t72.5 -212.5q0 -105 -49.5 -203
t-134.5 -171.5t-206 -118t-255 -44.5zM729 901q160 0 274.5 105t114.5 241q0 111 -79.5 177.5t-207.5 66.5q-159 0 -272 -99.5t-113 -238.5q0 -115 79.5 -183.5t203.5 -68.5zM588 109q126 0 231 56.5t163 148.5t58 196q0 124 -85 195t-242 71q-200 0 -327.5 -107.5
t-127.5 -269.5q0 -136 92.5 -213t237.5 -77z" />
    <glyph glyph-name="nine" unicode="9" horiz-adv-x="1384" 
d="M512 -35q-138 0 -258.5 59.5t-194.5 174.5l121 108q132 -196 348 -196q162 0 296.5 102.5t223 279.5t128.5 410h-25q-72 -182 -213.5 -278.5t-304.5 -96.5q-188 0 -315.5 121.5t-127.5 325.5q0 124 52 242.5t141 209.5t217.5 147t271.5 56q79 0 146 -16.5t127.5 -56.5
t103 -101.5t67.5 -156.5t25 -216q0 -129 -27.5 -262.5t-77.5 -257.5t-125 -233t-165 -190t-202 -128t-232 -47zM680 666q124 0 235.5 73.5t176.5 190t65 241.5q0 146 -91 230t-230 84q-128 0 -237 -69.5t-171.5 -182t-62.5 -238.5q0 -152 89 -240.5t226 -88.5z" />
    <glyph glyph-name="colon" unicode=":" horiz-adv-x="526" 
d="M326 913q-44 0 -72.5 30t-28.5 73q0 57 44 100t102 43q43 0 71.5 -28.5t28.5 -69.5q0 -56 -44.5 -102t-100.5 -46zM162 -14q-44 0 -72.5 29.5t-28.5 72.5q0 57 44 100t102 43q44 0 72 -28t28 -70q0 -56 -44.5 -101.5t-100.5 -45.5z" />
    <glyph glyph-name="semicolon" unicode=";" horiz-adv-x="583" 
d="M365 913q-45 0 -74 30t-29 73q0 58 45 100.5t101 42.5q44 0 73 -28t29 -70q0 -56 -44.5 -102t-100.5 -46zM78 -266h-98l176 262q-27 12 -42.5 36t-15.5 54q0 57 44 101t102 44q44 0 72 -28t28 -70q0 -45 -44.5 -111.5t-221.5 -287.5z" />
    <glyph glyph-name="less" unicode="&#x3c;" horiz-adv-x="1028" 
d="M844 430l-23 -131l-684 242l27 161l770 240l-23 -131l-618 -190z" />
    <glyph glyph-name="equal" unicode="=" horiz-adv-x="1054" 
d="M936 762h-748l25 135h748zM862 340h-747l24 135h748z" />
    <glyph glyph-name="greater" unicode="&#x3e;" horiz-adv-x="1030" 
d="M885 541l-768 -242l22 131l619 191l-553 190l24 131l684 -240z" />
    <glyph glyph-name="question" unicode="?" horiz-adv-x="1116" 
d="M537 442h-160q4 53 6 64q11 58 34.5 104t67 89t85.5 74.5t116 80.5q40 28 68.5 49.5t73 63t72.5 80t49.5 92.5t21.5 108q0 107 -75 171.5t-187 64.5q-86 0 -165.5 -38t-138 -113t-75.5 -173q-6 -30 -6 -61l-144 26q0 44 4 60q23 130 107 233t203.5 158t250.5 55
q110 0 200.5 -39.5t146 -120.5t55.5 -190q0 -54 -15 -107t-36.5 -95.5t-56.5 -86t-64 -73t-71 -64t-65.5 -51.5t-58.5 -41q-50 -35 -70 -50t-57 -46t-54 -53t-34 -55t-24 -69q-4 -32 -4 -47zM401 -14q-45 0 -73.5 29.5t-28.5 72.5q0 57 43.5 100t99.5 43q44 0 73.5 -28.5
t29.5 -71.5q0 -56 -44.5 -100.5t-99.5 -44.5z" />
    <glyph glyph-name="at" unicode="@" horiz-adv-x="1959" 
d="M786 -195q-170 0 -304 49.5t-219.5 137.5t-130 205.5t-44.5 257.5q0 143 46.5 289t127.5 274.5t196.5 242t247.5 194.5t286 128t308 47q194 0 344 -71.5t236 -213t86 -333.5q0 -144 -48.5 -288t-128 -254.5t-188 -179.5t-221.5 -69q-115 0 -154.5 69.5t-2.5 198.5h-13
q-67 -92 -145.5 -150.5t-147.5 -80.5t-139 -22q-131 0 -205.5 83.5t-74.5 217.5q0 114 55.5 233.5t141.5 212t198.5 152t220.5 59.5q105 0 171.5 -59.5t84.5 -184.5h12q8 104 54 217h120l-204 -587q-34 -105 -33 -154q1 -96 98 -96q100 0 196.5 96.5t156 249.5t59.5 311
q0 246 -147 386t-404 140q-137 0 -272.5 -42t-250 -114.5t-214 -173.5t-168.5 -215t-108.5 -242.5t-39.5 -254.5q0 -254 154.5 -400.5t441.5 -146.5q317 0 576 172l47 -94q-144 -99 -319 -148t-339 -49zM842 360q112 0 218 78t169 194.5t63 229.5q0 97 -50 152t-142 55
q-85 0 -168.5 -46t-145 -117.5t-99.5 -161.5t-38 -175q0 -97 49.5 -153t143.5 -56z" />
    <glyph glyph-name="A" unicode="A" horiz-adv-x="1517" 
d="M100 0h-176l926 1597h184l361 -1597h-176q-30 126 -42.5 181.5t-30.5 166t-24 199.5l-16 18q-210 -26 -344 -26q-138 0 -344 26l-25 -20q-97 -205 -293 -545zM475 688l12 -20q182 24 306 24q123 0 270 -24l14 18q-113 410 -139 754h-51q-154 -351 -412 -752z" />
    <glyph glyph-name="B" unicode="B" horiz-adv-x="1458" 
d="M756 0h-645l282 1597h586q210 0 323 -98t113 -250q0 -151 -100 -266t-264 -152l-7 -34q149 -25 221 -103.5t72 -197.5q0 -97 -45 -188t-122 -158.5t-185.5 -108.5t-228.5 -41zM408 870l16 -22q150 29 395 29q186 0 301 93.5t115 229.5q0 116 -90 181t-236 65
q-89 0 -125 0.5t-109.5 7.5t-139.5 21l-27 -21q-15 -282 -100 -584zM276 147l21 -24q162 29 432 29q196 0 313 95t117 232q0 119 -90 185.5t-244 66.5q-266 0 -413 29l-27 -21q-23 -315 -109 -592z" />
    <glyph glyph-name="C" unicode="C" horiz-adv-x="1716" 
d="M809 -35q-312 0 -496 180.5t-184 487.5q0 192 76 374t203.5 319t307.5 220.5t376 83.5q115 0 218.5 -30t187.5 -87t141.5 -148t76.5 -206l-162 -61q-39 178 -171.5 277.5t-321.5 99.5q-125 0 -241.5 -45t-208.5 -124.5t-161 -183t-106 -225t-37 -244.5q0 -134 44.5 -238
t120.5 -167t171.5 -95t204.5 -32q120 0 228.5 37.5t193 104t149 149t109.5 180.5l141 -53q-83 -169 -205 -295.5t-291.5 -202.5t-363.5 -76z" />
    <glyph glyph-name="D" unicode="D" horiz-adv-x="1646" 
d="M698 0h-587l282 1597h570q165 0 288 -44t198 -126.5t111.5 -193t36.5 -250.5q0 -150 -41 -294.5t-120 -268.5t-186.5 -218.5t-250 -148t-301.5 -53.5zM276 147l21 -24q164 29 410 29q163 0 300 65.5t226 175t138.5 251t49.5 296.5q0 256 -134.5 381t-379.5 125
q-86 0 -131 1t-112.5 7.5t-128.5 20.5l-27 -21q-65 -660 -232 -1307z" />
    <glyph glyph-name="E" unicode="E" horiz-adv-x="1343" 
d="M1141 0h-1030l282 1597h1010l-27 -151q-28 0 -156 -0.5t-178.5 0t-152.5 3t-185 9t-169 17.5l-27 -21q-11 -270 -98 -567l14 -23q141 15 296.5 23t251 9t267.5 1l-29 -156q-172 0 -267 1t-247 9.5t-284 24.5l-25 -22q-21 -315 -111 -607l21 -24q147 15 313 23t269.5 9
t289.5 1z" />
    <glyph glyph-name="F" unicode="F" horiz-adv-x="1275" 
d="M276 0h-165l282 1597h991l-28 -157q-177 0 -275 1t-254 9.5t-292 24.5l-27 -21q-14 -293 -105 -586l15 -22q138 16 290.5 24.5t246.5 9.5t262 1l-29 -158q-167 0 -259.5 1t-242.5 9.5t-283 24.5l-22 -23q-21 -260 -105 -735z" />
    <glyph glyph-name="G" unicode="G" horiz-adv-x="1792" 
d="M791 -35q-192 0 -340.5 75.5t-235 227t-86.5 359.5q0 154 48 304t136.5 275t205.5 221t265 149.5t306 53.5q157 0 287.5 -52t222 -160t114.5 -259l-162 -61q-39 178 -170.5 277.5t-320.5 99.5q-155 0 -297 -70t-241.5 -184t-158.5 -263.5t-59 -304.5q0 -135 45 -239.5
t122 -167t171 -94t199 -31.5q237 0 427 149.5t292 403.5l-15 20q-279 -49 -577 -49l24 141h705l-139 -786h-136q2 11 15 99t26.5 148.5t36.5 125.5l-26 4q-118 -202 -291 -307t-393 -105z" />
    <glyph glyph-name="H" unicode="H" horiz-adv-x="1656" 
d="M276 0h-165l282 1597h166q-80 -455 -149 -718l16 -21q489 45 909 0l25 21q25 272 104 718h166l-282 -1597h-166q1 8 13 74.5t15 81.5t14 75t16 84t15.5 78t18 87t18 80.5t21.5 90.5l22 86l-18 21q-449 -61 -907 0l-25 -21q-6 -65 -14 -134.5t-14.5 -117.5t-19.5 -128.5
t-18 -112t-22 -127t-21 -117.5z" />
    <glyph glyph-name="I" unicode="I" horiz-adv-x="585" 
d="M276 0h-165l282 1597h166z" />
    <glyph glyph-name="J" unicode="J" horiz-adv-x="1208" 
d="M453 -35q-79 0 -148 17.5t-130 56t-98 99.5t-51.5 147.5t9.5 199.5l10 45l162 23l-8 -39q-17 -110 -4 -185.5t57.5 -122t99.5 -67t121 -20.5q61 0 112 18t86.5 44.5t65 69t47 79t33 88t21.5 81.5t14 74l182 1024h166l-174 -983q-8 -45 -13.5 -74t-19.5 -85t-28.5 -96
t-40 -94.5t-54.5 -93t-71.5 -80t-91.5 -67.5t-114.5 -42.5t-139.5 -16.5z" />
    <glyph glyph-name="K" unicode="K" horiz-adv-x="1374" 
d="M276 0h-165l282 1597h166q-4 -20 -16.5 -94.5t-17 -99t-16.5 -90.5t-18.5 -97t-18.5 -90.5t-22 -99t-23 -93t-27.5 -102.5t-30.5 -100h24q422 400 944 866h199q-14 -12 -88 -79t-96.5 -87.5t-91 -82t-102 -90.5t-96 -84t-106.5 -92t-100 -84t-108 -89l-5 -28
q232 -339 547 -881h-203q-6 11 -60.5 102t-68 114.5t-60 102t-69 119t-60 107.5t-68 125t-60.5 118h-20q-134 -149 -259 -231q-19 -178 -86 -557z" />
    <glyph glyph-name="L" unicode="L" horiz-adv-x="1204" 
d="M1081 0h-970l282 1597h166q-165 -938 -283 -1450l21 -24q137 15 292.5 23t251.5 9t267 1z" />
    <glyph glyph-name="M" unicode="M" horiz-adv-x="2066" 
d="M279 0h-168l282 1597h178q242 -722 385 -1392h31q398 690 877 1392h176l-283 -1597h-168q8 44 42 241t49.5 279t47.5 242.5t64.5 294.5t71.5 272h-25q-122 -201 -263.5 -425.5t-317 -499.5t-257.5 -404h-135q-34 122 -113 402t-144.5 515.5t-110.5 411.5h-27
q-7 -99 -16.5 -196t-24 -205t-24.5 -182t-31 -198t-30 -176t-34 -193.5t-32 -178.5z" />
    <glyph glyph-name="N" unicode="N" horiz-adv-x="1687" 
d="M276 0h-165l282 1597h154q413 -719 710 -1366h27q9 80 18 158t21.5 164.5t21 147.5t24.5 158.5t23 143.5t26 155.5t24.5 140.5t27 154t25.5 144h166l-283 -1597h-151q-463 800 -717 1341h-25q-23 -211 -59.5 -456t-59 -374t-75.5 -426q-10 -57 -15 -85z" />
    <glyph glyph-name="O" unicode="O" horiz-adv-x="1806" 
d="M799 -35q-145 0 -269 49t-213 136.5t-139.5 214.5t-50.5 278q0 189 78.5 370t209 316t309 218t368.5 83q197 0 349.5 -87t236 -241.5t83.5 -351.5q0 -151 -50 -298.5t-141 -270t-209.5 -217t-264.5 -147t-297 -52.5zM827 121q147 0 286.5 68.5t241.5 179.5t164 259
t62 300q0 242 -144.5 394.5t-371.5 152.5q-194 0 -370 -113.5t-282 -300.5t-106 -393q0 -121 39.5 -223.5t108.5 -173.5t165 -110.5t207 -39.5z" />
    <glyph glyph-name="P" unicode="P" horiz-adv-x="1368" 
d="M276 0h-165l282 1597h570q23 0 43.5 -1t69.5 -8.5t88.5 -20.5t88.5 -42t81.5 -68t55.5 -102.5t23 -142.5q0 -113 -44 -218.5t-121 -186t-191 -128.5t-246 -48q-152 0 -248 7.5t-192 35.5q-20 -252 -95 -674zM389 770l19 -22q67 16 143.5 24t118.5 9t125 1
q192 0 316 107.5t124 279.5q0 141 -88 209t-244 68q-239 0 -368 29l-27 -21q-23 -336 -119 -684z" />
    <glyph glyph-name="Q" unicode="Q" horiz-adv-x="1816" 
d="M1546 -104l-135 -101q-44 65 -66 100t-53 93t-51 114q-202 -137 -438 -137q-195 0 -348.5 84t-240.5 239.5t-87 356.5q0 152 50.5 299.5t141.5 270t210.5 216.5t266.5 146.5t300 52.5q198 0 352.5 -87t239 -241.5t84.5 -349.5q0 -232 -115.5 -443t-319.5 -347
q14 -13 27.5 -27t27 -30t24.5 -28.5t24.5 -31t22 -29.5t22.5 -31.5t20 -29t21.5 -31t19.5 -28.5zM836 111q159 0 346 86q-78 76 -142 163.5t-141 208.5l135 99q165 -254 238 -420q147 133 234 314t87 366q0 243 -146 395t-378 152q-150 0 -291.5 -67.5t-245 -177.5
t-166.5 -259t-63 -305q0 -248 149.5 -401.5t383.5 -153.5z" />
    <glyph glyph-name="R" unicode="R" horiz-adv-x="1421" 
d="M276 0h-165l282 1597h570q15 0 28.5 -0.5t47.5 -4t63 -10t68.5 -20t71.5 -32t65 -49t55.5 -67.5t36.5 -90t14 -116q0 -216 -146 -367.5t-382 -170.5l-2 -27q33 -51 66.5 -109t58 -102.5t59.5 -112.5t52 -102.5t55 -112.5t51 -104h-185l-313 635q-219 4 -356 39
q-21 -272 -95 -674zM389 764l17 -21q154 29 391 29q190 0 314 113t124 282q0 139 -91 210t-241 71q-229 0 -368 27l-27 -21q-25 -350 -119 -690z" />
    <glyph glyph-name="S" unicode="S" horiz-adv-x="1318" 
d="M578 -35q-97 0 -183 25.5t-160 79t-122.5 147t-59.5 217.5l164 55q17 -182 123 -276t268 -94q177 0 298.5 100.5t121.5 239.5q0 25 -5 47t-11.5 39t-21 33.5t-24.5 27t-32 23.5t-33 19t-39 16.5t-38.5 14t-41.5 13.5t-39 13l-139 47q-37 12 -64 22t-68 29t-70.5 38.5
t-62 49.5t-53.5 63.5t-34.5 79t-13.5 96.5q0 98 46 189.5t125 160t191.5 109.5t237.5 41q207 0 330 -106t139 -275l-160 -61q-21 135 -110.5 213t-233.5 78q-162 0 -274.5 -91.5t-112.5 -216.5q0 -49 21.5 -91t48.5 -68t72 -50t71.5 -34t66.5 -23l150 -51q131 -45 169 -64
q162 -77 192 -215q7 -34 7 -73q0 -101 -49.5 -198.5t-133 -172t-203 -120.5t-250.5 -46z" />
    <glyph glyph-name="T" unicode="T" horiz-adv-x="1294" 
d="M631 0h-166q168 959 285 1473q-209 -27 -568 -27l27 151h1241l-27 -151q-358 0 -559 27q-64 -500 -217 -1379q-11 -63 -16 -94z" />
    <glyph glyph-name="U" unicode="U" horiz-adv-x="1540" 
d="M662 -35q-284 0 -400.5 165t-64.5 456l180 1011h166l-178 -1001q-41 -233 42.5 -355t284.5 -122q202 0 330 123.5t168 353.5l176 1001h166l-178 -1011q-18 -104 -53 -194t-93 -169.5t-134 -136t-181.5 -89t-230.5 -32.5z" />
    <glyph glyph-name="V" unicode="V" horiz-adv-x="1515" 
d="M752 0h-185l-360 1597h176q205 -950 289 -1443h37q214 419 792 1443h174z" />
    <glyph glyph-name="W" unicode="W" horiz-adv-x="2330" 
d="M643 0h-201l-225 1597h180q63 -425 102 -742.5t66 -672.5h27q230 524 663 1415h187q45 -333 65 -482t51 -425t50 -514h26q288 667 666 1421h180l-790 -1597h-201q-116 760 -162 1395h-31q-278 -662 -653 -1395z" />
    <glyph glyph-name="X" unicode="X" horiz-adv-x="1335" 
d="M117 0h-197q42 49 145 169.5t152 177.5t128 148.5t144 164.5t129 143l5 26q-191 338 -406 768h191q194 -371 313 -669h24q226 304 551 669h191q-447 -514 -680 -768l-4 -26q50 -91 110 -206t94.5 -183.5t110.5 -221t96 -192.5h-194q-197 406 -313 705h-25
q-41 -55 -80.5 -107t-87 -112t-75.5 -95t-85.5 -105t-74 -90t-85 -102.5t-77.5 -93.5z" />
    <glyph glyph-name="Y" unicode="Y" horiz-adv-x="1411" 
d="M688 0h-166q84 450 117 582q-203 461 -424 1015h180q79 -198 116 -293.5t100 -272.5t108 -326h24q31 48 64.5 98t61 91t66.5 95.5t61.5 87t66.5 91.5t62 84t67 90t62 82.5t66.5 88.5t63.5 84h179q-555 -728 -783 -1015q-24 -203 -92 -582z" />
    <glyph glyph-name="Z" unicode="Z" horiz-adv-x="1343" 
d="M1184 0h-1225l23 139q595 644 1269 1327l-8 25q-463 -45 -991 -45l27 151h1169l-25 -135q-437 -476 -1267 -1321l8 -24q418 39 1046 39z" />
    <glyph glyph-name="bracketleft" unicode="[" horiz-adv-x="690" 
d="M479 -348h-444l344 1945h444l-24 -139q-195 0 -310 25q-115 -860 -303 -1706q122 26 320 26z" />
    <glyph glyph-name="backslash" unicode="\" horiz-adv-x="862" 
d="M664 -135h-152l-244 1773h152z" />
    <glyph glyph-name="bracketright" unicode="]" horiz-adv-x="690" 
d="M334 -348h-445l27 151q68 0 101 -0.5t93.5 -6.5t114.5 -19q114 859 303 1706q-127 -25 -319 -25l24 139h445z" />
    <glyph glyph-name="asciicircum" unicode="^" horiz-adv-x="880" 
d="M334 1042h-137l356 555h149l156 -555h-135q-77 287 -96 439h-43q-90 -181 -250 -439z" />
    <glyph glyph-name="underscore" unicode="_" horiz-adv-x="1032" 
d="M858 -227h-954l22 129h955z" />
    <glyph glyph-name="a" unicode="a" horiz-adv-x="1177" 
d="M348 -35q-138 0 -225.5 63.5t-87.5 192.5q0 80 36.5 145.5t102.5 112.5t148 79t182 52q28 6 72 14t68.5 13t60.5 13t56 15.5t46 18.5t40 24t27.5 30.5t19 39.5t5.5 49q0 89 -63.5 147t-171.5 58t-197.5 -61t-140.5 -168l-142 51q51 105 137 177t180 103t195 31
q83 0 153.5 -22.5t123 -67t75 -119.5t5.5 -172l-76 -430q-21 -120 -26.5 -192t1.5 -162h-157q-8 46 -0.5 111.5t39.5 144.5h-25q-165 -291 -461 -291zM399 92q84 0 163 35.5t134 90.5t91.5 116.5t46.5 116.5l28 159q-55 -44 -108 -63t-172 -43q-52 -10 -93 -20.5t-97 -32.5
t-93.5 -48t-64.5 -67.5t-27 -91.5q0 -73 51.5 -112.5t140.5 -39.5z" />
    <glyph glyph-name="b" unicode="b" horiz-adv-x="1366" 
d="M649 -35q-139 0 -237 72.5t-136 208.5h-24q2 -21 2.5 -41t-1 -40.5t-2.5 -34t-4.5 -35.5t-5 -30.5t-6.5 -33.5t-6 -31h-151l289 1638h155q-4 -25 -18.5 -110.5t-21.5 -126.5t-21.5 -122t-26.5 -138t-29.5 -132.5t-35.5 -144.5h24q183 301 475 301q193 0 307.5 -129
t114.5 -342q0 -139 -51 -272t-136 -233.5t-205 -162t-249 -61.5zM647 111q127 0 237.5 78.5t174 205.5t63.5 267q0 162 -85.5 260t-229.5 98q-127 0 -239.5 -78t-179 -205t-66.5 -266q0 -165 91 -262.5t234 -97.5z" />
    <glyph glyph-name="c" unicode="c" horiz-adv-x="1239" 
d="M551 -35q-218 0 -345.5 127.5t-127.5 349.5q0 139 51.5 270t140.5 231.5t217.5 161t272.5 60.5q163 0 283 -80t155 -245l-162 -58q-21 114 -102.5 176t-200.5 62q-137 0 -250.5 -80t-175 -206t-61.5 -267q0 -165 91 -260.5t245 -95.5q138 0 252 77t186 205l133 -53
q-96 -182 -256.5 -278.5t-345.5 -96.5z" />
    <glyph glyph-name="d" unicode="d" horiz-adv-x="1370" 
d="M506 -35q-195 0 -311.5 128.5t-116.5 344.5q0 139 50.5 271.5t136 233t205 161.5t249.5 61q139 0 233.5 -74.5t130.5 -228.5h25q32 321 117 776h155l-227 -1284q-23 -131 -28 -211t3 -143h-157q-5 70 1.5 124.5t33.5 135.5h-25q-88 -150 -212.5 -222.5t-262.5 -72.5z
M559 111q129 0 242.5 78t179.5 205t66 268q0 162 -91.5 260t-234.5 98q-128 0 -238 -78.5t-173.5 -206t-63.5 -268.5q0 -160 85.5 -258t227.5 -98z" />
    <glyph glyph-name="e" unicode="e" horiz-adv-x="1261" 
d="M543 -35q-211 0 -339 128t-128 343q0 193 90.5 361t246 268t337.5 100q50 0 97.5 -8t97.5 -26.5t89.5 -49t74 -74.5t52 -103.5t22.5 -136.5t-14 -173l-12 -70h-913q-29 -194 62.5 -307t266.5 -113q135 0 246.5 76.5t181.5 200.5l136 -53q-93 -169 -251 -266t-343 -97z
M274 659h744q15 98 -5 172.5t-65.5 115.5t-102 61t-122.5 20q-154 0 -275 -101.5t-174 -267.5z" />
    <glyph glyph-name="f" unicode="f" horiz-adv-x="718" 
d="M283 0h-158q6 35 28 155t31.5 172.5t30.5 161.5t36.5 181t37 167.5t43.5 180.5q-88 -25 -201 -25l25 140q118 0 190 -25q-11 90 6 178q16 89 42 155.5t69 121t109.5 82.5t156.5 28q126 0 203 -51l-25 -141q-84 57 -174 57q-30 0 -54.5 -4.5t-43.5 -10t-34.5 -19
t-26 -23.5t-20.5 -30.5t-15 -33.5t-11.5 -40t-9 -42t-8.5 -47q-19 -106 -59 -180q131 25 354 25l-25 -140q-215 0 -344 25q-40 -358 -153 -1018z" />
    <glyph glyph-name="g" unicode="g" horiz-adv-x="1366" 
d="M473 -483q-390 0 -453 329l152 50q46 -244 326 -244q366 0 456 457q19 102 50 167h-25q-88 -136 -209 -205t-254 -69q-193 0 -313.5 124.5t-120.5 338.5q0 139 53.5 269t140.5 224t202 150.5t235 56.5q141 0 237 -80.5t129 -222.5h25q5 97 35 271h151l-174 -996
q-30 -169 -91.5 -291.5t-147.5 -193t-185.5 -103t-218.5 -32.5zM565 147q126 0 238.5 75.5t179 197.5t66.5 254q0 155 -92.5 250.5t-235.5 95.5q-126 0 -235 -74.5t-171.5 -194.5t-62.5 -253q0 -156 86.5 -253.5t226.5 -97.5z" />
    <glyph glyph-name="h" unicode="h" horiz-adv-x="1296" 
d="M233 0h-155l289 1638h155q-81 -446 -164 -747h25q177 274 448 274q64 0 119 -15t103.5 -48.5t77.5 -86.5t40 -128.5t-8 -175.5l-125 -711h-155l112 641q33 189 -33.5 284t-197.5 95q-158 0 -275 -116.5t-145 -276.5z" />
    <glyph glyph-name="i" unicode="i" horiz-adv-x="509" 
d="M401 1399q-44 0 -73 29.5t-29 72.5q0 57 44.5 100.5t102.5 43.5q44 0 72.5 -29.5t28.5 -71.5q0 -57 -44.5 -101t-101.5 -44zM233 0h-155l201 1133h155z" />
    <glyph glyph-name="j" unicode="j" horiz-adv-x="509" 
d="M403 1399q-45 0 -73.5 29.5t-28.5 72.5q0 56 44.5 100t103.5 44q43 0 71.5 -29.5t28.5 -71.5q0 -56 -44 -100.5t-102 -44.5zM-176 -483q-125 0 -207 53l25 143q82 -57 178 -57q42 0 77 13.5t58.5 32t44 51t32 58t22 66t14.5 62t10 57.5l201 1137h155l-203 -1147
q-29 -169 -68 -255q-100 -214 -339 -214z" />
    <glyph glyph-name="k" unicode="k" horiz-adv-x="1075" 
d="M236 0h-158l289 1638h157q-11 -59 -46 -256t-51.5 -284.5t-48 -238t-63.5 -277.5h25q277 265 600 551h190l-524 -447q130 -205 395 -686h-180q-238 436 -317 594q-105 -118 -215 -186q-8 -149 -53 -408z" />
    <glyph glyph-name="l" unicode="l" horiz-adv-x="509" 
d="M233 0h-155l289 1638h155z" />
    <glyph glyph-name="m" unicode="m" horiz-adv-x="2060" 
d="M233 0h-155l201 1133h151q-26 -145 -72 -242h25q92 143 206.5 208.5t237.5 65.5q58 0 108.5 -15t95.5 -48.5t71 -95t26 -146.5h27q174 305 449 305q77 0 141.5 -24.5t115.5 -78.5t67.5 -140t-1.5 -211l-127 -711h-155l112 641q33 190 -31 284.5t-190 94.5
q-76 0 -146.5 -33t-123.5 -88t-89.5 -125.5t-50.5 -146.5l-108 -627h-156l113 641q33 189 -31 284t-190 95q-101 0 -190 -56.5t-145.5 -145.5t-74.5 -191z" />
    <glyph glyph-name="n" unicode="n" horiz-adv-x="1296" 
d="M233 0h-155l201 1133h151q-26 -145 -72 -242h25q177 274 451 274q64 0 119 -15t103 -48.5t76.5 -86.5t39 -128.5t-8.5 -175.5l-125 -711h-155l112 641q33 189 -34 284t-199 95q-106 0 -197.5 -57t-147 -145.5t-73.5 -190.5z" />
    <glyph glyph-name="o" unicode="o" horiz-adv-x="1314" 
d="M553 -35q-219 0 -347 129.5t-128 349.5q0 137 52 267.5t141 231t218.5 161.5t274.5 61q218 0 346.5 -130t128.5 -351q0 -137 -52 -267t-141 -230t-218.5 -161t-274.5 -61zM578 111q139 0 253.5 79.5t177 205.5t62.5 268q0 163 -89.5 259.5t-242.5 96.5q-139 0 -253.5 -80
t-177 -206.5t-62.5 -266.5q0 -163 89.5 -259.5t242.5 -96.5z" />
    <glyph glyph-name="p" unicode="p" horiz-adv-x="1366" 
d="M154 -451h-156l281 1584h151q-24 -144 -70 -265h27q97 154 220 225.5t259 71.5q192 0 308 -127t116 -344q0 -186 -86 -354.5t-235 -271.5t-320 -103q-137 0 -233.5 72t-132.5 211h-25q-6 -73 -14 -144.5t-21 -154t-20.5 -127.5t-25.5 -145t-23 -128zM647 111
q127 0 237.5 79t174 206t63.5 266q0 163 -86 260.5t-229 97.5q-128 0 -240.5 -78t-178.5 -204.5t-66 -266.5q0 -162 91 -261t234 -99z" />
    <glyph glyph-name="q" unicode="q" horiz-adv-x="1366" 
d="M1012 -451h-156q3 19 27 156t34 188t33.5 156.5t48.5 194.5h-26q-91 -140 -213 -209.5t-256 -69.5q-192 0 -309 128t-117 345q0 139 51 272t136.5 233t205 161t248.5 61q140 0 238 -72.5t137 -220.5h24q-1 23 -1.5 44.5t1 43.5t2.5 36.5t4 37.5t4.5 32.5t5.5 35t5 31.5
h151zM561 111q96 0 186 46t155.5 121.5t105 176t39.5 204.5q0 163 -91.5 262t-234.5 99q-128 0 -238 -78.5t-173.5 -206t-63.5 -268.5q0 -161 85.5 -258.5t229.5 -97.5z" />
    <glyph glyph-name="r" unicode="r" horiz-adv-x="845" 
d="M233 0h-155l201 1133h151q-2 -12 -7.5 -46.5t-9 -52.5t-11 -50t-17.5 -63.5t-23 -66.5h27q69 150 180 230.5t236 80.5q67 0 121 -22l-31 -172q-51 26 -139 26q-86 0 -161 -40.5t-127.5 -107t-87.5 -146.5t-50 -166z" />
    <glyph glyph-name="s" unicode="s" horiz-adv-x="1011" 
d="M422 -35q-167 0 -278.5 87t-131.5 231l152 47q26 -107 106 -169.5t185 -62.5q111 0 192.5 65t81.5 156q0 22 -7 41t-14 32t-27 26.5t-30 20t-39 17.5t-38.5 13.5t-43.5 13.5l-102 31q-28 9 -41 13t-46.5 18t-53 26.5t-47.5 35.5t-43.5 48t-27 61t-11.5 77q0 152 128 262
t310 110q147 0 244 -77.5t116 -200.5l-157 -49q-15 82 -75 138t-161 56t-171 -58.5t-70 -142.5q0 -34 14.5 -63t34.5 -47t53.5 -35t57 -25.5t59.5 -19.5l98 -31q29 -9 46.5 -14t48.5 -17.5t50 -24.5t43.5 -32t38 -42.5t23.5 -54.5t10 -69q0 -154 -138 -272.5t-339 -118.5z
" />
    <glyph glyph-name="t" unicode="t" horiz-adv-x="782" 
d="M426 -35q-47 0 -84.5 9t-63 23t-43.5 37.5t-28.5 45t-15 53.5t-5.5 54.5t2.5 57.5t6.5 52.5t8 48.5q73 414 145 670q-106 -23 -256 -23l25 140q149 0 245 -25q0 34 2 69.5t4 59.5t7 63t7.5 53.5t9.5 59t9 53.5h156q-39 -223 -88 -358q143 25 371 25l-25 -140
q-227 0 -362 23q-12 -157 -27 -268t-28 -163t-24 -92t-17.5 -85t-6.5 -113q0 -103 23 -146t100 -43q94 0 197 60l-27 -146q-94 -55 -217 -55z" />
    <glyph glyph-name="u" unicode="u" horiz-adv-x="1280" 
d="M463 -35q-81 0 -146.5 24t-116.5 78t-67 141t2 214l127 711h156l-115 -652q-15 -103 -5.5 -174t46 -114.5t82 -62.5t102.5 -19q79 0 150.5 34.5t122 90.5t84.5 124t47 138l112 635h156l-137 -779q-39 -210 -25 -354h-157q-2 43 -2 78t10 78.5t31 95.5h-27
q-160 -287 -430 -287z" />
    <glyph glyph-name="v" unicode="v" horiz-adv-x="1116" 
d="M547 0h-174l-244 1133h170q126 -599 176 -977h31q191 395 516 977h166z" />
    <glyph glyph-name="w" unicode="w" horiz-adv-x="1863" 
d="M508 0h-170l-207 1133h176q3 -16 22 -131t23.5 -143t20 -125t21.5 -145t17 -129.5t18 -151.5t13 -144h31q173 379 485 969h150q6 -33 27.5 -154.5t29.5 -165.5t25 -148t26.5 -168.5t22 -156t21.5 -176.5h28q94 220 199 433t240 475q7 13 11 20.5t10 19t11 21.5h174
l-606 -1133h-172q-105 577 -147 936h-19q-184 -387 -481 -936z" />
    <glyph glyph-name="x" unicode="x" horiz-adv-x="1056" 
d="M104 0h-178q337 381 508 559l6 27q-113 174 -313 547h180q165 -313 228 -474h24q130 174 393 474h178q-296 -338 -503 -547l-6 -27q153 -253 311 -559h-176q-158 305 -228 481h-26q-123 -167 -398 -481z" />
    <glyph glyph-name="y" unicode="y" horiz-adv-x="1122" 
d="M289 -451h-154l246 431l-254 1153h172q116 -522 176 -998h25q210 437 526 998h170z" />
    <glyph glyph-name="z" unicode="z" horiz-adv-x="1003" 
d="M858 0h-897l23 123q21 23 97 106t103 113t96 104.5t104.5 113t98 105t108 114t102 106t110.5 112.5l-6 25q-294 -33 -627 -33l25 144h817l-21 -123q-545 -589 -823 -867l8 -26q115 13 252.5 19t214.5 6.5t240 0.5z" />
    <glyph glyph-name="braceleft" unicode="{" horiz-adv-x="774" 
d="M578 -305h-84q-123 0 -203.5 31t-117.5 88t-45.5 138.5t11.5 182.5l29 170q13 76 15.5 124t-0.5 75.5t-20.5 40t-34.5 15.5t-52 3l28 166h27t23.5 1.5t22.5 5t19.5 9.5t18.5 15.5t16 23.5t16 33t14 43.5t14.5 56t13.5 70.5l30 172q13 76 31.5 134t56 118t90.5 98.5
t137.5 63t194.5 24.5h84l-24 -139h-74q-149 0 -230 -66.5t-106 -211.5l-35 -189q-15 -88 -28.5 -136t-39.5 -88.5t-64 -61t-101 -35.5l-8 -47q44 -12 70.5 -26.5t44 -36t21 -57.5t0 -82.5t-16.5 -119.5l-33 -188q-24 -136 28 -207.5t211 -71.5h74z" />
    <glyph glyph-name="bar" unicode="|" horiz-adv-x="534" 
d="M160 -451h-144l369 2089h143z" />
    <glyph glyph-name="braceright" unicode="}" horiz-adv-x="774" 
d="M-25 -305h-86l25 139h76q147 0 228.5 66t107.5 213l32 188q21 121 45.5 180.5t66.5 91t124 50.5l6 47q-43 11 -68 23t-43.5 33t-23 55.5t-1 84t16.5 125.5l33 189q7 46 9 87.5t-12 76t-40 60t-75.5 40t-119.5 14.5h-75l24 139h86q123 0 203.5 -30.5t117.5 -87.5t46 -138
t-12 -182l-31 -172q-10 -53 -14 -92t-5 -67.5t5.5 -46.5t13.5 -28.5t23.5 -15.5t30.5 -6.5t40 -1.5l-31 -166q-35 0 -52 -2.5t-39.5 -15t-35.5 -40t-28 -76t-29 -124.5l-31 -170q-12 -64 -27.5 -114t-41 -103t-63 -91t-89 -69t-124.5 -47t-163 -16z" />
    <glyph glyph-name="asciitilde" unicode="~" horiz-adv-x="1081" 
d="M707 557q-43 0 -79 14t-61 34.5t-47 40.5t-48.5 34t-55.5 14q-54 0 -87.5 -38.5t-43.5 -96.5h-135q16 86 62 149t103.5 92t120.5 29q41 0 76 -14t59 -33.5t46 -39.5t48.5 -34t55.5 -14q51 0 81 37t40 96h135q-24 -132 -98 -201t-172 -69z" />
    <glyph glyph-name="uni00A0" unicode="&#xa0;" horiz-adv-x="532" 
 />
    <glyph glyph-name="exclamdown" unicode="&#xa1;" horiz-adv-x="503" 
d="M315 920q-44 0 -73 28t-29 70q0 56 44.5 101.5t102.5 45.5q42 0 70.5 -29.5t28.5 -72.5q0 -57 -44 -100t-100 -43zM166 -446h-182l20 112l236 1077h90l-146 -1077z" />
    <glyph glyph-name="cent" unicode="&#xa2;" horiz-adv-x="1140" 
d="M737 1108l-133 -748q101 9 186 69.5t138 154.5l108 -43q-72 -135 -192.5 -213.5t-259.5 -87.5l-43 -240h-99l43 242q-152 19 -240.5 122t-88.5 269q0 143 64 273t180 217.5t259 103.5l43 239h99l-43 -237q121 -8 206 -72.5t111 -189.5l-127 -47q-15 80 -71 128.5
t-140 59.5zM295 653q0 -119 57 -194t156 -94l131 741q-149 -26 -246.5 -158.5t-97.5 -294.5z" />
    <glyph glyph-name="sterling" unicode="&#xa3;" horiz-adv-x="1241" 
d="M1057 0h-1047l27 150q214 77 328.5 192.5t119.5 253.5q1 17 1.5 69.5t2.5 82.5q-127 -21 -331 -21l18 111q162 0 285 -21q-85 132 -110 188q-42 93 -42 183q0 187 144 314.5t364 127.5q58 0 112 -10t111.5 -37t100.5 -70t73 -115t35 -165l-159 -62q-8 88 -37 151t-72 97
t-89 49t-99 15q-134 0 -223 -82.5t-89 -210.5q0 -72 49 -196t60 -177q178 21 457 21l-19 -111q-244 0 -420 21q47 -60 47 -130q0 -132 -107 -261.5t-288 -219.5l16 -24q135 18 293 26.5t241 9.5t273 1z" />
    <glyph glyph-name="currency" unicode="&#xa4;" horiz-adv-x="1351" 
d="M1118 899q0 -94 -35.5 -180.5t-99.5 -151.5l213 -317l-119 -90l-215 319q-97 -51 -211 -51q-111 0 -190 51l-328 -319l-88 90l326 321q-43 78 -43 177q0 90 34.5 176.5t96.5 152.5l-211 320l119 90l213 -318q97 54 213 54q115 0 194 -54l324 318l88 -90l-324 -318
q43 -78 43 -180zM469 772q0 -102 55 -161.5t150 -59.5q126 0 214.5 97.5t88.5 234.5q0 99 -54.5 158t-148.5 59q-125 0 -215 -97.5t-90 -230.5z" />
    <glyph glyph-name="yen" unicode="&#xa5;" horiz-adv-x="1460" 
d="M709 0h-166q32 177 80 295q-156 -27 -402 -27l21 127q254 0 393 -24q-6 72 3 121.5t38 109.5q-148 -24 -400 -24l21 127q211 0 336 -27q-137 311 -389 919h180q243 -610 328 -860h14q61 86 116 167.5t86.5 125.5t133.5 179t297 388h176q-50 -65 -171 -222t-185 -239
t-166 -212.5t-195 -245.5q135 27 350 27l-20 -127q-256 0 -397 24q8 -61 -0.5 -111.5t-40.5 -119.5q148 24 403 24l-20 -127q-251 0 -396 27q5 -131 -28 -295z" />
    <glyph glyph-name="brokenbar" unicode="&#xa6;" horiz-adv-x="534" 
d="M387 838h-143l141 800h145zM162 -451h-146l140 795h145z" />
    <glyph glyph-name="section" unicode="&#xa7;" horiz-adv-x="1095" 
d="M408 -301q-170 0 -284.5 94.5t-131.5 243.5l147 43q25 -115 107 -184.5t190 -69.5q107 0 186.5 65t79.5 156q0 21 -6.5 39.5t-13.5 32t-25 27t-28.5 20.5t-38 19t-37.5 16t-43 16l-102 37q-38 14 -64 25.5t-66.5 36t-65 52t-43.5 70.5t-19 94q0 109 77.5 192.5
t206.5 104.5l6 31q-178 54 -178 221q0 69 33.5 135t91.5 117t143 82t181 31q69 0 126.5 -16.5t105.5 -51t78.5 -94t37.5 -139.5l-156 -47q-14 112 -67 166.5t-154 54.5q-113 0 -186.5 -59t-73.5 -146q0 -29 8.5 -53.5t27.5 -44t35 -33t46.5 -27t45 -19t46.5 -17.5l114 -41
q28 -10 38.5 -14t38.5 -16t41.5 -20.5t36.5 -24t35 -31t25.5 -36.5t19 -46t5.5 -54q0 -113 -84 -204.5t-213 -117.5l-6 -30q188 -42 188 -203q0 -151 -135.5 -267t-326.5 -116zM506 379l47 -17q121 9 195.5 76.5t74.5 155.5q0 29 -10.5 52t-23.5 37.5t-40 28.5t-44.5 20.5
t-52.5 18.5q-10 3 -15 5l-72 24q-86 29 -174 -41t-88 -168q0 -35 15 -64.5t34.5 -48t51 -36t52 -25.5t50.5 -18z" />
    <glyph glyph-name="copyright" unicode="&#xa9;" horiz-adv-x="1933" 
d="M862 -35q-206 0 -364.5 82t-247 237t-88.5 361q0 191 78.5 371.5t211 315.5t318 216.5t387.5 81.5q207 0 365 -82.5t245.5 -237t87.5 -358.5q0 -153 -49.5 -300.5t-141.5 -270.5t-213 -217t-274 -146.5t-315 -52.5zM883 84q175 0 334.5 70.5t272.5 187t180 271.5t67 319
q0 265 -166 423t-434 158q-175 0 -334 -70t-272.5 -186t-180.5 -271t-67 -320q0 -267 166.5 -424.5t433.5 -157.5zM938 350q-164 0 -260 97t-96 262q0 139 66 262t185.5 199.5t262.5 76.5q134 0 221.5 -68.5t109.5 -193.5l-129 -43q-15 90 -74.5 139t-150.5 49
q-101 0 -184.5 -60.5t-127.5 -152t-44 -190.5q0 -124 69.5 -191t180.5 -67q101 0 186.5 58t140.5 165l109 -37q-72 -145 -194 -225t-271 -80z" />
    <glyph glyph-name="guillemotleft" unicode="&#xab;" horiz-adv-x="1173" 
d="M547 164h-174l-262 405l2 9l405 405h174q-100 -98 -147 -143t-130 -115t-161 -121l-10 -59q85 -75 152 -162.5t151 -218.5zM967 164h-174l-263 405l2 9l406 405h174q-100 -98 -147 -143t-130 -115t-161 -121l-10 -59q86 -76 155.5 -166.5t147.5 -214.5z" />
    <glyph glyph-name="logicalnot" unicode="&#xac;" horiz-adv-x="1042" 
d="M834 244h-142l58 321h-603l25 135h741z" />
    <glyph glyph-name="registered" unicode="&#xae;" horiz-adv-x="1163" 
d="M610 737q-170 0 -273.5 101t-103.5 266q0 102 42.5 199t113.5 170t171.5 117t209.5 44q168 0 272.5 -100.5t104.5 -265.5q0 -136 -71 -258t-196 -197.5t-270 -75.5zM627 819q122 0 224 63t158 163t56 210q0 134 -85 216.5t-224 82.5q-120 0 -222 -61.5t-159.5 -161.5
t-57.5 -213q0 -134 84 -216.5t226 -82.5zM571 944h-82l86 492h183q64 0 106.5 -31.5t42.5 -91.5q0 -62 -39 -112.5t-100 -65.5l94 -191h-92l-90 180h-76zM645 1362l-27 -162h97q46 0 75 27t29 67q0 34 -22.5 51t-59.5 17h-92z" />
    <glyph glyph-name="degree" unicode="&#xb0;" horiz-adv-x="772" 
d="M469 1055q-110 0 -178 67t-68 174q0 139 103 246t247 107q110 0 178 -68t68 -176q0 -137 -103.5 -243.5t-246.5 -106.5zM487 1155q90 0 156 71t66 163q0 70 -42 113.5t-110 43.5q-90 0 -155.5 -70.5t-65.5 -162.5q0 -69 41.5 -113.5t109.5 -44.5z" />
    <glyph glyph-name="plusminus" unicode="&#xb1;" horiz-adv-x="1056" 
d="M948 791l-22 -132h-312l-36 -208h309l-21 -125h-757l22 125h307l37 208h-307l22 132h310l41 243h139l-41 -243h309z" />
    <glyph glyph-name="uni00B2" unicode="&#xb2;" horiz-adv-x="647" 
d="M616 797h-493l4 12q27 120 83 184t208 154q27 16 44 28t48 38t48 55.5t17 60.5q0 38 -26.5 62t-71.5 24q-64 0 -112 -44.5t-60 -117.5l-115 19q20 114 107.5 186t202.5 72q93 0 151 -49t58 -131q0 -84 -52 -147t-122 -105q-18 -11 -54.5 -32t-55 -33t-44 -31t-42 -41
t-28.5 -48h326z" />
    <glyph glyph-name="uni00B3" unicode="&#xb3;" horiz-adv-x="657" 
d="M362 780q-99 0 -164.5 45.5t-74.5 118.5l121 55q11 -53 45 -82.5t90 -29.5q65 0 109 39.5t44 95.5q0 46 -33.5 69t-92.5 23h-72l16 92h76q61 0 104 36t43 91q0 38 -29 62t-75 24q-54 0 -94.5 -30.5t-57.5 -85.5l-110 24q25 88 107.5 145.5t183.5 57.5q90 0 149.5 -44
t59.5 -116q0 -66 -44 -122.5t-106 -71.5v-2q50 -9 80.5 -46t30.5 -90q0 -102 -89.5 -180t-216.5 -78z" />
    <glyph glyph-name="paragraph" unicode="&#xb6;" horiz-adv-x="1478" 
d="M772 -287h-164l166 942h-211q-186 0 -292.5 104t-106.5 283q0 111 43.5 212t120.5 177t191.5 121t248.5 45h336zM1098 -287h-164l332 1884h164z" />
    <glyph glyph-name="periodcentered" unicode="&#xb7;" horiz-adv-x="563" 
d="M266 477q-55 0 -89 36t-34 89q0 70 54 123t125 53q53 0 86.5 -34.5t33.5 -86.5q0 -68 -54 -124t-122 -56z" />
    <glyph glyph-name="uni00B9" unicode="&#xb9;" horiz-adv-x="454" 
d="M371 797h-127l88 508q-76 -69 -170 -84l24 129q73 21 125.5 65.5t61.5 97.5h123z" />
    <glyph glyph-name="guillemotright" unicode="&#xbb;" horiz-adv-x="1173" 
d="M645 569l-405 -405h-174q7 7 48 47t52.5 51.5t49 47.5t55 51.5l52.5 46.5t59.5 50t56.5 43t63 44l10 59q-86 75 -153 163t-148 216h174l262 -405zM1065 569l-406 -405h-174q99 97 141 137.5t130.5 116.5t165.5 127l10 59q-86 75 -153 163t-148 216h174l262 -405z" />
    <glyph glyph-name="onequarter" unicode="&#xbc;" horiz-adv-x="1374" 
d="M371 797h-127l88 508q-76 -69 -170 -84l24 129q73 21 125.5 65.5t61.5 97.5h123zM25 0h-150l1397 1468h141zM1118 -14h-123l29 155h-350l18 107l434 457h119l-80 -457h97l-19 -107h-98zM1094 541l-277 -293h225z" />
    <glyph glyph-name="onehalf" unicode="&#xbd;" horiz-adv-x="1413" 
d="M371 797h-127l88 508q-76 -69 -170 -84l24 129q73 21 125.5 65.5t61.5 97.5h123zM25 0h-150l1397 1468h141zM1241 -14h-493l4 14q28 120 83 184t207 154q27 17 44 28.5t48.5 37.5t48.5 55.5t17 60.5q0 38 -26.5 62t-71.5 24q-64 0 -112 -44.5t-60 -117.5l-115 19
q20 115 107 186.5t202 71.5q93 0 151 -49t58 -131q0 -84 -52 -147t-122 -105q-18 -11 -55 -32t-55 -33t-43 -31.5t-41.5 -41t-28.5 -47.5h326z" />
    <glyph glyph-name="threequarters" unicode="&#xbe;" horiz-adv-x="1576" 
d="M362 780q-99 0 -164.5 45.5t-74.5 118.5l121 55q11 -53 45 -82.5t90 -29.5q65 0 109 39.5t44 95.5q0 46 -33.5 69t-92.5 23h-72l16 92h76q61 0 104 36t43 91q0 38 -29 62t-75 24q-54 0 -94.5 -30.5t-57.5 -85.5l-110 24q25 88 107.5 145.5t183.5 57.5q90 0 149.5 -44
t59.5 -116q0 -66 -44 -122.5t-106 -71.5v-2q50 -9 80.5 -46t30.5 -90q0 -102 -89.5 -180t-216.5 -78zM227 0h-149l1397 1468h141zM1321 -14h-123l29 155h-350l18 107l434 457h119l-80 -457h96l-18 -107h-98zM1296 541l-276 -293h225z" />
    <glyph glyph-name="questiondown" unicode="&#xbf;" horiz-adv-x="1091" 
d="M664 920q-44 0 -73.5 28.5t-29.5 71.5q0 56 44.5 100.5t99.5 44.5q45 0 74.5 -30.5t29.5 -73.5q0 -55 -43.5 -98t-101.5 -43zM362 -481q-173 0 -288 94t-115 258q0 74 28 146.5t64.5 123.5t94 105t94 81.5t86.5 61.5q42 29 59.5 41.5t50 38t48 42.5t35 42.5t30 52
t16.5 56.5q4 24 4 47h160q0 -31 -6 -68q-10 -56 -33 -101.5t-67 -88t-85 -73t-114 -79.5q-41 -29 -71 -51.5t-74.5 -64t-73 -80.5t-49.5 -92t-21 -107q0 -109 74 -172.5t188 -63.5q133 0 243.5 88.5t135.5 233.5q3 15 5 37t3 24l142 -26q0 -26 -4 -58
q-24 -132 -108.5 -235.5t-203 -158t-248.5 -54.5z" />
    <glyph glyph-name="Agrave" unicode="&#xc0;" horiz-adv-x="1517" 
d="M1063 1722h-143l-279 328h223zM100 0h-176l926 1597h184l361 -1597h-176q-30 126 -42.5 181.5t-30.5 166t-24 199.5l-16 18q-210 -26 -344 -26q-138 0 -344 26l-25 -20q-97 -205 -293 -545zM475 688l12 -20q182 24 306 24q123 0 270 -24l14 18q-113 410 -139 754h-51
q-154 -351 -412 -752z" />
    <glyph glyph-name="Aacute" unicode="&#xc1;" horiz-adv-x="1517" 
d="M1413 2050l-395 -328h-144l316 328h223zM100 0h-176l926 1597h184l361 -1597h-176q-30 126 -42.5 181.5t-30.5 166t-24 199.5l-16 18q-210 -26 -344 -26q-138 0 -344 26l-25 -20q-97 -205 -293 -545zM475 688l12 -20q182 24 306 24q123 0 270 -24l14 18
q-113 410 -139 754h-51q-154 -351 -412 -752z" />
    <glyph glyph-name="Acircumflex" unicode="&#xc2;" horiz-adv-x="1517" 
d="M745 1722h-145l326 314h186l217 -314h-145q-42 46 -62 70.5t-46.5 71t-41.5 98.5h-51q-52 -75 -108 -129.5t-130 -110.5zM100 0h-176l926 1597h184l361 -1597h-176q-30 126 -42.5 181.5t-30.5 166t-24 199.5l-16 18q-210 -26 -344 -26q-138 0 -344 26l-25 -20
q-97 -205 -293 -545zM475 688l12 -20q182 24 306 24q123 0 270 -24l14 18q-113 410 -139 754h-51q-154 -351 -412 -752z" />
    <glyph glyph-name="Atilde" unicode="&#xc3;" horiz-adv-x="1517" 
d="M1116 1745q-33 0 -61 11.5t-42.5 23t-41.5 37.5l-37 32q-17 17 -25 24t-26 16t-37 9q-46 0 -80 -38.5t-45 -98.5h-117q22 115 95 186.5t169 71.5q31 0 58 -10.5t42.5 -22t37.5 -32.5l38 -35q44 -51 93 -51q44 0 75.5 38t42.5 99h117q-20 -121 -88.5 -190.5t-167.5 -69.5z
M100 0h-176l926 1597h184l361 -1597h-176q-30 126 -42.5 181.5t-30.5 166t-24 199.5l-16 18q-210 -26 -344 -26q-138 0 -344 26l-25 -20q-97 -205 -293 -545zM475 688l12 -20q182 24 306 24q123 0 270 -24l14 18q-113 410 -139 754h-51q-154 -351 -412 -752z" />
    <glyph glyph-name="Adieresis" unicode="&#xc4;" horiz-adv-x="1517" 
d="M772 1780q-44 0 -71 27t-27 69q0 55 41.5 96t97.5 41q42 0 69 -27t27 -67q0 -55 -41 -97t-96 -42zM1178 1780q-44 0 -71.5 27t-27.5 69q0 56 41.5 96.5t98.5 40.5q41 0 68.5 -27.5t27.5 -68.5q0 -53 -41.5 -95t-95.5 -42zM100 0h-176l926 1597h184l361 -1597h-176
q-30 126 -42.5 181.5t-30.5 166t-24 199.5l-16 18q-210 -26 -344 -26q-138 0 -344 26l-25 -20q-97 -205 -293 -545zM475 688l12 -20q182 24 306 24q123 0 270 -24l14 18q-113 410 -139 754h-51q-154 -351 -412 -752z" />
    <glyph glyph-name="Aring" unicode="&#xc5;" horiz-adv-x="1517" 
d="M961 1716q-86 0 -140.5 51.5t-54.5 133.5q0 104 80.5 183t193.5 79q86 0 140.5 -52t54.5 -135q0 -103 -81 -181.5t-193 -78.5zM977 1812q64 0 110 45t46 107q0 45 -31.5 72.5t-79.5 27.5q-64 0 -109 -43.5t-45 -105.5q0 -47 30.5 -75t78.5 -28zM100 0h-176l926 1597h184
l361 -1597h-176q-30 126 -42.5 181.5t-30.5 166t-24 199.5l-16 18q-210 -26 -344 -26q-138 0 -344 26l-25 -20q-97 -205 -293 -545zM475 688l12 -20q182 24 306 24q123 0 270 -24l14 18q-113 410 -139 754h-51q-154 -351 -412 -752z" />
    <glyph glyph-name="AE" unicode="&#xc6;" horiz-adv-x="2125" 
d="M43 0h-180l1218 1597h1104l-26 -151q-554 0 -873 33q-5 -293 -98 -607q307 25 833 25l-28 -156q-525 0 -824 27q-21 -329 -112 -645q328 33 895 33l-29 -156h-1030q62 348 117 563q-289 -36 -570 0q-59 -98 -136 -209t-118 -165.5t-143 -188.5zM545 670q249 35 493 0
q30 362 129 803h-41q-196 -322 -581 -803z" />
    <glyph glyph-name="Ccedilla" unicode="&#xc7;" horiz-adv-x="1716" 
d="M848 121q120 0 228.5 37.5t193 104t149 149t109.5 180.5l141 -53q-82 -167 -202 -292.5t-286 -202t-356 -79.5q-52 -57 -131 -121l8 -10q58 31 111 31q70 0 113 -37.5t43 -101.5q0 -90 -78.5 -156t-192.5 -66q-74 0 -138 30.5t-101 84.5l73 66q26 -43 74.5 -68t100.5 -25
q63 0 107 34t44 83q0 36 -30 58t-76 22q-51 0 -99 -25l-51 54l123 151q-276 25 -436 202t-160 462q0 192 76 374t203.5 319t307.5 220.5t376 83.5q115 0 218.5 -30t187.5 -87t141.5 -148t76.5 -206l-162 -61q-39 178 -171.5 277.5t-321.5 99.5q-125 0 -241.5 -45
t-208.5 -124.5t-161 -183t-106 -225t-37 -244.5q0 -134 44.5 -238t120.5 -167t171.5 -95t204.5 -32z" />
    <glyph glyph-name="Egrave" unicode="&#xc8;" horiz-adv-x="1343" 
d="M995 1722h-143l-279 328h224zM1141 0h-1030l282 1597h1010l-27 -151q-28 0 -156 -0.5t-178.5 0t-152.5 3t-185 9t-169 17.5l-27 -21q-11 -270 -98 -567l14 -23q141 15 296.5 23t251 9t267.5 1l-29 -156q-172 0 -267 1t-247 9.5t-284 24.5l-25 -22q-21 -315 -111 -607
l21 -24q147 15 313 23t269.5 9t289.5 1z" />
    <glyph glyph-name="Eacute" unicode="&#xc9;" horiz-adv-x="1343" 
d="M1343 2050l-395 -328h-143l315 328h223zM1141 0h-1030l282 1597h1010l-27 -151q-28 0 -156 -0.5t-178.5 0t-152.5 3t-185 9t-169 17.5l-27 -21q-11 -270 -98 -567l14 -23q141 15 296.5 23t251 9t267.5 1l-29 -156q-172 0 -267 1t-247 9.5t-284 24.5l-25 -22
q-21 -315 -111 -607l21 -24q147 15 313 23t269.5 9t289.5 1z" />
    <glyph glyph-name="Ecircumflex" unicode="&#xca;" horiz-adv-x="1343" 
d="M676 1722h-146l326 314h186l218 -314h-146q-41 45 -61.5 70.5t-46 71.5t-41.5 98h-52q-52 -75 -108 -130t-129 -110zM1141 0h-1030l282 1597h1010l-27 -151q-28 0 -156 -0.5t-178.5 0t-152.5 3t-185 9t-169 17.5l-27 -21q-11 -270 -98 -567l14 -23q141 15 296.5 23t251 9
t267.5 1l-29 -156q-172 0 -267 1t-247 9.5t-284 24.5l-25 -22q-21 -315 -111 -607l21 -24q147 15 313 23t269.5 9t289.5 1z" />
    <glyph glyph-name="Edieresis" unicode="&#xcb;" horiz-adv-x="1343" 
d="M702 1780q-44 0 -71 27t-27 69q0 55 41.5 96t97.5 41q42 0 69.5 -27t27.5 -67q0 -54 -41.5 -96.5t-96.5 -42.5zM1108 1780q-44 0 -71 27t-27 69q0 56 41 96.5t98 40.5q41 0 68.5 -27.5t27.5 -68.5q0 -53 -41.5 -95t-95.5 -42zM1141 0h-1030l282 1597h1010l-27 -151
q-28 0 -156 -0.5t-178.5 0t-152.5 3t-185 9t-169 17.5l-27 -21q-11 -270 -98 -567l14 -23q141 15 296.5 23t251 9t267.5 1l-29 -156q-172 0 -267 1t-247 9.5t-284 24.5l-25 -22q-21 -315 -111 -607l21 -24q147 15 313 23t269.5 9t289.5 1z" />
    <glyph glyph-name="Igrave" unicode="&#xcc;" horiz-adv-x="585" 
d="M598 1722h-143l-279 328h223zM276 0h-165l282 1597h166z" />
    <glyph glyph-name="Iacute" unicode="&#xcd;" horiz-adv-x="585" 
d="M948 2050l-395 -328h-143l315 328h223zM276 0h-165l282 1597h166z" />
    <glyph glyph-name="Icircumflex" unicode="&#xce;" horiz-adv-x="585" 
d="M279 1722h-146l326 314h186l217 -314h-145q-42 46 -62 70.5t-46.5 71t-41.5 98.5h-51q-52 -75 -108 -130t-129 -110zM276 0h-165l282 1597h166z" />
    <glyph glyph-name="Idieresis" unicode="&#xcf;" horiz-adv-x="585" 
d="M305 1780q-44 0 -71 27t-27 69q0 55 41.5 96t97.5 41q42 0 69 -27t27 -67q0 -55 -41 -97t-96 -42zM711 1780q-44 0 -71.5 27t-27.5 69q0 56 41.5 96.5t98.5 40.5q41 0 68.5 -27.5t27.5 -68.5q0 -53 -41.5 -95t-95.5 -42zM276 0h-165l282 1597h166z" />
    <glyph glyph-name="Eth" unicode="&#xd0;" horiz-adv-x="1646" 
d="M393 1597h570q165 0 288 -44t198 -126.5t111.5 -193t36.5 -250.5q0 -150 -41 -294.5t-120 -268.5t-186.5 -218.5t-250 -148t-301.5 -53.5h-587l129 731h-177l23 135h178zM707 152q163 0 300 65.5t226 175t138.5 251t49.5 296.5q0 256 -134.5 381t-379.5 125q-86 0 -131 1
t-112.5 7.5t-128.5 20.5l-27 -21q-25 -269 -78 -588h508l-23 -135h-509q-60 -317 -130 -584l21 -24q164 29 410 29z" />
    <glyph glyph-name="Ntilde" unicode="&#xd1;" horiz-adv-x="1687" 
d="M1194 1790q-33 0 -61 11.5t-42.5 23t-41.5 37.5l-37 32q-18 18 -25 24.5t-25.5 16t-37.5 9.5q-46 0 -80 -39t-45 -99h-117q22 115 95 186.5t169 71.5q31 0 58 -10.5t42 -22t37 -32.5l39 -35q44 -51 92 -51q44 0 76 38.5t43 98.5h117q-20 -121 -88.5 -190.5t-167.5 -69.5z
M276 0h-165l282 1597h154q413 -719 710 -1366h27q9 80 18 158t21.5 164.5t21 147.5t24.5 158.5t23 143.5t26 155.5t24.5 140.5t27 154t25.5 144h166l-283 -1597h-151q-463 800 -717 1341h-25q-23 -211 -59.5 -456t-59 -374t-75.5 -426q-10 -57 -15 -85z" />
    <glyph glyph-name="Ograve" unicode="&#xd2;" horiz-adv-x="1806" 
d="M1206 1722h-143l-279 328h224zM799 -35q-145 0 -269 49t-213 136.5t-139.5 214.5t-50.5 278q0 189 78.5 370t209 316t309 218t368.5 83q197 0 349.5 -87t236 -241.5t83.5 -351.5q0 -151 -50 -298.5t-141 -270t-209.5 -217t-264.5 -147t-297 -52.5zM827 121
q147 0 286.5 68.5t241.5 179.5t164 259t62 300q0 242 -144.5 394.5t-371.5 152.5q-194 0 -370 -113.5t-282 -300.5t-106 -393q0 -121 39.5 -223.5t108.5 -173.5t165 -110.5t207 -39.5z" />
    <glyph glyph-name="Oacute" unicode="&#xd3;" horiz-adv-x="1806" 
d="M1554 2050l-395 -328h-143l315 328h223zM799 -35q-145 0 -269 49t-213 136.5t-139.5 214.5t-50.5 278q0 189 78.5 370t209 316t309 218t368.5 83q197 0 349.5 -87t236 -241.5t83.5 -351.5q0 -151 -50 -298.5t-141 -270t-209.5 -217t-264.5 -147t-297 -52.5zM827 121
q147 0 286.5 68.5t241.5 179.5t164 259t62 300q0 242 -144.5 394.5t-371.5 152.5q-194 0 -370 -113.5t-282 -300.5t-106 -393q0 -121 39.5 -223.5t108.5 -173.5t165 -110.5t207 -39.5z" />
    <glyph glyph-name="Ocircumflex" unicode="&#xd4;" horiz-adv-x="1806" 
d="M887 1722h-146l326 314h186l217 -314h-145q-41 45 -61.5 70.5t-46 71.5t-41.5 98h-52q-52 -75 -108 -130t-129 -110zM799 -35q-145 0 -269 49t-213 136.5t-139.5 214.5t-50.5 278q0 189 78.5 370t209 316t309 218t368.5 83q197 0 349.5 -87t236 -241.5t83.5 -351.5
q0 -151 -50 -298.5t-141 -270t-209.5 -217t-264.5 -147t-297 -52.5zM827 121q147 0 286.5 68.5t241.5 179.5t164 259t62 300q0 242 -144.5 394.5t-371.5 152.5q-194 0 -370 -113.5t-282 -300.5t-106 -393q0 -121 39.5 -223.5t108.5 -173.5t165 -110.5t207 -39.5z" />
    <glyph glyph-name="Otilde" unicode="&#xd5;" horiz-adv-x="1806" 
d="M1272 1790q-33 0 -61 11.5t-43.5 23.5t-41.5 37l-36 32q-17 17 -25 24.5t-26.5 16.5t-37.5 9q-46 0 -79.5 -39t-44.5 -99h-117q22 115 95 186.5t169 71.5q31 0 58 -10.5t42 -22t37 -32.5l39 -35q44 -51 92 -51q44 0 76 38.5t43 98.5h117q-20 -121 -88.5 -190.5
t-167.5 -69.5zM799 -35q-145 0 -269 49t-213 136.5t-139.5 214.5t-50.5 278q0 189 78.5 370t209 316t309 218t368.5 83q197 0 349.5 -87t236 -241.5t83.5 -351.5q0 -151 -50 -298.5t-141 -270t-209.5 -217t-264.5 -147t-297 -52.5zM827 121q147 0 286.5 68.5t241.5 179.5
t164 259t62 300q0 242 -144.5 394.5t-371.5 152.5q-194 0 -370 -113.5t-282 -300.5t-106 -393q0 -121 39.5 -223.5t108.5 -173.5t165 -110.5t207 -39.5z" />
    <glyph glyph-name="Odieresis" unicode="&#xd6;" horiz-adv-x="1806" 
d="M913 1780q-44 0 -71 27t-27 69q0 55 41.5 96t97.5 41q42 0 69.5 -27t27.5 -67q0 -54 -41.5 -96.5t-96.5 -42.5zM1319 1780q-44 0 -71 27t-27 69q0 56 41 96.5t98 40.5q41 0 68.5 -27.5t27.5 -68.5q0 -53 -41.5 -95t-95.5 -42zM799 -35q-145 0 -269 49t-213 136.5
t-139.5 214.5t-50.5 278q0 189 78.5 370t209 316t309 218t368.5 83q197 0 349.5 -87t236 -241.5t83.5 -351.5q0 -151 -50 -298.5t-141 -270t-209.5 -217t-264.5 -147t-297 -52.5zM827 121q147 0 286.5 68.5t241.5 179.5t164 259t62 300q0 242 -144.5 394.5t-371.5 152.5
q-194 0 -370 -113.5t-282 -300.5t-106 -393q0 -121 39.5 -223.5t108.5 -173.5t165 -110.5t207 -39.5z" />
    <glyph glyph-name="multiply" unicode="&#xd7;" horiz-adv-x="937" 
d="M387 625l-192 231l112 96l195 -231l264 225l78 -96l-264 -223l188 -234l-113 -94l-188 231l-270 -227l-76 94z" />
    <glyph glyph-name="Oslash" unicode="&#xd8;" horiz-adv-x="1806" 
d="M1599 1661h173l-193 -223q87 -92 134.5 -217t47.5 -271q0 -151 -50 -298.5t-141 -270t-209.5 -217t-264.5 -147t-297 -52.5q-222 0 -393 113l-123 -144h-170l194 228q-180 186 -180 481q0 189 78.5 370t209 316t309 218t368.5 83q225 0 387 -110zM307 668
q0 -217 121 -367l934 1085q-133 89 -297 89q-194 0 -370 -113.5t-282 -300.5t-106 -393zM1581 928q0 219 -123 370l-936 -1085q131 -92 305 -92q147 0 286.5 68.5t241.5 179.5t164 259t62 300z" />
    <glyph glyph-name="Ugrave" unicode="&#xd9;" horiz-adv-x="1540" 
d="M1077 1722h-143l-279 328h224zM662 -35q-284 0 -400.5 165t-64.5 456l180 1011h166l-178 -1001q-41 -233 42.5 -355t284.5 -122q202 0 330 123.5t168 353.5l176 1001h166l-178 -1011q-18 -104 -53 -194t-93 -169.5t-134 -136t-181.5 -89t-230.5 -32.5z" />
    <glyph glyph-name="Uacute" unicode="&#xda;" horiz-adv-x="1540" 
d="M1317 2050l-395 -330h-144l316 330h223zM662 -35q-284 0 -400.5 165t-64.5 456l180 1011h166l-178 -1001q-41 -233 42.5 -355t284.5 -122q202 0 330 123.5t168 353.5l176 1001h166l-178 -1011q-18 -104 -53 -194t-93 -169.5t-134 -136t-181.5 -89t-230.5 -32.5z" />
    <glyph glyph-name="Ucircumflex" unicode="&#xdb;" horiz-adv-x="1540" 
d="M758 1722h-146l326 314h186l217 -314h-145q-41 45 -61.5 70.5t-46 71.5t-41.5 98h-52q-52 -75 -108 -130t-129 -110zM662 -35q-284 0 -400.5 165t-64.5 456l180 1011h166l-178 -1001q-41 -233 42.5 -355t284.5 -122q202 0 330 123.5t168 353.5l176 1001h166l-178 -1011
q-18 -104 -53 -194t-93 -169.5t-134 -136t-181.5 -89t-230.5 -32.5z" />
    <glyph glyph-name="Udieresis" unicode="&#xdc;" horiz-adv-x="1540" 
d="M784 1780q-44 0 -71 27t-27 69q0 55 41.5 96t97.5 41q42 0 69.5 -27t27.5 -67q0 -54 -41.5 -96.5t-96.5 -42.5zM1190 1780q-44 0 -71 27t-27 69q0 56 41 96.5t98 40.5q41 0 68.5 -27.5t27.5 -68.5q0 -53 -41.5 -95t-95.5 -42zM662 -35q-284 0 -400.5 165t-64.5 456
l180 1011h166l-178 -1001q-41 -233 42.5 -355t284.5 -122q202 0 330 123.5t168 353.5l176 1001h166l-178 -1011q-18 -104 -53 -194t-93 -169.5t-134 -136t-181.5 -89t-230.5 -32.5z" />
    <glyph glyph-name="Yacute" unicode="&#xdd;" horiz-adv-x="1411" 
d="M1329 2050l-395 -330h-143l315 330h223zM688 0h-166q84 450 117 582q-203 461 -424 1015h180q79 -198 116 -293.5t100 -272.5t108 -326h24q31 48 64.5 98t61 91t66.5 95.5t61.5 87t66.5 91.5t62 84t67 90t62 82.5t66.5 88.5t63.5 84h179q-555 -728 -783 -1015
q-24 -203 -92 -582z" />
    <glyph glyph-name="Thorn" unicode="&#xde;" horiz-adv-x="1394" 
d="M276 0h-165l282 1597h166q-18 -98 -70 -280h422q93 0 173 -23.5t143.5 -69.5t100 -122t36.5 -174q0 -109 -43 -213t-119 -185t-191 -130.5t-249 -49.5q-107 0 -161 1.5t-132.5 11.5t-144.5 30q-2 -17 -7.5 -77.5t-9.5 -98t-12.5 -99.5t-18.5 -118zM340 487l16 -20
q145 33 387 33q193 0 318 108t125 279q0 141 -89 209.5t-245 68.5q-238 0 -367 27l-28 -18q-22 -336 -117 -687z" />
    <glyph glyph-name="germandbls" unicode="&#xdf;" horiz-adv-x="1271" 
d="M233 0h-155l203 1143q7 38 16 76t30.5 93t48.5 102t71.5 96.5t99 84t132 56.5t167.5 22q196 0 305 -96t109 -262q0 -174 -112 -308.5t-274 -146.5l-6 -31q151 -9 229.5 -86.5t78.5 -212.5q0 -103 -46 -199t-127 -169.5t-199.5 -117.5t-254.5 -44h-146l25 137h162
q173 0 295.5 112.5t122.5 266.5q0 115 -73 182.5t-192 67.5h-102l25 137h88q97 0 175 54.5t119.5 141t41.5 183.5q0 114 -66 182t-199 68q-81 0 -147 -27t-106 -66t-69 -91.5t-42 -93t-19 -80.5z" />
    <glyph glyph-name="agrave" unicode="&#xe0;" horiz-adv-x="1177" 
d="M801 1278h-137l-244 391h207zM348 -35q-138 0 -225.5 63.5t-87.5 192.5q0 80 36.5 145.5t102.5 112.5t148 79t182 52q28 6 72 14t68.5 13t60.5 13t56 15.5t46 18.5t40 24t27.5 30.5t19 39.5t5.5 49q0 89 -63.5 147t-171.5 58t-197.5 -61t-140.5 -168l-142 51
q51 105 137 177t180 103t195 31q83 0 153.5 -22.5t123 -67t75 -119.5t5.5 -172l-76 -430q-21 -120 -26.5 -192t1.5 -162h-157q-8 46 -0.5 111.5t39.5 144.5h-25q-165 -291 -461 -291zM399 92q84 0 163 35.5t134 90.5t91.5 116.5t46.5 116.5l28 159q-55 -44 -108 -63
t-172 -43q-52 -10 -93 -20.5t-97 -32.5t-93.5 -48t-64.5 -67.5t-27 -91.5q0 -73 51.5 -112.5t140.5 -39.5z" />
    <glyph glyph-name="aacute" unicode="&#xe1;" horiz-adv-x="1177" 
d="M1163 1669l-379 -391h-137l311 391h205zM348 -35q-138 0 -225.5 63.5t-87.5 192.5q0 80 36.5 145.5t102.5 112.5t148 79t182 52q28 6 72 14t68.5 13t60.5 13t56 15.5t46 18.5t40 24t27.5 30.5t19 39.5t5.5 49q0 89 -63.5 147t-171.5 58t-197.5 -61t-140.5 -168l-142 51
q51 105 137 177t180 103t195 31q83 0 153.5 -22.5t123 -67t75 -119.5t5.5 -172l-76 -430q-21 -120 -26.5 -192t1.5 -162h-157q-8 46 -0.5 111.5t39.5 144.5h-25q-165 -291 -461 -291zM399 92q84 0 163 35.5t134 90.5t91.5 116.5t46.5 116.5l28 159q-55 -44 -108 -63
t-172 -43q-52 -10 -93 -20.5t-97 -32.5t-93.5 -48t-64.5 -67.5t-27 -91.5q0 -73 51.5 -112.5t140.5 -39.5z" />
    <glyph glyph-name="acircumflex" unicode="&#xe2;" horiz-adv-x="1177" 
d="M479 1278h-147l360 360h193l233 -360h-147q-49 62 -69 88.5t-52.5 80.5t-50.5 103h-47q-82 -116 -273 -272zM348 -35q-138 0 -225.5 63.5t-87.5 192.5q0 80 36.5 145.5t102.5 112.5t148 79t182 52q28 6 72 14t68.5 13t60.5 13t56 15.5t46 18.5t40 24t27.5 30.5t19 39.5
t5.5 49q0 89 -63.5 147t-171.5 58t-197.5 -61t-140.5 -168l-142 51q51 105 137 177t180 103t195 31q83 0 153.5 -22.5t123 -67t75 -119.5t5.5 -172l-76 -430q-21 -120 -26.5 -192t1.5 -162h-157q-8 46 -0.5 111.5t39.5 144.5h-25q-165 -291 -461 -291zM399 92q84 0 163 35.5
t134 90.5t91.5 116.5t46.5 116.5l28 159q-55 -44 -108 -63t-172 -43q-52 -10 -93 -20.5t-97 -32.5t-93.5 -48t-64.5 -67.5t-27 -91.5q0 -73 51.5 -112.5t140.5 -39.5z" />
    <glyph glyph-name="atilde" unicode="&#xe3;" horiz-adv-x="1177" 
d="M887 1323q-33 0 -61 11.5t-43.5 23.5t-41.5 37l-36 32q-17 17 -25 24.5t-26.5 16.5t-37.5 9q-46 0 -79.5 -39t-44.5 -99h-117q22 115 95 186.5t169 71.5q31 0 58 -10.5t42 -22t37 -32.5l39 -35q44 -51 92 -51q44 0 76 38.5t43 98.5h117q-20 -121 -88.5 -190.5
t-167.5 -69.5zM348 -35q-138 0 -225.5 63.5t-87.5 192.5q0 80 36.5 145.5t102.5 112.5t148 79t182 52q28 6 72 14t68.5 13t60.5 13t56 15.5t46 18.5t40 24t27.5 30.5t19 39.5t5.5 49q0 89 -63.5 147t-171.5 58t-197.5 -61t-140.5 -168l-142 51q51 105 137 177t180 103
t195 31q83 0 153.5 -22.5t123 -67t75 -119.5t5.5 -172l-76 -430q-21 -120 -26.5 -192t1.5 -162h-157q-8 46 -0.5 111.5t39.5 144.5h-25q-165 -291 -461 -291zM399 92q84 0 163 35.5t134 90.5t91.5 116.5t46.5 116.5l28 159q-55 -44 -108 -63t-172 -43q-52 -10 -93 -20.5
t-97 -32.5t-93.5 -48t-64.5 -67.5t-27 -91.5q0 -73 51.5 -112.5t140.5 -39.5z" />
    <glyph glyph-name="adieresis" unicode="&#xe4;" horiz-adv-x="1177" 
d="M557 1362q-41 0 -67.5 27t-26.5 67q0 52 40.5 92.5t92.5 40.5q42 0 68 -26.5t26 -65.5q0 -53 -40 -94t-93 -41zM924 1362q-42 0 -68.5 27t-26.5 67q0 54 40.5 93.5t93.5 39.5q41 0 67.5 -27t26.5 -67q0 -51 -40.5 -92t-92.5 -41zM348 -35q-138 0 -225.5 63.5t-87.5 192.5
q0 80 36.5 145.5t102.5 112.5t148 79t182 52q28 6 72 14t68.5 13t60.5 13t56 15.5t46 18.5t40 24t27.5 30.5t19 39.5t5.5 49q0 89 -63.5 147t-171.5 58t-197.5 -61t-140.5 -168l-142 51q51 105 137 177t180 103t195 31q83 0 153.5 -22.5t123 -67t75 -119.5t5.5 -172
l-76 -430q-21 -120 -26.5 -192t1.5 -162h-157q-8 46 -0.5 111.5t39.5 144.5h-25q-165 -291 -461 -291zM399 92q84 0 163 35.5t134 90.5t91.5 116.5t46.5 116.5l28 159q-55 -44 -108 -63t-172 -43q-52 -10 -93 -20.5t-97 -32.5t-93.5 -48t-64.5 -67.5t-27 -91.5
q0 -73 51.5 -112.5t140.5 -39.5z" />
    <glyph glyph-name="aring" unicode="&#xe5;" horiz-adv-x="1177" 
d="M719 1249q-86 0 -140.5 51.5t-54.5 133.5q0 104 81 183t194 79q86 0 140 -52t54 -135q0 -103 -81 -181.5t-193 -78.5zM735 1346q64 0 110 44.5t46 106.5q0 45 -31.5 72.5t-79.5 27.5q-64 0 -108.5 -43.5t-44.5 -105.5q0 -47 30 -74.5t78 -27.5zM348 -35
q-138 0 -225.5 63.5t-87.5 192.5q0 80 36.5 145.5t102.5 112.5t148 79t182 52q28 6 72 14t68.5 13t60.5 13t56 15.5t46 18.5t40 24t27.5 30.5t19 39.5t5.5 49q0 89 -63.5 147t-171.5 58t-197.5 -61t-140.5 -168l-142 51q51 105 137 177t180 103t195 31q83 0 153.5 -22.5
t123 -67t75 -119.5t5.5 -172l-76 -430q-21 -120 -26.5 -192t1.5 -162h-157q-8 46 -0.5 111.5t39.5 144.5h-25q-165 -291 -461 -291zM399 92q84 0 163 35.5t134 90.5t91.5 116.5t46.5 116.5l28 159q-55 -44 -108 -63t-172 -43q-52 -10 -93 -20.5t-97 -32.5t-93.5 -48
t-64.5 -67.5t-27 -91.5q0 -73 51.5 -112.5t140.5 -39.5z" />
    <glyph glyph-name="ae" unicode="&#xe6;" horiz-adv-x="2031" 
d="M344 -35q-141 0 -225 64t-84 190q0 68 27 126t71 99.5t106 75t126.5 55t138.5 35.5q27 6 74.5 14.5t74 13.5t65 14.5t61 18.5t48.5 24t39.5 33t23 43t9.5 56q0 92 -67 148.5t-170 56.5q-107 0 -196.5 -61.5t-139.5 -167.5l-142 51q74 154 215 232.5t297 78.5
q83 0 152.5 -23t123 -81t66.5 -146q92 124 216.5 187t265.5 63q50 0 97.5 -8t97.5 -26.5t90 -49t75 -74.5t52.5 -103.5t23 -136.5t-13.5 -173l-11 -55h-919q-29 -193 63.5 -313t263.5 -120q136 0 250 76t185 199l135 -53q-95 -170 -253.5 -266.5t-342.5 -96.5
q-172 0 -286 84.5t-132 255.5h-27q-81 -156 -219.5 -248t-304.5 -92zM1040 662h748q11 79 -1 143t-40.5 104.5t-70.5 68t-88 39t-97 11.5q-153 0 -275 -99t-176 -267zM399 90q80 0 159 36t135 91t94 117t47 117l28 161q-59 -45 -119 -67.5t-153 -36.5q-32 -5 -63.5 -12
t-79.5 -20.5t-87 -34t-75.5 -47t-57 -64.5t-20.5 -82q0 -75 52.5 -116.5t139.5 -41.5z" />
    <glyph glyph-name="ccedilla" unicode="&#xe7;" horiz-adv-x="1239" 
d="M582 111q138 0 252 77t186 205l133 -53q-93 -175 -245.5 -271t-329.5 -104q-54 -56 -134 -121l9 -10q58 31 110 31q70 0 113 -37.5t43 -101.5q0 -91 -78 -156.5t-192 -65.5q-74 0 -139 30.5t-101 84.5l74 66q26 -43 74 -68t100 -25q63 0 107 34t44 83q0 36 -30 58t-76 22
q-51 0 -99 -25l-51 54l125 151q-186 22 -292.5 147t-106.5 326q0 139 51.5 270t140.5 231.5t217.5 161t272.5 60.5q163 0 283 -80t155 -245l-162 -58q-21 114 -102.5 176t-200.5 62q-137 0 -250.5 -80t-175 -206t-61.5 -267q0 -165 91 -260.5t245 -95.5z" />
    <glyph glyph-name="egrave" unicode="&#xe8;" horiz-adv-x="1261" 
d="M838 1278h-138l-243 391h207zM543 -35q-211 0 -339 128t-128 343q0 193 90.5 361t246 268t337.5 100q50 0 97.5 -8t97.5 -26.5t89.5 -49t74 -74.5t52 -103.5t22.5 -136.5t-14 -173l-12 -70h-913q-29 -194 62.5 -307t266.5 -113q135 0 246.5 76.5t181.5 200.5l136 -53
q-93 -169 -251 -266t-343 -97zM274 659h744q15 98 -5 172.5t-65.5 115.5t-102 61t-122.5 20q-154 0 -275 -101.5t-174 -267.5z" />
    <glyph glyph-name="eacute" unicode="&#xe9;" horiz-adv-x="1261" 
d="M1200 1669l-379 -391h-137l311 391h205zM543 -35q-211 0 -339 128t-128 343q0 193 90.5 361t246 268t337.5 100q50 0 97.5 -8t97.5 -26.5t89.5 -49t74 -74.5t52 -103.5t22.5 -136.5t-14 -173l-12 -70h-913q-29 -194 62.5 -307t266.5 -113q135 0 246.5 76.5t181.5 200.5
l136 -53q-93 -169 -251 -266t-343 -97zM274 659h744q15 98 -5 172.5t-65.5 115.5t-102 61t-122.5 20q-154 0 -275 -101.5t-174 -267.5z" />
    <glyph glyph-name="ecircumflex" unicode="&#xea;" horiz-adv-x="1261" 
d="M516 1278h-147l360 360h193l233 -360h-147q-49 62 -69 88.5t-52.5 80.5t-50.5 103h-48q-84 -118 -272 -272zM543 -35q-211 0 -339 128t-128 343q0 193 90.5 361t246 268t337.5 100q50 0 97.5 -8t97.5 -26.5t89.5 -49t74 -74.5t52 -103.5t22.5 -136.5t-14 -173l-12 -70
h-913q-29 -194 62.5 -307t266.5 -113q135 0 246.5 76.5t181.5 200.5l136 -53q-93 -169 -251 -266t-343 -97zM274 659h744q15 98 -5 172.5t-65.5 115.5t-102 61t-122.5 20q-154 0 -275 -101.5t-174 -267.5z" />
    <glyph glyph-name="edieresis" unicode="&#xeb;" horiz-adv-x="1261" 
d="M594 1362q-41 0 -67.5 27t-26.5 67q0 52 40 92.5t93 40.5q42 0 68 -26.5t26 -65.5q0 -53 -40 -94t-93 -41zM961 1362q-42 0 -68.5 27t-26.5 67q0 54 40 93.5t93 39.5q41 0 68 -27t27 -67q0 -51 -40.5 -92t-92.5 -41zM543 -35q-211 0 -339 128t-128 343q0 193 90.5 361
t246 268t337.5 100q50 0 97.5 -8t97.5 -26.5t89.5 -49t74 -74.5t52 -103.5t22.5 -136.5t-14 -173l-12 -70h-913q-29 -194 62.5 -307t266.5 -113q135 0 246.5 76.5t181.5 200.5l136 -53q-93 -169 -251 -266t-343 -97zM274 659h744q15 98 -5 172.5t-65.5 115.5t-102 61
t-122.5 20q-154 0 -275 -101.5t-174 -267.5z" />
    <glyph glyph-name="igrave" unicode="&#xec;" horiz-adv-x="509" 
d="M457 1272h-138l-243 391h207zM233 0h-155l201 1133h155z" />
    <glyph glyph-name="iacute" unicode="&#xed;" horiz-adv-x="509" 
d="M817 1663l-379 -391h-137l311 391h205zM233 0h-155l201 1133h155z" />
    <glyph glyph-name="icircumflex" unicode="&#xee;" horiz-adv-x="509" 
d="M133 1272h-147l360 360h193l233 -360h-147q-49 62 -69 88.5t-52.5 80.5t-50.5 103h-47q-82 -116 -273 -272zM233 0h-155l201 1133h155z" />
    <glyph glyph-name="idieresis" unicode="&#xef;" horiz-adv-x="509" 
d="M213 1356q-41 0 -67.5 27t-26.5 67q0 52 40.5 92.5t92.5 40.5q42 0 68 -26.5t26 -65.5q0 -53 -40 -94t-93 -41zM580 1356q-42 0 -68.5 27t-26.5 67q0 54 40 93.5t93 39.5q41 0 68 -27t27 -67q0 -51 -40.5 -92t-92.5 -41zM233 0h-155l201 1133h155z" />
    <glyph glyph-name="eth" unicode="&#xf0;" horiz-adv-x="1323" 
d="M1208 1563l-209 -109q254 -224 254 -598q0 -136 -31 -267t-92.5 -243.5t-145.5 -197.5t-197.5 -134t-241.5 -49q-214 0 -343.5 128.5t-129.5 336.5q0 172 87.5 327.5t237.5 251t322 95.5q130 0 220.5 -61t158.5 -195h26q-31 177 -98.5 304.5t-181.5 221.5l-326 -170
l-35 86l277 144q-99 67 -271 131l64 129q221 -72 367 -176l249 131zM567 106q130 0 241 73.5t173.5 193t62.5 252.5q0 158 -89.5 250t-235.5 92q-128 0 -239 -72.5t-175.5 -191t-64.5 -250.5q0 -153 87.5 -250t239.5 -97z" />
    <glyph glyph-name="ntilde" unicode="&#xf1;" horiz-adv-x="1296" 
d="M932 1323q-33 0 -61 11.5t-43.5 23.5t-41.5 37l-36 32q-18 18 -25 24.5t-25.5 16t-37.5 9.5q-46 0 -80 -39t-45 -99h-117q22 115 95 186.5t169 71.5q31 0 58 -10.5t42 -22t37 -32.5l39 -35q44 -51 92 -51q44 0 76 38.5t43 98.5h117q-20 -121 -88.5 -190.5t-167.5 -69.5z
M233 0h-155l201 1133h151q-26 -145 -72 -242h25q177 274 451 274q64 0 119 -15t103 -48.5t76.5 -86.5t39 -128.5t-8.5 -175.5l-125 -711h-155l112 641q33 189 -34 284t-199 95q-106 0 -197.5 -57t-147 -145.5t-73.5 -190.5z" />
    <glyph glyph-name="ograve" unicode="&#xf2;" horiz-adv-x="1314" 
d="M860 1278h-137l-244 391h207zM553 -35q-219 0 -347 129.5t-128 349.5q0 137 52 267.5t141 231t218.5 161.5t274.5 61q218 0 346.5 -130t128.5 -351q0 -137 -52 -267t-141 -230t-218.5 -161t-274.5 -61zM578 111q139 0 253.5 79.5t177 205.5t62.5 268q0 163 -89.5 259.5
t-242.5 96.5q-139 0 -253.5 -80t-177 -206.5t-62.5 -266.5q0 -163 89.5 -259.5t242.5 -96.5z" />
    <glyph glyph-name="oacute" unicode="&#xf3;" horiz-adv-x="1314" 
d="M1221 1669l-379 -391h-137l311 391h205zM553 -35q-219 0 -347 129.5t-128 349.5q0 137 52 267.5t141 231t218.5 161.5t274.5 61q218 0 346.5 -130t128.5 -351q0 -137 -52 -267t-141 -230t-218.5 -161t-274.5 -61zM578 111q139 0 253.5 79.5t177 205.5t62.5 268
q0 163 -89.5 259.5t-242.5 96.5q-139 0 -253.5 -80t-177 -206.5t-62.5 -266.5q0 -163 89.5 -259.5t242.5 -96.5z" />
    <glyph glyph-name="ocircumflex" unicode="&#xf4;" horiz-adv-x="1314" 
d="M537 1278h-148l361 360h192l234 -360h-148q-49 62 -69 88.5t-52.5 80.5t-50.5 103h-47q-84 -118 -272 -272zM553 -35q-219 0 -347 129.5t-128 349.5q0 137 52 267.5t141 231t218.5 161.5t274.5 61q218 0 346.5 -130t128.5 -351q0 -137 -52 -267t-141 -230t-218.5 -161
t-274.5 -61zM578 111q139 0 253.5 79.5t177 205.5t62.5 268q0 163 -89.5 259.5t-242.5 96.5q-139 0 -253.5 -80t-177 -206.5t-62.5 -266.5q0 -163 89.5 -259.5t242.5 -96.5z" />
    <glyph glyph-name="otilde" unicode="&#xf5;" horiz-adv-x="1314" 
d="M946 1323q-33 0 -61 11.5t-42.5 23t-41.5 37.5l-37 32q-18 18 -25 24.5t-25.5 16t-37.5 9.5q-46 0 -80 -39t-45 -99h-117q22 115 95 186.5t169 71.5q31 0 58 -10.5t42.5 -22t37.5 -32.5l38 -35q44 -51 93 -51q44 0 75.5 38t42.5 99h117q-20 -121 -88.5 -190.5
t-167.5 -69.5zM553 -35q-219 0 -347 129.5t-128 349.5q0 137 52 267.5t141 231t218.5 161.5t274.5 61q218 0 346.5 -130t128.5 -351q0 -137 -52 -267t-141 -230t-218.5 -161t-274.5 -61zM578 111q139 0 253.5 79.5t177 205.5t62.5 268q0 163 -89.5 259.5t-242.5 96.5
q-139 0 -253.5 -80t-177 -206.5t-62.5 -266.5q0 -163 89.5 -259.5t242.5 -96.5z" />
    <glyph glyph-name="odieresis" unicode="&#xf6;" horiz-adv-x="1314" 
d="M616 1362q-41 0 -67.5 27t-26.5 67q0 52 40 92.5t93 40.5q42 0 68.5 -26.5t26.5 -65.5q0 -53 -40 -94t-94 -41zM983 1362q-42 0 -68 27t-26 67q0 54 40 93.5t93 39.5q41 0 67.5 -27t26.5 -67q0 -51 -40.5 -92t-92.5 -41zM553 -35q-219 0 -347 129.5t-128 349.5
q0 137 52 267.5t141 231t218.5 161.5t274.5 61q218 0 346.5 -130t128.5 -351q0 -137 -52 -267t-141 -230t-218.5 -161t-274.5 -61zM578 111q139 0 253.5 79.5t177 205.5t62.5 268q0 163 -89.5 259.5t-242.5 96.5q-139 0 -253.5 -80t-177 -206.5t-62.5 -266.5
q0 -163 89.5 -259.5t242.5 -96.5z" />
    <glyph glyph-name="divide" unicode="&#xf7;" horiz-adv-x="1044" 
d="M573 831q-41 0 -67.5 27.5t-26.5 69.5q0 51 40.5 91t94.5 40q41 0 68 -26t27 -66q0 -52 -41.5 -94t-94.5 -42zM903 559h-762l23 133h764zM463 193q-42 0 -68 27t-26 67q0 53 40.5 93t92.5 40q41 0 67.5 -26.5t26.5 -65.5q0 -52 -41 -93.5t-92 -41.5z" />
    <glyph glyph-name="oslash" unicode="&#xf8;" horiz-adv-x="1314" 
d="M1157 1182h146l-164 -178q100 -124 100 -320q0 -137 -52 -267t-141 -230t-218.5 -161t-274.5 -61q-171 0 -289 82l-96 -104h-152l166 178q-104 125 -104 323q0 137 52 267.5t141 231t218.5 161.5t274.5 61q177 0 297 -88zM246 467q0 -130 55 -215l647 702q-84 66 -209 66
q-139 0 -253.5 -80t-177 -206.5t-62.5 -266.5zM1071 664q0 123 -51 208l-643 -702q80 -59 201 -59q139 0 253.5 79.5t177 205.5t62.5 268z" />
    <glyph glyph-name="ugrave" unicode="&#xf9;" horiz-adv-x="1280" 
d="M825 1278h-137l-244 391h207zM463 -35q-81 0 -146.5 24t-116.5 78t-67 141t2 214l127 711h156l-115 -652q-15 -103 -5.5 -174t46 -114.5t82 -62.5t102.5 -19q79 0 150.5 34.5t122 90.5t84.5 124t47 138l112 635h156l-137 -779q-39 -210 -25 -354h-157q-2 43 -2 78
t10 78.5t31 95.5h-27q-160 -287 -430 -287z" />
    <glyph glyph-name="uacute" unicode="&#xfa;" horiz-adv-x="1280" 
d="M1188 1669l-379 -391h-137l311 391h205zM463 -35q-81 0 -146.5 24t-116.5 78t-67 141t2 214l127 711h156l-115 -652q-15 -103 -5.5 -174t46 -114.5t82 -62.5t102.5 -19q79 0 150.5 34.5t122 90.5t84.5 124t47 138l112 635h156l-137 -779q-39 -210 -25 -354h-157
q-2 43 -2 78t10 78.5t31 95.5h-27q-160 -287 -430 -287z" />
    <glyph glyph-name="ucircumflex" unicode="&#xfb;" horiz-adv-x="1280" 
d="M504 1278h-148l361 360h192l234 -360h-148q-49 62 -69 88.5t-52.5 80.5t-50.5 103h-47q-84 -118 -272 -272zM463 -35q-81 0 -146.5 24t-116.5 78t-67 141t2 214l127 711h156l-115 -652q-15 -103 -5.5 -174t46 -114.5t82 -62.5t102.5 -19q79 0 150.5 34.5t122 90.5
t84.5 124t47 138l112 635h156l-137 -779q-39 -210 -25 -354h-157q-2 43 -2 78t10 78.5t31 95.5h-27q-160 -287 -430 -287z" />
    <glyph glyph-name="udieresis" unicode="&#xfc;" horiz-adv-x="1280" 
d="M582 1362q-41 0 -68 27t-27 67q0 52 40.5 92.5t93.5 40.5q42 0 68 -26.5t26 -65.5q0 -53 -40 -94t-93 -41zM948 1362q-42 0 -68 27t-26 67q0 54 40 93.5t93 39.5q41 0 67.5 -27t26.5 -67q0 -51 -40.5 -92t-92.5 -41zM463 -35q-81 0 -146.5 24t-116.5 78t-67 141t2 214
l127 711h156l-115 -652q-15 -103 -5.5 -174t46 -114.5t82 -62.5t102.5 -19q79 0 150.5 34.5t122 90.5t84.5 124t47 138l112 635h156l-137 -779q-39 -210 -25 -354h-157q-2 43 -2 78t10 78.5t31 95.5h-27q-160 -287 -430 -287z" />
    <glyph glyph-name="yacute" unicode="&#xfd;" horiz-adv-x="1122" 
d="M1114 1669l-379 -391h-137l311 391h205zM289 -451h-154l246 431l-254 1153h172q116 -522 176 -998h25q210 437 526 998h170z" />
    <glyph glyph-name="thorn" unicode="&#xfe;" horiz-adv-x="1366" 
d="M154 -451h-156l369 2089h155q-5 -26 -23 -131.5t-27.5 -156.5t-27 -141.5t-36 -170t-39.5 -159.5h24q182 286 473 286q192 0 308 -129.5t116 -343.5q0 -186 -86 -353.5t-235 -270.5t-320 -103q-133 0 -230.5 70t-137.5 207h-25q-5 -71 -12.5 -140t-21 -153.5t-20 -125.5
t-25.5 -147t-23 -127zM647 111q127 0 237.5 78.5t174 205.5t63.5 267q0 163 -86 260.5t-229 97.5q-128 0 -240.5 -78t-178.5 -204.5t-66 -266.5q0 -162 91 -261t234 -99z" />
    <glyph glyph-name="ydieresis" unicode="&#xff;" horiz-adv-x="1122" 
d="M508 1362q-41 0 -67.5 27t-26.5 67q0 52 40 92.5t93 40.5q42 0 68 -26.5t26 -65.5q0 -53 -40 -94t-93 -41zM874 1362q-42 0 -68 27t-26 67q0 54 40 93.5t93 39.5q41 0 68 -27t27 -67q0 -51 -41 -92t-93 -41zM289 -451h-154l246 431l-254 1153h172q116 -522 176 -998h25
q210 437 526 998h170z" />
    <glyph glyph-name="Amacron" unicode="&#x100;" horiz-adv-x="1517" 
d="M1321 1821h-680l23 129h682zM100 0h-176l926 1597h184l361 -1597h-176q-30 126 -42.5 181.5t-30.5 166t-24 199.5l-16 18q-210 -26 -344 -26q-138 0 -344 26l-25 -20q-97 -205 -293 -545zM475 688l12 -20q182 24 306 24q123 0 270 -24l14 18q-113 410 -139 754h-51
q-154 -351 -412 -752z" />
    <glyph glyph-name="amacron" unicode="&#x101;" horiz-adv-x="1177" 
d="M1092 1405h-689l23 125h688zM348 -35q-138 0 -225.5 63.5t-87.5 192.5q0 80 36.5 145.5t102.5 112.5t148 79t182 52q28 6 72 14t68.5 13t60.5 13t56 15.5t46 18.5t40 24t27.5 30.5t19 39.5t5.5 49q0 89 -63.5 147t-171.5 58t-197.5 -61t-140.5 -168l-142 51
q51 105 137 177t180 103t195 31q83 0 153.5 -22.5t123 -67t75 -119.5t5.5 -172l-76 -430q-21 -120 -26.5 -192t1.5 -162h-157q-8 46 -0.5 111.5t39.5 144.5h-25q-165 -291 -461 -291zM399 92q84 0 163 35.5t134 90.5t91.5 116.5t46.5 116.5l28 159q-55 -44 -108 -63
t-172 -43q-52 -10 -93 -20.5t-97 -32.5t-93.5 -48t-64.5 -67.5t-27 -91.5q0 -73 51.5 -112.5t140.5 -39.5z" />
    <glyph glyph-name="Abreve" unicode="&#x102;" horiz-adv-x="1517" 
d="M963 1724q-83 0 -150 29t-106.5 76t-57.5 105.5t-10 119.5h141q-9 -81 47.5 -144t155.5 -63q100 0 179.5 62.5t99.5 144.5h139q-13 -61 -51 -119.5t-93.5 -105.5t-132.5 -76t-161 -29zM100 0h-176l926 1597h184l361 -1597h-176q-30 126 -42.5 181.5t-30.5 166t-24 199.5
l-16 18q-210 -26 -344 -26q-138 0 -344 26l-25 -20q-97 -205 -293 -545zM475 688l12 -20q182 24 306 24q123 0 270 -24l14 18q-113 410 -139 754h-51q-154 -351 -412 -752z" />
    <glyph glyph-name="abreve" unicode="&#x103;" horiz-adv-x="1177" 
d="M723 1274q-170 0 -250.5 111t-56.5 284h137q-17 -121 37 -195.5t158 -74.5t183 74t105 196h138q-38 -174 -160.5 -284.5t-290.5 -110.5zM348 -35q-138 0 -225.5 63.5t-87.5 192.5q0 80 36.5 145.5t102.5 112.5t148 79t182 52q28 6 72 14t68.5 13t60.5 13t56 15.5t46 18.5
t40 24t27.5 30.5t19 39.5t5.5 49q0 89 -63.5 147t-171.5 58t-197.5 -61t-140.5 -168l-142 51q51 105 137 177t180 103t195 31q83 0 153.5 -22.5t123 -67t75 -119.5t5.5 -172l-76 -430q-21 -120 -26.5 -192t1.5 -162h-157q-8 46 -0.5 111.5t39.5 144.5h-25
q-165 -291 -461 -291zM399 92q84 0 163 35.5t134 90.5t91.5 116.5t46.5 116.5l28 159q-55 -44 -108 -63t-172 -43q-52 -10 -93 -20.5t-97 -32.5t-93.5 -48t-64.5 -67.5t-27 -91.5q0 -73 51.5 -112.5t140.5 -39.5z" />
    <glyph glyph-name="Aogonek" unicode="&#x104;" horiz-adv-x="1517" 
d="M1141 -229q0 -56 41 -90.5t108 -34.5q45 0 92 12l-18 -107q-57 -14 -109 -14q-105 0 -172 50.5t-67 142.5q0 90 61 158.5t146 111.5h-4q-30 126 -42.5 181.5t-30.5 166t-24 199.5l-16 18q-210 -26 -344 -26q-138 0 -344 26l-25 -20q-97 -205 -293 -545h-176l926 1597h184
l361 -1597h-41q-87 -33 -150 -94t-63 -135zM1063 668l14 18q-113 410 -139 754h-51q-154 -351 -412 -752l12 -20q182 24 306 24q123 0 270 -24z" />
    <glyph glyph-name="aogonek" unicode="&#x105;" horiz-adv-x="1177" 
d="M696 1165q83 0 153.5 -22.5t123 -67t75 -119.5t5.5 -172l-76 -430q-21 -120 -26.5 -192t1.5 -162h-32q-89 -35 -149 -95.5t-60 -133.5q0 -56 40.5 -88.5t104.5 -32.5q47 0 92 14l-20 -113q-55 -14 -103 -14q-107 0 -173 50.5t-66 142.5t63.5 161t147.5 109h-2
q-8 46 -0.5 111.5t39.5 144.5h-25q-165 -291 -461 -291q-138 0 -225.5 63.5t-87.5 192.5q0 80 36.5 145.5t102.5 112.5t148 79t182 52q28 6 72 14t68.5 13t60.5 13t56 15.5t46 18.5t40 24t27.5 30.5t19 39.5t5.5 49q0 89 -63.5 147t-171.5 58t-197.5 -61t-140.5 -168
l-142 51q51 105 137 177t180 103t195 31zM399 92q84 0 163 35.5t134 90.5t91.5 116.5t46.5 116.5l28 159q-55 -44 -108 -63t-172 -43q-52 -10 -93 -20.5t-97 -32.5t-93.5 -48t-64.5 -67.5t-27 -91.5q0 -73 51.5 -112.5t140.5 -39.5z" />
    <glyph glyph-name="Cacute" unicode="&#x106;" horiz-adv-x="1716" 
d="M1524 2050l-396 -328h-143l315 328h224zM809 -35q-312 0 -496 180.5t-184 487.5q0 192 76 374t203.5 319t307.5 220.5t376 83.5q115 0 218.5 -30t187.5 -87t141.5 -148t76.5 -206l-162 -61q-39 178 -171.5 277.5t-321.5 99.5q-125 0 -241.5 -45t-208.5 -124.5t-161 -183
t-106 -225t-37 -244.5q0 -134 44.5 -238t120.5 -167t171.5 -95t204.5 -32q120 0 228.5 37.5t193 104t149 149t109.5 180.5l141 -53q-83 -169 -205 -295.5t-291.5 -202.5t-363.5 -76z" />
    <glyph glyph-name="cacute" unicode="&#x107;" horiz-adv-x="1239" 
d="M1184 1669l-379 -391h-137l311 391h205zM551 -35q-218 0 -345.5 127.5t-127.5 349.5q0 139 51.5 270t140.5 231.5t217.5 161t272.5 60.5q163 0 283 -80t155 -245l-162 -58q-21 114 -102.5 176t-200.5 62q-137 0 -250.5 -80t-175 -206t-61.5 -267q0 -165 91 -260.5
t245 -95.5q138 0 252 77t186 205l133 -53q-96 -182 -256.5 -278.5t-345.5 -96.5z" />
    <glyph glyph-name="Cdotaccent" unicode="&#x10a;" horiz-adv-x="1716" 
d="M1083 1782q-44 0 -73 29t-29 73q0 56 44.5 98.5t102.5 42.5q44 0 72.5 -28t28.5 -70q0 -57 -44.5 -101t-101.5 -44zM809 -35q-312 0 -496 180.5t-184 487.5q0 192 76 374t203.5 319t307.5 220.5t376 83.5q115 0 218.5 -30t187.5 -87t141.5 -148t76.5 -206l-162 -61
q-39 178 -171.5 277.5t-321.5 99.5q-125 0 -241.5 -45t-208.5 -124.5t-161 -183t-106 -225t-37 -244.5q0 -134 44.5 -238t120.5 -167t171.5 -95t204.5 -32q120 0 228.5 37.5t193 104t149 149t109.5 180.5l141 -53q-83 -169 -205 -295.5t-291.5 -202.5t-363.5 -76z" />
    <glyph glyph-name="cdotaccent" unicode="&#x10b;" horiz-adv-x="1239" 
d="M768 1405q-44 0 -72 29t-28 73q0 57 43.5 100.5t101.5 43.5q44 0 73 -29.5t29 -71.5q0 -57 -44.5 -101t-102.5 -44zM551 -35q-218 0 -345.5 127.5t-127.5 349.5q0 139 51.5 270t140.5 231.5t217.5 161t272.5 60.5q163 0 283 -80t155 -245l-162 -58q-21 114 -102.5 176
t-200.5 62q-137 0 -250.5 -80t-175 -206t-61.5 -267q0 -165 91 -260.5t245 -95.5q138 0 252 77t186 205l133 -53q-96 -182 -256.5 -278.5t-345.5 -96.5z" />
    <glyph glyph-name="Ccaron" unicode="&#x10c;" horiz-adv-x="1716" 
d="M1167 1722h-188l-215 314h145q43 -49 60 -70t46 -69.5t46 -100.5h51q34 52 80 100.5t70 69.5t84 70h145zM809 -35q-312 0 -496 180.5t-184 487.5q0 192 76 374t203.5 319t307.5 220.5t376 83.5q115 0 218.5 -30t187.5 -87t141.5 -148t76.5 -206l-162 -61
q-39 178 -171.5 277.5t-321.5 99.5q-125 0 -241.5 -45t-208.5 -124.5t-161 -183t-106 -225t-37 -244.5q0 -134 44.5 -238t120.5 -167t171.5 -95t204.5 -32q120 0 228.5 37.5t193 104t149 149t109.5 180.5l141 -53q-83 -169 -205 -295.5t-291.5 -202.5t-363.5 -76z" />
    <glyph glyph-name="ccaron" unicode="&#x10d;" horiz-adv-x="1239" 
d="M844 1284h-193l-231 365h147q48 -62 70 -92.5t54 -82.5t54 -102h39q36 50 86.5 102.5t83.5 82.5t103 92h149zM551 -35q-218 0 -345.5 127.5t-127.5 349.5q0 139 51.5 270t140.5 231.5t217.5 161t272.5 60.5q163 0 283 -80t155 -245l-162 -58q-21 114 -102.5 176
t-200.5 62q-137 0 -250.5 -80t-175 -206t-61.5 -267q0 -165 91 -260.5t245 -95.5q138 0 252 77t186 205l133 -53q-96 -182 -256.5 -278.5t-345.5 -96.5z" />
    <glyph glyph-name="Dcaron" unicode="&#x10e;" horiz-adv-x="1646" 
d="M1065 1722h-188l-215 314h145q41 -47 59 -69.5t46.5 -70.5t45.5 -100h52q34 52 79 100t71 70.5t83 69.5h146zM698 0h-587l282 1597h570q165 0 288 -44t198 -126.5t111.5 -193t36.5 -250.5q0 -150 -41 -294.5t-120 -268.5t-186.5 -218.5t-250 -148t-301.5 -53.5zM276 147
l21 -24q164 29 410 29q163 0 300 65.5t226 175t138.5 251t49.5 296.5q0 256 -134.5 381t-379.5 125q-86 0 -131 1t-112.5 7.5t-128.5 20.5l-27 -21q-65 -660 -232 -1307z" />
    <glyph glyph-name="dcaron" unicode="&#x10f;" horiz-adv-x="1370" 
d="M1554 1169h-100q116 170 217 258q-100 18 -100 95q0 55 44 97t103 42q42 0 70.5 -28.5t28.5 -69.5q0 -44 -44 -108.5t-219 -285.5zM506 -35q-195 0 -311.5 128.5t-116.5 344.5q0 139 50.5 271.5t136 233t205 161.5t249.5 61q139 0 233.5 -74.5t130.5 -228.5h25
q32 321 117 776h155l-227 -1284q-23 -131 -28 -211t3 -143h-157q-5 70 1.5 124.5t33.5 135.5h-25q-88 -150 -212.5 -222.5t-262.5 -72.5zM559 111q129 0 242.5 78t179.5 205t66 268q0 162 -91.5 260t-234.5 98q-128 0 -238 -78.5t-173.5 -206t-63.5 -268.5q0 -160 85.5 -258
t227.5 -98z" />
    <glyph glyph-name="Dcroat" unicode="&#x110;" horiz-adv-x="1646" 
d="M393 1597h570q165 0 288 -44t198 -126.5t111.5 -193t36.5 -250.5q0 -150 -41 -294.5t-120 -268.5t-186.5 -218.5t-250 -148t-301.5 -53.5h-587l129 731h-177l23 135h178zM707 152q163 0 300 65.5t226 175t138.5 251t49.5 296.5q0 256 -134.5 381t-379.5 125q-86 0 -131 1
t-112.5 7.5t-128.5 20.5l-27 -21q-25 -269 -78 -588h508l-23 -135h-509q-60 -317 -130 -584l21 -24q164 29 410 29z" />
    <glyph glyph-name="dcroat" unicode="&#x111;" horiz-adv-x="1370" 
d="M1348 1448h262l-23 -125h-262l-172 -969q-23 -131 -28 -211t3 -143h-157q-5 70 1.5 124.5t33.5 135.5h-25q-88 -150 -212.5 -222.5t-262.5 -72.5q-195 0 -311.5 128.5t-116.5 344.5q0 139 50.5 271.5t136 233t205 161.5t249.5 61q139 0 233.5 -74.5t130.5 -228.5h25
q19 208 61 461h-286l22 125h285q6 32 17.5 95.5t17.5 94.5h155zM559 111q129 0 242.5 78t179.5 205t66 268q0 162 -91.5 260t-234.5 98q-128 0 -238 -78.5t-173.5 -206t-63.5 -268.5q0 -160 85.5 -258t227.5 -98z" />
    <glyph glyph-name="Emacron" unicode="&#x112;" horiz-adv-x="1343" 
d="M1253 1821h-680l23 129h682zM1141 0h-1030l282 1597h1010l-27 -151q-28 0 -156 -0.5t-178.5 0t-152.5 3t-185 9t-169 17.5l-27 -21q-11 -270 -98 -567l14 -23q141 15 296.5 23t251 9t267.5 1l-29 -156q-172 0 -267 1t-247 9.5t-284 24.5l-25 -22q-21 -315 -111 -607
l21 -24q147 15 313 23t269.5 9t289.5 1z" />
    <glyph glyph-name="emacron" unicode="&#x113;" horiz-adv-x="1261" 
d="M1128 1405h-688l23 125h688zM543 -35q-211 0 -339 128t-128 343q0 193 90.5 361t246 268t337.5 100q50 0 97.5 -8t97.5 -26.5t89.5 -49t74 -74.5t52 -103.5t22.5 -136.5t-14 -173l-12 -70h-913q-29 -194 62.5 -307t266.5 -113q135 0 246.5 76.5t181.5 200.5l136 -53
q-93 -169 -251 -266t-343 -97zM274 659h744q15 98 -5 172.5t-65.5 115.5t-102 61t-122.5 20q-154 0 -275 -101.5t-174 -267.5z" />
    <glyph glyph-name="Edotaccent" unicode="&#x116;" horiz-adv-x="1343" 
d="M903 1782q-44 0 -73 29t-29 73q0 56 44.5 98.5t102.5 42.5q44 0 72.5 -28t28.5 -70q0 -57 -44.5 -101t-101.5 -44zM1141 0h-1030l282 1597h1010l-27 -151q-28 0 -156 -0.5t-178.5 0t-152.5 3t-185 9t-169 17.5l-27 -21q-11 -270 -98 -567l14 -23q141 15 296.5 23t251 9
t267.5 1l-29 -156q-172 0 -267 1t-247 9.5t-284 24.5l-25 -22q-21 -315 -111 -607l21 -24q147 15 313 23t269.5 9t289.5 1z" />
    <glyph glyph-name="edotaccent" unicode="&#x117;" horiz-adv-x="1261" 
d="M784 1405q-44 0 -72 29t-28 73q0 57 43.5 100.5t101.5 43.5q44 0 73.5 -29.5t29.5 -71.5q0 -57 -45 -101t-103 -44zM543 -35q-211 0 -339 128t-128 343q0 193 90.5 361t246 268t337.5 100q50 0 97.5 -8t97.5 -26.5t89.5 -49t74 -74.5t52 -103.5t22.5 -136.5t-14 -173
l-12 -70h-913q-29 -194 62.5 -307t266.5 -113q135 0 246.5 76.5t181.5 200.5l136 -53q-93 -169 -251 -266t-343 -97zM274 659h744q15 98 -5 172.5t-65.5 115.5t-102 61t-122.5 20q-154 0 -275 -101.5t-174 -267.5z" />
    <glyph glyph-name="Eogonek" unicode="&#x118;" horiz-adv-x="1343" 
d="M535 1475l-27 -21q-11 -270 -98 -567l14 -23q141 15 296.5 23t251 9t267.5 1l-29 -156q-172 0 -267 1t-247 9.5t-284 24.5l-25 -22q-21 -315 -111 -607l21 -24q147 15 313 23t269.5 9t289.5 1l-28 -156q-87 -33 -150 -94t-63 -135q0 -56 41 -90.5t108 -34.5q45 0 92 12
l-18 -107q-57 -14 -109 -14q-105 0 -172 50.5t-67 142.5q0 90 61 158.5t146 111.5h-899l282 1597h1010l-27 -151q-28 0 -156 -0.5t-178.5 0t-152.5 3t-185 9t-169 17.5z" />
    <glyph glyph-name="eogonek" unicode="&#x119;" horiz-adv-x="1261" 
d="M750 1165q50 0 97.5 -8t97.5 -26.5t89.5 -49t74 -74.5t52 -103.5t22.5 -136.5t-14 -173l-12 -70h-913q-29 -194 62.5 -307t266.5 -113q135 0 246.5 76.5t181.5 200.5l136 -53q-66 -120 -166 -205t-221 -125q-87 -35 -146 -95t-59 -132q0 -56 40.5 -88.5t104.5 -32.5
q46 0 92 14l-20 -113q-55 -14 -103 -14q-107 0 -173 50.5t-66 142.5q0 139 149 235h-26q-211 0 -339 128t-128 343q0 193 90.5 361t246 268t337.5 100zM274 659h744q15 98 -5 172.5t-65.5 115.5t-102 61t-122.5 20q-154 0 -275 -101.5t-174 -267.5z" />
    <glyph glyph-name="Ecaron" unicode="&#x11a;" horiz-adv-x="1343" 
d="M989 1722h-188l-215 314h145q43 -49 60 -70t46 -69.5t46 -100.5h51q34 52 79 100t71 70.5t83 69.5h146zM1141 0h-1030l282 1597h1010l-27 -151q-28 0 -156 -0.5t-178.5 0t-152.5 3t-185 9t-169 17.5l-27 -21q-11 -270 -98 -567l14 -23q141 15 296.5 23t251 9t267.5 1
l-29 -156q-172 0 -267 1t-247 9.5t-284 24.5l-25 -22q-21 -315 -111 -607l21 -24q147 15 313 23t269.5 9t289.5 1z" />
    <glyph glyph-name="ecaron" unicode="&#x11b;" horiz-adv-x="1261" 
d="M858 1284h-192l-232 365h148q48 -62 70 -92.5t54 -82.5t54 -102h39q37 50 86 102t84 84t102 91h150zM543 -35q-211 0 -339 128t-128 343q0 193 90.5 361t246 268t337.5 100q50 0 97.5 -8t97.5 -26.5t89.5 -49t74 -74.5t52 -103.5t22.5 -136.5t-14 -173l-12 -70h-913
q-29 -194 62.5 -307t266.5 -113q135 0 246.5 76.5t181.5 200.5l136 -53q-93 -169 -251 -266t-343 -97zM274 659h744q15 98 -5 172.5t-65.5 115.5t-102 61t-122.5 20q-154 0 -275 -101.5t-174 -267.5z" />
    <glyph glyph-name="Gbreve" unicode="&#x11e;" horiz-adv-x="1792" 
d="M1075 1724q-83 0 -150 29t-106 76t-57 105.5t-10 119.5h141q-9 -81 47.5 -144t155.5 -63q100 0 179 62.5t99 144.5h139q-13 -61 -51 -119.5t-93.5 -105.5t-132.5 -76t-161 -29zM791 -35q-192 0 -340.5 75.5t-235 227t-86.5 359.5q0 154 48 304t136.5 275t205.5 221
t265 149.5t306 53.5q157 0 287.5 -52t222 -160t114.5 -259l-162 -61q-39 178 -170.5 277.5t-320.5 99.5q-155 0 -297 -70t-241.5 -184t-158.5 -263.5t-59 -304.5q0 -135 45 -239.5t122 -167t171 -94t199 -31.5q237 0 427 149.5t292 403.5l-15 20q-279 -49 -577 -49l24 141
h705l-139 -786h-136q2 11 15 99t26.5 148.5t36.5 125.5l-26 4q-118 -202 -291 -307t-393 -105z" />
    <glyph glyph-name="gbreve" unicode="&#x11f;" horiz-adv-x="1366" 
d="M788 1274q-170 0 -250.5 111t-56.5 284h137q-17 -121 37 -195.5t158 -74.5t183.5 74t105.5 196h137q-38 -174 -160.5 -284.5t-290.5 -110.5zM473 -483q-390 0 -453 329l152 50q46 -244 326 -244q366 0 456 457q19 102 50 167h-25q-88 -136 -209 -205t-254 -69
q-193 0 -313.5 124.5t-120.5 338.5q0 139 53.5 269t140.5 224t202 150.5t235 56.5q141 0 237 -80.5t129 -222.5h25q5 97 35 271h151l-174 -996q-30 -169 -91.5 -291.5t-147.5 -193t-185.5 -103t-218.5 -32.5zM565 147q126 0 238.5 75.5t179 197.5t66.5 254
q0 155 -92.5 250.5t-235.5 95.5q-126 0 -235 -74.5t-171.5 -194.5t-62.5 -253q0 -156 86.5 -253.5t226.5 -97.5z" />
    <glyph glyph-name="Gdotaccent" unicode="&#x120;" horiz-adv-x="1792" 
d="M1083 1782q-44 0 -73 29t-29 73q0 56 44.5 98.5t102.5 42.5q44 0 72.5 -28t28.5 -70q0 -57 -44.5 -101t-101.5 -44zM791 -35q-192 0 -340.5 75.5t-235 227t-86.5 359.5q0 154 48 304t136.5 275t205.5 221t265 149.5t306 53.5q157 0 287.5 -52t222 -160t114.5 -259
l-162 -61q-39 178 -170.5 277.5t-320.5 99.5q-155 0 -297 -70t-241.5 -184t-158.5 -263.5t-59 -304.5q0 -135 45 -239.5t122 -167t171 -94t199 -31.5q237 0 427 149.5t292 403.5l-15 20q-279 -49 -577 -49l24 141h705l-139 -786h-136q2 11 15 99t26.5 148.5t36.5 125.5
l-26 4q-118 -202 -291 -307t-393 -105z" />
    <glyph glyph-name="gdotaccent" unicode="&#x121;" horiz-adv-x="1366" 
d="M813 1405q-44 0 -72 29t-28 73q0 57 43.5 100.5t101.5 43.5q44 0 73.5 -29.5t29.5 -71.5q0 -57 -45 -101t-103 -44zM473 -483q-390 0 -453 329l152 50q46 -244 326 -244q366 0 456 457q19 102 50 167h-25q-88 -136 -209 -205t-254 -69q-193 0 -313.5 124.5t-120.5 338.5
q0 139 53.5 269t140.5 224t202 150.5t235 56.5q141 0 237 -80.5t129 -222.5h25q5 97 35 271h151l-174 -996q-30 -169 -91.5 -291.5t-147.5 -193t-185.5 -103t-218.5 -32.5zM565 147q126 0 238.5 75.5t179 197.5t66.5 254q0 155 -92.5 250.5t-235.5 95.5q-126 0 -235 -74.5
t-171.5 -194.5t-62.5 -253q0 -156 86.5 -253.5t226.5 -97.5z" />
    <glyph glyph-name="uni0122" unicode="&#x122;" horiz-adv-x="1792" 
d="M791 -35q-192 0 -340.5 75.5t-235 227t-86.5 359.5q0 154 48 304t136.5 275t205.5 221t265 149.5t306 53.5q157 0 287.5 -52t222 -160t114.5 -259l-162 -61q-39 178 -170.5 277.5t-320.5 99.5q-155 0 -297 -70t-241.5 -184t-158.5 -263.5t-59 -304.5q0 -135 45 -239.5
t122 -167t171 -94t199 -31.5q237 0 427 149.5t292 403.5l-15 20q-279 -49 -577 -49l24 141h705l-139 -786h-136q2 11 15 99t26.5 148.5t36.5 125.5l-26 4q-118 -202 -291 -307t-393 -105zM655 -537h-82q91 132 179 209q-56 0 -83.5 24t-27.5 62q0 52 40.5 89.5t94.5 37.5
q43 0 69.5 -26.5t26.5 -67.5t-29.5 -86.5t-136.5 -177.5q-33 -41 -51 -64z" />
    <glyph glyph-name="uni0123" unicode="&#x123;" horiz-adv-x="1366" 
d="M670 1350q0 41 36 96.5t161 216.5q31 39 48 61h97q-87 -138 -195 -272q42 4 63 -15.5t21 -54.5q0 -53 -38 -89t-93 -36q-44 0 -72 26t-28 67zM473 -483q-390 0 -453 329l152 50q46 -244 326 -244q366 0 456 457q19 102 50 167h-25q-88 -136 -209 -205t-254 -69
q-193 0 -313.5 124.5t-120.5 338.5q0 139 53.5 269t140.5 224t202 150.5t235 56.5q141 0 237 -80.5t129 -222.5h25q5 97 35 271h151l-174 -996q-30 -169 -91.5 -291.5t-147.5 -193t-185.5 -103t-218.5 -32.5zM565 147q126 0 238.5 75.5t179 197.5t66.5 254
q0 155 -92.5 250.5t-235.5 95.5q-126 0 -235 -74.5t-171.5 -194.5t-62.5 -253q0 -156 86.5 -253.5t226.5 -97.5z" />
    <glyph glyph-name="Hbar" unicode="&#x126;" horiz-adv-x="1656" 
d="M1577 1294h139l-22 -133h-142l-204 -1161h-166q1 8 13 74.5t15 81.5t14 75t16 84t15.5 78t18 87t18 80.5t21.5 90.5l22 86l-18 21q-449 -61 -907 0l-25 -21q-6 -65 -14 -134.5t-14.5 -117.5t-19.5 -128.5t-18 -112t-22 -127t-21 -117.5h-165l204 1161h-139l23 133h141
l53 303h166l-55 -303h909q24 153 51 303h166zM1335 858l25 21q7 80 33 282h-916q-29 -135 -67 -282l16 -21q489 45 909 0z" />
    <glyph glyph-name="hbar" unicode="&#x127;" horiz-adv-x="1296" 
d="M831 1165q64 0 119 -15t103.5 -48.5t77.5 -86.5t40 -128.5t-8 -175.5l-125 -711h-155l112 641q33 189 -33.5 284t-197.5 95q-158 0 -275 -116.5t-145 -276.5l-111 -627h-155l233 1321h-196l22 125h195l35 192h155l-37 -192h357l-23 -125h-358q-44 -213 -103 -430h25
q177 274 448 274z" />
    <glyph glyph-name="Imacron" unicode="&#x12a;" horiz-adv-x="585" 
d="M856 1821h-680l23 129h682zM276 0h-165l282 1597h166z" />
    <glyph glyph-name="imacron" unicode="&#x12b;" horiz-adv-x="509" 
d="M745 1399h-688l23 125h688zM233 0h-155l201 1133h155z" />
    <glyph glyph-name="Iogonek" unicode="&#x12e;" horiz-adv-x="585" 
d="M66 -229q0 -56 41 -90.5t108 -34.5q45 0 92 12l-18 -107q-57 -14 -109 -14q-105 0 -172 50.5t-67 142.5q0 91 60.5 159t145.5 111h-36l282 1597h166l-283 -1597h3q-87 -33 -150 -94t-63 -135z" />
    <glyph glyph-name="iogonek" unicode="&#x12f;" horiz-adv-x="509" 
d="M449 1645q44 0 73 -29.5t29 -71.5q0 -57 -45 -101t-103 -44q-44 0 -72 29t-28 73q0 57 44 100.5t102 43.5zM233 0h-10q-89 -35 -149 -95.5t-60 -133.5q0 -56 41 -88.5t105 -32.5q47 0 92 14l-21 -113q-55 -14 -102 -14q-107 0 -173.5 51t-66.5 142q0 92 63.5 161
t147.5 109h-22l201 1133h155z" />
    <glyph glyph-name="Idotaccent" unicode="&#x130;" horiz-adv-x="585" 
d="M506 1782q-44 0 -73.5 29t-29.5 73q0 56 45 98.5t103 42.5q44 0 72 -28t28 -70q0 -57 -44 -101t-101 -44zM276 0h-165l282 1597h166z" />
    <glyph glyph-name="dotlessi" unicode="&#x131;" horiz-adv-x="509" 
d="M233 0h-155l201 1133h155z" />
    <glyph glyph-name="uni0136" unicode="&#x136;" horiz-adv-x="1374" 
d="M276 0h-165l282 1597h166q-4 -20 -16.5 -94.5t-17 -99t-16.5 -90.5t-18.5 -97t-18.5 -90.5t-22 -99t-23 -93t-27.5 -102.5t-30.5 -100h24q422 400 944 866h199q-14 -12 -88 -79t-96.5 -87.5t-91 -82t-102 -90.5t-96 -84t-106.5 -92t-100 -84t-108 -89l-5 -28
q232 -339 547 -881h-203q-6 11 -60.5 102t-68 114.5t-60 102t-69 119t-60 107.5t-68 125t-60.5 118h-20q-134 -149 -259 -231q-19 -178 -86 -557zM504 -537h-82q30 43 50 70t55 66t73 73q-56 0 -83.5 24t-27.5 62q0 52 40.5 89.5t95.5 37.5q43 0 69.5 -26.5t26.5 -67.5
t-29.5 -86.5t-136.5 -177.5q-33 -41 -51 -64z" />
    <glyph glyph-name="uni0137" unicode="&#x137;" horiz-adv-x="1075" 
d="M236 0h-158l289 1638h157q-11 -59 -46 -256t-51.5 -284.5t-48 -238t-63.5 -277.5h25q277 265 600 551h190l-524 -447q130 -205 395 -686h-180q-238 436 -317 594q-105 -118 -215 -186q-8 -149 -53 -408zM336 -537h-82q30 43 50 70t55 66t73 73q-55 0 -82.5 24t-27.5 62
q0 52 40.5 89.5t94.5 37.5q43 0 69.5 -26.5t26.5 -67.5t-29.5 -86.5t-136.5 -177.5q-33 -41 -51 -64z" />
    <glyph glyph-name="Lacute" unicode="&#x139;" horiz-adv-x="1204" 
d="M995 2050l-395 -328h-143l315 328h223zM1081 0h-970l282 1597h166q-165 -938 -283 -1450l21 -24q137 15 292.5 23t251.5 9t267 1z" />
    <glyph glyph-name="lacute" unicode="&#x13a;" horiz-adv-x="509" 
d="M948 2091l-395 -328h-143l315 328h223zM233 0h-155l289 1638h155z" />
    <glyph glyph-name="uni013B" unicode="&#x13b;" horiz-adv-x="1204" 
d="M1081 0h-970l282 1597h166q-165 -938 -283 -1450l21 -24q137 15 292.5 23t251.5 9t267 1zM408 -537h-82q30 43 50 70t55 66t73 73q-56 0 -83.5 24t-27.5 62q0 52 40.5 89.5t94.5 37.5q43 0 70 -26.5t27 -67.5t-29.5 -86.5t-136.5 -177.5q-33 -41 -51 -64z" />
    <glyph glyph-name="uni013C" unicode="&#x13c;" horiz-adv-x="509" 
d="M233 0h-155l289 1638h155zM20 -537h-81q30 43 50 70t55 66t73 73q-56 0 -83.5 24t-27.5 62q0 52 40.5 89.5t94.5 37.5q43 0 70 -26.5t27 -67.5q0 -40 -29.5 -85.5t-131.5 -171.5q-36 -45 -57 -71z" />
    <glyph glyph-name="Lcaron" unicode="&#x13d;" horiz-adv-x="1204" 
d="M983 1149h-100q116 170 217 258q-101 19 -101 94q0 54 45 96.5t103 42.5q44 0 72 -28t28 -70q0 -43 -43 -105.5t-221 -287.5zM1081 0h-970l282 1597h166q-165 -938 -283 -1450l21 -24q137 15 292.5 23t251.5 9t267 1z" />
    <glyph glyph-name="lcaron" unicode="&#x13e;" horiz-adv-x="509" 
d="M739 1149h-98q107 161 215 258q-98 18 -98 94q0 54 43.5 96.5t101.5 42.5q44 0 72.5 -28t28.5 -70q0 -44 -44 -107.5t-221 -285.5zM233 0h-155l289 1638h155z" />
    <glyph glyph-name="Lslash" unicode="&#x141;" horiz-adv-x="1204" 
d="M276 147l21 -24q137 15 292.5 23t251.5 9t267 1l-27 -156h-970l135 764l-187 -80l27 141l184 80l123 692h166l-110 -616l315 137l-27 -141l-315 -137q-55 -288 -146 -693z" />
    <glyph glyph-name="lslash" unicode="&#x142;" horiz-adv-x="509" 
d="M418 1049l217 137l-25 -139l-217 -138l-160 -909h-155l141 797l-221 -140l25 140l221 139l123 702h155z" />
    <glyph glyph-name="Nacute" unicode="&#x143;" horiz-adv-x="1687" 
d="M1479 2050l-396 -328h-143l315 328h224zM276 0h-165l282 1597h154q413 -719 710 -1366h27q9 80 18 158t21.5 164.5t21 147.5t24.5 158.5t23 143.5t26 155.5t24.5 140.5t27 154t25.5 144h166l-283 -1597h-151q-463 800 -717 1341h-25q-23 -211 -59.5 -456t-59 -374
t-75.5 -426q-10 -57 -15 -85z" />
    <glyph glyph-name="nacute" unicode="&#x144;" horiz-adv-x="1296" 
d="M1208 1669l-379 -391h-137l312 391h204zM233 0h-155l201 1133h151q-26 -145 -72 -242h25q177 274 451 274q64 0 119 -15t103 -48.5t76.5 -86.5t39 -128.5t-8.5 -175.5l-125 -711h-155l112 641q33 189 -34 284t-199 95q-106 0 -197.5 -57t-147 -145.5t-73.5 -190.5z" />
    <glyph glyph-name="uni0145" unicode="&#x145;" horiz-adv-x="1687" 
d="M276 0h-165l282 1597h154q413 -719 710 -1366h27q9 80 18 158t21.5 164.5t21 147.5t24.5 158.5t23 143.5t26 155.5t24.5 140.5t27 154t25.5 144h166l-283 -1597h-151q-463 800 -717 1341h-25q-23 -211 -59.5 -456t-59 -374t-75.5 -426q-10 -57 -15 -85zM631 -537h-82
q30 43 50 70t55 66t73 73q-56 0 -83.5 24t-27.5 62q0 52 40.5 89.5t95.5 37.5q43 0 69.5 -26.5t26.5 -67.5t-29.5 -86.5t-136.5 -177.5q-33 -41 -51 -64z" />
    <glyph glyph-name="uni0146" unicode="&#x146;" horiz-adv-x="1296" 
d="M233 0h-155l201 1133h151q-26 -145 -72 -242h25q177 274 451 274q64 0 119 -15t103 -48.5t76.5 -86.5t39 -128.5t-8.5 -175.5l-125 -711h-155l112 641q33 189 -34 284t-199 95q-106 0 -197.5 -57t-147 -145.5t-73.5 -190.5zM444 -537h-82q91 132 179 209q-56 0 -83.5 24
t-27.5 62q0 52 40.5 89.5t94.5 37.5q43 0 70 -26.5t27 -67.5q0 -40 -29.5 -85.5t-131.5 -171.5q-36 -45 -57 -71z" />
    <glyph glyph-name="Ncaron" unicode="&#x147;" horiz-adv-x="1687" 
d="M1124 1722h-188l-215 314h145q43 -49 60 -70t46 -69.5t46 -100.5h51q34 52 80 100.5t70 69.5t84 70h145zM276 0h-165l282 1597h154q413 -719 710 -1366h27q9 80 18 158t21.5 164.5t21 147.5t24.5 158.5t23 143.5t26 155.5t24.5 140.5t27 154t25.5 144h166l-283 -1597
h-151q-463 800 -717 1341h-25q-23 -211 -59.5 -456t-59 -374t-75.5 -426q-10 -57 -15 -85z" />
    <glyph glyph-name="ncaron" unicode="&#x148;" horiz-adv-x="1296" 
d="M868 1284h-192l-232 365h148q48 -62 70 -92.5t54 -82.5t54 -102h39q37 50 86 102t84 84t102 91h150zM233 0h-155l201 1133h151q-26 -145 -72 -242h25q177 274 451 274q64 0 119 -15t103 -48.5t76.5 -86.5t39 -128.5t-8.5 -175.5l-125 -711h-155l112 641q33 189 -34 284
t-199 95q-106 0 -197.5 -57t-147 -145.5t-73.5 -190.5z" />
    <glyph glyph-name="Eng" unicode="&#x14a;" horiz-adv-x="1687" 
d="M879 -483q-154 0 -236 53l25 149q75 -59 200 -59q134 0 224.5 93t121.5 261q-423 737 -706 1317h-25q-22 -207 -58 -449.5t-58.5 -371.5t-75.5 -425q-10 -57 -15 -85h-165l282 1597h154q426 -747 713 -1355h26q8 78 17.5 155t21 161.5t20.5 146.5t24 156.5t23 143t26 154
t24.5 141.5t27 153t25.5 144h166l-270 -1536q-96 -544 -512 -544z" />
    <glyph glyph-name="eng" unicode="&#x14b;" horiz-adv-x="1296" 
d="M627 -483q-126 0 -205 53l24 143q81 -57 177 -57q32 0 60.5 8t49.5 19.5t40 33t31.5 38.5t25 47.5t18.5 48t14 51.5t10.5 47t8.5 45l114 647q34 190 -32 284.5t-199 94.5q-106 0 -198 -57t-148 -145.5t-74 -190.5l-111 -627h-155l201 1133h151q-26 -145 -72 -242h25
q177 274 451 274q64 0 119 -15t102.5 -47.5t76.5 -84.5t40 -126.5t-7 -172.5l-129 -733q-7 -41 -11.5 -62t-15 -65.5t-21 -71t-28.5 -67t-38.5 -65.5t-50.5 -54t-64.5 -45.5t-80.5 -27.5t-99 -11z" />
    <glyph glyph-name="Omacron" unicode="&#x14c;" horiz-adv-x="1806" 
d="M1464 1821h-680l23 129h682zM799 -35q-145 0 -269 49t-213 136.5t-139.5 214.5t-50.5 278q0 189 78.5 370t209 316t309 218t368.5 83q197 0 349.5 -87t236 -241.5t83.5 -351.5q0 -151 -50 -298.5t-141 -270t-209.5 -217t-264.5 -147t-297 -52.5zM827 121
q147 0 286.5 68.5t241.5 179.5t164 259t62 300q0 242 -144.5 394.5t-371.5 152.5q-194 0 -370 -113.5t-282 -300.5t-106 -393q0 -121 39.5 -223.5t108.5 -173.5t165 -110.5t207 -39.5z" />
    <glyph glyph-name="omacron" unicode="&#x14d;" horiz-adv-x="1314" 
d="M1149 1405h-688l22 125h688zM553 -35q-219 0 -347 129.5t-128 349.5q0 137 52 267.5t141 231t218.5 161.5t274.5 61q218 0 346.5 -130t128.5 -351q0 -137 -52 -267t-141 -230t-218.5 -161t-274.5 -61zM578 111q139 0 253.5 79.5t177 205.5t62.5 268q0 163 -89.5 259.5
t-242.5 96.5q-139 0 -253.5 -80t-177 -206.5t-62.5 -266.5q0 -163 89.5 -259.5t242.5 -96.5z" />
    <glyph glyph-name="Ohungarumlaut" unicode="&#x150;" horiz-adv-x="1806" 
d="M1315 2050l-340 -328h-139l270 328h209zM1657 2050l-357 -328h-139l287 328h209zM799 -35q-145 0 -269 49t-213 136.5t-139.5 214.5t-50.5 278q0 189 78.5 370t209 316t309 218t368.5 83q197 0 349.5 -87t236 -241.5t83.5 -351.5q0 -151 -50 -298.5t-141 -270
t-209.5 -217t-264.5 -147t-297 -52.5zM827 121q147 0 286.5 68.5t241.5 179.5t164 259t62 300q0 242 -144.5 394.5t-371.5 152.5q-194 0 -370 -113.5t-282 -300.5t-106 -393q0 -121 39.5 -223.5t108.5 -173.5t165 -110.5t207 -39.5z" />
    <glyph glyph-name="ohungarumlaut" unicode="&#x151;" horiz-adv-x="1314" 
d="M999 1673l-354 -395h-135l287 395h202zM1346 1673l-371 -395h-135l303 395h203zM553 -35q-219 0 -347 129.5t-128 349.5q0 137 52 267.5t141 231t218.5 161.5t274.5 61q218 0 346.5 -130t128.5 -351q0 -137 -52 -267t-141 -230t-218.5 -161t-274.5 -61zM578 111
q139 0 253.5 79.5t177 205.5t62.5 268q0 163 -89.5 259.5t-242.5 96.5q-139 0 -253.5 -80t-177 -206.5t-62.5 -266.5q0 -163 89.5 -259.5t242.5 -96.5z" />
    <glyph glyph-name="OE" unicode="&#x152;" horiz-adv-x="2668" 
d="M797 -35q-143 0 -266 48t-212.5 135t-140.5 214t-51 279q0 189 78.5 370.5t208 317t308 218.5t368.5 83q200 0 349.5 -95.5t221.5 -260.5l57 323h1010l-27 -151q-27 0 -154.5 -0.5t-178.5 0t-153 3t-185.5 9t-169.5 17.5l-29 -21q-8 -277 -96 -567l20 -23q138 15 292 23
t249.5 9t267.5 1l-29 -156q-172 0 -267 1t-246.5 9.5t-282.5 24.5l-27 -22q-21 -317 -110 -607l20 -24q148 15 314 23t269 9t289 1l-28 -156h-1030l57 322q-131 -166 -314 -261.5t-382 -95.5zM825 121q196 0 371 115.5t278 302.5t103 391q0 243 -144 394t-370 151
q-146 0 -285.5 -68t-242 -178.5t-165.5 -258.5t-63 -302q0 -244 146 -395.5t372 -151.5z" />
    <glyph glyph-name="oe" unicode="&#x153;" horiz-adv-x="2234" 
d="M553 -35q-219 0 -347 129.5t-128 351.5q0 184 87.5 348.5t247 267.5t351.5 103q163 0 276 -77.5t156 -213.5q91 135 229 213t297 78q44 0 86 -6t86.5 -20t81.5 -36.5t72 -55t58 -75.5t38.5 -99t14.5 -125.5t-15 -153.5l-8 -45h-919q-30 -200 63 -322.5t264 -122.5
q135 0 248 76.5t184 200.5l133 -53q-92 -170 -251 -266.5t-345 -96.5q-162 0 -274 76t-154 211q-92 -135 -231.5 -211t-300.5 -76zM1243 662h748q11 79 -1.5 143t-41 105t-70.5 69t-88 39.5t-96 11.5q-153 0 -274.5 -101.5t-176.5 -266.5zM578 111q139 0 253 79.5t176 205
t62 266.5q0 165 -88.5 261.5t-241.5 96.5q-139 0 -253.5 -79.5t-177 -205.5t-62.5 -266q0 -165 89.5 -261.5t242.5 -96.5z" />
    <glyph glyph-name="Racute" unicode="&#x154;" horiz-adv-x="1421" 
d="M1311 2050l-396 -328h-143l315 328h224zM276 0h-165l282 1597h570q15 0 28.5 -0.5t47.5 -4t63 -10t68.5 -20t71.5 -32t65 -49t55.5 -67.5t36.5 -90t14 -116q0 -216 -146 -367.5t-382 -170.5l-2 -27q33 -51 66.5 -109t58 -102.5t59.5 -112.5t52 -102.5t55 -112.5t51 -104
h-185l-313 635q-219 4 -356 39q-21 -272 -95 -674zM389 764l17 -21q154 29 391 29q190 0 314 113t124 282q0 139 -91 210t-241 71q-229 0 -368 27l-27 -21q-25 -350 -119 -690z" />
    <glyph glyph-name="racute" unicode="&#x155;" horiz-adv-x="845" 
d="M1032 1669l-379 -391h-137l311 391h205zM233 0h-155l201 1133h151q-2 -12 -7.5 -46.5t-9 -52.5t-11 -50t-17.5 -63.5t-23 -66.5h27q69 150 180 230.5t236 80.5q67 0 121 -22l-31 -172q-51 26 -139 26q-86 0 -161 -40.5t-127.5 -107t-87.5 -146.5t-50 -166z" />
    <glyph glyph-name="uni0156" unicode="&#x156;" horiz-adv-x="1421" 
d="M276 0h-165l282 1597h570q15 0 28.5 -0.5t47.5 -4t63 -10t68.5 -20t71.5 -32t65 -49t55.5 -67.5t36.5 -90t14 -116q0 -216 -146 -367.5t-382 -170.5l-2 -27q33 -51 66.5 -109t58 -102.5t59.5 -112.5t52 -102.5t55 -112.5t51 -104h-185l-313 635q-219 4 -356 39
q-21 -272 -95 -674zM389 764l17 -21q154 29 391 29q190 0 314 113t124 282q0 139 -91 210t-241 71q-229 0 -368 27l-27 -21q-25 -350 -119 -690zM483 -537h-82q91 132 179 209q-56 0 -83.5 24t-27.5 62q0 52 40.5 89.5t94.5 37.5q43 0 69.5 -26.5t26.5 -67.5t-29.5 -86.5
t-136.5 -177.5q-33 -41 -51 -64z" />
    <glyph glyph-name="uni0157" unicode="&#x157;" horiz-adv-x="845" 
d="M233 0h-155l201 1133h151q-2 -12 -7.5 -46.5t-9 -52.5t-11 -50t-17.5 -63.5t-23 -66.5h27q69 150 180 230.5t236 80.5q67 0 121 -22l-31 -172q-51 26 -139 26q-86 0 -161 -40.5t-127.5 -107t-87.5 -146.5t-50 -166zM12 -537h-82q91 132 179 209q-56 0 -83.5 24t-27.5 62
q0 52 40.5 89.5t94.5 37.5q43 0 69.5 -26.5t26.5 -67.5t-29.5 -86.5t-136.5 -177.5q-33 -41 -51 -64z" />
    <glyph glyph-name="Rcaron" unicode="&#x158;" horiz-adv-x="1421" 
d="M954 1722h-188l-215 314h145q43 -49 60 -70t46 -69.5t46 -100.5h51q34 52 80 100.5t70 69.5t84 70h145zM276 0h-165l282 1597h570q15 0 28.5 -0.5t47.5 -4t63 -10t68.5 -20t71.5 -32t65 -49t55.5 -67.5t36.5 -90t14 -116q0 -216 -146 -367.5t-382 -170.5l-2 -27
q33 -51 66.5 -109t58 -102.5t59.5 -112.5t52 -102.5t55 -112.5t51 -104h-185l-313 635q-219 4 -356 39q-21 -272 -95 -674zM389 764l17 -21q154 29 391 29q190 0 314 113t124 282q0 139 -91 210t-241 71q-229 0 -368 27l-27 -21q-25 -350 -119 -690z" />
    <glyph glyph-name="rcaron" unicode="&#x159;" horiz-adv-x="845" 
d="M692 1284h-192l-232 365h148q48 -62 70 -92.5t54 -82.5t54 -102h39q37 50 86 102t84 84t102 91h150zM233 0h-155l201 1133h151q-2 -12 -7.5 -46.5t-9 -52.5t-11 -50t-17.5 -63.5t-23 -66.5h27q69 150 180 230.5t236 80.5q67 0 121 -22l-31 -172q-51 26 -139 26
q-86 0 -161 -40.5t-127.5 -107t-87.5 -146.5t-50 -166z" />
    <glyph glyph-name="Sacute" unicode="&#x15a;" horiz-adv-x="1318" 
d="M1260 2050l-396 -330h-143l315 330h224zM578 -35q-97 0 -183 25.5t-160 79t-122.5 147t-59.5 217.5l164 55q17 -182 123 -276t268 -94q177 0 298.5 100.5t121.5 239.5q0 25 -5 47t-11.5 39t-21 33.5t-24.5 27t-32 23.5t-33 19t-39 16.5t-38.5 14t-41.5 13.5t-39 13
l-139 47q-37 12 -64 22t-68 29t-70.5 38.5t-62 49.5t-53.5 63.5t-34.5 79t-13.5 96.5q0 98 46 189.5t125 160t191.5 109.5t237.5 41q207 0 330 -106t139 -275l-160 -61q-21 135 -110.5 213t-233.5 78q-162 0 -274.5 -91.5t-112.5 -216.5q0 -49 21.5 -91t48.5 -68t72 -50
t71.5 -34t66.5 -23l150 -51q131 -45 169 -64q162 -77 192 -215q7 -34 7 -73q0 -101 -49.5 -198.5t-133 -172t-203 -120.5t-250.5 -46z" />
    <glyph glyph-name="sacute" unicode="&#x15b;" horiz-adv-x="1011" 
d="M1065 1671l-379 -391h-137l311 391h205zM422 -35q-167 0 -278.5 87t-131.5 231l152 47q26 -107 106 -169.5t185 -62.5q111 0 192.5 65t81.5 156q0 22 -7 41t-14 32t-27 26.5t-30 20t-39 17.5t-38.5 13.5t-43.5 13.5l-102 31q-28 9 -41 13t-46.5 18t-53 26.5t-47.5 35.5
t-43.5 48t-27 61t-11.5 77q0 152 128 262t310 110q147 0 244 -77.5t116 -200.5l-157 -49q-15 82 -75 138t-161 56t-171 -58.5t-70 -142.5q0 -34 14.5 -63t34.5 -47t53.5 -35t57 -25.5t59.5 -19.5l98 -31q29 -9 46.5 -14t48.5 -17.5t50 -24.5t43.5 -32t38 -42.5t23.5 -54.5
t10 -69q0 -154 -138 -272.5t-339 -118.5z" />
    <glyph glyph-name="Scedilla" unicode="&#x15e;" horiz-adv-x="1318" 
d="M696 905l150 -51q131 -45 169 -64q162 -77 192 -215q7 -34 7 -73q0 -98 -46.5 -193t-125 -169t-191.5 -121.5t-239 -53.5q-46 -51 -133 -121l8 -10q58 31 111 31q70 0 113 -37.5t43 -101.5q0 -90 -78.5 -156t-192.5 -66q-74 0 -138 30.5t-101 84.5l73 66q26 -43 74.5 -68
t100.5 -25q63 0 107 34t44 83q0 36 -30 58t-76 22q-51 0 -99 -25l-51 54l123 151q-87 8 -162 38t-138.5 84t-104.5 142t-52 201l164 55q17 -182 123 -276t268 -94q177 0 298.5 100.5t121.5 239.5q0 25 -5 47t-11.5 39t-21 33.5t-24.5 27t-32 23.5t-33 19t-39 16.5t-38.5 14
t-41.5 13.5t-39 13l-139 47q-37 12 -64 22t-68 29t-70.5 38.5t-62 49.5t-53.5 63.5t-34.5 79t-13.5 96.5q0 98 46 189.5t125 160t191.5 109.5t237.5 41q207 0 330 -106t139 -275l-160 -61q-21 135 -110.5 213t-233.5 78q-162 0 -274.5 -91.5t-112.5 -216.5q0 -49 21.5 -91
t48.5 -68t72 -50t71.5 -34t66.5 -23z" />
    <glyph glyph-name="scedilla" unicode="&#x15f;" horiz-adv-x="1011" 
d="M541 641l98 -31q29 -9 46.5 -14t48.5 -17.5t50 -24.5t43.5 -32t38 -42.5t23.5 -54.5t10 -69q0 -146 -126.5 -262.5t-315.5 -128.5q-46 -51 -133 -121l8 -10q58 31 110 31q70 0 113 -37.5t43 -101.5q0 -91 -78 -156.5t-192 -65.5q-74 0 -139 30.5t-101 84.5l74 66
q26 -43 74 -68t100 -25q63 0 107 34t44 83q0 36 -30 58t-76 22q-50 0 -98 -25l-52 54l125 151q-142 17 -233.5 101t-110.5 213l152 47q26 -107 106 -169.5t185 -62.5q111 0 192.5 65t81.5 156q0 22 -7 41t-14 32t-27 26.5t-30 20t-39 17.5t-38.5 13.5t-43.5 13.5l-102 31
q-28 9 -41 13t-46.5 18t-53 26.5t-47.5 35.5t-43.5 48t-27 61t-11.5 77q0 152 128 262t310 110q147 0 244 -77.5t116 -200.5l-157 -49q-15 82 -75 138t-161 56t-171 -58.5t-70 -142.5q0 -34 14.5 -63t34.5 -47t53.5 -35t57 -25.5t59.5 -19.5z" />
    <glyph glyph-name="Scaron" unicode="&#x160;" horiz-adv-x="1318" 
d="M950 1722h-188l-215 314h145q43 -49 60 -70t46 -69.5t46 -100.5h51q34 52 79 100t71 70.5t83 69.5h146zM578 -35q-97 0 -183 25.5t-160 79t-122.5 147t-59.5 217.5l164 55q17 -182 123 -276t268 -94q177 0 298.5 100.5t121.5 239.5q0 25 -5 47t-11.5 39t-21 33.5
t-24.5 27t-32 23.5t-33 19t-39 16.5t-38.5 14t-41.5 13.5t-39 13l-139 47q-37 12 -64 22t-68 29t-70.5 38.5t-62 49.5t-53.5 63.5t-34.5 79t-13.5 96.5q0 98 46 189.5t125 160t191.5 109.5t237.5 41q207 0 330 -106t139 -275l-160 -61q-21 135 -110.5 213t-233.5 78
q-162 0 -274.5 -91.5t-112.5 -216.5q0 -49 21.5 -91t48.5 -68t72 -50t71.5 -34t66.5 -23l150 -51q131 -45 169 -64q162 -77 192 -215q7 -34 7 -73q0 -101 -49.5 -198.5t-133 -172t-203 -120.5t-250.5 -46z" />
    <glyph glyph-name="scaron" unicode="&#x161;" horiz-adv-x="1011" 
d="M725 1284h-193l-231 365h148q48 -62 70 -92.5t54 -82.5t54 -102h39q37 50 86 102t84 84t102 91h149zM422 -35q-167 0 -278.5 87t-131.5 231l152 47q26 -107 106 -169.5t185 -62.5q111 0 192.5 65t81.5 156q0 22 -7 41t-14 32t-27 26.5t-30 20t-39 17.5t-38.5 13.5
t-43.5 13.5l-102 31q-28 9 -41 13t-46.5 18t-53 26.5t-47.5 35.5t-43.5 48t-27 61t-11.5 77q0 152 128 262t310 110q147 0 244 -77.5t116 -200.5l-157 -49q-15 82 -75 138t-161 56t-171 -58.5t-70 -142.5q0 -34 14.5 -63t34.5 -47t53.5 -35t57 -25.5t59.5 -19.5l98 -31
q29 -9 46.5 -14t48.5 -17.5t50 -24.5t43.5 -32t38 -42.5t23.5 -54.5t10 -69q0 -154 -138 -272.5t-339 -118.5z" />
    <glyph glyph-name="uni0162" unicode="&#x162;" horiz-adv-x="1294" 
d="M182 1446l27 151h1241l-27 -151q-358 0 -559 27q-64 -500 -217 -1379q-11 -63 -16 -94h-31q-67 -83 -162 -156l8 -10q58 31 111 31q70 0 113 -37.5t43 -101.5q0 -90 -78.5 -156t-192.5 -66q-74 0 -138 30.5t-101 84.5l73 66q26 -43 74.5 -68t100.5 -25q63 0 107 34t44 83
q0 36 -30 58t-76 22q-51 0 -99 -25l-51 54l150 182h-31q168 959 285 1473q-209 -27 -568 -27z" />
    <glyph glyph-name="uni0163" unicode="&#x163;" horiz-adv-x="782" 
d="M840 1133l-25 -140q-227 0 -362 23q-12 -157 -27 -268t-28 -163t-24 -92t-17.5 -85t-6.5 -113q0 -103 23 -146t100 -43q94 0 197 60l-27 -146q-94 -55 -217 -55q-29 0 -43 2q-53 -59 -133 -123l8 -10q58 31 111 31q70 0 112.5 -37.5t42.5 -101.5q0 -91 -78 -156.5
t-192 -65.5q-74 0 -139 30.5t-101 84.5l74 66q26 -43 74 -68t100 -25q63 0 107.5 34t44.5 83q0 36 -30 58t-77 22q-50 0 -98 -25l-51 54l139 170q-30 14 -51.5 36t-34 44t-18 55.5t-7 55.5t2 60.5t6 54.5t8.5 52q73 414 145 670q-106 -23 -256 -23l25 140q149 0 245 -25
q0 34 2 69.5t4 59.5t7 63t7.5 53.5t9.5 59t9 53.5h156q-39 -223 -88 -358q143 25 371 25z" />
    <glyph glyph-name="Tcaron" unicode="&#x164;" horiz-adv-x="1294" 
d="M946 1722h-188l-215 314h145q43 -49 60 -70t46 -69.5t46 -100.5h51q34 52 79 100t71 70.5t83 69.5h146zM631 0h-166q168 959 285 1473q-209 -27 -568 -27l27 151h1241l-27 -151q-358 0 -559 27q-64 -500 -217 -1379q-11 -63 -16 -94z" />
    <glyph glyph-name="tcaron" unicode="&#x165;" horiz-adv-x="782" 
d="M1004 1153h-99q101 156 215 258q-98 21 -98 94q0 55 43.5 98.5t101.5 43.5q44 0 72.5 -29t28.5 -72q0 -44 -44.5 -108.5t-219.5 -284.5zM426 -35q-47 0 -84.5 9t-63 23t-43.5 37.5t-28.5 45t-15 53.5t-5.5 54.5t2.5 57.5t6.5 52.5t8 48.5q73 414 145 670
q-106 -23 -256 -23l25 140q149 0 245 -25q0 34 2 69.5t4 59.5t7 63t7.5 53.5t9.5 59t9 53.5h156q-39 -223 -88 -358q143 25 371 25l-25 -140q-227 0 -362 23q-12 -157 -27 -268t-28 -163t-24 -92t-17.5 -85t-6.5 -113q0 -103 23 -146t100 -43q94 0 197 60l-27 -146
q-94 -55 -217 -55z" />
    <glyph glyph-name="Tbar" unicode="&#x166;" horiz-adv-x="1294" 
d="M1450 1597l-27 -151q-358 0 -559 27q-41 -326 -86 -607h348l-22 -135h-348q-27 -171 -125 -731h-166q47 272 131 731h-344l22 135h349q58 298 127 607q-209 -27 -568 -27l27 151h1241z" />
    <glyph glyph-name="tbar" unicode="&#x167;" horiz-adv-x="782" 
d="M840 1133l-25 -140q-227 0 -362 23q-13 -187 -35 -328h327l-22 -125h-330q-5 -20 -13.5 -51.5t-12.5 -47.5t-8.5 -43t-6.5 -56.5t-2 -69.5q0 -103 23 -146t100 -43q94 0 197 60l-27 -146q-94 -55 -217 -55q-47 0 -84.5 9t-63 23t-43.5 37.5t-28.5 45t-15 53.5t-5.5 54.5
t2.5 57.5t6.5 52.5t8 48.5q6 39 19.5 111t19.5 106h-224l23 125h227q47 215 80 328q-106 -23 -256 -23l25 140q149 0 245 -25q0 34 2 69.5t4 59.5t7 63t7.5 53.5t9.5 59t9 53.5h156q-39 -223 -88 -358q143 25 371 25z" />
    <glyph glyph-name="Umacron" unicode="&#x16a;" horiz-adv-x="1540" 
d="M1335 1821h-680l23 129h682zM662 -35q-284 0 -400.5 165t-64.5 456l180 1011h166l-178 -1001q-41 -233 42.5 -355t284.5 -122q202 0 330 123.5t168 353.5l176 1001h166l-178 -1011q-18 -104 -53 -194t-93 -169.5t-134 -136t-181.5 -89t-230.5 -32.5z" />
    <glyph glyph-name="umacron" unicode="&#x16b;" horiz-adv-x="1280" 
d="M1116 1405h-688l23 125h688zM463 -35q-81 0 -146.5 24t-116.5 78t-67 141t2 214l127 711h156l-115 -652q-15 -103 -5.5 -174t46 -114.5t82 -62.5t102.5 -19q79 0 150.5 34.5t122 90.5t84.5 124t47 138l112 635h156l-137 -779q-39 -210 -25 -354h-157q-2 43 -2 78t10 78.5
t31 95.5h-27q-160 -287 -430 -287z" />
    <glyph glyph-name="Uring" unicode="&#x16e;" horiz-adv-x="1540" 
d="M975 1716q-86 0 -140.5 51.5t-54.5 133.5q0 104 81 183t194 79q86 0 140 -52t54 -135q0 -103 -81 -181.5t-193 -78.5zM991 1812q64 0 110 45t46 107q0 45 -31.5 72.5t-79.5 27.5q-64 0 -108.5 -43.5t-44.5 -105.5q0 -47 30 -75t78 -28zM662 -35q-284 0 -400.5 165
t-64.5 456l180 1011h166l-178 -1001q-41 -233 42.5 -355t284.5 -122q202 0 330 123.5t168 353.5l176 1001h166l-178 -1011q-18 -104 -53 -194t-93 -169.5t-134 -136t-181.5 -89t-230.5 -32.5z" />
    <glyph glyph-name="uring" unicode="&#x16f;" horiz-adv-x="1280" 
d="M743 1249q-86 0 -140 51.5t-54 133.5q0 104 80.5 183t193.5 79q86 0 140.5 -52t54.5 -135q0 -103 -81.5 -181.5t-193.5 -78.5zM760 1346q64 0 109.5 44.5t45.5 106.5q0 45 -31 72.5t-79 27.5q-64 0 -109 -43.5t-45 -105.5q0 -47 30.5 -74.5t78.5 -27.5zM463 -35
q-81 0 -146.5 24t-116.5 78t-67 141t2 214l127 711h156l-115 -652q-15 -103 -5.5 -174t46 -114.5t82 -62.5t102.5 -19q79 0 150.5 34.5t122 90.5t84.5 124t47 138l112 635h156l-137 -779q-39 -210 -25 -354h-157q-2 43 -2 78t10 78.5t31 95.5h-27q-160 -287 -430 -287z" />
    <glyph glyph-name="Uhungarumlaut" unicode="&#x170;" horiz-adv-x="1540" 
d="M1186 2050l-340 -328h-139l270 328h209zM1528 2050l-357 -328h-139l287 328h209zM662 -35q-284 0 -400.5 165t-64.5 456l180 1011h166l-178 -1001q-41 -233 42.5 -355t284.5 -122q202 0 330 123.5t168 353.5l176 1001h166l-178 -1011q-18 -104 -53 -194t-93 -169.5
t-134 -136t-181.5 -89t-230.5 -32.5z" />
    <glyph glyph-name="uhungarumlaut" unicode="&#x171;" horiz-adv-x="1280" 
d="M965 1673l-355 -395h-135l287 395h203zM1311 1673l-371 -395h-135l303 395h203zM463 -35q-81 0 -146.5 24t-116.5 78t-67 141t2 214l127 711h156l-115 -652q-15 -103 -5.5 -174t46 -114.5t82 -62.5t102.5 -19q79 0 150.5 34.5t122 90.5t84.5 124t47 138l112 635h156
l-137 -779q-39 -210 -25 -354h-157q-2 43 -2 78t10 78.5t31 95.5h-27q-160 -287 -430 -287z" />
    <glyph glyph-name="Uogonek" unicode="&#x172;" horiz-adv-x="1540" 
d="M1190 596l176 1001h166l-178 -1011q-16 -93 -46 -175.5t-78.5 -157.5t-112 -131.5t-149.5 -95.5t-188 -53q-67 -37 -110 -89t-43 -113q0 -56 41 -90.5t108 -34.5q45 0 92 12l-18 -107q-57 -14 -109 -14q-105 0 -172 50.5t-67 142.5q0 136 147 235q-278 4 -391 168.5
t-61 452.5l180 1011h166l-178 -1001q-41 -233 42.5 -355t284.5 -122q202 0 330 123.5t168 353.5z" />
    <glyph glyph-name="uogonek" unicode="&#x173;" horiz-adv-x="1280" 
d="M1044 1133h156l-137 -779q-39 -210 -25 -354h-32q-89 -35 -149 -95.5t-60 -133.5q0 -56 40.5 -88.5t104.5 -32.5q47 0 92 14l-20 -113q-55 -14 -103 -14q-107 0 -173 50.5t-66 142.5t63.5 161t147.5 109h-2q-2 43 -2 78t10 78.5t31 95.5h-27q-160 -287 -430 -287
q-81 0 -146.5 24t-116.5 78t-67 141t2 214l127 711h156l-115 -652q-15 -103 -5.5 -174t46 -114.5t82 -62.5t102.5 -19q79 0 150.5 34.5t122 90.5t84.5 124t47 138z" />
    <glyph glyph-name="Wcircumflex" unicode="&#x174;" horiz-adv-x="2330" 
d="M1153 1722h-145l325 314h187l217 -314h-146q-41 45 -61.5 70.5t-46 71.5t-41.5 98h-51q-52 -75 -108 -129.5t-130 -110.5zM643 0h-201l-225 1597h180q63 -425 102 -742.5t66 -672.5h27q230 524 663 1415h187q45 -333 65 -482t51 -425t50 -514h26q288 667 666 1421h180
l-790 -1597h-201q-116 760 -162 1395h-31q-278 -662 -653 -1395z" />
    <glyph glyph-name="wcircumflex" unicode="&#x175;" horiz-adv-x="1863" 
d="M811 1278h-147l360 360h193l233 -360h-147q-1 2 -19 24.5t-21 26.5t-18.5 24.5t-20 26.5t-18 25t-18.5 28.5t-15.5 26.5t-16.5 29.5t-13 28.5t-13 32h-47q-84 -118 -272 -272zM508 0h-170l-207 1133h176q3 -16 22 -131t23.5 -143t20 -125t21.5 -145t17 -129.5t18 -151.5
t13 -144h31q173 379 485 969h150q6 -33 27.5 -154.5t29.5 -165.5t25 -148t26.5 -168.5t22 -156t21.5 -176.5h28q94 220 199 433t240 475q7 13 11 20.5t10 19t11 21.5h174l-606 -1133h-172q-105 577 -147 936h-19q-184 -387 -481 -936z" />
    <glyph glyph-name="Ycircumflex" unicode="&#x176;" horiz-adv-x="1411" 
d="M692 1722h-145l325 314h187l217 -314h-146q-41 45 -61.5 70.5t-46 71.5t-41.5 98h-51q-52 -75 -108 -129.5t-130 -110.5zM688 0h-166q84 450 117 582q-203 461 -424 1015h180q79 -198 116 -293.5t100 -272.5t108 -326h24q31 48 64.5 98t61 91t66.5 95.5t61.5 87
t66.5 91.5t62 84t67 90t62 82.5t66.5 88.5t63.5 84h179q-555 -728 -783 -1015q-24 -203 -92 -582z" />
    <glyph glyph-name="ycircumflex" unicode="&#x177;" horiz-adv-x="1122" 
d="M430 1278h-147l360 360h193l233 -360h-147q-49 62 -69 88.5t-52.5 80.5t-50.5 103h-48q-84 -118 -272 -272zM289 -451h-154l246 431l-254 1153h172q116 -522 176 -998h25q210 437 526 998h170z" />
    <glyph glyph-name="Ydieresis" unicode="&#x178;" horiz-adv-x="1411" 
d="M719 1780q-44 0 -71 27t-27 69q0 55 41.5 96t97.5 41q42 0 69 -27t27 -67q0 -55 -41 -97t-96 -42zM1124 1780q-44 0 -71 27t-27 69q0 56 41 96.5t98 40.5q41 0 69 -27.5t28 -68.5q0 -53 -42 -95t-96 -42zM688 0h-166q84 450 117 582q-203 461 -424 1015h180
q79 -198 116 -293.5t100 -272.5t108 -326h24q31 48 64.5 98t61 91t66.5 95.5t61.5 87t66.5 91.5t62 84t67 90t62 82.5t66.5 88.5t63.5 84h179q-555 -728 -783 -1015q-24 -203 -92 -582z" />
    <glyph glyph-name="Zacute" unicode="&#x179;" horiz-adv-x="1343" 
d="M1305 2050l-396 -328h-143l315 328h224zM1184 0h-1225l23 139q595 644 1269 1327l-8 25q-463 -45 -991 -45l27 151h1169l-25 -135q-437 -476 -1267 -1321l8 -24q418 39 1046 39z" />
    <glyph glyph-name="zacute" unicode="&#x17a;" horiz-adv-x="1003" 
d="M1069 1669l-379 -391h-137l311 391h205zM858 0h-897l23 123q21 23 97 106t103 113t96 104.5t104.5 113t98 105t108 114t102 106t110.5 112.5l-6 25q-294 -33 -627 -33l25 144h817l-21 -123q-545 -589 -823 -867l8 -26q115 13 252.5 19t214.5 6.5t240 0.5z" />
    <glyph glyph-name="Zdotaccent" unicode="&#x17b;" horiz-adv-x="1343" 
d="M866 1782q-44 0 -73 29t-29 73q0 56 44.5 98.5t102.5 42.5q44 0 72.5 -28t28.5 -70q0 -57 -44.5 -101t-101.5 -44zM1184 0h-1225l23 139q595 644 1269 1327l-8 25q-463 -45 -991 -45l27 151h1169l-25 -135q-437 -476 -1267 -1321l8 -24q418 39 1046 39z" />
    <glyph glyph-name="zdotaccent" unicode="&#x17c;" horiz-adv-x="1003" 
d="M653 1405q-44 0 -72 29t-28 73q0 57 43.5 100.5t101.5 43.5q44 0 73.5 -29.5t29.5 -71.5q0 -57 -45 -101t-103 -44zM858 0h-897l23 123q21 23 97 106t103 113t96 104.5t104.5 113t98 105t108 114t102 106t110.5 112.5l-6 25q-294 -33 -627 -33l25 144h817l-21 -123
q-545 -589 -823 -867l8 -26q115 13 252.5 19t214.5 6.5t240 0.5z" />
    <glyph glyph-name="Zcaron" unicode="&#x17d;" horiz-adv-x="1343" 
d="M948 1722h-188l-215 314h145q43 -49 60 -70t46 -69.5t46 -100.5h51q34 52 79 100t71 70.5t83 69.5h146zM1184 0h-1225l23 139q595 644 1269 1327l-8 25q-463 -45 -991 -45l27 151h1169l-25 -135q-437 -476 -1267 -1321l8 -24q418 39 1046 39z" />
    <glyph glyph-name="zcaron" unicode="&#x17e;" horiz-adv-x="1003" 
d="M727 1284h-192l-232 365h148q48 -62 70 -92.5t54 -82.5t54 -102h39q37 50 86 102t84 84t102 91h150zM858 0h-897l23 123q21 23 97 106t103 113t96 104.5t104.5 113t98 105t108 114t102 106t110.5 112.5l-6 25q-294 -33 -627 -33l25 144h817l-21 -123q-545 -589 -823 -867
l8 -26q115 13 252.5 19t214.5 6.5t240 0.5z" />
    <glyph glyph-name="uni0218" unicode="&#x218;" horiz-adv-x="1318" 
d="M578 -35q-97 0 -183 25.5t-160 79t-122.5 147t-59.5 217.5l164 55q17 -182 123 -276t268 -94q177 0 298.5 100.5t121.5 239.5q0 25 -5 47t-11.5 39t-21 33.5t-24.5 27t-32 23.5t-33 19t-39 16.5t-38.5 14t-41.5 13.5t-39 13l-139 47q-37 12 -64 22t-68 29t-70.5 38.5
t-62 49.5t-53.5 63.5t-34.5 79t-13.5 96.5q0 98 46 189.5t125 160t191.5 109.5t237.5 41q207 0 330 -106t139 -275l-160 -61q-21 135 -110.5 213t-233.5 78q-162 0 -274.5 -91.5t-112.5 -216.5q0 -49 21.5 -91t48.5 -68t72 -50t71.5 -34t66.5 -23l150 -51q131 -45 169 -64
q162 -77 192 -215q7 -34 7 -73q0 -101 -49.5 -198.5t-133 -172t-203 -120.5t-250.5 -46zM442 -537h-82q91 132 179 209q-56 0 -83.5 24t-27.5 62q0 52 40.5 89.5t94.5 37.5q43 0 69.5 -26.5t26.5 -67.5t-29.5 -86.5t-136.5 -177.5q-33 -41 -51 -64z" />
    <glyph glyph-name="uni0219" unicode="&#x219;" horiz-adv-x="1011" 
d="M422 -35q-167 0 -278.5 87t-131.5 231l152 47q26 -107 106 -169.5t185 -62.5q111 0 192.5 65t81.5 156q0 22 -7 41t-14 32t-27 26.5t-30 20t-39 17.5t-38.5 13.5t-43.5 13.5l-102 31q-28 9 -41 13t-46.5 18t-53 26.5t-47.5 35.5t-43.5 48t-27 61t-11.5 77q0 152 128 262
t310 110q147 0 244 -77.5t116 -200.5l-157 -49q-15 82 -75 138t-161 56t-171 -58.5t-70 -142.5q0 -34 14.5 -63t34.5 -47t53.5 -35t57 -25.5t59.5 -19.5l98 -31q29 -9 46.5 -14t48.5 -17.5t50 -24.5t43.5 -32t38 -42.5t23.5 -54.5t10 -69q0 -154 -138 -272.5t-339 -118.5z
M287 -537h-82q30 43 50 70t55 66t73 73q-56 0 -83.5 24t-27.5 62q0 52 40.5 89.5t95.5 37.5q43 0 69.5 -26.5t26.5 -67.5t-29.5 -86.5t-136.5 -177.5q-33 -41 -51 -64z" />
    <glyph glyph-name="uni021A" unicode="&#x21a;" horiz-adv-x="1294" 
d="M631 0h-166q168 959 285 1473q-209 -27 -568 -27l27 151h1241l-27 -151q-358 0 -559 27q-64 -500 -217 -1379q-11 -63 -16 -94zM401 -537h-82q91 132 179 209q-56 0 -83.5 24t-27.5 62q0 52 40.5 89.5t94.5 37.5q43 0 69.5 -26.5t26.5 -67.5t-29.5 -86.5t-136.5 -177.5
q-33 -41 -51 -64z" />
    <glyph glyph-name="uni021B" unicode="&#x21b;" horiz-adv-x="782" 
d="M426 -35q-47 0 -84.5 9t-63 23t-43.5 37.5t-28.5 45t-15 53.5t-5.5 54.5t2.5 57.5t6.5 52.5t8 48.5q73 414 145 670q-106 -23 -256 -23l25 140q149 0 245 -25q0 34 2 69.5t4 59.5t7 63t7.5 53.5t9.5 59t9 53.5h156q-39 -223 -88 -358q143 25 371 25l-25 -140
q-227 0 -362 23q-12 -157 -27 -268t-28 -163t-24 -92t-17.5 -85t-6.5 -113q0 -103 23 -146t100 -43q94 0 197 60l-27 -146q-94 -55 -217 -55zM213 -537h-82q30 43 50 70t55 66t73 73q-55 0 -82.5 24t-27.5 62q0 52 40.5 89.5t94.5 37.5q43 0 69.5 -26.5t26.5 -67.5
t-29.5 -86.5t-136.5 -177.5q-33 -41 -51 -64z" />
    <glyph glyph-name="gravecomb" unicode="&#x300;" horiz-adv-x="0" 
d="M133 1278h-137l-244 391h207z" />
    <glyph glyph-name="acutecomb" unicode="&#x301;" horiz-adv-x="0" 
d="M381 1669l-379 -391h-139l313 391h205z" />
    <glyph glyph-name="uni0302" unicode="&#x302;" horiz-adv-x="0" 
d="M-442 1278h-148l361 360h192l234 -360h-148q-49 62 -69 88.5t-52.5 80.5t-50.5 103h-47q-84 -118 -272 -272z" />
    <glyph glyph-name="tildecomb" unicode="&#x303;" horiz-adv-x="0" 
d="M-84 1335q-33 0 -61 11.5t-42.5 23t-41.5 37.5l-37 33q-17 17 -25 24t-26 16t-37 9q-46 0 -80 -38.5t-45 -98.5h-117q22 115 95 186.5t169 71.5q31 0 58 -11t41.5 -22t37.5 -33l39 -35q44 -51 93 -51q44 0 75.5 38t42.5 99h117q-20 -121 -88.5 -190.5t-167.5 -69.5z" />
    <glyph glyph-name="uni0304" unicode="&#x304;" horiz-adv-x="0" 
d="M156 1399h-688l22 125h688z" />
    <glyph glyph-name="uni0306" unicode="&#x306;" horiz-adv-x="0" 
d="M-184 1274q-170 0 -251 111t-57 284h138q-17 -121 36.5 -195.5t157.5 -74.5t183.5 74t105.5 196h137q-38 -174 -160 -284.5t-290 -110.5z" />
    <glyph glyph-name="uni0307" unicode="&#x307;" horiz-adv-x="0" 
d="M-2 1399q-44 0 -72 29t-28 73q0 57 43.5 100.5t101.5 43.5q44 0 73 -29.5t29 -71.5q0 -57 -44.5 -101t-102.5 -44z" />
    <glyph glyph-name="uni0308" unicode="&#x308;" horiz-adv-x="0" 
d="M-582 1362q-41 0 -67.5 27t-26.5 67q0 52 40 92.5t93 40.5q42 0 68 -26.5t26 -65.5q0 -53 -40 -94t-93 -41zM-215 1362q-42 0 -68 27t-26 67q0 54 40 93.5t93 39.5q41 0 67.5 -27t26.5 -67q0 -51 -40.5 -92t-92.5 -41z" />
    <glyph glyph-name="uni030A" unicode="&#x30a;" horiz-adv-x="0" 
d="M-31 1249q-86 0 -140 51.5t-54 133.5q0 104 80.5 183t193.5 79q86 0 140.5 -52t54.5 -135q0 -103 -81.5 -181.5t-193.5 -78.5zM-14 1346q64 0 109.5 44.5t45.5 106.5q0 45 -31 72.5t-79 27.5q-64 0 -109 -43.5t-45 -105.5q0 -47 30.5 -74.5t78.5 -27.5z" />
    <glyph glyph-name="uni030B" unicode="&#x30b;" horiz-adv-x="0" 
d="M102 1673l-356 -395h-135l287 395h204zM449 1673l-371 -395h-137l305 395h203z" />
    <glyph glyph-name="uni030C" unicode="&#x30c;" horiz-adv-x="0" 
d="M-100 1278h-193l-231 364h147q50 -65 70.5 -93t53 -80.5t54.5 -102.5h39q36 49 87.5 103t81.5 81t104 92h149z" />
    <glyph glyph-name="uni0312" unicode="&#x312;" horiz-adv-x="0" 
d="M-190 1298q0 42 37 98.5t167 224.5q27 33 41 52h97q-87 -138 -195 -272q42 4 63 -15.5t21 -54.5q0 -53 -38 -89t-93 -36q-44 0 -72 25.5t-28 66.5z" />
    <glyph glyph-name="uni0326" unicode="&#x326;" horiz-adv-x="0" 
d="M-424 -537h-82q30 43 50 70t55 66t73 73q-55 0 -82.5 24t-27.5 62q0 52 40.5 89.5t94.5 37.5q43 0 69.5 -26.5t26.5 -67.5t-29.5 -86.5t-136.5 -177.5q-33 -41 -51 -64z" />
    <glyph glyph-name="uni0327" unicode="&#x327;" horiz-adv-x="0" 
d="M-725 -496q-74 0 -139 30.5t-101 84.5l74 66q26 -43 74 -68t100 -25q63 0 107.5 34t44.5 83q0 36 -30 58t-77 22q-50 0 -98 -25l-51 54l149 182h105q-67 -83 -162 -156l8 -10q58 31 111 31q70 0 112.5 -37.5t42.5 -101.5q0 -91 -78 -156.5t-192 -65.5z" />
    <glyph glyph-name="uni0328" unicode="&#x328;" horiz-adv-x="0" 
d="M-721 -483q-107 0 -173.5 50.5t-66.5 141.5q0 49 19.5 93.5t52.5 78t67.5 57.5t71.5 42h123q-89 -35 -149 -96t-60 -134q0 -56 41 -88.5t105 -32.5q43 0 92 15l-20 -113q-55 -14 -103 -14z" />
    <glyph glyph-name="uni0335" unicode="&#x335;" horiz-adv-x="0" 
d="M-643 629h704l-22 -125h-705z" />
    <glyph glyph-name="uni0337" unicode="&#x337;" horiz-adv-x="0" 
d="M-403 506l24 139l612 389l-24 -139z" />
    <glyph glyph-name="uni0338" unicode="&#x338;" horiz-adv-x="0" 
d="M-1032 -59h-152l1141 1239h145z" />
    <glyph glyph-name="Wgrave" unicode="&#x1e80;" horiz-adv-x="2330" 
d="M1470 1722h-143l-278 328h223zM643 0h-201l-225 1597h180q63 -425 102 -742.5t66 -672.5h27q230 524 663 1415h187q45 -333 65 -482t51 -425t50 -514h26q288 667 666 1421h180l-790 -1597h-201q-116 760 -162 1395h-31q-278 -662 -653 -1395z" />
    <glyph glyph-name="wgrave" unicode="&#x1e81;" horiz-adv-x="1863" 
d="M1133 1278h-138l-243 391h206zM508 0h-170l-207 1133h176q3 -16 22 -131t23.5 -143t20 -125t21.5 -145t17 -129.5t18 -151.5t13 -144h31q173 379 485 969h150q6 -33 27.5 -154.5t29.5 -165.5t25 -148t26.5 -168.5t22 -156t21.5 -176.5h28q94 220 199 433t240 475
q7 13 11 20.5t10 19t11 21.5h174l-606 -1133h-172q-105 577 -147 936h-19q-184 -387 -481 -936z" />
    <glyph glyph-name="Wacute" unicode="&#x1e82;" horiz-adv-x="2330" 
d="M1821 2050l-396 -328h-143l315 328h224zM643 0h-201l-225 1597h180q63 -425 102 -742.5t66 -672.5h27q230 524 663 1415h187q45 -333 65 -482t51 -425t50 -514h26q288 667 666 1421h180l-790 -1597h-201q-116 760 -162 1395h-31q-278 -662 -653 -1395z" />
    <glyph glyph-name="wacute" unicode="&#x1e83;" horiz-adv-x="1863" 
d="M1495 1669l-379 -391h-137l311 391h205zM508 0h-170l-207 1133h176q3 -16 22 -131t23.5 -143t20 -125t21.5 -145t17 -129.5t18 -151.5t13 -144h31q173 379 485 969h150q6 -33 27.5 -154.5t29.5 -165.5t25 -148t26.5 -168.5t22 -156t21.5 -176.5h28q94 220 199 433
t240 475q7 13 11 20.5t10 19t11 21.5h174l-606 -1133h-172q-105 577 -147 936h-19q-184 -387 -481 -936z" />
    <glyph glyph-name="Wdieresis" unicode="&#x1e84;" horiz-adv-x="2330" 
d="M1180 1780q-44 0 -71.5 27t-27.5 69q0 55 42 96t98 41q42 0 69 -27t27 -67q0 -55 -41 -97t-96 -42zM1585 1780q-44 0 -71 27t-27 69q0 56 41 96.5t98 40.5q41 0 68.5 -27.5t27.5 -68.5q0 -53 -41.5 -95t-95.5 -42zM643 0h-201l-225 1597h180q63 -425 102 -742.5
t66 -672.5h27q230 524 663 1415h187q45 -333 65 -482t51 -425t50 -514h26q288 667 666 1421h180l-790 -1597h-201q-116 760 -162 1395h-31q-278 -662 -653 -1395z" />
    <glyph glyph-name="wdieresis" unicode="&#x1e85;" horiz-adv-x="1863" 
d="M889 1362q-41 0 -67.5 27t-26.5 67q0 52 40.5 92.5t92.5 40.5q42 0 68 -26.5t26 -65.5q0 -53 -40 -94t-93 -41zM1255 1362q-42 0 -68 27t-26 67q0 54 40 93.5t93 39.5q41 0 68 -27t27 -67q0 -51 -41 -92t-93 -41zM508 0h-170l-207 1133h176q3 -16 22 -131t23.5 -143
t20 -125t21.5 -145t17 -129.5t18 -151.5t13 -144h31q173 379 485 969h150q6 -33 27.5 -154.5t29.5 -165.5t25 -148t26.5 -168.5t22 -156t21.5 -176.5h28q94 220 199 433t240 475q7 13 11 20.5t10 19t11 21.5h174l-606 -1133h-172q-105 577 -147 936h-19q-184 -387 -481 -936
z" />
    <glyph glyph-name="uni1E9E" unicode="&#x1e9e;" horiz-adv-x="1552" 
d="M256 0h-166l166 934q11 62 23.5 115t39.5 127.5t61.5 133t91.5 121t127 104t170.5 68.5t219.5 27q239 0 371.5 -99t132.5 -280q0 -167 -106 -291t-271 -139l-6 -28q144 0 234 -79.5t90 -226.5q0 -95 -39 -180.5t-115 -155t-200.5 -110.5t-282.5 -41h-170l26 152h197
q188 0 297.5 92t109.5 233q0 120 -82 183t-227 63h-110l26 143h109q146 0 243 102t97 244q0 133 -92 203t-258 70q-88 0 -161.5 -20.5t-125 -51.5t-93 -78t-66.5 -90.5t-44.5 -99.5t-28 -93.5t-16.5 -82.5z" />
    <glyph glyph-name="Ygrave" unicode="&#x1ef2;" horiz-adv-x="1411" 
d="M1012 1722h-144l-278 328h223zM688 0h-166q84 450 117 582q-203 461 -424 1015h180q79 -198 116 -293.5t100 -272.5t108 -326h24q31 48 64.5 98t61 91t66.5 95.5t61.5 87t66.5 91.5t62 84t67 90t62 82.5t66.5 88.5t63.5 84h179q-555 -728 -783 -1015q-24 -203 -92 -582z
" />
    <glyph glyph-name="ygrave" unicode="&#x1ef3;" horiz-adv-x="1122" 
d="M754 1278h-138l-243 391h207zM289 -451h-154l246 431l-254 1153h172q116 -522 176 -998h25q210 437 526 998h170z" />
    <glyph glyph-name="uni2000" unicode="&#x2000;" horiz-adv-x="1024" 
 />
    <glyph glyph-name="uni2001" unicode="&#x2001;" 
 />
    <glyph glyph-name="uni2002" unicode="&#x2002;" horiz-adv-x="1024" 
 />
    <glyph glyph-name="uni2003" unicode="&#x2003;" 
 />
    <glyph glyph-name="uni2004" unicode="&#x2004;" horiz-adv-x="681" 
 />
    <glyph glyph-name="uni2005" unicode="&#x2005;" horiz-adv-x="512" 
 />
    <glyph glyph-name="uni2006" unicode="&#x2006;" horiz-adv-x="342" 
 />
    <glyph glyph-name="uni2007" unicode="&#x2007;" horiz-adv-x="552" 
 />
    <glyph glyph-name="uni2008" unicode="&#x2008;" horiz-adv-x="479" 
 />
    <glyph glyph-name="uni2009" unicode="&#x2009;" horiz-adv-x="256" 
 />
    <glyph glyph-name="uni200A" unicode="&#x200a;" horiz-adv-x="86" 
 />
    <glyph glyph-name="uni200B" unicode="&#x200b;" horiz-adv-x="0" 
 />
    <glyph glyph-name="endash" unicode="&#x2013;" horiz-adv-x="1003" 
d="M885 557h-770l24 135h770z" />
    <glyph glyph-name="emdash" unicode="&#x2014;" horiz-adv-x="1431" 
d="M1315 559h-1200l22 129h1200z" />
    <glyph glyph-name="quoteleft" unicode="&#x2018;" horiz-adv-x="475" 
d="M477 1632h96q-6 -8 -27 -38l-28 -40t-25 -34.5t-29 -37.5t-28 -32.5t-33.5 -36t-35.5 -33.5q47 -7 70.5 -33.5t23.5 -64.5q0 -56 -45 -98.5t-103 -42.5q-44 0 -72 28t-28 72q0 43 41.5 103t222.5 288z" />
    <glyph glyph-name="quoteright" unicode="&#x2019;" horiz-adv-x="483" 
d="M309 1149h-98q107 161 215 258q-98 18 -98 94q0 54 43.5 96.5t101.5 42.5q44 0 72 -28t28 -70q0 -44 -44.5 -108.5t-219.5 -284.5z" />
    <glyph glyph-name="quotesinglbase" unicode="&#x201a;" horiz-adv-x="454" 
d="M27 -262h-97q45 66 65.5 94.5t60 75t81.5 84.5q-92 14 -92 96q0 57 43.5 100t101.5 43q44 0 72.5 -28.5t28.5 -71.5q0 -44 -42.5 -106t-221.5 -287z" />
    <glyph glyph-name="quotedblleft" unicode="&#x201c;" horiz-adv-x="813" 
d="M477 1632h96q-6 -8 -27 -38l-28 -40t-25 -34.5t-29 -37.5t-28 -32.5t-33.5 -36t-35.5 -33.5q47 -7 70.5 -33.5t23.5 -64.5q0 -56 -45 -98.5t-103 -42.5q-44 0 -72 28t-28 72q0 43 41.5 103t222.5 288zM815 1632h96q-6 -8 -27 -38l-28 -40t-25 -34.5t-29 -37.5t-28 -32.5
t-33.5 -36t-35.5 -33.5q47 -7 69.5 -33.5t22.5 -64.5q0 -56 -44 -98.5t-102 -42.5q-44 0 -72 28t-28 72q0 43 41.5 103t222.5 288z" />
    <glyph glyph-name="quotedblright" unicode="&#x201d;" horiz-adv-x="821" 
d="M309 1149h-96q107 163 207 252q-47 7 -70.5 33.5t-23.5 64.5q0 56 44.5 98.5t102.5 42.5q44 0 72 -28t28 -72q0 -43 -41.5 -103t-222.5 -288zM647 1149h-96q4 5 23.5 33.5t24.5 35t22.5 30.5t25 33t23.5 29t27.5 32t27.5 28t33 31q-47 7 -70.5 33.5t-23.5 64.5
q0 56 44.5 98.5t102.5 42.5q44 0 72 -28t28 -72q0 -43 -41.5 -103t-222.5 -288z" />
    <glyph glyph-name="quotedblbase" unicode="&#x201e;" horiz-adv-x="792" 
d="M29 -254h-99q47 67 66.5 94t60 74t82.5 84q-47 7 -70.5 33.5t-23.5 64.5q0 57 44.5 100.5t103.5 43.5q44 0 72 -29t28 -72q0 -44 -42.5 -106t-221.5 -287zM367 -254h-97q4 5 23.5 33.5t24.5 35t22.5 30.5t25 33t23.5 29t27.5 32t27.5 28t33 31q-47 7 -70.5 33.5
t-23.5 64.5q0 57 44.5 100.5t102.5 43.5q44 0 72.5 -29t28.5 -72q0 -44 -42.5 -106t-221.5 -287z" />
    <glyph glyph-name="dagger" unicode="&#x2020;" horiz-adv-x="1001" 
d="M547 430h-144q82 465 152 756q-140 -19 -356 -19l22 133q223 0 350 -18q5 136 45 356h146q-39 -220 -82 -356q133 18 360 18l-22 -133q-220 0 -354 19q-35 -297 -117 -756z" />
    <glyph glyph-name="daggerdbl" unicode="&#x2021;" horiz-adv-x="1085" 
d="M1079 1300l-24 -133q-222 0 -361 25q14 -167 -51 -338q139 25 361 25l-23 -134q-221 0 -354 27q0 -29 -0.5 -56t-3 -57.5t-4 -49.5t-7 -54t-7 -46.5t-8 -51.5t-7.5 -47h-146q2 9 11 56t12 61t12 54t15.5 63.5t17.5 58.5t23 69q-143 -27 -367 -27l25 134q223 0 356 -25
q-6 171 59 338q-143 -25 -366 -25l24 133q231 0 357 -24q0 142 39 362h143q-36 -220 -96 -362q144 24 370 24z" />
    <glyph glyph-name="bullet" unicode="&#x2022;" horiz-adv-x="806" 
d="M381 430q-78 0 -128 52t-50 128q0 101 77 176.5t179 75.5q77 0 126.5 -50t49.5 -124q0 -99 -77.5 -178.5t-176.5 -79.5z" />
    <glyph glyph-name="ellipsis" unicode="&#x2026;" horiz-adv-x="1368" 
d="M156 -14q-45 0 -74 29.5t-29 72.5q0 57 44.5 100t101.5 43q44 0 72 -28.5t28 -71.5q0 -56 -44 -100.5t-99 -44.5zM600 -14q-45 0 -73.5 29.5t-28.5 72.5q0 57 44 100t101 43q44 0 72 -28.5t28 -71.5q0 -56 -44 -100.5t-99 -44.5zM1044 -14q-45 0 -73.5 29.5t-28.5 72.5
q0 57 44 100t101 43q44 0 72.5 -28.5t28.5 -71.5q0 -56 -44.5 -100.5t-99.5 -44.5z" />
    <glyph glyph-name="uni202F" unicode="&#x202f;" horiz-adv-x="399" 
 />
    <glyph glyph-name="perthousand" unicode="&#x2030;" horiz-adv-x="2414" 
d="M387 780q-102 0 -160.5 75.5t-58.5 205.5q0 118 46 225.5t128.5 175.5t179.5 68q103 0 162 -76.5t59 -206.5q0 -119 -46 -226t-129 -174t-181 -67zM270 0h-149l1397 1468h141zM408 897q51 0 98 51.5t74.5 131.5t27.5 163q0 82 -28 125t-76 43q-53 0 -100 -51t-74 -131
t-27 -164q0 -81 27.5 -124.5t77.5 -43.5zM1257 -29q-102 0 -160.5 75.5t-58.5 205.5q0 118 46 225.5t129 175.5t180 68q103 0 162 -76.5t59 -206.5q0 -119 -46 -226t-129.5 -174t-181.5 -67zM1958 -29q-102 0 -160.5 75.5t-58.5 205.5q0 118 46 225.5t128.5 175.5t179.5 68
q103 0 162 -76.5t59 -206.5q0 -119 -46 -226t-129 -174t-181 -67zM1278 88q78 0 139.5 109t61.5 237q0 81 -28.5 124.5t-76.5 43.5q-53 0 -99.5 -51t-73.5 -131t-27 -164q0 -81 27 -124.5t77 -43.5zM1978 88q78 0 139.5 109t61.5 237q0 82 -28 125t-76 43q-53 0 -100 -51
t-74 -131t-27 -164q0 -81 27 -124.5t77 -43.5z" />
    <glyph glyph-name="guilsinglleft" unicode="&#x2039;" horiz-adv-x="751" 
d="M547 164h-174l-262 405l2 9l405 405h174q-100 -98 -147 -143t-130 -115t-161 -121l-10 -59q85 -75 152 -162.5t151 -218.5z" />
    <glyph glyph-name="guilsinglright" unicode="&#x203a;" horiz-adv-x="753" 
d="M240 164h-174q7 7 48 47t52.5 51.5t49 47.5t55 51.5l52.5 46.5t59.5 50t56.5 43t63 44l10 59q-86 75 -153 163t-148 216h174l262 -405l-2 -9z" />
    <glyph glyph-name="fraction" unicode="&#x2044;" horiz-adv-x="313" 
d="M-430 0h-150l1397 1468h141z" />
    <glyph glyph-name="uni205F" unicode="&#x205f;" horiz-adv-x="454" 
 />
    <glyph glyph-name="uni2070" unicode="&#x2070;" horiz-adv-x="700" 
d="M387 780q-102 0 -160.5 75.5t-58.5 205.5q0 118 46 225.5t128.5 175.5t179.5 68q103 0 162 -76.5t59 -206.5q0 -119 -46 -226t-129 -174t-181 -67zM408 897q51 0 98 51.5t74.5 131.5t27.5 163q0 82 -28 125t-76 43q-53 0 -100 -51t-74 -131t-27 -164q0 -81 27.5 -124.5
t77.5 -43.5z" />
    <glyph glyph-name="uni2074" unicode="&#x2074;" horiz-adv-x="671" 
d="M557 797h-123l29 153h-350l18 107l434 456h119l-80 -456h96l-18 -107h-98zM532 1350l-276 -293h225z" />
    <glyph glyph-name="uni2075" unicode="&#x2075;" horiz-adv-x="657" 
d="M356 780q-93 0 -160 43t-79 121l119 57q12 -53 50.5 -82.5t90.5 -29.5q70 0 119 50t49 116q0 53 -31.5 82.5t-83.5 29.5q-87 0 -143 -77l-101 28l154 395h379l-19 -104h-286l-84 -209q28 28 74 45t88 17q79 0 133.5 -48.5t54.5 -138.5q0 -121 -95 -208t-229 -87z" />
    <glyph glyph-name="uni2076" unicode="&#x2076;" horiz-adv-x="684" 
d="M389 780q-106 0 -166.5 65t-60.5 189q0 122 56 236.5t154 187t210 72.5q51 0 100.5 -16.5t77.5 -53.5l-82 -84q-43 43 -117 43q-90 0 -158.5 -67t-97.5 -189h2q30 46 85.5 73.5t111.5 27.5q86 0 143.5 -53.5t57.5 -141.5q0 -113 -92.5 -201t-223.5 -88zM414 887
q66 0 117 52t51 118q0 52 -33 84.5t-84 32.5q-67 0 -118.5 -51t-51.5 -117q0 -51 33.5 -85t85.5 -34z" />
    <glyph glyph-name="uni2077" unicode="&#x2077;" horiz-adv-x="567" 
d="M322 797h-136q25 140 124 319.5t231 294.5h-359l19 109h506l-19 -111q-139 -107 -240 -285t-126 -327z" />
    <glyph glyph-name="uni2078" unicode="&#x2078;" horiz-adv-x="671" 
d="M375 780q-105 0 -168.5 51.5t-63.5 129.5q0 71 49 132t117 78v5q-76 42 -76 124q0 90 80 160t193 70q89 0 147 -46.5t58 -123.5q0 -61 -35 -111t-94 -73l-2 -5q47 -14 75.5 -52t28.5 -93q0 -101 -90 -173.5t-219 -72.5zM453 1219q57 0 99 38.5t42 88.5q0 38 -29 63
t-73 25q-57 0 -97.5 -36t-40.5 -87q0 -40 27.5 -66t71.5 -26zM397 891q66 0 112 43t46 104q0 43 -31 70t-84 27q-69 0 -115 -40.5t-46 -99.5q0 -49 32.5 -76.5t85.5 -27.5z" />
    <glyph glyph-name="uni2079" unicode="&#x2079;" horiz-adv-x="692" 
d="M344 780q-63 0 -120.5 25.5t-90.5 77.5l84 82q54 -78 150 -78q89 0 147 73.5t80 186.5q-31 -51 -86 -79t-113 -28q-87 0 -143.5 53t-56.5 142q0 120 95 207.5t228 87.5q219 0 219 -256q0 -127 -52.5 -240.5t-143.5 -183.5t-197 -70zM432 1128q68 0 121 56.5t53 126.5
q0 53 -33.5 84.5t-85.5 31.5q-69 0 -120.5 -53.5t-51.5 -124.5q0 -54 32.5 -87.5t84.5 -33.5z" />
    <glyph glyph-name="uni2080" unicode="&#x2080;" horiz-adv-x="700" 
d="M199 -285q-102 0 -160.5 75.5t-58.5 203.5q0 119 46 227t128.5 176t179.5 68q103 0 162 -76.5t59 -206.5q0 -119 -46 -226t-129 -174t-181 -67zM219 -168q78 0 139.5 109t61.5 237q0 81 -28.5 124.5t-76.5 43.5q-53 0 -99.5 -51t-73.5 -131t-27 -164q0 -82 27 -125
t77 -43z" />
    <glyph glyph-name="uni2081" unicode="&#x2081;" horiz-adv-x="454" 
d="M182 -270h-127l88 510q-76 -69 -170 -84l25 129q73 21 125 66t61 98h123z" />
    <glyph glyph-name="uni2082" unicode="&#x2082;" horiz-adv-x="647" 
d="M428 -270h-494l3 14q29 120 84 183t208 155q27 17 44 28.5t48.5 37.5t48.5 55.5t17 60.5q0 38 -26.5 62t-71.5 24q-64 0 -112 -44.5t-60 -117.5l-115 19q20 115 107 186.5t202 71.5q93 0 151 -49t58 -131q0 -84 -52 -147t-122 -105q-19 -12 -67 -40.5t-68 -42
t-46.5 -41.5t-41.5 -61h326z" />
    <glyph glyph-name="uni2083" unicode="&#x2083;" horiz-adv-x="657" 
d="M174 -285q-99 0 -165 45t-75 119l121 55q22 -112 135 -112q65 0 109.5 39t44.5 94q0 94 -127 94h-72l17 92h76q61 0 104 36t43 91q0 38 -29 62t-75 24q-54 0 -94.5 -30.5t-57.5 -85.5l-111 24q25 88 107.5 145.5t183.5 57.5q90 0 149.5 -44t59.5 -116q0 -66 -43.5 -122.5
t-105.5 -71.5v-2q50 -9 80 -46t30 -92q0 -102 -89 -179t-216 -77z" />
    <glyph glyph-name="uni2084" unicode="&#x2084;" horiz-adv-x="671" 
d="M369 -270h-123l28 155h-350l19 107l434 457h119l-80 -457h96l-18 -107h-99zM344 285l-276 -293h225z" />
    <glyph glyph-name="uni2085" unicode="&#x2085;" horiz-adv-x="657" 
d="M168 -285q-93 0 -161 43t-81 121l121 58q12 -54 50 -83.5t91 -29.5q70 0 119 50t49 116q0 53 -31 82.5t-83 29.5q-88 0 -144 -77l-100 28l154 396h378l-18 -105h-287l-84 -209q28 28 74 45t88 17q79 0 134 -48.5t55 -138.5q0 -121 -95 -208t-229 -87z" />
    <glyph glyph-name="uni2086" unicode="&#x2086;" horiz-adv-x="684" 
d="M201 -285q-107 0 -168.5 65.5t-61.5 188.5q0 122 56.5 236.5t155 187t210.5 72.5q51 0 100.5 -16.5t77.5 -53.5l-82 -84q-43 43 -116 43q-90 0 -158.5 -67t-97.5 -189h2q30 46 85 73.5t111 27.5q86 0 143.5 -53.5t57.5 -141.5q0 -115 -92 -202t-223 -87zM225 -178
q66 0 117 51.5t51 118.5q0 52 -33 84.5t-84 32.5q-67 0 -118.5 -51t-51.5 -117q0 -53 33 -86t86 -33z" />
    <glyph glyph-name="uni2087" unicode="&#x2087;" horiz-adv-x="567" 
d="M133 -270h-135q25 141 124 321.5t230 294.5h-358l18 109h506l-18 -111q-139 -108 -240.5 -286t-126.5 -328z" />
    <glyph glyph-name="uni2088" unicode="&#x2088;" horiz-adv-x="671" 
d="M186 -285q-105 0 -168 50.5t-63 128.5q0 72 48.5 133t117.5 79v5q-76 42 -76 125q0 90 79.5 159.5t192.5 69.5q89 0 147 -46.5t58 -123.5q0 -61 -35 -111t-94 -73l-2 -5q47 -14 76 -52t29 -93q0 -101 -90.5 -173.5t-219.5 -72.5zM264 154q57 0 99.5 38.5t42.5 88.5
q0 38 -29.5 63t-73.5 25q-57 0 -97 -36t-40 -87q0 -40 27 -66t71 -26zM209 -174q66 0 112 43t46 104q0 43 -31 70t-84 27q-69 0 -115.5 -40.5t-46.5 -99.5q0 -49 32.5 -76.5t86.5 -27.5z" />
    <glyph glyph-name="uni2089" unicode="&#x2089;" horiz-adv-x="692" 
d="M156 -285q-63 0 -120.5 25t-90.5 78l84 82q54 -80 149 -80q88 0 147 74.5t81 187.5q-31 -51 -86 -79t-113 -28q-87 0 -144 53t-57 142q0 120 95.5 207.5t228.5 87.5q219 0 219 -256q0 -128 -52.5 -241.5t-143.5 -183t-197 -69.5zM244 63q68 0 121 56.5t53 126.5
q0 53 -33.5 84.5t-85.5 31.5q-69 0 -120.5 -53.5t-51.5 -124.5q0 -54 32.5 -87.5t84.5 -33.5z" />
    <glyph glyph-name="Euro" unicode="&#x20ac;" horiz-adv-x="1634" 
d="M961 -35q-288 0 -444.5 160t-147.5 436q-102 -20 -256 -20l20 110q142 0 225 -26q-9 151 52 286q-91 -26 -236 -26l19 110q153 0 245 -20q88 279 297.5 446.5t505.5 167.5q293 0 442 -164l-137 -118q-122 129 -340 129q-210 0 -373.5 -120t-271.5 -341q246 20 680 20
l-18 -110q-159 0 -234 0.5t-210 6.5t-249 19q-7 -155 -47 -286q117 13 253 19t211.5 6.5t232.5 0.5l-19 -110q-429 0 -667 20q38 -224 163.5 -333t350.5 -109q92 0 180.5 27t200.5 100l81 -117q-218 -164 -509 -164z" />
    <glyph glyph-name="trademark" unicode="&#x2122;" horiz-adv-x="1568" 
d="M467 936h-109l103 580h-219l18 100h543l-17 -100h-217zM905 936h-108l121 680h108q9 -36 131 -520l311 520h109l-121 -680h-108l79 446q-92 -151 -262 -434h-75q-6 24 -31 131t-74 307z" />
    <glyph glyph-name="oneeighth" unicode="&#x215b;" horiz-adv-x="1439" 
d="M371 797h-127l88 508q-76 -69 -170 -84l24 129q73 21 125.5 65.5t61.5 97.5h123zM25 0h-150l1397 1468h141zM999 -29q-105 0 -168 51.5t-63 129.5q0 71 49 132t117 78v5q-76 42 -76 125q0 90 79.5 159.5t192.5 69.5q89 0 147 -46.5t58 -123.5q0 -61 -35 -111t-94 -73
l-2 -5q47 -14 76 -52t29 -93q0 -101 -90.5 -173.5t-219.5 -72.5zM1077 410q57 0 99.5 38.5t42.5 88.5q0 38 -29.5 63t-73.5 25q-57 0 -97 -36t-40 -87q0 -40 27 -66t71 -26zM1022 82q66 0 112 43t46 104q0 43 -31 70t-84 27q-69 0 -115.5 -40.5t-46.5 -99.5
q0 -49 32.5 -76.5t86.5 -27.5z" />
    <glyph glyph-name="threeeighths" unicode="&#x215c;" horiz-adv-x="1642" 
d="M362 780q-99 0 -164.5 45.5t-74.5 118.5l121 55q11 -53 45 -82.5t90 -29.5q65 0 109 39.5t44 95.5q0 46 -33.5 69t-92.5 23h-72l16 92h76q61 0 104 36t43 91q0 38 -29 62t-75 24q-54 0 -94.5 -30.5t-57.5 -85.5l-110 24q25 88 107.5 145.5t183.5 57.5q90 0 149.5 -44
t59.5 -116q0 -66 -44 -122.5t-106 -71.5v-2q50 -9 80.5 -46t30.5 -90q0 -102 -89.5 -180t-216.5 -78zM227 0h-149l1397 1468h141zM1202 -29q-105 0 -168 51.5t-63 129.5q0 71 49 132t117 78v5q-76 42 -76 125q0 90 79.5 159.5t192.5 69.5q89 0 147 -46.5t58 -123.5
q0 -61 -35 -111t-94 -73l-2 -5q47 -14 75.5 -52t28.5 -93q0 -101 -90 -173.5t-219 -72.5zM1280 410q57 0 99 38.5t42 88.5q0 38 -29 63t-73 25q-57 0 -97 -36t-40 -87q0 -40 27 -66t71 -26zM1225 82q66 0 111.5 42.5t45.5 104.5q0 44 -30.5 70.5t-83.5 26.5
q-69 0 -115.5 -40.5t-46.5 -99.5q0 -49 32.5 -76.5t86.5 -27.5z" />
    <glyph glyph-name="fiveeighths" unicode="&#x215d;" horiz-adv-x="1642" 
d="M356 780q-93 0 -160 43t-79 121l119 57q12 -53 50.5 -82.5t90.5 -29.5q70 0 119 50t49 116q0 53 -31.5 82.5t-83.5 29.5q-87 0 -143 -77l-101 28l154 395h379l-19 -104h-286l-84 -209q28 28 74 45t88 17q79 0 133.5 -48.5t54.5 -138.5q0 -121 -95 -208t-229 -87zM227 0
h-149l1397 1468h141zM1202 -29q-105 0 -168 51.5t-63 129.5q0 71 49 132t117 78v5q-76 42 -76 125q0 90 79.5 159.5t192.5 69.5q89 0 147 -46.5t58 -123.5q0 -61 -35 -111t-94 -73l-2 -5q47 -14 75.5 -52t28.5 -93q0 -101 -90 -173.5t-219 -72.5zM1280 410q57 0 99 38.5
t42 88.5q0 38 -29 63t-73 25q-57 0 -97 -36t-40 -87q0 -40 27 -66t71 -26zM1225 82q66 0 111.5 42.5t45.5 104.5q0 44 -30.5 70.5t-83.5 26.5q-69 0 -115.5 -40.5t-46.5 -99.5q0 -49 32.5 -76.5t86.5 -27.5z" />
    <glyph glyph-name="seveneighths" unicode="&#x215e;" horiz-adv-x="1552" 
d="M322 797h-136q25 140 124 319.5t231 294.5h-359l19 109h506l-19 -111q-139 -107 -240 -285t-126 -327zM137 0h-149l1396 1468h142zM1112 -29q-105 0 -168 51.5t-63 129.5q0 71 49 132t117 78v5q-76 42 -76 125q0 90 79.5 159.5t192.5 69.5q89 0 147 -46.5t58 -123.5
q0 -61 -35 -111t-94 -73l-2 -5q47 -14 75.5 -52t28.5 -93q0 -101 -90 -173.5t-219 -72.5zM1190 410q57 0 99 38.5t42 88.5q0 38 -29 63t-73 25q-57 0 -97 -36t-40 -87q0 -40 27 -66t71 -26zM1135 82q66 0 111.5 42.5t45.5 104.5q0 44 -30.5 70.5t-83.5 26.5
q-69 0 -115.5 -40.5t-46.5 -99.5q0 -49 32.5 -76.5t86.5 -27.5z" />
    <glyph glyph-name="arrowleft" unicode="&#x2190;" horiz-adv-x="1417" 
d="M565 236h-170l-268 405l2 8l412 406h170q-7 -7 -48.5 -46.5t-54.5 -51.5t-50.5 -47t-60 -54.5t-58 -50.5t-69.5 -58.5t-71 -56.5q354 25 1024 25l-27 -142q-667 0 -1013 27q63 -68 117 -136t86 -113t79 -115z" />
    <glyph glyph-name="arrowup" unicode="&#x2191;" horiz-adv-x="995" 
d="M473 20h-141q117 665 205 1020q-186 -170 -426 -346l30 168l465 340h8l347 -340l-31 -168q-185 185 -303 344q-35 -341 -154 -1018z" />
    <glyph glyph-name="arrowright" unicode="&#x2192;" horiz-adv-x="1413" 
d="M905 236h-170q76 74 124.5 119.5t126 112.5t161.5 132q-356 -27 -1024 -27l24 142q670 0 1014 -25q-65 71 -121.5 143t-79.5 105.5t-79 116.5h170l268 -406l-2 -8z" />
    <glyph glyph-name="arrowdown" unicode="&#x2193;" horiz-adv-x="997" 
d="M410 20h-9l-346 340l29 170q5 -5 30.5 -31t33.5 -34t31 -32.5t34 -36.5t32 -35.5t35.5 -40.5t33.5 -40.5t37 -47t36 -48.5q35 323 154 1018h143q-123 -687 -205 -1018q177 162 424 346l-29 -170z" />
    <glyph glyph-name="arrowboth" unicode="&#x2194;" horiz-adv-x="1775" 
d="M561 233h-170l-268 406l2 8l412 406h170q-338 -327 -383 -369q590 36 1173 0q-144 203 -254 369h170l268 -406l-2 -8l-411 -406h-170q41 39 165 159t218 208q-592 -40 -1172 0q55 -77 139 -201t113 -166z" />
    <glyph glyph-name="arrowupdn" unicode="&#x2195;" horiz-adv-x="1083" 
d="M449 4h-9l-346 330l29 160q168 -160 309 -304q58 521 178 1012q-147 -110 -417 -307l28 162l463 329h8l348 -329l-28 -162q-23 22 -89 86t-117 115l-104 104q-57 -523 -178 -1010q160 120 418 304l-29 -160z" />
    <glyph glyph-name="uni2196" unicode="&#x2196;" horiz-adv-x="1220" 
d="M1073 143l-123 -71q-436 517 -643 805q-20 -204 -90 -451l-111 131l132 467l6 4l573 -61l111 -131q-300 33 -543 86q40 -42 79.5 -83.5t83 -89.5t74 -81t79.5 -90t71.5 -82t78.5 -91t70.5 -83t78 -92t73.5 -87z" />
    <glyph glyph-name="uni2197" unicode="&#x2197;" horiz-adv-x="1120" 
d="M168 72l-123 71q157 187 232 275.5t206.5 236.5t247.5 267q-241 -53 -541 -86l111 131l573 61l7 -4l129 -467l-111 -131q-69 258 -88 451q-222 -306 -643 -805z" />
    <glyph glyph-name="uni2198" unicode="&#x2198;" horiz-adv-x="1226" 
d="M164 1077l123 72q436 -517 643 -805q20 204 90 451l110 -131l-131 -467l-6 -4l-573 61l-111 131q300 -33 543 -86q-233 240 -647 729q-27 33 -41 49z" />
    <glyph glyph-name="uni2199" unicode="&#x2199;" horiz-adv-x="1122" 
d="M971 1149l121 -72q-150 -179 -230 -273t-210 -239.5t-246 -265.5q244 53 542 86l-110 -131l-574 -61l-8 4l-129 467l111 131q72 -270 90 -451q207 288 643 805z" />
    <glyph glyph-name="emptyset" unicode="&#x2205;" horiz-adv-x="1427" 
d="M1262 1266l88 -70l-156 -176q119 -128 119 -338q0 -138 -55 -269t-148 -229.5t-225 -158.5t-277 -60q-159 0 -282 74l-156 -176l-88 71l158 179q-121 127 -121 338q0 139 54.5 270t147.5 229t224.5 157.5t275.5 59.5q168 0 287 -75zM283 477q0 -139 71 -235l641 725
q-83 53 -198 53q-139 0 -258.5 -77t-187.5 -202t-68 -264zM1149 655q0 142 -70 234l-641 -723q83 -53 199 -53q104 0 199.5 45t163.5 119.5t108.5 173.5t40.5 204z" />
    <glyph glyph-name="minus" unicode="&#x2212;" horiz-adv-x="1007" 
d="M874 559h-741l23 133h741z" />
    <glyph glyph-name="infinity" unicode="&#x221e;" horiz-adv-x="1837" 
d="M444 287q-138 0 -222.5 77t-84.5 203q0 105 60 197.5t158.5 146.5t207.5 54q52 0 96 -14t90.5 -49t88.5 -77.5t106 -115.5q175 144 274.5 200t198.5 56q134 0 218.5 -77t84.5 -204q0 -103 -56.5 -194.5t-154 -147t-211.5 -55.5q-103 0 -182 55.5t-201 198.5
q-171 -143 -269 -198.5t-202 -55.5zM459 408q40 0 76 10t78 35.5t68 44t82 62.5t83 65q-20 21 -52 56.5t-48.5 53.5t-44 42.5t-49.5 36t-52 20t-63 8.5q-108 0 -183 -76t-75 -182q0 -85 49 -130.5t131 -45.5zM1323 410q108 0 182 75t74 183q0 83 -47 128.5t-131 45.5
q-33 0 -66.5 -9t-59 -19.5t-63 -36.5t-58.5 -42t-68 -54t-70 -56q17 -18 49.5 -54t48 -53t44 -42t50 -36.5t52 -20.5t63.5 -9z" />
    <glyph glyph-name="approxequal" unicode="&#x2248;" horiz-adv-x="1069" 
d="M313 717h-135q22 126 104.5 196t180.5 70q41 0 75.5 -14t57.5 -33.5t43.5 -39.5t46 -34t53.5 -14q51 0 81 38t40 95h133q-22 -130 -95 -198t-173 -68q-44 0 -79 14t-58 34.5t-44 40.5t-46.5 34t-55.5 14q-52 0 -85.5 -39t-43.5 -96zM238 291h-136q16 85 61.5 147
t103.5 90.5t122 28.5q41 0 75 -14t56.5 -33.5t43.5 -39.5t46 -34t54 -14q51 0 80.5 38t39.5 97h136q-24 -131 -97.5 -199.5t-171.5 -68.5q-44 0 -79.5 14t-59 34t-44 40.5t-45.5 34.5t-54 14q-54 0 -87.5 -39t-43.5 -96z" />
    <glyph glyph-name="notequal" unicode="&#x2260;" horiz-adv-x="1054" 
d="M958 899l-22 -135h-277q-49 -158 -153 -287h379l-23 -135h-428q-11 -67 -74 -180h-127q21 40 34 63t36 56t49 61h-237l22 135h289q43 145 152 287h-390l25 135h438q3 28 15 60t22 51t31 57h127q-1 -3 -13 -24.5t-15.5 -28t-15.5 -25.5t-20 -30.5t-21.5 -28t-27.5 -31.5
h225z" />
    <glyph glyph-name="lessequal" unicode="&#x2264;" horiz-adv-x="1036" 
d="M842 334h-729l20 117h469l-436 178l24 137l758 178l-22 -129l-582 -135l518 -225z" />
    <glyph glyph-name="greaterequal" unicode="&#x2265;" horiz-adv-x="1038" 
d="M846 334h-729l22 121l596 225l-532 135l22 129l695 -178l-23 -137l-500 -178h469z" />
    <glyph glyph-name="lozenge" unicode="&#x25ca;" horiz-adv-x="1155" 
d="M524 0h-90l-295 694l541 692h90l293 -692zM293 694l213 -516h8l395 516l-213 516h-6z" />
    <glyph glyph-name="A.ss01" horiz-adv-x="1521" 
d="M100 0h-174l905 1597h226l340 -1597h-178q-83 353 -95 547l-18 18q-218 -20 -342 -20q-156 0 -344 20l-25 -20q-105 -222 -295 -545zM477 688l12 -20q208 20 304 20q102 0 270 -20l16 18q-34 149 -53.5 246t-38.5 245t-22 283h-93q-79 -199 -171.5 -374.5t-223.5 -397.5z
" />
    <glyph glyph-name="Aacute.ss01" horiz-adv-x="1521" 
d="M1415 2050l-395 -328h-143l315 328h223zM100 0h-174l905 1597h226l340 -1597h-178q-83 353 -95 547l-18 18q-218 -20 -342 -20q-156 0 -344 20l-25 -20q-105 -222 -295 -545zM477 688l12 -20q208 20 304 20q102 0 270 -20l16 18q-34 149 -53.5 246t-38.5 245t-22 283h-93
q-79 -199 -171.5 -374.5t-223.5 -397.5z" />
    <glyph glyph-name="Abreve.ss01" horiz-adv-x="1521" 
d="M965 1724q-83 0 -150 29t-106.5 76t-57.5 105.5t-10 119.5h141q-9 -81 47.5 -144t155.5 -63q100 0 179.5 62.5t99.5 144.5h139q-13 -61 -51 -119.5t-93.5 -105.5t-132.5 -76t-161 -29zM100 0h-174l905 1597h226l340 -1597h-178q-83 353 -95 547l-18 18q-218 -20 -342 -20
q-156 0 -344 20l-25 -20q-105 -222 -295 -545zM477 688l12 -20q208 20 304 20q102 0 270 -20l16 18q-34 149 -53.5 246t-38.5 245t-22 283h-93q-79 -199 -171.5 -374.5t-223.5 -397.5z" />
    <glyph glyph-name="Acircumflex.ss01" horiz-adv-x="1521" 
d="M748 1722h-146l326 314h186l217 -314h-145q-42 46 -62 70.5t-46.5 71t-41.5 98.5h-51q-52 -75 -108 -130t-129 -110zM100 0h-174l905 1597h226l340 -1597h-178q-83 353 -95 547l-18 18q-218 -20 -342 -20q-156 0 -344 20l-25 -20q-105 -222 -295 -545zM477 688l12 -20
q208 20 304 20q102 0 270 -20l16 18q-34 149 -53.5 246t-38.5 245t-22 283h-93q-79 -199 -171.5 -374.5t-223.5 -397.5z" />
    <glyph glyph-name="Adieresis.ss01" horiz-adv-x="1521" 
d="M774 1780q-44 0 -71 27t-27 69q0 55 41.5 96t97.5 41q42 0 69 -27t27 -67q0 -55 -41 -97t-96 -42zM1180 1780q-44 0 -71.5 27t-27.5 69q0 56 41.5 96.5t98.5 40.5q41 0 68.5 -27.5t27.5 -68.5q0 -53 -41.5 -95t-95.5 -42zM100 0h-174l905 1597h226l340 -1597h-178
q-83 353 -95 547l-18 18q-218 -20 -342 -20q-156 0 -344 20l-25 -20q-105 -222 -295 -545zM477 688l12 -20q208 20 304 20q102 0 270 -20l16 18q-34 149 -53.5 246t-38.5 245t-22 283h-93q-79 -199 -171.5 -374.5t-223.5 -397.5z" />
    <glyph glyph-name="Agrave.ss01" horiz-adv-x="1521" 
d="M1065 1722h-143l-279 328h223zM100 0h-174l905 1597h226l340 -1597h-178q-83 353 -95 547l-18 18q-218 -20 -342 -20q-156 0 -344 20l-25 -20q-105 -222 -295 -545zM477 688l12 -20q208 20 304 20q102 0 270 -20l16 18q-34 149 -53.5 246t-38.5 245t-22 283h-93
q-79 -199 -171.5 -374.5t-223.5 -397.5z" />
    <glyph glyph-name="Amacron.ss01" horiz-adv-x="1521" 
d="M1323 1821h-680l23 129h682zM100 0h-174l905 1597h226l340 -1597h-178q-83 353 -95 547l-18 18q-218 -20 -342 -20q-156 0 -344 20l-25 -20q-105 -222 -295 -545zM477 688l12 -20q208 20 304 20q102 0 270 -20l16 18q-34 149 -53.5 246t-38.5 245t-22 283h-93
q-79 -199 -171.5 -374.5t-223.5 -397.5z" />
    <glyph glyph-name="Aogonek.ss01" horiz-adv-x="1521" 
d="M1147 -229q0 -56 41 -90.5t108 -34.5q46 0 93 12l-19 -107q-57 -14 -108 -14q-106 0 -173 50.5t-67 142.5q0 90 61 158.5t146 111.5h-10q-83 353 -95 547l-18 18q-218 -20 -342 -20q-156 0 -344 20l-25 -20q-105 -222 -295 -545h-174l905 1597h226l340 -1597h-37
q-87 -33 -150 -94t-63 -135zM1063 668l16 18q-34 149 -53.5 246t-38.5 245t-22 283h-93q-79 -199 -171.5 -374.5t-223.5 -397.5l12 -20q208 20 304 20q102 0 270 -20z" />
    <glyph glyph-name="Aring.ss01" horiz-adv-x="1521" 
d="M963 1716q-86 0 -140.5 51.5t-54.5 133.5q0 104 80.5 183t193.5 79q86 0 140.5 -52t54.5 -135q0 -103 -81 -181.5t-193 -78.5zM979 1812q64 0 110 45t46 107q0 45 -31.5 72.5t-79.5 27.5q-64 0 -109 -43.5t-45 -105.5q0 -47 30.5 -75t78.5 -28zM100 0h-174l905 1597h226
l340 -1597h-178q-83 353 -95 547l-18 18q-218 -20 -342 -20q-156 0 -344 20l-25 -20q-105 -222 -295 -545zM477 688l12 -20q208 20 304 20q102 0 270 -20l16 18q-34 149 -53.5 246t-38.5 245t-22 283h-93q-79 -199 -171.5 -374.5t-223.5 -397.5z" />
    <glyph glyph-name="Atilde.ss01" horiz-adv-x="1521" 
d="M1118 1745q-33 0 -61 11.5t-42.5 23t-41.5 37.5l-37 32q-17 17 -25 24t-26 16t-37 9q-46 0 -80 -38.5t-45 -98.5h-117q22 115 95 186.5t169 71.5q31 0 58 -10.5t42.5 -22t37.5 -32.5l39 -35q44 -51 92 -51q44 0 75.5 38t42.5 99h117q-20 -121 -88.5 -190.5t-167.5 -69.5z
M100 0h-174l905 1597h226l340 -1597h-178q-83 353 -95 547l-18 18q-218 -20 -342 -20q-156 0 -344 20l-25 -20q-105 -222 -295 -545zM477 688l12 -20q208 20 304 20q102 0 270 -20l16 18q-34 149 -53.5 246t-38.5 245t-22 283h-93q-79 -199 -171.5 -374.5t-223.5 -397.5z
" />
    <glyph glyph-name="B.ss01" horiz-adv-x="1458" 
d="M756 0h-645l282 1597h586q210 0 323 -98t113 -250q0 -151 -100 -266t-264 -152l-7 -34q149 -25 221 -103.5t72 -197.5q0 -97 -45 -188t-122 -158.5t-185.5 -108.5t-228.5 -41zM408 870l16 -22q150 29 395 29q186 0 301 93.5t115 229.5q0 116 -90 181t-236 65
q-89 0 -125 0.5t-109.5 7.5t-139.5 21l-27 -21q-15 -282 -100 -584zM276 147l21 -24q162 29 432 29q196 0 313 95t117 232q0 119 -90 185.5t-244 66.5q-266 0 -413 29l-27 -21q-23 -315 -109 -592z" />
    <glyph glyph-name="C.ss01" horiz-adv-x="1716" 
d="M809 -35q-312 0 -496 180.5t-184 487.5q0 192 76 374t203.5 319t307.5 220.5t376 83.5q115 0 218.5 -30t187.5 -87t141.5 -148t76.5 -206l-162 -61q-39 178 -171.5 277.5t-321.5 99.5q-125 0 -241.5 -45t-208.5 -124.5t-161 -183t-106 -225t-37 -244.5q0 -134 44.5 -238
t120.5 -167t171.5 -95t204.5 -32q120 0 228.5 37.5t193 104t149 149t109.5 180.5l141 -53q-83 -169 -205 -295.5t-291.5 -202.5t-363.5 -76z" />
    <glyph glyph-name="D.ss01" horiz-adv-x="1646" 
d="M698 0h-587l282 1597h570q165 0 288 -44t198 -126.5t111.5 -193t36.5 -250.5q0 -150 -41 -294.5t-120 -268.5t-186.5 -218.5t-250 -148t-301.5 -53.5zM276 147l21 -24q164 29 410 29q163 0 300 65.5t226 175t138.5 251t49.5 296.5q0 256 -134.5 381t-379.5 125
q-86 0 -131 1t-112.5 7.5t-128.5 20.5l-27 -21q-65 -660 -232 -1307z" />
    <glyph glyph-name="E.ss01" horiz-adv-x="1343" 
d="M1141 0h-1030l282 1597h1010l-27 -151q-28 0 -156 -0.5t-178.5 0t-152.5 3t-185 9t-169 17.5l-27 -21q-11 -270 -98 -567l14 -23q141 15 296.5 23t251 9t267.5 1l-29 -156q-172 0 -267 1t-247 9.5t-284 24.5l-25 -22q-21 -315 -111 -607l21 -24q147 15 313 23t269.5 9
t289.5 1z" />
    <glyph glyph-name="F.ss01" horiz-adv-x="1275" 
d="M276 0h-165l282 1597h991l-28 -157q-177 0 -275 1t-254 9.5t-292 24.5l-27 -21q-14 -293 -105 -586l15 -22q138 16 290.5 24.5t246.5 9.5t262 1l-29 -158q-167 0 -259.5 1t-242.5 9.5t-283 24.5l-22 -23q-21 -260 -105 -735z" />
    <glyph glyph-name="G.ss01" horiz-adv-x="1748" 
d="M805 -35q-315 0 -496.5 180t-181.5 482q0 193 76 376.5t204 321t307.5 221.5t375.5 84q116 0 220 -30t188.5 -87.5t141.5 -148.5t74 -205l-162 -61q-39 178 -171 277.5t-320 99.5q-155 0 -296.5 -69.5t-241 -183t-158 -262.5t-58.5 -305q0 -250 146.5 -392t398.5 -142
q249 0 431.5 146.5t275.5 406.5l-13 20q-293 -49 -579 -49l24 141h705l-10 -53q-27 -156 -89.5 -284.5t-147 -217.5t-190 -149.5t-219.5 -88.5t-235 -28z" />
    <glyph glyph-name="H.ss01" horiz-adv-x="1656" 
d="M276 0h-165l282 1597h166q-80 -455 -149 -718l16 -21q489 45 909 0l25 21q25 272 104 718h166l-282 -1597h-166q1 8 13 74.5t15 81.5t14 75t16 84t15.5 78t18 87t18 80.5t21.5 90.5l22 86l-18 21q-449 -61 -907 0l-25 -21q-6 -65 -14 -134.5t-14.5 -117.5t-19.5 -128.5
t-18 -112t-22 -127t-21 -117.5z" />
    <glyph glyph-name="I.ss01" horiz-adv-x="1107" 
d="M932 0h-955l29 152q263 0 406 -25q110 752 239 1346q-158 -27 -428 -27l27 151h975l-27 -151q-268 0 -418 27q-100 -711 -237 -1346q154 25 418 25z" />
    <glyph glyph-name="Iacute.ss01" horiz-adv-x="1107" 
d="M1180 2050l-396 -330h-143l315 330h224zM932 0h-955l29 152q263 0 406 -25q110 752 239 1346q-158 -27 -428 -27l27 151h975l-27 -151q-268 0 -418 27q-100 -711 -237 -1346q154 25 418 25z" />
    <glyph glyph-name="Icircumflex.ss01" horiz-adv-x="1107" 
d="M543 1722h-146l326 314h186l217 -314h-145q-42 46 -62 70.5t-46.5 71t-41.5 98.5h-51q-52 -75 -108 -130t-129 -110zM932 0h-955l29 152q263 0 406 -25q110 752 239 1346q-158 -27 -428 -27l27 151h975l-27 -151q-268 0 -418 27q-100 -711 -237 -1346q154 25 418 25z" />
    <glyph glyph-name="Idieresis.ss01" horiz-adv-x="1107" 
d="M569 1780q-44 0 -71 27t-27 69q0 55 41.5 96t97.5 41q42 0 69.5 -27t27.5 -67q0 -54 -41.5 -96.5t-96.5 -42.5zM975 1780q-44 0 -71 27t-27 69q0 56 41 96.5t98 40.5q41 0 68.5 -27.5t27.5 -68.5q0 -53 -41.5 -95t-95.5 -42zM932 0h-955l29 152q263 0 406 -25
q110 752 239 1346q-158 -27 -428 -27l27 151h975l-27 -151q-268 0 -418 27q-100 -711 -237 -1346q154 25 418 25z" />
    <glyph glyph-name="Idotaccent.ss01" horiz-adv-x="1107" 
d="M770 1782q-44 0 -73 29t-29 73q0 56 44.5 98.5t102.5 42.5q44 0 72 -28t28 -70q0 -57 -44 -101t-101 -44zM932 0h-955l29 152q263 0 406 -25q110 752 239 1346q-158 -27 -428 -27l27 151h975l-27 -151q-268 0 -418 27q-100 -711 -237 -1346q154 25 418 25z" />
    <glyph glyph-name="Igrave.ss01" horiz-adv-x="1107" 
d="M862 1722h-143l-279 328h224zM932 0h-955l29 152q263 0 406 -25q110 752 239 1346q-158 -27 -428 -27l27 151h975l-27 -151q-268 0 -418 27q-100 -711 -237 -1346q154 25 418 25z" />
    <glyph glyph-name="Imacron.ss01" horiz-adv-x="1107" 
d="M1120 1821h-680l23 129h682zM932 0h-955l29 152q263 0 406 -25q110 752 239 1346q-158 -27 -428 -27l27 151h975l-27 -151q-268 0 -418 27q-100 -711 -237 -1346q154 25 418 25z" />
    <glyph glyph-name="J.ss01" horiz-adv-x="1206" 
d="M449 -35q-77 0 -144.5 17.5t-128 56t-96.5 101t-49 152.5t14 210l6 28l162 23l-6 -29q-22 -93 -13.5 -161.5t32 -115.5t64.5 -75t84 -40.5t91 -12.5q149 0 245.5 106t129.5 289q122 647 194 950l-8 27q-261 -45 -573 -45l26 151h717l-182 -1044q-6 -33 -10 -53t-17.5 -70
t-27 -85t-39 -87t-54.5 -89t-71.5 -78t-91.5 -66.5t-114.5 -42.5t-139.5 -17z" />
    <glyph glyph-name="K.ss01" horiz-adv-x="1374" 
d="M276 0h-165l282 1597h166q-4 -21 -24 -137t-28 -156.5t-25 -130.5t-32.5 -161.5t-33.5 -147.5h16q446 374 893 733h219q-665 -530 -1009 -794l-7 -27q65 -59 135.5 -127t124.5 -122t133 -136t120.5 -125.5t130 -137.5t120.5 -128h-231q-278 287 -382 403
q-147 166 -269 330h-15q-46 -335 -119 -733z" />
    <glyph glyph-name="L.ss01" horiz-adv-x="1204" 
d="M1081 0h-970l282 1597h166q-165 -938 -283 -1450l21 -24q137 15 292.5 23t251.5 9t267 1z" />
    <glyph glyph-name="M.ss01" horiz-adv-x="1939" 
d="M279 0h-168l282 1597h197q235 -615 354 -1089h31q318 518 741 1089h197l-283 -1597h-168q17 94 52 300.5t58.5 342t63 326.5t80.5 350h-26l-693 -981h-135l-346 981h-27q-16 -163 -44 -357.5t-46.5 -301t-64 -356.5t-55.5 -304z" />
    <glyph glyph-name="N.ss01" horiz-adv-x="1687" 
d="M276 0h-165l282 1597h225q133 -293 200.5 -443.5t189.5 -435.5t219 -530h45q82 617 223 1409h166l-283 -1597h-223q-134 291 -213.5 467.5t-188 430.5t-206.5 499h-49q-81 -613 -222 -1397z" />
    <glyph glyph-name="O.ss01" horiz-adv-x="1806" 
d="M799 -35q-145 0 -269 49t-213 136.5t-139.5 214.5t-50.5 278q0 189 78.5 370t209 316t309 218t368.5 83q197 0 349.5 -87t236 -241.5t83.5 -351.5q0 -151 -50 -298.5t-141 -270t-209.5 -217t-264.5 -147t-297 -52.5zM827 121q147 0 286.5 68.5t241.5 179.5t164 259
t62 300q0 242 -144.5 394.5t-371.5 152.5q-194 0 -370 -113.5t-282 -300.5t-106 -393q0 -121 39.5 -223.5t108.5 -173.5t165 -110.5t207 -39.5z" />
    <glyph glyph-name="P.ss01" horiz-adv-x="1368" 
d="M276 0h-165l282 1597h570q23 0 43.5 -1t69.5 -8.5t88.5 -20.5t88.5 -42t81.5 -68t55.5 -102.5t23 -142.5q0 -113 -44 -218.5t-121 -186t-191 -128.5t-246 -48q-152 0 -248 7.5t-192 35.5q-20 -252 -95 -674zM389 770l19 -22q67 16 143.5 24t118.5 9t125 1
q192 0 316 107.5t124 279.5q0 141 -88 209t-244 68q-239 0 -368 29l-27 -21q-23 -336 -119 -684z" />
    <glyph glyph-name="Q.ss01" horiz-adv-x="1818" 
d="M631 -16q-122 -114 -281 -250l-4 -27q189 25 395.5 37t332 14t349.5 2l-26 -143h-1336q285 274 428 414q-168 75 -262 231t-94 373q0 191 75 372t202 318.5t308.5 221t381.5 83.5q306 0 487.5 -183t181.5 -489q0 -191 -75 -372t-202 -317.5t-307.5 -219t-379.5 -82.5
q-80 0 -174 17zM307 662q0 -186 84 -316.5t230 -187.5q266 262 395 393l104 -94q-293 -287 -342 -334q18 -2 56 -2q157 0 299.5 68.5t242 180.5t158.5 260t59 304q0 250 -143 396.5t-377 146.5q-105 0 -205 -31.5t-184 -86.5t-154.5 -132t-119.5 -167t-76 -192t-27 -206z
" />
    <glyph glyph-name="R.ss01" horiz-adv-x="1413" 
d="M276 0h-165l282 1597h570q92 0 170.5 -22.5t142.5 -69t100.5 -126.5t36.5 -187q0 -122 -45.5 -218.5t-122.5 -159t-184.5 -103t-225.5 -56.5t-251 -12q170 -155 676 -643h-218q-10 10 -119.5 116t-147 143t-123 122t-148.5 152.5t-123 134.5h-12q-18 -245 -93 -668z
M389 764l17 -21q154 29 391 29q190 0 314 113t124 282q0 139 -91 210t-241 71q-229 0 -368 27l-27 -21q-25 -350 -119 -690z" />
    <glyph glyph-name="S.ss01" horiz-adv-x="1318" 
d="M578 -35q-97 0 -183 25.5t-160 79t-122.5 147t-59.5 217.5l164 55q17 -182 123 -276t268 -94q177 0 298.5 100.5t121.5 239.5q0 25 -5 47t-11.5 39t-21 33.5t-24.5 27t-32 23.5t-33 19t-39 16.5t-38.5 14t-41.5 13.5t-39 13l-139 47q-37 12 -64 22t-68 29t-70.5 38.5
t-62 49.5t-53.5 63.5t-34.5 79t-13.5 96.5q0 98 46 189.5t125 160t191.5 109.5t237.5 41q207 0 330 -106t139 -275l-160 -61q-21 135 -110.5 213t-233.5 78q-162 0 -274.5 -91.5t-112.5 -216.5q0 -49 21.5 -91t48.5 -68t72 -50t71.5 -34t66.5 -23l150 -51q131 -45 169 -64
q162 -77 192 -215q7 -34 7 -73q0 -101 -49.5 -198.5t-133 -172t-203 -120.5t-250.5 -46z" />
    <glyph glyph-name="U.ss01" horiz-adv-x="1558" 
d="M637 -35q-109 0 -194.5 32t-138.5 88.5t-85 134.5t-34.5 170.5t12.5 195.5l180 1011h166l-178 -1001q-40 -228 42.5 -352.5t280.5 -124.5q199 0 330.5 125.5t171.5 351.5l176 1001h166l-283 -1597h-159q15 87 69 260h-24q-89 -156 -210 -225.5t-288 -69.5z" />
    <glyph glyph-name="Uacute.ss01" horiz-adv-x="1558" 
d="M1294 2050l-395 -330h-143l315 330h223zM637 -35q-109 0 -194.5 32t-138.5 88.5t-85 134.5t-34.5 170.5t12.5 195.5l180 1011h166l-178 -1001q-40 -228 42.5 -352.5t280.5 -124.5q199 0 330.5 125.5t171.5 351.5l176 1001h166l-283 -1597h-159q15 87 69 260h-24
q-89 -156 -210 -225.5t-288 -69.5z" />
    <glyph glyph-name="Ucircumflex.ss01" horiz-adv-x="1558" 
d="M752 1722h-146l326 314h186l217 -314h-145q-42 46 -62 70.5t-46.5 71t-41.5 98.5h-51q-52 -75 -108 -130t-129 -110zM637 -35q-109 0 -194.5 32t-138.5 88.5t-85 134.5t-34.5 170.5t12.5 195.5l180 1011h166l-178 -1001q-40 -228 42.5 -352.5t280.5 -124.5
q199 0 330.5 125.5t171.5 351.5l176 1001h166l-283 -1597h-159q15 87 69 260h-24q-89 -156 -210 -225.5t-288 -69.5z" />
    <glyph glyph-name="Udieresis.ss01" horiz-adv-x="1558" 
d="M778 1780q-44 0 -71 27t-27 69q0 55 41.5 96t97.5 41q42 0 69 -27t27 -67q0 -55 -41 -97t-96 -42zM1184 1780q-44 0 -71.5 27t-27.5 69q0 56 41.5 96.5t98.5 40.5q41 0 68.5 -27.5t27.5 -68.5q0 -53 -41.5 -95t-95.5 -42zM637 -35q-109 0 -194.5 32t-138.5 88.5
t-85 134.5t-34.5 170.5t12.5 195.5l180 1011h166l-178 -1001q-40 -228 42.5 -352.5t280.5 -124.5q199 0 330.5 125.5t171.5 351.5l176 1001h166l-283 -1597h-159q15 87 69 260h-24q-89 -156 -210 -225.5t-288 -69.5z" />
    <glyph glyph-name="Ugrave.ss01" horiz-adv-x="1558" 
d="M1069 1722h-143l-279 328h223zM637 -35q-109 0 -194.5 32t-138.5 88.5t-85 134.5t-34.5 170.5t12.5 195.5l180 1011h166l-178 -1001q-40 -228 42.5 -352.5t280.5 -124.5q199 0 330.5 125.5t171.5 351.5l176 1001h166l-283 -1597h-159q15 87 69 260h-24
q-89 -156 -210 -225.5t-288 -69.5z" />
    <glyph glyph-name="Uhungarumlaut.ss01" horiz-adv-x="1558" 
d="M1180 2050l-340 -328h-140l271 328h209zM1522 2050l-357 -328h-139l287 328h209zM637 -35q-109 0 -194.5 32t-138.5 88.5t-85 134.5t-34.5 170.5t12.5 195.5l180 1011h166l-178 -1001q-40 -228 42.5 -352.5t280.5 -124.5q199 0 330.5 125.5t171.5 351.5l176 1001h166
l-283 -1597h-159q15 87 69 260h-24q-89 -156 -210 -225.5t-288 -69.5z" />
    <glyph glyph-name="Umacron.ss01" horiz-adv-x="1558" 
d="M1327 1821h-680l23 129h682zM637 -35q-109 0 -194.5 32t-138.5 88.5t-85 134.5t-34.5 170.5t12.5 195.5l180 1011h166l-178 -1001q-40 -228 42.5 -352.5t280.5 -124.5q199 0 330.5 125.5t171.5 351.5l176 1001h166l-283 -1597h-159q15 87 69 260h-24
q-89 -156 -210 -225.5t-288 -69.5z" />
    <glyph glyph-name="Uogonek.ss01" horiz-adv-x="1558" 
d="M1022 -229q0 -56 41 -90.5t108 -34.5q46 0 93 12l-19 -107q-57 -14 -108 -14q-106 0 -173 50.5t-67 142.5q0 90 61 158.5t146 111.5h-14q15 87 69 260h-24q-89 -156 -210 -225.5t-288 -69.5q-109 0 -194.5 32t-138.5 88.5t-85 134.5t-34.5 170.5t12.5 195.5l180 1011h166
l-178 -1001q-40 -228 42.5 -352.5t280.5 -124.5q199 0 330.5 125.5t171.5 351.5l176 1001h166l-283 -1597h-14q-87 -33 -150 -94t-63 -135z" />
    <glyph glyph-name="Uring.ss01" horiz-adv-x="1558" 
d="M967 1716q-86 0 -140.5 51.5t-54.5 133.5q0 104 81 183t194 79q86 0 140 -52t54 -135q0 -103 -81 -181.5t-193 -78.5zM983 1812q64 0 110 45t46 107q0 45 -31.5 72.5t-79.5 27.5q-64 0 -109 -43.5t-45 -105.5q0 -47 30.5 -75t78.5 -28zM637 -35q-109 0 -194.5 32
t-138.5 88.5t-85 134.5t-34.5 170.5t12.5 195.5l180 1011h166l-178 -1001q-40 -228 42.5 -352.5t280.5 -124.5q199 0 330.5 125.5t171.5 351.5l176 1001h166l-283 -1597h-159q15 87 69 260h-24q-89 -156 -210 -225.5t-288 -69.5z" />
    <glyph glyph-name="V.ss01" horiz-adv-x="1523" 
d="M788 0h-256l-323 1597h176q170 -854 272 -1419h80q472 881 770 1419h174z" />
    <glyph glyph-name="W.ss01" horiz-adv-x="2330" 
d="M647 0h-205l-225 1597h180l176 -1374h15l620 1374h295l125 -1374h14l658 1374h180l-790 -1597h-203l-117 1432h-86z" />
    <glyph glyph-name="Wacute.ss01" horiz-adv-x="2330" 
d="M1821 2050l-396 -328h-143l315 328h224zM647 0h-205l-225 1597h180l176 -1374h15l620 1374h295l125 -1374h14l658 1374h180l-790 -1597h-203l-117 1432h-86z" />
    <glyph glyph-name="Wcircumflex.ss01" horiz-adv-x="2330" 
d="M1153 1722h-145l325 314h187l217 -314h-146q-41 45 -61.5 70.5t-46 71.5t-41.5 98h-51q-52 -75 -108 -129.5t-130 -110.5zM647 0h-205l-225 1597h180l176 -1374h15l620 1374h295l125 -1374h14l658 1374h180l-790 -1597h-203l-117 1432h-86z" />
    <glyph glyph-name="Wdieresis.ss01" horiz-adv-x="2330" 
d="M1180 1780q-44 0 -71.5 27t-27.5 69q0 55 42 96t98 41q42 0 69 -27t27 -67q0 -55 -41 -97t-96 -42zM1585 1780q-44 0 -71 27t-27 69q0 56 41 96.5t98 40.5q41 0 68.5 -27.5t27.5 -68.5q0 -53 -41.5 -95t-95.5 -42zM647 0h-205l-225 1597h180l176 -1374h15l620 1374h295
l125 -1374h14l658 1374h180l-790 -1597h-203l-117 1432h-86z" />
    <glyph glyph-name="Wgrave.ss01" horiz-adv-x="2330" 
d="M1470 1722h-143l-278 328h223zM647 0h-205l-225 1597h180l176 -1374h15l620 1374h295l125 -1374h14l658 1374h180l-790 -1597h-203l-117 1432h-86z" />
    <glyph glyph-name="X.ss01" horiz-adv-x="1417" 
d="M109 0h-187l686 813l-2 14l-389 770h186q186 -373 328 -698h76q59 72 158 195.5t185.5 227.5t233.5 275h183l-664 -770l-4 -14l397 -813h-182q-87 180 -202 431t-136 306h-74q-68 -85 -153 -194t-176 -221.5t-264 -321.5z" />
    <glyph glyph-name="Y.ss01" horiz-adv-x="1398" 
d="M362 0h-174q328 421 478 588q-179 370 -443 1009h183q11 -28 59 -146.5t62.5 -154.5t52 -133t58 -152.5t49.5 -137t54 -158.5h27q221 345 637 882h178z" />
    <glyph glyph-name="Yacute.ss01" horiz-adv-x="1398" 
d="M1348 2050l-394 -330h-143l313 330h224zM362 0h-174q328 421 478 588q-179 370 -443 1009h183q11 -28 59 -146.5t62.5 -154.5t52 -133t58 -152.5t49.5 -137t54 -158.5h27q221 345 637 882h178z" />
    <glyph glyph-name="Ycircumflex.ss01" horiz-adv-x="1398" 
d="M707 1722h-146l326 314h186l217 -314h-145q-42 46 -62 70.5t-46.5 71t-41.5 98.5h-51q-52 -75 -108 -130t-129 -110zM362 0h-174q328 421 478 588q-179 370 -443 1009h183q11 -28 59 -146.5t62.5 -154.5t52 -133t58 -152.5t49.5 -137t54 -158.5h27q221 345 637 882h178z
" />
    <glyph glyph-name="Ydieresis.ss01" horiz-adv-x="1398" 
d="M733 1780q-44 0 -71 27t-27 69q0 55 41.5 96t97.5 41q42 0 69 -27t27 -67q0 -55 -41 -97t-96 -42zM1139 1780q-44 0 -71.5 27t-27.5 69q0 56 41.5 96.5t98.5 40.5q41 0 68.5 -27.5t27.5 -68.5q0 -53 -41.5 -95t-95.5 -42zM362 0h-174q328 421 478 588q-179 370 -443 1009
h183q11 -28 59 -146.5t62.5 -154.5t52 -133t58 -152.5t49.5 -137t54 -158.5h27q221 345 637 882h178z" />
    <glyph glyph-name="Ygrave.ss01" horiz-adv-x="1398" 
d="M1024 1722h-143l-279 328h223zM362 0h-174q328 421 478 588q-179 370 -443 1009h183q11 -28 59 -146.5t62.5 -154.5t52 -133t58 -152.5t49.5 -137t54 -158.5h27q221 345 637 882h178z" />
    <glyph glyph-name="Z.ss01" horiz-adv-x="1398" 
d="M1217 0h-1317q1172 1268 1349 1456l-8 25q-363 -35 -958 -35l28 151h1250q-70 -76 -297 -322.5t-350 -379.5t-325 -348t-378 -397l10 -27q162 15 357.5 23t319.5 9t347 1z" />
    <glyph glyph-name="Zacute.ss01" horiz-adv-x="1398" 
d="M1348 2050l-396 -328h-143l315 328h224zM1217 0h-1317q1172 1268 1349 1456l-8 25q-363 -35 -958 -35l28 151h1250q-70 -76 -297 -322.5t-350 -379.5t-325 -348t-378 -397l10 -27q162 15 357.5 23t319.5 9t347 1z" />
    <glyph glyph-name="Zcaron.ss01" horiz-adv-x="1398" 
d="M991 1722h-188l-215 314h145q43 -49 60 -70t46 -69.5t46 -100.5h51q34 52 79 100t71 70.5t83 69.5h146zM1217 0h-1317q1172 1268 1349 1456l-8 25q-363 -35 -958 -35l28 151h1250q-70 -76 -297 -322.5t-350 -379.5t-325 -348t-378 -397l10 -27q162 15 357.5 23t319.5 9
t347 1z" />
    <glyph glyph-name="Zdotaccent.ss01" horiz-adv-x="1398" 
d="M911 1782q-44 0 -73 29t-29 73q0 56 44.5 98.5t102.5 42.5q44 0 72.5 -28t28.5 -70q0 -57 -44.5 -101t-101.5 -44zM1217 0h-1317q1172 1268 1349 1456l-8 25q-363 -35 -958 -35l28 151h1250q-70 -76 -297 -322.5t-350 -379.5t-325 -348t-378 -397l10 -27q162 15 357.5 23
t319.5 9t347 1z" />
    <glyph glyph-name="Q.ss02" horiz-adv-x="1806" 
d="M1761 946q0 -176 -69 -345.5t-187.5 -301.5t-287.5 -221.5t-359 -108.5q1 -22 -0.5 -44.5t-5.5 -49t-6.5 -43t-9 -51.5t-9.5 -49q95 14 205 21t172 8t189 1l-27 -145q-467 0 -678 18q29 225 64 332q-278 20 -451.5 204.5t-173.5 473.5q0 188 78.5 368.5t209 315.5
t309 218t368.5 83q196 0 348.5 -87t236.5 -242.5t84 -354.5zM881 119q143 21 273 95t223.5 182t148.5 246.5t55 283.5q0 243 -145 396t-371 153q-194 0 -370 -113.5t-282 -300.5t-106 -393q0 -221 126 -368t349 -179q0 27 1 53.5t3.5 56t4 51t6 55t6.5 49.5t8.5 54t8.5 49.5
t9.5 53.5t8.5 51h157q-2 -13 -11.5 -65.5t-13.5 -71t-12.5 -64t-15.5 -71t-16.5 -64t-20.5 -72t-24 -67.5z" />
    <glyph glyph-name="A.ss07" 
d="M868 -315q-355 0 -573.5 210t-218.5 549q0 140 40.5 279t112.5 260t176 225.5t226 178.5t267.5 116.5t295.5 42.5q228 0 408 -91.5t284.5 -267t104.5 -407.5q0 -171 -57 -335.5t-162 -300.5t-243 -239.5t-309.5 -161.5t-351.5 -58zM1059 1096l-557 -963h119
q127 220 178 328l10 8q126 -12 203 -12q72 0 198 12l4 -6q11 -125 60 -330h121l-217 963h-119zM852 545l-2 4q148 236 240 438h18q17 -200 80 -438l-2 -4q-74 12 -156 12q-86 0 -178 -12z" />
    <glyph glyph-name="B.ss07" 
d="M868 -315q-355 0 -573.5 210t-218.5 549q0 140 40.5 279t112.5 260t176 225.5t226 178.5t267.5 116.5t295.5 42.5q228 0 408 -91.5t284.5 -267t104.5 -407.5q0 -171 -57 -335.5t-162 -300.5t-243 -239.5t-309.5 -161.5t-351.5 -58zM805 1096l-170 -963h391q146 0 249 90
t103 213q0 75 -44.5 122.5t-127.5 62.5v6q100 25 160.5 95.5t60.5 160.5q0 97 -74 155t-194 58h-354zM836 653l-7 6q53 192 56 342l10 7q89 -19 219 -19q87 0 138 -37t51 -102q0 -76 -67 -128t-173 -52q-123 0 -227 -17zM758 223l-6 10q49 164 63 342l6 9q93 -17 242 -17
q90 0 142 -38t52 -105q0 -81 -68 -132.5t-179 -51.5q-146 0 -252 -17z" />
    <glyph glyph-name="C.ss07" 
d="M868 -315q-355 0 -573.5 210t-218.5 549q0 140 40.5 279t112.5 260t176 225.5t226 178.5t267.5 116.5t295.5 42.5q228 0 408 -91.5t284.5 -267t104.5 -407.5q0 -171 -57 -335.5t-162 -300.5t-243 -239.5t-309.5 -161.5t-351.5 -58zM973 113q168 0 305.5 93t216.5 261
l-98 35q-55 -123 -158.5 -202t-241.5 -79q-63 0 -117.5 18t-99 54.5t-70.5 97t-26 139.5q0 121 57.5 231t160.5 178.5t224 68.5q113 0 187.5 -61t95.5 -165l113 41q-13 96 -70.5 163.5t-137 98.5t-173.5 31q-155 0 -289.5 -85t-211.5 -223.5t-77 -293.5q0 -183 110.5 -292
t299.5 -109z" />
    <glyph glyph-name="D.ss07" 
d="M868 -315q-355 0 -573.5 210t-218.5 549q0 140 40.5 279t112.5 260t176 225.5t226 178.5t267.5 116.5t295.5 42.5q228 0 408 -91.5t284.5 -267t104.5 -407.5q0 -171 -57 -335.5t-162 -300.5t-243 -239.5t-309.5 -161.5t-351.5 -58zM768 1096l-170 -963h358
q120 0 223.5 50.5t172.5 133.5t108 190t39 220q0 180 -99.5 274.5t-285.5 94.5h-346zM721 223l-6 10q94 374 135 768l10 7q90 -19 217 -19q140 0 218.5 -69.5t78.5 -219.5q0 -120 -47.5 -224t-139.5 -170t-210 -66q-156 0 -256 -17z" />
    <glyph glyph-name="E.ss07" 
d="M868 -315q-355 0 -573.5 210t-218.5 549q0 140 40.5 279t112.5 260t176 225.5t226 178.5t267.5 116.5t295.5 42.5q228 0 408 -91.5t284.5 -267t104.5 -407.5q0 -171 -57 -335.5t-162 -300.5t-243 -239.5t-309.5 -161.5t-351.5 -58zM825 1096l-170 -963h627l18 109
q-341 0 -520 -19l-8 8q55 193 66 355l8 8q28 -4 54.5 -7t58 -5t51 -3.5t56.5 -2.5t49 -1.5t56 -1t49 -0.5h55h50l18 109q-309 0 -485 -20l-6 8q49 175 55 331l11 7q43 -6 90.5 -9.5t81.5 -5.5t88.5 -3t78 -1h86.5h78l21 107h-617z" />
    <glyph glyph-name="F.ss07" 
d="M868 -315q-355 0 -573.5 210t-218.5 549q0 140 40.5 279t112.5 260t176 225.5t226 178.5t267.5 116.5t295.5 42.5q228 0 408 -91.5t284.5 -267t104.5 -407.5q0 -171 -57 -335.5t-162 -300.5t-243 -239.5t-309.5 -161.5t-351.5 -58zM846 1096l-170 -963h115q4 23 13 75
t12.5 74t10.5 65.5t10.5 73.5t7.5 71t7 83l8 9q170 -23 471 -23l19 109q-311 0 -478 -19l-4 8q55 182 58 342l12 7q183 -21 494 -21l18 109h-604z" />
    <glyph glyph-name="G.ss07" 
d="M868 -315q-355 0 -573.5 210t-218.5 549q0 140 40.5 279t112.5 260t176 225.5t226 178.5t267.5 116.5t295.5 42.5q228 0 408 -91.5t284.5 -267t104.5 -407.5q0 -171 -57 -335.5t-162 -300.5t-243 -239.5t-309.5 -161.5t-351.5 -58zM961 113q266 0 409 254l14 -2
q-13 -38 -22 -68.5t-14 -56t-7.5 -39t-5.5 -37t-4 -31.5h94l84 483h-434l-16 -100q167 -3 348 29l4 -6q-59 -147 -169 -232.5t-245 -85.5q-133 0 -223 78.5t-90 232.5q0 121 57.5 230.5t160 177.5t222.5 68q112 0 187.5 -60t97.5 -166l113 41q-13 96 -70.5 163.5t-137 98.5
t-173.5 31q-155 0 -289.5 -85.5t-211.5 -224.5t-77 -294q0 -182 108.5 -290.5t289.5 -108.5z" />
    <glyph glyph-name="H.ss07" 
d="M868 -315q-355 0 -573.5 210t-218.5 549q0 140 40.5 279t112.5 260t176 225.5t226 178.5t267.5 116.5t295.5 42.5q228 0 408 -91.5t284.5 -267t104.5 -407.5q0 -171 -57 -335.5t-162 -300.5t-243 -239.5t-309.5 -161.5t-351.5 -58zM743 1096l-170 -963h115q3 20 16 94
t18.5 108t15 102.5t16.5 137.5l6 7q275 -36 532 0l6 -7q-40 -157 -90 -442h115l170 963h-115q-49 -271 -63 -430l-8 -7q-262 22 -533 0l-6 7q30 110 90 430h-115z" />
    <glyph glyph-name="I.ss07" 
d="M868 -315q-355 0 -573.5 210t-218.5 549q0 140 40.5 279t112.5 260t176 225.5t226 178.5t267.5 116.5t295.5 42.5q228 0 408 -91.5t284.5 -267t104.5 -407.5q0 -171 -57 -335.5t-162 -300.5t-243 -239.5t-309.5 -161.5t-351.5 -58zM1061 1096l-170 -963h115l170 963h-115
z" />
    <glyph glyph-name="J.ss07" 
d="M868 -315q-355 0 -573.5 210t-218.5 549q0 140 40.5 279t112.5 260t176 225.5t226 178.5t267.5 116.5t295.5 42.5q228 0 408 -91.5t284.5 -267t104.5 -407.5q0 -171 -57 -335.5t-162 -300.5t-243 -239.5t-309.5 -161.5t-351.5 -58zM913 123q58 0 106.5 16.5t81.5 40.5
t61 62t43.5 70t29 76.5t18.5 69t11 58.5l102 590h-115l-106 -614q-7 -38 -14 -66.5t-23.5 -68.5t-38 -65.5t-57.5 -44t-82 -18.5q-83 0 -133 55t-25 173l6 30l-112 -12l-7 -37q-15 -84 0 -147t54.5 -98.5t89.5 -52.5t110 -17z" />
    <glyph glyph-name="K.ss07" 
d="M868 -315q-355 0 -573.5 210t-218.5 549q0 140 40.5 279t112.5 260t176 225.5t226 178.5t267.5 116.5t295.5 42.5q228 0 408 -91.5t284.5 -267t104.5 -407.5q0 -171 -57 -335.5t-162 -300.5t-243 -239.5t-309.5 -161.5t-351.5 -58zM807 1096l-170 -963h115q6 41 16 97.5
t18.5 111t16.5 127.5q73 48 147 131h4q83 -160 267 -467h139q-18 31 -59 101t-60 101t-54 89t-72.5 115.5t-84.5 128.5v8q61 49 130 108.5t115 100t123.5 110.5t112.5 101h-141q-412 -373 -559 -510h-6q18 56 33 110t28 113.5t20 93.5t19.5 103.5t16.5 89.5h-115z" />
    <glyph glyph-name="L.ss07" 
d="M868 -315q-355 0 -573.5 210t-218.5 549q0 140 40.5 279t112.5 260t176 225.5t226 178.5t267.5 116.5t295.5 42.5q228 0 408 -91.5t284.5 -267t104.5 -407.5q0 -171 -57 -335.5t-162 -300.5t-243 -239.5t-309.5 -161.5t-351.5 -58zM901 1096l-170 -963h592l20 109
q-322 0 -487 -19l-8 10q18 78 35.5 160t29 139.5t29 150t24 130.5t26 146.5t24.5 136.5h-115z" />
    <glyph glyph-name="M.ss07" 
d="M868 -315q-355 0 -573.5 210t-218.5 549q0 140 40.5 279t112.5 260t176 225.5t226 178.5t267.5 116.5t295.5 42.5q228 0 408 -91.5t284.5 -267t104.5 -407.5q0 -171 -57 -335.5t-162 -300.5t-243 -239.5t-309.5 -161.5t-351.5 -58zM623 1096l-170 -963h114
q7 39 32.5 184.5t35.5 208t23.5 177t19.5 217.5h6q67 -260 217 -787h92q26 42 208.5 329.5t285.5 457.5h4q-30 -110 -56.5 -228t-39.5 -184t-37 -200.5t-31 -174.5h117l170 963h-119q-284 -419 -520 -826h-8q-92 429 -228 826h-116z" />
    <glyph glyph-name="N.ss07" 
d="M868 -315q-355 0 -573.5 210t-218.5 549q0 140 40.5 279t112.5 260t176 225.5t226 178.5t267.5 116.5t295.5 42.5q228 0 408 -91.5t284.5 -267t104.5 -407.5q0 -171 -57 -335.5t-162 -300.5t-243 -239.5t-309.5 -161.5t-351.5 -58zM745 1096l-170 -963h115
q4 21 19.5 108.5t20.5 116t18 103.5t19 116.5t15.5 107t17 124t13.5 119.5h4q165 -347 424 -795h102l170 963h-114q-92 -532 -121 -809h-6q-186 409 -422 809h-105z" />
    <glyph glyph-name="O.ss07" 
d="M868 -315q-355 0 -573.5 210t-218.5 549q0 140 40.5 279t112.5 260t176 225.5t226 178.5t267.5 116.5t295.5 42.5q228 0 408 -91.5t284.5 -267t104.5 -407.5q0 -171 -57 -335.5t-162 -300.5t-243 -239.5t-309.5 -161.5t-351.5 -58zM946 113q153 0 288 84t214.5 221.5
t79.5 288.5q0 179 -112.5 294t-291.5 115q-114 0 -221.5 -49.5t-186 -131t-126 -190.5t-47.5 -223q0 -185 113.5 -297t289.5 -112zM666 541q0 119 61 227t163 174t216 66q132 0 215.5 -90.5t83.5 -229.5q0 -118 -60.5 -226t-162 -174.5t-215.5 -66.5q-132 0 -216.5 89.5
t-84.5 230.5z" />
    <glyph glyph-name="P.ss07" 
d="M868 -315q-355 0 -573.5 210t-218.5 549q0 140 40.5 279t112.5 260t176 225.5t226 178.5t267.5 116.5t295.5 42.5q228 0 408 -91.5t284.5 -267t104.5 -407.5q0 -171 -57 -335.5t-162 -300.5t-243 -239.5t-309.5 -161.5t-351.5 -58zM829 1096l-170 -963h115q44 255 57 397
q38 -11 85 -16t75.5 -5.5t95.5 -0.5q155 0 259 105.5t104 246.5q0 82 -42 137t-102 77t-132 22h-345zM848 594l-6 6q59 221 67 401l11 7q80 -19 217 -19q190 0 190 -155q0 -97 -71.5 -158.5t-180.5 -61.5q-134 0 -227 -20z" />
    <glyph glyph-name="Q.ss07" 
d="M868 -315q-355 0 -573.5 210t-218.5 549q0 140 40.5 279t112.5 260t176 225.5t226 178.5t267.5 116.5t295.5 42.5q228 0 408 -91.5t284.5 -267t104.5 -407.5q0 -171 -57 -335.5t-162 -300.5t-243 -239.5t-309.5 -161.5t-351.5 -58zM1309 59l94 70q-72 109 -121 160
q117 79 184.5 206t67.5 265q0 178 -113 292.5t-295 114.5q-114 0 -222 -49.5t-186.5 -130.5t-126.5 -190.5t-48 -223.5q0 -182 113 -295.5t292 -113.5q140 0 258 78q8 -20 17 -39.5t21.5 -41t20 -33.5t24 -37t20.5 -32zM664 592q0 120 61 228t164 173.5t219 65.5
q135 0 220 -89t85 -227q0 -104 -47.5 -207.5t-130.5 -183.5q-50 108 -145 248l-93 -70q103 -155 160 -217q-97 -47 -188 -47q-135 0 -220 92t-85 234z" />
    <glyph glyph-name="R.ss07" 
d="M868 -315q-355 0 -573.5 210t-218.5 549q0 140 40.5 279t112.5 260t176 225.5t226 178.5t267.5 116.5t295.5 42.5q228 0 408 -91.5t284.5 -267t104.5 -407.5q0 -171 -57 -335.5t-162 -300.5t-243 -239.5t-309.5 -161.5t-351.5 -58zM831 1096l-169 -963h114q45 237 58 397
q74 -16 200 -20l183 -377h129q-14 28 -47.5 95.5t-52.5 104.5t-49 92.5t-58 100.5v4q139 13 226 106t87 220q0 63 -24 111t-64.5 75.5t-87 40.5t-98.5 13h-347zM850 592l-4 6q56 214 67 403l11 7q92 -17 213 -17q89 0 140.5 -40t51.5 -120q0 -96 -70 -160t-180 -65
q-145 0 -229 -14z" />
    <glyph glyph-name="S.ss07" 
d="M868 -315q-355 0 -573.5 210t-218.5 549q0 140 40.5 279t112.5 260t176 225.5t226 178.5t267.5 116.5t295.5 42.5q228 0 408 -91.5t284.5 -267t104.5 -407.5q0 -171 -57 -335.5t-162 -300.5t-243 -239.5t-309.5 -161.5t-351.5 -58zM963 113q159 0 274 99t115 230
q0 22 -4.5 42t-10 35t-17.5 30t-21 24.5t-26.5 20.5t-27 17t-30.5 14.5t-29 11.5t-30.5 10.5t-27.5 9.5l-88 29q-28 9 -47 17t-49 26t-46.5 45.5t-16.5 61.5q0 71 62 121.5t153 50.5q84 0 136.5 -46t63.5 -128l111 43q-8 107 -84.5 173t-202.5 66q-153 0 -259.5 -91
t-106.5 -214q0 -44 16.5 -81t39 -60.5t56.5 -43.5t57.5 -29t53.5 -19l84 -27q4 -1 22.5 -7t24 -8t21.5 -8t22 -9.5t19 -10.5t18 -13t13.5 -15.5t12 -18.5t6.5 -21t3 -26q0 -78 -69 -135.5t-169 -57.5q-99 0 -159.5 58.5t-67.5 162.5l-113 -36q6 -77 35.5 -135.5t75 -92
t97.5 -49.5t110 -16z" />
    <glyph glyph-name="T.ss07" 
d="M868 -315q-355 0 -573.5 210t-218.5 549q0 140 40.5 279t112.5 260t176 225.5t226 178.5t267.5 116.5t295.5 42.5q228 0 408 -91.5t284.5 -267t104.5 -407.5q0 -171 -57 -335.5t-162 -300.5t-243 -239.5t-309.5 -161.5t-351.5 -58zM891 133h115q96 555 143 873
q120 -17 326 -17l18 107h-752l-20 -107q206 0 332 17q-80 -390 -162 -873z" />
    <glyph glyph-name="U.ss07" 
d="M868 -315q-355 0 -573.5 210t-218.5 549q0 140 40.5 279t112.5 260t176 225.5t226 178.5t267.5 116.5t295.5 42.5q228 0 408 -91.5t284.5 -267t104.5 -407.5q0 -171 -57 -335.5t-162 -300.5t-243 -239.5t-309.5 -161.5t-351.5 -58zM944 123q94 0 169.5 30.5t125.5 84.5
t80.5 119.5t44.5 142.5l106 606h-114l-107 -600q-47 -277 -282 -277q-123 0 -167.5 74t-21.5 203l105 600h-115l-106 -606q-17 -79 -7.5 -148t39.5 -120t93.5 -80t156.5 -29z" />
    <glyph glyph-name="V.ss07" 
d="M868 -315q-355 0 -573.5 210t-218.5 549q0 140 40.5 279t112.5 260t176 225.5t226 178.5t267.5 116.5t295.5 42.5q228 0 408 -91.5t284.5 -267t104.5 -407.5q0 -171 -57 -335.5t-162 -300.5t-243 -239.5t-309.5 -161.5t-351.5 -58zM676 1096l217 -963h121l557 963h-121
q-284 -491 -467 -850h-12q-59 373 -174 850h-121z" />
    <glyph glyph-name="W.ss07" 
d="M868 -315q-355 0 -573.5 210t-218.5 549q0 140 40.5 279t112.5 260t176 225.5t226 178.5t267.5 116.5t295.5 42.5q228 0 408 -91.5t284.5 -267t104.5 -407.5q0 -171 -57 -335.5t-162 -300.5t-243 -239.5t-309.5 -161.5t-351.5 -58zM436 1096l137 -963h132
q237 475 385 832h8q28 -404 96 -832h129l477 963h-125q-220 -447 -391 -842h-4q-36 395 -100 842h-123q-275 -567 -393 -838h-7q-35 411 -96 838h-125z" />
    <glyph glyph-name="X.ss07" 
d="M868 -315q-355 0 -573.5 210t-218.5 549q0 140 40.5 279t112.5 260t176 225.5t226 178.5t267.5 116.5t295.5 42.5q228 0 408 -91.5t284.5 -267t104.5 -407.5q0 -171 -57 -335.5t-162 -300.5t-243 -239.5t-309.5 -161.5t-351.5 -58zM551 133h135q13 16 60.5 73t72 87
t64.5 79.5t74 93t65 85.5h4q73 -180 188 -418h134q-16 32 -50.5 102t-52.5 105t-46 89.5t-52.5 100.5t-50.5 91l2 10q142 150 415 465h-133q-201 -230 -327 -396h-4q-90 214 -187 396h-135q184 -351 250 -465l-2 -10q-87 -95 -424 -488z" />
    <glyph glyph-name="Y.ss07" 
d="M868 -315q-355 0 -573.5 210t-218.5 549q0 140 40.5 279t112.5 260t176 225.5t226 178.5t267.5 116.5t295.5 42.5q228 0 408 -91.5t284.5 -267t104.5 -407.5q0 -171 -57 -335.5t-162 -300.5t-243 -239.5t-309.5 -161.5t-351.5 -58zM891 133h113q48 282 55 350
q76 96 122.5 156.5t136 178.5t212.5 278h-123q-269 -358 -381 -529h-4q-71 237 -193 529h-124q126 -316 253 -613q-15 -62 -67 -350z" />
    <glyph glyph-name="Z.ss07" 
d="M868 -315q-355 0 -573.5 210t-218.5 549q0 140 40.5 279t112.5 260t176 225.5t226 178.5t267.5 116.5t295.5 42.5q228 0 408 -91.5t284.5 -267t104.5 -407.5q0 -171 -57 -335.5t-162 -300.5t-243 -239.5t-309.5 -161.5t-351.5 -58zM604 225l-16 -92h743l19 109
q-386 0 -627 -27l-4 6q442 445 756 785l16 90h-709l-20 -107q323 0 592 31l2 -4q-426 -436 -752 -791z" />
    <glyph glyph-name="A.ss08" 
d="M868 -315q-355 0 -573.5 210t-218.5 549q0 140 40.5 279t112.5 260t176 225.5t226 178.5t267.5 116.5t295.5 42.5q228 0 408 -91.5t284.5 -267t104.5 -407.5q0 -171 -57 -335.5t-162 -300.5t-243 -239.5t-309.5 -161.5t-351.5 -58zM885 -217q201 0 387.5 80.5t320.5 214
t214.5 313.5t80.5 371q0 208 -93 365t-253.5 239t-363.5 82q-135 0 -265 -37.5t-239 -104t-202.5 -159.5t-158 -201t-101 -232t-36.5 -249q0 -303 196 -492.5t513 -189.5zM750 281h-84l387 669h84l149 -669h-86q-2 11 -13.5 60.5t-17.5 86.5t-10 82l-2 4q-90 -8 -137 -8
q-53 0 -139 8l-7 -4q-44 -96 -124 -229zM911 569q75 11 125 11q24 0 58.5 -4.5t48.5 -4.5q-52 205 -60 299h-8q-69 -150 -164 -301z" />
    <glyph glyph-name="B.ss08" 
d="M868 -315q-355 0 -573.5 210t-218.5 549q0 140 40.5 279t112.5 260t176 225.5t226 178.5t267.5 116.5t295.5 42.5q228 0 408 -91.5t284.5 -267t104.5 -407.5q0 -171 -57 -335.5t-162 -300.5t-243 -239.5t-309.5 -161.5t-351.5 -58zM885 -217q201 0 387.5 80.5t320.5 214
t214.5 313.5t80.5 371q0 208 -93 365t-253.5 239t-363.5 82q-135 0 -265 -37.5t-239 -104t-202.5 -159.5t-158 -201t-101 -232t-36.5 -249q0 -303 196 -492.5t513 -189.5zM1022 281h-270l116 669h246q84 0 135 -41.5t51 -107.5q0 -63 -41.5 -113t-107.5 -65v-2
q57 -12 88 -45t31 -84q0 -84 -72 -147.5t-176 -63.5zM887 645l2 -2q63 10 158 10q73 0 120 35.5t47 91.5q0 42 -35 68t-96 26q-101 0 -151 11l-4 -2q-6 -112 -41 -238zM834 348l2 -2q70 10 182 10q69 0 116.5 35t47.5 92q0 45 -35 72t-96 27q-111 0 -170 10l-4 -2
q-10 -138 -43 -242z" />
    <glyph glyph-name="C.ss08" 
d="M868 -315q-355 0 -573.5 210t-218.5 549q0 140 40.5 279t112.5 260t176 225.5t226 178.5t267.5 116.5t295.5 42.5q228 0 408 -91.5t284.5 -267t104.5 -407.5q0 -171 -57 -335.5t-162 -300.5t-243 -239.5t-309.5 -161.5t-351.5 -58zM885 -217q201 0 387.5 80.5t320.5 214
t214.5 313.5t80.5 371q0 208 -93 365t-253.5 239t-363.5 82q-135 0 -265 -37.5t-239 -104t-202.5 -159.5t-158 -201t-101 -232t-36.5 -249q0 -303 196 -492.5t513 -189.5zM989 266q-129 0 -205.5 76.5t-76.5 202.5q0 107 52.5 203t146 155.5t202.5 59.5q107 0 178.5 -55.5
t83.5 -149.5l-78 -29q-13 73 -66.5 114.5t-131.5 41.5q-124 0 -213.5 -99t-89.5 -229q0 -106 62.5 -160.5t154.5 -54.5q91 0 163.5 52.5t112.5 146.5l68 -27q-51 -116 -146.5 -182t-216.5 -66z" />
    <glyph glyph-name="D.ss08" 
d="M868 -315q-355 0 -573.5 210t-218.5 549q0 140 40.5 279t112.5 260t176 225.5t226 178.5t267.5 116.5t295.5 42.5q228 0 408 -91.5t284.5 -267t104.5 -407.5q0 -171 -57 -335.5t-162 -300.5t-243 -239.5t-309.5 -161.5t-351.5 -58zM885 -217q201 0 387.5 80.5t320.5 214
t214.5 313.5t80.5 371q0 208 -93 365t-253.5 239t-363.5 82q-135 0 -265 -37.5t-239 -104t-202.5 -159.5t-158 -201t-101 -232t-36.5 -249q0 -303 196 -492.5t513 -189.5zM979 281h-248l119 669h240q128 0 197 -66.5t69 -191.5q0 -167 -108.5 -289t-268.5 -122zM815 348
l2 -2q66 10 174 10q120 0 200.5 92t80.5 224q0 202 -207 202q-96 0 -154 11l-2 -2q-31 -283 -94 -535z" />
    <glyph glyph-name="E.ss08" 
d="M868 -315q-355 0 -573.5 210t-218.5 549q0 140 40.5 279t112.5 260t176 225.5t226 178.5t267.5 116.5t295.5 42.5q228 0 408 -91.5t284.5 -267t104.5 -407.5q0 -171 -57 -335.5t-162 -300.5t-243 -239.5t-309.5 -161.5t-351.5 -58zM885 -217q201 0 387.5 80.5t320.5 214
t214.5 313.5t80.5 371q0 208 -93 365t-253.5 239t-363.5 82q-135 0 -265 -37.5t-239 -104t-202.5 -159.5t-158 -201t-101 -232t-36.5 -249q0 -303 196 -492.5t513 -189.5zM1208 281h-436l117 669h430l-14 -76q-255 0 -353 11l-4 -2q-6 -112 -39 -230l4 -4q132 15 336 15
l-12 -78q-215 0 -334 12l-4 -2q-13 -144 -45 -248l4 -4q131 14 365 14z" />
    <glyph glyph-name="F.ss08" 
d="M868 -315q-355 0 -573.5 210t-218.5 549q0 140 40.5 279t112.5 260t176 225.5t226 178.5t267.5 116.5t295.5 42.5q228 0 408 -91.5t284.5 -267t104.5 -407.5q0 -171 -57 -335.5t-162 -300.5t-243 -239.5t-309.5 -161.5t-351.5 -58zM885 -217q201 0 387.5 80.5t320.5 214
t214.5 313.5t80.5 371q0 208 -93 365t-253.5 239t-363.5 82q-135 0 -265 -37.5t-239 -104t-202.5 -159.5t-158 -201t-101 -232t-36.5 -249q0 -303 196 -492.5t513 -189.5zM866 281h-80l117 669h420l-12 -78q-213 0 -344 13l-4 -2q-6 -126 -43 -238l4 -2q121 12 331 12
l-14 -75q-229 0 -326 10l-4 -2q-6 -83 -45 -307z" />
    <glyph glyph-name="G.ss08" 
d="M1194 1546q228 0 408 -91.5t284.5 -267t104.5 -407.5q0 -171 -57 -335.5t-162 -300.5t-243 -239.5t-309.5 -161.5t-351.5 -58q-355 0 -573.5 210t-218.5 549q0 140 40.5 279t112.5 260t176 225.5t226 178.5t267.5 116.5t295.5 42.5zM885 -217q201 0 387.5 80.5t320.5 214
t214.5 313.5t80.5 371q0 208 -93 365t-253.5 239t-363.5 82q-135 0 -265 -37.5t-239 -104t-202.5 -159.5t-158 -201t-101 -232t-36.5 -249q0 -303 196 -492.5t513 -189.5zM1096 885q-125 0 -214 -99t-89 -229q0 -107 61 -161t152 -54q95 0 171.5 59t114.5 162l-2 2
q-135 -21 -241 -18l12 69h303l-57 -335h-70q3 13 6.5 40.5t8.5 52.5t12 48q-102 -156 -281 -156q-127 0 -201.5 76t-74.5 203q0 107 52.5 203t146 155.5t202.5 59.5q108 0 180 -56t82 -149l-78 -29q-15 73 -67 114.5t-129 41.5z" />
    <glyph glyph-name="H.ss08" 
d="M868 -315q-355 0 -573.5 210t-218.5 549q0 140 40.5 279t112.5 260t176 225.5t226 178.5t267.5 116.5t295.5 42.5q228 0 408 -91.5t284.5 -267t104.5 -407.5q0 -171 -57 -335.5t-162 -300.5t-243 -239.5t-309.5 -161.5t-351.5 -58zM885 -217q201 0 387.5 80.5t320.5 214
t214.5 313.5t80.5 371q0 208 -93 365t-253.5 239t-363.5 82q-135 0 -265 -37.5t-239 -104t-202.5 -159.5t-158 -201t-101 -232t-36.5 -249q0 -303 196 -492.5t513 -189.5zM797 281h-82l119 669h81q-34 -195 -63 -301l4 -2q196 15 369 0l4 2q11 115 45 301h80l-119 -669h-80
q36 200 64 307l-5 4q-189 -25 -368 0l-4 -4q-12 -124 -45 -307z" />
    <glyph glyph-name="I.ss08" 
d="M868 -315q-355 0 -573.5 210t-218.5 549q0 140 40.5 279t112.5 260t176 225.5t226 178.5t267.5 116.5t295.5 42.5q228 0 408 -91.5t284.5 -267t104.5 -407.5q0 -171 -57 -335.5t-162 -300.5t-243 -239.5t-309.5 -161.5t-351.5 -58zM885 -217q201 0 387.5 80.5t320.5 214
t214.5 313.5t80.5 371q0 208 -93 365t-253.5 239t-363.5 82q-135 0 -265 -37.5t-239 -104t-202.5 -159.5t-158 -201t-101 -232t-36.5 -249q0 -303 196 -492.5t513 -189.5zM1016 281h-82l119 669h80z" />
    <glyph glyph-name="J.ss08" 
d="M868 -315q-355 0 -573.5 210t-218.5 549q0 140 40.5 279t112.5 260t176 225.5t226 178.5t267.5 116.5t295.5 42.5q228 0 408 -91.5t284.5 -267t104.5 -407.5q0 -171 -57 -335.5t-162 -300.5t-243 -239.5t-309.5 -161.5t-351.5 -58zM885 -217q201 0 387.5 80.5t320.5 214
t214.5 313.5t80.5 371q0 208 -93 365t-253.5 239t-363.5 82q-135 0 -265 -37.5t-239 -104t-202.5 -159.5t-158 -201t-101 -232t-36.5 -249q0 -303 196 -492.5t513 -189.5zM950 272q-99 0 -146 59t-30 161l4 26l80 10l-4 -24q-12 -72 15.5 -114t88.5 -42q120 0 150 180
l76 428h80l-72 -411q-5 -29 -9.5 -48t-16 -56.5t-28.5 -62.5t-42 -51.5t-62.5 -40.5t-83.5 -14z" />
    <glyph glyph-name="K.ss08" 
d="M1194 1546q228 0 408 -91.5t284.5 -267t104.5 -407.5q0 -171 -57 -335.5t-162 -300.5t-243 -239.5t-309.5 -161.5t-351.5 -58q-355 0 -573.5 210t-218.5 549q0 140 40.5 279t112.5 260t176 225.5t226 178.5t267.5 116.5t295.5 42.5zM885 -217q201 0 387.5 80.5t320.5 214
t214.5 313.5t80.5 371q0 208 -93 365t-253.5 239t-363.5 82q-135 0 -265 -37.5t-239 -104t-202.5 -159.5t-158 -201t-101 -232t-36.5 -249q0 -303 196 -492.5t513 -189.5zM1270 950h100q-39 -34 -102.5 -91t-116.5 -103.5t-117 -98.5v-6q71 -107 230 -370h-101
q-124 206 -184 321q-56 -59 -100 -88q-12 -89 -37 -233h-82l119 669h82q-2 -12 -14.5 -78.5t-18.5 -96.5t-18.5 -84t-26.5 -99q37 37 71.5 70t58 55.5t61 56.5t55.5 50t68 60.5t73 65.5z" />
    <glyph glyph-name="L.ss08" 
d="M868 -315q-355 0 -573.5 210t-218.5 549q0 140 40.5 279t112.5 260t176 225.5t226 178.5t267.5 116.5t295.5 42.5q228 0 408 -91.5t284.5 -267t104.5 -407.5q0 -171 -57 -335.5t-162 -300.5t-243 -239.5t-309.5 -161.5t-351.5 -58zM885 -217q201 0 387.5 80.5t320.5 214
t214.5 313.5t80.5 371q0 208 -93 365t-253.5 239t-363.5 82q-135 0 -265 -37.5t-239 -104t-202.5 -159.5t-158 -201t-101 -232t-36.5 -249q0 -303 196 -492.5t513 -189.5zM1237 281h-412l117 669h82q-69 -388 -117 -602l4 -4q123 14 338 14z" />
    <glyph glyph-name="M.ss08" 
d="M1194 1546q228 0 408 -91.5t284.5 -267t104.5 -407.5q0 -171 -57 -335.5t-162 -300.5t-243 -239.5t-309.5 -161.5t-351.5 -58q-355 0 -573.5 210t-218.5 549q0 140 40.5 279t112.5 260t176 225.5t226 178.5t267.5 116.5t295.5 42.5zM885 -217q201 0 387.5 80.5t320.5 214
t214.5 313.5t80.5 371q0 208 -93 365t-253.5 239t-363.5 82q-135 0 -265 -37.5t-239 -104t-202.5 -159.5t-158 -201t-101 -232t-36.5 -249q0 -303 196 -492.5t513 -189.5zM989 375h2q181 302 365 575h80l-117 -669h-82q7 36 23 129t25.5 141.5t26 125t34.5 142.5
q-63 -102 -338 -538h-66q-14 51 -37 130t-49 173t-61 229q-17 -197 -82 -532h-80l117 669h81q110 -331 158 -575z" />
    <glyph glyph-name="N.ss08" 
d="M1194 1546q228 0 408 -91.5t284.5 -267t104.5 -407.5q0 -171 -57 -335.5t-162 -300.5t-243 -239.5t-309.5 -161.5t-351.5 -58q-355 0 -573.5 210t-218.5 549q0 140 40.5 279t112.5 260t176 225.5t226 178.5t267.5 116.5t295.5 42.5zM885 -217q201 0 387.5 80.5t320.5 214
t214.5 313.5t80.5 371q0 208 -93 365t-253.5 239t-363.5 82q-135 0 -265 -37.5t-239 -104t-202.5 -159.5t-158 -201t-101 -232t-36.5 -249q0 -303 196 -492.5t513 -189.5zM1200 391q27 222 88 559h80l-119 -669h-69q-187 320 -295 548q-23 -210 -86 -548h-82l119 669h71
q158 -275 293 -559z" />
    <glyph glyph-name="O.ss08" 
d="M868 -315q-355 0 -573.5 210t-218.5 549q0 140 40.5 279t112.5 260t176 225.5t226 178.5t267.5 116.5t295.5 42.5q228 0 408 -91.5t284.5 -267t104.5 -407.5q0 -171 -57 -335.5t-162 -300.5t-243 -239.5t-309.5 -161.5t-351.5 -58zM885 -217q201 0 387.5 80.5t320.5 214
t214.5 313.5t80.5 371q0 208 -93 365t-253.5 239t-363.5 82q-135 0 -265 -37.5t-239 -104t-202.5 -159.5t-158 -201t-101 -232t-36.5 -249q0 -303 196 -492.5t513 -189.5zM973 266q-124 0 -202.5 80t-78.5 205q0 160 122 286t284 126q124 0 202 -80t78 -205
q0 -161 -122 -286.5t-283 -125.5zM989 342q118 0 209.5 99t91.5 227q0 94 -57.5 155.5t-149.5 61.5q-120 0 -212.5 -98t-92.5 -224q0 -96 59 -158.5t152 -62.5z" />
    <glyph glyph-name="P.ss08" 
d="M868 -315q-355 0 -573.5 210t-218.5 549q0 140 40.5 279t112.5 260t176 225.5t226 178.5t267.5 116.5t295.5 42.5q228 0 408 -91.5t284.5 -267t104.5 -407.5q0 -171 -57 -335.5t-162 -300.5t-243 -239.5t-309.5 -161.5t-351.5 -58zM885 -217q201 0 387.5 80.5t320.5 214
t214.5 313.5t80.5 371q0 208 -93 365t-253.5 239t-363.5 82q-135 0 -265 -37.5t-239 -104t-202.5 -159.5t-158 -201t-101 -232t-36.5 -249q0 -303 196 -492.5t513 -189.5zM854 281h-80l117 669h239q81 0 136 -41.5t55 -126.5q0 -99 -73.5 -171t-178.5 -72q-119 0 -176 14
q-6 -73 -39 -272zM901 604l2 -2q59 12 160 12q75 0 123.5 42.5t48.5 109.5q0 108 -129 108q-96 0 -152 11l-4 -2q-13 -155 -49 -279z" />
    <glyph glyph-name="Q.ss08" 
d="M868 -315q-355 0 -573.5 210t-218.5 549q0 140 40.5 279t112.5 260t176 225.5t226 178.5t267.5 116.5t295.5 42.5q228 0 408 -91.5t284.5 -267t104.5 -407.5q0 -171 -57 -335.5t-162 -300.5t-243 -239.5t-309.5 -161.5t-351.5 -58zM885 -217q201 0 387.5 80.5t320.5 214
t214.5 313.5t80.5 371q0 208 -93 365t-253.5 239t-363.5 82q-135 0 -265 -37.5t-239 -104t-202.5 -159.5t-158 -201t-101 -232t-36.5 -249q0 -303 196 -492.5t513 -189.5zM1290 279l-65 -50q-49 70 -72 123q-77 -51 -178 -51q-123 0 -203 79t-80 204q0 162 122.5 287.5
t285.5 125.5q125 0 202.5 -79t77.5 -203q0 -95 -45.5 -182.5t-126.5 -143.5q37 -41 82 -110zM989 373q51 0 129 30q-37 43 -110 152l67 49q71 -112 99 -168q60 57 91 127.5t31 138.5q0 94 -59 156t-152 62q-123 0 -215 -98t-92 -226q0 -97 59 -160t152 -63z" />
    <glyph glyph-name="R.ss08" 
d="M868 -315q-355 0 -573.5 210t-218.5 549q0 140 40.5 279t112.5 260t176 225.5t226 178.5t267.5 116.5t295.5 42.5q228 0 408 -91.5t284.5 -267t104.5 -407.5q0 -171 -57 -335.5t-162 -300.5t-243 -239.5t-309.5 -161.5t-351.5 -58zM885 -217q201 0 387.5 80.5t320.5 214
t214.5 313.5t80.5 371q0 208 -93 365t-253.5 239t-363.5 82q-135 0 -265 -37.5t-239 -104t-202.5 -159.5t-158 -201t-101 -232t-36.5 -249q0 -303 196 -492.5t513 -189.5zM856 281h-80l117 669h240q79 0 134.5 -42t55.5 -126q0 -89 -60.5 -153.5t-154.5 -73.5
q27 -42 50 -85.5t54.5 -107t40.5 -81.5h-94l-125 260q-78 0 -139 12q-6 -76 -39 -272zM903 602l2 -2q59 10 162 10q74 0 122 44.5t48 109.5q0 55 -35 82.5t-96 27.5q-77 0 -150 11l-4 -2q-11 -145 -49 -281z" />
    <glyph glyph-name="S.ss08" 
d="M868 -315q-355 0 -573.5 210t-218.5 549q0 140 40.5 279t112.5 260t176 225.5t226 178.5t267.5 116.5t295.5 42.5q228 0 408 -91.5t284.5 -267t104.5 -407.5q0 -171 -57 -335.5t-162 -300.5t-243 -239.5t-309.5 -161.5t-351.5 -58zM885 -217q201 0 387.5 80.5t320.5 214
t214.5 313.5t80.5 371q0 208 -93 365t-253.5 239t-363.5 82q-135 0 -265 -37.5t-239 -104t-202.5 -159.5t-158 -201t-101 -232t-36.5 -249q0 -303 196 -492.5t513 -189.5zM985 266q-95 0 -154.5 53.5t-66.5 151.5l80 27q4 -72 46.5 -114t110.5 -42t116 40t48 93
q0 16 -5.5 28.5t-11 20.5t-20 15.5t-22 10t-27.5 9t-26 8.5l-60 21q-21 7 -37 13.5t-39.5 20.5t-38.5 30t-26.5 42t-11.5 56q0 87 75 150t179 63q85 0 139.5 -45t60.5 -123l-80 -31q-6 58 -42.5 89.5t-94.5 31.5q-63 0 -105 -33.5t-42 -83.5q0 -23 10 -41t31.5 -31t32.5 -18
t34 -14l62 -21l20 -7q20 -6 24 -8t22 -9t23.5 -11.5t19.5 -14t19.5 -18.5t13 -21.5t10.5 -27.5t3 -32q0 -91 -80 -159.5t-190 -68.5z" />
    <glyph glyph-name="T.ss08" 
d="M868 -315q-355 0 -573.5 210t-218.5 549q0 140 40.5 279t112.5 260t176 225.5t226 178.5t267.5 116.5t295.5 42.5q228 0 408 -91.5t284.5 -267t104.5 -407.5q0 -171 -57 -335.5t-162 -300.5t-243 -239.5t-309.5 -161.5t-351.5 -58zM885 -217q201 0 387.5 80.5t320.5 214
t214.5 313.5t80.5 371q0 208 -93 365t-253.5 239t-363.5 82q-135 0 -265 -37.5t-239 -104t-202.5 -159.5t-158 -201t-101 -232t-36.5 -249q0 -303 196 -492.5t513 -189.5zM1014 281h-80q77 423 113 602q-92 -9 -230 -9l14 76h521l-13 -76q-137 0 -225 9q-16 -111 -100 -602z
" />
    <glyph glyph-name="U.ss08" 
d="M868 -315q-355 0 -573.5 210t-218.5 549q0 140 40.5 279t112.5 260t176 225.5t226 178.5t267.5 116.5t295.5 42.5q228 0 408 -91.5t284.5 -267t104.5 -407.5q0 -171 -57 -335.5t-162 -300.5t-243 -239.5t-309.5 -161.5t-351.5 -58zM885 -217q201 0 387.5 80.5t320.5 214
t214.5 313.5t80.5 371q0 208 -93 365t-253.5 239t-363.5 82q-135 0 -265 -37.5t-239 -104t-202.5 -159.5t-158 -201t-101 -232t-36.5 -249q0 -303 196 -492.5t513 -189.5zM971 272q-124 0 -169.5 72.5t-25.5 187.5l74 424h80l-72 -419q-37 -189 131 -189q161 0 193 189
l73 419h82l-73 -424q-22 -116 -96 -188t-197 -72z" />
    <glyph glyph-name="V.ss08" 
d="M868 -315q-355 0 -573.5 210t-218.5 549q0 140 40.5 279t112.5 260t176 225.5t226 178.5t267.5 116.5t295.5 42.5q228 0 408 -91.5t284.5 -267t104.5 -407.5q0 -171 -57 -335.5t-162 -300.5t-243 -239.5t-309.5 -161.5t-351.5 -58zM885 -217q201 0 387.5 80.5t320.5 214
t214.5 313.5t80.5 371q0 208 -93 365t-253.5 239t-363.5 82q-135 0 -265 -37.5t-239 -104t-202.5 -159.5t-158 -201t-101 -232t-36.5 -249q0 -303 196 -492.5t513 -189.5zM1020 281h-82l-152 669h84q84 -336 123 -594h2q92 179 326 594h86z" />
    <glyph glyph-name="W.ss08" 
d="M1194 1546q228 0 408 -91.5t284.5 -267t104.5 -407.5q0 -171 -57 -335.5t-162 -300.5t-243 -239.5t-309.5 -161.5t-351.5 -58q-355 0 -573.5 210t-218.5 549q0 140 40.5 279t112.5 260t176 225.5t226 178.5t267.5 116.5t295.5 42.5zM885 -217q201 0 387.5 80.5t320.5 214
t214.5 313.5t80.5 371q0 208 -93 365t-253.5 239t-363.5 82q-135 0 -265 -37.5t-239 -104t-202.5 -159.5t-158 -201t-101 -232t-36.5 -249q0 -303 196 -492.5t513 -189.5zM1206 375q135 298 273 575h86l-332 -669h-88q-51 336 -68 573q-107 -254 -272 -573h-90l-94 669h88
q57 -394 71 -575q31 70 68.5 151.5t64.5 138t71.5 148t66.5 137.5h86q40 -304 69 -575z" />
    <glyph glyph-name="X.ss08" 
d="M868 -315q-355 0 -573.5 210t-218.5 549q0 140 40.5 279t112.5 260t176 225.5t226 178.5t267.5 116.5t295.5 42.5q228 0 408 -91.5t284.5 -267t104.5 -407.5q0 -171 -57 -335.5t-162 -300.5t-243 -239.5t-309.5 -161.5t-351.5 -58zM885 -217q201 0 387.5 80.5t320.5 214
t214.5 313.5t80.5 371q0 208 -93 365t-253.5 239t-363.5 82q-135 0 -265 -37.5t-239 -104t-202.5 -159.5t-158 -201t-101 -232t-36.5 -249q0 -303 196 -492.5t513 -189.5zM793 281h-95q236 272 297 337v7q-97 167 -174 325h94q89 -178 132 -276q124 157 227 276h94
q-180 -210 -289 -325l-2 -7q68 -114 176 -337h-92q-7 14 -35 70.5t-48.5 103t-49.5 116.5q-82 -110 -235 -290z" />
    <glyph glyph-name="Y.ss08" 
d="M868 -315q-355 0 -573.5 210t-218.5 549q0 140 40.5 279t112.5 260t176 225.5t226 178.5t267.5 116.5t295.5 42.5q228 0 408 -91.5t284.5 -267t104.5 -407.5q0 -171 -57 -335.5t-162 -300.5t-243 -239.5t-309.5 -161.5t-351.5 -58zM885 -217q201 0 387.5 80.5t320.5 214
t214.5 313.5t80.5 371q0 208 -93 365t-253.5 239t-363.5 82q-135 0 -265 -37.5t-239 -104t-202.5 -159.5t-158 -201t-101 -232t-36.5 -249q0 -303 196 -492.5t513 -189.5zM1014 281h-80q19 119 47 243q-11 27 -52 125.5t-126 300.5h90q86 -212 135 -366q67 103 266 366h86
q-30 -39 -146.5 -192.5t-180.5 -233.5q-8 -70 -39 -243z" />
    <glyph glyph-name="Z.ss08" 
d="M868 -315q-355 0 -573.5 210t-218.5 549q0 140 40.5 279t112.5 260t176 225.5t226 178.5t267.5 116.5t295.5 42.5q228 0 408 -91.5t284.5 -267t104.5 -407.5q0 -171 -57 -335.5t-162 -300.5t-243 -239.5t-309.5 -161.5t-351.5 -58zM885 -217q201 0 387.5 80.5t320.5 214
t214.5 313.5t80.5 371q0 208 -93 365t-253.5 239t-363.5 82q-135 0 -265 -37.5t-239 -104t-202.5 -159.5t-158 -201t-101 -232t-36.5 -249q0 -303 196 -492.5t513 -189.5zM1243 281h-516l12 63q215 234 518 549q-204 -19 -409 -19l12 76h494l-11 -63q-212 -229 -524 -545v-2
q178 18 438 18z" />
    <glyph glyph-name="i.loclTRK" horiz-adv-x="509" 
d="M403 1399q-44 0 -72 29t-28 73q0 57 44 100.5t102 43.5q44 0 73 -29.5t29 -71.5q0 -57 -45 -101t-103 -44zM233 0h-155l201 1133h155z" />
    <glyph glyph-name="a.ss01" horiz-adv-x="1370" 
d="M506 -35q-196 0 -312 129t-116 344q0 186 86 353.5t235 270.5t320 103q140 0 236 -74.5t130 -228.5h27q2 114 29 271h153l-196 -1133h-152q1 6 5 31.5t5.5 34.5t6 32.5t8.5 39t10 39t14.5 48t18.5 51.5h-25q-63 -110 -145 -181t-164.5 -100.5t-173.5 -29.5zM563 111
q95 0 185 47t155 123.5t104.5 177t39.5 203.5q0 161 -90.5 259.5t-235.5 98.5q-130 0 -240.5 -80t-172.5 -206.5t-62 -264.5q0 -162 86.5 -260t230.5 -98z" />
    <glyph glyph-name="aacute.ss01" horiz-adv-x="1370" 
d="M1253 1669l-379 -391h-137l312 391h204zM506 -35q-196 0 -312 129t-116 344q0 186 86 353.5t235 270.5t320 103q140 0 236 -74.5t130 -228.5h27q2 114 29 271h153l-196 -1133h-152q1 6 5 31.5t5.5 34.5t6 32.5t8.5 39t10 39t14.5 48t18.5 51.5h-25q-63 -110 -145 -181
t-164.5 -100.5t-173.5 -29.5zM563 111q95 0 185 47t155 123.5t104.5 177t39.5 203.5q0 161 -90.5 259.5t-235.5 98.5q-130 0 -240.5 -80t-172.5 -206.5t-62 -264.5q0 -162 86.5 -260t230.5 -98z" />
    <glyph glyph-name="abreve.ss01" horiz-adv-x="1370" 
d="M813 1274q-170 0 -250.5 111t-56.5 284h137q-17 -121 37 -195.5t158 -74.5t183 74t105 196h138q-38 -174 -160.5 -284.5t-290.5 -110.5zM506 -35q-196 0 -312 129t-116 344q0 186 86 353.5t235 270.5t320 103q140 0 236 -74.5t130 -228.5h27q2 114 29 271h153l-196 -1133
h-152q1 6 5 31.5t5.5 34.5t6 32.5t8.5 39t10 39t14.5 48t18.5 51.5h-25q-63 -110 -145 -181t-164.5 -100.5t-173.5 -29.5zM563 111q95 0 185 47t155 123.5t104.5 177t39.5 203.5q0 161 -90.5 259.5t-235.5 98.5q-130 0 -240.5 -80t-172.5 -206.5t-62 -264.5
q0 -162 86.5 -260t230.5 -98z" />
    <glyph glyph-name="acircumflex.ss01" horiz-adv-x="1370" 
d="M569 1278h-147l360 360h193l233 -360h-147q-49 62 -69 88.5t-52.5 80.5t-50.5 103h-47q-82 -116 -273 -272zM506 -35q-196 0 -312 129t-116 344q0 186 86 353.5t235 270.5t320 103q140 0 236 -74.5t130 -228.5h27q2 114 29 271h153l-196 -1133h-152q1 6 5 31.5t5.5 34.5
t6 32.5t8.5 39t10 39t14.5 48t18.5 51.5h-25q-63 -110 -145 -181t-164.5 -100.5t-173.5 -29.5zM563 111q95 0 185 47t155 123.5t104.5 177t39.5 203.5q0 161 -90.5 259.5t-235.5 98.5q-130 0 -240.5 -80t-172.5 -206.5t-62 -264.5q0 -162 86.5 -260t230.5 -98z" />
    <glyph glyph-name="adieresis.ss01" horiz-adv-x="1370" 
d="M647 1362q-41 0 -67.5 27t-26.5 67q0 52 40.5 92.5t92.5 40.5q42 0 68 -26.5t26 -65.5q0 -53 -40 -94t-93 -41zM1014 1362q-42 0 -68 27t-26 67q0 54 40 93.5t93 39.5q41 0 67.5 -27t26.5 -67q0 -51 -40.5 -92t-92.5 -41zM506 -35q-196 0 -312 129t-116 344
q0 186 86 353.5t235 270.5t320 103q140 0 236 -74.5t130 -228.5h27q2 114 29 271h153l-196 -1133h-152q1 6 5 31.5t5.5 34.5t6 32.5t8.5 39t10 39t14.5 48t18.5 51.5h-25q-63 -110 -145 -181t-164.5 -100.5t-173.5 -29.5zM563 111q95 0 185 47t155 123.5t104.5 177
t39.5 203.5q0 161 -90.5 259.5t-235.5 98.5q-130 0 -240.5 -80t-172.5 -206.5t-62 -264.5q0 -162 86.5 -260t230.5 -98z" />
    <glyph glyph-name="agrave.ss01" horiz-adv-x="1370" 
d="M891 1278h-137l-244 391h207zM506 -35q-196 0 -312 129t-116 344q0 186 86 353.5t235 270.5t320 103q140 0 236 -74.5t130 -228.5h27q2 114 29 271h153l-196 -1133h-152q1 6 5 31.5t5.5 34.5t6 32.5t8.5 39t10 39t14.5 48t18.5 51.5h-25q-63 -110 -145 -181
t-164.5 -100.5t-173.5 -29.5zM563 111q95 0 185 47t155 123.5t104.5 177t39.5 203.5q0 161 -90.5 259.5t-235.5 98.5q-130 0 -240.5 -80t-172.5 -206.5t-62 -264.5q0 -162 86.5 -260t230.5 -98z" />
    </font>
</defs>
</svg>
