<?xml version="1.0" standalone="no"?>
<!DOCTYPE svg PUBLIC "-//W3C//DTD SVG 1.1//EN" "http://www.w3.org/Graphics/SVG/1.1/DTD/svg11.dtd" >
<svg xmlns="http://www.w3.org/2000/svg" xmlns:xlink="http://www.w3.org/1999/xlink" version="1.1">
<metadata>
Created by FontForge 20170731 at Mon Mar 15 14:15:42 2021
 By Aleksey,,,
Copyright (c) 2020 by Matthieu Salvaggio x Blaze Type. All rights reserved.
</metadata>
<defs>
<font id="Area-RegularInktrap" horiz-adv-x="2048" >
  <font-face 
    font-family="Area Inktrap"
    font-weight="400"
    font-stretch="normal"
    units-per-em="2048"
    panose-1="0 0 5 0 0 0 0 0 0 0"
    ascent="1638"
    descent="-410"
    x-height="1130"
    cap-height="1597"
    bbox="-1657 -520 2587 2154"
    underline-thickness="102"
    underline-position="-307"
    unicode-range="U+0020-25CA"
  />
<missing-glyph horiz-adv-x="1452" 
d="M1253 0h-1054v1597h1054v-1597zM319 1485v-1286l760 1286h-760zM1130 1368l-739 -1249h739v1249z" />
    <glyph glyph-name=".notdef" horiz-adv-x="1452" 
d="M1253 0h-1054v1597h1054v-1597zM319 1485v-1286l760 1286h-760zM1130 1368l-739 -1249h739v1249z" />
    <glyph glyph-name=".null" horiz-adv-x="0" 
 />
    <glyph glyph-name="nonmarkingreturn" horiz-adv-x="682" 
 />
    <glyph glyph-name="space" unicode=" " horiz-adv-x="538" 
 />
    <glyph glyph-name="exclam" unicode="!" horiz-adv-x="528" 
d="M305 391h-82l-41 1102v104h164v-104zM264 -14q-47 0 -79.5 33.5t-32.5 82.5q0 46 32.5 79.5t79.5 33.5q46 0 79.5 -33.5t33.5 -79.5q0 -49 -33 -82.5t-80 -33.5z" />
    <glyph glyph-name="quotedbl" unicode="&#x22;" horiz-adv-x="696" 
d="M283 1155h-140v442h140v-442zM553 1155h-139v442h139v-442z" />
    <glyph glyph-name="numbersign" unicode="#" horiz-adv-x="1415" 
d="M352 0h-127q62 312 109 492q-94 -25 -254 -25l22 117q155 0 246 -17q21 189 84 422q-90 -24 -252 -24l25 116q158 0 250 -16q16 169 86 532h127q-77 -380 -119 -532q217 23 430 0q20 209 86 532h127q-72 -353 -119 -532q98 16 262 16l-24 -116q-168 0 -260 24
q-10 -192 -76 -422q102 17 260 17l-25 -117q-162 0 -258 25q-18 -207 -75 -492h-127q66 331 106 492q-214 -36 -428 0q-18 -198 -76 -492zM451 567q215 23 430 0q10 182 75 422q-217 -36 -430 0q-10 -196 -75 -422z" />
    <glyph glyph-name="dollar" unicode="$" horiz-adv-x="1183" 
d="M1059 485q0 -159 -114 -264.5t-312 -109.5v-193h-78v195q-159 14 -275.5 103t-168.5 253l127 45q88 -244 317 -272v493l-14 4q-37 9 -72 21t-82 33t-85 50t-72 66.5t-53 90t-19 112.5q0 81 34 148t90.5 110t126.5 68t146 28v172h78v-174q142 -15 254 -101t145 -210
l-119 -55q-32 94 -105 159.5t-175 79.5v-485l29 -8q45 -12 78 -22t77 -27.5t75.5 -36t65 -46t54 -59.5t34 -75t13.5 -93zM299 1122q0 -52 22.5 -94.5t63 -71.5t80 -47.5t90.5 -34.5v467q-112 -6 -184 -64t-72 -155zM633 715v-477q41 1 80 9.5t76.5 26.5t66 44t45.5 65t17 86
t-17 84.5t-41 61.5t-65.5 44.5t-76 31.5t-85.5 24z" />
    <glyph glyph-name="percent" unicode="%" horiz-adv-x="1685" 
d="M348 788q-121 0 -195.5 102.5t-74.5 264.5q0 164 74.5 267.5t195.5 103.5q122 0 197.5 -103.5t75.5 -267.5q0 -162 -75.5 -264.5t-197.5 -102.5zM348 0h-131l1139 1468h123zM348 893q69 0 110.5 69t41.5 193t-41.5 194t-110.5 70t-110 -70t-41 -194t41 -193t110 -69z
M1337 -29q-121 0 -195.5 102.5t-74.5 264.5q0 164 74.5 267.5t195.5 103.5q122 0 197.5 -103.5t75.5 -267.5q0 -162 -75.5 -264.5t-197.5 -102.5zM1337 76q69 0 110.5 69t41.5 193t-41.5 194t-110.5 70t-110 -70t-41 -194t41 -193t110 -69z" />
    <glyph glyph-name="ampersand" unicode="&#x26;" horiz-adv-x="1402" 
d="M555 -35q-123 0 -225.5 46t-167 138t-64.5 213q0 80 29.5 149t86 125.5t120.5 100t151 88.5q-272 251 -272 461q0 148 110 246t275 98q168 0 273.5 -105.5t105.5 -248.5q0 -248 -340 -442l385 -408q13 58 44 176t44 180l131 -28q-71 -269 -166 -387l355 -365h-173
l-247 264q-154 -301 -455 -301zM586 889q66 57 102 92t73 82t52.5 94.5t15.5 104.5q0 114 -66 176.5t-171 62.5q-98 0 -165 -57.5t-67 -157.5q0 -52 17 -102.5t55 -105.5t68 -91.5t86 -97.5zM561 94q113 0 206.5 59.5t188.5 170.5l-415 442q-134 -104 -171 -140
q-113 -107 -125 -221q-1 -15 -1 -30q0 -127 92 -204t225 -77z" />
    <glyph glyph-name="quotesingle" unicode="'" horiz-adv-x="428" 
d="M283 1155h-140v442h140v-442z" />
    <glyph glyph-name="parenleft" unicode="(" horiz-adv-x="620" 
d="M594 -307h-145q-167 198 -256 445.5t-89 506.5q0 260 89 507t256 445h145q-164 -198 -251 -445t-87 -507q0 -259 87 -506.5t251 -445.5z" />
    <glyph glyph-name="parenright" unicode=")" horiz-adv-x="620" 
d="M172 -307h-143q164 198 251 445.5t87 506.5q0 260 -87 507t-251 445h143q167 -198 255.5 -445t88.5 -507q0 -259 -88.5 -506.5t-255.5 -445.5z" />
    <glyph glyph-name="asterisk" unicode="*" horiz-adv-x="839" 
d="M465 1024h-92l2 207l-180 -105l-48 80l185 105l-185 104l48 80l180 -104l-2 206h92v-206l180 104l47 -80l-184 -104l184 -105l-47 -80l-180 105v-207z" />
    <glyph glyph-name="plus" unicode="+" horiz-adv-x="1007" 
d="M567 686h301v-123h-301v-313h-125v313h-303v123h303v313h125v-313z" />
    <glyph glyph-name="comma" unicode="," horiz-adv-x="452" 
d="M156 -258h-88q26 54 43.5 86.5t48 79t65.5 84.5q-106 17 -106 110q0 47 32.5 80t81.5 33q46 0 78.5 -33.5t32.5 -79.5q0 -39 -33 -100.5t-155 -259.5z" />
    <glyph glyph-name="hyphen" unicode="-" horiz-adv-x="798" 
d="M678 563h-557v121h557v-121z" />
    <glyph glyph-name="period" unicode="." horiz-adv-x="479" 
d="M242 -14q-49 0 -82 33t-33 83q0 46 33 79.5t82 33.5q45 0 77.5 -33.5t32.5 -79.5q0 -49 -32 -82.5t-78 -33.5z" />
    <glyph glyph-name="slash" unicode="/" horiz-adv-x="847" 
d="M211 -135h-133l557 1773h133z" />
    <glyph glyph-name="zero" unicode="0" horiz-adv-x="1437" 
d="M721 -35q-176 0 -312 105t-211 294t-75 431q0 244 75 434t211 295.5t312 105.5q174 0 309.5 -105.5t210 -296t74.5 -433.5q0 -242 -74.5 -431t-210 -294t-309.5 -105zM721 102q196 0 316 189.5t120 503.5q0 315 -120 506.5t-316 191.5q-197 0 -318.5 -191.5
t-121.5 -506.5q0 -314 121.5 -503.5t318.5 -189.5z" />
    <glyph glyph-name="one" unicode="1" horiz-adv-x="790" 
d="M571 0h-147q0 864 25 1343q-143 -221 -396 -253v141q166 29 271.5 131.5t105.5 234.5h141v-1597z" />
    <glyph glyph-name="two" unicode="2" horiz-adv-x="1267" 
d="M1159 0h-1036v12q9 90 25.5 160t52.5 132t63.5 102t95 96t108.5 86.5t139 98.5q38 26 57 40q48 33 84 61t85 75t80.5 92t54.5 106t23 123q0 137 -97 226t-253 89q-181 0 -293 -119.5t-112 -310.5l-132 23q0 237 149 387.5t390 150.5q218 0 359 -125t141 -325
q0 -82 -25 -155.5t-73.5 -136t-99.5 -110t-122 -100.5q-51 -38 -122.5 -87.5t-115.5 -79.5t-98.5 -75.5t-89.5 -87t-68 -102t-53 -131.5q299 24 883 24v-139z" />
    <glyph glyph-name="three" unicode="3" horiz-adv-x="1304" 
d="M649 -35q-203 0 -355.5 99.5t-203.5 265.5l125 63q43 -129 158.5 -212t275.5 -83q168 0 275.5 92.5t107.5 243.5q0 145 -106 235.5t-310 90.5h-157v121h170q170 0 263 87.5t93 221.5q0 140 -100.5 223.5t-257.5 83.5q-148 0 -250 -81.5t-125 -229.5l-129 26
q26 189 169.5 303.5t348.5 114.5q135 0 246.5 -49t180.5 -145.5t69 -223.5q0 -140 -82 -243t-221 -129v-25q163 -19 256.5 -116.5t93.5 -254.5q0 -96 -36.5 -182.5t-103.5 -152.5t-169.5 -105t-225.5 -39z" />
    <glyph glyph-name="four" unicode="4" horiz-adv-x="1320" 
d="M1010 0h-144q0 262 23 416q-387 -30 -842 -10v131l821 1060h142q0 -714 -23 -1093q98 22 260 22v-133q-158 0 -260 23q23 -154 23 -416zM195 512q366 26 694 -8q-30 406 -8 944q-225 -326 -686 -936z" />
    <glyph glyph-name="five" unicode="5" horiz-adv-x="1298" 
d="M637 -35q-198 0 -356.5 99t-219.5 270l121 67q57 -143 181.5 -224t275.5 -81q173 0 291.5 114t118.5 294q0 171 -112 281t-280 110q-124 0 -223 -59t-153 -156l-119 47l186 870h764v-129q-442 0 -686 23q-25 -311 -139 -666h18q59 89 159.5 140t221.5 51q100 0 192 -34.5
t164.5 -98t116 -161t43.5 -214.5q0 -156 -75.5 -281t-204.5 -193.5t-285 -68.5z" />
    <glyph glyph-name="six" unicode="6" horiz-adv-x="1357" 
d="M702 -35q-263 0 -422 200t-159 550q0 200 54.5 370.5t151 290t232 187t293.5 67.5q210 0 356 -117l-92 -104q-117 90 -285 90q-244 0 -404 -212.5t-183 -590.5h24q48 160 176.5 249t288.5 89q102 0 197.5 -39t168.5 -107t117 -168t44 -216q0 -232 -159.5 -385.5
t-398.5 -153.5zM705 96q167 0 285 115.5t118 294.5q0 118 -55 212t-146.5 144.5t-199.5 50.5q-171 0 -287.5 -121t-116.5 -292q0 -113 55.5 -206.5t147.5 -145.5t199 -52z" />
    <glyph glyph-name="seven" unicode="7" horiz-adv-x="1200" 
d="M457 0h-150q0 156 50 355.5t138 403.5t219.5 403.5t282.5 342.5l-10 21q-59 -7 -123.5 -12t-113 -8.5t-125.5 -6t-112.5 -4t-125 -2t-112 -0.5h-125h-115.5v131h1126v-141q-197 -179 -360.5 -448.5t-253.5 -544t-90 -490.5z" />
    <glyph glyph-name="eight" unicode="8" horiz-adv-x="1337" 
d="M670 -35q-242 0 -397.5 132.5t-155.5 330.5q0 152 90 259.5t250 137.5v29q-139 40 -210 131t-71 215q0 183 139.5 306.5t354.5 123.5q212 0 350.5 -119.5t138.5 -300.5q0 -124 -70 -220.5t-208 -135.5v-29q159 -31 249.5 -138t90.5 -259q0 -199 -156.5 -331t-394.5 -132z
M670 893q148 0 246 88.5t98 224.5q0 131 -98 216t-246 85q-150 0 -249 -85t-99 -216q0 -136 98.5 -224.5t249.5 -88.5zM668 92q169 0 284 97.5t115 254.5q0 153 -103.5 245.5t-293.5 92.5q-192 0 -296 -91.5t-104 -246.5q0 -157 114.5 -254.5t283.5 -97.5z" />
    <glyph glyph-name="nine" unicode="9" horiz-adv-x="1384" 
d="M627 -35q-138 0 -268 58.5t-230 179.5l92 94q173 -203 391 -203q126 0 225 61t162.5 171t97 259.5t33.5 329.5h-24q-40 -188 -167.5 -288.5t-295.5 -100.5q-105 0 -201.5 41t-168.5 112.5t-115 174.5t-43 221q0 238 159.5 396.5t407.5 158.5q93 0 174.5 -23.5t157 -79.5
t129 -141t85.5 -215t32 -294q0 -121 -17.5 -234.5t-51.5 -215.5t-87.5 -186.5t-122 -146t-159 -95.5t-195.5 -34zM659 649q116 0 210.5 60.5t148 163t53.5 225.5q0 184 -116 294.5t-281 110.5q-171 0 -289.5 -119t-118.5 -309q0 -184 112.5 -305t280.5 -121z" />
    <glyph glyph-name="colon" unicode=":" horiz-adv-x="518" 
d="M260 930q-47 0 -81 35t-34 82t33.5 79.5t81.5 32.5q46 0 79.5 -32.5t33.5 -79.5t-33.5 -82t-79.5 -35zM260 -14q-47 0 -81 34.5t-34 81.5q0 46 34 79.5t81 33.5q46 0 79.5 -33.5t33.5 -79.5q0 -47 -33.5 -81.5t-79.5 -34.5z" />
    <glyph glyph-name="semicolon" unicode=";" horiz-adv-x="585" 
d="M305 930q-49 0 -82 34.5t-33 82.5q0 47 33 79.5t82 32.5q46 0 78.5 -32.5t32.5 -79.5t-32.5 -82t-78.5 -35zM225 -262h-90l127 258q-34 12 -53 40.5t-19 65.5q0 46 33 79.5t80 33.5t80 -33.5t33 -79.5q0 -38 -34 -102t-157 -262z" />
    <glyph glyph-name="less" unicode="&#x3c;" horiz-adv-x="1028" 
d="M862 428v-119l-719 242v141l719 242v-119l-583 -192z" />
    <glyph glyph-name="equal" unicode="=" horiz-adv-x="1044" 
d="M889 768h-733v123h733v-123zM889 350h-733v123h733v-123z" />
    <glyph glyph-name="greater" unicode="&#x3e;" horiz-adv-x="1028" 
d="M883 551l-717 -242v119l582 195l-582 192v119l717 -242v-141z" />
    <glyph glyph-name="question" unicode="?" horiz-adv-x="1091" 
d="M532 434h-137q-4 40 -4 62q0 47 12 88t29 71t52 66t63.5 60t81.5 65q108 87 166.5 171.5t58.5 186.5q0 134 -92.5 214.5t-224.5 80.5q-136 0 -233 -89t-97 -239q0 -23 4 -63l-129 22q-6 34 -6 64q0 131 66 232t172 152.5t231 51.5q91 0 173.5 -28.5t147 -80.5t102.5 -132
t38 -175q0 -73 -23.5 -139.5t-69 -124t-88.5 -99t-106 -91.5q-45 -36 -62 -51t-48.5 -46t-44 -54t-23.5 -56.5t-11 -71.5q0 -31 2 -47zM492 -14q-49 0 -82 34t-33 82q0 46 32.5 79.5t79.5 33.5q46 0 79.5 -33.5t33.5 -79.5q0 -49 -32 -82.5t-78 -33.5z" />
    <glyph glyph-name="at" unicode="@" horiz-adv-x="1968" 
d="M915 -195q-189 0 -345 64t-258.5 173.5t-158 255t-55.5 310.5q0 196 79 382t213.5 327t325 227t400.5 86q167 0 311.5 -55t249.5 -153.5t164.5 -243t59.5 -316.5q0 -177 -60 -324.5t-165.5 -233t-233.5 -85.5q-115 0 -166.5 70t-34.5 200h-12q-77 -133 -179 -193
t-212 -60q-152 0 -245 110t-93 275q0 146 71.5 279t189.5 213.5t247 80.5q105 0 184.5 -61t120.5 -187h10q-11 105 16 221h109l-105 -596q-3 -22 -4 -27.5t-3.5 -32t-2 -38t2 -36.5t6.5 -38t14 -31t22.5 -27.5t33 -16.5t44.5 -7q131 0 226.5 151.5t95.5 375.5
q0 305 -181 492.5t-483 187.5q-184 0 -350.5 -75t-284 -199.5t-187 -292.5t-69.5 -349q0 -150 48.5 -277t138 -219t224 -144t298.5 -52q154 0 295.5 45t251.5 129l59 -88q-128 -98 -293.5 -147.5t-329.5 -49.5zM877 348q105 0 193 67t135.5 170.5t47.5 215.5q0 128 -63 204
t-180 76q-105 0 -193 -64.5t-136 -167.5t-48 -216q0 -128 63.5 -206.5t180.5 -78.5z" />
    <glyph glyph-name="A" unicode="A" horiz-adv-x="1513" 
d="M184 0h-155l647 1597h162l647 -1597h-156q-143 334 -203 563l-18 19q-231 -25 -338 -25q-149 0 -358 25l-21 -21q-63 -203 -207 -561zM442 688l13 -20q187 24 315 24q134 0 281 -24l14 18q-190 416 -285 768h-49q-100 -359 -289 -766z" />
    <glyph glyph-name="B" unicode="B" horiz-adv-x="1458" 
d="M858 0h-643v1597h573q120 0 218 -34t160.5 -91.5t96 -132t33.5 -157.5q0 -79 -29 -147.5t-98 -125t-170 -80.5v-32q175 -28 263 -129t88 -240q0 -186 -142.5 -307t-349.5 -121zM340 864l20 -22q68 13 148 19t123.5 6.5t134.5 0.5q174 0 275.5 81t101.5 212
q0 137 -110.5 220t-280.5 83h-23q-227 0 -369 25l-22 -19q36 -286 2 -606zM338 131l22 -22q157 24 453 24q173 0 277 82.5t104 214.5q0 137 -110 223t-285 86q-279 0 -439 27l-20 -23q34 -326 -2 -612z" />
    <glyph glyph-name="C" unicode="C" horiz-adv-x="1720" 
d="M915 -35q-234 0 -417.5 105t-286 293.5t-102.5 429.5q0 149 40.5 281t113.5 232.5t171.5 174t219 111.5t251.5 38q113 0 221 -29.5t203 -85.5t169 -146.5t112 -205.5l-133 -53q-71 180 -225 281.5t-345 101.5q-130 0 -246.5 -48.5t-204.5 -136.5t-140 -222t-52 -295
q0 -169 57 -303.5t152 -217t212 -125.5t245 -43q121 0 225 38.5t178.5 106t126 153t80.5 186.5l131 -47q-38 -125 -104.5 -228.5t-159.5 -181.5t-219 -121t-273 -43z" />
    <glyph glyph-name="D" unicode="D" horiz-adv-x="1648" 
d="M797 0h-582v1597h563q156 0 283 -40.5t214.5 -112t146.5 -171.5t86.5 -216t27.5 -248q0 -238 -87 -420t-255.5 -285.5t-396.5 -103.5zM338 131l22 -22q152 24 445 24q265 0 421 178t156 486q0 317 -169.5 492t-467.5 175q-246 0 -385 25l-22 -19q46 -668 0 -1339z" />
    <glyph glyph-name="E" unicode="E" horiz-adv-x="1347" 
d="M1241 0h-1026v1597h1006v-133q-39 0 -160 -0.5t-179.5 0t-158.5 2.5t-187.5 8t-175.5 15l-22 -19q36 -290 2 -587l18 -23q297 29 822 29v-137q-186 0 -276 1t-249.5 8t-296.5 21l-18 -22q34 -319 -2 -629l22 -22q146 14 316.5 21t267.5 8t297 1v-139z" />
    <glyph glyph-name="F" unicode="F" horiz-adv-x="1271" 
d="M362 0h-147v1597h985v-139q-180 0 -280 1t-260 8.5t-300 21.5l-22 -19q37 -306 0 -604l18 -22q135 13 291.5 20t243.5 7.5t268 0.5v-135q-508 0 -803 29l-18 -23q12 -117 17.5 -261t6 -225t0.5 -257z" />
    <glyph glyph-name="G" unicode="G" horiz-adv-x="1798" 
d="M899 -35q-171 0 -317.5 61.5t-250.5 170t-163 263t-59 333.5q0 184 62 341.5t169 265.5t253.5 169t311.5 61q114 0 222 -29.5t203 -86t168.5 -147t111.5 -204.5l-133 -53q-71 180 -225 281.5t-345 101.5q-129 0 -245.5 -48.5t-205 -136t-140.5 -222t-52 -295.5
q0 -136 37.5 -251t101.5 -194.5t149 -135.5t179 -82t193 -26q247 0 413.5 158t214.5 420l-14 18q-300 -45 -580 -45v127h701v-780h-121q0 20 -2.5 109t0.5 150t14 126l-26 4q-83 -208 -240 -316t-385 -108z" />
    <glyph glyph-name="H" unicode="H" horiz-adv-x="1656" 
d="M362 0h-147v1597h147q0 -495 -22 -723l20 -22q513 41 936 0l19 22q-21 263 -21 723h146v-1597h-146q0 459 21 745l-21 23q-439 -60 -934 0l-20 -23q22 -249 22 -745z" />
    <glyph glyph-name="I" unicode="I" horiz-adv-x="577" 
d="M362 0h-147v1597h147v-1597z" />
    <glyph glyph-name="J" unicode="J" horiz-adv-x="1202" 
d="M553 -35q-76 0 -145.5 16.5t-135 55.5t-113 96.5t-76 147t-28.5 200.5v45l138 19v-37q0 -90 21.5 -161.5t56 -117t81.5 -75.5t96 -42t101 -12q49 0 90.5 11.5t71.5 29.5t53.5 47.5t39 57t26 66.5t16 68t8.5 70t3.5 64t0.5 57v1026h146v-987q0 -60 -1 -98t-9.5 -113
t-24.5 -125.5t-49.5 -114t-80 -102t-120 -65.5t-166.5 -27z" />
    <glyph glyph-name="K" unicode="K" horiz-adv-x="1368" 
d="M362 0h-147v1597h147v-118v-131t-1 -115.5t-3.5 -133.5t-6 -118t-9.5 -137t-14 -127h24q266 305 807 880h176q-14 -15 -78.5 -84.5t-83.5 -90t-77 -82t-85.5 -90t-79.5 -82t-88.5 -89.5t-83.5 -81.5t-91 -86.5v-26q287 -335 706 -885h-178q-376 474 -604 803h-21
q-99 -144 -221 -240q12 -195 12 -563z" />
    <glyph glyph-name="L" unicode="L" horiz-adv-x="1212" 
d="M1180 0h-965v1597h147q0 -345 -0.5 -504.5t-6 -442.5t-17.5 -519l22 -22q135 14 294.5 21t250 8t275.5 1v-139z" />
    <glyph glyph-name="M" unicode="M" horiz-adv-x="2062" 
d="M362 0h-147v1597h154q352 -678 649 -1421h26q299 718 650 1421h153v-1597h-147q0 41 -0.5 249.5t0 288.5t4 246t12 301t21.5 275h-23q-75 -171 -163.5 -366.5t-148.5 -327t-160.5 -350t-145.5 -316.5h-129q-46 100 -146 317t-160.5 349t-148 327.5t-162.5 366.5h-24
q13 -138 21.5 -275t11.5 -297t4 -250t0 -285.5t-1 -252.5z" />
    <glyph glyph-name="N" unicode="N" horiz-adv-x="1689" 
d="M362 0h-147v1597h135q513 -681 983 -1394h25q-15 225 -22.5 499t-8 414t-0.5 481h148v-1597h-136q-584 773 -981 1372h-24q7 -100 12 -199t8 -208.5t5 -187.5t2.5 -203.5t0.5 -184.5v-201.5v-187.5z" />
    <glyph glyph-name="O" unicode="O" horiz-adv-x="1816" 
d="M907 -35q-162 0 -309.5 63t-255.5 172t-172 264.5t-64 332.5t63.5 332.5t172 265t256 172.5t311.5 63q166 0 315 -65t255.5 -176t168.5 -265.5t62 -326.5q0 -174 -63 -329t-170.5 -265t-256 -174t-313.5 -64zM911 102q128 0 245 53t204.5 144t139.5 221t52 277
t-51.5 277.5t-139 221.5t-205 144t-245.5 53q-129 0 -247.5 -52.5t-206.5 -143.5t-140.5 -221.5t-52.5 -278.5t52.5 -278t140.5 -221t206.5 -143.5t247.5 -52.5z" />
    <glyph glyph-name="P" unicode="P" horiz-adv-x="1368" 
d="M362 0h-147v1597h561q147 0 264 -53.5t188.5 -162.5t71.5 -257q0 -117 -42 -211.5t-112 -153t-156.5 -89.5t-180.5 -31q-117 0 -175 1.5t-140 10.5t-156 27q24 -242 24 -678zM340 764l20 -23q145 31 404 31q177 0 280 89t103 255q0 165 -109.5 256.5t-287.5 91.5
q-251 0 -390 25l-22 -19q36 -350 2 -706z" />
    <glyph glyph-name="Q" unicode="Q" horiz-adv-x="1824" 
d="M1661 -109l-102 -88q-128 150 -178 225q-26 39 -48 78q-183 -141 -422 -141q-164 0 -312 63t-256.5 172t-172.5 264.5t-64 332.5t63.5 332.5t172 265t257.5 172.5t314 63q167 0 316.5 -65t256.5 -176t169.5 -265.5t62.5 -326.5q0 -196 -79.5 -361t-231.5 -278
q101 -85 254 -267zM913 96q176 0 353 92q-149 134 -351 379l103 88q204 -241 319 -422q108 116 166 260t58 304q0 147 -51.5 277.5t-139.5 221.5t-207 144t-250 53t-250 -52t-207.5 -143t-141 -221.5t-52.5 -279.5t52.5 -280.5t141 -223t207.5 -144.5t250 -53z" />
    <glyph glyph-name="R" unicode="R" horiz-adv-x="1419" 
d="M362 0h-147v1597h561q108 0 202.5 -31.5t166.5 -90.5t113.5 -150t41.5 -203q0 -199 -120 -317t-318 -133v-25q48 -60 94 -122t101 -141t82.5 -119t95 -141.5t82.5 -123.5h-164l-428 641q-227 0 -387 37q24 -236 24 -678zM340 760l20 -23q157 27 404 27q176 0 279.5 92
t103.5 258q0 164 -110 257t-287 93q-239 0 -390 25l-22 -19q36 -363 2 -710z" />
    <glyph glyph-name="S" unicode="S" horiz-adv-x="1320" 
d="M680 -35q-93 0 -181 25t-171 77.5t-148 146.5t-98 220l135 49q49 -186 175 -284.5t292 -98.5q70 0 135.5 18.5t122 54.5t91 98t34.5 141q0 47 -12 85.5t-36 66.5t-50 48.5t-65 37t-69.5 27.5t-74.5 24q-22 7 -33 10l-149 47q-44 14 -75.5 25t-81 33.5t-85 45t-75.5 58
t-65 75t-42 94t-17 115.5q0 103 44.5 186t119 134.5t165.5 78.5t189 27q192 0 335 -100.5t194 -282.5l-131 -53q-45 139 -153 220t-259 81q-149 0 -249.5 -77.5t-100.5 -203.5q0 -44 14.5 -82.5t34 -66.5t53.5 -54.5t59 -41.5t66.5 -32t59 -23t51.5 -17l155 -51
q151 -48 203 -72q184 -85 225 -238q13 -48 13 -104q0 -138 -75.5 -246t-199 -164.5t-270.5 -56.5z" />
    <glyph glyph-name="T" unicode="T" horiz-adv-x="1300" 
d="M723 0h-145q0 997 24 1489q-207 -25 -571 -25v133h1239v-133q-365 0 -570 25q23 -512 23 -1489z" />
    <glyph glyph-name="U" unicode="U" horiz-adv-x="1540" 
d="M764 -35q-276 0 -421.5 159.5t-145.5 455.5v1017h145v-1009q0 -249 112 -368.5t316 -119.5q205 0 316.5 119.5t111.5 368.5v1009h145v-1017q0 -133 -33 -242.5t-101 -194t-181.5 -131.5t-263.5 -47z" />
    <glyph glyph-name="V" unicode="V" horiz-adv-x="1513" 
d="M838 0h-162l-647 1597h155q339 -811 561 -1462h31q36 106 74 213t84.5 231.5t76.5 205t87 225t76 194t83 211t72 182.5h156z" />
    <glyph glyph-name="W" unicode="W" horiz-adv-x="2326" 
d="M729 0h-176l-516 1597h158q277 -831 436 -1437h24q122 454 426 1437h164q273 -853 432 -1441h23q179 670 432 1441h158l-514 -1597h-177q-261 789 -421 1421h-29q-178 -693 -420 -1421z" />
    <glyph glyph-name="X" unicode="X" horiz-adv-x="1329" 
d="M195 0h-170q55 79 173 253.5t209 305.5t177 248v22q-251 340 -545 768h168q267 -378 446 -682h25q168 293 446 682h168q-267 -389 -547 -768v-22q68 -92 146.5 -204t132.5 -191t145 -214t134 -198h-168q-254 375 -457 721h-25q-171 -298 -458 -721z" />
    <glyph glyph-name="Y" unicode="Y" horiz-adv-x="1413" 
d="M778 0h-145q0 389 12 586q-233 371 -606 1011h160q324 -555 495 -903h25q23 47 48.5 97t46.5 91t51.5 96t48 87.5t52 93.5t48.5 85.5t53 91.5t49 84.5t53 91t50 85.5h155q-417 -708 -606 -1011q10 -195 10 -586z" />
    <glyph glyph-name="Z" unicode="Z" horiz-adv-x="1345" 
d="M1282 0h-1223v123q418 565 1049 1356l-12 24q-443 -39 -998 -39v133h1166v-118q-55 -75 -110 -148t-119 -157t-108 -141.5t-121 -155.5t-110 -140.5t-123 -156t-113 -142.5t-126 -158.5t-119 -150.5l12 -25q419 35 1055 35v-139z" />
    <glyph glyph-name="bracketleft" unicode="[" horiz-adv-x="671" 
d="M621 -336h-422v1933h422v-122q-196 0 -310 22q37 -863 0 -1726q114 24 310 24v-131z" />
    <glyph glyph-name="backslash" unicode="\" horiz-adv-x="847" 
d="M770 -135h-135l-557 1773h135z" />
    <glyph glyph-name="bracketright" unicode="]" horiz-adv-x="671" 
d="M473 -336h-422v131q195 0 309 -24q-37 863 0 1726q-114 -22 -309 -22v122h422v-1933z" />
    <glyph glyph-name="asciicircum" unicode="^" horiz-adv-x="876" 
d="M244 1049h-127l254 548h137l250 -548h-125q-115 257 -174 438h-39q-44 -129 -176 -438z" />
    <glyph glyph-name="underscore" unicode="_" horiz-adv-x="1034" 
d="M993 -225h-954v116h954v-116z" />
    <glyph glyph-name="a" unicode="a" horiz-adv-x="1173" 
d="M455 -35q-154 0 -256.5 76.5t-102.5 218.5q0 77 32.5 137t92 100t127.5 65.5t156 43.5q28 6 74.5 14.5t70.5 13.5t59.5 13.5t53.5 16.5t41 21.5t33.5 28.5t18 36.5t7.5 48.5q0 99 -80.5 172t-206.5 73q-112 0 -192.5 -63.5t-114.5 -173.5l-133 47q33 104 105.5 175.5
t160 102.5t185.5 31q80 0 152.5 -22t133.5 -65.5t97.5 -118t36.5 -171.5v-432q0 -132 8.5 -206.5t27.5 -147.5h-139q-17 69 -20 117.5t12 144.5h-23q-56 -140 -161 -218.5t-256 -78.5zM475 78q86 0 162 37t124 93.5t75.5 121.5t27.5 123v170q-46 -48 -98 -69t-170 -44
q-43 -8 -72.5 -15t-75.5 -20.5t-77 -31.5t-62 -43t-47 -59.5t-16 -76.5q0 -86 63 -136t166 -50z" />
    <glyph glyph-name="b" unicode="b" horiz-adv-x="1370" 
d="M752 -35q-143 0 -256.5 73.5t-176.5 215.5h-22q7 -29 11 -55.5t5.5 -57t2 -46t0 -51.5t-0.5 -44h-133v1638h137q0 -45 1 -177t0.5 -202t-4.5 -185t-13 -218h25q67 159 178.5 233t249.5 74q225 0 372.5 -169t147.5 -429q0 -175 -70 -313t-189 -212.5t-265 -74.5zM729 92
q173 0 286 134.5t113 338.5t-113.5 337.5t-285.5 133.5t-291 -133.5t-119 -339.5t119.5 -338.5t290.5 -132.5z" />
    <glyph glyph-name="c" unicode="c" horiz-adv-x="1245" 
d="M657 -35q-248 0 -405.5 166t-157.5 432q0 267 157 433.5t406 166.5q105 0 196 -31.5t170 -105.5t122 -184l-133 -51q-43 117 -138 181t-223 64q-185 0 -297 -134t-112 -339q0 -211 117 -341t303 -130q145 0 248.5 80.5t156.5 212.5l125 -45q-65 -181 -206.5 -278
t-328.5 -97z" />
    <glyph glyph-name="d" unicode="d" horiz-adv-x="1372" 
d="M621 -35q-228 0 -376.5 168t-148.5 430q0 132 41 245t112 190.5t167.5 121t206.5 43.5q140 0 249.5 -75t174.5 -232h24q-24 304 -20 782h137v-1284q0 -132 8.5 -205.5t28.5 -148.5h-140q-17 70 -20 121.5t10 148.5h-24q-63 -155 -176 -230t-254 -75zM641 92
q172 0 292 133.5t120 339.5q0 207 -120 339t-292 132q-173 0 -286 -134.5t-113 -338.5t113.5 -337.5t285.5 -133.5z" />
    <glyph glyph-name="e" unicode="e" horiz-adv-x="1269" 
d="M651 -35q-119 0 -221.5 43.5t-176.5 121t-116.5 189.5t-42.5 244q0 173 70.5 310t197.5 213.5t287 76.5q69 0 135.5 -14.5t137.5 -54.5t123.5 -101t86 -163t33.5 -232v-70h-925q3 -203 118.5 -321.5t298.5 -118.5q142 0 245 80.5t153 208.5l125 -45q-63 -172 -204 -269.5
t-325 -97.5zM246 655h772q-1 83 -23.5 150t-59 110.5t-85.5 72.5t-100 41.5t-105 12.5q-160 0 -267.5 -107t-131.5 -280z" />
    <glyph glyph-name="f" unicode="f" horiz-adv-x="710" 
d="M365 0h-140q0 674 25 1032q-78 -22 -195 -22v120q122 0 195 -22q-25 72 -25 178q0 69 6.5 121.5t25.5 104.5t51.5 85.5t87.5 54.5t130 21q122 0 211 -53v-127q-94 59 -190 59q-30 0 -54 -4.5t-42 -10.5t-32 -19.5t-23 -24t-15 -32t-9 -35.5t-5 -42t-2 -44.5v-49.5
q0 -110 -25 -182q123 22 354 22v-120q-227 0 -354 22q25 -358 25 -1032z" />
    <glyph glyph-name="g" unicode="g" horiz-adv-x="1368" 
d="M664 -483q-390 0 -510 329l127 45q87 -253 383 -253q63 0 117 13.5t104.5 47.5t85.5 86.5t56.5 136t21.5 191.5q0 107 20 168h-25q-66 -137 -177.5 -208t-248.5 -71q-151 0 -271 77t-186.5 210t-66.5 297q0 251 150.5 414t373.5 163q135 0 249.5 -83t174.5 -224h25
q-14 100 -14 274h133v-991q0 -136 -25.5 -242t-71 -177t-112 -117t-143.5 -66t-170 -20zM639 129q111 0 205.5 59.5t150.5 165.5t56 234q0 96 -33 180t-88.5 142.5t-131 92t-159.5 33.5q-172 0 -285.5 -129t-113.5 -321q0 -126 52 -231t143.5 -165.5t203.5 -60.5z" />
    <glyph glyph-name="h" unicode="h" horiz-adv-x="1296" 
d="M319 0h-137v1638h137q0 -413 -32 -753h24q133 278 406 278q63 0 120.5 -14t111.5 -47.5t93.5 -84.5t63.5 -130t24 -178v-709h-137v647q0 199 -87.5 294t-223.5 95q-111 0 -195.5 -60.5t-126 -151.5t-41.5 -193v-631z" />
    <glyph glyph-name="i" unicode="i" horiz-adv-x="501" 
d="M252 1413q-50 0 -82.5 33.5t-32.5 83.5q0 46 33 79t82 33q47 0 80 -33t33 -79q0 -49 -33 -83t-80 -34zM319 0h-137v1130h137v-1130z" />
    <glyph glyph-name="j" unicode="j" horiz-adv-x="501" 
d="M252 1413q-50 0 -82.5 33.5t-32.5 83.5q0 47 32.5 79.5t82.5 32.5q47 0 80 -33t33 -79q0 -49 -33 -83t-80 -34zM2 -483q-125 0 -215 55v129q98 -61 190 -61q42 0 75.5 14t55 33.5t36.5 53.5t22 60.5t11 69t4.5 65.5t0.5 62v1132h137v-1144q0 -39 -0.5 -61.5t-3 -65.5
t-8 -70.5t-16.5 -67.5t-26.5 -65.5t-39.5 -54t-55 -45.5t-74 -28t-94 -11z" />
    <glyph glyph-name="k" unicode="k" horiz-adv-x="1071" 
d="M322 0h-140v1638h140v-169v-188t-1 -165t-3.5 -191t-6.5 -167.5t-10 -188.5h25q152 176 516 561h170l-443 -444q64 -80 137.5 -176.5t122 -161.5t134.5 -182t122 -166h-159q-30 41 -104.5 143.5t-115 158.5t-102 142.5t-112.5 161.5q-86 -117 -191 -188q21 -150 21 -418z
" />
    <glyph glyph-name="l" unicode="l" horiz-adv-x="501" 
d="M319 0h-137v1638h137v-1638z" />
    <glyph glyph-name="m" unicode="m" horiz-adv-x="2066" 
d="M319 0h-137v1130h133v-24v-26t-0.5 -23.5t-1 -26.5t-2 -25.5t-3.5 -29t-5 -27.5t-7 -31.5t-9 -31.5h24q130 278 402 278q60 0 114 -15t105 -48t88.5 -96t52.5 -150h25q124 309 399 309q77 0 145.5 -24t128 -74.5t95 -142t35.5 -213.5v-709h-138v647q0 103 -24.5 180.5
t-67 121.5t-94.5 65.5t-113 21.5q-106 0 -188.5 -60t-124 -151t-41.5 -194v-631h-137v647q0 103 -24.5 180.5t-67 121.5t-94.5 65.5t-113 21.5q-106 0 -189 -60t-124.5 -151.5t-41.5 -193.5v-631z" />
    <glyph glyph-name="n" unicode="n" horiz-adv-x="1296" 
d="M319 0h-137v1130h133q0 -52 -0.5 -77t-7 -73t-20.5 -95h24q133 278 408 278q63 0 120 -14t111 -47.5t93.5 -84.5t63 -130t23.5 -178v-709h-137v647q0 199 -87.5 294t-223.5 95q-111 0 -195.5 -60t-126 -151t-41.5 -194v-631z" />
    <glyph glyph-name="o" unicode="o" horiz-adv-x="1320" 
d="M662 -35q-251 0 -409.5 167t-158.5 431t159 432t409 168q249 0 406 -168t157 -432t-157 -431t-406 -167zM662 92q185 0 301 131.5t116 339.5t-116 340.5t-301 132.5t-302.5 -132.5t-117.5 -340.5q0 -207 117 -339t303 -132z" />
    <glyph glyph-name="p" unicode="p" horiz-adv-x="1370" 
d="M319 -451h-137v1581h133q0 -168 -18 -268h22q71 153 184.5 227t252.5 74q225 0 372.5 -169t147.5 -429q0 -175 -70 -313t-189 -212.5t-265 -74.5q-140 0 -251.5 73t-174.5 216h-25q7 -73 11.5 -146t6 -152.5t1.5 -132t-0.5 -144.5t-0.5 -130zM729 92q173 0 286 134.5
t113 338.5t-113.5 337.5t-285.5 133.5q-171 0 -290.5 -133t-119.5 -340q0 -206 119.5 -338.5t290.5 -132.5z" />
    <glyph glyph-name="q" unicode="q" horiz-adv-x="1370" 
d="M1188 -451h-137q0 38 -0.5 130t-0.5 144.5t1.5 131t6 151t11.5 144.5h-25q-67 -143 -179 -214t-249 -71q-149 0 -268 77t-186.5 214t-67.5 309q0 131 41.5 244t112 190t167.5 120.5t206 43.5q141 0 254.5 -74t177.5 -223h24q-5 23 -9 43.5t-6.5 44t-4 36t-2 39.5
t-0.5 32.5v36.5v32h133v-1581zM641 92q172 0 291 133.5t119 339.5t-119.5 338.5t-290.5 132.5q-173 0 -286 -134.5t-113 -338.5t113.5 -337.5t285.5 -133.5z" />
    <glyph glyph-name="r" unicode="r" horiz-adv-x="839" 
d="M319 0h-137v1130h133q0 -16 1 -57.5t1 -67t-4 -69.5t-12 -88h23q42 152 140 233.5t226 81.5q73 0 129 -22v-150q-69 27 -139 27t-130 -27t-102 -72.5t-71.5 -105.5t-43.5 -127t-14 -137v-549z" />
    <glyph glyph-name="s" unicode="s" horiz-adv-x="1013" 
d="M532 -35q-166 0 -292 87t-172 231l129 41q42 -106 137.5 -173t200.5 -67q39 0 80 10.5t82.5 32.5t67.5 64t26 98q0 46 -18.5 80t-57 57t-72.5 35.5t-90 27.5l-109 31q-30 9 -51.5 16t-58 22.5t-62.5 31.5t-56.5 42.5t-49.5 56t-32 71t-13 88.5q0 77 33 139t87.5 99.5
t119.5 57t133 19.5q142 0 252 -78.5t149 -197.5l-133 -45q-30 86 -103.5 144t-177.5 58q-97 0 -159 -50.5t-62 -133.5q0 -41 18 -75.5t42 -56.5t64 -42t68 -30t70 -23l107 -31q35 -10 56.5 -16.5t57.5 -21t59 -29t51 -37.5t44.5 -49t27.5 -62.5t11 -79.5q0 -147 -113 -244.5
t-291 -97.5z" />
    <glyph glyph-name="t" unicode="t" horiz-adv-x="782" 
d="M526 -35q-45 0 -82 9t-64 22.5t-48 36.5t-34.5 44t-23 52.5t-14 53.5t-7 56.5t-3 52t-0.5 48.5q0 454 24 690q-96 -22 -249 -22v122q153 0 249 -22q-24 128 -24 358h139q0 -230 -24 -358q133 22 368 22v-122q-235 0 -368 22q24 -224 24 -651q0 -43 1 -66.5t5 -63.5
t14 -63t27 -48t45.5 -36.5t67.5 -11.5q90 0 184 62v-132q-85 -55 -207 -55z" />
    <glyph glyph-name="u" unicode="u" horiz-adv-x="1277" 
d="M571 -35q-63 0 -119.5 14.5t-109.5 48.5t-91.5 85t-61.5 130.5t-23 178.5v708h137v-655q0 -104 25.5 -181t70 -119.5t96 -62.5t111.5 -20q82 0 150 36t110.5 94.5t66 128.5t23.5 141v638h138v-776q0 -133 8.5 -207t27.5 -147h-139q-12 49 -17 80.5t-4 78.5t13 99h-25
q-112 -293 -387 -293z" />
    <glyph glyph-name="v" unicode="v" horiz-adv-x="1110" 
d="M631 0h-150l-448 1130h149q229 -581 363 -993h26q123 384 359 993h147z" />
    <glyph glyph-name="w" unicode="w" horiz-adv-x="1859" 
d="M592 0h-146l-411 1130h153q77 -214 116.5 -328t100 -303.5t105.5 -357.5h29q46 167 108.5 361.5t98 296t116.5 331.5h137q4 -11 37 -102.5t39.5 -110.5t35.5 -100.5t39.5 -112.5t35.5 -103.5t39 -116t34.5 -107t37.5 -120.5t34 -116h27q98 368 313 989h154l-410 -1130
h-149q-214 587 -328 963h-14q-126 -409 -332 -963z" />
    <glyph glyph-name="x" unicode="x" horiz-adv-x="1048" 
d="M186 0h-155q238 335 411 559v23q-141 176 -411 548h159q232 -325 322 -481h25q103 178 323 481h158q-260 -359 -412 -548v-23q176 -224 410 -559h-152q-214 299 -327 492h-25q-88 -154 -326 -492z" />
    <glyph glyph-name="y" unicode="y" horiz-adv-x="1116" 
d="M451 -451h-132l170 435l-456 1146h149q211 -518 367 -1013h22q140 451 363 1013h149z" />
    <glyph glyph-name="z" unicode="z" horiz-adv-x="999" 
d="M948 0h-887v106q33 45 155 213.5t179 246t156.5 208.5t185.5 238l-10 24q-285 -32 -631 -32v126h805v-106q-404 -554 -680 -897l10 -25q252 25 717 25v-127z" />
    <glyph glyph-name="braceleft" unicode="{" horiz-adv-x="761" 
d="M717 -305h-80q-104 0 -180.5 23t-122 61t-73 96.5t-37 119.5t-9.5 140v170q0 50 -1.5 88.5t-7 66.5t-10 47t-15.5 31.5t-18 19t-24 9.5t-27 3.5t-32 0.5v150q22 0 32 0.5t27 3.5t24 9.5t18 19t15.5 31.5t10 47t7 66.5t1.5 88.5v170q0 79 9.5 140t37 119.5t73 96.5t122 61
t180.5 23h80v-122h-74q-159 0 -225 -73t-66 -214v-197q0 -77 -6.5 -130t-17 -86.5t-33 -54.5t-46 -32t-63.5 -22v-41q51 -14 77.5 -28.5t49.5 -48.5t31 -92.5t8 -154.5v-199q0 -140 65.5 -212t225.5 -72h74v-123z" />
    <glyph glyph-name="bar" unicode="|" horiz-adv-x="528" 
d="M330 -451h-131v2089h131v-2089z" />
    <glyph glyph-name="braceright" unicode="}" horiz-adv-x="761" 
d="M125 -305h-80v123h72q161 0 227 71.5t66 212.5v199q0 77 6.5 129.5t17 86t32.5 54.5t45.5 32t63.5 22v41q-40 11 -63.5 22t-45.5 32t-32.5 55t-17 86.5t-6.5 129.5v197q0 141 -66 214t-227 73h-72v122h80q104 0 180.5 -23t122 -61t73 -96.5t37 -119.5t9.5 -140v-170
q0 -50 1.5 -88.5t7 -66.5t10 -47t15.5 -31.5t18 -19t24 -9.5t27 -3.5t32 -0.5v-150q-22 0 -32 -0.5t-27 -3.5t-24 -9.5t-18 -19t-15.5 -31.5t-10 -47t-7 -66.5t-1.5 -88.5v-170q0 -79 -9.5 -140t-37 -119.5t-73 -96.5t-122 -61t-180.5 -23z" />
    <glyph glyph-name="asciitilde" unicode="~" horiz-adv-x="1071" 
d="M702 569q-53 0 -99.5 22t-74.5 48t-65 48t-74 22q-55 0 -81.5 -39.5t-26.5 -98.5h-121q0 123 68 190.5t163 67.5q42 0 79 -14.5t63.5 -34.5t51.5 -40.5t54.5 -35t60.5 -14.5q48 0 72.5 38.5t24.5 98.5h121q0 -127 -60.5 -192.5t-155.5 -65.5z" />
    <glyph glyph-name="uni00A0" unicode="&#xa0;" horiz-adv-x="538" 
 />
    <glyph glyph-name="exclamdown" unicode="&#xa1;" horiz-adv-x="497" 
d="M250 934q-49 0 -82 33.5t-33 79.5q0 48 33 82t82 34q46 0 78 -34.5t32 -81.5q0 -46 -32.5 -79.5t-77.5 -33.5zM330 -446h-164v102l41 1100h82l41 -1100v-102z" />
    <glyph glyph-name="cent" unicode="&#xa2;" horiz-adv-x="1140" 
d="M934 580l104 -39q-52 -138 -158 -216t-245 -87v-238h-94v242q-180 21 -292 153.5t-112 335.5t112 336.5t292 155.5v243h94v-239q121 -8 217.5 -72.5t146.5 -189.5l-108 -41q-31 83 -98.5 134t-157.5 60v-772q108 7 184 70.5t115 163.5zM260 731q0 -153 77.5 -256
t203.5 -125v766q-128 -20 -204.5 -126t-76.5 -259z" />
    <glyph glyph-name="sterling" unicode="&#xa3;" horiz-adv-x="1222" 
d="M1137 0h-1035v135q183 71 283 179.5t100 238.5q0 16 -1.5 33.5t-3 30.5t-5.5 34t-6.5 32t-8 36t-7.5 35q-119 -21 -326 -21v105q162 0 285 -21q-111 140 -147 198q-79 128 -79 251q0 114 58.5 198t154 125t215.5 41q57 0 111.5 -9.5t115.5 -36.5t110.5 -69t91.5 -113
t63 -163l-131 -53q-24 88 -65 152t-91 97.5t-99.5 48.5t-103.5 15q-119 0 -197.5 -64t-78.5 -180q0 -70 32 -141t82 -154t72 -143q176 21 457 21v-105q-245 0 -424 21q76 -85 76 -183q0 -126 -81.5 -242.5t-240.5 -203.5l21 -23q130 15 288 22.5t238.5 8t276.5 0.5v-133z
" />
    <glyph glyph-name="currency" unicode="&#xa4;" horiz-adv-x="1353" 
d="M1061 823q0 -152 -84 -260l270 -321l-92 -82l-272 321q-86 -53 -203 -53q-116 0 -209 55l-272 -323l-95 82l273 323q-84 108 -84 258t82 256l-271 322l95 84l270 -322q94 56 209 56q116 0 207 -56l270 322l92 -84l-268 -320q82 -109 82 -258zM678 539q117 0 186.5 79
t69.5 205t-69.5 205.5t-186.5 79.5t-187.5 -79.5t-70.5 -205.5t71 -205t187 -79z" />
    <glyph glyph-name="yen" unicode="&#xa5;" horiz-adv-x="1452" 
d="M799 0h-148q0 182 25 299q-150 -25 -395 -25v117q251 0 395 -24q-19 67 -19 121.5t19 117.5q-144 -24 -395 -24v116q215 0 340 -22q-262 419 -558 921h158q344 -587 500 -874h10q129 237 502 874h156q-418 -695 -560 -921q123 22 345 22v-116q-256 0 -400 24
q19 -63 19 -117.5t-19 -121.5q144 24 400 24v-117q-250 0 -400 25q25 -117 25 -299z" />
    <glyph glyph-name="brokenbar" unicode="&#xa6;" horiz-adv-x="528" 
d="M330 838h-131v800h131v-800zM330 -451h-131v793h131v-793z" />
    <glyph glyph-name="section" unicode="&#xa7;" horiz-adv-x="1093" 
d="M559 -301q-169 0 -298.5 95t-174.5 245l125 39q43 -113 142 -188.5t208 -75.5q39 0 79 10.5t78.5 32.5t62.5 63t24 96q0 27 -7 50t-16.5 39.5t-28.5 32.5t-34.5 25.5t-44.5 21.5t-47.5 18.5t-53.5 17.5l-106 37q-43 15 -73 27t-79 40.5t-80 60.5t-55 83.5t-24 112.5
q0 102 61.5 168.5t171.5 85.5v30q-98 29 -157.5 96.5t-59.5 165.5q0 80 33.5 143t89 100t122 56t138.5 19q91 0 166 -27.5t138 -97t93 -178.5l-133 -41q-36 119 -99.5 174t-174.5 55q-105 0 -169.5 -50.5t-64.5 -137.5q0 -40 17 -74.5t40 -56.5t61.5 -42.5t65.5 -30.5
t68 -24l125 -41q116 -42 166 -74q115 -77 115 -210q0 -101 -64.5 -178t-177.5 -103v-28q223 -49 223 -248q0 -140 -110 -237t-281 -97zM537 371l53 -17q39 2 78 14.5t76.5 35.5t61 64.5t23.5 94.5q0 27 -7 50.5t-16.5 40t-28.5 32t-34 25t-43.5 20.5t-46 17t-51.5 16l-78 24
q-63 20 -118.5 -4t-86 -75.5t-30.5 -110.5q0 -39 17 -73t40.5 -56.5t60.5 -43t65 -31.5t65 -23z" />
    <glyph glyph-name="copyright" unicode="&#xa9;" horiz-adv-x="1933" 
d="M969 -35q-184 0 -341.5 65.5t-264.5 178.5t-167.5 265.5t-60.5 324.5q0 171 60.5 323.5t167.5 264.5t264.5 177.5t341.5 65.5q183 0 340 -65.5t264 -177.5t167 -264.5t60 -323.5q0 -172 -60 -324.5t-167 -265.5t-264 -178.5t-340 -65.5zM969 80q159 0 295 56.5t228 154
t144 229t52 279.5q0 147 -52 278.5t-144 229t-228 154.5t-295 57q-160 0 -296.5 -57t-229 -154.5t-144 -228.5t-51.5 -279t51.5 -279.5t144 -229t228.5 -154t297 -56.5zM975 350q-188 0 -306 125t-118 324q0 200 119.5 324t304.5 124q134 0 232.5 -67t142.5 -191l-115 -41
q-31 92 -99.5 141.5t-164.5 49.5q-130 0 -212.5 -95.5t-82.5 -246.5q0 -153 86.5 -244.5t218.5 -91.5q103 0 181 58.5t116 166.5l106 -33q-46 -144 -153.5 -223.5t-255.5 -79.5z" />
    <glyph glyph-name="guillemotleft" unicode="&#xab;" horiz-adv-x="1146" 
d="M604 164h-160l-335 405v9l335 405h160q-72 -85 -117.5 -137.5t-116 -122t-137.5 -121.5v-57q67 -52 137.5 -121.5t116 -122t117.5 -137.5zM1008 164h-158l-336 405v9l336 405h158q-104 -126 -188 -216t-181 -165v-57q97 -75 181 -165t188 -216z" />
    <glyph glyph-name="logicalnot" unicode="&#xac;" horiz-adv-x="1040" 
d="M881 254h-127v315h-602v123h729v-438z" />
    <glyph glyph-name="registered" unicode="&#xae;" horiz-adv-x="1163" 
d="M582 739q-195 0 -322 127.5t-127 321.5q0 192 127 319t322 127q193 0 319.5 -127.5t126.5 -318.5q0 -194 -126.5 -321.5t-319.5 -127.5zM582 817q161 0 264.5 104.5t103.5 266.5q0 159 -103.5 263.5t-264.5 104.5t-266 -104t-105 -264q0 -162 104.5 -266.5t266.5 -104.5z
M504 944h-78v494h180q71 0 120.5 -41t49.5 -113q0 -57 -29.5 -96t-80.5 -53l129 -191h-88l-123 182h-80v-182zM504 1364v-164h98q44 0 68 21t24 61t-26 61t-70 21h-94z" />
    <glyph glyph-name="degree" unicode="&#xb0;" horiz-adv-x="780" 
d="M389 1055q-127 0 -210 84.5t-83 212.5q0 126 83.5 211.5t209.5 85.5t209.5 -85.5t83.5 -211.5q0 -127 -83 -212t-210 -85zM389 1149q83 0 137 58t54 145t-54 144.5t-137 57.5q-80 0 -134 -58t-54 -144q0 -87 53.5 -145t134.5 -58z" />
    <glyph glyph-name="plusminus" unicode="&#xb1;" horiz-adv-x="1048" 
d="M893 782v-118h-307v-211h307v-115h-739v115h307v211h-307v118h307v246h125v-246h307z" />
    <glyph glyph-name="uni00B2" unicode="&#xb2;" horiz-adv-x="643" 
d="M563 803h-479v12q4 64 16.5 108t44.5 82.5t67 66t103 73.5q26 19 41 30.5t38.5 35t35.5 49.5t12 55q0 47 -33 77.5t-87 30.5q-66 0 -108 -45t-42 -118l-102 16q0 110 71.5 180t182.5 70q102 0 169.5 -59t67.5 -152q0 -70 -36 -120t-99 -93q-17 -13 -50.5 -34.5t-51 -34.5
t-39.5 -33t-34.5 -42t-19.5 -49h332v-106z" />
    <glyph glyph-name="uni00B3" unicode="&#xb3;" horiz-adv-x="651" 
d="M319 788q-95 0 -166.5 45t-93.5 117l99 49q21 -54 62.5 -84t98.5 -30q60 0 99 32.5t39 88.5q0 55 -41 85.5t-111 30.5h-69v82h73q60 0 96.5 31.5t36.5 81.5t-37 80t-92 30t-91.5 -32t-45.5 -88l-100 22q10 86 79.5 141.5t166.5 55.5q98 0 164.5 -51.5t66.5 -135.5
q0 -57 -31 -103.5t-84 -59.5q59 -12 98 -58t39 -110q0 -89 -69 -154.5t-187 -65.5z" />
    <glyph glyph-name="paragraph" unicode="&#xb6;" horiz-adv-x="1458" 
d="M918 -287h-146v942h-225q-213 0 -344 133.5t-131 346.5q0 98 33.5 181.5t97 146t162 98.5t221.5 36h332v-1884zM1223 -287h-146v1884h146v-1884z" />
    <glyph glyph-name="periodcentered" unicode="&#xb7;" horiz-adv-x="557" 
d="M281 477q-58 0 -99 42t-41 102q0 57 41 97t99 40q57 0 97 -40t40 -97q0 -60 -40 -102t-97 -42z" />
    <glyph glyph-name="uni00B9" unicode="&#xb9;" horiz-adv-x="450" 
d="M315 803h-112v516q-54 -67 -154 -84v113q71 19 114.5 63.5t43.5 99.5h108v-708z" />
    <glyph glyph-name="guillemotright" unicode="&#xbb;" horiz-adv-x="1146" 
d="M633 569l-336 -405h-158q104 126 188 216t181 165v57q-97 75 -181 165t-188 216h158l336 -405v-9zM1038 569l-336 -405h-159q73 88 117.5 138.5t115 120.5t137.5 122v57q-67 52 -137.5 122t-115 120.5t-117.5 138.5h159l336 -405v-9z" />
    <glyph glyph-name="onequarter" unicode="&#xbc;" horiz-adv-x="1349" 
d="M315 803h-112v516q-54 -67 -154 -84v113q71 19 114.5 63.5t43.5 99.5h108v-708zM102 0h-131l1139 1468h123zM1188 -14h-109v157h-346v97l348 454h107v-456h98v-95h-98v-157zM1079 545l-235 -307h235v307z" />
    <glyph glyph-name="onehalf" unicode="&#xbd;" horiz-adv-x="1386" 
d="M315 803h-112v516q-54 -67 -154 -84v113q71 19 114.5 63.5t43.5 99.5h108v-708zM102 0h-131l1139 1468h123zM1307 -14h-480v12q4 64 17 108t45 83t67 66t103 73q26 19 41 30.5t38.5 35t35.5 49.5t12 55q0 47 -33 77.5t-88 30.5q-66 0 -108 -45.5t-42 -118.5l-102 17
q0 110 71.5 180t182.5 70q102 0 170 -59t68 -152q0 -70 -36.5 -120t-99.5 -93q-17 -12 -50.5 -34t-50.5 -35t-39 -33t-34.5 -42t-19.5 -49h332v-106z" />
    <glyph glyph-name="threequarters" unicode="&#xbe;" horiz-adv-x="1550" 
d="M319 788q-95 0 -166.5 45t-93.5 117l99 49q21 -54 62.5 -84t98.5 -30q60 0 99 32.5t39 88.5q0 55 -41 85.5t-111 30.5h-69v82h73q60 0 96.5 31.5t36.5 81.5t-37 80t-92 30t-91.5 -32t-45.5 -88l-100 22q10 86 79.5 141.5t166.5 55.5q98 0 164.5 -51.5t66.5 -135.5
q0 -57 -31 -103.5t-84 -59.5q59 -12 98 -58t39 -110q0 -89 -69 -154.5t-187 -65.5zM303 0h-131l1139 1468h123zM1389 -14h-109v157h-346v97l348 454h107v-456h98v-95h-98v-157zM1280 545l-236 -307h236v307z" />
    <glyph glyph-name="questiondown" unicode="&#xbf;" horiz-adv-x="1071" 
d="M590 934q-46 0 -79.5 33t-33.5 80t32.5 81.5t78.5 34.5q49 0 81.5 -34t32.5 -82q0 -46 -32.5 -79.5t-79.5 -33.5zM535 -481q-122 0 -225.5 48t-169.5 144.5t-66 222.5q0 73 23 139.5t68.5 124.5t88 99.5t104.5 91.5q43 34 63 50.5t50 46.5t43.5 53.5t24 56.5t10.5 70
q0 17 -4 49h139q4 -40 4 -62q0 -47 -12 -88t-28.5 -71t-51.5 -66t-63.5 -60t-81.5 -65q-109 -86 -167.5 -171t-58.5 -187q0 -135 93 -216t225 -81q136 0 232.5 89.5t96.5 239.5q0 18 -4 64l129 -25q7 -35 7 -61q0 -132 -66 -233t-172 -152t-231 -51z" />
    <glyph glyph-name="Agrave" unicode="&#xc0;" horiz-adv-x="1513" 
d="M848 1720h-127l-340 324h207zM184 0h-155l647 1597h162l647 -1597h-156q-143 334 -203 563l-18 19q-231 -25 -338 -25q-149 0 -358 25l-21 -21q-63 -203 -207 -561zM442 688l13 -20q187 24 315 24q134 0 281 -24l14 18q-190 416 -285 768h-49q-100 -359 -289 -766z" />
    <glyph glyph-name="Aacute" unicode="&#xc1;" horiz-adv-x="1513" 
d="M1139 2044l-340 -324h-127l260 324h207zM184 0h-155l647 1597h162l647 -1597h-156q-143 334 -203 563l-18 19q-231 -25 -338 -25q-149 0 -358 25l-21 -21q-63 -203 -207 -561zM442 688l13 -20q187 24 315 24q134 0 281 -24l14 18q-190 416 -285 768h-49
q-100 -359 -289 -766z" />
    <glyph glyph-name="Acircumflex" unicode="&#xc2;" horiz-adv-x="1513" 
d="M528 1720h-127l269 308h172l268 -308h-129q-47 44 -72.5 70t-63 73.5t-65.5 96.5h-47q-28 -49 -66 -96.5t-64.5 -73.5t-74.5 -70zM184 0h-155l647 1597h162l647 -1597h-156q-143 334 -203 563l-18 19q-231 -25 -338 -25q-149 0 -358 25l-21 -21q-63 -203 -207 -561z
M442 688l13 -20q187 24 315 24q134 0 281 -24l14 18q-190 416 -285 768h-49q-100 -359 -289 -766z" />
    <glyph glyph-name="Atilde" unicode="&#xc3;" horiz-adv-x="1513" 
d="M909 1747q-15 0 -28.5 2t-24 4t-22.5 8t-19 9t-19 11.5t-16.5 12t-17.5 14t-17 13.5l-38 32q-22 19 -31 26t-29 16.5t-39 9.5q-48 0 -77 -40t-29 -102h-105q2 110 60.5 180t150.5 70q69 0 150 -67l43 -37q63 -54 108 -54q46 0 72.5 40.5t26.5 103.5h104
q0 -117 -53.5 -184.5t-149.5 -67.5zM184 0h-155l647 1597h162l647 -1597h-156q-143 334 -203 563l-18 19q-231 -25 -338 -25q-149 0 -358 25l-21 -21q-63 -203 -207 -561zM442 688l13 -20q187 24 315 24q134 0 281 -24l14 18q-190 416 -285 768h-49q-100 -359 -289 -766z
" />
    <glyph glyph-name="Adieresis" unicode="&#xc4;" horiz-adv-x="1513" 
d="M557 1784q-46 0 -77 32.5t-31 79.5q0 43 31.5 75t76.5 32t77 -32t32 -75q0 -47 -31.5 -79.5t-77.5 -32.5zM954 1784q-47 0 -77.5 32t-30.5 80q0 44 31 75.5t77 31.5q44 0 75.5 -32t31.5 -75q0 -47 -31.5 -79.5t-75.5 -32.5zM184 0h-155l647 1597h162l647 -1597h-156
q-143 334 -203 563l-18 19q-231 -25 -338 -25q-149 0 -358 25l-21 -21q-63 -203 -207 -561zM442 688l13 -20q187 24 315 24q134 0 281 -24l14 18q-190 416 -285 768h-49q-100 -359 -289 -766z" />
    <glyph glyph-name="Aring" unicode="&#xc5;" horiz-adv-x="1513" 
d="M756 1714q-98 0 -163 63t-65 158q0 94 65 156.5t163 62.5q96 0 160.5 -62t64.5 -157q0 -96 -64.5 -158.5t-160.5 -62.5zM756 1806q57 0 94 35t37 94q0 57 -37 92t-94 35q-59 0 -97 -34.5t-38 -92.5q0 -59 37.5 -94t97.5 -35zM184 0h-155l647 1597h162l647 -1597h-156
q-143 334 -203 563l-18 19q-231 -25 -338 -25q-149 0 -358 25l-21 -21q-63 -203 -207 -561zM442 688l13 -20q187 24 315 24q134 0 281 -24l14 18q-190 416 -285 768h-49q-100 -359 -289 -766z" />
    <glyph glyph-name="AE" unicode="&#xc6;" horiz-adv-x="2115" 
d="M117 0h-160l942 1597h1088v-133q-561 0 -891 33q46 -310 8 -633q307 25 842 25v-137q-547 0 -842 24q36 -329 0 -670q328 33 903 33v-139h-1026q0 371 16 580q-283 -36 -567 0q-101 -225 -313 -580zM502 670q252 33 504 0q-32 363 -13 819h-41q-82 -191 -185 -374
t-265 -445z" />
    <glyph glyph-name="Ccedilla" unicode="&#xc7;" horiz-adv-x="1720" 
d="M926 -35q-48 -67 -109 -123l8 -8q55 27 105 27q79 0 130.5 -46t51.5 -120q0 -83 -65 -135t-164 -52q-74 0 -142.5 30.5t-111.5 80.5l57 59q34 -43 84.5 -67.5t103.5 -24.5q59 0 98.5 30t39.5 77q0 43 -35.5 70.5t-89.5 27.5t-96 -27l-56 54l99 151q-213 18 -378 126.5
t-256 289.5t-91 408q0 149 40.5 281t113.5 232.5t171.5 174t219 111.5t251.5 38q113 0 221 -29.5t203 -85.5t169 -146.5t112 -205.5l-133 -53q-71 180 -225 281.5t-345 101.5q-130 0 -246.5 -48.5t-204.5 -136.5t-140 -222t-52 -295q0 -169 57 -303.5t152 -217t212 -125.5
t245 -43q121 0 225 38.5t178.5 106t126 153t80.5 186.5l131 -47q-38 -125 -103.5 -227t-157 -180t-215.5 -122t-269 -45z" />
    <glyph glyph-name="Egrave" unicode="&#xc8;" horiz-adv-x="1347" 
d="M780 1720h-127l-340 324h207zM1241 0h-1026v1597h1006v-133q-39 0 -160 -0.5t-179.5 0t-158.5 2.5t-187.5 8t-175.5 15l-22 -19q36 -290 2 -587l18 -23q297 29 822 29v-137q-186 0 -276 1t-249.5 8t-296.5 21l-18 -22q34 -319 -2 -629l22 -22q146 14 316.5 21t267.5 8
t297 1v-139z" />
    <glyph glyph-name="Eacute" unicode="&#xc9;" horiz-adv-x="1347" 
d="M1071 2044l-340 -324h-127l260 324h207zM1241 0h-1026v1597h1006v-133q-39 0 -160 -0.5t-179.5 0t-158.5 2.5t-187.5 8t-175.5 15l-22 -19q36 -290 2 -587l18 -23q297 29 822 29v-137q-186 0 -276 1t-249.5 8t-296.5 21l-18 -22q34 -319 -2 -629l22 -22q146 14 316.5 21
t267.5 8t297 1v-139z" />
    <glyph glyph-name="Ecircumflex" unicode="&#xca;" horiz-adv-x="1347" 
d="M461 1720h-127l268 308h172l268 -308h-129q-45 43 -71.5 70t-63.5 73.5t-65 96.5h-47q-28 -49 -66 -96.5t-64.5 -73.5t-74.5 -70zM1241 0h-1026v1597h1006v-133q-39 0 -160 -0.5t-179.5 0t-158.5 2.5t-187.5 8t-175.5 15l-22 -19q36 -290 2 -587l18 -23q297 29 822 29
v-137q-186 0 -276 1t-249.5 8t-296.5 21l-18 -22q34 -319 -2 -629l22 -22q146 14 316.5 21t267.5 8t297 1v-139z" />
    <glyph glyph-name="Edieresis" unicode="&#xcb;" horiz-adv-x="1347" 
d="M489 1784q-46 0 -77 32.5t-31 79.5q0 43 31.5 75t76.5 32t77 -32t32 -75q0 -47 -31.5 -79.5t-77.5 -32.5zM887 1784q-47 0 -78 32t-31 80q0 44 31.5 75.5t77.5 31.5q44 0 75 -32t31 -75q0 -47 -31 -79.5t-75 -32.5zM1241 0h-1026v1597h1006v-133q-39 0 -160 -0.5
t-179.5 0t-158.5 2.5t-187.5 8t-175.5 15l-22 -19q36 -290 2 -587l18 -23q297 29 822 29v-137q-186 0 -276 1t-249.5 8t-296.5 21l-18 -22q34 -319 -2 -629l22 -22q146 14 316.5 21t267.5 8t297 1v-139z" />
    <glyph glyph-name="Igrave" unicode="&#xcc;" horiz-adv-x="577" 
d="M381 1720h-127l-340 324h207zM362 0h-147v1597h147v-1597z" />
    <glyph glyph-name="Iacute" unicode="&#xcd;" horiz-adv-x="577" 
d="M672 2044l-340 -324h-127l260 324h207zM362 0h-147v1597h147v-1597z" />
    <glyph glyph-name="Icircumflex" unicode="&#xce;" horiz-adv-x="577" 
d="M61 1720h-127l269 308h172l268 -308h-129q-47 44 -72.5 70t-63 73.5t-65.5 96.5h-47q-28 -49 -66 -96.5t-64.5 -73.5t-74.5 -70zM362 0h-147v1597h147v-1597z" />
    <glyph glyph-name="Idieresis" unicode="&#xcf;" horiz-adv-x="577" 
d="M90 1784q-46 0 -77 32.5t-31 79.5q0 43 31.5 75t76.5 32t77 -32t32 -75q0 -47 -31.5 -79.5t-77.5 -32.5zM487 1784q-47 0 -77.5 32t-30.5 80q0 44 31 75.5t77 31.5q44 0 75.5 -32t31.5 -75q0 -47 -31.5 -79.5t-75.5 -32.5zM362 0h-147v1597h147v-1597z" />
    <glyph glyph-name="Eth" unicode="&#xd0;" horiz-adv-x="1648" 
d="M215 1597h563q156 0 283 -40.5t214.5 -112t146.5 -171.5t86.5 -216t27.5 -248q0 -238 -87 -420t-255.5 -285.5t-396.5 -103.5h-582v737h-172v121h172v739zM805 133q265 0 421 178t156 486q0 317 -169.5 492t-467.5 175q-246 0 -385 25l-22 -19q22 -322 22 -612h535v-121
h-535q-3 -335 -22 -606l22 -22q152 24 445 24z" />
    <glyph glyph-name="Ntilde" unicode="&#xd1;" horiz-adv-x="1689" 
d="M979 1796q-15 0 -28.5 2t-24 4t-22.5 8t-19 9t-19 11.5t-16.5 12t-17.5 14t-17 13.5l-39 33q-21 18 -30.5 25.5t-29 16.5t-38.5 9q-49 0 -78 -40.5t-29 -101.5h-104q2 110 60.5 180t150.5 70q41 0 75 -17t74 -50l43 -37q62 -53 109 -53q46 0 72 40t26 103h105
q0 -117 -53.5 -184.5t-149.5 -67.5zM362 0h-147v1597h135q513 -681 983 -1394h25q-15 225 -22.5 499t-8 414t-0.5 481h148v-1597h-136q-584 773 -981 1372h-24q7 -100 12 -199t8 -208.5t5 -187.5t2.5 -203.5t0.5 -184.5v-201.5v-187.5z" />
    <glyph glyph-name="Ograve" unicode="&#xd2;" horiz-adv-x="1816" 
d="M999 1720h-127l-340 324h207zM907 -35q-162 0 -309.5 63t-255.5 172t-172 264.5t-64 332.5t63.5 332.5t172 265t256 172.5t311.5 63q166 0 315 -65t255.5 -176t168.5 -265.5t62 -326.5q0 -174 -63 -329t-170.5 -265t-256 -174t-313.5 -64zM911 102q128 0 245 53
t204.5 144t139.5 221t52 277t-51.5 277.5t-139 221.5t-205 144t-245.5 53q-129 0 -247.5 -52.5t-206.5 -143.5t-140.5 -221.5t-52.5 -278.5t52.5 -278t140.5 -221t206.5 -143.5t247.5 -52.5z" />
    <glyph glyph-name="Oacute" unicode="&#xd3;" horiz-adv-x="1816" 
d="M1288 2044l-340 -324h-127l260 324h207zM907 -35q-162 0 -309.5 63t-255.5 172t-172 264.5t-64 332.5t63.5 332.5t172 265t256 172.5t311.5 63q166 0 315 -65t255.5 -176t168.5 -265.5t62 -326.5q0 -174 -63 -329t-170.5 -265t-256 -174t-313.5 -64zM911 102
q128 0 245 53t204.5 144t139.5 221t52 277t-51.5 277.5t-139 221.5t-205 144t-245.5 53q-129 0 -247.5 -52.5t-206.5 -143.5t-140.5 -221.5t-52.5 -278.5t52.5 -278t140.5 -221t206.5 -143.5t247.5 -52.5z" />
    <glyph glyph-name="Ocircumflex" unicode="&#xd4;" horiz-adv-x="1816" 
d="M680 1720h-127l268 308h172l269 -308h-129q-47 44 -72.5 70t-63 73.5t-65.5 96.5h-47q-28 -49 -66 -96.5t-64.5 -73.5t-74.5 -70zM907 -35q-162 0 -309.5 63t-255.5 172t-172 264.5t-64 332.5t63.5 332.5t172 265t256 172.5t311.5 63q166 0 315 -65t255.5 -176
t168.5 -265.5t62 -326.5q0 -174 -63 -329t-170.5 -265t-256 -174t-313.5 -64zM911 102q128 0 245 53t204.5 144t139.5 221t52 277t-51.5 277.5t-139 221.5t-205 144t-245.5 53q-129 0 -247.5 -52.5t-206.5 -143.5t-140.5 -221.5t-52.5 -278.5t52.5 -278t140.5 -221
t206.5 -143.5t247.5 -52.5z" />
    <glyph glyph-name="Otilde" unicode="&#xd5;" horiz-adv-x="1816" 
d="M1061 1796q-15 0 -28.5 2t-24 4t-22.5 8t-19 9t-19 11.5t-16.5 12t-17.5 14t-17 13.5l-39 33q-21 18 -30.5 25.5t-29 16.5t-38.5 9q-49 0 -78 -40.5t-29 -101.5h-104q2 110 60.5 180t150.5 70q41 0 75 -17t74 -50l43 -37q62 -53 109 -53q46 0 72 40t26 103h105
q0 -117 -53.5 -184.5t-149.5 -67.5zM907 -35q-162 0 -309.5 63t-255.5 172t-172 264.5t-64 332.5t63.5 332.5t172 265t256 172.5t311.5 63q166 0 315 -65t255.5 -176t168.5 -265.5t62 -326.5q0 -174 -63 -329t-170.5 -265t-256 -174t-313.5 -64zM911 102q128 0 245 53
t204.5 144t139.5 221t52 277t-51.5 277.5t-139 221.5t-205 144t-245.5 53q-129 0 -247.5 -52.5t-206.5 -143.5t-140.5 -221.5t-52.5 -278.5t52.5 -278t140.5 -221t206.5 -143.5t247.5 -52.5z" />
    <glyph glyph-name="Odieresis" unicode="&#xd6;" horiz-adv-x="1816" 
d="M709 1784q-46 0 -77.5 32.5t-31.5 79.5q0 43 32 75t77 32t76.5 -32t31.5 -75q0 -47 -31 -79.5t-77 -32.5zM1106 1784q-47 0 -78 32t-31 80q0 44 31.5 75.5t77.5 31.5q44 0 75 -32t31 -75q0 -47 -31 -79.5t-75 -32.5zM907 -35q-162 0 -309.5 63t-255.5 172t-172 264.5
t-64 332.5t63.5 332.5t172 265t256 172.5t311.5 63q166 0 315 -65t255.5 -176t168.5 -265.5t62 -326.5q0 -174 -63 -329t-170.5 -265t-256 -174t-313.5 -64zM911 102q128 0 245 53t204.5 144t139.5 221t52 277t-51.5 277.5t-139 221.5t-205 144t-245.5 53
q-129 0 -247.5 -52.5t-206.5 -143.5t-140.5 -221.5t-52.5 -278.5t52.5 -278t140.5 -221t206.5 -143.5t247.5 -52.5z" />
    <glyph glyph-name="multiply" unicode="&#xd7;" horiz-adv-x="925" 
d="M379 625l-229 227l86 88l231 -227l221 219l86 -86l-221 -219l227 -230l-88 -88l-227 230l-223 -224l-86 86z" />
    <glyph glyph-name="Oslash" unicode="&#xd8;" horiz-adv-x="1816" 
d="M1575 1661l-152 -221q135 -116 211 -283t76 -360q0 -174 -63 -329t-170.5 -265t-256 -174t-313.5 -64q-226 0 -415 117l-101 -148h-155l153 224q-132 116 -207.5 281t-75.5 358q0 177 63.5 332.5t172 265t256 172.5t311.5 63q225 0 410 -112l98 143h158zM264 797
q0 -154 55.5 -286.5t153.5 -227.5l764 1116q-153 94 -326 94q-129 0 -247.5 -52.5t-206.5 -143.5t-140.5 -221.5t-52.5 -278.5zM911 102q128 0 245 53t204.5 144t139.5 221t52 277q0 156 -56.5 289.5t-156.5 230.5l-766 -1114q153 -101 338 -101z" />
    <glyph glyph-name="Ugrave" unicode="&#xd9;" horiz-adv-x="1540" 
d="M862 1720h-127l-340 324h207zM764 -35q-276 0 -421.5 159.5t-145.5 455.5v1017h145v-1009q0 -249 112 -368.5t316 -119.5q205 0 316.5 119.5t111.5 368.5v1009h145v-1017q0 -133 -33 -242.5t-101 -194t-181.5 -131.5t-263.5 -47z" />
    <glyph glyph-name="Uacute" unicode="&#xda;" horiz-adv-x="1540" 
d="M1102 2044l-340 -324h-127l260 324h207zM764 -35q-276 0 -421.5 159.5t-145.5 455.5v1017h145v-1009q0 -249 112 -368.5t316 -119.5q205 0 316.5 119.5t111.5 368.5v1009h145v-1017q0 -133 -33 -242.5t-101 -194t-181.5 -131.5t-263.5 -47z" />
    <glyph glyph-name="Ucircumflex" unicode="&#xdb;" horiz-adv-x="1540" 
d="M543 1720h-127l268 308h172l268 -308h-129q-45 43 -71.5 70t-63.5 73.5t-65 96.5h-47q-28 -49 -66 -96.5t-64.5 -73.5t-74.5 -70zM764 -35q-276 0 -421.5 159.5t-145.5 455.5v1017h145v-1009q0 -249 112 -368.5t316 -119.5q205 0 316.5 119.5t111.5 368.5v1009h145v-1017
q0 -133 -33 -242.5t-101 -194t-181.5 -131.5t-263.5 -47z" />
    <glyph glyph-name="Udieresis" unicode="&#xdc;" horiz-adv-x="1540" 
d="M571 1784q-46 0 -77 32.5t-31 79.5q0 43 31.5 75t76.5 32t77 -32t32 -75q0 -47 -31.5 -79.5t-77.5 -32.5zM969 1784q-47 0 -78 32t-31 80q0 44 31.5 75.5t77.5 31.5q44 0 75 -32t31 -75q0 -47 -31 -79.5t-75 -32.5zM764 -35q-276 0 -421.5 159.5t-145.5 455.5v1017h145
v-1009q0 -249 112 -368.5t316 -119.5q205 0 316.5 119.5t111.5 368.5v1009h145v-1017q0 -133 -33 -242.5t-101 -194t-181.5 -131.5t-263.5 -47z" />
    <glyph glyph-name="Yacute" unicode="&#xdd;" horiz-adv-x="1413" 
d="M1081 2044l-340 -324h-127l260 324h207zM778 0h-145q0 389 12 586q-233 371 -606 1011h160q324 -555 495 -903h25q23 47 48.5 97t46.5 91t51.5 96t48 87.5t52 93.5t48.5 85.5t53 91.5t49 84.5t53 91t50 85.5h155q-417 -708 -606 -1011q10 -195 10 -586z" />
    <glyph glyph-name="Thorn" unicode="&#xde;" horiz-adv-x="1396" 
d="M362 0h-147v1597h147q0 -102 -18 -282h432q146 0 263.5 -54t189 -163t71.5 -256q0 -117 -41.5 -212t-111 -154t-156.5 -90.5t-182 -31.5q-117 0 -174.5 1.5t-139 11t-153.5 28.5q20 -220 20 -395zM340 481l20 -22q67 13 146.5 20t123.5 7.5t134 0.5q176 0 279.5 90.5
t103.5 256.5q0 164 -109.5 256t-287.5 92q-257 0 -390 24l-22 -18q35 -368 2 -707z" />
    <glyph glyph-name="germandbls" unicode="&#xdf;" horiz-adv-x="1263" 
d="M319 0h-137v1161q0 36 2.5 69.5t13 87.5t28.5 99t53 94.5t82.5 83.5t120.5 56t163 22q112 0 202 -33t149 -91t90.5 -136.5t31.5 -171.5q0 -158 -83.5 -262.5t-223.5 -116.5v-26q166 -11 263 -111.5t97 -261.5q0 -94 -35.5 -177t-101 -147t-168 -101.5t-227.5 -37.5h-147
v121h159q163 0 267 95.5t104 244.5q0 137 -90.5 228t-233.5 91h-100v121h90q127 0 206 87t79 233q0 142 -81.5 234.5t-244.5 92.5q-82 0 -144.5 -27t-96.5 -65.5t-54.5 -91t-26.5 -93.5t-6 -83v-1188z" />
    <glyph glyph-name="agrave" unicode="&#xe0;" horiz-adv-x="1173" 
d="M664 1278h-121l-312 391h189zM455 -35q-154 0 -256.5 76.5t-102.5 218.5q0 77 32.5 137t92 100t127.5 65.5t156 43.5q28 6 74.5 14.5t70.5 13.5t59.5 13.5t53.5 16.5t41 21.5t33.5 28.5t18 36.5t7.5 48.5q0 99 -80.5 172t-206.5 73q-112 0 -192.5 -63.5t-114.5 -173.5
l-133 47q33 104 105.5 175.5t160 102.5t185.5 31q80 0 152.5 -22t133.5 -65.5t97.5 -118t36.5 -171.5v-432q0 -132 8.5 -206.5t27.5 -147.5h-139q-17 69 -20 117.5t12 144.5h-23q-56 -140 -161 -218.5t-256 -78.5zM475 78q86 0 162 37t124 93.5t75.5 121.5t27.5 123v170
q-46 -48 -98 -69t-170 -44q-43 -8 -72.5 -15t-75.5 -20.5t-77 -31.5t-62 -43t-47 -59.5t-16 -76.5q0 -86 63 -136t166 -50z" />
    <glyph glyph-name="aacute" unicode="&#xe1;" horiz-adv-x="1173" 
d="M961 1669l-312 -391h-123l246 391h189zM455 -35q-154 0 -256.5 76.5t-102.5 218.5q0 77 32.5 137t92 100t127.5 65.5t156 43.5q28 6 74.5 14.5t70.5 13.5t59.5 13.5t53.5 16.5t41 21.5t33.5 28.5t18 36.5t7.5 48.5q0 99 -80.5 172t-206.5 73q-112 0 -192.5 -63.5
t-114.5 -173.5l-133 47q33 104 105.5 175.5t160 102.5t185.5 31q80 0 152.5 -22t133.5 -65.5t97.5 -118t36.5 -171.5v-432q0 -132 8.5 -206.5t27.5 -147.5h-139q-17 69 -20 117.5t12 144.5h-23q-56 -140 -161 -218.5t-256 -78.5zM475 78q86 0 162 37t124 93.5t75.5 121.5
t27.5 123v170q-46 -48 -98 -69t-170 -44q-43 -8 -72.5 -15t-75.5 -20.5t-77 -31.5t-62 -43t-47 -59.5t-16 -76.5q0 -86 63 -136t166 -50z" />
    <glyph glyph-name="acircumflex" unicode="&#xe2;" horiz-adv-x="1173" 
d="M342 1278h-131l295 358h180l297 -358h-131q-60 61 -86.5 89t-70.5 83t-72 104h-50q-31 -50 -73.5 -102.5t-73.5 -86t-84 -87.5zM455 -35q-154 0 -256.5 76.5t-102.5 218.5q0 77 32.5 137t92 100t127.5 65.5t156 43.5q28 6 74.5 14.5t70.5 13.5t59.5 13.5t53.5 16.5
t41 21.5t33.5 28.5t18 36.5t7.5 48.5q0 99 -80.5 172t-206.5 73q-112 0 -192.5 -63.5t-114.5 -173.5l-133 47q33 104 105.5 175.5t160 102.5t185.5 31q80 0 152.5 -22t133.5 -65.5t97.5 -118t36.5 -171.5v-432q0 -132 8.5 -206.5t27.5 -147.5h-139q-17 69 -20 117.5
t12 144.5h-23q-56 -140 -161 -218.5t-256 -78.5zM475 78q86 0 162 37t124 93.5t75.5 121.5t27.5 123v170q-46 -48 -98 -69t-170 -44q-43 -8 -72.5 -15t-75.5 -20.5t-77 -31.5t-62 -43t-47 -59.5t-16 -76.5q0 -86 63 -136t166 -50z" />
    <glyph glyph-name="atilde" unicode="&#xe3;" horiz-adv-x="1173" 
d="M752 1329q-15 0 -28.5 2t-24 4t-22.5 8t-19 9t-19 11.5t-16.5 12t-17.5 14t-17 13.5l-39 33q-21 18 -30.5 25.5t-29 16.5t-38.5 9q-49 0 -78 -40t-29 -101h-104q2 110 60.5 179.5t150.5 69.5q41 0 75 -17t74 -50l43 -37q62 -53 109 -53q46 0 72 40t26 103h104
q0 -117 -53 -184.5t-149 -67.5zM455 -35q-154 0 -256.5 76.5t-102.5 218.5q0 77 32.5 137t92 100t127.5 65.5t156 43.5q28 6 74.5 14.5t70.5 13.5t59.5 13.5t53.5 16.5t41 21.5t33.5 28.5t18 36.5t7.5 48.5q0 99 -80.5 172t-206.5 73q-112 0 -192.5 -63.5t-114.5 -173.5
l-133 47q33 104 105.5 175.5t160 102.5t185.5 31q80 0 152.5 -22t133.5 -65.5t97.5 -118t36.5 -171.5v-432q0 -132 8.5 -206.5t27.5 -147.5h-139q-17 69 -20 117.5t12 144.5h-23q-56 -140 -161 -218.5t-256 -78.5zM475 78q86 0 162 37t124 93.5t75.5 121.5t27.5 123v170
q-46 -48 -98 -69t-170 -44q-43 -8 -72.5 -15t-75.5 -20.5t-77 -31.5t-62 -43t-47 -59.5t-16 -76.5q0 -86 63 -136t166 -50z" />
    <glyph glyph-name="adieresis" unicode="&#xe4;" horiz-adv-x="1173" 
d="M418 1370q-44 0 -75.5 32.5t-31.5 76.5q0 42 31.5 73t75.5 31t74 -31t30 -73q0 -45 -30 -77t-74 -32zM776 1370q-46 0 -76 32t-30 77q0 42 30 73t76 31q42 0 73.5 -31.5t31.5 -72.5q0 -44 -31 -76.5t-74 -32.5zM455 -35q-154 0 -256.5 76.5t-102.5 218.5q0 77 32.5 137
t92 100t127.5 65.5t156 43.5q28 6 74.5 14.5t70.5 13.5t59.5 13.5t53.5 16.5t41 21.5t33.5 28.5t18 36.5t7.5 48.5q0 99 -80.5 172t-206.5 73q-112 0 -192.5 -63.5t-114.5 -173.5l-133 47q33 104 105.5 175.5t160 102.5t185.5 31q80 0 152.5 -22t133.5 -65.5t97.5 -118
t36.5 -171.5v-432q0 -132 8.5 -206.5t27.5 -147.5h-139q-17 69 -20 117.5t12 144.5h-23q-56 -140 -161 -218.5t-256 -78.5zM475 78q86 0 162 37t124 93.5t75.5 121.5t27.5 123v170q-46 -48 -98 -69t-170 -44q-43 -8 -72.5 -15t-75.5 -20.5t-77 -31.5t-62 -43t-47 -59.5
t-16 -76.5q0 -86 63 -136t166 -50z" />
    <glyph glyph-name="aring" unicode="&#xe5;" horiz-adv-x="1173" 
d="M598 1247q-98 0 -162.5 63t-64.5 158q0 94 64.5 157t162.5 63q96 0 160.5 -62.5t64.5 -157.5q0 -96 -64.5 -158.5t-160.5 -62.5zM598 1339q57 0 94 35t37 94q0 57 -37 92t-94 35q-59 0 -97 -34.5t-38 -92.5q0 -59 37.5 -94t97.5 -35zM455 -35q-154 0 -256.5 76.5
t-102.5 218.5q0 77 32.5 137t92 100t127.5 65.5t156 43.5q28 6 74.5 14.5t70.5 13.5t59.5 13.5t53.5 16.5t41 21.5t33.5 28.5t18 36.5t7.5 48.5q0 99 -80.5 172t-206.5 73q-112 0 -192.5 -63.5t-114.5 -173.5l-133 47q33 104 105.5 175.5t160 102.5t185.5 31q80 0 152.5 -22
t133.5 -65.5t97.5 -118t36.5 -171.5v-432q0 -132 8.5 -206.5t27.5 -147.5h-139q-17 69 -20 117.5t12 144.5h-23q-56 -140 -161 -218.5t-256 -78.5zM475 78q86 0 162 37t124 93.5t75.5 121.5t27.5 123v170q-46 -48 -98 -69t-170 -44q-43 -8 -72.5 -15t-75.5 -20.5t-77 -31.5
t-62 -43t-47 -59.5t-16 -76.5q0 -86 63 -136t166 -50z" />
    <glyph glyph-name="ae" unicode="&#xe6;" horiz-adv-x="2043" 
d="M457 -35q-161 0 -261 76.5t-100 218.5q0 78 32.5 138.5t92.5 100.5t128 64.5t157 42.5q26 5 71.5 13.5t68.5 13t59 13t54.5 16.5t42 21.5t35 29t19.5 37.5t8 49q0 98 -80 171.5t-206 73.5q-112 0 -193.5 -64t-114.5 -173l-133 47q33 103 105.5 174.5t160 103t185.5 31.5
q84 0 158 -23.5t139 -84t92 -152.5q70 128 184 194t260 66q70 0 137 -14.5t138 -54.5t123.5 -101t86 -163t33.5 -232v-53h-929q3 -203 120 -330t297 -127q142 0 246 80.5t154 208.5l127 -45q-64 -173 -205.5 -270t-325.5 -97q-112 0 -206 35t-167.5 115t-105.5 198h-24
q-48 -156 -174 -252t-289 -96zM1016 657h776q-3 104 -37.5 181.5t-90 120t-117.5 63t-130 20.5q-160 0 -268 -106t-133 -279zM483 78q80 0 153.5 37.5t122 94t77 121.5t28.5 122v170q-41 -46 -100.5 -69.5t-161.5 -39.5q-356 -56 -356 -248q0 -87 65 -137.5t172 -50.5z" />
    <glyph glyph-name="ccedilla" unicode="&#xe7;" horiz-adv-x="1245" 
d="M682 -35q-54 -71 -111 -123l9 -8q56 27 104 27q79 0 130.5 -46t51.5 -120q0 -83 -65 -135t-164 -52q-74 0 -142.5 30.5t-111.5 80.5l57 59q34 -42 85 -67t104 -25q59 0 98 30t39 77q0 43 -35.5 70.5t-89.5 27.5t-96 -27l-56 54l99 151q-222 23 -358 185t-136 409
q0 267 157 433.5t406 166.5q105 0 196 -31.5t170 -105.5t122 -184l-133 -51q-43 117 -138 181t-223 64q-185 0 -297 -134t-112 -339q0 -211 117 -341t303 -130q145 0 248.5 80.5t156.5 212.5l125 -45q-63 -175 -198 -272t-312 -103z" />
    <glyph glyph-name="egrave" unicode="&#xe8;" horiz-adv-x="1269" 
d="M705 1278h-121l-312 391h189zM651 -35q-119 0 -221.5 43.5t-176.5 121t-116.5 189.5t-42.5 244q0 173 70.5 310t197.5 213.5t287 76.5q69 0 135.5 -14.5t137.5 -54.5t123.5 -101t86 -163t33.5 -232v-70h-925q3 -203 118.5 -321.5t298.5 -118.5q142 0 245 80.5t153 208.5
l125 -45q-63 -172 -204 -269.5t-325 -97.5zM246 655h772q-1 83 -23.5 150t-59 110.5t-85.5 72.5t-100 41.5t-105 12.5q-160 0 -267.5 -107t-131.5 -280z" />
    <glyph glyph-name="eacute" unicode="&#xe9;" horiz-adv-x="1269" 
d="M1004 1669l-312 -391h-123l246 391h189zM651 -35q-119 0 -221.5 43.5t-176.5 121t-116.5 189.5t-42.5 244q0 173 70.5 310t197.5 213.5t287 76.5q69 0 135.5 -14.5t137.5 -54.5t123.5 -101t86 -163t33.5 -232v-70h-925q3 -203 118.5 -321.5t298.5 -118.5q142 0 245 80.5
t153 208.5l125 -45q-63 -172 -204 -269.5t-325 -97.5zM246 655h772q-1 83 -23.5 150t-59 110.5t-85.5 72.5t-100 41.5t-105 12.5q-160 0 -267.5 -107t-131.5 -280z" />
    <glyph glyph-name="ecircumflex" unicode="&#xea;" horiz-adv-x="1269" 
d="M383 1278h-131l295 358h180l297 -358h-131q-60 61 -86.5 89t-70.5 83t-72 104h-50q-31 -50 -73.5 -102.5t-73.5 -86t-84 -87.5zM651 -35q-119 0 -221.5 43.5t-176.5 121t-116.5 189.5t-42.5 244q0 173 70.5 310t197.5 213.5t287 76.5q69 0 135.5 -14.5t137.5 -54.5
t123.5 -101t86 -163t33.5 -232v-70h-925q3 -203 118.5 -321.5t298.5 -118.5q142 0 245 80.5t153 208.5l125 -45q-63 -172 -204 -269.5t-325 -97.5zM246 655h772q-1 83 -23.5 150t-59 110.5t-85.5 72.5t-100 41.5t-105 12.5q-160 0 -267.5 -107t-131.5 -280z" />
    <glyph glyph-name="edieresis" unicode="&#xeb;" horiz-adv-x="1269" 
d="M461 1370q-44 0 -75.5 32.5t-31.5 76.5q0 42 31.5 73t75.5 31t74 -31t30 -73q0 -45 -30 -77t-74 -32zM819 1370q-46 0 -76 32t-30 77q0 42 30 73t76 31q43 0 74 -31.5t31 -72.5q0 -44 -31 -76.5t-74 -32.5zM651 -35q-119 0 -221.5 43.5t-176.5 121t-116.5 189.5
t-42.5 244q0 173 70.5 310t197.5 213.5t287 76.5q69 0 135.5 -14.5t137.5 -54.5t123.5 -101t86 -163t33.5 -232v-70h-925q3 -203 118.5 -321.5t298.5 -118.5q142 0 245 80.5t153 208.5l125 -45q-63 -172 -204 -269.5t-325 -97.5zM246 655h772q-1 83 -23.5 150t-59 110.5
t-85.5 72.5t-100 41.5t-105 12.5q-160 0 -267.5 -107t-131.5 -280z" />
    <glyph glyph-name="igrave" unicode="&#xec;" horiz-adv-x="501" 
d="M317 1274h-120l-312 391h189zM319 0h-137v1130h137v-1130z" />
    <glyph glyph-name="iacute" unicode="&#xed;" horiz-adv-x="501" 
d="M616 1665l-311 -391h-123l246 391h188zM319 0h-137v1130h137v-1130z" />
    <glyph glyph-name="icircumflex" unicode="&#xee;" horiz-adv-x="501" 
d="M-4 1274h-131l295 358h180l297 -358h-131q-63 65 -87 90t-69.5 81t-73.5 105h-49q-31 -50 -73.5 -102.5t-73.5 -86t-84 -87.5zM319 0h-137v1130h137v-1130z" />
    <glyph glyph-name="idieresis" unicode="&#xef;" horiz-adv-x="501" 
d="M74 1366q-44 0 -75.5 32.5t-31.5 76.5q0 42 31.5 73t75.5 31t74 -31t30 -73q0 -45 -30 -77t-74 -32zM432 1366q-46 0 -76 32t-30 77q0 42 30 73t76 31q42 0 73.5 -31.5t31.5 -72.5q0 -44 -31 -76.5t-74 -32.5zM319 0h-137v1130h137v-1130z" />
    <glyph glyph-name="eth" unicode="&#xf0;" horiz-adv-x="1325" 
d="M1028 1569l-197 -113q381 -290 381 -794q0 -330 -151.5 -513.5t-407.5 -183.5q-168 0 -297.5 79.5t-196.5 209.5t-67 287q0 121 42.5 227.5t115 180.5t171.5 116.5t210 42.5q132 0 234.5 -61.5t195.5 -198.5h22q-61 180 -152 310t-226 226l-302 -174l-45 80l260 150
q-128 73 -296 131l34 117q228 -71 392 -175l233 136zM649 90q177 0 293.5 125t116.5 322q0 199 -116.5 324.5t-291.5 125.5q-178 0 -294.5 -128.5t-116.5 -319.5q0 -123 50 -225t144.5 -163t214.5 -61z" />
    <glyph glyph-name="ntilde" unicode="&#xf1;" horiz-adv-x="1296" 
d="M799 1329q-15 0 -28.5 2t-24 4t-22.5 8t-19 9t-19 11.5t-16.5 12t-17.5 14t-17 13.5l-39 33q-21 18 -30.5 25.5t-29 16.5t-38.5 9q-49 0 -78 -40t-29 -101h-104q2 110 60.5 179.5t150.5 69.5q41 0 75 -17t74 -50l43 -37q62 -53 109 -53q46 0 72 40t26 103h104
q0 -117 -53 -184.5t-149 -67.5zM319 0h-137v1130h133q0 -52 -0.5 -77t-7 -73t-20.5 -95h24q133 278 408 278q63 0 120 -14t111 -47.5t93.5 -84.5t63 -130t23.5 -178v-709h-137v647q0 199 -87.5 294t-223.5 95q-111 0 -195.5 -60t-126 -151t-41.5 -194v-631z" />
    <glyph glyph-name="ograve" unicode="&#xf2;" horiz-adv-x="1320" 
d="M727 1278h-121l-311 391h188zM662 -35q-251 0 -409.5 167t-158.5 431t159 432t409 168q249 0 406 -168t157 -432t-157 -431t-406 -167zM662 92q185 0 301 131.5t116 339.5t-116 340.5t-301 132.5t-302.5 -132.5t-117.5 -340.5q0 -207 117 -339t303 -132z" />
    <glyph glyph-name="oacute" unicode="&#xf3;" horiz-adv-x="1320" 
d="M1026 1669l-311 -391h-123l246 391h188zM662 -35q-251 0 -409.5 167t-158.5 431t159 432t409 168q249 0 406 -168t157 -432t-157 -431t-406 -167zM662 92q185 0 301 131.5t116 339.5t-116 340.5t-301 132.5t-302.5 -132.5t-117.5 -340.5q0 -207 117 -339t303 -132z" />
    <glyph glyph-name="ocircumflex" unicode="&#xf4;" horiz-adv-x="1320" 
d="M406 1278h-132l295 358h181l297 -358h-132q-60 61 -86.5 89t-70.5 83t-72 104h-49q-31 -50 -73.5 -102.5t-73.5 -86t-84 -87.5zM662 -35q-251 0 -409.5 167t-158.5 431t159 432t409 168q249 0 406 -168t157 -432t-157 -431t-406 -167zM662 92q185 0 301 131.5t116 339.5
t-116 340.5t-301 132.5t-302.5 -132.5t-117.5 -340.5q0 -207 117 -339t303 -132z" />
    <glyph glyph-name="otilde" unicode="&#xf5;" horiz-adv-x="1320" 
d="M817 1329q-15 0 -28.5 2t-24 4t-22.5 8t-19 9t-19 11.5t-16.5 12t-17.5 14t-17 13.5l-39 33q-21 18 -30.5 25.5t-29 16.5t-38.5 9q-48 0 -77 -40t-29 -101h-105q2 110 60.5 179.5t150.5 69.5q69 0 150 -67l43 -37q62 -53 108 -53t72 40t26 103h105q0 -117 -53.5 -184.5
t-149.5 -67.5zM662 -35q-251 0 -409.5 167t-158.5 431t159 432t409 168q249 0 406 -168t157 -432t-157 -431t-406 -167zM662 92q185 0 301 131.5t116 339.5t-116 340.5t-301 132.5t-302.5 -132.5t-117.5 -340.5q0 -207 117 -339t303 -132z" />
    <glyph glyph-name="odieresis" unicode="&#xf6;" horiz-adv-x="1320" 
d="M483 1370q-44 0 -75 32t-31 77q0 42 31 73t75 31t74.5 -31t30.5 -73q0 -45 -30.5 -77t-74.5 -32zM842 1370q-46 0 -76.5 32t-30.5 77q0 42 30.5 73t76.5 31q42 0 73 -31t31 -73q0 -44 -30.5 -76.5t-73.5 -32.5zM662 -35q-251 0 -409.5 167t-158.5 431t159 432t409 168
q249 0 406 -168t157 -432t-157 -431t-406 -167zM662 92q185 0 301 131.5t116 339.5t-116 340.5t-301 132.5t-302.5 -132.5t-117.5 -340.5q0 -207 117 -339t303 -132z" />
    <glyph glyph-name="divide" unicode="&#xf7;" horiz-adv-x="1044" 
d="M526 827q-44 0 -75 32t-31 77q0 44 31 75t75 31t75.5 -31t31.5 -75t-31.5 -76.5t-75.5 -32.5zM893 563h-741v123h741v-123zM526 207q-44 0 -75 32t-31 78q0 43 31 74t75 31t75.5 -31.5t31.5 -75.5t-31.5 -76t-75.5 -32z" />
    <glyph glyph-name="oslash" unicode="&#xf8;" horiz-adv-x="1320" 
d="M1188 1182l-131 -176q80 -80 124 -194t44 -249q0 -264 -157 -431t-406 -167q-176 0 -310 86l-78 -106h-141l131 176q-81 81 -125.5 194.5t-44.5 247.5q0 264 159 432t409 168q174 0 313 -90l80 109h133zM242 563q0 -200 108 -327l543 731q-97 69 -231 69
q-185 0 -302.5 -132.5t-117.5 -340.5zM662 92q185 0 301 131.5t116 339.5q0 200 -106 328l-541 -731q104 -68 230 -68z" />
    <glyph glyph-name="ugrave" unicode="&#xf9;" horiz-adv-x="1277" 
d="M686 1278h-121l-311 391h188zM571 -35q-63 0 -119.5 14.5t-109.5 48.5t-91.5 85t-61.5 130.5t-23 178.5v708h137v-655q0 -104 25.5 -181t70 -119.5t96 -62.5t111.5 -20q82 0 150 36t110.5 94.5t66 128.5t23.5 141v638h138v-776q0 -133 8.5 -207t27.5 -147h-139
q-12 49 -17 80.5t-4 78.5t13 99h-25q-112 -293 -387 -293z" />
    <glyph glyph-name="uacute" unicode="&#xfa;" horiz-adv-x="1277" 
d="M983 1669l-311 -391h-123l246 391h188zM571 -35q-63 0 -119.5 14.5t-109.5 48.5t-91.5 85t-61.5 130.5t-23 178.5v708h137v-655q0 -104 25.5 -181t70 -119.5t96 -62.5t111.5 -20q82 0 150 36t110.5 94.5t66 128.5t23.5 141v638h138v-776q0 -133 8.5 -207t27.5 -147h-139
q-12 49 -17 80.5t-4 78.5t13 99h-25q-112 -293 -387 -293z" />
    <glyph glyph-name="ucircumflex" unicode="&#xfb;" horiz-adv-x="1277" 
d="M365 1278h-132l295 358h181l297 -358h-132q-60 61 -86.5 89t-70.5 83t-72 104h-49q-31 -50 -73.5 -102.5t-73.5 -86t-84 -87.5zM571 -35q-63 0 -119.5 14.5t-109.5 48.5t-91.5 85t-61.5 130.5t-23 178.5v708h137v-655q0 -104 25.5 -181t70 -119.5t96 -62.5t111.5 -20
q82 0 150 36t110.5 94.5t66 128.5t23.5 141v638h138v-776q0 -133 8.5 -207t27.5 -147h-139q-12 49 -17 80.5t-4 78.5t13 99h-25q-112 -293 -387 -293z" />
    <glyph glyph-name="udieresis" unicode="&#xfc;" horiz-adv-x="1277" 
d="M440 1370q-44 0 -75 32t-31 77q0 42 31 73t75 31t74.5 -31t30.5 -73q0 -45 -30.5 -77t-74.5 -32zM799 1370q-46 0 -76.5 32t-30.5 77q0 42 30.5 73t76.5 31q42 0 73 -31t31 -73q0 -44 -30.5 -76.5t-73.5 -32.5zM571 -35q-63 0 -119.5 14.5t-109.5 48.5t-91.5 85
t-61.5 130.5t-23 178.5v708h137v-655q0 -104 25.5 -181t70 -119.5t96 -62.5t111.5 -20q82 0 150 36t110.5 94.5t66 128.5t23.5 141v638h138v-776q0 -133 8.5 -207t27.5 -147h-139q-12 49 -17 80.5t-4 78.5t13 99h-25q-112 -293 -387 -293z" />
    <glyph glyph-name="yacute" unicode="&#xfd;" horiz-adv-x="1116" 
d="M909 1669l-311 -391h-123l246 391h188zM451 -451h-132l170 435l-456 1146h149q211 -518 367 -1013h22q140 451 363 1013h149z" />
    <glyph glyph-name="thorn" unicode="&#xfe;" horiz-adv-x="1370" 
d="M319 -451h-137v2089h137q0 -43 0.5 -144.5t0.5 -159t-1.5 -144t-6 -164.5t-11.5 -156h25q68 149 179 221t249 72q225 0 373.5 -169t148.5 -429q0 -263 -150.5 -431.5t-373.5 -168.5q-138 0 -250 71t-178 212h-23q7 -71 11 -140.5t5.5 -154t2 -127.5t0 -148.5t-0.5 -128.5
zM729 92q173 0 286 134.5t113 338.5t-113.5 337.5t-285.5 133.5t-291 -133.5t-119 -339.5t119.5 -338.5t290.5 -132.5z" />
    <glyph glyph-name="ydieresis" unicode="&#xff;" horiz-adv-x="1116" 
d="M367 1370q-44 0 -75.5 32.5t-31.5 76.5q0 42 31.5 73t75.5 31t74 -31t30 -73q0 -45 -30 -77t-74 -32zM725 1370q-46 0 -76.5 32t-30.5 77q0 42 30.5 73t76.5 31q42 0 73 -31t31 -73q0 -44 -30.5 -76.5t-73.5 -32.5zM451 -451h-132l170 435l-456 1146h149
q211 -518 367 -1013h22q140 451 363 1013h149z" />
    <glyph glyph-name="Amacron" unicode="&#x100;" horiz-adv-x="1513" 
d="M1092 1829h-672v117h672v-117zM184 0h-155l647 1597h162l647 -1597h-156q-143 334 -203 563l-18 19q-231 -25 -338 -25q-149 0 -358 25l-21 -21q-63 -203 -207 -561zM442 688l13 -20q187 24 315 24q134 0 281 -24l14 18q-190 416 -285 768h-49q-100 -359 -289 -766z" />
    <glyph glyph-name="amacron" unicode="&#x101;" horiz-adv-x="1173" 
d="M942 1413h-688v115h688v-115zM455 -35q-154 0 -256.5 76.5t-102.5 218.5q0 77 32.5 137t92 100t127.5 65.5t156 43.5q28 6 74.5 14.5t70.5 13.5t59.5 13.5t53.5 16.5t41 21.5t33.5 28.5t18 36.5t7.5 48.5q0 99 -80.5 172t-206.5 73q-112 0 -192.5 -63.5t-114.5 -173.5
l-133 47q33 104 105.5 175.5t160 102.5t185.5 31q80 0 152.5 -22t133.5 -65.5t97.5 -118t36.5 -171.5v-432q0 -132 8.5 -206.5t27.5 -147.5h-139q-17 69 -20 117.5t12 144.5h-23q-56 -140 -161 -218.5t-256 -78.5zM475 78q86 0 162 37t124 93.5t75.5 121.5t27.5 123v170
q-46 -48 -98 -69t-170 -44q-43 -8 -72.5 -15t-75.5 -20.5t-77 -31.5t-62 -43t-47 -59.5t-16 -76.5q0 -86 63 -136t166 -50z" />
    <glyph glyph-name="Abreve" unicode="&#x102;" horiz-adv-x="1513" 
d="M756 1726q-84 0 -156 29t-118.5 75.5t-73.5 103.5t-29 116h125q5 -82 77 -147.5t175 -65.5t175.5 65.5t78.5 147.5h125q-3 -59 -30.5 -116t-74 -103.5t-118.5 -75.5t-156 -29zM184 0h-155l647 1597h162l647 -1597h-156q-143 334 -203 563l-18 19q-231 -25 -338 -25
q-149 0 -358 25l-21 -21q-63 -203 -207 -561zM442 688l13 -20q187 24 315 24q134 0 281 -24l14 18q-190 416 -285 768h-49q-100 -359 -289 -766z" />
    <glyph glyph-name="abreve" unicode="&#x103;" horiz-adv-x="1173" 
d="M596 1276q-170 0 -269.5 111t-105.5 284h123q4 -128 74.5 -205t179.5 -77q108 0 178 77t74 205h123q-6 -174 -105.5 -284.5t-271.5 -110.5zM455 -35q-154 0 -256.5 76.5t-102.5 218.5q0 77 32.5 137t92 100t127.5 65.5t156 43.5q28 6 74.5 14.5t70.5 13.5t59.5 13.5
t53.5 16.5t41 21.5t33.5 28.5t18 36.5t7.5 48.5q0 99 -80.5 172t-206.5 73q-112 0 -192.5 -63.5t-114.5 -173.5l-133 47q33 104 105.5 175.5t160 102.5t185.5 31q80 0 152.5 -22t133.5 -65.5t97.5 -118t36.5 -171.5v-432q0 -132 8.5 -206.5t27.5 -147.5h-139
q-17 69 -20 117.5t12 144.5h-23q-56 -140 -161 -218.5t-256 -78.5zM475 78q86 0 162 37t124 93.5t75.5 121.5t27.5 123v170q-46 -48 -98 -69t-170 -44q-43 -8 -72.5 -15t-75.5 -20.5t-77 -31.5t-62 -43t-47 -59.5t-16 -76.5q0 -86 63 -136t166 -50z" />
    <glyph glyph-name="Aogonek" unicode="&#x104;" horiz-adv-x="1513" 
d="M1458 -365q39 0 88 15v-99q-55 -14 -100 -14q-117 0 -194.5 62.5t-77.5 171.5q0 137 159 229h-4q-143 334 -203 563l-18 19q-231 -25 -338 -25q-149 0 -358 25l-21 -21q-63 -203 -207 -561h-155l647 1597h162l647 -1597h-29q-176 -83 -176 -209q0 -69 50.5 -112.5
t127.5 -43.5zM1051 668l14 18q-190 416 -285 768h-49q-100 -359 -289 -766l13 -20q187 24 315 24q134 0 281 -24z" />
    <glyph glyph-name="aogonek" unicode="&#x105;" horiz-adv-x="1173" 
d="M1022 -362q42 0 90 14v-101q-55 -14 -102 -14q-114 0 -191.5 63t-77.5 167q0 139 164 233h-2q-17 69 -20 117.5t12 144.5h-23q-56 -140 -161 -218.5t-256 -78.5q-154 0 -256.5 76.5t-102.5 218.5q0 77 32.5 137t92 100t127.5 65.5t156 43.5q28 6 74.5 14.5t70.5 13.5
t59.5 13.5t53.5 16.5t41 21.5t33.5 28.5t18 36.5t7.5 48.5q0 99 -80.5 172t-206.5 73q-112 0 -192.5 -63.5t-114.5 -173.5l-133 47q33 104 105.5 175.5t160 102.5t185.5 31q80 0 152.5 -22t133.5 -65.5t97.5 -118t36.5 -171.5v-432q0 -132 8.5 -206.5t27.5 -147.5h-22
q-172 -84 -172 -209q0 -69 50 -111t124 -42zM864 453v170q-46 -48 -98 -69t-170 -44q-43 -8 -72.5 -15t-75.5 -20.5t-77 -31.5t-62 -43t-47 -59.5t-16 -76.5q0 -86 63 -136t166 -50q86 0 162 37t124 93.5t75.5 121.5t27.5 123z" />
    <glyph glyph-name="Cacute" unicode="&#x106;" horiz-adv-x="1720" 
d="M1251 2044l-340 -324h-127l260 324h207zM915 -35q-234 0 -417.5 105t-286 293.5t-102.5 429.5q0 149 40.5 281t113.5 232.5t171.5 174t219 111.5t251.5 38q113 0 221 -29.5t203 -85.5t169 -146.5t112 -205.5l-133 -53q-71 180 -225 281.5t-345 101.5q-130 0 -246.5 -48.5
t-204.5 -136.5t-140 -222t-52 -295q0 -169 57 -303.5t152 -217t212 -125.5t245 -43q121 0 225 38.5t178.5 106t126 153t80.5 186.5l131 -47q-38 -125 -104.5 -228.5t-159.5 -181.5t-219 -121t-273 -43z" />
    <glyph glyph-name="cacute" unicode="&#x107;" horiz-adv-x="1245" 
d="M987 1669l-311 -391h-123l246 391h188zM657 -35q-248 0 -405.5 166t-157.5 432q0 267 157 433.5t406 166.5q105 0 196 -31.5t170 -105.5t122 -184l-133 -51q-43 117 -138 181t-223 64q-185 0 -297 -134t-112 -339q0 -211 117 -341t303 -130q145 0 248.5 80.5t156.5 212.5
l125 -45q-65 -181 -206.5 -278t-328.5 -97z" />
    <glyph glyph-name="Cdotaccent" unicode="&#x10a;" horiz-adv-x="1720" 
d="M868 1786q-49 0 -81.5 33.5t-32.5 83.5q0 46 32.5 79t81.5 33q47 0 80 -33t33 -79q0 -49 -33 -83t-80 -34zM915 -35q-234 0 -417.5 105t-286 293.5t-102.5 429.5q0 149 40.5 281t113.5 232.5t171.5 174t219 111.5t251.5 38q113 0 221 -29.5t203 -85.5t169 -146.5
t112 -205.5l-133 -53q-71 180 -225 281.5t-345 101.5q-130 0 -246.5 -48.5t-204.5 -136.5t-140 -222t-52 -295q0 -169 57 -303.5t152 -217t212 -125.5t245 -43q121 0 225 38.5t178.5 106t126 153t80.5 186.5l131 -47q-38 -125 -104.5 -228.5t-159.5 -181.5t-219 -121
t-273 -43z" />
    <glyph glyph-name="cdotaccent" unicode="&#x10b;" horiz-adv-x="1245" 
d="M625 1417q-51 0 -84 33.5t-33 83.5q0 47 33.5 80t83.5 33q47 0 79.5 -33.5t32.5 -79.5q0 -49 -32.5 -83t-79.5 -34zM657 -35q-248 0 -405.5 166t-157.5 432q0 267 157 433.5t406 166.5q105 0 196 -31.5t170 -105.5t122 -184l-133 -51q-43 117 -138 181t-223 64
q-185 0 -297 -134t-112 -339q0 -211 117 -341t303 -130q145 0 248.5 80.5t156.5 212.5l125 -45q-65 -181 -206.5 -278t-328.5 -97z" />
    <glyph glyph-name="Ccaron" unicode="&#x10c;" horiz-adv-x="1720" 
d="M954 1720h-174l-266 308h127q4 -4 21 -20t22.5 -21t21 -20t22 -22.5t20.5 -22t21.5 -24t19.5 -24.5t20.5 -28t18 -28.5t18.5 -31.5h47q26 51 65 99.5t61 70.5t75 72h129zM915 -35q-234 0 -417.5 105t-286 293.5t-102.5 429.5q0 149 40.5 281t113.5 232.5t171.5 174
t219 111.5t251.5 38q113 0 221 -29.5t203 -85.5t169 -146.5t112 -205.5l-133 -53q-71 180 -225 281.5t-345 101.5q-130 0 -246.5 -48.5t-204.5 -136.5t-140 -222t-52 -295q0 -169 57 -303.5t152 -217t212 -125.5t245 -43q121 0 225 38.5t178.5 106t126 153t80.5 186.5
l131 -47q-38 -125 -104.5 -228.5t-159.5 -181.5t-219 -121t-273 -43z" />
    <glyph glyph-name="ccaron" unicode="&#x10d;" horiz-adv-x="1245" 
d="M713 1282h-181l-294 363h131q5 -5 24.5 -26t25 -27.5t23.5 -25.5t25.5 -27.5t23 -26.5t24.5 -29t22.5 -28t23.5 -30.5t21.5 -30t21.5 -32.5h39q16 26 36.5 54t35.5 47t42 49.5t38.5 43t43.5 46.5t40 43h131zM657 -35q-248 0 -405.5 166t-157.5 432q0 267 157 433.5
t406 166.5q105 0 196 -31.5t170 -105.5t122 -184l-133 -51q-43 117 -138 181t-223 64q-185 0 -297 -134t-112 -339q0 -211 117 -341t303 -130q145 0 248.5 80.5t156.5 212.5l125 -45q-65 -181 -206.5 -278t-328.5 -97z" />
    <glyph glyph-name="Dcaron" unicode="&#x10e;" horiz-adv-x="1648" 
d="M850 1720h-174l-266 308h127q56 -52 76.5 -72.5t60.5 -69.5t67 -100h47q26 51 65 99.5t61 70.5t75 72h129zM797 0h-582v1597h563q156 0 283 -40.5t214.5 -112t146.5 -171.5t86.5 -216t27.5 -248q0 -238 -87 -420t-255.5 -285.5t-396.5 -103.5zM338 131l22 -22
q152 24 445 24q265 0 421 178t156 486q0 317 -169.5 492t-467.5 175q-246 0 -385 25l-22 -19q46 -668 0 -1339z" />
    <glyph glyph-name="dcaron" unicode="&#x10f;" horiz-adv-x="1372" 
d="M1448 1180h-90q29 56 46 87t49.5 79t68.5 88q-111 21 -111 106q0 46 34 79.5t81 33.5q46 0 79 -32.5t33 -78.5q0 -40 -32 -99t-158 -263zM621 -35q-228 0 -376.5 168t-148.5 430q0 132 41 245t112 190.5t167.5 121t206.5 43.5q140 0 249.5 -75t174.5 -232h24
q-24 304 -20 782h137v-1284q0 -132 8.5 -205.5t28.5 -148.5h-140q-17 70 -20 121.5t10 148.5h-24q-63 -155 -176 -230t-254 -75zM641 92q172 0 292 133.5t120 339.5q0 207 -120 339t-292 132q-173 0 -286 -134.5t-113 -338.5t113.5 -337.5t285.5 -133.5z" />
    <glyph glyph-name="Dcroat" unicode="&#x110;" horiz-adv-x="1648" 
d="M215 1597h563q156 0 283 -40.5t214.5 -112t146.5 -171.5t86.5 -216t27.5 -248q0 -238 -87 -420t-255.5 -285.5t-396.5 -103.5h-582v737h-172v121h172v739zM805 133q265 0 421 178t156 486q0 317 -169.5 492t-467.5 175q-246 0 -385 25l-22 -19q22 -322 22 -612h535v-121
h-535q-3 -335 -22 -606l22 -22q152 24 445 24z" />
    <glyph glyph-name="dcroat" unicode="&#x111;" horiz-adv-x="1372" 
d="M1454 1444v-115h-266v-975q0 -132 8.5 -205.5t28.5 -148.5h-140q-17 70 -20 121.5t10 148.5h-24q-63 -155 -176 -230t-254 -75q-228 0 -376.5 168t-148.5 430q0 132 41 245t112 190.5t167.5 121t206.5 43.5q140 0 249.5 -75t174.5 -232h24q-17 242 -20 473h-287v115h287
v194h137v-194h266zM641 92q172 0 292 133.5t120 339.5q0 207 -120 339t-292 132q-173 0 -286 -134.5t-113 -338.5t113.5 -337.5t285.5 -133.5z" />
    <glyph glyph-name="Emacron" unicode="&#x112;" horiz-adv-x="1347" 
d="M1024 1829h-672v117h672v-117zM1241 0h-1026v1597h1006v-133q-39 0 -160 -0.5t-179.5 0t-158.5 2.5t-187.5 8t-175.5 15l-22 -19q36 -290 2 -587l18 -23q297 29 822 29v-137q-186 0 -276 1t-249.5 8t-296.5 21l-18 -22q34 -319 -2 -629l22 -22q146 14 316.5 21t267.5 8
t297 1v-139z" />
    <glyph glyph-name="emacron" unicode="&#x113;" horiz-adv-x="1269" 
d="M983 1413h-688v115h688v-115zM651 -35q-119 0 -221.5 43.5t-176.5 121t-116.5 189.5t-42.5 244q0 173 70.5 310t197.5 213.5t287 76.5q69 0 135.5 -14.5t137.5 -54.5t123.5 -101t86 -163t33.5 -232v-70h-925q3 -203 118.5 -321.5t298.5 -118.5q142 0 245 80.5t153 208.5
l125 -45q-63 -172 -204 -269.5t-325 -97.5zM246 655h772q-1 83 -23.5 150t-59 110.5t-85.5 72.5t-100 41.5t-105 12.5q-160 0 -267.5 -107t-131.5 -280z" />
    <glyph glyph-name="Edotaccent" unicode="&#x116;" horiz-adv-x="1347" 
d="M688 1786q-49 0 -82 33.5t-33 83.5q0 46 33 79t82 33q47 0 80 -33t33 -79q0 -49 -33 -83t-80 -34zM1241 0h-1026v1597h1006v-133q-39 0 -160 -0.5t-179.5 0t-158.5 2.5t-187.5 8t-175.5 15l-22 -19q36 -290 2 -587l18 -23q297 29 822 29v-137q-186 0 -276 1t-249.5 8
t-296.5 21l-18 -22q34 -319 -2 -629l22 -22q146 14 316.5 21t267.5 8t297 1v-139z" />
    <glyph glyph-name="edotaccent" unicode="&#x117;" horiz-adv-x="1269" 
d="M641 1417q-51 0 -84 33.5t-33 83.5q0 47 33.5 80t83.5 33q47 0 80 -33.5t33 -79.5q0 -49 -33 -83t-80 -34zM651 -35q-119 0 -221.5 43.5t-176.5 121t-116.5 189.5t-42.5 244q0 173 70.5 310t197.5 213.5t287 76.5q69 0 135.5 -14.5t137.5 -54.5t123.5 -101t86 -163
t33.5 -232v-70h-925q3 -203 118.5 -321.5t298.5 -118.5q142 0 245 80.5t153 208.5l125 -45q-63 -172 -204 -269.5t-325 -97.5zM246 655h772q-1 83 -23.5 150t-59 110.5t-85.5 72.5t-100 41.5t-105 12.5q-160 0 -267.5 -107t-131.5 -280z" />
    <glyph glyph-name="Eogonek" unicode="&#x118;" horiz-adv-x="1347" 
d="M1243 -365q39 0 88 15v-99q-55 -14 -100 -14q-117 0 -195 62.5t-78 171.5q0 136 160 229h-903v1597h1006v-133q-39 0 -160 -0.5t-179.5 0t-158.5 2.5t-187.5 8t-175.5 15l-22 -19q36 -290 2 -587l18 -23q297 29 822 29v-137q-186 0 -276 1t-249.5 8t-296.5 21l-18 -22
q34 -319 -2 -629l22 -22q146 14 316.5 21t267.5 8t297 1v-139q-176 -83 -176 -209q0 -69 50.5 -112.5t127.5 -43.5z" />
    <glyph glyph-name="eogonek" unicode="&#x119;" horiz-adv-x="1269" 
d="M850 -2q-168 -83 -168 -207q0 -69 50 -111t124 -42q42 0 90 14v-101q-55 -14 -102 -14q-114 0 -191.5 63t-77.5 167q0 117 113 198h-37q-119 0 -221.5 43.5t-176.5 121t-116.5 189.5t-42.5 244q0 173 70.5 310t197.5 213.5t287 76.5q69 0 135.5 -14.5t137.5 -54.5
t123.5 -101t86 -163t33.5 -232v-70h-925q3 -203 118.5 -321.5t298.5 -118.5q142 0 245 80.5t153 208.5l125 -45q-44 -122 -129.5 -208t-200.5 -126zM645 1042q-160 0 -267.5 -107t-131.5 -280h772q-1 83 -23.5 150t-59 110.5t-85.5 72.5t-100 41.5t-105 12.5z" />
    <glyph glyph-name="Ecaron" unicode="&#x11a;" horiz-adv-x="1347" 
d="M774 1720h-174l-266 308h127q4 -4 21 -20t22.5 -21t21 -20t22 -22.5t20.5 -22t21.5 -24t19.5 -24.5t20.5 -28t18 -28.5t18.5 -31.5h47q27 51 64.5 99t61 71.5t74.5 71.5h129zM1241 0h-1026v1597h1006v-133q-39 0 -160 -0.5t-179.5 0t-158.5 2.5t-187.5 8t-175.5 15
l-22 -19q36 -290 2 -587l18 -23q297 29 822 29v-137q-186 0 -276 1t-249.5 8t-296.5 21l-18 -22q34 -319 -2 -629l22 -22q146 14 316.5 21t267.5 8t297 1v-139z" />
    <glyph glyph-name="ecaron" unicode="&#x11b;" horiz-adv-x="1269" 
d="M727 1282h-180l-295 363h131q5 -5 24.5 -26t25 -27.5t23.5 -25.5t25.5 -27.5t23 -26.5t24.5 -29t22.5 -28t23.5 -30.5t21.5 -30t21.5 -32.5h39q16 26 36.5 54t35.5 47t42 49.5t38.5 43t43.5 46.5t40 43h131zM651 -35q-119 0 -221.5 43.5t-176.5 121t-116.5 189.5
t-42.5 244q0 173 70.5 310t197.5 213.5t287 76.5q69 0 135.5 -14.5t137.5 -54.5t123.5 -101t86 -163t33.5 -232v-70h-925q3 -203 118.5 -321.5t298.5 -118.5q142 0 245 80.5t153 208.5l125 -45q-63 -172 -204 -269.5t-325 -97.5zM246 655h772q-1 83 -23.5 150t-59 110.5
t-85.5 72.5t-100 41.5t-105 12.5q-160 0 -267.5 -107t-131.5 -280z" />
    <glyph glyph-name="Gbreve" unicode="&#x11e;" horiz-adv-x="1798" 
d="M868 1726q-84 0 -155.5 29t-118 75.5t-73.5 103.5t-29 116h124q5 -82 77 -147.5t175 -65.5t175.5 65.5t78.5 147.5h125q-3 -59 -30.5 -116t-74 -103.5t-118.5 -75.5t-156 -29zM899 -35q-171 0 -317.5 61.5t-250.5 170t-163 263t-59 333.5q0 184 62 341.5t169 265.5
t253.5 169t311.5 61q114 0 222 -29.5t203 -86t168.5 -147t111.5 -204.5l-133 -53q-71 180 -225 281.5t-345 101.5q-129 0 -245.5 -48.5t-205 -136t-140.5 -222t-52 -295.5q0 -136 37.5 -251t101.5 -194.5t149 -135.5t179 -82t193 -26q247 0 413.5 158t214.5 420l-14 18
q-300 -45 -580 -45v127h701v-780h-121q0 20 -2.5 109t0.5 150t14 126l-26 4q-83 -208 -240 -316t-385 -108z" />
    <glyph glyph-name="gbreve" unicode="&#x11f;" horiz-adv-x="1368" 
d="M662 1276q-170 0 -269.5 111t-105.5 284h123q4 -128 74.5 -205t179.5 -77q108 0 177.5 77t73.5 205h123q-6 -174 -105.5 -284.5t-270.5 -110.5zM664 -483q-390 0 -510 329l127 45q87 -253 383 -253q63 0 117 13.5t104.5 47.5t85.5 86.5t56.5 136t21.5 191.5q0 107 20 168
h-25q-66 -137 -177.5 -208t-248.5 -71q-151 0 -271 77t-186.5 210t-66.5 297q0 251 150.5 414t373.5 163q135 0 249.5 -83t174.5 -224h25q-14 100 -14 274h133v-991q0 -136 -25.5 -242t-71 -177t-112 -117t-143.5 -66t-170 -20zM639 129q111 0 205.5 59.5t150.5 165.5
t56 234q0 96 -33 180t-88.5 142.5t-131 92t-159.5 33.5q-172 0 -285.5 -129t-113.5 -321q0 -126 52 -231t143.5 -165.5t203.5 -60.5z" />
    <glyph glyph-name="Gdotaccent" unicode="&#x120;" horiz-adv-x="1798" 
d="M868 1786q-49 0 -81.5 33.5t-32.5 83.5q0 46 32.5 79t81.5 33q47 0 80 -33t33 -79q0 -49 -33 -83t-80 -34zM899 -35q-171 0 -317.5 61.5t-250.5 170t-163 263t-59 333.5q0 184 62 341.5t169 265.5t253.5 169t311.5 61q114 0 222 -29.5t203 -86t168.5 -147t111.5 -204.5
l-133 -53q-71 180 -225 281.5t-345 101.5q-129 0 -245.5 -48.5t-205 -136t-140.5 -222t-52 -295.5q0 -136 37.5 -251t101.5 -194.5t149 -135.5t179 -82t193 -26q247 0 413.5 158t214.5 420l-14 18q-300 -45 -580 -45v127h701v-780h-121q0 20 -2.5 109t0.5 150t14 126l-26 4
q-83 -208 -240 -316t-385 -108z" />
    <glyph glyph-name="gdotaccent" unicode="&#x121;" horiz-adv-x="1368" 
d="M666 1417q-51 0 -84 33.5t-33 83.5q0 47 33.5 80t83.5 33q47 0 79.5 -33.5t32.5 -79.5q0 -49 -32.5 -83t-79.5 -34zM664 -483q-390 0 -510 329l127 45q87 -253 383 -253q63 0 117 13.5t104.5 47.5t85.5 86.5t56.5 136t21.5 191.5q0 107 20 168h-25q-66 -137 -177.5 -208
t-248.5 -71q-151 0 -271 77t-186.5 210t-66.5 297q0 251 150.5 414t373.5 163q135 0 249.5 -83t174.5 -224h25q-14 100 -14 274h133v-991q0 -136 -25.5 -242t-71 -177t-112 -117t-143.5 -66t-170 -20zM639 129q111 0 205.5 59.5t150.5 165.5t56 234q0 96 -33 180
t-88.5 142.5t-131 92t-159.5 33.5q-172 0 -285.5 -129t-113.5 -321q0 -126 52 -231t143.5 -165.5t203.5 -60.5z" />
    <glyph glyph-name="uni0122" unicode="&#x122;" horiz-adv-x="1798" 
d="M899 -35q-171 0 -317.5 61.5t-250.5 170t-163 263t-59 333.5q0 184 62 341.5t169 265.5t253.5 169t311.5 61q114 0 222 -29.5t203 -86t168.5 -147t111.5 -204.5l-133 -53q-71 180 -225 281.5t-345 101.5q-129 0 -245.5 -48.5t-205 -136t-140.5 -222t-52 -295.5
q0 -136 37.5 -251t101.5 -194.5t149 -135.5t179 -82t193 -26q247 0 413.5 158t214.5 420l-14 18q-300 -45 -580 -45v127h701v-780h-121q0 20 -2.5 109t0.5 150t14 126l-26 4q-83 -208 -240 -316t-385 -108zM846 -520h-72q70 133 135 205q-63 0 -93 28t-30 70q0 45 31.5 72.5
t79.5 27.5q44 0 75.5 -31t31.5 -75q0 -39 -28.5 -91t-129.5 -206z" />
    <glyph glyph-name="uni0123" unicode="&#x123;" horiz-adv-x="1368" 
d="M532 1362q0 38 29 93t150 255h88q-77 -153 -146 -270q47 6 71 -20t24 -66q0 -45 -31 -72t-74 -27q-49 0 -80 30.5t-31 76.5zM664 -483q-390 0 -510 329l127 45q87 -253 383 -253q63 0 117 13.5t104.5 47.5t85.5 86.5t56.5 136t21.5 191.5q0 107 20 168h-25
q-66 -137 -177.5 -208t-248.5 -71q-151 0 -271 77t-186.5 210t-66.5 297q0 251 150.5 414t373.5 163q135 0 249.5 -83t174.5 -224h25q-14 100 -14 274h133v-991q0 -136 -25.5 -242t-71 -177t-112 -117t-143.5 -66t-170 -20zM639 129q111 0 205.5 59.5t150.5 165.5t56 234
q0 96 -33 180t-88.5 142.5t-131 92t-159.5 33.5q-172 0 -285.5 -129t-113.5 -321q0 -126 52 -231t143.5 -165.5t203.5 -60.5z" />
    <glyph glyph-name="Hbar" unicode="&#x126;" horiz-adv-x="1656" 
d="M1440 1286h139v-117h-139v-1169h-146q0 459 21 745l-21 23q-439 -60 -934 0l-20 -23q22 -249 22 -745h-147v1169h-139v117h139v311h147q0 -207 -2 -311h936q-2 104 -2 311h146v-311zM1296 852l19 22q-10 123 -17 295h-940q-8 -198 -18 -295l20 -22q513 41 936 0z" />
    <glyph glyph-name="hbar" unicode="&#x127;" horiz-adv-x="1296" 
d="M717 1163q63 0 120.5 -14t111.5 -47.5t93.5 -84.5t63.5 -130t24 -178v-709h-137v647q0 199 -87.5 294t-223.5 95q-111 0 -195.5 -60.5t-126 -151.5t-41.5 -193v-631h-137v1327h-190v115h190v196h137q0 -130 -2 -196h365v-115h-367q-10 -249 -28 -442h24q133 278 406 278z
" />
    <glyph glyph-name="Imacron" unicode="&#x12a;" horiz-adv-x="577" 
d="M625 1829h-672v117h672v-117zM362 0h-147v1597h147v-1597z" />
    <glyph glyph-name="imacron" unicode="&#x12b;" horiz-adv-x="501" 
d="M596 1409h-688v115h688v-115zM319 0h-137v1130h137v-1130z" />
    <glyph glyph-name="Iogonek" unicode="&#x12e;" horiz-adv-x="577" 
d="M365 -365q39 0 88 15v-99q-55 -14 -101 -14q-117 0 -194.5 62.5t-77.5 171.5q0 136 160 229h-25v1597h147v-1597q-176 -83 -176 -209q0 -68 51 -112t128 -44z" />
    <glyph glyph-name="iogonek" unicode="&#x12f;" horiz-adv-x="501" 
d="M254 1413q-51 0 -84 33.5t-33 83.5q0 46 33.5 79t83.5 33q47 0 80 -33t33 -79q0 -49 -33 -83t-80 -34zM315 -362q43 0 91 14v-101q-55 -14 -103 -14q-114 0 -191 63t-77 167q0 139 164 233h-17v1130h137v-1130h-6q-172 -84 -172 -209q0 -69 50 -111t124 -42z" />
    <glyph glyph-name="Idotaccent" unicode="&#x130;" horiz-adv-x="577" 
d="M289 1786q-49 0 -82 33.5t-33 83.5q0 46 33 79t82 33q47 0 79.5 -33t32.5 -79q0 -49 -32.5 -83t-79.5 -34zM362 0h-147v1597h147v-1597z" />
    <glyph glyph-name="dotlessi" unicode="&#x131;" horiz-adv-x="501" 
d="M319 0h-137v1130h137v-1130z" />
    <glyph glyph-name="uni0136" unicode="&#x136;" horiz-adv-x="1368" 
d="M362 0h-147v1597h147v-118v-131t-1 -115.5t-3.5 -133.5t-6 -118t-9.5 -137t-14 -127h24q266 305 807 880h176q-14 -15 -78.5 -84.5t-83.5 -90t-77 -82t-85.5 -90t-79.5 -82t-88.5 -89.5t-83.5 -81.5t-91 -86.5v-26q287 -335 706 -885h-178q-376 474 -604 803h-21
q-99 -144 -221 -240q12 -195 12 -563zM688 -520h-72q24 45 37 68t40 62.5t59 74.5q-63 0 -93 28t-30 70q0 45 31 72.5t79 27.5q44 0 75.5 -31t31.5 -75q0 -39 -28.5 -91t-129.5 -206z" />
    <glyph glyph-name="uni0137" unicode="&#x137;" horiz-adv-x="1071" 
d="M322 0h-140v1638h140v-169v-188t-1 -165t-3.5 -191t-6.5 -167.5t-10 -188.5h25q152 176 516 561h170l-443 -444q64 -80 137.5 -176.5t122 -161.5t134.5 -182t122 -166h-159q-30 41 -104.5 143.5t-115 158.5t-102 142.5t-112.5 161.5q-86 -117 -191 -188q21 -150 21 -418z
M522 -520h-71q70 133 135 205q-63 0 -93 28t-30 70q0 45 31 72.5t79 27.5q44 0 75.5 -31t31.5 -75q0 -39 -28.5 -91t-129.5 -206z" />
    <glyph glyph-name="Lacute" unicode="&#x139;" horiz-adv-x="1212" 
d="M719 2044l-340 -324h-127l260 324h207zM1180 0h-965v1597h147q0 -345 -0.5 -504.5t-6 -442.5t-17.5 -519l22 -22q135 14 294.5 21t250 8t275.5 1v-139z" />
    <glyph glyph-name="lacute" unicode="&#x13a;" horiz-adv-x="501" 
d="M668 2085l-340 -324h-127l260 324h207zM319 0h-137v1638h137v-1638z" />
    <glyph glyph-name="uni013B" unicode="&#x13b;" horiz-adv-x="1212" 
d="M1180 0h-965v1597h147q0 -345 -0.5 -504.5t-6 -442.5t-17.5 -519l22 -22q135 14 294.5 21t250 8t275.5 1v-139zM600 -520h-72q24 45 37 68t40 62.5t59 74.5q-63 0 -93 28t-30 70q0 45 31 72.5t79 27.5q44 0 75.5 -31t31.5 -75q0 -39 -28.5 -91t-129.5 -206z" />
    <glyph glyph-name="uni013C" unicode="&#x13c;" horiz-adv-x="501" 
d="M319 0h-137v1638h137v-1638zM209 -520h-72q70 133 135 205q-63 0 -92.5 28t-29.5 70q0 45 31 72.5t79 27.5q44 0 75.5 -31t31.5 -75q0 -39 -28.5 -91t-129.5 -206z" />
    <glyph glyph-name="Lcaron" unicode="&#x13d;" horiz-adv-x="1212" 
d="M881 1165h-90q26 54 43.5 86.5t50 80t69.5 87.5q-112 21 -112 107q0 46 33.5 79t80.5 33t80 -32.5t33 -77.5q0 -41 -33.5 -104t-154.5 -259zM1180 0h-965v1597h147q0 -345 -0.5 -504.5t-6 -442.5t-17.5 -519l22 -22q135 14 294.5 21t250 8t275.5 1v-139z" />
    <glyph glyph-name="lcaron" unicode="&#x13e;" horiz-adv-x="501" 
d="M319 0h-137v1638h137v-1638zM627 1165h-90q30 59 45.5 87.5t48.5 77.5t69 89q-110 21 -110 107q0 46 34 79t81 33q46 0 79 -33t33 -77q0 -40 -32.5 -100.5t-157.5 -262.5z" />
    <glyph glyph-name="Lslash" unicode="&#x141;" horiz-adv-x="1212" 
d="M338 131l22 -22q135 14 294.5 21t250 8t275.5 1v-139h-965v774l-174 -82v127l174 82v696h147q0 -419 -2 -628l302 139v-125l-304 -141q-3 -372 -20 -711z" />
    <glyph glyph-name="lslash" unicode="&#x142;" horiz-adv-x="501" 
d="M319 1034l197 140v-125l-197 -140v-909h-137v811l-198 -141v125l198 141v702h137v-604z" />
    <glyph glyph-name="Nacute" unicode="&#x143;" horiz-adv-x="1689" 
d="M1206 2044l-340 -324h-127l260 324h207zM362 0h-147v1597h135q513 -681 983 -1394h25q-15 225 -22.5 499t-8 414t-0.5 481h148v-1597h-136q-584 773 -981 1372h-24q7 -100 12 -199t8 -208.5t5 -187.5t2.5 -203.5t0.5 -184.5v-201.5v-187.5z" />
    <glyph glyph-name="nacute" unicode="&#x144;" horiz-adv-x="1296" 
d="M1008 1669l-312 -391h-123l246 391h189zM319 0h-137v1130h133q0 -52 -0.5 -77t-7 -73t-20.5 -95h24q133 278 408 278q63 0 120 -14t111 -47.5t93.5 -84.5t63 -130t23.5 -178v-709h-137v647q0 199 -87.5 294t-223.5 95q-111 0 -195.5 -60t-126 -151t-41.5 -194v-631z" />
    <glyph glyph-name="uni0145" unicode="&#x145;" horiz-adv-x="1689" 
d="M362 0h-147v1597h135q513 -681 983 -1394h25q-15 225 -22.5 499t-8 414t-0.5 481h148v-1597h-136q-584 773 -981 1372h-24q7 -100 12 -199t8 -208.5t5 -187.5t2.5 -203.5t0.5 -184.5v-201.5v-187.5zM823 -520h-71q70 133 135 205q-63 0 -93 28t-30 70q0 45 31 72.5
t79 27.5q44 0 75.5 -31t31.5 -75q0 -39 -28.5 -91t-129.5 -206z" />
    <glyph glyph-name="uni0146" unicode="&#x146;" horiz-adv-x="1296" 
d="M319 0h-137v1130h133q0 -52 -0.5 -77t-7 -73t-20.5 -95h24q133 278 408 278q63 0 120 -14t111 -47.5t93.5 -84.5t63 -130t23.5 -178v-709h-137v647q0 199 -87.5 294t-223.5 95q-111 0 -195.5 -60t-126 -151t-41.5 -194v-631zM631 -520h-72q70 133 135 205q-63 0 -93 28
t-30 70q0 45 31.5 72.5t79.5 27.5q44 0 75 -31t31 -75q0 -39 -29 -92.5t-128 -204.5z" />
    <glyph glyph-name="Ncaron" unicode="&#x147;" horiz-adv-x="1689" 
d="M909 1720h-174l-266 308h127q4 -4 21 -20t22.5 -21t21 -20t22 -22.5t20.5 -22t21.5 -24t19.5 -24.5t20.5 -28t18 -28.5t18.5 -31.5h47q26 51 65 99.5t61 70.5t75 72h129zM362 0h-147v1597h135q513 -681 983 -1394h25q-15 225 -22.5 499t-8 414t-0.5 481h148v-1597h-136
q-584 773 -981 1372h-24q7 -100 12 -199t8 -208.5t5 -187.5t2.5 -203.5t0.5 -184.5v-201.5v-187.5z" />
    <glyph glyph-name="ncaron" unicode="&#x148;" horiz-adv-x="1296" 
d="M733 1282h-180l-295 363h131q6 -7 30 -32.5t32.5 -34.5t29.5 -32t31 -35.5t28.5 -34t30.5 -37.5t26.5 -36.5t27.5 -40.5h39q14 23 29 44.5t33.5 45t31.5 39t36.5 41.5t33.5 36.5t37 39.5t34 37h131zM319 0h-137v1130h133q0 -52 -0.5 -77t-7 -73t-20.5 -95h24
q133 278 408 278q63 0 120 -14t111 -47.5t93.5 -84.5t63 -130t23.5 -178v-709h-137v647q0 199 -87.5 294t-223.5 95q-111 0 -195.5 -60t-126 -151t-41.5 -194v-631z" />
    <glyph glyph-name="Eng" unicode="&#x14a;" horiz-adv-x="1689" 
d="M1071 -483q-147 0 -240 55v135q89 -61 209 -61q136 0 211.5 96.5t77.5 267.5q-566 751 -971 1354h-24q7 -98 12 -196t8 -206.5t5 -186t2.5 -203t0.5 -184v-201v-187.5h-147v1597h135q498 -661 983 -1388h25q-15 222 -22.5 495t-8 412.5t-0.5 480.5h148v-1529
q0 -551 -404 -551z" />
    <glyph glyph-name="eng" unicode="&#x14b;" horiz-adv-x="1296" 
d="M813 -483q-125 0 -215 55v129q98 -61 190 -61q33 0 61 8.5t48 21t35.5 34.5t25.5 41t17 49.5t10.5 51t5.5 54t2 50.5v48v649q0 199 -87.5 294t-223.5 95q-111 0 -195.5 -60t-126 -151t-41.5 -194v-631h-137v1130h133q0 -52 -0.5 -77t-7 -73t-20.5 -95h24q133 278 408 278
q63 0 120 -13.5t111 -46.5t93.5 -83t63 -127t23.5 -174v-733q0 -39 -0.5 -61.5t-3 -65.5t-8 -70.5t-16.5 -67.5t-26.5 -65.5t-39.5 -54t-55 -45.5t-74 -28t-94 -11z" />
    <glyph glyph-name="Omacron" unicode="&#x14c;" horiz-adv-x="1816" 
d="M1243 1829h-672v117h672v-117zM907 -35q-162 0 -309.5 63t-255.5 172t-172 264.5t-64 332.5t63.5 332.5t172 265t256 172.5t311.5 63q166 0 315 -65t255.5 -176t168.5 -265.5t62 -326.5q0 -174 -63 -329t-170.5 -265t-256 -174t-313.5 -64zM911 102q128 0 245 53
t204.5 144t139.5 221t52 277t-51.5 277.5t-139 221.5t-205 144t-245.5 53q-129 0 -247.5 -52.5t-206.5 -143.5t-140.5 -221.5t-52.5 -278.5t52.5 -278t140.5 -221t206.5 -143.5t247.5 -52.5z" />
    <glyph glyph-name="omacron" unicode="&#x14d;" horiz-adv-x="1320" 
d="M1006 1413h-689v115h689v-115zM662 -35q-251 0 -409.5 167t-158.5 431t159 432t409 168q249 0 406 -168t157 -432t-157 -431t-406 -167zM662 92q185 0 301 131.5t116 339.5t-116 340.5t-301 132.5t-302.5 -132.5t-117.5 -340.5q0 -207 117 -339t303 -132z" />
    <glyph glyph-name="Ohungarumlaut" unicode="&#x150;" horiz-adv-x="1816" 
d="M1053 2044l-279 -324h-125l213 324h191zM1378 2044l-297 -324h-123l230 324h190zM907 -35q-162 0 -309.5 63t-255.5 172t-172 264.5t-64 332.5t63.5 332.5t172 265t256 172.5t311.5 63q166 0 315 -65t255.5 -176t168.5 -265.5t62 -326.5q0 -174 -63 -329t-170.5 -265
t-256 -174t-313.5 -64zM911 102q128 0 245 53t204.5 144t139.5 221t52 277t-51.5 277.5t-139 221.5t-205 144t-245.5 53q-129 0 -247.5 -52.5t-206.5 -143.5t-140.5 -221.5t-52.5 -278.5t52.5 -278t140.5 -221t206.5 -143.5t247.5 -52.5z" />
    <glyph glyph-name="ohungarumlaut" unicode="&#x151;" horiz-adv-x="1320" 
d="M807 1673l-281 -395h-120l215 395h186zM1135 1673l-297 -395h-121l233 395h185zM662 -35q-251 0 -409.5 167t-158.5 431t159 432t409 168q249 0 406 -168t157 -432t-157 -431t-406 -167zM662 92q185 0 301 131.5t116 339.5t-116 340.5t-301 132.5t-302.5 -132.5
t-117.5 -340.5q0 -207 117 -339t303 -132z" />
    <glyph glyph-name="OE" unicode="&#x152;" horiz-adv-x="2693" 
d="M907 -35q-162 0 -309.5 63t-255.5 172t-172 264.5t-64 332.5t63.5 332.5t171 265t255 172.5t311.5 63q208 0 380.5 -101.5t273.5 -275.5v344h1005v-133q-39 0 -160 -0.5t-179 0t-158 2.5t-187.5 8t-175.5 15l-23 -19q37 -294 3 -587l20 -23q295 29 819 29v-137
q-186 0 -276 1t-248.5 8t-294.5 21l-20 -22q34 -314 -3 -629l23 -22q146 14 316.5 21t267.5 8t297 1v-139h-1026v340q-103 -173 -275.5 -274t-378.5 -101zM909 102q128 0 245 52.5t204.5 143.5t139.5 221t52 278q0 149 -51.5 279.5t-138.5 221.5t-204 143t-245 52
q-130 0 -248.5 -52.5t-206.5 -143.5t-140 -221.5t-52 -278.5t52 -278t139.5 -221t206 -143.5t247.5 -52.5z" />
    <glyph glyph-name="oe" unicode="&#x153;" horiz-adv-x="2254" 
d="M662 -35q-251 0 -409.5 167t-158.5 431t159 432t409 168q166 0 294 -80.5t195 -222.5q65 141 192 222t289 81q71 0 138 -14.5t137.5 -54.5t123 -101t86 -163t33.5 -232v-47h-929q3 -206 120 -334.5t297 -128.5q144 0 248 80.5t154 208.5l125 -45q-63 -172 -204 -269.5
t-325 -97.5q-165 0 -292.5 79.5t-192.5 219.5q-67 -140 -195.5 -219.5t-293.5 -79.5zM1227 657h776q-3 104 -37.5 181.5t-90 120t-117.5 63t-130 20.5q-160 0 -268 -106t-133 -279zM662 92q185 0 301 131.5t116 339.5t-116 340.5t-301 132.5t-302.5 -132.5t-117.5 -340.5
q0 -207 117 -339t303 -132z" />
    <glyph glyph-name="Racute" unicode="&#x154;" horiz-adv-x="1419" 
d="M1040 2044l-340 -324h-127l261 324h206zM362 0h-147v1597h561q108 0 202.5 -31.5t166.5 -90.5t113.5 -150t41.5 -203q0 -199 -120 -317t-318 -133v-25q48 -60 94 -122t101 -141t82.5 -119t95 -141.5t82.5 -123.5h-164l-428 641q-227 0 -387 37q24 -236 24 -678zM340 760
l20 -23q157 27 404 27q176 0 279.5 92t103.5 258q0 164 -110 257t-287 93q-239 0 -390 25l-22 -19q36 -363 2 -710z" />
    <glyph glyph-name="racute" unicode="&#x155;" horiz-adv-x="839" 
d="M831 1669l-311 -391h-123l246 391h188zM319 0h-137v1130h133q0 -16 1 -57.5t1 -67t-4 -69.5t-12 -88h23q42 152 140 233.5t226 81.5q73 0 129 -22v-150q-69 27 -139 27t-130 -27t-102 -72.5t-71.5 -105.5t-43.5 -127t-14 -137v-549z" />
    <glyph glyph-name="uni0156" unicode="&#x156;" horiz-adv-x="1419" 
d="M362 0h-147v1597h561q108 0 202.5 -31.5t166.5 -90.5t113.5 -150t41.5 -203q0 -199 -120 -317t-318 -133v-25q48 -60 94 -122t101 -141t82.5 -119t95 -141.5t82.5 -123.5h-164l-428 641q-227 0 -387 37q24 -236 24 -678zM340 760l20 -23q157 27 404 27q176 0 279.5 92
t103.5 258q0 164 -110 257t-287 93q-239 0 -390 25l-22 -19q36 -363 2 -710zM676 -520h-72q70 133 135 205q-63 0 -93 28t-30 70q0 45 31.5 72.5t79.5 27.5q44 0 75.5 -31t31.5 -75q0 -39 -28.5 -91t-129.5 -206z" />
    <glyph glyph-name="uni0157" unicode="&#x157;" horiz-adv-x="839" 
d="M319 0h-137v1130h133q0 -16 1 -57.5t1 -67t-4 -69.5t-12 -88h23q42 152 140 233.5t226 81.5q73 0 129 -22v-150q-69 27 -139 27t-130 -27t-102 -72.5t-71.5 -105.5t-43.5 -127t-14 -137v-549zM201 -520h-72q70 133 135 205q-63 0 -93 28t-30 70q0 45 31.5 72.5t79.5 27.5
q44 0 75 -31t31 -75q0 -39 -29 -92.5t-128 -204.5z" />
    <glyph glyph-name="Rcaron" unicode="&#x158;" horiz-adv-x="1419" 
d="M743 1720h-174l-266 308h127q4 -4 21 -20t22.5 -21t21 -20t22 -22.5t20.5 -22t21.5 -24t19.5 -24.5t20.5 -28t18 -28.5t18.5 -31.5h47q26 51 65 99.5t61 70.5t75 72h129zM362 0h-147v1597h561q108 0 202.5 -31.5t166.5 -90.5t113.5 -150t41.5 -203q0 -199 -120 -317
t-318 -133v-25q48 -60 94 -122t101 -141t82.5 -119t95 -141.5t82.5 -123.5h-164l-428 641q-227 0 -387 37q24 -236 24 -678zM340 760l20 -23q157 27 404 27q176 0 279.5 92t103.5 258q0 164 -110 257t-287 93q-239 0 -390 25l-22 -19q36 -363 2 -710z" />
    <glyph glyph-name="rcaron" unicode="&#x159;" horiz-adv-x="839" 
d="M557 1282h-180l-295 363h131q6 -7 30 -32.5t32.5 -34.5t29.5 -32t31 -35.5t28.5 -34t30.5 -37.5t26.5 -36.5t27.5 -40.5h38q16 26 36.5 54t35.5 47t42 49.5t38.5 43t43.5 46.5t40 43h131zM319 0h-137v1130h133q0 -16 1 -57.5t1 -67t-4 -69.5t-12 -88h23q42 152 140 233.5
t226 81.5q73 0 129 -22v-150q-69 27 -139 27t-130 -27t-102 -72.5t-71.5 -105.5t-43.5 -127t-14 -137v-549z" />
    <glyph glyph-name="Sacute" unicode="&#x15a;" horiz-adv-x="1320" 
d="M973 2044l-338 -324h-127l260 324h205zM680 -35q-93 0 -181 25t-171 77.5t-148 146.5t-98 220l135 49q49 -186 175 -284.5t292 -98.5q70 0 135.5 18.5t122 54.5t91 98t34.5 141q0 47 -12 85.5t-36 66.5t-50 48.5t-65 37t-69.5 27.5t-74.5 24q-22 7 -33 10l-149 47
q-44 14 -75.5 25t-81 33.5t-85 45t-75.5 58t-65 75t-42 94t-17 115.5q0 103 44.5 186t119 134.5t165.5 78.5t189 27q192 0 335 -100.5t194 -282.5l-131 -53q-45 139 -153 220t-259 81q-149 0 -249.5 -77.5t-100.5 -203.5q0 -44 14.5 -82.5t34 -66.5t53.5 -54.5t59 -41.5
t66.5 -32t59 -23t51.5 -17l155 -51q151 -48 203 -72q184 -85 225 -238q13 -48 13 -104q0 -138 -75.5 -246t-199 -164.5t-270.5 -56.5z" />
    <glyph glyph-name="sacute" unicode="&#x15b;" horiz-adv-x="1013" 
d="M868 1669l-311 -391h-123l246 391h188zM532 -35q-166 0 -292 87t-172 231l129 41q42 -106 137.5 -173t200.5 -67q39 0 80 10.5t82.5 32.5t67.5 64t26 98q0 46 -18.5 80t-57 57t-72.5 35.5t-90 27.5l-109 31q-30 9 -51.5 16t-58 22.5t-62.5 31.5t-56.5 42.5t-49.5 56
t-32 71t-13 88.5q0 77 33 139t87.5 99.5t119.5 57t133 19.5q142 0 252 -78.5t149 -197.5l-133 -45q-30 86 -103.5 144t-177.5 58q-97 0 -159 -50.5t-62 -133.5q0 -41 18 -75.5t42 -56.5t64 -42t68 -30t70 -23l107 -31q35 -10 56.5 -16.5t57.5 -21t59 -29t51 -37.5t44.5 -49
t27.5 -62.5t11 -79.5q0 -147 -113 -244.5t-291 -97.5z" />
    <glyph glyph-name="Scedilla" unicode="&#x15e;" horiz-adv-x="1320" 
d="M715 -35q-47 -61 -111 -123l8 -8q56 27 105 27q79 0 130.5 -46t51.5 -120q0 -83 -65 -135t-164 -52q-74 0 -142.5 30.5t-111.5 80.5l57 59q34 -42 85 -67t104 -25q59 0 98 30t39 77q0 43 -35.5 70.5t-89.5 27.5t-96 -27l-56 54l99 149q-87 8 -166.5 37t-153.5 82.5
t-131.5 142.5t-87.5 205l135 49q49 -186 175 -284.5t292 -98.5q70 0 135.5 18.5t122 54.5t91 98t34.5 141q0 47 -12 85.5t-36 66.5t-50 48.5t-65 37t-69.5 27.5t-74.5 24q-22 7 -33 10l-149 47q-44 14 -75.5 25t-81 33.5t-85 45t-75.5 58t-65 75t-42 94t-17 115.5
q0 103 44.5 186t119 134.5t165.5 78.5t189 27q192 0 335 -100.5t194 -282.5l-131 -53q-45 139 -153 220t-259 81q-149 0 -249.5 -77.5t-100.5 -203.5q0 -44 14.5 -82.5t34 -66.5t53.5 -54.5t59 -41.5t66.5 -32t59 -23t51.5 -17l155 -51q151 -48 203 -72q184 -85 225 -238
q13 -48 13 -104q0 -199 -148 -327.5t-362 -139.5z" />
    <glyph glyph-name="scedilla" unicode="&#x15f;" horiz-adv-x="1013" 
d="M561 -35q-49 -65 -110 -123l8 -8q55 27 104 27q79 0 130.5 -46t51.5 -120q0 -83 -65 -135t-164 -52q-74 0 -142.5 30.5t-111.5 80.5l57 59q34 -42 85 -67t104 -25q59 0 98 30t39 77q0 43 -35.5 70.5t-89.5 27.5t-96 -27l-55 54l98 151q-145 17 -251.5 101t-147.5 213
l129 41q42 -106 137.5 -173t200.5 -67q39 0 80 10.5t82.5 32.5t67.5 64t26 98q0 46 -18.5 80t-57 57t-72.5 35.5t-90 27.5l-109 31q-30 9 -51.5 16t-58 22.5t-62.5 31.5t-56.5 42.5t-49.5 56t-32 71t-13 88.5q0 77 33 139t87.5 99.5t119.5 57t133 19.5q142 0 252 -78.5
t149 -197.5l-133 -45q-30 86 -103.5 144t-177.5 58q-97 0 -159 -50.5t-62 -133.5q0 -41 18 -75.5t42 -56.5t64 -42t68 -30t70 -23l107 -31q35 -10 56.5 -16.5t57.5 -21t59 -29t51 -37.5t44.5 -49t27.5 -62.5t11 -79.5q0 -139 -104.5 -236t-270.5 -106z" />
    <glyph glyph-name="Scaron" unicode="&#x160;" horiz-adv-x="1320" 
d="M739 1720h-174l-266 308h127q4 -4 21 -20t22.5 -21t21 -20t22 -22.5t20.5 -22t21.5 -24t19.5 -24.5t20.5 -28t18 -28.5t18.5 -31.5h47q26 51 65 99.5t61 70.5t75 72h129zM680 -35q-93 0 -181 25t-171 77.5t-148 146.5t-98 220l135 49q49 -186 175 -284.5t292 -98.5
q70 0 135.5 18.5t122 54.5t91 98t34.5 141q0 47 -12 85.5t-36 66.5t-50 48.5t-65 37t-69.5 27.5t-74.5 24q-22 7 -33 10l-149 47q-44 14 -75.5 25t-81 33.5t-85 45t-75.5 58t-65 75t-42 94t-17 115.5q0 103 44.5 186t119 134.5t165.5 78.5t189 27q192 0 335 -100.5
t194 -282.5l-131 -53q-45 139 -153 220t-259 81q-149 0 -249.5 -77.5t-100.5 -203.5q0 -44 14.5 -82.5t34 -66.5t53.5 -54.5t59 -41.5t66.5 -32t59 -23t51.5 -17l155 -51q151 -48 203 -72q184 -85 225 -238q13 -48 13 -104q0 -138 -75.5 -246t-199 -164.5t-270.5 -56.5z" />
    <glyph glyph-name="scaron" unicode="&#x161;" horiz-adv-x="1013" 
d="M592 1282h-180l-295 363h131q5 -5 24.5 -26t25 -27.5t23.5 -25.5t25.5 -27.5t23 -26.5t24.5 -29t22.5 -28t23.5 -30.5t21.5 -30t21.5 -32.5h39q16 26 36.5 54t35.5 47t42 49.5t38.5 43t43.5 46.5t40 43h131zM532 -35q-166 0 -292 87t-172 231l129 41q42 -106 137.5 -173
t200.5 -67q39 0 80 10.5t82.5 32.5t67.5 64t26 98q0 46 -18.5 80t-57 57t-72.5 35.5t-90 27.5l-109 31q-30 9 -51.5 16t-58 22.5t-62.5 31.5t-56.5 42.5t-49.5 56t-32 71t-13 88.5q0 77 33 139t87.5 99.5t119.5 57t133 19.5q142 0 252 -78.5t149 -197.5l-133 -45
q-30 86 -103.5 144t-177.5 58q-97 0 -159 -50.5t-62 -133.5q0 -41 18 -75.5t42 -56.5t64 -42t68 -30t70 -23l107 -31q35 -10 56.5 -16.5t57.5 -21t59 -29t51 -37.5t44.5 -49t27.5 -62.5t11 -79.5q0 -147 -113 -244.5t-291 -97.5z" />
    <glyph glyph-name="uni0162" unicode="&#x162;" horiz-adv-x="1300" 
d="M723 0h-25q-56 -87 -133 -158l8 -8q55 27 105 27q79 0 130.5 -46t51.5 -120q0 -83 -65 -135t-164 -52q-74 0 -142.5 30.5t-111.5 80.5l57 59q34 -42 85 -67t104 -25q59 0 98 30t39 77q0 43 -35.5 70.5t-89.5 27.5t-96 -27l-56 54l119 182h-24q0 997 24 1489
q-207 -25 -571 -25v133h1239v-133q-365 0 -570 25q23 -512 23 -1489z" />
    <glyph glyph-name="uni0163" unicode="&#x163;" horiz-adv-x="782" 
d="M733 1130v-122q-235 0 -368 22q24 -224 24 -651q0 -43 1 -66.5t5 -63.5t14 -63t27 -48t45.5 -36.5t67.5 -11.5q90 0 184 62v-132q-85 -55 -207 -55q-29 0 -41 2q-55 -72 -110 -125l8 -8q55 27 104 27q79 0 131 -46t52 -120q0 -82 -65.5 -134.5t-164.5 -52.5
q-74 0 -142.5 30.5t-111.5 80.5l58 59q34 -43 84.5 -67.5t103.5 -24.5q59 0 98 30t39 77q0 43 -35.5 70.5t-89.5 27.5t-96 -27l-55 54l110 168q-32 13 -57 34.5t-41 43.5t-27 54.5t-16.5 55.5t-8 60t-3 54.5t-0.5 51.5q0 454 24 690q-96 -22 -249 -22v122q153 0 249 -22
q-24 128 -24 358h139q0 -230 -24 -358q133 22 368 22z" />
    <glyph glyph-name="Tcaron" unicode="&#x164;" horiz-adv-x="1300" 
d="M737 1720h-174l-266 308h127q4 -4 21 -20t22.5 -21t21 -20t22 -22.5t20.5 -22t21.5 -24t19.5 -24.5t20.5 -28t18 -28.5t18.5 -31.5h47q26 51 65 99.5t61 70.5t75 72h129zM723 0h-145q0 997 24 1489q-207 -25 -571 -25v133h1239v-133q-365 0 -570 25q23 -512 23 -1489z
" />
    <glyph glyph-name="tcaron" unicode="&#x165;" horiz-adv-x="782" 
d="M881 1169h-90q1 2 12.5 24.5t13.5 26.5t12.5 24t14.5 26t14.5 24t16.5 26.5t16.5 24.5t19.5 26.5t20 24t23 25.5q-110 20 -110 109q0 46 32.5 78t81.5 32q46 0 78.5 -32t32.5 -78q0 -39 -33.5 -102t-154.5 -259zM526 -35q-45 0 -82 9t-64 22.5t-48 36.5t-34.5 44
t-23 52.5t-14 53.5t-7 56.5t-3 52t-0.5 48.5q0 454 24 690q-96 -22 -249 -22v122q153 0 249 -22q-24 128 -24 358h139q0 -230 -24 -358q133 22 368 22v-122q-235 0 -368 22q24 -224 24 -651q0 -43 1 -66.5t5 -63.5t14 -63t27 -48t45.5 -36.5t67.5 -11.5q90 0 184 62v-132
q-85 -55 -207 -55z" />
    <glyph glyph-name="Tbar" unicode="&#x166;" horiz-adv-x="1300" 
d="M1270 1597v-133q-365 0 -570 25q12 -246 19 -631h358v-121h-356q2 -248 2 -737h-145q0 489 4 737h-357v121h357q7 348 20 631q-207 -25 -571 -25v133h1239z" />
    <glyph glyph-name="tbar" unicode="&#x167;" horiz-adv-x="782" 
d="M733 1130v-122q-235 0 -368 22q15 -149 22 -342h332v-115h-330v-194q0 -43 1 -66.5t5 -63.5t14 -63t27 -48t45.5 -36.5t67.5 -11.5q90 0 184 62v-132q-85 -55 -207 -55q-45 0 -82 9t-64 22.5t-48 36.5t-34.5 44t-23 52.5t-14 53.5t-7 56.5t-3 52t-0.5 48.5q0 155 2 233
h-223v115h225q3 175 20 342q-96 -22 -249 -22v122q153 0 249 -22q-24 128 -24 358h139q0 -230 -24 -358q133 22 368 22z" />
    <glyph glyph-name="Umacron" unicode="&#x16a;" horiz-adv-x="1540" 
d="M1106 1829h-672v117h672v-117zM764 -35q-276 0 -421.5 159.5t-145.5 455.5v1017h145v-1009q0 -249 112 -368.5t316 -119.5q205 0 316.5 119.5t111.5 368.5v1009h145v-1017q0 -133 -33 -242.5t-101 -194t-181.5 -131.5t-263.5 -47z" />
    <glyph glyph-name="umacron" unicode="&#x16b;" horiz-adv-x="1277" 
d="M965 1413h-689v115h689v-115zM571 -35q-63 0 -119.5 14.5t-109.5 48.5t-91.5 85t-61.5 130.5t-23 178.5v708h137v-655q0 -104 25.5 -181t70 -119.5t96 -62.5t111.5 -20q82 0 150 36t110.5 94.5t66 128.5t23.5 141v638h138v-776q0 -133 8.5 -207t27.5 -147h-139
q-12 49 -17 80.5t-4 78.5t13 99h-25q-112 -293 -387 -293z" />
    <glyph glyph-name="Uring" unicode="&#x16e;" horiz-adv-x="1540" 
d="M772 1714q-98 0 -162.5 63t-64.5 158q0 94 64.5 156.5t162.5 62.5q96 0 160.5 -62t64.5 -157q0 -96 -64.5 -158.5t-160.5 -62.5zM772 1806q57 0 94 35t37 94q0 57 -37 92t-94 35q-59 0 -97 -34.5t-38 -92.5q0 -59 37.5 -94t97.5 -35zM764 -35q-276 0 -421.5 159.5
t-145.5 455.5v1017h145v-1009q0 -249 112 -368.5t316 -119.5q205 0 316.5 119.5t111.5 368.5v1009h145v-1017q0 -133 -33 -242.5t-101 -194t-181.5 -131.5t-263.5 -47z" />
    <glyph glyph-name="uring" unicode="&#x16f;" horiz-adv-x="1277" 
d="M621 1247q-98 0 -163 63t-65 158q0 94 65 157t163 63q96 0 160.5 -62.5t64.5 -157.5q0 -96 -64.5 -158.5t-160.5 -62.5zM621 1339q57 0 94 35t37 94q0 57 -37 92t-94 35q-59 0 -97.5 -34.5t-38.5 -92.5q0 -59 38 -94t98 -35zM571 -35q-63 0 -119.5 14.5t-109.5 48.5
t-91.5 85t-61.5 130.5t-23 178.5v708h137v-655q0 -104 25.5 -181t70 -119.5t96 -62.5t111.5 -20q82 0 150 36t110.5 94.5t66 128.5t23.5 141v638h138v-776q0 -133 8.5 -207t27.5 -147h-139q-12 49 -17 80.5t-4 78.5t13 99h-25q-112 -293 -387 -293z" />
    <glyph glyph-name="Uhungarumlaut" unicode="&#x170;" horiz-adv-x="1540" 
d="M918 2044l-279 -324h-125l213 324h191zM1243 2044l-297 -324h-123l230 324h190zM764 -35q-276 0 -421.5 159.5t-145.5 455.5v1017h145v-1009q0 -249 112 -368.5t316 -119.5q205 0 316.5 119.5t111.5 368.5v1009h145v-1017q0 -133 -33 -242.5t-101 -194t-181.5 -131.5
t-263.5 -47z" />
    <glyph glyph-name="uhungarumlaut" unicode="&#x171;" horiz-adv-x="1277" 
d="M766 1673l-281 -395h-120l215 395h186zM1094 1673l-297 -395h-121l233 395h185zM571 -35q-63 0 -119.5 14.5t-109.5 48.5t-91.5 85t-61.5 130.5t-23 178.5v708h137v-655q0 -104 25.5 -181t70 -119.5t96 -62.5t111.5 -20q82 0 150 36t110.5 94.5t66 128.5t23.5 141v638
h138v-776q0 -133 8.5 -207t27.5 -147h-139q-12 49 -17 80.5t-4 78.5t13 99h-25q-112 -293 -387 -293z" />
    <glyph glyph-name="Uogonek" unicode="&#x172;" horiz-adv-x="1540" 
d="M1198 588v1009h145v-1017q0 -119 -27 -220t-81.5 -182.5t-145 -135t-210.5 -69.5q-125 -78 -125 -182q0 -69 50.5 -112.5t127.5 -43.5q39 0 88 15v-99q-55 -14 -100 -14q-117 0 -195 62.5t-78 171.5q0 112 109 194q-272 3 -415.5 162.5t-143.5 452.5v1017h145v-1009
q0 -249 112 -368.5t316 -119.5q205 0 316.5 119.5t111.5 368.5z" />
    <glyph glyph-name="uogonek" unicode="&#x173;" horiz-adv-x="1277" 
d="M1108 -362q42 0 90 14v-101q-55 -14 -102 -14q-114 0 -191.5 63t-77.5 167q0 139 164 233q-12 49 -17 80.5t-4 78.5t13 99h-25q-112 -293 -387 -293q-63 0 -119.5 14.5t-109.5 48.5t-91.5 85t-61.5 130.5t-23 178.5v708h137v-655q0 -104 25.5 -181t70 -119.5t96 -62.5
t111.5 -20q82 0 150 36t110.5 94.5t66 128.5t23.5 141v638h138v-776q0 -133 8.5 -207t27.5 -147h-24q-172 -84 -172 -209q0 -69 50 -111t124 -42z" />
    <glyph glyph-name="Wcircumflex" unicode="&#x174;" horiz-adv-x="2326" 
d="M936 1720h-127l268 308h172l269 -308h-129q-47 44 -72.5 70t-63 73.5t-65.5 96.5h-47q-28 -49 -66 -96.5t-64.5 -73.5t-74.5 -70zM729 0h-176l-516 1597h158q277 -831 436 -1437h24q122 454 426 1437h164q273 -853 432 -1441h23q179 670 432 1441h158l-514 -1597h-177
q-261 789 -421 1421h-29q-178 -693 -420 -1421z" />
    <glyph glyph-name="wcircumflex" unicode="&#x175;" horiz-adv-x="1859" 
d="M674 1278h-131l295 358h180l297 -358h-131q-63 65 -87 90t-69.5 81t-73.5 105h-49q-31 -50 -73.5 -102.5t-73.5 -86t-84 -87.5zM592 0h-146l-411 1130h153q77 -214 116.5 -328t100 -303.5t105.5 -357.5h29q46 167 108.5 361.5t98 296t116.5 331.5h137q4 -11 37 -102.5
t39.5 -110.5t35.5 -100.5t39.5 -112.5t35.5 -103.5t39 -116t34.5 -107t37.5 -120.5t34 -116h27q98 368 313 989h154l-410 -1130h-149q-214 587 -328 963h-14q-126 -409 -332 -963z" />
    <glyph glyph-name="Ycircumflex" unicode="&#x176;" horiz-adv-x="1413" 
d="M479 1720h-127l269 308h172l268 -308h-129q-47 44 -72.5 70t-63 73.5t-65.5 96.5h-47q-28 -49 -66 -96.5t-64.5 -73.5t-74.5 -70zM778 0h-145q0 389 12 586q-233 371 -606 1011h160q324 -555 495 -903h25q23 47 48.5 97t46.5 91t51.5 96t48 87.5t52 93.5t48.5 85.5
t53 91.5t49 84.5t53 91t50 85.5h155q-417 -708 -606 -1011q10 -195 10 -586z" />
    <glyph glyph-name="ycircumflex" unicode="&#x177;" horiz-adv-x="1116" 
d="M291 1278h-131l295 358h180l297 -358h-131q-63 65 -87 90t-69.5 81t-73.5 105h-49q-31 -50 -73.5 -102.5t-73.5 -86t-84 -87.5zM451 -451h-132l170 435l-456 1146h149q211 -518 367 -1013h22q140 451 363 1013h149z" />
    <glyph glyph-name="Ydieresis" unicode="&#x178;" horiz-adv-x="1413" 
d="M508 1784q-46 0 -77.5 32.5t-31.5 79.5q0 43 32 75t77 32t76.5 -32t31.5 -75q0 -47 -31 -79.5t-77 -32.5zM905 1784q-47 0 -77.5 32t-30.5 80q0 44 31 75.5t77 31.5q44 0 75.5 -32t31.5 -75q0 -47 -31.5 -79.5t-75.5 -32.5zM778 0h-145q0 389 12 586q-233 371 -606 1011
h160q324 -555 495 -903h25q23 47 48.5 97t46.5 91t51.5 96t48 87.5t52 93.5t48.5 85.5t53 91.5t49 84.5t53 91t50 85.5h155q-417 -708 -606 -1011q10 -195 10 -586z" />
    <glyph glyph-name="Zacute" unicode="&#x179;" horiz-adv-x="1345" 
d="M1028 2044l-340 -324h-127l260 324h207zM1282 0h-1223v123q418 565 1049 1356l-12 24q-443 -39 -998 -39v133h1166v-118q-55 -75 -110 -148t-119 -157t-108 -141.5t-121 -155.5t-110 -140.5t-123 -156t-113 -142.5t-126 -158.5t-119 -150.5l12 -25q419 35 1055 35v-139z
" />
    <glyph glyph-name="zacute" unicode="&#x17a;" horiz-adv-x="999" 
d="M864 1669l-311 -391h-123l246 391h188zM948 0h-887v106q33 45 155 213.5t179 246t156.5 208.5t185.5 238l-10 24q-285 -32 -631 -32v126h805v-106q-404 -554 -680 -897l10 -25q252 25 717 25v-127z" />
    <glyph glyph-name="Zdotaccent" unicode="&#x17b;" horiz-adv-x="1345" 
d="M655 1786q-49 0 -81.5 33.5t-32.5 83.5q0 46 32.5 79t81.5 33q47 0 80 -33t33 -79q0 -49 -33 -83t-80 -34zM1282 0h-1223v123q418 565 1049 1356l-12 24q-443 -39 -998 -39v133h1166v-118q-55 -75 -110 -148t-119 -157t-108 -141.5t-121 -155.5t-110 -140.5t-123 -156
t-113 -142.5t-126 -158.5t-119 -150.5l12 -25q419 35 1055 35v-139z" />
    <glyph glyph-name="zdotaccent" unicode="&#x17c;" horiz-adv-x="999" 
d="M504 1417q-51 0 -84 33.5t-33 83.5q0 47 33.5 80t83.5 33q47 0 79.5 -33.5t32.5 -79.5q0 -49 -32.5 -83t-79.5 -34zM948 0h-887v106q33 45 155 213.5t179 246t156.5 208.5t185.5 238l-10 24q-285 -32 -631 -32v126h805v-106q-404 -554 -680 -897l10 -25q252 25 717 25
v-127z" />
    <glyph glyph-name="Zcaron" unicode="&#x17d;" horiz-adv-x="1345" 
d="M731 1720h-174l-266 308h127q4 -4 21 -20t22.5 -21t21 -20t22 -22.5t20.5 -22t21.5 -24t19.5 -24.5t20.5 -28t18 -28.5t18.5 -31.5h47q27 51 64.5 99t61 71.5t74.5 71.5h129zM1282 0h-1223v123q418 565 1049 1356l-12 24q-443 -39 -998 -39v133h1166v-118
q-55 -75 -110 -148t-119 -157t-108 -141.5t-121 -155.5t-110 -140.5t-123 -156t-113 -142.5t-126 -158.5t-119 -150.5l12 -25q419 35 1055 35v-139z" />
    <glyph glyph-name="zcaron" unicode="&#x17e;" horiz-adv-x="999" 
d="M590 1282h-180l-295 363h131q5 -5 24.5 -26t25 -27.5t23.5 -25.5t25.5 -27.5t23 -26.5t24.5 -29t22.5 -28t23.5 -30.5t21.5 -30t21.5 -32.5h39q16 26 36.5 54t35.5 47t42 49.5t38.5 43t43.5 46.5t40 43h131zM948 0h-887v106q33 45 155 213.5t179 246t156.5 208.5
t185.5 238l-10 24q-285 -32 -631 -32v126h805v-106q-404 -554 -680 -897l10 -25q252 25 717 25v-127z" />
    <glyph glyph-name="uni0218" unicode="&#x218;" horiz-adv-x="1320" 
d="M680 -35q-93 0 -181 25t-171 77.5t-148 146.5t-98 220l135 49q49 -186 175 -284.5t292 -98.5q70 0 135.5 18.5t122 54.5t91 98t34.5 141q0 47 -12 85.5t-36 66.5t-50 48.5t-65 37t-69.5 27.5t-74.5 24q-22 7 -33 10l-149 47q-44 14 -75.5 25t-81 33.5t-85 45t-75.5 58
t-65 75t-42 94t-17 115.5q0 103 44.5 186t119 134.5t165.5 78.5t189 27q192 0 335 -100.5t194 -282.5l-131 -53q-45 139 -153 220t-259 81q-149 0 -249.5 -77.5t-100.5 -203.5q0 -44 14.5 -82.5t34 -66.5t53.5 -54.5t59 -41.5t66.5 -32t59 -23t51.5 -17l155 -51
q151 -48 203 -72q184 -85 225 -238q13 -48 13 -104q0 -138 -75.5 -246t-199 -164.5t-270.5 -56.5zM633 -520h-72q70 133 135 205q-63 0 -93 28t-30 70q0 45 31.5 72.5t79.5 27.5q44 0 75.5 -31t31.5 -75q0 -39 -28.5 -91t-129.5 -206z" />
    <glyph glyph-name="uni0219" unicode="&#x219;" horiz-adv-x="1013" 
d="M532 -35q-166 0 -292 87t-172 231l129 41q42 -106 137.5 -173t200.5 -67q39 0 80 10.5t82.5 32.5t67.5 64t26 98q0 46 -18.5 80t-57 57t-72.5 35.5t-90 27.5l-109 31q-30 9 -51.5 16t-58 22.5t-62.5 31.5t-56.5 42.5t-49.5 56t-32 71t-13 88.5q0 77 33 139t87.5 99.5
t119.5 57t133 19.5q142 0 252 -78.5t149 -197.5l-133 -45q-30 86 -103.5 144t-177.5 58q-97 0 -159 -50.5t-62 -133.5q0 -41 18 -75.5t42 -56.5t64 -42t68 -30t70 -23l107 -31q35 -10 56.5 -16.5t57.5 -21t59 -29t51 -37.5t44.5 -49t27.5 -62.5t11 -79.5q0 -147 -113 -244.5
t-291 -97.5zM479 -520h-71q70 133 135 205q-63 0 -93 28t-30 70q0 45 31 72.5t79 27.5q44 0 75.5 -31t31.5 -75q0 -39 -28.5 -91t-129.5 -206z" />
    <glyph glyph-name="uni021A" unicode="&#x21a;" horiz-adv-x="1300" 
d="M723 0h-145q0 997 24 1489q-207 -25 -571 -25v133h1239v-133q-365 0 -570 25q23 -512 23 -1489zM594 -520h-72q70 133 135 205q-63 0 -92.5 28t-29.5 70q0 45 31 72.5t79 27.5q44 0 75.5 -31t31.5 -75q0 -39 -28.5 -91t-129.5 -206z" />
    <glyph glyph-name="uni021B" unicode="&#x21b;" horiz-adv-x="782" 
d="M526 -35q-45 0 -82 9t-64 22.5t-48 36.5t-34.5 44t-23 52.5t-14 53.5t-7 56.5t-3 52t-0.5 48.5q0 454 24 690q-96 -22 -249 -22v122q153 0 249 -22q-24 128 -24 358h139q0 -230 -24 -358q133 22 368 22v-122q-235 0 -368 22q24 -224 24 -651q0 -43 1 -66.5t5 -63.5
t14 -63t27 -48t45.5 -36.5t67.5 -11.5q90 0 184 62v-132q-85 -55 -207 -55zM403 -520h-71q70 133 135 205q-63 0 -93 28t-30 70q0 45 31.5 72.5t79.5 27.5q44 0 75 -31t31 -75q0 -39 -28.5 -91t-129.5 -206z" />
    <glyph glyph-name="gravecomb" unicode="&#x300;" horiz-adv-x="0" 
d="M-98 1278h-121l-311 391h188z" />
    <glyph glyph-name="acutecomb" unicode="&#x301;" horiz-adv-x="0" 
d="M96 1669l-311 -391h-123l246 391h188z" />
    <glyph glyph-name="uni0302" unicode="&#x302;" horiz-adv-x="0" 
d="M-670 1278h-131l295 358h180l297 -358h-131q-60 61 -86.5 89t-70.5 83t-72 104h-49q-31 -49 -74 -102.5t-73 -85.5t-85 -88z" />
    <glyph glyph-name="tildecomb" unicode="&#x303;" horiz-adv-x="0" 
d="M-317 1337q-15 0 -28.5 2t-24 4t-22.5 8t-19 9t-19 11.5t-16.5 12t-17.5 14t-17 13.5l-39 33q-21 18 -30.5 25.5t-29 16.5t-38.5 9q-49 0 -78 -40t-29 -101h-104q2 110 60.5 180t150.5 70q41 0 74.5 -17t74.5 -51l43 -37q62 -53 109 -53q46 0 72 40t26 103h104
q0 -117 -53 -184.5t-149 -67.5z" />
    <glyph glyph-name="uni0304" unicode="&#x304;" horiz-adv-x="0" 
d="M-90 1409h-688v115h688v-115z" />
    <glyph glyph-name="uni0306" unicode="&#x306;" horiz-adv-x="0" 
d="M-406 1276q-170 0 -269 111t-105 284h123q4 -128 74.5 -205t179.5 -77q108 0 177.5 77t73.5 205h123q-6 -174 -105.5 -284.5t-271.5 -110.5z" />
    <glyph glyph-name="uni0307" unicode="&#x307;" horiz-adv-x="0" 
d="M-246 1413q-51 0 -83.5 33.5t-32.5 83.5q0 47 33 79.5t83 32.5q47 0 80 -33t33 -79q0 -49 -33 -83t-80 -34z" />
    <glyph glyph-name="uni0308" unicode="&#x308;" horiz-adv-x="0" 
d="M-831 1370q-44 0 -75.5 32.5t-31.5 76.5q0 42 31.5 73t75.5 31t74 -31t30 -73q0 -45 -30 -77t-74 -32zM-473 1370q-46 0 -76.5 32t-30.5 77q0 42 30.5 73t76.5 31q42 0 73 -31t31 -73q0 -44 -30.5 -76.5t-73.5 -32.5z" />
    <glyph glyph-name="uni030A" unicode="&#x30a;" horiz-adv-x="0" 
d="M-246 1247q-98 0 -162.5 63t-64.5 158q0 94 64.5 157t162.5 63q96 0 161 -62.5t65 -157.5q0 -96 -65 -158.5t-161 -62.5zM-246 1339q57 0 94 35t37 94q0 57 -37 92t-94 35q-59 0 -97 -34.5t-38 -92.5q0 -59 37.5 -94t97.5 -35z" />
    <glyph glyph-name="uni030B" unicode="&#x30b;" horiz-adv-x="0" 
d="M-162 1673l-280 -395h-121l215 395h186zM166 1673l-297 -395h-121l234 395h184z" />
    <glyph glyph-name="uni030C" unicode="&#x30c;" horiz-adv-x="0" 
d="M-326 1278h-180l-295 362h131q8 -9 34.5 -37t37 -39.5t33 -36.5t36 -41t32 -39t33.5 -44.5t30 -44.5h39q16 26 36.5 53.5t35.5 47t41.5 49.5t38 42.5t43.5 47t40 42.5h131z" />
    <glyph glyph-name="uni0312" unicode="&#x312;" horiz-adv-x="0" 
d="M-424 1325q0 39 29.5 95.5t148.5 252.5h88q-82 -164 -145 -270q47 6 70.5 -20t23.5 -66q0 -45 -30.5 -71.5t-73.5 -26.5q-49 0 -80 30t-31 76z" />
    <glyph glyph-name="uni0326" unicode="&#x326;" horiz-adv-x="0" 
d="M-332 -520h-71q70 133 135 205q-63 0 -93 28t-30 70q0 45 31 72.5t79 27.5q44 0 75.5 -31t31.5 -75q0 -39 -28.5 -91t-129.5 -206z" />
    <glyph glyph-name="uni0327" unicode="&#x327;" horiz-adv-x="0" 
d="M-639 -492q-74 0 -142.5 30.5t-111.5 80.5l57 59q34 -42 85 -67t104 -25q59 0 98 30t39 77q0 43 -35.5 70.5t-89.5 27.5t-96 -27l-55 54l118 182h97q-55 -84 -134 -158l9 -8q56 27 104 27q79 0 130.5 -46t51.5 -120q0 -83 -65 -135t-164 -52z" />
    <glyph glyph-name="uni0328" unicode="&#x328;" horiz-adv-x="0" 
d="M-639 -483q-114 0 -191 62.5t-77 166.5q0 140 164 234h114q-172 -84 -172 -209q0 -69 50 -111.5t124 -42.5q42 0 90 14v-100q-55 -14 -102 -14z" />
    <glyph glyph-name="uni0335" unicode="&#x335;" horiz-adv-x="0" 
d="M-741 623h690v-115h-690v115z" />
    <glyph glyph-name="uni0337" unicode="&#x337;" horiz-adv-x="0" 
d="M-487 518v125l532 379v-125z" />
    <glyph glyph-name="uni0338" unicode="&#x338;" horiz-adv-x="0" 
d="M-1026 -57h-141l921 1237h133z" />
    <glyph glyph-name="Wgrave" unicode="&#x1e80;" horiz-adv-x="2326" 
d="M1255 1720h-127l-340 324h207zM729 0h-176l-516 1597h158q277 -831 436 -1437h24q122 454 426 1437h164q273 -853 432 -1441h23q179 670 432 1441h158l-514 -1597h-177q-261 789 -421 1421h-29q-178 -693 -420 -1421z" />
    <glyph glyph-name="wgrave" unicode="&#x1e81;" horiz-adv-x="1859" 
d="M993 1278h-121l-311 391h189zM592 0h-146l-411 1130h153q77 -214 116.5 -328t100 -303.5t105.5 -357.5h29q46 167 108.5 361.5t98 296t116.5 331.5h137q4 -11 37 -102.5t39.5 -110.5t35.5 -100.5t39.5 -112.5t35.5 -103.5t39 -116t34.5 -107t37.5 -120.5t34 -116h27
q98 368 313 989h154l-410 -1130h-149q-214 587 -328 963h-14q-126 -409 -332 -963z" />
    <glyph glyph-name="Wacute" unicode="&#x1e82;" horiz-adv-x="2326" 
d="M1546 2044l-340 -324h-127l260 324h207zM729 0h-176l-516 1597h158q277 -831 436 -1437h24q122 454 426 1437h164q273 -853 432 -1441h23q179 670 432 1441h158l-514 -1597h-177q-261 789 -421 1421h-29q-178 -693 -420 -1421z" />
    <glyph glyph-name="wacute" unicode="&#x1e83;" horiz-adv-x="1859" 
d="M1292 1669l-311 -391h-123l246 391h188zM592 0h-146l-411 1130h153q77 -214 116.5 -328t100 -303.5t105.5 -357.5h29q46 167 108.5 361.5t98 296t116.5 331.5h137q4 -11 37 -102.5t39.5 -110.5t35.5 -100.5t39.5 -112.5t35.5 -103.5t39 -116t34.5 -107t37.5 -120.5
t34 -116h27q98 368 313 989h154l-410 -1130h-149q-214 587 -328 963h-14q-126 -409 -332 -963z" />
    <glyph glyph-name="Wdieresis" unicode="&#x1e84;" horiz-adv-x="2326" 
d="M965 1784q-46 0 -77.5 32.5t-31.5 79.5q0 43 32 75t77 32t76.5 -32t31.5 -75q0 -47 -31 -79.5t-77 -32.5zM1362 1784q-47 0 -78 32t-31 80q0 44 31.5 75.5t77.5 31.5q44 0 75 -32t31 -75q0 -47 -31 -79.5t-75 -32.5zM729 0h-176l-516 1597h158q277 -831 436 -1437h24
q122 454 426 1437h164q273 -853 432 -1441h23q179 670 432 1441h158l-514 -1597h-177q-261 789 -421 1421h-29q-178 -693 -420 -1421z" />
    <glyph glyph-name="wdieresis" unicode="&#x1e85;" horiz-adv-x="1859" 
d="M750 1370q-44 0 -75.5 32.5t-31.5 76.5q0 42 31.5 73t75.5 31t74 -31t30 -73q0 -45 -30 -77t-74 -32zM1108 1370q-46 0 -76.5 32t-30.5 77q0 42 30.5 73t76.5 31q42 0 73 -31t31 -73q0 -44 -30.5 -76.5t-73.5 -32.5zM592 0h-146l-411 1130h153q77 -214 116.5 -328
t100 -303.5t105.5 -357.5h29q46 167 108.5 361.5t98 296t116.5 331.5h137q4 -11 37 -102.5t39.5 -110.5t35.5 -100.5t39.5 -112.5t35.5 -103.5t39 -116t34.5 -107t37.5 -120.5t34 -116h27q98 368 313 989h154l-410 -1130h-149q-214 587 -328 963h-14q-126 -409 -332 -963z
" />
    <glyph glyph-name="uni1E9E" unicode="&#x1e9e;" horiz-adv-x="1548" 
d="M342 0h-147v940q0 63 4 117.5t18.5 128t39 132t70.5 119t107 101t154 66.5t207 26q260 0 416.5 -119.5t156.5 -332.5q0 -151 -81 -246.5t-228 -112.5v-24q163 0 273 -102.5t110 -274.5q0 -60 -14 -114.5t-52.5 -111.5t-98.5 -98.5t-160 -67.5t-228 -26h-172v133h198
q102 0 177 24t116.5 67t60.5 93.5t19 110.5q0 145 -103.5 226t-269.5 81h-110v127h115q30 0 63 5.5t76.5 25t77 50t57 86t23.5 128.5q0 163 -111.5 254.5t-306.5 91.5q-90 0 -162.5 -21t-119 -53t-81 -81t-52 -93.5t-28 -102.5t-12.5 -96t-2 -85v-971z" />
    <glyph glyph-name="Ygrave" unicode="&#x1ef2;" horiz-adv-x="1413" 
d="M799 1720h-127l-340 324h207zM778 0h-145q0 389 12 586q-233 371 -606 1011h160q324 -555 495 -903h25q23 47 48.5 97t46.5 91t51.5 96t48 87.5t52 93.5t48.5 85.5t53 91.5t49 84.5t53 91t50 85.5h155q-417 -708 -606 -1011q10 -195 10 -586z" />
    <glyph glyph-name="ygrave" unicode="&#x1ef3;" horiz-adv-x="1116" 
d="M612 1278h-120l-312 391h189zM451 -451h-132l170 435l-456 1146h149q211 -518 367 -1013h22q140 451 363 1013h149z" />
    <glyph glyph-name="uni2000" unicode="&#x2000;" horiz-adv-x="1024" 
 />
    <glyph glyph-name="uni2001" unicode="&#x2001;" 
 />
    <glyph glyph-name="uni2002" unicode="&#x2002;" horiz-adv-x="1024" 
 />
    <glyph glyph-name="uni2003" unicode="&#x2003;" 
 />
    <glyph glyph-name="uni2004" unicode="&#x2004;" horiz-adv-x="681" 
 />
    <glyph glyph-name="uni2005" unicode="&#x2005;" horiz-adv-x="512" 
 />
    <glyph glyph-name="uni2006" unicode="&#x2006;" horiz-adv-x="342" 
 />
    <glyph glyph-name="uni2007" unicode="&#x2007;" horiz-adv-x="555" 
 />
    <glyph glyph-name="uni2008" unicode="&#x2008;" horiz-adv-x="479" 
 />
    <glyph glyph-name="uni2009" unicode="&#x2009;" horiz-adv-x="256" 
 />
    <glyph glyph-name="uni200A" unicode="&#x200a;" horiz-adv-x="86" 
 />
    <glyph glyph-name="uni200B" unicode="&#x200b;" horiz-adv-x="0" 
 />
    <glyph glyph-name="endash" unicode="&#x2013;" horiz-adv-x="1011" 
d="M891 563h-770v121h770v-121z" />
    <glyph glyph-name="emdash" unicode="&#x2014;" horiz-adv-x="1439" 
d="M1321 565h-1200v115h1200v-115z" />
    <glyph glyph-name="quoteleft" unicode="&#x2018;" horiz-adv-x="464" 
d="M289 1632h88q-38 -80 -73 -138t-85 -112q107 -17 107 -112q0 -46 -33 -78.5t-82 -32.5q-46 0 -78.5 32.5t-32.5 78.5q0 40 31 97.5t158 264.5z" />
    <glyph glyph-name="quoteright" unicode="&#x2019;" horiz-adv-x="471" 
d="M205 1165h-90q26 52 44 86t50 81t70 87q-113 21 -113 107q0 46 34 79t81 33t79.5 -32.5t32.5 -77.5q0 -41 -33.5 -104t-154.5 -259z" />
    <glyph glyph-name="quotesinglbase" unicode="&#x201a;" horiz-adv-x="452" 
d="M156 -258h-88q26 54 43.5 86.5t48 79t65.5 84.5q-106 17 -106 110q0 47 32.5 80t81.5 33q46 0 78.5 -33.5t32.5 -79.5q0 -39 -33 -100.5t-155 -259.5z" />
    <glyph glyph-name="quotedblleft" unicode="&#x201c;" horiz-adv-x="786" 
d="M289 1632h88q-38 -80 -73 -138t-85 -112q107 -17 107 -112q0 -46 -33 -78.5t-82 -32.5q-46 0 -78.5 32.5t-32.5 78.5q0 40 31 97.5t158 264.5zM612 1632h88q-32 -63 -45.5 -89.5t-46 -75t-67.5 -85.5q108 -17 108 -112q0 -46 -33.5 -78.5t-80.5 -32.5t-80 32.5t-33 78.5
q0 37 28.5 91t127.5 216q22 35 34 55z" />
    <glyph glyph-name="quotedblright" unicode="&#x201d;" horiz-adv-x="794" 
d="M203 1165h-88q3 5 13 24.5t13 26t12.5 24.5t14 26t14 24.5t16 26t16 24t18 25.5t19 24t21.5 25q-54 9 -80 38.5t-26 72.5q0 46 34 79t81 33q46 0 79 -33t33 -79q0 -39 -32.5 -98.5t-157.5 -262.5zM526 1165h-88q25 52 43.5 86t49 80t65.5 84q-54 9 -80.5 39t-26.5 72
q0 46 33 79t82 33q46 0 78.5 -33t32.5 -79q0 -39 -33 -100.5t-156 -260.5z" />
    <glyph glyph-name="quotedblbase" unicode="&#x201e;" horiz-adv-x="772" 
d="M154 -254h-88q79 166 157 250q-106 17 -106 113q0 46 33.5 78t80.5 32q46 0 79.5 -32.5t33.5 -77.5q0 -38 -28 -91t-134 -226q-18 -30 -28 -46zM477 -254h-90q30 60 45.5 89t47.5 76.5t67 84.5q-54 9 -80.5 39t-26.5 74q0 46 33 78t80 32t80 -32t33 -78q0 -40 -31.5 -99
t-157.5 -264z" />
    <glyph glyph-name="dagger" unicode="&#x2020;" horiz-adv-x="989" 
d="M559 430h-131q0 496 14 760q-129 -16 -354 -16v122q225 0 354 -16q-14 129 -14 358h131q0 -229 -16 -358q131 16 358 16v-122q-227 0 -358 16q16 -264 16 -760z" />
    <glyph glyph-name="daggerdbl" unicode="&#x2021;" horiz-adv-x="1085" 
d="M946 1296v-122q-229 0 -368 24q24 -90 25.5 -172t-17.5 -172q137 25 360 25v-123q-228 0 -360 24q24 -132 24 -364h-133q0 227 25 364q-132 -24 -363 -24v123q226 0 363 -25q-35 172 0 344q-132 -24 -363 -24v122q231 0 363 -24q-25 137 -25 366h133q0 -80 -1 -119.5
t-8.5 -111t-22.5 -135.5q139 24 368 24z" />
    <glyph glyph-name="bullet" unicode="&#x2022;" horiz-adv-x="788" 
d="M397 428q-85 0 -143.5 60.5t-58.5 146.5q0 83 58.5 141t143.5 58q83 0 141 -58t58 -141q0 -86 -58 -146.5t-141 -60.5z" />
    <glyph glyph-name="ellipsis" unicode="&#x2026;" horiz-adv-x="1347" 
d="M242 -14q-49 0 -82 33t-33 83q0 46 33 79.5t82 33.5q45 0 77.5 -33.5t32.5 -79.5q0 -49 -32 -82.5t-78 -33.5zM676 -14q-49 0 -82 33t-33 83q0 46 33 79.5t82 33.5q45 0 77.5 -33.5t32.5 -79.5q0 -49 -32 -82.5t-78 -33.5zM1110 -14q-49 0 -82 33t-33 83q0 46 33 79.5
t82 33.5q46 0 78.5 -33.5t32.5 -79.5q0 -49 -32.5 -82.5t-78.5 -33.5z" />
    <glyph glyph-name="uni202F" unicode="&#x202f;" horiz-adv-x="403" 
 />
    <glyph glyph-name="perthousand" unicode="&#x2030;" horiz-adv-x="2381" 
d="M348 788q-121 0 -195.5 102.5t-74.5 264.5q0 164 74.5 267.5t195.5 103.5q122 0 197.5 -103.5t75.5 -267.5q0 -162 -75.5 -264.5t-197.5 -102.5zM348 0h-131l1139 1468h123zM348 893q69 0 110.5 69t41.5 193t-41.5 194t-110.5 70t-110 -70t-41 -194t41 -193t110 -69z
M1337 -29q-121 0 -195.5 102.5t-74.5 264.5q0 164 74.5 267.5t195.5 103.5q122 0 197.5 -103.5t75.5 -267.5q0 -162 -75.5 -264.5t-197.5 -102.5zM2034 -29q-121 0 -196 102.5t-75 264.5q0 164 75 267.5t196 103.5q122 0 197 -103.5t75 -267.5q0 -162 -75 -264.5
t-197 -102.5zM1337 76q69 0 110.5 69t41.5 193t-41.5 194t-110.5 70t-110 -70t-41 -194t41 -193t110 -69zM2034 76q69 0 110 69t41 193t-41 194t-110 70t-110.5 -70t-41.5 -194t41.5 -193t110.5 -69z" />
    <glyph glyph-name="guilsinglleft" unicode="&#x2039;" horiz-adv-x="741" 
d="M604 164h-160l-335 405v9l335 405h160q-72 -85 -117.5 -137.5t-116 -122t-137.5 -121.5v-57q67 -52 137.5 -121.5t116 -122t117.5 -137.5z" />
    <glyph glyph-name="guilsinglright" unicode="&#x203a;" horiz-adv-x="741" 
d="M297 164h-158q104 126 188 216t181 165v57q-97 75 -181 165t-188 216h158l336 -405v-9z" />
    <glyph glyph-name="fraction" unicode="&#x2044;" horiz-adv-x="292" 
d="M-348 0h-131l1138 1468h123z" />
    <glyph glyph-name="uni205F" unicode="&#x205f;" horiz-adv-x="454" 
 />
    <glyph glyph-name="uni2070" unicode="&#x2070;" horiz-adv-x="696" 
d="M348 788q-121 0 -195.5 102.5t-74.5 264.5q0 164 74.5 267.5t195.5 103.5q122 0 197.5 -103.5t75.5 -267.5q0 -162 -75.5 -264.5t-197.5 -102.5zM348 893q69 0 110.5 69t41.5 193t-41.5 194t-110.5 70t-110 -70t-41 -194t41 -193t110 -69z" />
    <glyph glyph-name="uni2074" unicode="&#x2074;" horiz-adv-x="663" 
d="M502 803h-109v158h-346v96l348 454h107v-456h98v-94h-98v-158zM393 1362l-235 -307h235v307z" />
    <glyph glyph-name="uni2075" unicode="&#x2075;" horiz-adv-x="651" 
d="M315 788q-93 0 -165.5 43.5t-98.5 118.5l99 49q21 -54 66 -84t99 -30q63 0 105.5 41.5t42.5 105.5t-40 104t-101 40q-94 0 -138 -80l-92 26l82 389h367v-94h-287l-47 -221q22 30 65 47t88 17q90 0 156 -60t66 -166q0 -110 -77.5 -178t-189.5 -68z" />
    <glyph glyph-name="uni2076" unicode="&#x2076;" horiz-adv-x="679" 
d="M348 788q-122 0 -196 88t-74 242q0 178 93.5 293t240.5 115q109 0 178 -66l-62 -76q-51 43 -122 43q-92 0 -152 -70.5t-66 -199.5h5q20 49 71 78t109 29q95 0 165 -65.5t70 -166.5q0 -105 -74 -174.5t-186 -69.5zM352 885q61 0 104.5 42t43.5 107q0 63 -43 105.5
t-103 42.5q-64 0 -105.5 -43.5t-41.5 -106.5q0 -62 42.5 -104.5t102.5 -42.5z" />
    <glyph glyph-name="uni2077" unicode="&#x2077;" horiz-adv-x="565" 
d="M270 803h-118q0 140 70 320.5t184 297.5h-367v97h498v-101q-122 -108 -194.5 -286.5t-72.5 -327.5z" />
    <glyph glyph-name="uni2078" unicode="&#x2078;" horiz-adv-x="667" 
d="M334 788q-116 0 -188 59.5t-72 147.5q0 67 38.5 116t92.5 63v2q-101 51 -101 153q0 85 66 141t164 56q97 0 163 -55.5t66 -141.5q0 -48 -25 -89t-77 -64v-2q57 -16 95 -63.5t38 -113.5q0 -90 -72 -149.5t-188 -59.5zM336 1214q52 0 87.5 33.5t35.5 83.5q0 47 -35.5 77
t-87.5 30q-55 0 -90 -30.5t-35 -76.5q0 -50 35 -83.5t90 -33.5zM336 887q59 0 99 35.5t40 91.5t-37 90.5t-102 34.5q-68 0 -107 -34.5t-39 -90.5t42 -91.5t104 -35.5z" />
    <glyph glyph-name="uni2079" unicode="&#x2079;" horiz-adv-x="686" 
d="M309 788q-146 0 -229 103l65 72q67 -80 162 -80q92 0 139.5 77.5t49.5 194.5h-2q-21 -53 -73 -83t-112 -30q-96 0 -164.5 66t-68.5 168q0 107 74 178.5t190 71.5q117 0 191.5 -81t74.5 -253q0 -111 -31 -200.5t-99.5 -146.5t-166.5 -57zM328 1122q65 0 108 47.5t43 114.5
t-42.5 108.5t-102.5 41.5q-64 0 -107 -44t-43 -112q0 -67 41 -111.5t103 -44.5z" />
    <glyph glyph-name="uni2080" unicode="&#x2080;" horiz-adv-x="696" 
d="M348 -285q-121 0 -195.5 102.5t-74.5 264.5q0 164 74.5 267.5t195.5 103.5q122 0 197.5 -103.5t75.5 -267.5q0 -162 -75.5 -264.5t-197.5 -102.5zM348 -180q69 0 110.5 69t41.5 193t-41.5 194t-110.5 70t-110 -70t-41 -194t41 -193t110 -69z" />
    <glyph glyph-name="uni2081" unicode="&#x2081;" horiz-adv-x="450" 
d="M315 -270h-112v516q-54 -67 -154 -84v112q71 19 114.5 64t43.5 100h108v-708z" />
    <glyph glyph-name="uni2082" unicode="&#x2082;" horiz-adv-x="643" 
d="M563 -270h-479v12q4 64 16.5 108t44.5 82.5t67 66t103 73.5q26 19 41 30.5t38.5 35t35.5 49.5t12 55q0 47 -33 77.5t-87 30.5q-66 0 -108 -45.5t-42 -118.5l-102 17q0 110 71.5 180t182.5 70q102 0 169.5 -59t67.5 -152q0 -70 -36 -120t-99 -93q-17 -13 -50.5 -34.5
t-51 -34.5t-39.5 -33t-34.5 -42t-19.5 -49h332v-106z" />
    <glyph glyph-name="uni2083" unicode="&#x2083;" horiz-adv-x="651" 
d="M319 -285q-95 0 -166.5 45t-93.5 117l99 49q21 -54 62.5 -84t98.5 -30q60 0 99 32t39 88q0 55 -41 86t-111 31h-69v82h73q60 0 96.5 31.5t36.5 81.5t-37 80t-92 30q-54 0 -91 -32t-46 -89l-100 23q10 86 79.5 141.5t166.5 55.5q98 0 164.5 -51.5t66.5 -135.5
q0 -57 -31.5 -104t-83.5 -60q59 -12 98 -58t39 -110q0 -89 -69 -154t-187 -65z" />
    <glyph glyph-name="uni2084" unicode="&#x2084;" horiz-adv-x="663" 
d="M502 -270h-109v157h-346v97l348 454h107v-456h98v-95h-98v-157zM393 289l-235 -307h235v307z" />
    <glyph glyph-name="uni2085" unicode="&#x2085;" horiz-adv-x="651" 
d="M315 -285q-93 0 -165.5 43.5t-98.5 118.5l99 49q21 -54 66 -84t99 -30q63 0 105.5 41.5t42.5 105.5t-40 103.5t-101 39.5q-94 0 -138 -79l-92 26l82 389h367v-94h-287l-47 -221q22 30 65 46.5t88 16.5q90 0 156 -59.5t66 -165.5q0 -110 -77.5 -178t-189.5 -68z" />
    <glyph glyph-name="uni2086" unicode="&#x2086;" horiz-adv-x="679" 
d="M348 -285q-122 0 -196 88t-74 242q0 178 93.5 293t240.5 115q109 0 178 -66l-62 -76q-51 43 -122 43q-92 0 -152 -70.5t-66 -199.5h5q19 49 70.5 77.5t109.5 28.5q96 0 165.5 -65t69.5 -166q0 -105 -74 -174.5t-186 -69.5zM352 -188q61 0 104.5 42t43.5 107
q0 63 -43 105.5t-103 42.5q-64 0 -105.5 -43.5t-41.5 -106.5t42.5 -105t102.5 -42z" />
    <glyph glyph-name="uni2087" unicode="&#x2087;" horiz-adv-x="565" 
d="M270 -270h-118q0 140 70 320.5t184 297.5h-367v96h498v-100q-122 -108 -194.5 -286.5t-72.5 -327.5z" />
    <glyph glyph-name="uni2088" unicode="&#x2088;" horiz-adv-x="667" 
d="M334 -285q-116 0 -188 59.5t-72 147.5q0 67 38.5 115.5t92.5 62.5v2q-101 51 -101 154q0 85 66 141t164 56q97 0 163 -55.5t66 -141.5q0 -48 -25 -89.5t-77 -64.5v-2q58 -16 95.5 -63.5t37.5 -112.5q0 -90 -72 -149.5t-188 -59.5zM336 141q52 0 87.5 33.5t35.5 83.5
q0 47 -35.5 77t-87.5 30q-55 0 -90 -30.5t-35 -76.5q0 -50 35 -83.5t90 -33.5zM336 -186q59 0 99 35.5t40 91.5t-37 90.5t-102 34.5q-68 0 -107 -34.5t-39 -90.5t42 -91.5t104 -35.5z" />
    <glyph glyph-name="uni2089" unicode="&#x2089;" horiz-adv-x="686" 
d="M309 -285q-146 0 -229 103l65 71q66 -79 162 -79q92 0 139.5 77.5t49.5 194.5h-2q-21 -53 -73 -83t-112 -30q-96 0 -164.5 66t-68.5 168q0 107 74 178.5t190 71.5q117 0 191.5 -81t74.5 -253q0 -111 -31 -200.5t-99.5 -146.5t-166.5 -57zM328 49q65 0 108 47.5t43 114.5
t-42 108t-103 41q-64 0 -107 -43.5t-43 -111.5q0 -67 41 -111.5t103 -44.5z" />
    <glyph glyph-name="Euro" unicode="&#x20ac;" horiz-adv-x="1626" 
d="M1063 -35q-290 0 -473 159.5t-223 436.5q-96 -20 -248 -20v106q143 0 229 -24q-42 146 0 288q-86 -24 -229 -24v106q150 0 246 -20q36 277 215.5 444.5t468.5 167.5q288 0 471 -160l-105 -106q-150 131 -371 131q-216 0 -361.5 -125t-211.5 -352q244 20 688 20v-106
q-466 0 -708 24q18 -144 2 -288q242 24 706 24v-106q-440 0 -686 20q71 -224 220.5 -342.5t365.5 -118.5q228 0 383 129l94 -104q-189 -160 -473 -160z" />
    <glyph glyph-name="trademark" unicode="&#x2122;" horiz-adv-x="1558" 
d="M399 938h-100v584h-223v94h542v-94h-219v-584zM836 938h-101v678h99q113 -263 225 -526q23 54 101.5 240.5t121.5 285.5h98v-678h-100v457q-31 -76 -93 -223.5t-91 -219.5h-76q-29 71 -91 220t-93 225v-459z" />
    <glyph glyph-name="oneeighth" unicode="&#x215b;" horiz-adv-x="1411" 
d="M315 803h-112v516q-54 -67 -154 -84v113q71 19 114.5 63.5t43.5 99.5h108v-708zM102 0h-131l1139 1468h123zM1077 -29q-116 0 -188 59.5t-72 147.5q0 67 38.5 115.5t92.5 62.5v2q-100 51 -100 154q0 85 65.5 141t163.5 56q97 0 163.5 -55.5t66.5 -141.5
q0 -48 -25.5 -89.5t-77.5 -64.5v-2q58 -16 95.5 -63.5t37.5 -112.5q0 -90 -72 -149.5t-188 -59.5zM1079 397q52 0 87.5 33.5t35.5 83.5q0 47 -35.5 77t-87.5 30q-55 0 -90 -30.5t-35 -76.5q0 -50 35 -83.5t90 -33.5zM1079 70q60 0 100 35.5t40 91.5t-37.5 90.5t-102.5 34.5
q-68 0 -106.5 -34.5t-38.5 -90.5t41.5 -91.5t103.5 -35.5z" />
    <glyph glyph-name="threeeighths" unicode="&#x215c;" horiz-adv-x="1611" 
d="M319 788q-95 0 -166.5 45t-93.5 117l99 49q21 -54 62.5 -84t98.5 -30q60 0 99 32.5t39 88.5q0 55 -41 85.5t-111 30.5h-69v82h73q60 0 96.5 31.5t36.5 81.5t-37 80t-92 30t-91.5 -32t-45.5 -88l-100 22q10 86 79.5 141.5t166.5 55.5q98 0 164.5 -51.5t66.5 -135.5
q0 -57 -31 -103.5t-84 -59.5q59 -12 98 -58t39 -110q0 -89 -69 -154.5t-187 -65.5zM303 0h-131l1139 1468h123zM1278 -29q-116 0 -188 59.5t-72 147.5q0 67 38.5 115.5t92.5 62.5v2q-100 51 -100 154q0 85 65.5 141t163.5 56q97 0 163 -55.5t66 -141.5q0 -48 -25 -89.5
t-77 -64.5v-2q58 -16 95.5 -63.5t37.5 -112.5q0 -90 -72 -149.5t-188 -59.5zM1280 397q52 0 87.5 33.5t35.5 83.5q0 47 -35.5 77t-87.5 30q-55 0 -90 -30.5t-35 -76.5q0 -50 35 -83.5t90 -33.5zM1280 70q59 0 99 35.5t40 91.5t-37 90.5t-102 34.5q-68 0 -106.5 -34.5
t-38.5 -90.5t41.5 -91.5t103.5 -35.5z" />
    <glyph glyph-name="fiveeighths" unicode="&#x215d;" horiz-adv-x="1611" 
d="M315 788q-93 0 -165.5 43.5t-98.5 118.5l99 49q21 -54 66 -84t99 -30q63 0 105.5 41.5t42.5 105.5t-40 104t-101 40q-94 0 -138 -80l-92 26l82 389h367v-94h-287l-47 -221q22 30 65 47t88 17q90 0 156 -60t66 -166q0 -110 -77.5 -178t-189.5 -68zM303 0h-131l1139 1468
h123zM1278 -29q-116 0 -188 59.5t-72 147.5q0 67 38.5 115.5t92.5 62.5v2q-100 51 -100 154q0 85 65.5 141t163.5 56q97 0 163 -55.5t66 -141.5q0 -48 -25 -89.5t-77 -64.5v-2q58 -16 95.5 -63.5t37.5 -112.5q0 -90 -72 -149.5t-188 -59.5zM1280 397q52 0 87.5 33.5
t35.5 83.5q0 47 -35.5 77t-87.5 30q-55 0 -90 -30.5t-35 -76.5q0 -50 35 -83.5t90 -33.5zM1280 70q59 0 99 35.5t40 91.5t-37 90.5t-102 34.5q-68 0 -106.5 -34.5t-38.5 -90.5t41.5 -91.5t103.5 -35.5z" />
    <glyph glyph-name="seveneighths" unicode="&#x215e;" horiz-adv-x="1525" 
d="M270 803h-118q0 140 70 320.5t184 297.5h-367v97h498v-101q-122 -108 -194.5 -286.5t-72.5 -327.5zM217 0h-131l1139 1468h123zM1192 -29q-116 0 -188 59.5t-72 147.5q0 67 38.5 115.5t92.5 62.5v2q-100 51 -100 154q0 85 65.5 141t163.5 56q97 0 163 -55.5t66 -141.5
q0 -48 -25 -89.5t-77 -64.5v-2q58 -16 95.5 -63.5t37.5 -112.5q0 -90 -72 -149.5t-188 -59.5zM1194 397q52 0 87.5 33.5t35.5 83.5q0 47 -35.5 77t-87.5 30q-55 0 -90 -30.5t-35 -76.5q0 -50 35 -83.5t90 -33.5zM1194 70q59 0 99 35.5t40 91.5t-37 90.5t-102 34.5
q-68 0 -106.5 -34.5t-38.5 -90.5t41.5 -91.5t103.5 -35.5z" />
    <glyph glyph-name="arrowleft" unicode="&#x2190;" horiz-adv-x="1421" 
d="M612 236h-155l-340 405v8l340 406h155q-181 -216 -348 -371q352 25 1034 25v-129q-244 0 -357 0.5t-313 6t-364 17.5q71 -65 138.5 -134.5t107 -114.5t102.5 -119z" />
    <glyph glyph-name="arrowup" unicode="&#x2191;" horiz-adv-x="989" 
d="M559 20h-129q0 683 25 1035q-65 -71 -134.5 -138t-116.5 -108t-120 -102v155l405 340h9l405 -340v-155q-71 61 -117 101.5t-115.5 107.5t-133.5 137q22 -337 22 -1033z" />
    <glyph glyph-name="arrowright" unicode="&#x2192;" horiz-adv-x="1421" 
d="M967 236h-156q175 209 346 368q-338 -24 -1032 -24v129q682 0 1032 -25q-71 66 -137.5 135.5t-106.5 115.5t-102 120h156l340 -406v-8z" />
    <glyph glyph-name="arrowdown" unicode="&#x2193;" horiz-adv-x="991" 
d="M500 20h-8l-406 340v156q216 -181 371 -348q-25 352 -25 1034h129q0 -244 -0.5 -356.5t-6 -312t-17.5 -363.5q159 171 368 346v-156z" />
    <glyph glyph-name="arrowboth" unicode="&#x2194;" horiz-adv-x="1779" 
d="M608 231h-155l-340 406v8l340 406h155q-129 -154 -321 -371q603 37 1206 0q-210 238 -322 371h156l340 -406v-8l-340 -406h-156q216 254 320 371q-601 -37 -1202 0q77 -87 319 -371z" />
    <glyph glyph-name="arrowupdn" unicode="&#x2195;" horiz-adv-x="1085" 
d="M547 2h-8l-406 334v147q101 -81 371 -309q-37 520 0 1043q-255 -219 -371 -314v152l406 331h8l405 -331v-152q-36 31 -107.5 90.5t-134.5 113t-124 107.5q34 -520 0 -1038q69 60 366 307v-147z" />
    <glyph glyph-name="uni2196" unicode="&#x2196;" horiz-adv-x="1038" 
d="M934 141l-113 -63q-340 590 -495 905q-45 -207 -146 -483l-78 135l183 495l6 5l522 -91l78 -135q-276 50 -494 115q92 -135 196.5 -306t162 -268.5t178.5 -308.5z" />
    <glyph glyph-name="uni2197" unicode="&#x2197;" horiz-adv-x="1038" 
d="M217 78l-113 63q336 584 539 883q-211 -63 -493 -115l77 135l521 91l6 -5l182 -495l-78 -135q-93 254 -145 483q-73 -147 -168 -323t-150.5 -273t-177.5 -309z" />
    <glyph glyph-name="uni2198" unicode="&#x2198;" horiz-adv-x="1038" 
d="M102 1079l113 64q122 -212 177.5 -309t150.5 -273t168 -323q52 229 145 483l78 -135l-182 -496l-7 -4l-520 90l-78 135q293 -54 494 -114q-207 305 -539 882z" />
    <glyph glyph-name="uni2199" unicode="&#x2199;" horiz-adv-x="1038" 
d="M823 1143l111 -64q-117 -203 -177.5 -306.5t-164 -271.5t-195.5 -304q210 63 494 114l-78 -135l-520 -90l-8 4l-181 496l78 135q103 -291 146 -483q163 336 495 905z" />
    <glyph glyph-name="emptyset" unicode="&#x2205;" horiz-adv-x="1421" 
d="M1229 1196l-125 -176q90 -82 139 -199t49 -254q0 -169 -72.5 -306t-205.5 -216.5t-303 -79.5q-164 0 -301 78l-125 -176l-92 65l126 179q-91 82 -140.5 199.5t-49.5 256.5q0 169 72.5 305t206.5 214.5t305 78.5q164 0 301 -78l123 175zM270 565q0 -208 129 -340l535 752
q-95 59 -221 59q-194 0 -318.5 -136t-124.5 -335zM713 96q127 0 228 62t155.5 169t54.5 238q0 208 -129 340l-533 -751q99 -58 224 -58z" />
    <glyph glyph-name="minus" unicode="&#x2212;" horiz-adv-x="1007" 
d="M868 563h-729v123h729v-123z" />
    <glyph glyph-name="infinity" unicode="&#x221e;" horiz-adv-x="1841" 
d="M489 287q-152 0 -254 95.5t-102 242.5q0 145 104.5 241.5t251.5 96.5q103 0 193 -57.5t238 -203.5q152 147 241 204t191 57q152 0 254 -95.5t102 -242.5t-102 -242.5t-254 -95.5q-104 0 -193.5 57t-236.5 203q-146 -146 -237 -203t-196 -57zM485 399q34 0 67 9.5t58 22
t58.5 38t54 44t59.5 55.5t62 57q-20 18 -62 57.5t-60.5 56t-53 43t-58.5 38t-57.5 21t-67.5 9.5q-101 0 -162 -61t-61 -164q0 -105 62 -165.5t161 -60.5zM1358 399q97 0 158 60.5t61 165.5q0 103 -59.5 164t-159.5 61q-34 0 -67.5 -9.5t-58 -21t-58.5 -38t-53.5 -43.5
t-61 -55.5t-62.5 -57.5q22 -19 61.5 -56t60 -55.5t54.5 -44.5t59 -38.5t58.5 -22t67.5 -9.5z" />
    <glyph glyph-name="approxequal" unicode="&#x2248;" horiz-adv-x="1064" 
d="M279 723h-121q0 123 68 190.5t163 67.5q42 0 78.5 -14.5t62.5 -34.5t50 -40.5t51.5 -35t56.5 -14.5q98 0 98 137h123q0 -127 -60 -192.5t-157 -65.5q-43 0 -80.5 14.5t-63.5 35.5t-50.5 41.5t-52.5 35t-58 14.5q-54 0 -81 -39.5t-27 -99.5zM279 303h-121q0 123 68 189.5
t163 66.5q42 0 78.5 -14t62.5 -34t50 -40.5t51.5 -34.5t56.5 -14q98 0 98 137h123q0 -127 -60 -192.5t-157 -65.5q-43 0 -80.5 14.5t-63.5 34.5t-50.5 40.5t-52.5 35t-58 14.5q-54 0 -81 -39t-27 -98z" />
    <glyph glyph-name="notequal" unicode="&#x2260;" horiz-adv-x="1044" 
d="M887 891v-123h-271q-19 -152 -108 -295h379v-123h-422q2 -67 -41 -182h-119q17 46 24.5 64.5t26 54.5t39.5 63h-239v123h282q18 151 107 295h-389v123h434q-1 16 0 32.5t6.5 37.5t8 31.5t11.5 38t11 32.5h118q-40 -114 -86 -172h228z" />
    <glyph glyph-name="lessequal" unicode="&#x2264;" horiz-adv-x="1038" 
d="M877 346h-719v107h473l-473 178v125l719 180v-119l-560 -137l560 -225v-109z" />
    <glyph glyph-name="greaterequal" unicode="&#x2265;" horiz-adv-x="1038" 
d="M881 346h-719v109l559 225l-559 137v119l717 -180v-125l-473 -178h475v-107z" />
    <glyph glyph-name="lozenge" unicode="&#x25ca;" horiz-adv-x="1157" 
d="M623 0h-91l-413 694l413 692h91l415 -692zM260 694l315 -534h7l315 534l-315 533h-7z" />
    <glyph glyph-name="A.ss01" horiz-adv-x="1517" 
d="M186 0h-155l626 1597h203l627 -1597h-156q-143 334 -203 563l-18 19q-233 -21 -338 -21q-153 0 -358 21l-21 -21q-63 -203 -207 -561zM444 688l13 -20q218 20 315 20q109 0 281 -20l14 18q-65 162 -102.5 262t-84 245.5t-77.5 281.5h-90q-33 -137 -82 -287t-85 -243
t-102 -257z" />
    <glyph glyph-name="Aacute.ss01" horiz-adv-x="1517" 
d="M1141 2044l-340 -324h-127l260 324h207zM186 0h-155l626 1597h203l627 -1597h-156q-143 334 -203 563l-18 19q-233 -21 -338 -21q-153 0 -358 21l-21 -21q-63 -203 -207 -561zM444 688l13 -20q218 20 315 20q109 0 281 -20l14 18q-65 162 -102.5 262t-84 245.5
t-77.5 281.5h-90q-33 -137 -82 -287t-85 -243t-102 -257z" />
    <glyph glyph-name="Abreve.ss01" horiz-adv-x="1517" 
d="M758 1726q-84 0 -156 29t-118.5 75.5t-73.5 103.5t-29 116h125q5 -82 77 -147.5t175 -65.5t175.5 65.5t78.5 147.5h125q-3 -59 -30.5 -116t-74 -103.5t-118.5 -75.5t-156 -29zM186 0h-155l626 1597h203l627 -1597h-156q-143 334 -203 563l-18 19q-233 -21 -338 -21
q-153 0 -358 21l-21 -21q-63 -203 -207 -561zM444 688l13 -20q218 20 315 20q109 0 281 -20l14 18q-65 162 -102.5 262t-84 245.5t-77.5 281.5h-90q-33 -137 -82 -287t-85 -243t-102 -257z" />
    <glyph glyph-name="Acircumflex.ss01" horiz-adv-x="1517" 
d="M530 1720h-127l269 308h172l268 -308h-129q-47 44 -72.5 70t-63 73.5t-65.5 96.5h-47q-28 -49 -66 -96.5t-64.5 -73.5t-74.5 -70zM186 0h-155l626 1597h203l627 -1597h-156q-143 334 -203 563l-18 19q-233 -21 -338 -21q-153 0 -358 21l-21 -21q-63 -203 -207 -561z
M444 688l13 -20q218 20 315 20q109 0 281 -20l14 18q-65 162 -102.5 262t-84 245.5t-77.5 281.5h-90q-33 -137 -82 -287t-85 -243t-102 -257z" />
    <glyph glyph-name="Adieresis.ss01" horiz-adv-x="1517" 
d="M559 1784q-46 0 -77 32.5t-31 79.5q0 43 31.5 75t76.5 32t77 -32t32 -75q0 -47 -31.5 -79.5t-77.5 -32.5zM956 1784q-47 0 -77.5 32t-30.5 80q0 44 31 75.5t77 31.5q44 0 75.5 -32t31.5 -75q0 -47 -31.5 -79.5t-75.5 -32.5zM186 0h-155l626 1597h203l627 -1597h-156
q-143 334 -203 563l-18 19q-233 -21 -338 -21q-153 0 -358 21l-21 -21q-63 -203 -207 -561zM444 688l13 -20q218 20 315 20q109 0 281 -20l14 18q-65 162 -102.5 262t-84 245.5t-77.5 281.5h-90q-33 -137 -82 -287t-85 -243t-102 -257z" />
    <glyph glyph-name="Agrave.ss01" horiz-adv-x="1517" 
d="M850 1720h-127l-340 324h207zM186 0h-155l626 1597h203l627 -1597h-156q-143 334 -203 563l-18 19q-233 -21 -338 -21q-153 0 -358 21l-21 -21q-63 -203 -207 -561zM444 688l13 -20q218 20 315 20q109 0 281 -20l14 18q-65 162 -102.5 262t-84 245.5t-77.5 281.5h-90
q-33 -137 -82 -287t-85 -243t-102 -257z" />
    <glyph glyph-name="Amacron.ss01" horiz-adv-x="1517" 
d="M1094 1829h-672v117h672v-117zM186 0h-155l626 1597h203l627 -1597h-156q-143 334 -203 563l-18 19q-233 -21 -338 -21q-153 0 -358 21l-21 -21q-63 -203 -207 -561zM444 688l13 -20q218 20 315 20q109 0 281 -20l14 18q-65 162 -102.5 262t-84 245.5t-77.5 281.5h-90
q-33 -137 -82 -287t-85 -243t-102 -257z" />
    <glyph glyph-name="Aogonek.ss01" horiz-adv-x="1517" 
d="M1462 -365q39 0 88 15v-99q-55 -14 -100 -14q-117 0 -194.5 62.5t-77.5 171.5q0 137 159 229h-6q-143 334 -203 563l-18 19q-233 -21 -338 -21q-153 0 -358 21l-21 -21q-63 -203 -207 -561h-155l626 1597h203l627 -1597h-27q-176 -83 -176 -209q0 -69 50.5 -112.5
t127.5 -43.5zM1053 668l14 18q-65 162 -102.5 262t-84 245.5t-77.5 281.5h-90q-33 -137 -82 -287t-85 -243t-102 -257l13 -20q218 20 315 20q109 0 281 -20z" />
    <glyph glyph-name="Aring.ss01" horiz-adv-x="1517" 
d="M758 1714q-98 0 -163 63t-65 158q0 94 65 156.5t163 62.5q96 0 160.5 -62t64.5 -157q0 -96 -64.5 -158.5t-160.5 -62.5zM758 1806q57 0 94 35t37 94q0 57 -37 92t-94 35q-59 0 -97 -34.5t-38 -92.5q0 -59 37.5 -94t97.5 -35zM186 0h-155l626 1597h203l627 -1597h-156
q-143 334 -203 563l-18 19q-233 -21 -338 -21q-153 0 -358 21l-21 -21q-63 -203 -207 -561zM444 688l13 -20q218 20 315 20q109 0 281 -20l14 18q-65 162 -102.5 262t-84 245.5t-77.5 281.5h-90q-33 -137 -82 -287t-85 -243t-102 -257z" />
    <glyph glyph-name="Atilde.ss01" horiz-adv-x="1517" 
d="M911 1747q-17 0 -31.5 1.5t-28.5 7t-22.5 8.5t-22.5 12.5t-19 13t-20 16t-19 15.5l-39 32q-22 19 -31 26t-29 16.5t-39 9.5q-48 0 -77 -40t-29 -102h-105q2 110 60.5 180t150.5 70q69 0 150 -67l43 -37q63 -54 108 -54q46 0 72.5 40.5t26.5 103.5h104
q0 -117 -53.5 -184.5t-149.5 -67.5zM186 0h-155l626 1597h203l627 -1597h-156q-143 334 -203 563l-18 19q-233 -21 -338 -21q-153 0 -358 21l-21 -21q-63 -203 -207 -561zM444 688l13 -20q218 20 315 20q109 0 281 -20l14 18q-65 162 -102.5 262t-84 245.5t-77.5 281.5h-90
q-33 -137 -82 -287t-85 -243t-102 -257z" />
    <glyph glyph-name="B.ss01" horiz-adv-x="1458" 
d="M858 0h-643v1597h573q120 0 218 -34t160.5 -91.5t96 -132t33.5 -157.5q0 -79 -29 -147.5t-98 -125t-170 -80.5v-32q175 -28 263 -129t88 -240q0 -186 -142.5 -307t-349.5 -121zM340 864l20 -22q68 13 148 19t123.5 6.5t134.5 0.5q174 0 275.5 81t101.5 212
q0 137 -110.5 220t-280.5 83h-23q-227 0 -369 25l-22 -19q36 -286 2 -606zM338 131l22 -22q157 24 453 24q173 0 277 82.5t104 214.5q0 137 -110 223t-285 86q-279 0 -439 27l-20 -23q34 -326 -2 -612z" />
    <glyph glyph-name="C.ss01" horiz-adv-x="1720" 
d="M915 -35q-234 0 -417.5 105t-286 293.5t-102.5 429.5q0 149 40.5 281t113.5 232.5t171.5 174t219 111.5t251.5 38q113 0 221 -29.5t203 -85.5t169 -146.5t112 -205.5l-133 -53q-71 180 -225 281.5t-345 101.5q-130 0 -246.5 -48.5t-204.5 -136.5t-140 -222t-52 -295
q0 -169 57 -303.5t152 -217t212 -125.5t245 -43q121 0 225 38.5t178.5 106t126 153t80.5 186.5l131 -47q-38 -125 -104.5 -228.5t-159.5 -181.5t-219 -121t-273 -43z" />
    <glyph glyph-name="D.ss01" horiz-adv-x="1648" 
d="M797 0h-582v1597h563q156 0 283 -40.5t214.5 -112t146.5 -171.5t86.5 -216t27.5 -248q0 -238 -87 -420t-255.5 -285.5t-396.5 -103.5zM338 131l22 -22q152 24 445 24q265 0 421 178t156 486q0 317 -169.5 492t-467.5 175q-246 0 -385 25l-22 -19q46 -668 0 -1339z" />
    <glyph glyph-name="E.ss01" horiz-adv-x="1347" 
d="M1241 0h-1026v1597h1006v-133q-39 0 -160 -0.5t-179.5 0t-158.5 2.5t-187.5 8t-175.5 15l-22 -19q36 -290 2 -587l18 -23q297 29 822 29v-137q-186 0 -276 1t-249.5 8t-296.5 21l-18 -22q34 -319 -2 -629l22 -22q146 14 316.5 21t267.5 8t297 1v-139z" />
    <glyph glyph-name="F.ss01" horiz-adv-x="1271" 
d="M362 0h-147v1597h985v-139q-180 0 -280 1t-260 8.5t-300 21.5l-22 -19q37 -306 0 -604l18 -22q135 13 291.5 20t243.5 7.5t268 0.5v-135q-508 0 -803 29l-18 -23q12 -117 17.5 -261t6 -225t0.5 -257z" />
    <glyph glyph-name="G.ss01" horiz-adv-x="1757" 
d="M911 -35q-237 0 -420.5 107t-282.5 294.5t-99 424.5q0 186 62.5 344t170 266t253.5 168.5t310 60.5q114 0 222 -29t203 -85.5t168.5 -147t111.5 -205.5l-133 -53q-71 181 -225 282t-345 101q-129 0 -245.5 -48t-205 -136t-140.5 -221.5t-52 -294.5q0 -311 185.5 -501
t486.5 -190q259 0 418.5 156t197.5 422l-14 18q-289 -42 -580 -45v127h701v-49q0 -158 -40.5 -287t-110.5 -217t-166 -148t-204 -87t-227 -27z" />
    <glyph glyph-name="H.ss01" horiz-adv-x="1656" 
d="M362 0h-147v1597h147q0 -495 -22 -723l20 -22q513 41 936 0l19 22q-21 263 -21 723h146v-1597h-146q0 459 21 745l-21 23q-439 -60 -934 0l-20 -23q22 -249 22 -745z" />
    <glyph glyph-name="I.ss01" horiz-adv-x="1107" 
d="M1026 0h-944v133q272 0 416 -24q-24 690 0 1380q-154 -25 -426 -25v133h964v-133q-272 0 -424 25q21 -690 0 -1380q144 24 414 24v-133z" />
    <glyph glyph-name="Iacute.ss01" horiz-adv-x="1107" 
d="M930 2044l-338 -324h-127l260 324h205zM1026 0h-944v133q272 0 416 -24q-24 690 0 1380q-154 -25 -426 -25v133h964v-133q-272 0 -424 25q21 -690 0 -1380q144 24 414 24v-133z" />
    <glyph glyph-name="Icircumflex.ss01" horiz-adv-x="1107" 
d="M328 1720h-127l268 308h172l268 -308h-129q-45 43 -71.5 70t-63.5 73.5t-65 96.5h-48q-28 -50 -65.5 -96.5t-64.5 -73.5t-74 -70zM1026 0h-944v133q272 0 416 -24q-24 690 0 1380q-154 -25 -426 -25v133h964v-133q-272 0 -424 25q21 -690 0 -1380q144 24 414 24v-133z
" />
    <glyph glyph-name="Idieresis.ss01" horiz-adv-x="1107" 
d="M356 1784q-46 0 -77 32.5t-31 79.5q0 43 31.5 75t76.5 32t77 -32t32 -75q0 -47 -31.5 -79.5t-77.5 -32.5zM754 1784q-47 0 -78 32t-31 80q0 44 31.5 75.5t77.5 31.5q44 0 75 -32t31 -75q0 -47 -31 -79.5t-75 -32.5zM1026 0h-944v133q272 0 416 -24q-24 690 0 1380
q-154 -25 -426 -25v133h964v-133q-272 0 -424 25q21 -690 0 -1380q144 24 414 24v-133z" />
    <glyph glyph-name="Idotaccent.ss01" horiz-adv-x="1107" 
d="M555 1786q-49 0 -82 33.5t-33 83.5q0 46 33 79t82 33q47 0 80 -33t33 -79q0 -49 -33 -83t-80 -34zM1026 0h-944v133q272 0 416 -24q-24 690 0 1380q-154 -25 -426 -25v133h964v-133q-272 0 -424 25q21 -690 0 -1380q144 24 414 24v-133z" />
    <glyph glyph-name="Igrave.ss01" horiz-adv-x="1107" 
d="M647 1720h-127l-340 324h207zM1026 0h-944v133q272 0 416 -24q-24 690 0 1380q-154 -25 -426 -25v133h964v-133q-272 0 -424 25q21 -690 0 -1380q144 24 414 24v-133z" />
    <glyph glyph-name="Imacron.ss01" horiz-adv-x="1107" 
d="M891 1829h-672v117h672v-117zM1026 0h-944v133q272 0 416 -24q-24 690 0 1380q-154 -25 -426 -25v133h964v-133q-272 0 -424 25q21 -690 0 -1380q144 24 414 24v-133z" />
    <glyph glyph-name="J.ss01" horiz-adv-x="1204" 
d="M551 -35q-74 0 -140.5 15.5t-130.5 54.5t-110.5 98t-75 152.5t-28.5 212.5v28l139 19v-25q0 -96 21 -171t54.5 -121t79 -75.5t90.5 -41t93 -11.5q152 0 233.5 109.5t81.5 294.5q0 601 25 973l-11 24q-249 -37 -565 -37v133h699v-1052q0 -30 -0.5 -51t-4.5 -68.5
t-11.5 -83.5t-23.5 -86.5t-38 -88t-57 -77.5t-79 -66t-106 -42.5t-135 -16.5z" />
    <glyph glyph-name="K.ss01" horiz-adv-x="1366" 
d="M362 0h-147v1597h147q0 -519 -14 -745h14q376 359 787 745h192q-456 -426 -872 -796v-25q78 -61 162.5 -130.5t146 -121.5t157.5 -136t141 -123t155 -137t143 -128h-203q-15 13 -87.5 75.5t-93.5 80.5t-85.5 74.5t-93.5 82t-86 77t-93.5 86.5t-86.5 82.5t-94.5 92
t-88.5 90.5h-12q12 -283 12 -741z" />
    <glyph glyph-name="L.ss01" horiz-adv-x="1212" 
d="M1180 0h-965v1597h147q0 -345 -0.5 -504.5t-6 -442.5t-17.5 -519l22 -22q135 14 294.5 21t250 8t275.5 1v-139z" />
    <glyph glyph-name="M.ss01" horiz-adv-x="1927" 
d="M362 0h-147v1597h174q345 -618 561 -1105h27q216 487 561 1105h174v-1597h-147q0 104 -2 322.5t-2 350t5.5 323t18.5 356.5h-24l-535 -1006h-125l-534 1006h-23q12 -165 17.5 -355.5t5 -324.5t-2.5 -349t-2 -323z" />
    <glyph glyph-name="N.ss01" horiz-adv-x="1689" 
d="M362 0h-147v1597h211q32 -51 139 -222t151.5 -241.5t138.5 -222.5t154.5 -253t143 -239.5t156.5 -268.5h43q-25 539 -25 1447h148v-1597h-209q-15 23 -104.5 165t-112.5 178.5t-102.5 163t-114.5 183t-104.5 170.5t-116 191.5t-107.5 180.5t-117 200h-49
q24 -511 24 -1432z" />
    <glyph glyph-name="O.ss01" horiz-adv-x="1816" 
d="M907 -35q-162 0 -309.5 63t-255.5 172t-172 264.5t-64 332.5t63.5 332.5t172 265t256 172.5t311.5 63q166 0 315 -65t255.5 -176t168.5 -265.5t62 -326.5q0 -174 -63 -329t-170.5 -265t-256 -174t-313.5 -64zM911 102q128 0 245 53t204.5 144t139.5 221t52 277
t-51.5 277.5t-139 221.5t-205 144t-245.5 53q-129 0 -247.5 -52.5t-206.5 -143.5t-140.5 -221.5t-52.5 -278.5t52.5 -278t140.5 -221t206.5 -143.5t247.5 -52.5z" />
    <glyph glyph-name="P.ss01" horiz-adv-x="1368" 
d="M362 0h-147v1597h561q147 0 264 -53.5t188.5 -162.5t71.5 -257q0 -117 -42 -211.5t-112 -153t-156.5 -89.5t-180.5 -31q-117 0 -175 1.5t-140 10.5t-156 27q24 -242 24 -678zM340 764l20 -23q145 31 404 31q177 0 280 89t103 255q0 165 -109.5 256.5t-287.5 91.5
q-251 0 -390 25l-22 -19q36 -350 2 -706z" />
    <glyph glyph-name="Q.ss01" horiz-adv-x="1828" 
d="M487 -272v-25q182 22 388 33t333.5 12.5t354.5 1.5v-127h-1315q174 197 350 404q-223 88 -354 291t-131 479q0 184 61 340t167.5 264t254.5 168.5t319 60.5q173 0 322 -62.5t254 -172t165 -264.5t60 -334q0 -181 -60.5 -335.5t-167 -263t-255 -170t-320.5 -61.5
q-97 0 -186 21q-102 -116 -240 -260zM264 797q0 -242 117 -416t311 -242q140 164 357 434l106 -84q-255 -306 -321 -383q54 -4 84 -4q135 0 253.5 50t205.5 139.5t137.5 220.5t50.5 285t-50.5 285.5t-137.5 221.5t-205.5 140.5t-253.5 50.5q-136 0 -256 -50.5t-208 -140
t-139 -221t-51 -286.5z" />
    <glyph glyph-name="R.ss01" horiz-adv-x="1415" 
d="M362 0h-147v1597h561q108 0 202.5 -31.5t166.5 -90.5t113.5 -150t41.5 -203q0 -88 -22.5 -159t-61 -120.5t-96.5 -86t-121 -58t-143.5 -33.5t-155 -15.5t-163.5 -2.5q204 -156 815 -647h-197q-13 11 -99 79.5t-107 86t-96.5 78.5t-107 87t-96 79.5t-105.5 88.5t-94 81
t-100 88h-12q24 -232 24 -668zM340 760l20 -23q157 27 404 27q176 0 279.5 92t103.5 258q0 164 -110 257t-287 93q-239 0 -390 25l-22 -19q36 -363 2 -710z" />
    <glyph glyph-name="S.ss01" horiz-adv-x="1320" 
d="M680 -35q-93 0 -181 25t-171 77.5t-148 146.5t-98 220l135 49q49 -186 175 -284.5t292 -98.5q70 0 135.5 18.5t122 54.5t91 98t34.5 141q0 47 -12 85.5t-36 66.5t-50 48.5t-65 37t-69.5 27.5t-74.5 24q-22 7 -33 10l-149 47q-44 14 -75.5 25t-81 33.5t-85 45t-75.5 58
t-65 75t-42 94t-17 115.5q0 103 44.5 186t119 134.5t165.5 78.5t189 27q192 0 335 -100.5t194 -282.5l-131 -53q-45 139 -153 220t-259 81q-149 0 -249.5 -77.5t-100.5 -203.5q0 -44 14.5 -82.5t34 -66.5t53.5 -54.5t59 -41.5t66.5 -32t59 -23t51.5 -17l155 -51
q151 -48 203 -72q184 -85 225 -238q13 -48 13 -104q0 -138 -75.5 -246t-199 -164.5t-270.5 -56.5z" />
    <glyph glyph-name="U.ss01" horiz-adv-x="1560" 
d="M748 -35q-263 0 -407 167t-144 448v1017h145v-1009q0 -240 111 -364t315 -124q203 0 316.5 125t113.5 363v1009h145v-1597h-143q0 77 23 260h-25q-63 -156 -172.5 -225.5t-277.5 -69.5z" />
    <glyph glyph-name="Uacute.ss01" horiz-adv-x="1560" 
d="M1104 2044l-338 -324h-127l260 324h205zM748 -35q-263 0 -407 167t-144 448v1017h145v-1009q0 -240 111 -364t315 -124q203 0 316.5 125t113.5 363v1009h145v-1597h-143q0 77 23 260h-25q-63 -156 -172.5 -225.5t-277.5 -69.5z" />
    <glyph glyph-name="Ucircumflex.ss01" horiz-adv-x="1560" 
d="M535 1720h-127l268 308h172l268 -308h-129q-47 44 -72.5 70t-63 73.5t-65.5 96.5h-47q-28 -50 -65.5 -96.5t-64.5 -73.5t-74 -70zM748 -35q-263 0 -407 167t-144 448v1017h145v-1009q0 -240 111 -364t315 -124q203 0 316.5 125t113.5 363v1009h145v-1597h-143
q0 77 23 260h-25q-63 -156 -172.5 -225.5t-277.5 -69.5z" />
    <glyph glyph-name="Udieresis.ss01" horiz-adv-x="1560" 
d="M563 1784q-46 0 -77 32.5t-31 79.5q0 43 31.5 75t76.5 32t77 -32t32 -75q0 -47 -31.5 -79.5t-77.5 -32.5zM961 1784q-47 0 -78 32t-31 80q0 44 31.5 75.5t77.5 31.5q44 0 75 -32t31 -75q0 -47 -31 -79.5t-75 -32.5zM748 -35q-263 0 -407 167t-144 448v1017h145v-1009
q0 -240 111 -364t315 -124q203 0 316.5 125t113.5 363v1009h145v-1597h-143q0 77 23 260h-25q-63 -156 -172.5 -225.5t-277.5 -69.5z" />
    <glyph glyph-name="Ugrave.ss01" horiz-adv-x="1560" 
d="M856 1720h-127l-340 324h207zM748 -35q-263 0 -407 167t-144 448v1017h145v-1009q0 -240 111 -364t315 -124q203 0 316.5 125t113.5 363v1009h145v-1597h-143q0 77 23 260h-25q-63 -156 -172.5 -225.5t-277.5 -69.5z" />
    <glyph glyph-name="Uhungarumlaut.ss01" horiz-adv-x="1560" 
d="M909 2044l-278 -324h-125l213 324h190zM1235 2044l-297 -324h-123l229 324h191zM748 -35q-263 0 -407 167t-144 448v1017h145v-1009q0 -240 111 -364t315 -124q203 0 316.5 125t113.5 363v1009h145v-1597h-143q0 77 23 260h-25q-63 -156 -172.5 -225.5t-277.5 -69.5z" />
    <glyph glyph-name="Umacron.ss01" horiz-adv-x="1560" 
d="M1100 1829h-672v117h672v-117zM748 -35q-263 0 -407 167t-144 448v1017h145v-1009q0 -240 111 -364t315 -124q203 0 316.5 125t113.5 363v1009h145v-1597h-143q0 77 23 260h-25q-63 -156 -172.5 -225.5t-277.5 -69.5z" />
    <glyph glyph-name="Uogonek.ss01" horiz-adv-x="1560" 
d="M1335 -365q39 0 88 15v-99q-55 -14 -100 -14q-117 0 -194.5 62.5t-77.5 171.5q0 137 159 229h-10q0 77 23 260h-25q-63 -156 -172.5 -225.5t-277.5 -69.5q-263 0 -407 167t-144 448v1017h145v-1009q0 -240 111 -364t315 -124q203 0 316.5 125t113.5 363v1009h145v-1597
h-10q-176 -83 -176 -209q0 -69 50.5 -112.5t127.5 -43.5z" />
    <glyph glyph-name="Uring.ss01" horiz-adv-x="1560" 
d="M764 1714q-98 0 -162.5 63t-64.5 158q0 94 64.5 156.5t162.5 62.5q96 0 160.5 -62t64.5 -157q0 -96 -64.5 -158.5t-160.5 -62.5zM764 1806q57 0 94 35t37 94q0 57 -37 92t-94 35q-59 0 -97 -34.5t-38 -92.5q0 -59 37.5 -94t97.5 -35zM748 -35q-263 0 -407 167t-144 448
v1017h145v-1009q0 -240 111 -364t315 -124q203 0 316.5 125t113.5 363v1009h145v-1597h-143q0 77 23 260h-25q-63 -156 -172.5 -225.5t-277.5 -69.5z" />
    <glyph glyph-name="V.ss01" horiz-adv-x="1519" 
d="M877 0h-236l-610 1597h155q372 -989 537 -1445h80q187 523 530 1445h156z" />
    <glyph glyph-name="W.ss01" horiz-adv-x="2326" 
d="M733 0h-180l-516 1597h158l440 -1402h10l391 1402h271l379 -1402h12l434 1402h158l-514 -1597h-181l-381 1454h-86z" />
    <glyph glyph-name="Wacute.ss01" horiz-adv-x="2326" 
d="M1546 2044l-340 -324h-127l260 324h207zM733 0h-180l-516 1597h158l440 -1402h10l391 1402h271l379 -1402h12l434 1402h158l-514 -1597h-181l-381 1454h-86z" />
    <glyph glyph-name="Wcircumflex.ss01" horiz-adv-x="2326" 
d="M936 1720h-127l268 308h172l269 -308h-129q-47 44 -72.5 70t-63 73.5t-65.5 96.5h-47q-28 -49 -66 -96.5t-64.5 -73.5t-74.5 -70zM733 0h-180l-516 1597h158l440 -1402h10l391 1402h271l379 -1402h12l434 1402h158l-514 -1597h-181l-381 1454h-86z" />
    <glyph glyph-name="Wdieresis.ss01" horiz-adv-x="2326" 
d="M965 1784q-46 0 -77.5 32.5t-31.5 79.5q0 43 32 75t77 32t76.5 -32t31.5 -75q0 -47 -31 -79.5t-77 -32.5zM1362 1784q-47 0 -78 32t-31 80q0 44 31.5 75.5t77.5 31.5q44 0 75 -32t31 -75q0 -47 -31 -79.5t-75 -32.5zM733 0h-180l-516 1597h158l440 -1402h10l391 1402h271
l379 -1402h12l434 1402h158l-514 -1597h-181l-381 1454h-86z" />
    <glyph glyph-name="Wgrave.ss01" horiz-adv-x="2326" 
d="M1255 1720h-127l-340 324h207zM733 0h-180l-516 1597h158l440 -1402h10l391 1402h271l379 -1402h12l434 1402h158l-514 -1597h-181l-381 1454h-86z" />
    <glyph glyph-name="X.ss01" horiz-adv-x="1413" 
d="M193 0h-166l544 815l-4 12l-526 770h164q149 -215 465 -706h75q283 439 465 706h162l-526 -770l-4 -12l544 -815h-161q-139 211 -480 750h-75q-304 -480 -477 -750z" />
    <glyph glyph-name="Y.ss01" horiz-adv-x="1392" 
d="M451 0h-152q209 358 375 590q-247 372 -623 1007h160q359 -610 510 -897h24q160 336 494 897h158z" />
    <glyph glyph-name="Yacute.ss01" horiz-adv-x="1392" 
d="M1100 2044l-338 -324h-127l260 324h205zM451 0h-152q209 358 375 590q-247 372 -623 1007h160q359 -610 510 -897h24q160 336 494 897h158z" />
    <glyph glyph-name="Ycircumflex.ss01" horiz-adv-x="1392" 
d="M496 1720h-127l268 308h172l268 -308h-129q-45 43 -71.5 70t-63.5 73.5t-65 96.5h-48q-28 -50 -65.5 -96.5t-64.5 -73.5t-74 -70zM451 0h-152q209 358 375 590q-247 372 -623 1007h160q359 -610 510 -897h24q160 336 494 897h158z" />
    <glyph glyph-name="Ydieresis.ss01" horiz-adv-x="1392" 
d="M524 1784q-46 0 -77 32.5t-31 79.5q0 43 31.5 75t76.5 32t77 -32t32 -75q0 -47 -31.5 -79.5t-77.5 -32.5zM922 1784q-47 0 -78 32t-31 80q0 44 31.5 75.5t77.5 31.5q44 0 75 -32t31 -75q0 -47 -31 -79.5t-75 -32.5zM451 0h-152q209 358 375 590q-247 372 -623 1007h160
q359 -610 510 -897h24q160 336 494 897h158z" />
    <glyph glyph-name="Ygrave.ss01" horiz-adv-x="1392" 
d="M815 1720h-127l-340 324h207zM451 0h-152q209 358 375 590q-247 372 -623 1007h160q359 -610 510 -897h24q160 336 494 897h158z" />
    <glyph glyph-name="Z.ss01" horiz-adv-x="1392" 
d="M1311 0h-1309q765 1020 1112 1473l-10 20q-344 -29 -977 -29v133h1241q-50 -66 -258.5 -344.5t-300 -400t-255 -334.5t-300.5 -387l10 -22q164 14 367 21t321 8t359 1v-139z" />
    <glyph glyph-name="Zacute.ss01" horiz-adv-x="1392" 
d="M1071 2044l-340 -324h-127l260 324h207zM1311 0h-1309q765 1020 1112 1473l-10 20q-344 -29 -977 -29v133h1241q-50 -66 -258.5 -344.5t-300 -400t-255 -334.5t-300.5 -387l10 -22q164 14 367 21t321 8t359 1v-139z" />
    <glyph glyph-name="Zcaron.ss01" horiz-adv-x="1392" 
d="M774 1720h-174l-266 308h127q4 -4 21 -20t22.5 -21t21 -20t22 -22.5t20.5 -22t21.5 -24t19.5 -24.5t20.5 -28t18 -28.5t18.5 -31.5h47q27 51 64.5 99t61 71.5t74.5 71.5h129zM1311 0h-1309q765 1020 1112 1473l-10 20q-344 -29 -977 -29v133h1241q-50 -66 -258.5 -344.5
t-300 -400t-255 -334.5t-300.5 -387l10 -22q164 14 367 21t321 8t359 1v-139z" />
    <glyph glyph-name="Zdotaccent.ss01" horiz-adv-x="1392" 
d="M692 1786q-49 0 -81.5 33.5t-32.5 83.5q0 46 32.5 79t81.5 33q47 0 80 -33t33 -79q0 -49 -33 -83t-80 -34zM1311 0h-1309q765 1020 1112 1473l-10 20q-344 -29 -977 -29v133h1241q-50 -66 -258.5 -344.5t-300 -400t-255 -334.5t-300.5 -387l10 -22q164 14 367 21t321 8
t359 1v-139z" />
    <glyph glyph-name="Q.ss02" horiz-adv-x="1816" 
d="M961 -31q17 -94 10 -245q93 13 202 20t171 7.5t192 0.5v-129q-446 0 -674 15q-11 206 6 329q-160 11 -300.5 77.5t-242 175t-160.5 258t-59 319.5q0 177 63.5 332.5t172 265t256 172.5t311.5 63q166 0 315 -65t255.5 -176t168.5 -265.5t62 -326.5q0 -220 -95 -402
t-266 -294t-388 -132zM264 797q0 -278 167 -468.5t441 -224.5q-13 77 -19 170.5t-6.5 146.5t-0.5 165h141q0 -322 -29 -486q124 15 233.5 73.5t189 148.5t125.5 213t46 262q0 147 -51.5 277.5t-139 221.5t-205 144t-245.5 53q-129 0 -247.5 -52.5t-206.5 -143.5
t-140.5 -221.5t-52.5 -278.5z" />
    <glyph glyph-name="A.ss07" 
d="M1020 -315q-197 0 -371.5 71t-298.5 193.5t-196 293.5t-72 365q0 198 72 372.5t196 298.5t298 195.5t372 71.5q200 0 375.5 -71.5t301 -195.5t197.5 -298.5t72 -372.5q0 -259 -123 -470.5t-339.5 -332t-483.5 -120.5zM971 1096l-389 -963h106q96 236 125 338l10 8
q99 -12 207 -12t199 12l6 -8q37 -135 123 -338h108l-389 963h-106zM848 545l-2 4q111 245 170 444h16q58 -206 164 -444l-2 -4q-73 12 -164 12q-88 0 -182 -12z" />
    <glyph glyph-name="B.ss07" 
d="M1020 -315q-197 0 -371.5 71t-298.5 193.5t-196 293.5t-72 365q0 198 72 372.5t196 298.5t298 195.5t372 71.5q200 0 375.5 -71.5t301 -195.5t197.5 -298.5t72 -372.5q0 -259 -123 -470.5t-339.5 -332t-483.5 -120.5zM713 1096v-963h389q123 0 211 72.5t88 189.5
q0 90 -54.5 149t-152.5 74v9q83 22 130.5 79t47.5 136q0 112 -87 183t-224 71h-348zM809 649l-4 8q17 181 -4 353l8 6q96 -17 231 -17q100 0 161 -47t61 -123q0 -77 -59 -121t-154 -44q-146 0 -240 -15zM809 215l-8 8q21 173 4 357l6 6q99 -15 256 -15q101 0 163 -49
t62 -127q0 -75 -58.5 -120.5t-156.5 -45.5q-172 0 -268 -14z" />
    <glyph glyph-name="C.ss07" 
d="M1020 -315q-197 0 -371.5 71t-298.5 193.5t-196 293.5t-72 365q0 198 72 372.5t196 298.5t298 195.5t372 71.5q200 0 375.5 -71.5t301 -195.5t197.5 -298.5t72 -372.5q0 -259 -123 -470.5t-339.5 -332t-483.5 -120.5zM1053 113q169 0 288.5 92.5t169.5 259.5l-94 33
q-32 -124 -123 -205.5t-233 -81.5q-60 0 -115.5 15t-105 47.5t-86.5 78.5t-58.5 112.5t-21.5 145.5q0 179 106 293.5t269 114.5q116 0 204 -62.5t127 -167.5l95 37q-29 95 -98.5 162.5t-153.5 98t-176 30.5q-205 0 -343.5 -142t-138.5 -362q0 -221 136 -360t352 -139z" />
    <glyph glyph-name="D.ss07" 
d="M1020 -315q-197 0 -371.5 71t-298.5 193.5t-196 293.5t-72 365q0 198 72 372.5t196 298.5t298 195.5t372 71.5q200 0 375.5 -71.5t301 -195.5t197.5 -298.5t72 -372.5q0 -259 -123 -470.5t-339.5 -332t-483.5 -120.5zM676 1096v-963h354q203 0 325 133t122 355
q0 224 -121.5 349.5t-337.5 125.5h-342zM772 215l-6 8q25 369 0 787l6 6q87 -17 225 -17q170 0 270.5 -98t100.5 -287q0 -180 -89.5 -282.5t-244.5 -102.5q-168 0 -262 -14z" />
    <glyph glyph-name="E.ss07" 
d="M1020 -315q-197 0 -371.5 71t-298.5 193.5t-196 293.5t-72 365q0 198 72 372.5t196 298.5t298 195.5t372 71.5q200 0 375.5 -71.5t301 -195.5t197.5 -298.5t72 -372.5q0 -259 -123 -470.5t-339.5 -332t-483.5 -120.5zM735 1096v-963h623v98q-337 0 -527 -16l-8 6
q20 178 2 369l6 8q158 -18 492 -18v96q-305 0 -492 -17l-6 9q18 178 -2 342l8 6q39 -4 77 -7t79.5 -5t71 -3t76.5 -1.5t68.5 -0.5h75h69.5v97h-613z" />
    <glyph glyph-name="F.ss07" 
d="M1020 -315q-197 0 -371.5 71t-298.5 193.5t-196 293.5t-72 365q0 198 72 372.5t196 298.5t298 195.5t372 71.5q200 0 375.5 -71.5t301 -195.5t197.5 -298.5t72 -372.5q0 -259 -123 -470.5t-339.5 -332t-483.5 -120.5zM754 1096v-963h104q0 295 -14 447l6 8
q186 -19 481 -19v97q-317 0 -481 -17l-6 8q21 178 0 353l8 6q188 -19 504 -19v99h-602z" />
    <glyph glyph-name="G.ss07" 
d="M1020 -315q-197 0 -371.5 71t-298.5 193.5t-196 293.5t-72 365q0 198 72 372.5t196 298.5t298 195.5t372 71.5q200 0 375.5 -71.5t301 -195.5t197.5 -298.5t72 -372.5q0 -259 -123 -470.5t-339.5 -332t-483.5 -120.5zM1042 113q271 0 371 258h14q-7 -45 -10.5 -86t-4 -59
t0 -53t0.5 -40h88v479h-432v-92q163 0 348 27l4 -4q-28 -153 -125 -242.5t-239 -89.5q-73 0 -139.5 24.5t-122 71.5t-88.5 125.5t-33 177.5q0 179 106 293.5t269 114.5q114 0 202.5 -61.5t128.5 -168.5l95 37q-29 95 -98.5 162.5t-153.5 98t-176 30.5q-206 0 -344 -142.5
t-138 -363.5q0 -218 134 -357.5t343 -139.5z" />
    <glyph glyph-name="H.ss07" 
d="M1020 -315q-197 0 -371.5 71t-298.5 193.5t-196 293.5t-72 365q0 198 72 372.5t196 298.5t298 195.5t372 71.5q200 0 375.5 -71.5t301 -195.5t197.5 -298.5t72 -372.5q0 -259 -123 -470.5t-339.5 -332t-483.5 -120.5zM653 1096v-963h103q0 278 -13 449l7 6q289 -33 548 0
l7 -6q-13 -178 -13 -449h103v963h-103q0 -269 13 -434l-7 -7q-257 20 -548 0l-7 7q13 155 13 434h-103z" />
    <glyph glyph-name="I.ss07" 
d="M1020 -315q-197 0 -371.5 71t-298.5 193.5t-196 293.5t-72 365q0 198 72 372.5t196 298.5t298 195.5t372 71.5q200 0 375.5 -71.5t301 -195.5t197.5 -298.5t72 -372.5q0 -259 -123 -470.5t-339.5 -332t-483.5 -120.5zM973 1096v-963h102v963h-102z" />
    <glyph glyph-name="J.ss07" 
d="M1020 -315q-197 0 -371.5 71t-298.5 193.5t-196 293.5t-72 365q0 198 72 372.5t196 298.5t298 195.5t372 71.5q200 0 375.5 -71.5t301 -195.5t197.5 -298.5t72 -372.5q0 -259 -123 -470.5t-339.5 -332t-483.5 -120.5zM989 123q56 0 101 16.5t73.5 40t48.5 62t30 69.5
t15.5 76t6 68t0.5 59v592h-103v-614q0 -40 -1.5 -68t-11.5 -70t-27 -68.5t-51.5 -46.5t-82.5 -20q-39 0 -73 11.5t-64 37t-48 73t-18 112.5v30l-98 -12v-35q0 -83 26 -145.5t70 -98t96 -52.5t111 -17z" />
    <glyph glyph-name="K.ss07" 
d="M1020 -315q-197 0 -371.5 71t-298.5 193.5t-196 293.5t-72 365q0 198 72 372.5t196 298.5t298 195.5t372 71.5q200 0 375.5 -71.5t301 -195.5t197.5 -298.5t72 -372.5q0 -259 -123 -470.5t-339.5 -332t-483.5 -120.5zM719 1096v-963h102q0 221 -6 340q64 47 129 137h2
q42 -61 94 -131t81.5 -109t98 -127.5t85.5 -109.5h127q-282 366 -428 537v8q120 113 407 418h-127q-263 -277 -479 -518h-6q7 47 11 97t6.5 86t3.5 90.5t1 79.5v85.5v79.5h-102z" />
    <glyph glyph-name="L.ss07" 
d="M1020 -315q-197 0 -371.5 71t-298.5 193.5t-196 293.5t-72 365q0 198 72 372.5t196 298.5t298 195.5t372 71.5q200 0 375.5 -71.5t301 -195.5t197.5 -298.5t72 -372.5q0 -259 -123 -470.5t-339.5 -332t-483.5 -120.5zM811 1096v-963h588v98q-318 0 -492 -16l-8 8
q14 301 14 873h-102z" />
    <glyph glyph-name="M.ss07" 
d="M1020 -315q-197 0 -371.5 71t-298.5 193.5t-196 293.5t-72 365q0 198 72 372.5t196 298.5t298 195.5t372 71.5q200 0 375.5 -71.5t301 -195.5t197.5 -298.5t72 -372.5q0 -259 -123 -470.5t-339.5 -332t-483.5 -120.5zM532 1096v-963h105q0 39 -0.5 181t-1.5 210t-7 187.5
t-18 224.5h6q95 -222 363 -803h88q277 601 365 803h4q-7 -73 -12.5 -151t-8 -135t-3.5 -139.5t-1.5 -124t0 -132t0.5 -121.5h105v963h-105q-217 -434 -385 -842h-6q-165 414 -385 842h-103z" />
    <glyph glyph-name="N.ss07" 
d="M1020 -315q-197 0 -371.5 71t-298.5 193.5t-196 293.5t-72 365q0 198 72 372.5t196 298.5t298 195.5t372 71.5q200 0 375.5 -71.5t301 -195.5t197.5 -298.5t72 -372.5q0 -259 -123 -470.5t-339.5 -332t-483.5 -120.5zM655 1096v-963h103v125.5v137.5t-1 124.5t-3 142.5
t-5.5 133t-9.5 150h4q266 -397 582 -813h92v963h-102v-108v-120t0.5 -107t2 -123.5t3.5 -112t5.5 -131t8.5 -124.5h-4q-307 464 -583 826h-93z" />
    <glyph glyph-name="O.ss07" 
d="M1020 -315q-197 0 -371.5 71t-298.5 193.5t-196 293.5t-72 365q0 198 72 372.5t196 298.5t298 195.5t372 71.5q200 0 375.5 -71.5t301 -195.5t197.5 -298.5t72 -372.5q0 -259 -123 -470.5t-339.5 -332t-483.5 -120.5zM1024 113q204 0 344.5 144.5t140.5 356.5t-140 357
t-343 145q-205 0 -344 -144.5t-139 -357.5t138.5 -357t342.5 -144zM651 614q0 169 108.5 286.5t266.5 117.5q155 0 264 -117.5t109 -286.5t-109 -286t-264 -117q-157 0 -266 116.5t-109 286.5z" />
    <glyph glyph-name="P.ss07" 
d="M1020 -315q-197 0 -371.5 71t-298.5 193.5t-196 293.5t-72 365q0 198 72 372.5t196 298.5t298 195.5t372 71.5q200 0 375.5 -71.5t301 -195.5t197.5 -298.5t72 -372.5q0 -259 -123 -470.5t-339.5 -332t-483.5 -120.5zM737 1096v-963h105q0 240 -13 399q86 -20 269 -20
q120 0 209.5 78t89.5 217q0 72 -26.5 128.5t-72 91t-101.5 52t-118 17.5h-342zM834 590l-7 6q20 227 -2 414l9 6q87 -17 229 -17q101 0 163 -50.5t62 -143.5q0 -97 -58 -148t-159 -51q-151 0 -237 -16z" />
    <glyph glyph-name="Q.ss07" 
d="M1020 -315q-197 0 -371.5 71t-298.5 193.5t-196 293.5t-72 365q0 198 72 372.5t196 298.5t298 195.5t372 71.5q200 0 375.5 -71.5t301 -195.5t197.5 -298.5t72 -372.5q0 -259 -123 -470.5t-339.5 -332t-483.5 -120.5zM1403 61l74 64q-6 7 -26 30t-30 34t-27.5 30
t-33.5 34t-33 30q86 67 132 165.5t46 215.5q0 212 -139.5 356.5t-343.5 144.5q-207 0 -347 -144.5t-140 -356.5q0 -140 63.5 -255.5t175 -181t246.5 -65.5q139 0 248 80q39 -68 135 -181zM643 664q0 171 109 287t270 116q158 0 266.5 -116.5t108.5 -286.5q0 -184 -121 -322
q-80 119 -193 248l-73 -62q122 -148 204 -223q-99 -51 -192 -51q-160 0 -269.5 119t-109.5 291z" />
    <glyph glyph-name="R.ss07" 
d="M1020 -315q-197 0 -371.5 71t-298.5 193.5t-196 293.5t-72 365q0 198 72 372.5t196 298.5t298 195.5t372 71.5q200 0 375.5 -71.5t301 -195.5t197.5 -298.5t72 -372.5q0 -259 -123 -470.5t-339.5 -332t-483.5 -120.5zM741 1096v-963h105q0 246 -15 399q90 -18 218 -18
l251 -381h117q-188 282 -276 395v4q118 12 189 84t71 191q0 140 -93.5 214.5t-224.5 74.5h-342zM838 588l-7 6q19 195 -2 416l9 6q102 -15 229 -15q101 0 163 -52.5t62 -145.5q0 -98 -58 -149.5t-159 -51.5q-151 0 -237 -14z" />
    <glyph glyph-name="S.ss07" 
d="M1020 -315q-197 0 -371.5 71t-298.5 193.5t-196 293.5t-72 365q0 198 72 372.5t196 298.5t298 195.5t372 71.5q200 0 375.5 -71.5t301 -195.5t197.5 -298.5t72 -372.5q0 -259 -123 -470.5t-339.5 -332t-483.5 -120.5zM1040 113q142 0 237 81t95 205q0 48 -16.5 86.5
t-38.5 61.5t-60 44t-63.5 30.5t-67.5 22.5q-15 5 -22 7l-92 31q-26 8 -44.5 14.5t-49 22t-50 33t-34.5 47t-15 63.5q0 69 55.5 112.5t143.5 43.5q86 0 149 -47.5t88 -132.5l93 39q-28 109 -114 174t-210 65q-80 0 -150 -28t-117.5 -89.5t-47.5 -144.5q0 -51 20 -94.5t46 -70
t67.5 -50t68.5 -34.5t66 -23l88 -27q93 -29 120 -44q75 -41 75 -126q0 -58 -34 -99t-82.5 -58t-103.5 -17q-100 0 -172 60t-98 167l-94 -35q19 -78 58.5 -136.5t90.5 -90.5t104.5 -47.5t110.5 -15.5z" />
    <glyph glyph-name="T.ss07" 
d="M1020 -315q-197 0 -371.5 71t-298.5 193.5t-196 293.5t-72 365q0 198 72 372.5t196 298.5t298 195.5t372 71.5q200 0 375.5 -71.5t301 -195.5t197.5 -298.5t72 -372.5q0 -259 -123 -470.5t-339.5 -332t-483.5 -120.5zM971 133h104q0 580 -10 881q125 -15 332 -15v97h-750
v-97q207 0 332 15q-8 -241 -8 -881z" />
    <glyph glyph-name="U.ss07" 
d="M1020 -315q-197 0 -371.5 71t-298.5 193.5t-196 293.5t-72 365q0 198 72 372.5t196 298.5t298 195.5t372 71.5q200 0 375.5 -71.5t301 -195.5t197.5 -298.5t72 -372.5q0 -259 -123 -470.5t-339.5 -332t-483.5 -120.5zM1020 123q176 0 264 101.5t88 271.5v610h-104v-606
q0 -281 -244 -281q-246 0 -246 281v606h-102v-610q0 -172 85 -272.5t259 -100.5z" />
    <glyph glyph-name="V.ss07" 
d="M1020 -315q-197 0 -371.5 71t-298.5 193.5t-196 293.5t-72 365q0 198 72 372.5t196 298.5t298 195.5t372 71.5q200 0 375.5 -71.5t301 -195.5t197.5 -298.5t72 -372.5q0 -259 -123 -470.5t-339.5 -332t-483.5 -120.5zM584 1096l391 -963h106l389 963h-108
q-206 -506 -328 -860h-8q-120 350 -334 860h-108z" />
    <glyph glyph-name="W.ss07" 
d="M1020 -315q-197 0 -371.5 71t-298.5 193.5t-196 293.5t-72 365q0 198 72 372.5t196 298.5t298 195.5t372 71.5q200 0 375.5 -71.5t301 -195.5t197.5 -298.5t72 -372.5q0 -259 -123 -470.5t-339.5 -332t-483.5 -120.5zM344 1096l311 -963h117q147 440 248 848h8
q101 -402 250 -848h115l311 963h-111q-130 -394 -254 -854h-6q-95 357 -254 854h-110q-166 -533 -252 -852h-6q-95 364 -254 852h-113z" />
    <glyph glyph-name="X.ss07" 
d="M1020 -315q-197 0 -371.5 71t-298.5 193.5t-196 293.5t-72 365q0 198 72 372.5t196 298.5t298 195.5t372 71.5q200 0 375.5 -71.5t301 -195.5t197.5 -298.5t72 -372.5q0 -259 -123 -470.5t-339.5 -332t-483.5 -120.5zM631 133h121q201 303 272 428h4q84 -147 270 -428
h121q-27 38 -103.5 151t-130 190t-108.5 149v8q124 163 336 465h-121q-171 -244 -264 -404h-4q-96 162 -266 404h-121q210 -299 334 -465v-8q-53 -72 -108.5 -151t-127.5 -185.5t-104 -153.5z" />
    <glyph glyph-name="Y.ss07" 
d="M1020 -315q-197 0 -371.5 71t-298.5 193.5t-196 293.5t-72 365q0 198 72 372.5t196 298.5t298 195.5t372 71.5q200 0 375.5 -71.5t301 -195.5t197.5 -298.5t72 -372.5q0 -259 -123 -470.5t-339.5 -332t-483.5 -120.5zM971 133h104q0 235 -8 352q129 205 367 611h-113
q-203 -346 -295 -535h-4q-104 211 -295 535h-115q203 -346 367 -611q-8 -117 -8 -352z" />
    <glyph glyph-name="Z.ss07" 
d="M1020 -315q-197 0 -371.5 71t-298.5 193.5t-196 293.5t-72 365q0 198 72 372.5t196 298.5t298 195.5t372 71.5q200 0 375.5 -71.5t301 -195.5t197.5 -298.5t72 -372.5q0 -259 -123 -470.5t-339.5 -332t-483.5 -120.5zM668 217v-84h739v98q-386 0 -629 -22l-4 4
q448 566 623 803v80h-705v-97q306 0 594 27v-4q-437 -562 -618 -805z" />
    <glyph glyph-name="A.ss08" 
d="M1020 -315q-197 0 -371.5 71t-298.5 193.5t-196 293.5t-72 365q0 198 72 372.5t196 298.5t298 195.5t372 71.5q200 0 375.5 -71.5t301 -195.5t197.5 -298.5t72 -372.5q0 -259 -123 -470.5t-339.5 -332t-483.5 -120.5zM1020 -225q180 0 338 64t271 174.5t178 265.5t65 331
q0 178 -65 335.5t-178 269.5t-271 176.5t-338 64.5q-178 0 -335 -65t-269.5 -176.5t-178 -269t-65.5 -335.5q0 -175 65.5 -330t178 -266t269.5 -175t335 -64zM791 276h-78l274 676h76l274 -676h-80q-63 155 -86 238l-4 4q-86 -8 -137 -8q-57 0 -143 8l-6 -4
q-28 -90 -90 -238zM903 569q97 9 127 9q32 0 115 -9q-79 175 -117 310h-6q-50 -160 -119 -310z" />
    <glyph glyph-name="B.ss08" 
d="M1020 -315q-197 0 -371.5 71t-298.5 193.5t-196 293.5t-72 365q0 198 72 372.5t196 298.5t298 195.5t372 71.5q200 0 375.5 -71.5t301 -195.5t197.5 -298.5t72 -372.5q0 -259 -123 -470.5t-339.5 -332t-483.5 -120.5zM1020 -225q180 0 338 64t271 174.5t178 265.5t65 331
q0 178 -65 335.5t-178 269.5t-271 176.5t-338 64.5q-178 0 -335 -65t-269.5 -176.5t-178 -269t-65.5 -335.5q0 -175 65.5 -330t178 -266t269.5 -175t335 -64zM1073 276h-272v676h243q97 0 158.5 -50.5t61.5 -129.5q0 -55 -33 -95.5t-90 -55.5q68 -14 105.5 -55.5
t37.5 -102.5q0 -84 -61 -135.5t-150 -51.5zM866 643l2 -2q61 8 168 8q68 0 110 32.5t42 84.5t-44.5 84.5t-113.5 32.5q-101 0 -162 10l-2 -2q12 -118 0 -248zM866 338l2 -2q70 10 189 10q67 0 108 31t41 84q0 55 -43 89t-112 34q-117 0 -183 8l-2 -2q12 -132 0 -252z" />
    <glyph glyph-name="C.ss08" 
d="M1020 -315q-197 0 -371.5 71t-298.5 193.5t-196 293.5t-72 365q0 198 72 372.5t196 298.5t298 195.5t372 71.5q200 0 375.5 -71.5t301 -195.5t197.5 -298.5t72 -372.5q0 -259 -123 -470.5t-339.5 -332t-483.5 -120.5zM1020 -225q180 0 338 64t271 174.5t178 265.5t65 331
q0 178 -65 335.5t-178 269.5t-271 176.5t-338 64.5q-178 0 -335 -65t-269.5 -176.5t-178 -269t-65.5 -335.5q0 -175 65.5 -330t178 -266t269.5 -175t335 -64zM1044 262q-151 0 -247.5 97.5t-96.5 252.5t97.5 255t240.5 100q110 0 191.5 -55.5t109.5 -149.5l-65 -29
q-29 76 -91.5 119t-142.5 43q-114 0 -187 -79.5t-73 -205.5q0 -133 79.5 -205.5t189.5 -72.5q93 0 159.5 54.5t89.5 150.5l68 -25q-34 -118 -118.5 -184t-203.5 -66z" />
    <glyph glyph-name="D.ss08" 
d="M1020 -315q-197 0 -371.5 71t-298.5 193.5t-196 293.5t-72 365q0 198 72 372.5t196 298.5t298 195.5t372 71.5q200 0 375.5 -71.5t301 -195.5t197.5 -298.5t72 -372.5q0 -259 -123 -470.5t-339.5 -332t-483.5 -120.5zM1020 -225q180 0 338 64t271 174.5t178 265.5t65 331
q0 178 -65 335.5t-178 269.5t-271 176.5t-338 64.5q-178 0 -335 -65t-269.5 -176.5t-178 -269t-65.5 -335.5q0 -175 65.5 -330t178 -266t269.5 -175t335 -64zM1028 276h-248v676h240q151 0 236 -88.5t85 -245.5q0 -155 -86 -248.5t-227 -93.5zM844 338l4 -2q66 10 184 10
q108 0 171 71.5t63 196.5q0 133 -69.5 201t-188.5 68q-105 0 -160 10l-4 -2q18 -276 0 -553z" />
    <glyph glyph-name="E.ss08" 
d="M1020 -315q-197 0 -371.5 71t-298.5 193.5t-196 293.5t-72 365q0 198 72 372.5t196 298.5t298 195.5t372 71.5q200 0 375.5 -71.5t301 -195.5t197.5 -298.5t72 -372.5q0 -259 -123 -470.5t-339.5 -332t-483.5 -120.5zM1020 -225q180 0 338 64t271 174.5t178 265.5t65 331
q0 178 -65 335.5t-178 269.5t-271 176.5t-338 64.5q-178 0 -335 -65t-269.5 -176.5t-178 -269t-65.5 -335.5q0 -175 65.5 -330t178 -266t269.5 -175t335 -64zM1260 276h-441v676h432v-69q-28 0 -108 0.5t-138 2.5t-116 7l-4 -2q14 -116 2 -240l4 -4q123 12 344 12v-69
q-243 0 -344 10l-4 -2q12 -138 -2 -260l4 -2q131 12 371 12v-72z" />
    <glyph glyph-name="F.ss08" 
d="M1020 -315q-197 0 -371.5 71t-298.5 193.5t-196 293.5t-72 365q0 198 72 372.5t196 298.5t298 195.5t372 71.5q200 0 375.5 -71.5t301 -195.5t197.5 -298.5t72 -372.5q0 -259 -123 -470.5t-339.5 -332t-483.5 -120.5zM1020 -225q180 0 338 64t271 174.5t178 265.5t65 331
q0 178 -65 335.5t-178 269.5t-271 176.5t-338 64.5q-178 0 -335 -65t-269.5 -176.5t-178 -269t-65.5 -335.5q0 -175 65.5 -330t178 -266t269.5 -175t335 -64zM909 276h-75v676h423v-69q-229 0 -354 10l-4 -2q15 -122 0 -246l4 -2q97 8 338 8v-67q-215 0 -338 10l-4 -4
q10 -106 10 -314z" />
    <glyph glyph-name="G.ss08" 
d="M1020 1546q200 0 375.5 -71.5t301 -195.5t197.5 -298.5t72 -372.5q0 -259 -123 -470.5t-339.5 -332t-483.5 -120.5q-197 0 -371.5 71t-298.5 193.5t-196 293.5t-72 365q0 198 72 372.5t196 298.5t298 195.5t372 71.5zM1020 -225q180 0 338 64t271 174.5t178 265.5t65 331
q0 178 -65 335.5t-178 269.5t-271 176.5t-338 64.5q-178 0 -335 -65t-269.5 -176.5t-178 -269t-65.5 -335.5q0 -175 65.5 -330t178 -266t269.5 -175t335 -64zM1053 549v65h307v-338h-66q0 13 -1.5 44.5t-1 56.5t4.5 49q-74 -164 -260 -164q-148 0 -242 98t-94 250
q0 155 96.5 256t241.5 101q110 0 191.5 -55.5t109.5 -149.5l-65 -29q-29 76 -91.5 119t-142.5 43q-114 0 -187 -79.5t-73 -205.5q0 -134 79 -206t188 -72q98 0 165 62.5t86 170.5q-138 -19 -245 -16z" />
    <glyph glyph-name="H.ss08" 
d="M1020 -315q-197 0 -371.5 71t-298.5 193.5t-196 293.5t-72 365q0 198 72 372.5t196 298.5t298 195.5t372 71.5q200 0 375.5 -71.5t301 -195.5t197.5 -298.5t72 -372.5q0 -259 -123 -470.5t-339.5 -332t-483.5 -120.5zM1020 -225q180 0 338 64t271 174.5t178 265.5t65 331
q0 178 -65 335.5t-178 269.5t-271 176.5t-338 64.5q-178 0 -335 -65t-269.5 -176.5t-178 -269t-65.5 -335.5q0 -175 65.5 -330t178 -266t269.5 -175t335 -64zM838 276h-74v676h74q0 -193 -9 -303l5 -4q202 15 383 0l4 4q-11 114 -11 303h76v-676h-76q0 188 11 314l-4 4
q-181 -24 -386 0l-2 -4q9 -123 9 -314z" />
    <glyph glyph-name="I.ss08" 
d="M1020 -315q-197 0 -371.5 71t-298.5 193.5t-196 293.5t-72 365q0 198 72 372.5t196 298.5t298 195.5t372 71.5q200 0 375.5 -71.5t301 -195.5t197.5 -298.5t72 -372.5q0 -259 -123 -470.5t-339.5 -332t-483.5 -120.5zM1020 -225q180 0 338 64t271 174.5t178 265.5t65 331
q0 178 -65 335.5t-178 269.5t-271 176.5t-338 64.5q-178 0 -335 -65t-269.5 -176.5t-178 -269t-65.5 -335.5q0 -175 65.5 -330t178 -266t269.5 -175t335 -64zM1061 276h-76v676h76v-676z" />
    <glyph glyph-name="J.ss08" 
d="M1020 -315q-197 0 -371.5 71t-298.5 193.5t-196 293.5t-72 365q0 198 72 372.5t196 298.5t298 195.5t372 71.5q200 0 375.5 -71.5t301 -195.5t197.5 -298.5t72 -372.5q0 -259 -123 -470.5t-339.5 -332t-483.5 -120.5zM1020 -225q180 0 338 64t271 174.5t178 265.5t65 331
q0 178 -65 335.5t-178 269.5t-271 176.5t-338 64.5q-178 0 -335 -65t-269.5 -176.5t-178 -269t-65.5 -335.5q0 -175 65.5 -330t178 -266t269.5 -175t335 -64zM999 268q-98 0 -155.5 59t-57.5 162v25l72 10v-24q0 -77 36.5 -120.5t102.5 -43.5q41 0 67.5 18.5t37 52.5
t13.5 59t3 60v432h74v-415q0 -22 -0.5 -35.5t-2.5 -41t-7.5 -46.5t-13.5 -44t-23 -42.5t-34.5 -33.5t-48 -24t-63.5 -8z" />
    <glyph glyph-name="K.ss08" 
d="M1020 1546q200 0 375.5 -71.5t301 -195.5t197.5 -298.5t72 -372.5q0 -259 -123 -470.5t-339.5 -332t-483.5 -120.5q-197 0 -371.5 71t-298.5 193.5t-196 293.5t-72 365q0 198 72 372.5t196 298.5t298 195.5t372 71.5zM1020 -225q180 0 338 64t271 174.5t178 265.5t65 331
q0 178 -65 335.5t-178 269.5t-271 176.5t-338 64.5q-178 0 -335 -65t-269.5 -176.5t-178 -269t-65.5 -335.5q0 -175 65.5 -330t178 -266t269.5 -175t335 -64zM1012 657v-4q144 -172 301 -377h-92q-150 189 -250 332q-39 -52 -90 -94q4 -82 4 -238h-74v676h74v-57.5v-62
t-0.5 -57t-2 -64t-4 -59t-6.5 -64.5q50 58 94 107t68.5 75.5t81.5 86.5t90 95h94q-9 -9 -118 -123t-170 -172z" />
    <glyph glyph-name="L.ss08" 
d="M1020 -315q-197 0 -371.5 71t-298.5 193.5t-196 293.5t-72 365q0 198 72 372.5t196 298.5t298 195.5t372 71.5q200 0 375.5 -71.5t301 -195.5t197.5 -298.5t72 -372.5q0 -259 -123 -470.5t-339.5 -332t-483.5 -120.5zM1020 -225q180 0 338 64t271 174.5t178 265.5t65 331
q0 178 -65 335.5t-178 269.5t-271 176.5t-338 64.5q-178 0 -335 -65t-269.5 -176.5t-178 -269t-65.5 -335.5q0 -175 65.5 -330t178 -266t269.5 -175t335 -64zM1288 276h-416v676h76q0 -401 -10 -614l4 -2q123 12 346 12v-72z" />
    <glyph glyph-name="M.ss08" 
d="M1020 1546q200 0 375.5 -71.5t301 -195.5t197.5 -298.5t72 -372.5q0 -259 -123 -470.5t-339.5 -332t-483.5 -120.5q-197 0 -371.5 71t-298.5 193.5t-196 293.5t-72 365q0 198 72 372.5t196 298.5t298 195.5t372 71.5zM1020 -225q180 0 338 64t271 174.5t178 265.5t65 331
q0 178 -65 335.5t-178 269.5t-271 176.5t-338 64.5q-178 0 -335 -65t-269.5 -176.5t-178 -269t-65.5 -335.5q0 -175 65.5 -330t178 -266t269.5 -175t335 -64zM1024 362q123 295 270 590h74v-676h-74v87.5v95t0.5 87t2 97t4 90t6.5 98.5q-80 -181 -252 -555h-62
q-154 331 -252 555q4 -47 6.5 -99t4 -90.5t2 -97t0.5 -87v-94.5v-87h-74v676h74q163 -320 270 -590z" />
    <glyph glyph-name="N.ss08" 
d="M1020 1546q200 0 375.5 -71.5t301 -195.5t197.5 -298.5t72 -372.5q0 -259 -123 -470.5t-339.5 -332t-483.5 -120.5q-197 0 -371.5 71t-298.5 193.5t-196 293.5t-72 365q0 198 72 372.5t196 298.5t298 195.5t372 71.5zM1020 -225q180 0 338 64t271 174.5t178 265.5t65 331
q0 178 -65 335.5t-178 269.5t-271 176.5t-338 64.5q-178 0 -335 -65t-269.5 -176.5t-178 -269t-65.5 -335.5q0 -175 65.5 -330t178 -266t269.5 -175t335 -64zM1239 377q-12 199 -12 575h73v-676h-65q-283 380 -406 566q11 -181 11 -566h-74v676h63q205 -266 410 -575z" />
    <glyph glyph-name="O.ss08" 
d="M1020 -315q-197 0 -371.5 71t-298.5 193.5t-196 293.5t-72 365q0 198 72 372.5t196 298.5t298 195.5t372 71.5q200 0 375.5 -71.5t301 -195.5t197.5 -298.5t72 -372.5q0 -259 -123 -470.5t-339.5 -332t-483.5 -120.5zM1020 -225q180 0 338 64t271 174.5t178 265.5t65 331
q0 178 -65 335.5t-178 269.5t-271 176.5t-338 64.5q-178 0 -335 -65t-269.5 -176.5t-178 -269t-65.5 -335.5q0 -175 65.5 -330t178 -266t269.5 -175t335 -64zM1024 262q-143 0 -240.5 101t-97.5 251q0 149 97.5 251t242.5 102q143 0 241.5 -102t98.5 -251t-98.5 -250.5
t-243.5 -101.5zM1026 332q109 0 184.5 82t75.5 200t-75.5 199.5t-184.5 81.5t-185.5 -81.5t-76.5 -199.5t76.5 -200t185.5 -82z" />
    <glyph glyph-name="P.ss08" 
d="M1020 -315q-197 0 -371.5 71t-298.5 193.5t-196 293.5t-72 365q0 198 72 372.5t196 298.5t298 195.5t372 71.5q200 0 375.5 -71.5t301 -195.5t197.5 -298.5t72 -372.5q0 -259 -123 -470.5t-339.5 -332t-483.5 -120.5zM1020 -225q180 0 338 64t271 174.5t178 265.5t65 331
q0 178 -65 335.5t-178 269.5t-271 176.5t-338 64.5q-178 0 -335 -65t-269.5 -176.5t-178 -269t-65.5 -335.5q0 -175 65.5 -330t178 -266t269.5 -175t335 -64zM895 276h-74v676h240q94 0 158.5 -52.5t64.5 -149.5q0 -98 -62 -153.5t-149 -55.5q-125 0 -186 14q8 -83 8 -279z
M887 602l2 -4q61 12 168 12q71 0 111 35t40 103q0 63 -43.5 99t-113.5 36q-105 0 -162 10l-2 -2q12 -145 0 -289z" />
    <glyph glyph-name="Q.ss08" 
d="M1020 -315q-197 0 -371.5 71t-298.5 193.5t-196 293.5t-72 365q0 198 72 372.5t196 298.5t298 195.5t372 71.5q200 0 375.5 -71.5t301 -195.5t197.5 -298.5t72 -372.5q0 -259 -123 -470.5t-339.5 -332t-483.5 -120.5zM1020 -225q180 0 338 64t271 174.5t178 265.5t65 331
q0 178 -65 335.5t-178 269.5t-271 176.5t-338 64.5q-178 0 -335 -65t-269.5 -176.5t-178 -269t-65.5 -335.5q0 -175 65.5 -330t178 -266t269.5 -175t335 -64zM1341 270l-53 -43q-52 56 -94 123q-73 -55 -174 -55q-143 0 -241.5 101.5t-98.5 250.5t98.5 250.5t243.5 101.5
q143 0 241.5 -101.5t98.5 -250.5q0 -165 -123 -264q18 -17 35.5 -36t37.5 -43t29 -34zM1022 362q63 0 131 35q-50 48 -141 156l53 45q76 -89 135 -172q84 97 84 221q0 118 -76 199.5t-186 81.5q-112 0 -188 -81t-76 -200q0 -120 77 -202.5t187 -82.5z" />
    <glyph glyph-name="R.ss08" 
d="M1020 -315q-197 0 -371.5 71t-298.5 193.5t-196 293.5t-72 365q0 198 72 372.5t196 298.5t298 195.5t372 71.5q200 0 375.5 -71.5t301 -195.5t197.5 -298.5t72 -372.5q0 -259 -123 -470.5t-339.5 -332t-483.5 -120.5zM1020 -225q180 0 338 64t271 174.5t178 265.5t65 331
q0 178 -65 335.5t-178 269.5t-271 176.5t-338 64.5q-178 0 -335 -65t-269.5 -176.5t-178 -269t-65.5 -335.5q0 -175 65.5 -330t178 -266t269.5 -175t335 -64zM899 276h-76v676h240q94 0 159.5 -52.5t65.5 -149.5q0 -83 -48 -134.5t-132 -60.5q44 -56 195 -279h-86l-177 265
q-105 4 -149 14q8 -102 8 -279zM889 600l2 -4q73 12 168 12q70 0 110.5 35.5t40.5 101.5q0 65 -43 102.5t-114 37.5q-103 0 -160 8l-4 -2q15 -147 0 -291z" />
    <glyph glyph-name="S.ss08" 
d="M1020 -315q-197 0 -371.5 71t-298.5 193.5t-196 293.5t-72 365q0 198 72 372.5t196 298.5t298 195.5t372 71.5q200 0 375.5 -71.5t301 -195.5t197.5 -298.5t72 -372.5q0 -259 -123 -470.5t-339.5 -332t-483.5 -120.5zM1020 -225q180 0 338 64t271 174.5t178 265.5t65 331
q0 178 -65 335.5t-178 269.5t-271 176.5t-338 64.5q-178 0 -335 -65t-269.5 -176.5t-178 -269t-65.5 -335.5q0 -175 65.5 -330t178 -266t269.5 -175t335 -64zM1036 262q-97 0 -165 54t-93 151l70 27q19 -75 69 -118.5t119 -43.5q61 0 106.5 31t45.5 92q0 28 -9 47t-32 32
t-36 18t-48 14q-7 2 -10 3l-62 21q-26 8 -45.5 15.5t-48.5 23.5t-47.5 35.5t-32.5 50t-14 67.5q0 87 67 136t156 49q84 0 144.5 -45.5t82.5 -124.5l-67 -29q-17 60 -61 93.5t-105 33.5t-99 -30.5t-38 -76.5q0 -85 133 -126l65 -21q90 -28 124 -52q65 -45 65 -126
q0 -87 -67 -144t-167 -57z" />
    <glyph glyph-name="T.ss08" 
d="M1020 -315q-197 0 -371.5 71t-298.5 193.5t-196 293.5t-72 365q0 198 72 372.5t196 298.5t298 195.5t372 71.5q200 0 375.5 -71.5t301 -195.5t197.5 -298.5t72 -372.5q0 -259 -123 -470.5t-339.5 -332t-483.5 -120.5zM1020 -225q180 0 338 64t271 174.5t178 265.5t65 331
q0 178 -65 335.5t-178 269.5t-271 176.5t-338 64.5q-178 0 -335 -65t-269.5 -176.5t-178 -269t-65.5 -335.5q0 -175 65.5 -330t178 -266t269.5 -175t335 -64zM1061 276h-76q0 406 6 617q-82 -10 -231 -10v69h526v-69q-149 0 -231 10q6 -211 6 -617z" />
    <glyph glyph-name="U.ss08" 
d="M1020 -315q-197 0 -371.5 71t-298.5 193.5t-196 293.5t-72 365q0 198 72 372.5t196 298.5t298 195.5t372 71.5q200 0 375.5 -71.5t301 -195.5t197.5 -298.5t72 -372.5q0 -259 -123 -470.5t-339.5 -332t-483.5 -120.5zM1020 -225q180 0 338 64t271 174.5t178 265.5t65 331
q0 178 -65 335.5t-178 269.5t-271 176.5t-338 64.5q-178 0 -335 -65t-269.5 -176.5t-178 -269t-65.5 -335.5q0 -175 65.5 -330t178 -266t269.5 -175t335 -64zM1022 268q-122 0 -183 70t-61 192v428h76v-426q0 -196 170 -196t170 196v426h74v-428q0 -120 -62 -191t-184 -71z
" />
    <glyph glyph-name="V.ss08" 
d="M1020 -315q-197 0 -371.5 71t-298.5 193.5t-196 293.5t-72 365q0 198 72 372.5t196 298.5t298 195.5t372 71.5q200 0 375.5 -71.5t301 -195.5t197.5 -298.5t72 -372.5q0 -259 -123 -470.5t-339.5 -332t-483.5 -120.5zM1020 -225q180 0 338 64t271 174.5t178 265.5t65 331
q0 178 -65 335.5t-178 269.5t-271 176.5t-338 64.5q-178 0 -335 -65t-269.5 -176.5t-178 -269t-65.5 -335.5q0 -175 65.5 -330t178 -266t269.5 -175t335 -64zM1065 276h-76l-274 676h78q120 -271 235 -606h2q64 187 230 606h79z" />
    <glyph glyph-name="W.ss08" 
d="M1020 1546q200 0 375.5 -71.5t301 -195.5t197.5 -298.5t72 -372.5q0 -259 -123 -470.5t-339.5 -332t-483.5 -120.5q-197 0 -371.5 71t-298.5 193.5t-196 293.5t-72 365q0 198 72 372.5t196 298.5t298 195.5t372 71.5zM1020 -225q180 0 338 64t271 174.5t178 265.5t65 331
q0 178 -65 335.5t-178 269.5t-271 176.5t-338 64.5q-178 0 -335 -65t-269.5 -176.5t-178 -269t-65.5 -335.5q0 -175 65.5 -330t178 -266t269.5 -175t335 -64zM1241 358q76 277 180 594h80l-219 -676h-82q-103 309 -176 592q-73 -291 -176 -592h-82l-219 676h80
q118 -352 182 -587q84 298 178 587h76q110 -340 178 -594z" />
    <glyph glyph-name="X.ss08" 
d="M1020 -315q-197 0 -371.5 71t-298.5 193.5t-196 293.5t-72 365q0 198 72 372.5t196 298.5t298 195.5t372 71.5q200 0 375.5 -71.5t301 -195.5t197.5 -298.5t72 -372.5q0 -259 -123 -470.5t-339.5 -332t-483.5 -120.5zM1020 -225q180 0 338 64t271 174.5t178 265.5t65 331
q0 178 -65 335.5t-178 269.5t-271 176.5t-338 64.5q-178 0 -335 -65t-269.5 -176.5t-178 -269t-65.5 -335.5q0 -175 65.5 -330t178 -266t269.5 -175t335 -64zM834 276h-89q24 34 74 108.5t90 130.5t78 106v4q-124 164 -235 327h86q88 -119 188 -282q78 134 186 282h86
q-156 -222 -235 -327v-4q58 -76 240 -345h-86q-121 180 -191 299q-84 -138 -192 -299z" />
    <glyph glyph-name="Y.ss08" 
d="M1020 -315q-197 0 -371.5 71t-298.5 193.5t-196 293.5t-72 365q0 198 72 372.5t196 298.5t298 195.5t372 71.5q200 0 375.5 -71.5t301 -195.5t197.5 -298.5t72 -372.5q0 -259 -123 -470.5t-339.5 -332t-483.5 -120.5zM1020 -225q180 0 338 64t271 174.5t178 265.5t65 331
q0 178 -65 335.5t-178 269.5t-271 176.5t-338 64.5q-178 0 -335 -65t-269.5 -176.5t-178 -269t-65.5 -335.5q0 -175 65.5 -330t178 -266t269.5 -175t335 -64zM1061 276h-76q0 166 6 248q-57 90 -258 428h84q136 -235 207 -374q68 137 209 374h80q-224 -376 -256 -428
q4 -82 4 -248z" />
    <glyph glyph-name="Z.ss08" 
d="M1020 -315q-197 0 -371.5 71t-298.5 193.5t-196 293.5t-72 365q0 198 72 372.5t196 298.5t298 195.5t372 71.5q200 0 375.5 -71.5t301 -195.5t197.5 -298.5t72 -372.5q0 -259 -123 -470.5t-339.5 -332t-483.5 -120.5zM1020 -225q180 0 338 64t271 174.5t178 265.5t65 331
q0 178 -65 335.5t-178 269.5t-271 176.5t-338 64.5q-178 0 -335 -65t-269.5 -176.5t-178 -269t-65.5 -335.5q0 -175 65.5 -330t178 -266t269.5 -175t335 -64zM1296 276h-522v60q127 171 434 565q-221 -18 -417 -18v69h497v-57q-49 -67 -109 -145.5t-99 -128t-118.5 -149.5
t-109.5 -138q182 14 444 14v-72z" />
    <glyph glyph-name="i.loclTRK" horiz-adv-x="501" 
d="M254 1413q-51 0 -84 33.5t-33 83.5q0 46 33.5 79t83.5 33q47 0 80 -33t33 -79q0 -49 -33 -83t-80 -34zM319 0h-137v1130h137v-1130z" />
    <glyph glyph-name="a.ss01" horiz-adv-x="1376" 
d="M618 -35q-227 0 -375.5 169.5t-148.5 428.5q0 132 41.5 245t113 190.5t168.5 121t206 43.5q140 0 252 -76t176 -231h22q-16 125 -16 274h137v-1130h-135q0 5 -0.5 54.5t0 69.5t5 66t13.5 91h-24q-64 -161 -178.5 -238.5t-256.5 -77.5zM643 92q116 0 209.5 63.5t146 172.5
t52.5 241q0 201 -118.5 334t-291.5 133t-286 -134t-113 -337q0 -205 114.5 -339t286.5 -134z" />
    <glyph glyph-name="aacute.ss01" horiz-adv-x="1376" 
d="M1055 1669l-312 -391h-122l245 391h189zM618 -35q-227 0 -375.5 169.5t-148.5 428.5q0 132 41.5 245t113 190.5t168.5 121t206 43.5q140 0 252 -76t176 -231h22q-16 125 -16 274h137v-1130h-135q0 5 -0.5 54.5t0 69.5t5 66t13.5 91h-24q-64 -161 -178.5 -238.5
t-256.5 -77.5zM643 92q116 0 209.5 63.5t146 172.5t52.5 241q0 201 -118.5 334t-291.5 133t-286 -134t-113 -337q0 -205 114.5 -339t286.5 -134z" />
    <glyph glyph-name="abreve.ss01" horiz-adv-x="1376" 
d="M690 1276q-170 0 -269.5 111t-105.5 284h123q4 -128 74.5 -205t179.5 -77q108 0 178 77t74 205h123q-6 -174 -105.5 -284.5t-271.5 -110.5zM618 -35q-227 0 -375.5 169.5t-148.5 428.5q0 132 41.5 245t113 190.5t168.5 121t206 43.5q140 0 252 -76t176 -231h22
q-16 125 -16 274h137v-1130h-135q0 5 -0.5 54.5t0 69.5t5 66t13.5 91h-24q-64 -161 -178.5 -238.5t-256.5 -77.5zM643 92q116 0 209.5 63.5t146 172.5t52.5 241q0 201 -118.5 334t-291.5 133t-286 -134t-113 -337q0 -205 114.5 -339t286.5 -134z" />
    <glyph glyph-name="acircumflex.ss01" horiz-adv-x="1376" 
d="M436 1278h-131l295 358h180l297 -358h-131q-60 61 -86.5 89t-70.5 83t-72 104h-49q-31 -49 -74 -102.5t-73 -85.5t-85 -88zM618 -35q-227 0 -375.5 169.5t-148.5 428.5q0 132 41.5 245t113 190.5t168.5 121t206 43.5q140 0 252 -76t176 -231h22q-16 125 -16 274h137
v-1130h-135q0 5 -0.5 54.5t0 69.5t5 66t13.5 91h-24q-64 -161 -178.5 -238.5t-256.5 -77.5zM643 92q116 0 209.5 63.5t146 172.5t52.5 241q0 201 -118.5 334t-291.5 133t-286 -134t-113 -337q0 -205 114.5 -339t286.5 -134z" />
    <glyph glyph-name="adieresis.ss01" horiz-adv-x="1376" 
d="M512 1370q-44 0 -75 32t-31 77q0 42 31 73t75 31t74 -31t30 -73q0 -45 -30 -77t-74 -32zM870 1370q-46 0 -76 32t-30 77q0 42 30 73t76 31q42 0 73.5 -31.5t31.5 -72.5q0 -44 -31 -76.5t-74 -32.5zM618 -35q-227 0 -375.5 169.5t-148.5 428.5q0 132 41.5 245t113 190.5
t168.5 121t206 43.5q140 0 252 -76t176 -231h22q-16 125 -16 274h137v-1130h-135q0 5 -0.5 54.5t0 69.5t5 66t13.5 91h-24q-64 -161 -178.5 -238.5t-256.5 -77.5zM643 92q116 0 209.5 63.5t146 172.5t52.5 241q0 201 -118.5 334t-291.5 133t-286 -134t-113 -337
q0 -205 114.5 -339t286.5 -134z" />
    <glyph glyph-name="agrave.ss01" horiz-adv-x="1376" 
d="M758 1278h-121l-311 391h188zM618 -35q-227 0 -375.5 169.5t-148.5 428.5q0 132 41.5 245t113 190.5t168.5 121t206 43.5q140 0 252 -76t176 -231h22q-16 125 -16 274h137v-1130h-135q0 5 -0.5 54.5t0 69.5t5 66t13.5 91h-24q-64 -161 -178.5 -238.5t-256.5 -77.5z
M643 92q116 0 209.5 63.5t146 172.5t52.5 241q0 201 -118.5 334t-291.5 133t-286 -134t-113 -337q0 -205 114.5 -339t286.5 -134z" />
    <glyph glyph-name="amacron.ss01" horiz-adv-x="1376" 
d="M1036 1413h-688v115h688v-115zM618 -35q-227 0 -375.5 169.5t-148.5 428.5q0 132 41.5 245t113 190.5t168.5 121t206 43.5q140 0 252 -76t176 -231h22q-16 125 -16 274h137v-1130h-135q0 5 -0.5 54.5t0 69.5t5 66t13.5 91h-24q-64 -161 -178.5 -238.5t-256.5 -77.5z
M643 92q116 0 209.5 63.5t146 172.5t52.5 241q0 201 -118.5 334t-291.5 133t-286 -134t-113 -337q0 -205 114.5 -339t286.5 -134z" />
    <glyph glyph-name="aogonek.ss01" horiz-adv-x="1376" 
d="M1178 -362q42 0 90 14v-101q-55 -14 -103 -14q-114 0 -191 63t-77 167q0 139 164 233h-2q0 5 -0.5 54.5t0 69.5t5 66t13.5 91h-24q-64 -161 -178.5 -238.5t-256.5 -77.5q-227 0 -375.5 169.5t-148.5 428.5q0 132 41.5 245t113 190.5t168.5 121t206 43.5q140 0 252 -76
t176 -231h22q-16 125 -16 274h137v-1130h-18q-172 -84 -172 -209q0 -69 50 -111t124 -42zM643 92q116 0 209.5 63.5t146 172.5t52.5 241q0 201 -118.5 334t-291.5 133t-286 -134t-113 -337q0 -205 114.5 -339t286.5 -134z" />
    <glyph glyph-name="aring.ss01" horiz-adv-x="1376" 
d="M692 1247q-98 0 -162.5 63t-64.5 158q0 94 64.5 157t162.5 63q96 0 161 -62.5t65 -157.5q0 -96 -65 -158.5t-161 -62.5zM692 1339q57 0 94 35t37 94q0 57 -37 92t-94 35q-59 0 -97 -34.5t-38 -92.5q0 -59 37.5 -94t97.5 -35zM618 -35q-227 0 -375.5 169.5t-148.5 428.5
q0 132 41.5 245t113 190.5t168.5 121t206 43.5q140 0 252 -76t176 -231h22q-16 125 -16 274h137v-1130h-135q0 5 -0.5 54.5t0 69.5t5 66t13.5 91h-24q-64 -161 -178.5 -238.5t-256.5 -77.5zM643 92q116 0 209.5 63.5t146 172.5t52.5 241q0 201 -118.5 334t-291.5 133
t-286 -134t-113 -337q0 -205 114.5 -339t286.5 -134z" />
    <glyph glyph-name="atilde.ss01" horiz-adv-x="1376" 
d="M846 1329q-15 0 -28.5 2t-24 4t-22.5 8t-19 9t-19 11.5t-16.5 12t-17.5 14t-17 13.5l-39 33q-21 18 -30.5 25.5t-29 16.5t-38.5 9q-49 0 -78 -40t-29 -101h-104q2 110 60.5 179.5t150.5 69.5q41 0 75 -17t74 -50l43 -37q62 -53 109 -53q46 0 72 40t26 103h105
q0 -117 -53.5 -184.5t-149.5 -67.5zM618 -35q-227 0 -375.5 169.5t-148.5 428.5q0 132 41.5 245t113 190.5t168.5 121t206 43.5q140 0 252 -76t176 -231h22q-16 125 -16 274h137v-1130h-135q0 5 -0.5 54.5t0 69.5t5 66t13.5 91h-24q-64 -161 -178.5 -238.5t-256.5 -77.5z
M643 92q116 0 209.5 63.5t146 172.5t52.5 241q0 201 -118.5 334t-291.5 133t-286 -134t-113 -337q0 -205 114.5 -339t286.5 -134z" />
    <glyph glyph-name="b.ss01" horiz-adv-x="1159" 
d="M672 -35q-124 0 -215 57t-140 168h-24q7 -23 11.5 -44t6.5 -44.5t2.5 -33.5t0 -37.5t-0.5 -30.5h-131v1638h137q0 -35 0.5 -191.5t0 -219t-2 -187.5t-5.5 -226.5t-11 -205.5h23q51 99 141 149t205 50q187 0 306.5 -121t119.5 -303q0 -177 -119 -297.5t-305 -120.5z
M655 80q127 0 214 87.5t87 219.5q0 126 -80.5 214.5t-220.5 88.5q-142 0 -225.5 -88t-83.5 -209q0 -128 89 -220.5t220 -92.5z" />
    <glyph glyph-name="d.ss01" horiz-adv-x="1368" 
d="M621 -35q-151 0 -271.5 77t-188 213.5t-67.5 307.5q0 132 41.5 245t113 190.5t168.5 121t206 43.5q139 0 249 -75t175 -232h24q-20 291 -20 782h137v-1638h-131q0 151 16 270h-22q-63 -155 -176 -230t-254 -75zM641 92q172 0 291 133.5t119 339.5t-119.5 338.5
t-290.5 132.5q-173 0 -286 -134t-113 -337q0 -205 114 -339t285 -134z" />
    <glyph glyph-name="dcaron.ss01" horiz-adv-x="1368" 
d="M1448 1180h-90q29 56 46 87t49.5 79t68.5 88q-111 21 -111 106q0 46 33 79.5t82 33.5q46 0 78 -32.5t32 -78.5q0 -41 -33 -102.5t-155 -259.5zM621 -35q-151 0 -271.5 77t-188 213.5t-67.5 307.5q0 132 41.5 245t113 190.5t168.5 121t206 43.5q139 0 249 -75t175 -232h24
q-20 291 -20 782h137v-1638h-131q0 151 16 270h-22q-63 -155 -176 -230t-254 -75zM641 92q172 0 291 133.5t119 339.5t-119.5 338.5t-290.5 132.5q-173 0 -286 -134t-113 -337q0 -205 114 -339t285 -134z" />
    <glyph glyph-name="dcroat.ss01" horiz-adv-x="1368" 
d="M1188 1444h266v-115h-266v-1329h-131q0 151 16 270h-22q-63 -155 -176 -230t-254 -75q-151 0 -271.5 77t-188 213.5t-67.5 307.5q0 132 41.5 245t113 190.5t168.5 121t206 43.5q139 0 249 -75t175 -232h24q-14 203 -18 473h-289v115h287v194h137v-194zM641 92
q172 0 291 133.5t119 339.5t-119.5 338.5t-290.5 132.5q-173 0 -286 -134t-113 -337q0 -205 114 -339t285 -134z" />
    <glyph glyph-name="g.ss01" horiz-adv-x="1368" 
d="M1186 -451h-1014v125q598 0 901 -22q-46 402 -4 629h-25q-65 -140 -176 -209.5t-250 -69.5q-151 0 -271 77t-186.5 210t-66.5 297q0 251 150.5 414t373.5 163q141 0 252 -76t172 -231h25q-14 119 -14 274h133v-1581zM639 129q111 0 205.5 59.5t150.5 165.5t56 234
q0 96 -33 180t-88.5 142.5t-131 92t-159.5 33.5q-172 0 -285.5 -129t-113.5 -321q0 -126 52 -231t143.5 -165.5t203.5 -60.5z" />
    <glyph glyph-name="gbreve.ss01" horiz-adv-x="1368" 
d="M688 1276q-170 0 -269.5 111t-105.5 284h123q4 -128 74.5 -205t179.5 -77q108 0 178 77t74 205h123q-6 -174 -105.5 -284.5t-271.5 -110.5zM1186 -451h-1014v125q598 0 901 -22q-46 402 -4 629h-25q-65 -140 -176 -209.5t-250 -69.5q-151 0 -271 77t-186.5 210t-66.5 297
q0 251 150.5 414t373.5 163q141 0 252 -76t172 -231h25q-14 119 -14 274h133v-1581zM639 129q111 0 205.5 59.5t150.5 165.5t56 234q0 96 -33 180t-88.5 142.5t-131 92t-159.5 33.5q-172 0 -285.5 -129t-113.5 -321q0 -126 52 -231t143.5 -165.5t203.5 -60.5z" />
    <glyph glyph-name="uni0123.ss01" horiz-adv-x="1368" 
d="M557 1362q0 39 29.5 95.5t148.5 252.5h88q-82 -164 -145 -270q47 6 70.5 -20t23.5 -66q0 -45 -30.5 -72t-73.5 -27q-49 0 -80 30.5t-31 76.5zM1186 -451h-1014v125q598 0 901 -22q-46 402 -4 629h-25q-65 -140 -176 -209.5t-250 -69.5q-151 0 -271 77t-186.5 210
t-66.5 297q0 251 150.5 414t373.5 163q141 0 252 -76t172 -231h25q-14 119 -14 274h133v-1581zM639 129q111 0 205.5 59.5t150.5 165.5t56 234q0 96 -33 180t-88.5 142.5t-131 92t-159.5 33.5q-172 0 -285.5 -129t-113.5 -321q0 -126 52 -231t143.5 -165.5t203.5 -60.5z" />
    <glyph glyph-name="gdotaccent.ss01" horiz-adv-x="1368" 
d="M690 1417q-51 0 -84 33.5t-33 83.5q0 47 33.5 80t83.5 33q47 0 80 -33.5t33 -79.5q0 -49 -33 -83t-80 -34zM1186 -451h-1014v125q598 0 901 -22q-46 402 -4 629h-25q-65 -140 -176 -209.5t-250 -69.5q-151 0 -271 77t-186.5 210t-66.5 297q0 251 150.5 414t373.5 163
q141 0 252 -76t172 -231h25q-14 119 -14 274h133v-1581zM639 129q111 0 205.5 59.5t150.5 165.5t56 234q0 96 -33 180t-88.5 142.5t-131 92t-159.5 33.5q-172 0 -285.5 -129t-113.5 -321q0 -126 52 -231t143.5 -165.5t203.5 -60.5z" />
    <glyph glyph-name="i.ss01" horiz-adv-x="704" 
d="M362 1413q-49 0 -81.5 33.5t-32.5 83.5q0 46 32.5 79t81.5 33q47 0 80 -33t33 -79q0 -49 -33 -83t-80 -34zM676 0h-379q0 670 25 1028q-112 -24 -299 -24v126h413q0 -684 -24 -1028q104 23 264 23v-125z" />
    <glyph glyph-name="dotlessi.ss01" horiz-adv-x="704" 
d="M676 0h-379q0 223 1 346.5t9 321t23 368.5q-58 -15 -118.5 -22.5t-92.5 -8.5t-96 -1v126h413q0 -223 -1 -346.5t-9 -321t-23 -368.5q113 31 273 31v-125z" />
    <glyph glyph-name="iacute.ss01" horiz-adv-x="704" 
d="M676 1669l-311 -391h-123l245 391h189zM676 0h-379q0 223 1 346.5t9 321t23 368.5q-58 -15 -118.5 -22.5t-92.5 -8.5t-96 -1v126h413q0 -223 -1 -346.5t-9 -321t-23 -368.5q113 31 273 31v-125z" />
    <glyph glyph-name="icircumflex.ss01" horiz-adv-x="704" 
d="M57 1278h-131l295 358h180l297 -358h-131q-60 61 -86.5 89t-70.5 83t-72 104h-49q-31 -49 -74 -102.5t-73 -85.5t-85 -88zM676 0h-379q0 223 1 346.5t9 321t23 368.5q-58 -15 -118.5 -22.5t-92.5 -8.5t-96 -1v126h413q0 -223 -1 -346.5t-9 -321t-23 -368.5q113 31 273 31
v-125z" />
    </font>
</defs>
</svg>
