<?xml version="1.0" standalone="no"?>
<!DOCTYPE svg PUBLIC "-//W3C//DTD SVG 1.1//EN" "http://www.w3.org/Graphics/SVG/1.1/DTD/svg11.dtd" >
<svg xmlns="http://www.w3.org/2000/svg" xmlns:xlink="http://www.w3.org/1999/xlink" version="1.1">
<metadata>
Created by FontForge 20170731 at Mon Mar 15 14:15:31 2021
 By Aleksey,,,
Copyright (c) 2020 by Matthieu Salvaggio x Blaze Type. All rights reserved.
</metadata>
<defs>
<font id="Area-SemiboldInktrap" horiz-adv-x="2048" >
  <font-face 
    font-family="Area Semibold Inktrap"
    font-weight="600"
    font-stretch="normal"
    units-per-em="2048"
    panose-1="0 0 7 0 0 0 0 0 0 0"
    ascent="1638"
    descent="-410"
    x-height="1133"
    cap-height="1597"
    bbox="-1673 -557 2548 2169"
    underline-thickness="102"
    underline-position="-307"
    unicode-range="U+0020-25CA"
  />
<missing-glyph horiz-adv-x="1435" 
d="M1245 0h-1055v1597h1055v-1597zM332 1462v-1198l708 1198h-708zM1102 1325l-703 -1186h703v1186z" />
    <glyph glyph-name=".notdef" horiz-adv-x="1435" 
d="M1245 0h-1055v1597h1055v-1597zM332 1462v-1198l708 1198h-708zM1102 1325l-703 -1186h703v1186z" />
    <glyph glyph-name=".null" horiz-adv-x="0" 
 />
    <glyph glyph-name="nonmarkingreturn" horiz-adv-x="682" 
 />
    <glyph glyph-name="space" unicode=" " horiz-adv-x="524" 
 />
    <glyph glyph-name="exclam" unicode="!" horiz-adv-x="544" 
d="M324 420h-103l-51 1050v127h205v-127zM274 -14q-57 0 -95 40t-38 97q0 53 38.5 91t94.5 38q52 0 90.5 -38t38.5 -91q0 -57 -37.5 -97t-91.5 -40z" />
    <glyph glyph-name="quotedbl" unicode="&#x22;" horiz-adv-x="765" 
d="M315 1126h-176v471h176v-471zM627 1126h-176v471h176v-471z" />
    <glyph glyph-name="numbersign" unicode="#" horiz-adv-x="1472" 
d="M391 0h-162q71 336 109 473q-100 -29 -260 -29l31 150q155 0 245 -21q19 188 82 400q-98 -29 -256 -29l33 150q151 0 254 -21q12 188 78 524h162q-66 -336 -119 -524q206 28 413 0q13 202 80 524h162q-76 -363 -121 -524q107 21 271 21l-31 -150q-166 0 -270 29
q0 -183 -68 -400q105 21 264 21l-28 -150q-165 0 -267 29q-8 -186 -65 -473h-162q62 317 106 473q-205 -42 -413 0q-9 -192 -68 -473zM487 573q208 29 416 0q3 172 70 400q-208 -42 -416 0q-3 -185 -70 -400z" />
    <glyph glyph-name="dollar" unicode="$" horiz-adv-x="1206" 
d="M1092 489q0 -166 -119.5 -275.5t-327.5 -113.5v-182h-76v184q-169 14 -289.5 106.5t-170.5 260.5l163 55q79 -227 297 -256v447l-34 10q-47 12 -90 27.5t-99 46.5t-96 70t-68 100t-28 133q0 84 34.5 154t93 116.5t132.5 73t155 29.5v163h76v-165q152 -15 266.5 -103
t145.5 -211l-152 -72q-32 87 -100 147t-160 75v-437l60 -18q43 -12 73.5 -22t74 -28t74 -36.5t64 -47t54 -60.5t34 -76t13.5 -95zM338 1116q0 -46 19 -82.5t54.5 -62.5t72 -43t85.5 -33v418q-103 -5 -167 -58t-64 -139zM645 692v-428q66 3 121.5 24.5t95 69t39.5 113.5
q0 41 -14.5 74t-36 54.5t-57.5 40t-68.5 29.5t-79.5 23z" />
    <glyph glyph-name="percent" unicode="%" horiz-adv-x="1763" 
d="M356 768q-128 0 -206 105.5t-78 275.5t78 276.5t206 106.5q129 0 208 -107t79 -276t-79 -275t-208 -106zM401 0h-170l1139 1468h162zM356 901q60 0 95.5 64t35.5 184t-35.5 184t-95.5 64t-95.5 -64t-35.5 -184t35.5 -184t95.5 -64zM1407 -29q-128 0 -206.5 105.5
t-78.5 275.5t78.5 276.5t206.5 106.5q129 0 208 -107t79 -276t-79 -275t-208 -106zM1407 104q60 0 95.5 64t35.5 184t-35.5 184t-95.5 64t-95.5 -64t-35.5 -184t35.5 -184t95.5 -64z" />
    <glyph glyph-name="ampersand" unicode="&#x26;" horiz-adv-x="1431" 
d="M563 -35q-129 0 -236 47.5t-172 141t-65 215.5q0 76 28.5 143t83 122.5t118 99.5t149.5 89q-264 224 -264 443q0 155 115.5 259.5t291.5 104.5q91 0 167.5 -31.5t126.5 -84t78 -118.5t28 -136q0 -240 -344 -429l358 -376q9 55 21 109.5t31 127.5t26 103l168 -37
q-65 -265 -172 -381l366 -375h-231l-227 250q-148 -287 -445 -287zM602 903q77 65 120 111.5t70 105t27 125.5q0 103 -60 162t-153 59q-91 0 -150 -53.5t-59 -146.5q0 -48 15.5 -95t48.5 -95.5t63 -84t78 -88.5zM573 133q99 0 184.5 50.5t176.5 144.5l-389 415
q-42 -33 -55.5 -43.5t-48.5 -39t-47.5 -42t-37 -39.5t-34 -44t-22 -43t-17 -50t-4.5 -53q0 -117 84.5 -186.5t209.5 -69.5z" />
    <glyph glyph-name="quotesingle" unicode="'" horiz-adv-x="454" 
d="M315 1126h-176v471h176v-471z" />
    <glyph glyph-name="parenleft" unicode="(" horiz-adv-x="653" 
d="M631 -307h-187q-167 198 -255.5 445.5t-88.5 506.5q0 260 88.5 507t255.5 445h187q-165 -198 -252.5 -445t-87.5 -507q0 -258 87.5 -506t252.5 -446z" />
    <glyph glyph-name="parenright" unicode=")" horiz-adv-x="653" 
d="M209 -307h-189q165 198 252.5 446t87.5 506q0 260 -87.5 507t-252.5 445h189q167 -198 255.5 -445t88.5 -507q0 -259 -88.5 -506.5t-255.5 -445.5z" />
    <glyph glyph-name="asterisk" unicode="*" horiz-adv-x="825" 
d="M465 1024h-107l2 199l-170 -101l-53 90l178 99l-178 98l53 92l170 -100l-2 196h107l-2 -196l172 100l53 -90l-178 -100l178 -99l-53 -90l-172 101z" />
    <glyph glyph-name="plus" unicode="+" horiz-adv-x="1028" 
d="M594 698h299v-149h-299v-313h-156v313h-303v149h303v316h156v-316z" />
    <glyph glyph-name="comma" unicode="," horiz-adv-x="475" 
d="M168 -266h-109q34 65 49.5 93t49.5 77.5t71 87.5q-58 7 -88 43t-30 88q0 53 39 91t94 38q54 0 92.5 -38t38.5 -93q0 -40 -28.5 -94t-135.5 -224q-28 -44 -43 -69z" />
    <glyph glyph-name="hyphen" unicode="-" horiz-adv-x="829" 
d="M709 547h-588v153h588v-153z" />
    <glyph glyph-name="period" unicode="." horiz-adv-x="497" 
d="M250 -14q-55 0 -94 40t-39 97q0 53 39 91t94 38q54 0 92.5 -38t38.5 -91q0 -57 -38.5 -97t-92.5 -40z" />
    <glyph glyph-name="slash" unicode="/" horiz-adv-x="870" 
d="M242 -135h-172l557 1773h172z" />
    <glyph glyph-name="zero" unicode="0" horiz-adv-x="1437" 
d="M719 -35q-179 0 -316.5 105t-212.5 294t-75 431q0 244 75 434t212.5 295.5t316.5 105.5q178 0 315 -105.5t212 -295.5t75 -434q0 -242 -75 -431t-212 -294t-315 -105zM721 143q180 0 287.5 176t107.5 476q0 303 -107.5 480t-287.5 177q-182 0 -293 -177.5t-111 -479.5
q0 -299 111 -475.5t293 -176.5z" />
    <glyph glyph-name="one" unicode="1" horiz-adv-x="806" 
d="M598 0h-188q0 294 0.5 434t6.5 393t19 471q-142 -218 -383 -256v191q159 32 261 134t102 230h182v-1597z" />
    <glyph glyph-name="two" unicode="2" horiz-adv-x="1280" 
d="M1169 0h-1048v18q7 95 24.5 169.5t50.5 137t71 111.5t100.5 102.5t124 98.5t154.5 110q3 2 5 3q51 34 86.5 60.5t82.5 70t76 84t50 95t21 111.5q0 126 -88 206.5t-234 80.5q-171 0 -273 -112t-102 -295l-176 28q0 160 69.5 285t196 195.5t289.5 70.5q224 0 369 -128
t145 -333q0 -82 -24.5 -154.5t-71 -133t-96.5 -107t-119 -96.5q-46 -35 -112.5 -79.5t-109 -73.5t-94.5 -71.5t-87 -82t-67.5 -96t-53.5 -123.5q139 13 302 19t254.5 6.5t284.5 0.5v-178z" />
    <glyph glyph-name="three" unicode="3" horiz-adv-x="1314" 
d="M653 -35q-206 0 -364 100t-209 265l164 84q39 -115 145.5 -195t261.5 -80q157 0 255 83t98 220q0 132 -96.5 214.5t-278.5 82.5h-160v156h164q153 0 239 79.5t86 201.5q0 128 -92 205t-235 77q-137 0 -231.5 -78.5t-114.5 -218.5l-172 37q26 192 174 312t362 120
q136 0 250.5 -50t185 -147.5t70.5 -224.5q0 -140 -80.5 -239.5t-222.5 -122.5v-29q162 -15 256 -112.5t94 -253.5q0 -96 -36.5 -182.5t-104.5 -154.5t-173.5 -108.5t-234.5 -40.5z" />
    <glyph glyph-name="four" unicode="4" horiz-adv-x="1337" 
d="M1036 0h-186q0 251 27 401q-395 -31 -832 -8v158l809 1046h182q0 -249 -0.5 -367t-6.5 -327t-19 -383q102 25 256 25v-166q-158 0 -256 22q13 -70 19 -148t6.5 -120.5t0.5 -132.5zM231 528q337 31 646 -8q-37 392 -7 879q-247 -364 -639 -871z" />
    <glyph glyph-name="five" unicode="5" horiz-adv-x="1310" 
d="M641 -35q-132 0 -250 43.5t-207 128.5t-129 199l156 94q53 -142 172 -218.5t260 -76.5q161 0 271 104.5t110 270.5q0 160 -104.5 261t-262.5 101q-117 0 -208 -56t-140 -148l-155 53l188 876h786v-167q-152 0 -226 0.5t-206.5 7.5t-246.5 20q-14 -291 -134 -612h25
q61 87 154 133.5t206 46.5q97 0 188.5 -32.5t167 -93.5t121.5 -160t46 -220q0 -161 -78 -289t-210.5 -197t-293.5 -69z" />
    <glyph glyph-name="six" unicode="6" horiz-adv-x="1370" 
d="M709 -35q-270 0 -433 198.5t-163 549.5q0 200 55.5 371t153 291t235 187.5t297.5 67.5q228 0 377 -127l-111 -137q-119 92 -284 92q-228 0 -377 -194.5t-178 -534.5h28q53 150 172 229.5t271 79.5q102 0 196.5 -38.5t167.5 -106.5t116.5 -168.5t43.5 -216.5
q0 -234 -161 -388.5t-406 -154.5zM711 135q151 0 259.5 104t108.5 267t-108 268t-258 105q-157 0 -264 -110t-107 -267t109 -262t260 -105z" />
    <glyph glyph-name="seven" unicode="7" horiz-adv-x="1202" 
d="M498 0h-199q0 153 43.5 341t124 385t207.5 394t280 348l-14 23q-142 -19 -318 -28t-272 -10t-315 -1v168h1126v-174q-150 -135 -277.5 -323t-210.5 -382.5t-129 -388t-46 -352.5z" />
    <glyph glyph-name="eight" unicode="8" horiz-adv-x="1347" 
d="M674 -35q-248 0 -406.5 134.5t-158.5 332.5q0 152 90.5 257.5t246.5 133.5v33q-137 37 -205.5 127t-68.5 213q0 186 143 310t361 124q141 0 255.5 -55t179.5 -153.5t65 -221.5q0 -121 -68.5 -214.5t-208.5 -129.5v-33q157 -28 248.5 -133.5t91.5 -257.5
q0 -200 -158.5 -333.5t-406.5 -133.5zM674 911q134 0 223.5 80.5t89.5 204.5q0 119 -89 195.5t-224 76.5t-224.5 -76.5t-89.5 -195.5q0 -123 90 -204t224 -81zM672 131q155 0 261.5 89.5t106.5 236.5q0 142 -96 227.5t-270 85.5q-172 0 -269.5 -85.5t-97.5 -227.5
q0 -147 104.5 -236.5t260.5 -89.5z" />
    <glyph glyph-name="nine" unicode="9" horiz-adv-x="1390" 
d="M621 -35q-142 0 -273.5 57.5t-226.5 170.5l112 129q158 -191 373 -191q157 0 270.5 98.5t169.5 267.5t56 390h-29q-40 -174 -158.5 -265.5t-277.5 -91.5q-141 0 -262 67.5t-196 193.5t-75 282q0 155 72.5 281.5t205.5 201t300 74.5q96 0 180.5 -25t161 -82t131.5 -143
t87 -216t32 -292q0 -147 -25.5 -280.5t-79 -248t-130 -198.5t-183.5 -132t-235 -48zM666 688q159 0 265.5 118t106.5 288q0 167 -106.5 267.5t-257.5 100.5q-155 0 -263 -107t-108 -280q0 -167 104.5 -277t258.5 -110z" />
    <glyph glyph-name="colon" unicode=":" horiz-adv-x="540" 
d="M272 893q-57 0 -95 40t-38 97q0 53 38.5 91t94.5 38q54 0 91.5 -38t37.5 -91q0 -57 -37.5 -97t-91.5 -40zM272 -14q-57 0 -95 40t-38 97q0 54 38 91.5t95 37.5q54 0 91.5 -37.5t37.5 -91.5q0 -57 -37.5 -97t-91.5 -40z" />
    <glyph glyph-name="semicolon" unicode=";" horiz-adv-x="595" 
d="M307 893q-55 0 -94 40t-39 97q0 53 39 91t94 38q54 0 92.5 -38t38.5 -91q0 -57 -38.5 -97t-92.5 -40zM229 -272h-110l135 270q-37 15 -58.5 48.5t-21.5 76.5q0 53 38.5 91t94.5 38q54 0 92.5 -38t38.5 -91q0 -43 -37 -112t-172 -283z" />
    <glyph glyph-name="less" unicode="&#x3c;" horiz-adv-x="1032" 
d="M877 432v-145l-740 239v187l740 237v-143l-588 -189z" />
    <glyph glyph-name="equal" unicode="=" horiz-adv-x="1064" 
d="M915 754h-765v149h765v-149zM915 328h-765v149h765v-149z" />
    <glyph glyph-name="greater" unicode="&#x3e;" horiz-adv-x="1032" 
d="M895 526l-739 -239v145l589 186l-589 189v143l739 -237v-187z" />
    <glyph glyph-name="question" unicode="?" horiz-adv-x="1132" 
d="M584 451h-187q-4 50 -4 67q0 46 12 86.5t30.5 71.5t53 65.5t65 59t81.5 61.5q103 79 159 155t56 171q0 122 -85.5 196t-209.5 74q-131 0 -222 -86.5t-91 -230.5q0 -16 4 -56l-170 31q-4 36 -4 53q0 140 69.5 246.5t181 160.5t244.5 54q128 0 236.5 -50t177 -149
t68.5 -227q0 -74 -23 -140t-66.5 -121.5t-85.5 -95t-102 -85.5q-52 -39 -76.5 -59.5t-56 -55t-44.5 -70t-13 -79.5q0 -29 2 -47zM514 -14q-55 0 -94 39.5t-39 95.5q0 54 39 92.5t94 38.5q54 0 92.5 -38t38.5 -95q0 -55 -38 -94t-93 -39z" />
    <glyph glyph-name="at" unicode="@" horiz-adv-x="1961" 
d="M928 -195q-197 0 -358 64.5t-264 175t-158.5 256t-55.5 311.5q0 197 78 382.5t211.5 325.5t324 225t402.5 85q228 0 407.5 -94.5t282.5 -271.5t103 -406q0 -175 -58 -320t-163.5 -229t-235.5 -84q-116 0 -168.5 68.5t-40.5 195.5h-16q-138 -251 -381 -251
q-157 0 -249.5 108.5t-92.5 274.5q0 110 42.5 215.5t111.5 183.5t162 126t189 48q103 0 178.5 -58.5t112.5 -179.5h17q-16 95 10 211h135l-98 -579q-43 -246 104 -246q122 0 208.5 141.5t86.5 356.5q0 304 -175.5 483.5t-473.5 179.5q-183 0 -344.5 -71.5t-275 -192.5
t-179 -284.5t-65.5 -342.5q0 -308 185.5 -493t514.5 -185q316 0 539 168l69 -102q-126 -99 -291.5 -147t-330.5 -48zM887 377q98 0 179 62t125 157.5t44 198.5q0 117 -59.5 187.5t-167.5 70.5q-97 0 -178.5 -60t-126 -155.5t-44.5 -200.5q0 -118 60 -189t168 -71z" />
    <glyph glyph-name="A" unicode="A" horiz-adv-x="1529" 
d="M221 0h-198l636 1597h213l637 -1597h-202q-43 105 -69 171.5t-59 166t-53 188.5l-20 19q-198 -29 -332 -29q-138 0 -346 29l-22 -21q-48 -185 -185 -524zM473 686l14 -20q152 28 287 28q131 0 262 -28l15 18q-183 399 -260 739h-56q-78 -338 -262 -737z" />
    <glyph glyph-name="B" unicode="B" horiz-adv-x="1460" 
d="M850 0h-647v1597h600q118 0 214.5 -33.5t158.5 -90.5t95.5 -132t33.5 -159q0 -123 -74 -219t-225 -132v-34q175 -28 263.5 -125.5t88.5 -241.5q0 -100 -42 -182.5t-113 -136t-162 -82.5t-191 -29zM369 877l22 -23q64 16 135 24.5t114 9.5t120 1q155 0 250.5 70.5
t95.5 191.5q0 127 -101.5 199.5t-254.5 72.5h-41h-43.5t-40.5 0.5t-45.5 2t-42.5 3.5t-48.5 5.5t-47 8.5t-52.5 11l-27 -18q43 -270 7 -559zM365 168l24 -25q71 14 150 21.5t127.5 8.5t134.5 1q158 0 257 71.5t99 196.5q0 128 -103.5 203.5t-260.5 75.5q-84 0 -131 1
t-123.5 9t-145.5 23l-24 -21q36 -297 -4 -565z" />
    <glyph glyph-name="C" unicode="C" horiz-adv-x="1716" 
d="M913 -35q-175 0 -326 61t-258 169.5t-168 263.5t-61 338q0 187 64 345t174 264t256 165t309 59q157 0 297.5 -53t251.5 -162.5t162 -261.5l-174 -70q-69 172 -212.5 270.5t-324.5 98.5q-123 0 -232 -45.5t-191 -129t-129.5 -209.5t-47.5 -277q0 -130 35.5 -238.5t96 -183
t140.5 -126.5t169 -76t182 -24q111 0 207 35t167 97.5t121.5 144t79.5 180.5l174 -61q-84 -267 -280.5 -420.5t-481.5 -153.5z" />
    <glyph glyph-name="D" unicode="D" horiz-adv-x="1642" 
d="M799 0h-596v1597h577q156 0 283 -40.5t214.5 -112t146.5 -171.5t86.5 -216t27.5 -248q0 -238 -87 -420t-255.5 -285.5t-396.5 -103.5zM365 168l24 -25q68 14 145.5 21.5t126 8.5t134.5 1q246 0 395 161.5t149 459.5q0 159 -45.5 281t-128 197t-190.5 112.5t-240 37.5
q-73 0 -113.5 1t-107 8.5t-125.5 21.5l-27 -18q63 -650 3 -1268z" />
    <glyph glyph-name="E" unicode="E" horiz-adv-x="1343" 
d="M1239 0h-1036v1597h1016v-174h-127.5h-142t-126.5 1.5t-147 5t-134 9.5t-153 15l-27 -18q44 -264 7 -545l18 -23q135 19 286 28.5t244 11t261 1.5v-182q-168 0 -261 1.5t-243.5 11t-284.5 28.5l-20 -20q37 -304 -4 -580l24 -25q143 16 305 24.5t263 9.5t282 1v-178z" />
    <glyph glyph-name="F" unicode="F" horiz-adv-x="1271" 
d="M393 0h-190v1597h997v-180q-173 0 -269 1t-250.5 10t-291.5 26l-27 -18q48 -283 0 -568l19 -20q135 18 283.5 27t239.5 10.5t255 1.5v-180q-163 0 -254 1.5t-239.5 11t-282.5 28.5l-21 -23q14 -119 21.5 -256.5t8.5 -224.5t1 -244z" />
    <glyph glyph-name="G" unicode="G" horiz-adv-x="1794" 
d="M891 -35q-171 0 -318 62t-251 170.5t-163 262.5t-59 333q0 187 63.5 345.5t172 265t255.5 166.5t312 60q158 0 300 -54t251.5 -163.5t159.5 -259.5l-174 -70q-69 172 -211.5 270.5t-325.5 98.5q-123 0 -231.5 -45.5t-190.5 -128.5t-130 -209t-48 -278q0 -131 36 -240.5
t97 -183.5t141.5 -125.5t168 -75t178.5 -23.5q224 0 382 139.5t222 381.5l-21 24q-246 -55 -557 -55v160h709v-793h-152q0 16 -2 78t-2 91.5t4.5 83t14.5 103.5l-31 6q-168 -397 -600 -397z" />
    <glyph glyph-name="H" unicode="H" horiz-adv-x="1656" 
d="M393 0h-190v1597h190q0 -168 -0.5 -245.5t-6 -215t-17.5 -251.5l22 -23q472 55 875 0l24 23q-24 244 -24 712h188v-1597h-188q0 468 24 725l-24 23q-406 -70 -873 0l-24 -23q12 -121 17.5 -260.5t6 -217t0.5 -247.5z" />
    <glyph glyph-name="I" unicode="I" horiz-adv-x="595" 
d="M393 0h-190v1597h190v-1597z" />
    <glyph glyph-name="J" unicode="J" horiz-adv-x="1226" 
d="M569 -35q-82 0 -156.5 18t-141.5 58.5t-116 100.5t-77.5 150t-28.5 200v47l182 24v-41q0 -101 28 -177t76 -119t105 -64t121 -21q58 0 104.5 17t76 42.5t51 65.5t32.5 75t17 83.5t7 78t1 70.5v1024h190v-981q0 -46 -0.5 -73.5t-5 -84.5t-12 -96t-24 -95t-39 -94
t-59 -80.5t-82 -68t-109.5 -42.5t-140 -17z" />
    <glyph glyph-name="K" unicode="K" horiz-adv-x="1396" 
d="M393 0h-190v1597h190v-99.5v-106t-0.5 -98.5t-2.5 -108t-5 -102t-7.5 -112t-11.5 -106t-16 -115h29q289 335 766 847h227q-17 -18 -120.5 -130t-140.5 -151t-119 -125.5t-148.5 -152.5t-136.5 -133v-28q279 -315 700 -877h-231q-385 498 -564 768h-22
q-103 -142 -211 -221q14 -190 14 -547z" />
    <glyph glyph-name="L" unicode="L" horiz-adv-x="1208" 
d="M1180 0h-977v1597h190q0 -333 -0.5 -491t-7 -433t-20.5 -505l24 -25q132 16 283 24.5t245.5 9.5t262.5 1v-178z" />
    <glyph glyph-name="M" unicode="M" horiz-adv-x="2068" 
d="M395 0h-192v1597h205q359 -692 610 -1357h35q251 649 608 1357h205v-1597h-193q0 40 -0.5 170.5t0 185t1.5 170.5t4 190.5t8 178.5t13 200.5t19 194.5h-26q-120 -276 -329.5 -732.5t-254.5 -557.5h-145q-60 133 -176.5 384.5t-217.5 473.5t-192 432h-27
q13 -112 22.5 -233.5t14 -210t6.5 -226t2.5 -200.5t0 -219t-0.5 -201z" />
    <glyph glyph-name="N" unicode="N" horiz-adv-x="1685" 
d="M393 0h-190v1597h174q515 -675 919 -1331h27q-6 87 -11 180t-8.5 165t-5.5 176.5t-3.5 158.5t-2 171.5t-0.5 154.5v168.5v156.5h191v-1597h-176q-290 383 -501.5 680t-414.5 623h-29q6 -85 11 -176.5t8.5 -161.5t5.5 -172.5t3.5 -155t2 -167.5t0.5 -151v-165v-154z" />
    <glyph glyph-name="O" unicode="O" horiz-adv-x="1806" 
d="M903 -35q-163 0 -311 62.5t-257 171t-173 264.5t-64 334q0 177 63.5 333t172 265t256.5 172t313 63q167 0 315.5 -64t255.5 -174.5t169.5 -265.5t62.5 -329q0 -175 -63 -330t-170.5 -264.5t-256 -173.5t-313.5 -64zM905 143q162 0 298.5 84t218 235t81.5 335
q0 138 -47.5 260.5t-128 208.5t-190.5 136t-232 50q-163 0 -301 -83.5t-220.5 -234.5t-82.5 -337q0 -140 48.5 -262.5t130.5 -208t192.5 -134.5t232.5 -49z" />
    <glyph glyph-name="P" unicode="P" horiz-adv-x="1372" 
d="M393 0h-190v1597h575q76 0 150 -16.5t144 -54t122.5 -92t84.5 -137t32 -183.5q0 -103 -32.5 -188t-85 -140t-120.5 -93t-135 -54t-133 -16q-106 0 -159 1.5t-131 12.5t-150 33q13 -118 20 -250t7.5 -203t0.5 -217zM367 776l22 -20q62 18 132 27t113 10.5t120 1.5
q104 0 182.5 32t127 104t48.5 177q0 104 -51 177t-132 105.5t-184 32.5q-77 0 -119 1t-110 8.5t-127 21.5l-27 -18q43 -315 5 -660z" />
    <glyph glyph-name="Q" unicode="Q" horiz-adv-x="1820" 
d="M1675 -100l-135 -115q-165 189 -225 311q-171 -131 -406 -131q-166 0 -315 62.5t-258 171t-173.5 264.5t-64.5 334t63.5 333.5t172.5 264.5t259 172t318 63q225 0 410.5 -109t292 -300t106.5 -424q0 -193 -77.5 -355.5t-227.5 -275.5q48 -38 101.5 -91.5t77 -80.5
t81.5 -94zM911 131q157 0 316 78q-88 67 -168 153.5t-176 206.5l135 113q212 -253 303 -416q201 213 201 531q0 185 -81 335.5t-221 235t-309 84.5t-309 -83.5t-222.5 -234t-82.5 -337.5q0 -140 48.5 -264.5t131 -212t195.5 -138.5t239 -51z" />
    <glyph glyph-name="R" unicode="R" horiz-adv-x="1425" 
d="M393 0h-190v1597h575q74 0 146.5 -16.5t143 -54t124 -92t86.5 -138t33 -184.5q0 -202 -122.5 -317t-318.5 -129v-27q37 -44 73.5 -89t74 -95.5t64.5 -87.5t67.5 -96t60 -87.5t64.5 -95.5t59 -88h-213l-418 627q-195 4 -337 43q13 -111 20 -243.5t7.5 -205.5t0.5 -221z
M367 770l22 -22q135 32 365 32q158 0 258 84.5t100 239.5q0 153 -104.5 237t-262.5 84q-215 0 -356 29l-27 -18q45 -339 5 -666z" />
    <glyph glyph-name="S" unicode="S" horiz-adv-x="1327" 
d="M684 -35q-100 0 -192 26.5t-175 81t-146.5 147t-96.5 214.5l178 64q47 -178 164 -268.5t268 -90.5q65 0 126 16.5t112 49.5t81.5 88.5t30.5 126.5q0 37 -9.5 69t-23 54.5t-38.5 43t-46.5 33.5t-57 27.5t-58.5 22t-63 19.5q-15 5 -23 7l-148 47q-42 13 -75 24.5
t-80.5 33.5t-83.5 45.5t-75 59t-64 75.5t-41.5 94.5t-16.5 116.5q0 104 44 189t118 138.5t167.5 82t196.5 28.5q198 0 342.5 -102.5t194.5 -276.5l-172 -71q-42 128 -140 202t-237 74q-135 0 -225 -69t-90 -181q0 -54 24 -99.5t55.5 -74.5t82 -55t82 -38t77.5 -26l160 -51
q150 -47 215 -81q213 -112 213 -337q0 -140 -74.5 -250.5t-200.5 -169.5t-280 -59z" />
    <glyph glyph-name="T" unicode="T" horiz-adv-x="1304" 
d="M748 0h-191q0 950 29 1450q-205 -27 -555 -27v174h1243v-174q-350 0 -553 27q27 -500 27 -1450z" />
    <glyph glyph-name="U" unicode="U" horiz-adv-x="1536" 
d="M764 -35q-151 0 -264 47t-181 132.5t-101.5 197.5t-33.5 250v1005h191v-991q0 -232 100.5 -348.5t292.5 -116.5t292.5 116.5t100.5 348.5v991h191v-1005q0 -101 -18 -190t-61 -170.5t-109 -139.5t-168 -92.5t-232 -34.5z" />
    <glyph glyph-name="V" unicode="V" horiz-adv-x="1529" 
d="M872 0h-215l-634 1597h200q334 -806 525 -1421h40q166 527 519 1421h200z" />
    <glyph glyph-name="W" unicode="W" horiz-adv-x="2338" 
d="M764 0h-234l-499 1597h211q127 -399 218.5 -716.5t176.5 -669.5h27q142 562 399 1386h215q268 -860 401 -1394h29q141 601 389 1394h211l-498 -1597h-233q-250 768 -389 1360h-35q-156 -650 -389 -1360z" />
    <glyph glyph-name="X" unicode="X" horiz-adv-x="1349" 
d="M244 0h-226q29 43 105.5 156.5t116 172t102 150.5t117 169t108.5 151v28q-193 263 -538 770h221q253 -368 412 -655h28q150 278 412 655h219q-333 -490 -539 -770v-28q66 -91 143 -202t128.5 -187t144 -214t131.5 -196h-223q-246 371 -416 684h-28q-62 -116 -141 -247
t-129.5 -210t-147.5 -227z" />
    <glyph glyph-name="Y" unicode="Y" horiz-adv-x="1421" 
d="M805 0h-191q0 368 15 575q-177 288 -598 1022h205q294 -512 460 -878h27q67 148 156.5 319.5t141.5 265t165 293.5h205q-46 -79 -143.5 -248.5t-155 -269t-142.5 -242.5t-159 -262q14 -193 14 -575z" />
    <glyph glyph-name="Z" unicode="Z" horiz-adv-x="1355" 
d="M1290 0h-1227v158q458 623 1018 1290l-14 27q-475 -52 -969 -52v174h1174v-155q-378 -509 -1018 -1284l14 -27q445 47 1022 47v-178z" />
    <glyph glyph-name="bracketleft" unicode="[" horiz-adv-x="718" 
d="M664 -362h-474v1959h474v-161q-70 0 -103.5 0.5t-97.5 7.5t-123 20q43 -840 0 -1679q127 27 324 27v-174z" />
    <glyph glyph-name="backslash" unicode="\" horiz-adv-x="870" 
d="M801 -135h-172l-557 1773h172z" />
    <glyph glyph-name="bracketright" unicode="]" horiz-adv-x="718" 
d="M528 -362h-475v174q199 0 324 -27q-40 839 0 1679q-58 -13 -122 -20t-98 -7.5t-104 -0.5v161h475v-1959z" />
    <glyph glyph-name="asciicircum" unicode="^" horiz-adv-x="899" 
d="M256 1034h-150l261 563h168l258 -563h-150q-128 295 -168 436h-49q-42 -141 -170 -436z" />
    <glyph glyph-name="underscore" unicode="_" horiz-adv-x="1054" 
d="M1006 -231h-955v147h955v-147z" />
    <glyph glyph-name="a" unicode="a" horiz-adv-x="1181" 
d="M453 -35q-155 0 -260 79t-105 226q0 63 21.5 114.5t57 87.5t88 64.5t107.5 46.5t123 33q27 5 70.5 13.5t65 13t55 12t50 13.5t39 15.5t33.5 20t22.5 24.5t15.5 31.5t4 39.5q0 89 -72 153t-186 64q-103 0 -178.5 -58.5t-106.5 -162.5l-170 57q33 107 107 179.5t163.5 103
t192.5 30.5q70 0 132.5 -14t117.5 -44t95.5 -74t63.5 -108.5t23 -142.5v-428q0 -131 9 -205.5t28 -148.5h-178q-17 61 -19.5 107t15.5 139h-27q-54 -135 -154.5 -208t-242.5 -73zM492 109q77 0 144.5 32.5t111 82.5t68 108.5t24.5 113.5v150q-44 -39 -98.5 -59.5
t-157.5 -40.5q-46 -10 -78.5 -18.5t-78 -26.5t-74 -40t-49.5 -57t-21 -78q0 -78 58 -122.5t151 -44.5z" />
    <glyph glyph-name="b" unicode="b" horiz-adv-x="1368" 
d="M758 -35q-136 0 -242 70t-166 201h-28q7 -23 12 -47t7.5 -40.5t3.5 -41.5t1 -35v-38v-34h-176v1638h180q0 -32 1 -170t0 -200t-6 -177.5t-15 -218.5h28q124 293 410 293q148 0 265.5 -77.5t182 -214t64.5 -306.5q0 -178 -71 -316.5t-189 -212t-262 -73.5zM725 133
q160 0 263.5 122t103.5 310q0 187 -104.5 310.5t-262.5 123.5q-160 0 -269.5 -123t-109.5 -311q0 -190 109.5 -311t269.5 -121z" />
    <glyph glyph-name="c" unicode="c" horiz-adv-x="1245" 
d="M659 -35q-251 0 -411 165.5t-160 434.5q0 268 159 434t408 166q111 0 206.5 -33.5t174 -109t121.5 -186.5l-172 -68q-39 111 -127.5 171t-206.5 60q-169 0 -272 -123t-103 -311q0 -193 109.5 -312.5t278.5 -119.5q131 0 227 72.5t143 195.5l166 -61q-64 -179 -208 -277
t-333 -98z" />
    <glyph glyph-name="d" unicode="d" horiz-adv-x="1372" 
d="M612 -35q-230 0 -377 168.5t-147 431.5q0 134 41 247.5t112 190t166.5 119.5t204.5 43q288 0 404 -293h26q-26 303 -22 766h178v-1284q0 -131 9 -205.5t28 -148.5h-178q-16 68 -18.5 112.5t8.5 135.5h-29q-57 -145 -164.5 -214t-241.5 -69zM645 133q159 0 268 122.5
t109 311.5t-109 310.5t-268 121.5q-160 0 -264.5 -123t-104.5 -311q0 -187 104.5 -309.5t264.5 -122.5z" />
    <glyph glyph-name="e" unicode="e" horiz-adv-x="1267" 
d="M655 -35q-247 0 -407 166t-160 432q0 174 71.5 311.5t199 214t288.5 76.5q74 0 144.5 -17t141.5 -59t123 -105.5t85 -165.5t33 -230v-68h-902q7 -184 113.5 -289.5t271.5 -105.5q126 0 220.5 72t142.5 188l164 -63q-62 -165 -203 -261t-326 -96zM281 684h706
q-4 85 -35 150t-80.5 103t-107.5 56.5t-121 18.5q-143 0 -240.5 -92.5t-121.5 -235.5z" />
    <glyph glyph-name="f" unicode="f" horiz-adv-x="735" 
d="M403 0h-178q0 649 27 997q-80 -22 -197 -22v158q121 0 197 -23q-27 70 -27 174q0 389 326 389q119 0 203 -47v-160q-88 52 -172 52q-37 0 -65.5 -6.5t-47.5 -16t-32 -28.5t-19.5 -34.5t-10 -45.5t-4 -49t-0.5 -56q0 -38 -0.5 -56t-6.5 -51t-19 -65q121 23 340 23v-158
q-215 0 -340 22q13 -162 19 -355.5t6.5 -302.5t0.5 -339z" />
    <glyph glyph-name="g" unicode="g" horiz-adv-x="1368" 
d="M662 -483q-402 0 -521 329l164 58q86 -234 354 -234q77 0 139 22.5t113 71t79 134.5t28 204q0 103 22 168h-26q-62 -136 -167.5 -202t-234.5 -66q-155 0 -276 78.5t-185.5 211t-64.5 294.5q0 252 150 415.5t372 163.5q134 0 242 -78t160 -215h26q-14 106 -14 261h174
v-1000q0 -136 -27 -241.5t-74.5 -175.5t-116 -115t-146 -64.5t-170.5 -19.5zM643 170q158 0 267.5 121t109.5 299q0 177 -109 293t-268 116t-264 -118.5t-105 -292.5q0 -176 106 -297t263 -121z" />
    <glyph glyph-name="h" unicode="h" horiz-adv-x="1300" 
d="M350 0h-180v1638h180q0 -427 -35 -741h29q124 268 391 268q80 0 150.5 -24.5t130 -75.5t94.5 -142t35 -212v-711h-178v633q0 179 -77.5 272.5t-207.5 93.5q-150 0 -241 -110.5t-91 -270.5v-618z" />
    <glyph glyph-name="i" unicode="i" horiz-adv-x="520" 
d="M260 1380q-57 0 -95 39.5t-38 96.5q0 55 38.5 92t94.5 37q55 0 93 -37.5t38 -91.5q0 -57 -38 -96.5t-93 -39.5zM350 0h-180v1133h180v-1133z" />
    <glyph glyph-name="j" unicode="j" horiz-adv-x="520" 
d="M260 1380q-56 0 -93.5 40t-37.5 96q0 54 37.5 91.5t93.5 37.5t93.5 -37.5t37.5 -91.5q0 -58 -37 -97t-94 -39zM16 -483q-127 0 -219 53v160q91 -54 183 -54q39 0 70 12t51 29t33.5 47t20.5 53t10.5 61t4 58t0.5 56v1141h180v-1147q0 -41 -0.5 -63.5t-3.5 -66t-8.5 -71
t-17 -67t-27.5 -64.5t-42 -53.5t-58.5 -45t-77.5 -27.5t-99 -11z" />
    <glyph glyph-name="k" unicode="k" horiz-adv-x="1099" 
d="M350 0h-180v1638h180v-165.5v-179.5t-1 -163.5t-3.5 -181.5t-6.5 -167t-11 -183h26q189 228 482 535h217l-447 -449q53 -65 104.5 -131.5t112 -147.5t94 -126.5t107.5 -147.5t96 -131h-209q-267 369 -403 580q-77 -114 -174 -187q16 -133 16 -393z" />
    <glyph glyph-name="l" unicode="l" horiz-adv-x="520" 
d="M350 0h-180v1638h180v-1638z" />
    <glyph glyph-name="m" unicode="m" horiz-adv-x="2054" 
d="M350 0h-180v1133h176q0 -136 -31 -236h29q64 140 165 204t220 64q59 0 111.5 -15t102 -47.5t86 -93t52.5 -143.5h27q119 299 387 299q61 0 117.5 -15t109 -49.5t91.5 -86t62 -129.5t23 -174v-711h-178v633q0 180 -74.5 273t-197.5 93q-143 0 -233.5 -111.5t-90.5 -269.5
v-618h-178v633q0 181 -74 273.5t-198 92.5q-143 0 -233.5 -111.5t-90.5 -269.5v-618z" />
    <glyph glyph-name="n" unicode="n" horiz-adv-x="1300" 
d="M350 0h-180v1133h176q0 -136 -31 -236h29q124 268 393 268q63 0 120.5 -14.5t110.5 -49t92 -85.5t62 -129t23 -176v-711h-178v633q0 179 -77.5 272.5t-207.5 93.5q-150 0 -241 -110.5t-91 -270.5v-618z" />
    <glyph glyph-name="o" unicode="o" horiz-adv-x="1318" 
d="M662 -35q-254 0 -414 167.5t-160 432.5q0 264 160.5 432t413.5 168q252 0 411.5 -168t159.5 -432q0 -265 -159.5 -432.5t-411.5 -167.5zM662 133q168 0 274 120.5t106 311.5t-106 312.5t-274 121.5q-170 0 -278 -121.5t-108 -312.5t108 -311.5t278 -120.5z" />
    <glyph glyph-name="p" unicode="p" horiz-adv-x="1368" 
d="M350 -451h-180v1584h176q0 -149 -24 -259h28q134 291 416 291q149 0 266.5 -77.5t182.5 -213.5t65 -305q0 -134 -41.5 -248.5t-112 -191.5t-166 -120.5t-202.5 -43.5q-135 0 -240 70t-164 207h-26q7 -62 11 -128.5t6.5 -115t3.5 -121t1 -107v-115.5v-106zM725 133
q159 0 263 123t104 309q0 189 -104 311.5t-263 122.5t-269 -122.5t-110 -311.5t109.5 -310.5t269.5 -121.5z" />
    <glyph glyph-name="q" unicode="q" horiz-adv-x="1368" 
d="M1198 -451h-180v79.5v86t0.5 79t1.5 88.5t2.5 82t4 92.5t6.5 86.5t9 95h-26q-67 -138 -174.5 -205.5t-237.5 -67.5q-148 0 -266.5 78t-184 215.5t-65.5 308.5q0 177 70 314.5t188.5 210.5t263.5 73q138 0 245 -70.5t167 -213.5h27q-27 113 -27 252h176v-1584zM645 133
q159 0 268 122.5t109 311.5t-109.5 310.5t-269.5 121.5q-159 0 -263 -123t-104 -311q0 -187 104.5 -309.5t264.5 -122.5z" />
    <glyph glyph-name="r" unicode="r" horiz-adv-x="854" 
d="M350 0h-180v1133h176q0 -9 1 -52.5t0 -65t-6 -66t-15 -89.5h28q42 148 135.5 226.5t217.5 78.5q73 0 124 -20v-197q-64 25 -139 25q-72 0 -130.5 -27t-97 -71.5t-65 -104t-38 -122t-11.5 -128.5v-520z" />
    <glyph glyph-name="s" unicode="s" horiz-adv-x="1026" 
d="M537 -35q-175 0 -303 87t-173 231l166 55q40 -103 126.5 -162t183.5 -59q36 0 72 9t72 28t58.5 55.5t22.5 85.5q0 33 -13 60t-30.5 44t-50 32.5t-57.5 24t-66 19.5l-111 33q-319 90 -319 330q0 104 57 180t143.5 111.5t188.5 35.5q149 0 260.5 -78t150.5 -200l-170 -58
q-29 81 -93.5 135t-159.5 54q-86 0 -141.5 -46t-55.5 -120q0 -36 16.5 -66.5t39 -50t60 -38t64 -27.5t66.5 -21l100 -28q35 -10 55.5 -17t57.5 -22t60 -29.5t52 -38.5t46 -51.5t28.5 -65.5t11.5 -82q0 -152 -115.5 -251t-299.5 -99z" />
    <glyph glyph-name="t" unicode="t" horiz-adv-x="817" 
d="M555 -35q-49 0 -90.5 9.5t-71 23.5t-53 38t-38.5 45.5t-25.5 54t-15.5 55t-7.5 57t-3 51.5t-0.5 47q0 418 29 651q-100 -24 -254 -24v160q150 0 254 -23q-29 133 -29 356h180q0 -223 -29 -356q139 23 365 23v-160q-232 0 -365 24q29 -215 29 -594q0 -36 0.5 -55t3.5 -53
t8.5 -53t17 -44t28 -38.5t42 -23t58.5 -9.5q90 0 178 57v-166q-82 -53 -211 -53z" />
    <glyph glyph-name="u" unicode="u" horiz-adv-x="1282" 
d="M563 -35q-84 0 -155 25.5t-128.5 78t-90.5 143t-33 210.5v711h178v-644q0 -181 78 -268.5t198 -87.5q75 0 137 32t101 85t60.5 118t21.5 134v631h178v-779q0 -131 9 -205.5t28 -148.5h-178q-12 48 -17 76t-3 73t16 97h-27q-56 -149 -150 -215t-223 -66z" />
    <glyph glyph-name="v" unicode="v" horiz-adv-x="1130" 
d="M668 0h-205l-436 1133h194q200 -510 330 -955h35q119 416 327 955h191z" />
    <glyph glyph-name="w" unicode="w" horiz-adv-x="1875" 
d="M629 0h-199l-401 1133h200q76 -221 107.5 -315t88 -280.5t95.5 -347.5h33q101 372 301 943h168q213 -596 307 -943h33q38 161 93.5 347.5t86.5 280.5t105 315h200l-401 -1133h-203q-203 571 -293 901h-22q-103 -359 -299 -901z" />
    <glyph glyph-name="x" unicode="x" horiz-adv-x="1075" 
d="M229 0h-204q210 309 405 559v29q-162 200 -405 545h206q202 -291 293 -461h29q41 78 98 169t88 137t107 155h205q-251 -356 -406 -545v-29q185 -234 406 -559h-201q-202 296 -297 469h-29q-42 -79 -99.5 -172t-88 -138.5t-107.5 -158.5z" />
    <glyph glyph-name="y" unicode="y" horiz-adv-x="1138" 
d="M492 -451h-179l166 426l-454 1158h196q217 -549 338 -977h27q123 432 336 977h192z" />
    <glyph glyph-name="z" unicode="z" horiz-adv-x="1026" 
d="M973 0h-910v143q6 8 60.5 80t65 86t60 79.5t66 87t61.5 80t68 87.5t64 80.5t70.5 87.5t66.5 80.5t72 85.5l-12 27q-274 -35 -611 -35v164h834v-144q-389 -512 -658 -825l13 -27q240 27 690 27v-164z" />
    <glyph glyph-name="braceleft" unicode="{" horiz-adv-x="806" 
d="M756 -305h-92q-108 0 -188.5 23t-129 60.5t-77.5 95.5t-39.5 119t-10.5 140v172q0 54 -3.5 93.5t-7.5 66.5t-15.5 44.5t-19.5 26.5t-27.5 13.5t-31 5t-38.5 0.5v184q27 0 38.5 0.5t31 5t27.5 13.5t19.5 26.5t15.5 44.5t7.5 66.5t3.5 93.5v170q0 79 10.5 140t39.5 119
t77.5 95.5t129 60.5t188.5 23h92v-161h-78q-151 0 -217 -66.5t-66 -202.5v-176q0 -78 -6.5 -129t-18 -84.5t-36.5 -54t-53 -31t-76 -20.5v-51q49 -11 76 -21.5t52.5 -30.5t37 -53.5t18 -85t6.5 -129.5v-176q0 -136 66 -202t217 -66h78v-162z" />
    <glyph glyph-name="bar" unicode="|" horiz-adv-x="540" 
d="M350 -451h-160v2089h160v-2089z" />
    <glyph glyph-name="braceright" unicode="}" horiz-adv-x="806" 
d="M141 -305h-92v162h80q150 0 215.5 66t65.5 202v176q0 78 7 129.5t18 84.5t37 53.5t52.5 31t75.5 21.5v51q-48 10 -75.5 20.5t-52.5 31t-37 54t-18.5 84.5t-6.5 129v176q0 136 -65.5 202.5t-215.5 66.5h-80v161h92q108 0 188.5 -23t129 -60.5t77.5 -95.5t39.5 -119
t10.5 -140v-170q0 -54 3.5 -93.5t7.5 -66.5t15.5 -44.5t19.5 -26.5t27.5 -13.5t31 -5t38.5 -0.5v-184q-27 0 -38.5 -0.5t-31 -5t-27.5 -13.5t-19.5 -26.5t-15.5 -44.5t-7.5 -66.5t-3.5 -93.5v-172q0 -79 -10.5 -140t-39.5 -119t-77.5 -95.5t-129 -60.5t-188.5 -23z" />
    <glyph glyph-name="asciitilde" unicode="~" horiz-adv-x="1097" 
d="M725 543q-54 0 -103 21t-79.5 45.5t-68.5 45.5t-73 21q-52 0 -77 -37.5t-25 -93.5h-152q0 134 72 209t174 75q52 0 99 -20.5t76 -45t68 -45t77 -20.5q47 0 68.5 36t21.5 93h151q0 -140 -63.5 -212t-165.5 -72z" />
    <glyph glyph-name="uni00A0" unicode="&#xa0;" horiz-adv-x="524" 
 />
    <glyph glyph-name="exclamdown" unicode="&#xa1;" horiz-adv-x="514" 
d="M258 899q-55 0 -94 38.5t-39 92.5q0 57 38.5 96t94.5 39q55 0 93 -39t38 -96q0 -54 -39 -92.5t-92 -38.5zM358 -444h-202v125l51 1046h102l49 -1046v-125z" />
    <glyph glyph-name="cent" unicode="&#xa2;" horiz-adv-x="1140" 
d="M909 590l131 -51q-47 -134 -152 -212t-245 -87v-240h-102v242q-181 22 -295.5 155t-114.5 338t115.5 340t294.5 156v235h102v-233q124 -10 222 -76t143 -188l-136 -54q-27 76 -88 123t-141 58v-719q94 9 162.5 65.5t103.5 147.5zM287 735q0 -141 71 -235.5t183 -118.5
v713q-116 -22 -185 -119.5t-69 -239.5z" />
    <glyph glyph-name="sterling" unicode="&#xa3;" horiz-adv-x="1255" 
d="M1169 0h-1063v168q359 134 359 381q0 34 -6.5 97t-7.5 93q-121 -20 -334 -20v117q160 0 291 -21q-110 124 -165 221.5t-55 212.5q0 177 128 279t321 102q60 0 116.5 -10t120.5 -37.5t115.5 -71.5t95 -118t64.5 -170l-172 -70q-24 89 -62.5 152t-85.5 95t-92.5 46
t-95.5 14q-110 0 -183 -60t-73 -171q0 -66 29.5 -133t74 -145t64.5 -136q176 21 455 21v-117q-250 0 -424 20q73 -71 73 -170q0 -240 -305 -417l21 -27q42 7 86.5 12.5t80.5 10t85 7.5t77 5.5t82 4t75.5 2t80.5 1t74 0.5h80h75v-168z" />
    <glyph glyph-name="currency" unicode="&#xa4;" horiz-adv-x="1357" 
d="M1073 825q0 -145 -80 -252l267 -313l-115 -100l-268 313q-83 -47 -195 -47q-116 0 -199 47l-268 -313l-117 100l267 315q-78 105 -78 250q0 146 75 250l-264 314l117 102l266 -311q87 49 199 49q111 0 201 -49l264 311l115 -102l-265 -312q78 -108 78 -252zM444 825
q0 -115 65.5 -187.5t172.5 -72.5q105 0 169 72.5t64 187.5q0 116 -64.5 189t-170.5 73t-171 -73t-65 -189z" />
    <glyph glyph-name="yen" unicode="&#xa5;" horiz-adv-x="1460" 
d="M825 0h-190q0 174 27 289q-152 -27 -398 -27v139q88 0 130 -0.5t119.5 -6.5t148.5 -19q-20 66 -20 116t20 107q-152 -29 -398 -29v140q209 0 342 -27q-227 366 -545 915h203q308 -540 457 -841h18q161 325 459 841h201q-350 -598 -547 -915q133 27 346 27v-140
q-249 0 -401 29q22 -57 22 -107t-22 -116q71 13 149.5 19t120.5 6.5t131 0.5v-139q-249 0 -401 27q14 -54 20.5 -110.5t7 -86.5t0.5 -92z" />
    <glyph glyph-name="brokenbar" unicode="&#xa6;" horiz-adv-x="540" 
d="M350 836h-160v802h160v-802zM350 -451h-160v795h160v-795z" />
    <glyph glyph-name="section" unicode="&#xa7;" horiz-adv-x="1101" 
d="M563 -301q-173 0 -305 93.5t-174 242.5l160 49q39 -106 130 -174t189 -68q37 0 73.5 9.5t70 29t54.5 56t21 83.5q0 33 -12 60t-28.5 44.5t-49 34.5t-57 26t-68.5 24l-110 39q-45 16 -77 30t-79.5 43t-78 60.5t-53 81t-22.5 106.5q0 99 62.5 166t177.5 84v33
q-102 29 -162.5 97.5t-60.5 166.5q0 81 33.5 146t90 104t125.5 59.5t146 20.5q147 0 256.5 -74t151.5 -227l-168 -53q-32 107 -90.5 159t-157.5 52q-96 0 -153.5 -46.5t-57.5 -121.5q0 -37 16 -68.5t37 -51.5t57.5 -39t60.5 -28t64 -22l121 -41q46 -16 75.5 -27.5t74 -37
t71 -53.5t46.5 -73.5t20 -99.5q0 -101 -65 -175t-179 -97v-31q109 -22 168.5 -85.5t59.5 -168.5q0 -144 -112 -241t-292 -97zM543 387l47 -16q37 3 72.5 14.5t70 32.5t55.5 58.5t21 86.5q0 18 -2 33t-9.5 28.5t-12 23.5t-18.5 20.5t-20 16.5t-26 15t-25.5 12.5t-30.5 12
t-30 10t-33 10.5l-72 23q-85 28 -149 -29.5t-64 -142.5q0 -36 15.5 -67.5t36.5 -52t55.5 -39.5t59 -28.5t59.5 -21.5z" />
    <glyph glyph-name="copyright" unicode="&#xa9;" horiz-adv-x="1921" 
d="M961 -35q-184 0 -341.5 65.5t-264.5 178.5t-167.5 265.5t-60.5 324.5q0 171 60.5 323.5t167.5 264.5t264.5 177.5t341.5 65.5q183 0 340 -65.5t264 -177.5t167 -264.5t60 -323.5q0 -172 -60 -324.5t-167 -265.5t-264 -178.5t-340 -65.5zM961 90q158 0 292 56t225 152
t142 225.5t51 275.5q0 145 -51 274.5t-142 225.5t-225 152t-292 56q-210 0 -373 -96t-249.5 -256.5t-86.5 -355.5q0 -196 86.5 -356.5t249.5 -256.5t373 -96zM971 348q-191 0 -311.5 126t-120.5 325q0 101 33.5 186t91.5 142t136.5 88.5t168.5 31.5q137 0 238 -69.5
t145 -196.5l-131 -47q-32 90 -97.5 137t-156.5 47q-125 0 -204 -89.5t-79 -233.5q0 -148 85 -233t208 -85q98 0 171.5 57.5t108.5 161.5l127 -41q-47 -146 -155.5 -226.5t-257.5 -80.5z" />
    <glyph glyph-name="guillemotleft" unicode="&#xab;" horiz-adv-x="1198" 
d="M627 164h-197l-328 405v9l328 405h197q-53 -66 -85 -104t-82 -92.5t-100 -99t-104 -83.5v-61q54 -39 104 -83.5t100 -99t82 -92.5t85 -104zM1067 164h-197l-327 405v9l327 405h197q-68 -85 -113.5 -137.5t-116.5 -121.5t-141 -120v-61q101 -73 184 -161.5t187 -217.5z
" />
    <glyph glyph-name="logicalnot" unicode="&#xac;" horiz-adv-x="1050" 
d="M901 231h-158v328h-602v150h760v-478z" />
    <glyph glyph-name="registered" unicode="&#xae;" horiz-adv-x="1153" 
d="M578 735q-196 0 -324.5 128t-128.5 323q0 194 128.5 321t324.5 127q193 0 320.5 -128t127.5 -320q0 -195 -127 -323t-321 -128zM578 819q157 0 259.5 104.5t102.5 262.5q0 157 -102.5 260.5t-259.5 103.5q-160 0 -263.5 -103t-103.5 -261q0 -160 103.5 -263.5
t263.5 -103.5zM502 942h-86v494h186q68 0 120 -40t52 -116q0 -58 -30 -96t-78 -51l127 -191h-97l-121 180h-73v-180zM502 1356v-156h94q40 0 64 20t24 60q0 37 -25 56.5t-65 19.5h-92z" />
    <glyph glyph-name="degree" unicode="&#xb0;" horiz-adv-x="770" 
d="M385 1053q-128 0 -211.5 85.5t-83.5 213.5q0 127 84 212t211 85t211 -86t84 -211q0 -127 -84 -213t-211 -86zM385 1163q75 0 124.5 54.5t49.5 134.5q0 77 -50 131.5t-124 54.5t-125 -54.5t-51 -131.5q0 -79 50 -134t126 -55z" />
    <glyph glyph-name="plusminus" unicode="&#xb1;" horiz-adv-x="1071" 
d="M926 799v-144h-314v-206h314v-142h-781v142h312v206h-312v144h312v243h155v-243h314z" />
    <glyph glyph-name="uni00B2" unicode="&#xb2;" horiz-adv-x="667" 
d="M592 784h-510v17q3 67 15.5 113t43 86.5t68.5 71.5t106 77q68 47 90 74q35 40 35 84q0 41 -29.5 67.5t-78.5 26.5q-60 0 -98 -42t-39 -114l-134 21q0 119 77.5 192.5t197.5 73.5q110 0 183 -62.5t73 -162.5q0 -123 -135 -215q-15 -10 -45.5 -29.5t-47 -31t-38 -29.5
t-34.5 -38.5t-20 -45.5h320v-134z" />
    <glyph glyph-name="uni00B3" unicode="&#xb3;" horiz-adv-x="675" 
d="M330 768q-102 0 -179 46.5t-100 121.5l127 63q47 -110 152 -110q52 0 86.5 29t34.5 79q0 52 -37.5 79.5t-98.5 27.5h-71v102h73q53 0 88 28.5t35 72.5t-33 72t-81 28q-51 0 -84 -30t-41 -83l-131 29q9 90 83.5 149.5t182.5 59.5q104 0 176 -54t72 -141q0 -58 -32 -105.5
t-85 -60.5q59 -12 98 -59t39 -113q0 -92 -72.5 -161.5t-201.5 -69.5z" />
    <glyph glyph-name="paragraph" unicode="&#xb6;" horiz-adv-x="1501" 
d="M928 -287h-191v942h-192q-213 0 -344 133.5t-131 346.5q0 98 33.5 181.5t97 146t162 98.5t221.5 36h344v-1884zM1278 -287h-188v1884h188v-1884z" />
    <glyph glyph-name="periodcentered" unicode="&#xb7;" horiz-adv-x="579" 
d="M291 477q-67 0 -114.5 49.5t-47.5 118.5q0 65 47.5 111.5t114.5 46.5q66 0 113 -46.5t47 -111.5q0 -69 -47 -118.5t-113 -49.5z" />
    <glyph glyph-name="uni00B9" unicode="&#xb9;" horiz-adv-x="473" 
d="M348 784h-143v500q-62 -65 -158 -84v150q72 22 116 67t44 99h141v-732z" />
    <glyph glyph-name="guillemotright" unicode="&#xbb;" horiz-adv-x="1198" 
d="M657 569l-327 -405h-199q57 70 86.5 104.5t81.5 91.5t101.5 100.5t103.5 82.5v61q-54 39 -103.5 82.5t-101.5 100.5t-81.5 91.5t-86.5 104.5h199l327 -405v-9zM1096 569l-328 -405h-197q68 85 113.5 137.5t116.5 121.5t141 120v61q-101 73 -184 161.5t-187 217.5h197
l328 -405v-9z" />
    <glyph glyph-name="onequarter" unicode="&#xbc;" horiz-adv-x="1433" 
d="M348 784h-143v500q-62 -65 -158 -84v150q72 22 116 67t44 99h141v-732zM162 0h-170l1138 1468h162zM1280 -12h-139v151h-353v119l355 461h137v-459h94v-121h-94v-151zM1141 532l-211 -272h211v272z" />
    <glyph glyph-name="onehalf" unicode="&#xbd;" horiz-adv-x="1478" 
d="M348 784h-143v500q-62 -65 -158 -84v150q72 22 116 67t44 99h141v-732zM162 0h-170l1138 1468h162zM1403 -12h-510v16q3 67 15.5 113t43 86.5t68.5 71.5t106 77q68 47 90 74q35 40 35 84q0 41 -29.5 67.5t-78.5 26.5q-61 0 -98.5 -42t-38.5 -113l-134 20
q0 119 77.5 192.5t197.5 73.5q110 0 183 -62.5t73 -162.5q0 -123 -135 -215q-15 -10 -45.5 -29.5t-47 -31t-38 -29.5t-34.5 -38.5t-20 -45.5h320v-133z" />
    <glyph glyph-name="threequarters" unicode="&#xbe;" horiz-adv-x="1636" 
d="M330 768q-102 0 -179 46.5t-100 121.5l127 63q47 -110 152 -110q52 0 86.5 29t34.5 79q0 52 -37.5 79.5t-98.5 27.5h-71v102h73q53 0 88 28.5t35 72.5t-33 72t-81 28q-51 0 -84 -30t-41 -83l-131 29q9 90 83.5 149.5t182.5 59.5q104 0 176 -54t72 -141q0 -58 -32 -105.5
t-85 -60.5q59 -12 98 -59t39 -113q0 -92 -72.5 -161.5t-201.5 -69.5zM365 0h-170l1138 1468h162zM1481 -12h-140v151h-352v119l354 461h138v-459h94v-121h-94v-151zM1341 532l-211 -272h211v272z" />
    <glyph glyph-name="questiondown" unicode="&#xbf;" horiz-adv-x="1114" 
d="M608 899q-54 0 -92.5 39t-38.5 94q0 56 37.5 94.5t91.5 38.5q56 0 94.5 -39t38.5 -96q0 -54 -38 -92.5t-93 -38.5zM555 -479q-95 0 -182 29.5t-154 83.5t-107 135.5t-40 179.5q0 60 17 116t41.5 98t64 86t73 73.5t80.5 66.5q47 36 62.5 48.5t48.5 43.5t45 51.5t23.5 53
t11.5 67.5q0 31 -2 47h186q4 -46 4 -65q0 -46 -12 -87t-30 -72t-51.5 -65t-65 -59t-81.5 -61q-103 -79 -159 -155t-56 -173q0 -122 85 -196t208 -74q132 0 223 87t91 230q0 34 -5 56l170 -31q5 -22 5 -53q0 -139 -69.5 -245.5t-181 -161t-243.5 -54.5z" />
    <glyph glyph-name="Agrave" unicode="&#xc0;" horiz-adv-x="1529" 
d="M874 1720h-163l-336 336h248zM221 0h-198l636 1597h213l637 -1597h-202q-43 105 -69 171.5t-59 166t-53 188.5l-20 19q-198 -29 -332 -29q-138 0 -346 29l-22 -21q-48 -185 -185 -524zM473 686l14 -20q152 28 287 28q131 0 262 -28l15 18q-183 399 -260 739h-56
q-78 -338 -262 -737z" />
    <glyph glyph-name="Aacute" unicode="&#xc1;" horiz-adv-x="1529" 
d="M1165 2056l-334 -336h-163l252 336h245zM221 0h-198l636 1597h213l637 -1597h-202q-43 105 -69 171.5t-59 166t-53 188.5l-20 19q-198 -29 -332 -29q-138 0 -346 29l-22 -21q-48 -185 -185 -524zM473 686l14 -20q152 28 287 28q131 0 262 -28l15 18q-183 399 -260 739
h-56q-78 -338 -262 -737z" />
    <glyph glyph-name="Acircumflex" unicode="&#xc2;" horiz-adv-x="1529" 
d="M555 1720h-166l275 322h200l277 -322h-168q-44 42 -67.5 66.5t-56.5 72t-56 101.5h-56q-23 -54 -57 -102t-56.5 -71t-68.5 -67zM221 0h-198l636 1597h213l637 -1597h-202q-43 105 -69 171.5t-59 166t-53 188.5l-20 19q-198 -29 -332 -29q-138 0 -346 29l-22 -21
q-48 -185 -185 -524zM473 686l14 -20q152 28 287 28q131 0 262 -28l15 18q-183 399 -260 739h-56q-78 -338 -262 -737z" />
    <glyph glyph-name="Atilde" unicode="&#xc3;" horiz-adv-x="1529" 
d="M920 1743q-50 0 -84 16t-74 49l-45 35q-2 1 -9 6.5t-9.5 7.5t-9.5 6.5t-10.5 6.5t-10 5.5t-11 5t-10.5 4t-12 3t-12 0.5q-43 0 -70 -37t-27 -92h-133q1 121 64 195t161 74q40 0 73.5 -15.5t76.5 -48.5l45 -35q1 -1 10 -7.5t11.5 -8.5t11 -7.5t12.5 -7.5l12 -6t13.5 -5.5
t13 -3t14.5 -1.5q42 0 65 36t23 95h134q0 -127 -56 -198.5t-157 -71.5zM221 0h-198l636 1597h213l637 -1597h-202q-43 105 -69 171.5t-59 166t-53 188.5l-20 19q-198 -29 -332 -29q-138 0 -346 29l-22 -21q-48 -185 -185 -524zM473 686l14 -20q152 28 287 28q131 0 262 -28
l15 18q-183 399 -260 739h-56q-78 -338 -262 -737z" />
    <glyph glyph-name="Adieresis" unicode="&#xc4;" horiz-adv-x="1529" 
d="M557 1772q-55 0 -91 36.5t-36 92.5q0 52 36 87t91 35q52 0 87.5 -35.5t35.5 -86.5q0 -55 -35 -92t-88 -37zM973 1772q-55 0 -91 36.5t-36 92.5q0 52 36 87t91 35q52 0 88.5 -35.5t36.5 -86.5q0 -55 -36 -92t-89 -37zM221 0h-198l636 1597h213l637 -1597h-202
q-43 105 -69 171.5t-59 166t-53 188.5l-20 19q-198 -29 -332 -29q-138 0 -346 29l-22 -21q-48 -185 -185 -524zM473 686l14 -20q152 28 287 28q131 0 262 -28l15 18q-183 399 -260 739h-56q-78 -338 -262 -737z" />
    <glyph glyph-name="Aring" unicode="&#xc5;" horiz-adv-x="1529" 
d="M764 1714q-101 0 -168.5 66t-67.5 164q0 97 67.5 161t168.5 64q100 0 167.5 -63.5t67.5 -161.5q0 -99 -67.5 -164.5t-167.5 -65.5zM764 1819q55 0 90 34.5t35 90.5q0 53 -35 86.5t-90 33.5q-56 0 -91.5 -33t-35.5 -87q0 -56 35.5 -90.5t91.5 -34.5zM221 0h-198l636 1597
h213l637 -1597h-202q-43 105 -69 171.5t-59 166t-53 188.5l-20 19q-198 -29 -332 -29q-138 0 -346 29l-22 -21q-48 -185 -185 -524zM473 686l14 -20q152 28 287 28q131 0 262 -28l15 18q-183 399 -260 739h-56q-78 -338 -262 -737z" />
    <glyph glyph-name="AE" unicode="&#xc6;" horiz-adv-x="2131" 
d="M162 0h-209l930 1597h1126v-174q-175 0 -276 1t-269 9.5t-315 24.5q46 -286 6 -577q286 26 813 26v-180q-516 0 -813 29q39 -302 0 -613q147 16 318 24.5t274.5 9.5t282.5 1v-178h-1037q0 332 21 543q-287 -42 -572 0q-37 -94 -90 -199t-86.5 -164t-103.5 -180zM541 670
q242 38 479 -2q-34 339 -14 782h-41q-133 -317 -424 -780z" />
    <glyph glyph-name="Ccedilla" unicode="&#xc7;" horiz-adv-x="1716" 
d="M938 -35q-39 -50 -115 -119l13 -10q56 35 110 35q78 0 131 -48t53 -126q0 -88 -68.5 -142.5t-174.5 -54.5q-81 0 -151 31.5t-113 85.5l67 74q35 -44 85.5 -68t103.5 -24q56 0 91.5 26.5t35.5 69.5q0 42 -32.5 68t-84.5 26t-94 -27l-66 56l98 151q-213 19 -377.5 127.5
t-257 290.5t-92.5 410q0 187 64 345t174 264t256 165t309 59q157 0 297.5 -53t251.5 -162.5t162 -261.5l-174 -70q-69 172 -212.5 270.5t-324.5 98.5q-123 0 -232 -45.5t-191 -129t-129.5 -209.5t-47.5 -277q0 -130 35.5 -238.5t96 -183t140.5 -126.5t169 -76t182 -24
q111 0 207 35t167 97.5t121.5 144t79.5 180.5l174 -61q-82 -260 -272 -413.5t-465 -160.5z" />
    <glyph glyph-name="Egrave" unicode="&#xc8;" horiz-adv-x="1343" 
d="M799 1720h-164l-336 336h248zM1239 0h-1036v1597h1016v-174h-127.5h-142t-126.5 1.5t-147 5t-134 9.5t-153 15l-27 -18q44 -264 7 -545l18 -23q135 19 286 28.5t244 11t261 1.5v-182q-168 0 -261 1.5t-243.5 11t-284.5 28.5l-20 -20q37 -304 -4 -580l24 -25
q143 16 305 24.5t263 9.5t282 1v-178z" />
    <glyph glyph-name="Eacute" unicode="&#xc9;" horiz-adv-x="1343" 
d="M1092 2056l-334 -336h-164l252 336h246zM1239 0h-1036v1597h1016v-174h-127.5h-142t-126.5 1.5t-147 5t-134 9.5t-153 15l-27 -18q44 -264 7 -545l18 -23q135 19 286 28.5t244 11t261 1.5v-182q-168 0 -261 1.5t-243.5 11t-284.5 28.5l-20 -20q37 -304 -4 -580l24 -25
q143 16 305 24.5t263 9.5t282 1v-178z" />
    <glyph glyph-name="Ecircumflex" unicode="&#xca;" horiz-adv-x="1343" 
d="M479 1720h-166l275 322h200l277 -322h-168q-44 42 -67.5 66.5t-56.5 72t-56 101.5h-55q-17 -41 -37.5 -75t-49.5 -67t-44 -48t-52 -50zM1239 0h-1036v1597h1016v-174h-127.5h-142t-126.5 1.5t-147 5t-134 9.5t-153 15l-27 -18q44 -264 7 -545l18 -23q135 19 286 28.5
t244 11t261 1.5v-182q-168 0 -261 1.5t-243.5 11t-284.5 28.5l-20 -20q37 -304 -4 -580l24 -25q143 16 305 24.5t263 9.5t282 1v-178z" />
    <glyph glyph-name="Edieresis" unicode="&#xcb;" horiz-adv-x="1343" 
d="M481 1772q-55 0 -91 36.5t-36 92.5q0 52 36 87t91 35q52 0 87.5 -35.5t35.5 -86.5q0 -55 -35 -92t-88 -37zM897 1772q-55 0 -91 36.5t-36 92.5q0 52 36 87t91 35q52 0 88.5 -35.5t36.5 -86.5q0 -55 -36 -92t-89 -37zM1239 0h-1036v1597h1016v-174h-127.5h-142t-126.5 1.5
t-147 5t-134 9.5t-153 15l-27 -18q44 -264 7 -545l18 -23q135 19 286 28.5t244 11t261 1.5v-182q-168 0 -261 1.5t-243.5 11t-284.5 28.5l-20 -20q37 -304 -4 -580l24 -25q143 16 305 24.5t263 9.5t282 1v-178z" />
    <glyph glyph-name="Igrave" unicode="&#xcc;" horiz-adv-x="595" 
d="M406 1720h-164l-336 336h248zM393 0h-190v1597h190v-1597z" />
    <glyph glyph-name="Iacute" unicode="&#xcd;" horiz-adv-x="595" 
d="M698 2056l-333 -336h-164l252 336h245zM393 0h-190v1597h190v-1597z" />
    <glyph glyph-name="Icircumflex" unicode="&#xce;" horiz-adv-x="595" 
d="M86 1720h-166l275 322h200l277 -322h-168q-44 42 -67.5 66.5t-56.5 72t-56 101.5h-56q-23 -54 -57 -102t-56.5 -71t-68.5 -67zM393 0h-190v1597h190v-1597z" />
    <glyph glyph-name="Idieresis" unicode="&#xcf;" horiz-adv-x="595" 
d="M90 1772q-55 0 -91 36.5t-36 92.5q0 52 36 87t91 35q52 0 87.5 -35.5t35.5 -86.5q0 -55 -35 -92t-88 -37zM506 1772q-55 0 -91 36.5t-36 92.5q0 52 36 87t91 35q52 0 88.5 -35.5t36.5 -86.5q0 -55 -36 -92t-89 -37zM393 0h-190v1597h190v-1597z" />
    <glyph glyph-name="Eth" unicode="&#xd0;" horiz-adv-x="1642" 
d="M203 1597h577q156 0 283 -40.5t214.5 -112t146.5 -171.5t86.5 -216t27.5 -248q0 -238 -87 -420t-255.5 -285.5t-396.5 -103.5h-596v721h-183v153h183v723zM795 174q246 0 395 161.5t149 459.5q0 159 -45.5 281t-128 197t-190.5 112.5t-240 37.5q-73 0 -113.5 1t-107 8.5
t-125.5 21.5l-27 -18q28 -294 31 -562h479v-153h-479q-3 -297 -28 -553l24 -25q68 14 145.5 21.5t126 8.5t134.5 1z" />
    <glyph glyph-name="Ntilde" unicode="&#xd1;" horiz-adv-x="1685" 
d="M981 1780q-50 0 -84 16t-74 49l-45 35q-2 1 -9 6.5t-9.5 7.5t-9.5 6.5t-10.5 6.5t-10 5.5t-11 5t-10.5 4t-12 3t-12 0.5q-43 0 -69.5 -37t-26.5 -92h-133q1 120 64 194t161 74q40 0 73 -15t76 -48l45 -35q1 -1 8 -6t9 -6.5t8.5 -6.5t9.5 -6.5t9.5 -5.5t10.5 -5.5t10.5 -4
t11 -3.5t10.5 -2t12 -1q42 0 65 36t23 95h133q0 -127 -56 -198.5t-157 -71.5zM393 0h-190v1597h174q515 -675 919 -1331h27q-6 87 -11 180t-8.5 165t-5.5 176.5t-3.5 158.5t-2 171.5t-0.5 154.5v168.5v156.5h191v-1597h-176q-290 383 -501.5 680t-414.5 623h-29
q6 -85 11 -176.5t8.5 -161.5t5.5 -172.5t3.5 -155t2 -167.5t0.5 -151v-165v-154z" />
    <glyph glyph-name="Ograve" unicode="&#xd2;" horiz-adv-x="1806" 
d="M1010 1720h-164l-336 336h248zM903 -35q-163 0 -311 62.5t-257 171t-173 264.5t-64 334q0 177 63.5 333t172 265t256.5 172t313 63q167 0 315.5 -64t255.5 -174.5t169.5 -265.5t62.5 -329q0 -175 -63 -330t-170.5 -264.5t-256 -173.5t-313.5 -64zM905 143q162 0 298.5 84
t218 235t81.5 335q0 138 -47.5 260.5t-128 208.5t-190.5 136t-232 50q-163 0 -301 -83.5t-220.5 -234.5t-82.5 -337q0 -140 48.5 -262.5t130.5 -208t192.5 -134.5t232.5 -49z" />
    <glyph glyph-name="Oacute" unicode="&#xd3;" horiz-adv-x="1806" 
d="M1303 2056l-334 -336h-164l252 336h246zM903 -35q-163 0 -311 62.5t-257 171t-173 264.5t-64 334q0 177 63.5 333t172 265t256.5 172t313 63q167 0 315.5 -64t255.5 -174.5t169.5 -265.5t62.5 -329q0 -175 -63 -330t-170.5 -264.5t-256 -173.5t-313.5 -64zM905 143
q162 0 298.5 84t218 235t81.5 335q0 138 -47.5 260.5t-128 208.5t-190.5 136t-232 50q-163 0 -301 -83.5t-220.5 -234.5t-82.5 -337q0 -140 48.5 -262.5t130.5 -208t192.5 -134.5t232.5 -49z" />
    <glyph glyph-name="Ocircumflex" unicode="&#xd4;" horiz-adv-x="1806" 
d="M690 1720h-166l275 322h200l277 -322h-168q-44 42 -67.5 66.5t-56.5 72t-56 101.5h-56q-23 -54 -57 -102t-56.5 -71t-68.5 -67zM903 -35q-163 0 -311 62.5t-257 171t-173 264.5t-64 334q0 177 63.5 333t172 265t256.5 172t313 63q167 0 315.5 -64t255.5 -174.5
t169.5 -265.5t62.5 -329q0 -175 -63 -330t-170.5 -264.5t-256 -173.5t-313.5 -64zM905 143q162 0 298.5 84t218 235t81.5 335q0 138 -47.5 260.5t-128 208.5t-190.5 136t-232 50q-163 0 -301 -83.5t-220.5 -234.5t-82.5 -337q0 -140 48.5 -262.5t130.5 -208t192.5 -134.5
t232.5 -49z" />
    <glyph glyph-name="Otilde" unicode="&#xd5;" horiz-adv-x="1806" 
d="M1059 1780q-50 0 -84 16t-74 49l-45 35q-2 1 -9 6.5t-9.5 7.5t-9.5 6.5t-10.5 6.5t-10 5.5t-11 5t-10.5 4t-12 3t-12 0.5q-43 0 -69.5 -37t-26.5 -92h-134q1 120 64.5 194t161.5 74q40 0 73 -15t76 -48l45 -35q1 -1 8 -6t9 -6.5t8.5 -6.5t9.5 -6.5t9.5 -5.5t10.5 -5.5
t10.5 -4t11 -3.5t10.5 -2t12 -1q42 0 65 36t23 95h133q0 -127 -56 -198.5t-157 -71.5zM903 -35q-163 0 -311 62.5t-257 171t-173 264.5t-64 334q0 177 63.5 333t172 265t256.5 172t313 63q167 0 315.5 -64t255.5 -174.5t169.5 -265.5t62.5 -329q0 -175 -63 -330
t-170.5 -264.5t-256 -173.5t-313.5 -64zM905 143q162 0 298.5 84t218 235t81.5 335q0 138 -47.5 260.5t-128 208.5t-190.5 136t-232 50q-163 0 -301 -83.5t-220.5 -234.5t-82.5 -337q0 -140 48.5 -262.5t130.5 -208t192.5 -134.5t232.5 -49z" />
    <glyph glyph-name="Odieresis" unicode="&#xd6;" horiz-adv-x="1806" 
d="M694 1772q-55 0 -91 36.5t-36 92.5q0 52 36 87t91 35q52 0 87.5 -35.5t35.5 -86.5q0 -55 -35 -92t-88 -37zM1110 1772q-55 0 -91 36.5t-36 92.5q0 52 36 87t91 35q52 0 88.5 -35.5t36.5 -86.5q0 -55 -36 -92t-89 -37zM903 -35q-163 0 -311 62.5t-257 171t-173 264.5
t-64 334q0 177 63.5 333t172 265t256.5 172t313 63q167 0 315.5 -64t255.5 -174.5t169.5 -265.5t62.5 -329q0 -175 -63 -330t-170.5 -264.5t-256 -173.5t-313.5 -64zM905 143q162 0 298.5 84t218 235t81.5 335q0 138 -47.5 260.5t-128 208.5t-190.5 136t-232 50
q-163 0 -301 -83.5t-220.5 -234.5t-82.5 -337q0 -140 48.5 -262.5t130.5 -208t192.5 -134.5t232.5 -49z" />
    <glyph glyph-name="multiply" unicode="&#xd7;" horiz-adv-x="952" 
d="M375 625l-240 237l107 107l239 -238l230 230l104 -105l-229 -231l233 -236l-106 -106l-234 235l-233 -231l-105 104z" />
    <glyph glyph-name="Oslash" unicode="&#xd8;" horiz-adv-x="1806" 
d="M1585 1661l-155 -227q130 -116 203 -281t73 -356q0 -175 -63 -330t-170.5 -264.5t-256 -173.5t-313.5 -64q-220 0 -405 109l-97 -140h-190l160 232q-129 115 -201 277.5t-72 353.5q0 177 63.5 333t172 265t256.5 172t313 63q218 0 397 -104l93 135h192zM301 797
q0 -139 47 -260t131 -209l717 1044q-135 80 -291 80q-163 0 -301 -83.5t-220.5 -234.5t-82.5 -337zM905 143q162 0 298.5 84t218 235t81.5 335q0 142 -48.5 264.5t-135.5 212.5l-717 -1047q143 -84 303 -84z" />
    <glyph glyph-name="Ugrave" unicode="&#xd9;" horiz-adv-x="1536" 
d="M879 1720h-164l-336 336h248zM764 -35q-151 0 -264 47t-181 132.5t-101.5 197.5t-33.5 250v1005h191v-991q0 -232 100.5 -348.5t292.5 -116.5t292.5 116.5t100.5 348.5v991h191v-1005q0 -101 -18 -190t-61 -170.5t-109 -139.5t-168 -92.5t-232 -34.5z" />
    <glyph glyph-name="Uacute" unicode="&#xda;" horiz-adv-x="1536" 
d="M1130 2054l-333 -334h-164l252 334h245zM764 -35q-151 0 -264 47t-181 132.5t-101.5 197.5t-33.5 250v1005h191v-991q0 -232 100.5 -348.5t292.5 -116.5t292.5 116.5t100.5 348.5v991h191v-1005q0 -101 -18 -190t-61 -170.5t-109 -139.5t-168 -92.5t-232 -34.5z" />
    <glyph glyph-name="Ucircumflex" unicode="&#xdb;" horiz-adv-x="1536" 
d="M559 1720h-166l275 322h200l277 -322h-168q-44 42 -67.5 66.5t-56.5 72t-56 101.5h-56q-23 -54 -57 -102t-56.5 -71t-68.5 -67zM764 -35q-151 0 -264 47t-181 132.5t-101.5 197.5t-33.5 250v1005h191v-991q0 -232 100.5 -348.5t292.5 -116.5t292.5 116.5t100.5 348.5v991
h191v-1005q0 -101 -18 -190t-61 -170.5t-109 -139.5t-168 -92.5t-232 -34.5z" />
    <glyph glyph-name="Udieresis" unicode="&#xdc;" horiz-adv-x="1536" 
d="M561 1772q-55 0 -91 36.5t-36 92.5q0 52 36 87t91 35q52 0 87.5 -35.5t35.5 -86.5q0 -55 -35 -92t-88 -37zM977 1772q-55 0 -91 36.5t-36 92.5q0 52 36 87t91 35q52 0 88.5 -35.5t36.5 -86.5q0 -55 -36 -92t-89 -37zM764 -35q-151 0 -264 47t-181 132.5t-101.5 197.5
t-33.5 250v1005h191v-991q0 -232 100.5 -348.5t292.5 -116.5t292.5 116.5t100.5 348.5v991h191v-1005q0 -101 -18 -190t-61 -170.5t-109 -139.5t-168 -92.5t-232 -34.5z" />
    <glyph glyph-name="Yacute" unicode="&#xdd;" horiz-adv-x="1421" 
d="M1100 2054l-336 -334h-164l252 334h248zM805 0h-191q0 368 15 575q-177 288 -598 1022h205q294 -512 460 -878h27q67 148 156.5 319.5t141.5 265t165 293.5h205q-46 -79 -143.5 -248.5t-155 -269t-142.5 -242.5t-159 -262q14 -193 14 -575z" />
    <glyph glyph-name="Thorn" unicode="&#xde;" horiz-adv-x="1400" 
d="M393 0h-190v1597h190q0 -98 -24 -280h409q76 0 149.5 -16t143.5 -53t123 -91.5t85 -136.5t32 -182q0 -104 -32.5 -190t-84.5 -141.5t-120 -93.5t-135.5 -54.5t-133.5 -16.5q-106 0 -159 1.5t-130.5 13t-146.5 34.5q24 -221 24 -391zM367 498l22 -23q62 19 132 28.5
t113 11t120 1.5q160 0 259 78t99 235q0 78 -29 139t-80 99t-116.5 57t-141.5 19q-77 0 -119 1t-110 8.5t-127 21.5l-27 -19q42 -326 5 -657z" />
    <glyph glyph-name="germandbls" unicode="&#xdf;" horiz-adv-x="1292" 
d="M350 0h-180v1122q0 42 3.5 84.5t16.5 99t33.5 105.5t58 98.5t87 84.5t124 57t164.5 22q230 0 362 -125.5t132 -320.5q0 -156 -84 -256.5t-231 -112.5v-35q172 -7 271 -106t99 -262q0 -91 -33.5 -171.5t-98.5 -144.5t-171 -101.5t-241 -37.5h-148v160h168q148 0 241 85
t93 216q0 123 -83.5 203.5t-213.5 80.5h-105v160h86q116 0 189.5 80.5t73.5 216.5q0 134 -77.5 220.5t-228.5 86.5q-78 0 -137.5 -28t-90.5 -67t-50 -91.5t-24 -91.5t-5 -78v-1153z" />
    <glyph glyph-name="agrave" unicode="&#xe0;" horiz-adv-x="1181" 
d="M686 1278h-158l-311 389h229zM453 -35q-155 0 -260 79t-105 226q0 63 21.5 114.5t57 87.5t88 64.5t107.5 46.5t123 33q27 5 70.5 13.5t65 13t55 12t50 13.5t39 15.5t33.5 20t22.5 24.5t15.5 31.5t4 39.5q0 89 -72 153t-186 64q-103 0 -178.5 -58.5t-106.5 -162.5l-170 57
q33 107 107 179.5t163.5 103t192.5 30.5q70 0 132.5 -14t117.5 -44t95.5 -74t63.5 -108.5t23 -142.5v-428q0 -131 9 -205.5t28 -148.5h-178q-17 61 -19.5 107t15.5 139h-27q-54 -135 -154.5 -208t-242.5 -73zM492 109q77 0 144.5 32.5t111 82.5t68 108.5t24.5 113.5v150
q-44 -39 -98.5 -59.5t-157.5 -40.5q-46 -10 -78.5 -18.5t-78 -26.5t-74 -40t-49.5 -57t-21 -78q0 -78 58 -122.5t151 -44.5z" />
    <glyph glyph-name="aacute" unicode="&#xe1;" horiz-adv-x="1181" 
d="M977 1667l-311 -389h-156l238 389h229zM453 -35q-155 0 -260 79t-105 226q0 63 21.5 114.5t57 87.5t88 64.5t107.5 46.5t123 33q27 5 70.5 13.5t65 13t55 12t50 13.5t39 15.5t33.5 20t22.5 24.5t15.5 31.5t4 39.5q0 89 -72 153t-186 64q-103 0 -178.5 -58.5
t-106.5 -162.5l-170 57q33 107 107 179.5t163.5 103t192.5 30.5q70 0 132.5 -14t117.5 -44t95.5 -74t63.5 -108.5t23 -142.5v-428q0 -131 9 -205.5t28 -148.5h-178q-17 61 -19.5 107t15.5 139h-27q-54 -135 -154.5 -208t-242.5 -73zM492 109q77 0 144.5 32.5t111 82.5
t68 108.5t24.5 113.5v150q-44 -39 -98.5 -59.5t-157.5 -40.5q-46 -10 -78.5 -18.5t-78 -26.5t-74 -40t-49.5 -57t-21 -78q0 -78 58 -122.5t151 -44.5z" />
    <glyph glyph-name="acircumflex" unicode="&#xe2;" horiz-adv-x="1181" 
d="M367 1278h-170l297 360h208l297 -360h-168q-49 51 -77.5 82t-66 81.5t-62.5 100.5h-50q-38 -71 -87 -130.5t-121 -133.5zM453 -35q-155 0 -260 79t-105 226q0 63 21.5 114.5t57 87.5t88 64.5t107.5 46.5t123 33q27 5 70.5 13.5t65 13t55 12t50 13.5t39 15.5t33.5 20
t22.5 24.5t15.5 31.5t4 39.5q0 89 -72 153t-186 64q-103 0 -178.5 -58.5t-106.5 -162.5l-170 57q33 107 107 179.5t163.5 103t192.5 30.5q70 0 132.5 -14t117.5 -44t95.5 -74t63.5 -108.5t23 -142.5v-428q0 -131 9 -205.5t28 -148.5h-178q-17 61 -19.5 107t15.5 139h-27
q-54 -135 -154.5 -208t-242.5 -73zM492 109q77 0 144.5 32.5t111 82.5t68 108.5t24.5 113.5v150q-44 -39 -98.5 -59.5t-157.5 -40.5q-46 -10 -78.5 -18.5t-78 -26.5t-74 -40t-49.5 -57t-21 -78q0 -78 58 -122.5t151 -44.5z" />
    <glyph glyph-name="atilde" unicode="&#xe3;" horiz-adv-x="1181" 
d="M758 1317q-50 0 -84 16t-74 49l-45 35q-2 1 -9 6.5t-9.5 7.5t-9.5 6.5t-10.5 6.5t-10 5.5t-11 5t-10.5 4t-12 3t-12 0.5q-43 0 -69.5 -37t-26.5 -92h-134q1 120 64.5 194.5t161.5 74.5q40 0 73 -15.5t76 -48.5l45 -35q1 -1 8 -6t9 -6.5t8.5 -6.5t9.5 -6.5t9.5 -5.5
t10.5 -5.5t10.5 -4t11 -3.5t10.5 -2t12 -1q42 0 65 36t23 95h133q0 -127 -56 -198.5t-157 -71.5zM453 -35q-155 0 -260 79t-105 226q0 63 21.5 114.5t57 87.5t88 64.5t107.5 46.5t123 33q27 5 70.5 13.5t65 13t55 12t50 13.5t39 15.5t33.5 20t22.5 24.5t15.5 31.5t4 39.5
q0 89 -72 153t-186 64q-103 0 -178.5 -58.5t-106.5 -162.5l-170 57q33 107 107 179.5t163.5 103t192.5 30.5q70 0 132.5 -14t117.5 -44t95.5 -74t63.5 -108.5t23 -142.5v-428q0 -131 9 -205.5t28 -148.5h-178q-17 61 -19.5 107t15.5 139h-27q-54 -135 -154.5 -208
t-242.5 -73zM492 109q77 0 144.5 32.5t111 82.5t68 108.5t24.5 113.5v150q-44 -39 -98.5 -59.5t-157.5 -40.5q-46 -10 -78.5 -18.5t-78 -26.5t-74 -40t-49.5 -57t-21 -78q0 -78 58 -122.5t151 -44.5z" />
    <glyph glyph-name="adieresis" unicode="&#xe4;" horiz-adv-x="1181" 
d="M410 1352q-51 0 -86 36t-35 89q0 48 35.5 83t85.5 35q51 0 85.5 -35t34.5 -83q0 -53 -34 -89t-86 -36zM788 1352q-52 0 -86 36t-34 89q0 48 34.5 83t85.5 35q50 0 85.5 -35t35.5 -83q0 -53 -35 -89t-86 -36zM453 -35q-155 0 -260 79t-105 226q0 63 21.5 114.5t57 87.5
t88 64.5t107.5 46.5t123 33q27 5 70.5 13.5t65 13t55 12t50 13.5t39 15.5t33.5 20t22.5 24.5t15.5 31.5t4 39.5q0 89 -72 153t-186 64q-103 0 -178.5 -58.5t-106.5 -162.5l-170 57q33 107 107 179.5t163.5 103t192.5 30.5q70 0 132.5 -14t117.5 -44t95.5 -74t63.5 -108.5
t23 -142.5v-428q0 -131 9 -205.5t28 -148.5h-178q-17 61 -19.5 107t15.5 139h-27q-54 -135 -154.5 -208t-242.5 -73zM492 109q77 0 144.5 32.5t111 82.5t68 108.5t24.5 113.5v150q-44 -39 -98.5 -59.5t-157.5 -40.5q-46 -10 -78.5 -18.5t-78 -26.5t-74 -40t-49.5 -57
t-21 -78q0 -78 58 -122.5t151 -44.5z" />
    <glyph glyph-name="aring" unicode="&#xe5;" horiz-adv-x="1181" 
d="M600 1249q-100 0 -167.5 66t-67.5 164q0 96 67.5 160.5t167.5 64.5q101 0 168.5 -63.5t67.5 -161.5q0 -99 -68 -164.5t-168 -65.5zM600 1354q55 0 91 34.5t36 90.5q0 53 -36 86.5t-91 33.5q-56 0 -91.5 -33t-35.5 -87q0 -56 35.5 -90.5t91.5 -34.5zM453 -35
q-155 0 -260 79t-105 226q0 63 21.5 114.5t57 87.5t88 64.5t107.5 46.5t123 33q27 5 70.5 13.5t65 13t55 12t50 13.5t39 15.5t33.5 20t22.5 24.5t15.5 31.5t4 39.5q0 89 -72 153t-186 64q-103 0 -178.5 -58.5t-106.5 -162.5l-170 57q33 107 107 179.5t163.5 103t192.5 30.5
q70 0 132.5 -14t117.5 -44t95.5 -74t63.5 -108.5t23 -142.5v-428q0 -131 9 -205.5t28 -148.5h-178q-17 61 -19.5 107t15.5 139h-27q-54 -135 -154.5 -208t-242.5 -73zM492 109q77 0 144.5 32.5t111 82.5t68 108.5t24.5 113.5v150q-44 -39 -98.5 -59.5t-157.5 -40.5
q-46 -10 -78.5 -18.5t-78 -26.5t-74 -40t-49.5 -57t-21 -78q0 -78 58 -122.5t151 -44.5z" />
    <glyph glyph-name="ae" unicode="&#xe6;" horiz-adv-x="2029" 
d="M459 -35q-163 0 -267 79.5t-104 225.5q0 65 23 118t59 88.5t90 64t107.5 45.5t119.5 30q26 5 70 13t68 12.5t58.5 13t53.5 16t42 20.5t34 27.5t19 35t8 45.5q0 87 -71.5 152t-184.5 65q-103 0 -178.5 -59.5t-106.5 -161.5l-172 57q48 155 177 234t288 79
q132 0 236.5 -56.5t148.5 -180.5q69 118 179 177.5t249 59.5q75 0 146 -17t141.5 -59t123 -105.5t85 -165.5t32.5 -230v-58h-907q7 -181 115.5 -292t271.5 -111q127 0 223 71.5t142 186.5l166 -63q-62 -165 -203.5 -261t-329.5 -96q-110 0 -202.5 33.5t-165.5 109
t-107 187.5h-29q-54 -154 -174 -242t-274 -88zM1032 668h713q-4 75 -26.5 134.5t-56.5 97.5t-79 63.5t-90.5 36t-93.5 10.5q-146 0 -244 -93t-123 -249zM498 106q60 0 115 22t96 58t71.5 81t46 91.5t15.5 87.5v150q-83 -70 -248 -96q-311 -52 -311 -221q0 -81 59 -127
t156 -46z" />
    <glyph glyph-name="ccedilla" unicode="&#xe7;" horiz-adv-x="1245" 
d="M686 -35q-39 -50 -115 -119l13 -10q56 35 110 35q78 0 131.5 -48t53.5 -126q0 -88 -69 -142.5t-175 -54.5q-81 0 -151 31.5t-113 85.5l67 74q35 -44 85.5 -68t103.5 -24q56 0 91.5 26.5t35.5 69.5q0 42 -32.5 68t-84.5 26t-94 -27l-66 56l101 153q-220 27 -355 187.5
t-135 406.5q0 268 159 434t408 166q111 0 206.5 -33.5t174 -109t121.5 -186.5l-172 -68q-39 111 -127.5 171t-206.5 60q-169 0 -272 -123t-103 -311q0 -193 109.5 -312.5t278.5 -119.5q131 0 227 72.5t143 195.5l166 -61q-61 -172 -197.5 -269.5t-316.5 -105.5z" />
    <glyph glyph-name="egrave" unicode="&#xe8;" horiz-adv-x="1267" 
d="M725 1278h-158l-311 389h229zM655 -35q-247 0 -407 166t-160 432q0 174 71.5 311.5t199 214t288.5 76.5q74 0 144.5 -17t141.5 -59t123 -105.5t85 -165.5t33 -230v-68h-902q7 -184 113.5 -289.5t271.5 -105.5q126 0 220.5 72t142.5 188l164 -63q-62 -165 -203 -261
t-326 -96zM281 684h706q-4 85 -35 150t-80.5 103t-107.5 56.5t-121 18.5q-143 0 -240.5 -92.5t-121.5 -235.5z" />
    <glyph glyph-name="eacute" unicode="&#xe9;" horiz-adv-x="1267" 
d="M1016 1667l-311 -389h-156l237 389h230zM655 -35q-247 0 -407 166t-160 432q0 174 71.5 311.5t199 214t288.5 76.5q74 0 144.5 -17t141.5 -59t123 -105.5t85 -165.5t33 -230v-68h-902q7 -184 113.5 -289.5t271.5 -105.5q126 0 220.5 72t142.5 188l164 -63
q-62 -165 -203 -261t-326 -96zM281 684h706q-4 85 -35 150t-80.5 103t-107.5 56.5t-121 18.5q-143 0 -240.5 -92.5t-121.5 -235.5z" />
    <glyph glyph-name="ecircumflex" unicode="&#xea;" horiz-adv-x="1267" 
d="M406 1278h-170l296 360h209l297 -360h-168q-49 51 -77.5 82t-66 81.5t-62.5 100.5h-50q-38 -71 -87 -130.5t-121 -133.5zM655 -35q-247 0 -407 166t-160 432q0 174 71.5 311.5t199 214t288.5 76.5q74 0 144.5 -17t141.5 -59t123 -105.5t85 -165.5t33 -230v-68h-902
q7 -184 113.5 -289.5t271.5 -105.5q126 0 220.5 72t142.5 188l164 -63q-62 -165 -203 -261t-326 -96zM281 684h706q-4 85 -35 150t-80.5 103t-107.5 56.5t-121 18.5q-143 0 -240.5 -92.5t-121.5 -235.5z" />
    <glyph glyph-name="edieresis" unicode="&#xeb;" horiz-adv-x="1267" 
d="M449 1352q-51 0 -86 36t-35 89q0 48 35.5 83t85.5 35q51 0 85.5 -35t34.5 -83q0 -53 -34 -89t-86 -36zM827 1352q-52 0 -86 36t-34 89q0 48 34.5 83t85.5 35q50 0 85.5 -35t35.5 -83q0 -53 -35 -89t-86 -36zM655 -35q-247 0 -407 166t-160 432q0 174 71.5 311.5t199 214
t288.5 76.5q74 0 144.5 -17t141.5 -59t123 -105.5t85 -165.5t33 -230v-68h-902q7 -184 113.5 -289.5t271.5 -105.5q126 0 220.5 72t142.5 188l164 -63q-62 -165 -203 -261t-326 -96zM281 684h706q-4 85 -35 150t-80.5 103t-107.5 56.5t-121 18.5q-143 0 -240.5 -92.5
t-121.5 -235.5z" />
    <glyph glyph-name="igrave" unicode="&#xec;" horiz-adv-x="520" 
d="M346 1272h-158l-311 389h229zM350 0h-180v1133h180v-1133z" />
    <glyph glyph-name="iacute" unicode="&#xed;" horiz-adv-x="520" 
d="M637 1661l-311 -389h-156l238 389h229zM350 0h-180v1133h180v-1133z" />
    <glyph glyph-name="icircumflex" unicode="&#xee;" horiz-adv-x="520" 
d="M29 1272h-170l297 360h209l297 -360h-168q-51 52 -78.5 82t-65.5 81.5t-63 100.5h-49q-27 -50 -64.5 -100t-67 -82.5t-77.5 -81.5zM350 0h-180v1133h180v-1133z" />
    <glyph glyph-name="idieresis" unicode="&#xef;" horiz-adv-x="520" 
d="M70 1346q-51 0 -86 36t-35 88q0 48 35.5 83.5t85.5 35.5q51 0 85.5 -35.5t34.5 -83.5q0 -53 -34 -88.5t-86 -35.5zM449 1346q-52 0 -86.5 35.5t-34.5 88.5q0 48 35 83.5t86 35.5q50 0 85 -35.5t35 -83.5q0 -53 -34.5 -88.5t-85.5 -35.5zM350 0h-180v1133h180v-1133z" />
    <glyph glyph-name="eth" unicode="&#xf0;" horiz-adv-x="1333" 
d="M1040 1554l-178 -102q367 -288 367 -782q0 -329 -155.5 -517t-420.5 -188q-169 0 -300 79t-199 209t-68 286q0 121 42.5 226.5t114 178.5t169 114.5t204.5 41.5q130 0 232 -61t192 -191h27q-114 326 -365 512l-288 -166l-56 96l240 137q-125 71 -289 127l49 148
q225 -68 404 -180l219 127zM649 129q163 0 269 113t106 293t-106 292.5t-267 112.5q-164 0 -270.5 -115.5t-106.5 -289.5q0 -171 105 -288.5t270 -117.5z" />
    <glyph glyph-name="ntilde" unicode="&#xf1;" horiz-adv-x="1300" 
d="M803 1317q-50 0 -84 16t-74 49l-45 35q-2 1 -9 6.5t-9.5 7.5t-9.5 6.5t-10.5 6.5t-10 5.5t-11 5t-10.5 4t-12 3t-12 0.5q-43 0 -69.5 -37t-26.5 -92h-134q1 120 64.5 194.5t161.5 74.5q40 0 73 -15.5t76 -48.5l45 -35q1 -1 8 -6t9 -6.5t8.5 -6.5t9.5 -6.5t9.5 -5.5
t10.5 -5.5t10.5 -4t11 -3.5t10.5 -2t12 -1q42 0 65 36t23 95h133q0 -127 -56 -198.5t-157 -71.5zM350 0h-180v1133h176q0 -136 -31 -236h29q124 268 393 268q63 0 120.5 -14.5t110.5 -49t92 -85.5t62 -129t23 -176v-711h-178v633q0 179 -77.5 272.5t-207.5 93.5
q-150 0 -241 -110.5t-91 -270.5v-618z" />
    <glyph glyph-name="ograve" unicode="&#xf2;" horiz-adv-x="1318" 
d="M745 1278h-157l-312 389h230zM662 -35q-254 0 -414 167.5t-160 432.5q0 264 160.5 432t413.5 168q252 0 411.5 -168t159.5 -432q0 -265 -159.5 -432.5t-411.5 -167.5zM662 133q168 0 274 120.5t106 311.5t-106 312.5t-274 121.5q-170 0 -278 -121.5t-108 -312.5
t108 -311.5t278 -120.5z" />
    <glyph glyph-name="oacute" unicode="&#xf3;" horiz-adv-x="1318" 
d="M1038 1667l-311 -389h-156l238 389h229zM662 -35q-254 0 -414 167.5t-160 432.5q0 264 160.5 432t413.5 168q252 0 411.5 -168t159.5 -432q0 -265 -159.5 -432.5t-411.5 -167.5zM662 133q168 0 274 120.5t106 311.5t-106 312.5t-274 121.5q-170 0 -278 -121.5
t-108 -312.5t108 -311.5t278 -120.5z" />
    <glyph glyph-name="ocircumflex" unicode="&#xf4;" horiz-adv-x="1318" 
d="M428 1278h-170l297 360h209l297 -360h-168q-51 52 -78.5 82t-65.5 81.5t-63 100.5h-49q-27 -50 -64.5 -100t-67 -82.5t-77.5 -81.5zM662 -35q-254 0 -414 167.5t-160 432.5q0 264 160.5 432t413.5 168q252 0 411.5 -168t159.5 -432q0 -265 -159.5 -432.5t-411.5 -167.5z
M662 133q168 0 274 120.5t106 311.5t-106 312.5t-274 121.5q-170 0 -278 -121.5t-108 -312.5t108 -311.5t278 -120.5z" />
    <glyph glyph-name="otilde" unicode="&#xf5;" horiz-adv-x="1318" 
d="M819 1317q-50 0 -83.5 16t-73.5 49l-46 35q-2 1 -9 6.5t-9.5 7.5t-9.5 6.5t-10.5 6.5t-10 5.5t-11 5t-10.5 4t-12 3t-12 0.5q-43 0 -69.5 -37t-26.5 -92h-133q1 121 64 195t161 74q40 0 73.5 -15.5t76.5 -48.5l45 -35q1 -1 10 -7.5t11.5 -8.5t11 -7.5t12.5 -7.5l12 -6
t13.5 -5.5t13 -3t14.5 -1.5q42 0 65 36t23 95h133q0 -127 -56 -198.5t-157 -71.5zM662 -35q-254 0 -414 167.5t-160 432.5q0 264 160.5 432t413.5 168q252 0 411.5 -168t159.5 -432q0 -265 -159.5 -432.5t-411.5 -167.5zM662 133q168 0 274 120.5t106 311.5t-106 312.5
t-274 121.5q-170 0 -278 -121.5t-108 -312.5t108 -311.5t278 -120.5z" />
    <glyph glyph-name="odieresis" unicode="&#xf6;" horiz-adv-x="1318" 
d="M471 1352q-51 0 -86 36t-35 89q0 48 35.5 83t85.5 35q52 0 86.5 -35t34.5 -83q0 -53 -34.5 -89t-86.5 -36zM850 1352q-52 0 -86.5 36t-34.5 89q0 48 34.5 83t86.5 35q50 0 85.5 -35t35.5 -83q0 -53 -35 -89t-86 -36zM662 -35q-254 0 -414 167.5t-160 432.5
q0 264 160.5 432t413.5 168q252 0 411.5 -168t159.5 -432q0 -265 -159.5 -432.5t-411.5 -167.5zM662 133q168 0 274 120.5t106 311.5t-106 312.5t-274 121.5q-170 0 -278 -121.5t-108 -312.5t108 -311.5t278 -120.5z" />
    <glyph glyph-name="divide" unicode="&#xf7;" horiz-adv-x="1064" 
d="M537 836q-51 0 -86 35.5t-35 86.5q0 50 34.5 84.5t86.5 34.5q49 0 83.5 -34.5t34.5 -84.5q0 -51 -34.5 -86.5t-83.5 -35.5zM926 551h-787v149h787v-149zM537 172q-51 0 -86 37t-35 88q0 50 34.5 84.5t86.5 34.5q50 0 84 -35t34 -86t-34.5 -87t-83.5 -36z" />
    <glyph glyph-name="oslash" unicode="&#xf8;" horiz-adv-x="1318" 
d="M1204 1184l-135 -183q164 -167 164 -436q0 -265 -159.5 -432.5t-411.5 -167.5q-165 0 -302 78l-73 -98h-170l137 182q-166 169 -166 438q0 264 160.5 432t413.5 168q172 0 305 -82l75 101h162zM276 565q0 -166 89 -289l497 666q-88 57 -200 57q-170 0 -278 -121.5
t-108 -312.5zM662 133q168 0 274 120.5t106 311.5q0 168 -84 285l-493 -664q86 -53 197 -53z" />
    <glyph glyph-name="ugrave" unicode="&#xf9;" horiz-adv-x="1282" 
d="M713 1278h-158l-311 389h229zM563 -35q-84 0 -155 25.5t-128.5 78t-90.5 143t-33 210.5v711h178v-644q0 -181 78 -268.5t198 -87.5q75 0 137 32t101 85t60.5 118t21.5 134v631h178v-779q0 -131 9 -205.5t28 -148.5h-178q-12 48 -17 76t-3 73t16 97h-27
q-56 -149 -150 -215t-223 -66z" />
    <glyph glyph-name="uacute" unicode="&#xfa;" horiz-adv-x="1282" 
d="M1004 1667l-312 -389h-155l237 389h230zM563 -35q-84 0 -155 25.5t-128.5 78t-90.5 143t-33 210.5v711h178v-644q0 -181 78 -268.5t198 -87.5q75 0 137 32t101 85t60.5 118t21.5 134v631h178v-779q0 -131 9 -205.5t28 -148.5h-178q-12 48 -17 76t-3 73t16 97h-27
q-56 -149 -150 -215t-223 -66z" />
    <glyph glyph-name="ucircumflex" unicode="&#xfb;" horiz-adv-x="1282" 
d="M395 1278h-170l297 360h209l297 -360h-168q-51 52 -78.5 82t-65.5 81.5t-63 100.5h-49q-27 -50 -64.5 -100t-67 -82.5t-77.5 -81.5zM563 -35q-84 0 -155 25.5t-128.5 78t-90.5 143t-33 210.5v711h178v-644q0 -181 78 -268.5t198 -87.5q75 0 137 32t101 85t60.5 118
t21.5 134v631h178v-779q0 -131 9 -205.5t28 -148.5h-178q-12 48 -17 76t-3 73t16 97h-27q-56 -149 -150 -215t-223 -66z" />
    <glyph glyph-name="udieresis" unicode="&#xfc;" horiz-adv-x="1282" 
d="M436 1352q-51 0 -86 36t-35 89q0 48 35.5 83t85.5 35q52 0 86.5 -35t34.5 -83q0 -53 -34.5 -89t-86.5 -36zM815 1352q-52 0 -86.5 36t-34.5 89q0 48 34.5 83t86.5 35q50 0 85.5 -35t35.5 -83q0 -53 -35 -89t-86 -36zM563 -35q-84 0 -155 25.5t-128.5 78t-90.5 143
t-33 210.5v711h178v-644q0 -181 78 -268.5t198 -87.5q75 0 137 32t101 85t60.5 118t21.5 134v631h178v-779q0 -131 9 -205.5t28 -148.5h-178q-12 48 -17 76t-3 73t16 97h-27q-56 -149 -150 -215t-223 -66z" />
    <glyph glyph-name="yacute" unicode="&#xfd;" horiz-adv-x="1138" 
d="M938 1667l-311 -389h-156l238 389h229zM492 -451h-179l166 426l-454 1158h196q217 -549 338 -977h27q123 432 336 977h192z" />
    <glyph glyph-name="thorn" unicode="&#xfe;" horiz-adv-x="1368" 
d="M350 -451h-180v2089h180v-117.5v-127t-1 -116.5t-3.5 -131t-6.5 -122t-11 -135h26q130 276 412 276q223 0 368.5 -170.5t145.5 -429.5q0 -132 -41 -245t-111.5 -190.5t-166 -121t-203.5 -43.5q-130 0 -235 66t-169 200h-28q7 -59 12 -124t7.5 -111t3.5 -120t1 -105
v-116.5v-105.5zM725 133q159 0 263 123t104 309q0 189 -104 311.5t-263 122.5q-160 0 -269.5 -123t-109.5 -311q0 -190 110 -311t269 -121z" />
    <glyph glyph-name="ydieresis" unicode="&#xff;" horiz-adv-x="1138" 
d="M371 1352q-51 0 -86 36t-35 89q0 48 35.5 83t85.5 35q52 0 86.5 -35t34.5 -83q0 -53 -34.5 -89t-86.5 -36zM750 1352q-52 0 -86.5 36t-34.5 89q0 48 34.5 83t86.5 35q50 0 85 -35t35 -83q0 -53 -34.5 -89t-85.5 -36zM492 -451h-179l166 426l-454 1158h196
q217 -549 338 -977h27q123 432 336 977h192z" />
    <glyph glyph-name="Amacron" unicode="&#x100;" horiz-adv-x="1529" 
d="M1110 1810h-692v144h692v-144zM221 0h-198l636 1597h213l637 -1597h-202q-43 105 -69 171.5t-59 166t-53 188.5l-20 19q-198 -29 -332 -29q-138 0 -346 29l-22 -21q-48 -185 -185 -524zM473 686l14 -20q152 28 287 28q131 0 262 -28l15 18q-183 399 -260 739h-56
q-78 -338 -262 -737z" />
    <glyph glyph-name="amacron" unicode="&#x101;" horiz-adv-x="1181" 
d="M944 1391h-688v137h688v-137zM453 -35q-155 0 -260 79t-105 226q0 63 21.5 114.5t57 87.5t88 64.5t107.5 46.5t123 33q27 5 70.5 13.5t65 13t55 12t50 13.5t39 15.5t33.5 20t22.5 24.5t15.5 31.5t4 39.5q0 89 -72 153t-186 64q-103 0 -178.5 -58.5t-106.5 -162.5l-170 57
q33 107 107 179.5t163.5 103t192.5 30.5q70 0 132.5 -14t117.5 -44t95.5 -74t63.5 -108.5t23 -142.5v-428q0 -131 9 -205.5t28 -148.5h-178q-17 61 -19.5 107t15.5 139h-27q-54 -135 -154.5 -208t-242.5 -73zM492 109q77 0 144.5 32.5t111 82.5t68 108.5t24.5 113.5v150
q-44 -39 -98.5 -59.5t-157.5 -40.5q-46 -10 -78.5 -18.5t-78 -26.5t-74 -40t-49.5 -57t-21 -78q0 -78 58 -122.5t151 -44.5z" />
    <glyph glyph-name="Abreve" unicode="&#x102;" horiz-adv-x="1529" 
d="M764 1722q-167 0 -273 101.5t-112 236.5h160q5 -79 68 -139.5t157 -60.5q96 0 159 60.5t68 139.5h158q-5 -135 -111.5 -236.5t-273.5 -101.5zM221 0h-198l636 1597h213l637 -1597h-202q-43 105 -69 171.5t-59 166t-53 188.5l-20 19q-198 -29 -332 -29q-138 0 -346 29
l-22 -21q-48 -185 -185 -524zM473 686l14 -20q152 28 287 28q131 0 262 -28l15 18q-183 399 -260 739h-56q-78 -338 -262 -737z" />
    <glyph glyph-name="abreve" unicode="&#x103;" horiz-adv-x="1181" 
d="M598 1274q-170 0 -270.5 110.5t-106.5 284.5h154q3 -116 64.5 -187t162.5 -71t162.5 71t64.5 187h154q-6 -175 -107.5 -285t-277.5 -110zM453 -35q-155 0 -260 79t-105 226q0 63 21.5 114.5t57 87.5t88 64.5t107.5 46.5t123 33q27 5 70.5 13.5t65 13t55 12t50 13.5
t39 15.5t33.5 20t22.5 24.5t15.5 31.5t4 39.5q0 89 -72 153t-186 64q-103 0 -178.5 -58.5t-106.5 -162.5l-170 57q33 107 107 179.5t163.5 103t192.5 30.5q70 0 132.5 -14t117.5 -44t95.5 -74t63.5 -108.5t23 -142.5v-428q0 -131 9 -205.5t28 -148.5h-178q-17 61 -19.5 107
t15.5 139h-27q-54 -135 -154.5 -208t-242.5 -73zM492 109q77 0 144.5 32.5t111 82.5t68 108.5t24.5 113.5v150q-44 -39 -98.5 -59.5t-157.5 -40.5q-46 -10 -78.5 -18.5t-78 -26.5t-74 -40t-49.5 -57t-21 -78q0 -78 58 -122.5t151 -44.5z" />
    <glyph glyph-name="Aogonek" unicode="&#x104;" horiz-adv-x="1529" 
d="M1450 -342q45 0 88 14v-118q-55 -17 -111 -17q-120 0 -201 62t-81 172q0 139 164 229h-2q-43 105 -69 171.5t-59 166t-53 188.5l-20 19q-198 -29 -332 -29q-138 0 -346 29l-22 -21q-48 -185 -185 -524h-198l636 1597h213l637 -1597h-57q-88 -34 -131 -85.5t-43 -109.5
q0 -63 47 -105t125 -42zM1036 666l15 18q-183 399 -260 739h-56q-78 -338 -262 -737l14 -20q152 28 287 28q131 0 262 -28z" />
    <glyph glyph-name="aogonek" unicode="&#x105;" horiz-adv-x="1181" 
d="M1010 -336q49 0 92 14v-127q-55 -14 -107 -14q-120 0 -199 62.5t-79 169.5q0 145 166 231h-2q-17 61 -19.5 107t15.5 139h-27q-54 -135 -154.5 -208t-242.5 -73q-155 0 -260 79t-105 226q0 63 21.5 114.5t57 87.5t88 64.5t107.5 46.5t123 33q27 5 70.5 13.5t65 13t55 12
t50 13.5t39 15.5t33.5 20t22.5 24.5t15.5 31.5t4 39.5q0 89 -72 153t-186 64q-103 0 -178.5 -58.5t-106.5 -162.5l-170 57q33 107 107 179.5t163.5 103t192.5 30.5q70 0 132.5 -14t117.5 -44t95.5 -74t63.5 -108.5t23 -142.5v-428q0 -131 9 -205.5t28 -148.5h-41
q-170 -71 -170 -195q0 -63 46 -102t116 -39zM840 446v150q-44 -39 -98.5 -59.5t-157.5 -40.5q-46 -10 -78.5 -18.5t-78 -26.5t-74 -40t-49.5 -57t-21 -78q0 -78 58 -122.5t151 -44.5q77 0 144.5 32.5t111 82.5t68 108.5t24.5 113.5z" />
    <glyph glyph-name="Cacute" unicode="&#x106;" horiz-adv-x="1716" 
d="M1274 2056l-334 -336h-164l252 336h246zM913 -35q-175 0 -326 61t-258 169.5t-168 263.5t-61 338q0 187 64 345t174 264t256 165t309 59q157 0 297.5 -53t251.5 -162.5t162 -261.5l-174 -70q-69 172 -212.5 270.5t-324.5 98.5q-123 0 -232 -45.5t-191 -129t-129.5 -209.5
t-47.5 -277q0 -130 35.5 -238.5t96 -183t140.5 -126.5t169 -76t182 -24q111 0 207 35t167 97.5t121.5 144t79.5 180.5l174 -61q-84 -267 -280.5 -420.5t-481.5 -153.5z" />
    <glyph glyph-name="cacute" unicode="&#x107;" horiz-adv-x="1245" 
d="M999 1667l-311 -389h-156l238 389h229zM659 -35q-251 0 -411 165.5t-160 434.5q0 268 159 434t408 166q111 0 206.5 -33.5t174 -109t121.5 -186.5l-172 -68q-39 111 -127.5 171t-206.5 60q-169 0 -272 -123t-103 -311q0 -193 109.5 -312.5t278.5 -119.5q131 0 227 72.5
t143 195.5l166 -61q-64 -179 -208 -277t-333 -98z" />
    <glyph glyph-name="Cdotaccent" unicode="&#x10a;" horiz-adv-x="1716" 
d="M872 1776q-57 0 -94 39t-37 96q0 53 37.5 91t93.5 38q55 0 93.5 -38t38.5 -91q0 -57 -38 -96t-94 -39zM913 -35q-175 0 -326 61t-258 169.5t-168 263.5t-61 338q0 187 64 345t174 264t256 165t309 59q157 0 297.5 -53t251.5 -162.5t162 -261.5l-174 -70
q-69 172 -212.5 270.5t-324.5 98.5q-123 0 -232 -45.5t-191 -129t-129.5 -209.5t-47.5 -277q0 -130 35.5 -238.5t96 -183t140.5 -126.5t169 -76t182 -24q111 0 207 35t167 97.5t121.5 144t79.5 180.5l174 -61q-84 -267 -280.5 -420.5t-481.5 -153.5z" />
    <glyph glyph-name="cdotaccent" unicode="&#x10b;" horiz-adv-x="1245" 
d="M623 1386q-57 0 -94 39t-37 97q0 54 37 91.5t94 37.5q55 0 93 -37.5t38 -91.5q0 -57 -38 -96.5t-93 -39.5zM659 -35q-251 0 -411 165.5t-160 434.5q0 268 159 434t408 166q111 0 206.5 -33.5t174 -109t121.5 -186.5l-172 -68q-39 111 -127.5 171t-206.5 60
q-169 0 -272 -123t-103 -311q0 -193 109.5 -312.5t278.5 -119.5q131 0 227 72.5t143 195.5l166 -61q-64 -179 -208 -277t-333 -98z" />
    <glyph glyph-name="Ccaron" unicode="&#x10c;" horiz-adv-x="1716" 
d="M973 1720h-205l-274 322h168q42 -39 67.5 -65t58.5 -73t56 -100h55q33 76 75 128t105 110h166zM913 -35q-175 0 -326 61t-258 169.5t-168 263.5t-61 338q0 187 64 345t174 264t256 165t309 59q157 0 297.5 -53t251.5 -162.5t162 -261.5l-174 -70q-69 172 -212.5 270.5
t-324.5 98.5q-123 0 -232 -45.5t-191 -129t-129.5 -209.5t-47.5 -277q0 -130 35.5 -238.5t96 -183t140.5 -126.5t169 -76t182 -24q111 0 207 35t167 97.5t121.5 144t79.5 180.5l174 -61q-84 -267 -280.5 -420.5t-481.5 -153.5z" />
    <glyph glyph-name="ccaron" unicode="&#x10d;" horiz-adv-x="1245" 
d="M725 1284h-209l-297 369h170q5 -6 31.5 -35.5t34.5 -38.5t30 -35t32.5 -40.5t28 -37t30.5 -43.5t26 -43h41q14 26 31.5 52.5t30.5 45t37 47.5t35 41.5t40 45t37 41.5h168zM659 -35q-251 0 -411 165.5t-160 434.5q0 268 159 434t408 166q111 0 206.5 -33.5t174 -109
t121.5 -186.5l-172 -68q-39 111 -127.5 171t-206.5 60q-169 0 -272 -123t-103 -311q0 -193 109.5 -312.5t278.5 -119.5q131 0 227 72.5t143 195.5l166 -61q-64 -179 -208 -277t-333 -98z" />
    <glyph glyph-name="Dcaron" unicode="&#x10e;" horiz-adv-x="1642" 
d="M864 1720h-205l-274 322h168q42 -39 67.5 -65t58.5 -73t56 -100h56q33 76 75 128t105 110h166zM799 0h-596v1597h577q156 0 283 -40.5t214.5 -112t146.5 -171.5t86.5 -216t27.5 -248q0 -238 -87 -420t-255.5 -285.5t-396.5 -103.5zM365 168l24 -25q68 14 145.5 21.5
t126 8.5t134.5 1q246 0 395 161.5t149 459.5q0 159 -45.5 281t-128 197t-190.5 112.5t-240 37.5q-73 0 -113.5 1t-107 8.5t-125.5 21.5l-27 -18q63 -650 3 -1268z" />
    <glyph glyph-name="dcaron" unicode="&#x10f;" horiz-adv-x="1372" 
d="M1458 1155h-110q28 55 48 90t55 84t75 90q-127 26 -127 123q0 54 39 92.5t96 38.5q54 0 91.5 -37.5t37.5 -91.5q0 -44 -29.5 -100t-146.5 -242q-19 -31 -29 -47zM612 -35q-230 0 -377 168.5t-147 431.5q0 134 41 247.5t112 190t166.5 119.5t204.5 43q288 0 404 -293h26
q-26 303 -22 766h178v-1284q0 -131 9 -205.5t28 -148.5h-178q-16 68 -18.5 112.5t8.5 135.5h-29q-57 -145 -164.5 -214t-241.5 -69zM645 133q159 0 268 122.5t109 311.5t-109 310.5t-268 121.5q-160 0 -264.5 -123t-104.5 -311q0 -187 104.5 -309.5t264.5 -122.5z" />
    <glyph glyph-name="Dcroat" unicode="&#x110;" horiz-adv-x="1642" 
d="M203 1597h577q156 0 283 -40.5t214.5 -112t146.5 -171.5t86.5 -216t27.5 -248q0 -238 -87 -420t-255.5 -285.5t-396.5 -103.5h-596v721h-183v153h183v723zM795 174q246 0 395 161.5t149 459.5q0 159 -45.5 281t-128 197t-190.5 112.5t-240 37.5q-73 0 -113.5 1t-107 8.5
t-125.5 21.5l-27 -18q28 -294 31 -562h479v-153h-479q-3 -297 -28 -553l24 -25q68 14 145.5 21.5t126 8.5t134.5 1z" />
    <glyph glyph-name="dcroat" unicode="&#x111;" horiz-adv-x="1372" 
d="M1462 1454v-141h-264v-959q0 -131 9 -205.5t28 -148.5h-178q-16 68 -18.5 112.5t8.5 135.5h-29q-57 -145 -164.5 -214t-241.5 -69q-230 0 -377 168.5t-147 431.5q0 134 41 247.5t112 190t166.5 119.5t204.5 43q288 0 404 -293h26q-19 216 -22 441h-281v141h281v184h178
v-184h264zM645 133q159 0 268 122.5t109 311.5t-109 310.5t-268 121.5q-160 0 -264.5 -123t-104.5 -311q0 -187 104.5 -309.5t264.5 -122.5z" />
    <glyph glyph-name="Emacron" unicode="&#x112;" horiz-adv-x="1343" 
d="M1034 1810h-692v144h692v-144zM1239 0h-1036v1597h1016v-174h-127.5h-142t-126.5 1.5t-147 5t-134 9.5t-153 15l-27 -18q44 -264 7 -545l18 -23q135 19 286 28.5t244 11t261 1.5v-182q-168 0 -261 1.5t-243.5 11t-284.5 28.5l-20 -20q37 -304 -4 -580l24 -25
q143 16 305 24.5t263 9.5t282 1v-178z" />
    <glyph glyph-name="emacron" unicode="&#x113;" horiz-adv-x="1267" 
d="M983 1391h-688v137h688v-137zM655 -35q-247 0 -407 166t-160 432q0 174 71.5 311.5t199 214t288.5 76.5q74 0 144.5 -17t141.5 -59t123 -105.5t85 -165.5t33 -230v-68h-902q7 -184 113.5 -289.5t271.5 -105.5q126 0 220.5 72t142.5 188l164 -63q-62 -165 -203 -261
t-326 -96zM281 684h706q-4 85 -35 150t-80.5 103t-107.5 56.5t-121 18.5q-143 0 -240.5 -92.5t-121.5 -235.5z" />
    <glyph glyph-name="Edotaccent" unicode="&#x116;" horiz-adv-x="1343" 
d="M690 1776q-57 0 -94 39t-37 96q0 53 37.5 91t93.5 38q55 0 93 -38t38 -91q0 -57 -38 -96t-93 -39zM1239 0h-1036v1597h1016v-174h-127.5h-142t-126.5 1.5t-147 5t-134 9.5t-153 15l-27 -18q44 -264 7 -545l18 -23q135 19 286 28.5t244 11t261 1.5v-182q-168 0 -261 1.5
t-243.5 11t-284.5 28.5l-20 -20q37 -304 -4 -580l24 -25q143 16 305 24.5t263 9.5t282 1v-178z" />
    <glyph glyph-name="edotaccent" unicode="&#x117;" horiz-adv-x="1267" 
d="M641 1386q-57 0 -94 39t-37 97q0 54 37 91.5t94 37.5q55 0 93 -37.5t38 -91.5q0 -57 -38 -96.5t-93 -39.5zM655 -35q-247 0 -407 166t-160 432q0 174 71.5 311.5t199 214t288.5 76.5q74 0 144.5 -17t141.5 -59t123 -105.5t85 -165.5t33 -230v-68h-902
q7 -184 113.5 -289.5t271.5 -105.5q126 0 220.5 72t142.5 188l164 -63q-62 -165 -203 -261t-326 -96zM281 684h706q-4 85 -35 150t-80.5 103t-107.5 56.5t-121 18.5q-143 0 -240.5 -92.5t-121.5 -235.5z" />
    <glyph glyph-name="Eogonek" unicode="&#x118;" horiz-adv-x="1343" 
d="M1237 -342q45 0 88 14v-118q-55 -17 -111 -17q-120 0 -201 62t-81 172q0 139 164 229h-893v1597h1016v-174h-127.5h-142t-126.5 1.5t-147 5t-134 9.5t-153 15l-27 -18q44 -264 7 -545l18 -23q135 19 286 28.5t244 11t261 1.5v-182q-168 0 -261 1.5t-243.5 11t-284.5 28.5
l-20 -20q37 -304 -4 -580l24 -25q143 16 305 24.5t263 9.5t282 1v-178q-88 -34 -131 -85.5t-43 -109.5q0 -63 47 -105t125 -42z" />
    <glyph glyph-name="eogonek" unicode="&#x119;" horiz-adv-x="1267" 
d="M846 -6q-158 -68 -158 -189q0 -63 46 -102t116 -39q49 0 92 14v-127q-55 -14 -106 -14q-120 0 -199.5 62.5t-79.5 169.5q0 115 109 196h-11q-247 0 -407 166t-160 432q0 174 71.5 311.5t199 214t288.5 76.5q74 0 144.5 -17t141.5 -59t123 -105.5t85 -165.5t33 -230v-68
h-902q7 -184 113.5 -289.5t271.5 -105.5q126 0 220.5 72t142.5 188l164 -63q-44 -119 -131.5 -203.5t-206.5 -124.5zM643 1012q-143 0 -240.5 -92.5t-121.5 -235.5h706q-4 85 -35 150t-80.5 103t-107.5 56.5t-121 18.5z" />
    <glyph glyph-name="Ecaron" unicode="&#x11a;" horiz-adv-x="1343" 
d="M791 1720h-205l-275 322h168q43 -40 68 -65.5t58.5 -72.5t56.5 -100h55q33 76 75 128t105 110h166zM1239 0h-1036v1597h1016v-174h-127.5h-142t-126.5 1.5t-147 5t-134 9.5t-153 15l-27 -18q44 -264 7 -545l18 -23q135 19 286 28.5t244 11t261 1.5v-182q-168 0 -261 1.5
t-243.5 11t-284.5 28.5l-20 -20q37 -304 -4 -580l24 -25q143 16 305 24.5t263 9.5t282 1v-178z" />
    <glyph glyph-name="ecaron" unicode="&#x11b;" horiz-adv-x="1267" 
d="M741 1284h-209l-296 369h170q5 -6 24.5 -28t26 -29.5t24 -27.5t25.5 -30t23 -28.5t24.5 -31.5t21.5 -30.5t22.5 -34t20.5 -33.5h41q14 26 31.5 52.5t30.5 45t37 47.5t35 41.5t40 45t37 41.5h168zM655 -35q-247 0 -407 166t-160 432q0 174 71.5 311.5t199 214t288.5 76.5
q74 0 144.5 -17t141.5 -59t123 -105.5t85 -165.5t33 -230v-68h-902q7 -184 113.5 -289.5t271.5 -105.5q126 0 220.5 72t142.5 188l164 -63q-62 -165 -203 -261t-326 -96zM281 684h706q-4 85 -35 150t-80.5 103t-107.5 56.5t-121 18.5q-143 0 -240.5 -92.5t-121.5 -235.5z
" />
    <glyph glyph-name="Gbreve" unicode="&#x11e;" horiz-adv-x="1794" 
d="M872 1722q-167 0 -273 101.5t-112 236.5h160q5 -79 68 -139.5t157 -60.5q96 0 159.5 60.5t68.5 139.5h157q-5 -135 -111.5 -236.5t-273.5 -101.5zM891 -35q-171 0 -318 62t-251 170.5t-163 262.5t-59 333q0 187 63.5 345.5t172 265t255.5 166.5t312 60q158 0 300 -54
t251.5 -163.5t159.5 -259.5l-174 -70q-69 172 -211.5 270.5t-325.5 98.5q-123 0 -231.5 -45.5t-190.5 -128.5t-130 -209t-48 -278q0 -131 36 -240.5t97 -183.5t141.5 -125.5t168 -75t178.5 -23.5q224 0 382 139.5t222 381.5l-21 24q-246 -55 -557 -55v160h709v-793h-152
q0 16 -2 78t-2 91.5t4.5 83t14.5 103.5l-31 6q-168 -397 -600 -397z" />
    <glyph glyph-name="gbreve" unicode="&#x11f;" horiz-adv-x="1368" 
d="M666 1274q-170 0 -270.5 110.5t-106.5 284.5h153q3 -116 65 -187t163 -71t162.5 71t64.5 187h154q-6 -175 -107.5 -285t-277.5 -110zM662 -483q-402 0 -521 329l164 58q86 -234 354 -234q77 0 139 22.5t113 71t79 134.5t28 204q0 103 22 168h-26q-62 -136 -167.5 -202
t-234.5 -66q-155 0 -276 78.5t-185.5 211t-64.5 294.5q0 252 150 415.5t372 163.5q134 0 242 -78t160 -215h26q-14 106 -14 261h174v-1000q0 -136 -27 -241.5t-74.5 -175.5t-116 -115t-146 -64.5t-170.5 -19.5zM643 170q158 0 267.5 121t109.5 299q0 177 -109 293t-268 116
t-264 -118.5t-105 -292.5q0 -176 106 -297t263 -121z" />
    <glyph glyph-name="Gdotaccent" unicode="&#x120;" horiz-adv-x="1794" 
d="M872 1776q-57 0 -94 39t-37 96q0 53 37.5 91t93.5 38q55 0 93.5 -38t38.5 -91q0 -57 -38 -96t-94 -39zM891 -35q-171 0 -318 62t-251 170.5t-163 262.5t-59 333q0 187 63.5 345.5t172 265t255.5 166.5t312 60q158 0 300 -54t251.5 -163.5t159.5 -259.5l-174 -70
q-69 172 -211.5 270.5t-325.5 98.5q-123 0 -231.5 -45.5t-190.5 -128.5t-130 -209t-48 -278q0 -131 36 -240.5t97 -183.5t141.5 -125.5t168 -75t178.5 -23.5q224 0 382 139.5t222 381.5l-21 24q-246 -55 -557 -55v160h709v-793h-152q0 16 -2 78t-2 91.5t4.5 83t14.5 103.5
l-31 6q-168 -397 -600 -397z" />
    <glyph glyph-name="gdotaccent" unicode="&#x121;" horiz-adv-x="1368" 
d="M670 1386q-57 0 -94 39t-37 97q0 54 37.5 91.5t93.5 37.5q55 0 93 -37.5t38 -91.5q0 -57 -38 -96.5t-93 -39.5zM662 -483q-402 0 -521 329l164 58q86 -234 354 -234q77 0 139 22.5t113 71t79 134.5t28 204q0 103 22 168h-26q-62 -136 -167.5 -202t-234.5 -66
q-155 0 -276 78.5t-185.5 211t-64.5 294.5q0 252 150 415.5t372 163.5q134 0 242 -78t160 -215h26q-14 106 -14 261h174v-1000q0 -136 -27 -241.5t-74.5 -175.5t-116 -115t-146 -64.5t-170.5 -19.5zM643 170q158 0 267.5 121t109.5 299q0 177 -109 293t-268 116t-264 -118.5
t-105 -292.5q0 -176 106 -297t263 -121z" />
    <glyph glyph-name="uni0122" unicode="&#x122;" horiz-adv-x="1794" 
d="M891 -35q-171 0 -318 62t-251 170.5t-163 262.5t-59 333q0 187 63.5 345.5t172 265t255.5 166.5t312 60q158 0 300 -54t251.5 -163.5t159.5 -259.5l-174 -70q-69 172 -211.5 270.5t-325.5 98.5q-123 0 -231.5 -45.5t-190.5 -128.5t-130 -209t-48 -278q0 -131 36 -240.5
t97 -183.5t141.5 -125.5t168 -75t178.5 -23.5q224 0 382 139.5t222 381.5l-21 24q-246 -55 -557 -55v160h709v-793h-152q0 16 -2 78t-2 91.5t4.5 83t14.5 103.5l-31 6q-168 -397 -600 -397zM854 -557h-92q66 132 147 215q-64 0 -97.5 32t-33.5 81q0 52 35 83t88 31t87 -34.5
t34 -86.5q0 -38 -24 -83.5t-111 -184.5q-21 -34 -33 -53z" />
    <glyph glyph-name="uni0123" unicode="&#x123;" horiz-adv-x="1368" 
d="M528 1380q0 10 1 19.5t5.5 22.5t8.5 23.5t14 29t18 33.5t25 43.5t30.5 51.5t38 64.5t44.5 75.5h108q-88 -172 -153 -275q51 6 77.5 -24.5t26.5 -73.5q0 -52 -34.5 -81t-84.5 -29q-55 0 -90 33.5t-35 86.5zM662 -483q-402 0 -521 329l164 58q86 -234 354 -234
q77 0 139 22.5t113 71t79 134.5t28 204q0 103 22 168h-26q-62 -136 -167.5 -202t-234.5 -66q-155 0 -276 78.5t-185.5 211t-64.5 294.5q0 252 150 415.5t372 163.5q134 0 242 -78t160 -215h26q-14 106 -14 261h174v-1000q0 -136 -27 -241.5t-74.5 -175.5t-116 -115
t-146 -64.5t-170.5 -19.5zM643 170q158 0 267.5 121t109.5 299q0 177 -109 293t-268 116t-264 -118.5t-105 -292.5q0 -176 106 -297t263 -121z" />
    <glyph glyph-name="Hbar" unicode="&#x126;" horiz-adv-x="1656" 
d="M1454 1303h143v-150h-143v-1153h-188q0 468 24 725l-24 23q-406 -70 -873 0l-24 -23q12 -121 17.5 -260.5t6 -217t0.5 -247.5h-190v1153h-142v150h142v294h190q0 -196 -2 -294h877q-2 100 -2 294h188v-294zM1266 862l24 23q-12 137 -18 268h-885q-6 -134 -18 -268l22 -23
q472 55 875 0z" />
    <glyph glyph-name="hbar" unicode="&#x127;" horiz-adv-x="1300" 
d="M735 1165q80 0 150.5 -24.5t130 -75.5t94.5 -142t35 -212v-711h-178v633q0 179 -77.5 272.5t-207.5 93.5q-150 0 -241 -110.5t-91 -270.5v-618h-180v1309h-199v141h199v188h180q0 -125 -2 -188h346v-141h-350q-6 -213 -29 -412h29q124 268 391 268z" />
    <glyph glyph-name="Imacron" unicode="&#x12a;" horiz-adv-x="595" 
d="M643 1810h-692v144h692v-144zM393 0h-190v1597h190v-1597z" />
    <glyph glyph-name="imacron" unicode="&#x12b;" horiz-adv-x="520" 
d="M606 1384h-688v138h688v-138zM350 0h-180v1133h180v-1133z" />
    <glyph glyph-name="Iogonek" unicode="&#x12e;" horiz-adv-x="595" 
d="M393 -342q45 0 88 14v-118q-55 -17 -110 -17q-120 0 -201.5 62t-81.5 172q0 139 164 229h-49v1597h190v-1597h2q-88 -34 -131 -85.5t-43 -109.5q0 -63 47 -105t125 -42z" />
    <glyph glyph-name="iogonek" unicode="&#x12f;" horiz-adv-x="520" 
d="M262 1380q-57 0 -94 39t-37 97q0 54 37.5 91.5t93.5 37.5q55 0 93 -37.5t38 -91.5q0 -57 -38 -96.5t-93 -39.5zM328 -336q49 0 92 14v-127q-55 -14 -107 -14q-120 0 -199 62.5t-79 169.5q0 145 166 231h-31v1133h180v-1133h-14q-170 -71 -170 -195q0 -63 46 -102t116 -39
z" />
    <glyph glyph-name="Idotaccent" unicode="&#x130;" horiz-adv-x="595" 
d="M297 1776q-57 0 -94 39t-37 96q0 53 37.5 91t93.5 38q55 0 93 -38t38 -91q0 -57 -38 -96t-93 -39zM393 0h-190v1597h190v-1597z" />
    <glyph glyph-name="dotlessi" unicode="&#x131;" horiz-adv-x="520" 
d="M350 0h-180v1133h180v-1133z" />
    <glyph glyph-name="uni0136" unicode="&#x136;" horiz-adv-x="1396" 
d="M393 0h-190v1597h190v-99.5v-106t-0.5 -98.5t-2.5 -108t-5 -102t-7.5 -112t-11.5 -106t-16 -115h29q289 335 766 847h227q-17 -18 -120.5 -130t-140.5 -151t-119 -125.5t-148.5 -152.5t-136.5 -133v-28q279 -315 700 -877h-231q-385 498 -564 768h-22
q-103 -142 -211 -221q14 -190 14 -547zM707 -557h-93q65 130 148 215q-64 0 -97.5 32t-33.5 81q0 52 35 83t88 31q52 0 86 -34t34 -87q0 -39 -26 -89t-115 -191q-17 -27 -26 -41z" />
    <glyph glyph-name="uni0137" unicode="&#x137;" horiz-adv-x="1099" 
d="M350 0h-180v1638h180v-165.5v-179.5t-1 -163.5t-3.5 -181.5t-6.5 -167t-11 -183h26q189 228 482 535h217l-447 -449q53 -65 104.5 -131.5t112 -147.5t94 -126.5t107.5 -147.5t96 -131h-209q-267 369 -403 580q-77 -114 -174 -187q16 -133 16 -393zM539 -557h-93
q65 130 148 215q-64 0 -97.5 32t-33.5 81q0 52 35 83t88 31q52 0 86.5 -34.5t34.5 -86.5q0 -38 -24 -83.5t-111 -184.5q-21 -34 -33 -53z" />
    <glyph glyph-name="Lacute" unicode="&#x139;" horiz-adv-x="1208" 
d="M745 2056l-333 -336h-164l252 336h245zM1180 0h-977v1597h190q0 -333 -0.5 -491t-7 -433t-20.5 -505l24 -25q132 16 283 24.5t245.5 9.5t262.5 1v-178z" />
    <glyph glyph-name="lacute" unicode="&#x13a;" horiz-adv-x="520" 
d="M690 2097l-334 -336h-163l251 336h246zM350 0h-180v1638h180v-1638z" />
    <glyph glyph-name="uni013B" unicode="&#x13b;" horiz-adv-x="1208" 
d="M1180 0h-977v1597h190q0 -333 -0.5 -491t-7 -433t-20.5 -505l24 -25q132 16 283 24.5t245.5 9.5t262.5 1v-178zM602 -557h-92q66 132 147 215q-64 0 -97.5 32t-33.5 81q0 52 35 83t88 31t87 -34.5t34 -86.5q0 -38 -24 -83.5t-111 -184.5q-21 -34 -33 -53z" />
    <glyph glyph-name="uni013C" unicode="&#x13c;" horiz-adv-x="520" 
d="M350 0h-180v1638h180v-1638zM221 -557h-92q66 132 147 215q-64 0 -97.5 32t-33.5 81q0 52 35 83t88 31q52 0 86.5 -34.5t34.5 -86.5q0 -38 -24 -83.5t-111 -184.5q-7 -11 -11 -17.5t-10 -16.5t-12 -19z" />
    <glyph glyph-name="Lcaron" unicode="&#x13d;" horiz-adv-x="1208" 
d="M877 1128h-111q42 83 81 143.5t97 119.5q-125 26 -125 125q0 54 38.5 91.5t94.5 37.5q54 0 92.5 -37.5t38.5 -91.5q0 -44 -32 -104t-144 -237q-20 -30 -30 -47zM1180 0h-977v1597h190q0 -333 -0.5 -491t-7 -433t-20.5 -505l24 -25q132 16 283 24.5t245.5 9.5t262.5 1
v-178z" />
    <glyph glyph-name="lcaron" unicode="&#x13e;" horiz-adv-x="520" 
d="M649 1128h-112q33 62 50 91.5t53 80t77 91.5q-127 26 -127 125q0 54 38.5 91.5t94.5 37.5q54 0 92.5 -37.5t38.5 -91.5q0 -42 -28 -95.5t-135 -224.5q-27 -44 -42 -68zM350 0h-180v1638h180v-1638z" />
    <glyph glyph-name="Lslash" unicode="&#x141;" horiz-adv-x="1208" 
d="M365 168l24 -25q132 16 283 24.5t245.5 9.5t262.5 1v-178h-977v752l-170 -80v162l170 79v684h190q0 -397 -2 -596l277 129v-161l-279 -131q-6 -325 -24 -670z" />
    <glyph glyph-name="lslash" unicode="&#x142;" horiz-adv-x="520" 
d="M350 1065l189 135v-158l-189 -135v-907h-180v778l-190 -135v158l190 135v702h180v-573z" />
    <glyph glyph-name="Nacute" unicode="&#x143;" horiz-adv-x="1685" 
d="M1225 2056l-334 -336h-164l252 336h246zM393 0h-190v1597h174q515 -675 919 -1331h27q-6 87 -11 180t-8.5 165t-5.5 176.5t-3.5 158.5t-2 171.5t-0.5 154.5v168.5v156.5h191v-1597h-176q-290 383 -501.5 680t-414.5 623h-29q6 -85 11 -176.5t8.5 -161.5t5.5 -172.5
t3.5 -155t2 -167.5t0.5 -151v-165v-154z" />
    <glyph glyph-name="nacute" unicode="&#x144;" horiz-adv-x="1300" 
d="M1022 1667l-311 -389h-156l238 389h229zM350 0h-180v1133h176q0 -136 -31 -236h29q124 268 393 268q63 0 120.5 -14.5t110.5 -49t92 -85.5t62 -129t23 -176v-711h-178v633q0 179 -77.5 272.5t-207.5 93.5q-150 0 -241 -110.5t-91 -270.5v-618z" />
    <glyph glyph-name="uni0145" unicode="&#x145;" horiz-adv-x="1685" 
d="M393 0h-190v1597h174q515 -675 919 -1331h27q-6 87 -11 180t-8.5 165t-5.5 176.5t-3.5 158.5t-2 171.5t-0.5 154.5v168.5v156.5h191v-1597h-176q-290 383 -501.5 680t-414.5 623h-29q6 -85 11 -176.5t8.5 -161.5t5.5 -172.5t3.5 -155t2 -167.5t0.5 -151v-165v-154z
M825 -557h-92q65 130 148 215q-64 0 -97.5 32t-33.5 81q0 52 34.5 83t87.5 31q52 0 86.5 -34.5t34.5 -86.5q0 -38 -24 -83.5t-111 -184.5q-21 -34 -33 -53z" />
    <glyph glyph-name="uni0146" unicode="&#x146;" horiz-adv-x="1300" 
d="M350 0h-180v1133h176q0 -136 -31 -236h29q124 268 393 268q63 0 120.5 -14.5t110.5 -49t92 -85.5t62 -129t23 -176v-711h-178v633q0 179 -77.5 272.5t-207.5 93.5q-150 0 -241 -110.5t-91 -270.5v-618zM647 -557h-92q66 132 147 215q-64 0 -97.5 32t-33.5 81q0 52 35 83
t88 31q52 0 86.5 -34.5t34.5 -86.5q0 -38 -24 -83.5t-111 -184.5q-21 -34 -33 -53z" />
    <glyph glyph-name="Ncaron" unicode="&#x147;" horiz-adv-x="1685" 
d="M924 1720h-205l-275 322h168q43 -40 68 -65.5t58.5 -72.5t56.5 -100h55q33 76 75 128t105 110h166zM393 0h-190v1597h174q515 -675 919 -1331h27q-6 87 -11 180t-8.5 165t-5.5 176.5t-3.5 158.5t-2 171.5t-0.5 154.5v168.5v156.5h191v-1597h-176q-290 383 -501.5 680
t-414.5 623h-29q6 -85 11 -176.5t8.5 -161.5t5.5 -172.5t3.5 -155t2 -167.5t0.5 -151v-165v-154z" />
    <glyph glyph-name="ncaron" unicode="&#x148;" horiz-adv-x="1300" 
d="M748 1284h-209l-297 369h170q5 -6 31.5 -35.5t34.5 -38.5t30 -35t32.5 -40.5t28 -37t30.5 -43.5t26 -43h41q14 26 31.5 52.5t30.5 45t37 47.5t35 41.5t40 45t37 41.5h167zM350 0h-180v1133h176q0 -136 -31 -236h29q124 268 393 268q63 0 120.5 -14.5t110.5 -49t92 -85.5
t62 -129t23 -176v-711h-178v633q0 179 -77.5 272.5t-207.5 93.5q-150 0 -241 -110.5t-91 -270.5v-618z" />
    <glyph glyph-name="Eng" unicode="&#x14a;" horiz-adv-x="1685" 
d="M1055 -483q-72 0 -144.5 15t-115.5 38v164q82 -53 215 -53q134 0 205.5 86t74.5 251q-526 693 -899 1272h-29q6 -83 11 -172.5t8.5 -158.5t5.5 -170t3.5 -153t2 -166.5t0.5 -151v-165v-153.5h-190v1597h174q496 -650 919 -1316h27q-6 85 -11 176t-8.5 161t-5.5 173.5
t-3.5 157t-2 170t-0.5 153.5v168.5v156.5h191v-1544q0 -536 -428 -536z" />
    <glyph glyph-name="eng" unicode="&#x14b;" horiz-adv-x="1300" 
d="M811 -483q-127 0 -219 53v160q94 -54 184 -54q39 0 70 12t51 29t34 46.5t21 53t10.5 60.5t4 58t0.5 55v643q0 179 -77.5 272.5t-207.5 93.5q-150 0 -241 -110.5t-91 -270.5v-618h-180v1133h176q0 -136 -31 -236h29q124 268 393 268q80 0 150 -24t129.5 -74.5t94 -139.5
t34.5 -208v-733q0 -41 -0.5 -63.5t-3.5 -66t-8.5 -71t-17 -67t-27.5 -64.5t-42 -53.5t-58.5 -45t-77.5 -27.5t-99 -11z" />
    <glyph glyph-name="Omacron" unicode="&#x14c;" horiz-adv-x="1806" 
d="M1245 1810h-692v144h692v-144zM903 -35q-163 0 -311 62.5t-257 171t-173 264.5t-64 334q0 177 63.5 333t172 265t256.5 172t313 63q167 0 315.5 -64t255.5 -174.5t169.5 -265.5t62.5 -329q0 -175 -63 -330t-170.5 -264.5t-256 -173.5t-313.5 -64zM905 143q162 0 298.5 84
t218 235t81.5 335q0 138 -47.5 260.5t-128 208.5t-190.5 136t-232 50q-163 0 -301 -83.5t-220.5 -234.5t-82.5 -337q0 -140 48.5 -262.5t130.5 -208t192.5 -134.5t232.5 -49z" />
    <glyph glyph-name="omacron" unicode="&#x14d;" horiz-adv-x="1318" 
d="M1006 1391h-689v137h689v-137zM662 -35q-254 0 -414 167.5t-160 432.5q0 264 160.5 432t413.5 168q252 0 411.5 -168t159.5 -432q0 -265 -159.5 -432.5t-411.5 -167.5zM662 133q168 0 274 120.5t106 311.5t-106 312.5t-274 121.5q-170 0 -278 -121.5t-108 -312.5
t108 -311.5t278 -120.5z" />
    <glyph glyph-name="Ohungarumlaut" unicode="&#x150;" horiz-adv-x="1806" 
d="M1055 2054l-287 -334h-158l213 334h232zM1419 2054l-301 -334h-157l227 334h231zM903 -35q-163 0 -311 62.5t-257 171t-173 264.5t-64 334q0 177 63.5 333t172 265t256.5 172t313 63q167 0 315.5 -64t255.5 -174.5t169.5 -265.5t62.5 -329q0 -175 -63 -330t-170.5 -264.5
t-256 -173.5t-313.5 -64zM905 143q162 0 298.5 84t218 235t81.5 335q0 138 -47.5 260.5t-128 208.5t-190.5 136t-232 50q-163 0 -301 -83.5t-220.5 -234.5t-82.5 -337q0 -140 48.5 -262.5t130.5 -208t192.5 -134.5t232.5 -49z" />
    <glyph glyph-name="ohungarumlaut" unicode="&#x151;" horiz-adv-x="1318" 
d="M809 1673l-291 -395h-153l217 395h227zM1176 1673l-306 -395h-153l233 395h226zM662 -35q-254 0 -414 167.5t-160 432.5q0 264 160.5 432t413.5 168q252 0 411.5 -168t159.5 -432q0 -265 -159.5 -432.5t-411.5 -167.5zM662 133q168 0 274 120.5t106 311.5t-106 312.5
t-274 121.5q-170 0 -278 -121.5t-108 -312.5t108 -311.5t278 -120.5z" />
    <glyph glyph-name="OE" unicode="&#x152;" horiz-adv-x="2652" 
d="M899 -35q-163 0 -309.5 62.5t-254.5 171t-171.5 264.5t-63.5 334t63 333.5t170.5 264.5t255 172t312.5 63q191 0 350 -87.5t260 -242.5v297h1016v-174h-127.5h-141.5t-126 1.5t-147.5 5t-134 9.5t-152.5 15l-27 -18q44 -260 6 -545l23 -23q133 19 282.5 28.5t242.5 11
t261 1.5v-182q-168 0 -261 1.5t-242 11t-281 28.5l-25 -20q37 -304 -4 -580l25 -25q143 16 305 24.5t263 9.5t282 1v-178h-1037v295q-101 -154 -261 -242t-351 -88zM903 143q120 0 229.5 49.5t190 135t128.5 208.5t48 263q0 139 -47.5 261.5t-128 208t-189.5 134.5t-229 49
q-164 0 -302 -83.5t-220 -234.5t-82 -337q0 -140 48 -262.5t129.5 -208t192 -134.5t232.5 -49z" />
    <glyph glyph-name="oe" unicode="&#x153;" horiz-adv-x="2224" 
d="M662 -35q-254 0 -414 167.5t-160 432.5q0 264 160.5 432t413.5 168q159 0 281.5 -72t191.5 -200q67 128 189 200t278 72q75 0 146 -17t141.5 -59t123 -105.5t85 -165.5t32.5 -230v-45h-907q6 -186 115 -302t272 -116q127 0 222.5 72t141.5 188l166 -63
q-62 -166 -203 -261.5t-329 -95.5q-157 0 -282 72.5t-191 200.5q-68 -128 -191.5 -200.5t-281.5 -72.5zM1229 668h713q-6 93 -39 162t-83.5 107.5t-107 56.5t-117.5 18q-146 0 -243.5 -94t-122.5 -250zM662 133q168 0 274 120.5t106 311.5t-106 312.5t-274 121.5
q-170 0 -278 -121.5t-108 -312.5t108 -311.5t278 -120.5z" />
    <glyph glyph-name="Racute" unicode="&#x154;" horiz-adv-x="1425" 
d="M1053 2056l-334 -336h-164l252 336h246zM393 0h-190v1597h575q74 0 146.5 -16.5t143 -54t124 -92t86.5 -138t33 -184.5q0 -202 -122.5 -317t-318.5 -129v-27q37 -44 73.5 -89t74 -95.5t64.5 -87.5t67.5 -96t60 -87.5t64.5 -95.5t59 -88h-213l-418 627q-195 4 -337 43
q13 -111 20 -243.5t7.5 -205.5t0.5 -221zM367 770l22 -22q135 32 365 32q158 0 258 84.5t100 239.5q0 153 -104.5 237t-262.5 84q-215 0 -356 29l-27 -18q45 -339 5 -666z" />
    <glyph glyph-name="racute" unicode="&#x155;" horiz-adv-x="854" 
d="M848 1667l-311 -389h-156l237 389h230zM350 0h-180v1133h176q0 -9 1 -52.5t0 -65t-6 -66t-15 -89.5h28q42 148 135.5 226.5t217.5 78.5q73 0 124 -20v-197q-64 25 -139 25q-72 0 -130.5 -27t-97 -71.5t-65 -104t-38 -122t-11.5 -128.5v-520z" />
    <glyph glyph-name="uni0156" unicode="&#x156;" horiz-adv-x="1425" 
d="M393 0h-190v1597h575q74 0 146.5 -16.5t143 -54t124 -92t86.5 -138t33 -184.5q0 -202 -122.5 -317t-318.5 -129v-27q37 -44 73.5 -89t74 -95.5t64.5 -87.5t67.5 -96t60 -87.5t64.5 -95.5t59 -88h-213l-418 627q-195 4 -337 43q13 -111 20 -243.5t7.5 -205.5t0.5 -221z
M367 770l22 -22q135 32 365 32q158 0 258 84.5t100 239.5q0 153 -104.5 237t-262.5 84q-215 0 -356 29l-27 -18q45 -339 5 -666zM676 -557h-92q66 132 147 215q-64 0 -97.5 32t-33.5 81q0 52 35 83t88 31t87 -34.5t34 -86.5q0 -38 -24 -83.5t-111 -184.5q-21 -34 -33 -53z
" />
    <glyph glyph-name="uni0157" unicode="&#x157;" horiz-adv-x="854" 
d="M350 0h-180v1133h176q0 -9 1 -52.5t0 -65t-6 -66t-15 -89.5h28q42 148 135.5 226.5t217.5 78.5q73 0 124 -20v-197q-64 25 -139 25q-72 0 -130.5 -27t-97 -71.5t-65 -104t-38 -122t-11.5 -128.5v-520zM215 -557h-92q66 132 147 215q-64 0 -97.5 32t-33.5 81q0 52 35 83
t88 31q52 0 86.5 -34.5t34.5 -86.5q0 -38 -24 -83.5t-111 -184.5q-7 -11 -11 -17.5t-10 -16.5t-12 -19z" />
    <glyph glyph-name="Rcaron" unicode="&#x158;" horiz-adv-x="1425" 
d="M752 1720h-205l-275 322h168q43 -40 68 -65.5t58.5 -72.5t56.5 -100h55q33 76 75 128t105 110h166zM393 0h-190v1597h575q74 0 146.5 -16.5t143 -54t124 -92t86.5 -138t33 -184.5q0 -202 -122.5 -317t-318.5 -129v-27q37 -44 73.5 -89t74 -95.5t64.5 -87.5t67.5 -96
t60 -87.5t64.5 -95.5t59 -88h-213l-418 627q-195 4 -337 43q13 -111 20 -243.5t7.5 -205.5t0.5 -221zM367 770l22 -22q135 32 365 32q158 0 258 84.5t100 239.5q0 153 -104.5 237t-262.5 84q-215 0 -356 29l-27 -18q45 -339 5 -666z" />
    <glyph glyph-name="rcaron" unicode="&#x159;" horiz-adv-x="854" 
d="M573 1284h-208l-297 369h170q5 -6 31.5 -35.5t34.5 -38.5t30 -35t32.5 -40.5t28 -37t30.5 -43.5t26 -43h41q12 22 25 43t29 43.5t27.5 37.5t32.5 39.5t30.5 35.5t34 38.5t31.5 35.5h168zM350 0h-180v1133h176q0 -9 1 -52.5t0 -65t-6 -66t-15 -89.5h28q42 148 135.5 226.5
t217.5 78.5q73 0 124 -20v-197q-64 25 -139 25q-72 0 -130.5 -27t-97 -71.5t-65 -104t-38 -122t-11.5 -128.5v-520z" />
    <glyph glyph-name="Sacute" unicode="&#x15a;" horiz-adv-x="1327" 
d="M997 2054l-335 -334h-164l252 334h247zM684 -35q-100 0 -192 26.5t-175 81t-146.5 147t-96.5 214.5l178 64q47 -178 164 -268.5t268 -90.5q65 0 126 16.5t112 49.5t81.5 88.5t30.5 126.5q0 37 -9.5 69t-23 54.5t-38.5 43t-46.5 33.5t-57 27.5t-58.5 22t-63 19.5
q-15 5 -23 7l-148 47q-42 13 -75 24.5t-80.5 33.5t-83.5 45.5t-75 59t-64 75.5t-41.5 94.5t-16.5 116.5q0 104 44 189t118 138.5t167.5 82t196.5 28.5q198 0 342.5 -102.5t194.5 -276.5l-172 -71q-42 128 -140 202t-237 74q-135 0 -225 -69t-90 -181q0 -54 24 -99.5
t55.5 -74.5t82 -55t82 -38t77.5 -26l160 -51q150 -47 215 -81q213 -112 213 -337q0 -140 -74.5 -250.5t-200.5 -169.5t-280 -59z" />
    <glyph glyph-name="sacute" unicode="&#x15b;" horiz-adv-x="1026" 
d="M885 1669l-312 -389h-155l237 389h230zM537 -35q-175 0 -303 87t-173 231l166 55q40 -103 126.5 -162t183.5 -59q36 0 72 9t72 28t58.5 55.5t22.5 85.5q0 33 -13 60t-30.5 44t-50 32.5t-57.5 24t-66 19.5l-111 33q-319 90 -319 330q0 104 57 180t143.5 111.5t188.5 35.5
q149 0 260.5 -78t150.5 -200l-170 -58q-29 81 -93.5 135t-159.5 54q-86 0 -141.5 -46t-55.5 -120q0 -36 16.5 -66.5t39 -50t60 -38t64 -27.5t66.5 -21l100 -28q35 -10 55.5 -17t57.5 -22t60 -29.5t52 -38.5t46 -51.5t28.5 -65.5t11.5 -82q0 -152 -115.5 -251t-299.5 -99z
" />
    <glyph glyph-name="Scedilla" unicode="&#x15e;" horiz-adv-x="1327" 
d="M723 -33q-37 -50 -115 -121l13 -10q56 35 110 35q78 0 131 -48t53 -126q0 -88 -68.5 -142.5t-174.5 -54.5q-81 0 -151 31.5t-113 85.5l67 74q35 -44 85.5 -68t103.5 -24q56 0 91.5 26.5t35.5 69.5q0 42 -32.5 68t-84.5 26t-94 -27l-66 56l98 151q-90 9 -171.5 40
t-153.5 86t-127.5 141.5t-85.5 197.5l178 64q47 -178 164 -268.5t268 -90.5q65 0 126 16.5t112 49.5t81.5 88.5t30.5 126.5q0 37 -9.5 69t-23 54.5t-38.5 43t-46.5 33.5t-57 27.5t-58.5 22t-63 19.5q-15 5 -23 7l-148 47q-42 13 -75 24.5t-80.5 33.5t-83.5 45.5t-75 59
t-64 75.5t-41.5 94.5t-16.5 116.5q0 104 44 189t118 138.5t167.5 82t196.5 28.5q198 0 342.5 -102.5t194.5 -276.5l-172 -71q-42 128 -140 202t-237 74q-135 0 -225 -69t-90 -181q0 -54 24 -99.5t55.5 -74.5t82 -55t82 -38t77.5 -26l160 -51q150 -47 215 -81
q213 -112 213 -337q0 -202 -147 -334t-369 -143z" />
    <glyph glyph-name="scedilla" unicode="&#x15f;" horiz-adv-x="1026" 
d="M569 -35q-41 -53 -114 -119l12 -10q56 35 111 35q78 0 131 -48t53 -126q0 -88 -69 -142.5t-175 -54.5q-81 0 -151 31.5t-113 85.5l68 74q35 -44 85 -68t103 -24q56 0 91.5 26.5t35.5 69.5q0 42 -32.5 68t-84.5 26t-94 -27l-66 56l99 151q-147 19 -252.5 102.5
t-145.5 211.5l166 55q40 -103 126.5 -162t183.5 -59q36 0 72 9t72 28t58.5 55.5t22.5 85.5q0 33 -13 60t-30.5 44t-50 32.5t-57.5 24t-66 19.5l-111 33q-319 90 -319 330q0 104 57 180t143.5 111.5t188.5 35.5q149 0 260.5 -78t150.5 -200l-170 -58q-29 81 -93.5 135
t-159.5 54q-86 0 -141.5 -46t-55.5 -120q0 -36 16.5 -66.5t39 -50t60 -38t64 -27.5t66.5 -21l100 -28q35 -10 55.5 -17t57.5 -22t60 -29.5t52 -38.5t46 -51.5t28.5 -65.5t11.5 -82q0 -145 -106 -242.5t-277 -107.5z" />
    <glyph glyph-name="Scaron" unicode="&#x160;" horiz-adv-x="1327" 
d="M756 1720h-205l-275 322h168q43 -40 68 -65.5t58.5 -72.5t56.5 -100h55q33 76 75 128t105 110h166zM684 -35q-100 0 -192 26.5t-175 81t-146.5 147t-96.5 214.5l178 64q47 -178 164 -268.5t268 -90.5q65 0 126 16.5t112 49.5t81.5 88.5t30.5 126.5q0 37 -9.5 69t-23 54.5
t-38.5 43t-46.5 33.5t-57 27.5t-58.5 22t-63 19.5q-15 5 -23 7l-148 47q-42 13 -75 24.5t-80.5 33.5t-83.5 45.5t-75 59t-64 75.5t-41.5 94.5t-16.5 116.5q0 104 44 189t118 138.5t167.5 82t196.5 28.5q198 0 342.5 -102.5t194.5 -276.5l-172 -71q-42 128 -140 202t-237 74
q-135 0 -225 -69t-90 -181q0 -54 24 -99.5t55.5 -74.5t82 -55t82 -38t77.5 -26l160 -51q150 -47 215 -81q213 -112 213 -337q0 -140 -74.5 -250.5t-200.5 -169.5t-280 -59z" />
    <glyph glyph-name="scaron" unicode="&#x161;" horiz-adv-x="1026" 
d="M610 1286h-209l-297 369h170q5 -6 31.5 -35.5t34.5 -38.5t30 -35t32.5 -40.5t28 -37t30.5 -43.5t26 -43h41q14 26 31.5 52.5t30.5 45t37 47.5t35 41.5t40 45t37 41.5h168zM537 -35q-175 0 -303 87t-173 231l166 55q40 -103 126.5 -162t183.5 -59q36 0 72 9t72 28
t58.5 55.5t22.5 85.5q0 33 -13 60t-30.5 44t-50 32.5t-57.5 24t-66 19.5l-111 33q-319 90 -319 330q0 104 57 180t143.5 111.5t188.5 35.5q149 0 260.5 -78t150.5 -200l-170 -58q-29 81 -93.5 135t-159.5 54q-86 0 -141.5 -46t-55.5 -120q0 -36 16.5 -66.5t39 -50t60 -38
t64 -27.5t66.5 -21l100 -28q35 -10 55.5 -17t57.5 -22t60 -29.5t52 -38.5t46 -51.5t28.5 -65.5t11.5 -82q0 -152 -115.5 -251t-299.5 -99z" />
    <glyph glyph-name="uni0162" unicode="&#x162;" horiz-adv-x="1304" 
d="M748 0h-37q-43 -67 -140 -154l13 -10q56 35 110 35q78 0 131.5 -48t53.5 -126q0 -88 -69 -142.5t-175 -54.5q-81 0 -151 31.5t-113 85.5l67 74q35 -44 85.5 -68t103.5 -24q56 0 91.5 26.5t35.5 69.5q0 42 -32.5 68t-84.5 26t-94 -27l-66 56l119 182h-39q0 950 29 1450
q-205 -27 -555 -27v174h1243v-174q-350 0 -553 27q27 -500 27 -1450z" />
    <glyph glyph-name="uni0163" unicode="&#x163;" horiz-adv-x="817" 
d="M766 1133v-160q-232 0 -365 24q29 -215 29 -594q0 -36 0.5 -55t3.5 -53t8.5 -53t17 -44t28 -38.5t42 -23t58.5 -9.5q90 0 178 57v-166q-82 -53 -211 -53q-29 0 -43 2q-37 -50 -115 -121l13 -10q56 35 110 35q78 0 131.5 -48t53.5 -126q0 -88 -69 -142.5t-175 -54.5
q-81 0 -151 31.5t-113 85.5l67 74q35 -44 85.5 -68t103.5 -24q56 0 91.5 26.5t35.5 69.5q0 42 -32.5 68t-84.5 26t-94 -27l-66 56l111 172q-47 19 -80 54t-49 69t-24.5 84.5t-9.5 77.5t-1 71q0 418 29 651q-100 -24 -254 -24v160q150 0 254 -23q-29 133 -29 356h180
q0 -223 -29 -356q139 23 365 23z" />
    <glyph glyph-name="Tcaron" unicode="&#x164;" horiz-adv-x="1304" 
d="M756 1720h-205l-275 322h168q43 -40 68 -65.5t58.5 -72.5t56.5 -100h55q33 76 75 128t105 110h166zM748 0h-191q0 950 29 1450q-205 -27 -555 -27v174h1243v-174q-350 0 -553 27q27 -500 27 -1450z" />
    <glyph glyph-name="tcaron" unicode="&#x165;" horiz-adv-x="817" 
d="M946 1135h-110q30 59 48 91t53.5 82t76.5 91q-127 24 -127 123q0 54 39 92.5t94 38.5t93 -38t38 -91q0 -43 -29 -97.5t-139 -231.5q-8 -13 -12 -20t-11.5 -18.5t-13.5 -21.5zM555 -35q-49 0 -90.5 9.5t-71 23.5t-53 38t-38.5 45.5t-25.5 54t-15.5 55t-7.5 57t-3 51.5
t-0.5 47q0 418 29 651q-100 -24 -254 -24v160q150 0 254 -23q-29 133 -29 356h180q0 -223 -29 -356q139 23 365 23v-160q-232 0 -365 24q29 -215 29 -594q0 -36 0.5 -55t3.5 -53t8.5 -53t17 -44t28 -38.5t42 -23t58.5 -9.5q90 0 178 57v-166q-82 -53 -211 -53z" />
    <glyph glyph-name="Tbar" unicode="&#x166;" horiz-adv-x="1304" 
d="M1274 1597v-174q-350 0 -553 27q13 -258 20 -576h338v-153h-336q5 -305 5 -721h-191q0 477 4 721h-334v153h336q5 218 23 576q-205 -27 -555 -27v174h1243z" />
    <glyph glyph-name="tbar" unicode="&#x167;" horiz-adv-x="817" 
d="M766 1133v-160q-232 0 -365 24q22 -173 25 -307h324v-141h-320v-146q0 -36 0.5 -55t3.5 -53t8.5 -53t17 -44t28 -38.5t42 -23t58.5 -9.5q90 0 178 57v-166q-82 -53 -211 -53q-49 0 -90.5 9.5t-71 23.5t-53 38t-38.5 45.5t-25.5 54t-15.5 55t-7.5 57t-3 51.5t-0.5 47v203
h-223v141h227q6 135 25 307q-100 -24 -254 -24v160q150 0 254 -23q-29 133 -29 356h180q0 -223 -29 -356q139 23 365 23z" />
    <glyph glyph-name="Umacron" unicode="&#x16a;" horiz-adv-x="1536" 
d="M1114 1810h-692v144h692v-144zM764 -35q-151 0 -264 47t-181 132.5t-101.5 197.5t-33.5 250v1005h191v-991q0 -232 100.5 -348.5t292.5 -116.5t292.5 116.5t100.5 348.5v991h191v-1005q0 -101 -18 -190t-61 -170.5t-109 -139.5t-168 -92.5t-232 -34.5z" />
    <glyph glyph-name="umacron" unicode="&#x16b;" horiz-adv-x="1282" 
d="M973 1391h-688v137h688v-137zM563 -35q-84 0 -155 25.5t-128.5 78t-90.5 143t-33 210.5v711h178v-644q0 -181 78 -268.5t198 -87.5q75 0 137 32t101 85t60.5 118t21.5 134v631h178v-779q0 -131 9 -205.5t28 -148.5h-178q-12 48 -17 76t-3 73t16 97h-27
q-56 -149 -150 -215t-223 -66z" />
    <glyph glyph-name="Uring" unicode="&#x16e;" horiz-adv-x="1536" 
d="M768 1714q-101 0 -168.5 66t-67.5 164q0 97 67.5 161t168.5 64t168.5 -63.5t67.5 -161.5q0 -99 -68 -164.5t-168 -65.5zM768 1819q55 0 90 34.5t35 90.5q0 53 -35 86.5t-90 33.5q-56 0 -91.5 -33t-35.5 -87q0 -56 35.5 -90.5t91.5 -34.5zM764 -35q-151 0 -264 47
t-181 132.5t-101.5 197.5t-33.5 250v1005h191v-991q0 -232 100.5 -348.5t292.5 -116.5t292.5 116.5t100.5 348.5v991h191v-1005q0 -101 -18 -190t-61 -170.5t-109 -139.5t-168 -92.5t-232 -34.5z" />
    <glyph glyph-name="uring" unicode="&#x16f;" horiz-adv-x="1282" 
d="M627 1249q-100 0 -168 66t-68 164q0 96 68 160.5t168 64.5t167.5 -63.5t67.5 -161.5q0 -99 -67.5 -164.5t-167.5 -65.5zM627 1354q55 0 91 34.5t36 90.5q0 53 -36 86.5t-91 33.5q-56 0 -91.5 -33t-35.5 -87q0 -56 35.5 -90.5t91.5 -34.5zM563 -35q-84 0 -155 25.5
t-128.5 78t-90.5 143t-33 210.5v711h178v-644q0 -181 78 -268.5t198 -87.5q75 0 137 32t101 85t60.5 118t21.5 134v631h178v-779q0 -131 9 -205.5t28 -148.5h-178q-12 48 -17 76t-3 73t16 97h-27q-56 -149 -150 -215t-223 -66z" />
    <glyph glyph-name="Uhungarumlaut" unicode="&#x170;" horiz-adv-x="1536" 
d="M924 2054l-287 -334h-158l213 334h232zM1288 2054l-301 -334h-158l228 334h231zM764 -35q-151 0 -264 47t-181 132.5t-101.5 197.5t-33.5 250v1005h191v-991q0 -232 100.5 -348.5t292.5 -116.5t292.5 116.5t100.5 348.5v991h191v-1005q0 -101 -18 -190t-61 -170.5
t-109 -139.5t-168 -92.5t-232 -34.5z" />
    <glyph glyph-name="uhungarumlaut" unicode="&#x171;" horiz-adv-x="1282" 
d="M776 1673l-291 -395h-153l217 395h227zM1143 1673l-305 -395h-154l234 395h225zM563 -35q-84 0 -155 25.5t-128.5 78t-90.5 143t-33 210.5v711h178v-644q0 -181 78 -268.5t198 -87.5q75 0 137 32t101 85t60.5 118t21.5 134v631h178v-779q0 -131 9 -205.5t28 -148.5h-178
q-12 48 -17 76t-3 73t16 97h-27q-56 -149 -150 -215t-223 -66z" />
    <glyph glyph-name="Uogonek" unicode="&#x172;" horiz-adv-x="1536" 
d="M1161 606v991h191v-1005q0 -91 -14.5 -171.5t-48.5 -156.5t-86 -134t-131.5 -100t-180.5 -57q-60 -32 -89.5 -76.5t-29.5 -91.5q0 -63 47 -105t125 -42q45 0 88 14v-118q-55 -17 -110 -17q-120 0 -201.5 62t-81.5 172q0 113 111 194q-147 2 -257 50t-177 133t-99.5 196
t-32.5 248v1005h191v-991q0 -232 100.5 -348.5t292.5 -116.5t292.5 116.5t100.5 348.5z" />
    <glyph glyph-name="uogonek" unicode="&#x173;" horiz-adv-x="1282" 
d="M1096 -336q49 0 92 14v-127q-55 -14 -107 -14q-120 0 -199 62.5t-79 169.5q0 145 166 231h-2q-12 48 -17 76t-3 73t16 97h-27q-56 -149 -150 -215t-223 -66q-84 0 -155 25.5t-128.5 78t-90.5 143t-33 210.5v711h178v-644q0 -181 78 -268.5t198 -87.5q75 0 137 32t101 85
t60.5 118t21.5 134v631h178v-779q0 -131 9 -205.5t28 -148.5h-41q-170 -71 -170 -195q0 -63 46 -102t116 -39z" />
    <glyph glyph-name="Wcircumflex" unicode="&#x174;" horiz-adv-x="2338" 
d="M961 1720h-166l274 322h201l276 -322h-168q-44 42 -67.5 66.5t-56.5 72t-56 101.5h-55q-23 -54 -57 -102t-56.5 -71t-68.5 -67zM764 0h-234l-499 1597h211q127 -399 218.5 -716.5t176.5 -669.5h27q142 562 399 1386h215q268 -860 401 -1394h29q141 601 389 1394h211
l-498 -1597h-233q-250 768 -389 1360h-35q-156 -650 -389 -1360z" />
    <glyph glyph-name="wcircumflex" unicode="&#x175;" horiz-adv-x="1875" 
d="M705 1278h-170l296 360h209l297 -360h-168q-49 51 -77.5 82t-66 81.5t-62.5 100.5h-50q-38 -71 -87 -130.5t-121 -133.5zM629 0h-199l-401 1133h200q76 -221 107.5 -315t88 -280.5t95.5 -347.5h33q101 372 301 943h168q213 -596 307 -943h33q38 161 93.5 347.5
t86.5 280.5t105 315h200l-401 -1133h-203q-203 571 -293 901h-22q-103 -359 -299 -901z" />
    <glyph glyph-name="Ycircumflex" unicode="&#x176;" horiz-adv-x="1421" 
d="M502 1720h-166l274 322h201l276 -322h-167q-45 43 -68 67t-56.5 71.5t-56.5 101.5h-55q-23 -54 -57 -102t-56.5 -71t-68.5 -67zM805 0h-191q0 368 15 575q-177 288 -598 1022h205q294 -512 460 -878h27q67 148 156.5 319.5t141.5 265t165 293.5h205
q-46 -79 -143.5 -248.5t-155 -269t-142.5 -242.5t-159 -262q14 -193 14 -575z" />
    <glyph glyph-name="ycircumflex" unicode="&#x177;" horiz-adv-x="1138" 
d="M328 1278h-170l297 360h209l297 -360h-168q-51 52 -78.5 82t-65.5 81.5t-63 100.5h-49q-27 -50 -64.5 -100t-67 -82.5t-77.5 -81.5zM492 -451h-179l166 426l-454 1158h196q217 -549 338 -977h27q123 432 336 977h192z" />
    <glyph glyph-name="Ydieresis" unicode="&#x178;" horiz-adv-x="1421" 
d="M504 1772q-55 0 -91 36.5t-36 92.5q0 52 36 87t91 35q52 0 87.5 -35.5t35.5 -86.5q0 -55 -35 -92t-88 -37zM920 1772q-55 0 -91 36.5t-36 92.5q0 52 36 87t91 35q52 0 88 -35.5t36 -86.5q0 -55 -35.5 -92t-88.5 -37zM805 0h-191q0 368 15 575q-177 288 -598 1022h205
q294 -512 460 -878h27q67 148 156.5 319.5t141.5 265t165 293.5h205q-46 -79 -143.5 -248.5t-155 -269t-142.5 -242.5t-159 -262q14 -193 14 -575z" />
    <glyph glyph-name="Zacute" unicode="&#x179;" horiz-adv-x="1355" 
d="M1061 2056l-334 -336h-164l252 336h246zM1290 0h-1227v158q458 623 1018 1290l-14 27q-475 -52 -969 -52v174h1174v-155q-378 -509 -1018 -1284l14 -27q445 47 1022 47v-178z" />
    <glyph glyph-name="zacute" unicode="&#x17a;" horiz-adv-x="1026" 
d="M891 1667l-311 -389h-156l238 389h229zM973 0h-910v143q6 8 60.5 80t65 86t60 79.5t66 87t61.5 80t68 87.5t64 80.5t70.5 87.5t66.5 80.5t72 85.5l-12 27q-274 -35 -611 -35v164h834v-144q-389 -512 -658 -825l13 -27q240 27 690 27v-164z" />
    <glyph glyph-name="Zdotaccent" unicode="&#x17b;" horiz-adv-x="1355" 
d="M655 1776q-57 0 -94 39t-37 96q0 53 37.5 91t93.5 38q55 0 93 -38t38 -91q0 -57 -38 -96t-93 -39zM1290 0h-1227v158q458 623 1018 1290l-14 27q-475 -52 -969 -52v174h1174v-155q-378 -509 -1018 -1284l14 -27q445 47 1022 47v-178z" />
    <glyph glyph-name="zdotaccent" unicode="&#x17c;" horiz-adv-x="1026" 
d="M514 1386q-57 0 -94 39t-37 97q0 54 37.5 91.5t93.5 37.5q55 0 93 -37.5t38 -91.5q0 -57 -38 -96.5t-93 -39.5zM973 0h-910v143q6 8 60.5 80t65 86t60 79.5t66 87t61.5 80t68 87.5t64 80.5t70.5 87.5t66.5 80.5t72 85.5l-12 27q-274 -35 -611 -35v164h834v-144
q-389 -512 -658 -825l13 -27q240 27 690 27v-164z" />
    <glyph glyph-name="Zcaron" unicode="&#x17d;" horiz-adv-x="1355" 
d="M762 1720h-205l-274 322h168q42 -39 67.5 -65t58.5 -73t56 -100h55q33 76 75 128t105 110h166zM1290 0h-1227v158q458 623 1018 1290l-14 27q-475 -52 -969 -52v174h1174v-155q-378 -509 -1018 -1284l14 -27q445 47 1022 47v-178z" />
    <glyph glyph-name="zcaron" unicode="&#x17e;" horiz-adv-x="1026" 
d="M616 1284h-208l-297 369h170q5 -6 31.5 -35.5t34.5 -38.5t30 -35t32.5 -40.5t28 -37t30.5 -43.5t26 -43h41q12 22 25 43t29 43.5t27.5 37.5t32.5 39.5t30.5 35.5t34 38.5t31.5 35.5h168zM973 0h-910v143q6 8 60.5 80t65 86t60 79.5t66 87t61.5 80t68 87.5t64 80.5
t70.5 87.5t66.5 80.5t72 85.5l-12 27q-274 -35 -611 -35v164h834v-144q-389 -512 -658 -825l13 -27q240 27 690 27v-164z" />
    <glyph glyph-name="uni0218" unicode="&#x218;" horiz-adv-x="1327" 
d="M684 -35q-100 0 -192 26.5t-175 81t-146.5 147t-96.5 214.5l178 64q47 -178 164 -268.5t268 -90.5q65 0 126 16.5t112 49.5t81.5 88.5t30.5 126.5q0 37 -9.5 69t-23 54.5t-38.5 43t-46.5 33.5t-57 27.5t-58.5 22t-63 19.5q-15 5 -23 7l-148 47q-42 13 -75 24.5
t-80.5 33.5t-83.5 45.5t-75 59t-64 75.5t-41.5 94.5t-16.5 116.5q0 104 44 189t118 138.5t167.5 82t196.5 28.5q198 0 342.5 -102.5t194.5 -276.5l-172 -71q-42 128 -140 202t-237 74q-135 0 -225 -69t-90 -181q0 -54 24 -99.5t55.5 -74.5t82 -55t82 -38t77.5 -26l160 -51
q150 -47 215 -81q213 -112 213 -337q0 -140 -74.5 -250.5t-200.5 -169.5t-280 -59zM641 -557h-92q66 132 147 215q-64 0 -97.5 32t-33.5 81q0 52 35 83t88 31q52 0 86.5 -34.5t34.5 -86.5q0 -38 -24 -83.5t-111 -184.5q-21 -34 -33 -53z" />
    <glyph glyph-name="uni0219" unicode="&#x219;" horiz-adv-x="1026" 
d="M537 -35q-175 0 -303 87t-173 231l166 55q40 -103 126.5 -162t183.5 -59q36 0 72 9t72 28t58.5 55.5t22.5 85.5q0 33 -13 60t-30.5 44t-50 32.5t-57.5 24t-66 19.5l-111 33q-319 90 -319 330q0 104 57 180t143.5 111.5t188.5 35.5q149 0 260.5 -78t150.5 -200l-170 -58
q-29 81 -93.5 135t-159.5 54q-86 0 -141.5 -46t-55.5 -120q0 -36 16.5 -66.5t39 -50t60 -38t64 -27.5t66.5 -21l100 -28q35 -10 55.5 -17t57.5 -22t60 -29.5t52 -38.5t46 -51.5t28.5 -65.5t11.5 -82q0 -152 -115.5 -251t-299.5 -99zM487 -557h-92q65 130 148 215
q-64 0 -97.5 32t-33.5 81q0 52 35 83t88 31q52 0 86 -34t34 -87q0 -38 -24 -83.5t-111 -184.5q-21 -34 -33 -53z" />
    <glyph glyph-name="uni021A" unicode="&#x21a;" horiz-adv-x="1304" 
d="M748 0h-191q0 950 29 1450q-205 -27 -555 -27v174h1243v-174q-350 0 -553 27q27 -500 27 -1450zM604 -557h-92q66 132 147 215q-64 0 -97.5 32t-33.5 81q0 52 35 83t88 31t87 -34.5t34 -86.5q0 -38 -24 -83.5t-111 -184.5q-21 -34 -33 -53z" />
    <glyph glyph-name="uni021B" unicode="&#x21b;" horiz-adv-x="817" 
d="M555 -35q-49 0 -90.5 9.5t-71 23.5t-53 38t-38.5 45.5t-25.5 54t-15.5 55t-7.5 57t-3 51.5t-0.5 47q0 418 29 651q-100 -24 -254 -24v160q150 0 254 -23q-29 133 -29 356h180q0 -223 -29 -356q139 23 365 23v-160q-232 0 -365 24q29 -215 29 -594q0 -36 0.5 -55t3.5 -53
t8.5 -53t17 -44t28 -38.5t42 -23t58.5 -9.5q90 0 178 57v-166q-82 -53 -211 -53zM428 -557h-92q66 132 147 215q-64 0 -97.5 32t-33.5 81q0 52 35 83t88 31t87 -34.5t34 -86.5q0 -38 -24 -83.5t-111 -184.5q-21 -34 -33 -53z" />
    <glyph glyph-name="gravecomb" unicode="&#x300;" horiz-adv-x="0" 
d="M-86 1278h-158l-311 389h229z" />
    <glyph glyph-name="acutecomb" unicode="&#x301;" horiz-adv-x="0" 
d="M76 1667l-312 -389h-155l237 389h230z" />
    <glyph glyph-name="uni0302" unicode="&#x302;" horiz-adv-x="0" 
d="M-662 1278h-169l296 360h209l297 -360h-168q-49 51 -77.5 82t-66 81.5t-62.5 100.5h-50q-27 -50 -64.5 -100t-67 -82.5t-77.5 -81.5z" />
    <glyph glyph-name="tildecomb" unicode="&#x303;" horiz-adv-x="0" 
d="M-315 1333q-35 0 -65.5 10.5t-48 22t-44.5 33.5l-45 35q-2 1 -9 6.5t-9.5 7.5t-9.5 6.5t-10.5 6.5t-10 5.5t-11 5t-10.5 4t-12 3t-12 0.5q-43 0 -70 -37t-27 -92h-133q1 120 64.5 194t161.5 74q40 0 73 -15.5t76 -48.5l45 -34q1 -1 10 -7.5t11.5 -8.5t11 -7.5t12.5 -7.5
l12 -6t13.5 -5.5t13 -3t14.5 -1.5q42 0 65 36t23 95h134q0 -127 -56 -199t-157 -72z" />
    <glyph glyph-name="uni0304" unicode="&#x304;" horiz-adv-x="0" 
d="M-90 1384h-688v138h688v-138z" />
    <glyph glyph-name="uni0306" unicode="&#x306;" horiz-adv-x="0" 
d="M-414 1274q-170 0 -270.5 110.5t-106.5 284.5h154q3 -116 64.5 -187t162.5 -71t163 71t65 187h153q-6 -175 -107.5 -285t-277.5 -110z" />
    <glyph glyph-name="uni0307" unicode="&#x307;" horiz-adv-x="0" 
d="M-248 1380q-57 0 -94 39t-37 97q0 54 37.5 91.5t93.5 37.5q55 0 93 -37.5t38 -91.5q0 -57 -38 -96.5t-93 -39.5z" />
    <glyph glyph-name="uni0308" unicode="&#x308;" horiz-adv-x="0" 
d="M-809 1352q-51 0 -86 36t-35 89q0 48 35.5 83t85.5 35q52 0 86.5 -35t34.5 -83q0 -53 -34.5 -89t-86.5 -36zM-430 1352q-52 0 -86.5 36t-34.5 89q0 48 34.5 83t86.5 35q50 0 85.5 -35t35.5 -83q0 -53 -35 -89t-86 -36z" />
    <glyph glyph-name="uni030A" unicode="&#x30a;" horiz-adv-x="0" 
d="M-258 1249q-100 0 -168 66t-68 164q0 96 68 160.5t168 64.5t167.5 -63.5t67.5 -161.5q0 -99 -67.5 -164.5t-167.5 -65.5zM-258 1354q55 0 91 34.5t36 90.5q0 53 -36 86.5t-91 33.5q-56 0 -91.5 -33t-35.5 -87q0 -56 35.5 -90.5t91.5 -34.5z" />
    <glyph glyph-name="uni030B" unicode="&#x30b;" horiz-adv-x="0" 
d="M-231 1673l-291 -395h-154l217 395h228zM135 1673l-305 -395h-154l234 395h225z" />
    <glyph glyph-name="uni030C" unicode="&#x30c;" horiz-adv-x="0" 
d="M-326 1278h-209l-296 369h169q5 -6 31.5 -35.5t34.5 -38.5t30 -35t32.5 -40.5t28 -37t30.5 -43.5t26 -43h41q14 26 31.5 52.5t30.5 45t37 47.5t35 41.5t40 45t37 41.5h168z" />
    <glyph glyph-name="uni0312" unicode="&#x312;" horiz-adv-x="0" 
d="M-418 1311q0 10 1.5 19.5t5.5 22t8 23.5t14 29.5t18.5 33.5t24.5 43t30 51t38 64t45 76h108q-81 -158 -154 -274q51 6 78 -25t27 -74q0 -52 -34.5 -81t-84.5 -29q-55 0 -90 34t-35 87z" />
    <glyph glyph-name="uni0326" unicode="&#x326;" horiz-adv-x="0" 
d="M-328 -557h-92q65 130 148 215q-64 0 -97.5 32t-33.5 81q0 52 34.5 83t87.5 31t87 -34.5t34 -86.5q0 -38 -24 -83.5t-111 -184.5q-21 -34 -33 -53z" />
    <glyph glyph-name="uni0327" unicode="&#x327;" horiz-adv-x="0" 
d="M-639 -500q-81 0 -151 31.5t-113 85.5l67 74q35 -44 85.5 -68t103.5 -24q56 0 91.5 26.5t35.5 69.5q0 42 -32.5 68t-84.5 26t-94 -27l-66 56l119 182h115q-45 -69 -139 -154l12 -10q56 35 110 35q78 0 131.5 -48t53.5 -126q0 -88 -69 -142.5t-175 -54.5z" />
    <glyph glyph-name="uni0328" unicode="&#x328;" horiz-adv-x="0" 
d="M-637 -483q-120 0 -199 62t-79 169q0 146 165 232h136q-170 -71 -170 -195q0 -64 45.5 -102.5t115.5 -38.5q50 0 93 14v-127q-55 -14 -107 -14z" />
    <glyph glyph-name="uni0335" unicode="&#x335;" horiz-adv-x="0" 
d="M-770 639h723v-141h-723v141z" />
    <glyph glyph-name="uni0337" unicode="&#x337;" horiz-adv-x="0" 
d="M-502 492v157l559 400v-158z" />
    <glyph glyph-name="uni0338" unicode="&#x338;" horiz-adv-x="0" 
d="M-1014 -59h-170l926 1239h162z" />
    <glyph glyph-name="Wgrave" unicode="&#x1e80;" horiz-adv-x="2338" 
d="M1280 1720h-164l-336 336h248zM764 0h-234l-499 1597h211q127 -399 218.5 -716.5t176.5 -669.5h27q142 562 399 1386h215q268 -860 401 -1394h29q141 601 389 1394h211l-498 -1597h-233q-250 768 -389 1360h-35q-156 -650 -389 -1360z" />
    <glyph glyph-name="wgrave" unicode="&#x1e81;" horiz-adv-x="1875" 
d="M1022 1278h-158l-311 389h229zM629 0h-199l-401 1133h200q76 -221 107.5 -315t88 -280.5t95.5 -347.5h33q101 372 301 943h168q213 -596 307 -943h33q38 161 93.5 347.5t86.5 280.5t105 315h200l-401 -1133h-203q-203 571 -293 901h-22q-103 -359 -299 -901z" />
    <glyph glyph-name="Wacute" unicode="&#x1e82;" horiz-adv-x="2338" 
d="M1573 2056l-334 -336h-164l252 336h246zM764 0h-234l-499 1597h211q127 -399 218.5 -716.5t176.5 -669.5h27q142 562 399 1386h215q268 -860 401 -1394h29q141 601 389 1394h211l-498 -1597h-233q-250 768 -389 1360h-35q-156 -650 -389 -1360z" />
    <glyph glyph-name="wacute" unicode="&#x1e83;" horiz-adv-x="1875" 
d="M1313 1667l-312 -389h-155l237 389h230zM629 0h-199l-401 1133h200q76 -221 107.5 -315t88 -280.5t95.5 -347.5h33q101 372 301 943h168q213 -596 307 -943h33q38 161 93.5 347.5t86.5 280.5t105 315h200l-401 -1133h-203q-203 571 -293 901h-22q-103 -359 -299 -901z
" />
    <glyph glyph-name="Wdieresis" unicode="&#x1e84;" horiz-adv-x="2338" 
d="M963 1772q-55 0 -91 36.5t-36 92.5q0 52 36 87t91 35q52 0 87 -35.5t35 -86.5q0 -56 -35 -92.5t-87 -36.5zM1378 1772q-55 0 -91 36.5t-36 92.5q0 52 36 87t91 35q52 0 88.5 -35.5t36.5 -86.5q0 -55 -36 -92t-89 -37zM764 0h-234l-499 1597h211q127 -399 218.5 -716.5
t176.5 -669.5h27q142 562 399 1386h215q268 -860 401 -1394h29q141 601 389 1394h211l-498 -1597h-233q-250 768 -389 1360h-35q-156 -650 -389 -1360z" />
    <glyph glyph-name="wdieresis" unicode="&#x1e85;" horiz-adv-x="1875" 
d="M745 1352q-51 0 -85.5 36t-34.5 89q0 48 35 83t85 35q52 0 86.5 -35t34.5 -83q0 -53 -34.5 -89t-86.5 -36zM1124 1352q-52 0 -86 36t-34 89q0 48 34.5 83t85.5 35q50 0 85.5 -35t35.5 -83q0 -53 -35 -89t-86 -36zM629 0h-199l-401 1133h200q76 -221 107.5 -315t88 -280.5
t95.5 -347.5h33q101 372 301 943h168q213 -596 307 -943h33q38 161 93.5 347.5t86.5 280.5t105 315h200l-401 -1133h-203q-203 571 -293 901h-22q-103 -359 -299 -901z" />
    <glyph glyph-name="uni1E9E" unicode="&#x1e9e;" horiz-adv-x="1560" 
d="M373 0h-191v926q0 70 6.5 134t24.5 136.5t46.5 133t76.5 117.5t111 96.5t153.5 63t200.5 23.5q266 0 424.5 -124t158.5 -337q0 -147 -78.5 -240t-222.5 -108v-28q163 0 271 -100.5t108 -270.5q0 -49 -10.5 -95.5t-33.5 -95.5t-66 -89.5t-102.5 -73t-148.5 -50.5t-198 -18
h-180v172h207q173 0 252.5 74.5t79.5 187.5q0 129 -91.5 201t-242.5 72h-113v167h103q28 0 59 6t69.5 24.5t68.5 47t50.5 79.5t20.5 116q0 151 -101 233t-280 82q-81 0 -147 -18.5t-110 -48t-77 -72.5t-51.5 -85.5t-29.5 -94.5t-14 -92.5t-3 -85.5v-965z" />
    <glyph glyph-name="Ygrave" unicode="&#x1ef2;" horiz-adv-x="1421" 
d="M821 1720h-164l-335 336h247zM805 0h-191q0 368 15 575q-177 288 -598 1022h205q294 -512 460 -878h27q67 148 156.5 319.5t141.5 265t165 293.5h205q-46 -79 -143.5 -248.5t-155 -269t-142.5 -242.5t-159 -262q14 -193 14 -575z" />
    <glyph glyph-name="ygrave" unicode="&#x1ef3;" horiz-adv-x="1138" 
d="M647 1278h-158l-311 389h230zM492 -451h-179l166 426l-454 1158h196q217 -549 338 -977h27q123 432 336 977h192z" />
    <glyph glyph-name="uni2000" unicode="&#x2000;" horiz-adv-x="1024" 
 />
    <glyph glyph-name="uni2001" unicode="&#x2001;" 
 />
    <glyph glyph-name="uni2002" unicode="&#x2002;" horiz-adv-x="1024" 
 />
    <glyph glyph-name="uni2003" unicode="&#x2003;" 
 />
    <glyph glyph-name="uni2004" unicode="&#x2004;" horiz-adv-x="681" 
 />
    <glyph glyph-name="uni2005" unicode="&#x2005;" horiz-adv-x="512" 
 />
    <glyph glyph-name="uni2006" unicode="&#x2006;" horiz-adv-x="342" 
 />
    <glyph glyph-name="uni2007" unicode="&#x2007;" horiz-adv-x="538" 
 />
    <glyph glyph-name="uni2008" unicode="&#x2008;" horiz-adv-x="497" 
 />
    <glyph glyph-name="uni2009" unicode="&#x2009;" horiz-adv-x="256" 
 />
    <glyph glyph-name="uni200A" unicode="&#x200a;" horiz-adv-x="86" 
 />
    <glyph glyph-name="uni200B" unicode="&#x200b;" horiz-adv-x="0" 
 />
    <glyph glyph-name="endash" unicode="&#x2013;" horiz-adv-x="1011" 
d="M891 547h-770v153h770v-153z" />
    <glyph glyph-name="emdash" unicode="&#x2014;" horiz-adv-x="1439" 
d="M1319 551h-1200v143h1200v-143z" />
    <glyph glyph-name="quoteleft" unicode="&#x2018;" horiz-adv-x="485" 
d="M297 1632h109q-29 -56 -47.5 -89.5t-52 -81t-70.5 -85.5q59 -7 88.5 -43t29.5 -88q0 -54 -38 -91.5t-95 -37.5q-54 0 -92.5 38t-38.5 93q0 41 28.5 94t138.5 227q8 14 13 21.5t12.5 19.5t14.5 23z" />
    <glyph glyph-name="quoteright" unicode="&#x2019;" horiz-adv-x="493" 
d="M217 1128h-113q32 60 50 91t54 81t77 91q-127 26 -127 125q0 54 38.5 91.5t94.5 37.5q55 0 93 -37.5t38 -91.5q0 -42 -28 -95.5t-135 -224.5q-27 -44 -42 -68z" />
    <glyph glyph-name="quotesinglbase" unicode="&#x201a;" horiz-adv-x="475" 
d="M168 -266h-109q34 65 49.5 93t49.5 77.5t71 87.5q-58 7 -88 43t-30 88q0 53 39 91t94 38q54 0 92.5 -38t38.5 -93q0 -40 -28.5 -94t-135.5 -224q-28 -44 -43 -69z" />
    <glyph glyph-name="quotedblleft" unicode="&#x201c;" horiz-adv-x="841" 
d="M297 1632h109q-29 -56 -47.5 -89.5t-52 -81t-70.5 -85.5q59 -7 88.5 -43t29.5 -88q0 -54 -38 -91.5t-95 -37.5q-54 0 -92.5 38t-38.5 93q0 41 28.5 94t138.5 227q8 14 13 21.5t12.5 19.5t14.5 23zM653 1632h109q-29 -56 -47.5 -89.5t-52 -81t-70.5 -85.5q58 -7 88.5 -43
t30.5 -88q0 -54 -38.5 -91.5t-94.5 -37.5q-54 0 -93 38t-39 93q0 41 28.5 94t138.5 227q26 41 40 64z" />
    <glyph glyph-name="quotedblright" unicode="&#x201d;" horiz-adv-x="849" 
d="M215 1128h-109q29 56 47.5 89.5t52 81t70.5 85.5q-59 7 -89.5 43.5t-30.5 88.5q0 54 39 91.5t96 37.5q54 0 91.5 -38.5t37.5 -93.5q0 -44 -34.5 -106.5t-170.5 -278.5zM571 1128h-108q29 56 47.5 89.5t52 81t70.5 85.5q-58 7 -88.5 43.5t-30.5 88.5q0 54 38.5 91.5
t94.5 37.5q54 0 92.5 -38.5t38.5 -93.5q0 -41 -28.5 -94t-138.5 -227q-26 -41 -40 -64z" />
    <glyph glyph-name="quotedblbase" unicode="&#x201e;" horiz-adv-x="831" 
d="M168 -254h-109q29 56 47.5 89.5t51 81t69.5 85.5q-58 7 -88 43t-30 88q0 54 38.5 91.5t94.5 37.5t93.5 -38t37.5 -93q0 -40 -28 -93t-133 -221q-28 -46 -44 -71zM524 -254h-108q29 56 47.5 89.5t52 81t70.5 85.5q-59 7 -90 43t-31 88q0 54 39 91.5t96 37.5q54 0 91.5 -38
t37.5 -93q0 -44 -34.5 -106.5t-170.5 -278.5z" />
    <glyph glyph-name="dagger" unicode="&#x2020;" horiz-adv-x="999" 
d="M575 430h-159q0 486 20 750q-138 -21 -350 -21v148q219 0 350 -23q-20 133 -20 354h159q0 -221 -20 -354q133 23 358 23v-148q-218 0 -358 21q20 -264 20 -750z" />
    <glyph glyph-name="daggerdbl" unicode="&#x2021;" horiz-adv-x="1081" 
d="M948 1307v-148q-217 0 -360 27q26 -90 27 -167t-21 -167q137 29 354 29v-148q-217 0 -354 27q29 -137 29 -359h-162q0 79 0.5 117t7.5 108t20 134q-137 -27 -358 -27v148q221 0 358 -29q-22 91 -22 167t22 167q-137 -27 -358 -27v148q221 0 358 -29q-13 65 -20 135.5
t-7.5 108.5t-0.5 116h162q0 -74 -1 -115.5t-9.5 -110.5t-24.5 -134q143 29 360 29z" />
    <glyph glyph-name="bullet" unicode="&#x2022;" horiz-adv-x="825" 
d="M416 432q-98 0 -166 70t-68 170q0 94 68 160.5t166 66.5q95 0 162 -66.5t67 -160.5q0 -100 -67 -170t-162 -70z" />
    <glyph glyph-name="ellipsis" unicode="&#x2026;" horiz-adv-x="1411" 
d="M250 -14q-55 0 -94 40t-39 97q0 53 39 91t94 38q54 0 92.5 -38t38.5 -91q0 -57 -38.5 -97t-92.5 -40zM707 -14q-56 0 -95 40t-39 97q0 53 39.5 91t94.5 38q54 0 92.5 -38t38.5 -91q0 -57 -38.5 -97t-92.5 -40zM1163 -14q-55 0 -93 40t-38 97q0 53 38 91t93 38t93 -38
t38 -91q0 -57 -38 -97t-93 -40z" />
    <glyph glyph-name="uni202F" unicode="&#x202f;" horiz-adv-x="393" 
 />
    <glyph glyph-name="perthousand" unicode="&#x2030;" horiz-adv-x="2476" 
d="M356 768q-128 0 -206 105.5t-78 275.5t78 276.5t206 106.5q129 0 208 -107t79 -276t-79 -275t-208 -106zM401 0h-170l1139 1468h162zM356 901q60 0 95.5 64t35.5 184t-35.5 184t-95.5 64t-95.5 -64t-35.5 -184t35.5 -184t95.5 -64zM1407 -29q-128 0 -206.5 105.5
t-78.5 275.5t78.5 276.5t206.5 106.5q129 0 208 -107t79 -276t-79 -275t-208 -106zM2120 -29q-128 0 -206.5 105.5t-78.5 275.5t78.5 276.5t206.5 106.5q129 0 207.5 -107t78.5 -276t-78.5 -275t-207.5 -106zM1407 104q60 0 95.5 64t35.5 184t-35.5 184t-95.5 64t-95.5 -64
t-35.5 -184t35.5 -184t95.5 -64zM2120 104q60 0 95.5 64t35.5 184t-35.5 184t-95.5 64t-95.5 -64t-35.5 -184t35.5 -184t95.5 -64z" />
    <glyph glyph-name="guilsinglleft" unicode="&#x2039;" horiz-adv-x="759" 
d="M627 164h-197l-328 405v9l328 405h197q-68 -85 -113.5 -137.5t-116.5 -121.5t-141 -120v-61q54 -39 104 -83.5t100 -99t82 -92.5t85 -104z" />
    <glyph glyph-name="guilsinglright" unicode="&#x203a;" horiz-adv-x="759" 
d="M330 164h-199q57 70 86.5 104.5t81.5 91.5t101.5 100.5t103.5 82.5v61q-54 39 -103.5 82.5t-101.5 100.5t-81.5 91.5t-86.5 104.5h199l327 -405v-9z" />
    <glyph glyph-name="fraction" unicode="&#x2044;" horiz-adv-x="337" 
d="M-311 0h-170l1138 1468h162z" />
    <glyph glyph-name="uni205F" unicode="&#x205f;" horiz-adv-x="454" 
 />
    <glyph glyph-name="uni2070" unicode="&#x2070;" horiz-adv-x="712" 
d="M356 768q-128 0 -206 105.5t-78 275.5t78 276.5t206 106.5q129 0 208 -107t79 -276t-79 -275t-208 -106zM356 901q60 0 95.5 64t35.5 184t-35.5 184t-95.5 64t-95.5 -64t-35.5 -184t35.5 -184t95.5 -64z" />
    <glyph glyph-name="uni2074" unicode="&#x2074;" horiz-adv-x="690" 
d="M535 784h-140v152h-352v119l354 461h138v-459h94v-121h-94v-152zM395 1329l-211 -272h211v272z" />
    <glyph glyph-name="uni2075" unicode="&#x2075;" horiz-adv-x="675" 
d="M326 768q-99 0 -175.5 43.5t-103.5 124.5l127 63q20 -51 61.5 -79.5t92.5 -28.5q58 0 94.5 37.5t36.5 95.5q0 59 -36.5 95t-92.5 36q-43 0 -75 -21t-48 -53l-121 31l88 404h393v-119h-291l-45 -195h2q24 28 66.5 44t85.5 16q91 0 158 -60.5t67 -173.5q0 -118 -81.5 -189
t-202.5 -71z" />
    <glyph glyph-name="uni2076" unicode="&#x2076;" horiz-adv-x="702" 
d="M358 768q-130 0 -209 89.5t-79 250.5q0 186 98.5 305t255.5 119q129 0 197 -76l-76 -94q-53 45 -127 45q-85 0 -140.5 -63t-62.5 -175h2q22 42 72 66.5t104 24.5q99 0 171.5 -66t72.5 -170q0 -111 -78.5 -183.5t-200.5 -72.5zM365 889q56 0 95.5 39t39.5 98t-38.5 97
t-94.5 38q-58 0 -97 -40t-39 -97q0 -56 39.5 -95.5t94.5 -39.5z" />
    <glyph glyph-name="uni2077" unicode="&#x2077;" horiz-adv-x="579" 
d="M303 784h-153q0 141 62 320t171 295h-346v121h516v-125q-121 -106 -185.5 -281t-64.5 -330z" />
    <glyph glyph-name="uni2078" unicode="&#x2078;" horiz-adv-x="690" 
d="M344 768q-125 0 -200.5 63t-75.5 154q0 68 39 117.5t92 64.5v2q-99 54 -99 156q0 90 70 148.5t174 58.5q103 0 174.5 -58t71.5 -151q0 -106 -101 -154v-2q57 -16 95.5 -64t38.5 -114q0 -94 -76 -157.5t-203 -63.5zM346 1221q47 0 79 30t32 74q0 43 -31.5 70.5t-79.5 27.5
q-47 0 -78.5 -27.5t-31.5 -70.5q0 -44 31.5 -74t78.5 -30zM346 893q55 0 91 32.5t36 84.5q0 53 -33.5 83.5t-93.5 30.5t-94.5 -30.5t-34.5 -83.5q0 -51 37 -84t92 -33z" />
    <glyph glyph-name="uni2079" unicode="&#x2079;" horiz-adv-x="708" 
d="M315 768q-69 0 -133 25t-106 77l78 95q67 -78 161 -78q85 0 129.5 70t47.5 176q-22 -47 -72 -73t-107 -26q-100 0 -170.5 66t-70.5 172q0 112 78 186t202 74q127 0 206 -84.5t79 -261.5q0 -86 -20 -160.5t-58.5 -132.5t-101 -91.5t-142.5 -33.5zM340 1135q58 0 97.5 41.5
t39.5 103.5q0 61 -38.5 98t-94.5 37q-59 0 -97 -39t-38 -102q0 -60 36.5 -99.5t94.5 -39.5z" />
    <glyph glyph-name="uni2080" unicode="&#x2080;" horiz-adv-x="712" 
d="M356 -285q-128 0 -206 105.5t-78 275.5t78 276.5t206 106.5q129 0 208 -107t79 -276t-79 -275t-208 -106zM356 -152q60 0 95.5 64t35.5 184t-35.5 184t-95.5 64t-95.5 -64t-35.5 -184t35.5 -184t95.5 -64z" />
    <glyph glyph-name="uni2081" unicode="&#x2081;" horiz-adv-x="473" 
d="M348 -268h-143v499q-62 -65 -158 -84v150q72 22 116 67t44 99h141v-731z" />
    <glyph glyph-name="uni2082" unicode="&#x2082;" horiz-adv-x="667" 
d="M592 -268h-510v16q3 67 15.5 113t43 86.5t68.5 71.5t106 77q68 47 90 74q35 40 35 84q0 41 -29.5 67.5t-78.5 26.5q-61 0 -98.5 -42t-38.5 -113l-134 20q0 119 77.5 192.5t197.5 73.5q110 0 183 -62.5t73 -162.5q0 -123 -135 -215q-15 -10 -45.5 -29.5t-47 -31t-38 -29.5
t-34.5 -38.5t-20 -45.5h320v-133z" />
    <glyph glyph-name="uni2083" unicode="&#x2083;" horiz-adv-x="675" 
d="M330 -285q-102 0 -179 46.5t-100 121.5l127 64q47 -111 152 -111q52 0 86.5 29.5t34.5 79.5q0 52 -37.5 79t-98.5 27h-71v103h73q53 0 88 28t35 72t-33 72t-81 28q-51 0 -84.5 -30t-40.5 -82l-131 28q9 90 83.5 149.5t182.5 59.5q104 0 176 -53.5t72 -140.5
q0 -58 -32 -105.5t-85 -60.5q59 -12 98 -59t39 -113q0 -92 -73 -162t-201 -70z" />
    <glyph glyph-name="uni2084" unicode="&#x2084;" horiz-adv-x="690" 
d="M535 -268h-140v151h-352v119l354 461h138v-459h94v-121h-94v-151zM395 276l-211 -272h211v272z" />
    <glyph glyph-name="uni2085" unicode="&#x2085;" horiz-adv-x="675" 
d="M326 -285q-99 0 -175.5 43.5t-103.5 124.5l127 64q20 -51 61.5 -80t92.5 -29q58 0 94.5 37.5t36.5 95.5q0 59 -36.5 95t-92.5 36q-43 0 -75 -20.5t-48 -52.5l-121 30l88 404h393v-119h-291l-45 -194h2q24 28 66 43.5t86 15.5q91 0 158 -60.5t67 -173.5q0 -118 -81.5 -189
t-202.5 -71z" />
    <glyph glyph-name="uni2086" unicode="&#x2086;" horiz-adv-x="702" 
d="M358 -285q-130 0 -209 89.5t-79 250.5q0 186 98.5 305t255.5 119q129 0 197 -76l-76 -94q-53 45 -127 45q-85 0 -140.5 -62.5t-62.5 -174.5h2q22 42 72 66t104 24q99 0 171.5 -66t72.5 -170q0 -111 -78.5 -183.5t-200.5 -72.5zM365 -164q56 0 95.5 39t39.5 98t-38.5 97.5
t-94.5 38.5q-58 0 -97 -40t-39 -98q0 -56 39.5 -95.5t94.5 -39.5z" />
    <glyph glyph-name="uni2087" unicode="&#x2087;" horiz-adv-x="579" 
d="M303 -268h-153q0 140 62 319t171 295h-346v121h516v-125q-121 -106 -185.5 -280.5t-64.5 -329.5z" />
    <glyph glyph-name="uni2088" unicode="&#x2088;" horiz-adv-x="690" 
d="M344 -285q-125 0 -200.5 63t-75.5 154q0 68 39 118.5t92 64.5v2q-99 54 -99 155q0 90 70 148.5t174 58.5q103 0 174.5 -58t71.5 -151q0 -105 -101 -153v-2q57 -16 95.5 -64t38.5 -114q0 -94 -76 -158t-203 -64zM346 168q47 0 79 30t32 74q0 43 -32 71t-79 28t-78.5 -28
t-31.5 -71q0 -44 31.5 -74t78.5 -30zM346 -160q55 0 91 32.5t36 84.5q0 53 -33.5 84t-93.5 31t-94.5 -31t-34.5 -84q0 -51 37 -84t92 -33z" />
    <glyph glyph-name="uni2089" unicode="&#x2089;" horiz-adv-x="708" 
d="M315 -285q-69 0 -133 25.5t-106 77.5l78 94q67 -78 161 -78q85 0 129.5 70t47.5 176q-22 -47 -72 -72.5t-107 -25.5q-100 0 -170.5 65.5t-70.5 171.5q0 112 78 186t202 74q127 0 206 -84.5t79 -261.5q0 -86 -20 -160.5t-58.5 -132.5t-101 -91.5t-142.5 -33.5zM340 82
q58 0 97.5 41.5t39.5 103.5q0 61 -38.5 98t-94.5 37q-59 0 -97 -39t-38 -102q0 -60 36.5 -99.5t94.5 -39.5z" />
    <glyph glyph-name="Euro" unicode="&#x20ac;" horiz-adv-x="1644" 
d="M1069 -35q-288 0 -474 159.5t-226 434.5q-100 -20 -256 -20v116q146 0 235 -26q-40 146 -2 280q-87 -26 -233 -26v116q156 0 252 -20q37 280 221.5 447t472.5 167q304 0 487 -168l-133 -135q-146 127 -356 127q-201 0 -338.5 -113.5t-206.5 -324.5q238 20 657 20v-116
q-154 0 -227.5 0.5t-206 6.5t-246.5 19q21 -139 5 -280q114 13 245 19t203.5 6.5t226.5 0.5v-116q-415 0 -653 20q72 -204 212.5 -311t338.5 -107q224 0 377 125l115 -131q-191 -170 -490 -170z" />
    <glyph glyph-name="trademark" unicode="&#x2122;" horiz-adv-x="1572" 
d="M406 932h-115v575h-217v109h547v-109h-215v-575zM848 932h-117v684h117q38 -90 114.5 -267t106.5 -247l219 514h117v-684h-117v436q-16 -39 -81.5 -192t-98.5 -234h-78l-182 428v-438z" />
    <glyph glyph-name="oneeighth" unicode="&#x215b;" horiz-adv-x="1501" 
d="M348 784h-143v500q-62 -65 -158 -84v150q72 22 116 67t44 99h141v-732zM162 0h-170l1138 1468h162zM1155 -29q-125 0 -200.5 63t-75.5 154q0 68 39 118.5t92 64.5v2q-99 54 -99 155q0 90 70 148.5t174 58.5q103 0 174.5 -58t71.5 -151q0 -105 -101 -153v-2
q57 -16 95.5 -64t38.5 -114q0 -94 -76 -158t-203 -64zM1157 424q47 0 79 30t32 74q0 43 -32 71t-79 28t-78.5 -28t-31.5 -71q0 -44 31.5 -74t78.5 -30zM1157 96q55 0 91 32.5t36 84.5q0 53 -33.5 84t-93.5 31t-94.5 -31t-34.5 -84q0 -51 37 -84t92 -33z" />
    <glyph glyph-name="threeeighths" unicode="&#x215c;" horiz-adv-x="1703" 
d="M330 768q-102 0 -179 46.5t-100 121.5l127 63q47 -110 152 -110q52 0 86.5 29t34.5 79q0 52 -37.5 79.5t-98.5 27.5h-71v102h73q53 0 88 28.5t35 72.5t-33 72t-81 28q-51 0 -84 -30t-41 -83l-131 29q9 90 83.5 149.5t182.5 59.5q104 0 176 -54t72 -141q0 -58 -32 -105.5
t-85 -60.5q59 -12 98 -59t39 -113q0 -92 -72.5 -161.5t-201.5 -69.5zM365 0h-170l1138 1468h162zM1356 -29q-125 0 -201 63t-76 154q0 68 39 118.5t92 64.5v2q-98 53 -98 155q0 90 70 148.5t174 58.5q103 0 174.5 -58t71.5 -151q0 -105 -101 -153v-2q57 -16 95 -64t38 -114
q0 -94 -75.5 -158t-202.5 -64zM1358 424q47 0 78.5 30t31.5 74q0 43 -31.5 71t-78.5 28t-79 -28t-32 -71q0 -44 32 -74t79 -30zM1358 96q55 0 91 32.5t36 84.5q0 53 -33.5 84t-93.5 31t-94.5 -31t-34.5 -84q0 -51 37 -84t92 -33z" />
    <glyph glyph-name="fiveeighths" unicode="&#x215d;" horiz-adv-x="1703" 
d="M326 768q-99 0 -175.5 43.5t-103.5 124.5l127 63q20 -51 61.5 -79.5t92.5 -28.5q58 0 94.5 37.5t36.5 95.5q0 59 -36.5 95t-92.5 36q-43 0 -75 -21t-48 -53l-121 31l88 404h393v-119h-291l-45 -195h2q24 28 66.5 44t85.5 16q91 0 158 -60.5t67 -173.5q0 -118 -81.5 -189
t-202.5 -71zM365 0h-170l1138 1468h162zM1358 -29q-125 0 -201 63t-76 154q0 68 39 118.5t92 64.5v2q-98 53 -98 155q0 90 70 148.5t174 58.5q103 0 174.5 -58t71.5 -151q0 -105 -101 -153v-2q57 -16 95 -64t38 -114q0 -94 -75.5 -158t-202.5 -64zM1360 424q47 0 78.5 30
t31.5 74q0 43 -31.5 71t-78.5 28t-79 -28t-32 -71q0 -44 32 -74t79 -30zM1360 96q55 0 91 32.5t36 84.5q0 53 -33.5 84t-93.5 31t-94.5 -31t-34.5 -84q0 -51 37 -84t92 -33z" />
    <glyph glyph-name="seveneighths" unicode="&#x215e;" horiz-adv-x="1607" 
d="M303 784h-153q0 141 62 320t171 295h-346v121h516v-125q-121 -106 -185.5 -281t-64.5 -330zM268 0h-170l1139 1468h162zM1262 -29q-125 0 -201 63t-76 154q0 68 39 118.5t92 64.5v2q-98 53 -98 155q0 90 70 148.5t174 58.5q103 0 174 -58t71 -151q0 -106 -100 -153v-2
q57 -16 95 -64t38 -114q0 -94 -75.5 -158t-202.5 -64zM1264 424q47 0 78.5 30t31.5 74q0 43 -31.5 71t-78.5 28t-79 -28t-32 -71q0 -44 32 -74t79 -30zM1264 96q55 0 91 32.5t36 84.5q0 53 -33.5 84t-93.5 31t-94.5 -31t-34.5 -84q0 -51 37 -84t92 -33z" />
    <glyph glyph-name="arrowleft" unicode="&#x2190;" horiz-adv-x="1411" 
d="M635 236h-186l-340 405v8l340 406h186q-68 -81 -100 -117.5t-101.5 -107t-142.5 -134.5q348 27 999 27v-158q-651 0 -999 29q174 -153 344 -358z" />
    <glyph glyph-name="arrowup" unicode="&#x2191;" horiz-adv-x="989" 
d="M573 20h-155q0 232 0.5 341.5t6.5 303.5t19 355q-94 -105 -174.5 -180.5t-183.5 -163.5v186l406 340h8l405 -340v-186q-205 170 -358 344q13 -161 19 -354.5t6.5 -303t0.5 -342.5z" />
    <glyph glyph-name="arrowright" unicode="&#x2192;" horiz-adv-x="1411" 
d="M961 236h-187q88 103 164.5 184t181.5 174q-348 -29 -1001 -29v158q653 0 1001 -27q-74 64 -142 133t-104.5 110.5t-99.5 115.5h187l339 -406v-8z" />
    <glyph glyph-name="arrowdown" unicode="&#x2193;" horiz-adv-x="993" 
d="M500 20h-8l-406 340v187q207 -172 360 -344q-13 161 -20 354.5t-7.5 303.5t-0.5 341h157q0 -233 -0.5 -342.5t-6.5 -302.5t-19 -354q93 105 174 181.5t182 162.5v-187z" />
    <glyph glyph-name="arrowboth" unicode="&#x2194;" horiz-adv-x="1767" 
d="M631 233h-187l-340 406v8l340 406h187q-91 -109 -314 -365q566 42 1135 0q-188 216 -315 365h186l340 -406v-8l-340 -406h-186q29 33 90.5 105t114.5 133.5t108 122.5q-566 -40 -1133 0q146 -163 314 -361z" />
    <glyph glyph-name="arrowupdn" unicode="&#x2195;" horiz-adv-x="1079" 
d="M545 4h-8l-406 328v172q170 -135 358 -293q-39 485 0 973q-157 -134 -358 -301v178l406 325h8l405 -325v-178q-268 222 -358 299q39 -485 0 -971q150 128 358 293v-172z" />
    <glyph glyph-name="uni2196" unicode="&#x2196;" horiz-adv-x="1040" 
d="M940 150l-135 -80q-122 212 -172 299.5t-142.5 261t-162.5 319.5q-44 -218 -138 -477l-94 162l183 495l6 5l522 -91l92 -161q-106 20 -151.5 29t-142.5 33.5t-189 55.5q92 -133 196 -299.5t155.5 -254.5t172.5 -297z" />
    <glyph glyph-name="uni2197" unicode="&#x2197;" horiz-adv-x="1040" 
d="M236 70l-136 80q307 536 523 851q-184 -62 -456 -113q-6 -1 -9.5 -1.5t-9 -1.5t-9.5 -2l94 161l521 91l8 -5l180 -495l-92 -162q-92 253 -137 477q-71 -147 -160 -314t-149 -272.5t-168 -293.5z" />
    <glyph glyph-name="uni2198" unicode="&#x2198;" horiz-adv-x="1038" 
d="M98 1071l135 80q328 -569 478 -881q46 227 137 478l92 -162l-180 -496l-8 -4l-521 90l-94 162q103 -19 151.5 -29t144.5 -34.5t188 -55.5q-133 194 -252.5 391.5t-270.5 460.5z" />
    <glyph glyph-name="uni2199" unicode="&#x2199;" horiz-adv-x="1038" 
d="M805 1151l135 -80q-101 -177 -167 -289.5t-164.5 -270t-190.5 -292.5q190 64 483 119l-94 -162l-520 -90l-8 4l-181 496l92 162q93 -258 138 -478q156 323 477 881z" />
    <glyph glyph-name="emptyset" unicode="&#x2205;" horiz-adv-x="1427" 
d="M1245 1194l-125 -176q88 -82 136.5 -199t48.5 -252q0 -170 -74.5 -307t-210 -216t-307.5 -79q-160 0 -291 70l-125 -176l-113 80l125 178q-88 80 -136 196.5t-48 253.5q0 260 165 431t425 171q166 0 293 -71l122 174zM309 565q0 -179 107 -299l489 688q-85 45 -190 45
q-178 0 -292 -124.5t-114 -309.5zM715 135q178 0 290.5 123t112.5 307q0 181 -104 301l-488 -686q85 -45 189 -45z" />
    <glyph glyph-name="minus" unicode="&#x2212;" horiz-adv-x="1028" 
d="M893 551h-758v149h758v-149z" />
    <glyph glyph-name="infinity" unicode="&#x221e;" horiz-adv-x="1824" 
d="M485 285q-156 0 -258 96.5t-102 243.5q0 145 106.5 242.5t253.5 97.5q100 0 188.5 -54t237.5 -196q152 142 239.5 196t186.5 54q154 0 257.5 -96.5t103.5 -243.5t-103.5 -243.5t-257.5 -96.5q-104 0 -192 54.5t-234 195.5q-144 -142 -232.5 -196t-193.5 -54zM487 420
q31 0 61.5 8.5t51.5 18t54 35t48.5 39t57 51.5t57.5 53q-15 14 -58 54.5t-57 52.5t-48 38.5t-54 35t-51 17t-62 8.5q-93 0 -149.5 -56.5t-56.5 -149.5q0 -96 58 -150.5t148 -54.5zM1337 420q90 0 147.5 54.5t57.5 150.5q0 93 -56 148.5t-149 55.5q-26 0 -49.5 -4t-49.5 -17
t-41.5 -21t-46.5 -34t-42 -35.5t-49.5 -45.5t-50.5 -47q16 -14 56.5 -51.5t56 -51.5t49 -39.5t55 -35t52 -18.5t60.5 -9z" />
    <glyph glyph-name="approxequal" unicode="&#x2248;" horiz-adv-x="1085" 
d="M297 707h-150q0 132 70.5 206t173.5 74q42 0 79 -13.5t63.5 -32.5t50.5 -38.5t52 -33t56 -13.5q96 0 96 129h150q0 -137 -62 -208.5t-167 -71.5q-53 0 -100 21t-75 45.5t-64 45.5t-71 21q-51 0 -76.5 -37.5t-25.5 -93.5zM297 276h-150q0 132 70.5 205.5t173.5 73.5
q42 0 79 -13.5t63.5 -32.5t50.5 -38.5t52 -33t56 -13.5q50 0 73 36t23 93h150q0 -136 -62.5 -208.5t-166.5 -72.5q-44 0 -82 14t-65.5 34t-52.5 40t-53 34t-57 14q-51 0 -76.5 -38.5t-25.5 -93.5z" />
    <glyph glyph-name="notequal" unicode="&#x2260;" horiz-adv-x="1064" 
d="M913 905v-149h-284q-9 -138 -101 -277h385v-149h-438q7 -66 -37 -178h-141q1 3 9.5 24.5t10.5 27t10 24t13 27.5t13 23.5t17 27t19 24.5h-242v149h295q9 138 101 277h-396v149h449q-1 9 -1.5 18t0.5 19t1.5 17.5t3.5 19.5t4 18t5 19t5.5 17.5l6.5 19.5l6 18h141
q-35 -106 -86 -166h231z" />
    <glyph glyph-name="lessequal" unicode="&#x2264;" horiz-adv-x="1042" 
d="M891 319h-741v130h460l-458 176v151l739 178v-141l-555 -131l555 -229v-134z" />
    <glyph glyph-name="greaterequal" unicode="&#x2265;" horiz-adv-x="1042" 
d="M893 319h-739v134l555 229l-555 131v141l737 -178v-151l-459 -176h461v-130z" />
    <glyph glyph-name="lozenge" unicode="&#x25ca;" horiz-adv-x="1150" 
d="M621 0h-91l-419 694l419 692h91l417 -692zM281 694l290 -495h9l290 495l-290 494h-9z" />
    <glyph glyph-name="A.ss01" horiz-adv-x="1533" 
d="M223 0h-198l616 1597h254l616 -1597h-202q-43 105 -69 171.5t-59 166t-53 188.5l-20 19q-251 -23 -332 -23q-126 0 -346 23l-22 -21q-48 -185 -185 -524zM475 686l14 -20q163 20 287 20q122 0 262 -20l15 18q-93 224 -149 393t-91 367h-96q-25 -139 -67 -281t-78 -236
t-97 -241z" />
    <glyph glyph-name="Aacute.ss01" horiz-adv-x="1533" 
d="M1167 2056l-333 -336h-164l252 336h245zM223 0h-198l616 1597h254l616 -1597h-202q-43 105 -69 171.5t-59 166t-53 188.5l-20 19q-251 -23 -332 -23q-126 0 -346 23l-22 -21q-48 -185 -185 -524zM475 686l14 -20q163 20 287 20q122 0 262 -20l15 18q-93 224 -149 393
t-91 367h-96q-25 -139 -67 -281t-78 -236t-97 -241z" />
    <glyph glyph-name="Abreve.ss01" horiz-adv-x="1533" 
d="M766 1722q-167 0 -273 101.5t-112 236.5h160q5 -79 68 -139.5t157 -60.5q96 0 159 60.5t68 139.5h158q-5 -135 -111.5 -236.5t-273.5 -101.5zM223 0h-198l616 1597h254l616 -1597h-202q-43 105 -69 171.5t-59 166t-53 188.5l-20 19q-251 -23 -332 -23q-126 0 -346 23
l-22 -21q-48 -185 -185 -524zM475 686l14 -20q163 20 287 20q122 0 262 -20l15 18q-93 224 -149 393t-91 367h-96q-25 -139 -67 -281t-78 -236t-97 -241z" />
    <glyph glyph-name="Acircumflex.ss01" horiz-adv-x="1533" 
d="M557 1720h-166l275 322h200l277 -322h-168q-44 42 -67.5 66.5t-56.5 72t-56 101.5h-56q-23 -54 -57 -102t-56.5 -71t-68.5 -67zM223 0h-198l616 1597h254l616 -1597h-202q-43 105 -69 171.5t-59 166t-53 188.5l-20 19q-251 -23 -332 -23q-126 0 -346 23l-22 -21
q-48 -185 -185 -524zM475 686l14 -20q163 20 287 20q122 0 262 -20l15 18q-93 224 -149 393t-91 367h-96q-25 -139 -67 -281t-78 -236t-97 -241z" />
    <glyph glyph-name="Adieresis.ss01" horiz-adv-x="1533" 
d="M559 1772q-55 0 -91 36.5t-36 92.5q0 52 36 87t91 35q52 0 87.5 -35.5t35.5 -86.5q0 -55 -35 -92t-88 -37zM975 1772q-55 0 -91 36.5t-36 92.5q0 52 36 87t91 35q52 0 88.5 -35.5t36.5 -86.5q0 -55 -36 -92t-89 -37zM223 0h-198l616 1597h254l616 -1597h-202
q-43 105 -69 171.5t-59 166t-53 188.5l-20 19q-251 -23 -332 -23q-126 0 -346 23l-22 -21q-48 -185 -185 -524zM475 686l14 -20q163 20 287 20q122 0 262 -20l15 18q-93 224 -149 393t-91 367h-96q-25 -139 -67 -281t-78 -236t-97 -241z" />
    <glyph glyph-name="Agrave.ss01" horiz-adv-x="1533" 
d="M877 1720h-164l-336 336h248zM223 0h-198l616 1597h254l616 -1597h-202q-43 105 -69 171.5t-59 166t-53 188.5l-20 19q-251 -23 -332 -23q-126 0 -346 23l-22 -21q-48 -185 -185 -524zM475 686l14 -20q163 20 287 20q122 0 262 -20l15 18q-93 224 -149 393t-91 367h-96
q-25 -139 -67 -281t-78 -236t-97 -241z" />
    <glyph glyph-name="Amacron.ss01" horiz-adv-x="1533" 
d="M1112 1810h-692v144h692v-144zM223 0h-198l616 1597h254l616 -1597h-202q-43 105 -69 171.5t-59 166t-53 188.5l-20 19q-251 -23 -332 -23q-126 0 -346 23l-22 -21q-48 -185 -185 -524zM475 686l14 -20q163 20 287 20q122 0 262 -20l15 18q-93 224 -149 393t-91 367h-96
q-25 -139 -67 -281t-78 -236t-97 -241z" />
    <glyph glyph-name="Aogonek.ss01" horiz-adv-x="1533" 
d="M1458 -342q45 0 88 14v-118q-55 -17 -110 -17q-120 0 -201.5 62t-81.5 172q0 139 164 229h-8q-43 105 -69 171.5t-59 166t-53 188.5l-20 19q-251 -23 -332 -23q-126 0 -346 23l-22 -21q-48 -185 -185 -524h-198l616 1597h254l616 -1597h-51q-88 -34 -131 -85.5
t-43 -109.5q0 -63 47 -105t125 -42zM1038 666l15 18q-93 224 -149 393t-91 367h-96q-25 -139 -67 -281t-78 -236t-97 -241l14 -20q163 20 287 20q122 0 262 -20z" />
    <glyph glyph-name="Aring.ss01" horiz-adv-x="1533" 
d="M766 1714q-101 0 -168.5 66t-67.5 164q0 97 67.5 161t168.5 64q100 0 167.5 -63.5t67.5 -161.5q0 -99 -67.5 -164.5t-167.5 -65.5zM766 1819q55 0 90 34.5t35 90.5q0 53 -35 86.5t-90 33.5q-56 0 -91.5 -33t-35.5 -87q0 -56 35.5 -90.5t91.5 -34.5zM223 0h-198l616 1597
h254l616 -1597h-202q-43 105 -69 171.5t-59 166t-53 188.5l-20 19q-251 -23 -332 -23q-126 0 -346 23l-22 -21q-48 -185 -185 -524zM475 686l14 -20q163 20 287 20q122 0 262 -20l15 18q-93 224 -149 393t-91 367h-96q-25 -139 -67 -281t-78 -236t-97 -241z" />
    <glyph glyph-name="Atilde.ss01" horiz-adv-x="1533" 
d="M922 1743q-50 0 -84 16t-74 49l-45 35q-2 1 -9 6.5t-9.5 7.5t-9.5 6.5t-10.5 6.5t-10 5.5t-11 5t-10.5 4t-12 3t-12 0.5q-43 0 -70 -37t-27 -92h-133q1 120 64.5 194.5t161.5 74.5q40 0 73 -15.5t76 -48.5l45 -35q1 -1 10 -7.5t11.5 -8.5t11 -7.5t12.5 -7.5l12 -6
t13.5 -5.5t13 -3t14.5 -1.5q42 0 65 36t23 95h134q0 -127 -56 -198.5t-157 -71.5zM223 0h-198l616 1597h254l616 -1597h-202q-43 105 -69 171.5t-59 166t-53 188.5l-20 19q-251 -23 -332 -23q-126 0 -346 23l-22 -21q-48 -185 -185 -524zM475 686l14 -20q163 20 287 20
q122 0 262 -20l15 18q-93 224 -149 393t-91 367h-96q-25 -139 -67 -281t-78 -236t-97 -241z" />
    <glyph glyph-name="B.ss01" horiz-adv-x="1460" 
d="M850 0h-647v1597h600q118 0 214.5 -33.5t158.5 -90.5t95.5 -132t33.5 -159q0 -123 -74 -219t-225 -132v-34q175 -28 263.5 -125.5t88.5 -241.5q0 -100 -42 -182.5t-113 -136t-162 -82.5t-191 -29zM369 877l22 -23q64 16 135 24.5t114 9.5t120 1q155 0 250.5 70.5
t95.5 191.5q0 127 -101.5 199.5t-254.5 72.5h-41h-43.5t-40.5 0.5t-45.5 2t-42.5 3.5t-48.5 5.5t-47 8.5t-52.5 11l-27 -18q43 -270 7 -559zM365 168l24 -25q71 14 150 21.5t127.5 8.5t134.5 1q158 0 257 71.5t99 196.5q0 128 -103.5 203.5t-260.5 75.5q-84 0 -131 1
t-123.5 9t-145.5 23l-24 -21q36 -297 -4 -565z" />
    <glyph glyph-name="C.ss01" horiz-adv-x="1716" 
d="M913 -35q-175 0 -326 61t-258 169.5t-168 263.5t-61 338q0 187 64 345t174 264t256 165t309 59q157 0 297.5 -53t251.5 -162.5t162 -261.5l-174 -70q-69 172 -212.5 270.5t-324.5 98.5q-123 0 -232 -45.5t-191 -129t-129.5 -209.5t-47.5 -277q0 -130 35.5 -238.5t96 -183
t140.5 -126.5t169 -76t182 -24q111 0 207 35t167 97.5t121.5 144t79.5 180.5l174 -61q-84 -267 -280.5 -420.5t-481.5 -153.5z" />
    <glyph glyph-name="D.ss01" horiz-adv-x="1642" 
d="M799 0h-596v1597h577q156 0 283 -40.5t214.5 -112t146.5 -171.5t86.5 -216t27.5 -248q0 -238 -87 -420t-255.5 -285.5t-396.5 -103.5zM365 168l24 -25q68 14 145.5 21.5t126 8.5t134.5 1q246 0 395 161.5t149 459.5q0 159 -45.5 281t-128 197t-190.5 112.5t-240 37.5
q-73 0 -113.5 1t-107 8.5t-125.5 21.5l-27 -18q63 -650 3 -1268z" />
    <glyph glyph-name="E.ss01" horiz-adv-x="1343" 
d="M1239 0h-1036v1597h1016v-174h-127.5h-142t-126.5 1.5t-147 5t-134 9.5t-153 15l-27 -18q44 -264 7 -545l18 -23q135 19 286 28.5t244 11t261 1.5v-182q-168 0 -261 1.5t-243.5 11t-284.5 28.5l-20 -20q37 -304 -4 -580l24 -25q143 16 305 24.5t263 9.5t282 1v-178z" />
    <glyph glyph-name="F.ss01" horiz-adv-x="1271" 
d="M393 0h-190v1597h997v-180q-173 0 -269 1t-250.5 10t-291.5 26l-27 -18q48 -283 0 -568l19 -20q135 18 283.5 27t239.5 10.5t255 1.5v-180q-163 0 -254 1.5t-239.5 11t-282.5 28.5l-21 -23q14 -119 21.5 -256.5t8.5 -224.5t1 -244z" />
    <glyph glyph-name="G.ss01" horiz-adv-x="1753" 
d="M909 -35q-240 0 -424.5 106t-284.5 293.5t-100 426.5q0 189 64 348.5t174 266t256 165.5t309 59q158 0 299.5 -53.5t251.5 -163t160 -260.5l-174 -70q-69 173 -211.5 271t-325.5 98q-123 0 -231.5 -45.5t-190.5 -128t-130 -208.5t-48 -277q0 -297 174.5 -473.5
t458.5 -176.5q231 0 382.5 137t209.5 384l-21 24q-253 -52 -557 -55v160h709v-60q0 -192 -59 -341.5t-163 -241.5t-237.5 -138.5t-290.5 -46.5z" />
    <glyph glyph-name="H.ss01" horiz-adv-x="1656" 
d="M393 0h-190v1597h190q0 -168 -0.5 -245.5t-6 -215t-17.5 -251.5l22 -23q472 55 875 0l24 23q-24 244 -24 712h188v-1597h-188q0 468 24 725l-24 23q-406 -70 -873 0l-24 -23q12 -121 17.5 -260.5t6 -217t0.5 -247.5z" />
    <glyph glyph-name="I.ss01" horiz-adv-x="1132" 
d="M1049 0h-965v174q258 0 408 -27q-29 651 0 1303q-154 -27 -418 -27v174h985v-174q-264 0 -418 27q29 -652 0 -1303q150 27 408 27v-174z" />
    <glyph glyph-name="Iacute.ss01" horiz-adv-x="1132" 
d="M956 2054l-335 -334h-164l254 334h245zM1049 0h-965v174q258 0 408 -27q-29 651 0 1303q-154 -27 -418 -27v174h985v-174q-264 0 -418 27q29 -652 0 -1303q150 27 408 27v-174z" />
    <glyph glyph-name="Icircumflex.ss01" horiz-adv-x="1132" 
d="M358 1720h-165l274 322h201l276 -322h-168q-44 42 -67.5 66.5t-56.5 72t-56 101.5h-55q-17 -41 -37.5 -75t-49.5 -67t-44 -48t-52 -50zM1049 0h-965v174q258 0 408 -27q-29 651 0 1303q-154 -27 -418 -27v174h985v-174q-264 0 -418 27q29 -652 0 -1303q150 27 408 27
v-174z" />
    <glyph glyph-name="Idieresis.ss01" horiz-adv-x="1132" 
d="M360 1772q-55 0 -91 36.5t-36 92.5q0 52 36 87t91 35q52 0 87.5 -35.5t35.5 -86.5q0 -55 -35 -92t-88 -37zM776 1772q-55 0 -91 36.5t-36 92.5q0 52 36 87t91 35q52 0 88.5 -35.5t36.5 -86.5q0 -55 -36 -92t-89 -37zM1049 0h-965v174q258 0 408 -27q-29 651 0 1303
q-154 -27 -418 -27v174h985v-174q-264 0 -418 27q29 -652 0 -1303q150 27 408 27v-174z" />
    <glyph glyph-name="Idotaccent.ss01" horiz-adv-x="1132" 
d="M567 1776q-57 0 -94 39t-37 96q0 53 37.5 91t93.5 38q55 0 93 -38t38 -91q0 -57 -38 -96t-93 -39zM1049 0h-965v174q258 0 408 -27q-29 651 0 1303q-154 -27 -418 -27v174h985v-174q-264 0 -418 27q29 -652 0 -1303q150 27 408 27v-174z" />
    <glyph glyph-name="Igrave.ss01" horiz-adv-x="1132" 
d="M678 1720h-164l-336 336h248zM1049 0h-965v174q258 0 408 -27q-29 651 0 1303q-154 -27 -418 -27v174h985v-174q-264 0 -418 27q29 -652 0 -1303q150 27 408 27v-174z" />
    <glyph glyph-name="Imacron.ss01" horiz-adv-x="1132" 
d="M913 1810h-692v144h692v-144zM1049 0h-965v174q258 0 408 -27q-29 651 0 1303q-154 -27 -418 -27v174h985v-174q-264 0 -418 27q29 -652 0 -1303q150 27 408 27v-174z" />
    <glyph glyph-name="J.ss01" horiz-adv-x="1228" 
d="M571 -35q-80 0 -152 17.5t-138.5 58t-114.5 101t-76.5 153.5t-28.5 209v35l183 24v-31q0 -106 27.5 -185t74 -122t99.5 -63.5t114 -20.5q146 0 220.5 104.5t74.5 274.5q0 592 29 930l-15 27q-265 -54 -567 -54v174h741v-1036q0 -32 -0.5 -54.5t-5 -71.5t-12 -85.5
t-24 -88.5t-39 -90t-59 -79t-82 -67t-109.5 -43t-140 -17z" />
    <glyph glyph-name="K.ss01" horiz-adv-x="1394" 
d="M393 0h-190v1597h190q0 -24 0.5 -132.5t0 -152t-2 -130t-5.5 -157.5t-11 -144h20q377 377 738 716h249q-456 -428 -864 -794v-27q114 -89 245 -200.5t204 -176.5t236 -212.5t206 -186.5h-264q-12 11 -91 80t-98 86.5t-88.5 80t-98.5 90.5t-89 85.5t-98.5 98t-89 94.5
t-95.5 106h-18q14 -287 14 -721z" />
    <glyph glyph-name="L.ss01" horiz-adv-x="1208" 
d="M1180 0h-977v1597h190q0 -333 -0.5 -491t-7 -433t-20.5 -505l24 -25q132 16 283 24.5t245.5 9.5t262.5 1v-178z" />
    <glyph glyph-name="M.ss01" horiz-adv-x="1951" 
d="M395 0h-192v1597h225q338 -605 530 -1069h35q189 457 531 1069h225v-1597h-193q0 82 -1.5 299.5t-1 334.5t6.5 301t19 343h-27l-501 -952h-148l-502 952h-28q13 -159 19 -342t6 -303t-1.5 -332t-1.5 -301z" />
    <glyph glyph-name="N.ss01" horiz-adv-x="1685" 
d="M393 0h-190v1597h243q19 -31 110 -175.5t121 -192.5t109.5 -175t124 -201.5t112.5 -188t128 -218t121 -213.5h47q-27 524 -27 1364h191v-1597h-244q-182 287 -275.5 436t-252.5 412t-295 504h-51q13 -241 20 -506t7.5 -408t0.5 -438z" />
    <glyph glyph-name="O.ss01" horiz-adv-x="1806" 
d="M903 -35q-163 0 -311 62.5t-257 171t-173 264.5t-64 334q0 177 63.5 333t172 265t256.5 172t313 63q167 0 315.5 -64t255.5 -174.5t169.5 -265.5t62.5 -329q0 -175 -63 -330t-170.5 -264.5t-256 -173.5t-313.5 -64zM905 143q162 0 298.5 84t218 235t81.5 335
q0 138 -47.5 260.5t-128 208.5t-190.5 136t-232 50q-163 0 -301 -83.5t-220.5 -234.5t-82.5 -337q0 -140 48.5 -262.5t130.5 -208t192.5 -134.5t232.5 -49z" />
    <glyph glyph-name="P.ss01" horiz-adv-x="1372" 
d="M393 0h-190v1597h575q76 0 150 -16.5t144 -54t122.5 -92t84.5 -137t32 -183.5q0 -103 -32.5 -188t-85 -140t-120.5 -93t-135 -54t-133 -16q-106 0 -159 1.5t-131 12.5t-150 33q13 -118 20 -250t7.5 -203t0.5 -217zM367 776l22 -20q62 18 132 27t113 10.5t120 1.5
q104 0 182.5 32t127 104t48.5 177q0 104 -51 177t-132 105.5t-184 32.5q-77 0 -119 1t-110 8.5t-127 21.5l-27 -18q43 -315 5 -660z" />
    <glyph glyph-name="Q.ss01" horiz-adv-x="1814" 
d="M510 -258v-29q188 29 390.5 44t329 17.5t339.5 2.5v-166h-1360q9 10 364 424q-216 93 -342.5 292.5t-126.5 469.5q0 244 106 435t289 294.5t410 103.5q171 0 320 -62.5t255.5 -172t167 -264.5t60.5 -334q0 -180 -61.5 -335.5t-168 -263.5t-255.5 -169.5t-320 -61.5
q-83 0 -159 15q-100 -108 -238 -240zM303 797q0 -225 107.5 -388.5t285.5 -228.5l289 344l141 -108q-215 -254 -231 -273h16q126 0 236.5 47.5t191.5 132t127.5 207.5t46.5 267q0 191 -79.5 341.5t-216.5 233t-306 82.5q-170 0 -308.5 -81.5t-219 -232.5t-80.5 -343z" />
    <glyph glyph-name="R.ss01" horiz-adv-x="1419" 
d="M393 0h-190v1597h575q74 0 146.5 -16.5t143 -54t124 -92t86.5 -138t33 -184.5q0 -83 -20.5 -150.5t-55.5 -115.5t-88.5 -84.5t-110.5 -59t-132 -37t-144 -21t-154 -9.5q227 -180 760 -635h-242q-157 133 -257 219t-238 211.5t-250 237.5h-14q13 -118 20 -249t7.5 -202
t0.5 -217zM367 770l22 -22q135 32 365 32q158 0 258 84.5t100 239.5q0 153 -104.5 237t-262.5 84q-215 0 -356 29l-27 -18q45 -339 5 -666z" />
    <glyph glyph-name="S.ss01" horiz-adv-x="1327" 
d="M684 -35q-100 0 -192 26.5t-175 81t-146.5 147t-96.5 214.5l178 64q47 -178 164 -268.5t268 -90.5q65 0 126 16.5t112 49.5t81.5 88.5t30.5 126.5q0 37 -9.5 69t-23 54.5t-38.5 43t-46.5 33.5t-57 27.5t-58.5 22t-63 19.5q-15 5 -23 7l-148 47q-42 13 -75 24.5
t-80.5 33.5t-83.5 45.5t-75 59t-64 75.5t-41.5 94.5t-16.5 116.5q0 104 44 189t118 138.5t167.5 82t196.5 28.5q198 0 342.5 -102.5t194.5 -276.5l-172 -71q-42 128 -140 202t-237 74q-135 0 -225 -69t-90 -181q0 -54 24 -99.5t55.5 -74.5t82 -55t82 -38t77.5 -26l160 -51
q150 -47 215 -81q213 -112 213 -337q0 -140 -74.5 -250.5t-200.5 -169.5t-280 -59z" />
    <glyph glyph-name="U.ss01" horiz-adv-x="1554" 
d="M731 -35q-114 0 -207.5 35.5t-155.5 96t-104.5 141.5t-61 169.5t-18.5 184.5v1005h191v-991q0 -213 98.5 -339t290.5 -126t294.5 126.5t102.5 338.5v991h191v-1597h-183q0 89 25 260h-29q-58 -155 -162.5 -225t-271.5 -70z" />
    <glyph glyph-name="Uacute.ss01" horiz-adv-x="1554" 
d="M1122 2054l-334 -334h-163l252 334h245zM731 -35q-114 0 -207.5 35.5t-155.5 96t-104.5 141.5t-61 169.5t-18.5 184.5v1005h191v-991q0 -213 98.5 -339t290.5 -126t294.5 126.5t102.5 338.5v991h191v-1597h-183q0 89 25 260h-29q-58 -155 -162.5 -225t-271.5 -70z" />
    <glyph glyph-name="Ucircumflex.ss01" horiz-adv-x="1554" 
d="M551 1720h-166l274 322h201l277 -322h-168q-45 43 -68 67t-56.5 71.5t-56.5 101.5h-55q-23 -54 -57 -102t-56.5 -71t-68.5 -67zM731 -35q-114 0 -207.5 35.5t-155.5 96t-104.5 141.5t-61 169.5t-18.5 184.5v1005h191v-991q0 -213 98.5 -339t290.5 -126t294.5 126.5
t102.5 338.5v991h191v-1597h-183q0 89 25 260h-29q-58 -155 -162.5 -225t-271.5 -70z" />
    <glyph glyph-name="Udieresis.ss01" horiz-adv-x="1554" 
d="M553 1772q-55 0 -91 36.5t-36 92.5q0 52 36 87t91 35q52 0 87.5 -35.5t35.5 -86.5q0 -55 -35 -92t-88 -37zM969 1772q-55 0 -91 36.5t-36 92.5q0 52 36 87t91 35q52 0 88.5 -35.5t36.5 -86.5q0 -55 -36 -92t-89 -37zM731 -35q-114 0 -207.5 35.5t-155.5 96t-104.5 141.5
t-61 169.5t-18.5 184.5v1005h191v-991q0 -213 98.5 -339t290.5 -126t294.5 126.5t102.5 338.5v991h191v-1597h-183q0 89 25 260h-29q-58 -155 -162.5 -225t-271.5 -70z" />
    <glyph glyph-name="Ugrave.ss01" horiz-adv-x="1554" 
d="M870 1720h-163l-336 336h247zM731 -35q-114 0 -207.5 35.5t-155.5 96t-104.5 141.5t-61 169.5t-18.5 184.5v1005h191v-991q0 -213 98.5 -339t290.5 -126t294.5 126.5t102.5 338.5v991h191v-1597h-183q0 89 25 260h-29q-58 -155 -162.5 -225t-271.5 -70z" />
    <glyph glyph-name="Uhungarumlaut.ss01" horiz-adv-x="1554" 
d="M915 2054l-286 -334h-158l213 334h231zM1280 2054l-301 -334h-158l228 334h231zM731 -35q-114 0 -207.5 35.5t-155.5 96t-104.5 141.5t-61 169.5t-18.5 184.5v1005h191v-991q0 -213 98.5 -339t290.5 -126t294.5 126.5t102.5 338.5v991h191v-1597h-183q0 89 25 260h-29
q-58 -155 -162.5 -225t-271.5 -70z" />
    <glyph glyph-name="Umacron.ss01" horiz-adv-x="1554" 
d="M1106 1810h-692v144h692v-144zM731 -35q-114 0 -207.5 35.5t-155.5 96t-104.5 141.5t-61 169.5t-18.5 184.5v1005h191v-991q0 -213 98.5 -339t290.5 -126t294.5 126.5t102.5 338.5v991h191v-1597h-183q0 89 25 260h-29q-58 -155 -162.5 -225t-271.5 -70z" />
    <glyph glyph-name="Uogonek.ss01" horiz-adv-x="1554" 
d="M1329 -342q45 0 88 14v-118q-55 -17 -110 -17q-120 0 -201.5 62t-81.5 172q0 139 164 229h-19q0 89 25 260h-29q-58 -155 -162.5 -225t-271.5 -70q-114 0 -207.5 35.5t-155.5 96t-104.5 141.5t-61 169.5t-18.5 184.5v1005h191v-991q0 -213 98.5 -339t290.5 -126
t294.5 126.5t102.5 338.5v991h191v-1597h-21q-88 -34 -131 -85.5t-43 -109.5q0 -63 47 -105t125 -42z" />
    <glyph glyph-name="Uring.ss01" horiz-adv-x="1554" 
d="M760 1714q-101 0 -168.5 66t-67.5 164q0 97 67.5 161t168.5 64q100 0 167.5 -63.5t67.5 -161.5q0 -99 -67.5 -164.5t-167.5 -65.5zM760 1819q55 0 90 34.5t35 90.5q0 53 -35 86.5t-90 33.5q-56 0 -91.5 -33t-35.5 -87q0 -56 35.5 -90.5t91.5 -34.5zM731 -35
q-114 0 -207.5 35.5t-155.5 96t-104.5 141.5t-61 169.5t-18.5 184.5v1005h191v-991q0 -213 98.5 -339t290.5 -126t294.5 126.5t102.5 338.5v991h191v-1597h-183q0 89 25 260h-29q-58 -155 -162.5 -225t-271.5 -70z" />
    <glyph glyph-name="V.ss01" horiz-adv-x="1540" 
d="M907 0h-280l-602 1597h200q358 -965 508 -1388h76q259 731 506 1388h201z" />
    <glyph glyph-name="W.ss01" horiz-adv-x="2338" 
d="M766 0h-236l-499 1597h211l393 -1339h18l361 1339h325l353 -1339h18l387 1339h211l-498 -1597h-235l-356 1405h-86z" />
    <glyph glyph-name="Wacute.ss01" horiz-adv-x="2338" 
d="M1573 2056l-334 -336h-164l252 336h246zM766 0h-236l-499 1597h211l393 -1339h18l361 1339h325l353 -1339h18l387 1339h211l-498 -1597h-235l-356 1405h-86z" />
    <glyph glyph-name="Wcircumflex.ss01" horiz-adv-x="2338" 
d="M961 1720h-166l274 322h201l276 -322h-168q-44 42 -67.5 66.5t-56.5 72t-56 101.5h-55q-23 -54 -57 -102t-56.5 -71t-68.5 -67zM766 0h-236l-499 1597h211l393 -1339h18l361 1339h325l353 -1339h18l387 1339h211l-498 -1597h-235l-356 1405h-86z" />
    <glyph glyph-name="Wdieresis.ss01" horiz-adv-x="2338" 
d="M963 1772q-55 0 -91 36.5t-36 92.5q0 52 36 87t91 35q52 0 87 -35.5t35 -86.5q0 -56 -35 -92.5t-87 -36.5zM1378 1772q-55 0 -91 36.5t-36 92.5q0 52 36 87t91 35q52 0 88.5 -35.5t36.5 -86.5q0 -55 -36 -92t-89 -37zM766 0h-236l-499 1597h211l393 -1339h18l361 1339
h325l353 -1339h18l387 1339h211l-498 -1597h-235l-356 1405h-86z" />
    <glyph glyph-name="Wgrave.ss01" horiz-adv-x="2338" 
d="M1280 1720h-164l-336 336h248zM766 0h-236l-499 1597h211l393 -1339h18l361 1339h325l353 -1339h18l387 1339h211l-498 -1597h-235l-356 1405h-86z" />
    <glyph glyph-name="X.ss01" horiz-adv-x="1429" 
d="M233 0h-213l537 811l-2 18l-526 768h215q189 -283 438 -686h70q305 485 440 686h209l-524 -768l-3 -18l537 -811h-209q-191 291 -450 721h-70q-215 -357 -449 -721z" />
    <glyph glyph-name="Y.ss01" horiz-adv-x="1417" 
d="M496 0h-201q214 370 369 586q-244 368 -619 1011h207q103 -177 164.5 -284t149.5 -271t159 -311h31q65 147 151.5 313t144 267t165.5 286h204z" />
    <glyph glyph-name="Yacute.ss01" horiz-adv-x="1417" 
d="M1128 2054l-333 -334h-164l252 334h245zM496 0h-201q214 370 369 586q-244 368 -619 1011h207q103 -177 164.5 -284t149.5 -271t159 -311h31q65 147 151.5 313t144 267t165.5 286h204z" />
    <glyph glyph-name="Ycircumflex.ss01" horiz-adv-x="1417" 
d="M524 1720h-166l275 322h201l276 -322h-168q-44 42 -67.5 66.5t-56.5 72t-56 101.5h-55q-17 -41 -37.5 -75t-49.5 -67t-44 -48t-52 -50zM496 0h-201q214 370 369 586q-244 368 -619 1011h207q103 -177 164.5 -284t149.5 -271t159 -311h31q65 147 151.5 313t144 267
t165.5 286h204z" />
    <glyph glyph-name="Ydieresis.ss01" horiz-adv-x="1417" 
d="M526 1772q-55 0 -91 36.5t-36 92.5q0 52 36 87t91 35q52 0 87.5 -35.5t35.5 -86.5q0 -55 -35 -92t-88 -37zM942 1772q-55 0 -91 36.5t-36 92.5q0 52 36 87t91 35q52 0 88.5 -35.5t36.5 -86.5q0 -55 -36 -92t-89 -37zM496 0h-201q214 370 369 586q-244 368 -619 1011h207
q103 -177 164.5 -284t149.5 -271t159 -311h31q65 147 151.5 313t144 267t165.5 286h204z" />
    <glyph glyph-name="Ygrave.ss01" horiz-adv-x="1417" 
d="M842 1720h-164l-336 336h248zM496 0h-201q214 370 369 586q-244 368 -619 1011h207q103 -177 164.5 -284t149.5 -271t159 -311h31q65 147 151.5 313t144 267t165.5 286h204z" />
    <glyph glyph-name="Z.ss01" horiz-adv-x="1402" 
d="M1321 0h-1325q736 1002 1065 1434l-14 28q-153 -18 -328.5 -27t-285.5 -10.5t-308 -1.5v174h1257q-31 -42 -164.5 -225.5t-181 -248.5t-164 -223t-187.5 -252.5t-171.5 -227t-191.5 -250.5l14 -31q157 18 345.5 27t307.5 10.5t332 1.5v-178z" />
    <glyph glyph-name="Zacute.ss01" horiz-adv-x="1402" 
d="M1098 2056l-334 -336h-164l252 336h246zM1321 0h-1325q736 1002 1065 1434l-14 28q-153 -18 -328.5 -27t-285.5 -10.5t-308 -1.5v174h1257q-31 -42 -164.5 -225.5t-181 -248.5t-164 -223t-187.5 -252.5t-171.5 -227t-191.5 -250.5l14 -31q157 18 345.5 27t307.5 10.5
t332 1.5v-178z" />
    <glyph glyph-name="Zcaron.ss01" horiz-adv-x="1402" 
d="M797 1720h-205l-275 322h168q43 -40 68 -65.5t58.5 -72.5t56.5 -100h55q33 76 75 128t105 110h166zM1321 0h-1325q736 1002 1065 1434l-14 28q-153 -18 -328.5 -27t-285.5 -10.5t-308 -1.5v174h1257q-31 -42 -164.5 -225.5t-181 -248.5t-164 -223t-187.5 -252.5
t-171.5 -227t-191.5 -250.5l14 -31q157 18 345.5 27t307.5 10.5t332 1.5v-178z" />
    <glyph glyph-name="Zdotaccent.ss01" horiz-adv-x="1402" 
d="M702 1776q-57 0 -94 39t-37 96q0 53 37.5 91t93.5 38q55 0 93.5 -38t38.5 -91q0 -57 -38 -96t-94 -39zM1321 0h-1325q736 1002 1065 1434l-14 28q-153 -18 -328.5 -27t-285.5 -10.5t-308 -1.5v174h1257q-31 -42 -164.5 -225.5t-181 -248.5t-164 -223t-187.5 -252.5
t-171.5 -227t-191.5 -250.5l14 -31q157 18 345.5 27t307.5 10.5t332 1.5v-178z" />
    <glyph glyph-name="Q.ss02" horiz-adv-x="1806" 
d="M973 -29q17 -77 10 -227q93 15 197.5 23t170 9t183.5 1v-166q-484 0 -690 22q-15 211 2 334q-158 15 -295.5 82.5t-237.5 175t-157.5 256t-57.5 316.5q0 177 63.5 333t172 265t256.5 172t313 63q167 0 315.5 -64t255.5 -174.5t169.5 -265.5t62.5 -329q0 -164 -54.5 -309
t-150.5 -252.5t-232 -177t-296 -87.5zM301 797q0 -256 150 -434.5t401 -219.5q-29 164 -29 459h181q0 -100 -1 -155.5t-9.5 -142.5t-24.5 -161q236 42 385 221.5t149 432.5q0 138 -47.5 260.5t-128 208.5t-190.5 136t-232 50q-163 0 -301 -83.5t-220.5 -234.5t-82.5 -337z
" />
    <glyph glyph-name="A.ss07" 
d="M1020 -315q-197 0 -371.5 71t-298.5 193.5t-196 293.5t-72 365q0 198 72 372.5t196 298.5t298 195.5t372 71.5q200 0 375.5 -71.5t301 -195.5t197.5 -298.5t72 -372.5q0 -259 -123 -470.5t-339.5 -332t-483.5 -120.5zM956 1096l-385 -963h136q80 194 112 316l8 8
q107 -13 203 -13q94 0 193 13l8 -8q27 -112 108 -316h138l-383 963h-138zM862 545l-2 4q99 209 154 428h20q45 -194 150 -428l-2 -4q-98 12 -152 12q-50 0 -168 -12z" />
    <glyph glyph-name="B.ss07" 
d="M1020 -315q-197 0 -371.5 71t-298.5 193.5t-196 293.5t-72 365q0 198 72 372.5t196 298.5t298 195.5t372 71.5q200 0 375.5 -71.5t301 -195.5t197.5 -298.5t72 -372.5q0 -259 -123 -470.5t-339.5 -332t-483.5 -120.5zM709 1096v-963h391q80 0 148.5 28.5t114.5 90
t46 143.5q0 92 -53.5 149.5t-155.5 76.5v8q85 22 131.5 77.5t46.5 135.5q0 114 -85 184t-222 70h-362zM829 657l-6 7q20 169 -4 325l10 6q74 -18 211 -18q92 0 146.5 -41.5t54.5 -110.5q0 -72 -53.5 -110.5t-140.5 -38.5q-134 0 -218 -19zM829 236l-10 10q24 156 4 325l8 9
q91 -19 234 -19q95 0 151 -43.5t56 -114.5q0 -69 -54 -110t-147 -41q-154 0 -242 -16z" />
    <glyph glyph-name="C.ss07" 
d="M1020 -315q-197 0 -371.5 71t-298.5 193.5t-196 293.5t-72 365q0 198 72 372.5t196 298.5t298 195.5t372 71.5q200 0 375.5 -71.5t301 -195.5t197.5 -298.5t72 -372.5q0 -259 -123 -470.5t-339.5 -332t-483.5 -120.5zM1051 113q169 0 289 92t169 262l-116 41
q-33 -121 -119.5 -196.5t-218.5 -75.5q-69 0 -132 22.5t-115 66.5t-83 117.5t-31 167.5q0 168 97.5 275.5t250.5 107.5q111 0 194 -59.5t120 -159.5l119 47q-45 141 -166 218t-267 77q-133 0 -242.5 -61.5t-175 -177t-65.5 -263.5q0 -222 137.5 -361.5t354.5 -139.5z" />
    <glyph glyph-name="D.ss07" 
d="M1020 -315q-197 0 -371.5 71t-298.5 193.5t-196 293.5t-72 365q0 198 72 372.5t196 298.5t298 195.5t372 71.5q200 0 375.5 -71.5t301 -195.5t197.5 -298.5t72 -372.5q0 -259 -123 -470.5t-339.5 -332t-483.5 -120.5zM672 1096v-963h362q203 0 325 133t122 355
q0 224 -121.5 349.5t-337.5 125.5h-350zM793 236l-11 10q37 369 0 743l11 6q74 -18 202 -18q156 0 252 -89.5t96 -275.5q0 -169 -82 -264.5t-229 -95.5q-153 0 -239 -16z" />
    <glyph glyph-name="E.ss07" 
d="M1020 -315q-197 0 -371.5 71t-298.5 193.5t-196 293.5t-72 365q0 198 72 372.5t196 298.5t298 195.5t372 71.5q200 0 375.5 -71.5t301 -195.5t197.5 -298.5t72 -372.5q0 -259 -123 -470.5t-339.5 -332t-483.5 -120.5zM727 1096v-963h631v123q-324 0 -508 -20l-10 8
q23 161 2 338l8 8q79 -13 173 -18.5t138 -6t162 -0.5v123q-310 0 -473 -24l-8 8q21 168 -2 317l8 6q52 -7 102.5 -11t110.5 -5.5t90 -2t104.5 0t90.5 0.5v119h-619z" />
    <glyph glyph-name="F.ss07" 
d="M1020 -315q-197 0 -371.5 71t-298.5 193.5t-196 293.5t-72 365q0 198 72 372.5t196 298.5t298 195.5t372 71.5q200 0 375.5 -71.5t301 -195.5t197.5 -298.5t72 -372.5q0 -259 -123 -470.5t-339.5 -332t-483.5 -120.5zM748 1096v-963h129q0 273 -17 434l8 8q31 -5 64 -8.5
t58.5 -5.5t61.5 -4t56 -2.5t59 -1t53.5 -0.5h57h53.5v123h-28q-278 0 -437 -25l-6 8q26 168 0 330l8 6q168 -22 488 -22v123h-608z" />
    <glyph glyph-name="G.ss07" 
d="M1020 -315q-197 0 -371.5 71t-298.5 193.5t-196 293.5t-72 365q0 198 72 372.5t196 298.5t298 195.5t372 71.5q200 0 375.5 -71.5t301 -195.5t197.5 -298.5t72 -372.5q0 -259 -123 -470.5t-339.5 -332t-483.5 -120.5zM1034 113q259 0 361 245l14 -2q-9 -42 -13 -79.5
t-4.5 -56t0.5 -48.5t1 -39h106v488h-436v-113q189 0 334 33l8 -6q-37 -141 -128.5 -220t-221.5 -79q-67 0 -129.5 22.5t-115 66t-84.5 117.5t-32 168q0 169 98 276t252 107q107 0 189.5 -58t122.5 -161l119 47q-44 141 -165.5 218t-267.5 77q-205 0 -344 -141.5t-139 -362.5
q0 -219 133.5 -359t341.5 -140z" />
    <glyph glyph-name="H.ss07" 
d="M1020 -315q-197 0 -371.5 71t-298.5 193.5t-196 293.5t-72 365q0 198 72 372.5t196 298.5t298 195.5t372 71.5q200 0 375.5 -71.5t301 -195.5t197.5 -298.5t72 -372.5q0 -259 -123 -470.5t-339.5 -332t-483.5 -120.5zM645 1096v-963h129q0 278 -14 436l8 6q269 -39 512 0
l8 -6q-14 -162 -14 -436h129v963h-129q0 -274 14 -426l-8 -8q-241 29 -514 0l-6 8q14 145 14 426h-129z" />
    <glyph glyph-name="I.ss07" 
d="M1020 -315q-197 0 -371.5 71t-298.5 193.5t-196 293.5t-72 365q0 198 72 372.5t196 298.5t298 195.5t372 71.5q200 0 375.5 -71.5t301 -195.5t197.5 -298.5t72 -372.5q0 -259 -123 -470.5t-339.5 -332t-483.5 -120.5zM961 1096v-963h129v963h-129z" />
    <glyph glyph-name="J.ss07" 
d="M1020 -315q-197 0 -371.5 71t-298.5 193.5t-196 293.5t-72 365q0 198 72 372.5t196 298.5t298 195.5t372 71.5q200 0 375.5 -71.5t301 -195.5t197.5 -298.5t72 -372.5q0 -259 -123 -470.5t-339.5 -332t-483.5 -120.5zM991 123q59 0 106 17t76.5 40.5t50.5 62.5t31.5 70
t16 77t6 69t0.5 59v588h-129v-614q0 -37 -2 -65t-11.5 -65t-25.5 -60.5t-47.5 -40.5t-75.5 -17q-79 0 -132.5 51.5t-53.5 165.5v33l-125 -15v-37q0 -81 26 -144t70.5 -100.5t100 -56t118.5 -18.5z" />
    <glyph glyph-name="K.ss07" 
d="M1020 -315q-197 0 -371.5 71t-298.5 193.5t-196 293.5t-72 365q0 198 72 372.5t196 298.5t298 195.5t372 71.5q200 0 375.5 -71.5t301 -195.5t197.5 -298.5t72 -372.5q0 -259 -123 -470.5t-339.5 -332t-483.5 -120.5zM705 1096v-963h129q0 198 -9 330q59 41 121 125h4
q104 -154 334 -455h160q-275 363 -424 531v10q42 41 82 81.5t90 93t72 76t85.5 92t73.5 79.5h-155q-307 -330 -455 -502h-6q6 40 11 78t8 81t4.5 69t2.5 75t1 64v71v64h-129z" />
    <glyph glyph-name="L.ss07" 
d="M1020 -315q-197 0 -371.5 71t-298.5 193.5t-196 293.5t-72 365q0 198 72 372.5t196 298.5t298 195.5t372 71.5q200 0 375.5 -71.5t301 -195.5t197.5 -298.5t72 -372.5q0 -259 -123 -470.5t-339.5 -332t-483.5 -120.5zM805 1096v-963h596v123q-305 0 -473 -20l-10 10
q16 293 16 850h-129z" />
    <glyph glyph-name="M.ss07" 
d="M1020 -315q-197 0 -371.5 71t-298.5 193.5t-196 293.5t-72 365q0 198 72 372.5t196 298.5t298 195.5t372 71.5q200 0 375.5 -71.5t301 -195.5t197.5 -298.5t72 -372.5q0 -259 -123 -470.5t-339.5 -332t-483.5 -120.5zM522 1096v-963h131q0 82 -0.5 179t-1.5 184.5
t-7.5 193.5t-18.5 207h6q110 -258 344 -764h96q236 512 346 764h4q-9 -84 -15 -163t-8.5 -172t-3 -137.5t0 -157.5t0.5 -134h131v963h-137q-217 -435 -361 -805h-10q-137 371 -361 805h-135z" />
    <glyph glyph-name="N.ss07" 
d="M1020 -315q-197 0 -371.5 71t-298.5 193.5t-196 293.5t-72 365q0 198 72 372.5t196 298.5t298 195.5t372 71.5q200 0 375.5 -71.5t301 -195.5t197.5 -298.5t72 -372.5q0 -259 -123 -470.5t-339.5 -332t-483.5 -120.5zM649 1096v-963h129v100.5v111.5t-0.5 99t-2 115
t-3.5 105.5t-5.5 123t-8.5 117.5h6q193 -309 543 -772h116v963h-129v-72.5v-77v-72t0.5 -78.5t1.5 -74t2 -81t2.5 -77t3.5 -84.5t5 -82t6 -88.5h-4q-232 376 -545 787h-117z" />
    <glyph glyph-name="O.ss07" 
d="M1020 -315q-197 0 -371.5 71t-298.5 193.5t-196 293.5t-72 365q0 198 72 372.5t196 298.5t298 195.5t372 71.5q200 0 375.5 -71.5t301 -195.5t197.5 -298.5t72 -372.5q0 -259 -123 -470.5t-339.5 -332t-483.5 -120.5zM1024 113q205 0 345 144.5t140 356.5t-139.5 357
t-343.5 145q-135 0 -246.5 -65.5t-175 -181t-63.5 -255.5q0 -213 139.5 -357t343.5 -144zM676 614q0 160 101 269.5t249 109.5q146 0 247 -109.5t101 -269.5t-101 -269t-247 -109q-147 0 -248.5 109t-101.5 269z" />
    <glyph glyph-name="P.ss07" 
d="M1020 -315q-197 0 -371.5 71t-298.5 193.5t-196 293.5t-72 365q0 198 72 372.5t196 298.5t298 195.5t372 71.5q200 0 375.5 -71.5t301 -195.5t197.5 -298.5t72 -372.5q0 -259 -123 -470.5t-339.5 -332t-483.5 -120.5zM733 1096v-963h129q0 246 -16 393q39 -12 85.5 -17.5
t74.5 -6t92 -0.5q39 0 80 10t82.5 33t73.5 56.5t52.5 85.5t20.5 116q0 78 -31 137.5t-81 92t-104 48t-110 15.5h-348zM854 600l-8 4q22 208 -2 385l10 6q74 -18 207 -18q92 0 151.5 -45t59.5 -133q0 -90 -57 -134t-148 -44q-131 0 -213 -21z" />
    <glyph glyph-name="Q.ss07" 
d="M1020 -315q-197 0 -371.5 71t-298.5 193.5t-196 293.5t-72 365q0 198 72 372.5t196 298.5t298 195.5t372 71.5q200 0 375.5 -71.5t301 -195.5t197.5 -298.5t72 -372.5q0 -259 -123 -470.5t-339.5 -332t-483.5 -120.5zM1393 57l92 78q-94 111 -152 158q85 68 130.5 164
t45.5 211q0 213 -141 357t-348 144q-136 0 -248 -65t-176 -180t-64 -256q0 -214 140.5 -358t347.5 -144q134 0 237 74q35 -64 136 -183zM666 668q0 163 102 272t254 109q150 0 251 -109.5t101 -271.5q0 -176 -108 -301q-53 88 -181 245l-92 -77q105 -136 195 -213
q-81 -41 -166 -41q-152 0 -254 112t-102 275z" />
    <glyph glyph-name="R.ss07" 
d="M1020 -315q-197 0 -371.5 71t-298.5 193.5t-196 293.5t-72 365q0 198 72 372.5t196 298.5t298 195.5t372 71.5q200 0 375.5 -71.5t301 -195.5t197.5 -298.5t72 -372.5q0 -259 -123 -470.5t-339.5 -332t-483.5 -120.5zM733 1096v-963h129q0 252 -14 395q88 -22 188 -22
l246 -373h145q-10 14 -61.5 91.5t-73 108.5t-64.5 88.5t-81 102.5v4q115 11 188.5 82t73.5 189q0 79 -31.5 139.5t-82 93t-104.5 48.5t-108 16h-350zM854 594l-6 6q21 197 -2 389l10 6q85 -18 207 -18q91 0 150 -46.5t59 -133.5q0 -91 -56.5 -138t-146.5 -47
q-137 0 -215 -18z" />
    <glyph glyph-name="S.ss07" 
d="M1020 -315q-197 0 -371.5 71t-298.5 193.5t-196 293.5t-72 365q0 198 72 372.5t196 298.5t298 195.5t372 71.5q200 0 375.5 -71.5t301 -195.5t197.5 -298.5t72 -372.5q0 -259 -123 -470.5t-339.5 -332t-483.5 -120.5zM1040 113q146 0 242 83t96 210q0 36 -9 66.5t-21 52
t-36 42t-40 32t-48 25t-45.5 18t-45.5 15.5q-10 3 -15 5l-94 30q-34 10 -57.5 20t-55.5 29t-49.5 48.5t-17.5 66.5q0 62 49 100.5t127 38.5t135 -44t82 -122l115 50q-26 104 -113 170.5t-213 66.5q-85 0 -157.5 -30t-119.5 -93t-47 -147q0 -52 19.5 -96t46.5 -71.5t67.5 -51
t69 -34.5t64.5 -22l88 -26q94 -29 124 -49q55 -38 56 -105q0 -76 -58.5 -117t-138.5 -41q-93 0 -158.5 57t-90.5 159l-121 -43q24 -101 84.5 -169t132.5 -96t153 -28z" />
    <glyph glyph-name="T.ss07" 
d="M1020 -315q-197 0 -371.5 71t-298.5 193.5t-196 293.5t-72 365q0 198 72 372.5t196 298.5t298 195.5t372 71.5q200 0 375.5 -71.5t301 -195.5t197.5 -298.5t72 -372.5q0 -259 -123 -470.5t-339.5 -332t-483.5 -120.5zM958 133h129q0 563 -12 858q117 -14 324 -14v119
h-754v-119q209 0 324 14q-11 -270 -11 -858z" />
    <glyph glyph-name="U.ss07" 
d="M1020 -315q-197 0 -371.5 71t-298.5 193.5t-196 293.5t-72 365q0 198 72 372.5t196 298.5t298 195.5t372 71.5q200 0 375.5 -71.5t301 -195.5t197.5 -298.5t72 -372.5q0 -259 -123 -470.5t-339.5 -332t-483.5 -120.5zM1020 123q96 0 167 30.5t111 85t59 120.5t19 145v602
h-129v-594q0 -136 -54.5 -202t-168.5 -66q-115 0 -170 66t-55 202v594h-131v-602q0 -80 18.5 -146t58 -120t109.5 -84.5t166 -30.5z" />
    <glyph glyph-name="V.ss07" 
d="M1020 -315q-197 0 -371.5 71t-298.5 193.5t-196 293.5t-72 365q0 198 72 372.5t196 298.5t298 195.5t372 71.5q200 0 375.5 -71.5t301 -195.5t197.5 -298.5t72 -372.5q0 -259 -123 -470.5t-339.5 -332t-483.5 -120.5zM580 1096l383 -963h139l383 963h-137
q-203 -508 -306 -838h-16q-108 350 -311 838h-135z" />
    <glyph glyph-name="W.ss07" 
d="M1020 -315q-197 0 -371.5 71t-298.5 193.5t-196 293.5t-72 365q0 198 72 372.5t196 298.5t298 195.5t372 71.5q200 0 375.5 -71.5t301 -195.5t197.5 -298.5t72 -372.5q0 -259 -123 -470.5t-339.5 -332t-483.5 -120.5zM338 1096l301 -963h149q147 445 232 809h10
q84 -369 232 -809h147l301 963h-141q-136 -434 -230 -826h-6q-98 382 -239 826h-140q-157 -506 -237 -822h-6q-76 323 -232 822h-141z" />
    <glyph glyph-name="X.ss07" 
d="M1020 -315q-197 0 -371.5 71t-298.5 193.5t-196 293.5t-72 365q0 198 72 372.5t196 298.5t298 195.5t372 71.5q200 0 375.5 -71.5t301 -195.5t197.5 -298.5t72 -372.5q0 -259 -123 -470.5t-339.5 -332t-483.5 -120.5zM623 133h153q170 259 250 406h4q105 -188 248 -406
h154q-27 39 -81 119t-87 128t-80.5 115.5t-89.5 122.5v11q118 155 333 467h-151q-140 -200 -246 -387h-4q-106 187 -246 387h-151q225 -326 332 -467v-11q-42 -55 -89.5 -122.5t-80.5 -115.5t-87 -128t-81 -119z" />
    <glyph glyph-name="Y.ss07" 
d="M1020 -315q-197 0 -371.5 71t-298.5 193.5t-196 293.5t-72 365q0 198 72 372.5t196 298.5t298 195.5t372 71.5q200 0 375.5 -71.5t301 -195.5t197.5 -298.5t72 -372.5q0 -259 -123 -470.5t-339.5 -332t-483.5 -120.5zM958 133h129q0 231 -8 348q127 205 361 615h-140
q-182 -317 -274 -521h-6q-100 221 -272 521h-142q200 -350 361 -617q-9 -129 -9 -346z" />
    <glyph glyph-name="Z.ss07" 
d="M1020 -315q-197 0 -371.5 71t-298.5 193.5t-196 293.5t-72 365q0 198 72 372.5t196 298.5t298 195.5t372 71.5q200 0 375.5 -71.5t301 -195.5t197.5 -298.5t72 -372.5q0 -259 -123 -470.5t-339.5 -332t-483.5 -120.5zM662 238v-105h743v123q-358 0 -612 -33l-5 6
q370 445 607 764v103h-713v-119q321 0 578 35l2 -6q-353 -435 -600 -768z" />
    <glyph glyph-name="A.ss08" 
d="M1020 -315q-197 0 -371.5 71t-298.5 193.5t-196 293.5t-72 365q0 198 72 372.5t196 298.5t298 195.5t372 71.5q200 0 375.5 -71.5t301 -195.5t197.5 -298.5t72 -372.5q0 -259 -123 -470.5t-339.5 -332t-483.5 -120.5zM1020 -207q176 0 331 62t265.5 170t174.5 260t64 325
q0 175 -64 328.5t-174.5 263t-265.5 173t-331 63.5q-174 0 -328 -63.5t-264 -173t-174 -263t-64 -328.5q0 -172 64 -323.5t174 -260t264 -171t328 -62.5zM809 285h-92l262 659h92l264 -659h-96q-61 153 -76 219l-4 4q-82 -8 -129 -8q-51 0 -137 8l-6 -4q-22 -84 -78 -219z
M915 569q71 11 115 11q42 0 103 -11q-74 164 -103 291h-10q-37 -142 -105 -291z" />
    <glyph glyph-name="B.ss08" 
d="M1020 -315q-197 0 -371.5 71t-298.5 193.5t-196 293.5t-72 365q0 198 72 372.5t196 298.5t298 195.5t372 71.5q200 0 375.5 -71.5t301 -195.5t197.5 -298.5t72 -372.5q0 -259 -123 -470.5t-339.5 -332t-483.5 -120.5zM1020 -207q176 0 331 62t265.5 170t174.5 260t64 325
q0 175 -64 328.5t-174.5 263t-265.5 173t-331 63.5q-174 0 -328 -63.5t-264 -173t-174 -263t-64 -328.5q0 -172 64 -323.5t174 -260t264 -171t328 -62.5zM1067 285h-268v659h245q94 0 152.5 -49t58.5 -127q0 -55 -31 -93.5t-87 -51.5v-2q68 -14 104.5 -53.5t36.5 -100.5
q0 -85 -63 -133.5t-148 -48.5zM879 647l2 -2q55 12 149 12q61 0 98 27.5t37 73.5t-38.5 74t-100.5 28q-90 0 -145 12l-4 -2q14 -102 2 -223zM877 360l4 -4q66 13 168 13q59 0 97 26t38 74q0 49 -38.5 79t-101.5 30q-102 0 -163 12l-2 -2q12 -127 -2 -228z" />
    <glyph glyph-name="C.ss08" 
d="M1020 -315q-197 0 -371.5 71t-298.5 193.5t-196 293.5t-72 365q0 198 72 372.5t196 298.5t298 195.5t372 71.5q200 0 375.5 -71.5t301 -195.5t197.5 -298.5t72 -372.5q0 -259 -123 -470.5t-339.5 -332t-483.5 -120.5zM1020 -207q176 0 331 62t265.5 170t174.5 260t64 325
q0 175 -64 328.5t-174.5 263t-265.5 173t-331 63.5q-174 0 -328 -63.5t-264 -173t-174 -263t-64 -328.5q0 -172 64 -323.5t174 -260t264 -171t328 -62.5zM1040 272q-148 0 -240.5 94.5t-92.5 245.5q0 152 95 248t234 96q106 0 186 -55t109 -147l-80 -33q-28 72 -84.5 111.5
t-130.5 39.5q-104 0 -169.5 -72.5t-65.5 -189.5q0 -124 71.5 -189t171.5 -65q86 0 147 50t83 139l82 -31q-32 -115 -115.5 -178.5t-200.5 -63.5z" />
    <glyph glyph-name="D.ss08" 
d="M1020 -315q-197 0 -371.5 71t-298.5 193.5t-196 293.5t-72 365q0 198 72 372.5t196 298.5t298 195.5t372 71.5q200 0 375.5 -71.5t301 -195.5t197.5 -298.5t72 -372.5q0 -259 -123 -470.5t-339.5 -332t-483.5 -120.5zM1020 -207q176 0 331 62t265.5 170t174.5 260t64 325
q0 175 -64 328.5t-174.5 263t-265.5 173t-331 63.5q-174 0 -328 -63.5t-264 -173t-174 -263t-64 -328.5q0 -172 64 -323.5t174 -260t264 -171t328 -62.5zM1030 285h-248v659h240q147 0 229 -86.5t82 -239.5q0 -152 -82.5 -242.5t-220.5 -90.5zM860 360l4 -4q64 13 166 13
q100 0 156.5 64.5t56.5 180.5q0 125 -65 185.5t-172 60.5q-91 0 -142 12l-4 -2q24 -255 0 -510z" />
    <glyph glyph-name="E.ss08" 
d="M1020 -315q-197 0 -371.5 71t-298.5 193.5t-196 293.5t-72 365q0 198 72 372.5t196 298.5t298 195.5t372 71.5q200 0 375.5 -71.5t301 -195.5t197.5 -298.5t72 -372.5q0 -259 -123 -470.5t-339.5 -332t-483.5 -120.5zM1020 -207q176 0 331 62t265.5 170t174.5 260t64 325
q0 175 -64 328.5t-174.5 263t-265.5 173t-331 63.5q-174 0 -328 -63.5t-264 -173t-174 -263t-64 -328.5q0 -172 64 -323.5t174 -260t264 -171t328 -62.5zM1253 285h-432v659h424v-84q-19 0 -99 0.5t-133.5 3t-109.5 8.5l-4 -2q14 -102 2 -217l4 -2q125 15 324 15v-86
q-209 0 -324 16l-4 -4q12 -124 -2 -232l4 -4q136 15 350 15v-86z" />
    <glyph glyph-name="F.ss08" 
d="M1020 -315q-197 0 -371.5 71t-298.5 193.5t-196 293.5t-72 365q0 198 72 372.5t196 298.5t298 195.5t372 71.5q200 0 375.5 -71.5t301 -195.5t197.5 -298.5t72 -372.5q0 -259 -123 -470.5t-339.5 -332t-483.5 -120.5zM1020 -207q176 0 331 62t265.5 170t174.5 260t64 325
q0 175 -64 328.5t-174.5 263t-265.5 173t-331 63.5q-174 0 -328 -63.5t-264 -173t-174 -263t-64 -328.5q0 -172 64 -323.5t174 -260t264 -171t328 -62.5zM924 285h-88v659h415v-84q-212 0 -333 12l-5 -2q15 -111 0 -225l5 -2q115 14 317 14v-84q-210 0 -317 13l-5 -2
q11 -114 11 -299z" />
    <glyph glyph-name="G.ss08" 
d="M1020 1546q200 0 375.5 -71.5t301 -195.5t197.5 -298.5t72 -372.5q0 -259 -123 -470.5t-339.5 -332t-483.5 -120.5q-197 0 -371.5 71t-298.5 193.5t-196 293.5t-72 365q0 198 72 372.5t196 298.5t298 195.5t372 71.5zM1020 -207q176 0 331 62t265.5 170t174.5 260t64 325
q0 175 -64 328.5t-174.5 263t-265.5 173t-331 63.5q-174 0 -328 -63.5t-264 -173t-174 -263t-64 -328.5q0 -172 64 -323.5t174 -260t264 -171t328 -62.5zM1049 543v75h301v-333h-76q0 10 -1 41.5t-0.5 54.5t5.5 47q-70 -156 -246 -156q-143 0 -234 95.5t-91 244.5
q0 150 93 247t236 97q106 0 186 -55t109 -147l-80 -33q-28 72 -84.5 111.5t-128.5 39.5q-105 0 -171 -72.5t-66 -189.5q0 -64 21 -114.5t56 -80t77.5 -44.5t88.5 -15q89 0 151.5 54t84.5 151l-2 2q-109 -23 -229 -20z" />
    <glyph glyph-name="H.ss08" 
d="M1020 -315q-197 0 -371.5 71t-298.5 193.5t-196 293.5t-72 365q0 198 72 372.5t196 298.5t298 195.5t372 71.5q200 0 375.5 -71.5t301 -195.5t197.5 -298.5t72 -372.5q0 -259 -123 -470.5t-339.5 -332t-483.5 -120.5zM1020 -207q176 0 331 62t265.5 170t174.5 260t64 325
q0 175 -64 328.5t-174.5 263t-265.5 173t-331 63.5q-174 0 -328 -63.5t-264 -173t-174 -263t-64 -328.5q0 -172 64 -323.5t174 -260t264 -171t328 -62.5zM854 285h-88v659h88q0 -193 -10 -293l6 -4q182 20 350 0l4 4q-10 104 -10 293h90v-659h-90q0 188 10 299l-4 4
q-167 -26 -352 0l-4 -4q10 -106 10 -299z" />
    <glyph glyph-name="I.ss08" 
d="M1020 -315q-197 0 -371.5 71t-298.5 193.5t-196 293.5t-72 365q0 198 72 372.5t196 298.5t298 195.5t372 71.5q200 0 375.5 -71.5t301 -195.5t197.5 -298.5t72 -372.5q0 -259 -123 -470.5t-339.5 -332t-483.5 -120.5zM1020 -207q176 0 331 62t265.5 170t174.5 260t64 325
q0 175 -64 328.5t-174.5 263t-265.5 173t-331 63.5q-174 0 -328 -63.5t-264 -173t-174 -263t-64 -328.5q0 -172 64 -323.5t174 -260t264 -171t328 -62.5zM1069 285h-90v659h90v-659z" />
    <glyph glyph-name="J.ss08" 
d="M1020 -315q-197 0 -371.5 71t-298.5 193.5t-196 293.5t-72 365q0 198 72 372.5t196 298.5t298 195.5t372 71.5q200 0 375.5 -71.5t301 -195.5t197.5 -298.5t72 -372.5q0 -259 -123 -470.5t-339.5 -332t-483.5 -120.5zM1020 -207q176 0 331 62t265.5 170t174.5 260t64 325
q0 175 -64 328.5t-174.5 263t-265.5 173t-331 63.5q-174 0 -328 -63.5t-264 -173t-174 -263t-64 -328.5q0 -172 64 -323.5t174 -260t264 -171t328 -62.5zM1001 279q-100 0 -157.5 58t-57.5 159v26l86 13v-27q0 -69 33.5 -108.5t93.5 -39.5q36 0 59.5 16t33.5 45t13 53t3 56
v420h88v-403q0 -24 -0.5 -39.5t-4 -46.5t-10.5 -52t-21.5 -47.5t-34.5 -43t-52 -28t-72 -11.5z" />
    <glyph glyph-name="K.ss08" 
d="M1020 -315q-197 0 -371.5 71t-298.5 193.5t-196 293.5t-72 365q0 198 72 372.5t196 298.5t298 195.5t372 71.5q200 0 375.5 -71.5t301 -195.5t197.5 -298.5t72 -372.5q0 -259 -123 -470.5t-339.5 -332t-483.5 -120.5zM1020 -207q176 0 331 62t265.5 170t174.5 260t64 325
q0 175 -64 328.5t-174.5 263t-265.5 173t-331 63.5q-174 0 -328 -63.5t-264 -173t-174 -263t-64 -328.5q0 -172 64 -323.5t174 -260t264 -171t328 -62.5zM897 285h-90v659h90q0 -236 -14 -344q117 141 309 344h108q-183 -199 -278 -289v-6q144 -168 291 -364h-109
q-149 191 -231 313q-46 -63 -82 -86q6 -80 6 -227z" />
    <glyph glyph-name="L.ss08" 
d="M1020 -315q-197 0 -371.5 71t-298.5 193.5t-196 293.5t-72 365q0 198 72 372.5t196 298.5t298 195.5t372 71.5q200 0 375.5 -71.5t301 -195.5t197.5 -298.5t72 -372.5q0 -259 -123 -470.5t-339.5 -332t-483.5 -120.5zM1020 -207q176 0 331 62t265.5 170t174.5 260t64 325
q0 175 -64 328.5t-174.5 263t-265.5 173t-331 63.5q-174 0 -328 -63.5t-264 -173t-174 -263t-64 -328.5q0 -172 64 -323.5t174 -260t264 -171t328 -62.5zM1282 285h-408v659h89q0 -361 -11 -584l4 -4q125 15 326 15v-86z" />
    <glyph glyph-name="M.ss08" 
d="M1020 1546q200 0 375.5 -71.5t301 -195.5t197.5 -298.5t72 -372.5q0 -259 -123 -470.5t-339.5 -332t-483.5 -120.5q-197 0 -371.5 71t-298.5 193.5t-196 293.5t-72 365q0 198 72 372.5t196 298.5t298 195.5t372 71.5zM1020 -207q176 0 331 62t265.5 170t174.5 260t64 325
q0 175 -64 328.5t-174.5 263t-265.5 173t-331 63.5q-174 0 -328 -63.5t-264 -173t-174 -263t-64 -328.5q0 -172 64 -323.5t174 -260t264 -171t328 -62.5zM1022 391h2q104 265 250 553h92v-659h-90q0 19 -0.5 95.5t0 108.5t1.5 93.5t4.5 113.5t8.5 105q-79 -183 -233 -516
h-66q-196 430 -233 516q5 -53 8.5 -105t4.5 -114t1.5 -94t0 -108.5t-0.5 -94.5h-90v659h92q150 -290 248 -553z" />
    <glyph glyph-name="N.ss08" 
d="M1020 1546q200 0 375.5 -71.5t301 -195.5t197.5 -298.5t72 -372.5q0 -259 -123 -470.5t-339.5 -332t-483.5 -120.5q-197 0 -371.5 71t-298.5 193.5t-196 293.5t-72 365q0 198 72 372.5t196 298.5t298 195.5t372 71.5zM1020 -207q176 0 331 62t265.5 170t174.5 260t64 325
q0 175 -64 328.5t-174.5 263t-265.5 173t-331 63.5q-174 0 -328 -63.5t-264 -173t-174 -263t-64 -328.5q0 -172 64 -323.5t174 -260t264 -171t328 -62.5zM1221 408q-13 206 -13 536h88v-659h-77q-235 311 -373 524q10 -155 10 -524h-88v659h78q203 -264 375 -536z" />
    <glyph glyph-name="O.ss08" 
d="M1020 -315q-197 0 -371.5 71t-298.5 193.5t-196 293.5t-72 365q0 198 72 372.5t196 298.5t298 195.5t372 71.5q200 0 375.5 -71.5t301 -195.5t197.5 -298.5t72 -372.5q0 -259 -123 -470.5t-339.5 -332t-483.5 -120.5zM1020 -207q176 0 331 62t265.5 170t174.5 260t64 325
q0 175 -64 328.5t-174.5 263t-265.5 173t-331 63.5q-174 0 -328 -63.5t-264 -173t-174 -263t-64 -328.5q0 -172 64 -323.5t174 -260t264 -171t328 -62.5zM1024 272q-140 0 -235 98t-95 244q0 145 95.5 243.5t236.5 98.5q140 0 236 -98.5t96 -243.5t-96.5 -243.5
t-237.5 -98.5zM1026 356q100 0 169 74.5t69 183.5t-69 183.5t-169 74.5t-169 -74.5t-69 -183.5t69 -183.5t169 -74.5z" />
    <glyph glyph-name="P.ss08" 
d="M1020 -315q-197 0 -371.5 71t-298.5 193.5t-196 293.5t-72 365q0 198 72 372.5t196 298.5t298 195.5t372 71.5q200 0 375.5 -71.5t301 -195.5t197.5 -298.5t72 -372.5q0 -259 -123 -470.5t-339.5 -332t-483.5 -120.5zM1020 -207q176 0 331 62t265.5 170t174.5 260t64 325
q0 175 -64 328.5t-174.5 263t-265.5 173t-331 63.5q-174 0 -328 -63.5t-264 -173t-174 -263t-64 -328.5q0 -172 64 -323.5t174 -260t264 -171t328 -62.5zM911 285h-88v659h238q40 0 77.5 -11t71 -34t54 -63t20.5 -93q0 -101 -65.5 -153.5t-145.5 -52.5q-113 0 -170 16
q8 -82 8 -268zM903 608l2 -4q53 14 148 14q63 0 101 30.5t38 90.5q0 59 -40 90t-103 31q-93 0 -144 12l-4 -2q14 -126 2 -262z" />
    <glyph glyph-name="Q.ss08" 
d="M1020 -315q-197 0 -371.5 71t-298.5 193.5t-196 293.5t-72 365q0 198 72 372.5t196 298.5t298 195.5t372 71.5q200 0 375.5 -71.5t301 -195.5t197.5 -298.5t72 -372.5q0 -259 -123 -470.5t-339.5 -332t-483.5 -120.5zM1020 -207q176 0 331 62t265.5 170t174.5 260t64 325
q0 175 -64 328.5t-174.5 263t-265.5 173t-331 63.5q-174 0 -328 -63.5t-264 -173t-174 -263t-64 -328.5q0 -172 64 -323.5t174 -260t264 -171t328 -62.5zM1337 287l-61 -54q-61 65 -92 123q-70 -49 -164 -49q-141 0 -237.5 98t-96.5 244t96.5 245t239.5 99q141 0 236.5 -99
t95.5 -245q0 -160 -117 -254q39 -33 100 -108zM1022 385q51 0 111 29q-56 51 -132 143l64 55q83 -101 125 -163q72 83 72 200q0 110 -69 184t-171 74q-103 0 -172.5 -74t-69.5 -184q0 -112 69.5 -188t172.5 -76z" />
    <glyph glyph-name="R.ss08" 
d="M1020 1546q200 0 375.5 -71.5t301 -195.5t197.5 -298.5t72 -372.5q0 -259 -123 -470.5t-339.5 -332t-483.5 -120.5q-197 0 -371.5 71t-298.5 193.5t-196 293.5t-72 365q0 198 72 372.5t196 298.5t298 195.5t372 71.5zM1020 -207q176 0 331 62t265.5 170t174.5 260t64 325
q0 175 -64 328.5t-174.5 263t-265.5 173t-331 63.5q-174 0 -328 -63.5t-264 -173t-174 -263t-64 -328.5q0 -172 64 -323.5t174 -260t264 -171t328 -62.5zM1284 741q0 -79 -46 -129t-128 -59q56 -68 190 -268h-100l-168 254q-72 0 -127 14q8 -98 8 -268h-88v659h238
q38 0 75 -11t71 -33.5t54.5 -63.5t20.5 -95zM903 604l2 -2q55 12 150 12q62 0 100.5 31.5t38.5 93.5q0 58 -40.5 90.5t-102.5 32.5q-91 0 -144 10l-4 -2q15 -132 0 -266z" />
    <glyph glyph-name="S.ss08" 
d="M1020 -315q-197 0 -371.5 71t-298.5 193.5t-196 293.5t-72 365q0 198 72 372.5t196 298.5t298 195.5t372 71.5q200 0 375.5 -71.5t301 -195.5t197.5 -298.5t72 -372.5q0 -259 -123 -470.5t-339.5 -332t-483.5 -120.5zM1020 -207q176 0 331 62t265.5 170t174.5 260t64 325
q0 175 -64 328.5t-174.5 263t-265.5 173t-331 63.5q-174 0 -328 -63.5t-264 -173t-174 -263t-64 -328.5q0 -172 64 -323.5t174 -260t264 -171t328 -62.5zM1036 272q-97 0 -164 53t-90 148l82 29q17 -69 62.5 -108.5t109.5 -39.5q53 0 94 28t41 81q0 24 -9 41t-27 27.5
t-34.5 17t-42.5 13.5q-7 2 -11 3l-60 19q-25 8 -44 15.5t-47 23.5t-46 35t-31.5 49.5t-13.5 66.5q0 85 66 133.5t155 48.5q83 0 144 -44t81 -119l-82 -35q-15 55 -54 84.5t-95 29.5q-52 0 -85.5 -26t-33.5 -66q0 -25 11 -44.5t34.5 -33t37 -19.5t40.5 -15l63 -21
q30 -9 46.5 -14.5t46 -20t46 -31.5t29.5 -45.5t13 -64.5q0 -86 -66 -142.5t-166 -56.5z" />
    <glyph glyph-name="T.ss08" 
d="M1020 -315q-197 0 -371.5 71t-298.5 193.5t-196 293.5t-72 365q0 198 72 372.5t196 298.5t298 195.5t372 71.5q200 0 375.5 -71.5t301 -195.5t197.5 -298.5t72 -372.5q0 -259 -123 -470.5t-339.5 -332t-483.5 -120.5zM1020 -207q176 0 331 62t265.5 170t174.5 260t64 325
q0 175 -64 328.5t-174.5 263t-265.5 173t-331 63.5q-174 0 -328 -63.5t-264 -173t-174 -263t-64 -328.5q0 -172 64 -323.5t174 -260t264 -171t328 -62.5zM1067 285h-88q0 384 8 585q-80 -10 -221 -10v84h514v-84q-141 0 -221 10q8 -201 8 -585z" />
    <glyph glyph-name="U.ss08" 
d="M1020 -315q-197 0 -371.5 71t-298.5 193.5t-196 293.5t-72 365q0 198 72 372.5t196 298.5t298 195.5t372 71.5q200 0 375.5 -71.5t301 -195.5t197.5 -298.5t72 -372.5q0 -259 -123 -470.5t-339.5 -332t-483.5 -120.5zM1020 -207q176 0 331 62t265.5 170t174.5 260t64 325
q0 175 -64 328.5t-174.5 263t-265.5 173t-331 63.5q-174 0 -328 -63.5t-264 -173t-174 -263t-64 -328.5q0 -172 64 -323.5t174 -260t264 -171t328 -62.5zM1022 279q-125 0 -182.5 71.5t-57.5 186.5v413h88v-409q0 -181 154 -181t154 181v409h88v-413q0 -114 -59 -186
t-185 -72z" />
    <glyph glyph-name="V.ss08" 
d="M1020 -315q-197 0 -371.5 71t-298.5 193.5t-196 293.5t-72 365q0 198 72 372.5t196 298.5t298 195.5t372 71.5q200 0 375.5 -71.5t301 -195.5t197.5 -298.5t72 -372.5q0 -259 -123 -470.5t-339.5 -332t-483.5 -120.5zM1020 -207q176 0 331 62t265.5 170t174.5 260t64 325
q0 175 -64 328.5t-174.5 263t-265.5 173t-331 63.5q-174 0 -328 -63.5t-264 -173t-174 -263t-64 -328.5q0 -172 64 -323.5t174 -260t264 -171t328 -62.5zM1077 285h-94l-262 659h92q138 -320 217 -575h2q71 216 213 575h94z" />
    <glyph glyph-name="W.ss08" 
d="M1020 1546q200 0 375.5 -71.5t301 -195.5t197.5 -298.5t72 -372.5q0 -259 -123 -470.5t-339.5 -332t-483.5 -120.5q-197 0 -371.5 71t-298.5 193.5t-196 293.5t-72 365q0 198 72 372.5t196 298.5t298 195.5t372 71.5zM1020 -207q176 0 331 62t265.5 170t174.5 260t64 325
q0 175 -64 328.5t-174.5 263t-265.5 173t-331 63.5q-174 0 -328 -63.5t-264 -173t-174 -263t-64 -328.5q0 -172 64 -323.5t174 -260t264 -171t328 -62.5zM1235 387q76 293 162 557h94l-207 -659h-98q-99 299 -162 553q-67 -274 -160 -553h-100l-207 659h96
q109 -341 162 -559q14 57 29.5 113.5t34 121t30.5 104t36 116t32 104.5h94q89 -281 164 -557z" />
    <glyph glyph-name="X.ss08" 
d="M1020 -315q-197 0 -371.5 71t-298.5 193.5t-196 293.5t-72 365q0 198 72 372.5t196 298.5t298 195.5t372 71.5q200 0 375.5 -71.5t301 -195.5t197.5 -298.5t72 -372.5q0 -259 -123 -470.5t-339.5 -332t-483.5 -120.5zM1020 -207q176 0 331 62t265.5 170t174.5 260t64 325
q0 175 -64 328.5t-174.5 263t-265.5 173t-331 63.5q-174 0 -328 -63.5t-264 -173t-174 -263t-64 -328.5q0 -172 64 -323.5t174 -260t264 -171t328 -62.5zM854 285h-106q147 218 231 333v7q-111 148 -225 319h102q107 -156 170 -266h2q60 108 168 266h104
q-133 -194 -229 -319v-7q76 -101 232 -333h-103q-101 149 -172 278h-2q-53 -97 -172 -278z" />
    <glyph glyph-name="Y.ss08" 
d="M1020 -315q-197 0 -371.5 71t-298.5 193.5t-196 293.5t-72 365q0 198 72 372.5t196 298.5t298 195.5t372 71.5q200 0 375.5 -71.5t301 -195.5t197.5 -298.5t72 -372.5q0 -259 -123 -470.5t-339.5 -332t-483.5 -120.5zM1020 -207q176 0 331 62t265.5 170t174.5 260t64 325
q0 175 -64 328.5t-174.5 263t-265.5 173t-331 63.5q-174 0 -328 -63.5t-264 -173t-174 -263t-64 -328.5q0 -172 64 -323.5t174 -260t264 -171t328 -62.5zM1067 285h-88q0 159 4 239q-62 101 -248 420h99q125 -214 190 -356q65 142 190 356h97q-27 -45 -77 -131.5
t-91.5 -156.5t-79.5 -132q4 -53 4 -239z" />
    <glyph glyph-name="Z.ss08" 
d="M1020 -315q-197 0 -371.5 71t-298.5 193.5t-196 293.5t-72 365q0 198 72 372.5t196 298.5t298 195.5t372 71.5q200 0 375.5 -71.5t301 -195.5t197.5 -298.5t72 -372.5q0 -259 -123 -470.5t-339.5 -332t-483.5 -120.5zM1020 -207q176 0 331 62t265.5 170t174.5 260t64 325
q0 175 -64 328.5t-174.5 263t-265.5 173t-331 63.5q-174 0 -328 -63.5t-264 -173t-174 -263t-64 -328.5q0 -172 64 -323.5t174 -260t264 -171t328 -62.5zM1286 285h-508v71q175 238 410 527q-208 -23 -395 -23v84h487v-70q-122 -166 -414 -524q199 21 420 21v-86z" />
    <glyph glyph-name="i.loclTRK" horiz-adv-x="520" 
d="M262 1380q-57 0 -94 39t-37 97q0 54 37.5 91.5t93.5 37.5q55 0 93 -37.5t38 -91.5q0 -57 -38 -96.5t-93 -39.5zM350 0h-180v1133h180v-1133z" />
    <glyph glyph-name="a.ss01" horiz-adv-x="1374" 
d="M610 -35q-152 0 -271.5 78t-185 214.5t-65.5 307.5q0 134 42 247.5t113.5 190t167.5 119.5t203 43q136 0 241 -72.5t161 -220.5h28q-18 115 -18 261h178v-1133h-174v28.5v32t0.5 31.5t2 38t4 39.5t6.5 48t10 52.5h-27q-62 -160 -171 -232.5t-245 -72.5zM645 133
q163 0 270 125.5t107 310.5q0 186 -109 308t-270 122q-159 0 -263 -123t-104 -309q0 -189 105 -311.5t264 -122.5z" />
    <glyph glyph-name="aacute.ss01" horiz-adv-x="1374" 
d="M1071 1667l-311 -389h-156l238 389h229zM610 -35q-152 0 -271.5 78t-185 214.5t-65.5 307.5q0 134 42 247.5t113.5 190t167.5 119.5t203 43q136 0 241 -72.5t161 -220.5h28q-18 115 -18 261h178v-1133h-174v28.5v32t0.5 31.5t2 38t4 39.5t6.5 48t10 52.5h-27
q-62 -160 -171 -232.5t-245 -72.5zM645 133q163 0 270 125.5t107 310.5q0 186 -109 308t-270 122q-159 0 -263 -123t-104 -309q0 -189 105 -311.5t264 -122.5z" />
    <glyph glyph-name="abreve.ss01" horiz-adv-x="1374" 
d="M690 1274q-170 0 -270.5 110.5t-106.5 284.5h154q3 -116 64.5 -187t162.5 -71t163 71t65 187h153q-6 -175 -107.5 -285t-277.5 -110zM610 -35q-152 0 -271.5 78t-185 214.5t-65.5 307.5q0 134 42 247.5t113.5 190t167.5 119.5t203 43q136 0 241 -72.5t161 -220.5h28
q-18 115 -18 261h178v-1133h-174v28.5v32t0.5 31.5t2 38t4 39.5t6.5 48t10 52.5h-27q-62 -160 -171 -232.5t-245 -72.5zM645 133q163 0 270 125.5t107 310.5q0 186 -109 308t-270 122q-159 0 -263 -123t-104 -309q0 -189 105 -311.5t264 -122.5z" />
    <glyph glyph-name="acircumflex.ss01" horiz-adv-x="1374" 
d="M461 1278h-170l297 360h209l297 -360h-168q-51 52 -78.5 82t-65.5 81.5t-63 100.5h-49q-27 -50 -64.5 -100t-67 -82.5t-77.5 -81.5zM610 -35q-152 0 -271.5 78t-185 214.5t-65.5 307.5q0 134 42 247.5t113.5 190t167.5 119.5t203 43q136 0 241 -72.5t161 -220.5h28
q-18 115 -18 261h178v-1133h-174v28.5v32t0.5 31.5t2 38t4 39.5t6.5 48t10 52.5h-27q-62 -160 -171 -232.5t-245 -72.5zM645 133q163 0 270 125.5t107 310.5q0 186 -109 308t-270 122q-159 0 -263 -123t-104 -309q0 -189 105 -311.5t264 -122.5z" />
    <glyph glyph-name="adieresis.ss01" horiz-adv-x="1374" 
d="M504 1352q-51 0 -86 36t-35 89q0 48 35.5 83t85.5 35q52 0 86.5 -35t34.5 -83q0 -53 -34.5 -89t-86.5 -36zM883 1352q-52 0 -86.5 36t-34.5 89q0 48 34.5 83t86.5 35q50 0 85.5 -35t35.5 -83q0 -53 -35 -89t-86 -36zM610 -35q-152 0 -271.5 78t-185 214.5t-65.5 307.5
q0 134 42 247.5t113.5 190t167.5 119.5t203 43q136 0 241 -72.5t161 -220.5h28q-18 115 -18 261h178v-1133h-174v28.5v32t0.5 31.5t2 38t4 39.5t6.5 48t10 52.5h-27q-62 -160 -171 -232.5t-245 -72.5zM645 133q163 0 270 125.5t107 310.5q0 186 -109 308t-270 122
q-159 0 -263 -123t-104 -309q0 -189 105 -311.5t264 -122.5z" />
    <glyph glyph-name="agrave.ss01" horiz-adv-x="1374" 
d="M778 1278h-157l-312 389h230zM610 -35q-152 0 -271.5 78t-185 214.5t-65.5 307.5q0 134 42 247.5t113.5 190t167.5 119.5t203 43q136 0 241 -72.5t161 -220.5h28q-18 115 -18 261h178v-1133h-174v28.5v32t0.5 31.5t2 38t4 39.5t6.5 48t10 52.5h-27q-62 -160 -171 -232.5
t-245 -72.5zM645 133q163 0 270 125.5t107 310.5q0 186 -109 308t-270 122q-159 0 -263 -123t-104 -309q0 -189 105 -311.5t264 -122.5z" />
    <glyph glyph-name="amacron.ss01" horiz-adv-x="1374" 
d="M1038 1391h-688v137h688v-137zM610 -35q-152 0 -271.5 78t-185 214.5t-65.5 307.5q0 134 42 247.5t113.5 190t167.5 119.5t203 43q136 0 241 -72.5t161 -220.5h28q-18 115 -18 261h178v-1133h-174v28.5v32t0.5 31.5t2 38t4 39.5t6.5 48t10 52.5h-27q-62 -160 -171 -232.5
t-245 -72.5zM645 133q163 0 270 125.5t107 310.5q0 186 -109 308t-270 122q-159 0 -263 -123t-104 -309q0 -189 105 -311.5t264 -122.5z" />
    <glyph glyph-name="aogonek.ss01" horiz-adv-x="1374" 
d="M1159 -336q49 0 92 14v-127q-55 -14 -106 -14q-120 0 -199.5 62.5t-79.5 169.5q0 145 166 231h-2v28.5v32t0.5 31.5t2 38t4 39.5t6.5 48t10 52.5h-27q-62 -160 -171 -232.5t-245 -72.5q-152 0 -271.5 78t-185 214.5t-65.5 307.5q0 134 42 247.5t113.5 190t167.5 119.5
t203 43q136 0 241 -72.5t161 -220.5h28q-18 115 -18 261h178v-1133h-37q-170 -71 -170 -195q0 -63 46 -102t116 -39zM645 133q163 0 270 125.5t107 310.5q0 186 -109 308t-270 122q-159 0 -263 -123t-104 -309q0 -189 105 -311.5t264 -122.5z" />
    <glyph glyph-name="aring.ss01" horiz-adv-x="1374" 
d="M692 1249q-100 0 -167.5 66t-67.5 164q0 96 67.5 160.5t167.5 64.5q101 0 168.5 -63.5t67.5 -161.5q0 -99 -68 -164.5t-168 -65.5zM692 1354q55 0 91 34.5t36 90.5q0 53 -36 86.5t-91 33.5q-56 0 -91.5 -33t-35.5 -87q0 -56 35.5 -90.5t91.5 -34.5zM610 -35
q-152 0 -271.5 78t-185 214.5t-65.5 307.5q0 134 42 247.5t113.5 190t167.5 119.5t203 43q136 0 241 -72.5t161 -220.5h28q-18 115 -18 261h178v-1133h-174v28.5v32t0.5 31.5t2 38t4 39.5t6.5 48t10 52.5h-27q-62 -160 -171 -232.5t-245 -72.5zM645 133q163 0 270 125.5
t107 310.5q0 186 -109 308t-270 122q-159 0 -263 -123t-104 -309q0 -189 105 -311.5t264 -122.5z" />
    <glyph glyph-name="atilde.ss01" horiz-adv-x="1374" 
d="M852 1317q-50 0 -84 16t-74 49l-45 35q-2 1 -9 6.5t-9.5 7.5t-9.5 6.5t-10.5 6.5t-10 5.5t-11 5t-10.5 4t-12 3t-12 0.5q-43 0 -69.5 -37t-26.5 -92h-133q1 121 64 195t161 74q40 0 73 -15.5t76 -48.5l45 -35q1 -1 8 -6t9 -6.5t8.5 -6.5t9.5 -6.5t9.5 -5.5t10.5 -5.5
t10.5 -4t11 -3.5t10.5 -2t12 -1q42 0 65 36t23 95h133q0 -127 -56 -198.5t-157 -71.5zM610 -35q-152 0 -271.5 78t-185 214.5t-65.5 307.5q0 134 42 247.5t113.5 190t167.5 119.5t203 43q136 0 241 -72.5t161 -220.5h28q-18 115 -18 261h178v-1133h-174v28.5v32t0.5 31.5
t2 38t4 39.5t6.5 48t10 52.5h-27q-62 -160 -171 -232.5t-245 -72.5zM645 133q163 0 270 125.5t107 310.5q0 186 -109 308t-270 122q-159 0 -263 -123t-104 -309q0 -189 105 -311.5t264 -122.5z" />
    <glyph glyph-name="b.ss01" horiz-adv-x="1163" 
d="M690 -35q-122 0 -211 57t-135 164h-29q6 -18 10.5 -34t7 -32t4.5 -26.5t2.5 -26.5t0.5 -22v-23.5v-21.5h-170v1638h180v-160v-176t-1 -159t-3.5 -181.5t-7.5 -167.5t-12 -188h28q47 95 133.5 145t198.5 50q181 0 299.5 -119.5t118.5 -300.5q0 -176 -116.5 -296
t-297.5 -120zM657 115q113 0 189 76t76 194q0 110 -71.5 188t-193.5 78q-125 0 -198.5 -77.5t-73.5 -184.5q0 -114 77.5 -194t194.5 -80z" />
    <glyph glyph-name="d.ss01" horiz-adv-x="1366" 
d="M612 -35q-232 0 -378 170.5t-146 429.5q0 134 42 247.5t113.5 190.5t167.5 120.5t203 43.5q134 0 237 -72.5t163 -222.5h28q-24 279 -24 766h180v-1638h-168q0 130 17 248h-29q-59 -145 -166 -214t-240 -69zM645 133q159 0 268 122.5t109 311.5t-109.5 310.5
t-269.5 121.5q-159 0 -263 -123t-104 -309q0 -189 105 -311.5t264 -122.5z" />
    <glyph glyph-name="dcaron.ss01" horiz-adv-x="1366" 
d="M1458 1155h-112q34 64 50 92t52.5 79.5t77.5 92.5q-127 26 -127 123q0 54 39 92.5t94 38.5q54 0 92.5 -37.5t38.5 -91.5q0 -41 -29 -97t-126 -212q-32 -51 -50 -80zM612 -35q-232 0 -378 170.5t-146 429.5q0 134 42 247.5t113.5 190.5t167.5 120.5t203 43.5
q134 0 237 -72.5t163 -222.5h28q-24 279 -24 766h180v-1638h-168q0 130 17 248h-29q-59 -145 -166 -214t-240 -69zM645 133q159 0 268 122.5t109 311.5t-109.5 310.5t-269.5 121.5q-159 0 -263 -123t-104 -309q0 -189 105 -311.5t264 -122.5z" />
    <glyph glyph-name="dcroat.ss01" horiz-adv-x="1366" 
d="M1198 1454h264v-141h-264v-1313h-168q0 130 17 248h-29q-59 -145 -166 -214t-240 -69q-232 0 -378 170.5t-146 429.5q0 134 42 247.5t113.5 190.5t167.5 120.5t203 43.5q134 0 237 -72.5t163 -222.5h28q-19 213 -22 441h-281v141h279v184h180v-184zM645 133
q159 0 268 122.5t109 311.5t-109.5 310.5t-269.5 121.5q-159 0 -263 -123t-104 -309q0 -189 105 -311.5t264 -122.5z" />
    <glyph glyph-name="g.ss01" horiz-adv-x="1368" 
d="M1196 -451h-1020v164q199 0 294 -0.5t263 -7.5t311 -20q-47 351 -4 585h-26q-62 -138 -166.5 -203t-235.5 -65q-155 0 -276 78.5t-185.5 211t-64.5 294.5q0 252 150 415.5t372 163.5q139 0 243.5 -72t158.5 -221h26q-14 121 -14 261h174v-1584zM643 170q158 0 267.5 121
t109.5 299q0 177 -109 293t-268 116t-264 -118.5t-105 -292.5q0 -176 106 -297t263 -121z" />
    <glyph glyph-name="gbreve.ss01" horiz-adv-x="1368" 
d="M686 1274q-170 0 -270.5 110.5t-106.5 284.5h154q3 -116 64.5 -187t162.5 -71t163 71t65 187h153q-6 -175 -107.5 -285t-277.5 -110zM1196 -451h-1020v164q199 0 294 -0.5t263 -7.5t311 -20q-47 351 -4 585h-26q-62 -138 -166.5 -203t-235.5 -65q-155 0 -276 78.5
t-185.5 211t-64.5 294.5q0 252 150 415.5t372 163.5q139 0 243.5 -72t158.5 -221h26q-14 121 -14 261h174v-1584zM643 170q158 0 267.5 121t109.5 299q0 177 -109 293t-268 116t-264 -118.5t-105 -292.5q0 -176 106 -297t263 -121z" />
    <glyph glyph-name="uni0123.ss01" horiz-adv-x="1368" 
d="M549 1380q0 9 1.5 18.5t3.5 18.5t7.5 21.5t10 23t14.5 29.5t18.5 33.5t24.5 41.5t28.5 48.5t35 59.5t40.5 69h109q-84 -164 -154 -275q51 6 78 -24.5t27 -73.5q0 -52 -34.5 -81t-84.5 -29q-55 0 -90 33.5t-35 86.5zM1196 -451h-1020v164q199 0 294 -0.5t263 -7.5t311 -20
q-47 351 -4 585h-26q-62 -138 -166.5 -203t-235.5 -65q-155 0 -276 78.5t-185.5 211t-64.5 294.5q0 252 150 415.5t372 163.5q139 0 243.5 -72t158.5 -221h26q-14 121 -14 261h174v-1584zM643 170q158 0 267.5 121t109.5 299q0 177 -109 293t-268 116t-264 -118.5
t-105 -292.5q0 -176 106 -297t263 -121z" />
    <glyph glyph-name="gdotaccent.ss01" horiz-adv-x="1368" 
d="M690 1386q-57 0 -94 39t-37 97q0 54 37.5 91.5t93.5 37.5q55 0 93 -37.5t38 -91.5q0 -57 -38 -96.5t-93 -39.5zM1196 -451h-1020v164q199 0 294 -0.5t263 -7.5t311 -20q-47 351 -4 585h-26q-62 -138 -166.5 -203t-235.5 -65q-155 0 -276 78.5t-185.5 211t-64.5 294.5
q0 252 150 415.5t372 163.5q139 0 243.5 -72t158.5 -221h26q-14 121 -14 261h174v-1584zM643 170q158 0 267.5 121t109.5 299q0 177 -109 293t-268 116t-264 -118.5t-105 -292.5q0 -176 106 -297t263 -121z" />
    </font>
</defs>
</svg>
