<?xml version="1.0" standalone="no"?>
<!DOCTYPE svg PUBLIC "-//W3C//DTD SVG 1.1//EN" "http://www.w3.org/Graphics/SVG/1.1/DTD/svg11.dtd" >
<svg xmlns="http://www.w3.org/2000/svg" xmlns:xlink="http://www.w3.org/1999/xlink" version="1.1">
<metadata>
Created by FontForge 20170731 at Mon Mar 15 14:15:36 2021
 By Aleksey,,,
Copyright (c) 2020 by Matthieu Salvaggio x Blaze Type. All rights reserved.
</metadata>
<defs>
<font id="Area-SemiboldInktrapItalic" horiz-adv-x="2048" >
  <font-face 
    font-family="Area Semibold Inktrap Italic"
    font-weight="600"
    font-style="italic"
    font-stretch="normal"
    units-per-em="2048"
    panose-1="0 0 7 0 0 0 0 0 0 0"
    ascent="1638"
    descent="-410"
    x-height="1133"
    cap-height="1597"
    bbox="-1612 -557 2705 2169"
    underline-thickness="102"
    underline-position="-307"
    slope="-10"
    unicode-range="U+0020-25CA"
  />
<missing-glyph horiz-adv-x="1433" 
d="M1145 0h-1055l283 1597h1054zM492 1462l-213 -1198l921 1198h-708zM1237 1325l-913 -1186h702z" />
    <glyph glyph-name=".notdef" horiz-adv-x="1433" 
d="M1145 0h-1055l283 1597h1054zM492 1462l-213 -1198l921 1198h-708zM1237 1325l-913 -1186h702z" />
    <glyph glyph-name=".null" horiz-adv-x="0" 
 />
    <glyph glyph-name="nonmarkingreturn" horiz-adv-x="682" 
 />
    <glyph glyph-name="space" unicode=" " horiz-adv-x="524" 
 />
    <glyph glyph-name="exclam" unicode="!" horiz-adv-x="544" 
d="M299 420h-102l133 1050l22 127h203l-20 -127zM170 -14q-49 0 -80 31.5t-31 78.5q0 62 48.5 109t109.5 47q49 0 80 -31.5t31 -77.5q0 -59 -48 -108t-110 -49z" />
    <glyph glyph-name="quotedbl" unicode="&#x22;" horiz-adv-x="759" 
d="M408 1126h-177l84 471h177zM721 1126h-176l82 471h176z" />
    <glyph glyph-name="numbersign" unicode="#" horiz-adv-x="1476" 
d="M295 0h-162q113 299 193 473q-106 -29 -267 -29l58 150q155 0 241 -21q64 211 152 400q-100 -29 -258 -29l57 150q151 0 250 -21q40 167 170 524h162q-108 -296 -211 -524q210 29 414 0q21 87 53 187.5t54 161.5t65 175h161q-6 -15 -32.5 -86t-38.5 -102t-37 -93
t-50 -120t-55 -123q114 21 275 21l-57 -150q-167 0 -267 29q-33 -187 -137 -400q109 21 268 21l-55 -150q-164 0 -260 29q-41 -176 -152 -473h-161q117 311 192 473q-216 -41 -416 0q-40 -182 -149 -473zM492 573q212 28 415 0q36 179 140 400q-214 -41 -416 0
q-36 -189 -139 -400z" />
    <glyph glyph-name="dollar" unicode="$" horiz-adv-x="1210" 
d="M700 872l58 -18q132 -40 191 -77q136 -83 136 -238q0 -115 -68 -214t-187.5 -159.5t-264.5 -65.5l-33 -182h-73l33 184q-164 13 -271 104.5t-129 262.5l176 55q20 -120 88 -181.5t164 -74.5l80 447l-35 10q-321 85 -321 322q0 166 143.5 294t345.5 134l29 163h74
l-29 -165q150 -15 248.5 -103t109.5 -211l-168 -72q-16 86 -72 145.5t-147 76.5zM434 1090q0 -40 16 -72.5t47 -55t61 -37.5t73 -30l74 418q-115 -4 -193 -68.5t-78 -154.5zM670 694l-76 -430q127 4 211 73.5t84 166.5q0 35 -13.5 63.5t-32 46.5t-51.5 34.5t-58 25t-64 20.5
z" />
    <glyph glyph-name="percent" unicode="%" horiz-adv-x="1757" 
d="M389 768q-106 0 -165.5 77t-59.5 210q0 122 47 231t132 177.5t185 68.5q106 0 166 -78t60 -211q0 -121 -47.5 -230t-132.5 -177t-185 -68zM301 0h-170l1397 1468h162zM412 901q74 0 131 107t57 231q0 77 -25 117.5t-69 40.5q-48 0 -93 -50t-71.5 -128.5t-26.5 -159.5
q0 -77 26 -117.5t71 -40.5zM1296 -29q-106 0 -165.5 77t-59.5 210q0 122 47.5 231t132.5 177.5t185 68.5q106 0 165.5 -78t59.5 -211q0 -121 -47.5 -230t-132.5 -177t-185 -68zM1319 104q74 0 131 107t57 231q0 77 -25 117.5t-69 40.5q-48 0 -92.5 -50t-71 -128.5
t-26.5 -159.5q0 -77 25.5 -117.5t70.5 -40.5z" />
    <glyph glyph-name="ampersand" unicode="&#x26;" horiz-adv-x="1417" 
d="M457 -35q-114 0 -205 37.5t-147 116t-56 186.5q0 296 465 518q-190 186 -190 379q0 114 64.5 213t173.5 157t235 58q157 0 248.5 -89t91.5 -220q0 -276 -422 -490l293 -376q19 59 41.5 115.5t50.5 122t43 102.5l162 -37q-112 -263 -240 -381l301 -375h-231l-183 250
q-198 -287 -495 -287zM659 903q63 46 106 82.5t87.5 85.5t67 103t22.5 112q0 88 -48.5 134t-129.5 46q-107 0 -177.5 -70.5t-70.5 -176.5q0 -77 37 -150t106 -166zM494 133q101 0 194.5 50t202.5 145l-316 415q-149 -103 -203 -151q-130 -118 -130 -244q0 -100 71 -157.5
t181 -57.5z" />
    <glyph glyph-name="quotesingle" unicode="'" horiz-adv-x="448" 
d="M408 1126h-177l84 471h177z" />
    <glyph glyph-name="parenleft" unicode="(" horiz-adv-x="651" 
d="M475 -307h-186q-199 298 -199 692q0 320 141.5 642t393.5 570h186q-248 -245 -389 -568.5t-141 -645.5q0 -392 194 -690z" />
    <glyph glyph-name="parenright" unicode=")" horiz-adv-x="649" 
d="M55 -307h-186q248 247 389 570.5t141 643.5q0 391 -194 690h186q199 -298 199 -692q0 -320 -142.5 -644t-392.5 -568z" />
    <glyph glyph-name="asterisk" unicode="*" horiz-adv-x="823" 
d="M543 1024h-107l37 199l-188 -101l-37 90l196 99l-161 98l69 92l154 -100l31 196h106l-35 -196l189 100l37 -90l-195 -100l160 -99l-70 -90l-151 101z" />
    <glyph glyph-name="plus" unicode="+" horiz-adv-x="1017" 
d="M612 698h299l-24 -149h-301l-56 -313h-155l55 313h-303l27 149h303l55 316h158z" />
    <glyph glyph-name="comma" unicode="," horiz-adv-x="468" 
d="M33 -266h-109q5 7 28 39.5t29.5 41t26 35t30.5 38.5t29 33t35 37.5t37 33.5q-49 6 -73.5 34.5t-24.5 69.5q0 61 48.5 108.5t111.5 47.5q47 0 77.5 -31t30.5 -78q0 -48 -43 -109.5t-233 -299.5z" />
    <glyph glyph-name="hyphen" unicode="-" horiz-adv-x="823" 
d="M700 547h-585l26 153h588z" />
    <glyph glyph-name="period" unicode="." horiz-adv-x="489" 
d="M160 -14q-49 0 -80 31.5t-31 78.5q0 62 47.5 109t110.5 47q47 0 77.5 -31.5t30.5 -77.5q0 -61 -47 -109t-108 -48z" />
    <glyph glyph-name="slash" unicode="/" horiz-adv-x="886" 
d="M127 -135h-172l870 1773h172z" />
    <glyph glyph-name="zero" unicode="0" horiz-adv-x="1433" 
d="M608 -35q-223 0 -349 163.5t-126 449.5q0 128 26.5 257.5t74.5 245.5t119 217t155 174.5t187.5 115.5t213.5 42q222 0 347.5 -164.5t125.5 -451.5q0 -128 -26.5 -257t-74 -244.5t-118 -216.5t-154.5 -174t-187.5 -115t-213.5 -42zM639 143q113 0 215 76t172 198.5
t111 277t41 309.5q0 216 -78 332t-219 116q-90 0 -175 -49t-151 -133.5t-116 -193t-76.5 -233.5t-26.5 -249q0 -216 81 -333.5t222 -117.5z" />
    <glyph glyph-name="one" unicode="1" horiz-adv-x="800" 
d="M494 0h-189q143 823 256 1298q-184 -219 -428 -256l33 191q164 33 284 134.5t142 229.5h184z" />
    <glyph glyph-name="two" unicode="2" horiz-adv-x="1273" 
d="M1071 0h-1048l2 18q16 62 36 116t40.5 99t51.5 88t57.5 76t71 71.5t79 66t95 68t105.5 69t123 76.5q39 24 67 42t72.5 50t76.5 59.5t68.5 67t59 77t38 83.5t15.5 92q0 109 -74.5 174t-201.5 65q-171 0 -294 -112.5t-155 -294.5l-170 28q43 242 225 396.5t429 154.5
q198 0 318 -103t120 -280q0 -311 -404 -569q-56 -36 -152 -93.5t-147 -90.5t-117 -86t-113.5 -115t-86.5 -141q141 13 305 19t255 6.5t284 0.5z" />
    <glyph glyph-name="three" unicode="3" horiz-adv-x="1310" 
d="M543 -35q-205 0 -345.5 100t-160.5 265l178 84q19 -115 111.5 -195t246.5 -80q177 0 294.5 105t117.5 250q0 114 -82.5 179.5t-245.5 65.5h-159l26 156h164q163 0 272 95t109 231q0 112 -77 174.5t-201 62.5q-140 0 -249.5 -78.5t-154.5 -218.5l-164 37q59 191 229 311.5
t384 120.5q189 0 313.5 -95t124.5 -259q0 -158 -107.5 -281.5t-267.5 -148.5l-4 -29q142 -15 217.5 -92.5t75.5 -206.5q0 -104 -48.5 -204t-132.5 -177t-206 -124.5t-258 -47.5z" />
    <glyph glyph-name="four" unicode="4" horiz-adv-x="1333" 
d="M934 0h-186q46 250 98 401q-401 -31 -832 -8l27 158l991 1046h182q-121 -695 -215 -1077q106 25 261 25l-29 -166q-158 0 -252 22q0 -153 -45 -401zM223 528q340 31 643 -8q36 412 150 879q-334 -387 -793 -871z" />
    <glyph glyph-name="five" unicode="5" horiz-adv-x="1312" 
d="M535 -35q-198 0 -343.5 100t-175.5 271l172 94q30 -142 134 -218.5t241 -76.5q95 0 181 37.5t146.5 99t96 142t35.5 164.5q0 134 -85 214t-224 80q-117 0 -217 -56t-168 -148l-146 53l342 876h789l-31 -167q-154 0 -228 0.5t-205 7.5t-243 20q-37 -162 -92.5 -304.5
t-146.5 -307.5h24q76 87 178 133.5t215 46.5q67 0 130 -15.5t120 -49t99 -81t67 -117t25 -151.5q0 -97 -33.5 -193t-96.5 -177t-147 -143.5t-191 -98t-222 -35.5z" />
    <glyph glyph-name="six" unicode="6" horiz-adv-x="1368" 
d="M600 -35q-225 0 -352 142t-127 413q0 162 45 325t129.5 303t196 248.5t255 171t295.5 62.5q229 0 353 -127l-133 -137q-103 92 -265 92q-230 0 -413 -192.5t-275 -536.5h29q77 148 211.5 228.5t281.5 80.5q190 0 316.5 -120t126.5 -316q0 -122 -52 -238t-140.5 -204
t-215 -141.5t-266.5 -53.5zM637 135q113 0 214.5 61t162.5 163t61 216q0 136 -87 220t-220 84q-115 0 -218 -63t-163.5 -164.5t-60.5 -211.5q0 -135 88.5 -220t222.5 -85z" />
    <glyph glyph-name="seven" unicode="7" horiz-adv-x="1191" 
d="M389 0h-199q27 153 104.5 341t192.5 385t276.5 394t340.5 348l-10 23q-144 -19 -322.5 -28t-275 -10t-314.5 -1l29 168h1126l-28 -174q-174 -135 -334.5 -323t-278 -382.5t-198 -388t-109.5 -352.5z" />
    <glyph glyph-name="eight" unicode="8" horiz-adv-x="1343" 
d="M567 -35q-219 0 -355 108.5t-136 288.5q0 169 117.5 300.5t298.5 160.5l4 33q-111 32 -166.5 103.5t-55.5 173.5q0 95 46 185.5t123.5 159t187 110.5t229.5 42q191 0 312.5 -98.5t121.5 -263.5q0 -147 -96 -261t-250 -151l-6 -33q132 -23 206.5 -107.5t74.5 -211.5
q0 -105 -51 -203.5t-137.5 -172.5t-209 -118.5t-258.5 -44.5zM735 911q151 0 258 99.5t107 228.5q0 105 -74.5 167t-194.5 62q-150 0 -257 -94t-107 -225q0 -107 75.5 -172.5t192.5 -65.5zM594 131q182 0 307 114.5t125 268.5q0 119 -81.5 187.5t-231.5 68.5
q-190 0 -311 -104t-121 -260q0 -130 87 -202.5t226 -72.5z" />
    <glyph glyph-name="nine" unicode="9" horiz-adv-x="1388" 
d="M508 -35q-140 0 -260.5 59t-192.5 169l133 129q127 -191 340 -191q156 0 286.5 98t217 267.5t125.5 390.5h-29q-71 -174 -205.5 -265.5t-293.5 -91.5q-122 0 -222.5 52t-161.5 155t-61 238q0 124 52.5 242.5t142 209.5t219 147t274.5 56q102 0 184.5 -28.5t149.5 -90
t104.5 -171.5t37.5 -261q0 -130 -28 -263.5t-78.5 -256.5t-126.5 -231.5t-167 -189t-204.5 -127t-235.5 -46.5zM686 688q118 0 223.5 69t167.5 178.5t62 227.5q0 140 -87.5 219.5t-220.5 79.5q-120 0 -223.5 -65t-163 -171.5t-59.5 -226.5q0 -144 85.5 -227.5t215.5 -83.5z
" />
    <glyph glyph-name="colon" unicode=":" horiz-adv-x="538" 
d="M328 893q-49 0 -80 31.5t-31 79.5q0 61 48.5 108t111.5 47q46 0 77 -31t31 -77q0 -60 -48 -109t-109 -49zM168 -14q-49 0 -80 31.5t-31 78.5q0 62 48 109t110 47q49 0 80 -30.5t31 -76.5q0 -60 -48.5 -109.5t-109.5 -49.5z" />
    <glyph glyph-name="semicolon" unicode=";" horiz-adv-x="589" 
d="M362 893q-49 0 -79.5 32t-30.5 79q0 62 47.5 108.5t108.5 46.5q49 0 79.5 -31t30.5 -77q0 -59 -47.5 -108.5t-108.5 -49.5zM80 -272h-113l185 270q-29 12 -45.5 38.5t-16.5 57.5q0 63 48.5 110.5t111.5 47.5q47 0 77.5 -31t30.5 -76q0 -49 -46.5 -118t-231.5 -299z" />
    <glyph glyph-name="less" unicode="&#x3c;" horiz-adv-x="1030" 
d="M852 432l-25 -145l-698 239l33 187l780 237l-24 -143l-621 -189z" />
    <glyph glyph-name="equal" unicode="=" horiz-adv-x="1064" 
d="M948 754h-766l29 149h764zM874 328h-765l26 149h766z" />
    <glyph glyph-name="greater" unicode="&#x3e;" horiz-adv-x="1032" 
d="M889 526l-780 -239l24 145l623 186l-557 189l26 143l697 -237z" />
    <glyph glyph-name="question" unicode="?" horiz-adv-x="1138" 
d="M565 451h-184q0 27 6 67q11 58 34.5 104.5t66.5 88t86.5 74t115.5 77.5q275 180 275 373q0 103 -70.5 163t-179.5 60q-132 0 -238 -86t-131 -229q-3 -11 -6 -58l-166 31q4 44 6 53q36 205 203 333t375 128q113 0 205.5 -40.5t149 -122.5t56.5 -193q0 -54 -14.5 -107
t-35.5 -95t-55.5 -85t-63 -72t-69.5 -62.5t-64.5 -50.5t-57.5 -40q-41 -28 -50.5 -34.5t-43.5 -31t-44 -35t-33.5 -34t-32.5 -40t-19.5 -40.5t-14.5 -49q-6 -42 -6 -47zM414 -14q-49 0 -80 31.5t-31 78.5q0 62 47.5 109t108.5 47q47 0 78.5 -31t31.5 -78q0 -62 -47 -109.5
t-108 -47.5z" />
    <glyph glyph-name="at" unicode="@" horiz-adv-x="1957" 
d="M793 -195q-173 0 -308.5 49.5t-222 137.5t-131.5 206t-45 259q0 143 46 288.5t126.5 274.5t195 241.5t246.5 194t286 128t308 46.5q197 0 348 -72t237.5 -214t86.5 -336q0 -143 -48 -285.5t-126.5 -251.5t-187.5 -177.5t-224 -68.5q-113 0 -153 68.5t-6 195.5h-17
q-181 -251 -426 -251q-134 0 -208 82.5t-74 216.5q0 91 35 186.5t96.5 178.5t138.5 149.5t168 104.5t178 38q102 0 166.5 -58.5t81.5 -179.5h14q5 100 49 211h136l-201 -579q-41 -121 -31 -177q15 -68 94 -69q97 0 189.5 95t149.5 244.5t57 303.5q0 244 -145.5 381
t-399.5 137q-137 0 -271.5 -41.5t-247.5 -113.5t-210 -171.5t-164 -213t-105 -240t-38 -250.5q0 -252 152.5 -395.5t440.5 -143.5q314 0 570 168l51 -102q-145 -100 -319 -147.5t-338 -47.5zM850 377q107 0 208.5 74.5t161.5 185.5t60 219q0 92 -47.5 144.5t-138.5 52.5
q-107 0 -208 -73.5t-161.5 -185t-60.5 -219.5q0 -93 47.5 -145.5t138.5 -52.5z" />
    <glyph glyph-name="A" unicode="A" horiz-adv-x="1525" 
d="M121 0h-201l920 1597h215l352 -1597h-203q-1 3 -10.5 47t-11.5 51.5t-10.5 48.5t-11 54t-9.5 50.5t-9.5 56t-7.5 52t-7.5 57t-5 53t-3.5 56.5l-18 19q-201 -29 -340 -29q-138 0 -336 29l-27 -21q-78 -175 -276 -524zM492 686l12 -20q159 28 291 28q130 0 258 -28l16 18
q-112 406 -129 739h-53q-149 -355 -395 -737z" />
    <glyph glyph-name="B" unicode="B" horiz-adv-x="1458" 
d="M752 0h-648l283 1597h598q210 0 322 -97.5t112 -250.5q0 -151 -100 -265.5t-266 -152.5l-6 -34q296 -51 296 -301q0 -98 -45.5 -189t-123.5 -158.5t-188.5 -108t-233.5 -40.5zM424 877l18 -23q67 16 139 24.5t115.5 9.5t120.5 1q176 0 285.5 87t109.5 216
q0 112 -85 171.5t-224 59.5h-41.5h-44t-40 0.5t-45 2t-42.5 3.5t-47.5 5.5t-45 8.5t-50.5 11l-29 -18q-9 -269 -94 -559zM295 168l20 -25q156 31 410 31q190 0 302 89t112 220q0 114 -87.5 176t-232.5 62q-82 0 -128.5 1t-122 9t-142.5 23l-27 -21q-20 -307 -104 -565z" />
    <glyph glyph-name="C" unicode="C" horiz-adv-x="1712" 
d="M807 -35q-312 0 -497 180.5t-185 487.5q0 154 48 303t136.5 273t206 219t265.5 148.5t306 53.5q159 0 290.5 -53t222.5 -162.5t116 -261.5l-186 -70q-38 172 -165 270.5t-310 98.5q-151 0 -287.5 -68t-232 -179t-151.5 -255t-56 -293q0 -130 43 -231t117 -161.5t166 -91
t196 -30.5q114 0 218.5 36.5t186 100.5t145 144.5t107.5 175.5l162 -61q-130 -265 -353.5 -419.5t-508.5 -154.5z" />
    <glyph glyph-name="D" unicode="D" horiz-adv-x="1642" 
d="M700 0h-596l283 1597h578q165 0 288 -44t198 -126.5t111.5 -193t36.5 -250.5q0 -150 -41 -294.5t-120 -268.5t-186.5 -218.5t-250 -148t-301.5 -53.5zM295 168l20 -25q173 31 381 31q162 0 296.5 62.5t222 168t135 241.5t47.5 286q0 130 -35.5 225.5t-102.5 153
t-156.5 85t-203.5 27.5q-83 0 -125.5 1t-105.5 8t-121 22l-29 -18q-53 -641 -223 -1268z" />
    <glyph glyph-name="E" unicode="E" horiz-adv-x="1339" 
d="M1141 0h-1037l283 1597h1016l-33 -174h-127.5h-142t-126 1.5t-146 5t-132 9.5t-149.5 15l-29 -18q-6 -260 -92 -545l14 -23q139 19 291.5 28.5t246 11t261.5 1.5l-33 -182q-168 0 -260.5 1.5t-241 11t-278.5 28.5l-25 -20q-18 -308 -106 -580l20 -25q146 16 310 24.5
t265 9.5t281 1z" />
    <glyph glyph-name="F" unicode="F" horiz-adv-x="1273" 
d="M293 0h-189l283 1597h995l-32 -180q-172 0 -267.5 1t-248.5 10t-287 26l-29 -18q-9 -293 -102 -568l16 -20q138 18 288.5 27t242 10.5t254.5 1.5l-33 -180q-163 0 -253.5 1.5t-237.5 11t-277 28.5l-25 -23q-18 -286 -98 -725z" />
    <glyph glyph-name="G" unicode="G" horiz-adv-x="1789" 
d="M784 -35q-193 0 -341 76t-234 227.5t-86 358.5q0 194 75.5 377.5t203.5 321t308 221t377 83.5q244 0 418.5 -126t210.5 -351l-186 -70q-38 172 -164.5 270.5t-310.5 98.5q-151 0 -288 -68t-232.5 -178.5t-152 -254.5t-56.5 -294q0 -106 29.5 -193t79 -146t117 -99
t141.5 -58t155 -18q222 0 405.5 139.5t290.5 381.5l-16 24q-255 -55 -565 -55l28 160h707l-139 -793h-152q2 12 8 58.5t10 71.5t12 66.5t19.5 80.5t26.5 79l-31 6q-236 -397 -668 -397z" />
    <glyph glyph-name="H" unicode="H" horiz-adv-x="1656" 
d="M293 0h-189l283 1597h188q-31 -175 -45.5 -253.5t-44 -212t-61.5 -246.5l20 -23q482 55 875 0l27 23q26 290 102 712h190l-282 -1597h-191q75 434 154 725l-23 23q-423 -68 -870 0l-29 -23q-3 -39 -7 -79.5t-7.5 -73.5t-9 -76.5t-9 -70t-11 -73.5t-11 -67.5t-12.5 -72.5
t-11.5 -68t-13 -73.5t-12.5 -70.5z" />
    <glyph glyph-name="I" unicode="I" horiz-adv-x="595" 
d="M293 0h-189l283 1597h188z" />
    <glyph glyph-name="J" unicode="J" horiz-adv-x="1220" 
d="M461 -35q-104 0 -189.5 29t-151.5 92.5t-88 163.5t1 242l8 47l188 24l-8 -41q-17 -103 -4 -175.5t54 -118t94 -66.5t118 -21q46 0 86 10.5t70.5 27t57 43t45.5 51.5t35.5 60.5t26.5 62.5t19.5 64.5t14 59t10.5 53.5l180 1024h191l-172 -981q-37 -202 -90 -319
q-149 -332 -496 -332z" />
    <glyph glyph-name="K" unicode="K" horiz-adv-x="1390" 
d="M293 0h-189l283 1597h188q-3 -18 -15.5 -91.5t-16.5 -95.5t-16 -87.5t-18.5 -95t-18.5 -88t-22 -97t-24 -91.5t-29 -102t-32 -99h29q387 372 917 847h225q-32 -29 -139.5 -126t-162 -146t-146.5 -131t-174 -152t-164 -137l-4 -28q237 -339 545 -877h-232
q-289 485 -430 768h-20q-136 -146 -250 -221q-22 -203 -84 -547z" />
    <glyph glyph-name="L" unicode="L" horiz-adv-x="1202" 
d="M1079 0h-975l283 1597h188q-58 -326 -85 -476t-84 -435t-111 -518l20 -25q135 16 287.5 24.5t246.5 9.5t261 1z" />
    <glyph glyph-name="M" unicode="M" horiz-adv-x="2068" 
d="M297 0h-193l283 1597h205q242 -709 369 -1357h34q374 659 848 1357h207l-283 -1597h-192q8 46 41 232.5t48.5 268.5t46.5 236t64 286t72 267h-28q-120 -198 -259.5 -420t-304 -480t-247.5 -390h-146q-31 113 -108.5 385t-140 499.5t-107.5 405.5h-27
q-7 -112 -19.5 -233.5t-23.5 -209t-33 -226t-32.5 -200t-38 -220t-35.5 -201.5z" />
    <glyph glyph-name="N" unicode="N" horiz-adv-x="1685" 
d="M293 0h-189l283 1597h174q410 -713 682 -1331h27q25 225 63.5 484t62.5 399.5t79 447.5h190l-283 -1597h-174q-213 365 -376.5 670t-311.5 635h-26q-12 -115 -28 -239t-28.5 -212t-36 -228.5t-33.5 -200.5t-39 -221.5t-36 -203.5z" />
    <glyph glyph-name="O" unicode="O" horiz-adv-x="1800" 
d="M795 -35q-193 0 -346 83.5t-239.5 238t-86.5 354.5q0 189 78.5 370t208 317t308.5 219t369 83q298 0 485 -190t187 -490q0 -189 -78.5 -369.5t-208.5 -315.5t-308.5 -217.5t-368.5 -82.5zM827 143q142 0 276.5 66t232.5 173.5t157 250.5t59 291q0 233 -138.5 380.5
t-356.5 147.5q-112 0 -222 -42t-200.5 -117t-160 -172t-108 -213.5t-38.5 -235.5q0 -236 141 -382.5t358 -146.5z" />
    <glyph glyph-name="P" unicode="P" horiz-adv-x="1370" 
d="M293 0h-189l283 1597h576q24 0 45 -1t70.5 -8.5t89.5 -21t89 -42.5t81.5 -68.5t55.5 -103.5t23 -144q0 -114 -43.5 -219.5t-121 -187t-194.5 -130t-255 -48.5q-100 0 -151.5 1.5t-127 12.5t-139.5 33q-19 -265 -92 -670zM406 776l20 -20q64 18 135 27t113 10.5t114 1.5
q186 0 306 100.5t120 265.5q0 135 -85.5 198.5t-233.5 63.5q-75 0 -116.5 1t-108 8.5t-123.5 21.5l-29 -18q-17 -325 -112 -660z" />
    <glyph glyph-name="Q" unicode="Q" horiz-adv-x="1814" 
d="M1554 -100l-155 -115q-42 62 -66.5 101t-54.5 96.5t-49 113.5q-195 -131 -428 -131q-196 0 -350 83.5t-241 238.5t-87 356q0 127 36 252t99.5 233.5t154 201.5t196.5 159t231 103.5t254 37.5q200 0 355.5 -87t240 -241t84.5 -350q0 -231 -115.5 -441t-317.5 -345
q19 -17 36.5 -34.5t36 -39.5t30 -36t31 -41.5t26 -37t28.5 -41.5t25 -36zM838 131q152 0 321 78q-53 48 -107 115t-86.5 114t-86.5 131l155 113q162 -241 232 -416q138 125 221.5 302t83.5 356q0 234 -140.5 381t-367.5 147q-146 0 -282.5 -65t-236.5 -172t-160 -251
t-60 -296q0 -241 143.5 -389t370.5 -148z" />
    <glyph glyph-name="R" unicode="R" horiz-adv-x="1423" 
d="M293 0h-189l283 1597h576q22 0 42 -1t69.5 -8.5t89.5 -21t89.5 -43t83 -70t57 -105.5t23.5 -146q0 -217 -146 -368t-382 -168l-4 -27q34 -51 70 -110t59.5 -99t62 -115t51 -99.5t57 -114t50.5 -101.5h-213l-309 627q-192 4 -328 43q-17 -252 -92 -670zM403 770l21 -22
q139 32 369 32q182 0 300.5 109t118.5 270q0 133 -88 199.5t-227 66.5q-216 0 -350 29l-29 -18q-16 -319 -115 -666z" />
    <glyph glyph-name="S" unicode="S" horiz-adv-x="1320" 
d="M578 -35q-79 0 -151 16t-138 52.5t-115.5 90t-83 133t-41.5 177.5l189 64q17 -179 117.5 -269t254.5 -90q169 0 284.5 94.5t115.5 225.5q0 24 -5 45t-11 37.5t-20.5 32.5t-24 26.5t-31 22.5t-32 18.5t-37.5 16.5t-37 13t-39.5 12.5t-37.5 12.5l-139 47q-42 13 -74.5 26
t-79 35.5t-80.5 51t-65.5 66t-48.5 89t-17 111.5q0 99 46.5 191.5t126.5 162.5t194 112t240 42q210 0 334.5 -106.5t140.5 -272.5l-185 -71q-21 128 -106 202t-221 74q-153 0 -259 -85t-106 -202q0 -46 20.5 -86t46.5 -64.5t70 -48t70.5 -33.5t67.5 -24l149 -51
q132 -45 180 -69q173 -89 182 -261q1 -11 1 -22q0 -102 -49.5 -200.5t-134 -174.5t-206 -123t-255.5 -47z" />
    <glyph glyph-name="T" unicode="T" horiz-adv-x="1296" 
d="M643 0h-190q5 29 33.5 188.5t38.5 212.5t35.5 194.5t41.5 221t40.5 200.5t47.5 225.5t47 207.5q-209 -27 -561 -27l33 174h1243l-31 -174q-350 0 -549 27q-69 -544 -229 -1450z" />
    <glyph glyph-name="U" unicode="U" horiz-adv-x="1538" 
d="M662 -35q-101 0 -182.5 21.5t-137 61t-94.5 96t-55.5 126t-18.5 151t16 171.5l179 1005h190l-176 -991q-39 -222 38 -343.5t273 -121.5q197 0 318 123.5t159 341.5l175 991h190l-176 -1005q-19 -102 -52.5 -190t-91 -170t-133 -140t-183.5 -92.5t-238 -34.5z" />
    <glyph glyph-name="V" unicode="V" horiz-adv-x="1525" 
d="M772 0h-217l-352 1597h200q193 -881 275 -1421h41q254 515 770 1421h201z" />
    <glyph glyph-name="W" unicode="W" horiz-adv-x="2336" 
d="M664 0h-236l-215 1597h211q58 -431 92.5 -735t56.5 -651h27q229 527 643 1386h215q38 -282 61 -459t50.5 -437t44.5 -498h28q261 629 637 1394h211l-782 -1597h-231q-119 801 -150 1360h-35q-273 -661 -628 -1360z" />
    <glyph glyph-name="X" unicode="X" horiz-adv-x="1345" 
d="M141 0h-225q44 52 176 206.5t188.5 220.5t152.5 175t175 197l4 28q-148 265 -401 770h221q195 -386 295 -655h27q213 293 528 655h221q-449 -522 -676 -770l-6 -28q34 -62 72 -134.5t64.5 -123t72.5 -143t62.5 -125.5t71 -143.5t63.5 -129.5h-223q-189 395 -295 684h-27
q-88 -121 -190.5 -252.5t-164 -206.5t-186.5 -225z" />
    <glyph glyph-name="Y" unicode="Y" horiz-adv-x="1415" 
d="M702 0h-190q83 437 117 575q-200 464 -418 1022h205q75 -193 111.5 -289t95.5 -268.5t100 -320.5h27q94 151 214 323.5t185 261.5t217 293h205q-58 -76 -218.5 -290.5t-291.5 -386t-268 -345.5q-28 -229 -91 -575z" />
    <glyph glyph-name="Z" unicode="Z" horiz-adv-x="1349" 
d="M1188 0h-1227l27 158q549 600 1245 1290l-8 27q-483 -52 -977 -52l31 174h1173l-27 -155q-476 -515 -1245 -1284l10 -27q452 47 1029 47z" />
    <glyph glyph-name="bracketleft" unicode="[" horiz-adv-x="714" 
d="M502 -362h-475l346 1959h473l-27 -161q-70 0 -103.5 0.5t-96 7.5t-117.5 20q-105 -816 -297 -1679q129 27 327 27z" />
    <glyph glyph-name="backslash" unicode="\" horiz-adv-x="874" 
d="M678 -135h-170l-244 1773h170z" />
    <glyph glyph-name="bracketright" unicode="]" horiz-adv-x="714" 
d="M362 -362h-475l31 174q199 0 320 -27q109 848 297 1679q-126 -28 -330 -28l28 161h474z" />
    <glyph glyph-name="asciicircum" unicode="^" horiz-adv-x="894" 
d="M338 1034h-148l361 563h168l155 -563h-147q-80 293 -92 436h-49q-75 -164 -248 -436z" />
    <glyph glyph-name="underscore" unicode="_" horiz-adv-x="1044" 
d="M864 -231h-954l24 147h955z" />
    <glyph glyph-name="a" unicode="a" horiz-adv-x="1181" 
d="M346 -35q-66 0 -121.5 15t-99.5 45.5t-69 81.5t-25 118q0 80 36.5 146.5t101.5 113.5t146.5 79t180.5 52q25 5 66.5 12.5t63.5 11.5t55.5 11.5t51.5 13t43.5 14.5t38.5 18.5t29 22.5t23.5 27.5t12.5 33.5t5 42q0 85 -59.5 139t-161.5 54q-104 0 -189.5 -58t-136.5 -163
l-160 57q51 107 138.5 179.5t183 103t198.5 30.5q69 0 129 -14t110 -43.5t81.5 -75t44.5 -108t-2 -142.5l-76 -428q-35 -203 -24 -354h-181q-8 41 0 104.5t41 141.5h-26q-160 -281 -449 -281zM412 109q79 0 153 33t125.5 83.5t85.5 109t43 111.5l27 150q-52 -40 -105.5 -58
t-167.5 -42q-344 -70 -344 -244q0 -69 49.5 -106t133.5 -37z" />
    <glyph glyph-name="b" unicode="b" horiz-adv-x="1363" 
d="M653 -35q-136 0 -231 70t-131 201h-27q2 -24 2.5 -48t0 -40t-3.5 -41.5t-4.5 -34.5t-6.5 -38t-6 -34h-174l288 1638h179q-4 -26 -18 -109.5t-21 -124t-22 -120.5t-27 -136.5t-29.5 -131.5t-36.5 -144h27q177 293 462 293q192 0 305 -128t113 -341q0 -139 -51 -273
t-136 -234.5t-204 -162t-248 -61.5zM647 133q122 0 227.5 74.5t166.5 195t61 254.5q0 154 -82.5 248t-218.5 94q-122 0 -229.5 -74t-170.5 -194.5t-63 -253.5q0 -158 86 -251t223 -93z" />
    <glyph glyph-name="c" unicode="c" horiz-adv-x="1239" 
d="M551 -35q-218 0 -347.5 128t-129.5 351q0 110 33 217t94.5 197.5t144.5 159.5t189.5 108t222.5 39q109 0 198 -32.5t156 -108.5t90 -188l-182 -68q-21 113 -99 172t-192 59q-130 0 -238 -76t-167.5 -196.5t-59.5 -253.5q0 -158 87.5 -249t234.5 -91q130 0 239 72.5
t179 195.5l153 -61q-96 -181 -257.5 -278t-348.5 -97z" />
    <glyph glyph-name="d" unicode="d" horiz-adv-x="1368" 
d="M502 -35q-197 0 -312.5 127.5t-115.5 343.5q0 187 85 354.5t233.5 271t320.5 103.5q287 0 354 -293h27q29 308 112 766h178l-225 -1284q-23 -128 -27.5 -210.5t1.5 -143.5h-179q-5 66 1 118.5t32 129.5h-26q-85 -145 -205 -214t-254 -69zM565 133q122 0 229.5 74.5
t170.5 195.5t63 254q0 155 -86 248.5t-223 93.5q-123 0 -228 -75t-165 -196t-60 -255q0 -154 81.5 -247t217.5 -93z" />
    <glyph glyph-name="e" unicode="e" horiz-adv-x="1261" 
d="M545 -35q-214 0 -343.5 128.5t-129.5 344.5q0 191 90.5 358.5t247.5 268t340 100.5q61 0 117.5 -12t113 -39t98 -71t72 -108t35.5 -150t-12 -197l-13 -68h-901q-24 -184 64.5 -289.5t253.5 -105.5q125 0 231 72t174 188l156 -63q-90 -164 -249 -260.5t-345 -96.5z
M297 684h707q10 68 -1.5 124t-38.5 93.5t-66.5 63t-84 36.5t-94.5 11q-144 0 -258.5 -92.5t-163.5 -235.5z" />
    <glyph glyph-name="f" unicode="f" horiz-adv-x="731" 
d="M303 0h-178q4 20 20.5 114t22 125t21.5 117t25 129.5t24.5 121.5t28 133t29 124t32.5 133q-86 -22 -203 -22l29 158q122 0 192 -23q-13 80 4 174q36 189 128 289t263 100q124 0 199 -47l-27 -160q-81 52 -165 52q-37 0 -66.5 -6.5t-49.5 -16t-36.5 -28.5t-25.5 -34.5
t-17.5 -44.5t-12.5 -48.5t-10 -55.5q-19 -110 -59 -174q127 23 344 23l-29 -158q-212 0 -333 22q-34 -340 -150 -997z" />
    <glyph glyph-name="g" unicode="g" horiz-adv-x="1366" 
d="M471 -483q-87 0 -159 17t-134 54t-104.5 102.5t-59.5 155.5l172 58q48 -234 312 -234q353 0 438 432q1 6 4 22t4 21t4 18.5t5 20t5.5 18.5t7.5 21.5t9.5 21.5t11.5 25h-26q-86 -135 -203.5 -201.5t-245.5 -66.5q-194 0 -314 124t-120 339q0 184 89 346.5t234 258
t306 95.5q142 0 234.5 -77t121.5 -216h27q3 92 30 261h176l-176 -1000q-24 -136 -70 -241.5t-106 -175.5t-137 -115t-159 -64.5t-177 -19.5zM571 170q90 0 175.5 42.5t147.5 112t100 160.5t38 185q0 148 -88 238.5t-225 90.5q-120 0 -224.5 -70.5t-164.5 -184.5t-60 -240
q0 -149 83 -241.5t218 -92.5z" />
    <glyph glyph-name="h" unicode="h" horiz-adv-x="1298" 
d="M250 0h-178l288 1638h179q-83 -451 -166 -741h28q172 268 441 268q64 0 119 -15.5t102.5 -49t76 -86.5t39 -128.5t-7.5 -174.5l-127 -711h-178l111 633q33 178 -28 272t-189 94q-150 0 -261.5 -110.5t-140.5 -270.5z" />
    <glyph glyph-name="i" unicode="i" horiz-adv-x="518" 
d="M403 1380q-49 0 -79.5 32t-30.5 79q0 61 47.5 107.5t110.5 46.5q49 0 79.5 -30.5t30.5 -76.5q0 -62 -48.5 -110t-109.5 -48zM250 0h-178l198 1133h181z" />
    <glyph glyph-name="j" unicode="j" horiz-adv-x="518" 
d="M406 1380q-49 0 -80 32t-31 79q0 60 47.5 107t110.5 47q49 0 78.5 -30t29.5 -77q0 -61 -46.5 -109.5t-108.5 -48.5zM-168 -483q-126 0 -211 53l29 160q86 -54 174 -54q40 0 73.5 12.5t56 29.5t42 48t30 53t21 61.5t14 57t9.5 54.5l200 1141h181l-203 -1147
q-29 -163 -64 -243q-100 -226 -352 -226z" />
    <glyph glyph-name="k" unicode="k" horiz-adv-x="1091" 
d="M250 0h-178l288 1638h179q-94 -551 -147 -788q-29 -130 -60 -252h28q175 172 273.5 264t302.5 271h217l-526 -449q25 -40 52.5 -85t48.5 -80t52.5 -90t47 -82t51 -90.5t46 -82.5t50 -90.5t45.5 -83.5h-207q-210 389 -303 580q-96 -113 -207 -187q-8 -142 -53 -393z" />
    <glyph glyph-name="l" unicode="l" horiz-adv-x="518" 
d="M250 0h-178l288 1638h179z" />
    <glyph glyph-name="m" unicode="m" horiz-adv-x="2052" 
d="M250 0h-178l198 1133h176q0 -1 -5.5 -30t-7.5 -37t-8.5 -35t-12.5 -43.5t-16.5 -41.5t-22.5 -49h28q90 139 203.5 203.5t231.5 64.5q58 0 108 -15t93.5 -47.5t69 -93t26.5 -143.5h28q172 299 441 299q78 0 142.5 -25t115 -79t67 -140.5t-1.5 -209.5l-125 -711h-180
l111 633q33 179 -25.5 272.5t-181.5 93.5q-143 0 -252.5 -111.5t-138.5 -269.5l-109 -618h-178l112 633q31 178 -27.5 272t-180.5 94q-143 0 -253 -111.5t-139 -269.5z" />
    <glyph glyph-name="n" unicode="n" horiz-adv-x="1298" 
d="M250 0h-178l198 1133h176q0 -2 -4 -20.5t-5 -23t-4.5 -22t-6 -25.5t-7 -25t-8.5 -28.5t-10 -28t-13 -32t-15 -31.5h28q172 268 443 268q81 0 146.5 -24.5t116 -78.5t66.5 -140t-2 -211l-127 -711h-178l111 633q33 179 -28.5 272.5t-192.5 93.5q-148 0 -258.5 -111
t-139.5 -270z" />
    <glyph glyph-name="o" unicode="o" horiz-adv-x="1312" 
d="M551 -35q-220 0 -348.5 130t-128.5 351q0 137 52 267t142 230t220 161t276 61q220 0 348.5 -130t128.5 -351q0 -137 -52 -267t-141.5 -230t-219.5 -161t-277 -61zM582 133q131 0 240 75t169 195.5t60 255.5q0 156 -85 248t-231 92q-100 0 -188.5 -45t-149 -119
t-96 -168.5t-35.5 -193.5q0 -157 84.5 -248.5t231.5 -91.5z" />
    <glyph glyph-name="p" unicode="p" horiz-adv-x="1363" 
d="M170 -451h-178l278 1584h176q-27 -153 -69 -259h26q187 291 469 291q190 0 305 -126t115 -341q0 -188 -86 -357t-234 -272.5t-319 -103.5q-135 0 -228 70t-126 207h-29q-4 -54 -9 -105.5t-12.5 -109.5t-12.5 -95t-16.5 -103t-15.5 -90t-17.5 -100t-16.5 -90zM647 133
q122 0 227.5 75t165.5 195.5t60 253.5q0 155 -81.5 248.5t-217.5 93.5q-122 0 -229.5 -74t-170.5 -195t-63 -253q0 -155 86.5 -249.5t222.5 -94.5z" />
    <glyph glyph-name="q" unicode="q" horiz-adv-x="1366" 
d="M1018 -451h-180q5 29 27.5 154t33.5 182.5t34.5 160.5t49.5 192h-29q-91 -138 -209 -205.5t-249 -67.5q-190 0 -306 128t-116 345q0 187 85.5 354.5t234 270t321.5 102.5q137 0 231.5 -70.5t130.5 -213.5h27q-2 27 -2 54t0.5 45t3 44t4 36.5l5.5 38.5t5 34h176zM565 133
q123 0 231 74t171 194.5t63 253.5q0 157 -86.5 250.5t-224.5 93.5q-122 0 -227 -75t-165.5 -196t-60.5 -255q0 -154 81.5 -247t217.5 -93z" />
    <glyph glyph-name="r" unicode="r" horiz-adv-x="851" 
d="M250 0h-178l198 1133h176q-3 -15 -9.5 -55t-11 -64t-17 -67t-29.5 -87h27q69 149 176.5 227t230.5 78q72 0 121 -20l-37 -197q-58 25 -139 25q-87 0 -161 -40.5t-124.5 -107.5t-83 -144.5t-47.5 -160.5z" />
    <glyph glyph-name="s" unicode="s" horiz-adv-x="1019" 
d="M424 -35q-172 0 -284.5 87t-131.5 231l176 55q24 -104 99.5 -162.5t173.5 -58.5q105 0 181.5 59t76.5 143q0 35 -14 60.5t-41.5 42t-54.5 27t-65 22.5q-9 3 -14 4l-106 33q-109 35 -162 74q-103 77 -104 204q0 154 130.5 266.5t317.5 112.5q152 0 249.5 -77.5
t115.5 -200.5l-179 -58q-15 81 -71 135t-150 54t-160.5 -56t-66.5 -133q0 -32 14.5 -59t33 -44t51.5 -33.5t55 -24t59 -19.5l94 -28q30 -9 35.5 -11t36 -13t40.5 -17t36.5 -20t37.5 -25.5t29 -31t26 -39t14.5 -46t6.5 -56.5q0 -76 -36.5 -148.5t-100 -127t-155 -88
t-193.5 -33.5z" />
    <glyph glyph-name="t" unicode="t" horiz-adv-x="802" 
d="M442 -35q-49 0 -89 9t-67 23.5t-46.5 38t-30.5 45.5t-16 53.5t-5.5 55.5t2.5 57.5t6.5 52.5t8.5 48q71 410 141 649q-102 -24 -256 -24l27 160q150 0 248 -23q0 25 0.5 51.5t1.5 46.5t4 47.5t4.5 42t6 45t6 40t7 43t6.5 40.5h179q-13 -77 -20 -111.5t-26.5 -106.5
t-44.5 -138q143 23 369 23l-29 -160q-228 0 -358 24q-12 -177 -29.5 -295t-31 -159.5t-23.5 -98.5t-10 -135q0 -99 23.5 -140.5t99.5 -41.5q93 0 190 57l-31 -166q-87 -53 -217 -53z" />
    <glyph glyph-name="u" unicode="u" horiz-adv-x="1280" 
d="M457 -35q-84 0 -150 24.5t-116 79.5t-65 142t3 211l127 711h178l-112 -644q-15 -97 -6 -165t42 -110.5t77 -61.5t100 -19q99 0 183 55.5t134 138t66 175.5l112 631h178l-137 -779q-38 -210 -24 -354h-181q-2 41 -2 75t10 76.5t31 94.5h-26q-83 -150 -187.5 -215.5
t-234.5 -65.5z" />
    <glyph glyph-name="v" unicode="v" horiz-adv-x="1126" 
d="M567 0h-205l-235 1133h195q114 -569 159 -955h35q210 445 496 955h190z" />
    <glyph glyph-name="w" unicode="w" horiz-adv-x="1871" 
d="M528 0h-198l-203 1133h203q3 -16 18 -112t19 -120t16.5 -108t17.5 -120.5t14.5 -111t15 -124.5t11.5 -117t11 -130h34q72 162 160.5 344.5t144 289.5t160.5 309h170q40 -224 56.5 -320.5t42.5 -279t41 -343.5h32q27 64 56.5 131.5t52.5 118t59.5 127t53.5 112t60 121.5
t54 107.5t60 118t55 107.5h201l-600 -1133h-205q-105 623 -133 901h-23q-197 -418 -457 -901z" />
    <glyph glyph-name="x" unicode="x" horiz-adv-x="1071" 
d="M127 0h-205l1 1l1 1l1 1l1 1v1l1 1l1 1l1 1l1 1l1 1l1 1l1 1v1l1 1l1 1l1 1l1 1l1 1l1 1l1 1v1l1 1l1 1l1 1l1 1l1 1l1 1l1 1l1 1v1l1 1l1 1l1 1l1 1l1 1l1 1v1l1 1l1 1l2 2q284 326 461 508q4 5 9 10l4 29q-128 202 -309 545h207q153 -291 213 -461h26q134 189 377 461
h203q-333 -376 -502 -545l-4 -29q154 -256 307 -559h-202q-137 270 -213 469h-29q-113 -161 -379 -469z" />
    <glyph glyph-name="y" unicode="y" horiz-adv-x="1134" 
d="M311 -451h-180l242 426l-250 1158h196q113 -517 164 -977h29q214 459 508 977h192z" />
    <glyph glyph-name="z" unicode="z" horiz-adv-x="1017" 
d="M870 0h-907l27 143q20 21 107 115t116 125t104.5 112t118.5 126t109 113t124.5 126.5t118.5 116.5l-8 27q-281 -35 -616 -35l29 164h833l-25 -144q-24 -25 -123.5 -130.5t-136 -144t-124 -129.5t-142 -146t-130.5 -131.5t-146 -143.5l8 -27q242 27 692 27z" />
    <glyph glyph-name="braceleft" unicode="{" horiz-adv-x="798" 
d="M600 -305h-92q-125 0 -207.5 30t-121.5 87t-48.5 138t10.5 183l29 172q10 61 14.5 103t0.5 70t-10 43.5t-24 23t-33 9t-46 1.5l32 184q24 0 34.5 0.5t29 3t27 9t22.5 18t21.5 29.5t18 44.5t18.5 62.5t16 83l31 170q11 63 25.5 112t40 102t64 91t91.5 69.5t129.5 47.5
t171.5 16h92l-29 -161h-78q-143 0 -223 -63t-106 -206l-31 -176q-15 -88 -28.5 -135.5t-41 -88t-68.5 -60.5t-110 -35l-10 -51q42 -10 68.5 -20.5t46.5 -28t28.5 -38t10 -56t-3 -75.5t-15.5 -102l-31 -176q-23 -134 29 -201t207 -67h78z" />
    <glyph glyph-name="bar" unicode="|" horiz-adv-x="540" 
d="M172 -451h-162l369 2089h162z" />
    <glyph glyph-name="braceright" unicode="}" horiz-adv-x="798" 
d="M-16 -305h-93l29 162h78q142 0 223.5 62t106.5 206l30 176q31 175 75.5 234t172.5 86l8 51q-48 11 -76 23.5t-48 33t-24.5 55.5t-1 83.5t16.5 123.5l31 176q13 59 7 108t-28.5 85t-75.5 56t-136 20h-78l26 161h92q126 0 209 -30t122 -87t49 -138t-11 -183l-33 -170
q-9 -52 -13 -90t-4.5 -65.5t6.5 -45t14.5 -27.5t25 -15t32 -6t40.5 -1l-33 -184q-26 0 -39.5 -1t-32.5 -5.5t-29.5 -14.5t-23.5 -27.5t-22 -44.5t-19 -65.5t-20 -91.5l-31 -172q-14 -77 -34 -136t-59 -118t-93.5 -97.5t-140 -62.5t-195.5 -24z" />
    <glyph glyph-name="asciitilde" unicode="~" horiz-adv-x="1095" 
d="M717 543q-53 0 -98 21t-71 45.5t-60 45.5t-68 21q-52 0 -84.5 -37.5t-42.5 -93.5h-152q24 134 109.5 209t187.5 75q49 0 92 -20.5t69 -45t60.5 -45t69.5 -20.5q95 0 117 129h151q-25 -140 -101.5 -212t-178.5 -72z" />
    <glyph glyph-name="uni00A0" unicode="&#xa0;" horiz-adv-x="524" 
 />
    <glyph glyph-name="exclamdown" unicode="&#xa1;" horiz-adv-x="514" 
d="M315 899q-47 0 -77.5 31.5t-30.5 77.5q0 61 48 109t110 48q47 0 77.5 -31.5t30.5 -78.5q0 -61 -48.5 -108.5t-109.5 -47.5zM180 -444h-203l23 125l236 1046h102l-135 -1046z" />
    <glyph glyph-name="cent" unicode="&#xa2;" horiz-adv-x="1140" 
d="M739 1096l-127 -719q93 9 172.5 66t130.5 147l123 -51q-71 -133 -190.5 -211.5t-259.5 -87.5l-43 -240h-103l43 242q-152 19 -241.5 122.5t-89.5 270.5q0 143 64.5 273t182 218t261.5 105l40 235h103l-41 -233q121 -10 206.5 -75.5t110.5 -188.5l-145 -54
q-13 76 -66.5 123t-130.5 58zM311 659q0 -114 53.5 -185.5t145.5 -92.5l127 713q-142 -26 -234 -152.5t-92 -282.5z" />
    <glyph glyph-name="sterling" unicode="&#xa3;" horiz-adv-x="1259" 
d="M1073 0h-1061l29 168q208 73 316.5 180.5t113.5 239.5q1 14 3 46.5t4.5 57t6.5 47.5q-123 -20 -335 -20l20 117q160 0 287 -21q-51 75 -77 118t-49.5 111t-23.5 134q0 190 148 321t374 131q60 0 115 -10t114 -37.5t103 -71.5t74 -118t35 -170l-183 -70q-8 88 -36 151
t-69.5 95.5t-85.5 46.5t-95 14q-128 0 -212.5 -80t-84.5 -204q0 -69 44.5 -187t53.5 -174q181 21 457 21l-21 -117q-249 0 -417 20q47 -55 47 -125q0 -126 -103 -248t-282 -214l16 -27q44 7 89.5 12.5t82 10t86.5 7.5t78.5 5.5t83 4t76 2t80.5 1t74 0.5h80h75z" />
    <glyph glyph-name="currency" unicode="&#xa4;" horiz-adv-x="1353" 
d="M1124 901q0 -187 -131 -328l211 -313l-133 -100l-213 313q-92 -47 -205 -47q-112 0 -188 49l-324 -315l-98 100l322 315q-41 74 -41 173q0 185 127 325l-209 316l133 102l211 -311q100 49 209 49q114 0 190 -49l320 311l100 -102l-322 -314q41 -71 41 -174zM483 776
q0 -97 52.5 -154t142.5 -57q119 0 203 93t84 223q0 95 -51.5 150.5t-141.5 55.5q-119 0 -204 -92t-85 -219z" />
    <glyph glyph-name="yen" unicode="&#xa5;" horiz-adv-x="1466" 
d="M723 0h-188q29 173 79 289q-158 -27 -403 -27l22 139q89 0 131 -0.5t119 -6.5t144 -19q-8 69 1 117.5t40 105.5q-156 -29 -402 -29l23 140q211 0 338 -27q-160 362 -385 915h204q5 -14 34.5 -88t37.5 -94.5t34 -87.5t36.5 -96t33 -89t36 -98t32 -91t34 -101t30.5 -96h18
q55 80 113.5 169.5t90 134.5t128.5 175t274 362h203q-40 -52 -167.5 -219t-185 -242t-160.5 -206.5t-196 -247.5q137 27 351 27l-23 -140q-250 0 -397 29q10 -56 1 -105.5t-42 -117.5q152 26 405 26l-22 -139q-250 0 -395 27q7 -124 -27 -289z" />
    <glyph glyph-name="brokenbar" unicode="&#xa6;" horiz-adv-x="540" 
d="M399 836h-161l143 802h160zM172 -451h-160l140 795h161z" />
    <glyph glyph-name="section" unicode="&#xa7;" horiz-adv-x="1099" 
d="M410 -301q-172 0 -288.5 94t-131.5 242l168 49q24 -111 102.5 -176.5t179.5 -65.5q99 0 173.5 60.5t74.5 144.5q0 28 -11 51t-24.5 37t-43.5 29.5t-48 23t-57 21.5l-105 39q-40 16 -65 27.5t-65.5 37.5t-64.5 52.5t-42.5 69t-18.5 91.5q0 109 79 191t210 102l4 33
q-180 56 -180 223q0 70 34 137t93 119t145.5 83.5t184.5 31.5q147 0 243.5 -74t110.5 -227l-176 -53q-12 106 -62 158.5t-147 52.5q-106 0 -175 -56t-69 -137q0 -33 14.5 -61t31.5 -45t50.5 -34.5t51 -24t53.5 -19.5l113 -41q40 -14 64 -24t62 -32t59.5 -45.5t38.5 -61.5
t17 -83q0 -113 -85 -203.5t-212 -113.5l-8 -31q191 -41 191 -207q0 -154 -136.5 -269.5t-332.5 -115.5zM510 387l45 -16q115 9 185.5 73.5t70.5 147.5q0 34 -12 58.5t-40.5 42t-48.5 26t-63 22.5q-8 3 -12 4l-70 23q-53 18 -111 -6t-96.5 -77t-38.5 -114q0 -33 14 -61
t32 -46t48.5 -35t49 -24t47.5 -18z" />
    <glyph glyph-name="copyright" unicode="&#xa9;" horiz-adv-x="1925" 
d="M858 -35q-206 0 -364.5 82t-247 237t-88.5 361q0 191 78.5 371.5t211 315.5t318 216.5t387.5 81.5q207 0 365 -82.5t245.5 -237t87.5 -358.5q0 -153 -49.5 -300.5t-141.5 -270.5t-213 -217t-274 -146.5t-315 -52.5zM881 90q173 0 331 70t270 185.5t178 269t66 315.5
q0 263 -165 420t-431 157q-116 0 -226.5 -31.5t-203 -88t-170 -135.5t-131.5 -171t-84 -198t-30 -215q0 -265 165 -421.5t431 -156.5zM936 348q-166 0 -264.5 98.5t-98.5 264.5q0 137 67 260t188 199.5t264 76.5q136 0 224.5 -69.5t110.5 -196.5l-139 -47q-15 90 -72.5 137
t-146.5 47q-99 0 -180 -58t-124.5 -146.5t-43.5 -184.5q0 -122 69 -187t175 -65q99 0 181.5 57.5t137.5 161.5l119 -41q-72 -146 -194.5 -226.5t-272.5 -80.5z" />
    <glyph glyph-name="guillemotleft" unicode="&#xab;" horiz-adv-x="1200" 
d="M559 164h-197l-256 405l3 9l399 405h197q-96 -96 -144.5 -143t-131.5 -116t-163 -120l-10 -61q88 -73 154.5 -160.5t148.5 -218.5zM999 164h-196l-256 405l2 9l399 405h197q-94 -94 -144.5 -142.5t-132.5 -117t-161 -119.5l-13 -61q89 -74 157 -162.5t148 -216.5z" />
    <glyph glyph-name="logicalnot" unicode="&#xac;" horiz-adv-x="1048" 
d="M840 231h-156l57 328h-602l27 150h760z" />
    <glyph glyph-name="registered" unicode="&#xae;" horiz-adv-x="1157" 
d="M606 735q-171 0 -274 101t-103 266q0 102 42 199t113 170.5t171.5 118t210.5 44.5q169 0 274 -100t105 -266q0 -137 -71 -259.5t-196.5 -198t-271.5 -75.5zM623 819q121 0 222 62.5t156.5 162t55.5 209.5q0 133 -84 215t-221 82q-119 0 -220.5 -61t-159 -161t-57.5 -212
q0 -133 84.5 -215t223.5 -82zM571 942h-86l86 494h185q61 0 105 -31.5t44 -93.5t-39 -112.5t-100 -65.5l94 -191h-96l-88 180h-74zM643 1356l-27 -156h95q45 0 73.5 26.5t28.5 65.5q0 64 -80 64h-90z" />
    <glyph glyph-name="degree" unicode="&#xb0;" horiz-adv-x="765" 
d="M465 1053q-110 0 -178 67t-68 176q0 139 104 246t248 107q110 0 178 -68t68 -176q0 -139 -104 -245.5t-248 -106.5zM485 1163q85 0 148 68t63 155q0 66 -40 109t-105 43q-85 0 -148 -68t-63 -155q0 -67 40 -109.5t105 -42.5z" />
    <glyph glyph-name="plusminus" unicode="&#xb1;" horiz-adv-x="1069" 
d="M967 799l-27 -144h-311l-37 -206h311l-24 -142h-779l25 142h309l37 206h-309l24 144h312l41 243h157l-43 -243h314z" />
    <glyph glyph-name="uni00B2" unicode="&#xb2;" horiz-adv-x="661" 
d="M629 784h-510l4 17q28 123 84.5 190t210.5 158q153 89 153 174q0 34 -25 56t-67 22q-61 0 -106 -42.5t-58 -113.5l-129 21q20 118 110.5 192t209.5 74q98 0 158.5 -51t60.5 -138q0 -147 -176 -251q-18 -11 -62.5 -36.5t-64.5 -39t-46 -40.5t-40 -58h317z" />
    <glyph glyph-name="uni00B3" unicode="&#xb3;" horiz-adv-x="669" 
d="M365 768q-103 0 -171 46.5t-77 121.5l137 63q26 -110 131 -110q61 0 102 37t41 90q0 44 -32.5 66t-87.5 22h-72l18 102h76q58 0 99.5 34t41.5 85q0 37 -27.5 59.5t-70.5 22.5q-51 0 -89.5 -30t-55.5 -83l-125 29q25 90 110.5 149.5t192.5 59.5q93 0 155 -44.5t62 -119.5
q0 -66 -44 -124t-106 -73q49 -11 80 -48.5t31 -90.5q0 -104 -93 -184t-226 -80z" />
    <glyph glyph-name="paragraph" unicode="&#xb6;" horiz-adv-x="1503" 
d="M778 -287h-190l166 942h-193q-186 0 -292.5 104t-106.5 283q0 111 43.5 212t120.5 177t191.5 121t248.5 45h344zM1128 -287h-188l332 1884h188z" />
    <glyph glyph-name="periodcentered" unicode="&#xb7;" horiz-adv-x="575" 
d="M272 477q-59 0 -97 39t-38 98q0 75 59 132t136 57q58 0 95.5 -37.5t37.5 -93.5q0 -74 -59.5 -134.5t-133.5 -60.5z" />
    <glyph glyph-name="uni00B9" unicode="&#xb9;" horiz-adv-x="468" 
d="M387 784h-145l88 500q-77 -66 -172 -84l26 150q76 22 128 67.5t61 98.5h141z" />
    <glyph glyph-name="guillemotright" unicode="&#xbb;" horiz-adv-x="1200" 
d="M657 569l-399 -405h-199q68 68 103 102t97.5 91.5t120 102t118.5 83.5l10 61q-87 75 -154 163t-149 216h198l256 -405zM1096 569l-400 -405h-196q99 99 139.5 139t129 115t167.5 125l12 61q-89 75 -157 164.5t-146 214.5h197l256 -405z" />
    <glyph glyph-name="onequarter" unicode="&#xbc;" horiz-adv-x="1423" 
d="M387 784h-145l88 500q-77 -66 -172 -84l26 150q76 22 128 67.5t61 98.5h141zM59 0h-170l1397 1468h162zM1169 -12h-139l29 151h-352l20 119l436 461h137l-81 -459h96l-23 -121h-96zM1126 532l-258 -272h211z" />
    <glyph glyph-name="onehalf" unicode="&#xbd;" horiz-adv-x="1466" 
d="M387 784h-145l88 500q-77 -66 -172 -84l26 150q76 22 128 67.5t61 98.5h141zM59 0h-170l1397 1468h162zM1294 -12h-510l4 16q28 123 84.5 190t210.5 158q154 90 154 174q0 34 -25 56t-67 22q-61 0 -106 -42t-58 -113l-129 20q20 118 110 192t209 74q98 0 159 -50.5
t61 -137.5q0 -147 -177 -252q-18 -11 -62.5 -36.5t-64.5 -39t-46 -40.5t-40 -58h318z" />
    <glyph glyph-name="threequarters" unicode="&#xbe;" horiz-adv-x="1624" 
d="M365 768q-103 0 -171 46.5t-77 121.5l137 63q26 -110 131 -110q61 0 102 37t41 90q0 44 -32.5 66t-87.5 22h-72l18 102h76q58 0 99.5 34t41.5 85q0 37 -27.5 59.5t-70.5 22.5q-51 0 -89.5 -30t-55.5 -83l-125 29q25 90 110.5 149.5t192.5 59.5q93 0 155 -44.5t62 -119.5
q0 -66 -44 -124t-106 -73q49 -11 80 -48.5t31 -90.5q0 -104 -93 -184t-226 -80zM260 0h-170l1397 1468h162zM1370 -12h-139l29 151h-353l21 119l436 461h137l-82 -459h97l-23 -121h-96zM1327 532l-258 -272h211z" />
    <glyph glyph-name="questiondown" unicode="&#xbf;" horiz-adv-x="1116" 
d="M670 899q-47 0 -79 32t-32 79q0 60 48 107.5t108 47.5q49 0 80.5 -32t31.5 -78q0 -61 -47.5 -108.5t-109.5 -47.5zM373 -479q-177 0 -295.5 96t-118.5 262q0 53 14 105.5t35.5 94t55 84t62.5 72.5t69 62.5t65 50.5t59 41q117 79 154 115q70 67 84 149q6 36 6 47h187
q0 -28 -9 -69q-19 -105 -88.5 -177.5t-210.5 -162.5q-40 -27 -69 -48.5t-71.5 -60t-70 -75.5t-47.5 -87.5t-20 -101.5q0 -103 70.5 -164t179.5 -61q130 0 236.5 86.5t131.5 228.5q2 12 5 32.5t4 25.5l163 -31q0 -29 -6 -53q-24 -137 -110.5 -243.5t-208 -162t-256.5 -55.5z
" />
    <glyph glyph-name="Agrave" unicode="&#xc0;" horiz-adv-x="1525" 
d="M1077 1720h-164l-276 336h246zM121 0h-201l920 1597h215l352 -1597h-203q-1 3 -10.5 47t-11.5 51.5t-10.5 48.5t-11 54t-9.5 50.5t-9.5 56t-7.5 52t-7.5 57t-5 53t-3.5 56.5l-18 19q-201 -29 -340 -29q-138 0 -336 29l-27 -21q-78 -175 -276 -524zM492 686l12 -20
q159 28 291 28q130 0 258 -28l16 18q-112 406 -129 739h-53q-149 -355 -395 -737z" />
    <glyph glyph-name="Aacute" unicode="&#xc1;" horiz-adv-x="1525" 
d="M1430 2056l-396 -336h-164l312 336h248zM121 0h-201l920 1597h215l352 -1597h-203q-1 3 -10.5 47t-11.5 51.5t-10.5 48.5t-11 54t-9.5 50.5t-9.5 56t-7.5 52t-7.5 57t-5 53t-3.5 56.5l-18 19q-201 -29 -340 -29q-138 0 -336 29l-27 -21q-78 -175 -276 -524zM492 686
l12 -20q159 28 291 28q130 0 258 -28l16 18q-112 406 -129 739h-53q-149 -355 -395 -737z" />
    <glyph glyph-name="Acircumflex" unicode="&#xc2;" horiz-adv-x="1525" 
d="M760 1720h-168l332 322h200l219 -322h-165q-69 82 -91 118q-32 54 -49 122h-55q-34 -53 -75.5 -100t-71 -74.5t-76.5 -65.5zM121 0h-201l920 1597h215l352 -1597h-203q-1 3 -10.5 47t-11.5 51.5t-10.5 48.5t-11 54t-9.5 50.5t-9.5 56t-7.5 52t-7.5 57t-5 53t-3.5 56.5
l-18 19q-201 -29 -340 -29q-138 0 -336 29l-27 -21q-78 -175 -276 -524zM492 686l12 -20q159 28 291 28q130 0 258 -28l16 18q-112 406 -129 739h-53q-149 -355 -395 -737z" />
    <glyph glyph-name="Atilde" unicode="&#xc3;" horiz-adv-x="1525" 
d="M1120 1743q-45 0 -75.5 16t-67.5 49l-39 35q-2 1 -8.5 7.5t-9 8.5t-9 7t-10.5 7t-10.5 5.5t-12 5t-12.5 3t-14 1.5q-43 0 -75.5 -36.5t-43.5 -92.5h-133q23 120 99.5 194.5t174.5 74.5q32 0 60 -10.5t43.5 -22t36.5 -31.5l39 -35q47 -47 88 -47t71 36.5t39 94.5h133
q-22 -126 -92 -198t-172 -72zM121 0h-201l920 1597h215l352 -1597h-203q-1 3 -10.5 47t-11.5 51.5t-10.5 48.5t-11 54t-9.5 50.5t-9.5 56t-7.5 52t-7.5 57t-5 53t-3.5 56.5l-18 19q-201 -29 -340 -29q-138 0 -336 29l-27 -21q-78 -175 -276 -524zM492 686l12 -20
q159 28 291 28q130 0 258 -28l16 18q-112 406 -129 739h-53q-149 -355 -395 -737z" />
    <glyph glyph-name="Adieresis" unicode="&#xc4;" horiz-adv-x="1525" 
d="M768 1772q-47 0 -76.5 29.5t-29.5 74.5q0 60 45.5 103.5t105.5 43.5q45 0 75 -29t30 -71q0 -59 -45 -105t-105 -46zM1184 1772q-47 0 -77 29.5t-30 72.5q0 61 45.5 105t106.5 44q45 0 74.5 -29.5t29.5 -72.5q0 -58 -45 -103.5t-104 -45.5zM121 0h-201l920 1597h215
l352 -1597h-203q-1 3 -10.5 47t-11.5 51.5t-10.5 48.5t-11 54t-9.5 50.5t-9.5 56t-7.5 52t-7.5 57t-5 53t-3.5 56.5l-18 19q-201 -29 -340 -29q-138 0 -336 29l-27 -21q-78 -175 -276 -524zM492 686l12 -20q159 28 291 28q130 0 258 -28l16 18q-112 406 -129 739h-53
q-149 -355 -395 -737z" />
    <glyph glyph-name="Aring" unicode="&#xc5;" horiz-adv-x="1525" 
d="M965 1714q-89 0 -145 53t-56 138q0 105 83 184.5t197 79.5q89 0 144 -52t55 -137q0 -105 -82 -185.5t-196 -80.5zM981 1819q63 0 107.5 43.5t44.5 103.5q0 44 -30.5 71t-76.5 27q-63 0 -106 -42.5t-43 -102.5q0 -46 28.5 -73t75.5 -27zM121 0h-201l920 1597h215
l352 -1597h-203q-1 3 -10.5 47t-11.5 51.5t-10.5 48.5t-11 54t-9.5 50.5t-9.5 56t-7.5 52t-7.5 57t-5 53t-3.5 56.5l-18 19q-201 -29 -340 -29q-138 0 -336 29l-27 -21q-78 -175 -276 -524zM492 686l12 -20q159 28 291 28q130 0 258 -28l16 18q-112 406 -129 739h-53
q-149 -355 -395 -737z" />
    <glyph glyph-name="AE" unicode="&#xc6;" horiz-adv-x="2134" 
d="M68 0h-209l1212 1597h1127l-31 -174q-175 0 -276 1t-267.5 9.5t-312.5 24.5q-3 -289 -94 -577q292 26 817 26l-33 -180q-514 0 -805 29q-18 -310 -109 -613q151 16 322.5 24.5t274.5 9.5t282 1l-31 -178h-1036q61 342 117 543q-293 -42 -572 0q-56 -96 -125.5 -199
t-117.5 -167.5t-133 -176.5zM565 670q248 38 479 -2q26 355 125 782h-41q-194 -320 -563 -780z" />
    <glyph glyph-name="Ccedilla" unicode="&#xc7;" horiz-adv-x="1712" 
d="M850 143q114 0 218.5 36.5t186 100.5t145 144.5t107.5 175.5l162 -61q-127 -258 -344 -412.5t-494 -161.5q-52 -55 -135 -119l11 -10q64 35 116 35q70 0 113 -38.5t43 -104.5q0 -94 -80.5 -161t-200.5 -67q-77 0 -141.5 31t-101.5 86l80 74q27 -43 74.5 -67.5t99.5 -24.5
q61 0 103 32.5t42 79.5q0 35 -28.5 56.5t-73.5 21.5q-53 0 -99 -27l-55 56l125 151q-278 25 -438 202t-160 462q0 154 48 303t136.5 273t206 219t265.5 148.5t306 53.5q159 0 290.5 -53t222.5 -162.5t116 -261.5l-186 -70q-38 172 -165 270.5t-310 98.5q-151 0 -287.5 -68
t-232 -179t-151.5 -255t-56 -293q0 -130 43 -231t117 -161.5t166 -91t196 -30.5z" />
    <glyph glyph-name="Egrave" unicode="&#xc8;" horiz-adv-x="1339" 
d="M1006 1720h-164l-277 336h246zM1141 0h-1037l283 1597h1016l-33 -174h-127.5h-142t-126 1.5t-146 5t-132 9.5t-149.5 15l-29 -18q-6 -260 -92 -545l14 -23q139 19 291.5 28.5t246 11t261.5 1.5l-33 -182q-168 0 -260.5 1.5t-241 11t-278.5 28.5l-25 -20
q-18 -308 -106 -580l20 -25q146 16 310 24.5t265 9.5t281 1z" />
    <glyph glyph-name="Eacute" unicode="&#xc9;" horiz-adv-x="1339" 
d="M1358 2056l-395 -336h-164l311 336h248zM1141 0h-1037l283 1597h1016l-33 -174h-127.5h-142t-126 1.5t-146 5t-132 9.5t-149.5 15l-29 -18q-6 -260 -92 -545l14 -23q139 19 291.5 28.5t246 11t261.5 1.5l-33 -182q-168 0 -260.5 1.5t-241 11t-278.5 28.5l-25 -20
q-18 -308 -106 -580l20 -25q146 16 310 24.5t265 9.5t281 1z" />
    <glyph glyph-name="Ecircumflex" unicode="&#xca;" horiz-adv-x="1339" 
d="M688 1720h-168l332 322h201l219 -322h-166q-43 51 -59 71t-41 67.5t-39 101.5h-56q-34 -53 -75.5 -100t-71 -74.5t-76.5 -65.5zM1141 0h-1037l283 1597h1016l-33 -174h-127.5h-142t-126 1.5t-146 5t-132 9.5t-149.5 15l-29 -18q-6 -260 -92 -545l14 -23
q139 19 291.5 28.5t246 11t261.5 1.5l-33 -182q-168 0 -260.5 1.5t-241 11t-278.5 28.5l-25 -20q-18 -308 -106 -580l20 -25q146 16 310 24.5t265 9.5t281 1z" />
    <glyph glyph-name="Edieresis" unicode="&#xcb;" horiz-adv-x="1339" 
d="M694 1772q-47 0 -76.5 29.5t-29.5 74.5q0 60 45.5 103.5t105.5 43.5q45 0 75 -29t30 -71q0 -59 -45 -105t-105 -46zM1110 1772q-47 0 -76.5 29.5t-29.5 72.5q0 61 45 105t106 44q45 0 75 -29.5t30 -72.5q0 -58 -45.5 -103.5t-104.5 -45.5zM1141 0h-1037l283 1597h1016
l-33 -174h-127.5h-142t-126 1.5t-146 5t-132 9.5t-149.5 15l-29 -18q-6 -260 -92 -545l14 -23q139 19 291.5 28.5t246 11t261.5 1.5l-33 -182q-168 0 -260.5 1.5t-241 11t-278.5 28.5l-25 -20q-18 -308 -106 -580l20 -25q146 16 310 24.5t265 9.5t281 1z" />
    <glyph glyph-name="Igrave" unicode="&#xcc;" horiz-adv-x="595" 
d="M612 1720h-163l-277 336h246zM293 0h-189l283 1597h188z" />
    <glyph glyph-name="Iacute" unicode="&#xcd;" horiz-adv-x="595" 
d="M965 2056l-396 -336h-163l311 336h248zM293 0h-189l283 1597h188z" />
    <glyph glyph-name="Icircumflex" unicode="&#xce;" horiz-adv-x="595" 
d="M295 1720h-168l332 322h200l220 -322h-166q-69 82 -91 118q-32 55 -49 122h-55q-34 -53 -75.5 -100t-71 -74.5t-76.5 -65.5zM293 0h-189l283 1597h188z" />
    <glyph glyph-name="Idieresis" unicode="&#xcf;" horiz-adv-x="595" 
d="M303 1772q-47 0 -76.5 29.5t-29.5 74.5q0 60 45.5 103.5t105.5 43.5q45 0 75 -29t30 -71q0 -59 -45 -105t-105 -46zM719 1772q-47 0 -77 29.5t-30 72.5q0 61 45.5 105t106.5 44q45 0 74.5 -29.5t29.5 -72.5q0 -58 -45 -103.5t-104 -45.5zM293 0h-189l283 1597h188z" />
    <glyph glyph-name="Eth" unicode="&#xd0;" horiz-adv-x="1642" 
d="M387 1597h578q165 0 288 -44t198 -126.5t111.5 -193t36.5 -250.5q0 -150 -41 -294.5t-120 -268.5t-186.5 -218.5t-250 -148t-301.5 -53.5h-596l127 721h-182l27 153h184zM696 174q162 0 296.5 62.5t222 168t135 241.5t47.5 286q0 130 -35.5 225.5t-102.5 153t-156.5 85
t-203.5 27.5q-83 0 -125.5 1t-105.5 8t-121 22l-29 -18q-26 -302 -69 -562h479l-27 -153h-479q-51 -266 -127 -553l20 -25q173 31 381 31z" />
    <glyph glyph-name="Ntilde" unicode="&#xd1;" horiz-adv-x="1685" 
d="M1192 1780q-45 0 -75.5 16t-67.5 49l-39 35q-2 1 -8.5 7.5t-9 8.5t-9 7t-10.5 7t-10.5 5.5t-12 5t-12.5 3t-14 1.5q-43 0 -75.5 -36.5t-43.5 -92.5h-133q23 120 99.5 194t174.5 74q46 0 76.5 -16.5t62.5 -46.5l39 -35q47 -47 88 -47t71.5 36.5t39.5 94.5h133
q-22 -126 -92 -198t-172 -72zM293 0h-189l283 1597h174q410 -713 682 -1331h27q25 225 63.5 484t62.5 399.5t79 447.5h190l-283 -1597h-174q-213 365 -376.5 670t-311.5 635h-26q-12 -115 -28 -239t-28.5 -212t-36 -228.5t-33.5 -200.5t-39 -221.5t-36 -203.5z" />
    <glyph glyph-name="Ograve" unicode="&#xd2;" horiz-adv-x="1800" 
d="M1212 1720h-163l-277 336h246zM795 -35q-193 0 -346 83.5t-239.5 238t-86.5 354.5q0 189 78.5 370t208 317t308.5 219t369 83q298 0 485 -190t187 -490q0 -189 -78.5 -369.5t-208.5 -315.5t-308.5 -217.5t-368.5 -82.5zM827 143q142 0 276.5 66t232.5 173.5t157 250.5
t59 291q0 233 -138.5 380.5t-356.5 147.5q-112 0 -222 -42t-200.5 -117t-160 -172t-108 -213.5t-38.5 -235.5q0 -236 141 -382.5t358 -146.5z" />
    <glyph glyph-name="Oacute" unicode="&#xd3;" horiz-adv-x="1800" 
d="M1565 2056l-396 -336h-163l311 336h248zM795 -35q-193 0 -346 83.5t-239.5 238t-86.5 354.5q0 189 78.5 370t208 317t308.5 219t369 83q298 0 485 -190t187 -490q0 -189 -78.5 -369.5t-208.5 -315.5t-308.5 -217.5t-368.5 -82.5zM827 143q142 0 276.5 66t232.5 173.5
t157 250.5t59 291q0 233 -138.5 380.5t-356.5 147.5q-112 0 -222 -42t-200.5 -117t-160 -172t-108 -213.5t-38.5 -235.5q0 -236 141 -382.5t358 -146.5z" />
    <glyph glyph-name="Ocircumflex" unicode="&#xd4;" horiz-adv-x="1800" 
d="M895 1720h-168l332 322h201l219 -322h-166q-43 51 -59 71t-41 67.5t-39 101.5h-56q-34 -53 -75.5 -100t-71 -74.5t-76.5 -65.5zM795 -35q-193 0 -346 83.5t-239.5 238t-86.5 354.5q0 189 78.5 370t208 317t308.5 219t369 83q298 0 485 -190t187 -490q0 -189 -78.5 -369.5
t-208.5 -315.5t-308.5 -217.5t-368.5 -82.5zM827 143q142 0 276.5 66t232.5 173.5t157 250.5t59 291q0 233 -138.5 380.5t-356.5 147.5q-112 0 -222 -42t-200.5 -117t-160 -172t-108 -213.5t-38.5 -235.5q0 -236 141 -382.5t358 -146.5z" />
    <glyph glyph-name="Otilde" unicode="&#xd5;" horiz-adv-x="1800" 
d="M1266 1780q-45 0 -76 16t-68 49l-39 35q-2 1 -8.5 7.5t-9 8.5t-9 7t-10.5 7t-10.5 5.5t-12 5t-12.5 3t-14 1.5q-43 0 -75 -36.5t-43 -92.5h-134q23 120 100 194t175 74q46 0 76.5 -16.5t62.5 -46.5l39 -35q47 -47 88 -47t71.5 36.5t39.5 94.5h133q-22 -126 -92 -198
t-172 -72zM795 -35q-193 0 -346 83.5t-239.5 238t-86.5 354.5q0 189 78.5 370t208 317t308.5 219t369 83q298 0 485 -190t187 -490q0 -189 -78.5 -369.5t-208.5 -315.5t-308.5 -217.5t-368.5 -82.5zM827 143q142 0 276.5 66t232.5 173.5t157 250.5t59 291
q0 233 -138.5 380.5t-356.5 147.5q-112 0 -222 -42t-200.5 -117t-160 -172t-108 -213.5t-38.5 -235.5q0 -236 141 -382.5t358 -146.5z" />
    <glyph glyph-name="Odieresis" unicode="&#xd6;" horiz-adv-x="1800" 
d="M903 1772q-47 0 -76.5 29.5t-29.5 74.5q0 60 45.5 103.5t105.5 43.5q45 0 75 -29t30 -71q0 -59 -45 -105t-105 -46zM1319 1772q-47 0 -77 29.5t-30 72.5q0 61 45.5 105t106.5 44q45 0 74.5 -29.5t29.5 -72.5q0 -58 -45 -103.5t-104 -45.5zM795 -35q-193 0 -346 83.5
t-239.5 238t-86.5 354.5q0 189 78.5 370t208 317t308.5 219t369 83q298 0 485 -190t187 -490q0 -189 -78.5 -369.5t-208.5 -315.5t-308.5 -217.5t-368.5 -82.5zM827 143q142 0 276.5 66t232.5 173.5t157 250.5t59 291q0 233 -138.5 380.5t-356.5 147.5q-112 0 -222 -42
t-200.5 -117t-160 -172t-108 -213.5t-38.5 -235.5q0 -236 141 -382.5t358 -146.5z" />
    <glyph glyph-name="multiply" unicode="&#xd7;" horiz-adv-x="952" 
d="M383 625l-197 237l127 107l197 -238l270 230l86 -105l-270 -231l192 -236l-124 -106l-193 235l-274 -231l-86 104z" />
    <glyph glyph-name="Oslash" unicode="&#xd8;" horiz-adv-x="1800" 
d="M1585 1661h193l-197 -229q86 -90 132 -213.5t46 -268.5q0 -189 -78.5 -369.5t-208.5 -315.5t-308.5 -217.5t-368.5 -82.5q-220 0 -385 109l-121 -140h-191l199 232q-174 190 -174 475q0 189 78.5 370t208 317t308.5 219t369 83q222 0 381 -104zM328 672q0 -204 108 -344
l899 1042q-121 82 -278 82q-112 0 -222 -42t-200.5 -117t-160 -172t-108 -213.5t-38.5 -235.5zM1552 924q0 207 -110 348l-899 -1045q124 -84 284 -84q142 0 276.5 66t232.5 173.5t157 250.5t59 291z" />
    <glyph glyph-name="Ugrave" unicode="&#xd9;" horiz-adv-x="1538" 
d="M1085 1720h-163l-277 336h246zM662 -35q-101 0 -182.5 21.5t-137 61t-94.5 96t-55.5 126t-18.5 151t16 171.5l179 1005h190l-176 -991q-39 -222 38 -343.5t273 -121.5q197 0 318 123.5t159 341.5l175 991h190l-176 -1005q-19 -102 -52.5 -190t-91 -170t-133 -140
t-183.5 -92.5t-238 -34.5z" />
    <glyph glyph-name="Uacute" unicode="&#xda;" horiz-adv-x="1538" 
d="M1341 2054l-393 -334h-164l312 334h245zM662 -35q-101 0 -182.5 21.5t-137 61t-94.5 96t-55.5 126t-18.5 151t16 171.5l179 1005h190l-176 -991q-39 -222 38 -343.5t273 -121.5q197 0 318 123.5t159 341.5l175 991h190l-176 -1005q-19 -102 -52.5 -190t-91 -170
t-133 -140t-183.5 -92.5t-238 -34.5z" />
    <glyph glyph-name="Ucircumflex" unicode="&#xdb;" horiz-adv-x="1538" 
d="M768 1720h-168l332 322h201l219 -322h-166q-43 51 -59 71t-41 67.5t-39 101.5h-56q-34 -53 -75.5 -100t-71 -74.5t-76.5 -65.5zM662 -35q-101 0 -182.5 21.5t-137 61t-94.5 96t-55.5 126t-18.5 151t16 171.5l179 1005h190l-176 -991q-39 -222 38 -343.5t273 -121.5
q197 0 318 123.5t159 341.5l175 991h190l-176 -1005q-19 -102 -52.5 -190t-91 -170t-133 -140t-183.5 -92.5t-238 -34.5z" />
    <glyph glyph-name="Udieresis" unicode="&#xdc;" horiz-adv-x="1538" 
d="M776 1772q-47 0 -76.5 29.5t-29.5 74.5q0 60 45.5 103.5t105.5 43.5q45 0 75 -29t30 -71q0 -59 -45 -105t-105 -46zM1192 1772q-47 0 -77 29.5t-30 72.5q0 61 45.5 105t106.5 44q45 0 74.5 -29.5t29.5 -72.5q0 -58 -45 -103.5t-104 -45.5zM662 -35q-101 0 -182.5 21.5
t-137 61t-94.5 96t-55.5 126t-18.5 151t16 171.5l179 1005h190l-176 -991q-39 -222 38 -343.5t273 -121.5q197 0 318 123.5t159 341.5l175 991h190l-176 -1005q-19 -102 -52.5 -190t-91 -170t-133 -140t-183.5 -92.5t-238 -34.5z" />
    <glyph glyph-name="Yacute" unicode="&#xdd;" horiz-adv-x="1415" 
d="M1333 2054l-393 -334h-164l309 334h248zM702 0h-190q83 437 117 575q-200 464 -418 1022h205q75 -193 111.5 -289t95.5 -268.5t100 -320.5h27q94 151 214 323.5t185 261.5t217 293h205q-58 -76 -218.5 -290.5t-291.5 -386t-268 -345.5q-28 -229 -91 -575z" />
    <glyph glyph-name="Thorn" unicode="&#xde;" horiz-adv-x="1396" 
d="M293 0h-189l283 1597h188q-18 -101 -71 -280h409q68 0 131.5 -12.5t123 -42t103.5 -73.5t70.5 -111.5t26.5 -151.5q0 -87 -26.5 -172t-79.5 -159.5t-126 -131t-171.5 -89t-210.5 -32.5q-140 0 -231.5 8.5t-184.5 40.5q-19 -248 -45 -391zM354 498l21 -23q146 41 364 41
q185 0 305.5 100.5t120.5 264.5q0 136 -85.5 199t-233.5 63q-75 0 -116.5 1t-108 8.5t-123.5 21.5l-29 -19q-20 -333 -115 -657z" />
    <glyph glyph-name="germandbls" unicode="&#xdf;" horiz-adv-x="1288" 
d="M250 0h-178l196 1122q8 43 19 84.5t34 98.5t52 105.5t75.5 98.5t102 85t134 57t169.5 22q197 0 308.5 -98t111.5 -266q0 -176 -110 -307.5t-275 -143.5l-6 -35q153 -9 232 -86t79 -213q0 -102 -46 -197t-127 -167.5t-200.5 -116t-257.5 -43.5h-147l26 160h168
q164 0 279 104t115 246q0 109 -70 172t-184 63h-103l27 160h86q139 0 230 110t91 253q0 111 -63 176t-193 65q-78 0 -142 -28t-102.5 -67t-67 -91.5t-40 -91.5t-18.5 -78z" />
    <glyph glyph-name="agrave" unicode="&#xe0;" horiz-adv-x="1181" 
d="M813 1278h-158l-241 389h227zM346 -35q-66 0 -121.5 15t-99.5 45.5t-69 81.5t-25 118q0 80 36.5 146.5t101.5 113.5t146.5 79t180.5 52q25 5 66.5 12.5t63.5 11.5t55.5 11.5t51.5 13t43.5 14.5t38.5 18.5t29 22.5t23.5 27.5t12.5 33.5t5 42q0 85 -59.5 139t-161.5 54
q-104 0 -189.5 -58t-136.5 -163l-160 57q51 107 138.5 179.5t183 103t198.5 30.5q69 0 129 -14t110 -43.5t81.5 -75t44.5 -108t-2 -142.5l-76 -428q-35 -203 -24 -354h-181q-8 41 0 104.5t41 141.5h-26q-160 -281 -449 -281zM412 109q79 0 153 33t125.5 83.5t85.5 109
t43 111.5l27 150q-52 -40 -105.5 -58t-167.5 -42q-344 -70 -344 -244q0 -69 49.5 -106t133.5 -37z" />
    <glyph glyph-name="aacute" unicode="&#xe1;" horiz-adv-x="1181" 
d="M1171 1667l-378 -389h-156l307 389h227zM346 -35q-66 0 -121.5 15t-99.5 45.5t-69 81.5t-25 118q0 80 36.5 146.5t101.5 113.5t146.5 79t180.5 52q25 5 66.5 12.5t63.5 11.5t55.5 11.5t51.5 13t43.5 14.5t38.5 18.5t29 22.5t23.5 27.5t12.5 33.5t5 42q0 85 -59.5 139
t-161.5 54q-104 0 -189.5 -58t-136.5 -163l-160 57q51 107 138.5 179.5t183 103t198.5 30.5q69 0 129 -14t110 -43.5t81.5 -75t44.5 -108t-2 -142.5l-76 -428q-35 -203 -24 -354h-181q-8 41 0 104.5t41 141.5h-26q-160 -281 -449 -281zM412 109q79 0 153 33t125.5 83.5
t85.5 109t43 111.5l27 150q-52 -40 -105.5 -58t-167.5 -42q-344 -70 -344 -244q0 -69 49.5 -106t133.5 -37z" />
    <glyph glyph-name="acircumflex" unicode="&#xe2;" horiz-adv-x="1181" 
d="M494 1278h-170l360 360h211l231 -360h-168q-44 58 -63.5 84.5t-49.5 79t-46 100.5h-47q-85 -120 -258 -264zM346 -35q-66 0 -121.5 15t-99.5 45.5t-69 81.5t-25 118q0 80 36.5 146.5t101.5 113.5t146.5 79t180.5 52q25 5 66.5 12.5t63.5 11.5t55.5 11.5t51.5 13
t43.5 14.5t38.5 18.5t29 22.5t23.5 27.5t12.5 33.5t5 42q0 85 -59.5 139t-161.5 54q-104 0 -189.5 -58t-136.5 -163l-160 57q51 107 138.5 179.5t183 103t198.5 30.5q69 0 129 -14t110 -43.5t81.5 -75t44.5 -108t-2 -142.5l-76 -428q-35 -203 -24 -354h-181q-8 41 0 104.5
t41 141.5h-26q-160 -281 -449 -281zM412 109q79 0 153 33t125.5 83.5t85.5 109t43 111.5l27 150q-52 -40 -105.5 -58t-167.5 -42q-344 -70 -344 -244q0 -69 49.5 -106t133.5 -37z" />
    <glyph glyph-name="atilde" unicode="&#xe3;" horiz-adv-x="1181" 
d="M889 1317q-45 0 -76 16t-68 49l-38 35q-2 1 -8.5 7.5t-9 8.5t-9 7t-10.5 7t-10.5 5.5t-12 5t-12.5 3t-14 1.5q-43 0 -75.5 -36.5t-43.5 -92.5h-133q23 120 99.5 194.5t174.5 74.5q32 0 60 -10.5t43 -22t36 -31.5l39 -35q47 -47 88 -47t71.5 36.5t39.5 94.5h133
q-22 -126 -92 -198t-172 -72zM346 -35q-66 0 -121.5 15t-99.5 45.5t-69 81.5t-25 118q0 80 36.5 146.5t101.5 113.5t146.5 79t180.5 52q25 5 66.5 12.5t63.5 11.5t55.5 11.5t51.5 13t43.5 14.5t38.5 18.5t29 22.5t23.5 27.5t12.5 33.5t5 42q0 85 -59.5 139t-161.5 54
q-104 0 -189.5 -58t-136.5 -163l-160 57q51 107 138.5 179.5t183 103t198.5 30.5q69 0 129 -14t110 -43.5t81.5 -75t44.5 -108t-2 -142.5l-76 -428q-35 -203 -24 -354h-181q-8 41 0 104.5t41 141.5h-26q-160 -281 -449 -281zM412 109q79 0 153 33t125.5 83.5t85.5 109
t43 111.5l27 150q-52 -40 -105.5 -58t-167.5 -42q-344 -70 -344 -244q0 -69 49.5 -106t133.5 -37z" />
    <glyph glyph-name="adieresis" unicode="&#xe4;" horiz-adv-x="1181" 
d="M551 1352q-45 0 -73.5 28.5t-28.5 71.5q0 57 44 100t101 43q43 0 71.5 -28.5t28.5 -69.5q0 -57 -43 -101t-100 -44zM930 1352q-46 0 -74.5 28t-28.5 72q0 57 43.5 100t100.5 43q44 0 72 -29t28 -71q0 -56 -43 -99.5t-98 -43.5zM346 -35q-66 0 -121.5 15t-99.5 45.5
t-69 81.5t-25 118q0 80 36.5 146.5t101.5 113.5t146.5 79t180.5 52q25 5 66.5 12.5t63.5 11.5t55.5 11.5t51.5 13t43.5 14.5t38.5 18.5t29 22.5t23.5 27.5t12.5 33.5t5 42q0 85 -59.5 139t-161.5 54q-104 0 -189.5 -58t-136.5 -163l-160 57q51 107 138.5 179.5t183 103
t198.5 30.5q69 0 129 -14t110 -43.5t81.5 -75t44.5 -108t-2 -142.5l-76 -428q-35 -203 -24 -354h-181q-8 41 0 104.5t41 141.5h-26q-160 -281 -449 -281zM412 109q79 0 153 33t125.5 83.5t85.5 109t43 111.5l27 150q-52 -40 -105.5 -58t-167.5 -42q-344 -70 -344 -244
q0 -69 49.5 -106t133.5 -37z" />
    <glyph glyph-name="aring" unicode="&#xe5;" horiz-adv-x="1181" 
d="M721 1249q-89 0 -145 53t-56 138q0 105 83.5 184.5t197.5 79.5q89 0 144.5 -51.5t55.5 -136.5q0 -104 -83 -185.5t-197 -81.5zM737 1354q63 0 107.5 43.5t44.5 103.5q0 44 -30.5 71t-76.5 27q-63 0 -106 -42.5t-43 -102.5q0 -46 28.5 -73t75.5 -27zM346 -35
q-66 0 -121.5 15t-99.5 45.5t-69 81.5t-25 118q0 80 36.5 146.5t101.5 113.5t146.5 79t180.5 52q25 5 66.5 12.5t63.5 11.5t55.5 11.5t51.5 13t43.5 14.5t38.5 18.5t29 22.5t23.5 27.5t12.5 33.5t5 42q0 85 -59.5 139t-161.5 54q-104 0 -189.5 -58t-136.5 -163l-160 57
q51 107 138.5 179.5t183 103t198.5 30.5q69 0 129 -14t110 -43.5t81.5 -75t44.5 -108t-2 -142.5l-76 -428q-35 -203 -24 -354h-181q-8 41 0 104.5t41 141.5h-26q-160 -281 -449 -281zM412 109q79 0 153 33t125.5 83.5t85.5 109t43 111.5l27 150q-52 -40 -105.5 -58
t-167.5 -42q-344 -70 -344 -244q0 -69 49.5 -106t133.5 -37z" />
    <glyph glyph-name="ae" unicode="&#xe6;" horiz-adv-x="2023" 
d="M346 -35q-143 0 -229 65t-86 193q0 70 28 129.5t72.5 101t107 75t124.5 53.5t133 34q26 5 74 13.5t72.5 13t64 14t60.5 18.5t47 23.5t39 31.5t22.5 41.5t9.5 53.5q0 85 -62.5 138t-160.5 53q-103 0 -188.5 -59t-135.5 -162l-160 57q51 106 138 178.5t183 103.5t199 31
q131 0 225.5 -57t116.5 -180q183 237 471 237q61 0 118 -12t113.5 -39t98 -71t72 -108t35 -150t-12.5 -197l-10 -58h-907q-23 -181 66 -292t251 -111q126 0 235.5 71.5t176.5 186.5l154 -63q-93 -166 -251 -261.5t-345 -95.5q-110 0 -196.5 33.5t-146.5 109t-75 187.5h-27
q-84 -155 -219 -242.5t-295 -87.5zM1051 668h710q9 75 -3 134.5t-39 97.5t-67 63.5t-83.5 36t-91.5 10.5q-144 0 -258.5 -93t-167.5 -249zM410 106q76 0 150 33.5t126.5 85t88 110.5t44.5 111l27 150q-61 -42 -117.5 -62t-144.5 -34q-39 -6 -77.5 -15t-91.5 -29t-92.5 -45.5
t-67.5 -66.5t-28 -90q0 -70 51 -109t132 -39z" />
    <glyph glyph-name="ccedilla" unicode="&#xe7;" horiz-adv-x="1239" 
d="M586 133q130 0 239 72.5t179 195.5l153 -61q-92 -173 -245 -270t-330 -105q-44 -46 -138 -119l11 -10q64 35 116 35q70 0 113 -38.5t43 -104.5q0 -94 -80.5 -161t-200.5 -67q-77 0 -141.5 31t-101.5 86l80 74q27 -43 74.5 -67.5t99.5 -24.5q61 0 103 32.5t42 79.5
q0 35 -28.5 56.5t-73.5 21.5q-53 0 -99 -27l-55 56l125 151q-185 23 -291 148.5t-106 326.5q0 110 33 217t94.5 197.5t144.5 159.5t189.5 108t222.5 39q109 0 198 -32.5t156 -108.5t90 -188l-182 -68q-21 113 -99 172t-192 59q-130 0 -238 -76t-167.5 -196.5t-59.5 -253.5
q0 -158 87.5 -249t234.5 -91z" />
    <glyph glyph-name="egrave" unicode="&#xe8;" horiz-adv-x="1261" 
d="M848 1278h-158l-241 389h227zM545 -35q-214 0 -343.5 128.5t-129.5 344.5q0 191 90.5 358.5t247.5 268t340 100.5q61 0 117.5 -12t113 -39t98 -71t72 -108t35.5 -150t-12 -197l-13 -68h-901q-24 -184 64.5 -289.5t253.5 -105.5q125 0 231 72t174 188l156 -63
q-90 -164 -249 -260.5t-345 -96.5zM297 684h707q10 68 -1.5 124t-38.5 93.5t-66.5 63t-84 36.5t-94.5 11q-144 0 -258.5 -92.5t-163.5 -235.5z" />
    <glyph glyph-name="eacute" unicode="&#xe9;" horiz-adv-x="1261" 
d="M1206 1667l-379 -389h-155l307 389h227zM545 -35q-214 0 -343.5 128.5t-129.5 344.5q0 191 90.5 358.5t247.5 268t340 100.5q61 0 117.5 -12t113 -39t98 -71t72 -108t35.5 -150t-12 -197l-13 -68h-901q-24 -184 64.5 -289.5t253.5 -105.5q125 0 231 72t174 188l156 -63
q-90 -164 -249 -260.5t-345 -96.5zM297 684h707q10 68 -1.5 124t-38.5 93.5t-66.5 63t-84 36.5t-94.5 11q-144 0 -258.5 -92.5t-163.5 -235.5z" />
    <glyph glyph-name="ecircumflex" unicode="&#xea;" horiz-adv-x="1261" 
d="M528 1278h-170l361 360h211l231 -360h-168q-44 58 -63.5 84.5t-49.5 79t-46 100.5h-48q-85 -120 -258 -264zM545 -35q-214 0 -343.5 128.5t-129.5 344.5q0 191 90.5 358.5t247.5 268t340 100.5q61 0 117.5 -12t113 -39t98 -71t72 -108t35.5 -150t-12 -197l-13 -68h-901
q-24 -184 64.5 -289.5t253.5 -105.5q125 0 231 72t174 188l156 -63q-90 -164 -249 -260.5t-345 -96.5zM297 684h707q10 68 -1.5 124t-38.5 93.5t-66.5 63t-84 36.5t-94.5 11q-144 0 -258.5 -92.5t-163.5 -235.5z" />
    <glyph glyph-name="edieresis" unicode="&#xeb;" horiz-adv-x="1261" 
d="M586 1352q-45 0 -74 28.5t-29 71.5q0 57 44.5 100t101.5 43q43 0 71.5 -28.5t28.5 -69.5q0 -57 -43 -101t-100 -44zM965 1352q-47 0 -75 28t-28 72q0 57 43.5 100t100.5 43q44 0 72 -29t28 -71q0 -56 -43 -99.5t-98 -43.5zM545 -35q-214 0 -343.5 128.5t-129.5 344.5
q0 191 90.5 358.5t247.5 268t340 100.5q61 0 117.5 -12t113 -39t98 -71t72 -108t35.5 -150t-12 -197l-13 -68h-901q-24 -184 64.5 -289.5t253.5 -105.5q125 0 231 72t174 188l156 -63q-90 -164 -249 -260.5t-345 -96.5zM297 684h707q10 68 -1.5 124t-38.5 93.5t-66.5 63
t-84 36.5t-94.5 11q-144 0 -258.5 -92.5t-163.5 -235.5z" />
    <glyph glyph-name="igrave" unicode="&#xec;" horiz-adv-x="518" 
d="M471 1272h-158l-241 389h227zM250 0h-178l198 1133h181z" />
    <glyph glyph-name="iacute" unicode="&#xed;" horiz-adv-x="518" 
d="M829 1661l-378 -389h-156l307 389h227zM250 0h-178l198 1133h181z" />
    <glyph glyph-name="icircumflex" unicode="&#xee;" horiz-adv-x="518" 
d="M152 1272h-170l360 360h211l231 -360h-168q-44 58 -63.5 84.5t-49.5 79t-46 100.5h-47q-85 -120 -258 -264zM250 0h-178l198 1133h181z" />
    <glyph glyph-name="idieresis" unicode="&#xef;" horiz-adv-x="518" 
d="M209 1346q-45 0 -74 28.5t-29 71.5q0 57 44.5 100t101.5 43q43 0 71.5 -28.5t28.5 -69.5q0 -57 -43 -101t-100 -44zM588 1346q-46 0 -74.5 28t-28.5 72q0 57 43.5 100t100.5 43q44 0 72 -29t28 -71q0 -56 -43 -99.5t-98 -43.5zM250 0h-178l198 1133h181z" />
    <glyph glyph-name="eth" unicode="&#xf0;" horiz-adv-x="1327" 
d="M1212 1554l-198 -102q248 -227 248 -594q0 -136 -31.5 -267t-94 -244t-147.5 -198.5t-200 -134.5t-244 -49q-216 0 -346.5 127.5t-130.5 335.5q0 103 33 203.5t93 184t138.5 148t176.5 100.5t200 36q129 0 219 -61t157 -191h29q-32 170 -99.5 295t-176.5 217l-316 -166
l-39 96l262 137q-107 69 -264 127l74 148q231 -77 371 -180l243 127zM571 129q124 0 229 68.5t164.5 181t59.5 239.5q0 148 -85.5 235t-223.5 87q-122 0 -228 -68t-167.5 -180t-61.5 -237q0 -144 84 -235t229 -91z" />
    <glyph glyph-name="ntilde" unicode="&#xf1;" horiz-adv-x="1298" 
d="M932 1317q-45 0 -76 16t-68 49l-38 35q-2 1 -8.5 7.5t-9 8.5t-9 7t-10.5 7t-10.5 5.5t-12 5t-12.5 3t-14 1.5q-43 0 -75.5 -36.5t-43.5 -92.5h-133q23 120 99.5 194.5t174.5 74.5q32 0 60 -10.5t43 -22t36 -31.5l39 -35q47 -47 88 -47t71.5 36.5t39.5 94.5h133
q-22 -126 -92 -198t-172 -72zM250 0h-178l198 1133h176q0 -2 -4 -20.5t-5 -23t-4.5 -22t-6 -25.5t-7 -25t-8.5 -28.5t-10 -28t-13 -32t-15 -31.5h28q172 268 443 268q81 0 146.5 -24.5t116 -78.5t66.5 -140t-2 -211l-127 -711h-178l111 633q33 179 -28.5 272.5t-192.5 93.5
q-148 0 -258.5 -111t-139.5 -270z" />
    <glyph glyph-name="ograve" unicode="&#xf2;" horiz-adv-x="1312" 
d="M868 1278h-157l-242 389h227zM551 -35q-220 0 -348.5 130t-128.5 351q0 137 52 267t142 230t220 161t276 61q220 0 348.5 -130t128.5 -351q0 -137 -52 -267t-141.5 -230t-219.5 -161t-277 -61zM582 133q131 0 240 75t169 195.5t60 255.5q0 156 -85 248t-231 92
q-100 0 -188.5 -45t-149 -119t-96 -168.5t-35.5 -193.5q0 -157 84.5 -248.5t231.5 -91.5z" />
    <glyph glyph-name="oacute" unicode="&#xf3;" horiz-adv-x="1312" 
d="M1229 1667l-379 -389h-156l307 389h228zM551 -35q-220 0 -348.5 130t-128.5 351q0 137 52 267t142 230t220 161t276 61q220 0 348.5 -130t128.5 -351q0 -137 -52 -267t-141.5 -230t-219.5 -161t-277 -61zM582 133q131 0 240 75t169 195.5t60 255.5q0 156 -85 248t-231 92
q-100 0 -188.5 -45t-149 -119t-96 -168.5t-35.5 -193.5q0 -157 84.5 -248.5t231.5 -91.5z" />
    <glyph glyph-name="ocircumflex" unicode="&#xf4;" horiz-adv-x="1312" 
d="M551 1278h-170l360 360h211l232 -360h-168q-47 61 -64.5 85.5t-48.5 77.5t-47 101h-47q-85 -120 -258 -264zM551 -35q-220 0 -348.5 130t-128.5 351q0 137 52 267t142 230t220 161t276 61q220 0 348.5 -130t128.5 -351q0 -137 -52 -267t-141.5 -230t-219.5 -161t-277 -61
zM582 133q131 0 240 75t169 195.5t60 255.5q0 156 -85 248t-231 92q-100 0 -188.5 -45t-149 -119t-96 -168.5t-35.5 -193.5q0 -157 84.5 -248.5t231.5 -91.5z" />
    <glyph glyph-name="otilde" unicode="&#xf5;" horiz-adv-x="1312" 
d="M944 1317q-45 0 -75.5 16t-67.5 49l-39 35q-2 1 -8.5 7.5t-9 8.5t-9 7t-10.5 7t-10.5 5.5t-12 5t-12.5 3t-14 1.5q-43 0 -75.5 -36.5t-43.5 -92.5h-133q23 120 99.5 194.5t174.5 74.5q32 0 60 -10.5t43.5 -22t36.5 -31.5l39 -35q47 -47 88 -47t71 36.5t39 94.5h133
q-22 -126 -92 -198t-172 -72zM551 -35q-220 0 -348.5 130t-128.5 351q0 137 52 267t142 230t220 161t276 61q220 0 348.5 -130t128.5 -351q0 -137 -52 -267t-141.5 -230t-219.5 -161t-277 -61zM582 133q131 0 240 75t169 195.5t60 255.5q0 156 -85 248t-231 92
q-100 0 -188.5 -45t-149 -119t-96 -168.5t-35.5 -193.5q0 -157 84.5 -248.5t231.5 -91.5z" />
    <glyph glyph-name="odieresis" unicode="&#xf6;" horiz-adv-x="1312" 
d="M608 1352q-45 0 -73.5 28.5t-28.5 71.5q0 57 44 100t101 43q43 0 72 -28.5t29 -69.5q0 -57 -43.5 -101t-100.5 -44zM987 1352q-46 0 -74 28t-28 72q0 57 43 100t100 43q44 0 72 -29t28 -71q0 -56 -43 -99.5t-98 -43.5zM551 -35q-220 0 -348.5 130t-128.5 351
q0 137 52 267t142 230t220 161t276 61q220 0 348.5 -130t128.5 -351q0 -137 -52 -267t-141.5 -230t-219.5 -161t-277 -61zM582 133q131 0 240 75t169 195.5t60 255.5q0 156 -85 248t-231 92q-100 0 -188.5 -45t-149 -119t-96 -168.5t-35.5 -193.5q0 -157 84.5 -248.5
t231.5 -91.5z" />
    <glyph glyph-name="divide" unicode="&#xf7;" horiz-adv-x="1056" 
d="M580 836q-44 0 -72.5 29.5t-28.5 72.5q0 54 43.5 96.5t100.5 42.5q44 0 72 -27.5t28 -70.5q0 -55 -43.5 -99t-99.5 -44zM920 551h-787l27 149h786zM463 172q-44 0 -72.5 29.5t-28.5 72.5q0 55 44 98.5t100 43.5q44 0 72 -28.5t28 -70.5q0 -56 -44 -100.5t-99 -44.5z" />
    <glyph glyph-name="oslash" unicode="&#xf8;" horiz-adv-x="1312" 
d="M1149 1184h162l-168 -183q98 -128 98 -317q0 -137 -52 -267t-141.5 -230t-219.5 -161t-277 -61q-169 0 -285 78l-90 -98h-170l168 182q-100 124 -100 319q0 137 52 267t142 230t220 161t276 61q173 0 291 -82zM266 473q0 -117 47 -197l613 666q-75 57 -191 57
q-100 0 -188.5 -45t-149 -119t-96 -168.5t-35.5 -193.5zM1051 659q0 111 -45 193l-611 -668q79 -51 187 -51q131 0 240 75t169 195.5t60 255.5z" />
    <glyph glyph-name="ugrave" unicode="&#xf9;" horiz-adv-x="1280" 
d="M840 1278h-158l-242 389h228zM457 -35q-84 0 -150 24.5t-116 79.5t-65 142t3 211l127 711h178l-112 -644q-15 -97 -6 -165t42 -110.5t77 -61.5t100 -19q99 0 183 55.5t134 138t66 175.5l112 631h178l-137 -779q-38 -210 -24 -354h-181q-2 41 -2 75t10 76.5t31 94.5h-26
q-83 -150 -187.5 -215.5t-234.5 -65.5z" />
    <glyph glyph-name="uacute" unicode="&#xfa;" horiz-adv-x="1280" 
d="M1198 1667l-379 -389h-155l307 389h227zM457 -35q-84 0 -150 24.5t-116 79.5t-65 142t3 211l127 711h178l-112 -644q-15 -97 -6 -165t42 -110.5t77 -61.5t100 -19q99 0 183 55.5t134 138t66 175.5l112 631h178l-137 -779q-38 -210 -24 -354h-181q-2 41 -2 75t10 76.5
t31 94.5h-26q-83 -150 -187.5 -215.5t-234.5 -65.5z" />
    <glyph glyph-name="ucircumflex" unicode="&#xfb;" horiz-adv-x="1280" 
d="M520 1278h-170l361 360h211l231 -360h-168q-47 61 -64.5 85.5t-48.5 77.5t-47 101h-47q-85 -120 -258 -264zM457 -35q-84 0 -150 24.5t-116 79.5t-65 142t3 211l127 711h178l-112 -644q-15 -97 -6 -165t42 -110.5t77 -61.5t100 -19q99 0 183 55.5t134 138t66 175.5
l112 631h178l-137 -779q-38 -210 -24 -354h-181q-2 41 -2 75t10 76.5t31 94.5h-26q-83 -150 -187.5 -215.5t-234.5 -65.5z" />
    <glyph glyph-name="udieresis" unicode="&#xfc;" horiz-adv-x="1280" 
d="M578 1352q-45 0 -74 28.5t-29 71.5q0 57 44.5 100t101.5 43q43 0 71.5 -28.5t28.5 -69.5q0 -57 -43 -101t-100 -44zM956 1352q-46 0 -74 28t-28 72q0 57 43 100t100 43q44 0 72.5 -29t28.5 -71q0 -56 -43.5 -99.5t-98.5 -43.5zM457 -35q-84 0 -150 24.5t-116 79.5
t-65 142t3 211l127 711h178l-112 -644q-15 -97 -6 -165t42 -110.5t77 -61.5t100 -19q99 0 183 55.5t134 138t66 175.5l112 631h178l-137 -779q-38 -210 -24 -354h-181q-2 41 -2 75t10 76.5t31 94.5h-26q-83 -150 -187.5 -215.5t-234.5 -65.5z" />
    <glyph glyph-name="yacute" unicode="&#xfd;" horiz-adv-x="1134" 
d="M1128 1667l-378 -389h-156l307 389h227zM311 -451h-180l242 426l-250 1158h196q113 -517 164 -977h29q214 459 508 977h192z" />
    <glyph glyph-name="thorn" unicode="&#xfe;" horiz-adv-x="1363" 
d="M170 -451h-178l368 2089h179q-4 -20 -23 -129.5t-27.5 -155.5t-27 -138t-37.5 -169.5t-41 -156.5h29q178 276 458 276q193 0 307.5 -129t114.5 -342q0 -111 -32.5 -220t-92 -200t-138 -161t-176 -109t-200.5 -39q-131 0 -224.5 66t-133.5 200h-27q-3 -51 -7.5 -100.5
t-12.5 -107.5t-12.5 -92.5t-16 -102.5t-15 -89t-18 -100t-16.5 -90zM647 133q121 0 226 74.5t166 195t61 254.5q0 155 -81.5 248.5t-217.5 93.5q-122 0 -229.5 -74t-170.5 -195t-63 -253q0 -156 86 -250t223 -94z" />
    <glyph glyph-name="ydieresis" unicode="&#xff;" horiz-adv-x="1134" 
d="M510 1352q-45 0 -73.5 28.5t-28.5 71.5q0 57 44 100t101 43q43 0 71.5 -28.5t28.5 -69.5q0 -57 -43 -101t-100 -44zM889 1352q-47 0 -75 28t-28 72q0 57 43.5 100t100.5 43q44 0 72 -29t28 -71q0 -56 -43 -99.5t-98 -43.5zM311 -451h-180l242 426l-250 1158h196
q113 -517 164 -977h29q214 459 508 977h192z" />
    <glyph glyph-name="Amacron" unicode="&#x100;" horiz-adv-x="1525" 
d="M1329 1810h-692l25 144h694zM121 0h-201l920 1597h215l352 -1597h-203q-1 3 -10.5 47t-11.5 51.5t-10.5 48.5t-11 54t-9.5 50.5t-9.5 56t-7.5 52t-7.5 57t-5 53t-3.5 56.5l-18 19q-201 -29 -340 -29q-138 0 -336 29l-27 -21q-78 -175 -276 -524zM492 686l12 -20
q159 28 291 28q130 0 258 -28l16 18q-112 406 -129 739h-53q-149 -355 -395 -737z" />
    <glyph glyph-name="amacron" unicode="&#x101;" horiz-adv-x="1181" 
d="M1092 1391h-689l25 137h688zM346 -35q-66 0 -121.5 15t-99.5 45.5t-69 81.5t-25 118q0 80 36.5 146.5t101.5 113.5t146.5 79t180.5 52q25 5 66.5 12.5t63.5 11.5t55.5 11.5t51.5 13t43.5 14.5t38.5 18.5t29 22.5t23.5 27.5t12.5 33.5t5 42q0 85 -59.5 139t-161.5 54
q-104 0 -189.5 -58t-136.5 -163l-160 57q51 107 138.5 179.5t183 103t198.5 30.5q69 0 129 -14t110 -43.5t81.5 -75t44.5 -108t-2 -142.5l-76 -428q-35 -203 -24 -354h-181q-8 41 0 104.5t41 141.5h-26q-160 -281 -449 -281zM412 109q79 0 153 33t125.5 83.5t85.5 109
t43 111.5l27 150q-52 -40 -105.5 -58t-167.5 -42q-344 -70 -344 -244q0 -69 49.5 -106t133.5 -37z" />
    <glyph glyph-name="Abreve" unicode="&#x102;" horiz-adv-x="1525" 
d="M967 1722q-166 0 -256 102t-70 236h158q-9 -79 43.5 -139.5t146.5 -60.5t168 60t94 140h160q-29 -135 -153 -236.5t-291 -101.5zM121 0h-201l920 1597h215l352 -1597h-203q-1 3 -10.5 47t-11.5 51.5t-10.5 48.5t-11 54t-9.5 50.5t-9.5 56t-7.5 52t-7.5 57t-5 53
t-3.5 56.5l-18 19q-201 -29 -340 -29q-138 0 -336 29l-27 -21q-78 -175 -276 -524zM492 686l12 -20q159 28 291 28q130 0 258 -28l16 18q-112 406 -129 739h-53q-149 -355 -395 -737z" />
    <glyph glyph-name="abreve" unicode="&#x103;" horiz-adv-x="1181" 
d="M725 1274q-172 0 -253.5 110.5t-55.5 284.5h151q-15 -116 35 -187t150 -71q99 0 173 71t99 187h154q-37 -176 -160.5 -285.5t-292.5 -109.5zM346 -35q-66 0 -121.5 15t-99.5 45.5t-69 81.5t-25 118q0 80 36.5 146.5t101.5 113.5t146.5 79t180.5 52q25 5 66.5 12.5
t63.5 11.5t55.5 11.5t51.5 13t43.5 14.5t38.5 18.5t29 22.5t23.5 27.5t12.5 33.5t5 42q0 85 -59.5 139t-161.5 54q-104 0 -189.5 -58t-136.5 -163l-160 57q51 107 138.5 179.5t183 103t198.5 30.5q69 0 129 -14t110 -43.5t81.5 -75t44.5 -108t-2 -142.5l-76 -428
q-35 -203 -24 -354h-181q-8 41 0 104.5t41 141.5h-26q-160 -281 -449 -281zM412 109q79 0 153 33t125.5 83.5t85.5 109t43 111.5l27 150q-52 -40 -105.5 -58t-167.5 -42q-344 -70 -344 -244q0 -69 49.5 -106t133.5 -37z" />
    <glyph glyph-name="Aogonek" unicode="&#x104;" horiz-adv-x="1525" 
d="M1141 -221q0 -54 39.5 -87.5t107.5 -33.5q46 0 92 14l-22 -118q-58 -17 -113 -17q-106 0 -176 50.5t-70 142.5q0 91 61.5 159.5t147.5 110.5h-4q-1 3 -10.5 47t-11.5 51.5t-10.5 48.5t-11 54t-9.5 50.5t-9.5 56t-7.5 52t-7.5 57t-5 53t-3.5 56.5l-18 19
q-201 -29 -340 -29q-138 0 -336 29l-27 -21q-78 -175 -276 -524h-201l920 1597h215l352 -1597h-55q-89 -30 -150 -90t-61 -131zM1053 666l16 18q-112 406 -129 739h-53q-149 -355 -395 -737l12 -20q159 28 291 28q130 0 258 -28z" />
    <glyph glyph-name="aogonek" unicode="&#x105;" horiz-adv-x="1181" 
d="M698 1165q69 0 129 -14t110 -43.5t81.5 -75t44.5 -108t-2 -142.5l-76 -428q-35 -203 -24 -354h-43q-88 -33 -146.5 -92t-58.5 -129q0 -52 38 -83.5t101 -31.5q46 0 92 14l-22 -127q-55 -14 -107 -14q-109 0 -176.5 51t-67.5 144q0 91 63.5 161.5t147.5 106.5h-2
q-8 41 0 104.5t41 141.5h-26q-160 -281 -449 -281q-66 0 -121.5 15t-99.5 45.5t-69 81.5t-25 118q0 80 36.5 146.5t101.5 113.5t146.5 79t180.5 52q25 5 66.5 12.5t63.5 11.5t55.5 11.5t51.5 13t43.5 14.5t38.5 18.5t29 22.5t23.5 27.5t12.5 33.5t5 42q0 85 -59.5 139
t-161.5 54q-104 0 -189.5 -58t-136.5 -163l-160 57q51 107 138.5 179.5t183 103t198.5 30.5zM819 446l27 150q-52 -40 -105.5 -58t-167.5 -42q-344 -70 -344 -244q0 -69 49.5 -106t133.5 -37q79 0 153 33t125.5 83.5t85.5 109t43 111.5z" />
    <glyph glyph-name="Cacute" unicode="&#x106;" horiz-adv-x="1712" 
d="M1538 2056l-395 -336h-164l311 336h248zM807 -35q-312 0 -497 180.5t-185 487.5q0 154 48 303t136.5 273t206 219t265.5 148.5t306 53.5q159 0 290.5 -53t222.5 -162.5t116 -261.5l-186 -70q-38 172 -165 270.5t-310 98.5q-151 0 -287.5 -68t-232 -179t-151.5 -255
t-56 -293q0 -130 43 -231t117 -161.5t166 -91t196 -30.5q114 0 218.5 36.5t186 100.5t145 144.5t107.5 175.5l162 -61q-130 -265 -353.5 -419.5t-508.5 -154.5z" />
    <glyph glyph-name="cacute" unicode="&#x107;" horiz-adv-x="1239" 
d="M1190 1667l-379 -389h-156l308 389h227zM551 -35q-218 0 -347.5 128t-129.5 351q0 110 33 217t94.5 197.5t144.5 159.5t189.5 108t222.5 39q109 0 198 -32.5t156 -108.5t90 -188l-182 -68q-21 113 -99 172t-192 59q-130 0 -238 -76t-167.5 -196.5t-59.5 -253.5
q0 -158 87.5 -249t234.5 -91q130 0 239 72.5t179 195.5l153 -61q-96 -181 -257.5 -278t-348.5 -97z" />
    <glyph glyph-name="Cdotaccent" unicode="&#x10a;" horiz-adv-x="1712" 
d="M1085 1776q-49 0 -79.5 31t-30.5 79q0 61 47.5 107.5t110.5 46.5q49 0 79.5 -30.5t30.5 -76.5q0 -61 -48 -109t-110 -48zM807 -35q-312 0 -497 180.5t-185 487.5q0 154 48 303t136.5 273t206 219t265.5 148.5t306 53.5q159 0 290.5 -53t222.5 -162.5t116 -261.5l-186 -70
q-38 172 -165 270.5t-310 98.5q-151 0 -287.5 -68t-232 -179t-151.5 -255t-56 -293q0 -130 43 -231t117 -161.5t166 -91t196 -30.5q114 0 218.5 36.5t186 100.5t145 144.5t107.5 175.5l162 -61q-130 -265 -353.5 -419.5t-508.5 -154.5z" />
    <glyph glyph-name="cdotaccent" unicode="&#x10b;" horiz-adv-x="1239" 
d="M764 1386q-47 0 -78 32t-31 79q0 61 47.5 107.5t110.5 46.5q49 0 79 -30.5t30 -76.5q0 -62 -47.5 -110t-110.5 -48zM551 -35q-218 0 -347.5 128t-129.5 351q0 110 33 217t94.5 197.5t144.5 159.5t189.5 108t222.5 39q109 0 198 -32.5t156 -108.5t90 -188l-182 -68
q-21 113 -99 172t-192 59q-130 0 -238 -76t-167.5 -196.5t-59.5 -253.5q0 -158 87.5 -249t234.5 -91q130 0 239 72.5t179 195.5l153 -61q-96 -181 -257.5 -278t-348.5 -97z" />
    <glyph glyph-name="Ccaron" unicode="&#x10c;" horiz-adv-x="1712" 
d="M1178 1720h-207l-215 322h166q36 -42 54.5 -65.5t44.5 -71t40 -101.5h55q33 54 74.5 101t69.5 71.5t79 65.5h166zM807 -35q-312 0 -497 180.5t-185 487.5q0 154 48 303t136.5 273t206 219t265.5 148.5t306 53.5q159 0 290.5 -53t222.5 -162.5t116 -261.5l-186 -70
q-38 172 -165 270.5t-310 98.5q-151 0 -287.5 -68t-232 -179t-151.5 -255t-56 -293q0 -130 43 -231t117 -161.5t166 -91t196 -30.5q114 0 218.5 36.5t186 100.5t145 144.5t107.5 175.5l162 -61q-130 -265 -353.5 -419.5t-508.5 -154.5z" />
    <glyph glyph-name="ccaron" unicode="&#x10d;" horiz-adv-x="1239" 
d="M850 1284h-209l-231 369h170q42 -58 64.5 -90t51 -82.5t47.5 -100.5h41q12 17 24.5 33.5t27.5 34t26 30t29.5 31t27.5 28t31 30t29.5 27t33 30.5t31.5 29h168zM551 -35q-218 0 -347.5 128t-129.5 351q0 110 33 217t94.5 197.5t144.5 159.5t189.5 108t222.5 39
q109 0 198 -32.5t156 -108.5t90 -188l-182 -68q-21 113 -99 172t-192 59q-130 0 -238 -76t-167.5 -196.5t-59.5 -253.5q0 -158 87.5 -249t234.5 -91q130 0 239 72.5t179 195.5l153 -61q-96 -181 -257.5 -278t-348.5 -97z" />
    <glyph glyph-name="Dcaron" unicode="&#x10e;" horiz-adv-x="1642" 
d="M1071 1720h-207l-215 322h166q36 -42 54.5 -65.5t44.5 -71t40 -101.5h56q33 54 74.5 101t69.5 71.5t79 65.5h166zM700 0h-596l283 1597h578q165 0 288 -44t198 -126.5t111.5 -193t36.5 -250.5q0 -150 -41 -294.5t-120 -268.5t-186.5 -218.5t-250 -148t-301.5 -53.5z
M295 168l20 -25q173 31 381 31q162 0 296.5 62.5t222 168t135 241.5t47.5 286q0 130 -35.5 225.5t-102.5 153t-156.5 85t-203.5 27.5q-83 0 -125.5 1t-105.5 8t-121 22l-29 -18q-53 -641 -223 -1268z" />
    <glyph glyph-name="dcaron" unicode="&#x10f;" horiz-adv-x="1368" 
d="M1554 1155h-110q111 166 225 264q-106 21 -106 101q0 60 47.5 106.5t111.5 46.5q47 0 78 -31t31 -77q0 -48 -45 -112.5t-232 -297.5zM502 -35q-197 0 -312.5 127.5t-115.5 343.5q0 187 85 354.5t233.5 271t320.5 103.5q287 0 354 -293h27q29 308 112 766h178l-225 -1284
q-23 -128 -27.5 -210.5t1.5 -143.5h-179q-5 66 1 118.5t32 129.5h-26q-85 -145 -205 -214t-254 -69zM565 133q122 0 229.5 74.5t170.5 195.5t63 254q0 155 -86 248.5t-223 93.5q-123 0 -228 -75t-165 -196t-60 -255q0 -154 81.5 -247t217.5 -93z" />
    <glyph glyph-name="Dcroat" unicode="&#x110;" horiz-adv-x="1642" 
d="M387 1597h578q165 0 288 -44t198 -126.5t111.5 -193t36.5 -250.5q0 -150 -41 -294.5t-120 -268.5t-186.5 -218.5t-250 -148t-301.5 -53.5h-596l127 721h-182l27 153h184zM696 174q162 0 296.5 62.5t222 168t135 241.5t47.5 286q0 130 -35.5 225.5t-102.5 153t-156.5 85
t-203.5 27.5q-83 0 -125.5 1t-105.5 8t-121 22l-29 -18q-26 -302 -69 -562h479l-27 -153h-479q-51 -266 -127 -553l20 -25q173 31 381 31z" />
    <glyph glyph-name="dcroat" unicode="&#x111;" horiz-adv-x="1368" 
d="M1352 1454h264l-27 -141h-262l-168 -959q-23 -128 -27.5 -210.5t1.5 -143.5h-179q-5 66 1 118.5t32 129.5h-26q-85 -145 -205 -214t-254 -69q-197 0 -312.5 127.5t-115.5 343.5q0 187 85 354.5t233.5 271t320.5 103.5q287 0 354 -293h27q20 210 55 441h-283l25 141h283
q5 31 16 92.5t16 91.5h178zM565 133q122 0 229.5 74.5t170.5 195.5t63 254q0 155 -86 248.5t-223 93.5q-123 0 -228 -75t-165 -196t-60 -255q0 -154 81.5 -247t217.5 -93z" />
    <glyph glyph-name="Emacron" unicode="&#x112;" horiz-adv-x="1339" 
d="M1257 1810h-692l25 144h694zM1141 0h-1037l283 1597h1016l-33 -174h-127.5h-142t-126 1.5t-146 5t-132 9.5t-149.5 15l-29 -18q-6 -260 -92 -545l14 -23q139 19 291.5 28.5t246 11t261.5 1.5l-33 -182q-168 0 -260.5 1.5t-241 11t-278.5 28.5l-25 -20q-18 -308 -106 -580
l20 -25q146 16 310 24.5t265 9.5t281 1z" />
    <glyph glyph-name="emacron" unicode="&#x113;" horiz-adv-x="1261" 
d="M1126 1391h-688l25 137h688zM545 -35q-214 0 -343.5 128.5t-129.5 344.5q0 191 90.5 358.5t247.5 268t340 100.5q61 0 117.5 -12t113 -39t98 -71t72 -108t35.5 -150t-12 -197l-13 -68h-901q-24 -184 64.5 -289.5t253.5 -105.5q125 0 231 72t174 188l156 -63
q-90 -164 -249 -260.5t-345 -96.5zM297 684h707q10 68 -1.5 124t-38.5 93.5t-66.5 63t-84 36.5t-94.5 11q-144 0 -258.5 -92.5t-163.5 -235.5z" />
    <glyph glyph-name="Edotaccent" unicode="&#x116;" horiz-adv-x="1339" 
d="M903 1776q-49 0 -79.5 31t-30.5 79q0 62 47 108t110 46q49 0 80 -30.5t31 -76.5q0 -61 -48 -109t-110 -48zM1141 0h-1037l283 1597h1016l-33 -174h-127.5h-142t-126 1.5t-146 5t-132 9.5t-149.5 15l-29 -18q-6 -260 -92 -545l14 -23q139 19 291.5 28.5t246 11t261.5 1.5
l-33 -182q-168 0 -260.5 1.5t-241 11t-278.5 28.5l-25 -20q-18 -308 -106 -580l20 -25q146 16 310 24.5t265 9.5t281 1z" />
    <glyph glyph-name="edotaccent" unicode="&#x117;" horiz-adv-x="1261" 
d="M780 1386q-47 0 -77.5 31.5t-30.5 79.5q0 62 47 108t110 46q49 0 79 -30.5t30 -76.5q0 -62 -47.5 -110t-110.5 -48zM545 -35q-214 0 -343.5 128.5t-129.5 344.5q0 191 90.5 358.5t247.5 268t340 100.5q61 0 117.5 -12t113 -39t98 -71t72 -108t35.5 -150t-12 -197l-13 -68
h-901q-24 -184 64.5 -289.5t253.5 -105.5q125 0 231 72t174 188l156 -63q-90 -164 -249 -260.5t-345 -96.5zM297 684h707q10 68 -1.5 124t-38.5 93.5t-66.5 63t-84 36.5t-94.5 11q-144 0 -258.5 -92.5t-163.5 -235.5z" />
    <glyph glyph-name="Eogonek" unicode="&#x118;" horiz-adv-x="1339" 
d="M547 1454l-29 -18q-6 -260 -92 -545l14 -23q139 19 291.5 28.5t246 11t261.5 1.5l-33 -182q-168 0 -260.5 1.5t-241 11t-278.5 28.5l-25 -20q-18 -308 -106 -580l20 -25q146 16 310 24.5t265 9.5t281 1l-30 -178q-89 -30 -150 -90t-61 -131q0 -54 39.5 -87.5t107.5 -33.5
q47 0 92 14l-22 -118q-58 -17 -113 -17q-106 0 -176 50.5t-70 142.5q0 91 61.5 159.5t147.5 110.5h-893l283 1597h1016l-33 -174h-127.5h-142t-126 1.5t-146 5t-132 9.5t-149.5 15z" />
    <glyph glyph-name="eogonek" unicode="&#x119;" horiz-adv-x="1261" 
d="M750 1165q61 0 117.5 -12t113 -39t98 -71t72 -108t35.5 -150t-12 -197l-13 -68h-901q-24 -184 64.5 -289.5t253.5 -105.5q125 0 231 72t174 188l156 -63q-64 -118 -166.5 -202t-227.5 -124q-84 -33 -139 -90.5t-55 -126.5q0 -52 38 -83.5t101 -31.5q46 0 92 14l-22 -127
q-55 -14 -107 -14q-109 0 -176 51t-67 144q0 73 41.5 132.5t105.5 100.5h-12q-214 0 -343.5 128.5t-129.5 344.5q0 191 90.5 358.5t247.5 268t340 100.5zM297 684h707q10 68 -1.5 124t-38.5 93.5t-66.5 63t-84 36.5t-94.5 11q-144 0 -258.5 -92.5t-163.5 -235.5z" />
    <glyph glyph-name="Ecaron" unicode="&#x11a;" horiz-adv-x="1339" 
d="M997 1720h-206l-216 322h166q37 -43 55 -65.5t44.5 -71t40.5 -101.5h55q33 54 74.5 101t69.5 71.5t79 65.5h166zM1141 0h-1037l283 1597h1016l-33 -174h-127.5h-142t-126 1.5t-146 5t-132 9.5t-149.5 15l-29 -18q-6 -260 -92 -545l14 -23q139 19 291.5 28.5t246 11
t261.5 1.5l-33 -182q-168 0 -260.5 1.5t-241 11t-278.5 28.5l-25 -20q-18 -308 -106 -580l20 -25q146 16 310 24.5t265 9.5t281 1z" />
    <glyph glyph-name="ecaron" unicode="&#x11b;" horiz-adv-x="1261" 
d="M866 1284h-209l-231 369h170q44 -60 65 -90.5t50.5 -81.5t48.5 -101h41q12 17 24.5 33.5t27.5 34t26 30t29.5 31t27.5 28t31 30t29.5 27t33 30.5t31.5 29h168zM545 -35q-214 0 -343.5 128.5t-129.5 344.5q0 191 90.5 358.5t247.5 268t340 100.5q61 0 117.5 -12t113 -39
t98 -71t72 -108t35.5 -150t-12 -197l-13 -68h-901q-24 -184 64.5 -289.5t253.5 -105.5q125 0 231 72t174 188l156 -63q-90 -164 -249 -260.5t-345 -96.5zM297 684h707q10 68 -1.5 124t-38.5 93.5t-66.5 63t-84 36.5t-94.5 11q-144 0 -258.5 -92.5t-163.5 -235.5z" />
    <glyph glyph-name="Gbreve" unicode="&#x11e;" horiz-adv-x="1789" 
d="M1075 1722q-166 0 -255.5 102t-69.5 236h157q-9 -79 44 -139.5t147 -60.5t168 60t94 140h160q-29 -135 -153.5 -236.5t-291.5 -101.5zM784 -35q-193 0 -341 76t-234 227.5t-86 358.5q0 194 75.5 377.5t203.5 321t308 221t377 83.5q244 0 418.5 -126t210.5 -351l-186 -70
q-38 172 -164.5 270.5t-310.5 98.5q-151 0 -288 -68t-232.5 -178.5t-152 -254.5t-56.5 -294q0 -106 29.5 -193t79 -146t117 -99t141.5 -58t155 -18q222 0 405.5 139.5t290.5 381.5l-16 24q-255 -55 -565 -55l28 160h707l-139 -793h-152q2 12 8 58.5t10 71.5t12 66.5
t19.5 80.5t26.5 79l-31 6q-236 -397 -668 -397z" />
    <glyph glyph-name="gbreve" unicode="&#x11f;" horiz-adv-x="1366" 
d="M791 1274q-172 0 -254 110.5t-56 284.5h152q-15 -117 34.5 -187.5t149.5 -70.5q99 0 173.5 71t99.5 187h153q-37 -177 -160 -286t-292 -109zM471 -483q-87 0 -159 17t-134 54t-104.5 102.5t-59.5 155.5l172 58q48 -234 312 -234q353 0 438 432q1 6 4 22t4 21t4 18.5t5 20
t5.5 18.5t7.5 21.5t9.5 21.5t11.5 25h-26q-86 -135 -203.5 -201.5t-245.5 -66.5q-194 0 -314 124t-120 339q0 184 89 346.5t234 258t306 95.5q142 0 234.5 -77t121.5 -216h27q3 92 30 261h176l-176 -1000q-24 -136 -70 -241.5t-106 -175.5t-137 -115t-159 -64.5t-177 -19.5z
M571 170q90 0 175.5 42.5t147.5 112t100 160.5t38 185q0 148 -88 238.5t-225 90.5q-120 0 -224.5 -70.5t-164.5 -184.5t-60 -240q0 -149 83 -241.5t218 -92.5z" />
    <glyph glyph-name="Gdotaccent" unicode="&#x120;" horiz-adv-x="1789" 
d="M1083 1776q-49 0 -79.5 31t-30.5 79q0 62 47 108t110 46q49 0 80 -30.5t31 -76.5q0 -61 -48 -109t-110 -48zM784 -35q-193 0 -341 76t-234 227.5t-86 358.5q0 194 75.5 377.5t203.5 321t308 221t377 83.5q244 0 418.5 -126t210.5 -351l-186 -70q-38 172 -164.5 270.5
t-310.5 98.5q-151 0 -288 -68t-232.5 -178.5t-152 -254.5t-56.5 -294q0 -106 29.5 -193t79 -146t117 -99t141.5 -58t155 -18q222 0 405.5 139.5t290.5 381.5l-16 24q-255 -55 -565 -55l28 160h707l-139 -793h-152q2 12 8 58.5t10 71.5t12 66.5t19.5 80.5t26.5 79l-31 6
q-236 -397 -668 -397z" />
    <glyph glyph-name="gdotaccent" unicode="&#x121;" horiz-adv-x="1366" 
d="M811 1386q-47 0 -78 32t-31 79q0 61 47.5 107.5t110.5 46.5q49 0 79 -30.5t30 -76.5q0 -62 -47.5 -110t-110.5 -48zM471 -483q-87 0 -159 17t-134 54t-104.5 102.5t-59.5 155.5l172 58q48 -234 312 -234q353 0 438 432q1 6 4 22t4 21t4 18.5t5 20t5.5 18.5t7.5 21.5
t9.5 21.5t11.5 25h-26q-86 -135 -203.5 -201.5t-245.5 -66.5q-194 0 -314 124t-120 339q0 184 89 346.5t234 258t306 95.5q142 0 234.5 -77t121.5 -216h27q3 92 30 261h176l-176 -1000q-24 -136 -70 -241.5t-106 -175.5t-137 -115t-159 -64.5t-177 -19.5zM571 170
q90 0 175.5 42.5t147.5 112t100 160.5t38 185q0 148 -88 238.5t-225 90.5q-120 0 -224.5 -70.5t-164.5 -184.5t-60 -240q0 -149 83 -241.5t218 -92.5z" />
    <glyph glyph-name="uni0122" unicode="&#x122;" horiz-adv-x="1789" 
d="M784 -35q-193 0 -341 76t-234 227.5t-86 358.5q0 194 75.5 377.5t203.5 321t308 221t377 83.5q244 0 418.5 -126t210.5 -351l-186 -70q-38 172 -164.5 270.5t-310.5 98.5q-151 0 -288 -68t-232.5 -178.5t-152 -254.5t-56.5 -294q0 -106 29.5 -193t79 -146t117 -99
t141.5 -58t155 -18q222 0 405.5 139.5t290.5 381.5l-16 24q-255 -55 -565 -55l28 160h707l-139 -793h-152q2 12 8 58.5t10 71.5t12 66.5t19.5 80.5t26.5 79l-31 6q-236 -397 -668 -397zM655 -557h-94q89 131 187 215q-56 0 -84.5 25.5t-28.5 66.5q0 55 43 95t100 40
q46 0 74.5 -28t28.5 -72q0 -42 -29.5 -87.5t-135.5 -177.5q-39 -49 -61 -77z" />
    <glyph glyph-name="uni0123" unicode="&#x123;" horiz-adv-x="1366" 
d="M668 1360q0 44 35 97.5t175 233.5q8 11 13 17.5t12.5 16.5t14.5 18h106q-97 -149 -201 -275q45 4 67.5 -17t22.5 -58q0 -56 -40.5 -94.5t-98.5 -38.5q-49 0 -77.5 27.5t-28.5 72.5zM471 -483q-87 0 -159 17t-134 54t-104.5 102.5t-59.5 155.5l172 58q48 -234 312 -234
q353 0 438 432q1 6 4 22t4 21t4 18.5t5 20t5.5 18.5t7.5 21.5t9.5 21.5t11.5 25h-26q-86 -135 -203.5 -201.5t-245.5 -66.5q-194 0 -314 124t-120 339q0 184 89 346.5t234 258t306 95.5q142 0 234.5 -77t121.5 -216h27q3 92 30 261h176l-176 -1000q-24 -136 -70 -241.5
t-106 -175.5t-137 -115t-159 -64.5t-177 -19.5zM571 170q90 0 175.5 42.5t147.5 112t100 160.5t38 185q0 148 -88 238.5t-225 90.5q-120 0 -224.5 -70.5t-164.5 -184.5t-60 -240q0 -149 83 -241.5t218 -92.5z" />
    <glyph glyph-name="Hbar" unicode="&#x126;" horiz-adv-x="1656" 
d="M1587 1303h139l-26 -150h-139l-205 -1153h-191q75 434 154 725l-23 23q-423 -68 -870 0l-29 -23q-3 -39 -7 -79.5t-7.5 -73.5t-9 -76.5t-9 -70t-11 -73.5t-11 -67.5t-12.5 -72.5t-11.5 -68t-13 -73.5t-12.5 -70.5h-189l205 1153h-145l26 150h146l51 294h188
q-35 -196 -55 -294h879q8 59 26.5 165t22.5 129h190zM1319 862l27 23q12 132 30 268h-887q-31 -154 -65 -268l20 -23q482 55 875 0z" />
    <glyph glyph-name="hbar" unicode="&#x127;" horiz-adv-x="1298" 
d="M842 1165q64 0 119 -15.5t102.5 -49t76 -86.5t39 -128.5t-7.5 -174.5l-127 -711h-178l111 633q33 178 -28 272t-189 94q-150 0 -261.5 -110.5t-140.5 -270.5l-108 -618h-178l231 1309h-201l25 141h201l32 188h179q-30 -157 -35 -188h348l-27 -141h-352
q-44 -217 -100 -412h28q172 268 441 268z" />
    <glyph glyph-name="Imacron" unicode="&#x12a;" horiz-adv-x="595" 
d="M864 1810h-692l25 144h694zM293 0h-189l283 1597h188z" />
    <glyph glyph-name="imacron" unicode="&#x12b;" horiz-adv-x="518" 
d="M750 1384h-689l25 138h688zM250 0h-178l198 1133h181z" />
    <glyph glyph-name="Iogonek" unicode="&#x12e;" horiz-adv-x="595" 
d="M84 -221q0 -54 39.5 -87.5t107.5 -33.5q47 0 93 14l-23 -118q-58 -17 -113 -17q-106 0 -175.5 50.5t-69.5 142.5q0 91 61.5 159.5t147.5 110.5h-48l283 1597h188l-282 -1597h2q-89 -30 -150 -90t-61 -131z" />
    <glyph glyph-name="iogonek" unicode="&#x12f;" horiz-adv-x="518" 
d="M453 1645q49 0 78.5 -30t29.5 -77q0 -62 -47.5 -110t-110.5 -48q-47 0 -77.5 31.5t-30.5 79.5q0 61 47.5 107.5t110.5 46.5zM250 0h-12q-88 -33 -146.5 -92t-58.5 -129q0 -52 38 -83.5t101 -31.5q47 0 92 14l-22 -127q-55 -14 -107 -14q-109 0 -176.5 51t-67.5 144
q0 91 63.5 161.5t147.5 106.5h-30l198 1133h181z" />
    <glyph glyph-name="Idotaccent" unicode="&#x130;" horiz-adv-x="595" 
d="M510 1776q-49 0 -80 31t-31 79q0 61 47.5 107.5t110.5 46.5q49 0 80 -30.5t31 -76.5q0 -61 -48 -109t-110 -48zM293 0h-189l283 1597h188z" />
    <glyph glyph-name="dotlessi" unicode="&#x131;" horiz-adv-x="518" 
d="M250 0h-178l198 1133h181z" />
    <glyph glyph-name="uni0136" unicode="&#x136;" horiz-adv-x="1390" 
d="M293 0h-189l283 1597h188q-3 -18 -15.5 -91.5t-16.5 -95.5t-16 -87.5t-18.5 -95t-18.5 -88t-22 -97t-24 -91.5t-29 -102t-32 -99h29q387 372 917 847h225q-32 -29 -139.5 -126t-162 -146t-146.5 -131t-174 -152t-164 -137l-4 -28q237 -339 545 -877h-232
q-289 485 -430 768h-20q-136 -146 -250 -221q-22 -203 -84 -547zM508 -557h-94q90 133 186 215q-56 0 -84.5 25.5t-28.5 66.5q0 55 43 95t101 40q46 0 74 -28t28 -72q0 -42 -31 -90t-139 -183q-11 -14 -17.5 -22t-17.5 -21.5t-20 -25.5z" />
    <glyph glyph-name="uni0137" unicode="&#x137;" horiz-adv-x="1091" 
d="M250 0h-178l288 1638h179q-94 -551 -147 -788q-29 -130 -60 -252h28q175 172 273.5 264t302.5 271h217l-526 -449q25 -40 52.5 -85t48.5 -80t52.5 -90t47 -82t51 -90.5t46 -82.5t50 -90.5t45.5 -83.5h-207q-210 389 -303 580q-96 -113 -207 -187q-8 -142 -53 -393z
M340 -557h-94q90 133 186 215q-56 0 -84.5 25.5t-28.5 66.5q0 55 43 95t101 40q46 0 74 -28t28 -72q0 -42 -31 -90t-139 -183q-35 -44 -55 -69z" />
    <glyph glyph-name="Lacute" unicode="&#x139;" horiz-adv-x="1202" 
d="M1014 2056l-396 -336h-163l311 336h248zM1079 0h-975l283 1597h188q-58 -326 -85 -476t-84 -435t-111 -518l20 -25q135 16 287.5 24.5t246.5 9.5t261 1z" />
    <glyph glyph-name="lacute" unicode="&#x13a;" horiz-adv-x="518" 
d="M963 2097l-396 -336h-164l312 336h248zM250 0h-178l288 1638h179z" />
    <glyph glyph-name="uni013B" unicode="&#x13b;" horiz-adv-x="1202" 
d="M1079 0h-975l283 1597h188q-58 -326 -85 -476t-84 -435t-111 -518l20 -25q135 16 287.5 24.5t246.5 9.5t261 1zM406 -557h-95q89 131 187 215q-56 0 -84.5 25.5t-28.5 66.5q0 55 43 95t100 40q46 0 74.5 -28t28.5 -72q0 -42 -31 -90t-139 -183q-35 -44 -55 -69z" />
    <glyph glyph-name="uni013C" unicode="&#x13c;" horiz-adv-x="518" 
d="M250 0h-178l288 1638h179zM25 -557h-95q89 131 187 215q-56 0 -84.5 25.5t-28.5 66.5q0 55 43 95t100 40q46 0 74.5 -28t28.5 -72q0 -42 -31 -90t-139 -183q-35 -44 -55 -69z" />
    <glyph glyph-name="Lcaron" unicode="&#x13d;" horiz-adv-x="1202" 
d="M977 1128h-111q114 167 226 263q-107 23 -107 102q0 59 48 105.5t112 46.5q47 0 77.5 -31.5t30.5 -77.5q0 -47 -45.5 -112t-230.5 -296zM1079 0h-975l283 1597h188q-58 -326 -85 -476t-84 -435t-111 -518l20 -25q135 16 287.5 24.5t246.5 9.5t261 1z" />
    <glyph glyph-name="lcaron" unicode="&#x13e;" horiz-adv-x="518" 
d="M748 1128h-111q56 81 106 142.5t119 120.5q-106 23 -106 102q0 59 47.5 105.5t111.5 46.5q47 0 78 -31.5t31 -77.5q0 -47 -45.5 -112t-230.5 -296zM250 0h-178l288 1638h179z" />
    <glyph glyph-name="Lslash" unicode="&#x141;" horiz-adv-x="1202" 
d="M295 168l20 -25q135 16 287.5 24.5t246.5 9.5t261 1l-31 -178h-975l134 752l-187 -80l31 162l184 79l121 684h188q-56 -325 -108 -596l301 129l-31 -161l-301 -129q-64 -344 -141 -672z" />
    <glyph glyph-name="lslash" unicode="&#x142;" horiz-adv-x="518" 
d="M438 1065l211 135l-26 -158l-213 -135l-160 -907h-178l137 780l-217 -137l28 158l218 137l122 700h179z" />
    <glyph glyph-name="Nacute" unicode="&#x143;" horiz-adv-x="1685" 
d="M1491 2056l-395 -336h-164l311 336h248zM293 0h-189l283 1597h174q410 -713 682 -1331h27q25 225 63.5 484t62.5 399.5t79 447.5h190l-283 -1597h-174q-213 365 -376.5 670t-311.5 635h-26q-12 -115 -28 -239t-28.5 -212t-36 -228.5t-33.5 -200.5t-39 -221.5t-36 -203.5z
" />
    <glyph glyph-name="nacute" unicode="&#x144;" horiz-adv-x="1298" 
d="M1217 1667l-379 -389h-156l307 389h228zM250 0h-178l198 1133h176q0 -2 -4 -20.5t-5 -23t-4.5 -22t-6 -25.5t-7 -25t-8.5 -28.5t-10 -28t-13 -32t-15 -31.5h28q172 268 443 268q81 0 146.5 -24.5t116 -78.5t66.5 -140t-2 -211l-127 -711h-178l111 633q33 179 -28.5 272.5
t-192.5 93.5q-148 0 -258.5 -111t-139.5 -270z" />
    <glyph glyph-name="uni0145" unicode="&#x145;" horiz-adv-x="1685" 
d="M293 0h-189l283 1597h174q410 -713 682 -1331h27q25 225 63.5 484t62.5 399.5t79 447.5h190l-283 -1597h-174q-213 365 -376.5 670t-311.5 635h-26q-12 -115 -28 -239t-28.5 -212t-36 -228.5t-33.5 -200.5t-39 -221.5t-36 -203.5zM629 -557h-94q90 133 186 215
q-56 0 -84.5 25.5t-28.5 66.5q0 55 43 95t101 40q46 0 74 -28t28 -72q0 -42 -31 -90t-139 -183q-11 -14 -17.5 -22t-17.5 -21.5t-20 -25.5z" />
    <glyph glyph-name="uni0146" unicode="&#x146;" horiz-adv-x="1298" 
d="M250 0h-178l198 1133h176q0 -2 -4 -20.5t-5 -23t-4.5 -22t-6 -25.5t-7 -25t-8.5 -28.5t-10 -28t-13 -32t-15 -31.5h28q172 268 443 268q81 0 146.5 -24.5t116 -78.5t66.5 -140t-2 -211l-127 -711h-178l111 633q33 179 -28.5 272.5t-192.5 93.5q-148 0 -258.5 -111
t-139.5 -270zM449 -557h-95q89 131 187 215q-56 0 -84.5 25.5t-28.5 66.5q0 55 43 95t100 40q46 0 74.5 -28t28.5 -72q0 -42 -31 -90t-139 -183q-35 -44 -55 -69z" />
    <glyph glyph-name="Ncaron" unicode="&#x147;" horiz-adv-x="1685" 
d="M1130 1720h-206l-215 322h165q37 -43 55 -65.5t44.5 -71t40.5 -101.5h55q33 54 74.5 101t69.5 71.5t79 65.5h166zM293 0h-189l283 1597h174q410 -713 682 -1331h27q25 225 63.5 484t62.5 399.5t79 447.5h190l-283 -1597h-174q-213 365 -376.5 670t-311.5 635h-26
q-12 -115 -28 -239t-28.5 -212t-36 -228.5t-33.5 -200.5t-39 -221.5t-36 -203.5z" />
    <glyph glyph-name="ncaron" unicode="&#x148;" horiz-adv-x="1298" 
d="M874 1284h-208l-232 369h170q44 -60 65 -90.5t50.5 -81.5t48.5 -101h41q12 17 24.5 33.5t27.5 34t26 30t29.5 31t27.5 28t31 30t29.5 27t33 30.5t31.5 29h168zM250 0h-178l198 1133h176q0 -2 -4 -20.5t-5 -23t-4.5 -22t-6 -25.5t-7 -25t-8.5 -28.5t-10 -28t-13 -32
t-15 -31.5h28q172 268 443 268q81 0 146.5 -24.5t116 -78.5t66.5 -140t-2 -211l-127 -711h-178l111 633q33 179 -28.5 272.5t-192.5 93.5q-148 0 -258.5 -111t-139.5 -270z" />
    <glyph glyph-name="Eng" unicode="&#x14a;" horiz-adv-x="1685" 
d="M870 -483q-72 0 -141.5 15t-107.5 38l28 164q73 -53 205 -53q133 0 220.5 86.5t119.5 250.5q-217 377 -371 664.5t-305 607.5h-26q-11 -112 -26.5 -232.5t-28.5 -209t-35.5 -225.5t-33.5 -199.5t-39 -219.5t-36 -204h-189l283 1597h174q409 -710 684 -1316h29
q23 218 61 474.5t61.5 394.5t78.5 447h190l-272 -1544q-96 -536 -523 -536z" />
    <glyph glyph-name="eng" unicode="&#x14b;" horiz-adv-x="1298" 
d="M625 -483q-127 0 -209 53l28 160q84 -54 174 -54q31 0 58 8t47 17.5t38.5 31t29.5 35t23.5 44.5t17.5 44t13.5 48.5t10 43l8.5 42.5l113 643q33 179 -27.5 272.5t-189.5 93.5q-151 0 -262 -111t-140 -270l-108 -618h-178l198 1133h176q0 -2 -4 -20.5t-5 -23t-4.5 -22
t-6 -25.5t-7 -25t-8.5 -28.5t-10 -28t-13 -32t-15 -31.5h28q172 268 443 268q80 0 145.5 -24t116.5 -77t67 -138t-2 -207l-129 -733q-9 -52 -15.5 -82.5t-22.5 -86.5t-34 -90.5t-50.5 -79t-71.5 -69.5t-96.5 -43t-126.5 -18z" />
    <glyph glyph-name="Omacron" unicode="&#x14c;" horiz-adv-x="1800" 
d="M1464 1810h-692l25 144h694zM795 -35q-193 0 -346 83.5t-239.5 238t-86.5 354.5q0 189 78.5 370t208 317t308.5 219t369 83q298 0 485 -190t187 -490q0 -189 -78.5 -369.5t-208.5 -315.5t-308.5 -217.5t-368.5 -82.5zM827 143q142 0 276.5 66t232.5 173.5t157 250.5
t59 291q0 233 -138.5 380.5t-356.5 147.5q-112 0 -222 -42t-200.5 -117t-160 -172t-108 -213.5t-38.5 -235.5q0 -236 141 -382.5t358 -146.5z" />
    <glyph glyph-name="omacron" unicode="&#x14d;" horiz-adv-x="1312" 
d="M1147 1391h-688l24 137h688zM551 -35q-220 0 -348.5 130t-128.5 351q0 137 52 267t142 230t220 161t276 61q220 0 348.5 -130t128.5 -351q0 -137 -52 -267t-141.5 -230t-219.5 -161t-277 -61zM582 133q131 0 240 75t169 195.5t60 255.5q0 156 -85 248t-231 92
q-100 0 -188.5 -45t-149 -119t-96 -168.5t-35.5 -193.5q0 -157 84.5 -248.5t231.5 -91.5z" />
    <glyph glyph-name="Ohungarumlaut" unicode="&#x150;" horiz-adv-x="1800" 
d="M1317 2054l-344 -334h-160l272 334h232zM1681 2054l-358 -334h-160l287 334h231zM795 -35q-193 0 -346 83.5t-239.5 238t-86.5 354.5q0 189 78.5 370t208 317t308.5 219t369 83q298 0 485 -190t187 -490q0 -189 -78.5 -369.5t-208.5 -315.5t-308.5 -217.5t-368.5 -82.5z
M827 143q142 0 276.5 66t232.5 173.5t157 250.5t59 291q0 233 -138.5 380.5t-356.5 147.5q-112 0 -222 -42t-200.5 -117t-160 -172t-108 -213.5t-38.5 -235.5q0 -236 141 -382.5t358 -146.5z" />
    <glyph glyph-name="ohungarumlaut" unicode="&#x151;" horiz-adv-x="1312" 
d="M1001 1673l-360 -395h-154l287 395h227zM1368 1673l-375 -395h-153l303 395h225zM551 -35q-220 0 -348.5 130t-128.5 351q0 137 52 267t142 230t220 161t276 61q220 0 348.5 -130t128.5 -351q0 -137 -52 -267t-141.5 -230t-219.5 -161t-277 -61zM582 133q131 0 240 75
t169 195.5t60 255.5q0 156 -85 248t-231 92q-100 0 -188.5 -45t-149 -119t-96 -168.5t-35.5 -193.5q0 -157 84.5 -248.5t231.5 -91.5z" />
    <glyph glyph-name="OE" unicode="&#x152;" horiz-adv-x="2643" 
d="M793 -35q-142 0 -265 47.5t-213 134t-141 214t-51 280.5q0 189 78 370.5t207.5 317t308 218.5t368.5 83q191 0 334.5 -87.5t218.5 -242.5l52 297h1015l-30 -174h-126.5h-141.5t-126 1.5t-147 5t-132 9.5t-149 15l-30 -18q-6 -266 -92 -545l20 -23q136 19 287 28.5
t244.5 11t261.5 1.5l-33 -182q-168 0 -260.5 1.5t-240 11t-275.5 28.5l-29 -20q-18 -307 -107 -580l23 -25q146 16 309.5 24.5t264 9.5t280.5 1l-31 -178h-1036l51 295q-128 -154 -302.5 -242t-364.5 -88zM825 143q142 0 276.5 66.5t231.5 175t156 252t59 291.5
q0 234 -137.5 379t-353.5 145q-142 0 -276.5 -66t-233.5 -173.5t-159 -251t-60 -291.5q0 -234 140 -380.5t357 -146.5z" />
    <glyph glyph-name="oe" unicode="&#x153;" horiz-adv-x="2217" 
d="M551 -35q-220 0 -348.5 130t-128.5 351q0 184 88 348.5t248.5 267.5t353.5 103q159 0 269.5 -72t156.5 -200q89 127 224 199.5t290 72.5q62 0 119.5 -12t115 -39t99 -71t72 -108t35 -150t-12.5 -197l-8 -45h-907q-27 -188 62 -303t251 -115q127 0 234 72t175 188l156 -63
q-91 -165 -250 -261t-346 -96q-159 0 -270 72t-156 201q-92 -129 -228 -201t-294 -72zM1245 668h711q11 93 -9.5 162t-64.5 107.5t-97 56.5t-114 18q-144 0 -258.5 -94t-167.5 -250zM582 133q131 0 239.5 75t168 195t59.5 254q0 157 -84 249.5t-230 92.5q-132 0 -241 -76
t-168.5 -196.5t-59.5 -253.5q0 -157 84.5 -248.5t231.5 -91.5z" />
    <glyph glyph-name="Racute" unicode="&#x154;" horiz-adv-x="1423" 
d="M1321 2056l-395 -336h-164l311 336h248zM293 0h-189l283 1597h576q22 0 42 -1t69.5 -8.5t89.5 -21t89.5 -43t83 -70t57 -105.5t23.5 -146q0 -217 -146 -368t-382 -168l-4 -27q34 -51 70 -110t59.5 -99t62 -115t51 -99.5t57 -114t50.5 -101.5h-213l-309 627
q-192 4 -328 43q-17 -252 -92 -670zM403 770l21 -22q139 32 369 32q182 0 300.5 109t118.5 270q0 133 -88 199.5t-227 66.5q-216 0 -350 29l-29 -18q-16 -319 -115 -666z" />
    <glyph glyph-name="racute" unicode="&#x155;" horiz-adv-x="851" 
d="M1042 1667l-378 -389h-156l307 389h227zM250 0h-178l198 1133h176q-3 -15 -9.5 -55t-11 -64t-17 -67t-29.5 -87h27q69 149 176.5 227t230.5 78q72 0 121 -20l-37 -197q-58 25 -139 25q-87 0 -161 -40.5t-124.5 -107.5t-83 -144.5t-47.5 -160.5z" />
    <glyph glyph-name="uni0156" unicode="&#x156;" horiz-adv-x="1423" 
d="M293 0h-189l283 1597h576q22 0 42 -1t69.5 -8.5t89.5 -21t89.5 -43t83 -70t57 -105.5t23.5 -146q0 -217 -146 -368t-382 -168l-4 -27q34 -51 70 -110t59.5 -99t62 -115t51 -99.5t57 -114t50.5 -101.5h-213l-309 627q-192 4 -328 43q-17 -252 -92 -670zM403 770l21 -22
q139 32 369 32q182 0 300.5 109t118.5 270q0 133 -88 199.5t-227 66.5q-216 0 -350 29l-29 -18q-16 -319 -115 -666zM477 -557h-94q90 133 186 215q-56 0 -84 25.5t-28 66.5q0 55 43 95t100 40q46 0 74 -28t28 -72q0 -42 -31 -90t-139 -183q-35 -44 -55 -69z" />
    <glyph glyph-name="uni0157" unicode="&#x157;" horiz-adv-x="851" 
d="M250 0h-178l198 1133h176q-3 -15 -9.5 -55t-11 -64t-17 -67t-29.5 -87h27q69 149 176.5 227t230.5 78q72 0 121 -20l-37 -197q-58 25 -139 25q-87 0 -161 -40.5t-124.5 -107.5t-83 -144.5t-47.5 -160.5zM16 -557h-94q89 131 187 215q-56 0 -84.5 25.5t-28.5 66.5
q0 55 43 95t100 40q46 0 74.5 -28t28.5 -72q0 -42 -29.5 -87.5t-135.5 -177.5q-39 -49 -61 -77z" />
    <glyph glyph-name="Rcaron" unicode="&#x158;" horiz-adv-x="1423" 
d="M958 1720h-206l-215 322h165q37 -43 55 -65.5t44.5 -71t40.5 -101.5h55q33 54 74.5 101t69.5 71.5t79 65.5h166zM293 0h-189l283 1597h576q22 0 42 -1t69.5 -8.5t89.5 -21t89.5 -43t83 -70t57 -105.5t23.5 -146q0 -217 -146 -368t-382 -168l-4 -27q34 -51 70 -110
t59.5 -99t62 -115t51 -99.5t57 -114t50.5 -101.5h-213l-309 627q-192 4 -328 43q-17 -252 -92 -670zM403 770l21 -22q139 32 369 32q182 0 300.5 109t118.5 270q0 133 -88 199.5t-227 66.5q-216 0 -350 29l-29 -18q-16 -319 -115 -666z" />
    <glyph glyph-name="rcaron" unicode="&#x159;" horiz-adv-x="851" 
d="M700 1284h-208l-232 369h170q44 -60 65 -90.5t50.5 -81.5t48.5 -101h41q12 17 24.5 33.5t27.5 34t26 30t29.5 31t27.5 28t31 30t29.5 27t33 30.5t31.5 29h168zM250 0h-178l198 1133h176q-3 -15 -9.5 -55t-11 -64t-17 -67t-29.5 -87h27q69 149 176.5 227t230.5 78
q72 0 121 -20l-37 -197q-58 25 -139 25q-87 0 -161 -40.5t-124.5 -107.5t-83 -144.5t-47.5 -160.5z" />
    <glyph glyph-name="Sacute" unicode="&#x15a;" horiz-adv-x="1320" 
d="M1272 2054l-395 -334h-164l311 334h248zM578 -35q-79 0 -151 16t-138 52.5t-115.5 90t-83 133t-41.5 177.5l189 64q17 -179 117.5 -269t254.5 -90q169 0 284.5 94.5t115.5 225.5q0 24 -5 45t-11 37.5t-20.5 32.5t-24 26.5t-31 22.5t-32 18.5t-37.5 16.5t-37 13
t-39.5 12.5t-37.5 12.5l-139 47q-42 13 -74.5 26t-79 35.5t-80.5 51t-65.5 66t-48.5 89t-17 111.5q0 99 46.5 191.5t126.5 162.5t194 112t240 42q210 0 334.5 -106.5t140.5 -272.5l-185 -71q-21 128 -106 202t-221 74q-153 0 -259 -85t-106 -202q0 -46 20.5 -86t46.5 -64.5
t70 -48t70.5 -33.5t67.5 -24l149 -51q132 -45 180 -69q173 -89 182 -261q1 -11 1 -22q0 -102 -49.5 -200.5t-134 -174.5t-206 -123t-255.5 -47z" />
    <glyph glyph-name="sacute" unicode="&#x15b;" horiz-adv-x="1019" 
d="M1075 1669l-379 -389h-155l307 389h227zM424 -35q-172 0 -284.5 87t-131.5 231l176 55q24 -104 99.5 -162.5t173.5 -58.5q105 0 181.5 59t76.5 143q0 35 -14 60.5t-41.5 42t-54.5 27t-65 22.5q-9 3 -14 4l-106 33q-109 35 -162 74q-103 77 -104 204q0 154 130.5 266.5
t317.5 112.5q152 0 249.5 -77.5t115.5 -200.5l-179 -58q-15 81 -71 135t-150 54t-160.5 -56t-66.5 -133q0 -32 14.5 -59t33 -44t51.5 -33.5t55 -24t59 -19.5l94 -28q30 -9 35.5 -11t36 -13t40.5 -17t36.5 -20t37.5 -25.5t29 -31t26 -39t14.5 -46t6.5 -56.5
q0 -76 -36.5 -148.5t-100 -127t-155 -88t-193.5 -33.5z" />
    <glyph glyph-name="Scedilla" unicode="&#x15e;" horiz-adv-x="1320" 
d="M711 913l149 -51q132 -45 180 -69q173 -89 182 -261q1 -11 1 -22q0 -98 -46 -193.5t-125 -170.5t-193 -123.5t-241 -55.5q-45 -50 -137 -121l11 -10q64 35 116 35q70 0 113 -38.5t43 -104.5q0 -94 -80.5 -161t-200.5 -67q-77 0 -141.5 31t-101.5 86l79 74
q27 -43 75 -67.5t100 -24.5q61 0 103 32.5t42 79.5q0 35 -28.5 56.5t-73.5 21.5q-53 0 -99 -27l-55 56l123 151q-89 9 -165 40t-139 86t-103 141.5t-50 197.5l189 64q17 -179 117.5 -269t254.5 -90q169 0 284.5 94.5t115.5 225.5q0 24 -5 45t-11 37.5t-20.5 32.5t-24 26.5
t-31 22.5t-32 18.5t-37.5 16.5t-37 13t-39.5 12.5t-37.5 12.5l-139 47q-42 13 -74.5 26t-79 35.5t-80.5 51t-65.5 66t-48.5 89t-17 111.5q0 99 46.5 191.5t126.5 162.5t194 112t240 42q210 0 334.5 -106.5t140.5 -272.5l-185 -71q-21 128 -106 202t-221 74q-153 0 -259 -85
t-106 -202q0 -46 20.5 -86t46.5 -64.5t70 -48t70.5 -33.5t67.5 -24z" />
    <glyph glyph-name="scedilla" unicode="&#x15f;" horiz-adv-x="1019" 
d="M553 649l94 -28q30 -9 35.5 -11t36 -13t40.5 -17t36.5 -20t37.5 -25.5t29 -31t26 -39t14.5 -46t6.5 -56.5q0 -150 -127.5 -266.5t-318.5 -128.5q-52 -58 -137 -121l10 -10q64 35 117 35q70 0 112.5 -38t42.5 -105q0 -94 -80 -161t-200 -67q-77 0 -142.5 31t-101.5 86
l80 74q27 -43 74.5 -67.5t99.5 -24.5q61 0 103 32.5t42 79.5q0 35 -28.5 56.5t-73.5 21.5q-52 0 -98 -27l-56 56l125 151q-144 19 -235.5 102.5t-108.5 211.5l176 55q24 -104 99.5 -162.5t173.5 -58.5q105 0 181.5 59t76.5 143q0 35 -14 60.5t-41.5 42t-54.5 27t-65 22.5
q-9 3 -14 4l-106 33q-109 35 -162 74q-103 77 -104 204q0 154 130.5 266.5t317.5 112.5q152 0 249.5 -77.5t115.5 -200.5l-179 -58q-15 81 -71 135t-150 54t-160.5 -56t-66.5 -133q0 -32 14.5 -59t33 -44t51.5 -33.5t55 -24t59 -19.5z" />
    <glyph glyph-name="Scaron" unicode="&#x160;" horiz-adv-x="1320" 
d="M958 1720h-206l-215 322h165q37 -43 55 -65.5t44.5 -71t40.5 -101.5h55q33 54 74.5 101t69.5 71.5t79 65.5h166zM578 -35q-79 0 -151 16t-138 52.5t-115.5 90t-83 133t-41.5 177.5l189 64q17 -179 117.5 -269t254.5 -90q169 0 284.5 94.5t115.5 225.5q0 24 -5 45
t-11 37.5t-20.5 32.5t-24 26.5t-31 22.5t-32 18.5t-37.5 16.5t-37 13t-39.5 12.5t-37.5 12.5l-139 47q-42 13 -74.5 26t-79 35.5t-80.5 51t-65.5 66t-48.5 89t-17 111.5q0 99 46.5 191.5t126.5 162.5t194 112t240 42q210 0 334.5 -106.5t140.5 -272.5l-185 -71
q-21 128 -106 202t-221 74q-153 0 -259 -85t-106 -202q0 -46 20.5 -86t46.5 -64.5t70 -48t70.5 -33.5t67.5 -24l149 -51q132 -45 180 -69q173 -89 182 -261q1 -11 1 -22q0 -102 -49.5 -200.5t-134 -174.5t-206 -123t-255.5 -47z" />
    <glyph glyph-name="scaron" unicode="&#x161;" horiz-adv-x="1019" 
d="M733 1286h-209l-231 369h170q44 -60 65 -90.5t50.5 -81.5t48.5 -101h41q12 17 24.5 33.5t27.5 34t26 30t29.5 31t27.5 28t31 30t29.5 27t33 30.5t31.5 29h168zM424 -35q-172 0 -284.5 87t-131.5 231l176 55q24 -104 99.5 -162.5t173.5 -58.5q105 0 181.5 59t76.5 143
q0 35 -14 60.5t-41.5 42t-54.5 27t-65 22.5q-9 3 -14 4l-106 33q-109 35 -162 74q-103 77 -104 204q0 154 130.5 266.5t317.5 112.5q152 0 249.5 -77.5t115.5 -200.5l-179 -58q-15 81 -71 135t-150 54t-160.5 -56t-66.5 -133q0 -32 14.5 -59t33 -44t51.5 -33.5t55 -24
t59 -19.5l94 -28q30 -9 35.5 -11t36 -13t40.5 -17t36.5 -20t37.5 -25.5t29 -31t26 -39t14.5 -46t6.5 -56.5q0 -76 -36.5 -148.5t-100 -127t-155 -88t-193.5 -33.5z" />
    <glyph glyph-name="uni0162" unicode="&#x162;" horiz-adv-x="1296" 
d="M176 1423l33 174h1243l-31 -174q-350 0 -549 27q-69 -544 -229 -1450h-37q-58 -72 -166 -154l11 -10q64 35 116 35q70 0 113 -38.5t43 -104.5q0 -94 -80.5 -161t-200.5 -67q-77 0 -141.5 31t-101.5 86l80 74q27 -43 74.5 -67.5t99.5 -24.5q61 0 103 32.5t42 79.5
q0 35 -28.5 56.5t-73.5 21.5q-53 0 -99 -27l-55 56l150 182h-39q5 29 33.5 188.5t38.5 212.5t35.5 194.5t41.5 221t40.5 200.5t47.5 225.5t47 207.5q-209 -27 -561 -27z" />
    <glyph glyph-name="uni0163" unicode="&#x163;" horiz-adv-x="802" 
d="M858 1133l-29 -160q-228 0 -358 24q-12 -177 -29.5 -295t-31 -159.5t-23.5 -98.5t-10 -135q0 -99 23.5 -140.5t99.5 -41.5q93 0 190 57l-31 -166q-87 -53 -217 -53q-29 0 -43 2q-61 -64 -137 -121l10 -10q64 35 117 35q70 0 113 -38.5t43 -104.5q0 -94 -80.5 -161
t-200.5 -67q-77 0 -142.5 31t-101.5 86l80 74q27 -43 74.5 -67.5t99.5 -24.5q62 0 104 32.5t42 79.5q0 35 -29 56.5t-74 21.5q-52 0 -98 -27l-55 56l141 172q-36 16 -61.5 41t-36.5 58.5t-16.5 63.5t-2.5 70.5t6.5 64.5t10.5 60q71 410 141 649q-102 -24 -256 -24l27 160
q150 0 248 -23q0 25 0.5 51.5t1.5 46.5t4 47.5t4.5 42t6 45t6 40t7 43t6.5 40.5h179q-13 -77 -20 -111.5t-26.5 -106.5t-44.5 -138q143 23 369 23z" />
    <glyph glyph-name="Tcaron" unicode="&#x164;" horiz-adv-x="1296" 
d="M956 1720h-206l-215 322h165q37 -43 55 -65.5t44.5 -71t40.5 -101.5h55q33 54 74.5 101t69.5 71.5t79 65.5h166zM643 0h-190q5 29 33.5 188.5t38.5 212.5t35.5 194.5t41.5 221t40.5 200.5t47.5 225.5t47 207.5q-209 -27 -561 -27l33 174h1243l-31 -174q-350 0 -549 27
q-69 -544 -229 -1450z" />
    <glyph glyph-name="tcaron" unicode="&#x165;" horiz-adv-x="802" 
d="M1036 1135h-110q111 166 225 264q-107 21 -107 100q0 59 48 106.5t112 47.5q47 0 78 -31.5t31 -77.5q0 -48 -44 -111t-233 -298zM442 -35q-49 0 -89 9t-67 23.5t-46.5 38t-30.5 45.5t-16 53.5t-5.5 55.5t2.5 57.5t6.5 52.5t8.5 48q71 410 141 649q-102 -24 -256 -24
l27 160q150 0 248 -23q0 25 0.5 51.5t1.5 46.5t4 47.5t4.5 42t6 45t6 40t7 43t6.5 40.5h179q-13 -77 -20 -111.5t-26.5 -106.5t-44.5 -138q143 23 369 23l-29 -160q-228 0 -358 24q-12 -177 -29.5 -295t-31 -159.5t-23.5 -98.5t-10 -135q0 -99 23.5 -140.5t99.5 -41.5
q93 0 190 57l-31 -166q-87 -53 -217 -53z" />
    <glyph glyph-name="Tbar" unicode="&#x166;" horiz-adv-x="1296" 
d="M1452 1597l-31 -174q-350 0 -549 27q-37 -294 -81 -576h337l-26 -153h-336q-50 -309 -123 -721h-190q111 616 131 721h-334l26 153h338q57 294 123 576q-209 -27 -561 -27l33 174h1243z" />
    <glyph glyph-name="tbar" unicode="&#x167;" horiz-adv-x="802" 
d="M858 1133l-29 -160q-228 0 -358 24q-8 -143 -31 -307h326l-27 -141h-327q-3 -12 -12.5 -51.5t-12.5 -55.5t-6.5 -53t-3.5 -80q0 -99 23.5 -140.5t99.5 -41.5q93 0 190 57l-31 -166q-87 -53 -217 -53q-49 0 -89 9t-67 23.5t-46.5 38t-30.5 45.5t-16 53.5t-5.5 55.5
t2.5 57.5t6.5 52.5t8.5 48q26 149 37 201h-226l25 141h227q44 187 78 307q-102 -24 -256 -24l27 160q150 0 248 -23q0 25 0.5 51.5t1.5 46.5t4 47.5t4.5 42t6 45t6 40t7 43t6.5 40.5h179q-13 -77 -20 -111.5t-26.5 -106.5t-44.5 -138q143 23 369 23z" />
    <glyph glyph-name="Umacron" unicode="&#x16a;" horiz-adv-x="1538" 
d="M1337 1810h-692l25 144h694zM662 -35q-101 0 -182.5 21.5t-137 61t-94.5 96t-55.5 126t-18.5 151t16 171.5l179 1005h190l-176 -991q-39 -222 38 -343.5t273 -121.5q197 0 318 123.5t159 341.5l175 991h190l-176 -1005q-19 -102 -52.5 -190t-91 -170t-133 -140
t-183.5 -92.5t-238 -34.5z" />
    <glyph glyph-name="umacron" unicode="&#x16b;" horiz-adv-x="1280" 
d="M1118 1391h-688l25 137h688zM457 -35q-84 0 -150 24.5t-116 79.5t-65 142t3 211l127 711h178l-112 -644q-15 -97 -6 -165t42 -110.5t77 -61.5t100 -19q99 0 183 55.5t134 138t66 175.5l112 631h178l-137 -779q-38 -210 -24 -354h-181q-2 41 -2 75t10 76.5t31 94.5h-26
q-83 -150 -187.5 -215.5t-234.5 -65.5z" />
    <glyph glyph-name="Uring" unicode="&#x16e;" horiz-adv-x="1538" 
d="M973 1714q-89 0 -145 53t-56 138q0 105 83.5 184.5t197.5 79.5q89 0 143.5 -52t54.5 -137q0 -105 -82 -185.5t-196 -80.5zM989 1819q63 0 107.5 43.5t44.5 103.5q0 44 -30.5 71t-76.5 27q-63 0 -106 -42.5t-43 -102.5q0 -46 28.5 -73t75.5 -27zM662 -35
q-101 0 -182.5 21.5t-137 61t-94.5 96t-55.5 126t-18.5 151t16 171.5l179 1005h190l-176 -991q-39 -222 38 -343.5t273 -121.5q197 0 318 123.5t159 341.5l175 991h190l-176 -1005q-19 -102 -52.5 -190t-91 -170t-133 -140t-183.5 -92.5t-238 -34.5z" />
    <glyph glyph-name="uring" unicode="&#x16f;" horiz-adv-x="1280" 
d="M748 1249q-89 0 -145 53t-56 138q0 105 83 184.5t197 79.5q90 0 145.5 -52t55.5 -136q0 -104 -83 -185.5t-197 -81.5zM764 1354q63 0 107 43.5t44 103.5q0 44 -30 71t-76 27q-63 0 -106.5 -42.5t-43.5 -102.5q0 -46 29 -73t76 -27zM457 -35q-84 0 -150 24.5t-116 79.5
t-65 142t3 211l127 711h178l-112 -644q-15 -97 -6 -165t42 -110.5t77 -61.5t100 -19q99 0 183 55.5t134 138t66 175.5l112 631h178l-137 -779q-38 -210 -24 -354h-181q-2 41 -2 75t10 76.5t31 94.5h-26q-83 -150 -187.5 -215.5t-234.5 -65.5z" />
    <glyph glyph-name="Uhungarumlaut" unicode="&#x170;" horiz-adv-x="1538" 
d="M1190 2054l-344 -334h-160l272 334h232zM1554 2054l-358 -334h-160l287 334h231zM662 -35q-101 0 -182.5 21.5t-137 61t-94.5 96t-55.5 126t-18.5 151t16 171.5l179 1005h190l-176 -991q-39 -222 38 -343.5t273 -121.5q197 0 318 123.5t159 341.5l175 991h190l-176 -1005
q-19 -102 -52.5 -190t-91 -170t-133 -140t-183.5 -92.5t-238 -34.5z" />
    <glyph glyph-name="uhungarumlaut" unicode="&#x171;" horiz-adv-x="1280" 
d="M971 1673l-361 -395h-153l286 395h228zM1337 1673l-374 -395h-154l303 395h225zM457 -35q-84 0 -150 24.5t-116 79.5t-65 142t3 211l127 711h178l-112 -644q-15 -97 -6 -165t42 -110.5t77 -61.5t100 -19q99 0 183 55.5t134 138t66 175.5l112 631h178l-137 -779
q-38 -210 -24 -354h-181q-2 41 -2 75t10 76.5t31 94.5h-26q-83 -150 -187.5 -215.5t-234.5 -65.5z" />
    <glyph glyph-name="Uogonek" unicode="&#x172;" horiz-adv-x="1538" 
d="M1171 606l175 991h190l-176 -1005q-17 -91 -45.5 -171.5t-76.5 -157t-110.5 -134.5t-150 -99.5t-191.5 -56.5q-67 -34 -108 -84.5t-41 -109.5q0 -54 39.5 -87.5t107.5 -33.5q48 0 93 14l-23 -118q-58 -17 -113 -17q-106 0 -175.5 50.5t-69.5 142.5q0 136 147 235
q-117 2 -206 34t-143.5 88t-85.5 133.5t-33 171t15 200.5l179 1005h190l-176 -991q-39 -222 38 -343.5t273 -121.5q197 0 318 123.5t159 341.5z" />
    <glyph glyph-name="uogonek" unicode="&#x173;" horiz-adv-x="1280" 
d="M1030 1133h178l-137 -779q-38 -210 -24 -354h-43q-88 -33 -146.5 -92t-58.5 -129q0 -52 38 -83.5t101 -31.5q47 0 92 14l-22 -127q-55 -14 -107 -14q-109 0 -176.5 51t-67.5 144q0 91 63.5 161.5t147.5 106.5h-2q-2 41 -2 75t10 76.5t31 94.5h-26q-83 -150 -187.5 -215.5
t-234.5 -65.5q-84 0 -150 24.5t-116 79.5t-65 142t3 211l127 711h178l-112 -644q-15 -97 -6 -165t42 -110.5t77 -61.5t100 -19q99 0 183 55.5t134 138t66 175.5z" />
    <glyph glyph-name="Wcircumflex" unicode="&#x174;" horiz-adv-x="2336" 
d="M1165 1720h-168l332 322h201l219 -322h-166q-43 51 -59 71t-41 67.5t-39 101.5h-55q-34 -53 -76 -100.5t-71 -74t-77 -65.5zM664 0h-236l-215 1597h211q58 -431 92.5 -735t56.5 -651h27q229 527 643 1386h215q38 -282 61 -459t50.5 -437t44.5 -498h28q261 629 637 1394
h211l-782 -1597h-231q-119 801 -150 1360h-35q-273 -661 -628 -1360z" />
    <glyph glyph-name="wcircumflex" unicode="&#x175;" horiz-adv-x="1871" 
d="M827 1278h-170l361 360h211l231 -360h-168q-44 58 -63.5 84.5t-49.5 79t-46 100.5h-48q-85 -120 -258 -264zM528 0h-198l-203 1133h203q3 -16 18 -112t19 -120t16.5 -108t17.5 -120.5t14.5 -111t15 -124.5t11.5 -117t11 -130h34q72 162 160.5 344.5t144 289.5t160.5 309
h170q40 -224 56.5 -320.5t42.5 -279t41 -343.5h32q27 64 56.5 131.5t52.5 118t59.5 127t53.5 112t60 121.5t54 107.5t60 118t55 107.5h201l-600 -1133h-205q-105 623 -133 901h-23q-197 -418 -457 -901z" />
    <glyph glyph-name="Ycircumflex" unicode="&#x176;" horiz-adv-x="1415" 
d="M705 1720h-168l331 322h201l219 -322h-166q-43 51 -59 71t-41 67.5t-39 101.5h-55q-34 -53 -75.5 -100t-71 -74.5t-76.5 -65.5zM702 0h-190q83 437 117 575q-200 464 -418 1022h205q75 -193 111.5 -289t95.5 -268.5t100 -320.5h27q94 151 214 323.5t185 261.5t217 293
h205q-58 -76 -218.5 -290.5t-291.5 -386t-268 -345.5q-28 -229 -91 -575z" />
    <glyph glyph-name="ycircumflex" unicode="&#x177;" horiz-adv-x="1134" 
d="M451 1278h-170l360 360h211l231 -360h-168q-44 58 -63.5 84.5t-49.5 79t-46 100.5h-47q-85 -120 -258 -264zM311 -451h-180l242 426l-250 1158h196q113 -517 164 -977h29q214 459 508 977h192z" />
    <glyph glyph-name="Ydieresis" unicode="&#x178;" horiz-adv-x="1415" 
d="M713 1772q-47 0 -77 29.5t-30 74.5q0 60 46 103.5t106 43.5q45 0 74.5 -29t29.5 -71q0 -59 -45 -105t-104 -46zM1128 1772q-47 0 -76.5 29.5t-29.5 72.5q0 61 45.5 105t106.5 44q45 0 74.5 -29.5t29.5 -72.5q0 -58 -45.5 -103.5t-104.5 -45.5zM702 0h-190q83 437 117 575
q-200 464 -418 1022h205q75 -193 111.5 -289t95.5 -268.5t100 -320.5h27q94 151 214 323.5t185 261.5t217 293h205q-58 -76 -218.5 -290.5t-291.5 -386t-268 -345.5q-28 -229 -91 -575z" />
    <glyph glyph-name="Zacute" unicode="&#x179;" horiz-adv-x="1349" 
d="M1325 2056l-395 -336h-164l311 336h248zM1188 0h-1227l27 158q549 600 1245 1290l-8 27q-483 -52 -977 -52l31 174h1173l-27 -155q-476 -515 -1245 -1284l10 -27q452 47 1029 47z" />
    <glyph glyph-name="zacute" unicode="&#x17a;" horiz-adv-x="1017" 
d="M1083 1667l-378 -389h-156l307 389h227zM870 0h-907l27 143q20 21 107 115t116 125t104.5 112t118.5 126t109 113t124.5 126.5t118.5 116.5l-8 27q-281 -35 -616 -35l29 164h833l-25 -144q-24 -25 -123.5 -130.5t-136 -144t-124 -129.5t-142 -146t-130.5 -131.5
t-146 -143.5l8 -27q242 27 692 27z" />
    <glyph glyph-name="Zdotaccent" unicode="&#x17b;" horiz-adv-x="1349" 
d="M866 1776q-49 0 -79.5 31t-30.5 79q0 62 47 108t110 46q49 0 80 -30.5t31 -76.5q0 -61 -48 -109t-110 -48zM1188 0h-1227l27 158q549 600 1245 1290l-8 27q-483 -52 -977 -52l31 174h1173l-27 -155q-476 -515 -1245 -1284l10 -27q452 47 1029 47z" />
    <glyph glyph-name="zdotaccent" unicode="&#x17c;" horiz-adv-x="1017" 
d="M657 1386q-47 0 -77.5 31.5t-30.5 79.5q0 61 47.5 107.5t110.5 46.5q49 0 78.5 -30t29.5 -77q0 -62 -47.5 -110t-110.5 -48zM870 0h-907l27 143q20 21 107 115t116 125t104.5 112t118.5 126t109 113t124.5 126.5t118.5 116.5l-8 27q-281 -35 -616 -35l29 164h833
l-25 -144q-24 -25 -123.5 -130.5t-136 -144t-124 -129.5t-142 -146t-130.5 -131.5t-146 -143.5l8 -27q242 27 692 27z" />
    <glyph glyph-name="Zcaron" unicode="&#x17d;" horiz-adv-x="1349" 
d="M965 1720h-207l-215 322h166q36 -42 54.5 -65.5t44.5 -71t40 -101.5h55q33 54 74.5 101t69.5 71.5t79 65.5h166zM1188 0h-1227l27 158q549 600 1245 1290l-8 27q-483 -52 -977 -52l31 174h1173l-27 -155q-476 -515 -1245 -1284l10 -27q452 47 1029 47z" />
    <glyph glyph-name="zcaron" unicode="&#x17e;" horiz-adv-x="1017" 
d="M741 1284h-209l-231 369h170q44 -60 65 -90.5t50.5 -81.5t48.5 -101h41q12 17 24.5 33.5t27.5 34t26 30t29.5 31t27.5 28t31 30t29.5 27t33 30.5t31.5 29h168zM870 0h-907l27 143q20 21 107 115t116 125t104.5 112t118.5 126t109 113t124.5 126.5t118.5 116.5l-8 27
q-281 -35 -616 -35l29 164h833l-25 -144q-24 -25 -123.5 -130.5t-136 -144t-124 -129.5t-142 -146t-130.5 -131.5t-146 -143.5l8 -27q242 27 692 27z" />
    <glyph glyph-name="uni0218" unicode="&#x218;" horiz-adv-x="1320" 
d="M578 -35q-79 0 -151 16t-138 52.5t-115.5 90t-83 133t-41.5 177.5l189 64q17 -179 117.5 -269t254.5 -90q169 0 284.5 94.5t115.5 225.5q0 24 -5 45t-11 37.5t-20.5 32.5t-24 26.5t-31 22.5t-32 18.5t-37.5 16.5t-37 13t-39.5 12.5t-37.5 12.5l-139 47q-42 13 -74.5 26
t-79 35.5t-80.5 51t-65.5 66t-48.5 89t-17 111.5q0 99 46.5 191.5t126.5 162.5t194 112t240 42q210 0 334.5 -106.5t140.5 -272.5l-185 -71q-21 128 -106 202t-221 74q-153 0 -259 -85t-106 -202q0 -46 20.5 -86t46.5 -64.5t70 -48t70.5 -33.5t67.5 -24l149 -51
q132 -45 180 -69q173 -89 182 -261q1 -11 1 -22q0 -102 -49.5 -200.5t-134 -174.5t-206 -123t-255.5 -47zM440 -557h-94q90 133 186 215q-56 0 -84 25.5t-28 66.5q0 55 43 95t100 40q46 0 74.5 -28t28.5 -72q0 -42 -29.5 -87.5t-135.5 -177.5q-39 -49 -61 -77z" />
    <glyph glyph-name="uni0219" unicode="&#x219;" horiz-adv-x="1019" 
d="M424 -35q-172 0 -284.5 87t-131.5 231l176 55q24 -104 99.5 -162.5t173.5 -58.5q105 0 181.5 59t76.5 143q0 35 -14 60.5t-41.5 42t-54.5 27t-65 22.5q-9 3 -14 4l-106 33q-109 35 -162 74q-103 77 -104 204q0 154 130.5 266.5t317.5 112.5q152 0 249.5 -77.5
t115.5 -200.5l-179 -58q-15 81 -71 135t-150 54t-160.5 -56t-66.5 -133q0 -32 14.5 -59t33 -44t51.5 -33.5t55 -24t59 -19.5l94 -28q30 -9 35.5 -11t36 -13t40.5 -17t36.5 -20t37.5 -25.5t29 -31t26 -39t14.5 -46t6.5 -56.5q0 -76 -36.5 -148.5t-100 -127t-155 -88
t-193.5 -33.5zM285 -557h-95q89 131 187 215q-56 0 -84.5 25.5t-28.5 66.5q0 55 43 95t101 40q46 0 74 -28t28 -72q0 -42 -31 -90t-139 -183q-35 -44 -55 -69z" />
    <glyph glyph-name="uni021A" unicode="&#x21a;" horiz-adv-x="1296" 
d="M643 0h-190q5 29 33.5 188.5t38.5 212.5t35.5 194.5t41.5 221t40.5 200.5t47.5 225.5t47 207.5q-209 -27 -561 -27l33 174h1243l-31 -174q-350 0 -549 27q-69 -544 -229 -1450zM401 -557h-94q89 131 187 215q-56 0 -84.5 25.5t-28.5 66.5q0 55 43 95t100 40
q46 0 74.5 -28t28.5 -72q0 -42 -29.5 -87.5t-135.5 -177.5q-39 -49 -61 -77z" />
    <glyph glyph-name="uni021B" unicode="&#x21b;" horiz-adv-x="802" 
d="M442 -35q-49 0 -89 9t-67 23.5t-46.5 38t-30.5 45.5t-16 53.5t-5.5 55.5t2.5 57.5t6.5 52.5t8.5 48q71 410 141 649q-102 -24 -256 -24l27 160q150 0 248 -23q0 25 0.5 51.5t1.5 46.5t4 47.5t4.5 42t6 45t6 40t7 43t6.5 40.5h179q-13 -77 -20 -111.5t-26.5 -106.5
t-44.5 -138q143 23 369 23l-29 -160q-228 0 -358 24q-12 -177 -29.5 -295t-31 -159.5t-23.5 -98.5t-10 -135q0 -99 23.5 -140.5t99.5 -41.5q93 0 190 57l-31 -166q-87 -53 -217 -53zM223 -557h-94q90 133 186 215q-56 0 -84 25.5t-28 66.5q0 55 43 95t100 40q46 0 74.5 -28
t28.5 -72q0 -42 -29.5 -87.5t-135.5 -177.5q-39 -49 -61 -77z" />
    <glyph glyph-name="gravecomb" unicode="&#x300;" horiz-adv-x="0" 
d="M139 1278h-157l-242 389h227z" />
    <glyph glyph-name="acutecomb" unicode="&#x301;" horiz-adv-x="0" 
d="M369 1667l-379 -389h-156l307 389h228z" />
    <glyph glyph-name="uni0302" unicode="&#x302;" horiz-adv-x="0" 
d="M-436 1278h-170l360 360h211l232 -360h-168q-47 61 -64.5 85.5t-48.5 77.5t-47 101h-47q-85 -120 -258 -264z" />
    <glyph glyph-name="tildecomb" unicode="&#x303;" horiz-adv-x="0" 
d="M-84 1333q-45 0 -75.5 16t-67.5 50l-39 35q-2 1 -8.5 7.5t-9 8.5t-9 7t-10.5 7t-10.5 5.5t-12 5t-12.5 3t-14 1.5q-43 0 -75.5 -36.5t-43.5 -92.5h-133q23 120 99.5 194t174.5 74q32 0 60 -10.5t43.5 -22t36.5 -31.5l38 -34q47 -47 89 -47q41 0 71 36.5t39 94.5h133
q-22 -127 -92 -199t-172 -72z" />
    <glyph glyph-name="uni0304" unicode="&#x304;" horiz-adv-x="0" 
d="M154 1384h-689l25 138h688z" />
    <glyph glyph-name="uni0306" unicode="&#x306;" horiz-adv-x="0" 
d="M-186 1274q-172 0 -254 110.5t-56 284.5h152q-15 -117 34.5 -187.5t149.5 -70.5q99 0 173.5 71t99.5 187h153q-37 -177 -160 -286t-292 -109z" />
    <glyph glyph-name="uni0307" unicode="&#x307;" horiz-adv-x="0" 
d="M-6 1380q-47 0 -78 32t-31 79q0 61 47.5 107.5t110.5 46.5q49 0 79 -30.5t30 -76.5q0 -62 -47.5 -110t-110.5 -48z" />
    <glyph glyph-name="uni0308" unicode="&#x308;" horiz-adv-x="0" 
d="M-569 1352q-45 0 -74 28.5t-29 71.5q0 57 44.5 100t101.5 43q43 0 71.5 -28.5t28.5 -69.5q0 -57 -43 -101t-100 -44zM-190 1352q-46 0 -74.5 28t-28.5 72q0 57 43 100t100 43q44 0 72.5 -29t28.5 -71q0 -56 -43 -99.5t-98 -43.5z" />
    <glyph glyph-name="uni030A" unicode="&#x30a;" horiz-adv-x="0" 
d="M-37 1249q-89 0 -145 53t-56 138q0 105 83.5 184.5t197.5 79.5q90 0 145.5 -52t55.5 -136q0 -104 -83.5 -185.5t-197.5 -81.5zM-20 1354q63 0 107 43.5t44 103.5q0 44 -30 71t-76 27q-63 0 -106.5 -42.5t-43.5 -102.5q0 -46 29 -73t76 -27z" />
    <glyph glyph-name="uni030B" unicode="&#x30b;" horiz-adv-x="0" 
d="M63 1673l-360 -395h-154l287 395h227zM430 1673l-375 -395h-153l303 395h225z" />
    <glyph glyph-name="uni030C" unicode="&#x30c;" horiz-adv-x="0" 
d="M-100 1278h-209l-232 369h170q44 -60 65 -90.5t50.5 -81.5t48.5 -101h41q12 17 24.5 33.5t27.5 34t26 30t29.5 31t27.5 28t31 30t29.5 27t33 30.5t31.5 29h168z" />
    <glyph glyph-name="uni0312" unicode="&#x312;" horiz-adv-x="0" 
d="M-188 1290q0 46 40 105.5t209 277.5h107q-94 -144 -201 -274q45 4 67.5 -17t22.5 -59q0 -56 -40.5 -94.5t-98.5 -38.5q-49 0 -77.5 27.5t-28.5 72.5z" />
    <glyph glyph-name="uni0326" unicode="&#x326;" horiz-adv-x="0" 
d="M-426 -557h-94q90 133 186 215q-56 0 -84 25.5t-28 66.5q0 55 43 95t100 40q46 0 74 -28t28 -72q0 -42 -31 -90t-139 -183q-35 -44 -55 -69z" />
    <glyph glyph-name="uni0327" unicode="&#x327;" horiz-adv-x="0" 
d="M-727 -500q-77 0 -142.5 31t-101.5 86l80 74q27 -43 74.5 -67.5t99.5 -24.5q62 0 104 32.5t42 79.5q0 35 -29 56.5t-74 21.5q-52 0 -98 -27l-55 56l149 182h115q-58 -72 -166 -154l10 -10q64 35 117 35q70 0 113 -38.5t43 -104.5q0 -94 -80.5 -161t-200.5 -67z" />
    <glyph glyph-name="uni0328" unicode="&#x328;" horiz-adv-x="0" 
d="M-721 -483q-109 0 -176.5 50.5t-67.5 143.5q0 91 64 162t147 107h136q-88 -33 -146.5 -92.5t-58.5 -129.5q0 -52 38 -83t101 -31q46 0 92 14l-22 -127q-55 -14 -107 -14z" />
    <glyph glyph-name="uni0335" unicode="&#x335;" horiz-adv-x="0" 
d="M-657 639h725l-27 -141h-723z" />
    <glyph glyph-name="uni0337" unicode="&#x337;" horiz-adv-x="0" 
d="M-416 492l29 157l629 400l-27 -158z" />
    <glyph glyph-name="uni0338" unicode="&#x338;" horiz-adv-x="0" 
d="M-1024 -59h-170l1143 1239h162z" />
    <glyph glyph-name="Wgrave" unicode="&#x1e80;" horiz-adv-x="2336" 
d="M1485 1720h-164l-277 336h246zM664 0h-236l-215 1597h211q58 -431 92.5 -735t56.5 -651h27q229 527 643 1386h215q38 -282 61 -459t50.5 -437t44.5 -498h28q261 629 637 1394h211l-782 -1597h-231q-119 801 -150 1360h-35q-273 -661 -628 -1360z" />
    <glyph glyph-name="wgrave" unicode="&#x1e81;" horiz-adv-x="1871" 
d="M1147 1278h-158l-241 389h227zM528 0h-198l-203 1133h203q3 -16 18 -112t19 -120t16.5 -108t17.5 -120.5t14.5 -111t15 -124.5t11.5 -117t11 -130h34q72 162 160.5 344.5t144 289.5t160.5 309h170q40 -224 56.5 -320.5t42.5 -279t41 -343.5h32q27 64 56.5 131.5t52.5 118
t59.5 127t53.5 112t60 121.5t54 107.5t60 118t55 107.5h201l-600 -1133h-205q-105 623 -133 901h-23q-197 -418 -457 -901z" />
    <glyph glyph-name="Wacute" unicode="&#x1e82;" horiz-adv-x="2336" 
d="M1837 2056l-395 -336h-164l311 336h248zM664 0h-236l-215 1597h211q58 -431 92.5 -735t56.5 -651h27q229 527 643 1386h215q38 -282 61 -459t50.5 -437t44.5 -498h28q261 629 637 1394h211l-782 -1597h-231q-119 801 -150 1360h-35q-273 -661 -628 -1360z" />
    <glyph glyph-name="wacute" unicode="&#x1e83;" horiz-adv-x="1871" 
d="M1505 1667l-379 -389h-155l307 389h227zM528 0h-198l-203 1133h203q3 -16 18 -112t19 -120t16.5 -108t17.5 -120.5t14.5 -111t15 -124.5t11.5 -117t11 -130h34q72 162 160.5 344.5t144 289.5t160.5 309h170q40 -224 56.5 -320.5t42.5 -279t41 -343.5h32q27 64 56.5 131.5
t52.5 118t59.5 127t53.5 112t60 121.5t54 107.5t60 118t55 107.5h201l-600 -1133h-205q-105 623 -133 901h-23q-197 -418 -457 -901z" />
    <glyph glyph-name="Wdieresis" unicode="&#x1e84;" horiz-adv-x="2336" 
d="M1174 1772q-47 0 -77 29.5t-30 74.5q0 60 46 103.5t106 43.5q45 0 74.5 -29t29.5 -71q0 -59 -45 -105t-104 -46zM1589 1772q-47 0 -76.5 29.5t-29.5 72.5q0 61 45 105t106 44q45 0 75 -29.5t30 -72.5q0 -58 -45.5 -103.5t-104.5 -45.5zM664 0h-236l-215 1597h211
q58 -431 92.5 -735t56.5 -651h27q229 527 643 1386h215q38 -282 61 -459t50.5 -437t44.5 -498h28q261 629 637 1394h211l-782 -1597h-231q-119 801 -150 1360h-35q-273 -661 -628 -1360z" />
    <glyph glyph-name="wdieresis" unicode="&#x1e85;" horiz-adv-x="1871" 
d="M885 1352q-45 0 -74 28.5t-29 71.5q0 57 44.5 100t101.5 43q43 0 71.5 -28.5t28.5 -69.5q0 -57 -43 -101t-100 -44zM1264 1352q-46 0 -74.5 28t-28.5 72q0 57 43.5 100t100.5 43q44 0 72 -29t28 -71q0 -56 -43 -99.5t-98 -43.5zM528 0h-198l-203 1133h203q3 -16 18 -112
t19 -120t16.5 -108t17.5 -120.5t14.5 -111t15 -124.5t11.5 -117t11 -130h34q72 162 160.5 344.5t144 289.5t160.5 309h170q40 -224 56.5 -320.5t42.5 -279t41 -343.5h32q27 64 56.5 131.5t52.5 118t59.5 127t53.5 112t60 121.5t54 107.5t60 118t55 107.5h201l-600 -1133
h-205q-105 623 -133 901h-23q-197 -418 -457 -901z" />
    <glyph glyph-name="uni1E9E" unicode="&#x1e9e;" horiz-adv-x="1558" 
d="M272 0h-188l162 926q11 65 25 121.5t42.5 131t64.5 134.5t94 121t128.5 102.5t170.5 67.5t218 26q240 0 375 -100.5t135 -282.5q0 -167 -104 -289t-267 -137l-4 -28q142 0 231 -79.5t89 -226.5q0 -74 -23.5 -143.5t-75 -132.5t-125.5 -109.5t-181 -74t-236 -27.5h-172
l31 172h198q177 0 280 86.5t103 218.5q0 112 -77.5 171t-213.5 59h-112l30 167h103q136 0 228.5 97.5t92.5 232.5q0 126 -88.5 192t-247.5 66q-83 0 -152.5 -19t-118.5 -48t-89 -73.5t-64.5 -86t-44.5 -95.5t-29 -91.5t-18 -83.5z" />
    <glyph glyph-name="Ygrave" unicode="&#x1ef2;" horiz-adv-x="1415" 
d="M1024 1720h-164l-276 336h245zM702 0h-190q83 437 117 575q-200 464 -418 1022h205q75 -193 111.5 -289t95.5 -268.5t100 -320.5h27q94 151 214 323.5t185 261.5t217 293h205q-58 -76 -218.5 -290.5t-291.5 -386t-268 -345.5q-28 -229 -91 -575z" />
    <glyph glyph-name="ygrave" unicode="&#x1ef3;" horiz-adv-x="1134" 
d="M770 1278h-158l-241 389h227zM311 -451h-180l242 426l-250 1158h196q113 -517 164 -977h29q214 459 508 977h192z" />
    <glyph glyph-name="uni2000" unicode="&#x2000;" horiz-adv-x="1024" 
 />
    <glyph glyph-name="uni2001" unicode="&#x2001;" 
 />
    <glyph glyph-name="uni2002" unicode="&#x2002;" horiz-adv-x="1024" 
 />
    <glyph glyph-name="uni2003" unicode="&#x2003;" 
 />
    <glyph glyph-name="uni2004" unicode="&#x2004;" horiz-adv-x="681" 
 />
    <glyph glyph-name="uni2005" unicode="&#x2005;" horiz-adv-x="512" 
 />
    <glyph glyph-name="uni2006" unicode="&#x2006;" horiz-adv-x="342" 
 />
    <glyph glyph-name="uni2007" unicode="&#x2007;" horiz-adv-x="542" 
 />
    <glyph glyph-name="uni2008" unicode="&#x2008;" horiz-adv-x="489" 
 />
    <glyph glyph-name="uni2009" unicode="&#x2009;" horiz-adv-x="256" 
 />
    <glyph glyph-name="uni200A" unicode="&#x200a;" horiz-adv-x="86" 
 />
    <glyph glyph-name="uni200B" unicode="&#x200b;" horiz-adv-x="0" 
 />
    <glyph glyph-name="endash" unicode="&#x2013;" horiz-adv-x="1005" 
d="M885 547h-770l26 153h770z" />
    <glyph glyph-name="emdash" unicode="&#x2014;" horiz-adv-x="1431" 
d="M1315 551h-1200l24 143h1200z" />
    <glyph glyph-name="quoteleft" unicode="&#x2018;" horiz-adv-x="487" 
d="M481 1632h109q-49 -69 -68.5 -95.5t-61 -74.5t-85.5 -86q49 -6 73.5 -35t24.5 -71q0 -61 -48.5 -107.5t-111.5 -46.5q-47 0 -77.5 31t-30.5 78q0 44 38 101t184 239q35 43 54 67z" />
    <glyph glyph-name="quoteright" unicode="&#x2019;" horiz-adv-x="495" 
d="M313 1128h-110q38 56 63 89.5t69 83t93 90.5q-106 23 -106 102q0 59 47.5 105.5t109.5 46.5q49 0 79 -31t30 -78q0 -46 -44 -110t-231 -298z" />
    <glyph glyph-name="quotesinglbase" unicode="&#x201a;" horiz-adv-x="468" 
d="M33 -266h-109q5 7 28 39.5t29.5 41t26 35t30.5 38.5t29 33t35 37.5t37 33.5q-49 6 -73.5 34.5t-24.5 69.5q0 61 48.5 108.5t111.5 47.5q47 0 77.5 -31t30.5 -78q0 -48 -43 -109.5t-233 -299.5z" />
    <glyph glyph-name="quotedblleft" unicode="&#x201c;" horiz-adv-x="841" 
d="M481 1632h109q-49 -69 -68.5 -95.5t-61 -74.5t-85.5 -86q49 -6 73.5 -35t24.5 -71q0 -61 -48.5 -107.5t-111.5 -46.5q-47 0 -77.5 31t-30.5 78q0 44 38 101t184 239q35 43 54 67zM838 1632h108q-49 -69 -68.5 -95.5t-61 -74.5t-85.5 -86q49 -6 73.5 -35t24.5 -71
q0 -61 -48 -107.5t-111 -46.5q-47 0 -78 31t-31 78q0 48 42.5 108.5t234.5 298.5z" />
    <glyph glyph-name="quotedblright" unicode="&#x201d;" horiz-adv-x="849" 
d="M311 1128h-106q41 61 64 92.5t64 78.5t85 85q-49 6 -74 35.5t-25 71.5q0 61 48.5 107.5t111.5 46.5q47 0 78 -31t31 -78q0 -48 -43.5 -110t-233.5 -298zM670 1128h-109q49 69 68.5 95.5t61 74.5t85.5 86q-50 6 -75 35.5t-25 71.5q0 61 48.5 107.5t111.5 46.5
q47 0 77.5 -31t30.5 -78q0 -48 -43 -110.5t-231 -297.5z" />
    <glyph glyph-name="quotedblbase" unicode="&#x201e;" horiz-adv-x="825" 
d="M35 -254h-109q7 10 32.5 45.5t34.5 47t31 39.5t36 44t36 38t45 42q-49 6 -73.5 35.5t-24.5 71.5q0 61 48.5 107t111.5 46q47 0 77.5 -30.5t30.5 -77.5q0 -48 -44 -111t-232 -297zM393 -254h-108q95 134 143 187q33 36 70 69q-49 6 -74 35.5t-25 71.5q0 61 48.5 107
t111.5 46q47 0 78 -30.5t31 -77.5q0 -48 -42.5 -109.5t-232.5 -298.5z" />
    <glyph glyph-name="dagger" unicode="&#x2020;" horiz-adv-x="1005" 
d="M555 430h-160q32 179 46.5 258.5t44 218.5t63.5 273q-142 -21 -354 -21l24 148q219 0 346 -23q4 137 43 354h162q-37 -212 -84 -354q135 23 361 23l-25 -148q-219 0 -354 21q-32 -291 -113 -750z" />
    <glyph glyph-name="daggerdbl" unicode="&#x2021;" horiz-adv-x="1083" 
d="M1081 1307l-26 -148q-218 0 -357 27q9 -89 -3 -166t-48 -168q141 29 359 29l-27 -148q-217 0 -348 27q2 -142 -37 -359h-160q38 220 90 359q-141 -27 -362 -27l26 148q220 0 353 -29q-9 167 59 334q-143 -27 -362 -27l26 148q219 0 352 -29q-2 132 35 360h162
q-35 -207 -98 -360q150 29 366 29z" />
    <glyph glyph-name="bullet" unicode="&#x2022;" horiz-adv-x="825" 
d="M391 432q-85 0 -138.5 55.5t-53.5 139.5q0 108 83.5 190t192.5 82q84 0 137.5 -54t53.5 -134q0 -106 -84 -192.5t-191 -86.5z" />
    <glyph glyph-name="ellipsis" unicode="&#x2026;" horiz-adv-x="1402" 
d="M160 -14q-49 0 -80 31.5t-31 78.5q0 62 47.5 109t110.5 47q47 0 77.5 -31.5t30.5 -77.5q0 -61 -47 -109t-108 -48zM616 -14q-49 0 -79.5 31.5t-30.5 78.5q0 61 48 108.5t110 47.5q49 0 78.5 -31t29.5 -78q0 -60 -47.5 -108.5t-108.5 -48.5zM1073 -14q-49 0 -79.5 31.5
t-30.5 78.5q0 62 48 109t111 47q47 0 78 -31.5t31 -77.5q0 -60 -48.5 -108.5t-109.5 -48.5z" />
    <glyph glyph-name="uni202F" unicode="&#x202f;" horiz-adv-x="393" 
 />
    <glyph glyph-name="perthousand" unicode="&#x2030;" horiz-adv-x="2467" 
d="M389 768q-106 0 -165.5 77t-59.5 210q0 122 47 231t132 177.5t185 68.5q106 0 166 -78t60 -211q0 -121 -47.5 -230t-132.5 -177t-185 -68zM301 0h-170l1397 1468h162zM412 901q74 0 131 107t57 231q0 77 -25 117.5t-69 40.5q-48 0 -93 -50t-71.5 -128.5t-26.5 -159.5
q0 -77 26 -117.5t71 -40.5zM1296 -29q-106 0 -165.5 77t-59.5 210q0 122 47.5 231t132.5 177.5t185 68.5q106 0 165.5 -78t59.5 -211q0 -121 -47.5 -230t-132.5 -177t-185 -68zM2005 -29q-106 0 -165.5 77t-59.5 210q0 122 47 231t132 177.5t185 68.5q106 0 166 -78t60 -211
q0 -121 -47.5 -230t-132.5 -177t-185 -68zM1319 104q74 0 131 107t57 231q0 77 -25 117.5t-69 40.5q-48 0 -92.5 -50t-71 -128.5t-26.5 -159.5q0 -77 25.5 -117.5t70.5 -40.5zM2028 104q74 0 131 107t57 231q0 77 -25 117.5t-69 40.5q-48 0 -93 -50t-71.5 -128.5
t-26.5 -159.5q0 -77 26 -117.5t71 -40.5z" />
    <glyph glyph-name="guilsinglleft" unicode="&#x2039;" horiz-adv-x="761" 
d="M559 164h-197l-256 405l3 9l399 405h197q-91 -91 -144 -141.5t-134.5 -118.5t-160.5 -119l-10 -61q88 -73 154.5 -160.5t148.5 -218.5z" />
    <glyph glyph-name="guilsinglright" unicode="&#x203a;" horiz-adv-x="761" 
d="M258 164h-199q68 68 103 102t97.5 91.5t120 102t118.5 83.5l10 61q-87 75 -154 163t-149 216h198l256 -405l-2 -9z" />
    <glyph glyph-name="fraction" unicode="&#x2044;" horiz-adv-x="337" 
d="M-410 0h-170l1397 1468h162z" />
    <glyph glyph-name="uni205F" unicode="&#x205f;" horiz-adv-x="454" 
 />
    <glyph glyph-name="uni2070" unicode="&#x2070;" horiz-adv-x="710" 
d="M389 768q-106 0 -165.5 77t-59.5 210q0 122 47 231t132 177.5t185 68.5q106 0 166 -78t60 -211q0 -121 -47.5 -230t-132.5 -177t-185 -68zM412 901q74 0 131 107t57 231q0 77 -25 117.5t-69 40.5q-48 0 -93 -50t-71.5 -128.5t-26.5 -159.5q0 -77 26 -117.5t71 -40.5z" />
    <glyph glyph-name="uni2074" unicode="&#x2074;" horiz-adv-x="686" 
d="M571 784h-139l29 152h-352l20 119l436 461h137l-81 -459h96l-23 -121h-96zM528 1329l-258 -272h211z" />
    <glyph glyph-name="uni2075" unicode="&#x2075;" horiz-adv-x="669" 
d="M358 768q-94 0 -164 43t-83 125l137 63q12 -51 49 -79.5t86 -28.5q66 0 112 47.5t46 110.5q0 50 -30 78t-77 28q-43 0 -79 -21t-58 -53l-115 31l158 404h393l-20 -119h-291l-80 -195h2q30 28 74.5 44t87.5 16q79 0 134.5 -48.5t55.5 -140.5q0 -125 -99 -215t-239 -90z
" />
    <glyph glyph-name="uni2076" unicode="&#x2076;" horiz-adv-x="698" 
d="M391 768q-110 0 -172.5 66t-62.5 194q0 92 34 183t91.5 162t139 115t169.5 44q54 0 106 -18.5t80 -57.5l-92 -94q-45 45 -119 45q-85 0 -150.5 -63t-92.5 -175h2q28 43 81.5 67t108.5 24q88 0 146.5 -52.5t58.5 -142.5q0 -119 -95.5 -208t-232.5 -89zM422 889
q63 0 111.5 49t48.5 113q0 49 -31.5 79.5t-81.5 30.5q-63 0 -111.5 -48.5t-48.5 -111.5q0 -49 31.5 -80.5t81.5 -31.5z" />
    <glyph glyph-name="uni2077" unicode="&#x2077;" horiz-adv-x="573" 
d="M338 784h-156q26 142 119.5 321t222.5 294h-346l21 121h518l-23 -125q-138 -107 -234 -282.5t-122 -328.5z" />
    <glyph glyph-name="uni2078" unicode="&#x2078;" horiz-adv-x="684" 
d="M377 768q-110 0 -175 51.5t-65 132.5q0 72 50 134.5t116 80.5l2 2q-76 45 -76 127q0 93 83.5 164.5t199.5 71.5q93 0 153 -47.5t60 -128.5q0 -61 -35 -111.5t-94 -75.5v-2q46 -14 75 -52.5t29 -94.5q0 -104 -94 -178t-229 -74zM459 1221q54 0 93.5 36t39.5 84
q0 36 -27 59t-69 23q-54 0 -91.5 -34t-37.5 -82q0 -37 25.5 -61.5t66.5 -24.5zM403 893q61 0 104.5 41t43.5 100q0 42 -28 66t-79 24q-64 0 -107.5 -37.5t-43.5 -93.5q0 -46 30 -73t80 -27z" />
    <glyph glyph-name="uni2079" unicode="&#x2079;" horiz-adv-x="704" 
d="M346 768q-66 0 -126 25t-93 77l94 95q56 -78 150 -78q85 0 141 70t78 176q-31 -47 -85.5 -73t-109.5 -26q-89 0 -147 53t-58 144q0 123 98 212t236 89q230 0 230 -262q0 -130 -54.5 -245.5t-149 -186t-204.5 -70.5zM438 1135q65 0 115.5 52.5t50.5 117.5q0 51 -31.5 80.5
t-80.5 29.5q-67 0 -115.5 -50t-48.5 -118q0 -51 30 -81.5t80 -30.5z" />
    <glyph glyph-name="uni2080" unicode="&#x2080;" horiz-adv-x="710" 
d="M203 -285q-106 0 -166 77t-60 210q0 122 47.5 231t132.5 177.5t185 68.5q106 0 165.5 -78t59.5 -211q0 -122 -47 -230.5t-132 -176.5t-185 -68zM225 -152q74 0 131.5 107t57.5 231q0 76 -25.5 117t-69.5 41q-48 0 -92.5 -50t-71 -128.5t-26.5 -159.5q0 -77 25.5 -117.5
t70.5 -40.5z" />
    <glyph glyph-name="uni2081" unicode="&#x2081;" horiz-adv-x="468" 
d="M201 -268h-146l88 499q-77 -66 -172 -84l27 150q76 22 127.5 67t60.5 99h142z" />
    <glyph glyph-name="uni2082" unicode="&#x2082;" horiz-adv-x="661" 
d="M442 -268h-510l5 16q28 123 84.5 190.5t209.5 157.5q154 90 154 174q0 34 -25 56t-67 22q-61 0 -106 -42t-58 -113l-129 20q20 118 110 192t209 74q98 0 159 -50.5t61 -137.5q0 -147 -177 -252q-18 -12 -51 -30.5t-51.5 -30t-42 -29t-40 -38.5t-27.5 -46h317z" />
    <glyph glyph-name="uni2083" unicode="&#x2083;" horiz-adv-x="669" 
d="M178 -285q-103 0 -171 46.5t-77 121.5l138 64q26 -111 131 -111q61 0 102 37t41 90q0 44 -33 66t-88 22h-71l18 103h76q58 0 99.5 33.5t41.5 84.5q0 37 -27.5 59.5t-70.5 22.5q-51 0 -90 -30t-56 -82l-125 28q25 90 110.5 149.5t192.5 59.5q93 0 155.5 -44.5t62.5 -119.5
q0 -66 -44 -123.5t-106 -72.5q49 -11 80 -48.5t31 -90.5q0 -104 -93.5 -184.5t-226.5 -80.5z" />
    <glyph glyph-name="uni2084" unicode="&#x2084;" horiz-adv-x="686" 
d="M385 -268h-139l28 151h-352l21 119l436 461h137l-82 -459h96l-22 -121h-96zM342 276l-258 -272h211z" />
    <glyph glyph-name="uni2085" unicode="&#x2085;" horiz-adv-x="669" 
d="M172 -285q-94 0 -164.5 43t-83.5 125l137 64q12 -51 49.5 -80t86.5 -29q66 0 111.5 47.5t45.5 110.5q0 50 -29.5 78t-76.5 28q-86 0 -137 -73l-115 30l158 404h393l-21 -119h-290l-80 -194h2q30 28 74 43.5t87 15.5q79 0 135 -48.5t56 -140.5q0 -125 -99 -215t-239 -90z
" />
    <glyph glyph-name="uni2086" unicode="&#x2086;" horiz-adv-x="698" 
d="M205 -285q-110 0 -173 66t-63 194q0 92 34 183t91.5 162t139 115t169.5 44q55 0 107 -18.5t80 -57.5l-92 -94q-45 45 -119 45q-85 0 -151 -62.5t-93 -174.5h2q28 42 81.5 66t109.5 24q88 0 146 -52.5t58 -142.5q0 -119 -95 -208t-232 -89zM236 -164q63 0 111 49t48 113
q0 49 -31 80t-81 31q-63 0 -111.5 -48.5t-48.5 -111.5q0 -49 31.5 -81t81.5 -32z" />
    <glyph glyph-name="uni2087" unicode="&#x2087;" horiz-adv-x="573" 
d="M152 -268h-156q26 142 119.5 320.5t222.5 293.5h-346l20 121h518l-22 -125q-138 -107 -234 -282t-122 -328z" />
    <glyph glyph-name="uni2088" unicode="&#x2088;" horiz-adv-x="684" 
d="M190 -285q-110 0 -174.5 52t-64.5 133q0 72 50 134.5t116 80.5l2 2q-76 45 -76 127q0 93 83.5 164t199.5 71q93 0 153 -47.5t60 -128.5q0 -61 -35 -111t-94 -75v-2q46 -14 75 -53t29 -95q0 -104 -94.5 -178t-229.5 -74zM272 168q54 0 94 36.5t40 84.5q0 36 -27.5 59
t-69.5 23q-54 0 -91.5 -34.5t-37.5 -82.5q0 -37 25.5 -61.5t66.5 -24.5zM217 -160q61 0 104.5 41.5t43.5 100.5q0 42 -28 66t-79 24q-64 0 -108 -37.5t-44 -93.5q0 -46 30.5 -73.5t80.5 -27.5z" />
    <glyph glyph-name="uni2089" unicode="&#x2089;" horiz-adv-x="704" 
d="M160 -285q-66 0 -126 25.5t-93 77.5l94 94q56 -78 149 -78q85 0 141 70t78 176q-31 -47 -85 -72.5t-109 -25.5q-89 0 -147 52.5t-58 143.5q0 123 98 212t236 89q229 0 229 -262q0 -130 -54 -245.5t-148.5 -186t-204.5 -70.5zM252 82q65 0 115.5 52.5t50.5 117.5
q0 51 -32 80.5t-81 29.5q-67 0 -115.5 -49.5t-48.5 -117.5q0 -51 30.5 -82t80.5 -31z" />
    <glyph glyph-name="Euro" unicode="&#x20ac;" horiz-adv-x="1644" 
d="M965 -35q-288 0 -446.5 159.5t-149.5 434.5q-102 -20 -260 -20l20 116q146 0 229 -26q-9 148 52 280q-92 -26 -240 -26l20 116q154 0 248 -20q89 280 301 447t510 167q300 0 449 -168l-156 -135q-122 127 -334 127q-201 0 -358.5 -113.5t-263.5 -324.5q240 20 661 20
l-20 -116q-154 0 -227 0.5t-204 6.5t-243 19q-6 -141 -49 -280q116 13 249.5 19t206.5 6.5t226 0.5l-21 -116q-416 0 -647 20q43 -217 164 -317.5t342 -100.5q86 0 169 26t200 99l90 -131q-119 -92 -255 -131t-263 -39z" />
    <glyph glyph-name="trademark" unicode="&#x2122;" horiz-adv-x="1576" 
d="M469 932h-115l101 575h-215l18 109h547l-19 -109h-215zM911 932h-116l120 684h117q120 -467 131 -514q181 298 310 514h116l-121 -684h-116l75 436q-36 -60 -93.5 -155.5t-162.5 -270.5h-77q-14 56 -105 428z" />
    <glyph glyph-name="oneeighth" unicode="&#x215b;" horiz-adv-x="1490" 
d="M387 784h-145l88 500q-77 -66 -172 -84l26 150q76 22 128 67.5t61 98.5h141zM59 0h-170l1397 1468h162zM1042 -29q-110 0 -174.5 52t-64.5 133q0 72 50 134.5t116 80.5l2 2q-76 45 -76 127q0 93 83.5 164t199.5 71q93 0 153 -47.5t60 -128.5q0 -61 -35 -111t-94 -75v-2
q46 -14 75 -53t29 -95q0 -104 -94.5 -178t-229.5 -74zM1124 424q54 0 93.5 36.5t39.5 84.5q0 36 -27 59t-69 23q-54 0 -91.5 -34.5t-37.5 -82.5q0 -37 25.5 -61.5t66.5 -24.5zM1069 96q61 0 104.5 41.5t43.5 100.5q0 42 -28 66t-79 24q-64 0 -108 -37.5t-44 -93.5
q0 -46 30.5 -73.5t80.5 -27.5z" />
    <glyph glyph-name="threeeighths" unicode="&#x215c;" horiz-adv-x="1691" 
d="M365 768q-103 0 -171 46.5t-77 121.5l137 63q26 -110 131 -110q61 0 102 37t41 90q0 44 -32.5 66t-87.5 22h-72l18 102h76q58 0 99.5 34t41.5 85q0 37 -27.5 59.5t-70.5 22.5q-51 0 -89.5 -30t-55.5 -83l-125 29q25 90 110.5 149.5t192.5 59.5q93 0 155 -44.5t62 -119.5
q0 -66 -44 -124t-106 -73q49 -11 80 -48.5t31 -90.5q0 -104 -93 -184t-226 -80zM260 0h-170l1397 1468h162zM1243 -29q-110 0 -174.5 52t-64.5 133q0 72 49.5 134.5t115.5 80.5l2 2q-75 44 -75 127q0 93 83 164t199 71q93 0 153 -47.5t60 -128.5q0 -61 -35 -111t-94 -75v-2
q46 -14 75.5 -53t29.5 -95q0 -104 -94.5 -178t-229.5 -74zM1325 424q54 0 93.5 36.5t39.5 84.5q0 36 -27 59t-69 23q-54 0 -91.5 -34.5t-37.5 -82.5q0 -37 25.5 -61.5t66.5 -24.5zM1270 96q61 0 104 41.5t43 100.5q0 42 -28 66t-78 24q-64 0 -108 -37.5t-44 -93.5
q0 -46 30.5 -73.5t80.5 -27.5z" />
    <glyph glyph-name="fiveeighths" unicode="&#x215d;" horiz-adv-x="1691" 
d="M358 768q-94 0 -164 43t-83 125l137 63q12 -51 49 -79.5t86 -28.5q66 0 112 47.5t46 110.5q0 50 -30 78t-77 28q-43 0 -79 -21t-58 -53l-115 31l158 404h393l-20 -119h-291l-80 -195h2q30 28 74.5 44t87.5 16q79 0 134.5 -48.5t55.5 -140.5q0 -125 -99 -215t-239 -90z
M260 0h-170l1397 1468h162zM1243 -29q-110 0 -174.5 52t-64.5 133q0 72 49.5 134.5t115.5 80.5l2 2q-75 44 -75 127q0 93 83 164t199 71q93 0 153 -47.5t60 -128.5q0 -61 -35 -111t-94 -75v-2q46 -14 75.5 -53t29.5 -95q0 -104 -94.5 -178t-229.5 -74zM1325 424
q54 0 93.5 36.5t39.5 84.5q0 36 -27 59t-69 23q-54 0 -91.5 -34.5t-37.5 -82.5q0 -37 25.5 -61.5t66.5 -24.5zM1270 96q61 0 104 41.5t43 100.5q0 42 -28 66t-78 24q-64 0 -108 -37.5t-44 -93.5q0 -46 30.5 -73.5t80.5 -27.5z" />
    <glyph glyph-name="seveneighths" unicode="&#x215e;" horiz-adv-x="1595" 
d="M338 784h-156q26 142 119.5 321t222.5 294h-346l21 121h518l-23 -125q-138 -107 -234 -282.5t-122 -328.5zM164 0h-170l1397 1468h161zM1147 -29q-110 0 -175 52t-65 133q0 72 50 134.5t116 80.5l2 2q-76 45 -76 127q0 93 83.5 164t199.5 71q93 0 153 -47.5t60 -128.5
q0 -61 -35 -111t-94 -75v-2q46 -14 75 -53t29 -95q0 -104 -94 -178t-229 -74zM1229 424q54 0 93.5 36.5t39.5 84.5q0 36 -27 59t-69 23q-54 0 -91.5 -34.5t-37.5 -82.5q0 -37 25.5 -61.5t66.5 -24.5zM1174 96q61 0 104 41.5t43 100.5q0 42 -28 66t-79 24q-64 0 -107.5 -37.5
t-43.5 -93.5q0 -46 30.5 -73.5t80.5 -27.5z" />
    <glyph glyph-name="arrowleft" unicode="&#x2190;" horiz-adv-x="1409" 
d="M578 236h-187l-268 405l2 8l412 406h186q-84 -81 -121.5 -116.5t-121 -107t-167.5 -135.5q354 27 1008 27l-29 -158q-653 0 -995 29q91 -98 153.5 -179t127.5 -179z" />
    <glyph glyph-name="arrowup" unicode="&#x2191;" horiz-adv-x="993" 
d="M479 20h-155q98 555 154 802q23 102 48 198q-192 -178 -420 -344l33 186l467 340h8l344 -340l-32 -186q-61 61 -98 99.5t-93 106t-106 138.5q-35 -361 -150 -1000z" />
    <glyph glyph-name="arrowright" unicode="&#x2192;" horiz-adv-x="1406" 
d="M901 236h-186q6 6 39 37t41.5 39.5t38 36t43 39.5t41.5 37t47.5 41.5t47 39.5t55 44.5t56.5 43.5q-354 -29 -1005 -29l28 158q652 0 994 -27q-66 70 -121 138t-84 109t-76 112h187l268 -406l-2 -8z" />
    <glyph glyph-name="arrowdown" unicode="&#x2193;" horiz-adv-x="997" 
d="M408 20h-9l-346 340l33 187q63 -63 98 -99.5t92 -104t109 -140.5q6 64 14.5 133.5t15 120.5t18.5 133.5t17 117t21 131t19 115.5t22 130t20 118h158q-115 -656 -203 -999q189 175 418 344l-33 -187z" />
    <glyph glyph-name="arrowboth" unicode="&#x2194;" horiz-adv-x="1767" 
d="M573 233h-186l-268 406l2 8l411 406h187q-65 -62 -192.5 -185t-186.5 -180q572 42 1135 0q-36 52 -84.5 121t-84.5 121.5t-81 122.5h186l268 -406l-2 -8l-411 -406h-187q249 240 377 361q-572 -39 -1132 0q43 -60 82 -116.5t89 -130t78 -114.5z" />
    <glyph glyph-name="arrowupdn" unicode="&#x2195;" horiz-adv-x="1079" 
d="M446 4h-8l-348 328l31 172q176 -164 307 -293q49 498 172 973q-228 -168 -414 -301l33 178l463 325h8l348 -325l-32 -178q-40 40 -141 138.5t-163 160.5q-51 -502 -172 -971q101 76 410 293l-31 -172z" />
    <glyph glyph-name="uni2196" unicode="&#x2196;" horiz-adv-x="1220" 
d="M1075 147l-135 -79q-429 511 -629 792q-17 -195 -86 -446l-121 143l129 467l7 4l573 -61l123 -144q-283 28 -537 88q116 -118 246 -264t204.5 -233.5t225.5 -266.5z" />
    <glyph glyph-name="uni2197" unicode="&#x2197;" horiz-adv-x="1118" 
d="M176 68l-135 79q151 179 225.5 266.5t204.5 233.5t246 264q-253 -59 -535 -88l121 144l574 61l6 -4l131 -467l-123 -143q-66 241 -84 446q-225 -313 -631 -792z" />
    <glyph glyph-name="uni2198" unicode="&#x2198;" horiz-adv-x="1226" 
d="M162 1073l135 80q401 -474 631 -793q18 207 84 447l123 -143l-129 -467l-9 -4l-573 61l-121 143q282 -29 535 -88q-116 118 -246 264t-204.5 233.5t-225.5 266.5z" />
    <glyph glyph-name="uni2199" unicode="&#x2199;" horiz-adv-x="1120" 
d="M958 1153l138 -80q-19 -22 -91 -107t-98 -115.5t-88.5 -103.5t-100 -114.5t-92.5 -103t-105.5 -114.5t-102.5 -106q256 60 536 88l-123 -143l-571 -61l-8 4l-129 467l121 143q69 -251 86 -447q134 188 279.5 369.5t348.5 423.5z" />
    <glyph glyph-name="emptyset" unicode="&#x2205;" horiz-adv-x="1431" 
d="M1257 1272l101 -78l-156 -176q115 -134 115 -336q0 -185 -92 -349.5t-256 -266t-359 -101.5q-157 0 -278 70l-156 -176l-100 80l157 178q-116 129 -116 336q0 138 55 269t148 229.5t225 158t278 59.5q163 0 281 -71zM303 481q0 -129 64 -215l608 688q-79 45 -180 45
q-132 0 -246.5 -73.5t-180 -192.5t-65.5 -252zM1130 651q0 129 -61 215l-608 -686q79 -45 182 -45q132 0 245 73t177.5 191.5t64.5 251.5z" />
    <glyph glyph-name="minus" unicode="&#x2212;" horiz-adv-x="1017" 
d="M887 551h-760l27 149h757z" />
    <glyph glyph-name="infinity" unicode="&#x221e;" horiz-adv-x="1826" 
d="M442 285q-140 0 -224.5 77.5t-84.5 202.5q0 107 61 200t160 146.5t207 53.5q99 0 176.5 -54.5t202.5 -195.5q175 141 273.5 195.5t195.5 54.5q135 0 220 -77.5t85 -203.5q0 -159 -124 -279t-300 -120q-104 0 -182.5 54.5t-198.5 195.5q-169 -141 -266 -195.5t-201 -54.5z
M463 420q31 0 62.5 8.5t55 18.5t60.5 34.5t56 39t66 51t68 53.5q-19 20 -50.5 55t-47 51.5t-42 39.5t-46.5 33.5t-48.5 18.5t-59.5 8q-104 0 -176 -71.5t-72 -173.5q0 -81 47.5 -123.5t126.5 -42.5zM1315 420q102 0 173 71t71 173q0 79 -46.5 122t-126.5 43q-27 0 -51 -4
t-53 -17.5t-45.5 -21t-52.5 -33.5t-48 -35t-58 -46t-58 -47q13 -14 47 -51.5t47.5 -51t42.5 -39.5t49 -35.5t49 -18.5t60 -9z" />
    <glyph glyph-name="approxequal" unicode="&#x2248;" horiz-adv-x="1081" 
d="M322 707h-152q24 131 108.5 205.5t186.5 74.5q41 0 75.5 -13.5t58 -32.5t44.5 -38.5t46.5 -33t53.5 -13.5q50 0 79.5 37t37.5 92h150q-24 -137 -98.5 -208.5t-178.5 -71.5q-54 0 -97 21t-66 45.5t-55 45.5t-66 21q-52 0 -84.5 -37.5t-42.5 -93.5zM246 276h-152
q24 132 108 205.5t187 73.5q50 0 91.5 -20.5t64.5 -45t55 -45t66 -20.5q95 0 118 129h152q-25 -135 -101 -208t-178 -73q-44 0 -80.5 14t-60 34t-44.5 40t-46 34t-53 14q-52 0 -84.5 -38.5t-42.5 -93.5z" />
    <glyph glyph-name="notequal" unicode="&#x2260;" horiz-adv-x="1064" 
d="M975 905l-27 -149h-282q-44 -148 -148 -277h381l-25 -149h-436q-9 -67 -71 -178h-142q62 115 121 178h-237l24 149h295q36 142 145 277h-391l27 149h444q1 12 3.5 24t7.5 25.5t8 22.5t11 24.5t11 22t12.5 24.5t12.5 23h141q-3 -5 -11.5 -21t-12.5 -23t-12.5 -21.5
t-15.5 -24.5t-16.5 -23.5t-20.5 -26.5t-23 -26h227z" />
    <glyph glyph-name="lessequal" unicode="&#x2264;" horiz-adv-x="1040" 
d="M846 319h-742l23 130h463l-428 176l26 151l768 178l-24 -141l-578 -131l514 -229z" />
    <glyph glyph-name="greaterequal" unicode="&#x2265;" horiz-adv-x="1040" 
d="M850 319h-739l22 134l594 229l-530 131l24 141l707 -178l-25 -151l-491 -176h460z" />
    <glyph glyph-name="lozenge" unicode="&#x25ca;" horiz-adv-x="1150" 
d="M522 0h-90l-297 694l543 692h90l295 -692zM305 694l203 -495h6l381 495l-205 494h-6z" />
    <glyph glyph-name="A.ss01" horiz-adv-x="1529" 
d="M121 0h-199l899 1597h254l334 -1597h-203q-78 331 -88 526l-16 19q-255 -23 -338 -23q-125 0 -338 23l-27 -21q-95 -209 -278 -524zM494 686l12 -20q167 20 289 20q123 0 260 -20l16 18q-50 217 -77 390.5t-27 369.5h-97q-72 -201 -160 -372.5t-216 -385.5z" />
    <glyph glyph-name="Aacute.ss01" horiz-adv-x="1529" 
d="M1432 2056l-396 -336h-164l312 336h248zM121 0h-199l899 1597h254l334 -1597h-203q-78 331 -88 526l-16 19q-255 -23 -338 -23q-125 0 -338 23l-27 -21q-95 -209 -278 -524zM494 686l12 -20q167 20 289 20q123 0 260 -20l16 18q-50 217 -77 390.5t-27 369.5h-97
q-72 -201 -160 -372.5t-216 -385.5z" />
    <glyph glyph-name="Abreve.ss01" horiz-adv-x="1529" 
d="M969 1722q-166 0 -256 102t-70 236h158q-9 -79 43.5 -139.5t146.5 -60.5t168 60t94 140h160q-29 -135 -153 -236.5t-291 -101.5zM121 0h-199l899 1597h254l334 -1597h-203q-78 331 -88 526l-16 19q-255 -23 -338 -23q-125 0 -338 23l-27 -21q-95 -209 -278 -524zM494 686
l12 -20q167 20 289 20q123 0 260 -20l16 18q-50 217 -77 390.5t-27 369.5h-97q-72 -201 -160 -372.5t-216 -385.5z" />
    <glyph glyph-name="Acircumflex.ss01" horiz-adv-x="1529" 
d="M762 1720h-168l332 322h200l220 -322h-166q-69 82 -91 118q-32 54 -49 122h-55q-34 -53 -75.5 -100t-71 -74.5t-76.5 -65.5zM121 0h-199l899 1597h254l334 -1597h-203q-78 331 -88 526l-16 19q-255 -23 -338 -23q-125 0 -338 23l-27 -21q-95 -209 -278 -524zM494 686
l12 -20q167 20 289 20q123 0 260 -20l16 18q-50 217 -77 390.5t-27 369.5h-97q-72 -201 -160 -372.5t-216 -385.5z" />
    <glyph glyph-name="Adieresis.ss01" horiz-adv-x="1529" 
d="M770 1772q-47 0 -76.5 29.5t-29.5 74.5q0 60 45.5 103.5t105.5 43.5q45 0 75 -29t30 -71q0 -59 -45 -105t-105 -46zM1186 1772q-47 0 -77 29.5t-30 72.5q0 61 45.5 105t106.5 44q45 0 74.5 -29.5t29.5 -72.5q0 -58 -45 -103.5t-104 -45.5zM121 0h-199l899 1597h254
l334 -1597h-203q-78 331 -88 526l-16 19q-255 -23 -338 -23q-125 0 -338 23l-27 -21q-95 -209 -278 -524zM494 686l12 -20q167 20 289 20q123 0 260 -20l16 18q-50 217 -77 390.5t-27 369.5h-97q-72 -201 -160 -372.5t-216 -385.5z" />
    <glyph glyph-name="Agrave.ss01" horiz-adv-x="1529" 
d="M1079 1720h-164l-276 336h246zM121 0h-199l899 1597h254l334 -1597h-203q-78 331 -88 526l-16 19q-255 -23 -338 -23q-125 0 -338 23l-27 -21q-95 -209 -278 -524zM494 686l12 -20q167 20 289 20q123 0 260 -20l16 18q-50 217 -77 390.5t-27 369.5h-97
q-72 -201 -160 -372.5t-216 -385.5z" />
    <glyph glyph-name="Amacron.ss01" horiz-adv-x="1529" 
d="M1331 1810h-692l25 144h694zM121 0h-199l899 1597h254l334 -1597h-203q-78 331 -88 526l-16 19q-255 -23 -338 -23q-125 0 -338 23l-27 -21q-95 -209 -278 -524zM494 686l12 -20q167 20 289 20q123 0 260 -20l16 18q-50 217 -77 390.5t-27 369.5h-97
q-72 -201 -160 -372.5t-216 -385.5z" />
    <glyph glyph-name="Aogonek.ss01" horiz-adv-x="1529" 
d="M1147 -221q0 -54 39.5 -87.5t107.5 -33.5q46 0 92 14l-22 -118q-58 -17 -113 -17q-106 0 -175.5 50.5t-69.5 142.5q0 91 61 159.5t147 110.5h-8q-78 331 -88 526l-16 19q-255 -23 -338 -23q-125 0 -338 23l-27 -21q-95 -209 -278 -524h-199l899 1597h254l334 -1597h-51
q-89 -30 -150 -90t-61 -131zM1055 666l16 18q-50 217 -77 390.5t-27 369.5h-97q-72 -201 -160 -372.5t-216 -385.5l12 -20q167 20 289 20q123 0 260 -20z" />
    <glyph glyph-name="Aring.ss01" horiz-adv-x="1529" 
d="M967 1714q-89 0 -145 53t-56 138q0 105 83.5 184.5t197.5 79.5q89 0 143.5 -52t54.5 -137q0 -105 -82 -185.5t-196 -80.5zM983 1819q63 0 107.5 43.5t44.5 103.5q0 44 -30.5 71t-76.5 27q-63 0 -106 -42.5t-43 -102.5q0 -46 28.5 -73t75.5 -27zM121 0h-199l899 1597h254
l334 -1597h-203q-78 331 -88 526l-16 19q-255 -23 -338 -23q-125 0 -338 23l-27 -21q-95 -209 -278 -524zM494 686l12 -20q167 20 289 20q123 0 260 -20l16 18q-50 217 -77 390.5t-27 369.5h-97q-72 -201 -160 -372.5t-216 -385.5z" />
    <glyph glyph-name="Atilde.ss01" horiz-adv-x="1529" 
d="M1122 1743q-45 0 -75.5 16t-67.5 49l-39 35q-2 1 -8.5 7.5t-9 8.5t-9 7t-10.5 7t-10.5 5.5t-12 5t-12.5 3t-14 1.5q-43 0 -75.5 -36.5t-43.5 -92.5h-133q23 120 100 194.5t175 74.5q32 0 60 -10.5t43 -22t36 -31.5l39 -35q47 -47 88 -47t71 36.5t39 94.5h133
q-22 -126 -92 -198t-172 -72zM121 0h-199l899 1597h254l334 -1597h-203q-78 331 -88 526l-16 19q-255 -23 -338 -23q-125 0 -338 23l-27 -21q-95 -209 -278 -524zM494 686l12 -20q167 20 289 20q123 0 260 -20l16 18q-50 217 -77 390.5t-27 369.5h-97q-72 -201 -160 -372.5
t-216 -385.5z" />
    <glyph glyph-name="B.ss01" horiz-adv-x="1458" 
d="M752 0h-648l283 1597h598q210 0 322 -97.5t112 -250.5q0 -151 -100 -265.5t-266 -152.5l-6 -34q296 -51 296 -301q0 -98 -45.5 -189t-123.5 -158.5t-188.5 -108t-233.5 -40.5zM424 877l18 -23q67 16 139 24.5t115.5 9.5t120.5 1q176 0 285.5 87t109.5 216
q0 112 -85 171.5t-224 59.5h-41.5h-44t-40 0.5t-45 2t-42.5 3.5t-47.5 5.5t-45 8.5t-50.5 11l-29 -18q-9 -269 -94 -559zM295 168l20 -25q156 31 410 31q190 0 302 89t112 220q0 114 -87.5 176t-232.5 62q-82 0 -128.5 1t-122 9t-142.5 23l-27 -21q-20 -307 -104 -565z" />
    <glyph glyph-name="C.ss01" horiz-adv-x="1712" 
d="M807 -35q-312 0 -497 180.5t-185 487.5q0 154 48 303t136.5 273t206 219t265.5 148.5t306 53.5q159 0 290.5 -53t222.5 -162.5t116 -261.5l-186 -70q-38 172 -165 270.5t-310 98.5q-151 0 -287.5 -68t-232 -179t-151.5 -255t-56 -293q0 -130 43 -231t117 -161.5t166 -91
t196 -30.5q114 0 218.5 36.5t186 100.5t145 144.5t107.5 175.5l162 -61q-130 -265 -353.5 -419.5t-508.5 -154.5z" />
    <glyph glyph-name="D.ss01" horiz-adv-x="1642" 
d="M700 0h-596l283 1597h578q165 0 288 -44t198 -126.5t111.5 -193t36.5 -250.5q0 -150 -41 -294.5t-120 -268.5t-186.5 -218.5t-250 -148t-301.5 -53.5zM295 168l20 -25q173 31 381 31q162 0 296.5 62.5t222 168t135 241.5t47.5 286q0 130 -35.5 225.5t-102.5 153
t-156.5 85t-203.5 27.5q-83 0 -125.5 1t-105.5 8t-121 22l-29 -18q-53 -641 -223 -1268z" />
    <glyph glyph-name="E.ss01" horiz-adv-x="1339" 
d="M1141 0h-1037l283 1597h1016l-33 -174h-127.5h-142t-126 1.5t-146 5t-132 9.5t-149.5 15l-29 -18q-6 -260 -92 -545l14 -23q139 19 291.5 28.5t246 11t261.5 1.5l-33 -182q-168 0 -260.5 1.5t-241 11t-278.5 28.5l-25 -20q-18 -308 -106 -580l20 -25q146 16 310 24.5
t265 9.5t281 1z" />
    <glyph glyph-name="F.ss01" horiz-adv-x="1273" 
d="M293 0h-189l283 1597h995l-32 -180q-172 0 -267.5 1t-248.5 10t-287 26l-29 -18q-9 -293 -102 -568l16 -20q138 18 288.5 27t242 10.5t254.5 1.5l-33 -180q-163 0 -253.5 1.5t-237.5 11t-277 28.5l-25 -23q-18 -286 -98 -725z" />
    <glyph glyph-name="G.ss01" horiz-adv-x="1746" 
d="M803 -35q-317 0 -498.5 179.5t-181.5 482.5q0 154 48 304t136.5 275t206 221t265.5 149.5t306 53.5q245 0 420 -125.5t211 -351.5l-186 -70q-38 173 -165 271t-310 98q-150 0 -286.5 -67t-232 -177t-152 -254t-56.5 -295q0 -244 141.5 -380t386.5 -136q233 0 409 136.5
t277 384.5l-14 24q-262 -51 -567 -55l28 160h709l-12 -60q-28 -154 -89 -281.5t-144.5 -216.5t-188.5 -150.5t-220.5 -90.5t-240.5 -29z" />
    <glyph glyph-name="H.ss01" horiz-adv-x="1656" 
d="M293 0h-189l283 1597h188q-31 -175 -45.5 -253.5t-44 -212t-61.5 -246.5l20 -23q482 55 875 0l27 23q26 290 102 712h190l-282 -1597h-191q75 434 154 725l-23 23q-423 -68 -870 0l-29 -23q-3 -39 -7 -79.5t-7.5 -73.5t-9 -76.5t-9 -70t-11 -73.5t-11 -67.5t-12.5 -72.5
t-11.5 -68t-13 -73.5t-12.5 -70.5z" />
    <glyph glyph-name="I.ss01" horiz-adv-x="1122" 
d="M944 0h-964l30 174q259 0 404 -27q83 643 229 1303q-158 -27 -422 -27l31 174h985l-31 -174q-263 0 -413 27q-88 -661 -232 -1303q156 27 414 27z" />
    <glyph glyph-name="Iacute.ss01" horiz-adv-x="1122" 
d="M1188 2054l-393 -334h-164l311 334h246zM944 0h-964l30 174q259 0 404 -27q83 643 229 1303q-158 -27 -422 -27l31 174h985l-31 -174q-263 0 -413 27q-88 -661 -232 -1303q156 27 414 27z" />
    <glyph glyph-name="Icircumflex.ss01" horiz-adv-x="1122" 
d="M561 1720h-168l332 322h201l219 -322h-166q-43 51 -59 71t-41 67.5t-39 101.5h-56q-34 -53 -75.5 -100t-71 -74.5t-76.5 -65.5zM944 0h-964l30 174q259 0 404 -27q83 643 229 1303q-158 -27 -422 -27l31 174h985l-31 -174q-263 0 -413 27q-88 -661 -232 -1303
q156 27 414 27z" />
    <glyph glyph-name="Idieresis.ss01" horiz-adv-x="1122" 
d="M567 1772q-47 0 -76.5 29.5t-29.5 74.5q0 60 45.5 103.5t105.5 43.5q45 0 75 -29t30 -71q0 -59 -45 -105t-105 -46zM983 1772q-47 0 -76.5 29.5t-29.5 72.5q0 61 45 105t106 44q45 0 75 -29.5t30 -72.5q0 -58 -45.5 -103.5t-104.5 -45.5zM944 0h-964l30 174
q259 0 404 -27q83 643 229 1303q-158 -27 -422 -27l31 174h985l-31 -174q-263 0 -413 27q-88 -661 -232 -1303q156 27 414 27z" />
    <glyph glyph-name="Idotaccent.ss01" horiz-adv-x="1122" 
d="M776 1776q-49 0 -79.5 31t-30.5 79q0 62 47 108t110 46q49 0 80 -30.5t31 -76.5q0 -61 -48 -109t-110 -48zM944 0h-964l30 174q259 0 404 -27q83 643 229 1303q-158 -27 -422 -27l31 174h985l-31 -174q-263 0 -413 27q-88 -661 -232 -1303q156 27 414 27z" />
    <glyph glyph-name="Igrave.ss01" horiz-adv-x="1122" 
d="M879 1720h-164l-277 336h246zM944 0h-964l30 174q259 0 404 -27q83 643 229 1303q-158 -27 -422 -27l31 174h985l-31 -174q-263 0 -413 27q-88 -661 -232 -1303q156 27 414 27z" />
    <glyph glyph-name="Imacron.ss01" horiz-adv-x="1122" 
d="M1130 1810h-692l25 144h694zM944 0h-964l30 174q259 0 404 -27q83 643 229 1303q-158 -27 -422 -27l31 174h985l-31 -174q-263 0 -413 27q-88 -661 -232 -1303q156 27 414 27z" />
    <glyph glyph-name="J.ss01" horiz-adv-x="1220" 
d="M459 -35q-80 0 -150 18t-131.5 58t-98 103t-49.5 153t13 209l6 33l187 24l-7 -31q-20 -88 -12.5 -153.5t29.5 -111t60.5 -73.5t81 -40.5t89.5 -12.5q145 0 238 103.5t125 277.5q117 624 192 928l-10 27q-275 -54 -578 -54l31 174h744l-183 -1036q-6 -33 -10.5 -54.5
t-17.5 -71t-27 -86t-40 -88.5t-55 -90t-73 -79t-94 -67t-117 -43t-143 -17z" />
    <glyph glyph-name="K.ss01" horiz-adv-x="1390" 
d="M293 0h-189l283 1597h188q-6 -31 -23.5 -133.5t-26 -149.5t-24.5 -130.5t-33 -155.5t-36 -147h21q454 388 864 716h250q-699 -557 -1006 -794l-4 -27q65 -59 135.5 -128t122.5 -121.5t131.5 -136.5t118 -125t128 -137.5t118.5 -127.5h-264q-253 262 -351 375
q-151 172 -270 346h-18q-39 -301 -115 -721z" />
    <glyph glyph-name="L.ss01" horiz-adv-x="1202" 
d="M1079 0h-975l283 1597h188q-58 -326 -85 -476t-84 -435t-111 -518l20 -25q135 16 287.5 24.5t246.5 9.5t261 1z" />
    <glyph glyph-name="M.ss01" horiz-adv-x="1951" 
d="M297 0h-193l283 1597h225q233 -613 340 -1069h35q286 482 721 1069h225l-282 -1597h-193q16 87 50.5 289.5t57 331.5t61.5 315t79 342h-29l-667 -952h-148l-336 952h-26q-15 -160 -41.5 -343t-47.5 -304.5t-59.5 -330.5t-54.5 -300z" />
    <glyph glyph-name="N.ss01" horiz-adv-x="1685" 
d="M293 0h-189l283 1597h242q134 -294 194.5 -429t179 -414t211.5 -521h48q66 529 213 1364h190l-283 -1597h-241q-152 331 -210.5 459.5t-170.5 390.5t-205 502h-49q-73 -567 -213 -1352z" />
    <glyph glyph-name="O.ss01" horiz-adv-x="1800" 
d="M795 -35q-193 0 -346 83.5t-239.5 238t-86.5 354.5q0 189 78.5 370t208 317t308.5 219t369 83q298 0 485 -190t187 -490q0 -189 -78.5 -369.5t-208.5 -315.5t-308.5 -217.5t-368.5 -82.5zM827 143q142 0 276.5 66t232.5 173.5t157 250.5t59 291q0 233 -138.5 380.5
t-356.5 147.5q-112 0 -222 -42t-200.5 -117t-160 -172t-108 -213.5t-38.5 -235.5q0 -236 141 -382.5t358 -146.5z" />
    <glyph glyph-name="P.ss01" horiz-adv-x="1370" 
d="M293 0h-189l283 1597h576q24 0 45 -1t70.5 -8.5t89.5 -21t89 -42.5t81.5 -68.5t55.5 -103.5t23 -144q0 -114 -43.5 -219.5t-121 -187t-194.5 -130t-255 -48.5q-100 0 -151.5 1.5t-127 12.5t-139.5 33q-19 -265 -92 -670zM406 776l20 -20q64 18 135 27t113 10.5t114 1.5
q186 0 306 100.5t120 265.5q0 135 -85.5 198.5t-233.5 63.5q-75 0 -116.5 1t-108 8.5t-123.5 21.5l-29 -18q-17 -325 -112 -660z" />
    <glyph glyph-name="Q.ss01" horiz-adv-x="1810" 
d="M643 -18q-138 -126 -278 -240l-7 -29q194 29 399 44t332 17.5t341 2.5l-31 -166h-1360q289 277 438 424q-166 76 -258 230.5t-92 369.5q0 191 75 372t202.5 318.5t308.5 221t381 83.5q306 0 489.5 -183t183.5 -489q0 -153 -47.5 -301t-136 -271.5t-206.5 -218
t-267 -147.5t-309 -53q-85 0 -158 15zM328 666q0 -179 79.5 -305t219.5 -181q234 230 348 344l123 -108q-240 -234 -281 -273h17q150 0 287 66t233.5 175t153.5 252t57 294q0 240 -137 382t-363 142q-150 0 -288 -66.5t-235.5 -175t-155.5 -252.5t-58 -294z" />
    <glyph glyph-name="R.ss01" horiz-adv-x="1417" 
d="M293 0h-189l283 1597h576q69 0 131 -12t122 -42t104 -75.5t70.5 -117t26.5 -162.5q0 -120 -44.5 -216t-119 -158.5t-178.5 -103.5t-216 -58.5t-238 -16.5q63 -58 126.5 -119t138.5 -135t120 -119l137.5 -137.5l124.5 -124.5h-242l-64.5 64.5l-72.5 72.5t-67 67.5t-75 77
t-69 71.5t-75.5 80t-67.5 74.5t-73 82.5t-65 78h-14q-17 -262 -90 -668zM403 770l21 -22q139 32 369 32q182 0 300.5 109t118.5 270q0 133 -88 199.5t-227 66.5q-216 0 -350 29l-29 -18q-16 -319 -115 -666z" />
    <glyph glyph-name="S.ss01" horiz-adv-x="1320" 
d="M578 -35q-79 0 -151 16t-138 52.5t-115.5 90t-83 133t-41.5 177.5l189 64q17 -179 117.5 -269t254.5 -90q169 0 284.5 94.5t115.5 225.5q0 24 -5 45t-11 37.5t-20.5 32.5t-24 26.5t-31 22.5t-32 18.5t-37.5 16.5t-37 13t-39.5 12.5t-37.5 12.5l-139 47q-42 13 -74.5 26
t-79 35.5t-80.5 51t-65.5 66t-48.5 89t-17 111.5q0 99 46.5 191.5t126.5 162.5t194 112t240 42q210 0 334.5 -106.5t140.5 -272.5l-185 -71q-21 128 -106 202t-221 74q-153 0 -259 -85t-106 -202q0 -46 20.5 -86t46.5 -64.5t70 -48t70.5 -33.5t67.5 -24l149 -51
q132 -45 180 -69q173 -89 182 -261q1 -11 1 -22q0 -102 -49.5 -200.5t-134 -174.5t-206 -123t-255.5 -47z" />
    <glyph glyph-name="U.ss01" horiz-adv-x="1556" 
d="M627 -35q-82 0 -150 18.5t-117 51.5t-85.5 79.5t-58 101t-31.5 117t-8.5 127t13.5 132.5l179 1005h190l-176 -991q-37 -214 39 -339.5t266 -125.5q193 0 319 126.5t164 338.5l175 991h190l-283 -1597h-182q17 91 72 260h-29q-85 -155 -202.5 -225t-284.5 -70z" />
    <glyph glyph-name="Uacute.ss01" horiz-adv-x="1556" 
d="M1305 2054l-394 -334h-163l311 334h246zM627 -35q-82 0 -150 18.5t-117 51.5t-85.5 79.5t-58 101t-31.5 117t-8.5 127t13.5 132.5l179 1005h190l-176 -991q-37 -214 39 -339.5t266 -125.5q193 0 319 126.5t164 338.5l175 991h190l-283 -1597h-182q17 91 72 260h-29
q-85 -155 -202.5 -225t-284.5 -70z" />
    <glyph glyph-name="Ucircumflex.ss01" horiz-adv-x="1556" 
d="M760 1720h-168l332 322h200l219 -322h-165q-69 82 -91 118q-32 54 -49 122h-55q-34 -53 -75.5 -100t-71 -74.5t-76.5 -65.5zM627 -35q-82 0 -150 18.5t-117 51.5t-85.5 79.5t-58 101t-31.5 117t-8.5 127t13.5 132.5l179 1005h190l-176 -991q-37 -214 39 -339.5
t266 -125.5q193 0 319 126.5t164 338.5l175 991h190l-283 -1597h-182q17 91 72 260h-29q-85 -155 -202.5 -225t-284.5 -70z" />
    <glyph glyph-name="Udieresis.ss01" horiz-adv-x="1556" 
d="M768 1772q-47 0 -76.5 29.5t-29.5 74.5q0 60 45.5 103.5t105.5 43.5q45 0 75 -29t30 -71q0 -59 -45 -105t-105 -46zM1184 1772q-47 0 -77 29.5t-30 72.5q0 61 45.5 105t106.5 44q45 0 74.5 -29.5t29.5 -72.5q0 -58 -45 -103.5t-104 -45.5zM627 -35q-82 0 -150 18.5
t-117 51.5t-85.5 79.5t-58 101t-31.5 117t-8.5 127t13.5 132.5l179 1005h190l-176 -991q-37 -214 39 -339.5t266 -125.5q193 0 319 126.5t164 338.5l175 991h190l-283 -1597h-182q17 91 72 260h-29q-85 -155 -202.5 -225t-284.5 -70z" />
    <glyph glyph-name="Ugrave.ss01" horiz-adv-x="1556" 
d="M1077 1720h-164l-276 336h246zM627 -35q-82 0 -150 18.5t-117 51.5t-85.5 79.5t-58 101t-31.5 117t-8.5 127t13.5 132.5l179 1005h190l-176 -991q-37 -214 39 -339.5t266 -125.5q193 0 319 126.5t164 338.5l175 991h190l-283 -1597h-182q17 91 72 260h-29
q-85 -155 -202.5 -225t-284.5 -70z" />
    <glyph glyph-name="Uhungarumlaut.ss01" horiz-adv-x="1556" 
d="M1182 2054l-344 -334h-160l272 334h232zM1546 2054l-358 -334h-160l287 334h231zM627 -35q-82 0 -150 18.5t-117 51.5t-85.5 79.5t-58 101t-31.5 117t-8.5 127t13.5 132.5l179 1005h190l-176 -991q-37 -214 39 -339.5t266 -125.5q193 0 319 126.5t164 338.5l175 991h190
l-283 -1597h-182q17 91 72 260h-29q-85 -155 -202.5 -225t-284.5 -70z" />
    <glyph glyph-name="Umacron.ss01" horiz-adv-x="1556" 
d="M1329 1810h-692l25 144h694zM627 -35q-82 0 -150 18.5t-117 51.5t-85.5 79.5t-58 101t-31.5 117t-8.5 127t13.5 132.5l179 1005h190l-176 -991q-37 -214 39 -339.5t266 -125.5q193 0 319 126.5t164 338.5l175 991h190l-283 -1597h-182q17 91 72 260h-29
q-85 -155 -202.5 -225t-284.5 -70z" />
    <glyph glyph-name="Uogonek.ss01" horiz-adv-x="1556" 
d="M1022 -221q0 -54 39.5 -87.5t107.5 -33.5q47 0 93 14l-23 -118q-58 -17 -113 -17q-106 0 -175.5 50.5t-69.5 142.5q0 91 61.5 159.5t147.5 110.5h-19q17 91 72 260h-29q-85 -155 -202.5 -225t-284.5 -70q-82 0 -150 18.5t-117 51.5t-85.5 79.5t-58 101t-31.5 117
t-8.5 127t13.5 132.5l179 1005h190l-176 -991q-37 -214 39 -339.5t266 -125.5q193 0 319 126.5t164 338.5l175 991h190l-283 -1597h-20q-89 -30 -150 -90t-61 -131z" />
    <glyph glyph-name="Uring.ss01" horiz-adv-x="1556" 
d="M965 1714q-89 0 -145 53t-56 138q0 105 83 184.5t197 79.5q89 0 144 -52t55 -137q0 -105 -82 -185.5t-196 -80.5zM981 1819q63 0 107.5 43.5t44.5 103.5q0 44 -30.5 71t-76.5 27q-63 0 -106 -42.5t-43 -102.5q0 -46 28.5 -73t75.5 -27zM627 -35q-82 0 -150 18.5
t-117 51.5t-85.5 79.5t-58 101t-31.5 117t-8.5 127t13.5 132.5l179 1005h190l-176 -991q-37 -214 39 -339.5t266 -125.5q193 0 319 126.5t164 338.5l175 991h190l-283 -1597h-182q17 91 72 260h-29q-85 -155 -202.5 -225t-284.5 -70z" />
    <glyph glyph-name="V.ss01" horiz-adv-x="1533" 
d="M807 0h-283l-319 1597h201q168 -850 264 -1388h75q369 692 750 1388h201z" />
    <glyph glyph-name="W.ss01" horiz-adv-x="2336" 
d="M666 0h-238l-215 1597h211l156 -1339h18l598 1339h324l116 -1339h19l624 1339h211l-782 -1597h-233l-107 1405h-86z" />
    <glyph glyph-name="Wacute.ss01" horiz-adv-x="2336" 
d="M1837 2056l-395 -336h-164l311 336h248zM666 0h-238l-215 1597h211l156 -1339h18l598 1339h324l116 -1339h19l624 1339h211l-782 -1597h-233l-107 1405h-86z" />
    <glyph glyph-name="Wcircumflex.ss01" horiz-adv-x="2336" 
d="M1165 1720h-168l332 322h201l219 -322h-166q-43 51 -59 71t-41 67.5t-39 101.5h-55q-34 -53 -76 -100.5t-71 -74t-77 -65.5zM666 0h-238l-215 1597h211l156 -1339h18l598 1339h324l116 -1339h19l624 1339h211l-782 -1597h-233l-107 1405h-86z" />
    <glyph glyph-name="Wdieresis.ss01" horiz-adv-x="2336" 
d="M1174 1772q-47 0 -77 29.5t-30 74.5q0 60 46 103.5t106 43.5q45 0 74.5 -29t29.5 -71q0 -59 -45 -105t-104 -46zM1589 1772q-47 0 -76.5 29.5t-29.5 72.5q0 61 45 105t106 44q45 0 75 -29.5t30 -72.5q0 -58 -45.5 -103.5t-104.5 -45.5zM666 0h-238l-215 1597h211
l156 -1339h18l598 1339h324l116 -1339h19l624 1339h211l-782 -1597h-233l-107 1405h-86z" />
    <glyph glyph-name="Wgrave.ss01" horiz-adv-x="2336" 
d="M1485 1720h-164l-277 336h246zM666 0h-238l-215 1597h211l156 -1339h18l598 1339h324l116 -1339h19l624 1339h211l-782 -1597h-233l-107 1405h-86z" />
    <glyph glyph-name="X.ss01" horiz-adv-x="1425" 
d="M131 0h-213l682 811v18l-389 768h213q161 -326 315 -686h72q65 80 158 197t180.5 223.5t222.5 265.5h209l-661 -768l-5 -18l394 -811h-209q-90 189 -195 422.5t-129 298.5h-69q-52 -66 -149 -191.5t-181 -229.5t-246 -300z" />
    <glyph glyph-name="Y.ss01" horiz-adv-x="1411" 
d="M387 0h-201q6 8 45 59t50.5 65.5t48 61.5t53.5 68.5t50.5 63.5t56 69.5t53.5 64.5t59 69.5t57 64.5q-210 441 -438 1011h207q8 -19 22 -56q182 -454 263 -700l35 -110h28q214 343 617 866h204z" />
    <glyph glyph-name="Yacute.ss01" horiz-adv-x="1411" 
d="M1358 2054l-395 -334h-162l309 334h248zM387 0h-201q6 8 45 59t50.5 65.5t48 61.5t53.5 68.5t50.5 63.5t56 69.5t53.5 64.5t59 69.5t57 64.5q-210 441 -438 1011h207q8 -19 22 -56q182 -454 263 -700l35 -110h28q214 343 617 866h204z" />
    <glyph glyph-name="Ycircumflex.ss01" horiz-adv-x="1411" 
d="M723 1720h-168l332 322h200l220 -322h-166q-69 82 -91 118q-32 54 -49 122h-55q-34 -53 -75.5 -100t-71 -74.5t-76.5 -65.5zM387 0h-201q6 8 45 59t50.5 65.5t48 61.5t53.5 68.5t50.5 63.5t56 69.5t53.5 64.5t59 69.5t57 64.5q-210 441 -438 1011h207q8 -19 22 -56
q182 -454 263 -700l35 -110h28q214 343 617 866h204z" />
    <glyph glyph-name="Ydieresis.ss01" horiz-adv-x="1411" 
d="M731 1772q-47 0 -76.5 29.5t-29.5 74.5q0 60 45.5 103.5t105.5 43.5q45 0 75 -29t30 -71q0 -59 -45 -105t-105 -46zM1147 1772q-47 0 -77 29.5t-30 72.5q0 61 45.5 105t106.5 44q45 0 74.5 -29.5t29.5 -72.5q0 -58 -45 -103.5t-104 -45.5zM387 0h-201q6 8 45 59
t50.5 65.5t48 61.5t53.5 68.5t50.5 63.5t56 69.5t53.5 64.5t59 69.5t57 64.5q-210 441 -438 1011h207q8 -19 22 -56q182 -454 263 -700l35 -110h28q214 343 617 866h204z" />
    <glyph glyph-name="Ygrave.ss01" horiz-adv-x="1411" 
d="M1040 1720h-163l-277 336h246zM387 0h-201q6 8 45 59t50.5 65.5t48 61.5t53.5 68.5t50.5 63.5t56 69.5t53.5 64.5t59 69.5t57 64.5q-210 441 -438 1011h207q8 -19 22 -56q182 -454 263 -700l35 -110h28q214 343 617 866h204z" />
    <glyph glyph-name="Z.ss01" horiz-adv-x="1404" 
d="M1223 0h-1325q103 112 308.5 338t337 370t319.5 347.5t351 378.5l-8 28q-157 -18 -334 -27t-286.5 -10.5t-306.5 -1.5l30 174h1258q-90 -99 -292.5 -322t-333 -366t-323.5 -351t-364 -388l8 -31q160 18 350 27t309 10.5t332 1.5z" />
    <glyph glyph-name="Zacute.ss01" horiz-adv-x="1404" 
d="M1366 2056l-395 -336h-164l311 336h248zM1223 0h-1325q103 112 308.5 338t337 370t319.5 347.5t351 378.5l-8 28q-157 -18 -334 -27t-286.5 -10.5t-306.5 -1.5l30 174h1258q-90 -99 -292.5 -322t-333 -366t-323.5 -351t-364 -388l8 -31q160 18 350 27t309 10.5t332 1.5z
" />
    <glyph glyph-name="Zcaron.ss01" horiz-adv-x="1404" 
d="M1004 1720h-207l-215 322h166q36 -42 54.5 -65.5t44.5 -71t40 -101.5h55q33 54 74.5 101t69.5 71.5t79 65.5h166zM1223 0h-1325q103 112 308.5 338t337 370t319.5 347.5t351 378.5l-8 28q-157 -18 -334 -27t-286.5 -10.5t-306.5 -1.5l30 174h1258q-90 -99 -292.5 -322
t-333 -366t-323.5 -351t-364 -388l8 -31q160 18 350 27t309 10.5t332 1.5z" />
    <glyph glyph-name="Zdotaccent.ss01" horiz-adv-x="1404" 
d="M918 1776q-49 0 -80 31t-31 79q0 61 47.5 107.5t110.5 46.5q49 0 79.5 -30.5t30.5 -76.5q0 -61 -47.5 -109t-109.5 -48zM1223 0h-1325q103 112 308.5 338t337 370t319.5 347.5t351 378.5l-8 28q-157 -18 -334 -27t-286.5 -10.5t-306.5 -1.5l30 174h1258
q-90 -99 -292.5 -322t-333 -366t-323.5 -351t-364 -388l8 -31q160 18 350 27t309 10.5t332 1.5z" />
    <glyph glyph-name="Q.ss02" horiz-adv-x="1800" 
d="M1759 948q0 -141 -43 -278.5t-124 -255.5t-189.5 -212t-247 -154.5t-289.5 -76.5q0 -78 -32 -227q96 15 203 23t172.5 9t183.5 1l-29 -166q-484 0 -688 22l3 24q26 205 60 310q-277 25 -446.5 207.5t-169.5 468.5q0 189 78.5 370t208 316t308.5 218t369 83
q297 0 484.5 -190.5t187.5 -491.5zM893 141q182 33 333 146.5t238.5 281.5t87.5 353q0 234 -138.5 382t-356.5 148q-112 0 -222 -42t-200.5 -117t-160 -172t-108 -213.5t-38.5 -235.5q0 -209 118 -351t328 -178q0 76 9 165t16.5 140t25.5 154h181q-19 -109 -28.5 -158.5
t-33 -139t-51.5 -163.5z" />
    <glyph glyph-name="A.ss07" 
d="M868 -315q-235 0 -415.5 95t-279.5 268t-99 396q0 140 40.5 279t113 260t176.5 225.5t226.5 178.5t268 116.5t295.5 42.5q228 0 408 -91.5t284.5 -267t104.5 -407.5q0 -171 -57 -335.5t-162 -300.5t-243 -239.5t-309.5 -161.5t-351.5 -58zM1049 1096l-553 -963h135
q120 209 168 316l10 8q102 -13 199 -13q94 0 196 13l6 -8q6 -106 54 -316h137l-213 963h-139zM860 545l-4 4q144 223 231 428h19q13 -211 76 -428l-4 -4q-94 12 -150 12q-54 0 -168 -12z" />
    <glyph glyph-name="B.ss07" 
d="M868 -315q-235 0 -415.5 95t-279.5 268t-99 396q0 140 40.5 279t113 260t176.5 225.5t226.5 178.5t268 116.5t295.5 42.5q228 0 408 -91.5t284.5 -267t104.5 -407.5q0 -171 -57 -335.5t-162 -300.5t-243 -239.5t-309.5 -161.5t-351.5 -58zM801 1096l-170 -963h393
q150 0 254 90t104 215q0 153 -174 183l2 8q101 25 161.5 94.5t60.5 159.5q0 99 -73.5 156t-193.5 57h-364zM846 657l-6 7q53 185 53 325l10 6q72 -18 209 -18q84 0 131 -34t47 -97q0 -73 -63.5 -121.5t-163.5 -48.5q-120 0 -217 -19zM770 236l-6 10q51 160 59 325l8 9
q89 -19 228 -19q88 0 137 -35.5t49 -99.5q0 -76 -65 -125t-174 -49q-140 0 -236 -16z" />
    <glyph glyph-name="C.ss07" 
d="M868 -315q-235 0 -415.5 95t-279.5 268t-99 396q0 140 40.5 279t113 260t176.5 225.5t226.5 178.5t268 116.5t295.5 42.5q228 0 408 -91.5t284.5 -267t104.5 -407.5q0 -171 -57 -335.5t-162 -300.5t-243 -239.5t-309.5 -161.5t-351.5 -58zM971 113q170 0 307 92.5
t215 261.5l-111 41q-53 -120 -152.5 -196t-232.5 -76q-61 0 -113.5 17t-95 51.5t-67.5 93t-25 134.5q0 118 55 224t153.5 171.5t215.5 65.5q110 0 182 -59.5t93 -159.5l127 47q-21 141 -129 218t-254 77q-157 0 -291.5 -84.5t-211.5 -223t-77 -294.5q0 -183 111.5 -292
t300.5 -109z" />
    <glyph glyph-name="D.ss07" 
d="M868 -315q-235 0 -415.5 95t-279.5 268t-99 396q0 140 40.5 279t113 260t176.5 225.5t226.5 178.5t268 116.5t295.5 42.5q228 0 408 -91.5t284.5 -267t104.5 -407.5q0 -171 -57 -335.5t-162 -300.5t-243 -239.5t-309.5 -161.5t-351.5 -58zM766 1096l-170 -963h360
q120 0 223.5 50.5t172.5 133.5t108 190t39 220q0 180 -99.5 274.5t-285.5 94.5h-348zM735 236l-8 10q99 369 129 743l12 6q72 -18 205 -18q289 0 289 -279q0 -117 -46 -218t-135.5 -164.5t-203.5 -63.5q-154 0 -242 -16z" />
    <glyph glyph-name="E.ss07" 
d="M868 -315q-235 0 -415.5 95t-279.5 268t-99 396q0 140 40.5 279t113 260t176.5 225.5t226.5 178.5t268 116.5t295.5 42.5q228 0 408 -91.5t284.5 -267t104.5 -407.5q0 -171 -57 -335.5t-162 -300.5t-243 -239.5t-309.5 -161.5t-351.5 -58zM821 1096l-170 -963h629l23 123
q-324 0 -512 -20l-9 8q52 163 64 338l8 8q77 -13 170 -18.5t137 -6t162 -0.5l20 123q-310 0 -477 -24l-6 8q50 164 53 317l11 6q51 -7 100.5 -11t109 -5.5t89.5 -2t104 0t90 0.5l23 119h-619z" />
    <glyph glyph-name="F.ss07" 
d="M868 -315q-235 0 -415.5 95t-279.5 268t-99 396q0 140 40.5 279t113 260t176.5 225.5t226.5 178.5t268 116.5t295.5 42.5q228 0 408 -91.5t284.5 -267t104.5 -407.5q0 -171 -57 -335.5t-162 -300.5t-243 -239.5t-309.5 -161.5t-351.5 -58zM842 1096l-170 -963h129
q48 275 59 434l8 8q30 -5 62.5 -8.5t58 -5.5t61 -4t55 -2.5t59 -1t54 -0.5h57.5h54l21 123h-28q-91 0 -142.5 -0.5t-136.5 -6.5t-162 -18l-4 8q57 173 57 330l10 6q165 -22 483 -22l23 123h-608z" />
    <glyph glyph-name="G.ss07" 
d="M868 -315q-235 0 -415.5 95t-279.5 268t-99 396q0 140 40.5 279t113 260t176.5 225.5t226.5 178.5t268 116.5t295.5 42.5q228 0 408 -91.5t284.5 -267t104.5 -407.5q0 -171 -57 -335.5t-162 -300.5t-243 -239.5t-309.5 -161.5t-351.5 -58zM956 113q256 0 402 245l14 -2
q-17 -45 -27.5 -83.5t-13.5 -54.5t-7 -47.5t-5 -37.5h104l86 488h-436l-20 -113q187 0 342 33l4 -6q-60 -140 -166 -219.5t-236 -79.5q-60 0 -112.5 17.5t-96 52t-69 93.5t-25.5 136q0 117 55.5 222.5t154.5 170.5t216 65q107 0 180 -58t93 -161l129 47q-21 141 -129 218
t-254 77q-157 0 -291.5 -85.5t-211.5 -224.5t-77 -294q0 -182 107.5 -290.5t289.5 -108.5z" />
    <glyph glyph-name="H.ss07" 
d="M868 -315q-235 0 -415.5 95t-279.5 268t-99 396q0 140 40.5 279t113 260t176.5 225.5t226.5 178.5t268 116.5t295.5 42.5q228 0 408 -91.5t284.5 -267t104.5 -407.5q0 -171 -57 -335.5t-162 -300.5t-243 -239.5t-309.5 -161.5t-351.5 -58zM737 1096l-170 -963h129
q4 21 13.5 75t14 83t12 77t13.5 97t11 104l8 6q265 -39 512 0l8 -6q-41 -161 -90 -436h129l170 963h-129q-50 -274 -61 -426l-11 -8q-263 30 -514 0l-6 8q37 126 90 426h-129z" />
    <glyph glyph-name="I.ss07" 
d="M868 -315q-235 0 -415.5 95t-279.5 268t-99 396q0 140 40.5 279t113 260t176.5 225.5t226.5 178.5t268 116.5t295.5 42.5q228 0 408 -91.5t284.5 -267t104.5 -407.5q0 -171 -57 -335.5t-162 -300.5t-243 -239.5t-309.5 -161.5t-351.5 -58zM1055 1096l-170 -963h129
l170 963h-129z" />
    <glyph glyph-name="J.ss07" 
d="M868 -315q-235 0 -415.5 95t-279.5 268t-99 396q0 140 40.5 279t113 260t176.5 225.5t226.5 178.5t268 116.5t295.5 42.5q228 0 408 -91.5t284.5 -267t104.5 -407.5q0 -171 -57 -335.5t-162 -300.5t-243 -239.5t-309.5 -161.5t-351.5 -58zM913 123q59 0 109 16.5t84 41
t62 62.5t44 71t29.5 76.5t18.5 69t10 58.5l104 588h-129l-108 -614q-6 -36 -13 -65t-23 -65t-36.5 -60t-55 -41t-77.5 -17q-80 0 -127 52.5t-23 164.5l6 33l-126 -15l-9 -37q-14 -87 -0.5 -147.5t54 -98.5t92 -55.5t114.5 -17.5z" />
    <glyph glyph-name="K.ss07" 
d="M868 -315q-235 0 -415.5 95t-279.5 268t-99 396q0 140 40.5 279t113 260t176.5 225.5t226.5 178.5t268 116.5t295.5 42.5q228 0 408 -91.5t284.5 -267t104.5 -407.5q0 -171 -57 -335.5t-162 -300.5t-243 -239.5t-309.5 -161.5t-351.5 -58zM797 1096l-170 -963h129
q6 35 16.5 94.5t18.5 112.5t16 123q76 52 143 125h4q85 -170 254 -455h158q-19 32 -59 101t-59.5 102.5t-54.5 90.5t-72.5 113.5t-84.5 123.5l2 10q78 64 154.5 131t184 164t141.5 127h-158q-37 -34 -122 -111.5t-137.5 -125t-132 -122t-151.5 -143.5h-6q19 55 34 107.5
t28 113.5t19 90.5t19 103.5t15 87h-129z" />
    <glyph glyph-name="L.ss07" 
d="M868 -315q-235 0 -415.5 95t-279.5 268t-99 396q0 140 40.5 279t113 260t176.5 225.5t226.5 178.5t268 116.5t295.5 42.5q228 0 408 -91.5t284.5 -267t104.5 -407.5q0 -171 -57 -335.5t-162 -300.5t-243 -239.5t-309.5 -161.5t-351.5 -58zM899 1096l-170 -963h596l21 123
q-304 0 -478 -20l-8 10q18 76 35.5 156.5t29 138t28.5 146.5t24.5 130t26 143.5t24.5 135.5h-129z" />
    <glyph glyph-name="M.ss07" 
d="M868 -315q-235 0 -415.5 95t-279.5 268t-99 396q0 140 40.5 279t113 260t176.5 225.5t226.5 178.5t268 116.5t295.5 42.5q228 0 408 -91.5t284.5 -267t104.5 -407.5q0 -171 -57 -335.5t-162 -300.5t-243 -239.5t-309.5 -161.5t-351.5 -58zM616 1096l-170 -963h129
q7 38 26.5 145t27.5 157.5t21 138t20.5 164.5t11.5 159h6q70 -278 211 -764h96q36 58 208.5 328t271.5 436h4q-21 -74 -39.5 -149.5t-30.5 -128t-27.5 -133.5t-21.5 -114.5t-21.5 -124.5t-19.5 -114h129l170 963h-135q-293 -434 -504 -805h-10q-82 407 -219 805h-134z" />
    <glyph glyph-name="N.ss07" 
d="M868 -315q-235 0 -415.5 95t-279.5 268t-99 396q0 140 40.5 279t113 260t176.5 225.5t226.5 178.5t268 116.5t295.5 42.5q228 0 408 -91.5t284.5 -267t104.5 -407.5q0 -171 -57 -335.5t-162 -300.5t-243 -239.5t-309.5 -161.5t-351.5 -58zM741 1096l-170 -963h131
q6 35 25 144.5t27 159.5t22 139t24 167.5t19 161.5h6q140 -311 406 -772h117l170 963h-129q-88 -498 -119 -787h-6q-164 375 -406 787h-117z" />
    <glyph glyph-name="O.ss07" 
d="M868 -315q-235 0 -415.5 95t-279.5 268t-99 396q0 140 40.5 279t113 260t176.5 225.5t226.5 178.5t268 116.5t295.5 42.5q228 0 408 -91.5t284.5 -267t104.5 -407.5q0 -171 -57 -335.5t-162 -300.5t-243 -239.5t-309.5 -161.5t-351.5 -58zM946 113q153 0 288 84
t214.5 221.5t79.5 288.5q0 179 -112.5 294t-291.5 115q-115 0 -222.5 -49.5t-186 -131.5t-125.5 -191t-47 -224q0 -183 113.5 -295t289.5 -112zM680 541q0 115 58 219.5t156.5 168.5t209.5 64q127 0 207 -86.5t80 -220.5q0 -114 -58 -218t-156 -168t-208 -64
q-128 0 -208.5 85t-80.5 220z" />
    <glyph glyph-name="P.ss07" 
d="M868 -315q-235 0 -415.5 95t-279.5 268t-99 396q0 140 40.5 279t113 260t176.5 225.5t226.5 178.5t268 116.5t295.5 42.5q228 0 408 -91.5t284.5 -267t104.5 -407.5q0 -171 -57 -335.5t-162 -300.5t-243 -239.5t-309.5 -161.5t-351.5 -58zM825 1096l-170 -963h129
q45 255 56 393q38 -12 82.5 -17.5t72 -6t90.5 -0.5q157 0 263 106.5t106 249.5q0 65 -25.5 113.5t-67.5 74.5t-88.5 38t-96.5 12h-351zM860 600l-8 4q61 208 66 385l10 6q72 -18 205 -18q182 0 182 -150q0 -93 -69 -149.5t-173 -56.5q-131 0 -213 -21z" />
    <glyph glyph-name="Q.ss07" 
d="M868 -315q-235 0 -415.5 95t-279.5 268t-99 396q0 140 40.5 279t113 260t176.5 225.5t226.5 178.5t268 116.5t295.5 42.5q228 0 408 -91.5t284.5 -267t104.5 -407.5q0 -171 -57 -335.5t-162 -300.5t-243 -239.5t-309.5 -161.5t-351.5 -58zM1303 57l106 78
q-81 118 -123 158q117 82 183.5 207t66.5 262q0 179 -114 293t-296 114q-115 0 -223 -49.5t-187 -130.5t-127 -190.5t-48 -223.5q0 -183 113.5 -296t293.5 -113q134 0 252 74q28 -75 103 -183zM676 596q0 179 129 316t301 137q131 0 212 -86t81 -218q0 -101 -44.5 -202.5
t-121.5 -175.5q-43 98 -141 245l-105 -77q95 -150 158 -213q-86 -41 -174 -41q-131 0 -213 88t-82 227z" />
    <glyph glyph-name="R.ss07" 
d="M868 -315q-235 0 -415.5 95t-279.5 268t-99 396q0 140 40.5 279t113 260t176.5 225.5t226.5 178.5t268 116.5t295.5 42.5q228 0 408 -91.5t284.5 -267t104.5 -407.5q0 -171 -57 -335.5t-162 -300.5t-243 -239.5t-309.5 -161.5t-351.5 -58zM827 1096l-170 -963h129
q47 262 56 395q86 -22 184 -22l178 -373h148q-9 18 -37.5 75.5t-42.5 84t-38.5 72.5t-47 84t-47.5 75l2 4q140 13 226.5 106t86.5 220q0 66 -26 115.5t-68 76t-88 38.5t-94 12h-351zM860 594l-6 6q58 205 66 389l12 6q81 -18 198 -18q85 0 136 -37t51 -113
q0 -92 -67.5 -153.5t-172.5 -61.5q-139 0 -217 -18z" />
    <glyph glyph-name="S.ss07" 
d="M868 -315q-235 0 -415.5 95t-279.5 268t-99 396q0 140 40.5 279t113 260t176.5 225.5t226.5 178.5t268 116.5t295.5 42.5q228 0 408 -91.5t284.5 -267t104.5 -407.5q0 -171 -57 -335.5t-162 -300.5t-243 -239.5t-309.5 -161.5t-351.5 -58zM963 113q161 0 277 100.5
t116 232.5q0 41 -14.5 74.5t-32.5 53.5t-51 38.5t-53 26t-56 19.5q-8 3 -12 4l-90 30q-22 7 -35.5 12t-39 18.5t-40.5 27t-27 36.5t-12 50q0 65 58 112t145 47q78 0 127.5 -44.5t60.5 -121.5l125 50q-8 104 -85 170.5t-204 66.5q-154 0 -262 -93t-108 -218q0 -44 16 -81
t38.5 -60.5t56 -43.5t57 -29.5t53.5 -19.5l84 -26q82 -26 107 -43q47 -33 48 -88q0 -73 -65 -127t-160 -54q-94 0 -151 57t-64 159l-127 -43q10 -148 100.5 -220.5t219.5 -72.5z" />
    <glyph glyph-name="T.ss07" 
d="M868 -315q-235 0 -415.5 95t-279.5 268t-99 396q0 140 40.5 279t113 260t176.5 225.5t226.5 178.5t268 116.5t295.5 42.5q228 0 408 -91.5t284.5 -267t104.5 -407.5q0 -171 -57 -335.5t-162 -300.5t-243 -239.5t-309.5 -161.5t-351.5 -58zM883 133h129q96 551 139 858
q113 -14 322 -14l20 119h-754l-22 -119q208 0 327 14q-64 -297 -161 -858z" />
    <glyph glyph-name="U.ss07" 
d="M868 -315q-235 0 -415.5 95t-279.5 268t-99 396q0 140 40.5 279t113 260t176.5 225.5t226.5 178.5t268 116.5t295.5 42.5q228 0 408 -91.5t284.5 -267t104.5 -407.5q0 -171 -57 -335.5t-162 -300.5t-243 -239.5t-309.5 -161.5t-351.5 -58zM942 123q99 0 177.5 33
t127.5 89.5t78.5 120.5t42.5 138l105 602h-130l-104 -594q-45 -268 -272 -268q-60 0 -101.5 21t-60.5 57t-24 85t7 105l105 594h-129l-105 -602q-17 -76 -8.5 -145t37 -121.5t93.5 -83.5t161 -31z" />
    <glyph glyph-name="V.ss07" 
d="M868 -315q-235 0 -415.5 95t-279.5 268t-99 396q0 140 40.5 279t113 260t176.5 225.5t226.5 178.5t268 116.5t295.5 42.5q228 0 408 -91.5t284.5 -267t104.5 -407.5q0 -171 -57 -335.5t-162 -300.5t-243 -239.5t-309.5 -161.5t-351.5 -58zM674 1096l213 -963h139l551 963
h-135q-283 -486 -455 -838h-14q-46 338 -164 838h-135z" />
    <glyph glyph-name="W.ss07" 
d="M868 -315q-235 0 -415.5 95t-279.5 268t-99 396q0 140 40.5 279t113 260t176.5 225.5t226.5 178.5t268 116.5t295.5 42.5q228 0 408 -91.5t284.5 -267t104.5 -407.5q0 -171 -57 -335.5t-162 -300.5t-243 -239.5t-309.5 -161.5t-351.5 -58zM432 1096l131 -963h150
q222 444 372 809h11q20 -352 88 -809h149l471 963h-141q-230 -474 -377 -826h-6q-22 321 -92 826h-139q-14 -29 -63.5 -131.5t-68 -141t-60 -127t-66.5 -143.5t-59 -131.5t-64 -147.5h-9q-24 375 -86 822h-141z" />
    <glyph glyph-name="X.ss07" 
d="M868 -315q-235 0 -415.5 95t-279.5 268t-99 396q0 140 40.5 279t113 260t176.5 225.5t226.5 178.5t268 116.5t295.5 42.5q228 0 408 -91.5t284.5 -267t104.5 -407.5q0 -171 -57 -335.5t-162 -300.5t-243 -239.5t-309.5 -161.5t-351.5 -58zM547 133h153q229 279 320 406h6
q67 -179 176 -406h152q-24 47 -63 126t-63 126.5t-58 112.5t-66 120l2 11q175 187 414 467h-150q-198 -231 -313 -387h-6q-77 192 -177 387h-151q165 -323 248 -467l-2 -11q-110 -121 -422 -485z" />
    <glyph glyph-name="Y.ss07" 
d="M868 -315q-235 0 -415.5 95t-279.5 268t-99 396q0 140 40.5 279t113 260t176.5 225.5t226.5 178.5t268 116.5t295.5 42.5q228 0 408 -91.5t284.5 -267t104.5 -407.5q0 -171 -57 -335.5t-162 -300.5t-243 -239.5t-309.5 -161.5t-351.5 -58zM883 133h129q42 243 53 348
q76 97 124.5 160.5t141 186.5t203.5 268h-139q-16 -22 -67.5 -91.5t-78.5 -107t-70.5 -98t-80 -115.5t-70.5 -109h-6q-62 223 -182 521h-140q121 -307 252 -617q-14 -54 -28.5 -127t-27.5 -145t-13 -74z" />
    <glyph glyph-name="Z.ss07" 
d="M868 -315q-235 0 -415.5 95t-279.5 268t-99 396q0 140 40.5 279t113 260t176.5 225.5t226.5 178.5t268 116.5t295.5 42.5q228 0 408 -91.5t284.5 -267t104.5 -407.5q0 -171 -57 -335.5t-162 -300.5t-243 -239.5t-309.5 -161.5t-351.5 -58zM602 238l-18 -105h745l21 123
q-344 0 -619 -33l-2 6q437 437 741 764l19 103h-713l-20 -119q319 0 583 35v-6q-405 -408 -737 -768z" />
    <glyph glyph-name="A.ss08" 
d="M868 -315q-235 0 -415.5 95t-279.5 268t-99 396q0 140 40.5 279t113 260t176.5 225.5t226.5 178.5t268 116.5t295.5 42.5q228 0 408 -91.5t284.5 -267t104.5 -407.5q0 -171 -57 -335.5t-162 -300.5t-243 -239.5t-309.5 -161.5t-351.5 -58zM887 -207q198 0 382 79.5
t317 211.5t212.5 309.5t79.5 366.5q0 205 -92 360.5t-250.5 236.5t-359.5 81q-199 0 -383 -81.5t-316.5 -215.5t-211.5 -312t-79 -364q0 -197 87 -349.5t247 -237.5t367 -85zM760 285h-92l379 659h94l145 -659h-94q-33 148 -39 219l-2 4q-86 -8 -133 -8q-49 0 -135 8l-6 -4
q-40 -90 -117 -219zM918 569q71 11 116 11q26 0 58.5 -4.5t42.5 -4.5q-4 20 -15.5 68t-17.5 76t-12.5 69.5t-8.5 75.5h-8q-63 -146 -155 -291z" />
    <glyph glyph-name="B.ss08" 
d="M868 -315q-235 0 -415.5 95t-279.5 268t-99 396q0 140 40.5 279t113 260t176.5 225.5t226.5 178.5t268 116.5t295.5 42.5q228 0 408 -91.5t284.5 -267t104.5 -407.5q0 -171 -57 -335.5t-162 -300.5t-243 -239.5t-309.5 -161.5t-351.5 -58zM887 -207q198 0 382 79.5
t317 211.5t212.5 309.5t79.5 366.5q0 205 -92 360.5t-250.5 236.5t-359.5 81q-199 0 -383 -81.5t-316.5 -215.5t-211.5 -312t-79 -364q0 -197 87 -349.5t247 -237.5t367 -85zM1020 285h-270l116 659h248q83 0 132.5 -40t49.5 -105q0 -63 -40.5 -112t-106.5 -64v-2
q117 -25 117 -127q0 -83 -72 -146t-174 -63zM893 647l2 -2q61 12 147 12q70 0 115 33t45 84q0 39 -33.5 62.5t-89.5 23.5q-90 0 -143 12l-4 -2q-3 -102 -39 -223zM842 360l2 -4q72 13 172 13q65 0 109 31.5t44 86.5q0 42 -33 66.5t-92 24.5q-91 0 -157 12l-4 -2
q-9 -129 -41 -228z" />
    <glyph glyph-name="C.ss08" 
d="M868 -315q-235 0 -415.5 95t-279.5 268t-99 396q0 140 40.5 279t113 260t176.5 225.5t226.5 178.5t268 116.5t295.5 42.5q228 0 408 -91.5t284.5 -267t104.5 -407.5q0 -171 -57 -335.5t-162 -300.5t-243 -239.5t-309.5 -161.5t-351.5 -58zM887 -207q198 0 382 79.5
t317 211.5t212.5 309.5t79.5 366.5q0 205 -92 360.5t-250.5 236.5t-359.5 81q-199 0 -383 -81.5t-316.5 -215.5t-211.5 -312t-79 -364q0 -197 87 -349.5t247 -237.5t367 -85zM989 272q-128 0 -204 75t-76 200q0 105 52 199t144.5 152t200.5 58q106 0 176 -55t82 -147
l-86 -33q-13 71 -63.5 111t-124.5 40q-118 0 -202.5 -94.5t-84.5 -218.5q0 -101 59 -152t146 -51q86 0 155 50t107 139l78 -31q-53 -114 -146.5 -178t-212.5 -64z" />
    <glyph glyph-name="D.ss08" 
d="M868 -315q-235 0 -415.5 95t-279.5 268t-99 396q0 140 40.5 279t113 260t176.5 225.5t226.5 178.5t268 116.5t295.5 42.5q228 0 408 -91.5t284.5 -267t104.5 -407.5q0 -171 -57 -335.5t-162 -300.5t-243 -239.5t-309.5 -161.5t-351.5 -58zM887 -207q198 0 382 79.5
t317 211.5t212.5 309.5t79.5 366.5q0 205 -92 360.5t-250.5 236.5t-359.5 81q-199 0 -383 -81.5t-316.5 -215.5t-211.5 -312t-79 -364q0 -197 87 -349.5t247 -237.5t367 -85zM981 285h-248l117 659h240q127 0 194.5 -65t67.5 -189q0 -165 -106.5 -285t-264.5 -120zM825 360
l4 -4q64 13 162 13q115 0 190.5 87.5t75.5 213.5q0 190 -194 190q-84 0 -143 12l-5 -2q-23 -256 -90 -510z" />
    <glyph glyph-name="E.ss08" 
d="M868 -315q-235 0 -415.5 95t-279.5 268t-99 396q0 140 40.5 279t113 260t176.5 225.5t226.5 178.5t268 116.5t295.5 42.5q228 0 408 -91.5t284.5 -267t104.5 -407.5q0 -171 -57 -335.5t-162 -300.5t-243 -239.5t-309.5 -161.5t-351.5 -58zM887 -207q198 0 382 79.5
t317 211.5t212.5 309.5t79.5 366.5q0 205 -92 360.5t-250.5 236.5t-359.5 81q-199 0 -383 -81.5t-316.5 -215.5t-211.5 -312t-79 -364q0 -197 87 -349.5t247 -237.5t367 -85zM1204 285h-432l117 659h424l-15 -84q-19 0 -99.5 0.5t-133 3t-107.5 8.5l-4 -2q-7 -115 -36 -217
l4 -2q128 15 325 15l-14 -86q-209 0 -322 16l-4 -4q-12 -130 -43 -232l2 -4q138 15 355 15z" />
    <glyph glyph-name="F.ss08" 
d="M868 -315q-235 0 -415.5 95t-279.5 268t-99 396q0 140 40.5 279t113 260t176.5 225.5t226.5 178.5t268 116.5t295.5 42.5q228 0 408 -91.5t284.5 -267t104.5 -407.5q0 -171 -57 -335.5t-162 -300.5t-243 -239.5t-309.5 -161.5t-351.5 -58zM887 -207q198 0 382 79.5
t317 211.5t212.5 309.5t79.5 366.5q0 205 -92 360.5t-250.5 236.5t-359.5 81q-199 0 -383 -81.5t-316.5 -215.5t-211.5 -312t-79 -364q0 -197 87 -349.5t247 -237.5t367 -85zM874 285h-88l117 659h416l-14 -84q-215 0 -332 12l-4 -2q-6 -116 -41 -225l4 -2q119 14 321 14
l-16 -84q-210 0 -313 13l-6 -2q-7 -95 -44 -299z" />
    <glyph glyph-name="G.ss08" 
d="M1194 1546q228 0 408 -91.5t284.5 -267t104.5 -407.5q0 -171 -57 -335.5t-162 -300.5t-243 -239.5t-309.5 -161.5t-351.5 -58q-235 0 -415.5 95t-279.5 268t-99 396q0 140 40.5 279t113 260t176.5 225.5t226.5 178.5t268 116.5t295.5 42.5zM887 -207q198 0 382 79.5
t317 211.5t212.5 309.5t79.5 366.5q0 205 -92 360.5t-250.5 236.5t-359.5 81q-199 0 -383 -81.5t-316.5 -215.5t-211.5 -312t-79 -364q0 -197 87 -349.5t247 -237.5t367 -85zM1090 872q-118 0 -202.5 -94t-84.5 -219q0 -102 59 -152.5t144 -50.5q89 0 161.5 54t112.5 151
l-2 2q-114 -23 -234 -20l15 75h299l-58 -333h-73q1 9 4.5 38t8 52.5t11.5 46.5q-99 -150 -270 -150q-125 0 -198.5 74.5t-73.5 198.5q0 106 52 200.5t143.5 152.5t199.5 58q106 0 178 -55t82 -147l-84 -33q-15 72 -65 111.5t-125 39.5z" />
    <glyph glyph-name="H.ss08" 
d="M868 -315q-235 0 -415.5 95t-279.5 268t-99 396q0 140 40.5 279t113 260t176.5 225.5t226.5 178.5t268 116.5t295.5 42.5q228 0 408 -91.5t284.5 -267t104.5 -407.5q0 -171 -57 -335.5t-162 -300.5t-243 -239.5t-309.5 -161.5t-351.5 -58zM887 -207q198 0 382 79.5
t317 211.5t212.5 309.5t79.5 366.5q0 205 -92 360.5t-250.5 236.5t-359.5 81q-199 0 -383 -81.5t-316.5 -215.5t-211.5 -312t-79 -364q0 -197 87 -349.5t247 -237.5t367 -85zM805 285h-88l117 659h88q-28 -173 -62 -293l4 -4q188 20 350 0l7 4q9 114 43 293h88l-117 -659
h-88q3 18 11 63t13 71.5t15 72t22 92.5l-4 4q-170 -26 -352 0l-2 -4q-10 -105 -45 -299z" />
    <glyph glyph-name="I.ss08" 
d="M868 -315q-235 0 -415.5 95t-279.5 268t-99 396q0 140 40.5 279t113 260t176.5 225.5t226.5 178.5t268 116.5t295.5 42.5q228 0 408 -91.5t284.5 -267t104.5 -407.5q0 -171 -57 -335.5t-162 -300.5t-243 -239.5t-309.5 -161.5t-351.5 -58zM887 -207q198 0 382 79.5
t317 211.5t212.5 309.5t79.5 366.5q0 205 -92 360.5t-250.5 236.5t-359.5 81q-199 0 -383 -81.5t-316.5 -215.5t-211.5 -312t-79 -364q0 -197 87 -349.5t247 -237.5t367 -85zM1020 285h-88l115 659h90z" />
    <glyph glyph-name="J.ss08" 
d="M868 -315q-235 0 -415.5 95t-279.5 268t-99 396q0 140 40.5 279t113 260t176.5 225.5t226.5 178.5t268 116.5t295.5 42.5q228 0 408 -91.5t284.5 -267t104.5 -407.5q0 -171 -57 -335.5t-162 -300.5t-243 -239.5t-309.5 -161.5t-351.5 -58zM887 -207q198 0 382 79.5
t317 211.5t212.5 309.5t79.5 366.5q0 205 -92 360.5t-250.5 236.5t-359.5 81q-199 0 -383 -81.5t-316.5 -215.5t-211.5 -312t-79 -364q0 -197 87 -349.5t247 -237.5t367 -85zM952 279q-99 0 -146 57.5t-32 159.5l4 26l88 13l-4 -27q-12 -68 14.5 -108t84.5 -40q31 0 55.5 13
t38.5 29.5t24.5 43.5t14.5 43.5t8 40.5l74 420h90l-72 -403q-6 -30 -10 -47.5t-15.5 -55t-28 -61.5t-41.5 -50.5t-62.5 -40t-84.5 -13.5z" />
    <glyph glyph-name="K.ss08" 
d="M1194 1546q228 0 408 -91.5t284.5 -267t104.5 -407.5q0 -171 -57 -335.5t-162 -300.5t-243 -239.5t-309.5 -161.5t-351.5 -58q-235 0 -415.5 95t-279.5 268t-99 396q0 140 40.5 279t113 260t176.5 225.5t226.5 178.5t268 116.5t295.5 42.5zM887 -207q198 0 382 79.5
t317 211.5t212.5 309.5t79.5 366.5q0 205 -92 360.5t-250.5 236.5t-359.5 81q-199 0 -383 -81.5t-316.5 -215.5t-211.5 -312t-79 -364q0 -197 87 -349.5t247 -237.5t367 -85zM1260 944h108q-34 -30 -97.5 -87.5t-114.5 -102.5t-116 -99l-2 -6q96 -140 226 -364h-109
q-140 243 -176 311q-3 -3 -19 -19.5t-20.5 -20.5t-16.5 -15t-21 -17t-19 -12q-9 -73 -35 -227h-88l117 659h88q-42 -235 -76 -344q145 143 371 344z" />
    <glyph glyph-name="L.ss08" 
d="M868 -315q-235 0 -415.5 95t-279.5 268t-99 396q0 140 40.5 279t113 260t176.5 225.5t226.5 178.5t268 116.5t295.5 42.5q228 0 408 -91.5t284.5 -267t104.5 -407.5q0 -171 -57 -335.5t-162 -300.5t-243 -239.5t-309.5 -161.5t-351.5 -58zM887 -207q198 0 382 79.5
t317 211.5t212.5 309.5t79.5 366.5q0 205 -92 360.5t-250.5 236.5t-359.5 81q-199 0 -383 -81.5t-316.5 -215.5t-211.5 -312t-79 -364q0 -197 87 -349.5t247 -237.5t367 -85zM1233 285h-408l117 659h88q-69 -397 -112 -584l2 -4q130 15 329 15z" />
    <glyph glyph-name="M.ss08" 
d="M1194 1546q228 0 408 -91.5t284.5 -267t104.5 -407.5q0 -171 -57 -335.5t-162 -300.5t-243 -239.5t-309.5 -161.5t-351.5 -58q-235 0 -415.5 95t-279.5 268t-99 396q0 140 40.5 279t113 260t176.5 225.5t226.5 178.5t268 116.5t295.5 42.5zM887 -207q198 0 382 79.5
t317 211.5t212.5 309.5t79.5 366.5q0 205 -92 360.5t-250.5 236.5t-359.5 81q-199 0 -383 -81.5t-316.5 -215.5t-211.5 -312t-79 -364q0 -197 87 -349.5t247 -237.5t367 -85zM991 391h2q198 333 348 553h93l-117 -659h-90q6 35 21.5 122.5t24 134.5t25 120.5t35.5 138.5
q-47 -78 -103 -167.5t-121 -192t-99 -156.5h-68q-8 31 -52 187t-89 323q-15 -172 -76 -510h-90l117 659h90q100 -300 149 -553z" />
    <glyph glyph-name="N.ss08" 
d="M1194 1546q228 0 408 -91.5t284.5 -267t104.5 -407.5q0 -171 -57 -335.5t-162 -300.5t-243 -239.5t-309.5 -161.5t-351.5 -58q-235 0 -415.5 95t-279.5 268t-99 396q0 140 40.5 279t113 260t176.5 225.5t226.5 178.5t268 116.5t295.5 42.5zM887 -207q198 0 382 79.5
t317 211.5t212.5 309.5t79.5 366.5q0 205 -92 360.5t-250.5 236.5t-359.5 81q-199 0 -383 -81.5t-316.5 -215.5t-211.5 -312t-79 -364q0 -197 87 -349.5t247 -237.5t367 -85zM1192 408q27 218 84 536h90l-117 -659h-80q-178 311 -278 526q-22 -199 -82 -526h-90l117 659h79
q71 -125 100 -178t79.5 -152.5t97.5 -205.5z" />
    <glyph glyph-name="O.ss08" 
d="M868 -315q-235 0 -415.5 95t-279.5 268t-99 396q0 140 40.5 279t113 260t176.5 225.5t226.5 178.5t268 116.5t295.5 42.5q228 0 408 -91.5t284.5 -267t104.5 -407.5q0 -171 -57 -335.5t-162 -300.5t-243 -239.5t-309.5 -161.5t-351.5 -58zM887 -207q198 0 382 79.5
t317 211.5t212.5 309.5t79.5 366.5q0 205 -92 360.5t-250.5 236.5t-359.5 81q-199 0 -383 -81.5t-316.5 -215.5t-211.5 -312t-79 -364q0 -197 87 -349.5t247 -237.5t367 -85zM973 272q-123 0 -199 78t-76 201q0 103 53.5 196.5t146 151t198.5 57.5q123 0 199.5 -78.5
t76.5 -201.5q0 -103 -54.5 -196.5t-147 -150.5t-197.5 -57zM991 356q112 0 199.5 94t87.5 216q0 90 -55 148t-142 58q-114 0 -201 -93.5t-87 -213.5q0 -92 55 -150.5t143 -58.5z" />
    <glyph glyph-name="P.ss08" 
d="M868 -315q-235 0 -415.5 95t-279.5 268t-99 396q0 140 40.5 279t113 260t176.5 225.5t226.5 178.5t268 116.5t295.5 42.5q228 0 408 -91.5t284.5 -267t104.5 -407.5q0 -171 -57 -335.5t-162 -300.5t-243 -239.5t-309.5 -161.5t-351.5 -58zM887 -207q198 0 382 79.5
t317 211.5t212.5 309.5t79.5 366.5q0 205 -92 360.5t-250.5 236.5t-359.5 81q-199 0 -383 -81.5t-316.5 -215.5t-211.5 -312t-79 -364q0 -197 87 -349.5t247 -237.5t367 -85zM864 285h-90l117 659h239q77 0 133 -40t56 -126q0 -99 -73 -170t-177 -71q-113 0 -168 16
q-8 -97 -37 -268zM911 608v-4q57 14 150 14q71 0 117.5 39t46.5 103q0 100 -123 100q-92 0 -141 12l-5 -2q-9 -134 -45 -262z" />
    <glyph glyph-name="Q.ss08" 
d="M868 -315q-235 0 -415.5 95t-279.5 268t-99 396q0 140 40.5 279t113 260t176.5 225.5t226.5 178.5t268 116.5t295.5 42.5q228 0 408 -91.5t284.5 -267t104.5 -407.5q0 -171 -57 -335.5t-162 -300.5t-243 -239.5t-309.5 -161.5t-351.5 -58zM887 -207q198 0 382 79.5
t317 211.5t212.5 309.5t79.5 366.5q0 205 -92 360.5t-250.5 236.5t-359.5 81q-199 0 -383 -81.5t-316.5 -215.5t-211.5 -312t-79 -364q0 -197 87 -349.5t247 -237.5t367 -85zM1290 287l-73 -54q-55 83 -70 123q-76 -49 -172 -49q-122 0 -200.5 77.5t-78.5 201.5
q0 104 54.5 198t148 151.5t199.5 57.5q124 0 201 -78t77 -200q0 -92 -45 -178.5t-123 -141.5q36 -39 82 -108zM991 385q48 0 117 29q-45 49 -107 143l74 55q74 -115 94 -163q55 52 85 119.5t30 131.5q0 91 -56 149t-145 58q-118 0 -205 -92.5t-87 -214.5q0 -94 55.5 -154.5
t144.5 -60.5z" />
    <glyph glyph-name="R.ss08" 
d="M1194 1546q228 0 408 -91.5t284.5 -267t104.5 -407.5q0 -171 -57 -335.5t-162 -300.5t-243 -239.5t-309.5 -161.5t-351.5 -58q-235 0 -415.5 95t-279.5 268t-99 396q0 140 40.5 279t113 260t176.5 225.5t226.5 178.5t268 116.5t295.5 42.5zM887 -207q198 0 382 79.5
t317 211.5t212.5 309.5t79.5 366.5q0 205 -92 360.5t-250.5 236.5t-359.5 81q-199 0 -383 -81.5t-316.5 -215.5t-211.5 -312t-79 -364q0 -197 87 -349.5t247 -237.5t367 -85zM893 944h237q47 0 88 -14.5t72 -53.5t31 -98q0 -88 -59.5 -151.5t-151.5 -73.5q26 -41 49.5 -85
t52.5 -102t41 -81h-102l-123 254q-72 0 -125 14q-6 -77 -39 -268h-88zM1065 614q70 0 116 41t46 103q0 53 -34 78.5t-93 25.5q-76 0 -137 10l-5 -2q-12 -145 -47 -266l2 -2q55 12 152 12z" />
    <glyph glyph-name="S.ss08" 
d="M868 -315q-235 0 -415.5 95t-279.5 268t-99 396q0 140 40.5 279t113 260t176.5 225.5t226.5 178.5t268 116.5t295.5 42.5q228 0 408 -91.5t284.5 -267t104.5 -407.5q0 -171 -57 -335.5t-162 -300.5t-243 -239.5t-309.5 -161.5t-351.5 -58zM887 -207q198 0 382 79.5
t317 211.5t212.5 309.5t79.5 366.5q0 205 -92 360.5t-250.5 236.5t-359.5 81q-199 0 -383 -81.5t-316.5 -215.5t-211.5 -312t-79 -364q0 -197 87 -349.5t247 -237.5t367 -85zM985 272q-95 0 -153.5 52t-65.5 149l88 29q4 -69 44.5 -108.5t105.5 -39.5q64 0 107.5 36.5
t43.5 86.5q0 15 -5 27t-10.5 19t-19.5 14.5t-20 10t-26 9t-25 8.5l-58 19q-27 9 -47 18.5t-47 28t-42 48t-15 66.5q0 85 74.5 148t179.5 63q84 0 138 -44t60 -119l-88 -35q-6 56 -40.5 85t-88.5 29q-58 0 -97.5 -31t-39.5 -77q0 -62 104 -96l62 -21q1 0 19.5 -6.5t23 -8.5
t21.5 -9t23 -12t19.5 -14t19 -18t12.5 -21.5t10 -27.5t3 -32q0 -90 -80.5 -158t-189.5 -68z" />
    <glyph glyph-name="T.ss08" 
d="M868 -315q-235 0 -415.5 95t-279.5 268t-99 396q0 140 40.5 279t113 260t176.5 225.5t226.5 178.5t268 116.5t295.5 42.5q228 0 408 -91.5t284.5 -267t104.5 -407.5q0 -171 -57 -335.5t-162 -300.5t-243 -239.5t-309.5 -161.5t-351.5 -58zM887 -207q198 0 382 79.5
t317 211.5t212.5 309.5t79.5 366.5q0 205 -92 360.5t-250.5 236.5t-359.5 81q-199 0 -383 -81.5t-316.5 -215.5t-211.5 -312t-79 -364q0 -197 87 -349.5t247 -237.5t367 -85zM1018 285h-88q9 50 28 157.5t37.5 206t44.5 221.5q-82 -10 -223 -10l17 84h514l-15 -84
q-141 0 -219 10q-17 -118 -96 -585z" />
    <glyph glyph-name="U.ss08" 
d="M868 -315q-235 0 -415.5 95t-279.5 268t-99 396q0 140 40.5 279t113 260t176.5 225.5t226.5 178.5t268 116.5t295.5 42.5q228 0 408 -91.5t284.5 -267t104.5 -407.5q0 -171 -57 -335.5t-162 -300.5t-243 -239.5t-309.5 -161.5t-351.5 -58zM887 -207q198 0 382 79.5
t317 211.5t212.5 309.5t79.5 366.5q0 205 -92 360.5t-250.5 236.5t-359.5 81q-199 0 -383 -81.5t-316.5 -215.5t-211.5 -312t-79 -364q0 -197 87 -349.5t247 -237.5t367 -85zM971 279q-65 0 -109.5 21.5t-64 57t-25.5 82t6 97.5l72 413h88l-72 -409q-29 -181 123 -181
q155 0 185 181l71 409h88l-71 -413q-20 -114 -92.5 -186t-198.5 -72z" />
    <glyph glyph-name="V.ss08" 
d="M868 -315q-235 0 -415.5 95t-279.5 268t-99 396q0 140 40.5 279t113 260t176.5 225.5t226.5 178.5t268 116.5t295.5 42.5q228 0 408 -91.5t284.5 -267t104.5 -407.5q0 -171 -57 -335.5t-162 -300.5t-243 -239.5t-309.5 -161.5t-351.5 -58zM887 -207q198 0 382 79.5
t317 211.5t212.5 309.5t79.5 366.5q0 205 -92 360.5t-250.5 236.5t-359.5 81q-199 0 -383 -81.5t-316.5 -215.5t-211.5 -312t-79 -364q0 -197 87 -349.5t247 -237.5t367 -85zM1028 285h-94l-146 659h93q75 -289 114 -575h4q127 259 314 575h94z" />
    <glyph glyph-name="W.ss08" 
d="M1194 1546q228 0 408 -91.5t284.5 -267t104.5 -407.5q0 -171 -57 -335.5t-162 -300.5t-243 -239.5t-309.5 -161.5t-351.5 -58q-235 0 -415.5 95t-279.5 268t-99 396q0 140 40.5 279t113 260t176.5 225.5t226.5 178.5t268 116.5t295.5 42.5zM887 -207q198 0 382 79.5
t317 211.5t212.5 309.5t79.5 366.5q0 205 -92 360.5t-250.5 236.5t-359.5 81q-199 0 -383 -81.5t-316.5 -215.5t-211.5 -312t-79 -364q0 -197 87 -349.5t247 -237.5t367 -85zM1204 383q127 300 260 561h95l-324 -659h-98q-51 352 -64 553q-105 -251 -258 -553h-100l-90 659
h96q53 -381 63 -559q111 254 260 559h95q41 -305 65 -561z" />
    <glyph glyph-name="X.ss08" 
d="M868 -315q-235 0 -415.5 95t-279.5 268t-99 396q0 140 40.5 279t113 260t176.5 225.5t226.5 178.5t268 116.5t295.5 42.5q228 0 408 -91.5t284.5 -267t104.5 -407.5q0 -171 -57 -335.5t-162 -300.5t-243 -239.5t-309.5 -161.5t-351.5 -58zM887 -207q198 0 382 79.5
t317 211.5t212.5 309.5t79.5 366.5q0 205 -92 360.5t-250.5 236.5t-359.5 81q-199 0 -383 -81.5t-316.5 -215.5t-211.5 -312t-79 -364q0 -197 87 -349.5t247 -237.5t367 -85zM805 285h-105q156 189 291 333v7q-72 121 -170 319h103q63 -122 123 -266h2q113 149 217 266h102
q-210 -239 -285 -319v-7q77 -137 170 -333h-102q-86 186 -123 278h-2q-93 -127 -221 -278z" />
    <glyph glyph-name="Y.ss08" 
d="M868 -315q-235 0 -415.5 95t-279.5 268t-99 396q0 140 40.5 279t113 260t176.5 225.5t226.5 178.5t268 116.5t295.5 42.5q228 0 408 -91.5t284.5 -267t104.5 -407.5q0 -171 -57 -335.5t-162 -300.5t-243 -239.5t-309.5 -161.5t-351.5 -58zM887 -207q198 0 382 79.5
t317 211.5t212.5 309.5t79.5 366.5q0 205 -92 360.5t-250.5 236.5t-359.5 81q-199 0 -383 -81.5t-316.5 -215.5t-211.5 -312t-79 -364q0 -197 87 -349.5t247 -237.5t367 -85zM1018 285h-88q25 151 47 239q-23 54 -62 150t-112 270h98q89 -221 127 -356q96 148 254 356h96
q-15 -19 -136.5 -179t-186.5 -241q-8 -89 -37 -239z" />
    <glyph glyph-name="Z.ss08" 
d="M868 -315q-235 0 -415.5 95t-279.5 268t-99 396q0 140 40.5 279t113 260t176.5 225.5t226.5 178.5t268 116.5t295.5 42.5q228 0 408 -91.5t284.5 -267t104.5 -407.5q0 -171 -57 -335.5t-162 -300.5t-243 -239.5t-309.5 -161.5t-351.5 -58zM887 -207q198 0 382 79.5
t317 211.5t212.5 309.5t79.5 366.5q0 205 -92 360.5t-250.5 236.5t-359.5 81q-199 0 -383 -81.5t-316.5 -215.5t-211.5 -312t-79 -364q0 -197 87 -349.5t247 -237.5t367 -85zM1239 285h-510l12 71q256 276 504 527h-2q-211 -23 -397 -23l14 84h488l-13 -70
q-183 -199 -508 -524h2q205 21 424 21z" />
    <glyph glyph-name="i.loclTRK" horiz-adv-x="518" 
d="M403 1380q-47 0 -77.5 31.5t-30.5 79.5q0 61 47.5 107.5t110.5 46.5q49 0 78.5 -30t29.5 -77q0 -62 -47.5 -110t-110.5 -48zM250 0h-178l198 1133h181z" />
    <glyph glyph-name="a.ss01" horiz-adv-x="1370" 
d="M502 -35q-198 0 -313 129t-115 342q0 186 86 354.5t235 271.5t320 103q138 0 230 -72t122 -221h29q2 101 26 261h178l-198 -1133h-172q0 2 3.5 25.5t4 28t4.5 26.5t6.5 32l8 32t11 38.5t13.5 40t18 47.5h-28q-47 -83 -103.5 -143t-117.5 -95t-122 -51t-126 -16zM567 133
q122 0 229 75.5t169.5 197t62.5 253.5q0 152 -85.5 246t-223.5 94q-125 0 -230.5 -76.5t-164 -197t-58.5 -252.5q0 -154 81.5 -247t219.5 -93z" />
    </font>
</defs>
</svg>
