<?xml version="1.0" standalone="no"?>
<!DOCTYPE svg PUBLIC "-//W3C//DTD SVG 1.1//EN" "http://www.w3.org/Graphics/SVG/1.1/DTD/svg11.dtd" >
<svg xmlns="http://www.w3.org/2000/svg" xmlns:xlink="http://www.w3.org/1999/xlink" version="1.1">
<metadata>
Created by FontForge 20170731 at Mon Mar 15 14:15:33 2021
 By Aleksey,,,
Copyright (c) 2020 by Matthieu Salvaggio x Blaze Type. All rights reserved.
</metadata>
<defs>
<font id="Area-ThinInktrap" horiz-adv-x="2048" >
  <font-face 
    font-family="Area Thin Inktrap"
    font-weight="100"
    font-stretch="normal"
    units-per-em="2048"
    panose-1="0 0 2 0 0 0 0 0 0 0"
    ascent="1638"
    descent="-410"
    x-height="1126"
    cap-height="1597"
    bbox="-1642 -489 2619 2142"
    underline-thickness="102"
    underline-position="-307"
    unicode-range="U+0020-25CA"
  />
<missing-glyph horiz-adv-x="1466" 
d="M1260 0h-1055v1597h1055v-1597zM309 1503v-1362l803 1362h-803zM1155 1407l-770 -1307h770v1307z" />
    <glyph glyph-name=".notdef" horiz-adv-x="1466" 
d="M1260 0h-1055v1597h1055v-1597zM309 1503v-1362l803 1362h-803zM1155 1407l-770 -1307h770v1307z" />
    <glyph glyph-name=".null" horiz-adv-x="0" 
 />
    <glyph glyph-name="nonmarkingreturn" horiz-adv-x="682" 
 />
    <glyph glyph-name="space" unicode=" " horiz-adv-x="550" 
 />
    <glyph glyph-name="exclam" unicode="!" horiz-adv-x="514" 
d="M289 365h-64l-32 1146v86h129v-86zM258 -14q-41 0 -69.5 29.5t-28.5 70.5q0 40 28.5 67t69.5 27q40 0 68 -27t28 -67q0 -41 -28 -70.5t-68 -29.5z" />
    <glyph glyph-name="quotedbl" unicode="&#x22;" horiz-adv-x="636" 
d="M256 1182h-106v415h106v-415zM489 1182h-108v415h108v-415z" />
    <glyph glyph-name="numbersign" unicode="#" horiz-adv-x="1366" 
d="M317 0h-96q81 400 107 508q-92 -21 -246 -21l16 86q160 0 246 -10q20 180 84 441q-95 -21 -248 -21l19 86q157 0 245 -10q29 217 93 538h96q-70 -352 -117 -538q221 15 442 0q20 148 93 538h96q-70 -352 -117 -538q92 10 254 10l-16 -86q-160 0 -254 21
q-18 -198 -82 -441q92 10 254 10l-19 -86q-157 0 -252 21q-32 -252 -84 -508h-96q78 381 109 508q-222 -29 -443 0q-32 -252 -84 -508zM418 563q221 15 442 0q17 177 82 441q-221 -29 -442 0q-18 -198 -82 -441z" />
    <glyph glyph-name="dollar" unicode="$" horiz-adv-x="1161" 
d="M1032 481q0 -152 -109.5 -254t-299.5 -106v-203h-82v207q-149 14 -261 99t-165 245l90 37q93 -257 336 -289v537q-46 11 -88 26t-98 45.5t-95.5 68t-67.5 97.5t-28 131q0 78 33 142.5t87.5 105.5t120.5 64t136 26v178h82v-182q136 -15 244 -99t141 -208l-86 -41
q-35 100 -112 168.5t-187 85.5v-524q48 -13 82.5 -23t80.5 -27.5t77.5 -35.5t66 -45.5t55 -59t34 -74t13.5 -92.5zM266 1126q0 -186 275 -268v508q-119 -6 -197 -70t-78 -170zM623 735v-522q55 2 106.5 16.5t98.5 42.5t75.5 78.5t28.5 116.5q0 51 -18.5 92.5t-45.5 68
t-71.5 48.5t-82 34t-91.5 25z" />
    <glyph glyph-name="percent" unicode="%" horiz-adv-x="1622" 
d="M342 807q-115 0 -187.5 99t-72.5 255q0 159 72.5 259t187.5 100t186.5 -100t71.5 -259q0 -156 -71.5 -255t-186.5 -99zM303 0h-98l1138 1468h91zM342 885q76 0 122 75t46 201q0 128 -46 204.5t-122 76.5t-122 -76.5t-46 -204.5q0 -126 46 -201t122 -75zM1280 -29
q-115 0 -187.5 99.5t-72.5 255.5q0 158 72.5 258t187.5 100t186.5 -99.5t71.5 -258.5q0 -156 -71.5 -255.5t-186.5 -99.5zM1280 49q76 0 122 75t46 202q0 128 -46 204t-122 76t-122 -76t-46 -204q0 -127 46 -202t122 -75z" />
    <glyph glyph-name="ampersand" unicode="&#x26;" horiz-adv-x="1376" 
d="M549 -35q-118 0 -218.5 45t-164.5 136t-64 210q0 83 31 155t90 129.5t124 101t153 87.5q-57 54 -100 102t-88.5 111t-70 130t-24.5 133q0 141 107.5 233t261.5 92q160 0 261 -100.5t101 -239.5q0 -133 -94 -249t-246 -205l410 -433q66 222 98 369l96 -22
q-67 -267 -157 -392l344 -356h-121l-266 279q-162 -316 -463 -316zM571 877q41 35 57 49.5t49 45t47 46.5t37 44t33 48.5t22 48.5t16 56.5t4 60.5q0 122 -71.5 190t-184.5 68q-107 0 -179.5 -61t-72.5 -170q0 -55 18.5 -109.5t58 -112.5t73.5 -99t93 -105zM549 61
q124 0 226.5 68t201.5 190l-440 467l-39 -30q-50 -39 -75 -59t-65 -55t-60.5 -62t-43 -63t-32 -74t-9.5 -81q0 -136 98.5 -218.5t237.5 -82.5z" />
    <glyph glyph-name="quotesingle" unicode="'" horiz-adv-x="403" 
d="M256 1182h-106v415h106v-415z" />
    <glyph glyph-name="parenleft" unicode="(" horiz-adv-x="593" 
d="M559 -307h-104q-167 198 -255.5 445.5t-88.5 506.5q0 260 88.5 507t255.5 445h104q-164 -197 -250 -444t-86 -508q0 -260 86 -507.5t250 -444.5z" />
    <glyph glyph-name="parenright" unicode=")" horiz-adv-x="593" 
d="M139 -307h-106q164 198 251 445.5t87 506.5q0 260 -87 507t-251 445h106q167 -198 255.5 -445t88.5 -507q0 -259 -88.5 -506.5t-255.5 -445.5z" />
    <glyph glyph-name="asterisk" unicode="*" horiz-adv-x="854" 
d="M467 1024h-80v215l-188 -106l-41 69l188 109l-188 108l41 72l188 -109v215h80v-215l188 109l41 -70l-188 -110l188 -109l-41 -69l-188 106v-215z" />
    <glyph glyph-name="plus" unicode="+" horiz-adv-x="991" 
d="M545 674h301v-99h-301v-311h-99v311h-301v99h301v311h99v-311z" />
    <glyph glyph-name="comma" unicode="," horiz-adv-x="430" 
d="M143 -254h-71q29 59 43 86.5t43.5 74.5t62.5 85q-96 16 -96 94q0 40 28.5 67t69.5 27q40 0 68 -27t28 -67q0 -32 -26.5 -83.5t-122.5 -211.5q-18 -29 -27 -45z" />
    <glyph glyph-name="hyphen" unicode="-" horiz-adv-x="772" 
d="M651 578h-530v92h530v-92z" />
    <glyph glyph-name="period" unicode="." horiz-adv-x="464" 
d="M233 -14q-41 0 -69.5 29.5t-28.5 70.5q0 40 28.5 67t69.5 27q40 0 68.5 -27.5t28.5 -66.5q0 -41 -28.5 -70.5t-68.5 -29.5z" />
    <glyph glyph-name="slash" unicode="/" horiz-adv-x="825" 
d="M184 -135h-102l557 1773h102z" />
    <glyph glyph-name="zero" unicode="0" horiz-adv-x="1439" 
d="M721 -35q-173 0 -308 105t-209.5 294t-74.5 431q0 243 74.5 433.5t209.5 296t308 105.5q172 0 306.5 -105.5t209 -296t74.5 -433.5q0 -242 -74.5 -431t-209 -294t-306.5 -105zM723 68q210 0 338.5 200.5t128.5 526.5q0 328 -128.5 530.5t-338.5 202.5q-213 0 -344 -202.5
t-131 -530.5q0 -326 131 -526.5t344 -200.5z" />
    <glyph glyph-name="one" unicode="1" horiz-adv-x="776" 
d="M547 0h-109q0 871 21 1384q-139 -222 -406 -254v99q173 28 282 130.5t109 237.5h103v-1597z" />
    <glyph glyph-name="two" unicode="2" horiz-adv-x="1259" 
d="M1153 0h-1026v6q10 87 28 156t48 125t64 100t86.5 88.5t104 82.5t126.5 90q19 13 29.5 20t27.5 19t31 22q47 33 83 60.5t88.5 78t86.5 98.5t59 114.5t25 133.5q0 148 -105 243t-274 95q-189 0 -308.5 -124.5t-119.5 -322.5l-96 19q0 231 145 378.5t381 147.5
q214 0 350.5 -123t136.5 -319q0 -82 -25 -156t-74 -137t-100.5 -111.5t-123.5 -103.5q-55 -41 -132 -95t-122.5 -85.5t-102 -79.5t-91.5 -91.5t-67.5 -107t-52.5 -139.5q308 22 920 22v-104z" />
    <glyph glyph-name="three" unicode="3" horiz-adv-x="1294" 
d="M643 -35q-196 0 -345 99.5t-200 265.5l92 47q48 -142 171 -228t286 -86q179 0 293.5 100.5t114.5 264.5q0 156 -114 252t-335 96h-157v92h176q184 0 284.5 95.5t100.5 238.5q0 151 -109 240.5t-278 89.5q-156 0 -265 -86t-133 -240l-96 19q27 187 167 296t339 109
q132 0 241 -48t176.5 -143t67.5 -220q0 -141 -82.5 -247.5t-220.5 -135.5v-23q163 -20 256.5 -118.5t93.5 -256.5q0 -97 -36.5 -183t-102.5 -150.5t-166 -102t-219 -37.5z" />
    <glyph glyph-name="four" unicode="4" horiz-adv-x="1306" 
d="M987 0h-106q0 270 20 428q-396 -27 -852 -10v106l832 1073h106q0 -725 -20 -1108q107 21 264 21v-102q-162 0 -264 20q20 -158 20 -428zM162 498q377 19 739 -9q-26 432 -10 1002q-113 -161 -225 -314t-286 -386t-218 -293z" />
    <glyph glyph-name="five" unicode="5" horiz-adv-x="1286" 
d="M633 -35q-195 0 -350.5 98.5t-214.5 266.5l92 49q56 -146 186 -231t289 -85q185 0 311.5 121.5t126.5 313.5q0 182 -118.5 299.5t-299.5 117.5q-129 0 -234.5 -62t-164.5 -163l-88 43l184 864h746v-96q-436 0 -692 21q-33 -323 -144 -713h14q55 88 161 142.5t235 54.5
q140 0 256.5 -62t187 -179t70.5 -265q0 -153 -74 -276.5t-200.5 -191t-278.5 -67.5z" />
    <glyph glyph-name="six" unicode="6" horiz-adv-x="1349" 
d="M698 -35q-258 0 -414.5 202t-156.5 550q0 200 54.5 370.5t150 289.5t229 186t287.5 67q199 0 340 -106l-74 -78q-121 86 -285 86q-260 0 -430.5 -226.5t-187.5 -637.5h22q43 169 180.5 266.5t305.5 97.5q102 0 197.5 -39t168.5 -107.5t116.5 -169t43.5 -216.5
q0 -231 -157.5 -383t-389.5 -152zM700 63q180 0 306.5 124.5t126.5 316.5q0 190 -125.5 314t-305.5 124q-186 0 -309 -130t-123 -314t125.5 -309.5t304.5 -125.5z" />
    <glyph glyph-name="seven" unicode="7" horiz-adv-x="1200" 
d="M422 0h-111q0 212 94 498.5t263.5 572.5t367.5 469l-10 14q-69 -7 -139 -12t-148.5 -8t-135 -5t-148 -2.5t-134 -0.5h-147.5h-139v104h1126v-112q-196 -179 -367.5 -454t-271.5 -561t-100 -503z" />
    <glyph glyph-name="eight" unicode="8" horiz-adv-x="1327" 
d="M666 -35q-156 0 -280.5 60t-193.5 164.5t-69 234.5q0 152 90 260t250 143v25q-138 43 -209.5 136.5t-71.5 217.5q0 178 136 301t348 123q209 0 345 -118.5t136 -294.5q0 -123 -73 -222.5t-210 -142.5v-25q160 -35 250 -143.5t90 -261.5q0 -129 -69.5 -234t-193 -164
t-275.5 -59zM666 877q160 0 266 96.5t106 243.5q0 142 -105.5 232.5t-266.5 90.5q-164 0 -270.5 -90.5t-106.5 -232.5q0 -148 106.5 -244t270.5 -96zM664 59q183 0 304.5 103.5t121.5 271.5q0 163 -109.5 261t-314.5 98q-208 0 -318 -97.5t-110 -261.5q0 -168 121.5 -271.5
t304.5 -103.5z" />
    <glyph glyph-name="nine" unicode="9" horiz-adv-x="1378" 
d="M631 -35q-134 0 -262.5 58.5t-235.5 185.5l78 67q178 -215 405 -215q133 0 236.5 65.5t169 183.5t99.5 277.5t34 352.5h-20q-41 -201 -176.5 -309.5t-309.5 -108.5q-106 0 -202.5 42t-167.5 114.5t-113.5 176.5t-42.5 222q0 157 71 283t199 198t289 72q89 0 168 -23
t153 -78t126.5 -139t84 -214t31.5 -295q0 -183 -37.5 -345t-111 -291t-193.5 -204.5t-272 -75.5zM655 614q125 0 227.5 66.5t159 178t56.5 243.5q0 197 -123.5 315.5t-302.5 118.5q-186 0 -312.5 -128t-126.5 -333q0 -197 120 -329t302 -132z" />
    <glyph glyph-name="colon" unicode=":" horiz-adv-x="497" 
d="M250 965q-41 0 -69.5 28.5t-28.5 69.5q0 40 28.5 68t69.5 28q40 0 68 -28t28 -68q0 -41 -28 -69.5t-68 -28.5zM250 -14q-41 0 -69.5 29.5t-28.5 70.5q0 40 28.5 68t69.5 28q40 0 68 -28t28 -68q0 -41 -28 -70.5t-68 -29.5z" />
    <glyph glyph-name="semicolon" unicode=";" horiz-adv-x="577" 
d="M301 965q-41 0 -68.5 28.5t-27.5 69.5q0 40 27.5 68t68.5 28q40 0 68 -28t28 -68q0 -41 -28 -69.5t-68 -28.5zM221 -254h-71l118 246q-63 22 -63 94q0 40 27.5 67t68.5 27q40 0 68 -27t28 -67q0 -35 -30.5 -92.5t-145.5 -247.5z" />
    <glyph glyph-name="less" unicode="&#x3c;" horiz-adv-x="1021" 
d="M850 426v-98l-700 245v103l700 246v-101l-578 -196z" />
    <glyph glyph-name="equal" unicode="=" horiz-adv-x="1028" 
d="M864 780h-702v99h702v-99zM864 369h-702v98h702v-98z" />
    <glyph glyph-name="greater" unicode="&#x3e;" horiz-adv-x="1021" 
d="M872 573l-700 -245v98l580 199l-580 196v101l700 -246v-103z" />
    <glyph glyph-name="question" unicode="?" horiz-adv-x="1056" 
d="M489 418h-98q-4 40 -4 59q0 47 12.5 88.5t27.5 69.5t53 67.5t62 60t81 68.5q114 93 174.5 185.5t60.5 202.5q0 97 -48 170.5t-124 110t-166 36.5q-89 0 -166.5 -38t-128.5 -117.5t-51 -184.5q0 -32 6 -70l-94 19q-6 35 -6 69q0 93 36.5 172.5t98 132t142 82t167.5 29.5
q86 0 165 -28t141.5 -78t99.5 -128t37 -171q0 -73 -23.5 -140.5t-70 -127.5t-91 -103.5t-108.5 -97.5q-51 -41 -77.5 -65t-56 -60t-41.5 -75t-12 -89q0 -31 2 -49zM469 -14q-41 0 -69.5 29.5t-28.5 70.5q0 40 28.5 67t69.5 27q40 0 68 -27t28 -67q0 -41 -28 -70.5t-68 -29.5
z" />
    <glyph glyph-name="at" unicode="@" horiz-adv-x="1972" 
d="M905 -195q-184 0 -336.5 63t-254 172t-157 253.5t-55.5 308.5q0 196 80 383.5t215 329.5t325.5 228.5t399.5 86.5q221 0 398 -93t280 -267.5t103 -401.5q0 -179 -62 -329.5t-169 -237t-234 -86.5q-114 0 -164.5 71.5t-28.5 202.5h-6q-55 -90 -125 -149t-137 -83t-137 -24
q-148 0 -242 111.5t-94 276.5q0 108 43 214t112.5 184.5t163 127.5t189.5 49q108 0 191.5 -64.5t127.5 -195.5h4q-6 119 21 233h88l-109 -612q-45 -260 117 -260q90 0 169.5 72t128 200.5t48.5 280.5q0 199 -82.5 355.5t-237.5 245.5t-358 89q-148 0 -287.5 -49
t-251.5 -137.5t-196 -204.5t-130 -257t-46 -288q0 -150 49 -279t139.5 -223.5t225.5 -148t299 -53.5q157 0 302 47.5t251 132.5l51 -74q-128 -99 -291.5 -150t-329.5 -51zM868 324q112 0 205.5 70.5t145 181t51.5 231.5q0 136 -67 217.5t-191 81.5q-113 0 -206.5 -68.5
t-144.5 -177.5t-51 -231q0 -137 67 -221t191 -84z" />
    <glyph glyph-name="A" unicode="A" horiz-adv-x="1499" 
d="M150 0h-115l657 1597h113l657 -1597h-114q-58 140 -83.5 202.5t-67.5 179.5t-69 216l-18 16q-244 -22 -346 -22q-154 0 -365 22l-22 -18q-81 -241 -227 -596zM416 690l12 -20q230 20 336 20q117 0 301 -20l12 18q-187 407 -307 793h-43q-117 -367 -311 -791z" />
    <glyph glyph-name="B" unicode="B" horiz-adv-x="1458" 
d="M862 0h-635v1597h549q121 0 220.5 -35t162.5 -93.5t97 -132.5t34 -156q0 -122 -74 -220t-221 -133v-32q90 -14 158.5 -51t108.5 -88t59.5 -109t19.5 -121q0 -178 -135 -302t-344 -124zM317 854l17 -23q166 21 438 21q190 0 298 90t108 227q0 146 -119 238t-305 92
q-250 0 -420 21l-21 -19q32 -292 4 -647zM313 98l21 -20q176 20 489 20q189 0 297.5 91t108.5 229q0 146 -116.5 241t-309.5 95q-299 0 -469 20l-17 -22q28 -360 -4 -654z" />
    <glyph glyph-name="C" unicode="C" horiz-adv-x="1726" 
d="M918 -35q-174 0 -323.5 61.5t-255 170t-165 262t-59.5 332.5q0 183 61.5 340.5t168 266.5t252.5 170.5t312 61.5q110 0 215.5 -27.5t200 -81.5t168.5 -144t111 -206l-95 -38q-74 188 -237 291.5t-361 103.5q-109 0 -210 -31.5t-186 -94.5t-148.5 -150.5t-99.5 -206
t-36 -254.5q0 -141 39 -261t106.5 -204t157.5 -143t191 -87t209 -28q130 0 240.5 41t188 112.5t130 159.5t80.5 190l96 -34q-36 -120 -99 -220.5t-154 -180.5t-219 -125.5t-279 -45.5z" />
    <glyph glyph-name="D" unicode="D" horiz-adv-x="1652" 
d="M795 0h-568v1597h549q156 0 283 -40.5t214.5 -112t146.5 -171.5t86.5 -216t27.5 -248q0 -238 -87 -420t-255.5 -285.5t-396.5 -103.5zM313 98l21 -20q172 20 479 20q283 0 445.5 191.5t162.5 507.5q0 212 -74.5 368.5t-226 245t-366.5 88.5q-260 0 -420 21l-21 -19
q34 -696 0 -1403z" />
    <glyph glyph-name="E" unicode="E" horiz-adv-x="1353" 
d="M1243 0h-1016v1597h996v-98q-44 0 -206.5 -1t-237 -0.5t-204.5 6t-241 16.5l-21 -19q33 -299 4 -627l17 -22q303 20 848 20v-98q-532 0 -848 21l-17 -23q29 -350 -4 -674l21 -20q150 13 326 19t275 6.5t308 0.5v-104z" />
    <glyph glyph-name="F" unicode="F" horiz-adv-x="1273" 
d="M336 0h-109v1597h975v-106q-561 0 -868 29l-21 -19q33 -315 2 -639l17 -22q297 20 829 20v-98q-526 0 -829 20l-17 -22q21 -265 21 -760z" />
    <glyph glyph-name="G" unicode="G" horiz-adv-x="1804" 
d="M907 -35q-171 0 -318.5 61.5t-251.5 170t-163 262t-59 332.5q0 183 61.5 340.5t168 266.5t252.5 170.5t312 61.5q110 0 215.5 -27.5t200 -81.5t168.5 -144t111 -206l-95 -38q-74 188 -237 291.5t-361 103.5q-136 0 -259 -50.5t-217 -142.5t-149 -233t-55 -311
q0 -141 39 -260.5t105.5 -203.5t155 -143t188.5 -87.5t205 -28.5q177 0 318 80.5t225.5 221.5t107.5 324l-12 15q-390 -37 -600 -37v96h696v-768h-94q0 32 -1 95.5t-1.5 104t2.5 99.5t10 111l-21 2q-81 -216 -244.5 -331.5t-402.5 -115.5z" />
    <glyph glyph-name="H" unicode="H" horiz-adv-x="1654" 
d="M336 0h-109v1597h109q0 -487 -19 -731l17 -22q528 26 987 0l18 22q-20 244 -20 731h108v-1597h-108q0 490 20 762l-18 22q-446 -50 -987 0l-17 -22q19 -272 19 -762z" />
    <glyph glyph-name="I" unicode="I" horiz-adv-x="563" 
d="M336 0h-109v1597h109v-1597z" />
    <glyph glyph-name="J" unicode="J" horiz-adv-x="1181" 
d="M539 -35q-71 0 -136.5 15t-129.5 52t-110.5 93.5t-75 146t-28.5 201.5v41l101 14v-34q0 -97 23.5 -174t60.5 -124t88 -78t101 -43t104 -12q53 0 97.5 12.5t76 31.5t57 51.5t41 61.5t27 72.5t17 73t8 75t3 67.5t0.5 61v1028h109v-991q0 -61 -1 -98.5t-9.5 -112.5
t-23.5 -125t-47 -113t-77 -100.5t-115.5 -64.5t-160.5 -27z" />
    <glyph glyph-name="K" unicode="K" horiz-adv-x="1345" 
d="M336 0h-109v1597h109v-110v-116.5t-0.5 -107.5t-1.5 -117t-3 -108.5t-5.5 -118.5t-8 -110.5t-10.5 -118.5h21q83 92 166 183t182 197t156.5 167t180 190t161.5 170h131q-7 -7 -63 -67t-67.5 -72t-62.5 -66.5t-68.5 -72t-63.5 -65.5t-69.5 -71.5t-65 -65.5t-71.5 -70.5
t-67 -64t-72 -67.5v-24q327 -396 711 -891h-134q-409 511 -637 836h-18q-94 -141 -231 -258q10 -199 10 -578z" />
    <glyph glyph-name="L" unicode="L" horiz-adv-x="1214" 
d="M1182 0h-955v1597h109q0 -981 -23 -1499l21 -20q139 13 304 19t257.5 6.5t286.5 0.5v-104z" />
    <glyph glyph-name="M" unicode="M" horiz-adv-x="2058" 
d="M336 0h-109v1597h109q364 -710 682 -1474h22q339 778 682 1474h109v-1597h-109q0 65 -1 265.5t0 298t3.5 262.5t9.5 307.5t19 285.5h-20q-203 -456 -648 -1419h-112q-415 899 -647 1419h-23q12 -143 19.5 -285t10.5 -309t3.5 -260.5t0 -299.5t-0.5 -265z" />
    <glyph glyph-name="N" unicode="N" horiz-adv-x="1695" 
d="M336 0h-109v1597h101q486 -649 1038 -1452h20q-7 119 -12.5 254t-8 227.5t-4 258.5t-1.5 224.5v256v231.5h108v-1597h-100q-551 736 -1036 1432h-21q7 -117 12.5 -247.5t8 -229.5t3.5 -249.5t1.5 -227t0 -247.5t-0.5 -231z" />
    <glyph glyph-name="O" unicode="O" horiz-adv-x="1826" 
d="M913 -35q-162 0 -309.5 63.5t-255.5 172.5t-171.5 264.5t-63.5 331.5q0 175 63 330.5t170.5 265.5t255 173.5t311.5 63.5q222 0 406 -111t289.5 -302.5t105.5 -419.5q0 -230 -107 -421.5t-291 -301t-403 -109.5zM915 68q135 0 259 55t217 150t148.5 232t55.5 292
q0 156 -55.5 293.5t-148.5 232.5t-217 150t-259 55q-136 0 -261.5 -55t-219 -150t-149.5 -232.5t-56 -293.5q0 -155 56 -292t149.5 -232t219 -150t261.5 -55z" />
    <glyph glyph-name="P" unicode="P" horiz-adv-x="1361" 
d="M336 0h-109v1597h547q240 0 378 -129.5t138 -334.5q0 -216 -134 -348t-343 -132q-128 0 -190 1t-147.5 8t-160.5 22q21 -262 21 -684zM315 752l19 -23q168 21 438 21q194 0 300 98.5t106 273.5q0 174 -114.5 275.5t-309.5 101.5q-260 0 -420 21l-21 -19q33 -363 2 -749z
" />
    <glyph glyph-name="Q" unicode="Q" horiz-adv-x="1828" 
d="M1649 -115l-76 -65q-151 179 -225 295q-187 -150 -435 -150q-162 0 -309.5 63.5t-255.5 172.5t-171.5 264.5t-63.5 331.5q0 175 63 330.5t171 265.5t256 173.5t312 63.5q222 0 405.5 -111t288.5 -302.5t105 -419.5q0 -198 -80.5 -364.5t-232.5 -280.5q28 -25 54 -50.5
t56 -58.5t44 -48.5t50.5 -58.5t43.5 -51zM915 66q185 0 385 106q-129 127 -356 395l76 64q210 -247 332 -424q243 256 243 590q0 156 -55 293.5t-148 232.5t-217 150t-260 55t-261 -54.5t-219 -149.5t-150 -232.5t-56 -294.5q0 -156 56.5 -294t150.5 -233t219 -149.5
t260 -54.5z" />
    <glyph glyph-name="R" unicode="R" horiz-adv-x="1415" 
d="M336 0h-109v1597h547q240 0 378 -129.5t138 -334.5q0 -199 -117 -319.5t-317 -137.5v-21q71 -97 142 -200.5t171 -254t134 -200.5h-121l-439 653q-90 0 -140.5 1t-132.5 8.5t-155 21.5q21 -260 21 -684zM315 752l19 -23q166 21 438 21q194 0 300 98.5t106 273.5
q0 173 -114.5 275t-309.5 102q-248 0 -420 21l-21 -19q32 -376 2 -749z" />
    <glyph glyph-name="S" unicode="S" horiz-adv-x="1316" 
d="M678 -35q-69 0 -136.5 13.5t-138.5 47.5t-130 85.5t-109 134t-78 186.5l100 37q51 -191 185.5 -296t310.5 -105q59 0 115.5 11.5t110.5 37.5t95 64t66 96t25 129q0 60 -19.5 108t-48 77.5t-74.5 54t-84.5 38t-93.5 30.5q-8 2 -12.5 3.5t-11.5 3.5t-13 4l-149 47
q-45 14 -76.5 25t-81.5 33.5t-86 45t-76.5 57.5t-65.5 74t-42 92.5t-17 114.5q0 103 45 184.5t119 131t163 75t183 25.5q121 0 224 -41t182.5 -129t116.5 -215l-97 -39q-47 148 -163 235t-279 87q-160 0 -269.5 -84t-109.5 -221q0 -48 15.5 -90.5t36.5 -72.5t56.5 -58
t62.5 -44.5t69 -34t60.5 -24t51.5 -16.5l152 -52q12 -4 35 -11q75 -23 116 -37.5t107 -49t101 -72t63 -100t28 -139.5q0 -104 -44.5 -191.5t-119 -144.5t-170.5 -89t-200 -32z" />
    <glyph glyph-name="T" unicode="T" horiz-adv-x="1296" 
d="M702 0h-108q0 1025 22 1522q-209 -23 -583 -23v98h1233v-98q-375 0 -584 23q20 -520 20 -1522z" />
    <glyph glyph-name="U" unicode="U" horiz-adv-x="1544" 
d="M766 -35q-127 0 -228 35.5t-175.5 107.5t-115 188.5t-40.5 270.5v1030h108v-1024q0 -136 33 -235.5t95 -159t143.5 -87.5t185.5 -28t185.5 28t143.5 87.5t95 159t33 235.5v1024h108v-1030q0 -281 -145.5 -441.5t-425.5 -160.5z" />
    <glyph glyph-name="V" unicode="V" horiz-adv-x="1499" 
d="M805 0h-113l-657 1597h117q334 -795 589 -1499h23q69 187 153 405.5t135.5 349.5t157.5 397t138 347h114z" />
    <glyph glyph-name="W" unicode="W" horiz-adv-x="2316" 
d="M698 0h-127l-530 1597h113q298 -864 473 -1482h22q154 548 449 1482h121q291 -908 454 -1484h23q203 713 467 1484h112l-530 -1597h-127q-261 781 -449 1475h-22q-193 -715 -449 -1475z" />
    <glyph glyph-name="X" unicode="X" horiz-adv-x="1312" 
d="M154 0h-123q37 54 170.5 249t221 319.5t175.5 242.5v23q-274 367 -551 763h123q305 -429 477 -704h21q161 268 475 704h123q-289 -413 -553 -763v-23q70 -92 151 -206t132.5 -189t149 -218.5t134.5 -197.5h-121q-273 400 -491 756h-21q-39 -65 -83 -135.5t-76.5 -121.5
t-87 -132.5t-78.5 -117.5t-87.5 -129.5t-80.5 -119.5z" />
    <glyph glyph-name="Y" unicode="Y" horiz-adv-x="1406" 
d="M756 0h-109q0 395 12 594q-219 347 -614 1003h121q361 -610 526 -925h23q27 53 55 105t60 109.5t55.5 100t61.5 107.5t57 98t62 105.5t57.5 96.5t63 105t58.5 98h115q-413 -686 -615 -1003q11 -219 11 -594z" />
    <glyph glyph-name="Z" unicode="Z" horiz-adv-x="1337" 
d="M1276 0h-1219v92q251 339 1076 1415l-11 21q-510 -29 -1022 -29v98h1157v-86q-158 -213 -332 -441t-404 -526t-341 -442l10 -22q389 24 1086 24v-104z" />
    <glyph glyph-name="bracketleft" unicode="[" horiz-adv-x="630" 
d="M582 -311h-377v1908h377v-90q-178 0 -295 21q30 -885 0 -1770q111 23 295 23v-92z" />
    <glyph glyph-name="backslash" unicode="\" horiz-adv-x="825" 
d="M743 -135h-102l-557 1773h102z" />
    <glyph glyph-name="bracketright" unicode="]" horiz-adv-x="630" 
d="M426 -311h-377v92q184 0 297 -23q-34 885 0 1770q-119 -21 -297 -21v90h377v-1908z" />
    <glyph glyph-name="asciicircum" unicode="^" horiz-adv-x="856" 
d="M231 1063h-104l248 534h108l246 -534h-104q-124 277 -181 438h-30q-60 -164 -183 -438z" />
    <glyph glyph-name="underscore" unicode="_" horiz-adv-x="1015" 
d="M985 -219h-954v90h954v-90z" />
    <glyph glyph-name="a" unicode="a" horiz-adv-x="1169" 
d="M455 -35q-98 0 -176 30t-127.5 96t-49.5 159q0 77 33.5 137.5t95 101t130.5 66t159 43.5q27 5 72 13t69.5 12.5t60.5 13.5t55.5 17.5t43.5 22.5t35.5 30.5t20 40.5t8.5 53q0 107 -88 187.5t-226 80.5q-120 0 -206 -68.5t-119 -181.5l-103 35q32 101 103.5 172t156.5 102
t179 31q58 0 114 -12t110 -40t95.5 -69.5t66.5 -105t25 -141.5v-439q0 -131 8.5 -204t28.5 -148h-104q-19 73 -23.5 127.5t8.5 148.5h-20q-58 -145 -167.5 -228t-268.5 -83zM461 53q93 0 175.5 40.5t135.5 102t83 131t30 130.5v190q-47 -56 -96.5 -77.5t-182.5 -45.5
q-43 -8 -67 -13t-71.5 -18t-77 -25.5t-67.5 -34t-59.5 -45.5t-37 -59t-15.5 -75q0 -92 69.5 -146.5t180.5 -54.5z" />
    <glyph glyph-name="b" unicode="b" horiz-adv-x="1372" 
d="M745 -35q-147 0 -265.5 77t-184.5 226h-23q6 -25 9.5 -51t5.5 -44.5t3 -47t1 -41v-44.5v-40h-98v1638h102q0 -30 0.5 -179t0 -212t-4 -182t-10.5 -221h20q69 162 185.5 238.5t258.5 76.5q225 0 375 -167.5t150 -428.5q0 -173 -69 -310t-189 -212.5t-267 -75.5zM735 57
q184 0 305 144t121 362q0 219 -122 362.5t-304 143.5q-120 0 -220 -63.5t-160 -180.5t-60 -264q0 -221 128 -362.5t312 -141.5z" />
    <glyph glyph-name="c" unicode="c" horiz-adv-x="1243" 
d="M655 -35q-246 0 -400.5 166t-154.5 430q0 266 155 432t402 166q101 0 188.5 -29t166.5 -101t123 -183l-101 -35q-45 120 -146 189t-237 69q-199 0 -319.5 -143.5t-120.5 -364.5q0 -225 125.5 -364.5t325.5 -139.5q157 0 267 86.5t167 227.5l92 -29
q-66 -184 -207.5 -280.5t-325.5 -96.5z" />
    <glyph glyph-name="d" unicode="d" horiz-adv-x="1374" 
d="M627 -35q-226 0 -376.5 168t-150.5 428q0 174 70.5 311.5t191 212t269.5 74.5q143 0 259 -77t183 -240h21q-21 336 -17 796h103v-1286q0 -131 8.5 -204t28.5 -148h-105q-36 136 -14 289h-21q-65 -163 -183.5 -243.5t-266.5 -80.5zM637 57q184 0 312 142.5t128 363.5
t-128 363.5t-312 142.5t-305 -144.5t-121 -363.5t122 -361.5t304 -142.5z" />
    <glyph glyph-name="e" unicode="e" horiz-adv-x="1269" 
d="M649 -35q-238 0 -393.5 166.5t-155.5 429.5t155.5 430.5t395.5 167.5q66 0 129 -13t134 -50.5t123.5 -96.5t87 -161t34.5 -234v-49h-948q0 -222 124 -361t320 -139q155 0 264.5 88.5t165.5 227.5l91 -31q-63 -180 -204 -277.5t-323 -97.5zM215 647h832q0 113 -36 198
t-96 132t-127.5 69.5t-140.5 22.5q-173 0 -290 -116t-142 -306z" />
    <glyph glyph-name="f" unicode="f" horiz-adv-x="690" 
d="M330 0h-103q0 676 21 1061q-82 -21 -191 -21v86q113 0 191 -20q-21 78 -21 182q0 51 1 83t7 77t16.5 73.5t31 60t50 49.5t73.5 30t100 12q126 0 217 -57v-100q-100 67 -207 67q-31 0 -55.5 -5t-43 -11.5t-32.5 -21.5t-23 -26.5t-15.5 -35t-9.5 -39t-5 -46t-2 -48.5v-54
q0 -112 -23 -190q137 20 369 20v-86q-225 0 -369 21q23 -367 23 -1061z" />
    <glyph glyph-name="g" unicode="g" horiz-adv-x="1370" 
d="M668 -483q-387 0 -504 331l94 31q42 -126 144.5 -199t267.5 -73q64 0 119 13.5t109 49t92 92t61.5 148.5t23.5 211q0 112 17 170h-21q-69 -139 -186.5 -215t-259.5 -76q-147 0 -268 76t-190 210t-69 298q0 250 152.5 412.5t376.5 162.5q138 0 259 -86t185 -231h21
q-13 104 -13 284h99v-981q0 -628 -510 -628zM635 92q182 0 311 141.5t129 352.5q0 210 -128.5 346.5t-311.5 136.5t-304.5 -140t-121.5 -345q0 -136 55.5 -249t153.5 -178t217 -65z" />
    <glyph glyph-name="h" unicode="h" horiz-adv-x="1292" 
d="M295 0h-102v1638h102q0 -346 -31 -761h21q135 282 417 282q63 0 119.5 -13t112 -46t95.5 -83t64.5 -130t24.5 -182v-705h-100v662q0 91 -19.5 162.5t-51.5 116.5t-76 74.5t-90 41.5t-97 12q-93 0 -169 -39.5t-123 -102.5t-72 -137.5t-25 -148.5v-641z" />
    <glyph glyph-name="i" unicode="i" horiz-adv-x="487" 
d="M244 1440q-43 0 -72 29.5t-29 72.5q0 40 29 68t72 28q41 0 68.5 -28t27.5 -68q0 -43 -27.5 -72.5t-68.5 -29.5zM295 0h-102v1126h102v-1126z" />
    <glyph glyph-name="j" unicode="j" horiz-adv-x="487" 
d="M244 1440q-43 0 -72 29.5t-29 72.5q0 40 29 68t72 28q41 0 68.5 -28t27.5 -68q0 -43 -27.5 -72.5t-68.5 -29.5zM-10 -483q-125 0 -211 59v100q96 -69 194 -69q45 0 81 15.5t58.5 37.5t39 59.5t24 68t12 77t5 72t0.5 67.5v1122h102v-1140q0 -38 -0.5 -60t-3 -65
t-7.5 -70.5t-15.5 -67t-25.5 -65.5t-38.5 -55t-53 -46t-71 -28.5t-90.5 -11.5z" />
    <glyph glyph-name="k" unicode="k" horiz-adv-x="1044" 
d="M295 0h-102v1638h102v-175v-191t-1 -171t-3 -193t-5.5 -173.5t-9.5 -189.5h23q162 177 549 581h129l-440 -436q82 -103 161.5 -208.5t202.5 -272.5t154 -209h-115q-264 352 -461 629q-95 -118 -205 -191q21 -160 21 -438z" />
    <glyph glyph-name="l" unicode="l" horiz-adv-x="487" 
d="M295 0h-102v1638h102v-1638z" />
    <glyph glyph-name="m" unicode="m" horiz-adv-x="2076" 
d="M295 0h-102v1126h98q0 -151 -27 -249h21q136 282 413 282q61 0 116 -15t108.5 -49t92.5 -98t54 -153h21q124 315 409 315q60 0 114.5 -13t108.5 -46t93 -83.5t63.5 -130.5t24.5 -181v-705h-103v662q0 112 -28 194.5t-75.5 127t-101.5 65t-116 20.5q-88 0 -162 -39
t-120.5 -102t-72.5 -137.5t-26 -149.5v-641h-101v662q0 91 -19 162.5t-50 116.5t-74 74.5t-87 41.5t-93 12q-88 0 -161.5 -39t-120 -102t-72 -137.5t-25.5 -149.5v-641z" />
    <glyph glyph-name="n" unicode="n" horiz-adv-x="1292" 
d="M295 0h-102v1126h98q0 -151 -27 -249h21q135 282 420 282q63 0 119.5 -13t111.5 -46t94.5 -83t63.5 -130t24 -182v-705h-100v662q0 91 -19.5 162.5t-51.5 116.5t-76 74.5t-90 41.5t-97 12q-93 0 -169 -39t-123 -102t-72 -137.5t-25 -149.5v-641z" />
    <glyph glyph-name="o" unicode="o" horiz-adv-x="1320" 
d="M662 -35q-248 0 -405 167t-157 429q0 264 157 431t405 167q246 0 402.5 -167t156.5 -431q0 -262 -156.5 -429t-402.5 -167zM662 57q199 0 323.5 140.5t124.5 363.5q0 224 -124.5 366t-323.5 142t-325 -142.5t-126 -365.5t126 -363.5t325 -140.5z" />
    <glyph glyph-name="p" unicode="p" horiz-adv-x="1372" 
d="M295 -451h-102v1577h98q0 -162 -19 -274h23q69 155 187.5 231t262.5 76q225 0 375 -167.5t150 -428.5q0 -173 -69 -310t-189 -212.5t-267 -75.5q-145 0 -262.5 76t-183.5 223h-23q6 -61 9.5 -128t5.5 -115t3 -126t1 -111.5v-123v-111.5zM735 57q184 0 305 144t121 362
q0 219 -122 362.5t-304 143.5q-120 0 -220 -63.5t-160 -180.5t-60 -264q0 -221 128 -362.5t312 -141.5z" />
    <glyph glyph-name="q" unicode="q" horiz-adv-x="1372" 
d="M1180 -451h-103q0 36 -0.5 132.5t0 147.5t1.5 132.5t5 153t11 143.5h-23q-69 -145 -185.5 -219t-258.5 -74q-226 0 -376.5 168.5t-150.5 427.5q0 263 151.5 430.5t377.5 167.5q145 0 264.5 -76t187.5 -231h21q-21 114 -21 274h99v-1577zM637 57q184 0 312 142.5
t128 363.5t-128 363.5t-312 142.5t-305 -144.5t-121 -363.5t122 -361.5t304 -142.5z" />
    <glyph glyph-name="r" unicode="r" horiz-adv-x="827" 
d="M295 0h-102v1126h98q0 -14 1 -59.5t0.5 -70.5t-4.5 -69.5t-12 -88.5h23q42 155 143.5 238t233.5 83q75 0 131 -22v-109q-60 29 -139 29q-85 0 -156.5 -41t-118 -108.5t-72.5 -154t-26 -178.5v-575z" />
    <glyph glyph-name="s" unicode="s" horiz-adv-x="1003" 
d="M530 -35q-160 0 -285 87t-173 229l96 30q44 -111 147 -183.5t217 -72.5q33 0 68 6.5t74 23.5t69 42t50 66t20 92q0 40 -15 72.5t-36 53t-58.5 39t-68 29t-78.5 23.5l-104 28q-29 8 -49.5 14.5t-57.5 21.5t-63.5 30.5t-58.5 41.5t-52 55.5t-33.5 71t-13.5 89.5
q0 62 22 114t58.5 86.5t84 58.5t96.5 35t99 11q137 0 246 -77.5t148 -194.5l-103 -35q-32 92 -112 154.5t-193 62.5q-105 0 -173.5 -56t-68.5 -149q0 -45 19 -82.5t45.5 -61.5t67.5 -45t73 -32t74 -22l110 -33q51 -15 81 -25.5t78 -35t75.5 -52t48.5 -73t21 -101.5
q0 -140 -111.5 -238t-280.5 -98z" />
    <glyph glyph-name="t" unicode="t" horiz-adv-x="751" 
d="M500 -35q-52 0 -92.5 14.5t-66.5 34.5t-44.5 55t-27 62.5t-13.5 71.5t-5.5 67t-0.5 64q0 469 20 725q-101 -21 -245 -21v88q149 0 245 -20q-20 133 -20 360h102q0 -227 -20 -360q139 20 375 20v-88q-229 0 -375 21q20 -248 20 -703q0 -38 0.5 -58.5t3.5 -57.5t8.5 -58.5
t17.5 -48.5t29 -42t43 -25.5t60 -10.5q93 0 193 70v-100q-88 -60 -207 -60z" />
    <glyph glyph-name="u" unicode="u" horiz-adv-x="1273" 
d="M580 -35q-60 0 -115 13.5t-109 46.5t-93.5 83.5t-64 130.5t-24.5 181v706h102v-663q0 -113 29 -195.5t78 -126.5t103.5 -64t115.5 -20q71 0 133 25.5t106 68.5t75.5 98.5t47 115t15.5 118.5v643h100v-774q0 -131 8.5 -204t28.5 -148h-102q-20 75 -24 126.5t9 141.5h-20
q-120 -303 -399 -303z" />
    <glyph glyph-name="v" unicode="v" horiz-adv-x="1093" 
d="M598 0h-102l-459 1126h113q249 -626 389 -1024h20q123 356 385 1024h111z" />
    <glyph glyph-name="w" unicode="w" horiz-adv-x="1847" 
d="M559 0h-98l-420 1126h113q88 -244 125 -346.5t105 -305t120 -374.5h20q114 382 344 1026h109q90 -243 127.5 -346t107 -305.5t121.5 -374.5h21q49 173 113.5 370t105.5 315t121 341h110l-418 -1126h-100q-223 600 -360 1014h-6q-111 -341 -361 -1014z" />
    <glyph glyph-name="x" unicode="x" horiz-adv-x="1024" 
d="M150 0h-113q244 335 418 557v21q-150 187 -420 548h119q245 -333 348 -495h20q27 42 57.5 88t54.5 80t61.5 86t56 77.5t62 84.5t58.5 79h117q-297 -397 -418 -548v-21q145 -185 416 -557h-110q-20 28 -69.5 96.5t-76.5 106.5t-67.5 95.5t-75 109t-66.5 102.5h-20
q-27 -43 -58 -90.5t-54.5 -82t-62 -89t-56.5 -79.5t-63 -88t-58 -81z" />
    <glyph glyph-name="y" unicode="y" horiz-adv-x="1093" 
d="M414 -451h-90l176 443l-463 1134h113q221 -541 389 -1044h20q164 498 387 1044h111z" />
    <glyph glyph-name="z" unicode="z" horiz-adv-x="974" 
d="M926 0h-869v72q53 75 165 233.5t180 254.5t167 232.5t185 251.5l-9 21q-358 -31 -645 -31v92h779v-71q-410 -578 -699 -963l8 -20q262 20 738 20v-92z" />
    <glyph glyph-name="braceleft" unicode="{" horiz-adv-x="722" 
d="M682 -307h-70q-100 0 -173.5 23.5t-116.5 61.5t-68.5 98t-34 120.5t-8.5 140.5v168q0 53 -1.5 93.5t-7 70t-9.5 50t-14.5 33.5t-17.5 20t-23 10t-25.5 3.5t-30.5 0.5v119h25t21.5 1.5t20 5.5t16 10.5t14.5 16.5t11 25t9.5 35.5t6 47.5t4.5 61.5t1 76.5v168
q0 80 8.5 140.5t34 120.5t68.5 98t116.5 61.5t173.5 23.5h70v-90h-68q-87 0 -147 -21.5t-93 -63.5t-47 -94t-14 -122v-215q0 -96 -8 -156t-28 -94t-42.5 -49.5t-62.5 -29.5v-33q40 -14 62.5 -29.5t42.5 -50t28 -94.5t8 -156v-215q0 -70 14 -121.5t47 -93t93 -63t147 -21.5
h68v-92z" />
    <glyph glyph-name="bar" unicode="|" horiz-adv-x="516" 
d="M311 -451h-106v2089h106v-2089z" />
    <glyph glyph-name="braceright" unicode="}" horiz-adv-x="722" 
d="M111 -307h-70v92h68q87 0 147 21.5t93 63t47 93t14 121.5v215q0 96 8 156t28 94.5t42.5 50t62.5 29.5v33q-40 14 -62.5 29.5t-42.5 49.5t-28 94t-8 156v215q0 70 -14 122t-47 94t-93 63.5t-147 21.5h-68v90h70q100 0 173.5 -23.5t116.5 -61.5t68.5 -98t34 -120.5
t8.5 -140.5v-168q0 -42 1 -76.5t4.5 -61.5t6 -47.5t9.5 -35.5t11 -25t14.5 -16.5t16 -10.5t20 -5.5t21.5 -1.5h25v-119q-21 0 -30.5 -0.5t-25.5 -3.5t-23 -10t-17.5 -20t-14.5 -33.5t-9.5 -50t-7 -70t-1.5 -93.5v-168q0 -80 -8.5 -140.5t-34 -120.5t-68.5 -98t-116.5 -61.5
t-173.5 -23.5z" />
    <glyph glyph-name="asciitilde" unicode="~" horiz-adv-x="1048" 
d="M682 594q-52 0 -97 22.5t-71 49t-62.5 49t-74.5 22.5q-55 0 -83 -40.5t-28 -102.5h-98q0 115 65.5 175t155.5 60q42 0 78.5 -14.5t62 -35.5t49 -42.5t51.5 -36t58 -14.5q52 0 77.5 40t25.5 103h96q0 -118 -57.5 -176.5t-147.5 -58.5z" />
    <glyph glyph-name="uni00A0" unicode="&#xa0;" horiz-adv-x="550" 
 />
    <glyph glyph-name="exclamdown" unicode="&#xa1;" horiz-adv-x="481" 
d="M242 965q-41 0 -70 28t-29 68q0 41 29 69.5t70 28.5q40 0 68 -28.5t28 -69.5q0 -40 -28 -68t-68 -28zM305 -451h-129v84l33 1147h63l33 -1147v-84z" />
    <glyph glyph-name="cent" unicode="&#xa2;" horiz-adv-x="1142" 
d="M956 571l78 -26q-51 -143 -158.5 -222t-248.5 -87v-236h-84v238q-180 20 -291 153.5t-111 333.5q0 202 111 335.5t291 153.5v252h84v-247q120 -7 216.5 -69t147.5 -189l-86 -31q-31 89 -104.5 144.5t-173.5 62.5v-822q120 7 202.5 76.5t126.5 179.5zM236 727
q0 -164 84.5 -275t222.5 -133v816q-140 -19 -223.5 -132t-83.5 -276z" />
    <glyph glyph-name="sterling" unicode="&#xa3;" horiz-adv-x="1193" 
d="M1110 0h-1012v104q189 77 297.5 197.5t108.5 257.5q0 72 -49 207q-111 -21 -318 -21v97q165 0 279 -21q-11 14 -42.5 55t-43 56.5t-37 52.5t-36.5 57t-28 54t-24 59.5t-13 58.5t-6 66q0 163 116 256.5t292 93.5q55 0 107.5 -9.5t111.5 -35.5t106.5 -66.5t88 -109
t61.5 -156.5l-96 -41q-26 88 -68.5 152.5t-94.5 99.5t-106 51.5t-112 16.5q-124 0 -208.5 -66t-84.5 -186q0 -58 22.5 -120t52 -108.5t69 -112.5t61.5 -118q176 21 459 21v-97q-247 0 -428 21q77 -90 77 -191q0 -137 -86 -263t-245 -210l20 -20q258 22 809 22v-104z" />
    <glyph glyph-name="currency" unicode="&#xa4;" horiz-adv-x="1349" 
d="M1051 819q0 -159 -90 -266l276 -326l-74 -65l-276 327q-88 -57 -211 -57q-124 0 -215 60l-277 -330l-73 65l278 328q-90 107 -90 264q0 159 88 264l-276 330l73 66l277 -328q89 59 215 59q124 0 213 -59l274 328l74 -66l-274 -328q88 -109 88 -266zM399 819
q0 -133 76 -218t201 -85q126 0 200 84.5t74 218.5q0 136 -74 220.5t-200 84.5q-125 0 -201 -85t-76 -220z" />
    <glyph glyph-name="yen" unicode="&#xa5;" horiz-adv-x="1443" 
d="M774 0h-108q0 193 22 305q-147 -20 -393 -20v98q239 0 393 -21q-32 125 0 250q-147 -20 -393 -20v98q209 0 338 -20q-315 502 -567 927h118q432 -725 535 -903h6q186 317 539 903h114q-328 -547 -569 -927q127 20 342 20v-98q-252 0 -397 20q28 -125 0 -250
q152 21 397 21v-98q-252 0 -397 20q20 -117 20 -305z" />
    <glyph glyph-name="brokenbar" unicode="&#xa6;" horiz-adv-x="516" 
d="M311 840h-106v798h106v-798zM311 -451h-106v791h106v-791z" />
    <glyph glyph-name="section" unicode="&#xa7;" horiz-adv-x="1085" 
d="M555 -301q-164 0 -292 97.5t-173 248.5l94 29q44 -119 149.5 -202t223.5 -83q42 0 85.5 11.5t86 35t69.5 69.5t27 107q0 30 -7 54.5t-17 42.5t-30.5 35t-36.5 27t-47 22.5t-50 19t-57 18.5l-103 33q-33 11 -49 17t-55 23.5t-62 32.5t-55.5 42.5t-50.5 56t-31.5 69.5
t-13.5 87q0 105 62.5 172t168.5 86v29q-94 30 -152.5 95.5t-58.5 166.5q0 78 33 138.5t87.5 96t118.5 53t132 17.5q64 0 120 -14.5t109 -48t94 -95t64 -147.5l-102 -31q-37 129 -106 187.5t-189 58.5q-115 0 -185.5 -55t-70.5 -150q0 -37 11 -68.5t34.5 -55.5t45.5 -41.5
t59 -33.5t58.5 -24t59.5 -21l129 -43q114 -39 163 -73q109 -75 109 -205q0 -101 -61.5 -179.5t-175.5 -109.5v-25q221 -52 221 -243q0 -137 -109.5 -233.5t-273.5 -96.5zM532 356l56 -18q34 3 67 11t68.5 25.5t62 42t43.5 63t17 85.5q0 34 -8 61t-27 48t-37.5 35.5
t-51.5 28.5t-56 22t-64 20l-84 27q-102 32 -177 -36.5t-75 -168.5q0 -167 266 -246z" />
    <glyph glyph-name="copyright" unicode="&#xa9;" horiz-adv-x="1945" 
d="M973 -35q-184 0 -341.5 65.5t-264.5 178.5t-167.5 265.5t-60.5 324.5q0 171 60.5 323.5t167.5 264.5t264.5 177.5t341.5 65.5q183 0 340 -65.5t264 -177.5t167 -264.5t60 -323.5q0 -172 -60 -324.5t-167 -265.5t-264 -178.5t-340 -65.5zM973 70q215 0 383 99t257 264
t89 366q0 149 -52.5 282t-145.5 232t-231 157t-300 58t-300 -58t-231 -157t-145.5 -232t-52.5 -282q0 -201 89 -366t257 -264t383 -99zM979 350q-186 0 -302 124.5t-116 322.5q0 200 116.5 325t301.5 125q134 0 230.5 -65.5t138.5 -188.5l-99 -32q-31 93 -102 143.5
t-170 50.5q-136 0 -221.5 -100t-85.5 -258q0 -159 87.5 -256t227.5 -97q107 0 188.5 60.5t120.5 173.5l90 -29q-46 -141 -153 -220t-252 -79z" />
    <glyph glyph-name="guillemotleft" unicode="&#xab;" horiz-adv-x="1101" 
d="M582 164h-123l-346 405v9l346 405h123q-77 -90 -119.5 -139t-113 -120.5t-134.5 -125.5v-49q64 -54 134.5 -125.5t113 -120.5t119.5 -139zM956 164h-122l-345 405v9l345 405h122q-219 -262 -366 -385v-49q147 -123 366 -385z" />
    <glyph glyph-name="logicalnot" unicode="&#xac;" horiz-adv-x="1030" 
d="M864 276h-100v304h-602v98h702v-402z" />
    <glyph glyph-name="registered" unicode="&#xae;" horiz-adv-x="1173" 
d="M588 743q-194 0 -321.5 127.5t-127.5 319.5t127 318t322 126q192 0 318 -126.5t126 -317.5q0 -192 -126 -319.5t-318 -127.5zM588 815q161 0 267 106t106 269q0 161 -106 267t-267 106q-164 0 -270.5 -105t-106.5 -268q0 -164 106.5 -269.5t270.5 -105.5zM504 946h-72
v494h178q75 0 121.5 -42t46.5 -110q0 -57 -29.5 -96t-80.5 -53l131 -193h-84l-125 184h-86v-184zM504 1370v-172h104q46 0 71.5 23t25.5 65q0 40 -27 62t-74 22h-100z" />
    <glyph glyph-name="degree" unicode="&#xb0;" horiz-adv-x="788" 
d="M395 1057q-128 0 -210.5 84.5t-82.5 212.5q0 127 83 211t210 84q125 0 208 -85t83 -210q0 -127 -83 -212t-208 -85zM395 1135q87 0 144 62.5t57 156.5q0 91 -57 153t-144 62t-144.5 -62t-57.5 -153q0 -93 57 -156t145 -63z" />
    <glyph glyph-name="plusminus" unicode="&#xb1;" horiz-adv-x="1028" 
d="M866 766v-96h-303v-213h303v-90h-704v90h303v213h-303v96h303v250h98v-250h303z" />
    <glyph glyph-name="uni00B2" unicode="&#xb2;" horiz-adv-x="620" 
d="M541 821h-455v8q4 50 16 87.5t25.5 63.5t46 56t58 48.5t81.5 56.5q27 20 43 32.5t40.5 37.5t37 53t12.5 59q0 52 -38 86.5t-97 34.5q-69 0 -114 -48t-45 -124l-78 12q0 103 66.5 169.5t170.5 66.5q96 0 160 -55.5t64 -143.5q0 -68 -36 -116t-100 -95q-20 -14 -55.5 -38.5
t-53 -38t-40.5 -34.5t-35.5 -45t-19.5 -53h346v-80z" />
    <glyph glyph-name="uni00B3" unicode="&#xb3;" horiz-adv-x="630" 
d="M311 807q-89 0 -156 43t-89 115l73 34q21 -55 65.5 -87.5t106.5 -32.5q64 0 107 37t43 96q0 58 -43 92.5t-121 34.5h-68v65h74q65 0 103 33.5t38 87.5t-40.5 87.5t-100.5 33.5q-58 0 -98 -33.5t-49 -91.5l-76 14q10 83 75 134t154 51q92 0 155.5 -49.5t63.5 -129.5
q0 -56 -31 -102t-83 -59q60 -12 97.5 -56.5t37.5 -109.5q0 -84 -65 -145.5t-173 -61.5z" />
    <glyph glyph-name="paragraph" unicode="&#xb6;" horiz-adv-x="1419" 
d="M911 -287h-108v942h-252q-213 0 -344 133.5t-131 346.5q0 98 33.5 181.5t97 146t162 98.5t221.5 36h321v-1884zM1176 -287h-109v1884h109v-1884z" />
    <glyph glyph-name="periodcentered" unicode="&#xb7;" horiz-adv-x="538" 
d="M270 477q-51 0 -84.5 35.5t-33.5 87.5q0 50 33.5 83.5t84.5 33.5q50 0 83.5 -33.5t33.5 -83.5q0 -51 -34 -87t-83 -36z" />
    <glyph glyph-name="uni00B9" unicode="&#xb9;" horiz-adv-x="428" 
d="M287 821h-84v529q-52 -69 -152 -84v82q68 15 112 59t44 98h80v-684z" />
    <glyph glyph-name="guillemotright" unicode="&#xbb;" horiz-adv-x="1101" 
d="M612 569l-344 -405h-125q72 84 119 137.5t116.5 123.5t133.5 124v49q-92 77 -175.5 166.5t-193.5 218.5h125l344 -405v-9zM987 569l-344 -405h-123q217 259 367 385v49q-150 126 -367 385h123l344 -405v-9z" />
    <glyph glyph-name="onequarter" unicode="&#xbc;" horiz-adv-x="1273" 
d="M287 821h-84v529q-52 -69 -152 -84v82q68 15 112 59t44 98h80v-684zM47 0h-98l1138 1468h91zM1108 -14h-82v161h-344v76l344 447h82v-451h98v-72h-98v-161zM1026 557l-260 -338h260v338z" />
    <glyph glyph-name="onehalf" unicode="&#xbd;" horiz-adv-x="1302" 
d="M287 821h-84v529q-52 -69 -152 -84v82q68 15 112 59t44 98h80v-684zM47 0h-98l1138 1468h91zM1223 -14h-455v8q4 50 16 87.5t25.5 63t46.5 55.5t58 48.5t81 56.5q27 20 43 32.5t40.5 37.5t37 53t12.5 59q0 52 -38 86.5t-97 34.5q-69 0 -114 -48t-45 -124l-78 13
q0 103 66.5 169t170.5 66q96 0 160 -55.5t64 -143.5q0 -68 -36 -116t-100 -95q-20 -15 -55.5 -38.5t-53.5 -37t-40.5 -35t-35 -45t-19.5 -52.5h346v-80z" />
    <glyph glyph-name="threequarters" unicode="&#xbe;" horiz-adv-x="1476" 
d="M311 807q-89 0 -156 43t-89 115l73 34q21 -55 65.5 -87.5t106.5 -32.5q64 0 107 37t43 96q0 58 -43 92.5t-121 34.5h-68v65h74q65 0 103 33.5t38 87.5t-40.5 87.5t-100.5 33.5q-58 0 -98 -33.5t-49 -91.5l-76 14q10 83 75 134t154 51q92 0 155.5 -49.5t63.5 -129.5
q0 -56 -31 -102t-83 -59q60 -12 97.5 -56.5t37.5 -109.5q0 -84 -65 -145.5t-173 -61.5zM250 0h-98l1138 1468h90zM1311 -14h-82v161h-344v76l344 447h82v-451h98v-72h-98v-161zM1229 557l-260 -338h260v338z" />
    <glyph glyph-name="questiondown" unicode="&#xbf;" horiz-adv-x="1034" 
d="M573 965q-40 0 -68 28t-28 68q0 41 28 69.5t68 28.5q41 0 69 -28.5t28 -69.5q0 -40 -28 -68t-69 -28zM518 -485q-86 0 -165 28t-141 78.5t-99 128.5t-37 170q0 73 24 141t69.5 127.5t91 104t108.5 96.5q51 42 77.5 66t55.5 60t41 75t12 88q0 33 -2 51h98q4 -40 4 -61
q0 -47 -12 -88t-28 -70.5t-52 -67t-62 -60t-81 -67.5q-115 -95 -175.5 -187t-60.5 -200q0 -146 99.5 -232.5t238.5 -86.5q89 0 166.5 38t128.5 117.5t51 184.5q0 35 -6 69l94 -16q7 -44 7 -72q0 -124 -63 -220t-163.5 -145.5t-218.5 -49.5z" />
    <glyph glyph-name="Agrave" unicode="&#xc0;" horiz-adv-x="1499" 
d="M823 1720h-94l-342 316h170zM150 0h-115l657 1597h113l657 -1597h-114q-58 140 -83.5 202.5t-67.5 179.5t-69 216l-18 16q-244 -22 -346 -22q-154 0 -365 22l-22 -18q-81 -241 -227 -596zM416 690l12 -20q230 20 336 20q117 0 301 -20l12 18q-187 407 -307 793h-43
q-117 -367 -311 -791z" />
    <glyph glyph-name="Aacute" unicode="&#xc1;" horiz-adv-x="1499" 
d="M1112 2036l-342 -316h-94l266 316h170zM150 0h-115l657 1597h113l657 -1597h-114q-58 140 -83.5 202.5t-67.5 179.5t-69 216l-18 16q-244 -22 -346 -22q-154 0 -365 22l-22 -18q-81 -241 -227 -596zM416 690l12 -20q230 20 336 20q117 0 301 -20l12 18q-187 407 -307 793
h-43q-117 -367 -311 -791z" />
    <glyph glyph-name="Acircumflex" unicode="&#xc2;" horiz-adv-x="1499" 
d="M506 1720h-94l262 297h147l264 -297h-96q-113 107 -157 160q-34 41 -62 84h-43q-31 -48 -72.5 -95.5t-68 -73t-80.5 -75.5zM150 0h-115l657 1597h113l657 -1597h-114q-58 140 -83.5 202.5t-67.5 179.5t-69 216l-18 16q-244 -22 -346 -22q-154 0 -365 22l-22 -18
q-81 -241 -227 -596zM416 690l12 -20q230 20 336 20q117 0 301 -20l12 18q-187 407 -307 793h-43q-117 -367 -311 -791z" />
    <glyph glyph-name="Atilde" unicode="&#xc3;" horiz-adv-x="1499" 
d="M903 1753q-39 0 -72.5 13.5t-48.5 25.5t-47 41l-37 31q-2 2 -9 8t-9.5 8t-9 7.5t-9.5 7.5t-9.5 6.5t-10.5 6t-10 4.5t-11 4t-11.5 2t-12.5 1q-50 0 -82.5 -43.5t-32.5 -108.5h-80q1 103 57 167.5t142 64.5q43 0 76.5 -18t71.5 -52l43 -37q63 -59 116 -59q51 0 80 42.5
t29 109.5h80q0 -105 -51 -168.5t-142 -63.5zM150 0h-115l657 1597h113l657 -1597h-114q-58 140 -83.5 202.5t-67.5 179.5t-69 216l-18 16q-244 -22 -346 -22q-154 0 -365 22l-22 -18q-81 -241 -227 -596zM416 690l12 -20q230 20 336 20q117 0 301 -20l12 18
q-187 407 -307 793h-43q-117 -367 -311 -791z" />
    <glyph glyph-name="Adieresis" unicode="&#xc4;" horiz-adv-x="1499" 
d="M557 1798q-38 0 -65 28t-27 68q0 37 27 64t65 27q39 0 65.5 -27t26.5 -64q0 -40 -26.5 -68t-65.5 -28zM938 1798q-41 0 -66.5 27.5t-25.5 68.5q0 38 26 64.5t66 26.5q38 0 65 -27t27 -64q0 -40 -27 -68t-65 -28zM150 0h-115l657 1597h113l657 -1597h-114
q-58 140 -83.5 202.5t-67.5 179.5t-69 216l-18 16q-244 -22 -346 -22q-154 0 -365 22l-22 -18q-81 -241 -227 -596zM416 690l12 -20q230 20 336 20q117 0 301 -20l12 18q-187 407 -307 793h-43q-117 -367 -311 -791z" />
    <glyph glyph-name="Aring" unicode="&#xc5;" horiz-adv-x="1499" 
d="M750 1716q-95 0 -157.5 60.5t-62.5 154.5q0 91 62.5 151t157.5 60q93 0 155 -60t62 -151q0 -93 -62 -154t-155 -61zM750 1796q59 0 98 36t39 99q0 59 -39 94t-98 35q-61 0 -101.5 -35t-40.5 -94q0 -63 40 -99t102 -36zM150 0h-115l657 1597h113l657 -1597h-114
q-58 140 -83.5 202.5t-67.5 179.5t-69 216l-18 16q-244 -22 -346 -22q-154 0 -365 22l-22 -18q-81 -241 -227 -596zM416 690l12 -20q230 20 336 20q117 0 301 -20l12 18q-187 407 -307 793h-43q-117 -367 -311 -791z" />
    <glyph glyph-name="AE" unicode="&#xc6;" horiz-adv-x="2099" 
d="M78 0h-115l950 1597h1055v-98q-577 0 -917 31q41 -319 10 -680q301 22 866 22v-98q-535 0 -866 21q29 -353 0 -721q156 14 341.5 21t286.5 8t300 1v-104h-1016q0 393 10 614q-282 -34 -565 0q-22 -46 -44 -90t-51 -97t-44.5 -81.5t-52.5 -93t-46 -79.5t-54 -91.5
t-48 -81.5zM469 672q266 26 524 -2q-26 381 -10 852h-41q-88 -197 -198 -391t-275 -459z" />
    <glyph glyph-name="Ccedilla" unicode="&#xc7;" horiz-adv-x="1726" 
d="M918 -35h-3q-52 -77 -104 -129l6 -6q44 20 96 20q80 0 130.5 -43.5t50.5 -113.5q0 -78 -61 -128t-154 -50q-70 0 -136.5 29t-109.5 79l49 45q33 -40 85 -65t105 -25q61 0 102.5 32t41.5 79q0 46 -36.5 75t-92.5 29t-99 -24l-49 47l101 153q-213 17 -378 125.5t-256 289.5
t-91 407q0 183 61.5 340.5t168 266.5t252.5 170.5t312 61.5q110 0 215.5 -27.5t200 -81.5t168.5 -144t111 -206l-95 -38q-74 188 -237 291.5t-361 103.5q-109 0 -210 -31.5t-186 -94.5t-148.5 -150.5t-99.5 -206t-36 -254.5q0 -141 39 -261t106.5 -204t157.5 -143t191 -87
t209 -28q130 0 240.5 41t188 112.5t130 159.5t80.5 190l96 -34q-36 -120 -99 -220.5t-154 -180.5t-219 -125.5t-279 -45.5z" />
    <glyph glyph-name="Egrave" unicode="&#xc8;" horiz-adv-x="1353" 
d="M764 1720h-94l-342 316h170zM1243 0h-1016v1597h996v-98q-44 0 -206.5 -1t-237 -0.5t-204.5 6t-241 16.5l-21 -19q33 -299 4 -627l17 -22q303 20 848 20v-98q-532 0 -848 21l-17 -23q29 -350 -4 -674l21 -20q150 13 326 19t275 6.5t308 0.5v-104z" />
    <glyph glyph-name="Eacute" unicode="&#xc9;" horiz-adv-x="1353" 
d="M1051 2036l-342 -316h-95l267 316h170zM1243 0h-1016v1597h996v-98q-44 0 -206.5 -1t-237 -0.5t-204.5 6t-241 16.5l-21 -19q33 -299 4 -627l17 -22q303 20 848 20v-98q-532 0 -848 21l-17 -23q29 -350 -4 -674l21 -20q150 13 326 19t275 6.5t308 0.5v-104z" />
    <glyph glyph-name="Ecircumflex" unicode="&#xca;" horiz-adv-x="1353" 
d="M444 1720h-94l262 297h148l264 -297h-96q-113 107 -157 160q-34 41 -62 84h-43q-31 -47 -73.5 -95.5t-67 -72.5t-81.5 -76zM1243 0h-1016v1597h996v-98q-44 0 -206.5 -1t-237 -0.5t-204.5 6t-241 16.5l-21 -19q33 -299 4 -627l17 -22q303 20 848 20v-98q-532 0 -848 21
l-17 -23q29 -350 -4 -674l21 -20q150 13 326 19t275 6.5t308 0.5v-104z" />
    <glyph glyph-name="Edieresis" unicode="&#xcb;" horiz-adv-x="1353" 
d="M498 1798q-38 0 -65 28t-27 68q0 37 27 64t65 27q39 0 65.5 -27t26.5 -64q0 -40 -26.5 -68t-65.5 -28zM879 1798q-41 0 -67 28t-26 68q0 38 26.5 64.5t66.5 26.5q38 0 65 -27t27 -64q0 -40 -27 -68t-65 -28zM1243 0h-1016v1597h996v-98q-44 0 -206.5 -1t-237 -0.5
t-204.5 6t-241 16.5l-21 -19q33 -299 4 -627l17 -22q303 20 848 20v-98q-532 0 -848 21l-17 -23q29 -350 -4 -674l21 -20q150 13 326 19t275 6.5t308 0.5v-104z" />
    <glyph glyph-name="Igrave" unicode="&#xcc;" horiz-adv-x="563" 
d="M356 1720h-94l-342 316h170zM336 0h-109v1597h109v-1597z" />
    <glyph glyph-name="Iacute" unicode="&#xcd;" horiz-adv-x="563" 
d="M645 2036l-342 -316h-94l266 316h170zM336 0h-109v1597h109v-1597z" />
    <glyph glyph-name="Icircumflex" unicode="&#xce;" horiz-adv-x="563" 
d="M39 1720h-94l262 297h147l264 -297h-96q-113 107 -157 160q-34 41 -62 84h-43q-31 -48 -72.5 -95.5t-68 -73t-80.5 -75.5zM336 0h-109v1597h109v-1597z" />
    <glyph glyph-name="Idieresis" unicode="&#xcf;" horiz-adv-x="563" 
d="M90 1798q-38 0 -65 28t-27 68q0 37 27 64t65 27q39 0 65.5 -27t26.5 -64q0 -40 -26.5 -68t-65.5 -28zM471 1798q-41 0 -66.5 27.5t-25.5 68.5q0 38 26 64.5t66 26.5q38 0 65 -27t27 -64q0 -40 -27 -68t-65 -28zM336 0h-109v1597h109v-1597z" />
    <glyph glyph-name="Eth" unicode="&#xd0;" horiz-adv-x="1652" 
d="M227 1597h549q156 0 283 -40.5t214.5 -112t146.5 -171.5t86.5 -216t27.5 -248q0 -238 -87 -420t-255.5 -285.5t-396.5 -103.5h-568v752h-164v92h164v753zM813 98q283 0 445.5 191.5t162.5 507.5q0 212 -74.5 368.5t-226 245t-366.5 88.5q-260 0 -420 21l-21 -19
q17 -372 17 -657h585v-92h-585q0 -278 -17 -654l21 -20q172 20 479 20z" />
    <glyph glyph-name="Ntilde" unicode="&#xd1;" horiz-adv-x="1695" 
d="M981 1812q-39 0 -72.5 13.5t-48.5 25.5t-47 41l-37 31q-2 2 -9 8t-9.5 8t-9 7.5t-9.5 7.5t-9.5 6.5t-10.5 6t-10 4.5t-11 4t-11.5 2t-12.5 1q-51 0 -83 -43t-32 -108h-80q1 103 57 167t142 64q43 0 76 -17.5t71 -51.5l43 -37q64 -60 117 -60q51 0 80 42.5t29 109.5h80
q0 -105 -51 -168.5t-142 -63.5zM336 0h-109v1597h101q486 -649 1038 -1452h20q-7 119 -12.5 254t-8 227.5t-4 258.5t-1.5 224.5v256v231.5h108v-1597h-100q-551 736 -1036 1432h-21q7 -117 12.5 -247.5t8 -229.5t3.5 -249.5t1.5 -227t0 -247.5t-0.5 -231z" />
    <glyph glyph-name="Ograve" unicode="&#xd2;" horiz-adv-x="1826" 
d="M987 1720h-94l-342 316h170zM913 -35q-162 0 -309.5 63.5t-255.5 172.5t-171.5 264.5t-63.5 331.5q0 175 63 330.5t170.5 265.5t255 173.5t311.5 63.5q222 0 406 -111t289.5 -302.5t105.5 -419.5q0 -230 -107 -421.5t-291 -301t-403 -109.5zM915 68q135 0 259 55t217 150
t148.5 232t55.5 292q0 156 -55.5 293.5t-148.5 232.5t-217 150t-259 55q-136 0 -261.5 -55t-219 -150t-149.5 -232.5t-56 -293.5q0 -155 56 -292t149.5 -232t219 -150t261.5 -55z" />
    <glyph glyph-name="Oacute" unicode="&#xd3;" horiz-adv-x="1826" 
d="M1276 2036l-342 -316h-94l266 316h170zM913 -35q-162 0 -309.5 63.5t-255.5 172.5t-171.5 264.5t-63.5 331.5q0 175 63 330.5t170.5 265.5t255 173.5t311.5 63.5q222 0 406 -111t289.5 -302.5t105.5 -419.5q0 -230 -107 -421.5t-291 -301t-403 -109.5zM915 68
q135 0 259 55t217 150t148.5 232t55.5 292q0 156 -55.5 293.5t-148.5 232.5t-217 150t-259 55q-136 0 -261.5 -55t-219 -150t-149.5 -232.5t-56 -293.5q0 -155 56 -292t149.5 -232t219 -150t261.5 -55z" />
    <glyph glyph-name="Ocircumflex" unicode="&#xd4;" horiz-adv-x="1826" 
d="M670 1720h-95l263 297h147l264 -297h-96q-113 107 -157 160q-34 41 -62 84h-43q-31 -48 -72.5 -95.5t-68 -73t-80.5 -75.5zM913 -35q-162 0 -309.5 63.5t-255.5 172.5t-171.5 264.5t-63.5 331.5q0 175 63 330.5t170.5 265.5t255 173.5t311.5 63.5q222 0 406 -111
t289.5 -302.5t105.5 -419.5q0 -230 -107 -421.5t-291 -301t-403 -109.5zM915 68q135 0 259 55t217 150t148.5 232t55.5 292q0 156 -55.5 293.5t-148.5 232.5t-217 150t-259 55q-136 0 -261.5 -55t-219 -150t-149.5 -232.5t-56 -293.5q0 -155 56 -292t149.5 -232t219 -150
t261.5 -55z" />
    <glyph glyph-name="Otilde" unicode="&#xd5;" horiz-adv-x="1826" 
d="M1067 1812q-39 0 -72.5 13.5t-48.5 25.5t-47 41l-37 31q-2 2 -9 8t-9.5 8t-9 7.5t-9.5 7.5t-9.5 6.5t-10.5 6t-10 4.5t-11 4t-11.5 2t-12.5 1q-51 0 -83 -43t-32 -108h-80q1 103 57 167t142 64q43 0 76 -17.5t71 -51.5l43 -37q64 -60 117 -60q51 0 80 42.5t29 109.5h80
q0 -105 -51 -168.5t-142 -63.5zM913 -35q-162 0 -309.5 63.5t-255.5 172.5t-171.5 264.5t-63.5 331.5q0 175 63 330.5t170.5 265.5t255 173.5t311.5 63.5q222 0 406 -111t289.5 -302.5t105.5 -419.5q0 -230 -107 -421.5t-291 -301t-403 -109.5zM915 68q135 0 259 55t217 150
t148.5 232t55.5 292q0 156 -55.5 293.5t-148.5 232.5t-217 150t-259 55q-136 0 -261.5 -55t-219 -150t-149.5 -232.5t-56 -293.5q0 -155 56 -292t149.5 -232t219 -150t261.5 -55z" />
    <glyph glyph-name="Odieresis" unicode="&#xd6;" horiz-adv-x="1826" 
d="M721 1798q-38 0 -65 28t-27 68q0 37 27 64t65 27q39 0 65.5 -27t26.5 -64q0 -40 -26.5 -68t-65.5 -28zM1102 1798q-41 0 -66.5 27.5t-25.5 68.5q0 38 26 64.5t66 26.5q38 0 65 -27t27 -64q0 -40 -27 -68t-65 -28zM913 -35q-162 0 -309.5 63.5t-255.5 172.5t-171.5 264.5
t-63.5 331.5q0 175 63 330.5t170.5 265.5t255 173.5t311.5 63.5q222 0 406 -111t289.5 -302.5t105.5 -419.5q0 -230 -107 -421.5t-291 -301t-403 -109.5zM915 68q135 0 259 55t217 150t148.5 232t55.5 292q0 156 -55.5 293.5t-148.5 232.5t-217 150t-259 55
q-136 0 -261.5 -55t-219 -150t-149.5 -232.5t-56 -293.5q0 -155 56 -292t149.5 -232t219 -150t261.5 -55z" />
    <glyph glyph-name="multiply" unicode="&#xd7;" horiz-adv-x="903" 
d="M385 625l-223 221l69 72l224 -222l213 213l69 -69l-213 -213l221 -224l-71 -69l-221 221l-215 -215l-68 70z" />
    <glyph glyph-name="Oslash" unicode="&#xd8;" horiz-adv-x="1826" 
d="M1565 1661l-146 -213q138 -118 216.5 -287.5t78.5 -363.5q0 -230 -107 -421.5t-291 -301t-403 -109.5q-232 0 -426 123l-106 -154h-123l148 216q-137 115 -215 282.5t-78 364.5q0 175 63 330.5t170.5 265.5t255 173.5t311.5 63.5q231 0 422 -123l105 154h125zM229 797
q0 -168 64 -312t176 -243l805 1177q-162 109 -359 109q-136 0 -261.5 -55t-219 -150t-149.5 -232.5t-56 -293.5zM915 68q135 0 259 55t217 150t148.5 232t55.5 292q0 171 -63.5 315.5t-175.5 243.5l-807 -1178q167 -110 366 -110z" />
    <glyph glyph-name="Ugrave" unicode="&#xd9;" horiz-adv-x="1544" 
d="M846 1720h-94l-342 316h170zM766 -35q-127 0 -228 35.5t-175.5 107.5t-115 188.5t-40.5 270.5v1030h108v-1024q0 -136 33 -235.5t95 -159t143.5 -87.5t185.5 -28t185.5 28t143.5 87.5t95 159t33 235.5v1024h108v-1030q0 -281 -145.5 -441.5t-425.5 -160.5z" />
    <glyph glyph-name="Uacute" unicode="&#xda;" horiz-adv-x="1544" 
d="M1075 2036l-342 -316h-94l266 316h170zM766 -35q-127 0 -228 35.5t-175.5 107.5t-115 188.5t-40.5 270.5v1030h108v-1024q0 -136 33 -235.5t95 -159t143.5 -87.5t185.5 -28t185.5 28t143.5 87.5t95 159t33 235.5v1024h108v-1030q0 -281 -145.5 -441.5t-425.5 -160.5z" />
    <glyph glyph-name="Ucircumflex" unicode="&#xdb;" horiz-adv-x="1544" 
d="M528 1720h-94l262 297h148l264 -297h-96q-113 107 -157 160q-34 41 -62 84h-43q-31 -47 -73.5 -95.5t-67 -72.5t-81.5 -76zM766 -35q-127 0 -228 35.5t-175.5 107.5t-115 188.5t-40.5 270.5v1030h108v-1024q0 -136 33 -235.5t95 -159t143.5 -87.5t185.5 -28t185.5 28
t143.5 87.5t95 159t33 235.5v1024h108v-1030q0 -281 -145.5 -441.5t-425.5 -160.5z" />
    <glyph glyph-name="Udieresis" unicode="&#xdc;" horiz-adv-x="1544" 
d="M582 1798q-38 0 -65.5 28t-27.5 68q0 37 27.5 64t65.5 27q39 0 65.5 -27t26.5 -64q0 -40 -26.5 -68t-65.5 -28zM963 1798q-41 0 -67 28t-26 68q0 38 26.5 64.5t66.5 26.5q38 0 65 -27t27 -64q0 -40 -27 -68t-65 -28zM766 -35q-127 0 -228 35.5t-175.5 107.5t-115 188.5
t-40.5 270.5v1030h108v-1024q0 -136 33 -235.5t95 -159t143.5 -87.5t185.5 -28t185.5 28t143.5 87.5t95 159t33 235.5v1024h108v-1030q0 -281 -145.5 -441.5t-425.5 -160.5z" />
    <glyph glyph-name="Yacute" unicode="&#xdd;" horiz-adv-x="1406" 
d="M1065 2036l-342 -316h-94l266 316h170zM756 0h-109q0 395 12 594q-219 347 -614 1003h121q361 -610 526 -925h23q27 53 55 105t60 109.5t55.5 100t61.5 107.5t57 98t62 105.5t57.5 96.5t63 105t58.5 98h115q-413 -686 -615 -1003q11 -219 11 -594z" />
    <glyph glyph-name="Thorn" unicode="&#xde;" horiz-adv-x="1392" 
d="M336 0h-109v1597h109q0 -99 -17 -286h455q240 0 378 -129.5t138 -333.5q0 -217 -133.5 -349t-343.5 -132q-133 0 -190.5 1t-144 8t-161.5 23q19 -209 19 -399zM315 467l19 -23q168 21 438 21q194 0 300 98.5t106 274.5q0 173 -114.5 274.5t-309.5 101.5q-260 0 -420 19
l-21 -19q31 -392 2 -747z" />
    <glyph glyph-name="germandbls" unicode="&#xdf;" horiz-adv-x="1239" 
d="M295 0h-102v1194q0 31 1 56.5t10 78t24.5 93.5t48.5 90.5t78 82.5t117 55.5t161 22.5q217 0 338 -117t121 -303q0 -160 -84.5 -266.5t-221.5 -118.5v-22q163 -13 258 -115t95 -262q0 -96 -36.5 -181.5t-102.5 -149t-165.5 -101t-218.5 -37.5h-145v88h152q176 0 290.5 105
t114.5 268q0 150 -97.5 250t-250.5 100h-96v86h94q137 0 220 91.5t83 246.5q0 71 -19 131.5t-58.5 109.5t-107.5 77t-159 28q-71 0 -128 -17.5t-93 -48t-61 -66.5t-37.5 -79t-17.5 -78t-5 -71v-1221z" />
    <glyph glyph-name="agrave" unicode="&#xe0;" horiz-adv-x="1169" 
d="M645 1278h-90l-311 395h151zM455 -35q-98 0 -176 30t-127.5 96t-49.5 159q0 77 33.5 137.5t95 101t130.5 66t159 43.5q27 5 72 13t69.5 12.5t60.5 13.5t55.5 17.5t43.5 22.5t35.5 30.5t20 40.5t8.5 53q0 107 -88 187.5t-226 80.5q-120 0 -206 -68.5t-119 -181.5l-103 35
q32 101 103.5 172t156.5 102t179 31q58 0 114 -12t110 -40t95.5 -69.5t66.5 -105t25 -141.5v-439q0 -131 8.5 -204t28.5 -148h-104q-19 73 -23.5 127.5t8.5 148.5h-20q-58 -145 -167.5 -228t-268.5 -83zM461 53q93 0 175.5 40.5t135.5 102t83 131t30 130.5v190
q-47 -56 -96.5 -77.5t-182.5 -45.5q-43 -8 -67 -13t-71.5 -18t-77 -25.5t-67.5 -34t-59.5 -45.5t-37 -59t-15.5 -75q0 -92 69.5 -146.5t180.5 -54.5z" />
    <glyph glyph-name="aacute" unicode="&#xe1;" horiz-adv-x="1169" 
d="M944 1673l-311 -395h-90l252 395h149zM455 -35q-98 0 -176 30t-127.5 96t-49.5 159q0 77 33.5 137.5t95 101t130.5 66t159 43.5q27 5 72 13t69.5 12.5t60.5 13.5t55.5 17.5t43.5 22.5t35.5 30.5t20 40.5t8.5 53q0 107 -88 187.5t-226 80.5q-120 0 -206 -68.5t-119 -181.5
l-103 35q32 101 103.5 172t156.5 102t179 31q58 0 114 -12t110 -40t95.5 -69.5t66.5 -105t25 -141.5v-439q0 -131 8.5 -204t28.5 -148h-104q-19 73 -23.5 127.5t8.5 148.5h-20q-58 -145 -167.5 -228t-268.5 -83zM461 53q93 0 175.5 40.5t135.5 102t83 131t30 130.5v190
q-47 -56 -96.5 -77.5t-182.5 -45.5q-43 -8 -67 -13t-71.5 -18t-77 -25.5t-67.5 -34t-59.5 -45.5t-37 -59t-15.5 -75q0 -92 69.5 -146.5t180.5 -54.5z" />
    <glyph glyph-name="acircumflex" unicode="&#xe2;" horiz-adv-x="1169" 
d="M317 1278h-96l297 354h152l297 -354h-99q-59 59 -91.5 92.5t-79 89.5t-79.5 107h-49q-80 -124 -252 -289zM455 -35q-98 0 -176 30t-127.5 96t-49.5 159q0 77 33.5 137.5t95 101t130.5 66t159 43.5q27 5 72 13t69.5 12.5t60.5 13.5t55.5 17.5t43.5 22.5t35.5 30.5t20 40.5
t8.5 53q0 107 -88 187.5t-226 80.5q-120 0 -206 -68.5t-119 -181.5l-103 35q32 101 103.5 172t156.5 102t179 31q58 0 114 -12t110 -40t95.5 -69.5t66.5 -105t25 -141.5v-439q0 -131 8.5 -204t28.5 -148h-104q-19 73 -23.5 127.5t8.5 148.5h-20q-58 -145 -167.5 -228
t-268.5 -83zM461 53q93 0 175.5 40.5t135.5 102t83 131t30 130.5v190q-47 -56 -96.5 -77.5t-182.5 -45.5q-43 -8 -67 -13t-71.5 -18t-77 -25.5t-67.5 -34t-59.5 -45.5t-37 -59t-15.5 -75q0 -92 69.5 -146.5t180.5 -54.5z" />
    <glyph glyph-name="atilde" unicode="&#xe3;" horiz-adv-x="1169" 
d="M748 1341q-39 0 -72.5 13.5t-48.5 25.5t-47 41l-37 31q-46 40 -70 49q-16 6 -33 6q-50 0 -82 -43t-32 -108h-80q1 103 56.5 167t141.5 64q43 0 76.5 -17.5t71.5 -51.5l43 -37q64 -60 117 -60q51 0 79.5 42.5t28.5 109.5h80q0 -105 -50.5 -168.5t-141.5 -63.5zM455 -35
q-98 0 -176 30t-127.5 96t-49.5 159q0 77 33.5 137.5t95 101t130.5 66t159 43.5q27 5 72 13t69.5 12.5t60.5 13.5t55.5 17.5t43.5 22.5t35.5 30.5t20 40.5t8.5 53q0 107 -88 187.5t-226 80.5q-120 0 -206 -68.5t-119 -181.5l-103 35q32 101 103.5 172t156.5 102t179 31
q58 0 114 -12t110 -40t95.5 -69.5t66.5 -105t25 -141.5v-439q0 -131 8.5 -204t28.5 -148h-104q-19 73 -23.5 127.5t8.5 148.5h-20q-58 -145 -167.5 -228t-268.5 -83zM461 53q93 0 175.5 40.5t135.5 102t83 131t30 130.5v190q-47 -56 -96.5 -77.5t-182.5 -45.5
q-43 -8 -67 -13t-71.5 -18t-77 -25.5t-67.5 -34t-59.5 -45.5t-37 -59t-15.5 -75q0 -92 69.5 -146.5t180.5 -54.5z" />
    <glyph glyph-name="adieresis" unicode="&#xe4;" horiz-adv-x="1169" 
d="M424 1386q-39 0 -65.5 28.5t-26.5 68.5q0 36 26.5 63t65.5 27t65.5 -27t26.5 -63q0 -40 -26.5 -68.5t-65.5 -28.5zM764 1386q-40 0 -66 28t-26 69q0 36 26 63t66 27q38 0 65 -27t27 -63q0 -40 -27 -68.5t-65 -28.5zM455 -35q-98 0 -176 30t-127.5 96t-49.5 159
q0 77 33.5 137.5t95 101t130.5 66t159 43.5q27 5 72 13t69.5 12.5t60.5 13.5t55.5 17.5t43.5 22.5t35.5 30.5t20 40.5t8.5 53q0 107 -88 187.5t-226 80.5q-120 0 -206 -68.5t-119 -181.5l-103 35q32 101 103.5 172t156.5 102t179 31q58 0 114 -12t110 -40t95.5 -69.5
t66.5 -105t25 -141.5v-439q0 -131 8.5 -204t28.5 -148h-104q-19 73 -23.5 127.5t8.5 148.5h-20q-58 -145 -167.5 -228t-268.5 -83zM461 53q93 0 175.5 40.5t135.5 102t83 131t30 130.5v190q-47 -56 -96.5 -77.5t-182.5 -45.5q-43 -8 -67 -13t-71.5 -18t-77 -25.5t-67.5 -34
t-59.5 -45.5t-37 -59t-15.5 -75q0 -92 69.5 -146.5t180.5 -54.5z" />
    <glyph glyph-name="aring" unicode="&#xe5;" horiz-adv-x="1169" 
d="M594 1245q-94 0 -156.5 61t-62.5 154q0 91 62.5 151t156.5 60t155.5 -60t61.5 -151q0 -94 -61.5 -154.5t-155.5 -60.5zM594 1325q60 0 99.5 36t39.5 99q0 59 -39.5 94t-99.5 35q-61 0 -100 -35t-39 -94q0 -63 38.5 -99t100.5 -36zM455 -35q-98 0 -176 30t-127.5 96
t-49.5 159q0 77 33.5 137.5t95 101t130.5 66t159 43.5q27 5 72 13t69.5 12.5t60.5 13.5t55.5 17.5t43.5 22.5t35.5 30.5t20 40.5t8.5 53q0 107 -88 187.5t-226 80.5q-120 0 -206 -68.5t-119 -181.5l-103 35q32 101 103.5 172t156.5 102t179 31q58 0 114 -12t110 -40
t95.5 -69.5t66.5 -105t25 -141.5v-439q0 -131 8.5 -204t28.5 -148h-104q-19 73 -23.5 127.5t8.5 148.5h-20q-58 -145 -167.5 -228t-268.5 -83zM461 53q93 0 175.5 40.5t135.5 102t83 131t30 130.5v190q-47 -56 -96.5 -77.5t-182.5 -45.5q-43 -8 -67 -13t-71.5 -18t-77 -25.5
t-67.5 -34t-59.5 -45.5t-37 -59t-15.5 -75q0 -92 69.5 -146.5t180.5 -54.5z" />
    <glyph glyph-name="ae" unicode="&#xe6;" horiz-adv-x="2056" 
d="M455 -35q-158 0 -255.5 74.5t-97.5 210.5q0 77 32.5 137t93 100.5t131.5 66.5t163 44q26 5 71.5 13.5t69.5 13t60.5 13.5t56 17t43.5 22.5t35.5 31t20 40t8.5 52.5q0 107 -88 187.5t-226 80.5q-120 0 -206 -68.5t-119 -181.5l-103 35q47 149 169.5 227t267.5 78
q63 0 122 -14.5t114.5 -45.5t97.5 -86.5t61 -129.5q70 134 188.5 205t270.5 71q66 0 129 -13t134 -50.5t123.5 -96.5t87 -161t34.5 -234v-45h-949q0 -224 125.5 -364t321.5 -140q155 0 264.5 88.5t163.5 227.5l92 -31q-65 -180 -204.5 -277.5t-321.5 -97.5q-177 0 -309.5 91
t-176.5 272h-20q-44 -158 -174 -260.5t-301 -102.5zM1001 647h832q-1 91 -25 164.5t-63.5 120.5t-92.5 78.5t-107.5 45t-112.5 13.5q-175 0 -290.5 -116t-140.5 -306zM471 51q87 0 167 41t133 103t84.5 132t31.5 130v190q-42 -52 -102.5 -77.5t-176.5 -43.5
q-397 -61 -397 -270q0 -92 72 -148.5t188 -56.5z" />
    <glyph glyph-name="ccedilla" unicode="&#xe7;" horiz-adv-x="1243" 
d="M1096 371l92 -29q-65 -178 -199.5 -274.5t-310.5 -102.5q-57 -79 -107 -129l7 -6q44 20 96 20q80 0 130 -43.5t50 -113.5q0 -78 -61 -128t-154 -50q-70 0 -136.5 29t-109.5 79l49 45q33 -40 85 -65t106 -25q61 0 102 32t41 79q0 46 -36.5 75t-92.5 29q-55 0 -98 -24
l-49 47l100 151q-225 20 -362.5 183t-137.5 411q0 266 155 432t402 166q101 0 188.5 -29t166.5 -101t123 -183l-101 -35q-45 120 -146 189t-237 69q-199 0 -319.5 -143.5t-120.5 -364.5q0 -225 125.5 -364.5t325.5 -139.5q157 0 267 86.5t167 227.5z" />
    <glyph glyph-name="egrave" unicode="&#xe8;" horiz-adv-x="1269" 
d="M688 1278h-90l-311 395h151zM649 -35q-238 0 -393.5 166.5t-155.5 429.5t155.5 430.5t395.5 167.5q66 0 129 -13t134 -50.5t123.5 -96.5t87 -161t34.5 -234v-49h-948q0 -222 124 -361t320 -139q155 0 264.5 88.5t165.5 227.5l91 -31q-63 -180 -204 -277.5t-323 -97.5z
M215 647h832q0 113 -36 198t-96 132t-127.5 69.5t-140.5 22.5q-173 0 -290 -116t-142 -306z" />
    <glyph glyph-name="eacute" unicode="&#xe9;" horiz-adv-x="1269" 
d="M989 1673l-311 -395h-90l252 395h149zM649 -35q-238 0 -393.5 166.5t-155.5 429.5t155.5 430.5t395.5 167.5q66 0 129 -13t134 -50.5t123.5 -96.5t87 -161t34.5 -234v-49h-948q0 -222 124 -361t320 -139q155 0 264.5 88.5t165.5 227.5l91 -31q-63 -180 -204 -277.5
t-323 -97.5zM215 647h832q0 113 -36 198t-96 132t-127.5 69.5t-140.5 22.5q-173 0 -290 -116t-142 -306z" />
    <glyph glyph-name="ecircumflex" unicode="&#xea;" horiz-adv-x="1269" 
d="M362 1278h-96l297 354h152l297 -354h-99q-57 57 -90.5 92t-79.5 90.5t-79 106.5h-50q-80 -124 -252 -289zM649 -35q-238 0 -393.5 166.5t-155.5 429.5t155.5 430.5t395.5 167.5q66 0 129 -13t134 -50.5t123.5 -96.5t87 -161t34.5 -234v-49h-948q0 -222 124 -361t320 -139
q155 0 264.5 88.5t165.5 227.5l91 -31q-63 -180 -204 -277.5t-323 -97.5zM215 647h832q0 113 -36 198t-96 132t-127.5 69.5t-140.5 22.5q-173 0 -290 -116t-142 -306z" />
    <glyph glyph-name="edieresis" unicode="&#xeb;" horiz-adv-x="1269" 
d="M469 1386q-39 0 -65.5 28.5t-26.5 68.5q0 36 26.5 63t65.5 27t65.5 -27t26.5 -63q0 -40 -26.5 -68.5t-65.5 -28.5zM809 1386q-40 0 -66 28t-26 69q0 36 26 63t66 27q38 0 65 -27t27 -63q0 -40 -27 -68.5t-65 -28.5zM649 -35q-238 0 -393.5 166.5t-155.5 429.5
t155.5 430.5t395.5 167.5q66 0 129 -13t134 -50.5t123.5 -96.5t87 -161t34.5 -234v-49h-948q0 -222 124 -361t320 -139q155 0 264.5 88.5t165.5 227.5l91 -31q-63 -180 -204 -277.5t-323 -97.5zM215 647h832q0 113 -36 198t-96 132t-127.5 69.5t-140.5 22.5
q-173 0 -290 -116t-142 -306z" />
    <glyph glyph-name="igrave" unicode="&#xec;" horiz-adv-x="487" 
d="M293 1278h-90l-312 395h152zM295 0h-102v1126h102v-1126z" />
    <glyph glyph-name="iacute" unicode="&#xed;" horiz-adv-x="487" 
d="M594 1673l-311 -395h-90l251 395h150zM295 0h-102v1126h102v-1126z" />
    <glyph glyph-name="icircumflex" unicode="&#xee;" horiz-adv-x="487" 
d="M-33 1278h-96l297 354h151l297 -354h-98q-59 59 -91.5 92.5t-79 89.5t-79.5 107h-49q-80 -124 -252 -289zM295 0h-102v1126h102v-1126z" />
    <glyph glyph-name="idieresis" unicode="&#xef;" horiz-adv-x="487" 
d="M74 1386q-39 0 -65.5 28.5t-26.5 68.5q0 36 26.5 63t65.5 27t65.5 -27t26.5 -63q0 -40 -26.5 -68.5t-65.5 -28.5zM414 1386q-40 0 -66 28t-26 69q0 36 26 63t66 27q38 0 65 -27t27 -63q0 -40 -27 -68.5t-65 -28.5zM295 0h-102v1126h102v-1126z" />
    <glyph glyph-name="eth" unicode="&#xf0;" horiz-adv-x="1318" 
d="M1018 1583l-213 -123q393 -282 393 -805q0 -332 -148.5 -511t-396.5 -179q-125 0 -230.5 47t-176 126.5t-109.5 184t-39 220.5q0 246 157 409.5t388 163.5q135 0 237 -61.5t197 -206.5h21q-60 190 -152.5 324t-238.5 233l-312 -180l-37 65l277 160q-128 73 -305 135
l26 90q227 -70 379 -168l244 142zM649 57q189 0 313.5 134.5t124.5 349.5t-125 350t-311 135q-190 0 -316 -138.5t-126 -344.5q0 -132 54 -242.5t155.5 -177t230.5 -66.5z" />
    <glyph glyph-name="ntilde" unicode="&#xf1;" horiz-adv-x="1292" 
d="M797 1341q-39 0 -72.5 13.5t-48.5 25.5t-47 41l-37 31q-46 40 -70 49q-16 6 -33 6q-50 0 -82 -43t-32 -108h-80q1 103 57 167t142 64q43 0 76 -17.5t71 -51.5l43 -37q64 -60 117 -60q51 0 79.5 42.5t28.5 109.5h80q0 -105 -50.5 -168.5t-141.5 -63.5zM295 0h-102v1126h98
q0 -151 -27 -249h21q135 282 420 282q63 0 119.5 -13t111.5 -46t94.5 -83t63.5 -130t24 -182v-705h-100v662q0 91 -19.5 162.5t-51.5 116.5t-76 74.5t-90 41.5t-97 12q-93 0 -169 -39t-123 -102t-72 -137.5t-25 -149.5v-641z" />
    <glyph glyph-name="ograve" unicode="&#xf2;" horiz-adv-x="1320" 
d="M711 1278h-90l-312 395h152zM662 -35q-248 0 -405 167t-157 429q0 264 157 431t405 167q246 0 402.5 -167t156.5 -431q0 -262 -156.5 -429t-402.5 -167zM662 57q199 0 323.5 140.5t124.5 363.5q0 224 -124.5 366t-323.5 142t-325 -142.5t-126 -365.5t126 -363.5
t325 -140.5z" />
    <glyph glyph-name="oacute" unicode="&#xf3;" horiz-adv-x="1320" 
d="M1012 1673l-312 -395h-90l252 395h150zM662 -35q-248 0 -405 167t-157 429q0 264 157 431t405 167q246 0 402.5 -167t156.5 -431q0 -262 -156.5 -429t-402.5 -167zM662 57q199 0 323.5 140.5t124.5 363.5q0 224 -124.5 366t-323.5 142t-325 -142.5t-126 -365.5
t126 -363.5t325 -140.5z" />
    <glyph glyph-name="ocircumflex" unicode="&#xf4;" horiz-adv-x="1320" 
d="M385 1278h-96l297 354h151l297 -354h-98q-59 59 -91.5 92.5t-79 89.5t-79.5 107h-49q-80 -124 -252 -289zM662 -35q-248 0 -405 167t-157 429q0 264 157 431t405 167q246 0 402.5 -167t156.5 -431q0 -262 -156.5 -429t-402.5 -167zM662 57q199 0 323.5 140.5t124.5 363.5
q0 224 -124.5 366t-323.5 142t-325 -142.5t-126 -365.5t126 -363.5t325 -140.5z" />
    <glyph glyph-name="otilde" unicode="&#xf5;" horiz-adv-x="1320" 
d="M815 1341q-39 0 -72.5 13.5t-48.5 25.5t-47 41l-37 31q-2 2 -9 8t-9.5 8t-9 7.5t-9.5 7.5t-9.5 6.5t-10.5 6t-10 4.5t-11 4t-11.5 2t-12.5 1q-51 0 -83 -43t-32 -108h-80q1 103 57 167t142 64q43 0 76 -17.5t71 -51.5l43 -37q64 -60 117 -60q51 0 80 42.5t29 109.5h80
q0 -105 -51 -168.5t-142 -63.5zM662 -35q-248 0 -405 167t-157 429q0 264 157 431t405 167q246 0 402.5 -167t156.5 -431q0 -262 -156.5 -429t-402.5 -167zM662 57q199 0 323.5 140.5t124.5 363.5q0 224 -124.5 366t-323.5 142t-325 -142.5t-126 -365.5t126 -363.5
t325 -140.5z" />
    <glyph glyph-name="odieresis" unicode="&#xf6;" horiz-adv-x="1320" 
d="M492 1386q-39 0 -66 28.5t-27 68.5q0 36 27 63t66 27t65.5 -27t26.5 -63q0 -40 -26.5 -68.5t-65.5 -28.5zM831 1386q-40 0 -66 28t-26 69q0 36 26 63t66 27q38 0 65.5 -27t27.5 -63q0 -40 -27.5 -68.5t-65.5 -28.5zM662 -35q-248 0 -405 167t-157 429q0 264 157 431
t405 167q246 0 402.5 -167t156.5 -431q0 -262 -156.5 -429t-402.5 -167zM662 57q199 0 323.5 140.5t124.5 363.5q0 224 -124.5 366t-323.5 142t-325 -142.5t-126 -365.5t126 -363.5t325 -140.5z" />
    <glyph glyph-name="divide" unicode="&#xf7;" horiz-adv-x="1028" 
d="M520 819q-41 0 -68.5 28.5t-27.5 70.5q0 40 27.5 67t68.5 27q39 0 66.5 -27.5t27.5 -66.5q0 -41 -28 -70t-66 -29zM866 575h-704v99h704v-99zM520 236q-41 0 -68.5 29t-27.5 69t27.5 67t68.5 27q39 0 66.5 -27.5t27.5 -66.5q0 -41 -27.5 -69.5t-66.5 -28.5z" />
    <glyph glyph-name="oslash" unicode="&#xf8;" horiz-adv-x="1320" 
d="M1176 1180l-127 -172q83 -80 127.5 -195t44.5 -252q0 -262 -156.5 -429t-402.5 -167q-179 0 -316 92l-84 -112h-115l127 170q-84 80 -129 194.5t-45 251.5q0 264 157 431t405 167q181 0 319 -96l86 117h109zM211 561q0 -225 125 -362l586 786q-114 84 -260 84
q-199 0 -325 -142.5t-126 -365.5zM662 57q199 0 323.5 140.5t124.5 363.5t-123 365l-584 -789q113 -80 259 -80z" />
    <glyph glyph-name="ugrave" unicode="&#xf9;" horiz-adv-x="1273" 
d="M664 1278h-91l-311 395h152zM580 -35q-60 0 -115 13.5t-109 46.5t-93.5 83.5t-64 130.5t-24.5 181v706h102v-663q0 -113 29 -195.5t78 -126.5t103.5 -64t115.5 -20q71 0 133 25.5t106 68.5t75.5 98.5t47 115t15.5 118.5v643h100v-774q0 -131 8.5 -204t28.5 -148h-102
q-20 75 -24 126.5t9 141.5h-20q-120 -303 -399 -303z" />
    <glyph glyph-name="uacute" unicode="&#xfa;" horiz-adv-x="1273" 
d="M965 1673l-312 -395h-90l252 395h150zM580 -35q-60 0 -115 13.5t-109 46.5t-93.5 83.5t-64 130.5t-24.5 181v706h102v-663q0 -113 29 -195.5t78 -126.5t103.5 -64t115.5 -20q71 0 133 25.5t106 68.5t75.5 98.5t47 115t15.5 118.5v643h100v-774q0 -131 8.5 -204t28.5 -148
h-102q-20 75 -24 126.5t9 141.5h-20q-120 -303 -399 -303z" />
    <glyph glyph-name="ucircumflex" unicode="&#xfb;" horiz-adv-x="1273" 
d="M338 1278h-96l297 354h151l297 -354h-98q-59 59 -91.5 92.5t-79 89.5t-79.5 107h-49q-80 -124 -252 -289zM580 -35q-60 0 -115 13.5t-109 46.5t-93.5 83.5t-64 130.5t-24.5 181v706h102v-663q0 -113 29 -195.5t78 -126.5t103.5 -64t115.5 -20q71 0 133 25.5t106 68.5
t75.5 98.5t47 115t15.5 118.5v643h100v-774q0 -131 8.5 -204t28.5 -148h-102q-20 75 -24 126.5t9 141.5h-20q-120 -303 -399 -303z" />
    <glyph glyph-name="udieresis" unicode="&#xfc;" horiz-adv-x="1273" 
d="M444 1386q-39 0 -65.5 28.5t-26.5 68.5q0 36 26.5 63t65.5 27t66 -27t27 -63q0 -40 -27 -68.5t-66 -28.5zM784 1386q-40 0 -66 28t-26 69q0 36 26 63t66 27q38 0 65.5 -27t27.5 -63q0 -40 -27.5 -68.5t-65.5 -28.5zM580 -35q-60 0 -115 13.5t-109 46.5t-93.5 83.5
t-64 130.5t-24.5 181v706h102v-663q0 -113 29 -195.5t78 -126.5t103.5 -64t115.5 -20q71 0 133 25.5t106 68.5t75.5 98.5t47 115t15.5 118.5v643h100v-774q0 -131 8.5 -204t28.5 -148h-102q-20 75 -24 126.5t9 141.5h-20q-120 -303 -399 -303z" />
    <glyph glyph-name="yacute" unicode="&#xfd;" horiz-adv-x="1093" 
d="M883 1673l-312 -395h-90l252 395h150zM414 -451h-90l176 443l-463 1134h113q221 -541 389 -1044h20q164 498 387 1044h111z" />
    <glyph glyph-name="thorn" unicode="&#xfe;" horiz-adv-x="1372" 
d="M295 -451h-102v2089h102v-124v-135t-1 -121.5t-3 -138.5t-5.5 -126t-9.5 -139h23q69 154 186 229.5t260 75.5q225 0 375 -167.5t150 -428.5q0 -173 -69 -310t-189 -212.5t-267 -75.5q-144 0 -261.5 75t-184.5 222h-23q6 -60 9.5 -127t5.5 -115t3 -126t1 -111v-122.5
v-111.5zM735 57q184 0 305 144t121 362q0 219 -122 362.5t-304 143.5q-120 0 -220 -63.5t-160 -180.5t-60 -264q0 -221 128 -362.5t312 -141.5z" />
    <glyph glyph-name="ydieresis" unicode="&#xff;" horiz-adv-x="1093" 
d="M362 1386q-39 0 -65.5 28.5t-26.5 68.5q0 36 26.5 63t65.5 27t66 -27t27 -63q0 -40 -27 -68.5t-66 -28.5zM702 1386q-40 0 -66 28t-26 69q0 36 26 63t66 27q38 0 65.5 -27t27.5 -63q0 -40 -27.5 -68.5t-65.5 -28.5zM414 -451h-90l176 443l-463 1134h113
q221 -541 389 -1044h20q164 498 387 1044h111z" />
    <glyph glyph-name="Amacron" unicode="&#x100;" horiz-adv-x="1499" 
d="M1075 1843h-651v94h651v-94zM150 0h-115l657 1597h113l657 -1597h-114q-58 140 -83.5 202.5t-67.5 179.5t-69 216l-18 16q-244 -22 -346 -22q-154 0 -365 22l-22 -18q-81 -241 -227 -596zM416 690l12 -20q230 20 336 20q117 0 301 -20l12 18q-187 407 -307 793h-43
q-117 -367 -311 -791z" />
    <glyph glyph-name="amacron" unicode="&#x101;" horiz-adv-x="1169" 
d="M938 1434h-688v92h688v-92zM455 -35q-98 0 -176 30t-127.5 96t-49.5 159q0 77 33.5 137.5t95 101t130.5 66t159 43.5q27 5 72 13t69.5 12.5t60.5 13.5t55.5 17.5t43.5 22.5t35.5 30.5t20 40.5t8.5 53q0 107 -88 187.5t-226 80.5q-120 0 -206 -68.5t-119 -181.5l-103 35
q32 101 103.5 172t156.5 102t179 31q58 0 114 -12t110 -40t95.5 -69.5t66.5 -105t25 -141.5v-439q0 -131 8.5 -204t28.5 -148h-104q-19 73 -23.5 127.5t8.5 148.5h-20q-58 -145 -167.5 -228t-268.5 -83zM461 53q93 0 175.5 40.5t135.5 102t83 131t30 130.5v190
q-47 -56 -96.5 -77.5t-182.5 -45.5q-43 -8 -67 -13t-71.5 -18t-77 -25.5t-67.5 -34t-59.5 -45.5t-37 -59t-15.5 -75q0 -92 69.5 -146.5t180.5 -54.5z" />
    <glyph glyph-name="Abreve" unicode="&#x102;" horiz-adv-x="1499" 
d="M750 1729q-84 0 -155 29t-116.5 75t-72 101t-29.5 110h96q6 -88 85.5 -156.5t191.5 -68.5t191 68.5t85 156.5h96q-3 -55 -29.5 -110t-71.5 -101t-116 -75t-155 -29zM150 0h-115l657 1597h113l657 -1597h-114q-58 140 -83.5 202.5t-67.5 179.5t-69 216l-18 16
q-244 -22 -346 -22q-154 0 -365 22l-22 -18q-81 -241 -227 -596zM416 690l12 -20q230 20 336 20q117 0 301 -20l12 18q-187 407 -307 793h-43q-117 -367 -311 -791z" />
    <glyph glyph-name="abreve" unicode="&#x103;" horiz-adv-x="1169" 
d="M594 1278q-169 0 -267 111t-104 284h96q6 -141 82 -223t193 -82t193.5 82.5t82.5 222.5h97q-6 -172 -105 -283.5t-268 -111.5zM455 -35q-98 0 -176 30t-127.5 96t-49.5 159q0 77 33.5 137.5t95 101t130.5 66t159 43.5q27 5 72 13t69.5 12.5t60.5 13.5t55.5 17.5
t43.5 22.5t35.5 30.5t20 40.5t8.5 53q0 107 -88 187.5t-226 80.5q-120 0 -206 -68.5t-119 -181.5l-103 35q32 101 103.5 172t156.5 102t179 31q58 0 114 -12t110 -40t95.5 -69.5t66.5 -105t25 -141.5v-439q0 -131 8.5 -204t28.5 -148h-104q-19 73 -23.5 127.5t8.5 148.5h-20
q-58 -145 -167.5 -228t-268.5 -83zM461 53q93 0 175.5 40.5t135.5 102t83 131t30 130.5v190q-47 -56 -96.5 -77.5t-182.5 -45.5q-43 -8 -67 -13t-71.5 -18t-77 -25.5t-67.5 -34t-59.5 -45.5t-37 -59t-15.5 -75q0 -92 69.5 -146.5t180.5 -54.5z" />
    <glyph glyph-name="Aogonek" unicode="&#x104;" horiz-adv-x="1499" 
d="M1466 -385q38 0 88 14v-78q-55 -14 -94 -14q-114 0 -189 63t-75 169q0 132 158 231h-6q-58 140 -83.5 202.5t-67.5 179.5t-69 216l-18 16q-244 -22 -346 -22q-154 0 -365 22l-22 -18q-81 -241 -227 -596h-115l657 1597h113l657 -1597h-4q-178 -96 -178 -221
q0 -74 53.5 -119t132.5 -45zM1065 670l12 18q-187 407 -307 793h-43q-117 -367 -311 -791l12 -20q230 20 336 20q117 0 301 -20z" />
    <glyph glyph-name="aogonek" unicode="&#x105;" horiz-adv-x="1169" 
d="M1032 -385q38 0 88 14v-78q-55 -14 -98 -14q-110 0 -185 62.5t-75 164.5q0 75 42.5 131t119.5 105h2q-19 73 -23.5 127.5t8.5 148.5h-20q-58 -145 -167.5 -228t-268.5 -83q-98 0 -176 30t-127.5 96t-49.5 159q0 77 33.5 137.5t95 101t130.5 66t159 43.5q27 5 72 13
t69.5 12.5t60.5 13.5t55.5 17.5t43.5 22.5t35.5 30.5t20 40.5t8.5 53q0 107 -88 187.5t-226 80.5q-120 0 -206 -68.5t-119 -181.5l-103 35q32 101 103.5 172t156.5 102t179 31q58 0 114 -12t110 -40t95.5 -69.5t66.5 -105t25 -141.5v-439q0 -131 8.5 -204t28.5 -148h-8
q-87 -48 -130.5 -101t-43.5 -120q0 -74 53 -119t131 -45zM885 457v190q-47 -56 -96.5 -77.5t-182.5 -45.5q-43 -8 -67 -13t-71.5 -18t-77 -25.5t-67.5 -34t-59.5 -45.5t-37 -59t-15.5 -75q0 -92 69.5 -146.5t180.5 -54.5q93 0 175.5 40.5t135.5 102t83 131t30 130.5z" />
    <glyph glyph-name="Cacute" unicode="&#x106;" horiz-adv-x="1726" 
d="M1229 2036l-342 -316h-94l266 316h170zM918 -35q-174 0 -323.5 61.5t-255 170t-165 262t-59.5 332.5q0 183 61.5 340.5t168 266.5t252.5 170.5t312 61.5q110 0 215.5 -27.5t200 -81.5t168.5 -144t111 -206l-95 -38q-74 188 -237 291.5t-361 103.5q-109 0 -210 -31.5
t-186 -94.5t-148.5 -150.5t-99.5 -206t-36 -254.5q0 -141 39 -261t106.5 -204t157.5 -143t191 -87t209 -28q130 0 240.5 41t188 112.5t130 159.5t80.5 190l96 -34q-36 -120 -99 -220.5t-154 -180.5t-219 -125.5t-279 -45.5z" />
    <glyph glyph-name="cacute" unicode="&#x107;" horiz-adv-x="1243" 
d="M975 1673l-311 -395h-91l252 395h150zM655 -35q-246 0 -400.5 166t-154.5 430q0 266 155 432t402 166q101 0 188.5 -29t166.5 -101t123 -183l-101 -35q-45 120 -146 189t-237 69q-199 0 -319.5 -143.5t-120.5 -364.5q0 -225 125.5 -364.5t325.5 -139.5q157 0 267 86.5
t167 227.5l92 -29q-66 -184 -207.5 -280.5t-325.5 -96.5z" />
    <glyph glyph-name="Cdotaccent" unicode="&#x10a;" horiz-adv-x="1726" 
d="M864 1792q-43 0 -71.5 29.5t-28.5 72.5q0 40 29 68.5t71 28.5q41 0 70 -28.5t29 -68.5q0 -43 -29 -72.5t-70 -29.5zM918 -35q-174 0 -323.5 61.5t-255 170t-165 262t-59.5 332.5q0 183 61.5 340.5t168 266.5t252.5 170.5t312 61.5q110 0 215.5 -27.5t200 -81.5
t168.5 -144t111 -206l-95 -38q-74 188 -237 291.5t-361 103.5q-109 0 -210 -31.5t-186 -94.5t-148.5 -150.5t-99.5 -206t-36 -254.5q0 -141 39 -261t106.5 -204t157.5 -143t191 -87t209 -28q130 0 240.5 41t188 112.5t130 159.5t80.5 190l96 -34q-36 -120 -99 -220.5
t-154 -180.5t-219 -125.5t-279 -45.5z" />
    <glyph glyph-name="cdotaccent" unicode="&#x10b;" horiz-adv-x="1243" 
d="M627 1440q-43 0 -72 29.5t-29 72.5q0 40 29 68t72 28q41 0 69.5 -28t28.5 -68q0 -43 -28.5 -72.5t-69.5 -29.5zM655 -35q-246 0 -400.5 166t-154.5 430q0 266 155 432t402 166q101 0 188.5 -29t166.5 -101t123 -183l-101 -35q-45 120 -146 189t-237 69
q-199 0 -319.5 -143.5t-120.5 -364.5q0 -225 125.5 -364.5t325.5 -139.5q157 0 267 86.5t167 227.5l92 -29q-66 -184 -207.5 -280.5t-325.5 -96.5z" />
    <glyph glyph-name="Ccaron" unicode="&#x10c;" horiz-adv-x="1726" 
d="M938 1720h-147l-263 297h95q52 -48 80 -75t69 -74t72 -94h43q31 46 73 94.5t66 72t80 76.5h96zM918 -35q-174 0 -323.5 61.5t-255 170t-165 262t-59.5 332.5q0 183 61.5 340.5t168 266.5t252.5 170.5t312 61.5q110 0 215.5 -27.5t200 -81.5t168.5 -144t111 -206l-95 -38
q-74 188 -237 291.5t-361 103.5q-109 0 -210 -31.5t-186 -94.5t-148.5 -150.5t-99.5 -206t-36 -254.5q0 -141 39 -261t106.5 -204t157.5 -143t191 -87t209 -28q130 0 240.5 41t188 112.5t130 159.5t80.5 190l96 -34q-36 -120 -99 -220.5t-154 -180.5t-219 -125.5t-279 -45.5
z" />
    <glyph glyph-name="ccaron" unicode="&#x10d;" horiz-adv-x="1243" 
d="M700 1278h-151l-297 356h96q173 -170 258 -291h37q35 51 85.5 109t77 85.5t93.5 96.5h98zM655 -35q-246 0 -400.5 166t-154.5 430q0 266 155 432t402 166q101 0 188.5 -29t166.5 -101t123 -183l-101 -35q-45 120 -146 189t-237 69q-199 0 -319.5 -143.5t-120.5 -364.5
q0 -225 125.5 -364.5t325.5 -139.5q157 0 267 86.5t167 227.5l92 -29q-66 -184 -207.5 -280.5t-325.5 -96.5z" />
    <glyph glyph-name="Dcaron" unicode="&#x10e;" horiz-adv-x="1652" 
d="M838 1720h-148l-262 297h94q52 -48 80 -75t69 -74t72 -94h43q10 15 21 30t19.5 26.5t22.5 27.5t20.5 23.5t23.5 25t21 22t24 23.5t22 21t24 23l22 21h96zM795 0h-568v1597h549q156 0 283 -40.5t214.5 -112t146.5 -171.5t86.5 -216t27.5 -248q0 -238 -87 -420
t-255.5 -285.5t-396.5 -103.5zM313 98l21 -20q172 20 479 20q283 0 445.5 191.5t162.5 507.5q0 212 -74.5 368.5t-226 245t-366.5 88.5q-260 0 -420 21l-21 -19q34 -696 0 -1403z" />
    <glyph glyph-name="dcaron" unicode="&#x10f;" horiz-adv-x="1374" 
d="M627 -35q-226 0 -376.5 168t-150.5 428q0 174 70.5 311.5t191 212t269.5 74.5q143 0 259 -77t183 -240h21q-21 336 -17 796h103v-1286q0 -131 8.5 -204t28.5 -148h-105q-36 136 -14 289h-21q-65 -163 -183.5 -243.5t-266.5 -80.5zM1440 1200h-72q73 154 150 246
q-97 16 -97 92q0 40 29 68t70 28q40 0 67 -28t27 -68q0 -35 -30.5 -93.5t-143.5 -244.5zM637 57q184 0 312 142.5t128 363.5t-128 363.5t-312 142.5t-305 -144.5t-121 -363.5t122 -361.5t304 -142.5z" />
    <glyph glyph-name="Dcroat" unicode="&#x110;" horiz-adv-x="1652" 
d="M227 1597h549q156 0 283 -40.5t214.5 -112t146.5 -171.5t86.5 -216t27.5 -248q0 -238 -87 -420t-255.5 -285.5t-396.5 -103.5h-568v752h-164v92h164v753zM813 98q283 0 445.5 191.5t162.5 507.5q0 212 -74.5 368.5t-226 245t-366.5 88.5q-260 0 -420 21l-21 -19
q17 -372 17 -657h585v-92h-585q0 -278 -17 -654l21 -20q172 20 479 20z" />
    <glyph glyph-name="dcroat" unicode="&#x111;" horiz-adv-x="1374" 
d="M1446 1434v-91h-266v-991q0 -131 8.5 -204t28.5 -148h-105q-36 136 -14 289h-21q-65 -163 -183.5 -243.5t-266.5 -80.5q-226 0 -376.5 168t-150.5 428q0 174 70.5 311.5t191 212t269.5 74.5q143 0 259 -77t183 -240h21q-17 255 -17 501h-293v91h293v204h103v-204h266z
M637 57q184 0 312 142.5t128 363.5t-128 363.5t-312 142.5t-305 -144.5t-121 -363.5t122 -361.5t304 -142.5z" />
    <glyph glyph-name="Emacron" unicode="&#x112;" horiz-adv-x="1353" 
d="M1014 1843h-652v94h652v-94zM1243 0h-1016v1597h996v-98q-44 0 -206.5 -1t-237 -0.5t-204.5 6t-241 16.5l-21 -19q33 -299 4 -627l17 -22q303 20 848 20v-98q-532 0 -848 21l-17 -23q29 -350 -4 -674l21 -20q150 13 326 19t275 6.5t308 0.5v-104z" />
    <glyph glyph-name="emacron" unicode="&#x113;" horiz-adv-x="1269" 
d="M983 1434h-688v92h688v-92zM649 -35q-238 0 -393.5 166.5t-155.5 429.5t155.5 430.5t395.5 167.5q66 0 129 -13t134 -50.5t123.5 -96.5t87 -161t34.5 -234v-49h-948q0 -222 124 -361t320 -139q155 0 264.5 88.5t165.5 227.5l91 -31q-63 -180 -204 -277.5t-323 -97.5z
M215 647h832q0 113 -36 198t-96 132t-127.5 69.5t-140.5 22.5q-173 0 -290 -116t-142 -306z" />
    <glyph glyph-name="Edotaccent" unicode="&#x116;" horiz-adv-x="1353" 
d="M688 1792q-43 0 -71.5 29.5t-28.5 72.5q0 40 29 68.5t71 28.5q41 0 69.5 -28.5t28.5 -68.5q0 -43 -28.5 -72.5t-69.5 -29.5zM1243 0h-1016v1597h996v-98q-44 0 -206.5 -1t-237 -0.5t-204.5 6t-241 16.5l-21 -19q33 -299 4 -627l17 -22q303 20 848 20v-98q-532 0 -848 21
l-17 -23q29 -350 -4 -674l21 -20q150 13 326 19t275 6.5t308 0.5v-104z" />
    <glyph glyph-name="edotaccent" unicode="&#x117;" horiz-adv-x="1269" 
d="M641 1440q-43 0 -71.5 29.5t-28.5 72.5q0 40 29 68t71 28q41 0 69.5 -28t28.5 -68q0 -43 -28.5 -72.5t-69.5 -29.5zM649 -35q-238 0 -393.5 166.5t-155.5 429.5t155.5 430.5t395.5 167.5q66 0 129 -13t134 -50.5t123.5 -96.5t87 -161t34.5 -234v-49h-948q0 -222 124 -361
t320 -139q155 0 264.5 88.5t165.5 227.5l91 -31q-63 -180 -204 -277.5t-323 -97.5zM215 647h832q0 113 -36 198t-96 132t-127.5 69.5t-140.5 22.5q-173 0 -290 -116t-142 -306z" />
    <glyph glyph-name="Eogonek" unicode="&#x118;" horiz-adv-x="1353" 
d="M1251 -385q38 0 88 14v-78q-55 -14 -94 -14q-114 0 -189 63t-75 169q0 132 158 231h-912v1597h996v-98q-44 0 -206.5 -1t-237 -0.5t-204.5 6t-241 16.5l-21 -19q33 -299 4 -627l17 -22q303 20 848 20v-98q-532 0 -848 21l-17 -23q29 -350 -4 -674l21 -20q150 13 326 19
t275 6.5t308 0.5v-104q-178 -96 -178 -221q0 -74 53.5 -119t132.5 -45z" />
    <glyph glyph-name="eogonek" unicode="&#x119;" horiz-adv-x="1269" 
d="M842 -4q-168 -94 -168 -217q0 -74 53 -119t131 -45q38 0 88 14v-78q-55 -14 -98 -14q-110 0 -185 62.5t-75 164.5q0 117 114 203q-18 -2 -53 -2q-238 0 -393.5 166.5t-155.5 429.5t155.5 430.5t395.5 167.5q66 0 129 -13t134 -50.5t123.5 -96.5t87 -161t34.5 -234v-49
h-948q0 -222 124 -361t320 -139q155 0 264.5 88.5t165.5 227.5l91 -31q-45 -128 -131.5 -216t-202.5 -128zM647 1069q-173 0 -290 -116t-142 -306h832q0 113 -36 198t-96 132t-127.5 69.5t-140.5 22.5z" />
    <glyph glyph-name="Ecaron" unicode="&#x11a;" horiz-adv-x="1353" 
d="M760 1720h-148l-262 297h94q54 -50 80.5 -75.5t68.5 -73t73 -94.5h43q31 46 73 94.5t66 72t80 76.5h96zM1243 0h-1016v1597h996v-98q-44 0 -206.5 -1t-237 -0.5t-204.5 6t-241 16.5l-21 -19q33 -299 4 -627l17 -22q303 20 848 20v-98q-532 0 -848 21l-17 -23
q29 -350 -4 -674l21 -20q150 13 326 19t275 6.5t308 0.5v-104z" />
    <glyph glyph-name="ecaron" unicode="&#x11b;" horiz-adv-x="1269" 
d="M715 1278h-152l-297 356h96q85 -83 146.5 -150t112.5 -141h36q35 51 85.5 109t77 85.5t93.5 96.5h99zM649 -35q-238 0 -393.5 166.5t-155.5 429.5t155.5 430.5t395.5 167.5q66 0 129 -13t134 -50.5t123.5 -96.5t87 -161t34.5 -234v-49h-948q0 -222 124 -361t320 -139
q155 0 264.5 88.5t165.5 227.5l91 -31q-63 -180 -204 -277.5t-323 -97.5zM215 647h832q0 113 -36 198t-96 132t-127.5 69.5t-140.5 22.5q-173 0 -290 -116t-142 -306z" />
    <glyph glyph-name="Gbreve" unicode="&#x11e;" horiz-adv-x="1804" 
d="M864 1729q-84 0 -155 29t-116 75t-71.5 101t-29.5 110h96q6 -88 85 -156.5t191 -68.5t191.5 68.5t85.5 156.5h96q-3 -55 -29.5 -110t-72 -101t-116.5 -75t-155 -29zM907 -35q-171 0 -318.5 61.5t-251.5 170t-163 262t-59 332.5q0 183 61.5 340.5t168 266.5t252.5 170.5
t312 61.5q110 0 215.5 -27.5t200 -81.5t168.5 -144t111 -206l-95 -38q-74 188 -237 291.5t-361 103.5q-136 0 -259 -50.5t-217 -142.5t-149 -233t-55 -311q0 -141 39 -260.5t105.5 -203.5t155 -143t188.5 -87.5t205 -28.5q177 0 318 80.5t225.5 221.5t107.5 324l-12 15
q-390 -37 -600 -37v96h696v-768h-94q0 32 -1 95.5t-1.5 104t2.5 99.5t10 111l-21 2q-81 -216 -244.5 -331.5t-402.5 -115.5z" />
    <glyph glyph-name="gbreve" unicode="&#x11f;" horiz-adv-x="1370" 
d="M657 1278q-169 0 -266.5 111t-103.5 284h96q6 -141 81.5 -223t192.5 -82t194 82.5t83 222.5h96q-6 -172 -105 -283.5t-268 -111.5zM668 -483q-387 0 -504 331l94 31q42 -126 144.5 -199t267.5 -73q64 0 119 13.5t109 49t92 92t61.5 148.5t23.5 211q0 112 17 170h-21
q-69 -139 -186.5 -215t-259.5 -76q-147 0 -268 76t-190 210t-69 298q0 250 152.5 412.5t376.5 162.5q138 0 259 -86t185 -231h21q-13 104 -13 284h99v-981q0 -628 -510 -628zM635 92q182 0 311 141.5t129 352.5q0 210 -128.5 346.5t-311.5 136.5t-304.5 -140t-121.5 -345
q0 -136 55.5 -249t153.5 -178t217 -65z" />
    <glyph glyph-name="Gdotaccent" unicode="&#x120;" horiz-adv-x="1804" 
d="M864 1792q-43 0 -71.5 29.5t-28.5 72.5q0 40 29 68.5t71 28.5q41 0 70 -28.5t29 -68.5q0 -43 -29 -72.5t-70 -29.5zM907 -35q-171 0 -318.5 61.5t-251.5 170t-163 262t-59 332.5q0 183 61.5 340.5t168 266.5t252.5 170.5t312 61.5q110 0 215.5 -27.5t200 -81.5
t168.5 -144t111 -206l-95 -38q-74 188 -237 291.5t-361 103.5q-136 0 -259 -50.5t-217 -142.5t-149 -233t-55 -311q0 -141 39 -260.5t105.5 -203.5t155 -143t188.5 -87.5t205 -28.5q177 0 318 80.5t225.5 221.5t107.5 324l-12 15q-390 -37 -600 -37v96h696v-768h-94
q0 32 -1 95.5t-1.5 104t2.5 99.5t10 111l-21 2q-81 -216 -244.5 -331.5t-402.5 -115.5z" />
    <glyph glyph-name="gdotaccent" unicode="&#x121;" horiz-adv-x="1370" 
d="M662 1440q-43 0 -72 29.5t-29 72.5q0 40 29 68t72 28q41 0 69.5 -28t28.5 -68q0 -43 -28.5 -72.5t-69.5 -29.5zM668 -483q-387 0 -504 331l94 31q42 -126 144.5 -199t267.5 -73q64 0 119 13.5t109 49t92 92t61.5 148.5t23.5 211q0 112 17 170h-21q-69 -139 -186.5 -215
t-259.5 -76q-147 0 -268 76t-190 210t-69 298q0 250 152.5 412.5t376.5 162.5q138 0 259 -86t185 -231h21q-13 104 -13 284h99v-981q0 -628 -510 -628zM635 92q182 0 311 141.5t129 352.5q0 210 -128.5 346.5t-311.5 136.5t-304.5 -140t-121.5 -345q0 -136 55.5 -249
t153.5 -178t217 -65z" />
    <glyph glyph-name="uni0122" unicode="&#x122;" horiz-adv-x="1804" 
d="M907 -35q-171 0 -318.5 61.5t-251.5 170t-163 262t-59 332.5q0 183 61.5 340.5t168 266.5t252.5 170.5t312 61.5q110 0 215.5 -27.5t200 -81.5t168.5 -144t111 -206l-95 -38q-74 188 -237 291.5t-361 103.5q-136 0 -259 -50.5t-217 -142.5t-149 -233t-55 -311
q0 -141 39 -260.5t105.5 -203.5t155 -143t188.5 -87.5t205 -28.5q177 0 318 80.5t225.5 221.5t107.5 324l-12 15q-390 -37 -600 -37v96h696v-768h-94q0 32 -1 95.5t-1.5 104t2.5 99.5t10 111l-21 2q-81 -216 -244.5 -331.5t-402.5 -115.5zM838 -489h-52q3 6 13.5 25.5
t15 27.5t14.5 25.5t17 28.5t17.5 27t21.5 31t24 31q-114 0 -114 88q0 39 27 62.5t69 23.5q40 0 67 -27t27 -67q0 -37 -28.5 -89t-118.5 -187z" />
    <glyph glyph-name="uni0123" unicode="&#x123;" horiz-adv-x="1370" 
d="M535 1343q0 35 29.5 91t144.5 245h71q-73 -154 -139 -264q43 6 64.5 -18t21.5 -60q0 -41 -27.5 -65.5t-64.5 -24.5q-42 0 -71 28t-29 68zM668 -483q-387 0 -504 331l94 31q42 -126 144.5 -199t267.5 -73q64 0 119 13.5t109 49t92 92t61.5 148.5t23.5 211q0 112 17 170
h-21q-69 -139 -186.5 -215t-259.5 -76q-147 0 -268 76t-190 210t-69 298q0 250 152.5 412.5t376.5 162.5q138 0 259 -86t185 -231h21q-13 104 -13 284h99v-981q0 -628 -510 -628zM635 92q182 0 311 141.5t129 352.5q0 210 -128.5 346.5t-311.5 136.5t-304.5 -140
t-121.5 -345q0 -136 55.5 -249t153.5 -178t217 -65z" />
    <glyph glyph-name="Hbar" unicode="&#x126;" horiz-adv-x="1654" 
d="M1427 1272h138v-88h-138v-1184h-108q0 490 20 762l-18 22q-446 -50 -987 0l-17 -22q19 -272 19 -762h-109v1184h-137v88h137v325h109q0 -216 -2 -325h987q-2 109 -2 325h108v-325zM1321 844l18 22q-13 172 -16 318h-991q-3 -165 -15 -318l17 -22q528 26 987 0z" />
    <glyph glyph-name="hbar" unicode="&#x127;" horiz-adv-x="1292" 
d="M702 1159q63 0 119.5 -13t112 -46t95.5 -83t64.5 -130t24.5 -182v-705h-100v662q0 91 -19.5 162.5t-51.5 116.5t-76 74.5t-90 41.5t-97 12q-93 0 -169 -39.5t-123 -102.5t-72 -137.5t-25 -148.5v-641h-102v1343h-183v91h183v204h102q0 -136 -2 -204h379v-91h-381
q-9 -217 -27 -466h21q135 282 417 282z" />
    <glyph glyph-name="Imacron" unicode="&#x12a;" horiz-adv-x="563" 
d="M608 1843h-651v94h651v-94zM336 0h-109v1597h109v-1597z" />
    <glyph glyph-name="imacron" unicode="&#x12b;" horiz-adv-x="487" 
d="M588 1434h-688v92h688v-92zM295 0h-102v1126h102v-1126z" />
    <glyph glyph-name="Iogonek" unicode="&#x12e;" horiz-adv-x="563" 
d="M344 -385q38 0 88 14v-78q-55 -14 -94 -14q-114 0 -189 63t-75 169q0 72 40.5 127.5t116.5 103.5h-4v1597h109v-1597q-178 -96 -178 -221q0 -74 53.5 -119t132.5 -45z" />
    <glyph glyph-name="iogonek" unicode="&#x12f;" horiz-adv-x="487" 
d="M246 1440q-43 0 -72 29.5t-29 72.5q0 40 29 68t72 28q41 0 69.5 -28t28.5 -68q0 -43 -28.5 -72.5t-69.5 -29.5zM303 -385q38 0 88 14v-78q-55 -14 -98 -14q-110 0 -185 62.5t-75 164.5q0 75 42.5 131t119.5 105h-2v1126h102v-1126h-2q-87 -48 -130.5 -101t-43.5 -120
q0 -74 53 -119t131 -45z" />
    <glyph glyph-name="Idotaccent" unicode="&#x130;" horiz-adv-x="563" 
d="M283 1792q-43 0 -72 29.5t-29 72.5q0 40 29.5 68.5t71.5 28.5q41 0 69.5 -28.5t28.5 -68.5q0 -43 -28.5 -72.5t-69.5 -29.5zM336 0h-109v1597h109v-1597z" />
    <glyph glyph-name="dotlessi" unicode="&#x131;" horiz-adv-x="487" 
d="M295 0h-102v1126h102v-1126z" />
    <glyph glyph-name="uni0136" unicode="&#x136;" horiz-adv-x="1345" 
d="M336 0h-109v1597h109v-110v-116.5t-0.5 -107.5t-1.5 -117t-3 -108.5t-5.5 -118.5t-8 -110.5t-10.5 -118.5h21q83 92 166 183t182 197t156.5 167t180 190t161.5 170h131q-7 -7 -63 -67t-67.5 -72t-62.5 -66.5t-68.5 -72t-63.5 -65.5t-69.5 -71.5t-65 -65.5t-71.5 -70.5
t-67 -64t-72 -67.5v-24q327 -396 711 -891h-134q-409 511 -637 836h-18q-94 -141 -231 -258q10 -199 10 -578zM670 -489h-52q3 6 13.5 25.5t15 27.5t14.5 25.5t17 28.5t17.5 27t21.5 31t24 31q-114 0 -114 88q0 39 27 62.5t69 23.5q40 0 67 -27t27 -67q0 -37 -28.5 -89
t-118.5 -187z" />
    <glyph glyph-name="uni0137" unicode="&#x137;" horiz-adv-x="1044" 
d="M295 0h-102v1638h102v-175v-191t-1 -171t-3 -193t-5.5 -173.5t-9.5 -189.5h23q162 177 549 581h129l-440 -436q82 -103 161.5 -208.5t202.5 -272.5t154 -209h-115q-264 352 -461 629q-95 -118 -205 -191q21 -160 21 -438zM506 -489h-51q3 6 13.5 25.5t15 27.5t14.5 25.5
t17 28.5t17.5 27t21.5 31t24 31q-115 0 -115 88q0 39 27 62.5t69 23.5q40 0 67 -27t27 -67q0 -37 -28.5 -89t-118.5 -187z" />
    <glyph glyph-name="Lacute" unicode="&#x139;" horiz-adv-x="1214" 
d="M694 2036l-342 -316h-94l266 316h170zM1182 0h-955v1597h109q0 -981 -23 -1499l21 -20q139 13 304 19t257.5 6.5t286.5 0.5v-104z" />
    <glyph glyph-name="lacute" unicode="&#x13a;" horiz-adv-x="487" 
d="M647 2077l-342 -316h-94l266 316h170zM295 0h-102v1638h102v-1638z" />
    <glyph glyph-name="uni013B" unicode="&#x13b;" horiz-adv-x="1214" 
d="M1182 0h-955v1597h109q0 -981 -23 -1499l21 -20q139 13 304 19t257.5 6.5t286.5 0.5v-104zM596 -489h-51q3 6 13.5 25.5t15 27.5t14.5 25.5t17 28.5t17.5 27t21.5 31t24 31q-115 0 -115 88q0 39 27 62.5t69 23.5q40 0 67 -27t27 -67q0 -37 -28.5 -89t-118.5 -187z" />
    <glyph glyph-name="uni013C" unicode="&#x13c;" horiz-adv-x="487" 
d="M295 0h-102v1638h102v-1638zM197 -489h-52q3 6 13.5 25.5t15 27.5t14.5 25.5t17 28.5t17.5 27t21.5 31t24 31q-114 0 -114 88q0 39 27 62.5t69 23.5q40 0 67 -27t27 -67q0 -37 -28.5 -89t-118.5 -187z" />
    <glyph glyph-name="Lcaron" unicode="&#x13d;" horiz-adv-x="1214" 
d="M883 1198h-72q76 160 150 244q-97 18 -97 94q0 40 29 68t70 28q38 0 66 -28t28 -68q0 -35 -30.5 -93.5t-143.5 -244.5zM1182 0h-955v1597h109q0 -981 -23 -1499l21 -20q139 13 304 19t257.5 6.5t286.5 0.5v-104z" />
    <glyph glyph-name="lcaron" unicode="&#x13e;" horiz-adv-x="487" 
d="M295 0h-102v1638h102v-1638zM608 1198h-71q75 157 149 244q-96 18 -96 94q0 40 28.5 68t69.5 28q40 0 67 -28t27 -68q0 -35 -30.5 -93.5t-143.5 -244.5z" />
    <glyph glyph-name="Lslash" unicode="&#x141;" horiz-adv-x="1214" 
d="M313 98l21 -20q139 13 304 19t257.5 6.5t286.5 0.5v-104h-955v793l-176 -82v94l176 82v710h109q0 -440 -2 -659l325 152v-95l-325 -153q-6 -361 -21 -744z" />
    <glyph glyph-name="lslash" unicode="&#x142;" horiz-adv-x="487" 
d="M295 1008l201 143v-96l-201 -144v-911h-102v840l-203 -146v94l203 146v704h102v-630z" />
    <glyph glyph-name="Nacute" unicode="&#x143;" horiz-adv-x="1695" 
d="M1190 2036l-342 -316h-94l266 316h170zM336 0h-109v1597h101q486 -649 1038 -1452h20q-7 119 -12.5 254t-8 227.5t-4 258.5t-1.5 224.5v256v231.5h108v-1597h-100q-551 736 -1036 1432h-21q7 -117 12.5 -247.5t8 -229.5t3.5 -249.5t1.5 -227t0 -247.5t-0.5 -231z" />
    <glyph glyph-name="nacute" unicode="&#x144;" horiz-adv-x="1292" 
d="M993 1673l-311 -395h-90l252 395h149zM295 0h-102v1126h98q0 -151 -27 -249h21q135 282 420 282q63 0 119.5 -13t111.5 -46t94.5 -83t63.5 -130t24 -182v-705h-100v662q0 91 -19.5 162.5t-51.5 116.5t-76 74.5t-90 41.5t-97 12q-93 0 -169 -39t-123 -102t-72 -137.5
t-25 -149.5v-641z" />
    <glyph glyph-name="uni0145" unicode="&#x145;" horiz-adv-x="1695" 
d="M336 0h-109v1597h101q486 -649 1038 -1452h20q-7 119 -12.5 254t-8 227.5t-4 258.5t-1.5 224.5v256v231.5h108v-1597h-100q-551 736 -1036 1432h-21q7 -117 12.5 -247.5t8 -229.5t3.5 -249.5t1.5 -227t0 -247.5t-0.5 -231zM821 -489h-51q3 6 13.5 25.5t15 27.5t14.5 25.5
t17 28.5t17.5 27t21.5 31t24 31q-115 0 -115 88q0 39 27 62.5t69 23.5q40 0 67.5 -27t27.5 -67q0 -37 -28 -88t-120 -188z" />
    <glyph glyph-name="uni0146" unicode="&#x146;" horiz-adv-x="1292" 
d="M295 0h-102v1126h98q0 -151 -27 -249h21q135 282 420 282q63 0 119.5 -13t111.5 -46t94.5 -83t63.5 -130t24 -182v-705h-100v662q0 91 -19.5 162.5t-51.5 116.5t-76 74.5t-90 41.5t-97 12q-93 0 -169 -39t-123 -102t-72 -137.5t-25 -149.5v-641zM618 -489h-51
q3 6 13.5 25.5t15 27.5t14.5 25.5t17 28.5t17.5 27t21.5 31t24 31q-115 0 -115 88q0 39 27.5 62.5t69.5 23.5q40 0 67 -27t27 -67q0 -37 -28 -88t-120 -188z" />
    <glyph glyph-name="Ncaron" unicode="&#x147;" horiz-adv-x="1695" 
d="M899 1720h-147l-263 297h95q52 -48 80 -75t69 -74t72 -94h43q31 46 73 94.5t66 72t80 76.5h96zM336 0h-109v1597h101q486 -649 1038 -1452h20q-7 119 -12.5 254t-8 227.5t-4 258.5t-1.5 224.5v256v231.5h108v-1597h-100q-551 736 -1036 1432h-21q7 -117 12.5 -247.5
t8 -229.5t3.5 -249.5t1.5 -227t0 -247.5t-0.5 -231z" />
    <glyph glyph-name="ncaron" unicode="&#x148;" horiz-adv-x="1292" 
d="M719 1278h-152l-297 356h97q173 -170 258 -291h37q35 51 85.5 109t77 85.5t93.5 96.5h98zM295 0h-102v1126h98q0 -151 -27 -249h21q135 282 420 282q63 0 119.5 -13t111.5 -46t94.5 -83t63.5 -130t24 -182v-705h-100v662q0 91 -19.5 162.5t-51.5 116.5t-76 74.5t-90 41.5
t-97 12q-93 0 -169 -39t-123 -102t-72 -137.5t-25 -149.5v-641z" />
    <glyph glyph-name="Eng" unicode="&#x14a;" horiz-adv-x="1695" 
d="M1085 -483q-133 0 -219 59v107q95 -70 201 -70q139 0 217 106.5t78 282.5q-548 734 -1030 1428h-21q7 -117 12.5 -247t8 -229t3.5 -249t1.5 -226.5t0 -247.5t-0.5 -231h-109v1597h101q475 -635 1038 -1450h20q-7 119 -12.5 253.5t-8 226.5t-4 258t-1.5 224.5v256v231.5
h108v-1517q0 -563 -383 -563z" />
    <glyph glyph-name="eng" unicode="&#x14b;" horiz-adv-x="1292" 
d="M815 -483q-127 0 -213 59v100q99 -69 197 -69q40 0 72.5 10.5t54.5 32t38.5 44.5t26 58.5t15.5 62t8.5 67.5t3 62t0.5 58v660q0 91 -19.5 162.5t-51.5 116.5t-76 74.5t-90 41.5t-97 12q-93 0 -169 -39t-123 -102t-72 -137.5t-25 -149.5v-641h-102v1126h98
q0 -151 -27 -249h21q135 282 420 282q62 0 118.5 -13t111.5 -44.5t94.5 -80.5t64 -127t24.5 -177v-731q0 -38 -0.5 -60t-3 -65t-7.5 -70.5t-15.5 -67t-25.5 -65.5t-38 -55t-52.5 -46t-70.5 -28.5t-90 -11.5z" />
    <glyph glyph-name="Omacron" unicode="&#x14c;" horiz-adv-x="1826" 
d="M1237 1843h-651v94h651v-94zM913 -35q-162 0 -309.5 63.5t-255.5 172.5t-171.5 264.5t-63.5 331.5q0 175 63 330.5t170.5 265.5t255 173.5t311.5 63.5q222 0 406 -111t289.5 -302.5t105.5 -419.5q0 -230 -107 -421.5t-291 -301t-403 -109.5zM915 68q135 0 259 55t217 150
t148.5 232t55.5 292q0 156 -55.5 293.5t-148.5 232.5t-217 150t-259 55q-136 0 -261.5 -55t-219 -150t-149.5 -232.5t-56 -293.5q0 -155 56 -292t149.5 -232t219 -150t261.5 -55z" />
    <glyph glyph-name="omacron" unicode="&#x14d;" horiz-adv-x="1320" 
d="M1006 1434h-689v92h689v-92zM662 -35q-248 0 -405 167t-157 429q0 264 157 431t405 167q246 0 402.5 -167t156.5 -431q0 -262 -156.5 -429t-402.5 -167zM662 57q199 0 323.5 140.5t124.5 363.5q0 224 -124.5 366t-323.5 142t-325 -142.5t-126 -365.5t126 -363.5
t325 -140.5z" />
    <glyph glyph-name="Ohungarumlaut" unicode="&#x150;" horiz-adv-x="1826" 
d="M1053 2036l-271 -316h-96l213 316h154zM1343 2036l-290 -316h-97l232 316h155zM913 -35q-162 0 -309.5 63.5t-255.5 172.5t-171.5 264.5t-63.5 331.5q0 175 63 330.5t170.5 265.5t255 173.5t311.5 63.5q222 0 406 -111t289.5 -302.5t105.5 -419.5q0 -230 -107 -421.5
t-291 -301t-403 -109.5zM915 68q135 0 259 55t217 150t148.5 232t55.5 292q0 156 -55.5 293.5t-148.5 232.5t-217 150t-259 55q-136 0 -261.5 -55t-219 -150t-149.5 -232.5t-56 -293.5q0 -155 56 -292t149.5 -232t219 -150t261.5 -55z" />
    <glyph glyph-name="ohungarumlaut" unicode="&#x151;" horiz-adv-x="1320" 
d="M805 1673l-273 -395h-90l211 395h152zM1100 1673l-293 -395h-90l231 395h152zM662 -35q-248 0 -405 167t-157 429q0 264 157 431t405 167q246 0 402.5 -167t156.5 -431q0 -262 -156.5 -429t-402.5 -167zM662 57q199 0 323.5 140.5t124.5 363.5q0 224 -124.5 366
t-323.5 142t-325 -142.5t-126 -365.5t126 -363.5t325 -140.5z" />
    <glyph glyph-name="OE" unicode="&#x152;" horiz-adv-x="2729" 
d="M911 -35q-162 0 -308.5 63.5t-254.5 172.5t-171.5 264.5t-63.5 331.5q0 175 63 330.5t170.5 265.5t255 173.5t311.5 63.5q222 0 406 -112.5t285 -303.5v383h995v-98q-43 0 -205 -1t-237 -0.5t-205 6t-242 16.5l-18 -19q29 -311 2 -627l16 -22q305 20 848 20v-98
q-530 0 -846 21l-18 -23q27 -337 -2 -674l18 -20q151 13 327.5 19t275 6.5t306.5 0.5v-104h-1015v381q-102 -191 -286.5 -303.5t-406.5 -112.5zM915 68q135 0 258.5 55t216.5 150t148 232t55 292q0 156 -55 293.5t-148 232.5t-216.5 150t-258.5 55q-136 0 -261.5 -55
t-218.5 -150t-148.5 -232.5t-55.5 -293.5q0 -155 55.5 -292t148.5 -232t218.5 -150t261.5 -55z" />
    <glyph glyph-name="oe" unicode="&#x153;" horiz-adv-x="2279" 
d="M662 -35q-248 0 -405 167t-157 429q0 264 157 431t405 167q174 0 305.5 -86.5t197.5 -238.5q65 151 195.5 238t300.5 87q66 0 129 -13t134 -50.5t123.5 -96.5t87 -161t34.5 -234v-45h-950q1 -224 126 -364t320 -140q155 0 264.5 88.5t165.5 227.5l92 -31
q-65 -180 -205.5 -277.5t-322.5 -97.5q-170 0 -300 86.5t-194 237.5q-65 -151 -197.5 -237.5t-305.5 -86.5zM662 57q199 0 323.5 140.5t124.5 363.5q0 224 -124.5 366t-323.5 142t-325 -142.5t-126 -365.5t126 -363.5t325 -140.5zM1225 647h831q0 91 -24 164.5t-63 120.5
t-92 78.5t-107.5 45t-112.5 13.5q-175 0 -291 -116t-141 -306z" />
    <glyph glyph-name="Racute" unicode="&#x154;" horiz-adv-x="1415" 
d="M1026 2036l-342 -316h-94l266 316h170zM336 0h-109v1597h547q240 0 378 -129.5t138 -334.5q0 -199 -117 -319.5t-317 -137.5v-21q71 -97 142 -200.5t171 -254t134 -200.5h-121l-439 653q-90 0 -140.5 1t-132.5 8.5t-155 21.5q21 -260 21 -684zM315 752l19 -23
q166 21 438 21q194 0 300 98.5t106 273.5q0 173 -114.5 275t-309.5 102q-248 0 -420 21l-21 -19q32 -376 2 -749z" />
    <glyph glyph-name="racute" unicode="&#x155;" horiz-adv-x="827" 
d="M813 1673l-311 -395h-90l252 395h149zM295 0h-102v1126h98q0 -14 1 -59.5t0.5 -70.5t-4.5 -69.5t-12 -88.5h23q42 155 143.5 238t233.5 83q75 0 131 -22v-109q-60 29 -139 29q-85 0 -156.5 -41t-118 -108.5t-72.5 -154t-26 -178.5v-575z" />
    <glyph glyph-name="uni0156" unicode="&#x156;" horiz-adv-x="1415" 
d="M336 0h-109v1597h547q240 0 378 -129.5t138 -334.5q0 -199 -117 -319.5t-317 -137.5v-21q71 -97 142 -200.5t171 -254t134 -200.5h-121l-439 653q-90 0 -140.5 1t-132.5 8.5t-155 21.5q21 -260 21 -684zM315 752l19 -23q166 21 438 21q194 0 300 98.5t106 273.5
q0 173 -114.5 275t-309.5 102q-248 0 -420 21l-21 -19q32 -376 2 -749zM678 -489h-51q3 6 13.5 25.5t15 27.5t14.5 25.5t17 28.5t17.5 27t21.5 31t24 31q-115 0 -115 88q0 39 27 62.5t69 23.5q40 0 67 -27t27 -67q0 -37 -28.5 -89t-118.5 -187z" />
    <glyph glyph-name="uni0157" unicode="&#x157;" horiz-adv-x="827" 
d="M295 0h-102v1126h98q0 -14 1 -59.5t0.5 -70.5t-4.5 -69.5t-12 -88.5h23q42 155 143.5 238t233.5 83q75 0 131 -22v-109q-60 29 -139 29q-85 0 -156.5 -41t-118 -108.5t-72.5 -154t-26 -178.5v-575zM188 -489h-51q3 6 13.5 25.5t15 27.5t14.5 25.5t17 28.5t17.5 27
t21.5 31t24 31q-115 0 -115 88q0 39 27.5 62.5t69.5 23.5q40 0 67 -27t27 -67q0 -37 -28 -88t-120 -188z" />
    <glyph glyph-name="Rcaron" unicode="&#x158;" horiz-adv-x="1415" 
d="M735 1720h-147l-262 297h94q52 -48 80 -75t69 -74t72 -94h43q31 46 73 94.5t66 72t80 76.5h96zM336 0h-109v1597h547q240 0 378 -129.5t138 -334.5q0 -199 -117 -319.5t-317 -137.5v-21q71 -97 142 -200.5t171 -254t134 -200.5h-121l-439 653q-90 0 -140.5 1t-132.5 8.5
t-155 21.5q21 -260 21 -684zM315 752l19 -23q166 21 438 21q194 0 300 98.5t106 273.5q0 173 -114.5 275t-309.5 102q-248 0 -420 21l-21 -19q32 -376 2 -749z" />
    <glyph glyph-name="rcaron" unicode="&#x159;" horiz-adv-x="827" 
d="M539 1278h-152l-297 356h96q173 -170 258 -291h37q35 51 85.5 109t77 85.5t93.5 96.5h99zM295 0h-102v1126h98q0 -14 1 -59.5t0.5 -70.5t-4.5 -69.5t-12 -88.5h23q42 155 143.5 238t233.5 83q75 0 131 -22v-109q-60 29 -139 29q-85 0 -156.5 -41t-118 -108.5t-72.5 -154
t-26 -178.5v-575z" />
    <glyph glyph-name="Sacute" unicode="&#x15a;" horiz-adv-x="1316" 
d="M952 2036l-342 -316h-94l266 316h170zM678 -35q-69 0 -136.5 13.5t-138.5 47.5t-130 85.5t-109 134t-78 186.5l100 37q51 -191 185.5 -296t310.5 -105q59 0 115.5 11.5t110.5 37.5t95 64t66 96t25 129q0 60 -19.5 108t-48 77.5t-74.5 54t-84.5 38t-93.5 30.5
q-8 2 -12.5 3.5t-11.5 3.5t-13 4l-149 47q-45 14 -76.5 25t-81.5 33.5t-86 45t-76.5 57.5t-65.5 74t-42 92.5t-17 114.5q0 103 45 184.5t119 131t163 75t183 25.5q121 0 224 -41t182.5 -129t116.5 -215l-97 -39q-47 148 -163 235t-279 87q-160 0 -269.5 -84t-109.5 -221
q0 -48 15.5 -90.5t36.5 -72.5t56.5 -58t62.5 -44.5t69 -34t60.5 -24t51.5 -16.5l152 -52q12 -4 35 -11q75 -23 116 -37.5t107 -49t101 -72t63 -100t28 -139.5q0 -104 -44.5 -191.5t-119 -144.5t-170.5 -89t-200 -32z" />
    <glyph glyph-name="sacute" unicode="&#x15b;" horiz-adv-x="1003" 
d="M850 1673l-311 -395h-90l251 395h150zM530 -35q-160 0 -285 87t-173 229l96 30q44 -111 147 -183.5t217 -72.5q33 0 68 6.5t74 23.5t69 42t50 66t20 92q0 40 -15 72.5t-36 53t-58.5 39t-68 29t-78.5 23.5l-104 28q-29 8 -49.5 14.5t-57.5 21.5t-63.5 30.5t-58.5 41.5
t-52 55.5t-33.5 71t-13.5 89.5q0 62 22 114t58.5 86.5t84 58.5t96.5 35t99 11q137 0 246 -77.5t148 -194.5l-103 -35q-32 92 -112 154.5t-193 62.5q-105 0 -173.5 -56t-68.5 -149q0 -45 19 -82.5t45.5 -61.5t67.5 -45t73 -32t74 -22l110 -33q51 -15 81 -25.5t78 -35
t75.5 -52t48.5 -73t21 -101.5q0 -140 -111.5 -238t-280.5 -98z" />
    <glyph glyph-name="Scedilla" unicode="&#x15e;" horiz-adv-x="1316" 
d="M1212 422q0 -133 -72 -237.5t-186 -159.5t-249 -60q-57 -79 -107 -129l6 -6q44 20 96 20q80 0 130.5 -43.5t50.5 -113.5q0 -78 -61 -128t-154 -50q-70 0 -136.5 29t-109.5 79l49 45q33 -40 85 -65t105 -25q61 0 102.5 32t41.5 79q0 46 -36.5 75t-92.5 29t-99 -24l-49 47
l101 151q-66 5 -128 22.5t-126.5 53t-117.5 86.5t-98 129t-71 174l100 37q51 -191 185.5 -296t310.5 -105q59 0 115.5 11.5t110.5 37.5t95 64t66 96t25 129q0 60 -19.5 108t-48 77.5t-74.5 54t-84.5 38t-93.5 30.5q-8 2 -12.5 3.5t-11.5 3.5t-13 4l-149 47q-45 14 -76.5 25
t-81.5 33.5t-86 45t-76.5 57.5t-65.5 74t-42 92.5t-17 114.5q0 103 45 184.5t119 131t163 75t183 25.5q121 0 224 -41t182.5 -129t116.5 -215l-97 -39q-47 148 -163 235t-279 87q-160 0 -269.5 -84t-109.5 -221q0 -48 15.5 -90.5t36.5 -72.5t56.5 -58t62.5 -44.5t69 -34
t60.5 -24t51.5 -16.5l152 -52q12 -4 35 -11q75 -23 116 -37.5t107 -49t101 -72t63 -100t28 -139.5z" />
    <glyph glyph-name="scedilla" unicode="&#x15f;" horiz-adv-x="1003" 
d="M922 301q0 -135 -104 -232t-265 -104q-57 -79 -107 -129l7 -6q44 20 96 20q80 0 130 -43.5t50 -113.5q0 -78 -61 -128t-154 -50q-70 0 -136.5 29t-109.5 79l49 45q33 -40 85 -65t106 -25q61 0 102 32t41 79q0 46 -36.5 75t-92.5 29q-55 0 -98 -24l-49 47l100 151
q-142 15 -251 100t-152 214l96 30q44 -111 147 -183.5t217 -72.5q33 0 68 6.5t74 23.5t69 42t50 66t20 92q0 40 -15 72.5t-36 53t-58.5 39t-68 29t-78.5 23.5l-104 28q-29 8 -49.5 14.5t-57.5 21.5t-63.5 30.5t-58.5 41.5t-52 55.5t-33.5 71t-13.5 89.5q0 62 22 114
t58.5 86.5t84 58.5t96.5 35t99 11q137 0 246 -77.5t148 -194.5l-103 -35q-32 92 -112 154.5t-193 62.5q-105 0 -173.5 -56t-68.5 -149q0 -45 19 -82.5t45.5 -61.5t67.5 -45t73 -32t74 -22l110 -33q51 -15 81 -25.5t78 -35t75.5 -52t48.5 -73t21 -101.5z" />
    <glyph glyph-name="Scaron" unicode="&#x160;" horiz-adv-x="1316" 
d="M725 1720h-147l-263 297h95q52 -48 80 -75t69 -74t72 -94h43q31 46 73 94.5t66 72t80 76.5h96zM678 -35q-69 0 -136.5 13.5t-138.5 47.5t-130 85.5t-109 134t-78 186.5l100 37q51 -191 185.5 -296t310.5 -105q59 0 115.5 11.5t110.5 37.5t95 64t66 96t25 129
q0 60 -19.5 108t-48 77.5t-74.5 54t-84.5 38t-93.5 30.5q-8 2 -12.5 3.5t-11.5 3.5t-13 4l-149 47q-45 14 -76.5 25t-81.5 33.5t-86 45t-76.5 57.5t-65.5 74t-42 92.5t-17 114.5q0 103 45 184.5t119 131t163 75t183 25.5q121 0 224 -41t182.5 -129t116.5 -215l-97 -39
q-47 148 -163 235t-279 87q-160 0 -269.5 -84t-109.5 -221q0 -48 15.5 -90.5t36.5 -72.5t56.5 -58t62.5 -44.5t69 -34t60.5 -24t51.5 -16.5l152 -52q12 -4 35 -11q75 -23 116 -37.5t107 -49t101 -72t63 -100t28 -139.5q0 -104 -44.5 -191.5t-119 -144.5t-170.5 -89t-200 -32
z" />
    <glyph glyph-name="scaron" unicode="&#x161;" horiz-adv-x="1003" 
d="M575 1278h-151l-297 356h96q173 -170 258 -291h37q35 51 85.5 109t77 85.5t93.5 96.5h98zM530 -35q-160 0 -285 87t-173 229l96 30q44 -111 147 -183.5t217 -72.5q33 0 68 6.5t74 23.5t69 42t50 66t20 92q0 40 -15 72.5t-36 53t-58.5 39t-68 29t-78.5 23.5l-104 28
q-29 8 -49.5 14.5t-57.5 21.5t-63.5 30.5t-58.5 41.5t-52 55.5t-33.5 71t-13.5 89.5q0 62 22 114t58.5 86.5t84 58.5t96.5 35t99 11q137 0 246 -77.5t148 -194.5l-103 -35q-32 92 -112 154.5t-193 62.5q-105 0 -173.5 -56t-68.5 -149q0 -45 19 -82.5t45.5 -61.5t67.5 -45
t73 -32t74 -22l110 -33q51 -15 81 -25.5t78 -35t75.5 -52t48.5 -73t21 -101.5q0 -140 -111.5 -238t-280.5 -98z" />
    <glyph glyph-name="uni0162" unicode="&#x162;" horiz-adv-x="1296" 
d="M702 0h-14q-72 -107 -129 -164l6 -6q44 20 97 20q80 0 130 -43.5t50 -113.5q0 -78 -61 -128t-154 -50q-70 0 -136.5 29t-109.5 79l49 45q33 -40 85 -65t106 -25q61 0 102 32t41 79q0 46 -36.5 75t-92.5 29q-55 0 -98 -24l-50 47l121 184h-14q0 1025 22 1522
q-209 -23 -583 -23v98h1233v-98q-375 0 -584 23q20 -520 20 -1522z" />
    <glyph glyph-name="uni0163" unicode="&#x163;" horiz-adv-x="751" 
d="M707 1126v-88q-229 0 -375 21q20 -248 20 -703q0 -38 0.5 -58.5t3.5 -57.5t8.5 -58.5t17.5 -48.5t29 -42t43 -25.5t60 -10.5q93 0 193 70v-100q-88 -60 -207 -60q-27 0 -39 2q-53 -77 -107 -131l6 -6q44 20 97 20q80 0 130 -43.5t50 -113.5q0 -78 -61 -128t-154 -50
q-70 0 -136.5 29t-109.5 79l49 45q33 -40 85 -65t106 -25q61 0 102 32t41 79q0 46 -36.5 75t-92.5 29q-55 0 -98 -24l-49 47l110 168q-34 14 -60 37t-41 55.5t-24 60.5t-12.5 70t-4.5 64.5t-1 62.5q0 469 20 725q-101 -21 -245 -21v88q149 0 245 -20q-20 133 -20 360h102
q0 -227 -20 -360q139 20 375 20z" />
    <glyph glyph-name="Tcaron" unicode="&#x164;" horiz-adv-x="1296" 
d="M723 1720h-148l-262 297h95q52 -48 80 -75t69 -74t72 -94h43q31 46 73 94.5t66 72t80 76.5h96zM702 0h-108q0 1025 22 1522q-209 -23 -583 -23v98h1233v-98q-375 0 -584 23q20 -520 20 -1522z" />
    <glyph glyph-name="tcaron" unicode="&#x165;" horiz-adv-x="751" 
d="M823 1198h-71q25 52 41.5 84t45.5 78t62 84q-96 16 -96 92q0 40 28.5 68t69.5 28q40 0 67 -28t27 -68q0 -34 -31.5 -94.5t-142.5 -243.5zM500 -35q-52 0 -92.5 14.5t-66.5 34.5t-44.5 55t-27 62.5t-13.5 71.5t-5.5 67t-0.5 64q0 469 20 725q-101 -21 -245 -21v88
q149 0 245 -20q-20 133 -20 360h102q0 -227 -20 -360q139 20 375 20v-88q-229 0 -375 21q20 -248 20 -703q0 -38 0.5 -58.5t3.5 -57.5t8.5 -58.5t17.5 -48.5t29 -42t43 -25.5t60 -10.5q93 0 193 70v-100q-88 -60 -207 -60z" />
    <glyph glyph-name="Tbar" unicode="&#x166;" horiz-adv-x="1296" 
d="M1266 1597v-98q-375 0 -584 23q13 -382 16 -678h377v-92h-375q2 -252 2 -752h-108q0 500 2 752h-373v92h375q3 334 18 678q-209 -23 -583 -23v98h1233z" />
    <glyph glyph-name="tbar" unicode="&#x167;" horiz-adv-x="751" 
d="M707 1126v-88q-229 0 -375 21q15 -195 18 -371h338v-90h-336v-242q0 -38 0.5 -58.5t3.5 -57.5t8.5 -58.5t17.5 -48.5t29 -42t43 -25.5t60 -10.5q93 0 193 70v-100q-88 -60 -207 -60q-52 0 -92.5 14.5t-66.5 34.5t-44.5 55t-27 62.5t-13.5 71.5t-5.5 67t-0.5 64
q0 176 2 264h-225v90h225q8 245 18 371q-101 -21 -245 -21v88q149 0 245 -20q-20 133 -20 360h102q0 -227 -20 -360q139 20 375 20z" />
    <glyph glyph-name="Umacron" unicode="&#x16a;" horiz-adv-x="1544" 
d="M1098 1843h-652v94h652v-94zM766 -35q-127 0 -228 35.5t-175.5 107.5t-115 188.5t-40.5 270.5v1030h108v-1024q0 -136 33 -235.5t95 -159t143.5 -87.5t185.5 -28t185.5 28t143.5 87.5t95 159t33 235.5v1024h108v-1030q0 -281 -145.5 -441.5t-425.5 -160.5z" />
    <glyph glyph-name="umacron" unicode="&#x16b;" horiz-adv-x="1273" 
d="M958 1434h-688v92h688v-92zM580 -35q-60 0 -115 13.5t-109 46.5t-93.5 83.5t-64 130.5t-24.5 181v706h102v-663q0 -113 29 -195.5t78 -126.5t103.5 -64t115.5 -20q71 0 133 25.5t106 68.5t75.5 98.5t47 115t15.5 118.5v643h100v-774q0 -131 8.5 -204t28.5 -148h-102
q-20 75 -24 126.5t9 141.5h-20q-120 -303 -399 -303z" />
    <glyph glyph-name="Uring" unicode="&#x16e;" horiz-adv-x="1544" 
d="M772 1716q-95 0 -157 60.5t-62 154.5q0 91 62 151t157 60q93 0 155 -60t62 -151q0 -93 -62 -154t-155 -61zM772 1796q59 0 98 36t39 99q0 59 -39 94t-98 35q-61 0 -101 -35t-40 -94q0 -63 39.5 -99t101.5 -36zM766 -35q-127 0 -228 35.5t-175.5 107.5t-115 188.5
t-40.5 270.5v1030h108v-1024q0 -136 33 -235.5t95 -159t143.5 -87.5t185.5 -28t185.5 28t143.5 87.5t95 159t33 235.5v1024h108v-1030q0 -281 -145.5 -441.5t-425.5 -160.5z" />
    <glyph glyph-name="uring" unicode="&#x16f;" horiz-adv-x="1273" 
d="M612 1245q-94 0 -156.5 61t-62.5 154q0 91 62.5 151t156.5 60t155.5 -60t61.5 -151q0 -94 -61.5 -154.5t-155.5 -60.5zM612 1325q61 0 100.5 36t39.5 99q0 59 -40 94t-100 35q-61 0 -100 -35t-39 -94q0 -63 38.5 -99t100.5 -36zM580 -35q-60 0 -115 13.5t-109 46.5
t-93.5 83.5t-64 130.5t-24.5 181v706h102v-663q0 -113 29 -195.5t78 -126.5t103.5 -64t115.5 -20q71 0 133 25.5t106 68.5t75.5 98.5t47 115t15.5 118.5v643h100v-774q0 -131 8.5 -204t28.5 -148h-102q-20 75 -24 126.5t9 141.5h-20q-120 -303 -399 -303z" />
    <glyph glyph-name="Uhungarumlaut" unicode="&#x170;" horiz-adv-x="1544" 
d="M911 2036l-270 -316h-96l213 316h153zM1202 2036l-291 -316h-96l232 316h155zM766 -35q-127 0 -228 35.5t-175.5 107.5t-115 188.5t-40.5 270.5v1030h108v-1024q0 -136 33 -235.5t95 -159t143.5 -87.5t185.5 -28t185.5 28t143.5 87.5t95 159t33 235.5v1024h108v-1030
q0 -281 -145.5 -441.5t-425.5 -160.5z" />
    <glyph glyph-name="uhungarumlaut" unicode="&#x171;" horiz-adv-x="1273" 
d="M758 1673l-273 -395h-90l211 395h152zM1053 1673l-293 -395h-90l231 395h152zM580 -35q-60 0 -115 13.5t-109 46.5t-93.5 83.5t-64 130.5t-24.5 181v706h102v-663q0 -113 29 -195.5t78 -126.5t103.5 -64t115.5 -20q71 0 133 25.5t106 68.5t75.5 98.5t47 115t15.5 118.5
v643h100v-774q0 -131 8.5 -204t28.5 -148h-102q-20 75 -24 126.5t9 141.5h-20q-120 -303 -399 -303z" />
    <glyph glyph-name="Uogonek" unicode="&#x172;" horiz-adv-x="1544" 
d="M1229 573v1024h108v-1030q0 -253 -120.5 -410t-350.5 -186q-129 -87 -129 -192q0 -74 54 -119t133 -45q38 0 88 14v-78q-55 -14 -94 -14q-114 0 -189.5 63t-75.5 169q0 114 109 196q-259 2 -407 151t-148 451v1030h108v-1024q0 -136 33 -235.5t95 -159t143.5 -87.5
t185.5 -28t185.5 28t143.5 87.5t95 159t33 235.5z" />
    <glyph glyph-name="uogonek" unicode="&#x173;" horiz-adv-x="1273" 
d="M1120 -385q38 0 88 14v-78q-55 -14 -98 -14q-110 0 -185 62.5t-75 164.5q0 75 42.5 131t119.5 105h2q-20 75 -24 126.5t9 141.5h-20q-120 -303 -399 -303q-60 0 -115 13.5t-109 46.5t-93.5 83.5t-64 130.5t-24.5 181v706h102v-663q0 -113 29 -195.5t78 -126.5t103.5 -64
t115.5 -20q71 0 133 25.5t106 68.5t75.5 98.5t47 115t15.5 118.5v643h100v-774q0 -131 8.5 -204t28.5 -148h-6q-87 -48 -130.5 -101t-43.5 -120q0 -74 53 -119t131 -45z" />
    <glyph glyph-name="Wcircumflex" unicode="&#x174;" horiz-adv-x="2316" 
d="M915 1720h-94l262 297h148l264 -297h-96q-113 107 -157 160q-35 42 -62 84h-43q-31 -47 -73.5 -95.5t-67 -72.5t-81.5 -76zM698 0h-127l-530 1597h113q298 -864 473 -1482h22q154 548 449 1482h121q291 -908 454 -1484h23q203 713 467 1484h112l-530 -1597h-127
q-261 781 -449 1475h-22q-193 -715 -449 -1475z" />
    <glyph glyph-name="wcircumflex" unicode="&#x175;" horiz-adv-x="1847" 
d="M645 1278h-96l297 354h151l297 -354h-98q-59 59 -91.5 92.5t-79 89.5t-79.5 107h-49q-80 -124 -252 -289zM559 0h-98l-420 1126h113q88 -244 125 -346.5t105 -305t120 -374.5h20q114 382 344 1026h109q90 -243 127.5 -346t107 -305.5t121.5 -374.5h21q49 173 113.5 370
t105.5 315t121 341h110l-418 -1126h-100q-223 600 -360 1014h-6q-111 -341 -361 -1014z" />
    <glyph glyph-name="Ycircumflex" unicode="&#x176;" horiz-adv-x="1406" 
d="M461 1720h-94l262 297h147l264 -297h-96q-113 107 -157 160q-34 41 -62 84h-43q-31 -48 -72.5 -95.5t-68 -73t-80.5 -75.5zM756 0h-109q0 395 12 594q-219 347 -614 1003h121q361 -610 526 -925h23q27 53 55 105t60 109.5t55.5 100t61.5 107.5t57 98t62 105.5t57.5 96.5
t63 105t58.5 98h115q-413 -686 -615 -1003q11 -219 11 -594z" />
    <glyph glyph-name="ycircumflex" unicode="&#x177;" horiz-adv-x="1093" 
d="M256 1278h-96l297 354h151l297 -354h-98q-59 59 -91.5 92.5t-79 89.5t-79.5 107h-49q-80 -124 -252 -289zM414 -451h-90l176 443l-463 1134h113q221 -541 389 -1044h20q164 498 387 1044h111z" />
    <glyph glyph-name="Ydieresis" unicode="&#x178;" horiz-adv-x="1406" 
d="M512 1798q-38 0 -65 28t-27 68q0 37 27 64t65 27q39 0 65.5 -27t26.5 -64q0 -40 -26.5 -68t-65.5 -28zM893 1798q-41 0 -66.5 27.5t-25.5 68.5q0 38 26 64.5t66 26.5q38 0 65 -27t27 -64q0 -40 -27 -68t-65 -28zM756 0h-109q0 395 12 594q-219 347 -614 1003h121
q361 -610 526 -925h23q27 53 55 105t60 109.5t55.5 100t61.5 107.5t57 98t62 105.5t57.5 96.5t63 105t58.5 98h115q-413 -686 -615 -1003q11 -219 11 -594z" />
    <glyph glyph-name="Zacute" unicode="&#x179;" horiz-adv-x="1337" 
d="M999 2036l-342 -316h-94l266 316h170zM1276 0h-1219v92q251 339 1076 1415l-11 21q-510 -29 -1022 -29v98h1157v-86q-158 -213 -332 -441t-404 -526t-341 -442l10 -22q389 24 1086 24v-104z" />
    <glyph glyph-name="zacute" unicode="&#x17a;" horiz-adv-x="974" 
d="M840 1673l-312 -395h-90l252 395h150zM926 0h-869v72q53 75 165 233.5t180 254.5t167 232.5t185 251.5l-9 21q-358 -31 -645 -31v92h779v-71q-410 -578 -699 -963l8 -20q262 20 738 20v-92z" />
    <glyph glyph-name="Zdotaccent" unicode="&#x17b;" horiz-adv-x="1337" 
d="M653 1792q-43 0 -71.5 29.5t-28.5 72.5q0 40 29 68.5t71 28.5q41 0 70 -28.5t29 -68.5q0 -43 -29 -72.5t-70 -29.5zM1276 0h-1219v92q251 339 1076 1415l-11 21q-510 -29 -1022 -29v98h1157v-86q-158 -213 -332 -441t-404 -526t-341 -442l10 -22q389 24 1086 24v-104z
" />
    <glyph glyph-name="zdotaccent" unicode="&#x17c;" horiz-adv-x="974" 
d="M492 1440q-43 0 -72 29.5t-29 72.5q0 40 29 68t72 28q41 0 69.5 -28t28.5 -68q0 -43 -28.5 -72.5t-69.5 -29.5zM926 0h-869v72q53 75 165 233.5t180 254.5t167 232.5t185 251.5l-9 21q-358 -31 -645 -31v92h779v-71q-410 -578 -699 -963l8 -20q262 20 738 20v-92z" />
    <glyph glyph-name="Zcaron" unicode="&#x17d;" horiz-adv-x="1337" 
d="M709 1720h-148l-262 297h94q52 -48 80 -75t69 -74t72 -94h43q10 15 21 30t19.5 26.5t22.5 27.5t20.5 23.5t23.5 25t21 22t24 23.5t22 21t24 23l22 21h96zM1276 0h-1219v92q251 339 1076 1415l-11 21q-510 -29 -1022 -29v98h1157v-86q-158 -213 -332 -441t-404 -526
t-341 -442l10 -22q389 24 1086 24v-104z" />
    <glyph glyph-name="zcaron" unicode="&#x17e;" horiz-adv-x="974" 
d="M565 1278h-151l-297 356h96q173 -170 258 -291h37q35 51 85.5 109t77 85.5t93.5 96.5h98zM926 0h-869v72q53 75 165 233.5t180 254.5t167 232.5t185 251.5l-9 21q-358 -31 -645 -31v92h779v-71q-410 -578 -699 -963l8 -20q262 20 738 20v-92z" />
    <glyph glyph-name="uni0218" unicode="&#x218;" horiz-adv-x="1316" 
d="M678 -35q-69 0 -136.5 13.5t-138.5 47.5t-130 85.5t-109 134t-78 186.5l100 37q51 -191 185.5 -296t310.5 -105q59 0 115.5 11.5t110.5 37.5t95 64t66 96t25 129q0 60 -19.5 108t-48 77.5t-74.5 54t-84.5 38t-93.5 30.5q-8 2 -12.5 3.5t-11.5 3.5t-13 4l-149 47
q-45 14 -76.5 25t-81.5 33.5t-86 45t-76.5 57.5t-65.5 74t-42 92.5t-17 114.5q0 103 45 184.5t119 131t163 75t183 25.5q121 0 224 -41t182.5 -129t116.5 -215l-97 -39q-47 148 -163 235t-279 87q-160 0 -269.5 -84t-109.5 -221q0 -48 15.5 -90.5t36.5 -72.5t56.5 -58
t62.5 -44.5t69 -34t60.5 -24t51.5 -16.5l152 -52q12 -4 35 -11q75 -23 116 -37.5t107 -49t101 -72t63 -100t28 -139.5q0 -104 -44.5 -191.5t-119 -144.5t-170.5 -89t-200 -32zM625 -489h-52q3 6 13.5 25.5t15 27.5t14.5 25.5t17 28.5t17.5 27t21.5 31t24 31q-114 0 -114 88
q0 39 27 62.5t69 23.5q40 0 67 -27t27 -67q0 -37 -28.5 -89t-118.5 -187z" />
    <glyph glyph-name="uni0219" unicode="&#x219;" horiz-adv-x="1003" 
d="M530 -35q-160 0 -285 87t-173 229l96 30q44 -111 147 -183.5t217 -72.5q33 0 68 6.5t74 23.5t69 42t50 66t20 92q0 40 -15 72.5t-36 53t-58.5 39t-68 29t-78.5 23.5l-104 28q-29 8 -49.5 14.5t-57.5 21.5t-63.5 30.5t-58.5 41.5t-52 55.5t-33.5 71t-13.5 89.5
q0 62 22 114t58.5 86.5t84 58.5t96.5 35t99 11q137 0 246 -77.5t148 -194.5l-103 -35q-32 92 -112 154.5t-193 62.5q-105 0 -173.5 -56t-68.5 -149q0 -45 19 -82.5t45.5 -61.5t67.5 -45t73 -32t74 -22l110 -33q51 -15 81 -25.5t78 -35t75.5 -52t48.5 -73t21 -101.5
q0 -140 -111.5 -238t-280.5 -98zM473 -489h-51q3 6 13.5 25.5t15 27.5t14.5 25.5t17 28.5t17.5 27t21.5 31t24 31q-115 0 -115 88q0 39 27 62.5t69 23.5q40 0 67.5 -27t27.5 -67q0 -37 -28 -88t-120 -188z" />
    <glyph glyph-name="uni021A" unicode="&#x21a;" horiz-adv-x="1296" 
d="M702 0h-108q0 1025 22 1522q-209 -23 -583 -23v98h1233v-98q-375 0 -584 23q20 -520 20 -1522zM586 -489h-51q4 8 16 30t17.5 32t17 30t20.5 34t22.5 33t28.5 37q-114 0 -114 88q0 39 27 62.5t69 23.5q40 0 67 -27t27 -67q0 -37 -28.5 -89t-118.5 -187z" />
    <glyph glyph-name="uni021B" unicode="&#x21b;" horiz-adv-x="751" 
d="M500 -35q-52 0 -92.5 14.5t-66.5 34.5t-44.5 55t-27 62.5t-13.5 71.5t-5.5 67t-0.5 64q0 469 20 725q-101 -21 -245 -21v88q149 0 245 -20q-20 133 -20 360h102q0 -227 -20 -360q139 20 375 20v-88q-229 0 -375 21q20 -248 20 -703q0 -38 0.5 -58.5t3.5 -57.5t8.5 -58.5
t17.5 -48.5t29 -42t43 -25.5t60 -10.5q93 0 193 70v-100q-88 -60 -207 -60zM381 -489h-51q3 6 13.5 25.5t15 27.5t14.5 25.5t17 28.5t17.5 27t21.5 31t24 31q-115 0 -115 88q0 39 27 62.5t69 23.5q40 0 67 -27t27 -67q0 -37 -28.5 -89t-118.5 -187z" />
    <glyph glyph-name="gravecomb" unicode="&#x300;" horiz-adv-x="0" 
d="M-109 1278h-90l-311 395h152z" />
    <glyph glyph-name="acutecomb" unicode="&#x301;" horiz-adv-x="0" 
d="M111 1673l-312 -395h-90l252 395h150z" />
    <glyph glyph-name="uni0302" unicode="&#x302;" horiz-adv-x="0" 
d="M-680 1278h-96l297 354h151l297 -354h-98q-59 59 -91.5 92.5t-79 89.5t-79.5 107h-49q-80 -124 -252 -289z" />
    <glyph glyph-name="tildecomb" unicode="&#x303;" horiz-adv-x="0" 
d="M-317 1343q-39 0 -72.5 13.5t-48.5 25.5t-47 41l-37 31q-46 40 -70 49q-16 6 -33 6q-50 0 -82 -43t-32 -108h-80q1 103 56.5 167t141.5 64q43 0 76.5 -17.5t71.5 -51.5l43 -37q64 -60 117 -60q51 0 79.5 42.5t28.5 109.5h80q0 -105 -50.5 -168.5t-141.5 -63.5z" />
    <glyph glyph-name="uni0304" unicode="&#x304;" horiz-adv-x="0" 
d="M-90 1434h-688v92h688v-92z" />
    <glyph glyph-name="uni0306" unicode="&#x306;" horiz-adv-x="0" 
d="M-403 1278q-169 0 -267 111t-104 284h96q6 -141 82 -223t193 -82t193.5 82.5t82.5 222.5h96q-6 -172 -104.5 -283.5t-267.5 -111.5z" />
    <glyph glyph-name="uni0307" unicode="&#x307;" horiz-adv-x="0" 
d="M-246 1440q-43 0 -71.5 29.5t-28.5 72.5q0 40 29 68t71 28q41 0 70 -28t29 -68q0 -43 -29 -72.5t-70 -29.5z" />
    <glyph glyph-name="uni0308" unicode="&#x308;" horiz-adv-x="0" 
d="M-854 1386q-39 0 -65.5 28.5t-26.5 68.5q0 36 26.5 63t65.5 27t65.5 -27t26.5 -63q0 -40 -26.5 -68.5t-65.5 -28.5zM-514 1386q-40 0 -66 28t-26 69q0 36 26 63t66 27q38 0 65 -27t27 -63q0 -40 -27 -68.5t-65 -28.5z" />
    <glyph glyph-name="uni030A" unicode="&#x30a;" horiz-adv-x="0" 
d="M-233 1245q-94 0 -157 61t-63 154q0 91 63 151t157 60t155.5 -60t61.5 -151q0 -94 -61.5 -154.5t-155.5 -60.5zM-233 1325q60 0 99.5 36t39.5 99q0 59 -39.5 94t-99.5 35q-61 0 -100.5 -35t-39.5 -94q0 -63 39 -99t101 -36z" />
    <glyph glyph-name="uni030B" unicode="&#x30b;" horiz-adv-x="0" 
d="M-102 1673l-273 -395h-90l211 395h152zM193 1673l-293 -395h-90l231 395h152z" />
    <glyph glyph-name="uni030C" unicode="&#x30c;" horiz-adv-x="0" 
d="M-328 1278h-151l-297 356h96q173 -170 258 -291h37q35 51 85.5 109t77 85.5t93.5 96.5h98z" />
    <glyph glyph-name="uni0312" unicode="&#x312;" horiz-adv-x="0" 
d="M-430 1337q0 35 29.5 91t144.5 245h72q-69 -146 -140 -264q43 6 64.5 -18t21.5 -60q0 -41 -27.5 -65.5t-64.5 -24.5q-42 0 -71 28t-29 68z" />
    <glyph glyph-name="uni0326" unicode="&#x326;" horiz-adv-x="0" 
d="M-336 -489h-51q3 6 13.5 25.5t15 27.5t14.5 25.5t17 28.5t17.5 27t21.5 31t24 31q-115 0 -115 88q0 39 27 62.5t69 23.5q40 0 67.5 -27t27.5 -67q0 -37 -28 -88t-120 -188z" />
    <glyph glyph-name="uni0327" unicode="&#x327;" horiz-adv-x="0" 
d="M-639 -485q-70 0 -136.5 29t-109.5 79l49 45q33 -40 85 -65t106 -25q61 0 102 32t41 79q0 46 -36.5 75t-92.5 29q-55 0 -98 -24l-49 47l121 184h79q-72 -107 -129 -164l7 -6q44 20 96 20q80 0 130 -43.5t50 -113.5q0 -78 -61 -128t-154 -50z" />
    <glyph glyph-name="uni0328" unicode="&#x328;" horiz-adv-x="0" 
d="M-641 -483q-110 0 -185 62.5t-75 164.5q0 75 42.5 131t119.5 105h98q-174 -96 -174 -222q0 -74 53 -119t131 -45q34 0 88 15v-78q-55 -14 -98 -14z" />
    <glyph glyph-name="uni0335" unicode="&#x335;" horiz-adv-x="0" 
d="M-719 608h662v-90h-662v90z" />
    <glyph glyph-name="uni0337" unicode="&#x337;" horiz-adv-x="0" 
d="M-473 543v94l506 362v-96z" />
    <glyph glyph-name="uni0338" unicode="&#x338;" horiz-adv-x="0" 
d="M-1038 -55h-115l920 1235h108z" />
    <glyph glyph-name="Wgrave" unicode="&#x1e80;" horiz-adv-x="2316" 
d="M1233 1720h-94l-342 316h170zM698 0h-127l-530 1597h113q298 -864 473 -1482h22q154 548 449 1482h121q291 -908 454 -1484h23q203 713 467 1484h112l-530 -1597h-127q-261 781 -449 1475h-22q-193 -715 -449 -1475z" />
    <glyph glyph-name="wgrave" unicode="&#x1e81;" horiz-adv-x="1847" 
d="M971 1278h-90l-312 395h152zM559 0h-98l-420 1126h113q88 -244 125 -346.5t105 -305t120 -374.5h20q114 382 344 1026h109q90 -243 127.5 -346t107 -305.5t121.5 -374.5h21q49 173 113.5 370t105.5 315t121 341h110l-418 -1126h-100q-223 600 -360 1014h-6
q-111 -341 -361 -1014z" />
    <glyph glyph-name="Wacute" unicode="&#x1e82;" horiz-adv-x="2316" 
d="M1522 2036l-342 -316h-95l267 316h170zM698 0h-127l-530 1597h113q298 -864 473 -1482h22q154 548 449 1482h121q291 -908 454 -1484h23q203 713 467 1484h112l-530 -1597h-127q-261 781 -449 1475h-22q-193 -715 -449 -1475z" />
    <glyph glyph-name="wacute" unicode="&#x1e83;" horiz-adv-x="1847" 
d="M1272 1673l-311 -395h-91l252 395h150zM559 0h-98l-420 1126h113q88 -244 125 -346.5t105 -305t120 -374.5h20q114 382 344 1026h109q90 -243 127.5 -346t107 -305.5t121.5 -374.5h21q49 173 113.5 370t105.5 315t121 341h110l-418 -1126h-100q-223 600 -360 1014h-6
q-111 -341 -361 -1014z" />
    <glyph glyph-name="Wdieresis" unicode="&#x1e84;" horiz-adv-x="2316" 
d="M967 1798q-38 0 -65.5 28t-27.5 68q0 37 27.5 64t65.5 27q39 0 65.5 -27t26.5 -64q0 -40 -26.5 -68t-65.5 -28zM1348 1798q-41 0 -67 28t-26 68q0 38 26.5 64.5t66.5 26.5q38 0 65 -27t27 -64q0 -40 -27 -68t-65 -28zM698 0h-127l-530 1597h113q298 -864 473 -1482h22
q154 548 449 1482h121q291 -908 454 -1484h23q203 713 467 1484h112l-530 -1597h-127q-261 781 -449 1475h-22q-193 -715 -449 -1475z" />
    <glyph glyph-name="wdieresis" unicode="&#x1e85;" horiz-adv-x="1847" 
d="M752 1386q-39 0 -66 28.5t-27 68.5q0 36 27 63t66 27t65.5 -27t26.5 -63q0 -40 -26.5 -68.5t-65.5 -28.5zM1092 1386q-41 0 -67 28t-26 69q0 36 26.5 63t66.5 27q38 0 65 -27t27 -63q0 -40 -27 -68.5t-65 -28.5zM559 0h-98l-420 1126h113q88 -244 125 -346.5t105 -305
t120 -374.5h20q114 382 344 1026h109q90 -243 127.5 -346t107 -305.5t121.5 -374.5h21q49 173 113.5 370t105.5 315t121 341h110l-418 -1126h-100q-223 600 -360 1014h-6q-111 -341 -361 -1014z" />
    <glyph glyph-name="uni1E9E" unicode="&#x1e9e;" horiz-adv-x="1538" 
d="M315 0h-108v952q0 46 1 78t6.5 89.5t16 100t31 99t49 97t73.5 83.5t101 70t134.5 44t171.5 17q166 0 292 -49.5t199.5 -151.5t73.5 -245q0 -153 -85 -250.5t-235 -114.5v-22q165 0 276 -104t111 -279q0 -60 -14 -114.5t-52 -110.5t-97 -96.5t-157.5 -66.5t-225.5 -26
h-164v98h188q113 0 195.5 27t127.5 74t66 102.5t21 120.5q0 160 -113.5 249t-294.5 89h-106v90h125q32 0 67 6t82.5 26t84 52.5t62 92.5t25.5 138q0 176 -120 274.5t-328 98.5q-98 0 -176 -23.5t-127 -57.5t-85 -88.5t-53 -100t-26.5 -109t-11 -98t-1.5 -84.5v-977z" />
    <glyph glyph-name="Ygrave" unicode="&#x1ef2;" horiz-adv-x="1406" 
d="M778 1720h-94l-342 316h170zM756 0h-109q0 395 12 594q-219 347 -614 1003h121q361 -610 526 -925h23q27 53 55 105t60 109.5t55.5 100t61.5 107.5t57 98t62 105.5t57.5 96.5t63 105t58.5 98h115q-413 -686 -615 -1003q11 -219 11 -594z" />
    <glyph glyph-name="ygrave" unicode="&#x1ef3;" horiz-adv-x="1093" 
d="M584 1278h-90l-312 395h152zM414 -451h-90l176 443l-463 1134h113q221 -541 389 -1044h20q164 498 387 1044h111z" />
    <glyph glyph-name="uni2000" unicode="&#x2000;" horiz-adv-x="1024" 
 />
    <glyph glyph-name="uni2001" unicode="&#x2001;" 
 />
    <glyph glyph-name="uni2002" unicode="&#x2002;" horiz-adv-x="1024" 
 />
    <glyph glyph-name="uni2003" unicode="&#x2003;" 
 />
    <glyph glyph-name="uni2004" unicode="&#x2004;" horiz-adv-x="681" 
 />
    <glyph glyph-name="uni2005" unicode="&#x2005;" horiz-adv-x="512" 
 />
    <glyph glyph-name="uni2006" unicode="&#x2006;" horiz-adv-x="342" 
 />
    <glyph glyph-name="uni2007" unicode="&#x2007;" horiz-adv-x="571" 
 />
    <glyph glyph-name="uni2008" unicode="&#x2008;" horiz-adv-x="464" 
 />
    <glyph glyph-name="uni2009" unicode="&#x2009;" horiz-adv-x="256" 
 />
    <glyph glyph-name="uni200A" unicode="&#x200a;" horiz-adv-x="86" 
 />
    <glyph glyph-name="uni200B" unicode="&#x200b;" horiz-adv-x="0" 
 />
    <glyph glyph-name="endash" unicode="&#x2013;" horiz-adv-x="1011" 
d="M891 578h-770v92h770v-92z" />
    <glyph glyph-name="emdash" unicode="&#x2014;" horiz-adv-x="1441" 
d="M1321 580h-1200v88h1200v-88z" />
    <glyph glyph-name="quoteleft" unicode="&#x2018;" horiz-adv-x="446" 
d="M283 1630h71q-31 -62 -43.5 -86t-42.5 -72t-63 -86q96 -16 96 -94q0 -40 -28.5 -68t-69.5 -28q-40 0 -68.5 28t-28.5 68q0 32 26.5 82.5t124.5 212.5q17 28 26 43z" />
    <glyph glyph-name="quoteright" unicode="&#x2019;" horiz-adv-x="452" 
d="M193 1198h-72q31 61 43.5 85.5t43.5 72.5t64 86q-98 19 -98 94q0 40 28.5 68t69.5 28q40 0 68.5 -28t28.5 -68q0 -34 -29.5 -89.5t-146.5 -248.5z" />
    <glyph glyph-name="quotesinglbase" unicode="&#x201a;" horiz-adv-x="430" 
d="M143 -254h-71q29 59 43 86.5t43.5 74.5t62.5 85q-96 16 -96 94q0 40 28.5 67t69.5 27q40 0 68 -27t28 -67q0 -32 -26.5 -83.5t-122.5 -211.5q-18 -29 -27 -45z" />
    <glyph glyph-name="quotedblleft" unicode="&#x201c;" horiz-adv-x="739" 
d="M283 1630h71q-31 -62 -43.5 -86t-42.5 -72t-63 -86q96 -16 96 -94q0 -40 -28.5 -68t-69.5 -28q-40 0 -68.5 28t-28.5 68q0 32 26.5 82.5t124.5 212.5q17 28 26 43zM575 1630h72q-31 -62 -43.5 -86t-42.5 -72t-63 -86q96 -16 96 -94q0 -40 -28.5 -68t-69.5 -28
q-40 0 -68.5 28t-28.5 68q0 34 29.5 89.5t146.5 248.5z" />
    <glyph glyph-name="quotedblright" unicode="&#x201d;" horiz-adv-x="745" 
d="M193 1198h-72q31 62 43.5 86t42.5 72t63 86q-96 16 -96 94q0 40 28.5 68t69.5 28q40 0 68.5 -28t28.5 -68q0 -34 -29.5 -89.5t-146.5 -248.5zM485 1198h-71q31 62 43.5 86t42.5 72t63 86q-96 16 -96 94q0 40 28.5 68t69.5 28q40 0 68.5 -28t28.5 -68q0 -32 -26.5 -82.5
t-124.5 -212.5q-17 -28 -26 -43z" />
    <glyph glyph-name="quotedblbase" unicode="&#x201e;" horiz-adv-x="720" 
d="M141 -252h-71q31 62 43.5 86t42.5 72t63 86q-96 16 -96 94q0 40 28.5 68t69.5 28q40 0 68 -28t28 -68q0 -33 -31 -91t-145 -247zM434 -252h-69q26 55 41 84.5t44.5 75.5t63.5 84q-98 16 -98 94q0 40 28.5 68t69.5 28q40 0 68 -28t28 -68q0 -33 -31 -91t-145 -247z" />
    <glyph glyph-name="dagger" unicode="&#x2020;" horiz-adv-x="980" 
d="M545 430h-107q0 478 11 768q-127 -10 -359 -10v100q232 0 359 -12q-11 142 -11 362h107q0 -222 -13 -362q127 12 359 12v-100q-232 0 -359 10q13 -286 13 -768z" />
    <glyph glyph-name="daggerdbl" unicode="&#x2021;" horiz-adv-x="1089" 
d="M944 1288v-100q-230 0 -377 20q41 -165 11 -352q144 21 366 21v-101q-222 0 -366 21q20 -137 20 -369h-106q0 238 22 369q-144 -21 -371 -21v101q227 0 371 -21q-32 176 0 352q-137 -20 -371 -20v100q234 0 371 -20q-22 131 -22 370h106q0 -78 -1 -121.5t-8.5 -114
t-21.5 -134.5q147 20 377 20z" />
    <glyph glyph-name="bullet" unicode="&#x2022;" horiz-adv-x="757" 
d="M381 426q-73 0 -123.5 52t-50.5 126q0 71 50.5 120.5t123.5 49.5q72 0 122 -49.5t50 -120.5q0 -74 -50 -126t-122 -52z" />
    <glyph glyph-name="ellipsis" unicode="&#x2026;" horiz-adv-x="1292" 
d="M233 -14q-41 0 -69.5 29.5t-28.5 70.5q0 40 28.5 67t69.5 27q40 0 68.5 -27.5t28.5 -66.5q0 -41 -28.5 -70.5t-68.5 -29.5zM647 -14q-41 0 -69.5 29.5t-28.5 70.5q0 40 28.5 67t69.5 27q40 0 68 -27t28 -67q0 -41 -28 -70.5t-68 -29.5zM1061 -14q-41 0 -69.5 29.5
t-28.5 70.5q0 40 28.5 67t69.5 27q40 0 68 -27t28 -67q0 -41 -28 -70.5t-68 -29.5z" />
    <glyph glyph-name="uni202F" unicode="&#x202f;" horiz-adv-x="411" 
 />
    <glyph glyph-name="perthousand" unicode="&#x2030;" horiz-adv-x="2306" 
d="M342 807q-115 0 -187.5 99t-72.5 255q0 159 72.5 259t187.5 100t186.5 -100t71.5 -259q0 -156 -71.5 -255t-186.5 -99zM303 0h-98l1138 1468h91zM342 885q76 0 122 75t46 201q0 128 -46 204.5t-122 76.5t-122 -76.5t-46 -204.5q0 -126 46 -201t122 -75zM1280 -29
q-115 0 -187.5 99.5t-72.5 255.5q0 158 72.5 258t187.5 100t186.5 -99.5t71.5 -258.5q0 -156 -71.5 -255.5t-186.5 -99.5zM1964 -29q-115 0 -187.5 99.5t-72.5 255.5q0 158 72.5 258t187.5 100t186.5 -99.5t71.5 -258.5q0 -156 -71.5 -255.5t-186.5 -99.5zM1280 49
q76 0 122 75t46 202q0 128 -46 204t-122 76t-122 -76t-46 -204q0 -127 46 -202t122 -75zM1964 49q76 0 122 75t46 202q0 128 -46 204t-122 76t-122 -76t-46 -204q0 -127 46 -202t122 -75z" />
    <glyph glyph-name="guilsinglleft" unicode="&#x2039;" horiz-adv-x="727" 
d="M582 164h-123l-346 405v9l346 405h123q-77 -90 -119.5 -139t-113 -120.5t-134.5 -125.5v-49q64 -54 134.5 -125.5t113 -120.5t119.5 -139z" />
    <glyph glyph-name="guilsinglright" unicode="&#x203a;" horiz-adv-x="727" 
d="M268 164h-125q72 84 119 137.5t116.5 123.5t133.5 124v49q-92 77 -175.5 166.5t-193.5 218.5h125l344 -405v-9z" />
    <glyph glyph-name="fraction" unicode="&#x2044;" horiz-adv-x="253" 
d="M-381 0h-98l1138 1468h91z" />
    <glyph glyph-name="uni205F" unicode="&#x205f;" horiz-adv-x="454" 
 />
    <glyph glyph-name="uni2070" unicode="&#x2070;" horiz-adv-x="684" 
d="M342 807q-115 0 -187.5 99t-72.5 255q0 159 72.5 259t187.5 100t186.5 -100t71.5 -259q0 -156 -71.5 -255t-186.5 -99zM342 885q76 0 122 75t46 201q0 128 -46 204.5t-122 76.5t-122 -76.5t-46 -204.5q0 -126 46 -201t122 -75z" />
    <glyph glyph-name="uni2074" unicode="&#x2074;" horiz-adv-x="638" 
d="M475 821h-82v162h-344v76l344 446h82v-450h98v-72h-98v-162zM393 1393l-260 -338h260v338z" />
    <glyph glyph-name="uni2075" unicode="&#x2075;" horiz-adv-x="628" 
d="M307 807q-88 0 -157.5 43.5t-92.5 114.5l72 36q21 -57 70 -88.5t108 -31.5q67 0 113.5 44t46.5 113t-44 112.5t-110 43.5q-95 0 -147 -84l-70 23l80 372h340v-71h-280l-52 -242q23 30 66 49t88 19q88 0 153.5 -60t65.5 -160q0 -102 -72.5 -167.5t-177.5 -65.5z" />
    <glyph glyph-name="uni2076" unicode="&#x2076;" horiz-adv-x="657" 
d="M338 807q-116 0 -186 85t-70 234q0 172 89.5 283t227.5 111q101 0 162 -56l-45 -57q-53 39 -123 39q-96 0 -159.5 -78t-67.5 -219h2q21 53 74 85t114 32q91 0 159.5 -64t68.5 -162q0 -101 -70.5 -167t-175.5 -66zM340 879q66 0 113 46t47 117q0 68 -46.5 114t-111.5 46
q-68 0 -114 -48t-46 -116q0 -67 47 -113t111 -46z" />
    <glyph glyph-name="uni2077" unicode="&#x2077;" horiz-adv-x="552" 
d="M242 821h-88q0 140 77 323t195 298h-385v74h481v-78q-124 -111 -202 -292t-78 -325z" />
    <glyph glyph-name="uni2078" unicode="&#x2078;" horiz-adv-x="647" 
d="M324 807q-106 0 -175 57.5t-69 141.5q0 65 38 111.5t93 60.5v4q-102 47 -102 151q0 79 61 133t154 54q92 0 153.5 -53t61.5 -132q0 -48 -25.5 -89.5t-77.5 -63.5v-4q58 -15 94.5 -61.5t36.5 -108.5q0 -86 -68.5 -143.5t-174.5 -57.5zM326 1210q56 0 95.5 36t39.5 89
q0 51 -39 84t-96 33q-60 0 -99 -33t-39 -84q0 -53 39 -89t99 -36zM326 881q65 0 109 38t44 99t-41 98t-112 37q-74 0 -116 -37t-42 -98t45.5 -99t112.5 -38z" />
    <glyph glyph-name="uni2079" unicode="&#x2079;" horiz-adv-x="665" 
d="M303 807q-137 0 -217 100l51 54q66 -82 162 -82q98 0 148.5 84.5t50.5 214.5q-19 -59 -73.5 -93t-117.5 -34q-93 0 -159 65t-66 164q0 103 70 171.5t178 68.5q51 0 95 -17.5t80 -54t56.5 -100.5t20.5 -150q0 -166 -72 -278.5t-207 -112.5zM319 1112q69 0 116.5 52
t47.5 124q0 74 -46 118t-111 44q-69 0 -115.5 -47t-46.5 -121q0 -73 44.5 -121.5t110.5 -48.5z" />
    <glyph glyph-name="uni2080" unicode="&#x2080;" horiz-adv-x="684" 
d="M342 -285q-115 0 -187.5 99t-72.5 256q0 158 72.5 258t187.5 100t186.5 -99.5t71.5 -258.5q0 -156 -71.5 -255.5t-186.5 -99.5zM342 -207q76 0 122 75t46 202q0 128 -46 204t-122 76t-122 -76t-46 -204q0 -127 46 -202t122 -75z" />
    <glyph glyph-name="uni2081" unicode="&#x2081;" horiz-adv-x="428" 
d="M287 -270h-84v528q-52 -69 -152 -84v82q68 15 112 59.5t44 98.5h80v-684z" />
    <glyph glyph-name="uni2082" unicode="&#x2082;" horiz-adv-x="620" 
d="M541 -270h-455v8q4 50 16 87.5t25.5 63t46.5 55.5t58 48.5t81 56.5q27 20 43 32.5t40.5 37.5t37 53t12.5 59q0 52 -38 86.5t-97 34.5q-69 0 -114 -48t-45 -124l-78 13q0 103 66.5 169t170.5 66q96 0 160 -55.5t64 -143.5q0 -68 -36 -116t-100 -95q-20 -15 -55.5 -38.5
t-53.5 -37t-40.5 -35t-35 -45t-19.5 -52.5h346v-80z" />
    <glyph glyph-name="uni2083" unicode="&#x2083;" horiz-adv-x="630" 
d="M311 -285q-89 0 -156 43t-89 115l73 35q21 -56 66 -88.5t106 -32.5q64 0 107 37t43 96q0 58 -43 92.5t-121 34.5h-68v66h74q65 0 103 33.5t38 86.5q0 54 -40.5 87.5t-100.5 33.5q-58 0 -98 -33.5t-49 -91.5l-76 15q10 83 75 133.5t154 50.5q92 0 155.5 -49t63.5 -129
q0 -56 -31 -102.5t-83 -59.5q60 -12 97.5 -56.5t37.5 -109.5q0 -84 -65 -145.5t-173 -61.5z" />
    <glyph glyph-name="uni2084" unicode="&#x2084;" horiz-adv-x="638" 
d="M475 -270h-82v161h-344v76l344 447h82v-451h98v-72h-98v-161zM393 301l-260 -338h260v338z" />
    <glyph glyph-name="uni2085" unicode="&#x2085;" horiz-adv-x="628" 
d="M307 -285q-88 0 -157.5 43.5t-92.5 114.5l72 37q21 -57 70.5 -90t107.5 -33q67 0 113.5 45.5t46.5 114.5t-44 112t-110 43q-95 0 -147 -84l-70 23l80 373h340v-72h-280l-52 -242q23 30 66 49t88 19q88 0 153.5 -59.5t65.5 -159.5q0 -102 -72.5 -168t-177.5 -66z" />
    <glyph glyph-name="uni2086" unicode="&#x2086;" horiz-adv-x="657" 
d="M338 -285q-116 0 -186 85.5t-70 234.5q0 172 89.5 282.5t227.5 110.5q102 0 162 -55l-45 -58q-53 39 -123 39q-96 0 -159.5 -78t-67.5 -219h2q21 53 74 85t114 32q91 0 159.5 -63.5t68.5 -161.5q0 -101 -70.5 -167.5t-175.5 -66.5zM340 -213q66 0 113 46.5t47 117.5
q0 68 -46.5 114t-111.5 46q-68 0 -114 -48t-46 -116q0 -67 47 -113.5t111 -46.5z" />
    <glyph glyph-name="uni2087" unicode="&#x2087;" horiz-adv-x="552" 
d="M242 -270h-88q0 140 77 322t195 298h-385v74h481v-78q-124 -111 -202 -291.5t-78 -324.5z" />
    <glyph glyph-name="uni2088" unicode="&#x2088;" horiz-adv-x="647" 
d="M324 -285q-106 0 -175 57.5t-69 141.5q0 65 38 111.5t93 60.5v4q-102 47 -102 152q0 79 61 132.5t154 53.5q92 0 153.5 -52.5t61.5 -131.5q0 -48 -25.5 -90t-77.5 -64v-4q58 -15 94.5 -61.5t36.5 -108.5q0 -86 -68.5 -143.5t-174.5 -57.5zM326 119q56 0 95.5 36t39.5 89
q0 51 -39 83.5t-96 32.5q-60 0 -99 -32.5t-39 -83.5q0 -53 39 -89t99 -36zM326 -211q65 0 109 38t44 99t-41 98t-112 37q-74 0 -116 -37t-42 -98t45.5 -99t112.5 -38z" />
    <glyph glyph-name="uni2089" unicode="&#x2089;" horiz-adv-x="665" 
d="M303 -285q-136 0 -217 101l51 53q66 -82 162 -82q98 0 148.5 84.5t50.5 214.5q-19 -59 -73.5 -93t-117.5 -34q-93 0 -159 65t-66 164q0 103 70 171.5t178 68.5q51 0 95 -17.5t80 -54t56.5 -100.5t20.5 -150q0 -166 -72 -278.5t-207 -112.5zM319 20q68 0 116 52t48 125
t-46 117t-111 44q-69 0 -115.5 -47t-46.5 -121q0 -73 44.5 -121.5t110.5 -48.5z" />
    <glyph glyph-name="Euro" unicode="&#x20ac;" horiz-adv-x="1611" 
d="M1057 -35q-292 0 -472.5 160t-219.5 438q-94 -20 -242 -20v96q133 0 225 -21q-46 146 0 293q-88 -20 -225 -20v96q147 0 239 -20q18 135 70 246t135.5 192.5t204.5 126.5t268 45q273 0 455 -154l-76 -80q-158 136 -383 136q-231 0 -384 -135.5t-218 -376.5q252 20 717 20
v-96q-475 0 -733 20q19 -149 2 -293q271 21 731 21v-96q-463 0 -715 20q68 -240 227 -370t390 -130q229 0 387 134l76 -78q-182 -154 -459 -154z" />
    <glyph glyph-name="trademark" unicode="&#x2122;" horiz-adv-x="1544" 
d="M393 944h-88v592h-225v80h534v-80h-221v-592zM823 944h-86v672h84q218 -511 230 -539q33 78 108.5 260t116.5 279h84v-672h-86v473l-191 -456h-69q-14 34 -84 202t-107 258v-477z" />
    <glyph glyph-name="oneeighth" unicode="&#x215b;" horiz-adv-x="1329" 
d="M287 821h-84v529q-52 -69 -152 -84v82q68 15 112 59t44 98h80v-684zM47 0h-98l1138 1468h91zM1006 -29q-106 0 -175 57.5t-69 141.5q0 65 38 111.5t93 60.5v4q-102 47 -102 152q0 79 61 132.5t154 53.5q92 0 153.5 -52.5t61.5 -131.5q0 -48 -25.5 -90t-77.5 -64v-4
q58 -15 94.5 -61.5t36.5 -108.5q0 -86 -68.5 -143.5t-174.5 -57.5zM1008 375q56 0 95.5 36t39.5 89q0 51 -39 83.5t-96 32.5q-60 0 -99 -32.5t-39 -83.5q0 -53 39 -89t99 -36zM1008 45q65 0 109 38t44 99t-41 98t-112 37q-74 0 -116 -37t-42 -98t45.5 -99t112.5 -38z" />
    <glyph glyph-name="threeeighths" unicode="&#x215c;" horiz-adv-x="1531" 
d="M311 807q-89 0 -156 43t-89 115l73 34q21 -55 65.5 -87.5t106.5 -32.5q64 0 107 37t43 96q0 58 -43 92.5t-121 34.5h-68v65h74q65 0 103 33.5t38 87.5t-40.5 87.5t-100.5 33.5q-58 0 -98 -33.5t-49 -91.5l-76 14q10 83 75 134t154 51q92 0 155.5 -49.5t63.5 -129.5
q0 -56 -31 -102t-83 -59q60 -12 97.5 -56.5t37.5 -109.5q0 -84 -65 -145.5t-173 -61.5zM250 0h-98l1138 1468h90zM1208 -29q-106 0 -174.5 57.5t-68.5 141.5q0 65 38 111.5t93 60.5v4q-48 22 -75.5 61.5t-27.5 90.5q0 79 61 132.5t154 53.5q92 0 153.5 -52.5t61.5 -131.5
q0 -49 -25 -90.5t-77 -63.5v-4q58 -15 94.5 -61.5t36.5 -108.5q0 -86 -69 -143.5t-175 -57.5zM1210 375q56 0 96 36t40 89q0 51 -39.5 83.5t-96.5 32.5q-60 0 -98.5 -32.5t-38.5 -83.5q0 -53 39 -89t98 -36zM1210 45q65 0 109.5 38t44.5 99t-41.5 98t-112.5 37
q-74 0 -115.5 -37t-41.5 -98t45 -99t112 -38z" />
    <glyph glyph-name="fiveeighths" unicode="&#x215d;" horiz-adv-x="1529" 
d="M307 807q-88 0 -157.5 43.5t-92.5 114.5l72 36q21 -57 70 -88.5t108 -31.5q67 0 113.5 44t46.5 113t-44 112.5t-110 43.5q-95 0 -147 -84l-70 23l80 372h340v-71h-280l-52 -242q23 30 66 49t88 19q88 0 153.5 -60t65.5 -160q0 -102 -72.5 -167.5t-177.5 -65.5zM248 0h-98
l1138 1468h90zM1206 -29q-106 0 -174.5 57.5t-68.5 141.5q0 65 38 111.5t93 60.5v4q-48 22 -75.5 61.5t-27.5 90.5q0 79 61 132.5t154 53.5q92 0 153.5 -52.5t61.5 -131.5q0 -49 -25 -90.5t-77 -63.5v-4q58 -15 94.5 -61.5t36.5 -108.5q0 -86 -69 -143.5t-175 -57.5z
M1208 375q56 0 95.5 36t39.5 89q0 51 -39 83.5t-96 32.5q-60 0 -98.5 -32.5t-38.5 -83.5q0 -53 39 -89t98 -36zM1208 45q65 0 109.5 38t44.5 99t-41.5 98t-112.5 37q-74 0 -115.5 -37t-41.5 -98t45 -99t112 -38z" />
    <glyph glyph-name="seveneighths" unicode="&#x215e;" horiz-adv-x="1454" 
d="M242 821h-88q0 140 77 323t195 298h-385v74h481v-78q-124 -111 -202 -292t-78 -325zM172 0h-98l1138 1468h91zM1130 -29q-106 0 -174.5 57.5t-68.5 141.5q0 65 38 111.5t93 60.5v4q-48 22 -75.5 61.5t-27.5 90.5q0 79 61 132.5t154 53.5t154.5 -52.5t61.5 -131.5
q0 -48 -25.5 -90t-77.5 -64v-4q58 -15 94.5 -61.5t36.5 -108.5q0 -86 -69 -143.5t-175 -57.5zM1133 375q56 0 95.5 36t39.5 89q0 51 -39 83.5t-96 32.5q-60 0 -99 -32.5t-39 -83.5q0 -53 39 -89t99 -36zM1133 45q65 0 109 38t44 99t-41 98t-112 37q-74 0 -116 -37t-42 -98
t45.5 -99t112.5 -38z" />
    <glyph glyph-name="arrowleft" unicode="&#x2190;" horiz-adv-x="1431" 
d="M590 236h-129l-340 405v8l340 406h129q-173 -209 -350 -379q356 20 1063 20v-104q-705 0 -1061 20q182 -175 348 -376z" />
    <glyph glyph-name="arrowup" unicode="&#x2191;" horiz-adv-x="987" 
d="M547 20h-105q0 689 21 1063q-153 -159 -379 -350v129l405 340h9l405 -340v-129q-223 188 -377 348q21 -374 21 -1061z" />
    <glyph glyph-name="arrowright" unicode="&#x2192;" horiz-adv-x="1431" 
d="M971 236h-129q166 201 348 376q-356 -20 -1061 -20v104q707 0 1063 -20q-177 170 -350 379h129l340 -406v-8z" />
    <glyph glyph-name="arrowdown" unicode="&#x2193;" horiz-adv-x="991" 
d="M500 20h-8l-406 340v129q226 -191 379 -350q-21 374 -21 1063h105q0 -687 -21 -1061q154 160 377 348v-129z" />
    <glyph glyph-name="arrowboth" unicode="&#x2194;" horiz-adv-x="1789" 
d="M588 231h-129l-340 406v8l340 406h129q-133 -157 -326 -379q633 29 1266 0q-193 222 -326 379h129l340 -406v-8l-340 -406h-129q297 346 324 377q-631 -29 -1262 0q27 -31 324 -377z" />
    <glyph glyph-name="arrowupdn" unicode="&#x2195;" horiz-adv-x="1091" 
d="M551 0h-8l-406 340v127q304 -260 379 -326q-34 552 0 1104q-9 -8 -379 -325v129l406 337h8l405 -337v-129q-350 300 -376 323q29 -550 0 -1100q62 55 376 324v-127z" />
    <glyph glyph-name="uni2196" unicode="&#x2196;" horiz-adv-x="1038" 
d="M930 135l-92 -51q-348 603 -512 928q-55 -220 -154 -490l-63 113l182 495l6 5l520 -91l66 -112q-298 55 -504 115q91 -139 200 -317.5t163.5 -272t187.5 -322.5z" />
    <glyph glyph-name="uni2197" unicode="&#x2197;" horiz-adv-x="1038" 
d="M201 84l-92 51q11 19 58 100t61.5 106.5t57 98t62.5 105.5t58 97.5t63.5 105.5t60 96.5t66 104.5t63.5 98q-208 -60 -503 -115l65 112l520 91l9 -5l180 -495l-64 -113q-96 261 -153 490q-164 -325 -512 -928z" />
    <glyph glyph-name="uni2198" unicode="&#x2198;" horiz-adv-x="1036" 
d="M106 1085l93 52q348 -603 512 -928q57 225 153 489l64 -112l-180 -496l-9 -4l-520 90l-65 113q295 -55 503 -115q-190 288 -551 911z" />
    <glyph glyph-name="uni2199" unicode="&#x2199;" horiz-adv-x="1036" 
d="M838 1137l92 -52q-361 -623 -551 -911q206 60 504 115l-66 -113l-520 -90l-6 4l-182 496l63 112q100 -272 154 -489q164 325 512 928z" />
    <glyph glyph-name="emptyset" unicode="&#x2205;" horiz-adv-x="1417" 
d="M1217 1200l-125 -176q92 -82 142 -201t50 -258q0 -167 -71 -303t-204 -216.5t-302 -80.5q-174 0 -308 86l-125 -176l-73 53l125 176q-92 84 -142.5 203.5t-50.5 257.5q0 168 71.5 304t203.5 215t301 79q173 0 309 -84l123 174zM238 563q0 -111 38.5 -208t108.5 -167
l573 809q-112 72 -249 72q-207 0 -339 -146t-132 -360zM709 61q138 0 246 67t166.5 181t58.5 254q0 111 -39 209t-109 168l-575 -809q117 -70 252 -70z" />
    <glyph glyph-name="minus" unicode="&#x2212;" horiz-adv-x="991" 
d="M846 575h-701v99h701v-99z" />
    <glyph glyph-name="infinity" unicode="&#x221e;" horiz-adv-x="1855" 
d="M492 287q-148 0 -250.5 96t-102.5 242t103 242t250 96q73 0 141.5 -32t130 -84t164.5 -155q77 77 126 121t103.5 82t103.5 53t105 15q147 0 248.5 -96t101.5 -242t-101.5 -242t-248.5 -96q-107 0 -196.5 59t-241.5 211q-152 -152 -241 -211t-195 -59zM481 383
q45 0 84.5 11.5t80.5 40t67 50.5t76.5 69.5t76.5 70.5q-23 20 -76 70.5t-77 70.5t-66.5 49t-81.5 40t-84 11q-108 0 -170.5 -64.5t-62.5 -176.5q0 -115 64 -178.5t169 -63.5zM1374 383q106 0 171 64t65 178q0 112 -64 176.5t-172 64.5q-37 0 -73.5 -10.5t-63 -23.5
t-62.5 -41t-57 -47t-63 -59t-64 -60q24 -21 75.5 -70.5t76.5 -70t66.5 -49.5t81 -40.5t83.5 -11.5z" />
    <glyph glyph-name="approxequal" unicode="&#x2248;" horiz-adv-x="1048" 
d="M264 737h-98q0 115 65.5 176.5t155.5 61.5q51 0 95.5 -23t70.5 -50t61 -50t70 -23q52 0 77 41t25 105h99q0 -118 -58 -178t-147 -60q-44 0 -81 15t-62.5 36.5t-49 43t-52.5 36.5t-60 15q-55 0 -83 -41.5t-28 -104.5zM264 328h-98q0 115 65.5 175t155.5 60q42 0 78.5 -15
t62 -36t49 -42.5t51 -36.5t56.5 -15q52 0 77 40.5t25 104.5h99q0 -118 -57.5 -177.5t-147.5 -59.5q-44 0 -81 15t-62.5 36t-49 42.5t-52.5 36.5t-60 15q-55 0 -83 -40.5t-28 -102.5z" />
    <glyph glyph-name="notequal" unicode="&#x2260;" horiz-adv-x="1028" 
d="M864 879v-99h-260q-25 -160 -112 -311h372v-100h-407q-2 -68 -47 -187h-99q50 134 88 187h-239v100h274q28 157 115 311h-389v99h426q0 11 0.5 22.5t2 21t4.5 23.5t5 21.5t7 23t7 21.5t7.5 23.5t7.5 21.5h98q-38 -112 -84 -178h223z" />
    <glyph glyph-name="lessequal" unicode="&#x2264;" horiz-adv-x="1034" 
d="M864 369h-700v88h485l-485 180v100l700 185v-99l-563 -145l563 -221v-88z" />
    <glyph glyph-name="greaterequal" unicode="&#x2265;" horiz-adv-x="1034" 
d="M868 369h-700v88l565 221l-565 145v99l700 -185v-100l-485 -180h485v-88z" />
    <glyph glyph-name="lozenge" unicode="&#x25ca;" horiz-adv-x="1161" 
d="M627 0h-90l-414 694l414 692h90l411 -692zM244 694l334 -569h8l334 569l-334 568h-8z" />
    <glyph glyph-name="A.ss01" horiz-adv-x="1503" 
d="M152 0h-115l637 1597h153l637 -1597h-114q-58 140 -83.5 202.5t-67.5 179.5t-69 216l-18 16q-278 -20 -346 -20q-135 0 -365 20l-22 -18q-81 -241 -227 -596zM418 690l12 -20q230 20 336 20q117 0 301 -20l12 18q-200 500 -286 813h-84q-38 -135 -93 -292t-90 -247
t-108 -272z" />
    <glyph glyph-name="Aacute.ss01" horiz-adv-x="1503" 
d="M1114 2036l-342 -316h-94l266 316h170zM152 0h-115l637 1597h153l637 -1597h-114q-58 140 -83.5 202.5t-67.5 179.5t-69 216l-18 16q-278 -20 -346 -20q-135 0 -365 20l-22 -18q-81 -241 -227 -596zM418 690l12 -20q230 20 336 20q117 0 301 -20l12 18q-200 500 -286 813
h-84q-38 -135 -93 -292t-90 -247t-108 -272z" />
    <glyph glyph-name="Abreve.ss01" horiz-adv-x="1503" 
d="M752 1729q-84 0 -155 29t-116.5 75t-72 101t-29.5 110h96q6 -88 85.5 -156.5t191.5 -68.5t191 68.5t85 156.5h96q-3 -55 -29.5 -110t-71.5 -101t-116 -75t-155 -29zM152 0h-115l637 1597h153l637 -1597h-114q-58 140 -83.5 202.5t-67.5 179.5t-69 216l-18 16
q-278 -20 -346 -20q-135 0 -365 20l-22 -18q-81 -241 -227 -596zM418 690l12 -20q230 20 336 20q117 0 301 -20l12 18q-200 500 -286 813h-84q-38 -135 -93 -292t-90 -247t-108 -272z" />
    <glyph glyph-name="Acircumflex.ss01" horiz-adv-x="1503" 
d="M508 1720h-94l262 297h147l264 -297h-96q-113 107 -157 160q-34 41 -62 84h-43q-31 -48 -72.5 -95.5t-68 -73t-80.5 -75.5zM152 0h-115l637 1597h153l637 -1597h-114q-58 140 -83.5 202.5t-67.5 179.5t-69 216l-18 16q-278 -20 -346 -20q-135 0 -365 20l-22 -18
q-81 -241 -227 -596zM418 690l12 -20q230 20 336 20q117 0 301 -20l12 18q-200 500 -286 813h-84q-38 -135 -93 -292t-90 -247t-108 -272z" />
    <glyph glyph-name="Adieresis.ss01" horiz-adv-x="1503" 
d="M559 1798q-38 0 -65 28t-27 68q0 37 27 64t65 27q39 0 65.5 -27t26.5 -64q0 -40 -26.5 -68t-65.5 -28zM940 1798q-41 0 -66.5 27.5t-25.5 68.5q0 38 26 64.5t66 26.5q38 0 65 -27t27 -64q0 -40 -27 -68t-65 -28zM152 0h-115l637 1597h153l637 -1597h-114
q-58 140 -83.5 202.5t-67.5 179.5t-69 216l-18 16q-278 -20 -346 -20q-135 0 -365 20l-22 -18q-81 -241 -227 -596zM418 690l12 -20q230 20 336 20q117 0 301 -20l12 18q-200 500 -286 813h-84q-38 -135 -93 -292t-90 -247t-108 -272z" />
    <glyph glyph-name="Agrave.ss01" horiz-adv-x="1503" 
d="M825 1720h-94l-342 316h170zM152 0h-115l637 1597h153l637 -1597h-114q-58 140 -83.5 202.5t-67.5 179.5t-69 216l-18 16q-278 -20 -346 -20q-135 0 -365 20l-22 -18q-81 -241 -227 -596zM418 690l12 -20q230 20 336 20q117 0 301 -20l12 18q-200 500 -286 813h-84
q-38 -135 -93 -292t-90 -247t-108 -272z" />
    <glyph glyph-name="Amacron.ss01" horiz-adv-x="1503" 
d="M1077 1843h-651v94h651v-94zM152 0h-115l637 1597h153l637 -1597h-114q-58 140 -83.5 202.5t-67.5 179.5t-69 216l-18 16q-278 -20 -346 -20q-135 0 -365 20l-22 -18q-81 -241 -227 -596zM418 690l12 -20q230 20 336 20q117 0 301 -20l12 18q-200 500 -286 813h-84
q-38 -135 -93 -292t-90 -247t-108 -272z" />
    <glyph glyph-name="Aogonek.ss01" horiz-adv-x="1503" 
d="M1468 -385q38 0 88 14v-78q-55 -14 -94 -14q-114 0 -189 63t-75 169q0 132 158 231h-6q-58 140 -83.5 202.5t-67.5 179.5t-69 216l-18 16q-278 -20 -346 -20q-135 0 -365 20l-22 -18q-81 -241 -227 -596h-115l637 1597h153l637 -1597h-4q-178 -96 -178 -221
q0 -74 53.5 -119t132.5 -45zM1067 670l12 18q-200 500 -286 813h-84q-38 -135 -93 -292t-90 -247t-108 -272l12 -20q230 20 336 20q117 0 301 -20z" />
    <glyph glyph-name="Aring.ss01" horiz-adv-x="1503" 
d="M752 1716q-95 0 -157.5 60.5t-62.5 154.5q0 91 62.5 151t157.5 60q93 0 155 -60t62 -151q0 -93 -62 -154t-155 -61zM752 1796q59 0 98 36t39 99q0 59 -39 94t-98 35q-61 0 -101.5 -35t-40.5 -94q0 -63 40 -99t102 -36zM152 0h-115l637 1597h153l637 -1597h-114
q-58 140 -83.5 202.5t-67.5 179.5t-69 216l-18 16q-278 -20 -346 -20q-135 0 -365 20l-22 -18q-81 -241 -227 -596zM418 690l12 -20q230 20 336 20q117 0 301 -20l12 18q-200 500 -286 813h-84q-38 -135 -93 -292t-90 -247t-108 -272z" />
    <glyph glyph-name="Atilde.ss01" horiz-adv-x="1503" 
d="M905 1753q-39 0 -72.5 13.5t-48.5 25.5t-47 41l-37 31q-2 2 -9 8t-9.5 8t-9 7.5t-9.5 7.5t-9.5 6.5t-10.5 6t-10 4.5t-11 4t-11.5 2t-12.5 1q-50 0 -82.5 -43.5t-32.5 -108.5h-80q1 103 57 167.5t142 64.5q43 0 76.5 -18t71.5 -52l43 -37q63 -59 116 -59q51 0 80 42.5
t29 109.5h80q0 -105 -51 -168.5t-142 -63.5zM152 0h-115l637 1597h153l637 -1597h-114q-58 140 -83.5 202.5t-67.5 179.5t-69 216l-18 16q-278 -20 -346 -20q-135 0 -365 20l-22 -18q-81 -241 -227 -596zM418 690l12 -20q230 20 336 20q117 0 301 -20l12 18
q-200 500 -286 813h-84q-38 -135 -93 -292t-90 -247t-108 -272z" />
    <glyph glyph-name="B.ss01" horiz-adv-x="1458" 
d="M862 0h-635v1597h549q121 0 220.5 -35t162.5 -93.5t97 -132.5t34 -156q0 -122 -74 -220t-221 -133v-32q90 -14 158.5 -51t108.5 -88t59.5 -109t19.5 -121q0 -178 -135 -302t-344 -124zM317 854l17 -23q166 21 438 21q190 0 298 90t108 227q0 146 -119 238t-305 92
q-250 0 -420 21l-21 -19q32 -292 4 -647zM313 98l21 -20q176 20 489 20q189 0 297.5 91t108.5 229q0 146 -116.5 241t-309.5 95q-299 0 -469 20l-17 -22q28 -360 -4 -654z" />
    <glyph glyph-name="C.ss01" horiz-adv-x="1726" 
d="M918 -35q-174 0 -323.5 61.5t-255 170t-165 262t-59.5 332.5q0 183 61.5 340.5t168 266.5t252.5 170.5t312 61.5q110 0 215.5 -27.5t200 -81.5t168.5 -144t111 -206l-95 -38q-74 188 -237 291.5t-361 103.5q-109 0 -210 -31.5t-186 -94.5t-148.5 -150.5t-99.5 -206
t-36 -254.5q0 -141 39 -261t106.5 -204t157.5 -143t191 -87t209 -28q130 0 240.5 41t188 112.5t130 159.5t80.5 190l96 -34q-36 -120 -99 -220.5t-154 -180.5t-219 -125.5t-279 -45.5z" />
    <glyph glyph-name="D.ss01" horiz-adv-x="1652" 
d="M795 0h-568v1597h549q156 0 283 -40.5t214.5 -112t146.5 -171.5t86.5 -216t27.5 -248q0 -238 -87 -420t-255.5 -285.5t-396.5 -103.5zM313 98l21 -20q172 20 479 20q283 0 445.5 191.5t162.5 507.5q0 212 -74.5 368.5t-226 245t-366.5 88.5q-260 0 -420 21l-21 -19
q34 -696 0 -1403z" />
    <glyph glyph-name="E.ss01" horiz-adv-x="1353" 
d="M1243 0h-1016v1597h996v-98q-44 0 -206.5 -1t-237 -0.5t-204.5 6t-241 16.5l-21 -19q33 -299 4 -627l17 -22q303 20 848 20v-98q-532 0 -848 21l-17 -23q29 -350 -4 -674l21 -20q150 13 326 19t275 6.5t308 0.5v-104z" />
    <glyph glyph-name="F.ss01" horiz-adv-x="1273" 
d="M336 0h-109v1597h975v-106q-561 0 -868 29l-21 -19q33 -315 2 -639l17 -22q297 20 829 20v-98q-526 0 -829 20l-17 -22q21 -265 21 -760z" />
    <glyph glyph-name="G.ss01" horiz-adv-x="1763" 
d="M913 -35q-176 0 -326 63t-253 172.5t-161 262t-58 328.5q0 183 61.5 340.5t168 266.5t252.5 170.5t312 61.5q110 0 215.5 -27.5t200 -81.5t168.5 -144t111 -206l-95 -38q-74 188 -237 291.5t-361 103.5q-109 0 -209.5 -31.5t-186 -94t-149 -149.5t-99.5 -205.5
t-36 -254.5q0 -214 87.5 -378.5t248.5 -255.5t371 -91q189 0 330 81t217 220.5t90 324.5l-12 15q-349 -37 -600 -37v96h696v-37q0 -161 -42 -291.5t-113 -217.5t-167.5 -146t-202.5 -85t-221 -26z" />
    <glyph glyph-name="H.ss01" horiz-adv-x="1654" 
d="M336 0h-109v1597h109q0 -487 -19 -731l17 -22q528 26 987 0l18 22q-20 244 -20 731h108v-1597h-108q0 490 20 762l-18 22q-446 -50 -987 0l-17 -22q19 -272 19 -762z" />
    <glyph glyph-name="I.ss01" horiz-adv-x="1087" 
d="M1008 0h-928v98q279 0 422 -22q-18 723 0 1446q-154 -23 -432 -23v98h948v-98q-278 0 -430 23q15 -723 0 -1446q141 22 420 22v-98z" />
    <glyph glyph-name="Iacute.ss01" horiz-adv-x="1087" 
d="M905 2036l-340 -316h-96l268 316h168zM1008 0h-928v98q279 0 422 -22q-18 723 0 1446q-154 -23 -432 -23v98h948v-98q-278 0 -430 23q15 -723 0 -1446q141 22 420 22v-98z" />
    <glyph glyph-name="Icircumflex.ss01" horiz-adv-x="1087" 
d="M303 1720h-94l262 297h147l265 -297h-97q-113 107 -157 160q-34 41 -62 84h-43q-31 -48 -72.5 -95.5t-68 -73t-80.5 -75.5zM1008 0h-928v98q279 0 422 -22q-18 723 0 1446q-154 -23 -432 -23v98h948v-98q-278 0 -430 23q15 -723 0 -1446q141 22 420 22v-98z" />
    <glyph glyph-name="Idieresis.ss01" horiz-adv-x="1087" 
d="M354 1798q-38 0 -65 28t-27 68q0 37 27 64t65 27q39 0 65.5 -27t26.5 -64q0 -40 -26.5 -68t-65.5 -28zM735 1798q-41 0 -66.5 27.5t-25.5 68.5q0 38 26 64.5t66 26.5q38 0 65 -27t27 -64q0 -40 -27 -68t-65 -28zM1008 0h-928v98q279 0 422 -22q-18 723 0 1446
q-154 -23 -432 -23v98h948v-98q-278 0 -430 23q15 -723 0 -1446q141 22 420 22v-98z" />
    <glyph glyph-name="Idotaccent.ss01" horiz-adv-x="1087" 
d="M545 1792q-43 0 -72 29.5t-29 72.5q0 40 29.5 68.5t71.5 28.5q41 0 69.5 -28.5t28.5 -68.5q0 -43 -28.5 -72.5t-69.5 -29.5zM1008 0h-928v98q279 0 422 -22q-18 723 0 1446q-154 -23 -432 -23v98h948v-98q-278 0 -430 23q15 -723 0 -1446q141 22 420 22v-98z" />
    <glyph glyph-name="Igrave.ss01" horiz-adv-x="1087" 
d="M621 1720h-95l-342 316h170zM1008 0h-928v98q279 0 422 -22q-18 723 0 1446q-154 -23 -432 -23v98h948v-98q-278 0 -430 23q15 -723 0 -1446q141 22 420 22v-98z" />
    <glyph glyph-name="Imacron.ss01" horiz-adv-x="1087" 
d="M870 1843h-651v94h651v-94zM1008 0h-928v98q279 0 422 -22q-18 723 0 1446q-154 -23 -432 -23v98h948v-98q-278 0 -430 23q15 -723 0 -1446q141 22 420 22v-98z" />
    <glyph glyph-name="J.ss01" horiz-adv-x="1179" 
d="M535 -35q-68 0 -130 14.5t-124.5 52t-107.5 95.5t-73 152t-28 215v20l98 14v-18q0 -88 16 -159.5t44 -119t62.5 -81.5t76.5 -52.5t80.5 -26.5t78.5 -8q156 0 246 114.5t90 311.5q0 649 21 1012l-11 23q-223 -25 -561 -25v98h660v-1069q0 -27 -0.5 -47t-4.5 -65.5
t-11 -80.5t-22.5 -84t-36.5 -86t-55 -76.5t-76 -65t-101.5 -42t-130.5 -16.5z" />
    <glyph glyph-name="K.ss01" horiz-adv-x="1339" 
d="M336 0h-109v1597h109q0 -508 -10 -772h8q147 136 422 393t407 379h144q-433 -405 -881 -798v-21q149 -117 331.5 -270t272 -231t316.5 -277h-150q-181 153 -293 248.5t-272.5 238t-298.5 273.5h-6q10 -279 10 -760z" />
    <glyph glyph-name="L.ss01" horiz-adv-x="1214" 
d="M1182 0h-955v1597h109q0 -981 -23 -1499l21 -20q139 13 304 19t257.5 6.5t286.5 0.5v-104z" />
    <glyph glyph-name="M.ss01" horiz-adv-x="1904" 
d="M336 0h-109v1597h127q329 -582 588 -1138h21q269 578 589 1138h127v-1597h-110q0 110 -2 339.5t-2 368t5.5 338t18.5 369.5h-22l-561 -1050h-107l-561 1050h-21q12 -170 17.5 -369.5t5.5 -337.5t-2 -368t-2 -340z" />
    <glyph glyph-name="N.ss01" horiz-adv-x="1695" 
d="M336 0h-109v1597h181q626 -1002 933 -1519h39q-20 549 -20 1519h108v-1597h-180q-606 958 -928 1503h-45q21 -572 21 -1503z" />
    <glyph glyph-name="O.ss01" horiz-adv-x="1826" 
d="M913 -35q-162 0 -309.5 63.5t-255.5 172.5t-171.5 264.5t-63.5 331.5q0 175 63 330.5t170.5 265.5t255 173.5t311.5 63.5q222 0 406 -111t289.5 -302.5t105.5 -419.5q0 -230 -107 -421.5t-291 -301t-403 -109.5zM915 68q135 0 259 55t217 150t148.5 232t55.5 292
q0 156 -55.5 293.5t-148.5 232.5t-217 150t-259 55q-136 0 -261.5 -55t-219 -150t-149.5 -232.5t-56 -293.5q0 -155 56 -292t149.5 -232t219 -150t261.5 -55z" />
    <glyph glyph-name="P.ss01" horiz-adv-x="1361" 
d="M336 0h-109v1597h547q240 0 378 -129.5t138 -334.5q0 -216 -134 -348t-343 -132q-128 0 -190 1t-147.5 8t-160.5 22q21 -262 21 -684zM315 752l19 -23q168 21 438 21q194 0 300 98.5t106 273.5q0 174 -114.5 275.5t-309.5 101.5q-260 0 -420 21l-21 -19q33 -363 2 -749z
" />
    <glyph glyph-name="Q.ss01" horiz-adv-x="1841" 
d="M469 -287v-20q177 15 384 23t338.5 9t367.5 1v-95h-1278q122 134 337 389q-227 87 -362 292t-135 485q0 184 60.5 340t167 264t254.5 168.5t319 60.5q232 0 415 -107t284 -297t101 -429q0 -181 -60.5 -335.5t-166 -263t-254.5 -170t-321 -61.5q-106 0 -209 25
q-48 -56 -242 -279zM231 797q0 -256 126 -440t333 -253q192 228 414 512l76 -63l-396 -475q68 -12 140 -12q142 0 267.5 52.5t217.5 146.5t145.5 232t53.5 300q0 163 -53.5 301.5t-145.5 233t-217.5 147.5t-267.5 53q-144 0 -271 -53t-220 -147.5t-147.5 -233t-54.5 -301.5z
" />
    <glyph glyph-name="R.ss01" horiz-adv-x="1411" 
d="M336 0h-109v1597h547q240 0 378 -129.5t138 -334.5q0 -93 -24 -167.5t-67.5 -124.5t-103 -88t-131 -57t-152.5 -31t-165.5 -11t-171.5 3q265 -197 864 -657h-157q-51 39 -207.5 159.5t-233 179.5t-197.5 154t-218 173h-11q21 -243 21 -666zM315 752l19 -23q166 21 438 21
q194 0 300 98.5t106 273.5q0 173 -114.5 275t-309.5 102q-248 0 -420 21l-21 -19q32 -376 2 -749z" />
    <glyph glyph-name="S.ss01" horiz-adv-x="1316" 
d="M678 -35q-69 0 -136.5 13.5t-138.5 47.5t-130 85.5t-109 134t-78 186.5l100 37q51 -191 185.5 -296t310.5 -105q59 0 115.5 11.5t110.5 37.5t95 64t66 96t25 129q0 60 -19.5 108t-48 77.5t-74.5 54t-84.5 38t-93.5 30.5q-8 2 -12.5 3.5t-11.5 3.5t-13 4l-149 47
q-45 14 -76.5 25t-81.5 33.5t-86 45t-76.5 57.5t-65.5 74t-42 92.5t-17 114.5q0 103 45 184.5t119 131t163 75t183 25.5q121 0 224 -41t182.5 -129t116.5 -215l-97 -39q-47 148 -163 235t-279 87q-160 0 -269.5 -84t-109.5 -221q0 -48 15.5 -90.5t36.5 -72.5t56.5 -58
t62.5 -44.5t69 -34t60.5 -24t51.5 -16.5l152 -52q12 -4 35 -11q75 -23 116 -37.5t107 -49t101 -72t63 -100t28 -139.5q0 -104 -44.5 -191.5t-119 -144.5t-170.5 -89t-200 -32z" />
    <glyph glyph-name="U.ss01" horiz-adv-x="1564" 
d="M762 -35q-126 0 -226.5 36t-174.5 108.5t-114 188.5t-40 269v1030h108v-1024q0 -264 121 -387t336 -123q104 0 186 28.5t143.5 88.5t94.5 159t33 234v1024h108v-1597h-108q0 49 18 260h-20q-65 -158 -179.5 -226.5t-285.5 -68.5z" />
    <glyph glyph-name="Uacute.ss01" horiz-adv-x="1564" 
d="M1087 2036l-342 -316h-94l267 316h169zM762 -35q-126 0 -226.5 36t-174.5 108.5t-114 188.5t-40 269v1030h108v-1024q0 -264 121 -387t336 -123q104 0 186 28.5t143.5 88.5t94.5 159t33 234v1024h108v-1597h-108q0 49 18 260h-20q-65 -158 -179.5 -226.5t-285.5 -68.5z
" />
    <glyph glyph-name="Ucircumflex.ss01" horiz-adv-x="1564" 
d="M522 1720h-94l262 297h148l264 -297h-96q-4 4 -25 23.5t-26.5 25t-24 23.5t-26.5 26.5t-24 25t-25.5 28.5t-22.5 28t-24 31.5t-22 32.5h-43q-31 -48 -72.5 -95.5t-68 -73t-80.5 -75.5zM762 -35q-126 0 -226.5 36t-174.5 108.5t-114 188.5t-40 269v1030h108v-1024
q0 -264 121 -387t336 -123q104 0 186 28.5t143.5 88.5t94.5 159t33 234v1024h108v-1597h-108q0 49 18 260h-20q-65 -158 -179.5 -226.5t-285.5 -68.5z" />
    <glyph glyph-name="Udieresis.ss01" horiz-adv-x="1564" 
d="M573 1798q-38 0 -65 28t-27 68q0 37 27 64t65 27q39 0 66 -27t27 -64q0 -40 -27 -68t-66 -28zM954 1798q-41 0 -66.5 27.5t-25.5 68.5q0 38 26 64.5t66 26.5q38 0 65.5 -27t27.5 -64q0 -40 -27.5 -68t-65.5 -28zM762 -35q-126 0 -226.5 36t-174.5 108.5t-114 188.5
t-40 269v1030h108v-1024q0 -264 121 -387t336 -123q104 0 186 28.5t143.5 88.5t94.5 159t33 234v1024h108v-1597h-108q0 49 18 260h-20q-65 -158 -179.5 -226.5t-285.5 -68.5z" />
    <glyph glyph-name="Ugrave.ss01" horiz-adv-x="1564" 
d="M840 1720h-95l-342 316h170zM762 -35q-126 0 -226.5 36t-174.5 108.5t-114 188.5t-40 269v1030h108v-1024q0 -264 121 -387t336 -123q104 0 186 28.5t143.5 88.5t94.5 159t33 234v1024h108v-1597h-108q0 49 18 260h-20q-65 -158 -179.5 -226.5t-285.5 -68.5z" />
    <glyph glyph-name="Uhungarumlaut.ss01" horiz-adv-x="1564" 
d="M905 2036l-270 -316h-96l213 316h153zM1196 2036l-291 -316h-96l231 316h156zM762 -35q-126 0 -226.5 36t-174.5 108.5t-114 188.5t-40 269v1030h108v-1024q0 -264 121 -387t336 -123q104 0 186 28.5t143.5 88.5t94.5 159t33 234v1024h108v-1597h-108q0 49 18 260h-20
q-65 -158 -179.5 -226.5t-285.5 -68.5z" />
    <glyph glyph-name="Umacron.ss01" horiz-adv-x="1564" 
d="M1092 1843h-652v94h652v-94zM762 -35q-126 0 -226.5 36t-174.5 108.5t-114 188.5t-40 269v1030h108v-1024q0 -264 121 -387t336 -123q104 0 186 28.5t143.5 88.5t94.5 159t33 234v1024h108v-1597h-108q0 49 18 260h-20q-65 -158 -179.5 -226.5t-285.5 -68.5z" />
    <glyph glyph-name="Uogonek.ss01" horiz-adv-x="1564" 
d="M1343 -385q39 0 89 14v-78q-55 -14 -95 -14q-114 0 -189 63t-75 169q0 132 158 231h-2q0 49 18 260h-20q-65 -158 -179.5 -226.5t-285.5 -68.5q-126 0 -226.5 36t-174.5 108.5t-114 188.5t-40 269v1030h108v-1024q0 -264 121 -387t336 -123q104 0 186 28.5t143.5 88.5
t94.5 159t33 234v1024h108v-1597h-2q-178 -96 -178 -221q0 -74 53.5 -119t132.5 -45z" />
    <glyph glyph-name="Uring.ss01" horiz-adv-x="1564" 
d="M766 1716q-95 0 -157 60.5t-62 154.5q0 91 62 151t157 60q93 0 155 -60t62 -151q0 -93 -62 -154t-155 -61zM766 1796q59 0 98 36t39 99q0 59 -39 94t-98 35q-61 0 -101 -35t-40 -94q0 -63 39.5 -99t101.5 -36zM762 -35q-126 0 -226.5 36t-174.5 108.5t-114 188.5t-40 269
v1030h108v-1024q0 -264 121 -387t336 -123q104 0 186 28.5t143.5 88.5t94.5 159t33 234v1024h108v-1597h-108q0 49 18 260h-20q-65 -158 -179.5 -226.5t-285.5 -68.5z" />
    <glyph glyph-name="V.ss01" horiz-adv-x="1503" 
d="M848 0h-193l-618 1597h117q404 -1068 559 -1497h86q198 553 551 1497h114z" />
    <glyph glyph-name="W.ss01" horiz-adv-x="2316" 
d="M702 0h-131l-530 1597h113l481 -1460h6l416 1460h223l401 -1460h7l475 1460h112l-530 -1597h-131l-404 1495h-86z" />
    <glyph glyph-name="Wacute.ss01" horiz-adv-x="2316" 
d="M1522 2036l-342 -316h-95l267 316h170zM702 0h-131l-530 1597h113l481 -1460h6l416 1460h223l401 -1460h7l475 1460h112l-530 -1597h-131l-404 1495h-86z" />
    <glyph glyph-name="Wcircumflex.ss01" horiz-adv-x="2316" 
d="M915 1720h-94l262 297h148l264 -297h-96q-113 107 -157 160q-35 42 -62 84h-43q-31 -47 -73.5 -95.5t-67 -72.5t-81.5 -76zM702 0h-131l-530 1597h113l481 -1460h6l416 1460h223l401 -1460h7l475 1460h112l-530 -1597h-131l-404 1495h-86z" />
    <glyph glyph-name="Wdieresis.ss01" horiz-adv-x="2316" 
d="M967 1798q-38 0 -65.5 28t-27.5 68q0 37 27.5 64t65.5 27q39 0 65.5 -27t26.5 -64q0 -40 -26.5 -68t-65.5 -28zM1348 1798q-41 0 -67 28t-26 68q0 38 26.5 64.5t66.5 26.5q38 0 65 -27t27 -64q0 -40 -27 -68t-65 -28zM702 0h-131l-530 1597h113l481 -1460h6l416 1460h223
l401 -1460h7l475 1460h112l-530 -1597h-131l-404 1495h-86z" />
    <glyph glyph-name="Wgrave.ss01" horiz-adv-x="2316" 
d="M1233 1720h-94l-342 316h170zM702 0h-131l-530 1597h113l481 -1460h6l416 1460h223l401 -1460h7l475 1460h112l-530 -1597h-131l-404 1495h-86z" />
    <glyph glyph-name="X.ss01" horiz-adv-x="1398" 
d="M156 0h-123l551 821l-4 4l-531 772h123q177 -254 485 -723h84q251 377 486 723h123l-531 -772l-4 -4l549 -821h-119q-169 256 -504 774h-84q-420 -650 -501 -774z" />
    <glyph glyph-name="Y.ss01" horiz-adv-x="1372" 
d="M412 0h-109q209 355 377 596q-250 377 -625 1001h121q40 -68 165 -276.5t210 -354.5t166 -292h20q74 151 174.5 331.5t157 275.5t188.5 316h115z" />
    <glyph glyph-name="Yacute.ss01" horiz-adv-x="1372" 
d="M1077 2036l-342 -316h-94l266 316h170zM412 0h-109q209 355 377 596q-250 377 -625 1001h121q40 -68 165 -276.5t210 -354.5t166 -292h20q74 151 174.5 331.5t157 275.5t188.5 316h115z" />
    <glyph glyph-name="Ycircumflex.ss01" horiz-adv-x="1372" 
d="M471 1720h-94l262 297h147l265 -297h-97q-113 107 -157 160q-34 41 -62 84h-43q-31 -48 -72.5 -95.5t-68 -73t-80.5 -75.5zM412 0h-109q209 355 377 596q-250 377 -625 1001h121q40 -68 165 -276.5t210 -354.5t166 -292h20q74 151 174.5 331.5t157 275.5t188.5 316h115z
" />
    <glyph glyph-name="Ydieresis.ss01" horiz-adv-x="1372" 
d="M524 1798q-38 0 -65 28t-27 68q0 37 27 64t65 27q39 0 65.5 -27t26.5 -64q0 -40 -26.5 -68t-65.5 -28zM905 1798q-41 0 -66.5 27.5t-25.5 68.5q0 38 26 64.5t66 26.5q38 0 65 -27t27 -64q0 -40 -27 -68t-65 -28zM412 0h-109q209 355 377 596q-250 377 -625 1001h121
q40 -68 165 -276.5t210 -354.5t166 -292h20q74 151 174.5 331.5t157 275.5t188.5 316h115z" />
    <glyph glyph-name="Ygrave.ss01" horiz-adv-x="1372" 
d="M788 1720h-94l-342 316h170zM412 0h-109q209 355 377 596q-250 377 -625 1001h121q40 -68 165 -276.5t210 -354.5t166 -292h20q74 151 174.5 331.5t157 275.5t188.5 316h115z" />
    <glyph glyph-name="Z.ss01" horiz-adv-x="1384" 
d="M1303 0h-1297q915 1195 1157 1505l-10 17q-409 -23 -1026 -23v98h1229q-73 -95 -275 -359.5t-308 -402t-272.5 -350.5t-307.5 -387l10 -16q346 22 1100 22v-104z" />
    <glyph glyph-name="Zacute.ss01" horiz-adv-x="1384" 
d="M1044 2036l-342 -316h-94l266 316h170zM1303 0h-1297q915 1195 1157 1505l-10 17q-409 -23 -1026 -23v98h1229q-73 -95 -275 -359.5t-308 -402t-272.5 -350.5t-307.5 -387l10 -16q346 22 1100 22v-104z" />
    <glyph glyph-name="Zcaron.ss01" horiz-adv-x="1384" 
d="M754 1720h-148l-262 297h94q52 -48 80 -75t69 -74t72 -94h43q10 15 21 30t19.5 26.5t22.5 27.5t20.5 23.5t23.5 25t21 22t24 23.5t22 21t24 23l22 21h96zM1303 0h-1297q915 1195 1157 1505l-10 17q-409 -23 -1026 -23v98h1229q-73 -95 -275 -359.5t-308 -402
t-272.5 -350.5t-307.5 -387l10 -16q346 22 1100 22v-104z" />
    <glyph glyph-name="Zdotaccent.ss01" horiz-adv-x="1384" 
d="M682 1792q-43 0 -71.5 29.5t-28.5 72.5q0 40 29 68.5t71 28.5q41 0 69.5 -28.5t28.5 -68.5q0 -43 -28.5 -72.5t-69.5 -29.5zM1303 0h-1297q915 1195 1157 1505l-10 17q-409 -23 -1026 -23v98h1229q-73 -95 -275 -359.5t-308 -402t-272.5 -350.5t-307.5 -387l10 -16
q346 22 1100 22v-104z" />
    <glyph glyph-name="Q.ss02" horiz-adv-x="1826" 
d="M950 -33q14 -99 11 -260q211 21 577 21v-97q-427 0 -659 11q-8 205 12 323q-162 9 -305.5 75.5t-247.5 175t-164.5 260t-60.5 321.5q0 175 63 330.5t170.5 265.5t255 173.5t311.5 63.5q222 0 406 -111t289.5 -302.5t105.5 -419.5q0 -223 -97.5 -406.5t-272 -295
t-394.5 -128.5zM229 797q0 -297 183 -499t479 -230q-23 168 -23 503h105q0 -337 -25 -505q132 10 250.5 69t206 154t139 227t51.5 281q0 156 -55.5 293.5t-148.5 232.5t-217 150t-259 55q-136 0 -261.5 -55t-219 -150t-149.5 -232.5t-56 -293.5z" />
    <glyph glyph-name="A.ss07" 
d="M1020 -315q-197 0 -371.5 71t-298.5 193.5t-196 293.5t-72 365q0 198 72 372.5t196 298.5t298 195.5t372 71.5q200 0 375.5 -71.5t301 -195.5t197.5 -298.5t72 -372.5q0 -259 -123 -470.5t-339.5 -332t-483.5 -120.5zM985 1096l-397 -963h86q108 273 135 356l10 9
q143 -13 213 -13q69 0 201 13l8 -6q33 -118 131 -359h86l-395 963h-78zM836 547l-2 4q110 238 184 459h12q72 -227 178 -459l-2 -4q-106 12 -174 12q-60 0 -196 -12z" />
    <glyph glyph-name="B.ss07" 
d="M1020 -315q-197 0 -371.5 71t-298.5 193.5t-196 293.5t-72 365q0 198 72 372.5t196 298.5t298 195.5t372 71.5q200 0 375.5 -71.5t301 -195.5t197.5 -298.5t72 -372.5q0 -259 -123 -470.5t-339.5 -332t-483.5 -120.5zM719 1096v-963h385q123 0 207 74t84 186
q0 89 -55 149.5t-150 75.5v7q82 22 129 80t47 137q0 110 -88.5 182t-224.5 72h-334zM793 643l-5 8q15 203 -2 377l7 6q94 -12 245 -12q108 0 175 -51.5t67 -134.5t-63 -133t-166 -50q-166 0 -258 -10zM793 197l-7 6q17 176 2 381l5 6q98 -10 276 -10q107 0 174.5 -53
t67.5 -138q0 -82 -63 -132t-167 -50q-186 0 -288 -10z" />
    <glyph glyph-name="C.ss07" 
d="M1020 -315q-197 0 -371.5 71t-298.5 193.5t-196 293.5t-72 365q0 198 72 372.5t196 298.5t298 195.5t372 71.5q200 0 375.5 -71.5t301 -195.5t197.5 -298.5t72 -372.5q0 -259 -123 -470.5t-339.5 -332t-483.5 -120.5zM1057 113q168 0 287.5 92.5t166.5 259.5l-71 27
q-32 -130 -128 -217t-247 -87q-79 0 -151 26.5t-130 77t-92.5 133t-34.5 185.5q0 188 112 309t284 121q120 0 214 -64t134 -173l72 28q-42 139 -161.5 212t-260.5 73q-206 0 -343 -143.5t-137 -362.5t136 -358t350 -139z" />
    <glyph glyph-name="D.ss07" 
d="M1020 -315q-197 0 -371.5 71t-298.5 193.5t-196 293.5t-72 365q0 198 72 372.5t196 298.5t298 195.5t372 71.5q200 0 375.5 -71.5t301 -195.5t197.5 -298.5t72 -372.5q0 -259 -123 -470.5t-339.5 -332t-483.5 -120.5zM682 1096v-963h344q203 0 325 133t122 355
q0 224 -121.5 349.5t-337.5 125.5h-332zM756 197l-6 6q18 415 0 825l6 6q88 -12 245 -12q182 0 285 -107.5t103 -300.5q0 -187 -95 -297t-256 -110q-182 0 -282 -10z" />
    <glyph glyph-name="E.ss07" 
d="M1020 -315q-197 0 -371.5 71t-298.5 193.5t-196 293.5t-72 365q0 198 72 372.5t196 298.5t298 195.5t372 71.5q200 0 375.5 -71.5t301 -195.5t197.5 -298.5t72 -372.5q0 -259 -123 -470.5t-339.5 -332t-483.5 -120.5zM741 1096v-963h619v78q-350 0 -543 -14l-8 6
q20 189 4 393l4 8q180 -12 508 -12v74q-310 0 -508 -11l-4 9q16 192 -4 364l8 6q66 -6 143.5 -9t123.5 -3.5t142 0t124 0.5v74h-609z" />
    <glyph glyph-name="F.ss07" 
d="M1020 -315q-197 0 -371.5 71t-298.5 193.5t-196 293.5t-72 365q0 198 72 372.5t196 298.5t298 195.5t372 71.5q200 0 375.5 -71.5t301 -195.5t197.5 -298.5t72 -372.5q0 -259 -123 -470.5t-339.5 -332t-483.5 -120.5zM760 1096v-963h82q0 292 -13 457l7 8
q180 -14 495 -14v75q-344 0 -495 -12l-7 8q18 188 0 373l7 6q182 -16 520 -16v78h-596z" />
    <glyph glyph-name="G.ss07" 
d="M1020 -315q-197 0 -371.5 71t-298.5 193.5t-196 293.5t-72 365q0 198 72 372.5t196 298.5t298 195.5t372 71.5q200 0 375.5 -71.5t301 -195.5t197.5 -298.5t72 -372.5q0 -259 -123 -470.5t-339.5 -332t-483.5 -120.5zM1049 113q283 0 381 270h14q-12 -101 -12 -250h71
v473h-430v-74q121 -2 361 21l2 -2q-22 -165 -124 -264t-253 -99q-78 0 -149 27t-128 77.5t-91 133t-34 184.5q0 188 112 309t284 121q120 0 214 -64t134 -173l72 28q-42 139 -161.5 212t-260.5 73q-206 0 -343 -143.5t-137 -362.5q0 -218 134.5 -357.5t343.5 -139.5z" />
    <glyph glyph-name="H.ss07" 
d="M1020 -315q-197 0 -371.5 71t-298.5 193.5t-196 293.5t-72 365q0 198 72 372.5t196 298.5t298 195.5t372 71.5q200 0 375.5 -71.5t301 -195.5t197.5 -298.5t72 -372.5q0 -259 -123 -470.5t-339.5 -332t-483.5 -120.5zM659 1096v-963h82q0 303 -12 459l6 6q306 -26 578 0
l6 -6q-12 -164 -12 -459h82v963h-82q0 -292 12 -439l-6 -6q-271 12 -578 0l-6 6q12 139 12 439h-82z" />
    <glyph glyph-name="I.ss07" 
d="M1020 -315q-197 0 -371.5 71t-298.5 193.5t-196 293.5t-72 365q0 198 72 372.5t196 298.5t298 195.5t372 71.5q200 0 375.5 -71.5t301 -195.5t197.5 -298.5t72 -372.5q0 -259 -123 -470.5t-339.5 -332t-483.5 -120.5zM983 1096v-963h80v963h-80z" />
    <glyph glyph-name="J.ss07" 
d="M1020 -315q-197 0 -371.5 71t-298.5 193.5t-196 293.5t-72 365q0 198 72 372.5t196 298.5t298 195.5t372 71.5q200 0 375.5 -71.5t301 -195.5t197.5 -298.5t72 -372.5q0 -259 -123 -470.5t-339.5 -332t-483.5 -120.5zM985 123q55 0 98.5 16.5t71 39.5t47 61t29 68.5
t14.5 76t5.5 68t0.5 59.5v594h-80v-617q0 -34 -1 -56.5t-6 -61.5t-17 -65.5t-31.5 -53.5t-53 -41t-77.5 -14q-32 0 -60.5 6.5t-57.5 24t-50 44.5t-34 71t-13 101v29l-76 -8v-33q0 -84 26 -147t69.5 -96.5t92.5 -49.5t103 -16z" />
    <glyph glyph-name="K.ss07" 
d="M1020 -315q-197 0 -371.5 71t-298.5 193.5t-196 293.5t-72 365q0 198 72 372.5t196 298.5t298 195.5t372 71.5q200 0 375.5 -71.5t301 -195.5t197.5 -298.5t72 -372.5q0 -259 -123 -470.5t-339.5 -332t-483.5 -120.5zM733 1096v-963h80q0 227 -6 348q70 56 133 148h2
q123 -173 379 -496h100q-290 371 -432 541v6q52 47 111.5 106.5t94.5 95.5t108.5 114t95.5 100h-101q-287 -301 -499 -535h-6q5 41 8.5 81t5.5 85t3.5 73t2 80t0.5 69v77.5v69.5h-80z" />
    <glyph glyph-name="L.ss07" 
d="M1020 -315q-197 0 -371.5 71t-298.5 193.5t-196 293.5t-72 365q0 198 72 372.5t196 298.5t298 195.5t372 71.5q200 0 375.5 -71.5t301 -195.5t197.5 -298.5t72 -372.5q0 -259 -123 -470.5t-339.5 -332t-483.5 -120.5zM815 1096v-963h582v78q-330 0 -508 -14l-6 6
q12 309 12 893h-80z" />
    <glyph glyph-name="M.ss07" 
d="M1020 -315q-197 0 -371.5 71t-298.5 193.5t-196 293.5t-72 365q0 198 72 372.5t196 298.5t298 195.5t372 71.5q200 0 375.5 -71.5t301 -195.5t197.5 -298.5t72 -372.5q0 -259 -123 -470.5t-339.5 -332t-483.5 -120.5zM541 1096v-963h82q0 47 -0.5 191t-1.5 217.5
t-6.5 196.5t-16.5 231h4q258 -572 383 -836h76q125 264 383 836h4q-8 -90 -13.5 -174.5t-7.5 -187.5t-2.5 -150t0 -175t0.5 -149h82v963h-77q-236 -485 -406 -875h-2q-171 413 -406 875h-75z" />
    <glyph glyph-name="N.ss07" 
d="M1020 -315q-197 0 -371.5 71t-298.5 193.5t-196 293.5t-72 365q0 198 72 372.5t196 298.5t298 195.5t372 71.5q200 0 375.5 -71.5t301 -195.5t197.5 -298.5t72 -372.5q0 -259 -123 -470.5t-339.5 -332t-483.5 -120.5zM659 1096v-963h82q0 29 0.5 156.5t0 178.5t-2 153
t-5.5 187t-11 173h4q303 -436 612 -848h74v963h-82v-81v-85v-79.5t0.5 -86.5t1.5 -81t2 -88.5t2.5 -83.5t3.5 -91.5t5 -87.5t6 -94h-4q-367 530 -615 858h-74z" />
    <glyph glyph-name="O.ss07" 
d="M1020 -315q-197 0 -371.5 71t-298.5 193.5t-196 293.5t-72 365q0 198 72 372.5t196 298.5t298 195.5t372 71.5q200 0 375.5 -71.5t301 -195.5t197.5 -298.5t72 -372.5q0 -259 -123 -470.5t-339.5 -332t-483.5 -120.5zM1024 113q133 0 244 66t175 181.5t64 253.5
t-64 253.5t-174.5 182t-242.5 66.5q-204 0 -343.5 -145t-139.5 -357t139 -356.5t342 -144.5zM627 614q0 179 116 302.5t283 123.5q165 0 280 -124t115 -302t-115 -302t-280 -124q-166 0 -282.5 123.5t-116.5 302.5z" />
    <glyph glyph-name="P.ss07" 
d="M1020 -315q-197 0 -371.5 71t-298.5 193.5t-196 293.5t-72 365q0 198 72 372.5t196 298.5t298 195.5t372 71.5q200 0 375.5 -71.5t301 -195.5t197.5 -298.5t72 -372.5q0 -259 -123 -470.5t-339.5 -332t-483.5 -120.5zM743 1096v-963h80q0 257 -10 404q93 -17 285 -17
q128 0 210.5 80t82.5 213q0 130 -88 206.5t-228 76.5h-332zM817 584l-4 6q16 226 -2 438l6 6q88 -12 246 -12q111 0 176.5 -57.5t65.5 -155.5q0 -104 -60.5 -159.5t-169.5 -55.5q-166 0 -258 -10z" />
    <glyph glyph-name="Q.ss07" 
d="M1020 -315q-197 0 -371.5 71t-298.5 193.5t-196 293.5t-72 365q0 198 72 372.5t196 298.5t298 195.5t372 71.5q200 0 375.5 -71.5t301 -195.5t197.5 -298.5t72 -372.5q0 -259 -123 -470.5t-339.5 -332t-483.5 -120.5zM1411 68l57 49q-9 10 -32.5 37.5t-36.5 41.5
t-34.5 36.5t-41.5 41.5q87 68 133.5 167.5t46.5 217.5q0 138 -64 253.5t-174.5 182t-242.5 66.5q-204 0 -343.5 -145t-139.5 -357q0 -213 139 -357t342 -144q147 0 256 84q42 -64 135 -174zM623 659q0 177 116 300.5t283 123.5q164 0 279.5 -123.5t115.5 -300.5
q0 -190 -135 -340q-86 122 -199 252l-57 -47q132 -156 211 -233q-111 -60 -215 -60q-167 0 -283 124t-116 304z" />
    <glyph glyph-name="R.ss07" 
d="M1020 -315q-197 0 -371.5 71t-298.5 193.5t-196 293.5t-72 365q0 198 72 372.5t196 298.5t298 195.5t372 71.5q200 0 375.5 -71.5t301 -195.5t197.5 -298.5t72 -372.5q0 -259 -123 -470.5t-339.5 -332t-483.5 -120.5zM748 1096v-963h81q0 259 -10 406q91 -19 240 -19
l258 -387h92q-24 36 -82 123.5t-102.5 153t-87.5 125.5v2q121 12 190.5 85t69.5 189q0 131 -88 208t-228 77h-333zM823 584l-4 6q15 224 -4 438l8 6q103 -12 246 -12q111 0 176.5 -58t65.5 -157q0 -102 -60.5 -157.5t-171.5 -55.5q-164 0 -256 -10z" />
    <glyph glyph-name="S.ss07" 
d="M1020 -315q-197 0 -371.5 71t-298.5 193.5t-196 293.5t-72 365q0 198 72 372.5t196 298.5t298 195.5t372 71.5q200 0 375.5 -71.5t301 -195.5t197.5 -298.5t72 -372.5q0 -259 -123 -470.5t-339.5 -332t-483.5 -120.5zM1040 113q139 0 232.5 79.5t93.5 200.5q0 26 -5 49
t-12 41t-21.5 35t-25.5 28.5t-32 24t-33 19t-37 16.5t-36 13.5t-37.5 12t-34.5 11.5l-91 29q-27 8 -44 14.5t-50.5 24t-54 36t-37 50.5t-16.5 69q0 77 60.5 125.5t156.5 48.5q93 0 161.5 -52.5t94.5 -143.5l71 30q-29 113 -113.5 177.5t-205.5 64.5q-76 0 -145 -26.5
t-117.5 -87t-48.5 -142.5q0 -51 20 -93.5t46.5 -69t68.5 -50.5t69 -34t66 -23l88 -27q7 -2 29.5 -9t30.5 -9.5t27.5 -10t28 -12t24.5 -13.5t23 -17t17.5 -20.5t15 -25.5t8 -29.5t3.5 -35.5q0 -49 -21 -87.5t-56 -60.5t-75.5 -33.5t-83.5 -11.5q-106 0 -183 65t-105 179
l-74 -29q16 -64 46 -115.5t66 -83.5t79.5 -53t85 -29.5t83.5 -8.5z" />
    <glyph glyph-name="T.ss07" 
d="M1020 -315q-197 0 -371.5 71t-298.5 193.5t-196 293.5t-72 365q0 198 72 372.5t196 298.5t298 195.5t372 71.5q200 0 375.5 -71.5t301 -195.5t197.5 -298.5t72 -372.5q0 -259 -123 -470.5t-339.5 -332t-483.5 -120.5zM983 133h80q0 594 -6 901q117 -12 338 -12v74h-746
v-74q221 0 338 12q-4 -205 -4 -901z" />
    <glyph glyph-name="U.ss07" 
d="M1020 -315q-197 0 -371.5 71t-298.5 193.5t-196 293.5t-72 365q0 198 72 372.5t196 298.5t298 195.5t372 71.5q200 0 375.5 -71.5t301 -195.5t197.5 -298.5t72 -372.5q0 -259 -123 -470.5t-339.5 -332t-483.5 -120.5zM1020 123q166 0 257 96.5t91 269.5v617h-82v-614
q0 -295 -262 -295t-262 295v614h-82v-617q0 -175 87 -270.5t253 -95.5z" />
    <glyph glyph-name="V.ss07" 
d="M1020 -315q-197 0 -371.5 71t-298.5 193.5t-196 293.5t-72 365q0 198 72 372.5t196 298.5t298 195.5t372 71.5q200 0 375.5 -71.5t301 -195.5t197.5 -298.5t72 -372.5q0 -259 -123 -470.5t-339.5 -332t-483.5 -120.5zM590 1096l395 -963h78l395 963h-84
q-221 -539 -344 -883h-6q-153 414 -350 883h-84z" />
    <glyph glyph-name="W.ss07" 
d="M1020 -315q-197 0 -371.5 71t-298.5 193.5t-196 293.5t-72 365q0 198 72 372.5t196 298.5t298 195.5t372 71.5q200 0 375.5 -71.5t301 -195.5t197.5 -298.5t72 -372.5q0 -259 -123 -470.5t-339.5 -332t-483.5 -120.5zM350 1096l320 -963h88q164 497 264 881h4
q126 -469 266 -881h86l320 963h-84q-132 -384 -275 -879h-4q-115 402 -270 879h-82q-164 -517 -268 -879h-4q-113 403 -277 879h-84z" />
    <glyph glyph-name="X.ss07" 
d="M1020 -315q-197 0 -371.5 71t-298.5 193.5t-196 293.5t-72 365q0 198 72 372.5t196 298.5t298 195.5t372 71.5q200 0 375.5 -71.5t301 -195.5t197.5 -298.5t72 -372.5q0 -259 -123 -470.5t-339.5 -332t-483.5 -120.5zM637 133h92q197 286 293 449h2q101 -165 293 -449h92
q-27 38 -150.5 218.5t-193.5 275.5v6q116 153 334 463h-92q-172 -236 -283 -418h-2q-89 146 -283 418h-94q155 -220 336 -463v-6q-70 -95 -193.5 -275.5t-150.5 -218.5z" />
    <glyph glyph-name="Y.ss07" 
d="M1020 -315q-197 0 -371.5 71t-298.5 193.5t-196 293.5t-72 365q0 198 72 372.5t196 298.5t298 195.5t372 71.5q200 0 375.5 -71.5t301 -195.5t197.5 -298.5t72 -372.5q0 -259 -123 -470.5t-339.5 -332t-483.5 -120.5zM983 133h80q0 240 -6 359q121 191 370 604h-88
q-219 -363 -315 -549h-2q-109 210 -313 549h-91q173 -288 371 -607q-6 -117 -6 -356z" />
    <glyph glyph-name="Z.ss07" 
d="M1020 -315q-197 0 -371.5 71t-298.5 193.5t-196 293.5t-72 365q0 198 72 372.5t196 298.5t298 195.5t372 71.5q200 0 375.5 -71.5t301 -195.5t197.5 -298.5t72 -372.5q0 -259 -123 -470.5t-339.5 -332t-483.5 -120.5zM672 199v-66h739v78q-426 0 -647 -14l-2 2
q41 54 278.5 361t360.5 474v62h-703v-74q340 0 611 18v-4q-89 -118 -305 -399.5t-332 -437.5z" />
    <glyph glyph-name="A.ss08" 
d="M1020 -315q-197 0 -371.5 71t-298.5 193.5t-196 293.5t-72 365q0 198 72 372.5t196 298.5t298 195.5t372 71.5q200 0 375.5 -71.5t301 -195.5t197.5 -298.5t72 -372.5q0 -259 -123 -470.5t-339.5 -332t-483.5 -120.5zM1020 -240q183 0 344 65t275.5 177t180.5 270t66 338
q0 182 -66 341.5t-180.5 273.5t-275.5 179.5t-344 65.5q-181 0 -340.5 -65.5t-274 -179.5t-181 -273.5t-66.5 -341.5q0 -238 113 -433t310.5 -306t438.5 -111zM776 268h-65l284 693h60l284 -693h-67q-68 168 -94 256l-4 4q-90 -8 -142 -8q-61 0 -151 8l-7 -4
q-37 -109 -98 -256zM893 567q86 11 139 11q52 0 123 -11q-80 179 -127 328h-6q-61 -181 -129 -328z" />
    <glyph glyph-name="B.ss08" 
d="M1020 -315q-197 0 -371.5 71t-298.5 193.5t-196 293.5t-72 365q0 198 72 372.5t196 298.5t298 195.5t372 71.5q200 0 375.5 -71.5t301 -195.5t197.5 -298.5t72 -372.5q0 -259 -123 -470.5t-339.5 -332t-483.5 -120.5zM1020 -240q183 0 344 65t275.5 177t180.5 270t66 338
q0 182 -66 341.5t-180.5 273.5t-275.5 179.5t-344 65.5q-181 0 -340.5 -65.5t-274 -179.5t-181 -273.5t-66.5 -341.5q0 -238 113 -433t310.5 -306t438.5 -111zM1079 268h-276v693h239q99 0 162.5 -52.5t63.5 -132.5q0 -57 -32.5 -98.5t-90.5 -56.5q68 -14 106.5 -57.5
t38.5 -106.5q0 -82 -60 -135.5t-151 -53.5zM856 639l2 -2q68 8 182 8q75 0 120.5 35t45.5 92q0 58 -48.5 94.5t-123.5 36.5q-108 0 -176 8l-2 -2q12 -128 0 -270zM856 319l2 -2q83 9 205 9q74 0 119 34.5t45 92.5q0 60 -48 97.5t-124 37.5q-125 0 -197 8l-2 -2
q12 -145 0 -275z" />
    <glyph glyph-name="C.ss08" 
d="M1020 -315q-197 0 -371.5 71t-298.5 193.5t-196 293.5t-72 365q0 198 72 372.5t196 298.5t298 195.5t372 71.5q200 0 375.5 -71.5t301 -195.5t197.5 -298.5t72 -372.5q0 -259 -123 -470.5t-339.5 -332t-483.5 -120.5zM1020 -240q183 0 344 65t275.5 177t180.5 270t66 338
q0 182 -66 341.5t-180.5 273.5t-275.5 179.5t-344 65.5q-181 0 -340.5 -65.5t-274 -179.5t-181 -273.5t-66.5 -341.5q0 -238 113 -433t310.5 -306t438.5 -111zM1047 254q-154 0 -252.5 99.5t-98.5 256.5q0 158 98.5 261.5t247.5 103.5q110 0 193 -56.5t111 -150.5l-54 -23
q-29 78 -96 124t-152 46q-123 0 -201.5 -85t-78.5 -220q0 -73 24.5 -131t65.5 -94t92 -55t107 -19q99 0 170 58.5t96 160.5l55 -22q-34 -120 -120.5 -187t-206.5 -67z" />
    <glyph glyph-name="D.ss08" 
d="M1020 -315q-197 0 -371.5 71t-298.5 193.5t-196 293.5t-72 365q0 198 72 372.5t196 298.5t298 195.5t372 71.5q200 0 375.5 -71.5t301 -195.5t197.5 -298.5t72 -372.5q0 -259 -123 -470.5t-339.5 -332t-483.5 -120.5zM1020 -240q183 0 344 65t275.5 177t180.5 270t66 338
q0 182 -66 341.5t-180.5 273.5t-275.5 179.5t-344 65.5q-181 0 -340.5 -65.5t-274 -179.5t-181 -273.5t-66.5 -341.5q0 -238 113 -433t310.5 -306t438.5 -111zM1026 268h-250v693h242q155 0 241.5 -91.5t86.5 -251.5q0 -159 -87 -254.5t-233 -95.5zM831 319l3 -2q81 9 200 9
q116 0 183 77.5t67 210.5q0 138 -72.5 213.5t-201.5 75.5q-115 0 -176 8l-3 -2q12 -294 0 -590z" />
    <glyph glyph-name="E.ss08" 
d="M1020 -315q-197 0 -371.5 71t-298.5 193.5t-196 293.5t-72 365q0 198 72 372.5t196 298.5t298 195.5t372 71.5q200 0 375.5 -71.5t301 -195.5t197.5 -298.5t72 -372.5q0 -259 -123 -470.5t-339.5 -332t-483.5 -120.5zM1020 -240q183 0 344 65t275.5 177t180.5 270t66 338
q0 182 -66 341.5t-180.5 273.5t-275.5 179.5t-344 65.5q-181 0 -340.5 -65.5t-274 -179.5t-181 -273.5t-66.5 -341.5q0 -238 113 -433t310.5 -306t438.5 -111zM1266 268h-447v693h438v-58q-69 1 -124 0t-126.5 1t-132.5 7l-2 -2q12 -130 0 -260l5 -4q131 10 362 10v-59
q-233 0 -362 10l-5 -4q12 -145 0 -283l2 -2q153 11 392 11v-60z" />
    <glyph glyph-name="F.ss08" 
d="M1020 -315q-197 0 -371.5 71t-298.5 193.5t-196 293.5t-72 365q0 198 72 372.5t196 298.5t298 195.5t372 71.5q200 0 375.5 -71.5t301 -195.5t197.5 -298.5t72 -372.5q0 -259 -123 -470.5t-339.5 -332t-483.5 -120.5zM1020 -240q183 0 344 65t275.5 177t180.5 270t66 338
q0 182 -66 341.5t-180.5 273.5t-275.5 179.5t-344 65.5q-181 0 -340.5 -65.5t-274 -179.5t-181 -273.5t-66.5 -341.5q0 -238 113 -433t310.5 -306t438.5 -111zM895 268h-61v693h428v-60q-240 0 -373 10l-2 -2q12 -132 0 -266l4 -2q95 6 354 6v-55q-225 0 -354 6l-4 -2
q8 -109 8 -328z" />
    <glyph glyph-name="G.ss08" 
d="M1020 1546q200 0 375.5 -71.5t301 -195.5t197.5 -298.5t72 -372.5q0 -259 -123 -470.5t-339.5 -332t-483.5 -120.5q-197 0 -371.5 71t-298.5 193.5t-196 293.5t-72 365q0 198 72 372.5t196 298.5t298 195.5t372 71.5zM1020 -240q183 0 344 65t275.5 177t180.5 270t66 338
q0 182 -66 341.5t-180.5 273.5t-275.5 179.5t-344 65.5q-181 0 -340.5 -65.5t-274 -179.5t-181 -273.5t-66.5 -341.5q0 -238 113 -433t310.5 -306t438.5 -111zM1059 553v55h309v-340h-55q0 16 -1 47.5t-1 57.5t2 49q-36 -82 -106 -125t-165 -43q-152 0 -249 100t-97 256
q0 158 98.5 261.5t247.5 103.5q110 0 193 -56.5t111 -150.5l-54 -23q-29 78 -96 124t-152 46q-123 0 -201.5 -85t-78.5 -220q0 -96 41.5 -165.5t105 -101.5t138.5 -32q108 0 180.5 70t85.5 188q-164 -18 -256 -16z" />
    <glyph glyph-name="H.ss08" 
d="M1020 -315q-197 0 -371.5 71t-298.5 193.5t-196 293.5t-72 365q0 198 72 372.5t196 298.5t298 195.5t372 71.5q200 0 375.5 -71.5t301 -195.5t197.5 -298.5t72 -372.5q0 -259 -123 -470.5t-339.5 -332t-483.5 -120.5zM1020 -240q183 0 344 65t275.5 177t180.5 270t66 338
q0 182 -66 341.5t-180.5 273.5t-275.5 179.5t-344 65.5q-181 0 -340.5 -65.5t-274 -179.5t-181 -273.5t-66.5 -341.5q0 -238 113 -433t310.5 -306t438.5 -111zM823 268h-61v693h61q0 -236 -8 -316l4 -4q216 12 412 0l4 4q-10 106 -10 316h63v-693h-63q0 211 10 328l-4 4
q-195 -20 -414 0l-2 -4q8 -89 8 -328z" />
    <glyph glyph-name="I.ss08" 
d="M1020 -315q-197 0 -371.5 71t-298.5 193.5t-196 293.5t-72 365q0 198 72 372.5t196 298.5t298 195.5t372 71.5q200 0 375.5 -71.5t301 -195.5t197.5 -298.5t72 -372.5q0 -259 -123 -470.5t-339.5 -332t-483.5 -120.5zM1020 -240q183 0 344 65t275.5 177t180.5 270t66 338
q0 182 -66 341.5t-180.5 273.5t-275.5 179.5t-344 65.5q-181 0 -340.5 -65.5t-274 -179.5t-181 -273.5t-66.5 -341.5q0 -238 113 -433t310.5 -306t438.5 -111zM1055 268h-64v693h64v-693z" />
    <glyph glyph-name="J.ss08" 
d="M1020 -315q-197 0 -371.5 71t-298.5 193.5t-196 293.5t-72 365q0 198 72 372.5t196 298.5t298 195.5t372 71.5q200 0 375.5 -71.5t301 -195.5t197.5 -298.5t72 -372.5q0 -259 -123 -470.5t-339.5 -332t-483.5 -120.5zM1020 -240q183 0 344 65t275.5 177t180.5 270t66 338
q0 182 -66 341.5t-180.5 273.5t-275.5 179.5t-344 65.5q-181 0 -340.5 -65.5t-274 -179.5t-181 -273.5t-66.5 -341.5q0 -238 113 -433t310.5 -306t438.5 -111zM997 260q-98 0 -154.5 59.5t-56.5 163.5v25l58 8v-24q0 -82 40.5 -129.5t110.5 -47.5q31 0 55 9.5t37.5 29t22 38
t12 46.5t4 43.5t0.5 40.5v445h62v-428q0 -25 -0.5 -42t-4 -49t-10.5 -54t-21 -49.5t-34 -44t-51 -28.5t-70 -12z" />
    <glyph glyph-name="K.ss08" 
d="M1020 1546q200 0 375.5 -71.5t301 -195.5t197.5 -298.5t72 -372.5q0 -259 -123 -470.5t-339.5 -332t-483.5 -120.5q-197 0 -371.5 71t-298.5 193.5t-196 293.5t-72 365q0 198 72 372.5t196 298.5t298 195.5t372 71.5zM1020 -240q183 0 344 65t275.5 177t180.5 270t66 338
q0 182 -66 341.5t-180.5 273.5t-275.5 179.5t-344 65.5q-181 0 -340.5 -65.5t-274 -179.5t-181 -273.5t-66.5 -341.5q0 -238 113 -433t310.5 -306t438.5 -111zM1004 662v-5q138 -168 309 -389h-78q-183 236 -268 353q-48 -67 -95 -103q5 -108 5 -250h-62v693h62
q0 -264 -11 -386q37 43 69 79t53.5 60t53.5 58.5t48.5 52t61 64t69.5 72.5h77q-21 -22 -69.5 -73t-76.5 -80t-70 -70.5t-78 -75.5z" />
    <glyph glyph-name="L.ss08" 
d="M1020 -315q-197 0 -371.5 71t-298.5 193.5t-196 293.5t-72 365q0 198 72 372.5t196 298.5t298 195.5t372 71.5q200 0 375.5 -71.5t301 -195.5t197.5 -298.5t72 -372.5q0 -259 -123 -470.5t-339.5 -332t-483.5 -120.5zM1020 -240q183 0 344 65t275.5 177t180.5 270t66 338
q0 182 -66 341.5t-180.5 273.5t-275.5 179.5t-344 65.5q-181 0 -340.5 -65.5t-274 -179.5t-181 -273.5t-66.5 -341.5q0 -238 113 -433t310.5 -306t438.5 -111zM1292 268h-420v693h62q0 -419 -8 -642l2 -2q144 11 364 11v-60z" />
    <glyph glyph-name="M.ss08" 
d="M1020 1546q200 0 375.5 -71.5t301 -195.5t197.5 -298.5t72 -372.5q0 -259 -123 -470.5t-339.5 -332t-483.5 -120.5q-197 0 -371.5 71t-298.5 193.5t-196 293.5t-72 365q0 198 72 372.5t196 298.5t298 195.5t372 71.5zM1020 -240q183 0 344 65t275.5 177t180.5 270t66 338
q0 182 -66 341.5t-180.5 273.5t-275.5 179.5t-344 65.5q-181 0 -340.5 -65.5t-274 -179.5t-181 -273.5t-66.5 -341.5q0 -238 113 -433t310.5 -306t438.5 -111zM1024 338q104 243 289 623h59v-693h-63q0 22 -0.5 111t0 126t1.5 108t4.5 129t8.5 116q-200 -441 -270 -590h-58
q-162 346 -266 586q5 -73 7.5 -160t3 -131t0 -160t-0.5 -135h-63v693h59q178 -352 289 -623z" />
    <glyph glyph-name="N.ss08" 
d="M1020 1546q200 0 375.5 -71.5t301 -195.5t197.5 -298.5t72 -372.5q0 -259 -123 -470.5t-339.5 -332t-483.5 -120.5q-197 0 -371.5 71t-298.5 193.5t-196 293.5t-72 365q0 198 72 372.5t196 298.5t298 195.5t372 71.5zM1020 -240q183 0 344 65t275.5 177t180.5 270t66 338
q0 182 -66 341.5t-180.5 273.5t-275.5 179.5t-344 65.5q-181 0 -340.5 -65.5t-274 -179.5t-181 -273.5t-66.5 -341.5q0 -238 113 -433t310.5 -306t438.5 -111zM1253 352q-12 207 -12 609h64v-693h-56q-263 352 -434 600q10 -171 10 -600h-63v693h55q169 -225 436 -609z" />
    <glyph glyph-name="O.ss08" 
d="M1020 -315q-197 0 -371.5 71t-298.5 193.5t-196 293.5t-72 365q0 198 72 372.5t196 298.5t298 195.5t372 71.5q200 0 375.5 -71.5t301 -195.5t197.5 -298.5t72 -372.5q0 -259 -123 -470.5t-339.5 -332t-483.5 -120.5zM1020 -240q183 0 344 65t275.5 177t180.5 270t66 338
q0 182 -66 341.5t-180.5 273.5t-275.5 179.5t-344 65.5q-181 0 -340.5 -65.5t-274 -179.5t-181 -273.5t-66.5 -341.5q0 -238 113 -433t310.5 -306t438.5 -111zM1024 254q-147 0 -246.5 103.5t-99.5 256.5q0 152 100 256.5t248 104.5q146 0 246 -104.5t100 -256.5t-100 -256
t-248 -104zM1026 311q117 0 199 88.5t82 214.5t-82 213.5t-199 87.5q-118 0 -200.5 -87.5t-82.5 -213.5t82.5 -214.5t200.5 -88.5z" />
    <glyph glyph-name="P.ss08" 
d="M1020 -315q-197 0 -371.5 71t-298.5 193.5t-196 293.5t-72 365q0 198 72 372.5t196 298.5t298 195.5t372 71.5q200 0 375.5 -71.5t301 -195.5t197.5 -298.5t72 -372.5q0 -259 -123 -470.5t-339.5 -332t-483.5 -120.5zM1020 -240q183 0 344 65t275.5 177t180.5 270t66 338
q0 182 -66 341.5t-180.5 273.5t-275.5 179.5t-344 65.5q-181 0 -340.5 -65.5t-274 -179.5t-181 -273.5t-66.5 -341.5q0 -238 113 -433t310.5 -306t438.5 -111zM883 268h-64v693h240q101 0 164 -55.5t63 -149.5q0 -96 -59 -153.5t-152 -57.5q-137 0 -203 12q11 -117 11 -289z
M872 598l2 -4q68 8 185 8q78 0 121 39t43 111q0 70 -46 110.5t-126 40.5q-114 0 -177 8l-2 -2q15 -157 0 -311z" />
    <glyph glyph-name="Q.ss08" 
d="M1020 -315q-197 0 -371.5 71t-298.5 193.5t-196 293.5t-72 365q0 198 72 372.5t196 298.5t298 195.5t372 71.5q200 0 375.5 -71.5t301 -195.5t197.5 -298.5t72 -372.5q0 -259 -123 -470.5t-339.5 -332t-483.5 -120.5zM1020 -240q183 0 344 65t275.5 177t180.5 270t66 338
q0 182 -66 341.5t-180.5 273.5t-275.5 179.5t-344 65.5q-181 0 -340.5 -65.5t-274 -179.5t-181 -273.5t-66.5 -341.5q0 -238 113 -433t310.5 -306t438.5 -111zM1343 256l-43 -35q-57 64 -96 123q-80 -59 -184 -59q-146 0 -246 104t-100 256t100 256.5t248 104.5
q146 0 246 -104.5t100 -256.5q0 -172 -127 -274q28 -26 102 -115zM1022 342q72 0 149 41q-41 39 -149 166l45 37q104 -127 141 -178q95 106 95 237q0 126 -82 213.5t-199 87.5q-118 0 -200.5 -87.5t-82.5 -213.5q0 -127 82 -215t201 -88z" />
    <glyph glyph-name="R.ss08" 
d="M1020 1546q200 0 375.5 -71.5t301 -195.5t197.5 -298.5t72 -372.5q0 -259 -123 -470.5t-339.5 -332t-483.5 -120.5q-197 0 -371.5 71t-298.5 193.5t-196 293.5t-72 365q0 198 72 372.5t196 298.5t298 195.5t372 71.5zM1020 -240q183 0 344 65t275.5 177t180.5 270t66 338
q0 182 -66 341.5t-180.5 273.5t-275.5 179.5t-344 65.5q-181 0 -340.5 -65.5t-274 -179.5t-181 -273.5t-66.5 -341.5q0 -238 113 -433t310.5 -306t438.5 -111zM1290 756q0 -84 -48.5 -137t-133.5 -64q49 -69 195 -287h-72l-184 277q-107 0 -170 12q8 -106 8 -289h-62v693
h240q101 0 164 -55.5t63 -149.5zM877 596l2 -4q68 10 184 10q77 0 120.5 39t43.5 111q0 70 -46 110.5t-126 40.5q-92 0 -176 8l-2 -2q12 -159 0 -313z" />
    <glyph glyph-name="S.ss08" 
d="M1020 -315q-197 0 -371.5 71t-298.5 193.5t-196 293.5t-72 365q0 198 72 372.5t196 298.5t298 195.5t372 71.5q200 0 375.5 -71.5t301 -195.5t197.5 -298.5t72 -372.5q0 -259 -123 -470.5t-339.5 -332t-483.5 -120.5zM1020 -240q183 0 344 65t275.5 177t180.5 270t66 338
q0 182 -66 341.5t-180.5 273.5t-275.5 179.5t-344 65.5q-181 0 -340.5 -65.5t-274 -179.5t-181 -273.5t-66.5 -341.5q0 -238 113 -433t310.5 -306t438.5 -111zM1036 254q-98 0 -167 55t-95 154l60 22q19 -80 74 -127t130 -47q65 0 115.5 35t50.5 103q0 25 -9 44.5t-18 30
t-33.5 22t-34 14.5t-42.5 12q-7 2 -10 3l-62 19q-37 13 -61 23.5t-59.5 33.5t-54.5 58.5t-19 81.5q0 88 68.5 136t156.5 48q86 0 147 -46t84 -128l-57 -25q-17 65 -66 102t-116 37t-109.5 -33.5t-42.5 -86.5q0 -32 15 -57.5t42.5 -42t44 -23.5t42.5 -15l65 -20q5 -2 16 -5
q32 -10 49.5 -16.5t46.5 -21.5t44.5 -31.5t28 -44.5t12.5 -63q0 -86 -68 -143.5t-168 -57.5z" />
    <glyph glyph-name="T.ss08" 
d="M1020 -315q-197 0 -371.5 71t-298.5 193.5t-196 293.5t-72 365q0 198 72 372.5t196 298.5t298 195.5t372 71.5q200 0 375.5 -71.5t301 -195.5t197.5 -298.5t72 -372.5q0 -259 -123 -470.5t-339.5 -332t-483.5 -120.5zM1020 -240q183 0 344 65t275.5 177t180.5 270t66 338
q0 182 -66 341.5t-180.5 273.5t-275.5 179.5t-344 65.5q-181 0 -340.5 -65.5t-274 -179.5t-181 -273.5t-66.5 -341.5q0 -238 113 -433t310.5 -306t438.5 -111zM1055 268h-64q0 424 6 643q-84 -8 -241 -8v58h534v-58q-157 0 -239 8q4 -219 4 -643z" />
    <glyph glyph-name="U.ss08" 
d="M1020 -315q-197 0 -371.5 71t-298.5 193.5t-196 293.5t-72 365q0 198 72 372.5t196 298.5t298 195.5t372 71.5q200 0 375.5 -71.5t301 -195.5t197.5 -298.5t72 -372.5q0 -259 -123 -470.5t-339.5 -332t-483.5 -120.5zM1020 -240q183 0 344 65t275.5 177t180.5 270t66 338
q0 182 -66 341.5t-180.5 273.5t-275.5 179.5t-344 65.5q-181 0 -340.5 -65.5t-274 -179.5t-181 -273.5t-66.5 -341.5q0 -238 113 -433t310.5 -306t438.5 -111zM1022 260q-119 0 -182.5 68.5t-63.5 195.5v443h64v-443q0 -209 184 -209t184 209v443h64v-443
q0 -125 -65.5 -194.5t-184.5 -69.5z" />
    <glyph glyph-name="V.ss08" 
d="M1020 1546q200 0 375.5 -71.5t301 -195.5t197.5 -298.5t72 -372.5q0 -259 -123 -470.5t-339.5 -332t-483.5 -120.5q-197 0 -371.5 71t-298.5 193.5t-196 293.5t-72 365q0 198 72 372.5t196 298.5t298 195.5t372 71.5zM1020 -240q183 0 344 65t275.5 177t180.5 270t66 338
q0 182 -66 341.5t-180.5 273.5t-275.5 179.5t-344 65.5q-181 0 -340.5 -65.5t-274 -179.5t-181 -273.5t-66.5 -341.5q0 -238 113 -433t310.5 -306t438.5 -111zM1028 328q36 102 75.5 204.5t95 240.5t75.5 188h65l-284 -693h-60l-284 693h65q158 -374 252 -633z" />
    <glyph glyph-name="W.ss08" 
d="M1020 1546q200 0 375.5 -71.5t301 -195.5t197.5 -298.5t72 -372.5q0 -259 -123 -470.5t-339.5 -332t-483.5 -120.5q-197 0 -371.5 71t-298.5 193.5t-196 293.5t-72 365q0 198 72 372.5t196 298.5t298 195.5t372 71.5zM1020 -240q183 0 344 65t275.5 177t180.5 270t66 338
q0 182 -66 341.5t-180.5 273.5t-275.5 179.5t-344 65.5q-181 0 -340.5 -65.5t-274 -179.5t-181 -273.5t-66.5 -341.5q0 -238 113 -433t310.5 -306t438.5 -111zM1247 338q123 407 199 623h61l-229 -693h-64q-79 230 -190 617q-97 -355 -190 -617h-64l-229 693h63
q104 -298 201 -621q74 265 188 621h64q106 -333 190 -623z" />
    <glyph glyph-name="X.ss08" 
d="M1020 -315q-197 0 -371.5 71t-298.5 193.5t-196 293.5t-72 365q0 198 72 372.5t196 298.5t298 195.5t372 71.5q200 0 375.5 -71.5t301 -195.5t197.5 -298.5t72 -372.5q0 -259 -123 -470.5t-339.5 -332t-483.5 -120.5zM1020 -240q183 0 344 65t275.5 177t180.5 270t66 338
q0 182 -66 341.5t-180.5 273.5t-275.5 179.5t-344 65.5q-181 0 -340.5 -65.5t-274 -179.5t-181 -273.5t-66.5 -341.5q0 -238 113 -433t310.5 -306t438.5 -111zM815 268h-72q205 298 248 355v4q-148 201 -241 334h71q93 -128 203 -299q104 167 203 299h69
q-134 -192 -241 -334v-4q40 -52 79 -108t94 -137t75 -110h-70q-102 148 -209 320q-54 -90 -209 -320z" />
    <glyph glyph-name="Y.ss08" 
d="M1020 -315q-197 0 -371.5 71t-298.5 193.5t-196 293.5t-72 365q0 198 72 372.5t196 298.5t298 195.5t372 71.5q200 0 375.5 -71.5t301 -195.5t197.5 -298.5t72 -372.5q0 -259 -123 -470.5t-339.5 -332t-483.5 -120.5zM1020 -240q183 0 344 65t275.5 177t180.5 270t66 338
q0 182 -66 341.5t-180.5 273.5t-275.5 179.5t-344 65.5q-181 0 -340.5 -65.5t-274 -179.5t-181 -273.5t-66.5 -341.5q0 -238 113 -433t310.5 -306t438.5 -111zM1055 268h-64q0 172 4 258q-90 145 -266 435h72q139 -233 223 -392q56 110 225 392h68q-176 -290 -266 -435
q4 -86 4 -258z" />
    <glyph glyph-name="Z.ss08" 
d="M1020 -315q-197 0 -371.5 71t-298.5 193.5t-196 293.5t-72 365q0 198 72 372.5t196 298.5t298 195.5t372 71.5q200 0 375.5 -71.5t301 -195.5t197.5 -298.5t72 -372.5q0 -259 -123 -470.5t-339.5 -332t-483.5 -120.5zM1020 -240q183 0 344 65t275.5 177t180.5 270t66 338
q0 182 -66 341.5t-180.5 273.5t-275.5 179.5t-344 65.5q-181 0 -340.5 -65.5t-274 -179.5t-181 -273.5t-66.5 -341.5q0 -238 113 -433t310.5 -306t438.5 -111zM1305 268h-533v49q114 154 455 598q-228 -12 -436 -12v58h505v-48q-67 -90 -141.5 -187.5t-169 -219
t-145.5 -187.5q180 9 465 9v-60z" />
    <glyph glyph-name="i.loclTRK" horiz-adv-x="487" 
d="M246 1440q-43 0 -72 29.5t-29 72.5q0 40 29 68t72 28q41 0 69.5 -28t28.5 -68q0 -43 -28.5 -72.5t-69.5 -29.5zM295 0h-102v1126h102v-1126z" />
    <glyph glyph-name="a.ss01" horiz-adv-x="1378" 
d="M627 -35q-226 0 -376.5 168.5t-150.5 427.5q0 263 152.5 430.5t378.5 167.5q145 0 263 -78t185 -239h21q-17 124 -17 284h103v-1126h-103q0 13 -0.5 48t0 55.5t1.5 53t5 65.5t11 69h-23q-65 -164 -183.5 -245t-266.5 -81zM639 57q124 0 224.5 68t157 184.5t56.5 257.5
q0 216 -127 359t-313 143q-184 0 -305 -144.5t-121 -363.5t122 -361.5t306 -142.5z" />
    <glyph glyph-name="aacute.ss01" horiz-adv-x="1378" 
d="M1040 1673l-311 -395h-90l252 395h149zM627 -35q-226 0 -376.5 168.5t-150.5 427.5q0 263 152.5 430.5t378.5 167.5q145 0 263 -78t185 -239h21q-17 124 -17 284h103v-1126h-103q0 13 -0.5 48t0 55.5t1.5 53t5 65.5t11 69h-23q-65 -164 -183.5 -245t-266.5 -81zM639 57
q124 0 224.5 68t157 184.5t56.5 257.5q0 216 -127 359t-313 143q-184 0 -305 -144.5t-121 -363.5t122 -361.5t306 -142.5z" />
    <glyph glyph-name="abreve.ss01" horiz-adv-x="1378" 
d="M690 1278q-169 0 -267 111t-104 284h97q6 -141 81.5 -223t192.5 -82t194 82.5t83 222.5h96q-6 -172 -105 -283.5t-268 -111.5zM627 -35q-226 0 -376.5 168.5t-150.5 427.5q0 263 152.5 430.5t378.5 167.5q145 0 263 -78t185 -239h21q-17 124 -17 284h103v-1126h-103
q0 13 -0.5 48t0 55.5t1.5 53t5 65.5t11 69h-23q-65 -164 -183.5 -245t-266.5 -81zM639 57q124 0 224.5 68t157 184.5t56.5 257.5q0 216 -127 359t-313 143q-184 0 -305 -144.5t-121 -363.5t122 -361.5t306 -142.5z" />
    <glyph glyph-name="acircumflex.ss01" horiz-adv-x="1378" 
d="M414 1278h-97l297 354h152l297 -354h-98q-59 59 -91.5 92.5t-79 89.5t-79.5 107h-49q-80 -124 -252 -289zM627 -35q-226 0 -376.5 168.5t-150.5 427.5q0 263 152.5 430.5t378.5 167.5q145 0 263 -78t185 -239h21q-17 124 -17 284h103v-1126h-103q0 13 -0.5 48t0 55.5
t1.5 53t5 65.5t11 69h-23q-65 -164 -183.5 -245t-266.5 -81zM639 57q124 0 224.5 68t157 184.5t56.5 257.5q0 216 -127 359t-313 143q-184 0 -305 -144.5t-121 -363.5t122 -361.5t306 -142.5z" />
    <glyph glyph-name="adieresis.ss01" horiz-adv-x="1378" 
d="M520 1386q-39 0 -65.5 28.5t-26.5 68.5q0 36 26.5 63t65.5 27t65.5 -27t26.5 -63q0 -40 -26.5 -68.5t-65.5 -28.5zM860 1386q-40 0 -66 28t-26 69q0 36 26 63t66 27q38 0 65 -27t27 -63q0 -40 -27 -68.5t-65 -28.5zM627 -35q-226 0 -376.5 168.5t-150.5 427.5
q0 263 152.5 430.5t378.5 167.5q145 0 263 -78t185 -239h21q-17 124 -17 284h103v-1126h-103q0 13 -0.5 48t0 55.5t1.5 53t5 65.5t11 69h-23q-65 -164 -183.5 -245t-266.5 -81zM639 57q124 0 224.5 68t157 184.5t56.5 257.5q0 216 -127 359t-313 143q-184 0 -305 -144.5
t-121 -363.5t122 -361.5t306 -142.5z" />
    <glyph glyph-name="agrave.ss01" horiz-adv-x="1378" 
d="M739 1278h-90l-311 395h151zM627 -35q-226 0 -376.5 168.5t-150.5 427.5q0 263 152.5 430.5t378.5 167.5q145 0 263 -78t185 -239h21q-17 124 -17 284h103v-1126h-103q0 13 -0.5 48t0 55.5t1.5 53t5 65.5t11 69h-23q-65 -164 -183.5 -245t-266.5 -81zM639 57
q124 0 224.5 68t157 184.5t56.5 257.5q0 216 -127 359t-313 143q-184 0 -305 -144.5t-121 -363.5t122 -361.5t306 -142.5z" />
    <glyph glyph-name="amacron.ss01" horiz-adv-x="1378" 
d="M1034 1434h-688v92h688v-92zM627 -35q-226 0 -376.5 168.5t-150.5 427.5q0 263 152.5 430.5t378.5 167.5q145 0 263 -78t185 -239h21q-17 124 -17 284h103v-1126h-103q0 13 -0.5 48t0 55.5t1.5 53t5 65.5t11 69h-23q-65 -164 -183.5 -245t-266.5 -81zM639 57
q124 0 224.5 68t157 184.5t56.5 257.5q0 216 -127 359t-313 143q-184 0 -305 -144.5t-121 -363.5t122 -361.5t306 -142.5z" />
    <glyph glyph-name="aogonek.ss01" horiz-adv-x="1378" 
d="M1192 -385q38 0 88 14v-78q-55 -14 -98 -14q-110 0 -185 62.5t-75 164.5q0 75 42 131.5t119 104.5q0 13 -0.5 48t0 55.5t1.5 53t5 65.5t11 69h-23q-65 -164 -183.5 -245t-266.5 -81q-226 0 -376.5 168.5t-150.5 427.5q0 263 152.5 430.5t378.5 167.5q145 0 263 -78
t185 -239h21q-17 124 -17 284h103v-1126h-4q-87 -48 -130.5 -101t-43.5 -120q0 -74 53 -119t131 -45zM639 57q124 0 224.5 68t157 184.5t56.5 257.5q0 216 -127 359t-313 143q-184 0 -305 -144.5t-121 -363.5t122 -361.5t306 -142.5z" />
    <glyph glyph-name="aring.ss01" horiz-adv-x="1378" 
d="M690 1245q-94 0 -156.5 61t-62.5 154q0 91 62.5 151t156.5 60t155.5 -60t61.5 -151q0 -94 -61.5 -154.5t-155.5 -60.5zM690 1325q60 0 99.5 36t39.5 99q0 59 -39.5 94t-99.5 35q-61 0 -100 -35t-39 -94q0 -63 38.5 -99t100.5 -36zM627 -35q-226 0 -376.5 168.5
t-150.5 427.5q0 263 152.5 430.5t378.5 167.5q145 0 263 -78t185 -239h21q-17 124 -17 284h103v-1126h-103q0 13 -0.5 48t0 55.5t1.5 53t5 65.5t11 69h-23q-65 -164 -183.5 -245t-266.5 -81zM639 57q124 0 224.5 68t157 184.5t56.5 257.5q0 216 -127 359t-313 143
q-184 0 -305 -144.5t-121 -363.5t122 -361.5t306 -142.5z" />
    <glyph glyph-name="atilde.ss01" horiz-adv-x="1378" 
d="M844 1341q-39 0 -72.5 13.5t-48.5 25.5t-47 41l-37 31q-2 2 -9 8t-9.5 8t-9 7.5t-9.5 7.5t-9.5 6.5t-10.5 6t-10 4.5t-11 4t-11.5 2t-12.5 1q-51 0 -83 -43t-32 -108h-80q1 103 57 167t142 64q43 0 76 -17.5t71 -51.5l43 -37q64 -60 117 -60q51 0 79.5 42.5t28.5 109.5
h80q0 -105 -50.5 -168.5t-141.5 -63.5zM627 -35q-226 0 -376.5 168.5t-150.5 427.5q0 263 152.5 430.5t378.5 167.5q145 0 263 -78t185 -239h21q-17 124 -17 284h103v-1126h-103q0 13 -0.5 48t0 55.5t1.5 53t5 65.5t11 69h-23q-65 -164 -183.5 -245t-266.5 -81zM639 57
q124 0 224.5 68t157 184.5t56.5 257.5q0 216 -127 359t-313 143q-184 0 -305 -144.5t-121 -363.5t122 -361.5t306 -142.5z" />
    <glyph glyph-name="b.ss01" horiz-adv-x="1157" 
d="M657 -35q-260 0 -364 228h-21q4 -17 7 -32.5t5 -31.5t3 -27t1.5 -28t0.5 -24.5v-25.5v-24h-96v1638h102v-163.5v-178t-1 -160t-3 -181.5t-5.5 -165t-9.5 -182h23q52 103 145 154t211 51q193 0 312.5 -122t119.5 -304q0 -180 -120 -301t-310 -121zM653 51
q139 0 235.5 96.5t96.5 241.5q0 137 -89 235.5t-243 98.5q-157 0 -248.5 -97t-91.5 -229q0 -142 98 -244t242 -102z" />
    <glyph glyph-name="d.ss01" horiz-adv-x="1370" 
d="M627 -35q-226 0 -376.5 168.5t-150.5 427.5q0 263 152.5 430.5t378.5 167.5q143 0 259 -77t183 -240h21q-17 311 -17 796h103v-1638h-99q0 158 17 289h-21q-65 -163 -183.5 -243.5t-266.5 -80.5zM637 57q184 0 312 142.5t128 363.5t-128 363.5t-312 142.5t-305 -144.5
t-121 -363.5t122 -361.5t304 -142.5z" />
    <glyph glyph-name="dcaron.ss01" horiz-adv-x="1370" 
d="M627 -35q-226 0 -376.5 168.5t-150.5 427.5q0 263 152.5 430.5t378.5 167.5q143 0 259 -77t183 -240h21q-17 311 -17 796h103v-1638h-99q0 158 17 289h-21q-65 -163 -183.5 -243.5t-266.5 -80.5zM1440 1200h-72q73 154 150 246q-97 16 -97 92q0 40 29 68t70 28
q40 0 67 -28t27 -68q0 -35 -30.5 -93.5t-143.5 -244.5zM637 57q184 0 312 142.5t128 363.5t-128 363.5t-312 142.5t-305 -144.5t-121 -363.5t122 -361.5t304 -142.5z" />
    <glyph glyph-name="dcroat.ss01" horiz-adv-x="1370" 
d="M1180 1434h266v-91h-266v-1343h-99q0 158 17 289h-21q-65 -163 -183.5 -243.5t-266.5 -80.5q-226 0 -376.5 168.5t-150.5 427.5q0 263 152.5 430.5t378.5 167.5q143 0 259 -77t183 -240h21q-14 248 -17 501h-293v91h293v204h103v-204zM637 57q184 0 312 142.5t128 363.5
t-128 363.5t-312 142.5t-305 -144.5t-121 -363.5t122 -361.5t304 -142.5z" />
    <glyph glyph-name="g.ss01" horiz-adv-x="1370" 
d="M1178 -451h-1012v93q590 0 930 -21q-40 467 -4 670h-21q-68 -142 -185 -216.5t-261 -74.5q-147 0 -268 76t-190 210t-69 298q0 250 152.5 412.5t376.5 162.5q146 0 262.5 -77.5t181.5 -239.5h21q-13 129 -13 284h99v-1577zM635 92q182 0 311 141.5t129 352.5
q0 210 -128.5 346.5t-311.5 136.5t-304.5 -140t-121.5 -345q0 -136 55.5 -249t153.5 -178t217 -65z" />
    <glyph glyph-name="gbreve.ss01" horiz-adv-x="1370" 
d="M686 1278q-169 0 -267 111t-104 284h97q6 -141 81.5 -223t192.5 -82t194 82.5t83 222.5h96q-6 -172 -105 -283.5t-268 -111.5zM1178 -451h-1012v93q590 0 930 -21q-40 467 -4 670h-21q-68 -142 -185 -216.5t-261 -74.5q-147 0 -268 76t-190 210t-69 298
q0 250 152.5 412.5t376.5 162.5q146 0 262.5 -77.5t181.5 -239.5h21q-13 129 -13 284h99v-1577zM635 92q182 0 311 141.5t129 352.5q0 210 -128.5 346.5t-311.5 136.5t-304.5 -140t-121.5 -345q0 -136 55.5 -249t153.5 -178t217 -65z" />
    <glyph glyph-name="uni0123.ss01" horiz-adv-x="1370" 
d="M563 1343q0 35 29.5 91t144.5 245h72q-73 -154 -139 -264q43 6 64.5 -18t21.5 -60q0 -41 -27.5 -65.5t-64.5 -24.5q-43 0 -72 28t-29 68zM1178 -451h-1012v93q590 0 930 -21q-40 467 -4 670h-21q-68 -142 -185 -216.5t-261 -74.5q-147 0 -268 76t-190 210t-69 298
q0 250 152.5 412.5t376.5 162.5q146 0 262.5 -77.5t181.5 -239.5h21q-13 129 -13 284h99v-1577zM635 92q182 0 311 141.5t129 352.5q0 210 -128.5 346.5t-311.5 136.5t-304.5 -140t-121.5 -345q0 -136 55.5 -249t153.5 -178t217 -65z" />
    <glyph glyph-name="gdotaccent.ss01" horiz-adv-x="1370" 
d="M688 1440q-43 0 -71.5 29.5t-28.5 72.5q0 40 29 68t71 28q41 0 69.5 -28t28.5 -68q0 -43 -28.5 -72.5t-69.5 -29.5zM1178 -451h-1012v93q590 0 930 -21q-40 467 -4 670h-21q-68 -142 -185 -216.5t-261 -74.5q-147 0 -268 76t-190 210t-69 298q0 250 152.5 412.5
t376.5 162.5q146 0 262.5 -77.5t181.5 -239.5h21q-13 129 -13 284h99v-1577zM635 92q182 0 311 141.5t129 352.5q0 210 -128.5 346.5t-311.5 136.5t-304.5 -140t-121.5 -345q0 -136 55.5 -249t153.5 -178t217 -65z" />
    <glyph glyph-name="i.ss01" horiz-adv-x="681" 
d="M356 1440q-43 0 -71.5 29.5t-28.5 72.5q0 40 29 68t71 28q41 0 69 -28t28 -68q0 -43 -28 -72.5t-69 -29.5zM657 0h-352q0 690 23 1055q-123 -21 -308 -21v92h388q0 -671 -21 -1054q104 20 270 20v-92z" />
    <glyph glyph-name="dotlessi.ss01" horiz-adv-x="681" 
d="M657 0h-352q0 230 1 357.5t8.5 330t21.5 377.5q-125 -31 -316 -31v92h388q0 -230 -1 -357.5t-8.5 -330t-21.5 -377.5q115 31 280 31v-92z" />
    <glyph glyph-name="iacute.ss01" horiz-adv-x="681" 
d="M647 1673l-311 -395h-90l252 395h149zM657 0h-352q0 230 1 357.5t8.5 330t21.5 377.5q-125 -31 -316 -31v92h388q0 -230 -1 -357.5t-8.5 -330t-21.5 -377.5q115 31 280 31v-92z" />
    <glyph glyph-name="icircumflex.ss01" horiz-adv-x="681" 
d="M20 1278h-96l297 354h152l297 -354h-99q-57 57 -90.5 92t-79.5 90.5t-79 106.5h-50q-80 -124 -252 -289zM657 0h-352q0 230 1 357.5t8.5 330t21.5 377.5q-125 -31 -316 -31v92h388q0 -230 -1 -357.5t-8.5 -330t-21.5 -377.5q115 31 280 31v-92z" />
    <glyph glyph-name="idieresis.ss01" horiz-adv-x="681" 
d="M127 1386q-39 0 -65.5 28.5t-26.5 68.5q0 36 26.5 63t65.5 27t65.5 -27t26.5 -63q0 -40 -26.5 -68.5t-65.5 -28.5zM467 1386q-40 0 -66 28t-26 69q0 36 26 63t66 27q38 0 65 -27t27 -63q0 -40 -27 -68.5t-65 -28.5zM657 0h-352q0 230 1 357.5t8.5 330t21.5 377.5
q-125 -31 -316 -31v92h388q0 -230 -1 -357.5t-8.5 -330t-21.5 -377.5q115 31 280 31v-92z" />
    <glyph glyph-name="i.loclTRK.ss01" horiz-adv-x="681" 
d="M338 1440q-43 0 -71.5 29.5t-28.5 72.5q0 40 29 69t71 29q41 0 69.5 -29t28.5 -69q0 -43 -28.5 -72.5t-69.5 -29.5zM657 0h-352q0 230 1 357.5t8.5 330t21.5 377.5q-125 -31 -316 -31v92h388q0 -230 -1 -357.5t-8.5 -330t-21.5 -377.5q115 31 280 31v-92z" />
    <glyph glyph-name="igrave.ss01" horiz-adv-x="681" 
d="M346 1278h-90l-311 395h151zM657 0h-352q0 230 1 357.5t8.5 330t21.5 377.5q-125 -31 -316 -31v92h388q0 -230 -1 -357.5t-8.5 -330t-21.5 -377.5q115 31 280 31v-92z" />
    <glyph glyph-name="imacron.ss01" horiz-adv-x="681" 
d="M641 1434h-688v92h688v-92zM657 0h-352q0 230 1 357.5t8.5 330t21.5 377.5q-125 -31 -316 -31v92h388q0 -230 -1 -357.5t-8.5 -330t-21.5 -377.5q115 31 280 31v-92z" />
    <glyph glyph-name="iogonek.ss01" horiz-adv-x="681" 
d="M299 1440q-43 0 -71.5 29.5t-28.5 72.5q0 40 29 68t71 28q41 0 69.5 -28t28.5 -68q0 -43 -28.5 -72.5t-69.5 -29.5zM657 0h-254q-87 -48 -130.5 -101t-43.5 -120q0 -74 53.5 -119t131.5 -45q38 0 88 14v-78q-55 -14 -99 -14q-110 0 -185 62.5t-75 164.5q0 75 42.5 131
t119.5 105q0 230 1 357.5t8.5 330t21.5 377.5q-125 -31 -316 -31v92h388q0 -230 -1 -357.5t-8.5 -330t-21.5 -377.5q115 31 280 31v-92z" />
    <glyph glyph-name="j.ss01" horiz-adv-x="602" 
d="M358 1440q-43 0 -71.5 29.5t-28.5 72.5q0 40 29 68t71 28q41 0 69 -28t28 -68q0 -43 -28 -72.5t-69 -29.5zM410 -451h-521v93q271 0 439 -21q-30 717 0 1434q-123 -21 -308 -21v92h390v-1577z" />
    <glyph glyph-name="l.ss01" horiz-adv-x="743" 
d="M737 0h-536v1638h102q0 -344 -1 -534t-9 -489t-23 -554q176 31 467 31v-92z" />
    </font>
</defs>
</svg>
