<svg xmlns="http://www.w3.org/2000/svg">
<defs>
<font id="CaviarDreams-Italic" horiz-adv-x="430" >
  <font-face 
    font-family="Caviar Dreams"
    font-weight="400"
    font-style="italic"
    font-stretch="normal"
    units-per-em="2048"
    panose-1="2 11 4 2 2 2 4 9 5 4"
    ascent="1638"
    descent="-410"
    x-height="968"
    cap-height="1600"
    bbox="-126 -375 2452 1948"
    underline-thickness="150"
    underline-position="-442"
    slope="-10"
    unicode-range="U+0020-FB04"
  />
<missing-glyph horiz-adv-x="1835" 
d="M942 291q0 22 -4 22h-21v-32h19v10h6zM1481 819q0 23 -6 23h-21v-31h19v8h8zM1104 1268q8 0 14 10q10 14 10 39q-2 22 -10 37q-8 10 -16 10q-10 0 -17 -10q-10 -13 -10 -37q2 -25 10 -37q9 -12 19 -12zM1456 930q12 0 19 10q8 12 8 39q0 22 -10 37q-7 10 -17 10t-16 -10
q-8 -15 -8 -37q0 -25 10 -39q6 -10 14 -10zM377 557q12 0 18 10q8 15 8 39q0 25 -10 37q-6 10 -16 10q-12 0 -19 -10q-8 -10 -8 -37q0 -24 10 -37q7 -12 17 -12zM754 229q10 15 10 39q0 25 -8 37q-8 10 -19 10q-10 0 -18 -10q-8 -12 -8 -37q0 -26 8 -39q6 -10 16 -10t19 10z
M401 811q0 20 -6 20h-20v-30h18v10h8zM958 291v-41h-22v10h-19v-35q0 -8 15 -8v-16h-64v16q13 0 13 4v92q0 4 -13 4v17h101v-43h-11zM1294 315h-8v19h49v-19q-10 0 -12 -6l-29 -51v-37q0 -4 13 -4v-16h-60v16q13 0 13 4v37l-29 51q-4 6 -12 6v19h57v-19h-8l12 -26zM580 1366
h-7v18h45v-18q-8 0 -12 -6l-24 -53v-37q0 -4 12 -4v-17h-64v17q15 0 15 4v37l-31 53q-2 6 -8 6v18h53v-18h-8l16 -29zM395 1196h-8v18h47v-18q-8 0 -10 -6l-29 -51v-37q0 -4 13 -4v-19h-62v19q12 0 12 4v37l-26 51q-4 6 -13 6v18h56v-18h-8l14 -29zM1497 819v-39h-24v8h-19
v-32q0 -8 14 -8v-19h-61v19q12 0 12 4v90q0 4 -12 4v18h100v-45h-10zM1475 485h-9v19h50v-19q-11 0 -13 -6l-28 -51v-37q0 -4 12 -4v-16h-60v16q13 0 13 4v37l-29 51q-4 6 -12 6v19h55v-19h-6l12 -26zM350 1319v-47q0 -4 19 -4v-19h-56v19q11 0 11 4v82q0 12 -11 12v18h29

<glyph glyph-name=".notdef" horiz-adv-x="1835" 
d="M942 291q0 22 -4 22h-21v-32h19v10h6zM1481 819q0 23 -6 23h-21v-31h19v8h8zM1104 1268q8 0 14 10q10 14 10 39q-2 22 -10 37q-8 10 -16 10q-10 0 -17 -10q-10 -13 -10 -37q2 -25 10 -37q9 -12 19 -12zM1456 930q12 0 19 10q8 12 8 39q0 22 -10 37q-7 10 -17 10t-16 -10
q-8 -15 -8 -37q0 -25 10 -39q6 -10 14 -10zM377 557q12 0 18 10q8 15 8 39q0 25 -10 37q-6 10 -16 10q-12 0 -19 -10q-8 -10 -8 -37q0 -24 10 -37q7 -12 17 -12zM754 229q10 15 10 39q0 25 -8 37q-8 10 -19 10q-10 0 -18 -10q-8 -12 -8 -37q0 -26 8 -39q6 -10 16 -10t19 10z
M401 811q0 20 -6 20h-20v-30h18v10h8zM958 291v-41h-22v10h-19v-35q0 -8 15 -8v-16h-64v16q13 0 13 4v92q0 4 -13 4v17h101v-43h-11zM1294 315h-8v19h49v-19q-10 0 -12 -6l-29 -51v-37q0 -4 13 -4v-16h-60v16q13 0 13 4v37l-29 51q-4 6 -12 6v19h57v-19h-8l12 -26zM580 1366
h-7v18h45v-18q-8 0 -12 -6l-24 -53v-37q0 -4 12 -4v-17h-64v17q15 0 15 4v37l-31 53q-2 6 -8 6v18h53v-18h-8l16 -29zM395 1196h-8v18h47v-18q-8 0 -10 -6l-29 -51v-37q0 -4 13 -4v-19h-62v19q12 0 12 4v37l-26 51q-4 6 -13 6v18h56v-18h-8l14 -29zM1497 819v-39h-24v8h-19
v-32q0 -8 14 -8v-19h-61v19q12 0 12 4v90q0 4 -12 4v18h100v-45h-10zM1475 485h-9v19h50v-19q-11 0 -13 -6l-28 -51v-37q0 -4 12 -4v-16h-60v16q13 0 13 4v37l-29 51q-4 6 -12 6v19h55v-19h-6l12 -26zM350 1319v-47q0 -4 19 -4v-19h-56v19q11 0 11 4v82q0 12 -11 12v18h29
l59 -69v47q0 4 -16 4v18h55v-18q-10 0 -10 -4v-113h-18zM696 1384l43 -86l35 86h41v-18q-10 0 -10 -12v-82q0 -4 10 -4v-19h-53v19q6 0 6 2v30l-20 -51h-25l-27 54v-31q0 -4 9 -4v-19h-46v19q9 0 9 4v82q0 12 -9 12v18h37zM1167 1317q0 -29 -16 -49q-16 -21 -47 -21
q-35 0 -51 21q-17 20 -17 49t17 47q16 20 49 20t49 -20q16 -18 16 -47zM1251 1319v-47q0 -4 19 -4v-19h-58v19q9 0 9 4v82q0 12 -9 12v18h31l57 -69v47q0 4 -16 4v18h55v-18q-8 0 -8 -4v-113h-22zM1511 1384v-45h-26q0 23 -6 23h-4v-90q0 -4 12 -4v-19h-60v19q13 0 13 4v90
h-4q-7 0 -7 -23h-26v45h108zM917 1309v-33q0 -8 15 -8v-19h-64v19q13 0 13 4v90q0 4 -13 4v18h101v-45h-27q0 23 -4 23h-21v-33h19v8h22v-37h-22v9h-19zM1432 268v-47q0 -4 18 -4v-16h-57v16q10 0 10 4v82q0 12 -10 12v19h30l58 -70v47q0 4 -17 4v19h58v-19q-11 0 -11 -4
v-110h-20zM1417 684l41 -86l37 86h41v-18q-8 0 -8 -13v-82q0 -4 8 -4v-16h-55v16q10 0 10 2v29l-25 -47h-22l-27 51v-31q0 -4 8 -4v-16h-47v16q8 0 8 4v82q0 13 -8 13v18h39zM1522 977q0 -29 -15 -47q-16 -21 -51 -21q-33 0 -47 19q-16 20 -16 49q0 31 14 49q16 21 47 21
q37 0 53 -21q15 -18 15 -49zM1432 1157v-45q0 -4 18 -4v-18h-57v18q10 0 10 4v82q0 12 -10 12v19h30l58 -72v49q0 4 -17 4v19h58v-19q-11 0 -11 -4v-112h-20zM430 336v-43h-25q0 20 -6 20h-4v-90q0 -4 13 -4v-16h-62v16q12 0 12 4v90h-4q-6 0 -6 -20h-24v43h106zM338 1034
l41 -84l37 84h39v-16q-9 0 -9 -14v-82q0 -4 9 -4v-19h-54v19q11 0 11 4v28l-25 -51h-25l-24 53v-30q0 -4 6 -4v-19h-45v19q8 0 8 4v82q0 14 -8 14v16h39zM440 606q0 -31 -12 -49q-16 -18 -51 -18t-47 18q-17 18 -17 49t15 47q14 21 47 21q37 0 53 -21q12 -16 12 -47z
M350 428v-45q0 -4 19 -4v-19h-56v19q11 0 11 4v82q0 10 -11 10v19h29l59 -70v47q0 4 -16 4v19h55v-19q-10 0 -10 -4v-111h-18zM1061 334l43 -84l37 84h39v-17q-9 0 -9 -14v-82q0 -4 9 -4v-16h-54v16q9 0 9 4v29l-23 -49h-22l-27 51v-31q0 -4 8 -4v-16h-47v16q8 0 8 4v82
q0 14 -8 14v17h37zM686 315q16 21 51 21q31 0 49 -21q15 -16 15 -49q0 -28 -17 -49q-16 -16 -49 -16t-49 18q-14 19 -14 47q0 33 14 49zM537 268v-47q0 -4 18 -4v-16h-55v16q8 0 8 4v82q0 14 -8 14v17h28l60 -70v49q0 4 -19 4v17h56v-17q-11 0 -11 -4v-112h-18zM418 811v-41
h-25v8h-18v-33q0 -8 14 -8v-16h-61v16q12 0 12 4v90q0 5 -12 5v18h100v-43h-10z" />
    <glyph glyph-name=".null" horiz-adv-x="200" 
 />
    <glyph glyph-name="nonmarkingreturn" horiz-adv-x="708" 
 />
    <glyph glyph-name="space" unicode=" " horiz-adv-x="708" 
 />
    <glyph glyph-name="space" unicode="&#xa0;" horiz-adv-x="708" 
 />
    <glyph glyph-name="exclam" unicode="!" 
d="M303 139q22 -26 16 -63q-7 -38 -38 -64t-68 -26t-59 26t-15 64q6 37 37 63t68 26t59 -26zM540 1600l-233 -1324h-90l233 1324h90z" />
    <glyph glyph-name="quotedbl" unicode="&#x22;" horiz-adv-x="575" 
d="M301 997l106 600h90l-106 -600h-90zM536 997l106 600h90l-106 -600h-90z" />
    <glyph glyph-name="numbersign" unicode="#" horiz-adv-x="1653" 
d="M936 985h230l190 445h90l-190 -445h445l-39 -90h-445l-97 -230h445l-39 -90h-445l-189 -445h-90l189 445h-230l-189 -445h-90l189 445h-445l39 90h445l97 230h-445l39 90h445l190 445h90zM1127 895h-230l-97 -230h230z" />
    <glyph glyph-name="dollar" unicode="$" horiz-adv-x="1011" 
d="M707 856l-117 -667q102 15 192 91q110 94 134 228q23 133 -54 227q-61 74 -155 121zM716 1413q-64 -10 -118 -57q-72 -60 -87 -146t34 -146q35 -42 95 -79zM624 891q-97 45 -151 112q-71 85 -49 207q21 119 122 205q85 73 185 84l29 163h90l-30 -165q86 -15 141 -81
q39 -46 48 -108l-83 -31q-9 46 -37 80q-34 40 -84 53l-82 -464q128 -53 210 -151q98 -119 68 -287q-30 -170 -170 -289q-119 -101 -257 -117l-24 -140h-90l24 139q-142 11 -230 118q-78 96 -75 226l87 30q-8 -115 60 -196q66 -81 173 -92z" />
    <glyph glyph-name="percent" unicode="%" horiz-adv-x="1221" 
d="M1339 1314l-1149 -1311l-65 51l1149 1311zM677.5 1147.5q55.5 -67.5 38.5 -163.5t-96.5 -163.5t-175.5 -67.5t-151.5 67.5t-38.5 163.5t96.5 163.5t175.5 67.5t151.5 -67.5zM510 1128q-60 0 -109 -42t-60 -102t24 -102t95 -42q59 0 108.5 42t60.5 102t-24.5 102t-94.5 42
zM1171.5 547.5q55.5 -67.5 38.5 -163.5t-96.5 -163.5t-175.5 -67.5t-151.5 67.5t-38.5 163.5t96.5 163.5t175.5 67.5t151.5 -67.5zM1005 528q-60 0 -109.5 -42t-60.5 -102q-10 -60 24.5 -102t94.5 -42q59 0 109 42t60 102q11 60 -24 102t-94 42z" />
    <glyph glyph-name="ampersand" unicode="&#x26;" horiz-adv-x="1304" 
d="M974 331q-12 5 -23 12q-43 27 -102 102q-40 44 -59 55q-19 12 -41 12q-13 0 -26 -3q-38 -10 -61 -42q-17 -22 -21 -44q-2 -12 0 -25q3 -36 29 -52q18 -10 51 -10q18 0 41 3l-23 -82q-27 -7 -52 -7q-40 0 -74 21q-54 33 -61 104q-2 25 2 48q8 44 39 86q48 64 122 83
q26 7 50 7q44 0 81 -24q36 -22 88 -89q49 -53 73 -68q27 -17 59 -17q18 0 37 5q54 14 90 61q22 31 28 63q3 17 1 35q-5 51 -46 78q-25 16 -60 16q-25 0 -56 -8l15 89q29 8 57 8q53 0 99 -29q70 -44 79 -131q3 -30 -2 -58q-10 -55 -48 -105q-57 -78 -150 -102q-27 -7 -51 -8
q-52 -108 -153 -194q-164 -140 -360 -140t-310.5 139t-79.5 336q34 196 197 342q112 101 271 151q-67 31 -128 111.5t-37 221.5q25 138 141.5 237.5t257.5 99.5q140 0 222 -99q46 -53 55 -119l-86 -32q-10 49 -43 90q-61 72 -164 72t-188.5 -72.5t-104.5 -176.5
q-18 -103 39.5 -178t113.5 -98t145 -24l-14 -84l-73 -2q-226 -41 -357 -161t-159 -279q-28 -160 65 -273t253 -113q159 0 292 113q77 66 120 148z" />
    <glyph glyph-name="quotesingle" unicode="'" horiz-adv-x="340" 
d="M301 997l106 600h90l-106 -600h-90z" />
    <glyph glyph-name="parenleft" unicode="(" horiz-adv-x="703" 
d="M890 1628q-146 -62 -280 -199q-221 -228 -291 -629q-71 -402 69 -630q85 -137 209 -202l-15 -85q-158 58 -260 223q-159 254 -81 694q77 439 326 694q160 165 338 223z" />
    <glyph glyph-name="parenright" unicode=")" horiz-adv-x="703" 
d="M402 1717q158 -58 260 -223q159 -255 82 -694q-78 -440 -327 -694q-160 -165 -338 -223l15 85q146 65 280 202q221 228 292 630q70 401 -70 629q-85 137 -209 199z" />
    <glyph glyph-name="asterisk" unicode="*" horiz-adv-x="800" 
d="M689 1384l196 122l39 -74l-217 -135l169 -135l-65 -74l-153 122l-37 -213h-90l38 214l-197 -123l-39 74l217 135l-169 135l65 74l153 -123l38 214h90z" />
    <glyph glyph-name="plus" unicode="+" horiz-adv-x="1050" 
d="M480 547h-355v90h355v355h90v-355h355v-90h-355v-355h-90v355z" />
    <glyph glyph-name="comma" unicode="," horiz-adv-x="379" 
d="M308 166l-253 -385h-84l171 385h166z" />
    <glyph glyph-name="hyphen" unicode="-" horiz-adv-x="840" 
d="M237 637h590l-16 -90h-590z" />
    <glyph glyph-name="hyphen" unicode="&#xad;" horiz-adv-x="840" 
d="M237 637h590l-16 -90h-590z" />
    <glyph glyph-name="period" unicode="." horiz-adv-x="380" 
d="M278 139q22 -26 16 -63q-7 -38 -38 -64t-68 -26t-59 26t-15 64q6 37 37 63t68 26t59 -26z" />
    <glyph glyph-name="slash" unicode="/" horiz-adv-x="727" 
d="M956 1600h103l-1007 -1600h-102z" />
    <glyph glyph-name="zero" unicode="0" horiz-adv-x="1250" 
d="M1264 1051q34 188 -76 320.5t-298 132.5t-344 -132.5t-190 -320.5l-93 -530q-33 -188 76.5 -320.5t297.5 -132.5t344.5 132.5t189.5 320.5zM1266 521q-40 -227 -229 -388t-417 -161q-227 0 -359.5 161t-92.5 388l93 530q41 227 230 388t416 161q228 0 360.5 -161
t91.5 -388z" />
    <glyph glyph-name="one" unicode="1" horiz-adv-x="1250" 
d="M999 1600l-282 -1600h-90l254 1442h-95l151 158h62z" />
    <glyph glyph-name="two" unicode="2" horiz-adv-x="1250" 
d="M444 433.5q187 123.5 331 219t274 214.5t158 277q28 159 -64.5 271t-251.5 112q-157 0 -289 -112q-113 -96 -151 -229l-85 33q49 150 180 262q165 141 362 141q198 0 313 -140t80 -338q-35 -197 -198 -344q-111 -101 -254.5 -196t-323.5 -214t-251 -300h841l-16 -90h-943
q101 310 288 433.5z" />
    <glyph glyph-name="three" unicode="3" horiz-adv-x="1250" 
d="M727 893l-75 2l16 90q93 1 156.5 24t146 97t100.5 176q18 103 -41 174.5t-161 71.5q-101 0 -187 -71q-47 -41 -75 -92l-80 34q34 70 99 123q118 100 259 100q143 0 225 -100.5t57 -239.5q-25 -142 -115 -223.5t-161 -108.5q135 -48 212 -150q111 -147 77 -344
q-35 -198 -199.5 -338t-362.5 -140q-197 0 -312 141q-91 112 -88 262l97 33q-9 -133 70 -229q93 -112 250 -112q159 0 291 112t160 271q28 158 -60.5 277t-298.5 160z" />
    <glyph glyph-name="four" unicode="4" horiz-adv-x="1250" 
d="M1116 1600h90l-184 -1042h153l-16 -90h-153l-83 -468h-90l83 468h-660zM1081 1406l-654 -848h505z" />
    <glyph glyph-name="five" unicode="5" horiz-adv-x="1250" 
d="M476 1103q53 16 118 30q66 11 126 11q110 0 205 -35q212 -77 285 -284q47 -129 23 -264q-15 -84 -56 -169q-109 -225 -335 -336q-138 -67 -272 -67q-85 0 -168 27q-171 55 -248 194l77 71q62 -126 215 -175q68 -22 138 -22q112 0 228 56q189 92 280 280q35 72 47 142
q20 112 -18 219q-62 172 -238 238q-76 28 -173 28q-127 0 -291 -49l-61 63l273 507l6 32h500l-16 -90h-425z" />
    <glyph glyph-name="six" unicode="6" horiz-adv-x="1250" 
d="M266 521q-33 -188 76.5 -320.5t297.5 -132.5t344.5 132.5t189.5 320.5t-76.5 321t-297.5 133t-344.5 -133t-189.5 -321zM438 940q174 131 379 131q228 0 360 -161t92 -389q-40 -227 -229 -388t-417 -161q-227 0 -359 161q-128 155 -96 371h-6q72 353 271.5 577t482.5 488
q17 16 32 31h124q-24 -25 -50 -50q-315 -294 -508 -513q-41 -46 -76 -97z" />
    <glyph glyph-name="seven" unicode="7" horiz-adv-x="1250" 
d="M1012 1046q-314 -294 -507 -513t-258 -533h-94q72 353 271.5 577t482 488t353.5 445h-841l16 90h943q-52 -260 -366 -554z" />
    <glyph glyph-name="eight" unicode="8" horiz-adv-x="1250" 
d="M637 75h2q19 -2 39 -2q159 0 291 112t160 271q28 158 -60 277q-86 116 -287 158q-217 -42 -343 -158q-130 -119 -158 -277q-28 -159 64 -271t251 -112q20 0 41 2zM621 -20q-20 -2 -41 -2q-198 0 -313 140t-80 338q35 197 198 344q113 102 265 150q-61 27 -122.5 108.5
t-36.5 223.5q24 139 141.5 239.5t260.5 100.5h36q143 0 224.5 -100.5t57.5 -239.5q-25 -142 -115.5 -223.5t-161.5 -108.5q136 -48 213 -150q111 -147 76 -344q-35 -198 -199 -338t-362 -140q-20 0 -41 2zM893 1527q-8 1 -17 1q-102 0 -186.5 -71.5t-102.5 -174.5
q-18 -102 38 -176t111 -97q28 -11 63 -17q37 6 69 17q63 23 146 97t101 176q18 103 -41.5 174.5t-161.5 71.5q-9 0 -17 -1h-2z" />
    <glyph glyph-name="nine" unicode="9" horiz-adv-x="1250" 
d="M1261 1051q33 188 -76.5 320.5t-297.5 132.5t-344.5 -132.5t-189.5 -320.5t76.5 -321t297.5 -133t344.5 133t189.5 321zM1089 632q-174 -131 -379 -131q-228 0 -360 161t-92 389q40 227 229 388t417 161q227 0 360 -161q127 -155 95 -371h6q-72 -353 -271.5 -577
t-482.5 -488q-16 -16 -32 -31h-124q24 25 51 50q315 294 507 513q41 46 76 97z" />
    <glyph glyph-name="colon" unicode=":" 
d="M303 139q22 -26 16 -63q-7 -38 -38 -64t-68 -26t-59 26t-15 64q6 37 37 63t68 26t59 -26zM412 756q22 -26 15 -63q-6 -38 -37 -64t-68 -26t-59 26t-16 64q7 37 38 63t68 26t59 -26z" />
    <glyph glyph-name="semicolon" unicode=";" horiz-adv-x="477" 
d="M381 166l-253 -385h-84l171 385h166zM411.5 756q21.5 -26 15.5 -63q-7 -38 -38 -64t-68 -26t-59 26t-15 64q6 37 37.5 63t68.5 26t58.5 -26z" />
    <glyph glyph-name="semicolon" unicode="&#x37e;" horiz-adv-x="477" 
d="M381 166l-253 -385h-84l171 385h166zM411.5 756q21.5 -26 15.5 -63q-7 -38 -38 -64t-68 -26t-59 26t-15 64q6 37 37.5 63t68.5 26t58.5 -26z" />
    <glyph glyph-name="less" unicode="&#x3c;" horiz-adv-x="1349" 
d="M1249 145l-1149 418l1149 418v-96l-886 -322l886 -322v-96z" />
    <glyph glyph-name="equal" unicode="=" horiz-adv-x="1050" 
d="M125 797h800v-90h-800v90zM125 477h800v-90h-800v90z" />
    <glyph glyph-name="greater" unicode="&#x3e;" horiz-adv-x="1349" 
d="M100 241l886 322l-886 322v96l1149 -418l-1149 -418v96z" />
    <glyph glyph-name="question" unicode="?" horiz-adv-x="956" 
d="M494 589q-54 -82 -69 -166q-11 -64 0 -129l-88 -29q-14 80 0 158q18 104 85 204q109 167 292 289q111 92 167 178q36 53 45 108q7 41 1 82q-18 98 -103 143q-49 25 -103 25q-41 0 -85 -15q-103 -34 -165 -126q-34 -52 -43 -105l-87 4l1 8q12 65 55 129q84 127 224 173
q62 20 118 20q74 0 140 -34q115 -61 138 -192q10 -57 0 -113q-13 -74 -61 -146q-83 -127 -244 -237q-136 -103 -218 -229zM414 139q22 -26 16 -63q-7 -38 -38 -64t-68 -26t-59 26t-15 64q6 37 37 63t68 26t59 -26z" />
    <glyph glyph-name="at" unicode="@" horiz-adv-x="1626" 
d="M1174 483l23 132q-4 75 -51 132q-67 83 -183 83t-212 -82.5t-117 -199.5q-20 -115 47 -197t183 -82t212 82q67 57 98 132zM1142 313q-144 -127 -295 -127q-150 0 -238 107t-62 255q27 151 152.5 258t275.5 107q151 0 250 -127l20 114h81l-114 -648q10 -43 47 -43
q44 0 141.5 110.5t118.5 227.5q44 251 -103 429.5t-398 178.5t-460 -178.5t-253 -429.5t102 -428.5t397 -177.5q172 0 260 49l46 -60q-132 -70 -320 -70q-284 0 -451 202t-117 485q50 284 288 486.5t522 202.5q285 0 450.5 -202.5t115.5 -486.5q-22 -127 -140.5 -272
t-230.5 -145q-13 0 -24 2q-83 18 -76 100z" />
    <glyph glyph-name="A" unicode="A" horiz-adv-x="1291" 
d="M1014 703l-126 671l-362 -671h488zM1031 613h-554l-331 -613h-96l885 1637l306 -1637h-95z" />
    <glyph glyph-name="B" unicode="B" horiz-adv-x="1066" 
d="M716 1600q123 0 195 -87t51 -210q-22 -124 -168 -231q108 -23 188 -132q131 -161 91 -389q-40 -227 -229 -393q-176 -154 -384 -157v-1h-310l282 1600h284zM417 1005l-161 -915h220v-1q169 11 312 137q157 137 190 325t-76.5 321t-297.5 133h-187zM506 1510l-72 -409h217
q76 7 138 56q71 56 87 146t-35 148.5t-141 58.5h-194z" />
    <glyph glyph-name="C" unicode="C" horiz-adv-x="1595" 
d="M1472 255l57 -61q-271 -213 -588 -213q-340 0 -537.5 239.5t-137.5 579.5q60 339 341.5 579t621.5 240q317 0 514 -213l-79 -62q-174 183 -451 183q-301 0 -551.5 -213t-303.5 -514q-53 -302 122.5 -515t476.5 -213q277 0 515 183z" />
    <glyph glyph-name="D" unicode="D" horiz-adv-x="1199" 
d="M506 1506l-250 -1413h7q356 0 581 192q251 213 304 515q53 301 -122 515q-157 191 -513 191h-7zM522 1598h7q395 0 573 -218q198 -241 138 -580q-60 -340 -342 -580q-256 -218 -651 -218h-7v-2h-90l282 1600h90v-2z" />
    <glyph glyph-name="E" unicode="E" horiz-adv-x="1075" 
d="M1232 1600l-16 -90h-710l-117 -665h710l-16 -90h-710l-117 -665h710l-16 -90h-800l282 1600h800z" />
    <glyph glyph-name="F" unicode="F" horiz-adv-x="975" 
d="M1132 1600l-16 -90h-610l-117 -665h610l-16 -90h-610l-133 -755h-90l282 1600h700z" />
    <glyph glyph-name="G" unicode="G" horiz-adv-x="1620" 
d="M1524 199q-266 -218 -583 -218q-340 0 -537.5 239.5t-137.5 579.5q60 339 341.5 579t621.5 240q317 0 514 -213l-79 -62q-174 183 -451 183q-301 0 -551.5 -213t-303.5 -514q-53 -302 122.5 -515t476.5 -213q258 0 483 159l86 488h90z" />
    <glyph glyph-name="H" unicode="H" horiz-adv-x="1150" 
d="M366 717l-126 -717h-90l282 1600h90l-140 -793h670l140 793h90l-282 -1600h-90l126 717h-670z" />
    <glyph glyph-name="I" unicode="I" 
d="M542 1600l-282 -1600h-90l282 1600h90z" />
    <glyph glyph-name="J" unicode="J" horiz-adv-x="857" 
d="M756 304q-27 -152 -121 -232q-100 -86 -221 -86t-191 85.5t-52 187.5l63 23q1 -108 56 -162q46 -46 114 -46q12 0 26 2q83 0 153 59q62 53 85 179l226 1286h90z" />
    <glyph glyph-name="K" unicode="K" horiz-adv-x="1097" 
d="M377 775l-137 -775h-90l282 1600h90l-120 -681l631 681h116l-593 -644l451 -956h-111l-412 884z" />
    <glyph glyph-name="L" unicode="L" horiz-adv-x="950" 
d="M150 0l282 1600h90l-266 -1510h620l-16 -90h-710z" />
    <glyph glyph-name="M" unicode="M" horiz-adv-x="1707" 
d="M535 1600l418 -1040l783 1040h103l-5 -7l-281 -1593h-90l253 1437l-794 -1054l-425 1054l-253 -1437h-90l281 1593l-3 7h103z" />
    <glyph glyph-name="N" unicode="N" horiz-adv-x="1311" 
d="M432 1600h99l571 -1423l251 1423h90l-282 -1600h-90l-578 1437l-253 -1437h-90z" />
    <glyph glyph-name="O" unicode="O" horiz-adv-x="1892" 
d="M1770 1382.5q198 -240.5 138 -580.5t-343 -580.5t-623 -240.5t-538 240.5t-138 580.5t343 580.5t623 240.5t538 -240.5zM1215 1531q-302 0 -553 -213.5t-304 -515.5t122.5 -516t477.5 -214t553.5 214t304.5 516t-123 515.5t-478 213.5z" />
    <glyph glyph-name="P" unicode="P" horiz-adv-x="1089" 
d="M338 555l-98 -555h-90l282 1600h420q179 -25 284 -153q126 -153 88 -369q-38 -217 -218 -370t-396 -153h-272zM506 1509l-152 -863h272q178 0 327 126.5t180 305.5q32 179 -72.5 305t-282.5 126h-272z" />
    <glyph glyph-name="Q" unicode="Q" horiz-adv-x="1892" 
d="M1215 1531q-302 0 -553 -213.5t-304 -515.5t122.5 -516t477.5 -214t553.5 214t304.5 516t-123 515.5t-478 213.5zM933 -19q-333 3 -528 241q-199 240 -139 580t343 580.5t623 240.5t538 -240.5t138 -580.5t-342 -580q-205 -174 -438 -222q4 -2 9 -3q69 -20 180 -98
q76 -45 108 -55q20 -6 40 -6q36 0 73 19q59 30 85 88q8 16 11 32h91q-6 -27 -19 -55q-44 -94 -137 -142q-60 -31 -118 -31q-33 0 -65 10q-57 16 -155 86q-92 54 -133 66q-28 8 -56 8q-50 0 -100 -26q-82 -42 -118 -123q-6 -12 -9 -24h-91q6 24 17 49q54 116 170 176z" />
    <glyph glyph-name="R" unicode="R" horiz-adv-x="1089" 
d="M506 1509l-152 -863h272q178 0 327 126.5t180 305.5q32 179 -72.5 305t-282.5 126h-272zM637 556q-13 -1 -27 -1h-272l-98 -555h-90l282 1600h420q179 -25 284 -153q126 -153 88 -369q-38 -217 -218 -370q-125 -106 -268 -139l269 -569h-111z" />
    <glyph glyph-name="S" unicode="S" horiz-adv-x="1042" 
d="M704 886q-161 57 -242.5 156t-56.5 240q24 138 141 237.5t258 99.5q140 0 222 -99q46 -53 55 -119l-87 -32q-9 49 -43 90q-60 72 -163 72t-189 -72.5t-104 -176.5q-18 -103 42 -176q56 -67 166 -123q181 -62 289 -193q115 -138 80 -334q-34 -197 -197.5 -336t-359.5 -139
t-311 140q-91 111 -87 258l90 31q-9 -130 71 -227q93 -113 252 -113q160 0 293 113t161 273q29 159 -65 272q-81 99 -215 158z" />
    <glyph glyph-name="T" unicode="T" horiz-adv-x="1000" 
d="M811 1510l-266 -1510h-90l266 1510h-405l16 90h900l-16 -90h-405z" />
    <glyph glyph-name="U" unicode="U" horiz-adv-x="1345" 
d="M1386 1600h91l-203 -1150q-57 -183 -208 -311q-180 -153 -396 -153q-217 0 -343 153t-88 369l193 1092h91l-193 -1092q-31 -178 73 -304.5t283 -126.5t327.5 126.5t179.5 304.5z" />
    <glyph glyph-name="V" unicode="V" horiz-adv-x="1291" 
d="M427 1600l258 -1374l742 1374h96l-885 -1637l-306 1637h95z" />
    <glyph glyph-name="W" unicode="W" horiz-adv-x="1672" 
d="M834 240l239 1360h90l-239 -1360q15 -43 43 -77q75 -87 199 -87t230 88.5t128 213.5l215 1222h90l-216 -1230q-31 -156 -163 -268q-136 -116 -300 -116q-163 0 -259 115q-17 20 -30 41q-19 -21 -44 -41q-136 -115 -299 -115q-164 0 -259 116q-93 112 -68 268l216 1230h90
l-215 -1222q-22 -125 53 -213.5t199 -88.5t229 87q40 34 71 77z" />
    <glyph glyph-name="X" unicode="X" horiz-adv-x="1218" 
d="M50 0l662 879l-289 721h103l253 -632l477 632h103l-545 -721l354 -879h-103l-318 790l-595 -790h-102z" />
    <glyph glyph-name="Y" unicode="Y" horiz-adv-x="1291" 
d="M714 647l-382 953h103l342 -853l643 853h103l-719 -953l-114 -647h-90z" />
    <glyph glyph-name="Z" unicode="Z" horiz-adv-x="1327" 
d="M1288 1510h-872l16 90h1027l-1139 -1510h873l-16 -90h-1027z" />
    <glyph glyph-name="bracketleft" unicode="[" horiz-adv-x="560" 
d="M165 -285h220l-16 -90h-310l348 1975h310l-16 -90h-220z" />
    <glyph glyph-name="backslash" unicode="\" horiz-adv-x="727" 
d="M777 0h-102l-443 1600h103z" />
    <glyph glyph-name="bracketright" unicode="]" horiz-adv-x="560" 
d="M611 1510h-220l16 90h310l-348 -1975h-310l16 90h220z" />
    <glyph glyph-name="asciicircum" unicode="^" horiz-adv-x="921" 
d="M513 1600l308 -534h-104l-256 443l-256 -443h-105l309 534h104z" />
    <glyph glyph-name="underscore" unicode="_" horiz-adv-x="1050" 
d="M20 -30h1000l-16 -90h-1000z" />
    <glyph glyph-name="grave" unicode="`" horiz-adv-x="629" 
d="M543 1287l130 -187h-84l-212 187h166z" />
    <glyph glyph-name="a" unicode="a" horiz-adv-x="1360" 
d="M1210 0h-90l35 200q-32 -35 -68 -67q-190 -161 -418 -161q-227 0 -359.5 161t-92.5 388q40 228 229.5 389t416.5 161q228 0 361 -161q25 -32 45 -67l24 139h90zM1196 432l32 178q-2 132 -84 232q-110 133 -298 133t-344.5 -133t-189.5 -321t76.5 -320.5t297.5 -132.5
t345 133q117 100 165 231z" />
    <glyph glyph-name="b" unicode="b" horiz-adv-x="1359" 
d="M432 1600h90l-133 -756q31 34 68 66q190 161 417 161q228 0 360 -161t92 -389q-40 -227 -229 -388t-417 -161q-227 0 -360 161q-26 32 -45 66l-35 -199h-90zM348 615l-33 -188q4 -128 84 -226q110 -133 298 -133t344.5 132.5t189.5 320.5t-76.5 321t-297.5 133t-345 -133
q-115 -98 -164 -227z" />
    <glyph glyph-name="c" unicode="c" horiz-adv-x="1177" 
d="M1034 236l89 -34q-33 -36 -71 -69q-190 -161 -418 -161q-227 0 -359.5 161t-92.5 389q40 227 229.5 388t416.5 161q228 0 361 -161q27 -33 47 -68l-102 -35q-11 18 -25 36q-110 132 -298 132q-187 0 -343.5 -132.5t-189.5 -320.5t76.5 -321t296.5 -133q188 0 345 133
q20 17 38 35z" />
    <glyph glyph-name="d" unicode="d" horiz-adv-x="1360" 
d="M1210 0h-90l35 200q-32 -35 -68 -67q-190 -161 -418 -161q-227 0 -359.5 161t-92.5 388q40 228 229.5 389t416.5 161q228 0 361 -161q25 -32 45 -67l133 757h90zM1196 432l32 178q-2 132 -84 232q-110 133 -298 133t-344.5 -133t-189.5 -321t76.5 -320.5t297.5 -132.5
t345 133q117 100 165 231z" />
    <glyph glyph-name="e" unicode="e" horiz-adv-x="1177" 
d="M370 184q106 -116 281 -116q188 0 345 133q20 17 38 35l89 -34q-33 -36 -71 -69q-190 -161 -418 -161q-227 0 -359.5 161t-92.5 389q40 227 229.5 388t416.5 161q195 0 320 -117q21 -20 41 -44q7 -9 13 -18l-80 -68zM1067 885q-101 90 -256 90q-187 0 -343.5 -132.5
t-189.5 -320.5q-27 -155 42 -272z" />
    <glyph glyph-name="f" unicode="f" horiz-adv-x="523" 
d="M437 892l-157 -892h-90l157 892h-100l16 90h100l47 266q26 111 119 191q95 76 202 76q56 0 114 -21l-42 -80q-38 18 -77 18q-71 0 -145 -57q-65 -55 -82 -133l-46 -260h200l-16 -90h-200z" />
    <glyph glyph-name="g" unicode="g" horiz-adv-x="1364" 
d="M1228 615q-4 129 -84 227q-110 133 -298 133t-344.5 -133t-189.5 -321t76.5 -321t297.5 -133t344 133q115 97 164 225zM1152 195q-31 -32 -65 -62q-190 -161 -418 -161q-227 0 -359.5 161t-92.5 388q40 228 229.5 388.5t416.5 160.5q228 0 361 -160q25 -32 45 -67l24 139
h90l-134 -763q-39 -221 -224 -378q-189 -161 -416 -161q-228 0 -361 161q-27 33 -47 69l101 34q12 -18 26 -35q110 -133 298 -133q187 0 343 133q142 121 183 286z" />
    <glyph glyph-name="h" unicode="h" horiz-adv-x="1059" 
d="M432 1600h90l-118 -669q134 110 294 110q174 0 263.5 -109t63.5 -275l-116 -657h-90l114 649q22 125 -52.5 213.5t-198.5 88.5t-230 -87q-47 -40 -74 -83l-138 -781h-90z" />
    <glyph glyph-name="i" unicode="i" 
d="M433 982l-173 -982h-90l173 982h90zM508.5 1304q21.5 -26 15.5 -63q-7 -38 -38 -64t-68 -26t-59 26t-15 64q6 37 37.5 63t68.5 26t58.5 -26z" />
    <glyph glyph-name="j" unicode="j" horiz-adv-x="455" 
d="M25 -138q123 14 145 136l173 984h90l-173 -982q-37 -211 -251 -228zM509 1304q22 -26 15 -63q-7 -38 -38 -64t-68 -26t-59 26t-15 64q7 37 38 63t68 26t59 -26z" />
    <glyph glyph-name="k" unicode="k" horiz-adv-x="823" 
d="M802 982l-295 -300l266 -682h-112l-225 610l-108 -109l-88 -501h-90l247 1400h90l-133 -755l332 337h116z" />
    <glyph glyph-name="l" unicode="l" horiz-adv-x="390" 
d="M522 1600l-282 -1600h-90l282 1600h90z" />
    <glyph glyph-name="m" unicode="m" horiz-adv-x="1375" 
d="M323 982h90l-4 -23q98 81 215 81q121 0 191 -85q19 -23 32 -50q21 26 49 50q100 85 221 85t191 -85q67 -82 51 -197l-134 -758h-90l134 758h1q9 78 -36 133q-49 59 -132 59t-153 -59t-86 -147l-131 -744h-90l134 758h1q9 78 -36 133q-49 59 -132 59t-153 -59
q-61 -51 -81 -125l-135 -766h-90z" />
    <glyph glyph-name="n" unicode="n" horiz-adv-x="1071" 
d="M375 763l-135 -763h-90l173 982h90l-11 -63q145 122 308 122q174 0 263.5 -109t63.5 -275l-116 -657h-90l114 649q22 125 -52.5 213.5t-198.5 88.5t-230 -87q-57 -49 -89 -101z" />
    <glyph glyph-name="o" unicode="o" horiz-adv-x="1278" 
d="M828 1071q228 0 360 -161t92 -389q-40 -227 -229 -388t-417 -161q-227 0 -359.5 161t-92.5 388q40 228 229.5 389t416.5 161zM466.5 842q-156.5 -133 -189.5 -321t76.5 -320.5t297.5 -132.5t344.5 132.5t189.5 320.5t-76.5 321t-297.5 133t-344.5 -133z" />
    <glyph glyph-name="p" unicode="p" horiz-adv-x="1334" 
d="M323 982h90l-24 -138q31 34 69 66q189 160 416 160q228 0 360 -160.5t92 -388.5q-40 -227 -229 -388t-417 -161q-227 0 -359 161q-27 32 -46 66l-101 -574h-90zM349 615l-34 -188q4 -129 84 -227q110 -133 298 -133t344.5 133t189.5 321t-76.5 321t-297.5 133t-344 -133
q-116 -98 -164 -227z" />
    <glyph glyph-name="q" unicode="q" horiz-adv-x="1335" 
d="M1119 -375h-90l101 575q-32 -35 -68 -67q-190 -161 -418 -161q-227 0 -359.5 161t-92.5 388q40 228 229.5 388.5t416.5 160.5q228 0 361 -160q25 -32 45 -67l24 139h90zM1171 432l32 178q-2 132 -84 232q-110 133 -298 133t-344.5 -133t-189.5 -321t76.5 -321t297.5 -133
t344 133q118 100 166 232z" />
    <glyph glyph-name="r" unicode="r" horiz-adv-x="599" 
d="M323 982h90l-31 -179q35 40 78 77q140 119 266 125l-17 -98q-86 -4 -193 -95q-150 -127 -187 -305l-89 -507h-90z" />
    <glyph glyph-name="s" unicode="s" horiz-adv-x="802" 
d="M509 505q-104 62 -140 106q-57 69 -40 166q17 98 98.5 167.5t178.5 69.5q98 0 151 -64q50 -63 36 -143l-1 -5l-83 -31q3 76 -27.5 114t-91.5 38q-60 0 -110.5 -42.5t-61.5 -103.5q-10 -60 25 -103q21 -25 93 -76q115 -70 160 -124q69 -86 49 -205q-22 -122 -122 -207.5
t-221 -85.5t-191 85.5t-52 187.5l93 23q-15 -88 34 -147t132 -59t153 59t85 144q14 83 -34 142q-27 32 -113 94z" />
    <glyph glyph-name="t" unicode="t" horiz-adv-x="670" 
d="M463 982l74 418h90l-74 -418h200l-16 -90h-200l-157 -892h-90l157 892h-200l16 90h200z" />
    <glyph glyph-name="u" unicode="u" horiz-adv-x="1099" 
d="M553 -14q-184 0 -274 109t-64 275l109 614h90l-107 -606q-22 -125 53 -213q74 -89 207 -89q124 0 230.5 88.5t128.5 213.5l107 606h90l-109 -614q-32 -166 -160 -275t-301 -109z" />
    <glyph glyph-name="v" unicode="v" horiz-adv-x="1064" 
d="M561 164l522 818h104l-660 -1009l-304 1009h104z" />
    <glyph glyph-name="w" unicode="w" horiz-adv-x="1375" 
d="M688 260l127 722h90l-123 -700q-16 -88 33 -147t132 -59t154 59q65 55 82 133h-1l126 714h90l-126 -714q-24 -115 -119 -196q-100 -86 -221 -86t-191 86q-19 23 -32 48q-21 -25 -49 -48q-100 -86 -221 -86t-191 86q-67 81 -51 196l126 714h90l-126 -714h-1
q-9 -78 37 -133q48 -59 131 -59t154 59q60 51 80 125z" />
    <glyph glyph-name="x" unicode="x" horiz-adv-x="871" 
d="M914 982l-330 -438l-4 -5l2 -5l214 -534h-104l-178 443l-334 -443h-105l403 534l4 5l-2 5l-176 438h104l140 -347l261 347h105z" />
    <glyph glyph-name="y" unicode="y" horiz-adv-x="1005" 
d="M519 88l-304 -463h-88l363 556l-242 801h102l202 -704l450 704h101l-585 -895z" />
    <glyph glyph-name="z" unicode="z" horiz-adv-x="1000" 
d="M812 878h-507l16 90h662l-68 -90l-595 -788h546l-16 -90h-700l68 90z" />
    <glyph glyph-name="braceleft" unicode="{" horiz-adv-x="866" 
d="M240 653q9 -3 20 -3q46 0 131 44q126 66 185 195q32 72 46 152q7 44 10 90q-2 72 9 135q12 67 39 126q49 112 163 170q71 38 142 38q19 0 38 -3l-13 -75q-18 3 -36 3q-52 0 -106 -27q-82 -43 -119 -126q-25 -55 -37 -125q-5 -30 -8 -64q2 -76 -11 -149q-15 -85 -50 -165
q-71 -158 -227 -239q-18 -9 -38 -17q17 -9 32 -18q127 -81 143 -239q7 -80 -8 -165q-13 -73 -42 -149q-9 -34 -15 -64q-12 -70 -7 -125q8 -83 75 -125q46 -28 99 -28q16 0 34 2l-13 -74q-20 -3 -39 -3q-71 0 -129 38q-93 58 -103 171q-6 59 6 126q11 63 38 134q14 46 22 90
q14 80 7 152q-13 129 -116 195q-69 44 -115 44q-11 0 -21 -3z" />
    <glyph glyph-name="bar" unicode="|" horiz-adv-x="390" 
d="M522 1600l-348 -1975h-90l348 1975h90z" />
    <glyph glyph-name="braceright" unicode="}" horiz-adv-x="866" 
d="M841 572q-8 3 -19 3q-46 0 -131 -44q-126 -66 -185 -195q-32 -72 -46 -152q-8 -44 -10 -90q2 -71 -9 -134q-12 -67 -39 -126q-50 -113 -163 -171q-72 -38 -143 -38q-19 0 -37 3l13 74q17 -2 33 -2q53 0 109 28q82 42 119 125q24 55 37 125q5 30 8 64q-3 76 10 149
q15 85 50 165q72 158 228 239q18 9 38 18q-17 8 -32 17q-127 81 -143 239q-7 80 8 165q13 73 42 149q9 34 14 64q13 70 8 125q-8 83 -75 126q-45 27 -97 27q-18 0 -36 -3l13 75q20 3 39 3q71 0 129 -38q93 -58 103 -170q6 -59 -6 -126q-11 -63 -38 -135q-14 -46 -22 -90
q-14 -80 -8 -152q14 -129 117 -195q69 -44 115 -44q11 0 21 3z" />
    <glyph glyph-name="asciitilde" unicode="~" horiz-adv-x="1277" 
d="M638 861q188 -109 273 -109q15 0 27 3q77 23 108 100q15 38 15 77l91 -14q-4 -48 -23 -97q-46 -111 -156 -148q-25 -8 -56 -8q-105 0 -278 99q-190 109 -274 109q-14 0 -26 -3q-77 -23 -108 -100q-15 -39 -16 -77l-90 14q2 48 22 97q46 111 157 148q25 8 55 8
q106 0 279 -99z" />
    <glyph glyph-name="exclamdown" unicode="&#xa1;" 
d="M410 1465q-22 26 -15 63q6 38 37.5 64t68.5 26t58.5 -26t15.5 -64q-7 -37 -38 -63t-68 -26t-59 26zM173 4l233 1324h90l-233 -1324h-90z" />
    <glyph glyph-name="cent" unicode="&#xa2;" horiz-adv-x="1013" 
d="M676 705q143 2 264 105q15 13 34 31l81 -32q-32 -35 -63 -62q-152 -129 -332 -131l-27 -154h-90l28 161q-127 23 -209 124q-108 130 -75 315q32 184 186 315q118 100 253 124l28 161h90l-27 -154q180 -2 286 -131q21 -27 41 -61l-92 -33q-12 18 -23 32q-85 102 -227 104z
M710 1410q-99 -22 -185 -95q-123 -105 -149 -253t60 -252q60 -74 151 -96z" />
    <glyph glyph-name="sterling" unicode="&#xa3;" horiz-adv-x="1130" 
d="M546 555q0 -21 -2 -43t-6 -44q-36 -204 -241 -405q133 45 254 45q72 0 140 -16q95 -23 184 -23q80 0 154 18l1 -89q-84 -20 -171 -20q-89 0 -180 22q-94 21 -169 21q-68 0 -120 -17q-111 -38 -217 -87l-69 103q143 110 182 149q131 128 160 292q4 22 6 44q2 25 2 50h-228
l16 90h209q-9 95 -41 189q-80 180 -65 343q1 19 5 38q24 139 136 249q124 123 290 138q19 1 38 1q139 0 234 -92q105 -105 92 -267q-1 -23 -5 -44q-11 -63 -42 -114l-81 29q23 43 32 95l4 28q9 123 -71 203q-72 70 -178 70q-14 0 -28 -1q-126 -11 -223 -106
q-85 -84 -103 -189q-3 -15 -5 -30q-10 -113 33 -256q62 -138 72 -284h197l-16 -90h-180z" />
    <glyph glyph-name="currency" unicode="&#xa4;" horiz-adv-x="1112" 
d="M561 1462q124 89 269 89t237 -89l164 139l52 -64l-163 -139q70 -108 44 -253q-25 -145 -133 -253l114 -139l-75 -64l-115 139q-123 -89 -268 -89t-238 89l-163 -139l-53 64l164 139q-70 108 -45 253q26 145 134 253l-115 139l76 64zM992 1398q-70 63 -178 63t-200 -63
q-21 -13 -39 -29q-20 -17 -37 -35q-77 -81 -96 -189t30 -189q10 -18 24 -34q13 -17 29 -30q69 -63 177 -63t201 63q20 13 40 30q19 16 35 34q77 81 96 189t-30 189q-9 18 -22 35q-15 16 -30 29z" />
    <glyph glyph-name="yen" unicode="&#xa5;" horiz-adv-x="1291" 
d="M783 755l637 845h103l-638 -845h294l-16 -90h-346l-13 -18l-18 -102h356l-16 -90h-356l-80 -455h-90l80 455h-354l16 90h354l18 102l-7 18h-344l16 90h292l-339 845h103l338 -845h10z" />
    <glyph glyph-name="brokenbar" unicode="&#xa6;" horiz-adv-x="390" 
d="M522 1600l-149 -849h-90l149 849h90zM324 474l-150 -849h-90l150 849h90z" />
    <glyph glyph-name="section" unicode="&#xa7;" horiz-adv-x="1158" 
d="M942 345q13 14 31 29q74 63 102 223q28 159 -65 272q-81 99 -215 158q-161 57 -243 156q-35 43 -50 94q-13 -14 -31 -29q-74 -63 -102 -223q-28 -159 65 -272q81 -99 215 -158q161 -57 242 -156q36 -43 51 -94zM490 1362q0 29 6 61q24 138 140.5 237.5t257.5 99.5
q140 0 223 -99q45 -53 55 -119l-87 -32q-9 49 -43 90q-60 72 -163 72t-189 -72.5t-104 -176.5q-18 -103 42 -176q56 -67 166 -123q181 -62 289 -193q115 -138 80 -334q-35 -197 -139 -286q-43 -36 -70 -51q0 -29 -6 -61q-24 -138 -141 -237.5t-258 -99.5q-140 0 -222 99
q-46 53 -55 119l87 32q9 -49 43 -90q60 -72 163 -72t189 72.5t104 176.5q18 103 -42 176q-56 67 -166 123q-181 62 -289 193q-115 138 -80 334q34 197 139 286q42 36 70 51z" />
    <glyph glyph-name="dieresis" unicode="&#xa8;" horiz-adv-x="730" 
d="M508 1304q22 -26 16 -63q-7 -38 -38 -64t-68 -26t-59 26t-15 64q6 37 37 63t68 26t59 -26zM808 1304q22 -26 16 -63q-7 -38 -38 -64t-68 -26t-59 26t-15 64q6 37 37 63t68 26t59 -26z" />
    <glyph glyph-name="copyright" unicode="&#xa9;" horiz-adv-x="1405" 
d="M917 442l68 -25q-20 -28 -40 -48q-97 -97 -234 -97t-234 97t-97 234t97 234t234 97t234 -97q20 -20 40 -48l-68 -25q-11 14 -21 25q-77 76 -185 76t-185 -76.5t-77 -185.5q0 -108 77 -185t185 -77t185 77q10 10 21 24zM1124 1028q176 -176 176 -425t-176 -425t-424 -176
q-249 0 -425 176t-176 425t176 425t425 176q248 0 424 -176zM700 1133q-220 0 -375 -155t-155 -375q0 -219 155 -374.5t375 -155.5q219 0 374 155.5t155 374.5q0 220 -155 375t-374 155z" />
    <glyph glyph-name="ordfeminine" unicode="&#xaa;" horiz-adv-x="878" 
d="M297 944h575l-5 -31h-606l111 628h31zM967 1071h-55l15 85q-3 -3 -21 -19q-93 -79 -205 -79q-113 0 -178 79.5t-46 191.5q20 112 113 191.5t206 79.5q112 0 178 -79q12 -16 14 -19l10 55h55zM950 1286l15 85q0 62 -40 109q-51 62 -139 62q-89 0 -162.5 -62.5
t-89.5 -150.5q-15 -89 36.5 -151t140.5 -62q88 0 161 62q56 47 78 108z" />
    <glyph glyph-name="guillemotleft" unicode="&#xab;" horiz-adv-x="980" 
d="M525 462l517 460l-18 -104l-394 -356l268 -356l-18 -105zM181 462l510 460l-18 -104l-394 -356l268 -356l-18 -105z" />
    <glyph glyph-name="registered" unicode="&#xae;" horiz-adv-x="1161" 
d="M467 1371v-378h116q78 0 133.5 55.5t55.5 133.5t-55.5 133.5t-133.5 55.5h-116zM730 721l-138 215h-125v-155h-55v644h198q86 -12 146 -72q71 -71 71 -172q0 -102 -71 -174q-50 -49 -104 -62l130 -200q53 30 98 74q124 125 124 300q0 176 -124 300t-299 124
q-176 0 -300 -124t-124 -300q0 -175 124 -300q59 -58 129 -89q28 -13 58 -21q53 -14 113 -14q78 0 149 26zM581 638q-200 0 -340.5 141t-140.5 340t140.5 340t340.5 141q198 0 339 -141t141 -340t-141 -340q-49 -49 -137.5 -95t-201.5 -46z" />
    <glyph glyph-name="macron" unicode="&#xaf;" horiz-adv-x="840" 
d="M359 1327h590l-16 -90h-590z" />
    <glyph glyph-name="degree" unicode="&#xb0;" horiz-adv-x="762" 
d="M544.5 1532.5q67.5 -67.5 67.5 -163.5t-67.5 -163.5t-163.5 -67.5t-163.5 67.5t-67.5 163.5t67.5 163.5t163.5 67.5t163.5 -67.5zM381 1529q-66 0 -113 -47t-47 -113t47 -113t113 -47t113 47t47 113t-47 113t-113 47z" />
    <glyph glyph-name="plusminus" unicode="&#xb1;" horiz-adv-x="1050" 
d="M480 547h-355v90h355v355h90v-355h355v-90h-355v-355h-90v355zM125 90h800v-90h-800v90z" />
    <glyph glyph-name="uni00B2" unicode="&#xb2;" horiz-adv-x="899" 
d="M429 904.5q123 75.5 215 132t173.5 126.5t97.5 162q16 93 -41.5 156.5t-152.5 63.5q-94 0 -174 -63q-69 -55 -97 -148l-84 31q33 98 120 168q112 89 248 89q137 0 216 -87.5t58 -209.5q-21 -120 -128 -211q-73 -62 -166.5 -119t-211.5 -130q-109 -68 -148 -162h544
l-13 -74h-646q67 200 190 275.5z" />
    <glyph glyph-name="uni00B3" unicode="&#xb3;" horiz-adv-x="899" 
d="M617 1165l-63 1l13 74q73 0 110.5 12.5t87 54.5t60.5 101q10 59 -25.5 98.5t-94.5 39.5q-58 0 -107 -38q-28 -23 -52 -65l-79 30q26 51 70 84q83 65 182 65q101 0 158 -64t42 -150q-16 -88 -76.5 -139t-82.5 -59q67 -22 121 -86q75 -91 53 -212q-21 -121 -131 -208.5
t-247 -87.5q-136 0 -216 89q-63 69 -62 168l96 30q-6 -93 45 -148q57 -62 151 -62q95 0 175 63.5t96 155.5q17 93 -38.5 161t-185.5 92z" />
    <glyph glyph-name="acute" unicode="&#xb4;" horiz-adv-x="629" 
d="M688 1187l-278 -187h-84l196 187h166z" />
    <glyph glyph-name="mu" unicode="&#xb5;" horiz-adv-x="1046" 
d="M828 111q-6 -5 -13 -11q-128 -109 -302 -109q-160 0 -255 110l-84 -476h-90l239 1357h90l-129 -731q13 -43 46 -83q74 -87 198 -87t231 89q68 57 102 130l120 682h88l-173 -982h-88z" />
    <glyph glyph-name="paragraph" unicode="&#xb6;" horiz-adv-x="1135" 
d="M1098 1602l-349 -1977h-90l180 1021h-152q-216 0 -342 153t-88 370q38 216 218 369q151 128 338 153h80v1h491l-15 -90h-88l-349 -1977h-90l349 1977h-93z" />
    <glyph glyph-name="periodcentered" unicode="&#xb7;" horiz-adv-x="403" 
d="M405.5 854q18.5 -22 13.5 -54q-6 -32 -32.5 -54t-57.5 -22q-32 0 -50.5 22t-12.5 54q5 32 31.5 54t58.5 22q31 0 49.5 -22z" />
    <glyph glyph-name="periodcentered" unicode="&#x2219;" horiz-adv-x="403" 
d="M405.5 854q18.5 -22 13.5 -54q-6 -32 -32.5 -54t-57.5 -22q-32 0 -50.5 22t-12.5 54q5 32 31.5 54t58.5 22q31 0 49.5 -22z" />
    <glyph glyph-name="cedilla" unicode="&#xb8;" horiz-adv-x="582" 
d="M299 0l-19 -35q108 0 126 -42q7 -20 4 -41q-5 -25 -24 -53q-37 -53 -86 -69q-41 -13 -84 -13h-16q-52 3 -78 23l48 37q10 -4 32 -6h9q20 0 44 6q29 8 46 31q8 13 10 23q2 9 -1 16q-20 28 -51 32q-12 1 -29 1q-29 0 -75 -4l74 94h70z" />
    <glyph glyph-name="uni00B9" unicode="&#xb9;" horiz-adv-x="899" 
d="M812 1600l-173 -980h-90l153 865h-72l117 115h65z" />
    <glyph glyph-name="ordmasculine" unicode="&#xba;" horiz-adv-x="914" 
d="M726 1116q109 5 177 62q73 62 88 151q16 88 -35 151q-48 57 -155 62q-110 -5 -177 -62q-74 -63 -90 -151q-15 -89 37 -151q47 -57 155 -62zM701 1058q-113 0 -178 79.5t-46 191.5q20 112 113 191.5t206 79.5h29q113 0 178 -79.5t45 -191.5q-19 -112 -112 -191.5
t-206 -79.5h-29zM297 944h575l-5 -31h-606l111 628h31z" />
    <glyph glyph-name="guillemotright" unicode="&#xbb;" horiz-adv-x="980" 
d="M100 1l19 105l393 356l-268 356l18 104l355 -460zM451 1l19 105l393 356l-268 356l18 104l348 -460z" />
    <glyph glyph-name="questiondown" unicode="&#xbf;" horiz-adv-x="956" 
d="M745 1015q54 82 69 166q11 64 0 129l88 29q14 -80 0 -158q-18 -104 -85 -204q-109 -167 -292 -289q-111 -92 -167 -178q-36 -53 -45 -108q-8 -41 -1 -82q18 -98 103 -143q49 -25 103 -25q41 0 85 15q103 34 164 126q35 52 44 105l87 -4l-1 -8q-12 -65 -55 -129
q-84 -127 -224 -173q-62 -20 -118 -20q-74 0 -140 34q-115 61 -138 192q-10 57 0 113q13 74 61 146q83 127 244 237q136 103 218 229zM825 1465q-22 26 -16 63q7 38 38 64t68 26t59 -26t15 -64q-6 -37 -37 -63t-68 -26t-59 26z" />
    <glyph glyph-name="Agrave" unicode="&#xc0;" horiz-adv-x="1291" 
d="M1014 703l-126 671l-362 -671h488zM1031 613h-554l-331 -613h-96l885 1637l306 -1637h-95zM855 1886l130 -187h-84l-212 187h166z" />
    <glyph glyph-name="Aacute" unicode="&#xc1;" horiz-adv-x="1291" 
d="M1014 703l-126 671l-362 -671h488zM1031 613h-554l-331 -613h-96l885 1637l306 -1637h-95zM1268 1886l-278 -187h-84l196 187h166z" />
    <glyph glyph-name="Acircumflex" unicode="&#xc2;" horiz-adv-x="1291" 
d="M1014 703l-126 671l-362 -671h488zM1031 613h-554l-331 -613h-96l885 1637l306 -1637h-95zM1019 1842l197 -234h-104l-161 143l-201 -143h-105l270 234h104z" />
    <glyph glyph-name="Atilde" unicode="&#xc3;" horiz-adv-x="1291" 
d="M1014 703l-126 671l-362 -671h488zM1031 613h-554l-331 -613h-96l885 1637l306 -1637h-95zM953 1773q64 -60 113 -60h5q51 3 85 84h69q-44 -129 -126 -152q-22 -6 -43 -6q-57 0 -107 46q-64 59 -113 59h-5q-51 -3 -85 -84h-70q44 129 127 152q22 6 43 6q57 0 107 -45z
" />
    <glyph glyph-name="Adieresis" unicode="&#xc4;" horiz-adv-x="1291" 
d="M1014 703l-126 671l-362 -671h488zM1031 613h-554l-331 -613h-96l885 1637l306 -1637h-95zM879 1812q22 -26 15 -63q-6 -38 -37 -64t-68 -26t-59 26t-16 64q7 37 38 63t68 26t59 -26zM1179 1812q22 -26 15 -63q-6 -38 -37 -64t-68 -26t-59 26t-16 64q7 37 38 63t68 26
t59 -26z" />
    <glyph glyph-name="Aring" unicode="&#xc5;" horiz-adv-x="1291" 
d="M1014 703l-126 671l-362 -671h488zM920 1611h20q18 3 33 16q20 17 24 40q4 24 -10 41t-37 17q-24 0 -44 -17t-24 -41q-4 -23 10 -40q11 -14 28 -16zM951 1549l290 -1549h-95l-115 613h-554l-331 -613h-96l837 1549q-29 8 -49 32q-30 36 -21 86q9 51 51.5 87t93.5 36
q50 0 79.5 -36t20.5 -87q-9 -50 -51 -86q-28 -24 -60 -32z" />
    <glyph glyph-name="AE" unicode="&#xc6;" horiz-adv-x="1758" 
d="M1782 845l-16 -90h-710l-117 -665h710l-16 -90h-800l108 613h-339l-381 -613h-96l978 1600h812l-16 -90h-710l-117 -665h710zM957 703l126 712l-432 -712h306z" />
    <glyph glyph-name="Ccedilla" unicode="&#xc7;" horiz-adv-x="1595" 
d="M914 -19q-322 10 -510 240q-198 239 -138 579q60 339 341.5 579t621.5 240q317 0 514 -213l-79 -62q-174 183 -451 183q-301 0 -551.5 -213t-303.5 -514q-53 -302 122.5 -515t476.5 -213q277 0 515 183l57 -61q-252 -198 -543 -212l-14 -27q108 0 126 -42q7 -20 3 -41
q-4 -25 -23 -53q-37 -53 -86 -69q-41 -13 -84 -13h-16q-52 3 -78 23l47 37q10 -4 33 -6h9q20 0 43 6q30 8 47 31q8 13 10 23q1 9 -2 16q-20 28 -51 32q-12 1 -29 1q-29 0 -74 -4z" />
    <glyph glyph-name="Egrave" unicode="&#xc8;" horiz-adv-x="1075" 
d="M1232 1600l-16 -90h-710l-117 -665h710l-16 -90h-710l-117 -665h710l-16 -90h-800l282 1600h800zM824 1855l130 -187h-84l-212 187h166z" />
    <glyph glyph-name="Eacute" unicode="&#xc9;" horiz-adv-x="1075" 
d="M1232 1600l-16 -90h-710l-117 -665h710l-16 -90h-710l-117 -665h710l-16 -90h-800l282 1600h800zM1096 1855l-278 -187h-84l196 187h166z" />
    <glyph glyph-name="Ecircumflex" unicode="&#xca;" horiz-adv-x="1075" 
d="M1232 1600l-16 -90h-710l-117 -665h710l-16 -90h-710l-117 -665h710l-16 -90h-800l282 1600h800zM933 1892l196 -234h-104l-160 143l-202 -143h-105l271 234h104z" />
    <glyph glyph-name="Edieresis" unicode="&#xcb;" horiz-adv-x="1075" 
d="M1232 1600l-16 -90h-710l-117 -665h710l-16 -90h-710l-117 -665h710l-16 -90h-800l282 1600h800zM785 1822q22 -26 15 -63q-7 -38 -38 -64t-68 -26t-59 26t-15 64q7 37 38 63t68 26t59 -26zM1085 1822q22 -26 15 -63q-7 -38 -38 -64t-68 -26t-59 26t-15 64q7 37 38 63
t68 26t59 -26z" />
    <glyph glyph-name="Igrave" unicode="&#xcc;" 
d="M542 1600l-282 -1600h-90l282 1600h90zM419 1855l130 -187h-84l-212 187h166z" />
    <glyph glyph-name="Iacute" unicode="&#xcd;" 
d="M542 1600l-282 -1600h-90l282 1600h90zM831 1855l-278 -187h-84l196 187h166z" />
    <glyph glyph-name="Icircumflex" unicode="&#xce;" 
d="M542 1600l-282 -1600h-90l282 1600h90zM588 1842l197 -234h-104l-161 143l-201 -143h-105l270 234h104z" />
    <glyph glyph-name="Idieresis" unicode="&#xcf;" 
d="M542 1600l-282 -1600h-90l282 1600h90zM450 1822q22 -26 15 -63q-7 -38 -38 -64t-68 -26t-59 26t-15 64q7 37 38 63t68 26t59 -26zM750 1822q22 -26 15 -63q-7 -38 -38 -64t-68 -26t-59 26t-15 64q7 37 38 63t68 26t59 -26z" />
    <glyph glyph-name="Eth" unicode="&#xd0;" horiz-adv-x="1284" 
d="M359 845l133 755h90v-2h7q395 0 573 -218q198 -241 138 -580q-60 -340 -342 -580q-256 -218 -651 -218h-7v-2h-90l133 755h-160l16 90h160zM449 845h370l-16 -90h-370l-117 -662h7q356 0 581 192q251 213 304 515q53 301 -122 515q-158 191 -514 191h-7z" />
    <glyph glyph-name="Ntilde" unicode="&#xd1;" horiz-adv-x="1311" 
d="M432 1600h99l571 -1423l251 1423h90l-282 -1600h-90l-578 1437l-253 -1437h-90zM963 1773q64 -60 113 -60h5q51 3 85 84h69q-44 -129 -126 -152q-22 -6 -43 -6q-57 0 -107 46q-64 59 -113 59h-5q-51 -3 -85 -84h-70q44 129 127 152q22 6 43 6q57 0 107 -45z" />
    <glyph glyph-name="Ograve" unicode="&#xd2;" horiz-adv-x="1892" 
d="M1770 1382.5q198 -240.5 138 -580.5t-343 -580.5t-623 -240.5t-538 240.5t-138 580.5t343 580.5t623 240.5t538 -240.5zM1215 1531q-302 0 -553 -213.5t-304 -515.5t122.5 -516t477.5 -214t553.5 214t304.5 516t-123 515.5t-478 213.5zM1220 1855l130 -187h-84l-212 187
h166z" />
    <glyph glyph-name="Oacute" unicode="&#xd3;" horiz-adv-x="1892" 
d="M1770 1382.5q198 -240.5 138 -580.5t-343 -580.5t-623 -240.5t-538 240.5t-138 580.5t343 580.5t623 240.5t538 -240.5zM1215 1531q-302 0 -553 -213.5t-304 -515.5t122.5 -516t477.5 -214t553.5 214t304.5 516t-123 515.5t-478 213.5zM1492 1855l-278 -187h-84l196 187
h166z" />
    <glyph glyph-name="Ocircumflex" unicode="&#xd4;" horiz-adv-x="1892" 
d="M1770 1382.5q198 -240.5 138 -580.5t-343 -580.5t-623 -240.5t-538 240.5t-138 580.5t343 580.5t623 240.5t538 -240.5zM1215 1531q-302 0 -553 -213.5t-304 -515.5t122.5 -516t477.5 -214t553.5 214t304.5 516t-123 515.5t-478 213.5zM1328 1892l197 -234h-104l-161 143
l-201 -143h-105l270 234h104z" />
    <glyph glyph-name="Otilde" unicode="&#xd5;" horiz-adv-x="1892" 
d="M1770 1382.5q198 -240.5 138 -580.5t-343 -580.5t-623 -240.5t-538 240.5t-138 580.5t343 580.5t623 240.5t538 -240.5zM1215 1531q-302 0 -553 -213.5t-304 -515.5t122.5 -516t477.5 -214t553.5 214t304.5 516t-123 515.5t-478 213.5zM1257 1793q64 -60 113 -60h5
q51 3 85 84h69q-44 -129 -126 -152q-22 -6 -43 -6q-57 0 -107 46q-64 59 -113 59h-5q-51 -3 -85 -84h-70q45 129 127 152q22 6 43 6q57 0 107 -45z" />
    <glyph glyph-name="Odieresis" unicode="&#xd6;" horiz-adv-x="1892" 
d="M1770 1382.5q198 -240.5 138 -580.5t-343 -580.5t-623 -240.5t-538 240.5t-138 580.5t343 580.5t623 240.5t538 -240.5zM1215 1531q-302 0 -553 -213.5t-304 -515.5t122.5 -516t477.5 -214t553.5 214t304.5 516t-123 515.5t-478 213.5zM1180 1822q22 -26 16 -63
q-7 -38 -38 -64t-68 -26t-59 26t-15 64q6 37 37 63t68 26t59 -26zM1480 1822q22 -26 16 -63q-7 -38 -38 -64t-68 -26t-59 26t-15 64q6 37 37 63t68 26t59 -26z" />
    <glyph glyph-name="multiply" unicode="&#xd7;" horiz-adv-x="1050" 
d="M525 528l-251 -251l-64 64l251 251l-251 251l64 64l251 -251l251 251l63 -64l-251 -251l251 -251l-63 -64z" />
    <glyph glyph-name="Oslash" unicode="&#xd8;" horiz-adv-x="1892" 
d="M1474 1483q-115 48 -259 48q-302 0 -553 -213.5t-304 -515.5t123 -516q63 -77 144 -127zM699 121q115 -49 259 -49q302 0 553.5 214t304.5 516t-122 516q-64 77 -145 126zM1603 1528q93 -56 167 -145q198 -241 138 -581t-343 -580.5t-623 -240.5q-165 0 -296 57
l-118 -184l-76 38l119 184q-93 56 -166 146q-199 240 -139 580t343 580.5t623 240.5q165 0 296 -57l118 184l75 -38z" />
    <glyph glyph-name="Ugrave" unicode="&#xd9;" horiz-adv-x="1345" 
d="M1386 1600h91l-203 -1150q-57 -183 -208 -311q-180 -153 -396 -153q-217 0 -343 153t-88 369l193 1092h91l-193 -1092q-31 -178 73 -304.5t283 -126.5t327.5 126.5t179.5 304.5zM946 1855l130 -187h-84l-212 187h166z" />
    <glyph glyph-name="Uacute" unicode="&#xda;" horiz-adv-x="1345" 
d="M1386 1600h91l-203 -1150q-57 -183 -208 -311q-180 -153 -396 -153q-217 0 -343 153t-88 369l193 1092h91l-193 -1092q-31 -178 73 -304.5t283 -126.5t327.5 126.5t179.5 304.5zM1219 1855l-278 -187h-84l196 187h166z" />
    <glyph glyph-name="Ucircumflex" unicode="&#xdb;" horiz-adv-x="1345" 
d="M1386 1600h91l-203 -1150q-57 -183 -208 -311q-180 -153 -396 -153q-217 0 -343 153t-88 369l193 1092h91l-193 -1092q-31 -178 73 -304.5t283 -126.5t327.5 126.5t179.5 304.5zM1045 1842l197 -234h-104l-161 143l-201 -143h-105l270 234h104z" />
    <glyph glyph-name="Udieresis" unicode="&#xdc;" horiz-adv-x="1345" 
d="M1386 1600h91l-203 -1150q-57 -183 -208 -311q-180 -153 -396 -153q-217 0 -343 153t-88 369l193 1092h91l-193 -1092q-31 -178 73 -304.5t283 -126.5t327.5 126.5t179.5 304.5zM905.5 1812q21.5 -26 15.5 -63q-7 -38 -38 -64t-68 -26t-59 26t-15 64q6 37 37.5 63
t68.5 26t58.5 -26zM1205.5 1812q21.5 -26 15.5 -63q-7 -38 -38 -64t-68 -26t-59 26t-15 64q6 37 37.5 63t68.5 26t58.5 -26z" />
    <glyph glyph-name="Yacute" unicode="&#xdd;" horiz-adv-x="1291" 
d="M714 647l-382 953h103l342 -853l643 853h103l-719 -953l-114 -647h-90zM1192 1855l-278 -187h-84l196 187h166z" />
    <glyph glyph-name="Thorn" unicode="&#xde;" horiz-adv-x="1124" 
d="M473 1323h330q179 -25 284 -153q126 -153 88 -369q-38 -217 -218 -370t-396 -153h-272l-49 -278h-90l282 1600h90zM305 369h272q178 0 327 126.5t180 305.5q32 179 -72.5 305t-282.5 126h-272z" />
    <glyph glyph-name="germandbls" unicode="&#xdf;" horiz-adv-x="1084" 
d="M715 1608h16q121 0 193 -70q78 -75 59 -227l-3 -17q-25 -140 -168 -222q333 -143 279 -521q-40 -227 -229 -393q-176 -154 -384 -157v-1h-167l16 90h167v-1q169 11 312 137q157 137 190 325t-76.5 321t-331.5 133l17 96q140 7 206.5 59.5t82.5 141.5q15 88 -30 152
q-42 60 -140 60h-11q-107 -4 -169.5 -65.5t-90.5 -182.5l-223 -1266h-90l226 1281q38 162 127.5 242t221.5 85z" />
    <glyph glyph-name="agrave" unicode="&#xe0;" horiz-adv-x="1360" 
d="M1210 0h-90l35 200q-32 -35 -68 -67q-190 -161 -418 -161q-227 0 -359.5 161t-92.5 388q40 228 229.5 389t416.5 161q228 0 361 -161q25 -32 45 -67l24 139h90zM1196 432l32 178q-2 132 -84 232q-110 133 -298 133t-344.5 -133t-189.5 -321t76.5 -320.5t297.5 -132.5
t345 133q117 100 165 231zM841 1287l130 -187h-84l-212 187h166z" />
    <glyph glyph-name="aacute" unicode="&#xe1;" horiz-adv-x="1360" 
d="M1210 0h-90l35 200q-32 -35 -68 -67q-190 -161 -418 -161q-227 0 -359.5 161t-92.5 388q40 228 229.5 389t416.5 161q228 0 361 -161q25 -32 45 -67l24 139h90zM1196 432l32 178q-2 132 -84 232q-110 133 -298 133t-344.5 -133t-189.5 -321t76.5 -320.5t297.5 -132.5
t345 133q117 100 165 231zM1114 1287l-278 -187h-84l196 187h166z" />
    <glyph glyph-name="acircumflex" unicode="&#xe2;" horiz-adv-x="1360" 
d="M1210 0h-90l35 200q-32 -35 -68 -67q-190 -161 -418 -161q-227 0 -359.5 161t-92.5 388q40 228 229.5 389t416.5 161q228 0 361 -161q25 -32 45 -67l24 139h90zM1196 432l32 178q-2 132 -84 232q-110 133 -298 133t-344.5 -133t-189.5 -321t76.5 -320.5t297.5 -132.5
t345 133q117 100 165 231zM950 1324l196 -234h-104l-160 143l-202 -143h-105l271 234h104z" />
    <glyph glyph-name="atilde" unicode="&#xe3;" horiz-adv-x="1360" 
d="M1210 0h-90l35 200q-32 -35 -68 -67q-190 -161 -418 -161q-227 0 -359.5 161t-92.5 388q40 228 229.5 389t416.5 161q228 0 361 -161q25 -32 45 -67l24 139h90zM1196 432l32 178q-2 132 -84 232q-110 133 -298 133t-344.5 -133t-189.5 -321t76.5 -320.5t297.5 -132.5
t345 133q117 100 165 231zM883 1255q65 -60 114 -60h5q50 3 85 84h69q-44 -129 -126 -152q-22 -6 -43 -6q-57 0 -107 46q-65 59 -114 59h-5q-50 -3 -84 -84h-70q44 129 126 152q22 6 43 6q57 0 107 -45z" />
    <glyph glyph-name="adieresis" unicode="&#xe4;" horiz-adv-x="1360" 
d="M1210 0h-90l35 200q-32 -35 -68 -67q-190 -161 -418 -161q-227 0 -359.5 161t-92.5 388q40 228 229.5 389t416.5 161q228 0 361 -161q25 -32 45 -67l24 139h90zM1196 432l32 178q-2 132 -84 232q-110 133 -298 133t-344.5 -133t-189.5 -321t76.5 -320.5t297.5 -132.5
t345 133q117 100 165 231zM812 1304q22 -26 15 -63q-7 -38 -38 -64t-68 -26t-59 26t-15 64q7 37 38 63t68 26t59 -26zM1112 1304q22 -26 15 -63q-7 -38 -38 -64t-68 -26t-59 26t-15 64q7 37 38 63t68 26t59 -26z" />
    <glyph glyph-name="aring" unicode="&#xe5;" horiz-adv-x="1360" 
d="M1196 432l32 178q-2 132 -84 232q-110 133 -298 133t-344.5 -133t-189.5 -321t76.5 -320.5t297.5 -132.5t345 133q117 100 165 231zM886 1237q-24 0 -44 -17t-24 -41q-4 -23 10 -40t38 -17q23 0 43 17t24 40q4 24 -10 41t-37 17zM910 1069q195 -15 314 -159
q25 -32 45 -67l24 139h90l-173 -982h-90l35 200q-32 -35 -68 -67q-190 -161 -418 -161q-227 0 -359.5 161t-92.5 388q40 228 230 389q164 140 357 158q-17 9 -30 25q-30 36 -21 86q9 51 51.5 87t93.5 36q50 0 79.5 -36t20.5 -87q-9 -50 -51 -86q-18 -15 -37 -24z" />
    <glyph glyph-name="ae" unicode="&#xe6;" horiz-adv-x="2171" 
d="M1168 739q-20 55 -59 103q-110 133 -298 133t-344.5 -133t-189.5 -321t76.5 -320.5t297.5 -132.5t345 133q56 48 96 102q44 60 69 129l32 178q-1 69 -25 129zM2090 663q-14 103 -76 179q-110 133 -298 133t-344 -133q-32 -27 -58 -55l-22 -124h798zM1220 256
q16 -29 39 -55q109 -133 297 -133t345 133q27 23 51 48l90 -34q-22 -28 -85 -82q-190 -161 -418 -161q-214 0 -344 143l-20 -115h-90l35 200q-32 -35 -68 -67q-190 -161 -418 -161q-227 0 -359.5 161t-92.5 388q40 228 229.5 389t416.5 161q228 0 361 -161q25 -32 45 -67
l24 139h90l-9 -54q180 143 394 143q228 0 361 -161q116 -143 88 -338l-906 1z" />
    <glyph glyph-name="ccedilla" unicode="&#xe7;" horiz-adv-x="1177" 
d="M603 -27q-205 10 -328 160q-133 161 -93 389q40 227 229.5 388t416.5 161q228 0 361 -161q27 -33 47 -68l-102 -35q-11 18 -25 36q-110 132 -298 132q-187 0 -343.5 -132.5t-189.5 -320.5t76.5 -321t296.5 -133q188 0 345 133q20 17 38 35l89 -34q-33 -36 -71 -69
q-171 -145 -372 -159l-9 -16q109 0 125 -42q9 -20 5 -42q-4 -25 -24 -52q-38 -53 -86 -69q-42 -13 -84 -13h-16q-51 3 -79 23l49 37q9 -4 33 -6h9q20 0 43 6q29 8 45 31q10 13 12 24q1 8 -2 15q-21 28 -52 32q-12 1 -28 1q-29 0 -75 -4z" />
    <glyph glyph-name="egrave" unicode="&#xe8;" horiz-adv-x="1266" 
d="M370 184q106 -116 281 -116q188 0 345 133q20 17 38 35l89 -34q-33 -36 -71 -69q-190 -161 -418 -161q-227 0 -359.5 161t-92.5 389q40 227 229.5 388t416.5 161q195 0 320 -117q21 -20 41 -44q7 -9 13 -18l-80 -68zM1067 885q-101 90 -256 90q-187 0 -343.5 -132.5
t-189.5 -320.5q-27 -155 42 -272zM807 1287l130 -187h-84l-212 187h166z" />
    <glyph glyph-name="eacute" unicode="&#xe9;" horiz-adv-x="1266" 
d="M370 184q106 -116 281 -116q188 0 345 133q20 17 38 35l89 -34q-33 -36 -71 -69q-190 -161 -418 -161q-227 0 -359.5 161t-92.5 389q40 227 229.5 388t416.5 161q195 0 320 -117q21 -20 41 -44q7 -9 13 -18l-80 -68zM1067 885q-101 90 -256 90q-187 0 -343.5 -132.5
t-189.5 -320.5q-27 -155 42 -272zM1079 1287l-278 -187h-84l196 187h166z" />
    <glyph glyph-name="ecircumflex" unicode="&#xea;" horiz-adv-x="1266" 
d="M370 184q106 -116 281 -116q188 0 345 133q20 17 38 35l89 -34q-33 -36 -71 -69q-190 -161 -418 -161q-227 0 -359.5 161t-92.5 389q40 227 229.5 388t416.5 161q195 0 320 -117q21 -20 41 -44q7 -9 13 -18l-80 -68zM1067 885q-101 90 -256 90q-187 0 -343.5 -132.5
t-189.5 -320.5q-27 -155 42 -272zM916 1324l196 -234h-104l-160 143l-202 -143h-105l271 234h104z" />
    <glyph glyph-name="edieresis" unicode="&#xeb;" horiz-adv-x="1266" 
d="M370 184q106 -116 281 -116q188 0 345 133q20 17 38 35l89 -34q-33 -36 -71 -69q-190 -161 -418 -161q-227 0 -359.5 161t-92.5 389q40 227 229.5 388t416.5 161q195 0 320 -117q21 -20 41 -44q7 -9 13 -18l-80 -68zM1067 885q-101 90 -256 90q-187 0 -343.5 -132.5
t-189.5 -320.5q-27 -155 42 -272zM777 1304q22 -26 15 -63q-7 -38 -38 -64t-68 -26t-59 26t-15 64q7 37 38 63t68 26t59 -26zM1077 1304q22 -26 15 -63q-7 -38 -38 -64t-68 -26t-59 26t-15 64q7 37 38 63t68 26t59 -26z" />
    <glyph glyph-name="igrave" unicode="&#xec;" 
d="M433 982l-173 -982h-90l173 982h90zM319 1287l130 -187h-84l-212 187h166z" />
    <glyph glyph-name="iacute" unicode="&#xed;" 
d="M433 982l-173 -982h-90l173 982h90zM731 1287l-278 -187h-84l196 187h166z" />
    <glyph glyph-name="icircumflex" unicode="&#xee;" 
d="M433 982l-173 -982h-90l173 982h90zM496 1324l197 -234h-104l-161 143l-201 -143h-105l270 234h104z" />
    <glyph glyph-name="idieresis" unicode="&#xef;" 
d="M433 982l-173 -982h-90l173 982h90zM358.5 1304q21.5 -26 15.5 -63q-7 -38 -38 -64t-68 -26t-59 26t-15 64q6 37 37.5 63t68.5 26t58.5 -26zM658.5 1304q21.5 -26 15.5 -63q-7 -38 -38 -64t-68 -26t-59 26t-15 64q6 37 37.5 63t68.5 26t58.5 -26z" />
    <glyph glyph-name="eth" unicode="&#xf0;" horiz-adv-x="1278" 
d="M277 521q-33 -188 76.5 -320.5t297.5 -132.5t344.5 132.5t189.5 320.5t-76.5 321t-297.5 133t-344.5 -133t-189.5 -321zM1128 971q33 -27 61 -61q131 -161 91 -389q-40 -227 -229 -388t-417 -161q-227 0 -359.5 161t-92.5 388q40 228 229.5 389t416.5 161q33 0 64 -3
l-43 60h-168l16 90h87l-84 115h128l95 -115h164l-16 -90h-73z" />
    <glyph glyph-name="ntilde" unicode="&#xf1;" horiz-adv-x="1071" 
d="M375 763l-135 -763h-90l173 982h90l-11 -63q145 122 308 122q174 0 263.5 -109t63.5 -275l-116 -657h-90l114 649q22 125 -52.5 213.5t-198.5 88.5t-230 -87q-57 -49 -89 -101zM751 1255q65 -60 114 -60h5q50 3 85 84h69q-44 -129 -126 -152q-22 -6 -43 -6q-57 0 -107 46
q-65 59 -114 59h-5q-50 -3 -85 -84h-70q45 129 127 152q22 6 43 6q57 0 107 -45z" />
    <glyph glyph-name="ograve" unicode="&#xf2;" horiz-adv-x="1278" 
d="M828 1071q228 0 360 -161t92 -389q-40 -227 -229 -388t-417 -161q-227 0 -359.5 161t-92.5 388q40 228 229.5 389t416.5 161zM466.5 842q-156.5 -133 -189.5 -321t76.5 -320.5t297.5 -132.5t344.5 132.5t189.5 320.5t-76.5 321t-297.5 133t-344.5 -133zM813 1287
l130 -187h-84l-212 187h166z" />
    <glyph glyph-name="oacute" unicode="&#xf3;" horiz-adv-x="1278" 
d="M828 1071q228 0 360 -161t92 -389q-40 -227 -229 -388t-417 -161q-227 0 -359.5 161t-92.5 388q40 228 229.5 389t416.5 161zM466.5 842q-156.5 -133 -189.5 -321t76.5 -320.5t297.5 -132.5t344.5 132.5t189.5 320.5t-76.5 321t-297.5 133t-344.5 -133zM1085 1287
l-278 -187h-84l196 187h166z" />
    <glyph glyph-name="ocircumflex" unicode="&#xf4;" horiz-adv-x="1278" 
d="M828 1071q228 0 360 -161t92 -389q-40 -227 -229 -388t-417 -161q-227 0 -359.5 161t-92.5 388q40 228 229.5 389t416.5 161zM466.5 842q-156.5 -133 -189.5 -321t76.5 -320.5t297.5 -132.5t344.5 132.5t189.5 320.5t-76.5 321t-297.5 133t-344.5 -133zM922 1324
l196 -234h-104l-160 143l-202 -143h-105l271 234h104z" />
    <glyph glyph-name="otilde" unicode="&#xf5;" horiz-adv-x="1278" 
d="M828 1071q228 0 360 -161t92 -389q-40 -227 -229 -388t-417 -161q-227 0 -359.5 161t-92.5 388q40 228 229.5 389t416.5 161zM466.5 842q-156.5 -133 -189.5 -321t76.5 -320.5t297.5 -132.5t344.5 132.5t189.5 320.5t-76.5 321t-297.5 133t-344.5 -133zM855 1255
q65 -60 114 -60h5q50 3 85 84h69q-44 -129 -126 -152q-22 -6 -43 -6q-57 0 -107 46q-65 59 -114 59h-5q-50 -3 -84 -84h-70q44 129 126 152q22 6 43 6q57 0 107 -45z" />
    <glyph glyph-name="odieresis" unicode="&#xf6;" horiz-adv-x="1278" 
d="M828 1071q228 0 360 -161t92 -389q-40 -227 -229 -388t-417 -161q-227 0 -359.5 161t-92.5 388q40 228 229.5 389t416.5 161zM466.5 842q-156.5 -133 -189.5 -321t76.5 -320.5t297.5 -132.5t344.5 132.5t189.5 320.5t-76.5 321t-297.5 133t-344.5 -133zM783 1304
q22 -26 15 -63q-7 -38 -38 -64t-68 -26t-59 26t-15 64q7 37 38 63t68 26t59 -26zM1083 1304q22 -26 15 -63q-7 -38 -38 -64t-68 -26t-59 26t-15 64q7 37 38 63t68 26t59 -26z" />
    <glyph glyph-name="divide" unicode="&#xf7;" horiz-adv-x="1050" 
d="M125 659h800v-90h-800v90zM588.5 877q26.5 -26 26.5 -63q0 -38 -26.5 -64t-63.5 -26t-63.5 26t-26.5 64q0 37 26.5 63t63.5 26t63.5 -26zM588.5 477q26.5 -26 26.5 -63q0 -38 -26.5 -64t-63.5 -26t-63.5 26t-26.5 64q0 37 26.5 63t63.5 26t63.5 -26z" />
    <glyph glyph-name="oslash" unicode="&#xf8;" horiz-adv-x="1278" 
d="M992 937q-79 39 -181 39q-188 0 -344.5 -133t-189.5 -321t77 -320q22 -28 48 -49zM1061 891l-591 -783q79 -39 181 -39q188 0 344.5 132.5t189.5 320.5t-76 321q-23 27 -48 48zM339 70q-35 28 -64 64q-133 161 -93 388q40 228 229.5 389t416.5 161q129 0 228 -52l159 212
l72 -41l-163 -216q35 -28 65 -64q131 -161 91 -389q-40 -227 -229 -388t-417 -161q-129 0 -227 52l-160 -213l-72 38z" />
    <glyph glyph-name="ugrave" unicode="&#xf9;" horiz-adv-x="1099" 
d="M553 -14q-184 0 -274 109t-64 275l109 614h90l-107 -606q-22 -125 53 -213q74 -89 207 -89q124 0 230.5 88.5t128.5 213.5l107 606h90l-109 -614q-32 -166 -160 -275t-301 -109zM723 1287l130 -187h-84l-212 187h166z" />
    <glyph glyph-name="uacute" unicode="&#xfa;" horiz-adv-x="1099" 
d="M553 -14q-184 0 -274 109t-64 275l109 614h90l-107 -606q-22 -125 53 -213q74 -89 207 -89q124 0 230.5 88.5t128.5 213.5l107 606h90l-109 -614q-32 -166 -160 -275t-301 -109zM996 1287l-278 -187h-84l196 187h166z" />
    <glyph glyph-name="ucircumflex" unicode="&#xfb;" horiz-adv-x="1099" 
d="M553 -14q-184 0 -274 109t-64 275l109 614h90l-107 -606q-22 -125 53 -213q74 -89 207 -89q124 0 230.5 88.5t128.5 213.5l107 606h90l-109 -614q-32 -166 -160 -275t-301 -109zM831 1324l197 -234h-104l-161 143l-201 -143h-105l270 234h104z" />
    <glyph glyph-name="udieresis" unicode="&#xfc;" horiz-adv-x="1099" 
d="M553 -14q-184 0 -274 109t-64 275l109 614h90l-107 -606q-22 -125 53 -213q74 -89 207 -89q124 0 230.5 88.5t128.5 213.5l107 606h90l-109 -614q-32 -166 -160 -275t-301 -109zM693.5 1304q21.5 -26 15.5 -63q-7 -38 -38 -64t-68 -26t-59 26t-15 64q6 37 37.5 63
t68.5 26t58.5 -26zM993.5 1304q21.5 -26 15.5 -63q-7 -38 -38 -64t-68 -26t-59 26t-15 64q6 37 37.5 63t68.5 26t58.5 -26z" />
    <glyph glyph-name="yacute" unicode="&#xfd;" horiz-adv-x="1005" 
d="M519 88l-304 -463h-88l363 556l-242 801h102l202 -704l450 704h101l-585 -895zM949 1287l-278 -187h-84l196 187h166z" />
    <glyph glyph-name="thorn" unicode="&#xfe;" horiz-adv-x="1334" 
d="M331 633l-40 -224q8 -118 83 -209q110 -133 298 -133t344.5 133t189.5 321t-76.5 321t-297.5 133t-344 -133q-107 -91 -157 -209zM369 849q29 32 64 61q189 160 416 160q228 0 360 -160.5t92 -388.5q-40 -227 -229 -388t-417 -161q-227 0 -359 161q-24 29 -43 61
l-97 -552h-90l310 1758h90z" />
    <glyph glyph-name="ydieresis" unicode="&#xff;" horiz-adv-x="1005" 
d="M519 88l-304 -463h-88l363 556l-242 801h102l202 -704l450 704h101l-585 -895zM646.5 1304q21.5 -26 15.5 -63q-7 -38 -38 -64t-68 -26t-59 26t-15 64q6 37 37.5 63t68.5 26t58.5 -26zM946.5 1304q21.5 -26 15.5 -63q-7 -38 -38 -64t-68 -26t-59 26t-15 64q6 37 37.5 63
t68.5 26t58.5 -26z" />
    <glyph glyph-name="Amacron" unicode="&#x100;" horiz-adv-x="1291" 
d="M1014 703l-126 671l-362 -671h488zM1031 613h-554l-331 -613h-96l885 1637l306 -1637h-95zM659 1745h590l-13 -70h-590z" />
    <glyph glyph-name="amacron" unicode="&#x101;" horiz-adv-x="1360" 
d="M1210 0h-90l35 200q-32 -35 -68 -67q-190 -161 -418 -161q-227 0 -359.5 161t-92.5 388q40 228 229.5 389t416.5 161q228 0 361 -161q25 -32 45 -67l24 139h90zM1196 432l32 178q-2 132 -84 232q-110 133 -298 133t-344.5 -133t-189.5 -321t76.5 -320.5t297.5 -132.5
t345 133q117 100 165 231zM590 1227h590l-13 -70h-590z" />
    <glyph glyph-name="Abreve" unicode="&#x102;" horiz-adv-x="1291" 
d="M1014 703l-126 671l-362 -671h488zM1031 613h-554l-331 -613h-96l885 1637l306 -1637h-95zM811 1856q-1 -53 30 -91q40 -48 108 -48q67 0 123 48q46 38 62 91h73q-22 -83 -93 -143q-80 -69 -178 -69q-99 0 -155 69q-53 66 -44 143h74z" />
    <glyph glyph-name="abreve" unicode="&#x103;" horiz-adv-x="1360" 
d="M1210 0h-90l35 200q-32 -35 -68 -67q-190 -161 -418 -161q-227 0 -359.5 161t-92.5 388q40 228 229.5 389t416.5 161q228 0 361 -161q25 -32 45 -67l24 139h90zM1196 432l32 178q-2 132 -84 232q-110 133 -298 133t-344.5 -133t-189.5 -321t76.5 -320.5t297.5 -132.5
t345 133q117 100 165 231zM742 1338q-1 -53 30 -91q40 -48 108 -48q67 0 123 48q46 38 62 91h73q-23 -83 -93 -143q-80 -69 -178 -69q-99 0 -155 69q-53 66 -44 143h74z" />
    <glyph glyph-name="Aogonek" unicode="&#x104;" horiz-adv-x="1291" 
d="M1014 703l-126 671l-362 -671h488zM1141 29l-110 584h-554l-331 -613h-96l885 1637l306 -1637h-31q-58 -23 -88 -49q-35 -29 -42 -70v-2q-7 -43 17 -73q25 -29 63 -29q37 0 84 32l15 -53l-5 -3q-45 -39 -105 -39h-3q-63 0 -102 47q-40 48 -28 116l1 1q13 69 69 117
q27 23 55 34z" />
    <glyph glyph-name="aogonek" unicode="&#x105;" horiz-adv-x="1360" 
d="M1196 432l32 178q-2 132 -84 232q-110 133 -298 133t-344.5 -133t-189.5 -321t76.5 -320.5t297.5 -132.5t345 133q117 100 165 231zM1126 34l29 166q-32 -35 -68 -67q-190 -161 -418 -161q-227 0 -359.5 161t-92.5 388q40 228 229.5 389t416.5 161q228 0 361 -161
q25 -32 45 -67l24 139h90l-173 -982h-31q-58 -23 -87 -49q-36 -29 -43 -70v-2q-7 -43 17 -73q25 -29 63 -29q37 0 84 32l15 -53l-4 -3q-46 -39 -106 -39h-3q-63 0 -102 47q-40 48 -28 116l2 1q12 69 68 117q34 29 71 39z" />
    <glyph glyph-name="Cacute" unicode="&#x106;" horiz-adv-x="1595" 
d="M1472 255l57 -61q-271 -213 -588 -213q-340 0 -537.5 239.5t-137.5 579.5q60 339 341.5 579t621.5 240q317 0 514 -213l-79 -62q-174 183 -451 183q-301 0 -551.5 -213t-303.5 -514q-53 -302 122.5 -515t476.5 -213q277 0 515 183zM1506 1855l-278 -187h-84l196 187h166z
" />
    <glyph glyph-name="cacute" unicode="&#x107;" horiz-adv-x="1177" 
d="M1034 236l89 -34q-33 -36 -71 -69q-190 -161 -418 -161q-227 0 -359.5 161t-92.5 389q40 227 229.5 388t416.5 161q228 0 361 -161q27 -33 47 -68l-102 -35q-11 18 -25 36q-110 132 -298 132q-187 0 -343.5 -132.5t-189.5 -320.5t76.5 -321t296.5 -133q188 0 345 133
q20 17 38 35zM1105 1287l-278 -187h-84l196 187h166z" />
    <glyph glyph-name="Ccircumflex" unicode="&#x108;" horiz-adv-x="1595" 
d="M1472 255l57 -61q-271 -213 -588 -213q-340 0 -537.5 239.5t-137.5 579.5q60 339 341.5 579t621.5 240q317 0 514 -213l-79 -62q-174 183 -451 183q-301 0 -551.5 -213t-303.5 -514q-53 -302 122.5 -515t476.5 -213q277 0 515 183zM1333 1892l196 -234h-104l-161 143
l-201 -143h-105l271 234h104z" />
    <glyph glyph-name="ccircumflex" unicode="&#x109;" horiz-adv-x="1177" 
d="M1034 236l89 -34q-33 -36 -71 -69q-190 -161 -418 -161q-227 0 -359.5 161t-92.5 389q40 227 229.5 388t416.5 161q228 0 361 -161q27 -33 47 -68l-102 -35q-11 18 -25 36q-110 132 -298 132q-187 0 -343.5 -132.5t-189.5 -320.5t76.5 -321t296.5 -133q188 0 345 133
q20 17 38 35zM921 1324l196 -234h-104l-160 143l-202 -143h-105l271 234h104z" />
    <glyph glyph-name="Cdotaccent" unicode="&#x10a;" horiz-adv-x="1595" 
d="M1472 255l57 -61q-271 -213 -588 -213q-340 0 -537.5 239.5t-137.5 579.5q60 339 341.5 579t621.5 240q317 0 514 -213l-79 -62q-174 183 -451 183q-301 0 -551.5 -213t-303.5 -514q-53 -302 122.5 -515t476.5 -213q277 0 515 183zM1318.5 1802q18.5 -22 12.5 -54
t-32 -54t-57 -22q-32 0 -51 22t-13 54t32.5 54t58.5 22q31 0 49.5 -22z" />
    <glyph glyph-name="cdotaccent" unicode="&#x10b;" horiz-adv-x="1177" 
d="M1034 236l89 -34q-33 -36 -71 -69q-190 -161 -418 -161q-227 0 -359.5 161t-92.5 389q40 227 229.5 388t416.5 161q228 0 361 -161q27 -33 47 -68l-102 -35q-11 18 -25 36q-110 132 -298 132q-187 0 -343.5 -132.5t-189.5 -320.5t76.5 -321t296.5 -133q188 0 345 133
q20 17 38 35zM908.5 1281q18.5 -22 13.5 -53q-6 -32 -32.5 -54.5t-57.5 -22.5q-32 0 -50.5 22.5t-12.5 54.5q5 31 31.5 53t58.5 22q31 0 49.5 -22z" />
    <glyph glyph-name="Ccaron" unicode="&#x10c;" horiz-adv-x="1595" 
d="M1472 255l57 -61q-271 -213 -588 -213q-340 0 -537.5 239.5t-137.5 579.5q60 339 341.5 579t621.5 240q317 0 514 -213l-79 -62q-174 183 -451 183q-301 0 -551.5 -213t-303.5 -514q-53 -302 122.5 -515t476.5 -213q277 0 515 183zM1167 1658l-187 234h105l150 -143
l212 143h104l-280 -234h-104z" />
    <glyph glyph-name="ccaron" unicode="&#x10d;" horiz-adv-x="1177" 
d="M1034 236l89 -34q-33 -36 -71 -69q-190 -161 -418 -161q-227 0 -359.5 161t-92.5 389q40 227 229.5 388t416.5 161q228 0 361 -161q27 -33 47 -68l-102 -35q-11 18 -25 36q-110 132 -298 132q-187 0 -343.5 -132.5t-189.5 -320.5t76.5 -321t296.5 -133q188 0 345 133
q20 17 38 35zM775 1090l-187 234h105l150 -143l212 143h104l-280 -234h-104z" />
    <glyph glyph-name="Dcaron" unicode="&#x10e;" horiz-adv-x="1199" 
d="M506 1506l-250 -1413h7q356 0 581 192q251 213 304 515q53 301 -122 515q-157 191 -513 191h-7zM522 1598h7q395 0 573 -218q198 -241 138 -580q-60 -340 -342 -580q-256 -218 -651 -218h-7v-2h-90l282 1600h90v-2zM852 1608l-188 234h105l151 -143l211 143h104
l-279 -234h-104z" />
    <glyph glyph-name="dcaron" unicode="&#x10f;" horiz-adv-x="1470" 
d="M1210 0h-90l35 200q-32 -35 -68 -67q-190 -161 -418 -161q-227 0 -359.5 161t-92.5 388q40 228 229.5 389t416.5 161q228 0 361 -161q25 -32 45 -67l133 757h90zM1196 432l32 178q-2 132 -84 232q-110 133 -298 133t-344.5 -133t-189.5 -321t76.5 -320.5t297.5 -132.5
t345 133q117 100 165 231zM1609 1427q-22 5 -36 23q-23 26 -16 64q7 37 38 63t68 26t59 -26t15 -63q-4 -21 -14 -39l-133 -198h-65z" />
    <glyph glyph-name="Dcroat" unicode="&#x110;" horiz-adv-x="1284" 
d="M359 845l133 755h90v-2h7q395 0 573 -218q198 -241 138 -580q-60 -340 -342 -580q-256 -218 -651 -218h-7v-2h-90l133 755h-160l16 90h160zM449 845h370l-16 -90h-370l-117 -662h7q356 0 581 192q251 213 304 515q53 301 -122 515q-158 191 -514 191h-7z" />
    <glyph glyph-name="dcroat" unicode="&#x111;" horiz-adv-x="1360" 
d="M1196 432l32 178q-2 132 -84 232q-110 133 -298 133t-344.5 -133t-189.5 -321t76.5 -320.5t297.5 -132.5t345 133q117 100 165 231zM1436 1283l-226 -1283h-90l35 200q-32 -35 -68 -67q-190 -161 -418 -161q-227 0 -359.5 161t-92.5 388q40 228 229.5 389t416.5 161
q228 0 361 -161q25 -32 45 -67l77 440h-291l16 90h291l40 227h90l-40 -227h99l-16 -90h-99z" />
    <glyph glyph-name="Emacron" unicode="&#x112;" horiz-adv-x="1075" 
d="M1232 1600l-16 -90h-710l-117 -665h710l-16 -90h-710l-117 -665h710l-16 -90h-800l282 1600h800zM564 1755h590l-12 -70h-590z" />
    <glyph glyph-name="emacron" unicode="&#x113;" horiz-adv-x="1266" 
d="M370 184q106 -116 281 -116q188 0 345 133q20 17 38 35l89 -34q-33 -36 -71 -69q-190 -161 -418 -161q-227 0 -359.5 161t-92.5 389q40 227 229.5 388t416.5 161q195 0 320 -117q21 -20 41 -44q7 -9 13 -18l-80 -68zM1067 885q-101 90 -256 90q-187 0 -343.5 -132.5
t-189.5 -320.5q-27 -155 42 -272zM555 1227h590l-13 -70h-590z" />
    <glyph glyph-name="Ebreve" unicode="&#x114;" horiz-adv-x="1075" 
d="M1232 1600l-16 -90h-710l-117 -665h710l-16 -90h-710l-117 -665h710l-16 -90h-800l282 1600h800zM716 1856q-1 -53 30 -91q40 -48 108 -48q67 0 123 48q46 38 62 91h73q-22 -83 -93 -143q-80 -69 -178 -69q-99 0 -155 69q-53 66 -44 143h74z" />
    <glyph glyph-name="ebreve" unicode="&#x115;" horiz-adv-x="1266" 
d="M370 184q106 -116 281 -116q188 0 345 133q20 17 38 35l89 -34q-33 -36 -71 -69q-190 -161 -418 -161q-227 0 -359.5 161t-92.5 389q40 227 229.5 388t416.5 161q195 0 320 -117q21 -20 41 -44q7 -9 13 -18l-80 -68zM1067 885q-101 90 -256 90q-187 0 -343.5 -132.5
t-189.5 -320.5q-27 -155 42 -272zM708 1338q-1 -53 30 -91q40 -48 108 -48q67 0 123 48q46 38 62 91h73q-23 -83 -93 -143q-80 -69 -178 -69q-99 0 -155 69q-53 66 -44 143h74z" />
    <glyph glyph-name="Edotaccent" unicode="&#x116;" horiz-adv-x="1075" 
d="M1232 1600l-16 -90h-710l-117 -665h710l-16 -90h-710l-117 -665h710l-16 -90h-800l282 1600h800zM922.5 1802q18.5 -22 12.5 -54q-5 -32 -31.5 -54t-57.5 -22q-32 0 -50.5 22t-13.5 54q6 32 32.5 54t58.5 22q31 0 49.5 -22z" />
    <glyph glyph-name="edotaccent" unicode="&#x117;" horiz-adv-x="1266" 
d="M370 184q106 -116 281 -116q188 0 345 133q20 17 38 35l89 -34q-33 -36 -71 -69q-190 -161 -418 -161q-227 0 -359.5 161t-92.5 389q40 227 229.5 388t416.5 161q195 0 320 -117q21 -20 41 -44q7 -9 13 -18l-80 -68zM1067 885q-101 90 -256 90q-187 0 -343.5 -132.5
t-189.5 -320.5q-27 -155 42 -272zM913.5 1281q18.5 -22 13.5 -54q-6 -32 -32.5 -54t-57.5 -22q-32 0 -50.5 22t-12.5 54q5 32 31.5 54t58.5 22q31 0 49.5 -22z" />
    <glyph glyph-name="Eogonek" unicode="&#x118;" horiz-adv-x="1075" 
d="M546 0h-396l282 1600h800l-16 -90h-710l-117 -665h710l-16 -90h-710l-117 -665h710l-16 -90h-344q-20 -40 -25 -68q-8 -43 17 -72.5t67 -29.5q43 0 73.5 26.5t47.5 79.5l51 -21v-2q-10 -57 -61 -101q-53 -46 -122 -46q-68 0 -107.5 49t-27.5 117q7 38 27 68z" />
    <glyph glyph-name="eogonek" unicode="&#x119;" horiz-adv-x="1266" 
d="M323 663h862q-14 103 -76 179q-110 133 -298 133t-344 -133q-94 -80 -144 -179zM576 -25q-186 18 -301 158q-133 161 -93 388q40 228 229.5 389t416.5 161q228 0 361 -161q116 -143 88 -338l-988 1q-7 -25 -12 -52q-33 -188 76.5 -320.5t297.5 -132.5t345 133
q27 23 51 48l90 -34q-22 -28 -85 -82q-189 -160 -415 -161q-10 -23 -13 -41q-7 -42 17.5 -72t66.5 -30q43 0 73.5 26.5t47.5 80.5l51 -22v-2q-10 -57 -61 -101q-53 -45 -122 -45q-68 0 -107.5 48.5t-27.5 116.5q4 23 14 44z" />
    <glyph glyph-name="Ecaron" unicode="&#x11a;" horiz-adv-x="1075" 
d="M1232 1600l-16 -90h-710l-117 -665h710l-16 -90h-710l-117 -665h710l-16 -90h-800l282 1600h800zM787 1658l-187 234h105l150 -143l212 143h104l-280 -234h-104z" />
    <glyph glyph-name="ecaron" unicode="&#x11b;" horiz-adv-x="1266" 
d="M370 184q106 -116 281 -116q188 0 345 133q20 17 38 35l89 -34q-33 -36 -71 -69q-190 -161 -418 -161q-227 0 -359.5 161t-92.5 389q40 227 229.5 388t416.5 161q195 0 320 -117q21 -20 41 -44q7 -9 13 -18l-80 -68zM1067 885q-101 90 -256 90q-187 0 -343.5 -132.5
t-189.5 -320.5q-27 -155 42 -272zM770 1090l-187 234h105l150 -143l212 143h104l-280 -234h-104z" />
    <glyph glyph-name="Gcircumflex" unicode="&#x11c;" horiz-adv-x="1620" 
d="M1524 199q-266 -218 -583 -218q-340 0 -537.5 239.5t-137.5 579.5q60 339 341.5 579t621.5 240q317 0 514 -213l-79 -62q-174 183 -451 183q-301 0 -551.5 -213t-303.5 -514q-53 -302 122.5 -515t476.5 -213q258 0 483 159l86 488h90zM1313 1892l196 -234h-104l-161 143
l-201 -143h-105l271 234h104z" />
    <glyph glyph-name="gcircumflex" unicode="&#x11d;" horiz-adv-x="1364" 
d="M1228 615q-4 129 -84 227q-110 133 -298 133t-344.5 -133t-189.5 -321t76.5 -321t297.5 -133t344 133q115 97 164 225zM1152 195q-31 -32 -65 -62q-190 -161 -418 -161q-227 0 -359.5 161t-92.5 388q40 228 229.5 388.5t416.5 160.5q228 0 361 -160q25 -32 45 -67l24 139
h90l-134 -763q-39 -221 -224 -378q-189 -161 -416 -161q-228 0 -361 161q-27 33 -47 69l101 34q12 -18 26 -35q110 -133 298 -133q187 0 343 133q142 121 183 286zM950 1324l196 -234h-104l-160 143l-202 -143h-105l271 234h104z" />
    <glyph glyph-name="Gbreve" unicode="&#x11e;" horiz-adv-x="1620" 
d="M1524 199q-266 -218 -583 -218q-340 0 -537.5 239.5t-137.5 579.5q60 339 341.5 579t621.5 240q317 0 514 -213l-79 -62q-174 183 -451 183q-301 0 -551.5 -213t-303.5 -514q-53 -302 122.5 -515t476.5 -213q258 0 483 159l86 488h90zM1106 1856q-1 -53 30 -91
q40 -48 108 -48q67 0 123 48q46 38 62 91h73q-22 -83 -93 -143q-80 -69 -178 -69q-99 0 -155 69q-53 66 -44 143h74z" />
    <glyph glyph-name="gbreve" unicode="&#x11f;" horiz-adv-x="1364" 
d="M1228 615q-4 129 -84 227q-110 133 -298 133t-344.5 -133t-189.5 -321t76.5 -321t297.5 -133t344 133q115 97 164 225zM1152 195q-31 -32 -65 -62q-190 -161 -418 -161q-227 0 -359.5 161t-92.5 388q40 228 229.5 388.5t416.5 160.5q228 0 361 -160q25 -32 45 -67l24 139
h90l-134 -763q-39 -221 -224 -378q-189 -161 -416 -161q-228 0 -361 161q-27 33 -47 69l101 34q12 -18 26 -35q110 -133 298 -133q187 0 343 133q142 121 183 286zM743 1338q-1 -53 30 -91q40 -48 108 -48q67 0 123 48q46 38 62 91h73q-23 -83 -93 -143q-80 -69 -178 -69
q-99 0 -155 69q-53 66 -44 143h74z" />
    <glyph glyph-name="Gdotaccent" unicode="&#x120;" horiz-adv-x="1620" 
d="M1524 199q-266 -218 -583 -218q-340 0 -537.5 239.5t-137.5 579.5q60 339 341.5 579t621.5 240q317 0 514 -213l-79 -62q-174 183 -451 183q-301 0 -551.5 -213t-303.5 -514q-53 -302 122.5 -515t476.5 -213q258 0 483 159l86 488h90zM1312.5 1802q18.5 -22 12.5 -54
t-32 -54t-57 -22q-32 0 -51 22t-13 54t32.5 54t58.5 22q31 0 49.5 -22z" />
    <glyph glyph-name="gdotaccent" unicode="&#x121;" horiz-adv-x="1364" 
d="M1228 615q-4 129 -84 227q-110 133 -298 133t-344.5 -133t-189.5 -321t76.5 -321t297.5 -133t344 133q115 97 164 225zM1152 195q-31 -32 -65 -62q-190 -161 -418 -161q-227 0 -359.5 161t-92.5 388q40 228 229.5 388.5t416.5 160.5q228 0 361 -160q25 -32 45 -67l24 139
h90l-134 -763q-39 -221 -224 -378q-189 -161 -416 -161q-228 0 -361 161q-27 33 -47 69l101 34q12 -18 26 -35q110 -133 298 -133q187 0 343 133q142 121 183 286zM947.5 1281q18.5 -22 13.5 -54q-6 -32 -32.5 -54t-57.5 -22q-32 0 -50.5 22t-12.5 54q5 32 31.5 54t58.5 22
q31 0 49.5 -22z" />
    <glyph glyph-name="Gcommaaccent" unicode="&#x122;" horiz-adv-x="1620" 
d="M905 -18q-315 12 -501 239q-198 239 -138 579q60 339 341.5 579t621.5 240q317 0 514 -213l-79 -62q-174 183 -451 183q-301 0 -551.5 -213t-303.5 -514q-53 -302 122.5 -515t476.5 -213q258 0 483 159l86 488h90l-92 -520q-250 -205 -544 -217l-9 -17q108 0 125 -42
q8 -20 4 -41q-4 -25 -23 -53q-38 -53 -86 -69q-42 -13 -85 -13h-16q-51 3 -78 23l48 37q10 -4 33 -6h9q20 0 43 6q29 8 46 31q9 13 10 23q2 9 -1 16q-20 28 -51 32q-12 1 -29 1q-29 0 -75 -4z" />
    <glyph glyph-name="gcommaaccent" unicode="&#x123;" horiz-adv-x="1364" 
d="M1228 615q-4 129 -84 227q-110 133 -298 133t-344.5 -133t-189.5 -321t76.5 -321t297.5 -133t344 133q115 97 164 225zM1152 195q-31 -32 -65 -62q-190 -161 -418 -161q-227 0 -359.5 161t-92.5 388q40 228 229.5 388.5t416.5 160.5q228 0 361 -160q25 -32 45 -67l24 139
h90l-134 -763q-39 -221 -224 -378q-189 -161 -416 -161q-228 0 -361 161q-27 33 -47 69l101 34q12 -18 26 -35q110 -133 298 -133q187 0 343 133q142 121 183 286zM948 1311q22 -5 36 -23q23 -26 16 -64q-7 -37 -38 -63t-68 -26t-59 26t-15 63q4 21 14 39l133 198h65z" />
    <glyph glyph-name="Hcircumflex" unicode="&#x124;" horiz-adv-x="1150" 
d="M366 717l-126 -717h-90l282 1600h90l-140 -793h670l140 793h90l-282 -1600h-90l126 717h-670zM948 1842l197 -234h-104l-161 143l-201 -143h-105l270 234h104z" />
    <glyph glyph-name="hcircumflex" unicode="&#x125;" horiz-adv-x="1059" 
d="M432 1600h90l-118 -669q134 110 294 110q174 0 263.5 -109t63.5 -275l-116 -657h-90l114 649q22 125 -52.5 213.5t-198.5 88.5t-230 -87q-47 -40 -74 -83l-138 -781h-90zM911 1892l196 -234h-104l-160 143l-202 -143h-105l271 234h104z" />
    <glyph glyph-name="Hbar" unicode="&#x126;" horiz-adv-x="1140" 
d="M1226 1310l-231 -1310h-90l126 717h-670l-126 -717h-90l231 1310h-75l16 90h75l35 200h90l-35 -200h670l35 200h90l-35 -200h75l-16 -90h-75zM466 1310l-89 -503h670l89 503h-670z" />
    <glyph glyph-name="hbar" unicode="&#x127;" horiz-adv-x="1059" 
d="M392 1373l40 227h90l-40 -227h410l-16 -90h-410l-62 -352q134 110 294 110q174 0 263.5 -109t63.5 -275l-116 -657h-90l114 649q22 125 -52.5 213.5t-198.5 88.5t-230 -87q-47 -40 -74 -83l-138 -781h-90l226 1283h-100l16 90h100z" />
    <glyph glyph-name="Itilde" unicode="&#x128;" 
d="M542 1600l-282 -1600h-90l282 1600h90zM523 1773q64 -60 113 -60h5q51 3 85 84h69q-44 -129 -126 -152q-22 -6 -43 -6q-57 0 -107 46q-64 59 -113 59h-5q-51 -3 -85 -84h-70q44 129 127 152q22 6 43 6q57 0 107 -45z" />
    <glyph glyph-name="itilde" unicode="&#x129;" 
d="M433 982l-173 -982h-90l173 982h90zM414 1155q64 -60 113 -60h5q51 3 85 84h69q-44 -129 -126 -152q-22 -6 -43 -6q-57 0 -107 46q-64 59 -113 59h-5q-51 -3 -85 -84h-70q45 129 127 152q22 6 43 6q57 0 107 -45z" />
    <glyph glyph-name="Imacron" unicode="&#x12a;" 
d="M542 1600l-282 -1600h-90l282 1600h90zM228 1745h590l-13 -70h-590z" />
    <glyph glyph-name="imacron" unicode="&#x12b;" 
d="M433 982l-173 -982h-90l173 982h90zM118 1127h590l-12 -70h-590z" />
    <glyph glyph-name="Ibreve" unicode="&#x12c;" horiz-adv-x="420" 
d="M537 1600l-282 -1600h-90l282 1600h90zM376 1856q-1 -53 30 -91q40 -48 108 -48q67 0 123 48q46 38 62 91h73q-22 -83 -93 -143q-80 -69 -178 -69q-99 0 -155 69q-53 66 -44 143h74z" />
    <glyph glyph-name="ibreve" unicode="&#x12d;" horiz-adv-x="420" 
d="M428 982l-173 -982h-90l173 982h90zM267 1238q-1 -53 30 -91q40 -48 108 -48q67 0 123 48q46 38 62 91h73q-22 -83 -93 -143q-80 -69 -178 -69q-99 0 -155 69q-53 66 -44 143h74z" />
    <glyph glyph-name="Iogonek" unicode="&#x12e;" 
d="M176 34l276 1566h90l-282 -1600h-31q-58 -23 -88 -49q-35 -29 -42 -70l-1 -2q-6 -43 17 -73q25 -29 63 -29q37 0 85 32l15 -53l-5 -3q-46 -39 -106 -39h-3q-63 0 -101 47q-40 48 -28 116l1 1q12 69 69 117q34 29 71 39z" />
    <glyph glyph-name="iogonek" unicode="&#x12f;" 
d="M508 1304q22 -26 16 -63q-7 -38 -38 -64t-68 -26t-59 26t-15 64q6 37 37 63t68 26t59 -26zM177 39l166 943h90l-173 -982h-76q-58 -23 -88 -49q-35 -29 -42 -70l-1 -2q-6 -43 17 -73q25 -29 63 -29q37 0 85 32l15 -53l-5 -3q-46 -39 -106 -39h-3q-63 0 -101 47
q-40 48 -28 116l1 1q12 69 69 117q52 44 110 44h7z" />
    <glyph glyph-name="Idotaccent" unicode="&#x130;" 
d="M542 1600l-282 -1600h-90l282 1600h90zM586.5 1799q18.5 -22 13.5 -54q-6 -32 -32.5 -54t-57.5 -22q-32 0 -50.5 22t-12.5 54q5 32 31.5 54t58.5 22q31 0 49.5 -22z" />
    <glyph glyph-name="dotlessi" unicode="&#x131;" 
d="M433 982l-173 -982h-90l173 982h90z" />
    <glyph glyph-name="IJ" unicode="&#x132;" horiz-adv-x="1287" 
d="M542 1600l-282 -1600h-90l282 1600h90zM1186 304q-27 -152 -121 -232q-100 -86 -221 -86t-191 85.5t-52 187.5l63 23q1 -108 56 -162q46 -46 114 -46q12 0 26 2q83 0 153 59q62 53 85 179l226 1286h90z" />
    <glyph glyph-name="ij" unicode="&#x133;" horiz-adv-x="885" 
d="M433 982l-173 -982h-90l173 982h90zM508.5 1304q21.5 -26 15.5 -63q-7 -38 -38 -64t-68 -26t-59 26t-15 64q6 37 37.5 63t68.5 26t58.5 -26zM455 -138q123 14 145 136l173 984h90l-173 -982q-37 -211 -251 -228zM939 1304q22 -26 15 -63q-7 -38 -38 -64t-68 -26t-59 26
t-15 64q7 37 38 63t68 26t59 -26z" />
    <glyph glyph-name="Jcircumflex" unicode="&#x134;" horiz-adv-x="857" 
d="M756 304q-27 -152 -121 -232q-100 -86 -221 -86t-191 85.5t-52 187.5l63 23q1 -108 56 -162q46 -46 114 -46q12 0 26 2q83 0 153 59q62 53 85 179l226 1286h90zM1016 1842l197 -234h-104l-161 143l-201 -143h-105l270 234h104z" />
    <glyph glyph-name="jcircumflex" unicode="&#x135;" 
d="M497 1324l196 -234h-104l-160 143l-202 -143h-105l271 234h104zM25 -138q123 14 145 136l173 984h90l-173 -982q-37 -211 -251 -228z" />
    <glyph glyph-name="Kcommaaccent" unicode="&#x136;" horiz-adv-x="1131" 
d="M1145 1600l-522 -601l523 -999h-109l-484 924l-216 -246l-119 -678h-91l282 1600h91l-135 -766l670 766h110zM594 -57q85 0 113 -26q39 -35 31 -84l-2 -10q-16 -55 -87 -102q-61 -31 -124 -31q-35 0 -71 10l29 58q30 -13 60 -13q35 0 71 17q32 21 43 49q2 6 3 12
q4 21 -10 37q-17 19 -67 20z" />
    <glyph glyph-name="kcommaaccent" unicode="&#x137;" horiz-adv-x="823" 
d="M802 982l-295 -300l266 -682h-112l-225 610l-108 -109l-88 -501h-90l247 1400h90l-133 -755l332 337h116zM419 -57q85 0 113 -26q39 -35 30 -84l-2 -10q-15 -55 -87 -102q-61 -31 -123 -31q-35 0 -72 10l30 58q29 -13 60 -13q35 0 71 17q32 21 42 49l4 12q3 21 -10 37
q-17 19 -67 20z" />
    <glyph glyph-name="kgreenlandic" unicode="&#x138;" horiz-adv-x="823" 
d="M802 982l-295 -300l266 -682h-112l-225 610l-108 -109l-88 -501h-90l173 982h90l-59 -337l332 337h116z" />
    <glyph glyph-name="Lacute" unicode="&#x139;" horiz-adv-x="950" 
d="M150 0l282 1600h90l-266 -1510h620l-16 -90h-710zM1042 1805l-278 -187h-84l196 187h166z" />
    <glyph glyph-name="lacute" unicode="&#x13a;" horiz-adv-x="390" 
d="M522 1600l-282 -1600h-90l282 1600h90zM694 1892l-278 -187h-84l196 187h166z" />
    <glyph glyph-name="Lcommaaccent" unicode="&#x13b;" horiz-adv-x="886" 
d="M492 0h-365l282 1600h91l-266 -1510h609l-16 -90h-271l-8 -29l-2 -6h1l-10 -40q13 -7 25 -15q53 -39 52 -94l-2 -14q-8 -45 -57 -78q-58 -39 -137 -39q-34 0 -62 7l20 55q20 -7 45 -7q45 0 78 23q29 19 33 46l2 7q0 32 -31 55q-31 21 -73 22z" />
    <glyph glyph-name="lcommaaccent" unicode="&#x13c;" horiz-adv-x="497" 
d="M152 0h-25l282 1600h91l-282 -1600h-2l-8 -29l-2 -6h1l-10 -40q13 -7 25 -15q54 -39 52 -94q0 -7 -2 -14q-8 -45 -56 -78q-58 -39 -137 -39q-34 0 -63 7l21 55q19 -7 44 -7q45 0 79 23q28 19 33 46l1 7q1 32 -30 55q-32 21 -74 22z" />
    <glyph glyph-name="Lcaron" unicode="&#x13d;" horiz-adv-x="886" 
d="M127 0l282 1600h91l-267 -1510h610l-16 -90h-700zM920 1435q-22 4 -36 22q-22 26 -16 65q7 37 38 62.5t68 25.5t59 -25.5t15 -62.5q-4 -22 -14 -40l-133 -198h-64z" />
    <glyph glyph-name="lcaron" unicode="&#x13e;" horiz-adv-x="497" 
d="M500 1600l-282 -1600h-91l282 1600h91zM637 1435q-22 4 -36 22q-22 26 -16 65q7 37 38 62.5t69 25.5q36 0 58 -25.5t15 -62.5q-3 -22 -13 -40l-134 -198h-64z" />
    <glyph glyph-name="Ldot" unicode="&#x13f;" horiz-adv-x="950" 
d="M150 0l282 1600h90l-266 -1510h620l-16 -90h-710zM942 854q19 -22 13 -54t-32 -54t-57 -22q-32 0 -51 22t-13 54t32 54t58 22q31 0 50 -22z" />
    <glyph glyph-name="ldot" unicode="&#x140;" horiz-adv-x="593" 
d="M522 1600l-282 -1600h-90l282 1600h90zM621 854q19 -22 13 -54t-32 -54t-57 -22q-32 0 -51 22t-13 54t32 54t58 22q31 0 50 -22z" />
    <glyph glyph-name="Lslash" unicode="&#x141;" horiz-adv-x="986" 
d="M458 787l520 370l-19 -106l-520 -370l-104 -591h610l-16 -90h-701l107 606l-261 -185l19 106l261 186l156 887h91z" />
    <glyph glyph-name="lslash" unicode="&#x142;" horiz-adv-x="425" 
d="M309 805l140 795h91l-127 -721l191 137l-18 -106l-192 -137l-136 -773h-91l124 699l-192 -137l19 107z" />
    <glyph glyph-name="Nacute" unicode="&#x143;" horiz-adv-x="1311" 
d="M432 1600h99l571 -1423l251 1423h90l-282 -1600h-90l-578 1437l-253 -1437h-90zM1193 1805l-278 -187h-84l196 187h166z" />
    <glyph glyph-name="nacute" unicode="&#x144;" horiz-adv-x="1071" 
d="M375 763l-135 -763h-90l173 982h90l-11 -63q145 122 308 122q174 0 263.5 -109t63.5 -275l-116 -657h-90l114 649q22 125 -52.5 213.5t-198.5 88.5t-230 -87q-57 -49 -89 -101zM982 1287l-278 -187h-84l196 187h166z" />
    <glyph glyph-name="Ncommaaccent" unicode="&#x145;" horiz-adv-x="1311" 
d="M432 1600h99l571 -1423l251 1423h90l-282 -1600h-90l-578 1437l-253 -1437h-90zM613 -57q85 0 113 -26q39 -35 30 -84l-2 -10q-15 -55 -87 -102q-61 -31 -123 -31q-35 0 -72 10l30 58q29 -13 60 -13q35 0 71 17q32 21 42 49l4 12q3 21 -10 37q-17 19 -67 20z" />
    <glyph glyph-name="ncommaaccent" unicode="&#x146;" horiz-adv-x="1071" 
d="M375 763l-135 -763h-90l173 982h90l-11 -63q145 122 308 122q174 0 263.5 -109t63.5 -275l-116 -657h-90l114 649q22 125 -52.5 213.5t-198.5 88.5t-230 -87q-57 -49 -89 -101zM493 -57q85 0 113 -26q39 -35 30 -84l-2 -10q-15 -55 -87 -102q-61 -31 -123 -31
q-35 0 -72 10l30 58q29 -13 60 -13q35 0 71 17q32 21 42 49l4 12q3 21 -10 37q-17 19 -67 20z" />
    <glyph glyph-name="Ncaron" unicode="&#x147;" horiz-adv-x="1311" 
d="M432 1600h99l571 -1423l251 1423h90l-282 -1600h-90l-578 1437l-253 -1437h-90zM884 1608l-188 234h105l151 -143l211 143h104l-279 -234h-104z" />
    <glyph glyph-name="ncaron" unicode="&#x148;" horiz-adv-x="1071" 
d="M375 763l-135 -763h-90l173 982h90l-11 -63q145 122 308 122q174 0 263.5 -109t63.5 -275l-116 -657h-90l114 649q22 125 -52.5 213.5t-198.5 88.5t-230 -87q-57 -49 -89 -101zM672 1090l-188 234h105l151 -143l211 143h104l-279 -234h-104z" />
    <glyph glyph-name="napostrophe" unicode="&#x149;" horiz-adv-x="1071" 
d="M375 763l-135 -763h-90l173 982h90l-11 -63q145 122 308 122q174 0 263.5 -109t63.5 -275l-116 -657h-90l114 649q22 125 -52.5 213.5t-198.5 88.5t-230 -87q-57 -49 -89 -101zM335 1402q-22 4 -36 22q-22 26 -15 65q6 37 37 62.5t69 25.5q36 0 58 -25.5t16 -62.5
q-4 -22 -14 -40l-134 -198h-64z" />
    <glyph glyph-name="Eng" unicode="&#x14a;" horiz-adv-x="1311" 
d="M1070 2l-577 1435l-253 -1437h-90l282 1600h99l571 -1421l134 765h1l116 656h90l-282 -1600h-1q-59 -277 -212 -346l-33 45q122 95 149 249q4 26 6 54z" />
    <glyph glyph-name="eng" unicode="&#x14b;" horiz-adv-x="1071" 
d="M927 544l18 105q22 125 -52.5 213.5t-198.5 88.5t-230 -87q-57 -49 -89 -101l-135 -763h-90l173 982h90l-11 -63q145 122 308 122q174 0 263.5 -109t63.5 -275l-116 -657h-1q-64 -249 -212 -346l-33 40q92 57 148 266l103 584h1z" />
    <glyph glyph-name="Omacron" unicode="&#x14c;" horiz-adv-x="1892" 
d="M1770 1382.5q198 -240.5 138 -580.5t-343 -580.5t-623 -240.5t-538 240.5t-138 580.5t343 580.5t623 240.5t538 -240.5zM1215 1531q-302 0 -553 -213.5t-304 -515.5t122.5 -516t477.5 -214t553.5 214t304.5 516t-123 515.5t-478 213.5zM958 1745h590l-12 -70h-590z" />
    <glyph glyph-name="omacron" unicode="&#x14d;" horiz-adv-x="1278" 
d="M828 1071q228 0 360 -161t92 -389q-40 -227 -229 -388t-417 -161q-227 0 -359.5 161t-92.5 388q40 228 229.5 389t416.5 161zM466.5 842q-156.5 -133 -189.5 -321t76.5 -320.5t297.5 -132.5t344.5 132.5t189.5 320.5t-76.5 321t-297.5 133t-344.5 -133zM556 1199h590
l-13 -70h-590z" />
    <glyph glyph-name="Obreve" unicode="&#x14e;" horiz-adv-x="1892" 
d="M1770 1382.5q198 -240.5 138 -580.5t-343 -580.5t-623 -240.5t-538 240.5t-138 580.5t343 580.5t623 240.5t538 -240.5zM1215 1531q-302 0 -553 -213.5t-304 -515.5t122.5 -516t477.5 -214t553.5 214t304.5 516t-123 515.5t-478 213.5zM1112 1856q-2 -53 30 -91
q39 -48 107 -48q67 0 124 48q45 38 62 91h73q-23 -83 -93 -143q-81 -69 -179 -69q-99 0 -154 69q-54 66 -44 143h74z" />
    <glyph glyph-name="obreve" unicode="&#x14f;" horiz-adv-x="1278" 
d="M828 1071q228 0 360 -161t92 -389q-40 -227 -229 -388t-417 -161q-227 0 -359.5 161t-92.5 388q40 228 229.5 389t416.5 161zM466.5 842q-156.5 -133 -189.5 -321t76.5 -320.5t297.5 -132.5t344.5 132.5t189.5 320.5t-76.5 321t-297.5 133t-344.5 -133zM714 1338
q-1 -53 30 -91q40 -48 108 -48q67 0 123 48q46 38 62 91h73q-23 -83 -93 -143q-80 -69 -178 -69q-99 0 -155 69q-53 66 -44 143h74z" />
    <glyph glyph-name="Ohungarumlaut" unicode="&#x150;" horiz-adv-x="1892" 
d="M1770 1382.5q198 -240.5 138 -580.5t-343 -580.5t-623 -240.5t-538 240.5t-138 580.5t343 580.5t623 240.5t538 -240.5zM1215 1531q-302 0 -553 -213.5t-304 -515.5t122.5 -516t477.5 -214t553.5 214t304.5 516t-123 515.5t-478 213.5zM1379 1836l-278 -187h-84l196 187
h166zM1608 1836l-278 -187h-84l196 187h166z" />
    <glyph glyph-name="ohungarumlaut" unicode="&#x151;" horiz-adv-x="1278" 
d="M828 1071q228 0 360 -161t92 -389q-40 -227 -229 -388t-417 -161q-227 0 -359.5 161t-92.5 388q40 228 229.5 389t416.5 161zM466.5 842q-156.5 -133 -189.5 -321t76.5 -320.5t297.5 -132.5t344.5 132.5t189.5 320.5t-76.5 321t-297.5 133t-344.5 -133zM973 1268
l-278 -187h-84l196 187h166zM1202 1268l-278 -187h-84l196 187h166z" />
    <glyph glyph-name="OE" unicode="&#x152;" horiz-adv-x="2295" 
d="M1596 1510q77 -52 139 -127q186 -226 145 -538h439l-16 -90h-439q-71 -310 -333 -533q-93 -79 -192 -132h846l-15 -90h-1000q-125 -19 -263 -19q-340 0 -538 240.5t-138 580.5t343 580.5t623 240.5q138 0 255 -23h1000l-16 -90h-840zM1788 845q34 274 -129 473
q-64 77 -145 126q-40 24 -82 42q-113 45 -252 45q-302 0 -553 -213.5t-304 -515.5t122.5 -516t477.5 -214q139 0 267 45q49 18 98 42q97 49 189 127q231 197 295 469q5 23 9 47q4 22 7 43z" />
    <glyph glyph-name="oe" unicode="&#x153;" horiz-adv-x="2127" 
d="M277 521q-33 -188 76.5 -320.5t297.5 -132.5t344.5 132.5t189.5 320.5t-76.5 321t-297.5 133t-344.5 -133t-189.5 -321zM1264 779q19 -55 24 -116h758q-14 103 -76 179q-110 133 -298 133t-344 -133q-36 -30 -64 -63zM1172 263q18 -32 43 -62q109 -133 297 -133t345 133
q27 23 51 48l90 -34q-22 -28 -85 -82q-190 -161 -418 -161q-227 0 -359 161q-19 23 -34 47q-24 -24 -50 -47q-190 -161 -418 -161q-227 0 -359.5 161t-92.5 388q40 228 229.5 389t416.5 161q228 0 361 -161q18 -23 33 -47q24 24 51 47q189 161 416 161q228 0 361 -161
q116 -143 88 -338l-851 1q-2 -26 -7 -52q-25 -142 -108 -258z" />
    <glyph glyph-name="Racute" unicode="&#x154;" horiz-adv-x="1089" 
d="M506 1509l-152 -863h272q178 0 327 126.5t180 305.5q32 179 -72.5 305t-282.5 126h-272zM637 556q-13 -1 -27 -1h-272l-98 -555h-90l282 1600h420q179 -25 284 -153q126 -153 88 -369q-38 -217 -218 -370q-125 -106 -268 -139l269 -569h-111zM1129 1805l-278 -187h-84
l196 187h166z" />
    <glyph glyph-name="racute" unicode="&#x155;" horiz-adv-x="599" 
d="M323 982h90l-31 -179q35 40 78 77q140 119 266 125l-17 -98q-86 -4 -193 -95q-150 -127 -187 -305l-89 -507h-90zM778 1187l-278 -187h-84l196 187h166z" />
    <glyph glyph-name="Rcommaaccent" unicode="&#x156;" horiz-adv-x="1085" 
d="M483 1508l-152 -862h272q178 0 327 126t180 306q32 179 -72.5 304.5t-282.5 125.5h-272zM614 555q-14 -1 -27 -1h-272l-97 -554h-91l282 1600h420q179 -25 284 -153q126 -154 88 -369q-38 -217 -218 -370q-125 -106 -268 -139l269 -569h-111zM452 -57q85 0 113 -26
q39 -35 31 -84l-2 -10q-16 -55 -87 -102q-61 -31 -124 -31q-35 0 -71 10l29 58q30 -13 60 -13q35 0 71 17q32 21 43 49q2 6 3 12q4 21 -10 37q-17 19 -67 20z" />
    <glyph glyph-name="rcommaaccent" unicode="&#x157;" horiz-adv-x="459" 
d="M619 903q-77 -15 -166 -92q-150 -127 -186 -304l-89 -507h-91l173 982h91l-32 -179q34 40 78 77q98 83 187 110zM112 -57q85 0 113 -26q39 -35 31 -84l-2 -10q-15 -55 -87 -102q-61 -31 -123 -31q-35 0 -72 10l29 58q30 -13 60 -13q36 0 71 17q32 21 43 49q2 6 3 12
q4 21 -9 37q-17 19 -68 20z" />
    <glyph glyph-name="Rcaron" unicode="&#x158;" horiz-adv-x="1089" 
d="M506 1509l-152 -863h272q178 0 327 126.5t180 305.5q32 179 -72.5 305t-282.5 126h-272zM637 556q-13 -1 -27 -1h-272l-98 -555h-90l282 1600h420q179 -25 284 -153q126 -153 88 -369q-38 -217 -218 -370q-125 -106 -268 -139l269 -569h-111zM820 1608l-188 234h105
l151 -143l211 143h104l-279 -234h-104z" />
    <glyph glyph-name="rcaron" unicode="&#x159;" horiz-adv-x="599" 
d="M323 982h90l-31 -179q35 40 78 77q140 119 266 125l-17 -98q-86 -4 -193 -95q-150 -127 -187 -305l-89 -507h-90zM468 990l-188 234h105l151 -143l211 143h104l-279 -234h-104z" />
    <glyph glyph-name="Sacute" unicode="&#x15a;" horiz-adv-x="1042" 
d="M704 886q-161 57 -242.5 156t-56.5 240q24 138 141 237.5t258 99.5q140 0 222 -99q46 -53 55 -119l-87 -32q-9 49 -43 90q-60 72 -163 72t-189 -72.5t-104 -176.5q-18 -103 42 -176q56 -67 166 -123q181 -62 289 -193q115 -138 80 -334q-34 -197 -197.5 -336t-359.5 -139
t-311 140q-91 111 -87 258l90 31q-9 -130 71 -227q93 -113 252 -113q160 0 293 113t161 273q29 159 -65 272q-81 99 -215 158zM1062 1825l-278 -187h-84l196 187h166z" />
    <glyph glyph-name="sacute" unicode="&#x15b;" horiz-adv-x="802" 
d="M509 505q-104 62 -140 106q-57 69 -40 166q17 98 98.5 167.5t178.5 69.5q98 0 151 -64q50 -63 36 -143l-1 -5l-83 -31q3 76 -27.5 114t-91.5 38q-60 0 -110.5 -42.5t-61.5 -103.5q-10 -60 25 -103q21 -25 93 -76q115 -70 160 -124q69 -86 49 -205q-22 -122 -122 -207.5
t-221 -85.5t-191 85.5t-52 187.5l93 23q-15 -88 34 -147t132 -59t153 59t85 144q14 83 -34 142q-27 32 -113 94zM838 1207l-278 -187h-84l196 187h166z" />
    <glyph glyph-name="Scircumflex" unicode="&#x15c;" horiz-adv-x="1042" 
d="M704 886q-161 57 -242.5 156t-56.5 240q24 138 141 237.5t258 99.5q140 0 222 -99q46 -53 55 -119l-87 -32q-9 49 -43 90q-60 72 -163 72t-189 -72.5t-104 -176.5q-18 -103 42 -176q56 -67 166 -123q181 -62 289 -193q115 -138 80 -334q-34 -197 -197.5 -336t-359.5 -139
t-311 140q-91 111 -87 258l90 31q-9 -130 71 -227q93 -113 252 -113q160 0 293 113t161 273q29 159 -65 272q-81 99 -215 158zM894 1842l197 -234h-104l-161 143l-201 -143h-105l270 234h104z" />
    <glyph glyph-name="scircumflex" unicode="&#x15d;" horiz-adv-x="802" 
d="M509 505q-104 62 -140 106q-57 69 -40 166q17 98 98.5 167.5t178.5 69.5q98 0 151 -64q50 -63 36 -143l-1 -5l-83 -31q3 76 -27.5 114t-91.5 38q-60 0 -110.5 -42.5t-61.5 -103.5q-10 -60 25 -103q21 -25 93 -76q115 -70 160 -124q69 -86 49 -205q-22 -122 -122 -207.5
t-221 -85.5t-191 85.5t-52 187.5l93 23q-15 -88 34 -147t132 -59t153 59t85 144q14 83 -34 142q-27 32 -113 94zM670 1224l197 -234h-104l-161 143l-201 -143h-105l270 234h104z" />
    <glyph glyph-name="Scedilla" unicode="&#x15e;" horiz-adv-x="1042" 
d="M443 -14q-146 22 -239 135q-91 111 -87 258l90 31q-9 -130 71 -227q93 -113 252 -113q160 0 293 113t161 273q29 159 -65 272q-81 99 -215 158q-161 57 -242.5 156t-56.5 240q24 138 141 237.5t258 99.5q140 0 222 -99q46 -53 55 -119l-87 -32q-9 49 -43 90
q-60 72 -163 72t-189 -72.5t-104 -176.5q-18 -103 42 -176q56 -67 166 -123q181 -62 289 -193q115 -138 80 -334q-34 -197 -197.5 -336t-359.5 -139h-2l-8 -16q108 0 126 -42q7 -20 3 -41q-4 -25 -23 -53q-37 -53 -86 -69q-42 -13 -85 -13h-16q-51 3 -77 23l47 37
q10 -4 33 -6h9q20 0 43 6q29 8 47 31q8 13 10 23q1 9 -2 16q-20 28 -51 32q-12 1 -29 1q-29 0 -74 -4z" />
    <glyph glyph-name="scedilla" unicode="&#x15f;" horiz-adv-x="802" 
d="M327 -14q-69 19 -116 76q-70 85 -52 187l93 23q-15 -88 34 -147t132 -59t153 59t85 144q14 83 -34 142q-27 32 -113 94q-104 62 -140 106q-57 69 -40 166q17 98 98.5 167.5t178.5 69.5q98 0 151 -64q50 -63 36 -143l-1 -5l-83 -31q3 76 -27.5 114t-91.5 38
q-60 0 -110.5 -42.5t-61.5 -103.5q-10 -60 25 -103q21 -25 93 -76q115 -70 160 -124q69 -86 49 -205q-22 -122 -122 -207.5t-221 -85.5h-6l-6 -11q108 0 126 -42q7 -20 3 -41q-4 -25 -23 -53q-37 -53 -86 -69q-42 -13 -85 -13h-16q-51 3 -77 23l47 37q10 -4 33 -6h9
q20 0 43 6q29 8 47 31q8 13 10 23q1 9 -2 16q-20 28 -51 32q-12 1 -29 1q-29 0 -74 -4z" />
    <glyph glyph-name="Scaron" unicode="&#x160;" horiz-adv-x="1042" 
d="M704 886q-161 57 -242.5 156t-56.5 240q24 138 141 237.5t258 99.5q140 0 222 -99q46 -53 55 -119l-87 -32q-9 49 -43 90q-60 72 -163 72t-189 -72.5t-104 -176.5q-18 -103 42 -176q56 -67 166 -123q181 -62 289 -193q115 -138 80 -334q-34 -197 -197.5 -336t-359.5 -139
t-311 140q-91 111 -87 258l90 31q-9 -130 71 -227q93 -113 252 -113q160 0 293 113t161 273q29 159 -65 272q-81 99 -215 158zM752 1628l-188 234h105l151 -143l211 143h104l-279 -234h-104z" />
    <glyph glyph-name="scaron" unicode="&#x161;" horiz-adv-x="802" 
d="M509 505q-104 62 -140 106q-57 69 -40 166q17 98 98.5 167.5t178.5 69.5q98 0 151 -64q50 -63 36 -143l-1 -5l-83 -31q3 76 -27.5 114t-91.5 38q-60 0 -110.5 -42.5t-61.5 -103.5q-10 -60 25 -103q21 -25 93 -76q115 -70 160 -124q69 -86 49 -205q-22 -122 -122 -207.5
t-221 -85.5t-191 85.5t-52 187.5l93 23q-15 -88 34 -147t132 -59t153 59t85 144q14 83 -34 142q-27 32 -113 94zM532 1030l-188 234h105l151 -143l211 143h104l-279 -234h-104z" />
    <glyph glyph-name="Tcommaaccent" unicode="&#x162;" horiz-adv-x="1000" 
d="M462 0h-7l266 1510h-405l16 90h900l-16 -90h-405l-266 -1510h-13l-18 -35q108 0 125 -42q8 -20 4 -41q-4 -25 -23 -53q-38 -53 -87 -69q-41 -13 -84 -13h-16q-51 3 -78 23l48 37q10 -4 33 -6h9q20 0 43 6q29 8 46 31q8 13 10 23q2 9 -1 16q-20 28 -51 32q-12 1 -29 1
q-29 0 -75 -4z" />
    <glyph glyph-name="tcommaaccent" unicode="&#x163;" horiz-adv-x="670" 
d="M291 8l156 884h-200l16 90h200l74 418h90l-74 -418h200l-16 -90h-200l-157 -892h-20l-8 -15q108 0 126 -42q7 -20 4 -41q-5 -25 -24 -53q-37 -53 -86 -69q-41 -13 -84 -13h-16q-52 3 -78 23l48 37q10 -4 32 -6h9q20 0 44 6q29 8 46 31q8 13 10 23q2 9 -1 16
q-20 28 -51 32q-12 1 -29 1q-29 0 -75 -4z" />
    <glyph glyph-name="Tcaron" unicode="&#x164;" horiz-adv-x="1000" 
d="M811 1510l-266 -1510h-90l266 1510h-405l16 90h900l-16 -90h-405zM706 1608l-188 234h105l151 -143l211 143h104l-279 -234h-104z" />
    <glyph glyph-name="tcaron" unicode="&#x165;" horiz-adv-x="638" 
d="M409 982l74 417h89l-73 -417h200l-16 -91h-200l-158 -891h-89l157 891h-200l16 91h200zM772 1402q-22 4 -36 22q-22 26 -16 65q7 37 38 62.5t68 25.5t59 -25.5t15 -62.5q-3 -22 -13 -40l-134 -198h-64z" />
    <glyph glyph-name="Tbar" unicode="&#x166;" horiz-adv-x="1000" 
d="M604 845l117 665h-405l16 90h900l-16 -90h-405l-117 -665h255l-16 -90h-255l-133 -755h-90l133 755h-255l16 90h255z" />
    <glyph glyph-name="tbar" unicode="&#x167;" horiz-adv-x="670" 
d="M197 605h200l50 287h-200l16 90h200l74 418h90l-74 -418h200l-16 -90h-200l-50 -287h200l-16 -90h-200l-91 -515h-90l91 515h-200z" />
    <glyph glyph-name="Utilde" unicode="&#x168;" horiz-adv-x="1345" 
d="M1386 1600h91l-203 -1150q-57 -183 -208 -311q-180 -153 -396 -153q-217 0 -343 153t-88 369l193 1092h91l-193 -1092q-31 -178 73 -304.5t283 -126.5t327.5 126.5t179.5 304.5zM979 1773q65 -60 114 -60h5q50 3 84 84h69q-43 -129 -125 -152q-22 -6 -43 -6
q-57 0 -107 46q-65 59 -114 59h-5q-51 -3 -85 -84h-70q45 129 127 152q22 6 43 6q57 0 107 -45z" />
    <glyph glyph-name="utilde" unicode="&#x169;" horiz-adv-x="1099" 
d="M553 -14q-184 0 -274 109t-64 275l109 614h90l-107 -606q-22 -125 53 -213q74 -89 207 -89q124 0 230.5 88.5t128.5 213.5l107 606h90l-109 -614q-32 -166 -160 -275t-301 -109zM748 1155q64 -60 113 -60h5q51 3 85 84h69q-44 -129 -126 -152q-22 -6 -43 -6
q-57 0 -107 46q-64 59 -113 59h-5q-51 -3 -85 -84h-70q45 129 127 152q22 6 43 6q57 0 107 -45z" />
    <glyph glyph-name="Umacron" unicode="&#x16a;" horiz-adv-x="1345" 
d="M1386 1600h91l-203 -1150q-57 -183 -208 -311q-180 -153 -396 -153q-217 0 -343 153t-88 369l193 1092h91l-193 -1092q-31 -178 73 -304.5t283 -126.5t327.5 126.5t179.5 304.5zM685 1745h590l-12 -70h-590z" />
    <glyph glyph-name="umacron" unicode="&#x16b;" horiz-adv-x="1099" 
d="M553 -14q-184 0 -274 109t-64 275l109 614h90l-107 -606q-22 -125 53 -213q74 -89 207 -89q124 0 230.5 88.5t128.5 213.5l107 606h90l-109 -614q-32 -166 -160 -275t-301 -109zM454 1127h590l-13 -70h-590z" />
    <glyph glyph-name="Ubreve" unicode="&#x16c;" horiz-adv-x="1345" 
d="M1386 1600h91l-203 -1150q-57 -183 -208 -311q-180 -153 -396 -153q-217 0 -343 153t-88 369l193 1092h91l-193 -1092q-31 -178 73 -304.5t283 -126.5t327.5 126.5t179.5 304.5zM839 1856q-2 -53 30 -91q39 -48 107 -48q67 0 124 48q45 38 62 91h73q-23 -83 -93 -143
q-81 -69 -179 -69q-99 0 -154 69q-54 66 -44 143h74z" />
    <glyph glyph-name="ubreve" unicode="&#x16d;" horiz-adv-x="1099" 
d="M553 -14q-184 0 -274 109t-64 275l109 614h90l-107 -606q-22 -125 53 -213q74 -89 207 -89q124 0 230.5 88.5t128.5 213.5l107 606h90l-109 -614q-32 -166 -160 -275t-301 -109zM607 1238q-1 -53 30 -91q40 -48 108 -48q67 0 123 48q46 38 62 91h73q-22 -83 -93 -143
q-80 -69 -178 -69q-99 0 -155 69q-53 66 -44 143h74z" />
    <glyph glyph-name="Uring" unicode="&#x16e;" horiz-adv-x="1345" 
d="M1386 1600h91l-203 -1150q-57 -183 -208 -311q-180 -153 -396 -153q-217 0 -343 153t-88 369l193 1092h91l-193 -1092q-31 -178 73 -304.5t283 -126.5t327.5 126.5t179.5 304.5zM1084.5 1844q29.5 -36 20.5 -87q-8 -50 -50.5 -86t-93.5 -36t-80.5 36t-21.5 86
q9 51 51.5 87t93.5 36t80.5 -36zM993 1815q-24 0 -44 -17t-25 -41q-4 -23 10 -40t38 -17q23 0 43 17t24 40q5 24 -9 41t-37 17z" />
    <glyph glyph-name="uring" unicode="&#x16f;" horiz-adv-x="1099" 
d="M553 -14q-184 0 -274 109t-64 275l109 614h90l-107 -606q-22 -125 53 -213q74 -89 207 -89q124 0 230.5 88.5t128.5 213.5l107 606h90l-109 -614q-32 -166 -160 -275t-301 -109zM853.5 1226q29.5 -36 20.5 -87q-9 -50 -51.5 -86t-93.5 -36t-80.5 36t-20.5 86
q9 51 51.5 87t93.5 36t80.5 -36zM761 1197q-24 0 -44 -17t-24 -41q-4 -23 10 -40t38 -17q23 0 43 17t24 40q4 24 -10 41t-37 17z" />
    <glyph glyph-name="Uhungarumlaut" unicode="&#x170;" horiz-adv-x="1345" 
d="M1386 1600h91l-203 -1150q-57 -183 -208 -311q-180 -153 -396 -153q-217 0 -343 153t-88 369l193 1092h91l-193 -1092q-31 -178 73 -304.5t283 -126.5t327.5 126.5t179.5 304.5zM1043 1816l-278 -187h-84l196 187h166zM1272 1816l-278 -187h-84l196 187h166z" />
    <glyph glyph-name="uhungarumlaut" unicode="&#x171;" horiz-adv-x="1099" 
d="M553 -14q-184 0 -274 109t-64 275l109 614h90l-107 -606q-22 -125 53 -213q74 -89 207 -89q124 0 230.5 88.5t128.5 213.5l107 606h90l-109 -614q-32 -166 -160 -275t-301 -109zM811 1198l-278 -187h-84l196 187h166zM1040 1198l-278 -187h-84l196 187h166z" />
    <glyph glyph-name="Uogonek" unicode="&#x172;" horiz-adv-x="1345" 
d="M708 -13q-19 -1 -38 -1q-217 0 -343 153t-88 369l193 1092h91l-193 -1092q-31 -178 73 -304.5t283 -126.5t327.5 126.5t179.5 304.5l193 1092h91l-203 -1150q-57 -183 -208 -311q-128 -109 -274 -140l-1 -1q-35 -30 -43 -72l1 -1q-7 -42 18 -72q23 -30 61 -30q37 0 86 33
l14 -53l-4 -4q-46 -39 -107 -39q-64 0 -103 48q-40 47 -28 114v3q6 34 22 62z" />
    <glyph glyph-name="uogonek" unicode="&#x173;" horiz-adv-x="1099" 
d="M600 -12q-23 -2 -47 -2q-184 0 -274 109t-64 275l109 614h90l-107 -606q-22 -125 53 -213q74 -89 207 -89q124 0 230.5 88.5t128.5 213.5l107 606h90l-109 -614q-32 -166 -160 -275q-74 -63 -163 -89q-5 -4 -9 -8q-36 -30 -43 -72l1 -1q-8 -42 17 -72q24 -30 62 -30
q37 0 86 33l13 -53l-3 -4q-46 -39 -107 -39q-64 0 -104 48q-40 47 -28 114l1 3q6 34 23 63z" />
    <glyph glyph-name="Wcircumflex" unicode="&#x174;" horiz-adv-x="1672" 
d="M834 240l239 1360h90l-239 -1360q15 -43 43 -77q75 -87 199 -87t230 88.5t128 213.5l215 1222h90l-216 -1230q-31 -156 -163 -268q-136 -116 -300 -116q-163 0 -259 115q-17 20 -30 41q-19 -21 -44 -41q-136 -115 -299 -115q-164 0 -259 116q-93 112 -68 268l216 1230h90
l-215 -1222q-22 -125 53 -213.5t199 -88.5t229 87q40 34 71 77zM1209 1842l197 -234h-104l-161 143l-201 -143h-105l270 234h104z" />
    <glyph glyph-name="wcircumflex" unicode="&#x175;" horiz-adv-x="1375" 
d="M688 260l127 722h90l-123 -700q-16 -88 33 -147t132 -59t154 59q65 55 82 133h-1l126 714h90l-126 -714q-24 -115 -119 -196q-100 -86 -221 -86t-191 86q-19 23 -32 48q-21 -25 -49 -48q-100 -86 -221 -86t-191 86q-67 81 -51 196l126 714h90l-126 -714h-1
q-9 -78 37 -133q48 -59 131 -59t154 59q60 51 80 125zM951 1224l197 -234h-104l-161 143l-201 -143h-105l270 234h104z" />
    <glyph glyph-name="Ycircumflex" unicode="&#x176;" horiz-adv-x="1291" 
d="M714 647l-382 953h103l342 -853l643 853h103l-719 -953l-114 -647h-90zM1018 1842l196 -234h-104l-160 143l-202 -143h-105l271 234h104z" />
    <glyph glyph-name="ycircumflex" unicode="&#x177;" horiz-adv-x="1005" 
d="M519 88l-304 -463h-88l363 556l-242 801h102l202 -704l450 704h101l-585 -895zM766 1224l197 -234h-104l-161 143l-201 -143h-105l270 234h104z" />
    <glyph glyph-name="Ydieresis" unicode="&#x178;" horiz-adv-x="1291" 
d="M714 647l-382 953h103l342 -853l643 853h103l-719 -953l-114 -647h-90zM881 1822q22 -26 15 -63q-7 -38 -38 -64t-68 -26t-59 26t-15 64q7 37 38 63t68 26t59 -26zM1181 1822q22 -26 15 -63q-7 -38 -38 -64t-68 -26t-59 26t-15 64q7 37 38 63t68 26t59 -26z" />
    <glyph glyph-name="Zacute" unicode="&#x179;" horiz-adv-x="1327" 
d="M1288 1510h-872l16 90h1027l-1139 -1510h873l-16 -90h-1027zM1201 1805l-278 -187h-84l196 187h166z" />
    <glyph glyph-name="zacute" unicode="&#x17a;" horiz-adv-x="1000" 
d="M812 878h-507l16 90h662l-68 -90l-595 -788h546l-16 -90h-700l68 90zM928 1187l-278 -187h-84l196 187h166z" />
    <glyph glyph-name="Zdotaccent" unicode="&#x17b;" horiz-adv-x="1327" 
d="M1288 1510h-872l16 90h1027l-1139 -1510h873l-16 -90h-1027zM1034.5 1799q18.5 -22 13.5 -54q-6 -32 -32.5 -54t-57.5 -22q-32 0 -50.5 22t-12.5 54q5 32 31.5 54t58.5 22q31 0 49.5 -22z" />
    <glyph glyph-name="zdotaccent" unicode="&#x17c;" horiz-adv-x="1000" 
d="M812 878h-507l16 90h662l-68 -90l-595 -788h546l-16 -90h-700l68 90zM762.5 1181q18.5 -22 13.5 -54q-6 -32 -32.5 -54t-57.5 -22q-32 0 -50.5 22t-12.5 54q5 32 31.5 54t58.5 22q31 0 49.5 -22z" />
    <glyph glyph-name="Zcaron" unicode="&#x17d;" horiz-adv-x="1327" 
d="M1288 1510h-872l16 90h1027l-1139 -1510h873l-16 -90h-1027zM891 1608l-188 234h105l151 -143l211 143h104l-279 -234h-104z" />
    <glyph glyph-name="zcaron" unicode="&#x17e;" horiz-adv-x="1000" 
d="M812 878h-507l16 90h662l-68 -90l-595 -788h546l-16 -90h-700l68 90zM619 990l-188 234h105l151 -143l211 143h104l-279 -234h-104z" />
    <glyph glyph-name="longs" unicode="&#x17f;" horiz-adv-x="433" 
d="M215 0h-91l220 1248q26 111 119 191q96 76 202 76q57 0 115 -22l-42 -80q-39 18 -79 18q-70 0 -143 -56q-65 -56 -83 -134z" />
    <glyph glyph-name="florin" unicode="&#x192;" horiz-adv-x="447" 
d="M229 0h-1l-14 -79q-62 -284 -340 -284l15 83q189 0 235 198l172 973h-100l16 91h99l47 266q27 111 119 191q96 76 202 76q57 0 115 -22l-42 -80q-39 18 -78 18q-71 0 -144 -56q-65 -56 -82 -134l-46 -259h200l-16 -91h-200z" />
    <glyph glyph-name="Aringacute" unicode="&#x1fa;" horiz-adv-x="1263" 
d="M1013 714l-136 671l-374 -671h510zM928 1690q-24 0 -44 -17t-25 -42q-4 -22 10 -39t39 -17q23 0 43 17t24 39q4 25 -10 42t-37 17zM912 1753l134 151h167l-224 -161q17 -9 32 -24q28 -37 19 -88q-9 -49 -50 -84q-21 -19 -43 -26l312 -1521h-95l-134 624h-576l-359 -624
h-96l854 1518q-21 9 -37 29q-30 35 -21 84q9 51 51 88q31 26 66 34z" />
    <glyph glyph-name="aringacute" unicode="&#x1fb;" horiz-adv-x="1270" 
d="M1155 432l19 110q-1 132 -83 232q-110 133 -298 133t-342.5 -122t-185.5 -299q-31 -176 80.5 -297t299.5 -121t345 133q117 100 165 231zM834 1174q-25 0 -44.5 -17t-24.5 -42q-4 -22 10 -39t39 -17q23 0 43 17t24 39q4 25 -10 42t-37 17zM893 1229q18 -9 33 -26
q29 -37 20 -88q-9 -49 -50 -84q-24 -21 -50 -30q202 -11 325 -159q25 -32 44 -67l25 139h90l-161 -914h-90l35 200q-32 -35 -68 -67q-190 -161 -418 -161q-226 0 -361 149.5t-97 364.5q38 218 215.5 358.5t378.5 156.5q-24 8 -42 30q-30 35 -21 84q9 51 51 88q28 23 61 31
l183 171h166z" />
    <glyph glyph-name="AEacute" unicode="&#x1fc;" horiz-adv-x="1758" 
d="M1782 845l-16 -90h-710l-117 -665h710l-16 -90h-800l108 613h-339l-381 -613h-96l978 1600h812l-16 -90h-710l-117 -665h710zM957 703l126 712l-432 -712h306zM1416 1805l-278 -187h-84l196 187h166z" />
    <glyph glyph-name="aeacute" unicode="&#x1fd;" horiz-adv-x="2171" 
d="M1168 739q-20 55 -59 103q-110 133 -298 133t-344.5 -133t-189.5 -321t76.5 -320.5t297.5 -132.5t345 133q56 48 96 102q44 60 69 129l32 178q-1 69 -25 129zM2090 663q-14 103 -76 179q-110 133 -298 133t-344 -133q-32 -27 -58 -55l-22 -124h798zM1220 256
q16 -29 39 -55q109 -133 297 -133t345 133q27 23 51 48l90 -34q-22 -28 -85 -82q-190 -161 -418 -161q-214 0 -344 143l-20 -115h-90l35 200q-32 -35 -68 -67q-190 -161 -418 -161q-227 0 -359.5 161t-92.5 388q40 228 229.5 389t416.5 161q228 0 361 -161q25 -32 45 -67
l24 139h90l-9 -54q180 143 394 143q228 0 361 -161q116 -143 88 -338l-906 1zM1514 1187l-278 -187h-84l196 187h166z" />
    <glyph glyph-name="Oslashacute" unicode="&#x1fe;" horiz-adv-x="1892" 
d="M1474 1483q-115 48 -259 48q-302 0 -553 -213.5t-304 -515.5t123 -516q63 -77 144 -127zM699 121q115 -49 259 -49q302 0 553.5 214t304.5 516t-122 516q-64 77 -145 126zM1603 1528q93 -56 167 -145q198 -241 138 -581t-343 -580.5t-623 -240.5q-165 0 -296 57
l-118 -184l-76 38l119 184q-93 56 -166 146q-199 240 -139 580t343 580.5t623 240.5q165 0 296 -57l118 184l75 -38zM1488 1835l-278 -187h-84l196 187h166z" />
    <glyph glyph-name="oslashacute" unicode="&#x1ff;" horiz-adv-x="1278" 
d="M992 937q-79 39 -181 39q-188 0 -344.5 -133t-189.5 -321t77 -320q22 -28 48 -49zM1061 891l-591 -783q79 -39 181 -39q188 0 344.5 132.5t189.5 320.5t-76 321q-23 27 -48 48zM339 70q-35 28 -64 64q-133 161 -93 388q40 228 229.5 389t416.5 161q129 0 228 -52l159 212
l72 -41l-163 -216q35 -28 65 -64q131 -161 91 -389q-40 -227 -229 -388t-417 -161q-129 0 -227 52l-160 -213l-72 38zM1085 1287l-278 -187h-84l196 187h166z" />
    <glyph glyph-name="circumflex" unicode="&#x2c6;" horiz-adv-x="811" 
d="M670 1224l197 -234h-104l-161 143l-201 -143h-105l270 234h104z" />
    <glyph glyph-name="caron" unicode="&#x2c7;" horiz-adv-x="811" 
d="M525 990l-188 234h105l151 -143l211 143h104l-279 -234h-104z" />
    <glyph glyph-name="uni02C9" unicode="&#x2c9;" horiz-adv-x="890" 
d="M348 1127h590l-12 -70h-590z" />
    <glyph glyph-name="breve" unicode="&#x2d8;" horiz-adv-x="880" 
d="M498 1238q-2 -53 30 -91q39 -48 107 -48q67 0 124 48q45 38 62 91h73q-23 -83 -94 -143q-80 -69 -178 -69q-99 0 -155 69q-53 66 -43 143h74z" />
    <glyph glyph-name="dotaccent" unicode="&#x2d9;" horiz-adv-x="403" 
d="M463.5 1181q18.5 -22 13.5 -54q-6 -32 -32.5 -54t-57.5 -22q-32 0 -50.5 22t-12.5 54q5 32 31.5 54t58.5 22q31 0 49.5 -22z" />
    <glyph glyph-name="ring" unicode="&#x2da;" horiz-adv-x="762" 
d="M685.5 1226q29.5 -36 20.5 -87q-9 -50 -51.5 -86t-93.5 -36t-80.5 36t-20.5 86q9 51 51.5 87t93.5 36t80.5 -36zM593 1197q-24 0 -44 -17t-24 -41q-4 -23 10 -40t38 -17q23 0 43 17t24 40q4 24 -10 41t-37 17z" />
    <glyph glyph-name="ogonek" unicode="&#x2db;" horiz-adv-x="761" 
d="M430 8q-75 -27 -109 -57q-35 -29 -42 -70l-1 -2q-6 -43 17 -73q25 -29 63 -29q37 0 85 32l15 -53l-5 -3q-46 -39 -106 -39h-3q-63 0 -101 47q-40 48 -28 116l1 1q12 69 69 117q52 44 110 44h10z" />
    <glyph glyph-name="tilde" unicode="&#x2dc;" horiz-adv-x="825" 
d="M611 1155q64 -60 113 -60h5q51 3 85 84h69q-44 -129 -126 -152q-22 -6 -43 -6q-57 0 -107 46q-64 59 -113 59h-5q-51 -3 -85 -84h-70q45 129 127 152q22 6 43 6q57 0 107 -45z" />
    <glyph glyph-name="hungarumlaut" unicode="&#x2dd;" horiz-adv-x="858" 
d="M690 1198l-278 -187h-84l196 187h166zM919 1198l-278 -187h-84l196 187h166z" />
    <glyph glyph-name="tonos" unicode="&#x384;" horiz-adv-x="629" 
d="M688 1187l-278 -187h-84l196 187h166z" />
    <glyph glyph-name="dieresistonos" unicode="&#x385;" horiz-adv-x="804" 
d="M859 1600l-233 -187h-83l150 187h166zM928.5 1518q15.5 -18 10.5 -43q-4 -27 -26 -45t-47 -18q-26 0 -41.5 18t-10.5 45q4 25 26 43t48 18q25 0 40.5 -18zM498.5 1518q15.5 -18 10.5 -43q-4 -27 -26 -45t-47 -18q-26 0 -41.5 18t-10.5 45q4 25 26 43t48 18q25 0 40.5 -18
z" />
    <glyph glyph-name="Alphatonos" unicode="&#x386;" horiz-adv-x="1291" 
d="M1014 1187l-278 -187h-84l196 187h166zM1340 703l-126 671l-362 -671h488zM1357 613h-554l-331 -613h-96l885 1637l306 -1637h-95z" />
    <glyph glyph-name="anoteleia" unicode="&#x387;" horiz-adv-x="403" 
d="M405.5 1112q18.5 -22 13.5 -54q-6 -32 -32.5 -54t-57.5 -22q-32 0 -50.5 22t-12.5 54q5 32 31.5 54t58.5 22q31 0 49.5 -22z" />
    <glyph glyph-name="Epsilontonos" unicode="&#x388;" horiz-adv-x="1613" 
d="M688 1187l-278 -187h-84l196 187h166zM2101 1600l-16 -90h-710l-117 -665h710l-16 -90h-710l-117 -665h710l-16 -90h-800l282 1600h800z" />
    <glyph glyph-name="Etatonos" unicode="&#x389;" horiz-adv-x="1688" 
d="M688 1187l-278 -187h-84l196 187h166zM1235 717l-126 -717h-90l282 1600h90l-140 -793h670l140 793h90l-282 -1600h-90l126 717h-670z" />
    <glyph glyph-name="Iotatonos" unicode="&#x38a;" horiz-adv-x="948" 
d="M688 1187l-278 -187h-84l196 187h166zM1411 1600l-282 -1600h-90l282 1600h90z" />
    <glyph glyph-name="Omicrontonos" unicode="&#x38c;" horiz-adv-x="2374" 
d="M688 1187l-278 -187h-84l196 187h166zM2277 1382.5q198 -240.5 138 -580.5t-343 -580.5t-623 -240.5t-538 240.5t-138 580.5t343 580.5t623 240.5t538 -240.5zM1722 1531q-302 0 -553 -213.5t-304 -515.5t122.5 -516t477.5 -214t553.5 214t304.5 516t-123 515.5
t-478 213.5z" />
    <glyph glyph-name="Upsilontonos" unicode="&#x38e;" horiz-adv-x="1647" 
d="M688 1187l-278 -187h-84l196 187h166zM1583 647l-382 953h103l342 -853l643 853h103l-719 -953l-114 -647h-90z" />
    <glyph glyph-name="Omegatonos" unicode="&#x38f;" horiz-adv-x="1917" 
d="M696 1600l-278 -187h-84l196 187h166zM1336 1600q316 0 468 -223t85 -602q-49 -278 -234.5 -467t-313.5 -219h326l-16 -89h-536l16 89q225 50 421 225t247 461q60 342 -71 545.5t-411 203.5h-5q-280 0 -482.5 -203.5t-262.5 -545.5q-51 -286 83.5 -461t342.5 -225
l-16 -89h-536l16 89h326q-118 30 -237 219t-70 467q67 379 297.5 602t546.5 223h16z" />
    <glyph glyph-name="iotadieresistonos" unicode="&#x390;" horiz-adv-x="418" 
d="M427 982l-174 -982h-89l173 982h90zM627 1377l-233 -187h-83l150 187h166zM696.5 1295q15.5 -18 10.5 -43q-4 -27 -26 -45t-47 -18q-26 0 -41.5 18t-10.5 45q4 25 26 43t48 18q25 0 40.5 -18zM266.5 1295q15.5 -18 10.5 -43q-4 -27 -26 -45t-47 -18q-26 0 -41.5 18
t-10.5 45q4 25 26 43t48 18q25 0 40.5 -18z" />
    <glyph glyph-name="Alpha" unicode="&#x391;" horiz-adv-x="1291" 
d="M1014 703l-126 671l-362 -671h488zM1031 613h-554l-331 -613h-96l885 1637l306 -1637h-95z" />
    <glyph glyph-name="Beta" unicode="&#x392;" horiz-adv-x="1066" 
d="M716 1600q123 0 195 -87t51 -210q-22 -124 -168 -231q108 -23 188 -132q131 -161 91 -389q-40 -227 -229 -393q-176 -154 -384 -157v-1h-310l282 1600h284zM417 1005l-161 -915h220v-1q169 11 312 137q157 137 190 325t-76.5 321t-297.5 133h-187zM506 1510l-72 -409h217
q76 7 138 56q71 56 87 146t-35 148.5t-141 58.5h-194z" />
    <glyph glyph-name="Gamma" unicode="&#x393;" horiz-adv-x="852" 
d="M1110 1600l-16 -91h-610l-266 -1509h-91l282 1600h701z" />
    <glyph glyph-name="uni0394" unicode="&#x394;" horiz-adv-x="1248" 
d="M34 1h-68l865 1599h109l308 -1600h-1214v1zM1135 90l-270 1397l-755 -1397h1025z" />
    <glyph glyph-name="Epsilon" unicode="&#x395;" horiz-adv-x="1075" 
d="M1232 1600l-16 -90h-710l-117 -665h710l-16 -90h-710l-117 -665h710l-16 -90h-800l282 1600h800z" />
    <glyph glyph-name="Zeta" unicode="&#x396;" horiz-adv-x="1327" 
d="M1288 1510h-872l16 90h1027l-1139 -1510h873l-16 -90h-1027z" />
    <glyph glyph-name="Eta" unicode="&#x397;" horiz-adv-x="1150" 
d="M366 717l-126 -717h-90l282 1600h90l-140 -793h670l140 793h90l-282 -1600h-90l126 717h-670z" />
    <glyph glyph-name="Theta" unicode="&#x398;" horiz-adv-x="1782" 
d="M1715 1382q198 -240 138 -580q-60 -341 -343 -581t-623 -240t-538 240t-138 581q60 340 343 580t622 240q341 0 539 -240zM1160 1531q-301 0 -552.5 -214t-304.5 -515q-54 -302 122.5 -516t477.5 -214q302 0 553.5 214t304.5 516q53 301 -123 515t-478 214zM588 847h905
l-16 -90h-905z" />
    <glyph glyph-name="Iota" unicode="&#x399;" 
d="M542 1600l-282 -1600h-90l282 1600h90z" />
    <glyph glyph-name="Kappa" unicode="&#x39a;" horiz-adv-x="1097" 
d="M377 775l-137 -775h-90l282 1600h90l-120 -681l631 681h116l-593 -644l451 -956h-111l-412 884z" />
    <glyph glyph-name="Lambda" unicode="&#x39b;" horiz-adv-x="1291" 
d="M1014 703l-126 671l-362 -671h488zM1031 613h-554l-331 -613h-96l885 1637l306 -1637h-95z" />
    <glyph glyph-name="Mu" unicode="&#x39c;" horiz-adv-x="1707" 
d="M535 1600l418 -1040l783 1040h103l-5 -7l-281 -1593h-90l253 1437l-794 -1054l-425 1054l-253 -1437h-90l281 1593l-3 7h103z" />
    <glyph glyph-name="Nu" unicode="&#x39d;" horiz-adv-x="1311" 
d="M432 1600h99l571 -1423l251 1423h90l-282 -1600h-90l-578 1437l-253 -1437h-90z" />
    <glyph glyph-name="Xi" unicode="&#x39e;" horiz-adv-x="1245" 
d="M318 847h905l-16 -90h-905zM339 1601h1132l-16 -91h-1132zM73 91h1131l-15 -90h-1132z" />
    <glyph glyph-name="Omicron" unicode="&#x39f;" horiz-adv-x="1892" 
d="M1770 1382.5q198 -240.5 138 -580.5t-343 -580.5t-623 -240.5t-538 240.5t-138 580.5t343 580.5t623 240.5t538 -240.5zM1215 1531q-302 0 -553 -213.5t-304 -515.5t122.5 -516t477.5 -214t553.5 214t304.5 516t-123 515.5t-478 213.5z" />
    <glyph glyph-name="Pi" unicode="&#x3a0;" horiz-adv-x="1213" 
d="M463 1509l-266 -1509h-91l282 1600h1000l-282 -1600h-90l266 1509h-819z" />
    <glyph glyph-name="Rho" unicode="&#x3a1;" horiz-adv-x="1089" 
d="M338 555l-98 -555h-90l282 1600h420q179 -25 284 -153q126 -153 88 -369q-38 -217 -218 -370t-396 -153h-272zM506 1509l-152 -863h272q178 0 327 126.5t180 305.5q32 179 -72.5 305t-282.5 126h-272z" />
    <glyph glyph-name="Sigma" unicode="&#x3a3;" horiz-adv-x="1201" 
d="M309 1599h1147l-16 -91h-1050l460 -709l-710 -709h1050l-16 -90h-1147l23 131l684 668l-448 668z" />
    <glyph glyph-name="Tau" unicode="&#x3a4;" horiz-adv-x="1000" 
d="M811 1510l-266 -1510h-90l266 1510h-405l16 90h900l-16 -90h-405z" />
    <glyph glyph-name="Upsilon" unicode="&#x3a5;" horiz-adv-x="1291" 
d="M714 647l-382 953h103l342 -853l643 853h103l-719 -953l-114 -647h-90z" />
    <glyph glyph-name="Phi" unicode="&#x3a6;" horiz-adv-x="1786" 
d="M906 334l160 905q-308 -8 -506 -131q-213 -134 -246 -322t133 -320q154 -124 459 -132zM980 239l-41 -235h-91l42 235q-345 9 -522 160q-190 161 -150 388q40 228 287 388q230 150 578 159l46 264h91l-47 -264q346 -9 525 -159q188 -160 148 -388q-40 -227 -285 -388
q-232 -151 -581 -160zM1157 1239l-160 -905q309 8 508 132q212 132 245 320t-132 322q-155 123 -461 131z" />
    <glyph glyph-name="Chi" unicode="&#x3a7;" horiz-adv-x="1218" 
d="M50 0l662 879l-289 721h103l253 -632l477 632h103l-545 -721l354 -879h-103l-318 790l-595 -790h-102z" />
    <glyph glyph-name="Psi" unicode="&#x3a8;" horiz-adv-x="1826" 
d="M1017 352l-61 -348h-91l61 348q-344 9 -521 160q-179 161 -144 392l122 694h91l-123 -699q-33 -187 132 -320q155 -124 460 -132l203 1151h90l-202 -1151q309 8 507 132q213 133 246 325h6l122 694h91l-123 -700q-41 -226 -286 -386q-231 -151 -580 -160z" />
    <glyph glyph-name="uni03A9" unicode="&#x3a9;" horiz-adv-x="1593" 
d="M1087 1600q316 0 468 -223t85 -602q-49 -278 -234.5 -467t-313.5 -219h326l-16 -89h-536l16 89q225 50 421 225t247 461q60 342 -71 545.5t-411 203.5h-5q-280 0 -482.5 -203.5t-262.5 -545.5q-51 -286 83.5 -461t341.5 -225l-15 -89h-536l16 89h326q-118 30 -237 219
t-70 467q67 379 297.5 602t546.5 223h16z" />
    <glyph glyph-name="Iotadieresis" unicode="&#x3aa;" 
d="M542 1600l-282 -1600h-90l282 1600h90zM467 1922q22 -26 16 -63q-7 -38 -38 -64t-68 -26t-59 26t-15 64q6 37 37 63t68 26t59 -26zM767 1922q22 -26 16 -63q-7 -38 -38 -64t-68 -26t-59 26t-15 64q6 37 37 63t68 26t59 -26z" />
    <glyph glyph-name="Upsilondieresis" unicode="&#x3ab;" horiz-adv-x="1291" 
d="M714 647l-382 953h103l342 -853l643 853h103l-719 -953l-114 -647h-90zM898 1922q22 -26 16 -63q-7 -38 -38 -64t-68 -26t-59 26t-15 64q6 37 37 63t68 26t59 -26zM1198 1922q22 -26 16 -63q-7 -38 -38 -64t-68 -26t-59 26t-15 64q6 37 37 63t68 26t59 -26z" />
    <glyph glyph-name="alphatonos" unicode="&#x3ac;" horiz-adv-x="1315" 
d="M1151 234q-44 -53 -98 -101q-190 -161 -418 -161q-226 0 -359 161t-93 387q40 229 229.5 389.5t416.5 160.5q228 0 361 -160q40 -51 53 -154l111 226h89l-199 -491l26 -491h-89zM1110 842q-110 133 -298 133t-344.5 -133.5t-189.5 -321.5t76.5 -320t297.5 -132t345 132
q119 102 157 295q42 238 -44 347zM1064 1187l-278 -187h-84l196 187h166z" />
    <glyph glyph-name="epsilontonos" unicode="&#x3ad;" horiz-adv-x="853" 
d="M321.5 401q-73.5 -47 -90.5 -144q-13 -75 51 -128.5t184 -53.5q177 11 331 186l-27 -147q-157 -135 -321 -135q-148 0 -236 76.5t-64 213.5q24 135 201 232q-143 97 -117 243q24 137 135.5 195.5t259.5 58.5q161 0 276 -127l-22 -122q-94 154 -270 154q-120 0 -200 -37
t-94 -111q-19 -109 38 -155.5t93 -55.5h246l-15 -89h-247q-38 -7 -111.5 -54zM782 1187l-278 -187h-84l196 187h166z" />
    <glyph glyph-name="etatonos" unicode="&#x3ae;" horiz-adv-x="952" 
d="M327 762l-134 -762h-91l173 982h91l-11 -63q143 122 306 122q174 0 264 -109.5t63 -274.5l-181 -1032h-90l180 1023q23 126 -52 214t-200 88q-123 0 -229 -87q-57 -48 -89 -101zM868 1187l-278 -187h-84l196 187h166z" />
    <glyph glyph-name="iotatonos" unicode="&#x3af;" horiz-adv-x="417" 
d="M427 982l-174 -982h-89l173 982h90zM557 1187l-278 -187h-84l196 187h166z" />
    <glyph glyph-name="upsilondieresistonos" unicode="&#x3b0;" horiz-adv-x="1099" 
d="M553 -14q-184 0 -274 109t-64 275l108 612h90l-106 -604q-22 -125 53 -213q74 -89 207 -89q124 0 230.5 88.5t128.5 213.5l106 604h90l-108 -612q-32 -166 -160 -275t-301 -109zM1157 1600l-233 -187h-83l150 187h166zM1226.5 1518q15.5 -18 10.5 -43q-4 -27 -26 -45
t-47 -18q-26 0 -41.5 18t-10.5 45q4 25 26 43t48 18q25 0 40.5 -18zM796.5 1518q15.5 -18 10.5 -43q-4 -27 -26 -45t-47 -18q-26 0 -41.5 18t-10.5 45q4 25 26 43t48 18q25 0 40.5 -18z" />
    <glyph glyph-name="alpha" unicode="&#x3b1;" horiz-adv-x="1315" 
d="M1151 234q-44 -53 -98 -101q-190 -161 -418 -161q-226 0 -359 161t-93 387q40 229 229.5 389.5t416.5 160.5q228 0 361 -160q40 -51 53 -154l111 226h89l-199 -491l26 -491h-89zM1110 842q-110 133 -298 133t-344.5 -133.5t-189.5 -321.5t76.5 -320t297.5 -132t345 132
q119 102 157 295q42 238 -44 347z" />
    <glyph glyph-name="beta" unicode="&#x3b2;" horiz-adv-x="1031" 
d="M749 1621q143 0 225 -100t57 -239q-25 -143 -115 -224.5t-162 -108.5q137 -47 214 -149q111 -147 76 -344q-35 -198 -199.5 -338t-362.5 -140q-100 0 -180 37l46 91q66 -33 151 -33q160 0 291.5 111.5t159.5 271.5q28 158 -60 277t-300 160l-74 2l16 89q93 1 156.5 24.5
t146 97.5t100.5 176q18 103 -41 174t-161 71q-101 0 -182 -75t-104 -203l-285 -1620h-91l288 1631q28 162 138.5 261.5t251.5 99.5z" />
    <glyph glyph-name="gamma" unicode="&#x3b3;" horiz-adv-x="1011" 
d="M457 0l-239 982h105l205 -841l506 841h105l-586 -977l-67 -380h-95z" />
    <glyph glyph-name="delta" unicode="&#x3b4;" horiz-adv-x="1260" 
d="M268 520q-33 -188 76.5 -320t297.5 -132t344 132t189 320q34 188 -75.5 321.5t-297.5 133.5t-344.5 -133.5t-189.5 -321.5zM1198.5 886q112.5 -137 71.5 -366q-39 -226 -228 -387t-417 -161q-226 0 -359 161t-93 387q40 229 230 390q167 141 432 169l-336 515h712
l-16 -90h-499q215 -387 302.5 -434t200 -184z" />
    <glyph glyph-name="epsilon" unicode="&#x3b5;" horiz-adv-x="853" 
d="M321.5 401q-73.5 -47 -90.5 -144q-13 -75 51 -128.5t184 -53.5q177 11 331 186l-27 -147q-157 -135 -321 -135q-148 0 -236 76.5t-64 213.5q24 135 201 232q-143 97 -117 243q24 137 135.5 195.5t259.5 58.5q161 0 276 -127l-22 -122q-94 154 -270 154q-120 0 -200 -37
t-94 -111q-19 -109 38 -155.5t93 -55.5h246l-15 -89h-247q-38 -7 -111.5 -54z" />
    <glyph glyph-name="zeta" unicode="&#x3b6;" horiz-adv-x="894" 
d="M1193 1570q-724 -617 -887 -1051q-25 -69 -36 -127q-54 -310 329 -322q278 -9 242 -216q-66 -181 -237 -187l17 94q106 0 132 105l1 6q18 106 -164 106q-479 11 -411 399q9 46 26 98q148 484 822 1034h-606l16 91h761z" />
    <glyph glyph-name="eta" unicode="&#x3b7;" horiz-adv-x="952" 
d="M327 762l-134 -762h-91l173 982h91l-11 -63q143 122 306 122q174 0 264 -109.5t63 -274.5l-181 -1032h-90l180 1023q23 126 -52 214t-200 88q-123 0 -229 -87q-57 -48 -89 -101z" />
    <glyph glyph-name="theta" unicode="&#x3b8;" horiz-adv-x="1279" 
d="M1232 786q60 340 -39.5 529t-287.5 189t-354 -189t-226 -529t39.5 -529t287.5 -189t354 189t226 529zM1327 786q-66 -379 -264.5 -596.5t-426.5 -217.5q-227 0 -350 217.5t-56 596.5q66 378 266 596t427 218q228 0 349.5 -218t54.5 -596zM480 831h614l-16 -90h-614z" />
    <glyph glyph-name="iota" unicode="&#x3b9;" horiz-adv-x="417" 
d="M427 982l-174 -982h-89l173 982h90z" />
    <glyph glyph-name="kappa" unicode="&#x3ba;" horiz-adv-x="835" 
d="M878 982l-295 -300l265 -682h-110l-227 610l-239 -222l-68 -388h-91l173 982h91l-80 -450l466 450h115z" />
    <glyph glyph-name="lambda" unicode="&#x3bb;" horiz-adv-x="961" 
d="M673 798l231 -798h-100l-203 686l-443 -686h-101l514 800l-175 601h100l176 -603h1z" />
    <glyph glyph-name="uni03BC" unicode="&#x3bc;" horiz-adv-x="994" 
d="M801 111l-12 -12q-129 -108 -302 -108q-161 0 -255 110l-83 -476h-91l239 1357h91l-129 -731q12 -43 45 -84q74 -86 199 -86q123 0 230 89q68 57 101 130l121 682h88l-173 -982h-89z" />
    <glyph glyph-name="nu" unicode="&#x3bd;" horiz-adv-x="1064" 
d="M561 164l522 818h104l-660 -1009l-304 1009h104z" />
    <glyph glyph-name="xi" unicode="&#x3be;" horiz-adv-x="1011" 
d="M254 135q-118 123 -83 321q35 197 197 344q113 102 267 149q-62 27 -125.5 97.5t-38.5 212.5q78 339 495 340l246 1l-14 -83h-213q-361 0 -405 -250l-2 -8q-17 -102 35.5 -164.5t163.5 -109.5l319 -1l-16 -89l-301 2q-226 -45 -356 -164t-158 -277q-28 -160 67 -254.5
t396 -129t262 -252.5l-4 -23q-58 -135 -240 -152l19 105q115 0 137 82l1 6q22 129 -254.5 151.5t-394.5 145.5z" />
    <glyph glyph-name="omicron" unicode="&#x3bf;" horiz-adv-x="1278" 
d="M828 1071q228 0 360 -161t92 -389q-40 -227 -229 -388t-417 -161q-227 0 -359.5 161t-92.5 388q40 228 229.5 389t416.5 161zM466.5 842q-156.5 -133 -189.5 -321t76.5 -320.5t297.5 -132.5t344.5 132.5t189.5 320.5t-76.5 321t-297.5 133t-344.5 -133z" />
    <glyph glyph-name="pi" unicode="&#x3c0;" horiz-adv-x="1262" 
d="M606 891l-157 -891h-89l157 891h-292l16 91h1126l-16 -91h-292l-157 -891h-90l158 891h-364z" />
    <glyph glyph-name="rho" unicode="&#x3c1;" horiz-adv-x="1256" 
d="M219 654q72 163 226.5 289t382.5 126q227 0 359.5 -160t92.5 -389q-40 -226 -229 -387t-417 -161q-227 0 -359 161q-26 32 -45 66l-101 -574h-91zM303 614l-33 -188q2 -129 83 -226q110 -133 298 -133t344.5 132.5t189.5 320.5t-76.5 321.5t-297.5 133.5t-345 -133
q-115 -99 -163 -228z" />
    <glyph glyph-name="sigma1" unicode="&#x3c2;" horiz-adv-x="1024" 
d="M299.5 141q-141.5 117 -106.5 315q35 197 197 344q179 165 512 185l216 -1l-16 -89h-165q-311 -9 -466.5 -145t-183.5 -294q-28 -160 91 -248.5t337 -140t190 -213.5l-4 -23q-62 -158 -244 -175l19 105q115 0 141 105l1 6q12 72 -182.5 112t-336 157z" />
    <glyph glyph-name="sigma" unicode="&#x3c3;" horiz-adv-x="1355" 
d="M280 520q-33 -188 76.5 -320t297.5 -132t344 132t189 320q34 188 -75.5 321.5t-297.5 133.5t-344.5 -133.5t-189.5 -321.5zM1205 891q116 -155 77 -371q-39 -226 -228 -387t-417 -161q-226 0 -359 161t-93 387q40 229 229.5 389.5t416.5 160.5q169 0 285 -88h333l-16 -91
h-228z" />
    <glyph glyph-name="tau" unicode="&#x3c4;" horiz-adv-x="1040" 
d="M721 891l-157 -891h-89l157 891h-405l16 91h900l-16 -91h-406z" />
    <glyph glyph-name="upsilon" unicode="&#x3c5;" horiz-adv-x="1099" 
d="M553 -14q-184 0 -274 109t-64 275l108 612h90l-106 -604q-22 -125 53 -213q74 -89 207 -89q124 0 230.5 88.5t128.5 213.5l106 604h90l-108 -612q-32 -166 -160 -275t-301 -109z" />
    <glyph glyph-name="phi" unicode="&#x3c6;" horiz-adv-x="1280" 
d="M604 -17q-204 11 -326 161q-133 160 -93 387q40 228 230 389q63 54 94 71l17 -96q-28 -21 -55 -43q-157 -134 -190 -321q-33 -188 76 -321q106 -130 250 -130h8l148 841q36 106 140 106q72 0 179 -51q258 -126 202 -445q-40 -227 -229 -387q-166 -142 -360 -160l-62 -353
h-91zM708 98q197 33 290 111q157 134 191 322q41 233 -136 346q-91 57 -142 57t-64 -55z" />
    <glyph glyph-name="chi" unicode="&#x3c7;" horiz-adv-x="1095" 
d="M596 269l-502 -638h-102l566 722l-271 629h103l235 -544l427 544h103l-494 -629l312 -722h-102z" />
    <glyph glyph-name="psi" unicode="&#x3c8;" horiz-adv-x="1319" 
d="M706 -17l-60 -341h-98l61 341q-199 13 -320 161q-133 160 -93 387l80 452h96l-80 -452q-33 -188 76 -321q106 -130 250 -130h8l159 903h97l-159 -903h8q144 0 296 130q155 133 188 321l80 452h96l-79 -452q-40 -227 -230 -387q-172 -148 -376 -161z" />
    <glyph glyph-name="omega" unicode="&#x3c9;" horiz-adv-x="1539" 
d="M771 223h-6l93 529h89l-93 -529h-9q6 -12 12 -23q4 -8 10 -15q36 -130 190 -130q153 0 256 119t148 375q42 233 -46 417l3 16h88q89 -216 51 -433q-51 -284 -180 -430.5t-323 -146.5q-191 0 -260 159q-126 -159 -317 -159q-193 0 -272 146.5t-29 430.5q39 220 211 433h91
l-2 -9q-160 -170 -205 -424q-45 -256 16 -375t215 -119t237 130l14 16q10 10 18 22z" />
    <glyph glyph-name="iotadieresis" unicode="&#x3ca;" horiz-adv-x="417" 
d="M427 982l-174 -982h-89l173 982h90zM265 1304q22 -26 16 -63q-7 -38 -38 -64t-68 -26t-59 26t-15 64q6 37 37 63t68 26t59 -26zM565 1304q22 -26 16 -63q-7 -38 -38 -64t-68 -26t-59 26t-15 64q6 37 37 63t68 26t59 -26z" />
    <glyph glyph-name="upsilondieresis" unicode="&#x3cb;" horiz-adv-x="1099" 
d="M553 -14q-184 0 -274 109t-64 275l108 612h90l-106 -604q-22 -125 53 -213q74 -89 207 -89q124 0 230.5 88.5t128.5 213.5l106 604h90l-108 -612q-32 -166 -160 -275t-301 -109zM577 1304q22 -26 16 -63q-7 -38 -38 -64t-68 -26t-59 26t-15 64q6 37 37 63t68 26t59 -26z
M877 1304q22 -26 16 -63q-7 -38 -38 -64t-68 -26t-59 26t-15 64q6 37 37 63t68 26t59 -26z" />
    <glyph glyph-name="omicrontonos" unicode="&#x3cc;" horiz-adv-x="1278" 
d="M828 1071q228 0 360 -161t92 -389q-40 -227 -229 -388t-417 -161q-227 0 -359.5 161t-92.5 388q40 228 229.5 389t416.5 161zM466.5 842q-156.5 -133 -189.5 -321t76.5 -320.5t297.5 -132.5t344.5 132.5t189.5 320.5t-76.5 321t-297.5 133t-344.5 -133zM1073 1187
l-278 -187h-84l196 187h166z" />
    <glyph glyph-name="upsilontonos" unicode="&#x3cd;" horiz-adv-x="1099" 
d="M553 -14q-184 0 -274 109t-64 275l108 612h90l-106 -604q-22 -125 53 -213q74 -89 207 -89q124 0 230.5 88.5t128.5 213.5l106 604h90l-108 -612q-32 -166 -160 -275t-301 -109zM868 1187l-278 -187h-84l196 187h166z" />
    <glyph glyph-name="omegatonos" unicode="&#x3ce;" horiz-adv-x="1539" 
d="M771 223h-6l93 529h89l-93 -529h-9q6 -12 12 -23q4 -8 10 -15q36 -130 190 -130q153 0 256 119t148 375q42 233 -46 417l3 16h88q89 -216 51 -433q-51 -284 -180 -430.5t-323 -146.5q-191 0 -260 159q-126 -159 -317 -159q-193 0 -272 146.5t-29 430.5q39 220 211 433h91
l-2 -9q-160 -170 -205 -424q-45 -256 16 -375t215 -119t237 130l14 16q10 10 18 22zM1111 1187l-278 -187h-84l196 187h166z" />
    <glyph glyph-name="afii10023" unicode="&#x401;" horiz-adv-x="1075" 
d="M1232 1600l-16 -90h-710l-117 -665h710l-16 -90h-710l-117 -665h710l-16 -90h-800l282 1600h800zM802 1922q22 -26 16 -63q-7 -38 -38 -64t-68 -26t-59 26t-15 64q6 37 37 63t68 26t59 -26zM1102 1922q22 -26 16 -63q-7 -38 -38 -64t-68 -26t-59 26t-15 64q6 37 37 63
t68 26t59 -26z" />
    <glyph glyph-name="afii10051" unicode="&#x402;" horiz-adv-x="1637" 
d="M661 561l-99 -561h-89l266 1509h-405l16 91h900l-16 -91h-406l-124 -704q34 37 75 69q175 139 408 139t366 -139q128 -112 77 -403q-52 -294 -222 -416q-49 -37 -102 -65l-48 65q41 23 82 53q154 117 197 351q39 233 -74 350q-115 119 -301 119q-188 0 -334 -119
q-132 -108 -167 -248z" />
    <glyph glyph-name="afii10052" unicode="&#x403;" horiz-adv-x="975" 
d="M1314 1600l-16 -91h-610l-266 -1509h-91l282 1600h701zM747 1805l-278 -187h-84l196 187h166z" />
    <glyph glyph-name="afii10053" unicode="&#x404;" horiz-adv-x="1757" 
d="M1337 847l-16 -90h-985q-34 -273 130 -471q176 -214 477 -214q302 0 553 214q135 114 213 255h98q-90 -178 -256 -319q-284 -241 -624 -241t-538 240t-138 581q60 340 343 580t622 240q341 0 539 -239q58 -72 93 -150h-111q-25 43 -59 84q-176 214 -478 214
q-301 0 -553 -214q-233 -198 -295 -470h985z" />
    <glyph glyph-name="afii10054" unicode="&#x405;" horiz-adv-x="1042" 
d="M704 886q-161 57 -242.5 156t-56.5 240q24 138 141 237.5t258 99.5q140 0 222 -99q46 -53 55 -119l-87 -32q-9 49 -43 90q-60 72 -163 72t-189 -72.5t-104 -176.5q-18 -103 42 -176q56 -67 166 -123q181 -62 289 -193q115 -138 80 -334q-34 -197 -197.5 -336t-359.5 -139
t-311 140q-91 111 -87 258l90 31q-9 -130 71 -227q93 -113 252 -113q160 0 293 113t161 273q29 159 -65 272q-81 99 -215 158z" />
    <glyph glyph-name="afii10055" unicode="&#x406;" 
d="M542 1600l-282 -1600h-90l282 1600h90z" />
    <glyph glyph-name="afii10056" unicode="&#x407;" 
d="M542 1600l-282 -1600h-90l282 1600h90zM467 1922q22 -26 16 -63q-7 -38 -38 -64t-68 -26t-59 26t-15 64q6 37 37 63t68 26t59 -26zM767 1922q22 -26 16 -63q-7 -38 -38 -64t-68 -26t-59 26t-15 64q6 37 37 63t68 26t59 -26z" />
    <glyph glyph-name="afii10057" unicode="&#x408;" horiz-adv-x="857" 
d="M756 304q-27 -152 -121 -232q-100 -86 -221 -86t-191 85.5t-52 187.5l63 23q1 -108 56 -162q46 -46 114 -46q12 0 26 2q83 0 153 59q62 53 85 179l226 1286h90z" />
    <glyph glyph-name="afii10058" unicode="&#x409;" horiz-adv-x="2248" 
d="M1162 0l267 1509h-820l-216 -1226q-21 -122 -118.5 -205.5t-218.5 -83.5l16 91q83 0 150 56q65 56 83 153l230 1306h1000l-133 -757h524q165 -4 252.5 -123t57.5 -292q-33 -185 -162.5 -305t-296.5 -123h-615zM1386 752l-117 -662h516q124 0 231 101.5t130 234.5
q22 125 -49 225.5t-195 100.5h-516z" />
    <glyph glyph-name="afii10059" unicode="&#x40a;" horiz-adv-x="2110" 
d="M1023 0l133 755h-819l-133 -755h-91l282 1600h91l-133 -755h819l133 755h90l-133 -757h534q166 -4 253.5 -123t56.5 -292q-32 -185 -162 -305t-297 -123h-624zM1246 752l-117 -662h526q125 0 231.5 101.5t130.5 234.5q22 125 -49 225.5t-196 100.5h-526z" />
    <glyph glyph-name="afii10060" unicode="&#x40b;" horiz-adv-x="1635" 
d="M652 561l-99 -561h-89l266 1509h-405l16 91h900l-16 -91h-406l-124 -704q34 37 75 69q175 139 408 139t354 -139q120 -138 68 -432l-78 -442h-99l81 451q42 239 -60 364q-98 118 -275 118h-15q-189 -5 -335 -124q-131 -108 -167 -248z" />
    <glyph glyph-name="afii10061" unicode="&#x40c;" horiz-adv-x="1097" 
d="M558 775l-137 -775h-90l282 1600h90l-120 -681l631 681h116l-593 -644l451 -956h-111l-412 884zM724 1805l-278 -187h-84l196 187h166z" />
    <glyph glyph-name="afii10062" unicode="&#x40e;" horiz-adv-x="1275" 
d="M379 64q-113 -77 -199 -77q-56 0 -101 32l58 79q45 -27 90 -27q21 0 41 6q64 17 274 270l182 231l-487 1022h103l448 -937l711 937h103q-1038 -1409 -1223 -1536zM504 1856q-2 -53 30 -91q39 -48 107 -48q67 0 124 48q45 38 62 91h73q-23 -83 -94 -143q-80 -69 -178 -69
q-99 0 -155 69q-53 66 -43 143h74z" />
    <glyph glyph-name="afii10145" unicode="&#x40f;" horiz-adv-x="1275" 
d="M589 1h-487l282 1599h90l-266 -1509h891l266 1509h90l-282 -1600h-495l-66 -375h-90z" />
    <glyph glyph-name="afii10017" unicode="&#x410;" horiz-adv-x="1291" 
d="M1014 703l-126 671l-362 -671h488zM1031 613h-554l-331 -613h-96l885 1637l306 -1637h-95z" />
    <glyph glyph-name="afii10018" unicode="&#x411;" horiz-adv-x="1166" 
d="M267 845l133 755h701l-16 -91h-610l-117 -664h517q166 -3 253.5 -122.5t56.5 -292.5q-32 -185 -162 -305t-297 -123h-517v-2h-91l1 2h-6l16 91h6l116 662h-5l16 90h5zM342 755l-117 -662h509q125 0 231.5 101t130.5 235q22 124 -49.5 225t-195.5 101h-509z" />
    <glyph glyph-name="afii10019" unicode="&#x412;" horiz-adv-x="1066" 
d="M716 1600q123 0 195 -87t51 -210q-22 -124 -168 -231q108 -23 188 -132q131 -161 91 -389q-40 -227 -229 -393q-176 -154 -384 -157v-1h-310l282 1600h284zM417 1005l-161 -915h220v-1q169 11 312 137q157 137 190 325t-76.5 321t-297.5 133h-187zM506 1510l-72 -409h217
q76 7 138 56q71 56 87 146t-35 148.5t-141 58.5h-194z" />
    <glyph glyph-name="afii10020" unicode="&#x413;" horiz-adv-x="852" 
d="M1110 1600l-16 -91h-610l-266 -1509h-91l282 1600h701z" />
    <glyph glyph-name="afii10021" unicode="&#x414;" horiz-adv-x="1323" 
d="M1059 98l249 1411h-579q5 -162 -28 -348q-120 -681 -544 -1063h902zM1150 98h89l-84 -473h-89l66 375h-1020l-66 -375h-89l83 473h11q447 428 559 1063q33 188 20 439h784z" />
    <glyph glyph-name="afii10022" unicode="&#x415;" horiz-adv-x="1075" 
d="M1232 1600l-16 -90h-710l-117 -665h710l-16 -90h-710l-117 -665h710l-16 -90h-800l282 1600h800z" />
    <glyph glyph-name="afii10024" unicode="&#x416;" horiz-adv-x="1915" 
d="M1151 835l669 765h109l-521 -601l523 -999h-109l-485 924l-214 -245l-120 -679h-91l120 679l-128 245l-810 -924h-110l875 999l-309 601h110l399 -765l135 765h92z" />
    <glyph glyph-name="afii10025" unicode="&#x417;" horiz-adv-x="1045" 
d="M685 760h-378l16 90h378q152 0 252.5 95.5t127.5 249.5t-65 241.5t-234 87.5q-234 0 -434 -131l15 88q193 127 411 127q204 0 320 -109.5t84 -291.5q-49 -282 -264 -402q176 -97 123 -401q-33 -182 -187.5 -292.5t-359.5 -110.5q-220 0 -364 135l20 113
q107 -153 361 -153q143 0 276 82t160 236q28 154 -39 250t-219 96z" />
    <glyph glyph-name="afii10026" unicode="&#x418;" horiz-adv-x="1515" 
d="M1674 1600l-283 -1600h-90l256 1455l-1295 -1455h-139l282 1600h91l-263 -1490l1326 1490h115z" />
    <glyph glyph-name="afii10027" unicode="&#x419;" horiz-adv-x="1515" 
d="M1674 1600l-283 -1600h-90l256 1455l-1295 -1455h-139l282 1600h91l-263 -1490l1326 1490h115zM765 1856q-2 -53 30 -91q39 -48 107 -48q67 0 124 48q45 38 62 91h73q-23 -83 -94 -143q-80 -69 -178 -69q-99 0 -155 69q-53 66 -43 143h74z" />
    <glyph glyph-name="afii10028" unicode="&#x41a;" horiz-adv-x="1097" 
d="M377 775l-137 -775h-90l282 1600h90l-120 -681l631 681h116l-593 -644l451 -956h-111l-412 884z" />
    <glyph glyph-name="afii10029" unicode="&#x41b;" horiz-adv-x="1359" 
d="M393 283q-21 -122 -118.5 -205.5t-218.5 -83.5l16 91q83 0 150 56q65 56 83 153l230 1306h1000l-282 -1600h-91l267 1509h-820z" />
    <glyph glyph-name="afii10030" unicode="&#x41c;" horiz-adv-x="1707" 
d="M535 1600l418 -1040l783 1040h103l-5 -7l-281 -1593h-90l253 1437l-794 -1054l-425 1054l-253 -1437h-90l281 1593l-3 7h103z" />
    <glyph glyph-name="afii10031" unicode="&#x41d;" horiz-adv-x="1150" 
d="M366 717l-126 -717h-90l282 1600h90l-140 -793h670l140 793h90l-282 -1600h-90l126 717h-670z" />
    <glyph glyph-name="afii10032" unicode="&#x41e;" horiz-adv-x="1892" 
d="M1770 1382.5q198 -240.5 138 -580.5t-343 -580.5t-623 -240.5t-538 240.5t-138 580.5t343 580.5t623 240.5t538 -240.5zM1215 1531q-302 0 -553 -213.5t-304 -515.5t122.5 -516t477.5 -214t553.5 214t304.5 516t-123 515.5t-478 213.5z" />
    <glyph glyph-name="afii10033" unicode="&#x41f;" horiz-adv-x="1213" 
d="M463 1509l-266 -1509h-91l282 1600h1000l-282 -1600h-90l266 1509h-819z" />
    <glyph glyph-name="afii10034" unicode="&#x420;" horiz-adv-x="1089" 
d="M338 555l-98 -555h-90l282 1600h420q179 -25 284 -153q126 -153 88 -369q-38 -217 -218 -370t-396 -153h-272zM506 1509l-152 -863h272q178 0 327 126.5t180 305.5q32 179 -72.5 305t-282.5 126h-272z" />
    <glyph glyph-name="afii10035" unicode="&#x421;" horiz-adv-x="1595" 
d="M1472 255l57 -61q-271 -213 -588 -213q-340 0 -537.5 239.5t-137.5 579.5q60 339 341.5 579t621.5 240q317 0 514 -213l-79 -62q-174 183 -451 183q-301 0 -551.5 -213t-303.5 -514q-53 -302 122.5 -515t476.5 -213q277 0 515 183z" />
    <glyph glyph-name="afii10036" unicode="&#x422;" horiz-adv-x="1000" 
d="M811 1510l-266 -1510h-90l266 1510h-405l16 90h900l-16 -90h-405z" />
    <glyph glyph-name="afii10037" unicode="&#x423;" horiz-adv-x="1275" 
d="M379 64q-113 -77 -199 -77q-56 0 -101 32l58 79q45 -27 90 -27q21 0 41 6q64 17 274 270l182 231l-487 1022h103l448 -937l711 937h103q-1038 -1409 -1223 -1536z" />
    <glyph glyph-name="afii10038" unicode="&#x424;" horiz-adv-x="1601" 
d="M824 392l139 787q-268 -8 -442 -114q-188 -116 -217 -279q-29 -164 118 -279q137 -107 402 -115zM897 293l-51 -289h-90l51 289q-306 9 -465 145q-171 145 -135 348q36 205 258 350q206 133 516 142l56 320h90l-56 -320q308 -9 467 -142q170 -145 134 -350
q-36 -203 -257 -348q-206 -136 -518 -145zM1053 1179l-138 -787q269 8 443 115q188 115 217 279q29 163 -118 279q-137 106 -404 114z" />
    <glyph glyph-name="afii10039" unicode="&#x425;" horiz-adv-x="1218" 
d="M50 0l662 879l-289 721h103l253 -632l477 632h103l-545 -721l354 -879h-103l-318 790l-595 -790h-102z" />
    <glyph glyph-name="afii10040" unicode="&#x426;" horiz-adv-x="1292" 
d="M1180 0h-1067l282 1600h91l-267 -1510h891l266 1510h91l-265 -1503h85l-84 -472h-89z" />
    <glyph glyph-name="afii10041" unicode="&#x427;" horiz-adv-x="1242" 
d="M1243 1040l99 560h90l-282 -1600h-90l140 795q-33 -36 -74 -68q-175 -139 -408 -139t-353 139q-121 137 -69 431l78 442h98l-80 -451q-43 -238 60 -363q98 -119 274 -119h17q188 6 333 125q131 107 167 248z" />
    <glyph glyph-name="afii10042" unicode="&#x428;" horiz-adv-x="1826" 
d="M395 1600h90l-266 -1509h665l266 1509h90l-266 -1509h664l266 1509h91l-282 -1599h-1600z" />
    <glyph glyph-name="afii10043" unicode="&#x429;" horiz-adv-x="1828" 
d="M1708 1h-1595l282 1599h90l-266 -1509h665l266 1509h90l-266 -1509h664l266 1509h91l-265 -1502h85l-83 -473h-90z" />
    <glyph glyph-name="afii10044" unicode="&#x42a;" horiz-adv-x="1509" 
d="M555 843l118 666h-384l16 91h474l-133 -757h521q166 -4 253.5 -123t57.5 -292q-33 -185 -163 -305t-296 -123h-614l16 90h1l117 662h-1l16 91h1zM630 752l-117 -662h514q124 0 230.5 101.5t130.5 234.5q22 125 -49 225.5t-196 100.5h-513z" />
    <glyph glyph-name="afii10045" unicode="&#x42b;" horiz-adv-x="1579" 
d="M1758 1600l-282 -1600h-90l282 1600h90zM105 0l282 1600h91l-134 -757h532q166 -4 253.5 -123t56.5 -292q-32 -185 -162 -305t-297 -123h-622zM328 752l-117 -662h524q125 0 231.5 101.5t130.5 234.5q22 125 -49 225.5t-196 100.5h-524z" />
    <glyph glyph-name="afii10046" unicode="&#x42c;" horiz-adv-x="1167" 
d="M105 0l282 1600h91l-134 -757h532q166 -4 253.5 -123t56.5 -292q-32 -185 -162 -305t-297 -123h-622zM328 752l-117 -662h524q125 0 231.5 101.5t130.5 234.5q22 125 -49 225.5t-196 100.5h-524z" />
    <glyph glyph-name="afii10047" unicode="&#x42d;" horiz-adv-x="1774" 
d="M1728 847q34 272 -129 470q-177 214 -478 214q-302 0 -553 -214q-48 -41 -89 -84h-112q64 78 147 150q283 239 624 239q339 0 537 -240t138 -580q-60 -341 -342.5 -581t-622.5 -240t-539 241q-118 141 -144 319h97q29 -141 124 -255q176 -214 478 -214q301 0 553 214
q233 198 296 471h-986l16 90h985z" />
    <glyph glyph-name="afii10048" unicode="&#x42e;" horiz-adv-x="2309" 
d="M1688 1531q-301 0 -553 -214t-305 -515q-53 -302 123 -516t477 -214q302 0 554 214t305 516q53 301 -123 515t-478 214zM731 755h-394l-133 -755h-91l282 1600h91l-133 -755h394q70 312 335 538q282 239 622 239t538 -240t139 -580q-61 -341 -343.5 -581t-623.5 -240
q-339 0 -537 241q-184 223 -146 533z" />
    <glyph glyph-name="afii10049" unicode="&#x42f;" horiz-adv-x="1088" 
d="M878 1508q-177 0 -326 -125.5t-180 -304.5q-32 -180 72.5 -306t281.5 -126h272l152 862h-272zM229 0h-111l469 569q-131 33 -219 139q-125 153 -87 370q38 215 218 369q150 128 338 153h420l-282 -1600h-91l98 554h-272q-13 0 -27 1z" />
    <glyph glyph-name="afii10065" unicode="&#x430;" horiz-adv-x="1360" 
d="M1210 0h-90l35 200q-32 -35 -68 -67q-190 -161 -418 -161q-227 0 -359.5 161t-92.5 388q40 228 229.5 389t416.5 161q228 0 361 -161q25 -32 45 -67l24 139h90zM1196 432l32 178q-2 132 -84 232q-110 133 -298 133t-344.5 -133t-189.5 -321t76.5 -320.5t297.5 -132.5
t345 133q117 100 165 231z" />
    <glyph glyph-name="afii10066" unicode="&#x431;" horiz-adv-x="1333" 
d="M341 520q-33 -188 76.5 -320t297.5 -132t344 132t190 320q33 188 -76.5 321.5t-297.5 133.5t-344.5 -133.5t-189.5 -321.5zM338 755q55 83 138 155q189 160 416 160q228 0 360 -160.5t92 -389.5q-40 -226 -228.5 -387t-417.5 -161q-226 0 -358 161q-119 143 -101 338h-7
q-5 190 23 349q56 318 242 521q230 251 474 251q51 0 101 -10q135 -29 222 -29q105 0 140 42l-16 -89q-34 -40 -133 -40q-82 0 -212 29q-51 11 -100 11q-226 0 -424 -232q-153 -178 -201 -450q-6 -34 -10 -69z" />
    <glyph glyph-name="afii10067" unicode="&#x432;" horiz-adv-x="854" 
d="M298 542h279l1 1q98 4 160 57t73 118t-32 117.5t-140 57.5v1h-279zM280 442l-62 -352h280v1q98 5 160 57.5t73 117.5q12 65 -31.5 118t-139.5 57v1h-280zM287 984h372v-1q129 -6 194.5 -85.5t48.5 -179.5l-1 -1q-17 -99 -110 -179q-34 -28 -70 -46q30 -18 54 -45
q65 -81 47 -180v-1q-18 -100 -111.5 -179.5t-225.5 -85.5v-1h-372z" />
    <glyph glyph-name="afii10068" unicode="&#x433;" horiz-adv-x="687" 
d="M360 891l-158 -891h-89l173 982h495l-16 -91h-405z" />
    <glyph glyph-name="afii10069" unicode="&#x434;" horiz-adv-x="1074" 
d="M956 98h79l-83 -473h-90l66 375h-782l-66 -375h-89l83 473h81q2 3 5 4q250 212 323 628q15 85 20 161q2 47 1 91h608zM271 90h594l141 801h-410q-6 -76 -21 -161q-71 -405 -304 -640z" />
    <glyph glyph-name="afii10070" unicode="&#x435;" horiz-adv-x="1177" 
d="M370 184q106 -116 281 -116q188 0 345 133q20 17 38 35l89 -34q-33 -36 -71 -69q-190 -161 -418 -161q-227 0 -359.5 161t-92.5 389q40 227 229.5 388t416.5 161q195 0 320 -117q21 -20 41 -44q7 -9 13 -18l-80 -68zM1067 885q-101 90 -256 90q-187 0 -343.5 -132.5
t-189.5 -320.5q-27 -155 42 -272z" />
    <glyph glyph-name="afii10072" unicode="&#x436;" horiz-adv-x="1352" 
d="M815 533l464 449h116l-295 -300l265 -682h-111l-226 610l-238 -221l-69 -389h-91l68 389l-160 221l-441 -610h-111l506 682l-189 300h115l306 -449l79 449h92z" />
    <glyph glyph-name="afii10073" unicode="&#x437;" horiz-adv-x="856" 
d="M702 494q28 -16 52 -36q90 -79 70 -190q-19 -111 -137.5 -190t-265.5 -79t-237 79t-70 190l1 10h97l-2 -10q-15 -81 51 -138.5t173 -57.5q108 0 194 57.5t100 138.5t-51 139q-40 33 -93 48h-226l16 89h258q40 15 76 39q85 56 100 138q14 81 -51.5 138t-173.5 57
q-107 0 -193 -56q-75 -51 -96 -119h-96q26 98 133 170q118 79 265 79t237 -79.5t71 -189.5q-20 -111 -138 -190q-30 -21 -64 -37z" />
    <glyph glyph-name="afii10074" unicode="&#x438;" horiz-adv-x="1017" 
d="M275 982h90l-147 -832l775 832h96l-173 -982h-90l148 839l-782 -838l-1 -1h-89z" />
    <glyph glyph-name="afii10075" unicode="&#x439;" horiz-adv-x="1017" 
d="M275 982h90l-147 -832l775 832h96l-173 -982h-90l148 839l-782 -838l-1 -1h-89zM462 1238q-2 -53 30 -91q39 -48 107 -48q67 0 124 48q45 38 62 91h73q-23 -83 -94 -143q-80 -69 -178 -69q-99 0 -155 69q-53 66 -43 143h74z" />
    <glyph glyph-name="afii10076" unicode="&#x43a;" horiz-adv-x="835" 
d="M878 982l-295 -300l265 -682h-110l-227 610l-239 -222l-68 -388h-91l173 982h91l-80 -450l466 450h115z" />
    <glyph glyph-name="afii10077" unicode="&#x43b;" horiz-adv-x="1114" 
d="M1185 982l-173 -982h-89l157 891h-655l-117 -665q-38 -210 -251 -227l16 89q123 14 145 136l133 758h834z" />
    <glyph glyph-name="afii10078" unicode="&#x43c;" horiz-adv-x="1108" 
d="M579 134l516 848h96l-173 -982h-90l134 760l-463 -760h-89l-196 760l-134 -760h-89l173 982h96z" />
    <glyph glyph-name="afii10079" unicode="&#x43d;" horiz-adv-x="1015" 
d="M925 0h-89l85 486h-655l-86 -486h-89l173 982h90l-72 -405h655l72 405h89z" />
    <glyph glyph-name="afii10080" unicode="&#x43e;" horiz-adv-x="1278" 
d="M828 1071q228 0 360 -161t92 -389q-40 -227 -229 -388t-417 -161q-227 0 -359.5 161t-92.5 388q40 228 229.5 389t416.5 161zM466.5 842q-156.5 -133 -189.5 -321t76.5 -320.5t297.5 -132.5t344.5 132.5t189.5 320.5t-76.5 321t-297.5 133t-344.5 -133z" />
    <glyph glyph-name="afii10081" unicode="&#x43f;" horiz-adv-x="1038" 
d="M349 891l-158 -891h-89l173 982h834l-173 -982h-89l157 891h-655z" />
    <glyph glyph-name="afii10082" unicode="&#x440;" horiz-adv-x="1334" 
d="M323 982h90l-24 -138q31 34 69 66q189 160 416 160q228 0 360 -160.5t92 -388.5q-40 -227 -229 -388t-417 -161q-227 0 -359 161q-27 32 -46 66l-101 -574h-90zM349 615l-34 -188q4 -129 84 -227q110 -133 298 -133t344.5 133t189.5 321t-76.5 321t-297.5 133t-344 -133
q-116 -98 -164 -227z" />
    <glyph glyph-name="afii10083" unicode="&#x441;" horiz-adv-x="1177" 
d="M1034 236l89 -34q-33 -36 -71 -69q-190 -161 -418 -161q-227 0 -359.5 161t-92.5 389q40 227 229.5 388t416.5 161q228 0 361 -161q27 -33 47 -68l-102 -35q-11 18 -25 36q-110 132 -298 132q-187 0 -343.5 -132.5t-189.5 -320.5t76.5 -321t296.5 -133q188 0 345 133
q20 17 38 35z" />
    <glyph glyph-name="afii10084" unicode="&#x442;" horiz-adv-x="1081" 
d="M742 891l-157 -891h-89l157 891h-405l16 91h900l-16 -91h-406z" />
    <glyph glyph-name="afii10085" unicode="&#x443;" horiz-adv-x="1005" 
d="M519 88l-304 -463h-88l363 556l-242 801h102l202 -704l450 704h101l-585 -895z" />
    <glyph glyph-name="afii10086" unicode="&#x444;" horiz-adv-x="2227" 
d="M1270 632l-39 -224q7 -117 83 -208q109 -133 297 -133q187 0 343.5 132.5t189.5 320.5t-76 321.5t-297 133.5t-344 -133q-108 -91 -157 -210zM1140 408l40 224q-8 119 -83 210q-109 133 -297 133t-344.5 -133.5t-189.5 -321.5t76.5 -320.5t297.5 -132.5t343 133
q108 91 157 208zM1308 848q30 32 63 62q190 159 416 159q229 0 361 -160t91 -389q-40 -226 -228.5 -387t-416.5 -161q-227 0 -360 161q-23 29 -41 60l-97 -551h-91l97 551q-29 -31 -62 -60q-191 -161 -417 -161q-229 0 -360.5 161t-91.5 387q40 229 228.5 389t416.5 160
q227 0 360 -159q24 -30 42 -62l97 551h90z" />
    <glyph glyph-name="afii10087" unicode="&#x445;" horiz-adv-x="871" 
d="M914 982l-330 -438l-4 -5l2 -5l214 -534h-104l-178 443l-334 -443h-105l403 534l4 5l-2 5l-176 438h104l140 -347l261 347h105z" />
    <glyph glyph-name="afii10088" unicode="&#x446;" horiz-adv-x="1074" 
d="M937 0h-824l173 982h90l-158 -892h655l158 892h89l-156 -884h79l-83 -473h-89z" />
    <glyph glyph-name="afii10089" unicode="&#x447;" horiz-adv-x="1196" 
d="M1146 812l31 177h90l-175 -989h-89l99 560q-29 -32 -62 -59q-163 -139 -397 -139q-233 0 -342 139q-109 137 -57 431l10 57h98l-12 -66q-43 -239 49 -363q87 -119 263 -119h17q187 6 322 125q120 106 155 246z" />
    <glyph glyph-name="afii10090" unicode="&#x448;" horiz-adv-x="1351" 
d="M275 982h90l-157 -891h438l157 891h91l-157 -891h438l157 891h90l-173 -981h-1147z" />
    <glyph glyph-name="afii10091" unicode="&#x449;" horiz-adv-x="1401" 
d="M1267 1h-1143l173 981h90l-157 -891h438l157 891h91l-157 -891h438l157 891h90l-156 -884h85l-83 -473h-89z" />
    <glyph glyph-name="afii10092" unicode="&#x44a;" horiz-adv-x="1201" 
d="M287 0l157 891h-253l16 91h343l-71 -404h420v-1q129 -6 206 -85q77 -80 56 -203v-1q-22 -122 -128 -202q-104 -79 -235 -85v-1h-511zM393 90h417v1q98 5 172 58q73 52 88 139q16 89 -38 142q-56 52 -152 56v2h-417z" />
    <glyph glyph-name="afii10093" unicode="&#x44b;" horiz-adv-x="1447" 
d="M218 90h531v1q98 5 172 58q73 52 88 139q16 89 -38 142q-56 52 -152 56v2h-531zM1334 0h-89l173 982h89zM113 0l173 982h90l-72 -404h534v-1q129 -6 206 -85q77 -80 56 -203v-1q-22 -122 -128 -202q-104 -79 -235 -85l-1 -1h-623z" />
    <glyph glyph-name="afii10094" unicode="&#x44c;" horiz-adv-x="1015" 
d="M218 90h418v1q98 5 172 58q73 52 88 139q16 89 -38 142q-56 52 -152 56v2h-418zM113 0l173 982h90l-72 -404h421v-1q129 -6 206 -85q77 -80 56 -203l-1 -1q-21 -122 -127 -202q-104 -79 -235 -85l-1 -1h-510z" />
    <glyph glyph-name="afii10095" unicode="&#x44d;" horiz-adv-x="1224" 
d="M1140 663q-16 98 -81 179q-110 133 -298 133t-345 -133q-64 -55 -107 -123h-101q52 105 152 191q189 160 418 160q226 0 359 -160.5t93 -389.5q-40 -226 -229.5 -387t-416.5 -161q-228 0 -360 161q-27 31 -42 54h134q108 -119 285 -119q188 0 344.5 132t189.5 320
q5 27 5 51h-614l16 92h598z" />
    <glyph glyph-name="afii10096" unicode="&#x44e;" horiz-adv-x="1719" 
d="M729 520q-33 -188 76.5 -320t297.5 -132q187 0 343.5 132t189.5 320t-76.5 321.5t-296.5 133.5q-188 0 -344.5 -133.5t-189.5 -321.5zM629 486h-341l-86 -486h-89l173 982h90l-72 -405h342q52 192 218 333q189 160 415 160q229 0 360.5 -160.5t91.5 -389.5
q-40 -226 -228.5 -387t-416.5 -161q-227 0 -359 161q-123 149 -98 353z" />
    <glyph glyph-name="afii10097" unicode="&#x44f;" horiz-adv-x="902" 
d="M857 891h-305v-1q-98 -4 -171 -56q-73 -53 -89 -141q-15 -88 40 -140q54 -53 150 -58v-1h305zM962 982l-173 -982h-90l72 404h-241l-30 -47l-80 -123l-149 -234h-100l262 407q-109 13 -176 83q-77 80 -56 202l1 1q21 123 127 203q105 79 236 85v1h397z" />
    <glyph glyph-name="afii10071" unicode="&#x451;" horiz-adv-x="1177" 
d="M370 184q106 -116 281 -116q188 0 345 133q20 17 38 35l89 -34q-33 -36 -71 -69q-190 -161 -418 -161q-227 0 -359.5 161t-92.5 389q40 227 229.5 388t416.5 161q195 0 320 -117q21 -20 41 -44q7 -9 13 -18l-80 -68zM1067 885q-101 90 -256 90q-187 0 -343.5 -132.5
t-189.5 -320.5q-27 -155 42 -272zM732 1304q22 -26 16 -63q-7 -38 -38 -64t-68 -26t-59 26t-15 64q6 37 37 63t68 26t59 -26zM1032 1304q22 -26 16 -63q-7 -38 -38 -64t-68 -26t-59 26t-15 64q6 37 37 63t68 26t59 -26z" />
    <glyph glyph-name="afii10099" unicode="&#x452;" horiz-adv-x="1009" 
d="M919 648q22 126 -53 214t-198 88q-125 0 -229 -87q-48 -39 -75 -82l-137 -781h-91l226 1283h-113l16 89h113l40 228h91l-40 -228h219l-16 -89h-219l-62 -352q132 110 293 110q173 0 263 -109.5t64 -274.5l-126 -714q-21 -122 -118.5 -205t-218.5 -83l16 90q83 0 150 57
q66 55 83 153z" />
    <glyph glyph-name="afii10100" unicode="&#x453;" horiz-adv-x="687" 
d="M360 891l-158 -891h-89l173 982h495l-16 -91h-405zM629 1187l-278 -187h-84l196 187h166z" />
    <glyph glyph-name="afii10101" unicode="&#x454;" horiz-adv-x="1224" 
d="M911 663l-16 -92h-615q-7 -24 -12 -51q-33 -188 76.5 -320t297.5 -132q178 0 327 119h134q-23 -23 -60 -54q-190 -161 -418 -161q-226 0 -359 161t-93 387q40 229 229.5 389.5t416.5 160.5q228 0 361 -160q69 -86 85 -191h-101q-20 68 -64 123q-110 133 -298 133
t-345 -133q-93 -81 -144 -179h598z" />
    <glyph glyph-name="afii10102" unicode="&#x455;" horiz-adv-x="802" 
d="M509 505q-104 62 -140 106q-57 69 -40 166q17 98 98.5 167.5t178.5 69.5q98 0 151 -64q50 -63 36 -143l-1 -5l-83 -31q3 76 -27.5 114t-91.5 38q-60 0 -110.5 -42.5t-61.5 -103.5q-10 -60 25 -103q21 -25 93 -76q115 -70 160 -124q69 -86 49 -205q-22 -122 -122 -207.5
t-221 -85.5t-191 85.5t-52 187.5l93 23q-15 -88 34 -147t132 -59t153 59t85 144q14 83 -34 142q-27 32 -113 94z" />
    <glyph glyph-name="afii10103" unicode="&#x456;" 
d="M433 982l-173 -982h-90l173 982h90zM508.5 1304q21.5 -26 15.5 -63q-7 -38 -38 -64t-68 -26t-59 26t-15 64q6 37 37.5 63t68.5 26t58.5 -26z" />
    <glyph glyph-name="afii10104" unicode="&#x457;" 
d="M433 982l-173 -982h-90l173 982h90zM358.5 1304q21.5 -26 15.5 -63q-7 -38 -38 -64t-68 -26t-59 26t-15 64q6 37 37.5 63t68.5 26t58.5 -26zM658.5 1304q21.5 -26 15.5 -63q-7 -38 -38 -64t-68 -26t-59 26t-15 64q6 37 37.5 63t68.5 26t58.5 -26z" />
    <glyph glyph-name="afii10105" unicode="&#x458;" horiz-adv-x="455" 
d="M25 -138q123 14 145 136l173 984h90l-173 -982q-37 -211 -251 -228zM509 1304q22 -26 15 -63q-7 -38 -38 -64t-68 -26t-59 26t-15 64q7 37 38 63t68 26t59 -26z" />
    <glyph glyph-name="afii10106" unicode="&#x459;" horiz-adv-x="1828" 
d="M1032 90h417v1q99 5 172 58q74 52 89 139q16 89 -39 142q-55 52 -152 56v2h-417zM1082 891h-656l-117 -665q-37 -210 -250 -227l16 89q123 14 145 136l133 758h834l-71 -402l423 -2v-1q129 -6 205 -85q78 -80 56 -203v-1q-22 -122 -128 -202q-104 -79 -235 -85v-1h-512z
" />
    <glyph glyph-name="afii10107" unicode="&#x45a;" horiz-adv-x="1748" 
d="M952 90h417l1 1q98 5 172 58q72 52 87 139q16 89 -38 142q-55 52 -152 56v2h-417zM847 0l85 486h-655l-86 -486h-89l173 982h90l-72 -405h655l72 405h89l-71 -404h421v-1q129 -6 205 -85q78 -80 56 -203v-1q-22 -122 -127 -202q-105 -79 -236 -85v-1h-510z" />
    <glyph glyph-name="afii10108" unicode="&#x45b;" horiz-adv-x="1009" 
d="M378 1372l40 228h91l-40 -228h219l-16 -89h-219l-62 -352q132 110 293 110q173 0 263 -109.5t64 -274.5l-116 -657h-90l114 648q22 126 -53 214t-198 88q-125 0 -229 -87q-48 -39 -75 -82l-137 -781h-91l226 1283h-113l16 89h113z" />
    <glyph glyph-name="afii10109" unicode="&#x45c;" horiz-adv-x="835" 
d="M878 982l-295 -300l265 -682h-110l-227 610l-239 -222l-68 -388h-91l173 982h91l-80 -450l466 450h115zM829 1187l-278 -187h-84l196 187h166z" />
    <glyph glyph-name="afii10110" unicode="&#x45e;" horiz-adv-x="1005" 
d="M519 88l-304 -463h-88l363 556l-242 801h102l202 -704l450 704h101l-585 -895zM542 1238q-2 -53 30 -91q39 -48 107 -48q67 0 124 48q45 38 62 91h73q-23 -83 -94 -143q-80 -69 -178 -69q-99 0 -155 69q-53 66 -43 143h74z" />
    <glyph glyph-name="afii10193" unicode="&#x45f;" horiz-adv-x="1038" 
d="M474 0h-372l173 982h90l-158 -892h655l158 892h89l-173 -982h-372l-66 -375h-90z" />
    <glyph glyph-name="afii10050" unicode="&#x490;" horiz-adv-x="947" 
d="M1094 1512v-3h-610l-266 -1509h-91l282 1600h674l48 271h90l-64 -359h-63z" />
    <glyph glyph-name="afii10098" unicode="&#x491;" horiz-adv-x="725" 
d="M360 891l-158 -891h-89l173 982h466l48 270h89l-63 -361h-466z" />
    <glyph glyph-name="Wgrave" unicode="&#x1e80;" horiz-adv-x="1672" 
d="M834 240l239 1360h90l-239 -1360q15 -43 43 -77q75 -87 199 -87t230 88.5t128 213.5l215 1222h90l-216 -1230q-31 -156 -163 -268q-136 -116 -300 -116q-163 0 -259 115q-17 20 -30 41q-19 -21 -44 -41q-136 -115 -299 -115q-164 0 -259 116q-93 112 -68 268l216 1230h90
l-215 -1222q-22 -125 53 -213.5t199 -88.5t229 87q40 34 71 77zM1119 1905l130 -187h-84l-212 187h166z" />
    <glyph glyph-name="wgrave" unicode="&#x1e81;" horiz-adv-x="1375" 
d="M688 260l127 722h90l-123 -700q-16 -88 33 -147t132 -59t154 59q65 55 82 133h-1l126 714h90l-126 -714q-24 -115 -119 -196q-100 -86 -221 -86t-191 86q-19 23 -32 48q-21 -25 -49 -48q-100 -86 -221 -86t-191 86q-67 81 -51 196l126 714h90l-126 -714h-1
q-9 -78 37 -133q48 -59 131 -59t154 59q60 51 80 125zM861 1287l130 -187h-84l-212 187h166z" />
    <glyph glyph-name="Wacute" unicode="&#x1e82;" horiz-adv-x="1672" 
d="M834 240l239 1360h90l-239 -1360q15 -43 43 -77q75 -87 199 -87t230 88.5t128 213.5l215 1222h90l-216 -1230q-31 -156 -163 -268q-136 -116 -300 -116q-163 0 -259 115q-17 20 -30 41q-19 -21 -44 -41q-136 -115 -299 -115q-164 0 -259 116q-93 112 -68 268l216 1230h90
l-215 -1222q-22 -125 53 -213.5t199 -88.5t229 87q40 34 71 77zM1374 1805l-278 -187h-84l196 187h166z" />
    <glyph glyph-name="wacute" unicode="&#x1e83;" horiz-adv-x="1375" 
d="M688 260l127 722h90l-123 -700q-16 -88 33 -147t132 -59t154 59q65 55 82 133h-1l126 714h90l-126 -714q-24 -115 -119 -196q-100 -86 -221 -86t-191 86q-19 23 -32 48q-21 -25 -49 -48q-100 -86 -221 -86t-191 86q-67 81 -51 196l126 714h90l-126 -714h-1
q-9 -78 37 -133q48 -59 131 -59t154 59q60 51 80 125zM1116 1187l-278 -187h-84l196 187h166z" />
    <glyph glyph-name="Wdieresis" unicode="&#x1e84;" horiz-adv-x="1672" 
d="M834 240l239 1360h90l-239 -1360q15 -43 43 -77q75 -87 199 -87t230 88.5t128 213.5l215 1222h90l-216 -1230q-31 -156 -163 -268q-136 -116 -300 -116q-163 0 -259 115q-17 20 -30 41q-19 -21 -44 -41q-136 -115 -299 -115q-164 0 -259 116q-93 112 -68 268l216 1230h90
l-215 -1222q-22 -125 53 -213.5t199 -88.5t229 87q40 34 71 77zM1089 1922q22 -26 15 -63q-7 -38 -38 -64t-68 -26t-59 26t-15 64q7 37 38 63t68 26t59 -26zM1389 1922q22 -26 15 -63q-7 -38 -38 -64t-68 -26t-59 26t-15 64q7 37 38 63t68 26t59 -26z" />
    <glyph glyph-name="wdieresis" unicode="&#x1e85;" horiz-adv-x="1375" 
d="M688 260l127 722h90l-123 -700q-16 -88 33 -147t132 -59t154 59q65 55 82 133h-1l126 714h90l-126 -714q-24 -115 -119 -196q-100 -86 -221 -86t-191 86q-19 23 -32 48q-21 -25 -49 -48q-100 -86 -221 -86t-191 86q-67 81 -51 196l126 714h90l-126 -714h-1
q-9 -78 37 -133q48 -59 131 -59t154 59q60 51 80 125zM831.5 1304q21.5 -26 15.5 -63q-7 -38 -38 -64t-68 -26t-59 26t-15 64q6 37 37.5 63t68.5 26t58.5 -26zM1131.5 1304q21.5 -26 15.5 -63q-7 -38 -38 -64t-68 -26t-59 26t-15 64q6 37 37.5 63t68.5 26t58.5 -26z" />
    <glyph glyph-name="Ygrave" unicode="&#x1ef2;" horiz-adv-x="1291" 
d="M714 647l-382 953h103l342 -853l643 853h103l-719 -953l-114 -647h-90zM910 1805l130 -187h-84l-212 187h166z" />
    <glyph glyph-name="ygrave" unicode="&#x1ef3;" horiz-adv-x="1005" 
d="M519 88l-304 -463h-88l363 556l-242 801h102l202 -704l450 704h101l-585 -895zM676 1287l130 -187h-84l-212 187h166z" />
    <glyph glyph-name="endash" unicode="&#x2013;" horiz-adv-x="871" 
d="M162 637h771l-16 -90h-771z" />
    <glyph glyph-name="emdash" unicode="&#x2014;" horiz-adv-x="1507" 
d="M162 637h1407l-16 -90h-1407z" />
    <glyph glyph-name="afii00208" unicode="&#x2015;" horiz-adv-x="3072" 
d="M37 637h2111l-16 -90h-2111z" />
    <glyph glyph-name="underscoredbl" unicode="&#x2017;" horiz-adv-x="1050" 
d="M-20 -255h1000l-16 -90h-1000zM20 -30h1000l-16 -90h-1000z" />
    <glyph glyph-name="quoteleft" unicode="&#x2018;" horiz-adv-x="280" 
d="M421 1461q22 -5 37 -23q21 -26 15 -64q-7 -37 -38 -63t-68 -26t-59 26t-15 63q3 21 13 39l133 198h65z" />
    <glyph glyph-name="quoteright" unicode="&#x2019;" horiz-adv-x="280" 
d="M370 1435q-22 5 -35 23q-23 26 -16 64q6 37 37 63t68 26t59 -26t16 -63q-4 -21 -14 -39l-133 -198h-65z" />
    <glyph glyph-name="quotesinglbase" unicode="&#x201a;" horiz-adv-x="280" 
d="M114 -13q-22 5 -35 23q-23 26 -16 64q6 37 37 63t68 26t59 -26t16 -63q-4 -21 -14 -39l-133 -198h-65z" />
    <glyph glyph-name="quotereversed" unicode="&#x201b;" horiz-adv-x="280" 
d="M727 1285h-65l-63 198q-4 18 0 39q6 37 37 63t68 26t59 -26t16 -63q-7 -38 -39 -64q-20 -18 -44 -23z" />
    <glyph glyph-name="quotedblleft" unicode="&#x201c;" horiz-adv-x="532" 
d="M421 1461q22 -5 37 -23q21 -26 15 -64q-7 -37 -38 -63t-68 -26t-59 26t-15 63q3 21 13 39l133 198h65zM673 1461q22 -5 37 -23q21 -26 15 -64q-7 -37 -38 -63t-68 -26t-59 26t-15 63q3 21 13 39l133 198h65z" />
    <glyph glyph-name="quotedblright" unicode="&#x201d;" horiz-adv-x="532" 
d="M370 1435q-22 5 -35 23q-23 26 -16 64q6 37 37 63t68 26t59 -26t16 -63q-4 -21 -14 -39l-133 -198h-65zM622 1435q-22 5 -35 23q-23 26 -16 64q6 37 37 63t68 26t59 -26t16 -63q-4 -21 -14 -39l-133 -198h-65z" />
    <glyph glyph-name="quotedblbase" unicode="&#x201e;" horiz-adv-x="532" 
d="M114 -13q-22 5 -35 23q-23 26 -16 64q6 37 37 63t68 26t59 -26t16 -63q-4 -21 -14 -39l-133 -198h-65zM366 -13q-22 5 -35 23q-23 26 -16 64q6 37 37 63t68 26t59 -26t16 -63q-4 -21 -14 -39l-133 -198h-65z" />
    <glyph glyph-name="dagger" unicode="&#x2020;" horiz-adv-x="758" 
d="M631 1596l39 218h58l-39 -218h250l-10 -58h-250l-241 -1365h-58l241 1365h-250l10 58h250z" />
    <glyph glyph-name="daggerdbl" unicode="&#x2021;" horiz-adv-x="758" 
d="M621 1538h-250l10 58h250l38 218h58l-38 -218h250l-10 -58h-250l-86 -485h250l-10 -58h-250l-145 -822h-58l145 822h-250l10 58h250z" />
    <glyph glyph-name="bullet" unicode="&#x2022;" horiz-adv-x="758" 
d="M636.5 851q37.5 -44 26.5 -108q-11 -63 -64.5 -107t-114.5 -44q-63 0 -100.5 44t-26.5 107q11 64 64 108t117 44q61 0 98.5 -44z" />
    <glyph glyph-name="ellipsis" unicode="&#x2026;" horiz-adv-x="2148" 
d="M278 139q22 -26 16 -63q-7 -38 -38 -64t-68 -26t-59 26t-15 64q6 37 37 63t68 26t59 -26zM961 139q22 -26 16 -63q-7 -38 -38 -64t-68 -26t-59 26t-15 64q6 37 37 63t68 26t59 -26zM1644 139q22 -26 16 -63q-7 -38 -38 -64t-68 -26t-59 26t-15 64q6 37 37 63t68 26
t59 -26z" />
    <glyph glyph-name="perthousand" unicode="&#x2030;" horiz-adv-x="1772" 
d="M1339 1314l-1149 -1311l-65 51l1149 1311zM677.5 1147.5q55.5 -67.5 38.5 -163.5t-96.5 -163.5t-175.5 -67.5t-151.5 67.5t-38.5 163.5t96.5 163.5t175.5 67.5t151.5 -67.5zM510 1128q-60 0 -109 -42t-60 -102t24 -102t95 -42q59 0 108.5 42t60.5 102t-24.5 102t-94.5 42
zM1171.5 547.5q55.5 -67.5 38.5 -163.5t-96.5 -163.5t-175.5 -67.5t-151.5 67.5t-38.5 163.5t96.5 163.5t175.5 67.5t151.5 -67.5zM1005 528q-60 0 -109.5 -42t-60.5 -102q-10 -60 24.5 -102t94.5 -42q59 0 109 42t60 102q11 60 -24 102t-94 42zM1721.5 547.5
q55.5 -67.5 38.5 -163.5t-96.5 -163.5t-175.5 -67.5t-151.5 67.5t-38.5 163.5t96.5 163.5t175.5 67.5t151.5 -67.5zM1555 528q-60 0 -109.5 -42t-60.5 -102q-10 -60 24.5 -102t94.5 -42q59 0 109 42t60 102q11 60 -24 102t-94 42z" />
    <glyph glyph-name="minute" unicode="&#x2032;" horiz-adv-x="340" 
d="M125 997v600h90v-600h-90z" />
    <glyph glyph-name="second" unicode="&#x2033;" horiz-adv-x="520" 
d="M125 997v600h90v-600h-90zM305 997v600h90v-600h-90z" />
    <glyph glyph-name="guilsinglleft" unicode="&#x2039;" horiz-adv-x="629" 
d="M181 462l510 460l-18 -104l-394 -356l268 -356l-18 -105z" />
    <glyph glyph-name="guilsinglright" unicode="&#x203a;" horiz-adv-x="629" 
d="M100 1l19 105l393 356l-268 356l18 104l348 -460z" />
    <glyph glyph-name="exclamdbl" unicode="&#x203c;" horiz-adv-x="860" 
d="M303 139q22 -26 16 -63q-7 -38 -38 -64t-68 -26t-59 26t-15 64q6 37 37 63t68 26t59 -26zM540 1600l-233 -1324h-90l233 1324h90zM733 139q22 -26 16 -63q-7 -38 -38 -64t-68 -26t-59 26t-15 64q6 37 37 63t68 26t59 -26zM970 1600l-233 -1324h-90l233 1324h90z" />
    <glyph glyph-name="uni203E" unicode="&#x203e;" horiz-adv-x="1050" 
d="M20 1810h1000l-16 -90h-1000z" />
    <glyph glyph-name="fraction" unicode="&#x2044;" horiz-adv-x="1091" 
d="M1041 1430l-917 -1311l-74 51l918 1311z" />
    <glyph glyph-name="fraction" unicode="&#x2215;" horiz-adv-x="1091" 
d="M1041 1430l-917 -1311l-74 51l918 1311z" />
    <glyph glyph-name="uni207F" unicode="&#x207f;" horiz-adv-x="1071" 
d="M375 1322l-135 -763h-90l173 982h90l-11 -63q145 122 308 122q174 0 263.5 -109t63.5 -275l-116 -657h-90l114 649q22 125 -52.5 213.5t-198.5 88.5t-230 -87q-57 -49 -89 -101z" />
    <glyph glyph-name="franc" unicode="&#x20a3;" horiz-adv-x="1012" 
d="M295 468l199 1132h700l-15 -90h-610l-118 -665h610l-16 -90h-610l-50 -287h288l-16 -90h-288l-67 -378h-90l67 378h-162l16 90h162z" />
    <glyph glyph-name="lira" unicode="&#x20a4;" horiz-adv-x="1130" 
d="M433 755q-10 40 -23 79q-80 180 -65 343q1 19 5 38q24 139 136 249q124 123 290 138q19 1 38 1q139 0 234 -92q105 -105 92 -267q-1 -23 -5 -44q-11 -63 -42 -114l-81 29q23 43 32 95l4 28q9 123 -71 203q-72 70 -178 70q-14 0 -28 -1q-126 -11 -223 -106
q-85 -84 -103 -189q-3 -15 -5 -30q-10 -113 33 -256q38 -85 57 -174h232l-16 -90h-202q5 -59 2 -120h179l-16 -90h-173q-41 -198 -239 -392q133 45 254 45q72 0 140 -16q95 -23 184 -23q80 0 154 18l1 -89q-84 -20 -171 -20q-89 0 -180 22q-94 21 -169 21q-68 0 -120 -17
q-111 -38 -217 -87l-69 103q143 110 182 149q128 126 159 286h-236l16 90h229q2 60 -5 120h-203l16 90h171z" />
    <glyph glyph-name="peseta" unicode="&#x20a7;" horiz-adv-x="1855" 
d="M497 1509l-152 -863h245q160 0 296.5 126.5t167.5 305.5q32 179 -60 305t-252 126h-245zM1074 892q-52 -101 -141 -184q-165 -153 -359 -153h-245l-98 -555h-81l282 1600h378q160 -25 253 -153q111 -153 73 -369q-9 -50 -24 -96h84l74 418h90l-74 -418h248q59 32 125 32
q98 0 151 -64q50 -63 36 -143l-1 -5l-83 -31q3 76 -27.5 114t-91.5 38q-60 0 -110.5 -42.5t-61.5 -103.5q-11 -60 25 -103q20 -25 92 -76q116 -70 161 -124q69 -86 48 -205q-21 -122 -121 -207.5t-221 -85.5t-191 85.5t-52 187.5l93 23q-16 -88 33.5 -147t132.5 -59
t152.5 59t84.5 144q15 83 -34 142q-26 32 -112 94q-104 62 -140 106q-57 69 -40 166q11 63 49 115h-161l-157 -892h-90l157 892h-106z" />
    <glyph glyph-name="Euro" unicode="&#x20ac;" horiz-adv-x="1450" 
d="M424 885l29 166q40 227 229.5 388t416.5 161q228 0 360 -161l-79 -67q-110 132 -298 132t-344.5 -132.5t-189.5 -320.5l-29 -166h657l-34 -90h-639l-21 -120h615l-34 -90h-597l-11 -64q-33 -188 76.5 -320.5t297.5 -132.5t344 133q97 82 147 185h98q-59 -142 -190 -253
q-188 -161 -416 -161q-227 0 -359.5 161t-92.5 388l11 64h-168l34 90h150l21 120h-126l34 90h108z" />
    <glyph glyph-name="afii61248" unicode="&#x2105;" horiz-adv-x="1957" 
d="M769 974l67 -26q-25 -27 -53 -51q-143 -121 -314 -121q-170 0 -269 121q-77 92 -77 215q0 36 7 76q30 171 172 291.5t313 120.5t270 -121q21 -24 36 -51l-77 -26q-8 14 -19 27q-82 99 -223 99q-140 0 -257.5 -99.5t-142.5 -240.5q-6 -33 -6 -63q0 -101 64 -177
q82 -100 222 -100q141 0 259 100q15 12 28 26zM1417 1430l-917 -1311l-74 51l918 1311zM1488 803q171 0 270 -120q76 -93 76 -215q0 -37 -7 -77q-30 -170 -171.5 -291t-312.5 -121q-170 0 -269 121q-77 93 -77 215q0 37 7 76q30 171 172 291.5t312 120.5zM1217.5 631.5
q-117.5 -99.5 -142.5 -240.5q-6 -33 -6 -63q0 -101 64 -177q82 -100 223 -100t258 99.5t142 240.5q6 33 6 64q0 100 -63 177q-82 99 -223 99t-258.5 -99.5z" />
    <glyph glyph-name="afii61352" unicode="&#x2116;" horiz-adv-x="2054" 
d="M2166 1543h35l-111 -632h-710l6 35h675zM1701 1131q102 5 166 58q68 57 82 140q15 82 -33 140q-45 53 -145 58q-102 -5 -165 -58q-68 -58 -83 -140q-14 -83 34 -140q44 -53 144 -58zM1673 1054q-115 0 -181 80.5t-46 194.5t114.5 194.5t209.5 80.5h29q115 0 180.5 -80.5
t45.5 -194.5t-114 -194.5t-209 -80.5h-29zM407 1600h99l571 -1423l251 1423h90l-282 -1600h-90l-578 1437l-253 -1437h-90z" />
    <glyph glyph-name="trademark" unicode="&#x2122;" horiz-adv-x="1251" 
d="M497 1556h-158v-604h-57v604h-182v52h453l267 -409l266 409h65l-9 -13v-643h-56v556l-266 -410l-267 410v-556h-56v604z" />
    <glyph glyph-name="Omega" unicode="&#x2126;" horiz-adv-x="1593" 
d="M1087 1600q316 0 468 -223t85 -602q-49 -278 -234.5 -467t-313.5 -219h326l-16 -89h-536l16 89q225 50 421 225t247 461q60 342 -71 545.5t-411 203.5h-5q-280 0 -482.5 -203.5t-262.5 -545.5q-51 -286 83.5 -461t341.5 -225l-15 -89h-536l16 89h326q-118 30 -237 219
t-70 467q67 379 297.5 602t546.5 223h16z" />
    <glyph glyph-name="arrowleft" unicode="&#x2190;" horiz-adv-x="1809" 
d="M284 963v-127h1411v-91h-1411v-127l-171 173z" />
    <glyph glyph-name="arrowup" unicode="&#x2191;" horiz-adv-x="1024" 
d="M684 1414h-128v-1411h-90v1411h-127l172 171z" />
    <glyph glyph-name="arrowright" unicode="&#x2192;" horiz-adv-x="1809" 
d="M1695 791l-171 -173v127h-1411v91h1411v127z" />
    <glyph glyph-name="arrowdown" unicode="&#x2193;" horiz-adv-x="1024" 
d="M511 3l-172 171h127v1411h90v-1411h128z" />
    <glyph glyph-name="arrowboth" unicode="&#x2194;" horiz-adv-x="1809" 
d="M1524 836v127l171 -172l-171 -173v127h-1240v-127l-171 173l171 172v-127h1240z" />
    <glyph glyph-name="arrowupdn" unicode="&#x2195;" horiz-adv-x="1809" 
d="M950 174h127l-172 -171l-173 171h128v1240h-128l173 171l172 -171h-127v-1240z" />
    <glyph glyph-name="arrowupdnbse" unicode="&#x21a8;" horiz-adv-x="1809" 
d="M951 174h127l-172 -171l-173 171h128v1240h-128l173 171l172 -171h-127v-1240zM733 1682h345v-90h-345v90zM733 0h345v-91h-345v91z" />
    <glyph glyph-name="partialdiff" unicode="&#x2202;" horiz-adv-x="990" 
d="M973 766q-559 -69 -753 -409q-23 -52 -30 -94q-31 -176 209 -178q330 34 574 681zM990 848q25 98 39 180q78 438 -128 478q-41 7 -80 7q-197 0 -361 -189l-27 83q179 178 391 178q71 0 145 -19q230 -61 151 -512q-23 -133 -75 -301q-244 -733 -662 -743q-324 0 -280 248
q8 50 33 111q198 400 854 479z" />
    <glyph glyph-name="Delta" unicode="&#x2206;" horiz-adv-x="1248" 
d="M34 1h-68l865 1599h109l308 -1600h-1214v1zM1135 90l-270 1397l-755 -1397h1025z" />
    <glyph glyph-name="product" unicode="&#x220f;" horiz-adv-x="1326" 
d="M463 1509l-332 -1883h-91l348 1974h1113l-348 -1974h-90l332 1883h-932z" />
    <glyph glyph-name="summation" unicode="&#x2211;" horiz-adv-x="1185" 
d="M1365 1600l-16 -91h-890l260 -896l-576 -896h890l-16 -91h-1026l627 987l-279 987h1026z" />
    <glyph glyph-name="minus" unicode="&#x2212;" horiz-adv-x="1050" 
d="M125 637h800v-90h-800v90z" />
    <glyph glyph-name="radical" unicode="&#x221a;" horiz-adv-x="1535" 
d="M867 294l572 1446h96l-703 -1819l-632 797l-98 -44l-45 57l296 167z" />
    <glyph glyph-name="infinity" unicode="&#x221e;" horiz-adv-x="1210" 
d="M1056 815q0 97 -68.5 166t-166.5 69q-97 0 -171 -67q-71 -66 -97 -195q26 -129 97 -194q74 -67 171 -67q98 0 166.5 69t68.5 219zM1038 546.5q-90 -89.5 -217 -89.5t-221 87q-65 61 -90 139q-13 -29 -65.5 -77.5t-143.5 -48.5t-155.5 63.5t-64.5 179.5q0 93 64.5 157.5
t155.5 64.5t143.5 -49.5t65.5 -78.5q25 78 90 139q94 87 221 87t217 -89.5t90 -215.5q0 -179 -90 -268.5zM151 790q0 -74 43.5 -118t106.5 -44q62 0 107 42.5t69 117.5q-24 76 -69 118.5t-107 42.5q-63 0 -106.5 -43.5t-43.5 -115.5z" />
    <glyph glyph-name="integral" unicode="&#x222b;" horiz-adv-x="562" 
d="M326 -79q-12 -284 -290 -284v83q189 0 200 198v1514q23 284 291 284l1 -72q-181 -6 -202 -209v-1514z" />
    <glyph glyph-name="approxequal" unicode="&#x2248;" horiz-adv-x="1277" 
d="M638 996q188 -109 273 -109q15 0 27 3q77 23 108 100q15 38 15 77l91 -14q-4 -48 -23 -97q-46 -111 -156 -148q-25 -8 -56 -8q-105 0 -278 99q-190 109 -274 109q-14 0 -26 -3q-77 -23 -108 -100q-15 -39 -16 -77l-90 14q2 48 22 97q46 111 157 148q25 8 55 8
q106 0 279 -99zM638 701q188 -109 273 -109q15 0 27 3q77 23 108 100q15 38 15 77l91 -14q-4 -48 -23 -97q-46 -111 -156 -148q-25 -8 -56 -8q-105 0 -278 99q-190 109 -274 109q-14 0 -26 -3q-77 -23 -108 -100q-15 -39 -16 -77l-90 14q2 48 22 97q46 111 157 148
q25 8 55 8q106 0 279 -99z" />
    <glyph glyph-name="notequal" unicode="&#x2260;" horiz-adv-x="1050" 
d="M619 707h-494v90h607l245 195h103l-245 -195h90v-90h-204l-289 -230h493v-90h-607l-245 -195h-102l245 195h-91v90h204z" />
    <glyph glyph-name="equivalence" unicode="&#x2261;" horiz-adv-x="1050" 
d="M125 637h800v-90h-800v90zM125 457h800v-90h-800v90zM125 817h800v-90h-800v90z" />
    <glyph glyph-name="lessequal" unicode="&#x2264;" horiz-adv-x="1349" 
d="M1249 145l-1149 418l1149 418v-96l-886 -322l886 -322v-96zM149 90h1100v-90h-1100v90z" />
    <glyph glyph-name="greaterequal" unicode="&#x2265;" horiz-adv-x="1349" 
d="M100 241l886 322l-886 322v96l1149 -418l-1149 -418v96zM100 90h1100v-90h-1100v90z" />
    <glyph glyph-name="integraltp" unicode="&#x2320;" horiz-adv-x="631" 
d="M315 -362h-89v1794q23 284 291 284l1 -72q-181 -6 -203 -209v-1797z" />
    <glyph glyph-name="integralbt" unicode="&#x2321;" horiz-adv-x="631" 
d="M316 1716h89v-1794q-23 -284 -292 -284v72q181 6 203 209v1797z" />
    <glyph glyph-name="uniEEC9" unicode="&#xeec9;" horiz-adv-x="978" 
d="M1031.5 1304q21.5 -26 15.5 -63q-7 -38 -38 -64t-68 -26t-59 26t-15 64q6 37 37.5 63t68.5 26t58.5 -26zM850 892h-413l-157 -892h-90l157 892h-100l16 90h100l47 266q26 111 119 191q95 76 202 76q56 0 114 -21l-42 -80q-38 18 -77 18q-71 0 -145 -57q-65 -55 -82 -133
l-46 -260h503l-173 -982q-37 -211 -251 -228l16 90q123 14 145 136z" />
    <glyph glyph-name="uniEECA" unicode="&#xeeca;" horiz-adv-x="1122" 
d="M830 892h-393l-157 -892h-90l157 892h-100l16 90h100l47 266q26 111 119 191q95 76 202 76q56 0 114 -21l-42 -80q-38 18 -77 18q-71 0 -145 -57q-65 -55 -82 -133l-46 -260h483l-31 -179q35 40 78 77q140 119 266 125l-17 -98q-86 -4 -193 -95q-150 -127 -187 -305
l-89 -507h-90z" />
    <glyph glyph-name="uniEECB" unicode="&#xeecb;" horiz-adv-x="943" 
d="M383 982h393l76 428q-66 22 -146 22q-121 0 -195 -57q-65 -55 -82 -133zM293 982l47 266q26 111 119 191q95 76 252 76q146 0 239 -55l-84 -478h200l-16 -90h-200l-157 -892h-90l157 892h-393l-157 -892h-90l157 892h-100l16 90h100z" />
    <glyph glyph-name="uniEECD" unicode="&#xeecd;" horiz-adv-x="1528" 
d="M798 892h-361l-157 -892h-90l157 892h-100l16 90h100l47 266q26 111 119 191q95 76 202 76q56 0 114 -21l-42 -80q-38 18 -77 18q-71 0 -145 -57q-65 -55 -82 -133l-46 -260h420l202 -704l450 704h101l-585 -895l1 1l-304 -463h-88l363 556z" />
    <glyph glyph-name="uniEECE" unicode="&#xeece;" horiz-adv-x="1716" 
d="M437 892l-157 -892h-90l157 892h-100l16 90h100l47 266q26 111 119 191q95 76 202 76q56 0 114 -21l-42 -80q-38 18 -77 18q-71 0 -145 -57q-65 -55 -82 -133l-46 -260h433l47 266q26 111 119 191q95 76 202 76q56 0 114 -21l-42 -80q-38 18 -77 18q-71 0 -145 -57
q-65 -55 -82 -133l-46 -260h533l74 418h90l-74 -418h200l-16 -90h-200l-157 -892h-90l157 892h-533l-157 -892h-90l157 892h-433z" />
    <glyph glyph-name="uniEECF" unicode="&#xeecf;" horiz-adv-x="2051" 
d="M437 892l-157 -892h-90l157 892h-100l16 90h100l47 266q26 111 119 191q95 76 202 76q56 0 114 -21l-42 -80q-38 18 -77 18q-71 0 -145 -57q-65 -55 -82 -133l-46 -260h433l47 266q26 111 119 191q95 76 202 76q56 0 114 -21l-42 -80q-38 18 -77 18q-71 0 -145 -57
q-65 -55 -82 -133l-46 -260h420l202 -704l450 704h101l-585 -895l1 1l-304 -463h-88l363 556l-215 711h-361l-157 -892h-90l157 892h-433z" />
    <glyph glyph-name="uniEED0" unicode="&#xeed0;" horiz-adv-x="2198" 
d="M437 892l-157 -892h-90l157 892h-100l16 90h100l47 266q26 111 119 191q95 76 202 76q56 0 114 -21l-42 -80q-38 18 -77 18q-71 0 -145 -57q-65 -55 -82 -133l-46 -260h533l74 418h90l-74 -418h467l202 -704l450 704h101l-585 -895l1 1l-304 -463h-88l363 556l-215 711
h-408l-157 -892h-90l157 892h-533z" />
    <glyph glyph-name="uniEED9" unicode="&#xeed9;" horiz-adv-x="1269" 
d="M977 892h-440l-157 -892h-90l157 892h-200l16 90h200l74 418h90l-74 -418h530l-32 -179q35 40 79 77q140 119 266 125l-17 -98q-86 -4 -193 -95q-150 -127 -187 -305l-89 -507h-90z" />
    <glyph glyph-name="uniEEDA" unicode="&#xeeda;" horiz-adv-x="1340" 
d="M537 892l-157 -892h-90l157 892h-200l16 90h200l74 418h90l-74 -418h580l74 418h90l-74 -418h200l-16 -90h-200l-157 -892h-90l157 892h-580z" />
    <glyph glyph-name="uniEEDB" unicode="&#xeedb;" horiz-adv-x="1675" 
d="M945 892h-408l-157 -892h-90l157 892h-200l16 90h200l74 418h90l-74 -418h470l-1 -6l200 -698l450 704h101l-585 -895v1l-303 -463h-88l363 556z" />
    <glyph glyph-name="uniEEDC" unicode="&#xeedc;" horiz-adv-x="1670" 
d="M537 892l-157 -892h-90l157 892h-200l16 90h200l74 418h90l-74 -418h1111l-672 -891h553l-16 -91h-709l671 892h-954z" />
    <glyph glyph-name="uniF001" unicode="&#xf001;" horiz-adv-x="953" 
d="M280 0h-90l157 892h-100l16 90h100l47 266q26 111 119 191q95 76 202 76q56 0 114 -21l-42 -80q-38 18 -77 18q-71 0 -145 -57q-65 -55 -82 -133zM956 982l-173 -982h-90l173 982h90zM1031.5 1304q21.5 -26 15.5 -63q-7 -38 -38 -64t-68 -26t-59 26t-15 64q6 37 37.5 63
t68.5 26t58.5 -26z" />
    <glyph glyph-name="uniF002" unicode="&#xf002;" horiz-adv-x="913" 
d="M922 1410q-66 22 -146 22q-121 0 -195 -57q-65 -55 -82 -133l-219 -1242h-90l157 892h-100l16 90h100l47 266q26 111 119 191q95 76 252 76q146 0 239 -55l-257 -1460h-90z" />
    <glyph glyph-name="uniFB00" unicode="&#xfb00;" horiz-adv-x="1046" 
d="M437 892l-157 -892h-90l157 892h-100l16 90h100l47 266q26 111 119 191q95 76 202 76q56 0 114 -21l-42 -80q-38 18 -77 18q-71 0 -145 -57q-65 -55 -82 -133l-46 -260h433l47 266q26 111 119 191q95 76 202 76q56 0 114 -21l-42 -80q-38 18 -77 18q-71 0 -145 -57
q-65 -55 -82 -133l-46 -260h200l-16 -90h-200l-157 -892h-90l157 892h-433z" />
    <glyph glyph-name="uniFB01" unicode="&#xfb01;" horiz-adv-x="953" 
d="M1031.5 1304q21.5 -26 15.5 -63q-7 -38 -38 -64t-68 -26t-59 26t-15 64q6 37 37.5 63t68.5 26t58.5 -26zM850 892h-413l-157 -892h-90l157 892h-100l16 90h100l47 266q26 111 119 191q95 76 202 76q56 0 114 -21l-42 -80q-38 18 -77 18q-71 0 -145 -57q-65 -55 -82 -133
l-46 -260h503l-173 -982h-90z" />
    <glyph glyph-name="uniFB02" unicode="&#xfb02;" horiz-adv-x="913" 
d="M922 1410q-66 22 -146 22q-121 0 -195 -57q-65 -55 -82 -133l-46 -260h200l-16 -90h-200l-157 -892h-90l157 892h-100l16 90h100l47 266q26 111 119 191q95 76 252 76q146 0 239 -55l-257 -1460h-90z" />
    <glyph glyph-name="uniFB03" unicode="&#xfb03;" horiz-adv-x="1476" 
d="M1554.5 1304q21.5 -26 15.5 -63q-7 -38 -38 -64t-68 -26t-59 26t-15 64q6 37 37.5 63t68.5 26t58.5 -26zM437 892l-157 -892h-90l157 892h-100l16 90h100l47 266q26 111 119 191q95 76 202 76q56 0 114 -21l-42 -80q-38 18 -77 18q-71 0 -145 -57q-65 -55 -82 -133
l-46 -260h433l47 266q26 111 119 191q95 76 202 76q56 0 114 -21l-42 -80q-38 18 -77 18q-71 0 -145 -57q-65 -55 -82 -133l-46 -260h503l-173 -982h-90l157 892h-413l-157 -892h-90l157 892h-433z" />
    <glyph glyph-name="uniFB04" unicode="&#xfb04;" horiz-adv-x="1436" 
d="M437 892l-157 -892h-90l157 892h-100l16 90h100l47 266q26 111 119 191q95 76 202 76q56 0 114 -21l-42 -80q-38 18 -77 18q-71 0 -145 -57q-65 -55 -82 -133l-46 -260h433l47 266q26 111 119 191q95 76 252 76q146 0 239 -55l-257 -1460h-90l249 1410q-66 22 -146 22
q-121 0 -195 -57q-65 -55 -82 -133l-46 -260h200l-16 -90h-200l-157 -892h-90l157 892h-433z" />
    </font>
</defs>
</svg>
