<?xml version="1.0" standalone="no"?>
<!DOCTYPE svg PUBLIC "-//W3C//DTD SVG 1.1//EN" "http://www.w3.org/Graphics/SVG/1.1/DTD/svg11.dtd" >
<svg>
<metadata>
Created by FontForge 20120731 at Tue Jul  2 19:37:57 2019
 By www
Copyright (C) 2000-2005, House Industries/Brand Design Co. Inc. All rights reserved.
</metadata>
<defs>
<font id="Chalet-ParisNineteenSixty" horiz-adv-x="573" >
  <font-face 
    font-family="Chalet-ParisNineteenSixty"
    font-weight="300"
    font-stretch="normal"
    units-per-em="1000"
    panose-1="0 0 0 0 0 0 0 0 0 0"
    ascent="800"
    descent="-200"
    x-height="515"
    cap-height="694"
    bbox="-41 -252 1141 927"
    underline-thickness="50"
    underline-position="-100"
    unicode-range="U+0020-FB02"
  />
<missing-glyph horiz-adv-x="500" 
 />
    <glyph glyph-name="ffl" unicode="ffl" horiz-adv-x="709" 
d="M633 744v-744h-37v744h37zM118 478v-478h-38v478h-70v37h70v36q0 87 47 135.5t129 41.5v-34q-70 4 -104 -35t-34 -111v-33h221v36q0 87 47 135.5t129 41.5v-34q-70 4 -104 -35t-34 -111v-33h138v-37h-138v-478h-38v478h-221z" />
    <glyph glyph-name="ffi" unicode="ffi" horiz-adv-x="704" 
d="M628 694v-92h-37v92h37zM118 478v-478h-38v478h-70v37h70v36q0 87 47 135.5t129 41.5v-34q-70 4 -104 -35t-34 -111v-33h221v36q0 87 47 135.5t129 41.5v-34q-70 4 -104 -35t-34 -111v-33h251v-515h-37v478h-214v-478h-38v478h-221z" />
    <glyph glyph-name="ff" unicode="ff" horiz-adv-x="518" 
d="M118 478v-478h-38v478h-70v37h70v36q0 87 47 135.5t129 41.5v-34q-70 4 -104 -35t-34 -111v-33h221v36q0 87 47 135.5t129 41.5v-34q-70 4 -104 -35t-34 -111v-33h138v-37h-138v-478h-38v478h-221z" />
    <glyph glyph-name="fi" unicode="fi" horiz-adv-x="445" 
d="M369 694v-92h-37v92h37zM332 478h-214v-478h-38v478h-70v37h70v36q0 87 47 135.5t129 41.5v-34q-70 4 -104 -35t-34 -111v-33h251v-515h-37v478z" />
    <glyph glyph-name="fl" unicode="fl" horiz-adv-x="450" 
d="M374 744v-744h-37v744h37zM256 478h-138v-478h-38v478h-70v37h70v36q0 87 47 135.5t129 41.5v-34q-70 4 -104 -35t-34 -111v-33h138v-37z" />
    <glyph glyph-name=".notdef" horiz-adv-x="500" 
 />
    <glyph glyph-name=".notdef" horiz-adv-x="500" 
 />
    <glyph glyph-name=".null" horiz-adv-x="0" 
 />
    <glyph glyph-name="nonmarkingreturn" horiz-adv-x="333" 
 />
    <glyph glyph-name="space" unicode=" " horiz-adv-x="295" 
 />
    <glyph glyph-name="exclam" unicode="!" horiz-adv-x="206" 
d="M85 179v515h37v-515h-37zM85 0v93h37v-93h-37z" />
    <glyph glyph-name="quotedbl" unicode="&#x22;" horiz-adv-x="233" 
d="M182 694v-179h-37v179h37zM89 694v-179h-37v179h37z" />
    <glyph glyph-name="numbersign" unicode="#" horiz-adv-x="517" 
d="M389 444l-28 -193h106l-6 -37h-106l-25 -177h-38l26 177h-156l-26 -177h-38l26 177h-106l6 37h105l28 193h-105l5 37h106l26 176h37l-26 -176h157l25 176h38l-26 -176h106l-5 -37h-106zM352 444h-157l-28 -193h156z" />
    <glyph glyph-name="dollar" unicode="$" horiz-adv-x="487" 
d="M259 45v-74h-35v74q-88 4 -142 56.5t-52 131.5h37q0 -70 45.5 -110t111.5 -44v264q-85 18 -132 53t-47 98q0 66 49 109t130 47v78h35v-78q83 -5 130 -53.5t47 -119.5h-37q0 61 -39 97t-101 41v-242q94 -20 138 -50q56 -40 56 -112q0 -73 -53.5 -117t-140.5 -49zM224 380
v235q-61 -4 -101.5 -35.5t-40.5 -85.5q0 -42 33 -68.5t109 -45.5zM416 211q0 50 -34.5 77.5t-122.5 46.5v-256q68 5 112.5 38.5t44.5 93.5z" />
    <glyph glyph-name="percent" unicode="%" horiz-adv-x="767" 
d="M180 680q63 0 108.5 -45t45.5 -109q0 -63 -45.5 -108t-108.5 -45q-64 0 -108.5 44.5t-44.5 108.5t44.5 109t108.5 45zM595 694l-381 -694h-42l380 694h43zM587 322q64 0 109 -45t45 -109t-45 -108.5t-109 -44.5q-63 0 -108 44.5t-45 108.5t45 109t108 45zM180 409
q48 0 82 34t34 83t-34 83.5t-82 34.5t-82 -34.5t-34 -83.5t34 -83t82 -34zM587 51q49 0 83 34t34 83t-34 83t-83 34q-48 0 -82 -34t-34 -83t34 -83t82 -34z" />
    <glyph glyph-name="ampersand" unicode="&#x26;" horiz-adv-x="620" 
d="M558 0l-81 96q-34 -52 -89.5 -80.5t-124.5 -28.5q-95 0 -163 58.5t-68 140.5q0 74 45.5 127t133.5 102l-32 38q-53 61 -53 119q0 60 42.5 100t104.5 40q60 0 101 -39.5t41 -99.5q0 -47 -37.5 -86.5t-112.5 -81.5l204 -244q20 49 20 108v57h37v-57q0 -77 -30 -140
l108 -129h-46zM205 476l37 -44q74 41 104 73.5t30 67.5q0 45 -29 75t-74 30q-47 0 -78 -30.5t-31 -75.5q0 -47 41 -96zM452 126l-219 262q-89 -50 -125 -96t-36 -104q0 -68 56 -117t135 -49q128 0 189 104z" />
    <glyph glyph-name="quotesingle" unicode="'" horiz-adv-x="139" 
d="M89 694v-179h-37v179h37z" />
    <glyph glyph-name="parenleft" unicode="(" horiz-adv-x="220" 
d="M235 778q-151 -198 -151 -453t151 -453h-41q-151 199 -151 453t151 453h41z" />
    <glyph glyph-name="parenright" unicode=")" horiz-adv-x="220" 
d="M-14 778h40q151 -197 151 -453t-151 -453h-40q151 198 151 453t-151 453z" />
    <glyph glyph-name="asterisk" unicode="*" horiz-adv-x="333" 
d="M312 543l-118 1l60 -101l-29 -17l-58 102l-58 -102l-29 17l60 101l-118 -1v33l118 -1l-60 102l29 16l58 -102l58 102l29 -16l-60 -102l118 2v-34z" />
    <glyph glyph-name="plus" unicode="+" horiz-adv-x="470" 
d="M436 258h-182v-183h-37v183h-182v36h182v182h37v-182h182v-36z" />
    <glyph glyph-name="comma" unicode="," horiz-adv-x="156" 
d="M61 93h36v-110q0 -39 -23.5 -61t-55.5 -22v34q43 2 43 49v110z" />
    <glyph glyph-name="hyphen" unicode="-" horiz-adv-x="301" 
d="M258 295v-37h-215v37h215z" />
    <glyph glyph-name="hyphen" unicode="&#xad;" horiz-adv-x="301" 
d="M258 295v-37h-215v37h215z" />
    <glyph glyph-name="period" unicode="." horiz-adv-x="156" 
d="M97 93v-93h-37v93h37z" />
    <glyph glyph-name="slash" unicode="/" horiz-adv-x="268" 
d="M10 0l211 744h38l-210 -744h-39z" />
    <glyph glyph-name="zero" unicode="0" horiz-adv-x="550" 
d="M276 697q99 0 170 -87t71 -268q0 -94 -21 -165t-56.5 -111t-76.5 -59.5t-87 -19.5t-87.5 19.5t-77 59.5t-56.5 111t-21 165t21 165t56.5 111t77 59.5t87.5 19.5zM276 23q96 0 150 85t54 234q0 150 -54 235t-150 85q-97 0 -151 -85t-54 -235t54 -234.5t151 -84.5z" />
    <glyph glyph-name="one" unicode="1" horiz-adv-x="317" 
d="M193 694v-694h-37v590h-102v30q100 3 107 74h32z" />
    <glyph glyph-name="two" unicode="2" horiz-adv-x="529" 
d="M53 468q0 97 59.5 163t165.5 66q103 0 157.5 -55t54.5 -131q0 -79 -48 -130.5t-168 -116.5q-100 -54 -145.5 -103.5t-50.5 -123.5h412v-37h-450v19q0 54 16 96.5t49.5 75.5t66.5 55.5t85 50.5q113 61 154.5 104.5t41.5 109.5q0 60 -43 105t-132 45q-85 0 -136 -53.5
t-52 -139.5h-37z" />
    <glyph glyph-name="three" unicode="3" horiz-adv-x="540" 
d="M500 190q0 -81 -61 -141.5t-174 -60.5q-109 0 -169.5 56t-63.5 158h37q8 -179 196 -179q96 0 147 49.5t51 117.5q0 70 -41 109q-49 46 -142 46h-59v36h47q85 0 131 44q37 34 37 98q0 65 -44 102t-122 37q-76 0 -126.5 -44t-51.5 -124h-37q0 85 56.5 144t158.5 59
q104 0 153.5 -51t49.5 -123q0 -58 -29 -98.5t-79 -58.5q135 -37 135 -176z" />
    <glyph glyph-name="four" unicode="4" horiz-adv-x="535" 
d="M408 178v-178h-38v178h-342v37l342 479h38v-479h97v-37h-97zM370 215v417l-297 -417h297z" />
    <glyph glyph-name="five" unicode="5" horiz-adv-x="519" 
d="M487 217q0 -100 -64.5 -164.5t-164.5 -64.5q-96 0 -158 53.5t-69 139.5h38q6 -70 57 -113.5t132 -43.5q85 0 138.5 54t53.5 139t-51 138.5t-133 53.5q-52 0 -97.5 -25t-75.5 -69l-34 13l47 366h347v-37h-314l-36 -281q30 32 74 50.5t89 18.5q96 0 158.5 -64.5
t62.5 -163.5z" />
    <glyph glyph-name="six" unicode="6" horiz-adv-x="523" 
d="M501 217q0 -101 -62 -165t-160 -64q-101 0 -170.5 77.5t-69.5 239.5q0 187 65 289.5t183 102.5q80 0 133 -45t68 -124h-37q-14 63 -56.5 98t-107.5 35q-100 0 -155.5 -94.5t-56.5 -266.5q25 64 82.5 105t125.5 41q96 0 157 -64t61 -165zM464 217q0 86 -50 139.5
t-131 53.5t-136 -58t-55 -144q0 -73 53 -128.5t134 -55.5q82 0 133.5 54t51.5 139z" />
    <glyph glyph-name="seven" unicode="7" horiz-adv-x="523" 
d="M495 694v-41q-127 -109 -207 -281t-97 -372h-38q20 227 114 414q78 156 182 243h-418v37h464z" />
    <glyph glyph-name="eight" unicode="8" horiz-adv-x="529" 
d="M498 189q0 -87 -66 -144.5t-166 -57.5q-101 0 -167 57.5t-66 144.5q0 67 39.5 115.5t106.5 68.5q-53 19 -84.5 59.5t-31.5 92.5q0 75 57 123.5t146 48.5q88 0 145 -48.5t57 -123.5q0 -52 -31.5 -92.5t-84.5 -59.5q67 -20 106.5 -68.5t39.5 -115.5zM266 390q71 0 118 38.5
t47 96.5q0 59 -47 97.5t-118 38.5q-72 0 -119 -38.5t-47 -97.5t47 -97t119 -38zM461 189q0 73 -54.5 119t-140.5 46q-87 0 -141.5 -46t-54.5 -119q0 -72 55.5 -118.5t140.5 -46.5t140 46.5t55 118.5z" />
    <glyph glyph-name="nine" unicode="9" horiz-adv-x="530" 
d="M493 364q0 -90 -15 -158.5t-38 -108.5t-56 -65.5t-64 -34.5t-67 -9q-84 0 -139.5 43t-68.5 123h38q11 -62 56 -96t114 -34q59 0 101 30t63.5 84t30.5 114.5t8 133.5q-18 -64 -70.5 -105.5t-127.5 -41.5q-98 0 -162 64.5t-64 164.5q0 101 62 165t160 64q46 0 86 -16.5
t76 -52.5t56.5 -103.5t20.5 -160.5zM438 469q0 81 -51 136.5t-133 55.5t-133.5 -54t-51.5 -139t53 -139t136 -54t131.5 58t48.5 136z" />
    <glyph glyph-name="colon" unicode=":" horiz-adv-x="157" 
d="M98 479v-92h-37v92h37zM98 93v-93h-37v93h37z" />
    <glyph glyph-name="semicolon" unicode=";" horiz-adv-x="157" 
d="M98 479v-92h-37v92h37zM61 93h36v-110q0 -39 -23.5 -61t-55.5 -22v34q43 2 43 49v110z" />
    <glyph glyph-name="semicolon" unicode="&#x37e;" horiz-adv-x="157" 
d="M98 479v-92h-37v92h37zM61 93h36v-110q0 -39 -23.5 -61t-55.5 -22v34q43 2 43 49v110z" />
    <glyph glyph-name="less" unicode="&#x3c;" horiz-adv-x="470" 
d="M83 277v-2l345 -155v-40l-388 175v41l388 176v-40z" />
    <glyph glyph-name="equal" unicode="=" horiz-adv-x="449" 
d="M407 375v-36h-363v36h363zM407 213v-36h-363v36h363z" />
    <glyph glyph-name="greater" unicode="&#x3e;" horiz-adv-x="470" 
d="M389 275v2l-345 155v40l388 -176v-41l-388 -175v40z" />
    <glyph glyph-name="question" unicode="?" horiz-adv-x="486" 
d="M25 515q6 91 64.5 143.5t154.5 52.5q97 0 154.5 -51t57.5 -136q0 -27 -7.5 -50.5t-14.5 -37t-26.5 -32t-27 -24t-32.5 -24.5q-32 -24 -50.5 -42t-34.5 -52t-16 -75v-8h-37v8q0 38 9 68.5t29.5 54.5t35 37t42.5 34q32 24 47.5 38.5t30 42.5t14.5 63q0 69 -46.5 110.5
t-127.5 41.5q-80 0 -128 -43.5t-53 -118.5h-38zM210 0v93h37v-93h-37z" />
    <glyph glyph-name="at" unicode="@" horiz-adv-x="741" 
d="M650 150h45q-51 -78 -130 -120.5t-177 -42.5q-146 0 -249 106t-103 255q0 150 104 256.5t251 106.5q60 0 116.5 -19t103.5 -55.5t75.5 -97.5t28.5 -138q0 -106 -59 -190t-133 -84q-37 0 -58 23.5t-18 64.5q-60 -75 -144 -75q-75 0 -110.5 67t-12.5 150q25 88 89.5 145
t138.5 57q44 0 74.5 -22.5t40.5 -64.5l22 70h38l-93 -300q-12 -40 -2.5 -61t36.5 -21q58 0 106 75.5t48 165.5q0 68 -25 122.5t-67 87t-92 50t-103 17.5q-132 0 -225 -97.5t-93 -232.5q0 -134 92.5 -230t222.5 -96q167 0 262 128zM485 351q9 29 11.5 57.5t-3.5 55.5
t-27 43.5t-56 16.5q-62 0 -117 -49t-77 -128q-19 -67 7.5 -119.5t80.5 -52.5q59 0 107 47t74 129z" />
    <glyph glyph-name="A" unicode="A" horiz-adv-x="583" 
d="M446 239h-309l-92 -239h-40l266 694h41l266 -694h-40zM432 276l-141 367l-140 -367h281z" />
    <glyph glyph-name="B" unicode="B" horiz-adv-x="626" 
d="M586 192q0 -85 -56 -138.5t-145 -53.5h-301v694h295q87 0 137 -46.5t50 -127.5q0 -54 -26 -94t-72 -60q118 -41 118 -174zM121 657v-275h261q60 0 103.5 35.5t43.5 102.5q0 65 -39.5 101t-110.5 36h-258zM549 192q0 73 -44 113.5t-123 40.5h-261v-309h264q67 0 115.5 40
t48.5 115z" />
    <glyph glyph-name="C" unicode="C" horiz-adv-x="729" 
d="M695 220q-38 -103 -125.5 -167.5t-194.5 -64.5q-142 0 -242.5 106t-100.5 256q0 149 100.5 255t242.5 106q110 0 197.5 -64t123.5 -167h-40q-35 88 -110.5 141t-170.5 53q-127 0 -216.5 -95t-89.5 -229q0 -135 89.5 -230t216.5 -95q92 0 167.5 53.5t112.5 141.5h40z" />
    <glyph glyph-name="D" unicode="D" horiz-adv-x="673" 
d="M643 348q0 -161 -83 -254.5t-226 -93.5h-250v694h250q145 0 227 -91.5t82 -254.5zM606 348q0 148 -71 228.5t-201 80.5h-213v-620h213q127 0 199.5 82.5t72.5 228.5z" />
    <glyph glyph-name="E" unicode="E" horiz-adv-x="598" 
d="M121 657v-275h379v-36h-379v-309h423v-37h-460v694h460v-37h-423z" />
    <glyph glyph-name="F" unicode="F" horiz-adv-x="563" 
d="M121 657v-275h362v-36h-362v-346h-37v694h442v-37h-405z" />
    <glyph glyph-name="G" unicode="G" horiz-adv-x="760" 
d="M711 356v-356h-37v189q-38 -94 -116.5 -147.5t-182.5 -53.5q-142 0 -242.5 106t-100.5 256q0 149 100.5 255t242.5 106q115 0 200 -61.5t122 -169.5h-40q-35 91 -109 142.5t-173 51.5q-127 0 -216.5 -95t-89.5 -229q0 -135 89.5 -230t216.5 -95q123 0 205 81.5t93 212.5
h-291v37h329z" />
    <glyph glyph-name="H" unicode="H" horiz-adv-x="706" 
d="M624 694v-694h-37v345h-466v-345h-37v694h37v-311h466v311h37z" />
    <glyph glyph-name="I" unicode="I" horiz-adv-x="209" 
d="M124 694v-694h-37v694h37z" />
    <glyph glyph-name="J" unicode="J" horiz-adv-x="519" 
d="M437 694v-489q0 -99 -57 -158.5t-152 -59.5q-88 0 -148 60.5t-60 148.5h37q0 -73 49 -122t122 -49q80 0 126 48.5t46 131.5v489h37z" />
    <glyph glyph-name="K" unicode="K" horiz-adv-x="586" 
d="M260 400l-142 -143v-257h-37v694h37v-386l380 386h52l-264 -267l307 -427h-46z" />
    <glyph glyph-name="L" unicode="L" horiz-adv-x="545" 
d="M121 694v-657h399v-37h-436v694h37z" />
    <glyph glyph-name="M" unicode="M" horiz-adv-x="814" 
d="M733 694v-694h-38v607l-266 -607h-41l-267 607v-607h-37v694h39l285 -649l285 649h40z" />
    <glyph glyph-name="N" unicode="N" horiz-adv-x="708" 
d="M627 694v-694h-42l-464 638v-638h-37v694h42l464 -638v638h37z" />
    <glyph glyph-name="O" unicode="O" horiz-adv-x="748" 
d="M375 711q145 0 244 -104.5t99 -256.5q0 -150 -100.5 -256t-242.5 -106t-242.5 106t-100.5 256q0 149 100.5 255t242.5 106zM375 25q127 0 216 95.5t89 229.5q0 136 -88.5 230t-216.5 94q-127 0 -216.5 -95t-89.5 -229q0 -135 89.5 -230t216.5 -95z" />
    <glyph glyph-name="P" unicode="P" horiz-adv-x="591" 
d="M567 502q0 -86 -56.5 -139.5t-146.5 -53.5h-243v-309h-37v694h277q95 0 150.5 -51.5t55.5 -140.5zM530 502q0 74 -44.5 114.5t-124.5 40.5h-240v-311h243q68 0 117 40.5t49 115.5z" />
    <glyph glyph-name="Q" unicode="Q" horiz-adv-x="748" 
d="M602 79l82 -79h-54l-56 55q-89 -67 -199 -67q-142 0 -242.5 106t-100.5 256q0 149 100.5 255t242.5 106q145 0 244 -104.5t99 -256.5q0 -79 -31 -150t-85 -121zM681 350q0 137 -88.5 230.5t-217.5 93.5q-127 0 -216.5 -95t-89.5 -229q0 -135 89.5 -230t216.5 -95
q94 0 172 56l-83 80h54l57 -56q106 98 106 245z" />
    <glyph glyph-name="R" unicode="R" horiz-adv-x="629" 
d="M562 84q0 -46 15 -84h-38q-14 30 -14 75v101q0 39 -13 67t-36 41.5t-46.5 19.5t-51.5 6h-257v-310h-37v694h292q96 0 151.5 -51.5t55.5 -140.5q0 -61 -31 -107t-85 -67q95 -36 95 -152v-92zM380 346q67 0 116 40.5t49 115.5q0 74 -44 114.5t-125 40.5h-255v-311h259z" />
    <glyph glyph-name="S" unicode="S" horiz-adv-x="596" 
d="M297 712q113 0 173 -60.5t60 -144.5h-37q0 77 -53.5 123t-142.5 46t-143.5 -41t-54.5 -108q0 -57 47.5 -90.5t158.5 -56.5q128 -26 187 -67.5t59 -126.5q0 -91 -70 -145t-187 -54q-100 0 -175.5 58.5t-75.5 165.5h37q0 -90 63.5 -138t150.5 -48q102 0 161 43t59 118
q0 64 -47 98.5t-169 59.5q-52 10 -89.5 22.5t-73.5 33t-54.5 52.5t-18.5 75q0 83 64.5 134t170.5 51z" />
    <glyph glyph-name="T" unicode="T" horiz-adv-x="516" 
d="M511 657h-234v-657h-37v657h-233v37h504v-37z" />
    <glyph glyph-name="U" unicode="U" horiz-adv-x="676" 
d="M605 694v-446q0 -115 -74 -188t-192 -73q-117 0 -191.5 73t-74.5 188v446h37v-446q0 -100 63.5 -161.5t165.5 -61.5q103 0 166 61.5t63 161.5v446h37z" />
    <glyph glyph-name="V" unicode="V" horiz-adv-x="557" 
d="M554 694l-255 -694h-40l-256 694h40l236 -641l235 641h40z" />
    <glyph glyph-name="W" unicode="W" horiz-adv-x="845" 
d="M838 694l-197 -694h-39l-178 629l-178 -629h-39l-198 694h39l178 -628l178 628h40l178 -628l178 628h38z" />
    <glyph glyph-name="X" unicode="X" horiz-adv-x="536" 
d="M486 0l-217 320l-217 -320h-45l239 353l-231 341h45l209 -308l209 308h45l-232 -341l240 -353h-45z" />
    <glyph glyph-name="Y" unicode="Y" horiz-adv-x="546" 
d="M292 300v-300h-37v300l-249 394h44l223 -354l223 354h44z" />
    <glyph glyph-name="Z" unicode="Z" horiz-adv-x="546" 
d="M538 37v-37h-525v37l478 620h-466v37h513v-38l-478 -619h478z" />
    <glyph glyph-name="bracketleft" unicode="[" horiz-adv-x="263" 
d="M110 706v-718h128v-36h-165v790h165v-36h-128z" />
    <glyph glyph-name="backslash" unicode="\" horiz-adv-x="269" 
d="M260 0h-38l-211 744h39z" />
    <glyph glyph-name="bracketright" unicode="]" horiz-adv-x="263" 
d="M155 706h-127v36h164v-790h-164v36h127v718z" />
    <glyph glyph-name="asciicircum" unicode="^" horiz-adv-x="543" 
d="M32 258l220 436h41l220 -436h-41l-199 395l-200 -395h-41z" />
    <glyph glyph-name="underscore" unicode="_" horiz-adv-x="787" 
d="M-11 -105v36h811v-36h-811z" />
    <glyph glyph-name="grave" unicode="`" horiz-adv-x="395" 
d="M108 695h47l84 -102h-41z" />
    <glyph glyph-name="a" unicode="a" horiz-adv-x="547" 
d="M492 0h-38q-14 30 -14 75v10q-31 -44 -89 -69t-133 -25t-131 37.5t-56 106.5q0 42 18 71.5t51.5 46t68 24.5t81.5 12q50 5 79 9.5t57.5 13.5t41 24.5t12.5 38.5q0 44 -27 72t-61.5 36.5t-77.5 8.5q-144 0 -178 -109h-38q17 69 73 107t143 38q97 0 150 -40t53 -113v-291
q0 -46 15 -84zM440 187v118q-19 -17 -52.5 -28t-60 -14.5t-73.5 -7.5q-98 -10 -140.5 -37.5t-42.5 -81.5q0 -30 15.5 -52.5t39.5 -34t47 -16.5t45 -5q91 0 156.5 41t65.5 118z" />
    <glyph glyph-name="b" unicode="b" horiz-adv-x="614" 
d="M588 256q0 -111 -75.5 -189.5t-182.5 -78.5q-70 0 -128.5 37t-91.5 99v-124h-37v744h37v-354q33 63 91.5 100.5t128.5 37.5q107 0 182.5 -80t75.5 -192zM550 256q0 97 -64.5 165.5t-155.5 68.5t-155.5 -68.5t-64.5 -165.5q0 -95 64.5 -163t155.5 -68t155.5 68t64.5 163z
" />
    <glyph glyph-name="c" unicode="c" horiz-adv-x="562" 
d="M523 160q-26 -79 -89.5 -125.5t-148.5 -46.5q-106 0 -181.5 78.5t-75.5 189.5q0 113 75.5 192.5t181.5 79.5q85 0 148 -46.5t90 -125.5h-40q-25 62 -77.5 98t-120.5 36q-91 0 -155.5 -68.5t-64.5 -165.5q0 -95 64.5 -163t155.5 -68q71 0 123.5 36t75.5 99h39z" />
    <glyph glyph-name="d" unicode="d" horiz-adv-x="613" 
d="M542 744v-744h-37v124q-32 -62 -90.5 -99t-129.5 -37q-106 0 -181.5 78.5t-75.5 189.5q0 113 75.5 192.5t181.5 79.5q71 0 129.5 -37.5t90.5 -100.5v354h37zM505 256q0 97 -64.5 165.5t-155.5 68.5t-155.5 -68.5t-64.5 -165.5q0 -95 64.5 -163t155.5 -68t155.5 68
t64.5 163z" />
    <glyph glyph-name="e" unicode="e" horiz-adv-x="568" 
d="M542 258h-477q1 -100 66.5 -166.5t159.5 -66.5q151 0 201 135h39q-27 -84 -88.5 -128t-151.5 -44q-110 0 -186.5 78t-76.5 190q0 113 75.5 192.5t181.5 79.5q111 0 185 -83.5t72 -186.5zM69 295h433q-14 84 -75 139.5t-142 55.5t-142 -55.5t-74 -139.5z" />
    <glyph glyph-name="f" unicode="f" horiz-adv-x="259" 
d="M256 478h-138v-478h-38v478h-70v37h70v36q0 87 47 135.5t129 41.5v-34q-70 4 -104 -35t-34 -111v-33h138v-37z" />
    <glyph glyph-name="g" unicode="g" horiz-adv-x="612" 
d="M546 515v-501q0 -119 -70 -192.5t-184 -73.5q-90 0 -153.5 44.5t-86.5 124.5h39q22 -63 74.5 -97.5t126.5 -34.5q99 0 158 62.5t59 166.5v106q-31 -61 -89 -97t-130 -36q-106 0 -181.5 79t-75.5 190q0 113 75.5 192.5t181.5 79.5q72 0 130 -36t89 -98v121h37zM509 256
q0 102 -62 168t-157 66q-91 0 -155.5 -68.5t-64.5 -165.5q0 -95 64.5 -163t155.5 -68q95 0 157 65.5t62 165.5z" />
    <glyph glyph-name="h" unicode="h" 
d="M506 311v-311h-37v311q0 86 -45 133.5t-129 47.5q-78 0 -131.5 -51.5t-53.5 -129.5v-311h-37v744h37v-316q28 47 76.5 73.5t109.5 26.5q99 0 154.5 -58t55.5 -159z" />
    <glyph glyph-name="i" unicode="i" horiz-adv-x="191" 
d="M115 694v-92h-37v92h37zM115 515v-515h-37v515h37z" />
    <glyph glyph-name="j" unicode="j" horiz-adv-x="182" 
d="M110 694v-92h-37v92h37zM110 515v-614q0 -69 -36 -102q-36 -34 -98 -27v36q48 -4 73 18q24 22 24 75v614h37z" />
    <glyph glyph-name="k" unicode="k" horiz-adv-x="500" 
d="M243 300l-133 -128v-172h-37v744h37v-521l302 292h53l-195 -188l220 -327h-45z" />
    <glyph glyph-name="l" unicode="l" horiz-adv-x="191" 
d="M115 744v-744h-37v744h37z" />
    <glyph glyph-name="m" unicode="m" horiz-adv-x="885" 
d="M818 332v-332h-37v332q0 69 -45 113.5t-114 44.5q-68 0 -113 -44.5t-45 -113.5v-332h-37v332q0 69 -45 113.5t-114 44.5q-68 0 -113 -44.5t-45 -113.5v-332h-37v515h37v-70q52 83 158 83q62 0 110 -31t70 -83q21 53 67 83.5t107 30.5q85 0 140.5 -55.5t55.5 -140.5z" />
    <glyph glyph-name="n" unicode="n" 
d="M506 311v-311h-37v311q0 86 -45 133.5t-129 47.5q-78 0 -131.5 -51.5t-53.5 -129.5v-311h-37v515h37v-87q28 47 76.5 73.5t109.5 26.5q99 0 154.5 -58t55.5 -159z" />
    <glyph glyph-name="o" unicode="o" horiz-adv-x="569" 
d="M285 528q107 0 182.5 -80t75.5 -192q0 -111 -75.5 -189.5t-182.5 -78.5q-106 0 -181.5 78.5t-75.5 189.5q0 112 75.5 192t181.5 80zM285 23q91 0 155.5 68.5t64.5 164.5q0 98 -64.5 167.5t-155.5 69.5t-155.5 -69.5t-64.5 -167.5q0 -96 64.5 -164.5t155.5 -68.5z" />
    <glyph glyph-name="p" unicode="p" horiz-adv-x="609" 
d="M583 256q0 -111 -75.5 -189.5t-182.5 -78.5q-70 0 -128.5 37t-91.5 99v-353h-37v744h37v-125q33 63 91.5 100.5t128.5 37.5q107 0 182.5 -80t75.5 -192zM545 256q0 97 -64.5 165.5t-155.5 68.5t-155.5 -68.5t-64.5 -165.5q0 -95 64.5 -163t155.5 -68t155.5 68t64.5 163z
" />
    <glyph glyph-name="q" unicode="q" horiz-adv-x="608" 
d="M542 515v-744h-37v353q-32 -62 -90.5 -99t-129.5 -37q-106 0 -181.5 78.5t-75.5 189.5q0 113 75.5 192.5t181.5 79.5q71 0 129.5 -37.5t90.5 -100.5v125h37zM505 256q0 97 -64.5 165.5t-155.5 68.5t-155 -68.5t-64 -165.5q0 -95 64 -163t155 -68t155.5 68t64.5 163z" />
    <glyph glyph-name="r" unicode="r" horiz-adv-x="328" 
d="M320 526v-34q-98 9 -152 -44q-57 -51 -57 -137v-311h-38v515h38v-86q15 28 34 46q71 63 175 51z" />
    <glyph glyph-name="s" unicode="s" horiz-adv-x="511" 
d="M478 146q2 -59 -36 -98q-58 -60 -170 -60q-99 0 -162.5 42t-76.5 120h37q13 -62 65.5 -94.5t135.5 -32.5q95 0 144 51q28 30 25 71q-1 47 -42.5 73t-136.5 40q-37 5 -56 8.5t-51.5 13.5t-49 22t-30 34.5t-14.5 51.5q0 57 52 98.5t143 41.5q86 0 140.5 -37t70.5 -107h-38
q-33 109 -172 109q-69 0 -114 -30t-44 -75q1 -42 39.5 -61.5t129.5 -32.5q46 -7 78.5 -15.5t64.5 -25t49 -43.5t19 -64z" />
    <glyph glyph-name="t" unicode="t" horiz-adv-x="279" 
d="M117 478v-300q0 -69 34 -108t105 -36v-34q-82 -7 -129 41.5t-47 136.5v300h-70v37h70v110h37v-110h139v-37h-139z" />
    <glyph glyph-name="u" unicode="u" 
d="M502 515v-515h-37v85q-57 -97 -180 -97q-94 0 -155 61t-61 155v311h37v-311q0 -78 51 -128.5t128 -50.5q79 0 129.5 50.5t50.5 128.5v311h37z" />
    <glyph glyph-name="v" unicode="v" horiz-adv-x="448" 
d="M442 515l-198 -515h-40l-198 515h40l178 -464l178 464h40z" />
    <glyph glyph-name="w" unicode="w" horiz-adv-x="694" 
d="M683 515l-157 -515h-40l-138 454l-138 -454h-40l-157 515h39l138 -454l138 454h40l138 -454l138 454h39z" />
    <glyph glyph-name="x" unicode="x" horiz-adv-x="432" 
d="M387 0l-170 235l-170 -235h-46l193 266l-181 249h46l158 -217l158 217h46l-181 -249l193 -266h-46z" />
    <glyph glyph-name="y" unicode="y" horiz-adv-x="445" 
d="M437 515l-222 -590q-55 -145 -200 -118v35q62 -9 102 13t63 83l24 63l-194 514h40l173 -462l175 462h39z" />
    <glyph glyph-name="z" unicode="z" horiz-adv-x="437" 
d="M431 37v-37h-421v37l362 441h-351v37h399v-37l-362 -441h373z" />
    <glyph glyph-name="braceleft" unicode="{" horiz-adv-x="254" 
d="M224 -37v-31q-56 -3 -85 28.5t-29 89.5v174q0 96 -69 96h-5v34h5q69 0 69 96v174q0 58 29 89t85 28v-30q-77 0 -77 -83v-174q0 -91 -57 -117q57 -26 57 -117v-175q0 -82 77 -82z" />
    <glyph glyph-name="bar" unicode="|" horiz-adv-x="198" 
d="M82 744h37v-744h-37v744z" />
    <glyph glyph-name="braceright" unicode="}" horiz-adv-x="254" 
d="M220 354v-34h-5q-69 0 -69 -96v-174q0 -58 -29 -89.5t-85 -28.5v31q77 0 77 82v175q0 90 56 117q-56 27 -56 117v174q0 83 -77 83v30q56 3 85 -28t29 -89v-174q0 -96 69 -96h5z" />
    <glyph glyph-name="asciitilde" unicode="~" horiz-adv-x="402" 
d="M331 845q-8 -37 -27.5 -55.5t-44.5 -18.5q-27 0 -61.5 21.5t-52.5 20.5q-27 0 -40 -38h-32q8 37 28 55.5t44 18.5q28 0 62 -21.5t52 -21.5q27 0 40 39h32z" />
    <glyph glyph-name="exclamdown" unicode="&#xa1;" horiz-adv-x="207" 
d="M123 694v-92h-37v92h37zM123 515v-515h-37v515h37z" />
    <glyph glyph-name="cent" unicode="&#xa2;" horiz-adv-x="504" 
d="M485 163q-23 -79 -82.5 -126.5t-139.5 -47.5q-35 0 -66 9l-37 -115h-37l41 128q-64 30 -102 95.5t-38 147.5q0 113 68.5 189.5t170.5 76.5q33 0 63 -9l37 114h37l-41 -126q90 -42 124 -146h-39q-30 79 -96 112l-140 -433q27 -8 55 -8q64 0 113 37.5t70 101.5h39zM175 45
l140 433q-22 7 -52 7q-86 0 -144 -66.5t-58 -164.5q0 -69 31 -125t83 -84z" />
    <glyph glyph-name="sterling" unicode="&#xa3;" horiz-adv-x="530" 
d="M507 36q-38 -29 -79 -36.5t-71.5 -0.5t-70.5 25q-53 23 -113.5 16t-116.5 -43l-21 31q52 37 82 91t30 110q0 44 -23 94h-104v35h84q-1 3 -5 9q-17 29 -25 44t-16.5 43t-8.5 54q0 76 55.5 131.5t158.5 55.5q106 0 162 -59.5t56 -142.5h-37q0 75 -49.5 121t-131.5 46
q-80 0 -128 -41.5t-48 -110.5q0 -47 44 -122q1 -3 7 -12.5t9 -15.5h193v-35h-175q19 -48 19 -94q0 -44 -18 -91t-48 -77q47 18 94.5 16.5t86.5 -19.5q56 -26 99.5 -26t87.5 35z" />
    <glyph glyph-name="yen" unicode="&#xa5;" horiz-adv-x="494" 
d="M367 468h101v-37h-122l-73 -128h180v-36h-186v-267h-37v267h-186v36h179l-73 128h-121v37h101l-130 226h43l205 -359h1l204 359h43z" />
    <glyph glyph-name="section" unicode="&#xa7;" horiz-adv-x="503" 
d="M396 202q29 -29 29 -77q0 -62 -47 -100t-125 -38q-84 0 -128 45t-44 108h37q0 -53 37 -85t98 -32q63 0 99 27.5t36 74.5q0 42 -35 66t-121 40q-35 7 -58 12.5t-51.5 17t-45.5 26t-29 37.5t-12 53q0 81 75 119q-30 30 -30 78q0 62 47.5 99.5t125.5 37.5q84 0 127.5 -44.5
t43.5 -107.5h-37q0 53 -37 85.5t-97 32.5q-62 0 -99 -28.5t-37 -74.5q0 -44 37.5 -67t119.5 -39q35 -7 58.5 -13t51.5 -17.5t44.5 -25.5t28 -37t11.5 -53q0 -83 -73 -120zM432 322q0 46 -35.5 70t-128.5 41q-85 17 -126 40q-31 -11 -50 -37.5t-19 -58.5q0 -44 37 -69.5
t128 -41.5q85 -15 128 -40q30 10 48 36.5t18 59.5z" />
    <glyph glyph-name="dieresis" unicode="&#xa8;" horiz-adv-x="394" 
d="M290 595h-48v69h48v-69zM154 595h-47v69h47v-69z" />
    <glyph glyph-name="copyright" unicode="&#xa9;" horiz-adv-x="776" 
d="M389 711q149 0 255.5 -106t106.5 -256q0 -149 -106.5 -255.5t-255.5 -106.5t-255 106.5t-106 255.5q0 150 106 256t255 106zM389 23q134 0 229.5 95.5t95.5 230.5q0 136 -95.5 231.5t-229.5 95.5t-229 -95.5t-95 -231.5q0 -135 95 -230.5t229 -95.5zM574 278
q-21 -60 -71.5 -97.5t-113.5 -37.5q-82 0 -139.5 60.5t-57.5 146.5t57.5 146.5t139.5 60.5q64 0 114.5 -37.5t71.5 -98.5h-39q-19 45 -58 72.5t-88 27.5q-67 0 -114 -50t-47 -121t47 -121.5t114 -50.5q47 0 86.5 27.5t58.5 72.5h39z" />
    <glyph glyph-name="ordfeminine" unicode="&#xaa;" horiz-adv-x="378" 
d="M286 385q-8 16 -8 39q-38 -52 -127 -52q-48 0 -84 24.5t-36 70.5q0 87 138 99q57 5 82 14.5t25 35.5q0 24 -23.5 41.5t-67.5 17.5q-81 0 -100 -60h-38q10 43 45.5 68.5t91.5 25.5q41 0 69 -10.5t40 -28t16 -31.5t4 -29v-175q0 -26 10 -50h-37zM277 497v67
q-19 -21 -103 -29q-106 -11 -106 -68q0 -32 26.5 -46t56.5 -14q53 0 89.5 23t36.5 67z" />
    <glyph glyph-name="guillemotleft" unicode="&#xab;" horiz-adv-x="337" 
d="M189 323l131 108v-48l-104 -84l104 -84v-48l-131 108v48zM20 323l130 108v-48l-103 -84l103 -84v-48l-130 108v48z" />
    <glyph glyph-name="registered" unicode="&#xae;" horiz-adv-x="776" 
d="M751 349q0 -149 -106.5 -255.5t-255.5 -106.5t-255 106.5t-106 255.5q0 150 106 256t255 106t255.5 -106t106.5 -256zM714 349q0 136 -95.5 231.5t-229.5 95.5t-229 -95.5t-95 -231.5q0 -135 95 -230.5t229 -95.5t229.5 95.5t95.5 230.5zM462 317l96 -169h-43l-92 167
h-131v-167h-37v401h180q58 0 91.5 -31t33.5 -86q0 -45 -26.5 -76t-71.5 -39zM523 432q0 81 -88 81h-143v-162h145q35 0 60.5 21t25.5 60z" />
    <glyph glyph-name="macron" unicode="&#xaf;" horiz-adv-x="414" 
d="M344 636v-37h-274v37h274z" />
    <glyph glyph-name="degree" unicode="&#xb0;" horiz-adv-x="352" 
d="M177 694q63 0 108 -45t45 -108q0 -64 -45 -109t-108 -45q-64 0 -109 45t-45 109q0 63 45 108t109 45zM177 423q48 0 82 34.5t34 83.5q0 48 -34 82.5t-82 34.5t-82.5 -34.5t-34.5 -82.5q0 -49 34.5 -83.5t82.5 -34.5z" />
    <glyph glyph-name="twosuperior" unicode="&#xb2;" horiz-adv-x="371" 
d="M78 293h248v-35h-286v18q0 64 39 107q27 32 98 71q70 38 94 63.5t24 62.5q0 40 -26.5 65t-74.5 25q-50 0 -79.5 -32.5t-29.5 -83.5h-37q0 68 41.5 108.5t104.5 40.5q64 0 103 -37q35 -33 35 -86q0 -51 -30 -83t-107 -74q-58 -31 -85.5 -60t-31.5 -70z" />
    <glyph glyph-name="threesuperior" unicode="&#xb3;" horiz-adv-x="377" 
d="M337 381q0 -53 -39.5 -92.5t-113.5 -39.5t-113 40t-39 100h38q0 -46 29 -76.5t85 -30.5t86 29.5t30 68.5q0 91 -118 91h-26v37h26q48 0 74.5 21.5t26.5 58.5t-25.5 59.5t-70.5 22.5q-46 0 -74.5 -27.5t-28.5 -72.5h-37q0 57 38.5 95t101.5 38q64 0 100 -33q33 -32 33 -82
q0 -69 -64 -96q81 -25 81 -111z" />
    <glyph glyph-name="acute" unicode="&#xb4;" horiz-adv-x="395" 
d="M303 695l-90 -102h-42l84 102h48z" />
    <glyph glyph-name="paragraph" unicode="&#xb6;" horiz-adv-x="519" 
d="M448 694v-694h-37v657h-111v-657h-37v309h-26q-90 0 -146.5 53.5t-56.5 139.5q0 89 55.5 140.5t150.5 51.5h208z" />
    <glyph glyph-name="periodcentered" unicode="&#xb7;" horiz-adv-x="156" 
d="M97 360v-93h-37v93h37z" />
    <glyph glyph-name="periodcentered" unicode="&#x22c5;" horiz-adv-x="156" 
d="M97 360v-93h-37v93h37z" />
    <glyph glyph-name="cedilla" unicode="&#xb8;" horiz-adv-x="300" 
d="M230 -117q0 -30 -21.5 -47.5t-56.5 -17.5q-46 0 -82 36l11 21q34 -29 69 -29q21 0 35 9.5t14 27.5q0 17 -12 28t-33 11q-25 0 -41 -15l-23 17l40 76h35l-34 -58q30 15 64.5 -2t34.5 -57z" />
    <glyph glyph-name="onesuperior" unicode="&#xb9;" horiz-adv-x="263" 
d="M149 694v-436h-38v360h-65v30q62 3 65 46h38z" />
    <glyph glyph-name="ordmasculine" unicode="&#xba;" horiz-adv-x="377" 
d="M189 709q67 0 114.5 -50t47.5 -120t-47.5 -119.5t-114.5 -49.5t-114 49.5t-47 119.5t47 120t114 50zM189 405q52 0 88 39t36 95t-36 96t-88 40q-51 0 -87.5 -40t-36.5 -96q0 -55 36.5 -94.5t87.5 -39.5z" />
    <glyph glyph-name="guillemotright" unicode="&#xbb;" horiz-adv-x="337" 
d="M319 323v-48l-130 -108v48l103 84l-103 84v48zM20 431l130 -108v-48l-130 -108v48l103 84l-103 84v48z" />
    <glyph glyph-name="onequarter" unicode="&#xbc;" horiz-adv-x="604" 
d="M112 618h-66v30q62 3 66 46h37v-436h-37v360zM507 694l-408 -706h-40l408 706h40zM574 105h-45v-105h-37v105h-213v34l213 297h37v-297h45v-34zM492 139v240l-170 -240h170z" />
    <glyph glyph-name="onehalf" unicode="&#xbd;" horiz-adv-x="708" 
d="M112 618h-66v30q62 3 66 46h37v-436h-37v360zM508 694l-408 -706h-40l408 706h40zM414 35h248v-35h-286v19q0 63 39 106q28 33 99 71q70 38 93.5 64t23.5 63q0 40 -26.5 64.5t-74.5 24.5q-50 0 -79.5 -32.5t-29.5 -83.5h-37q0 68 41.5 108.5t104.5 40.5q66 0 103 -37
q36 -34 36 -85q0 -52 -30.5 -84t-107.5 -74q-58 -32 -85.5 -60.5t-31.5 -69.5z" />
    <glyph glyph-name="threequarters" unicode="&#xbe;" horiz-adv-x="750" 
d="M183 249q-74 0 -112.5 40t-38.5 100h37q0 -46 29 -76.5t85 -30.5t86 29.5t30 68.5q0 91 -117 91h-27v37h27q47 0 73.5 21.5t26.5 58.5t-25.5 59.5t-70.5 22.5q-46 0 -74.5 -27.5t-28.5 -72.5h-38q0 57 39 95t102 38q64 0 100 -33q34 -32 34 -82q0 -69 -65 -96
q81 -25 81 -111q0 -53 -40 -92.5t-113 -39.5zM652 694l-407 -706h-40l407 706h40zM720 105h-45v-105h-37v105h-213v34l212 297h38v-297h45v-34zM638 139v240l-171 -240h171z" />
    <glyph glyph-name="questiondown" unicode="&#xbf;" horiz-adv-x="486" 
d="M278 691v-93h-38v93h38zM462 175q-5 -90 -64 -142.5t-155 -52.5t-154 51t-58 136q0 40 16 72.5t33 48t49 39.5q7 5 11 8q32 24 50.5 42t34 51.5t15.5 75.5v8h38v-8q0 -38 -9 -68.5t-30 -55t-35 -37t-42 -33.5q-32 -24 -48 -38.5t-30.5 -42.5t-14.5 -63q0 -69 47 -110.5
t127 -41.5t128.5 43.5t53.5 117.5h37z" />
    <glyph glyph-name="Agrave" unicode="&#xc0;" horiz-adv-x="583" 
d="M193 868h48l84 -103h-42zM446 239h-309l-92 -239h-40l266 694h41l266 -694h-40zM432 276l-141 367l-140 -367h281z" />
    <glyph glyph-name="Aacute" unicode="&#xc1;" horiz-adv-x="583" 
d="M400 868l-90 -103h-42l84 103h48zM446 239h-309l-92 -239h-40l266 694h41l266 -694h-40zM432 276l-141 367l-140 -367h281z" />
    <glyph glyph-name="Acircumflex" unicode="&#xc2;" horiz-adv-x="583" 
d="M178 763l81 98h45l81 -98h-45l-59 73l-58 -73h-45zM446 239h-309l-92 -239h-40l266 694h41l266 -694h-40zM432 276l-141 367l-140 -367h281z" />
    <glyph glyph-name="Atilde" unicode="&#xc3;" horiz-adv-x="583" 
d="M415 845q-8 -37 -27.5 -55.5t-44.5 -18.5q-27 0 -61.5 21.5t-52.5 20.5q-27 0 -40 -38h-31q7 37 27 55.5t44 18.5q28 0 62 -21.5t52 -21.5q28 0 40 39h32zM446 239h-309l-92 -239h-40l266 694h41l266 -694h-40zM432 276l-141 367l-140 -367h281z" />
    <glyph glyph-name="Adieresis" unicode="&#xc4;" horiz-adv-x="583" 
d="M373 777h-48v68h48v-68zM238 777h-48v68h48v-68zM446 239h-309l-92 -239h-40l266 694h41l266 -694h-40zM432 276l-141 367l-140 -367h281z" />
    <glyph glyph-name="Aring" unicode="&#xc5;" horiz-adv-x="583" 
d="M282 921q34 0 58 -24.5t24 -58.5t-24 -58t-58 -24t-58.5 24t-24.5 58t24.5 58.5t58.5 24.5zM446 239h-309l-92 -239h-40l266 694h41l266 -694h-40zM282 783q22 0 37.5 16t15.5 39t-15.5 39t-37.5 16q-23 0 -38.5 -16t-15.5 -39t16 -39t38 -16zM432 276l-141 367
l-140 -367h281z" />
    <glyph glyph-name="AE" unicode="&#xc6;" horiz-adv-x="980" 
d="M504 657v-274h379v-38h-379v-308h422v-37h-460v239h-316l-104 -239h-41l303 694h618v-37h-422zM466 277v380h-134l-166 -380h300z" />
    <glyph glyph-name="Ccedilla" unicode="&#xc7;" horiz-adv-x="730" 
d="M655 220h40q-38 -103 -125 -167.5t-194 -64.5h-8l-26 -46q30 15 64.5 -2t34.5 -57q0 -30 -21.5 -47.5t-56.5 -17.5q-47 0 -82 36l11 21q34 -29 69 -29q20 0 34 9.5t14 27.5q0 17 -12 28t-32 11q-25 0 -41 -15l-24 17l36 66q-129 16 -216.5 118.5t-87.5 241.5
q0 149 101 255t243 106q110 0 197 -64t124 -167h-40q-35 88 -110.5 141t-170.5 53q-127 0 -217 -95t-90 -229q0 -135 90 -230t217 -95q92 0 167.5 53.5t111.5 141.5z" />
    <glyph glyph-name="Egrave" unicode="&#xc8;" horiz-adv-x="598" 
d="M204 868h48l83 -103h-41zM121 657v-275h379v-36h-379v-309h423v-37h-460v694h460v-37h-423z" />
    <glyph glyph-name="Eacute" unicode="&#xc9;" horiz-adv-x="598" 
d="M415 868l-90 -103h-41l84 103h47zM121 657v-275h379v-36h-379v-309h423v-37h-460v694h460v-37h-423z" />
    <glyph glyph-name="Ecircumflex" unicode="&#xca;" horiz-adv-x="598" 
d="M210 763l80 98h45l81 -98h-45l-58 73l-58 -73h-45zM121 657v-275h379v-36h-379v-309h423v-37h-460v694h460v-37h-423z" />
    <glyph glyph-name="Edieresis" unicode="&#xcb;" horiz-adv-x="598" 
d="M411 777h-47v68h47v-68zM276 777h-48v68h48v-68zM121 657v-275h379v-36h-379v-309h423v-37h-460v694h460v-37h-423z" />
    <glyph glyph-name="Igrave" unicode="&#xcc;" horiz-adv-x="209" 
d="M-16 868h48l84 -103h-41zM124 694v-694h-37v694h37z" />
    <glyph glyph-name="Iacute" unicode="&#xcd;" horiz-adv-x="209" 
d="M215 867l-90 -102h-42l84 102h48zM124 694v-694h-37v694h37z" />
    <glyph glyph-name="Icircumflex" unicode="&#xce;" horiz-adv-x="209" 
d="M1 763l81 98h45l81 -98h-45l-58 73l-59 -73h-45zM124 694v-694h-37v694h37z" />
    <glyph glyph-name="Idieresis" unicode="&#xcf;" horiz-adv-x="209" 
d="M189 776h-48v69h48v-69zM67 776h-47v69h47v-69zM124 694v-694h-37v694h37z" />
    <glyph glyph-name="Eth" unicode="&#xd0;" horiz-adv-x="667" 
d="M637 348q0 -161 -83.5 -254.5t-226.5 -93.5h-250v363h-62v37h62v294h250q146 0 228 -91.5t82 -254.5zM599 348q0 148 -71 228.5t-201 80.5h-213v-257h235v-37h-235v-326h213q128 0 200 82.5t72 228.5z" />
    <glyph glyph-name="Ntilde" unicode="&#xd1;" horiz-adv-x="708" 
d="M493 845q-8 -37 -27.5 -55.5t-44.5 -18.5q-27 0 -61.5 21.5t-52.5 20.5q-27 0 -40 -38h-32q8 37 28 55.5t44 18.5q28 0 62 -21.5t52 -21.5q27 0 40 39h32zM627 694v-694h-42l-464 638v-638h-37v694h42l464 -638v638h37z" />
    <glyph glyph-name="Ograve" unicode="&#xd2;" horiz-adv-x="748" 
d="M258 868h47l84 -103h-41zM375 711q145 0 244 -104.5t99 -256.5q0 -150 -100.5 -256t-242.5 -106t-242.5 106t-100.5 256q0 149 100.5 255t242.5 106zM375 25q127 0 216 95.5t89 229.5q0 136 -88.5 230t-216.5 94q-127 0 -216.5 -95t-89.5 -229q0 -135 89.5 -230
t216.5 -95z" />
    <glyph glyph-name="Oacute" unicode="&#xd3;" horiz-adv-x="748" 
d="M488 868l-90 -103h-41l84 103h47zM375 711q145 0 244 -104.5t99 -256.5q0 -150 -100.5 -256t-242.5 -106t-242.5 106t-100.5 256q0 149 100.5 255t242.5 106zM375 25q127 0 216 95.5t89 229.5q0 136 -88.5 230t-216.5 94q-127 0 -216.5 -95t-89.5 -229q0 -135 89.5 -230
t216.5 -95z" />
    <glyph glyph-name="Ocircumflex" unicode="&#xd4;" horiz-adv-x="748" 
d="M266 763l81 98h45l81 -98h-45l-58 73l-59 -73h-45zM375 711q145 0 244 -104.5t99 -256.5q0 -150 -100.5 -256t-242.5 -106t-242.5 106t-100.5 256q0 149 100.5 255t242.5 106zM375 25q127 0 216 95.5t89 229.5q0 136 -88.5 230t-216.5 94q-127 0 -216.5 -95t-89.5 -229
q0 -135 89.5 -230t216.5 -95z" />
    <glyph glyph-name="Otilde" unicode="&#xd5;" horiz-adv-x="748" 
d="M496 845q-8 -37 -27.5 -55.5t-43.5 -18.5q-27 0 -62 21.5t-53 20.5q-27 0 -40 -38h-31q8 37 27.5 55.5t43.5 18.5q28 0 62.5 -21.5t52.5 -21.5q27 0 40 39h31zM375 711q145 0 244 -104.5t99 -256.5q0 -150 -100.5 -256t-242.5 -106t-242.5 106t-100.5 256
q0 149 100.5 255t242.5 106zM375 25q127 0 216 95.5t89 229.5q0 136 -88.5 230t-216.5 94q-127 0 -216.5 -95t-89.5 -229q0 -135 89.5 -230t216.5 -95z" />
    <glyph glyph-name="Odieresis" unicode="&#xd6;" horiz-adv-x="748" 
d="M463 777h-48v68h48v-68zM327 777h-47v68h47v-68zM375 711q145 0 244 -104.5t99 -256.5q0 -150 -100.5 -256t-242.5 -106t-242.5 106t-100.5 256q0 149 100.5 255t242.5 106zM375 25q127 0 216 95.5t89 229.5q0 136 -88.5 230t-216.5 94q-127 0 -216.5 -95t-89.5 -229
q0 -135 89.5 -230t216.5 -95z" />
    <glyph glyph-name="multiply" unicode="&#xd7;" horiz-adv-x="480" 
d="M266 254l199 -199l-26 -27l-199 200l-199 -200l-26 27l199 199l-199 199l26 26l199 -199l199 199l26 -26z" />
    <glyph glyph-name="Oslash" unicode="&#xd8;" horiz-adv-x="748" 
d="M718 350q0 -150 -100.5 -256t-242.5 -106q-134 0 -232 95l-71 -71l-24 23l72 73q-88 102 -88 242q0 149 100.5 255t242.5 106t241 -101l68 69l23 -24l-69 -70q80 -101 80 -235zM146 134l444 449q-88 91 -215 91t-216.5 -95t-89.5 -229q0 -125 77 -216zM680 350
q0 122 -69 208l-442 -448q87 -85 206 -85q127 0 216 95.5t89 229.5z" />
    <glyph glyph-name="Ugrave" unicode="&#xd9;" horiz-adv-x="676" 
d="M235 868h47l84 -103h-41zM605 694v-446q0 -115 -74 -188t-192 -73q-117 0 -191.5 73t-74.5 188v446h37v-446q0 -100 63.5 -161.5t165.5 -61.5q103 0 166 61.5t63 161.5v446h37z" />
    <glyph glyph-name="Uacute" unicode="&#xda;" horiz-adv-x="676" 
d="M445 868l-90 -103h-42l84 103h48zM605 694v-446q0 -115 -74 -188t-192 -73q-117 0 -191.5 73t-74.5 188v446h37v-446q0 -100 63.5 -161.5t165.5 -61.5q103 0 166 61.5t63 161.5v446h37z" />
    <glyph glyph-name="Ucircumflex" unicode="&#xdb;" horiz-adv-x="676" 
d="M243 763l80 98h45l81 -98h-45l-58 73l-58 -73h-45zM605 694v-446q0 -115 -74 -188t-192 -73q-117 0 -191.5 73t-74.5 188v446h37v-446q0 -100 63.5 -161.5t165.5 -61.5q103 0 166 61.5t63 161.5v446h37z" />
    <glyph glyph-name="Udieresis" unicode="&#xdc;" horiz-adv-x="676" 
d="M431 777h-48v68h48v-68zM296 777h-48v68h48v-68zM605 694v-446q0 -115 -74 -188t-192 -73q-117 0 -191.5 73t-74.5 188v446h37v-446q0 -100 63.5 -161.5t165.5 -61.5q103 0 166 61.5t63 161.5v446h37z" />
    <glyph glyph-name="Yacute" unicode="&#xdd;" horiz-adv-x="546" 
d="M398 850l-90 -103h-42l84 103h48zM292 300v-300h-37v300l-249 394h44l223 -354h1l222 354h44z" />
    <glyph glyph-name="Thorn" unicode="&#xde;" horiz-adv-x="592" 
d="M568 372q0 -85 -57 -138.5t-146 -53.5h-244v-180h-37v694h37v-129h241q95 0 150.5 -52t55.5 -141zM530 372q0 74 -44 115t-124 41h-241v-311h244q68 0 116.5 40t48.5 115z" />
    <glyph glyph-name="germandbls" unicode="&#xdf;" horiz-adv-x="597" 
d="M393 402q79 -18 124.5 -71.5t45.5 -130.5q0 -97 -68.5 -156t-179.5 -59q-50 0 -95 14v37q44 -15 95 -15q53 0 98.5 16.5t78.5 58.5t33 104q0 61 -33 103t-77.5 58t-96.5 16h-98v37h73q76 0 126 41.5t50 103.5q0 71 -52.5 109t-126.5 38q-20 0 -40 -3t-46.5 -14t-46 -29
t-33.5 -52.5t-14 -79.5v-528h-37v528q0 99 58.5 156.5t158.5 57.5q98 0 158 -50.5t60 -132.5q0 -53 -31 -94.5t-84 -62.5z" />
    <glyph glyph-name="agrave" unicode="&#xe0;" horiz-adv-x="547" 
d="M164 695h48l83 -102h-41zM492 0h-38q-14 30 -14 75v10q-31 -44 -89 -69t-133 -25t-131 37.5t-56 106.5q0 42 18 71.5t51.5 46t68 24.5t81.5 12q50 5 79 9.5t57.5 13.5t41 24.5t12.5 38.5q0 44 -27 72t-61.5 36.5t-77.5 8.5q-144 0 -178 -109h-38q17 69 73 107t143 38
q97 0 150 -40t53 -113v-291q0 -46 15 -84zM440 187v118q-19 -17 -52.5 -28t-60 -14.5t-73.5 -7.5q-98 -10 -140.5 -37.5t-42.5 -81.5q0 -30 15.5 -52.5t39.5 -34t47 -16.5t45 -5q91 0 156.5 41t65.5 118z" />
    <glyph glyph-name="aacute" unicode="&#xe1;" horiz-adv-x="547" 
d="M381 695l-90 -102h-41l83 102h48zM492 0h-38q-14 30 -14 75v10q-31 -44 -89 -69t-133 -25t-131 37.5t-56 106.5q0 42 18 71.5t51.5 46t68 24.5t81.5 12q50 5 79 9.5t57.5 13.5t41 24.5t12.5 38.5q0 44 -27 72t-61.5 36.5t-77.5 8.5q-144 0 -178 -109h-38q17 69 73 107
t143 38q97 0 150 -40t53 -113v-291q0 -46 15 -84zM440 187v118q-19 -17 -52.5 -28t-60 -14.5t-73.5 -7.5q-98 -10 -140.5 -37.5t-42.5 -81.5q0 -30 15.5 -52.5t39.5 -34t47 -16.5t45 -5q91 0 156.5 41t65.5 118z" />
    <glyph glyph-name="acircumflex" unicode="&#xe2;" horiz-adv-x="547" 
d="M170 589l80 99h45l81 -99h-45l-58 74l-59 -74h-44zM492 0h-38q-14 30 -14 75v10q-31 -44 -89 -69t-133 -25t-131 37.5t-56 106.5q0 42 18 71.5t51.5 46t68 24.5t81.5 12q50 5 79 9.5t57.5 13.5t41 24.5t12.5 38.5q0 44 -27 72t-61.5 36.5t-77.5 8.5q-144 0 -178 -109h-38
q17 69 73 107t143 38q97 0 150 -40t53 -113v-291q0 -46 15 -84zM440 187v118q-19 -17 -52.5 -28t-60 -14.5t-73.5 -7.5q-98 -10 -140.5 -37.5t-42.5 -81.5q0 -30 15.5 -52.5t39.5 -34t47 -16.5t45 -5q91 0 156.5 41t65.5 118z" />
    <glyph glyph-name="atilde" unicode="&#xe3;" horiz-adv-x="547" 
d="M400 673q-8 -38 -27.5 -56.5t-44.5 -18.5q-27 0 -61.5 21.5t-52.5 21.5q-28 -2 -40 -39h-31q7 37 27 55.5t44 18.5q28 0 62 -21t52 -21q29 0 40 39h32zM492 1h-38q-14 30 -14 76v9q-31 -44 -89 -69t-133 -25t-131 37.5t-56 107.5q0 42 18 71t51.5 45.5t68 24.5t81.5 12
q50 5 79 9.5t57.5 14t41 25t12.5 38.5q0 64 -48 90t-118 26t-115.5 -28t-62.5 -80h-38q17 69 73 106.5t143 37.5q97 0 150 -40t53 -112v-292q0 -47 15 -84zM440 188v118q-19 -17 -54 -28t-58 -14t-74 -8q-98 -10 -140.5 -37.5t-42.5 -80.5q0 -40 27.5 -66t58 -34t61.5 -8
q91 0 156.5 40.5t65.5 117.5z" />
    <glyph glyph-name="adieresis" unicode="&#xe4;" horiz-adv-x="547" 
d="M360 595h-47v69h47v-69zM225 595h-47v69h47v-69zM492 0h-38q-14 30 -14 75v10q-31 -44 -89 -69t-133 -25t-131 37.5t-56 106.5q0 42 18 71.5t51.5 46t68 24.5t81.5 12q50 5 79 9.5t57.5 13.5t41 24.5t12.5 38.5q0 44 -27 72t-61.5 36.5t-77.5 8.5q-144 0 -178 -109h-38
q17 69 73 107t143 38q97 0 150 -40t53 -113v-291q0 -46 15 -84zM440 187v118q-19 -17 -52.5 -28t-60 -14.5t-73.5 -7.5q-98 -10 -140.5 -37.5t-42.5 -81.5q0 -30 15.5 -52.5t39.5 -34t47 -16.5t45 -5q91 0 156.5 41t65.5 118z" />
    <glyph glyph-name="aring" unicode="&#xe5;" horiz-adv-x="547" 
d="M268 748q34 0 58.5 -24.5t24.5 -58.5t-24.5 -58t-58.5 -24t-58 24t-24 58t24 58.5t58 24.5zM492 0h-38q-14 30 -14 75v10q-31 -44 -89 -69t-133 -25t-131 37.5t-56 106.5q0 42 18 71.5t51.5 46t68 24.5t81.5 12q50 5 79 9.5t57.5 13.5t41 24.5t12.5 38.5q0 44 -27 72
t-61.5 36.5t-77.5 8.5q-144 0 -178 -109h-38q17 69 73 107t143 38q97 0 150 -40t53 -113v-291q0 -46 15 -84zM268 610q22 0 38 16t16 39t-16 39t-38 16t-37.5 -16t-15.5 -39t15.5 -39t37.5 -16zM440 187v118q-19 -17 -52.5 -28t-60 -14.5t-73.5 -7.5q-98 -10 -140.5 -37.5
t-42.5 -81.5q0 -30 15.5 -52.5t39.5 -34t47 -16.5t45 -5q91 0 156.5 41t65.5 118z" />
    <glyph glyph-name="ae" unicode="&#xe6;" horiz-adv-x="981" 
d="M903 160h40q-27 -83 -88.5 -127.5t-151.5 -44.5q-79 0 -141.5 42t-93.5 111q-15 -71 -78.5 -110.5t-168.5 -39.5q-77 0 -133.5 37.5t-56.5 107.5q0 42 18 71t51.5 45.5t68 24.5t81.5 12q50 5 79 9.5t57.5 13.5t41 24.5t12.5 38.5q0 117 -166 117q-144 0 -177 -109h-39
q17 70 73 107.5t143 37.5q94 0 146 -38t54 -106q32 65 91.5 104.5t131.5 39.5q100 0 174.5 -72.5t81.5 -177.5l2 -20h-478v-2q0 -97 65.5 -164t160.5 -67q152 0 200 135zM440 193v112q-19 -17 -52.5 -28t-60 -14.5t-73.5 -7.5q-98 -10 -140.5 -37.5t-42.5 -81.5
q0 -30 15 -52t39.5 -33.5t48.5 -16.5t48 -5q105 0 161.5 41.5t56.5 122.5zM481 295h433q-14 84 -75.5 140t-141.5 56q-81 0 -142 -56t-74 -140z" />
    <glyph glyph-name="ccedilla" unicode="&#xe7;" horiz-adv-x="562" 
d="M286 -12l-26 -46q30 15 64.5 -2t34.5 -57q0 -30 -21.5 -47.5t-56.5 -17.5q-46 0 -82 36l11 21q34 -29 69 -29q21 0 35 9.5t14 27.5q0 17 -12 28t-33 11q-23 0 -41 -15l-23 17l35 66q-96 12 -161 88t-65 178q0 113 75.5 192.5t181.5 79.5q84 0 147.5 -46.5t89.5 -125.5
h-39q-25 62 -77.5 98t-120.5 36q-91 0 -155.5 -68.5t-64.5 -165.5q0 -95 64.5 -163t155.5 -68q70 0 122.5 36t76.5 99h39q-26 -78 -89.5 -125t-147.5 -47z" />
    <glyph glyph-name="egrave" unicode="&#xe8;" horiz-adv-x="568" 
d="M170 695h48l83 -102h-41zM542 258h-477q1 -100 66.5 -166.5t159.5 -66.5q151 0 201 135h39q-27 -84 -88.5 -128t-151.5 -44q-110 0 -186.5 78t-76.5 190q0 113 75.5 192.5t181.5 79.5q111 0 185 -83.5t72 -186.5zM69 295h433q-14 84 -75 139.5t-142 55.5t-142 -55.5
t-74 -139.5z" />
    <glyph glyph-name="eacute" unicode="&#xe9;" horiz-adv-x="568" 
d="M403 695l-90 -102h-42l84 102h48zM542 258h-477q1 -100 66.5 -166.5t159.5 -66.5q151 0 201 135h39q-27 -84 -88.5 -128t-151.5 -44q-110 0 -186.5 78t-76.5 190q0 113 75.5 192.5t181.5 79.5q111 0 185 -83.5t72 -186.5zM69 295h433q-14 84 -75 139.5t-142 55.5
t-142 -55.5t-74 -139.5z" />
    <glyph glyph-name="ecircumflex" unicode="&#xea;" horiz-adv-x="568" 
d="M180 589l80 99h45l81 -99h-45l-58 74l-58 -74h-45zM542 258h-477q1 -100 66.5 -166.5t159.5 -66.5q151 0 201 135h39q-27 -84 -88.5 -128t-151.5 -44q-110 0 -186.5 78t-76.5 190q0 113 75.5 192.5t181.5 79.5q111 0 185 -83.5t72 -186.5zM69 295h433q-14 84 -75 139.5
t-142 55.5t-142 -55.5t-74 -139.5z" />
    <glyph glyph-name="edieresis" unicode="&#xeb;" horiz-adv-x="568" 
d="M381 595h-47v69h47v-69zM245 595h-47v69h47v-69zM542 258h-477q1 -100 66.5 -166.5t159.5 -66.5q151 0 201 135h39q-27 -84 -88.5 -128t-151.5 -44q-110 0 -186.5 78t-76.5 190q0 113 75.5 192.5t181.5 79.5q111 0 185 -83.5t72 -186.5zM69 295h433q-14 84 -75 139.5
t-142 55.5t-142 -55.5t-74 -139.5z" />
    <glyph glyph-name="igrave" unicode="&#xec;" horiz-adv-x="191" 
d="M-21 695h48l83 -103h-40zM115 515v-515h-37v515h37z" />
    <glyph glyph-name="iacute" unicode="&#xed;" horiz-adv-x="191" 
d="M205 695l-91 -103h-41l84 103h48zM115 515v-515h-37v515h37z" />
    <glyph glyph-name="icircumflex" unicode="&#xee;" horiz-adv-x="191" 
d="M-8 581l81 99h45l81 -99h-45l-59 74l-58 -74h-45zM115 515v-515h-37v515h37z" />
    <glyph glyph-name="idieresis" unicode="&#xef;" horiz-adv-x="191" 
d="M179 595h-47v69h47v-69zM58 595h-47v69h47v-69zM115 515v-515h-37v515h37z" />
    <glyph glyph-name="eth" unicode="&#xf0;" horiz-adv-x="561" 
d="M530 244q0 -108 -74 -185t-177 -77t-177 77t-74 185q0 109 73.5 187t177.5 78q97 0 168 -71q-60 120 -177 212l-68 -51l-32 19l70 53q-44 31 -85 49l33 24q42 -19 83 -50l69 52l32 -20l-72 -54q66 -54 113 -115q117 -152 117 -313zM493 244q0 95 -63 163t-151 68
q-89 0 -152 -68t-63 -163q0 -94 63 -161t152 -67t151.5 67t62.5 161z" />
    <glyph glyph-name="ntilde" unicode="&#xf1;" 
d="M420 673q-8 -38 -27.5 -56.5t-44.5 -18.5q-27 0 -61.5 21.5t-52.5 21.5q-28 -2 -40 -39h-31q7 37 27 55.5t44 18.5q28 0 62 -21t52 -21q29 0 40 39h32zM506 311v-311h-37v311q0 86 -45 133.5t-129 47.5q-78 0 -131.5 -51.5t-53.5 -129.5v-311h-37v515h37v-87
q28 47 76.5 73.5t109.5 26.5q99 0 154.5 -58t55.5 -159z" />
    <glyph glyph-name="ograve" unicode="&#xf2;" horiz-adv-x="569" 
d="M169 695h48l83 -102h-41zM285 528q107 0 182.5 -80t75.5 -192q0 -111 -75.5 -189.5t-182.5 -78.5q-106 0 -181.5 78.5t-75.5 189.5q0 112 75.5 192t181.5 80zM285 23q91 0 155.5 68.5t64.5 164.5q0 98 -64.5 167.5t-155.5 69.5t-155.5 -69.5t-64.5 -167.5
q0 -96 64.5 -164.5t155.5 -68.5z" />
    <glyph glyph-name="oacute" unicode="&#xf3;" horiz-adv-x="569" 
d="M400 695l-90 -102h-41l83 102h48zM285 528q107 0 182.5 -80t75.5 -192q0 -111 -75.5 -189.5t-182.5 -78.5q-106 0 -181.5 78.5t-75.5 189.5q0 112 75.5 192t181.5 80zM285 23q91 0 155.5 68.5t64.5 164.5q0 98 -64.5 167.5t-155.5 69.5t-155.5 -69.5t-64.5 -167.5
q0 -96 64.5 -164.5t155.5 -68.5z" />
    <glyph glyph-name="ocircumflex" unicode="&#xf4;" horiz-adv-x="569" 
d="M178 589l81 99h45l81 -99h-45l-59 74l-58 -74h-45zM285 528q107 0 182.5 -80t75.5 -192q0 -111 -75.5 -189.5t-182.5 -78.5q-106 0 -181.5 78.5t-75.5 189.5q0 112 75.5 192t181.5 80zM285 23q91 0 155.5 68.5t64.5 164.5q0 98 -64.5 167.5t-155.5 69.5t-155.5 -69.5
t-64.5 -167.5q0 -96 64.5 -164.5t155.5 -68.5z" />
    <glyph glyph-name="otilde" unicode="&#xf5;" horiz-adv-x="569" 
d="M406 673q-8 -38 -27.5 -56.5t-43.5 -18.5q-27 0 -62 21.5t-53 21.5q-28 -2 -40 -39h-31q8 37 27.5 55.5t43.5 18.5q28 0 62 -21t53 -21q27 0 40 39h31zM285 528q107 0 182.5 -80t75.5 -192q0 -111 -75.5 -189.5t-182.5 -78.5q-106 0 -181.5 78.5t-75.5 189.5
q0 112 75.5 192t181.5 80zM285 23q91 0 155.5 68.5t64.5 164.5q0 98 -64.5 167.5t-155.5 69.5t-155.5 -69.5t-64.5 -167.5q0 -96 64.5 -164.5t155.5 -68.5z" />
    <glyph glyph-name="odieresis" unicode="&#xf6;" horiz-adv-x="569" 
d="M375 595h-47v69h47v-69zM240 595h-47v69h47v-69zM285 528q107 0 182.5 -80t75.5 -192q0 -111 -75.5 -189.5t-182.5 -78.5q-106 0 -181.5 78.5t-75.5 189.5q0 112 75.5 192t181.5 80zM285 23q91 0 155.5 68.5t64.5 164.5q0 98 -64.5 167.5t-155.5 69.5t-155.5 -69.5
t-64.5 -167.5q0 -96 64.5 -164.5t155.5 -68.5z" />
    <glyph glyph-name="oslash" unicode="&#xf8;" horiz-adv-x="569" 
d="M543 256q0 -111 -75.5 -189.5t-182.5 -78.5q-99 0 -171 69l-53 -54l-24 23l54 55q-63 76 -63 175q0 112 75.5 192t181.5 80q102 0 175 -73l51 51l24 -23l-52 -53q60 -76 60 -174zM117 107l318 322q-62 64 -150 64q-91 0 -155.5 -69.5t-64.5 -167.5q0 -84 52 -149z
M505 256q0 84 -48 148l-318 -322q62 -59 146 -59q91 0 155.5 68.5t64.5 164.5z" />
    <glyph glyph-name="ugrave" unicode="&#xf9;" 
d="M181 695h48l84 -102h-41zM502 515v-515h-37v85q-57 -97 -180 -97q-94 0 -155 61t-61 155v311h37v-311q0 -78 51 -128.5t128 -50.5q79 0 129.5 50.5t50.5 128.5v311h37z" />
    <glyph glyph-name="uacute" unicode="&#xfa;" 
d="M397 695l-90 -102h-42l84 102h48zM502 515v-515h-37v85q-57 -97 -180 -97q-94 0 -155 61t-61 155v311h37v-311q0 -78 51 -128.5t128 -50.5q79 0 129.5 50.5t50.5 128.5v311h37z" />
    <glyph glyph-name="ucircumflex" unicode="&#xfb;" 
d="M185 589l80 99h45l81 -99h-45l-58 74l-59 -74h-44zM502 515v-515h-37v85q-57 -97 -180 -97q-94 0 -155 61t-61 155v311h37v-311q0 -78 51 -128.5t128 -50.5q79 0 129.5 50.5t50.5 128.5v311h37z" />
    <glyph glyph-name="udieresis" unicode="&#xfc;" 
d="M375 595h-47v69h47v-69zM239 595h-47v69h47v-69zM502 515v-515h-37v85q-57 -97 -180 -97q-94 0 -155 61t-61 155v311h37v-311q0 -78 51 -128.5t128 -50.5q79 0 129.5 50.5t50.5 128.5v311h37z" />
    <glyph glyph-name="yacute" unicode="&#xfd;" horiz-adv-x="445" 
d="M343 695l-90 -102h-41l83 102h48zM437 515l-222 -590q-55 -145 -200 -118v35q62 -9 102 13t63 83l24 63l-194 514h40l173 -462l175 462h39z" />
    <glyph glyph-name="thorn" unicode="&#xfe;" horiz-adv-x="608" 
d="M582 256q0 -111 -75.5 -189.5t-181.5 -78.5q-71 0 -129.5 37t-90.5 99v-353h-37v923h37v-304q32 63 90.5 100.5t129.5 37.5q106 0 181.5 -79.5t75.5 -192.5zM545 256q0 97 -64.5 165.5t-155.5 68.5t-155.5 -68.5t-64.5 -165.5q0 -95 64.5 -163t155.5 -68t155.5 68
t64.5 163z" />
    <glyph glyph-name="ydieresis" unicode="&#xff;" horiz-adv-x="445" 
d="M320 595h-47v69h47v-69zM185 595h-47v69h47v-69zM437 515l-222 -590q-55 -145 -200 -118v35q62 -9 102 13t63 83l24 63l-194 514h40l173 -462l175 462h39z" />
    <glyph glyph-name="Amacron" unicode="&#x100;" horiz-adv-x="583" 
d="M446 239h-309l-92 -239h-40l266 694h41l266 -694h-40zM432 276l-141 367l-140 -367h281zM428 800v-37h-274v37h274z" />
    <glyph glyph-name="amacron" unicode="&#x101;" horiz-adv-x="547" 
d="M492 0h-38q-14 30 -14 75v10q-31 -44 -89 -69t-133 -25t-131 37.5t-56 106.5q0 42 18 71.5t51.5 46t68 24.5t81.5 12q50 5 79 9.5t57.5 13.5t41 24.5t12.5 38.5q0 44 -27 72t-61.5 36.5t-77.5 8.5q-144 0 -178 -109h-38q17 69 73 107t143 38q97 0 150 -40t53 -113v-291
q0 -46 15 -84zM440 187v118q-19 -17 -52.5 -28t-60 -14.5t-73.5 -7.5q-98 -10 -140.5 -37.5t-42.5 -81.5q0 -30 15.5 -52.5t39.5 -34t47 -16.5t45 -5q91 0 156.5 41t65.5 118zM410 622v-37h-274v37h274z" />
    <glyph glyph-name="Abreve" unicode="&#x102;" horiz-adv-x="583" 
d="M446 239h-309l-92 -239h-40l266 694h41l266 -694h-40zM432 276l-141 367l-140 -367h281zM422 868q-11 -48 -46 -76t-84 -28q-50 0 -85 28t-46 76h35q23 -69 96 -69q74 0 95 69h35z" />
    <glyph glyph-name="abreve" unicode="&#x103;" horiz-adv-x="547" 
d="M492 0h-38q-14 30 -14 75v10q-31 -44 -89 -69t-133 -25t-131 37.5t-56 106.5q0 42 18 71.5t51.5 46t68 24.5t81.5 12q50 5 79 9.5t57.5 13.5t41 24.5t12.5 38.5q0 44 -27 72t-61.5 36.5t-77.5 8.5q-144 0 -178 -109h-38q17 69 73 107t143 38q97 0 150 -40t53 -113v-291
q0 -46 15 -84zM440 187v118q-19 -17 -52.5 -28t-60 -14.5t-73.5 -7.5q-98 -10 -140.5 -37.5t-42.5 -81.5q0 -30 15.5 -52.5t39.5 -34t47 -16.5t45 -5q91 0 156.5 41t65.5 118zM404 689q-11 -48 -46 -76t-84 -28q-50 0 -85 28t-46 76h35q23 -69 96 -69q74 0 95 69h35z" />
    <glyph glyph-name="Aogonek" unicode="&#x104;" horiz-adv-x="583" 
d="M607 -131v-28q-39 -22 -77.5 -17t-52.5 34q-16 25 -1 68t62 74l-92 239h-309l-92 -239h-40l266 694h41l266 -694q-44 -30 -63 -65.5t-5 -61.5q9 -17 37.5 -18t59.5 14zM432 276l-141 367l-140 -367h281z" />
    <glyph glyph-name="aogonek" unicode="&#x105;" horiz-adv-x="547" 
d="M523 -131v-28q-39 -22 -77.5 -17t-52.5 34q-16 25 -1 68t62 74q-14 30 -14 75v10q-31 -44 -89 -69t-133 -25t-131 37.5t-56 106.5q0 42 18 71.5t51.5 46t68 24.5t81.5 12q50 5 79 9.5t57.5 13.5t41 24.5t12.5 38.5q0 44 -27 72t-61.5 36.5t-77.5 8.5q-144 0 -178 -109
h-38q17 69 73 107t143 38q97 0 150 -40t53 -113v-291q0 -46 15 -84h2q-44 -30 -63 -65.5t-5 -61.5q9 -17 37.5 -18t59.5 14zM440 187v118q-19 -17 -52.5 -28t-60 -14.5t-73.5 -7.5q-98 -10 -140.5 -37.5t-42.5 -81.5q0 -30 15.5 -52.5t39.5 -34t47 -16.5t45 -5
q91 0 156.5 41t65.5 118z" />
    <glyph glyph-name="Cacute" unicode="&#x106;" horiz-adv-x="729" 
d="M695 220q-38 -103 -125.5 -167.5t-194.5 -64.5q-142 0 -242.5 106t-100.5 256q0 149 100.5 255t242.5 106q110 0 197.5 -64t123.5 -167h-40q-35 88 -110.5 141t-170.5 53q-127 0 -216.5 -95t-89.5 -229q0 -135 89.5 -230t216.5 -95q92 0 167.5 53.5t112.5 141.5h40z
M485 864l-90 -102h-42l84 102h48z" />
    <glyph glyph-name="cacute" unicode="&#x107;" horiz-adv-x="562" 
d="M523 160q-26 -79 -89.5 -125.5t-148.5 -46.5q-106 0 -181.5 78.5t-75.5 189.5q0 113 75.5 192.5t181.5 79.5q85 0 148 -46.5t90 -125.5h-40q-25 62 -77.5 98t-120.5 36q-91 0 -155.5 -68.5t-64.5 -165.5q0 -95 64.5 -163t155.5 -68q71 0 123.5 36t75.5 99h39zM400 695
l-90 -102h-42l84 102h48z" />
    <glyph glyph-name="Ccaron" unicode="&#x10c;" horiz-adv-x="729" 
d="M695 220q-38 -103 -125.5 -167.5t-194.5 -64.5q-142 0 -242.5 106t-100.5 256q0 149 100.5 255t242.5 106q110 0 197.5 -64t123.5 -167h-40q-35 88 -110.5 141t-170.5 53q-127 0 -216.5 -95t-89.5 -229q0 -135 89.5 -230t216.5 -95q92 0 167.5 53.5t112.5 141.5h40z
M473 863l-81 -99h-45l-81 99h45l59 -74l59 74h44z" />
    <glyph glyph-name="ccaron" unicode="&#x10d;" horiz-adv-x="562" 
d="M523 160q-26 -79 -89.5 -125.5t-148.5 -46.5q-106 0 -181.5 78.5t-75.5 189.5q0 113 75.5 192.5t181.5 79.5q85 0 148 -46.5t90 -125.5h-40q-25 62 -77.5 98t-120.5 36q-91 0 -155.5 -68.5t-64.5 -165.5q0 -95 64.5 -163t155.5 -68q71 0 123.5 36t75.5 99h39zM384 689
l-81 -99h-45l-81 99h45l59 -74l59 74h44z" />
    <glyph glyph-name="Dcaron" unicode="&#x10e;" horiz-adv-x="673" 
d="M643 348q0 -161 -83 -254.5t-226 -93.5h-250v694h250q145 0 227 -91.5t82 -254.5zM606 348q0 148 -71 228.5t-201 80.5h-213v-620h213q127 0 199.5 82.5t72.5 228.5zM380 861l-81 -99h-45l-81 99h45l59 -74l59 74h44z" />
    <glyph glyph-name="dcaron" unicode="&#x10f;" horiz-adv-x="613" 
d="M542 744v-744h-37v124q-32 -62 -90.5 -99t-129.5 -37q-106 0 -181.5 78.5t-75.5 189.5q0 113 75.5 192.5t181.5 79.5q71 0 129.5 -37.5t90.5 -100.5v354h37zM505 256q0 97 -64.5 165.5t-155.5 68.5t-155.5 -68.5t-64.5 -165.5q0 -95 64.5 -163t155.5 -68t155.5 68
t64.5 163zM712 745l-90 -102h-42l84 102h48z" />
    <glyph glyph-name="Dcroat" unicode="&#x110;" horiz-adv-x="667" 
d="M637 348q0 -161 -83.5 -254.5t-226.5 -93.5h-250v363h-62v37h62v294h250q146 0 228 -91.5t82 -254.5zM599 348q0 148 -71 228.5t-201 80.5h-213v-257h235v-37h-235v-326h213q128 0 200 82.5t72 228.5z" />
    <glyph glyph-name="dcroat" unicode="&#x111;" horiz-adv-x="613" 
d="M661 636v-37h-119v-599h-37v124q-32 -62 -90.5 -99t-129.5 -37q-106 0 -181.5 78.5t-75.5 189.5q0 113 75.5 192.5t181.5 79.5q71 0 129.5 -37.5t90.5 -100.5v209h-118v37h118v108h37v-108h119zM505 256q0 97 -64.5 165.5t-155.5 68.5t-155.5 -68.5t-64.5 -165.5
q0 -95 64.5 -163t155.5 -68t155.5 68t64.5 163z" />
    <glyph glyph-name="Emacron" unicode="&#x112;" horiz-adv-x="598" 
d="M121 657v-275h379v-36h-379v-309h423v-37h-460v694h460v-37h-423zM456 815v-37h-274v37h274z" />
    <glyph glyph-name="emacron" unicode="&#x113;" horiz-adv-x="568" 
d="M542 258h-477q1 -100 66.5 -166.5t159.5 -66.5q151 0 201 135h39q-27 -84 -88.5 -128t-151.5 -44q-110 0 -186.5 78t-76.5 190q0 113 75.5 192.5t181.5 79.5q111 0 185 -83.5t72 -186.5zM69 295h433q-14 84 -75 139.5t-142 55.5t-142 -55.5t-74 -139.5zM421 622v-37h-274
v37h274z" />
    <glyph glyph-name="Edotaccent" unicode="&#x116;" horiz-adv-x="598" 
d="M121 657v-275h379v-36h-379v-309h423v-37h-460v694h460v-37h-423zM343 777h-47v69h47v-69z" />
    <glyph glyph-name="edotaccent" unicode="&#x117;" horiz-adv-x="568" 
d="M542 258h-477q1 -100 66.5 -166.5t159.5 -66.5q151 0 201 135h39q-27 -84 -88.5 -128t-151.5 -44q-110 0 -186.5 78t-76.5 190q0 113 75.5 192.5t181.5 79.5q111 0 185 -83.5t72 -186.5zM69 295h433q-14 84 -75 139.5t-142 55.5t-142 -55.5t-74 -139.5zM307 595h-47v69
h47v-69z" />
    <glyph glyph-name="Eogonek" unicode="&#x118;" horiz-adv-x="598" 
d="M372 -131v-28q-39 -22 -77.5 -17t-52.5 34q-16 25 -1 68t62 74h-219v694h460v-37h-423v-275h379v-36h-379v-309h423v-37h-201q-44 -30 -63 -65.5t-5 -61.5q9 -17 37.5 -18t59.5 14z" />
    <glyph glyph-name="eogonek" unicode="&#x119;" horiz-adv-x="568" 
d="M357 -131v-28q-39 -22 -77.5 -17t-52.5 34q-15 23 -4 61.5t49 69.5q-104 7 -174 83t-70 184q0 113 75.5 192.5t181.5 79.5q111 0 185 -83.5t72 -186.5h-477q1 -100 66.5 -166.5t159.5 -66.5q151 0 201 135h39q-52 -160 -219 -171q-36 -29 -50.5 -60.5t-1.5 -55.5
q9 -17 37.5 -18t59.5 14zM69 295h433q-14 84 -75 139.5t-142 55.5t-142 -55.5t-74 -139.5z" />
    <glyph glyph-name="Ecaron" unicode="&#x11a;" horiz-adv-x="598" 
d="M121 657v-275h379v-36h-379v-309h423v-37h-460v694h460v-37h-423zM417 868l-81 -99h-45l-81 99h45l59 -74l59 74h44z" />
    <glyph glyph-name="ecaron" unicode="&#x11b;" horiz-adv-x="568" 
d="M542 258h-477q1 -100 66.5 -166.5t159.5 -66.5q151 0 201 135h39q-27 -84 -88.5 -128t-151.5 -44q-110 0 -186.5 78t-76.5 190q0 113 75.5 192.5t181.5 79.5q111 0 185 -83.5t72 -186.5zM69 295h433q-14 84 -75 139.5t-142 55.5t-142 -55.5t-74 -139.5zM387 689l-81 -99
h-45l-81 99h45l59 -74l59 74h44z" />
    <glyph glyph-name="Gbreve" unicode="&#x11e;" horiz-adv-x="760" 
d="M711 356v-356h-37v189q-38 -94 -116.5 -147.5t-182.5 -53.5q-142 0 -242.5 106t-100.5 256q0 149 100.5 255t242.5 106q115 0 200 -61.5t122 -169.5h-40q-35 91 -109 142.5t-173 51.5q-127 0 -216.5 -95t-89.5 -229q0 -135 89.5 -230t216.5 -95q123 0 205 81.5t93 212.5
h-291v37h329zM510 868q-11 -48 -46 -76t-84 -28q-50 0 -85 28t-46 76h35q23 -69 96 -69q74 0 95 69h35z" />
    <glyph glyph-name="gbreve" unicode="&#x11f;" horiz-adv-x="612" 
d="M546 515v-501q0 -119 -70 -192.5t-184 -73.5q-90 0 -153.5 44.5t-86.5 124.5h39q22 -63 74.5 -97.5t126.5 -34.5q99 0 158 62.5t59 166.5v106q-31 -61 -89 -97t-130 -36q-106 0 -181.5 79t-75.5 190q0 113 75.5 192.5t181.5 79.5q72 0 130 -36t89 -98v121h37zM509 256
q0 102 -62 168t-157 66q-91 0 -155.5 -68.5t-64.5 -165.5q0 -95 64.5 -163t155.5 -68q95 0 157 65.5t62 165.5zM426 689q-11 -48 -46 -76t-84 -28q-50 0 -85 28t-46 76h35q23 -69 96 -69q74 0 95 69h35z" />
    <glyph glyph-name="Gcommaaccent" unicode="&#x122;" horiz-adv-x="760" 
d="M440 -117q0 -30 -21.5 -47.5t-56.5 -17.5q-46 0 -82 36l11 21q34 -29 69 -29q21 0 35 9.5t14 27.5q0 17 -12 28t-33 11q-25 0 -41 -15l-23 17l35 67q-129 15 -216 117.5t-87 241.5q0 149 100.5 255t242.5 106q115 0 200 -61.5t122 -169.5h-40q-35 91 -109 142.5
t-173 51.5q-127 0 -216.5 -95t-89.5 -229q0 -135 89.5 -230t216.5 -95q123 0 205 81.5t93 212.5h-291v37h329v-356h-37v189q-38 -94 -116.5 -147.5t-182.5 -53.5h-7l-27 -46q30 15 64.5 -2t34.5 -57z" />
    <glyph glyph-name="gcommaaccent" unicode="&#x123;" horiz-adv-x="612" 
d="M546 515v-501q0 -119 -70 -192.5t-184 -73.5q-90 0 -153.5 44.5t-86.5 124.5h39q22 -63 74.5 -97.5t126.5 -34.5q99 0 158 62.5t59 166.5v106q-31 -61 -89 -97t-130 -36q-106 0 -181.5 79t-75.5 190q0 113 75.5 192.5t181.5 79.5q72 0 130 -36t89 -98v121h37zM509 256
q0 102 -62 168t-157 66q-91 0 -155.5 -68.5t-64.5 -165.5q0 -95 64.5 -163t155.5 -68q95 0 157 65.5t62 165.5zM302 714q28 0 49.5 -17.5t21.5 -48.5q0 -30 -21.5 -47.5t-56.5 -17.5q-48 0 -82 36l11 21q29 -29 69 -29q21 0 35 9.5t14 27.5t-13 28.5t-35 10.5q-24 0 -42 -9
v24q21 12 50 12z" />
    <glyph glyph-name="Imacron" unicode="&#x12a;" horiz-adv-x="209" 
d="M124 694v-694h-37v694h37zM242 798v-37h-274v37h274z" />
    <glyph glyph-name="imacron" unicode="&#x12b;" horiz-adv-x="191" 
d="M115 515v-515h-37v515h37zM233 619v-37h-274v37h274z" />
    <glyph glyph-name="Iogonek" unicode="&#x12e;" horiz-adv-x="209" 
d="M155 -131v-28q-39 -22 -77.5 -17t-52.5 34q-16 25 -1 68t62 74h1v694h37v-694h2q-44 -30 -63 -65.5t-5 -61.5q9 -17 37.5 -18t59.5 14z" />
    <glyph glyph-name="iogonek" unicode="&#x12f;" horiz-adv-x="191" 
d="M145 -131v-28q-39 -22 -77.5 -17t-52.5 34q-16 25 -1 68t62 74h2v515h37v-515h1q-44 -30 -63 -65.5t-5 -61.5q9 -17 37.5 -18t59.5 14zM115 694v-92h-37v92h37z" />
    <glyph glyph-name="Idotaccent" unicode="&#x130;" horiz-adv-x="209" 
d="M124 694v-694h-37v694h37zM128 776h-47v69h47v-69z" />
    <glyph glyph-name="dotlessi" unicode="&#x131;" horiz-adv-x="191" 
d="M115 515v-515h-37v515h37z" />
    <glyph glyph-name="Kcommaaccent" unicode="&#x136;" horiz-adv-x="586" 
d="M260 400l-142 -143v-257h-37v694h37v-386l380 386h52l-264 -267l307 -427h-46zM302 -27q28 0 49.5 -17.5t21.5 -48.5q0 -30 -21.5 -47.5t-56.5 -17.5q-48 0 -82 36l11 21q29 -29 69 -29q21 0 35 9.5t14 27.5q0 17 -13 28t-35 11q-24 0 -42 -9v24q21 12 50 12z" />
    <glyph glyph-name="kcommaaccent" unicode="&#x137;" horiz-adv-x="500" 
d="M243 300l-133 -128v-172h-37v744h37v-521l302 292h53l-195 -188l220 -327h-45zM259 -26q28 0 49.5 -17.5t21.5 -48.5q0 -30 -21.5 -47.5t-56.5 -17.5q-48 0 -82 36l11 21q29 -29 69 -29q21 0 35 9.5t14 27.5t-13 28.5t-35 10.5q-24 0 -42 -9v24q21 12 50 12z" />
    <glyph glyph-name="Lacute" unicode="&#x139;" horiz-adv-x="545" 
d="M121 694v-657h399v-37h-436v694h37zM218 866l-90 -102h-42l84 102h48z" />
    <glyph glyph-name="lacute" unicode="&#x13a;" horiz-adv-x="191" 
d="M115 744v-744h-37v744h37zM207 896l-90 -102h-42l84 102h48z" />
    <glyph glyph-name="Lcommaaccent" unicode="&#x13b;" horiz-adv-x="545" 
d="M382 -117q0 -30 -21.5 -47.5t-56.5 -17.5q-46 0 -82 36l11 21q34 -29 69 -29q21 0 35 9.5t14 27.5q0 17 -12 28t-33 11q-25 0 -41 -15l-23 17l40 76h-198v694h37v-657h399v-37h-203l-34 -58q30 15 64.5 -2t34.5 -57z" />
    <glyph glyph-name="lcommaaccent" unicode="&#x13c;" horiz-adv-x="191" 
d="M178 -117q0 -30 -21.5 -47.5t-56.5 -17.5q-46 0 -82 36l11 21q34 -29 69 -29q21 0 35 9.5t14 27.5q0 17 -12 28t-33 11q-25 0 -41 -15l-23 17l40 76v744h37v-744h-2l-34 -58q30 15 64.5 -2t34.5 -57z" />
    <glyph glyph-name="Lcaron" unicode="&#x13d;" horiz-adv-x="545" 
d="M121 694v-657h399v-37h-436v694h37zM358 694l-90 -102h-42l84 102h48z" />
    <glyph glyph-name="lcaron" unicode="&#x13e;" horiz-adv-x="191" 
d="M115 744v-744h-37v744h37zM292 745l-90 -102h-42l84 102h48z" />
    <glyph glyph-name="Lslash" unicode="&#x141;" horiz-adv-x="569" 
d="M544 37v-37h-436v313l-93 -55v43l93 56v337h37v-315l156 94v-44l-156 -94v-298h399z" />
    <glyph glyph-name="lslash" unicode="&#x142;" horiz-adv-x="251" 
d="M237 391l-92 -55v-336h-37v313l-93 -55v43l93 56v337h37v-315l92 56v-44z" />
    <glyph glyph-name="Nacute" unicode="&#x143;" horiz-adv-x="708" 
d="M627 694v-694h-42l-464 638v-638h-37v694h42l464 -638v638h37zM460 868l-90 -102h-42l84 102h48z" />
    <glyph glyph-name="nacute" unicode="&#x144;" 
d="M506 311v-311h-37v311q0 86 -45 133.5t-129 47.5q-78 0 -131.5 -51.5t-53.5 -129.5v-311h-37v515h37v-87q28 47 76.5 73.5t109.5 26.5q99 0 154.5 -58t55.5 -159zM402 688l-90 -102h-42l84 102h48z" />
    <glyph glyph-name="Ncommaaccent" unicode="&#x145;" horiz-adv-x="708" 
d="M627 694v-694h-42l-464 638v-638h-37v694h42l464 -638v638h37zM363 -26q28 0 49.5 -17.5t21.5 -48.5q0 -30 -21.5 -47.5t-56.5 -17.5q-48 0 -82 36l11 21q29 -29 69 -29q21 0 35 9.5t14 27.5t-13 28.5t-35 10.5q-24 0 -42 -9v24q21 12 50 12z" />
    <glyph glyph-name="ncommaaccent" unicode="&#x146;" 
d="M506 311v-311h-37v311q0 86 -45 133.5t-129 47.5q-78 0 -131.5 -51.5t-53.5 -129.5v-311h-37v515h37v-87q28 47 76.5 73.5t109.5 26.5q99 0 154.5 -58t55.5 -159zM295 -26q28 0 49.5 -17.5t21.5 -48.5q0 -30 -21.5 -47.5t-56.5 -17.5q-48 0 -82 36l11 21q29 -29 69 -29
q21 0 35 9.5t14 27.5t-13 28.5t-35 10.5q-24 0 -42 -9v24q21 12 50 12z" />
    <glyph glyph-name="Ncaron" unicode="&#x147;" horiz-adv-x="708" 
d="M627 694v-694h-42l-464 638v-638h-37v694h42l464 -638v638h37zM457 860l-81 -99h-45l-81 99h45l59 -74l59 74h44z" />
    <glyph glyph-name="ncaron" unicode="&#x148;" 
d="M506 311v-311h-37v311q0 86 -45 133.5t-129 47.5q-78 0 -131.5 -51.5t-53.5 -129.5v-311h-37v515h37v-87q28 47 76.5 73.5t109.5 26.5q99 0 154.5 -58t55.5 -159zM400 683l-81 -99h-45l-81 99h45l59 -74l59 74h44z" />
    <glyph glyph-name="Omacron" unicode="&#x14c;" horiz-adv-x="748" 
d="M375 711q145 0 244 -104.5t99 -256.5q0 -150 -100.5 -256t-242.5 -106t-242.5 106t-100.5 256q0 149 100.5 255t242.5 106zM375 25q127 0 216 95.5t89 229.5q0 136 -88.5 230t-216.5 94q-127 0 -216.5 -95t-89.5 -229q0 -135 89.5 -230t216.5 -95zM511 800v-37h-274v37
h274z" />
    <glyph glyph-name="omacron" unicode="&#x14d;" horiz-adv-x="569" 
d="M285 528q107 0 182.5 -80t75.5 -192q0 -111 -75.5 -189.5t-182.5 -78.5q-106 0 -181.5 78.5t-75.5 189.5q0 112 75.5 192t181.5 80zM285 23q91 0 155.5 68.5t64.5 164.5q0 98 -64.5 167.5t-155.5 69.5t-155.5 -69.5t-64.5 -167.5q0 -96 64.5 -164.5t155.5 -68.5zM421 621
v-37h-274v37h274z" />
    <glyph glyph-name="Ohungarumlaut" unicode="&#x150;" horiz-adv-x="748" 
d="M375 711q145 0 244 -104.5t99 -256.5q0 -150 -100.5 -256t-242.5 -106t-242.5 106t-100.5 256q0 149 100.5 255t242.5 106zM375 25q127 0 216 95.5t89 229.5q0 136 -88.5 230t-216.5 94q-127 0 -216.5 -95t-89.5 -229q0 -135 89.5 -230t216.5 -95zM508 864l-76 -103h-39
l67 103h48zM414 864l-76 -103h-39l68 103h47z" />
    <glyph glyph-name="ohungarumlaut" unicode="&#x151;" horiz-adv-x="569" 
d="M285 528q107 0 182.5 -80t75.5 -192q0 -111 -75.5 -189.5t-182.5 -78.5q-106 0 -181.5 78.5t-75.5 189.5q0 112 75.5 192t181.5 80zM285 23q91 0 155.5 68.5t64.5 164.5q0 98 -64.5 167.5t-155.5 69.5t-155.5 -69.5t-64.5 -167.5q0 -96 64.5 -164.5t155.5 -68.5zM424 687
l-76 -103h-39l67 103h48zM330 687l-76 -103h-39l68 103h47z" />
    <glyph glyph-name="OE" unicode="&#x152;" horiz-adv-x="1195" 
d="M718 657v-274h380v-38h-380v-308h423v-37h-460v193q-41 -92 -123 -148.5t-182 -56.5q-143 0 -243.5 106t-100.5 256q0 149 101 255t243 106q101 0 182.5 -54.5t122.5 -146.5v184h460v-37h-423zM681 351q0 136 -88.5 229.5t-216.5 93.5q-127 0 -217 -95t-90 -229
t90 -229.5t217 -95.5q126 0 215.5 95.5t89.5 230.5z" />
    <glyph glyph-name="oe" unicode="&#x153;" horiz-adv-x="1046" 
d="M1020 258h-477q0 -100 65 -166.5t160 -66.5q154 0 200 135h40q-26 -83 -88 -127.5t-152 -44.5q-85 0 -151.5 49t-93.5 128q-27 -79 -91.5 -128t-146.5 -49q-106 0 -181.5 78.5t-75.5 189.5q0 113 75.5 192.5t181.5 79.5q82 0 147.5 -50t90.5 -130q27 80 92 130t148 50
q110 0 184 -83.5t73 -186.5zM978 295q-13 84 -74 140t-141 56q-82 0 -143 -56t-75 -140h433zM505 256q0 97 -64.5 166t-155.5 69q-90 0 -155 -69t-65 -166q0 -95 65 -163t155 -68q91 0 155.5 68t64.5 163z" />
    <glyph glyph-name="Racute" unicode="&#x154;" horiz-adv-x="629" 
d="M562 84q0 -46 15 -84h-38q-14 30 -14 75v101q0 39 -13 67t-36 41.5t-46.5 19.5t-51.5 6h-257v-310h-37v694h292q96 0 151.5 -51.5t55.5 -140.5q0 -61 -31 -107t-85 -67q95 -36 95 -152v-92zM380 346q67 0 116 40.5t49 115.5q0 74 -44 114.5t-125 40.5h-255v-311h259z
M400 864l-90 -102h-42l84 102h48z" />
    <glyph glyph-name="racute" unicode="&#x155;" horiz-adv-x="328" 
d="M320 526v-34q-98 9 -152 -44q-57 -51 -57 -137v-311h-38v515h38v-86q15 28 34 46q71 63 175 51zM210 687l-90 -102h-42l84 102h48z" />
    <glyph glyph-name="Rcommaaccent" unicode="&#x156;" horiz-adv-x="629" 
d="M562 84q0 -46 15 -84h-38q-14 30 -14 75v101q0 39 -13 67t-36 41.5t-46.5 19.5t-51.5 6h-257v-310h-37v694h292q96 0 151.5 -51.5t55.5 -140.5q0 -61 -31 -107t-85 -67q95 -36 95 -152v-92zM380 346q67 0 116 40.5t49 115.5q0 74 -44 114.5t-125 40.5h-255v-311h259z
M323 -26q28 0 49.5 -17.5t21.5 -48.5q0 -30 -21.5 -47.5t-56.5 -17.5q-48 0 -82 36l11 21q29 -29 69 -29q21 0 35 9.5t14 27.5t-13 28.5t-35 10.5q-24 0 -42 -9v24q21 12 50 12z" />
    <glyph glyph-name="rcommaaccent" unicode="&#x157;" horiz-adv-x="328" 
d="M173 -117q0 -30 -21.5 -47.5t-56.5 -17.5q-46 0 -82 36l11 21q34 -29 69 -29q21 0 35 9.5t14 27.5q0 17 -12 28t-33 11q-25 0 -41 -15l-23 17l40 76v515h38v-86q15 28 34 46q71 63 175 51v-34q-98 9 -152 -44q-57 -51 -57 -137v-311h-3l-34 -58q30 15 64.5 -2t34.5 -57z
" />
    <glyph glyph-name="Rcaron" unicode="&#x158;" horiz-adv-x="629" 
d="M562 84q0 -46 15 -84h-38q-14 30 -14 75v101q0 39 -13 67t-36 41.5t-46.5 19.5t-51.5 6h-257v-310h-37v694h292q96 0 151.5 -51.5t55.5 -140.5q0 -61 -31 -107t-85 -67q95 -36 95 -152v-92zM380 346q67 0 116 40.5t49 115.5q0 74 -44 114.5t-125 40.5h-255v-311h259z
M418 863l-81 -99h-45l-81 99h45l59 -74l59 74h44z" />
    <glyph glyph-name="rcaron" unicode="&#x159;" horiz-adv-x="328" 
d="M320 526v-34q-98 9 -152 -44q-57 -51 -57 -137v-311h-38v515h38v-86q15 28 34 46q71 63 175 51zM288 684l-81 -99h-45l-81 99h45l59 -74l59 74h44z" />
    <glyph glyph-name="Sacute" unicode="&#x15a;" horiz-adv-x="596" 
d="M297 712q113 0 173 -60.5t60 -144.5h-37q0 77 -53.5 123t-142.5 46t-143.5 -41t-54.5 -108q0 -57 47.5 -90.5t158.5 -56.5q128 -26 187 -67.5t59 -126.5q0 -91 -70 -145t-187 -54q-100 0 -175.5 58.5t-75.5 165.5h37q0 -90 63.5 -138t150.5 -48q102 0 161 43t59 118
q0 64 -47 98.5t-169 59.5q-52 10 -89.5 22.5t-73.5 33t-54.5 52.5t-18.5 75q0 83 64.5 134t170.5 51zM404 865l-90 -102h-42l84 102h48z" />
    <glyph glyph-name="sacute" unicode="&#x15b;" horiz-adv-x="511" 
d="M478 146q2 -59 -36 -98q-58 -60 -170 -60q-99 0 -162.5 42t-76.5 120h37q13 -62 65.5 -94.5t135.5 -32.5q95 0 144 51q28 30 25 71q-1 47 -42.5 73t-136.5 40q-37 5 -56 8.5t-51.5 13.5t-49 22t-30 34.5t-14.5 51.5q0 57 52 98.5t143 41.5q86 0 140.5 -37t70.5 -107h-38
q-33 109 -172 109q-69 0 -114 -30t-44 -75q1 -42 39.5 -61.5t129.5 -32.5q46 -7 78.5 -15.5t64.5 -25t49 -43.5t19 -64zM366 685l-90 -102h-42l84 102h48z" />
    <glyph glyph-name="Scedilla" unicode="&#x15e;" horiz-adv-x="596" 
d="M398 -117q0 -30 -21.5 -47.5t-56.5 -17.5q-46 0 -82 36l11 21q34 -29 69 -29q21 0 35 9.5t14 27.5q0 17 -12 28t-33 11q-25 0 -41 -15l-23 17l33 63q-99 1 -173.5 59t-74.5 165h37q0 -90 63.5 -138t150.5 -48q102 0 161 43t59 118q0 64 -47 98.5t-169 59.5
q-52 10 -89.5 22.5t-73.5 33t-54.5 52.5t-18.5 75q0 83 64.5 134t170.5 51q113 0 173 -60.5t60 -144.5h-37q0 77 -53.5 123t-142.5 46t-143.5 -41t-54.5 -108q0 -57 47.5 -90.5t158.5 -56.5q128 -26 187 -67.5t59 -126.5q0 -84 -61 -136.5t-164 -60.5l-27 -47q30 15 64.5 -2
t34.5 -57z" />
    <glyph glyph-name="Scedilla" unicode="&#xf6c1;" horiz-adv-x="596" 
d="M398 -117q0 -30 -21.5 -47.5t-56.5 -17.5q-46 0 -82 36l11 21q34 -29 69 -29q21 0 35 9.5t14 27.5q0 17 -12 28t-33 11q-25 0 -41 -15l-23 17l33 63q-99 1 -173.5 59t-74.5 165h37q0 -90 63.5 -138t150.5 -48q102 0 161 43t59 118q0 64 -47 98.5t-169 59.5
q-52 10 -89.5 22.5t-73.5 33t-54.5 52.5t-18.5 75q0 83 64.5 134t170.5 51q113 0 173 -60.5t60 -144.5h-37q0 77 -53.5 123t-142.5 46t-143.5 -41t-54.5 -108q0 -57 47.5 -90.5t158.5 -56.5q128 -26 187 -67.5t59 -126.5q0 -84 -61 -136.5t-164 -60.5l-27 -47q30 15 64.5 -2
t34.5 -57z" />
    <glyph glyph-name="scedilla" unicode="&#x15f;" horiz-adv-x="511" 
d="M355 -117q0 -30 -21.5 -47.5t-56.5 -17.5q-46 0 -82 36l11 21q34 -29 69 -29q21 0 35 9.5t14 27.5q0 17 -12 28t-33 11q-25 0 -41 -15l-23 17l34 65q-90 5 -147 46.5t-69 114.5h37q13 -62 65.5 -94.5t135.5 -32.5q95 0 144 51q28 30 25 71q-1 47 -42.5 73t-136.5 40
q-37 5 -56 8.5t-51.5 13.5t-49 22t-30 34.5t-14.5 51.5q0 57 52 98.5t143 41.5q86 0 140.5 -37t70.5 -107h-38q-33 109 -172 109q-69 0 -114 -30t-44 -75q1 -42 39.5 -61.5t129.5 -32.5q46 -7 78.5 -15.5t64.5 -25t49 -43.5t19 -64q2 -59 -36 -98q-55 -57 -159 -60l-27 -46
q30 15 64.5 -2t34.5 -57z" />
    <glyph glyph-name="scedilla" unicode="&#xf6c2;" horiz-adv-x="511" 
d="M355 -117q0 -30 -21.5 -47.5t-56.5 -17.5q-46 0 -82 36l11 21q34 -29 69 -29q21 0 35 9.5t14 27.5q0 17 -12 28t-33 11q-25 0 -41 -15l-23 17l34 65q-90 5 -147 46.5t-69 114.5h37q13 -62 65.5 -94.5t135.5 -32.5q95 0 144 51q28 30 25 71q-1 47 -42.5 73t-136.5 40
q-37 5 -56 8.5t-51.5 13.5t-49 22t-30 34.5t-14.5 51.5q0 57 52 98.5t143 41.5q86 0 140.5 -37t70.5 -107h-38q-33 109 -172 109q-69 0 -114 -30t-44 -75q1 -42 39.5 -61.5t129.5 -32.5q46 -7 78.5 -15.5t64.5 -25t49 -43.5t19 -64q2 -59 -36 -98q-55 -57 -159 -60l-27 -46
q30 15 64.5 -2t34.5 -57z" />
    <glyph glyph-name="Scaron" unicode="&#x160;" horiz-adv-x="596" 
d="M404 865l-81 -99h-45l-81 99h45l59 -74l59 74h44zM297 712q113 0 173 -60.5t60 -144.5h-37q0 77 -53.5 123t-142.5 46t-143.5 -41t-54.5 -108q0 -57 47.5 -90.5t158.5 -56.5q128 -26 187 -67.5t59 -126.5q0 -91 -70 -145t-187 -54q-100 0 -175.5 58.5t-75.5 165.5h37
q0 -90 63.5 -138t150.5 -48q102 0 161 43t59 118q0 64 -47 98.5t-169 59.5q-52 10 -89.5 22.5t-73.5 33t-54.5 52.5t-18.5 75q0 83 64.5 134t170.5 51z" />
    <glyph glyph-name="scaron" unicode="&#x161;" horiz-adv-x="511" 
d="M369 683l-81 -99h-45l-81 99h45l59 -74l59 74h44zM478 146q2 -59 -36 -98q-58 -60 -170 -60q-99 0 -162.5 42t-76.5 120h37q13 -62 65.5 -94.5t135.5 -32.5q95 0 144 51q28 30 25 71q-1 47 -42.5 73t-136.5 40q-37 5 -56 8.5t-51.5 13.5t-49 22t-30 34.5t-14.5 51.5
q0 57 52 98.5t143 41.5q86 0 140.5 -37t70.5 -107h-38q-33 109 -172 109q-69 0 -114 -30t-44 -75q1 -42 39.5 -61.5t129.5 -32.5q46 -7 78.5 -15.5t64.5 -25t49 -43.5t19 -64z" />
    <glyph glyph-name="Tcommaaccent" unicode="&#x162;" horiz-adv-x="516" 
d="M340 -117q0 -30 -21.5 -47.5t-56.5 -17.5q-46 0 -82 36l11 21q34 -29 69 -29q21 0 35 9.5t14 27.5q0 17 -12 28t-33 11q-25 0 -41 -15l-23 17l40 76v657h-233v37h504v-37h-234v-657h-2l-34 -58q30 15 64.5 -2t34.5 -57z" />
    <glyph glyph-name="Tcommaaccent" unicode="&#x21a;" horiz-adv-x="516" 
d="M340 -117q0 -30 -21.5 -47.5t-56.5 -17.5q-46 0 -82 36l11 21q34 -29 69 -29q21 0 35 9.5t14 27.5q0 17 -12 28t-33 11q-25 0 -41 -15l-23 17l40 76v657h-233v37h504v-37h-234v-657h-2l-34 -58q30 15 64.5 -2t34.5 -57z" />
    <glyph glyph-name="tcommaaccent" unicode="&#x163;" horiz-adv-x="279" 
d="M321 -117q0 -30 -21.5 -47.5t-56.5 -17.5q-46 0 -82 36l11 21q34 -29 69 -29q21 0 35 9.5t14 27.5q0 17 -12 28t-33 11q-25 0 -41 -15l-23 17l40 76q-67 4 -104 52t-37 126v300h-70v37h70v110h37v-110h139v-37h-139v-300q0 -69 34 -108t105 -36v-34l-34 -58
q30 15 64.5 -2t34.5 -57z" />
    <glyph glyph-name="tcommaaccent" unicode="&#x21b;" horiz-adv-x="279" 
d="M321 -117q0 -30 -21.5 -47.5t-56.5 -17.5q-46 0 -82 36l11 21q34 -29 69 -29q21 0 35 9.5t14 27.5q0 17 -12 28t-33 11q-25 0 -41 -15l-23 17l40 76q-67 4 -104 52t-37 126v300h-70v37h70v110h37v-110h139v-37h-139v-300q0 -69 34 -108t105 -36v-34l-34 -58
q30 15 64.5 -2t34.5 -57z" />
    <glyph glyph-name="Tcaron" unicode="&#x164;" horiz-adv-x="516" 
d="M511 657h-234v-657h-37v657h-233v37h504v-37zM361 861l-81 -99h-45l-81 99h45l59 -74l59 74h44z" />
    <glyph glyph-name="tcaron" unicode="&#x165;" horiz-adv-x="279" 
d="M117 478v-300q0 -69 34 -108t105 -36v-34q-82 -7 -129 41.5t-47 136.5v300h-70v37h70v110h37v-110h139v-37h-139zM296 665l-90 -102h-42l84 102h48z" />
    <glyph glyph-name="Umacron" unicode="&#x16a;" horiz-adv-x="676" 
d="M605 694v-446q0 -115 -74 -188t-192 -73q-117 0 -191.5 73t-74.5 188v446h37v-446q0 -100 63.5 -161.5t165.5 -61.5q103 0 166 61.5t63 161.5v446h37zM475 798v-37h-274v37h274z" />
    <glyph glyph-name="umacron" unicode="&#x16b;" 
d="M502 515v-515h-37v85q-57 -97 -180 -97q-94 0 -155 61t-61 155v311h37v-311q0 -78 51 -128.5t128 -50.5q79 0 129.5 50.5t50.5 128.5v311h37zM423 618v-37h-274v37h274z" />
    <glyph glyph-name="Uring" unicode="&#x16e;" horiz-adv-x="676" 
d="M605 694v-446q0 -115 -74 -188t-192 -73q-117 0 -191.5 73t-74.5 188v446h37v-446q0 -100 63.5 -161.5t165.5 -61.5q103 0 166 61.5t63 161.5v446h37zM337 927q34 0 58.5 -24.5t24.5 -58.5t-24.5 -58t-58.5 -24t-58 24t-24 58t24 58.5t58 24.5zM337 789q22 0 38 16t16 39
t-16 39t-38 16t-37.5 -16t-15.5 -39t15.5 -39t37.5 -16z" />
    <glyph glyph-name="uring" unicode="&#x16f;" 
d="M502 515v-515h-37v85q-57 -97 -180 -97q-94 0 -155 61t-61 155v311h37v-311q0 -78 51 -128.5t128 -50.5q79 0 129.5 50.5t50.5 128.5v311h37zM286 748q34 0 58.5 -24.5t24.5 -58.5t-24.5 -58t-58.5 -24t-58 24t-24 58t24 58.5t58 24.5zM286 610q22 0 38 16t16 39t-16 39
t-38 16t-37.5 -16t-15.5 -39t15.5 -39t37.5 -16z" />
    <glyph glyph-name="Uhungarumlaut" unicode="&#x170;" horiz-adv-x="676" 
d="M605 694v-446q0 -115 -74 -188t-192 -73q-117 0 -191.5 73t-74.5 188v446h37v-446q0 -100 63.5 -161.5t165.5 -61.5q103 0 166 61.5t63 161.5v446h37zM482 874l-76 -103h-39l67 103h48zM388 874l-76 -103h-39l68 103h47z" />
    <glyph glyph-name="uhungarumlaut" unicode="&#x171;" 
d="M502 515v-515h-37v85q-57 -97 -180 -97q-94 0 -155 61t-61 155v311h37v-311q0 -78 51 -128.5t128 -50.5q79 0 129.5 50.5t50.5 128.5v311h37zM421 685l-76 -103h-39l67 103h48zM327 685l-76 -103h-39l68 103h47z" />
    <glyph glyph-name="Uogonek" unicode="&#x172;" horiz-adv-x="676" 
d="M451 -131v-28q-39 -22 -77.5 -17t-52.5 34q-15 23 -4 61.5t49 69.5q-18 -2 -27 -2q-117 0 -191.5 73t-74.5 188v446h37v-446q0 -100 63.5 -161.5t165.5 -61.5q103 0 166 61.5t63 161.5v446h37v-446q0 -94 -51 -161.5t-137 -89.5q-42 -30 -59.5 -64.5t-3.5 -59.5
q9 -17 37.5 -18t59.5 14z" />
    <glyph glyph-name="uogonek" unicode="&#x173;" 
d="M531 -131v-28q-39 -22 -77.5 -17t-52.5 34q-16 25 -1 68t62 74h3v85q-57 -97 -180 -97q-94 0 -155 61t-61 155v311h37v-311q0 -78 51 -128.5t128 -50.5q79 0 129.5 50.5t50.5 128.5v311h37v-515q-44 -30 -63 -65.5t-5 -61.5q9 -17 37.5 -18t59.5 14z" />
    <glyph glyph-name="Ydieresis" unicode="&#x178;" horiz-adv-x="546" 
d="M366 777h-47v68h47v-68zM231 777h-47v68h47v-68zM292 300v-300h-37v300l-249 394h44l223 -354h1l222 354h44z" />
    <glyph glyph-name="Zacute" unicode="&#x179;" horiz-adv-x="546" 
d="M538 37v-37h-525v37l478 620h-466v37h513v-38l-478 -619h478zM389 874l-90 -102h-42l84 102h48z" />
    <glyph glyph-name="zacute" unicode="&#x17a;" horiz-adv-x="437" 
d="M431 37v-37h-421v37l362 441h-351v37h399v-37l-362 -441h373zM325 695l-90 -102h-42l84 102h48z" />
    <glyph glyph-name="Zdotaccent" unicode="&#x17b;" horiz-adv-x="546" 
d="M538 37v-37h-525v37l478 620h-466v37h513v-38l-478 -619h478zM296 764h-47v69h47v-69z" />
    <glyph glyph-name="zdotaccent" unicode="&#x17c;" horiz-adv-x="437" 
d="M431 37v-37h-421v37l362 441h-351v37h399v-37l-362 -441h373zM242 595h-47v69h47v-69z" />
    <glyph glyph-name="Zcaron" unicode="&#x17d;" horiz-adv-x="546" 
d="M384 863l-81 -99h-45l-81 99h45l59 -74l59 74h44zM538 37v-37h-525v37l478 620h-466v37h513v-38l-478 -619h478z" />
    <glyph glyph-name="zcaron" unicode="&#x17e;" horiz-adv-x="437" 
d="M324 684l-81 -99h-45l-81 99h45l59 -74l59 74h44zM431 37v-37h-421v37l362 441h-351v37h399v-37l-362 -441h373z" />
    <glyph glyph-name="florin" unicode="&#x192;" horiz-adv-x="410" 
d="M402 631v-38q-45 27 -83 7q-43 -20 -60 -100l-10 -45h91v-36h-98l-52 -238q-18 -92 -80 -123q-51 -26 -107 0v37q54 -24 90 -4q44 20 61 98l49 230h-90v36h98l11 52q21 98 81 127q49 24 99 -3z" />
    <glyph glyph-name="circumflex" unicode="&#x2c6;" horiz-adv-x="395" 
d="M302 590h-47l-57 72l-56 -72h-47l81 99h45z" />
    <glyph glyph-name="caron" unicode="&#x2c7;" horiz-adv-x="347" 
d="M277 689l-81 -99h-45l-81 99h45l59 -74l59 74h44z" />
    <glyph glyph-name="breve" unicode="&#x2d8;" horiz-adv-x="401" 
d="M331 694q-11 -48 -46 -76t-84 -28q-50 0 -85 28t-46 76h35q23 -69 96 -69q74 0 95 69h35z" />
    <glyph glyph-name="dotaccent" unicode="&#x2d9;" horiz-adv-x="187" 
d="M117 595h-47v69h47v-69z" />
    <glyph glyph-name="ring" unicode="&#x2da;" horiz-adv-x="305" 
d="M152 748q34 0 58.5 -24.5t24.5 -58.5t-24.5 -58t-58.5 -24t-58 24t-24 58t24 58.5t58 24.5zM152 610q22 0 38 16t16 39t-16 39t-38 16t-37.5 -16t-15.5 -39t15.5 -39t37.5 -16z" />
    <glyph glyph-name="ogonek" unicode="&#x2db;" horiz-adv-x="277" 
d="M207 -126v-28q-39 -22 -77.5 -17t-52.5 34q-16 25 -1 68t62 74h40q-44 -30 -63 -65.5t-5 -61.5q9 -17 37.5 -18t59.5 14z" />
    <glyph glyph-name="tilde" unicode="&#x2dc;" horiz-adv-x="395" 
d="M327 673q-8 -38 -27.5 -56.5t-44.5 -18.5q-27 0 -61.5 21.5t-52.5 21.5q-28 -2 -40 -39h-31q7 37 27 55.5t44 18.5q28 0 62 -21t52 -21q29 0 40 39h32z" />
    <glyph glyph-name="hungarumlaut" unicode="&#x2dd;" horiz-adv-x="349" 
d="M279 695l-76 -103h-39l67 103h48zM185 695l-76 -103h-39l68 103h47z" />
    <glyph glyph-name="afii10023" unicode="&#x401;" horiz-adv-x="598" 
d="M411 777h-47v68h47v-68zM276 777h-48v68h48v-68zM121 657v-275h379v-36h-379v-309h423v-37h-460v694h460v-37h-423z" />
    <glyph glyph-name="afii10051" unicode="&#x402;" horiz-adv-x="747" 
d="M277 346v-346h-37v657h-233v37h504v-37h-234v-274h236q89 0 145 -53.5t56 -137.5q0 -85 -56 -138.5t-145 -53.5h-99v37h99q68 0 116 38.5t48 116.5t-47.5 116t-116.5 38h-236z" />
    <glyph glyph-name="afii10052" unicode="&#x403;" horiz-adv-x="542" 
d="M403 868l-90 -103h-41l84 103h47zM121 657v-657h-37v694h430v-37h-393z" />
    <glyph glyph-name="afii10053" unicode="&#x404;" horiz-adv-x="729" 
d="M69 369h361v-36h-361q7 -132 96 -220t213 -88q91 0 165.5 53.5t111.5 141.5h40q-38 -103 -124 -167.5t-193 -64.5q-144 0 -245 104.5t-101 257.5t101 257t245 104q109 0 195 -63.5t123 -167.5h-40q-35 88 -109.5 141t-168.5 53q-123 0 -212.5 -87.5t-96.5 -217.5z" />
    <glyph glyph-name="afii10054" unicode="&#x405;" horiz-adv-x="596" 
d="M297 712q113 0 173 -60.5t60 -144.5h-37q0 77 -53.5 123t-142.5 46t-143.5 -41t-54.5 -108q0 -57 47.5 -90.5t158.5 -56.5q128 -26 187 -67.5t59 -126.5q0 -91 -70 -145t-187 -54q-100 0 -175.5 58.5t-75.5 165.5h37q0 -90 63.5 -138t150.5 -48q102 0 161 43t59 118
q0 64 -47 98.5t-169 59.5q-52 10 -89.5 22.5t-73.5 33t-54.5 52.5t-18.5 75q0 83 64.5 134t170.5 51z" />
    <glyph glyph-name="afii10055" unicode="&#x406;" horiz-adv-x="209" 
d="M124 694v-694h-37v694h37z" />
    <glyph glyph-name="afii10056" unicode="&#x407;" horiz-adv-x="209" 
d="M189 776h-48v69h48v-69zM67 776h-47v69h47v-69zM124 694v-694h-37v694h37z" />
    <glyph glyph-name="afii10057" unicode="&#x408;" horiz-adv-x="519" 
d="M437 694v-489q0 -99 -57 -158.5t-152 -59.5q-88 0 -148 60.5t-60 148.5h37q0 -73 49 -122t122 -49q80 0 126 48.5t46 131.5v489h37z" />
    <glyph glyph-name="afii10058" unicode="&#x409;" horiz-adv-x="990" 
d="M535 383h219q89 0 145 -53.5t56 -137.5q0 -85 -56 -138.5t-145 -53.5h-256v657h-251l-199 -657h-38l210 694h315v-311zM918 192q0 78 -47.5 116t-116.5 38h-219v-309h219q68 0 116 38.5t48 116.5z" />
    <glyph glyph-name="afii10059" unicode="&#x40a;" horiz-adv-x="998" 
d="M506 346h-385v-346h-37v694h37v-311h385v311h37v-311h219q89 0 145 -53.5t56 -137.5q0 -85 -56 -138.5t-145 -53.5h-256v346zM926 192q0 78 -47.5 116t-116.5 38h-219v-309h219q68 0 116 38.5t48 116.5z" />
    <glyph glyph-name="afii10060" unicode="&#x40b;" horiz-adv-x="764" 
d="M277 346v-346h-37v657h-233v37h504v-37h-234v-274h219q89 0 145 -53.5t56 -137.5v-192h-37v192q0 78 -47.5 116t-116.5 38h-219z" />
    <glyph glyph-name="afii10061" unicode="&#x40c;" horiz-adv-x="589" 
d="M414 868l-90 -103h-41l84 103h47zM263 400l-142 -143v-257h-37v694h37v-386l380 386h52l-264 -267l307 -427h-46z" />
    <glyph glyph-name="afii10062" unicode="&#x40e;" horiz-adv-x="538" 
d="M402 875q-11 -48 -46 -76t-84 -28q-50 0 -85 28t-46 76h37q20 -69 94 -69q73 0 93 69h37zM272 218l219 476h41l-255 -545q-37 -79 -83 -114t-121 -35h-22v36h22q63 0 103 30t70 96l6 14l-246 518h41z" />
    <glyph glyph-name="afii10145" unicode="&#x40f;" horiz-adv-x="669" 
d="M316 0h-232v694h37v-657h427v657h37v-694h-232v-110h-37v110z" />
    <glyph glyph-name="afii10017" unicode="&#x410;" horiz-adv-x="583" 
d="M446 239h-309l-92 -239h-40l266 694h41l266 -694h-40zM432 276l-141 367l-140 -367h281z" />
    <glyph glyph-name="afii10018" unicode="&#x411;" horiz-adv-x="619" 
d="M586 192q0 -85 -56 -138.5t-145 -53.5h-301v694h433v-37h-396v-274h264q89 0 145 -53.5t56 -137.5zM549 192q0 78 -47.5 116t-116.5 38h-264v-309h264q68 0 116 38.5t48 116.5z" />
    <glyph glyph-name="afii10019" unicode="&#x412;" horiz-adv-x="626" 
d="M586 192q0 -85 -56 -138.5t-145 -53.5h-301v694h295q87 0 137 -46.5t50 -127.5q0 -54 -26 -94t-72 -60q118 -41 118 -174zM121 657v-275h261q60 0 103.5 35.5t43.5 102.5q0 65 -39.5 101t-110.5 36h-258zM549 192q0 73 -44 113.5t-123 40.5h-261v-309h264q67 0 115.5 40
t48.5 115z" />
    <glyph glyph-name="afii10020" unicode="&#x413;" horiz-adv-x="542" 
d="M121 657v-657h-37v694h430v-37h-393z" />
    <glyph glyph-name="afii10021" unicode="&#x414;" horiz-adv-x="727" 
d="M654 37h55v-147h-37v110h-617v-110h-37v147h51l174 657h237zM107 37h509l-164 620h-181z" />
    <glyph glyph-name="afii10022" unicode="&#x415;" horiz-adv-x="598" 
d="M121 657v-275h379v-36h-379v-309h423v-37h-460v694h460v-37h-423z" />
    <glyph glyph-name="afii10024" unicode="&#x416;" horiz-adv-x="797" 
d="M484 382l245 312h47l-261 -329l274 -365h-42l-263 346h-67v-346h-37v346h-66l-265 -346h-41l273 365l-65 83l-130 164l-65 82h48l243 -312h68v312h37v-312h67z" />
    <glyph glyph-name="afii10025" unicode="&#x417;" horiz-adv-x="556" 
d="M516 184q0 -86 -62.5 -141t-180.5 -55q-114 0 -181 55.5t-71 153.5h37q2 -79 55 -126.5t160 -47.5q102 0 154 44t52 117q0 162 -176 162h-76v36h71q78 0 119.5 37t41.5 107q0 69 -49.5 109.5t-134.5 40.5q-80 0 -133.5 -37.5t-55.5 -112.5h-37q2 78 61 131.5t165 53.5
q109 0 165 -55.5t56 -129.5q0 -118 -101 -159q61 -17 91 -65.5t30 -117.5z" />
    <glyph glyph-name="afii10026" unicode="&#x418;" horiz-adv-x="709" 
d="M83 694h37v-643l464 643h42v-694h-37v643l-464 -643h-42v694z" />
    <glyph glyph-name="afii10027" unicode="&#x419;" horiz-adv-x="709" 
d="M492 875q-11 -48 -46 -76t-84 -28q-50 0 -85 28t-46 76h37q20 -69 94 -69q73 0 93 69h37zM83 694h37v-643l464 643h42v-694h-37v643l-464 -643h-42v694z" />
    <glyph glyph-name="afii10028" unicode="&#x41a;" horiz-adv-x="589" 
d="M263 400l-142 -143v-257h-37v694h37v-386l380 386h52l-264 -267l307 -427h-46z" />
    <glyph glyph-name="afii10029" unicode="&#x41b;" horiz-adv-x="625" 
d="M227 657l-181 -657h-38l191 694h227l191 -694h-38l-181 657h-171z" />
    <glyph glyph-name="afii10030" unicode="&#x41c;" horiz-adv-x="817" 
d="M733 694v-694h-38v607l-266 -607h-41l-267 607v-607h-37v694h39l285 -649l285 649h40z" />
    <glyph glyph-name="afii10031" unicode="&#x41d;" horiz-adv-x="708" 
d="M624 694v-694h-37v345h-466v-345h-37v694h37v-311h466v311h37z" />
    <glyph glyph-name="afii10032" unicode="&#x41e;" horiz-adv-x="748" 
d="M375 711q145 0 244 -104.5t99 -256.5q0 -150 -100.5 -256t-242.5 -106t-242.5 106t-100.5 256q0 149 100.5 255t242.5 106zM375 25q127 0 216 95.5t89 229.5q0 136 -88.5 230t-216.5 94q-127 0 -216.5 -95t-89.5 -229q0 -135 89.5 -230t216.5 -95z" />
    <glyph glyph-name="afii10033" unicode="&#x41f;" horiz-adv-x="688" 
d="M604 694v-694h-37v657h-446v-657h-37v694h520z" />
    <glyph glyph-name="afii10034" unicode="&#x420;" horiz-adv-x="591" 
d="M567 502q0 -86 -56.5 -139.5t-146.5 -53.5h-243v-309h-37v694h277q95 0 150.5 -51.5t55.5 -140.5zM530 502q0 74 -44.5 114.5t-124.5 40.5h-240v-311h243q68 0 117 40.5t49 115.5z" />
    <glyph glyph-name="afii10035" unicode="&#x421;" horiz-adv-x="729" 
d="M695 220q-38 -103 -125.5 -167.5t-194.5 -64.5q-142 0 -242.5 106t-100.5 256q0 149 100.5 255t242.5 106q110 0 197.5 -64t123.5 -167h-40q-35 88 -110.5 141t-170.5 53q-127 0 -216.5 -95t-89.5 -229q0 -135 89.5 -230t216.5 -95q92 0 167.5 53.5t112.5 141.5h40z" />
    <glyph glyph-name="afii10036" unicode="&#x422;" horiz-adv-x="516" 
d="M511 657h-234v-657h-37v657h-233v37h504v-37z" />
    <glyph glyph-name="afii10037" unicode="&#x423;" horiz-adv-x="538" 
d="M272 218l219 476h41l-255 -545q-37 -79 -83 -114t-121 -35h-22v36h22q63 0 103 30t70 96l6 14l-246 518h41z" />
    <glyph glyph-name="afii10038" unicode="&#x424;" horiz-adv-x="696" 
d="M366 630h6q132 0 213.5 -80.5t81.5 -199.5q0 -118 -82.5 -199t-212.5 -81h-6v-70h-37v70h-6q-130 0 -212 80.5t-82 199.5q0 117 82.5 198.5t211.5 81.5h6v64h37v-64zM366 593v-486h6q117 0 187.5 69.5t70.5 173.5t-70 173.5t-188 69.5h-6zM329 107v486h-6
q-117 0 -187 -70t-70 -173q0 -104 70 -173.5t187 -69.5h6z" />
    <glyph glyph-name="afii10039" unicode="&#x425;" horiz-adv-x="536" 
d="M486 0l-217 320l-217 -320h-45l239 353l-231 341h45l209 -308l209 308h45l-232 -341l240 -353h-45z" />
    <glyph glyph-name="afii10040" unicode="&#x426;" horiz-adv-x="674" 
d="M548 37v657h37v-657h53v-147h-37v110h-517v694h37v-657h427z" />
    <glyph glyph-name="afii10041" unicode="&#x427;" horiz-adv-x="591" 
d="M470 308v386h37v-694h-37v271h-202q-96 0 -151.5 57t-55.5 171v195h37v-195q0 -191 170 -191h202z" />
    <glyph glyph-name="afii10042" unicode="&#x428;" horiz-adv-x="897" 
d="M430 37v657h37v-657h309v657h37v-694h-729v694h37v-657h309z" />
    <glyph glyph-name="afii10043" unicode="&#x429;" horiz-adv-x="902" 
d="M776 37v657h37v-657h53v-147h-37v110h-745v694h37v-657h309v657h37v-657h309z" />
    <glyph glyph-name="afii10044" unicode="&#x42a;" horiz-adv-x="730" 
d="M695 192q0 -85 -56 -138.5t-145 -53.5h-276v657h-211v37h248v-311h239q89 0 145 -53.5t56 -137.5zM658 192q0 78 -47.5 116t-116.5 38h-239v-309h239q68 0 116 38.5t48 116.5z" />
    <glyph glyph-name="afii10045" unicode="&#x42b;" horiz-adv-x="743" 
d="M659 0h-37v694h37v-694zM541 192q0 -85 -56 -138.5t-145 -53.5h-256v694h37v-311h219q89 0 145 -53.5t56 -137.5zM504 192q0 78 -47.5 116t-116.5 38h-219v-309h219q68 0 116 38.5t48 116.5z" />
    <glyph glyph-name="afii10046" unicode="&#x42c;" horiz-adv-x="609" 
d="M576 192q0 -85 -56 -138.5t-145 -53.5h-291v694h37v-311h254q89 0 145 -53.5t56 -137.5zM539 192q0 78 -47.5 116t-116.5 38h-254v-309h254q68 0 116 38.5t48 116.5z" />
    <glyph glyph-name="afii10047" unicode="&#x42d;" horiz-adv-x="729" 
d="M660 333h-361v36h361q-7 130 -93.5 217.5t-208.5 87.5q-95 0 -172.5 -53.5t-112.5 -140.5h-40q36 103 125 167t200 64q143 0 241 -104t98 -257q0 -154 -98 -258t-241 -104q-108 0 -197 64.5t-127 167.5h40q36 -87 113.5 -141t170.5 -54q123 0 209.5 88t92.5 220z" />
    <glyph glyph-name="afii10048" unicode="&#x42e;" horiz-adv-x="960" 
d="M282 338h-161v-338h-37v694h37v-319h162q8 144 100 240t222 96q139 0 231 -103t92 -258q0 -153 -93 -257.5t-230 -104.5q-133 0 -225.5 100.5t-97.5 249.5zM605 25q124 0 204.5 94.5t80.5 230.5q0 138 -80 231t-205 93q-124 0 -205 -94.5t-81 -229.5q0 -137 81 -231
t205 -94z" />
    <glyph glyph-name="afii10049" unicode="&#x42f;" horiz-adv-x="632" 
d="M73 84v92q0 116 95 152q-54 21 -85 67t-31 107q0 89 55.5 140.5t151.5 51.5h292v-694h-37v310h-257q-28 0 -51.5 -6t-46.5 -19.5t-36 -41.5t-13 -67v-101q0 -45 -14 -75h-38q15 38 15 84zM255 346h259v311h-255q-81 0 -125 -40.5t-44 -114.5q0 -75 49 -115.5t116 -40.5z
" />
    <glyph glyph-name="afii10065" unicode="&#x430;" horiz-adv-x="547" 
d="M492 0h-38q-14 30 -14 75v10q-31 -44 -89 -69t-133 -25t-131 37.5t-56 106.5q0 42 18 71.5t51.5 46t68 24.5t81.5 12q50 5 79 9.5t57.5 13.5t41 24.5t12.5 38.5q0 44 -27 72t-61.5 36.5t-77.5 8.5q-144 0 -178 -109h-38q17 69 73 107t143 38q97 0 150 -40t53 -113v-291
q0 -46 15 -84zM440 187v118q-19 -17 -52.5 -28t-60 -14.5t-73.5 -7.5q-98 -10 -140.5 -37.5t-42.5 -81.5q0 -30 15.5 -52.5t39.5 -34t47 -16.5t45 -5q91 0 156.5 41t65.5 118z" />
    <glyph glyph-name="afii10066" unicode="&#x431;" horiz-adv-x="591" 
d="M51 478q0 125 67 195.5t176 70.5h91q53 0 93 17v-38q-32 -16 -88 -16h-96q-95 0 -150.5 -59.5t-55.5 -170.5v-89q33 63 91.5 101.5t128.5 38.5q106 0 181.5 -79.5t75.5 -192.5q0 -111 -75.5 -189.5t-181.5 -78.5q-107 0 -182 78.5t-75 190.5v221zM528 256
q0 97 -64.5 166.5t-155.5 69.5t-155.5 -69.5t-64.5 -166.5t64.5 -164.5t155.5 -67.5t155.5 68.5t64.5 163.5z" />
    <glyph glyph-name="afii10067" unicode="&#x432;" horiz-adv-x="505" 
d="M371 278q45 -15 68.5 -48.5t23.5 -80.5q0 -74 -45 -111.5t-120 -37.5h-225v515h219q67 0 107.5 -34t40.5 -98q0 -79 -69 -105zM110 296h182q58 0 84.5 20.5t26.5 66.5q0 48 -30 72t-81 24h-182v-183zM110 261v-225h188q59 0 93.5 27.5t34.5 85.5q0 51 -32 81.5t-96 30.5
h-188z" />
    <glyph glyph-name="afii10068" unicode="&#x433;" horiz-adv-x="440" 
d="M110 479v-479h-37v515h345v-36h-308z" />
    <glyph glyph-name="afii10069" unicode="&#x434;" horiz-adv-x="548" 
d="M53 36l134 479h174l134 -479h41v-132h-37v96h-450v-96h-37v132h41zM458 36l-124 443h-120l-124 -443h368z" />
    <glyph glyph-name="afii10070" unicode="&#x435;" horiz-adv-x="568" 
d="M542 258h-477q1 -100 66.5 -166.5t159.5 -66.5q151 0 201 135h39q-27 -84 -88.5 -128t-151.5 -44q-110 0 -186.5 78t-76.5 190q0 113 75.5 192.5t181.5 79.5q111 0 185 -83.5t72 -186.5zM69 295h433q-14 84 -75 139.5t-142 55.5t-142 -55.5t-74 -139.5z" />
    <glyph glyph-name="afii10072" unicode="&#x436;" horiz-adv-x="637" 
d="M215 272l-199 243h47l182 -227h54v227h37v-227h54l180 227h48q-198 -242 -198 -243l216 -272h-45l-200 253h-55v-253h-37v253h-54l-199 -253h-45z" />
    <glyph glyph-name="afii10073" unicode="&#x437;" horiz-adv-x="468" 
d="M335 276q46 -13 70.5 -48.5t24.5 -85.5q0 -73 -52 -113.5t-142 -40.5q-102 0 -156 50t-62 119h39q21 -134 179 -134q76 0 116.5 31t40.5 88q0 116 -130 116h-79v35h73q58 0 85.5 22.5t27.5 70.5t-35.5 77.5t-98.5 29.5q-58 0 -97 -29t-51 -85h-39q14 71 63.5 110
t123.5 39q76 0 123.5 -39.5t47.5 -102.5q0 -85 -72 -110z" />
    <glyph glyph-name="afii10074" unicode="&#x438;" horiz-adv-x="553" 
d="M73 0v515h37v-465l329 465h41v-515h-37v465l-329 -465h-41z" />
    <glyph glyph-name="afii10075" unicode="&#x439;" horiz-adv-x="553" 
d="M407 710q-11 -48 -46 -76t-84 -28q-50 0 -85 28t-46 76h37q20 -69 94 -69q73 0 93 69h37zM73 0v515h37v-465l329 465h41v-515h-37v465l-329 -465h-41z" />
    <glyph glyph-name="afii10076" unicode="&#x43a;" horiz-adv-x="500" 
d="M110 148v-148h-37v515h37v-319l305 319h50l-195 -201l220 -314h-44l-202 286l-25 -26q-25 -25 -61.5 -63t-47.5 -49z" />
    <glyph glyph-name="afii10077" unicode="&#x43b;" horiz-adv-x="491" 
d="M177 479l-131 -479h-37l141 515h191l141 -515h-37l-131 479h-137z" />
    <glyph glyph-name="afii10078" unicode="&#x43c;" horiz-adv-x="660" 
d="M110 445v-445h-37v515h43l215 -474l216 474h40v-515h-37v443l-201 -443h-37z" />
    <glyph glyph-name="afii10079" unicode="&#x43d;" horiz-adv-x="566" 
d="M110 259v-259h-37v515h37v-220h346v220h37v-515h-37v259h-346z" />
    <glyph glyph-name="afii10080" unicode="&#x43e;" horiz-adv-x="569" 
d="M284 528q107 0 182.5 -80t75.5 -192q0 -111 -75.5 -189.5t-182.5 -78.5q-106 0 -181.5 78.5t-75.5 189.5q0 112 75.5 192t181.5 80zM284 23q91 0 155.5 68.5t64.5 164.5q0 98 -64.5 167.5t-155.5 69.5t-155.5 -69.5t-64.5 -167.5q0 -96 64.5 -164.5t155.5 -68.5z" />
    <glyph glyph-name="afii10081" unicode="&#x43f;" horiz-adv-x="553" 
d="M110 479v-479h-37v515h407v-515h-37v479h-333z" />
    <glyph glyph-name="afii10082" unicode="&#x440;" horiz-adv-x="609" 
d="M583 256q0 -111 -75.5 -189.5t-182.5 -78.5q-70 0 -128.5 37t-91.5 99v-353h-37v744h37v-125q33 63 91.5 100.5t128.5 37.5q107 0 182.5 -80t75.5 -192zM545 256q0 97 -64.5 165.5t-155.5 68.5t-155.5 -68.5t-64.5 -165.5q0 -95 64.5 -163t155.5 -68t155.5 68t64.5 163z
" />
    <glyph glyph-name="afii10083" unicode="&#x441;" horiz-adv-x="553" 
d="M523 160q-26 -79 -89.5 -125.5t-148.5 -46.5q-106 0 -181.5 78.5t-75.5 189.5q0 113 75.5 192.5t181.5 79.5q85 0 148 -46.5t90 -125.5h-40q-25 62 -77.5 98t-120.5 36q-91 0 -155.5 -68.5t-64.5 -165.5q0 -95 64.5 -163t155.5 -68q71 0 123.5 36t75.5 99h39z" />
    <glyph glyph-name="afii10084" unicode="&#x442;" horiz-adv-x="437" 
d="M236 479v-479h-37v479h-190v36h419v-36h-192z" />
    <glyph glyph-name="afii10085" unicode="&#x443;" horiz-adv-x="445" 
d="M437 515l-222 -590q-55 -145 -200 -118v35q62 -9 102 13t63 83l24 63l-194 514h40l173 -462l175 462h39z" />
    <glyph glyph-name="afii10086" unicode="&#x444;" horiz-adv-x="579" 
d="M308 527q101 -8 172 -86t71 -185q0 -105 -71 -182t-172 -85v-218h-37v218q-101 7 -172 84t-71 183q0 107 71 185.5t172 85.5v217h37v-217zM308 492v-468q85 8 145 75t60 157q0 92 -60 160t-145 76zM271 24v468q-86 -8 -146 -76t-60 -160q0 -91 60 -157.5t146 -74.5z" />
    <glyph glyph-name="afii10087" unicode="&#x445;" horiz-adv-x="432" 
d="M387 0l-170 235l-170 -235h-46l193 266l-181 249h46l158 -217l158 217h46l-181 -249l193 -266h-46z" />
    <glyph glyph-name="afii10088" unicode="&#x446;" horiz-adv-x="546" 
d="M430 36v479h37v-479h53v-132h-37v96h-410v515h37v-479h320z" />
    <glyph glyph-name="afii10089" unicode="&#x447;" horiz-adv-x="491" 
d="M381 186h-147q-86 0 -135 48t-49 128v153h37v-153q0 -66 37.5 -103.5t109.5 -37.5h147v294h37v-515h-37v186z" />
    <glyph glyph-name="afii10090" unicode="&#x448;" horiz-adv-x="737" 
d="M349 36v479h37v-479h241v479h37v-515h-591v515h37v-479h239z" />
    <glyph glyph-name="afii10091" unicode="&#x449;" horiz-adv-x="743" 
d="M627 36v479h37v-479h53v-132h-37v96h-607v515h37v-479h239v479h37v-479h241z" />
    <glyph glyph-name="afii10092" unicode="&#x44a;" horiz-adv-x="560" 
d="M199 297h164q75 0 120 -38t45 -110t-45 -110.5t-120 -38.5h-201v479h-153v36h190v-218zM199 261v-225h164q59 0 93.5 27.5t34.5 85.5q0 112 -128 112h-164z" />
    <glyph glyph-name="afii10093" unicode="&#x44b;" horiz-adv-x="598" 
d="M488 0v515h37v-515h-37zM110 297h142q75 0 120 -38t45 -110t-45 -110.5t-120 -38.5h-179v515h37v-218zM110 261v-225h142q59 0 93.5 27.5t34.5 85.5q0 112 -128 112h-142z" />
    <glyph glyph-name="afii10094" unicode="&#x44c;" horiz-adv-x="495" 
d="M110 297h188q75 0 120 -38t45 -110t-45 -110.5t-120 -38.5h-225v515h37v-218zM110 261v-225h188q59 0 93.5 27.5t34.5 85.5q0 112 -128 112h-188z" />
    <glyph glyph-name="afii10095" unicode="&#x44d;" horiz-adv-x="553" 
d="M488 243h-281v36h280q-8 89 -68.5 150t-144.5 61q-70 0 -124.5 -36t-79.5 -98h-40q26 78 92 125t152 47q105 0 178 -79.5t73 -192.5q0 -111 -73 -189.5t-178 -78.5q-86 0 -152 47t-92 125h39q23 -62 78 -98.5t127 -36.5q86 0 147.5 63t66.5 155z" />
    <glyph glyph-name="afii10096" unicode="&#x44e;" horiz-adv-x="746" 
d="M110 249v-249h-37v515h37v-230h120q10 102 79 172.5t162 70.5q101 0 172 -80t71 -192q0 -111 -71 -189.5t-172 -78.5q-98 0 -168.5 76t-73.5 185h-119zM471 23q86 0 145.5 68t59.5 165q0 99 -59 168t-146 69q-86 0 -145.5 -69t-59.5 -168q0 -96 59.5 -164.5t145.5 -68.5z
" />
    <glyph glyph-name="afii10097" unicode="&#x44f;" horiz-adv-x="522" 
d="M129 245q-78 32 -78 125q0 73 45.5 109t119.5 36h233v-515h-37v226h-202q-64 0 -90 -25t-26 -81v-40q0 -48 -15 -80h-38q16 36 16 84v36q0 102 72 125zM412 262v217h-196q-128 0 -128 -109q0 -108 128 -108h196z" />
    <glyph glyph-name="afii10071" unicode="&#x451;" horiz-adv-x="568" 
d="M381 595h-47v69h47v-69zM245 595h-47v69h47v-69zM542 258h-477q1 -100 66.5 -166.5t159.5 -66.5q151 0 201 135h39q-27 -84 -88.5 -128t-151.5 -44q-110 0 -186.5 78t-76.5 190q0 113 75.5 192.5t181.5 79.5q111 0 185 -83.5t72 -186.5zM69 295h433q-14 84 -75 139.5
t-142 55.5t-142 -55.5t-74 -139.5z" />
    <glyph glyph-name="afii10099" unicode="&#x452;" 
d="M73 619h-63v37h63v88h37v-88h196v-37h-196v-191q28 47 76.5 73.5t109.5 26.5q99 0 154.5 -58t55.5 -159v-391q0 -76 -38 -112.5t-99 -36.5h-46v36h46q100 0 100 113v391q0 86 -45 133.5t-129 47.5q-78 0 -131.5 -51.5t-53.5 -129.5v-311h-37v619z" />
    <glyph glyph-name="afii10100" unicode="&#x453;" horiz-adv-x="428" 
d="M349 695l-90 -102h-42l84 102h48zM110 479v-479h-37v515h333v-36h-296z" />
    <glyph glyph-name="afii10101" unicode="&#x454;" horiz-adv-x="553" 
d="M65 243q5 -91 69 -154.5t151 -63.5q71 0 123.5 36t75.5 99h39q-26 -79 -89.5 -125.5t-148.5 -46.5q-106 0 -181.5 78.5t-75.5 189.5q0 113 75.5 192.5t181.5 79.5q85 0 148 -46.5t90 -125.5h-40q-25 62 -77.5 98t-120.5 36q-85 0 -148 -61t-71 -150h280v-36h-281z" />
    <glyph glyph-name="afii10102" unicode="&#x455;" horiz-adv-x="511" 
d="M478 146q2 -59 -36 -98q-58 -60 -170 -60q-99 0 -162.5 42t-76.5 120h37q13 -62 65.5 -94.5t135.5 -32.5q95 0 144 51q28 30 25 71q-1 47 -42.5 73t-136.5 40q-37 5 -56 8.5t-51.5 13.5t-49 22t-30 34.5t-14.5 51.5q0 57 52 98.5t143 41.5q86 0 140.5 -37t70.5 -107h-38
q-33 109 -172 109q-69 0 -114 -30t-44 -75q1 -42 39.5 -61.5t129.5 -32.5q46 -7 78.5 -15.5t64.5 -25t49 -43.5t19 -64z" />
    <glyph glyph-name="afii10103" unicode="&#x456;" horiz-adv-x="191" 
d="M115 694v-92h-37v92h37zM115 515v-515h-37v515h37z" />
    <glyph glyph-name="afii10104" unicode="&#x457;" horiz-adv-x="191" 
d="M179 595h-47v69h47v-69zM58 595h-47v69h47v-69zM115 515v-515h-37v515h37z" />
    <glyph glyph-name="afii10105" unicode="&#x458;" horiz-adv-x="182" 
d="M110 694v-92h-37v92h37zM110 515v-614q0 -69 -36 -102q-36 -34 -98 -27v36q48 -4 73 18q24 22 24 75v614h37z" />
    <glyph glyph-name="afii10106" unicode="&#x459;" horiz-adv-x="785" 
d="M425 297h163q75 0 120 -38t45 -110t-45 -110.5t-120 -38.5h-200v479h-211l-131 -479h-37l141 515h275v-218zM425 261v-225h163q59 0 93.5 27.5t34.5 85.5q0 112 -128 112h-163z" />
    <glyph glyph-name="afii10107" unicode="&#x45a;" horiz-adv-x="800" 
d="M110 261v-261h-37v515h37v-218h293v218h37v-218h163q75 0 120 -38t45 -110t-45 -110.5t-120 -38.5h-200v261h-293zM440 261v-225h163q59 0 93.5 27.5t34.5 85.5q0 112 -128 112h-163z" />
    <glyph glyph-name="afii10108" unicode="&#x45b;" 
d="M110 619v-191q28 47 76.5 73.5t109.5 26.5q99 0 154.5 -58t55.5 -159v-311h-37v311q0 86 -45 133.5t-129 47.5q-78 0 -131.5 -51.5t-53.5 -129.5v-311h-37v619h-63v37h63v88h37v-88h196v-37h-196z" />
    <glyph glyph-name="afii10109" unicode="&#x45c;" horiz-adv-x="500" 
d="M110 148v-148h-37v515h37v-319l305 319h50l-195 -201l220 -314h-44l-202 286l-25 -26q-25 -25 -61.5 -63t-47.5 -49zM366 695l-90 -102h-42l84 102h48z" />
    <glyph glyph-name="afii10110" unicode="&#x45e;" horiz-adv-x="445" 
d="M356 710q-11 -48 -46 -76t-84 -28q-50 0 -85 28t-46 76h37q20 -69 94 -69q73 0 93 69h37zM437 515l-222 -590q-55 -145 -200 -118v35q62 -9 102 13t63 83l24 63l-194 514h40l173 -462l175 462h39z" />
    <glyph glyph-name="afii10193" unicode="&#x45f;" horiz-adv-x="543" 
d="M290 0v-96h-37v96h-180v515h37v-479h323v479h37v-515h-180z" />
    <glyph glyph-name="afii10050" unicode="&#x490;" horiz-adv-x="542" 
d="M477 694v109h37v-146h-393v-657h-37v694h393z" />
    <glyph glyph-name="afii10098" unicode="&#x491;" horiz-adv-x="448" 
d="M73 515h312v96h37v-132h-312v-479h-37v515z" />
    <glyph glyph-name="endash" unicode="&#x2013;" horiz-adv-x="531" 
d="M489 295v-37h-445v37h445z" />
    <glyph glyph-name="emdash" unicode="&#x2014;" horiz-adv-x="975" 
d="M933 295v-37h-889v37h889z" />
    <glyph glyph-name="quoteleft" unicode="&#x2018;" horiz-adv-x="149" 
d="M75 504h-36v110q0 39 23.5 61t55.5 22v-34q-43 -2 -43 -49v-110z" />
    <glyph glyph-name="quoteright" unicode="&#x2019;" horiz-adv-x="148" 
d="M75 694h36v-110q0 -39 -23.5 -61t-55.5 -22v34q43 2 43 49v110z" />
    <glyph glyph-name="quotesinglbase" unicode="&#x201a;" horiz-adv-x="148" 
d="M70 93h36v-110q0 -39 -23.5 -61t-55.5 -22v34q43 2 43 49v110z" />
    <glyph glyph-name="quotedblleft" unicode="&#x201c;" horiz-adv-x="265" 
d="M191 504h-36v110q0 39 23.5 61t55.5 22v-34q-43 -2 -43 -49v-110zM75 504h-36v110q0 39 23.5 61t55.5 22v-34q-43 -2 -43 -49v-110z" />
    <glyph glyph-name="quotedblright" unicode="&#x201d;" horiz-adv-x="264" 
d="M191 694h36v-110q0 -39 -23.5 -61t-55.5 -22v34q43 2 43 49v110zM75 694h36v-110q0 -39 -23.5 -61t-55.5 -22v34q43 2 43 49v110z" />
    <glyph glyph-name="quotedblbase" unicode="&#x201e;" horiz-adv-x="264" 
d="M186 93h36v-110q0 -39 -23.5 -61t-55.5 -22v34q43 2 43 49v110zM70 93h36v-110q0 -39 -23.5 -61t-55.5 -22v34q43 2 43 49v110z" />
    <glyph glyph-name="dagger" unicode="&#x2020;" horiz-adv-x="331" 
d="M308 528h-123v-306h-37v306h-122v35h122v131h37v-131h123v-35z" />
    <glyph glyph-name="daggerdbl" unicode="&#x2021;" horiz-adv-x="331" 
d="M185 528v-138h123v-35h-123v-131h-37v131h-122v35h122v138h-122v35h122v131h37v-131h123v-35h-123z" />
    <glyph glyph-name="bullet" unicode="&#x2022;" horiz-adv-x="313" 
d="M157 258q-45 0 -76 31t-31 76q0 44 31 75t76 31q43 0 74.5 -31.5t31.5 -74.5q0 -45 -31 -76t-75 -31z" />
    <glyph glyph-name="ellipsis" unicode="&#x2026;" horiz-adv-x="727" 
d="M668 93v-93h-37v93h37zM383 93v-93h-37v93h37zM98 93v-93h-37v93h37z" />
    <glyph glyph-name="perthousand" unicode="&#x2030;" horiz-adv-x="1054" 
d="M180 680q64 0 109 -45t45 -109t-45 -108.5t-109 -44.5q-63 0 -108 44.5t-45 108.5t45 109t108 45zM121 -12l407 706h40l-407 -706h-40zM874 322q64 0 109 -45t45 -109t-45 -108.5t-109 -44.5q-63 0 -108 44.5t-45 108.5t45 109t108 45zM516 322q63 0 108 -45t45 -109
t-45 -108.5t-108 -44.5q-64 0 -109 44.5t-45 108.5t45 109t109 45zM180 409q49 0 83 34t34 83t-34 83.5t-83 34.5q-47 0 -81.5 -34.5t-34.5 -83.5q0 -48 34 -82.5t82 -34.5zM874 51q48 0 82 34t34 83t-34 83t-82 34t-82 -34t-34 -83t34 -83t82 -34zM516 51q48 0 82 34t34 83
t-34 83t-82 34t-82.5 -34t-34.5 -83t34.5 -83t82.5 -34z" />
    <glyph glyph-name="guilsinglleft" unicode="&#x2039;" horiz-adv-x="168" 
d="M150 383l-103 -84l103 -84v-48l-130 108v48l130 108v-48z" />
    <glyph glyph-name="guilsinglright" unicode="&#x203a;" horiz-adv-x="168" 
d="M150 323v-48l-130 -108v48l103 84l-103 84v48z" />
    <glyph glyph-name="fraction" unicode="&#x2044;" horiz-adv-x="507" 
d="M477 694l-407 -706h-40l407 706h40z" />
    <glyph glyph-name="Euro" unicode="&#x20ac;" horiz-adv-x="661" 
d="M645 143q-41 -66 -108 -104.5t-144 -38.5q-104 0 -185.5 67t-108.5 171h-84v35h77q-4 32 -4 48q0 11 2 35h-75v36h81q23 108 106 179t191 71q78 0 143 -36.5t105 -99.5l-18 -37q-35 64 -96 101.5t-134 37.5q-92 0 -164.5 -61.5t-94.5 -154.5h451l-17 -36h-440
q-3 -18 -3 -35q0 -16 4 -48h399l-18 -35h-373q25 -89 96 -146.5t160 -57.5q62 0 116.5 29t92.5 80h43z" />
    <glyph glyph-name="afii61352" unicode="&#x2116;" horiz-adv-x="1114" 
d="M880 302q-81 0 -138.5 59.5t-57.5 143.5t57.5 144t138.5 60t137.5 -60t56.5 -144t-56.5 -143.5t-137.5 -59.5zM597 694v-694h-42l-434 634v-634h-37v694h42l434 -634v634h37zM1035 160h-320v37h320v-37zM1035 0h-320v37h320v-37zM880 673q-67 0 -113 -49t-46 -119
q0 -69 46 -118t113 -49t112 48.5t45 118.5t-45 119t-112 49z" />
    <glyph glyph-name="trademark" unicode="&#x2122;" horiz-adv-x="881" 
d="M824 694v-436h-37v348h-2l-153 -348h-42l-152 348h-1v-348h-38v436h41l171 -390h1l172 390h40zM18 694h317v-36h-140v-400h-37v400h-140v36z" />
    <glyph glyph-name="commaaccent" unicode="&#xf004;" horiz-adv-x="300" 
d="M159 -51q28 0 49.5 -17.5t21.5 -48.5q0 -30 -21.5 -47.5t-56.5 -17.5q-48 0 -82 36l11 21q29 -29 69 -29q21 0 35 9.5t14 27.5q0 17 -13 28t-35 11q-24 0 -42 -9v24q21 12 50 12z" />
    <glyph glyph-name="commaaccent" unicode="&#xf6c3;" horiz-adv-x="300" 
d="M159 -51q28 0 49.5 -17.5t21.5 -48.5q0 -30 -21.5 -47.5t-56.5 -17.5q-48 0 -82 36l11 21q29 -29 69 -29q21 0 35 9.5t14 27.5q0 17 -13 28t-35 11q-24 0 -42 -9v24q21 12 50 12z" />
    <glyph glyph-name="apple" unicode="&#xf8ff;" horiz-adv-x="904" 
d="M863 347q0 -101 -51 -181t-128.5 -121t-163.5 -44l-12 -1v695l12 -1q86 -3 163.5 -44t128.5 -121.5t51 -181.5zM387 694h92v-125h-92q-96 0 -155 -64.5t-59 -157.5t59 -157.5t155 -64.5h92v-125h-92q-153 0 -249.5 101.5t-96.5 245.5t96.5 245.5t249.5 101.5zM839 336
h-135q-1 -67 -21 -134q46 -15 93 -46q60 78 63 180zM683 492q20 -65 21 -133h135q-3 100 -63 180q-45 -30 -93 -47zM532 230q70 -3 128 -21q20 62 21 127h-149v-106zM532 359h149q-1 64 -21 126q-61 -17 -128 -20v-106zM532 488q70 5 121 20q-43 112 -121 156v-176zM532 31
q77 42 121 156q-53 16 -121 19v-175zM573 664q65 -52 102 -149q44 16 86 42q-76 85 -188 107zM761 138q-42 26 -86 42q-37 -97 -102 -149q112 22 188 107z" />
    <glyph glyph-name="CR" horiz-adv-x="295" 
 />
    <glyph glyph-name="nbspace" horiz-adv-x="295" 
 />
    </font>
</defs>
</svg>
