<?xml version="1.0" standalone="no"?>
<!DOCTYPE svg PUBLIC "-//W3C//DTD SVG 1.1//EN" "http://www.w3.org/Graphics/SVG/1.1/DTD/svg11.dtd" >
<svg xmlns="http://www.w3.org/2000/svg" xmlns:xlink="http://www.w3.org/1999/xlink" version="1.1">
<metadata>
Created by FontForge 20201107 at Tue Apr  2 17:30:49 2024
 By 
Copyright (c) Font Awesome
</metadata>
<defs>
<font id="FontAwesome6Sharp-Regular" horiz-adv-x="512" >
  <font-face 
    font-family="Font Awesome 6 Sharp Regular"
    font-weight="400"
    font-stretch="normal"
    units-per-em="512"
    panose-1="2 0 5 3 0 0 0 0 0 0"
    ascent="409"
    descent="-103"
    x-height="416"
    bbox="-10 -72 640.564 456"
    underline-thickness="0"
    underline-position="0"
    unicode-range="U+0022-1FAE5"
  />
<missing-glyph horiz-adv-x="384" 
d="M0 448h24h-24h384v-24v0v-464v0v-24v0h-24h-360v24v0v464v0v24v0zM48 26l115 166l-115 -166l115 166l-115 166v0v-332v0zM77 -16h230h-230h230l-115 166v0l-115 -166v0zM221 192l115 -166l-115 166l115 -166v332v0l-115 -166v0zM307 400h-230h230h-230l115 -166v0
l115 166v0z" />
    <glyph glyph-name=".notdef" horiz-adv-x="384" 
d="M0 448h24h-24h384v-24v0v-464v0v-24v0h-24h-360v24v0v464v0v24v0zM48 26l115 166l-115 -166l115 166l-115 166v0v-332v0zM77 -16h230h-230h230l-115 166v0l-115 -166v0zM221 192l115 -166l-115 166l115 -166v332v0l-115 -166v0zM307 400h-230h230h-230l115 -166v0
l115 166v0z" />
    <glyph glyph-name=".null" horiz-adv-x="0" 
 />
    <glyph glyph-name="nonmarkingreturn" horiz-adv-x="170" 
 />
    <glyph glyph-name="uniF12A" unicode="&#xf12a;" horiz-adv-x="64" 
d="M56 392v24v-24v24h-48v0v-24v0v-288v0v-24v0h48v0v24v0v288v0zM64 32h-64h64h-64v-64v0h64v0v64v0z" />
    <glyph glyph-name="uniF12A" unicode="&#x2757;" horiz-adv-x="64" 
d="M56 392v24v-24v24h-48v0v-24v0v-288v0v-24v0h48v0v24v0v288v0zM64 32h-64h64h-64v-64v0h64v0v64v0z" />
    <glyph glyph-name="uniF12A" unicode="&#x2755;" horiz-adv-x="64" 
d="M56 392v24v-24v24h-48v0v-24v0v-288v0v-24v0h48v0v24v0v288v0zM64 32h-64h64h-64v-64v0h64v0v64v0z" />
    <glyph glyph-name="uniF12A" unicode="!" horiz-adv-x="64" 
d="M56 392v24v-24v24h-48v0v-24v0v-288v0v-24v0h48v0v24v0v288v0zM64 32h-64h64h-64v-64v0h64v0v64v0z" />
    <glyph glyph-name="quotedbl" unicode="&#x22;" horiz-adv-x="320" 
d="M72 196l-24 144l24 -144l-24 144v28v0h48v0v-28v0l-24 -144v0zM144 416h-48h48h-144v-48v0v-32v0l32 -192v0h80v0l32 192v0v32v0v48v0zM248 196l-24 144l24 -144l-24 144v28v0h48v0v-28v0l-24 -144v0zM320 416h-48h48h-144v-48v0v-32v0l32 -192v0h80v0l32 192v0v32v0v48
v0z" />
    <glyph glyph-name="uniF292" unicode="&#xf292;" horiz-adv-x="448" 
d="M448 312h-24h24h-95l20 104v0h-49v0l-20 -104v0h-111v0l20 104v0h-49v0l-20 -104v0h-88h-7l-10 -48v0h17h78l-29 -144v0h-81h-14l-9 -48v0h23h72l-21 -104v0h49v0l21 104v0h111v0l-21 -104v0h49v0l21 104v0h87h8l9 48v0h-17h-78l29 144v0h81h14l10 48v0zM183 264h111
h-111h111l-29 -144v0h-111v0l29 144v0z" />
    <glyph glyph-name="uniF292" unicode="#" horiz-adv-x="448" 
d="M448 312h-24h24h-95l20 104v0h-49v0l-20 -104v0h-111v0l20 104v0h-49v0l-20 -104v0h-88h-7l-10 -48v0h17h78l-29 -144v0h-81h-14l-9 -48v0h23h72l-21 -104v0h49v0l21 104v0h111v0l-21 -104v0h49v0l21 104v0h87h8l9 48v0h-17h-78l29 144v0h81h14l10 48v0zM183 264h111
h-111h111l-29 -144v0h-111v0l29 144v0z" />
    <glyph glyph-name="u1F4B2" unicode="&#x1f4b2;" horiz-adv-x="320" 
d="M184 424v24v-24v24h-48v0v-24v0v-48v0h-9q-36 -2 -67 -20q-33 -20 -42 -62q-6 -31 6 -55q13 -24 35 -37q20 -12 45 -19q24 -8 48 -14h2v0q52 -12 82 -28q13 -9 17 -17q5 -8 2 -25q-4 -22 -35 -35q-33 -13 -87 -6q-18 3 -42 9t-41 14l-22 9v0l-20 -44v0l22 -9v0
q21 -9 49 -16q27 -7 47 -10v0v0q3 0 5 -1h5v-50v0v-24v0h48v0v24v0v49v0q29 1 54 11q51 17 64 70q6 31 -6 55q-13 24 -35 37q-20 12 -45 19q-24 8 -48 14h-2v0q-52 12 -82 28q-13 9 -17 17q-5 8 -2 25q5 21 20 30q17 11 46 13t59 -2q31 -5 55 -11l23 -5v0l11 47v0l-23 5v0
q-30 7 -72 12v50v0z" />
    <glyph glyph-name="u1F4B2" unicode="&#xf155;" horiz-adv-x="320" 
d="M184 424v24v-24v24h-48v0v-24v0v-48v0h-9q-36 -2 -67 -20q-33 -20 -42 -62q-6 -31 6 -55q13 -24 35 -37q20 -12 45 -19q24 -8 48 -14h2v0q52 -12 82 -28q13 -9 17 -17q5 -8 2 -25q-4 -22 -35 -35q-33 -13 -87 -6q-18 3 -42 9t-41 14l-22 9v0l-20 -44v0l22 -9v0
q21 -9 49 -16q27 -7 47 -10v0v0q3 0 5 -1h5v-50v0v-24v0h48v0v24v0v49v0q29 1 54 11q51 17 64 70q6 31 -6 55q-13 24 -35 37q-20 12 -45 19q-24 8 -48 14h-2v0q-52 12 -82 28q-13 9 -17 17q-5 8 -2 25q5 21 20 30q17 11 46 13t59 -2q31 -5 55 -11l23 -5v0l11 47v0l-23 5v0
q-30 7 -72 12v50v0z" />
    <glyph glyph-name="u1F4B2" unicode="$" horiz-adv-x="320" 
d="M184 424v24v-24v24h-48v0v-24v0v-48v0h-9q-36 -2 -67 -20q-33 -20 -42 -62q-6 -31 6 -55q13 -24 35 -37q20 -12 45 -19q24 -8 48 -14h2v0q52 -12 82 -28q13 -9 17 -17q5 -8 2 -25q-4 -22 -35 -35q-33 -13 -87 -6q-18 3 -42 9t-41 14l-22 9v0l-20 -44v0l22 -9v0
q21 -9 49 -16q27 -7 47 -10v0v0q3 0 5 -1h5v-50v0v-24v0h48v0v24v0v49v0q29 1 54 11q51 17 64 70q6 31 -6 55q-13 24 -35 37q-20 12 -45 19q-24 8 -48 14h-2v0q-52 12 -82 28q-13 9 -17 17q-5 8 -2 25q5 21 20 30q17 11 46 13t59 -2q31 -5 55 -11l23 -5v0l11 47v0l-23 5v0
q-30 7 -72 12v50v0z" />
    <glyph glyph-name="uniF541" unicode="&#xf541;" horiz-adv-x="384" 
d="M369 335l17 17l-17 -17l17 17l-34 34v0l-17 -17v0l-320 -320v0l-17 -17v0l34 -34v0l17 17v0l320 320v0zM16 368v-96v96v-96h96v0v96v0h-96v0zM272 112v-96v96v-96h96v0v96v0h-96v0z" />
    <glyph glyph-name="uniF541" unicode="&#xf295;" horiz-adv-x="384" 
d="M369 335l17 17l-17 -17l17 17l-34 34v0l-17 -17v0l-320 -320v0l-17 -17v0l34 -34v0l17 17v0l320 320v0zM16 368v-96v96v-96h96v0v96v0h-96v0zM272 112v-96v96v-96h96v0v96v0h-96v0z" />
    <glyph glyph-name="uniF541" unicode="%" horiz-adv-x="384" 
d="M369 335l17 17l-17 -17l17 17l-34 34v0l-17 -17v0l-320 -320v0l-17 -17v0l34 -34v0l17 17v0l320 320v0zM16 368v-96v96v-96h96v0v96v0h-96v0zM272 112v-96v96v-96h96v0v96v0h-96v0z" />
    <glyph glyph-name="ampersand" unicode="&#x26;" horiz-adv-x="448" 
d="M104 416h-24h24h-24v-24v0v-74v0q0 -39 26 -69l40 -45v0l-70 -49v0q-43 -31 -44 -85v-78v0v-24v0h24h213l7 11v0l29 43v0l47 -54v0h64v0l-3 3v0l-81 93v0l80 123v0l-40 26v0l-73 -111v0l-82 93v0l59 41v0q43 32 44 86v70v0v24v0h-24h-192zM248 276l-63 -44l63 44l-63 -44
l-43 49v0q-14 16 -14 37v50v0h144v0v-46v0q-1 -29 -24 -46v0zM104 116l73 52l-73 -52l73 52l95 -108v0l-29 -44v0h-163v0v54v0q1 29 24 46v0z" />
    <glyph glyph-name="quotesingle" unicode="'" horiz-adv-x="192" 
d="M72 96q51 1 85 35v0v0q34 34 35 85v8v0v48v0v48v0v48v0v48v0h-48h-144v-48v0v-96v0v-48v0h48h96v-8v0q-1 -31 -21 -51t-51 -21h-16h-24v-48v0h24h16zM144 272h-96h96h-96v96v0h96v0v-48v0v-48v0z" />
    <glyph glyph-name="parenleft" unicode="(" horiz-adv-x="192" 
d="M169 384l-21 -13l21 13l-21 -13q-28 -15 -62 -61q-35 -46 -38 -118q3 -72 38 -118q34 -46 62 -61l21 -13v0l-25 -41v0l-20 12v0q-22 13 -51 42q-29 30 -50 75q-22 45 -23 104q1 59 23 104q21 45 50 75q29 29 51 42l20 12v0l25 -41v0z" />
    <glyph glyph-name="parenright" unicode=")" horiz-adv-x="192" 
d="M23 384l21 -13l-21 13l21 -13q28 -15 62 -61q35 -46 38 -118q-3 -72 -38 -118q-34 -46 -62 -61l-21 -13v0l25 -41v0l20 12v0q22 13 51 42q29 30 50 75q22 45 23 104q-1 59 -23 104q-21 45 -50 75q-29 29 -51 42l-20 12v0l-25 -41v0z" />
    <glyph glyph-name="uniF069" unicode="&#xf069;" horiz-adv-x="384" 
d="M216 416v-24v24v-24v-157v0l131 81v0l26 -40v0l-135 -84v0l135 -84v0l-26 -40v0l-131 81v0v-157v0v-24v0h-48v0v24v0v157v0l-131 -81v0l-26 40v0l135 84v0l-135 84v0l26 40v0l131 -81v0v157v0v24v0h48v0z" />
    <glyph glyph-name="uniF069" unicode="&#x2731;" horiz-adv-x="384" 
d="M216 416v-24v24v-24v-157v0l131 81v0l26 -40v0l-135 -84v0l135 -84v0l-26 -40v0l-131 81v0v-157v0v-24v0h-48v0v24v0v157v0l-131 -81v0l-26 40v0l135 84v0l-135 84v0l26 40v0l131 -81v0v157v0v24v0h48v0z" />
    <glyph glyph-name="uniF069" unicode="*" horiz-adv-x="384" 
d="M216 416v-24v24v-24v-157v0l131 81v0l26 -40v0l-135 -84v0l135 -84v0l-26 -40v0l-131 81v0v-157v0v-24v0h-48v0v24v0v157v0l-131 -81v0l-26 40v0l135 84v0l-135 84v0l26 40v0l131 -81v0v157v0v24v0h48v0z" />
    <glyph glyph-name="uniF067" unicode="&#xf067;" horiz-adv-x="448" 
d="M248 376v24v-24v24h-48v0v-24v0v-160v0h-160h-24v-48v0h24h160v-160v0v-24v0h48v0v24v0v160v0h160h24v48v0h-24h-160v160v0z" />
    <glyph glyph-name="uniF067" unicode="&#x2795;" horiz-adv-x="448" 
d="M248 376v24v-24v24h-48v0v-24v0v-160v0h-160h-24v-48v0h24h160v-160v0v-24v0h48v0v24v0v160v0h160h24v48v0h-24h-160v160v0z" />
    <glyph glyph-name="uniF067" unicode="+" horiz-adv-x="448" 
d="M248 376v24v-24v24h-48v0v-24v0v-160v0h-160h-24v-48v0h24h160v-160v0v-24v0h48v0v24v0v160v0h160h24v48v0h-24h-160v160v0z" />
    <glyph glyph-name="comma" unicode="," horiz-adv-x="192" 
d="M112 85l-45 -77l45 77l-45 -77l15 104v0h30v0v-27v0zM40 160l-25 -176l25 176l-25 -176l-7 -48v0h49h23l80 136v0v40v0v48v0h-48h-72z" />
    <glyph glyph-name="hyphen" unicode="-" horiz-adv-x="320" 
d="M0 216h24h-24h320v-48v0h-24h-296v48v0z" />
    <glyph glyph-name="period" unicode="." horiz-adv-x="192" 
d="M120 56v-48v48v-48h-48v0v48v0h48v0zM72 104h-48h48h-48v-48v0v-48v0v-48v0h48h96v48v0v48v0v48v0h-48h-48z" />
    <glyph glyph-name="slash" unicode="/" horiz-adv-x="320" 
d="M311 448h-53h53h-53l-249 -512v0h53v0l249 512v0z" />
    <glyph glyph-name="zero" unicode="0" horiz-adv-x="320" 
d="M0 256q2 68 47 113v0v0q45 45 113 47q68 -2 113 -47t47 -113v-128v0q-2 -68 -47 -113t-113 -47q-68 2 -113 47t-47 113v128v0zM160 368q-48 -1 -79 -33v0v0q-32 -31 -33 -79v-128v0q1 -48 33 -79q31 -32 79 -33q48 1 79 33q32 31 33 79v128v0q-1 48 -33 79q-31 32 -79 33
v0z" />
    <glyph glyph-name="one" unicode="1" horiz-adv-x="256" 
d="M113 416h7h-7h39v-24v0v-376v0h80h24v-48v0h-24h-232v48v0h24h80v336v0l-91 -60v0l-13 -9v0v58v0l107 71v0l6 4v0z" />
    <glyph glyph-name="two" unicode="2" horiz-adv-x="320" 
d="M148 416q-62 -1 -105 -44l-24 -23v0l-17 -17v0l34 -34v0l17 17v0l24 24v0q29 28 71 29h7v0q39 -1 66 -27q26 -27 27 -66q-1 -40 -29 -68l-211 -198v0l-8 -7v0v-34v0h24h296v48v0h-24h-211l166 156v0q44 42 45 103q-2 60 -41 100q-40 39 -100 41h-7v0z" />
    <glyph glyph-name="three" unicode="3" horiz-adv-x="320" 
d="M304 416h-24h24h-304v-48v0h24h196l-149 -143v0l-7 -7v0v-34v0h24h100q36 -1 59 -25q24 -23 25 -59q-1 -36 -25 -59q-23 -24 -59 -25h-91v0q-33 1 -50 31l-2 4v0l-42 -22v0l1 -4v0q14 -26 39 -41q24 -16 54 -16h91v0q56 1 93 39q38 37 39 93q-1 56 -39 93q-37 38 -93 39
h-40v0l149 143v0l7 7v0v34v0z" />
    <glyph glyph-name="four" unicode="4" horiz-adv-x="384" 
d="M153 416h53h-53h53v0v0l-128 -272v0h194v0v152v0v24v0h48v0v-24v0v-152v0h40h24v-48v0h-24h-40v-104v0v-24v0h-48v0v24v0v104v0h-232h-38l16 34v0l135 286v0z" />
    <glyph glyph-name="five" unicode="5" horiz-adv-x="320" 
d="M35 416h21h-21h253v-48v0h-24h-187l-18 -136v0h129v0q56 -1 93 -39q38 -37 39 -93q-1 -56 -39 -93q-37 -38 -93 -39h-95v0q-28 0 -51 14t-35 39l-5 8v0l43 22v0l5 -8v0q14 -26 43 -27h95v0q36 1 59 25q24 23 25 59q-1 36 -25 59q-23 24 -59 25h-156h-27l3 27v0l24 184v0
l3 21v0z" />
    <glyph glyph-name="six" unicode="6" horiz-adv-x="320" 
d="M272 128q-1 48 -33 79v0v0q-31 32 -79 33q-50 -1 -82 -36l-5 -6v0q-25 -31 -25 -70q1 -48 33 -79q31 -32 79 -33q48 1 79 33q32 31 33 79v0zM146 287q7 1 14 1q68 -2 113 -47t47 -113q-2 -68 -47 -113t-113 -47q-68 2 -113 47t-47 113q1 64 42 108l147 180v0h62v0
l-105 -129v0z" />
    <glyph glyph-name="seven" unicode="7" horiz-adv-x="320" 
d="M320 416h-24h24h-320v-48v0h24h230l-240 -400v0h56v0l247 412v0l3 5v0v31v0z" />
    <glyph glyph-name="eight" unicode="8" horiz-adv-x="320" 
d="M304 292q-1 53 -36 88v0v0q-35 35 -88 36h-40v0q-53 -1 -88 -36t-36 -88q2 -58 43 -94q-27 -17 -43 -44q-16 -28 -16 -62q1 -53 36 -88t88 -36h72v0q53 1 88 36t36 88q0 34 -16 62q-16 27 -43 44q41 36 43 94v0zM180 168h16h-16h16q32 -1 54 -22q21 -22 22 -54
q-1 -32 -22 -54q-22 -21 -54 -22h-72v0q-32 1 -54 22q-21 22 -22 54q1 32 22 54q22 21 54 22h16v0v0v0h40v0v0v0v0zM180 216v0v0v0v0h-40v0v0v0q-32 1 -54 22q-21 22 -22 54q1 32 22 54q22 21 54 22h40v0q32 -1 54 -22q21 -22 22 -54q-1 -32 -22 -54q-22 -21 -54 -22v0z" />
    <glyph glyph-name="nine" unicode="9" horiz-adv-x="320" 
d="M48 256q1 -48 33 -79v0v0q31 -32 79 -33q50 1 82 36l5 6v0q25 31 25 70q-1 48 -33 79q-31 32 -79 33q-48 -1 -79 -33q-32 -31 -33 -79v0zM174 97q-7 -1 -14 -1q-68 2 -113 47t-47 113q2 68 47 113t113 47q68 -2 113 -47t47 -113q-1 -64 -42 -108l-147 -180v0h-61v0
l104 129v0z" />
    <glyph glyph-name="colon" unicode=":" horiz-adv-x="192" 
d="M72 336v-48v48v-48h48v0v48v0h-48v0zM24 384h48h-48h144v-48v0v-48v0v-48v0h-48h-96v48v0v48v0v48v0zM72 96v-48v48v-48h48v0v48v0h-48v0zM24 144h48h-48h144v-48v0v-48v0v-48v0h-48h-96v48v0v48v0v48v0z" />
    <glyph glyph-name="semicolon" unicode=";" horiz-adv-x="192" 
d="M72 344v-48v48v-48h48v0v48v0h-48v0zM24 392h48h-48h144v-48v0v-48v0v-48v0h-48h-96v48v0v48v0v48v0zM65 -64h-49h49h-49l7 48v0l25 176v0h64h48v-48v0v-48v0l-80 -128v0h-15v0zM90 112l-13 -91l13 91l-13 -91l35 57v0v34v0h-22v0z" />
    <glyph glyph-name="uniF536" unicode="&#xf536;" horiz-adv-x="384" 
d="M384 383l-370 -169l370 169l-370 -169l-14 -7v0v-30v0l14 -7v0l370 -169v0v53v0l-302 138v0l302 138v0v53v0z" />
    <glyph glyph-name="uniF536" unicode="&#x3c;" horiz-adv-x="384" 
d="M384 383l-370 -169l370 169l-370 -169l-14 -7v0v-30v0l14 -7v0l370 -169v0v53v0l-302 138v0l302 138v0v53v0z" />
    <glyph glyph-name="uniF52C" unicode="&#xf52c;" horiz-adv-x="448" 
d="M40 304h-24h24h-24v-48v0h24h392v48v0h-24h-368zM40 128h-24h24h-24v-48v0h24h392v48v0h-24h-368z" />
    <glyph glyph-name="uniF52C" unicode="=" horiz-adv-x="448" 
d="M40 304h-24h24h-24v-48v0h24h392v48v0h-24h-368zM40 128h-24h24h-24v-48v0h24h392v48v0h-24h-368z" />
    <glyph glyph-name="uniF531" unicode="&#xf531;" horiz-adv-x="384" 
d="M0 383l370 -169l-370 169l370 -169l14 -7v0v-30v0l-14 -7v0l-370 -169v0v53v0l302 138v0l-302 138v0v53v0z" />
    <glyph glyph-name="uniF531" unicode="&#x3e;" horiz-adv-x="384" 
d="M0 383l370 -169l-370 169l370 -169l14 -7v0v-30v0l-14 -7v0l-370 -169v0v53v0l302 138v0l-302 138v0v53v0z" />
    <glyph glyph-name="uniF128" unicode="&#xf128;" horiz-adv-x="320" 
d="M144 368q-34 -1 -57 -23v0v0q-22 -23 -23 -57v-16v0h-48v0v16v0q1 54 37 91q37 36 91 37h32v0q54 -1 91 -37q36 -37 37 -91v-7v0q-1 -60 -49 -97l-71 -52v0v-12v0v-24v0h-48v0v24v0v24v0v12v0l10 7v0l81 60v0q28 22 29 58v7v0q-1 34 -23 57q-23 22 -57 23h-32v0zM192 32
v-64v64v-64h-64v0v64v0h64v0z" />
    <glyph glyph-name="uniF128" unicode="&#x2754;" horiz-adv-x="320" 
d="M144 368q-34 -1 -57 -23v0v0q-22 -23 -23 -57v-16v0h-48v0v16v0q1 54 37 91q37 36 91 37h32v0q54 -1 91 -37q36 -37 37 -91v-7v0q-1 -60 -49 -97l-71 -52v0v-12v0v-24v0h-48v0v24v0v24v0v12v0l10 7v0l81 60v0q28 22 29 58v7v0q-1 34 -23 57q-23 22 -57 23h-32v0zM192 32
v-64v64v-64h-64v0v64v0h64v0z" />
    <glyph glyph-name="uniF128" unicode="&#x2753;" horiz-adv-x="320" 
d="M144 368q-34 -1 -57 -23v0v0q-22 -23 -23 -57v-16v0h-48v0v16v0q1 54 37 91q37 36 91 37h32v0q54 -1 91 -37q36 -37 37 -91v-7v0q-1 -60 -49 -97l-71 -52v0v-12v0v-24v0h-48v0v24v0v24v0v12v0l10 7v0l81 60v0q28 22 29 58v7v0q-1 34 -23 57q-23 22 -57 23h-32v0zM192 32
v-64v64v-64h-64v0v64v0h64v0z" />
    <glyph glyph-name="uniF128" unicode="?" horiz-adv-x="320" 
d="M144 368q-34 -1 -57 -23v0v0q-22 -23 -23 -57v-16v0h-48v0v16v0q1 54 37 91q37 36 91 37h32v0q54 -1 91 -37q36 -37 37 -91v-7v0q-1 -60 -49 -97l-71 -52v0v-12v0v-24v0h-48v0v24v0v24v0v12v0l10 7v0l81 60v0q28 22 29 58v7v0q-1 34 -23 57q-23 22 -57 23h-32v0zM192 32
v-64v64v-64h-64v0v64v0h64v0z" />
    <glyph glyph-name="uniF1FA" unicode="&#xf1fa;" 
d="M256 400q-88 -2 -147 -61v0v0q-59 -59 -61 -147q2 -88 61 -147t147 -61h32v0v-48v0h-32v0q-72 1 -129 35q-58 34 -92 92q-34 57 -35 129q1 72 35 129q34 58 92 92q57 34 129 35q72 -1 129 -35q58 -34 92 -92q34 -57 35 -129v-96v0v-24v0h-24h-48q-57 2 -90 45
q-35 -43 -94 -45q-51 1 -85 35t-35 85q1 51 35 85t85 35q41 -1 72 -24v8v0h48v0v-24v0v-80v0v-8v0q1 -27 19 -45t45 -19h24v0v72v0q-2 88 -61 147t-147 61v0zM328 192q-1 41 -36 62q-36 20 -72 0q-35 -21 -36 -62q1 -41 36 -62q36 -20 72 0q35 21 36 62v0z" />
    <glyph glyph-name="uniF1FA" unicode="@" 
d="M256 400q-88 -2 -147 -61v0v0q-59 -59 -61 -147q2 -88 61 -147t147 -61h32v0v-48v0h-32v0q-72 1 -129 35q-58 34 -92 92q-34 57 -35 129q1 72 35 129q34 58 92 92q57 34 129 35q72 -1 129 -35q58 -34 92 -92q34 -57 35 -129v-96v0v-24v0h-24h-48q-57 2 -90 45
q-35 -43 -94 -45q-51 1 -85 35t-35 85q1 51 35 85t85 35q41 -1 72 -24v8v0h48v0v-24v0v-80v0v-8v0q1 -27 19 -45t45 -19h24v0v72v0q-2 88 -61 147t-147 61v0zM328 192q-1 41 -36 62q-36 20 -72 0q-35 -21 -36 -62q1 -41 36 -62q36 -20 72 0q35 21 36 62v0z" />
    <glyph glyph-name="a" unicode="a" horiz-adv-x="384" 
d="M176 416h33h-33h33l5 -15v0l167 -433v0h-52v0l-37 96v0h-200v0l-37 -96v0h-52v0l167 433v0l6 15v0zM192 325l-82 -213l82 213l-82 -213h164v0l-82 213v0z" />
    <glyph glyph-name="a" unicode="A" horiz-adv-x="384" 
d="M176 416h33h-33h33l5 -15v0l167 -433v0h-52v0l-37 96v0h-200v0l-37 -96v0h-52v0l167 433v0l6 15v0zM192 325l-82 -213l82 213l-82 -213h164v0l-82 213v0z" />
    <glyph glyph-name="b" unicode="b" horiz-adv-x="320" 
d="M24 416h-24h24h-24v-24v0v-176v0v-24v0v-24v0v-176v0v-24v0h24h172q53 1 88 36t36 88q0 37 -19 66q-18 29 -49 44q35 34 36 86v8v0q-1 51 -35 85t-85 35h-144v0zM168 216h-120h120h-120v152v0h120v0q31 -1 51 -21t21 -51v-8v0q-1 -31 -21 -51t-51 -21v0zM48 168h120h-120
h148q32 -1 54 -22q21 -22 22 -54q-1 -32 -22 -54q-22 -21 -54 -22h-148v0v152v0z" />
    <glyph glyph-name="b" unicode="B" horiz-adv-x="320" 
d="M24 416h-24h24h-24v-24v0v-176v0v-24v0v-24v0v-176v0v-24v0h24h172q53 1 88 36t36 88q0 37 -19 66q-18 29 -49 44q35 34 36 86v8v0q-1 51 -35 85t-85 35h-144v0zM168 216h-120h120h-120v152v0h120v0q31 -1 51 -21t21 -51v-8v0q-1 -31 -21 -51t-51 -21v0zM48 168h120h-120
h148q32 -1 54 -22q21 -22 22 -54q-1 -32 -22 -54q-22 -21 -54 -22h-148v0v152v0z" />
    <glyph glyph-name="c" unicode="c" horiz-adv-x="384" 
d="M344 316q-54 52 -123 52v0v0q-69 0 -123 -52q-50 -54 -50 -124t50 -124q54 -52 123 -52t123 52l33 -35v0q-44 -43 -100 -58t-112 0t-100 58q-44 45 -58 102t0 114t58 101t100 59q56 14 112 0q56 -15 100 -59l-33 -34v0z" />
    <glyph glyph-name="c" unicode="C" horiz-adv-x="384" 
d="M344 316q-54 52 -123 52v0v0q-69 0 -123 -52q-50 -54 -50 -124t50 -124q54 -52 123 -52t123 52l33 -35v0q-44 -43 -100 -58t-112 0t-100 58q-44 45 -58 102t0 114t58 101t100 59q56 14 112 0q56 -15 100 -59l-33 -34v0z" />
    <glyph glyph-name="d" unicode="d" horiz-adv-x="384" 
d="M0 416h24h-24h160q63 -1 113 -31q51 -29 80 -80q30 -50 31 -113q-1 -63 -31 -113q-29 -51 -80 -80q-50 -30 -113 -31h-136h-24v24v0v400v0v24v0zM48 368v-352v352v-352h112v0q75 2 124 52q50 49 52 124q-2 75 -52 124q-49 50 -124 52h-112v0z" />
    <glyph glyph-name="d" unicode="D" horiz-adv-x="384" 
d="M0 416h24h-24h160q63 -1 113 -31q51 -29 80 -80q30 -50 31 -113q-1 -63 -31 -113q-29 -51 -80 -80q-50 -30 -113 -31h-136h-24v24v0v400v0v24v0zM48 368v-352v352v-352h112v0q75 2 124 52q50 49 52 124q-2 75 -52 124q-49 50 -124 52h-112v0z" />
    <glyph glyph-name="e" unicode="e" horiz-adv-x="320" 
d="M24 416h-24h24h-24v-24v0v-200v0v-200v0v-24v0h24h296v48v0h-24h-248v160v0h184h24v48v0h-24h-184v144v0h248h24v48v0h-24h-272z" />
    <glyph glyph-name="e" unicode="E" horiz-adv-x="320" 
d="M24 416h-24h24h-24v-24v0v-200v0v-200v0v-24v0h24h296v48v0h-24h-248v160v0h184h24v48v0h-24h-184v144v0h248h24v48v0h-24h-272z" />
    <glyph glyph-name="f" unicode="f" horiz-adv-x="320" 
d="M24 416h-24h24h-24v-24v0v-192v0v-208v0v-24v0h48v0v24v0v184v0h184h24v48v0h-24h-184v144v0h248h24v48v0h-24h-272z" />
    <glyph glyph-name="f" unicode="F" horiz-adv-x="320" 
d="M24 416h-24h24h-24v-24v0v-192v0v-208v0v-24v0h48v0v24v0v184v0h184h24v48v0h-24h-184v144v0h248h24v48v0h-24h-272z" />
    <glyph glyph-name="g" unicode="g" horiz-adv-x="448" 
d="M224 368q-75 -2 -124 -52v0v0q-50 -49 -52 -124q2 -75 52 -124q49 -50 124 -52q68 1 116 44q48 42 58 108h-149h-24v48v0h24h199v-24v0q-1 -63 -31 -113q-29 -51 -80 -80q-50 -30 -113 -31q-63 1 -113 31q-51 29 -80 80q-30 50 -31 113q1 63 31 113q29 51 80 80
q50 30 113 31q50 0 93 -20q44 -20 75 -56l-36 -31v0q-25 27 -59 43q-33 16 -73 16v0z" />
    <glyph glyph-name="g" unicode="G" horiz-adv-x="448" 
d="M224 368q-75 -2 -124 -52v0v0q-50 -49 -52 -124q2 -75 52 -124q49 -50 124 -52q68 1 116 44q48 42 58 108h-149h-24v48v0h24h199v-24v0q-1 -63 -31 -113q-29 -51 -80 -80q-50 -30 -113 -31q-63 1 -113 31q-51 29 -80 80q-30 50 -31 113q1 63 31 113q29 51 80 80
q50 30 113 31q50 0 93 -20q44 -20 75 -56l-36 -31v0q-25 27 -59 43q-33 16 -73 16v0z" />
    <glyph glyph-name="h" unicode="h" horiz-adv-x="384" 
d="M336 192v-200v200v-200v-24v0h48v0v24v0v232v0v168v0v24v0h-48v0v-24v0v-152v0h-288v0v152v0v24v0h-48v0v-24v0v-400v0v-24v0h48v0v24v0v200v0h288v0z" />
    <glyph glyph-name="h" unicode="H" horiz-adv-x="384" 
d="M336 192v-200v200v-200v-24v0h48v0v24v0v232v0v168v0v24v0h-48v0v-24v0v-152v0h-288v0v152v0v24v0h-48v0v-24v0v-400v0v-24v0h48v0v24v0v200v0h288v0z" />
    <glyph glyph-name="i" unicode="i" horiz-adv-x="320" 
d="M24 416h-24h24h-24v-48v0h24h112v-352v0h-112h-24v-48v0h24h296v48v0h-24h-112v352v0h112h24v48v0h-24h-272z" />
    <glyph glyph-name="i" unicode="I" horiz-adv-x="320" 
d="M24 416h-24h24h-24v-48v0h24h112v-352v0h-112h-24v-48v0h24h296v48v0h-24h-112v352v0h112h24v48v0h-24h-272z" />
    <glyph glyph-name="j" unicode="j" horiz-adv-x="320" 
d="M320 416v-24v24v-24v-264v0q-2 -68 -47 -113t-113 -47q-68 2 -113 47t-47 113v40v0v24v0h48v0v-24v0v-40v0q1 -48 33 -79q31 -32 79 -33q48 1 79 33q32 31 33 79v264v0v24v0h48v0z" />
    <glyph glyph-name="j" unicode="J" horiz-adv-x="320" 
d="M320 416v-24v24v-24v-264v0q-2 -68 -47 -113t-113 -47q-68 2 -113 47t-47 113v40v0v24v0h48v0v-24v0v-40v0q1 -48 33 -79q31 -32 79 -33q48 1 79 33q32 31 33 79v264v0v24v0h48v0z" />
    <glyph glyph-name="k" unicode="k" horiz-adv-x="320" 
d="M48 183l209 233l-209 -233l209 233h64v0l-5 -6v0l-160 -178v0l164 -264v0h-57v0l-140 226v0l-75 -83v0v-119v0v-24v0h-48v0v24v0v128v0v272v0v24v0h48v0v-24v0v-209v0z" />
    <glyph glyph-name="k" unicode="K" horiz-adv-x="320" 
d="M48 183l209 233l-209 -233l209 233h64v0l-5 -6v0l-160 -178v0l164 -264v0h-57v0l-140 226v0l-75 -83v0v-119v0v-24v0h-48v0v24v0v128v0v272v0v24v0h48v0v-24v0v-209v0z" />
    <glyph glyph-name="l" unicode="l" horiz-adv-x="320" 
d="M80 416v-24v24v-24v-376v0h216h24v-48v0h-24h-264v24v0v400v0v24v0h48v0z" />
    <glyph glyph-name="l" unicode="L" horiz-adv-x="320" 
d="M80 416v-24v24v-24v-376v0h216h24v-48v0h-24h-264v24v0v400v0v24v0h48v0z" />
    <glyph glyph-name="m" unicode="m" horiz-adv-x="448" 
d="M0 416v-24v24v-24v-400v0v-24v0h48v0v24v0v320v0l156 -237v0l20 -31v0l20 31v0l156 237v0v-320v0v-24v0h48v0v24v0v400v0v24v0h-37v0l-7 -11v0l-180 -273v0l-180 273v0l-7 11v0h-37v0z" />
    <glyph glyph-name="m" unicode="M" horiz-adv-x="448" 
d="M0 416v-24v24v-24v-400v0v-24v0h48v0v24v0v320v0l156 -237v0l20 -31v0l20 31v0l156 237v0v-320v0v-24v0h48v0v24v0v400v0v24v0h-37v0l-7 -11v0l-180 -273v0l-180 273v0l-7 11v0h-37v0z" />
    <glyph glyph-name="n" unicode="n" horiz-adv-x="384" 
d="M0 392v24v-24v24h35v0l7 -9v0l294 -349v0v334v0v24v0h48v0v-24v0v-400v0v-24v0h-35v0l-7 9v0l-294 349v0v-334v0v-24v0h-48v0v24v0v400v0z" />
    <glyph glyph-name="n" unicode="N" horiz-adv-x="384" 
d="M0 392v24v-24v24h35v0l7 -9v0l294 -349v0v334v0v24v0h48v0v-24v0v-400v0v-24v0h-35v0l-7 9v0l-294 349v0v-334v0v-24v0h-48v0v24v0v400v0z" />
    <glyph glyph-name="o" unicode="o" horiz-adv-x="448" 
d="M224 368q-48 0 -88 -24v0v0q-40 -23 -64 -64q-24 -42 -24 -88t24 -88q24 -41 64 -64q40 -24 88 -24t88 24q40 23 64 64q24 42 24 88t-24 88q-24 41 -64 64q-40 24 -88 24v0zM448 192q-1 -61 -30 -112v0v0q-30 -51 -82 -82q-53 -30 -112 -30t-112 30q-52 31 -82 82
q-29 51 -30 112q1 61 30 112q30 51 82 82q53 30 112 30t112 -30q52 -31 82 -82q29 -51 30 -112v0z" />
    <glyph glyph-name="o" unicode="O" horiz-adv-x="448" 
d="M224 368q-48 0 -88 -24v0v0q-40 -23 -64 -64q-24 -42 -24 -88t24 -88q24 -41 64 -64q40 -24 88 -24t88 24q40 23 64 64q24 42 24 88t-24 88q-24 41 -64 64q-40 24 -88 24v0zM448 192q-1 -61 -30 -112v0v0q-30 -51 -82 -82q-53 -30 -112 -30t-112 30q-52 31 -82 82
q-29 51 -30 112q1 61 30 112q30 51 82 82q53 30 112 30t112 -30q52 -31 82 -82q29 -51 30 -112v0z" />
    <glyph glyph-name="p" unicode="p" horiz-adv-x="320" 
d="M48 160h120h-120h120q44 1 74 30q29 30 30 74q-1 44 -30 74q-30 29 -74 30h-120v0v-208v0zM48 112v-120v120v-120v-24v0h-48v0v24v0v144v0v256v0v24v0h24h144q65 -2 107 -45q43 -42 45 -107q-2 -65 -45 -107q-42 -43 -107 -45h-120v0z" />
    <glyph glyph-name="p" unicode="P" horiz-adv-x="320" 
d="M48 160h120h-120h120q44 1 74 30q29 30 30 74q-1 44 -30 74q-30 29 -74 30h-120v0v-208v0zM48 112v-120v120v-120v-24v0h-48v0v24v0v144v0v256v0v24v0h24h144q65 -2 107 -45q43 -42 45 -107q-2 -65 -45 -107q-42 -43 -107 -45h-120v0z" />
    <glyph glyph-name="q" unicode="q" horiz-adv-x="448" 
d="M48 192q2 -75 52 -124v0v0q49 -50 124 -52q47 0 85 22l-114 154v0h60v0l93 -125v0q50 50 52 125q-2 75 -52 124q-49 50 -124 52q-75 -2 -124 -52q-50 -49 -52 -124v0zM338 -1q-51 -30 -114 -31q-63 1 -113 31q-51 29 -80 80q-30 50 -31 113q1 63 31 113q29 51 80 80
q50 30 113 31q63 -1 113 -31q51 -29 80 -80q30 -50 31 -113q0 -49 -19 -91t-52 -73l68 -92v0h-60v0l-47 63v0z" />
    <glyph glyph-name="q" unicode="Q" horiz-adv-x="448" 
d="M48 192q2 -75 52 -124v0v0q49 -50 124 -52q47 0 85 22l-114 154v0h60v0l93 -125v0q50 50 52 125q-2 75 -52 124q-49 50 -124 52q-75 -2 -124 -52q-50 -49 -52 -124v0zM338 -1q-51 -30 -114 -31q-63 1 -113 31q-51 29 -80 80q-30 50 -31 113q1 63 31 113q29 51 80 80
q50 30 113 31q63 -1 113 -31q51 -29 80 -80q30 -50 31 -113q0 -49 -19 -91t-52 -73l68 -92v0h-60v0l-47 63v0z" />
    <glyph glyph-name="r" unicode="r" horiz-adv-x="320" 
d="M24 416h-24h24h-24v-24v0v-224v0v-176v0v-24v0h48v0v24v0v152v0h110v0l106 -176v0h56v0l-108 179v0q47 10 77 47q30 36 31 86q-1 58 -40 96q-38 39 -96 40h-160v0zM176 192h-128h128h-128v176v0h136v0q37 -1 62 -26t26 -62q-1 -37 -26 -62t-62 -26h-8v0z" />
    <glyph glyph-name="r" unicode="R" horiz-adv-x="320" 
d="M24 416h-24h24h-24v-24v0v-224v0v-176v0v-24v0h48v0v24v0v152v0h110v0l106 -176v0h56v0l-108 179v0q47 10 77 47q30 36 31 86q-1 58 -40 96q-38 39 -96 40h-160v0zM176 192h-128h128h-128v176v0h136v0q37 -1 62 -26t26 -62q-1 -37 -26 -62t-62 -26h-8v0z" />
    <glyph glyph-name="s" unicode="s" horiz-adv-x="320" 
d="M91 357q-36 -15 -42 -48q-3 -23 3 -35q6 -13 21 -24q35 -21 94 -35q1 0 2 -1v0q27 -7 55 -16q27 -10 50 -25q24 -15 38 -43q12 -28 6 -64q-14 -61 -71 -84q-54 -21 -125 -10v0v0q-20 3 -45 11t-46 15h-1q-8 3 -13 4l-23 8v0l15 46v0l22 -8v0l8 -2q4 -2 9 -3q21 -7 43 -14
t38 -10q62 -9 100 8q36 15 42 48q3 23 -3 35q-6 13 -21 24q-35 21 -93 35q-2 0 -3 1v0q-27 7 -55 17q-27 9 -50 24q-24 15 -37 43t-7 64l24 -4v0l-24 4v0q14 61 71 84q54 21 125 10q12 -2 35 -6q22 -4 35 -8l23 -6v0l-12 -46v0l-23 6v0q-11 3 -32 7l-33 6l4 24v0l-4 -24v0
q-62 9 -100 -8v0z" />
    <glyph glyph-name="s" unicode="S" horiz-adv-x="320" 
d="M91 357q-36 -15 -42 -48q-3 -23 3 -35q6 -13 21 -24q35 -21 94 -35q1 0 2 -1v0q27 -7 55 -16q27 -10 50 -25q24 -15 38 -43q12 -28 6 -64q-14 -61 -71 -84q-54 -21 -125 -10v0v0q-20 3 -45 11t-46 15h-1q-8 3 -13 4l-23 8v0l15 46v0l22 -8v0l8 -2q4 -2 9 -3q21 -7 43 -14
t38 -10q62 -9 100 8q36 15 42 48q3 23 -3 35q-6 13 -21 24q-35 21 -93 35q-2 0 -3 1v0q-27 7 -55 17q-27 9 -50 24q-24 15 -37 43t-7 64l24 -4v0l-24 4v0q14 61 71 84q54 21 125 10q12 -2 35 -6q22 -4 35 -8l23 -6v0l-12 -46v0l-23 6v0q-11 3 -32 7l-33 6l4 24v0l-4 -24v0
q-62 9 -100 -8v0z" />
    <glyph glyph-name="t" unicode="t" horiz-adv-x="384" 
d="M24 416h-24h24h-24v-48v0h24h144v-376v0v-24v0h48v0v24v0v376v0h144h24v48v0h-24h-336z" />
    <glyph glyph-name="t" unicode="T" horiz-adv-x="384" 
d="M24 416h-24h24h-24v-48v0h24h144v-376v0v-24v0h48v0v24v0v376v0h144h24v48v0h-24h-336z" />
    <glyph glyph-name="u" unicode="u" horiz-adv-x="384" 
d="M48 416v-24v24v-24v-232v0q2 -61 42 -102q41 -40 102 -42q61 2 102 42q40 41 42 102v232v0v24v0h48v0v-24v0v-232v0q-2 -82 -56 -136t-136 -56q-82 2 -136 56t-56 136v232v0v24v0h48v0z" />
    <glyph glyph-name="u" unicode="U" horiz-adv-x="384" 
d="M48 416v-24v24v-24v-232v0q2 -61 42 -102q41 -40 102 -42q61 2 102 42q40 41 42 102v232v0v24v0h48v0v-24v0v-232v0q-2 -82 -56 -136t-136 -56q-82 2 -136 56t-56 136v232v0v24v0h48v0z" />
    <glyph glyph-name="v" unicode="v" horiz-adv-x="384" 
d="M329 416l-137 -357l137 357l-137 -357l-137 357v0h-52v0l167 -433v0l6 -15v0h33v0l5 15v0l167 433v0h-52v0z" />
    <glyph glyph-name="v" unicode="V" horiz-adv-x="384" 
d="M329 416l-137 -357l137 357l-137 -357l-137 357v0h-52v0l167 -433v0l6 -15v0h33v0l5 15v0l167 433v0h-52v0z" />
    <glyph glyph-name="w" unicode="w" horiz-adv-x="576" 
d="M145 -15l-140 431l140 -431l-140 431h51v0l111 -344v0l98 327v0l5 17v0h36v0l5 -17v0l98 -327v0l111 344v0h51v0l-140 -431v0l-6 -17v0h-35v0l-5 17v0l-97 323v0l-97 -323v0l-5 -17v0h-35v0l-6 17v0z" />
    <glyph glyph-name="w" unicode="W" horiz-adv-x="576" 
d="M145 -15l-140 431l140 -431l-140 431h51v0l111 -344v0l98 327v0l5 17v0h36v0l5 -17v0l98 -327v0l111 344v0h51v0l-140 -431v0l-6 -17v0h-35v0l-5 17v0l-97 323v0l-97 -323v0l-5 -17v0h-35v0l-6 17v0z" />
    <glyph glyph-name="x" unicode="x" horiz-adv-x="384" 
d="M3 416l160 -224l-160 224l160 -224l-160 -224v0h59v0l130 183v0l130 -183v0h59v0l-159 224v0l159 224v0h-59v0l-130 -183v0l-130 183v0h-59v0z" />
    <glyph glyph-name="x" unicode="X" horiz-adv-x="384" 
d="M3 416l160 -224l-160 224l160 -224l-160 -224v0h59v0l130 183v0l130 -183v0h59v0l-159 224v0l159 224v0h-59v0l-130 -183v0l-130 183v0h-59v0z" />
    <glyph glyph-name="y" unicode="y" horiz-adv-x="384" 
d="M1 416l167 -263l-167 263l167 -263v-161v0v-24v0h48v0v24v0v161v0l167 263v0h-57v0l-134 -211v0l-134 211v0h-57v0z" />
    <glyph glyph-name="y" unicode="Y" horiz-adv-x="384" 
d="M1 416l167 -263l-167 263l167 -263v-161v0v-24v0h48v0v24v0v161v0l167 263v0h-57v0l-134 -211v0l-134 211v0h-57v0z" />
    <glyph glyph-name="z" unicode="z" horiz-adv-x="384" 
d="M384 416h-24h24h-384v-48v0h24h285l-303 -361v0l-6 -6v0v-33v0h24h360v48v0h-24h-284l302 361v0l6 6v0v33v0z" />
    <glyph glyph-name="z" unicode="Z" horiz-adv-x="384" 
d="M384 416h-24h24h-384v-48v0h24h285l-303 -361v0l-6 -6v0v-33v0h24h360v48v0h-24h-284l302 361v0l6 6v0v33v0z" />
    <glyph glyph-name="bracketleft" unicode="[" horiz-adv-x="192" 
d="M0 416h24h-24h144v-48v0h-24h-72v-352v0h72h24v-48v0h-24h-120v24v0v400v0v24v0z" />
    <glyph glyph-name="backslash" unicode="\" horiz-adv-x="320" 
d="M9 448h53h-53h53l249 -512v0h-53v0l-249 512v0z" />
    <glyph glyph-name="bracketright" unicode="]" horiz-adv-x="192" 
d="M192 416h-24h24h-144v-48v0h24h72v-352v0h-72h-24v-48v0h24h120v24v0v400v0v24v0z" />
    <glyph glyph-name="grave" unicode="`" horiz-adv-x="192" 
d="M80 373l45 -77l-45 77l45 -77l-15 104v0h-30v0v-27v0zM152 448l25 -176l-25 176l25 -176l7 -48v0h-48h-24l-80 136v0v40v0v48v0h48h72z" />
    <glyph glyph-name="braceleft" unicode="{" horiz-adv-x="256" 
d="M88 416h-24h24h-24v-24v0v-126v0l-57 -57v0l-7 -7v0v-20v0l7 -7v0l57 -57v0v-126v0v-24v0h24h136v48v0h-24h-88v112v0v10v0l-7 7v0l-47 47v0l47 47v0l7 7v0v10v0v112v0h88h24v48v0h-24h-112z" />
    <glyph glyph-name="bar" unicode="|" horiz-adv-x="64" 
d="M56 448v-24v24v-24v-464v0v-24v0h-48v0v24v0v464v0v24v0h48v0z" />
    <glyph glyph-name="braceright" unicode="}" horiz-adv-x="256" 
d="M168 416h24h-24h24v-24v0v-126v0l57 -57v0l7 -7v0v-20v0l-7 -7v0l-57 -57v0v-126v0v-24v0h-24h-136v48v0h24h88v112v0v10v0l7 7v0l47 47v0l-47 47v0l-7 7v0v10v0v112v0h-88h-24v48v0h24h112z" />
    <glyph glyph-name="uniF69F" unicode="&#xf69f;" horiz-adv-x="448" 
d="M0 320h24h-24h147l7 -9v0l169 -199v0h77v0v144v0v24v0h48v0v-24v0v-168v0v-24v0h-24h-123l-7 8v0l-169 200v0h-77v0v-144v0v-24v0h-48v0v24v0v168v0v24v0z" />
    <glyph glyph-name="uniF69F" unicode="~" horiz-adv-x="448" 
d="M0 320h24h-24h147l7 -9v0l169 -199v0h77v0v144v0v24v0h48v0v-24v0v-168v0v-24v0h-24h-123l-7 8v0l-169 200v0h-77v0v-144v0v-24v0h-48v0v24v0v168v0v24v0z" />
    <glyph glyph-name="uniF154" unicode="&#xf154;" horiz-adv-x="320" 
d="M96 290q1 33 23 55v0v0q22 22 55 23q14 0 27 -5l71 -26v0l22 -8v0l17 45v0l-23 8v0l-71 26v0q-21 8 -43 8q-54 -1 -89 -37q-36 -35 -37 -89v-66v0h-48v0v-48v0h48v0v-51v0l-46 -116v0l-2 -4v0v-5v0v-8v0v-24v0h24h296v48v0h-24h-240l38 95v0l2 4v0v5v0v56v0h160v0v48v0
h-160v0v66v0z" />
    <glyph glyph-name="uniF154" unicode="&#xa3;" horiz-adv-x="320" 
d="M96 290q1 33 23 55v0v0q22 22 55 23q14 0 27 -5l71 -26v0l22 -8v0l17 45v0l-23 8v0l-71 26v0q-21 8 -43 8q-54 -1 -89 -37q-36 -35 -37 -89v-66v0h-48v0v-48v0h48v0v-51v0l-46 -116v0l-2 -4v0v-5v0v-8v0v-24v0h24h296v48v0h-24h-240l38 95v0l2 4v0v5v0v56v0h160v0v48v0
h-160v0v66v0z" />
    <glyph glyph-name="uniF157" unicode="&#xf157;" horiz-adv-x="320" 
d="M2 416l112 -192l-112 192l112 -192h-74h-24v-48v0h24h96v-48v0h-96h-24v-48v0h24h96v-88v0v-24v0h48v0v24v0v88v0h96h24v48v0h-24h-96v48v0h96h24v48v0h-24h-74l112 192v0h-56v0l-102 -176v0l-102 176v0h-56v0z" />
    <glyph glyph-name="uniF157" unicode="&#xa5;" horiz-adv-x="320" 
d="M2 416l112 -192l-112 192l112 -192h-74h-24v-48v0h24h96v-48v0h-96h-24v-48v0h24h96v-88v0v-24v0h48v0v24v0v88v0h96h24v48v0h-24h-96v48v0h96h24v48v0h-24h-74l112 192v0h-56v0l-102 -176v0l-102 176v0h-56v0z" />
    <glyph glyph-name="uniF1F9" unicode="&#xf1f9;" 
d="M256 400q57 0 104 -28v0v0q47 -27 76 -76q28 -49 28 -104t-28 -104q-29 -49 -76 -76q-47 -28 -104 -28t-104 28q-47 27 -76 76q-28 49 -28 104t28 104q29 49 76 76q47 28 104 28v0zM256 -64q70 1 128 34v0v0q58 34 94 94q34 61 34 128t-34 128q-36 60 -94 94
q-58 33 -128 34q-70 -1 -128 -34q-58 -34 -94 -94q-34 -61 -34 -128t34 -128q36 -60 94 -94q58 -33 128 -34v0zM176 192q1 34 23 57v0v0q23 22 57 23q45 -2 68 -38l41 26v0q-18 27 -46 43q-28 17 -63 17q-54 -1 -91 -37q-36 -37 -37 -91q1 -54 37 -91q37 -36 91 -37
q35 0 63 17q28 16 46 43l-41 26v0q-23 -36 -68 -38q-34 1 -57 23q-22 23 -23 57v0z" />
    <glyph glyph-name="uniF1F9" unicode="&#xa9;" 
d="M256 400q57 0 104 -28v0v0q47 -27 76 -76q28 -49 28 -104t-28 -104q-29 -49 -76 -76q-47 -28 -104 -28t-104 28q-47 27 -76 76q-28 49 -28 104t28 104q29 49 76 76q47 28 104 28v0zM256 -64q70 1 128 34v0v0q58 34 94 94q34 61 34 128t-34 128q-36 60 -94 94
q-58 33 -128 34q-70 -1 -128 -34q-58 -34 -94 -94q-34 -61 -34 -128t34 -128q36 -60 94 -94q58 -33 128 -34v0zM176 192q1 34 23 57v0v0q23 22 57 23q45 -2 68 -38l41 26v0q-18 27 -46 43q-28 17 -63 17q-54 -1 -91 -37q-36 -37 -37 -91q1 -54 37 -91q37 -36 91 -37
q35 0 63 17q28 16 46 43l-41 26v0q-23 -36 -68 -38q-34 1 -57 23q-22 23 -23 57v0z" />
    <glyph glyph-name="uniF100" unicode="&#xf100;" 
d="M47 209l-17 -17l17 17l-17 -17l17 -17v0l160 -160v0l17 -17v0l34 34v0l-17 17v0l-143 143v0l143 143v0l17 17v0l-34 34v0l-17 -17v0l-160 -160v0zM239 209l-17 -17l17 17l-17 -17l17 -17v0l160 -160v0l17 -17v0l34 34v0l-17 17v0l-143 143v0l143 143v0l17 17v0l-34 34v0
l-17 -17v0l-160 -160v0z" />
    <glyph glyph-name="uniF100" unicode="&#xab;" 
d="M47 209l-17 -17l17 17l-17 -17l17 -17v0l160 -160v0l17 -17v0l34 34v0l-17 17v0l-143 143v0l143 143v0l17 17v0l-34 34v0l-17 -17v0l-160 -160v0zM239 209l-17 -17l17 17l-17 -17l17 -17v0l160 -160v0l17 -17v0l34 34v0l-17 17v0l-143 143v0l143 143v0l17 17v0l-34 34v0
l-17 -17v0l-160 -160v0z" />
    <glyph glyph-name="uniF25D" unicode="&#xf25d;" 
d="M256 400q57 0 104 -28v0v0q47 -27 76 -76q28 -49 28 -104t-28 -104q-29 -49 -76 -76q-47 -28 -104 -28t-104 28q-47 27 -76 76q-28 49 -28 104t28 104q29 49 76 76q47 28 104 28v0zM256 -64q70 1 128 34v0v0q58 34 94 94q34 61 34 128t-34 128q-36 60 -94 94
q-58 33 -128 34q-70 -1 -128 -34q-58 -34 -94 -94q-34 -61 -34 -128t34 -128q36 -60 94 -94q58 -33 128 -34v0zM160 320v-24v24v-24v-112v0v-96v0v-24v0h48v0v24v0v72v0h43v0l61 -96v0h57v0l-63 98v0q28 7 45 28t17 50q-1 34 -23 57q-23 22 -57 23h-104h-24zM208 208v64v-64
v64h80v0q14 0 23 -9t9 -23t-9 -23t-23 -9h-24h-56z" />
    <glyph glyph-name="uniF25D" unicode="&#xae;" 
d="M256 400q57 0 104 -28v0v0q47 -27 76 -76q28 -49 28 -104t-28 -104q-29 -49 -76 -76q-47 -28 -104 -28t-104 28q-47 27 -76 76q-28 49 -28 104t28 104q29 49 76 76q47 28 104 28v0zM256 -64q70 1 128 34v0v0q58 34 94 94q34 61 34 128t-34 128q-36 60 -94 94
q-58 33 -128 34q-70 -1 -128 -34q-58 -34 -94 -94q-34 -61 -34 -128t34 -128q36 -60 94 -94q58 -33 128 -34v0zM160 320v-24v24v-24v-112v0v-96v0v-24v0h48v0v24v0v72v0h43v0l61 -96v0h57v0l-63 98v0q28 7 45 28t17 50q-1 34 -23 57q-23 22 -57 23h-104h-24zM208 208v64v-64
v64h80v0q14 0 23 -9t9 -23t-9 -23t-23 -9h-24h-56z" />
    <glyph glyph-name="uniF1DD" unicode="&#xf1dd;" horiz-adv-x="448" 
d="M32 256q2 68 47 113v0v0q45 45 113 47h64h192v-48v0h-24h-40v-376v0v-24v0h-48v0v24v0v376v0h-48v0v-376v0v-24v0h-48v0v24v0v104v0h-48v0q-68 2 -113 47t-47 113v0zM240 144v224v-224v224h-48v0q-48 -1 -79 -33q-32 -31 -33 -79q1 -48 33 -79q31 -32 79 -33h48v0z" />
    <glyph glyph-name="uniF1DD" unicode="&#xb6;" horiz-adv-x="448" 
d="M32 256q2 68 47 113v0v0q45 45 113 47h64h192v-48v0h-24h-40v-376v0v-24v0h-48v0v24v0v376v0h-48v0v-376v0v-24v0h-48v0v24v0v104v0h-48v0q-68 2 -113 47t-47 113v0zM240 144v224v-224v224h-48v0q-48 -1 -79 -33q-32 -31 -33 -79q1 -48 33 -79q31 -32 79 -33h48v0z" />
    <glyph glyph-name="uniF101" unicode="&#xf101;" 
d="M273 175l17 17l-17 -17l17 17l-17 17v0l-160 160v0l-17 17v0l-34 -34v0l17 -17v0l143 -143v0l-143 -143v0l-17 -17v0l34 -34v0l17 17v0l160 160v0zM465 175l17 17l-17 -17l17 17l-17 17v0l-160 160v0l-17 17v0l-34 -34v0l17 -17v0l143 -143v0l-143 -143v0l-17 -17v0
l34 -34v0l17 17v0l160 160v0z" />
    <glyph glyph-name="uniF101" unicode="&#xbb;" 
d="M273 175l17 17l-17 -17l17 17l-17 17v0l-160 160v0l-17 17v0l-34 -34v0l17 -17v0l143 -143v0l-143 -143v0l-17 -17v0l34 -34v0l17 17v0l160 160v0zM465 175l17 17l-17 -17l17 17l-17 17v0l-160 160v0l-17 17v0l-34 -34v0l17 -17v0l143 -143v0l-143 -143v0l-17 -17v0
l34 -34v0l17 17v0l160 160v0z" />
    <glyph glyph-name="u1F5D9" unicode="&#x1f5d9;" horiz-adv-x="384" 
d="M345 311l17 17l-17 -17l17 17l-34 34v0l-17 -17v0l-119 -119v0l-119 119v0l-17 17v0l-34 -34v0l17 -17v0l119 -119v0l-119 -119v0l-17 -17v0l34 -34v0l17 17v0l119 119v0l119 -119v0l17 -17v0l34 34v0l-17 17v0l-119 119v0l119 119v0z" />
    <glyph glyph-name="u1F5D9" unicode="&#xf00d;" horiz-adv-x="384" 
d="M345 311l17 17l-17 -17l17 17l-34 34v0l-17 -17v0l-119 -119v0l-119 119v0l-17 17v0l-34 -34v0l17 -17v0l119 -119v0l-119 -119v0l-17 -17v0l34 -34v0l17 17v0l119 119v0l119 -119v0l17 -17v0l34 34v0l-17 17v0l-119 119v0l119 119v0z" />
    <glyph glyph-name="u1F5D9" unicode="&#x274c;" horiz-adv-x="384" 
d="M345 311l17 17l-17 -17l17 17l-34 34v0l-17 -17v0l-119 -119v0l-119 119v0l-17 17v0l-34 -34v0l17 -17v0l119 -119v0l-119 -119v0l-17 -17v0l34 -34v0l17 17v0l119 119v0l119 -119v0l17 -17v0l34 34v0l-17 17v0l-119 119v0l119 119v0z" />
    <glyph glyph-name="u1F5D9" unicode="&#x2716;" horiz-adv-x="384" 
d="M345 311l17 17l-17 -17l17 17l-34 34v0l-17 -17v0l-119 -119v0l-119 119v0l-17 17v0l-34 -34v0l17 -17v0l119 -119v0l-119 -119v0l-17 -17v0l34 -34v0l17 17v0l119 119v0l119 -119v0l17 -17v0l34 34v0l-17 17v0l-119 119v0l119 119v0z" />
    <glyph glyph-name="u1F5D9" unicode="&#x2715;" horiz-adv-x="384" 
d="M345 311l17 17l-17 -17l17 17l-34 34v0l-17 -17v0l-119 -119v0l-119 119v0l-17 17v0l-34 -34v0l17 -17v0l119 -119v0l-119 -119v0l-17 -17v0l34 -34v0l17 17v0l119 119v0l119 -119v0l17 -17v0l34 34v0l-17 17v0l-119 119v0l119 119v0z" />
    <glyph glyph-name="u1F5D9" unicode="&#xd7;" horiz-adv-x="384" 
d="M345 311l17 17l-17 -17l17 17l-34 34v0l-17 -17v0l-119 -119v0l-119 119v0l-17 17v0l-34 -34v0l17 -17v0l119 -119v0l-119 -119v0l-17 -17v0l34 -34v0l17 17v0l119 119v0l119 -119v0l17 -17v0l34 34v0l-17 17v0l-119 119v0l119 119v0z" />
    <glyph glyph-name="uniF656" unicode="&#xf656;" 
d="M431 332l74 75l-74 -75l74 75l-34 34v0l-74 -75v0q-60 48 -141 50q-63 -1 -113 -31q-51 -29 -80 -80q-30 -50 -31 -113q2 -81 50 -141l-75 -74v0l34 -34v0l75 74v0q59 -48 140 -49q63 1 113 31q51 29 80 80q30 50 31 113q-2 81 -49 140v0zM362 332l-246 -246l246 246
l-246 -246q-35 45 -36 106q2 75 52 124q49 50 124 52q61 -1 106 -36v0zM150 52l246 246l-246 -246l246 246q35 -45 36 -106q-2 -75 -52 -124q-49 -50 -124 -52q-61 1 -106 36v0z" />
    <glyph glyph-name="uniF656" unicode="&#x2205;" 
d="M431 332l74 75l-74 -75l74 75l-34 34v0l-74 -75v0q-60 48 -141 50q-63 -1 -113 -31q-51 -29 -80 -80q-30 -50 -31 -113q2 -81 50 -141l-75 -74v0l34 -34v0l75 74v0q59 -48 140 -49q63 1 113 31q51 29 80 80q30 50 31 113q-2 81 -49 140v0zM362 332l-246 -246l246 246
l-246 -246q-35 45 -36 106q2 75 52 124q49 50 124 52q61 -1 106 -36v0zM150 52l246 246l-246 -246l246 246q35 -45 36 -106q-2 -75 -52 -124q-49 -50 -124 -52q-61 1 -106 36v0z" />
    <glyph glyph-name="uniF656" unicode="&#xd8;" 
d="M431 332l74 75l-74 -75l74 75l-34 34v0l-74 -75v0q-60 48 -141 50q-63 -1 -113 -31q-51 -29 -80 -80q-30 -50 -31 -113q2 -81 50 -141l-75 -74v0l34 -34v0l75 74v0q59 -48 140 -49q63 1 113 31q51 29 80 80q30 50 31 113q-2 81 -49 140v0zM362 332l-246 -246l246 246
l-246 -246q-35 45 -36 106q2 75 52 124q49 50 124 52q61 -1 106 -36v0zM150 52l246 246l-246 -246l246 246q35 -45 36 -106q-2 -75 -52 -124q-49 -50 -124 -52q-61 1 -106 36v0z" />
    <glyph glyph-name="uniF529" unicode="&#xf529;" horiz-adv-x="448" 
d="M256 384v-64v64v-64h-64v0v64v0h64v0zM432 168h-24h24h-416v48v0h24h392v-48v0zM192 64h64h-64h64v-64v0h-64v0v64v0z" />
    <glyph glyph-name="uniF529" unicode="&#x2797;" horiz-adv-x="448" 
d="M256 384v-64v64v-64h-64v0v64v0h64v0zM432 168h-24h24h-416v48v0h24h392v-48v0zM192 64h64h-64h64v-64v0h-64v0v64v0z" />
    <glyph glyph-name="uniF529" unicode="&#xf7;" horiz-adv-x="448" 
d="M256 384v-64v64v-64h-64v0v64v0h64v0zM432 168h-24h24h-416v48v0h24h392v-48v0zM192 64h64h-64h64v-64v0h-64v0v64v0z" />
    <glyph glyph-name="uniF068" unicode="&#xf068;" horiz-adv-x="448" 
d="M432 168h-24h24h-416v48v0h24h392v-48v0z" />
    <glyph glyph-name="uniF068" unicode="&#x2796;" horiz-adv-x="448" 
d="M432 168h-24h24h-416v48v0h24h392v-48v0z" />
    <glyph glyph-name="uniF068" unicode="&#x2212;" horiz-adv-x="448" 
d="M432 168h-24h24h-416v48v0h24h392v-48v0z" />
    <glyph glyph-name="uniF068" unicode="&#x2013;" horiz-adv-x="448" 
d="M432 168h-24h24h-416v48v0h24h392v-48v0z" />
    <glyph glyph-name="uniF86C" unicode="&#xf86c;" horiz-adv-x="640" 
d="M0 216h24h-24h640v-48v0h-24h-616v48v0z" />
    <glyph glyph-name="uniF86C" unicode="&#x2015;" horiz-adv-x="640" 
d="M0 216h24h-24h640v-48v0h-24h-616v48v0z" />
    <glyph glyph-name="uniF10D" unicode="&#xf10d;" horiz-adv-x="448" 
d="M0 232q1 51 35 85v0v0q34 34 85 35h16h24v-48v0h-24h-16q-31 -1 -51 -21t-21 -51v-8v0h96h48v-48v0v-96v0v-48v0h-48h-144v48v0v48v0v48v0v48v0v8v0zM48 176v-48v48v-48v-48v0h96v0v96v0h-96v0zM400 176h-96h96h-96v-48v0v-48v0h96v0v96v0zM256 128v48v-48v48v48v0v8v0
q1 51 35 85t85 35h16h24v-48v0h-24h-16q-31 -1 -51 -21t-21 -51v-8v0h96h48v-48v0v-96v0v-48v0h-48h-144v48v0v48v0z" />
    <glyph glyph-name="uniF10D" unicode="&#x201c;" horiz-adv-x="448" 
d="M0 232q1 51 35 85v0v0q34 34 85 35h16h24v-48v0h-24h-16q-31 -1 -51 -21t-21 -51v-8v0h96h48v-48v0v-96v0v-48v0h-48h-144v48v0v48v0v48v0v48v0v8v0zM48 176v-48v48v-48v-48v0h96v0v96v0h-96v0zM400 176h-96h96h-96v-48v0v-48v0h96v0v96v0zM256 128v48v-48v48v48v0v8v0
q1 51 35 85t85 35h16h24v-48v0h-24h-16q-31 -1 -51 -21t-21 -51v-8v0h96h48v-48v0v-96v0v-48v0h-48h-144v48v0v48v0z" />
    <glyph glyph-name="uniF10E" unicode="&#xf10e;" horiz-adv-x="448" 
d="M448 152q-1 -51 -35 -85v0v0q-34 -34 -85 -35h-16h-24v48v0h24h16q31 1 51 21t21 51v8v0h-96h-48v48v0v96v0v48v0h48h144v-48v0v-48v0v-48v0v-48v0v-8v0zM400 208v48v-48v48v48v0h-96v0v-96v0h96v0zM48 208h96h-96h96v48v0v48v0h-96v0v-96v0zM192 256v-48v48v-48v-48v0
v-8v0q-1 -51 -35 -85t-85 -35h-16h-24v48v0h24h16q31 1 51 21t21 51v8v0h-96h-48v48v0v96v0v48v0h48h144v-48v0v-48v0z" />
    <glyph glyph-name="uniF10E" unicode="&#x201d;" horiz-adv-x="448" 
d="M448 152q-1 -51 -35 -85v0v0q-34 -34 -85 -35h-16h-24v48v0h24h16q31 1 51 21t21 51v8v0h-96h-48v48v0v96v0v48v0h48h144v-48v0v-48v0v-48v0v-48v0v-8v0zM400 208v48v-48v48v48v0h-96v0v-96v0h96v0zM48 208h96h-96h96v48v0v48v0h-96v0v-96v0zM192 256v-48v48v-48v-48v0
v-8v0q-1 -51 -35 -85t-85 -35h-16h-24v48v0h24h16q31 1 51 21t21 51v8v0h-96h-48v48v0v96v0v48v0h48h144v-48v0v-48v0z" />
    <glyph glyph-name="uniF104" unicode="&#xf104;" horiz-adv-x="320" 
d="M30 192l17 17l-17 -17l17 17l160 160v0l17 17v0l34 -34v0l-17 -17v0l-143 -143v0l143 -143v0l17 -17v0l-34 -34v0l-17 17v0l-160 160v0l-17 17v0z" />
    <glyph glyph-name="uniF104" unicode="&#x2039;" horiz-adv-x="320" 
d="M30 192l17 17l-17 -17l17 17l160 160v0l17 17v0l34 -34v0l-17 -17v0l-143 -143v0l143 -143v0l17 -17v0l-34 -34v0l-17 17v0l-160 160v0l-17 17v0z" />
    <glyph glyph-name="uniF105" unicode="&#xf105;" horiz-adv-x="320" 
d="M290 192l-17 -17l17 17l-17 -17l-160 -160v0l-17 -17v0l-34 34v0l17 17v0l143 143v0l-143 143v0l-17 17v0l34 34v0l17 -17v0l160 -160v0l17 -17v0z" />
    <glyph glyph-name="uniF105" unicode="&#x203a;" horiz-adv-x="320" 
d="M290 192l-17 -17l17 17l-17 -17l-160 -160v0l-17 -17v0l-34 34v0l17 17v0l143 143v0l-143 143v0l-17 17v0l34 34v0l17 -17v0l160 -160v0l17 -17v0z" />
    <glyph glyph-name="uniE5BA" unicode="&#xe5ba;" horiz-adv-x="320" 
d="M64 288q1 34 23 57v0v0q23 22 57 23h32v0q34 -1 57 -23q22 -23 23 -57v-7v0q-1 -36 -29 -59l-43 -31v0v89v0v24v0h-48v0v-24v0v-124v0v-12v0v-24v0v-16v0v-8v0v-16v0h48v0v16v0v8v0v16v0v12v0l71 52v0q48 36 49 97v7v0q-1 54 -37 91q-37 36 -91 37h-32v0q-54 -1 -91 -37
q-36 -37 -37 -91v-16v0h48v0v16v0zM128 32v-64v64v-64h64v0v64v0h-64v0z" />
    <glyph glyph-name="uniE5BA" unicode="&#x203d;" horiz-adv-x="320" 
d="M64 288q1 34 23 57v0v0q23 22 57 23h32v0q34 -1 57 -23q22 -23 23 -57v-7v0q-1 -36 -29 -59l-43 -31v0v89v0v24v0h-48v0v-24v0v-124v0v-12v0v-24v0v-16v0v-8v0v-16v0h48v0v16v0v8v0v16v0v12v0l71 52v0q48 36 49 97v7v0q-1 54 -37 91q-37 36 -91 37h-32v0q-54 -1 -91 -37
q-36 -37 -37 -91v-16v0h48v0v16v0zM128 32v-64v64v-64h64v0v64v0h-64v0z" />
    <glyph glyph-name="uniF195" unicode="&#xf195;" horiz-adv-x="320" 
d="M96 290q1 33 23 55v0v0q22 22 55 23q14 0 27 -5l71 -26v0l22 -8v0l17 45v0l-23 8v0l-71 26v0q-21 8 -43 8q-54 -1 -89 -37q-36 -35 -37 -89v-34v0h-48v0v-48v0h48v0v-48v0h-48v0v-48v0h43v0l-41 -103v0l-2 -4v0v-5v0v-8v0v-24v0h24h296v48v0h-24h-240l38 95v0l1 1v0h161
v0v48v0h-160v0v48v0h160v0v48v0h-160v0v34v0z" />
    <glyph glyph-name="uniF195" unicode="&#x20a4;" horiz-adv-x="320" 
d="M96 290q1 33 23 55v0v0q22 22 55 23q14 0 27 -5l71 -26v0l22 -8v0l17 45v0l-23 8v0l-71 26v0q-21 8 -43 8q-54 -1 -89 -37q-36 -35 -37 -89v-34v0h-48v0v-48v0h48v0v-48v0h-48v0v-48v0h43v0l-41 -103v0l-2 -4v0v-5v0v-8v0v-24v0h24h296v48v0h-24h-240l38 95v0l1 1v0h161
v0v48v0h-160v0v48v0h160v0v48v0h-160v0v34v0z" />
    <glyph glyph-name="uniF156" unicode="&#xf156;" horiz-adv-x="448" 
d="M0 416h24h-24h120q58 -1 96 -40q39 -38 40 -96q-1 -48 -28 -83t-71 -48l58 -181v0h-51v0l-56 176v0h-60v0v-176v0h-48v0v200v0v224v0v24v0zM48 192h72h-72h72q37 1 62 26t26 62q-1 37 -26 62t-62 26h-72v0v-176v0zM313 182q-2 -12 1 -16q1 -5 7 -10q14 -10 43 -19l1 -1v0
v0q29 -8 57 -28q14 -11 21 -30q7 -20 4 -42q-7 -41 -41 -58q-33 -15 -72 -8v0v0v0v0q-15 4 -30 10l-16 6q-1 0 -2 1q-2 1 -4 1q-2 1 -3 2l-22 8v0l17 45v0l22 -9v0q4 -1 9 -3q7 -3 16 -6q15 -6 22 -7q27 -5 41 3q12 6 15 22q2 12 -1 18q-2 5 -8 10q-13 11 -42 20l-3 1v0
q-28 8 -54 27q-14 10 -22 29q-7 18 -4 40q7 40 40 56q33 17 73 10q6 -2 17 -4q12 -3 19 -5l23 -7v0l-14 -46v0l-23 7v0q-5 2 -16 4l-15 3q-27 5 -41 -4t-16 -21z" />
    <glyph glyph-name="uniF156" unicode="&#x20a8;" horiz-adv-x="448" 
d="M0 416h24h-24h120q58 -1 96 -40q39 -38 40 -96q-1 -48 -28 -83t-71 -48l58 -181v0h-51v0l-56 176v0h-60v0v-176v0h-48v0v200v0v224v0v24v0zM48 192h72h-72h72q37 1 62 26t26 62q-1 37 -26 62t-62 26h-72v0v-176v0zM313 182q-2 -12 1 -16q1 -5 7 -10q14 -10 43 -19l1 -1v0
v0q29 -8 57 -28q14 -11 21 -30q7 -20 4 -42q-7 -41 -41 -58q-33 -15 -72 -8v0v0v0v0q-15 4 -30 10l-16 6q-1 0 -2 1q-2 1 -4 1q-2 1 -3 2l-22 8v0l17 45v0l22 -9v0q4 -1 9 -3q7 -3 16 -6q15 -6 22 -7q27 -5 41 3q12 6 15 22q2 12 -1 18q-2 5 -8 10q-13 11 -42 20l-3 1v0
q-28 8 -54 27q-14 10 -22 29q-7 18 -4 40q7 40 40 56q33 17 73 10q6 -2 17 -4q12 -3 19 -5l23 -7v0l-14 -46v0l-23 7v0q-5 2 -16 4l-15 3q-27 5 -41 -4t-16 -21z" />
    <glyph glyph-name="uniF159" unicode="&#xf159;" 
d="M68 208l-56 208l56 -208l-56 208h49v0l57 -208v0h67v0l44 189v0l4 19v0h19h27l4 -19v0l44 -189v0h67v0l57 208v0h50v0l-57 -208v0h44h24v-48v0h-24h-57l-48 -174v0l-5 -18v0h-18h-27l-4 19v0l-40 173v0h-66v0l-40 -173v0l-4 -19v0h-19h-26l-5 18v0l-48 174v0h-57h-24v48
v0h24h44zM131 160l23 -85l-23 85l23 -85l20 85v0h-43v0zM234 208h44h-44h44l-22 94v0l-22 -94v0zM338 160l20 -85l-20 85l20 -85l23 85v0h-43v0z" />
    <glyph glyph-name="uniF159" unicode="&#x20a9;" 
d="M68 208l-56 208l56 -208l-56 208h49v0l57 -208v0h67v0l44 189v0l4 19v0h19h27l4 -19v0l44 -189v0h67v0l57 208v0h50v0l-57 -208v0h44h24v-48v0h-24h-57l-48 -174v0l-5 -18v0h-18h-27l-4 19v0l-40 173v0h-66v0l-40 -173v0l-4 -19v0h-19h-26l-5 18v0l-48 174v0h-57h-24v48
v0h24h44zM131 160l23 -85l-23 85l23 -85l20 85v0h-43v0zM234 208h44h-44h44l-22 94v0l-22 -94v0zM338 160l20 -85l-20 85l20 -85l23 85v0h-43v0z" />
    <glyph glyph-name="uniF20B" unicode="&#xf20b;" horiz-adv-x="448" 
d="M40 416h-24h24h-24v-24v0v-400v0v-24v0h48v0v24v0v376v0h120v0q31 -1 51 -21t21 -51v-184v0v-24v0h48v0v24v0v184v0q-1 51 -35 85t-85 35h-144v0zM312 -32q51 1 85 35v0v0q34 34 35 85v304v0v24v0h-48v0v-24v0v-304v0q-1 -31 -21 -51t-51 -21h-120v0v248v0v24v0h-48v0
v-24v0v-272v0v-24v0h24h144z" />
    <glyph glyph-name="uniF20B" unicode="&#x20aa;" horiz-adv-x="448" 
d="M40 416h-24h24h-24v-24v0v-400v0v-24v0h48v0v24v0v376v0h120v0q31 -1 51 -21t21 -51v-184v0v-24v0h48v0v24v0v184v0q-1 51 -35 85t-85 35h-144v0zM312 -32q51 1 85 35v0v0q34 34 35 85v304v0v24v0h-48v0v-24v0v-304v0q-1 -31 -21 -51t-51 -21h-120v0v248v0v24v0h-48v0
v-24v0v-272v0v-24v0h24h144z" />
    <glyph glyph-name="uniF153" unicode="&#xf153;" horiz-adv-x="320" 
d="M49 208q-1 -8 -1 -16t1 -16h-49v0v-48v0h57v0q22 -71 80 -115t135 -45h24h24v48v0h-24h-24q-57 1 -100 31q-44 31 -64 81h180v0v48v0h-191v0q-1 8 -1 16t1 16h191v0v48v0h-180v0q20 50 64 81q43 30 100 31h24h24v48v0h-24h-24q-77 -1 -135 -45t-80 -115h-57v0v-48v0h49v0
z" />
    <glyph glyph-name="uniF153" unicode="&#x20ac;" horiz-adv-x="320" 
d="M49 208q-1 -8 -1 -16t1 -16h-49v0v-48v0h57v0q22 -71 80 -115t135 -45h24h24v48v0h-24h-24q-57 1 -100 31q-44 31 -64 81h180v0v48v0h-191v0q-1 8 -1 16t1 16h191v0v48v0h-180v0q20 50 64 81q43 30 100 31h24h24v48v0h-24h-24q-77 -1 -135 -45t-80 -115h-57v0v-48v0h49v0
z" />
    <glyph glyph-name="uniF6F2" unicode="&#xf6f2;" horiz-adv-x="384" 
d="M106 343q31 25 70 25h51v0q26 -1 43 -18t18 -43q-1 -33 -27 -51h-261v0v-48v0h171v0l-65 -35v0q-11 -5 -20 -13h-86v0v-48v0h54v0q-6 -17 -6 -35q1 -46 32 -77t77 -32h51v0q56 1 100 35l3 2v0l19 15v0l-30 38v0l-19 -15v0l-3 -2v0q-31 -25 -70 -25h-51v0q-26 1 -43 18
t-18 43q0 20 11 35h277v0v48v0h-201v0l90 48v0h111v0v48v0h-61v0q13 23 13 51q-1 46 -32 77t-77 32h-51v0q-56 -1 -100 -35l-3 -2v0l-19 -15v0l30 -38v0l19 15v0l3 2v0z" />
    <glyph glyph-name="uniF6F2" unicode="&#x20b4;" horiz-adv-x="384" 
d="M106 343q31 25 70 25h51v0q26 -1 43 -18t18 -43q-1 -33 -27 -51h-261v0v-48v0h171v0l-65 -35v0q-11 -5 -20 -13h-86v0v-48v0h54v0q-6 -17 -6 -35q1 -46 32 -77t77 -32h51v0q56 1 100 35l3 2v0l19 15v0l-30 38v0l-19 -15v0l-3 -2v0q-31 -25 -70 -25h-51v0q-26 1 -43 18
t-18 43q0 20 11 35h277v0v48v0h-201v0l90 48v0h111v0v48v0h-61v0q13 23 13 51q-1 46 -32 77t-77 32h-51v0q-56 -1 -100 -35l-3 -2v0l-19 -15v0l30 -38v0l19 15v0l3 2v0z" />
    <glyph glyph-name="uniF7D7" unicode="&#xf7d7;" horiz-adv-x="384" 
d="M0 416h384h-384h384v-48v0h-384v0v48v0zM216 288h168h-168h168v-48v0h-168v0v-272v0h-48v0v272v0h-168v0v48v0h168h48z" />
    <glyph glyph-name="uniF7D7" unicode="&#x20b8;" horiz-adv-x="384" 
d="M0 416h384h-384h384v-48v0h-384v0v48v0zM216 288h168h-168h168v-48v0h-168v0v-272v0h-48v0v272v0h-168v0v48v0h168h48z" />
    <glyph glyph-name="uniF158" unicode="&#xf158;" horiz-adv-x="384" 
d="M88 416h-24h24h-24v-24v0v-216v0h-64v0v-48v0h64v0v-48v0h-64v0v-48v0h64v0v-40v0v-24v0h48v0v24v0v40v0h208v0v48v0h-208v0v48v0h128v0q61 2 102 42q40 41 42 102q-2 61 -42 102q-41 40 -102 42h-152v0zM240 176h-128h128h-128v192v0h128v0q41 -1 68 -28t28 -68
q-1 -41 -28 -68t-68 -28v0z" />
    <glyph glyph-name="uniF158" unicode="&#x20bd;" horiz-adv-x="384" 
d="M88 416h-24h24h-24v-24v0v-216v0h-64v0v-48v0h64v0v-48v0h-64v0v-48v0h64v0v-40v0v-24v0h48v0v24v0v40v0h208v0v48v0h-208v0v48v0h128v0q61 2 102 42q40 41 42 102q-2 61 -42 102q-41 40 -102 42h-152v0zM240 176h-128h128h-128v192v0h128v0q41 -1 68 -28t28 -68
q-1 -41 -28 -68t-68 -28v0z" />
    <glyph glyph-name="uniF25C" unicode="&#xf25c;" horiz-adv-x="640" 
d="M0 352h24h-24h256v-48v0h-24h-80v-248v0v-24v0h-48v0v24v0v248v0h-80h-24v48v0zM288 328v24v-24v24h36v0l7 -10v0l133 -181v0l133 181v0l7 10v0h36v0v-24v0v-272v0v-24v0h-48v0v24v0v198v0l-109 -148v0l-19 -27v0l-19 27v0l-109 148v0v-198v0v-24v0h-48v0v24v0v272v0z
" />
    <glyph glyph-name="uniF25C" unicode="&#x2122;" horiz-adv-x="640" 
d="M0 352h24h-24h256v-48v0h-24h-80v-248v0v-24v0h-48v0v24v0v248v0h-80h-24v48v0zM288 328v24v-24v24h36v0l7 -10v0l133 -181v0l133 181v0l7 10v0h36v0v-24v0v-272v0v-24v0h-48v0v24v0v198v0l-109 -148v0l-19 -27v0l-19 27v0l-109 148v0v-198v0v-24v0h-48v0v24v0v272v0z
" />
    <glyph glyph-name="uniF30F" unicode="&#xf30f;" horiz-adv-x="448" 
d="M48 368v-352v352v-352h352v0v352v0h-352v0zM0 416h48h-48h448v-48v0v-352v0v-48v0h-48h-400v48v0v352v0v48v0zM184 112h24h-24h24v64v0h-24h-24v48v0h24h72v-24v0v-88v0h8h24v-48v0h-24h-104v48v0h24v0zM256 320v-64v64v-64h-64v0v64v0h64v0z" />
    <glyph glyph-name="uniF30F" unicode="&#x2139;" horiz-adv-x="448" 
d="M48 368v-352v352v-352h352v0v352v0h-352v0zM0 416h48h-48h448v-48v0v-352v0v-48v0h-48h-400v48v0v352v0v48v0zM184 112h24h-24h24v64v0h-24h-24v48v0h24h72v-24v0v-88v0h8h24v-48v0h-24h-104v48v0h24v0zM256 320v-64v64v-64h-64v0v64v0h64v0z" />
    <glyph glyph-name="uniF060" unicode="&#xf060;" horiz-adv-x="448" 
d="M18 175l-17 17l17 -17l-17 17l17 17v0l154 154v0l17 17v0l34 -34v0l-17 -17v0l-113 -113v0h331h24v-48v0h-24h-331l113 -113v0l17 -17v0l-34 -34v0l-17 17v0l-154 154v0z" />
    <glyph glyph-name="uniF060" unicode="&#x2190;" horiz-adv-x="448" 
d="M18 175l-17 17l17 -17l-17 17l17 17v0l154 154v0l17 17v0l34 -34v0l-17 -17v0l-113 -113v0h331h24v-48v0h-24h-331l113 -113v0l17 -17v0l-34 -34v0l-17 17v0l-154 154v0z" />
    <glyph glyph-name="uniF062" unicode="&#xf062;" horiz-adv-x="384" 
d="M209 398l-17 17l17 -17l-17 17l-17 -17v0l-154 -154v0l-17 -17v0l34 -34v0l17 17v0l113 113v0v-331v0v-24v0h48v0v24v0v331v0l113 -113v0l17 -17v0l34 34v0l-17 17v0l-154 154v0z" />
    <glyph glyph-name="uniF062" unicode="&#x2191;" horiz-adv-x="384" 
d="M209 398l-17 17l17 -17l-17 17l-17 -17v0l-154 -154v0l-17 -17v0l34 -34v0l17 17v0l113 113v0v-331v0v-24v0h48v0v24v0v331v0l113 -113v0l17 -17v0l34 34v0l-17 17v0l-154 154v0z" />
    <glyph glyph-name="uniF061" unicode="&#xf061;" horiz-adv-x="448" 
d="M430 175l17 17l-17 -17l17 17l-17 17v0l-154 154v0l-17 17v0l-34 -34v0l17 -17v0l113 -113v0h-331h-24v-48v0h24h331l-113 -113v0l-17 -17v0l34 -34v0l17 17v0l154 154v0z" />
    <glyph glyph-name="uniF061" unicode="&#x2192;" horiz-adv-x="448" 
d="M430 175l17 17l-17 -17l17 17l-17 17v0l-154 154v0l-17 17v0l-34 -34v0l17 -17v0l113 -113v0h-331h-24v-48v0h24h331l-113 -113v0l-17 -17v0l34 -34v0l17 17v0l154 154v0z" />
    <glyph glyph-name="uniF063" unicode="&#xf063;" horiz-adv-x="384" 
d="M175 -14l17 -17l-17 17l17 -17l17 17v0l154 154v0l17 17v0l-34 34v0l-17 -17v0l-113 -113v0v331v0v24v0h-48v0v-24v0v-331v0l-113 113v0l-17 17v0l-33 -34v0l17 -17v0l153 -154v0z" />
    <glyph glyph-name="uniF063" unicode="&#x2193;" horiz-adv-x="384" 
d="M175 -14l17 -17l-17 17l17 -17l17 17v0l154 154v0l17 17v0l-34 34v0l-17 -17v0l-113 -113v0v331v0v24v0h-48v0v-24v0v-331v0l-113 113v0l-17 17v0l-33 -34v0l17 -17v0l153 -154v0z" />
    <glyph glyph-name="uniF337" unicode="&#xf337;" 
d="M288 120h48h-48h48v-8v0v-40v0v-8v0h48v0l94 94v0l34 34v0l-34 34v0l-94 94v0h-48v0v-8v0v-40v0v-8v0h-48h-112v8v0v40v0v8v0h-48v0l-94 -94v0l-34 -34v0l34 -34v0l94 -94v0h48v0v8v0v40v0v8v0h48h64zM128 132l-60 60l60 -60l-60 60l60 60v0v-36v0h48h208v36v0l60 -60v0
l-60 -60v0v36v0h-48h-208v-36v0z" />
    <glyph glyph-name="uniF337" unicode="&#x2194;" 
d="M288 120h48h-48h48v-8v0v-40v0v-8v0h48v0l94 94v0l34 34v0l-34 34v0l-94 94v0h-48v0v-8v0v-40v0v-8v0h-48h-112v8v0v40v0v8v0h-48v0l-94 -94v0l-34 -34v0l34 -34v0l94 -94v0h48v0v8v0v40v0v8v0h48h64zM128 132l-60 60l60 -60l-60 60l60 60v0v-36v0h48h208v36v0l60 -60v0
l-60 -60v0v36v0h-48h-208v-36v0z" />
    <glyph glyph-name="uniF338" unicode="&#xf338;" horiz-adv-x="256" 
d="M200 224v48v-48v48h8h48v48v0l-94 94v0l-34 34v0l-34 -34v0l-94 -94v0v-48v0h8h48v-48v0v-64v0v-48v0h-8h-48v-48v0l94 -94v0l34 -34v0l34 34v0l94 94v0v48v0h-8h-48v48v0v64v0zM188 64l-60 -60l60 60l-60 -60l-60 60v0h36v0v48v0v160v0v48v0h-36v0l60 60v0l60 -60v0h-36
v0v-48v0v-160v0v-48v0h36v0z" />
    <glyph glyph-name="uniF338" unicode="&#x2b0d;" horiz-adv-x="256" 
d="M200 224v48v-48v48h8h48v48v0l-94 94v0l-34 34v0l-34 -34v0l-94 -94v0v-48v0h8h48v-48v0v-64v0v-48v0h-8h-48v-48v0l94 -94v0l34 -34v0l34 34v0l94 94v0v48v0h-8h-48v48v0v64v0zM188 64l-60 -60l60 60l-60 -60l-60 60v0h36v0v48v0v160v0v48v0h-36v0l60 60v0l60 -60v0h-36
v0v-48v0v-160v0v-48v0h36v0z" />
    <glyph glyph-name="uniF338" unicode="&#x2195;" horiz-adv-x="256" 
d="M200 224v48v-48v48h8h48v48v0l-94 94v0l-34 34v0l-34 -34v0l-94 -94v0v-48v0h8h48v-48v0v-64v0v-48v0h-8h-48v-48v0l94 -94v0l34 -34v0l34 34v0l94 94v0v48v0h-8h-48v48v0v64v0zM188 64l-60 -60l60 60l-60 -60l-60 60v0h36v0v48v0v160v0v48v0h-36v0l60 60v0l60 -60v0h-36
v0v-48v0v-160v0v-48v0h36v0z" />
    <glyph glyph-name="uniF360" unicode="&#xf360;" horiz-adv-x="448" 
d="M400 368v-352v352v-352h-352v0v352v0h352v0zM448 416h-48h48h-448v-48v0v-352v0v-48v0h48h400v48v0v352v0v48v0zM320 128v160v-160v160h-160v0l-24 -24v0l52 -52v0l-76 -76v0l56 -56v0l76 76v0l52 -52v0l24 24v0z" />
    <glyph glyph-name="uniF360" unicode="&#x2197;" horiz-adv-x="448" 
d="M400 368v-352v352v-352h-352v0v352v0h352v0zM448 416h-48h48h-448v-48v0v-352v0v-48v0h48h400v48v0v352v0v48v0zM320 128v160v-160v160h-160v0l-24 -24v0l52 -52v0l-76 -76v0l56 -56v0l76 76v0l52 -52v0l24 24v0z" />
    <glyph glyph-name="uniF344" unicode="&#xf344;" horiz-adv-x="448" 
d="M400 360v24v-24v24h48v0v-24v0v-336v0v-24v0h-48v0v24v0v336v0zM19 174l-19 18l19 -18l-19 18l19 17v0l136 128v0l17 17v0l33 -35v0l-17 -17v0l-92 -86v0h200h24v-48v0h-24h-200l92 -87v0l17 -16v0l-33 -35v0l-17 16v0l-136 128v0z" />
    <glyph glyph-name="uniF344" unicode="&#x21a4;" horiz-adv-x="448" 
d="M400 360v24v-24v24h48v0v-24v0v-336v0v-24v0h-48v0v24v0v336v0zM19 174l-19 18l19 -18l-19 18l19 17v0l136 128v0l17 17v0l33 -35v0l-17 -17v0l-92 -86v0h200h24v-48v0h-24h-200l92 -87v0l17 -16v0l-33 -35v0l-17 16v0l-136 128v0z" />
    <glyph glyph-name="uniF342" unicode="&#xf342;" horiz-adv-x="384" 
d="M209 397l-17 18l17 -18l-17 18l-17 -18v0l-128 -132v0l-17 -18v0l35 -33v0l16 17v0l87 90v0v-201v0v-24v0h48v0v24v0v201v0l87 -90v0l16 -17v0l35 33v0l-17 18v0l-128 132v0zM24 16h-24h24h-24v-48v0h24h360v48v0h-24h-336z" />
    <glyph glyph-name="uniF342" unicode="&#x21a5;" horiz-adv-x="384" 
d="M209 397l-17 18l17 -18l-17 18l-17 -18v0l-128 -132v0l-17 -18v0l35 -33v0l16 17v0l87 90v0v-201v0v-24v0h48v0v24v0v201v0l87 -90v0l16 -17v0l35 33v0l-17 18v0l-128 132v0zM24 16h-24h24h-24v-48v0h24h360v48v0h-24h-336z" />
    <glyph glyph-name="uniF343" unicode="&#xf343;" horiz-adv-x="448" 
d="M48 360v24v-24v24h-48v0v-24v0v-336v0v-24v0h48v0v24v0v336v0zM429 174l19 18l-19 -18l19 18l-19 17v0l-136 128v0l-17 17v0l-33 -35v0l17 -17v0l92 -86v0h-200h-24v-48v0h24h200l-92 -87v0l-17 -16v0l33 -35v0l17 16v0l136 128v0z" />
    <glyph glyph-name="uniF343" unicode="&#x21a6;" horiz-adv-x="448" 
d="M48 360v24v-24v24h-48v0v-24v0v-336v0v-24v0h48v0v24v0v336v0zM429 174l19 18l-19 -18l19 18l-19 17v0l-136 128v0l-17 17v0l-33 -35v0l17 -17v0l92 -86v0h-200h-24v-48v0h24h200l-92 -87v0l-17 -16v0l33 -35v0l17 16v0l136 128v0z" />
    <glyph glyph-name="uniF345" unicode="&#xf345;" horiz-adv-x="384" 
d="M209 -14l-17 -17l17 17l-17 -17l-17 17v0l-128 133v0l-17 18v0l35 33v0l16 -17v0l87 -90v0v201v0v24v0h48v0v-24v0v-201v0l87 90v0l16 17v0l35 -33v0l-17 -18v0l-128 -132v-1zM24 368h-24h24h-24v48v0h24h360v-48v0h-24h-336z" />
    <glyph glyph-name="uniF345" unicode="&#x21a7;" horiz-adv-x="384" 
d="M209 -14l-17 -17l17 17l-17 -17l-17 17v0l-128 133v0l-17 18v0l35 33v0l16 -17v0l87 -90v0v201v0v24v0h48v0v-24v0v-201v0l87 90v0l16 17v0l35 -33v0l-17 -18v0l-128 -132v-1zM24 368h-24h24h-24v48v0h24h360v-48v0h-24h-336z" />
    <glyph glyph-name="uniF0E2" unicode="&#xf0e2;" 
d="M40 224h-24h24h-24v24v0v144v0v24v0h48v0v-24v0v-80v0l20 23v0q31 38 75 59q45 22 97 22q63 -1 113 -31q51 -29 80 -80q30 -50 31 -113q-1 -63 -31 -113q-29 -51 -80 -80q-50 -30 -113 -31q-77 1 -134 45l28 38v0q45 -34 106 -35q75 2 124 52q50 49 52 124q-2 75 -52 124
q-49 50 -124 52q-41 0 -76 -17t-59 -46v-1v0v0v0l-28 -32v0h91h24v-48v0h-24h-144z" />
    <glyph glyph-name="uniF0E2" unicode="&#x21ba;" 
d="M40 224h-24h24h-24v24v0v144v0v24v0h48v0v-24v0v-80v0l20 23v0q31 38 75 59q45 22 97 22q63 -1 113 -31q51 -29 80 -80q30 -50 31 -113q-1 -63 -31 -113q-29 -51 -80 -80q-50 -30 -113 -31q-77 1 -134 45l28 38v0q45 -34 106 -35q75 2 124 52q50 49 52 124q-2 75 -52 124
q-49 50 -124 52q-41 0 -76 -17t-59 -46v-1v0v0v0l-28 -32v0h91h24v-48v0h-24h-144z" />
    <glyph glyph-name="uniF01E" unicode="&#xf01e;" 
d="M472 224h24h-24h24v24v0v144v0v24v0h-48v0v-24v0v-80v0l-20 23v0q-31 38 -75 59q-45 22 -97 22q-63 -1 -113 -31q-51 -29 -80 -80q-30 -50 -31 -113q1 -63 31 -113q29 -51 80 -80q50 -30 113 -31q77 1 134 45l-28 38v0q-45 -34 -106 -35q-75 2 -124 52q-50 49 -52 124
q2 75 52 124q49 50 124 52q41 0 76 -17t59 -46v-1v0v0v0l28 -32v0h-91h-24v-48v0h24h144z" />
    <glyph glyph-name="uniF01E" unicode="&#x21bb;" 
d="M472 224h24h-24h24v24v0v144v0v24v0h-48v0v-24v0v-80v0l-20 23v0q-31 38 -75 59q-45 22 -97 22q-63 -1 -113 -31q-51 -29 -80 -80q-30 -50 -31 -113q1 -63 31 -113q29 -51 80 -80q50 -30 113 -31q77 1 134 45l-28 38v0q-45 -34 -106 -35q-75 2 -124 52q-50 49 -52 124
q2 75 52 124q49 50 124 52q41 0 76 -17t59 -46v-1v0v0v0l28 -32v0h-91h-24v-48v0h24h144z" />
    <glyph glyph-name="uniF0EC" unicode="&#xf0ec;" horiz-adv-x="448" 
d="M18 45l93 -93l-93 93l93 -93l17 -17v0l34 34v0l-17 17v0l-52 52v0h331h24v48v0h-24h-331l55 55v0l17 17v0l-34 34v0l-17 -17v0l-96 -96v0l-17 -17v0l17 -17v0zM430 301l17 17l-17 -17l17 17l-17 17v0l-96 96v0l-17 17v0l-34 -34v0l17 -17v0l55 -55v0h-331h-24v-48v0h24
h331l-55 -55v0l-17 -17v0l34 -34v0l17 17v0l96 96v0z" />
    <glyph glyph-name="uniF0EC" unicode="&#x21c4;" horiz-adv-x="448" 
d="M18 45l93 -93l-93 93l93 -93l17 -17v0l34 34v0l-17 17v0l-52 52v0h331h24v48v0h-24h-331l55 55v0l17 17v0l-34 34v0l-17 -17v0l-96 -96v0l-17 -17v0l17 -17v0zM430 301l17 17l-17 -17l17 17l-17 17v0l-96 96v0l-17 17v0l-34 -34v0l17 -17v0l55 -55v0h-331h-24v-48v0h24
h331l-55 -55v0l-17 -17v0l34 -34v0l17 17v0l96 96v0z" />
    <glyph glyph-name="uniF33E" unicode="&#xf33e;" horiz-adv-x="448" 
d="M0 360v24v-24v24h48v0v-24v0v-336v0v-24v0h-48v0v24v0v336v0zM136 174l-19 18l19 -18l-19 18l19 17v0l136 128v0l17 17v0l33 -35v0l-18 -17v0l-91 -86v0h83h152v-48v0h-24h-211l91 -87v0l18 -16v0l-33 -35v0l-17 16v0l-136 128v0z" />
    <glyph glyph-name="uniF33E" unicode="&#x21e4;" horiz-adv-x="448" 
d="M0 360v24v-24v24h48v0v-24v0v-336v0v-24v0h-48v0v24v0v336v0zM136 174l-19 18l19 -18l-19 18l19 17v0l136 128v0l17 17v0l33 -35v0l-18 -17v0l-91 -86v0h83h152v-48v0h-24h-211l91 -87v0l18 -16v0l-33 -35v0l-17 16v0l-136 128v0z" />
    <glyph glyph-name="uniF340" unicode="&#xf340;" horiz-adv-x="448" 
d="M448 360v24v-24v24h-48v0v-24v0v-336v0v-24v0h48v0v24v0v336v0zM312 174l19 18l-19 -18l19 18l-19 17v0l-136 128v0l-17 17v0l-33 -35v0l18 -17v0l92 -86v0h-84h-152v-48v0h24h212l-92 -87v0l-18 -16v0l33 -35v0l18 16v0l136 128h-1z" />
    <glyph glyph-name="uniF340" unicode="&#x21e5;" horiz-adv-x="448" 
d="M448 360v24v-24v24h-48v0v-24v0v-336v0v-24v0h48v0v24v0v336v0zM312 174l19 18l-19 -18l19 18l-19 17v0l-136 128v0l-17 17v0l-33 -35v0l18 -17v0l92 -86v0h-84h-152v-48v0h24h212l-92 -87v0l-18 -16v0l33 -35v0l18 16v0l136 128h-1z" />
    <glyph glyph-name="uniF68B" unicode="&#xf68b;" horiz-adv-x="384" 
d="M0 -32h24h-24h384v24v0v80v0v24v0h-48v0v-24v0v-56v0h-254v0l159 159v0l17 17v0l-17 17v0l-159 159v0h254v0v-56v0v-24v0h48v0v24v0v80v0v24v0h-24h-360v-34v0l7 -7v0l183 -183v0l-183 -183v0l-7 -7v0v-34v0z" />
    <glyph glyph-name="uniF68B" unicode="&#x2211;" horiz-adv-x="384" 
d="M0 -32h24h-24h384v24v0v80v0v24v0h-48v0v-24v0v-56v0h-254v0l159 159v0l17 17v0l-17 17v0l-159 159v0h254v0v-56v0v-24v0h48v0v24v0v80v0v24v0h-24h-360v-34v0l7 -7v0l183 -183v0l-183 -183v0l-7 -7v0v-34v0z" />
    <glyph glyph-name="uniF697" unicode="&#xf697;" horiz-adv-x="576" 
d="M320 416h-18h18h-18l-5 -18v0l-96 -342v0l-84 155v0l-7 13v0h-14h-96v-48v0h24h58l105 -195v0l7 -13v0h32v0l5 17v0l107 383v0h214h24v48v0h-24h-232z" />
    <glyph glyph-name="uniF697" unicode="&#x221a;" horiz-adv-x="576" 
d="M320 416h-18h18h-18l-5 -18v0l-96 -342v0l-84 155v0l-7 13v0h-14h-96v-48v0h24h58l105 -195v0l7 -13v0h32v0l5 17v0l107 383v0h214h24v48v0h-24h-232z" />
    <glyph glyph-name="uniF534" unicode="&#xf534;" horiz-adv-x="640" 
d="M0 352h24h-24h202l8 -8v0l110 -117v0l111 117v0l7 8v0h10h192v-24v0v-272v0v-24v0h-24h-178l-7 8v0l-111 117v0l-110 -117v0l-8 -8v0h-10h-192v24v0v272v0v24v0zM287 192l-105 112l105 -112l-105 112h-134v0v-224v0h134v0l105 112v0zM353 192l105 -112l-105 112l105 -112
h134v0v224v0h-134v0l-105 -112v0z" />
    <glyph glyph-name="uniF534" unicode="&#x267e;" horiz-adv-x="640" 
d="M0 352h24h-24h202l8 -8v0l110 -117v0l111 117v0l7 8v0h10h192v-24v0v-272v0v-24v0h-24h-178l-7 8v0l-111 117v0l-110 -117v0l-8 -8v0h-10h-192v24v0v272v0v24v0zM287 192l-105 112l105 -112l-105 112h-134v0v-224v0h134v0l105 112v0zM353 192l105 -112l-105 112l105 -112
h134v0v224v0h-134v0l-105 -112v0z" />
    <glyph glyph-name="uniF534" unicode="&#x221e;" horiz-adv-x="640" 
d="M0 352h24h-24h202l8 -8v0l110 -117v0l111 117v0l7 8v0h10h192v-24v0v-272v0v-24v0h-24h-178l-7 8v0l-111 117v0l-110 -117v0l-8 -8v0h-10h-192v24v0v272v0v24v0zM287 192l-105 112l105 -112l-105 112h-134v0v-224v0h134v0l105 112v0zM353 192l105 -112l-105 112l105 -112
h134v0v224v0h-134v0l-105 -112v0z" />
    <glyph glyph-name="uniF899" unicode="&#xf899;" horiz-adv-x="640" 
d="M47 202q1 0 -3 1v0v0q-3 1 -20 5t-20 5q-4 1 -3 1v0v0v0v0v0v0v0v0v1v1t1 2q0 2 1 4q2 8 6 20q9 27 28 62t53 64q34 30 86 32q41 -1 69 -20t46 -49q17 -28 29 -62q12 -33 22 -67v-1l1 -2v0q20 -72 47 -121q26 -45 74 -46q32 1 56 21t41 51q17 30 24 54q4 11 6 17q1 3 1 4
v1l1 1v0v1v0v0v0q-1 0 3 -1q3 -1 20 -5t20 -5q4 -1 3 -1v0v0v0v0v0v0v0v0v-1v-1t-1 -2q0 -2 -1 -4q-2 -8 -6 -20q-9 -27 -28 -62t-53 -64q-34 -30 -86 -32q-41 1 -69 20t-46 49q-17 28 -29 62q-12 33 -22 67v1l-1 2v0q-20 72 -47 121q-26 45 -74 46q-32 -1 -56 -21t-41 -51
q-17 -30 -24 -54q-4 -11 -6 -17q-1 -3 -1 -4v-1l-1 -1v0v-1v0v0v0z" />
    <glyph glyph-name="uniF899" unicode="&#x223f;" horiz-adv-x="640" 
d="M47 202q1 0 -3 1v0v0q-3 1 -20 5t-20 5q-4 1 -3 1v0v0v0v0v0v0v0v0v1v1t1 2q0 2 1 4q2 8 6 20q9 27 28 62t53 64q34 30 86 32q41 -1 69 -20t46 -49q17 -28 29 -62q12 -33 22 -67v-1l1 -2v0q20 -72 47 -121q26 -45 74 -46q32 1 56 21t41 51q17 30 24 54q4 11 6 17q1 3 1 4
v1l1 1v0v1v0v0v0q-1 0 3 -1q3 -1 20 -5t20 -5q4 -1 3 -1v0v0v0v0v0v0v0v0v-1v-1t-1 -2q0 -2 -1 -4q-2 -8 -6 -20q-9 -27 -28 -62t-53 -64q-34 -30 -86 -32q-41 1 -69 20t-46 49q-17 28 -29 62q-12 33 -22 67v1l-1 2v0q-20 72 -47 121q-26 45 -74 46q-32 -1 -56 -21t-41 -51
q-17 -30 -24 -54q-4 -11 -6 -17q-1 -3 -1 -4v-1l-1 -1v0v-1v0v0v0z" />
    <glyph glyph-name="uniF668" unicode="&#xf668;" horiz-adv-x="384" 
d="M48 -32v24v-24v24v232v0q2 61 42 102q41 40 102 42q61 -2 102 -42q40 -41 42 -102v-232v0v-24v0h48v0v24v0v232v0q-2 82 -56 136t-136 56q-82 -2 -136 -56t-56 -136v-232v0v-24v0h48v0z" />
    <glyph glyph-name="uniF668" unicode="&#x22c2;" horiz-adv-x="384" 
d="M48 -32v24v-24v24v232v0q2 61 42 102q41 40 102 42q61 -2 102 -42q40 -41 42 -102v-232v0v-24v0h48v0v24v0v232v0q-2 82 -56 136t-136 56q-82 -2 -136 -56t-56 -136v-232v0v-24v0h48v0z" />
    <glyph glyph-name="uniF6A2" unicode="&#xf6a2;" horiz-adv-x="384" 
d="M48 416v-24v24v-24v-232v0q2 -61 42 -102q41 -40 102 -42q61 2 102 42q40 41 42 102v232v0v24v0h48v0v-24v0v-232v0q-2 -82 -56 -136t-136 -56q-82 2 -136 56t-56 136v232v0v24v0h48v0z" />
    <glyph glyph-name="uniF6A2" unicode="&#x22c3;" horiz-adv-x="384" 
d="M48 416v-24v24v-24v-232v0q2 -61 42 -102q41 -40 102 -42q61 2 102 42q40 41 42 102v232v0v24v0h48v0v-24v0v-232v0q-2 -82 -56 -136t-136 -56q-82 2 -136 56t-56 136v232v0v24v0h48v0z" />
    <glyph glyph-name="uniF106" unicode="&#xf106;" horiz-adv-x="448" 
d="M224 322l17 -17l-17 17l17 -17l160 -160v0l17 -17v0l-34 -34v0l-17 17v0l-143 143v0l-143 -143v0l-17 -17v0l-34 34v0l17 17v0l160 160v0l17 17v0z" />
    <glyph glyph-name="uniF106" unicode="&#x2303;" horiz-adv-x="448" 
d="M224 322l17 -17l-17 17l17 -17l160 -160v0l17 -17v0l-34 -34v0l-17 17v0l-143 143v0l-143 -143v0l-17 -17v0l-34 34v0l17 17v0l160 160v0l17 17v0z" />
    <glyph glyph-name="uniF107" unicode="&#xf107;" horiz-adv-x="448" 
d="M224 62l17 17l-17 -17l17 17l160 160v0l17 17v0l-34 34v0l-17 -17v0l-143 -143v0l-143 143v0l-17 17v0l-34 -34v0l17 -17v0l160 -160v0l17 -17v0z" />
    <glyph glyph-name="uniF107" unicode="&#x2304;" horiz-adv-x="448" 
d="M224 62l17 17l-17 -17l17 17l160 160v0l17 17v0l-34 34v0l-17 -17v0l-143 -143v0l-143 143v0l-17 17v0l-34 -34v0l17 -17v0l160 -160v0l17 -17v0z" />
    <glyph glyph-name="uniF2E1" unicode="&#xf2e1;" horiz-adv-x="384" 
d="M320 448h-256h256h-256v-112v0h1v0q-30 -27 -47 -64q-18 -37 -18 -80t18 -80q17 -37 47 -64h-1v0v-112v0h256v0v112v0h-1v0q30 27 47 64q18 37 18 80t-18 80q-17 37 -47 64h1v0v112v0zM48 192q0 39 19 72v0v0q19 33 53 53q34 19 72 19t72 -19q34 -20 53 -53t19 -72
t-19 -72t-53 -53q-34 -19 -72 -19t-72 19q-34 20 -53 53t-19 72v0zM216 272v24v-24v24h-48v0v-24v0v-80v0v-13v0l11 -7v0l48 -32v0l20 -13v0l26 40v0l-20 13v0l-37 25v0v67v0z" />
    <glyph glyph-name="uniF2E1" unicode="&#x231a;" horiz-adv-x="384" 
d="M320 448h-256h256h-256v-112v0h1v0q-30 -27 -47 -64q-18 -37 -18 -80t18 -80q17 -37 47 -64h-1v0v-112v0h256v0v112v0h-1v0q30 27 47 64q18 37 18 80t-18 80q-17 37 -47 64h1v0v112v0zM48 192q0 39 19 72v0v0q19 33 53 53q34 19 72 19t72 -19q34 -20 53 -53t19 -72
t-19 -72t-53 -53q-34 -19 -72 -19t-72 19q-34 20 -53 53t-19 72v0zM216 272v24v-24v24h-48v0v-24v0v-80v0v-13v0l11 -7v0l48 -32v0l20 -13v0l26 40v0l-20 13v0l-37 25v0v67v0z" />
    <glyph glyph-name="uniF253" unicode="&#xf253;" horiz-adv-x="384" 
d="M0 448h24h-24h384v-48v0h-24h-8v-72v0v-10v0l-7 -7v0l-119 -119v0l119 -119v0l7 -7v0v-10v0v-72v0h8h24v-48v0h-24h-360v48v0h24h8v72v0v10v0l7 7v0l119 119v0l-119 119v0l-7 7v0v10v0v72v0h-8h-24v48v0zM80 400v-62v62v-62l112 -112v0l112 112v0v62v0h-224v0z" />
    <glyph glyph-name="uniF253" unicode="&#x231b;" horiz-adv-x="384" 
d="M0 448h24h-24h384v-48v0h-24h-8v-72v0v-10v0l-7 -7v0l-119 -119v0l119 -119v0l7 -7v0v-10v0v-72v0h8h24v-48v0h-24h-360v48v0h24h8v72v0v10v0l7 7v0l119 119v0l-119 119v0l-7 7v0v10v0v72v0h-8h-24v48v0zM80 400v-62v62v-62l112 -112v0l112 112v0v62v0h-224v0z" />
    <glyph glyph-name="uniF11C" unicode="&#xf11c;" horiz-adv-x="576" 
d="M48 336v-288v288v-288h480v0v288v0h-480v0zM0 384h48h-48h576v-48v0v-288v0v-48v0h-48h-528v48v0v288v0v48v0zM416 128v-48v48v-48h-256v0v48v0h256v0zM104 216h48h-48h48v-48v0h-48v0v48v0zM152 296v-48v48v-48h-48v0v48v0h48v0zM184 216h48h-48h48v-48v0h-48v0v48v0z
M232 296v-48v48v-48h-48v0v48v0h48v0zM264 216h48h-48h48v-48v0h-48v0v48v0zM312 296v-48v48v-48h-48v0v48v0h48v0zM344 216h48h-48h48v-48v0h-48v0v48v0zM392 296v-48v48v-48h-48v0v48v0h48v0zM424 216h48h-48h48v-48v0h-48v0v48v0zM472 296v-48v48v-48h-48v0v48v0h48v0z
" />
    <glyph glyph-name="uniF11C" unicode="&#x2328;" horiz-adv-x="576" 
d="M48 336v-288v288v-288h480v0v288v0h-480v0zM0 384h48h-48h576v-48v0v-288v0v-48v0h-48h-528v48v0v288v0v48v0zM416 128v-48v48v-48h-256v0v48v0h256v0zM104 216h48h-48h48v-48v0h-48v0v48v0zM152 296v-48v48v-48h-48v0v48v0h48v0zM184 216h48h-48h48v-48v0h-48v0v48v0z
M232 296v-48v48v-48h-48v0v48v0h48v0zM264 216h48h-48h48v-48v0h-48v0v48v0zM312 296v-48v48v-48h-48v0v48v0h48v0zM344 216h48h-48h48v-48v0h-48v0v48v0zM392 296v-48v48v-48h-48v0v48v0h48v0zM424 216h48h-48h48v-48v0h-48v0v48v0zM472 296v-48v48v-48h-48v0v48v0h48v0z
" />
    <glyph glyph-name="uniF053" unicode="&#xf053;" horiz-adv-x="320" 
d="M-2 192l17 17l-17 -17l17 17l192 192v0l17 17v0l34 -34v0l-17 -17v0l-175 -175v0l175 -175v0l17 -17v0l-34 -34v0l-17 17v0l-192 192v0l-17 17v0z" />
    <glyph glyph-name="uniF053" unicode="&#x2329;" horiz-adv-x="320" 
d="M-2 192l17 17l-17 -17l17 17l192 192v0l17 17v0l34 -34v0l-17 -17v0l-175 -175v0l175 -175v0l17 -17v0l-34 -34v0l-17 17v0l-192 192v0l-17 17v0z" />
    <glyph glyph-name="uniF054" unicode="&#xf054;" horiz-adv-x="320" 
d="M322 192l-17 -17l17 17l-17 -17l-192 -192v0l-17 -17v0l-34 34v0l17 17v0l175 175v0l-175 175v0l-17 17v0l34 34v0l17 -17v0l192 -192v0l17 -17v0z" />
    <glyph glyph-name="uniF054" unicode="&#x232a;" horiz-adv-x="320" 
d="M322 192l-17 -17l17 17l-17 -17l-192 -192v0l-17 -17v0l-34 34v0l17 17v0l175 175v0l-175 175v0l-17 17v0l34 34v0l17 -17v0l192 -192v0l17 -17v0z" />
    <glyph glyph-name="uniF55A" unicode="&#xf55a;" horiz-adv-x="576" 
d="M576 0h-48h48h-400l-176 192v0l176 192v0h352h48v-48v0v-288v0v-48v0zM65 192l132 -144l-132 144l132 -144h331v0v288v0h-331v0l-132 -144v0zM254 256l34 34l-34 -34l34 34l17 -17v0l47 -47v0l47 47v0l17 17v0l34 -34v0l-17 -17v0l-47 -47v0l47 -47v0l17 -17v0l-34 -34v0
l-17 17v0l-47 47v0l-47 -47v0l-17 -17v0l-34 34v0l17 17v0l47 47v0l-47 47v0l-17 17v0z" />
    <glyph glyph-name="uniF55A" unicode="&#x232b;" horiz-adv-x="576" 
d="M576 0h-48h48h-400l-176 192v0l176 192v0h352h48v-48v0v-288v0v-48v0zM65 192l132 -144l-132 144l132 -144h331v0v288v0h-331v0l-132 -144v0zM254 256l34 34l-34 -34l34 34l17 -17v0l47 -47v0l47 47v0l17 17v0l34 -34v0l-17 -17v0l-47 -47v0l47 -47v0l17 -17v0l-34 -34v0
l-17 17v0l-47 47v0l-47 -47v0l-17 -17v0l-34 34v0l17 17v0l47 47v0l-47 47v0l-17 17v0z" />
    <glyph glyph-name="u1F5B6" unicode="&#x1f5b6;" 
d="M112 288v112v-112v112h252v0l36 -36v0v-76v0h48v0v96v0l-64 64v0h-272h-48v-48v0v-112v0h48v0zM384 80v-96v96v-96h-256v0v96v0h256v0zM128 128h-48h48h-48v-32v0h-32v0v112v0h416v0v-112v0h-32v0v32v0h-48h-256zM432 48h32h-32h80v48v0v112v0v48v0h-48h-464v-48v0v-112
v0v-48v0h48h32v-64v0v-48v0h48h304v48v0v64v0z" />
    <glyph glyph-name="u1F5B6" unicode="&#x1f5a8;" 
d="M112 288v112v-112v112h252v0l36 -36v0v-76v0h48v0v96v0l-64 64v0h-272h-48v-48v0v-112v0h48v0zM384 80v-96v96v-96h-256v0v96v0h256v0zM128 128h-48h48h-48v-32v0h-32v0v112v0h416v0v-112v0h-32v0v32v0h-48h-256zM432 48h32h-32h80v48v0v112v0v48v0h-48h-464v-48v0v-112
v0v-48v0h48h32v-64v0v-48v0h48h304v48v0v64v0z" />
    <glyph glyph-name="u1F5B6" unicode="&#xf02f;" 
d="M112 288v112v-112v112h252v0l36 -36v0v-76v0h48v0v96v0l-64 64v0h-272h-48v-48v0v-112v0h48v0zM384 80v-96v96v-96h-256v0v96v0h256v0zM128 128h-48h48h-48v-32v0h-32v0v112v0h416v0v-112v0h-32v0v32v0h-48h-256zM432 48h32h-32h80v48v0v112v0v48v0h-48h-464v-48v0v-112
v0v-48v0h48h32v-64v0v-48v0h48h304v48v0v64v0z" />
    <glyph glyph-name="u1F5B6" unicode="&#x2399;" 
d="M112 288v112v-112v112h252v0l36 -36v0v-76v0h48v0v96v0l-64 64v0h-272h-48v-48v0v-112v0h48v0zM384 80v-96v96v-96h-256v0v96v0h256v0zM128 128h-48h48h-48v-32v0h-32v0v112v0h416v0v-112v0h-32v0v32v0h-48h-256zM432 48h32h-32h80v48v0v112v0v48v0h-48h-464v-48v0v-112
v0v-48v0h48h32v-64v0v-48v0h48h304v48v0v64v0z" />
    <glyph glyph-name="uniF052" unicode="&#xf052;" horiz-adv-x="448" 
d="M224 314l-158 -170l158 170l-158 -170h316v0l-158 170v0zM0 144l191 205l-191 -205l191 205l33 35v0l33 -35v0l191 -205v0v-48v0h-48h-400v48v0zM24 48h400h-400h424v-48v0h-24h-424v48v0h24v0z" />
    <glyph glyph-name="uniF052" unicode="&#x23cf;" horiz-adv-x="448" 
d="M224 314l-158 -170l158 170l-158 -170h316v0l-158 170v0zM0 144l191 205l-191 -205l191 205l33 35v0l33 -35v0l191 -205v0v-48v0h-48h-400v48v0zM24 48h400h-400h424v-48v0h-24h-424v48v0h24v0z" />
    <glyph glyph-name="uniF04E" unicode="&#xf04e;" 
d="M469 163l43 29l-43 -29l43 29l-43 29v0l-197 131v0l-48 32v0v-58v0v-76v0l-176 105v0l-48 29v0v-56v0v-272v0v-56v0l48 29v0l176 105v0v-76v0v-58v0l48 32v0l197 131v0zM224 190l-176 -105l176 105l-176 -105v214v0l176 -105v0v-4v0zM272 90v204v-204v204l154 -102v0
l-154 -102v0z" />
    <glyph glyph-name="uniF04E" unicode="&#x23e9;" 
d="M469 163l43 29l-43 -29l43 29l-43 29v0l-197 131v0l-48 32v0v-58v0v-76v0l-176 105v0l-48 29v0v-56v0v-272v0v-56v0l48 29v0l176 105v0v-76v0v-58v0l48 32v0l197 131v0zM224 190l-176 -105l176 105l-176 -105v214v0l176 -105v0v-4v0zM272 90v204v-204v204l154 -102v0
l-154 -102v0z" />
    <glyph glyph-name="uniF04A" unicode="&#xf04a;" 
d="M43 163l-43 29l43 -29l-43 29l43 29v0l197 131v0l48 32v0v-58v0v-76v0l176 105v0l48 29v0v-56v0v-272v0v-56v0l-48 29v0l-176 105v0v-76v0v-58v0l-48 32v0l-197 131v0zM288 190l176 -105l-176 105l176 -105v214v0l-176 -105v0v-4v0zM240 90v204v-204v204l-153 -102v0
l153 -102v0z" />
    <glyph glyph-name="uniF04A" unicode="&#x23ea;" 
d="M43 163l-43 29l43 -29l-43 29l43 29v0l197 131v0l48 32v0v-58v0v-76v0l176 105v0l48 29v0v-56v0v-272v0v-56v0l-48 29v0l-176 105v0v-76v0v-58v0l-48 32v0l-197 131v0zM288 190l176 -105l-176 105l176 -105v214v0l-176 -105v0v-4v0zM240 90v204v-204v204l-153 -102v0
l153 -102v0z" />
    <glyph glyph-name="uniF050" unicode="&#xf050;" 
d="M448 384v-24v24v-24v-134v0l-176 124v0l-48 34v0v-59v0v-99v0l-176 124v0l-48 34v0v-59v0v-266v0v-59v0l48 34v0l176 124v0v-99v0v-59v0l48 34v0l176 124v0v-134v0v-24v0h48v0v24v0v168v0v168v0v24v0h-48v0zM272 192v99v-99v99l141 -99v0l-141 -99v0v99v0zM189 192
l-141 -99l141 99l-141 -99v198v0l141 -99v0z" />
    <glyph glyph-name="uniF050" unicode="&#x23ed;" 
d="M448 384v-24v24v-24v-134v0l-176 124v0l-48 34v0v-59v0v-99v0l-176 124v0l-48 34v0v-59v0v-266v0v-59v0l48 34v0l176 124v0v-99v0v-59v0l48 34v0l176 124v0v-134v0v-24v0h48v0v24v0v168v0v168v0v24v0h-48v0zM272 192v99v-99v99l141 -99v0l-141 -99v0v99v0zM189 192
l-141 -99l141 99l-141 -99v198v0l141 -99v0z" />
    <glyph glyph-name="uniF049" unicode="&#xf049;" 
d="M64 384v-24v24v-24v-134v0l176 124v0l48 34v0v-59v0v-99v0l176 124v0l48 34v0v-59v0v-266v0v-59v0l-48 34v0l-176 124v0v-99v0v-59v0l-48 34v0l-176 124v0v-134v0v-24v0h-48v0v24v0v168v0v168v0v24v0h48v0zM240 192v99v-99v99l-141 -99v0l141 -99v0v99v0zM323 192
l141 -99l-141 99l141 -99v198v0l-141 -99v0z" />
    <glyph glyph-name="uniF049" unicode="&#x23ee;" 
d="M64 384v-24v24v-24v-134v0l176 124v0l48 34v0v-59v0v-99v0l176 124v0l48 34v0v-59v0v-266v0v-59v0l-48 34v0l-176 124v0v-99v0v-59v0l-48 34v0l-176 124v0v-134v0v-24v0h-48v0v24v0v168v0v168v0v24v0h48v0zM240 192v99v-99v99l-141 -99v0l141 -99v0v99v0zM323 192
l141 -99l-141 99l141 -99v198v0l-141 -99v0z" />
    <glyph glyph-name="uniF34E" unicode="&#xf34e;" 
d="M160 423q-26 24 -65 25q-40 -1 -67 -28t-28 -67q0 -29 15 -51l145 121v0zM256 336q48 0 88 -24v0v0q40 -23 64 -64q24 -42 24 -88t-24 -88q-24 -41 -64 -64q-40 -24 -88 -24t-88 24q-40 23 -64 64q-24 42 -24 88t24 88q24 41 64 64q40 24 88 24v0zM256 -64q81 2 141 49
l26 -26v0l17 -17v0l34 34v0l-17 17v0l-27 26v0q48 60 50 141q-1 63 -31 113q-29 51 -80 80q-50 30 -113 31q-63 -1 -113 -31q-51 -29 -80 -80q-30 -50 -31 -113q2 -81 50 -141l-27 -26v0l-17 -17v0l34 -34v0l17 17v0l27 27v0q59 -48 140 -50v0zM497 302q15 22 15 51
q-1 40 -28 67t-67 28q-39 -1 -65 -25l145 -121v0zM280 264v24v-24v24h-48v0v-24v0v-104v0v-10v0l7 -7v0l48 -48v0l17 -17v0l34 34v0l-17 17v0l-41 41v0v94v0z" />
    <glyph glyph-name="uniF34E" unicode="&#x23f0;" 
d="M160 423q-26 24 -65 25q-40 -1 -67 -28t-28 -67q0 -29 15 -51l145 121v0zM256 336q48 0 88 -24v0v0q40 -23 64 -64q24 -42 24 -88t-24 -88q-24 -41 -64 -64q-40 -24 -88 -24t-88 24q-40 23 -64 64q-24 42 -24 88t24 88q24 41 64 64q40 24 88 24v0zM256 -64q81 2 141 49
l26 -26v0l17 -17v0l34 34v0l-17 17v0l-27 26v0q48 60 50 141q-1 63 -31 113q-29 51 -80 80q-50 30 -113 31q-63 -1 -113 -31q-51 -29 -80 -80q-30 -50 -31 -113q2 -81 50 -141l-27 -26v0l-17 -17v0l34 -34v0l17 17v0l27 27v0q59 -48 140 -50v0zM497 302q15 22 15 51
q-1 40 -28 67t-67 28q-39 -1 -65 -25l145 -121v0zM280 264v24v-24v24h-48v0v-24v0v-104v0v-10v0l7 -7v0l48 -48v0l17 -17v0l34 34v0l-17 17v0l-41 41v0v94v0z" />
    <glyph glyph-name="uniF2F2" unicode="&#xf2f2;" horiz-adv-x="448" 
d="M144 448h160h-160h160v-48v0h-56v0v-49v0q66 -9 114 -51l29 29v0l17 17v0l34 -34v0l-17 -17v0l-31 -31v0q37 -52 38 -120q-2 -88 -61 -147t-147 -61q-88 2 -147 61t-61 147q2 82 53 139q52 57 131 68v49v0h-56v0v48v0zM224 -16q43 0 80 21v0v0q37 22 59 59q21 38 21 80
t-21 80q-22 37 -59 59q-37 21 -80 21t-80 -21q-37 -22 -59 -59q-21 -38 -21 -80t21 -80q22 -37 59 -59q37 -21 80 -21v0zM248 232v-104v104v-104v-24v0h-48v0v24v0v104v0v24v0h48v0v-24v0z" />
    <glyph glyph-name="uniF2F2" unicode="&#x23f1;" horiz-adv-x="448" 
d="M144 448h160h-160h160v-48v0h-56v0v-49v0q66 -9 114 -51l29 29v0l17 17v0l34 -34v0l-17 -17v0l-31 -31v0q37 -52 38 -120q-2 -88 -61 -147t-147 -61q-88 2 -147 61t-61 147q2 82 53 139q52 57 131 68v49v0h-56v0v48v0zM224 -16q43 0 80 21v0v0q37 22 59 59q21 38 21 80
t-21 80q-22 37 -59 59q-37 21 -80 21t-80 -21q-37 -22 -59 -59q-21 -38 -21 -80t21 -80q22 -37 59 -59q37 -21 80 -21v0zM248 232v-104v104v-104v-24v0h-48v0v24v0v104v0v24v0h48v0v-24v0z" />
    <glyph glyph-name="uniF254" unicode="&#xf254;" horiz-adv-x="384" 
d="M24 448h-24h24h-24v-48v0h24h8v-72v0v-10v0l7 -7v0l119 -119v0l-119 -119v0l-7 -7v0v-10v0v-72v0h-8h-24v-48v0h24h360v48v0h-24h-8v72v0v10v0l-7 7v0l-119 119v0l119 119v0l7 7v0v10v0v72v0h8h24v48v0h-24h-336zM304 400v-62v62v-62l-112 -112v0l-112 112v0v62v0h224v0z
M192 158l112 -112l-112 112l112 -112v-62v0h-224v0v62v0l112 112v0z" />
    <glyph glyph-name="uniF254" unicode="&#xf250;" horiz-adv-x="384" 
d="M24 448h-24h24h-24v-48v0h24h8v-72v0v-10v0l7 -7v0l119 -119v0l-119 -119v0l-7 -7v0v-10v0v-72v0h-8h-24v-48v0h24h360v48v0h-24h-8v72v0v10v0l-7 7v0l-119 119v0l119 119v0l7 7v0v10v0v72v0h8h24v48v0h-24h-336zM304 400v-62v62v-62l-112 -112v0l-112 112v0v62v0h224v0z
M192 158l112 -112l-112 112l112 -112v-62v0h-224v0v62v0l112 112v0z" />
    <glyph glyph-name="uniF254" unicode="&#x23f3;" horiz-adv-x="384" 
d="M24 448h-24h24h-24v-48v0h24h8v-72v0v-10v0l7 -7v0l119 -119v0l-119 -119v0l-7 -7v0v-10v0v-72v0h-8h-24v-48v0h24h360v48v0h-24h-8v72v0v10v0l-7 7v0l-119 119v0l119 119v0l7 7v0v10v0v72v0h8h24v48v0h-24h-336zM304 400v-62v62v-62l-112 -112v0l-112 112v0v62v0h224v0z
M192 158l112 -112l-112 112l112 -112v-62v0h-224v0v62v0l112 112v0z" />
    <glyph glyph-name="uniF04C" unicode="&#xf04c;" horiz-adv-x="320" 
d="M48 336v-288v288v-288h48v0v288v0h-48v0zM0 384h48h-48h144v-48v0v-288v0v-48v0h-48h-96v48v0v288v0v48v0zM224 336v-288v288v-288h48v0v288v0h-48v0zM176 384h48h-48h144v-48v0v-288v0v-48v0h-48h-96v48v0v288v0v48v0z" />
    <glyph glyph-name="uniF04C" unicode="&#x23f8;" horiz-adv-x="320" 
d="M48 336v-288v288v-288h48v0v288v0h-48v0zM0 384h48h-48h144v-48v0v-288v0v-48v0h-48h-96v48v0v288v0v48v0zM224 336v-288v288v-288h48v0v288v0h-48v0zM176 384h48h-48h144v-48v0v-288v0v-48v0h-48h-96v48v0v288v0v48v0z" />
    <glyph glyph-name="uniF04D" unicode="&#xf04d;" horiz-adv-x="384" 
d="M336 336v-288v288v-288h-288v0v288v0h288v0zM48 384h-48h48h-48v-48v0v-288v0v-48v0h48h336v48v0v288v0v48v0h-48h-288z" />
    <glyph glyph-name="uniF04D" unicode="&#x23f9;" horiz-adv-x="384" 
d="M336 336v-288v288v-288h-288v0v288v0h288v0zM48 384h-48h48h-48v-48v0v-288v0v-48v0h48h336v48v0v288v0v48v0h-48h-288z" />
    <glyph glyph-name="uniF011" unicode="&#xf011;" 
d="M280 424v24v-24v24h-48v0v-24v0v-240v0v-24v0h48v0v24v0v240v0zM56 186q0 48 21 88v0v0q21 40 57 67l-28 38v0q-45 -33 -71 -83t-27 -110q1 -67 33 -121t86 -86t121 -33q67 1 121 33t86 86t33 121q-1 60 -27 110t-71 83l-28 -38v0q36 -27 57 -67q20 -40 21 -88
q-2 -82 -56 -136q-55 -54 -136 -56q-82 2 -136 56t-56 136v0z" />
    <glyph glyph-name="uniF011" unicode="&#x23fb;" 
d="M280 424v24v-24v24h-48v0v-24v0v-240v0v-24v0h48v0v24v0v240v0zM56 186q0 48 21 88v0v0q21 40 57 67l-28 38v0q-45 -33 -71 -83t-27 -110q1 -67 33 -121t86 -86t121 -33q67 1 121 33t86 86t33 121q-1 60 -27 110t-71 83l-28 -38v0q36 -27 57 -67q20 -40 21 -88
q-2 -82 -56 -136q-55 -54 -136 -56q-82 2 -136 56t-56 136v0z" />
    <glyph glyph-name="u1F319" unicode="&#x1f319;" horiz-adv-x="384" 
d="M288 407q-31 9 -64 9q-16 0 -31 -2q-84 -13 -137 -74q-54 -61 -56 -148q1 -63 31 -113q29 -51 80 -80q50 -30 113 -31q43 0 80 15q16 6 31 14q27 16 49 38q-24 -6 -49 -6q-19 0 -37 3q-67 15 -110 66q-43 52 -44 123q0 44 18 82t50 65q6 5 12 9q29 21 64 30v0zM126 338
q-30 -52 -30 -117q0 -66 31 -119q30 -53 82 -85q-69 7 -114 56q-45 48 -47 119q0 46 21 84t57 62v0z" />
    <glyph glyph-name="u1F319" unicode="&#xf186;" horiz-adv-x="384" 
d="M288 407q-31 9 -64 9q-16 0 -31 -2q-84 -13 -137 -74q-54 -61 -56 -148q1 -63 31 -113q29 -51 80 -80q50 -30 113 -31q43 0 80 15q16 6 31 14q27 16 49 38q-24 -6 -49 -6q-19 0 -37 3q-67 15 -110 66q-43 52 -44 123q0 44 18 82t50 65q6 5 12 9q29 21 64 30v0zM126 338
q-30 -52 -30 -117q0 -66 31 -119q30 -53 82 -85q-69 7 -114 56q-45 48 -47 119q0 46 21 84t57 62v0z" />
    <glyph glyph-name="u1F319" unicode="&#x23fe;" horiz-adv-x="384" 
d="M288 407q-31 9 -64 9q-16 0 -31 -2q-84 -13 -137 -74q-54 -61 -56 -148q1 -63 31 -113q29 -51 80 -80q50 -30 113 -31q43 0 80 15q16 6 31 14q27 16 49 38q-24 -6 -49 -6q-19 0 -37 3q-67 15 -110 66q-43 52 -44 123q0 44 18 82t50 65q6 5 12 9q29 21 64 30v0zM126 338
q-30 -52 -30 -117q0 -66 31 -119q30 -53 82 -85q-69 7 -114 56q-45 48 -47 119q0 46 21 84t57 62v0z" />
    <glyph glyph-name="uniF47E" unicode="&#xf47e;" 
d="M256 400q57 0 104 -28v0v0q47 -27 76 -76q28 -49 28 -104t-28 -104q-29 -49 -76 -76q-47 -28 -104 -28t-104 28q-47 27 -76 76q-28 49 -28 104t28 104q29 49 76 76q47 28 104 28v0zM256 -64q70 1 128 34v0v0q58 34 94 94q34 61 34 128t-34 128q-36 60 -94 94
q-58 33 -128 34q-70 -1 -128 -34q-58 -34 -94 -94q-34 -61 -34 -128t34 -128q36 -60 94 -94q58 -33 128 -34v0zM368 296v24v-24v24h-48v0v-24v0v-80v0h-128v0v80v0v24v0h-48v0v-24v0v-80v0v-48v0v-80v0v-24v0h48v0v24v0v80v0h128v0v-80v0v-24v0h48v0v24v0v104v0v104v0z" />
    <glyph glyph-name="uniF47E" unicode="&#x24bd;" 
d="M256 400q57 0 104 -28v0v0q47 -27 76 -76q28 -49 28 -104t-28 -104q-29 -49 -76 -76q-47 -28 -104 -28t-104 28q-47 27 -76 76q-28 49 -28 104t28 104q29 49 76 76q47 28 104 28v0zM256 -64q70 1 128 34v0v0q58 34 94 94q34 61 34 128t-34 128q-36 60 -94 94
q-58 33 -128 34q-70 -1 -128 -34q-58 -34 -94 -94q-34 -61 -34 -128t34 -128q36 -60 94 -94q58 -33 128 -34v0zM368 296v24v-24v24h-48v0v-24v0v-80v0h-128v0v80v0v24v0h-48v0v-24v0v-80v0v-48v0v-80v0v-24v0h48v0v24v0v80v0h128v0v-80v0v-24v0h48v0v24v0v104v0v104v0z" />
    <glyph glyph-name="uniF0C8" unicode="&#xf0c8;" horiz-adv-x="448" 
d="M400 368v-352v352v-352h-352v0v352v0h352v0zM48 416h-48h48h-48v-48v0v-352v0v-48v0h48h400v48v0v352v0v48v0h-48h-352z" />
    <glyph glyph-name="uniF0C8" unicode="&#xf096;" horiz-adv-x="448" 
d="M400 368v-352v352v-352h-352v0v352v0h352v0zM48 416h-48h48h-48v-48v0v-352v0v-48v0h48h400v48v0v352v0v48v0h-48h-352z" />
    <glyph glyph-name="uniF0C8" unicode="&#x25fc;" horiz-adv-x="448" 
d="M400 368v-352v352v-352h-352v0v352v0h352v0zM48 416h-48h48h-48v-48v0v-352v0v-48v0h48h400v48v0v352v0v48v0h-48h-352z" />
    <glyph glyph-name="uniF0C8" unicode="&#x25fb;" horiz-adv-x="448" 
d="M400 368v-352v352v-352h-352v0v352v0h352v0zM48 416h-48h48h-48v-48v0v-352v0v-48v0h48h400v48v0v352v0v48v0h-48h-352z" />
    <glyph glyph-name="uniF0C8" unicode="&#x25a0;" horiz-adv-x="448" 
d="M400 368v-352v352v-352h-352v0v352v0h352v0zM48 416h-48h48h-48v-48v0v-352v0v-48v0h48h400v48v0v352v0v48v0h-48h-352z" />
    <glyph glyph-name="uniF2FA" unicode="&#xf2fa;" 
d="M464 336v-288v288v-288h-416v0v288v0h416v0zM48 384h-48h48h-48v-48v0v-288v0v-48v0h48h464v48v0v288v0v48v0h-48h-416z" />
    <glyph glyph-name="uniF2FA" unicode="&#x25ac;" 
d="M464 336v-288v288v-288h-416v0v288v0h416v0zM48 384h-48h48h-48v-48v0v-288v0v-48v0h48h464v48v0v288v0v48v0h-48h-416z" />
    <glyph glyph-name="uniF2EC" unicode="&#xf2ec;" 
d="M0 -32l27 48l-27 -48l27 48l201 352v0l28 48v0l28 -48v0l201 -352v0l27 -48v0h-55h-457zM256 319l-173 -303l173 303l-173 -303h346v0l-173 303v0z" />
    <glyph glyph-name="uniF2EC" unicode="&#x25b2;" 
d="M0 -32l27 48l-27 -48l27 48l201 352v0l28 48v0l28 -48v0l201 -352v0l27 -48v0h-55h-457zM256 319l-173 -303l173 303l-173 -303h346v0l-173 303v0z" />
    <glyph glyph-name="uniF04B" unicode="&#xf04b;" horiz-adv-x="384" 
d="M0 416v-56v56v-56v-336v0v-56v0l48 28v0l288 168v0l48 28v0l-48 28v0l-288 168v0l-48 28v0zM48 332l241 -140l-241 140l241 -140l-241 -140v0v280v0z" />
    <glyph glyph-name="uniF04B" unicode="&#x25b6;" horiz-adv-x="384" 
d="M0 416v-56v56v-56v-336v0v-56v0l48 28v0l288 168v0l48 28v0l-48 28v0l-288 168v0l-48 28v0zM48 332l241 -140l-241 140l241 -140l-241 -140v0v280v0z" />
    <glyph glyph-name="u1F7E4" unicode="&#x1f7e4;" 
d="M256 400q57 0 104 -28v0v0q47 -27 76 -76q28 -49 28 -104t-28 -104q-29 -49 -76 -76q-47 -28 -104 -28t-104 28q-47 27 -76 76q-28 49 -28 104t28 104q29 49 76 76q47 28 104 28v0zM256 -64q70 1 128 34v0v0q58 34 94 94q34 61 34 128t-34 128q-36 60 -94 94
q-58 33 -128 34q-70 -1 -128 -34q-58 -34 -94 -94q-34 -61 -34 -128t34 -128q36 -60 94 -94q58 -33 128 -34v0z" />
    <glyph glyph-name="u1F7E4" unicode="&#x1f7e3;" 
d="M256 400q57 0 104 -28v0v0q47 -27 76 -76q28 -49 28 -104t-28 -104q-29 -49 -76 -76q-47 -28 -104 -28t-104 28q-47 27 -76 76q-28 49 -28 104t28 104q29 49 76 76q47 28 104 28v0zM256 -64q70 1 128 34v0v0q58 34 94 94q34 61 34 128t-34 128q-36 60 -94 94
q-58 33 -128 34q-70 -1 -128 -34q-58 -34 -94 -94q-34 -61 -34 -128t34 -128q36 -60 94 -94q58 -33 128 -34v0z" />
    <glyph glyph-name="u1F7E4" unicode="&#x1f7e2;" 
d="M256 400q57 0 104 -28v0v0q47 -27 76 -76q28 -49 28 -104t-28 -104q-29 -49 -76 -76q-47 -28 -104 -28t-104 28q-47 27 -76 76q-28 49 -28 104t28 104q29 49 76 76q47 28 104 28v0zM256 -64q70 1 128 34v0v0q58 34 94 94q34 61 34 128t-34 128q-36 60 -94 94
q-58 33 -128 34q-70 -1 -128 -34q-58 -34 -94 -94q-34 -61 -34 -128t34 -128q36 -60 94 -94q58 -33 128 -34v0z" />
    <glyph glyph-name="u1F7E4" unicode="&#x1f7e1;" 
d="M256 400q57 0 104 -28v0v0q47 -27 76 -76q28 -49 28 -104t-28 -104q-29 -49 -76 -76q-47 -28 -104 -28t-104 28q-47 27 -76 76q-28 49 -28 104t28 104q29 49 76 76q47 28 104 28v0zM256 -64q70 1 128 34v0v0q58 34 94 94q34 61 34 128t-34 128q-36 60 -94 94
q-58 33 -128 34q-70 -1 -128 -34q-58 -34 -94 -94q-34 -61 -34 -128t34 -128q36 -60 94 -94q58 -33 128 -34v0z" />
    <glyph glyph-name="u1F7E4" unicode="&#x1f7e0;" 
d="M256 400q57 0 104 -28v0v0q47 -27 76 -76q28 -49 28 -104t-28 -104q-29 -49 -76 -76q-47 -28 -104 -28t-104 28q-47 27 -76 76q-28 49 -28 104t28 104q29 49 76 76q47 28 104 28v0zM256 -64q70 1 128 34v0v0q58 34 94 94q34 61 34 128t-34 128q-36 60 -94 94
q-58 33 -128 34q-70 -1 -128 -34q-58 -34 -94 -94q-34 -61 -34 -128t34 -128q36 -60 94 -94q58 -33 128 -34v0z" />
    <glyph glyph-name="u1F7E4" unicode="&#x1f535;" 
d="M256 400q57 0 104 -28v0v0q47 -27 76 -76q28 -49 28 -104t-28 -104q-29 -49 -76 -76q-47 -28 -104 -28t-104 28q-47 27 -76 76q-28 49 -28 104t28 104q29 49 76 76q47 28 104 28v0zM256 -64q70 1 128 34v0v0q58 34 94 94q34 61 34 128t-34 128q-36 60 -94 94
q-58 33 -128 34q-70 -1 -128 -34q-58 -34 -94 -94q-34 -61 -34 -128t34 -128q36 -60 94 -94q58 -33 128 -34v0z" />
    <glyph glyph-name="u1F7E4" unicode="&#x1f534;" 
d="M256 400q57 0 104 -28v0v0q47 -27 76 -76q28 -49 28 -104t-28 -104q-29 -49 -76 -76q-47 -28 -104 -28t-104 28q-47 27 -76 76q-28 49 -28 104t28 104q29 49 76 76q47 28 104 28v0zM256 -64q70 1 128 34v0v0q58 34 94 94q34 61 34 128t-34 128q-36 60 -94 94
q-58 33 -128 34q-70 -1 -128 -34q-58 -34 -94 -94q-34 -61 -34 -128t34 -128q36 -60 94 -94q58 -33 128 -34v0z" />
    <glyph glyph-name="u1F7E4" unicode="&#xf1db;" 
d="M256 400q57 0 104 -28v0v0q47 -27 76 -76q28 -49 28 -104t-28 -104q-29 -49 -76 -76q-47 -28 -104 -28t-104 28q-47 27 -76 76q-28 49 -28 104t28 104q29 49 76 76q47 28 104 28v0zM256 -64q70 1 128 34v0v0q58 34 94 94q34 61 34 128t-34 128q-36 60 -94 94
q-58 33 -128 34q-70 -1 -128 -34q-58 -34 -94 -94q-34 -61 -34 -128t34 -128q36 -60 94 -94q58 -33 128 -34v0z" />
    <glyph glyph-name="u1F7E4" unicode="&#xf111;" 
d="M256 400q57 0 104 -28v0v0q47 -27 76 -76q28 -49 28 -104t-28 -104q-29 -49 -76 -76q-47 -28 -104 -28t-104 28q-47 27 -76 76q-28 49 -28 104t28 104q29 49 76 76q47 28 104 28v0zM256 -64q70 1 128 34v0v0q58 34 94 94q34 61 34 128t-34 128q-36 60 -94 94
q-58 33 -128 34q-70 -1 -128 -34q-58 -34 -94 -94q-34 -61 -34 -128t34 -128q36 -60 94 -94q58 -33 128 -34v0z" />
    <glyph glyph-name="u1F7E4" unicode="&#xf10c;" 
d="M256 400q57 0 104 -28v0v0q47 -27 76 -76q28 -49 28 -104t-28 -104q-29 -49 -76 -76q-47 -28 -104 -28t-104 28q-47 27 -76 76q-28 49 -28 104t28 104q29 49 76 76q47 28 104 28v0zM256 -64q70 1 128 34v0v0q58 34 94 94q34 61 34 128t-34 128q-36 60 -94 94
q-58 33 -128 34q-70 -1 -128 -34q-58 -34 -94 -94q-34 -61 -34 -128t34 -128q36 -60 94 -94q58 -33 128 -34v0z" />
    <glyph glyph-name="u1F7E4" unicode="&#x2b24;" 
d="M256 400q57 0 104 -28v0v0q47 -27 76 -76q28 -49 28 -104t-28 -104q-29 -49 -76 -76q-47 -28 -104 -28t-104 28q-47 27 -76 76q-28 49 -28 104t28 104q29 49 76 76q47 28 104 28v0zM256 -64q70 1 128 34v0v0q58 34 94 94q34 61 34 128t-34 128q-36 60 -94 94
q-58 33 -128 34q-70 -1 -128 -34q-58 -34 -94 -94q-34 -61 -34 -128t34 -128q36 -60 94 -94q58 -33 128 -34v0z" />
    <glyph glyph-name="u1F7E4" unicode="&#x26ab;" 
d="M256 400q57 0 104 -28v0v0q47 -27 76 -76q28 -49 28 -104t-28 -104q-29 -49 -76 -76q-47 -28 -104 -28t-104 28q-47 27 -76 76q-28 49 -28 104t28 104q29 49 76 76q47 28 104 28v0zM256 -64q70 1 128 34v0v0q58 34 94 94q34 61 34 128t-34 128q-36 60 -94 94
q-58 33 -128 34q-70 -1 -128 -34q-58 -34 -94 -94q-34 -61 -34 -128t34 -128q36 -60 94 -94q58 -33 128 -34v0z" />
    <glyph glyph-name="u1F7E4" unicode="&#x26aa;" 
d="M256 400q57 0 104 -28v0v0q47 -27 76 -76q28 -49 28 -104t-28 -104q-29 -49 -76 -76q-47 -28 -104 -28t-104 28q-47 27 -76 76q-28 49 -28 104t28 104q29 49 76 76q47 28 104 28v0zM256 -64q70 1 128 34v0v0q58 34 94 94q34 61 34 128t-34 128q-36 60 -94 94
q-58 33 -128 34q-70 -1 -128 -34q-58 -34 -94 -94q-34 -61 -34 -128t34 -128q36 -60 94 -94q58 -33 128 -34v0z" />
    <glyph glyph-name="u1F7E4" unicode="&#x25cf;" 
d="M256 400q57 0 104 -28v0v0q47 -27 76 -76q28 -49 28 -104t-28 -104q-29 -49 -76 -76q-47 -28 -104 -28t-104 28q-47 27 -76 76q-28 49 -28 104t28 104q29 49 76 76q47 28 104 28v0zM256 -64q70 1 128 34v0v0q58 34 94 94q34 61 34 128t-34 128q-36 60 -94 94
q-58 33 -128 34q-70 -1 -128 -34q-58 -34 -94 -94q-34 -61 -34 -128t34 -128q36 -60 94 -94q58 -33 128 -34v0z" />
    <glyph glyph-name="uniF042" unicode="&#xf042;" 
d="M464 192q-2 88 -61 147v0v0q-59 59 -147 61v-416v0q88 2 147 61t61 147v0zM0 192q1 70 34 128v0v0q34 58 94 94q61 34 128 34t128 -34q60 -36 94 -94q33 -58 34 -128q-1 -70 -34 -128q-34 -58 -94 -94q-61 -34 -128 -34t-128 34q-60 36 -94 94q-33 58 -34 128v0z" />
    <glyph glyph-name="uniF042" unicode="&#x25d0;" 
d="M464 192q-2 88 -61 147v0v0q-59 59 -147 61v-416v0q88 2 147 61t61 147v0zM0 192q1 70 34 128v0v0q34 58 94 94q61 34 128 34t128 -34q60 -36 94 -94q33 -58 34 -128q-1 -70 -34 -128q-34 -58 -94 -94q-61 -34 -128 -34t-128 34q-60 36 -94 94q-33 58 -34 128v0z" />
    <glyph glyph-name="uniF185" unicode="&#xf185;" 
d="M193 425l63 -34l-63 34l63 -34l63 34v0l43 23v0l14 -47v0l21 -68v0l68 -21v0l47 -14v0l-23 -43v0l-34 -63v0l34 -63v0l23 -43v0l-47 -14v0l-68 -21v0l-21 -68v0l-14 -47v0l-43 23v0l-63 34v0l-63 -34v0l-43 -23v0l-14 47v0l-21 68v0l-68 21v0l-47 14v0l23 43v0l34 63v0
l-34 63v0l-23 43v0l47 14v0l68 21v0l21 68v0l14 47v0l43 -23v0zM279 349l-23 -13l23 13l-23 -13l-23 13v0l-54 29v0l-18 -59v0l-7 -25v0l-25 -7v0l-59 -18v0l29 -54v0l13 -23v0l-13 -23v0l-29 -54v0l59 -18v0l25 -7v0l7 -25v0l18 -59v0l54 29v0l23 13v0l23 -13v0l54 -29v0
l18 59v0l7 25v0l25 7v0l59 18v0l-29 54v0l-13 23v0l13 23v0l29 54v0l-59 18v0l-25 7v0l-7 25v0l-18 59v0l-54 -29v0zM256 304q30 0 56 -15v0v0q26 -15 41 -41t15 -56t-15 -56t-41 -41t-56 -15t-56 15t-41 41t-15 56t15 56t41 41t56 15v0zM320 192q-1 36 -32 55q-32 18 -64 0
q-31 -19 -32 -55q1 -36 32 -55q32 -18 64 0q31 19 32 55v0z" />
    <glyph glyph-name="uniF185" unicode="&#x2600;" 
d="M193 425l63 -34l-63 34l63 -34l63 34v0l43 23v0l14 -47v0l21 -68v0l68 -21v0l47 -14v0l-23 -43v0l-34 -63v0l34 -63v0l23 -43v0l-47 -14v0l-68 -21v0l-21 -68v0l-14 -47v0l-43 23v0l-63 34v0l-63 -34v0l-43 -23v0l-14 47v0l-21 68v0l-68 21v0l-47 14v0l23 43v0l34 63v0
l-34 63v0l-23 43v0l47 14v0l68 21v0l21 68v0l14 47v0l43 -23v0zM279 349l-23 -13l23 13l-23 -13l-23 13v0l-54 29v0l-18 -59v0l-7 -25v0l-25 -7v0l-59 -18v0l29 -54v0l13 -23v0l-13 -23v0l-29 -54v0l59 -18v0l25 -7v0l7 -25v0l18 -59v0l54 29v0l23 13v0l23 -13v0l54 -29v0
l18 59v0l7 25v0l25 7v0l59 18v0l-29 54v0l-13 23v0l13 23v0l29 54v0l-59 18v0l-25 7v0l-7 25v0l-18 59v0l-54 -29v0zM256 304q30 0 56 -15v0v0q26 -15 41 -41t15 -56t-15 -56t-41 -41t-56 -15t-56 15t-41 41t-15 56t15 56t41 41t56 15v0zM320 192q-1 36 -32 55q-32 18 -64 0
q-31 -19 -32 -55q1 -36 32 -55q32 -18 64 0q31 19 32 55v0z" />
    <glyph glyph-name="uniF0C2" unicode="&#xf0c2;" horiz-adv-x="640" 
d="M96 248q-43 -16 -69 -52v0v0q-26 -36 -27 -84v-96v0v-48v0h48h592v48v0v80v0q-1 46 -27 79q-27 34 -69 45v20v0q-1 54 -37 91q-37 36 -91 37q-21 0 -40 -6q-46 52 -120 54q-68 -2 -113 -47t-47 -113v-8v0zM592 16h-80h80h-544v96v0q0 32 18 56q17 24 46 34l32 12v0v34v0
v8v0q1 48 33 79q31 32 79 33q52 -1 84 -38l21 -24v0l30 10v0q12 4 25 4q34 -1 57 -24q22 -22 23 -56v-20v0v-37v0l36 -10v0q26 -7 43 -28q16 -21 17 -49v-80v0z" />
    <glyph glyph-name="uniF0C2" unicode="&#x2601;" horiz-adv-x="640" 
d="M96 248q-43 -16 -69 -52v0v0q-26 -36 -27 -84v-96v0v-48v0h48h592v48v0v80v0q-1 46 -27 79q-27 34 -69 45v20v0q-1 54 -37 91q-37 36 -91 37q-21 0 -40 -6q-46 52 -120 54q-68 -2 -113 -47t-47 -113v-8v0zM592 16h-80h80h-544v96v0q0 32 18 56q17 24 46 34l32 12v0v34v0
v8v0q1 48 33 79q31 32 79 33q52 -1 84 -38l21 -24v0l30 10v0q12 4 25 4q34 -1 57 -24q22 -22 23 -56v-20v0v-37v0l36 -10v0q26 -7 43 -28q16 -21 17 -49v-80v0z" />
    <glyph glyph-name="uniF7D0" unicode="&#xf7d0;" 
d="M256 448q-51 -1 -85 -35v0v0q-34 -34 -35 -85q0 -29 12 -53q-11 -14 -17 -31l-27 12v0v40v0v24v0h-48v0v-24v0v-20v0l-14 7v0l-23 9v0l-18 -44v0l22 -10v0l48 -20v0l49 -21v0v-5v0q0 -19 5 -36q-28 -40 -29 -92q0 -37 15 -69q16 -31 42 -53l7 -6v0h8h184l7 6v0
q26 22 42 53q15 32 15 69q-1 52 -29 92q5 17 5 36v5l49 21v0l48 21v0l23 9v0l-19 44v0l-22 -9v0l-15 -7v0v20v0v24v0h-48v0v-24v0v-40v0l-26 -12v0q-7 17 -18 31q12 24 12 53q-1 51 -35 85t-85 35v0zM184 328q1 31 21 51v0v0q20 20 51 21q31 -1 51 -21t21 -51q0 -24 -13 -42
l-12 -17v0l14 -14v0q26 -25 27 -63q0 -17 -6 -32l-5 -13v0l9 -11v0q25 -30 26 -72q-1 -48 -34 -80h-156v0q-33 32 -34 80q1 42 26 72l9 11v0l-5 13v0q-6 15 -6 32q1 38 27 63l14 14v0l-12 17v0q-13 18 -13 42v0zM272 224h-32h32h-32v-32v0h32v0v32v0zM272 128v32v-32v32h-32
v0v-32v0h32v0zM272 96h-32h32h-32v-32v0h32v0v32v0zM224 328q15 1 16 16q-1 15 -16 16q-15 -1 -16 -16q1 -15 16 -16v0zM304 344q-1 15 -16 16q-15 -1 -16 -16q1 -15 16 -16q15 1 16 16v0zM240 304q0 -5 2 -9l14 -23v0l14 23v0q2 4 2 9v0v0q-1 15 -16 16q-15 -1 -16 -16v0v0
z" />
    <glyph glyph-name="uniF7D0" unicode="&#x26c4;" 
d="M256 448q-51 -1 -85 -35v0v0q-34 -34 -35 -85q0 -29 12 -53q-11 -14 -17 -31l-27 12v0v40v0v24v0h-48v0v-24v0v-20v0l-14 7v0l-23 9v0l-18 -44v0l22 -10v0l48 -20v0l49 -21v0v-5v0q0 -19 5 -36q-28 -40 -29 -92q0 -37 15 -69q16 -31 42 -53l7 -6v0h8h184l7 6v0
q26 22 42 53q15 32 15 69q-1 52 -29 92q5 17 5 36v5l49 21v0l48 21v0l23 9v0l-19 44v0l-22 -9v0l-15 -7v0v20v0v24v0h-48v0v-24v0v-40v0l-26 -12v0q-7 17 -18 31q12 24 12 53q-1 51 -35 85t-85 35v0zM184 328q1 31 21 51v0v0q20 20 51 21q31 -1 51 -21t21 -51q0 -24 -13 -42
l-12 -17v0l14 -14v0q26 -25 27 -63q0 -17 -6 -32l-5 -13v0l9 -11v0q25 -30 26 -72q-1 -48 -34 -80h-156v0q-33 32 -34 80q1 42 26 72l9 11v0l-5 13v0q-6 15 -6 32q1 38 27 63l14 14v0l-12 17v0q-13 18 -13 42v0zM272 224h-32h32h-32v-32v0h32v0v32v0zM272 128v32v-32v32h-32
v0v-32v0h32v0zM272 96h-32h32h-32v-32v0h32v0v32v0zM224 328q15 1 16 16q-1 15 -16 16q-15 -1 -16 -16q1 -15 16 -16v0zM304 344q-1 15 -16 16q-15 -1 -16 -16q1 -15 16 -16q15 1 16 16v0zM240 304q0 -5 2 -9l14 -23v0l14 23v0q2 4 2 9v0v0q-1 15 -16 16q-15 -1 -16 -16v0v0
z" />
    <glyph glyph-name="uniF7D0" unicode="&#x2603;" 
d="M256 448q-51 -1 -85 -35v0v0q-34 -34 -35 -85q0 -29 12 -53q-11 -14 -17 -31l-27 12v0v40v0v24v0h-48v0v-24v0v-20v0l-14 7v0l-23 9v0l-18 -44v0l22 -10v0l48 -20v0l49 -21v0v-5v0q0 -19 5 -36q-28 -40 -29 -92q0 -37 15 -69q16 -31 42 -53l7 -6v0h8h184l7 6v0
q26 22 42 53q15 32 15 69q-1 52 -29 92q5 17 5 36v5l49 21v0l48 21v0l23 9v0l-19 44v0l-22 -9v0l-15 -7v0v20v0v24v0h-48v0v-24v0v-40v0l-26 -12v0q-7 17 -18 31q12 24 12 53q-1 51 -35 85t-85 35v0zM184 328q1 31 21 51v0v0q20 20 51 21q31 -1 51 -21t21 -51q0 -24 -13 -42
l-12 -17v0l14 -14v0q26 -25 27 -63q0 -17 -6 -32l-5 -13v0l9 -11v0q25 -30 26 -72q-1 -48 -34 -80h-156v0q-33 32 -34 80q1 42 26 72l9 11v0l-5 13v0q-6 15 -6 32q1 38 27 63l14 14v0l-12 17v0q-13 18 -13 42v0zM272 224h-32h32h-32v-32v0h32v0v32v0zM272 128v32v-32v32h-32
v0v-32v0h32v0zM272 96h-32h32h-32v-32v0h32v0v32v0zM224 328q15 1 16 16q-1 15 -16 16q-15 -1 -16 -16q1 -15 16 -16v0zM304 344q-1 15 -16 16q-15 -1 -16 -16q1 -15 16 -16q15 1 16 16v0zM240 304q0 -5 2 -9l14 -23v0l14 23v0q2 4 2 9v0v0q-1 15 -16 16q-15 -1 -16 -16v0v0
z" />
    <glyph glyph-name="uniF753" unicode="&#xf753;" 
d="M304 432l-50 -29l50 29l-50 -29l-153 -88v0q-47 -28 -74 -75q-27 -46 -27 -101q2 -86 59 -144q58 -57 144 -59q55 0 101 27q47 27 75 74l88 153v0l29 50v0l-7 -1v0l-51 -4v0h-2v0l18 50v0l37 105v0l21 58v0l-58 -21v0l-105 -37v0l-50 -18v0l1 2v0l3 50v0l1 8v0zM125 273
l124 72l-124 -72l124 72l-3 -43v0l70 25v0l117 42v0l-42 -118v0l-25 -69v0l43 3v0l-72 -124v0q-21 -36 -57 -56q-35 -21 -77 -21q-66 2 -110 45q-43 44 -45 110q0 42 21 77q20 36 56 57v0zM200 24q30 0 56 15v0v0q26 15 41 41t15 56t-15 56t-41 41t-56 15t-56 -15t-41 -41
t-15 -56t15 -56t41 -41t56 -15v0zM176 184q22 -2 24 -24q-2 -22 -24 -24q-22 2 -24 24q2 22 24 24v0zM200 88q1 15 16 16q15 -1 16 -16q-1 -15 -16 -16q-15 1 -16 16v0z" />
    <glyph glyph-name="uniF753" unicode="&#x2604;" 
d="M304 432l-50 -29l50 29l-50 -29l-153 -88v0q-47 -28 -74 -75q-27 -46 -27 -101q2 -86 59 -144q58 -57 144 -59q55 0 101 27q47 27 75 74l88 153v0l29 50v0l-7 -1v0l-51 -4v0h-2v0l18 50v0l37 105v0l21 58v0l-58 -21v0l-105 -37v0l-50 -18v0l1 2v0l3 50v0l1 8v0zM125 273
l124 72l-124 -72l124 72l-3 -43v0l70 25v0l117 42v0l-42 -118v0l-25 -69v0l43 3v0l-72 -124v0q-21 -36 -57 -56q-35 -21 -77 -21q-66 2 -110 45q-43 44 -45 110q0 42 21 77q20 36 56 57v0zM200 24q30 0 56 15v0v0q26 15 41 41t15 56t-15 56t-41 41t-56 15t-56 -15t-41 -41
t-15 -56t15 -56t41 -41t56 -15v0zM176 184q22 -2 24 -24q-2 -22 -24 -24q-22 2 -24 24q2 22 24 24v0zM200 88q1 15 16 16q15 -1 16 -16q-1 -15 -16 -16q-15 1 -16 16v0z" />
    <glyph glyph-name="uniF8D3" unicode="&#xf8d3;" 
d="M0 240v80v-80v80q0 2 31 25q30 23 88 46q57 23 137 25q80 -2 137 -25q58 -23 88 -46q31 -23 31 -25v-80v0h-96v0l-32 80v0q0 1 -34 12q-33 10 -94 12q-60 -2 -94 -12q-33 -11 -34 -12l-32 -80v0h-96v0zM256 64q36 1 55 32q18 32 0 64q-19 31 -55 32q-36 -1 -55 -32
q-18 -32 0 -64q19 -31 55 -32v0zM32 -32v96v-96v96l128 224v0h192v0l128 -224v0v-96v0h-448v0zM432 16v35v-35v35l-108 189v0h-136v0l-108 -189v0v-35v0h352v0z" />
    <glyph glyph-name="uniF8D3" unicode="&#x260e;" 
d="M0 240v80v-80v80q0 2 31 25q30 23 88 46q57 23 137 25q80 -2 137 -25q58 -23 88 -46q31 -23 31 -25v-80v0h-96v0l-32 80v0q0 1 -34 12q-33 10 -94 12q-60 -2 -94 -12q-33 -11 -34 -12l-32 -80v0h-96v0zM256 64q36 1 55 32q18 32 0 64q-19 31 -55 32q-36 -1 -55 -32
q-18 -32 0 -64q19 -31 55 -32v0zM32 -32v96v-96v96l128 224v0h192v0l128 -224v0v-96v0h-448v0zM432 16v35v-35v35l-108 189v0h-136v0l-108 -189v0v-35v0h352v0z" />
    <glyph glyph-name="uniF14A" unicode="&#xf14a;" horiz-adv-x="448" 
d="M48 368v-352v352v-352h352v0v352v0h-352v0zM0 416h48h-48h448v-48v0v-352v0v-48v0h-48h-400v48v0v352v0v48v0zM337 239l-128 -128l128 128l-128 -128l-17 -17v0l-17 17v0l-64 64v0l-17 17v0l34 34v0l17 -17v0l47 -47v0l111 111v0l17 17v0l34 -34v0l-17 -17v0z" />
    <glyph glyph-name="uniF14A" unicode="&#xf046;" horiz-adv-x="448" 
d="M48 368v-352v352v-352h352v0v352v0h-352v0zM0 416h48h-48h448v-48v0v-352v0v-48v0h-48h-400v48v0v352v0v48v0zM337 239l-128 -128l128 128l-128 -128l-17 -17v0l-17 17v0l-64 64v0l-17 17v0l34 34v0l17 -17v0l47 -47v0l111 111v0l17 17v0l34 -34v0l-17 -17v0z" />
    <glyph glyph-name="uniF14A" unicode="&#x2705;" horiz-adv-x="448" 
d="M48 368v-352v352v-352h352v0v352v0h-352v0zM0 416h48h-48h448v-48v0v-352v0v-48v0h-48h-400v48v0v352v0v48v0zM337 239l-128 -128l128 128l-128 -128l-17 -17v0l-17 17v0l-64 64v0l-17 17v0l34 34v0l17 -17v0l47 -47v0l111 111v0l17 17v0l34 -34v0l-17 -17v0z" />
    <glyph glyph-name="uniF14A" unicode="&#x2611;" horiz-adv-x="448" 
d="M48 368v-352v352v-352h352v0v352v0h-352v0zM0 416h48h-48h448v-48v0v-352v0v-48v0h-48h-400v48v0v352v0v48v0zM337 239l-128 -128l128 128l-128 -128l-17 -17v0l-17 17v0l-64 64v0l-17 17v0l34 34v0l17 -17v0l47 -47v0l111 111v0l17 17v0l34 -34v0l-17 -17v0z" />
    <glyph glyph-name="uniF7B6" unicode="&#xf7b6;" 
d="M112 448v-24v24v-24q0 -12 6 -20t18 -18l1 -1v0q13 -10 25 -27q13 -17 14 -46v-24v0h-48v0v24v0q0 12 -6 20t-18 18l-1 1v0q-13 10 -25 27q-13 17 -14 46v24v0h48v0zM48 208v-224v224v-224h288v0v224v0h-288v0zM0 256h48h-48h400q48 -1 79 -33q32 -31 33 -79
q-1 -48 -33 -79q-31 -32 -79 -33h-16v0v-48v0v-48v0h-48h-336v48v0v224v0v48v0zM384 80h16h-16h16q27 1 45 19t19 45q-1 27 -19 45t-45 19h-16v0v-128v0zM224 424q0 -12 6 -20v0v0q6 -8 18 -18l1 -1v0q13 -10 25 -27q13 -17 14 -46v-24v0h-48v0v24v0q0 12 -6 20t-18 18l-1 1
v0q-13 10 -25 27q-13 17 -14 46v24v0h48v0v-24v0z" />
    <glyph glyph-name="uniF7B6" unicode="&#x2615;" 
d="M112 448v-24v24v-24q0 -12 6 -20t18 -18l1 -1v0q13 -10 25 -27q13 -17 14 -46v-24v0h-48v0v24v0q0 12 -6 20t-18 18l-1 1v0q-13 10 -25 27q-13 17 -14 46v24v0h48v0zM48 208v-224v224v-224h288v0v224v0h-288v0zM0 256h48h-48h400q48 -1 79 -33q32 -31 33 -79
q-1 -48 -33 -79q-31 -32 -79 -33h-16v0v-48v0v-48v0h-48h-336v48v0v224v0v48v0zM384 80h16h-16h16q27 1 45 19t19 45q-1 27 -19 45t-45 19h-16v0v-128v0zM224 424q0 -12 6 -20v0v0q6 -8 18 -18l1 -1v0q13 -10 25 -27q13 -17 14 -46v-24v0h-48v0v24v0q0 12 -6 20t-18 18l-1 1
v0q-13 10 -25 27q-13 17 -14 46v24v0h48v0v-24v0z" />
    <glyph glyph-name="uniF0A6" unicode="&#xf0a6;" horiz-adv-x="384" 
d="M40 448h-24h24h-24v-24v0v-216v0h-16v0v-24v0v-56v0v0v0v-24v0v0v0q2 -71 49 -119q48 -47 119 -49h48v0q71 2 119 49q47 48 49 119v0v0v0v0v88v0v40v0v24v0h-24h-56v16v0h-24h-56v8v0v24v0h-24h-56v120v0v24v0h-24h-80zM336 192v-80v80v-80h-32v0v96v0h32v0v-16v0z
M329 64q-13 -36 -43 -57v0v0q-30 -22 -70 -23h-48v0q-51 1 -85 35t-35 85v0v0v24v0v0v0v32v0h72h56v-32v0h-56h-24v-48v0h24h136v-16v0h24h49zM96 208h-32h32h-32v192v0h32v0v-96v0v-24v0v-72v0zM176 208h-32h32h-32v48v0h32v0v-8v0v-40v0zM224 224h32h-32h32v-96v0h-32v0
v56v0v40v0z" />
    <glyph glyph-name="uniF0A6" unicode="&#x261d;" horiz-adv-x="384" 
d="M40 448h-24h24h-24v-24v0v-216v0h-16v0v-24v0v-56v0v0v0v-24v0v0v0q2 -71 49 -119q48 -47 119 -49h48v0q71 2 119 49q47 48 49 119v0v0v0v0v88v0v40v0v24v0h-24h-56v16v0h-24h-56v8v0v24v0h-24h-56v120v0v24v0h-24h-80zM336 192v-80v80v-80h-32v0v96v0h32v0v-16v0z
M329 64q-13 -36 -43 -57v0v0q-30 -22 -70 -23h-48v0q-51 1 -85 35t-35 85v0v0v24v0v0v0v32v0h72h56v-32v0h-56h-24v-48v0h24h136v-16v0h24h49zM96 208h-32h32h-32v192v0h32v0v-96v0v-24v0v-72v0zM176 208h-32h32h-32v48v0h32v0v-8v0v-40v0zM224 224h32h-32h32v-96v0h-32v0
v56v0v40v0z" />
    <glyph glyph-name="u1F571" unicode="&#x1f571;" horiz-adv-x="448" 
d="M290 262l-18 -14l18 14l-18 -14v-24v0v-16v0h-96v0v17v0v23v0l-18 14v0q-30 25 -30 58q1 31 26 55q26 24 70 25q44 -1 70 -25q25 -24 26 -55q0 -33 -30 -58v0zM368 320q-2 54 -42 91v0v0q-41 36 -102 37q-61 -1 -102 -37q-40 -37 -42 -91q2 -59 48 -95v-17v0v-48v0h48
h144v48v0v17v0q46 36 48 95v0zM426 192l-21 -11l21 11l-21 -11l-181 -90v0l-181 90v0l-22 11v0l-21 -43v0l21 -11v0l149 -74v0l-149 -74v0l-21 -11v0l21 -43v0l22 11v0l181 90v0l181 -90v0l22 -11v0l21 43v0l-21 11v0l-149 74v0l148 74v0l22 11v0l-22 43v0zM208 312
q-2 22 -24 24q-22 -2 -24 -24q2 -22 24 -24q22 2 24 24v0zM264 288q22 2 24 24q-2 22 -24 24q-22 -2 -24 -24q2 -22 24 -24v0z" />
    <glyph glyph-name="u1F571" unicode="&#xf714;" horiz-adv-x="448" 
d="M290 262l-18 -14l18 14l-18 -14v-24v0v-16v0h-96v0v17v0v23v0l-18 14v0q-30 25 -30 58q1 31 26 55q26 24 70 25q44 -1 70 -25q25 -24 26 -55q0 -33 -30 -58v0zM368 320q-2 54 -42 91v0v0q-41 36 -102 37q-61 -1 -102 -37q-40 -37 -42 -91q2 -59 48 -95v-17v0v-48v0h48
h144v48v0v17v0q46 36 48 95v0zM426 192l-21 -11l21 11l-21 -11l-181 -90v0l-181 90v0l-22 11v0l-21 -43v0l21 -11v0l149 -74v0l-149 -74v0l-21 -11v0l21 -43v0l22 11v0l181 90v0l181 -90v0l22 -11v0l21 43v0l-21 11v0l-149 74v0l148 74v0l22 11v0l-22 43v0zM208 312
q-2 22 -24 24q-22 -2 -24 -24q2 -22 24 -24q22 2 24 24v0zM264 288q22 2 24 24q-2 22 -24 24q-22 -2 -24 -24q2 -22 24 -24v0z" />
    <glyph glyph-name="u1F571" unicode="&#x2620;" horiz-adv-x="448" 
d="M290 262l-18 -14l18 14l-18 -14v-24v0v-16v0h-96v0v17v0v23v0l-18 14v0q-30 25 -30 58q1 31 26 55q26 24 70 25q44 -1 70 -25q25 -24 26 -55q0 -33 -30 -58v0zM368 320q-2 54 -42 91v0v0q-41 36 -102 37q-61 -1 -102 -37q-40 -37 -42 -91q2 -59 48 -95v-17v0v-48v0h48
h144v48v0v17v0q46 36 48 95v0zM426 192l-21 -11l21 11l-21 -11l-181 -90v0l-181 90v0l-22 11v0l-21 -43v0l21 -11v0l149 -74v0l-149 -74v0l-21 -11v0l21 -43v0l22 11v0l181 90v0l181 -90v0l22 -11v0l21 43v0l-21 11v0l-149 74v0l148 74v0l22 11v0l-22 43v0zM208 312
q-2 22 -24 24q-22 -2 -24 -24q2 -22 24 -24q22 2 24 24v0zM264 288q22 2 24 24q-2 22 -24 24q-22 -2 -24 -24q2 -22 24 -24v0z" />
    <glyph glyph-name="uniF7BA" unicode="&#xf7ba;" 
d="M256 400q57 0 104 -28v0v0q47 -27 76 -76q28 -49 28 -104t-28 -104q-29 -49 -76 -76q-47 -28 -104 -28t-104 28q-47 27 -76 76q-28 49 -28 104t28 104q29 49 76 76q47 28 104 28v0zM256 -64q70 1 128 34v0v0q58 34 94 94q34 61 34 128t-34 128q-36 60 -94 94
q-58 33 -128 34q-70 -1 -128 -34q-58 -34 -94 -94q-34 -61 -34 -128t34 -128q36 -60 94 -94q58 -33 128 -34v0zM200 192q1 32 28 48l-52 91v0q-36 -22 -58 -58q-21 -36 -22 -81h104v0zM228 143l-52 -90l52 90l-52 -90q36 -21 80 -21t80 21l-52 90v0q-12 -7 -28 -7
q-15 0 -28 7v0zM312 192h104h-104h104q-1 45 -22 81q-22 36 -58 58l-52 -91v0q27 -16 28 -48v0zM256 160q14 0 23 9v0v0q9 9 9 23t-9 23t-23 9t-23 -9t-9 -23t9 -23t23 -9v0z" />
    <glyph glyph-name="uniF7BA" unicode="&#x2622;" 
d="M256 400q57 0 104 -28v0v0q47 -27 76 -76q28 -49 28 -104t-28 -104q-29 -49 -76 -76q-47 -28 -104 -28t-104 28q-47 27 -76 76q-28 49 -28 104t28 104q29 49 76 76q47 28 104 28v0zM256 -64q70 1 128 34v0v0q58 34 94 94q34 61 34 128t-34 128q-36 60 -94 94
q-58 33 -128 34q-70 -1 -128 -34q-58 -34 -94 -94q-34 -61 -34 -128t34 -128q36 -60 94 -94q58 -33 128 -34v0zM200 192q1 32 28 48l-52 91v0q-36 -22 -58 -58q-21 -36 -22 -81h104v0zM228 143l-52 -90l52 90l-52 -90q36 -21 80 -21t80 21l-52 90v0q-12 -7 -28 -7
q-15 0 -28 7v0zM312 192h104h-104h104q-1 45 -22 81q-22 36 -58 58l-52 -91v0q27 -16 28 -48v0zM256 160q14 0 23 9v0v0q9 9 9 23t-9 23t-23 9t-23 -9t-9 -23t9 -23t23 -9v0z" />
    <glyph glyph-name="uniF780" unicode="&#xf780;" horiz-adv-x="576" 
d="M167 445q-45 -47 -47 -117q0 -39 17 -73q-34 -3 -66 -21q-51 -29 -71 -79q46 37 105 34t99 -65q36 -65 9 -116t-83 -70q55 -8 107 19q31 18 51 44q20 -26 51 -44q52 -27 107 -19q-56 19 -83 70t9 116q40 62 99 65q60 3 105 -34q-20 50 -71 79q-32 18 -66 21q17 34 17 73
q-2 70 -47 117q12 -39 3 -78q-9 -40 -40 -67t-84 -28q-53 1 -84 28t-40 67q-9 39 3 78v0zM240 176q1 27 24 42q24 12 48 0q23 -15 24 -42q-1 -27 -24 -42q-24 -12 -48 0q-23 15 -24 42v0zM288 384q-49 0 -90 -20q3 -9 8 -17q8 -13 20 -23q29 12 62 12t62 -12q12 10 20 23
q5 8 8 17q-41 20 -90 20v0zM192 48q-50 38 -62 102q-14 6 -28 7q-11 1 -21 0q5 -49 29 -88q24 -40 62 -66q7 9 12 19q6 12 8 26v0zM495 157q-10 1 -21 0q-14 -1 -28 -7q-12 -64 -62 -102q2 -14 8 -26q5 -10 12 -19q38 26 62 66q24 39 29 88v0z" />
    <glyph glyph-name="uniF780" unicode="&#x2623;" horiz-adv-x="576" 
d="M167 445q-45 -47 -47 -117q0 -39 17 -73q-34 -3 -66 -21q-51 -29 -71 -79q46 37 105 34t99 -65q36 -65 9 -116t-83 -70q55 -8 107 19q31 18 51 44q20 -26 51 -44q52 -27 107 -19q-56 19 -83 70t9 116q40 62 99 65q60 3 105 -34q-20 50 -71 79q-32 18 -66 21q17 34 17 73
q-2 70 -47 117q12 -39 3 -78q-9 -40 -40 -67t-84 -28q-53 1 -84 28t-40 67q-9 39 3 78v0zM240 176q1 27 24 42q24 12 48 0q23 -15 24 -42q-1 -27 -24 -42q-24 -12 -48 0q-23 15 -24 42v0zM288 384q-49 0 -90 -20q3 -9 8 -17q8 -13 20 -23q29 12 62 12t62 -12q12 10 20 23
q5 8 8 17q-41 20 -90 20v0zM192 48q-50 38 -62 102q-14 6 -28 7q-11 1 -21 0q5 -49 29 -88q24 -40 62 -66q7 9 12 19q6 12 8 26v0zM495 157q-10 1 -21 0q-14 -1 -28 -7q-12 -64 -62 -102q2 -14 8 -26q5 -10 12 -19q38 26 62 66q24 39 29 88v0z" />
    <glyph glyph-name="uniF644" unicode="&#xf644;" horiz-adv-x="320" 
d="M80 320q1 -32 15 -61v0v0q15 -28 36 -52q16 -16 29 -27q13 11 29 27q21 24 36 52q14 29 15 61q-1 34 -23 57q-23 22 -57 23q-34 -1 -57 -23q-22 -23 -23 -57v0zM95 176q-25 26 -43 63v0v0q-19 36 -20 81q1 54 37 91q37 36 91 37q54 -1 91 -37q36 -37 37 -91
q-1 -45 -20 -81q-18 -37 -43 -63h71h24v-48v0h-24h-112v-168v0v-24v0h-48v0v24v0v168v0h-112h-24v48v0h24h71z" />
    <glyph glyph-name="uniF644" unicode="&#x2625;" horiz-adv-x="320" 
d="M80 320q1 -32 15 -61v0v0q15 -28 36 -52q16 -16 29 -27q13 11 29 27q21 24 36 52q14 29 15 61q-1 34 -23 57q-23 22 -57 23q-34 -1 -57 -23q-22 -23 -23 -57v0zM95 176q-25 26 -43 63v0v0q-19 36 -20 81q1 54 37 91q37 36 91 37q54 -1 91 -37q36 -37 37 -91
q-1 -45 -20 -81q-18 -37 -43 -63h71h24v-48v0h-24h-112v-168v0v-24v0h-48v0v24v0v168v0h-112h-24v48v0h24h71z" />
    <glyph glyph-name="uniF699" unicode="&#xf699;" 
d="M120 192q2 85 57 143v0v0q55 58 139 65h12q67 -1 119 -37q-49 53 -119 75l-8 2q-31 8 -64 8q-72 -1 -129 -35q-58 -34 -92 -92q-34 -57 -35 -129q1 -72 35 -129q34 -58 92 -92q57 -34 129 -35q33 0 64 8h1q3 1 7 2q70 22 119 75q-52 -36 -119 -37h-12q-84 7 -139 65
t-57 143v0zM80 192q1 -65 30 -118v0v0q29 -53 79 -87q-66 22 -107 77t-42 128q1 73 42 128t107 77q-50 -34 -79 -87t-30 -118v0zM411 274l-27 54l27 -54l-27 54l-27 -54v0l-15 -32v0l-35 -5v0l-60 -9v0l43 -42v0l26 -24v0l-6 -35v0l-11 -59v0l54 28v0l31 16v0l31 -16v0
l54 -29v0l-11 60v0l-5 35v0l25 24v0l43 42v0l-60 9v0l-35 5v0l-15 32v0zM395 198l23 -3l-23 3l23 -3l-17 -17v0l4 -23v0l-21 11v0l-21 -11v0l4 23v0l-17 17v0l24 3v0l10 21v0l10 -21h1z" />
    <glyph glyph-name="uniF699" unicode="&#x262a;" 
d="M120 192q2 85 57 143v0v0q55 58 139 65h12q67 -1 119 -37q-49 53 -119 75l-8 2q-31 8 -64 8q-72 -1 -129 -35q-58 -34 -92 -92q-34 -57 -35 -129q1 -72 35 -129q34 -58 92 -92q57 -34 129 -35q33 0 64 8h1q3 1 7 2q70 22 119 75q-52 -36 -119 -37h-12q-84 7 -139 65
t-57 143v0zM80 192q1 -65 30 -118v0v0q29 -53 79 -87q-66 22 -107 77t-42 128q1 73 42 128t107 77q-50 -34 -79 -87t-30 -118v0zM411 274l-27 54l27 -54l-27 54l-27 -54v0l-15 -32v0l-35 -5v0l-60 -9v0l43 -42v0l26 -24v0l-6 -35v0l-11 -59v0l54 28v0l31 16v0l31 -16v0
l54 -29v0l-11 60v0l-5 35v0l25 24v0l43 42v0l-60 9v0l-35 5v0l-15 32v0zM395 198l23 -3l-23 3l23 -3l-17 -17v0l4 -23v0l-21 11v0l-21 -11v0l4 23v0l-17 17v0l24 3v0l10 21v0l10 -21h1z" />
    <glyph glyph-name="uniF66D" unicode="&#xf66d;" 
d="M192 400l64 48l-64 -48l64 48l64 -48v0q-1 -1 -14 -28q28 -14 45 -40t17 -60t-17 -60t-45 -41q13 -26 14 -27l-48 -36v0v-23v0l35 24v0v0v0q44 29 76 66t33 92q0 36 -9 73q-9 38 -23 60q1 0 18 -9q17 -10 40 -29q27 -21 48 -55q21 -35 22 -83q-2 -49 -29 -92
q-27 -44 -54 -72q-27 -27 -29 -28l-83 45v0l-33 -22v0l46 -32v0q3 1 6 1q22 -2 24 -24q-2 -22 -24 -24q-20 2 -24 21l-40 28v0v-29v0q15 -9 16 -28q0 -14 -9 -23t-23 -9t-23 9t-9 23q1 19 16 28v29v0l-40 -28v0q-4 -19 -24 -21q-22 2 -24 24q2 22 24 24q3 0 6 -1l46 32v0
l-33 22v0l-83 -45v0q-2 1 -29 28q-27 28 -54 72q-27 43 -29 92q1 48 22 83q21 34 48 55q23 19 40 29q17 9 18 9v0q-14 -22 -23 -60q-9 -37 -9 -73q1 -55 33 -92t76 -66h1v0l34 -24v0v23v0l-48 36v0q1 1 15 27q-29 15 -46 41t-17 60t17 60t46 40q-14 27 -15 28v0v0zM192 272
q2 -37 32 -55q7 26 8 55q-1 29 -8 55q-30 -18 -32 -55v0zM280 272q1 -29 8 -55q30 18 32 55q-2 37 -32 55q-7 -26 -8 -55v0zM40 224q0 -26 14 -54v0v0q13 -27 34 -53q17 -22 31 -36l32 18v0q-37 27 -65 68q-29 41 -30 100q0 10 1 19q-16 -26 -17 -62v0zM472 224
q-1 36 -17 62q1 -9 1 -19q-1 -59 -30 -100q-28 -41 -65 -68l32 -18v0q14 14 31 36q21 26 34 53q14 28 14 54v0z" />
    <glyph glyph-name="uniF66D" unicode="&#x262c;" 
d="M192 400l64 48l-64 -48l64 48l64 -48v0q-1 -1 -14 -28q28 -14 45 -40t17 -60t-17 -60t-45 -41q13 -26 14 -27l-48 -36v0v-23v0l35 24v0v0v0q44 29 76 66t33 92q0 36 -9 73q-9 38 -23 60q1 0 18 -9q17 -10 40 -29q27 -21 48 -55q21 -35 22 -83q-2 -49 -29 -92
q-27 -44 -54 -72q-27 -27 -29 -28l-83 45v0l-33 -22v0l46 -32v0q3 1 6 1q22 -2 24 -24q-2 -22 -24 -24q-20 2 -24 21l-40 28v0v-29v0q15 -9 16 -28q0 -14 -9 -23t-23 -9t-23 9t-9 23q1 19 16 28v29v0l-40 -28v0q-4 -19 -24 -21q-22 2 -24 24q2 22 24 24q3 0 6 -1l46 32v0
l-33 22v0l-83 -45v0q-2 1 -29 28q-27 28 -54 72q-27 43 -29 92q1 48 22 83q21 34 48 55q23 19 40 29q17 9 18 9v0q-14 -22 -23 -60q-9 -37 -9 -73q1 -55 33 -92t76 -66h1v0l34 -24v0v23v0l-48 36v0q1 1 15 27q-29 15 -46 41t-17 60t17 60t46 40q-14 27 -15 28v0v0zM192 272
q2 -37 32 -55q7 26 8 55q-1 29 -8 55q-30 -18 -32 -55v0zM280 272q1 -29 8 -55q30 18 32 55q-2 37 -32 55q-7 -26 -8 -55v0zM40 224q0 -26 14 -54v0v0q13 -27 34 -53q17 -22 31 -36l32 18v0q-37 27 -65 68q-29 41 -30 100q0 10 1 19q-16 -26 -17 -62v0zM472 224
q-1 36 -17 62q1 -9 1 -19q-1 -59 -30 -100q-28 -41 -65 -68l32 -18v0q14 14 31 36q21 26 34 53q14 28 14 54v0z" />
    <glyph glyph-name="uniF67C" unicode="&#xf67c;" 
d="M232 -15v156v-156v156l-121 -98v0q50 -48 121 -58v0zM81 80l151 123l-151 -123l151 123v196v0q-79 -11 -131 -68q-51 -57 -53 -139q1 -63 33 -112v0zM401 43l-121 98l121 -98l-121 98v-156v0q71 10 121 58v0zM431 80q32 49 33 112q-2 82 -53 139q-52 57 -131 68v-196v0
l151 -123v0zM0 192q1 70 34 128v0v0q34 58 94 94q61 34 128 34t128 -34q60 -36 94 -94q33 -58 34 -128q-1 -70 -34 -128q-34 -58 -94 -94q-61 -34 -128 -34t-128 34q-60 36 -94 94q-33 58 -34 128v0z" />
    <glyph glyph-name="uniF67C" unicode="&#x262e;" 
d="M232 -15v156v-156v156l-121 -98v0q50 -48 121 -58v0zM81 80l151 123l-151 -123l151 123v196v0q-79 -11 -131 -68q-51 -57 -53 -139q1 -63 33 -112v0zM401 43l-121 98l121 -98l-121 98v-156v0q71 10 121 58v0zM431 80q32 49 33 112q-2 82 -53 139q-52 57 -131 68v-196v0
l151 -123v0zM0 192q1 70 34 128v0v0q34 58 94 94q61 34 128 34t128 -34q60 -36 94 -94q33 -58 34 -128q-1 -70 -34 -128q-34 -58 -94 -94q-61 -34 -128 -34t-128 34q-60 36 -94 94q-33 58 -34 128v0z" />
    <glyph glyph-name="uniF6AD" unicode="&#xf6ad;" 
d="M464 192q0 49 -20 90v0v0q-20 41 -55 70q7 -21 7 -44q-2 -59 -41 -99q-40 -39 -99 -41q-39 -1 -65 -27t-27 -65q1 -39 27 -65t65 -27q88 2 147 61t61 147v0zM256 -64q-70 1 -128 34v0v0q-58 34 -94 94q-34 61 -34 128t34 128q36 60 94 94q58 33 128 34q70 -1 128 -34
q58 -34 94 -94q34 -61 34 -128t-34 -128q-36 -60 -94 -94q-58 -33 -128 -34v0zM123 32q-7 21 -7 44q1 60 41 99q40 40 99 41q39 1 65 27t27 65q-1 39 -27 65t-65 27q-88 -2 -147 -61t-61 -147q0 -49 20 -90t55 -70v0zM216 304l40 40l-40 -40l40 40l40 -40v0l-40 -40v0
l-40 40v0zM256 120l40 -40l-40 40l40 -40l-40 -40v0l-40 40v0l40 40v0z" />
    <glyph glyph-name="uniF6AD" unicode="&#x262f;" 
d="M464 192q0 49 -20 90v0v0q-20 41 -55 70q7 -21 7 -44q-2 -59 -41 -99q-40 -39 -99 -41q-39 -1 -65 -27t-27 -65q1 -39 27 -65t65 -27q88 2 147 61t61 147v0zM256 -64q-70 1 -128 34v0v0q-58 34 -94 94q-34 61 -34 128t34 128q36 60 94 94q58 33 128 34q70 -1 128 -34
q58 -34 94 -94q34 -61 34 -128t-34 -128q-36 -60 -94 -94q-58 -33 -128 -34v0zM123 32q-7 21 -7 44q1 60 41 99q40 40 99 41q39 1 65 27t27 65q-1 39 -27 65t-65 27q-88 -2 -147 -61t-61 -147q0 -49 20 -90t55 -70v0zM216 304l40 40l-40 -40l40 40l40 -40v0l-40 -40v0
l-40 40v0zM256 120l40 -40l-40 40l40 -40l-40 -40v0l-40 40v0l40 40v0z" />
    <glyph glyph-name="uniF655" unicode="&#xf655;" 
d="M232 448l1 -33l-1 33l1 -33q-68 -8 -118 -49l-23 24v0l-34 -34v0l24 -23v0q-41 -50 -49 -118l-33 1v0v-48v0l33 1v0q8 -68 49 -119l-24 -22v0l34 -34v0l23 24v0q50 -41 118 -49l-1 -33v0h48v0l-1 33v0q68 8 119 49l22 -24v0l34 34v0l-24 22v0q41 51 49 119l33 -1v0v48v0
l-33 -1v0q-8 68 -49 118l24 23v0l-34 34v0l-22 -24v0q-51 41 -119 49l1 33v0h-48v0zM147 54l55 59l-55 -59l55 59q16 -12 36 -15l-3 -81v0q-50 7 -88 37v0zM177 138l-59 -55l59 55l-59 -55q-30 38 -37 88l81 3v0q3 -20 15 -36v0zM81 213q7 50 37 88l59 -55v0
q-12 -16 -15 -36l-81 3v0zM256 240q27 -1 42 -24q12 -24 0 -48q-15 -23 -42 -24q-27 1 -42 24q-12 24 0 48q15 23 42 24v0zM202 271l-55 59l55 -59l-55 59q38 30 88 37l3 -81v0q-20 -3 -36 -15v0zM277 367q50 -7 88 -37l-55 -59v0q-16 12 -36 15l3 81v0zM365 54
q-38 -30 -88 -37l-3 81v0q20 4 36 15l55 -59v0zM394 83l-59 55l59 -55l-59 55q12 16 15 36l81 -3v0q-7 -50 -37 -88v0zM394 301q30 -38 37 -88l-81 -3v0q-4 20 -15 36l59 55v0z" />
    <glyph glyph-name="uniF655" unicode="&#x2638;" 
d="M232 448l1 -33l-1 33l1 -33q-68 -8 -118 -49l-23 24v0l-34 -34v0l24 -23v0q-41 -50 -49 -118l-33 1v0v-48v0l33 1v0q8 -68 49 -119l-24 -22v0l34 -34v0l23 24v0q50 -41 118 -49l-1 -33v0h48v0l-1 33v0q68 8 119 49l22 -24v0l34 34v0l-24 22v0q41 51 49 119l33 -1v0v48v0
l-33 -1v0q-8 68 -49 118l24 23v0l-34 34v0l-22 -24v0q-51 41 -119 49l1 33v0h-48v0zM147 54l55 59l-55 -59l55 59q16 -12 36 -15l-3 -81v0q-50 7 -88 37v0zM177 138l-59 -55l59 55l-59 -55q-30 38 -37 88l81 3v0q3 -20 15 -36v0zM81 213q7 50 37 88l59 -55v0
q-12 -16 -15 -36l-81 3v0zM256 240q27 -1 42 -24q12 -24 0 -48q-15 -23 -42 -24q-27 1 -42 24q-12 24 0 48q15 23 42 24v0zM202 271l-55 59l55 -59l-55 59q38 30 88 37l3 -81v0q-20 -3 -36 -15v0zM277 367q50 -7 88 -37l-55 -59v0q-16 12 -36 15l3 81v0zM365 54
q-38 -30 -88 -37l-3 81v0q20 4 36 15l55 -59v0zM394 83l-59 55l59 -55l-59 55q12 16 15 36l81 -3v0q-7 -50 -37 -88v0zM394 301q30 -38 37 -88l-81 -3v0q-4 20 -15 36l59 55v0z" />
    <glyph glyph-name="uniF119" unicode="&#xf119;" 
d="M464 192q0 57 -28 104v0v0q-27 47 -76 76q-49 28 -104 28t-104 -28q-49 -29 -76 -76q-28 -47 -28 -104t28 -104q27 -47 76 -76q49 -28 104 -28t104 28q49 29 76 76q28 47 28 104v0zM0 192q1 70 34 128v0v0q34 58 94 94q61 34 128 34t128 -34q60 -36 94 -94
q33 -58 34 -128q-1 -70 -34 -128q-34 -58 -94 -94q-61 -34 -128 -34t-128 34q-60 36 -94 94q-33 58 -34 128v0zM175 64l-46 16l46 -16l-46 16q14 37 49 58q34 22 78 22t78 -22q35 -21 49 -58l-46 -16v0q-7 20 -28 34q-22 13 -53 14q-31 -1 -53 -14q-21 -14 -28 -34v0z
M144 240q1 14 10 23v0v0q9 9 22 9q14 0 23 -9t9 -23t-9 -23t-23 -9q-13 0 -22 9t-10 23v0zM336 272q14 0 23 -9v0v0q9 -9 9 -23t-9 -23t-23 -9q-13 0 -22 9t-10 23q1 14 10 23t22 9v0z" />
    <glyph glyph-name="uniF119" unicode="&#x2639;" 
d="M464 192q0 57 -28 104v0v0q-27 47 -76 76q-49 28 -104 28t-104 -28q-49 -29 -76 -76q-28 -47 -28 -104t28 -104q27 -47 76 -76q49 -28 104 -28t104 28q49 29 76 76q28 47 28 104v0zM0 192q1 70 34 128v0v0q34 58 94 94q61 34 128 34t128 -34q60 -36 94 -94
q33 -58 34 -128q-1 -70 -34 -128q-34 -58 -94 -94q-61 -34 -128 -34t-128 34q-60 36 -94 94q-33 58 -34 128v0zM175 64l-46 16l46 -16l-46 16q14 37 49 58q34 22 78 22t78 -22q35 -21 49 -58l-46 -16v0q-7 20 -28 34q-22 13 -53 14q-31 -1 -53 -14q-21 -14 -28 -34v0z
M144 240q1 14 10 23v0v0q9 9 22 9q14 0 23 -9t9 -23t-9 -23t-23 -9q-13 0 -22 9t-10 23v0zM336 272q14 0 23 -9v0v0q9 -9 9 -23t-9 -23t-23 -9q-13 0 -22 9t-10 23q1 14 10 23t22 9v0z" />
    <glyph glyph-name="uniF223" unicode="&#xf223;" horiz-adv-x="384" 
d="M51 448q17 -44 56 -70q-41 -23 -66 -63q-24 -41 -25 -91q1 -68 44 -116q42 -48 108 -58v-26v0h-32h-24v-48v0h24h32v-16v0v-24v0h48v0v24v0v16v0h32h24v48v0h-24h-32v26v0q66 10 108 58q43 48 44 116q-1 50 -25 91q-25 40 -66 63q39 26 56 70h-53v0q-14 -22 -37 -35
t-51 -13t-51 13t-37 35h-53v0zM192 352q35 0 64 -17v0v0q29 -17 47 -47q17 -30 17 -64t-17 -64q-18 -30 -47 -47t-64 -17t-64 17t-47 47q-17 30 -17 64t17 64q18 30 47 47t64 17v0z" />
    <glyph glyph-name="uniF223" unicode="&#x263f;" horiz-adv-x="384" 
d="M51 448q17 -44 56 -70q-41 -23 -66 -63q-24 -41 -25 -91q1 -68 44 -116q42 -48 108 -58v-26v0h-32h-24v-48v0h24h32v-16v0v-24v0h48v0v24v0v16v0h32h24v48v0h-24h-32v26v0q66 10 108 58q43 48 44 116q-1 50 -25 91q-25 40 -66 63q39 26 56 70h-53v0q-14 -22 -37 -35
t-51 -13t-51 13t-37 35h-53v0zM192 352q35 0 64 -17v0v0q29 -17 47 -47q17 -30 17 -64t-17 -64q-18 -30 -47 -47t-64 -17t-64 17t-47 47q-17 30 -17 64t17 64q18 30 47 47t64 17v0z" />
    <glyph glyph-name="uniF221" unicode="&#xf221;" horiz-adv-x="384" 
d="M64 272q0 35 17 64v0v0q17 29 47 47q30 17 64 17t64 -17q30 -18 47 -47t17 -64t-17 -64t-47 -47q-30 -17 -64 -17t-64 17q-30 18 -47 47t-17 64v0zM216 98q66 10 108 58v0v0q43 48 44 116q-2 75 -52 124q-49 50 -124 52q-75 -2 -124 -52q-50 -49 -52 -124q1 -68 44 -116
q42 -48 108 -58v-50v0h-48h-24v-48v0h24h48v-40v0v-24v0h48v0v24v0v40v0h48h24v48v0h-24h-48v50v0z" />
    <glyph glyph-name="uniF221" unicode="&#x2640;" horiz-adv-x="384" 
d="M64 272q0 35 17 64v0v0q17 29 47 47q30 17 64 17t64 -17q30 -18 47 -47t17 -64t-17 -64t-47 -47q-30 -17 -64 -17t-64 17q-30 18 -47 47t-17 64v0zM216 98q66 10 108 58v0v0q43 48 44 116q-2 75 -52 124q-49 50 -124 52q-75 -2 -124 -52q-50 -49 -52 -124q1 -68 44 -116
q42 -48 108 -58v-50v0h-48h-24v-48v0h24h48v-40v0v-24v0h48v0v24v0v40v0h48h24v48v0h-24h-48v50v0z" />
    <glyph glyph-name="uniF222" unicode="&#xf222;" horiz-adv-x="448" 
d="M312 416h-24h24h-24v-48v0h24h54l-84 -84v0q-45 35 -106 36q-75 -2 -124 -52q-50 -49 -52 -124q2 -75 52 -124q49 -50 124 -52q75 2 124 52q50 49 52 124q-1 61 -36 106l84 84v0v-54v0v-24v0h48v0v24v0v112v0v24v0h-24h-112zM48 144q0 35 17 64v0v0q17 29 47 47
q30 17 64 17t64 -17q30 -18 47 -47t17 -64t-17 -64t-47 -47q-30 -17 -64 -17t-64 17q-30 18 -47 47t-17 64v0z" />
    <glyph glyph-name="uniF222" unicode="&#x2642;" horiz-adv-x="448" 
d="M312 416h-24h24h-24v-48v0h24h54l-84 -84v0q-45 35 -106 36q-75 -2 -124 -52q-50 -49 -52 -124q2 -75 52 -124q49 -50 124 -52q75 2 124 52q50 49 52 124q-1 61 -36 106l84 84v0v-54v0v-24v0h48v0v24v0v112v0v24v0h-24h-112zM48 144q0 35 17 64v0v0q17 29 47 47
q30 17 64 17t64 -17q30 -18 47 -47t17 -64t-17 -64t-47 -47q-30 -17 -64 -17t-64 17q-30 18 -47 47t-17 64v0z" />
    <glyph glyph-name="uniF43F" unicode="&#xf43f;" horiz-adv-x="448" 
d="M248 424v24v-24v24h-48v0v-24v0v-32v0h-32h-24v-48v0h24h32v-40v0h-152h-48v-48v0v-24v0l59 -136v0h52v0l-63 146v0v14v0h152h200v-14v0l-63 -146v0h52v0l59 136v0v24v0v48v0h-48h-152v40v0h32h24v48v0h-24h-32v32v0zM85 -16l16 32l-16 -32l16 32h246v0l16 -32v0h-278v0z
M416 -13l-40 77l40 -77l-40 77h-304v0l-40 -77v0v-3v0v-48v0h48h336v48v0v3v0z" />
    <glyph glyph-name="uniF43F" unicode="&#x265a;" horiz-adv-x="448" 
d="M248 424v24v-24v24h-48v0v-24v0v-32v0h-32h-24v-48v0h24h32v-40v0h-152h-48v-48v0v-24v0l59 -136v0h52v0l-63 146v0v14v0h152h200v-14v0l-63 -146v0h52v0l59 136v0v24v0v48v0h-48h-152v40v0h32h24v48v0h-24h-32v32v0zM85 -16l16 32l-16 -32l16 32h246v0l16 -32v0h-278v0z
M416 -13l-40 77l40 -77l-40 77h-304v0l-40 -77v0v-3v0v-48v0h48h336v48v0v3v0z" />
    <glyph glyph-name="uniF445" unicode="&#xf445;" 
d="M256 352q27 1 42 24q12 24 0 48q-15 23 -42 24q-27 -1 -42 -24q-12 -24 0 -48q15 -23 42 -24v0zM151 360h-20h20h-20l-4 -20v0q-5 -23 -22 -37q-17 -15 -41 -15q-15 0 -28 6l-12 6v0l-11 -7v0l-2 -1v0l-19 -12v0l11 -20v0l95 -164v0h55v0l-83 144v0q31 2 55 18t38 42
q35 -42 93 -44q58 2 93 44q13 -26 38 -42q24 -16 55 -18l-83 -144v0h55v0l95 164v0l11 20v0l-20 12v0l-1 1v0l-11 7v0l-12 -6v0q-13 -6 -28 -6q-24 0 -41 15q-17 14 -22 37l-4 20v0h-20h-33l-6 -14v0q-9 -19 -27 -30q-17 -12 -39 -12t-39 12q-18 11 -26 30l-7 14v0h-15h-18z
M117 -16l16 32l-16 -32l16 32h246v0l16 -32v0h-278v0zM448 -13l-40 77l40 -77l-40 77h-304v0l-40 -77v0v-3v0v-48v0h48h336v48v0v3v0z" />
    <glyph glyph-name="uniF445" unicode="&#x265b;" 
d="M256 352q27 1 42 24q12 24 0 48q-15 23 -42 24q-27 -1 -42 -24q-12 -24 0 -48q15 -23 42 -24v0zM151 360h-20h20h-20l-4 -20v0q-5 -23 -22 -37q-17 -15 -41 -15q-15 0 -28 6l-12 6v0l-11 -7v0l-2 -1v0l-19 -12v0l11 -20v0l95 -164v0h55v0l-83 144v0q31 2 55 18t38 42
q35 -42 93 -44q58 2 93 44q13 -26 38 -42q24 -16 55 -18l-83 -144v0h55v0l95 164v0l11 20v0l-20 12v0l-1 1v0l-11 7v0l-12 -6v0q-13 -6 -28 -6q-24 0 -41 15q-17 14 -22 37l-4 20v0h-20h-33l-6 -14v0q-9 -19 -27 -30q-17 -12 -39 -12t-39 12q-18 11 -26 30l-7 14v0h-15h-18z
M117 -16l16 32l-16 -32l16 32h246v0l16 -32v0h-278v0zM448 -13l-40 77l40 -77l-40 77h-304v0l-40 -77v0v-3v0v-48v0h48h336v48v0v3v0z" />
    <glyph glyph-name="uniF447" unicode="&#xf447;" horiz-adv-x="448" 
d="M32 416h24h-24h384v-24v0v-152v0v-12v0l-10 -7v0l-53 -40v0l10 -85v0h-48v0l-11 93v0l-1 14v0l11 8v0l54 41v0v116v0h-64v0v-24v0v-24v0h-48v0v24v0v24v0h-64v0v-24v0v-24v0h-48v0v24v0v24v0h-64v0v-116v0l54 -41v0l11 -8v0l-1 -14v0l-10 -93v0h-49v0l10 85v0l-53 40v0
l-10 7v0v12v0v152v0v24v0zM101 16l-16 -32l16 32l-16 -32h278v0l-16 32v0h-246v0zM416 -16v-48v48v-48h-48h-336v48v0v3v0l40 77v0h304v0l40 -77v0v-3v0zM192 160v64v-64v64q0 14 9 23t23 9t23 -9t9 -23v-64v0h-64v0z" />
    <glyph glyph-name="uniF447" unicode="&#x265c;" horiz-adv-x="448" 
d="M32 416h24h-24h384v-24v0v-152v0v-12v0l-10 -7v0l-53 -40v0l10 -85v0h-48v0l-11 93v0l-1 14v0l11 8v0l54 41v0v116v0h-64v0v-24v0v-24v0h-48v0v24v0v24v0h-64v0v-24v0v-24v0h-48v0v24v0v24v0h-64v0v-116v0l54 -41v0l11 -8v0l-1 -14v0l-10 -93v0h-49v0l10 85v0l-53 40v0
l-10 7v0v12v0v152v0v24v0zM101 16l-16 -32l16 32l-16 -32h278v0l-16 32v0h-246v0zM416 -16v-48v48v-48h-48h-336v48v0v3v0l40 77v0h304v0l40 -77v0v-3v0zM192 160v64v-64v64q0 14 9 23t23 9t23 -9t9 -23v-64v0h-64v0z" />
    <glyph glyph-name="uniF43A" unicode="&#xf43a;" horiz-adv-x="320" 
d="M80 400h17h-17h17q-11 -12 -23 -26q-28 -32 -50 -77q-23 -46 -24 -100q1 -33 15 -55q15 -21 33 -33v-13v0h48v0v27v0v15v0l-13 6v0q-14 7 -24 20q-10 12 -11 33q1 42 19 79t43 67q25 29 45 46q1 1 3 2l2 2q1 -1 3 -2l2 -2q19 -17 44 -46q8 -9 16 -20l-66 -66v0l-17 -17v0
l34 -34v0l17 17v0l58 58v0q20 -39 21 -84q0 -21 -11 -33q-10 -13 -24 -20l-13 -6v0v-15v0v-27v0h48v0v13v0q18 12 33 33q14 22 15 55q-1 54 -24 100q-22 45 -50 77q-12 14 -23 26h17v0v48v0h-24h-48v0v0h-16v0v0v0h-48h-24v-48v0zM69 16h182h-182h182l16 -32v0h-214v0l16 32
v0zM320 -16v3v-3v3l-40 77v0h-240v0l-40 -77v0v-3v0v-48v0h48h272v48v0z" />
    <glyph glyph-name="uniF43A" unicode="&#x265d;" horiz-adv-x="320" 
d="M80 400h17h-17h17q-11 -12 -23 -26q-28 -32 -50 -77q-23 -46 -24 -100q1 -33 15 -55q15 -21 33 -33v-13v0h48v0v27v0v15v0l-13 6v0q-14 7 -24 20q-10 12 -11 33q1 42 19 79t43 67q25 29 45 46q1 1 3 2l2 2q1 -1 3 -2l2 -2q19 -17 44 -46q8 -9 16 -20l-66 -66v0l-17 -17v0
l34 -34v0l17 17v0l58 58v0q20 -39 21 -84q0 -21 -11 -33q-10 -13 -24 -20l-13 -6v0v-15v0v-27v0h48v0v13v0q18 12 33 33q14 22 15 55q-1 54 -24 100q-22 45 -50 77q-12 14 -23 26h17v0v48v0h-24h-48v0v0h-16v0v0v0h-48h-24v-48v0zM69 16h182h-182h182l16 -32v0h-214v0l16 32
v0zM320 -16v3v-3v3l-40 77v0h-240v0l-40 -77v0v-3v0v-48v0h48h272v48v0z" />
    <glyph glyph-name="uniF441" unicode="&#xf441;" horiz-adv-x="448" 
d="M88 448h-24h24h-24v-24v0v-32v0v-12v0l10 -7v0l6 -5v0l-6 -5v0l-10 -7v0v-12v0v-152v0v-12v0l10 -7v0l19 -14v0l-17 -11v0l-12 -7v0v-13v0v-32v0h48v0v18v0l125 76v0l20 13v0l-25 41v0l-20 -13v0l-74 -45v0l-26 19v0v127v0l22 17v0l26 19v0l-26 19v0l-17 13v0h110v0
q60 -2 100 -41q39 -40 41 -100q0 -13 -2 -25l-25 -138v0h49v0l23 129v0q3 17 3 34q-2 80 -55 134q-54 53 -134 55h-139v0zM69 -16l16 32l-16 -32l16 32h278v0l16 -32v0h-310v0zM432 -13l-40 77l40 -77l-40 77h-336v0l-40 -77v0v-3v0v-48v0h48h368v48v0v3v0zM172 280
q18 2 20 20q-2 18 -20 20q-18 -2 -20 -20q2 -18 20 -20v0z" />
    <glyph glyph-name="uniF441" unicode="&#x265e;" horiz-adv-x="448" 
d="M88 448h-24h24h-24v-24v0v-32v0v-12v0l10 -7v0l6 -5v0l-6 -5v0l-10 -7v0v-12v0v-152v0v-12v0l10 -7v0l19 -14v0l-17 -11v0l-12 -7v0v-13v0v-32v0h48v0v18v0l125 76v0l20 13v0l-25 41v0l-20 -13v0l-74 -45v0l-26 19v0v127v0l22 17v0l26 19v0l-26 19v0l-17 13v0h110v0
q60 -2 100 -41q39 -40 41 -100q0 -13 -2 -25l-25 -138v0h49v0l23 129v0q3 17 3 34q-2 80 -55 134q-54 53 -134 55h-139v0zM69 -16l16 32l-16 -32l16 32h278v0l16 -32v0h-310v0zM432 -13l-40 77l40 -77l-40 77h-336v0l-40 -77v0v-3v0v-48v0h48h368v48v0v3v0zM172 280
q18 2 20 20q-2 18 -20 20q-18 -2 -20 -20q2 -18 20 -20v0z" />
    <glyph glyph-name="uniF443" unicode="&#xf443;" horiz-adv-x="320" 
d="M232 296q-1 41 -36 62q-36 20 -72 0q-35 -21 -36 -62q1 -41 36 -62q36 -20 72 0q35 21 36 62v0zM256 176h-13h13h-13l11 -80v0h-48v0l-11 80v0h-35h-35l-11 -80v0h-48v0l11 80v0h-13h-24v48v0h24v0q-23 31 -24 72q1 51 35 85t85 35q51 -1 85 -35t35 -85q-1 -41 -24 -72
h24v0v-48v0h-24v0zM69 16l-16 -32l16 32l-16 -32h214v0l-16 32v0h-182v0zM320 -16v-48v48v-48h-48h-272v48v0v3v0l40 77v0h240v0l40 -77v0v-3v0z" />
    <glyph glyph-name="uniF443" unicode="&#x265f;" horiz-adv-x="320" 
d="M232 296q-1 41 -36 62q-36 20 -72 0q-35 -21 -36 -62q1 -41 36 -62q36 -20 72 0q35 21 36 62v0zM256 176h-13h13h-13l11 -80v0h-48v0l-11 80v0h-35h-35l-11 -80v0h-48v0l11 80v0h-13h-24v48v0h24v0q-23 31 -24 72q1 51 35 85t85 35q51 -1 85 -35t35 -85q-1 -41 -24 -72
h24v0v-48v0h-24v0zM69 16l-16 -32l16 32l-16 -32h214v0l-16 32v0h-182v0zM320 -16v-48v48v-48h-48h-272v48v0v3v0l40 77v0h240v0l40 -77v0v-3v0z" />
    <glyph glyph-name="uniF2F4" unicode="&#xf2f4;" 
d="M40 40q39 -38 90 -40v0v0q51 -2 93 31q5 4 9 9v-56v0h-48h-24v-48v0h24h168v48v0h-24h-48v56v0q4 -5 9 -9q42 -33 93 -31t90 40q40 42 40 96t-40 96l-216 216v0l-216 -216v0q-40 -42 -40 -96t40 -96v0zM74 74q-26 27 -26 62v0v0q0 35 26 62v0v0l182 182v0l182 -182v0v0v0
q26 -27 26 -62t-26 -62q-27 -26 -62 -26t-62 26l-24 24v0l-34 34v0l-34 -34v0l-24 -24v0q-27 -26 -62 -26t-62 26v0z" />
    <glyph glyph-name="uniF2F4" unicode="&#x2660;" 
d="M40 40q39 -38 90 -40v0v0q51 -2 93 31q5 4 9 9v-56v0h-48h-24v-48v0h24h168v48v0h-24h-48v56v0q4 -5 9 -9q42 -33 93 -31t90 40q40 42 40 96t-40 96l-216 216v0l-216 -216v0q-40 -42 -40 -96t40 -96v0zM74 74q-26 27 -26 62v0v0q0 35 26 62v0v0l182 182v0l182 -182v0v0v0
q26 -27 26 -62t-26 -62q-27 -26 -62 -26t-62 26l-24 24v0l-34 34v0l-34 -34v0l-24 -24v0q-27 -26 -62 -26t-62 26v0z" />
    <glyph glyph-name="uniF327" unicode="&#xf327;" 
d="M352 311l2 -34l-2 34l2 -34l33 -9v0q34 -9 55 -36t22 -64q-1 -44 -30 -74q-30 -29 -74 -30q-42 1 -71 28l-33 31v0l-33 -31v0q-29 -27 -71 -28q-44 1 -74 30q-29 30 -30 74q1 37 22 64t55 36l33 9v0l2 34v0q4 38 31 63q26 25 65 26q39 -1 65 -26q27 -25 31 -63v0z
M400 315q-6 57 -46 94v0v0q-40 38 -98 39q-58 -1 -98 -39q-40 -37 -46 -94q-49 -14 -80 -54q-31 -39 -32 -93q2 -65 45 -107q42 -43 107 -45q45 1 80 23v-55v0h-48h-24v-48v0h24h168v48v0h-24h-48v55v0q35 -22 80 -23q65 2 107 45q43 42 45 107q-1 54 -32 93q-31 40 -80 54
v0z" />
    <glyph glyph-name="uniF327" unicode="&#x2663;" 
d="M352 311l2 -34l-2 34l2 -34l33 -9v0q34 -9 55 -36t22 -64q-1 -44 -30 -74q-30 -29 -74 -30q-42 1 -71 28l-33 31v0l-33 -31v0q-29 -27 -71 -28q-44 1 -74 30q-29 30 -30 74q1 37 22 64t55 36l33 9v0l2 34v0q4 38 31 63q26 25 65 26q39 -1 65 -26q27 -25 31 -63v0z
M400 315q-6 57 -46 94v0v0q-40 38 -98 39q-58 -1 -98 -39q-40 -37 -46 -94q-49 -14 -80 -54q-31 -39 -32 -93q2 -65 45 -107q42 -43 107 -45q45 1 80 23v-55v0h-48h-24v-48v0h24h168v48v0h-24h-48v55v0q35 -22 80 -23q65 2 107 45q43 42 45 107q-1 54 -32 93q-31 40 -80 54
v0z" />
    <glyph glyph-name="u1F9E1" unicode="&#x1f9e1;" 
d="M256 284l-34 34l34 -34l-34 34l-24 24v0q-26 25 -62 26q-38 -1 -62 -26q-25 -24 -26 -62q0 -36 26 -62l24 -24v0l158 -158v0l158 158v0l24 24v0q26 26 26 62q-1 38 -26 62q-24 25 -62 26q-36 0 -62 -26l-24 -24v0l-34 -34v0zM290 2l-34 -34l34 34l-34 -34l-34 34v0
l-158 158v0l-24 24v0q-39 40 -40 96q1 58 40 96q38 39 96 40q56 -1 96 -40l24 -24v0l24 24v0v0v0q40 39 96 40q58 -1 96 -40q39 -38 40 -96q-1 -56 -40 -96l-24 -24v0l-158 -158v0z" />
    <glyph glyph-name="u1F9E1" unicode="&#x1f90e;" 
d="M256 284l-34 34l34 -34l-34 34l-24 24v0q-26 25 -62 26q-38 -1 -62 -26q-25 -24 -26 -62q0 -36 26 -62l24 -24v0l158 -158v0l158 158v0l24 24v0q26 26 26 62q-1 38 -26 62q-24 25 -62 26q-36 0 -62 -26l-24 -24v0l-34 -34v0zM290 2l-34 -34l34 34l-34 -34l-34 34v0
l-158 158v0l-24 24v0q-39 40 -40 96q1 58 40 96q38 39 96 40q56 -1 96 -40l24 -24v0l24 24v0v0v0q40 39 96 40q58 -1 96 -40q39 -38 40 -96q-1 -56 -40 -96l-24 -24v0l-158 -158v0z" />
    <glyph glyph-name="u1F9E1" unicode="&#x1f90d;" 
d="M256 284l-34 34l34 -34l-34 34l-24 24v0q-26 25 -62 26q-38 -1 -62 -26q-25 -24 -26 -62q0 -36 26 -62l24 -24v0l158 -158v0l158 158v0l24 24v0q26 26 26 62q-1 38 -26 62q-24 25 -62 26q-36 0 -62 -26l-24 -24v0l-34 -34v0zM290 2l-34 -34l34 34l-34 -34l-34 34v0
l-158 158v0l-24 24v0q-39 40 -40 96q1 58 40 96q38 39 96 40q56 -1 96 -40l24 -24v0l24 24v0v0v0q40 39 96 40q58 -1 96 -40q39 -38 40 -96q-1 -56 -40 -96l-24 -24v0l-158 -158v0z" />
    <glyph glyph-name="u1F9E1" unicode="&#x1f5a4;" 
d="M256 284l-34 34l34 -34l-34 34l-24 24v0q-26 25 -62 26q-38 -1 -62 -26q-25 -24 -26 -62q0 -36 26 -62l24 -24v0l158 -158v0l158 158v0l24 24v0q26 26 26 62q-1 38 -26 62q-24 25 -62 26q-36 0 -62 -26l-24 -24v0l-34 -34v0zM290 2l-34 -34l34 34l-34 -34l-34 34v0
l-158 158v0l-24 24v0q-39 40 -40 96q1 58 40 96q38 39 96 40q56 -1 96 -40l24 -24v0l24 24v0v0v0q40 39 96 40q58 -1 96 -40q39 -38 40 -96q-1 -56 -40 -96l-24 -24v0l-158 -158v0z" />
    <glyph glyph-name="u1F9E1" unicode="&#x1f49c;" 
d="M256 284l-34 34l34 -34l-34 34l-24 24v0q-26 25 -62 26q-38 -1 -62 -26q-25 -24 -26 -62q0 -36 26 -62l24 -24v0l158 -158v0l158 158v0l24 24v0q26 26 26 62q-1 38 -26 62q-24 25 -62 26q-36 0 -62 -26l-24 -24v0l-34 -34v0zM290 2l-34 -34l34 34l-34 -34l-34 34v0
l-158 158v0l-24 24v0q-39 40 -40 96q1 58 40 96q38 39 96 40q56 -1 96 -40l24 -24v0l24 24v0v0v0q40 39 96 40q58 -1 96 -40q39 -38 40 -96q-1 -56 -40 -96l-24 -24v0l-158 -158v0z" />
    <glyph glyph-name="u1F9E1" unicode="&#x1f49b;" 
d="M256 284l-34 34l34 -34l-34 34l-24 24v0q-26 25 -62 26q-38 -1 -62 -26q-25 -24 -26 -62q0 -36 26 -62l24 -24v0l158 -158v0l158 158v0l24 24v0q26 26 26 62q-1 38 -26 62q-24 25 -62 26q-36 0 -62 -26l-24 -24v0l-34 -34v0zM290 2l-34 -34l34 34l-34 -34l-34 34v0
l-158 158v0l-24 24v0q-39 40 -40 96q1 58 40 96q38 39 96 40q56 -1 96 -40l24 -24v0l24 24v0v0v0q40 39 96 40q58 -1 96 -40q39 -38 40 -96q-1 -56 -40 -96l-24 -24v0l-158 -158v0z" />
    <glyph glyph-name="u1F9E1" unicode="&#x1f49a;" 
d="M256 284l-34 34l34 -34l-34 34l-24 24v0q-26 25 -62 26q-38 -1 -62 -26q-25 -24 -26 -62q0 -36 26 -62l24 -24v0l158 -158v0l158 158v0l24 24v0q26 26 26 62q-1 38 -26 62q-24 25 -62 26q-36 0 -62 -26l-24 -24v0l-34 -34v0zM290 2l-34 -34l34 34l-34 -34l-34 34v0
l-158 158v0l-24 24v0q-39 40 -40 96q1 58 40 96q38 39 96 40q56 -1 96 -40l24 -24v0l24 24v0v0v0q40 39 96 40q58 -1 96 -40q39 -38 40 -96q-1 -56 -40 -96l-24 -24v0l-158 -158v0z" />
    <glyph glyph-name="u1F9E1" unicode="&#x1f499;" 
d="M256 284l-34 34l34 -34l-34 34l-24 24v0q-26 25 -62 26q-38 -1 -62 -26q-25 -24 -26 -62q0 -36 26 -62l24 -24v0l158 -158v0l158 158v0l24 24v0q26 26 26 62q-1 38 -26 62q-24 25 -62 26q-36 0 -62 -26l-24 -24v0l-34 -34v0zM290 2l-34 -34l34 34l-34 -34l-34 34v0
l-158 158v0l-24 24v0q-39 40 -40 96q1 58 40 96q38 39 96 40q56 -1 96 -40l24 -24v0l24 24v0v0v0q40 39 96 40q58 -1 96 -40q39 -38 40 -96q-1 -56 -40 -96l-24 -24v0l-158 -158v0z" />
    <glyph glyph-name="u1F9E1" unicode="&#xf08a;" 
d="M256 284l-34 34l34 -34l-34 34l-24 24v0q-26 25 -62 26q-38 -1 -62 -26q-25 -24 -26 -62q0 -36 26 -62l24 -24v0l158 -158v0l158 158v0l24 24v0q26 26 26 62q-1 38 -26 62q-24 25 -62 26q-36 0 -62 -26l-24 -24v0l-34 -34v0zM290 2l-34 -34l34 34l-34 -34l-34 34v0
l-158 158v0l-24 24v0q-39 40 -40 96q1 58 40 96q38 39 96 40q56 -1 96 -40l24 -24v0l24 24v0v0v0q40 39 96 40q58 -1 96 -40q39 -38 40 -96q-1 -56 -40 -96l-24 -24v0l-158 -158v0z" />
    <glyph glyph-name="u1F9E1" unicode="&#xf004;" 
d="M256 284l-34 34l34 -34l-34 34l-24 24v0q-26 25 -62 26q-38 -1 -62 -26q-25 -24 -26 -62q0 -36 26 -62l24 -24v0l158 -158v0l158 158v0l24 24v0q26 26 26 62q-1 38 -26 62q-24 25 -62 26q-36 0 -62 -26l-24 -24v0l-34 -34v0zM290 2l-34 -34l34 34l-34 -34l-34 34v0
l-158 158v0l-24 24v0q-39 40 -40 96q1 58 40 96q38 39 96 40q56 -1 96 -40l24 -24v0l24 24v0v0v0q40 39 96 40q58 -1 96 -40q39 -38 40 -96q-1 -56 -40 -96l-24 -24v0l-158 -158v0z" />
    <glyph glyph-name="u1F9E1" unicode="&#x2764;" 
d="M256 284l-34 34l34 -34l-34 34l-24 24v0q-26 25 -62 26q-38 -1 -62 -26q-25 -24 -26 -62q0 -36 26 -62l24 -24v0l158 -158v0l158 158v0l24 24v0q26 26 26 62q-1 38 -26 62q-24 25 -62 26q-36 0 -62 -26l-24 -24v0l-34 -34v0zM290 2l-34 -34l34 34l-34 -34l-34 34v0
l-158 158v0l-24 24v0q-39 40 -40 96q1 58 40 96q38 39 96 40q56 -1 96 -40l24 -24v0l24 24v0v0v0q40 39 96 40q58 -1 96 -40q39 -38 40 -96q-1 -56 -40 -96l-24 -24v0l-158 -158v0z" />
    <glyph glyph-name="u1F9E1" unicode="&#x2665;" 
d="M256 284l-34 34l34 -34l-34 34l-24 24v0q-26 25 -62 26q-38 -1 -62 -26q-25 -24 -26 -62q0 -36 26 -62l24 -24v0l158 -158v0l158 158v0l24 24v0q26 26 26 62q-1 38 -26 62q-24 25 -62 26q-36 0 -62 -26l-24 -24v0l-34 -34v0zM290 2l-34 -34l34 34l-34 -34l-34 34v0
l-158 158v0l-24 24v0q-39 40 -40 96q1 58 40 96q38 39 96 40q56 -1 96 -40l24 -24v0l24 24v0v0v0q40 39 96 40q58 -1 96 -40q39 -38 40 -96q-1 -56 -40 -96l-24 -24v0l-158 -158v0z" />
    <glyph glyph-name="uniF219" unicode="&#xf219;" 
d="M0 192l34 -34l-34 34l34 -34l188 -188v0l34 -34v0l34 34v0l188 188v0l34 34v0l-34 34v0l-188 188v0l-34 34v0l-34 -34v0l-188 -188v0l-34 -34v0zM256 4l-188 188l188 -188l-188 188l188 188v0l188 -188v0l-188 -188v0z" />
    <glyph glyph-name="uniF219" unicode="&#x2666;" 
d="M0 192l34 -34l-34 34l34 -34l188 -188v0l34 -34v0l34 34v0l188 188v0l34 34v0l-34 34v0l-188 188v0l-34 34v0l-34 -34v0l-188 -188v0l-34 -34v0zM256 4l-188 188l188 -188l-188 188l188 188v0l188 -188v0l-188 -188v0z" />
    <glyph glyph-name="uniF1B8" unicode="&#xf1b8;" 
d="M229 400h54h-54h54l73 -117v0l-36 12v0l-23 7v0l-15 -45v0l22 -8v0l92 -30v0l25 -9v0l6 27v0l19 94v0l5 24v0l-47 9v0l-5 -23v0l-6 -28v0l-84 135v0h-106v0l-59 -94v0l41 -25v0l44 71v0zM461 205l-41 -24l41 24l-41 -24l41 -66v0l-37 -59v0h-134v0l22 18v0l18 16v0
l-31 37v0l-18 -16v0l-72 -61v0l-22 -18v0l22 -18v0l72 -61v0l18 -16v0l31 37v0l-18 16v0l-22 18v0h161v0l66 107v0l-56 90v0zM-5 115l66 -107l-66 107l66 -107h99v0v48v0h-72v0l-37 59v0l69 110v0l7 -36v0l5 -24v0l47 10v0l-5 23v0l-19 95v0l-5 26v0l-26 -8v0l-92 -31v0
l-22 -7v0l15 -46v0l23 8v0l28 9v0l-81 -129v0z" />
    <glyph glyph-name="uniF1B8" unicode="&#x267b;" 
d="M229 400h54h-54h54l73 -117v0l-36 12v0l-23 7v0l-15 -45v0l22 -8v0l92 -30v0l25 -9v0l6 27v0l19 94v0l5 24v0l-47 9v0l-5 -23v0l-6 -28v0l-84 135v0h-106v0l-59 -94v0l41 -25v0l44 71v0zM461 205l-41 -24l41 24l-41 -24l41 -66v0l-37 -59v0h-134v0l22 18v0l18 16v0
l-31 37v0l-18 -16v0l-72 -61v0l-22 -18v0l22 -18v0l72 -61v0l18 -16v0l31 37v0l-18 16v0l-22 18v0h161v0l66 107v0l-56 90v0zM-5 115l66 -107l-66 107l66 -107h99v0v48v0h-72v0l-37 59v0l69 110v0l7 -36v0l5 -24v0l47 10v0l-5 23v0l-19 95v0l-5 26v0l-26 -8v0l-92 -31v0
l-22 -7v0l15 -46v0l23 8v0l28 9v0l-81 -129v0z" />
    <glyph glyph-name="uniF1B8" unicode="&#x267a;" 
d="M229 400h54h-54h54l73 -117v0l-36 12v0l-23 7v0l-15 -45v0l22 -8v0l92 -30v0l25 -9v0l6 27v0l19 94v0l5 24v0l-47 9v0l-5 -23v0l-6 -28v0l-84 135v0h-106v0l-59 -94v0l41 -25v0l44 71v0zM461 205l-41 -24l41 24l-41 -24l41 -66v0l-37 -59v0h-134v0l22 18v0l18 16v0
l-31 37v0l-18 -16v0l-72 -61v0l-22 -18v0l22 -18v0l72 -61v0l18 -16v0l31 37v0l-18 16v0l-22 18v0h161v0l66 107v0l-56 90v0zM-5 115l66 -107l-66 107l66 -107h99v0v48v0h-72v0l-37 59v0l69 110v0l7 -36v0l5 -24v0l47 10v0l-5 23v0l-19 95v0l-5 26v0l-26 -8v0l-92 -31v0
l-22 -7v0l15 -46v0l23 8v0l28 9v0l-81 -129v0z" />
    <glyph glyph-name="uniF1B8" unicode="&#x2672;" 
d="M229 400h54h-54h54l73 -117v0l-36 12v0l-23 7v0l-15 -45v0l22 -8v0l92 -30v0l25 -9v0l6 27v0l19 94v0l5 24v0l-47 9v0l-5 -23v0l-6 -28v0l-84 135v0h-106v0l-59 -94v0l41 -25v0l44 71v0zM461 205l-41 -24l41 24l-41 -24l41 -66v0l-37 -59v0h-134v0l22 18v0l18 16v0
l-31 37v0l-18 -16v0l-72 -61v0l-22 -18v0l22 -18v0l72 -61v0l18 -16v0l31 37v0l-18 16v0l-22 18v0h161v0l66 107v0l-56 90v0zM-5 115l66 -107l-66 107l66 -107h99v0v48v0h-72v0l-37 59v0l69 110v0l7 -36v0l5 -24v0l47 10v0l-5 23v0l-19 95v0l-5 26v0l-26 -8v0l-92 -31v0
l-22 -7v0l15 -46v0l23 8v0l28 9v0l-81 -129v0z" />
    <glyph glyph-name="uniF525" unicode="&#xf525;" horiz-adv-x="448" 
d="M48 368v-352v352v-352h352v0v352v0h-352v0zM0 416h48h-48h448v-48v0v-352v0v-48v0h-48h-400v48v0v352v0v48v0zM224 224q14 0 23 -9v0v0q9 -9 9 -23t-9 -23t-23 -9t-23 9t-9 23t9 23t23 9v0z" />
    <glyph glyph-name="uniF525" unicode="&#x2680;" horiz-adv-x="448" 
d="M48 368v-352v352v-352h352v0v352v0h-352v0zM0 416h48h-48h448v-48v0v-352v0v-48v0h-48h-400v48v0v352v0v48v0zM224 224q14 0 23 -9v0v0q9 -9 9 -23t-9 -23t-23 -9t-23 9t-9 23t9 23t23 9v0z" />
    <glyph glyph-name="uniF528" unicode="&#xf528;" horiz-adv-x="448" 
d="M400 368v-352v352v-352h-352v0v352v0h352v0zM48 416h-48h48h-48v-48v0v-352v0v-48v0h48h400v48v0v352v0v48v0h-48h-352zM352 96q0 14 -9 23v0v0q-9 9 -23 9t-23 -9t-9 -23t9 -23t23 -9t23 9t9 23v0zM128 256q14 0 23 9v0v0q9 9 9 23t-9 23t-23 9t-23 -9t-9 -23t9 -23
t23 -9v0z" />
    <glyph glyph-name="uniF528" unicode="&#x2681;" horiz-adv-x="448" 
d="M400 368v-352v352v-352h-352v0v352v0h352v0zM48 416h-48h48h-48v-48v0v-352v0v-48v0h48h400v48v0v352v0v48v0h-48h-352zM352 96q0 14 -9 23v0v0q-9 9 -23 9t-23 -9t-9 -23t9 -23t23 -9t23 9t9 23v0zM128 256q14 0 23 9v0v0q9 9 9 23t-9 23t-23 9t-23 -9t-9 -23t9 -23
t23 -9v0z" />
    <glyph glyph-name="uniF527" unicode="&#xf527;" horiz-adv-x="448" 
d="M48 368v-352v352v-352h352v0v352v0h-352v0zM0 416h48h-48h448v-48v0v-352v0v-48v0h-48h-400v48v0v352v0v48v0zM128 320q14 0 23 -9v0v0q9 -9 9 -23t-9 -23t-23 -9t-23 9t-9 23t9 23t23 9v0zM224 224q14 0 23 -9v0v0q9 -9 9 -23t-9 -23t-23 -9t-23 9t-9 23t9 23t23 9v0z
M288 96q0 14 9 23v0v0q9 9 23 9t23 -9t9 -23t-9 -23t-23 -9t-23 9t-9 23v0z" />
    <glyph glyph-name="uniF527" unicode="&#x2682;" horiz-adv-x="448" 
d="M48 368v-352v352v-352h352v0v352v0h-352v0zM0 416h48h-48h448v-48v0v-352v0v-48v0h-48h-400v48v0v352v0v48v0zM128 320q14 0 23 -9v0v0q9 -9 9 -23t-9 -23t-23 -9t-23 9t-9 23t9 23t23 9v0zM224 224q14 0 23 -9v0v0q9 -9 9 -23t-9 -23t-23 -9t-23 9t-9 23t9 23t23 9v0z
M288 96q0 14 9 23v0v0q9 9 23 9t23 -9t9 -23t-9 -23t-23 -9t-23 9t-9 23v0z" />
    <glyph glyph-name="uniF524" unicode="&#xf524;" horiz-adv-x="448" 
d="M48 368v-352v352v-352h352v0v352v0h-352v0zM0 416h48h-48h448v-48v0v-352v0v-48v0h-48h-400v48v0v352v0v48v0zM96 288q0 14 9 23v0v0q9 9 23 9t23 -9t9 -23t-9 -23t-23 -9t-23 9t-9 23v0zM96 96q0 14 9 23v0v0q9 9 23 9t23 -9t9 -23t-9 -23t-23 -9t-23 9t-9 23v0z
M320 320q14 0 23 -9v0v0q9 -9 9 -23t-9 -23t-23 -9t-23 9t-9 23t9 23t23 9v0zM288 96q0 14 9 23v0v0q9 9 23 9t23 -9t9 -23t-9 -23t-23 -9t-23 9t-9 23v0z" />
    <glyph glyph-name="uniF524" unicode="&#x2683;" horiz-adv-x="448" 
d="M48 368v-352v352v-352h352v0v352v0h-352v0zM0 416h48h-48h448v-48v0v-352v0v-48v0h-48h-400v48v0v352v0v48v0zM96 288q0 14 9 23v0v0q9 9 23 9t23 -9t9 -23t-9 -23t-23 -9t-23 9t-9 23v0zM96 96q0 14 9 23v0v0q9 9 23 9t23 -9t9 -23t-9 -23t-23 -9t-23 9t-9 23v0z
M320 320q14 0 23 -9v0v0q9 -9 9 -23t-9 -23t-23 -9t-23 9t-9 23t9 23t23 9v0zM288 96q0 14 9 23v0v0q9 9 23 9t23 -9t9 -23t-9 -23t-23 -9t-23 9t-9 23v0z" />
    <glyph glyph-name="uniF523" unicode="&#xf523;" horiz-adv-x="448" 
d="M48 368v-352v352v-352h352v0v352v0h-352v0zM0 416h48h-48h448v-48v0v-352v0v-48v0h-48h-400v48v0v352v0v48v0zM128 320q14 0 23 -9v0v0q9 -9 9 -23t-9 -23t-23 -9t-23 9t-9 23t9 23t23 9v0zM128 128q14 0 23 -9v0v0q9 -9 9 -23t-9 -23t-23 -9t-23 9t-9 23t9 23t23 9v0z
M192 192q0 14 9 23v0v0q9 9 23 9t23 -9t9 -23t-9 -23t-23 -9t-23 9t-9 23v0zM320 320q14 0 23 -9v0v0q9 -9 9 -23t-9 -23t-23 -9t-23 9t-9 23t9 23t23 9v0zM288 96q0 14 9 23v0v0q9 9 23 9t23 -9t9 -23t-9 -23t-23 -9t-23 9t-9 23v0z" />
    <glyph glyph-name="uniF523" unicode="&#x2684;" horiz-adv-x="448" 
d="M48 368v-352v352v-352h352v0v352v0h-352v0zM0 416h48h-48h448v-48v0v-352v0v-48v0h-48h-400v48v0v352v0v48v0zM128 320q14 0 23 -9v0v0q9 -9 9 -23t-9 -23t-23 -9t-23 9t-9 23t9 23t23 9v0zM128 128q14 0 23 -9v0v0q9 -9 9 -23t-9 -23t-23 -9t-23 9t-9 23t9 23t23 9v0z
M192 192q0 14 9 23v0v0q9 9 23 9t23 -9t9 -23t-9 -23t-23 -9t-23 9t-9 23v0zM320 320q14 0 23 -9v0v0q9 -9 9 -23t-9 -23t-23 -9t-23 9t-9 23t9 23t23 9v0zM288 96q0 14 9 23v0v0q9 9 23 9t23 -9t9 -23t-9 -23t-23 -9t-23 9t-9 23v0z" />
    <glyph glyph-name="uniF526" unicode="&#xf526;" horiz-adv-x="448" 
d="M48 368v-352v352v-352h352v0v352v0h-352v0zM0 416h48h-48h448v-48v0v-352v0v-48v0h-48h-400v48v0v352v0v48v0zM96 288q0 14 9 23v0v0q9 9 23 9t23 -9t9 -23t-9 -23t-23 -9t-23 9t-9 23v0zM96 192q0 14 9 23v0v0q9 9 23 9t23 -9t9 -23t-9 -23t-23 -9t-23 9t-9 23v0z
M128 128q14 0 23 -9v0v0q9 -9 9 -23t-9 -23t-23 -9t-23 9t-9 23t9 23t23 9v0zM288 288q0 14 9 23v0v0q9 9 23 9t23 -9t9 -23t-9 -23t-23 -9t-23 9t-9 23v0zM320 224q14 0 23 -9v0v0q9 -9 9 -23t-9 -23t-23 -9t-23 9t-9 23t9 23t23 9v0zM288 96q0 14 9 23v0v0q9 9 23 9t23 -9
t9 -23t-9 -23t-23 -9t-23 9t-9 23v0z" />
    <glyph glyph-name="uniF526" unicode="&#x2685;" horiz-adv-x="448" 
d="M48 368v-352v352v-352h352v0v352v0h-352v0zM0 416h48h-48h448v-48v0v-352v0v-48v0h-48h-400v48v0v352v0v48v0zM96 288q0 14 9 23v0v0q9 9 23 9t23 -9t9 -23t-9 -23t-23 -9t-23 9t-9 23v0zM96 192q0 14 9 23v0v0q9 9 23 9t23 -9t9 -23t-9 -23t-23 -9t-23 9t-9 23v0z
M128 128q14 0 23 -9v0v0q9 -9 9 -23t-9 -23t-23 -9t-23 9t-9 23t9 23t23 9v0zM288 288q0 14 9 23v0v0q9 9 23 9t23 -9t9 -23t-9 -23t-23 -9t-23 9t-9 23v0zM320 224q14 0 23 -9v0v0q9 -9 9 -23t-9 -23t-23 -9t-23 9t-9 23t9 23t23 9v0zM288 96q0 14 9 23v0v0q9 9 23 9t23 -9
t9 -23t-9 -23t-23 -9t-23 9t-9 23v0z" />
    <glyph glyph-name="uniF13D" unicode="&#xf13d;" horiz-adv-x="576" 
d="M320 368q0 -14 -9 -23v0v0q-9 -9 -23 -9t-23 9t-9 23t9 23t23 9t23 -9t9 -23v0zM288 448q-34 -1 -57 -23v0v0q-22 -23 -23 -57q0 -27 16 -48q15 -20 40 -28v-4v-32v0h-48h-24v-48v0h24h48v-224v0h-144v0v112v0h72v0l-96 96v0l-96 -96v0h72v0v-136v0v-24v0h24h408v24v0
v136v0h72v0l-96 96v0l-96 -96v0h72v0v-112v0h-144v0v224v0h48h24v48v0h-24h-48v32v0v4q25 8 40 28q16 21 16 48q-1 34 -23 57q-23 22 -57 23v0z" />
    <glyph glyph-name="uniF13D" unicode="&#x2693;" horiz-adv-x="576" 
d="M320 368q0 -14 -9 -23v0v0q-9 -9 -23 -9t-23 9t-9 23t9 23t23 9t23 -9t9 -23v0zM288 448q-34 -1 -57 -23v0v0q-22 -23 -23 -57q0 -27 16 -48q15 -20 40 -28v-4v-32v0h-48h-24v-48v0h24h48v-224v0h-144v0v112v0h72v0l-96 96v0l-96 -96v0h72v0v-136v0v-24v0h24h408v24v0
v136v0h72v0l-96 96v0l-96 -96v0h72v0v-112v0h-144v0v224v0h48h24v48v0h-24h-48v32v0v4q25 8 40 28q16 21 16 48q-1 34 -23 57q-23 22 -57 23v0z" />
    <glyph glyph-name="uniF71D" unicode="&#xf71d;" 
d="M339 81l-284 284l284 -284l-284 284l-3 31v0l31 -3v0l284 -284v0l34 34v0l-297 297v0l-56 4v0l-48 4v0l4 -48v0l4 -56v0l297 -297v0l34 33v1zM408 -8l56 -56l-56 56l56 -56l48 48v0l-56 56v0l24 72v0l-32 32v0l-144 -144v0l32 -32v0l72 24v0zM137 169l-49 -49l49 49
l-49 -49l-24 24v0l-32 -32v0l24 -72v0l-56 -56v0l48 -48v0l56 56v0l72 -24v0l32 32v0l-24 24v0l49 49v0l-33 34v0l-50 -49v0l-28 28v0l49 49v0l-33 34h-1zM341 249l34 -34l-34 34l34 -34l129 129v0l4 56v0l4 48v0l-48 -4v0l-56 -4v0l-129 -129v0l34 -34v0l116 116v0l31 3v0
l-2 -31v0l-117 -116v0z" />
    <glyph glyph-name="uniF71D" unicode="&#x2694;" 
d="M339 81l-284 284l284 -284l-284 284l-3 31v0l31 -3v0l284 -284v0l34 34v0l-297 297v0l-56 4v0l-48 4v0l4 -48v0l4 -56v0l297 -297v0l34 33v1zM408 -8l56 -56l-56 56l56 -56l48 48v0l-56 56v0l24 72v0l-32 32v0l-144 -144v0l32 -32v0l72 24v0zM137 169l-49 -49l49 49
l-49 -49l-24 24v0l-32 -32v0l24 -72v0l-56 -56v0l48 -48v0l56 56v0l72 -24v0l32 32v0l-24 24v0l49 49v0l-33 34v0l-50 -49v0l-28 28v0l49 49v0l-33 34h-1zM341 249l34 -34l-34 34l34 -34l129 129v0l4 56v0l4 48v0l-48 -4v0l-56 -4v0l-129 -129v0l34 -34v0l116 116v0l31 3v0
l-2 -31v0l-117 -116v0z" />
    <glyph glyph-name="uniF24E" unicode="&#xf24e;" horiz-adv-x="640" 
d="M520 400h-127h127h-127q-9 22 -29 35q-19 13 -44 13t-44 -13q-20 -13 -29 -35h-127h-24v-48v0h24h122q11 -45 54 -60v-308v0h-176h-24v-48v0h24h424v48v0h-24h-176v308v0q43 15 54 60h122h24v48v0h-24v0zM98 320l-7 -13l7 13l-7 -13l-88 -168v0l-3 -5v0v-6v0v-32v0v-10v0
l7 -7v0l40 -40v0l7 -7v0h10h138l7 7v0l40 40v0l7 7v0v10v0v32v0v6v0l-3 5v0l-88 168v0l-6 13v0h-15h-46zM127 272h3h-3h3l75 -144v0h-154v0l76 144v0zM496 320h-14h14h-14l-7 -13v0l-88 -168v0l-3 -5v0v-6v0v-32v0v-10v0l7 -7v0l40 -40v0l7 -7v0h10h138l7 7v0l40 40v0l7 7v0
v10v0v32v0v6v0l-3 5v0l-88 168v0l-6 13v0h-15h-32zM435 128l76 144l-76 -144l76 144h3v0l75 -144v0h-154v0zM320 400q14 0 23 -9v0v0q9 -9 9 -23t-9 -23t-23 -9t-23 9t-9 23t9 23t23 9v0z" />
    <glyph glyph-name="uniF24E" unicode="&#x2696;" horiz-adv-x="640" 
d="M520 400h-127h127h-127q-9 22 -29 35q-19 13 -44 13t-44 -13q-20 -13 -29 -35h-127h-24v-48v0h24h122q11 -45 54 -60v-308v0h-176h-24v-48v0h24h424v48v0h-24h-176v308v0q43 15 54 60h122h24v48v0h-24v0zM98 320l-7 -13l7 13l-7 -13l-88 -168v0l-3 -5v0v-6v0v-32v0v-10v0
l7 -7v0l40 -40v0l7 -7v0h10h138l7 7v0l40 40v0l7 7v0v10v0v32v0v6v0l-3 5v0l-88 168v0l-6 13v0h-15h-46zM127 272h3h-3h3l75 -144v0h-154v0l76 144v0zM496 320h-14h14h-14l-7 -13v0l-88 -168v0l-3 -5v0v-6v0v-32v0v-10v0l7 -7v0l40 -40v0l7 -7v0h10h138l7 7v0l40 40v0l7 7v0
v10v0v32v0v6v0l-3 5v0l-88 168v0l-6 13v0h-15h-32zM435 128l76 144l-76 -144l76 144h3v0l75 -144v0h-154v0zM320 400q14 0 23 -9v0v0q9 -9 9 -23t-9 -23t-23 -9t-23 9t-9 23t9 23t23 9v0z" />
    <glyph glyph-name="uniF800" unicode="&#xf800;" 
d="M256 366l31 25l-31 -25l31 25q10 9 25 9q17 -1 28 -12q12 -11 12 -28q0 -15 -9 -26l-25 -30v0l25 -31v0q9 -10 9 -25q-1 -17 -12 -28q-11 -12 -28 -12q-15 0 -25 9l-31 25v0l-31 -25v0q-10 -9 -25 -9q-17 1 -28 12q-12 11 -12 28q0 15 9 25l25 31v0l-25 31v0q-9 10 -9 25
q1 17 12 28q11 12 28 12q15 0 25 -9l31 -25v0zM380 304q19 23 20 56q-1 37 -26 62t-62 26q-33 -1 -56 -20q-23 19 -56 20q-37 -1 -62 -26t-26 -62q1 -33 20 -56q-19 -23 -20 -56q1 -37 26 -62t62 -26q17 0 32 6v-91v0q-31 39 -77 62q-45 23 -99 23h-8h-48q0 -25 5 -48
q18 -77 78 -126q59 -48 141 -50h8h56q82 2 141 50q60 49 78 126q5 23 5 48h-48h-8q-54 0 -99 -23q-46 -23 -77 -62v91v0q15 -6 32 -6q37 1 62 26t26 62q-1 33 -20 56v0zM225 -16h-1h1h-1q-62 1 -107 36q-46 36 -62 92h1v0q62 -1 107 -36q46 -36 62 -92v0zM287 -16
q16 56 62 92v0v0q45 35 107 36h1v0q-16 -56 -62 -92q-45 -35 -107 -36h-1v0zM256 264l40 40l-40 -40l40 40l-40 40v0l-40 -40v0l40 -40v0z" />
    <glyph glyph-name="uniF800" unicode="&#x2698;" 
d="M256 366l31 25l-31 -25l31 25q10 9 25 9q17 -1 28 -12q12 -11 12 -28q0 -15 -9 -26l-25 -30v0l25 -31v0q9 -10 9 -25q-1 -17 -12 -28q-11 -12 -28 -12q-15 0 -25 9l-31 25v0l-31 -25v0q-10 -9 -25 -9q-17 1 -28 12q-12 11 -12 28q0 15 9 25l25 31v0l-25 31v0q-9 10 -9 25
q1 17 12 28q11 12 28 12q15 0 25 -9l31 -25v0zM380 304q19 23 20 56q-1 37 -26 62t-62 26q-33 -1 -56 -20q-23 19 -56 20q-37 -1 -62 -26t-26 -62q1 -33 20 -56q-19 -23 -20 -56q1 -37 26 -62t62 -26q17 0 32 6v-91v0q-31 39 -77 62q-45 23 -99 23h-8h-48q0 -25 5 -48
q18 -77 78 -126q59 -48 141 -50h8h56q82 2 141 50q60 49 78 126q5 23 5 48h-48h-8q-54 0 -99 -23q-46 -23 -77 -62v91v0q15 -6 32 -6q37 1 62 26t26 62q-1 33 -20 56v0zM225 -16h-1h1h-1q-62 1 -107 36q-46 36 -62 92h1v0q62 -1 107 -36q46 -36 62 -92v0zM287 -16
q16 56 62 92v0v0q45 35 107 36h1v0q-16 -56 -62 -92q-45 -35 -107 -36h-1v0zM256 264l40 40l-40 -40l40 40l-40 40v0l-40 -40v0l40 -40v0z" />
    <glyph glyph-name="uniF013" unicode="&#xf013;" 
d="M328 448l15 -67l-15 67l15 -67q18 -8 33 -19l66 20v0l72 -124v0l-51 -46v0q1 -10 1 -20t-1 -19l51 -47v0l-72 -124v0l-66 21v0q-16 -12 -33 -20l-15 -67v0h-144v0l-15 67v0q-18 8 -33 19l-66 -20v0l-72 124v0l51 46v0q-1 10 -1 20t1 19l-51 47v0l72 124v0l66 -21v0
q15 12 33 20l15 67v0h144v0zM391 316l-23 -8l23 8l-23 -8l-19 14v0q-13 9 -26 15l-22 10v0l-5 24v0l-7 29v0h-66v0l-7 -29v0l-5 -24v0l-22 -10v0q-14 -6 -26 -15l-19 -14v0l-23 8v0l-28 9v0l-34 -58v0l22 -20v0l18 -16v0l-2 -24v0q-1 -7 -1 -15t1 -15l2 -24v0l-18 -16v0
l-22 -20v0l34 -58v0l28 9v0l23 7v0l19 -14v0q13 -8 26 -15l22 -10v0l5 -23v0l7 -29v0h66v0l7 29v0l5 23v0l22 10v0q14 7 26 15l19 14v0l23 -7v0l28 -9v0l34 58v0l-22 20v0l-18 16v0l2 24v0q1 7 1 15t-1 15l-2 24v0l18 16v0l22 20v0l-33 58v0l-29 -9v0zM304 192q-1 27 -24 42
q-24 12 -48 0q-23 -15 -24 -42q1 -27 24 -42q24 -12 48 0q23 15 24 42v0zM160 192q0 26 13 48v0v0q13 22 35 35q23 13 48 13t48 -13q22 -13 35 -35t13 -48t-13 -48t-35 -35q-23 -13 -48 -13t-48 13q-22 13 -35 35t-13 48v0z" />
    <glyph glyph-name="uniF013" unicode="&#x2699;" 
d="M328 448l15 -67l-15 67l15 -67q18 -8 33 -19l66 20v0l72 -124v0l-51 -46v0q1 -10 1 -20t-1 -19l51 -47v0l-72 -124v0l-66 21v0q-16 -12 -33 -20l-15 -67v0h-144v0l-15 67v0q-18 8 -33 19l-66 -20v0l-72 124v0l51 46v0q-1 10 -1 20t1 19l-51 47v0l72 124v0l66 -21v0
q15 12 33 20l15 67v0h144v0zM391 316l-23 -8l23 8l-23 -8l-19 14v0q-13 9 -26 15l-22 10v0l-5 24v0l-7 29v0h-66v0l-7 -29v0l-5 -24v0l-22 -10v0q-14 -6 -26 -15l-19 -14v0l-23 8v0l-28 9v0l-34 -58v0l22 -20v0l18 -16v0l-2 -24v0q-1 -7 -1 -15t1 -15l2 -24v0l-18 -16v0
l-22 -20v0l34 -58v0l28 9v0l23 7v0l19 -14v0q13 -8 26 -15l22 -10v0l5 -23v0l7 -29v0h66v0l7 29v0l5 23v0l22 10v0q14 7 26 15l19 14v0l23 -7v0l28 -9v0l34 58v0l-22 20v0l-18 16v0l2 24v0q1 7 1 15t-1 15l-2 24v0l18 16v0l22 20v0l-33 58v0l-29 -9v0zM304 192q-1 27 -24 42
q-24 12 -48 0q-23 -15 -24 -42q1 -27 24 -42q24 -12 48 0q23 15 24 42v0zM160 192q0 26 13 48v0v0q13 22 35 35q23 13 48 13t48 -13q22 -13 35 -35t13 -48t-13 -48t-35 -35q-23 -13 -48 -13t-48 13q-22 13 -35 35t-13 48v0z" />
    <glyph glyph-name="uniF5D2" unicode="&#xf5d2;" 
d="M306 31q-24 7 -50 18q-26 -11 -50 -18q14 -28 27 -38t23 -9q10 -1 23 9t27 38v0zM293 122q22 14 41 28q2 20 2 42t-2 42q-19 14 -41 28q-19 11 -37 20q-18 -9 -37 -20q-22 -14 -41 -28q-2 -20 -2 -42t2 -42q19 -14 41 -28q19 -11 37 -20q18 9 37 20v0zM414 154
q-16 -15 -34 -29q-3 -31 -10 -57q27 -2 40 5q14 6 18 14q5 9 3 25q-1 17 -17 42v0zM470 320q15 -28 8 -61v0v0q-7 -33 -32 -67q25 -34 32 -67t-8 -61q-34 -53 -116 -43q-16 -40 -41 -62q-25 -23 -57 -23t-57 23q-25 22 -41 62q-82 -10 -116 43q-15 28 -8 61t32 67
q-25 34 -32 67t8 61q34 53 116 43q16 40 41 62q25 23 57 23t57 -23q25 -22 41 -62q82 10 116 -43v0zM84 87q4 -8 18 -14v0v0q13 -7 40 -5q-7 26 -10 57q-18 14 -34 29q-16 -25 -17 -42q-2 -16 3 -25v0zM99 229q15 16 33 30q3 31 10 57q-27 2 -40 -5q-14 -6 -18 -14
q-5 -9 -3 -25q1 -17 17 -43h1zM256 335q26 11 50 18q-14 28 -27 38t-23 9q-10 1 -23 -9t-27 -38q24 -7 50 -18v0zM380 259q18 -14 34 -30q16 26 17 43q2 16 -3 25q-4 8 -17 14q-14 7 -41 5q7 -26 10 -57v0zM216 192l40 40l-40 -40l40 40l40 -40v0l-40 -40v0l-40 40v0z" />
    <glyph glyph-name="uniF5D2" unicode="&#x269b;" 
d="M306 31q-24 7 -50 18q-26 -11 -50 -18q14 -28 27 -38t23 -9q10 -1 23 9t27 38v0zM293 122q22 14 41 28q2 20 2 42t-2 42q-19 14 -41 28q-19 11 -37 20q-18 -9 -37 -20q-22 -14 -41 -28q-2 -20 -2 -42t2 -42q19 -14 41 -28q19 -11 37 -20q18 9 37 20v0zM414 154
q-16 -15 -34 -29q-3 -31 -10 -57q27 -2 40 5q14 6 18 14q5 9 3 25q-1 17 -17 42v0zM470 320q15 -28 8 -61v0v0q-7 -33 -32 -67q25 -34 32 -67t-8 -61q-34 -53 -116 -43q-16 -40 -41 -62q-25 -23 -57 -23t-57 23q-25 22 -41 62q-82 -10 -116 43q-15 28 -8 61t32 67
q-25 34 -32 67t8 61q34 53 116 43q16 40 41 62q25 23 57 23t57 -23q25 -22 41 -62q82 10 116 -43v0zM84 87q4 -8 18 -14v0v0q13 -7 40 -5q-7 26 -10 57q-18 14 -34 29q-16 -25 -17 -42q-2 -16 3 -25v0zM99 229q15 16 33 30q3 31 10 57q-27 2 -40 -5q-14 -6 -18 -14
q-5 -9 -3 -25q1 -17 17 -43h1zM256 335q26 11 50 18q-14 28 -27 38t-23 9q-10 1 -23 -9t-27 -38q24 -7 50 -18v0zM380 259q18 -14 34 -30q16 26 17 43q2 16 -3 25q-4 8 -17 14q-14 7 -41 5q7 -26 10 -57v0zM216 192l40 40l-40 -40l40 40l40 -40v0l-40 -40v0l-40 40v0z" />
    <glyph glyph-name="uniF071" unicode="&#xf071;" 
d="M27 16l-27 -48l27 48l-27 -48h55h457l-27 48v0l-201 352v0l-28 48v0l-28 -48v0l-201 -352v0zM429 16h-346h346h-346l173 303v0l173 -303v0zM232 152v-24v24v-24h48v0v24v0v88v0h-48v0v-88v0zM280 48v48v-48v48h-48v0v-48v0h48v0z" />
    <glyph glyph-name="uniF071" unicode="&#x26a0;" 
d="M27 16l-27 -48l27 48l-27 -48h55h457l-27 48v0l-201 352v0l-28 48v0l-28 -48v0l-201 -352v0zM429 16h-346h346h-346l173 303v0l173 -303v0zM232 152v-24v24v-24h48v0v24v0v88v0h-48v0v-88v0zM280 48v48v-48v48h-48v0v-48v0h48v0z" />
    <glyph glyph-name="uniF0E7" unicode="&#xf0e7;" horiz-adv-x="448" 
d="M312 286l22 88l-22 -88l22 88l18 74v0l-61 -46v0l-259 -194v0v-48v0l68 -9v0l48 -7v0l-12 -46v0l-22 -88v0l-18 -74v0l61 46v0l259 194v0v48v0l-68 9v0l-48 6v0l12 47v0zM348 185l-173 -130l173 130l-173 -130l20 78v0l13 52v0l-54 7v0l-54 7v0l173 129v0l-20 -77v0
l-13 -52v0l54 -7v0l54 -7v0z" />
    <glyph glyph-name="uniF0E7" unicode="&#x26a1;" horiz-adv-x="448" 
d="M312 286l22 88l-22 -88l22 88l18 74v0l-61 -46v0l-259 -194v0v-48v0l68 -9v0l48 -7v0l-12 -46v0l-22 -88v0l-18 -74v0l61 46v0l259 194v0v48v0l-68 9v0l-48 6v0l12 47v0zM348 185l-173 -130l173 130l-173 -130l20 78v0l13 52v0l-54 7v0l-54 7v0l173 129v0l-20 -77v0
l-13 -52v0l54 -7v0l54 -7v0z" />
    <glyph glyph-name="uniF226" unicode="&#xf226;" horiz-adv-x="640" 
d="M192 144q35 0 64 17v0v0q29 17 47 47q17 30 17 64t-17 64q-18 30 -47 47t-64 17t-64 -17t-47 -47q-17 -30 -17 -64t17 -64q18 -30 47 -47t64 -17v0zM368 272q-1 -68 -44 -116v0v0q-42 -48 -108 -58v-50v0h48h24v-48v0h-24h-48v-40v0v-24v0h-48v0v24v0v40v0h-48h-24v48v0
h24h48v50v0q-66 10 -108 58q-43 48 -44 116q2 75 52 124q49 50 124 52q75 -2 124 -52q50 -49 52 -124v0zM344 130q16 18 29 39q32 -24 75 -25q54 1 91 37q36 37 37 91q-1 54 -37 91q-37 36 -91 37q-43 -1 -75 -25q-13 21 -29 39q45 33 104 34q75 -2 124 -52q50 -49 52 -124
q-1 -68 -44 -116q-42 -48 -108 -58v-50v0h48h24v-48v0h-24h-48v-40v0v-24v0h-48v0v24v0v40v0h-48h-24v48v0h24h48v50v0q-45 6 -80 32v0z" />
    <glyph glyph-name="uniF226" unicode="&#x26a2;" horiz-adv-x="640" 
d="M192 144q35 0 64 17v0v0q29 17 47 47q17 30 17 64t-17 64q-18 30 -47 47t-64 17t-64 -17t-47 -47q-17 -30 -17 -64t17 -64q18 -30 47 -47t64 -17v0zM368 272q-1 -68 -44 -116v0v0q-42 -48 -108 -58v-50v0h48h24v-48v0h-24h-48v-40v0v-24v0h-48v0v24v0v40v0h-48h-24v48v0
h24h48v50v0q-66 10 -108 58q-43 48 -44 116q2 75 52 124q49 50 124 52q75 -2 124 -52q50 -49 52 -124v0zM344 130q16 18 29 39q32 -24 75 -25q54 1 91 37q36 37 37 91q-1 54 -37 91q-37 36 -91 37q-43 -1 -75 -25q-13 21 -29 39q45 33 104 34q75 -2 124 -52q50 -49 52 -124
q-1 -68 -44 -116q-42 -48 -108 -58v-50v0h48h24v-48v0h-24h-48v-40v0v-24v0h-48v0v24v0v40v0h-48h-24v48v0h24h48v50v0q-45 6 -80 32v0z" />
    <glyph glyph-name="uniF227" unicode="&#xf227;" horiz-adv-x="640" 
d="M288 416h24h-24h160v-24v0v-112v0v-24v0h-48v0v24v0v54v0l-84 -84v0q35 -45 36 -106q-2 -75 -52 -124q-49 -50 -124 -52q-75 2 -124 52q-50 49 -52 124q2 75 52 124q49 50 124 52q61 -1 106 -36l84 84v0h-54h-24v48v0zM176 16q35 0 64 17v0v0q29 17 47 47q17 30 17 64
t-17 64q-18 30 -47 47t-64 17t-64 -17t-47 -47q-17 -30 -17 -64t17 -64q18 -30 47 -47t64 -17v0zM304 -20q22 17 38 39q13 -3 26 -3q54 1 91 37q36 37 37 91q0 34 -16 62v50v0v24v0v10v0l78 78v0h-54h-24v24v0v24v0h24h136v-24v0v-112v0v-24v0h-48v0v24v0v54v0l-84 -84v0
q35 -45 36 -106q-2 -75 -52 -124q-49 -50 -124 -52q-34 0 -64 12v0z" />
    <glyph glyph-name="uniF227" unicode="&#x26a3;" horiz-adv-x="640" 
d="M288 416h24h-24h160v-24v0v-112v0v-24v0h-48v0v24v0v54v0l-84 -84v0q35 -45 36 -106q-2 -75 -52 -124q-49 -50 -124 -52q-75 2 -124 52q-50 49 -52 124q2 75 52 124q49 50 124 52q61 -1 106 -36l84 84v0h-54h-24v48v0zM176 16q35 0 64 17v0v0q29 17 47 47q17 30 17 64
t-17 64q-18 30 -47 47t-64 17t-64 -17t-47 -47q-17 -30 -17 -64t17 -64q18 -30 47 -47t64 -17v0zM304 -20q22 17 38 39q13 -3 26 -3q54 1 91 37q36 37 37 91q0 34 -16 62v50v0v24v0v10v0l78 78v0h-54h-24v24v0v24v0h24h136v-24v0v-112v0v-24v0h-48v0v24v0v54v0l-84 -84v0
q35 -45 36 -106q-2 -75 -52 -124q-49 -50 -124 -52q-34 0 -64 12v0z" />
    <glyph glyph-name="uniF228" unicode="&#xf228;" horiz-adv-x="640" 
d="M176 144q35 0 64 17v0v0q29 17 47 47q17 30 17 64t-17 64q-18 30 -47 47t-64 17t-64 -17t-47 -47q-17 -30 -17 -64t17 -64q18 -30 47 -47t64 -17v0zM352 272q-1 -68 -44 -116v0v0q-42 -48 -108 -58v-50v0h48h24v-48v0h-24h-48v-40v0v-24v0h-48v0v24v0v40v0h-48h-24v48v0
h24h48v50v0q-66 10 -108 58q-43 48 -44 116q2 75 52 124q49 50 124 52q75 -2 124 -52q50 -49 52 -124v0zM272 87q22 12 40 28q36 -34 88 -35q54 1 91 37q36 37 37 91q-1 54 -37 91q-37 36 -91 37q-13 0 -25 -3q-8 24 -20 45q22 6 45 6q61 -1 106 -36l52 52v0h-54h-24v48v0
h24h136v-24v0v-112v0v-24v0h-48v0v24v0v54v0l-52 -52v0q35 -45 36 -106q-2 -75 -52 -124q-49 -50 -124 -52q-78 2 -128 55v0z" />
    <glyph glyph-name="uniF228" unicode="&#x26a4;" horiz-adv-x="640" 
d="M176 144q35 0 64 17v0v0q29 17 47 47q17 30 17 64t-17 64q-18 30 -47 47t-64 17t-64 -17t-47 -47q-17 -30 -17 -64t17 -64q18 -30 47 -47t64 -17v0zM352 272q-1 -68 -44 -116v0v0q-42 -48 -108 -58v-50v0h48h24v-48v0h-24h-48v-40v0v-24v0h-48v0v24v0v40v0h-48h-24v48v0
h24h48v50v0q-66 10 -108 58q-43 48 -44 116q2 75 52 124q49 50 124 52q75 -2 124 -52q50 -49 52 -124v0zM272 87q22 12 40 28q36 -34 88 -35q54 1 91 37q36 37 37 91q-1 54 -37 91q-37 36 -91 37q-13 0 -25 -3q-8 24 -20 45q22 6 45 6q61 -1 106 -36l52 52v0h-54h-24v48v0
h24h136v-24v0v-112v0v-24v0h-48v0v24v0v54v0l-52 -52v0q35 -45 36 -106q-2 -75 -52 -124q-49 -50 -124 -52q-78 2 -128 55v0z" />
    <glyph glyph-name="uniF224" unicode="&#xf224;" 
d="M376 448h-24h24h-24v-48v0h24h38l-43 -43v0q-48 42 -115 43q-75 -2 -124 -52q-50 -49 -52 -124q1 -68 44 -116q42 -48 108 -58v-18v0h-24h-24v-48v0h24h24v-24v0v-24v0h48v0v24v0v24v0h24h24v48v0h-24h-24v18v0q66 10 108 58q43 48 44 116q-1 54 -29 97l45 45v0v-38v0
v-24v0h48v0v24v0v96v0v24v0h-24h-96zM256 352q35 0 64 -17v0v0q29 -17 47 -47q17 -30 17 -64t-17 -64q-18 -30 -47 -47t-64 -17t-64 17t-47 47q-17 30 -17 64t17 64q18 30 47 47t64 17v0z" />
    <glyph glyph-name="uniF224" unicode="&#x26a5;" 
d="M376 448h-24h24h-24v-48v0h24h38l-43 -43v0q-48 42 -115 43q-75 -2 -124 -52q-50 -49 -52 -124q1 -68 44 -116q42 -48 108 -58v-18v0h-24h-24v-48v0h24h24v-24v0v-24v0h48v0v24v0v24v0h24h24v48v0h-24h-24v18v0q66 10 108 58q43 48 44 116q-1 54 -29 97l45 45v0v-38v0
v-24v0h48v0v24v0v96v0v24v0h-24h-96zM256 352q35 0 64 -17v0v0q29 -17 47 -47q17 -30 17 -64t-17 -64q-18 -30 -47 -47t-64 -17t-64 17t-47 47q-17 30 -17 64t17 64q18 30 47 47t64 17v0z" />
    <glyph glyph-name="uniF229" unicode="&#xf229;" 
d="M352 448h24h-24h160v-24v0v-112v0v-24v0h-48v0v24v0v54v0l-54 -54v0l31 -31v0l17 -17v0l-34 -34v0l-17 17v0l-31 31v0l-28 -28v0q35 -45 36 -106q-2 -75 -52 -124q-49 -50 -124 -52q-75 2 -124 52q-50 49 -52 124q2 75 52 124q49 50 124 52q61 -1 106 -36l28 28v0l-31 31
v0l-17 17v0l34 34v0l17 -17v0l31 -31v0l54 54v0h-54h-24v48v0zM208 16q35 0 64 17v0v0q29 17 47 47q17 30 17 64t-17 64q-18 30 -47 47t-64 17t-64 -17t-47 -47q-17 -30 -17 -64t17 -64q18 -30 47 -47t64 -17v0z" />
    <glyph glyph-name="uniF229" unicode="&#x26a6;" 
d="M352 448h24h-24h160v-24v0v-112v0v-24v0h-48v0v24v0v54v0l-54 -54v0l31 -31v0l17 -17v0l-34 -34v0l-17 17v0l-31 31v0l-28 -28v0q35 -45 36 -106q-2 -75 -52 -124q-49 -50 -124 -52q-75 2 -124 52q-50 49 -52 124q2 75 52 124q49 50 124 52q61 -1 106 -36l28 28v0l-31 31
v0l-17 17v0l34 34v0l17 -17v0l31 -31v0l54 54v0h-54h-24v48v0zM208 16q35 0 64 17v0v0q29 17 47 47q17 30 17 64t-17 64q-18 30 -47 47t-64 17t-64 -17t-47 -47q-17 -30 -17 -64t17 -64q18 -30 47 -47t64 -17v0z" />
    <glyph glyph-name="uniF225" unicode="&#xf225;" 
d="M128 448h-24h24h-128v-24v0v-80v0v-24v0h48v0v24v0v22v0l30 -30v0l-7 -7v0l-17 -17v0l34 -34v0l17 17v0l7 7v0l15 -15v0q-30 -41 -31 -95q1 -61 39 -105q38 -43 97 -53v-18v0h-16h-24v-48v0h24h16v-8v0v-24v0h48v0v24v0v8v0h16h24v48v0h-24h-16v18v0q59 10 97 53
q38 44 39 105q-1 54 -31 95l79 79v0v-22v0v-24v0h48v0v24v0v80v0v24v0h-24h-104v-48v0h24h22l-79 -79v0q-41 30 -95 31q-54 -1 -95 -31l-15 15v0l7 7v0l17 17v0l-34 34v0l-17 -17v0l-7 -7v0l-30 30v0h22h24v48v0zM256 80q-48 1 -79 33v0v0q-32 31 -33 79q1 43 28 74l10 10v0
q31 27 74 28q43 -1 74 -28l10 -10v0q27 -31 28 -74q-1 -48 -33 -79q-31 -32 -79 -33v0z" />
    <glyph glyph-name="uniF225" unicode="&#x26a7;" 
d="M128 448h-24h24h-128v-24v0v-80v0v-24v0h48v0v24v0v22v0l30 -30v0l-7 -7v0l-17 -17v0l34 -34v0l17 17v0l7 7v0l15 -15v0q-30 -41 -31 -95q1 -61 39 -105q38 -43 97 -53v-18v0h-16h-24v-48v0h24h16v-8v0v-24v0h48v0v24v0v8v0h16h24v48v0h-24h-16v18v0q59 10 97 53
q38 44 39 105q-1 54 -31 95l79 79v0v-22v0v-24v0h48v0v24v0v80v0v24v0h-24h-104v-48v0h24h22l-79 -79v0q-41 30 -95 31q-54 -1 -95 -31l-15 15v0l7 7v0l17 17v0l-34 34v0l-17 -17v0l-7 -7v0l-30 30v0h22h24v48v0zM256 80q-48 1 -79 33v0v0q-32 31 -33 79q1 43 28 74l10 10v0
q31 27 74 28q43 -1 74 -28l10 -10v0q27 -31 28 -74q-1 -48 -33 -79q-31 -32 -79 -33v0z" />
    <glyph glyph-name="uniF22A" unicode="&#xf22a;" horiz-adv-x="320" 
d="M176 434l-16 14l16 -14l-16 14l-16 -14v0l-56 -48v0l-18 -15v0l31 -37v0l19 16v0l16 14v0v-44v0h-32h-24v-48v0h24h32v-18v0q-59 -10 -97 -53q-38 -44 -39 -105q2 -68 47 -113t113 -47q68 2 113 47t47 113q-1 61 -39 105q-38 43 -97 53v18v0h32h24v48v0h-24h-32v44v0
l16 -14v0l19 -16v0l31 37v0l-18 15v0l-56 48v0zM160 208q30 0 56 -15v0v0q26 -15 41 -41t15 -56t-15 -56t-41 -41t-56 -15t-56 15t-41 41t-15 56t15 56t41 41t56 15v0z" />
    <glyph glyph-name="uniF22A" unicode="&#x26a8;" horiz-adv-x="320" 
d="M176 434l-16 14l16 -14l-16 14l-16 -14v0l-56 -48v0l-18 -15v0l31 -37v0l19 16v0l16 14v0v-44v0h-32h-24v-48v0h24h32v-18v0q-59 -10 -97 -53q-38 -44 -39 -105q2 -68 47 -113t113 -47q68 2 113 47t47 113q-1 61 -39 105q-38 43 -97 53v18v0h32h24v48v0h-24h-32v44v0
l16 -14v0l19 -16v0l31 37v0l-18 15v0l-56 48v0zM160 208q30 0 56 -15v0v0q26 -15 41 -41t15 -56t-15 -56t-41 -41t-56 -15t-56 15t-41 41t-15 56t15 56t41 41t56 15v0z" />
    <glyph glyph-name="uniF22B" unicode="&#xf22b;" horiz-adv-x="640" 
d="M80 192q0 35 17 64v0v0q17 29 47 47q30 17 64 17t64 -17q30 -18 47 -47t17 -64t-17 -64t-47 -47q-30 -17 -64 -17t-64 17q-30 18 -47 47t-17 64v0zM382 216q-10 66 -58 108v0v0q-48 43 -116 44q-75 -2 -124 -52q-50 -49 -52 -124q2 -75 52 -124q49 -50 124 -52
q68 1 116 44q48 42 58 108h34v0v-48v0v-24v0h48v0v24v0v48v0h78v0l-31 -31v0l-17 -17v0l34 -34v0l17 17v0l72 72v0l17 17v0l-17 17v0l-72 72v0l-17 17v0l-34 -34v0l17 -17v0l31 -31v0h-78v0v48v0v24v0h-48v0v-24v0v-48v0h-34v0z" />
    <glyph glyph-name="uniF22B" unicode="&#x26a9;" horiz-adv-x="640" 
d="M80 192q0 35 17 64v0v0q17 29 47 47q30 17 64 17t64 -17q30 -18 47 -47t17 -64t-17 -64t-47 -47q-30 -17 -64 -17t-64 17q-30 18 -47 47t-17 64v0zM382 216q-10 66 -58 108v0v0q-48 43 -116 44q-75 -2 -124 -52q-50 -49 -52 -124q2 -75 52 -124q49 -50 124 -52
q68 1 116 44q48 42 58 108h34v0v-48v0v-24v0h48v0v24v0v48v0h78v0l-31 -31v0l-17 -17v0l34 -34v0l17 17v0l72 72v0l17 17v0l-17 17v0l-72 72v0l-17 17v0l-34 -34v0l17 -17v0l31 -31v0h-78v0v48v0v24v0h-48v0v-24v0v-48v0h-34v0z" />
    <glyph glyph-name="uniF6C6" unicode="&#xf6c6;" horiz-adv-x="384" 
d="M140 -16h104h-104h104l87 310v0l-82 106v0h-113v0l-83 -106v0l87 -310v0zM280 -64h-176h176h-176l-104 368v0l112 144v0h160v0l112 -144v0l-104 -368v0z" />
    <glyph glyph-name="uniF6C6" unicode="&#x26b0;" horiz-adv-x="384" 
d="M140 -16h104h-104h104l87 310v0l-82 106v0h-113v0l-83 -106v0l87 -310v0zM280 -64h-176h176h-176l-104 368v0l112 144v0h160v0l112 -144v0l-104 -368v0z" />
    <glyph glyph-name="uniF22C" unicode="&#xf22c;" horiz-adv-x="384" 
d="M64 272q0 35 17 64v0v0q17 29 47 47q30 17 64 17t64 -17q30 -18 47 -47t17 -64t-17 -64t-47 -47q-30 -17 -64 -17t-64 17q-30 18 -47 47t-17 64v0zM216 98q66 10 108 58v0v0q43 48 44 116q-2 75 -52 124q-49 50 -124 52q-75 -2 -124 -52q-50 -49 -52 -124q1 -68 44 -116
q42 -48 108 -58v-138v0v-24v0h48v0v24v0v138v0z" />
    <glyph glyph-name="uniF22C" unicode="&#x26b2;" horiz-adv-x="384" 
d="M64 272q0 35 17 64v0v0q17 29 47 47q30 17 64 17t64 -17q30 -18 47 -47t17 -64t-17 -64t-47 -47q-30 -17 -64 -17t-64 17q-30 18 -47 47t-17 64v0zM216 98q66 10 108 58v0v0q43 48 44 116q-2 75 -52 124q-49 50 -124 52q-75 -2 -124 -52q-50 -49 -52 -124q1 -68 44 -116
q42 -48 108 -58v-138v0v-24v0h48v0v24v0v138v0z" />
    <glyph glyph-name="uniF1E3" unicode="&#xf1e3;" 
d="M412 329l-34 -98l34 98l-34 -98l85 -58v0q-5 -48 -28 -87l-104 2v0l-29 -99v0q-22 -5 -46 -5t-46 5l-29 99v0l-104 -2v0q-23 39 -28 87l85 58v0l-34 98v0q30 35 74 54l82 -63v0l82 63v0q44 -19 74 -54v0zM256 -64q70 1 128 34v0v0q58 34 94 94q34 61 34 128t-34 128
q-36 60 -94 94q-58 33 -128 34q-70 -1 -128 -34q-58 -34 -94 -94q-34 -61 -34 -128t34 -128q36 -60 94 -94q58 -33 128 -34v0zM256 272l-76 -55l76 55l-76 -55l29 -90v0h94v0l29 90v0l-76 55v0z" />
    <glyph glyph-name="uniF1E3" unicode="&#x26bd;" 
d="M412 329l-34 -98l34 98l-34 -98l85 -58v0q-5 -48 -28 -87l-104 2v0l-29 -99v0q-22 -5 -46 -5t-46 5l-29 99v0l-104 -2v0q-23 39 -28 87l85 58v0l-34 98v0q30 35 74 54l82 -63v0l82 63v0q44 -19 74 -54v0zM256 -64q70 1 128 34v0v0q58 34 94 94q34 61 34 128t-34 128
q-36 60 -94 94q-58 33 -128 34q-70 -1 -128 -34q-58 -34 -94 -94q-34 -61 -34 -128t34 -128q36 -60 94 -94q58 -33 128 -34v0zM256 272l-76 -55l76 55l-76 -55l29 -90v0h94v0l29 90v0l-76 55v0z" />
    <glyph glyph-name="u1F94E" unicode="&#x1f94e;" 
d="M248 -16q0 19 3 36l47 -8v0q-2 -12 -2 -24q63 13 107 57t57 107q-12 0 -24 -2l-8 47v0q18 3 36 3q-5 83 -61 139t-139 61q0 -19 -3 -36l-47 8v0q2 12 2 24q-63 -13 -107 -57t-57 -107q12 0 24 2l8 -47v0q-18 -3 -36 -3q5 -83 61 -139t139 -61v0zM0 192q1 70 34 128v0v0
q34 58 94 94q61 34 128 34t128 -34q60 -36 94 -94q33 -58 34 -128q-1 -70 -34 -128q-34 -58 -94 -94q-61 -34 -128 -34t-128 34q-60 36 -94 94q-33 58 -34 128v0zM206 344l46 -16l-46 16l46 -16q-17 -45 -50 -79t-78 -51l-17 45v0q35 13 61 39q26 27 39 62h-1zM306 40
l-46 16l46 -16l-46 16q17 45 50 79t78 51l17 -45v0q-35 -13 -61 -39q-26 -27 -39 -62h1z" />
    <glyph glyph-name="u1F94E" unicode="&#xf433;" 
d="M248 -16q0 19 3 36l47 -8v0q-2 -12 -2 -24q63 13 107 57t57 107q-12 0 -24 -2l-8 47v0q18 3 36 3q-5 83 -61 139t-139 61q0 -19 -3 -36l-47 8v0q2 12 2 24q-63 -13 -107 -57t-57 -107q12 0 24 2l8 -47v0q-18 -3 -36 -3q5 -83 61 -139t139 -61v0zM0 192q1 70 34 128v0v0
q34 58 94 94q61 34 128 34t128 -34q60 -36 94 -94q33 -58 34 -128q-1 -70 -34 -128q-34 -58 -94 -94q-61 -34 -128 -34t-128 34q-60 36 -94 94q-33 58 -34 128v0zM206 344l46 -16l-46 16l46 -16q-17 -45 -50 -79t-78 -51l-17 45v0q35 13 61 39q26 27 39 62h-1zM306 40
l-46 16l46 -16l-46 16q17 45 50 79t78 51l17 -45v0q-35 -13 -61 -39q-26 -27 -39 -62h1z" />
    <glyph glyph-name="u1F94E" unicode="&#x26be;" 
d="M248 -16q0 19 3 36l47 -8v0q-2 -12 -2 -24q63 13 107 57t57 107q-12 0 -24 -2l-8 47v0q18 3 36 3q-5 83 -61 139t-139 61q0 -19 -3 -36l-47 8v0q2 12 2 24q-63 -13 -107 -57t-57 -107q12 0 24 2l8 -47v0q-18 -3 -36 -3q5 -83 61 -139t139 -61v0zM0 192q1 70 34 128v0v0
q34 58 94 94q61 34 128 34t128 -34q60 -36 94 -94q33 -58 34 -128q-1 -70 -34 -128q-34 -58 -94 -94q-61 -34 -128 -34t-128 34q-60 36 -94 94q-33 58 -34 128v0zM206 344l46 -16l-46 16l46 -16q-17 -45 -50 -79t-78 -51l-17 45v0q35 13 61 39q26 27 39 62h-1zM306 40
l-46 16l46 -16l-46 16q17 45 50 79t78 51l17 -45v0q-35 -13 -61 -39q-26 -27 -39 -62h1z" />
    <glyph glyph-name="uniF6C4" unicode="&#xf6c4;" horiz-adv-x="640" 
d="M121 448l-17 -104l17 104l-17 -104l-104 -17v0l61 -87v0l-61 -87v0l104 -17v0l17 -104v0l42 29v0q16 59 68 86q-11 -3 -23 -3q-41 1 -68 28t-28 68q1 41 28 68t68 28q41 -1 68 -28t28 -68v-1v0q28 16 62 17l50 71v0l-104 17v0l-17 104v0l-87 -61v0l-87 61v0zM272 240
q-1 36 -32 55q-32 18 -64 0q-31 -19 -32 -55q1 -36 32 -55q32 -18 64 0q31 19 32 55v0zM369 176q20 -1 34 -14v0v0q13 -14 14 -34v-8v0h49v0q7 22 31 24q13 0 22 -9t10 -23v-40v0v-24v0h24h7q14 0 23 -9t9 -23v-32v0h-32h-31v0v0h-88v0v0v0h-137v0v0v0h-31h-33v48v0
q1 20 14 34q14 13 34 14h9h24v24v0v24v0q0 20 14 34q13 13 34 14v0zM577 -64h39h-39h63v24v0v56v0q-1 29 -18 51q-18 21 -45 27v18v0q-1 34 -24 57q-22 22 -56 23q-26 0 -46 -14q-13 21 -35 33q-21 13 -47 13q-41 -1 -68 -28t-28 -68v-1v0q-35 -7 -58 -32q-22 -26 -23 -63
v-72v0v-24v0h24h25v0v0h32h168v0v0h112h24v0v0z" />
    <glyph glyph-name="uniF6C4" unicode="&#x26c5;" horiz-adv-x="640" 
d="M121 448l-17 -104l17 104l-17 -104l-104 -17v0l61 -87v0l-61 -87v0l104 -17v0l17 -104v0l42 29v0q16 59 68 86q-11 -3 -23 -3q-41 1 -68 28t-28 68q1 41 28 68t68 28q41 -1 68 -28t28 -68v-1v0q28 16 62 17l50 71v0l-104 17v0l-17 104v0l-87 -61v0l-87 61v0zM272 240
q-1 36 -32 55q-32 18 -64 0q-31 -19 -32 -55q1 -36 32 -55q32 -18 64 0q31 19 32 55v0zM369 176q20 -1 34 -14v0v0q13 -14 14 -34v-8v0h49v0q7 22 31 24q13 0 22 -9t10 -23v-40v0v-24v0h24h7q14 0 23 -9t9 -23v-32v0h-32h-31v0v0h-88v0v0v0h-137v0v0v0h-31h-33v48v0
q1 20 14 34q14 13 34 14h9h24v24v0v24v0q0 20 14 34q13 13 34 14v0zM577 -64h39h-39h63v24v0v56v0q-1 29 -18 51q-18 21 -45 27v18v0q-1 34 -24 57q-22 22 -56 23q-26 0 -46 -14q-13 21 -35 33q-21 13 -47 13q-41 -1 -68 -28t-28 -68v-1v0q-35 -7 -58 -32q-22 -26 -23 -63
v-72v0v-24v0h24h25v0v0h32h168v0v0h112h24v0v0z" />
    <glyph glyph-name="u1F327" unicode="&#x1f327;" 
d="M368 320v-48v48v-48h48v0q20 -1 34 -14q13 -14 14 -34v-48v0h-48h-368v48v0q2 33 32 45l32 12v0v33v0v22v0q1 27 19 45t45 19q34 -1 52 -27l27 -38v0l39 25v0q11 8 26 8q20 -1 34 -14q14 -14 14 -34v0zM0 128h48h-48h512v48v0v48v0q-1 41 -28 68t-68 28q-1 41 -28 68
t-68 28q-29 0 -52 -16q-33 46 -92 48q-48 -1 -79 -33q-32 -31 -33 -79v-22v0q-28 -10 -46 -34q-17 -24 -18 -56v-48v0v-48v0zM96 80l-41 -68l41 68l-41 -68q-7 -12 -7 -26v-2v0q1 -20 14 -34q14 -13 34 -14q20 1 34 14q13 14 14 34v2v0q0 14 -7 26l-41 68v0zM256 80l-41 -68
l41 68l-41 -68q-7 -12 -7 -26v-2v0q1 -20 14 -34q14 -13 34 -14q20 1 34 14q13 14 14 34v2v0q0 14 -7 26l-41 68v0zM375 12q-7 -12 -7 -26v-2v0q1 -20 14 -34q14 -13 34 -14q20 1 34 14q13 14 14 34v2v0q0 14 -7 26l-41 68v0l-41 -68v0z" />
    <glyph glyph-name="u1F327" unicode="&#xf73d;" 
d="M368 320v-48v48v-48h48v0q20 -1 34 -14q13 -14 14 -34v-48v0h-48h-368v48v0q2 33 32 45l32 12v0v33v0v22v0q1 27 19 45t45 19q34 -1 52 -27l27 -38v0l39 25v0q11 8 26 8q20 -1 34 -14q14 -14 14 -34v0zM0 128h48h-48h512v48v0v48v0q-1 41 -28 68t-68 28q-1 41 -28 68
t-68 28q-29 0 -52 -16q-33 46 -92 48q-48 -1 -79 -33q-32 -31 -33 -79v-22v0q-28 -10 -46 -34q-17 -24 -18 -56v-48v0v-48v0zM96 80l-41 -68l41 68l-41 -68q-7 -12 -7 -26v-2v0q1 -20 14 -34q14 -13 34 -14q20 1 34 14q13 14 14 34v2v0q0 14 -7 26l-41 68v0zM256 80l-41 -68
l41 68l-41 -68q-7 -12 -7 -26v-2v0q1 -20 14 -34q14 -13 34 -14q20 1 34 14q13 14 14 34v2v0q0 14 -7 26l-41 68v0zM375 12q-7 -12 -7 -26v-2v0q1 -20 14 -34q14 -13 34 -14q20 1 34 14q13 14 14 34v2v0q0 14 -7 26l-41 68v0l-41 -68v0z" />
    <glyph glyph-name="u1F327" unicode="&#x26c6;" 
d="M368 320v-48v48v-48h48v0q20 -1 34 -14q13 -14 14 -34v-48v0h-48h-368v48v0q2 33 32 45l32 12v0v33v0v22v0q1 27 19 45t45 19q34 -1 52 -27l27 -38v0l39 25v0q11 8 26 8q20 -1 34 -14q14 -14 14 -34v0zM0 128h48h-48h512v48v0v48v0q-1 41 -28 68t-68 28q-1 41 -28 68
t-68 28q-29 0 -52 -16q-33 46 -92 48q-48 -1 -79 -33q-32 -31 -33 -79v-22v0q-28 -10 -46 -34q-17 -24 -18 -56v-48v0v-48v0zM96 80l-41 -68l41 68l-41 -68q-7 -12 -7 -26v-2v0q1 -20 14 -34q14 -13 34 -14q20 1 34 14q13 14 14 34v2v0q0 14 -7 26l-41 68v0zM256 80l-41 -68
l41 68l-41 -68q-7 -12 -7 -26v-2v0q1 -20 14 -34q14 -13 34 -14q20 1 34 14q13 14 14 34v2v0q0 14 -7 26l-41 68v0zM375 12q-7 -12 -7 -26v-2v0q1 -20 14 -34q14 -13 34 -14q20 1 34 14q13 14 14 34v2v0q0 14 -7 26l-41 68v0l-41 -68v0z" />
    <glyph glyph-name="u1F69A" unicode="&#x1f69a;" horiz-adv-x="640" 
d="M368 400v-320v320v-320h-48h-77q-13 22 -34 35q-22 13 -49 13t-49 -13q-21 -13 -34 -35h-29v0v320v0h320v0zM384 32q1 -41 28 -68v0v0q27 -27 68 -28q41 1 68 28t28 68h40h24v48v0h-24h-8v136v0v10v0l-7 7v0l-112 112v0l-7 7v0h-10h-56v48v0v48v0h-48h-368v-48v0v-320v0
v-48v0h48h16q1 -41 28 -68t68 -28q41 1 68 28t28 68h64h64zM462 304l96 -96l-96 96l96 -96h-142v0v96v0h46v0zM112 32q1 27 24 42q24 12 48 0q23 -15 24 -42q-1 -27 -24 -42q-24 -12 -48 0q-23 15 -24 42v0zM480 80q27 -1 42 -24q12 -24 0 -48q-15 -23 -42 -24q-27 1 -42 24
q-12 24 0 48q15 23 42 24v0z" />
    <glyph glyph-name="u1F69A" unicode="&#xf0d1;" horiz-adv-x="640" 
d="M368 400v-320v320v-320h-48h-77q-13 22 -34 35q-22 13 -49 13t-49 -13q-21 -13 -34 -35h-29v0v320v0h320v0zM384 32q1 -41 28 -68v0v0q27 -27 68 -28q41 1 68 28t28 68h40h24v48v0h-24h-8v136v0v10v0l-7 7v0l-112 112v0l-7 7v0h-10h-56v48v0v48v0h-48h-368v-48v0v-320v0
v-48v0h48h16q1 -41 28 -68t68 -28q41 1 68 28t28 68h64h64zM462 304l96 -96l-96 96l96 -96h-142v0v96v0h46v0zM112 32q1 27 24 42q24 12 48 0q23 -15 24 -42q-1 -27 -24 -42q-24 -12 -48 0q-23 15 -24 42v0zM480 80q27 -1 42 -24q12 -24 0 -48q-15 -23 -42 -24q-27 1 -42 24
q-12 24 0 48q15 23 42 24v0z" />
    <glyph glyph-name="u1F69A" unicode="&#x26df;" horiz-adv-x="640" 
d="M368 400v-320v320v-320h-48h-77q-13 22 -34 35q-22 13 -49 13t-49 -13q-21 -13 -34 -35h-29v0v320v0h320v0zM384 32q1 -41 28 -68v0v0q27 -27 68 -28q41 1 68 28t28 68h40h24v48v0h-24h-8v136v0v10v0l-7 7v0l-112 112v0l-7 7v0h-10h-56v48v0v48v0h-48h-368v-48v0v-320v0
v-48v0h48h16q1 -41 28 -68t68 -28q41 1 68 28t28 68h64h64zM462 304l96 -96l-96 96l96 -96h-142v0v96v0h46v0zM112 32q1 27 24 42q24 12 48 0q23 -15 24 -42q-1 -27 -24 -42q-24 -12 -48 0q-23 15 -24 42v0zM480 80q27 -1 42 -24q12 -24 0 -48q-15 -23 -42 -24q-27 1 -42 24
q-12 24 0 48q15 23 42 24v0z" />
    <glyph glyph-name="uniF712" unicode="&#xf712;" 
d="M64 322l192 74l-192 -74l192 74l192 -74v0q1 -33 -6 -78q-8 -44 -28 -91q-21 -49 -59 -93q-39 -43 -99 -72q-60 29 -99 72q-38 44 -59 93q-20 47 -27 91q-8 45 -7 78v0zM496 335l-2 20l2 -20l-2 20l-19 8v0l-207 80v0l-12 5v0l-12 -5v0l-207 -80v0l-19 -8v0l-1 -20v0
q-3 -38 5 -91t32 -110t70 -108q46 -52 119 -85l13 -5v0l13 5v0q73 33 119 85q46 51 70 108t32 110t5 91h1zM280 328v24v-24v24h-48v0v-24v0v-48v0h-96h-24v-48v0h24h96v-176v0v-24v0h48v0v24v0v176v0h96h24v48v0h-24h-96v48v0z" />
    <glyph glyph-name="uniF712" unicode="&#x26e8;" 
d="M64 322l192 74l-192 -74l192 74l192 -74v0q1 -33 -6 -78q-8 -44 -28 -91q-21 -49 -59 -93q-39 -43 -99 -72q-60 29 -99 72q-38 44 -59 93q-20 47 -27 91q-8 45 -7 78v0zM496 335l-2 20l2 -20l-2 20l-19 8v0l-207 80v0l-12 5v0l-12 -5v0l-207 -80v0l-19 -8v0l-1 -20v0
q-3 -38 5 -91t32 -110t70 -108q46 -52 119 -85l13 -5v0l13 5v0q73 33 119 85q46 51 70 108t32 110t5 91h1zM280 328v24v-24v24h-48v0v-24v0v-48v0h-96h-24v-48v0h24h96v-176v0v-24v0h48v0v24v0v176v0h96h24v48v0h-24h-96v48v0z" />
    <glyph glyph-name="uniF6A1" unicode="&#xf6a1;" 
d="M416 368h8h-8h8l7 2v0l33 11v0v-37v0l-32 -24v0h-152h-200l-32 24v0v37v0l33 -11v0l7 -2v0h8h320zM232 272v-64v64v-64h-120v0v64v0h120v0zM64 160v-200v200v-200v-24v0h48v0v24v0v200v0h144h144v-200v0v-24v0h48v0v24v0v200v0h40h24v48v0h-24h-40v64v0l64 48v0v77v0v51
v0l-48 -16v0l-48 -16v0h-320v0l-48 16v0l-48 16v0v-51v0v-77v0l64 -48v0v-64v0h-40h-24v-48v0h24h40zM400 208h-120h120h-120v64v0h120v0v-64v0z" />
    <glyph glyph-name="uniF6A1" unicode="&#x26e9;" 
d="M416 368h8h-8h8l7 2v0l33 11v0v-37v0l-32 -24v0h-152h-200l-32 24v0v37v0l33 -11v0l7 -2v0h8h320zM232 272v-64v64v-64h-120v0v64v0h120v0zM64 160v-200v200v-200v-24v0h48v0v24v0v200v0h144h144v-200v0v-24v0h48v0v24v0v200v0h40h24v48v0h-24h-40v64v0l64 48v0v77v0v51
v0l-48 -16v0l-48 -16v0h-320v0l-48 16v0l-48 16v0v-51v0v-77v0l64 -48v0v-64v0h-40h-24v-48v0h24h40zM400 208h-120h120h-120v64v0h120v0v-64v0z" />
    <glyph glyph-name="uniF51D" unicode="&#xf51d;" horiz-adv-x="640" 
d="M344 424v24v-24v24h-48v0v-24v0v-24v0h-32h-24v-48v0h24h32v-27v0l-125 -81v0l-11 -7v0v-13v0v-240v0h-112v0v107v0l80 52v0v57v0l-117 -76v0l-11 -7v0v-13v0v-144v0v-24v0h24h168v0v0h256h192v24v0v144v0v13v0l-11 7v0l-117 76v0v-57v0l80 -52v0v-107v0h-112v0v240v0v13
v0l-11 7v0l-125 81v0v27v0h32h24v48v0h-24h-32v24v0zM208 211l112 72l-112 -72l112 72l112 -72v0v-227v0h-64v0v96v0q-1 20 -14 34q-14 13 -34 14q-20 -1 -34 -14q-13 -14 -14 -34v-96v0h-64v0v227v0z" />
    <glyph glyph-name="uniF51D" unicode="&#x26ea;" horiz-adv-x="640" 
d="M344 424v24v-24v24h-48v0v-24v0v-24v0h-32h-24v-48v0h24h32v-27v0l-125 -81v0l-11 -7v0v-13v0v-240v0h-112v0v107v0l80 52v0v57v0l-117 -76v0l-11 -7v0v-13v0v-144v0v-24v0h24h168v0v0h256h192v24v0v144v0v13v0l-11 7v0l-117 76v0v-57v0l80 -52v0v-107v0h-112v0v240v0v13
v0l-11 7v0l-125 81v0v27v0h32h24v48v0h-24h-32v24v0zM208 211l112 72l-112 -72l112 72l112 -72v0v-227v0h-64v0v96v0q-1 20 -14 34q-14 13 -34 14q-20 -1 -34 -14q-13 -14 -14 -34v-96v0h-64v0v227v0z" />
    <glyph glyph-name="uniF6FD" unicode="&#xf6fd;" horiz-adv-x="640" 
d="M48 16v9v-9v9l208 306v0l208 -306v0v-9v0h-416v0zM256 416l-29 -43l29 43l-29 -43l-227 -333v0v-24v0v-48v0h48h592v78v0l-160 242v0l-67 -102v0l-128 187v0l-29 43v0z" />
    <glyph glyph-name="uniF6FD" unicode="&#x26f0;" horiz-adv-x="640" 
d="M48 16v9v-9v9l208 306v0l208 -306v0v-9v0h-416v0zM256 416l-29 -43l29 43l-29 -43l-227 -333v0v-24v0v-48v0h48h592v78v0l-160 242v0l-67 -102v0l-128 187v0l-29 43v0z" />
    <glyph glyph-name="uniF7C9" unicode="&#xf7c9;" 
d="M381 400q1 27 24 42q24 12 48 0q23 -15 24 -42q-1 -27 -24 -42q-24 -12 -48 0q-23 15 -24 42v0zM14 200l21 -11l-21 11l21 -11l205 -106v0l49 74v0l-84 90v0q-14 16 -15 34l89 -43v0l59 -62v0l13 -13v0l-11 -16v0l-57 -86v0l133 -70v0l37 19v0l22 11v0l21 -43v0l-21 -11
v0l-48 -24v0l-11 -6v0l-11 6v0l-392 204v0l-21 11v0l22 42v0zM340 392l10 -23l-10 23l10 -23l43 -100v0l65 -31v0l22 -11v0l-21 -43v0l-21 10v0l-43 21v0v-1v0l-14 7v0l-229 110v0l-10 -18v0l-7 -14v0l-28 14v0l7 14v0l9 18v0l-18 9v0l-14 6v0l14 29v0l14 -7v0l18 -8v0l9 17
v0l7 15v0l29 -15v0l-8 -14v0l-8 -17v0l52 -25v0q2 1 4 1l96 46v0l22 10v0zM274 308l63 -30l-63 30l63 -30l-21 50v0l-42 -20v0z" />
    <glyph glyph-name="uniF7C9" unicode="&#x26f7;" 
d="M381 400q1 27 24 42q24 12 48 0q23 -15 24 -42q-1 -27 -24 -42q-24 -12 -48 0q-23 15 -24 42v0zM14 200l21 -11l-21 11l21 -11l205 -106v0l49 74v0l-84 90v0q-14 16 -15 34l89 -43v0l59 -62v0l13 -13v0l-11 -16v0l-57 -86v0l133 -70v0l37 19v0l22 11v0l21 -43v0l-21 -11
v0l-48 -24v0l-11 -6v0l-11 6v0l-392 204v0l-21 11v0l22 42v0zM340 392l10 -23l-10 23l10 -23l43 -100v0l65 -31v0l22 -11v0l-21 -43v0l-21 10v0l-43 21v0v-1v0l-14 7v0l-229 110v0l-10 -18v0l-7 -14v0l-28 14v0l7 14v0l9 18v0l-18 9v0l-14 6v0l14 29v0l14 -7v0l18 -8v0l9 17
v0l7 15v0l29 -15v0l-8 -14v0l-8 -17v0l52 -25v0q2 1 4 1l96 46v0l22 10v0zM274 308l63 -30l-63 30l63 -30l-21 50v0l-42 -20v0z" />
    <glyph glyph-name="uniF7AC" unicode="&#xf7ac;" horiz-adv-x="576" 
d="M320 448v-24v24v-24v-104v0v-32v0v-22v0l175 -51v0l17 -5v0v-18v0v-104v0v-24v0h-24h-456v24v0v248v0v18v0l18 5v0l222 61v0v4v0v24v0h48v0zM272 320v51v-51v51l-192 -53v0v-206v0h384v0v62v0l-171 50v0h-53h-16v32v0h16h32v32v0h-32h-16v32v0h16h32zM576 40v-24v24v-24
v-56v0v-24v0h-24h-552v48v0h24h72v24v0v24v0h48v0v-24v0v-24v0h240v0v24v0v24v0h48v0v-24v0v-24v0h96v0v32v0v24v0h48v0z" />
    <glyph glyph-name="uniF7AC" unicode="&#x26f8;" horiz-adv-x="576" 
d="M320 448v-24v24v-24v-104v0v-32v0v-22v0l175 -51v0l17 -5v0v-18v0v-104v0v-24v0h-24h-456v24v0v248v0v18v0l18 5v0l222 61v0v4v0v24v0h48v0zM272 320v51v-51v51l-192 -53v0v-206v0h384v0v62v0l-171 50v0h-53h-16v32v0h16h32v32v0h-32h-16v32v0h16h32zM576 40v-24v24v-24
v-56v0v-24v0h-24h-552v48v0h24h72v24v0v24v0h48v0v-24v0v-24v0h240v0v24v0v24v0h48v0v-24v0v-24v0h96v0v32v0v24v0h48v0z" />
    <glyph glyph-name="uniF6BB" unicode="&#xf6bb;" horiz-adv-x="576" 
d="M386 417l-16 -18l16 18l-16 -18l-51 -61v0l243 -291v0l6 -7v0v-8v0v-72v0v-24v0h-24h-114l-2 -2v0l-1 2v0h-115h-163l-1 -2v0l-2 2v0h-114h-24v24v0v72v0v8v0l6 7v0l243 291v0l-51 61v0l-16 18v0l37 31v0l15 -18v0l46 -55v0l46 55v0l15 18v0l37 -31v0zM187 -16h77h-77
h202l-101 129v0l-101 -129v0zM450 -16h70h-70h70v39v0l-232 277v0l-232 -277v0v-39v0h70v0l143 183v0l19 24v0l19 -24v0l143 -183v0z" />
    <glyph glyph-name="uniF6BB" unicode="&#x26fa;" horiz-adv-x="576" 
d="M386 417l-16 -18l16 18l-16 -18l-51 -61v0l243 -291v0l6 -7v0v-8v0v-72v0v-24v0h-24h-114l-2 -2v0l-1 2v0h-115h-163l-1 -2v0l-2 2v0h-114h-24v24v0v72v0v8v0l6 7v0l243 291v0l-51 61v0l-16 18v0l37 31v0l15 -18v0l46 -55v0l46 55v0l15 18v0l37 -31v0zM187 -16h77h-77
h202l-101 129v0l-101 -129v0zM450 -16h70h-70h70v39v0l-232 277v0l-232 -277v0v-39v0h70v0l143 183v0l19 24v0l19 -24v0l143 -183v0z" />
    <glyph glyph-name="uniF52F" unicode="&#xf52f;" 
d="M272 400v-144v144v-144h-192v0v144v0h192v0zM272 208v-224v224v-224h-192v0v224v0h192v0zM32 400v-416v416v-416h-32v0v-48v0h32h320v48v0h-32v0v160v0h8v0q17 0 28 -12q12 -11 12 -28v-32v0q1 -31 21 -51t51 -21q31 1 51 21t21 51v240v0v10v0l-7 7v0l-88 88v0l-17 17v0
l-34 -34v0l17 -17v0l33 -33v0v-62v0q1 -23 14 -40q13 -16 34 -22v-154v0q-2 -22 -24 -24q-22 2 -24 24v32v0q-1 37 -26 62t-62 26h-8v0v208v0v48v0h-48h-240v-48v0z" />
    <glyph glyph-name="uniF52F" unicode="&#x26fd;" 
d="M272 400v-144v144v-144h-192v0v144v0h192v0zM272 208v-224v224v-224h-192v0v224v0h192v0zM32 400v-416v416v-416h-32v0v-48v0h32h320v48v0h-32v0v160v0h8v0q17 0 28 -12q12 -11 12 -28v-32v0q1 -31 21 -51t51 -21q31 1 51 21t21 51v240v0v10v0l-7 7v0l-88 88v0l-17 17v0
l-34 -34v0l17 -17v0l33 -33v0v-62v0q1 -23 14 -40q13 -16 34 -22v-154v0q-2 -22 -24 -24q-22 2 -24 24v32v0q-1 37 -26 62t-62 26h-8v0v208v0v48v0h-48h-240v-48v0z" />
    <glyph glyph-name="uniF0C4" unicode="&#xf0c4;" 
d="M512 35l-30 -37l30 37l-30 -37l-19 16v0l-151 126v0l38 31v0l144 -121v0l18 -15v0zM112 400q-36 -1 -55 -32q-18 -32 0 -64q19 -31 55 -32q36 1 55 32q18 32 0 64q-19 31 -55 32v0zM112 448q48 -1 79 -33v0v0q32 -31 33 -79q0 -27 -12 -50l76 -63v0l185 155v0l18 16v0
l31 -37v0l-19 -15v0l-291 -244v0q12 -23 12 -50q-1 -48 -33 -79q-31 -32 -79 -33q-48 1 -79 33q-32 31 -33 79q1 48 33 79q31 32 79 33q41 -1 70 -25l68 57v0l-68 57v0q-29 -24 -70 -25q-48 1 -79 33q-32 31 -33 79q1 48 33 79q31 32 79 33v0zM176 48q-1 36 -32 55
q-32 18 -64 0q-31 -19 -32 -55q1 -36 32 -55q32 -18 64 0q31 19 32 55v0z" />
    <glyph glyph-name="uniF0C4" unicode="&#x2704;" 
d="M512 35l-30 -37l30 37l-30 -37l-19 16v0l-151 126v0l38 31v0l144 -121v0l18 -15v0zM112 400q-36 -1 -55 -32q-18 -32 0 -64q19 -31 55 -32q36 1 55 32q18 32 0 64q-19 31 -55 32v0zM112 448q48 -1 79 -33v0v0q32 -31 33 -79q0 -27 -12 -50l76 -63v0l185 155v0l18 16v0
l31 -37v0l-19 -15v0l-291 -244v0q12 -23 12 -50q-1 -48 -33 -79q-31 -32 -79 -33q-48 1 -79 33q-32 31 -33 79q1 48 33 79q31 32 79 33q41 -1 70 -25l68 57v0l-68 57v0q-29 -24 -70 -25q-48 1 -79 33q-32 31 -33 79q1 48 33 79q31 32 79 33v0zM176 48q-1 36 -32 55
q-32 18 -64 0q-31 -19 -32 -55q1 -36 32 -55q32 -18 64 0q31 19 32 55v0z" />
    <glyph glyph-name="uniF0C4" unicode="&#x2702;" 
d="M512 35l-30 -37l30 37l-30 -37l-19 16v0l-151 126v0l38 31v0l144 -121v0l18 -15v0zM112 400q-36 -1 -55 -32q-18 -32 0 -64q19 -31 55 -32q36 1 55 32q18 32 0 64q-19 31 -55 32v0zM112 448q48 -1 79 -33v0v0q32 -31 33 -79q0 -27 -12 -50l76 -63v0l185 155v0l18 16v0
l31 -37v0l-19 -15v0l-291 -244v0q12 -23 12 -50q-1 -48 -33 -79q-31 -32 -79 -33q-48 1 -79 33q-32 31 -33 79q1 48 33 79q31 32 79 33q41 -1 70 -25l68 57v0l-68 57v0q-29 -24 -70 -25q-48 1 -79 33q-32 31 -33 79q1 48 33 79q31 32 79 33v0zM176 48q-1 36 -32 55
q-32 18 -64 0q-31 -19 -32 -55q1 -36 32 -55q32 -18 64 0q31 19 32 55v0z" />
    <glyph glyph-name="uniF0C4" unicode="&#x2700;" 
d="M512 35l-30 -37l30 37l-30 -37l-19 16v0l-151 126v0l38 31v0l144 -121v0l18 -15v0zM112 400q-36 -1 -55 -32q-18 -32 0 -64q19 -31 55 -32q36 1 55 32q18 32 0 64q-19 31 -55 32v0zM112 448q48 -1 79 -33v0v0q32 -31 33 -79q0 -27 -12 -50l76 -63v0l185 155v0l18 16v0
l31 -37v0l-19 -15v0l-291 -244v0q12 -23 12 -50q-1 -48 -33 -79q-31 -32 -79 -33q-48 1 -79 33q-32 31 -33 79q1 48 33 79q31 32 79 33q41 -1 70 -25l68 57v0l-68 57v0q-29 -24 -70 -25q-48 1 -79 33q-32 31 -33 79q1 48 33 79q31 32 79 33v0zM176 48q-1 36 -32 55
q-32 18 -64 0q-31 -19 -32 -55q1 -36 32 -55q32 -18 64 0q31 19 32 55v0z" />
    <glyph glyph-name="uniF3DE" unicode="&#xf3de;" horiz-adv-x="576" 
d="M576 192q-1 22 -14 37q-12 14 -27 23q-32 19 -65 20h-100v0l-27 48v0h25v0v64v0h-61v0l-30 52v0l-7 12v0h-14h-112l9 -31v0l42 -145v0h-31v0l-41 54v0l-7 10v0h-12h-105l10 -32v0l28 -82v0q-20 -8 -21 -30q1 -22 21 -30l-28 -82v0l-10 -32v0h33h84l7 10v0l41 54v0h31v0
l-42 -145v0l-9 -31v0h32h94l7 12v0l30 52v0h61v0v64v0h-25v0l28 48v0h99v0q33 1 65 20q14 8 27 23t14 37v0zM470 224q17 0 40 -13q10 -6 15 -12q4 -6 3 -7q2 -5 -18 -19q-23 -13 -40 -13h-113h-14l-7 -12v0l-94 -164v0h-34v0l41 145v0l9 31v0h-32h-86l-7 -10v0l-41 -54v0
h-27v0l30 88v0l2 8v0l-2 8v0l-30 88v0h27v0l41 -54v0l7 -10v0h12h106l-9 31v0l-41 145v0h34v0l94 -164v0l7 -12v0h14h113z" />
    <glyph glyph-name="uniF3DE" unicode="&#x2708;" horiz-adv-x="576" 
d="M576 192q-1 22 -14 37q-12 14 -27 23q-32 19 -65 20h-100v0l-27 48v0h25v0v64v0h-61v0l-30 52v0l-7 12v0h-14h-112l9 -31v0l42 -145v0h-31v0l-41 54v0l-7 10v0h-12h-105l10 -32v0l28 -82v0q-20 -8 -21 -30q1 -22 21 -30l-28 -82v0l-10 -32v0h33h84l7 10v0l41 54v0h31v0
l-42 -145v0l-9 -31v0h32h94l7 12v0l30 52v0h61v0v64v0h-25v0l28 48v0h99v0q33 1 65 20q14 8 27 23t14 37v0zM470 224q17 0 40 -13q10 -6 15 -12q4 -6 3 -7q2 -5 -18 -19q-23 -13 -40 -13h-113h-14l-7 -12v0l-94 -164v0h-34v0l41 145v0l9 31v0h-32h-86l-7 -10v0l-41 -54v0
h-27v0l30 88v0l2 8v0l-2 8v0l-30 88v0h27v0l41 -54v0l7 -10v0h12h106l-9 31v0l-41 145v0h34v0l94 -164v0l7 -12v0h14h113z" />
    <glyph glyph-name="u1F582" unicode="&#x1f582;" 
d="M48 297l208 -143l-208 143l208 -143l208 143v0v39v0h-416v0v-39v0zM464 239l-208 -143l208 143l-208 -143l-208 143v0v-191v0h416v0v191v0zM0 48v224v-224v224v64v0v48v0h48h464v-48v0v-64v0v-224v0v-48v0h-48h-464v48v0z" />
    <glyph glyph-name="u1F582" unicode="&#xf0e0;" 
d="M48 297l208 -143l-208 143l208 -143l208 143v0v39v0h-416v0v-39v0zM464 239l-208 -143l208 143l-208 -143l-208 143v0v-191v0h416v0v191v0zM0 48v224v-224v224v64v0v48v0h48h464v-48v0v-64v0v-224v0v-48v0h-48h-464v48v0z" />
    <glyph glyph-name="u1F582" unicode="&#xf003;" 
d="M48 297l208 -143l-208 143l208 -143l208 143v0v39v0h-416v0v-39v0zM464 239l-208 -143l208 143l-208 -143l-208 143v0v-191v0h416v0v191v0zM0 48v224v-224v224v64v0v48v0h48h464v-48v0v-64v0v-224v0v-48v0h-48h-464v48v0z" />
    <glyph glyph-name="u1F582" unicode="&#x2709;" 
d="M48 297l208 -143l-208 143l208 -143l208 143v0v39v0h-416v0v-39v0zM464 239l-208 -143l208 143l-208 -143l-208 143v0v-191v0h416v0v191v0zM0 48v224v-224v224v64v0v48v0h48h464v-48v0v-64v0v-224v0v-48v0h-48h-464v48v0z" />
    <glyph glyph-name="uniF6DE" unicode="&#xf6de;" horiz-adv-x="448" 
d="M128 448h24h-24h128v-24v0v-8v0h56h24v-24v0v-40v0h56h24v-24v0v-112v0v0v0v-24v0q0 -39 -17 -71q-18 -32 -47 -53v-108v0v-24v0h-48v0v24v0v121v0v14v0l12 7v0q42 25 51 74h-55h-24v24v0v8v0h-32v0v-40v0v-24v0h-24h-104v48v0h24h56v32v0h-56h-72v-16v0v-16v0
q1 -37 22 -64q22 -27 56 -37l18 -4v0v-19v0v-108v0v-24v0h-48v0v24v0v91v0q-41 16 -67 52q-26 35 -29 81v0v0v8v0v16v0v8v0v32v0v24v0h16v0v120v0v24v0h24h56v8v0v24v0zM368 280v24v-24v24h-32v0v-72v0v-8v0h32v0v32v0v24v0zM128 368h-32h32h-32v-96v0h32v0v96v0zM208 272
v120v-120v120v8v0h-32v0v-8v0v-120v0h32v0zM256 256h32h-32h32v72v0v24v0v16v0h-32v0v-112v0z" />
    <glyph glyph-name="uniF6DE" unicode="&#x270a;" horiz-adv-x="448" 
d="M128 448h24h-24h128v-24v0v-8v0h56h24v-24v0v-40v0h56h24v-24v0v-112v0v0v0v-24v0q0 -39 -17 -71q-18 -32 -47 -53v-108v0v-24v0h-48v0v24v0v121v0v14v0l12 7v0q42 25 51 74h-55h-24v24v0v8v0h-32v0v-40v0v-24v0h-24h-104v48v0h24h56v32v0h-56h-72v-16v0v-16v0
q1 -37 22 -64q22 -27 56 -37l18 -4v0v-19v0v-108v0v-24v0h-48v0v24v0v91v0q-41 16 -67 52q-26 35 -29 81v0v0v8v0v16v0v8v0v32v0v24v0h16v0v120v0v24v0h24h56v8v0v24v0zM368 280v24v-24v24h-32v0v-72v0v-8v0h32v0v32v0v24v0zM128 368h-32h32h-32v-96v0h32v0v96v0zM208 272
v120v-120v120v8v0h-32v0v-8v0v-120v0h32v0zM256 256h32h-32h32v72v0v24v0v16v0h-32v0v-112v0z" />
    <glyph glyph-name="u1F91A" unicode="&#x1f91a;" 
d="M216 448h-24h24h-24v-24v0v-8v0v0v0h-56h-24v-24v0v-206v0l-7 8v0l-29 28v0l-17 17v0l-17 -17v0l-35 -35v0l-7 -7v0v-10v0v-43v0v-9v0l7 -7v0l7 -7v0l93 -93v0q36 -36 83 -56q46 -19 98 -19h8v0q78 2 130 54t54 130v0v0v24v0v184v0v24v0h-24h-56v40v0v24v0h-24h-56v8v0
v24v0h-24h-80zM192 368v-152v152v-152v-24v0h48v0v24v0v152v0v0v0v24v0v8v0h32v0v-8v0v-176v0v-24v0h48v0v24v0v152v0h32v0v-8v0v0v0v-24v0v-120v0v-24v0h48v0v24v0v88v0h32v0v-136v0v0v0v-24v0v-24v0q-1 -58 -40 -96q-38 -39 -96 -40h-8v0q-86 1 -148 61l-92 92v0v23v0
l11 11v0l12 -11v0l40 -41v0l17 -17v0l17 17v0l8 8v0l7 7v0v10v0v224v0h32v0z" />
    <glyph glyph-name="u1F91A" unicode="&#xf256;" 
d="M216 448h-24h24h-24v-24v0v-8v0v0v0h-56h-24v-24v0v-206v0l-7 8v0l-29 28v0l-17 17v0l-17 -17v0l-35 -35v0l-7 -7v0v-10v0v-43v0v-9v0l7 -7v0l7 -7v0l93 -93v0q36 -36 83 -56q46 -19 98 -19h8v0q78 2 130 54t54 130v0v0v24v0v184v0v24v0h-24h-56v40v0v24v0h-24h-56v8v0
v24v0h-24h-80zM192 368v-152v152v-152v-24v0h48v0v24v0v152v0v0v0v24v0v8v0h32v0v-8v0v-176v0v-24v0h48v0v24v0v152v0h32v0v-8v0v0v0v-24v0v-120v0v-24v0h48v0v24v0v88v0h32v0v-136v0v0v0v-24v0v-24v0q-1 -58 -40 -96q-38 -39 -96 -40h-8v0q-86 1 -148 61l-92 92v0v23v0
l11 11v0l12 -11v0l40 -41v0l17 -17v0l17 17v0l8 8v0l7 7v0v10v0v224v0h32v0z" />
    <glyph glyph-name="u1F91A" unicode="&#x270b;" 
d="M216 448h-24h24h-24v-24v0v-8v0v0v0h-56h-24v-24v0v-206v0l-7 8v0l-29 28v0l-17 17v0l-17 -17v0l-35 -35v0l-7 -7v0v-10v0v-43v0v-9v0l7 -7v0l7 -7v0l93 -93v0q36 -36 83 -56q46 -19 98 -19h8v0q78 2 130 54t54 130v0v0v24v0v184v0v24v0h-24h-56v40v0v24v0h-24h-56v8v0
v24v0h-24h-80zM192 368v-152v152v-152v-24v0h48v0v24v0v152v0v0v0v24v0v8v0h32v0v-8v0v-176v0v-24v0h48v0v24v0v152v0h32v0v-8v0v0v0v-24v0v-120v0v-24v0h48v0v24v0v88v0h32v0v-136v0v0v0v-24v0v-24v0q-1 -58 -40 -96q-38 -39 -96 -40h-8v0q-86 1 -148 61l-92 92v0v23v0
l11 11v0l12 -11v0l40 -41v0l17 -17v0l17 17v0l8 8v0l7 7v0v10v0v224v0h32v0z" />
    <glyph glyph-name="uniF25B" unicode="&#xf25b;" 
d="M210 445l-23 2l23 -2l-23 2l-3 -24v0l-10 -94v0l-26 75v0l-8 23v0l-23 -8v0l-75 -27v0l-23 -8v0l8 -22v0l54 -154v0h-17v0v-24v0v-56v0v0v0v-24v0v0v0q2 -71 49 -119q48 -47 119 -49h48v0q71 2 119 49q47 48 49 119v8v0v24v0v56v0v72v0v24v0h-24h-56v8v0v24v0h-24h-42
l9 90v0l3 24v0l-24 2v0l-80 9v0zM288 266l6 6h26v0v-8v0v-72v0h-32v0v74v0zM254 320h-14h14h-14v-24v0v-88v0h-23v0l-6 15v0l18 171v0l32 -3v0l-7 -71v0zM110 366l56 -158l-56 158l56 -158h-34v0l-52 147v0l30 11v0zM400 192v-32v32v-32h-32v0v8v0v72v0h32v0v-48v0zM400 112
v-8v8v-8q-1 -51 -35 -85t-85 -35h-48v0q-51 1 -85 35t-35 85v0v0v24v0v0v0v32v0h128v0v-32v0h-56h-24v-48v0h24h104v24v0v40v0h32v0v-8v0v-24v0h24h56z" />
    <glyph glyph-name="uniF25B" unicode="&#x270c;" 
d="M210 445l-23 2l23 -2l-23 2l-3 -24v0l-10 -94v0l-26 75v0l-8 23v0l-23 -8v0l-75 -27v0l-23 -8v0l8 -22v0l54 -154v0h-17v0v-24v0v-56v0v0v0v-24v0v0v0q2 -71 49 -119q48 -47 119 -49h48v0q71 2 119 49q47 48 49 119v8v0v24v0v56v0v72v0v24v0h-24h-56v8v0v24v0h-24h-42
l9 90v0l3 24v0l-24 2v0l-80 9v0zM288 266l6 6h26v0v-8v0v-72v0h-32v0v74v0zM254 320h-14h14h-14v-24v0v-88v0h-23v0l-6 15v0l18 171v0l32 -3v0l-7 -71v0zM110 366l56 -158l-56 158l56 -158h-34v0l-52 147v0l30 11v0zM400 192v-32v32v-32h-32v0v8v0v72v0h32v0v-48v0zM400 112
v-8v8v-8q-1 -51 -35 -85t-85 -35h-48v0q-51 1 -85 35t-35 85v0v0v24v0v0v0v32v0h128v0v-32v0h-56h-24v-48v0h24h104v24v0v40v0h32v0v-8v0v-24v0h24h56z" />
    <glyph glyph-name="uniF303" unicode="&#xf303;" 
d="M0 -64l10 51l-10 -51l10 51l22 109v0l19 19v0v1v0l4 3v0l295 295v0l34 34v0l34 -34v0l60 -60v0l34 -34v0l-34 -34v0l-295 -296v0l-3 -3v0h-1v0l-19 -19v0l-109 -22v0l-51 -10v0zM76 72l-15 -75l15 75l-15 -75l75 15v0l9 9v0l8 12v0l-31 8v0l-14 3v0l-3 14v0l-8 31v0
l-12 -8v0l-9 -9v0zM382 258l-60 60l60 -60l-60 60l-186 -186v0l12 -48v0l48 -12v0l186 186v0zM315 229l-96 -96l96 96l-96 -96l-11 -11v0l-23 22v0l12 12v0l96 96v0l11 11v0l23 -22v0l-12 -12v0z" />
    <glyph glyph-name="uniF303" unicode="&#xf040;" 
d="M0 -64l10 51l-10 -51l10 51l22 109v0l19 19v0v1v0l4 3v0l295 295v0l34 34v0l34 -34v0l60 -60v0l34 -34v0l-34 -34v0l-295 -296v0l-3 -3v0h-1v0l-19 -19v0l-109 -22v0l-51 -10v0zM76 72l-15 -75l15 75l-15 -75l75 15v0l9 9v0l8 12v0l-31 8v0l-14 3v0l-3 14v0l-8 31v0
l-12 -8v0l-9 -9v0zM382 258l-60 60l60 -60l-60 60l-186 -186v0l12 -48v0l48 -12v0l186 186v0zM315 229l-96 -96l96 96l-96 -96l-11 -11v0l-23 22v0l12 12v0l96 96v0l11 11v0l23 -22v0l-12 -12v0z" />
    <glyph glyph-name="uniF303" unicode="&#x270f;" 
d="M0 -64l10 51l-10 -51l10 51l22 109v0l19 19v0v1v0l4 3v0l295 295v0l34 34v0l34 -34v0l60 -60v0l34 -34v0l-34 -34v0l-295 -296v0l-3 -3v0h-1v0l-19 -19v0l-109 -22v0l-51 -10v0zM76 72l-15 -75l15 75l-15 -75l75 15v0l9 9v0l8 12v0l-31 8v0l-14 3v0l-3 14v0l-8 31v0
l-12 -8v0l-9 -9v0zM382 258l-60 60l60 -60l-60 60l-186 -186v0l12 -48v0l48 -12v0l186 186v0zM315 229l-96 -96l96 96l-96 -96l-11 -11v0l-23 22v0l12 12v0l96 96v0l11 11v0l23 -22v0l-12 -12v0z" />
    <glyph glyph-name="uniF5AD" unicode="&#xf5ad;" 
d="M374 250v0v0v0l-3 -11v0l-57 -169v0l-229 -72v0l102 103v0q10 -5 21 -5q20 1 34 14q13 14 14 34q-1 20 -14 34q-14 13 -34 14q-20 -1 -34 -14q-13 -14 -14 -34q0 -11 5 -21l-103 -103v0l72 230v0l169 56v0l11 4v0v0v0l60 -60v0zM48 -64l304 96l-304 -96l304 96l64 192v0
l62 62v0l34 34v0l-34 34v0l-60 60v0l-34 34v0l-34 -34v0l-62 -62v0l-192 -64v0l-96 -304v0l48 -48v0z" />
    <glyph glyph-name="uniF5AD" unicode="&#x2711;" 
d="M374 250v0v0v0l-3 -11v0l-57 -169v0l-229 -72v0l102 103v0q10 -5 21 -5q20 1 34 14q13 14 14 34q-1 20 -14 34q-14 13 -34 14q-20 -1 -34 -14q-13 -14 -14 -34q0 -11 5 -21l-103 -103v0l72 230v0l169 56v0l11 4v0v0v0l60 -60v0zM48 -64l304 96l-304 -96l304 96l64 192v0
l62 62v0l34 34v0l-34 34v0l-60 60v0l-34 34v0l-34 -34v0l-62 -62v0l-192 -64v0l-96 -304v0l48 -48v0z" />
    <glyph glyph-name="u1F58B" unicode="&#x1f58b;" 
d="M64 176l120 48l-120 -48l120 48l183 189v0l33 35v0l34 -34v0l44 -44v0l34 -34v0l-35 -33v0l-189 -183v0l-48 -120v0l-208 -64v0l-32 32v0l64 208v0zM223 195l36 -36l-36 36l36 -36l185 178v0l-43 42v0l-178 -184v0zM180 170l-77 -30l77 30l-77 -30l-35 -113v0l44 44v0v0
v1q2 22 24 24q22 -2 24 -24q-2 -22 -24 -24h-1v0l-44 -44v0l113 35v0l31 77v0l-55 55v-1z" />
    <glyph glyph-name="u1F58B" unicode="&#xf5ac;" 
d="M64 176l120 48l-120 -48l120 48l183 189v0l33 35v0l34 -34v0l44 -44v0l34 -34v0l-35 -33v0l-189 -183v0l-48 -120v0l-208 -64v0l-32 32v0l64 208v0zM223 195l36 -36l-36 36l36 -36l185 178v0l-43 42v0l-178 -184v0zM180 170l-77 -30l77 30l-77 -30l-35 -113v0l44 44v0v0
v1q2 22 24 24q22 -2 24 -24q-2 -22 -24 -24h-1v0l-44 -44v0l113 35v0l31 77v0l-55 55v-1z" />
    <glyph glyph-name="u1F58B" unicode="&#x2712;" 
d="M64 176l120 48l-120 -48l120 48l183 189v0l33 35v0l34 -34v0l44 -44v0l34 -34v0l-35 -33v0l-189 -183v0l-48 -120v0l-208 -64v0l-32 32v0l64 208v0zM223 195l36 -36l-36 36l36 -36l185 178v0l-43 42v0l-178 -184v0zM180 170l-77 -30l77 30l-77 -30l-35 -113v0l44 44v0v0
v1q2 22 24 24q22 -2 24 -24q-2 -22 -24 -24h-1v0l-44 -44v0l113 35v0l31 77v0l-55 55v-1z" />
    <glyph glyph-name="uniF00C" unicode="&#xf00c;" horiz-adv-x="448" 
d="M448 318l-17 -17l17 17l-17 -17l-253 -252v0l-17 -17v0l-17 17v0l-127 126v0l-17 17v0l34 34v0l17 -17v0l110 -109v0l236 235v0l17 17v0l34 -34v0z" />
    <glyph glyph-name="uniF00C" unicode="&#x2714;" horiz-adv-x="448" 
d="M448 318l-17 -17l17 17l-17 -17l-253 -252v0l-17 -17v0l-17 17v0l-127 126v0l-17 17v0l34 34v0l17 -17v0l110 -109v0l236 235v0l17 17v0l34 -34v0z" />
    <glyph glyph-name="uniF00C" unicode="&#x2713;" horiz-adv-x="448" 
d="M448 318l-17 -17l17 17l-17 -17l-253 -252v0l-17 -17v0l-17 17v0l-127 126v0l-17 17v0l34 34v0l17 -17v0l110 -109v0l236 235v0l17 17v0l34 -34v0z" />
    <glyph glyph-name="u1F547" unicode="&#x1f547;" horiz-adv-x="384" 
d="M136 448h-24h24h-24v-24v0v-88v0h-88h-24v-24v0v-112v0v-24v0h24h88v-216v0v-24v0h24h136v24v0v216v0h88h24v24v0v112v0v24v0h-24h-88v88v0v24v0h-24h-112zM160 312v88v-88v88h64v0v-88v0v-24v0h24h88v-64v0h-88h-24v-24v0v-216v0h-64v0v216v0v24v0h-24h-88v64v0h88h24
v24v0z" />
    <glyph glyph-name="u1F547" unicode="&#xf654;" horiz-adv-x="384" 
d="M136 448h-24h24h-24v-24v0v-88v0h-88h-24v-24v0v-112v0v-24v0h24h88v-216v0v-24v0h24h136v24v0v216v0h88h24v24v0v112v0v24v0h-24h-88v88v0v24v0h-24h-112zM160 312v88v-88v88h64v0v-88v0v-24v0h24h88v-64v0h-88h-24v-24v0v-216v0h-64v0v216v0v24v0h-24h-88v64v0h88h24
v24v0z" />
    <glyph glyph-name="u1F547" unicode="&#x271d;" horiz-adv-x="384" 
d="M136 448h-24h24h-24v-24v0v-88v0h-88h-24v-24v0v-112v0v-24v0h24h88v-216v0v-24v0h24h136v24v0v216v0h88h24v24v0v112v0v24v0h-24h-88v88v0v24v0h-24h-112zM160 312v88v-88v88h64v0v-88v0v-24v0h24h88v-64v0h-88h-24v-24v0v-216v0h-64v0v216v0v24v0h-24h-88v64v0h88h24
v24v0z" />
    <glyph glyph-name="uniF69A" unicode="&#xf69a;" 
d="M16 48h48h-48h147l69 -112v0h48v0l69 112v0h99h48v48v0l-59 96v0l59 96v0v48v0h-48h-99l-69 112v0h-48v0l-69 -112v0h-99h-48v-48v0l59 -96v0l-59 -96v0v-48v0zM103 146l31 -50l-31 50l31 -50h-62v0l31 50v0zM190 96l-59 96l59 -96l-59 96l59 96v0h132v0l59 -96v0
l-59 -96v0h-132v0zM220 48h72h-72h72l-36 -59v0l-36 59v0zM378 96l31 50l-31 -50l31 50l31 -50v0h-62v0zM409 238l-31 50l31 -50l-31 50h62v0l-31 -50v0zM292 336h-72h72h-72l36 59v0l36 -59v0zM134 288l-31 -50l31 50l-31 -50l-31 50v0h62v0z" />
    <glyph glyph-name="uniF69A" unicode="&#x2721;" 
d="M16 48h48h-48h147l69 -112v0h48v0l69 112v0h99h48v48v0l-59 96v0l59 96v0v48v0h-48h-99l-69 112v0h-48v0l-69 -112v0h-99h-48v-48v0l59 -96v0l-59 -96v0v-48v0zM103 146l31 -50l-31 50l31 -50h-62v0l31 50v0zM190 96l-59 96l59 -96l-59 96l59 96v0h132v0l59 -96v0
l-59 -96v0h-132v0zM220 48h72h-72h72l-36 -59v0l-36 59v0zM378 96l31 50l-31 -50l31 50l31 -50v0h-62v0zM409 238l-31 50l31 -50l-31 50h62v0l-31 -50v0zM292 336h-72h72h-72l36 59v0l36 -59v0zM134 288l-31 -50l31 50l-31 -50l-31 50v0h62v0z" />
    <glyph glyph-name="uniF890" unicode="&#xf890;" 
d="M384 384l-64 -32l64 32l-64 -32l64 -32v0l32 -64v0l32 64v0l64 32v0l-64 32v0l-32 64v0l-32 -64v0zM256 128l74 37l-74 -37l74 37l54 27v0l-54 27v0l-74 37v0l-37 74v0l-27 54v0l-27 -54v0l-37 -74v0l-74 -37v0l-54 -27v0l54 -27v0l74 -37v0l37 -74v0l27 -54v0l27 54v0
l37 74v0zM192 107l-21 42l21 -42l-21 42l-7 15v0l-15 7v0l-42 21v0l42 21v0l15 7v0l7 15v0l21 42v0l21 -42v0l7 -15v0l15 -7v0l42 -21v0l-42 -21v0l-15 -7v0l-7 -15v0l-21 -42v0zM416 128l-32 -64l32 64l-32 -64l-64 -32v0l64 -32v0l32 -64v0l32 64v0l64 32v0l-64 32v0
l-32 64v0z" />
    <glyph glyph-name="uniF890" unicode="&#x2728;" 
d="M384 384l-64 -32l64 32l-64 -32l64 -32v0l32 -64v0l32 64v0l64 32v0l-64 32v0l-32 64v0l-32 -64v0zM256 128l74 37l-74 -37l74 37l54 27v0l-54 27v0l-74 37v0l-37 74v0l-27 54v0l-27 -54v0l-37 -74v0l-74 -37v0l-54 -27v0l54 -27v0l74 -37v0l37 -74v0l27 -54v0l27 54v0
l37 74v0zM192 107l-21 42l21 -42l-21 42l-7 15v0l-15 7v0l-42 21v0l42 21v0l15 7v0l7 15v0l21 42v0l21 -42v0l7 -15v0l15 -7v0l42 -21v0l-42 -21v0l-15 -7v0l-7 -15v0l-21 -42v0zM416 128l-32 -64l32 64l-32 -64l-64 -32v0l64 -32v0l32 -64v0l32 64v0l64 32v0l-64 32v0
l-32 64v0z" />
    </font>
</defs>
</svg>
