<?xml version="1.0" standalone="no"?>
<!DOCTYPE svg PUBLIC "-//W3C//DTD SVG 1.1//EN" "http://www.w3.org/Graphics/SVG/1.1/DTD/svg11.dtd" >
<svg xmlns="http://www.w3.org/2000/svg" xmlns:xlink="http://www.w3.org/1999/xlink" version="1.1">
<metadata>
Created by FontForge 20201107 at Tue Apr  2 17:30:31 2024
 By 
Copyright (c) Font Awesome
</metadata>
<defs>
<font id="FontAwesome6Sharp-Solid" horiz-adv-x="512" >
  <font-face 
    font-family="Font Awesome 6 Sharp Solid"
    font-weight="900"
    font-stretch="normal"
    units-per-em="512"
    panose-1="2 0 9 3 0 0 0 0 0 0"
    ascent="409"
    descent="-103"
    x-height="416"
    bbox="-16 -67 640.564 449"
    underline-thickness="25"
    underline-position="-48"
    unicode-range="U+0022-1FAE5"
  />
<missing-glyph horiz-adv-x="384" 
d="M0 448h32h-32h384v-32v0v-448v0v-32v0h-32h-352v32v0v448v0v32v0zM64 58l90 134l-90 -134l90 134l-90 134v0v-268v0zM103 0h179h-179h179l-90 134v0l-89 -134v0zM231 192l89 -134l-89 134l89 -134v268v0l-89 -134v0zM282 384h-179h179h-179l89 -134v0l90 134v0z" />
    <glyph glyph-name=".notdef" horiz-adv-x="384" 
d="M0 448h32h-32h384v-32v0v-448v0v-32v0h-32h-352v32v0v448v0v32v0zM64 58l90 134l-90 -134l90 134l-90 134v0v-268v0zM103 0h179h-179h179l-90 134v0l-89 -134v0zM231 192l89 -134l-89 134l89 -134v268v0l-89 -134v0zM282 384h-179h179h-179l89 -134v0l90 134v0z" />
    <glyph glyph-name=".null" horiz-adv-x="0" 
 />
    <glyph glyph-name="nonmarkingreturn" horiz-adv-x="170" 
 />
    <glyph glyph-name="exclamation" unicode="&#xf12a;" horiz-adv-x="64" 
d="M64 384v32v-32v32h-64v0v-32v0v-256v0v-32v0h64v0v32v0v256v0zM64 32h-64h64h-64v-64v0h64v0v64v0z" />
    <glyph glyph-name="exclamation" unicode="&#x2757;" horiz-adv-x="64" 
d="M64 384v32v-32v32h-64v0v-32v0v-256v0v-32v0h64v0v32v0v256v0zM64 32h-64h64h-64v-64v0h64v0v64v0z" />
    <glyph glyph-name="exclamation" unicode="&#x2755;" horiz-adv-x="64" 
d="M64 384v32v-32v32h-64v0v-32v0v-256v0v-32v0h64v0v32v0v256v0zM64 32h-64h64h-64v-64v0h64v0v64v0z" />
    <glyph glyph-name="exclamation" unicode="!" horiz-adv-x="64" 
d="M64 384v32v-32v32h-64v0v-32v0v-256v0v-32v0h64v0v32v0v256v0zM64 32h-64h64h-64v-64v0h64v0v64v0z" />
    <glyph glyph-name="ditto" unicode="&#x22;" horiz-adv-x="320" 
d="M0 416l32 -256l-32 256l32 -256h64v0l32 256v0h-128v0zM192 416l32 -256l-32 256l32 -256h64v0l32 256v0h-128v0z" />
    <glyph glyph-name="hashtag" unicode="&#xf292;" horiz-adv-x="448" 
d="M309 416h65h-65h65l-16 -96v0h74h13l-11 -64v0h-2h-85l-21 -128v0h74h13l-11 -64v0h-2h-85l-16 -96v0h-65v0l16 96v0h-95v0l-16 -96v0h-65v0l16 96v0h-74h-13l11 64v0h2h85l21 128v0h-74h-13l11 64v0h2h85l16 96v0h65v0l-16 -96v0h95v0l16 96v0zM166 128h95h-95h95
l21 128v0h-95v0l-21 -128v0z" />
    <glyph glyph-name="hashtag" unicode="#" horiz-adv-x="448" 
d="M309 416h65h-65h65l-16 -96v0h74h13l-11 -64v0h-2h-85l-21 -128v0h74h13l-11 -64v0h-2h-85l-16 -96v0h-65v0l16 96v0h-95v0l-16 -96v0h-65v0l16 96v0h-74h-13l11 64v0h2h85l21 128v0h-74h-13l11 64v0h2h85l16 96v0h65v0l-16 -96v0h95v0l16 96v0zM166 128h95h-95h95
l21 128v0h-95v0l-21 -128v0z" />
    <glyph glyph-name="dollar-sign" unicode="&#x1f4b2;" horiz-adv-x="320" 
d="M192 448v-32v32v-32v-36v0h5v0l1 -1l48 -8v0l31 -6v0l-11 -63v0l-32 6v0l-47 8v0q-48 6 -79 -6q-27 -12 -29 -28q-2 -15 2 -20q2 -6 12 -14q25 -14 74 -26l3 -1v0h1q22 -5 45 -13q24 -8 44 -21q22 -13 36 -39q12 -27 6 -59q-6 -29 -23 -48q-18 -19 -43 -29
q-20 -8 -44 -11v-33v0v-32v0h-64v0v32v0v35v0h-1v0v0v0v0v0q-20 3 -45 10q-26 7 -47 16l-29 13v0l26 59v0l29 -13v0q17 -7 38 -13t37 -9q16 -2 30 -2h1v0q28 0 45 7q25 11 27 29q2 16 -1 21q-3 6 -13 13q-25 15 -74 26l-3 1v0v0v0v0q-22 6 -46 14q-24 7 -44 20
q-22 14 -35 40q-13 27 -6 59q5 28 24 47t44 29q20 8 43 11v35v0v32v0h64v0z" />
    <glyph glyph-name="dollar-sign" unicode="&#xf155;" horiz-adv-x="320" 
d="M192 448v-32v32v-32v-36v0h5v0l1 -1l48 -8v0l31 -6v0l-11 -63v0l-32 6v0l-47 8v0q-48 6 -79 -6q-27 -12 -29 -28q-2 -15 2 -20q2 -6 12 -14q25 -14 74 -26l3 -1v0h1q22 -5 45 -13q24 -8 44 -21q22 -13 36 -39q12 -27 6 -59q-6 -29 -23 -48q-18 -19 -43 -29
q-20 -8 -44 -11v-33v0v-32v0h-64v0v32v0v35v0h-1v0v0v0v0v0q-20 3 -45 10q-26 7 -47 16l-29 13v0l26 59v0l29 -13v0q17 -7 38 -13t37 -9q16 -2 30 -2h1v0q28 0 45 7q25 11 27 29q2 16 -1 21q-3 6 -13 13q-25 15 -74 26l-3 1v0v0v0v0q-22 6 -46 14q-24 7 -44 20
q-22 14 -35 40q-13 27 -6 59q5 28 24 47t44 29q20 8 43 11v35v0v32v0h64v0z" />
    <glyph glyph-name="dollar-sign" unicode="$" horiz-adv-x="320" 
d="M192 448v-32v32v-32v-36v0h5v0l1 -1l48 -8v0l31 -6v0l-11 -63v0l-32 6v0l-47 8v0q-48 6 -79 -6q-27 -12 -29 -28q-2 -15 2 -20q2 -6 12 -14q25 -14 74 -26l3 -1v0h1q22 -5 45 -13q24 -8 44 -21q22 -13 36 -39q12 -27 6 -59q-6 -29 -23 -48q-18 -19 -43 -29
q-20 -8 -44 -11v-33v0v-32v0h-64v0v32v0v35v0h-1v0v0v0v0v0q-20 3 -45 10q-26 7 -47 16l-29 13v0l26 59v0l29 -13v0q17 -7 38 -13t37 -9q16 -2 30 -2h1v0q28 0 45 7q25 11 27 29q2 16 -1 21q-3 6 -13 13q-25 15 -74 26l-3 1v0v0v0v0q-22 6 -46 14q-24 7 -44 20
q-22 14 -35 40q-13 27 -6 59q5 28 24 47t44 29q20 8 43 11v35v0v32v0h64v0z" />
    <glyph glyph-name="percent" unicode="&#xf541;" horiz-adv-x="384" 
d="M359 313l22 23l-22 -23l22 23l-45 45v0l-23 -22v0l-288 -288v0l-22 -23v0l45 -45v0l23 22v0l288 288v0zM8 376v-112v112v-112h112v0v112v0h-112v0zM264 120v-112v112v-112h112v0v112v0h-112v0z" />
    <glyph glyph-name="percent" unicode="&#xf295;" horiz-adv-x="384" 
d="M359 313l22 23l-22 -23l22 23l-45 45v0l-23 -22v0l-288 -288v0l-22 -23v0l45 -45v0l23 22v0l288 288v0zM8 376v-112v112v-112h112v0v112v0h-112v0zM264 120v-112v112v-112h112v0v112v0h-112v0z" />
    <glyph glyph-name="percent" unicode="%" horiz-adv-x="384" 
d="M359 313l22 23l-22 -23l22 23l-45 45v0l-23 -22v0l-288 -288v0l-22 -23v0l45 -45v0l23 22v0l288 288v0zM8 376v-112v112v-112h112v0v112v0h-112v0zM264 120v-112v112v-112h112v0v112v0h-112v0z" />
    <glyph glyph-name="ampersand" unicode="&#x26;" horiz-adv-x="448" 
d="M112 416h-32h32h-32v-32v0v-65v0q1 -43 29 -76l32 -34v0l-64 -47v0q-44 -35 -45 -90v-72v0v-32v0h32h209l10 14v0l27 42v0l51 -56v0h87v0l-16 18v0l-85 92v0l64 96v0l17 27v0l-53 35v0l-18 -26v0l-55 -83v0l-67 73v0l40 30v0q44 35 45 90v64v0v32v0h-32h-176zM237 282
l-45 -34l45 34l-45 -34l-35 39v0q-13 13 -13 32v33v0h112v0v-32v0q-1 -24 -19 -38v0zM115 110l69 52l-69 -52l69 52l82 -90v0l-27 -40v0h-143v0v40v0q1 24 19 38v0z" />
    <glyph glyph-name="apostrophe" unicode="'" horiz-adv-x="192" 
d="M72 96q51 1 85 35v0v0q34 34 35 85v8v0v96v0v96v0h-192v0v-192v0h128v0v-8v0q-1 -24 -16 -40q-16 -15 -40 -16h-8h-32v-64v0h32h8z" />
    <glyph glyph-name="bracket-round" unicode="(" horiz-adv-x="192" 
d="M0 192q1 58 20 102v0v0q19 45 45 74v0v0q25 30 45 43l36 -54v0q-22 -13 -51 -55q-28 -43 -31 -110q3 -67 31 -110q29 -42 51 -55l-36 -54v0q-20 13 -45 43q-26 29 -45 74q-19 44 -20 102v0z" />
    <glyph glyph-name="bracket-round-right" unicode=")" horiz-adv-x="192" 
d="M192 192q-1 58 -20 102v0v0q-19 45 -45 74v0v0q-25 30 -45 43l-36 -54v0q22 -13 51 -55q28 -43 31 -110q-3 -67 -31 -110q-29 -42 -51 -55l36 -54v0q20 13 45 43q26 29 45 74q19 44 20 102v0z" />
    <glyph glyph-name="asterisk" unicode="&#xf069;" horiz-adv-x="384" 
d="M224 416v-32v32v-32v-136v0l96 58v0l27 16v0l33 -55v0l-27 -16v0l-99 -59v0l99 -59v0l27 -17v0l-33 -54v0l-27 16v0l-96 57v0v-135v0v-32v0h-64v0v32v0v135v0l-95 -57v0l-28 -16v0l-33 55v0l28 16v0l98 59v0l-98 59v0l-28 16v0l33 55v0l27 -16v0l96 -58v0v136v0v32v0h64
v0z" />
    <glyph glyph-name="asterisk" unicode="&#x2731;" horiz-adv-x="384" 
d="M224 416v-32v32v-32v-136v0l96 58v0l27 16v0l33 -55v0l-27 -16v0l-99 -59v0l99 -59v0l27 -17v0l-33 -54v0l-27 16v0l-96 57v0v-135v0v-32v0h-64v0v32v0v135v0l-95 -57v0l-28 -16v0l-33 55v0l28 16v0l98 59v0l-98 59v0l-28 16v0l33 55v0l27 -16v0l96 -58v0v136v0v32v0h64
v0z" />
    <glyph glyph-name="asterisk" unicode="*" horiz-adv-x="384" 
d="M224 416v-32v32v-32v-136v0l96 58v0l27 16v0l33 -55v0l-27 -16v0l-99 -59v0l99 -59v0l27 -17v0l-33 -54v0l-27 16v0l-96 57v0v-135v0v-32v0h-64v0v32v0v135v0l-95 -57v0l-28 -16v0l-33 55v0l28 16v0l98 59v0l-98 59v0l-28 16v0l33 55v0l27 -16v0l96 -58v0v136v0v32v0h64
v0z" />
    <glyph glyph-name="plus" unicode="&#xf067;" horiz-adv-x="448" 
d="M256 368v32v-32v32h-64v0v-32v0v-144v0h-144h-32v-64v0h32h144v-144v0v-32v0h64v0v32v0v144v0h144h32v64v0h-32h-144v144v0z" />
    <glyph glyph-name="plus" unicode="&#x2795;" horiz-adv-x="448" 
d="M256 368v32v-32v32h-64v0v-32v0v-144v0h-144h-32v-64v0h32h144v-144v0v-32v0h64v0v32v0v144v0h144h32v64v0h-32h-144v144v0z" />
    <glyph glyph-name="plus" unicode="+" horiz-adv-x="448" 
d="M256 368v32v-32v32h-64v0v-32v0v-144v0h-144h-32v-64v0h32h144v-144v0v-32v0h64v0v32v0v144v0h144h32v64v0h-32h-144v144v0z" />
    <glyph glyph-name="comma" unicode="," horiz-adv-x="192" 
d="M48 160l-32 -224l32 224l-32 -224h64v0l80 224v0h-112v0z" />
    <glyph glyph-name="hyphen" unicode="-" horiz-adv-x="320" 
d="M0 224h32h-32h320v-64v0h-32h-288v64v0z" />
    <glyph glyph-name="period" unicode="." horiz-adv-x="192" 
d="M32 96h128h-128h128v-128v0h-128v0v128v0z" />
    <glyph glyph-name="slash-forward" unicode="/" horiz-adv-x="320" 
d="M320 448h-71h71h-71l-249 -512v0h71v0l249 512v0z" />
    <glyph glyph-name="0" unicode="0" horiz-adv-x="320" 
d="M0 256q2 68 47 113v0v0q45 45 113 47q68 -2 113 -47t47 -113v-128v0q-2 -68 -47 -113t-113 -47q-68 2 -113 47t-47 113v128v0zM160 352q-41 -1 -68 -28v0v0q-27 -27 -28 -68v-128v0q1 -41 28 -68t68 -28q41 1 68 28t28 68v128v0q-1 41 -28 68t-68 28v0z" />
    <glyph glyph-name="1" unicode="1" horiz-adv-x="256" 
d="M104 416h8h-8h56v-32v0v-352v0h64h32v-64v0h-32h-224v64v0h32h64v307v0l-89 -47v0l-7 -4v0v72v0l97 52v0l7 4v0z" />
    <glyph glyph-name="2" unicode="2" horiz-adv-x="320" 
d="M143 416q-60 -1 -103 -43l-15 -14v0l-22 -23v0l45 -45v0l23 22v0l15 15v0q23 24 57 24q34 -1 57 -24t24 -57q0 -34 -24 -58l-191 -190v0l-9 -10v0v-45v0h32h288v64v0h-32h-179l137 136v0q41 43 42 103q-2 62 -43 102q-40 41 -102 43v0z" />
    <glyph glyph-name="3" unicode="3" horiz-adv-x="320" 
d="M304 416v-46v46v-46l-10 -10v0l-132 -120v0h22v0q58 -1 96 -40q39 -38 40 -96q-1 -58 -40 -96q-38 -39 -96 -40h-73v0q-35 0 -63 20q-28 19 -41 53l-5 12v0l60 22v0l5 -12v0q12 -29 44 -31h73v0q31 1 51 21t21 51q-1 31 -21 51t-51 21h-104h-32v46v0l10 10v0l132 120v0
h-158h-32v64v0h32h272z" />
    <glyph glyph-name="4" unicode="4" horiz-adv-x="384" 
d="M210 416h-69h69h-69l-122 -292v0l-19 -44v0h48h208v-80v0v-32v0h64v0v32v0v80v0h32h32v64v0h-32h-32v144v0v32v0h-64v0v-32v0v-144v0h-160v0l110 262v0l4 10v0z" />
    <glyph glyph-name="5" unicode="5" horiz-adv-x="320" 
d="M36 416h28h-28h252v-64v0h-32h-164l-17 -112v0h109v0q58 -1 96 -40q39 -38 40 -96q-1 -58 -40 -96q-38 -39 -96 -40h-78v0q-33 0 -59 19q-27 18 -38 48l-7 18v0l60 22v0l6 -17v0q11 -25 38 -26h78v0q31 1 51 21t21 51q-1 31 -21 51t-51 21h-146h-37l5 37v0l26 176v0l4 27
v0z" />
    <glyph glyph-name="6" unicode="6" horiz-adv-x="320" 
d="M160 32q26 0 48 13v0v0q22 13 35 35q13 23 13 48t-13 48q-13 22 -35 35t-48 13t-48 -13t-35 -35q-13 -23 -13 -48t13 -48q13 -22 35 -35t48 -13v0zM253 416l-96 -128l96 128l-96 -128h1h2q68 -2 113 -47t47 -113q-2 -68 -47 -113t-113 -47q-68 2 -113 47t-47 113
q0 59 35 106l138 182v0h80v0z" />
    <glyph glyph-name="7" unicode="7" horiz-adv-x="320" 
d="M320 416v-40v40v-40l-4 -7v0l-211 -401v0h-73v0l203 384v0h-203h-32v64v0h32h288z" />
    <glyph glyph-name="8" unicode="8" horiz-adv-x="320" 
d="M304 288q-1 54 -37 91v0v0q-37 36 -91 37h-32v0q-54 -1 -91 -37q-36 -37 -37 -91q1 -53 36 -89q-24 -18 -38 -44q-14 -27 -14 -59q1 -54 37 -91q37 -36 91 -37h64v0q54 1 91 37q36 37 37 91q0 32 -14 59q-14 26 -38 44q35 36 36 89v0zM176 160h16h-16h16q27 -1 45 -19
t19 -45q-1 -27 -19 -45t-45 -19h-64v0q-27 1 -45 19t-19 45q1 27 19 45t45 19h16v0v0v0h32v0v0v0v0zM176 224v0v0v0v0h-32v0v0v0q-27 1 -45 19t-19 45q1 27 19 45t45 19h32v0q27 -1 45 -19t19 -45q-1 -27 -19 -45t-45 -19v0z" />
    <glyph glyph-name="9" unicode="9" horiz-adv-x="320" 
d="M160 352q-26 0 -48 -13v0v0q-22 -13 -35 -35q-13 -23 -13 -48t13 -48q13 -22 35 -35t48 -13t48 13t35 35q13 23 13 48t-13 48q-13 22 -35 35t-48 13v0zM67 -32l97 128l-97 -128l97 128h-2h-2q-68 2 -113 47t-47 113q2 68 47 113t113 47q68 -2 113 -47t47 -113
q0 -59 -35 -106l-138 -182v0h-80v0z" />
    <glyph glyph-name="colon" unicode=":" horiz-adv-x="192" 
d="M160 384h-128h128h-128v-128v0h128v0v128v0zM160 128h-128h128h-128v-128v0h128v0v128v0z" />
    <glyph glyph-name="semicolon" unicode=";" horiz-adv-x="192" 
d="M160 384v-128v128v-128h-128v0v128v0h128v0zM16 -64l32 224l-32 -224l32 224h112v0l-80 -224v0h-64v0z" />
    <glyph glyph-name="less-than" unicode="&#xf536;" horiz-adv-x="384" 
d="M384 383l-5 -2l5 2l-5 -2l-360 -160v0l-19 -8v0v-42v0l19 -8v0l360 -160v0l5 -2v0v70v0l-273 121v0l273 121v0v70v0z" />
    <glyph glyph-name="less-than" unicode="&#x3c;" horiz-adv-x="384" 
d="M384 383l-5 -2l5 2l-5 -2l-360 -160v0l-19 -8v0v-42v0l19 -8v0l360 -160v0l5 -2v0v70v0l-273 121v0l273 121v0v70v0z" />
    <glyph glyph-name="equals" unicode="&#xf52c;" horiz-adv-x="448" 
d="M48 320h-32h32h-32v-64v0h32h384v64v0h-32h-352zM48 128h-32h32h-32v-64v0h32h384v64v0h-32h-352z" />
    <glyph glyph-name="equals" unicode="=" horiz-adv-x="448" 
d="M48 320h-32h32h-32v-64v0h32h384v64v0h-32h-352zM48 128h-32h32h-32v-64v0h32h384v64v0h-32h-352z" />
    <glyph glyph-name="greater-than" unicode="&#xf531;" horiz-adv-x="384" 
d="M0 383l5 -2l-5 2l5 -2l360 -160v0l19 -8v0v-42v0l-19 -8v0l-360 -160v0l-5 -2v0v70v0l273 121v0l-273 121v0v70v0z" />
    <glyph glyph-name="greater-than" unicode="&#x3e;" horiz-adv-x="384" 
d="M0 383l5 -2l-5 2l5 -2l360 -160v0l19 -8v0v-42v0l-19 -8v0l-360 -160v0l-5 -2v0v70v0l273 121v0l-273 121v0v70v0z" />
    <glyph glyph-name="question" unicode="&#xf128;" horiz-adv-x="320" 
d="M80 288q1 27 19 45v0v0q18 18 45 19h32v0q27 -1 45 -19t19 -45v-9v0q-1 -31 -24 -51l-76 -59v0l-12 -9v0v-16v0v-48v0h64v0v32v0l63 50v0q48 39 49 101v9v0q-1 54 -37 91q-37 36 -91 37h-32v0q-54 -1 -91 -37q-36 -37 -37 -91v-16v0h64v0v16v0zM200 48h-80h80h-80v-80v0
h80v0v80v0z" />
    <glyph glyph-name="question" unicode="&#x2754;" horiz-adv-x="320" 
d="M80 288q1 27 19 45v0v0q18 18 45 19h32v0q27 -1 45 -19t19 -45v-9v0q-1 -31 -24 -51l-76 -59v0l-12 -9v0v-16v0v-48v0h64v0v32v0l63 50v0q48 39 49 101v9v0q-1 54 -37 91q-37 36 -91 37h-32v0q-54 -1 -91 -37q-36 -37 -37 -91v-16v0h64v0v16v0zM200 48h-80h80h-80v-80v0
h80v0v80v0z" />
    <glyph glyph-name="question" unicode="&#x2753;" horiz-adv-x="320" 
d="M80 288q1 27 19 45v0v0q18 18 45 19h32v0q27 -1 45 -19t19 -45v-9v0q-1 -31 -24 -51l-76 -59v0l-12 -9v0v-16v0v-48v0h64v0v32v0l63 50v0q48 39 49 101v9v0q-1 54 -37 91q-37 36 -91 37h-32v0q-54 -1 -91 -37q-36 -37 -37 -91v-16v0h64v0v16v0zM200 48h-80h80h-80v-80v0
h80v0v80v0z" />
    <glyph glyph-name="question" unicode="?" horiz-adv-x="320" 
d="M80 288q1 27 19 45v0v0q18 18 45 19h32v0q27 -1 45 -19t19 -45v-9v0q-1 -31 -24 -51l-76 -59v0l-12 -9v0v-16v0v-48v0h64v0v32v0l63 50v0q48 39 49 101v9v0q-1 54 -37 91q-37 36 -91 37h-32v0q-54 -1 -91 -37q-36 -37 -37 -91v-16v0h64v0v16v0zM200 48h-80h80h-80v-80v0
h80v0v80v0z" />
    <glyph glyph-name="at" unicode="&#xf1fa;" 
d="M256 384q-82 -2 -136 -56v0v0q-54 -54 -56 -136q2 -82 56 -136t136 -56h32v0v-64v0h-32v0q-72 1 -129 35q-58 34 -92 92q-34 57 -35 129q1 72 35 129q34 58 92 92q57 34 129 35q72 -1 129 -35q58 -34 92 -92q34 -57 35 -129v-96v0v-32v0h-32h-40q-56 2 -90 41
q-37 -39 -94 -41q-54 1 -91 37q-36 37 -37 91q1 54 37 91q37 36 91 37q50 -1 85 -32h43v0v-32v0v-64v0v-8v0q1 -24 16 -40q16 -15 40 -16h8v0v64v0q-2 82 -56 136t-136 56v0zM320 192q-1 36 -32 55q-32 18 -64 0q-31 -19 -32 -55q1 -36 32 -55q32 -18 64 0q31 19 32 55v0z
" />
    <glyph glyph-name="at" unicode="@" 
d="M256 384q-82 -2 -136 -56v0v0q-54 -54 -56 -136q2 -82 56 -136t136 -56h32v0v-64v0h-32v0q-72 1 -129 35q-58 34 -92 92q-34 57 -35 129q1 72 35 129q34 58 92 92q57 34 129 35q72 -1 129 -35q58 -34 92 -92q34 -57 35 -129v-96v0v-32v0h-32h-40q-56 2 -90 41
q-37 -39 -94 -41q-54 1 -91 37q-36 37 -37 91q1 54 37 91q37 36 91 37q50 -1 85 -32h43v0v-32v0v-64v0v-8v0q1 -24 16 -40q16 -15 40 -16h8v0v64v0q-2 82 -56 136t-136 56v0zM320 192q-1 36 -32 55q-32 18 -64 0q-31 -19 -32 -55q1 -36 32 -55q32 -18 64 0q31 19 32 55v0z
" />
    <glyph glyph-name="a" unicode="a" horiz-adv-x="384" 
d="M170 416h44h-44h44l8 -21v0l109 -288v0l53 -139v0h-68v0l-37 96v0h-174v0l-37 -96v0h-68v0l53 139v0l109 288v0l8 21v0zM255 128l-63 166l63 -166l-63 166l-63 -166v0h126v0z" />
    <glyph glyph-name="a" unicode="A" horiz-adv-x="384" 
d="M170 416h44h-44h44l8 -21v0l109 -288v0l53 -139v0h-68v0l-37 96v0h-174v0l-37 -96v0h-68v0l53 139v0l109 288v0l8 21v0zM255 128l-63 166l63 -166l-63 166l-63 -166v0h126v0z" />
    <glyph glyph-name="b" unicode="b" horiz-adv-x="320" 
d="M32 416h-32h32h-32v-32v0v-160v0v-32v0v-32v0v-160v0v-32v0h32h160q54 1 91 37q36 37 37 91q0 35 -17 64t-45 46q29 34 30 82q-1 54 -37 91q-37 36 -91 37h-128v0zM160 224h-96h96h-96v128v0h96v0q27 -1 45 -19t19 -45q-1 -27 -19 -45t-45 -19v0zM64 160h96h-96h128
q27 -1 45 -19t19 -45q-1 -27 -19 -45t-45 -19h-128v0v128v0z" />
    <glyph glyph-name="b" unicode="B" horiz-adv-x="320" 
d="M32 416h-32h32h-32v-32v0v-160v0v-32v0v-32v0v-160v0v-32v0h32h160q54 1 91 37q36 37 37 91q0 35 -17 64t-45 46q29 34 30 82q-1 54 -37 91q-37 36 -91 37h-128v0zM160 224h-96h96h-96v128v0h96v0q27 -1 45 -19t19 -45q-1 -27 -19 -45t-45 -19v0zM64 160h96h-96h128
q27 -1 45 -19t19 -45q-1 -27 -19 -45t-45 -19h-128v0v128v0z" />
    <glyph glyph-name="c" unicode="c" horiz-adv-x="384" 
d="M329 305q-49 47 -109 47v0v0q-60 0 -109 -47q-47 -49 -47 -113t47 -113q49 -47 109 -47t109 47l45 -46v0q-68 -65 -154 -65t-154 65q-44 45 -59 102q-14 57 0 114q15 57 59 101q68 66 154 66t154 -66l-45 -45v0z" />
    <glyph glyph-name="c" unicode="C" horiz-adv-x="384" 
d="M329 305q-49 47 -109 47v0v0q-60 0 -109 -47q-47 -49 -47 -113t47 -113q49 -47 109 -47t109 47l45 -46v0q-68 -65 -154 -65t-154 65q-44 45 -59 102q-14 57 0 114q15 57 59 101q68 66 154 66t154 -66l-45 -45v0z" />
    <glyph glyph-name="d" unicode="d" horiz-adv-x="384" 
d="M0 416h32h-32h160q63 -1 113 -31q51 -29 80 -80q30 -50 31 -113q-1 -63 -31 -113q-29 -51 -80 -80q-50 -30 -113 -31h-128h-32v32v0v384v0v32v0zM64 352v-320v320v-320h96v0q68 2 113 47t47 113q-2 68 -47 113t-113 47h-96v0z" />
    <glyph glyph-name="d" unicode="D" horiz-adv-x="384" 
d="M0 416h32h-32h160q63 -1 113 -31q51 -29 80 -80q30 -50 31 -113q-1 -63 -31 -113q-29 -51 -80 -80q-50 -30 -113 -31h-128h-32v32v0v384v0v32v0zM64 352v-320v320v-320h96v0q68 2 113 47t47 113q-2 68 -47 113t-113 47h-96v0z" />
    <glyph glyph-name="e" unicode="e" horiz-adv-x="320" 
d="M32 416h-32h32h-32v-32v0v-160v0v-32v0v-32v0v-160v0v-32v0h32h288v64v0h-32h-224v128v0h160h32v64v0h-32h-160v128v0h224h32v64v0h-32h-256z" />
    <glyph glyph-name="e" unicode="E" horiz-adv-x="320" 
d="M32 416h-32h32h-32v-32v0v-160v0v-32v0v-32v0v-160v0v-32v0h32h288v64v0h-32h-224v128v0h160h32v64v0h-32h-160v128v0h224h32v64v0h-32h-256z" />
    <glyph glyph-name="f" unicode="f" horiz-adv-x="320" 
d="M32 416h-32h32h-32v-32v0v-160v0v-32v0v-32v0v-160v0v-32v0h64v0v32v0v160v0h160h32v64v0h-32h-160v128v0h224h32v64v0h-32h-256z" />
    <glyph glyph-name="f" unicode="F" horiz-adv-x="320" 
d="M32 416h-32h32h-32v-32v0v-160v0v-32v0v-32v0v-160v0v-32v0h64v0v32v0v160v0h160h32v64v0h-32h-160v128v0h224h32v64v0h-32h-256z" />
    <glyph glyph-name="g" unicode="g" horiz-adv-x="448" 
d="M224 352q-68 -2 -113 -47v0v0q-45 -45 -47 -113q2 -68 47 -113t113 -47q59 1 102 37q43 35 55 91h-157v0v64v0h192h32v-32v0q-1 -63 -31 -113q-29 -51 -80 -80q-50 -30 -113 -31q-63 1 -113 31q-51 29 -80 80q-30 50 -31 113q1 63 31 113q29 51 80 80q50 30 113 31
q54 0 99 -23q45 -22 76 -61l-50 -40v0q-22 28 -55 44q-32 16 -70 16v0z" />
    <glyph glyph-name="g" unicode="G" horiz-adv-x="448" 
d="M224 352q-68 -2 -113 -47v0v0q-45 -45 -47 -113q2 -68 47 -113t113 -47q59 1 102 37q43 35 55 91h-157v0v64v0h192h32v-32v0q-1 -63 -31 -113q-29 -51 -80 -80q-50 -30 -113 -31q-63 1 -113 31q-51 29 -80 80q-30 50 -31 113q1 63 31 113q29 51 80 80q50 30 113 31
q54 0 99 -23q45 -22 76 -61l-50 -40v0q-22 28 -55 44q-32 16 -70 16v0z" />
    <glyph glyph-name="h" unicode="h" horiz-adv-x="384" 
d="M320 192v-192v192v-192v-32v0h64v0v32v0v192v0v32v0v32v0v128v0v32v0h-64v0v-32v0v-128v0h-256v0v128v0v32v0h-64v0v-32v0v-128v0v-64v0v-192v0v-32v0h64v0v32v0v192v0h256v0z" />
    <glyph glyph-name="h" unicode="H" horiz-adv-x="384" 
d="M320 192v-192v192v-192v-32v0h64v0v32v0v192v0v32v0v32v0v128v0v32v0h-64v0v-32v0v-128v0h-256v0v128v0v32v0h-64v0v-32v0v-128v0v-64v0v-192v0v-32v0h64v0v32v0v192v0h256v0z" />
    <glyph glyph-name="i" unicode="i" horiz-adv-x="320" 
d="M32 416h-32h32h-32v-64v0h32h96v-320v0h-96h-32v-64v0h32h288v64v0h-32h-96v320v0h96h32v64v0h-32h-256z" />
    <glyph glyph-name="i" unicode="I" horiz-adv-x="320" 
d="M32 416h-32h32h-32v-64v0h32h96v-320v0h-96h-32v-64v0h32h288v64v0h-32h-96v320v0h96h32v64v0h-32h-256z" />
    <glyph glyph-name="j" unicode="j" horiz-adv-x="320" 
d="M320 416v-32v32v-32v-256v0q-2 -68 -47 -113t-113 -47q-68 2 -113 47t-47 113v32v0v32v0h64v0v-32v0v-32v0q1 -41 28 -68t68 -28q41 1 68 28t28 68v256v0v32v0h64v0z" />
    <glyph glyph-name="j" unicode="J" horiz-adv-x="320" 
d="M320 416v-32v32v-32v-256v0q-2 -68 -47 -113t-113 -47q-68 2 -113 47t-47 113v32v0v32v0h64v0v-32v0v-32v0q1 -41 28 -68t68 -28q41 1 68 28t28 68v256v0v32v0h64v0z" />
    <glyph glyph-name="k" unicode="k" horiz-adv-x="320" 
d="M237 416h83h-83h83l-11 -13v0l-142 -171v0l151 -264v0h-74v0l-121 211v0l-59 -71v0v-108v0v-32v0h-64v0v32v0v120v0v264v0v32v0h64v0v-32v0v-176v0l39 48v0l134 160v0z" />
    <glyph glyph-name="k" unicode="K" horiz-adv-x="320" 
d="M237 416h83h-83h83l-11 -13v0l-142 -171v0l151 -264v0h-74v0l-121 211v0l-59 -71v0v-108v0v-32v0h-64v0v32v0v120v0v264v0v32v0h64v0v-32v0v-176v0l39 48v0l134 160v0z" />
    <glyph glyph-name="l" unicode="l" horiz-adv-x="320" 
d="M96 416v-32v32v-32v-352v0h192h32v-64v0h-32h-256v32v0v384v0v32v0h64v0z" />
    <glyph glyph-name="l" unicode="L" horiz-adv-x="320" 
d="M96 416v-32v32v-32v-352v0h192h32v-64v0h-32h-256v32v0v384v0v32v0h64v0z" />
    <glyph glyph-name="m" unicode="m" horiz-adv-x="448" 
d="M0 416v-32v32v-32v-384v0v-32v0h64v0v32v0v278v0l133 -200v0l27 -40v0l27 40v0l133 200v0v-278v0v-32v0h64v0v32v0v384v0v32v0h-49v0l-10 -14v0l-165 -248v0l-165 248v0l-10 14v0h-49v0z" />
    <glyph glyph-name="m" unicode="M" horiz-adv-x="448" 
d="M0 416v-32v32v-32v-384v0v-32v0h64v0v32v0v278v0l133 -200v0l27 -40v0l27 40v0l133 200v0v-278v0v-32v0h64v0v32v0v384v0v32v0h-49v0l-10 -14v0l-165 -248v0l-165 248v0l-10 14v0h-49v0z" />
    <glyph glyph-name="n" unicode="n" horiz-adv-x="384" 
d="M0 416h47h-47h47l10 -12v0l263 -316v0v296v0v32v0h64v0v-32v0v-384v0v-32v0h-47v0l-10 11v0l-263 317v0v-296v0v-32v0h-64v0v32v0v384v0v32v0z" />
    <glyph glyph-name="n" unicode="N" horiz-adv-x="384" 
d="M0 416h47h-47h47l10 -12v0l263 -316v0v296v0v32v0h64v0v-32v0v-384v0v-32v0h-47v0l-10 11v0l-263 317v0v-296v0v-32v0h-64v0v32v0v384v0v32v0z" />
    <glyph glyph-name="o" unicode="o" horiz-adv-x="448" 
d="M224 352q-43 0 -80 -21v0v0q-37 -22 -59 -59q-21 -38 -21 -80t21 -80q22 -37 59 -59q37 -21 80 -21t80 21q37 22 59 59q21 38 21 80t-21 80q-22 37 -59 59q-37 21 -80 21v0zM448 192q-1 -61 -30 -112v0v0q-30 -51 -82 -82q-53 -30 -112 -30t-112 30q-52 31 -82 82
q-29 51 -30 112q1 61 30 112q30 51 82 82q53 30 112 30t112 -30q52 -31 82 -82q29 -51 30 -112v0z" />
    <glyph glyph-name="o" unicode="O" horiz-adv-x="448" 
d="M224 352q-43 0 -80 -21v0v0q-37 -22 -59 -59q-21 -38 -21 -80t21 -80q22 -37 59 -59q37 -21 80 -21t80 21q37 22 59 59q21 38 21 80t-21 80q-22 37 -59 59q-37 21 -80 21v0zM448 192q-1 -61 -30 -112v0v0q-30 -51 -82 -82q-53 -30 -112 -30t-112 30q-52 31 -82 82
q-29 51 -30 112q1 61 30 112q30 51 82 82q53 30 112 30t112 -30q52 -31 82 -82q29 -51 30 -112v0z" />
    <glyph glyph-name="p" unicode="p" horiz-adv-x="320" 
d="M64 160h96h-96h96q41 1 68 28t28 68q-1 41 -28 68t-68 28h-96v0v-192v0zM0 96v32v-32v32v32v0v192v0v32v0v32v0h32h128q68 -2 113 -47t47 -113q-2 -68 -47 -113t-113 -47h-96v0v-96v0v-32v0h-64v0v32v0v96v0z" />
    <glyph glyph-name="p" unicode="P" horiz-adv-x="320" 
d="M64 160h96h-96h96q41 1 68 28t28 68q-1 41 -28 68t-68 28h-96v0v-192v0zM0 96v32v-32v32v32v0v192v0v32v0v32v0h32h128q68 -2 113 -47t47 -113q-2 -68 -47 -113t-113 -47h-96v0v-96v0v-32v0h-64v0v32v0v96v0z" />
    <glyph glyph-name="q" unicode="q" horiz-adv-x="448" 
d="M64 192q2 -68 47 -113v0v0q45 -45 113 -47q38 0 71 16l-100 144v0h78v0l72 -105v0q38 44 39 105q-2 68 -47 113t-113 47q-68 -2 -113 -47t-47 -113v0zM331 -5q-48 -26 -107 -27q-63 1 -113 31q-51 29 -80 80q-30 50 -31 113q1 63 31 113q29 51 80 80q50 30 113 31
q63 -1 113 -31q51 -29 80 -80q30 -50 31 -113q0 -47 -18 -87q-17 -41 -47 -71l66 -96v0l1 -2v0h-78v0l-41 59v0z" />
    <glyph glyph-name="q" unicode="Q" horiz-adv-x="448" 
d="M64 192q2 -68 47 -113v0v0q45 -45 113 -47q38 0 71 16l-100 144v0h78v0l72 -105v0q38 44 39 105q-2 68 -47 113t-113 47q-68 -2 -113 -47t-47 -113v0zM331 -5q-48 -26 -107 -27q-63 1 -113 31q-51 29 -80 80q-30 50 -31 113q1 63 31 113q29 51 80 80q50 30 113 31
q63 -1 113 -31q51 -29 80 -80q30 -50 31 -113q0 -47 -18 -87q-17 -41 -47 -71l66 -96v0l1 -2v0h-78v0l-41 59v0z" />
    <glyph glyph-name="r" unicode="r" horiz-adv-x="320" 
d="M32 416h-32h32h-32v-32v0v-224v0v-160v0v-32v0h64v0v32v0v128v0h93v0l89 -160v0h73v0l-4 7v0l-89 162v0q42 16 67 52q26 36 27 83q-2 61 -42 102q-41 40 -102 42h-144v0zM176 192h-112h112h-112v160v0h112v0q34 -1 57 -23q22 -23 23 -57q-1 -34 -23 -57q-23 -22 -57 -23
v0z" />
    <glyph glyph-name="r" unicode="R" horiz-adv-x="320" 
d="M32 416h-32h32h-32v-32v0v-224v0v-160v0v-32v0h64v0v32v0v128v0h93v0l89 -160v0h73v0l-4 7v0l-89 162v0q42 16 67 52q26 36 27 83q-2 61 -42 102q-41 40 -102 42h-144v0zM176 192h-112h112h-112v160v0h112v0q34 -1 57 -23q22 -23 23 -57q-1 -34 -23 -57q-23 -22 -57 -23
v0z" />
    <glyph glyph-name="s" unicode="s" horiz-adv-x="320" 
d="M99 343q-30 -13 -34 -40q-3 -20 2 -29q4 -10 17 -19q29 -18 85 -32v0q2 -1 3 -1q25 -7 52 -16q26 -10 49 -25q24 -16 38 -45q13 -30 7 -66q-14 -64 -72 -88q-55 -22 -124 -10v0v0v0v0q-19 3 -43 11q-25 7 -45 14q-5 2 -9 3q-2 1 -3 1l-31 11v0l21 60v0l30 -10v0
q7 -2 16 -5q1 0 2 -1q20 -7 39 -13q20 -6 33 -8q57 -8 89 6q30 13 34 40q3 20 -2 29q-4 9 -17 19q-29 18 -85 32v0q-2 1 -3 1q-25 7 -52 16q-26 10 -49 25q-24 16 -38 45q-13 30 -7 66l32 -5v0l-32 5v0q14 64 72 87q55 23 124 11q11 -1 32 -6q22 -4 34 -7l31 -8v0l-16 -62v0
l-31 8v0q-10 3 -30 7q-20 3 -30 5l5 32v0l-5 -32v0q-57 8 -89 -6v0z" />
    <glyph glyph-name="s" unicode="S" horiz-adv-x="320" 
d="M99 343q-30 -13 -34 -40q-3 -20 2 -29q4 -10 17 -19q29 -18 85 -32v0q2 -1 3 -1q25 -7 52 -16q26 -10 49 -25q24 -16 38 -45q13 -30 7 -66q-14 -64 -72 -88q-55 -22 -124 -10v0v0v0v0q-19 3 -43 11q-25 7 -45 14q-5 2 -9 3q-2 1 -3 1l-31 11v0l21 60v0l30 -10v0
q7 -2 16 -5q1 0 2 -1q20 -7 39 -13q20 -6 33 -8q57 -8 89 6q30 13 34 40q3 20 -2 29q-4 9 -17 19q-29 18 -85 32v0q-2 1 -3 1q-25 7 -52 16q-26 10 -49 25q-24 16 -38 45q-13 30 -7 66l32 -5v0l-32 5v0q14 64 72 87q55 23 124 11q11 -1 32 -6q22 -4 34 -7l31 -8v0l-16 -62v0
l-31 8v0q-10 3 -30 7q-20 3 -30 5l5 32v0l-5 -32v0q-57 8 -89 -6v0z" />
    <glyph glyph-name="t" unicode="t" horiz-adv-x="384" 
d="M32 416h-32h32h-32v-64v0h32h128v-352v0v-32v0h64v0v32v0v352v0h128h32v64v0h-32h-320z" />
    <glyph glyph-name="t" unicode="T" horiz-adv-x="384" 
d="M32 416h-32h32h-32v-64v0h32h128v-352v0v-32v0h64v0v32v0v352v0h128h32v64v0h-32h-320z" />
    <glyph glyph-name="u" unicode="u" horiz-adv-x="384" 
d="M64 416v-32v32v-32v-224v0q1 -54 37 -91q37 -36 91 -37q54 1 91 37q36 37 37 91v224v0v32v0h64v0v-32v0v-224v0q-2 -82 -56 -136t-136 -56q-82 2 -136 56t-56 136v224v0v32v0h64v0z" />
    <glyph glyph-name="u" unicode="U" horiz-adv-x="384" 
d="M64 416v-32v32v-32v-224v0q1 -54 37 -91q37 -36 91 -37q54 1 91 37q36 37 37 91v224v0v32v0h64v0v-32v0v-224v0q-2 -82 -56 -136t-136 -56q-82 2 -136 56t-56 136v224v0v32v0h64v0z" />
    <glyph glyph-name="v" unicode="v" horiz-adv-x="384" 
d="M0 416l162 -427l-162 427l162 -427l8 -21v0h44v0l8 21v0l162 427v0h-68v0l-124 -326v0l-124 326v0h-68v0z" />
    <glyph glyph-name="v" unicode="V" horiz-adv-x="384" 
d="M0 416l162 -427l-162 427l162 -427l8 -21v0h44v0l8 21v0l162 427v0h-68v0l-124 -326v0l-124 326v0h-68v0z" />
    <glyph glyph-name="w" unicode="w" horiz-adv-x="576" 
d="M507 416h67h-67h67l-144 -426v0l-7 -22v0h-47v0l-7 23v0l-81 279v0l-81 -279v0l-7 -23v0h-47v0l-7 22v0l-144 426v0h67v0l105 -309v0l83 286v0l7 23v0h48v0l7 -23v0l83 -286v0l105 309v0z" />
    <glyph glyph-name="w" unicode="W" horiz-adv-x="576" 
d="M507 416h67h-67h67l-144 -426v0l-7 -22v0h-47v0l-7 23v0l-81 279v0l-81 -279v0l-7 -23v0h-47v0l-7 22v0l-144 426v0h67v0l105 -309v0l83 286v0l7 23v0h48v0l7 -23v0l83 -286v0l105 309v0z" />
    <glyph glyph-name="x" unicode="x" horiz-adv-x="384" 
d="M306 416h78h-78h78l-2 -2v0l-151 -222v0l151 -222v0l2 -2v0h-78v0l-114 167v0l-114 -167v0h-78v0l2 2v0l151 222v0l-151 222v0l-2 2v0h78v0l114 -167v0l114 167v0z" />
    <glyph glyph-name="x" unicode="X" horiz-adv-x="384" 
d="M306 416h78h-78h78l-2 -2v0l-151 -222v0l151 -222v0l2 -2v0h-78v0l-114 167v0l-114 -167v0h-78v0l2 2v0l151 222v0l-151 222v0l-2 2v0h78v0l114 -167v0l114 167v0z" />
    <glyph glyph-name="y" unicode="y" horiz-adv-x="384" 
d="M1 416l159 -265l-159 265l159 -265v-151v0v-32v0h64v0v32v0v151v0l159 265v0h-75v0l-116 -194v0l-116 194v0h-75v0z" />
    <glyph glyph-name="y" unicode="Y" horiz-adv-x="384" 
d="M1 416l159 -265l-159 265l159 -265v-151v0v-32v0h64v0v32v0v151v0l159 265v0h-75v0l-116 -194v0l-116 194v0h-75v0z" />
    <glyph glyph-name="z" unicode="z" horiz-adv-x="384" 
d="M384 416v-44v44v-44l-7 -9v0l-277 -331v0h252h32v-64v0h-32h-352v44v0l7 8v0l277 332v0h-252h-32v64v0h32h352z" />
    <glyph glyph-name="z" unicode="Z" horiz-adv-x="384" 
d="M384 416v-44v44v-44l-7 -9v0l-277 -331v0h252h32v-64v0h-32h-352v44v0l7 8v0l277 332v0h-252h-32v64v0h32h352z" />
    <glyph glyph-name="bracket-square" unicode="[" horiz-adv-x="192" 
d="M0 416h32h-32h160v-64v0h-32h-64v-320v0h64h32v-64v0h-32h-128v32v0v384v0v32v0z" />
    <glyph glyph-name="slash-back" unicode="\" horiz-adv-x="320" 
d="M0 448h71h-71h71l249 -512v0h-71v0l-249 512v0z" />
    <glyph glyph-name="bracket-square-right" unicode="]" horiz-adv-x="192" 
d="M192 416h-32h32h-160v-64v0h32h64v-320v0h-64h-32v-64v0h32h128v32v0v384v0v32v0z" />
    <glyph glyph-name="accent-grave" unicode="`" horiz-adv-x="192" 
d="M144 448l32 -224l-32 224l32 -224h-64v0l-80 224v0h112v0z" />
    <glyph glyph-name="bracket-curly" unicode="{" horiz-adv-x="256" 
d="M96 416h-32h32h-32v-32v0v-115v0l-55 -54v0l-9 -10v0v-26v0l9 -10v0l55 -54v0v-115v0v-32v0h32h128v64v0h-32h-64v96v0v13v0l-9 10v0l-42 41v0l42 41v0l9 10v0v13v0v96v0h64h32v64v0h-32h-96z" />
    <glyph glyph-name="pipe" unicode="|" horiz-adv-x="64" 
d="M64 448v-32v32v-32v-448v0v-32v0h-64v0v32v0v448v0v32v0h64v0z" />
    <glyph glyph-name="bracket-curly-right" unicode="}" horiz-adv-x="256" 
d="M160 416h32h-32h32v-32v0v-115v0l55 -54v0l9 -10v0v-26v0l-9 -10v0l-55 -54v0v-115v0v-32v0h-32h-128v64v0h32h64v96v0v13v0l9 10v0l42 41v0l-42 41v0l-9 10v0v13v0v96v0h-64h-32v64v0h32h96z" />
    <glyph glyph-name="tilde" unicode="&#xf69f;" horiz-adv-x="448" 
d="M0 320h32h-32h141l10 -9v0l182 -183v0h51v0v128v0v32v0h64v0v-32v0v-160v0v-32v0h-32h-109l-10 9v0l-182 183v0h-51v0v-128v0v-32v0h-64v0v32v0v160v0v32v0z" />
    <glyph glyph-name="tilde" unicode="~" horiz-adv-x="448" 
d="M0 320h32h-32h141l10 -9v0l182 -183v0h51v0v128v0v32v0h64v0v-32v0v-160v0v-32v0h-32h-109l-10 9v0l-182 183v0h-51v0v-128v0v-32v0h-64v0v32v0v160v0v32v0z" />
    <glyph glyph-name="sterling-sign" unicode="&#xf154;" horiz-adv-x="320" 
d="M112 289q1 27 19 44v0v0q17 18 44 19q11 0 22 -4l72 -26v0l30 -11v0l22 60v0l-30 11v0l-72 26v0q-21 8 -44 8q-54 -1 -90 -37t-37 -90v-65v0h-48v0v-64v0h48v0v-48v0l-45 -90v0l-3 -6v0v-8v0v-8v0v-32v0h32h288v64v0h-32h-208l29 58v0l3 6v0v8v0v56v0h144v0v64v0h-144v0
v65v0z" />
    <glyph glyph-name="sterling-sign" unicode="&#xa3;" horiz-adv-x="320" 
d="M112 289q1 27 19 44v0v0q17 18 44 19q11 0 22 -4l72 -26v0l30 -11v0l22 60v0l-30 11v0l-72 26v0q-21 8 -44 8q-54 -1 -90 -37t-37 -90v-65v0h-48v0v-64v0h48v0v-48v0l-45 -90v0l-3 -6v0v-8v0v-8v0v-32v0h32h288v64v0h-32h-208l29 58v0l3 6v0v8v0v56v0h144v0v64v0h-144v0
v65v0z" />
    <glyph glyph-name="yen-sign" unicode="&#xf157;" horiz-adv-x="320" 
d="M1 416l105 -192l-105 192l105 -192h-58h-32v-64v0h32h80v-32v0h-80h-32v-64v0h32h80v-64v0v-32v0h64v0v32v0v64v0h80h32v64v0h-32h-80v32v0h80h32v64v0h-32h-58l105 192v0h-73v0l-86 -157v0l-86 157v0h-73v0z" />
    <glyph glyph-name="yen-sign" unicode="&#xa5;" horiz-adv-x="320" 
d="M1 416l105 -192l-105 192l105 -192h-58h-32v-64v0h32h80v-32v0h-80h-32v-64v0h32h80v-64v0v-32v0h64v0v32v0v64v0h80h32v64v0h-32h-80v32v0h80h32v64v0h-32h-58l105 192v0h-73v0l-86 -157v0l-86 157v0h-73v0z" />
    <glyph glyph-name="copyright" unicode="&#xf1f9;" 
d="M256 -64q70 1 128 34v0v0q58 34 94 94q34 61 34 128t-34 128q-36 60 -94 94q-58 33 -128 34q-70 -1 -128 -34q-58 -34 -94 -94q-34 -61 -34 -128t34 -128q36 -60 94 -94q58 -33 128 -34v0zM176 192q1 -34 23 -57v0v0q23 -22 57 -23q45 2 68 38l41 -26v0q-18 -27 -46 -43
q-28 -17 -63 -17q-54 1 -91 37q-36 37 -37 91q1 54 37 91q37 36 91 37q35 0 63 -17q28 -16 46 -44l-41 -25v0q-23 36 -68 38q-34 -1 -57 -23q-22 -23 -23 -57v0z" />
    <glyph glyph-name="copyright" unicode="&#xa9;" 
d="M256 -64q70 1 128 34v0v0q58 34 94 94q34 61 34 128t-34 128q-36 60 -94 94q-58 33 -128 34q-70 -1 -128 -34q-58 -34 -94 -94q-34 -61 -34 -128t34 -128q36 -60 94 -94q58 -33 128 -34v0zM176 192q1 -34 23 -57v0v0q23 -22 57 -23q45 2 68 38l41 -26v0q-18 -27 -46 -43
q-28 -17 -63 -17q-54 1 -91 37q-36 37 -37 91q1 54 37 91q37 36 91 37q35 0 63 -17q28 -16 46 -44l-41 -25v0q-23 36 -68 38q-34 -1 -57 -23q-22 -23 -23 -57v0z" />
    <glyph glyph-name="angles-left" unicode="&#xf100;" 
d="M41 169l-22 23l22 -23l-22 23l22 23v0l160 160v0l23 22v0l45 -45v0l-22 -23v0l-138 -137v0l138 -137v0l22 -23v0l-45 -45v0l-23 22v0l-160 160v0zM233 169l-22 23l22 -23l-22 23l22 23v0l160 160v0l23 22v0l45 -45v0l-22 -23v0l-138 -137v0l138 -137v0l22 -23v0l-45 -45
v0l-23 22v0l-160 160v0z" />
    <glyph glyph-name="angles-left" unicode="&#xab;" 
d="M41 169l-22 23l22 -23l-22 23l22 23v0l160 160v0l23 22v0l45 -45v0l-22 -23v0l-138 -137v0l138 -137v0l22 -23v0l-45 -45v0l-23 22v0l-160 160v0zM233 169l-22 23l22 -23l-22 23l22 23v0l160 160v0l23 22v0l45 -45v0l-22 -23v0l-138 -137v0l138 -137v0l22 -23v0l-45 -45
v0l-23 22v0l-160 160v0z" />
    <glyph glyph-name="registered" unicode="&#xf25d;" 
d="M256 -64q70 1 128 34v0v0q58 34 94 94q34 61 34 128t-34 128q-36 60 -94 94q-58 33 -128 34q-70 -1 -128 -34q-58 -34 -94 -94q-34 -61 -34 -128t34 -128q36 -60 94 -94q58 -33 128 -34v0zM160 320h24h-24h128q34 -1 57 -23q22 -23 23 -57q-1 -29 -18 -50t-44 -28l63 -98
v0h-57v0l-61 96v0h-43v0v-72v0v-24v0h-48v0v24v0v96v0v112v0v24v0zM208 208h56h-56h80q14 0 23 9t9 23t-9 23t-23 9h-80v0v-64v0z" />
    <glyph glyph-name="registered" unicode="&#xae;" 
d="M256 -64q70 1 128 34v0v0q58 34 94 94q34 61 34 128t-34 128q-36 60 -94 94q-58 33 -128 34q-70 -1 -128 -34q-58 -34 -94 -94q-34 -61 -34 -128t34 -128q36 -60 94 -94q58 -33 128 -34v0zM160 320h24h-24h128q34 -1 57 -23q22 -23 23 -57q-1 -29 -18 -50t-44 -28l63 -98
v0h-57v0l-61 96v0h-43v0v-72v0v-24v0h-48v0v24v0v96v0v112v0v24v0zM208 208h56h-56h80q14 0 23 9t9 23t-9 23t-23 9h-80v0v-64v0z" />
    <glyph glyph-name="paragraph" unicode="&#xf1dd;" horiz-adv-x="448" 
d="M192 416h64h-64h256v-64v0h-32h-32v-352v0v-32v0h-64v0v32v0v352v0h-32v0v-352v0v-32v0h-64v0v32v0v96v0h-32v0q-68 2 -113 47t-47 113q2 68 47 113t113 47v0z" />
    <glyph glyph-name="paragraph" unicode="&#xb6;" horiz-adv-x="448" 
d="M192 416h64h-64h256v-64v0h-32h-32v-352v0v-32v0h-64v0v32v0v352v0h-32v0v-352v0v-32v0h-64v0v32v0v96v0h-32v0q-68 2 -113 47t-47 113q2 68 47 113t113 47v0z" />
    <glyph glyph-name="angles-right" unicode="&#xf101;" 
d="M279 169l22 23l-22 -23l22 23l-22 23v0l-160 160v0l-23 22v0l-45 -45v0l22 -23v0l138 -137v0l-138 -137v0l-22 -23v0l45 -45v0l23 22v0l160 160v0zM471 169l22 23l-22 -23l22 23l-22 23v0l-160 160v0l-23 22v0l-45 -45v0l22 -23v0l138 -137v0l-138 -137v0l-22 -23v0
l45 -45v0l23 22v0l160 160v0z" />
    <glyph glyph-name="angles-right" unicode="&#xbb;" 
d="M279 169l22 23l-22 -23l22 23l-22 23v0l-160 160v0l-23 22v0l-45 -45v0l22 -23v0l138 -137v0l-138 -137v0l-22 -23v0l45 -45v0l23 22v0l160 160v0zM471 169l22 23l-22 -23l22 23l-22 23v0l-160 160v0l-23 22v0l-45 -45v0l22 -23v0l138 -137v0l-138 -137v0l-22 -23v0
l45 -45v0l23 22v0l160 160v0z" />
    <glyph glyph-name="xmark" unicode="&#x1f5d9;" horiz-adv-x="384" 
d="M327 281l22 23l-22 -23l22 23l-45 45v0l-23 -22v0l-89 -90v0l-89 90v0l-23 22v0l-45 -45v0l22 -23v0l90 -89v0l-90 -89v0l-22 -23v0l45 -45v0l23 22v0l89 90v0l89 -90v0l23 -22v0l45 45v0l-22 23v0l-90 89v0l90 89v0z" />
    <glyph glyph-name="xmark" unicode="&#xf00d;" horiz-adv-x="384" 
d="M327 281l22 23l-22 -23l22 23l-45 45v0l-23 -22v0l-89 -90v0l-89 90v0l-23 22v0l-45 -45v0l22 -23v0l90 -89v0l-90 -89v0l-22 -23v0l45 -45v0l23 22v0l89 90v0l89 -90v0l23 -22v0l45 45v0l-22 23v0l-90 89v0l90 89v0z" />
    <glyph glyph-name="xmark" unicode="&#x274c;" horiz-adv-x="384" 
d="M327 281l22 23l-22 -23l22 23l-45 45v0l-23 -22v0l-89 -90v0l-89 90v0l-23 22v0l-45 -45v0l22 -23v0l90 -89v0l-90 -89v0l-22 -23v0l45 -45v0l23 22v0l89 90v0l89 -90v0l23 -22v0l45 45v0l-22 23v0l-90 89v0l90 89v0z" />
    <glyph glyph-name="xmark" unicode="&#x2716;" horiz-adv-x="384" 
d="M327 281l22 23l-22 -23l22 23l-45 45v0l-23 -22v0l-89 -90v0l-89 90v0l-23 22v0l-45 -45v0l22 -23v0l90 -89v0l-90 -89v0l-22 -23v0l45 -45v0l23 22v0l89 90v0l89 -90v0l23 -22v0l45 45v0l-22 23v0l-90 89v0l90 89v0z" />
    <glyph glyph-name="xmark" unicode="&#x2715;" horiz-adv-x="384" 
d="M327 281l22 23l-22 -23l22 23l-45 45v0l-23 -22v0l-89 -90v0l-89 90v0l-23 22v0l-45 -45v0l22 -23v0l90 -89v0l-90 -89v0l-22 -23v0l45 -45v0l23 22v0l89 90v0l89 -90v0l23 -22v0l45 45v0l-22 23v0l-90 89v0l90 89v0z" />
    <glyph glyph-name="xmark" unicode="&#xd7;" horiz-adv-x="384" 
d="M327 281l22 23l-22 -23l22 23l-45 45v0l-23 -22v0l-89 -90v0l-89 90v0l-23 22v0l-45 -45v0l22 -23v0l90 -89v0l-90 -89v0l-22 -23v0l45 -45v0l23 22v0l89 90v0l89 -90v0l23 -22v0l45 45v0l-22 23v0l-90 89v0l90 89v0z" />
    <glyph glyph-name="empty-set" unicode="&#xf656;" 
d="M435 326l68 67l-68 -67l68 67l-46 46v0l-67 -68v0q-57 44 -134 45q-63 -1 -113 -31q-51 -29 -80 -80q-30 -50 -31 -113q1 -77 45 -134l-68 -67v0l46 -46v0l67 67v0q57 -43 134 -44q63 1 113 30q51 30 80 81q30 50 31 113q-1 77 -45 134v0zM344 325l-221 -221l221 221
l-221 -221q-26 38 -27 88q2 68 47 113t113 47q50 -1 88 -27v0zM168 58l222 222l-222 -222l222 222q25 -38 26 -88q-2 -68 -47 -113t-113 -47q-50 1 -88 26v0z" />
    <glyph glyph-name="empty-set" unicode="&#x2205;" 
d="M435 326l68 67l-68 -67l68 67l-46 46v0l-67 -68v0q-57 44 -134 45q-63 -1 -113 -31q-51 -29 -80 -80q-30 -50 -31 -113q1 -77 45 -134l-68 -67v0l46 -46v0l67 67v0q57 -43 134 -44q63 1 113 30q51 30 80 81q30 50 31 113q-1 77 -45 134v0zM344 325l-221 -221l221 221
l-221 -221q-26 38 -27 88q2 68 47 113t113 47q50 -1 88 -27v0zM168 58l222 222l-222 -222l222 222q25 -38 26 -88q-2 -68 -47 -113t-113 -47q-50 1 -88 26v0z" />
    <glyph glyph-name="empty-set" unicode="&#xd8;" 
d="M435 326l68 67l-68 -67l68 67l-46 46v0l-67 -68v0q-57 44 -134 45q-63 -1 -113 -31q-51 -29 -80 -80q-30 -50 -31 -113q1 -77 45 -134l-68 -67v0l46 -46v0l67 67v0q57 -43 134 -44q63 1 113 30q51 30 80 81q30 50 31 113q-1 77 -45 134v0zM344 325l-221 -221l221 221
l-221 -221q-26 38 -27 88q2 68 47 113t113 47q50 -1 88 -27v0zM168 58l222 222l-222 -222l222 222q25 -38 26 -88q-2 -68 -47 -113t-113 -47q-50 1 -88 26v0z" />
    <glyph glyph-name="divide" unicode="&#xf529;" horiz-adv-x="448" 
d="M176 400v-96v96v-96h96v0v96v0h-96v0zM176 80v-96v96v-96h96v0v96v0h-96v0zM400 160h32h-32h32v64v0h-32h-384v-64v0h32h352z" />
    <glyph glyph-name="divide" unicode="&#x2797;" horiz-adv-x="448" 
d="M176 400v-96v96v-96h96v0v96v0h-96v0zM176 80v-96v96v-96h96v0v96v0h-96v0zM400 160h32h-32h32v64v0h-32h-384v-64v0h32h352z" />
    <glyph glyph-name="divide" unicode="&#xf7;" horiz-adv-x="448" 
d="M176 400v-96v96v-96h96v0v96v0h-96v0zM176 80v-96v96v-96h96v0v96v0h-96v0zM400 160h32h-32h32v64v0h-32h-384v-64v0h32h352z" />
    <glyph glyph-name="minus" unicode="&#xf068;" horiz-adv-x="448" 
d="M432 160h-32h32h-416v64v0h32h384v-64v0z" />
    <glyph glyph-name="minus" unicode="&#x2796;" horiz-adv-x="448" 
d="M432 160h-32h32h-416v64v0h32h384v-64v0z" />
    <glyph glyph-name="minus" unicode="&#x2212;" horiz-adv-x="448" 
d="M432 160h-32h32h-416v64v0h32h384v-64v0z" />
    <glyph glyph-name="minus" unicode="&#x2013;" horiz-adv-x="448" 
d="M432 160h-32h32h-416v64v0h32h384v-64v0z" />
    <glyph glyph-name="horizontal-rule" unicode="&#xf86c;" horiz-adv-x="640" 
d="M0 224h32h-32h640v-64v0h-32h-608v64v0z" />
    <glyph glyph-name="horizontal-rule" unicode="&#x2015;" horiz-adv-x="640" 
d="M0 224h32h-32h640v-64v0h-32h-608v64v0z" />
    <glyph glyph-name="quote-left" unicode="&#xf10d;" horiz-adv-x="448" 
d="M0 232q1 51 35 85v0v0q34 34 85 35h8h32v-64v0h-32h-8q-24 -1 -40 -16q-15 -16 -16 -40v-8v0h128v0v-192v0h-192v0v96v0v96v0v8v0zM256 232q1 51 35 85v0v0q34 34 85 35h8h32v-64v0h-32h-8q-24 -1 -40 -16q-15 -16 -16 -40v-8v0h128v0v-192v0h-192v0v96v0v96v0v8v0z" />
    <glyph glyph-name="quote-left" unicode="&#x201c;" horiz-adv-x="448" 
d="M0 232q1 51 35 85v0v0q34 34 85 35h8h32v-64v0h-32h-8q-24 -1 -40 -16q-15 -16 -16 -40v-8v0h128v0v-192v0h-192v0v96v0v96v0v8v0zM256 232q1 51 35 85v0v0q34 34 85 35h8h32v-64v0h-32h-8q-24 -1 -40 -16q-15 -16 -16 -40v-8v0h128v0v-192v0h-192v0v96v0v96v0v8v0z" />
    <glyph glyph-name="quote-right" unicode="&#xf10e;" horiz-adv-x="448" 
d="M192 152q-1 -51 -35 -85v0v0q-34 -34 -85 -35h-8h-32v64v0h32h8q24 1 40 16q15 16 16 40v8v0h-128v0v192v0h192v0v-96v0v-96v0v-8v0zM448 152q-1 -51 -35 -85v0v0q-34 -34 -85 -35h-8h-32v64v0h32h8q24 1 40 16q15 16 16 40v8v0h-128v0v192v0h192v0v-96v0v-96v0v-8v0z
" />
    <glyph glyph-name="quote-right" unicode="&#x201d;" horiz-adv-x="448" 
d="M192 152q-1 -51 -35 -85v0v0q-34 -34 -85 -35h-8h-32v64v0h32h8q24 1 40 16q15 16 16 40v8v0h-128v0v192v0h192v0v-96v0v-96v0v-8v0zM448 152q-1 -51 -35 -85v0v0q-34 -34 -85 -35h-8h-32v64v0h32h8q24 1 40 16q15 16 16 40v8v0h-128v0v192v0h192v0v-96v0v-96v0v-8v0z
" />
    <glyph glyph-name="angle-left" unicode="&#xf104;" horiz-adv-x="320" 
d="M19 192l22 -23l-22 23l22 -23l160 -160v0l23 -22v0l45 45v0l-22 23v0l-138 137v0l138 137v0l22 23v0l-45 45v0l-23 -22v0l-160 -160v0l-22 -23v0z" />
    <glyph glyph-name="angle-left" unicode="&#x2039;" horiz-adv-x="320" 
d="M19 192l22 -23l-22 23l22 -23l160 -160v0l23 -22v0l45 45v0l-22 23v0l-138 137v0l138 137v0l22 23v0l-45 45v0l-23 -22v0l-160 -160v0l-22 -23v0z" />
    <glyph glyph-name="angle-right" unicode="&#xf105;" horiz-adv-x="320" 
d="M301 192l-22 -23l22 23l-22 -23l-160 -160v0l-23 -22v0l-45 45v0l22 23v0l138 137v0l-138 137v0l-22 23v0l45 45v0l23 -22v0l160 -160v0l22 -23v0z" />
    <glyph glyph-name="angle-right" unicode="&#x203a;" horiz-adv-x="320" 
d="M301 192l-22 -23l22 23l-22 -23l-160 -160v0l-23 -22v0l-45 45v0l22 23v0l138 137v0l-138 137v0l-22 23v0l45 45v0l23 -22v0l160 -160v0l22 -23v0z" />
    <glyph glyph-name="interrobang" unicode="&#xe5ba;" horiz-adv-x="320" 
d="M144 352q-27 -1 -45 -19v0v0q-18 -18 -19 -45v-16v0h-64v0v16v0q1 54 37 91q37 36 91 37h32v0q54 -1 91 -37q36 -37 37 -91v-9v0q-1 -62 -49 -101l-63 -50v0v0v0v-32v0h-64v0v32v0v16v0v16v0v112v0v32v0h64v0v-32v0v-62v0l24 18v0q23 20 24 51v9v0q-1 27 -19 45t-45 19
h-32v0zM120 48h80h-80h80v-80v0h-80v0v80v0z" />
    <glyph glyph-name="interrobang" unicode="&#x203d;" horiz-adv-x="320" 
d="M144 352q-27 -1 -45 -19v0v0q-18 -18 -19 -45v-16v0h-64v0v16v0q1 54 37 91q37 36 91 37h32v0q54 -1 91 -37q36 -37 37 -91v-9v0q-1 -62 -49 -101l-63 -50v0v0v0v-32v0h-64v0v32v0v16v0v16v0v112v0v32v0h64v0v-32v0v-62v0l24 18v0q23 20 24 51v9v0q-1 27 -19 45t-45 19
h-32v0zM120 48h80h-80h80v-80v0h-80v0v80v0z" />
    <glyph glyph-name="lira-sign" unicode="&#xf195;" horiz-adv-x="320" 
d="M112 289q1 27 19 44v0v0q17 18 44 19q11 0 22 -4l72 -26v0l30 -11v0l22 60v0l-30 11v0l-72 26v0q-21 8 -44 8q-54 -1 -90 -37t-37 -90v-33v0h-48v0v-64v0h48v0v-32v0h-48v0v-64v0h40v0l-37 -74v0l-3 -6v0v-8v0v-8v0v-32v0h32h288v64v0h-32h-208l29 58v0l3 6v0h144v0v64v0
h-144v0v32v0h144v0v64v0h-144v0v33v0z" />
    <glyph glyph-name="lira-sign" unicode="&#x20a4;" horiz-adv-x="320" 
d="M112 289q1 27 19 44v0v0q17 18 44 19q11 0 22 -4l72 -26v0l30 -11v0l22 60v0l-30 11v0l-72 26v0q-21 8 -44 8q-54 -1 -90 -37t-37 -90v-33v0h-48v0v-64v0h48v0v-32v0h-48v0v-64v0h40v0l-37 -74v0l-3 -6v0v-8v0v-8v0v-32v0h32h288v64v0h-32h-208l29 58v0l3 6v0h144v0v64v0
h-144v0v32v0h144v0v64v0h-144v0v33v0z" />
    <glyph glyph-name="rupee-sign" unicode="&#xf156;" horiz-adv-x="448" 
d="M0 416h32h-32h112q61 -2 102 -42q40 -41 42 -102q-1 -45 -25 -80q-23 -36 -63 -53l55 -169v0v-2v0h-67v0l-51 160v0h-41v0v-160v0h-64v0v192v0v224v0v32v0zM64 192h48h-48h48q34 1 57 23q22 23 23 57q-1 34 -23 57q-23 22 -57 23h-48v0v-160v0zM321 176q-1 -9 0 -10
q0 -2 4 -5q10 -8 38 -17h1v0q13 -4 28 -11t28 -17q15 -12 23 -33q8 -20 4 -44q-8 -43 -44 -61q-34 -15 -73 -8v0v0v0v0q-15 4 -30 9q-8 3 -15 6q-1 1 -2 1v0v0q-2 1 -3 1l-4 2l-29 11v0l23 60v0l30 -12v0q3 -1 8 -3v0v0h1l14 -6q13 -5 19 -6q23 -3 33 3q7 3 9 13q1 10 -1 12
q-1 2 -4 6q-10 8 -37 17l-3 1v0q-26 7 -54 26q-15 11 -23 31t-5 43q8 43 43 59q35 17 74 10q6 -1 17 -4q12 -2 19 -4l30 -10v0l-19 -61v0l-31 9v0q-4 2 -13 4q-10 2 -14 3q-23 3 -33 -3q-9 -5 -10 -12h1z" />
    <glyph glyph-name="rupee-sign" unicode="&#x20a8;" horiz-adv-x="448" 
d="M0 416h32h-32h112q61 -2 102 -42q40 -41 42 -102q-1 -45 -25 -80q-23 -36 -63 -53l55 -169v0v-2v0h-67v0l-51 160v0h-41v0v-160v0h-64v0v192v0v224v0v32v0zM64 192h48h-48h48q34 1 57 23q22 23 23 57q-1 34 -23 57q-23 22 -57 23h-48v0v-160v0zM321 176q-1 -9 0 -10
q0 -2 4 -5q10 -8 38 -17h1v0q13 -4 28 -11t28 -17q15 -12 23 -33q8 -20 4 -44q-8 -43 -44 -61q-34 -15 -73 -8v0v0v0v0q-15 4 -30 9q-8 3 -15 6q-1 1 -2 1v0v0q-2 1 -3 1l-4 2l-29 11v0l23 60v0l30 -12v0q3 -1 8 -3v0v0h1l14 -6q13 -5 19 -6q23 -3 33 3q7 3 9 13q1 10 -1 12
q-1 2 -4 6q-10 8 -37 17l-3 1v0q-26 7 -54 26q-15 11 -23 31t-5 43q8 43 43 59q35 17 74 10q6 -1 17 -4q12 -2 19 -4l30 -10v0l-19 -61v0l-31 9v0q-4 2 -13 4q-10 2 -14 3q-23 3 -33 -3q-9 -5 -10 -12h1z" />
    <glyph glyph-name="won-sign" unicode="&#xf159;" 
d="M57 224l-54 192l54 -192l-54 192h67v0l53 -192v0h58v0l40 167v0l6 25v0h25h33l6 -25v0l40 -167v0h58v0l53 192v0h67v0l-54 -192v0h25h32v-64v0h-32h-42l-47 -169v0l-7 -23v0h-24h-33l-6 24v0l-40 168v0h-50v0l-40 -168v0l-6 -24v0h-25h-32l-7 23v0l-47 169v0h-42h-32v64
v0h32h25zM141 160l13 -48l-13 48l13 -48l11 48v0h-24v0zM247 224h19h-19h19l-10 39v0l-9 -39v0zM347 160l11 -48l-11 48l11 -48l13 48v0h-24v0z" />
    <glyph glyph-name="won-sign" unicode="&#x20a9;" 
d="M57 224l-54 192l54 -192l-54 192h67v0l53 -192v0h58v0l40 167v0l6 25v0h25h33l6 -25v0l40 -167v0h58v0l53 192v0h67v0l-54 -192v0h25h32v-64v0h-32h-42l-47 -169v0l-7 -23v0h-24h-33l-6 24v0l-40 168v0h-50v0l-40 -168v0l-6 -24v0h-25h-32l-7 23v0l-47 169v0h-42h-32v64
v0h32h25zM141 160l13 -48l-13 48l13 -48l11 48v0h-24v0zM247 224h19h-19h19l-10 39v0l-9 -39v0zM347 160l11 -48l-11 48l11 -48l13 48v0h-24v0z" />
    <glyph glyph-name="shekel-sign" unicode="&#xf20b;" horiz-adv-x="448" 
d="M32 416h-32h32h-32v-32v0v-416v0h64v0v384v0h128v0q27 -1 45 -19t19 -45v-192v0h64v0v192v0q-1 54 -37 91q-37 36 -91 37h-160v0zM320 -32q54 1 91 37v0v0q36 37 37 91v320v0h-64v0v-320v0q-1 -27 -19 -45t-45 -19h-128v0v256v0h-64v0v-288v0v-32v0h32h160z" />
    <glyph glyph-name="shekel-sign" unicode="&#x20aa;" horiz-adv-x="448" 
d="M32 416h-32h32h-32v-32v0v-416v0h64v0v384v0h128v0q27 -1 45 -19t19 -45v-192v0h64v0v192v0q-1 54 -37 91q-37 36 -91 37h-160v0zM320 -32q54 1 91 37v0v0q36 37 37 91v320v0h-64v0v-320v0q-1 -27 -19 -45t-45 -19h-128v0v256v0h-64v0v-288v0v-32v0h32h160z" />
    <glyph glyph-name="euro-sign" unicode="&#xf153;" horiz-adv-x="320" 
d="M49 208q-1 -8 -1 -16t1 -16h-49v0v-64v0h63v0q25 -64 81 -104q55 -39 128 -40h48v0v64v0h-48v0q-45 1 -81 22q-36 22 -58 58h155v0v64v0h-175v0q-1 8 -1 16t1 16h175v0v64v0h-155v0q22 36 58 58q36 21 81 22h48v0v64v0h-48v0q-73 -1 -128 -40q-56 -40 -81 -104h-63v0v-64
v0h49v0z" />
    <glyph glyph-name="euro-sign" unicode="&#x20ac;" horiz-adv-x="320" 
d="M49 208q-1 -8 -1 -16t1 -16h-49v0v-64v0h63v0q25 -64 81 -104q55 -39 128 -40h48v0v64v0h-48v0q-45 1 -81 22q-36 22 -58 58h155v0v64v0h-175v0q-1 8 -1 16t1 16h175v0v64v0h-155v0q22 36 58 58q36 21 81 22h48v0v64v0h-48v0q-73 -1 -128 -40q-56 -40 -81 -104h-63v0v-64
v0h49v0z" />
    <glyph glyph-name="hryvnia-sign" unicode="&#xf6f2;" horiz-adv-x="384" 
d="M114 325q27 27 66 27h43v0q21 -1 35 -14q13 -14 14 -35q0 -18 -11 -31h-261v0v-64v0h156v0l-51 -29v0q-3 -1 -5 -3h-100v0v-64v0h52v0q-4 -15 -4 -31q1 -48 33 -80t80 -33h44v0q64 1 110 46l12 11v0l-46 46v0l-11 -12v0q-27 -26 -65 -27h-44v0q-21 1 -35 14
q-13 14 -14 35q0 18 11 31h261v0v64v0h-155v0l50 29v0q3 1 5 3h100v0v64v0h-52v0q4 15 4 31q-1 48 -33 80t-80 33h-43v0q-65 -1 -111 -46l-12 -11v0l46 -46v0l11 12v0z" />
    <glyph glyph-name="hryvnia-sign" unicode="&#x20b4;" horiz-adv-x="384" 
d="M114 325q27 27 66 27h43v0q21 -1 35 -14q13 -14 14 -35q0 -18 -11 -31h-261v0v-64v0h156v0l-51 -29v0q-3 -1 -5 -3h-100v0v-64v0h52v0q-4 -15 -4 -31q1 -48 33 -80t80 -33h44v0q64 1 110 46l12 11v0l-46 46v0l-11 -12v0q-27 -26 -65 -27h-44v0q-21 1 -35 14
q-13 14 -14 35q0 18 11 31h261v0v64v0h-155v0l50 29v0q3 1 5 3h100v0v64v0h-52v0q4 15 4 31q-1 48 -33 80t-80 33h-43v0q-65 -1 -111 -46l-12 -11v0l46 -46v0l11 12v0z" />
    <glyph glyph-name="tenge-sign" unicode="&#xf7d7;" horiz-adv-x="384" 
d="M0 416h384h-384h384v-64v0h-384v0v64v0zM224 288h160h-160h160v-64v0h-160v0v-256v0h-64v0v256v0h-160v0v64v0h160h64z" />
    <glyph glyph-name="tenge-sign" unicode="&#x20b8;" horiz-adv-x="384" 
d="M0 416h384h-384h384v-64v0h-384v0v64v0zM224 288h160h-160h160v-64v0h-160v0v-256v0h-64v0v256v0h-160v0v64v0h160h64z" />
    <glyph glyph-name="ruble-sign" unicode="&#xf158;" horiz-adv-x="384" 
d="M96 416h-32h32h-32v-32v0v-192v0h-64v0v-64v0h64v0v-32v0h-64v0v-64v0h64v0v-64v0h64v0v64v0h192v0v64v0h-192v0v32v0h112v0q61 2 102 42q40 41 42 102q-2 61 -42 102q-41 40 -102 42h-144v0zM240 192h-112h112h-112v160v0h112v0q34 -1 57 -23q22 -23 23 -57
q-1 -34 -23 -57q-23 -22 -57 -23v0z" />
    <glyph glyph-name="ruble-sign" unicode="&#x20bd;" horiz-adv-x="384" 
d="M96 416h-32h32h-32v-32v0v-192v0h-64v0v-64v0h64v0v-32v0h-64v0v-64v0h64v0v-64v0h64v0v64v0h192v0v64v0h-192v0v32v0h112v0q61 2 102 42q40 41 42 102q-2 61 -42 102q-41 40 -102 42h-144v0zM240 192h-112h112h-112v160v0h112v0q34 -1 57 -23q22 -23 23 -57
q-1 -34 -23 -57q-23 -22 -57 -23v0z" />
    <glyph glyph-name="trademark" unicode="&#xf25c;" horiz-adv-x="640" 
d="M0 352h32h-32h256v-64v0h-32h-64v-224v0v-32v0h-64v0v32v0v224v0h-64h-32v64v0zM288 320v32v-32v32h48v0l10 -13v0l118 -158v0l118 158v0l10 13v0h48v0v-32v0v-256v0v-32v0h-64v0v32v0v160v0l-86 -115v0l-26 -34v0l-26 34v0l-86 115v0v-160v0v-32v0h-64v0v32v0v256v0z
" />
    <glyph glyph-name="trademark" unicode="&#x2122;" horiz-adv-x="640" 
d="M0 352h32h-32h256v-64v0h-32h-64v-224v0v-32v0h-64v0v32v0v224v0h-64h-32v64v0zM288 320v32v-32v32h48v0l10 -13v0l118 -158v0l118 158v0l10 13v0h48v0v-32v0v-256v0v-32v0h-64v0v32v0v160v0l-86 -115v0l-26 -34v0l-26 34v0l-86 115v0v-160v0v-32v0h-64v0v32v0v256v0z
" />
    <glyph glyph-name="square-info" unicode="&#xf30f;" horiz-adv-x="448" 
d="M448 416h-448h448h-448v-448v0h448v0v448v0zM184 112h24h-24h24v64v0h-24h-24v48v0h24h72v-24v0v-88v0h8h24v-48v0h-24h-104v48v0h24v0zM256 320v-64v64v-64h-64v0v64v0h64v0z" />
    <glyph glyph-name="square-info" unicode="&#x2139;" horiz-adv-x="448" 
d="M448 416h-448h448h-448v-448v0h448v0v448v0zM184 112h24h-24h24v64v0h-24h-24v48v0h24h72v-24v0v-88v0h8h24v-48v0h-24h-104v48v0h24v0zM256 320v-64v64v-64h-64v0v64v0h64v0z" />
    <glyph glyph-name="arrow-left" unicode="&#xf060;" horiz-adv-x="448" 
d="M25 169l-22 23l22 -23l-22 23l22 23v0l144 144v0l23 22v0l45 -45v0l-22 -23v0l-90 -89v0h291h32v-64v0h-32h-291l90 -89v0l22 -23v0l-45 -45v0l-23 22v0l-144 144v0z" />
    <glyph glyph-name="arrow-left" unicode="&#x2190;" horiz-adv-x="448" 
d="M25 169l-22 23l22 -23l-22 23l22 23v0l144 144v0l23 22v0l45 -45v0l-22 -23v0l-90 -89v0h291h32v-64v0h-32h-291l90 -89v0l22 -23v0l-45 -45v0l-23 22v0l-144 144v0z" />
    <glyph glyph-name="arrow-up" unicode="&#xf062;" horiz-adv-x="384" 
d="M215 391l-23 22l23 -22l-23 22l-23 -22v0l-144 -144v0l-22 -23v0l45 -45v0l23 22v0l89 90v0v-291v0v-32v0h64v0v32v0v291v0l89 -90v0l23 -22v0l45 45v0l-22 23v0l-144 144v0z" />
    <glyph glyph-name="arrow-up" unicode="&#x2191;" horiz-adv-x="384" 
d="M215 391l-23 22l23 -22l-23 22l-23 -22v0l-144 -144v0l-22 -23v0l45 -45v0l23 22v0l89 90v0v-291v0v-32v0h64v0v32v0v291v0l89 -90v0l23 -22v0l45 45v0l-22 23v0l-144 144v0z" />
    <glyph glyph-name="arrow-right" unicode="&#xf061;" horiz-adv-x="448" 
d="M423 169l22 23l-22 -23l22 23l-22 23v0l-144 144v0l-23 22v0l-45 -45v0l22 -23v0l90 -89v0h-291h-32v-64v0h32h291l-90 -89v0l-22 -23v0l45 -45v0l23 22v0l144 144v0z" />
    <glyph glyph-name="arrow-right" unicode="&#x2192;" horiz-adv-x="448" 
d="M423 169l22 23l-22 -23l22 23l-22 23v0l-144 144v0l-23 22v0l-45 -45v0l22 -23v0l90 -89v0h-291h-32v-64v0h32h291l-90 -89v0l-22 -23v0l45 -45v0l23 22v0l144 144v0z" />
    <glyph glyph-name="arrow-down" unicode="&#xf063;" horiz-adv-x="384" 
d="M215 -7l-23 -22l23 22l-23 -22l-23 22v0l-144 144v0l-22 23v0l45 45v0l23 -22v0l89 -90v0v291v0v32v0h64v0v-32v0v-291v0l89 90v0l23 22v0l45 -45v0l-22 -23v0l-144 -144v0z" />
    <glyph glyph-name="arrow-down" unicode="&#x2193;" horiz-adv-x="384" 
d="M215 -7l-23 -22l23 22l-23 -22l-23 22v0l-144 144v0l-22 23v0l45 45v0l23 -22v0l89 -90v0v291v0v32v0h64v0v-32v0v-291v0l89 90v0l23 22v0l45 -45v0l-22 -23v0l-144 -144v0z" />
    <glyph glyph-name="left-right" unicode="&#xf337;" 
d="M384 320l128 -128l-128 128l128 -128l-128 -128v0h-32v0v80v0h-192v0v-80v0h-32v0l-128 128v0l128 128v0h32v0v-80v0h192v0v80v0h32v0z" />
    <glyph glyph-name="left-right" unicode="&#x2194;" 
d="M384 320l128 -128l-128 128l128 -128l-128 -128v0h-32v0v80v0h-192v0v-80v0h-32v0l-128 128v0l128 128v0h32v0v-80v0h192v0v80v0h32v0z" />
    <glyph glyph-name="up-down" unicode="&#xf338;" horiz-adv-x="256" 
d="M0 320l128 128l-128 -128l128 128l128 -128v0v-32v0h-80v0v-192v0h80v0v-32v0l-128 -128v0l-128 128v0v32v0h80v0v192v0h-80v0v32v0z" />
    <glyph glyph-name="up-down" unicode="&#x2b0d;" horiz-adv-x="256" 
d="M0 320l128 128l-128 -128l128 128l128 -128v0v-32v0h-80v0v-192v0h80v0v-32v0l-128 -128v0l-128 128v0v32v0h80v0v192v0h-80v0v32v0z" />
    <glyph glyph-name="up-down" unicode="&#x2195;" horiz-adv-x="256" 
d="M0 320l128 128l-128 -128l128 128l128 -128v0v-32v0h-80v0v-192v0h80v0v-32v0l-128 -128v0l-128 128v0v32v0h80v0v192v0h-80v0v32v0z" />
    <glyph glyph-name="square-up-right" unicode="&#xf360;" horiz-adv-x="448" 
d="M0 416h448h-448h448v-448v0h-448v0v448v0zM320 128v160v-160v160h-160v0l-24 -24v0l52 -52v0l-76 -76v0l56 -56v0l76 76v0l52 -52v0l24 24v0z" />
    <glyph glyph-name="square-up-right" unicode="&#x2197;" horiz-adv-x="448" 
d="M0 416h448h-448h448v-448v0h-448v0v448v0zM320 128v160v-160v160h-160v0l-24 -24v0l52 -52v0l-76 -76v0l56 -56v0l76 76v0l52 -52v0l24 24v0z" />
    <glyph glyph-name="arrow-left-from-line" unicode="&#xf344;" horiz-adv-x="448" 
d="M384 352v32v-32v32h64v0v-32v0v-320v0v-32v0h-64v0v32v0v320v0zM25 169l-22 23l22 -23l-22 23l22 23v0l128 128v0l23 22v0l45 -45v0l-22 -23v0l-74 -73v0h163h32v-64v0h-32h-163l74 -73v0l22 -23v0l-45 -45v0l-23 22v0l-128 128v0z" />
    <glyph glyph-name="arrow-left-from-line" unicode="&#x21a4;" horiz-adv-x="448" 
d="M384 352v32v-32v32h64v0v-32v0v-320v0v-32v0h-64v0v32v0v320v0zM25 169l-22 23l22 -23l-22 23l22 23v0l128 128v0l23 22v0l45 -45v0l-22 -23v0l-74 -73v0h163h32v-64v0h-32h-163l74 -73v0l22 -23v0l-45 -45v0l-23 22v0l-128 128v0z" />
    <glyph glyph-name="arrow-up-from-line" unicode="&#xf342;" horiz-adv-x="384" 
d="M215 391l-23 22l23 -22l-23 22l-23 -22v0l-128 -128v0l-22 -23v0l45 -45v0l23 22v0l73 74v0v-163v0v-32v0h64v0v32v0v163v0l73 -74v0l23 -22v0l45 45v0l-22 23v0l-128 128v0zM32 32h-32h32h-32v-64v0h32h352v64v0h-32h-320z" />
    <glyph glyph-name="arrow-up-from-line" unicode="&#x21a5;" horiz-adv-x="384" 
d="M215 391l-23 22l23 -22l-23 22l-23 -22v0l-128 -128v0l-22 -23v0l45 -45v0l23 22v0l73 74v0v-163v0v-32v0h64v0v32v0v163v0l73 -74v0l23 -22v0l45 45v0l-22 23v0l-128 128v0zM32 32h-32h32h-32v-64v0h32h352v64v0h-32h-320z" />
    <glyph glyph-name="arrow-right-from-line" unicode="&#xf343;" horiz-adv-x="448" 
d="M64 352v32v-32v32h-64v0v-32v0v-320v0v-32v0h64v0v32v0v320v0zM423 169l22 23l-22 -23l22 23l-22 23v0l-128 128v0l-23 22v0l-45 -45v0l22 -23v0l74 -73v0h-163h-32v-64v0h32h163l-74 -73v0l-22 -23v0l45 -45v0l23 22v0l128 128v0z" />
    <glyph glyph-name="arrow-right-from-line" unicode="&#x21a6;" horiz-adv-x="448" 
d="M64 352v32v-32v32h-64v0v-32v0v-320v0v-32v0h64v0v32v0v320v0zM423 169l22 23l-22 -23l22 23l-22 23v0l-128 128v0l-23 22v0l-45 -45v0l22 -23v0l74 -73v0h-163h-32v-64v0h32h163l-74 -73v0l-22 -23v0l45 -45v0l23 22v0l128 128v0z" />
    <glyph glyph-name="arrow-down-from-line" unicode="&#xf345;" horiz-adv-x="384" 
d="M215 -7l-23 -22l23 22l-23 -22l-23 22v0l-128 128v0l-22 23v0l45 45v0l23 -22v0l73 -74v0v163v0v32v0h64v0v-32v0v-163v0l73 74v0l23 22v0l45 -45v0l-22 -23v0l-128 -128v0zM32 352h-32h32h-32v64v0h32h352v-64v0h-32h-320z" />
    <glyph glyph-name="arrow-down-from-line" unicode="&#x21a7;" horiz-adv-x="384" 
d="M215 -7l-23 -22l23 22l-23 -22l-23 22v0l-128 128v0l-22 23v0l45 45v0l23 -22v0l73 -74v0v163v0v32v0h64v0v-32v0v-163v0l73 74v0l23 22v0l45 -45v0l-22 -23v0l-128 -128v0zM32 352h-32h32h-32v64v0h32h352v-64v0h-32h-320z" />
    <glyph glyph-name="arrow-rotate-left" unicode="&#xf0e2;" 
d="M48 224h-32h32h-32v32v0v128v0v32v0h64v0v-32v0v-51v0l18 17v0q44 44 101 59q57 14 114 0q57 -15 101 -59t59 -101q14 -57 0 -114q-15 -57 -59 -101t-101 -59q-57 -14 -114 0q-57 15 -101 59l45 45v0q49 -47 113 -47t113 47q47 49 47 113t-47 113q-49 47 -113 47
t-113 -47l-17 -17v0h50h32v-64v0h-32h-128z" />
    <glyph glyph-name="arrow-rotate-left" unicode="&#x21ba;" 
d="M48 224h-32h32h-32v32v0v128v0v32v0h64v0v-32v0v-51v0l18 17v0q44 44 101 59q57 14 114 0q57 -15 101 -59t59 -101q14 -57 0 -114q-15 -57 -59 -101t-101 -59q-57 -14 -114 0q-57 15 -101 59l45 45v0q49 -47 113 -47t113 47q47 49 47 113t-47 113q-49 47 -113 47
t-113 -47l-17 -17v0h50h32v-64v0h-32h-128z" />
    <glyph glyph-name="arrow-rotate-right" unicode="&#xf01e;" 
d="M464 224h32h-32h32v32v0v128v0v32v0h-64v0v-32v0v-51v0l-18 17v0q-44 44 -101 59q-57 14 -114 0q-57 -15 -101 -59t-59 -101q-14 -57 0 -114q15 -57 59 -101t101 -59q57 -14 114 0q57 15 101 59l-45 45v0q-49 -47 -113 -47t-113 47q-47 49 -47 113t47 113q49 47 113 47
t113 -47l17 -17v0h-50h-32v-64v0h32h128z" />
    <glyph glyph-name="arrow-rotate-right" unicode="&#x21bb;" 
d="M464 224h32h-32h32v32v0v128v0v32v0h-64v0v-32v0v-51v0l-18 17v0q-44 44 -101 59q-57 14 -114 0q-57 -15 -101 -59t-59 -101q-14 -57 0 -114q15 -57 59 -101t101 -59q57 -14 114 0q57 15 101 59l-45 45v0q-49 -47 -113 -47t-113 47q-47 49 -47 113t47 113q49 47 113 47
t113 -47l17 -17v0h-50h-32v-64v0h32h128z" />
    <glyph glyph-name="arrow-right-arrow-left" unicode="&#xf0ec;" horiz-adv-x="448" 
d="M25 41l80 -80l-80 80l80 -80l23 -22v0l45 45v0l-22 23v0l-26 25v0h291h32v64v0h-32h-291l26 25v0l22 23v0l-45 45v0l-23 -22v0l-80 -80v0l-22 -23v0l22 -23v0zM423 297l22 23l-22 -23l22 23l-22 23v0l-80 80v0l-23 22v0l-45 -45v0l22 -23v0l26 -25v0h-291h-32v-64v0h32
h291l-26 -25v0l-22 -23v0l45 -45v0l23 22v0l80 80v0z" />
    <glyph glyph-name="arrow-right-arrow-left" unicode="&#x21c4;" horiz-adv-x="448" 
d="M25 41l80 -80l-80 80l80 -80l23 -22v0l45 45v0l-22 23v0l-26 25v0h291h32v64v0h-32h-291l26 25v0l22 23v0l-45 45v0l-23 -22v0l-80 -80v0l-22 -23v0l22 -23v0zM423 297l22 23l-22 -23l22 23l-22 23v0l-80 80v0l-23 22v0l-45 -45v0l22 -23v0l26 -25v0h-291h-32v-64v0h32
h291l-26 -25v0l-22 -23v0l45 -45v0l23 22v0l80 80v0z" />
    <glyph glyph-name="arrow-left-to-line" unicode="&#xf33e;" horiz-adv-x="448" 
d="M0 352v32v-32v32h64v0v-32v0v-320v0v-32v0h-64v0v32v0v320v0zM137 169l-22 23l22 -23l-22 23l22 23v0l128 128v0l23 22v0l45 -45v0l-22 -23v0l-74 -73v0h179h32v-64v0h-32h-179l74 -73v0l22 -23v0l-45 -45v0l-23 22v0l-128 128v0z" />
    <glyph glyph-name="arrow-left-to-line" unicode="&#x21e4;" horiz-adv-x="448" 
d="M0 352v32v-32v32h64v0v-32v0v-320v0v-32v0h-64v0v32v0v320v0zM137 169l-22 23l22 -23l-22 23l22 23v0l128 128v0l23 22v0l45 -45v0l-22 -23v0l-74 -73v0h179h32v-64v0h-32h-179l74 -73v0l22 -23v0l-45 -45v0l-23 22v0l-128 128v0z" />
    <glyph glyph-name="arrow-right-to-line" unicode="&#xf340;" horiz-adv-x="448" 
d="M448 352v32v-32v32h-64v0v-32v0v-320v0v-32v0h64v0v32v0v320v0zM311 169l22 23l-22 -23l22 23l-22 23v0l-128 128v0l-23 22v0l-45 -45v0l22 -23v0l74 -73v0h-179h-32v-64v0h32h179l-74 -73v0l-22 -23v0l45 -45v0l23 22v0l128 128v0z" />
    <glyph glyph-name="arrow-right-to-line" unicode="&#x21e5;" horiz-adv-x="448" 
d="M448 352v32v-32v32h-64v0v-32v0v-320v0v-32v0h64v0v32v0v320v0zM311 169l22 23l-22 -23l22 23l-22 23v0l-128 128v0l-23 22v0l-45 -45v0l22 -23v0l74 -73v0h-179h-32v-64v0h32h179l-74 -73v0l-22 -23v0l45 -45v0l23 22v0l128 128v0z" />
    <glyph glyph-name="sigma" unicode="&#xf68b;" horiz-adv-x="384" 
d="M0 -32h32h-32h384v32v0v64v0v32v0h-64v0v-32v0v-32v0h-211v0l138 137v0l22 23v0l-22 23v0l-138 137v0h211v0v-32v0v-32v0h64v0v32v0v64v0v32v0h-32h-352v-45v0l9 -10v0l170 -169v0l-170 -169v0l-9 -10v0v-45v0z" />
    <glyph glyph-name="sigma" unicode="&#x2211;" horiz-adv-x="384" 
d="M0 -32h32h-32h384v32v0v64v0v32v0h-64v0v-32v0v-32v0h-211v0l138 137v0l22 23v0l-22 23v0l-138 137v0h211v0v-32v0v-32v0h64v0v32v0v64v0v32v0h-32h-352v-45v0l9 -10v0l170 -169v0l-170 -169v0l-9 -10v0v-45v0z" />
    <glyph glyph-name="square-root" unicode="&#xf697;" horiz-adv-x="576" 
d="M320 416h-24h24h-24l-7 -23v0l-91 -313v0l-74 128v0l-10 16v0h-18h-96v-64v0h32h46l102 -176v0l10 -16v0h42v0l7 23v0l105 361v0h200h32v64v0h-32h-224z" />
    <glyph glyph-name="square-root" unicode="&#x221a;" horiz-adv-x="576" 
d="M320 416h-24h24h-24l-7 -23v0l-91 -313v0l-74 128v0l-10 16v0h-18h-96v-64v0h32h46l102 -176v0l10 -16v0h42v0l7 23v0l105 361v0h200h32v64v0h-32h-224z" />
    <glyph glyph-name="infinity" unicode="&#xf534;" horiz-adv-x="640" 
d="M0 352h32h-32h205l10 -9v0l105 -106v0l105 106v0l10 9v0h13h192v-32v0v-256v0v-32v0h-32h-173l-10 9v0l-105 106v0l-105 -106v0l-10 -9v0h-13h-192v32v0v256v0v32v0zM275 192l-96 96l96 -96l-96 96h-115v0v-192v0h115v0l96 96v0zM365 192l96 -96l-96 96l96 -96h115v0v192
v0h-115v0l-96 -96v0z" />
    <glyph glyph-name="infinity" unicode="&#x267e;" horiz-adv-x="640" 
d="M0 352h32h-32h205l10 -9v0l105 -106v0l105 106v0l10 9v0h13h192v-32v0v-256v0v-32v0h-32h-173l-10 9v0l-105 106v0l-105 -106v0l-10 -9v0h-13h-192v32v0v256v0v32v0zM275 192l-96 96l96 -96l-96 96h-115v0v-192v0h115v0l96 96v0zM365 192l96 -96l-96 96l96 -96h115v0v192
v0h-115v0l-96 -96v0z" />
    <glyph glyph-name="infinity" unicode="&#x221e;" horiz-adv-x="640" 
d="M0 352h32h-32h205l10 -9v0l105 -106v0l105 106v0l10 9v0h13h192v-32v0v-256v0v-32v0h-32h-173l-10 9v0l-105 106v0l-105 -106v0l-10 -9v0h-13h-192v32v0v256v0v32v0zM275 192l-96 96l96 -96l-96 96h-115v0v-192v0h115v0l96 96v0zM365 192l96 -96l-96 96l96 -96h115v0v192
v0h-115v0l-96 -96v0z" />
    <glyph glyph-name="wave-sine" unicode="&#xf899;" horiz-adv-x="640" 
d="M216 342q-15 10 -39 10q-27 -1 -48 -19q-21 -17 -37 -46q-15 -27 -22 -49q-4 -10 -6 -16q0 -3 -1 -5v-1v0v0v0q1 0 -4 1t-27 7q-22 5 -27 7q-5 1 -4 1v0v0v0v0v0v0v0v0v1v1q1 1 1 2q0 2 1 4q2 7 6 19q9 26 28 60q18 34 52 64t86 33q44 1 76 -21q31 -21 49 -54
q17 -30 29 -66t21 -72v0q0 -1 1 -1v-2q18 -76 44 -125q13 -23 29 -33q14 -10 39 -10q26 1 47 19q21 17 38 46q15 27 22 49q4 10 5 16q1 3 2 5v1v0v0v0q-1 0 4 -1t27 -7q22 -5 27 -7q5 -1 4 -1v0v0v0v0v0v0v0v0v-1v-1q-1 -1 -1 -2t-1 -4q-2 -7 -6 -19q-9 -26 -28 -60
q-18 -34 -52 -64t-86 -33q-44 -1 -76 21q-31 22 -49 54q-17 30 -29 66t-21 71v1v2q-1 0 -1 1q-18 76 -44 125q-13 23 -29 33v0z" />
    <glyph glyph-name="wave-sine" unicode="&#x223f;" horiz-adv-x="640" 
d="M216 342q-15 10 -39 10q-27 -1 -48 -19q-21 -17 -37 -46q-15 -27 -22 -49q-4 -10 -6 -16q0 -3 -1 -5v-1v0v0v0q1 0 -4 1t-27 7q-22 5 -27 7q-5 1 -4 1v0v0v0v0v0v0v0v0v1v1q1 1 1 2q0 2 1 4q2 7 6 19q9 26 28 60q18 34 52 64t86 33q44 1 76 -21q31 -21 49 -54
q17 -30 29 -66t21 -72v0q0 -1 1 -1v-2q18 -76 44 -125q13 -23 29 -33q14 -10 39 -10q26 1 47 19q21 17 38 46q15 27 22 49q4 10 5 16q1 3 2 5v1v0v0v0q-1 0 4 -1t27 -7q22 -5 27 -7q5 -1 4 -1v0v0v0v0v0v0v0v0v-1v-1q-1 -1 -1 -2t-1 -4q-2 -7 -6 -19q-9 -26 -28 -60
q-18 -34 -52 -64t-86 -33q-44 -1 -76 21q-31 22 -49 54q-17 30 -29 66t-21 71v1v2q-1 0 -1 1q-18 76 -44 125q-13 23 -29 33v0z" />
    <glyph glyph-name="intersection" unicode="&#xf668;" horiz-adv-x="384" 
d="M64 -32v32v-32v32v224v0q1 54 37 91q37 36 91 37q54 -1 91 -37q36 -37 37 -91v-224v0v-32v0h64v0v32v0v224v0q-2 82 -56 136t-136 56q-82 -2 -136 -56t-56 -136v-224v0v-32v0h64v0z" />
    <glyph glyph-name="intersection" unicode="&#x22c2;" horiz-adv-x="384" 
d="M64 -32v32v-32v32v224v0q1 54 37 91q37 36 91 37q54 -1 91 -37q36 -37 37 -91v-224v0v-32v0h64v0v32v0v224v0q-2 82 -56 136t-136 56q-82 -2 -136 -56t-56 -136v-224v0v-32v0h64v0z" />
    <glyph glyph-name="union" unicode="&#xf6a2;" horiz-adv-x="384" 
d="M64 416v-32v32v-32v-224v0q1 -54 37 -91q37 -36 91 -37q54 1 91 37q36 37 37 91v224v0v32v0h64v0v-32v0v-224v0q-2 -82 -56 -136t-136 -56q-82 2 -136 56t-56 136v224v0v32v0h64v0z" />
    <glyph glyph-name="union" unicode="&#x22c3;" horiz-adv-x="384" 
d="M64 416v-32v32v-32v-224v0q1 -54 37 -91q37 -36 91 -37q54 1 91 37q36 37 37 91v224v0v32v0h64v0v-32v0v-224v0q-2 -82 -56 -136t-136 -56q-82 2 -136 56t-56 136v224v0v32v0h64v0z" />
    <glyph glyph-name="angle-up" unicode="&#xf106;" horiz-adv-x="448" 
d="M224 333l23 -22l-23 22l23 -22l160 -160v0l22 -23v0l-45 -45v0l-23 22v0l-137 138v0l-137 -138v0l-23 -22v0l-45 45v0l22 23v0l160 160v0l23 22v0z" />
    <glyph glyph-name="angle-up" unicode="&#x2303;" horiz-adv-x="448" 
d="M224 333l23 -22l-23 22l23 -22l160 -160v0l22 -23v0l-45 -45v0l-23 22v0l-137 138v0l-137 -138v0l-23 -22v0l-45 45v0l22 23v0l160 160v0l23 22v0z" />
    <glyph glyph-name="angle-down" unicode="&#xf107;" horiz-adv-x="448" 
d="M224 51l23 22l-23 -22l23 22l160 160v0l22 23v0l-45 45v0l-23 -22v0l-137 -138v0l-137 138v0l-23 22v0l-45 -45v0l22 -23v0l160 -160v0l23 -22v0z" />
    <glyph glyph-name="angle-down" unicode="&#x2304;" horiz-adv-x="448" 
d="M224 51l23 22l-23 -22l23 22l160 160v0l22 23v0l-45 45v0l-23 -22v0l-137 -138v0l-137 138v0l-23 22v0l-45 -45v0l22 -23v0l160 -160v0l23 -22v0z" />
    <glyph glyph-name="watch" unicode="&#xf2e1;" horiz-adv-x="384" 
d="M320 448v-72v72v-72q-56 39 -128 40q-72 -1 -128 -40v72v0h256v0zM320 8v-72v72v-72h-256v0v72v0q56 -39 128 -40q72 1 128 40v0zM0 192q0 52 26 96v0v0q25 44 70 70t96 26t96 -26t70 -70q26 -44 26 -96t-26 -96q-25 -44 -70 -70t-96 -26t-96 26t-70 70q-26 44 -26 96v0z
M216 272v24v-24v24h-48v0v-24v0v-80v0v-13v0l11 -7v0l48 -32v0l20 -13v0l26 40v0l-20 13v0l-37 25v0v67v0z" />
    <glyph glyph-name="watch" unicode="&#x231a;" horiz-adv-x="384" 
d="M320 448v-72v72v-72q-56 39 -128 40q-72 -1 -128 -40v72v0h256v0zM320 8v-72v72v-72h-256v0v72v0q56 -39 128 -40q72 1 128 40v0zM0 192q0 52 26 96v0v0q25 44 70 70t96 26t96 -26t70 -70q26 -44 26 -96t-26 -96q-25 -44 -70 -70t-96 -26t-96 26t-70 70q-26 44 -26 96v0z
M216 272v24v-24v24h-48v0v-24v0v-80v0v-13v0l11 -7v0l48 -32v0l20 -13v0l26 40v0l-20 13v0l-37 25v0v67v0z" />
    <glyph glyph-name="hourglass-end" unicode="&#xf253;" horiz-adv-x="384" 
d="M0 448h32h-32h384v-64v0h-32v0v-64v0v-13v0l-9 -10v0l-106 -105v0l106 -105v0l9 -10v0v-13v0v-64v0h32v0v-64v0h-32h-352v64v0h32v0v64v0v13v0l9 10v0l106 105v0l-106 105v0l-9 10v0v13v0v64v0h-32v0v64v0zM96 384v-51v51v-51l96 -96v0l96 96v0v51v0h-192v0z" />
    <glyph glyph-name="hourglass-end" unicode="&#x231b;" horiz-adv-x="384" 
d="M0 448h32h-32h384v-64v0h-32v0v-64v0v-13v0l-9 -10v0l-106 -105v0l106 -105v0l9 -10v0v-13v0v-64v0h32v0v-64v0h-32h-352v64v0h32v0v64v0v13v0l9 10v0l106 105v0l-106 105v0l-9 10v0v13v0v64v0h-32v0v64v0zM96 384v-51v51v-51l96 -96v0l96 96v0v51v0h-192v0z" />
    <glyph glyph-name="keyboard" unicode="&#xf11c;" horiz-adv-x="576" 
d="M576 384h-576h576h-576v-384v0h576v0v384v0zM128 320v-64v64v-64h-64v0v64v0h64v0zM64 224h64h-64h64v-64v0h-64v0v64v0zM128 128v-64v64v-64h-64v0v64v0h64v0zM160 320h64h-64h64v-64v0h-64v0v64v0zM224 224v-64v64v-64h-64v0v64v0h64v0zM160 128h256h-256h256v-64v0
h-256v0v64v0zM320 320v-64v64v-64h-64v0v64v0h64v0zM256 224h64h-64h64v-64v0h-64v0v64v0zM416 320v-64v64v-64h-64v0v64v0h64v0zM352 224h64h-64h64v-64v0h-64v0v64v0zM512 320v-64v64v-64h-64v0v64v0h64v0zM448 224h64h-64h64v-64v0h-64v0v64v0zM512 128v-64v64v-64h-64v0
v64v0h64v0z" />
    <glyph glyph-name="keyboard" unicode="&#x2328;" horiz-adv-x="576" 
d="M576 384h-576h576h-576v-384v0h576v0v384v0zM128 320v-64v64v-64h-64v0v64v0h64v0zM64 224h64h-64h64v-64v0h-64v0v64v0zM128 128v-64v64v-64h-64v0v64v0h64v0zM160 320h64h-64h64v-64v0h-64v0v64v0zM224 224v-64v64v-64h-64v0v64v0h64v0zM160 128h256h-256h256v-64v0
h-256v0v64v0zM320 320v-64v64v-64h-64v0v64v0h64v0zM256 224h64h-64h64v-64v0h-64v0v64v0zM416 320v-64v64v-64h-64v0v64v0h64v0zM352 224h64h-64h64v-64v0h-64v0v64v0zM512 320v-64v64v-64h-64v0v64v0h64v0zM448 224h64h-64h64v-64v0h-64v0v64v0zM512 128v-64v64v-64h-64v0
v64v0h64v0z" />
    <glyph glyph-name="chevron-left" unicode="&#xf053;" horiz-adv-x="320" 
d="M3 192l22 -23l-22 23l22 -23l192 -192v0l23 -22v0l45 45v0l-22 23v0l-170 169v0l170 169v0l22 23v0l-45 45v0l-23 -22v0l-192 -192v0l-22 -23v0z" />
    <glyph glyph-name="chevron-left" unicode="&#x2329;" horiz-adv-x="320" 
d="M3 192l22 -23l-22 23l22 -23l192 -192v0l23 -22v0l45 45v0l-22 23v0l-170 169v0l170 169v0l22 23v0l-45 45v0l-23 -22v0l-192 -192v0l-22 -23v0z" />
    <glyph glyph-name="chevron-right" unicode="&#xf054;" horiz-adv-x="320" 
d="M317 192l-22 -23l22 23l-22 -23l-192 -192v0l-23 -22v0l-45 45v0l22 23v0l170 169v0l-170 169v0l-22 23v0l45 45v0l23 -22v0l192 -192v0l22 -23v0z" />
    <glyph glyph-name="chevron-right" unicode="&#x232a;" horiz-adv-x="320" 
d="M317 192l-22 -23l22 23l-22 -23l-192 -192v0l-23 -22v0l-45 45v0l22 23v0l170 169v0l-170 169v0l-22 23v0l45 45v0l23 -22v0l192 -192v0l22 -23v0z" />
    <glyph glyph-name="delete-left" unicode="&#xf55a;" horiz-adv-x="576" 
d="M576 384v-384v384v-384h-400v0l-176 192v0l176 192v0h400v0zM254 256l17 -17l-17 17l17 -17l47 -47v0l-47 -47v0l-17 -17v0l34 -34v0l17 17v0l47 47v0l47 -47v0l17 -17v0l34 34v0l-17 17v0l-47 47v0l47 47v0l17 17v0l-34 34v0l-17 -17v0l-47 -47v0l-47 47v0l-17 17v0
l-34 -34v0z" />
    <glyph glyph-name="delete-left" unicode="&#x232b;" horiz-adv-x="576" 
d="M576 384v-384v384v-384h-400v0l-176 192v0l176 192v0h400v0zM254 256l17 -17l-17 17l17 -17l47 -47v0l-47 -47v0l-17 -17v0l34 -34v0l17 17v0l47 47v0l47 -47v0l17 -17v0l34 34v0l-17 17v0l-47 47v0l47 47v0l17 17v0l-34 34v0l-17 -17v0l-47 -47v0l-47 47v0l-17 17v0
l-34 -34v0z" />
    <glyph glyph-name="print" unicode="&#x1f5b6;" 
d="M96 448h272h-272h285l10 -9v0l48 -48v0l9 -10v0v-13v0v-80v0h-64v0v67v0l-29 29v0h-227v0v-96v0h-64v0v128v0v32v0h32v0zM64 64h-64h64h-64v192v0h512v0v-192v0h-64v0v-96v0v-32v0h-32h-352v32v0v96v0zM128 64v-64v64v-64h256v0v64v0v32v0h-256v0v-16v0v-16v0zM408 200
v-48v48v-48h48v0v48v0h-48v0z" />
    <glyph glyph-name="print" unicode="&#x1f5a8;" 
d="M96 448h272h-272h285l10 -9v0l48 -48v0l9 -10v0v-13v0v-80v0h-64v0v67v0l-29 29v0h-227v0v-96v0h-64v0v128v0v32v0h32v0zM64 64h-64h64h-64v192v0h512v0v-192v0h-64v0v-96v0v-32v0h-32h-352v32v0v96v0zM128 64v-64v64v-64h256v0v64v0v32v0h-256v0v-16v0v-16v0zM408 200
v-48v48v-48h48v0v48v0h-48v0z" />
    <glyph glyph-name="print" unicode="&#xf02f;" 
d="M96 448h272h-272h285l10 -9v0l48 -48v0l9 -10v0v-13v0v-80v0h-64v0v67v0l-29 29v0h-227v0v-96v0h-64v0v128v0v32v0h32v0zM64 64h-64h64h-64v192v0h512v0v-192v0h-64v0v-96v0v-32v0h-32h-352v32v0v96v0zM128 64v-64v64v-64h256v0v64v0v32v0h-256v0v-16v0v-16v0zM408 200
v-48v48v-48h48v0v48v0h-48v0z" />
    <glyph glyph-name="print" unicode="&#x2399;" 
d="M96 448h272h-272h285l10 -9v0l48 -48v0l9 -10v0v-13v0v-80v0h-64v0v67v0l-29 29v0h-227v0v-96v0h-64v0v128v0v32v0h32v0zM64 64h-64h64h-64v192v0h512v0v-192v0h-64v0v-96v0v-32v0h-32h-352v32v0v96v0zM128 64v-64v64v-64h256v0v64v0v32v0h-256v0v-16v0v-16v0zM408 200
v-48v48v-48h48v0v48v0h-48v0z" />
    <glyph glyph-name="eject" unicode="&#xf052;" horiz-adv-x="448" 
d="M0 128v48v-48v48l224 240v0l224 -240v0v-48v0h-448v0zM448 -32h-448h448h-448v96v0h448v0v-96v0z" />
    <glyph glyph-name="eject" unicode="&#x23cf;" horiz-adv-x="448" 
d="M0 128v48v-48v48l224 240v0l224 -240v0v-48v0h-448v0zM448 -32h-448h448h-448v96v0h448v0v-96v0z" />
    <glyph glyph-name="forward" unicode="&#xf04e;" 
d="M512 192l-256 -192l256 192l-256 -192v384v0l256 -192v0zM0 0v384v-384v384l224 -168v0v-48v0l-224 -168v0z" />
    <glyph glyph-name="forward" unicode="&#x23e9;" 
d="M512 192l-256 -192l256 192l-256 -192v384v0l256 -192v0zM0 0v384v-384v384l224 -168v0v-48v0l-224 -168v0z" />
    <glyph glyph-name="backward" unicode="&#xf04a;" 
d="M0 192l256 -192l-256 192l256 -192v384v0l-256 -192v0zM512 0v384v-384v384l-224 -168v0v-48v0l224 -168v0z" />
    <glyph glyph-name="backward" unicode="&#x23ea;" 
d="M0 192l256 -192l-256 192l256 -192v384v0l-256 -192v0zM512 0v384v-384v384l-224 -168v0v-48v0l224 -168v0z" />
    <glyph glyph-name="forward-fast" unicode="&#xf050;" 
d="M448 352v32v-32v32h64v0v-32v0v-320v0v-32v0h-64v0v32v0v136v0l-224 -168v0v168v0l-224 -168v0v384v0l224 -168v0v168v0l224 -168v0v136v0z" />
    <glyph glyph-name="forward-fast" unicode="&#x23ed;" 
d="M448 352v32v-32v32h64v0v-32v0v-320v0v-32v0h-64v0v32v0v136v0l-224 -168v0v168v0l-224 -168v0v384v0l224 -168v0v168v0l224 -168v0v136v0z" />
    <glyph glyph-name="backward-fast" unicode="&#xf049;" 
d="M64 352v32v-32v32h-64v0v-32v0v-320v0v-32v0h64v0v32v0v136v0l224 -168v0v168v0l224 -168v0v384v0l-224 -168v0v168v0l-224 -168v0v136v0z" />
    <glyph glyph-name="backward-fast" unicode="&#x23ee;" 
d="M64 352v32v-32v32h-64v0v-32v0v-320v0v-32v0h64v0v32v0v136v0l224 -168v0v168v0l224 -168v0v384v0l-224 -168v0v168v0l-224 -168v0v136v0z" />
    <glyph glyph-name="alarm-clock" unicode="&#xf34e;" 
d="M160 423q-26 24 -65 25q-40 -1 -67 -28t-28 -67q0 -29 15 -51l145 121v0zM256 -64q77 1 134 45l19 -20v0l23 -22v0l45 45v0l-22 23v0l-20 19v0q44 57 45 134q-1 63 -31 113q-29 51 -80 80q-50 30 -113 31q-63 -1 -113 -31q-51 -29 -80 -80q-30 -50 -31 -113
q1 -77 45 -134l-20 -19v0l-22 -23v0l45 -45v0l23 22v0l19 20v0q57 -44 134 -45v0zM497 302q15 22 15 51q-1 40 -28 67t-67 28q-39 -1 -65 -25l145 -121v0zM280 264v-94v94v-94l41 -41v0l17 -17v0l-34 -34v0l-17 17v0l-48 48v0l-7 7v0v10v0v104v0v24v0h48v0v-24v0z" />
    <glyph glyph-name="alarm-clock" unicode="&#x23f0;" 
d="M160 423q-26 24 -65 25q-40 -1 -67 -28t-28 -67q0 -29 15 -51l145 121v0zM256 -64q77 1 134 45l19 -20v0l23 -22v0l45 45v0l-22 23v0l-20 19v0q44 57 45 134q-1 63 -31 113q-29 51 -80 80q-50 30 -113 31q-63 -1 -113 -31q-51 -29 -80 -80q-30 -50 -31 -113
q1 -77 45 -134l-20 -19v0l-22 -23v0l45 -45v0l23 22v0l19 20v0q57 -44 134 -45v0zM497 302q15 22 15 51q-1 40 -28 67t-67 28q-39 -1 -65 -25l145 -121v0zM280 264v-94v94v-94l41 -41v0l17 -17v0l-34 -34v0l-17 17v0l-48 48v0l-7 7v0v10v0v104v0v24v0h48v0v-24v0z" />
    <glyph glyph-name="stopwatch" unicode="&#xf2f2;" horiz-adv-x="448" 
d="M224 448h-80h80h-80v-64v0h48v0v-34v0q-76 -14 -125 -70t-51 -136q2 -88 61 -147t147 -61q88 2 147 61t61 147q-1 64 -33 113l24 24v0l22 23v0l-45 45v0l-23 -22v0l-21 -22v0q-43 35 -100 45v34v0h48v0v64v0h-80v0zM248 232v-112v112v-112v-24v0h-48v0v24v0v112v0v24v0
h48v0v-24v0z" />
    <glyph glyph-name="stopwatch" unicode="&#x23f1;" horiz-adv-x="448" 
d="M224 448h-80h80h-80v-64v0h48v0v-34v0q-76 -14 -125 -70t-51 -136q2 -88 61 -147t147 -61q88 2 147 61t61 147q-1 64 -33 113l24 24v0l22 23v0l-45 45v0l-23 -22v0l-21 -22v0q-43 35 -100 45v34v0h48v0v64v0h-80v0zM248 232v-112v112v-112v-24v0h-48v0v24v0v112v0v24v0
h48v0v-24v0z" />
    <glyph glyph-name="hourglass" unicode="&#xf254;" horiz-adv-x="384" 
d="M32 448h-32h32h-32v-64v0h32v0v-64v0v-13v0l9 -10v0l106 -105v0l-106 -105v0l-9 -10v0v-13v0v-64v0h-32v0v-64v0h32h352v64v0h-32v0v64v0v13v0l-9 10v0l-106 105v0l106 105v0l9 10v0v13v0v64v0h32v0v64v0h-32h-320zM288 384v-51v51v-51l-96 -96v0l-96 96v0v51v0h192v0z
M192 147l96 -96l-96 96l96 -96v-51v0h-192v0v51v0l96 96v0z" />
    <glyph glyph-name="hourglass" unicode="&#xf250;" horiz-adv-x="384" 
d="M32 448h-32h32h-32v-64v0h32v0v-64v0v-13v0l9 -10v0l106 -105v0l-106 -105v0l-9 -10v0v-13v0v-64v0h-32v0v-64v0h32h352v64v0h-32v0v64v0v13v0l-9 10v0l-106 105v0l106 105v0l9 10v0v13v0v64v0h32v0v64v0h-32h-320zM288 384v-51v51v-51l-96 -96v0l-96 96v0v51v0h192v0z
M192 147l96 -96l-96 96l96 -96v-51v0h-192v0v51v0l96 96v0z" />
    <glyph glyph-name="hourglass" unicode="&#x23f3;" horiz-adv-x="384" 
d="M32 448h-32h32h-32v-64v0h32v0v-64v0v-13v0l9 -10v0l106 -105v0l-106 -105v0l-9 -10v0v-13v0v-64v0h-32v0v-64v0h32h352v64v0h-32v0v64v0v13v0l-9 10v0l-106 105v0l106 105v0l9 10v0v13v0v64v0h32v0v64v0h-32h-320zM288 384v-51v51v-51l-96 -96v0l-96 96v0v51v0h192v0z
M192 147l96 -96l-96 96l96 -96v-51v0h-192v0v51v0l96 96v0z" />
    <glyph glyph-name="pause" unicode="&#xf04c;" horiz-adv-x="320" 
d="M128 384h-128h128h-128v-384v0h128v0v384v0zM320 384h-128h128h-128v-384v0h128v0v384v0z" />
    <glyph glyph-name="pause" unicode="&#x23f8;" horiz-adv-x="320" 
d="M128 384h-128h128h-128v-384v0h128v0v384v0zM320 384h-128h128h-128v-384v0h128v0v384v0z" />
    <glyph glyph-name="stop" unicode="&#xf04d;" horiz-adv-x="384" 
d="M0 384h384h-384h384v-384v0h-384v0v384v0z" />
    <glyph glyph-name="stop" unicode="&#x23f9;" horiz-adv-x="384" 
d="M0 384h384h-384h384v-384v0h-384v0v384v0z" />
    <glyph glyph-name="power-off" unicode="&#xf011;" 
d="M288 416v32v-32v32h-64v0v-32v0v-224v0v-32v0h64v0v32v0v224v0zM80 192q0 41 17 76v0v0q17 35 47 59l-41 50v0q-41 -34 -64 -81q-23 -48 -23 -104q1 -67 33 -121t86 -86t121 -33q67 1 121 33t86 86t33 121q0 56 -23 104q-24 47 -64 81l-40 -50v0q29 -24 46 -59t17 -76
q-2 -75 -52 -124q-49 -50 -124 -52q-75 2 -124 52q-50 49 -52 124v0z" />
    <glyph glyph-name="power-off" unicode="&#x23fb;" 
d="M288 416v32v-32v32h-64v0v-32v0v-224v0v-32v0h64v0v32v0v224v0zM80 192q0 41 17 76v0v0q17 35 47 59l-41 50v0q-41 -34 -64 -81q-23 -48 -23 -104q1 -67 33 -121t86 -86t121 -33q67 1 121 33t86 86t33 121q0 56 -23 104q-24 47 -64 81l-40 -50v0q29 -24 46 -59t17 -76
q-2 -75 -52 -124q-49 -50 -124 -52q-75 2 -124 52q-50 49 -52 124v0z" />
    <glyph glyph-name="moon" unicode="&#x1f319;" horiz-adv-x="384" 
d="M288 407q-64 -17 -103 -68v0v0q-40 -50 -41 -118q2 -82 56 -136t135 -56q25 0 49 6q-31 -31 -72 -49t-88 -18q-63 1 -113 31q-51 29 -80 80q-30 50 -31 113q1 63 31 113q29 51 80 80q50 30 113 31q33 0 64 -9v0z" />
    <glyph glyph-name="moon" unicode="&#xf186;" horiz-adv-x="384" 
d="M288 407q-64 -17 -103 -68v0v0q-40 -50 -41 -118q2 -82 56 -136t135 -56q25 0 49 6q-31 -31 -72 -49t-88 -18q-63 1 -113 31q-51 29 -80 80q-30 50 -31 113q1 63 31 113q29 51 80 80q50 30 113 31q33 0 64 -9v0z" />
    <glyph glyph-name="moon" unicode="&#x23fe;" horiz-adv-x="384" 
d="M288 407q-64 -17 -103 -68v0v0q-40 -50 -41 -118q2 -82 56 -136t135 -56q25 0 49 6q-31 -31 -72 -49t-88 -18q-63 1 -113 31q-51 29 -80 80q-30 50 -31 113q1 63 31 113q29 51 80 80q50 30 113 31q33 0 64 -9v0z" />
    <glyph glyph-name="circle-h" unicode="&#xf47e;" 
d="M256 -64q70 1 128 34v0v0q58 34 94 94q34 61 34 128t-34 128q-36 60 -94 94q-58 33 -128 34q-70 -1 -128 -34q-58 -34 -94 -94q-34 -61 -34 -128t34 -128q36 -60 94 -94q58 -33 128 -34v0zM368 296v-104v104v-104v-104v0v-24v0h-48v0v24v0v80v0h-128v0v-80v0v-24v0h-48v0
v24v0v80v0v48v0v80v0v24v0h48v0v-24v0v-80v0h128v0v80v0v24v0h48v0v-24v0z" />
    <glyph glyph-name="circle-h" unicode="&#x24bd;" 
d="M256 -64q70 1 128 34v0v0q58 34 94 94q34 61 34 128t-34 128q-36 60 -94 94q-58 33 -128 34q-70 -1 -128 -34q-58 -34 -94 -94q-34 -61 -34 -128t34 -128q36 -60 94 -94q58 -33 128 -34v0zM368 296v-104v104v-104v-104v0v-24v0h-48v0v24v0v80v0h-128v0v-80v0v-24v0h-48v0
v24v0v80v0v48v0v80v0v24v0h48v0v-24v0v-80v0h128v0v80v0v24v0h48v0v-24v0z" />
    <glyph glyph-name="square" unicode="&#xf0c8;" horiz-adv-x="448" 
d="M0 416h448h-448h448v-448v0h-448v0v448v0z" />
    <glyph glyph-name="square" unicode="&#xf096;" horiz-adv-x="448" 
d="M0 416h448h-448h448v-448v0h-448v0v448v0z" />
    <glyph glyph-name="square" unicode="&#x25fc;" horiz-adv-x="448" 
d="M0 416h448h-448h448v-448v0h-448v0v448v0z" />
    <glyph glyph-name="square" unicode="&#x25fb;" horiz-adv-x="448" 
d="M0 416h448h-448h448v-448v0h-448v0v448v0z" />
    <glyph glyph-name="square" unicode="&#x25a0;" horiz-adv-x="448" 
d="M0 416h448h-448h448v-448v0h-448v0v448v0z" />
    <glyph glyph-name="rectangle" unicode="&#xf2fa;" 
d="M0 384h512h-512h512v-384v0h-512v0v384v0z" />
    <glyph glyph-name="rectangle" unicode="&#x25ac;" 
d="M0 384h512h-512h512v-384v0h-512v0v384v0z" />
    <glyph glyph-name="triangle" unicode="&#xf2ec;" 
d="M0 -32l256 448l-256 -448l256 448l256 -448v0h-512v0z" />
    <glyph glyph-name="triangle" unicode="&#x25b2;" 
d="M0 -32l256 448l-256 -448l256 448l256 -448v0h-512v0z" />
    <glyph glyph-name="play" unicode="&#xf04b;" horiz-adv-x="384" 
d="M384 192l-384 224l384 -224l-384 224v-448v0l384 224v0z" />
    <glyph glyph-name="play" unicode="&#x25b6;" horiz-adv-x="384" 
d="M384 192l-384 224l384 -224l-384 224v-448v0l384 224v0z" />
    <glyph glyph-name="circle" unicode="&#x1f7e4;" 
d="M256 -64q70 1 128 34v0v0q58 34 94 94q34 61 34 128t-34 128q-36 60 -94 94q-58 33 -128 34q-70 -1 -128 -34q-58 -34 -94 -94q-34 -61 -34 -128t34 -128q36 -60 94 -94q58 -33 128 -34v0z" />
    <glyph glyph-name="circle" unicode="&#x1f7e3;" 
d="M256 -64q70 1 128 34v0v0q58 34 94 94q34 61 34 128t-34 128q-36 60 -94 94q-58 33 -128 34q-70 -1 -128 -34q-58 -34 -94 -94q-34 -61 -34 -128t34 -128q36 -60 94 -94q58 -33 128 -34v0z" />
    <glyph glyph-name="circle" unicode="&#x1f7e2;" 
d="M256 -64q70 1 128 34v0v0q58 34 94 94q34 61 34 128t-34 128q-36 60 -94 94q-58 33 -128 34q-70 -1 -128 -34q-58 -34 -94 -94q-34 -61 -34 -128t34 -128q36 -60 94 -94q58 -33 128 -34v0z" />
    <glyph glyph-name="circle" unicode="&#x1f7e1;" 
d="M256 -64q70 1 128 34v0v0q58 34 94 94q34 61 34 128t-34 128q-36 60 -94 94q-58 33 -128 34q-70 -1 -128 -34q-58 -34 -94 -94q-34 -61 -34 -128t34 -128q36 -60 94 -94q58 -33 128 -34v0z" />
    <glyph glyph-name="circle" unicode="&#x1f7e0;" 
d="M256 -64q70 1 128 34v0v0q58 34 94 94q34 61 34 128t-34 128q-36 60 -94 94q-58 33 -128 34q-70 -1 -128 -34q-58 -34 -94 -94q-34 -61 -34 -128t34 -128q36 -60 94 -94q58 -33 128 -34v0z" />
    <glyph glyph-name="circle" unicode="&#x1f535;" 
d="M256 -64q70 1 128 34v0v0q58 34 94 94q34 61 34 128t-34 128q-36 60 -94 94q-58 33 -128 34q-70 -1 -128 -34q-58 -34 -94 -94q-34 -61 -34 -128t34 -128q36 -60 94 -94q58 -33 128 -34v0z" />
    <glyph glyph-name="circle" unicode="&#x1f534;" 
d="M256 -64q70 1 128 34v0v0q58 34 94 94q34 61 34 128t-34 128q-36 60 -94 94q-58 33 -128 34q-70 -1 -128 -34q-58 -34 -94 -94q-34 -61 -34 -128t34 -128q36 -60 94 -94q58 -33 128 -34v0z" />
    <glyph glyph-name="circle" unicode="&#xf1db;" 
d="M256 -64q70 1 128 34v0v0q58 34 94 94q34 61 34 128t-34 128q-36 60 -94 94q-58 33 -128 34q-70 -1 -128 -34q-58 -34 -94 -94q-34 -61 -34 -128t34 -128q36 -60 94 -94q58 -33 128 -34v0z" />
    <glyph glyph-name="circle" unicode="&#xf111;" 
d="M256 -64q70 1 128 34v0v0q58 34 94 94q34 61 34 128t-34 128q-36 60 -94 94q-58 33 -128 34q-70 -1 -128 -34q-58 -34 -94 -94q-34 -61 -34 -128t34 -128q36 -60 94 -94q58 -33 128 -34v0z" />
    <glyph glyph-name="circle" unicode="&#xf10c;" 
d="M256 -64q70 1 128 34v0v0q58 34 94 94q34 61 34 128t-34 128q-36 60 -94 94q-58 33 -128 34q-70 -1 -128 -34q-58 -34 -94 -94q-34 -61 -34 -128t34 -128q36 -60 94 -94q58 -33 128 -34v0z" />
    <glyph glyph-name="circle" unicode="&#x2b24;" 
d="M256 -64q70 1 128 34v0v0q58 34 94 94q34 61 34 128t-34 128q-36 60 -94 94q-58 33 -128 34q-70 -1 -128 -34q-58 -34 -94 -94q-34 -61 -34 -128t34 -128q36 -60 94 -94q58 -33 128 -34v0z" />
    <glyph glyph-name="circle" unicode="&#x26ab;" 
d="M256 -64q70 1 128 34v0v0q58 34 94 94q34 61 34 128t-34 128q-36 60 -94 94q-58 33 -128 34q-70 -1 -128 -34q-58 -34 -94 -94q-34 -61 -34 -128t34 -128q36 -60 94 -94q58 -33 128 -34v0z" />
    <glyph glyph-name="circle" unicode="&#x26aa;" 
d="M256 -64q70 1 128 34v0v0q58 34 94 94q34 61 34 128t-34 128q-36 60 -94 94q-58 33 -128 34q-70 -1 -128 -34q-58 -34 -94 -94q-34 -61 -34 -128t34 -128q36 -60 94 -94q58 -33 128 -34v0z" />
    <glyph glyph-name="circle" unicode="&#x25cf;" 
d="M256 -64q70 1 128 34v0v0q58 34 94 94q34 61 34 128t-34 128q-36 60 -94 94q-58 33 -128 34q-70 -1 -128 -34q-58 -34 -94 -94q-34 -61 -34 -128t34 -128q36 -60 94 -94q58 -33 128 -34v0z" />
    <glyph glyph-name="circle-half-stroke" unicode="&#xf042;" 
d="M448 192q-2 82 -56 136v0v0q-54 54 -136 56v-384v0q82 2 136 56t56 136v0zM0 192q1 70 34 128v0v0q34 58 94 94q61 34 128 34t128 -34q60 -36 94 -94q33 -58 34 -128q-1 -70 -34 -128q-34 -58 -94 -94q-61 -34 -128 -34t-128 34q-60 36 -94 94q-33 58 -34 128v0z" />
    <glyph glyph-name="circle-half-stroke" unicode="&#x25d0;" 
d="M448 192q-2 82 -56 136v0v0q-54 54 -136 56v-384v0q82 2 136 56t56 136v0zM0 192q1 70 34 128v0v0q34 58 94 94q61 34 128 34t128 -34q60 -36 94 -94q33 -58 34 -128q-1 -70 -34 -128q-34 -58 -94 -94q-61 -34 -128 -34t-128 34q-60 36 -94 94q-33 58 -34 128v0z" />
    <glyph glyph-name="sun" unicode="&#xf185;" 
d="M256 375l-106 73l106 -73l-106 73l-23 -127v0l-127 -23v0l73 -106v0l-73 -106v0l127 -23v0l23 -127v0l106 73v0l106 -73v0l23 127v0l127 23v0l-73 106v0l73 106v0l-127 23v0l-23 127v0l-106 -73v0zM352 192q0 26 -13 48v0v0q-13 22 -35 35q-23 13 -48 13t-48 -13
q-22 -13 -35 -35t-13 -48t13 -48t35 -35q23 -13 48 -13t48 13q22 13 35 35t13 48v0zM128 192q0 35 17 64v0v0q17 29 47 47q30 17 64 17t64 -17q30 -18 47 -47t17 -64t-17 -64t-47 -47q-30 -17 -64 -17t-64 17q-30 18 -47 47t-17 64v0z" />
    <glyph glyph-name="sun" unicode="&#x2600;" 
d="M256 375l-106 73l106 -73l-106 73l-23 -127v0l-127 -23v0l73 -106v0l-73 -106v0l127 -23v0l23 -127v0l106 73v0l106 -73v0l23 127v0l127 23v0l-73 106v0l73 106v0l-127 23v0l-23 127v0l-106 -73v0zM352 192q0 26 -13 48v0v0q-13 22 -35 35q-23 13 -48 13t-48 -13
q-22 -13 -35 -35t-13 -48t13 -48t35 -35q23 -13 48 -13t48 13q22 13 35 35t13 48v0zM128 192q0 35 17 64v0v0q17 29 47 47q30 17 64 17t64 -17q30 -18 47 -47t17 -64t-17 -64t-47 -47q-30 -17 -64 -17t-64 17q-30 18 -47 47t-17 64v0z" />
    <glyph glyph-name="cloud" unicode="&#xf0c2;" horiz-adv-x="640" 
d="M0 -32h144h-144h640v128v0q-1 46 -27 79q-27 34 -69 45v36v0q-1 41 -28 68t-68 28q-30 0 -53 -16q-22 36 -58 58q-36 21 -81 22q-68 -2 -113 -47t-47 -113v-8v0q-43 -16 -69 -52t-27 -84v-144v0z" />
    <glyph glyph-name="cloud" unicode="&#x2601;" horiz-adv-x="640" 
d="M0 -32h144h-144h640v128v0q-1 46 -27 79q-27 34 -69 45v36v0q-1 41 -28 68t-68 28q-30 0 -53 -16q-22 36 -58 58q-36 21 -81 22q-68 -2 -113 -47t-47 -113v-8v0q-43 -16 -69 -52t-27 -84v-144v0z" />
    <glyph glyph-name="snowman" unicode="&#xf7d0;" 
d="M352 352q0 -28 -15 -51q14 -15 22 -34l49 21v0v40v0v24v0h48v0v-24v0v-20v0l23 10v0l22 10v0l19 -45v0l-23 -9v0l-56 -24v0l-73 -32v0q-1 -17 -7 -33q53 -47 55 -121q0 -40 -17 -73t-47 -55h-192v0q-30 22 -47 55t-17 73q2 75 55 121q-6 16 -7 33l-73 32v0l-56 24v0
l-23 9v0l19 44v0l22 -9v0l23 -10v0v20v0v24v0h48v0v-24v0v-40v0l49 -21v0q8 19 22 34q-15 23 -15 51q1 41 28 68t68 28q41 -1 68 -28t28 -68v0zM272 176h-32h32h-32v-32v0h32v0v32v0zM272 80v32v-32v32h-32v0v-32v0h32v0zM240 368q-1 15 -16 16q-15 -1 -16 -16q1 -15 16 -16
q15 1 16 16v0zM288 352q15 1 16 16q-1 15 -16 16q-15 -1 -16 -16q1 -15 16 -16v0zM240 328v0v0v0q0 -5 2 -9l14 -23v0l14 23v0q2 4 2 9v0v0q-1 15 -16 16q-15 -1 -16 -16v0zM272 240h-32h32h-32v-32v0h32v0v32v0z" />
    <glyph glyph-name="snowman" unicode="&#x26c4;" 
d="M352 352q0 -28 -15 -51q14 -15 22 -34l49 21v0v40v0v24v0h48v0v-24v0v-20v0l23 10v0l22 10v0l19 -45v0l-23 -9v0l-56 -24v0l-73 -32v0q-1 -17 -7 -33q53 -47 55 -121q0 -40 -17 -73t-47 -55h-192v0q-30 22 -47 55t-17 73q2 75 55 121q-6 16 -7 33l-73 32v0l-56 24v0
l-23 9v0l19 44v0l22 -9v0l23 -10v0v20v0v24v0h48v0v-24v0v-40v0l49 -21v0q8 19 22 34q-15 23 -15 51q1 41 28 68t68 28q41 -1 68 -28t28 -68v0zM272 176h-32h32h-32v-32v0h32v0v32v0zM272 80v32v-32v32h-32v0v-32v0h32v0zM240 368q-1 15 -16 16q-15 -1 -16 -16q1 -15 16 -16
q15 1 16 16v0zM288 352q15 1 16 16q-1 15 -16 16q-15 -1 -16 -16q1 -15 16 -16v0zM240 328v0v0v0q0 -5 2 -9l14 -23v0l14 23v0q2 4 2 9v0v0q-1 15 -16 16q-15 -1 -16 -16v0zM272 240h-32h32h-32v-32v0h32v0v32v0z" />
    <glyph glyph-name="snowman" unicode="&#x2603;" 
d="M352 352q0 -28 -15 -51q14 -15 22 -34l49 21v0v40v0v24v0h48v0v-24v0v-20v0l23 10v0l22 10v0l19 -45v0l-23 -9v0l-56 -24v0l-73 -32v0q-1 -17 -7 -33q53 -47 55 -121q0 -40 -17 -73t-47 -55h-192v0q-30 22 -47 55t-17 73q2 75 55 121q-6 16 -7 33l-73 32v0l-56 24v0
l-23 9v0l19 44v0l22 -9v0l23 -10v0v20v0v24v0h48v0v-24v0v-40v0l49 -21v0q8 19 22 34q-15 23 -15 51q1 41 28 68t68 28q41 -1 68 -28t28 -68v0zM272 176h-32h32h-32v-32v0h32v0v32v0zM272 80v32v-32v32h-32v0v-32v0h32v0zM240 368q-1 15 -16 16q-15 -1 -16 -16q1 -15 16 -16
q15 1 16 16v0zM288 352q15 1 16 16q-1 15 -16 16q-15 -1 -16 -16q1 -15 16 -16v0zM240 328v0v0v0q0 -5 2 -9l14 -23v0l14 23v0q2 4 2 9v0v0q-1 15 -16 16q-15 -1 -16 -16v0zM272 240h-32h32h-32v-32v0h32v0v32v0z" />
    <glyph glyph-name="meteor" unicode="&#xf753;" 
d="M512 448l-213 -76l213 76l-213 -76l5 60v0l-203 -117v0q-47 -28 -74 -75q-27 -46 -27 -101q2 -86 59 -144q58 -57 144 -59q55 0 101 27q47 27 75 74l117 203v0l-60 -5v0l76 213v0zM192 256q35 0 64 -17v0v0q29 -17 47 -47q17 -30 17 -64t-17 -64q-18 -30 -47 -47t-64 -17
t-64 17t-47 47q-17 30 -17 64t17 64q18 30 47 47t64 17v0zM192 160q0 14 -9 23v0v0q-9 9 -23 9t-23 -9t-9 -23t9 -23t23 -9t23 9t9 23v0zM208 64q15 1 16 16q-1 15 -16 16q-15 -1 -16 -16q1 -15 16 -16v0z" />
    <glyph glyph-name="meteor" unicode="&#x2604;" 
d="M512 448l-213 -76l213 76l-213 -76l5 60v0l-203 -117v0q-47 -28 -74 -75q-27 -46 -27 -101q2 -86 59 -144q58 -57 144 -59q55 0 101 27q47 27 75 74l117 203v0l-60 -5v0l76 213v0zM192 256q35 0 64 -17v0v0q29 -17 47 -47q17 -30 17 -64t-17 -64q-18 -30 -47 -47t-64 -17
t-64 17t-47 47q-17 30 -17 64t17 64q18 30 47 47t64 17v0zM192 160q0 14 -9 23v0v0q-9 9 -23 9t-23 -9t-9 -23t9 -23t23 -9t23 9t9 23v0zM208 64q15 1 16 16q-1 15 -16 16q-15 -1 -16 -16q1 -15 16 -16v0z" />
    <glyph glyph-name="phone-rotary" unicode="&#xf8d3;" 
d="M0 320q0 2 31 25v0v0q30 23 88 46v0v0q57 23 137 25q80 -2 137 -25q58 -23 88 -46q31 -23 31 -25v-80v0h-96v0l-32 80v0q0 1 -34 12q-33 10 -94 12q-60 -2 -94 -12q-33 -11 -34 -12l-32 -80v0h-96v0v80v0zM32 -32v96v-96v96l128 224v0h192v0l128 -224v0v-96v0h-448v0z
M328 136q-1 41 -36 62q-36 20 -72 0q-35 -21 -36 -62q1 -41 36 -62q36 -20 72 0q35 21 36 62v0z" />
    <glyph glyph-name="phone-rotary" unicode="&#x260e;" 
d="M0 320q0 2 31 25v0v0q30 23 88 46v0v0q57 23 137 25q80 -2 137 -25q58 -23 88 -46q31 -23 31 -25v-80v0h-96v0l-32 80v0q0 1 -34 12q-33 10 -94 12q-60 -2 -94 -12q-33 -11 -34 -12l-32 -80v0h-96v0v80v0zM32 -32v96v-96v96l128 224v0h192v0l128 -224v0v-96v0h-448v0z
M328 136q-1 41 -36 62q-36 20 -72 0q-35 -21 -36 -62q1 -41 36 -62q36 -20 72 0q35 21 36 62v0z" />
    <glyph glyph-name="square-check" unicode="&#xf14a;" horiz-adv-x="448" 
d="M448 416h-448h448h-448v-448v0h448v0v448v0zM209 111l-17 -17l17 17l-17 -17l-17 17v0l-80 80v0l34 34v0l63 -63v0l127 127v0l34 -34v0l-144 -144v0z" />
    <glyph glyph-name="square-check" unicode="&#xf046;" horiz-adv-x="448" 
d="M448 416h-448h448h-448v-448v0h448v0v448v0zM209 111l-17 -17l17 17l-17 -17l-17 17v0l-80 80v0l34 34v0l63 -63v0l127 127v0l34 -34v0l-144 -144v0z" />
    <glyph glyph-name="square-check" unicode="&#x2705;" horiz-adv-x="448" 
d="M448 416h-448h448h-448v-448v0h448v0v448v0zM209 111l-17 -17l17 17l-17 -17l-17 17v0l-80 80v0l34 34v0l63 -63v0l127 127v0l34 -34v0l-144 -144v0z" />
    <glyph glyph-name="square-check" unicode="&#x2611;" horiz-adv-x="448" 
d="M448 416h-448h448h-448v-448v0h448v0v448v0zM209 111l-17 -17l17 17l-17 -17l-17 17v0l-80 80v0l34 34v0l63 -63v0l127 127v0l34 -34v0l-144 -144v0z" />
    <glyph glyph-name="mug-hot" unicode="&#xf7b6;" 
d="M112 448h-48h48h-48v-24v0q1 -29 14 -46q12 -17 25 -27l1 -1v0q12 -10 18 -18t6 -20v-24v0h48v0v24v0q-1 29 -14 46q-12 17 -25 27l-1 1v0q-12 10 -18 18t-6 20v24v0zM0 256v-320v320v-320h384v0v96v0h16v0q48 1 79 33q32 31 33 79q-1 48 -33 79q-31 32 -79 33h-16h-384z
M384 192h16h-16h16q20 -1 34 -14q13 -14 14 -34q-1 -20 -14 -34q-14 -13 -34 -14h-16v0v96v0zM224 424v24v-24v24h-48v0v-24v0q1 -29 14 -46q12 -17 25 -27l1 -1v0q12 -10 18 -18t6 -20v-24v0h48v0v24v0q-1 29 -14 46q-12 17 -25 27l-1 1v0q-12 10 -18 18t-6 20v0z" />
    <glyph glyph-name="mug-hot" unicode="&#x2615;" 
d="M112 448h-48h48h-48v-24v0q1 -29 14 -46q12 -17 25 -27l1 -1v0q12 -10 18 -18t6 -20v-24v0h48v0v24v0q-1 29 -14 46q-12 17 -25 27l-1 1v0q-12 10 -18 18t-6 20v24v0zM0 256v-320v320v-320h384v0v96v0h16v0q48 1 79 33q32 31 33 79q-1 48 -33 79q-31 32 -79 33h-16h-384z
M384 192h16h-16h16q20 -1 34 -14q13 -14 14 -34q-1 -20 -14 -34q-14 -13 -34 -14h-16v0v96v0zM224 424v24v-24v24h-48v0v-24v0q1 -29 14 -46q12 -17 25 -27l1 -1v0q12 -10 18 -18t6 -20v-24v0h48v0v24v0q-1 29 -14 46q-12 17 -25 27l-1 1v0q-12 10 -18 18t-6 20v0z" />
    <glyph glyph-name="hand-point-up" unicode="&#xf0a6;" horiz-adv-x="384" 
d="M32 448h64h-64h64v-240v0h-64v0v240v0zM224 288h64h-64h64v-128v0h-64v0v128v0zM192 320v-112v112v-112h-64v0v112v0h64v0zM320 256h64h-64h64v-128v0h-64v0v128v0zM0 85v91v-91v91h192v0v-48v0v-32v0h-96h-16v-32v0h16h128v16v0v48v0h64v0v-32v0h96v0q-2 -68 -47 -113
t-113 -47h-62v0q-66 1 -113 47l-11 11v0q-37 38 -38 91v0z" />
    <glyph glyph-name="hand-point-up" unicode="&#x261d;" horiz-adv-x="384" 
d="M32 448h64h-64h64v-240v0h-64v0v240v0zM224 288h64h-64h64v-128v0h-64v0v128v0zM192 320v-112v112v-112h-64v0v112v0h64v0zM320 256h64h-64h64v-128v0h-64v0v128v0zM0 85v91v-91v91h192v0v-48v0v-32v0h-96h-16v-32v0h16h128v16v0v48v0h64v0v-32v0h96v0q-2 -68 -47 -113
t-113 -47h-62v0q-66 1 -113 47l-11 11v0q-37 38 -38 91v0z" />
    <glyph glyph-name="skull-crossbones" unicode="&#x1f571;" horiz-adv-x="448" 
d="M368 320q0 -34 -18 -61v0v0q-17 -28 -46 -45v-54v0h-160v0v54v0q-29 17 -46 45q-18 27 -18 61q2 54 42 91q41 36 102 37q61 -1 102 -37q40 -37 42 -91v0zM168 272q14 0 23 9v0v0q9 9 9 23t-9 23t-23 9t-23 -9t-9 -23t9 -23t23 -9v0zM312 304q0 14 -9 23v0v0q-9 9 -23 9
t-23 -9t-9 -23t9 -23t23 -9t23 9t9 23v0zM17 203l29 -14l-29 14l29 -14l178 -84v0l178 84v0l29 14v0l28 -58v0l-29 -14v0l-131 -61v0l131 -62v0l29 -13v0l-28 -58v0l-29 13v0l-178 84v0l-178 -84v0l-29 -13v0l-28 57v0l29 14v0l131 61v0l-131 62v0l-29 14v0l28 57v1z" />
    <glyph glyph-name="skull-crossbones" unicode="&#xf714;" horiz-adv-x="448" 
d="M368 320q0 -34 -18 -61v0v0q-17 -28 -46 -45v-54v0h-160v0v54v0q-29 17 -46 45q-18 27 -18 61q2 54 42 91q41 36 102 37q61 -1 102 -37q40 -37 42 -91v0zM168 272q14 0 23 9v0v0q9 9 9 23t-9 23t-23 9t-23 -9t-9 -23t9 -23t23 -9v0zM312 304q0 14 -9 23v0v0q-9 9 -23 9
t-23 -9t-9 -23t9 -23t23 -9t23 9t9 23v0zM17 203l29 -14l-29 14l29 -14l178 -84v0l178 84v0l29 14v0l28 -58v0l-29 -14v0l-131 -61v0l131 -62v0l29 -13v0l-28 -58v0l-29 13v0l-178 84v0l-178 -84v0l-29 -13v0l-28 57v0l29 14v0l131 61v0l-131 62v0l-29 14v0l28 57v1z" />
    <glyph glyph-name="skull-crossbones" unicode="&#x2620;" horiz-adv-x="448" 
d="M368 320q0 -34 -18 -61v0v0q-17 -28 -46 -45v-54v0h-160v0v54v0q-29 17 -46 45q-18 27 -18 61q2 54 42 91q41 36 102 37q61 -1 102 -37q40 -37 42 -91v0zM168 272q14 0 23 9v0v0q9 9 9 23t-9 23t-23 9t-23 -9t-9 -23t9 -23t23 -9v0zM312 304q0 14 -9 23v0v0q-9 9 -23 9
t-23 -9t-9 -23t9 -23t23 -9t23 9t9 23v0zM17 203l29 -14l-29 14l29 -14l178 -84v0l178 84v0l29 14v0l28 -58v0l-29 -14v0l-131 -61v0l131 -62v0l29 -13v0l-28 -58v0l-29 13v0l-178 84v0l-178 -84v0l-29 -13v0l-28 57v0l29 14v0l131 61v0l-131 62v0l-29 14v0l28 57v1z" />
    <glyph glyph-name="circle-radiation" unicode="&#xf7ba;" 
d="M256 384q52 0 96 -26v0v0q44 -25 70 -70t26 -96t-26 -96t-70 -70q-44 -26 -96 -26t-96 26q-44 25 -70 70t-26 96t26 96t70 70q44 26 96 26v0zM256 -64q70 1 128 34v0v0q58 34 94 94q34 61 34 128t-34 128q-36 60 -94 94q-58 33 -128 34q-70 -1 -128 -34q-58 -34 -94 -94
q-34 -61 -34 -128t34 -128q36 -60 94 -94q58 -33 128 -34v0zM200 192q1 32 28 48l-52 91v0q-36 -22 -58 -58q-21 -36 -22 -81h104v0zM228 143l-52 -90l52 90l-52 -90q36 -21 80 -21t80 21l-52 90v0q-12 -7 -28 -7q-15 0 -28 7v0zM312 192h104h-104h104q-1 45 -22 81
q-22 36 -58 58l-52 -91v0q27 -16 28 -48v0zM256 160q14 0 23 9v0v0q9 9 9 23t-9 23t-23 9t-23 -9t-9 -23t9 -23t23 -9v0z" />
    <glyph glyph-name="circle-radiation" unicode="&#x2622;" 
d="M256 384q52 0 96 -26v0v0q44 -25 70 -70t26 -96t-26 -96t-70 -70q-44 -26 -96 -26t-96 26q-44 25 -70 70t-26 96t26 96t70 70q44 26 96 26v0zM256 -64q70 1 128 34v0v0q58 34 94 94q34 61 34 128t-34 128q-36 60 -94 94q-58 33 -128 34q-70 -1 -128 -34q-58 -34 -94 -94
q-34 -61 -34 -128t34 -128q36 -60 94 -94q58 -33 128 -34v0zM200 192q1 32 28 48l-52 91v0q-36 -22 -58 -58q-21 -36 -22 -81h104v0zM228 143l-52 -90l52 90l-52 -90q36 -21 80 -21t80 21l-52 90v0q-12 -7 -28 -7q-15 0 -28 7v0zM312 192h104h-104h104q-1 45 -22 81
q-22 36 -58 58l-52 -91v0q27 -16 28 -48v0zM256 160q14 0 23 9v0v0q9 9 9 23t-9 23t-23 9t-23 -9t-9 -23t9 -23t23 -9v0z" />
    <glyph glyph-name="biohazard" unicode="&#xf780;" horiz-adv-x="576" 
d="M167 445q-45 -47 -47 -117q0 -39 17 -73q-34 -3 -66 -21q-51 -29 -71 -79q46 37 105 34t99 -65q36 -65 9 -116t-83 -70q55 -8 107 19q31 18 51 44q20 -26 51 -44q52 -27 107 -19q-56 19 -83 70t9 116q40 62 99 65q60 3 105 -34q-20 50 -71 79q-32 18 -66 21q17 34 17 73
q-2 70 -47 117q12 -39 3 -78q-9 -40 -40 -67t-84 -28q-53 1 -84 28t-40 67q-9 39 3 78v0zM240 176q1 27 24 42q24 12 48 0q23 -15 24 -42q-1 -27 -24 -42q-24 -12 -48 0q-23 15 -24 42v0zM288 384q-49 0 -90 -20q3 -9 8 -17q12 -22 37 -34q21 7 45 7t45 -7q25 12 37 34
q5 8 8 17q-41 20 -90 20v0zM191 69q-31 29 -42 71q-23 15 -47 17q-11 1 -21 0q5 -49 29 -88q24 -40 62 -66q7 9 12 19q11 21 7 47v0zM495 157q-10 1 -21 0q-24 -1 -47 -17q-11 -42 -42 -71q-4 -26 7 -47q5 -10 12 -19q38 26 62 66q24 39 29 88v0z" />
    <glyph glyph-name="biohazard" unicode="&#x2623;" horiz-adv-x="576" 
d="M167 445q-45 -47 -47 -117q0 -39 17 -73q-34 -3 -66 -21q-51 -29 -71 -79q46 37 105 34t99 -65q36 -65 9 -116t-83 -70q55 -8 107 19q31 18 51 44q20 -26 51 -44q52 -27 107 -19q-56 19 -83 70t9 116q40 62 99 65q60 3 105 -34q-20 50 -71 79q-32 18 -66 21q17 34 17 73
q-2 70 -47 117q12 -39 3 -78q-9 -40 -40 -67t-84 -28q-53 1 -84 28t-40 67q-9 39 3 78v0zM240 176q1 27 24 42q24 12 48 0q23 -15 24 -42q-1 -27 -24 -42q-24 -12 -48 0q-23 15 -24 42v0zM288 384q-49 0 -90 -20q3 -9 8 -17q12 -22 37 -34q21 7 45 7t45 -7q25 12 37 34
q5 8 8 17q-41 20 -90 20v0zM191 69q-31 29 -42 71q-23 15 -47 17q-11 1 -21 0q5 -49 29 -88q24 -40 62 -66q7 9 12 19q11 21 7 47v0zM495 157q-10 1 -21 0q-24 -1 -47 -17q-11 -42 -42 -71q-4 -26 7 -47q5 -10 12 -19q38 26 62 66q24 39 29 88v0z" />
    <glyph glyph-name="ankh" unicode="&#xf644;" horiz-adv-x="320" 
d="M96 320q1 27 19 45v0v0q18 18 45 19q27 -1 45 -19t19 -45q0 -31 -14 -57q-13 -26 -33 -47l-17 -17l-17 17q-20 21 -33 47q-14 26 -14 57v0zM160 448q-54 -1 -91 -37v0v0q-36 -37 -37 -91q1 -39 14 -71q13 -33 33 -57h-47h-32v-64v0h32h96v-160v0v-32v0h64v0v32v0v160v0
h96h32v64v0h-32h-47q20 24 33 57q13 32 14 71q-1 54 -37 91q-37 36 -91 37v0z" />
    <glyph glyph-name="ankh" unicode="&#x2625;" horiz-adv-x="320" 
d="M96 320q1 27 19 45v0v0q18 18 45 19q27 -1 45 -19t19 -45q0 -31 -14 -57q-13 -26 -33 -47l-17 -17l-17 17q-20 21 -33 47q-14 26 -14 57v0zM160 448q-54 -1 -91 -37v0v0q-36 -37 -37 -91q1 -39 14 -71q13 -33 33 -57h-47h-32v-64v0h32h96v-160v0v-32v0h64v0v32v0v160v0
h96h32v64v0h-32h-47q20 24 33 57q13 32 14 71q-1 54 -37 91q-37 36 -91 37v0z" />
    <glyph glyph-name="star-and-crescent" unicode="&#xf699;" 
d="M328 400q67 -1 119 -37q-36 39 -85 62t-106 23q-72 -1 -129 -35q-58 -34 -92 -92q-34 -57 -35 -129q1 -72 35 -129q34 -58 92 -92q57 -34 129 -35q57 0 106 23t85 62q-52 -36 -119 -37q-88 2 -147 61t-61 147q2 88 61 147t147 61v0zM426 242l-42 86l42 -86l-42 86
l-42 -86v0l-95 -14v0l69 -66v0l-17 -94v0l85 44v0l85 -45v0l-17 95v0l69 66v0l-95 14v0z" />
    <glyph glyph-name="star-and-crescent" unicode="&#x262a;" 
d="M328 400q67 -1 119 -37q-36 39 -85 62t-106 23q-72 -1 -129 -35q-58 -34 -92 -92q-34 -57 -35 -129q1 -72 35 -129q34 -58 92 -92q57 -34 129 -35q57 0 106 23t85 62q-52 -36 -119 -37q-88 2 -147 61t-61 147q2 88 61 147t147 61v0zM426 242l-42 86l42 -86l-42 86
l-42 -86v0l-95 -14v0l69 -66v0l-17 -94v0l85 44v0l85 -45v0l-17 95v0l69 66v0l-95 14v0z" />
    <glyph glyph-name="khanda" unicode="&#xf66d;" 
d="M192 400l64 48l-64 -48l64 48l64 -48v0q-1 -1 -14 -28q28 -14 45 -40t17 -60t-17 -60t-45 -41q13 -26 14 -27l-48 -36v0v-23v0l35 24v0v0v0q44 29 76 66t33 92q0 37 -10 75q-9 37 -22 58q2 0 33 -19q31 -18 62 -57t33 -100q-2 -49 -29 -92q-27 -44 -54 -72
q-27 -27 -29 -28l-83 45v0l-33 -22v0l46 -32v0q3 1 6 1q22 -2 24 -24q-2 -22 -24 -24q-20 2 -24 21l-40 28v0v-29v0q15 -9 16 -28q0 -14 -9 -23t-23 -9t-23 9t-9 23q1 19 16 28v29v0l-40 -28v0q-4 -19 -24 -21q-22 2 -24 24q2 22 24 24q3 0 6 -1l46 32v0l-33 22v0l-83 -45v0
q-2 1 -29 28q-27 28 -54 72q-27 43 -29 92q2 61 33 100t62 57q31 19 33 19q-13 -21 -22 -58q-10 -38 -10 -75q1 -55 33 -92t76 -66h1v0l34 -24v0v23v0l-48 36v0q1 1 15 27q-29 15 -46 41t-17 60t17 60t46 40q-14 27 -15 28v0v0zM192 272q2 -37 32 -55q7 26 8 55q-1 29 -8 55
q-30 -18 -32 -55v0zM280 272q1 -29 8 -55q30 18 32 55q-2 37 -32 55q-7 -26 -8 -55v0z" />
    <glyph glyph-name="khanda" unicode="&#x262c;" 
d="M192 400l64 48l-64 -48l64 48l64 -48v0q-1 -1 -14 -28q28 -14 45 -40t17 -60t-17 -60t-45 -41q13 -26 14 -27l-48 -36v0v-23v0l35 24v0v0v0q44 29 76 66t33 92q0 37 -10 75q-9 37 -22 58q2 0 33 -19q31 -18 62 -57t33 -100q-2 -49 -29 -92q-27 -44 -54 -72
q-27 -27 -29 -28l-83 45v0l-33 -22v0l46 -32v0q3 1 6 1q22 -2 24 -24q-2 -22 -24 -24q-20 2 -24 21l-40 28v0v-29v0q15 -9 16 -28q0 -14 -9 -23t-23 -9t-23 9t-9 23q1 19 16 28v29v0l-40 -28v0q-4 -19 -24 -21q-22 2 -24 24q2 22 24 24q3 0 6 -1l46 32v0l-33 22v0l-83 -45v0
q-2 1 -29 28q-27 28 -54 72q-27 43 -29 92q2 61 33 100t62 57q31 19 33 19q-13 -21 -22 -58q-10 -38 -10 -75q1 -55 33 -92t76 -66h1v0l34 -24v0v23v0l-48 36v0q1 1 15 27q-29 15 -46 41t-17 60t17 60t46 40q-14 27 -15 28v0v0zM192 272q2 -37 32 -55q7 26 8 55q-1 29 -8 55
q-30 -18 -32 -55v0zM280 272q1 -29 8 -55q30 18 32 55q-2 37 -32 55q-7 -26 -8 -55v0z" />
    <glyph glyph-name="peace" unicode="&#xf67c;" 
d="M224 3v121v-121v121l-94 -77v0q40 -35 94 -44v0zM89 97l135 110l-135 -110l135 110v174v0q-70 -13 -114 -64q-45 -52 -46 -125q1 -53 25 -95v0zM382 47l-94 77l94 -77l-94 77v-121v0q54 9 94 44v0zM423 97q25 42 25 95q-1 73 -46 125q-44 51 -114 64v-174v0l135 -110v0z
M0 192q1 70 34 128v0v0q34 58 94 94q61 34 128 34t128 -34q60 -36 94 -94q33 -58 34 -128q-1 -70 -34 -128q-34 -58 -94 -94q-61 -34 -128 -34t-128 34q-60 36 -94 94q-33 58 -34 128v0z" />
    <glyph glyph-name="peace" unicode="&#x262e;" 
d="M224 3v121v-121v121l-94 -77v0q40 -35 94 -44v0zM89 97l135 110l-135 -110l135 110v174v0q-70 -13 -114 -64q-45 -52 -46 -125q1 -53 25 -95v0zM382 47l-94 77l94 -77l-94 77v-121v0q54 9 94 44v0zM423 97q25 42 25 95q-1 73 -46 125q-44 51 -114 64v-174v0l135 -110v0z
M0 192q1 70 34 128v0v0q34 58 94 94q61 34 128 34t128 -34q60 -36 94 -94q33 -58 34 -128q-1 -70 -34 -128q-34 -58 -94 -94q-61 -34 -128 -34t-128 34q-60 36 -94 94q-33 58 -34 128v0z" />
    <glyph glyph-name="yin-yang" unicode="&#xf6ad;" 
d="M256 384q41 -1 68 -28v0v0q27 -27 28 -68q-1 -41 -28 -68t-68 -28t-68 -28t-28 -68q1 -41 28 -68t68 -28q-82 2 -136 56t-56 136q2 82 56 136t136 56v0zM256 -64q70 1 128 34v0v0q58 34 94 94q34 61 34 128t-34 128q-36 60 -94 94q-58 33 -128 34q-70 -1 -128 -34
q-58 -34 -94 -94q-34 -61 -34 -128t34 -128q36 -60 94 -94q58 -33 128 -34v0zM216 288l40 -40l-40 40l40 -40l40 40v0l-40 40v0l-40 -40v0zM216 96l40 40l-40 -40l40 40l40 -40v0l-40 -40v0l-40 40v0z" />
    <glyph glyph-name="yin-yang" unicode="&#x262f;" 
d="M256 384q41 -1 68 -28v0v0q27 -27 28 -68q-1 -41 -28 -68t-68 -28t-68 -28t-28 -68q1 -41 28 -68t68 -28q-82 2 -136 56t-56 136q2 82 56 136t136 56v0zM256 -64q70 1 128 34v0v0q58 34 94 94q34 61 34 128t-34 128q-36 60 -94 94q-58 33 -128 34q-70 -1 -128 -34
q-58 -34 -94 -94q-34 -61 -34 -128t34 -128q36 -60 94 -94q58 -33 128 -34v0zM216 288l40 -40l-40 40l40 -40l40 40v0l-40 40v0l-40 -40v0zM216 96l40 40l-40 -40l40 40l40 -40v0l-40 -40v0l-40 40v0z" />
    <glyph glyph-name="dharmachakra" unicode="&#xf655;" 
d="M237 286l-5 64l5 -64l-5 64q-40 -6 -70 -29l42 -49v0q14 10 33 14v0zM288 448l-3 -34l3 34l-3 -34q61 -8 107 -44l22 26v0l46 -46v0l-26 -22v0q36 -46 44 -107l34 3v0v-64v0l-34 3v0q-8 -61 -44 -107l26 -22v0l-46 -46v0l-22 26v0q-46 -36 -107 -44l3 -34v0h-64v0l3 34v0
q-61 8 -107 44l-22 -26v0l-46 46v0l26 22v0q-36 46 -44 107l-34 -3v0v64v0l34 -3v0q8 61 44 107l-26 22v0l46 46v0l22 -26v0q46 36 107 44l-3 34v0h64v0zM276 286q18 -4 33 -14l42 49v0q-31 23 -70 29l-5 -64v0zM336 245q10 -15 14 -34l64 5v0q-6 40 -29 70l-49 -42v1z
M350 172q-4 -18 -14 -33l49 -42v0q23 31 29 70l-64 5v0zM309 112q-15 -10 -33 -14l4 -64v0q40 6 70 29l-41 49v0zM237 98q-19 4 -34 14l-41 -49v0q30 -23 70 -29l4 64h1zM176 139q-10 15 -14 33l-64 -4v0q6 -40 29 -70l49 41v0zM162 211q4 19 14 34l-49 41v0
q-23 -30 -29 -70l64 -4v-1zM256 160q14 0 23 9v0v0q9 9 9 23t-9 23t-23 9t-23 -9t-9 -23t9 -23t23 -9v0z" />
    <glyph glyph-name="dharmachakra" unicode="&#x2638;" 
d="M237 286l-5 64l5 -64l-5 64q-40 -6 -70 -29l42 -49v0q14 10 33 14v0zM288 448l-3 -34l3 34l-3 -34q61 -8 107 -44l22 26v0l46 -46v0l-26 -22v0q36 -46 44 -107l34 3v0v-64v0l-34 3v0q-8 -61 -44 -107l26 -22v0l-46 -46v0l-22 26v0q-46 -36 -107 -44l3 -34v0h-64v0l3 34v0
q-61 8 -107 44l-22 -26v0l-46 46v0l26 22v0q-36 46 -44 107l-34 -3v0v64v0l34 -3v0q8 61 44 107l-26 22v0l46 46v0l22 -26v0q46 36 107 44l-3 34v0h64v0zM276 286q18 -4 33 -14l42 49v0q-31 23 -70 29l-5 -64v0zM336 245q10 -15 14 -34l64 5v0q-6 40 -29 70l-49 -42v1z
M350 172q-4 -18 -14 -33l49 -42v0q23 31 29 70l-64 5v0zM309 112q-15 -10 -33 -14l4 -64v0q40 6 70 29l-41 49v0zM237 98q-19 4 -34 14l-41 -49v0q30 -23 70 -29l4 64h1zM176 139q-10 15 -14 33l-64 -4v0q6 -40 29 -70l49 41v0zM162 211q4 19 14 34l-49 41v0
q-23 -30 -29 -70l64 -4v-1zM256 160q14 0 23 9v0v0q9 9 9 23t-9 23t-23 9t-23 -9t-9 -23t9 -23t23 -9v0z" />
    <glyph glyph-name="face-frown" unicode="&#xf119;" 
d="M256 -64q70 1 128 34v0v0q58 34 94 94q34 61 34 128t-34 128q-36 60 -94 94q-58 33 -128 34q-70 -1 -128 -34q-58 -34 -94 -94q-34 -61 -34 -128t34 -128q36 -60 94 -94q58 -33 128 -34v0zM159 59l-4 -15l4 15l-4 -15l-31 9v0l5 16v0q13 40 47 65t80 26q46 -1 80 -26
t47 -65l5 -16v0l-30 -9v0l-5 15v0q-10 30 -36 49t-61 20q-35 -1 -61 -20t-36 -49v0zM144 240q1 14 10 23v0v0q9 9 22 9q14 0 23 -9t9 -23t-9 -23t-23 -9q-13 0 -22 9t-10 23v0zM336 272q14 0 23 -9v0v0q9 -9 9 -23t-9 -23t-23 -9q-13 0 -22 9t-10 23q1 14 10 23t22 9v0z" />
    <glyph glyph-name="face-frown" unicode="&#x2639;" 
d="M256 -64q70 1 128 34v0v0q58 34 94 94q34 61 34 128t-34 128q-36 60 -94 94q-58 33 -128 34q-70 -1 -128 -34q-58 -34 -94 -94q-34 -61 -34 -128t34 -128q36 -60 94 -94q58 -33 128 -34v0zM159 59l-4 -15l4 15l-4 -15l-31 9v0l5 16v0q13 40 47 65t80 26q46 -1 80 -26
t47 -65l5 -16v0l-30 -9v0l-5 15v0q-10 30 -36 49t-61 20q-35 -1 -61 -20t-36 -49v0zM144 240q1 14 10 23v0v0q9 9 22 9q14 0 23 -9t9 -23t-9 -23t-23 -9q-13 0 -22 9t-10 23v0zM336 272q14 0 23 -9v0v0q9 -9 9 -23t-9 -23t-23 -9q-13 0 -22 9t-10 23q1 14 10 23t22 9v0z" />
    <glyph glyph-name="mercury" unicode="&#xf223;" horiz-adv-x="384" 
d="M39 448q16 -48 55 -78q-36 -24 -57 -62t-21 -84q1 -68 44 -116q42 -48 108 -58v-26v0h-32h-24v-48v0h24h32v-16v0v-24v0h48v0v24v0v16v0h32h24v48v0h-24h-32v26v0q66 10 108 58q43 48 44 116q0 46 -21 84t-56 62q38 30 54 78h-70v0q-13 -22 -34 -35q-22 -13 -49 -13
t-49 13q-21 13 -34 35h-70v0zM304 224q0 -30 -15 -56v0v0q-15 -26 -41 -41t-56 -15t-56 15t-41 41t-15 56t15 56t41 41t56 15t56 -15t41 -41t15 -56v0z" />
    <glyph glyph-name="mercury" unicode="&#x263f;" horiz-adv-x="384" 
d="M39 448q16 -48 55 -78q-36 -24 -57 -62t-21 -84q1 -68 44 -116q42 -48 108 -58v-26v0h-32h-24v-48v0h24h32v-16v0v-24v0h48v0v24v0v16v0h32h24v48v0h-24h-32v26v0q66 10 108 58q43 48 44 116q0 46 -21 84t-56 62q38 30 54 78h-70v0q-13 -22 -34 -35q-22 -13 -49 -13
t-49 13q-21 13 -34 35h-70v0zM304 224q0 -30 -15 -56v0v0q-15 -26 -41 -41t-56 -15t-56 15t-41 41t-15 56t15 56t41 41t56 15t56 -15t41 -41t15 -56v0z" />
    <glyph glyph-name="venus" unicode="&#xf221;" horiz-adv-x="384" 
d="M80 272q0 30 15 56v0v0q15 26 41 41t56 15t56 -15t41 -41t15 -56t-15 -56t-41 -41t-56 -15t-56 15t-41 41t-15 56v0zM224 99q63 12 103 60v0v0q40 47 41 113q-2 75 -52 124q-49 50 -124 52q-75 -2 -124 -52q-50 -49 -52 -124q1 -66 41 -113q40 -48 103 -60v-35v0h-32h-32
v-64v0h32h32v-32v0v-32v0h64v0v32v0v32v0h32h32v64v0h-32h-32v35v0z" />
    <glyph glyph-name="venus" unicode="&#x2640;" horiz-adv-x="384" 
d="M80 272q0 30 15 56v0v0q15 26 41 41t56 15t56 -15t41 -41t15 -56t-15 -56t-41 -41t-56 -15t-56 15t-41 41t-15 56v0zM224 99q63 12 103 60v0v0q40 47 41 113q-2 75 -52 124q-49 50 -124 52q-75 -2 -124 -52q-50 -49 -52 -124q1 -66 41 -113q40 -48 103 -60v-35v0h-32h-32
v-64v0h32h32v-32v0v-32v0h64v0v32v0v32v0h32h32v64v0h-32h-32v35v0z" />
    <glyph glyph-name="mars" unicode="&#xf222;" horiz-adv-x="448" 
d="M448 416h-128h128h-128l-32 -32v0l41 -41v0l-53 -54v0q-44 30 -100 31q-75 -2 -124 -52q-50 -49 -52 -124q2 -75 52 -124q49 -50 124 -52q75 2 124 52q50 49 52 124q-1 56 -31 100l54 53v0l41 -41v0l32 32v0v128v0zM176 256q30 0 56 -15v0v0q26 -15 41 -41t15 -56
t-15 -56t-41 -41t-56 -15t-56 15t-41 41t-15 56t15 56t41 41t56 15v0z" />
    <glyph glyph-name="mars" unicode="&#x2642;" horiz-adv-x="448" 
d="M448 416h-128h128h-128l-32 -32v0l41 -41v0l-53 -54v0q-44 30 -100 31q-75 -2 -124 -52q-50 -49 -52 -124q2 -75 52 -124q49 -50 124 -52q75 2 124 52q50 49 52 124q-1 56 -31 100l54 53v0l41 -41v0l32 32v0v128v0zM176 256q30 0 56 -15v0v0q26 -15 41 -41t15 -56
t-15 -56t-41 -41t-56 -15t-56 15t-41 41t-15 56t15 56t41 41t56 15v0z" />
    <glyph glyph-name="chess-king" unicode="&#xf43f;" horiz-adv-x="448" 
d="M256 448v-32v32v-32v-16v0h16h32v-64v0h-32h-16v-48v0h192v0v-48v0l-80 -192v0h-288v0l-80 192v0v48v0h192v0v48v0h-16h-32v64v0h32h16v16v0v32v0h64v0zM32 -64v32v-32v32l48 48v0h288v0l48 -48v0v-32v0h-384v0z" />
    <glyph glyph-name="chess-king" unicode="&#x265a;" horiz-adv-x="448" 
d="M256 448v-32v32v-32v-16v0h16h32v-64v0h-32h-16v-48v0h192v0v-48v0l-80 -192v0h-288v0l-80 192v0v48v0h192v0v48v0h-16h-32v64v0h32h16v16v0v32v0h64v0zM32 -64v32v-32v32l48 48v0h288v0l48 -48v0v-32v0h-384v0z" />
    <glyph glyph-name="chess-queen" unicode="&#xf445;" 
d="M200 392q1 32 28 48q28 16 56 0q27 -16 28 -48q-1 -32 -28 -48q-28 -16 -56 0q-27 16 -28 48v0zM64 -32l48 48l-48 -48l48 48h288v0l48 -48v0v-32v0h-384v0v32v0zM424 256q32 1 51 25l37 -25v0l-112 -208v0h-288v0l-112 208v0l37 25v0q19 -24 51 -25q27 1 45 19t19 45h42
v0q11 -38 51 -47q5 -1 11 -1t11 1q40 9 51 47h42v0q1 -27 19 -45t45 -19v0z" />
    <glyph glyph-name="chess-queen" unicode="&#x265b;" 
d="M200 392q1 32 28 48q28 16 56 0q27 -16 28 -48q-1 -32 -28 -48q-28 -16 -56 0q-27 16 -28 48v0zM64 -32l48 48l-48 -48l48 48h288v0l48 -48v0v-32v0h-384v0v32v0zM424 256q32 1 51 25l37 -25v0l-112 -208v0h-288v0l-112 208v0l37 25v0q19 -24 51 -25q27 1 45 19t19 45h42
v0q11 -38 51 -47q5 -1 11 -1t11 1q40 9 51 47h42v0q1 -27 19 -45t45 -19v0z" />
    <glyph glyph-name="chess-rook" unicode="&#xf447;" horiz-adv-x="448" 
d="M32 240v176v-176v176h96v0v-64v0h48v0v64v0h96v0v-64v0h48v0v64v0h96v0v-176v0l-64 -48v0l16 -144v0h-288v0l16 144v0l-64 48v0zM192 224v-64v64v-64h64v0v64v0q0 14 -9 23t-23 9t-23 -9t-9 -23v0zM16 -64v32v-32v32l48 48v0h320v0l48 -48v0v-32v0h-416v0z" />
    <glyph glyph-name="chess-rook" unicode="&#x265c;" horiz-adv-x="448" 
d="M32 240v176v-176v176h96v0v-64v0h48v0v64v0h96v0v-64v0h48v0v64v0h96v0v-176v0l-64 -48v0l16 -144v0h-288v0l16 144v0l-64 48v0zM192 224v-64v64v-64h64v0v64v0q0 14 -9 23t-23 9t-23 -9t-9 -23v0zM16 -64v32v-32v32l48 48v0h320v0l48 -48v0v-32v0h-416v0z" />
    <glyph glyph-name="chess-bishop" unicode="&#xf43a;" horiz-adv-x="320" 
d="M128 448h-32h32h-32v-64v0h27v0q-37 -33 -74 -92q-38 -58 -41 -132q1 -35 19 -55q17 -21 37 -30v-27v0h192v0v27v0q20 9 37 30q18 20 19 55q-1 56 -25 104l-100 -99v0l-11 -12v0l-23 23v0l12 11v0l106 106v0q-38 58 -74 91h27v0v64v0h-32h-64zM0 -64h320h-320h320v32v0
l-48 48v0h-224v0l-48 -48v0v-32v0z" />
    <glyph glyph-name="chess-bishop" unicode="&#x265d;" horiz-adv-x="320" 
d="M128 448h-32h32h-32v-64v0h27v0q-37 -33 -74 -92q-38 -58 -41 -132q1 -35 19 -55q17 -21 37 -30v-27v0h192v0v27v0q20 9 37 30q18 20 19 55q-1 56 -25 104l-100 -99v0l-11 -12v0l-23 23v0l12 11v0l106 106v0q-38 58 -74 91h27v0v64v0h-32h-64zM0 -64h320h-320h320v32v0
l-48 48v0h-224v0l-48 -48v0v-32v0z" />
    <glyph glyph-name="chess-knight" unicode="&#xf441;" horiz-adv-x="448" 
d="M96 400l-32 -32l32 32l-32 -32v-160v0l48 -40v0l112 72v0v-40v0l-160 -104v0v-48v0h320v0l29 158v0q3 18 3 37q-2 87 -60 145t-145 60h-147v0v-32v0l32 -16v0zM120 332q2 18 20 20q18 -2 20 -20q-2 -18 -20 -20q-18 2 -20 20v0zM16 -64h416h-416h416v32v0l-48 48v0h-320
v0l-48 -48v0v-32v0z" />
    <glyph glyph-name="chess-knight" unicode="&#x265e;" horiz-adv-x="448" 
d="M96 400l-32 -32l32 32l-32 -32v-160v0l48 -40v0l112 72v0v-40v0l-160 -104v0v-48v0h320v0l29 158v0q3 18 3 37q-2 87 -60 145t-145 60h-147v0v-32v0l32 -16v0zM120 332q2 18 20 20q18 -2 20 -20q-2 -18 -20 -20q-18 2 -20 20v0zM16 -64h416h-416h416v32v0l-48 48v0h-320
v0l-48 -48v0v-32v0z" />
    <glyph glyph-name="chess-pawn" unicode="&#xf443;" horiz-adv-x="320" 
d="M216 224q22 14 35 37v0v0q13 23 13 51q-1 44 -30 74q-30 29 -74 30q-44 -1 -74 -30q-29 -30 -30 -74q0 -28 13 -51t36 -37h-9h-32v-64v0h28v0l-12 -112v0h160v0l-12 112v0h28v0v64v0h-32h-8zM16 -64h288h-288h288v32v0l-48 48v0h-192v0l-48 -48v0v-32v0z" />
    <glyph glyph-name="chess-pawn" unicode="&#x265f;" horiz-adv-x="320" 
d="M216 224q22 14 35 37v0v0q13 23 13 51q-1 44 -30 74q-30 29 -74 30q-44 -1 -74 -30q-29 -30 -30 -74q0 -28 13 -51t36 -37h-9h-32v-64v0h28v0l-12 -112v0h160v0l-12 112v0h28v0v64v0h-32h-8zM16 -64h288h-288h288v32v0l-48 48v0h-192v0l-48 -48v0v-32v0z" />
    <glyph glyph-name="spade" unicode="&#xf2f4;" 
d="M33 225l63 63l-63 -63l63 63l160 160v0l160 -160v0l63 -63v0q32 -33 33 -80q-1 -48 -33 -80t-80 -33q-47 1 -80 33l-31 31v0v-96v0h32h32v-64v0h-32h-160v64v0h32h32v96v0l-31 -31v0q-33 -32 -80 -33q-48 1 -80 33t-33 80q1 47 33 80v0z" />
    <glyph glyph-name="spade" unicode="&#x2660;" 
d="M33 225l63 63l-63 -63l63 63l160 160v0l160 -160v0l63 -63v0q32 -33 33 -80q-1 -48 -33 -80t-80 -33q-47 1 -80 33l-31 31v0v-96v0h32h32v-64v0h-32h-160v64v0h32h32v96v0l-31 -31v0q-33 -32 -80 -33q-48 1 -80 33t-33 80q1 47 33 80v0z" />
    <glyph glyph-name="club" unicode="&#xf327;" 
d="M380 288q4 15 4 32q-1 54 -37 91q-37 36 -91 37q-54 -1 -91 -37q-36 -37 -37 -91q0 -17 4 -32h-4q-54 -1 -91 -37q-36 -37 -37 -91q1 -54 37 -91q37 -36 91 -37q59 2 96 43v-75v0h-32h-32v-64v0h32h160v64v0h-32h-32v75v0q37 -41 96 -43q54 1 91 37q36 37 37 91
q-1 54 -37 91q-37 36 -91 37h-4v0z" />
    <glyph glyph-name="club" unicode="&#x2663;" 
d="M380 288q4 15 4 32q-1 54 -37 91q-37 36 -91 37q-54 -1 -91 -37q-36 -37 -37 -91q0 -17 4 -32h-4q-54 -1 -91 -37q-36 -37 -37 -91q1 -54 37 -91q37 -36 91 -37q59 2 96 43v-75v0h-32h-32v-64v0h32h160v64v0h-32h-32v75v0q37 -41 96 -43q54 1 91 37q36 37 37 91
q-1 54 -37 91q-37 36 -91 37h-4v0z" />
    <glyph glyph-name="heart" unicode="&#x1f9e1;" 
d="M40 184l24 -24l-24 24l24 -24l192 -192v0l192 192v0l24 24v0q39 40 40 96q-1 58 -40 96q-38 39 -96 40q-56 -1 -96 -40l-24 -24v0l-24 24v0q-40 39 -96 40q-58 -1 -96 -40q-39 -38 -40 -96q1 -56 40 -96v0z" />
    <glyph glyph-name="heart" unicode="&#x1f90e;" 
d="M40 184l24 -24l-24 24l24 -24l192 -192v0l192 192v0l24 24v0q39 40 40 96q-1 58 -40 96q-38 39 -96 40q-56 -1 -96 -40l-24 -24v0l-24 24v0q-40 39 -96 40q-58 -1 -96 -40q-39 -38 -40 -96q1 -56 40 -96v0z" />
    <glyph glyph-name="heart" unicode="&#x1f90d;" 
d="M40 184l24 -24l-24 24l24 -24l192 -192v0l192 192v0l24 24v0q39 40 40 96q-1 58 -40 96q-38 39 -96 40q-56 -1 -96 -40l-24 -24v0l-24 24v0q-40 39 -96 40q-58 -1 -96 -40q-39 -38 -40 -96q1 -56 40 -96v0z" />
    <glyph glyph-name="heart" unicode="&#x1f5a4;" 
d="M40 184l24 -24l-24 24l24 -24l192 -192v0l192 192v0l24 24v0q39 40 40 96q-1 58 -40 96q-38 39 -96 40q-56 -1 -96 -40l-24 -24v0l-24 24v0q-40 39 -96 40q-58 -1 -96 -40q-39 -38 -40 -96q1 -56 40 -96v0z" />
    <glyph glyph-name="heart" unicode="&#x1f49c;" 
d="M40 184l24 -24l-24 24l24 -24l192 -192v0l192 192v0l24 24v0q39 40 40 96q-1 58 -40 96q-38 39 -96 40q-56 -1 -96 -40l-24 -24v0l-24 24v0q-40 39 -96 40q-58 -1 -96 -40q-39 -38 -40 -96q1 -56 40 -96v0z" />
    <glyph glyph-name="heart" unicode="&#x1f49b;" 
d="M40 184l24 -24l-24 24l24 -24l192 -192v0l192 192v0l24 24v0q39 40 40 96q-1 58 -40 96q-38 39 -96 40q-56 -1 -96 -40l-24 -24v0l-24 24v0q-40 39 -96 40q-58 -1 -96 -40q-39 -38 -40 -96q1 -56 40 -96v0z" />
    <glyph glyph-name="heart" unicode="&#x1f49a;" 
d="M40 184l24 -24l-24 24l24 -24l192 -192v0l192 192v0l24 24v0q39 40 40 96q-1 58 -40 96q-38 39 -96 40q-56 -1 -96 -40l-24 -24v0l-24 24v0q-40 39 -96 40q-58 -1 -96 -40q-39 -38 -40 -96q1 -56 40 -96v0z" />
    <glyph glyph-name="heart" unicode="&#x1f499;" 
d="M40 184l24 -24l-24 24l24 -24l192 -192v0l192 192v0l24 24v0q39 40 40 96q-1 58 -40 96q-38 39 -96 40q-56 -1 -96 -40l-24 -24v0l-24 24v0q-40 39 -96 40q-58 -1 -96 -40q-39 -38 -40 -96q1 -56 40 -96v0z" />
    <glyph glyph-name="heart" unicode="&#xf08a;" 
d="M40 184l24 -24l-24 24l24 -24l192 -192v0l192 192v0l24 24v0q39 40 40 96q-1 58 -40 96q-38 39 -96 40q-56 -1 -96 -40l-24 -24v0l-24 24v0q-40 39 -96 40q-58 -1 -96 -40q-39 -38 -40 -96q1 -56 40 -96v0z" />
    <glyph glyph-name="heart" unicode="&#xf004;" 
d="M40 184l24 -24l-24 24l24 -24l192 -192v0l192 192v0l24 24v0q39 40 40 96q-1 58 -40 96q-38 39 -96 40q-56 -1 -96 -40l-24 -24v0l-24 24v0q-40 39 -96 40q-58 -1 -96 -40q-39 -38 -40 -96q1 -56 40 -96v0z" />
    <glyph glyph-name="heart" unicode="&#x2764;" 
d="M40 184l24 -24l-24 24l24 -24l192 -192v0l192 192v0l24 24v0q39 40 40 96q-1 58 -40 96q-38 39 -96 40q-56 -1 -96 -40l-24 -24v0l-24 24v0q-40 39 -96 40q-58 -1 -96 -40q-39 -38 -40 -96q1 -56 40 -96v0z" />
    <glyph glyph-name="heart" unicode="&#x2665;" 
d="M40 184l24 -24l-24 24l24 -24l192 -192v0l192 192v0l24 24v0q39 40 40 96q-1 58 -40 96q-38 39 -96 40q-56 -1 -96 -40l-24 -24v0l-24 24v0q-40 39 -96 40q-58 -1 -96 -40q-39 -38 -40 -96q1 -56 40 -96v0z" />
    <glyph glyph-name="diamond" unicode="&#xf219;" 
d="M0 192l256 256l-256 -256l256 256l256 -256v0l-256 -256v0l-256 256v0z" />
    <glyph glyph-name="diamond" unicode="&#x2666;" 
d="M0 192l256 256l-256 -256l256 256l256 -256v0l-256 -256v0l-256 256v0z" />
    <glyph glyph-name="recycle" unicode="&#xf1b8;" 
d="M309 448l10 -15l-10 15l10 -15l63 -102v0l51 29v0l12 -21v0l-32 -120v0l-121 32v0l-12 21v0l47 27v0l-53 85v0h-36v0l-33 -54v0l-56 32v0l44 71v0l10 15v0h17h89zM408 168l56 32l-56 -32l56 32l43 -69v0l10 -16v0l-9 -17v0l-32 -55v0l-16 -27v0l-9 -16v0h-18h-113v-56v0
h-24v0l-88 88v0l88 88v0h24v0v-56v0h94v0l6 11v0l23 39v0l-35 54v0zM65 227l-49 28l49 -28l-49 28l12 21v0l120 32v0l32 -120v0l-12 -21v0l-48 28v0l-51 -81v0l29 -50v0h62v0v-64v0h-80h-19l-9 16v0l-48 82v0l-9 17v0l10 16v0l60 96v0z" />
    <glyph glyph-name="recycle" unicode="&#x267b;" 
d="M309 448l10 -15l-10 15l10 -15l63 -102v0l51 29v0l12 -21v0l-32 -120v0l-121 32v0l-12 21v0l47 27v0l-53 85v0h-36v0l-33 -54v0l-56 32v0l44 71v0l10 15v0h17h89zM408 168l56 32l-56 -32l56 32l43 -69v0l10 -16v0l-9 -17v0l-32 -55v0l-16 -27v0l-9 -16v0h-18h-113v-56v0
h-24v0l-88 88v0l88 88v0h24v0v-56v0h94v0l6 11v0l23 39v0l-35 54v0zM65 227l-49 28l49 -28l-49 28l12 21v0l120 32v0l32 -120v0l-12 -21v0l-48 28v0l-51 -81v0l29 -50v0h62v0v-64v0h-80h-19l-9 16v0l-48 82v0l-9 17v0l10 16v0l60 96v0z" />
    <glyph glyph-name="recycle" unicode="&#x267a;" 
d="M309 448l10 -15l-10 15l10 -15l63 -102v0l51 29v0l12 -21v0l-32 -120v0l-121 32v0l-12 21v0l47 27v0l-53 85v0h-36v0l-33 -54v0l-56 32v0l44 71v0l10 15v0h17h89zM408 168l56 32l-56 -32l56 32l43 -69v0l10 -16v0l-9 -17v0l-32 -55v0l-16 -27v0l-9 -16v0h-18h-113v-56v0
h-24v0l-88 88v0l88 88v0h24v0v-56v0h94v0l6 11v0l23 39v0l-35 54v0zM65 227l-49 28l49 -28l-49 28l12 21v0l120 32v0l32 -120v0l-12 -21v0l-48 28v0l-51 -81v0l29 -50v0h62v0v-64v0h-80h-19l-9 16v0l-48 82v0l-9 17v0l10 16v0l60 96v0z" />
    <glyph glyph-name="recycle" unicode="&#x2672;" 
d="M309 448l10 -15l-10 15l10 -15l63 -102v0l51 29v0l12 -21v0l-32 -120v0l-121 32v0l-12 21v0l47 27v0l-53 85v0h-36v0l-33 -54v0l-56 32v0l44 71v0l10 15v0h17h89zM408 168l56 32l-56 -32l56 32l43 -69v0l10 -16v0l-9 -17v0l-32 -55v0l-16 -27v0l-9 -16v0h-18h-113v-56v0
h-24v0l-88 88v0l88 88v0h24v0v-56v0h94v0l6 11v0l23 39v0l-35 54v0zM65 227l-49 28l49 -28l-49 28l12 21v0l120 32v0l32 -120v0l-12 -21v0l-48 28v0l-51 -81v0l29 -50v0h62v0v-64v0h-80h-19l-9 16v0l-48 82v0l-9 17v0l10 16v0l60 96v0z" />
    <glyph glyph-name="dice-one" unicode="&#xf525;" horiz-adv-x="448" 
d="M448 416h-448h448h-448v-448v0h448v0v448v0zM224 224q14 0 23 -9v0v0q9 -9 9 -23t-9 -23t-23 -9t-23 9t-9 23t9 23t23 9v0z" />
    <glyph glyph-name="dice-one" unicode="&#x2680;" horiz-adv-x="448" 
d="M448 416h-448h448h-448v-448v0h448v0v448v0zM224 224q14 0 23 -9v0v0q9 -9 9 -23t-9 -23t-23 -9t-23 9t-9 23t9 23t23 9v0z" />
    <glyph glyph-name="dice-two" unicode="&#xf528;" horiz-adv-x="448" 
d="M0 416h448h-448h448v-448v0h-448v0v448v0zM352 96q0 14 -9 23v0v0q-9 9 -23 9t-23 -9t-9 -23t9 -23t23 -9t23 9t9 23v0zM128 256q14 0 23 9v0v0q9 9 9 23t-9 23t-23 9t-23 -9t-9 -23t9 -23t23 -9v0z" />
    <glyph glyph-name="dice-two" unicode="&#x2681;" horiz-adv-x="448" 
d="M0 416h448h-448h448v-448v0h-448v0v448v0zM352 96q0 14 -9 23v0v0q-9 9 -23 9t-23 -9t-9 -23t9 -23t23 -9t23 9t9 23v0zM128 256q14 0 23 9v0v0q9 9 9 23t-9 23t-23 9t-23 -9t-9 -23t9 -23t23 -9v0z" />
    <glyph glyph-name="dice-three" unicode="&#xf527;" horiz-adv-x="448" 
d="M448 416h-448h448h-448v-448v0h448v0v448v0zM128 320q14 0 23 -9v0v0q9 -9 9 -23t-9 -23t-23 -9t-23 9t-9 23t9 23t23 9v0zM192 192q0 14 9 23v0v0q9 9 23 9t23 -9t9 -23t-9 -23t-23 -9t-23 9t-9 23v0zM320 128q14 0 23 -9v0v0q9 -9 9 -23t-9 -23t-23 -9t-23 9t-9 23
t9 23t23 9v0z" />
    <glyph glyph-name="dice-three" unicode="&#x2682;" horiz-adv-x="448" 
d="M448 416h-448h448h-448v-448v0h448v0v448v0zM128 320q14 0 23 -9v0v0q9 -9 9 -23t-9 -23t-23 -9t-23 9t-9 23t9 23t23 9v0zM192 192q0 14 9 23v0v0q9 9 23 9t23 -9t9 -23t-9 -23t-23 -9t-23 9t-9 23v0zM320 128q14 0 23 -9v0v0q9 -9 9 -23t-9 -23t-23 -9t-23 9t-9 23
t9 23t23 9v0z" />
    <glyph glyph-name="dice-four" unicode="&#xf524;" horiz-adv-x="448" 
d="M0 416h448h-448h448v-448v0h-448v0v448v0zM160 288q0 14 -9 23v0v0q-9 9 -23 9t-23 -9t-9 -23t9 -23t23 -9t23 9t9 23v0zM128 64q14 0 23 9v0v0q9 9 9 23t-9 23t-23 9t-23 -9t-9 -23t9 -23t23 -9v0zM352 288q0 14 -9 23v0v0q-9 9 -23 9t-23 -9t-9 -23t9 -23t23 -9t23 9
t9 23v0zM320 64q14 0 23 9v0v0q9 9 9 23t-9 23t-23 9t-23 -9t-9 -23t9 -23t23 -9v0z" />
    <glyph glyph-name="dice-four" unicode="&#x2683;" horiz-adv-x="448" 
d="M0 416h448h-448h448v-448v0h-448v0v448v0zM160 288q0 14 -9 23v0v0q-9 9 -23 9t-23 -9t-9 -23t9 -23t23 -9t23 9t9 23v0zM128 64q14 0 23 9v0v0q9 9 9 23t-9 23t-23 9t-23 -9t-9 -23t9 -23t23 -9v0zM352 288q0 14 -9 23v0v0q-9 9 -23 9t-23 -9t-9 -23t9 -23t23 -9t23 9
t9 23v0zM320 64q14 0 23 9v0v0q9 9 9 23t-9 23t-23 9t-23 -9t-9 -23t9 -23t23 -9v0z" />
    <glyph glyph-name="dice-five" unicode="&#xf523;" horiz-adv-x="448" 
d="M448 416h-448h448h-448v-448v0h448v0v448v0zM128 320q14 0 23 -9v0v0q9 -9 9 -23t-9 -23t-23 -9t-23 9t-9 23t9 23t23 9v0zM96 96q0 14 9 23v0v0q9 9 23 9t23 -9t9 -23t-9 -23t-23 -9t-23 9t-9 23v0zM224 224q14 0 23 -9v0v0q9 -9 9 -23t-9 -23t-23 -9t-23 9t-9 23t9 23
t23 9v0zM288 288q0 14 9 23v0v0q9 9 23 9t23 -9t9 -23t-9 -23t-23 -9t-23 9t-9 23v0zM320 128q14 0 23 -9v0v0q9 -9 9 -23t-9 -23t-23 -9t-23 9t-9 23t9 23t23 9v0z" />
    <glyph glyph-name="dice-five" unicode="&#x2684;" horiz-adv-x="448" 
d="M448 416h-448h448h-448v-448v0h448v0v448v0zM128 320q14 0 23 -9v0v0q9 -9 9 -23t-9 -23t-23 -9t-23 9t-9 23t9 23t23 9v0zM96 96q0 14 9 23v0v0q9 9 23 9t23 -9t9 -23t-9 -23t-23 -9t-23 9t-9 23v0zM224 224q14 0 23 -9v0v0q9 -9 9 -23t-9 -23t-23 -9t-23 9t-9 23t9 23
t23 9v0zM288 288q0 14 9 23v0v0q9 9 23 9t23 -9t9 -23t-9 -23t-23 -9t-23 9t-9 23v0zM320 128q14 0 23 -9v0v0q9 -9 9 -23t-9 -23t-23 -9t-23 9t-9 23t9 23t23 9v0z" />
    <glyph glyph-name="dice-six" unicode="&#xf526;" horiz-adv-x="448" 
d="M0 416h448h-448h448v-448v0h-448v0v448v0zM160 288q0 14 -9 23v0v0q-9 9 -23 9t-23 -9t-9 -23t9 -23t23 -9t23 9t9 23v0zM128 160q14 0 23 9v0v0q9 9 9 23t-9 23t-23 9t-23 -9t-9 -23t9 -23t23 -9v0zM160 96q0 14 -9 23v0v0q-9 9 -23 9t-23 -9t-9 -23t9 -23t23 -9t23 9
t9 23v0zM320 256q14 0 23 9v0v0q9 9 9 23t-9 23t-23 9t-23 -9t-9 -23t9 -23t23 -9v0zM352 192q0 14 -9 23v0v0q-9 9 -23 9t-23 -9t-9 -23t9 -23t23 -9t23 9t9 23v0zM320 64q14 0 23 9v0v0q9 9 9 23t-9 23t-23 9t-23 -9t-9 -23t9 -23t23 -9v0z" />
    <glyph glyph-name="dice-six" unicode="&#x2685;" horiz-adv-x="448" 
d="M0 416h448h-448h448v-448v0h-448v0v448v0zM160 288q0 14 -9 23v0v0q-9 9 -23 9t-23 -9t-9 -23t9 -23t23 -9t23 9t9 23v0zM128 160q14 0 23 9v0v0q9 9 9 23t-9 23t-23 9t-23 -9t-9 -23t9 -23t23 -9v0zM160 96q0 14 -9 23v0v0q-9 9 -23 9t-23 -9t-9 -23t9 -23t23 -9t23 9
t9 23v0zM320 256q14 0 23 9v0v0q9 9 9 23t-9 23t-23 9t-23 -9t-9 -23t9 -23t23 -9v0zM352 192q0 14 -9 23v0v0q-9 9 -23 9t-23 -9t-9 -23t9 -23t23 -9t23 9t9 23v0zM320 64q14 0 23 9v0v0q9 9 9 23t-9 23t-23 9t-23 -9t-9 -23t9 -23t23 -9v0z" />
    <glyph glyph-name="anchor" unicode="&#xf13d;" horiz-adv-x="576" 
d="M320 352q0 -14 -9 -23v0v0q-9 -9 -23 -9t-23 9t-9 23t9 23t23 9t23 -9t9 -23v0zM341 272q41 28 43 80q-1 41 -28 68t-68 28q-41 -1 -68 -28t-28 -68q2 -52 43 -80h-11h-32v-64v0h32h32v-208v0h-128v0v96v0h64v0l-96 96v0l-96 -96v0h64v0v-128v0v-32v0h32h416v32v0v128v0
h64v0l-96 96v0l-96 -96v0h64v0v-96v0h-128v0v208v0h32h32v64v0h-32h-11z" />
    <glyph glyph-name="anchor" unicode="&#x2693;" horiz-adv-x="576" 
d="M320 352q0 -14 -9 -23v0v0q-9 -9 -23 -9t-23 9t-9 23t9 23t23 9t23 -9t9 -23v0zM341 272q41 28 43 80q-1 41 -28 68t-68 28q-41 -1 -68 -28t-28 -68q2 -52 43 -80h-11h-32v-64v0h32h32v-208v0h-128v0v96v0h64v0l-96 96v0l-96 -96v0h64v0v-128v0v-32v0h32h416v32v0v128v0
h64v0l-96 96v0l-96 -96v0h64v0v-96v0h-128v0v208v0h32h32v64v0h-32h-11z" />
    <glyph glyph-name="swords" unicode="&#xf71d;" 
d="M16 352l-16 96l16 -96l-16 96l96 -16v0l297 -297v0l-80 -80v0l-297 297v0zM408 -8l-72 -24l72 24l-72 -24l-32 32v0l144 144v0l32 -32v0l-24 -72v0l56 -56v0l-48 -48v0l-56 56v0zM96 112l57 57l-57 -57l57 57l80 -80v0l-57 -57v0l32 -32v0l-32 -32v0l-72 24v0l-56 -56v0
l-48 48v0l56 56v0l-24 72v0l32 32v0l32 -32v0zM496 352l-137 -137l137 137l-137 -137l-80 80v0l137 137v0l96 16v0l-16 -96v0z" />
    <glyph glyph-name="swords" unicode="&#x2694;" 
d="M16 352l-16 96l16 -96l-16 96l96 -16v0l297 -297v0l-80 -80v0l-297 297v0zM408 -8l-72 -24l72 24l-72 -24l-32 32v0l144 144v0l32 -32v0l-24 -72v0l56 -56v0l-48 -48v0l-56 56v0zM96 112l57 57l-57 -57l57 57l80 -80v0l-57 -57v0l32 -32v0l-32 -32v0l-72 24v0l-56 -56v0
l-48 48v0l56 56v0l-24 72v0l32 32v0l32 -32v0zM496 352l-137 -137l137 137l-137 -137l-80 80v0l137 137v0l96 16v0l-16 -96v0z" />
    <glyph glyph-name="scale-balanced" unicode="&#xf24e;" horiz-adv-x="640" 
d="M384 416h128h-128h160v-64v0h-32h-114q-9 -40 -46 -57v-295v0h160h32v-64v0h-32h-416v64v0h32h160v295v0q-37 17 -46 57h-114h-32v64v0h32h128q23 31 64 32q41 -1 64 -32v0zM112 320h32h-32h47l6 -13v0l88 -168v0l3 -5v0v-6v0v-32v0v-10v0l-7 -7v0l-40 -40v0l-7 -7v0h-10
h-138l-7 7v0l-40 40v0l-7 7v0v10v0v32v0v6v0l3 5v0l88 168v0l7 13v0h14v0zM51 128h154h-154h154l-75 144v0h-3v0l-76 -144v0zM482 320h14h-14h61l6 -13v0l88 -168v0l3 -5v0v-6v0v-32v0v-10v0l-7 -7v0l-40 -40v0l-7 -7v0h-10h-138l-7 7v0l-40 40v0l-7 7v0v10v0v32v0v6v0l3 5
v0l88 168v0l7 13v0zM511 272l-76 -144l76 144l-76 -144h154v0l-75 144v0h-3v0z" />
    <glyph glyph-name="scale-balanced" unicode="&#x2696;" horiz-adv-x="640" 
d="M384 416h128h-128h160v-64v0h-32h-114q-9 -40 -46 -57v-295v0h160h32v-64v0h-32h-416v64v0h32h160v295v0q-37 17 -46 57h-114h-32v64v0h32h128q23 31 64 32q41 -1 64 -32v0zM112 320h32h-32h47l6 -13v0l88 -168v0l3 -5v0v-6v0v-32v0v-10v0l-7 -7v0l-40 -40v0l-7 -7v0h-10
h-138l-7 7v0l-40 40v0l-7 7v0v10v0v32v0v6v0l3 5v0l88 168v0l7 13v0h14v0zM51 128h154h-154h154l-75 144v0h-3v0l-76 -144v0zM482 320h14h-14h61l6 -13v0l88 -168v0l3 -5v0v-6v0v-32v0v-10v0l-7 -7v0l-40 -40v0l-7 -7v0h-10h-138l-7 7v0l-40 40v0l-7 7v0v10v0v32v0v6v0l3 5
v0l88 168v0l7 13v0zM511 272l-76 -144l76 144l-76 -144h154v0l-75 144v0h-3v0z" />
    <glyph glyph-name="flower-daffodil" unicode="&#xf800;" 
d="M288 167q15 -7 32 -7q34 1 57 23q22 23 23 57q-1 41 -32 64q31 23 32 64q-1 34 -23 57q-23 22 -57 23q-41 -1 -64 -32q-23 31 -64 32q-34 -1 -57 -23q-22 -23 -23 -57q1 -41 32 -64q-31 -23 -32 -64q1 -34 23 -57q23 -22 57 -23q17 0 32 7v-114v0q-24 35 -62 55
q-37 20 -82 20h-80v0v-16v0q2 -75 52 -124q49 -50 124 -52h48h112q75 2 124 52q50 49 52 124v16v0h-80v0q-45 0 -82 -20q-38 -20 -62 -55v114v0zM200 304l56 56l-56 -56l56 56l56 -56v0l-56 -56v0l-56 56v0z" />
    <glyph glyph-name="flower-daffodil" unicode="&#x2698;" 
d="M288 167q15 -7 32 -7q34 1 57 23q22 23 23 57q-1 41 -32 64q31 23 32 64q-1 34 -23 57q-23 22 -57 23q-41 -1 -64 -32q-23 31 -64 32q-34 -1 -57 -23q-22 -23 -23 -57q1 -41 32 -64q-31 -23 -32 -64q1 -34 23 -57q23 -22 57 -23q17 0 32 7v-114v0q-24 35 -62 55
q-37 20 -82 20h-80v0v-16v0q2 -75 52 -124q49 -50 124 -52h48h112q75 2 124 52q50 49 52 124v16v0h-80v0q-45 0 -82 -20q-38 -20 -62 -55v114v0zM200 304l56 56l-56 -56l56 56l56 -56v0l-56 -56v0l-56 56v0z" />
    <glyph glyph-name="gear" unicode="&#xf013;" 
d="M200 448h112h-112h112l17 -78v0q24 -10 44 -26l77 25v0l56 -97v0l-60 -55v0q2 -12 2 -25t-2 -25l60 -54v0l-56 -97v0l-77 24v0q-20 -16 -44 -25l-17 -79v0h-112v0l-17 78v0q-24 10 -44 26l-77 -25v0l-56 97v0l60 55v0q-2 12 -2 25t2 25l-60 54v0l56 97v0l77 -24v0
q20 16 44 25l17 79v0zM256 112q45 1 69 40q22 40 0 80q-24 39 -69 40q-45 -1 -69 -40q-22 -40 0 -80q24 -39 69 -40v0z" />
    <glyph glyph-name="gear" unicode="&#x2699;" 
d="M200 448h112h-112h112l17 -78v0q24 -10 44 -26l77 25v0l56 -97v0l-60 -55v0q2 -12 2 -25t-2 -25l60 -54v0l-56 -97v0l-77 24v0q-20 -16 -44 -25l-17 -79v0h-112v0l-17 78v0q-24 10 -44 26l-77 -25v0l-56 97v0l60 55v0q-2 12 -2 25t2 25l-60 54v0l56 97v0l77 -24v0
q20 16 44 25l17 79v0zM256 112q45 1 69 40q22 40 0 80q-24 39 -69 40q-45 -1 -69 -40q-22 -40 0 -80q24 -39 69 -40v0z" />
    <glyph glyph-name="atom" unicode="&#xf5d2;" 
d="M256 120q14 7 29 16q18 11 34 22q1 17 1 34t-1 34q-16 11 -34 22q-15 9 -29 16q-14 -7 -29 -16q-18 -11 -34 -22q-1 -17 -1 -34t1 -34q16 -11 34 -22q15 -9 29 -16v0zM446 192q25 -34 32 -67v0v0q7 -33 -8 -61q-34 -53 -116 -43q-16 -40 -41 -62q-25 -23 -57 -23t-57 23
q-25 22 -41 62q-82 -10 -116 43q-15 28 -8 61t32 67q-25 34 -32 67t8 61q34 53 116 43q16 40 41 62q25 23 57 23t57 -23q25 -22 41 -62q82 10 116 -43q15 -28 8 -61t-32 -67v0zM380 125q-2 -22 -6 -42q23 0 31 5q8 4 9 7q2 3 2 14q-1 12 -14 34q-10 -9 -22 -18v0zM256 49
q-18 -8 -35 -13q13 -25 22 -31q10 -6 13 -5q3 -1 13 5q9 6 22 31q-17 6 -35 13v0zM374 300q4 -19 6 -41q12 -9 22 -18q13 22 14 34q0 11 -2 14q-1 3 -9 7q-8 5 -31 4v0zM291 348q-13 25 -22 31v0v0q-10 6 -13 5q-3 1 -13 -5q-9 -6 -22 -31q17 -6 35 -13q18 8 35 13v0z
M132 259q2 22 7 42q-24 0 -32 -5q-8 -4 -9 -7q-2 -3 -2 -14q1 -12 14 -34l22 18v0zM110 143q-13 -22 -14 -34v0v0q0 -11 2 -14q1 -3 9 -7q8 -5 32 -5q-5 20 -7 42q-12 9 -22 18v0zM256 152l-40 40l40 -40l-40 40l40 40v0l40 -40v0l-40 -40v0z" />
    <glyph glyph-name="atom" unicode="&#x269b;" 
d="M256 120q14 7 29 16q18 11 34 22q1 17 1 34t-1 34q-16 11 -34 22q-15 9 -29 16q-14 -7 -29 -16q-18 -11 -34 -22q-1 -17 -1 -34t1 -34q16 -11 34 -22q15 -9 29 -16v0zM446 192q25 -34 32 -67v0v0q7 -33 -8 -61q-34 -53 -116 -43q-16 -40 -41 -62q-25 -23 -57 -23t-57 23
q-25 22 -41 62q-82 -10 -116 43q-15 28 -8 61t32 67q-25 34 -32 67t8 61q34 53 116 43q16 40 41 62q25 23 57 23t57 -23q25 -22 41 -62q82 10 116 -43q15 -28 8 -61t-32 -67v0zM380 125q-2 -22 -6 -42q23 0 31 5q8 4 9 7q2 3 2 14q-1 12 -14 34q-10 -9 -22 -18v0zM256 49
q-18 -8 -35 -13q13 -25 22 -31q10 -6 13 -5q3 -1 13 5q9 6 22 31q-17 6 -35 13v0zM374 300q4 -19 6 -41q12 -9 22 -18q13 22 14 34q0 11 -2 14q-1 3 -9 7q-8 5 -31 4v0zM291 348q-13 25 -22 31v0v0q-10 6 -13 5q-3 1 -13 -5q-9 -6 -22 -31q17 -6 35 -13q18 8 35 13v0z
M132 259q2 22 7 42q-24 0 -32 -5q-8 -4 -9 -7q-2 -3 -2 -14q1 -12 14 -34l22 18v0zM110 143q-13 -22 -14 -34v0v0q0 -11 2 -14q1 -3 9 -7q8 -5 32 -5q-5 20 -7 42q-12 9 -22 18v0zM256 152l-40 40l40 -40l-40 40l40 40v0l40 -40v0l-40 -40v0z" />
    <glyph glyph-name="triangle-exclamation" unicode="&#xf071;" 
d="M256 416l-256 -448l256 448l-256 -448h512v0l-256 448v0zM280 256v-24v24v-24v-112v0v-24v0h-48v0v24v0v112v0v24v0h48v0zM232 64h48h-48h48v-48v0h-48v0v48v0z" />
    <glyph glyph-name="triangle-exclamation" unicode="&#x26a0;" 
d="M256 416l-256 -448l256 448l-256 -448h512v0l-256 448v0zM280 256v-24v24v-24v-112v0v-24v0h-48v0v24v0v112v0v24v0h48v0zM232 64h48h-48h48v-48v0h-48v0v48v0z" />
    <glyph glyph-name="bolt" unicode="&#xf0e7;" horiz-adv-x="448" 
d="M16 160l304 288l-304 -288l304 288l-59 -198v0l171 -26v0l-304 -288v0l59 198v0l-171 26v0z" />
    <glyph glyph-name="bolt" unicode="&#x26a1;" horiz-adv-x="448" 
d="M16 160l304 288l-304 -288l304 288l-59 -198v0l171 -26v0l-304 -288v0l59 198v0l-171 26v0z" />
    <glyph glyph-name="venus-double" unicode="&#xf226;" horiz-adv-x="640" 
d="M192 160q30 0 56 15v0v0q26 15 41 41t15 56t-15 56t-41 41t-56 15t-56 -15t-41 -41t-15 -56t15 -56t41 -41t56 -15v0zM368 272q-1 -66 -41 -113v0v0q-40 -48 -103 -60v-35v0h32h32v-64v0h-32h-32v-32v0v-32v0h-64v0v32v0v32v0h-32h-32v64v0h32h32v35v0q-63 12 -103 60
q-40 47 -41 113q2 75 52 124q49 50 124 52q75 -2 124 -52q50 -49 52 -124v0zM344 130q22 23 36 53q29 -22 68 -23q48 1 79 33q32 31 33 79q-1 48 -33 79q-31 32 -79 33q-39 -1 -68 -23q-14 29 -36 53q45 33 104 34q75 -2 124 -52q50 -49 52 -124q-1 -66 -41 -113
q-40 -48 -103 -60v-35v0h32h32v-64v0h-32h-32v-32v0v-32v0h-64v0v32v0v32v0h-32h-32v64v0h32h32v35v0q-40 8 -72 31v0z" />
    <glyph glyph-name="venus-double" unicode="&#x26a2;" horiz-adv-x="640" 
d="M192 160q30 0 56 15v0v0q26 15 41 41t15 56t-15 56t-41 41t-56 15t-56 -15t-41 -41t-15 -56t15 -56t41 -41t56 -15v0zM368 272q-1 -66 -41 -113v0v0q-40 -48 -103 -60v-35v0h32h32v-64v0h-32h-32v-32v0v-32v0h-64v0v32v0v32v0h-32h-32v64v0h32h32v35v0q-63 12 -103 60
q-40 47 -41 113q2 75 52 124q49 50 124 52q75 -2 124 -52q50 -49 52 -124v0zM344 130q22 23 36 53q29 -22 68 -23q48 1 79 33q32 31 33 79q-1 48 -33 79q-31 32 -79 33q-39 -1 -68 -23q-14 29 -36 53q45 33 104 34q75 -2 124 -52q50 -49 52 -124q-1 -66 -41 -113
q-40 -48 -103 -60v-35v0h32h32v-64v0h-32h-32v-32v0v-32v0h-64v0v32v0v32v0h-32h-32v64v0h32h32v35v0q-40 8 -72 31v0z" />
    <glyph glyph-name="mars-double" unicode="&#xf227;" horiz-adv-x="640" 
d="M320 416h128h-128h128v-128v0l-32 -32v0l-41 41v0l-54 -53v0q30 -44 31 -100q-2 -75 -52 -124q-49 -50 -124 -52q-75 2 -124 52q-50 49 -52 124q2 75 52 124q49 50 124 52q56 -1 100 -31l53 54v0l-41 41v0l32 32v0zM288 144q0 30 -15 56v0v0q-15 26 -41 41t-56 15
t-56 -15t-41 -41t-15 -56t15 -56t41 -41t56 -15t56 15t41 41t15 56v0zM304 -20q29 22 48 53q8 -1 16 -1q48 1 79 33q32 31 33 79q-2 55 -43 88l43 43v0v26v0l41 42v0l-41 41v0l32 32v0h128v0v-128v0l-32 -32v0l-41 41v0l-54 -53v0q30 -44 31 -100q-2 -75 -52 -124
q-49 -50 -124 -52q-34 0 -64 12v0z" />
    <glyph glyph-name="mars-double" unicode="&#x26a3;" horiz-adv-x="640" 
d="M320 416h128h-128h128v-128v0l-32 -32v0l-41 41v0l-54 -53v0q30 -44 31 -100q-2 -75 -52 -124q-49 -50 -124 -52q-75 2 -124 52q-50 49 -52 124q2 75 52 124q49 50 124 52q56 -1 100 -31l53 54v0l-41 41v0l32 32v0zM288 144q0 30 -15 56v0v0q-15 26 -41 41t-56 15
t-56 -15t-41 -41t-15 -56t15 -56t41 -41t56 -15t56 15t41 41t15 56v0zM304 -20q29 22 48 53q8 -1 16 -1q48 1 79 33q32 31 33 79q-2 55 -43 88l43 43v0v26v0l41 42v0l-41 41v0l32 32v0h128v0v-128v0l-32 -32v0l-41 41v0l-54 -53v0q30 -44 31 -100q-2 -75 -52 -124
q-49 -50 -124 -52q-34 0 -64 12v0z" />
    <glyph glyph-name="venus-mars" unicode="&#xf228;" horiz-adv-x="640" 
d="M176 160q30 0 56 15v0v0q26 15 41 41t15 56t-15 56t-41 41t-56 15t-56 -15t-41 -41t-15 -56t15 -56t41 -41t56 -15v0zM352 272q-1 -66 -41 -113v0v0q-40 -48 -103 -60v-35v0h32h32v-64v0h-32h-32v-32v0v-32v0h-64v0v32v0v32v0h-32h-32v64v0h32h32v35v0q-63 12 -103 60
q-40 47 -41 113q2 75 52 124q49 50 124 52q75 -2 124 -52q50 -49 52 -124v0zM272 87q29 16 52 39q31 -29 76 -30q48 1 79 33q32 31 33 79q-1 48 -33 79q-31 32 -79 33q-11 0 -21 -2q-7 32 -24 60q22 6 45 6q56 -1 100 -31l21 22v0l-41 41v0l32 32v0h128v0v-128v0l-32 -32v0
l-41 41v0l-22 -21v0q30 -44 31 -100q-2 -75 -52 -124q-49 -50 -124 -52q-78 2 -128 55v0z" />
    <glyph glyph-name="venus-mars" unicode="&#x26a4;" horiz-adv-x="640" 
d="M176 160q30 0 56 15v0v0q26 15 41 41t15 56t-15 56t-41 41t-56 15t-56 -15t-41 -41t-15 -56t15 -56t41 -41t56 -15v0zM352 272q-1 -66 -41 -113v0v0q-40 -48 -103 -60v-35v0h32h32v-64v0h-32h-32v-32v0v-32v0h-64v0v32v0v32v0h-32h-32v64v0h32h32v35v0q-63 12 -103 60
q-40 47 -41 113q2 75 52 124q49 50 124 52q75 -2 124 -52q50 -49 52 -124v0zM272 87q29 16 52 39q31 -29 76 -30q48 1 79 33q32 31 33 79q-1 48 -33 79q-31 32 -79 33q-11 0 -21 -2q-7 32 -24 60q22 6 45 6q56 -1 100 -31l21 22v0l-41 41v0l32 32v0h128v0v-128v0l-32 -32v0
l-41 41v0l-22 -21v0q30 -44 31 -100q-2 -75 -52 -124q-49 -50 -124 -52q-78 2 -128 55v0z" />
    <glyph glyph-name="mars-and-venus" unicode="&#xf224;" 
d="M368 448h128h-128h128v-128v0l-32 -32v0l-47 47v0l-26 -26v0q24 -37 25 -85q-1 -61 -39 -105q-38 -43 -97 -53v-2v0v-24v0h24h24v-48v0h-24h-24v-32v0v-24v0h-48v0v24v0v32v0h-24h-24v48v0h24h24v24v0v2v0q-59 10 -97 53q-38 44 -39 105q2 68 47 113t113 47
q61 -1 104 -38l23 23v0l-47 47v0l32 32v0zM352 224q0 26 -13 48v0v0q-13 22 -35 35q-23 13 -48 13t-48 -13q-22 -13 -35 -35t-13 -48t13 -48t35 -35q23 -13 48 -13t48 13q22 13 35 35t13 48v0z" />
    <glyph glyph-name="mars-and-venus" unicode="&#x26a5;" 
d="M368 448h128h-128h128v-128v0l-32 -32v0l-47 47v0l-26 -26v0q24 -37 25 -85q-1 -61 -39 -105q-38 -43 -97 -53v-2v0v-24v0h24h24v-48v0h-24h-24v-32v0v-24v0h-48v0v24v0v32v0h-24h-24v48v0h24h24v24v0v2v0q-59 10 -97 53q-38 44 -39 105q2 68 47 113t113 47
q61 -1 104 -38l23 23v0l-47 47v0l32 32v0zM352 224q0 26 -13 48v0v0q-13 22 -35 35q-23 13 -48 13t-48 -13q-22 -13 -35 -35t-13 -48t13 -48t35 -35q23 -13 48 -13t48 13q22 13 35 35t13 48v0z" />
    <glyph glyph-name="mars-stroke" unicode="&#xf229;" 
d="M512 448h-128h128h-128l-32 -32v0l41 -41v0l-23 -23v0l-25 25v0l-17 17v0l-34 -34v0l17 -17v0l26 -25v0l-29 -29v0q-44 30 -100 31q-75 -2 -124 -52q-50 -49 -52 -124q2 -75 52 -124q49 -50 124 -52q75 2 124 52q50 49 52 124q-1 56 -31 100l29 28v0l25 -25v0l17 -17v0
l34 34v0l-17 17v0l-25 25v0l23 23v0l41 -41v0l32 32v0v128v0zM96 144q0 30 15 56v0v0q15 26 41 41t56 15t56 -15t41 -41t15 -56t-15 -56t-41 -41t-56 -15t-56 15t-41 41t-15 56v0z" />
    <glyph glyph-name="mars-stroke" unicode="&#x26a6;" 
d="M512 448h-128h128h-128l-32 -32v0l41 -41v0l-23 -23v0l-25 25v0l-17 17v0l-34 -34v0l17 -17v0l26 -25v0l-29 -29v0q-44 30 -100 31q-75 -2 -124 -52q-50 -49 -52 -124q2 -75 52 -124q49 -50 124 -52q75 2 124 52q50 49 52 124q-1 56 -31 100l29 28v0l25 -25v0l17 -17v0
l34 34v0l-17 17v0l-25 25v0l23 23v0l41 -41v0l32 32v0v128v0zM96 144q0 30 15 56v0v0q15 26 41 41t56 15t56 -15t41 -41t15 -56t-15 -56t-41 -41t-56 -15t-56 15t-41 41t-15 56v0z" />
    <glyph glyph-name="transgender" unicode="&#xf225;" 
d="M0 336v112v-112v112h112v0l16 -16v0l-39 -39v0l23 -23v0l7 7v0l17 17v0l34 -34v0l-17 -17v0l-7 -7v0l15 -15v0q41 30 95 31q54 -1 95 -31l72 72v0l-39 39v0l16 16v0h112v0v-112v0l-16 -16v0l-39 39v0l-72 -72v0q30 -41 31 -95q-1 -61 -39 -105q-38 -43 -97 -53v-18v0h16
h24v-48v0h-24h-16v-8v0v-24v0h-48v0v24v0v8v0h-16h-24v48v0h24h16v18v0q-59 10 -97 53q-38 44 -39 105q1 54 31 95l-15 15v0l-7 -7v0l-17 -17v0l-34 34v0l17 17v0l7 7v0l-23 23v0l-39 -39v0l-16 16v0zM352 192q0 26 -13 48v0v0q-13 22 -35 35q-23 13 -48 13t-48 -13
q-22 -13 -35 -35t-13 -48t13 -48t35 -35q23 -13 48 -13t48 13q22 13 35 35t13 48v0z" />
    <glyph glyph-name="transgender" unicode="&#x26a7;" 
d="M0 336v112v-112v112h112v0l16 -16v0l-39 -39v0l23 -23v0l7 7v0l17 17v0l34 -34v0l-17 -17v0l-7 -7v0l15 -15v0q41 30 95 31q54 -1 95 -31l72 72v0l-39 39v0l16 16v0h112v0v-112v0l-16 -16v0l-39 39v0l-72 -72v0q30 -41 31 -95q-1 -61 -39 -105q-38 -43 -97 -53v-18v0h16
h24v-48v0h-24h-16v-8v0v-24v0h-48v0v24v0v8v0h-16h-24v48v0h24h16v18v0q-59 10 -97 53q-38 44 -39 105q1 54 31 95l-15 15v0l-7 -7v0l-17 -17v0l-34 34v0l17 17v0l7 7v0l-23 23v0l-39 -39v0l-16 16v0zM352 192q0 26 -13 48v0v0q-13 22 -35 35q-23 13 -48 13t-48 -13
q-22 -13 -35 -35t-13 -48t13 -48t35 -35q23 -13 48 -13t48 13q22 13 35 35t13 48v0z" />
    <glyph glyph-name="mars-stroke-up" unicode="&#xf22a;" horiz-adv-x="320" 
d="M160 448l-80 -80l80 80l-80 -80v-16v0h56v0v-24v0h-32h-24v-48v0h24h32v-24v0v-2q-59 -10 -97 -53q-38 -44 -39 -105q2 -68 47 -113t113 -47q68 2 113 47t47 113q-1 61 -39 105q-38 43 -97 53v1v1v24v0h32h24v48v0h-24h-32v24v0h56v0v16v0l-80 80v0zM64 96q0 26 13 48v0
v0q13 22 35 35q23 13 48 13t48 -13q22 -13 35 -35t13 -48t-13 -48t-35 -35q-23 -13 -48 -13t-48 13q-22 13 -35 35t-13 48v0z" />
    <glyph glyph-name="mars-stroke-up" unicode="&#x26a8;" horiz-adv-x="320" 
d="M160 448l-80 -80l80 80l-80 -80v-16v0h56v0v-24v0h-32h-24v-48v0h24h32v-24v0v-2q-59 -10 -97 -53q-38 -44 -39 -105q2 -68 47 -113t113 -47q68 2 113 47t47 113q-1 61 -39 105q-38 43 -97 53v1v1v24v0h32h24v48v0h-24h-32v24v0h56v0v16v0l-80 80v0zM64 96q0 26 13 48v0
v0q13 22 35 35q23 13 48 13t48 -13q22 -13 35 -35t13 -48t-13 -48t-35 -35q-23 -13 -48 -13t-48 13q-22 13 -35 35t-13 48v0z" />
    <glyph glyph-name="mars-stroke-right" unicode="&#xf22b;" horiz-adv-x="640" 
d="M320 192q0 30 -15 56v0v0q-15 26 -41 41t-56 15t-56 -15t-41 -41t-15 -56t15 -56t41 -41t56 -15t56 15t41 41t15 56v0zM382 168q-10 -66 -58 -108v0v0q-48 -43 -116 -44q-75 2 -124 52q-50 49 -52 124q2 75 52 124q49 50 124 52q68 -1 116 -44q48 -42 58 -108h34v0v48v0
v24v0h48v0v-24v0v-48v0h32v0v72v0h32v0l96 -96v0l-96 -96v0h-32v0v72v0h-32v0v-48v0v-24v0h-48v0v24v0v48v0h-34v0z" />
    <glyph glyph-name="mars-stroke-right" unicode="&#x26a9;" horiz-adv-x="640" 
d="M320 192q0 30 -15 56v0v0q-15 26 -41 41t-56 15t-56 -15t-41 -41t-15 -56t15 -56t41 -41t56 -15t56 15t41 41t15 56v0zM382 168q-10 -66 -58 -108v0v0q-48 -43 -116 -44q-75 2 -124 52q-50 49 -52 124q2 75 52 124q49 50 124 52q68 -1 116 -44q48 -42 58 -108h34v0v48v0
v24v0h48v0v-24v0v-48v0h32v0v72v0h32v0l96 -96v0l-96 -96v0h-32v0v72v0h-32v0v-48v0v-24v0h-48v0v24v0v48v0h-34v0z" />
    <glyph glyph-name="coffin" unicode="&#xf6c6;" horiz-adv-x="384" 
d="M0 304l104 -368l-104 368l104 -368h176v0l104 368v0l-112 144v0h-160v0l-112 -144v0z" />
    <glyph glyph-name="coffin" unicode="&#x26b0;" horiz-adv-x="384" 
d="M0 304l104 -368l-104 368l104 -368h176v0l104 368v0l-112 144v0h-160v0l-112 -144v0z" />
    <glyph glyph-name="neuter" unicode="&#xf22c;" horiz-adv-x="384" 
d="M80 272q0 30 15 56v0v0q15 26 41 41t56 15t56 -15t41 -41t15 -56t-15 -56t-41 -41t-56 -15t-56 15t-41 41t-15 56v0zM224 99q63 12 103 60v0v0q40 47 41 113q-2 75 -52 124q-49 50 -124 52q-75 -2 -124 -52q-50 -49 -52 -124q1 -66 41 -113q40 -48 103 -60v-131v0v-32v0
h64v0v32v0v131v0z" />
    <glyph glyph-name="neuter" unicode="&#x26b2;" horiz-adv-x="384" 
d="M80 272q0 30 15 56v0v0q15 26 41 41t56 15t56 -15t41 -41t15 -56t-15 -56t-41 -41t-56 -15t-56 15t-41 41t-15 56v0zM224 99q63 12 103 60v0v0q40 47 41 113q-2 75 -52 124q-49 50 -124 52q-75 -2 -124 -52q-50 -49 -52 -124q1 -66 41 -113q40 -48 103 -60v-131v0v-32v0
h64v0v32v0v131v0z" />
    <glyph glyph-name="futbol" unicode="&#xf1e3;" 
d="M406 312l-28 -81l28 81l-28 -81l70 -48v0q-3 -54 -32 -97l-85 2v0l-24 -81v0q-24 -7 -51 -7t-51 7l-24 81v0l-85 -2v0q-29 43 -32 97l70 48v0l-28 81v0q33 41 83 60l67 -52v0l67 52v0q50 -19 83 -60v0zM256 -64q70 1 128 34v0v0q58 34 94 94q34 61 34 128t-34 128
q-36 60 -94 94q-58 33 -128 34q-70 -1 -128 -34q-58 -34 -94 -94q-34 -61 -34 -128t34 -128q36 -60 94 -94q58 -33 128 -34v0zM256 272l-76 -55l76 55l-76 -55l29 -90v0h94v0l29 90v0l-76 55v0z" />
    <glyph glyph-name="futbol" unicode="&#x26bd;" 
d="M406 312l-28 -81l28 81l-28 -81l70 -48v0q-3 -54 -32 -97l-85 2v0l-24 -81v0q-24 -7 -51 -7t-51 7l-24 81v0l-85 -2v0q-29 43 -32 97l70 48v0l-28 81v0q33 41 83 60l67 -52v0l67 52v0q50 -19 83 -60v0zM256 -64q70 1 128 34v0v0q58 34 94 94q34 61 34 128t-34 128
q-36 60 -94 94q-58 33 -128 34q-70 -1 -128 -34q-58 -34 -94 -94q-34 -61 -34 -128t34 -128q36 -60 94 -94q58 -33 128 -34v0zM256 272l-76 -55l76 55l-76 -55l29 -90v0h94v0l29 90v0l-76 55v0z" />
    <glyph glyph-name="baseball" unicode="&#x1f94e;" 
d="M77 226q-14 -2 -29 -2q-23 0 -45 6q14 85 72 143t143 72q6 -22 6 -45q0 -15 -2 -29l31 -6v0q3 17 3 35q0 25 -6 48h3h3q72 -1 129 -35q58 -34 92 -92q34 -57 35 -129v-6q-23 6 -48 6q-18 0 -35 -3l6 -32v0q14 3 29 3q24 0 45 -6q-14 -85 -72 -143t-143 -72q-6 22 -6 45
q0 15 2 29l-31 6v0q-3 -17 -3 -35q0 -25 6 -48h-3h-3q-72 1 -129 35q-58 34 -92 92q-34 57 -35 129v6q23 -6 48 -6q18 0 35 3l-6 31v0zM214 341q-13 -37 -40 -64v0v0q-27 -28 -64 -42l11 -30v0q44 17 76 49q31 33 47 77l-30 10v0zM402 149l-11 30l11 -30l-11 30
q-44 -17 -76 -49q-31 -33 -47 -77l30 -10v0q13 37 40 64q27 28 64 42v0z" />
    <glyph glyph-name="baseball" unicode="&#xf433;" 
d="M77 226q-14 -2 -29 -2q-23 0 -45 6q14 85 72 143t143 72q6 -22 6 -45q0 -15 -2 -29l31 -6v0q3 17 3 35q0 25 -6 48h3h3q72 -1 129 -35q58 -34 92 -92q34 -57 35 -129v-6q-23 6 -48 6q-18 0 -35 -3l6 -32v0q14 3 29 3q24 0 45 -6q-14 -85 -72 -143t-143 -72q-6 22 -6 45
q0 15 2 29l-31 6v0q-3 -17 -3 -35q0 -25 6 -48h-3h-3q-72 1 -129 35q-58 34 -92 92q-34 57 -35 129v6q23 -6 48 -6q18 0 35 3l-6 31v0zM214 341q-13 -37 -40 -64v0v0q-27 -28 -64 -42l11 -30v0q44 17 76 49q31 33 47 77l-30 10v0zM402 149l-11 30l11 -30l-11 30
q-44 -17 -76 -49q-31 -33 -47 -77l30 -10v0q13 37 40 64q27 28 64 42v0z" />
    <glyph glyph-name="baseball" unicode="&#x26be;" 
d="M77 226q-14 -2 -29 -2q-23 0 -45 6q14 85 72 143t143 72q6 -22 6 -45q0 -15 -2 -29l31 -6v0q3 17 3 35q0 25 -6 48h3h3q72 -1 129 -35q58 -34 92 -92q34 -57 35 -129v-6q-23 6 -48 6q-18 0 -35 -3l6 -32v0q14 3 29 3q24 0 45 -6q-14 -85 -72 -143t-143 -72q-6 22 -6 45
q0 15 2 29l-31 6v0q-3 -17 -3 -35q0 -25 6 -48h-3h-3q-72 1 -129 35q-58 34 -92 92q-34 57 -35 129v6q23 -6 48 -6q18 0 35 3l-6 31v0zM214 341q-13 -37 -40 -64v0v0q-27 -28 -64 -42l11 -30v0q44 17 76 49q31 33 47 77l-30 10v0zM402 149l-11 30l11 -30l-11 30
q-44 -17 -76 -49q-31 -33 -47 -77l30 -10v0q13 37 40 64q27 28 64 42v0z" />
    <glyph glyph-name="cloud-sun" unicode="&#xf6c4;" horiz-adv-x="640" 
d="M121 448l-17 -104l17 104l-17 -104l-104 -17v0l61 -87v0l-61 -87v0l104 -17v0l17 -104v0l42 29v0q16 59 68 86q-11 -3 -23 -3q-41 1 -68 28t-28 68q1 41 28 68t68 28q41 -1 68 -28t28 -68v-1v0q28 16 62 17l50 71v0l-104 17v0l-17 104v0l-87 -61v0l-87 61v0zM272 240
q-1 36 -32 55q-32 18 -64 0q-31 -19 -32 -55q1 -36 32 -55q32 -18 64 0q31 19 32 55v0zM640 -64v80v-80v80q-1 30 -19 52q-18 21 -47 27q2 8 2 17q-1 34 -23 57q-23 22 -57 23q-26 0 -46 -14q-13 21 -34 33q-22 13 -48 13q-41 -1 -68 -28t-28 -68v-1v0q-35 -7 -57 -33
t-23 -62v-96v0h96h352z" />
    <glyph glyph-name="cloud-sun" unicode="&#x26c5;" horiz-adv-x="640" 
d="M121 448l-17 -104l17 104l-17 -104l-104 -17v0l61 -87v0l-61 -87v0l104 -17v0l17 -104v0l42 29v0q16 59 68 86q-11 -3 -23 -3q-41 1 -68 28t-28 68q1 41 28 68t68 28q41 -1 68 -28t28 -68v-1v0q28 16 62 17l50 71v0l-104 17v0l-17 104v0l-87 -61v0l-87 61v0zM272 240
q-1 36 -32 55q-32 18 -64 0q-31 -19 -32 -55q1 -36 32 -55q32 -18 64 0q31 19 32 55v0zM640 -64v80v-80v80q-1 30 -19 52q-18 21 -47 27q2 8 2 17q-1 34 -23 57q-23 22 -57 23q-26 0 -46 -14q-13 21 -34 33q-22 13 -48 13q-41 -1 -68 -28t-28 -68v-1v0q-35 -7 -57 -33
t-23 -62v-96v0h96h352z" />
    <glyph glyph-name="cloud-rain" unicode="&#x1f327;" 
d="M96 128h-96h96h-96v96v0q1 32 18 56q18 24 46 34v22v0q1 48 33 79q31 32 79 33q33 0 59 -17q26 -16 40 -43q23 27 61 28q34 -1 57 -23q22 -23 23 -57v-16v0q41 -1 68 -28t28 -68v-96v0h-96h-320zM96 80l41 -68l-41 68l41 -68q7 -12 7 -26v-2v0q-1 -20 -14 -34
q-14 -13 -34 -14q-20 1 -34 14q-13 14 -14 34v2v0q0 14 7 26l41 68v0zM256 80l41 -68l-41 68l41 -68q7 -12 7 -26v-2v0q-1 -20 -14 -34q-14 -13 -34 -14q-20 1 -34 14q-13 14 -14 34v2v0q0 14 7 26l41 68v0zM375 12l41 68l-41 -68l41 68l41 -68v0q7 -12 7 -26v-2v0
q-1 -20 -14 -34q-14 -13 -34 -14q-20 1 -34 14q-13 14 -14 34v2v0q0 14 7 26v0z" />
    <glyph glyph-name="cloud-rain" unicode="&#xf73d;" 
d="M96 128h-96h96h-96v96v0q1 32 18 56q18 24 46 34v22v0q1 48 33 79q31 32 79 33q33 0 59 -17q26 -16 40 -43q23 27 61 28q34 -1 57 -23q22 -23 23 -57v-16v0q41 -1 68 -28t28 -68v-96v0h-96h-320zM96 80l41 -68l-41 68l41 -68q7 -12 7 -26v-2v0q-1 -20 -14 -34
q-14 -13 -34 -14q-20 1 -34 14q-13 14 -14 34v2v0q0 14 7 26l41 68v0zM256 80l41 -68l-41 68l41 -68q7 -12 7 -26v-2v0q-1 -20 -14 -34q-14 -13 -34 -14q-20 1 -34 14q-13 14 -14 34v2v0q0 14 7 26l41 68v0zM375 12l41 68l-41 -68l41 68l41 -68v0q7 -12 7 -26v-2v0
q-1 -20 -14 -34q-14 -13 -34 -14q-20 1 -34 14q-13 14 -14 34v2v0q0 14 7 26v0z" />
    <glyph glyph-name="cloud-rain" unicode="&#x26c6;" 
d="M96 128h-96h96h-96v96v0q1 32 18 56q18 24 46 34v22v0q1 48 33 79q31 32 79 33q33 0 59 -17q26 -16 40 -43q23 27 61 28q34 -1 57 -23q22 -23 23 -57v-16v0q41 -1 68 -28t28 -68v-96v0h-96h-320zM96 80l41 -68l-41 68l41 -68q7 -12 7 -26v-2v0q-1 -20 -14 -34
q-14 -13 -34 -14q-20 1 -34 14q-13 14 -14 34v2v0q0 14 7 26l41 68v0zM256 80l41 -68l-41 68l41 -68q7 -12 7 -26v-2v0q-1 -20 -14 -34q-14 -13 -34 -14q-20 1 -34 14q-13 14 -14 34v2v0q0 14 7 26l41 68v0zM375 12l41 68l-41 -68l41 68l41 -68v0q7 -12 7 -26v-2v0
q-1 -20 -14 -34q-14 -13 -34 -14q-20 1 -34 14q-13 14 -14 34v2v0q0 14 7 26v0z" />
    <glyph glyph-name="truck" unicode="&#x1f69a;" horiz-adv-x="640" 
d="M0 448h416h-416h416v-96v0h64h13l10 -9v0l96 -96v0l9 -10v0v-13v0v-32v0v-32v0v-64v0h32v0v-64v0h-32h-32q-1 -41 -28 -68t-68 -28q-41 1 -68 28t-28 68h-128v0q-1 -41 -28 -68t-68 -28q-41 1 -68 28t-28 68h-64v0v416v0zM544 211l-77 77l77 -77l-77 77h-3h-48v-96v0h128
v0v16v0v3v0zM208 32q-1 27 -24 42q-24 12 -48 0q-23 -15 -24 -42q1 -27 24 -42q24 -12 48 0q23 15 24 42v0zM480 -16q27 1 42 24q12 24 0 48q-15 23 -42 24q-27 -1 -42 -24q-12 -24 0 -48q15 -23 42 -24v0z" />
    <glyph glyph-name="truck" unicode="&#xf0d1;" horiz-adv-x="640" 
d="M0 448h416h-416h416v-96v0h64h13l10 -9v0l96 -96v0l9 -10v0v-13v0v-32v0v-32v0v-64v0h32v0v-64v0h-32h-32q-1 -41 -28 -68t-68 -28q-41 1 -68 28t-28 68h-128v0q-1 -41 -28 -68t-68 -28q-41 1 -68 28t-28 68h-64v0v416v0zM544 211l-77 77l77 -77l-77 77h-3h-48v-96v0h128
v0v16v0v3v0zM208 32q-1 27 -24 42q-24 12 -48 0q-23 -15 -24 -42q1 -27 24 -42q24 -12 48 0q23 15 24 42v0zM480 -16q27 1 42 24q12 24 0 48q-15 23 -42 24q-27 -1 -42 -24q-12 -24 0 -48q15 -23 42 -24v0z" />
    <glyph glyph-name="truck" unicode="&#x26df;" horiz-adv-x="640" 
d="M0 448h416h-416h416v-96v0h64h13l10 -9v0l96 -96v0l9 -10v0v-13v0v-32v0v-32v0v-64v0h32v0v-64v0h-32h-32q-1 -41 -28 -68t-68 -28q-41 1 -68 28t-28 68h-128v0q-1 -41 -28 -68t-68 -28q-41 1 -68 28t-28 68h-64v0v416v0zM544 211l-77 77l77 -77l-77 77h-3h-48v-96v0h128
v0v16v0v3v0zM208 32q-1 27 -24 42q-24 12 -48 0q-23 -15 -24 -42q1 -27 24 -42q24 -12 48 0q23 15 24 42v0zM480 -16q27 1 42 24q12 24 0 48q-15 23 -42 24q-27 -1 -42 -24q-12 -24 0 -48q15 -23 42 -24v0z" />
    <glyph glyph-name="shield-cross" unicode="&#xf712;" 
d="M268 443l-12 5l12 -5l-12 5l-12 -5v0l-207 -80v0l-19 -8v0l-1 -20v0q-3 -38 5 -91t32 -110t70 -108q46 -52 119 -85l13 -5v0l13 5v0q73 33 119 85q46 51 70 108t32 110t5 91l-1 20v0l-19 8v0l-207 80v0zM224 367l32 12l-32 -12l32 12l32 -12v0v-79v0h143v0
q-2 -30 -10 -64h-133v0v-200v0q-15 -10 -32 -18q-17 8 -32 18v200v0h-133v0q-8 34 -10 64h143v0v79v0z" />
    <glyph glyph-name="shield-cross" unicode="&#x26e8;" 
d="M268 443l-12 5l12 -5l-12 5l-12 -5v0l-207 -80v0l-19 -8v0l-1 -20v0q-3 -38 5 -91t32 -110t70 -108q46 -52 119 -85l13 -5v0l13 5v0q73 33 119 85q46 51 70 108t32 110t5 91l-1 20v0l-19 8v0l-207 80v0zM224 367l32 12l-32 -12l32 12l32 -12v0v-79v0h143v0
q-2 -30 -10 -64h-133v0v-200v0q-15 -10 -32 -18q-17 8 -32 18v200v0h-133v0q-8 34 -10 64h143v0v79v0z" />
    <glyph glyph-name="torii-gate" unicode="&#xf6a1;" 
d="M384 320v-64v64v-64h64v0v64v0l64 64v0v64v0l-96 -32v0h-320v0l-96 32v0v-64v0l64 -64v0v-64v0h64v0v64v0h96v0v-64v0h64v0v64v0h96v0zM64 160v-192v192v-192v-32v0h64v0v32v0v192v0h256v0v-192v0v-32v0h64v0v32v0v192v0h32h32v64v0h-32h-480v-64v0h32h32z" />
    <glyph glyph-name="torii-gate" unicode="&#x26e9;" 
d="M384 320v-64v64v-64h64v0v64v0l64 64v0v64v0l-96 -32v0h-320v0l-96 32v0v-64v0l64 -64v0v-64v0h64v0v64v0h96v0v-64v0h64v0v64v0h96v0zM64 160v-192v192v-192v-32v0h64v0v32v0v192v0h256v0v-192v0v-32v0h64v0v32v0v192v0h32h32v64v0h-32h-480v-64v0h32h32z" />
    <glyph glyph-name="church" unicode="&#xf51d;" horiz-adv-x="640" 
d="M344 424v24v-24v24h-48v0v-24v0v-24v0h-32h-24v-48v0h24h32v-46v0l-136 -82v0v-288v0h96v0v96v0q1 27 19 45t45 19q27 -1 45 -19t19 -45v-96v0h96v0v288v0l-136 82v0v46v0h32h24v48v0h-24h-32v24v0zM0 104v-168v168v-168h128v0v238v0l-128 -70v0zM640 -64v168v-168v168
l-128 70v0v-238v0h128v0z" />
    <glyph glyph-name="church" unicode="&#x26ea;" horiz-adv-x="640" 
d="M344 424v24v-24v24h-48v0v-24v0v-24v0h-32h-24v-48v0h24h32v-46v0l-136 -82v0v-288v0h96v0v96v0q1 27 19 45t45 19q27 -1 45 -19t19 -45v-96v0h96v0v288v0l-136 82v0v46v0h32h24v48v0h-24h-32v24v0zM0 104v-168v168v-168h128v0v238v0l-128 -70v0zM640 -64v168v-168v168
l-128 70v0v-238v0h128v0z" />
    <glyph glyph-name="mountains" unicode="&#xf6fd;" horiz-adv-x="640" 
d="M256 416l-256 -384l256 384l-256 -384v-64v0h320h320v64v0l-160 256v0l-67 -107v0l-157 235v0z" />
    <glyph glyph-name="mountains" unicode="&#x26f0;" horiz-adv-x="640" 
d="M256 416l-256 -384l256 384l-256 -384v-64v0h320h320v64v0l-160 256v0l-67 -107v0l-157 235v0z" />
    <glyph glyph-name="person-skiing" unicode="&#xf7c9;" 
d="M381 400q1 27 24 42q24 12 48 0q23 -15 24 -42q-1 -27 -24 -42q-24 -12 -48 0q-23 15 -24 42v0zM14 200l21 -11l-21 11l21 -11l198 -102v0l46 69v0l-77 76v0q-21 23 -18 52l110 -53v0l49 -48v0l18 -19v0l-14 -22v0l-57 -85v0l126 -66v0l37 19v0l22 11v0l21 -43v0l-21 -11
v0l-48 -24v0l-11 -6v0l-11 6v0l-392 204v0l-21 11v0l22 42v0zM119 382l18 -8l-18 8l18 -8l9 17v0l7 15v0l29 -15v0l-8 -14v0l-8 -17v0l52 -25v0q1 0 2 1h2l101 45v0l26 12v0l15 -25v0l51 -89v0l49 -27v0l28 -16v0l-32 -56v0l-28 16v0l-56 32v0l-7 4v0l-5 8v0l-17 30v0
l-28 -13v0l-7 -3v0l-7 4v0l-153 73v0l-10 -18v0l-7 -14v0l-28 14v0l7 14v0l9 18v0l-18 9v0l-14 6v0l14 29v0l14 -7v0z" />
    <glyph glyph-name="person-skiing" unicode="&#x26f7;" 
d="M381 400q1 27 24 42q24 12 48 0q23 -15 24 -42q-1 -27 -24 -42q-24 -12 -48 0q-23 15 -24 42v0zM14 200l21 -11l-21 11l21 -11l198 -102v0l46 69v0l-77 76v0q-21 23 -18 52l110 -53v0l49 -48v0l18 -19v0l-14 -22v0l-57 -85v0l126 -66v0l37 19v0l22 11v0l21 -43v0l-21 -11
v0l-48 -24v0l-11 -6v0l-11 6v0l-392 204v0l-21 11v0l22 42v0zM119 382l18 -8l-18 8l18 -8l9 17v0l7 15v0l29 -15v0l-8 -14v0l-8 -17v0l52 -25v0q1 0 2 1h2l101 45v0l26 12v0l15 -25v0l51 -89v0l49 -27v0l28 -16v0l-32 -56v0l-28 16v0l-56 32v0l-7 4v0l-5 8v0l-17 30v0
l-28 -13v0l-7 -3v0l-7 4v0l-153 73v0l-10 -18v0l-7 -14v0l-28 14v0l7 14v0l9 18v0l-18 9v0l-14 6v0l14 29v0l14 -7v0z" />
    <glyph glyph-name="ice-skate" unicode="&#xf7ac;" horiz-adv-x="576" 
d="M512 208v-144v144v-144h-480v0v288v0l224 64v0v32v0h64v0v-96v0h-48h-16v-32v0h16h48v-32v0h-48h-16v-32v0h16h48l192 -48v0zM576 40v-24v24v-24v-56v0v-24v0h-24h-552v48v0h24h72v24v0v24v0h48v0v-24v0v-24v0h240v0v24v0v24v0h48v0v-24v0v-24v0h96v0v32v0v24v0h48v0z
" />
    <glyph glyph-name="ice-skate" unicode="&#x26f8;" horiz-adv-x="576" 
d="M512 208v-144v144v-144h-480v0v288v0l224 64v0v32v0h64v0v-96v0h-48h-16v-32v0h16h48v-32v0h-48h-16v-32v0h16h48l192 -48v0zM576 40v-24v24v-24v-56v0v-24v0h-24h-552v48v0h24h72v24v0v24v0h48v0v-24v0v-24v0h240v0v24v0v24v0h48v0v-24v0v-24v0h96v0v32v0v24v0h48v0z
" />
    <glyph glyph-name="campground" unicode="&#xf6bb;" horiz-adv-x="576" 
d="M241 446l20 -25l-20 25l20 -25l27 -34v0l27 34v0l20 25v0l50 -40v0l-20 -25v0l-36 -45v0l240 -300v0l7 -9v0v-11v0v-48v0v-32v0h-32h-544v32v0v48v0v11v0l7 9v0l240 300v0l-36 45v0l-20 25v0l50 40v0zM288 156l-119 -156l119 156l-119 -156h239v0l-120 156v0z" />
    <glyph glyph-name="campground" unicode="&#x26fa;" horiz-adv-x="576" 
d="M241 446l20 -25l-20 25l20 -25l27 -34v0l27 34v0l20 25v0l50 -40v0l-20 -25v0l-36 -45v0l240 -300v0l7 -9v0v-11v0v-48v0v-32v0h-32h-544v32v0v48v0v11v0l7 9v0l240 300v0l-36 45v0l-20 25v0l50 40v0zM288 156l-119 -156l119 156l-119 -156h239v0l-120 156v0z" />
    <glyph glyph-name="gas-pump" unicode="&#xf52f;" 
d="M32 448h288h-288h288v-256v0h8v0q37 -1 62 -26t26 -62v-32v0q2 -22 24 -24q22 2 24 24v154v0q-21 6 -34 22q-14 17 -14 40v64v0l-48 48v0l32 32v0l112 -112v0v-40v0v-24v0v-32v0v-152v0q-1 -31 -21 -51t-51 -21q-31 1 -51 21t-21 51v32v0q0 17 -12 28q-11 12 -28 12h-8v0
v-112v0h-288v0v416v0zM96 384v-128v128v-128h160v0v128v0h-160v0zM352 0v-64v64v-64h-352v0v64v0h352v0z" />
    <glyph glyph-name="gas-pump" unicode="&#x26fd;" 
d="M32 448h288h-288h288v-256v0h8v0q37 -1 62 -26t26 -62v-32v0q2 -22 24 -24q22 2 24 24v154v0q-21 6 -34 22q-14 17 -14 40v64v0l-48 48v0l32 32v0l112 -112v0v-40v0v-24v0v-32v0v-152v0q-1 -31 -21 -51t-51 -21q-31 1 -51 21t-21 51v32v0q0 17 -12 28q-11 12 -28 12h-8v0
v-112v0h-288v0v416v0zM96 384v-128v128v-128h160v0v128v0h-160v0zM352 0v-64v64v-64h-352v0v64v0h352v0z" />
    <glyph glyph-name="scissors" unicode="&#xf0c4;" 
d="M160 336q-1 27 -24 42q-24 12 -48 0q-23 -15 -24 -42q1 -27 24 -42q24 -12 48 0q23 15 24 42v0zM153 231q-19 -7 -41 -7q-48 1 -79 33q-32 31 -33 79q1 48 33 79q31 32 79 33q48 -1 79 -33q32 -31 33 -79q0 -22 -7 -41l39 -39v0l160 160v0h64v0l32 -32v0l-295 -296v0
q7 -18 7 -40q-1 -48 -33 -79q-31 -32 -79 -33q-48 1 -79 33q-32 31 -33 79q1 48 33 79q31 32 79 33q22 0 41 -8l39 40v0l-39 39v0zM279 105l64 64l-64 -64l64 64l169 -169v0l-32 -32v0h-64v0l-137 137v0zM112 96q-27 -1 -42 -24q-12 -24 0 -48q15 -23 42 -24q27 1 42 24
q12 24 0 48q-15 23 -42 24v0z" />
    <glyph glyph-name="scissors" unicode="&#x2704;" 
d="M160 336q-1 27 -24 42q-24 12 -48 0q-23 -15 -24 -42q1 -27 24 -42q24 -12 48 0q23 15 24 42v0zM153 231q-19 -7 -41 -7q-48 1 -79 33q-32 31 -33 79q1 48 33 79q31 32 79 33q48 -1 79 -33q32 -31 33 -79q0 -22 -7 -41l39 -39v0l160 160v0h64v0l32 -32v0l-295 -296v0
q7 -18 7 -40q-1 -48 -33 -79q-31 -32 -79 -33q-48 1 -79 33q-32 31 -33 79q1 48 33 79q31 32 79 33q22 0 41 -8l39 40v0l-39 39v0zM279 105l64 64l-64 -64l64 64l169 -169v0l-32 -32v0h-64v0l-137 137v0zM112 96q-27 -1 -42 -24q-12 -24 0 -48q15 -23 42 -24q27 1 42 24
q12 24 0 48q-15 23 -42 24v0z" />
    <glyph glyph-name="scissors" unicode="&#x2702;" 
d="M160 336q-1 27 -24 42q-24 12 -48 0q-23 -15 -24 -42q1 -27 24 -42q24 -12 48 0q23 15 24 42v0zM153 231q-19 -7 -41 -7q-48 1 -79 33q-32 31 -33 79q1 48 33 79q31 32 79 33q48 -1 79 -33q32 -31 33 -79q0 -22 -7 -41l39 -39v0l160 160v0h64v0l32 -32v0l-295 -296v0
q7 -18 7 -40q-1 -48 -33 -79q-31 -32 -79 -33q-48 1 -79 33q-32 31 -33 79q1 48 33 79q31 32 79 33q22 0 41 -8l39 40v0l-39 39v0zM279 105l64 64l-64 -64l64 64l169 -169v0l-32 -32v0h-64v0l-137 137v0zM112 96q-27 -1 -42 -24q-12 -24 0 -48q15 -23 42 -24q27 1 42 24
q12 24 0 48q-15 23 -42 24v0z" />
    <glyph glyph-name="scissors" unicode="&#x2700;" 
d="M160 336q-1 27 -24 42q-24 12 -48 0q-23 -15 -24 -42q1 -27 24 -42q24 -12 48 0q23 15 24 42v0zM153 231q-19 -7 -41 -7q-48 1 -79 33q-32 31 -33 79q1 48 33 79q31 32 79 33q48 -1 79 -33q32 -31 33 -79q0 -22 -7 -41l39 -39v0l160 160v0h64v0l32 -32v0l-295 -296v0
q7 -18 7 -40q-1 -48 -33 -79q-31 -32 -79 -33q-48 1 -79 33q-32 31 -33 79q1 48 33 79q31 32 79 33q22 0 41 -8l39 40v0l-39 39v0zM279 105l64 64l-64 -64l64 64l169 -169v0l-32 -32v0h-64v0l-137 137v0zM112 96q-27 -1 -42 -24q-12 -24 0 -48q15 -23 42 -24q27 1 42 24
q12 24 0 48q-15 23 -42 24v0z" />
    <glyph glyph-name="plane-engines" unicode="&#xf3de;" horiz-adv-x="576" 
d="M576 192q-3 27 -34 45v0v0q-31 18 -60 19h-116v0l-37 64v0h23v0v64v0h-59v0l-37 64v0h-96v0l55 -192v0h-103v0l-48 64v0h-64v0l24 -97v0q-22 -7 -24 -31q2 -24 24 -31l-24 -97v0h64v0l48 64v0h103v0l-55 -192v0h96v0l37 64v0h59v0v64v0h-23v0l37 64v0h116v0q29 1 60 18
q31 18 34 46v0z" />
    <glyph glyph-name="plane-engines" unicode="&#x2708;" horiz-adv-x="576" 
d="M576 192q-3 27 -34 45v0v0q-31 18 -60 19h-116v0l-37 64v0h23v0v64v0h-59v0l-37 64v0h-96v0l55 -192v0h-103v0l-48 64v0h-64v0l24 -97v0q-22 -7 -24 -31q2 -24 24 -31l-24 -97v0h64v0l48 64v0h103v0l-55 -192v0h96v0l37 64v0h59v0v64v0h-23v0l37 64v0h116v0q29 1 60 18
q31 18 34 46v0z" />
    <glyph glyph-name="envelope" unicode="&#x1f582;" 
d="M0 384h512h-512h512v-80v0l-256 -176v0l-256 176v0v80v0zM0 0v265v-265v265l238 -163v0l18 -13v0l18 13v0l238 163v0v-265v0h-512v0z" />
    <glyph glyph-name="envelope" unicode="&#xf0e0;" 
d="M0 384h512h-512h512v-80v0l-256 -176v0l-256 176v0v80v0zM0 0v265v-265v265l238 -163v0l18 -13v0l18 13v0l238 163v0v-265v0h-512v0z" />
    <glyph glyph-name="envelope" unicode="&#xf003;" 
d="M0 384h512h-512h512v-80v0l-256 -176v0l-256 176v0v80v0zM0 0v265v-265v265l238 -163v0l18 -13v0l18 13v0l238 163v0v-265v0h-512v0z" />
    <glyph glyph-name="envelope" unicode="&#x2709;" 
d="M0 384h512h-512h512v-80v0l-256 -176v0l-256 176v0v80v0zM0 0v265v-265v265l238 -163v0l18 -13v0l18 13v0l238 163v0v-265v0h-512v0z" />
    <glyph glyph-name="hand-fist" unicode="&#xf6de;" horiz-adv-x="448" 
d="M224 448v-144v144v-144h-64v0v144v0h64v0zM64 416h64h-64h64v-112v0h-64v0v112v0zM256 416h64h-64h64v-160v0h-64v0v160v0zM352 352h64h-64h64v-128v0h-64v0v128v0zM32 194v78v-78v78h192v0v-48v0v-32v0h-96h-16v-32v0h16h128v16v0v48v0h64v0v-32v0h96v0q0 -40 -17 -73
t-47 -55v-128v0h-224v0v110v0q-26 12 -47 33l-2 2v0q-46 47 -47 113v0z" />
    <glyph glyph-name="hand-fist" unicode="&#x270a;" horiz-adv-x="448" 
d="M224 448v-144v144v-144h-64v0v144v0h64v0zM64 416h64h-64h64v-112v0h-64v0v112v0zM256 416h64h-64h64v-160v0h-64v0v160v0zM352 352h64h-64h64v-128v0h-64v0v128v0zM32 194v78v-78v78h192v0v-48v0v-32v0h-96h-16v-32v0h16h128v16v0v48v0h64v0v-32v0h96v0q0 -40 -17 -73
t-47 -55v-128v0h-224v0v110v0q-26 12 -47 33l-2 2v0q-46 47 -47 113v0z" />
    <glyph glyph-name="hand" unicode="&#x1f91a;" 
d="M288 416v32v-32v32h-64v0v-32v0v-224v0h-32v0v192v0v32v0h-64v0v-32v0v-272v0v-5l-43 42v0l-29 27v0l-56 -57v0l29 -28v0l96 -91v0q67 -63 160 -64h19v0q75 2 124 52q50 49 52 124v208v0v32v0h-64v0v-32v0v-128v0h-32v0v192v0v32v0h-64v0v-32v0v-192v0h-32v0v224v0z" />
    <glyph glyph-name="hand" unicode="&#xf256;" 
d="M288 416v32v-32v32h-64v0v-32v0v-224v0h-32v0v192v0v32v0h-64v0v-32v0v-272v0v-5l-43 42v0l-29 27v0l-56 -57v0l29 -28v0l96 -91v0q67 -63 160 -64h19v0q75 2 124 52q50 49 52 124v208v0v32v0h-64v0v-32v0v-128v0h-32v0v192v0v32v0h-64v0v-32v0v-192v0h-32v0v224v0z" />
    <glyph glyph-name="hand" unicode="&#x270b;" 
d="M288 416v32v-32v32h-64v0v-32v0v-224v0h-32v0v192v0v32v0h-64v0v-32v0v-272v0v-5l-43 42v0l-29 27v0l-56 -57v0l29 -28v0l96 -91v0q67 -63 160 -64h19v0q75 2 124 52q50 49 52 124v208v0v32v0h-64v0v-32v0v-128v0h-32v0v192v0v32v0h-64v0v-32v0v-192v0h-32v0v224v0z" />
    <glyph glyph-name="hand-peace" unicode="&#xf25b;" 
d="M256 448v-240v240v-240h-64v0v240v0h64v0zM352 288v-128v128v-128h-64v0v128v0h64v0zM384 256h64h-64h64v-128v0h-64v0v128v0zM102 378l74 -170l-74 170l74 -170h-70v0l-63 145v0l-13 29v0l59 25v0l12 -29h1zM64 85v91v-91v91h56h136v-48v0v-32v0h-96h-16v-32v0h16h128
v16v0v48v0h64v0v-32v0h96v0q-2 -68 -47 -113t-113 -47h-62v0q-66 1 -113 47l-11 11v0q-37 38 -38 91v0z" />
    <glyph glyph-name="hand-peace" unicode="&#x270c;" 
d="M256 448v-240v240v-240h-64v0v240v0h64v0zM352 288v-128v128v-128h-64v0v128v0h64v0zM384 256h64h-64h64v-128v0h-64v0v128v0zM102 378l74 -170l-74 170l74 -170h-70v0l-63 145v0l-13 29v0l59 25v0l12 -29h1zM64 85v91v-91v91h56h136v-48v0v-32v0h-96h-16v-32v0h16h128
v16v0v48v0h64v0v-32v0h96v0q-2 -68 -47 -113t-113 -47h-62v0q-66 1 -113 47l-11 11v0q-37 38 -38 91v0z" />
    <glyph glyph-name="pencil" unicode="&#xf303;" 
d="M10 -12l-10 -51l10 51l-10 -51l51 10v0l109 22v0l261 260v0l-16 16v0l-96 96v0l-16 16v0l-261 -260v0l-22 -109v0zM315 380l16 -16l-16 16l16 -16l96 -96v0l16 -16v0l35 35v0l34 34v0l-34 33v0l-60 61v0l-34 34v0l-34 -34v0l-35 -35v0zM100 97h12h-12h12v-48v0h48v0v-13
v0l-24 -23v0l-75 -15v0l15 75v0l24 24v0zM327 273l-12 -12l12 12l-12 -12l-144 -144v0l-11 -11v0l-23 22v0l12 12v0l144 144v0l11 11v0l23 -22v0z" />
    <glyph glyph-name="pencil" unicode="&#xf040;" 
d="M10 -12l-10 -51l10 51l-10 -51l51 10v0l109 22v0l261 260v0l-16 16v0l-96 96v0l-16 16v0l-261 -260v0l-22 -109v0zM315 380l16 -16l-16 16l16 -16l96 -96v0l16 -16v0l35 35v0l34 34v0l-34 33v0l-60 61v0l-34 34v0l-34 -34v0l-35 -35v0zM100 97h12h-12h12v-48v0h48v0v-13
v0l-24 -23v0l-75 -15v0l15 75v0l24 24v0zM327 273l-12 -12l12 12l-12 -12l-144 -144v0l-11 -11v0l-23 22v0l12 12v0l144 144v0l11 11v0l23 -22v0z" />
    <glyph glyph-name="pencil" unicode="&#x270f;" 
d="M10 -12l-10 -51l10 51l-10 -51l51 10v0l109 22v0l261 260v0l-16 16v0l-96 96v0l-16 16v0l-261 -260v0l-22 -109v0zM315 380l16 -16l-16 16l16 -16l96 -96v0l16 -16v0l35 35v0l34 34v0l-34 33v0l-60 61v0l-34 34v0l-34 -34v0l-35 -35v0zM100 97h12h-12h12v-48v0h48v0v-13
v0l-24 -23v0l-75 -15v0l15 75v0l24 24v0zM327 273l-12 -12l12 12l-12 -12l-144 -144v0l-11 -11v0l-23 22v0l12 12v0l144 144v0l11 11v0l23 -22v0z" />
    <glyph glyph-name="pen-nib" unicode="&#xf5ad;" 
d="M43 -43l21 -21l-21 21l21 -21l288 96v0l64 192v0l1 1v0l-128 128v0l-1 -1v0l-192 -64v0l-96 -288v0l21 -21v0l144 144v0q-5 10 -5 21q1 20 14 34q14 13 34 14q20 -1 34 -14q13 -14 14 -34q-1 -20 -14 -34q-14 -13 -34 -14q-11 0 -21 5l-144 -144v0zM311 375l128 -128
l-128 128l128 -128l73 73v0l-128 128v0l-73 -73v0z" />
    <glyph glyph-name="pen-nib" unicode="&#x2711;" 
d="M43 -43l21 -21l-21 21l21 -21l288 96v0l64 192v0l1 1v0l-128 128v0l-1 -1v0l-192 -64v0l-96 -288v0l21 -21v0l144 144v0q-5 10 -5 21q1 20 14 34q14 13 34 14q20 -1 34 -14q13 -14 14 -34q-1 -20 -14 -34q-14 -13 -34 -14q-11 0 -21 5l-144 -144v0zM311 375l128 -128
l-128 128l128 -128l73 73v0l-128 128v0l-73 -73v0z" />
    <glyph glyph-name="pen-fancy" unicode="&#x1f58b;" 
d="M97 56q-1 4 -1 8q0 14 9 23t23 9t23 -9t9 -23t-9 -23t-23 -9q-4 0 -8 1l-88 -88v0l192 55v0l38 100v0l-98 97v0l-100 -37v0l-55 -192v0l88 88v0zM275 131l237 221l-237 -221l237 221l-96 96v0l-221 -237v0l80 -80v0z" />
    <glyph glyph-name="pen-fancy" unicode="&#xf5ac;" 
d="M97 56q-1 4 -1 8q0 14 9 23t23 9t23 -9t9 -23t-9 -23t-23 -9q-4 0 -8 1l-88 -88v0l192 55v0l38 100v0l-98 97v0l-100 -37v0l-55 -192v0l88 88v0zM275 131l237 221l-237 -221l237 221l-96 96v0l-221 -237v0l80 -80v0z" />
    <glyph glyph-name="pen-fancy" unicode="&#x2712;" 
d="M97 56q-1 4 -1 8q0 14 9 23t23 9t23 -9t9 -23t-9 -23t-23 -9q-4 0 -8 1l-88 -88v0l192 55v0l38 100v0l-98 97v0l-100 -37v0l-55 -192v0l88 88v0zM275 131l237 221l-237 -221l237 221l-96 96v0l-221 -237v0l80 -80v0z" />
    <glyph glyph-name="check" unicode="&#xf00c;" horiz-adv-x="448" 
d="M448 305l-23 -22l23 22l-23 -22l-244 -230v0l-22 -21v0l-22 21v0l-114 107v0l-23 22v0l44 47v0l23 -22v0l92 -87v0l222 210v0l23 22v0l44 -47v0z" />
    <glyph glyph-name="check" unicode="&#x2714;" horiz-adv-x="448" 
d="M448 305l-23 -22l23 22l-23 -22l-244 -230v0l-22 -21v0l-22 21v0l-114 107v0l-23 22v0l44 47v0l23 -22v0l92 -87v0l222 210v0l23 22v0l44 -47v0z" />
    <glyph glyph-name="check" unicode="&#x2713;" horiz-adv-x="448" 
d="M448 305l-23 -22l23 22l-23 -22l-244 -230v0l-22 -21v0l-22 21v0l-114 107v0l-23 22v0l44 47v0l23 -22v0l92 -87v0l222 210v0l23 22v0l44 -47v0z" />
    <glyph glyph-name="cross" unicode="&#x1f547;" horiz-adv-x="384" 
d="M256 448h-128h128h-128v-128v0h-128v0v-128v0h128v0v-256v0h128v0v256v0h128v0v128v0h-128v0v128v0z" />
    <glyph glyph-name="cross" unicode="&#xf654;" horiz-adv-x="384" 
d="M256 448h-128h128h-128v-128v0h-128v0v-128v0h128v0v-256v0h128v0v256v0h128v0v128v0h-128v0v128v0z" />
    <glyph glyph-name="cross" unicode="&#x271d;" horiz-adv-x="384" 
d="M256 448h-128h128h-128v-128v0h-128v0v-128v0h128v0v-256v0h128v0v256v0h128v0v128v0h-128v0v128v0z" />
    <glyph glyph-name="star-of-david" unicode="&#xf69a;" 
d="M16 48h56h-56h147l69 -112v0h48v0l69 112v0h91h56v48v0l-5 8v0l-54 88v0l54 88v0l5 8v0v48v0h-56h-91l-69 112v0h-48v0l-69 -112v0h-91h-56v-48v0l5 -8v0l54 -88v0l-54 -88v0l-5 -8v0v-48v0zM108 138l21 -34l-21 34l21 -34h-42v0l21 34v0zM195 104l-54 88l54 -88l-54 88
l54 88v0h122v0l54 -88v0l-54 -88v0h-122v0zM229 48h54h-54h54l-27 -44v0l-27 44v0zM383 104l21 34l-21 -34l21 34l21 -34v0h-42v0zM404 245l-21 35l21 -35l-21 35h42v0l-21 -35v0zM283 336h-54h54h-54l27 44v0l27 -44v0zM129 280l-21 -35l21 35l-21 -35l-21 35v0h42v0z" />
    <glyph glyph-name="star-of-david" unicode="&#x2721;" 
d="M16 48h56h-56h147l69 -112v0h48v0l69 112v0h91h56v48v0l-5 8v0l-54 88v0l54 88v0l5 8v0v48v0h-56h-91l-69 112v0h-48v0l-69 -112v0h-91h-56v-48v0l5 -8v0l54 -88v0l-54 -88v0l-5 -8v0v-48v0zM108 138l21 -34l-21 34l21 -34h-42v0l21 34v0zM195 104l-54 88l54 -88l-54 88
l54 88v0h122v0l54 -88v0l-54 -88v0h-122v0zM229 48h54h-54h54l-27 -44v0l-27 44v0zM383 104l21 34l-21 -34l21 34l21 -34v0h-42v0zM404 245l-21 35l21 -35l-21 35h42v0l-21 -35v0zM283 336h-54h54h-54l27 44v0l27 -44v0zM129 280l-21 -35l21 35l-21 -35l-21 35v0h42v0z" />
    <glyph glyph-name="sparkles" unicode="&#xf890;" 
d="M384 384l32 64l-32 -64l32 64l32 -64v0l64 -32v0l-64 -32v0l-32 -64v0l-32 64v0l-64 32v0l64 32v0zM128 256l64 128l-64 -128l64 128l64 -128v0l128 -64v0l-128 -64v0l-64 -128v0l-64 128v0l-128 64v0l128 64v0zM416 128l32 -64l-32 64l32 -64l64 -32v0l-64 -32v0
l-32 -64v0l-32 64v0l-64 32v0l64 32v0l32 64v0z" />
    <glyph glyph-name="sparkles" unicode="&#x2728;" 
d="M384 384l32 64l-32 -64l32 64l32 -64v0l64 -32v0l-64 -32v0l-32 -64v0l-32 64v0l-64 32v0l64 32v0zM128 256l64 128l-64 -128l64 128l64 -128v0l128 -64v0l-128 -64v0l-64 -128v0l-64 128v0l-128 64v0l128 64v0zM416 128l32 -64l-32 64l32 -64l64 -32v0l-64 -32v0
l-32 -64v0l-32 64v0l-64 32v0l64 32v0l32 64v0z" />
    <glyph glyph-name="flower" unicode="&#x1f33c;" horiz-adv-x="448" 
d="M128 -32q59 2 96 43q37 -41 96 -43q54 1 91 37q36 37 37 91q-2 59 -43 96q41 37 43 96q-1 54 -37 91q-37 36 -91 37q-59 -2 -96 -43q-37 41 -96 43q-54 -1 -91 -37q-36 -37 -37 -91q2 -59 43 -96q-41 -37 -43 -96q1 -54 37 -91q37 -36 91 -37v0zM224 96l-96 96l96 -96
l-96 96l96 96v0l96 -96v0l-96 -96v0z" />
    <glyph glyph-name="flower" unicode="&#xf7ff;" horiz-adv-x="448" 
d="M128 -32q59 2 96 43q37 -41 96 -43q54 1 91 37q36 37 37 91q-2 59 -43 96q41 37 43 96q-1 54 -37 91q-37 36 -91 37q-59 -2 -96 -43q-37 41 -96 43q-54 -1 -91 -37q-36 -37 -37 -91q2 -59 43 -96q-41 -37 -43 -96q1 -54 37 -91q37 -36 91 -37v0zM224 96l-96 96l96 -96
l-96 96l96 96v0l96 -96v0l-96 -96v0z" />
    <glyph glyph-name="flower" unicode="&#x273f;" horiz-adv-x="448" 
d="M128 -32q59 2 96 43q37 -41 96 -43q54 1 91 37q36 37 37 91q-2 59 -43 96q41 37 43 96q-1 54 -37 91q-37 36 -91 37q-59 -2 -96 -43q-37 41 -96 43q-54 -1 -91 -37q-36 -37 -37 -91q2 -59 43 -96q-41 -37 -43 -96q1 -54 37 -91q37 -36 91 -37v0zM224 96l-96 96l96 -96
l-96 96l96 96v0l96 -96v0l-96 -96v0z" />
    <glyph glyph-name="snowflake" unicode="&#xf2dc;" horiz-adv-x="448" 
d="M256 416v32v-32v32h-64v0v-32v0v-30v0l-9 8v0l-17 17v0l-33 -33v0l17 -17v0l42 -43v0v-71v0l-61 36v0l-16 58v0l-6 23v0l-46 -12v0l6 -24v0l3 -11v0l-12 7v0l-28 16v0l-32 -56v0l28 -16v0l12 -7v0l-12 -3v0l-23 -6v0l13 -47v0l23 7v0l58 15v0l61 -35v0l-61 -35v0l-58 15
v0l-23 6v0l-13 -46v0l23 -6v0l12 -3v0l-12 -7v0l-28 -16v0l32 -56v0l28 16v0l12 7v0l-3 -11v0l-6 -24v0l46 -12v0l6 23v0l16 58v0l61 36v0v-71v0l-43 -43v0l-17 -17v0l34 -34v0l17 17v0l9 9v0v-30v0v-32v0h64v0v32v0v30v0l9 -9v0l17 -17v0l33 34v0l-17 17v0l-42 43v0v71v0
l61 -36v0l16 -58v0l6 -23v0l46 12v0l-6 23v0l-3 12v0l12 -7v0l28 -16v0l32 56v0l-28 16v0l-12 7v0l12 3v0l23 6v0l-12 46v0l-24 -6v0l-58 -15v0l-61 35v0l61 35v0l58 -15v0l24 -7v0l12 47v0l-23 6v0l-12 3v0l12 7v0l28 16v0l-32 56v0l-28 -16v0l-12 -7v0l3 12v0l6 23v0
l-46 12v0l-6 -23v0l-16 -58v0l-61 -36v0v71v0l43 43v0l17 17v0l-34 33v0l-17 -17v0l-9 -8v0v30v0z" />
    <glyph glyph-name="snowflake" unicode="&#x2746;" horiz-adv-x="448" 
d="M256 416v32v-32v32h-64v0v-32v0v-30v0l-9 8v0l-17 17v0l-33 -33v0l17 -17v0l42 -43v0v-71v0l-61 36v0l-16 58v0l-6 23v0l-46 -12v0l6 -24v0l3 -11v0l-12 7v0l-28 16v0l-32 -56v0l28 -16v0l12 -7v0l-12 -3v0l-23 -6v0l13 -47v0l23 7v0l58 15v0l61 -35v0l-61 -35v0l-58 15
v0l-23 6v0l-13 -46v0l23 -6v0l12 -3v0l-12 -7v0l-28 -16v0l32 -56v0l28 16v0l12 7v0l-3 -11v0l-6 -24v0l46 -12v0l6 23v0l16 58v0l61 36v0v-71v0l-43 -43v0l-17 -17v0l34 -34v0l17 17v0l9 9v0v-30v0v-32v0h64v0v32v0v30v0l9 -9v0l17 -17v0l33 34v0l-17 17v0l-42 43v0v71v0
l61 -36v0l16 -58v0l6 -23v0l46 12v0l-6 23v0l-3 12v0l12 -7v0l28 -16v0l32 56v0l-28 16v0l-12 7v0l12 3v0l23 6v0l-12 46v0l-24 -6v0l-58 -15v0l-61 35v0l61 35v0l58 -15v0l24 -7v0l12 47v0l-23 6v0l-12 3v0l12 7v0l28 16v0l-32 56v0l-28 -16v0l-12 -7v0l3 12v0l6 23v0
l-46 12v0l-6 -23v0l-16 -58v0l-61 -36v0v71v0l43 43v0l17 17v0l-34 33v0l-17 -17v0l-9 -8v0v30v0z" />
    <glyph glyph-name="snowflake" unicode="&#x2744;" horiz-adv-x="448" 
d="M256 416v32v-32v32h-64v0v-32v0v-30v0l-9 8v0l-17 17v0l-33 -33v0l17 -17v0l42 -43v0v-71v0l-61 36v0l-16 58v0l-6 23v0l-46 -12v0l6 -24v0l3 -11v0l-12 7v0l-28 16v0l-32 -56v0l28 -16v0l12 -7v0l-12 -3v0l-23 -6v0l13 -47v0l23 7v0l58 15v0l61 -35v0l-61 -35v0l-58 15
v0l-23 6v0l-13 -46v0l23 -6v0l12 -3v0l-12 -7v0l-28 -16v0l32 -56v0l28 16v0l12 7v0l-3 -11v0l-6 -24v0l46 -12v0l6 23v0l16 58v0l61 36v0v-71v0l-43 -43v0l-17 -17v0l34 -34v0l17 17v0l9 9v0v-30v0v-32v0h64v0v32v0v30v0l9 -9v0l17 -17v0l33 34v0l-17 17v0l-42 43v0v71v0
l61 -36v0l16 -58v0l6 -23v0l46 12v0l-6 23v0l-3 12v0l12 -7v0l28 -16v0l32 56v0l-28 16v0l-12 7v0l12 3v0l23 6v0l-12 46v0l-24 -6v0l-58 -15v0l-61 35v0l61 35v0l58 -15v0l24 -7v0l12 47v0l-23 6v0l-12 3v0l12 7v0l28 16v0l-32 56v0l-28 -16v0l-12 -7v0l3 12v0l6 23v0
l-46 12v0l-6 -23v0l-16 -58v0l-61 -36v0v71v0l43 43v0l17 17v0l-34 33v0l-17 -17v0l-9 -8v0v30v0z" />
    <glyph glyph-name="square-xmark" unicode="&#xf2d3;" horiz-adv-x="448" 
d="M448 416h-448h448h-448v-448v0h448v0v448v0zM322 256l-17 -17l17 17l-17 -17l-47 -47v0l47 -47v0l17 -17v0l-34 -34v0l-17 17v0l-47 47v0l-47 -47v0l-17 -17v0l-34 34v0l17 17v0l47 47v0l-47 47v0l-17 17v0l34 34v0l17 -17v0l47 -47v0l47 47v0l17 17v0l34 -34v0z" />
    <glyph glyph-name="square-xmark" unicode="&#x274e;" horiz-adv-x="448" 
d="M448 416h-448h448h-448v-448v0h448v0v448v0zM322 256l-17 -17l17 17l-17 -17l-47 -47v0l47 -47v0l17 -17v0l-34 -34v0l-17 17v0l-47 47v0l-47 -47v0l-17 -17v0l-34 34v0l17 17v0l47 47v0l-47 47v0l-17 17v0l34 34v0l17 -17v0l47 -47v0l47 47v0l17 17v0l34 -34v0z" />
    <glyph glyph-name="square-right" unicode="&#xf352;" horiz-adv-x="448" 
d="M448 -32v448v-448v448h-448v0v-448v0h448v0zM224 64v80v-80v80h-128v0v96v0h128v0v80v0h32v0l128 -128v0l-128 -128v0h-32v0z" />
    <glyph glyph-name="square-right" unicode="&#x27a1;" horiz-adv-x="448" 
d="M448 -32v448v-448v448h-448v0v-448v0h448v0zM224 64v80v-80v80h-128v0v96v0h128v0v80v0h32v0l128 -128v0l-128 -128v0h-32v0z" />
    <glyph glyph-name="turn-up" unicode="&#xf3bf;" horiz-adv-x="384" 
d="M192 448l160 -160l-160 160l160 -160v-32v0h-112v0v-320v0h-240v0v96v0h144v0v224v0h-112v0v32v0l160 160v0z" />
    <glyph glyph-name="turn-up" unicode="&#x2934;" horiz-adv-x="384" 
d="M192 448l160 -160l-160 160l160 -160v-32v0h-112v0v-320v0h-240v0v96v0h144v0v224v0h-112v0v32v0l160 160v0z" />
    <glyph glyph-name="turn-down" unicode="&#xf3be;" horiz-adv-x="384" 
d="M192 -64l160 160l-160 -160l160 160v32v0h-112v0v320v0h-240v0v-96v0h144v0v-224v0h-112v0v-32v0l160 -160v0z" />
    <glyph glyph-name="turn-down" unicode="&#x2935;" horiz-adv-x="384" 
d="M192 -64l160 160l-160 -160l160 160v32v0h-112v0v320v0h-240v0v-96v0h144v0v-224v0h-112v0v-32v0l160 -160v0z" />
    <glyph glyph-name="square-left" unicode="&#xf351;" horiz-adv-x="448" 
d="M0 416v-448v448v-448h448v0v448v0h-448v0zM224 320v-80v80v-80h128v0v-96v0h-128v0v-80v0h-32v0l-128 128v0l128 128v0h32v0z" />
    <glyph glyph-name="square-left" unicode="&#x2b05;" horiz-adv-x="448" 
d="M0 416v-448v448v-448h448v0v448v0h-448v0zM224 320v-80v80v-80h128v0v-96v0h-128v0v-80v0h-32v0l-128 128v0l128 128v0h32v0z" />
    <glyph glyph-name="square-up" unicode="&#xf353;" horiz-adv-x="448" 
d="M448 416h-448h448h-448v-448v0h448v0v448v0zM352 192h-80h80h-80v-128v0h-96v0v128v0h-80v0v32v0l128 128v0l128 -128v0v-32v0z" />
    <glyph glyph-name="square-up" unicode="&#x2b06;" horiz-adv-x="448" 
d="M448 416h-448h448h-448v-448v0h448v0v448v0zM352 192h-80h80h-80v-128v0h-96v0v128v0h-80v0v32v0l128 128v0l128 -128v0v-32v0z" />
    <glyph glyph-name="square-down" unicode="&#xf350;" horiz-adv-x="448" 
d="M0 -32h448h-448h448v448v0h-448v0v-448v0zM96 192h80h-80h80v128v0h96v0v-128v0h80v0v-32v0l-128 -128v0l-128 128v0v32v0z" />
    <glyph glyph-name="square-down" unicode="&#x2b07;" horiz-adv-x="448" 
d="M0 -32h448h-448h448v448v0h-448v0v-448v0zM96 192h80h-80h80v128v0h96v0v-128v0h80v0v-32v0l-128 -128v0l-128 128v0v32v0z" />
    <glyph glyph-name="square-full" unicode="&#x1f7eb;" 
d="M0 448h512h-512h512v-512v0h-512v0v512v0z" />
    <glyph glyph-name="square-full" unicode="&#x1f7ea;" 
d="M0 448h512h-512h512v-512v0h-512v0v512v0z" />
    <glyph glyph-name="square-full" unicode="&#x1f7e9;" 
d="M0 448h512h-512h512v-512v0h-512v0v512v0z" />
    <glyph glyph-name="square-full" unicode="&#x1f7e8;" 
d="M0 448h512h-512h512v-512v0h-512v0v512v0z" />
    <glyph glyph-name="square-full" unicode="&#x1f7e7;" 
d="M0 448h512h-512h512v-512v0h-512v0v512v0z" />
    <glyph glyph-name="square-full" unicode="&#x1f7e6;" 
d="M0 448h512h-512h512v-512v0h-512v0v512v0z" />
    <glyph glyph-name="square-full" unicode="&#x1f7e5;" 
d="M0 448h512h-512h512v-512v0h-512v0v512v0z" />
    <glyph glyph-name="square-full" unicode="&#xf45c;" 
d="M0 448h512h-512h512v-512v0h-512v0v512v0z" />
    <glyph glyph-name="square-full" unicode="&#x2b1c;" 
d="M0 448h512h-512h512v-512v0h-512v0v512v0z" />
    <glyph glyph-name="square-full" unicode="&#x2b1b;" 
d="M0 448h512h-512h512v-512v0h-512v0v512v0z" />
    <glyph glyph-name="hexagon" unicode="&#xf312;" 
d="M128 416l-128 -224l128 224l-128 -224l128 -224v0h256v0l128 224v0l-128 224v0h-256v0z" />
    <glyph glyph-name="hexagon" unicode="&#x2b23;" 
d="M128 416l-128 -224l128 224l-128 -224l128 -224v0h256v0l128 224v0l-128 224v0h-256v0z" />
    <glyph glyph-name="star" unicode="&#xf006;" horiz-adv-x="576" 
d="M288 448l87 -164l-87 164l87 -164l182 -32v0l-129 -133v0l26 -183v0l-166 82v0l-166 -82v0l26 183v0l-129 133v0l183 32v0l86 164v0z" />
    <glyph glyph-name="star" unicode="&#xf005;" horiz-adv-x="576" 
d="M288 448l87 -164l-87 164l87 -164l182 -32v0l-129 -133v0l26 -183v0l-166 82v0l-166 -82v0l26 183v0l-129 133v0l183 32v0l86 164v0z" />
    <glyph glyph-name="star" unicode="&#x2b50;" horiz-adv-x="576" 
d="M288 448l87 -164l-87 164l87 -164l182 -32v0l-129 -133v0l26 -183v0l-166 82v0l-166 -82v0l26 183v0l-129 133v0l183 32v0l86 164v0z" />
    <glyph glyph-name="right" unicode="&#xf356;" horiz-adv-x="448" 
d="M448 192l-192 192l192 -192l-192 192h-32v0v-128v0h-224v0v-128v0h224v0v-128v0h32v0l192 192v0z" />
    <glyph glyph-name="right" unicode="&#x2b95;" horiz-adv-x="448" 
d="M448 192l-192 192l192 -192l-192 192h-32v0v-128v0h-224v0v-128v0h224v0v-128v0h32v0l192 192v0z" />
    <glyph glyph-name="caravan-simple" unicode="&#xe000;" horiz-adv-x="640" 
d="M416 416h-416h416h-416v-384v0h96v0q1 -41 28 -68t68 -28q41 1 68 28t28 68h288h64v64v0h-32h-32v160v0q-2 68 -47 113t-113 47v0zM64 320h192h-192h192v-128v0h-192v0v128v0zM448 320v-128v128v-128h-128v0v128v0h128v0zM144 32q1 27 24 42q24 12 48 0q23 -15 24 -42
q-1 -27 -24 -42q-24 -12 -48 0q-23 15 -24 42v0z" />
    <glyph glyph-name="cat-space" unicode="&#xe001;" horiz-adv-x="640" 
d="M576 288q-1 -54 -37 -91v0v0q-37 -36 -91 -37q-54 1 -91 37q-36 37 -37 91q1 50 32 85v-85v0q1 -41 28 -68t68 -28q41 1 68 28t28 68v85v0q31 -35 32 -85v0zM416 352l-41 41l41 -41l-41 41q32 22 73 23q41 -1 73 -23l-41 -41v0h-64v0zM480 131q56 12 91 55v0v0
q36 43 37 102q-2 68 -47 113t-113 47q-68 -2 -113 -47t-47 -113q0 -18 4 -34q-42 -7 -76 -28q-34 -22 -56 -56v86v0q-1 41 -28 68t-68 28h-32v0v-64v0h32v0q14 0 23 -9t9 -23v-288v0v-32v0h32h240v64v0h-32h-56l136 109v0v-141v0v-32v0h64v0v32v0v163v0zM400 288q1 15 16 16
q15 -1 16 -16q-1 -15 -16 -16q-15 1 -16 16v0zM480 304q15 -1 16 -16q-1 -15 -16 -16q-15 1 -16 16q1 15 16 16v0zM241 401l-17 47l17 -47l-17 47l-17 -47v0l-47 -17v0l47 -17v0l17 -47v0l17 47v0l47 17v0l-47 17v0z" />
    <glyph glyph-name="coffee-pot" unicode="&#xe002;" 
d="M32 416h-32h32h-32v-32v0v-128v0v-32v0h64v0v32v0v96v0h53v0l28 -83v0q-37 -27 -59 -67q-22 -41 -22 -90v-8v0q1 -40 19 -71q17 -30 34 -48q18 -17 19 -17h304v0q1 0 19 17q17 18 34 48q18 31 19 71v8v0q0 49 -22 90q-22 40 -59 67l49 147v0h-256h-192zM194 224h188h-188
h188q26 -15 44 -40q17 -25 21 -56h-318v0q4 31 21 56q18 25 44 40v0z" />
    <glyph glyph-name="comet" unicode="&#xe003;" 
d="M512 448l-213 -76l213 76l-213 -76l5 60v0l-203 -117v0q-47 -28 -74 -75q-27 -46 -27 -101q2 -86 59 -144q58 -57 144 -59q55 0 101 27q47 27 75 74l117 203v0l-60 -5v0l76 213v0zM232 172l88 -13l-88 13l88 -13l-64 -61v0l15 -87v0l-79 41v0l-79 -41v0l15 87v0l-64 61v0
l88 13v0l40 79v0l40 -79v0z" />
    <glyph glyph-name="fan-table" unicode="&#xe004;" horiz-adv-x="448" 
d="M256 34q76 14 125 70v0v0q49 56 51 136q-2 88 -61 147t-147 61q-88 -2 -147 -61t-61 -147q2 -80 51 -136t125 -70v-34v0h-96h-32v-64v0h32h288v64v0h-32h-96v34v0zM179 394l45 -112l-45 112l45 -112q15 19 36 29q22 9 48 6q36 -6 58 -34q21 -28 17 -65l-3 -16v0l-120 17
v0q10 -22 7 -46q-2 -24 -18 -44q-24 -29 -59 -33q-34 -4 -64 18l-13 10v0l75 95v0q-24 3 -43 17q-20 14 -30 38q-13 35 1 67t48 47l15 6v0zM224 224q15 1 16 16q-1 15 -16 16q-15 -1 -16 -16q1 -15 16 -16v0z" />
    <glyph glyph-name="faucet" unicode="&#xe005;" 
d="M192 384v-45v45v-45l-128 13v0v-64v0l128 13v0l31 3v0h1v0v0v0v0v0h1v0l31 -3v0l128 -13v0v64v0l-128 -13v0v45v0h-64v0zM160 224l-32 -32l32 32l-32 -32h-128v0v-128v0h132v0q33 -46 92 -48q59 2 92 48h36v0q14 0 23 -9t9 -23v-32v0h128v0v32v0q-2 68 -47 113t-113 47
h-32v0l-32 32v0h-32v0v45v0l-32 3v0l-32 -3v0v-45v0h-32v0z" />
    <glyph glyph-name="faucet-drip" unicode="&#x1f6b0;" 
d="M256 448v-45v45v-45l128 13v0v-64v0l-128 13v0l-31 3v0h-1v0v0v0v0v0h-1v0l-31 -3v0l-128 -13v0v64v0l128 -13v0v45v0h64v0zM128 256l32 32l-32 -32l32 32h32v0v45v0l32 3v0l32 -3v0v-45v0h32v0l32 -32v0h32v0q68 -2 113 -47t47 -113v-32v0h-128v0v32v0q0 14 -9 23t-23 9
h-36v0q-33 -46 -92 -48q-59 2 -92 48h-132v0v128v0h128v0zM448 32l28 -49l-28 49l28 -49q4 -7 4 -15q0 -14 -9 -23t-23 -9v0v0q-14 0 -23 9t-9 23q0 8 4 15l28 49v0z" />
    <glyph glyph-name="faucet-drip" unicode="&#xe006;" 
d="M256 448v-45v45v-45l128 13v0v-64v0l-128 13v0l-31 3v0h-1v0v0v0v0v0h-1v0l-31 -3v0l-128 -13v0v64v0l128 -13v0v45v0h64v0zM128 256l32 32l-32 -32l32 32h32v0v45v0l32 3v0l32 -3v0v-45v0h32v0l32 -32v0h32v0q68 -2 113 -47t47 -113v-32v0h-128v0v32v0q0 14 -9 23t-23 9
h-36v0q-33 -46 -92 -48q-59 2 -92 48h-132v0v128v0h128v0zM448 32l28 -49l-28 49l28 -49q4 -7 4 -15q0 -14 -9 -23t-23 -9v0v0q-14 0 -23 9t-9 23q0 8 4 15l28 49v0z" />
    <glyph glyph-name="galaxy" unicode="&#xe008;" 
d="M336 448h32h-32h32l-13 -8v0q-39 -24 -62 -62q-24 -38 -28 -83q25 9 55 9h9h3t5 -1q75 -8 124 -61t51 -130v-32v0l-8 13v0q-24 39 -62 62q-38 24 -83 28q9 -25 9 -55v-9v-3t-1 -5q-8 -75 -61 -124t-130 -51h-32v0l13 8v0q39 24 62 62q24 38 28 83q-25 -9 -55 -9h-9h-2
q-3 0 -6 1q-75 8 -124 61t-51 130v32v0l8 -13v0q24 -39 62 -62q38 -24 83 -28q-9 25 -9 55v9v2q0 3 1 6q8 75 61 124t130 51v0zM256 152l40 40l-40 -40l40 40l-40 40v0l-40 -40v0l40 -40v0z" />
    <glyph glyph-name="garage" unicode="&#xe009;" horiz-adv-x="640" 
d="M0 320v-384v384v-384h96v0v320v0h448v0v-320v0h96v0v384v0l-320 128v0l-320 -128v0zM512 224h-384h384h-384v-96v0h384v0v96v0zM128 -64h384h-384h384v160v0h-384v0v-160v0zM256 32h16h-16h128v-32v0h-16h-112v32v0z" />
    <glyph glyph-name="garage-car" unicode="&#xe00a;" horiz-adv-x="640" 
d="M0 -64v384v-384v384l320 128v0l320 -128v0v-384v0h-96v0v320v0h-448v0v-320v0h-96v0zM224 208h192h-192h208l6 -15v0l40 -103v0l2 -4v0v-4v0v-26v0v-24v0v-64v0v-32v0h-64v0v32v0v16v0h-192v0v-16v0v-32v0h-64v0v32v0v64v0v24v0v24v0v4v0l2 5v0l40 104v0l6 15v0h16v0z
M418 112l-18 48l18 -48l-18 48h-159v0l-19 -48v0h196v0zM240 24q22 2 24 24q-2 22 -24 24q-22 -2 -24 -24q2 -22 24 -24v0zM424 48q-2 22 -24 24q-22 -2 -24 -24q2 -22 24 -24q22 2 24 24v0z" />
    <glyph glyph-name="garage-open" unicode="&#xe00b;" horiz-adv-x="640" 
d="M0 320v-384v384v-384h96v0v320v0h448v0v-320v0h96v0v384v0l-320 128v0l-320 -128v0zM177 128l-15 -39l15 39l-15 -39l-2 -5v0v-4v0v-24v0v-24v0v-64v0v-32v0h64v0v32v0v16v0h192v0v-16v0v-32v0h64v0v32v0v64v0v24v0v26v0v4v0l-2 4v0l-14 38v0h-52v0l6 -16v0h-196v0l6 16
v0h-51v0zM240 72q22 -2 24 -24q-2 -22 -24 -24q-22 2 -24 24q2 22 24 24v0zM376 48q2 22 24 24q22 -2 24 -24q-2 -22 -24 -24q-22 2 -24 24v0zM512 224h-384h384h-384v-64v0h384v0v64v0z" />
    <glyph glyph-name="heat" unicode="&#xe00c;" horiz-adv-x="448" 
d="M208 416v-32v32v-32v-80v0q0 -53 32 -96l19 -26v0q44 -60 45 -134v-48v0v-32v0h-64v0v32v0v48v0q0 53 -32 96l-19 26v0q-44 60 -45 134v80v0v32v0h64v0zM64 352v-32v32v-32v-32v0q0 -53 32 -96l19 -26v0q44 -60 45 -134v-32v0v-32v0h-64v0v32v0v32v0q0 53 -32 96l-19 26
v0q-44 60 -45 134v32v0v32v0h64v0zM352 320v-32v32v-32q0 -53 32 -96l19 -26v0q44 -60 45 -134v-32v0v-32v0h-64v0v32v0v32v0q0 53 -32 96l-19 26v0q-44 60 -45 134v32v0v32v0h64v0v-32v0z" />
    <glyph glyph-name="house-chimney-window" unicode="&#xe00d;" horiz-adv-x="576" 
d="M576 160h-64h64h-64l1 -224v0h-449v0v224v0h-64v0v48v0l288 240v0l128 -107v0v75v0h96v0v-155v0l64 -53v0v-48v0zM352 256h-128h128h-128v-128v0h128v0v128v0z" />
    <glyph glyph-name="house-day" unicode="&#xe00e;" horiz-adv-x="640" 
d="M160 448l-40 -62l40 62l-40 -62l-73 15v0l16 -73v0l-63 -40v0l62 -40v0l-15 -73v0l73 15v0l16 -25v0l3 3v0l52 45v0q-14 -6 -31 -6q-34 1 -57 23q-22 23 -23 57q1 34 23 57q23 22 57 23q34 -1 57 -23q22 -23 23 -57q0 -23 -11 -41l67 58v0l-38 24v0l15 73v0l-73 -15v0
l-40 62v0zM208 288q-1 27 -24 42q-24 12 -48 0q-23 -15 -24 -42q1 -27 24 -42q24 -12 48 0q23 15 24 42v0zM400 352l-240 -208l240 208l-240 -208v-48v0h64v0v-160v0h352v0v160v0h64v0v48v0l-240 208v0zM352 160h96h-96h96v-96v0h-96v0v96v0z" />
    <glyph glyph-name="house-person-leave" unicode="&#xe00f;" horiz-adv-x="640" 
d="M376 330l-136 118l136 -118l-136 118l-240 -208v0v-48v0h64v0v-160v0h254v0l44 44v0l22 56v0l4 10v0l-10 3v0l-61 20v0l-30 10v0l10 31v0l31 92v0l4 13v0l13 6v0l31 13v0zM128 256h96h-96h96v-96v0h-96v0v96v0zM528 352q27 1 42 24q12 24 0 48q-15 23 -42 24
q-27 -1 -42 -24q-12 -24 0 -48q15 -23 42 -24v0zM452 321l-9 -4l9 4l-9 -4l-72 -32v0l-13 -5v0l-4 -14v0l-16 -48v0l-10 -30v0l60 -20v0l10 30v0l12 35v0l37 16v0l-17 -64v0q-8 -33 14 -59l71 -78v0l22 -80v0l9 -31v0l61 17v0l-8 30v0l-24 88v0l-2 8v0l-5 6v0l-53 57v0
l19 62v0l13 -27v0l5 -10v0l10 -5v0l48 -24v0l28 58v0l-38 19v0l-35 70v0l-7 14v0l-16 3v0l-80 16v0l-10 2v0zM414 112l-25 -62l25 62l-25 -62l-44 -43v0l-22 -23v0l45 -45v0l23 22v0l48 48v0l4 5v0l3 6v0l15 39v0l-40 45v0q-4 4 -7 8v0z" />
    <glyph glyph-name="house-night" unicode="&#xe010;" horiz-adv-x="640" 
d="M88 360q0 29 16 51v0v0q16 22 42 32q-16 5 -34 5q-48 -1 -79 -33q-32 -31 -33 -79q1 -48 33 -79q31 -32 79 -33q31 0 56 15q25 14 40 39q-15 -6 -32 -6q-37 1 -62 26t-26 62v0zM256 448l-21 -43l21 43l-21 -43l-43 -21v0l43 -21v0l21 -43v0l21 43v0l43 21v0l-43 21v0
l-21 43v0zM400 352l-240 -208l240 208l-240 -208v-48v0h64v0v-160v0h352v0v160v0h64v0v48v0l-240 208v0zM352 160h96h-96h96v-96v0h-96v0v96v0zM75 85l-43 -21l43 21l-43 -21l43 -21v0l21 -43v0l21 43v0l43 21v0l-43 21v0l-21 43v0l-21 -43v0z" />
    <glyph glyph-name="house-person-return" unicode="&#xe011;" horiz-adv-x="640" 
d="M381 326l-6 -11l6 11l-6 -11l-38 -75v0l-29 -15v0l-28 -14v0l14 -29v0l29 -57v0l14 -28v0l29 14v0l13 7v0l-14 -16v0l-6 -6v0l-2 -8v0l-15 -56v0h-278v0v160v0h-64v0v48v0l240 208v0l141 -122v0zM128 256v-96v96v-96h96v0v96v0h-96v0zM432 448q27 -1 42 -24q12 -24 0 -48
q-15 -23 -42 -24q-27 1 -42 24q-12 24 0 48q15 23 42 24v0zM508 321l9 -4l-9 4l9 -4l72 -32v0l13 -5v0l4 -14v0l16 -48v0l11 -30v0l-61 -20v0l-10 30v0l-12 35v0l-36 16v0l17 -64v0q7 -33 -15 -59l-71 -78v0l-22 -80v0l-8 -31v0l-62 17v0l8 30v0l24 88v0l2 8v0l5 6v0l53 57
v0l-19 62v0l-13 -27v0l-5 -10v0l-10 -5v0l-48 -24v0l-28 58v0l38 19v0l35 70v0l7 14v0l16 3v0l80 16v0l10 2v0zM546 112l25 -62l-25 62l25 -62l44 -43v0l22 -23v0l-45 -45v0l-23 22v0l-48 48v0l-4 5v0l-3 6v0l-15 39v0l40 45v0q4 4 7 8v0z" />
    <glyph glyph-name="house-signal" unicode="&#xe012;" horiz-adv-x="576" 
d="M336 448l-240 -208l240 208l-240 -208v-32v0q62 -23 108 -68q45 -46 68 -108h240v0v160v0h64v0v48v0l-240 208v0zM288 256h96h-96h96v-96v0h-96v0v96v0zM0 144q88 -2 147 -61v0v0q59 -59 61 -147h48v0q-1 72 -35 129q-34 58 -92 92q-57 34 -129 35v-48v0zM32 -64
q14 0 23 9v0v0q9 9 9 23t-9 23t-23 9t-23 -9t-9 -23t9 -23t23 -9v0zM112 -64h48h-48h48q-2 68 -47 113t-113 47v-48v0q48 -1 79 -33q32 -31 33 -79v0z" />
    <glyph glyph-name="lamp-desk" unicode="&#xe014;" 
d="M258 448q-28 -1 -47 -19v0v0q-18 -19 -19 -47q0 -27 19 -47l4 -3v0l-110 -118v0l-12 -13v0l4 -17v0l46 -184v0h-111h-32v-64v0h32h151h1h1h167h32v64v0h-32h-143l-46 183v0l93 99v0v-106v0l48 -48v0l80 80v0l48 48v0l80 80v0l-48 48v0h-115v0l-44 45v0q-20 19 -47 19v0z
M480 208q-1 22 -15 35l-68 -68v0q13 -14 35 -15q20 1 34 14q13 14 14 34v0z" />
    <glyph glyph-name="lamp-floor" unicode="&#xe015;" horiz-adv-x="640" 
d="M128 224l64 224l-64 -224l64 224h256v0l64 -224v0h-384v0zM288 192h64h-64h64v-192v0h64h32v-64v0h-32h-224v64v0h32h64v192v0z" />
    <glyph glyph-name="light-ceiling" unicode="&#xe016;" 
d="M224 286v162v-162v162h64v0v-162v0q97 -14 159 -84q63 -70 65 -170h-512v0q2 100 65 170q62 70 159 84v0zM256 -64q-27 1 -45 19v0v0q-18 18 -19 45h128v0q-1 -27 -19 -45t-45 -19v0z" />
    <glyph glyph-name="light-switch" unicode="&#xe017;" horiz-adv-x="384" 
d="M384 448h-384h384h-384v-512v0h384v0v512v0zM96 176h192h-192h192v-144v0h-192v0v144v0zM96 208v144v-144v144h192v0v-144v0h-192v0zM192 416q15 -1 16 -16q-1 -15 -16 -16q-15 1 -16 16q1 15 16 16v0zM192 0q15 -1 16 -16q-1 -15 -16 -16q-15 1 -16 16q1 15 16 16v0z
" />
    <glyph glyph-name="light-switch-off" unicode="&#xe018;" horiz-adv-x="384" 
d="M384 -64h-384h384h-384v512v0h384v0v-512v0zM96 32h192h-192h192v320v0h-192v0v-320v0zM192 0q-15 -1 -16 -16q1 -15 16 -16q15 1 16 16q-1 15 -16 16v0zM192 416q-15 -1 -16 -16q1 -15 16 -16q15 1 16 16q-1 15 -16 16v0zM256 64h-128h128h-128v128v0h128v0v-128v0z" />
    <glyph glyph-name="light-switch-on" unicode="&#xe019;" horiz-adv-x="384" 
d="M384 448h-384h384h-384v-512v0h384v0v512v0zM96 352h192h-192h192v-320v0h-192v0v320v0zM192 416q15 -1 16 -16q-1 -15 -16 -16q-15 1 -16 16q1 15 16 16v0zM192 0q15 -1 16 -16q-1 -15 -16 -16q-15 1 -16 16q1 15 16 16v0zM256 320h-128h128h-128v-128v0h128v0v128v0z
" />
    <glyph glyph-name="microwave" unicode="&#xe01b;" horiz-adv-x="576" 
d="M0 416h576h-576h576v-416v0h-64v0v-32v0h-64v0v32v0h-320v0v-32v0h-64v0v32v0h-64v0v416v0zM96 320v-224v224v-224h320v0v224v0h-320v0zM512 336h-32h32h-32v-256v0h32v0v256v0z" />
    <glyph glyph-name="outlet" unicode="&#xe01c;" horiz-adv-x="448" 
d="M448 416h-448h448h-448v-448v0h448v0v448v0zM64 192q1 44 17 72v0v0q15 29 30 42v0v0q16 14 17 14h192v0q1 0 17 -14q15 -13 30 -42q16 -28 17 -72q-1 -44 -17 -72q-15 -29 -30 -42q-16 -14 -17 -14h-192v0q-1 0 -17 14q-15 13 -30 42q-16 28 -17 72v0zM176 256h-32h32
h-32v-16v0v-48v0v-16v0h32v0v16v0v48v0v16v0zM304 256h-32h32h-32v-16v0v-48v0v-16v0h32v0v16v0v48v0v16v0zM224 160q-22 -2 -24 -24v-24v0h48v0v24v0q-2 22 -24 24v0z" />
    <glyph glyph-name="oven" unicode="&#xe01d;" horiz-adv-x="448" 
d="M0 448v-160v160v-160h448v0v160v0h-448v0zM56 368q2 22 24 24q22 -2 24 -24q-2 -22 -24 -24q-22 2 -24 24v0zM176 392q22 -2 24 -24q-2 -22 -24 -24q-22 2 -24 24q2 22 24 24v0zM248 368q2 22 24 24q22 -2 24 -24q-2 -22 -24 -24q-22 2 -24 24v0zM368 392q22 -2 24 -24
q-2 -22 -24 -24q-22 2 -24 24q2 22 24 24v0zM384 192v-192v192v-192h-320v0v192v0h320v0zM64 256h-64h64h-64v-64v0v-192v0v-64v0h64h384v64v0v192v0v64v0h-64h-320zM336 160h-224h224h-240v-32v0h16h240v32v0h-16v0z" />
    <glyph glyph-name="planet-moon" unicode="&#xe01f;" horiz-adv-x="576" 
d="M512 448q36 -1 55 -32q18 -32 0 -64q-19 -31 -55 -32q-36 1 -55 32q-18 32 0 64q19 31 55 32v0zM0 160q1 61 30 112v0v0q30 51 82 82q53 30 112 30t112 -30q52 -31 82 -82q29 -51 30 -112q-1 -61 -30 -112q-30 -51 -82 -82q-53 -30 -112 -30t-112 30q-52 31 -82 82
q-29 51 -30 112v0zM256 333q-16 3 -32 3q-66 -1 -113 -41t-60 -103h77v0l64 -64v0v-64v0h32v0v-72v0h40v0l56 104v0v64v0h-112v0l-32 32v0l80 96v0v45v0z" />
    <glyph glyph-name="planet-ringed" unicode="&#x1fa90;" 
d="M320 128q94 97 133 166v0v0q39 70 46 108v0v0q7 37 5 38v0v0v0q-1 2 -42 -6t-117 -54q-41 20 -89 20q-88 -2 -147 -61t-61 -147q0 -48 20 -89q-46 -76 -54 -117t-6 -42q1 -2 38 5q38 7 107 46q70 39 167 133v0zM256 -16q88 2 147 61v0v0q59 59 61 147q0 26 -6 51
q-41 -61 -116 -137q-76 -75 -137 -116q25 -6 51 -6v0z" />
    <glyph glyph-name="planet-ringed" unicode="&#xe020;" 
d="M320 128q94 97 133 166v0v0q39 70 46 108v0v0q7 37 5 38v0v0v0q-1 2 -42 -6t-117 -54q-41 20 -89 20q-88 -2 -147 -61t-61 -147q0 -48 20 -89q-46 -76 -54 -117t-6 -42q1 -2 38 5q38 7 107 46q70 39 167 133v0zM256 -16q88 2 147 61v0v0q59 59 61 147q0 26 -6 51
q-41 -61 -116 -137q-76 -75 -137 -116q25 -6 51 -6v0z" />
    <glyph glyph-name="police-box" unicode="&#xe021;" horiz-adv-x="384" 
d="M208 448v-16v16v-16v-16v0h112v0v-32v0h32v0v-384v0h32v0v-64v0h-384v0v64v0h32v0v384v0h32v0v32v0h112v0v16v0v16v0h32v0zM96 320v-32v32v-32h32v0v32v0h-32v0zM96 272v-32v32v-32h32v0v32v0h-32v0zM176 320h-32h32h-32v-32v0h32v0v32v0zM144 272v-32v32v-32h32v0v32v0
h-32v0zM240 320h-32h32h-32v-32v0h32v0v32v0zM240 272h-32h32h-32v-32v0h32v0v32v0zM256 320v-32v32v-32h32v0v32v0h-32v0zM288 272h-32h32h-32v-32v0h32v0v32v0zM96 208v-80v80v-80h80v0v80v0h-80v0z" />
    <glyph glyph-name="person-to-portal" unicode="&#xe022;" 
d="M224 400q1 27 24 42q24 12 48 0q23 -15 24 -42q-1 -27 -24 -42q-24 -12 -48 0q-23 15 -24 42v0zM115 352h13h-13h83l6 -2v0l80 -32v0l11 -5v0l6 -11v0l39 -78v0h13v0q4 97 26 159q22 63 53 65q34 -3 57 -75q22 -72 23 -181q-1 -109 -23 -181q-23 -72 -57 -75
q-31 2 -53 65q-22 62 -26 159h-33h-20l-9 18v0l-24 48v0l-29 -77v0l67 -42v0l20 -13v0l-6 -23v0l-16 -56v0l-16 -56v0l-7 -23v0h-66v0l11 41v0l16 56v0l10 33v0l-86 53v0q-20 13 -27 33t0 42l31 94v0h-28v0l-38 -39v0l-23 -22v0l-45 45v0l22 23v0l48 48v0l10 9v0zM91 96
l19 41l-19 -41l19 41q11 -27 37 -45l10 -6v0l-16 -35v0l-8 -19v0h-21h-112v64v0h32h59z" />
    <glyph glyph-name="person-from-portal" unicode="&#xe023;" 
d="M154 96q6 45 6 96q0 27 -2 52l18 -17v0l23 22v0l38 39v0h28v0l-31 -94v0q-7 -22 0 -42t27 -33l86 -53v0l-10 -33v0l-16 -56v0l-11 -41v0h66v0l7 23v0l16 56v0l16 56v0l6 23v0l-20 13v0l-67 42v0l29 77v0l24 -48v0l9 -18v0h20h80v64v0h-32h-28l-39 78v0l-6 11v0l-11 5v0
l-80 32v0l-6 2v0h-6h-77l-10 -9v0l-48 -48v0v-1v0q-9 69 -29 111q-19 42 -44 43q-34 -3 -57 -75q-22 -72 -23 -181q1 -109 23 -181q23 -72 57 -75q19 1 35 26q16 26 28 70h65h21l8 19v0l16 35v0l-9 6v0q-27 17 -38 45l-19 -41v0h-33v0zM416 400q-1 27 -24 42q-24 12 -48 0
q-23 -15 -24 -42q1 -27 24 -42q24 -12 48 0q23 15 24 42v0z" />
    <glyph glyph-name="radar" unicode="&#xe024;" 
d="M305 275q-22 13 -49 13q-41 -1 -68 -28t-28 -68q1 -41 28 -68t68 -28q41 1 68 28t28 68h64v0q-1 -56 -33 -98q-33 -41 -84 -56q-14 25 -43 26q-29 -1 -43 -26q-39 11 -68 38q-28 28 -41 66q23 14 24 42q-2 31 -28 44q13 54 56 89q42 34 100 35q54 -1 95 -31l23 23v0
q-50 39 -118 40q-71 -1 -122 -44q-51 -42 -66 -110q-16 -4 -26 -16q-10 -13 -10 -30q0 -18 12 -31q11 -13 28 -16q15 -49 51 -84q36 -34 86 -47q4 -17 17 -27q12 -11 30 -11t30 11q13 10 17 27q64 17 104 67t41 119h64v0q-1 -72 -35 -129q-34 -58 -92 -92q-57 -34 -129 -35
q-72 1 -129 35q-58 34 -92 92q-34 57 -35 129q1 72 35 129q34 58 92 92q57 34 129 35q95 -2 163 -59l36 36v0l17 17v0l34 -34v0l-17 -17v0l-174 -174v0q5 -12 5 -25q-1 -27 -19 -45t-45 -19q-27 1 -45 19t-19 45q1 27 19 45t45 19q14 0 25 -5l24 24v0z" />
    <glyph glyph-name="raygun" unicode="&#xe025;" horiz-adv-x="576" 
d="M192 384h96h-96h96v8v0v24v0h48v0v-24v0v-240v0v-24v0h-48v0v24v0v8v0l-112 -224v0l-128 64v0l80 160v0h-16v0q-48 1 -79 33q-32 31 -33 79q0 34 18 61q17 26 46 40v75v0l128 -64v0zM416 384v-24v24v-24v-56v0h64v0l96 48v0v-160v0l-96 48v0h-64v0v-56v0v-24v0h-48v0v24
v0v176v0v24v0h48v0zM136 272q-2 22 -24 24q-22 -2 -24 -24q2 -22 24 -24q22 2 24 24v0zM208 248q22 2 24 24q-2 22 -24 24q-22 -2 -24 -24q2 -22 24 -24v0z" />
    <glyph glyph-name="refrigerator" unicode="&#xe026;" horiz-adv-x="384" 
d="M384 448h-384h384h-384v-160v0h288v0v48v0v16v0h32v0v-16v0v-48v0h64v0v160v0zM384 256h-64h64h-64v-176v0v-16v0h-32v0v16v0v176v0h-288v0v-320v0h384v0v320v0z" />
    <glyph glyph-name="rocket-launch" unicode="&#x1f680;" 
d="M384 143v-127v127v-127l-160 -80v0v142v0q0 34 -24 58q-24 23 -58 24h-142v0l80 160v0h127v0q45 70 100 98q55 29 107 30t89 -9q10 -37 9 -89t-30 -107q-28 -55 -98 -100v0zM424 320q-1 23 -20 35q-20 10 -40 0q-19 -12 -20 -35q1 -23 20 -35q20 -10 40 0q19 12 20 35v0z
M167 -22q-27 -24 -66 -33v0v0q-38 -8 -68 -9v0v0h-32q-1 2 -1 33q1 30 9 68q9 39 33 65q27 26 62 26t63 -26q25 -27 25 -62t-25 -62v0zM120 14q8 9 8 21v0v0q0 12 -8 21q-9 8 -21 8t-21 -8q-11 -14 -13 -34q-1 -19 0 -21q2 -1 21 0q20 2 34 13v0z" />
    <glyph glyph-name="rocket-launch" unicode="&#xe027;" 
d="M384 143v-127v127v-127l-160 -80v0v142v0q0 34 -24 58q-24 23 -58 24h-142v0l80 160v0h127v0q45 70 100 98q55 29 107 30t89 -9q10 -37 9 -89t-30 -107q-28 -55 -98 -100v0zM424 320q-1 23 -20 35q-20 10 -40 0q-19 -12 -20 -35q1 -23 20 -35q20 -10 40 0q19 12 20 35v0z
M167 -22q-27 -24 -66 -33v0v0q-38 -8 -68 -9v0v0h-32q-1 2 -1 33q1 30 9 68q9 39 33 65q27 26 62 26t63 -26q25 -27 25 -62t-25 -62v0zM120 14q8 9 8 21v0v0q0 12 -8 21q-9 8 -21 8t-21 -8q-11 -14 -13 -34q-1 -19 0 -21q2 -1 21 0q20 2 34 13v0z" />
    <glyph glyph-name="sensor" unicode="&#xe028;" horiz-adv-x="448" 
d="M448 416h-448h448h-448v-448v0h448v0v448v0zM112 328v-144v144v-144v-24v0h-48v0v24v0v144v0v24v0h48v0v-24v0zM208 328v-144v144v-144v-24v0h-48v0v24v0v144v0v24v0h48v0v-24v0z" />
    <glyph glyph-name="sensor-triangle-exclamation" unicode="&#xe029;" horiz-adv-x="640" 
d="M448 416h-448h448h-448v-448v0h237v0l211 387v0v61v0zM112 328v-144v144v-144v-24v0h-48v0v24v0v144v0v24v0h48v0v-24v0zM208 328v-144v144v-144v-24v0h-48v0v24v0v144v0v24v0h48v0v-24v0zM448 288l-192 -352l192 352l-192 -352h384v0l-192 352v0zM464 144v-64v64v-64
v-16v0h-32v0v16v0v64v0v16v0h32v0v-16v0zM432 32h32h-32h32v-32v0h-32v0v32v0z" />
    <glyph glyph-name="sensor-fire" unicode="&#xe02a;" horiz-adv-x="640" 
d="M448 416h-448h448h-448v-448v0h337v0q-47 52 -49 128q1 43 23 81q21 38 49 69q40 45 88 83v87v0zM112 328v-144v144v-144v-24v0h-48v0v24v0v144v0v24v0h48v0v-24v0zM208 328v-144v144v-144v-24v0h-48v0v24v0v144v0v24v0h48v0v-24v0zM448 288q-23 -14 -52 -42v0v0
q-30 -28 -52 -66v0v0q-23 -39 -24 -84q2 -68 47 -113t113 -47q68 2 113 47t47 113q1 22 -19 66q-21 45 -77 94l-32 -32v0l-64 64v0zM544 48q-1 -27 -19 -45v0v0q-18 -19 -45 -19t-45 19q-18 18 -19 45q1 24 17 46q15 22 30 36q16 13 17 14q1 -1 17 -14q15 -14 30 -36
q16 -22 17 -46v0z" />
    <glyph glyph-name="sensor-on" unicode="&#xe02b;" horiz-adv-x="640" 
d="M0 416h448h-448h448v-448v0h-448v0v448v0zM112 352h-48h48h-48v-24v0v-144v0v-24v0h48v0v24v0v144v0v24v0zM208 352h-48h48h-48v-24v0v-144v0v-24v0h48v0v24v0v144v0v24v0zM597 340l-48 -32l48 32l-48 -32l-20 -13v0l-26 40v0l20 13v0l48 32v0l20 13v0l26 -40v0l-20 -13
v0zM536 216h80h-80h104v-48v0h-24h-104v48v0h24v0zM549 76l48 -32l-48 32l48 -32l20 -13v0l-26 -40v0l-20 13v0l-48 32v0l-20 13v0l26 40v0l20 -13v0z" />
    <glyph glyph-name="sensor-cloud" unicode="&#xe02c;" horiz-adv-x="640" 
d="M448 416h-448h448h-448v-448v0h224v0v48v0q0 34 18 61q17 26 46 40q3 46 35 76q31 30 77 31q26 0 48 -11v203v0zM112 328v-144v144v-144v-24v0h-48v0v24v0v144v0v24v0h48v0v-24v0zM208 328v-144v144v-144v-24v0h-48v0v24v0v144v0v24v0h48v0v-24v0zM256 16v-80v80v-80h80
h304v80v0q-1 30 -18 51q-18 21 -46 27v10v0q-1 24 -16 40q-16 15 -40 16q-28 -1 -44 -22q-9 24 -29 39t-47 15q-34 -1 -57 -23q-22 -23 -23 -57v-18v0q-28 -6 -46 -27q-17 -21 -18 -51v0z" />
    <glyph glyph-name="siren" unicode="&#xe02d;" horiz-adv-x="448" 
d="M80 352l-32 -256l32 256l-32 -256h58v0l22 178v0l2 14v0h32v0l-2 -18v0l-22 -174v0h262v0l-32 256v0h-288v0zM448 64h-448h448h-448v-96v0h448v0v96v0z" />
    <glyph glyph-name="siren-on" unicode="&#xe02e;" horiz-adv-x="640" 
d="M69 412l48 -32l-48 32l48 -32l20 -13v0l-26 -40v0l-20 13v0l-48 32v0l-20 13v0l26 40v0l20 -13v0zM597 372l-48 -32l48 32l-48 -32l-20 -13v0l-26 40v0l20 13v0l48 32v0l20 13v0l26 -40v0l-20 -13v0zM24 256h64h-64h88v-48v0h-24h-88v48v0h24v0zM552 256h64h-64h88v-48v0
h-24h-88v48v0h24v0zM144 96l32 256l-32 -256l32 256h288v0l32 -256v0h-262v0l22 174v0l2 18v0h-32v0l-2 -14v0l-22 -178v0h-58v0zM96 64h448h-448h448v-96v0h-448v0v96v0z" />
    <glyph glyph-name="solar-system" unicode="&#xe02f;" 
d="M448 192q-1 -64 -36 -112q-19 -2 -31 -15q-13 -14 -13 -33q1 -20 14 -34q14 -13 34 -14q20 1 34 14q13 14 14 34q0 5 -1 9q48 65 49 151q-1 72 -35 129q-34 58 -92 92q-57 34 -129 35q-64 -1 -117 -28q29 -19 36 -54q37 18 81 18q82 -2 136 -56t56 -136v0zM256 0
q-82 2 -136 56v0v0q-54 54 -56 136q1 64 36 112q19 2 31 15q13 14 13 33q-1 20 -14 34q-14 13 -34 14q-20 -1 -34 -14q-13 -14 -14 -34q0 -5 1 -9q-48 -65 -49 -151q1 -72 35 -129q34 -58 92 -92q57 -34 129 -35q64 1 117 28q-29 19 -36 54q-37 -18 -81 -18v0zM360 192
q-1 -44 -30 -74v0v0q-30 -29 -74 -30q-44 1 -74 30q-29 30 -30 74q1 44 30 74q30 29 74 30q31 0 56 -16q1 -16 11 -27t25 -13q12 -22 12 -48v0zM392 280q0 17 -12 28v0v0q-11 12 -28 12q-6 0 -11 -2q-37 25 -85 26q-65 -2 -107 -45q-43 -42 -45 -107q2 -65 45 -107
q42 -43 107 -45q65 2 107 45q43 42 45 107q0 40 -19 73q3 7 3 15v0zM256 128l64 64l-64 -64l64 64l-64 64v0l-64 -64v0l64 -64v0z" />
    <glyph glyph-name="circle-sort" unicode="&#xe030;" 
d="M0 192q1 70 34 128v0v0q34 58 94 94q61 34 128 34t128 -34q60 -36 94 -94q33 -58 34 -128q-1 -70 -34 -128q-34 -58 -94 -94q-61 -34 -128 -34t-128 34q-60 36 -94 94q-33 58 -34 128v0zM144 256v-32v32v-32h224v0v32v0l-112 96v0l-112 -96v0zM256 32l112 96l-112 -96
l112 96v32v0h-224v0v-32v0l112 -96v0z" />
    <glyph glyph-name="circle-sort-down" unicode="&#xe031;" 
d="M512 192q-1 70 -34 128v0v0q-34 58 -94 94q-61 34 -128 34t-128 -34q-60 -36 -94 -94q-33 -58 -34 -128q1 -70 34 -128q34 -58 94 -94q61 -34 128 -34t128 34q60 36 94 94q33 58 34 128v0zM144 128v32v-32v32h224v0v-32v0l-112 -96v0l-112 96v0zM144 224v32v-32v32
l112 96v0l112 -96v0v-32v0h-32h-192zM256 310l-63 -54l63 54l-63 -54h126v0l-63 54v0z" />
    <glyph glyph-name="circle-sort-up" unicode="&#xe032;" 
d="M0 192q1 70 34 128v0v0q34 58 94 94q61 34 128 34t128 -34q60 -36 94 -94q33 -58 34 -128q-1 -70 -34 -128q-34 -58 -94 -94q-61 -34 -128 -34t-128 34q-60 36 -94 94q-33 58 -34 128v0zM144 256v-32v32v-32h224v0v32v0l-112 96v0l-112 -96v0zM144 160v-32v32v-32
l112 -96v0l112 96v0v32v0h-32h-192zM256 74l-63 54l63 -54l-63 54h126v0l-63 -54v0z" />
    <glyph glyph-name="space-station-moon" unicode="&#xe033;" 
d="M512 192q0 -12 -1 -23q-110 -40 -255 -41q-145 1 -255 41q-1 11 -1 23q1 72 35 129q34 58 92 92q57 34 129 35q72 -1 129 -35q58 -34 92 -92q34 -57 35 -129v0zM256 -64q-93 2 -160 56v0v0q-68 55 -89 141q110 -36 249 -37q139 1 249 37q-21 -86 -89 -141
q-67 -54 -160 -56v0zM160 288q0 14 9 23v0v0q9 9 23 9t23 -9t9 -23t-9 -23t-23 -9t-23 9t-9 23v0zM272 288q-1 45 -40 69q-40 22 -80 0q-39 -24 -40 -69q1 -45 40 -69q40 -22 80 0q39 24 40 69v0z" />
    <glyph glyph-name="space-station-moon-construction" unicode="&#xe034;" 
d="M511 169q1 11 1 23q0 16 -2 32h-62v0v64v0h-32h-64v64v0h64v0v40v0q-67 54 -160 56q-72 -1 -129 -35q-58 -34 -92 -92q-34 -57 -35 -129q0 -12 1 -23q110 -40 255 -41q145 1 255 41v0zM7 133q21 -86 89 -141v0v0q67 -54 160 -56q58 0 107 23t85 64v41v0h-64v0v41v0
q-61 -9 -128 -9q-139 1 -249 37v0zM192 256q14 0 23 9v0v0q9 9 9 23t-9 23t-23 9t-23 -9t-9 -23t9 -23t23 -9v0zM192 368q45 -1 69 -40q22 -40 0 -80q-24 -39 -69 -40q-45 1 -69 40q-22 40 0 80q24 39 69 40v0z" />
    <glyph glyph-name="sprinkler" unicode="&#xe035;" 
d="M24 448q22 -2 24 -24q-2 -22 -24 -24q-22 2 -24 24q2 22 24 24v0zM0 320q2 22 24 24q22 -2 24 -24q-2 -22 -24 -24q-22 2 -24 24v0zM0 216q2 22 24 24q22 -2 24 -24q-2 -22 -24 -24q-22 2 -24 24v0zM64 376q2 22 24 24q22 -2 24 -24q-2 -22 -24 -24q-22 2 -24 24v0z
M88 288q22 -2 24 -24q-2 -22 -24 -24q-22 2 -24 24q2 22 24 24v0zM128 320q2 22 24 24q22 -2 24 -24q-2 -22 -24 -24q-22 2 -24 24v0zM488 240q22 -2 24 -24q-2 -22 -24 -24q-22 2 -24 24q2 22 24 24v0zM512 320q-2 -22 -24 -24q-22 2 -24 24q2 22 24 24q22 -2 24 -24v0z
M488 448q22 -2 24 -24q-2 -22 -24 -24q-22 2 -24 24q2 22 24 24v0zM448 376q-2 -22 -24 -24q-22 2 -24 24q2 22 24 24q22 -2 24 -24v0zM424 288q22 -2 24 -24q-2 -22 -24 -24q-22 2 -24 24q2 22 24 24v0zM384 320q-2 -22 -24 -24q-22 2 -24 24q2 22 24 24q22 -2 24 -24v0z
M288 384v-32v32v-32v-160v0h128v0v-40v0l-96 -88v0v-128v0h-128v0v128v0l-96 88v0v40v0h128v0v160v0v32v0h64v0z" />
    <glyph glyph-name="star-shooting" unicode="&#x1f320;" 
d="M297 391l17 17l-17 -17l17 17l-34 34v0l-17 -17v0l-32 -32v0l-17 -17v0l34 -34v0l17 17v0l32 32v0zM489 199l17 17l-17 -17l17 17l-34 34v0l-17 -17v0l-32 -32v0l-17 -17v0l34 -34v0l17 17v0l32 32v0zM506 408l-34 34l34 -34l-34 34l-17 -17v0l-128 -128v0l-17 -17v0
l34 -34v0l17 17v0l128 128v0l17 17v0zM253 183l-59 121l59 -121l-59 121l-60 -121v0l-134 -20v0l97 -94v0l-23 -133v0l120 63v0l119 -63v0l-23 133v0l97 94v0l-134 20v0z" />
    </font>
</defs>
</svg>
