<?xml version="1.0" standalone="no"?>
<!DOCTYPE svg PUBLIC "-//W3C//DTD SVG 1.1//EN" "http://www.w3.org/Graphics/SVG/1.1/DTD/svg11.dtd" >
<svg xmlns="http://www.w3.org/2000/svg" xmlns:xlink="http://www.w3.org/1999/xlink" version="1.1">
<metadata>
Created by FontForge 20201107 at Tue Apr  2 17:30:53 2024
 By 
Copyright (c) Font Awesome
</metadata>
<defs>
<font id="FontAwesome6Sharp-Thin" horiz-adv-x="512" >
  <font-face 
    font-family="Font Awesome 6 Sharp Thin"
    font-weight="100"
    font-stretch="normal"
    units-per-em="512"
    panose-1="2 0 3 3 0 0 0 0 0 0"
    ascent="409"
    descent="-103"
    x-height="416"
    bbox="-10 -67 640.564 456"
    underline-thickness="0"
    underline-position="0"
    unicode-range="U+0022-1FAE5"
  />
<missing-glyph horiz-adv-x="384" 
d="M0 448h8h-8h384v-8v0v-496v0v-8v0h-8h-376v8v0v496v0v8v0zM16 -35l166 227l-166 -227l166 227l-166 226v0v-453v0zM26 -48h332h-332h332l-166 226v0l-166 -226v0zM202 192l166 -227l-166 227l166 -227v453v0l-166 -226v0zM358 432h-332h332h-332l166 -227v0l166 227v0z
" />
    <glyph glyph-name=".notdef" horiz-adv-x="384" 
d="M0 448h8h-8h384v-8v0v-496v0v-8v0h-8h-376v8v0v496v0v8v0zM16 -35l166 227l-166 -227l166 227l-166 226v0v-453v0zM26 -48h332h-332h332l-166 226v0l-166 -226v0zM202 192l166 -227l-166 227l166 -227v453v0l-166 -226v0zM358 432h-332h332h-332l166 -227v0l166 227v0z
" />
    <glyph glyph-name=".null" horiz-adv-x="0" 
 />
    <glyph glyph-name="nonmarkingreturn" horiz-adv-x="170" 
 />
    <glyph glyph-name="uniF12A" unicode="&#xf12a;" horiz-adv-x="64" 
d="M40 408v8v-8v8h-16v0v-8v0v-328v0v-8v0h16v0v8v0v328v0zM48 16h-32h32h-32v-32v0h32v0v32v0z" />
    <glyph glyph-name="uniF12A" unicode="&#x2757;" horiz-adv-x="64" 
d="M40 408v8v-8v8h-16v0v-8v0v-328v0v-8v0h16v0v8v0v328v0zM48 16h-32h32h-32v-32v0h32v0v32v0z" />
    <glyph glyph-name="uniF12A" unicode="&#x2755;" horiz-adv-x="64" 
d="M40 408v8v-8v8h-16v0v-8v0v-328v0v-8v0h16v0v8v0v328v0zM48 16h-32h32h-32v-32v0h32v0v32v0z" />
    <glyph glyph-name="uniF12A" unicode="!" horiz-adv-x="64" 
d="M40 408v8v-8v8h-16v0v-8v0v-328v0v-8v0h16v0v8v0v328v0zM48 16h-32h32h-32v-32v0h32v0v32v0z" />
    <glyph glyph-name="quotedbl" unicode="&#x22;" horiz-adv-x="320" 
d="M53 176l-37 162l37 -162l-37 162v62v0h96v0v-62v0l-37 -162v0h-22v0zM128 416h-16h16h-128v-16v0v-64v0l40 -176v0h48v0l40 176v0v64v0v16v0zM245 176l-37 162l37 -162l-37 162v62v0h96v0v-62v0l-37 -162v0h-22v0zM320 416h-16h16h-128v-16v0v-64v0l40 -176v0h48v0
l40 176v0v64v0v16v0z" />
    <glyph glyph-name="uniF292" unicode="&#xf292;" horiz-adv-x="448" 
d="M354 416h16h-16h16l-25 -112v0h101v0l-3 -16v0h-101v0l-43 -192v0h105v0l-3 -16v0h-106v0l-25 -112v0h-16v0l25 112v0h-176v0l-25 -112v0h-16v0l25 112v0h-85v0l3 16v0h86v0l42 192v0h-89v0l3 16v0h90v0l25 112v0h16v0l-25 -112v0h176v0l25 112v0zM150 288l-43 -192
l43 192l-43 -192h176v0l42 192v0h-175v0z" />
    <glyph glyph-name="uniF292" unicode="#" horiz-adv-x="448" 
d="M354 416h16h-16h16l-25 -112v0h101v0l-3 -16v0h-101v0l-43 -192v0h105v0l-3 -16v0h-106v0l-25 -112v0h-16v0l25 112v0h-176v0l-25 -112v0h-16v0l25 112v0h-85v0l3 16v0h86v0l42 192v0h-89v0l3 16v0h90v0l25 112v0h16v0l-25 -112v0h176v0l25 112v0zM150 288l-43 -192
l43 192l-43 -192h176v0l42 192v0h-175v0z" />
    <glyph glyph-name="u1F4B2" unicode="&#x1f4b2;" horiz-adv-x="320" 
d="M168 440v8v-8v8h-16v0v-8v0v-56v0q-14 1 -28 0q-38 -3 -68 -20q-30 -19 -38 -59q-6 -29 5 -50t33 -34q20 -13 47 -21q26 -8 54 -15v0v0v0l1 -1v0v0q59 -12 98 -34q18 -11 27 -27q8 -16 3 -41q-8 -38 -51 -55q-44 -16 -109 -7q-20 3 -47 9q-26 7 -52 17l-7 4v0l-6 -15v0
l7 -3v0q27 -11 54 -18q28 -7 49 -10v0v0q14 -2 28 -3v-1v0v-56v0v-8v0h16v0v8v0v56v0v0v0q41 0 73 12q50 19 61 67q6 30 -5 51t-32 33q-21 13 -48 21q-26 9 -54 16v0v0v0h-1v0v0q-59 13 -98 34q-18 12 -26 28q-9 15 -4 40q7 33 31 48q25 15 60 18q36 2 72 -3t63 -12l8 -2v0
l4 15v0l-8 2v0q-40 11 -96 16v0v0v56v0z" />
    <glyph glyph-name="u1F4B2" unicode="&#xf155;" horiz-adv-x="320" 
d="M168 440v8v-8v8h-16v0v-8v0v-56v0q-14 1 -28 0q-38 -3 -68 -20q-30 -19 -38 -59q-6 -29 5 -50t33 -34q20 -13 47 -21q26 -8 54 -15v0v0v0l1 -1v0v0q59 -12 98 -34q18 -11 27 -27q8 -16 3 -41q-8 -38 -51 -55q-44 -16 -109 -7q-20 3 -47 9q-26 7 -52 17l-7 4v0l-6 -15v0
l7 -3v0q27 -11 54 -18q28 -7 49 -10v0v0q14 -2 28 -3v-1v0v-56v0v-8v0h16v0v8v0v56v0v0v0q41 0 73 12q50 19 61 67q6 30 -5 51t-32 33q-21 13 -48 21q-26 9 -54 16v0v0v0h-1v0v0q-59 13 -98 34q-18 12 -26 28q-9 15 -4 40q7 33 31 48q25 15 60 18q36 2 72 -3t63 -12l8 -2v0
l4 15v0l-8 2v0q-40 11 -96 16v0v0v56v0z" />
    <glyph glyph-name="u1F4B2" unicode="$" horiz-adv-x="320" 
d="M168 440v8v-8v8h-16v0v-8v0v-56v0q-14 1 -28 0q-38 -3 -68 -20q-30 -19 -38 -59q-6 -29 5 -50t33 -34q20 -13 47 -21q26 -8 54 -15v0v0v0l1 -1v0v0q59 -12 98 -34q18 -11 27 -27q8 -16 3 -41q-8 -38 -51 -55q-44 -16 -109 -7q-20 3 -47 9q-26 7 -52 17l-7 4v0l-6 -15v0
l7 -3v0q27 -11 54 -18q28 -7 49 -10v0v0q14 -2 28 -3v-1v0v-56v0v-8v0h16v0v8v0v56v0v0v0q41 0 73 12q50 19 61 67q6 30 -5 51t-32 33q-21 13 -48 21q-26 9 -54 16v0v0v0h-1v0v0q-59 13 -98 34q-18 12 -26 28q-9 15 -4 40q7 33 31 48q25 15 60 18q36 2 72 -3t63 -12l8 -2v0
l4 15v0l-8 2v0q-40 11 -96 16v0v0v56v0z" />
    <glyph glyph-name="uniF541" unicode="&#xf541;" horiz-adv-x="384" 
d="M112 368v-96v96v-96h-96v0v96v0h96v0zM16 384h-16h16h-16v-16v0v-96v0v-16v0h16h112v16v0v96v0v16v0h-16h-96zM368 112v-96v96v-96h-96v0v96v0h96v0zM272 128h-16h16h-16v-16v0v-96v0v-16v0h16h112v16v0v96v0v16v0h-16h-96zM362 374l-352 -352l352 352l-352 -352l12 -12
v0l352 352v0l-12 12v0z" />
    <glyph glyph-name="uniF541" unicode="&#xf295;" horiz-adv-x="384" 
d="M112 368v-96v96v-96h-96v0v96v0h96v0zM16 384h-16h16h-16v-16v0v-96v0v-16v0h16h112v16v0v96v0v16v0h-16h-96zM368 112v-96v96v-96h-96v0v96v0h96v0zM272 128h-16h16h-16v-16v0v-96v0v-16v0h16h112v16v0v96v0v16v0h-16h-96zM362 374l-352 -352l352 352l-352 -352l12 -12
v0l352 352v0l-12 12v0z" />
    <glyph glyph-name="uniF541" unicode="%" horiz-adv-x="384" 
d="M112 368v-96v96v-96h-96v0v96v0h96v0zM16 384h-16h16h-16v-16v0v-96v0v-16v0h16h112v16v0v96v0v16v0h-16h-96zM368 112v-96v96v-96h-96v0v96v0h96v0zM272 128h-16h16h-16v-16v0v-96v0v-16v0h16h112v16v0v96v0v16v0h-16h-96zM362 374l-352 -352l352 352l-352 -352l12 -12
v0l352 352v0l-12 12v0z" />
    <glyph glyph-name="ampersand" unicode="&#x26;" horiz-adv-x="448" 
d="M96 416h-8h8h-8v-8v0v-80v0q0 -35 24 -61l53 -56v0l-89 -64v0q-43 -32 -44 -85v-86v0v-8v0h8h220l3 3v0l55 77v0l75 -80v0h22v0l-88 94v0l84 117v0l5 7v0l-13 9v0l-5 -6v0l-82 -115v0l-127 134v0l70 49v0q36 27 37 72v79v0v8v0h-8h-192zM250 271l-72 -51l72 51l-72 -51
l-54 58v0q-20 21 -20 50v72v0h176v0v-71v0q-1 -36 -30 -58v0zM85 134l91 65l-91 -65l91 65l131 -139v0l-55 -76v0h-204v0v78v0q1 45 37 72v0z" />
    <glyph glyph-name="quotesingle" unicode="'" horiz-adv-x="192" 
d="M80 96q48 1 79 33v0v0q32 31 33 79v16v0v16v0v72v0v88v0v16v0h-16h-176v-16v0v-160v0v-16v0h16h160v-16v0q-1 -41 -28 -68t-68 -28h-8h-8v-16v0h8h8zM176 240h-160h160h-160v160v0h160v0v-88v0v-72v0z" />
    <glyph glyph-name="parenleft" unicode="(" horiz-adv-x="192" 
d="M56 339q23 28 48 48v0v0q25 19 44 28l8 -14v0q-18 -9 -42 -27q-23 -18 -46 -45q-22 -27 -37 -61q-14 -34 -15 -76q1 -42 15 -76q15 -34 37 -61q23 -27 46 -45q24 -18 42 -27l-8 -14v0q-19 9 -44 28q-25 20 -48 48q-24 28 -40 65q-15 37 -16 82q1 45 16 82q16 37 40 65v0z
" />
    <glyph glyph-name="parenright" unicode=")" horiz-adv-x="192" 
d="M136 339q-23 28 -48 48v0v0q-25 19 -44 28l-8 -14v0q18 -9 42 -27q23 -18 46 -45q22 -27 37 -61q14 -34 15 -76q-1 -42 -15 -76q-15 -34 -37 -61q-23 -27 -46 -45q-24 -18 -42 -27l8 -14v0q19 9 44 28q25 20 48 48q24 28 40 65q15 37 16 82q-1 45 -16 82q-16 37 -40 65v0
z" />
    <glyph glyph-name="uniF069" unicode="&#xf069;" horiz-adv-x="384" 
d="M200 416v-8v8v-8v-201v0l172 112v0l8 -14v0l-173 -113v0l173 -113v0l-8 -14v0l-172 112v0v-201v0v-8v0h-16v0v8v0v201v0l-172 -112v0l-8 14v0l173 113v0l-173 113v0l8 14v0l172 -112v0v201v0v8v0h16v0z" />
    <glyph glyph-name="uniF069" unicode="&#x2731;" horiz-adv-x="384" 
d="M200 416v-8v8v-8v-201v0l172 112v0l8 -14v0l-173 -113v0l173 -113v0l-8 -14v0l-172 112v0v-201v0v-8v0h-16v0v8v0v201v0l-172 -112v0l-8 14v0l173 113v0l-173 113v0l8 14v0l172 -112v0v201v0v8v0h16v0z" />
    <glyph glyph-name="uniF069" unicode="*" horiz-adv-x="384" 
d="M200 416v-8v8v-8v-201v0l172 112v0l8 -14v0l-173 -113v0l173 -113v0l-8 -14v0l-172 112v0v-201v0v-8v0h-16v0v8v0v201v0l-172 -112v0l-8 14v0l173 113v0l-173 113v0l8 14v0l172 -112v0v201v0v8v0h16v0z" />
    <glyph glyph-name="uniF067" unicode="&#xf067;" horiz-adv-x="448" 
d="M232 376v8v-8v8h-16v0v-8v0v-176v0h-176h-8v-16v0h8h176v-176v0v-8v0h16v0v8v0v176v0h176h8v16v0h-8h-176v176v0z" />
    <glyph glyph-name="uniF067" unicode="&#x2795;" horiz-adv-x="448" 
d="M232 376v8v-8v8h-16v0v-8v0v-176v0h-176h-8v-16v0h8h176v-176v0v-8v0h16v0v8v0v176v0h176h8v16v0h-8h-176v176v0z" />
    <glyph glyph-name="uniF067" unicode="+" horiz-adv-x="448" 
d="M232 376v8v-8v8h-16v0v-8v0v-176v0h-176h-8v-16v0h8h176v-176v0v-8v0h16v0v8v0v176v0h176h8v16v0h-8h-176v176v0z" />
    <glyph glyph-name="comma" unicode="," horiz-adv-x="192" 
d="M146 85l-89 -133l89 133l-89 -133h-28v0l34 192v0h83v0v-59v0zM50 160l-37 -208l37 208l-37 -208l-3 -16v0h16h40l96 144v0v64v0v16v0h-16h-96z" />
    <glyph glyph-name="hyphen" unicode="-" horiz-adv-x="320" 
d="M0 200h8h-8h320v-16v0h-8h-312v16v0z" />
    <glyph glyph-name="period" unicode="." horiz-adv-x="192" 
d="M144 80v-96v96v-96h-96v0v96v0h96v0zM48 96h-16h16h-16v-16v0v-96v0v-16v0h16h112v16v0v96v0v16v0h-16h-96z" />
    <glyph glyph-name="slash" unicode="/" horiz-adv-x="320" 
d="M320 448h-19h19h-19l-301 -512v0h19v0l301 512v0z" />
    <glyph glyph-name="zero" unicode="0" horiz-adv-x="320" 
d="M0 256q2 68 47 113v0v0q45 45 113 47q68 -2 113 -47t47 -113v-128v0q-2 -68 -47 -113t-113 -47q-68 2 -113 47t-47 113v128v0zM160 400q-61 -2 -102 -42v0v0q-40 -41 -42 -102v-128v0q2 -61 42 -102q41 -40 102 -42q61 2 102 42q40 41 42 102v128v0q-2 61 -42 102
q-41 40 -102 42v0z" />
    <glyph glyph-name="one" unicode="1" horiz-adv-x="256" 
d="M118 416h2h-2h18v-8v0v-424v0h112h8v-16v0h-8h-248v16v0h8h112v415v0l-100 -62v0l-4 -2v0v18v0l100 62v0l2 1v0z" />
    <glyph glyph-name="two" unicode="2" horiz-adv-x="320" 
d="M63 368q36 31 84 32q53 -1 88 -36q36 -36 37 -88q-1 -56 -42 -94l-227 -200v0l-3 -2v0v-12v0h8h312v16v0h-8h-283l212 186v0q46 43 47 106q-2 59 -41 99q-40 39 -100 41q-54 -1 -94 -36l-34 -30v0l-6 -5v0l10 -12v0l6 5v0l34 30v0z" />
    <glyph glyph-name="three" unicode="3" horiz-adv-x="320" 
d="M288 416v-19v19v-19l-195 -173v0h99v0q54 -1 91 -37q36 -37 37 -91q-1 -54 -37 -91q-37 -36 -91 -37h-96v0q-32 0 -57 18q-24 18 -34 48l-1 3v0l-3 8v0l15 5v0l3 -8v0l1 -3v0q8 -25 29 -40q20 -15 47 -15h96v0q48 1 79 33q32 31 33 79q-1 48 -33 79q-31 32 -79 33h-120
h-8v12v0l3 2v0l200 178v0h-259h-8v16v0h8h280z" />
    <glyph glyph-name="four" unicode="4" horiz-adv-x="384" 
d="M6 107l141 309l-141 -309l141 309h18v0l-140 -304v0h279v0v200v0v8v0h16v0v-8v0v-200v0h56h8v-16v0h-8h-56v-120v0v-8v0h-16v0v8v0v120v0h-291h-13l6 11v0z" />
    <glyph glyph-name="five" unicode="5" horiz-adv-x="320" 
d="M50 416h6h-6h238v-16v0h-8h-218l-41 -176v0h171v0q54 -1 91 -37q36 -37 37 -91q-1 -54 -37 -91q-37 -36 -91 -37h-91v0q-31 0 -56 16t-38 43l-5 10v0l15 6v0l4 -9v0q12 -23 33 -36q21 -14 47 -14h91v0q48 1 79 33q32 31 33 79q-1 48 -33 79q-31 32 -79 33h-181h-10l2 10
v0l45 192v0l2 6v0z" />
    <glyph glyph-name="six" unicode="6" horiz-adv-x="320" 
d="M16 128q0 39 19 72v0v0q19 33 53 53q34 19 72 19t72 -19q34 -20 53 -53t19 -72t-19 -72t-53 -53q-34 -19 -72 -19t-72 19q-34 20 -53 53t-19 72v0zM101 277l134 139l-134 -139l134 139h-22v0l-166 -172v0q-46 -49 -47 -116q2 -68 47 -113t113 -47q68 2 113 47t47 113
q-2 68 -47 113t-113 47q-32 0 -59 -11v0z" />
    <glyph glyph-name="seven" unicode="7" horiz-adv-x="320" 
d="M320 416v-10v10v-10l-1 -2v0l-267 -436v0h-19v0l265 432v0h-290h-8v16v0h8h312z" />
    <glyph glyph-name="eight" unicode="8" horiz-adv-x="320" 
d="M296 300q-1 49 -34 82v0v0q-33 33 -82 34h-40v0q-49 -1 -82 -34t-34 -82q0 -34 18 -62q17 -27 46 -42q-39 -10 -63 -40q-24 -31 -25 -72q1 -49 34 -82t82 -34h88v0q49 1 82 34t34 82q-1 41 -25 72q-24 30 -63 40q29 15 46 42q18 28 18 62v0zM180 184h24h-24h24
q42 -1 71 -29q28 -29 29 -71q-1 -42 -29 -71q-29 -28 -71 -29h-88v0q-42 1 -71 29q-28 29 -29 71q1 42 29 71q29 28 71 29h24v0v0v0h40v0v0v0v0zM180 200v0v0v0v0h-40v0v0v0q-43 1 -71 29q-28 29 -29 71q1 42 29 71q29 28 71 29h40v0q42 -1 71 -29q28 -29 29 -71
q-1 -42 -29 -71q-28 -28 -71 -29v0z" />
    <glyph glyph-name="nine" unicode="9" horiz-adv-x="320" 
d="M304 256q0 -39 -19 -72v0v0q-19 -33 -53 -53q-34 -19 -72 -19t-72 19q-34 20 -53 53t-19 72t19 72t53 53q34 19 72 19t72 -19q34 -20 53 -53t19 -72v0zM219 107l-134 -139l134 139l-134 -139h22v0l166 172v0q46 49 47 116q-2 68 -47 113t-113 47q-68 -2 -113 -47
t-47 -113q2 -68 47 -113t113 -47q32 0 59 11v0z" />
    <glyph glyph-name="colon" unicode=":" horiz-adv-x="192" 
d="M48 368v-96v96v-96h96v0v96v0h-96v0zM32 384h16h-16h128v-16v0v-96v0v-16v0h-16h-112v16v0v96v0v16v0zM48 112v-96v96v-96h96v0v96v0h-96v0zM32 128h16h-16h128v-16v0v-96v0v-16v0h-16h-112v16v0v96v0v16v0z" />
    <glyph glyph-name="semicolon" unicode=";" horiz-adv-x="192" 
d="M48 368v-96v96v-96h96v0v96v0h-96v0zM32 384h16h-16h128v-16v0v-96v0v-16v0h-16h-112v16v0v96v0v16v0zM63 -48l81 132l-81 -132l81 132v60v0h-83v0l-34 -192v0h36v0zM11 -48l37 208l-37 -208l37 208h96h16v-16v0v-64v0l-88 -144v0h-48h-16l3 16v0z" />
    <glyph glyph-name="uniF536" unicode="&#xf536;" horiz-adv-x="384" 
d="M376 381l-364 -182l364 182l-364 -182l-4 -2v0v-10v0l4 -2v0l364 -182v0v18v0l-342 171v0l342 171v0v18v0z" />
    <glyph glyph-name="uniF536" unicode="&#x3c;" horiz-adv-x="384" 
d="M376 381l-364 -182l364 182l-364 -182l-4 -2v0v-10v0l4 -2v0l364 -182v0v18v0l-342 171v0l342 171v0v18v0z" />
    <glyph glyph-name="uniF52C" unicode="&#xf52c;" horiz-adv-x="448" 
d="M24 288h-8h8h-8v-16v0h8h408v16v0h-8h-400zM24 112h-8h8h-8v-16v0h8h408v16v0h-8h-400z" />
    <glyph glyph-name="uniF52C" unicode="=" horiz-adv-x="448" 
d="M24 288h-8h8h-8v-16v0h8h408v16v0h-8h-400zM24 112h-8h8h-8v-16v0h8h408v16v0h-8h-400z" />
    <glyph glyph-name="uniF531" unicode="&#xf531;" horiz-adv-x="384" 
d="M8 381l364 -182l-364 182l364 -182l4 -2v0v-10v0l-4 -2v0l-364 -182v0v18v0l342 171v0l-342 171v0v18v0z" />
    <glyph glyph-name="uniF531" unicode="&#x3e;" horiz-adv-x="384" 
d="M8 381l364 -182l-364 182l364 -182l4 -2v0v-10v0l-4 -2v0l-364 -182v0v18v0l342 171v0l-342 171v0v18v0z" />
    <glyph glyph-name="uniF128" unicode="&#xf128;" horiz-adv-x="320" 
d="M32 296q1 44 30 74v0v0q30 29 74 30h48v0q44 -1 74 -30q29 -30 30 -74v-6v0q-1 -45 -37 -72l-96 -68v0l-3 -2v0v-4v0v-64v0v-8v0h16v0v8v0v60v0l92 65v0q43 32 44 85v6v0q-1 51 -35 85t-85 35h-48v0q-51 -1 -85 -35t-35 -85v-8v0h16v0v8v0zM176 16h-32h32h-32v-32v0h32v0
v32v0z" />
    <glyph glyph-name="uniF128" unicode="&#x2754;" horiz-adv-x="320" 
d="M32 296q1 44 30 74v0v0q30 29 74 30h48v0q44 -1 74 -30q29 -30 30 -74v-6v0q-1 -45 -37 -72l-96 -68v0l-3 -2v0v-4v0v-64v0v-8v0h16v0v8v0v60v0l92 65v0q43 32 44 85v6v0q-1 51 -35 85t-85 35h-48v0q-51 -1 -85 -35t-35 -85v-8v0h16v0v8v0zM176 16h-32h32h-32v-32v0h32v0
v32v0z" />
    <glyph glyph-name="uniF128" unicode="&#x2753;" horiz-adv-x="320" 
d="M32 296q1 44 30 74v0v0q30 29 74 30h48v0q44 -1 74 -30q29 -30 30 -74v-6v0q-1 -45 -37 -72l-96 -68v0l-3 -2v0v-4v0v-64v0v-8v0h16v0v8v0v60v0l92 65v0q43 32 44 85v6v0q-1 51 -35 85t-85 35h-48v0q-51 -1 -85 -35t-35 -85v-8v0h16v0v8v0zM176 16h-32h32h-32v-32v0h32v0
v32v0z" />
    <glyph glyph-name="uniF128" unicode="?" horiz-adv-x="320" 
d="M32 296q1 44 30 74v0v0q30 29 74 30h48v0q44 -1 74 -30q29 -30 30 -74v-6v0q-1 -45 -37 -72l-96 -68v0l-3 -2v0v-4v0v-64v0v-8v0h16v0v8v0v60v0l92 65v0q43 32 44 85v6v0q-1 51 -35 85t-85 35h-48v0q-51 -1 -85 -35t-35 -85v-8v0h16v0v8v0zM176 16h-32h32h-32v-32v0h32v0
v32v0z" />
    <glyph glyph-name="uniF1FA" unicode="&#xf1fa;" 
d="M16 192q1 67 33 121v0v0q32 54 86 86v0v0q54 32 121 33q67 -1 121 -33t86 -86t33 -121v-20v0v-68v0h-68v0q-29 1 -48 20t-20 48v20v0v88v0v8v0h-16v0v-8v0v-33v0q-14 23 -37 36t-51 13q-44 -1 -74 -30q-29 -30 -30 -74q1 -44 30 -74q30 -29 74 -30q31 0 55 16
q24 15 38 41q9 -26 30 -41q21 -16 49 -16h76h8v8v0v76v0v20v0q-1 72 -35 129q-34 58 -92 92q-57 34 -129 35q-72 -1 -129 -35q-58 -34 -92 -92q-34 -57 -35 -129q1 -72 35 -129q34 -58 92 -92q57 -34 129 -35h8v0v16v0h-8v0q-67 1 -121 33t-86 86t-33 121v0zM168 192
q2 50 44 76q44 24 88 0q42 -26 44 -76q-2 -50 -44 -76q-44 -24 -88 0q-42 26 -44 76v0z" />
    <glyph glyph-name="uniF1FA" unicode="@" 
d="M16 192q1 67 33 121v0v0q32 54 86 86v0v0q54 32 121 33q67 -1 121 -33t86 -86t33 -121v-20v0v-68v0h-68v0q-29 1 -48 20t-20 48v20v0v88v0v8v0h-16v0v-8v0v-33v0q-14 23 -37 36t-51 13q-44 -1 -74 -30q-29 -30 -30 -74q1 -44 30 -74q30 -29 74 -30q31 0 55 16
q24 15 38 41q9 -26 30 -41q21 -16 49 -16h76h8v8v0v76v0v20v0q-1 72 -35 129q-34 58 -92 92q-57 34 -129 35q-72 -1 -129 -35q-58 -34 -92 -92q-34 -57 -35 -129q1 -72 35 -129q34 -58 92 -92q57 -34 129 -35h8v0v16v0h-8v0q-67 1 -121 33t-86 86t-33 121v0zM168 192
q2 50 44 76q44 24 88 0q42 -26 44 -76q-2 -50 -44 -76q-44 -24 -88 0q-42 26 -44 76v0z" />
    <glyph glyph-name="a" unicode="a" horiz-adv-x="384" 
d="M187 416l-2 -5l2 5l-2 -5l-182 -443v0h18v0l45 112v0h252v0l46 -112v0h17v0l-182 443v0l-2 5v0h-10v0zM311 96h-238h238h-238l119 291v0l119 -291v0z" />
    <glyph glyph-name="a" unicode="A" horiz-adv-x="384" 
d="M187 416l-2 -5l2 5l-2 -5l-182 -443v0h18v0l45 112v0h252v0l46 -112v0h17v0l-182 443v0l-2 5v0h-10v0zM311 96h-238h238h-238l119 291v0l119 -291v0z" />
    <glyph glyph-name="b" unicode="b" horiz-adv-x="320" 
d="M8 416h-8h8h-8v-8v0v-200v0v-8v0v-8v0v-216v0v-8v0h8h192q51 1 85 35t35 85q-1 43 -26 75q-26 32 -66 42q27 14 43 40q17 26 17 59q-1 48 -33 79q-31 32 -79 33h-168v0zM176 208h-160h160h-160v192v0h160v0q41 -1 68 -28t28 -68q-1 -41 -28 -68t-68 -28v0zM16 192h160
h-160h184q44 -1 74 -30q29 -30 30 -74q-1 -44 -30 -74q-30 -29 -74 -30h-184v0v208v0z" />
    <glyph glyph-name="b" unicode="B" horiz-adv-x="320" 
d="M8 416h-8h8h-8v-8v0v-200v0v-8v0v-8v0v-216v0v-8v0h8h192q51 1 85 35t35 85q-1 43 -26 75q-26 32 -66 42q27 14 43 40q17 26 17 59q-1 48 -33 79q-31 32 -79 33h-168v0zM176 208h-160h160h-160v192v0h160v0q41 -1 68 -28t28 -68q-1 -41 -28 -68t-68 -28v0zM16 192h160
h-160h184q44 -1 74 -30q29 -30 30 -74q-1 -44 -30 -74q-30 -29 -74 -30h-184v0v208v0z" />
    <glyph glyph-name="c" unicode="c" horiz-adv-x="384" 
d="M371 339q-64 61 -147 61v0v0q-83 0 -147 -61q-61 -64 -61 -147t61 -147q64 -61 147 -61t147 61l11 -11v0q-44 -44 -101 -59q-57 -14 -114 0q-57 15 -101 59t-59 101q-14 57 0 114q15 57 59 101t101 59q57 14 114 0q57 -15 101 -59l-11 -11v0z" />
    <glyph glyph-name="c" unicode="C" horiz-adv-x="384" 
d="M371 339q-64 61 -147 61v0v0q-83 0 -147 -61q-61 -64 -61 -147t61 -147q64 -61 147 -61t147 61l11 -11v0q-44 -44 -101 -59q-57 -14 -114 0q-57 15 -101 59t-59 101q-14 57 0 114q15 57 59 101t101 59q57 14 114 0q57 -15 101 -59l-11 -11v0z" />
    <glyph glyph-name="d" unicode="d" horiz-adv-x="384" 
d="M0 416h8h-8h160q63 -1 113 -31q51 -29 80 -80q30 -50 31 -113q-1 -63 -31 -113q-29 -51 -80 -80q-50 -30 -113 -31h-152h-8v8v0v432v0v8v0zM16 400v-416v416v-416h144v0q88 2 147 61t61 147q-2 88 -61 147t-147 61h-144v0z" />
    <glyph glyph-name="d" unicode="D" horiz-adv-x="384" 
d="M0 416h8h-8h160q63 -1 113 -31q51 -29 80 -80q30 -50 31 -113q-1 -63 -31 -113q-29 -51 -80 -80q-50 -30 -113 -31h-152h-8v8v0v432v0v8v0zM16 400v-416v416v-416h144v0q88 2 147 61t61 147q-2 88 -61 147t-147 61h-144v0z" />
    <glyph glyph-name="e" unicode="e" horiz-adv-x="320" 
d="M8 416h-8h8h-8v-8v0v-216v0v-216v0v-8v0h8h312v16v0h-8h-296v208v0h232h8v16v0h-8h-232v192v0h296v0q7 1 8 8q-1 7 -8 8h-304v0z" />
    <glyph glyph-name="e" unicode="E" horiz-adv-x="320" 
d="M8 416h-8h8h-8v-8v0v-216v0v-216v0v-8v0h8h312v16v0h-8h-296v208v0h232h8v16v0h-8h-232v192v0h296v0q7 1 8 8q-1 7 -8 8h-304v0z" />
    <glyph glyph-name="f" unicode="f" horiz-adv-x="320" 
d="M8 416h-8h8h-8v-8v0v-208v0v-224v0v-8v0h16v0v8v0v216v0h232h8v16v0h-8h-232v192v0h296h8v16v0h-8h-304z" />
    <glyph glyph-name="f" unicode="F" horiz-adv-x="320" 
d="M8 416h-8h8h-8v-8v0v-208v0v-224v0v-8v0h16v0v8v0v216v0h232h8v16v0h-8h-232v192v0h296h8v16v0h-8h-304z" />
    <glyph glyph-name="g" unicode="g" horiz-adv-x="448" 
d="M224 400q-88 -2 -147 -61v0v0q-59 -59 -61 -147q2 -88 61 -147t147 -61q86 2 144 58q59 57 64 142h-200h-8v16v0h8h216v-8v0q-1 -63 -31 -113q-29 -51 -80 -80q-50 -30 -113 -31q-63 1 -113 31q-51 29 -80 80q-30 50 -31 113q1 63 31 113q29 51 80 80q50 30 113 31
q88 -2 149 -57l6 -5v0l-10 -12v0l-6 5v0q-57 51 -139 53v0z" />
    <glyph glyph-name="g" unicode="G" horiz-adv-x="448" 
d="M224 400q-88 -2 -147 -61v0v0q-59 -59 -61 -147q2 -88 61 -147t147 -61q86 2 144 58q59 57 64 142h-200h-8v16v0h8h216v-8v0q-1 -63 -31 -113q-29 -51 -80 -80q-50 -30 -113 -31q-63 1 -113 31q-51 29 -80 80q-30 50 -31 113q1 63 31 113q29 51 80 80q50 30 113 31
q88 -2 149 -57l6 -5v0l-10 -12v0l-6 5v0q-57 51 -139 53v0z" />
    <glyph glyph-name="h" unicode="h" horiz-adv-x="384" 
d="M368 208v-232v232v-232v-8v0h16v0v8v0v432v0v8v0h-16v0v-8v0v-184v0h-352v0v184v0v8v0h-16v0v-8v0v-432v0v-8v0h16v0v8v0v232v0h352v0z" />
    <glyph glyph-name="h" unicode="H" horiz-adv-x="384" 
d="M368 208v-232v232v-232v-8v0h16v0v8v0v432v0v8v0h-16v0v-8v0v-184v0h-352v0v184v0v8v0h-16v0v-8v0v-432v0v-8v0h16v0v8v0v232v0h352v0z" />
    <glyph glyph-name="i" unicode="i" horiz-adv-x="320" 
d="M8 416h-8h8h-8v-16v0h8h144v-416v0h-144h-8v-16v0h8h312v16v0h-8h-144v416v0h144h8v16v0h-8h-304z" />
    <glyph glyph-name="i" unicode="I" horiz-adv-x="320" 
d="M8 416h-8h8h-8v-16v0h8h144v-416v0h-144h-8v-16v0h8h312v16v0h-8h-144v416v0h144h8v16v0h-8h-304z" />
    <glyph glyph-name="j" unicode="j" horiz-adv-x="320" 
d="M320 416v-8v8v-8v-280v0q-2 -68 -47 -113t-113 -47q-68 2 -113 47t-47 113v56v0v8v0h16v0v-8v0v-56v0q2 -61 42 -102q41 -40 102 -42q61 2 102 42q40 41 42 102v280v0v8v0h16v0z" />
    <glyph glyph-name="j" unicode="J" horiz-adv-x="320" 
d="M320 416v-8v8v-8v-280v0q-2 -68 -47 -113t-113 -47q-68 2 -113 47t-47 113v56v0v8v0h16v0v-8v0v-56v0q2 -61 42 -102q41 -40 102 -42q61 2 102 42q40 41 42 102v280v0v8v0h16v0z" />
    <glyph glyph-name="k" unicode="k" horiz-adv-x="320" 
d="M296 416h22h-22h22l-184 -187v0v0v0l185 -261v0h-20v0l-176 249v0l-107 -108v0v-133v0v-8v0h-16v0v8v0v136v0v296v0v8v0h16v0v-8v0v-277v0l280 285v0z" />
    <glyph glyph-name="k" unicode="K" horiz-adv-x="320" 
d="M296 416h22h-22h22l-184 -187v0v0v0l185 -261v0h-20v0l-176 249v0l-107 -108v0v-133v0v-8v0h-16v0v8v0v136v0v296v0v8v0h16v0v-8v0v-277v0l280 285v0z" />
    <glyph glyph-name="l" unicode="l" horiz-adv-x="320" 
d="M48 416v-8v8v-8v-424v0h264h8v-16v0h-8h-280v8v0v432v0v8v0h16v0z" />
    <glyph glyph-name="l" unicode="L" horiz-adv-x="320" 
d="M48 416v-8v8v-8v-424v0h264h8v-16v0h-8h-280v8v0v432v0v8v0h16v0z" />
    <glyph glyph-name="m" unicode="m" horiz-adv-x="448" 
d="M0 416v-8v8v-8v-432v0v-8v0h16v0v8v0v407v0l202 -284v0l6 -9v0l7 9v0l201 284v0v-399v0v-8v0h16v0v8v0v424v0v8v0h-12v0l-2 -3v0l-210 -295v0l-209 295v0l-3 3v0h-12v0z" />
    <glyph glyph-name="m" unicode="M" horiz-adv-x="448" 
d="M0 416v-8v8v-8v-432v0v-8v0h16v0v8v0v407v0l202 -284v0l6 -9v0l7 9v0l201 284v0v-399v0v-8v0h16v0v8v0v424v0v8v0h-12v0l-2 -3v0l-210 -295v0l-209 295v0l-3 3v0h-12v0z" />
    <glyph glyph-name="n" unicode="n" horiz-adv-x="384" 
d="M0 408v8v-8v8h12v0l2 -3v0l354 -415v0v410v0v8v0h16v0v-8v0v-432v0v-8v0h-12v0l-2 3v0l-354 415v0v-410v0v-8v0h-16v0v8v0v432v0z" />
    <glyph glyph-name="n" unicode="N" horiz-adv-x="384" 
d="M0 408v8v-8v8h12v0l2 -3v0l354 -415v0v410v0v8v0h16v0v-8v0v-432v0v-8v0h-12v0l-2 3v0l-354 415v0v-410v0v-8v0h-16v0v8v0v432v0z" />
    <glyph glyph-name="o" unicode="o" horiz-adv-x="448" 
d="M224 400q-57 0 -104 -28v0v0q-47 -27 -76 -76q-28 -49 -28 -104t28 -104q29 -49 76 -76q47 -28 104 -28t104 28q47 27 76 76q28 49 28 104t-28 104q-29 49 -76 76q-47 28 -104 28v0zM448 192q-1 -61 -30 -112v0v0q-30 -51 -82 -82q-53 -30 -112 -30t-112 30
q-52 31 -82 82q-29 51 -30 112q1 61 30 112q30 51 82 82q53 30 112 30t112 -30q52 -31 82 -82q29 -51 30 -112v0z" />
    <glyph glyph-name="o" unicode="O" horiz-adv-x="448" 
d="M224 400q-57 0 -104 -28v0v0q-47 -27 -76 -76q-28 -49 -28 -104t28 -104q29 -49 76 -76q47 -28 104 -28t104 28q47 27 76 76q28 49 28 104t-28 104q-29 49 -76 76q-47 28 -104 28v0zM448 192q-1 -61 -30 -112v0v0q-30 -51 -82 -82q-53 -30 -112 -30t-112 30
q-52 31 -82 82q-29 51 -30 112q1 61 30 112q30 51 82 82q53 30 112 30t112 -30q52 -31 82 -82q29 -51 30 -112v0z" />
    <glyph glyph-name="p" unicode="p" horiz-adv-x="320" 
d="M0 416h8h-8h184q58 -1 96 -40q39 -38 40 -96q-1 -58 -40 -96q-38 -39 -96 -40h-168v0v-168v0v-8v0h-16v0v8v0v168v0v16v0v248v0v8v0zM16 160h168h-168h168q51 1 85 35t35 85q-1 51 -35 85t-85 35h-168v0v-240v0z" />
    <glyph glyph-name="p" unicode="P" horiz-adv-x="320" 
d="M0 416h8h-8h184q58 -1 96 -40q39 -38 40 -96q-1 -58 -40 -96q-38 -39 -96 -40h-168v0v-168v0v-8v0h-16v0v8v0v168v0v16v0v248v0v8v0zM16 160h168h-168h168q51 1 85 35t35 85q-1 51 -35 85t-85 35h-168v0v-240v0z" />
    <glyph glyph-name="q" unicode="q" horiz-adv-x="448" 
d="M16 192q2 -88 61 -147v0v0q59 -59 147 -61q73 1 127 43l-132 165v0h21v0l123 -154v0q32 29 50 68q19 40 19 86q-2 88 -61 147t-147 61q-88 -2 -147 -61t-61 -147v0zM361 15q-58 -46 -137 -47q-63 1 -113 31q-51 29 -80 80q-30 50 -31 113q1 63 31 113q29 51 80 80
q50 30 113 31q63 -1 113 -31q51 -29 80 -80q30 -50 31 -113q0 -50 -20 -93t-55 -74l72 -89v0h-21v0l-63 79v0z" />
    <glyph glyph-name="q" unicode="Q" horiz-adv-x="448" 
d="M16 192q2 -88 61 -147v0v0q59 -59 147 -61q73 1 127 43l-132 165v0h21v0l123 -154v0q32 29 50 68q19 40 19 86q-2 88 -61 147t-147 61q-88 -2 -147 -61t-61 -147v0zM361 15q-58 -46 -137 -47q-63 1 -113 31q-51 29 -80 80q-30 50 -31 113q1 63 31 113q29 51 80 80
q50 30 113 31q63 -1 113 -31q51 -29 80 -80q30 -50 31 -113q0 -50 -20 -93t-55 -74l72 -89v0h-21v0l-63 79v0z" />
    <glyph glyph-name="r" unicode="r" horiz-adv-x="320" 
d="M8 416h-8h8h-8v-8v0v-240v0v-192v0v-8v0h16v0v8v0v184v0h160h7l2 -4v0l116 -188v0h19v0l-119 192v0q51 5 85 41q33 35 34 87q-1 54 -37 91q-37 36 -91 37h-184v0zM176 176h-160h160h-160v224v0h176v0q48 -1 79 -33q32 -31 33 -79q-1 -48 -33 -79q-31 -32 -79 -33h-16v0z
" />
    <glyph glyph-name="r" unicode="R" horiz-adv-x="320" 
d="M8 416h-8h8h-8v-8v0v-240v0v-192v0v-8v0h16v0v8v0v184v0h160h7l2 -4v0l116 -188v0h19v0l-119 192v0q51 5 85 41q33 35 34 87q-1 54 -37 91q-37 36 -91 37h-184v0zM176 176h-160h160h-160v224v0h176v0q48 -1 79 -33q32 -31 33 -79q-1 -48 -33 -79q-31 -32 -79 -33h-16v0z
" />
    <glyph glyph-name="s" unicode="s" horiz-adv-x="320" 
d="M76 387q-49 -19 -58 -65q-5 -30 4 -49q10 -19 30 -33q22 -13 50 -23q28 -9 60 -17h1v0q31 -8 61 -18q29 -10 52 -25q24 -15 36 -39t6 -59q-12 -55 -68 -77q-54 -21 -130 -10v0v0q-20 3 -47 11t-51 16q-9 3 -16 5l4 16v0q5 -2 11 -3q3 -2 7 -3v0q23 -7 49 -15t45 -11
q73 -10 122 9t58 65q5 30 -4 49q-10 19 -30 33q-22 13 -50 23q-28 9 -60 17l-1 1v0q-31 8 -61 18q-29 9 -52 24q-24 15 -36 39q-12 25 -6 59q12 55 68 77q54 21 130 10q13 -2 38 -6q24 -5 38 -8l-4 -16v0q-13 3 -37 8q-25 4 -37 6q-73 11 -122 -9v0z" />
    <glyph glyph-name="s" unicode="S" horiz-adv-x="320" 
d="M76 387q-49 -19 -58 -65q-5 -30 4 -49q10 -19 30 -33q22 -13 50 -23q28 -9 60 -17h1v0q31 -8 61 -18q29 -10 52 -25q24 -15 36 -39t6 -59q-12 -55 -68 -77q-54 -21 -130 -10v0v0q-20 3 -47 11t-51 16q-9 3 -16 5l4 16v0q5 -2 11 -3q3 -2 7 -3v0q23 -7 49 -15t45 -11
q73 -10 122 9t58 65q5 30 -4 49q-10 19 -30 33q-22 13 -50 23q-28 9 -60 17l-1 1v0q-31 8 -61 18q-29 9 -52 24q-24 15 -36 39q-12 25 -6 59q12 55 68 77q54 21 130 10q13 -2 38 -6q24 -5 38 -8l-4 -16v0q-13 3 -37 8q-25 4 -37 6q-73 11 -122 -9v0z" />
    <glyph glyph-name="t" unicode="t" horiz-adv-x="384" 
d="M8 416h-8h8h-8v-16v0h8h176v-424v0v-8v0h16v0v8v0v424v0h176h8v16v0h-8h-368z" />
    <glyph glyph-name="t" unicode="T" horiz-adv-x="384" 
d="M8 416h-8h8h-8v-16v0h8h176v-424v0v-8v0h16v0v8v0v424v0h176h8v16v0h-8h-368z" />
    <glyph glyph-name="u" unicode="u" horiz-adv-x="384" 
d="M16 416v-8v8v-8v-248v0q2 -75 52 -124q49 -50 124 -52q75 2 124 52q50 49 52 124v248v0v8v0h16v0v-8v0v-248v0q-2 -82 -56 -136t-136 -56q-82 2 -136 56t-56 136v248v0v8v0h16v0z" />
    <glyph glyph-name="u" unicode="U" horiz-adv-x="384" 
d="M16 416v-8v8v-8v-248v0q2 -75 52 -124q49 -50 124 -52q75 2 124 52q50 49 52 124v248v0v8v0h16v0v-8v0v-248v0q-2 -82 -56 -136t-136 -56q-82 2 -136 56t-56 136v248v0v8v0h16v0z" />
    <glyph glyph-name="v" unicode="v" horiz-adv-x="384" 
d="M364 416h18h-18h18l-183 -443v0l-2 -5v0h-10v0l-2 5v0l-183 443v0h18v0l172 -419v0l172 419v0z" />
    <glyph glyph-name="v" unicode="V" horiz-adv-x="384" 
d="M364 416h18h-18h18l-183 -443v0l-2 -5v0h-10v0l-2 5v0l-183 443v0h18v0l172 -419v0l172 419v0z" />
    <glyph glyph-name="w" unicode="w" horiz-adv-x="576" 
d="M555 416h17h-17h17l-148 -443v0l-2 -5v0h-12v0l-2 6v0l-120 406v0l-120 -406v0l-2 -6v0h-12v0l-1 5v0l-149 443v0h17v0l139 -413v0l120 407v0l2 6v0h12v0l2 -6v0l121 -407v0l138 413v0z" />
    <glyph glyph-name="w" unicode="W" horiz-adv-x="576" 
d="M555 416h17h-17h17l-148 -443v0l-2 -5v0h-12v0l-2 6v0l-120 406v0l-120 -406v0l-2 -6v0h-12v0l-1 5v0l-149 443v0h17v0l139 -413v0l120 407v0l2 6v0h12v0l2 -6v0l121 -407v0l138 413v0z" />
    <glyph glyph-name="x" unicode="x" horiz-adv-x="384" 
d="M362 416h20h-20h20l-180 -224v0l180 -224v0h-20v0l-170 211v0l-169 -211v0h-21v0l180 224v0l-180 224v0h21v0l169 -211v0l170 211v0z" />
    <glyph glyph-name="x" unicode="X" horiz-adv-x="384" 
d="M362 416h20h-20h20l-180 -224v0l180 -224v0h-20v0l-170 211v0l-169 -211v0h-21v0l180 224v0l-180 224v0h21v0l169 -211v0l170 211v0z" />
    <glyph glyph-name="y" unicode="y" horiz-adv-x="384" 
d="M184 157l-181 259l181 -259l-181 259h19v0l170 -242v0l170 242v0h19v0l-181 -259v0v-181v0v-8v0h-16v0v8v0v181v0z" />
    <glyph glyph-name="y" unicode="Y" horiz-adv-x="384" 
d="M184 157l-181 259l181 -259l-181 259h19v0l170 -242v0l170 242v0h19v0l-181 -259v0v-181v0v-8v0h-16v0v8v0v181v0z" />
    <glyph glyph-name="z" unicode="z" horiz-adv-x="384" 
d="M384 416h-8h8h-384v-16v0h8h351l-357 -419v0l-2 -2v0v-11v0h8h376v16v0h-8h-351l357 419v0l2 2v0v11v0z" />
    <glyph glyph-name="z" unicode="Z" horiz-adv-x="384" 
d="M384 416h-8h8h-384v-16v0h8h351l-357 -419v0l-2 -2v0v-11v0h8h376v16v0h-8h-351l357 419v0l2 2v0v11v0z" />
    <glyph glyph-name="bracketleft" unicode="[" horiz-adv-x="192" 
d="M0 416h8h-8h160v-16v0h-8h-136v-416v0h136h8v-16v0h-8h-152v8v0v432v0v8v0z" />
    <glyph glyph-name="backslash" unicode="\" horiz-adv-x="320" 
d="M0 448h19h-19h19l301 -512v0h-19v0l-301 512v0z" />
    <glyph glyph-name="bracketright" unicode="]" horiz-adv-x="192" 
d="M192 416h-8h8h-160v-16v0h8h136v-416v0h-136h-8v-16v0h8h152v8v0v432v0v8v0z" />
    <glyph glyph-name="grave" unicode="`" horiz-adv-x="192" 
d="M48 373l89 -133l-89 133l89 -133h28v0l-34 192v0h-83v0v-59v0zM144 448l37 -208l-37 208l37 -208l3 -16v0h-16h-40l-96 144v0v64v0v16v0h16h96z" />
    <glyph glyph-name="braceleft" unicode="{" horiz-adv-x="256" 
d="M72 416h-8h8h-8v-8v0v-149v0l-62 -61v0l-2 -3v0v-6v0l2 -3v0l62 -61v0v-149v0v-8v0h8h136v16v0h-8h-120v144v0v3v0l-2 3v0l-59 58v0l59 58v0l2 3v0v3v0v144v0h120h8v16v0h-8h-128z" />
    <glyph glyph-name="bar" unicode="|" horiz-adv-x="64" 
d="M40 448v-8v8v-8v-496v0v-8v0h-16v0v8v0v496v0v8v0h16v0z" />
    <glyph glyph-name="braceright" unicode="}" horiz-adv-x="256" 
d="M184 416h8h-8h8v-8v0v-149v0l62 -61v0l2 -3v0v-6v0l-2 -3v0l-62 -61v0v-149v0v-8v0h-8h-136v16v0h8h120v144v0v3v0l2 3v0l59 58v0l-59 58v0l-2 3v0v3v0v144v0h-120h-8v16v0h8h128z" />
    <glyph glyph-name="uniF69F" unicode="&#xf69f;" horiz-adv-x="448" 
d="M0 304h8h-8h132l2 -3v0l190 -205v0h108v0v160v0v8v0h16v0v-8v0v-168v0v-8v0h-8h-123l-3 3v0l-189 205v0h-109v0v-160v0v-8v0h-16v0v8v0v168v0v8v0z" />
    <glyph glyph-name="uniF69F" unicode="~" horiz-adv-x="448" 
d="M0 304h8h-8h132l2 -3v0l190 -205v0h108v0v160v0v8v0h16v0v-8v0v-168v0v-8v0h-8h-123l-3 3v0l-189 205v0h-109v0v-160v0v-8v0h-16v0v8v0v168v0v8v0z" />
    <glyph glyph-name="uniF154" unicode="&#xf154;" horiz-adv-x="320" 
d="M80 306q1 40 28 66v0v0q26 27 66 28q17 0 32 -6l71 -26v0l8 -2v0l5 15v0l-7 2v0l-71 26v0q-19 7 -38 7q-47 -1 -78 -32t-32 -78v-114v0h-64v0v-16v0h64v0v-54v0l-63 -135v0l-1 -1v0v-2v0v-8v0v-8v0h8h312v16v0h-8h-295l62 133v0l1 1v0v2v0v56v0h176v0v16v0h-176v0v114v0z
" />
    <glyph glyph-name="uniF154" unicode="&#xa3;" horiz-adv-x="320" 
d="M80 306q1 40 28 66v0v0q26 27 66 28q17 0 32 -6l71 -26v0l8 -2v0l5 15v0l-7 2v0l-71 26v0q-19 7 -38 7q-47 -1 -78 -32t-32 -78v-114v0h-64v0v-16v0h64v0v-54v0l-63 -135v0l-1 -1v0v-2v0v-8v0v-8v0h8h312v16v0h-8h-295l62 133v0l1 1v0v2v0v56v0h176v0v16v0h-176v0v114v0z
" />
    <glyph glyph-name="uniF157" unicode="&#xf157;" horiz-adv-x="320" 
d="M-1 416l146 -208l-146 208l146 -208h-105h-8v-16v0h8h112v-80v0h-112h-8v-16v0h8h112v-120v0v-8v0h16v0v8v0v120v0h112h8v16v0h-8h-112v80v0h112h8v16v0h-8h-105l146 208v0h-20v0l-141 -202v0l-141 202v0h-20v0z" />
    <glyph glyph-name="uniF157" unicode="&#xa5;" horiz-adv-x="320" 
d="M-1 416l146 -208l-146 208l146 -208h-105h-8v-16v0h8h112v-80v0h-112h-8v-16v0h8h112v-120v0v-8v0h16v0v8v0v120v0h112h8v16v0h-8h-112v80v0h112h8v16v0h-8h-105l146 208v0h-20v0l-141 -202v0l-141 202v0h-20v0z" />
    <glyph glyph-name="uniF1F9" unicode="&#xf1f9;" 
d="M256 432q65 -1 120 -32v0v0q55 -32 88 -88q32 -57 32 -120t-32 -120q-33 -56 -88 -88q-55 -31 -120 -32q-65 1 -120 32q-55 32 -88 88q-32 57 -32 120t32 120q33 56 88 88q55 31 120 32v0zM256 -64q70 1 128 34v0v0q58 34 94 94q34 61 34 128t-34 128q-36 60 -94 94
q-58 33 -128 34q-70 -1 -128 -34q-58 -34 -94 -94q-34 -61 -34 -128t34 -128q36 -60 94 -94q58 -33 128 -34v0zM177 113q-33 34 -33 79v0v0q0 45 33 79q34 33 79 33t79 -33l6 -6v0l11 12v0l-5 5v0q-40 38 -91 38t-90 -38q-38 -39 -38 -90t38 -91q39 -37 90 -37t91 37l5 6v0
l-11 11v0l-6 -5v0q-34 -33 -79 -33t-79 33v0z" />
    <glyph glyph-name="uniF1F9" unicode="&#xa9;" 
d="M256 432q65 -1 120 -32v0v0q55 -32 88 -88q32 -57 32 -120t-32 -120q-33 -56 -88 -88q-55 -31 -120 -32q-65 1 -120 32q-55 32 -88 88q-32 57 -32 120t32 120q33 56 88 88q55 31 120 32v0zM256 -64q70 1 128 34v0v0q58 34 94 94q34 61 34 128t-34 128q-36 60 -94 94
q-58 33 -128 34q-70 -1 -128 -34q-58 -34 -94 -94q-34 -61 -34 -128t34 -128q36 -60 94 -94q58 -33 128 -34v0zM177 113q-33 34 -33 79v0v0q0 45 33 79q34 33 79 33t79 -33l6 -6v0l11 12v0l-5 5v0q-40 38 -91 38t-90 -38q-38 -39 -38 -90t38 -91q39 -37 90 -37t91 37l5 6v0
l-11 11v0l-6 -5v0q-34 -33 -79 -33t-79 33v0z" />
    <glyph glyph-name="uniF100" unicode="&#xf100;" 
d="M50 198l-5 -6l5 6l-5 -6l5 -6v0l176 -176v0l6 -5v0l11 11v0l-5 6v0l-171 170v0l171 170v0l5 6v0l-11 11v0l-6 -5v0l-176 -176v0zM242 198l-5 -6l5 6l-5 -6l5 -6v0l176 -176v0l6 -5v0l11 11v0l-5 6v0l-171 170v0l171 170v0l5 6v0l-11 11v0l-6 -5v0l-176 -176v0z" />
    <glyph glyph-name="uniF100" unicode="&#xab;" 
d="M50 198l-5 -6l5 6l-5 -6l5 -6v0l176 -176v0l6 -5v0l11 11v0l-5 6v0l-171 170v0l171 170v0l5 6v0l-11 11v0l-6 -5v0l-176 -176v0zM242 198l-5 -6l5 6l-5 -6l5 -6v0l176 -176v0l6 -5v0l11 11v0l-5 6v0l-171 170v0l171 170v0l5 6v0l-11 11v0l-6 -5v0l-176 -176v0z" />
    <glyph glyph-name="uniF25D" unicode="&#xf25d;" 
d="M256 432q65 -1 120 -32v0v0q55 -32 88 -88q32 -57 32 -120t-32 -120q-33 -56 -88 -88q-55 -31 -120 -32q-65 1 -120 32q-55 32 -88 88q-32 57 -32 120t32 120q33 56 88 88q55 31 120 32v0zM256 -64q70 1 128 34v0v0q58 34 94 94q34 61 34 128t-34 128q-36 60 -94 94
q-58 33 -128 34q-70 -1 -128 -34q-58 -34 -94 -94q-34 -61 -34 -128t34 -128q36 -60 94 -94q58 -33 128 -34v0zM160 320v-8v8v-8v-144v0v-96v0v-8v0h16v0v8v0v88v0h92v0l69 -96v0h20v0l-70 97v0q28 6 46 28q18 21 19 51q-1 34 -23 57q-23 22 -57 23h-104h-8zM176 176v128
v-128v128h96v0q27 -1 45 -19t19 -45q-1 -27 -19 -45t-45 -19h-96v0z" />
    <glyph glyph-name="uniF25D" unicode="&#xae;" 
d="M256 432q65 -1 120 -32v0v0q55 -32 88 -88q32 -57 32 -120t-32 -120q-33 -56 -88 -88q-55 -31 -120 -32q-65 1 -120 32q-55 32 -88 88q-32 57 -32 120t32 120q33 56 88 88q55 31 120 32v0zM256 -64q70 1 128 34v0v0q58 34 94 94q34 61 34 128t-34 128q-36 60 -94 94
q-58 33 -128 34q-70 -1 -128 -34q-58 -34 -94 -94q-34 -61 -34 -128t34 -128q36 -60 94 -94q58 -33 128 -34v0zM160 320v-8v8v-8v-144v0v-96v0v-8v0h16v0v8v0v88v0h92v0l69 -96v0h20v0l-70 97v0q28 6 46 28q18 21 19 51q-1 34 -23 57q-23 22 -57 23h-104h-8zM176 176v128
v-128v128h96v0q27 -1 45 -19t19 -45q-1 -27 -19 -45t-45 -19h-96v0z" />
    <glyph glyph-name="uniF1DD" unicode="&#xf1dd;" horiz-adv-x="448" 
d="M32 272q2 61 42 102v0v0q41 40 102 42h72h192v-16v0h-8h-64v-424v0v-8v0h-16v0v8v0v424v0h-80v0v-256v0v-16v0v-152v0v-8v0h-16v0v8v0v152v0h-80v0q-61 2 -102 42q-40 41 -42 102v0zM256 144v256v-256v256h-8h-72q-54 -1 -91 -37q-36 -37 -37 -91q1 -54 37 -91
q37 -36 91 -37h80v0z" />
    <glyph glyph-name="uniF1DD" unicode="&#xb6;" horiz-adv-x="448" 
d="M32 272q2 61 42 102v0v0q41 40 102 42h72h192v-16v0h-8h-64v-424v0v-8v0h-16v0v8v0v424v0h-80v0v-256v0v-16v0v-152v0v-8v0h-16v0v8v0v152v0h-80v0q-61 2 -102 42q-40 41 -42 102v0zM256 144v256v-256v256h-8h-72q-54 -1 -91 -37q-36 -37 -37 -91q1 -54 37 -91
q37 -36 91 -37h80v0z" />
    <glyph glyph-name="uniF101" unicode="&#xf101;" 
d="M270 186l5 6l-5 -6l5 6l-5 6v0l-176 176v0l-6 5v0l-11 -11v0l5 -6v0l171 -170v0l-171 -170v0l-5 -6v0l11 -11v0l6 5v0l176 176v0zM462 186l5 6l-5 -6l5 6l-5 6v0l-176 176v0l-6 5v0l-11 -11v0l5 -6v0l171 -170v0l-171 -170v0l-5 -6v0l11 -11v0l6 5v0l176 176v0z" />
    <glyph glyph-name="uniF101" unicode="&#xbb;" 
d="M270 186l5 6l-5 -6l5 6l-5 6v0l-176 176v0l-6 5v0l-11 -11v0l5 -6v0l171 -170v0l-171 -170v0l-5 -6v0l11 -11v0l6 5v0l176 176v0zM462 186l5 6l-5 -6l5 6l-5 6v0l-176 176v0l-6 5v0l-11 -11v0l5 -6v0l171 -170v0l-171 -170v0l-5 -6v0l11 -11v0l6 5v0l176 176v0z" />
    <glyph glyph-name="u1F5D9" unicode="&#x1f5d9;" horiz-adv-x="384" 
d="M192 203l-146 146l146 -146l-146 146l-11 -11v0l146 -146v0l-146 -146v0l11 -11v0l146 146v0l146 -146v0l11 11v0l-146 146v0l146 146v0l-11 11v0l-146 -146v0z" />
    <glyph glyph-name="u1F5D9" unicode="&#xf00d;" horiz-adv-x="384" 
d="M192 203l-146 146l146 -146l-146 146l-11 -11v0l146 -146v0l-146 -146v0l11 -11v0l146 146v0l146 -146v0l11 11v0l-146 146v0l146 146v0l-11 11v0l-146 -146v0z" />
    <glyph glyph-name="u1F5D9" unicode="&#x274c;" horiz-adv-x="384" 
d="M192 203l-146 146l146 -146l-146 146l-11 -11v0l146 -146v0l-146 -146v0l11 -11v0l146 146v0l146 -146v0l11 11v0l-146 146v0l146 146v0l-11 11v0l-146 -146v0z" />
    <glyph glyph-name="u1F5D9" unicode="&#x2716;" horiz-adv-x="384" 
d="M192 203l-146 146l146 -146l-146 146l-11 -11v0l146 -146v0l-146 -146v0l11 -11v0l146 146v0l146 -146v0l11 11v0l-146 146v0l146 146v0l-11 11v0l-146 -146v0z" />
    <glyph glyph-name="u1F5D9" unicode="&#x2715;" horiz-adv-x="384" 
d="M192 203l-146 146l146 -146l-146 146l-11 -11v0l146 -146v0l-146 -146v0l11 -11v0l146 146v0l146 -146v0l11 11v0l-146 146v0l146 146v0l-11 11v0l-146 -146v0z" />
    <glyph glyph-name="u1F5D9" unicode="&#xd7;" horiz-adv-x="384" 
d="M192 203l-146 146l146 -146l-146 146l-11 -11v0l146 -146v0l-146 -146v0l11 -11v0l146 146v0l146 -146v0l11 11v0l-146 146v0l146 146v0l-11 11v0l-146 -146v0z" />
    <glyph glyph-name="uniF656" unicode="&#xf656;" 
d="M420 345l66 65l-66 -65l66 65l-12 12v0l-65 -66v0q-62 58 -153 60q-63 -1 -113 -31q-51 -29 -80 -80q-30 -50 -31 -113q2 -91 60 -153l-66 -65v0l12 -12v0l65 66v0q62 -58 153 -60q63 1 113 31q51 29 80 80q30 50 31 113q-2 91 -60 153v0zM397 345l-294 -294l294 294
l-294 -294q-53 57 -55 141q2 88 61 147t147 61q84 -2 141 -55v0zM115 39l294 294l-294 -294l294 294q53 -57 55 -141q-2 -88 -61 -147t-147 -61q-84 2 -141 55v0z" />
    <glyph glyph-name="uniF656" unicode="&#x2205;" 
d="M420 345l66 65l-66 -65l66 65l-12 12v0l-65 -66v0q-62 58 -153 60q-63 -1 -113 -31q-51 -29 -80 -80q-30 -50 -31 -113q2 -91 60 -153l-66 -65v0l12 -12v0l65 66v0q62 -58 153 -60q63 1 113 31q51 29 80 80q30 50 31 113q-2 91 -60 153v0zM397 345l-294 -294l294 294
l-294 -294q-53 57 -55 141q2 88 61 147t147 61q84 -2 141 -55v0zM115 39l294 294l-294 -294l294 294q53 -57 55 -141q-2 -88 -61 -147t-147 -61q-84 2 -141 55v0z" />
    <glyph glyph-name="uniF656" unicode="&#xd8;" 
d="M420 345l66 65l-66 -65l66 65l-12 12v0l-65 -66v0q-62 58 -153 60q-63 -1 -113 -31q-51 -29 -80 -80q-30 -50 -31 -113q2 -91 60 -153l-66 -65v0l12 -12v0l65 66v0q62 -58 153 -60q63 1 113 31q51 29 80 80q30 50 31 113q-2 91 -60 153v0zM397 345l-294 -294l294 294
l-294 -294q-53 57 -55 141q2 88 61 147t147 61q84 -2 141 -55v0zM115 39l294 294l-294 -294l294 294q53 -57 55 -141q-2 -88 -61 -147t-147 -61q-84 2 -141 55v0z" />
    <glyph glyph-name="uniF529" unicode="&#xf529;" horiz-adv-x="448" 
d="M176 368v-96v96v-96h96v0v96v0h-96v0zM160 384h16h-16h128v-16v0v-96v0v-16v0h-16h-112v16v0v96v0v16v0zM432 184h-8h8h-416v16v0h8h408v-16v0zM272 112h-96h96h-96v-96v0h96v0v96v0zM176 128h96h-96h112v-16v0v-96v0v-16v0h-16h-112v16v0v96v0v16v0h16v0z" />
    <glyph glyph-name="uniF529" unicode="&#x2797;" horiz-adv-x="448" 
d="M176 368v-96v96v-96h96v0v96v0h-96v0zM160 384h16h-16h128v-16v0v-96v0v-16v0h-16h-112v16v0v96v0v16v0zM432 184h-8h8h-416v16v0h8h408v-16v0zM272 112h-96h96h-96v-96v0h96v0v96v0zM176 128h96h-96h112v-16v0v-96v0v-16v0h-16h-112v16v0v96v0v16v0h16v0z" />
    <glyph glyph-name="uniF529" unicode="&#xf7;" horiz-adv-x="448" 
d="M176 368v-96v96v-96h96v0v96v0h-96v0zM160 384h16h-16h128v-16v0v-96v0v-16v0h-16h-112v16v0v96v0v16v0zM432 184h-8h8h-416v16v0h8h408v-16v0zM272 112h-96h96h-96v-96v0h96v0v96v0zM176 128h96h-96h112v-16v0v-96v0v-16v0h-16h-112v16v0v96v0v16v0h16v0z" />
    <glyph glyph-name="uniF068" unicode="&#xf068;" horiz-adv-x="448" 
d="M424 184h-8h8h-400v16v0h8h392v-16v0z" />
    <glyph glyph-name="uniF068" unicode="&#x2796;" horiz-adv-x="448" 
d="M424 184h-8h8h-400v16v0h8h392v-16v0z" />
    <glyph glyph-name="uniF068" unicode="&#x2212;" horiz-adv-x="448" 
d="M424 184h-8h8h-400v16v0h8h392v-16v0z" />
    <glyph glyph-name="uniF068" unicode="&#x2013;" horiz-adv-x="448" 
d="M424 184h-8h8h-400v16v0h8h392v-16v0z" />
    <glyph glyph-name="uniF86C" unicode="&#xf86c;" horiz-adv-x="640" 
d="M0 200h8h-8h640v-16v0h-8h-632v16v0z" />
    <glyph glyph-name="uniF86C" unicode="&#x2015;" horiz-adv-x="640" 
d="M0 200h8h-8h640v-16v0h-8h-632v16v0z" />
    <glyph glyph-name="uniF10D" unicode="&#xf10d;" horiz-adv-x="448" 
d="M0 232q1 51 35 85v0v0q34 34 85 35h16h8v-16v0h-8h-16q-44 -1 -74 -30q-29 -30 -30 -74v-8v0h160h16v-16v0v-160v0v-16v0h-16h-176v16v0v88v0v72v0v16v0v8v0zM16 136v-88v88v-88h160v0v160v0h-160v0v-72v0zM256 232q1 51 35 85v0v0q34 34 85 35h16h8v-16v0h-8h-16
q-44 -1 -74 -30q-29 -30 -30 -74v-8v0h160h16v-16v0v-160v0v-16v0h-16h-176v16v0v88v0v72v0v16v0v8v0zM272 136v-88v88v-88h160v0v160v0h-160v0v-72v0z" />
    <glyph glyph-name="uniF10D" unicode="&#x201c;" horiz-adv-x="448" 
d="M0 232q1 51 35 85v0v0q34 34 85 35h16h8v-16v0h-8h-16q-44 -1 -74 -30q-29 -30 -30 -74v-8v0h160h16v-16v0v-160v0v-16v0h-16h-176v16v0v88v0v72v0v16v0v8v0zM16 136v-88v88v-88h160v0v160v0h-160v0v-72v0zM256 232q1 51 35 85v0v0q34 34 85 35h16h8v-16v0h-8h-16
q-44 -1 -74 -30q-29 -30 -30 -74v-8v0h160h16v-16v0v-160v0v-16v0h-16h-176v16v0v88v0v72v0v16v0v8v0zM272 136v-88v88v-88h160v0v160v0h-160v0v-72v0z" />
    <glyph glyph-name="uniF10E" unicode="&#xf10e;" horiz-adv-x="448" 
d="M448 152q-1 -51 -35 -85v0v0q-34 -34 -85 -35h-16h-8v16v0h8h16q44 1 74 30q29 30 30 74v8v0h-160h-16v16v0v160v0v16v0h16h176v-16v0v-88v0v-72v0v-16v0v-8v0zM432 248v88v-88v88h-160v0v-160v0h160v0v72v0zM192 152q-1 -51 -35 -85v0v0q-34 -34 -85 -35h-16h-8v16v0h8
h16q44 1 74 30q29 30 30 74v8v0h-160h-16v16v0v160v0v16v0h16h176v-16v0v-88v0v-72v0v-16v0v-8v0zM176 248v88v-88v88h-160v0v-160v0h160v0v72v0z" />
    <glyph glyph-name="uniF10E" unicode="&#x201d;" horiz-adv-x="448" 
d="M448 152q-1 -51 -35 -85v0v0q-34 -34 -85 -35h-16h-8v16v0h8h16q44 1 74 30q29 30 30 74v8v0h-160h-16v16v0v160v0v16v0h16h176v-16v0v-88v0v-72v0v-16v0v-8v0zM432 248v88v-88v88h-160v0v-160v0h160v0v72v0zM192 152q-1 -51 -35 -85v0v0q-34 -34 -85 -35h-16h-8v16v0h8
h16q44 1 74 30q29 30 30 74v8v0h-160h-16v16v0v160v0v16v0h16h176v-16v0v-88v0v-72v0v-16v0v-8v0zM176 248v88v-88v88h-160v0v-160v0h160v0v72v0z" />
    <glyph glyph-name="uniF104" unicode="&#xf104;" horiz-adv-x="320" 
d="M45 192l5 6l-5 -6l5 6l176 176v0l6 5v0l11 -11v0l-5 -6v0l-171 -170v0l171 -170v0l5 -6v0l-11 -11v0l-6 5v0l-176 176v0l-5 6v0z" />
    <glyph glyph-name="uniF104" unicode="&#x2039;" horiz-adv-x="320" 
d="M45 192l5 6l-5 -6l5 6l176 176v0l6 5v0l11 -11v0l-5 -6v0l-171 -170v0l171 -170v0l5 -6v0l-11 -11v0l-6 5v0l-176 176v0l-5 6v0z" />
    <glyph glyph-name="uniF105" unicode="&#xf105;" horiz-adv-x="320" 
d="M275 192l-5 -6l5 6l-5 -6l-176 -176v0l-6 -5v0l-11 11v0l5 6v0l171 170v0l-171 170v0l-5 6v0l11 11v0l6 -5v0l176 -176v0l5 -6v0z" />
    <glyph glyph-name="uniF105" unicode="&#x203a;" horiz-adv-x="320" 
d="M275 192l-5 -6l5 6l-5 -6l-176 -176v0l-6 -5v0l-11 11v0l5 6v0l171 170v0l-171 170v0l-5 6v0l11 11v0l6 -5v0l176 -176v0l5 -6v0z" />
    <glyph glyph-name="uniE5BA" unicode="&#xe5ba;" horiz-adv-x="320" 
d="M136 400q-44 -1 -74 -30v0v0q-29 -30 -30 -74v-8v0h-16v0v8v0q1 51 35 85t85 35h48v0q51 -1 85 -35t35 -85v-6v0q-1 -54 -44 -85l-92 -65v0v-44v0v-16v0v-8v0h-16v0v8v0v16v0v48v0v4v0v164v0v8v0h16v0v-8v0v-153v0l83 59v0q36 27 37 72v6v0q-1 44 -30 74q-30 29 -74 30
h-48v0zM144 16h32h-32h32v-32v0h-32v0v32v0z" />
    <glyph glyph-name="uniE5BA" unicode="&#x203d;" horiz-adv-x="320" 
d="M136 400q-44 -1 -74 -30v0v0q-29 -30 -30 -74v-8v0h-16v0v8v0q1 51 35 85t85 35h48v0q51 -1 85 -35t35 -85v-6v0q-1 -54 -44 -85l-92 -65v0v-44v0v-16v0v-8v0h-16v0v8v0v16v0v48v0v4v0v164v0v8v0h16v0v-8v0v-153v0l83 59v0q36 27 37 72v6v0q-1 44 -30 74q-30 29 -74 30
h-48v0zM144 16h32h-32h32v-32v0h-32v0v32v0z" />
    <glyph glyph-name="uniF195" unicode="&#xf195;" horiz-adv-x="320" 
d="M80 306q1 40 28 66v0v0q26 27 66 28q17 0 32 -6l71 -26v0l8 -2v0l5 15v0l-7 2v0l-71 26v0q-19 7 -38 7q-47 -1 -78 -32t-32 -78v-82v0h-64v0v-16v0h64v0v-80v0h-64v0v-16v0h59v0l-58 -125v0l-1 -1v0v-2v0v-8v0v-8v0h8h312v16v0h-8h-295l60 128v0h179v0v16v0h-176v0v80v0
h176v0v16v0h-176v0v82v0z" />
    <glyph glyph-name="uniF195" unicode="&#x20a4;" horiz-adv-x="320" 
d="M80 306q1 40 28 66v0v0q26 27 66 28q17 0 32 -6l71 -26v0l8 -2v0l5 15v0l-7 2v0l-71 26v0q-19 7 -38 7q-47 -1 -78 -32t-32 -78v-82v0h-64v0v-16v0h64v0v-80v0h-64v0v-16v0h59v0l-58 -125v0l-1 -1v0v-2v0v-8v0v-8v0h8h312v16v0h-8h-295l60 128v0h179v0v16v0h-176v0v80v0
h176v0v16v0h-176v0v82v0z" />
    <glyph glyph-name="uniF156" unicode="&#xf156;" horiz-adv-x="448" 
d="M0 416h8h-8h120q58 -1 96 -40q39 -38 40 -96q-1 -53 -34 -90q-32 -37 -83 -45l59 -177v0h-17v0l-59 176v0h-1h-1h-104v0v-176v0h-16v0v184v0v256v0v8v0zM16 160h104h-104h104q51 1 85 35t35 85q-1 51 -35 85t-85 35h-104v0v-240v0zM289 194q-2 -18 2 -28q5 -11 15 -19
q22 -15 55 -25h1h1v0q34 -10 61 -29q13 -11 20 -27q6 -16 3 -38q-7 -36 -38 -51q-30 -14 -71 -7v0v0q-14 3 -31 10q-12 4 -21 8v0v0q-5 2 -9 3l-7 3v0l5 15v0l8 -3v0q4 -2 9 -4v0v0q9 -3 20 -7q17 -7 29 -9q37 -6 61 5q24 12 29 39q2 19 -2 30q-5 12 -15 20q-22 16 -56 27
h-3v0q0 1 -1 1q-32 9 -57 26q-14 10 -20 25q-7 16 -4 37q6 34 37 49t72 9q7 -2 20 -4q13 -3 20 -6l8 -2v0l-5 -15v0l-7 2v0q-7 2 -20 5q-12 3 -19 4q-37 6 -62 -7q-24 -13 -28 -37v0z" />
    <glyph glyph-name="uniF156" unicode="&#x20a8;" horiz-adv-x="448" 
d="M0 416h8h-8h120q58 -1 96 -40q39 -38 40 -96q-1 -53 -34 -90q-32 -37 -83 -45l59 -177v0h-17v0l-59 176v0h-1h-1h-104v0v-176v0h-16v0v184v0v256v0v8v0zM16 160h104h-104h104q51 1 85 35t35 85q-1 51 -35 85t-85 35h-104v0v-240v0zM289 194q-2 -18 2 -28q5 -11 15 -19
q22 -15 55 -25h1h1v0q34 -10 61 -29q13 -11 20 -27q6 -16 3 -38q-7 -36 -38 -51q-30 -14 -71 -7v0v0q-14 3 -31 10q-12 4 -21 8v0v0q-5 2 -9 3l-7 3v0l5 15v0l8 -3v0q4 -2 9 -4v0v0q9 -3 20 -7q17 -7 29 -9q37 -6 61 5q24 12 29 39q2 19 -2 30q-5 12 -15 20q-22 16 -56 27
h-3v0q0 1 -1 1q-32 9 -57 26q-14 10 -20 25q-7 16 -4 37q6 34 37 49t72 9q7 -2 20 -4q13 -3 20 -6l8 -2v0l-5 -15v0l-7 2v0q-7 2 -20 5q-12 3 -19 4q-37 6 -62 -7q-24 -13 -28 -37v0z" />
    <glyph glyph-name="uniF159" unicode="&#xf159;" 
d="M83 176l-63 240l63 -240l-63 240h17v0l63 -240v0h90v0l54 234v0l2 6v0h6h14l2 -6v0l54 -234v0h90v0l64 240v0h16v0l-63 -240v0h75h8v-16v0h-8h-79l-49 -186v0l-2 -6v0h-6h-14l-2 6v0l-43 186v0h-106v0l-43 -186v0l-2 -6v0h-6h-14l-2 6v0l-49 186v0h-79h-8v16v0h8h75z
M104 160l44 -167l-44 167l44 -167l38 167v0h-82v0zM207 176h99h-99h99l-50 214v0l-49 -214v0zM326 160l38 -167l-38 167l38 -167l44 167v0h-82v0z" />
    <glyph glyph-name="uniF159" unicode="&#x20a9;" 
d="M83 176l-63 240l63 -240l-63 240h17v0l63 -240v0h90v0l54 234v0l2 6v0h6h14l2 -6v0l54 -234v0h90v0l64 240v0h16v0l-63 -240v0h75h8v-16v0h-8h-79l-49 -186v0l-2 -6v0h-6h-14l-2 6v0l-43 186v0h-106v0l-43 -186v0l-2 -6v0h-6h-14l-2 6v0l-49 186v0h-79h-8v16v0h8h75z
M104 160l44 -167l-44 167l44 -167l38 167v0h-82v0zM207 176h99h-99h99l-50 214v0l-49 -214v0zM326 160l38 -167l-38 167l38 -167l44 167v0h-82v0z" />
    <glyph glyph-name="uniF20B" unicode="&#xf20b;" horiz-adv-x="448" 
d="M24 416h-8h8h-8v-8v0v-432v0v-8v0h16v0v8v0v424v0h160v0q37 -1 62 -26t26 -62v-216v0v-8v0h16v0v8v0v216v0q-1 44 -30 74q-30 29 -74 30h-168v0zM328 -32q44 1 74 30v0v0q29 30 30 74v336v0v8v0h-16v0v-8v0v-336v0q-1 -37 -26 -62t-62 -26h-160v0v296v0v8v0h-16v0v-8v0
v-304v0v-8v0h8h168z" />
    <glyph glyph-name="uniF20B" unicode="&#x20aa;" horiz-adv-x="448" 
d="M24 416h-8h8h-8v-8v0v-432v0v-8v0h16v0v8v0v424v0h160v0q37 -1 62 -26t26 -62v-216v0v-8v0h16v0v8v0v216v0q-1 44 -30 74q-30 29 -74 30h-168v0zM328 -32q44 1 74 30v0v0q29 30 30 74v336v0v8v0h-16v0v-8v0v-336v0q-1 -37 -26 -62t-62 -26h-160v0v296v0v8v0h-16v0v-8v0
v-304v0v-8v0h8h168z" />
    <glyph glyph-name="uniF153" unicode="&#xf153;" horiz-adv-x="320" 
d="M36 240q-4 -19 -4 -40v-16v0q0 -21 4 -40h-36v0v-16v0h39v0q20 -70 76 -115q57 -44 133 -45h65h8v16v0h-8h-65q-69 1 -121 41q-52 39 -71 103h232v0v16v0h-236v0q-4 19 -4 40v16v0q0 21 4 40h236v0v16v0h-232v0q19 64 71 103q52 40 121 41h65h8v16v0h-8h-65
q-76 -1 -133 -45q-56 -45 -76 -115h-39v0v-16v0h36v0z" />
    <glyph glyph-name="uniF153" unicode="&#x20ac;" horiz-adv-x="320" 
d="M36 240q-4 -19 -4 -40v-16v0q0 -21 4 -40h-36v0v-16v0h39v0q20 -70 76 -115q57 -44 133 -45h65h8v16v0h-8h-65q-69 1 -121 41q-52 39 -71 103h232v0v16v0h-236v0q-4 19 -4 40v16v0q0 21 4 40h236v0v16v0h-232v0q19 64 71 103q52 40 121 41h65h8v16v0h-8h-65
q-76 -1 -133 -45q-56 -45 -76 -115h-39v0v-16v0h36v0z" />
    <glyph glyph-name="uniF6F2" unicode="&#xf6f2;" horiz-adv-x="384" 
d="M84 374q38 26 84 26h67v0q36 -1 60 -25t25 -60q-1 -35 -24 -59h-280h-16v-16v0h16h259l-4 -2l-165 -78v0h-1h-89h-16v-16v0h16h65q-32 -30 -33 -75q1 -43 30 -71q28 -29 71 -30h67v0q50 0 93 28l8 5v0l6 5v0l-9 13v0l-6 -4v0l-8 -6v0q-38 -25 -84 -25h-67v0q-36 1 -60 25
t-25 60q0 24 12 44t33 31h259h16v16v0h-16h-225l135 64v0q14 6 25 16h65h16v16v0h-16h-51q19 26 19 59q-1 43 -30 71q-28 29 -71 30h-67v0q-50 0 -93 -28l-7 -5v0l-7 -5v0l9 -13v0l6 4v0l8 5v0z" />
    <glyph glyph-name="uniF6F2" unicode="&#x20b4;" horiz-adv-x="384" 
d="M84 374q38 26 84 26h67v0q36 -1 60 -25t25 -60q-1 -35 -24 -59h-280h-16v-16v0h16h259l-4 -2l-165 -78v0h-1h-89h-16v-16v0h16h65q-32 -30 -33 -75q1 -43 30 -71q28 -29 71 -30h67v0q50 0 93 28l8 5v0l6 5v0l-9 13v0l-6 -4v0l-8 -6v0q-38 -25 -84 -25h-67v0q-36 1 -60 25
t-25 60q0 24 12 44t33 31h259h16v16v0h-16h-225l135 64v0q14 6 25 16h65h16v16v0h-16h-51q19 26 19 59q-1 43 -30 71q-28 29 -71 30h-67v0q-50 0 -93 -28l-7 -5v0l-7 -5v0l9 -13v0l6 4v0l8 5v0z" />
    <glyph glyph-name="uniF7D7" unicode="&#xf7d7;" horiz-adv-x="384" 
d="M0 416h384h-384h384v-16v0h-384v0v16v0zM200 288h184h-184h184v-16v0h-184v0v-304v0h-16v0v304v0h-184v0v16v0h184h16z" />
    <glyph glyph-name="uniF7D7" unicode="&#x20b8;" horiz-adv-x="384" 
d="M0 416h384h-384h384v-16v0h-384v0v16v0zM200 288h184h-184h184v-16v0h-184v0v-304v0h-16v0v304v0h-184v0v16v0h184h16z" />
    <glyph glyph-name="uniF158" unicode="&#xf158;" horiz-adv-x="384" 
d="M72 416h-8h8h-8v-8v0v-248v0h-64v0v-16v0h64v0v-64v0h-64v0v-16v0h64v0v-80v0v-8v0h16v0v8v0v80v0h240v0v16v0h-240v0v64v0h152v0q58 1 96 40q39 38 40 96q-1 58 -40 96q-38 39 -96 40h-160v0zM80 160v240v-240v240h152v0q51 -1 85 -35t35 -85q-1 -51 -35 -85t-85 -35
h-152v0z" />
    <glyph glyph-name="uniF158" unicode="&#x20bd;" horiz-adv-x="384" 
d="M72 416h-8h8h-8v-8v0v-248v0h-64v0v-16v0h64v0v-64v0h-64v0v-16v0h64v0v-80v0v-8v0h16v0v8v0v80v0h240v0v16v0h-240v0v64v0h152v0q58 1 96 40q39 38 40 96q-1 58 -40 96q-38 39 -96 40h-160v0zM80 160v240v-240v240h152v0q51 -1 85 -35t35 -85q-1 -51 -35 -85t-85 -35
h-152v0z" />
    <glyph glyph-name="uniF25C" unicode="&#xf25c;" horiz-adv-x="640" 
d="M0 352h8h-8h256v-16v0h-8h-112v-296v0v-8v0h-16v0v8v0v296v0h-112h-8v16v0zM288 344v8v-8v8h12v0l2 -3v0l162 -185v0l162 185v0l2 3v0h12v0v-8v0v-304v0v-8v0h-16v0v8v0v283v0l-154 -176v0l-6 -7v0l-6 7v0l-154 176v0v-283v0v-8v0h-16v0v8v0v304v0z" />
    <glyph glyph-name="uniF25C" unicode="&#x2122;" horiz-adv-x="640" 
d="M0 352h8h-8h256v-16v0h-8h-112v-296v0v-8v0h-16v0v8v0v296v0h-112h-8v16v0zM288 344v8v-8v8h12v0l2 -3v0l162 -185v0l162 185v0l2 3v0h12v0v-8v0v-304v0v-8v0h-16v0v8v0v283v0l-154 -176v0l-6 -7v0l-6 7v0l-154 176v0v-283v0v-8v0h-16v0v8v0v304v0z" />
    <glyph glyph-name="uniF30F" unicode="&#xf30f;" horiz-adv-x="448" 
d="M16 400v-416v416v-416h416v0v416v0h-416v0zM0 416h16h-16h448v-16v0v-416v0v-16v0h-16h-432v16v0v416v0v16v0zM176 96h40h-40h40v128v0h-24h-8v16v0h8h40v-8v0v-136v0h40h8v-16v0h-8h-104v16v0h8v0zM240 304v-32v32v-32h-32v0v32v0h32v0z" />
    <glyph glyph-name="uniF30F" unicode="&#x2139;" horiz-adv-x="448" 
d="M16 400v-416v416v-416h416v0v416v0h-416v0zM0 416h16h-16h448v-16v0v-416v0v-16v0h-16h-432v16v0v416v0v16v0zM176 96h40h-40h40v128v0h-24h-8v16v0h8h40v-8v0v-136v0h40h8v-16v0h-8h-104v16v0h8v0zM240 304v-32v32v-32h-32v0v32v0h32v0z" />
    <glyph glyph-name="uniF060" unicode="&#xf060;" horiz-adv-x="448" 
d="M11 198l-6 -6l6 6l-6 -6l6 -6v0l184 -176v0l5 -5v0l11 11v0l-5 6v0l-170 162v0h404h8v16v0h-8h-404l170 162v0l5 6v0l-11 11v0l-5 -5v0l-184 -176v0z" />
    <glyph glyph-name="uniF060" unicode="&#x2190;" horiz-adv-x="448" 
d="M11 198l-6 -6l6 6l-6 -6l6 -6v0l184 -176v0l5 -5v0l11 11v0l-5 6v0l-170 162v0h404h8v16v0h-8h-404l170 162v0l5 6v0l-11 11v0l-5 -5v0l-184 -176v0z" />
    <glyph glyph-name="uniF062" unicode="&#xf062;" horiz-adv-x="384" 
d="M198 405l-6 6l6 -6l-6 6l-6 -6v0l-176 -184v0l-5 -5v0l11 -11v0l6 5v0l162 170v0v-404v0v-8v0h16v0v8v0v404v0l162 -170v0l6 -5v0l11 11v0l-5 6v0l-176 184v-1z" />
    <glyph glyph-name="uniF062" unicode="&#x2191;" horiz-adv-x="384" 
d="M198 405l-6 6l6 -6l-6 6l-6 -6v0l-176 -184v0l-5 -5v0l11 -11v0l6 5v0l162 170v0v-404v0v-8v0h16v0v8v0v404v0l162 -170v0l6 -5v0l11 11v0l-5 6v0l-176 184v-1z" />
    <glyph glyph-name="uniF061" unicode="&#xf061;" horiz-adv-x="448" 
d="M438 186l6 6l-6 -6l6 6l-6 6v0l-184 176v0l-6 5v0l-11 -11v0l6 -6v0l169 -162v0h-404h-8v-16v0h8h404l-169 -162v0l-6 -6v0l11 -11v0l6 5v0l184 176v0z" />
    <glyph glyph-name="uniF061" unicode="&#x2192;" horiz-adv-x="448" 
d="M438 186l6 6l-6 -6l6 6l-6 6v0l-184 176v0l-6 5v0l-11 -11v0l6 -6v0l169 -162v0h-404h-8v-16v0h8h404l-169 -162v0l-6 -6v0l11 -11v0l6 5v0l184 176v0z" />
    <glyph glyph-name="uniF063" unicode="&#xf063;" horiz-adv-x="384" 
d="M198 -22l-6 -6l6 6l-6 -6l-6 6v0l-176 184v0l-5 6v0l11 11v0l6 -5v0l162 -170v0v404v0v8v0h16v0v-8v0v-404v0l162 169v0l6 6v0l11 -11v0l-5 -6v0l-176 -184v0z" />
    <glyph glyph-name="uniF063" unicode="&#x2193;" horiz-adv-x="384" 
d="M198 -22l-6 -6l6 6l-6 -6l-6 6v0l-176 184v0l-5 6v0l11 11v0l6 -5v0l162 -170v0v404v0v8v0h16v0v-8v0v-404v0l162 169v0l6 6v0l11 -11v0l-5 -6v0l-176 -184v0z" />
    <glyph glyph-name="uniF337" unicode="&#xf337;" 
d="M160 128v16v-16v16h16h176v-16v0v-48v0v-16v0h16h16l117 117v0l11 11v0l-11 11v0l-117 117v0h-16h-16v-16v0v-48v0v-16v0h-16h-176v16v0v48v0v16v0h-16h-16l-117 -117v0l-11 -11v0l11 -11v0l117 -117v0h16h16v16v0v48v0zM144 80h-9h9h-9l-112 112v0l112 112v0h9v0v-64v0
v-16v0h16h208v16v0v64v0h9v0l112 -112v0l-112 -112v0h-9v0v64v0v16v0h-16h-208v-16v0v-64v0z" />
    <glyph glyph-name="uniF337" unicode="&#x2194;" 
d="M160 128v16v-16v16h16h176v-16v0v-48v0v-16v0h16h16l117 117v0l11 11v0l-11 11v0l-117 117v0h-16h-16v-16v0v-48v0v-16v0h-16h-176v16v0v48v0v16v0h-16h-16l-117 -117v0l-11 -11v0l11 -11v0l117 -117v0h16h16v16v0v48v0zM144 80h-9h9h-9l-112 112v0l112 112v0h9v0v-64v0
v-16v0h16h208v16v0v64v0h9v0l112 -112v0l-112 -112v0h-9v0v64v0v16v0h-16h-208v-16v0v-64v0z" />
    <glyph glyph-name="uniF338" unicode="&#xf338;" horiz-adv-x="256" 
d="M192 96h-16h16h-16v16v0v160v0v16v0h16h64v16v0v16v0l-117 117v0l-11 11v0l-11 -11v0l-117 -117v0v-16v0v-16v0h16h64v-16v0v-160v0v-16v0h-16h-64v-16v0v-16v0l117 -117v0l11 -11v0l11 11v0l117 117v0v16v0v16v0h-16h-48zM240 80v-9v9v-9l-112 -112v0l-112 112v0v9v0h64
h16v16v0v192v0v16v0h-16h-64v9v0l112 112v0l112 -112v0v-9v0h-64h-16v-16v0v-192v0v-16v0h16h64z" />
    <glyph glyph-name="uniF338" unicode="&#x2b0d;" horiz-adv-x="256" 
d="M192 96h-16h16h-16v16v0v160v0v16v0h16h64v16v0v16v0l-117 117v0l-11 11v0l-11 -11v0l-117 -117v0v-16v0v-16v0h16h64v-16v0v-160v0v-16v0h-16h-64v-16v0v-16v0l117 -117v0l11 -11v0l11 11v0l117 117v0v16v0v16v0h-16h-48zM240 80v-9v9v-9l-112 -112v0l-112 112v0v9v0h64
h16v16v0v192v0v16v0h-16h-64v9v0l112 112v0l112 -112v0v-9v0h-64h-16v-16v0v-192v0v-16v0h16h64z" />
    <glyph glyph-name="uniF338" unicode="&#x2195;" horiz-adv-x="256" 
d="M192 96h-16h16h-16v16v0v160v0v16v0h16h64v16v0v16v0l-117 117v0l-11 11v0l-11 -11v0l-117 -117v0v-16v0v-16v0h16h64v-16v0v-160v0v-16v0h-16h-64v-16v0v-16v0l117 -117v0l11 -11v0l11 11v0l117 117v0v16v0v16v0h-16h-48zM240 80v-9v9v-9l-112 -112v0l-112 112v0v9v0h64
h16v16v0v192v0v16v0h-16h-64v9v0l112 112v0l112 -112v0v-9v0h-64h-16v-16v0v-192v0v-16v0h16h64z" />
    <glyph glyph-name="uniF360" unicode="&#xf360;" horiz-adv-x="448" 
d="M432 400v-416v416v-416h-416v0v416v0h416v0zM448 416h-16h16h-448v-16v0v-416v0v-16v0h16h432v16v0v416v0v16v0zM163 269l26 -26l-26 26l26 -26l11 -11v0l-11 -11v0l-74 -74v0l-11 -11v0l11 -11v0l42 -42v0l11 -11v0l11 11v0l74 74v0l11 11v0l11 -11v0l26 -26v0l11 -11v0
l11 11v0l13 13v0v144v0v16v0h-16h-144l-13 -13v0l-11 -11v0l11 -11v0zM211 221l12 11l-12 -11l12 11l-12 11v0l-36 37v0l8 8v0h137v0v-137v0l-8 -8v0l-37 36v0l-11 12v0l-11 -12v0l-85 -84v0l-41 41v0l84 85v0z" />
    <glyph glyph-name="uniF360" unicode="&#x2197;" horiz-adv-x="448" 
d="M432 400v-416v416v-416h-416v0v416v0h416v0zM448 416h-16h16h-448v-16v0v-416v0v-16v0h16h432v16v0v416v0v16v0zM163 269l26 -26l-26 26l26 -26l11 -11v0l-11 -11v0l-74 -74v0l-11 -11v0l11 -11v0l42 -42v0l11 -11v0l11 11v0l74 74v0l11 11v0l11 -11v0l26 -26v0l11 -11v0
l11 11v0l13 13v0v144v0v16v0h-16h-144l-13 -13v0l-11 -11v0l11 -11v0zM211 221l12 11l-12 -11l12 11l-12 11v0l-36 37v0l8 8v0h137v0v-137v0l-8 -8v0l-37 36v0l-11 12v0l-11 -12v0l-85 -84v0l-41 41v0l84 85v0z" />
    <glyph glyph-name="uniF344" unicode="&#xf344;" horiz-adv-x="448" 
d="M8 195l-6 -5l6 5l-6 -5l6 -6v0l136 -136v0l6 -6v0l11 12v0l-6 5v0l-122 123v0h309h8v16v0h-8h-309l122 122v0l6 6v0l-11 11v0l-6 -6v0l-136 -136v0zM430 6v-8v8v-8h16v0v8v0v368v0v8v0h-16v0v-8v0v-368v0z" />
    <glyph glyph-name="uniF344" unicode="&#x21a4;" horiz-adv-x="448" 
d="M8 195l-6 -5l6 5l-6 -5l6 -6v0l136 -136v0l6 -6v0l11 12v0l-6 5v0l-122 123v0h309h8v16v0h-8h-309l122 122v0l6 6v0l-11 11v0l-6 -6v0l-136 -136v0zM430 6v-8v8v-8h16v0v8v0v368v0v8v0h-16v0v-8v0v-368v0z" />
    <glyph glyph-name="uniF342" unicode="&#xf342;" horiz-adv-x="384" 
d="M198 406l-6 5l6 -5l-6 5l-6 -5v0l-136 -136v0l-5 -6v0l11 -11v0l6 5v0l122 123v0v-309v0v-8v0h16v0v8v0v309v0l122 -123v0l6 -5v0l11 11v0l-5 6v0l-136 136v0zM8 -16h-8h8h-8v-16v0h8h376v16v0h-8h-368z" />
    <glyph glyph-name="uniF342" unicode="&#x21a5;" horiz-adv-x="384" 
d="M198 406l-6 5l6 -5l-6 5l-6 -5v0l-136 -136v0l-5 -6v0l11 -11v0l6 5v0l122 123v0v-309v0v-8v0h16v0v8v0v309v0l122 -123v0l6 -5v0l11 11v0l-5 6v0l-136 136v0zM8 -16h-8h8h-8v-16v0h8h376v16v0h-8h-368z" />
    <glyph glyph-name="uniF343" unicode="&#xf343;" horiz-adv-x="448" 
d="M440 184l6 6l-6 -6l6 6l-6 5v0l-136 136v0l-6 6v0l-11 -11v0l6 -6v0l122 -122v0h-309h-8v-16v0h8h309l-122 -123v0l-6 -5v0l11 -12v0l6 6v0l136 136v0zM18 374v8v-8v8h-16v0v-8v0v-368v0v-8v0h16v0v8v0v368v0z" />
    <glyph glyph-name="uniF343" unicode="&#x21a6;" horiz-adv-x="448" 
d="M440 184l6 6l-6 -6l6 6l-6 5v0l-136 136v0l-6 6v0l-11 -11v0l6 -6v0l122 -122v0h-309h-8v-16v0h8h309l-122 -123v0l-6 -5v0l11 -12v0l6 6v0l136 136v0zM18 374v8v-8v8h-16v0v-8v0v-368v0v-8v0h16v0v8v0v368v0z" />
    <glyph glyph-name="uniF345" unicode="&#xf345;" horiz-adv-x="384" 
d="M198 -26l-6 -6l6 6l-6 -6l-6 6v0l-136 136v0l-5 5v0l11 12v0l6 -6v0l122 -122v0v308v0v8v0h16v0v-8v0v-308v0l122 122v0l6 6v0l11 -12v0l-5 -5v0l-136 -136v0zM8 395h-8h8h-8v16v0h8h376v-16v0h-8h-368z" />
    <glyph glyph-name="uniF345" unicode="&#x21a7;" horiz-adv-x="384" 
d="M198 -26l-6 -6l6 6l-6 -6l-6 6v0l-136 136v0l-5 5v0l11 12v0l6 -6v0l122 -122v0v308v0v8v0h16v0v-8v0v-308v0l122 122v0l6 6v0l11 -12v0l-5 -5v0l-136 -136v0zM8 395h-8h8h-8v16v0h8h376v-16v0h-8h-368z" />
    <glyph glyph-name="uniF0E2" unicode="&#xf0e2;" 
d="M128 28q71 -53 153 -42v0v0q83 10 139 78q53 71 42 153q-10 83 -78 139q-71 53 -153 42q-83 -10 -139 -78l-36 -48v0h128h8v-16v0h-8h-152v8v0v144v0v8v0h16v0v-8v0v-120v0l31 42v0v0v0h1v0q39 49 93 70q55 22 113 14t108 -46q49 -39 70 -93q22 -55 14 -113t-45 -108
q-40 -49 -94 -70q-55 -22 -113 -14t-108 45q-37 30 -58 69l14 8v0q19 -37 54 -64v0z" />
    <glyph glyph-name="uniF0E2" unicode="&#x21ba;" 
d="M128 28q71 -53 153 -42v0v0q83 10 139 78q53 71 42 153q-10 83 -78 139q-71 53 -153 42q-83 -10 -139 -78l-36 -48v0h128h8v-16v0h-8h-152v8v0v144v0v8v0h16v0v-8v0v-120v0l31 42v0v0v0h1v0q39 49 93 70q55 22 113 14t108 -46q49 -39 70 -93q22 -55 14 -113t-45 -108
q-40 -49 -94 -70q-55 -22 -113 -14t-108 45q-37 30 -58 69l14 8v0q19 -37 54 -64v0z" />
    <glyph glyph-name="uniF01E" unicode="&#xf01e;" 
d="M384 28q-71 -53 -153 -42v0v0q-83 10 -139 78q-53 71 -42 153q10 83 78 139q71 53 153 42q83 -10 139 -78l36 -48v0h-128h-8v-16v0h8h152v8v0v144v0v8v0h-16v0v-8v0v-120v0l-31 42v0v0v0v0v0q-40 49 -94 70q-55 22 -113 14t-108 -46q-49 -39 -70 -93q-22 -55 -14 -113
t46 -108q39 -49 93 -70q55 -22 113 -14t108 45q37 30 58 69l-14 8v0q-20 -37 -54 -64v0z" />
    <glyph glyph-name="uniF01E" unicode="&#x21bb;" 
d="M384 28q-71 -53 -153 -42v0v0q-83 10 -139 78q-53 71 -42 153q10 83 78 139q71 53 153 42q83 -10 139 -78l36 -48v0h-128h-8v-16v0h8h152v8v0v144v0v8v0h-16v0v-8v0v-120v0l-31 42v0v0v0v0v0q-40 49 -94 70q-55 22 -113 14t-108 -46q-49 -39 -70 -93q-22 -55 -14 -113
t46 -108q39 -49 93 -70q55 -22 113 -14t108 45q37 30 58 69l-14 8v0q-20 -37 -54 -64v0z" />
    <glyph glyph-name="uniF0EC" unicode="&#xf0ec;" horiz-adv-x="448" 
d="M438 314l5 6l-5 -6l5 6l-5 6v0l-104 104v0l-6 5v0l-11 -11v0l5 -6v0l91 -90v0h-405h-8v-16v0h8h405l-91 -90v0l-5 -6v0l11 -11v0l6 5v0l104 104v0zM10 58l104 -104l-104 104l104 -104l6 -5v0l11 11v0l-5 6v0l-91 90v0h405h8v16v0h-8h-405l91 90v0l5 6v0l-11 11v0l-6 -5v0
l-104 -104v0l-5 -6v0l5 -6v0z" />
    <glyph glyph-name="uniF0EC" unicode="&#x21c4;" horiz-adv-x="448" 
d="M438 314l5 6l-5 -6l5 6l-5 6v0l-104 104v0l-6 5v0l-11 -11v0l5 -6v0l91 -90v0h-405h-8v-16v0h8h405l-91 -90v0l-5 -6v0l11 -11v0l6 5v0l104 104v0zM10 58l104 -104l-104 104l104 -104l6 -5v0l11 11v0l-5 6v0l-91 90v0h405h8v16v0h-8h-405l91 90v0l5 6v0l-11 11v0l-6 -5v0
l-104 -104v0l-5 -6v0l5 -6v0z" />
    <glyph glyph-name="uniF33E" unicode="&#xf33e;" horiz-adv-x="448" 
d="M0 8v-8v8v-8h16v0v8v0v368v0v8v0h-16v0v-8v0v-368v0zM98 198l-5 -6l5 6l-5 -6l5 -6v0l136 -136v0l6 -5v0l11 11v0l-5 6v0l-123 122v0h317h8v16v0h-8h-317l123 122v0l5 6v0l-11 11v0l-6 -5v0l-136 -136v0z" />
    <glyph glyph-name="uniF33E" unicode="&#x21e4;" horiz-adv-x="448" 
d="M0 8v-8v8v-8h16v0v8v0v368v0v8v0h-16v0v-8v0v-368v0zM98 198l-5 -6l5 6l-5 -6l5 -6v0l136 -136v0l6 -5v0l11 11v0l-5 6v0l-123 122v0h317h8v16v0h-8h-317l123 122v0l5 6v0l-11 11v0l-6 -5v0l-136 -136v0z" />
    <glyph glyph-name="uniF340" unicode="&#xf340;" horiz-adv-x="448" 
d="M448 376v8v-8v8h-16v0v-8v0v-368v0v-8v0h16v0v8v0v368v0zM350 186l5 6l-5 -6l5 6l-5 6v0l-136 136v0l-6 5v0l-11 -11v0l5 -6v0l123 -122v0h-317h-8v-16v0h8h317l-123 -122v0l-5 -6v0l11 -11v0l6 5v0l136 136v0z" />
    <glyph glyph-name="uniF340" unicode="&#x21e5;" horiz-adv-x="448" 
d="M448 376v8v-8v8h-16v0v-8v0v-368v0v-8v0h16v0v8v0v368v0zM350 186l5 6l-5 -6l5 6l-5 6v0l-136 136v0l-6 5v0l-11 -11v0l5 -6v0l123 -122v0h-317h-8v-16v0h8h317l-123 -122v0l-5 -6v0l11 -11v0l6 5v0l136 136v0z" />
    <glyph glyph-name="uniF68B" unicode="&#xf68b;" horiz-adv-x="384" 
d="M0 -32h8h-8h384v8v0v88v0v8v0h-16v0v-8v0v-80v0h-342v0l180 203v0l5 5v0l-5 5v0l-180 203v0h342v0v-80v0v-8v0h16v0v8v0v88v0v8v0h-8h-376v-11v0l2 -2v0l187 -211v0l-187 -211v0l-2 -2v0v-11v0z" />
    <glyph glyph-name="uniF68B" unicode="&#x2211;" horiz-adv-x="384" 
d="M0 -32h8h-8h384v8v0v88v0v8v0h-16v0v-8v0v-80v0h-342v0l180 203v0l5 5v0l-5 5v0l-180 203v0h342v0v-80v0v-8v0h16v0v8v0v88v0v8v0h-8h-376v-11v0l2 -2v0l187 -211v0l-187 -211v0l-2 -2v0v-11v0z" />
    <glyph glyph-name="uniF697" unicode="&#xf697;" horiz-adv-x="576" 
d="M352 416h-6h6h-6l-2 -6v0l-137 -413v0l-112 223v0l-2 4v0h-5h-88v-16v0h8h75l118 -236v0l2 -4v0h11v0l2 5v0l142 427v0h210h8v16v0h-8h-216z" />
    <glyph glyph-name="uniF697" unicode="&#x221a;" horiz-adv-x="576" 
d="M352 416h-6h6h-6l-2 -6v0l-137 -413v0l-112 223v0l-2 4v0h-5h-88v-16v0h8h75l118 -236v0l2 -4v0h11v0l2 5v0l142 427v0h210h8v16v0h-8h-216z" />
    <glyph glyph-name="uniF534" unicode="&#xf534;" horiz-adv-x="640" 
d="M0 336h8h-8h179l3 -2v0l138 -131v0l139 131v0l2 2v0h3h176v-8v0v-272v0v-8v0h-8h-171l-2 2v0l-139 131v0l-138 -131v0l-3 -2v0h-3h-176v8v0v272v0v8v0zM308 192l-135 128l135 -128l-135 128h-157v0v-256v0h157v0l135 128v0zM332 192l135 -128l-135 128l135 -128h157v0
v256v0h-157v0l-135 -128v0z" />
    <glyph glyph-name="uniF534" unicode="&#x267e;" horiz-adv-x="640" 
d="M0 336h8h-8h179l3 -2v0l138 -131v0l139 131v0l2 2v0h3h176v-8v0v-272v0v-8v0h-8h-171l-2 2v0l-139 131v0l-138 -131v0l-3 -2v0h-3h-176v8v0v272v0v8v0zM308 192l-135 128l135 -128l-135 128h-157v0v-256v0h157v0l135 128v0zM332 192l135 -128l-135 128l135 -128h157v0
v256v0h-157v0l-135 -128v0z" />
    <glyph glyph-name="uniF534" unicode="&#x221e;" horiz-adv-x="640" 
d="M0 336h8h-8h179l3 -2v0l138 -131v0l139 131v0l2 2v0h3h176v-8v0v-272v0v-8v0h-8h-171l-2 2v0l-139 131v0l-138 -131v0l-3 -2v0h-3h-176v8v0v272v0v8v0zM308 192l-135 128l135 -128l-135 128h-157v0v-256v0h157v0l135 128v0zM332 192l135 -128l-135 128l135 -128h157v0
v256v0h-157v0l-135 -128v0z" />
    <glyph glyph-name="uniF899" unicode="&#xf899;" horiz-adv-x="640" 
d="M16 198l-8 2l8 -2l-8 2q-10 2 -8 2v0v0v0v0v0v0v0v0v1q1 0 1 1q0 3 1 7l8 24q9 31 30 73q20 41 54 73q33 33 82 35q36 -1 61 -20q24 -20 41 -52q16 -31 28 -70q11 -38 21 -79h1v-1v0q10 -41 22 -79q11 -38 27 -68q29 -61 87 -63q41 1 72 30q30 30 50 70t29 70q5 15 7 23
q1 3 1 4q0 2 1 3v1v0v1v0v0v0v0v0v0v0l8 -2v0q10 -2 8 -2v0v0v0v0v0v0v0v0v-1q-1 0 -1 -1q0 -3 -1 -7l-8 -24q-9 -31 -30 -73q-20 -41 -54 -73q-33 -33 -82 -35q-36 1 -61 20q-24 20 -41 52q-16 31 -28 70q-11 38 -21 79h-1v1v0q-10 41 -22 79q-11 38 -27 68q-29 61 -87 63
q-41 -1 -71 -30q-31 -30 -51 -70q-20 -39 -29 -70q-5 -15 -7 -23q-1 -3 -1 -4q0 -2 -1 -3v-1v0v-1v0v0v0v0v0v0v0z" />
    <glyph glyph-name="uniF899" unicode="&#x223f;" horiz-adv-x="640" 
d="M16 198l-8 2l8 -2l-8 2q-10 2 -8 2v0v0v0v0v0v0v0v0v1q1 0 1 1q0 3 1 7l8 24q9 31 30 73q20 41 54 73q33 33 82 35q36 -1 61 -20q24 -20 41 -52q16 -31 28 -70q11 -38 21 -79h1v-1v0q10 -41 22 -79q11 -38 27 -68q29 -61 87 -63q41 1 72 30q30 30 50 70t29 70q5 15 7 23
q1 3 1 4q0 2 1 3v1v0v1v0v0v0v0v0v0v0l8 -2v0q10 -2 8 -2v0v0v0v0v0v0v0v0v-1q-1 0 -1 -1q0 -3 -1 -7l-8 -24q-9 -31 -30 -73q-20 -41 -54 -73q-33 -33 -82 -35q-36 1 -61 20q-24 20 -41 52q-16 31 -28 70q-11 38 -21 79h-1v1v0q-10 41 -22 79q-11 38 -27 68q-29 61 -87 63
q-41 -1 -71 -30q-31 -30 -51 -70q-20 -39 -29 -70q-5 -15 -7 -23q-1 -3 -1 -4q0 -2 -1 -3v-1v0v-1v0v0v0v0v0v0v0z" />
    <glyph glyph-name="uniF668" unicode="&#xf668;" horiz-adv-x="384" 
d="M32 -32v8v-8v8v264v0q2 68 47 113t113 47q68 -2 113 -47t47 -113v-264v0v-8v0h16v0v8v0v264v0q-2 75 -52 124q-49 50 -124 52q-75 -2 -124 -52q-50 -49 -52 -124v-264v0v-8v0h16v0z" />
    <glyph glyph-name="uniF668" unicode="&#x22c2;" horiz-adv-x="384" 
d="M32 -32v8v-8v8v264v0q2 68 47 113t113 47q68 -2 113 -47t47 -113v-264v0v-8v0h16v0v8v0v264v0q-2 75 -52 124q-49 50 -124 52q-75 -2 -124 -52q-50 -49 -52 -124v-264v0v-8v0h16v0z" />
    <glyph glyph-name="uniF6A2" unicode="&#xf6a2;" horiz-adv-x="384" 
d="M32 416v-8v8v-8v-264v0q2 -68 47 -113t113 -47q68 2 113 47t47 113v264v0v8v0h16v0v-8v0v-264v0q-2 -75 -52 -124q-49 -50 -124 -52q-75 2 -124 52q-50 49 -52 124v264v0v8v0h16v0z" />
    <glyph glyph-name="uniF6A2" unicode="&#x22c3;" horiz-adv-x="384" 
d="M32 416v-8v8v-8v-264v0q2 -68 47 -113t113 -47q68 2 113 47t47 113v264v0v8v0h16v0v-8v0v-264v0q-2 -75 -52 -124q-49 -50 -124 -52q-75 2 -124 52q-50 49 -52 124v264v0v8v0h16v0z" />
    <glyph glyph-name="uniF106" unicode="&#xf106;" horiz-adv-x="448" 
d="M224 307l6 -5l-6 5l6 -5l176 -176v0l5 -6v0l-11 -11v0l-6 5v0l-170 171v0l-170 -171v0l-6 -5v0l-11 11v0l5 6v0l176 176v0l6 5v0z" />
    <glyph glyph-name="uniF106" unicode="&#x2303;" horiz-adv-x="448" 
d="M224 307l6 -5l-6 5l6 -5l176 -176v0l5 -6v0l-11 -11v0l-6 5v0l-170 171v0l-170 -171v0l-6 -5v0l-11 11v0l5 6v0l176 176v0l6 5v0z" />
    <glyph glyph-name="uniF107" unicode="&#xf107;" horiz-adv-x="448" 
d="M224 77l6 5l-6 -5l6 5l176 176v0l5 6v0l-11 11v0l-6 -5v0l-170 -171v0l-170 171v0l-6 5v0l-11 -11v0l5 -6v0l176 -176v0l6 -5v0z" />
    <glyph glyph-name="uniF107" unicode="&#x2304;" horiz-adv-x="448" 
d="M224 77l6 5l-6 -5l6 5l176 176v0l5 6v0l-11 11v0l-6 -5v0l-170 -171v0l-170 171v0l-6 5v0l-11 -11v0l5 -6v0l176 -176v0l6 -5v0z" />
    <glyph glyph-name="uniF2E1" unicode="&#xf2e1;" horiz-adv-x="384" 
d="M64 448h8h-8h256v-8v0v-104v0h-1v0q30 -27 47 -64q18 -37 18 -80t-17 -80q-17 -36 -47 -63v-105v0v-8v0h-8h-248v8v0v105v0q-30 27 -47 63q-17 37 -17 80t18 80q17 37 47 64h-1v0v104v0v8v0zM80 36v-84v84v-84h224v0v84v0q-48 -35 -112 -36q-64 1 -112 36v0zM304 432
h-224h224h-224v-84v0q48 35 112 36q64 -1 112 -36v84v0zM368 192q0 48 -24 88v0v0q-23 40 -64 64q-42 24 -88 24t-88 -24q-41 -24 -64 -64q-24 -40 -24 -88t24 -88q23 -40 64 -64q42 -24 88 -24t88 24q41 24 64 64q24 40 24 88v0zM200 288v-92v92v-92l61 -46v0l6 -4v0
l-9 -13v0l-7 5v0l-64 48v0l-3 2v0v4v0v96v0v8v0h16v0v-8v0z" />
    <glyph glyph-name="uniF2E1" unicode="&#x231a;" horiz-adv-x="384" 
d="M64 448h8h-8h256v-8v0v-104v0h-1v0q30 -27 47 -64q18 -37 18 -80t-17 -80q-17 -36 -47 -63v-105v0v-8v0h-8h-248v8v0v105v0q-30 27 -47 63q-17 37 -17 80t18 80q17 37 47 64h-1v0v104v0v8v0zM80 36v-84v84v-84h224v0v84v0q-48 -35 -112 -36q-64 1 -112 36v0zM304 432
h-224h224h-224v-84v0q48 35 112 36q64 -1 112 -36v84v0zM368 192q0 48 -24 88v0v0q-23 40 -64 64q-42 24 -88 24t-88 -24q-41 -24 -64 -64q-24 -40 -24 -88t24 -88q23 -40 64 -64q42 -24 88 -24t88 24q41 24 64 64q24 40 24 88v0zM200 288v-92v92v-92l61 -46v0l6 -4v0
l-9 -13v0l-7 5v0l-64 48v0l-3 2v0v4v0v96v0v8v0h16v0v-8v0z" />
    <glyph glyph-name="uniF253" unicode="&#xf253;" horiz-adv-x="384" 
d="M0 448h8h-8h384v-16v0h-8h-24v-128v0v-4v0l-3 -2v0l-143 -106v0l130 -96v0v0v0v0v0l13 -10v0l3 -2v0v-4v0v-128v0h24h8v-16v0h-8h-376v16v0h8h24v128v0v4v0l3 2v0l13 10v0v0v0v0v0l131 96v0l-144 106v0l-3 2v0v4v0v128v0h-24h-8v16v0zM54 80l-6 -4l6 4l-6 -4v-124v0h288
v0v124v0l-5 4v0h-277v0zM309 96l-117 86l117 -86l-117 86l-117 -86v0h234v0zM48 432v-124v124v-124l144 -106v0l144 106v0v124v0h-288v0z" />
    <glyph glyph-name="uniF253" unicode="&#x231b;" horiz-adv-x="384" 
d="M0 448h8h-8h384v-16v0h-8h-24v-128v0v-4v0l-3 -2v0l-143 -106v0l130 -96v0v0v0v0v0l13 -10v0l3 -2v0v-4v0v-128v0h24h8v-16v0h-8h-376v16v0h8h24v128v0v4v0l3 2v0l13 10v0v0v0v0v0l131 96v0l-144 106v0l-3 2v0v4v0v128v0h-24h-8v16v0zM54 80l-6 -4l6 4l-6 -4v-124v0h288
v0v124v0l-5 4v0h-277v0zM309 96l-117 86l117 -86l-117 86l-117 -86v0h234v0zM48 432v-124v124v-124l144 -106v0l144 106v0v124v0h-288v0z" />
    <glyph glyph-name="uniF11C" unicode="&#xf11c;" horiz-adv-x="576" 
d="M16 368v-352v352v-352h544v0v352v0h-544v0zM0 384h16h-16h576v-16v0v-352v0v-16v0h-16h-560v16v0v352v0v16v0zM80 112v-32v32v-32h32v0v32v0h-32v0zM64 128h16h-16h64v-16v0v-32v0v-16v0h-16h-48v16v0v32v0v16v0zM400 112h-224h224h-224v-32v0h224v0v32v0zM176 128h224
h-224h240v-16v0v-32v0v-16v0h-16h-240v16v0v32v0v16v0h16v0zM80 208v-32v32v-32h32v0v32v0h-32v0zM64 224h16h-16h64v-16v0v-32v0v-16v0h-16h-48v16v0v32v0v16v0zM208 208h-32h32h-32v-32v0h32v0v32v0zM176 224h32h-32h48v-16v0v-32v0v-16v0h-16h-48v16v0v32v0v16v0h16v0z
M272 208v-32v32v-32h32v0v32v0h-32v0zM256 224h16h-16h64v-16v0v-32v0v-16v0h-16h-48v16v0v32v0v16v0zM400 208h-32h32h-32v-32v0h32v0v32v0zM368 224h32h-32h48v-16v0v-32v0v-16v0h-16h-48v16v0v32v0v16v0h16v0zM464 208v-32v32v-32h32v0v32v0h-32v0zM448 224h16h-16h64
v-16v0v-32v0v-16v0h-16h-48v16v0v32v0v16v0zM496 112h-32h32h-32v-32v0h32v0v32v0zM464 128h32h-32h48v-16v0v-32v0v-16v0h-16h-48v16v0v32v0v16v0h16v0zM80 304v-32v32v-32h32v0v32v0h-32v0zM64 320h16h-16h64v-16v0v-32v0v-16v0h-16h-48v16v0v32v0v16v0zM208 304h-32h32
h-32v-32v0h32v0v32v0zM176 320h32h-32h48v-16v0v-32v0v-16v0h-16h-48v16v0v32v0v16v0h16v0zM272 304v-32v32v-32h32v0v32v0h-32v0zM256 320h16h-16h64v-16v0v-32v0v-16v0h-16h-48v16v0v32v0v16v0zM400 304h-32h32h-32v-32v0h32v0v32v0zM368 320h32h-32h48v-16v0v-32v0v-16v0
h-16h-48v16v0v32v0v16v0h16v0zM464 304v-32v32v-32h32v0v32v0h-32v0zM448 320h16h-16h64v-16v0v-32v0v-16v0h-16h-48v16v0v32v0v16v0z" />
    <glyph glyph-name="uniF11C" unicode="&#x2328;" horiz-adv-x="576" 
d="M16 368v-352v352v-352h544v0v352v0h-544v0zM0 384h16h-16h576v-16v0v-352v0v-16v0h-16h-560v16v0v352v0v16v0zM80 112v-32v32v-32h32v0v32v0h-32v0zM64 128h16h-16h64v-16v0v-32v0v-16v0h-16h-48v16v0v32v0v16v0zM400 112h-224h224h-224v-32v0h224v0v32v0zM176 128h224
h-224h240v-16v0v-32v0v-16v0h-16h-240v16v0v32v0v16v0h16v0zM80 208v-32v32v-32h32v0v32v0h-32v0zM64 224h16h-16h64v-16v0v-32v0v-16v0h-16h-48v16v0v32v0v16v0zM208 208h-32h32h-32v-32v0h32v0v32v0zM176 224h32h-32h48v-16v0v-32v0v-16v0h-16h-48v16v0v32v0v16v0h16v0z
M272 208v-32v32v-32h32v0v32v0h-32v0zM256 224h16h-16h64v-16v0v-32v0v-16v0h-16h-48v16v0v32v0v16v0zM400 208h-32h32h-32v-32v0h32v0v32v0zM368 224h32h-32h48v-16v0v-32v0v-16v0h-16h-48v16v0v32v0v16v0h16v0zM464 208v-32v32v-32h32v0v32v0h-32v0zM448 224h16h-16h64
v-16v0v-32v0v-16v0h-16h-48v16v0v32v0v16v0zM496 112h-32h32h-32v-32v0h32v0v32v0zM464 128h32h-32h48v-16v0v-32v0v-16v0h-16h-48v16v0v32v0v16v0h16v0zM80 304v-32v32v-32h32v0v32v0h-32v0zM64 320h16h-16h64v-16v0v-32v0v-16v0h-16h-48v16v0v32v0v16v0zM208 304h-32h32
h-32v-32v0h32v0v32v0zM176 320h32h-32h48v-16v0v-32v0v-16v0h-16h-48v16v0v32v0v16v0h16v0zM272 304v-32v32v-32h32v0v32v0h-32v0zM256 320h16h-16h64v-16v0v-32v0v-16v0h-16h-48v16v0v32v0v16v0zM400 304h-32h32h-32v-32v0h32v0v32v0zM368 320h32h-32h48v-16v0v-32v0v-16v0
h-16h-48v16v0v32v0v16v0h16v0zM464 304v-32v32v-32h32v0v32v0h-32v0zM448 320h16h-16h64v-16v0v-32v0v-16v0h-16h-48v16v0v32v0v16v0z" />
    <glyph glyph-name="uniF053" unicode="&#xf053;" horiz-adv-x="320" 
d="M13 192l5 -6l-5 6l5 -6l208 -208v0l6 -5v0l11 11v0l-5 6v0l-203 202v0l203 202v0l5 6v0l-11 11v0l-6 -5v0l-208 -208v0l-5 -6v0z" />
    <glyph glyph-name="uniF053" unicode="&#x2329;" horiz-adv-x="320" 
d="M13 192l5 -6l-5 6l5 -6l208 -208v0l6 -5v0l11 11v0l-5 6v0l-203 202v0l203 202v0l5 6v0l-11 11v0l-6 -5v0l-208 -208v0l-5 -6v0z" />
    <glyph glyph-name="uniF054" unicode="&#xf054;" horiz-adv-x="320" 
d="M307 192l-5 -6l5 6l-5 -6l-208 -208v0l-6 -5v0l-11 11v0l5 6v0l203 202v0l-203 202v0l-5 6v0l11 11v0l6 -5v0l208 -208v0l5 -6v0z" />
    <glyph glyph-name="uniF054" unicode="&#x232a;" horiz-adv-x="320" 
d="M307 192l-5 -6l5 6l-5 -6l-208 -208v0l-6 -5v0l-11 11v0l5 6v0l203 202v0l-203 202v0l-5 6v0l11 11v0l6 -5v0l208 -208v0l5 -6v0z" />
    <glyph glyph-name="uniF55A" unicode="&#xf55a;" horiz-adv-x="576" 
d="M576 0h-16h16h-400l-176 192v0l176 192v0h384h16v-16v0v-352v0v-16v0zM22 192l161 -176l-161 176l161 -176h377v0v352v0h-377v0l-161 -176v0zM422 273l12 -11l-12 11l12 -11l-6 -6v0l-65 -64v0l65 -65v0l6 -5v0l-12 -12v0l-5 6v0l-65 65v0l-65 -65v0l-5 -6v0l-12 12v0
l6 5v0l65 65v0l-65 65v0l-6 5v0l12 12v0l5 -6v0l65 -65v0l65 65v0l5 6v-1z" />
    <glyph glyph-name="uniF55A" unicode="&#x232b;" horiz-adv-x="576" 
d="M576 0h-16h16h-400l-176 192v0l176 192v0h384h16v-16v0v-352v0v-16v0zM22 192l161 -176l-161 176l161 -176h377v0v352v0h-377v0l-161 -176v0zM422 273l12 -11l-12 11l12 -11l-6 -6v0l-65 -64v0l65 -65v0l6 -5v0l-12 -12v0l-5 6v0l-65 65v0l-65 -65v0l-5 -6v0l-12 12v0
l6 5v0l65 65v0l-65 65v0l-6 5v0l12 12v0l5 -6v0l65 -65v0l65 65v0l5 6v-1z" />
    <glyph glyph-name="u1F5B6" unicode="&#x1f5b6;" 
d="M80 288h-16h16h-16v144v0v16v0h16h304l64 -64v0v-96v0h-16v0v89v0l-55 55v0h-297v0v-144v0zM496 240h-480h480h-480v-192v0h48v0v64v0v16v0h16h368v-16v0v-64v0h48v0v192v0zM448 32v-80v80v-80v-16v0h-16h-368v16v0v80v0h-48h-16v16v0v192v0v16v0h16h496v-16v0v-192v0
v-16v0h-16h-48zM80 112v-160v160v-160h352v0v160v0h-352v0zM448 160h-32h32h-32v32v0h32v0v-32v0z" />
    <glyph glyph-name="u1F5B6" unicode="&#x1f5a8;" 
d="M80 288h-16h16h-16v144v0v16v0h16h304l64 -64v0v-96v0h-16v0v89v0l-55 55v0h-297v0v-144v0zM496 240h-480h480h-480v-192v0h48v0v64v0v16v0h16h368v-16v0v-64v0h48v0v192v0zM448 32v-80v80v-80v-16v0h-16h-368v16v0v80v0h-48h-16v16v0v192v0v16v0h16h496v-16v0v-192v0
v-16v0h-16h-48zM80 112v-160v160v-160h352v0v160v0h-352v0zM448 160h-32h32h-32v32v0h32v0v-32v0z" />
    <glyph glyph-name="u1F5B6" unicode="&#xf02f;" 
d="M80 288h-16h16h-16v144v0v16v0h16h304l64 -64v0v-96v0h-16v0v89v0l-55 55v0h-297v0v-144v0zM496 240h-480h480h-480v-192v0h48v0v64v0v16v0h16h368v-16v0v-64v0h48v0v192v0zM448 32v-80v80v-80v-16v0h-16h-368v16v0v80v0h-48h-16v16v0v192v0v16v0h16h496v-16v0v-192v0
v-16v0h-16h-48zM80 112v-160v160v-160h352v0v160v0h-352v0zM448 160h-32h32h-32v32v0h32v0v-32v0z" />
    <glyph glyph-name="u1F5B6" unicode="&#x2399;" 
d="M80 288h-16h16h-16v144v0v16v0h16h304l64 -64v0v-96v0h-16v0v89v0l-55 55v0h-297v0v-144v0zM496 240h-480h480h-480v-192v0h48v0v64v0v16v0h16h368v-16v0v-64v0h48v0v192v0zM448 32v-80v80v-80v-16v0h-16h-368v16v0v80v0h-48h-16v16v0v192v0v16v0h16h496v-16v0v-192v0
v-16v0h-16h-48zM80 112v-160v160v-160h352v0v160v0h-352v0zM448 160h-32h32h-32v32v0h32v0v-32v0z" />
    <glyph glyph-name="uniF052" unicode="&#xf052;" horiz-adv-x="448" 
d="M16 112h416h-416h416v26v0l-208 223v0l-208 -223v0v-26v0zM0 112v32v-32v32l213 228v0l11 12v0l11 -12v0l213 -228v0v-32v0v-16v0h-16h-432v16v0zM8 16h432h-432h440v-16v0h-8h-440v16v0h8v0z" />
    <glyph glyph-name="uniF052" unicode="&#x23cf;" horiz-adv-x="448" 
d="M16 112h416h-416h416v26v0l-208 223v0l-208 -223v0v-26v0zM0 112v32v-32v32l213 228v0l11 12v0l11 -12v0l213 -228v0v-32v0v-16v0h-16h-432v16v0zM8 16h432h-432h440v-16v0h-8h-440v16v0h8v0z" />
    <glyph glyph-name="uniF04E" unicode="&#xf04e;" 
d="M498 182l14 10l-14 -10l14 10l-14 10v0l-258 171v0l-16 11v0v-19v0v-115v0l-208 124v0l-16 10v0v-19v0v-346v0v-19v0l16 10v0l208 124v0v-115v0v-19v0l16 11v0l258 171v0zM224 153l-208 -125l208 125l-208 -125v328v0l208 -125v0v-78v0zM240 30v324v-324v324l243 -162v0
l-243 -162v0z" />
    <glyph glyph-name="uniF04E" unicode="&#x23e9;" 
d="M498 182l14 10l-14 -10l14 10l-14 10v0l-258 171v0l-16 11v0v-19v0v-115v0l-208 124v0l-16 10v0v-19v0v-346v0v-19v0l16 10v0l208 124v0v-115v0v-19v0l16 11v0l258 171v0zM224 153l-208 -125l208 125l-208 -125v328v0l208 -125v0v-78v0zM240 30v324v-324v324l243 -162v0
l-243 -162v0z" />
    <glyph glyph-name="uniF04A" unicode="&#xf04a;" 
d="M14 182l-14 10l14 -10l-14 10l14 10v0l258 171v0l16 11v0v-19v0v-115v0l208 124v0l16 10v0v-19v0v-346v0v-19v0l-16 10v0l-208 124v0v-115v0v-19v0l-16 11v0l-258 171v0zM288 153l208 -125l-208 125l208 -125v328v0l-208 -125v0v-78v0zM272 30v324v-324v324l-243 -162v0
l243 -162v0z" />
    <glyph glyph-name="uniF04A" unicode="&#x23ea;" 
d="M14 182l-14 10l14 -10l-14 10l14 10v0l258 171v0l16 11v0v-19v0v-115v0l208 124v0l16 10v0v-19v0v-346v0v-19v0l-16 10v0l-208 124v0v-115v0v-19v0l-16 11v0l-258 171v0zM288 153l208 -125l-208 125l208 -125v328v0l-208 -125v0v-78v0zM272 30v324v-324v324l-243 -162v0
l243 -162v0z" />
    <glyph glyph-name="uniF050" unicode="&#xf050;" 
d="M496 384v-8v8v-8v-173v0l-240 170v0l-16 11v0v-20v0v-149v0l-224 158v0l-16 11v0v-20v0v-344v0v-20v0l16 11v0l224 158v0v-149v0v-20v0l16 11v0l240 170v0v-173v0v-8v0h16v0v8v0v184v0v184v0v8v0h-16v0zM256 181v22v-22v22v150v0l228 -161v0l-228 -161v0v150v0zM240 189
l-224 -158l224 158l-224 -158v322v0l224 -158v0v-6v0z" />
    <glyph glyph-name="uniF050" unicode="&#x23ed;" 
d="M496 384v-8v8v-8v-173v0l-240 170v0l-16 11v0v-20v0v-149v0l-224 158v0l-16 11v0v-20v0v-344v0v-20v0l16 11v0l224 158v0v-149v0v-20v0l16 11v0l240 170v0v-173v0v-8v0h16v0v8v0v184v0v184v0v8v0h-16v0zM256 181v22v-22v22v150v0l228 -161v0l-228 -161v0v150v0zM240 189
l-224 -158l224 158l-224 -158v322v0l224 -158v0v-6v0z" />
    <glyph glyph-name="uniF049" unicode="&#xf049;" 
d="M16 384v-8v8v-8v-173v0l240 170v0l16 11v0v-20v0v-149v0l224 158v0l16 11v0v-20v0v-344v0v-20v0l-16 11v0l-224 158v0v-149v0v-20v0l-16 11v0l-240 170v0v-173v0v-8v0h-16v0v8v0v184v0v184v0v8v0h16v0zM256 181v22v-22v22v150v0l-228 -161v0l228 -161v0v150v0zM272 189
l224 -158l-224 158l224 -158v322v0l-224 -158v0v-6v0z" />
    <glyph glyph-name="uniF049" unicode="&#x23ee;" 
d="M16 384v-8v8v-8v-173v0l240 170v0l16 11v0v-20v0v-149v0l224 158v0l16 11v0v-20v0v-344v0v-20v0l-16 11v0l-224 158v0v-149v0v-20v0l-16 11v0l-240 170v0v-173v0v-8v0h-16v0v8v0v184v0v184v0v8v0h16v0zM256 181v22v-22v22v150v0l-228 -161v0l228 -161v0v150v0zM272 189
l224 -158l-224 158l224 -158v322v0l-224 -158v0v-6v0z" />
    <glyph glyph-name="uniF34E" unicode="&#xf34e;" 
d="M157 423l6 -5l-6 5l6 -5l-11 -12v0l-5 5v0q-22 20 -53 21q-33 -1 -55 -23t-23 -55q0 -23 12 -41l4 -7v0l-13 -9v0l-4 7v0q-15 22 -15 50q1 40 27 67q27 26 67 27q37 -1 63 -25v0zM103 -4l-49 -50l49 50l-49 -50l-6 -5v0l-11 11v0l5 6v0l50 49v0q-58 62 -60 153
q1 63 31 113q29 51 80 80q50 30 113 31q63 -1 113 -31q51 -29 80 -80q30 -50 31 -113q-2 -91 -60 -153l50 -49v0l5 -6v0l-11 -11v0l-6 5v0l-49 50v0q-62 -58 -153 -60q-91 2 -153 60v0zM464 160q0 57 -28 104v0v0q-27 47 -76 76q-49 28 -104 28t-104 -28q-49 -29 -76 -76
q-28 -47 -28 -104t28 -104q27 -47 76 -76q49 -28 104 -28t104 28q49 29 76 76q28 47 28 104v0zM355 423q26 24 63 25q40 -1 67 -27q26 -27 27 -67q0 -28 -15 -50l-4 -7v0l-13 9v0l4 7v0q12 18 12 41q-1 33 -23 55t-55 23q-31 -1 -52 -21l-6 -5v0l-11 12v0l6 5v0zM264 280
v-132v132v-132l77 -62v0l6 -5v0l-10 -12v0l-6 5v0l-80 64v0l-3 2v0v4v0v136v0v8v0h16v0v-8v0z" />
    <glyph glyph-name="uniF34E" unicode="&#x23f0;" 
d="M157 423l6 -5l-6 5l6 -5l-11 -12v0l-5 5v0q-22 20 -53 21q-33 -1 -55 -23t-23 -55q0 -23 12 -41l4 -7v0l-13 -9v0l-4 7v0q-15 22 -15 50q1 40 27 67q27 26 67 27q37 -1 63 -25v0zM103 -4l-49 -50l49 50l-49 -50l-6 -5v0l-11 11v0l5 6v0l50 49v0q-58 62 -60 153
q1 63 31 113q29 51 80 80q50 30 113 31q63 -1 113 -31q51 -29 80 -80q30 -50 31 -113q-2 -91 -60 -153l50 -49v0l5 -6v0l-11 -11v0l-6 5v0l-49 50v0q-62 -58 -153 -60q-91 2 -153 60v0zM464 160q0 57 -28 104v0v0q-27 47 -76 76q-49 28 -104 28t-104 -28q-49 -29 -76 -76
q-28 -47 -28 -104t28 -104q27 -47 76 -76q49 -28 104 -28t104 28q49 29 76 76q28 47 28 104v0zM355 423q26 24 63 25q40 -1 67 -27q26 -27 27 -67q0 -28 -15 -50l-4 -7v0l-13 9v0l4 7v0q12 18 12 41q-1 33 -23 55t-55 23q-31 -1 -52 -21l-6 -5v0l-11 12v0l6 5v0zM264 280
v-132v132v-132l77 -62v0l6 -5v0l-10 -12v0l-6 5v0l-80 64v0l-3 2v0v4v0v136v0v8v0h16v0v-8v0z" />
    <glyph glyph-name="uniF2F2" unicode="&#xf2f2;" horiz-adv-x="448" 
d="M144 448h160h-160h160v-16v0h-72v0v-80v0q85 -5 141 -63l37 37v0l6 5v0l11 -11v0l-5 -6v0l-38 -37v0q47 -56 48 -133q-2 -88 -61 -147t-147 -61q-88 2 -147 61t-61 147q2 86 58 144q57 59 142 64v80v0h-72v0v16v0zM224 -48q52 0 96 26v0v0q44 25 70 70t26 96t-26 96
t-70 70q-44 26 -96 26t-96 -26q-44 -25 -70 -70t-26 -96t26 -96t70 -70q44 -26 96 -26v0zM232 264v-136v136v-136v-8v0h-16v0v8v0v136v0v8v0h16v0v-8v0z" />
    <glyph glyph-name="uniF2F2" unicode="&#x23f1;" horiz-adv-x="448" 
d="M144 448h160h-160h160v-16v0h-72v0v-80v0q85 -5 141 -63l37 37v0l6 5v0l11 -11v0l-5 -6v0l-38 -37v0q47 -56 48 -133q-2 -88 -61 -147t-147 -61q-88 2 -147 61t-61 147q2 86 58 144q57 59 142 64v80v0h-72v0v16v0zM224 -48q52 0 96 26v0v0q44 25 70 70t26 96t-26 96
t-70 70q-44 26 -96 26t-96 -26q-44 -25 -70 -70t-26 -96t26 -96t70 -70q44 -26 96 -26v0zM232 264v-136v136v-136v-8v0h-16v0v8v0v136v0v8v0h16v0v-8v0z" />
    <glyph glyph-name="uniF254" unicode="&#xf254;" horiz-adv-x="384" 
d="M8 448h-8h8h-8v-16v0h8h24v-128v0v-4v0l3 -2v0l144 -106v0l-144 -106v0l-3 -2v0v-4v0v-128v0h-24h-8v-16v0h8h376v16v0h-8h-24v128v0v4v0l-3 2v0l-143 106v0l143 106v0l3 2v0v4v0v128v0h24h8v16v0h-8h-368zM336 432v-124v124v-124l-144 -106v0l-144 106v0v124v0h288v0z
M192 182l144 -106l-144 106l144 -106v-124v0h-288v0v124v0l144 106v0z" />
    <glyph glyph-name="uniF254" unicode="&#xf250;" horiz-adv-x="384" 
d="M8 448h-8h8h-8v-16v0h8h24v-128v0v-4v0l3 -2v0l144 -106v0l-144 -106v0l-3 -2v0v-4v0v-128v0h-24h-8v-16v0h8h376v16v0h-8h-24v128v0v4v0l-3 2v0l-143 106v0l143 106v0l3 2v0v4v0v128v0h24h8v16v0h-8h-368zM336 432v-124v124v-124l-144 -106v0l-144 106v0v124v0h288v0z
M192 182l144 -106l-144 106l144 -106v-124v0h-288v0v124v0l144 106v0z" />
    <glyph glyph-name="uniF254" unicode="&#x23f3;" horiz-adv-x="384" 
d="M8 448h-8h8h-8v-16v0h8h24v-128v0v-4v0l3 -2v0l144 -106v0l-144 -106v0l-3 -2v0v-4v0v-128v0h-24h-8v-16v0h8h376v16v0h-8h-24v128v0v4v0l-3 2v0l-143 106v0l143 106v0l3 2v0v4v0v128v0h24h8v16v0h-8h-368zM336 432v-124v124v-124l-144 -106v0l-144 106v0v124v0h288v0z
M192 182l144 -106l-144 106l144 -106v-124v0h-288v0v124v0l144 106v0z" />
    <glyph glyph-name="uniF04C" unicode="&#xf04c;" horiz-adv-x="320" 
d="M16 368v-352v352v-352h96v0v352v0h-96v0zM0 384h16h-16h128v-16v0v-352v0v-16v0h-16h-112v16v0v352v0v16v0zM208 368v-352v352v-352h96v0v352v0h-96v0zM192 384h16h-16h128v-16v0v-352v0v-16v0h-16h-112v16v0v352v0v16v0z" />
    <glyph glyph-name="uniF04C" unicode="&#x23f8;" horiz-adv-x="320" 
d="M16 368v-352v352v-352h96v0v352v0h-96v0zM0 384h16h-16h128v-16v0v-352v0v-16v0h-16h-112v16v0v352v0v16v0zM208 368v-352v352v-352h96v0v352v0h-96v0zM192 384h16h-16h128v-16v0v-352v0v-16v0h-16h-112v16v0v352v0v16v0z" />
    <glyph glyph-name="uniF04D" unicode="&#xf04d;" horiz-adv-x="384" 
d="M368 368v-352v352v-352h-352v0v352v0h352v0zM16 384h-16h16h-16v-16v0v-352v0v-16v0h16h368v16v0v352v0v16v0h-16h-352z" />
    <glyph glyph-name="uniF04D" unicode="&#x23f9;" horiz-adv-x="384" 
d="M368 368v-352v352v-352h-352v0v352v0h352v0zM16 384h-16h16h-16v-16v0v-352v0v-16v0h16h368v16v0v352v0v16v0h-16h-352z" />
    <glyph glyph-name="uniF011" unicode="&#xf011;" 
d="M264 440v8v-8v8h-16v0v-8v0v-240v0v-8v0h16v0v8v0v240v0zM40 185q1 63 32 114v0v0q32 50 85 78l-7 14v0q-57 -30 -91 -84t-35 -122q1 -65 32 -117t83 -83t117 -32q65 1 117 32t83 83t32 117q-1 68 -35 122t-91 84l-7 -14v0q53 -28 85 -78q31 -51 32 -114q-2 -92 -63 -153
t-153 -63q-92 2 -153 63t-63 153v0z" />
    <glyph glyph-name="uniF011" unicode="&#x23fb;" 
d="M264 440v8v-8v8h-16v0v-8v0v-240v0v-8v0h16v0v8v0v240v0zM40 185q1 63 32 114v0v0q32 50 85 78l-7 14v0q-57 -30 -91 -84t-35 -122q1 -65 32 -117t83 -83t117 -32q65 1 117 32t83 83t32 117q-1 68 -35 122t-91 84l-7 -14v0q53 -28 85 -78q31 -51 32 -114q-2 -92 -63 -153
t-153 -63q-92 2 -153 63t-63 153v0z" />
    <glyph glyph-name="u1F319" unicode="&#x1f319;" horiz-adv-x="384" 
d="M288 407q-15 4 -31 6q-16 3 -33 3q-63 -1 -113 -31q-51 -29 -80 -80q-30 -50 -31 -113q1 -63 31 -113q29 -51 80 -80q50 -30 113 -31q78 1 136 46q13 10 24 21q-15 -4 -30 -5q-9 -1 -19 -1q-81 2 -135 56t-56 136q0 60 32 106q31 47 83 70q14 6 28 10h1zM230 400
q-47 -28 -74 -75v0v0q-28 -46 -28 -104q2 -87 59 -145q57 -59 143 -63q-47 -28 -106 -29q-88 2 -147 61t-61 147q2 88 61 147t147 61h6v0z" />
    <glyph glyph-name="u1F319" unicode="&#xf186;" horiz-adv-x="384" 
d="M288 407q-15 4 -31 6q-16 3 -33 3q-63 -1 -113 -31q-51 -29 -80 -80q-30 -50 -31 -113q1 -63 31 -113q29 -51 80 -80q50 -30 113 -31q78 1 136 46q13 10 24 21q-15 -4 -30 -5q-9 -1 -19 -1q-81 2 -135 56t-56 136q0 60 32 106q31 47 83 70q14 6 28 10h1zM230 400
q-47 -28 -74 -75v0v0q-28 -46 -28 -104q2 -87 59 -145q57 -59 143 -63q-47 -28 -106 -29q-88 2 -147 61t-61 147q2 88 61 147t147 61h6v0z" />
    <glyph glyph-name="u1F319" unicode="&#x23fe;" horiz-adv-x="384" 
d="M288 407q-15 4 -31 6q-16 3 -33 3q-63 -1 -113 -31q-51 -29 -80 -80q-30 -50 -31 -113q1 -63 31 -113q29 -51 80 -80q50 -30 113 -31q78 1 136 46q13 10 24 21q-15 -4 -30 -5q-9 -1 -19 -1q-81 2 -135 56t-56 136q0 60 32 106q31 47 83 70q14 6 28 10h1zM230 400
q-47 -28 -74 -75v0v0q-28 -46 -28 -104q2 -87 59 -145q57 -59 143 -63q-47 -28 -106 -29q-88 2 -147 61t-61 147q2 88 61 147t147 61h6v0z" />
    <glyph glyph-name="uniF47E" unicode="&#xf47e;" 
d="M256 432q65 -1 120 -32v0v0q55 -32 88 -88q32 -57 32 -120t-32 -120q-33 -56 -88 -88q-55 -31 -120 -32q-65 1 -120 32q-55 32 -88 88q-32 57 -32 120t32 120q33 56 88 88q55 31 120 32v0zM256 -64q70 1 128 34v0v0q58 34 94 94q34 61 34 128t-34 128q-36 60 -94 94
q-58 33 -128 34q-70 -1 -128 -34q-58 -34 -94 -94q-34 -61 -34 -128t34 -128q36 -60 94 -94q58 -33 128 -34v0zM336 312v-112v112v-112h-160v0v112v0v8v0h-16v0v-8v0v-112v0v-16v0v-112v0v-8v0h16v0v8v0v112v0h160v0v-112v0v-8v0h16v0v8v0v120v0v120v0v8v0h-16v0v-8v0z" />
    <glyph glyph-name="uniF47E" unicode="&#x24bd;" 
d="M256 432q65 -1 120 -32v0v0q55 -32 88 -88q32 -57 32 -120t-32 -120q-33 -56 -88 -88q-55 -31 -120 -32q-65 1 -120 32q-55 32 -88 88q-32 57 -32 120t32 120q33 56 88 88q55 31 120 32v0zM256 -64q70 1 128 34v0v0q58 34 94 94q34 61 34 128t-34 128q-36 60 -94 94
q-58 33 -128 34q-70 -1 -128 -34q-58 -34 -94 -94q-34 -61 -34 -128t34 -128q36 -60 94 -94q58 -33 128 -34v0zM336 312v-112v112v-112h-160v0v112v0v8v0h-16v0v-8v0v-112v0v-16v0v-112v0v-8v0h16v0v8v0v112v0h160v0v-112v0v-8v0h16v0v8v0v120v0v120v0v8v0h-16v0v-8v0z" />
    <glyph glyph-name="uniF0C8" unicode="&#xf0c8;" horiz-adv-x="448" 
d="M432 400v-416v416v-416h-416v0v416v0h416v0zM16 416h-16h16h-16v-16v0v-416v0v-16v0h16h432v16v0v416v0v16v0h-16h-416z" />
    <glyph glyph-name="uniF0C8" unicode="&#xf096;" horiz-adv-x="448" 
d="M432 400v-416v416v-416h-416v0v416v0h416v0zM16 416h-16h16h-16v-16v0v-416v0v-16v0h16h432v16v0v416v0v16v0h-16h-416z" />
    <glyph glyph-name="uniF0C8" unicode="&#x25fc;" horiz-adv-x="448" 
d="M432 400v-416v416v-416h-416v0v416v0h416v0zM16 416h-16h16h-16v-16v0v-416v0v-16v0h16h432v16v0v416v0v16v0h-16h-416z" />
    <glyph glyph-name="uniF0C8" unicode="&#x25fb;" horiz-adv-x="448" 
d="M432 400v-416v416v-416h-416v0v416v0h416v0zM16 416h-16h16h-16v-16v0v-416v0v-16v0h16h432v16v0v416v0v16v0h-16h-416z" />
    <glyph glyph-name="uniF0C8" unicode="&#x25a0;" horiz-adv-x="448" 
d="M432 400v-416v416v-416h-416v0v416v0h416v0zM16 416h-16h16h-16v-16v0v-416v0v-16v0h16h432v16v0v416v0v16v0h-16h-416z" />
    <glyph glyph-name="uniF2FA" unicode="&#xf2fa;" 
d="M496 368v-352v352v-352h-480v0v352v0h480v0zM16 384h-16h16h-16v-16v0v-352v0v-16v0h16h496v16v0v352v0v16v0h-16h-480z" />
    <glyph glyph-name="uniF2FA" unicode="&#x25ac;" 
d="M496 368v-352v352v-352h-480v0v352v0h480v0zM16 384h-16h16h-16v-16v0v-352v0v-16v0h16h496v16v0v352v0v16v0h-16h-480z" />
    <glyph glyph-name="uniF2EC" unicode="&#xf2ec;" 
d="M0 -32l9 16l-9 -16l9 16l238 416v0l9 16v0l9 -16v0l238 -416v0l9 -16v0h-18h-494zM256 384l-228 -400l228 400l-228 -400h456v0l-228 400v0z" />
    <glyph glyph-name="uniF2EC" unicode="&#x25b2;" 
d="M0 -32l9 16l-9 -16l9 16l238 416v0l9 16v0l9 -16v0l238 -416v0l9 -16v0h-18h-494zM256 384l-228 -400l228 400l-228 -400h456v0l-228 400v0z" />
    <glyph glyph-name="uniF04B" unicode="&#xf04b;" horiz-adv-x="384" 
d="M16 -23l-16 -9l16 9l-16 -9v18v0v411v0v19v0l16 -9v0l352 -206v0l16 -9v0l-16 -9v0l-352 -206v0zM352 192l-336 196l336 -196l-336 196v-392v0l336 196v0z" />
    <glyph glyph-name="uniF04B" unicode="&#x25b6;" horiz-adv-x="384" 
d="M16 -23l-16 -9l16 9l-16 -9v18v0v411v0v19v0l16 -9v0l352 -206v0l16 -9v0l-16 -9v0l-352 -206v0zM352 192l-336 196l336 -196l-336 196v-392v0l336 196v0z" />
    <glyph glyph-name="u1F7E4" unicode="&#x1f7e4;" 
d="M256 432q65 -1 120 -32v0v0q55 -32 88 -88q32 -57 32 -120t-32 -120q-33 -56 -88 -88q-55 -31 -120 -32q-65 1 -120 32q-55 32 -88 88q-32 57 -32 120t32 120q33 56 88 88q55 31 120 32v0zM256 -64q70 1 128 34v0v0q58 34 94 94q34 61 34 128t-34 128q-36 60 -94 94
q-58 33 -128 34q-70 -1 -128 -34q-58 -34 -94 -94q-34 -61 -34 -128t34 -128q36 -60 94 -94q58 -33 128 -34v0z" />
    <glyph glyph-name="u1F7E4" unicode="&#x1f7e3;" 
d="M256 432q65 -1 120 -32v0v0q55 -32 88 -88q32 -57 32 -120t-32 -120q-33 -56 -88 -88q-55 -31 -120 -32q-65 1 -120 32q-55 32 -88 88q-32 57 -32 120t32 120q33 56 88 88q55 31 120 32v0zM256 -64q70 1 128 34v0v0q58 34 94 94q34 61 34 128t-34 128q-36 60 -94 94
q-58 33 -128 34q-70 -1 -128 -34q-58 -34 -94 -94q-34 -61 -34 -128t34 -128q36 -60 94 -94q58 -33 128 -34v0z" />
    <glyph glyph-name="u1F7E4" unicode="&#x1f7e2;" 
d="M256 432q65 -1 120 -32v0v0q55 -32 88 -88q32 -57 32 -120t-32 -120q-33 -56 -88 -88q-55 -31 -120 -32q-65 1 -120 32q-55 32 -88 88q-32 57 -32 120t32 120q33 56 88 88q55 31 120 32v0zM256 -64q70 1 128 34v0v0q58 34 94 94q34 61 34 128t-34 128q-36 60 -94 94
q-58 33 -128 34q-70 -1 -128 -34q-58 -34 -94 -94q-34 -61 -34 -128t34 -128q36 -60 94 -94q58 -33 128 -34v0z" />
    <glyph glyph-name="u1F7E4" unicode="&#x1f7e1;" 
d="M256 432q65 -1 120 -32v0v0q55 -32 88 -88q32 -57 32 -120t-32 -120q-33 -56 -88 -88q-55 -31 -120 -32q-65 1 -120 32q-55 32 -88 88q-32 57 -32 120t32 120q33 56 88 88q55 31 120 32v0zM256 -64q70 1 128 34v0v0q58 34 94 94q34 61 34 128t-34 128q-36 60 -94 94
q-58 33 -128 34q-70 -1 -128 -34q-58 -34 -94 -94q-34 -61 -34 -128t34 -128q36 -60 94 -94q58 -33 128 -34v0z" />
    <glyph glyph-name="u1F7E4" unicode="&#x1f7e0;" 
d="M256 432q65 -1 120 -32v0v0q55 -32 88 -88q32 -57 32 -120t-32 -120q-33 -56 -88 -88q-55 -31 -120 -32q-65 1 -120 32q-55 32 -88 88q-32 57 -32 120t32 120q33 56 88 88q55 31 120 32v0zM256 -64q70 1 128 34v0v0q58 34 94 94q34 61 34 128t-34 128q-36 60 -94 94
q-58 33 -128 34q-70 -1 -128 -34q-58 -34 -94 -94q-34 -61 -34 -128t34 -128q36 -60 94 -94q58 -33 128 -34v0z" />
    <glyph glyph-name="u1F7E4" unicode="&#x1f535;" 
d="M256 432q65 -1 120 -32v0v0q55 -32 88 -88q32 -57 32 -120t-32 -120q-33 -56 -88 -88q-55 -31 -120 -32q-65 1 -120 32q-55 32 -88 88q-32 57 -32 120t32 120q33 56 88 88q55 31 120 32v0zM256 -64q70 1 128 34v0v0q58 34 94 94q34 61 34 128t-34 128q-36 60 -94 94
q-58 33 -128 34q-70 -1 -128 -34q-58 -34 -94 -94q-34 -61 -34 -128t34 -128q36 -60 94 -94q58 -33 128 -34v0z" />
    <glyph glyph-name="u1F7E4" unicode="&#x1f534;" 
d="M256 432q65 -1 120 -32v0v0q55 -32 88 -88q32 -57 32 -120t-32 -120q-33 -56 -88 -88q-55 -31 -120 -32q-65 1 -120 32q-55 32 -88 88q-32 57 -32 120t32 120q33 56 88 88q55 31 120 32v0zM256 -64q70 1 128 34v0v0q58 34 94 94q34 61 34 128t-34 128q-36 60 -94 94
q-58 33 -128 34q-70 -1 -128 -34q-58 -34 -94 -94q-34 -61 -34 -128t34 -128q36 -60 94 -94q58 -33 128 -34v0z" />
    <glyph glyph-name="u1F7E4" unicode="&#xf1db;" 
d="M256 432q65 -1 120 -32v0v0q55 -32 88 -88q32 -57 32 -120t-32 -120q-33 -56 -88 -88q-55 -31 -120 -32q-65 1 -120 32q-55 32 -88 88q-32 57 -32 120t32 120q33 56 88 88q55 31 120 32v0zM256 -64q70 1 128 34v0v0q58 34 94 94q34 61 34 128t-34 128q-36 60 -94 94
q-58 33 -128 34q-70 -1 -128 -34q-58 -34 -94 -94q-34 -61 -34 -128t34 -128q36 -60 94 -94q58 -33 128 -34v0z" />
    <glyph glyph-name="u1F7E4" unicode="&#xf111;" 
d="M256 432q65 -1 120 -32v0v0q55 -32 88 -88q32 -57 32 -120t-32 -120q-33 -56 -88 -88q-55 -31 -120 -32q-65 1 -120 32q-55 32 -88 88q-32 57 -32 120t32 120q33 56 88 88q55 31 120 32v0zM256 -64q70 1 128 34v0v0q58 34 94 94q34 61 34 128t-34 128q-36 60 -94 94
q-58 33 -128 34q-70 -1 -128 -34q-58 -34 -94 -94q-34 -61 -34 -128t34 -128q36 -60 94 -94q58 -33 128 -34v0z" />
    <glyph glyph-name="u1F7E4" unicode="&#xf10c;" 
d="M256 432q65 -1 120 -32v0v0q55 -32 88 -88q32 -57 32 -120t-32 -120q-33 -56 -88 -88q-55 -31 -120 -32q-65 1 -120 32q-55 32 -88 88q-32 57 -32 120t32 120q33 56 88 88q55 31 120 32v0zM256 -64q70 1 128 34v0v0q58 34 94 94q34 61 34 128t-34 128q-36 60 -94 94
q-58 33 -128 34q-70 -1 -128 -34q-58 -34 -94 -94q-34 -61 -34 -128t34 -128q36 -60 94 -94q58 -33 128 -34v0z" />
    <glyph glyph-name="u1F7E4" unicode="&#x2b24;" 
d="M256 432q65 -1 120 -32v0v0q55 -32 88 -88q32 -57 32 -120t-32 -120q-33 -56 -88 -88q-55 -31 -120 -32q-65 1 -120 32q-55 32 -88 88q-32 57 -32 120t32 120q33 56 88 88q55 31 120 32v0zM256 -64q70 1 128 34v0v0q58 34 94 94q34 61 34 128t-34 128q-36 60 -94 94
q-58 33 -128 34q-70 -1 -128 -34q-58 -34 -94 -94q-34 -61 -34 -128t34 -128q36 -60 94 -94q58 -33 128 -34v0z" />
    <glyph glyph-name="u1F7E4" unicode="&#x26ab;" 
d="M256 432q65 -1 120 -32v0v0q55 -32 88 -88q32 -57 32 -120t-32 -120q-33 -56 -88 -88q-55 -31 -120 -32q-65 1 -120 32q-55 32 -88 88q-32 57 -32 120t32 120q33 56 88 88q55 31 120 32v0zM256 -64q70 1 128 34v0v0q58 34 94 94q34 61 34 128t-34 128q-36 60 -94 94
q-58 33 -128 34q-70 -1 -128 -34q-58 -34 -94 -94q-34 -61 -34 -128t34 -128q36 -60 94 -94q58 -33 128 -34v0z" />
    <glyph glyph-name="u1F7E4" unicode="&#x26aa;" 
d="M256 432q65 -1 120 -32v0v0q55 -32 88 -88q32 -57 32 -120t-32 -120q-33 -56 -88 -88q-55 -31 -120 -32q-65 1 -120 32q-55 32 -88 88q-32 57 -32 120t32 120q33 56 88 88q55 31 120 32v0zM256 -64q70 1 128 34v0v0q58 34 94 94q34 61 34 128t-34 128q-36 60 -94 94
q-58 33 -128 34q-70 -1 -128 -34q-58 -34 -94 -94q-34 -61 -34 -128t34 -128q36 -60 94 -94q58 -33 128 -34v0z" />
    <glyph glyph-name="u1F7E4" unicode="&#x25cf;" 
d="M256 432q65 -1 120 -32v0v0q55 -32 88 -88q32 -57 32 -120t-32 -120q-33 -56 -88 -88q-55 -31 -120 -32q-65 1 -120 32q-55 32 -88 88q-32 57 -32 120t32 120q33 56 88 88q55 31 120 32v0zM256 -64q70 1 128 34v0v0q58 34 94 94q34 61 34 128t-34 128q-36 60 -94 94
q-58 33 -128 34q-70 -1 -128 -34q-58 -34 -94 -94q-34 -61 -34 -128t34 -128q36 -60 94 -94q58 -33 128 -34v0z" />
    <glyph glyph-name="uniF042" unicode="&#xf042;" 
d="M264 -48q65 3 117 35v0v0q53 33 83 86v0v0q31 53 32 119q-1 66 -32 119q-30 53 -83 86q-52 32 -117 35v-480v0zM248 -48v480v-480v480q-65 -3 -117 -35q-53 -33 -83 -86q-31 -53 -32 -119q1 -66 32 -119q30 -53 83 -86q52 -32 117 -35v0zM0 192q1 70 34 128v0v0
q34 58 94 94q61 34 128 34t128 -34q60 -36 94 -94q33 -58 34 -128q-1 -70 -34 -128q-34 -58 -94 -94q-61 -34 -128 -34t-128 34q-60 36 -94 94q-33 58 -34 128v0z" />
    <glyph glyph-name="uniF042" unicode="&#x25d0;" 
d="M264 -48q65 3 117 35v0v0q53 33 83 86v0v0q31 53 32 119q-1 66 -32 119q-30 53 -83 86q-52 32 -117 35v-480v0zM248 -48v480v-480v480q-65 -3 -117 -35q-53 -33 -83 -86q-31 -53 -32 -119q1 -66 32 -119q30 -53 83 -86q52 -32 117 -35v0zM0 192q1 70 34 128v0v0
q34 58 94 94q61 34 128 34t128 -34q60 -36 94 -94q33 -58 34 -128q-1 -70 -34 -128q-34 -58 -94 -94q-61 -34 -128 -34t-128 34q-60 36 -94 94q-33 58 -34 128v0z" />
    <glyph glyph-name="uniF185" unicode="&#xf185;" 
d="M164 440l92 -49l-92 49l92 -49l92 49v0l14 8v0l5 -16v0l30 -99v0l99 -30v0l16 -5v0l-8 -14v0l-49 -92v0l49 -92v0l8 -14v0l-16 -5v0l-99 -30v0l-30 -99v0l-5 -16v0l-14 8v0l-92 49v0l-92 -49v0l-14 -8v0l-5 16v0l-30 99v0l-99 30v0l-16 5v0l8 14v0l49 92v0l-49 92v0
l-8 14v0l16 5v0l99 30v0l30 99v0l5 16v0l14 -8v0zM264 377l-8 -4l8 4l-8 -4l-8 4v0l-88 48v0l-29 -97v0l-3 -8v0l-8 -3v0l-97 -29v0l48 -89v0l4 -7v0l-4 -8v0l-48 -88v0l97 -29v0l8 -3v0l3 -8v0l29 -97v0l89 48v0l7 4v0l8 -4v0l89 -48v0l29 97v0l2 8v0l8 3v0l97 29v0l-48 88
v0l-4 8v0l4 8v0l48 89v0l-97 29v0l-8 2v0l-2 8v0l-29 97v0l-89 -48v0zM256 304q30 0 56 -15v0v0q26 -15 41 -41t15 -56t-15 -56t-41 -41t-56 -15t-56 15t-41 41t-15 56t15 56t41 41t56 15v0zM352 192q0 26 -13 48v0v0q-13 22 -35 35q-23 13 -48 13t-48 -13q-22 -13 -35 -35
t-13 -48t13 -48t35 -35q23 -13 48 -13t48 13q22 13 35 35t13 48v0z" />
    <glyph glyph-name="uniF185" unicode="&#x2600;" 
d="M164 440l92 -49l-92 49l92 -49l92 49v0l14 8v0l5 -16v0l30 -99v0l99 -30v0l16 -5v0l-8 -14v0l-49 -92v0l49 -92v0l8 -14v0l-16 -5v0l-99 -30v0l-30 -99v0l-5 -16v0l-14 8v0l-92 49v0l-92 -49v0l-14 -8v0l-5 16v0l-30 99v0l-99 30v0l-16 5v0l8 14v0l49 92v0l-49 92v0
l-8 14v0l16 5v0l99 30v0l30 99v0l5 16v0l14 -8v0zM264 377l-8 -4l8 4l-8 -4l-8 4v0l-88 48v0l-29 -97v0l-3 -8v0l-8 -3v0l-97 -29v0l48 -89v0l4 -7v0l-4 -8v0l-48 -88v0l97 -29v0l8 -3v0l3 -8v0l29 -97v0l89 48v0l7 4v0l8 -4v0l89 -48v0l29 97v0l2 8v0l8 3v0l97 29v0l-48 88
v0l-4 8v0l4 8v0l48 89v0l-97 29v0l-8 2v0l-2 8v0l-29 97v0l-89 -48v0zM256 304q30 0 56 -15v0v0q26 -15 41 -41t15 -56t-15 -56t-41 -41t-56 -15t-56 15t-41 41t-15 56t15 56t41 41t56 15v0zM352 192q0 26 -13 48v0v0q-13 22 -35 35q-23 13 -48 13t-48 -13q-22 -13 -35 -35
t-13 -48t13 -48t35 -35q23 -13 48 -13t48 13q22 13 35 35t13 48v0z" />
    <glyph glyph-name="uniF0C2" unicode="&#xf0c2;" horiz-adv-x="640" 
d="M528 208l12 -4l-12 4l12 -4q37 -10 60 -39t24 -69v-112v0h-112h-496v128v0q1 42 24 75q23 32 61 46l11 3v0v12v0v8v0q2 61 42 102q41 40 102 42q40 0 73 -20q33 -19 52 -52l8 -15v0l15 9v0q19 14 44 14q34 -1 56 -23q23 -23 24 -57v-36v0v-12v0zM96 248q-43 -16 -69 -52
v0v0q-26 -36 -27 -84v-128v0v-16v0h16h624v16v0v112v0q-1 46 -27 79q-27 34 -69 45v36v0q-1 41 -28 68t-68 28q-23 0 -42 -10q-6 -3 -11 -6q-4 7 -9 13q-22 31 -56 49q-33 18 -74 18q-68 -2 -113 -47t-47 -113v-8v0z" />
    <glyph glyph-name="uniF0C2" unicode="&#x2601;" horiz-adv-x="640" 
d="M528 208l12 -4l-12 4l12 -4q37 -10 60 -39t24 -69v-112v0h-112h-496v128v0q1 42 24 75q23 32 61 46l11 3v0v12v0v8v0q2 61 42 102q41 40 102 42q40 0 73 -20q33 -19 52 -52l8 -15v0l15 9v0q19 14 44 14q34 -1 56 -23q23 -23 24 -57v-36v0v-12v0zM96 248q-43 -16 -69 -52
v0v0q-26 -36 -27 -84v-128v0v-16v0h16h624v16v0v112v0q-1 46 -27 79q-27 34 -69 45v36v0q-1 41 -28 68t-68 28q-23 0 -42 -10q-6 -3 -11 -6q-4 7 -9 13q-22 31 -56 49q-33 18 -74 18q-68 -2 -113 -47t-47 -113v-8v0z" />
    <glyph glyph-name="uniF7D0" unicode="&#xf7d0;" 
d="M256 448q-44 -1 -74 -30v0v0q-29 -30 -30 -74q0 -27 13 -50q-17 -19 -24 -44l-61 29v0v1v0v64v0v8v0h-16v0v-8v0v-58v0l-53 25v0l-6 -14v0l132 -63v0q-1 -9 -1 -18q0 -29 12 -53q-42 -43 -44 -107q1 -60 39 -102q19 -19 45 -18h136v0q26 -1 45 18q38 42 39 102
q-2 64 -44 107q12 24 12 53q0 9 -1 18l132 63v0l-6 14v0l-53 -25v0v58v0v8v0h-16v0v-8v0v-64v0v-1v0l-61 -29v0q-7 25 -24 44q13 23 13 50q-1 44 -30 74q-30 29 -74 30v0zM168 344q1 37 26 62v0v0q25 25 62 26q37 -1 62 -26t26 -62q0 -26 -13 -47l-4 -5v0l5 -5v0
q27 -28 28 -71q0 -28 -13 -51l-3 -5v0l4 -4v0q42 -39 44 -100q-1 -54 -35 -91q-13 -13 -33 -13h-136v0q-20 0 -33 13q-34 37 -35 91q2 61 44 100l4 4v0l-3 5v0q-13 23 -13 51q1 42 28 71l5 5v0l-4 5v0q-13 21 -13 47v0zM272 208q-1 15 -16 16q-15 -1 -16 -16q1 -15 16 -16
q15 1 16 16v0zM256 112q15 1 16 16q-1 15 -16 16q-15 -1 -16 -16q1 -15 16 -16v0zM272 48q-1 15 -16 16q-15 -1 -16 -16q1 -15 16 -16q15 1 16 16v0zM224 336q15 1 16 16q-1 15 -16 16q-15 -1 -16 -16q1 -15 16 -16v0zM304 352q-1 15 -16 16q-15 -1 -16 -16q1 -15 16 -16
q15 1 16 16v0zM243 263l13 -20l-13 20l13 -20l13 20v0l13 19v0q6 9 6 20v2v0q0 14 -9 23t-23 9t-23 -9t-9 -23v-2v0q0 -11 6 -20l13 -19v0zM246 286l-3 5l3 -5l-3 5q-3 5 -3 10v3v0q1 15 16 16q15 -1 16 -16v-2v0q0 -6 -3 -11l-3 -4v0l-10 -15v0l-10 14v0z" />
    <glyph glyph-name="uniF7D0" unicode="&#x26c4;" 
d="M256 448q-44 -1 -74 -30v0v0q-29 -30 -30 -74q0 -27 13 -50q-17 -19 -24 -44l-61 29v0v1v0v64v0v8v0h-16v0v-8v0v-58v0l-53 25v0l-6 -14v0l132 -63v0q-1 -9 -1 -18q0 -29 12 -53q-42 -43 -44 -107q1 -60 39 -102q19 -19 45 -18h136v0q26 -1 45 18q38 42 39 102
q-2 64 -44 107q12 24 12 53q0 9 -1 18l132 63v0l-6 14v0l-53 -25v0v58v0v8v0h-16v0v-8v0v-64v0v-1v0l-61 -29v0q-7 25 -24 44q13 23 13 50q-1 44 -30 74q-30 29 -74 30v0zM168 344q1 37 26 62v0v0q25 25 62 26q37 -1 62 -26t26 -62q0 -26 -13 -47l-4 -5v0l5 -5v0
q27 -28 28 -71q0 -28 -13 -51l-3 -5v0l4 -4v0q42 -39 44 -100q-1 -54 -35 -91q-13 -13 -33 -13h-136v0q-20 0 -33 13q-34 37 -35 91q2 61 44 100l4 4v0l-3 5v0q-13 23 -13 51q1 42 28 71l5 5v0l-4 5v0q-13 21 -13 47v0zM272 208q-1 15 -16 16q-15 -1 -16 -16q1 -15 16 -16
q15 1 16 16v0zM256 112q15 1 16 16q-1 15 -16 16q-15 -1 -16 -16q1 -15 16 -16v0zM272 48q-1 15 -16 16q-15 -1 -16 -16q1 -15 16 -16q15 1 16 16v0zM224 336q15 1 16 16q-1 15 -16 16q-15 -1 -16 -16q1 -15 16 -16v0zM304 352q-1 15 -16 16q-15 -1 -16 -16q1 -15 16 -16
q15 1 16 16v0zM243 263l13 -20l-13 20l13 -20l13 20v0l13 19v0q6 9 6 20v2v0q0 14 -9 23t-23 9t-23 -9t-9 -23v-2v0q0 -11 6 -20l13 -19v0zM246 286l-3 5l3 -5l-3 5q-3 5 -3 10v3v0q1 15 16 16q15 -1 16 -16v-2v0q0 -6 -3 -11l-3 -4v0l-10 -15v0l-10 14v0z" />
    <glyph glyph-name="uniF7D0" unicode="&#x2603;" 
d="M256 448q-44 -1 -74 -30v0v0q-29 -30 -30 -74q0 -27 13 -50q-17 -19 -24 -44l-61 29v0v1v0v64v0v8v0h-16v0v-8v0v-58v0l-53 25v0l-6 -14v0l132 -63v0q-1 -9 -1 -18q0 -29 12 -53q-42 -43 -44 -107q1 -60 39 -102q19 -19 45 -18h136v0q26 -1 45 18q38 42 39 102
q-2 64 -44 107q12 24 12 53q0 9 -1 18l132 63v0l-6 14v0l-53 -25v0v58v0v8v0h-16v0v-8v0v-64v0v-1v0l-61 -29v0q-7 25 -24 44q13 23 13 50q-1 44 -30 74q-30 29 -74 30v0zM168 344q1 37 26 62v0v0q25 25 62 26q37 -1 62 -26t26 -62q0 -26 -13 -47l-4 -5v0l5 -5v0
q27 -28 28 -71q0 -28 -13 -51l-3 -5v0l4 -4v0q42 -39 44 -100q-1 -54 -35 -91q-13 -13 -33 -13h-136v0q-20 0 -33 13q-34 37 -35 91q2 61 44 100l4 4v0l-3 5v0q-13 23 -13 51q1 42 28 71l5 5v0l-4 5v0q-13 21 -13 47v0zM272 208q-1 15 -16 16q-15 -1 -16 -16q1 -15 16 -16
q15 1 16 16v0zM256 112q15 1 16 16q-1 15 -16 16q-15 -1 -16 -16q1 -15 16 -16v0zM272 48q-1 15 -16 16q-15 -1 -16 -16q1 -15 16 -16q15 1 16 16v0zM224 336q15 1 16 16q-1 15 -16 16q-15 -1 -16 -16q1 -15 16 -16v0zM304 352q-1 15 -16 16q-15 -1 -16 -16q1 -15 16 -16
q15 1 16 16v0zM243 263l13 -20l-13 20l13 -20l13 20v0l13 19v0q6 9 6 20v2v0q0 14 -9 23t-23 9t-23 -9t-9 -23v-2v0q0 -11 6 -20l13 -19v0zM246 286l-3 5l3 -5l-3 5q-3 5 -3 10v3v0q1 15 16 16q15 -1 16 -16v-2v0q0 -6 -3 -11l-3 -4v0l-10 -15v0l-10 14v0z" />
    <glyph glyph-name="uniF753" unicode="&#xf753;" 
d="M303 413l-2 -23l2 23l-2 -23l-2 -18v0l17 6v0l177 63v0l19 7v0l-7 -20v0l-63 -176v0l-6 -17v0l18 2v0l23 1v0l19 2v0l-10 -17v0l-107 -186v0q-28 -47 -75 -74q-46 -27 -101 -27q-86 2 -144 59q-57 58 -59 144q0 55 27 101q27 47 74 75l186 107v0l17 10v0l-1 -19v0z
M305 357l-23 -8l23 8l-23 -8l1 24v0l3 30v0l-177 -102v0q-43 -26 -68 -69q-25 -42 -25 -93q2 -79 55 -132t132 -55q51 0 93 25q43 25 69 68l102 177v0l-30 -3v0l-24 -2v0l8 24v0l65 181v0l-181 -65v0zM192 256q35 0 64 -17v0v0q29 -17 47 -47q17 -30 17 -64t-17 -64
q-18 -30 -47 -47t-64 -17t-64 17t-47 47q-17 30 -17 64t17 64q18 30 47 47t64 17v0zM304 128q0 30 -15 56v0v0q-15 26 -41 41t-56 15t-56 -15t-41 -41t-15 -56t15 -56t41 -41t56 -15t56 15t41 41t15 56v0zM192 80q1 15 16 16q15 -1 16 -16q-1 -15 -16 -16q-15 1 -16 16v0z
M144 160q1 -15 16 -16q15 1 16 16q-1 15 -16 16q-15 -1 -16 -16v0zM160 128q-14 0 -23 9v0v0q-9 9 -9 23t9 23t23 9t23 -9t9 -23t-9 -23t-23 -9v0z" />
    <glyph glyph-name="uniF753" unicode="&#x2604;" 
d="M303 413l-2 -23l2 23l-2 -23l-2 -18v0l17 6v0l177 63v0l19 7v0l-7 -20v0l-63 -176v0l-6 -17v0l18 2v0l23 1v0l19 2v0l-10 -17v0l-107 -186v0q-28 -47 -75 -74q-46 -27 -101 -27q-86 2 -144 59q-57 58 -59 144q0 55 27 101q27 47 74 75l186 107v0l17 10v0l-1 -19v0z
M305 357l-23 -8l23 8l-23 -8l1 24v0l3 30v0l-177 -102v0q-43 -26 -68 -69q-25 -42 -25 -93q2 -79 55 -132t132 -55q51 0 93 25q43 25 69 68l102 177v0l-30 -3v0l-24 -2v0l8 24v0l65 181v0l-181 -65v0zM192 256q35 0 64 -17v0v0q29 -17 47 -47q17 -30 17 -64t-17 -64
q-18 -30 -47 -47t-64 -17t-64 17t-47 47q-17 30 -17 64t17 64q18 30 47 47t64 17v0zM304 128q0 30 -15 56v0v0q-15 26 -41 41t-56 15t-56 -15t-41 -41t-15 -56t15 -56t41 -41t56 -15t56 15t41 41t15 56v0zM192 80q1 15 16 16q15 -1 16 -16q-1 -15 -16 -16q-15 1 -16 16v0z
M144 160q1 -15 16 -16q15 1 16 16q-1 15 -16 16q-15 -1 -16 -16v0zM160 128q-14 0 -23 9v0v0q-9 9 -9 23t9 23t23 9t23 -9t9 -23t-9 -23t-23 -9v0z" />
    <glyph glyph-name="uniF8D3" unicode="&#xf8d3;" 
d="M256 328q-60 -2 -94 -12v0v0q-33 -11 -34 -12l-32 -80v0h-96v0v96v0q0 2 31 25q30 23 88 46q57 23 137 25q80 -2 137 -25q58 -23 88 -46q31 -23 31 -25v-96v0h-96v0l-32 80v0q0 1 -34 12q-33 10 -94 12v0zM115 316q21 10 43 15q35 12 98 13q63 -1 98 -13q22 -5 43 -15
l30 -76v0h69v0v73v0q-13 14 -60 41q-31 18 -77 32q-45 13 -103 14q-58 -1 -103 -14q-46 -14 -77 -32q-47 -27 -60 -41v-73v0h69v0l30 76v0zM256 208q-41 -1 -62 -36q-20 -36 0 -72q21 -35 62 -36q41 1 62 36q20 36 0 72q-21 35 -62 36v0zM312 136q-1 -32 -28 -48
q-28 -16 -56 0q-27 16 -28 48q1 32 28 48q28 16 56 0q27 -16 28 -48v0zM32 -32v96v-96v96l128 224v0h192v0l128 -224v0v-96v0h-448v0zM464 -16v76v-76v76l-121 212v0h-174v0l-121 -212v0v-76v0h416v0z" />
    <glyph glyph-name="uniF8D3" unicode="&#x260e;" 
d="M256 328q-60 -2 -94 -12v0v0q-33 -11 -34 -12l-32 -80v0h-96v0v96v0q0 2 31 25q30 23 88 46q57 23 137 25q80 -2 137 -25q58 -23 88 -46q31 -23 31 -25v-96v0h-96v0l-32 80v0q0 1 -34 12q-33 10 -94 12v0zM115 316q21 10 43 15q35 12 98 13q63 -1 98 -13q22 -5 43 -15
l30 -76v0h69v0v73v0q-13 14 -60 41q-31 18 -77 32q-45 13 -103 14q-58 -1 -103 -14q-46 -14 -77 -32q-47 -27 -60 -41v-73v0h69v0l30 76v0zM256 208q-41 -1 -62 -36q-20 -36 0 -72q21 -35 62 -36q41 1 62 36q20 36 0 72q-21 35 -62 36v0zM312 136q-1 -32 -28 -48
q-28 -16 -56 0q-27 16 -28 48q1 32 28 48q28 16 56 0q27 -16 28 -48v0zM32 -32v96v-96v96l128 224v0h192v0l128 -224v0v-96v0h-448v0zM464 -16v76v-76v76l-121 212v0h-174v0l-121 -212v0v-76v0h416v0z" />
    <glyph glyph-name="uniF14A" unicode="&#xf14a;" horiz-adv-x="448" 
d="M16 400v-416v416v-416h416v0v416v0h-416v0zM0 416h16h-16h448v-16v0v-416v0v-16v0h-16h-432v16v0v416v0v16v0zM326 250l-128 -128l128 128l-128 -128l-6 -5v0l-6 5v0l-64 64v0l-5 6v0l11 11v0l6 -5v0l58 -59v0l122 123v0l6 5v0l11 -11v0l-5 -6v0z" />
    <glyph glyph-name="uniF14A" unicode="&#xf046;" horiz-adv-x="448" 
d="M16 400v-416v416v-416h416v0v416v0h-416v0zM0 416h16h-16h448v-16v0v-416v0v-16v0h-16h-432v16v0v416v0v16v0zM326 250l-128 -128l128 128l-128 -128l-6 -5v0l-6 5v0l-64 64v0l-5 6v0l11 11v0l6 -5v0l58 -59v0l122 123v0l6 5v0l11 -11v0l-5 -6v0z" />
    <glyph glyph-name="uniF14A" unicode="&#x2705;" horiz-adv-x="448" 
d="M16 400v-416v416v-416h416v0v416v0h-416v0zM0 416h16h-16h448v-16v0v-416v0v-16v0h-16h-432v16v0v416v0v16v0zM326 250l-128 -128l128 128l-128 -128l-6 -5v0l-6 5v0l-64 64v0l-5 6v0l11 11v0l6 -5v0l58 -59v0l122 123v0l6 5v0l11 -11v0l-5 -6v0z" />
    <glyph glyph-name="uniF14A" unicode="&#x2611;" horiz-adv-x="448" 
d="M16 400v-416v416v-416h416v0v416v0h-416v0zM0 416h16h-16h448v-16v0v-416v0v-16v0h-16h-432v16v0v416v0v16v0zM326 250l-128 -128l128 128l-128 -128l-6 -5v0l-6 5v0l-64 64v0l-5 6v0l11 11v0l6 -5v0l58 -59v0l122 123v0l6 5v0l11 -11v0l-5 -6v0z" />
    <glyph glyph-name="uniF7B6" unicode="&#xf7b6;" 
d="M80 440v8v-8v8h-16v0v-8v0q0 -40 14 -58q13 -17 29 -25v0v0q15 -7 25 -20q10 -12 10 -49v-8v0h16v0v8v0q0 40 -13 58q-14 17 -29 25h-1v0q-15 7 -24 20q-10 12 -11 49v0zM210 440v8v-8v8h-16v0v-8v0q0 -40 13 -58q14 -17 29 -25h1v0q15 -7 24 -20q10 -12 11 -49v-8v0h16
v0v8v0q0 40 -14 58q-13 17 -29 25v0v0q-15 7 -24 20q-11 12 -11 49v0zM344 240h24h-24h24v-288v0h-352v0v288v0h328v0zM384 64v176v-176v176h24v0q37 -1 62 -26t26 -62q-1 -37 -26 -62t-62 -26h-24v0zM384 -48v96v-96v96h24v0q44 1 74 30q29 30 30 74q-1 44 -30 74
q-30 29 -74 30h-24h-384v-16v0v-288v0v-16v0h16h368v16v0z" />
    <glyph glyph-name="uniF7B6" unicode="&#x2615;" 
d="M80 440v8v-8v8h-16v0v-8v0q0 -40 14 -58q13 -17 29 -25v0v0q15 -7 25 -20q10 -12 10 -49v-8v0h16v0v8v0q0 40 -13 58q-14 17 -29 25h-1v0q-15 7 -24 20q-10 12 -11 49v0zM210 440v8v-8v8h-16v0v-8v0q0 -40 13 -58q14 -17 29 -25h1v0q15 -7 24 -20q10 -12 11 -49v-8v0h16
v0v8v0q0 40 -14 58q-13 17 -29 25v0v0q-15 7 -24 20q-11 12 -11 49v0zM344 240h24h-24h24v-288v0h-352v0v288v0h328v0zM384 64v176v-176v176h24v0q37 -1 62 -26t26 -62q-1 -37 -26 -62t-62 -26h-24v0zM384 -48v96v-96v96h24v0q44 1 74 30q29 30 30 74q-1 44 -30 74
q-30 29 -74 30h-24h-384v-16v0v-288v0v-16v0h16h368v16v0z" />
    <glyph glyph-name="uniF0A6" unicode="&#xf0a6;" horiz-adv-x="384" 
d="M56 448h-8h8h-8v-8v0v-248v0h-40h-8v-8v0v-96v0q2 -65 45 -107q42 -43 107 -45h80v0q65 2 107 45q43 42 45 107v8v0v8v0v64v0v72v0v8v0h-8h-72v8v0v8v0h-8h-72v24v0v8v0h-8h-72v144v0v8v0h-8h-80zM144 280h64h-64h64v-16v0v-8v0v-64v0h-64v0v88v0zM208 176v0v0v0v-64v0
h-104h-8v-16v0h8h264v-8v0q-1 -58 -40 -96q-38 -39 -96 -40h-80v0q-58 1 -96 40q-39 38 -40 96v88v0h32v0v0v0h16v0v0v0h64v0v0v0h16v0v0v0h64v0zM224 176v8v-8v8v8v0v56v0h64v0v-8v0v-128v0h-64v0v64v0zM128 192h-64h64h-64v240v0h64v0v-136v0v-8v0v-96v0zM368 168v-56v56
v-56h-64v0v120v0h64v0v-64v0z" />
    <glyph glyph-name="uniF0A6" unicode="&#x261d;" horiz-adv-x="384" 
d="M56 448h-8h8h-8v-8v0v-248v0h-40h-8v-8v0v-96v0q2 -65 45 -107q42 -43 107 -45h80v0q65 2 107 45q43 42 45 107v8v0v8v0v64v0v72v0v8v0h-8h-72v8v0v8v0h-8h-72v24v0v8v0h-8h-72v144v0v8v0h-8h-80zM144 280h64h-64h64v-16v0v-8v0v-64v0h-64v0v88v0zM208 176v0v0v0v-64v0
h-104h-8v-16v0h8h264v-8v0q-1 -58 -40 -96q-38 -39 -96 -40h-80v0q-58 1 -96 40q-39 38 -40 96v88v0h32v0v0v0h16v0v0v0h64v0v0v0h16v0v0v0h64v0zM224 176v8v-8v8v8v0v56v0h64v0v-8v0v-128v0h-64v0v64v0zM128 192h-64h64h-64v240v0h64v0v-136v0v-8v0v-96v0zM368 168v-56v56
v-56h-64v0v120v0h64v0v-64v0z" />
    <glyph glyph-name="u1F571" unicode="&#x1f571;" horiz-adv-x="448" 
d="M296 227q26 16 41 40v0v0q15 24 15 53q-1 46 -37 79q-35 32 -91 33q-56 -1 -91 -33q-36 -33 -37 -79q0 -29 15 -53t41 -40l8 -4v0v-10v0v-37v0h128v0v38v0v9v0l8 4v0zM368 320q0 -34 -18 -61v0v0q-17 -28 -46 -45v-38v0v-16v0h-16h-144v16v0v38v0q-29 17 -46 45
q-18 27 -18 61q2 54 42 91q41 36 102 37q61 -1 102 -37q40 -37 42 -91v0zM176 336q14 0 23 -9v0v0q9 -9 9 -23t-9 -23t-23 -9t-23 9t-9 23t9 23t23 9v0zM272 336q14 0 23 -9v0v0q9 -9 9 -23t-9 -23t-23 -9t-23 9t-9 23t9 23t23 9v0zM192 304q-1 15 -16 16q-15 -1 -16 -16
q1 -15 16 -16q15 1 16 16v0zM272 288q15 1 16 16q-1 15 -16 16q-15 -1 -16 -16q1 -15 16 -16v0zM436 -63l-212 118l212 -118l-212 118l-212 -118v0l-8 14v0l204 113v0l-204 113v0l8 14v0l212 -118v0l212 118v0l8 -14v0l-203 -113v0l203 -113v0l-8 -14v0z" />
    <glyph glyph-name="u1F571" unicode="&#xf714;" horiz-adv-x="448" 
d="M296 227q26 16 41 40v0v0q15 24 15 53q-1 46 -37 79q-35 32 -91 33q-56 -1 -91 -33q-36 -33 -37 -79q0 -29 15 -53t41 -40l8 -4v0v-10v0v-37v0h128v0v38v0v9v0l8 4v0zM368 320q0 -34 -18 -61v0v0q-17 -28 -46 -45v-38v0v-16v0h-16h-144v16v0v38v0q-29 17 -46 45
q-18 27 -18 61q2 54 42 91q41 36 102 37q61 -1 102 -37q40 -37 42 -91v0zM176 336q14 0 23 -9v0v0q9 -9 9 -23t-9 -23t-23 -9t-23 9t-9 23t9 23t23 9v0zM272 336q14 0 23 -9v0v0q9 -9 9 -23t-9 -23t-23 -9t-23 9t-9 23t9 23t23 9v0zM192 304q-1 15 -16 16q-15 -1 -16 -16
q1 -15 16 -16q15 1 16 16v0zM272 288q15 1 16 16q-1 15 -16 16q-15 -1 -16 -16q1 -15 16 -16v0zM436 -63l-212 118l212 -118l-212 118l-212 -118v0l-8 14v0l204 113v0l-204 113v0l8 14v0l212 -118v0l212 118v0l8 -14v0l-203 -113v0l203 -113v0l-8 -14v0z" />
    <glyph glyph-name="u1F571" unicode="&#x2620;" horiz-adv-x="448" 
d="M296 227q26 16 41 40v0v0q15 24 15 53q-1 46 -37 79q-35 32 -91 33q-56 -1 -91 -33q-36 -33 -37 -79q0 -29 15 -53t41 -40l8 -4v0v-10v0v-37v0h128v0v38v0v9v0l8 4v0zM368 320q0 -34 -18 -61v0v0q-17 -28 -46 -45v-38v0v-16v0h-16h-144v16v0v38v0q-29 17 -46 45
q-18 27 -18 61q2 54 42 91q41 36 102 37q61 -1 102 -37q40 -37 42 -91v0zM176 336q14 0 23 -9v0v0q9 -9 9 -23t-9 -23t-23 -9t-23 9t-9 23t9 23t23 9v0zM272 336q14 0 23 -9v0v0q9 -9 9 -23t-9 -23t-23 -9t-23 9t-9 23t9 23t23 9v0zM192 304q-1 15 -16 16q-15 -1 -16 -16
q1 -15 16 -16q15 1 16 16v0zM272 288q15 1 16 16q-1 15 -16 16q-15 -1 -16 -16q1 -15 16 -16v0zM436 -63l-212 118l212 -118l-212 118l-212 -118v0l-8 14v0l204 113v0l-204 113v0l8 14v0l212 -118v0l212 118v0l8 -14v0l-203 -113v0l203 -113v0l-8 -14v0z" />
    <glyph glyph-name="uniF7BA" unicode="&#xf7ba;" 
d="M256 432q65 -1 120 -32v0v0q55 -32 88 -88q32 -57 32 -120t-32 -120q-33 -56 -88 -88q-55 -31 -120 -32q-65 1 -120 32q-55 32 -88 88q-32 57 -32 120t32 120q33 56 88 88q55 31 120 32v0zM256 -64q70 1 128 34v0v0q58 34 94 94q34 61 34 128t-34 128q-36 60 -94 94
q-58 33 -128 34q-70 -1 -128 -34q-58 -34 -94 -94q-34 -61 -34 -128t34 -128q36 -60 94 -94q58 -33 128 -34v0zM183 335l-4 6l4 -6l-4 6l-7 -4v0q-38 -22 -61 -60q-22 -38 -23 -85v-8v0h8h97q-1 4 -1 8t1 8h-89v0q3 38 21 69t48 50l44 -76v0q7 5 14 8l-48 84v0zM281 251
q7 -3 14 -8l44 76v0q30 -19 48 -50t21 -69h-88v0v-8v-8h96h8v8v0q-1 47 -23 85q-23 38 -61 60l-7 4v0l-4 -6v0l-48 -84v0zM295 141q-7 -5 -14 -8l44 -77v0q-31 -16 -69 -16t-69 16l44 77v0q-7 3 -14 8l-48 -84v0l-4 -7v0l7 -4v0q38 -21 84 -22q46 1 84 22l7 4v0l-4 7v0
l-48 84v0zM272 192q-1 -15 -16 -16q-15 1 -16 16q1 15 16 16q15 -1 16 -16v0zM256 224q-14 0 -23 -9v0v0q-9 -9 -9 -23t9 -23t23 -9t23 9t9 23t-9 23t-23 9v0z" />
    <glyph glyph-name="uniF7BA" unicode="&#x2622;" 
d="M256 432q65 -1 120 -32v0v0q55 -32 88 -88q32 -57 32 -120t-32 -120q-33 -56 -88 -88q-55 -31 -120 -32q-65 1 -120 32q-55 32 -88 88q-32 57 -32 120t32 120q33 56 88 88q55 31 120 32v0zM256 -64q70 1 128 34v0v0q58 34 94 94q34 61 34 128t-34 128q-36 60 -94 94
q-58 33 -128 34q-70 -1 -128 -34q-58 -34 -94 -94q-34 -61 -34 -128t34 -128q36 -60 94 -94q58 -33 128 -34v0zM183 335l-4 6l4 -6l-4 6l-7 -4v0q-38 -22 -61 -60q-22 -38 -23 -85v-8v0h8h97q-1 4 -1 8t1 8h-89v0q3 38 21 69t48 50l44 -76v0q7 5 14 8l-48 84v0zM281 251
q7 -3 14 -8l44 76v0q30 -19 48 -50t21 -69h-88v0v-8v-8h96h8v8v0q-1 47 -23 85q-23 38 -61 60l-7 4v0l-4 -6v0l-48 -84v0zM295 141q-7 -5 -14 -8l44 -77v0q-31 -16 -69 -16t-69 16l44 77v0q-7 3 -14 8l-48 -84v0l-4 -7v0l7 -4v0q38 -21 84 -22q46 1 84 22l7 4v0l-4 7v0
l-48 84v0zM272 192q-1 -15 -16 -16q-15 1 -16 16q1 15 16 16q15 -1 16 -16v0zM256 224q-14 0 -23 -9v0v0q-9 -9 -9 -23t9 -23t23 -9t23 9t9 23t-9 23t-23 9v0z" />
    <glyph glyph-name="uniF780" unicode="&#xf780;" horiz-adv-x="576" 
d="M156 440h4h-4h14l-1 -9v0q-6 -51 24 -92q29 -41 95 -43q66 2 95 43q30 41 24 92l-1 9v0h9h5l2 -3v0q33 -43 34 -101q0 -31 -11 -59q27 -5 52 -20q49 -29 70 -79l2 -4v0l-2 -3v0v-1v0l-5 -8v0l-7 6v0q-42 30 -92 24q-50 -5 -85 -60q-30 -58 -10 -104q21 -46 68 -67l8 -3v0
l-5 -8v0v-1v0l-2 -4v0h-4v0q-54 -7 -104 21q-24 14 -41 33q-17 -19 -41 -33q-50 -28 -104 -21h-4v0l-2 4v0l-1 1v0l-4 8v0l8 3v0q47 21 68 67q20 46 -10 104q-35 56 -85 61t-92 -25l-7 -6v0l-4 8v0l-1 1v0l-2 3v0l2 4v0q21 50 70 79q25 15 52 20q-11 28 -11 59q1 58 34 101
l2 3v0zM152 405q-16 -32 -16 -69q0 -33 13 -62l5 -10v0l-11 -1v0q-29 -4 -56 -19q-32 -19 -51 -49q37 18 79 13q58 -6 97 -68q34 -65 11 -118q-17 -38 -52 -62q36 2 68 20q26 15 43 37l6 8v0l6 -8v0q18 -22 43 -37q32 -18 68 -20q-35 24 -52 62q-23 53 11 118q39 62 97 68
q41 5 79 -13q-19 30 -51 49q-27 15 -56 19l-11 1v0l5 10v0q13 29 13 62q0 37 -16 69q-3 -42 -28 -76q-35 -46 -108 -49q-73 3 -107 49q-26 34 -29 76v0zM155 16q-63 53 -74 137q8 2 16 2q10 -78 68 -126q-5 -7 -10 -13v0zM288 368q-32 0 -61 -10q-2 2 -3 5q-4 4 -6 9
q33 12 70 12t71 -12q-3 -5 -7 -9q-1 -3 -3 -5q-29 10 -61 10v0zM479 155q8 0 16 -2q-11 -84 -73 -137q-6 6 -11 13q58 48 68 126v0zM288 216q23 -1 35 -20q10 -20 0 -40q-12 -19 -35 -20q-23 1 -35 20q-10 20 0 40q12 19 35 20v0zM312 176q-2 22 -24 24q-22 -2 -24 -24
q2 -22 24 -24q22 2 24 24v0z" />
    <glyph glyph-name="uniF780" unicode="&#x2623;" horiz-adv-x="576" 
d="M156 440h4h-4h14l-1 -9v0q-6 -51 24 -92q29 -41 95 -43q66 2 95 43q30 41 24 92l-1 9v0h9h5l2 -3v0q33 -43 34 -101q0 -31 -11 -59q27 -5 52 -20q49 -29 70 -79l2 -4v0l-2 -3v0v-1v0l-5 -8v0l-7 6v0q-42 30 -92 24q-50 -5 -85 -60q-30 -58 -10 -104q21 -46 68 -67l8 -3v0
l-5 -8v0v-1v0l-2 -4v0h-4v0q-54 -7 -104 21q-24 14 -41 33q-17 -19 -41 -33q-50 -28 -104 -21h-4v0l-2 4v0l-1 1v0l-4 8v0l8 3v0q47 21 68 67q20 46 -10 104q-35 56 -85 61t-92 -25l-7 -6v0l-4 8v0l-1 1v0l-2 3v0l2 4v0q21 50 70 79q25 15 52 20q-11 28 -11 59q1 58 34 101
l2 3v0zM152 405q-16 -32 -16 -69q0 -33 13 -62l5 -10v0l-11 -1v0q-29 -4 -56 -19q-32 -19 -51 -49q37 18 79 13q58 -6 97 -68q34 -65 11 -118q-17 -38 -52 -62q36 2 68 20q26 15 43 37l6 8v0l6 -8v0q18 -22 43 -37q32 -18 68 -20q-35 24 -52 62q-23 53 11 118q39 62 97 68
q41 5 79 -13q-19 30 -51 49q-27 15 -56 19l-11 1v0l5 10v0q13 29 13 62q0 37 -16 69q-3 -42 -28 -76q-35 -46 -108 -49q-73 3 -107 49q-26 34 -29 76v0zM155 16q-63 53 -74 137q8 2 16 2q10 -78 68 -126q-5 -7 -10 -13v0zM288 368q-32 0 -61 -10q-2 2 -3 5q-4 4 -6 9
q33 12 70 12t71 -12q-3 -5 -7 -9q-1 -3 -3 -5q-29 10 -61 10v0zM479 155q8 0 16 -2q-11 -84 -73 -137q-6 6 -11 13q58 48 68 126v0zM288 216q23 -1 35 -20q10 -20 0 -40q-12 -19 -35 -20q-23 1 -35 20q-10 20 0 40q12 19 35 20v0zM312 176q-2 22 -24 24q-22 -2 -24 -24
q2 -22 24 -24q22 2 24 24v0z" />
    <glyph glyph-name="uniF644" unicode="&#xf644;" horiz-adv-x="320" 
d="M48 320q1 -41 18 -73v0v0q18 -33 42 -57q23 -24 41 -36q7 -4 11 -7q4 3 11 7q18 13 42 36q23 24 41 57q17 32 18 73q-1 48 -33 79q-31 32 -79 33q-48 -1 -79 -33q-32 -31 -33 -79v0zM136 144q-31 21 -66 66v0v0q-35 45 -38 110q1 54 37 91q37 36 91 37q54 -1 91 -37
q36 -37 37 -91q-3 -65 -38 -110t-66 -66h128h8v-16v0h-8h-144v-184v0v-8v0h-16v0v8v0v184v0h-144h-8v16v0h8h128z" />
    <glyph glyph-name="uniF644" unicode="&#x2625;" horiz-adv-x="320" 
d="M48 320q1 -41 18 -73v0v0q18 -33 42 -57q23 -24 41 -36q7 -4 11 -7q4 3 11 7q18 13 42 36q23 24 41 57q17 32 18 73q-1 48 -33 79q-31 32 -79 33q-48 -1 -79 -33q-32 -31 -33 -79v0zM136 144q-31 21 -66 66v0v0q-35 45 -38 110q1 54 37 91q37 36 91 37q54 -1 91 -37
q36 -37 37 -91q-3 -65 -38 -110t-66 -66h128h8v-16v0h-8h-144v-184v0v-8v0h-16v0v8v0v184v0h-144h-8v16v0h8h128z" />
    <glyph glyph-name="uniF699" unicode="&#xf699;" 
d="M328 400q33 0 64 -10q29 -10 55 -27q-22 24 -48 42q-63 42 -143 43q-72 -1 -129 -35q-58 -34 -92 -92q-34 -57 -35 -129q1 -72 35 -129q34 -58 92 -92q57 -34 129 -35q80 1 143 43q26 18 48 42q-26 -17 -55 -27q-31 -10 -64 -10q-88 2 -147 61t-61 147q2 88 61 147
t147 61v0zM328 416q-63 -1 -113 -31v0v0q-51 -29 -80 -80v0v0q-30 -50 -31 -113q1 -63 31 -113q29 -51 80 -80q50 -30 113 -31h16q-41 -16 -88 -16q-67 1 -121 33t-86 86t-33 121q1 67 33 121t86 86t121 33q47 0 88 -17q-8 1 -16 1v0zM393 310l-9 18l9 -18l-9 18l-9 -18v0
l-33 -68v0l-75 -11v0l-20 -3v0l14 -14v0l54 -52v0l-12 -75v0l-4 -20v0l18 10v0l67 35v0l67 -35v0l18 -10v0l-4 20v0l-13 75v0l54 52v0l15 14v0l-20 3v0l-75 11v0l-33 68v0zM424 226l63 -9l-63 9l63 -9l-46 -44v0l-6 -6v0l2 -8v0l10 -62v0l-55 29v0l-8 4v0l-7 -4v0l-56 -29v0
l10 62v0l2 8v0l-6 6v0l-46 44v0l63 9v0l8 2v0l4 7v0l28 57v0l28 -57v0l4 -7v0l8 -2v0z" />
    <glyph glyph-name="uniF699" unicode="&#x262a;" 
d="M328 400q33 0 64 -10q29 -10 55 -27q-22 24 -48 42q-63 42 -143 43q-72 -1 -129 -35q-58 -34 -92 -92q-34 -57 -35 -129q1 -72 35 -129q34 -58 92 -92q57 -34 129 -35q80 1 143 43q26 18 48 42q-26 -17 -55 -27q-31 -10 -64 -10q-88 2 -147 61t-61 147q2 88 61 147
t147 61v0zM328 416q-63 -1 -113 -31v0v0q-51 -29 -80 -80v0v0q-30 -50 -31 -113q1 -63 31 -113q29 -51 80 -80q50 -30 113 -31h16q-41 -16 -88 -16q-67 1 -121 33t-86 86t-33 121q1 67 33 121t86 86t121 33q47 0 88 -17q-8 1 -16 1v0zM393 310l-9 18l9 -18l-9 18l-9 -18v0
l-33 -68v0l-75 -11v0l-20 -3v0l14 -14v0l54 -52v0l-12 -75v0l-4 -20v0l18 10v0l67 35v0l67 -35v0l18 -10v0l-4 20v0l-13 75v0l54 52v0l15 14v0l-20 3v0l-75 11v0l-33 68v0zM424 226l63 -9l-63 9l63 -9l-46 -44v0l-6 -6v0l2 -8v0l10 -62v0l-55 29v0l-8 4v0l-7 -4v0l-56 -29v0
l10 62v0l2 8v0l-6 6v0l-46 44v0l63 9v0l8 2v0l4 7v0l28 57v0l28 -57v0l4 -7v0l8 -2v0z" />
    <glyph glyph-name="uniF66D" unicode="&#xf66d;" 
d="M256 447l5 -3l-5 3l5 -3l64 -47v0l4 -4v0l-1 -5v0l-11 -32v0q41 -30 43 -84q-2 -54 -43 -85l11 -32v0l1 -6v0l-4 -3v0l-61 -46v0v-24v0l53 32v0q43 27 67 70t24 94q0 31 -10 60l-14 41v0l-5 17v0l16 -7v0h2v0q53 -24 84 -70q30 -47 31 -105q0 -48 -22 -89
q-21 -41 -60 -68l-25 -18v0l-5 -3v0l-4 3v0l-84 54v0l-41 -25v0l68 -42v0q6 4 13 4q22 -2 24 -24q-2 -22 -24 -24q-22 2 -24 24q0 4 1 8l-65 40v0v-49v0q22 -7 24 -31q0 -14 -9 -23t-23 -9t-23 9t-9 23q2 24 24 31v49v0l-65 -40v0q1 -4 1 -8q-2 -22 -24 -24q-22 2 -24 24
q2 22 24 24q7 0 13 -4l68 42v0l-41 25v0l-84 -54v0l-4 -3v0l-5 3v0l-25 18v0q-39 27 -60 68q-22 41 -22 89q1 58 31 105q31 46 85 70h1v0l16 7v0l-5 -17v0l-14 -41v0q-10 -29 -10 -60q0 -51 25 -94q24 -43 67 -70l52 -32v0v24v0l-61 46v0l-4 3v0l1 6v0l11 32v0
q-41 31 -43 85q2 54 43 84l-11 32v0l-1 5v0l4 4v0l64 47v0l5 3v0zM201 340q-32 -25 -33 -68q1 -43 33 -69l10 31v0q12 38 0 76l-11 30h1zM311 203q32 26 33 69q-1 43 -32 68l-11 -30v0q-12 -38 0 -76l10 -31v0zM202 387l24 -72l-24 72l24 -72q14 -43 0 -86l-25 -74v0l55 -41
v0l55 41v0l-25 74v0q-14 43 0 86l25 72v0l-55 40v0l-54 -40v0zM168 0q-1 7 -8 8q-7 -1 -8 -8q1 -7 8 -8q7 1 8 8v0zM272 -32q-1 15 -16 16q-15 -1 -16 -16q1 -15 16 -16q15 1 16 16v0zM352 -8q7 1 8 8q-1 7 -8 8q-7 -1 -8 -8q1 -7 8 -8v0zM185 96q-46 29 -71 75v0v0
q-26 46 -26 101q0 33 11 65l7 23v0q-42 -23 -66 -63q-24 -41 -24 -89q0 -44 20 -81q20 -38 55 -63l21 -14v0l73 46v0zM400 50l21 14l-21 -14l21 14q35 25 55 63q20 37 20 81q0 48 -24 89q-24 40 -66 63l7 -23v0q11 -32 11 -65q0 -55 -26 -101q-25 -46 -71 -75l73 -46v0z" />
    <glyph glyph-name="uniF66D" unicode="&#x262c;" 
d="M256 447l5 -3l-5 3l5 -3l64 -47v0l4 -4v0l-1 -5v0l-11 -32v0q41 -30 43 -84q-2 -54 -43 -85l11 -32v0l1 -6v0l-4 -3v0l-61 -46v0v-24v0l53 32v0q43 27 67 70t24 94q0 31 -10 60l-14 41v0l-5 17v0l16 -7v0h2v0q53 -24 84 -70q30 -47 31 -105q0 -48 -22 -89
q-21 -41 -60 -68l-25 -18v0l-5 -3v0l-4 3v0l-84 54v0l-41 -25v0l68 -42v0q6 4 13 4q22 -2 24 -24q-2 -22 -24 -24q-22 2 -24 24q0 4 1 8l-65 40v0v-49v0q22 -7 24 -31q0 -14 -9 -23t-23 -9t-23 9t-9 23q2 24 24 31v49v0l-65 -40v0q1 -4 1 -8q-2 -22 -24 -24q-22 2 -24 24
q2 22 24 24q7 0 13 -4l68 42v0l-41 25v0l-84 -54v0l-4 -3v0l-5 3v0l-25 18v0q-39 27 -60 68q-22 41 -22 89q1 58 31 105q31 46 85 70h1v0l16 7v0l-5 -17v0l-14 -41v0q-10 -29 -10 -60q0 -51 25 -94q24 -43 67 -70l52 -32v0v24v0l-61 46v0l-4 3v0l1 6v0l11 32v0
q-41 31 -43 85q2 54 43 84l-11 32v0l-1 5v0l4 4v0l64 47v0l5 3v0zM201 340q-32 -25 -33 -68q1 -43 33 -69l10 31v0q12 38 0 76l-11 30h1zM311 203q32 26 33 69q-1 43 -32 68l-11 -30v0q-12 -38 0 -76l10 -31v0zM202 387l24 -72l-24 72l24 -72q14 -43 0 -86l-25 -74v0l55 -41
v0l55 41v0l-25 74v0q-14 43 0 86l25 72v0l-55 40v0l-54 -40v0zM168 0q-1 7 -8 8q-7 -1 -8 -8q1 -7 8 -8q7 1 8 8v0zM272 -32q-1 15 -16 16q-15 -1 -16 -16q1 -15 16 -16q15 1 16 16v0zM352 -8q7 1 8 8q-1 7 -8 8q-7 -1 -8 -8q1 -7 8 -8v0zM185 96q-46 29 -71 75v0v0
q-26 46 -26 101q0 33 11 65l7 23v0q-42 -23 -66 -63q-24 -41 -24 -89q0 -44 20 -81q20 -38 55 -63l21 -14v0l73 46v0zM400 50l21 14l-21 -14l21 14q35 25 55 63q20 37 20 81q0 48 -24 89q-24 40 -66 63l7 -23v0q11 -32 11 -65q0 -55 -26 -101q-25 -46 -71 -75l73 -46v0z" />
    <glyph glyph-name="uniF67C" unicode="&#xf67c;" 
d="M248 -48v223v-223v223l-171 -143v0q32 -36 76 -57t95 -23v0zM67 45l181 151l-181 -151l181 151v236v0q-65 -3 -117 -35q-53 -33 -83 -86q-31 -53 -32 -119q2 -85 51 -147v0zM256 -64q-70 1 -128 34v0v0q-58 34 -94 94q-34 61 -34 128t34 128q36 60 94 94q58 33 128 34
q70 -1 128 -34q58 -34 94 -94q34 -61 34 -128t-34 -128q-36 -60 -94 -94q-58 -33 -128 -34v0zM435 32l-171 143l171 -143l-171 143v-223v0q51 2 95 23t76 57v0zM445 45q49 62 51 147q-1 66 -32 119q-30 53 -83 86q-52 32 -117 35v-236v0l181 -151v0z" />
    <glyph glyph-name="uniF67C" unicode="&#x262e;" 
d="M248 -48v223v-223v223l-171 -143v0q32 -36 76 -57t95 -23v0zM67 45l181 151l-181 -151l181 151v236v0q-65 -3 -117 -35q-53 -33 -83 -86q-31 -53 -32 -119q2 -85 51 -147v0zM256 -64q-70 1 -128 34v0v0q-58 34 -94 94q-34 61 -34 128t34 128q36 60 94 94q58 33 128 34
q70 -1 128 -34q58 -34 94 -94q34 -61 34 -128t-34 -128q-36 -60 -94 -94q-58 -33 -128 -34v0zM435 32l-171 143l171 -143l-171 143v-223v0q51 2 95 23t76 57v0zM445 45q49 62 51 147q-1 66 -32 119q-30 53 -83 86q-52 32 -117 35v-236v0l181 -151v0z" />
    <glyph glyph-name="uniF6AD" unicode="&#xf6ad;" 
d="M496 192q-1 -67 -33 -121v0v0q-32 -54 -86 -86v0v0q-54 -32 -121 -33q-51 1 -85 34t-35 82q1 49 35 82t85 34q58 1 96 39q39 37 40 93q-2 60 -45 98q67 -28 107 -87q41 -59 42 -135v0zM256 432q51 -1 85 -34v0v0q34 -33 35 -82q-1 -49 -35 -82t-85 -34q-58 -1 -96 -39
q-39 -37 -40 -93q2 -60 45 -98q-67 28 -107 87q-41 59 -42 135q1 67 33 121t86 86t121 33v0zM256 -64q70 1 128 34v0v0q58 34 94 94q34 61 34 128t-34 128q-36 60 -94 94q-58 33 -128 34q-70 -1 -128 -34q-58 -34 -94 -94q-34 -61 -34 -128t34 -128q36 -60 94 -94
q58 -33 128 -34v0zM256 115l-6 -5l6 5l-6 -5l-40 -40v0l-5 -6v0l5 -6v0l40 -40v0l6 -6v0l6 6v0l40 40v0l5 6v0l-5 6v0l-40 40v0l-6 5v0zM227 64l29 29l-29 -29l29 29l29 -29v0l-29 -29v0l-29 29v0zM262 366l-6 5l6 -5l-6 5l-6 -5v0l-40 -40v0l-5 -6v0l5 -6v0l40 -40v0l6 -5
v0l6 5v0l40 40v0l5 6v0l-5 6v0l-40 40v0zM256 291l-29 29l29 -29l-29 29l29 29v0l29 -29v0l-29 -29v0z" />
    <glyph glyph-name="uniF6AD" unicode="&#x262f;" 
d="M496 192q-1 -67 -33 -121v0v0q-32 -54 -86 -86v0v0q-54 -32 -121 -33q-51 1 -85 34t-35 82q1 49 35 82t85 34q58 1 96 39q39 37 40 93q-2 60 -45 98q67 -28 107 -87q41 -59 42 -135v0zM256 432q51 -1 85 -34v0v0q34 -33 35 -82q-1 -49 -35 -82t-85 -34q-58 -1 -96 -39
q-39 -37 -40 -93q2 -60 45 -98q-67 28 -107 87q-41 59 -42 135q1 67 33 121t86 86t121 33v0zM256 -64q70 1 128 34v0v0q58 34 94 94q34 61 34 128t-34 128q-36 60 -94 94q-58 33 -128 34q-70 -1 -128 -34q-58 -34 -94 -94q-34 -61 -34 -128t34 -128q36 -60 94 -94
q58 -33 128 -34v0zM256 115l-6 -5l6 5l-6 -5l-40 -40v0l-5 -6v0l5 -6v0l40 -40v0l6 -6v0l6 6v0l40 40v0l5 6v0l-5 6v0l-40 40v0l-6 5v0zM227 64l29 29l-29 -29l29 29l29 -29v0l-29 -29v0l-29 29v0zM262 366l-6 5l6 -5l-6 5l-6 -5v0l-40 -40v0l-5 -6v0l5 -6v0l40 -40v0l6 -5
v0l6 5v0l40 40v0l5 6v0l-5 6v0l-40 40v0zM256 291l-29 29l29 -29l-29 29l29 29v0l29 -29v0l-29 -29v0z" />
    <glyph glyph-name="uniF655" unicode="&#xf655;" 
d="M264 440v8v-8v8h-16v0v-8v0v-40v0q-79 -5 -133 -55l-29 28v0l-5 6v0l-12 -12v0l6 -5v0l28 -29v0q-50 -54 -55 -133h-40h-8v-16v0h8h40q5 -79 55 -133l-28 -29v0l-6 -5v0l12 -12v0l5 6v0l29 28v0q54 -50 133 -55v-40v0v-8v0h16v0v8v0v40v0q79 5 133 55l29 -28v0l5 -6v0
l12 12v0l-6 5v0l-28 29v0q50 54 55 133h40h8v16v0h-8h-40q-5 79 -55 133l28 29v0l6 5v0l-12 12v0l-5 -6v0l-29 -28v0q-54 50 -133 55v40v0zM248 384v-96v96v-96q-31 -3 -54 -23l-68 68v0q50 46 122 51v0zM264 288v96v-96v96q72 -5 122 -51l-68 -68v0q-23 20 -54 23v0z
M329 254l68 68l-68 -68l68 68q46 -50 51 -122h-96v0q-3 31 -23 54v0zM352 184h96h-96h96q-4 -72 -51 -122l-68 68v0q20 23 23 54v0zM200 249q32 32 78 22q44 -13 57 -58q10 -45 -22 -78q-33 -32 -79 -22q-44 13 -57 58q-10 45 23 78v0zM264 96q31 3 54 23l68 -68v0
q-50 -46 -122 -51v96v0zM248 96v-96v96v-96q-72 4 -122 51l68 68v0q23 -20 54 -23v0zM115 62q-46 50 -51 122h96v0q3 -31 23 -54l-68 -68v0zM64 200q5 72 51 122l68 -68v0q-20 -23 -23 -54h-96v0z" />
    <glyph glyph-name="uniF655" unicode="&#x2638;" 
d="M264 440v8v-8v8h-16v0v-8v0v-40v0q-79 -5 -133 -55l-29 28v0l-5 6v0l-12 -12v0l6 -5v0l28 -29v0q-50 -54 -55 -133h-40h-8v-16v0h8h40q5 -79 55 -133l-28 -29v0l-6 -5v0l12 -12v0l5 6v0l29 28v0q54 -50 133 -55v-40v0v-8v0h16v0v8v0v40v0q79 5 133 55l29 -28v0l5 -6v0
l12 12v0l-6 5v0l-28 29v0q50 54 55 133h40h8v16v0h-8h-40q-5 79 -55 133l28 29v0l6 5v0l-12 12v0l-5 -6v0l-29 -28v0q-54 50 -133 55v40v0zM248 384v-96v96v-96q-31 -3 -54 -23l-68 68v0q50 46 122 51v0zM264 288v96v-96v96q72 -5 122 -51l-68 -68v0q-23 20 -54 23v0z
M329 254l68 68l-68 -68l68 68q46 -50 51 -122h-96v0q-3 31 -23 54v0zM352 184h96h-96h96q-4 -72 -51 -122l-68 68v0q20 23 23 54v0zM200 249q32 32 78 22q44 -13 57 -58q10 -45 -22 -78q-33 -32 -79 -22q-44 13 -57 58q-10 45 23 78v0zM264 96q31 3 54 23l68 -68v0
q-50 -46 -122 -51v96v0zM248 96v-96v96v-96q-72 4 -122 51l68 68v0q23 -20 54 -23v0zM115 62q-46 50 -51 122h96v0q3 -31 23 -54l-68 -68v0zM64 200q5 72 51 122l68 -68v0q-20 -23 -23 -54h-96v0z" />
    <glyph glyph-name="uniF119" unicode="&#xf119;" 
d="M496 192q-1 65 -32 120v0v0q-32 55 -88 88q-57 32 -120 32t-120 -32q-56 -33 -88 -88q-31 -55 -32 -120q1 -65 32 -120q32 -55 88 -88q57 -32 120 -32t120 32q56 33 88 88q31 55 32 120v0zM0 192q1 70 34 128v0v0q34 58 94 94q61 34 128 34t128 -34q60 -36 94 -94
q33 -58 34 -128q-1 -70 -34 -128q-34 -58 -94 -94q-61 -34 -128 -34t-128 34q-60 36 -94 94q-33 58 -34 128v0zM152 70l-16 4l16 -4l-16 4q13 38 45 62q32 23 75 24q43 -1 75 -24q32 -24 45 -62l-16 -4v0q-10 32 -38 53q-28 20 -66 21q-38 -1 -66 -21q-28 -21 -38 -53v0z
M160 240q2 15 16 16q15 -1 16 -16q-1 -15 -16 -16q-14 1 -16 16v0zM336 256q15 -1 16 -16q-1 -15 -16 -16q-14 1 -16 16q2 15 16 16v0z" />
    <glyph glyph-name="uniF119" unicode="&#x2639;" 
d="M496 192q-1 65 -32 120v0v0q-32 55 -88 88q-57 32 -120 32t-120 -32q-56 -33 -88 -88q-31 -55 -32 -120q1 -65 32 -120q32 -55 88 -88q57 -32 120 -32t120 32q56 33 88 88q31 55 32 120v0zM0 192q1 70 34 128v0v0q34 58 94 94q61 34 128 34t128 -34q60 -36 94 -94
q33 -58 34 -128q-1 -70 -34 -128q-34 -58 -94 -94q-61 -34 -128 -34t-128 34q-60 36 -94 94q-33 58 -34 128v0zM152 70l-16 4l16 -4l-16 4q13 38 45 62q32 23 75 24q43 -1 75 -24q32 -24 45 -62l-16 -4v0q-10 32 -38 53q-28 20 -66 21q-38 -1 -66 -21q-28 -21 -38 -53v0z
M160 240q2 15 16 16q15 -1 16 -16q-1 -15 -16 -16q-14 1 -16 16v0zM336 256q15 -1 16 -16q-1 -15 -16 -16q-14 1 -16 16q2 15 16 16v0z" />
    <glyph glyph-name="uniF223" unicode="&#xf223;" horiz-adv-x="384" 
d="M310 448l-4 3l4 -3l-4 3l-3 -3v0v0v0q-44 -46 -111 -48q-67 2 -111 48v0v0l-3 3v0l-3 -3v0h-15v0q3 -3 5 -6l2 -2v0v0l5 -6v0q5 -5 10 -9q1 0 1 -1l1 -1q25 -21 56 -31q-55 -17 -89 -63q-34 -45 -35 -105q2 -73 49 -122t119 -54v-48v0h-56h-8v-16v0h8h56v-40v0v-8v0h16v0
v8v0v40v0h56h8v16v0h-8h-56v48v0q72 5 119 54t49 122q-1 60 -35 105q-34 46 -89 63q26 9 47 24l3 3q2 1 3 2q8 6 15 14l6 5v0v0v0l6 8h-14v0zM192 64q-68 2 -113 47v0v0q-45 45 -47 113q2 68 47 113t113 47q68 -2 113 -47t47 -113q-2 -68 -47 -113t-113 -47v0v0v0v0z" />
    <glyph glyph-name="uniF223" unicode="&#x263f;" horiz-adv-x="384" 
d="M310 448l-4 3l4 -3l-4 3l-3 -3v0v0v0q-44 -46 -111 -48q-67 2 -111 48v0v0l-3 3v0l-3 -3v0h-15v0q3 -3 5 -6l2 -2v0v0l5 -6v0q5 -5 10 -9q1 0 1 -1l1 -1q25 -21 56 -31q-55 -17 -89 -63q-34 -45 -35 -105q2 -73 49 -122t119 -54v-48v0h-56h-8v-16v0h8h56v-40v0v-8v0h16v0
v8v0v40v0h56h8v16v0h-8h-56v48v0q72 5 119 54t49 122q-1 60 -35 105q-34 46 -89 63q26 9 47 24l3 3q2 1 3 2q8 6 15 14l6 5v0v0v0l6 8h-14v0zM192 64q-68 2 -113 47v0v0q-45 45 -47 113q2 68 47 113t113 47q68 -2 113 -47t47 -113q-2 -68 -47 -113t-113 -47v0v0v0v0z" />
    <glyph glyph-name="uniF221" unicode="&#xf221;" horiz-adv-x="384" 
d="M32 272q0 43 21 80v0v0q22 37 59 59q38 21 80 21t80 -21q37 -22 59 -59q21 -37 21 -80t-21 -80q-22 -37 -59 -59q-38 -21 -80 -21t-80 21q-37 22 -59 59q-21 37 -21 80v0zM200 96q72 5 119 54v0v0q47 49 49 122q-2 75 -52 124q-49 50 -124 52q-75 -2 -124 -52
q-50 -49 -52 -124q2 -73 49 -122t119 -54v-64v0h-80h-8v-16v0h8h80v-72v0v-8v0h16v0v8v0v72v0h80h8v16v0h-8h-80v64v0z" />
    <glyph glyph-name="uniF221" unicode="&#x2640;" horiz-adv-x="384" 
d="M32 272q0 43 21 80v0v0q22 37 59 59q38 21 80 21t80 -21q37 -22 59 -59q21 -37 21 -80t-21 -80q-22 -37 -59 -59q-38 -21 -80 -21t-80 21q-37 22 -59 59q-21 37 -21 80v0zM200 96q72 5 119 54v0v0q47 49 49 122q-2 75 -52 124q-49 50 -124 52q-75 -2 -124 -52
q-50 -49 -52 -124q2 -73 49 -122t119 -54v-64v0h-80h-8v-16v0h8h80v-72v0v-8v0h16v0v8v0v72v0h80h8v16v0h-8h-80v64v0z" />
    <glyph glyph-name="uniF222" unicode="&#xf222;" horiz-adv-x="448" 
d="M296 416h-8h8h-8v-16v0h8h125l-126 -126v0q-49 44 -119 46q-75 -2 -124 -52q-50 -49 -52 -124q2 -75 52 -124q49 -50 124 -52q75 2 124 52q50 49 52 124q-2 70 -46 119l126 126v0v-125v0v-8v0h16v0v8v0v144v0v8v0h-8h-144zM16 144q0 43 21 80v0v0q22 37 59 59
q38 21 80 21t80 -21q37 -22 59 -59q21 -37 21 -80t-21 -80q-22 -37 -59 -59q-38 -21 -80 -21t-80 21q-37 22 -59 59q-21 37 -21 80v0z" />
    <glyph glyph-name="uniF222" unicode="&#x2642;" horiz-adv-x="448" 
d="M296 416h-8h8h-8v-16v0h8h125l-126 -126v0q-49 44 -119 46q-75 -2 -124 -52q-50 -49 -52 -124q2 -75 52 -124q49 -50 124 -52q75 2 124 52q50 49 52 124q-2 70 -46 119l126 126v0v-125v0v-8v0h16v0v8v0v144v0v8v0h-8h-144zM16 144q0 43 21 80v0v0q22 37 59 59
q38 21 80 21t80 -21q37 -22 59 -59q21 -37 21 -80t-21 -80q-22 -37 -59 -59q-38 -21 -80 -21t-80 21q-37 22 -59 59q-21 37 -21 80v0z" />
    <glyph glyph-name="uniF43F" unicode="&#xf43f;" horiz-adv-x="448" 
d="M232 448v-8v8v-8v-48v0h56h8v-16v0h-8h-56v-88v0h208h8v-8v0v-56v0v-2v0l-1 -1v0l-66 -157v0h-17v0l68 162v0v46v0h-200h-216v-46v0l68 -162v0h-17v0l-66 157v0l-1 1v0v2v0v56v0v8v0h8h208v88v0h-56h-8v16v0h8h56v48v0v8v0h16v0zM48 -48h352h-352h352v20v0l-39 44v0h-274
v0l-39 -44v0v-20v0zM32 -48v27v-27v27l48 53v0h288v0l48 -53v0v-27v0v-16v0h-16h-368v16v0z" />
    <glyph glyph-name="uniF43F" unicode="&#x265a;" horiz-adv-x="448" 
d="M232 448v-8v8v-8v-48v0h56h8v-16v0h-8h-56v-88v0h208h8v-8v0v-56v0v-2v0l-1 -1v0l-66 -157v0h-17v0l68 162v0v46v0h-200h-216v-46v0l68 -162v0h-17v0l-66 157v0l-1 1v0v2v0v56v0v8v0h8h208v88v0h-56h-8v16v0h8h56v48v0v8v0h16v0zM48 -48h352h-352h352v20v0l-39 44v0h-274
v0l-39 -44v0v-20v0zM32 -48v27v-27v27l48 53v0h288v0l48 -53v0v-27v0v-16v0h-16h-368v16v0z" />
    <glyph glyph-name="uniF445" unicode="&#xf445;" 
d="M216 392q1 23 20 35q20 10 40 0q19 -12 20 -35q-1 -23 -20 -35q-20 -10 -40 0q-19 12 -20 35v0zM312 392q-1 32 -28 48q-28 16 -56 0q-27 -16 -28 -48q1 -32 28 -48q28 -16 56 0q27 16 28 48v0zM151 328h-7h7h-7l-1 -7v0q-6 -28 -27 -46q-22 -19 -52 -19q-23 0 -41 11
l-4 2v0l-4 -2v0l-8 -4v0l-6 -4v0l3 -7v0l98 -188v0h18v0l-96 185v0q18 -9 40 -9q34 1 59 20q25 20 34 52h7v0q13 -25 37 -40q24 -16 55 -16q30 0 55 16q24 15 37 40h7v0q9 -32 34 -52q25 -19 59 -20q22 0 40 9l-96 -185v0h18v0l98 188v0l3 7v0l-6 4v0l-8 4v0l-4 2v0l-4 -2v0
q-18 -11 -41 -11q-30 1 -52 19q-21 18 -27 46l-1 7v0h-7h-23l-2 -5v0q-11 -23 -32 -37t-48 -14t-48 14t-32 37l-2 5v0h-5h-18zM80 -28l39 44l-39 -44l39 44h274v0l39 -44v0v-20v0h-352v0v20v0zM64 -21v-27v27v-27v-16v0h16h368v16v0v27v0l-48 53v0h-288v0l-48 -53v0z" />
    <glyph glyph-name="uniF445" unicode="&#x265b;" 
d="M216 392q1 23 20 35q20 10 40 0q19 -12 20 -35q-1 -23 -20 -35q-20 -10 -40 0q-19 12 -20 35v0zM312 392q-1 32 -28 48q-28 16 -56 0q-27 -16 -28 -48q1 -32 28 -48q28 -16 56 0q27 16 28 48v0zM151 328h-7h7h-7l-1 -7v0q-6 -28 -27 -46q-22 -19 -52 -19q-23 0 -41 11
l-4 2v0l-4 -2v0l-8 -4v0l-6 -4v0l3 -7v0l98 -188v0h18v0l-96 185v0q18 -9 40 -9q34 1 59 20q25 20 34 52h7v0q13 -25 37 -40q24 -16 55 -16q30 0 55 16q24 15 37 40h7v0q9 -32 34 -52q25 -19 59 -20q22 0 40 9l-96 -185v0h18v0l98 188v0l3 7v0l-6 4v0l-8 4v0l-4 2v0l-4 -2v0
q-18 -11 -41 -11q-30 1 -52 19q-21 18 -27 46l-1 7v0h-7h-23l-2 -5v0q-11 -23 -32 -37t-48 -14t-48 14t-32 37l-2 5v0h-5h-18zM80 -28l39 44l-39 -44l39 44h274v0l39 -44v0v-20v0h-352v0v20v0zM64 -21v-27v27v-27v-16v0h16h368v16v0v27v0l-48 53v0h-288v0l-48 -53v0z" />
    <glyph glyph-name="uniF447" unicode="&#xf447;" horiz-adv-x="448" 
d="M40 416h-8h8h-8v-8v0v-160v0v-3v0l2 -3v0l54 -53v0l-7 -125v0h16v0l7 128v0v3v0l-2 3v0l-54 53v0v149v0h64v0v-48v0v-8v0h8h72v8v0v48v0h64v0v-48v0v-8v0h8h72v8v0v48v0h64v0v-149v0l-54 -53v0l-2 -3v0v-4v0l7 -127v0h16v0l-7 125v0l54 53v0l2 3v0v3v0v160v0v8v0h-8h-88
v-8v0v-48v0h-48v0v48v0v8v0h-8h-88v-8v0v-48v0h-48v0v48v0v8v0h-8h-80zM184 232v-64v64v-64v-8v0h8h72v8v0v64v0q0 17 -12 28q-11 12 -28 12t-28 -12q-12 -11 -12 -28v0zM224 256q22 -2 24 -24v-56v0h-48v0v56v0q2 22 24 24v0zM48 -48v20v-20v20l39 44v0h274v0l39 -44v0v-20
v0h-352v0zM32 -48v-16v16v-16h16h368v16v0v27v0l-48 53v0h-288v0l-48 -53v0v-27v0z" />
    <glyph glyph-name="uniF447" unicode="&#x265c;" horiz-adv-x="448" 
d="M40 416h-8h8h-8v-8v0v-160v0v-3v0l2 -3v0l54 -53v0l-7 -125v0h16v0l7 128v0v3v0l-2 3v0l-54 53v0v149v0h64v0v-48v0v-8v0h8h72v8v0v48v0h64v0v-48v0v-8v0h8h72v8v0v48v0h64v0v-149v0l-54 -53v0l-2 -3v0v-4v0l7 -127v0h16v0l-7 125v0l54 53v0l2 3v0v3v0v160v0v8v0h-8h-88
v-8v0v-48v0h-48v0v48v0v8v0h-8h-88v-8v0v-48v0h-48v0v48v0v8v0h-8h-80zM184 232v-64v64v-64v-8v0h8h72v8v0v64v0q0 17 -12 28q-11 12 -28 12t-28 -12q-12 -11 -12 -28v0zM224 256q22 -2 24 -24v-56v0h-48v0v56v0q2 22 24 24v0zM48 -48v20v-20v20l39 44v0h274v0l39 -44v0v-20
v0h-352v0zM32 -48v-16v16v-16h16h368v16v0v27v0l-48 53v0h-288v0l-48 -53v0v-27v0z" />
    <glyph glyph-name="uniF43A" unicode="&#xf43a;" horiz-adv-x="320" 
d="M88 448h8h-8h144v-8v0v-48v0v-8v0h-8h-5q35 -36 63 -83q17 -28 27 -57q11 -29 11 -56q1 -26 -12 -57q-12 -31 -44 -55v-12v0h-16v0v16v0v5v0l4 2v0q29 21 41 49t11 52q-1 38 -23 81l-107 -107v0l-6 -5v0l-11 11v0l5 6v0l111 110v0q-2 4 -5 8q-34 56 -74 94l-14 14v0h20
h16v32v0h-112v0v-32v0h16h20l-15 -14v0q-39 -38 -73 -94q-34 -55 -36 -104q-1 -24 11 -52t41 -49l4 -2v0v-4v0v-17v0h-16v0v12v0q-32 24 -44 55q-13 31 -12 57q3 55 38 113q29 47 63 83h-5h-8v8v0v48v0v8v0zM16 -48h288h-288h288v20v0l-39 44v0h-210v0l-39 -44v0v-20v0z
M0 -48v27v-27v27l48 53v0h224v0l48 -53v0v-27v0v-16v0h-16h-304v16v0z" />
    <glyph glyph-name="uniF43A" unicode="&#x265d;" horiz-adv-x="320" 
d="M88 448h8h-8h144v-8v0v-48v0v-8v0h-8h-5q35 -36 63 -83q17 -28 27 -57q11 -29 11 -56q1 -26 -12 -57q-12 -31 -44 -55v-12v0h-16v0v16v0v5v0l4 2v0q29 21 41 49t11 52q-1 38 -23 81l-107 -107v0l-6 -5v0l-11 11v0l5 6v0l111 110v0q-2 4 -5 8q-34 56 -74 94l-14 14v0h20
h16v32v0h-112v0v-32v0h16h20l-15 -14v0q-39 -38 -73 -94q-34 -55 -36 -104q-1 -24 11 -52t41 -49l4 -2v0v-4v0v-17v0h-16v0v12v0q-32 24 -44 55q-13 31 -12 57q3 55 38 113q29 47 63 83h-5h-8v8v0v48v0v8v0zM16 -48h288h-288h288v20v0l-39 44v0h-210v0l-39 -44v0v-20v0z
M0 -48v27v-27v27l48 53v0h224v0l48 -53v0v-27v0v-16v0h-16h-304v16v0z" />
    <glyph glyph-name="uniF441" unicode="&#xf441;" horiz-adv-x="448" 
d="M64 448h8h-8h171q77 -2 128 -53t53 -128q0 -16 -3 -31l-29 -173v0l-16 2v0l30 174v0q2 14 2 28q-2 70 -48 117q-47 46 -117 48h-155v0v-19v0l28 -14v0l10 -5v0l-8 -8v0l-30 -29v0v-152v0l51 -37v0l112 86v0l6 5v0l10 -12v0l-6 -5v0l-173 -134v0v-3v0v-25v0v-16v0h-16v0
v16v0v25v0v5v0v2v0v0v0v0v0v0v0v0v0v0v0v0v0v4v0l3 2v0l51 39v0l-51 37v0l-3 2v0v4v0v160v0v3v0l2 3v0l25 24v0l-23 11v0l-4 2v0v5v0v32v0v8v0zM128 304q1 15 16 16q15 -1 16 -16q-1 -15 -16 -16q-15 1 -16 16v0zM32 -48h384h-384h384v25v0l-39 39v0h-306v0l-39 -39v0v-25v0
zM16 -48v32v-32v32l48 48v0h320v0l48 -48v0v-32v0v-16v0h-16h-400v16v0z" />
    <glyph glyph-name="uniF441" unicode="&#x265e;" horiz-adv-x="448" 
d="M64 448h8h-8h171q77 -2 128 -53t53 -128q0 -16 -3 -31l-29 -173v0l-16 2v0l30 174v0q2 14 2 28q-2 70 -48 117q-47 46 -117 48h-155v0v-19v0l28 -14v0l10 -5v0l-8 -8v0l-30 -29v0v-152v0l51 -37v0l112 86v0l6 5v0l10 -12v0l-6 -5v0l-173 -134v0v-3v0v-25v0v-16v0h-16v0
v16v0v25v0v5v0v2v0v0v0v0v0v0v0v0v0v0v0v0v0v4v0l3 2v0l51 39v0l-51 37v0l-3 2v0v4v0v160v0v3v0l2 3v0l25 24v0l-23 11v0l-4 2v0v5v0v32v0v8v0zM128 304q1 15 16 16q15 -1 16 -16q-1 -15 -16 -16q-15 1 -16 16v0zM32 -48h384h-384h384v25v0l-39 39v0h-306v0l-39 -39v0v-25v0
zM16 -48v32v-32v32l48 48v0h320v0l48 -48v0v-32v0v-16v0h-16h-400v16v0z" />
    <glyph glyph-name="uniF443" unicode="&#xf443;" horiz-adv-x="320" 
d="M256 304q0 26 -13 48v0v0q-13 22 -35 35q-23 13 -48 13t-48 -13q-22 -13 -35 -35t-13 -48t13 -48t35 -35q23 -13 48 -13t48 13q22 13 35 35t13 48v0zM272 304q0 -31 -15 -56v0v0q-15 -25 -39 -40h5h41v-16v0h-8h-30l25 -128v0h-17v0l-25 128v0h-49h-49l-25 -128v0h-16v0
l24 128v0h-30h-8v16v0h8h38q-24 15 -39 40t-15 56q1 48 33 79q31 32 79 33q48 -1 79 -33q32 -31 33 -79v0zM16 -48h288h-288h288v20v0l-39 44v0h-210v0l-39 -44v0v-20v0zM0 -48v27v-27v27l48 53v0h224v0l48 -53v0v-27v0v-16v0h-16h-304v16v0z" />
    <glyph glyph-name="uniF443" unicode="&#x265f;" horiz-adv-x="320" 
d="M256 304q0 26 -13 48v0v0q-13 22 -35 35q-23 13 -48 13t-48 -13q-22 -13 -35 -35t-13 -48t13 -48t35 -35q23 -13 48 -13t48 13q22 13 35 35t13 48v0zM272 304q0 -31 -15 -56v0v0q-15 -25 -39 -40h5h41v-16v0h-8h-30l25 -128v0h-17v0l-25 128v0h-49h-49l-25 -128v0h-16v0
l24 128v0h-30h-8v16v0h8h38q-24 15 -39 40t-15 56q1 48 33 79q31 32 79 33q48 -1 79 -33q32 -31 33 -79v0zM16 -48h288h-288h288v20v0l-39 44v0h-210v0l-39 -44v0v-20v0zM0 -48v27v-27v27l48 53v0h224v0l48 -53v0v-27v0v-16v0h-16h-304v16v0z" />
    <glyph glyph-name="uniF2F4" unicode="&#xf2f4;" 
d="M280 40l-13 13l13 -13l-13 13l-3 3v0v-104v0h80h8v-16v0h-8h-184v16v0h8h80v104v0l-3 -3v0l-13 -13v0q-42 -40 -96 -40t-96 40q-40 42 -40 96t40 96l216 216v0v0v0l216 -216v0q40 -42 40 -96t-40 -96q-42 -40 -96 -40t-96 40v0zM51 51q37 -35 85 -35v0v0q48 0 85 35v0v0
l24 24v0l11 12v0l11 -12v0l24 -24v0v0v0q37 -35 85 -35t85 35q35 37 35 85t-35 85v0v0l-205 204v0l-205 -204v0v0v0q-35 -37 -35 -85t35 -85v0z" />
    <glyph glyph-name="uniF2F4" unicode="&#x2660;" 
d="M280 40l-13 13l13 -13l-13 13l-3 3v0v-104v0h80h8v-16v0h-8h-184v16v0h8h80v104v0l-3 -3v0l-13 -13v0q-42 -40 -96 -40t-96 40q-40 42 -40 96t40 96l216 216v0v0v0l216 -216v0q40 -42 40 -96t-40 -96q-42 -40 -96 -40t-96 40v0zM51 51q37 -35 85 -35v0v0q48 0 85 35v0v0
l24 24v0l11 12v0l11 -12v0l24 -24v0v0v0q37 -35 85 -35t85 35q35 37 35 85t-35 85v0v0l-205 204v0l-205 -204v0v0v0q-35 -37 -35 -85t35 -85v0z" />
    <glyph glyph-name="uniF327" unicode="&#xf327;" 
d="M373 283l-5 -18l5 18l-5 -18l19 -1v0q47 -6 77 -39q31 -33 32 -81q-1 -51 -35 -85t-85 -35q-35 0 -63 18q-27 17 -43 45l-14 27v0l-14 -27v0q-16 -28 -43 -45q-28 -18 -63 -18q-51 1 -85 35t-35 85q1 48 32 81q30 33 77 38l19 2v0l-4 18v0q-4 14 -4 29q1 51 35 85t85 35
q51 -1 85 -35t35 -85q0 -15 -3 -29v0zM404 277q-8 2 -16 2q2 8 3 16q1 9 1 17q-1 58 -40 96q-38 39 -96 40q-58 -1 -96 -40q-39 -38 -40 -96q0 -8 1 -17q1 -8 3 -16q-8 0 -16 -2q-47 -11 -77 -47t-31 -86q1 -58 40 -96q38 -39 96 -40q34 0 63 15q29 16 47 42q1 0 1 1
q1 0 1 1v-115v0h-80h-8v-16v0h8h184v16v0h-8h-80v115v0q0 -1 1 -1q0 -1 1 -2q18 -25 47 -41q29 -15 63 -15q58 1 96 40q39 38 40 96q-1 50 -31 86t-77 47v0z" />
    <glyph glyph-name="uniF327" unicode="&#x2663;" 
d="M373 283l-5 -18l5 18l-5 -18l19 -1v0q47 -6 77 -39q31 -33 32 -81q-1 -51 -35 -85t-85 -35q-35 0 -63 18q-27 17 -43 45l-14 27v0l-14 -27v0q-16 -28 -43 -45q-28 -18 -63 -18q-51 1 -85 35t-35 85q1 48 32 81q30 33 77 38l19 2v0l-4 18v0q-4 14 -4 29q1 51 35 85t85 35
q51 -1 85 -35t35 -85q0 -15 -3 -29v0zM404 277q-8 2 -16 2q2 8 3 16q1 9 1 17q-1 58 -40 96q-38 39 -96 40q-58 -1 -96 -40q-39 -38 -40 -96q0 -8 1 -17q1 -8 3 -16q-8 0 -16 -2q-47 -11 -77 -47t-31 -86q1 -58 40 -96q38 -39 96 -40q34 0 63 15q29 16 47 42q1 0 1 1
q1 0 1 1v-115v0h-80h-8v-16v0h8h184v16v0h-8h-80v115v0q0 -1 1 -1q0 -1 1 -2q18 -25 47 -41q29 -15 63 -15q58 1 96 40q39 38 40 96q-1 50 -31 86t-77 47v0z" />
    <glyph glyph-name="u1F9E1" unicode="&#x1f9e1;" 
d="M256 329l-11 12l11 -12l-11 12l-24 24v0q-36 34 -85 35q-51 -1 -85 -35t-35 -85q1 -49 35 -85l24 -24v0l181 -180v0l181 180v0l24 24v0q34 36 35 85q-1 51 -35 85t-85 35q-49 -1 -84 -35l-25 -24v0l-11 -12v0zM267 -21l-11 -11l11 11l-11 -11l-11 11v0l-181 181v0l-24 24
v0q-39 40 -40 96q1 58 40 96q38 39 96 40q56 -1 96 -40l13 -13v0l11 -11v0l11 11v0l13 13v0q40 39 96 40q58 -1 96 -40q39 -38 40 -96q-1 -56 -40 -96l-24 -24v0l-181 -181v0z" />
    <glyph glyph-name="u1F9E1" unicode="&#x1f90e;" 
d="M256 329l-11 12l11 -12l-11 12l-24 24v0q-36 34 -85 35q-51 -1 -85 -35t-35 -85q1 -49 35 -85l24 -24v0l181 -180v0l181 180v0l24 24v0q34 36 35 85q-1 51 -35 85t-85 35q-49 -1 -84 -35l-25 -24v0l-11 -12v0zM267 -21l-11 -11l11 11l-11 -11l-11 11v0l-181 181v0l-24 24
v0q-39 40 -40 96q1 58 40 96q38 39 96 40q56 -1 96 -40l13 -13v0l11 -11v0l11 11v0l13 13v0q40 39 96 40q58 -1 96 -40q39 -38 40 -96q-1 -56 -40 -96l-24 -24v0l-181 -181v0z" />
    <glyph glyph-name="u1F9E1" unicode="&#x1f90d;" 
d="M256 329l-11 12l11 -12l-11 12l-24 24v0q-36 34 -85 35q-51 -1 -85 -35t-35 -85q1 -49 35 -85l24 -24v0l181 -180v0l181 180v0l24 24v0q34 36 35 85q-1 51 -35 85t-85 35q-49 -1 -84 -35l-25 -24v0l-11 -12v0zM267 -21l-11 -11l11 11l-11 -11l-11 11v0l-181 181v0l-24 24
v0q-39 40 -40 96q1 58 40 96q38 39 96 40q56 -1 96 -40l13 -13v0l11 -11v0l11 11v0l13 13v0q40 39 96 40q58 -1 96 -40q39 -38 40 -96q-1 -56 -40 -96l-24 -24v0l-181 -181v0z" />
    <glyph glyph-name="u1F9E1" unicode="&#x1f5a4;" 
d="M256 329l-11 12l11 -12l-11 12l-24 24v0q-36 34 -85 35q-51 -1 -85 -35t-35 -85q1 -49 35 -85l24 -24v0l181 -180v0l181 180v0l24 24v0q34 36 35 85q-1 51 -35 85t-85 35q-49 -1 -84 -35l-25 -24v0l-11 -12v0zM267 -21l-11 -11l11 11l-11 -11l-11 11v0l-181 181v0l-24 24
v0q-39 40 -40 96q1 58 40 96q38 39 96 40q56 -1 96 -40l13 -13v0l11 -11v0l11 11v0l13 13v0q40 39 96 40q58 -1 96 -40q39 -38 40 -96q-1 -56 -40 -96l-24 -24v0l-181 -181v0z" />
    <glyph glyph-name="u1F9E1" unicode="&#x1f49c;" 
d="M256 329l-11 12l11 -12l-11 12l-24 24v0q-36 34 -85 35q-51 -1 -85 -35t-35 -85q1 -49 35 -85l24 -24v0l181 -180v0l181 180v0l24 24v0q34 36 35 85q-1 51 -35 85t-85 35q-49 -1 -84 -35l-25 -24v0l-11 -12v0zM267 -21l-11 -11l11 11l-11 -11l-11 11v0l-181 181v0l-24 24
v0q-39 40 -40 96q1 58 40 96q38 39 96 40q56 -1 96 -40l13 -13v0l11 -11v0l11 11v0l13 13v0q40 39 96 40q58 -1 96 -40q39 -38 40 -96q-1 -56 -40 -96l-24 -24v0l-181 -181v0z" />
    <glyph glyph-name="u1F9E1" unicode="&#x1f49b;" 
d="M256 329l-11 12l11 -12l-11 12l-24 24v0q-36 34 -85 35q-51 -1 -85 -35t-35 -85q1 -49 35 -85l24 -24v0l181 -180v0l181 180v0l24 24v0q34 36 35 85q-1 51 -35 85t-85 35q-49 -1 -84 -35l-25 -24v0l-11 -12v0zM267 -21l-11 -11l11 11l-11 -11l-11 11v0l-181 181v0l-24 24
v0q-39 40 -40 96q1 58 40 96q38 39 96 40q56 -1 96 -40l13 -13v0l11 -11v0l11 11v0l13 13v0q40 39 96 40q58 -1 96 -40q39 -38 40 -96q-1 -56 -40 -96l-24 -24v0l-181 -181v0z" />
    <glyph glyph-name="u1F9E1" unicode="&#x1f49a;" 
d="M256 329l-11 12l11 -12l-11 12l-24 24v0q-36 34 -85 35q-51 -1 -85 -35t-35 -85q1 -49 35 -85l24 -24v0l181 -180v0l181 180v0l24 24v0q34 36 35 85q-1 51 -35 85t-85 35q-49 -1 -84 -35l-25 -24v0l-11 -12v0zM267 -21l-11 -11l11 11l-11 -11l-11 11v0l-181 181v0l-24 24
v0q-39 40 -40 96q1 58 40 96q38 39 96 40q56 -1 96 -40l13 -13v0l11 -11v0l11 11v0l13 13v0q40 39 96 40q58 -1 96 -40q39 -38 40 -96q-1 -56 -40 -96l-24 -24v0l-181 -181v0z" />
    <glyph glyph-name="u1F9E1" unicode="&#x1f499;" 
d="M256 329l-11 12l11 -12l-11 12l-24 24v0q-36 34 -85 35q-51 -1 -85 -35t-35 -85q1 -49 35 -85l24 -24v0l181 -180v0l181 180v0l24 24v0q34 36 35 85q-1 51 -35 85t-85 35q-49 -1 -84 -35l-25 -24v0l-11 -12v0zM267 -21l-11 -11l11 11l-11 -11l-11 11v0l-181 181v0l-24 24
v0q-39 40 -40 96q1 58 40 96q38 39 96 40q56 -1 96 -40l13 -13v0l11 -11v0l11 11v0l13 13v0q40 39 96 40q58 -1 96 -40q39 -38 40 -96q-1 -56 -40 -96l-24 -24v0l-181 -181v0z" />
    <glyph glyph-name="u1F9E1" unicode="&#xf08a;" 
d="M256 329l-11 12l11 -12l-11 12l-24 24v0q-36 34 -85 35q-51 -1 -85 -35t-35 -85q1 -49 35 -85l24 -24v0l181 -180v0l181 180v0l24 24v0q34 36 35 85q-1 51 -35 85t-85 35q-49 -1 -84 -35l-25 -24v0l-11 -12v0zM267 -21l-11 -11l11 11l-11 -11l-11 11v0l-181 181v0l-24 24
v0q-39 40 -40 96q1 58 40 96q38 39 96 40q56 -1 96 -40l13 -13v0l11 -11v0l11 11v0l13 13v0q40 39 96 40q58 -1 96 -40q39 -38 40 -96q-1 -56 -40 -96l-24 -24v0l-181 -181v0z" />
    <glyph glyph-name="u1F9E1" unicode="&#xf004;" 
d="M256 329l-11 12l11 -12l-11 12l-24 24v0q-36 34 -85 35q-51 -1 -85 -35t-35 -85q1 -49 35 -85l24 -24v0l181 -180v0l181 180v0l24 24v0q34 36 35 85q-1 51 -35 85t-85 35q-49 -1 -84 -35l-25 -24v0l-11 -12v0zM267 -21l-11 -11l11 11l-11 -11l-11 11v0l-181 181v0l-24 24
v0q-39 40 -40 96q1 58 40 96q38 39 96 40q56 -1 96 -40l13 -13v0l11 -11v0l11 11v0l13 13v0q40 39 96 40q58 -1 96 -40q39 -38 40 -96q-1 -56 -40 -96l-24 -24v0l-181 -181v0z" />
    <glyph glyph-name="u1F9E1" unicode="&#x2764;" 
d="M256 329l-11 12l11 -12l-11 12l-24 24v0q-36 34 -85 35q-51 -1 -85 -35t-35 -85q1 -49 35 -85l24 -24v0l181 -180v0l181 180v0l24 24v0q34 36 35 85q-1 51 -35 85t-85 35q-49 -1 -84 -35l-25 -24v0l-11 -12v0zM267 -21l-11 -11l11 11l-11 -11l-11 11v0l-181 181v0l-24 24
v0q-39 40 -40 96q1 58 40 96q38 39 96 40q56 -1 96 -40l13 -13v0l11 -11v0l11 11v0l13 13v0q40 39 96 40q58 -1 96 -40q39 -38 40 -96q-1 -56 -40 -96l-24 -24v0l-181 -181v0z" />
    <glyph glyph-name="u1F9E1" unicode="&#x2665;" 
d="M256 329l-11 12l11 -12l-11 12l-24 24v0q-36 34 -85 35q-51 -1 -85 -35t-35 -85q1 -49 35 -85l24 -24v0l181 -180v0l181 180v0l24 24v0q34 36 35 85q-1 51 -35 85t-85 35q-49 -1 -84 -35l-25 -24v0l-11 -12v0zM267 -21l-11 -11l11 11l-11 -11l-11 11v0l-181 181v0l-24 24
v0q-39 40 -40 96q1 58 40 96q38 39 96 40q56 -1 96 -40l13 -13v0l11 -11v0l11 11v0l13 13v0q40 39 96 40q58 -1 96 -40q39 -38 40 -96q-1 -56 -40 -96l-24 -24v0l-181 -181v0z" />
    <glyph glyph-name="uniF219" unicode="&#xf219;" 
d="M0 192l11 -11l-11 11l11 -11l234 -234v0l11 -11v0l11 11v0l234 234v0l11 11v0l-11 11v0l-234 234v0l-11 11v0l-11 -11v0l-234 -234v0l-11 -11v0zM256 -41l-233 233l233 -233l-233 233l233 233v0l233 -233v0l-233 -233v0z" />
    <glyph glyph-name="uniF219" unicode="&#x2666;" 
d="M0 192l11 -11l-11 11l11 -11l234 -234v0l11 -11v0l11 11v0l234 234v0l11 11v0l-11 11v0l-234 234v0l-11 11v0l-11 -11v0l-234 -234v0l-11 -11v0zM256 -41l-233 233l233 -233l-233 233l233 233v0l233 -233v0l-233 -233v0z" />
    <glyph glyph-name="uniF1B8" unicode="&#xf1b8;" 
d="M219 448h5h-5h74l2 -4v0l104 -175v0l16 77v0l2 7v0l15 -3v0l-1 -8v0l-20 -94v0l-1 -9v0l-9 3v0l-91 30v0l-8 3v0l5 15v0l8 -2v0l68 -23v0l-100 167v0h-54v0l-66 -111v0l-14 8v0l68 115v0l2 4v0zM420 203l13 8l-13 -8l13 8l70 -117v0l2 -4v0l-2 -4v0l-40 -66v0l-2 -4v0h-4
h-212l57 -50v0l6 -5v0l-11 -12v0l-6 5v0l-72 64v0l-7 6v0l7 6v0l72 64v0l6 5v0l11 -12v0l-6 -5v0l-57 -50v0h207v0l35 58v0l-67 113v0zM116 275l-73 -25l73 25l-73 -25l-8 -2v0l-5 15v0l8 2v0l91 31v0l8 2v0l2 -8v0l20 -95v0l1 -8v0l-15 -3v0l-2 8v0l-15 71v0l-103 -173v0
l35 -58v0h116v0v-16v0h-120h-5l-2 4v0l-40 66v0l-2 4v0l2 4v0l107 181v0z" />
    <glyph glyph-name="uniF1B8" unicode="&#x267b;" 
d="M219 448h5h-5h74l2 -4v0l104 -175v0l16 77v0l2 7v0l15 -3v0l-1 -8v0l-20 -94v0l-1 -9v0l-9 3v0l-91 30v0l-8 3v0l5 15v0l8 -2v0l68 -23v0l-100 167v0h-54v0l-66 -111v0l-14 8v0l68 115v0l2 4v0zM420 203l13 8l-13 -8l13 8l70 -117v0l2 -4v0l-2 -4v0l-40 -66v0l-2 -4v0h-4
h-212l57 -50v0l6 -5v0l-11 -12v0l-6 5v0l-72 64v0l-7 6v0l7 6v0l72 64v0l6 5v0l11 -12v0l-6 -5v0l-57 -50v0h207v0l35 58v0l-67 113v0zM116 275l-73 -25l73 25l-73 -25l-8 -2v0l-5 15v0l8 2v0l91 31v0l8 2v0l2 -8v0l20 -95v0l1 -8v0l-15 -3v0l-2 8v0l-15 71v0l-103 -173v0
l35 -58v0h116v0v-16v0h-120h-5l-2 4v0l-40 66v0l-2 4v0l2 4v0l107 181v0z" />
    <glyph glyph-name="uniF1B8" unicode="&#x267a;" 
d="M219 448h5h-5h74l2 -4v0l104 -175v0l16 77v0l2 7v0l15 -3v0l-1 -8v0l-20 -94v0l-1 -9v0l-9 3v0l-91 30v0l-8 3v0l5 15v0l8 -2v0l68 -23v0l-100 167v0h-54v0l-66 -111v0l-14 8v0l68 115v0l2 4v0zM420 203l13 8l-13 -8l13 8l70 -117v0l2 -4v0l-2 -4v0l-40 -66v0l-2 -4v0h-4
h-212l57 -50v0l6 -5v0l-11 -12v0l-6 5v0l-72 64v0l-7 6v0l7 6v0l72 64v0l6 5v0l11 -12v0l-6 -5v0l-57 -50v0h207v0l35 58v0l-67 113v0zM116 275l-73 -25l73 25l-73 -25l-8 -2v0l-5 15v0l8 2v0l91 31v0l8 2v0l2 -8v0l20 -95v0l1 -8v0l-15 -3v0l-2 8v0l-15 71v0l-103 -173v0
l35 -58v0h116v0v-16v0h-120h-5l-2 4v0l-40 66v0l-2 4v0l2 4v0l107 181v0z" />
    <glyph glyph-name="uniF1B8" unicode="&#x2672;" 
d="M219 448h5h-5h74l2 -4v0l104 -175v0l16 77v0l2 7v0l15 -3v0l-1 -8v0l-20 -94v0l-1 -9v0l-9 3v0l-91 30v0l-8 3v0l5 15v0l8 -2v0l68 -23v0l-100 167v0h-54v0l-66 -111v0l-14 8v0l68 115v0l2 4v0zM420 203l13 8l-13 -8l13 8l70 -117v0l2 -4v0l-2 -4v0l-40 -66v0l-2 -4v0h-4
h-212l57 -50v0l6 -5v0l-11 -12v0l-6 5v0l-72 64v0l-7 6v0l7 6v0l72 64v0l6 5v0l11 -12v0l-6 -5v0l-57 -50v0h207v0l35 58v0l-67 113v0zM116 275l-73 -25l73 25l-73 -25l-8 -2v0l-5 15v0l8 2v0l91 31v0l8 2v0l2 -8v0l20 -95v0l1 -8v0l-15 -3v0l-2 8v0l-15 71v0l-103 -173v0
l35 -58v0h116v0v-16v0h-120h-5l-2 4v0l-40 66v0l-2 4v0l2 4v0l107 181v0z" />
    <glyph glyph-name="uniF525" unicode="&#xf525;" horiz-adv-x="448" 
d="M16 400v-416v416v-416h416v0v416v0h-416v0zM0 416h16h-16h448v-16v0v-416v0v-16v0h-16h-432v16v0v416v0v16v0zM240 192q-1 15 -16 16q-15 -1 -16 -16q1 -15 16 -16q15 1 16 16v0zM192 192q0 14 9 23v0v0q9 9 23 9t23 -9t9 -23t-9 -23t-23 -9t-23 9t-9 23v0z" />
    <glyph glyph-name="uniF525" unicode="&#x2680;" horiz-adv-x="448" 
d="M16 400v-416v416v-416h416v0v416v0h-416v0zM0 416h16h-16h448v-16v0v-416v0v-16v0h-16h-432v16v0v416v0v16v0zM240 192q-1 15 -16 16q-15 -1 -16 -16q1 -15 16 -16q15 1 16 16v0zM192 192q0 14 9 23v0v0q9 9 23 9t23 -9t9 -23t-9 -23t-23 -9t-23 9t-9 23v0z" />
    <glyph glyph-name="uniF528" unicode="&#xf528;" horiz-adv-x="448" 
d="M432 400v-416v416v-416h-416v0v416v0h416v0zM16 416h-16h16h-16v-16v0v-416v0v-16v0h16h432v16v0v416v0v16v0h-16h-416zM320 112q15 -1 16 -16q-1 -15 -16 -16q-15 1 -16 16q1 15 16 16v0zM320 64q14 0 23 9v0v0q9 9 9 23t-9 23t-23 9t-23 -9t-9 -23t9 -23t23 -9v0z
M112 288q1 15 16 16q15 -1 16 -16q-1 -15 -16 -16q-15 1 -16 16v0zM160 288q0 14 -9 23v0v0q-9 9 -23 9t-23 -9t-9 -23t9 -23t23 -9t23 9t9 23v0z" />
    <glyph glyph-name="uniF528" unicode="&#x2681;" horiz-adv-x="448" 
d="M432 400v-416v416v-416h-416v0v416v0h416v0zM16 416h-16h16h-16v-16v0v-416v0v-16v0h16h432v16v0v416v0v16v0h-16h-416zM320 112q15 -1 16 -16q-1 -15 -16 -16q-15 1 -16 16q1 15 16 16v0zM320 64q14 0 23 9v0v0q9 9 9 23t-9 23t-23 9t-23 -9t-9 -23t9 -23t23 -9v0z
M112 288q1 15 16 16q15 -1 16 -16q-1 -15 -16 -16q-15 1 -16 16v0zM160 288q0 14 -9 23v0v0q-9 9 -23 9t-23 -9t-9 -23t9 -23t23 -9t23 9t9 23v0z" />
    <glyph glyph-name="uniF527" unicode="&#xf527;" horiz-adv-x="448" 
d="M16 400v-416v416v-416h416v0v416v0h-416v0zM0 416h16h-16h448v-16v0v-416v0v-16v0h-16h-432v16v0v416v0v16v0zM144 288q-1 15 -16 16q-15 -1 -16 -16q1 -15 16 -16q15 1 16 16v0zM96 288q0 14 9 23v0v0q9 9 23 9t23 -9t9 -23t-9 -23t-23 -9t-23 9t-9 23v0zM224 176
q15 1 16 16q-1 15 -16 16q-15 -1 -16 -16q1 -15 16 -16v0zM224 224q14 0 23 -9v0v0q9 -9 9 -23t-9 -23t-23 -9t-23 9t-9 23t9 23t23 9v0zM336 96q-1 15 -16 16q-15 -1 -16 -16q1 -15 16 -16q15 1 16 16v0zM288 96q0 14 9 23v0v0q9 9 23 9t23 -9t9 -23t-9 -23t-23 -9t-23 9
t-9 23v0z" />
    <glyph glyph-name="uniF527" unicode="&#x2682;" horiz-adv-x="448" 
d="M16 400v-416v416v-416h416v0v416v0h-416v0zM0 416h16h-16h448v-16v0v-416v0v-16v0h-16h-432v16v0v416v0v16v0zM144 288q-1 15 -16 16q-15 -1 -16 -16q1 -15 16 -16q15 1 16 16v0zM96 288q0 14 9 23v0v0q9 9 23 9t23 -9t9 -23t-9 -23t-23 -9t-23 9t-9 23v0zM224 176
q15 1 16 16q-1 15 -16 16q-15 -1 -16 -16q1 -15 16 -16v0zM224 224q14 0 23 -9v0v0q9 -9 9 -23t-9 -23t-23 -9t-23 9t-9 23t9 23t23 9v0zM336 96q-1 15 -16 16q-15 -1 -16 -16q1 -15 16 -16q15 1 16 16v0zM288 96q0 14 9 23v0v0q9 9 23 9t23 -9t9 -23t-9 -23t-23 -9t-23 9
t-9 23v0z" />
    <glyph glyph-name="uniF524" unicode="&#xf524;" horiz-adv-x="448" 
d="M432 400v-416v416v-416h-416v0v416v0h416v0zM16 416h-16h16h-16v-16v0v-416v0v-16v0h16h432v16v0v416v0v16v0h-16h-416zM128 304q15 -1 16 -16q-1 -15 -16 -16q-15 1 -16 16q1 15 16 16v0zM128 256q14 0 23 9v0v0q9 9 9 23t-9 23t-23 9t-23 -9t-9 -23t9 -23t23 -9v0z
M112 96q1 15 16 16q15 -1 16 -16q-1 -15 -16 -16q-15 1 -16 16v0zM160 96q0 14 -9 23v0v0q-9 9 -23 9t-23 -9t-9 -23t9 -23t23 -9t23 9t9 23v0zM320 304q15 -1 16 -16q-1 -15 -16 -16q-15 1 -16 16q1 15 16 16v0zM320 256q14 0 23 9v0v0q9 9 9 23t-9 23t-23 9t-23 -9t-9 -23
t9 -23t23 -9v0zM304 96q1 15 16 16q15 -1 16 -16q-1 -15 -16 -16q-15 1 -16 16v0zM352 96q0 14 -9 23v0v0q-9 9 -23 9t-23 -9t-9 -23t9 -23t23 -9t23 9t9 23v0z" />
    <glyph glyph-name="uniF524" unicode="&#x2683;" horiz-adv-x="448" 
d="M432 400v-416v416v-416h-416v0v416v0h416v0zM16 416h-16h16h-16v-16v0v-416v0v-16v0h16h432v16v0v416v0v16v0h-16h-416zM128 304q15 -1 16 -16q-1 -15 -16 -16q-15 1 -16 16q1 15 16 16v0zM128 256q14 0 23 9v0v0q9 9 9 23t-9 23t-23 9t-23 -9t-9 -23t9 -23t23 -9v0z
M112 96q1 15 16 16q15 -1 16 -16q-1 -15 -16 -16q-15 1 -16 16v0zM160 96q0 14 -9 23v0v0q-9 9 -23 9t-23 -9t-9 -23t9 -23t23 -9t23 9t9 23v0zM320 304q15 -1 16 -16q-1 -15 -16 -16q-15 1 -16 16q1 15 16 16v0zM320 256q14 0 23 9v0v0q9 9 9 23t-9 23t-23 9t-23 -9t-9 -23
t9 -23t23 -9v0zM304 96q1 15 16 16q15 -1 16 -16q-1 -15 -16 -16q-15 1 -16 16v0zM352 96q0 14 -9 23v0v0q-9 9 -23 9t-23 -9t-9 -23t9 -23t23 -9t23 9t9 23v0z" />
    <glyph glyph-name="uniF523" unicode="&#xf523;" horiz-adv-x="448" 
d="M16 400v-416v416v-416h416v0v416v0h-416v0zM0 416h16h-16h448v-16v0v-416v0v-16v0h-16h-432v16v0v416v0v16v0zM144 288q-1 15 -16 16q-15 -1 -16 -16q1 -15 16 -16q15 1 16 16v0zM96 288q0 14 9 23v0v0q9 9 23 9t23 -9t9 -23t-9 -23t-23 -9t-23 9t-9 23v0zM128 80
q15 1 16 16q-1 15 -16 16q-15 -1 -16 -16q1 -15 16 -16v0zM128 128q14 0 23 -9v0v0q9 -9 9 -23t-9 -23t-23 -9t-23 9t-9 23t9 23t23 9v0zM240 192q-1 15 -16 16q-15 -1 -16 -16q1 -15 16 -16q15 1 16 16v0zM192 192q0 14 9 23v0v0q9 9 23 9t23 -9t9 -23t-9 -23t-23 -9t-23 9
t-9 23v0zM320 272q15 1 16 16q-1 15 -16 16q-15 -1 -16 -16q1 -15 16 -16v0zM320 320q14 0 23 -9v0v0q9 -9 9 -23t-9 -23t-23 -9t-23 9t-9 23t9 23t23 9v0zM336 96q-1 15 -16 16q-15 -1 -16 -16q1 -15 16 -16q15 1 16 16v0zM288 96q0 14 9 23v0v0q9 9 23 9t23 -9t9 -23
t-9 -23t-23 -9t-23 9t-9 23v0z" />
    <glyph glyph-name="uniF523" unicode="&#x2684;" horiz-adv-x="448" 
d="M16 400v-416v416v-416h416v0v416v0h-416v0zM0 416h16h-16h448v-16v0v-416v0v-16v0h-16h-432v16v0v416v0v16v0zM144 288q-1 15 -16 16q-15 -1 -16 -16q1 -15 16 -16q15 1 16 16v0zM96 288q0 14 9 23v0v0q9 9 23 9t23 -9t9 -23t-9 -23t-23 -9t-23 9t-9 23v0zM128 80
q15 1 16 16q-1 15 -16 16q-15 -1 -16 -16q1 -15 16 -16v0zM128 128q14 0 23 -9v0v0q9 -9 9 -23t-9 -23t-23 -9t-23 9t-9 23t9 23t23 9v0zM240 192q-1 15 -16 16q-15 -1 -16 -16q1 -15 16 -16q15 1 16 16v0zM192 192q0 14 9 23v0v0q9 9 23 9t23 -9t9 -23t-9 -23t-23 -9t-23 9
t-9 23v0zM320 272q15 1 16 16q-1 15 -16 16q-15 -1 -16 -16q1 -15 16 -16v0zM320 320q14 0 23 -9v0v0q9 -9 9 -23t-9 -23t-23 -9t-23 9t-9 23t9 23t23 9v0zM336 96q-1 15 -16 16q-15 -1 -16 -16q1 -15 16 -16q15 1 16 16v0zM288 96q0 14 9 23v0v0q9 9 23 9t23 -9t9 -23
t-9 -23t-23 -9t-23 9t-9 23v0z" />
    <glyph glyph-name="uniF526" unicode="&#xf526;" horiz-adv-x="448" 
d="M432 400v-416v416v-416h-416v0v416v0h416v0zM16 416h-16h16h-16v-16v0v-416v0v-16v0h16h432v16v0v416v0v16v0h-16h-416zM128 304q15 -1 16 -16q-1 -15 -16 -16q-15 1 -16 16q1 15 16 16v0zM128 256q14 0 23 9v0v0q9 9 9 23t-9 23t-23 9t-23 -9t-9 -23t9 -23t23 -9v0z
M112 192q1 15 16 16q15 -1 16 -16q-1 -15 -16 -16q-15 1 -16 16v0zM160 192q0 14 -9 23v0v0q-9 9 -23 9t-23 -9t-9 -23t9 -23t23 -9t23 9t9 23v0zM128 112q15 -1 16 -16q-1 -15 -16 -16q-15 1 -16 16q1 15 16 16v0zM128 64q14 0 23 9v0v0q9 9 9 23t-9 23t-23 9t-23 -9
t-9 -23t9 -23t23 -9v0zM304 288q1 15 16 16q15 -1 16 -16q-1 -15 -16 -16q-15 1 -16 16v0zM352 288q0 14 -9 23v0v0q-9 9 -23 9t-23 -9t-9 -23t9 -23t23 -9t23 9t9 23v0zM320 208q15 -1 16 -16q-1 -15 -16 -16q-15 1 -16 16q1 15 16 16v0zM320 160q14 0 23 9v0v0q9 9 9 23
t-9 23t-23 9t-23 -9t-9 -23t9 -23t23 -9v0zM304 96q1 15 16 16q15 -1 16 -16q-1 -15 -16 -16q-15 1 -16 16v0zM352 96q0 14 -9 23v0v0q-9 9 -23 9t-23 -9t-9 -23t9 -23t23 -9t23 9t9 23v0z" />
    <glyph glyph-name="uniF526" unicode="&#x2685;" horiz-adv-x="448" 
d="M432 400v-416v416v-416h-416v0v416v0h416v0zM16 416h-16h16h-16v-16v0v-416v0v-16v0h16h432v16v0v416v0v16v0h-16h-416zM128 304q15 -1 16 -16q-1 -15 -16 -16q-15 1 -16 16q1 15 16 16v0zM128 256q14 0 23 9v0v0q9 9 9 23t-9 23t-23 9t-23 -9t-9 -23t9 -23t23 -9v0z
M112 192q1 15 16 16q15 -1 16 -16q-1 -15 -16 -16q-15 1 -16 16v0zM160 192q0 14 -9 23v0v0q-9 9 -23 9t-23 -9t-9 -23t9 -23t23 -9t23 9t9 23v0zM128 112q15 -1 16 -16q-1 -15 -16 -16q-15 1 -16 16q1 15 16 16v0zM128 64q14 0 23 9v0v0q9 9 9 23t-9 23t-23 9t-23 -9
t-9 -23t9 -23t23 -9v0zM304 288q1 15 16 16q15 -1 16 -16q-1 -15 -16 -16q-15 1 -16 16v0zM352 288q0 14 -9 23v0v0q-9 9 -23 9t-23 -9t-9 -23t9 -23t23 -9t23 9t9 23v0zM320 208q15 -1 16 -16q-1 -15 -16 -16q-15 1 -16 16q1 15 16 16v0zM320 160q14 0 23 9v0v0q9 9 9 23
t-9 23t-23 9t-23 -9t-9 -23t9 -23t23 -9v0zM304 96q1 15 16 16q15 -1 16 -16q-1 -15 -16 -16q-15 1 -16 16v0zM352 96q0 14 -9 23v0v0q-9 9 -23 9t-23 -9t-9 -23t9 -23t23 -9t23 9t9 23v0z" />
    <glyph glyph-name="uniF13D" unicode="&#xf13d;" horiz-adv-x="576" 
d="M352 368q-1 -36 -32 -55q-32 -18 -64 0q-31 19 -32 55q1 36 32 55q32 18 64 0q31 -19 32 -55v0zM288 448q-34 -1 -57 -23v0v0q-22 -23 -23 -57q1 -32 21 -54t51 -26v0v0v-48v0h-80h-8v-16v0h8h80v-272v0h-192v0v205v0l58 -59v0l12 12v0l-72 72v0l-6 5v0l-6 -5v0v0v0
l-72 -72v0l12 -12v0l58 59v0v-213v0v-8v0h8h424v8v0v213v0l58 -59v0l12 12v0l-72 72v0v0v0l-6 5v0l-6 -5v0l-72 -72v0l12 -12v0l58 59v0v-205v0h-192v0v272v0h80h8v16v0h-8h-80v48v0v0v0q31 4 51 26t21 54q-1 34 -23 57q-23 22 -57 23v0z" />
    <glyph glyph-name="uniF13D" unicode="&#x2693;" horiz-adv-x="576" 
d="M352 368q-1 -36 -32 -55q-32 -18 -64 0q-31 19 -32 55q1 36 32 55q32 18 64 0q31 -19 32 -55v0zM288 448q-34 -1 -57 -23v0v0q-22 -23 -23 -57q1 -32 21 -54t51 -26v0v0v-48v0h-80h-8v-16v0h8h80v-272v0h-192v0v205v0l58 -59v0l12 12v0l-72 72v0l-6 5v0l-6 -5v0v0v0
l-72 -72v0l12 -12v0l58 59v0v-213v0v-8v0h8h424v8v0v213v0l58 -59v0l12 12v0l-72 72v0v0v0l-6 5v0l-6 -5v0l-72 -72v0l12 -12v0l58 59v0v-205v0h-192v0v272v0h80h8v16v0h-8h-80v48v0v0v0q31 4 51 26t21 54q-1 34 -23 57q-23 22 -57 23v0z" />
    <glyph glyph-name="uniF71D" unicode="&#xf71d;" 
d="M282 70l-274 274l274 -274l-274 274l-7 88v0l-1 16v0l16 -1v0l88 -7v0l152 -152v0l11 -11v0l74 -74v0l11 -11v0l26 -26v0l-11 -11v0l-270 269v0l-80 7v0l7 -80v0l269 -270v0l-11 -11v0zM440 171l6 -5l-6 5l6 -5l32 -32v0l4 -4v0l-3 -5v0l-29 -67v0l57 -57v0l5 -6v0l-5 -6
v0l-48 -48v0l-6 -5v0l-6 5v0l-57 57v0l-67 -30v0l-5 -2v0l-4 4v0l-32 32v0l-5 6v0l5 6v0l152 152v0l6 5v0zM463 126l-23 23l23 -23l-23 23l-141 -141v0l23 -23v0l67 30v0l5 2v0l4 -3v0l55 -56v0l37 37v0l-56 55v0l-3 4v0l2 5v0l30 67v0zM106 138l32 31l-32 -31l32 31l11 -11
v0l-32 -32v0l74 -73v0l31 32v0l12 -12v0l-32 -31v0l28 -28v0l6 -6v0l-6 -6v0l-32 -32v0l-4 -4v0l-5 3v0l-67 29v0l-57 -57v0l-6 -5v0l-5 5v0l-48 48v0l-6 6v0l6 6v0l57 57v0l-30 67v0l-2 5v0l4 4v0l32 32v0l5 5v0l6 -5v0l28 -28v0zM504 344l-129 -129l129 129l-129 -129
l-12 11v0l126 125v0l6 80v0l-80 -7v0l-125 -125v0l-11 12v0l129 129v0l88 7v0l16 1v0l-1 -16v0l-7 -88v0zM50 126l30 -67l-30 67l30 -67l2 -5v0l-4 -4v0l-55 -55v0l36 -37v0l55 56v0l4 3v0l5 -2v0l67 -30v0l23 23v0l-141 141v0l-22 -23v0z" />
    <glyph glyph-name="uniF71D" unicode="&#x2694;" 
d="M282 70l-274 274l274 -274l-274 274l-7 88v0l-1 16v0l16 -1v0l88 -7v0l152 -152v0l11 -11v0l74 -74v0l11 -11v0l26 -26v0l-11 -11v0l-270 269v0l-80 7v0l7 -80v0l269 -270v0l-11 -11v0zM440 171l6 -5l-6 5l6 -5l32 -32v0l4 -4v0l-3 -5v0l-29 -67v0l57 -57v0l5 -6v0l-5 -6
v0l-48 -48v0l-6 -5v0l-6 5v0l-57 57v0l-67 -30v0l-5 -2v0l-4 4v0l-32 32v0l-5 6v0l5 6v0l152 152v0l6 5v0zM463 126l-23 23l23 -23l-23 23l-141 -141v0l23 -23v0l67 30v0l5 2v0l4 -3v0l55 -56v0l37 37v0l-56 55v0l-3 4v0l2 5v0l30 67v0zM106 138l32 31l-32 -31l32 31l11 -11
v0l-32 -32v0l74 -73v0l31 32v0l12 -12v0l-32 -31v0l28 -28v0l6 -6v0l-6 -6v0l-32 -32v0l-4 -4v0l-5 3v0l-67 29v0l-57 -57v0l-6 -5v0l-5 5v0l-48 48v0l-6 6v0l6 6v0l57 57v0l-30 67v0l-2 5v0l4 4v0l32 32v0l5 5v0l6 -5v0l28 -28v0zM504 344l-129 -129l129 129l-129 -129
l-12 11v0l126 125v0l6 80v0l-80 -7v0l-125 -125v0l-11 12v0l129 129v0l88 7v0l16 1v0l-1 -16v0l-7 -88v0zM50 126l30 -67l-30 67l30 -67l2 -5v0l-4 -4v0l-55 -55v0l36 -37v0l55 56v0l4 3v0l5 -2v0l67 -30v0l23 23v0l-141 141v0l-22 -23v0z" />
    <glyph glyph-name="uniF24E" unicode="&#xf24e;" horiz-adv-x="640" 
d="M329 320q24 4 40 21v0v0q15 18 16 43h151v0q7 1 8 8q-1 7 -8 8h-153v0q-6 21 -23 34q-17 14 -39 14q-23 0 -40 -14q-17 -13 -22 -34h-155v0q-7 -1 -8 -8q1 -7 8 -8h153v0q0 -25 16 -43q15 -17 40 -21v-368v0h-209v0q-7 -1 -8 -8q1 -7 8 -8h217h216q7 1 8 8q-1 7 -8 8
h-208v0v368v0zM369 384q-1 -27 -24 -42q-24 -12 -48 0q-23 15 -24 42q1 27 24 42q24 12 48 0q23 -15 24 -42v0zM119 335l-119 -190l119 190l-119 -190v-40v0l73 -73v0h110v0l73 73v0v40v0l-118 190v0l-9 15v0l-10 -15v0zM238 144h-220h220h-220l111 176v0l109 -176v0z
M240 128v-16v16v-16l-64 -64v0h-96v0l-64 64v0v16v0h224v0zM503 335l-119 -190l119 190l-119 -190v-40v0l73 -73v0h110v0l73 73v0v40v0l-118 190v0l-9 15v0l-10 -15v0zM622 144h-220h220h-220l111 176v0l109 -176v0zM624 128v-16v16v-16l-64 -64v0h-96v0l-64 64v0v16v0h224
v0z" />
    <glyph glyph-name="uniF24E" unicode="&#x2696;" horiz-adv-x="640" 
d="M329 320q24 4 40 21v0v0q15 18 16 43h151v0q7 1 8 8q-1 7 -8 8h-153v0q-6 21 -23 34q-17 14 -39 14q-23 0 -40 -14q-17 -13 -22 -34h-155v0q-7 -1 -8 -8q1 -7 8 -8h153v0q0 -25 16 -43q15 -17 40 -21v-368v0h-209v0q-7 -1 -8 -8q1 -7 8 -8h217h216q7 1 8 8q-1 7 -8 8
h-208v0v368v0zM369 384q-1 -27 -24 -42q-24 -12 -48 0q-23 15 -24 42q1 27 24 42q24 12 48 0q23 -15 24 -42v0zM119 335l-119 -190l119 190l-119 -190v-40v0l73 -73v0h110v0l73 73v0v40v0l-118 190v0l-9 15v0l-10 -15v0zM238 144h-220h220h-220l111 176v0l109 -176v0z
M240 128v-16v16v-16l-64 -64v0h-96v0l-64 64v0v16v0h224v0zM503 335l-119 -190l119 190l-119 -190v-40v0l73 -73v0h110v0l73 73v0v40v0l-118 190v0l-9 15v0l-10 -15v0zM622 144h-220h220h-220l111 176v0l109 -176v0zM624 128v-16v16v-16l-64 -64v0h-96v0l-64 64v0v16v0h224
v0z" />
    <glyph glyph-name="uniF800" unicode="&#xf800;" 
d="M112 368q1 34 23 57v0v0q23 22 57 23q41 -1 64 -32q23 31 64 32q34 -1 57 -23q22 -23 23 -57q-1 -41 -32 -64q31 -23 32 -64q-1 -34 -23 -57q-23 -22 -57 -23q-34 1 -56 23v-158v0q22 47 64 74q42 28 96 29h72h16v-16v0q-2 -75 -52 -124q-49 -50 -124 -52h-72h-88
q-75 2 -124 52q-50 49 -52 124v16v0h16h72q54 -1 96 -29q42 -27 64 -74v158v0q-22 -22 -56 -23q-34 1 -57 23q-22 23 -23 57q1 41 32 64q-31 23 -32 64v0zM192 432q-27 -1 -45 -19v0v0q-18 -18 -19 -45q2 -39 35 -57l13 -7v0l-13 -7v0q-33 -18 -35 -57q1 -27 19 -45t45 -19
q39 2 57 35l7 13v0l7 -13v0q18 -33 57 -35q27 1 45 19t19 45q-2 39 -35 57l-13 7v0l13 7v0q33 18 35 57q-1 27 -19 45t-45 19q-39 -2 -57 -35l-7 -13v0l-7 13v0q-18 33 -57 35v0zM248 -48q-2 68 -47 113v0v0q-45 45 -113 47h-72v0q2 -68 47 -113t113 -47h72v0zM336 -48
q68 2 113 47v0v0q45 45 47 113h-72v0q-68 -2 -113 -47t-47 -113h72v0zM262 350l40 -40l-40 40l40 -40l5 -6v0l-5 -6v0l-40 -40v0l-6 -5v0l-6 5v0l-40 40v0l-5 6v0l5 6v0l40 40v0l6 5v0l6 -5v0zM256 275l29 29l-29 -29l29 29l-29 29v0l-29 -29v0l29 -29v0z" />
    <glyph glyph-name="uniF800" unicode="&#x2698;" 
d="M112 368q1 34 23 57v0v0q23 22 57 23q41 -1 64 -32q23 31 64 32q34 -1 57 -23q22 -23 23 -57q-1 -41 -32 -64q31 -23 32 -64q-1 -34 -23 -57q-23 -22 -57 -23q-34 1 -56 23v-158v0q22 47 64 74q42 28 96 29h72h16v-16v0q-2 -75 -52 -124q-49 -50 -124 -52h-72h-88
q-75 2 -124 52q-50 49 -52 124v16v0h16h72q54 -1 96 -29q42 -27 64 -74v158v0q-22 -22 -56 -23q-34 1 -57 23q-22 23 -23 57q1 41 32 64q-31 23 -32 64v0zM192 432q-27 -1 -45 -19v0v0q-18 -18 -19 -45q2 -39 35 -57l13 -7v0l-13 -7v0q-33 -18 -35 -57q1 -27 19 -45t45 -19
q39 2 57 35l7 13v0l7 -13v0q18 -33 57 -35q27 1 45 19t19 45q-2 39 -35 57l-13 7v0l13 7v0q33 18 35 57q-1 27 -19 45t-45 19q-39 -2 -57 -35l-7 -13v0l-7 13v0q-18 33 -57 35v0zM248 -48q-2 68 -47 113v0v0q-45 45 -113 47h-72v0q2 -68 47 -113t113 -47h72v0zM336 -48
q68 2 113 47v0v0q45 45 47 113h-72v0q-68 -2 -113 -47t-47 -113h72v0zM262 350l40 -40l-40 40l40 -40l5 -6v0l-5 -6v0l-40 -40v0l-6 -5v0l-6 5v0l-40 40v0l-5 6v0l5 6v0l40 40v0l6 5v0l6 -5v0zM256 275l29 29l-29 -29l29 29l-29 29v0l-29 -29v0l29 -29v0z" />
    <glyph glyph-name="uniF013" unicode="&#xf013;" 
d="M189 355l8 3l-8 -3l8 3l1 8v0l15 66v0h86v0l14 -66v0l2 -8v0l8 -3v0q22 -9 40 -24l7 -5v0l8 3v0l64 20v0l43 -74v0l-50 -46v0l-6 -5v0l1 -9v0q2 -11 2 -23t-2 -23l-1 -8v0l6 -6v0l50 -45v0l-43 -75v0l-64 20v0l-8 3v0l-7 -6v0q-18 -14 -40 -23l-8 -3v0l-1 -8v0l-15 -66v0
h-86v0l-14 66v0l-2 8v0l-8 3v0q-22 9 -40 23l-7 6v0l-8 -3v0l-64 -20v0l-43 74v0l50 46v0l6 5v0l-1 9v0q-2 11 -2 23t2 23l1 8v0l-6 6v0l-50 46v0l43 74v0l64 -20v0l8 -3v0l7 5v0q18 15 40 24v0zM312 448h-112h112h-112l-17 -78v0q-24 -10 -44 -26l-77 24v0l-56 -97v0
l60 -54v0q-2 -12 -2 -25t2 -25l-60 -55v0l56 -97v0l77 25v0q20 -16 44 -26l17 -78v0h112v0l17 78v0q24 10 44 26l77 -25v0l56 97v0l-60 54v0q2 13 2 26t-2 25l60 54v0l-56 97v0l-77 -24v0q-20 16 -44 26l-17 78v0zM192 192q1 36 32 55q32 18 64 0q31 -19 32 -55
q-1 -36 -32 -55q-32 -18 -64 0q-31 19 -32 55v0zM336 192q-1 45 -40 69q-40 22 -80 0q-39 -24 -40 -69q1 -45 40 -69q40 -22 80 0q39 24 40 69v0z" />
    <glyph glyph-name="uniF013" unicode="&#x2699;" 
d="M189 355l8 3l-8 -3l8 3l1 8v0l15 66v0h86v0l14 -66v0l2 -8v0l8 -3v0q22 -9 40 -24l7 -5v0l8 3v0l64 20v0l43 -74v0l-50 -46v0l-6 -5v0l1 -9v0q2 -11 2 -23t-2 -23l-1 -8v0l6 -6v0l50 -45v0l-43 -75v0l-64 20v0l-8 3v0l-7 -6v0q-18 -14 -40 -23l-8 -3v0l-1 -8v0l-15 -66v0
h-86v0l-14 66v0l-2 8v0l-8 3v0q-22 9 -40 23l-7 6v0l-8 -3v0l-64 -20v0l-43 74v0l50 46v0l6 5v0l-1 9v0q-2 11 -2 23t2 23l1 8v0l-6 6v0l-50 46v0l43 74v0l64 -20v0l8 -3v0l7 5v0q18 15 40 24v0zM312 448h-112h112h-112l-17 -78v0q-24 -10 -44 -26l-77 24v0l-56 -97v0
l60 -54v0q-2 -12 -2 -25t2 -25l-60 -55v0l56 -97v0l77 25v0q20 -16 44 -26l17 -78v0h112v0l17 78v0q24 10 44 26l77 -25v0l56 97v0l-60 54v0q2 13 2 26t-2 25l60 54v0l-56 97v0l-77 -24v0q-20 16 -44 26l-17 78v0zM192 192q1 36 32 55q32 18 64 0q31 -19 32 -55
q-1 -36 -32 -55q-32 -18 -64 0q-31 19 -32 55v0zM336 192q-1 45 -40 69q-40 22 -80 0q-39 -24 -40 -69q1 -45 40 -69q40 -22 80 0q39 24 40 69v0z" />
    <glyph glyph-name="uniF5D2" unicode="&#xf5d2;" 
d="M338 23q-39 7 -82 26q-43 -19 -82 -26q1 -2 3 -5q32 -66 79 -66t80 66q0 1 1 2q0 2 1 3v0zM256 -64q-32 0 -57 23v0v0q-25 22 -41 62q-82 -10 -116 43q-15 28 -8 61t32 67q-25 34 -32 67t8 61q34 53 116 43q16 40 41 62q25 23 57 23t57 -23q25 -22 41 -62q82 10 116 -43
q15 -28 8 -61t-32 -67q25 -34 32 -67t-8 -61q-34 -53 -116 -43q-16 -40 -41 -62q-25 -23 -57 -23v0zM236 58q-21 10 -42 23q-23 14 -44 30q6 -41 18 -73q32 6 68 20v0zM344 38q12 32 18 73q-21 -16 -44 -30q-21 -12 -42 -23q36 -14 68 -19v-1zM310 95q30 18 55 38q3 28 3 59
t-3 59q-25 20 -55 38q-28 16 -54 28q-26 -12 -53 -28q-30 -18 -56 -38q-3 -28 -3 -59t3 -59q26 -20 56 -38q27 -16 53 -28q26 12 54 28v0zM361 36h2q70 -5 93 36t-17 102q0 1 -1 2t-2 3q-23 -28 -56 -54q-6 -49 -19 -89v0zM382 147q26 22 44 45q-18 23 -44 45q2 -22 2 -45
t-2 -45v0zM439 210q40 61 17 102t-93 36h-3q14 -40 20 -89q33 -26 56 -54q1 1 1 3l2 2v0zM336 366q-33 66 -80 66t-79 -66q-1 -1 -2 -3q0 -1 -1 -2q39 -7 82 -26q43 19 82 26q-1 2 -2 5v0zM344 346q-32 -6 -68 -20q20 -11 42 -23q23 -14 44 -30q-6 41 -18 73v0zM168 346
q-12 -32 -18 -73q21 16 44 30q21 12 42 23q-36 14 -68 19v1zM152 348h-3q-70 5 -93 -36q-22 -41 17 -102q1 -1 1 -2q1 -1 2 -3q23 28 56 54q6 49 20 89v0zM132 125q-33 26 -56 54q-1 -3 -3 -5q-40 -61 -17 -102t93 -36h3q-14 39 -20 88v1zM130 237q-26 -22 -44 -45
q18 -23 44 -45q-2 22 -2 45t2 45v0zM213 203l32 32l-32 -32l32 32l11 12v0l11 -12v0l32 -32v0l12 -11v0l-12 -11v0l-32 -32v0l-11 -12v0l-11 12v0l-32 32v0l-12 11v0l12 11v0zM256 160l11 11l-11 -11l11 11l10 10v0l11 11v0l-11 11v0l-10 10v0l-11 11v0l-11 -11v0l-10 -10v0
l-11 -11v0l11 -11v0l10 -10v0l11 -11v0z" />
    <glyph glyph-name="uniF5D2" unicode="&#x269b;" 
d="M338 23q-39 7 -82 26q-43 -19 -82 -26q1 -2 3 -5q32 -66 79 -66t80 66q0 1 1 2q0 2 1 3v0zM256 -64q-32 0 -57 23v0v0q-25 22 -41 62q-82 -10 -116 43q-15 28 -8 61t32 67q-25 34 -32 67t8 61q34 53 116 43q16 40 41 62q25 23 57 23t57 -23q25 -22 41 -62q82 10 116 -43
q15 -28 8 -61t-32 -67q25 -34 32 -67t-8 -61q-34 -53 -116 -43q-16 -40 -41 -62q-25 -23 -57 -23v0zM236 58q-21 10 -42 23q-23 14 -44 30q6 -41 18 -73q32 6 68 20v0zM344 38q12 32 18 73q-21 -16 -44 -30q-21 -12 -42 -23q36 -14 68 -19v-1zM310 95q30 18 55 38q3 28 3 59
t-3 59q-25 20 -55 38q-28 16 -54 28q-26 -12 -53 -28q-30 -18 -56 -38q-3 -28 -3 -59t3 -59q26 -20 56 -38q27 -16 53 -28q26 12 54 28v0zM361 36h2q70 -5 93 36t-17 102q0 1 -1 2t-2 3q-23 -28 -56 -54q-6 -49 -19 -89v0zM382 147q26 22 44 45q-18 23 -44 45q2 -22 2 -45
t-2 -45v0zM439 210q40 61 17 102t-93 36h-3q14 -40 20 -89q33 -26 56 -54q1 1 1 3l2 2v0zM336 366q-33 66 -80 66t-79 -66q-1 -1 -2 -3q0 -1 -1 -2q39 -7 82 -26q43 19 82 26q-1 2 -2 5v0zM344 346q-32 -6 -68 -20q20 -11 42 -23q23 -14 44 -30q-6 41 -18 73v0zM168 346
q-12 -32 -18 -73q21 16 44 30q21 12 42 23q-36 14 -68 19v1zM152 348h-3q-70 5 -93 -36q-22 -41 17 -102q1 -1 1 -2q1 -1 2 -3q23 28 56 54q6 49 20 89v0zM132 125q-33 26 -56 54q-1 -3 -3 -5q-40 -61 -17 -102t93 -36h3q-14 39 -20 88v1zM130 237q-26 -22 -44 -45
q18 -23 44 -45q-2 22 -2 45t2 45v0zM213 203l32 32l-32 -32l32 32l11 12v0l11 -12v0l32 -32v0l12 -11v0l-12 -11v0l-32 -32v0l-11 -12v0l-11 12v0l-32 32v0l-12 11v0l12 11v0zM256 160l11 11l-11 -11l11 11l10 10v0l11 11v0l-11 11v0l-10 10v0l-11 11v0l-11 -11v0l-10 -10v0
l-11 -11v0l11 -11v0l10 -10v0l11 -11v0z" />
    <glyph glyph-name="uniF071" unicode="&#xf071;" 
d="M9 -16l-9 -16l9 16l-9 -16h18h494l-9 16v0l-238 416v0l-9 16v0l-9 -16v0l-238 -416v0zM484 -16h-456h456h-456l228 400v0l228 -400v0zM264 272h-16h16h-16v-8v0v-160v0v-8v0h16v0v8v0v160v0v8v0zM240 32h32h-32h32v32v0h-32v0v-32v0z" />
    <glyph glyph-name="uniF071" unicode="&#x26a0;" 
d="M9 -16l-9 -16l9 16l-9 -16h18h494l-9 16v0l-238 416v0l-9 16v0l-9 -16v0l-238 -416v0zM484 -16h-456h456h-456l228 400v0l228 -400v0zM264 272h-16h16h-16v-8v0v-160v0v-8v0h16v0v8v0v160v0v8v0zM240 32h32h-32h32v32v0h-32v0v-32v0z" />
    <glyph glyph-name="uniF0E7" unicode="&#xf0e7;" horiz-adv-x="448" 
d="M291 244l53 178l-53 -178l53 178l8 26v0l-21 -16v0l-299 -224v0v-48v0l113 -4v0l16 -1v0l-4 -15v0l-53 -178v0l-8 -26v0l22 16v0l298 224v0v48v0l-113 4v0h-16v0l5 16h-1zM400 208v-24v24v-24l-275 -206v0l52 173v0l6 20v0h-21v0l-114 4v0v25v0l275 206v0l-52 -173v0
l-5 -20v0l20 -1v0l114 -4v0z" />
    <glyph glyph-name="uniF0E7" unicode="&#x26a1;" horiz-adv-x="448" 
d="M291 244l53 178l-53 -178l53 178l8 26v0l-21 -16v0l-299 -224v0v-48v0l113 -4v0l16 -1v0l-4 -15v0l-53 -178v0l-8 -26v0l22 16v0l298 224v0v48v0l-113 4v0h-16v0l5 16h-1zM400 208v-24v24v-24l-275 -206v0l52 173v0l6 20v0h-21v0l-114 4v0v25v0l275 206v0l-52 -173v0
l-5 -20v0l20 -1v0l114 -4v0z" />
    <glyph glyph-name="uniF226" unicode="&#xf226;" horiz-adv-x="640" 
d="M192 112q43 0 80 21v0v0q37 22 59 59q21 38 21 80t-21 80q-22 37 -59 59q-37 21 -80 21t-80 -21q-37 -22 -59 -59q-21 -38 -21 -80t21 -80q22 -37 59 -59q37 -21 80 -21v0zM368 272q-2 -73 -49 -122v0v0q-47 -49 -119 -54v-64v0h80h8v-16v0h-8h-80v-72v0v-8v0h-16v0v8v0
v72v0h-80h-8v16v0h8h80v64v0q-72 5 -119 54t-49 122q2 75 52 124q49 50 124 52q75 -2 124 -52q50 -49 52 -124v0zM355 142q40 -29 93 -30q68 2 113 47t47 113q-2 68 -47 113t-113 47q-53 -1 -93 -30q-6 6 -11 12q45 33 104 34q75 -2 124 -52q50 -49 52 -124q-2 -73 -49 -122
t-119 -54v-64v0h80h8v-16v0h-8h-80v-72v0v-8v0h-16v0v8v0v72v0h-80h-8v16v0h8h80v64v0q-55 3 -96 34q6 6 11 12v0z" />
    <glyph glyph-name="uniF226" unicode="&#x26a2;" horiz-adv-x="640" 
d="M192 112q43 0 80 21v0v0q37 22 59 59q21 38 21 80t-21 80q-22 37 -59 59q-37 21 -80 21t-80 -21q-37 -22 -59 -59q-21 -38 -21 -80t21 -80q22 -37 59 -59q37 -21 80 -21v0zM368 272q-2 -73 -49 -122v0v0q-47 -49 -119 -54v-64v0h80h8v-16v0h-8h-80v-72v0v-8v0h-16v0v8v0
v72v0h-80h-8v16v0h8h80v64v0q-72 5 -119 54t-49 122q2 75 52 124q49 50 124 52q75 -2 124 -52q50 -49 52 -124v0zM355 142q40 -29 93 -30q68 2 113 47t47 113q-2 68 -47 113t-113 47q-53 -1 -93 -30q-6 6 -11 12q45 33 104 34q75 -2 124 -52q50 -49 52 -124q-2 -73 -49 -122
t-119 -54v-64v0h80h8v-16v0h-8h-80v-72v0v-8v0h-16v0v8v0v72v0h-80h-8v16v0h8h80v64v0q-55 3 -96 34q6 6 11 12v0z" />
    <glyph glyph-name="uniF227" unicode="&#xf227;" horiz-adv-x="640" 
d="M640 416v-8v8v-8v-144v0v-8v0h-16v0v8v0v125v0l-126 -126v0q47 -55 46 -123t-51 -120q-38 -37 -86 -48q-47 -10 -94 5l14 12q41 -10 81 0q41 11 73 42q47 49 47 113t-47 113l-5 6v0l5 6v0l132 131v0h-125h-8v16v0h8h152zM288 416h8h-8h160v-8v0v-144v0v-8v0h-16v0v8v0
v125v0l-126 -126v0q44 -49 46 -119q-2 -75 -52 -124q-49 -50 -124 -52q-75 2 -124 52q-50 49 -52 124q2 75 52 124q49 50 124 52q70 -2 119 -46l126 126v0h-125h-8v16v0zM176 -16q43 0 80 21v0v0q37 22 59 59q21 38 21 80t-21 80q-22 37 -59 59q-37 21 -80 21t-80 -21
q-37 -22 -59 -59q-21 -38 -21 -80t21 -80q22 -37 59 -59q37 -21 80 -21v0z" />
    <glyph glyph-name="uniF227" unicode="&#x26a3;" horiz-adv-x="640" 
d="M640 416v-8v8v-8v-144v0v-8v0h-16v0v8v0v125v0l-126 -126v0q47 -55 46 -123t-51 -120q-38 -37 -86 -48q-47 -10 -94 5l14 12q41 -10 81 0q41 11 73 42q47 49 47 113t-47 113l-5 6v0l5 6v0l132 131v0h-125h-8v16v0h8h152zM288 416h8h-8h160v-8v0v-144v0v-8v0h-16v0v8v0
v125v0l-126 -126v0q44 -49 46 -119q-2 -75 -52 -124q-49 -50 -124 -52q-75 2 -124 52q-50 49 -52 124q2 75 52 124q49 50 124 52q70 -2 119 -46l126 126v0h-125h-8v16v0zM176 -16q43 0 80 21v0v0q37 22 59 59q21 38 21 80t-21 80q-22 37 -59 59q-37 21 -80 21t-80 -21
q-37 -22 -59 -59q-21 -38 -21 -80t21 -80q22 -37 59 -59q37 -21 80 -21v0z" />
    <glyph glyph-name="uniF228" unicode="&#xf228;" horiz-adv-x="640" 
d="M176 112q43 0 80 21v0v0q37 22 59 59q21 38 21 80t-21 80q-22 37 -59 59q-37 21 -80 21t-80 -21q-37 -22 -59 -59q-21 -38 -21 -80t21 -80q22 -37 59 -59q37 -21 80 -21v0zM352 272q-2 -73 -49 -122v0v0q-47 -49 -119 -54v-64v0h80h8v-16v0h-8h-80v-72v0v-8v0h-16v0v8v0
v72v0h-80h-8v16v0h8h80v64v0q-72 5 -119 54t-49 122q2 75 52 124q49 50 124 52q75 -2 124 -52q50 -49 52 -124v0zM286 95q45 -45 114 -47q68 2 113 47t47 113q-2 68 -47 113t-113 47q-19 0 -37 -4l-8 14q22 6 45 6q70 -2 119 -46l94 94v0h-125h-8v16v0h8h152v-8v0v-144v0v-8
v0h-16v0v8v0v125v0l-94 -94v0q44 -49 46 -119q-2 -75 -52 -124q-49 -50 -124 -52q-78 2 -128 55q7 4 14 9v-1z" />
    <glyph glyph-name="uniF228" unicode="&#x26a4;" horiz-adv-x="640" 
d="M176 112q43 0 80 21v0v0q37 22 59 59q21 38 21 80t-21 80q-22 37 -59 59q-37 21 -80 21t-80 -21q-37 -22 -59 -59q-21 -38 -21 -80t21 -80q22 -37 59 -59q37 -21 80 -21v0zM352 272q-2 -73 -49 -122v0v0q-47 -49 -119 -54v-64v0h80h8v-16v0h-8h-80v-72v0v-8v0h-16v0v8v0
v72v0h-80h-8v16v0h8h80v64v0q-72 5 -119 54t-49 122q2 75 52 124q49 50 124 52q75 -2 124 -52q50 -49 52 -124v0zM286 95q45 -45 114 -47q68 2 113 47t47 113q-2 68 -47 113t-113 47q-19 0 -37 -4l-8 14q22 6 45 6q70 -2 119 -46l94 94v0h-125h-8v16v0h8h152v-8v0v-144v0v-8
v0h-16v0v8v0v125v0l-94 -94v0q44 -49 46 -119q-2 -75 -52 -124q-49 -50 -124 -52q-78 2 -128 55q7 4 14 9v-1z" />
    <glyph glyph-name="uniF224" unicode="&#xf224;" 
d="M376 448h-8h8h-8v-16v0h8h93l-97 -97v0q-46 47 -116 49q-68 -2 -113 -47t-47 -113q2 -66 44 -110q43 -45 108 -50v-48v0h-48h-8v-16v0h8h48v-56v0v-8v0h16v0v8v0v56v0h48h8v16v0h-8h-48v48v0q65 5 108 50q42 44 44 110q-1 57 -34 99l98 98v0v-93v0v-8v0h16v0v8v0v112v0v8
v0h-8h-112zM256 368q39 0 72 -19v0v0q33 -19 53 -53q19 -34 19 -72t-19 -72q-20 -34 -53 -53t-72 -19t-72 19t-53 53q-19 34 -19 72t19 72q20 34 53 53t72 19v0z" />
    <glyph glyph-name="uniF224" unicode="&#x26a5;" 
d="M376 448h-8h8h-8v-16v0h8h93l-97 -97v0q-46 47 -116 49q-68 -2 -113 -47t-47 -113q2 -66 44 -110q43 -45 108 -50v-48v0h-48h-8v-16v0h8h48v-56v0v-8v0h16v0v8v0v56v0h48h8v16v0h-8h-48v48v0q65 5 108 50q42 44 44 110q-1 57 -34 99l98 98v0v-93v0v-8v0h16v0v8v0v112v0v8
v0h-8h-112zM256 368q39 0 72 -19v0v0q33 -19 53 -53q19 -34 19 -72t-19 -72q-20 -34 -53 -53t-72 -19t-72 19t-53 53q-19 34 -19 72t19 72q20 34 53 53t72 19v0z" />
    <glyph glyph-name="uniF229" unicode="&#xf229;" 
d="M376 448h-8h8h-8v-16v0h8h109l-93 -93v0l-42 43v0l-6 5v0l-11 -11v0l5 -6v0l43 -42v0l-51 -50v0l-3 -4v0q-49 44 -119 46q-75 -2 -124 -52q-50 -49 -52 -124q2 -75 52 -124q49 -50 124 -52q75 2 124 52q50 49 52 124q-2 70 -46 119l4 3v0l50 51v0l42 -43v0l6 -5v0l11 11
v0l-5 6v0l-43 42v0l93 93v0v-109v0v-8v0h16v0v8v0v128v0v8v0h-8h-128zM48 144q0 43 21 80v0v0q22 37 59 59q38 21 80 21t80 -21q37 -22 59 -59q21 -37 21 -80t-21 -80q-22 -37 -59 -59q-38 -21 -80 -21t-80 21q-37 22 -59 59q-21 37 -21 80v0z" />
    <glyph glyph-name="uniF229" unicode="&#x26a6;" 
d="M376 448h-8h8h-8v-16v0h8h109l-93 -93v0l-42 43v0l-6 5v0l-11 -11v0l5 -6v0l43 -42v0l-51 -50v0l-3 -4v0q-49 44 -119 46q-75 -2 -124 -52q-50 -49 -52 -124q2 -75 52 -124q49 -50 124 -52q75 2 124 52q50 49 52 124q-2 70 -46 119l4 3v0l50 51v0l42 -43v0l6 -5v0l11 11
v0l-5 6v0l-43 42v0l93 93v0v-109v0v-8v0h16v0v8v0v128v0v8v0h-8h-128zM48 144q0 43 21 80v0v0q22 37 59 59q38 21 80 21t80 -21q37 -22 59 -59q21 -37 21 -80t-21 -80q-22 -37 -59 -59q-38 -21 -80 -21t-80 21q-37 22 -59 59q-21 37 -21 80v0z" />
    <glyph glyph-name="uniF225" unicode="&#xf225;" 
d="M144 448h-8h8h-128v-8v0v-112v0v-8v0h16v0v8v0v93v0l61 -61v0l-19 -18v0l-5 -6v0l11 -11v0l6 5v0l18 19v0l26 -26v0q-33 -42 -34 -99q2 -66 44 -110q43 -45 108 -50v-48v0h-48h-8v-16v0h8h48v-56v0v-8v0h16v0v8v0v56v0h48h8v16v0h-8h-48v48v0q65 5 108 50q42 44 44 110
q-1 57 -34 99l98 98v0v-93v0v-8v0h16v0v8v0v112v0v8v0h-8h-120v-16v0h8h93l-97 -97v0q-46 47 -116 49q-70 -2 -115 -49l-26 25v0l19 18v0l5 6v0l-11 11v0l-6 -5v0l-18 -19v0l-61 61v0h93h8v16v0zM256 368q39 0 72 -19v0v0q33 -19 53 -53q19 -34 19 -72t-19 -72
q-20 -34 -53 -53t-72 -19t-72 19t-53 53q-19 34 -19 72t19 72q20 34 53 53t72 19v0z" />
    <glyph glyph-name="uniF225" unicode="&#x26a7;" 
d="M144 448h-8h8h-128v-8v0v-112v0v-8v0h16v0v8v0v93v0l61 -61v0l-19 -18v0l-5 -6v0l11 -11v0l6 5v0l18 19v0l26 -26v0q-33 -42 -34 -99q2 -66 44 -110q43 -45 108 -50v-48v0h-48h-8v-16v0h8h48v-56v0v-8v0h16v0v8v0v56v0h48h8v16v0h-8h-48v48v0q65 5 108 50q42 44 44 110
q-1 57 -34 99l98 98v0v-93v0v-8v0h16v0v8v0v112v0v8v0h-8h-120v-16v0h8h93l-97 -97v0q-46 47 -116 49q-70 -2 -115 -49l-26 25v0l19 18v0l5 6v0l-11 11v0l-6 -5v0l-18 -19v0l-61 61v0h93h8v16v0zM256 368q39 0 72 -19v0v0q33 -19 53 -53q19 -34 19 -72t-19 -72
q-20 -34 -53 -53t-72 -19t-72 19t-53 53q-19 34 -19 72t19 72q20 34 53 53t72 19v0z" />
    <glyph glyph-name="uniF22A" unicode="&#xf22a;" horiz-adv-x="320" 
d="M166 438l-6 5l6 -5l-6 5l-6 -5v0l-64 -64v0l-5 -6v0l11 -11v0l6 5v0l50 51v0v-93v0h-56h-8v-16v0h8h56v-48v0q-65 -5 -108 -50q-42 -44 -44 -110q2 -68 47 -113t113 -47q68 2 113 47t47 113q-2 66 -44 110q-43 45 -108 50v48v0h56h8v16v0h-8h-56v93v0l50 -51v0l6 -5v0
l11 11v0l-5 6v0l-64 64v0zM160 -48q-39 0 -72 19v0v0q-33 19 -53 53q-19 34 -19 72t19 72q20 34 53 53t72 19t72 -19t53 -53q19 -34 19 -72t-19 -72q-20 -34 -53 -53t-72 -19v0z" />
    <glyph glyph-name="uniF22A" unicode="&#x26a8;" horiz-adv-x="320" 
d="M166 438l-6 5l6 -5l-6 5l-6 -5v0l-64 -64v0l-5 -6v0l11 -11v0l6 5v0l50 51v0v-93v0h-56h-8v-16v0h8h56v-48v0q-65 -5 -108 -50q-42 -44 -44 -110q2 -68 47 -113t113 -47q68 2 113 47t47 113q-2 66 -44 110q-43 45 -108 50v48v0h56h8v16v0h-8h-56v93v0l50 -51v0l6 -5v0
l11 11v0l-5 6v0l-64 64v0zM160 -48q-39 0 -72 19v0v0q-33 19 -53 53q-19 34 -19 72t19 72q20 34 53 53t72 19t72 -19t53 -53q19 -34 19 -72t-19 -72q-20 -34 -53 -53t-72 -19v0z" />
    <glyph glyph-name="uniF22B" unicode="&#xf22b;" horiz-adv-x="640" 
d="M48 192q0 43 21 80v0v0q22 37 59 59q38 21 80 21t80 -21q37 -22 59 -59q21 -37 21 -80t-21 -80q-22 -37 -59 -59q-38 -21 -80 -21t-80 21q-37 22 -59 59q-21 37 -21 80v0zM384 200q-5 72 -54 119v0v0q-49 47 -122 49q-75 -2 -124 -52q-50 -49 -52 -124q2 -75 52 -124
q49 -50 124 -52q73 2 122 49t54 119h64v0v-56v0v-8v0h16v0v8v0v56v0h109v0l-75 -74v0l-5 -6v0l11 -11v0l6 5v0l88 88v0l5 6v0l-5 6v0l-88 88v0l-6 6v0l-11 -12v0l5 -6v0l75 -74v0h-109v0v56v0v8v0h-16v0v-8v0v-56v0h-64v0z" />
    <glyph glyph-name="uniF22B" unicode="&#x26a9;" horiz-adv-x="640" 
d="M48 192q0 43 21 80v0v0q22 37 59 59q38 21 80 21t80 -21q37 -22 59 -59q21 -37 21 -80t-21 -80q-22 -37 -59 -59q-38 -21 -80 -21t-80 21q-37 22 -59 59q-21 37 -21 80v0zM384 200q-5 72 -54 119v0v0q-49 47 -122 49q-75 -2 -124 -52q-50 -49 -52 -124q2 -75 52 -124
q49 -50 124 -52q73 2 122 49t54 119h64v0v-56v0v-8v0h16v0v8v0v56v0h109v0l-75 -74v0l-5 -6v0l11 -11v0l6 5v0l88 88v0l5 6v0l-5 6v0l-88 88v0l-6 6v0l-11 -12v0l5 -6v0l75 -74v0h-109v0v56v0v8v0h-16v0v-8v0v-56v0h-64v0z" />
    <glyph glyph-name="uniF6C6" unicode="&#xf6c6;" horiz-adv-x="384" 
d="M116 -48h152h-152h152l98 349v0l-102 131v0h-144v0l-102 -131v0l98 -349v0zM280 -64h-176h176h-176l-104 368v0l112 144v0h160v0l112 -144v0l-104 -368v0z" />
    <glyph glyph-name="uniF6C6" unicode="&#x26b0;" horiz-adv-x="384" 
d="M116 -48h152h-152h152l98 349v0l-102 131v0h-144v0l-102 -131v0l98 -349v0zM280 -64h-176h176h-176l-104 368v0l112 144v0h160v0l112 -144v0l-104 -368v0z" />
    <glyph glyph-name="uniF22C" unicode="&#xf22c;" horiz-adv-x="384" 
d="M32 272q0 43 21 80v0v0q22 37 59 59q38 21 80 21t80 -21q37 -22 59 -59q21 -37 21 -80t-21 -80q-22 -37 -59 -59q-38 -21 -80 -21t-80 21q-37 22 -59 59q-21 37 -21 80v0zM200 96q72 5 119 54v0v0q47 49 49 122q-2 75 -52 124q-49 50 -124 52q-75 -2 -124 -52
q-50 -49 -52 -124q2 -73 49 -122t119 -54v-152v0v-8v0h16v0v8v0v152v0z" />
    <glyph glyph-name="uniF22C" unicode="&#x26b2;" horiz-adv-x="384" 
d="M32 272q0 43 21 80v0v0q22 37 59 59q38 21 80 21t80 -21q37 -22 59 -59q21 -37 21 -80t-21 -80q-22 -37 -59 -59q-38 -21 -80 -21t-80 21q-37 22 -59 59q-21 37 -21 80v0zM200 96q72 5 119 54v0v0q47 49 49 122q-2 75 -52 124q-49 50 -124 52q-75 -2 -124 -52
q-50 -49 -52 -124q2 -73 49 -122t119 -54v-152v0v-8v0h16v0v8v0v152v0z" />
    <glyph glyph-name="uniF1E3" unicode="&#xf1e3;" 
d="M308 -42l31 106l-31 -106l31 106l-31 43v0l-3 4v0h-98v0l-3 -4v0l-31 -43v0l31 -106v0q25 -6 52 -6t52 6v0zM326 -38q80 26 127 93l-99 2v0l-28 -95v0zM463 70q26 45 32 99l-91 63v0l-51 -17v0l-4 -1v0l-31 -94v0l3 -3v0l31 -44v0l111 -3v0zM496 187v3v0v0v2
q-1 83 -49 145l-32 -94v0l81 -56v0zM436 351q-35 39 -84 61l-88 -67v0v-54v0v-4v0l80 -58v0l4 1v0l51 17v0l37 104v0zM335 419q-37 13 -79 13t-79 -13l79 -60v0l79 60v0zM160 412q-49 -22 -83 -61l36 -104v0l51 -17v0l4 -1v0l80 58v0v4v0v54v0l-88 67v0zM65 337
q-48 -62 -49 -145v-2v-3l81 56v0l-32 94v0zM17 169q6 -54 32 -99l111 3v0l31 44v0l3 3v0l-31 94v0l-4 1v0l-51 17v0l-91 -63v0zM59 55q48 -67 127 -93l-28 95v0l-99 -2v0zM0 192q1 70 34 128v0v0q34 58 94 94q61 34 128 34t128 -34q60 -36 94 -94q33 -58 34 -128
q-1 -70 -34 -128q-34 -58 -94 -94q-61 -34 -128 -34t-128 34q-60 36 -94 94q-33 58 -34 128v0zM209 127h95h-95h95l29 90v0l-77 56v0l-77 -56v0l30 -90v0z" />
    <glyph glyph-name="uniF1E3" unicode="&#x26bd;" 
d="M308 -42l31 106l-31 -106l31 106l-31 43v0l-3 4v0h-98v0l-3 -4v0l-31 -43v0l31 -106v0q25 -6 52 -6t52 6v0zM326 -38q80 26 127 93l-99 2v0l-28 -95v0zM463 70q26 45 32 99l-91 63v0l-51 -17v0l-4 -1v0l-31 -94v0l3 -3v0l31 -44v0l111 -3v0zM496 187v3v0v0v2
q-1 83 -49 145l-32 -94v0l81 -56v0zM436 351q-35 39 -84 61l-88 -67v0v-54v0v-4v0l80 -58v0l4 1v0l51 17v0l37 104v0zM335 419q-37 13 -79 13t-79 -13l79 -60v0l79 60v0zM160 412q-49 -22 -83 -61l36 -104v0l51 -17v0l4 -1v0l80 58v0v4v0v54v0l-88 67v0zM65 337
q-48 -62 -49 -145v-2v-3l81 56v0l-32 94v0zM17 169q6 -54 32 -99l111 3v0l31 44v0l3 3v0l-31 94v0l-4 1v0l-51 17v0l-91 -63v0zM59 55q48 -67 127 -93l-28 95v0l-99 -2v0zM0 192q1 70 34 128v0v0q34 58 94 94q61 34 128 34t128 -34q60 -36 94 -94q33 -58 34 -128
q-1 -70 -34 -128q-34 -58 -94 -94q-61 -34 -128 -34t-128 34q-60 36 -94 94q-33 58 -34 128v0zM209 127h95h-95h95l29 90v0l-77 56v0l-77 -56v0l30 -90v0z" />
    <glyph glyph-name="u1F94E" unicode="&#x1f94e;" 
d="M267 -48q-3 16 -3 32q0 8 1 17v8v0l16 -2v0v-8v0q-1 -7 -1 -15q0 -15 3 -30q85 10 143 68t69 144q-15 2 -31 2q-8 0 -15 -1h-8v0l-2 16v0h8v0q9 1 17 1q16 0 32 -2v10q-1 67 -33 121t-86 86t-121 33h-5h-5q2 -16 2 -32q0 -8 -1 -17v-8v0l-16 2v0v8v0q1 7 1 15q0 16 -2 31
q-86 -11 -144 -69t-68 -144q14 -2 30 -2q8 0 15 1h8v0l2 -16v0h-8v0q-8 -1 -17 -1q-16 0 -32 3v-11v0q1 -67 33 -121t86 -86t121 -33h5h6v0zM0 192q1 70 34 128v0v0q34 58 94 94q61 34 128 34t128 -34q60 -36 94 -94q33 -58 34 -128q-1 -70 -34 -128q-34 -58 -94 -94
q-61 -34 -128 -34t-128 34q-60 36 -94 94q-33 58 -34 128v0zM125 233q61 29 90 90l4 8v0l14 -7v0l-3 -7v0q-32 -67 -99 -99l-7 -3v0l-7 14v0l8 4v0zM387 151q-61 -29 -90 -90l-4 -8v0l-14 7v0l3 7v0q32 67 99 99l7 3v0l7 -14v0l-8 -4v0z" />
    <glyph glyph-name="u1F94E" unicode="&#xf433;" 
d="M267 -48q-3 16 -3 32q0 8 1 17v8v0l16 -2v0v-8v0q-1 -7 -1 -15q0 -15 3 -30q85 10 143 68t69 144q-15 2 -31 2q-8 0 -15 -1h-8v0l-2 16v0h8v0q9 1 17 1q16 0 32 -2v10q-1 67 -33 121t-86 86t-121 33h-5h-5q2 -16 2 -32q0 -8 -1 -17v-8v0l-16 2v0v8v0q1 7 1 15q0 16 -2 31
q-86 -11 -144 -69t-68 -144q14 -2 30 -2q8 0 15 1h8v0l2 -16v0h-8v0q-8 -1 -17 -1q-16 0 -32 3v-11v0q1 -67 33 -121t86 -86t121 -33h5h6v0zM0 192q1 70 34 128v0v0q34 58 94 94q61 34 128 34t128 -34q60 -36 94 -94q33 -58 34 -128q-1 -70 -34 -128q-34 -58 -94 -94
q-61 -34 -128 -34t-128 34q-60 36 -94 94q-33 58 -34 128v0zM125 233q61 29 90 90l4 8v0l14 -7v0l-3 -7v0q-32 -67 -99 -99l-7 -3v0l-7 14v0l8 4v0zM387 151q-61 -29 -90 -90l-4 -8v0l-14 7v0l3 7v0q32 67 99 99l7 3v0l7 -14v0l-8 -4v0z" />
    <glyph glyph-name="u1F94E" unicode="&#x26be;" 
d="M267 -48q-3 16 -3 32q0 8 1 17v8v0l16 -2v0v-8v0q-1 -7 -1 -15q0 -15 3 -30q85 10 143 68t69 144q-15 2 -31 2q-8 0 -15 -1h-8v0l-2 16v0h8v0q9 1 17 1q16 0 32 -2v10q-1 67 -33 121t-86 86t-121 33h-5h-5q2 -16 2 -32q0 -8 -1 -17v-8v0l-16 2v0v8v0q1 7 1 15q0 16 -2 31
q-86 -11 -144 -69t-68 -144q14 -2 30 -2q8 0 15 1h8v0l2 -16v0h-8v0q-8 -1 -17 -1q-16 0 -32 3v-11v0q1 -67 33 -121t86 -86t121 -33h5h6v0zM0 192q1 70 34 128v0v0q34 58 94 94q61 34 128 34t128 -34q60 -36 94 -94q33 -58 34 -128q-1 -70 -34 -128q-34 -58 -94 -94
q-61 -34 -128 -34t-128 34q-60 36 -94 94q-33 58 -34 128v0zM125 233q61 29 90 90l4 8v0l14 -7v0l-3 -7v0q-32 -67 -99 -99l-7 -3v0l-7 14v0l8 4v0zM387 151q-61 -29 -90 -90l-4 -8v0l-14 7v0l3 7v0q32 67 99 99l7 3v0l7 -14v0l-8 -4v0z" />
    <glyph glyph-name="uniF6C4" unicode="&#xf6c4;" horiz-adv-x="640" 
d="M107 328l11 2l-11 -2l11 2l2 11v0l13 79v0l66 -46v0l9 -6v0l9 6v0l66 46v0l13 -79v0l2 -11v0l12 -2v0l79 -13v0l-43 -61v0q10 2 21 2l39 56v0l10 15v0l-17 3v0l-87 14v0l-14 86v0l-3 18v0l-15 -10v0l-72 -51v0l-72 51v0l-15 10v0l-3 -18v0l-14 -86v0l-86 -14v0l-18 -3v0
l10 -15v0l51 -72v0l-51 -72v0l-10 -15v0l18 -3v0l86 -14v0l14 -87v0l3 -17v0l15 10v0l27 19v0q4 14 9 26l-39 -27v0l-13 79v0l-2 11v0l-12 2v0l-79 13v0l47 66v0l6 9v0l-6 9v0l-46 66v0l79 13v0zM304 240q-1 41 -28 68v0v0q-27 27 -68 28q-41 -1 -68 -28t-28 -68
q1 -41 28 -68t68 -28q12 0 23 3q6 2 11 5q2 9 5 18q-17 -10 -39 -10q-34 1 -57 23q-22 23 -23 57q1 34 23 57q23 22 57 23q34 -1 57 -23q22 -23 23 -57q0 -7 -1 -13q8 7 17 12v1v0zM368 224q-41 -1 -68 -28v0v0q-27 -27 -28 -68v-1v0q-35 -7 -57 -33t-23 -62v-80v0v-16v0h16
h432v16v0v64v0q-1 28 -17 49t-43 28l-6 2q1 3 1 6q1 6 1 11q-1 34 -24 57q-22 22 -56 23q-20 0 -37 -9q-5 -2 -9 -5q-3 5 -7 10q-28 34 -75 36v0zM624 16v-64v64v-64h-64h-352v80v0q1 30 19 52q19 22 48 27l13 2v0v14v0v1v0q1 34 23 57q23 22 57 23q45 -2 68 -39l9 -14v0
l14 10v0q16 11 37 11q27 -1 45 -19t19 -45q0 -7 -2 -14l-3 -16v0l16 -3v0q23 -4 38 -22q14 -17 15 -41v0z" />
    <glyph glyph-name="uniF6C4" unicode="&#x26c5;" horiz-adv-x="640" 
d="M107 328l11 2l-11 -2l11 2l2 11v0l13 79v0l66 -46v0l9 -6v0l9 6v0l66 46v0l13 -79v0l2 -11v0l12 -2v0l79 -13v0l-43 -61v0q10 2 21 2l39 56v0l10 15v0l-17 3v0l-87 14v0l-14 86v0l-3 18v0l-15 -10v0l-72 -51v0l-72 51v0l-15 10v0l-3 -18v0l-14 -86v0l-86 -14v0l-18 -3v0
l10 -15v0l51 -72v0l-51 -72v0l-10 -15v0l18 -3v0l86 -14v0l14 -87v0l3 -17v0l15 10v0l27 19v0q4 14 9 26l-39 -27v0l-13 79v0l-2 11v0l-12 2v0l-79 13v0l47 66v0l6 9v0l-6 9v0l-46 66v0l79 13v0zM304 240q-1 41 -28 68v0v0q-27 27 -68 28q-41 -1 -68 -28t-28 -68
q1 -41 28 -68t68 -28q12 0 23 3q6 2 11 5q2 9 5 18q-17 -10 -39 -10q-34 1 -57 23q-22 23 -23 57q1 34 23 57q23 22 57 23q34 -1 57 -23q22 -23 23 -57q0 -7 -1 -13q8 7 17 12v1v0zM368 224q-41 -1 -68 -28v0v0q-27 -27 -28 -68v-1v0q-35 -7 -57 -33t-23 -62v-80v0v-16v0h16
h432v16v0v64v0q-1 28 -17 49t-43 28l-6 2q1 3 1 6q1 6 1 11q-1 34 -24 57q-22 22 -56 23q-20 0 -37 -9q-5 -2 -9 -5q-3 5 -7 10q-28 34 -75 36v0zM624 16v-64v64v-64h-64h-352v80v0q1 30 19 52q19 22 48 27l13 2v0v14v0v1v0q1 34 23 57q23 22 57 23q45 -2 68 -39l9 -14v0
l14 10v0q16 11 37 11q27 -1 45 -19t19 -45q0 -7 -2 -14l-3 -16v0l16 -3v0q23 -4 38 -22q14 -17 15 -41v0z" />
    <glyph glyph-name="u1F327" unicode="&#x1f327;" 
d="M400 320v-16v16v-16h16v0q34 -1 57 -23q22 -23 23 -57v-80v0h-80h-400v80v0q0 27 15 47t38 28l11 4v0v11v0v22v0q1 41 28 68t68 28q51 -2 79 -41l8 -12v0l13 8v0q20 13 44 13q34 -1 57 -23q22 -23 23 -57v0zM0 128h16h-16h512v16v0v80v0q-1 41 -28 68t-68 28
q-1 41 -28 68t-68 28q-29 0 -52 -16q-33 46 -92 48q-48 -1 -79 -33q-32 -31 -33 -79v-22v0q-28 -10 -46 -34q-17 -24 -18 -56v-80v0v-16v0zM69 4l27 45l-27 -45l27 45l27 -45v0q5 -8 5 -18v-2v0q0 -14 -9 -23t-23 -9t-23 9t-9 23v2v0q0 9 5 18v0zM55 12q-7 -12 -7 -26v-2v0
q1 -20 14 -34q14 -13 34 -14q20 1 34 14q14 14 14 34v2v0q0 14 -7 26l-31 52v0l-10 16v0l-9 -16v0l-32 -52v0zM229 4l27 45l-27 -45l27 45l27 -45v0q5 -8 5 -18v-2v0q0 -14 -9 -23t-23 -9t-23 9t-9 23v2v0q0 9 5 18v0zM215 12q-7 -12 -7 -26v-2v0q1 -20 14 -34
q14 -13 34 -14q20 1 34 14q14 14 14 34v2v0q0 14 -7 26l-32 52v0l-9 16v0l-9 -16v0l-32 -52v0zM416 49l27 -45l-27 45l27 -45q5 -8 5 -18v-2v0q0 -14 -9 -23t-23 -9t-23 9t-9 23v2v0q0 9 5 18l27 45v0zM407 64l-32 -52l32 52l-32 -52q-7 -12 -7 -26v-2v0q1 -20 14 -34
q14 -13 34 -14q21 1 34 14q14 14 14 34v2v0q0 14 -7 26l-31 52v0l-10 16v0l-9 -16v0z" />
    <glyph glyph-name="u1F327" unicode="&#xf73d;" 
d="M400 320v-16v16v-16h16v0q34 -1 57 -23q22 -23 23 -57v-80v0h-80h-400v80v0q0 27 15 47t38 28l11 4v0v11v0v22v0q1 41 28 68t68 28q51 -2 79 -41l8 -12v0l13 8v0q20 13 44 13q34 -1 57 -23q22 -23 23 -57v0zM0 128h16h-16h512v16v0v80v0q-1 41 -28 68t-68 28
q-1 41 -28 68t-68 28q-29 0 -52 -16q-33 46 -92 48q-48 -1 -79 -33q-32 -31 -33 -79v-22v0q-28 -10 -46 -34q-17 -24 -18 -56v-80v0v-16v0zM69 4l27 45l-27 -45l27 45l27 -45v0q5 -8 5 -18v-2v0q0 -14 -9 -23t-23 -9t-23 9t-9 23v2v0q0 9 5 18v0zM55 12q-7 -12 -7 -26v-2v0
q1 -20 14 -34q14 -13 34 -14q20 1 34 14q14 14 14 34v2v0q0 14 -7 26l-31 52v0l-10 16v0l-9 -16v0l-32 -52v0zM229 4l27 45l-27 -45l27 45l27 -45v0q5 -8 5 -18v-2v0q0 -14 -9 -23t-23 -9t-23 9t-9 23v2v0q0 9 5 18v0zM215 12q-7 -12 -7 -26v-2v0q1 -20 14 -34
q14 -13 34 -14q20 1 34 14q14 14 14 34v2v0q0 14 -7 26l-32 52v0l-9 16v0l-9 -16v0l-32 -52v0zM416 49l27 -45l-27 45l27 -45q5 -8 5 -18v-2v0q0 -14 -9 -23t-23 -9t-23 9t-9 23v2v0q0 9 5 18l27 45v0zM407 64l-32 -52l32 52l-32 -52q-7 -12 -7 -26v-2v0q1 -20 14 -34
q14 -13 34 -14q21 1 34 14q14 14 14 34v2v0q0 14 -7 26l-31 52v0l-10 16v0l-9 -16v0z" />
    <glyph glyph-name="u1F327" unicode="&#x26c6;" 
d="M400 320v-16v16v-16h16v0q34 -1 57 -23q22 -23 23 -57v-80v0h-80h-400v80v0q0 27 15 47t38 28l11 4v0v11v0v22v0q1 41 28 68t68 28q51 -2 79 -41l8 -12v0l13 8v0q20 13 44 13q34 -1 57 -23q22 -23 23 -57v0zM0 128h16h-16h512v16v0v80v0q-1 41 -28 68t-68 28
q-1 41 -28 68t-68 28q-29 0 -52 -16q-33 46 -92 48q-48 -1 -79 -33q-32 -31 -33 -79v-22v0q-28 -10 -46 -34q-17 -24 -18 -56v-80v0v-16v0zM69 4l27 45l-27 -45l27 45l27 -45v0q5 -8 5 -18v-2v0q0 -14 -9 -23t-23 -9t-23 9t-9 23v2v0q0 9 5 18v0zM55 12q-7 -12 -7 -26v-2v0
q1 -20 14 -34q14 -13 34 -14q20 1 34 14q14 14 14 34v2v0q0 14 -7 26l-31 52v0l-10 16v0l-9 -16v0l-32 -52v0zM229 4l27 45l-27 -45l27 45l27 -45v0q5 -8 5 -18v-2v0q0 -14 -9 -23t-23 -9t-23 9t-9 23v2v0q0 9 5 18v0zM215 12q-7 -12 -7 -26v-2v0q1 -20 14 -34
q14 -13 34 -14q20 1 34 14q14 14 14 34v2v0q0 14 -7 26l-32 52v0l-9 16v0l-9 -16v0l-32 -52v0zM416 49l27 -45l-27 45l27 -45q5 -8 5 -18v-2v0q0 -14 -9 -23t-23 -9t-23 9t-9 23v2v0q0 9 5 18l27 45v0zM407 64l-32 -52l32 52l-32 -52q-7 -12 -7 -26v-2v0q1 -20 14 -34
q14 -13 34 -14q21 1 34 14q14 14 14 34v2v0q0 14 -7 26l-31 52v0l-10 16v0l-9 -16v0z" />
    <glyph glyph-name="u1F69A" unicode="&#x1f69a;" horiz-adv-x="640" 
d="M16 432v-384v384v-384h51v0q9 28 31 46q23 17 54 18q31 -1 54 -18q22 -18 31 -46h163v0v384v0h-384v0zM64 32h-48h48h-64v16v0v384v0v16v0h16h400v-16v0v-80v0h72h3l3 -2v0l112 -112v0l2 -3v0v-3v0v-184v0h24h8v-16v0h-8h-56v-8q-1 -37 -26 -62t-62 -26q-37 1 -62 26
t-26 62v8v0v0h-160v0v-8q-1 -37 -26 -62t-62 -26q-37 1 -62 26t-26 62v8v0zM416 232h173h-173h173l-104 104v0h-69v0v-104v0zM416 216v-141v141v-141q26 35 72 37q31 -1 54 -18q22 -18 31 -46h19v0v168v0h-176v0zM224 24q-1 41 -36 62q-36 20 -72 0q-35 -21 -36 -62
q1 -41 36 -62q36 -20 72 0q35 21 36 62v0zM488 -48q41 1 62 36q20 36 0 72q-21 35 -62 36q-41 -1 -62 -36q-20 -36 0 -72q21 -35 62 -36v0z" />
    <glyph glyph-name="u1F69A" unicode="&#xf0d1;" horiz-adv-x="640" 
d="M16 432v-384v384v-384h51v0q9 28 31 46q23 17 54 18q31 -1 54 -18q22 -18 31 -46h163v0v384v0h-384v0zM64 32h-48h48h-64v16v0v384v0v16v0h16h400v-16v0v-80v0h72h3l3 -2v0l112 -112v0l2 -3v0v-3v0v-184v0h24h8v-16v0h-8h-56v-8q-1 -37 -26 -62t-62 -26q-37 1 -62 26
t-26 62v8v0v0h-160v0v-8q-1 -37 -26 -62t-62 -26q-37 1 -62 26t-26 62v8v0zM416 232h173h-173h173l-104 104v0h-69v0v-104v0zM416 216v-141v141v-141q26 35 72 37q31 -1 54 -18q22 -18 31 -46h19v0v168v0h-176v0zM224 24q-1 41 -36 62q-36 20 -72 0q-35 -21 -36 -62
q1 -41 36 -62q36 -20 72 0q35 21 36 62v0zM488 -48q41 1 62 36q20 36 0 72q-21 35 -62 36q-41 -1 -62 -36q-20 -36 0 -72q21 -35 62 -36v0z" />
    <glyph glyph-name="u1F69A" unicode="&#x26df;" horiz-adv-x="640" 
d="M16 432v-384v384v-384h51v0q9 28 31 46q23 17 54 18q31 -1 54 -18q22 -18 31 -46h163v0v384v0h-384v0zM64 32h-48h48h-64v16v0v384v0v16v0h16h400v-16v0v-80v0h72h3l3 -2v0l112 -112v0l2 -3v0v-3v0v-184v0h24h8v-16v0h-8h-56v-8q-1 -37 -26 -62t-62 -26q-37 1 -62 26
t-26 62v8v0v0h-160v0v-8q-1 -37 -26 -62t-62 -26q-37 1 -62 26t-26 62v8v0zM416 232h173h-173h173l-104 104v0h-69v0v-104v0zM416 216v-141v141v-141q26 35 72 37q31 -1 54 -18q22 -18 31 -46h19v0v168v0h-176v0zM224 24q-1 41 -36 62q-36 20 -72 0q-35 -21 -36 -62
q1 -41 36 -62q36 -20 72 0q35 21 36 62v0zM488 -48q41 1 62 36q20 36 0 72q-21 35 -62 36q-41 -1 -62 -36q-20 -36 0 -72q21 -35 62 -36v0z" />
    <glyph glyph-name="uniF712" unicode="&#xf712;" 
d="M250 429l6 2l-6 -2l6 2l6 -2v0l207 -81v0l10 -4v0l1 -10v0q2 -37 -6 -88q-7 -51 -30 -106q-24 -55 -68 -104q-44 -48 -114 -80l-6 -3v0l-6 3v0q-70 32 -114 80q-44 49 -67 104q-24 55 -31 106q-8 51 -5 88v10v0l10 4v0l207 81v0zM496 335l-2 20l2 -20l-2 20l-19 8v0
l-207 80v0l-12 5v0l-12 -5v0l-207 -80v0l-19 -8v0l-1 -20v0q-3 -38 5 -91t32 -110t70 -108q46 -52 119 -85l13 -5v0l13 5v0q73 33 119 85q46 51 70 108t32 110t5 91h1zM264 344v8v-8v8h-16v0v-8v0v-80v0h-144h-8v-16v0h8h144v-208v0v-8v0h16v0v8v0v208v0h144h8v16v0h-8h-144
v80v0z" />
    <glyph glyph-name="uniF712" unicode="&#x26e8;" 
d="M250 429l6 2l-6 -2l6 2l6 -2v0l207 -81v0l10 -4v0l1 -10v0q2 -37 -6 -88q-7 -51 -30 -106q-24 -55 -68 -104q-44 -48 -114 -80l-6 -3v0l-6 3v0q-70 32 -114 80q-44 49 -67 104q-24 55 -31 106q-8 51 -5 88v10v0l10 4v0l207 81v0zM496 335l-2 20l2 -20l-2 20l-19 8v0
l-207 80v0l-12 5v0l-12 -5v0l-207 -80v0l-19 -8v0l-1 -20v0q-3 -38 5 -91t32 -110t70 -108q46 -52 119 -85l13 -5v0l13 5v0q73 33 119 85q46 51 70 108t32 110t5 91h1zM264 344v8v-8v8h-16v0v-8v0v-80v0h-144h-8v-16v0h8h144v-208v0v-8v0h16v0v8v0v208v0h144h8v16v0h-8h-144
v80v0z" />
    <glyph glyph-name="uniF6A1" unicode="&#xf6a1;" 
d="M416 400h3h-3h3l2 1v0l75 25v0v-95v0l-67 -27v0h-13h-333l-67 27v0v95v0l75 -25v0l2 -1v0h3h320zM248 288v-80v80v-80h-152v0v80v0h152v0zM80 192v-248v248v-248v-8v0h16v0v8v0v248v0h160h160v-248v0v-8v0h16v0v8v0v248v0h72h8v16v0h-8h-72v80v0l80 32v0v111v0v17v0
l-16 -5v0l-80 -27v0h-320v0l-80 27v0l-16 5v0v-17v0v-111v0l80 -32v0v-80v0h-72h-8v-16v0h8h72zM416 208h-152h152h-152v80v0h152v0v-80v0z" />
    <glyph glyph-name="uniF6A1" unicode="&#x26e9;" 
d="M416 400h3h-3h3l2 1v0l75 25v0v-95v0l-67 -27v0h-13h-333l-67 27v0v95v0l75 -25v0l2 -1v0h3h320zM248 288v-80v80v-80h-152v0v80v0h152v0zM80 192v-248v248v-248v-8v0h16v0v8v0v248v0h160h160v-248v0v-8v0h16v0v8v0v248v0h72h8v16v0h-8h-72v80v0l80 32v0v111v0v17v0
l-16 -5v0l-80 -27v0h-320v0l-80 27v0l-16 5v0v-17v0v-111v0l80 -32v0v-80v0h-72h-8v-16v0h8h72zM416 208h-152h152h-152v80v0h152v0v-80v0z" />
    <glyph glyph-name="uniF51D" unicode="&#xf51d;" horiz-adv-x="640" 
d="M328 440v8v-8v8h-16v0v-8v0v-40v0h-48h-8v-16v0h8h48v-60v0l-148 -93v0l-4 -3v0v-4v0v-272v0h-144v0v132v0l112 74v0v20v0l-4 -3v0l-120 -80v0l-4 -3v0v-4v0v-144v0v-8v0h8h176v0v0h72h224v0v0h152h8v8v0v144v0v4v0l-4 3v0l-120 80v0l-4 3v0v-20v0l112 -74v0v-132v0h-144
v0v272v0v4v0l-4 3v0l-148 93v0v60v0h48h8v16v0h-8h-48v40v0zM464 -48h-8h8h-8v0v0h-72v0v112v0q-1 27 -19 45t-45 19q-27 -1 -45 -19t-19 -45v-112v0h-80v0v268v0l144 90v0l144 -90v0v-268v0zM368 64v-112v112v-112h-96v0v112v0q1 20 14 34q14 13 34 14q20 -1 34 -14
q13 -14 14 -34v0z" />
    <glyph glyph-name="uniF51D" unicode="&#x26ea;" horiz-adv-x="640" 
d="M328 440v8v-8v8h-16v0v-8v0v-40v0h-48h-8v-16v0h8h48v-60v0l-148 -93v0l-4 -3v0v-4v0v-272v0h-144v0v132v0l112 74v0v20v0l-4 -3v0l-120 -80v0l-4 -3v0v-4v0v-144v0v-8v0h8h176v0v0h72h224v0v0h152h8v8v0v144v0v4v0l-4 3v0l-120 80v0l-4 3v0v-20v0l112 -74v0v-132v0h-144
v0v272v0v4v0l-4 3v0l-148 93v0v60v0h48h8v16v0h-8h-48v40v0zM464 -48h-8h8h-8v0v0h-72v0v112v0q-1 27 -19 45t-45 19q-27 -1 -45 -19t-19 -45v-112v0h-80v0v268v0l144 90v0l144 -90v0v-268v0zM368 64v-112v112v-112h-96v0v112v0q1 20 14 34q14 13 34 14q20 -1 34 -14
q13 -14 14 -34v0z" />
    <glyph glyph-name="uniF6FD" unicode="&#xf6fd;" horiz-adv-x="640" 
d="M16 -16h480h-480h480v0v0v51v0l-240 353v0l-240 -353v0v-51v0zM457 -32h-441h441h-457v16v0v56v0l246 362v0l10 14v0l10 -14v0l147 -216v0l57 87v0l10 15v0l10 -15v0l150 -227v0v-62v0v-16v0h-16h-167zM512 -16h112h-112h112v57v0l-144 218v0l-58 -87v0l90 -132v0v-56v0z
" />
    <glyph glyph-name="uniF6FD" unicode="&#x26f0;" horiz-adv-x="640" 
d="M16 -16h480h-480h480v0v0v51v0l-240 353v0l-240 -353v0v-51v0zM457 -32h-441h441h-457v16v0v56v0l246 362v0l10 14v0l10 -14v0l147 -216v0l57 87v0l10 15v0l10 -15v0l150 -227v0v-62v0v-16v0h-16h-167zM512 -16h112h-112h112v57v0l-144 218v0l-58 -87v0l90 -132v0v-56v0z
" />
    <glyph glyph-name="uniF7C9" unicode="&#xf7c9;" 
d="M259 244l42 -20l-42 20l42 -20l42 -41v0l18 -19v0l-14 -22v0l-64 -96v0l-9 -13v0h-1v0l160 -77v0l60 20v0l8 2v0l5 -15v0l-8 -3v0l-64 -21v0l-3 -1v0l-3 2v0l-423 205v0l7 14v0l203 -98v0l6 7v0l8 14v0l50 74v0l-77 76v0q-19 21 -18 47l16 -8v0q2 -15 14 -27l76 -77v0
l9 -9v0l-7 -11v0l-49 -74v0l-9 -14v0l26 -17v0l9 13v0l64 96v0l8 11v0l-10 9v0l-63 64v0l-9 9v0zM218 316l87 -41l-87 41l87 -41l34 13v0l13 5v0l7 -12v0l19 -33v0l2 -4v0l4 -2v0l33 -19v0h1v0l2 -2l20 -11v0l14 -8v0l16 28v0l-14 8v0l-49 28v0l-3 2v0l-3 3v0l-51 89v0
l-7 12v0l-14 -5v0l-101 -46v0q-5 -2 -10 -5v0zM202 323q8 8 20 13l101 45v0l26 12v0l15 -25v0l51 -89v0l49 -27v0l14 -8v0l14 -8v0l-8 -14v0l-16 -28v0l-8 -14v0l-14 8v0l-14 8v0l-22 13v0l-270 125v0l-13 -26v0l-3 -7v0l-15 7v0l4 8v0l13 25v0l-25 12v0l-8 3v0l7 15v0l7 -4
v0l26 -12v0l12 25v0l3 7v0l15 -7v0l-4 -8v0l-12 -23v0l55 -26v0zM358 251l-13 22l13 -22l-13 22l-20 -7v0l33 -15v0zM429 368q13 0 22 9v0v0q9 9 10 23q-1 14 -10 23t-22 9q-14 0 -23 -9t-9 -23t9 -23t23 -9v0zM381 400q1 27 24 42q24 12 48 0q23 -15 24 -42q-1 -27 -24 -42
q-24 -12 -48 0q-23 15 -24 42v0z" />
    </font>
</defs>
</svg>
