<?xml version="1.0" standalone="no"?>
<!DOCTYPE svg PUBLIC "-//W3C//DTD SVG 1.1//EN" "http://www.w3.org/Graphics/SVG/1.1/DTD/svg11.dtd" >
<svg xmlns="http://www.w3.org/2000/svg" xmlns:xlink="http://www.w3.org/1999/xlink" version="1.1">
<metadata></metadata>
<defs>
<font id="galano_classic_altmedium" horiz-adv-x="1320" >
<font-face units-per-em="2048" ascent="1638" descent="-410" />
<missing-glyph horiz-adv-x="505" />
<glyph unicode="&#xfb01;" horiz-adv-x="1261" d="M0 840v176h207v184q0 212 129.5 339.5t343.5 127.5q99 0 186 -33.5t178 -105.5l-92 -166q-133 115 -272 115q-118 0 -189 -75t-71 -202v-184h692v-1016h-213v840h-479v-840h-213v840h-207z" />
<glyph unicode="&#xfb02;" horiz-adv-x="1390" d="M0 840v176h207v184q0 212 129.5 339.5t343.5 127.5q104 0 197 -37v8h213v-1347q0 -53 35.5 -86t93.5 -33q53 0 124 31l39 -178q-99 -54 -198 -54q-139 0 -223 85t-84 223v561h-457v-840h-213v840h-207zM420 1016h457v403q-94 58 -197 58q-118 0 -189 -75t-71 -202v-184z " />
<glyph horiz-adv-x="0" />
<glyph horiz-adv-x="682" />
<glyph unicode=" "  horiz-adv-x="505" />
<glyph unicode="&#x09;" horiz-adv-x="505" />
<glyph unicode="&#xa0;" horiz-adv-x="505" />
<glyph unicode="!" horiz-adv-x="571" d="M152 123q0 53 38 91t95 38q58 0 96.5 -38t38.5 -91q0 -56 -38.5 -93.5t-96.5 -37.5t-95.5 37.5t-37.5 93.5zM170 1485v71h233v-71l-8 -998h-217z" />
<glyph unicode="&#x22;" horiz-adv-x="780" d="M109 967v589h215v-589h-215zM457 967v589h215v-589h-215z" />
<glyph unicode="#" horiz-adv-x="1404" d="M47 385l49 180h211l86 393h-221l47 181h213l92 417h191l-92 -417h323l92 417h189l-92 -417h221l-51 -181h-209l-86 -393h221l-49 -180h-213l-84 -385h-191l86 385h-323l-84 -385h-191l84 385h-219zM498 565h321l88 393h-323z" />
<glyph unicode="$" horiz-adv-x="1374" d="M98 430l238 49q24 -152 129 -231.5t264 -79.5q148 0 231.5 67t83.5 183q0 84 -49 135t-159 82l-318 90q-59 16 -107.5 36t-100.5 54t-87.5 76t-58.5 105.5t-23 140.5q0 182 115 299.5t313 142.5v252h215v-254q184 -28 304 -139.5t155 -286.5l-223 -47q-25 132 -119 208.5 t-231 76.5q-126 0 -209.5 -64.5t-83.5 -179.5q0 -83 49 -130.5t152 -78.5l352 -102q338 -100 338 -410q0 -183 -119.5 -300t-321.5 -144v-299h-217v296q-207 23 -347 140t-165 313z" />
<glyph unicode="%" horiz-adv-x="1720" d="M92 1255q0 148 99.5 239t240.5 91t240.5 -91t99.5 -239q0 -144 -99.5 -235.5t-240.5 -91.5t-240.5 91.5t-99.5 235.5zM254 1257q0 -82 53 -132t125 -50t125 50t53 132q0 81 -53.5 131t-124.5 50t-124.5 -50t-53.5 -131zM270 0l1016 1556h146l-1016 -1556h-146zM948 301 q0 146 99.5 237t240.5 91t240.5 -91t99.5 -237q0 -145 -99.5 -237.5t-240.5 -92.5t-240.5 92.5t-99.5 237.5zM1110 301q0 -81 53.5 -130.5t124.5 -49.5t124.5 49.5t53.5 130.5t-53.5 131.5t-124.5 50.5t-124.5 -50.5t-53.5 -131.5z" />
<glyph unicode="&#x26;" horiz-adv-x="1568" d="M117 442q0 134 75.5 239t204.5 171q-64 79 -93.5 155t-29.5 164q0 184 127 299t322 115q193 0 312 -112t143 -306l-201 -37q-22 273 -254 273q-109 0 -176.5 -62t-67.5 -172q0 -100 62 -186.5t223 -226.5l354 -310q43 111 43 244v105h191v-105q0 -213 -82 -377l252 -219 l-125 -145l-238 209q-91 -92 -212.5 -139.5t-258.5 -47.5q-257 0 -414 129t-157 342zM326 442q0 -130 99.5 -210t262.5 -80q193 0 326 133l-416 366q-28 24 -80 72q-90 -46 -141 -119.5t-51 -161.5z" />
<glyph unicode="'" horiz-adv-x="432" d="M109 967v589h215v-589h-215z" />
<glyph unicode="(" horiz-adv-x="735" d="M98 766q0 559 391 958l150 -135q-172 -195 -241.5 -389.5t-69.5 -433.5q0 -236 70 -431t241 -392l-150 -131q-391 399 -391 954z" />
<glyph unicode=")" horiz-adv-x="735" d="M98 -57q172 198 242 393t70 430q0 238 -70 433t-242 390l150 135q391 -399 391 -958q0 -555 -391 -954z" />
<glyph unicode="*" horiz-adv-x="876" d="M61 1051l234 135l-234 135l68 117l225 -131v249h152v-249l225 131l68 -117l-234 -135l234 -135l-68 -115l-225 129v-250h-152v250l-225 -129z" />
<glyph unicode="+" horiz-adv-x="1187" d="M133 530v189h367v373h188v-373h367v-189h-367v-372h-188v372h-367z" />
<glyph unicode="," horiz-adv-x="473" d="M27 -270l129 544h247v-6l-215 -538h-161z" />
<glyph unicode="-" horiz-adv-x="913" d="M123 430v184h668v-184h-668z" />
<glyph unicode="." horiz-adv-x="452" d="M92 123q0 53 38.5 91t96.5 38q57 0 95 -38t38 -91q0 -56 -37.5 -93.5t-95.5 -37.5t-96.5 37.5t-38.5 93.5z" />
<glyph unicode="/" horiz-adv-x="804" d="M18 -166l590 1866h178l-589 -1866h-179z" />
<glyph unicode="0" horiz-adv-x="1767" d="M98 774q0 223 104 409.5t285 294t398 107.5q162 0 307.5 -63.5t250 -171.5t165.5 -258.5t61 -317.5q0 -166 -61 -314.5t-165.5 -255.5t-250 -170t-307.5 -63q-217 0 -398 106.5t-285 291t-104 405.5zM319 774q0 -167 75 -304t204.5 -214.5t286.5 -77.5q156 0 285 77.5 t203.5 214.5t74.5 304q0 168 -74.5 307t-204 218t-284.5 79q-156 0 -286 -79t-205 -218t-75 -307z" />
<glyph unicode="1" horiz-adv-x="888" d="M51 1155v199l572 202h41v-1556h-215v1290z" />
<glyph unicode="2" horiz-adv-x="1241" d="M53 1087q7 150 78 263.5t190.5 174t270.5 60.5q228 0 369 -130.5t141 -346.5q0 -65 -14 -124t-36.5 -107.5t-66.5 -109t-86.5 -109t-114.5 -126.5l-311 -333h660v-199h-1059v80l561 596q120 125 159 177q91 123 91 253t-81.5 208.5t-211.5 78.5q-147 0 -237.5 -96 t-96.5 -248z" />
<glyph unicode="3" horiz-adv-x="1288" d="M74 504l213 41q0 -177 104 -277t252 -100q144 0 244 91t100 233q0 133 -90 217t-233 84h-306l-14 43l469 522h-653v198h1026v-63l-471 -520q219 -11 350 -138.5t131 -340.5q0 -228 -158.5 -376.5t-398.5 -148.5q-113 0 -214.5 36t-179.5 102.5t-124 169t-47 227.5z" />
<glyph unicode="4" horiz-adv-x="1507" d="M29 291v108l1005 1157h127v-1071h330v-194h-330v-291h-213v291h-919zM373 485h575v678z" />
<glyph unicode="5" horiz-adv-x="1298" d="M88 504l211 41q0 -177 104 -277t252 -100q144 0 244 91t100 233q0 133 -90 217t-233 84h-518l127 763h878v-198h-700l-64 -371h293q232 0 375 -135t143 -358q0 -150 -73 -270.5t-200.5 -187.5t-285.5 -67q-113 0 -214.5 36t-179 102.5t-123.5 169t-46 227.5z" />
<glyph unicode="6" horiz-adv-x="1353" d="M98 530q0 201 123 353l504 673h262l-352 -473l45 2q158 0 289.5 -69.5t209.5 -197.5t78 -288q0 -161 -78 -290t-209.5 -199t-289.5 -70q-161 0 -293.5 70t-210.5 198.5t-78 290.5zM313 530q0 -161 108 -261.5t259 -100.5q147 0 253.5 101t106.5 261q0 159 -107 260 t-253 101q-151 0 -259 -100.5t-108 -260.5z" />
<glyph unicode="7" horiz-adv-x="1230" d="M70 1358v198h1108v-61l-693 -1495h-252l639 1358h-802z" />
<glyph unicode="8" horiz-adv-x="1318" d="M123 410q0 129 67 233t181 150q-94 46 -146.5 141.5t-52.5 208.5q0 128 67.5 230.5t179 157t243.5 54.5t242.5 -55t176.5 -157t66 -230q0 -112 -52.5 -208t-144.5 -142q116 -46 181 -150t65 -233q0 -195 -149.5 -317t-384.5 -122q-237 0 -388 122.5t-151 316.5zM352 432 q0 -122 87.5 -194t215.5 -72q131 0 222.5 73t91.5 193q0 121 -91 193.5t-223 72.5q-130 0 -216.5 -72.5t-86.5 -193.5zM379 1145q-1 -114 77.5 -183t200.5 -69t203.5 70.5t81.5 179.5q0 115 -84.5 183.5t-198.5 68.5q-112 0 -196 -67.5t-84 -182.5z" />
<glyph unicode="9" horiz-adv-x="1366" d="M98 1028q0 160 78 288.5t209.5 198.5t290.5 70q160 0 292.5 -70t210.5 -198.5t78 -288.5q0 -206 -124 -352l-504 -676h-260l352 473l-45 -2q-159 0 -290.5 70t-209.5 198.5t-78 288.5zM313 1028q0 -159 107.5 -260.5t255.5 -101.5q97 0 179.5 44t133.5 128t51 190 t-51 190t-133.5 128.5t-179.5 44.5q-148 0 -255.5 -102t-107.5 -261z" />
<glyph unicode=":" horiz-adv-x="452" d="M92 123q0 53 38.5 91t96.5 38q57 0 95 -38t38 -91q0 -56 -37.5 -93.5t-95.5 -37.5t-96.5 37.5t-38.5 93.5zM92 840q0 53 38.5 91t96.5 38q57 0 95 -37.5t38 -91.5q0 -56 -37.5 -92.5t-95.5 -36.5t-96.5 36.5t-38.5 92.5z" />
<glyph unicode=";" horiz-adv-x="514" d="M27 -270l129 544h247v-6l-215 -538h-161zM154 840q0 54 38 91.5t95 37.5q58 0 96.5 -38t38.5 -91q0 -56 -38.5 -92.5t-96.5 -36.5t-95.5 36.5t-37.5 92.5z" />
<glyph unicode="&#x3c;" horiz-adv-x="907" d="M66 549v221l763 311v-227l-512 -192l512 -197v-223z" />
<glyph unicode="=" horiz-adv-x="1187" d="M133 365v186h922v-186h-922zM133 760v186h922v-186h-922z" />
<glyph unicode="&#x3e;" horiz-adv-x="907" d="M82 242v223l512 197l-512 192v227l764 -311v-221z" />
<glyph unicode="?" horiz-adv-x="1081" d="M68 1171q9 181 141.5 297.5t345.5 116.5q207 0 341 -123t134 -321q0 -178 -110.5 -286.5t-292.5 -127.5v-240h-197v404h123q115 0 191.5 72t76.5 182q0 108 -75 179t-191 71q-122 0 -197.5 -70.5t-87.5 -194.5zM391 123q0 53 38.5 91t96.5 38t95.5 -38t37.5 -91 q0 -56 -37.5 -93.5t-95.5 -37.5t-96.5 37.5t-38.5 93.5z" />
<glyph unicode="@" horiz-adv-x="2113" d="M119 641q0 268 124 484.5t341 338t483 121.5q255 0 467.5 -113t337.5 -316t125 -454q0 -67 -9 -131t-28 -127.5t-50.5 -116t-73 -93.5t-100 -64t-128.5 -23q-101 0 -169 45.5t-93 124.5q-118 -159 -334 -159q-194 0 -324.5 132t-130.5 343q0 216 131 349.5t322 133.5 q203 0 323 -151v131h144v-676q0 -64 43 -104t106 -40q77 0 130 65t75 156t22 195q0 222 -105 397.5t-284 271t-397 95.5q-171 0 -321 -62t-256.5 -169.5t-168 -258.5t-61.5 -323t61.5 -324t166 -258t248.5 -167.5t304 -61.5q139 0 285 44t258 126l72 -115 q-114 -88 -281 -138t-330 -50q-189 0 -359 70.5t-295 193t-198 299.5t-73 379zM727 635q0 -150 89 -242t214 -92t214 92.5t89 241.5q0 150 -89 241t-214 91q-126 0 -214.5 -90.5t-88.5 -241.5z" />
<glyph unicode="A" horiz-adv-x="1648" d="M10 0l727 1556h174l727 -1556h-245l-154 338h-829l-154 -338h-246zM500 539h649l-324 716z" />
<glyph unicode="B" horiz-adv-x="1521" d="M162 0v1556h682q206 0 329 -106.5t123 -284.5q0 -193 -141 -288q127 -52 197.5 -160.5t70.5 -251.5q0 -210 -147.5 -337.5t-396.5 -127.5h-717zM381 201h498q153 0 242 74.5t89 201.5q0 129 -92 207t-250 78h-487v-561zM381 940h473q104 0 165.5 56t61.5 151 q0 97 -63.5 153t-173.5 56h-463v-416z" />
<glyph unicode="C" horiz-adv-x="1748" d="M98 776q0 167 62 317t168.5 258t254.5 171t314 63q279 0 485 -160t269 -426l-213 -59q-52 209 -196.5 323.5t-344.5 114.5q-160 0 -292.5 -79t-209 -217.5t-76.5 -305.5q0 -166 76.5 -304t209 -217t292.5 -79q200 0 344.5 114t196.5 324l213 -45q-61 -278 -266.5 -439 t-487.5 -161q-166 0 -314 63t-254.5 170.5t-168.5 257t-62 316.5z" />
<glyph unicode="D" horiz-adv-x="1705" d="M162 0v1556h606q249 0 440 -96.5t295.5 -273.5t104.5 -408t-104.5 -408t-295.5 -273.5t-440 -96.5h-606zM381 199h399q272 0 439 160t167 419q0 261 -167 420.5t-439 159.5h-399v-1159z" />
<glyph unicode="E" horiz-adv-x="1419" d="M162 0v1556h1134v-200h-915v-475h893v-199h-893v-483h922v-199h-1141z" />
<glyph unicode="F" horiz-adv-x="1337" d="M162 0v1556h1120v-198h-901v-477h864v-199h-864v-682h-219z" />
<glyph unicode="G" horiz-adv-x="1818" d="M98 776q0 167 62.5 317t168.5 258t254 171t312 63q256 0 459.5 -134t281.5 -368l-198 -69q-74 180 -219 272t-324 92q-159 0 -290.5 -79.5t-207 -218t-75.5 -304.5q0 -167 77 -305t211.5 -216.5t298.5 -78.5q172 0 302 82.5t196 235.5h-659v200h915v-694h-190l-11 240 q-93 -131 -235.5 -201t-323.5 -70q-167 0 -316.5 63t-256.5 170.5t-169.5 257t-62.5 316.5z" />
<glyph unicode="H" horiz-adv-x="1619" d="M162 0v1556h219v-675h858v675h221v-1556h-221v682h-858v-682h-219z" />
<glyph unicode="I" horiz-adv-x="1132" d="M88 0v199h369v1159h-369v198h956v-198h-368v-1159h368v-199h-956z" />
<glyph unicode="J" horiz-adv-x="1466" d="M39 457l209 73q37 -164 147.5 -257t270.5 -93q191 0 307.5 138t116.5 366v674h-746v198h965v-872q0 -321 -177 -518t-466 -197q-236 0 -402 131t-225 357z" />
<glyph unicode="K" horiz-adv-x="1699" d="M162 0v1556h219v-1206l891 1206h264l-559 -753l696 -803h-307l-530 612l-455 -612h-219z" />
<glyph unicode="L" horiz-adv-x="1284" d="M162 0v1556h219v-1357h825v-199h-1044z" />
<glyph unicode="M" horiz-adv-x="2031" d="M162 0v1556h131l723 -1083l725 1083h129v-1556h-213v1049l-604 -893h-72l-606 893v-1049h-213z" />
<glyph unicode="N" horiz-adv-x="1746" d="M162 0v1556h155l1049 -813v813h219v-1556h-219v479l-983 742l-2 -1221h-219z" />
<glyph unicode="O" horiz-adv-x="1792" d="M98 774q0 167 62 317.5t168.5 258.5t255 171.5t313.5 63.5t313.5 -63.5t255 -171.5t168.5 -258.5t62 -317.5q0 -221 -105.5 -405.5t-289 -291t-404.5 -106.5t-404.5 106.5t-289 291t-105.5 405.5zM319 774q0 -167 76.5 -304t209 -214.5t292.5 -77.5t292.5 77.5t209 214.5 t76.5 304q0 168 -76.5 307t-209 218t-292.5 79t-292.5 -79t-209 -218t-76.5 -307z" />
<glyph unicode="P" horiz-adv-x="1542" d="M162 0v1556h647q142 0 263.5 -41.5t209 -116.5t137 -184.5t49.5 -240.5q0 -175 -85 -309t-234.5 -205.5t-339.5 -71.5h-428v-387h-219zM381 586h428q191 0 315.5 106t124.5 281q0 174 -124.5 279.5t-315.5 105.5h-428v-772z" />
<glyph unicode="Q" horiz-adv-x="1792" d="M98 774q0 167 62 317.5t168.5 258.5t255 171.5t313.5 63.5t313.5 -63.5t255 -171.5t168.5 -258.5t62 -317.5q0 -179 -71.5 -336.5t-197.5 -267.5l273 -334l-158 -143l-293 358q-166 -80 -352 -80q-221 0 -404.5 106.5t-289 291t-105.5 405.5zM319 774q0 -167 76.5 -304 t209 -214.5t292.5 -77.5q113 0 213 41l-301 367l174 131l311 -381q85 81 133 194t48 244q0 168 -76.5 307t-209 218t-292.5 79t-292.5 -79t-209 -218t-76.5 -307z" />
<glyph unicode="R" horiz-adv-x="1587" d="M162 0v1556h645q294 0 476.5 -160.5t182.5 -422.5q0 -190 -98 -330t-270 -207l463 -436h-291l-418 387h-45h-426v-387h-219zM381 586h426q195 0 317.5 107t122.5 280t-122 279t-318 106h-426v-772z" />
<glyph unicode="S" horiz-adv-x="1374" d="M98 430l238 49q24 -152 129 -231.5t264 -79.5q148 0 231.5 67t83.5 183q0 84 -49 135t-159 82l-318 90q-59 16 -107.5 36t-100.5 54t-87.5 76t-58.5 105.5t-23 140.5q0 204 144.5 326t382.5 122q231 0 382 -115.5t193 -318.5l-223 -47q-25 132 -119 208.5t-231 76.5 q-126 0 -209.5 -64.5t-83.5 -179.5q0 -83 49 -130.5t152 -78.5l352 -102q338 -100 338 -410q0 -209 -153.5 -331t-403.5 -122q-159 0 -289 50.5t-217.5 156t-106.5 252.5z" />
<glyph unicode="T" horiz-adv-x="1314" d="M47 1358v198h1223v-198h-502v-1358h-221v1358h-500z" />
<glyph unicode="U" horiz-adv-x="1638" d="M147 684v872h220v-872q0 -228 124 -366t328 -138q199 0 321 138t122 366v872h221v-872q0 -321 -183 -518t-481 -197q-302 0 -487 197t-185 518z" />
<glyph unicode="V" horiz-adv-x="1638" d="M27 1556h241l551 -1196l551 1196h242l-717 -1556h-152z" />
<glyph unicode="W" horiz-adv-x="2238" d="M27 1556h229l377 -1142l418 1142h135l418 -1142l376 1142h232l-510 -1556h-172l-412 1128l-411 -1128h-170z" />
<glyph unicode="X" horiz-adv-x="1515" d="M27 0l594 780l-584 776h268l453 -600l452 600h269l-586 -776l596 -780h-268l-463 608l-463 -608h-268z" />
<glyph unicode="Y" horiz-adv-x="1568" d="M27 1556h243l510 -825l510 825h252l-651 -1052v-504h-221v504z" />
<glyph unicode="Z" horiz-adv-x="1464" d="M109 0v80l940 1288h-916v188h1227v-77l-924 -1291h934v-188h-1261z" />
<glyph unicode="[" horiz-adv-x="815" d="M162 -188v1888h557v-184h-350v-1520h350v-184h-557z" />
<glyph unicode="\" horiz-adv-x="804" d="M18 1700h179l589 -1866h-178z" />
<glyph unicode="]" horiz-adv-x="815" d="M98 -4h351v1520h-351v184h555v-1888h-555v184z" />
<glyph unicode="^" horiz-adv-x="858" d="M47 1094l307 462h152l307 -462h-190l-193 286l-194 -286h-189z" />
<glyph unicode="_" horiz-adv-x="1071" d="M41 -115h989v-178h-989v178z" />
<glyph unicode="`" horiz-adv-x="1228" d="M322 1452h249l150 -291h-184z" />
<glyph unicode="a" d="M74 508q0 116 41.5 217.5t111 170.5t161 108.5t190.5 39.5q226 0 368 -145v117h215v-1016h-215v115q-144 -144 -368 -144q-99 0 -190 39t-161 108t-111.5 171t-41.5 219zM283 508q0 -158 94 -253t235 -95q134 0 234 96.5t100 251.5q0 103 -48.5 184t-124 122.5 t-161.5 41.5q-141 0 -235 -95.5t-94 -252.5z" />
<glyph unicode="b" d="M162 0v1638h213v-739q139 145 368 145q99 0 191 -39.5t161 -108.5t110.5 -170.5t41.5 -217.5q0 -118 -41.5 -219.5t-111 -170.5t-161 -108t-190.5 -39q-228 0 -368 146v-117h-213zM375 508q0 -103 49 -184.5t124.5 -122.5t160.5 -41q143 0 237 95t94 253 q0 157 -94.5 252.5t-236.5 95.5q-133 0 -233.5 -97.5t-100.5 -250.5z" />
<glyph unicode="c" horiz-adv-x="1193" d="M74 508q0 154 74 277.5t198.5 191t274.5 67.5q180 0 319 -99t190 -265l-204 -59q-32 112 -113 171.5t-192 59.5q-147 0 -242.5 -97t-95.5 -247q0 -151 95 -247.5t243 -96.5q111 0 193 58.5t120 170.5l196 -51q-44 -167 -184.5 -268t-324.5 -101q-150 0 -274.5 67 t-198.5 190.5t-74 277.5z" />
<glyph unicode="d" d="M74 508q0 116 41.5 217.5t111 170.5t161 108.5t190.5 39.5q226 0 368 -145v739h215v-1638h-215v115q-144 -144 -368 -144q-99 0 -190 39t-161 108t-111.5 171t-41.5 219zM283 508q0 -158 94 -253t235 -95q134 0 234 96.5t100 251.5q0 103 -48.5 184t-124 122.5 t-161.5 41.5q-141 0 -235 -95.5t-94 -252.5z" />
<glyph unicode="e" horiz-adv-x="1181" d="M74 506q0 119 42 220.5t113.5 170.5t167.5 108t203 39q135 0 249 -64t184 -182.5t75 -267.5v-73h-823q15 -137 103 -219t204 -82q97 0 173 38.5t126 137.5l190 -41q-62 -157 -189.5 -238.5t-299.5 -81.5q-138 0 -256 65.5t-190 189.5t-72 280zM291 608h598 q-24 121 -102.5 184.5t-186.5 63.5q-107 0 -196 -65.5t-113 -182.5z" />
<glyph unicode="f" horiz-adv-x="806" d="M0 840v176h207v270q0 172 102.5 277.5t272.5 105.5q93 0 174 -37l-51 -174q-56 21 -109 21q-79 0 -127.5 -53.5t-48.5 -139.5v-270h399v-176h-399v-840h-213v840h-207z" />
<glyph unicode="g" d="M74 508q0 116 41.5 217.5t111 170.5t161 108.5t190.5 39.5q226 0 368 -145v117h215v-1131q-1 -147 -74.5 -257t-198.5 -166t-282 -56q-179 0 -305 63.5t-190 180.5l176 143q58 -92 131 -135t188 -43q147 0 243.5 80.5t96.5 220.5v199q-144 -144 -368 -144q-99 0 -190 39 t-161 108t-111.5 171t-41.5 219zM283 508q0 -158 94 -253t235 -95q134 0 234 96.5t100 251.5q0 103 -48.5 184t-124 122.5t-161.5 41.5q-141 0 -235 -95.5t-94 -252.5z" />
<glyph unicode="h" horiz-adv-x="1269" d="M162 0v1638h213v-747q128 153 352 153q182 0 295 -119.5t113 -310.5v-614h-215v571q0 124 -66.5 200.5t-175.5 76.5q-141 0 -222 -96t-81 -283v-469h-213z" />
<glyph unicode="i" horiz-adv-x="567" d="M147 1376q0 55 39.5 95t98.5 40q57 0 96 -40t39 -95q0 -56 -38.5 -92.5t-96.5 -36.5q-60 0 -99 36.5t-39 92.5zM178 0v1016h213v-1016h-213z" />
<glyph unicode="j" horiz-adv-x="567" d="M147 1376q0 55 39.5 95t98.5 40q57 0 96 -40t39 -95q0 -56 -38.5 -92.5t-96.5 -36.5q-60 0 -99 36.5t-39 92.5zM178 -573v1589h213v-1589h-213z" />
<glyph unicode="k" horiz-adv-x="1306" d="M162 0v1638h213v-1300l553 678h246l-392 -498l514 -518h-286l-361 350l-274 -350h-213z" />
<glyph unicode="l" horiz-adv-x="655" d="M141 279v1359h213v-1347q0 -53 36.5 -86t94.5 -33q52 0 123 31l41 -178q-99 -54 -200 -54q-138 0 -223 85t-85 223z" />
<glyph unicode="m" horiz-adv-x="1939" d="M162 0v1016h213v-115q118 143 325 143q110 0 199.5 -49t138.5 -137q133 186 379 186q162 0 273.5 -110.5t111.5 -286.5v-647h-211v604q0 111 -64.5 177.5t-164.5 66.5q-127 0 -201 -88.5t-74 -255.5v-504h-213v604q0 111 -64.5 177.5t-164.5 66.5q-126 0 -198 -88.5 t-72 -255.5v-504h-213z" />
<glyph unicode="n" horiz-adv-x="1269" d="M162 0v1016h213v-125q128 153 352 153q182 0 295 -119.5t113 -310.5v-614h-215v571q0 124 -66.5 200.5t-175.5 76.5q-141 0 -222 -96t-81 -283v-469h-213z" />
<glyph unicode="o" horiz-adv-x="1245" d="M74 508q0 154 74 277.5t199.5 191t277.5 67.5q150 0 274.5 -67.5t198 -191t73.5 -277.5t-73.5 -277.5t-198 -191.5t-274.5 -68q-152 0 -277.5 68t-199.5 191.5t-74 277.5zM283 508q0 -155 99 -251.5t243 -96.5q142 0 241 97t99 251t-99 251t-241 97q-144 0 -243 -96.5 t-99 -251.5z" />
<glyph unicode="p" d="M162 -573v1589h213v-117q139 145 368 145q99 0 191 -39.5t161 -108.5t110.5 -170.5t41.5 -217.5q0 -118 -41.5 -219.5t-111 -170.5t-161 -108t-190.5 -39q-228 0 -368 146v-690h-213zM375 508q0 -103 49 -184.5t124.5 -122.5t160.5 -41q143 0 237 95t94 253 q0 157 -94.5 252.5t-236.5 95.5q-133 0 -233.5 -97.5t-100.5 -250.5z" />
<glyph unicode="q" d="M74 508q0 116 41.5 217.5t111 170.5t161 108.5t190.5 39.5q226 0 368 -145v117h215v-1589h-215v688q-144 -144 -368 -144q-99 0 -190 39t-161 108t-111.5 171t-41.5 219zM283 508q0 -158 94 -253t235 -95q134 0 234 96.5t100 251.5q0 103 -48.5 184t-124 122.5 t-161.5 41.5q-141 0 -235 -95.5t-94 -252.5z" />
<glyph unicode="r" horiz-adv-x="860" d="M162 0v1016h213v-209q128 221 387 221q45 0 72 -8l-15 -205q-16 2 -59 2q-189 0 -287 -122t-98 -337v-358h-213z" />
<glyph unicode="s" horiz-adv-x="962" d="M76 272l215 45q10 -87 69 -132.5t146 -45.5q85 0 132.5 40t47.5 102q0 88 -111 116l-210 56q-261 65 -261 276q0 140 103 227.5t272 87.5q162 0 269.5 -80.5t134.5 -211.5l-203 -43q-13 76 -64.5 124t-136.5 48q-73 0 -116.5 -35t-43.5 -94q0 -49 32.5 -78t101.5 -47 l198 -54q244 -64 244 -276q0 -154 -109.5 -240t-291.5 -86q-107 0 -194.5 30t-150 100t-73.5 171z" />
<glyph unicode="t" horiz-adv-x="858" d="M0 840v176h219v393l213 66v-459h420v-176h-420v-494q0 -82 41.5 -128t112.5 -46q89 0 172 55l63 -178q-129 -78 -250 -78q-167 0 -259.5 95t-92.5 264v510h-219z" />
<glyph unicode="u" horiz-adv-x="1269" d="M137 403v613h213v-570q0 -125 67 -201.5t177 -76.5q141 0 221 96t80 283v469h213v-1016h-213v125q-129 -154 -350 -154q-184 0 -296 119.5t-112 312.5z" />
<glyph unicode="v" horiz-adv-x="1177" d="M27 1018h229l334 -715l334 715h229l-481 -1018h-164z" />
<glyph unicode="w" horiz-adv-x="1685" d="M27 1016h227l252 -697l254 697h166l254 -701l252 701h227l-379 -1020h-182l-254 684l-256 -684h-182z" />
<glyph unicode="x" horiz-adv-x="1226" d="M78 0l379 498l-379 518h254l282 -387l281 387h256l-381 -518l381 -498h-256l-281 371l-282 -371h-254z" />
<glyph unicode="y" horiz-adv-x="1269" d="M104 -350l177 143q60 -92 131.5 -135t183.5 -43q131 0 215 81.5t84 199.5v229q-129 -154 -350 -154q-184 0 -296 119.5t-112 310.5v615h213v-572q0 -125 67 -200.5t177 -75.5q141 0 221 96t80 283v469h213v-1151q0 -198 -142.5 -328.5t-369.5 -130.5q-177 0 -302.5 64 t-189.5 180z" />
<glyph unicode="z" horiz-adv-x="1013" d="M82 0v63l549 777h-535v176h850v-76l-547 -764h553v-176h-870z" />
<glyph unicode="{" horiz-adv-x="874" d="M68 674v162l53 16q160 31 160 180v381q0 132 81 209.5t228 77.5h186v-184h-168q-60 0 -90.5 -32.5t-30.5 -92.5v-383q0 -90 -36 -155.5t-101 -96.5q65 -31 101 -96.5t36 -155.5v-383q0 -60 30.5 -92.5t90.5 -32.5h168v-184h-186q-148 0 -228.5 76t-80.5 208v383 q0 149 -160 180z" />
<glyph unicode="|" horiz-adv-x="528" d="M162 -166v1866h207v-1866h-207z" />
<glyph unicode="}" horiz-adv-x="874" d="M98 -4h168q60 0 90.5 32.5t30.5 92.5v383q0 90 36 155.5t101 96.5q-65 31 -101 96.5t-36 155.5v383q0 60 -30.5 92.5t-90.5 32.5h-168v184h187q147 0 228 -77.5t81 -209.5v-381q0 -149 160 -180l53 -16v-162l-53 -15q-160 -31 -160 -180v-383q0 -132 -80.5 -208 t-228.5 -76h-187v184z" />
<glyph unicode="~" horiz-adv-x="999" d="M96 479q0 79 23 137t60.5 89t77.5 45t83 14q52 0 97 -16.5t72 -37t61 -37t67 -16.5q43 0 67 30t21 79h180q0 -65 -16.5 -117t-42.5 -84.5t-60 -53.5t-67.5 -29.5t-67.5 -8.5q-53 0 -98 16.5t-71 37t-58.5 37t-63.5 16.5q-48 0 -73.5 -28.5t-22.5 -72.5h-168z" />
<glyph unicode="&#xa1;" horiz-adv-x="571" d="M152 911q0 56 37.5 92.5t95.5 36.5t96.5 -36.5t38.5 -92.5q0 -53 -39 -92t-96 -39t-95 38.5t-38 92.5zM170 -453l8 1000h217l8 -1000v-71h-233v71z" />
<glyph unicode="&#xa2;" horiz-adv-x="1204" d="M74 508q0 203 123.5 347.5t314.5 178.5v256h213v-256q146 -26 254.5 -120t150.5 -234l-204 -59q-32 112 -113 171.5t-192 59.5q-147 0 -242.5 -97t-95.5 -247q0 -151 95 -247.5t243 -96.5q111 0 193 58.5t120 170.5l196 -51q-38 -141 -147 -236.5t-258 -123.5v-248h-213 v250q-191 34 -314.5 177.5t-123.5 346.5z" />
<glyph unicode="&#xa3;" horiz-adv-x="1447" d="M98 0v135l197 43v420h-197v199h197v262q0 235 146.5 380.5t385.5 145.5q236 0 378 -143.5t153 -380.5l-207 -41q-9 169 -94.5 260.5t-229.5 91.5q-140 0 -225.5 -86t-85.5 -227v-262h500v-199h-500v-399h848v-199h-1266z" />
<glyph unicode="&#xa5;" horiz-adv-x="1490" d="M51 1556h244l446 -755l447 755h252l-502 -813h336v-163h-422v-160h422v-166h-422v-254h-219v254h-414v166h414v160h-414v163h328z" />
<glyph unicode="&#xa7;" horiz-adv-x="1218" d="M55 705q0 110 54.5 187t140.5 120q-78 90 -78 213q0 168 121.5 264t316.5 96q214 0 338 -112t129 -291l-192 -37q-3 130 -73.5 200t-190.5 70q-106 0 -173 -53.5t-67 -140.5q0 -60 34 -103.5t115 -77.5l334 -145q149 -62 216 -142t67 -200q0 -114 -54.5 -192.5 t-142.5 -118.5q80 -89 80 -213q0 -166 -123 -261.5t-317 -95.5q-226 0 -353.5 112.5t-125.5 299.5l184 35q6 -138 79.5 -209.5t205.5 -71.5q107 0 173 54t66 141q0 60 -34.5 103.5t-112.5 78.5l-334 145q-150 62 -216.5 142.5t-66.5 202.5zM250 717q0 -62 38 -106.5 t138 -92.5l338 -149l41 -19q73 33 109 78.5t36 112.5q0 59 -38.5 103.5t-135.5 90.5l-340 152l-45 20q-141 -62 -141 -190z" />
<glyph unicode="&#xa8;" horiz-adv-x="1228" d="M248 1305q0 53 39 92t96 39t96 -39t39 -92q0 -58 -38 -96t-97 -38t-97 38t-38 96zM713 1305q0 53 38.5 92t96.5 39t96.5 -39t38.5 -92q0 -58 -38 -96t-97 -38t-97 38t-38 96z" />
<glyph unicode="&#xa9;" horiz-adv-x="1734" d="M70 772q0 231 108.5 418.5t290.5 291t399 103.5q162 0 308.5 -61t254 -167.5t171 -258.5t63.5 -326q0 -171 -63.5 -321.5t-171 -255t-254 -164.5t-308.5 -60t-308.5 60t-254.5 164.5t-171.5 255t-63.5 321.5zM180 774q0 -150 54.5 -281.5t147.5 -222.5t219.5 -143.5 t266.5 -52.5t266 52.5t218.5 143.5t147 222.5t54.5 281.5q0 152 -54.5 285t-147 226t-218.5 146.5t-266 53.5t-266.5 -53.5t-219.5 -146.5t-147.5 -226t-54.5 -285zM446 774q0 127 60.5 228t159 154.5t215.5 53.5q163 0 275 -87.5t134 -221.5l-145 -33q-23 92 -96 146.5 t-168 54.5q-121 0 -200 -82t-79 -213q0 -129 79.5 -212t199.5 -83q97 0 171.5 57t92.5 154l145 -26q-21 -143 -132.5 -234.5t-276.5 -91.5q-117 0 -215.5 53.5t-159 154.5t-60.5 228z" />
<glyph unicode="&#xaa;" horiz-adv-x="862" d="M53 1004q0 212 322 241l190 19v16q0 68 -42.5 110t-112.5 42q-139 0 -172 -138l-154 33q27 116 110.5 176t204.5 60q152 0 242 -75t90 -220v-271q0 -27 10.5 -42t28.5 -15q8 0 29 1.5t39 2.5l14 -137q-71 -29 -119 -29q-54 0 -95.5 26t-59.5 77q-85 -103 -252 -103 q-123 0 -198 64t-75 162zM221 1016q0 -52 38 -82.5t103 -30.5q91 0 147 51t56 131v66l-176 -16q-168 -13 -168 -119z" />
<glyph unicode="&#xab;" horiz-adv-x="907" d="M51 537l240 364h213l-240 -364l240 -365h-213zM406 537l239 364h211l-240 -364l240 -365h-211z" />
<glyph unicode="&#xad;" horiz-adv-x="913" d="M123 430v184h668v-184h-668z" />
<glyph unicode="&#xae;" horiz-adv-x="1024" d="M102 1174q0 178 119.5 294.5t290.5 116.5t290.5 -116.5t119.5 -294.5q0 -176 -119.5 -293t-290.5 -117t-290.5 117t-119.5 293zM174 1174q0 -146 99 -244.5t239 -98.5q141 0 240.5 98.5t99.5 244.5q0 147 -99.5 245.5t-240.5 98.5q-140 0 -239 -98.5t-99 -245.5zM365 993 v383h172q69 0 111 -34t42 -91q0 -47 -28 -79.5t-76 -43.5l125 -135h-86l-119 129h-72v-129h-69zM434 1184h103q37 0 59 18t22 47t-22 46.5t-59 17.5h-103v-129z" />
<glyph unicode="&#xaf;" horiz-adv-x="1228" d="M307 1184v174h617v-174h-617z" />
<glyph unicode="&#xb0;" horiz-adv-x="843" d="M127 1298q0 127 86.5 207t210.5 80q122 0 207.5 -80t85.5 -207q0 -126 -85.5 -206t-207.5 -80q-123 0 -210 80t-87 206zM274 1298q0 -67 45 -108t105 -41q59 0 102 41t43 108q0 68 -43.5 110t-101.5 42q-60 0 -105 -42t-45 -110z" />
<glyph unicode="&#xb1;" horiz-adv-x="1187" d="M133 0v186h922v-186h-922zM133 674v186h367v352h188v-352h367v-186h-367v-322h-188v322h-367z" />
<glyph unicode="&#xb2;" horiz-adv-x="710" d="M61 997v39l281 293q83 87 101 113q32 46 32 90q0 53 -34 85t-91 32q-60 0 -100 -45.5t-43 -118.5l-135 31q0 120 76.5 193t201.5 73q124 0 200.5 -67t76.5 -181q0 -39 -11.5 -74t-37.5 -70.5t-51.5 -63.5t-69.5 -72l-21 -21l-94 -98h285v-138h-566z" />
<glyph unicode="&#xb3;" horiz-adv-x="686" d="M49 1192l150 29q10 -57 50.5 -90t96.5 -33q61 0 101 33t40 90t-37.5 91t-97.5 34h-131l-8 20l178 242h-305l4 139h537v-49l-183 -234q88 -18 141.5 -81t53.5 -156q0 -117 -81 -189.5t-212 -72.5q-120 0 -202.5 65.5t-94.5 161.5z" />
<glyph unicode="&#xb4;" horiz-adv-x="1228" d="M483 1161l150 291h250l-217 -291h-183z" />
<glyph unicode="&#xb6;" horiz-adv-x="1183" d="M41 1184q0 181 107.5 276.5t291.5 95.5h297v-1556h-166v797h-102q-186 0 -307 105.5t-121 281.5zM858 0v1556h166v-1556h-166z" />
<glyph unicode="&#xb7;" horiz-adv-x="452" d="M92 535q0 53 38.5 91t96.5 38q57 0 95 -38t38 -91q0 -56 -37.5 -92.5t-95.5 -36.5t-96.5 36.5t-38.5 92.5z" />
<glyph unicode="&#xb8;" horiz-adv-x="1228" d="M401 -338l201 338h160l-133 -338h-228z" />
<glyph unicode="&#xb9;" horiz-adv-x="468" d="M23 1481v151l317 129h29v-768h-160v557z" />
<glyph unicode="&#xba;" horiz-adv-x="911" d="M61 1180q0 167 115.5 275t280.5 108q164 0 278.5 -108t114.5 -275q0 -170 -114 -277.5t-279 -107.5t-280.5 108t-115.5 277zM219 1180q0 -106 69 -175t169 -69t169.5 69t69.5 175q0 103 -70 173t-169 70t-168.5 -70t-69.5 -173z" />
<glyph unicode="&#xbb;" horiz-adv-x="907" d="M51 172l240 365l-240 364h213l240 -364l-240 -365h-213zM406 172l239 365l-239 364h210l240 -364l-240 -365h-210z" />
<glyph unicode="&#xbc;" horiz-adv-x="1392" d="M23 1276v151l317 129h29v-768h-160v558zM92 0l1016 1556h145l-1015 -1556h-146zM676 135v76l489 555h64v-502h127v-129h-127v-137h-148v137h-405zM893 264h188v217z" />
<glyph unicode="&#xbd;" horiz-adv-x="1470" d="M31 1276v151l317 129h27v-768h-158v558zM68 0l1015 1556h146l-1016 -1556h-145zM825 0v39l281 293q83 87 101 113q32 46 32 90q0 53 -34 84.5t-91 31.5q-60 0 -100 -45.5t-43 -118.5l-135 31q0 120 76.5 193t201.5 73t201 -66.5t76 -180.5q0 -39 -11.5 -74t-37.5 -70.5 t-51.5 -63.5t-69.5 -72l-21 -21l-94 -99h285v-137h-566z" />
<glyph unicode="&#xbe;" horiz-adv-x="1529" d="M55 1001l150 29q10 -57 50.5 -90t96.5 -33q61 0 101.5 33t40.5 90t-38 91t-98 34h-131l-8 21l178 241h-305l4 139h537v-49l-182 -233q88 -18 141 -81t53 -157q0 -117 -81 -189.5t-212 -72.5q-120 0 -202.5 65.5t-94.5 161.5zM256 0l1016 1556h145l-1016 -1556h-145z M811 135v76l489 555h64v-502h127v-129h-127v-137h-147v137h-406zM1028 264h189v217z" />
<glyph unicode="&#xbf;" horiz-adv-x="1081" d="M68 -106q0 178 110 286t293 127v240h197v-406h-123q-116 0 -192.5 -71.5t-76.5 -180.5q0 -108 75 -179.5t192 -71.5q122 0 197 70.5t87 193.5l203 -39q-9 -181 -141.5 -297.5t-345.5 -116.5q-209 0 -342 123t-133 322zM436 911q0 56 38.5 92.5t96.5 36.5t96 -36.5 t38 -92.5q0 -54 -38.5 -92.5t-95.5 -38.5t-96 39t-39 92z" />
<glyph unicode="&#xc0;" horiz-adv-x="1648" d="M10 0l727 1556h174l727 -1556h-245l-154 338h-829l-154 -338h-246zM500 539h649l-324 716zM514 1993h250l149 -291h-182z" />
<glyph unicode="&#xc1;" horiz-adv-x="1648" d="M10 0l727 1556h174l727 -1556h-245l-154 338h-829l-154 -338h-246zM500 539h649l-324 716zM743 1702l150 291h250l-217 -291h-183z" />
<glyph unicode="&#xc2;" horiz-adv-x="1648" d="M10 0l727 1556h174l727 -1556h-245l-154 338h-829l-154 -338h-246zM489 1694l236 299h203l237 -299h-215l-123 159l-125 -159h-213zM500 539h649l-324 716z" />
<glyph unicode="&#xc3;" horiz-adv-x="1648" d="M10 0l727 1556h174l727 -1556h-245l-154 338h-829l-154 -338h-246zM500 539h649l-324 716zM504 1747q0 66 18 114.5t48 74t63 37.5t69 12q55 0 98.5 -22.5t80 -44.5t73.5 -22q30 0 48 25.5t18 63.5h143q0 -67 -17 -116.5t-46.5 -75.5t-62.5 -38t-70 -12q-45 0 -82.5 13.5 t-59 29.5t-50 29.5t-58.5 13.5q-32 0 -50 -23t-18 -59h-145z" />
<glyph unicode="&#xc4;" horiz-adv-x="1648" d="M10 0l727 1556h174l727 -1556h-245l-154 338h-829l-154 -338h-246zM459 1845q0 53 38.5 92t96.5 39t96.5 -39t38.5 -92q0 -58 -38 -95.5t-97 -37.5t-97 37.5t-38 95.5zM500 539h649l-324 716zM924 1845q0 53 39 92t96 39t96 -39t39 -92q0 -58 -38 -95.5t-97 -37.5 t-97 37.5t-38 95.5z" />
<glyph unicode="&#xc5;" horiz-adv-x="1648" d="M10 0l727 1556h174l727 -1556h-245l-154 338h-829l-154 -338h-246zM500 539h649l-324 716zM598 1882q0 92 66 156.5t161 64.5q96 0 162 -64t66 -157q0 -91 -66 -155t-162 -64q-95 0 -161 64t-66 155zM725 1882q0 -39 29 -67.5t71 -28.5t71.5 28.5t29.5 67.5q0 40 -29 68 t-72 28q-42 0 -71 -28t-29 -68z" />
<glyph unicode="&#xc6;" horiz-adv-x="2367" d="M10 0l1137 1556h1096v-200h-863v-455h811v-196h-811v-506h869v-199h-1090v338h-651l-244 -338h-254zM653 539h506v698z" />
<glyph unicode="&#xc7;" horiz-adv-x="1748" d="M98 776q0 167 62 317t168.5 258t254.5 171t314 63q279 0 485 -160t269 -426l-213 -59q-52 209 -196.5 323.5t-344.5 114.5q-160 0 -292.5 -79t-209 -217.5t-76.5 -305.5q0 -166 76.5 -304t209 -217t292.5 -79q200 0 344.5 114t196.5 324l213 -45q-58 -264 -247 -423.5 t-452 -174.5l-121 -309h-227l187 313q-196 25 -354 136t-248.5 285.5t-90.5 379.5z" />
<glyph unicode="&#xc8;" horiz-adv-x="1419" d="M162 0v1556h1134v-200h-915v-475h893v-199h-893v-483h922v-199h-1141zM451 1993h249l150 -291h-182z" />
<glyph unicode="&#xc9;" horiz-adv-x="1419" d="M162 0v1556h1134v-200h-915v-475h893v-199h-893v-483h922v-199h-1141zM680 1702l149 291h250l-217 -291h-182z" />
<glyph unicode="&#xca;" horiz-adv-x="1419" d="M162 0v1556h1134v-200h-915v-475h893v-199h-893v-483h922v-199h-1141zM426 1694l236 299h202l238 -299h-215l-123 159l-125 -159h-213z" />
<glyph unicode="&#xcb;" horiz-adv-x="1419" d="M162 0v1556h1134v-200h-915v-475h893v-199h-893v-483h922v-199h-1141zM395 1845q0 53 38.5 92t96.5 39t97 -39t39 -92q0 -58 -38.5 -95.5t-97.5 -37.5t-97 37.5t-38 95.5zM860 1845q0 53 39 92t96 39t96 -39t39 -92q0 -58 -38 -95.5t-97 -37.5t-97 37.5t-38 95.5z" />
<glyph unicode="&#xcc;" horiz-adv-x="1132" d="M88 0v199h369v1159h-369v198h956v-198h-368v-1159h368v-199h-956zM262 1993h250l150 -291h-183z" />
<glyph unicode="&#xcd;" horiz-adv-x="1132" d="M88 0v199h369v1159h-369v198h956v-198h-368v-1159h368v-199h-956zM492 1702l149 291h250l-217 -291h-182z" />
<glyph unicode="&#xce;" horiz-adv-x="1132" d="M88 0v199h369v1159h-369v198h956v-198h-368v-1159h368v-199h-956zM236 1694l235 299h203l237 -299h-215l-123 159l-124 -159h-213z" />
<glyph unicode="&#xcf;" horiz-adv-x="1132" d="M88 0v199h369v1159h-369v198h956v-198h-368v-1159h368v-199h-956zM205 1845q0 53 38.5 92t96.5 39t96.5 -39t38.5 -92q0 -58 -38 -95.5t-97 -37.5t-97 37.5t-38 95.5zM670 1845q0 53 39 92t96 39t96 -39t39 -92q0 -58 -38 -95.5t-97 -37.5t-97 37.5t-38 95.5z" />
<glyph unicode="&#xd0;" horiz-adv-x="1746" d="M61 672v200h142v684h606q249 0 440 -96.5t295.5 -273.5t104.5 -408t-104.5 -408t-295.5 -273.5t-440 -96.5h-606v672h-142zM422 199h399q272 0 439 160t167 419q0 261 -167 420.5t-439 159.5h-399v-486h301v-200h-301v-473z" />
<glyph unicode="&#xd1;" horiz-adv-x="1746" d="M162 0v1556h155l1049 -813v813h219v-1556h-219v479l-983 742l-2 -1221h-219zM549 1747q0 66 18 114.5t48 74t63.5 37.5t69.5 12q43 0 80.5 -14t59 -30.5t51.5 -30.5t60 -14t48 25.5t18 63.5h143q0 -67 -17 -116.5t-46.5 -75.5t-62.5 -38t-70 -12q-45 0 -82.5 13.5 t-59 29.5t-50 29.5t-58.5 13.5q-32 0 -50 -23t-18 -59h-145z" />
<glyph unicode="&#xd2;" horiz-adv-x="1792" d="M98 774q0 167 62 317.5t168.5 258.5t255 171.5t313.5 63.5t313.5 -63.5t255 -171.5t168.5 -258.5t62 -317.5q0 -221 -105.5 -405.5t-289 -291t-404.5 -106.5t-404.5 106.5t-289 291t-105.5 405.5zM319 774q0 -167 76.5 -304t209 -214.5t292.5 -77.5t292.5 77.5t209 214.5 t76.5 304q0 168 -76.5 307t-209 218t-292.5 79t-292.5 -79t-209 -218t-76.5 -307zM586 1993h250l149 -291h-182z" />
<glyph unicode="&#xd3;" horiz-adv-x="1792" d="M98 774q0 167 62 317.5t168.5 258.5t255 171.5t313.5 63.5t313.5 -63.5t255 -171.5t168.5 -258.5t62 -317.5q0 -221 -105.5 -405.5t-289 -291t-404.5 -106.5t-404.5 106.5t-289 291t-105.5 405.5zM319 774q0 -167 76.5 -304t209 -214.5t292.5 -77.5t292.5 77.5t209 214.5 t76.5 304q0 168 -76.5 307t-209 218t-292.5 79t-292.5 -79t-209 -218t-76.5 -307zM815 1702l150 291h249l-217 -291h-182z" />
<glyph unicode="&#xd4;" horiz-adv-x="1792" d="M98 774q0 167 62 317.5t168.5 258.5t255 171.5t313.5 63.5t313.5 -63.5t255 -171.5t168.5 -258.5t62 -317.5q0 -221 -105.5 -405.5t-289 -291t-404.5 -106.5t-404.5 106.5t-289 291t-105.5 405.5zM319 774q0 -167 76.5 -304t209 -214.5t292.5 -77.5t292.5 77.5t209 214.5 t76.5 304q0 168 -76.5 307t-209 218t-292.5 79t-292.5 -79t-209 -218t-76.5 -307zM561 1694l236 299h202l238 -299h-215l-123 159l-125 -159h-213z" />
<glyph unicode="&#xd5;" horiz-adv-x="1792" d="M98 774q0 167 62 317.5t168.5 258.5t255 171.5t313.5 63.5t313.5 -63.5t255 -171.5t168.5 -258.5t62 -317.5q0 -221 -105.5 -405.5t-289 -291t-404.5 -106.5t-404.5 106.5t-289 291t-105.5 405.5zM319 774q0 -167 76.5 -304t209 -214.5t292.5 -77.5t292.5 77.5t209 214.5 t76.5 304q0 168 -76.5 307t-209 218t-292.5 79t-292.5 -79t-209 -218t-76.5 -307zM575 1747q0 66 18 114.5t48 74t63.5 37.5t69.5 12q55 0 98.5 -22.5t80 -44.5t73.5 -22q30 0 48 25.5t18 63.5h143q0 -67 -17.5 -116.5t-47 -75.5t-62.5 -38t-70 -12q-45 0 -82.5 13.5 t-59 29.5t-50 29.5t-58.5 13.5q-31 0 -49 -23t-18 -59h-146z" />
<glyph unicode="&#xd6;" horiz-adv-x="1792" d="M98 774q0 167 62 317.5t168.5 258.5t255 171.5t313.5 63.5t313.5 -63.5t255 -171.5t168.5 -258.5t62 -317.5q0 -221 -105.5 -405.5t-289 -291t-404.5 -106.5t-404.5 106.5t-289 291t-105.5 405.5zM319 774q0 -167 76.5 -304t209 -214.5t292.5 -77.5t292.5 77.5t209 214.5 t76.5 304q0 168 -76.5 307t-209 218t-292.5 79t-292.5 -79t-209 -218t-76.5 -307zM530 1845q0 53 39 92t97 39t96.5 -39t38.5 -92q0 -58 -38 -95.5t-97 -37.5t-97.5 37.5t-38.5 95.5zM995 1845q0 53 38.5 92t96.5 39t97 -39t39 -92q0 -58 -38.5 -95.5t-97.5 -37.5t-97 37.5 t-38 95.5z" />
<glyph unicode="&#xd7;" horiz-adv-x="1103" d="M133 344l283 281l-283 282l135 135l285 -282l283 282l135 -135l-283 -282l283 -281l-135 -137l-283 282l-285 -282z" />
<glyph unicode="&#xd8;" horiz-adv-x="1792" d="M98 774q0 167 62 317.5t168.5 258.5t255 171.5t313.5 63.5q263 0 469 -151l139 153l131 -125l-137 -151q94 -107 145.5 -245.5t51.5 -291.5q0 -221 -105.5 -405.5t-289 -291t-404.5 -106.5q-265 0 -475 154l-139 -154l-131 123l139 154q-92 106 -142.5 241t-50.5 285z M319 774q0 -208 117 -366l787 868q-142 102 -326 102q-160 0 -292.5 -79t-209 -218t-76.5 -307zM565 283q150 -105 332 -105q160 0 292.5 77.5t209 214.5t76.5 304q0 215 -121 377z" />
<glyph unicode="&#xd9;" horiz-adv-x="1638" d="M147 684v872h220v-872q0 -228 124 -366t328 -138q199 0 321 138t122 366v872h221v-872q0 -321 -183 -518t-481 -197q-302 0 -487 197t-185 518zM502 1993h250l149 -291h-182z" />
<glyph unicode="&#xda;" horiz-adv-x="1638" d="M147 684v872h220v-872q0 -228 124 -366t328 -138q199 0 321 138t122 366v872h221v-872q0 -321 -183 -518t-481 -197q-302 0 -487 197t-185 518zM731 1702l150 291h249l-217 -291h-182z" />
<glyph unicode="&#xdb;" horiz-adv-x="1638" d="M147 684v872h220v-872q0 -228 124 -366t328 -138q199 0 321 138t122 366v872h221v-872q0 -321 -183 -518t-481 -197q-302 0 -487 197t-185 518zM477 1694l236 299h202l238 -299h-215l-123 159l-125 -159h-213z" />
<glyph unicode="&#xdc;" horiz-adv-x="1638" d="M147 684v872h220v-872q0 -228 124 -366t328 -138q199 0 321 138t122 366v872h221v-872q0 -321 -183 -518t-481 -197q-302 0 -487 197t-185 518zM446 1845q0 53 39 92t97 39t96.5 -39t38.5 -92q0 -58 -38 -95.5t-97 -37.5t-97.5 37.5t-38.5 95.5zM911 1845q0 53 39 92 t97 39q57 0 96 -39t39 -92q0 -58 -38 -95.5t-97 -37.5t-97.5 37.5t-38.5 95.5z" />
<glyph unicode="&#xdd;" horiz-adv-x="1568" d="M27 1556h243l510 -825l510 825h252l-651 -1052v-504h-221v504zM702 1702l150 291h250l-217 -291h-183z" />
<glyph unicode="&#xde;" horiz-adv-x="1290" d="M162 0v1556h219v-344h377q217 0 348 -114t131 -310q0 -195 -131 -309t-348 -114h-377v-365h-219zM381 563h367q124 0 197 59.5t73 165.5q0 107 -72.5 166.5t-197.5 59.5h-367v-451z" />
<glyph unicode="&#xdf;" horiz-adv-x="1470" d="M162 0v1294q0 169 102.5 269t272.5 100q93 0 174 -37l-52 -174q-61 23 -108 23q-80 0 -128 -48.5t-48 -132.5v-278h983v-41l-451 -559q226 -5 364 -136t138 -346q0 -232 -157 -380t-396 -148q-183 0 -327 89.5t-203 250.5l198 86q39 -109 131 -171t203 -62 q142 0 244 93.5t102 233.5q0 135 -91 221t-234 86h-289l-17 52l439 555h-637v-840h-213z" />
<glyph unicode="&#xe0;" d="M74 508q0 116 41.5 217.5t111 170.5t161 108.5t190.5 39.5q226 0 368 -145v117h215v-1016h-215v115q-144 -144 -368 -144q-99 0 -190 39t-161 108t-111.5 171t-41.5 219zM283 508q0 -158 94 -253t235 -95q134 0 234 96.5t100 251.5q0 103 -48.5 184t-124 122.5 t-161.5 41.5q-141 0 -235 -95.5t-94 -252.5zM330 1530h250l149 -291h-182z" />
<glyph unicode="&#xe1;" d="M74 508q0 116 41.5 217.5t111 170.5t161 108.5t190.5 39.5q226 0 368 -145v117h215v-1016h-215v115q-144 -144 -368 -144q-99 0 -190 39t-161 108t-111.5 171t-41.5 219zM283 508q0 -158 94 -253t235 -95q134 0 234 96.5t100 251.5q0 103 -48.5 184t-124 122.5 t-161.5 41.5q-141 0 -235 -95.5t-94 -252.5zM559 1239l150 291h249l-217 -291h-182z" />
<glyph unicode="&#xe2;" d="M74 508q0 116 41.5 217.5t111 170.5t161 108.5t190.5 39.5q226 0 368 -145v117h215v-1016h-215v115q-144 -144 -368 -144q-99 0 -190 39t-161 108t-111.5 171t-41.5 219zM283 508q0 -158 94 -253t235 -95q134 0 234 96.5t100 251.5q0 103 -48.5 184t-124 122.5 t-161.5 41.5q-141 0 -235 -95.5t-94 -252.5zM305 1231l236 299h202l238 -299h-215l-123 160l-125 -160h-213z" />
<glyph unicode="&#xe3;" d="M74 508q0 116 41.5 217.5t111 170.5t161 108.5t190.5 39.5q226 0 368 -145v117h215v-1016h-215v115q-144 -144 -368 -144q-99 0 -190 39t-161 108t-111.5 171t-41.5 219zM283 508q0 -158 94 -253t235 -95q134 0 234 96.5t100 251.5q0 103 -48.5 184t-124 122.5 t-161.5 41.5q-141 0 -235 -95.5t-94 -252.5zM319 1282q0 66 18 114.5t48 74t63.5 37.5t69.5 12q43 0 80.5 -14t59.5 -30t52 -30t60 -14t48 25t18 63h143q0 -67 -17.5 -116.5t-47 -75.5t-62.5 -38t-70 -12q-45 0 -82.5 13.5t-59 29.5t-50 29.5t-58.5 13.5q-31 0 -49 -23 t-18 -59h-146z" />
<glyph unicode="&#xe4;" d="M74 508q0 116 41.5 217.5t111 170.5t161 108.5t190.5 39.5q226 0 368 -145v117h215v-1016h-215v115q-144 -144 -368 -144q-99 0 -190 39t-161 108t-111.5 171t-41.5 219zM274 1382q0 53 39 92t97 39t96.5 -38.5t38.5 -92.5q0 -58 -38 -95.5t-97 -37.5t-97.5 37.5 t-38.5 95.5zM283 508q0 -158 94 -253t235 -95q134 0 234 96.5t100 251.5q0 103 -48.5 184t-124 122.5t-161.5 41.5q-141 0 -235 -95.5t-94 -252.5zM739 1382q0 54 38.5 92.5t96.5 38.5t97 -39t39 -92q0 -58 -38.5 -95.5t-97.5 -37.5t-97 37.5t-38 95.5z" />
<glyph unicode="&#xe5;" d="M74 508q0 116 41.5 217.5t111 170.5t161 108.5t190.5 39.5q226 0 368 -145v117h215v-1016h-215v115q-144 -144 -368 -144q-99 0 -190 39t-161 108t-111.5 171t-41.5 219zM283 508q0 -158 94 -253t235 -95q134 0 234 96.5t100 251.5q0 103 -48.5 184t-124 122.5 t-161.5 41.5q-141 0 -235 -95.5t-94 -252.5zM414 1417q0 92 66 156.5t161 64.5q96 0 161.5 -64t65.5 -157q0 -91 -65.5 -155t-161.5 -64q-95 0 -161 64t-66 155zM541 1417q0 -39 29 -67.5t71 -28.5t71 28.5t29 67.5q0 40 -29 68t-71 28t-71 -28t-29 -68z" />
<glyph unicode="&#xe6;" horiz-adv-x="1871" d="M74 289q0 136 106.5 218.5t280.5 82.5h338v61q0 97 -63.5 155t-168.5 58q-96 0 -160.5 -49t-76.5 -133l-197 43q17 140 137 229.5t299 89.5q117 0 209 -41t148 -118q70 76 165 117.5t201 41.5q104 0 197 -39.5t161 -108.5t107.5 -169t40.5 -217v-74h-803 q20 -131 103 -205.5t205 -74.5q81 0 158.5 41.5t119.5 132.5l191 -41q-40 -140 -172.5 -229t-303.5 -89q-129 0 -233.5 54t-173.5 151q-66 -92 -180 -148.5t-254 -56.5q-181 0 -281 90t-100 228zM279 295q0 -68 55 -110t145 -42q127 0 223.5 79.5t96.5 191.5v22h-338 q-84 0 -133 -37.5t-49 -103.5zM995 590h588q-21 130 -97.5 201t-185.5 71q-73 0 -136.5 -29.5t-110.5 -93t-58 -149.5z" />
<glyph unicode="&#xe7;" horiz-adv-x="1193" d="M74 508q0 154 74 277.5t198.5 191t274.5 67.5q180 0 319 -99t190 -265l-204 -59q-32 112 -113 171.5t-192 59.5q-147 0 -242.5 -97t-95.5 -247q0 -151 95 -247.5t243 -96.5q111 0 193 58.5t120 170.5l196 -51q-39 -148 -156.5 -245.5t-275.5 -119.5l-125 -315h-227 l189 318q-199 28 -330 173t-131 355z" />
<glyph unicode="&#xe8;" horiz-adv-x="1181" d="M74 506q0 119 42 220.5t113.5 170.5t167.5 108t203 39q135 0 249 -64t184 -182.5t75 -267.5v-73h-823q15 -137 103 -219t204 -82q97 0 173 38.5t126 137.5l190 -41q-62 -157 -189.5 -238.5t-299.5 -81.5q-138 0 -256 65.5t-190 189.5t-72 280zM291 608h598 q-24 121 -102.5 184.5t-186.5 63.5q-107 0 -196 -65.5t-113 -182.5zM291 1530h250l149 -291h-182z" />
<glyph unicode="&#xe9;" horiz-adv-x="1181" d="M74 506q0 119 42 220.5t113.5 170.5t167.5 108t203 39q135 0 249 -64t184 -182.5t75 -267.5v-73h-823q15 -137 103 -219t204 -82q97 0 173 38.5t126 137.5l190 -41q-62 -157 -189.5 -238.5t-299.5 -81.5q-138 0 -256 65.5t-190 189.5t-72 280zM291 608h598 q-24 121 -102.5 184.5t-186.5 63.5q-107 0 -196 -65.5t-113 -182.5zM520 1239l150 291h250l-218 -291h-182z" />
<glyph unicode="&#xea;" horiz-adv-x="1181" d="M74 506q0 119 42 220.5t113.5 170.5t167.5 108t203 39q135 0 249 -64t184 -182.5t75 -267.5v-73h-823q15 -137 103 -219t204 -82q97 0 173 38.5t126 137.5l190 -41q-62 -157 -189.5 -238.5t-299.5 -81.5q-138 0 -256 65.5t-190 189.5t-72 280zM266 1231l236 299h203 l237 -299h-215l-123 160l-125 -160h-213zM291 608h598q-24 121 -102.5 184.5t-186.5 63.5q-107 0 -196 -65.5t-113 -182.5z" />
<glyph unicode="&#xeb;" horiz-adv-x="1181" d="M74 506q0 119 42 220.5t113.5 170.5t167.5 108t203 39q135 0 249 -64t184 -182.5t75 -267.5v-73h-823q15 -137 103 -219t204 -82q97 0 173 38.5t126 137.5l190 -41q-62 -157 -189.5 -238.5t-299.5 -81.5q-138 0 -256 65.5t-190 189.5t-72 280zM236 1382q0 54 39 92.5 t96 38.5t96 -38.5t39 -92.5q0 -58 -38 -95.5t-97 -37.5t-97 37.5t-38 95.5zM291 608h598q-24 121 -102.5 184.5t-186.5 63.5q-107 0 -196 -65.5t-113 -182.5zM700 1382q0 53 39 92t97 39t96.5 -38.5t38.5 -92.5q0 -58 -38 -95.5t-97 -37.5t-97.5 37.5t-38.5 95.5z" />
<glyph unicode="&#xec;" horiz-adv-x="587" d="M-16 1530h249l150 -291h-182zM188 0v1016h213v-1016h-213z" />
<glyph unicode="&#xed;" horiz-adv-x="587" d="M188 0v1016h213v-1016h-213zM213 1239l149 291h250l-217 -291h-182z" />
<glyph unicode="&#xee;" horiz-adv-x="587" d="M-41 1231l236 299h202l238 -299h-215l-123 160l-125 -160h-213zM188 0v1016h213v-1016h-213z" />
<glyph unicode="&#xef;" horiz-adv-x="587" d="M-72 1382q0 54 38 92.5t97 38.5q58 0 97 -39t39 -92q0 -58 -38.5 -95.5t-97.5 -37.5q-60 0 -97.5 37t-37.5 96zM188 0v1016h213v-1016h-213zM393 1382q0 54 38.5 92.5t96.5 38.5t97 -39t39 -92q0 -58 -38.5 -95.5t-97.5 -37.5t-97 37.5t-38 95.5z" />
<glyph unicode="&#xf0;" horiz-adv-x="1241" d="M74 508q0 115 44.5 216.5t118.5 171t170.5 109t198.5 39.5q141 0 248 -65q-73 152 -209 285l-283 -119l-61 149l213 90q-156 122 -340 209v45h340q104 -52 215 -163l184 77l62 -149l-133 -55q142 -183 232.5 -402t90.5 -416q0 -110 -30 -202.5t-82 -157.5t-121 -110.5 t-146 -67t-159 -21.5q-148 0 -274 66.5t-202.5 191t-76.5 279.5zM283 510q0 -154 101 -252t245 -98q62 0 116 21t91.5 56t64.5 80.5t40 95.5t13 101q0 147 -99 244.5t-239 97.5q-139 0 -236 -97.5t-97 -248.5z" />
<glyph unicode="&#xf1;" horiz-adv-x="1269" d="M162 0v1016h213v-125q128 153 352 153q182 0 295 -119.5t113 -310.5v-614h-215v571q0 124 -66.5 200.5t-175.5 76.5q-141 0 -222 -96t-81 -283v-469h-213zM328 1282q0 66 18 114.5t48 74t63 37.5t69 12q43 0 80.5 -14t59.5 -30t52 -30t60 -14t48 25t18 63h143 q0 -67 -17 -116.5t-46.5 -75.5t-62.5 -38t-70 -12q-45 0 -82.5 13.5t-59 29.5t-50 29.5t-58.5 13.5q-32 0 -50 -23t-18 -59h-145z" />
<glyph unicode="&#xf2;" horiz-adv-x="1245" d="M74 508q0 154 74 277.5t199.5 191t277.5 67.5q150 0 274.5 -67.5t198 -191t73.5 -277.5t-73.5 -277.5t-198 -191.5t-274.5 -68q-152 0 -277.5 68t-199.5 191.5t-74 277.5zM283 508q0 -155 99 -251.5t243 -96.5q142 0 241 97t99 251t-99 251t-241 97q-144 0 -243 -96.5 t-99 -251.5zM313 1530h250l150 -291h-183z" />
<glyph unicode="&#xf3;" horiz-adv-x="1245" d="M74 508q0 154 74 277.5t199.5 191t277.5 67.5q150 0 274.5 -67.5t198 -191t73.5 -277.5t-73.5 -277.5t-198 -191.5t-274.5 -68q-152 0 -277.5 68t-199.5 191.5t-74 277.5zM283 508q0 -155 99 -251.5t243 -96.5q142 0 241 97t99 251t-99 251t-241 97q-144 0 -243 -96.5 t-99 -251.5zM543 1239l149 291h250l-217 -291h-182z" />
<glyph unicode="&#xf4;" horiz-adv-x="1245" d="M74 508q0 154 74 277.5t199.5 191t277.5 67.5q150 0 274.5 -67.5t198 -191t73.5 -277.5t-73.5 -277.5t-198 -191.5t-274.5 -68q-152 0 -277.5 68t-199.5 191.5t-74 277.5zM283 508q0 -155 99 -251.5t243 -96.5q142 0 241 97t99 251t-99 251t-241 97q-144 0 -243 -96.5 t-99 -251.5zM289 1231l235 299h203l238 -299h-215l-123 160l-125 -160h-213z" />
<glyph unicode="&#xf5;" horiz-adv-x="1245" d="M74 508q0 154 74 277.5t199.5 191t277.5 67.5q150 0 274.5 -67.5t198 -191t73.5 -277.5t-73.5 -277.5t-198 -191.5t-274.5 -68q-152 0 -277.5 68t-199.5 191.5t-74 277.5zM283 508q0 -155 99 -251.5t243 -96.5q142 0 241 97t99 251t-99 251t-241 97q-144 0 -243 -96.5 t-99 -251.5zM303 1282q0 66 18 114.5t48 74t63.5 37.5t69.5 12q43 0 80.5 -14t59.5 -30t52 -30t60 -14t47.5 25t17.5 63h144q0 -67 -17.5 -116.5t-47 -75.5t-62.5 -38t-70 -12q-45 0 -82.5 13.5t-59 29.5t-50 29.5t-58.5 13.5q-31 0 -49 -23t-18 -59h-146z" />
<glyph unicode="&#xf6;" horiz-adv-x="1245" d="M74 508q0 154 74 277.5t199.5 191t277.5 67.5q150 0 274.5 -67.5t198 -191t73.5 -277.5t-73.5 -277.5t-198 -191.5t-274.5 -68q-152 0 -277.5 68t-199.5 191.5t-74 277.5zM258 1382q0 54 39 92.5t96 38.5t96 -38.5t39 -92.5q0 -58 -38 -95.5t-97 -37.5t-97 37.5t-38 95.5 zM283 508q0 -155 99 -251.5t243 -96.5q142 0 241 97t99 251t-99 251t-241 97q-144 0 -243 -96.5t-99 -251.5zM723 1382q0 54 38.5 92.5t96.5 38.5t96.5 -38.5t38.5 -92.5q0 -58 -38 -95.5t-97 -37.5t-97 37.5t-38 95.5z" />
<glyph unicode="&#xf7;" horiz-adv-x="1187" d="M133 530v189h922v-189h-922zM453 262q0 54 38 92.5t95 38.5q58 0 96.5 -38.5t38.5 -92.5q0 -56 -38.5 -92.5t-96.5 -36.5t-95.5 36.5t-37.5 92.5zM453 987q0 54 38 92.5t95 38.5q58 0 96.5 -39t38.5 -92q0 -54 -38.5 -91.5t-96.5 -37.5t-95.5 37t-37.5 92z" />
<glyph unicode="&#xf8;" horiz-adv-x="1234" d="M74 84l102 102q-102 142 -102 322q0 154 74 277.5t199.5 191t277.5 67.5q179 0 315 -94l104 105l121 -121l-100 -100q106 -137 106 -326q0 -154 -73.5 -277.5t-198 -191.5t-274.5 -68q-180 0 -326 97l-104 -105zM283 508q0 -100 41 -174l475 475q-77 47 -174 47 q-144 0 -243 -96.5t-99 -251.5zM440 209q84 -49 185 -49q142 0 241 97t99 251q0 101 -45 180z" />
<glyph unicode="&#xf9;" horiz-adv-x="1269" d="M137 403v613h213v-570q0 -125 67 -201.5t177 -76.5q141 0 221 96t80 283v469h213v-1016h-213v125q-129 -154 -350 -154q-184 0 -296 119.5t-112 312.5zM315 1530h250l150 -291h-183z" />
<glyph unicode="&#xfa;" horiz-adv-x="1269" d="M137 403v613h213v-570q0 -125 67 -201.5t177 -76.5q141 0 221 96t80 283v469h213v-1016h-213v125q-129 -154 -350 -154q-184 0 -296 119.5t-112 312.5zM545 1239l149 291h250l-217 -291h-182z" />
<glyph unicode="&#xfb;" horiz-adv-x="1269" d="M137 403v613h213v-570q0 -125 67 -201.5t177 -76.5q141 0 221 96t80 283v469h213v-1016h-213v125q-129 -154 -350 -154q-184 0 -296 119.5t-112 312.5zM291 1231l235 299h203l238 -299h-215l-123 160l-125 -160h-213z" />
<glyph unicode="&#xfc;" horiz-adv-x="1269" d="M137 403v613h213v-570q0 -125 67 -201.5t177 -76.5q141 0 221 96t80 283v469h213v-1016h-213v125q-129 -154 -350 -154q-184 0 -296 119.5t-112 312.5zM260 1382q0 54 39 92.5t96 38.5t96 -38.5t39 -92.5q0 -58 -38 -95.5t-97 -37.5t-97 37.5t-38 95.5zM725 1382 q0 54 38.5 92.5t96.5 38.5t96.5 -38.5t38.5 -92.5q0 -58 -38 -95.5t-97 -37.5t-97 37.5t-38 95.5z" />
<glyph unicode="&#xfd;" horiz-adv-x="1269" d="M104 -350l177 143q60 -92 131.5 -135t183.5 -43q131 0 215 81.5t84 199.5v229q-129 -154 -350 -154q-184 0 -296 119.5t-112 310.5v615h213v-572q0 -125 67 -200.5t177 -75.5q141 0 221 96t80 283v469h213v-1151q0 -198 -142.5 -328.5t-369.5 -130.5q-177 0 -302.5 64 t-189.5 180zM557 1249l150 291h249l-217 -291h-182z" />
<glyph unicode="&#xfe;" d="M162 -573v2211h213v-739q139 145 368 145q99 0 191 -39.5t161 -108.5t110.5 -170.5t41.5 -217.5q0 -118 -41.5 -219.5t-111 -170.5t-161 -108t-190.5 -39q-228 0 -368 146v-690h-213zM375 508q0 -103 49 -184.5t124.5 -122.5t160.5 -41q143 0 237 95t94 253 q0 157 -94.5 252.5t-236.5 95.5q-133 0 -233.5 -97.5t-100.5 -250.5z" />
<glyph unicode="&#xff;" horiz-adv-x="1269" d="M104 -350l177 143q60 -92 131.5 -135t183.5 -43q131 0 215 81.5t84 199.5v229q-129 -154 -350 -154q-184 0 -296 119.5t-112 310.5v615h213v-572q0 -125 67 -200.5t177 -75.5q141 0 221 96t80 283v469h213v-1151q0 -198 -142.5 -328.5t-369.5 -130.5q-177 0 -302.5 64 t-189.5 180zM272 1393q0 53 39 92t97 39t96.5 -39t38.5 -92q0 -58 -38 -95.5t-97 -37.5t-97.5 37.5t-38.5 95.5zM737 1393q0 53 38.5 92t96.5 39t97 -39t39 -92q0 -58 -38.5 -95.5t-97.5 -37.5t-97 37.5t-38 95.5z" />
<glyph unicode="&#x152;" horiz-adv-x="2279" d="M98 780q0 172 62.5 317t175.5 246t274.5 157t354.5 56h1192v-200h-865v-455h813v-196h-813v-506h871v-199h-1198q-257 0 -454 96.5t-305 274t-108 409.5zM319 780q0 -261 178 -421t468 -160h108v1159h-108q-290 0 -468 -159t-178 -419z" />
<glyph unicode="&#x153;" horiz-adv-x="2074" d="M74 508q0 154 74 277.5t199.5 191t277.5 67.5q136 0 252 -56.5t190 -158.5q72 101 184.5 158t241.5 57q135 0 249 -64t184 -182.5t75 -267.5v-73h-823q15 -137 103 -219t206 -82q208 0 299 176l190 -41q-64 -157 -191 -238.5t-298 -81.5q-127 0 -237.5 56.5t-182.5 156.5 q-76 -101 -191.5 -157t-250.5 -56q-152 0 -277.5 68t-199.5 191.5t-74 277.5zM283 508q0 -155 99 -251.5t243 -96.5q142 0 241 97t99 251t-99 251t-241 97q-144 0 -243 -96.5t-99 -251.5zM1184 608h600q-24 120 -103 184t-188 64q-107 0 -196 -65.5t-113 -182.5z" />
<glyph unicode="&#x178;" horiz-adv-x="1568" d="M27 1556h243l510 -825l510 825h252l-651 -1052v-504h-221v504zM418 1845q0 53 39 92t96 39t96 -39t39 -92q0 -58 -38 -95.5t-97 -37.5t-97 37.5t-38 95.5zM883 1845q0 53 38.5 92t96.5 39t96.5 -39t38.5 -92q0 -58 -38 -95.5t-97 -37.5t-97 37.5t-38 95.5z" />
<glyph unicode="&#x2c6;" horiz-adv-x="1228" d="M279 1153l235 299h203l237 -299h-215l-123 160l-124 -160h-213z" />
<glyph unicode="&#x2dc;" horiz-adv-x="1228" d="M295 1206q0 66 18 114.5t48 74t63.5 37.5t69.5 12q43 0 80.5 -14t59 -30t51.5 -30t60 -14t48 25t18 63h143q0 -67 -17 -116.5t-46.5 -75.5t-62.5 -38t-70 -12q-45 0 -82.5 13.5t-59 29.5t-50 29.5t-58.5 13.5q-32 0 -50 -23t-18 -59h-145z" />
<glyph unicode="&#x2000;" horiz-adv-x="1051" />
<glyph unicode="&#x2001;" horiz-adv-x="2103" />
<glyph unicode="&#x2002;" horiz-adv-x="1051" />
<glyph unicode="&#x2003;" horiz-adv-x="2103" />
<glyph unicode="&#x2004;" horiz-adv-x="701" />
<glyph unicode="&#x2005;" horiz-adv-x="525" />
<glyph unicode="&#x2006;" horiz-adv-x="350" />
<glyph unicode="&#x2007;" horiz-adv-x="350" />
<glyph unicode="&#x2008;" horiz-adv-x="262" />
<glyph unicode="&#x2009;" horiz-adv-x="420" />
<glyph unicode="&#x200a;" horiz-adv-x="116" />
<glyph unicode="&#x2010;" horiz-adv-x="913" d="M123 430v184h668v-184h-668z" />
<glyph unicode="&#x2011;" horiz-adv-x="913" d="M123 430v184h668v-184h-668z" />
<glyph unicode="&#x2012;" horiz-adv-x="913" d="M123 430v184h668v-184h-668z" />
<glyph unicode="&#x2013;" horiz-adv-x="1269" d="M123 440v164h1024v-164h-1024z" />
<glyph unicode="&#x2014;" horiz-adv-x="2560" d="M123 440v164h2314v-164h-2314z" />
<glyph unicode="&#x2018;" horiz-adv-x="544" d="M84 1014v4l215 538h162l-129 -542h-248z" />
<glyph unicode="&#x2019;" horiz-adv-x="544" d="M84 1014l129 542h248v-6l-213 -536h-164z" />
<glyph unicode="&#x201a;" horiz-adv-x="544" d="M84 -270l129 544h248v-6l-213 -538h-164z" />
<glyph unicode="&#x201c;" horiz-adv-x="909" d="M84 1014v4l215 538h162l-129 -542h-248zM449 1014v4l215 538h161l-129 -542h-247z" />
<glyph unicode="&#x201d;" horiz-adv-x="909" d="M84 1014l129 542h248v-6l-213 -536h-164zM449 1014l129 542h247v-6l-215 -536h-161z" />
<glyph unicode="&#x201e;" horiz-adv-x="909" d="M84 -270l129 544h248v-6l-213 -538h-164zM449 -270l129 544h247v-6l-215 -538h-161z" />
<glyph unicode="&#x2022;" horiz-adv-x="839" d="M92 535q0 128 94.5 222.5t233.5 94.5t233.5 -94.5t94.5 -222.5q0 -135 -93.5 -225.5t-234.5 -90.5t-234.5 90.5t-93.5 225.5z" />
<glyph unicode="&#x2026;" horiz-adv-x="1456" d="M92 123q0 53 38.5 91t96.5 38q57 0 95 -38t38 -91q0 -56 -37.5 -93.5t-95.5 -37.5t-96.5 37.5t-38.5 93.5zM594 123q0 53 38.5 91t96.5 38q57 0 95 -38t38 -91q0 -56 -37.5 -93.5t-95.5 -37.5t-96.5 37.5t-38.5 93.5zM1096 123q0 53 38.5 91t96.5 38q57 0 95 -38t38 -91 q0 -56 -37.5 -93.5t-95.5 -37.5t-96.5 37.5t-38.5 93.5z" />
<glyph unicode="&#x202f;" horiz-adv-x="420" />
<glyph unicode="&#x2039;" horiz-adv-x="555" d="M51 537l240 364h213l-240 -364l240 -365h-213z" />
<glyph unicode="&#x203a;" horiz-adv-x="555" d="M51 172l240 365l-240 364h213l240 -364l-240 -365h-213z" />
<glyph unicode="&#x205f;" horiz-adv-x="525" />
<glyph unicode="&#x20ac;" horiz-adv-x="2052" d="M162 541v157h244q-5 63 -5 78q0 47 2 70h-241v158h270q73 258 284 419.5t486 161.5q279 0 485 -160t269 -426l-213 -59q-52 209 -196.5 323.5t-344.5 114.5q-184 0 -328 -102.5t-208 -271.5h737l-41 -158h-733q-4 -46 -4 -70q0 -28 4 -78h690l-41 -157h-608 q65 -165 208 -265t324 -100q200 0 344.5 114t196.5 324l213 -45q-62 -278 -267.5 -439t-486.5 -161q-272 0 -483 159.5t-285 412.5h-272z" />
<glyph unicode="&#x2122;" horiz-adv-x="1349" d="M74 1450v106h489v-106h-182v-444h-127v444h-180zM641 1006v550h121l186 -274l187 274h118v-550h-118v348l-150 -221h-76l-149 221v-348h-119z" />
<glyph unicode="&#x25fc;" horiz-adv-x="1013" d="M0 0v1014h1014v-1014h-1014z" />
<glyph unicode="&#xfb03;" horiz-adv-x="1941" d="M0 840v176h207v184q0 212 129.5 339.5t343.5 127.5q94 0 175.5 -29.5t166.5 -93.5q126 123 338 123q99 0 186 -33.5t178 -105.5l-92 -166q-133 115 -272 115q-118 0 -189 -75t-71 -202v-184h694v-1016h-215v840h-479v-840h-213v840h-467v-840h-213v840h-207zM420 1016 h467v184q0 98 33 189q-114 88 -240 88q-118 0 -189 -75t-71 -202v-184z" />
<glyph unicode="&#xfb04;" horiz-adv-x="2082" d="M0 840v176h207v184q0 212 129.5 339.5t343.5 127.5q184 0 350 -127q130 127 344 127q105 0 195 -37v8h213v-1347q0 -53 36.5 -86t94.5 -33q52 0 123 31l41 -178q-99 -54 -201 -54q-138 0 -222.5 85t-84.5 223v561h-457v-840h-213v840h-479v-840h-213v840h-207zM420 1016 h479v184q0 98 31 180q-121 97 -250 97q-118 0 -189 -75t-71 -202v-184zM1112 1016h457v403q-94 58 -195 58q-119 0 -190.5 -75t-71.5 -202v-184z" />
</font>
</defs>
</svg>
