<?xml version="1.0" standalone="no"?>
<!DOCTYPE svg PUBLIC "-//W3C//DTD SVG 1.1//EN" "http://www.w3.org/Graphics/SVG/1.1/DTD/svg11.dtd" >
<svg xmlns="http://www.w3.org/2000/svg" xmlns:xlink="http://www.w3.org/1999/xlink" version="1.1">
<metadata></metadata>
<defs>
<font id="galano_classic_altregular" horiz-adv-x="1329" >
<font-face units-per-em="2048" ascent="1638" descent="-410" />
<missing-glyph horiz-adv-x="516" />
<glyph unicode="&#xfb01;" horiz-adv-x="1230" d="M0 879v131h217v211q0 203 120.5 323.5t319.5 120.5q98 0 182.5 -33.5t172.5 -105.5l-72 -121q-72 63 -139 91t-144 28q-130 0 -207 -81.5t-77 -221.5v-211h690v-1010h-158v879h-532v-879h-156v879h-217z" />
<glyph unicode="&#xfb02;" horiz-adv-x="1361" d="M0 879v131h217v211q0 203 120.5 323.5t319.5 120.5q126 0 226 -53v26h157v-1380q0 -61 39.5 -98t104.5 -37q57 0 121 33l32 -131q-88 -52 -180 -52q-123 0 -198.5 76.5t-75.5 200.5v629h-510v-879h-156v879h-217zM373 1010h510v440q-107 74 -226 74q-130 0 -207 -81.5 t-77 -221.5v-211z" />
<glyph horiz-adv-x="0" />
<glyph horiz-adv-x="682" />
<glyph unicode=" "  horiz-adv-x="516" />
<glyph unicode="&#x09;" horiz-adv-x="516" />
<glyph unicode="&#xa0;" horiz-adv-x="516" />
<glyph unicode="!" horiz-adv-x="550" d="M170 96q0 42 30.5 73.5t75.5 31.5t76 -31.5t31 -73.5q0 -43 -30.5 -72.5t-76.5 -29.5q-45 0 -75.5 29.5t-30.5 72.5zM193 1485v71h169v-71l-6 -1024h-159z" />
<glyph unicode="&#x22;" horiz-adv-x="692" d="M113 987v569h159v-569h-159zM420 987v569h160v-569h-160z" />
<glyph unicode="#" horiz-adv-x="1390" d="M59 403l35 136h217l101 452h-224l37 133h217l97 432h141l-96 -432h383l96 432h141l-96 -432h223l-39 -133h-213l-102 -452h223l-37 -136h-215l-90 -403h-141l90 403h-385l-90 -403h-142l91 403h-222zM453 539h385l100 452h-385z" />
<glyph unicode="$" horiz-adv-x="1353" d="M106 434l175 35q21 -166 140.5 -258t299.5 -92q165 0 261.5 78t96.5 209q0 96 -56 155.5t-177 95.5l-330 99q-77 22 -135.5 50t-113 73t-84 113.5t-29.5 156.5q0 180 118 295.5t318 134.5v252h160v-252q189 -22 312 -133t159 -287l-164 -37q-28 148 -133 232t-260 84 q-148 0 -243 -76.5t-95 -208.5q0 -101 60.5 -155.5t180.5 -90.5l344 -102q332 -97 332 -393q0 -181 -122.5 -297t-327.5 -138v-296h-162v296q-213 19 -357 139.5t-168 317.5z" />
<glyph unicode="%" horiz-adv-x="1734" d="M102 1255q0 147 99.5 237.5t238.5 90.5t237.5 -90.5t98.5 -237.5q0 -142 -99 -232.5t-237 -90.5t-238 90.5t-100 232.5zM223 1257q0 -96 65 -155.5t152 -59.5q86 0 150.5 59.5t64.5 155.5t-64.5 156t-150.5 60q-87 0 -152 -60t-65 -156zM285 0l1026 1556h112l-1026 -1556 h-112zM958 299q0 147 99.5 237.5t238.5 90.5t237.5 -90.5t98.5 -237.5q0 -142 -99 -234t-237 -92t-238 92t-100 234zM1079 301q0 -96 65 -155.5t152 -59.5q86 0 150.5 59.5t64.5 155.5t-64.5 155.5t-150.5 59.5q-87 0 -152 -59.5t-65 -155.5z" />
<glyph unicode="&#x26;" horiz-adv-x="1579" d="M131 432q0 140 80 249.5t213 174.5q-67 83 -98 160.5t-31 163.5q0 179 120 291t308 112q183 0 298 -106t138 -297l-147 -29q-13 153 -90 225t-199 72q-123 0 -200 -73t-77 -197q0 -80 37.5 -154t107 -147t197.5 -181l353 -301q61 125 61 293v98h139v-98q0 -221 -88 -387 l275 -235l-92 -107l-262 227q-91 -104 -218 -158.5t-272 -54.5q-250 0 -401.5 125t-151.5 334zM283 432q0 -146 110.5 -234.5t290.5 -88.5q108 0 208.5 43.5t172.5 126.5l-393 339q-118 102 -158 142q-109 -53 -170 -138.5t-61 -189.5z" />
<glyph unicode="'" horiz-adv-x="385" d="M113 987v569h159v-569h-159z" />
<glyph unicode="(" horiz-adv-x="722" d="M113 766q0 560 387 958l110 -100q-180 -198 -254.5 -405t-74.5 -453q0 -244 74.5 -450t254.5 -408l-110 -96q-387 398 -387 954z" />
<glyph unicode=")" horiz-adv-x="722" d="M113 -92q180 202 254.5 408t74.5 450q0 246 -74.5 453t-254.5 405l110 100q387 -398 387 -958q0 -556 -387 -954z" />
<glyph unicode="*" horiz-adv-x="849" d="M61 1055l246 141l-246 141l54 90l241 -139v268h113v-268l242 139l53 -90l-246 -141l246 -141l-53 -90l-242 139v-270h-113v270l-241 -139z" />
<glyph unicode="+" horiz-adv-x="1187" d="M143 555v139h381v385h140v-385h380v-139h-380v-385h-140v385h-381z" />
<glyph unicode="," horiz-adv-x="430" d="M31 -270l135 538h184v-4l-196 -534h-123z" />
<glyph unicode="-" horiz-adv-x="907" d="M123 455v137h661v-137h-661z" />
<glyph unicode="." horiz-adv-x="417" d="M102 96q0 42 31 73.5t76 31.5t75.5 -31.5t30.5 -73.5q0 -43 -30.5 -72.5t-75.5 -29.5q-46 0 -76.5 29.5t-30.5 72.5z" />
<glyph unicode="/" horiz-adv-x="753" d="M16 -166l590 1866h133l-589 -1866h-134z" />
<glyph unicode="0" horiz-adv-x="1785" d="M113 776q0 222 103.5 407.5t282.5 292.5t394 107t394 -107t282.5 -292.5t103.5 -407.5t-103.5 -406.5t-282.5 -290.5t-394 -106t-394 106t-282.5 290.5t-103.5 406.5zM276 776q0 -136 48 -257t130.5 -207.5t196.5 -136.5t242 -50q171 0 312 85t222.5 234.5t81.5 331.5 t-81.5 332.5t-223 237t-311.5 86.5t-312 -86.5t-223.5 -237t-81.5 -332.5z" />
<glyph unicode="1" horiz-adv-x="882" d="M61 1208v146l545 202h31v-1556h-158v1358z" />
<glyph unicode="2" horiz-adv-x="1228" d="M68 1085q9 225 153 361.5t369 136.5q221 0 358 -129t137 -342q0 -57 -9 -107.5t-32 -100t-47 -90t-68 -93t-81 -92.5t-100 -105l-367 -377h739v-147h-1036v63l555 568l16 16q134 135 180 199q93 126 93 264q0 149 -94.5 240.5t-243.5 91.5q-165 0 -265.5 -107.5 t-105.5 -277.5z" />
<glyph unicode="3" horiz-adv-x="1306" d="M98 504l156 31q0 -192 114.5 -304t286.5 -112q168 0 281 103.5t113 264.5q0 152 -103 248t-266 96h-270l-11 35l516 545h-739v145h1018v-49l-518 -540h16q228 0 370 -131t142 -347q0 -225 -156.5 -371.5t-396.5 -146.5q-153 0 -277 62.5t-199.5 185.5t-76.5 285z" />
<glyph unicode="4" horiz-adv-x="1519" d="M47 307v80l1014 1169h94v-1105h344v-144h-344v-307h-158v307h-950zM301 451h696v815z" />
<glyph unicode="5" horiz-adv-x="1306" d="M102 504l158 31q0 -192 115 -304t287 -112q168 0 280.5 103.5t112.5 264.5q0 152 -103 248t-266 96h-502l119 725h862v-145h-729l-76 -434h336q228 0 370 -135t142 -353q0 -226 -156 -372t-395 -146q-154 0 -278.5 62.5t-200 185.5t-76.5 285z" />
<glyph unicode="6" horiz-adv-x="1370" d="M113 526q0 211 131 361l516 669h192l-374 -487q47 8 108 8q158 0 288.5 -70t206.5 -196.5t76 -284.5t-76 -285t-206.5 -197.5t-288.5 -70.5q-160 0 -290.5 70.5t-206.5 197.5t-76 285zM272 526q0 -178 120.5 -292.5t293.5 -114.5t293.5 114.5t120.5 292.5t-121 293 t-293 115t-293 -115t-121 -293z" />
<glyph unicode="7" horiz-adv-x="1208" d="M68 1411v145h1093v-47l-706 -1509h-187l670 1411h-870z" />
<glyph unicode="8" horiz-adv-x="1294" d="M123 408q0 132 74 239t209 150q-113 44 -172.5 142.5t-59.5 215.5q0 125 65 223.5t173 151.5t237 53q197 0 335 -120t138 -306q0 -119 -58.5 -218.5t-172.5 -141.5q94 -29 158.5 -91.5t93 -138t28.5 -161.5q0 -192 -145 -312.5t-377 -120.5t-379 121t-147 314zM293 420 q0 -136 99.5 -218.5t252.5 -82.5q155 0 258 83.5t103 217.5t-101.5 219.5t-257.5 85.5t-255 -84.5t-99 -220.5zM328 1157q-2 -125 86 -204t233 -79q147 0 235.5 79.5t88.5 201.5q0 87 -46.5 153t-119.5 99t-158 33q-83 0 -154 -32t-117.5 -98t-47.5 -153z" />
<glyph unicode="9" horiz-adv-x="1366" d="M113 1030q0 159 76 286t206.5 197t288.5 70q160 0 290.5 -70t206.5 -197t76 -286q0 -206 -124 -352l-521 -678h-194l377 492q-64 -11 -111 -11q-158 0 -288.5 69.5t-206.5 195.5t-76 284zM272 1030q0 -178 120.5 -291.5t291.5 -113.5q174 0 295 113.5t121 291.5t-121 293 t-295 115q-171 0 -291.5 -115t-120.5 -293z" />
<glyph unicode=":" horiz-adv-x="417" d="M102 96q0 42 31 73.5t76 31.5t75.5 -31.5t30.5 -73.5q0 -43 -30.5 -72.5t-75.5 -29.5q-46 0 -76.5 29.5t-30.5 72.5zM102 842q0 42 31 73t76 31t75.5 -31t30.5 -73q0 -43 -30.5 -73t-75.5 -30t-76 30t-31 73z" />
<glyph unicode=";" horiz-adv-x="473" d="M31 -270l135 538h184v-4l-196 -534h-123zM158 842q0 42 30.5 73t75.5 31t76 -31t31 -73q0 -43 -31 -73t-76 -30t-75.5 30t-30.5 73z" />
<glyph unicode="&#x3c;" horiz-adv-x="894" d="M66 571v156l749 328v-168l-561 -238l561 -239v-164z" />
<glyph unicode="=" horiz-adv-x="1187" d="M143 389v139h901v-139h-901zM143 776v139h901v-139h-901z" />
<glyph unicode="&#x3e;" horiz-adv-x="894" d="M82 246v164l561 239l-561 238v168l752 -328v-156z" />
<glyph unicode="?" horiz-adv-x="1069" d="M72 1159q6 187 135.5 305.5t337.5 118.5q205 0 334 -120t129 -314q0 -178 -115 -288.5t-299 -125.5v-274h-145v399h88q135 0 226 82.5t91 210.5q0 127 -86 208t-223 81q-140 0 -227 -85t-95 -227zM414 96q0 42 30.5 73.5t75.5 31.5t76 -31.5t31 -73.5q0 -43 -30.5 -72.5 t-76.5 -29.5q-45 0 -75.5 29.5t-30.5 72.5z" />
<glyph unicode="@" horiz-adv-x="2136" d="M133 647q0 266 123 480.5t338.5 335t480.5 120.5q192 0 363 -67t295.5 -183.5t197 -283t72.5 -357.5q0 -80 -12 -155t-40.5 -145.5t-70 -122.5t-105 -83.5t-141.5 -31.5q-108 0 -176.5 52.5t-83.5 143.5q-56 -88 -146.5 -136t-203.5 -48q-193 0 -322 131t-129 342 q0 212 130 344.5t319 132.5q110 0 200.5 -48t147.5 -136v164h109v-688q0 -70 47.5 -114t120.5 -44q83 0 140.5 67t82 163t24.5 208q0 230 -109 412.5t-295.5 282.5t-414.5 100q-176 0 -330.5 -63.5t-264.5 -173.5t-173 -265t-63 -332t63.5 -333t172 -265t256 -172t311.5 -63 q138 0 285 41t253 116l57 -90q-111 -81 -274 -126.5t-319 -45.5q-187 0 -355.5 70t-292 192t-196 297.5t-72.5 376.5zM700 641q0 -164 98.5 -266.5t237.5 -102.5t236.5 102.5t97.5 266.5q0 163 -97 263t-237 100t-238 -99.5t-98 -263.5z" />
<glyph unicode="A" horiz-adv-x="1624" d="M20 0l728 1556h129l727 -1556h-181l-170 373h-882l-170 -373h-181zM438 520h746l-371 815z" />
<glyph unicode="B" horiz-adv-x="1531" d="M180 0v1556h656q205 0 323.5 -102t118.5 -276q0 -101 -41.5 -177.5t-118.5 -119.5q141 -50 221 -160.5t80 -259.5q0 -207 -145 -334t-387 -127h-707zM342 147h545q171 0 273 87.5t102 234.5q0 148 -107 237t-289 89h-524v-648zM342 928h514q123 0 193.5 64.5t70.5 174.5 q0 113 -75 177.5t-209 64.5h-494v-481z" />
<glyph unicode="C" horiz-adv-x="1775" d="M113 776q0 167 62 316.5t168 257t253.5 170.5t312.5 63q280 0 484 -157.5t270 -419.5l-156 -45q-59 220 -218 345.5t-380 125.5q-175 0 -320.5 -86.5t-229 -237t-83.5 -332.5q0 -181 83.5 -331t229 -236t320.5 -86q221 0 380.5 124.5t217.5 344.5l156 -33 q-66 -269 -269.5 -428.5t-484.5 -159.5q-164 0 -312 63t-254 170t-168 256.5t-62 315.5z" />
<glyph unicode="D" horiz-adv-x="1722" d="M180 0v1556h578q189 0 348 -56t269.5 -157.5t172.5 -246.5t62 -318t-62 -318t-172.5 -246.5t-269.5 -157.5t-348 -56h-578zM342 147h422q307 0 494.5 173.5t187.5 457.5q0 285 -187.5 459t-494.5 174h-422v-1264z" />
<glyph unicode="E" horiz-adv-x="1417" d="M180 0v1556h1110v-147h-948v-555h918v-147h-918v-560h952v-147h-1114z" />
<glyph unicode="F" horiz-adv-x="1331" d="M180 0v1556h1096v-145h-934v-557h901v-147h-901v-707h-162z" />
<glyph unicode="G" horiz-adv-x="1835" d="M113 776q0 167 62 316.5t168 257t253 170.5t311 63q259 0 464.5 -141.5t281.5 -380.5l-146 -51q-74 199 -235.5 310.5t-364.5 111.5q-174 0 -319 -87t-228.5 -237.5t-83.5 -331.5t85 -331t232.5 -236t324.5 -86q200 0 347 100.5t210 292.5h-740v146h924v-662h-141l-9 287 q-94 -153 -247 -234.5t-349 -81.5q-166 0 -314 63t-254.5 170t-169 256.5t-62.5 315.5z" />
<glyph unicode="H" horiz-adv-x="1619" d="M180 0v1556h162v-702h936v702h162v-1556h-162v707h-936v-707h-162z" />
<glyph unicode="I" horiz-adv-x="1124" d="M92 0v147h389v1264h-389v145h940v-145h-389v-1264h389v-147h-940z" />
<glyph unicode="J" horiz-adv-x="1464" d="M49 463l154 55q38 -182 159.5 -286.5t299.5 -104.5q213 0 342 150.5t129 400.5v733h-768v145h931v-878q0 -318 -174 -512.5t-460 -194.5q-233 0 -396 132t-217 360z" />
<glyph unicode="K" horiz-adv-x="1697" d="M180 0v1556h162v-1298l977 1298h197l-570 -755l701 -801h-224l-581 662l-500 -662h-162z" />
<glyph unicode="L" horiz-adv-x="1271" d="M180 0v1556h162v-1409h858v-147h-1020z" />
<glyph unicode="M" horiz-adv-x="2064" d="M180 0v1556h103l749 -1136l752 1136h100v-1556h-155v1190l-668 -1002h-55l-670 1004v-1192h-156z" />
<glyph unicode="N" horiz-adv-x="1751" d="M180 0v1556h119l1112 -858v858h162v-1556h-162v506l-1069 807v-1313h-162z" />
<glyph unicode="O" horiz-adv-x="1816" d="M113 776q0 166 62 315.5t168 257.5t254 171t312 63t311 -63t253.5 -171t168.5 -257.5t62 -315.5t-62 -315t-168.5 -256t-253.5 -169.5t-311 -62.5q-220 0 -402.5 106t-288 290.5t-105.5 406.5zM276 776q0 -136 49 -257t133.5 -207.5t202 -136.5t248.5 -50t247.5 50 t201 136.5t133.5 207.5t49 257q0 182 -83.5 332.5t-228.5 237t-319 86.5q-175 0 -320.5 -86.5t-229 -237t-83.5 -332.5z" />
<glyph unicode="P" horiz-adv-x="1538" d="M180 0v1556h631q187 0 334 -69t231 -200.5t84 -305.5q0 -175 -84 -307t-231 -201.5t-334 -69.5h-469v-403h-162zM342 551h469q214 0 351.5 116.5t137.5 313.5t-137.5 313.5t-351.5 116.5h-469v-860z" />
<glyph unicode="Q" horiz-adv-x="1816" d="M113 776q0 166 62 315.5t168 257.5t254 171t312 63t311 -63t253.5 -171t168.5 -257.5t62 -315.5q0 -187 -76 -348t-211 -274l297 -361l-117 -106l-313 379q-175 -93 -375 -93q-220 0 -402.5 106t-288 290.5t-105.5 406.5zM276 776q0 -136 49 -257t133.5 -207.5 t202 -136.5t248.5 -50q147 0 275 61l-312 377l129 96l316 -385q105 91 164 221t59 281q0 182 -83.5 332.5t-228.5 237t-319 86.5q-175 0 -320.5 -86.5t-229 -237t-83.5 -332.5z" />
<glyph unicode="R" horiz-adv-x="1587" d="M180 0v1556h629q292 0 470.5 -158t178.5 -417q0 -199 -106.5 -341.5t-294.5 -201.5l479 -438h-217l-451 406q-27 -3 -59 -3h-467v-403h-162zM342 549h467q220 0 353.5 118.5t133.5 313.5q0 194 -133.5 312t-353.5 118h-467v-862z" />
<glyph unicode="S" horiz-adv-x="1353" d="M106 434l175 35q21 -166 140.5 -258t299.5 -92q165 0 261.5 78t96.5 209q0 96 -56 155.5t-177 95.5l-330 99q-77 22 -135.5 50t-113 73t-84 113.5t-29.5 156.5q0 196 140 315t370 119q224 0 370.5 -114t186.5 -310l-164 -37q-28 148 -133 232t-260 84q-148 0 -243 -76.5 t-95 -208.5q0 -101 60.5 -155.5t180.5 -90.5l344 -102q332 -97 332 -393q0 -200 -148 -319.5t-388 -119.5q-241 0 -408 122.5t-193 338.5z" />
<glyph unicode="T" horiz-adv-x="1314" d="M51 1411v145h1213v-145h-525v-1411h-161v1411h-527z" />
<glyph unicode="U" horiz-adv-x="1636" d="M164 678v878h162v-878q0 -250 134.5 -400.5t356.5 -150.5q220 0 354 150.5t134 400.5v878h161v-878q0 -318 -178.5 -512.5t-470.5 -194.5q-293 0 -473 194.5t-180 512.5z" />
<glyph unicode="V" horiz-adv-x="1619" d="M31 1556h178l600 -1292l602 1292h178l-723 -1556h-112z" />
<glyph unicode="W" horiz-adv-x="2217" d="M31 1556h170l411 -1257l445 1257h104l445 -1257l411 1257h170l-510 -1556h-127l-440 1249l-442 -1249h-127z" />
<glyph unicode="X" horiz-adv-x="1509" d="M31 0l622 782l-606 774h199l510 -649l510 649h196l-608 -774l625 -782h-199l-524 659l-527 -659h-198z" />
<glyph unicode="Y" horiz-adv-x="1538" d="M31 1556h180l555 -882l555 882h186l-659 -1044v-512h-162v510z" />
<glyph unicode="Z" horiz-adv-x="1486" d="M121 0v61l1022 1356h-993v139h1224v-61l-1009 -1356h1017v-139h-1261z" />
<glyph unicode="[" horiz-adv-x="800" d="M180 -188v1886h508v-135h-356v-1616h356v-135h-508z" />
<glyph unicode="\" horiz-adv-x="753" d="M16 1700h134l589 -1866h-133z" />
<glyph unicode="]" horiz-adv-x="800" d="M113 -53h356v1616h-356v135h510v-1886h-510v135z" />
<glyph unicode="^" horiz-adv-x="806" d="M51 1118l297 438h111l297 -438h-144l-209 303l-208 -303h-144z" />
<glyph unicode="_" horiz-adv-x="1034" d="M41 -115h952v-133h-952v133z" />
<glyph unicode="`" horiz-adv-x="1228" d="M348 1448h182l162 -287h-135z" />
<glyph unicode="a" d="M88 504q0 155 70.5 277.5t185 187.5t248.5 65q126 0 229.5 -48.5t171.5 -137.5v162h156v-1010h-156v160q-68 -90 -172 -138.5t-229 -48.5q-100 0 -191.5 38.5t-161 106.5t-110.5 168.5t-41 217.5zM240 504q0 -176 107.5 -283.5t268.5 -107.5q96 0 181.5 46.5t140.5 138 t55 206.5q0 88 -32 163t-85 124.5t-120.5 77.5t-139.5 28q-161 0 -268.5 -108t-107.5 -285z" />
<glyph unicode="b" d="M180 0v1638h156v-790q68 89 171.5 137.5t229.5 48.5q134 0 248.5 -65t185 -187.5t70.5 -277.5q0 -117 -41 -217.5t-110.5 -168.5t-161 -106.5t-191.5 -38.5q-125 0 -229 48.5t-172 138.5v-160h-156zM336 504q0 -115 55 -206.5t140.5 -138t181.5 -46.5q161 0 269 107.5 t108 283.5q0 177 -108 285t-269 108q-72 0 -139.5 -28t-120.5 -77.5t-85 -124.5t-32 -163z" />
<glyph unicode="c" horiz-adv-x="1196" d="M88 506q0 151 71.5 272.5t194.5 188.5t271 67q177 0 312.5 -96t182.5 -254l-149 -45q-35 120 -127.5 187t-218.5 67q-167 0 -276 -110t-109 -277q0 -169 109 -278t276 -109q125 0 219 66.5t133 185.5l143 -39q-44 -161 -180 -259t-315 -98q-148 0 -271 67.5t-194.5 190 t-71.5 273.5z" />
<glyph unicode="d" d="M88 504q0 155 70.5 277.5t185 187.5t248.5 65q126 0 229.5 -48.5t171.5 -137.5v790h156v-1638h-156v160q-68 -90 -172 -138.5t-229 -48.5q-100 0 -191.5 38.5t-161 106.5t-110.5 168.5t-41 217.5zM240 504q0 -176 107.5 -283.5t268.5 -107.5q96 0 181.5 46.5t140.5 138 t55 206.5q0 88 -32 163t-85 124.5t-120.5 77.5t-139.5 28q-161 0 -268.5 -108t-107.5 -285z" />
<glyph unicode="e" horiz-adv-x="1193" d="M88 502q0 157 72.5 280t191 187.5t258.5 64.5q135 0 246 -62.5t178 -178t72 -263.5v-57h-866q10 -163 116.5 -262.5t243.5 -99.5q248 0 344 217l139 -33q-59 -157 -185 -239.5t-298 -82.5q-135 0 -251 64t-188.5 186.5t-72.5 278.5zM246 590h702q-21 145 -114.5 226 t-223.5 81q-84 0 -160 -34.5t-132.5 -105.5t-71.5 -167z" />
<glyph unicode="f" horiz-adv-x="786" d="M0 879v131h217v299q0 164 93.5 262t252.5 98q89 0 164 -35l-39 -129q-58 25 -115 25q-93 0 -146.5 -60.5t-53.5 -160.5v-299h428v-131h-428v-879h-156v879h-217z" />
<glyph unicode="g" d="M88 504q0 155 70.5 277.5t185 187.5t248.5 65q126 0 229.5 -48.5t171.5 -137.5v162h156v-1135q0 -139 -71.5 -247t-191.5 -165t-268 -57q-185 0 -310 68t-185 194l133 101q55 -106 140 -158.5t222 -52.5q103 0 187.5 40.5t135.5 118.5t52 179v264q-68 -90 -172 -138.5 t-229 -48.5q-100 0 -191.5 38.5t-161 106.5t-110.5 168.5t-41 217.5zM240 504q0 -176 107.5 -283.5t268.5 -107.5q96 0 181.5 46.5t140.5 138t55 206.5q0 88 -32 163t-85 124.5t-120.5 77.5t-139.5 28q-161 0 -268.5 -108t-107.5 -285z" />
<glyph unicode="h" horiz-adv-x="1277" d="M180 0v1638h156v-796q128 192 381 192q182 0 293.5 -118.5t111.5 -311.5v-604h-155v575q0 141 -77.5 228.5t-203.5 87.5q-161 0 -255.5 -106.5t-94.5 -299.5v-485h-156z" />
<glyph unicode="i" horiz-adv-x="550" d="M168 1386q0 42 30.5 73.5t75.5 31.5t77 -31.5t32 -73.5q0 -44 -31.5 -74t-77.5 -30t-76 30t-30 74zM197 0v1010h157v-1010h-157z" />
<glyph unicode="j" horiz-adv-x="550" d="M168 1386q0 42 30.5 73.5t75.5 31.5t77 -31.5t32 -73.5q0 -44 -31.5 -74t-77.5 -30t-76 30t-30 74zM197 -573v1583h157v-1583h-157z" />
<glyph unicode="k" horiz-adv-x="1288" d="M180 0v1638h156v-1390l618 762h185l-389 -490l518 -520h-213l-404 395l-315 -395h-156z" />
<glyph unicode="l" horiz-adv-x="638" d="M160 250v1388h155v-1380q0 -61 39.5 -98t104.5 -37q57 0 121 33l32 -131q-88 -52 -178 -52q-124 0 -199 76t-75 201z" />
<glyph unicode="m" horiz-adv-x="1937" d="M180 0v1010h156v-154q115 178 344 178q117 0 208.5 -54t135.5 -151q60 96 157.5 150.5t223.5 54.5q162 0 269.5 -106t107.5 -275v-653h-156v627q0 119 -72.5 191.5t-187.5 72.5q-141 0 -225 -99.5t-84 -275.5v-516h-156v627q0 119 -72 191.5t-186 72.5q-141 0 -224 -99 t-83 -276v-516h-156z" />
<glyph unicode="n" horiz-adv-x="1277" d="M180 0v1010h156v-168q128 192 381 192q182 0 293.5 -118.5t111.5 -311.5v-604h-155v575q0 141 -77.5 228.5t-203.5 87.5q-161 0 -255.5 -106.5t-94.5 -299.5v-485h-156z" />
<glyph unicode="o" horiz-adv-x="1251" d="M88 506q0 229 155.5 378.5t383.5 149.5q148 0 270.5 -67t194 -188.5t71.5 -272.5q0 -152 -71.5 -274.5t-194 -190.5t-270.5 -68q-112 0 -211 40t-171.5 110t-114.5 169.5t-42 213.5zM240 506q0 -172 111.5 -282.5t275.5 -110.5q162 0 273.5 110.5t111.5 282.5 q0 171 -111 280t-274 109q-164 0 -275.5 -109t-111.5 -280z" />
<glyph unicode="p" d="M180 -573v1583h156v-162q68 89 171.5 137.5t229.5 48.5q134 0 248.5 -65t185 -187.5t70.5 -277.5q0 -117 -41 -217.5t-110.5 -168.5t-161 -106.5t-191.5 -38.5q-125 0 -229 48.5t-172 138.5v-733h-156zM336 504q0 -115 55 -206.5t140.5 -138t181.5 -46.5q161 0 269 107.5 t108 283.5q0 177 -108 285t-269 108q-72 0 -139.5 -28t-120.5 -77.5t-85 -124.5t-32 -163z" />
<glyph unicode="q" d="M88 504q0 155 70.5 277.5t185 187.5t248.5 65q126 0 229.5 -48.5t171.5 -137.5v162h156v-1583h-156v733q-68 -90 -172 -138.5t-229 -48.5q-100 0 -191.5 38.5t-161 106.5t-110.5 168.5t-41 217.5zM240 504q0 -176 107.5 -283.5t268.5 -107.5q96 0 181.5 46.5t140.5 138 t55 206.5q0 88 -32 163t-85 124.5t-120.5 77.5t-139.5 28q-161 0 -268.5 -108t-107.5 -285z" />
<glyph unicode="r" horiz-adv-x="841" d="M180 0v1010h156v-244q61 120 163 187t244 67q43 0 70 -8l-12 -150q-18 2 -60 2q-194 0 -299.5 -132t-105.5 -343v-389h-156z" />
<glyph unicode="s" horiz-adv-x="972" d="M94 272l156 35q10 -99 81.5 -153t180.5 -54q102 0 160.5 47t58.5 127q0 57 -32.5 91t-104.5 53l-219 55q-127 31 -188.5 93t-61.5 165q0 137 98 220t260 83q157 0 258.5 -76.5t128.5 -203.5l-147 -33q-16 86 -78 138t-162 52q-92 0 -147 -43.5t-55 -119.5 q0 -57 36.5 -91.5t120.5 -54.5l207 -53q124 -32 182 -96.5t58 -167.5q0 -146 -104 -229t-277 -83q-166 0 -279.5 77t-130.5 222z" />
<glyph unicode="t" horiz-adv-x="827" d="M0 879v131h219v413l158 52v-465h442v-131h-442v-564q0 -91 47 -142.5t129 -51.5q88 0 172 61l51 -129q-115 -80 -233 -80q-151 0 -237.5 88.5t-86.5 243.5v574h-219z" />
<glyph unicode="u" horiz-adv-x="1277" d="M156 406v604h157v-576q0 -141 76.5 -227t202.5 -86q161 0 255.5 105t94.5 298v486h158v-1008h-158v164q-62 -92 -159.5 -141.5t-221.5 -49.5q-182 0 -293.5 119t-111.5 312z" />
<glyph unicode="v" horiz-adv-x="1177" d="M31 1010h170l389 -795l387 795h170l-496 -1010h-125z" />
<glyph unicode="w" horiz-adv-x="1677" d="M31 1010h168l290 -781l287 781h125l287 -779l291 779h168l-383 -1014h-138l-286 766l-289 -766h-137z" />
<glyph unicode="x" horiz-adv-x="1204" d="M92 0l395 498l-395 512h189l321 -418l322 418h188l-395 -512l395 -498h-188l-322 406l-321 -406h-189z" />
<glyph unicode="y" horiz-adv-x="1277" d="M125 -332l131 101q55 -105 139 -158t213 -53q146 0 240 92.5t94 224.5v289q-62 -92 -159.5 -141.5t-221.5 -49.5q-182 0 -293.5 120t-111.5 313v604h157v-576q0 -141 76.5 -228t202.5 -87q161 0 255.5 106t94.5 299v486h158v-1155q-2 -192 -138 -320.5t-354 -128.5 q-177 0 -300 68.5t-183 193.5z" />
<glyph unicode="z" horiz-adv-x="995" d="M82 0v55l610 824h-592v131h824v-64l-607 -815h617v-131h-852z" />
<glyph unicode="{" horiz-adv-x="880" d="M92 694v123l47 10q80 9 127 60t47 139v395q0 131 76 205t211 74h168v-135h-156q-70 0 -108.5 -41.5t-38.5 -116.5v-397q0 -90 -37 -156.5t-102 -97.5q65 -31 102 -97.5t37 -156.5v-396q0 -76 38 -117.5t109 -41.5h156v-135h-168q-135 0 -211 73.5t-76 204.5v395 q0 88 -47 139t-127 62z" />
<glyph unicode="|" horiz-adv-x="512" d="M180 -166v1866h152v-1866h-152z" />
<glyph unicode="}" horiz-adv-x="880" d="M113 -53h155q71 0 109.5 41.5t38.5 117.5v396q0 90 37 156.5t102 97.5q-65 31 -102 97.5t-37 156.5v397q0 75 -39 116.5t-109 41.5h-155v135h168q135 0 210.5 -74t75.5 -205v-395q0 -88 47 -139t127 -60l47 -10v-123l-47 -8q-80 -11 -127 -62t-47 -139v-395 q0 -131 -75.5 -204.5t-210.5 -73.5h-168v135z" />
<glyph unicode="~" horiz-adv-x="974" d="M92 487q0 69 20 122t53 82.5t72 44t82 14.5q44 0 82.5 -13.5t67 -33t55 -39t56.5 -33t61 -13.5q52 0 81.5 35.5t27.5 94.5h137q0 -70 -21 -123.5t-56 -83.5t-75 -45t-84 -15q-53 0 -100.5 20.5t-76.5 45t-67 45t-75 20.5q-54 0 -85 -34.5t-26 -90.5h-129z" />
<glyph unicode="&#xa1;" horiz-adv-x="550" d="M170 930q0 44 30 73t76 29t76.5 -29t30.5 -73q0 -42 -31 -72.5t-76 -30.5t-75.5 30.5t-30.5 72.5zM193 -459l4 1024h159l6 -1024v-71h-169v71z" />
<glyph unicode="&#xa2;" horiz-adv-x="1208" d="M88 506q0 207 129.5 351t327.5 171v262h155v-260q151 -20 264 -113t156 -233l-149 -45q-35 120 -127.5 187t-218.5 67q-167 0 -276 -110t-109 -277q0 -169 109 -278t276 -109q125 0 219 66.5t133 185.5l143 -39q-39 -143 -152.5 -237.5t-267.5 -114.5v-246h-155v248 q-198 27 -327.5 171.5t-129.5 352.5z" />
<glyph unicode="&#xa3;" horiz-adv-x="1449" d="M113 0v100l196 35v488h-196v145h196v305q0 227 143 368.5t373 141.5q229 0 368.5 -140t147.5 -368l-151 -31q-7 180 -105 281.5t-260 101.5q-159 0 -256.5 -97.5t-97.5 -256.5v-305h563v-145h-563v-476h881v-147h-1239z" />
<glyph unicode="&#xa5;" horiz-adv-x="1466" d="M61 1556h181l489 -800l488 800h186l-526 -837h370v-125h-438v-184h438v-125h-438v-285h-162v285h-430v125h430v184h-430v125h363z" />
<glyph unicode="&#xa7;" horiz-adv-x="1212" d="M68 711q0 115 55.5 191.5t142.5 115.5q-90 90 -90 217q0 159 119.5 253.5t310.5 94.5q211 0 333.5 -111t125.5 -290l-141 -29q-3 142 -85 221.5t-225 79.5q-127 0 -204.5 -61.5t-77.5 -161.5q0 -66 38 -114t126 -87l354 -158q149 -64 214.5 -139t65.5 -188 q0 -114 -55.5 -192t-142.5 -117q90 -87 90 -218q0 -159 -119.5 -251.5t-310.5 -92.5q-225 0 -350 110.5t-125 295.5l137 29q5 -150 90.5 -231t241.5 -81q125 0 202.5 63t77.5 163q0 66 -38.5 115.5t-125.5 86.5l-354 156q-149 63 -214.5 140t-65.5 190zM213 721 q0 -67 44 -118t157 -103l358 -160q24 -10 49 -25q82 35 123 87.5t41 132.5q0 67 -44 118t-157 103l-356 159q-34 15 -53 27q-162 -68 -162 -221z" />
<glyph unicode="&#xa8;" horiz-adv-x="1228" d="M285 1296q0 42 30.5 73.5t75.5 31.5t77 -31.5t32 -73.5q0 -44 -31.5 -74t-77.5 -30t-76 30t-30 74zM731 1296q0 42 31 73.5t76 31.5t76.5 -31.5t31.5 -73.5q0 -44 -31 -74t-77 -30t-76.5 30t-30.5 74z" />
<glyph unicode="&#xa9;" horiz-adv-x="1761" d="M84 772q0 173 63.5 325t171 258t254 167t308.5 61q217 0 398.5 -103.5t289.5 -290.5t108 -417q0 -171 -63.5 -320.5t-171 -254t-253.5 -164.5t-308 -60t-308.5 60t-254 164.5t-171 254t-63.5 320.5zM172 774q0 -204 96 -369.5t258 -256.5t355 -91q144 0 274.5 54 t226 147.5t151.5 228t56 287.5q0 156 -56 292t-151.5 231t-226 149.5t-274.5 54.5t-274.5 -54.5t-226 -149.5t-152 -231t-56.5 -292zM461 776q0 127 60 228t158.5 154.5t215.5 53.5q156 0 268.5 -86.5t136.5 -218.5l-110 -24q-26 100 -108.5 160.5t-186.5 60.5 q-134 0 -224.5 -92t-90.5 -236t90.5 -237t224.5 -93q105 0 188.5 63t106.5 165l108 -23q-22 -137 -134 -225t-269 -88q-117 0 -215.5 53.5t-158.5 155t-60 229.5z" />
<glyph unicode="&#xaa;" horiz-adv-x="849" d="M68 1008q0 210 323 235l201 19v22q0 83 -49.5 131.5t-132.5 48.5q-162 0 -197 -159l-113 24q23 115 103.5 174.5t199.5 59.5q143 0 228.5 -73.5t85.5 -211.5v-305q0 -29 12 -45.5t31 -16.5q11 0 19.5 0.5t22 1.5t27.5 2l11 -102q-62 -22 -103 -22q-55 0 -93 29.5 t-48 86.5q-90 -116 -264 -116q-120 0 -192 60.5t-72 156.5zM195 1018q0 -62 43 -97.5t118 -35.5q104 0 170 60t66 153v78l-193 -17q-204 -18 -204 -141z" />
<glyph unicode="&#xab;" horiz-adv-x="849" d="M51 537l250 364h160l-250 -364l250 -365h-160zM389 537l250 364h160l-250 -364l250 -365h-160z" />
<glyph unicode="&#xad;" horiz-adv-x="907" d="M123 455v137h661v-137h-661z" />
<glyph unicode="&#xae;" horiz-adv-x="1024" d="M102 1171q0 178 119.5 295t290.5 117t290.5 -117t119.5 -295q0 -176 -119.5 -292.5t-290.5 -116.5t-290.5 116.5t-119.5 292.5zM162 1171q0 -151 102 -251.5t248 -100.5q148 0 250 100.5t102 251.5q0 154 -102 255.5t-250 101.5q-146 0 -248 -102t-102 -255zM367 989v387 h170q69 0 110 -34t41 -91q0 -47 -31 -81.5t-82 -43.5l136 -137h-74l-129 133h-84v-133h-57zM424 1176h111q43 0 69.5 20.5t26.5 54.5t-25.5 54t-68.5 20h-113v-149z" />
<glyph unicode="&#xaf;" horiz-adv-x="1228" d="M324 1196v127h581v-127h-581z" />
<glyph unicode="&#xb0;" horiz-adv-x="833" d="M139 1311q0 121 81.5 196.5t197.5 75.5t197 -75.5t81 -196.5q0 -119 -81 -194t-197 -75t-197.5 75t-81.5 194zM252 1313q0 -74 50 -121t116 -47t116 47t50 121t-50 121t-116 47t-116 -47t-50 -121z" />
<glyph unicode="&#xb1;" horiz-adv-x="1187" d="M143 0v139h901v-139h-901zM143 668v139h381v364h140v-364h380v-139h-380v-344h-140v344h-381z" />
<glyph unicode="&#xb2;" horiz-adv-x="702" d="M72 1012v30l266 271q96 94 119 126q37 51 37 103q0 61 -40.5 100t-105.5 39q-70 0 -116.5 -49.5t-47.5 -128.5l-104 23q0 115 75 185.5t193 70.5q116 0 187 -65t71 -173q0 -28 -5 -53t-21 -53t-26 -44.5t-41.5 -50.5t-44.5 -47.5t-56 -56.5l-125 -123h325v-104h-540z" />
<glyph unicode="&#xb3;" horiz-adv-x="679" d="M57 1204l113 23q10 -65 59 -104.5t115 -39.5q74 0 121 40t47 108q0 64 -44 102.5t-116 38.5h-121l-6 19l203 256h-336l2 104h520v-35l-206 -250q97 -9 157 -71.5t60 -159.5q0 -114 -77.5 -184t-203.5 -70q-114 0 -194.5 63.5t-92.5 159.5z" />
<glyph unicode="&#xb4;" horiz-adv-x="1228" d="M506 1161l164 287h182l-209 -287h-137z" />
<glyph unicode="&#xb6;" horiz-adv-x="1148" d="M41 1184q0 181 107.5 276.5t291.5 95.5h256v-1556h-125v797h-102q-186 0 -307 105.5t-121 281.5zM844 0v1556h125v-1556h-125z" />
<glyph unicode="&#xb7;" horiz-adv-x="417" d="M102 539q0 42 31 73t76 31t75.5 -31t30.5 -73q0 -43 -30.5 -73t-75.5 -30t-76 30t-31 73z" />
<glyph unicode="&#xb8;" horiz-adv-x="1228" d="M393 -348l207 348h121l-158 -348h-170z" />
<glyph unicode="&#xb9;" horiz-adv-x="448" d="M27 1532v113l284 116h23v-755h-119v598z" />
<glyph unicode="&#xba;" horiz-adv-x="915" d="M76 1186q0 165 112.5 271t270.5 106q160 0 271.5 -106t111.5 -271q0 -166 -111.5 -272.5t-271.5 -106.5q-158 0 -270.5 107t-112.5 272zM195 1186q0 -118 77 -194.5t187 -76.5t189 77t79 194t-79 194.5t-189 77.5q-109 0 -186.5 -77t-77.5 -195z" />
<glyph unicode="&#xbb;" horiz-adv-x="849" d="M51 172l250 365l-250 364h160l250 -364l-250 -365h-160zM389 172l250 365l-250 364h160l250 -364l-250 -365h-160z" />
<glyph unicode="&#xbc;" horiz-adv-x="1355" d="M27 1327v113l284 116h23v-755h-119v598zM82 0l1026 1556h113l-1026 -1556h-113zM657 150v59l478 547h51v-508h129v-98h-129v-150h-113v150h-416zM825 248h248v291z" />
<glyph unicode="&#xbd;" horiz-adv-x="1429" d="M41 1327v113l285 116h22v-755h-119v598zM55 0l1026 1556h113l-1026 -1556h-113zM805 -2v33l266 270q96 94 119 126q37 51 37 103q0 62 -41 101t-105 39q-70 0 -116 -49.5t-47 -128.5l-105 22q0 115 75 185.5t193 70.5q116 0 187 -65t71 -173q0 -28 -5 -53t-21 -53 t-26 -44.5t-41.5 -50.5t-44.5 -47.5t-56 -56.5l-123 -123h324v-106h-541z" />
<glyph unicode="&#xbe;" horiz-adv-x="1480" d="M61 1010l113 22q10 -65 59 -104t115 -39q74 0 121 39.5t47 107.5q0 64 -44 103t-116 39h-120l-7 18l203 256h-336l2 104h520v-34l-206 -250q97 -9 157 -72t60 -160q0 -114 -77.5 -184t-203.5 -70q-114 0 -194.5 64t-92.5 160zM248 0l1026 1556h112l-1026 -1556h-112z M784 150v59l478 547h51v-508h129v-98h-129v-150h-113v150h-416zM952 248h248v291z" />
<glyph unicode="&#xbf;" horiz-adv-x="1069" d="M72 -123q0 179 114.5 289t298.5 125v274h148v-397h-90q-134 0 -226 -83t-92 -212q0 -126 87 -207.5t223 -81.5q140 0 227 85t96 227l150 -29q-6 -187 -135.5 -305.5t-337.5 -118.5q-204 0 -333.5 120t-129.5 314zM455 930q0 44 30 73t76 29t76.5 -29t30.5 -73 q0 -42 -31 -72.5t-76 -30.5t-75.5 30.5t-30.5 72.5z" />
<glyph unicode="&#xc0;" horiz-adv-x="1624" d="M20 0l728 1556h129l727 -1556h-181l-170 373h-882l-170 -373h-181zM438 520h746l-371 815zM532 1997h183l162 -287h-136z" />
<glyph unicode="&#xc1;" horiz-adv-x="1624" d="M20 0l728 1556h129l727 -1556h-181l-170 373h-882l-170 -373h-181zM438 520h746l-371 815zM756 1710l164 287h182l-209 -287h-137z" />
<glyph unicode="&#xc2;" horiz-adv-x="1624" d="M20 0l728 1556h129l727 -1556h-181l-170 373h-882l-170 -373h-181zM438 520h746l-371 815zM502 1706l237 291h150l239 -291h-159l-154 188l-156 -188h-157z" />
<glyph unicode="&#xc3;" horiz-adv-x="1624" d="M20 0l728 1556h129l727 -1556h-181l-170 373h-882l-170 -373h-181zM438 520h746l-371 815zM510 1761q0 107 51.5 158t126.5 51q41 0 77.5 -15.5t59 -33.5t53 -33.5t60.5 -15.5q35 0 55.5 26.5t20.5 69.5h110q0 -109 -52 -161t-126 -52q-41 0 -77.5 15.5t-59 33.5 t-53 33.5t-60.5 15.5q-35 0 -55 -25.5t-20 -66.5h-111z" />
<glyph unicode="&#xc4;" horiz-adv-x="1624" d="M20 0l728 1556h129l727 -1556h-181l-170 373h-882l-170 -373h-181zM438 520h746l-371 815zM483 1845q0 42 31 73.5t76 31.5t76.5 -31.5t31.5 -73.5q0 -44 -31 -74t-77 -30t-76.5 30t-30.5 74zM930 1845q0 42 30.5 73.5t75.5 31.5t77 -31.5t32 -73.5q0 -44 -31.5 -74 t-77.5 -30t-76 30t-30 74z" />
<glyph unicode="&#xc5;" horiz-adv-x="1624" d="M20 0l728 1556h129l727 -1556h-181l-170 373h-882l-170 -373h-181zM438 520h746l-371 815zM602 1880q0 85 61 145t150 60t151 -60t62 -145q0 -86 -62 -146.5t-151 -60.5t-150 60t-61 147zM698 1880q0 -46 34 -78.5t81 -32.5q49 0 82 32.5t33 78.5q0 45 -33 78t-82 33 q-47 0 -81 -33t-34 -78z" />
<glyph unicode="&#xc6;" horiz-adv-x="2355" d="M20 0l1147 1556h1061v-147h-887v-514h840v-145h-840v-603h891v-147h-1052v373h-699l-272 -373h-189zM590 520h590v803z" />
<glyph unicode="&#xc7;" horiz-adv-x="1775" d="M113 776q0 167 62 316.5t168 257t253.5 170.5t312.5 63q280 0 484 -157.5t270 -419.5l-156 -45q-59 220 -218 345.5t-380 125.5q-175 0 -320.5 -86.5t-229 -237t-83.5 -332.5q0 -181 83.5 -331t229 -236t320.5 -86q221 0 380.5 124.5t217.5 344.5l156 -33 q-63 -259 -255 -417.5t-458 -170.5l-145 -319h-170l192 323q-151 15 -283.5 83.5t-227 174t-149 246.5t-54.5 297z" />
<glyph unicode="&#xc8;" horiz-adv-x="1417" d="M180 0v1556h1110v-147h-948v-555h918v-147h-918v-560h952v-147h-1114zM487 1997h183l161 -287h-135z" />
<glyph unicode="&#xc9;" horiz-adv-x="1417" d="M180 0v1556h1110v-147h-948v-555h918v-147h-918v-560h952v-147h-1114zM709 1710l163 287h183l-209 -287h-137z" />
<glyph unicode="&#xca;" horiz-adv-x="1417" d="M180 0v1556h1110v-147h-948v-555h918v-147h-918v-560h952v-147h-1114zM455 1706l237 291h150l239 -291h-159l-154 188l-156 -188h-157z" />
<glyph unicode="&#xcb;" horiz-adv-x="1417" d="M180 0v1556h1110v-147h-948v-555h918v-147h-918v-560h952v-147h-1114zM436 1845q0 42 31 73.5t76 31.5t76.5 -31.5t31.5 -73.5q0 -44 -31 -74t-77 -30t-76.5 30t-30.5 74zM883 1845q0 42 30.5 73.5t75.5 31.5t77 -31.5t32 -73.5q0 -44 -31.5 -74t-77.5 -30t-76 30t-30 74 z" />
<glyph unicode="&#xcc;" horiz-adv-x="1124" d="M92 0v147h389v1264h-389v145h940v-145h-389v-1264h389v-147h-940zM287 1997h182l162 -287h-135z" />
<glyph unicode="&#xcd;" horiz-adv-x="1124" d="M92 0v147h389v1264h-389v145h940v-145h-389v-1264h389v-147h-940zM510 1710l164 287h182l-209 -287h-137z" />
<glyph unicode="&#xce;" horiz-adv-x="1124" d="M92 0v147h389v1264h-389v145h940v-145h-389v-1264h389v-147h-940zM256 1706l238 291h149l240 -291h-160l-154 188l-155 -188h-158z" />
<glyph unicode="&#xcf;" horiz-adv-x="1124" d="M92 0v147h389v1264h-389v145h940v-145h-389v-1264h389v-147h-940zM238 1845q0 42 30.5 73.5t75.5 31.5t77 -31.5t32 -73.5q0 -44 -31.5 -74t-77.5 -30t-76 30t-30 74zM684 1845q0 42 31 73.5t76 31.5t76.5 -31.5t31.5 -73.5q0 -44 -31 -74t-77 -30t-76.5 30t-30.5 74z " />
<glyph unicode="&#xd0;" horiz-adv-x="1763" d="M61 700v146h160v710h578q189 0 348 -56t269.5 -157.5t172.5 -246.5t62 -318t-62 -318t-172.5 -246.5t-269.5 -157.5t-348 -56h-578v700h-160zM383 147h422q307 0 494.5 173.5t187.5 457.5q0 285 -187.5 459t-494.5 174h-422v-565h330v-146h-330v-553z" />
<glyph unicode="&#xd1;" horiz-adv-x="1751" d="M180 0v1556h119l1112 -858v858h162v-1556h-162v506l-1069 807v-1313h-162zM573 1761q0 107 52 158t127 51q41 0 77.5 -15.5t58.5 -33.5t52.5 -33.5t60.5 -15.5q35 0 55.5 26.5t20.5 69.5h111q0 -109 -52 -161t-126 -52q-41 0 -77.5 15.5t-59 33.5t-53 33.5t-60.5 15.5 q-35 0 -55.5 -26t-20.5 -66h-111z" />
<glyph unicode="&#xd2;" horiz-adv-x="1816" d="M113 776q0 166 62 315.5t168 257.5t254 171t312 63t311 -63t253.5 -171t168.5 -257.5t62 -315.5t-62 -315t-168.5 -256t-253.5 -169.5t-311 -62.5q-220 0 -402.5 106t-288 290.5t-105.5 406.5zM276 776q0 -136 49 -257t133.5 -207.5t202 -136.5t248.5 -50t247.5 50 t201 136.5t133.5 207.5t49 257q0 182 -83.5 332.5t-228.5 237t-319 86.5q-175 0 -320.5 -86.5t-229 -237t-83.5 -332.5zM629 1997h182l162 -287h-135z" />
<glyph unicode="&#xd3;" horiz-adv-x="1816" d="M113 776q0 166 62 315.5t168 257.5t254 171t312 63t311 -63t253.5 -171t168.5 -257.5t62 -315.5t-62 -315t-168.5 -256t-253.5 -169.5t-311 -62.5q-220 0 -402.5 106t-288 290.5t-105.5 406.5zM276 776q0 -136 49 -257t133.5 -207.5t202 -136.5t248.5 -50t247.5 50 t201 136.5t133.5 207.5t49 257q0 182 -83.5 332.5t-228.5 237t-319 86.5q-175 0 -320.5 -86.5t-229 -237t-83.5 -332.5zM852 1710l164 287h182l-209 -287h-137z" />
<glyph unicode="&#xd4;" horiz-adv-x="1816" d="M113 776q0 166 62 315.5t168 257.5t254 171t312 63t311 -63t253.5 -171t168.5 -257.5t62 -315.5t-62 -315t-168.5 -256t-253.5 -169.5t-311 -62.5q-220 0 -402.5 106t-288 290.5t-105.5 406.5zM276 776q0 -136 49 -257t133.5 -207.5t202 -136.5t248.5 -50t247.5 50 t201 136.5t133.5 207.5t49 257q0 182 -83.5 332.5t-228.5 237t-319 86.5q-175 0 -320.5 -86.5t-229 -237t-83.5 -332.5zM598 1706l238 291h149l240 -291h-160l-154 188l-155 -188h-158z" />
<glyph unicode="&#xd5;" horiz-adv-x="1816" d="M113 776q0 166 62 315.5t168 257.5t254 171t312 63t311 -63t253.5 -171t168.5 -257.5t62 -315.5t-62 -315t-168.5 -256t-253.5 -169.5t-311 -62.5q-220 0 -402.5 106t-288 290.5t-105.5 406.5zM276 776q0 -136 49 -257t133.5 -207.5t202 -136.5t248.5 -50t247.5 50 t201 136.5t133.5 207.5t49 257q0 182 -83.5 332.5t-228.5 237t-319 86.5q-175 0 -320.5 -86.5t-229 -237t-83.5 -332.5zM606 1761q0 107 51.5 158t126.5 51q41 0 77.5 -15.5t59 -33.5t53 -33.5t60.5 -15.5q35 0 55.5 26.5t20.5 69.5h111q0 -108 -52.5 -160.5t-126.5 -52.5 q-41 0 -77.5 15.5t-58.5 33.5t-52.5 33.5t-60.5 15.5q-35 0 -55.5 -26t-20.5 -66h-111z" />
<glyph unicode="&#xd6;" horiz-adv-x="1816" d="M113 776q0 166 62 315.5t168 257.5t254 171t312 63t311 -63t253.5 -171t168.5 -257.5t62 -315.5t-62 -315t-168.5 -256t-253.5 -169.5t-311 -62.5q-220 0 -402.5 106t-288 290.5t-105.5 406.5zM276 776q0 -136 49 -257t133.5 -207.5t202 -136.5t248.5 -50t247.5 50 t201 136.5t133.5 207.5t49 257q0 182 -83.5 332.5t-228.5 237t-319 86.5q-175 0 -320.5 -86.5t-229 -237t-83.5 -332.5zM580 1845q0 42 30.5 73.5t75.5 31.5t77 -31.5t32 -73.5q0 -44 -31.5 -74t-77.5 -30t-76 30t-30 74zM1026 1845q0 42 31 73.5t76 31.5t76.5 -31.5 t31.5 -73.5q0 -44 -31 -74t-77 -30t-76.5 30t-30.5 74z" />
<glyph unicode="&#xd7;" horiz-adv-x="1067" d="M143 336l289 289l-289 288l101 103l291 -289l288 289l101 -103l-289 -288l289 -289l-101 -100l-288 288l-291 -288z" />
<glyph unicode="&#xd8;" horiz-adv-x="1816" d="M113 776q0 166 62 315.5t168 257.5t254 171t312 63q270 0 484 -164l141 156l96 -92l-139 -154q101 -109 157 -251.5t56 -301.5q0 -166 -62 -315t-168.5 -256t-253.5 -169.5t-311 -62.5q-276 0 -491 166l-144 -159l-96 94l141 157q-98 107 -152 247.5t-54 297.5zM276 776 q0 -244 150 -428l862 957q-165 127 -379 127q-175 0 -320.5 -86.5t-229 -237t-83.5 -332.5zM522 256q165 -131 387 -131q131 0 247.5 50t201 136.5t133.5 207.5t49 257q0 247 -156 434z" />
<glyph unicode="&#xd9;" horiz-adv-x="1636" d="M164 678v878h162v-878q0 -250 134.5 -400.5t356.5 -150.5q220 0 354 150.5t134 400.5v878h161v-878q0 -318 -178.5 -512.5t-470.5 -194.5q-293 0 -473 194.5t-180 512.5zM535 1997h182l162 -287h-136z" />
<glyph unicode="&#xda;" horiz-adv-x="1636" d="M164 678v878h162v-878q0 -250 134.5 -400.5t356.5 -150.5q220 0 354 150.5t134 400.5v878h161v-878q0 -318 -178.5 -512.5t-470.5 -194.5q-293 0 -473 194.5t-180 512.5zM756 1710l164 287h182l-209 -287h-137z" />
<glyph unicode="&#xdb;" horiz-adv-x="1636" d="M164 678v878h162v-878q0 -250 134.5 -400.5t356.5 -150.5q220 0 354 150.5t134 400.5v878h161v-878q0 -318 -178.5 -512.5t-470.5 -194.5q-293 0 -473 194.5t-180 512.5zM502 1706l237 291h150l239 -291h-159l-154 188l-156 -188h-157z" />
<glyph unicode="&#xdc;" horiz-adv-x="1636" d="M164 678v878h162v-878q0 -250 134.5 -400.5t356.5 -150.5q220 0 354 150.5t134 400.5v878h161v-878q0 -318 -178.5 -512.5t-470.5 -194.5q-293 0 -473 194.5t-180 512.5zM483 1845q0 42 31 73.5t76 31.5t76.5 -31.5t31.5 -73.5q0 -44 -31 -74t-77 -30t-76.5 30t-30.5 74z M930 1845q0 42 30.5 73.5t75.5 31.5t77 -31.5t32 -73.5q0 -44 -31.5 -74t-77.5 -30t-76 30t-30 74z" />
<glyph unicode="&#xdd;" horiz-adv-x="1538" d="M31 1556h180l555 -882l555 882h186l-659 -1044v-512h-162v510zM711 1710l163 287h183l-209 -287h-137z" />
<glyph unicode="&#xde;" horiz-adv-x="1282" d="M180 0v1556h162v-360h416q212 0 339.5 -110t127.5 -298q0 -186 -127.5 -295.5t-339.5 -109.5h-416v-383h-162zM342 528h408q144 0 229.5 69.5t85.5 190.5q0 122 -85.5 191.5t-229.5 69.5h-408v-521z" />
<glyph unicode="&#xdf;" horiz-adv-x="1445" d="M180 0v1313q0 160 94 255t252 95q91 0 164 -37l-39 -127q-61 23 -114 23q-92 0 -146.5 -56t-54.5 -153v-303h987v-33l-489 -571h43q225 0 366 -133t141 -349q0 -149 -70.5 -267.5t-195 -184.5t-280.5 -66q-186 0 -327 92.5t-194 255.5l148 64q39 -126 142 -198.5 t235 -72.5q165 0 278 106t113 267q0 153 -103.5 250.5t-263.5 97.5h-276l-15 43l484 568h-723v-879h-156z" />
<glyph unicode="&#xe0;" d="M88 504q0 155 70.5 277.5t185 187.5t248.5 65q126 0 229.5 -48.5t171.5 -137.5v162h156v-1010h-156v160q-68 -90 -172 -138.5t-229 -48.5q-100 0 -191.5 38.5t-161 106.5t-110.5 168.5t-41 217.5zM240 504q0 -176 107.5 -283.5t268.5 -107.5q96 0 181.5 46.5t140.5 138 t55 206.5q0 88 -32 163t-85 124.5t-120.5 77.5t-139.5 28q-161 0 -268.5 -108t-107.5 -285zM365 1540h182l162 -287h-136z" />
<glyph unicode="&#xe1;" d="M88 504q0 155 70.5 277.5t185 187.5t248.5 65q126 0 229.5 -48.5t171.5 -137.5v162h156v-1010h-156v160q-68 -90 -172 -138.5t-229 -48.5q-100 0 -191.5 38.5t-161 106.5t-110.5 168.5t-41 217.5zM240 504q0 -176 107.5 -283.5t268.5 -107.5q96 0 181.5 46.5t140.5 138 t55 206.5q0 88 -32 163t-85 124.5t-120.5 77.5t-139.5 28q-161 0 -268.5 -108t-107.5 -285zM588 1253l164 287h182l-209 -287h-137z" />
<glyph unicode="&#xe2;" d="M88 504q0 155 70.5 277.5t185 187.5t248.5 65q126 0 229.5 -48.5t171.5 -137.5v162h156v-1010h-156v160q-68 -90 -172 -138.5t-229 -48.5q-100 0 -191.5 38.5t-161 106.5t-110.5 168.5t-41 217.5zM240 504q0 -176 107.5 -283.5t268.5 -107.5q96 0 181.5 46.5t140.5 138 t55 206.5q0 88 -32 163t-85 124.5t-120.5 77.5t-139.5 28q-161 0 -268.5 -108t-107.5 -285zM334 1249l237 291h150l240 -291h-160l-154 189l-155 -189h-158z" />
<glyph unicode="&#xe3;" d="M88 504q0 155 70.5 277.5t185 187.5t248.5 65q126 0 229.5 -48.5t171.5 -137.5v162h156v-1010h-156v160q-68 -90 -172 -138.5t-229 -48.5q-100 0 -191.5 38.5t-161 106.5t-110.5 168.5t-41 217.5zM240 504q0 -176 107.5 -283.5t268.5 -107.5q96 0 181.5 46.5t140.5 138 t55 206.5q0 88 -32 163t-85 124.5t-120.5 77.5t-139.5 28q-161 0 -268.5 -108t-107.5 -285zM342 1307q0 107 51.5 158t126.5 51q41 0 77.5 -15.5t59 -34t53 -34t60.5 -15.5q35 0 55.5 26.5t20.5 69.5h110q0 -109 -52 -161t-126 -52q-41 0 -77.5 15.5t-59 34t-53 34 t-60.5 15.5q-35 0 -55 -25.5t-20 -66.5h-111z" />
<glyph unicode="&#xe4;" d="M88 504q0 155 70.5 277.5t185 187.5t248.5 65q126 0 229.5 -48.5t171.5 -137.5v162h156v-1010h-156v160q-68 -90 -172 -138.5t-229 -48.5q-100 0 -191.5 38.5t-161 106.5t-110.5 168.5t-41 217.5zM240 504q0 -176 107.5 -283.5t268.5 -107.5q96 0 181.5 46.5t140.5 138 t55 206.5q0 88 -32 163t-85 124.5t-120.5 77.5t-139.5 28q-161 0 -268.5 -108t-107.5 -285zM315 1389q0 42 31 73t76 31t76.5 -31t31.5 -73q0 -44 -31 -74.5t-77 -30.5t-76.5 30.5t-30.5 74.5zM762 1389q0 42 30.5 73t75.5 31t77 -31t32 -73q0 -44 -31.5 -74.5t-77.5 -30.5 t-76 30t-30 75z" />
<glyph unicode="&#xe5;" d="M88 504q0 155 70.5 277.5t185 187.5t248.5 65q126 0 229.5 -48.5t171.5 -137.5v162h156v-1010h-156v160q-68 -90 -172 -138.5t-229 -48.5q-100 0 -191.5 38.5t-161 106.5t-110.5 168.5t-41 217.5zM240 504q0 -176 107.5 -283.5t268.5 -107.5q96 0 181.5 46.5t140.5 138 t55 206.5q0 88 -32 163t-85 124.5t-120.5 77.5t-139.5 28q-161 0 -268.5 -108t-107.5 -285zM434 1425q0 85 61 145t150 60t151 -60t62 -145q0 -86 -62 -146t-151 -60t-150 60t-61 146zM530 1425q0 -46 34 -78t81 -32q49 0 82 32t33 78q0 45 -33 78t-82 33q-47 0 -81 -33 t-34 -78z" />
<glyph unicode="&#xe6;" horiz-adv-x="1898" d="M88 279q0 134 104 213t277 79h369v84q0 111 -74 178.5t-197 67.5q-111 0 -188 -56.5t-90 -150.5l-146 31q17 137 134.5 223t291.5 86q128 0 224 -51t143 -145q69 95 169 145.5t218 50.5q211 0 348 -145.5t141 -378.5v-55h-829q13 -158 109 -251t235 -93q100 0 190.5 54.5 t131.5 162.5l141 -33q-40 -142 -170 -232t-297 -90q-137 0 -247.5 65.5t-172.5 180.5q-60 -111 -178.5 -178.5t-267.5 -67.5q-173 0 -271 86t-98 220zM238 285q0 -82 64 -132.5t169 -50.5q150 0 258.5 94.5t108.5 237.5v21h-369q-105 0 -168 -45.5t-63 -124.5zM981 571h672 q-17 151 -104.5 240.5t-219.5 89.5q-133 0 -233.5 -88t-114.5 -242z" />
<glyph unicode="&#xe7;" horiz-adv-x="1196" d="M88 506q0 151 71.5 272.5t194.5 188.5t271 67q177 0 312.5 -96t182.5 -254l-149 -45q-35 120 -127.5 187t-218.5 67q-167 0 -276 -110t-109 -277q0 -169 109 -278t276 -109q125 0 219 66.5t133 185.5l143 -39q-41 -147 -160 -242.5t-278 -112.5l-147 -325h-170l194 328 q-204 22 -337.5 168t-133.5 358z" />
<glyph unicode="&#xe8;" horiz-adv-x="1193" d="M88 502q0 157 72.5 280t191 187.5t258.5 64.5q135 0 246 -62.5t178 -178t72 -263.5v-57h-866q10 -163 116.5 -262.5t243.5 -99.5q248 0 344 217l139 -33q-59 -157 -185 -239.5t-298 -82.5q-135 0 -251 64t-188.5 186.5t-72.5 278.5zM246 590h702q-21 145 -114.5 226 t-223.5 81q-84 0 -160 -34.5t-132.5 -105.5t-71.5 -167zM332 1540h182l162 -287h-135z" />
<glyph unicode="&#xe9;" horiz-adv-x="1193" d="M88 502q0 157 72.5 280t191 187.5t258.5 64.5q135 0 246 -62.5t178 -178t72 -263.5v-57h-866q10 -163 116.5 -262.5t243.5 -99.5q248 0 344 217l139 -33q-59 -157 -185 -239.5t-298 -82.5q-135 0 -251 64t-188.5 186.5t-72.5 278.5zM246 590h702q-21 145 -114.5 226 t-223.5 81q-84 0 -160 -34.5t-132.5 -105.5t-71.5 -167zM555 1253l164 287h182l-209 -287h-137z" />
<glyph unicode="&#xea;" horiz-adv-x="1193" d="M88 502q0 157 72.5 280t191 187.5t258.5 64.5q135 0 246 -62.5t178 -178t72 -263.5v-57h-866q10 -163 116.5 -262.5t243.5 -99.5q248 0 344 217l139 -33q-59 -157 -185 -239.5t-298 -82.5q-135 0 -251 64t-188.5 186.5t-72.5 278.5zM246 590h702q-21 145 -114.5 226 t-223.5 81q-84 0 -160 -34.5t-132.5 -105.5t-71.5 -167zM299 1249l238 291h149l240 -291h-160l-154 189l-155 -189h-158z" />
<glyph unicode="&#xeb;" horiz-adv-x="1193" d="M88 502q0 157 72.5 280t191 187.5t258.5 64.5q135 0 246 -62.5t178 -178t72 -263.5v-57h-866q10 -163 116.5 -262.5t243.5 -99.5q248 0 344 217l139 -33q-59 -157 -185 -239.5t-298 -82.5q-135 0 -251 64t-188.5 186.5t-72.5 278.5zM246 590h702q-21 145 -114.5 226 t-223.5 81q-84 0 -160 -34.5t-132.5 -105.5t-71.5 -167zM281 1389q0 42 30.5 73t75.5 31t77 -31t32 -73q0 -44 -31.5 -74.5t-77.5 -30.5q-45 0 -75.5 30t-30.5 75zM727 1389q0 42 31 73t76 31t76.5 -31t31.5 -73q0 -44 -31 -74.5t-77 -30.5t-76.5 30.5t-30.5 74.5z" />
<glyph unicode="&#xec;" horiz-adv-x="571" d="M6 1540h182l162 -287h-135zM207 0v1010h158v-1010h-158z" />
<glyph unicode="&#xed;" horiz-adv-x="571" d="M207 0v1010h158v-1010h-158zM227 1253l164 287h182l-208 -287h-138z" />
<glyph unicode="&#xee;" horiz-adv-x="571" d="M-29 1249l240 291h149l240 -291h-160l-153 189l-156 -189h-160zM207 0v1010h158v-1010h-158z" />
<glyph unicode="&#xef;" horiz-adv-x="571" d="M-45 1389q0 42 30.5 73t75.5 31t77 -31t32 -73q0 -44 -31.5 -74.5t-77.5 -30.5q-45 0 -75.5 30t-30.5 75zM207 0v1010h158v-1010h-158zM401 1389q0 42 31 73t76 31t76.5 -31t31.5 -73q0 -44 -31 -74.5t-77 -30.5t-76.5 30.5t-30.5 74.5z" />
<glyph unicode="&#xf0;" horiz-adv-x="1243" d="M88 504q0 116 43.5 216t116.5 168t168.5 107t197.5 39q87 0 165 -27t134 -73q-79 189 -258 371l-280 -125l-47 110l229 103q-160 132 -342 209v36h256q119 -55 244 -174l188 84l49 -112l-149 -66q158 -186 256 -418t98 -430q0 -129 -44.5 -235t-119.5 -173.5t-169 -104 t-197 -36.5q-144 0 -266.5 66t-197.5 189t-75 276zM240 506q0 -173 114 -283t277 -110q90 0 162.5 36.5t116.5 95.5t67.5 128.5t23.5 140.5q0 163 -112 272t-268 109q-102 0 -189 -48.5t-139.5 -138.5t-52.5 -202z" />
<glyph unicode="&#xf1;" horiz-adv-x="1277" d="M180 0v1010h156v-168q128 192 381 192q182 0 293.5 -118.5t111.5 -311.5v-604h-155v575q0 141 -77.5 228.5t-203.5 87.5q-161 0 -255.5 -106.5t-94.5 -299.5v-485h-156zM356 1307q0 107 52 158t127 51q41 0 77.5 -15.5t58.5 -34t52.5 -34t60.5 -15.5q35 0 55.5 26.5 t20.5 69.5h111q0 -109 -52 -161t-126 -52q-41 0 -77.5 15.5t-59 34t-53 34t-60.5 15.5q-35 0 -55.5 -26t-20.5 -66h-111z" />
<glyph unicode="&#xf2;" horiz-adv-x="1251" d="M88 506q0 229 155.5 378.5t383.5 149.5q148 0 270.5 -67t194 -188.5t71.5 -272.5q0 -152 -71.5 -274.5t-194 -190.5t-270.5 -68q-112 0 -211 40t-171.5 110t-114.5 169.5t-42 213.5zM240 506q0 -172 111.5 -282.5t275.5 -110.5q162 0 273.5 110.5t111.5 282.5 q0 171 -111 280t-274 109q-164 0 -275.5 -109t-111.5 -280zM346 1540h182l162 -287h-135z" />
<glyph unicode="&#xf3;" horiz-adv-x="1251" d="M88 506q0 229 155.5 378.5t383.5 149.5q148 0 270.5 -67t194 -188.5t71.5 -272.5q0 -152 -71.5 -274.5t-194 -190.5t-270.5 -68q-112 0 -211 40t-171.5 110t-114.5 169.5t-42 213.5zM240 506q0 -172 111.5 -282.5t275.5 -110.5q162 0 273.5 110.5t111.5 282.5 q0 171 -111 280t-274 109q-164 0 -275.5 -109t-111.5 -280zM569 1253l164 287h182l-208 -287h-138z" />
<glyph unicode="&#xf4;" horiz-adv-x="1251" d="M88 506q0 229 155.5 378.5t383.5 149.5q148 0 270.5 -67t194 -188.5t71.5 -272.5q0 -152 -71.5 -274.5t-194 -190.5t-270.5 -68q-112 0 -211 40t-171.5 110t-114.5 169.5t-42 213.5zM240 506q0 -172 111.5 -282.5t275.5 -110.5q162 0 273.5 110.5t111.5 282.5 q0 171 -111 280t-274 109q-164 0 -275.5 -109t-111.5 -280zM315 1249l238 291h149l240 -291h-160l-153 189l-156 -189h-158z" />
<glyph unicode="&#xf5;" horiz-adv-x="1251" d="M88 506q0 229 155.5 378.5t383.5 149.5q148 0 270.5 -67t194 -188.5t71.5 -272.5q0 -152 -71.5 -274.5t-194 -190.5t-270.5 -68q-112 0 -211 40t-171.5 110t-114.5 169.5t-42 213.5zM240 506q0 -172 111.5 -282.5t275.5 -110.5q162 0 273.5 110.5t111.5 282.5 q0 171 -111 280t-274 109q-164 0 -275.5 -109t-111.5 -280zM324 1307q0 107 51.5 158t126.5 51q41 0 77.5 -15.5t59 -34t53 -34t60.5 -15.5q35 0 55 26.5t20 69.5h111q0 -109 -52 -161t-126 -52q-41 0 -77.5 15.5t-59 34t-53 34t-60.5 15.5q-35 0 -55.5 -26t-20.5 -66h-110z " />
<glyph unicode="&#xf6;" horiz-adv-x="1251" d="M88 506q0 229 155.5 378.5t383.5 149.5q148 0 270.5 -67t194 -188.5t71.5 -272.5q0 -152 -71.5 -274.5t-194 -190.5t-270.5 -68q-112 0 -211 40t-171.5 110t-114.5 169.5t-42 213.5zM240 506q0 -172 111.5 -282.5t275.5 -110.5q162 0 273.5 110.5t111.5 282.5 q0 171 -111 280t-274 109q-164 0 -275.5 -109t-111.5 -280zM297 1389q0 42 30.5 73t75.5 31t77 -31t32 -73q0 -44 -31.5 -74.5t-77.5 -30.5q-45 0 -75.5 30t-30.5 75zM743 1389q0 42 31 73t76 31t76.5 -31t31.5 -73q0 -44 -31 -74.5t-77 -30.5t-76.5 30.5t-30.5 74.5z" />
<glyph unicode="&#xf7;" horiz-adv-x="1187" d="M143 555v139h901v-139h-901zM483 258q0 42 31 72t76 30t75.5 -30t30.5 -72q0 -44 -30 -73t-76 -29t-76.5 29t-30.5 73zM483 993q0 42 31 72.5t76 30.5t75.5 -30.5t30.5 -72.5q0 -44 -30 -73t-76 -29t-76.5 29t-30.5 73z" />
<glyph unicode="&#xf8;" horiz-adv-x="1241" d="M86 61l113 113q-111 143 -111 332q0 229 155.5 378.5t383.5 149.5q184 0 329 -104l109 108l90 -90l-106 -106q114 -143 114 -336q0 -152 -71.5 -274.5t-194 -190.5t-270.5 -68q-190 0 -336 111l-115 -115zM240 506q0 -128 65 -225l547 544q-98 70 -225 70 q-164 0 -275.5 -109t-111.5 -280zM393 186q103 -73 234 -73q162 0 273.5 110.5t111.5 282.5q0 130 -70 229z" />
<glyph unicode="&#xf9;" horiz-adv-x="1277" d="M156 406v604h157v-576q0 -141 76.5 -227t202.5 -86q161 0 255.5 105t94.5 298v486h158v-1008h-158v164q-62 -92 -159.5 -141.5t-221.5 -49.5q-182 0 -293.5 119t-111.5 312zM350 1540h182l162 -287h-135z" />
<glyph unicode="&#xfa;" horiz-adv-x="1277" d="M156 406v604h157v-576q0 -141 76.5 -227t202.5 -86q161 0 255.5 105t94.5 298v486h158v-1008h-158v164q-62 -92 -159.5 -141.5t-221.5 -49.5q-182 0 -293.5 119t-111.5 312zM571 1253l164 287h183l-209 -287h-138z" />
<glyph unicode="&#xfb;" horiz-adv-x="1277" d="M156 406v604h157v-576q0 -141 76.5 -227t202.5 -86q161 0 255.5 105t94.5 298v486h158v-1008h-158v164q-62 -92 -159.5 -141.5t-221.5 -49.5q-182 0 -293.5 119t-111.5 312zM317 1249l238 291h150l239 -291h-160l-153 189l-156 -189h-158z" />
<glyph unicode="&#xfc;" horiz-adv-x="1277" d="M156 406v604h157v-576q0 -141 76.5 -227t202.5 -86q161 0 255.5 105t94.5 298v486h158v-1008h-158v164q-62 -92 -159.5 -141.5t-221.5 -49.5q-182 0 -293.5 119t-111.5 312zM299 1389q0 42 31 73t76 31t76.5 -31t31.5 -73q0 -44 -31 -74.5t-77 -30.5t-76.5 30.5 t-30.5 74.5zM745 1389q0 42 31 73t76 31t77 -31t32 -73q0 -44 -31.5 -74.5t-77.5 -30.5t-76.5 30.5t-30.5 74.5z" />
<glyph unicode="&#xfd;" horiz-adv-x="1277" d="M125 -332l131 101q55 -105 139 -158t213 -53q146 0 240 92.5t94 224.5v289q-62 -92 -159.5 -141.5t-221.5 -49.5q-182 0 -293.5 120t-111.5 313v604h157v-576q0 -141 76.5 -228t202.5 -87q161 0 255.5 106t94.5 299v486h158v-1155q-2 -192 -138 -320.5t-354 -128.5 q-177 0 -300 68.5t-183 193.5zM590 1274l164 287h182l-209 -287h-137z" />
<glyph unicode="&#xfe;" d="M180 -573v2211h156v-790q68 89 171.5 137.5t229.5 48.5q134 0 248.5 -65t185 -187.5t70.5 -277.5q0 -117 -41 -217.5t-110.5 -168.5t-161 -106.5t-191.5 -38.5q-125 0 -229 48.5t-172 138.5v-733h-156zM336 504q0 -115 55 -206.5t140.5 -138t181.5 -46.5q161 0 269 107.5 t108 283.5q0 177 -108 285t-269 108q-72 0 -139.5 -28t-120.5 -77.5t-85 -124.5t-32 -163z" />
<glyph unicode="&#xff;" horiz-adv-x="1277" d="M125 -332l131 101q55 -105 139 -158t213 -53q146 0 240 92.5t94 224.5v289q-62 -92 -159.5 -141.5t-221.5 -49.5q-182 0 -293.5 120t-111.5 313v604h157v-576q0 -141 76.5 -228t202.5 -87q161 0 255.5 106t94.5 299v486h158v-1155q-2 -192 -138 -320.5t-354 -128.5 q-177 0 -300 68.5t-183 193.5zM317 1409q0 42 31 73t76 31t76.5 -31t31.5 -73q0 -44 -31 -74t-77 -30t-76.5 30t-30.5 74zM764 1409q0 42 30.5 73t75.5 31t77 -31t32 -73q0 -44 -31.5 -74t-77.5 -30t-76 30t-30 74z" />
<glyph unicode="&#x152;" horiz-adv-x="2285" d="M113 780q0 230 109.5 406.5t309.5 273t461 96.5h1166v-147h-887v-514h839v-145h-839v-603h891v-147h-1170q-261 0 -461 96.5t-309.5 274t-109.5 409.5zM276 780q0 -188 89 -332t252 -222.5t376 -78.5h117v1264h-117q-323 0 -520 -173.5t-197 -457.5z" />
<glyph unicode="&#x153;" horiz-adv-x="2119" d="M88 506q0 229 155.5 378.5t383.5 149.5q147 0 269 -67t191 -183q70 118 190 184t259 66q136 0 247.5 -62.5t178.5 -178t72 -263.5v-57h-867q7 -109 60.5 -193.5t132 -126.5t166.5 -42q248 0 344 217l139 -33q-59 -157 -185 -239.5t-298 -82.5q-135 0 -253 66.5 t-188 183.5q-70 -117 -190.5 -183.5t-267.5 -66.5q-112 0 -211 40t-171.5 110t-114.5 169.5t-42 213.5zM240 506q0 -172 111.5 -282.5t275.5 -110.5q162 0 273.5 110.5t111.5 282.5q0 171 -111 280t-274 109q-164 0 -275.5 -109t-111.5 -280zM1174 590h700 q-21 146 -114 226.5t-224 80.5q-129 0 -234.5 -82.5t-127.5 -224.5z" />
<glyph unicode="&#x178;" horiz-adv-x="1538" d="M31 1556h180l555 -882l555 882h186l-659 -1044v-512h-162v510zM438 1845q0 42 31 73.5t76 31.5t76.5 -31.5t31.5 -73.5q0 -44 -31 -74t-77 -30t-76.5 30t-30.5 74zM885 1845q0 42 30.5 73.5t75.5 31.5t77 -31.5t32 -73.5q0 -44 -31.5 -74t-77.5 -30t-76 30t-30 74z" />
<glyph unicode="&#x2c6;" horiz-adv-x="1228" d="M303 1157l238 291h149l240 -291h-160l-154 189l-155 -189h-158z" />
<glyph unicode="&#x2dc;" horiz-adv-x="1228" d="M313 1214q0 107 52 158t127 51q41 0 77.5 -15.5t58.5 -33.5t52.5 -33.5t60.5 -15.5q35 0 55.5 26.5t20.5 69.5h111q0 -109 -52 -161t-126 -52q-41 0 -77.5 15.5t-59 34t-53 34t-60.5 15.5q-35 0 -55.5 -26t-20.5 -67h-111z" />
<glyph unicode="&#x2000;" horiz-adv-x="1042" />
<glyph unicode="&#x2001;" horiz-adv-x="2085" />
<glyph unicode="&#x2002;" horiz-adv-x="1042" />
<glyph unicode="&#x2003;" horiz-adv-x="2085" />
<glyph unicode="&#x2004;" horiz-adv-x="695" />
<glyph unicode="&#x2005;" horiz-adv-x="521" />
<glyph unicode="&#x2006;" horiz-adv-x="347" />
<glyph unicode="&#x2007;" horiz-adv-x="347" />
<glyph unicode="&#x2008;" horiz-adv-x="260" />
<glyph unicode="&#x2009;" horiz-adv-x="417" />
<glyph unicode="&#x200a;" horiz-adv-x="115" />
<glyph unicode="&#x2010;" horiz-adv-x="907" d="M123 455v137h661v-137h-661z" />
<glyph unicode="&#x2011;" horiz-adv-x="907" d="M123 455v137h661v-137h-661z" />
<glyph unicode="&#x2012;" horiz-adv-x="907" d="M123 455v137h661v-137h-661z" />
<glyph unicode="&#x2013;" horiz-adv-x="1269" d="M123 461v123h1024v-123h-1024z" />
<glyph unicode="&#x2014;" horiz-adv-x="2560" d="M123 461v123h2314v-123h-2314z" />
<glyph unicode="&#x2018;" horiz-adv-x="512" d="M98 1018v6l197 532h123l-135 -538h-185z" />
<glyph unicode="&#x2019;" horiz-adv-x="512" d="M98 1018l135 538h185v-4l-199 -534h-121z" />
<glyph unicode="&#x201a;" horiz-adv-x="512" d="M98 -270l135 538h185v-4l-199 -534h-121z" />
<glyph unicode="&#x201c;" horiz-adv-x="849" d="M98 1018v6l197 532h123l-135 -538h-185zM436 1018v6l197 532h123l-135 -538h-185z" />
<glyph unicode="&#x201d;" horiz-adv-x="849" d="M98 1018l135 538h185v-4l-199 -534h-121zM436 1018l135 538h185v-4l-199 -534h-121z" />
<glyph unicode="&#x201e;" horiz-adv-x="849" d="M98 -270l135 538h185v-4l-199 -534h-121zM436 -270l135 538h185v-4l-199 -534h-121z" />
<glyph unicode="&#x2022;" horiz-adv-x="815" d="M102 539q0 120 88.5 207.5t217.5 87.5t217 -87.5t88 -207.5q0 -126 -87 -209.5t-218 -83.5t-218.5 83.5t-87.5 209.5z" />
<glyph unicode="&#x2026;" horiz-adv-x="1318" d="M102 96q0 42 31 73.5t76 31.5t75.5 -31.5t30.5 -73.5q0 -43 -30.5 -72.5t-75.5 -29.5q-46 0 -76.5 29.5t-30.5 72.5zM553 96q0 42 30.5 73.5t75.5 31.5t76 -31.5t31 -73.5q0 -43 -30.5 -72.5t-76.5 -29.5q-45 0 -75.5 29.5t-30.5 72.5zM1004 96q0 42 30.5 73.5t75.5 31.5 t76 -31.5t31 -73.5q0 -43 -30.5 -72.5t-76.5 -29.5q-45 0 -75.5 29.5t-30.5 72.5z" />
<glyph unicode="&#x202f;" horiz-adv-x="417" />
<glyph unicode="&#x2039;" horiz-adv-x="512" d="M51 537l250 364h160l-250 -364l250 -365h-160z" />
<glyph unicode="&#x203a;" horiz-adv-x="512" d="M51 172l250 365l-250 364h160l250 -364l-250 -365h-160z" />
<glyph unicode="&#x205f;" horiz-adv-x="521" />
<glyph unicode="&#x20ac;" horiz-adv-x="2088" d="M180 549v119h252q-6 52 -6 108q0 50 6 96h-252v119h273q68 261 280 426.5t490 165.5t481.5 -157t271.5 -420l-157 -45q-57 220 -216 345.5t-380 125.5q-210 0 -374 -122t-228 -319h778l-31 -119h-774q-6 -46 -6 -96q0 -61 8 -108h709l-31 -119h-647q65 -191 227 -308.5 t369 -117.5q221 0 380 124.5t216 344.5l157 -33q-66 -269 -270 -428.5t-483 -159.5q-274 0 -484.5 161.5t-281.5 416.5h-277z" />
<glyph unicode="&#x2122;" horiz-adv-x="1331" d="M78 1475v81h475v-81h-191v-463h-98v463h-186zM637 1012v544h94l205 -296l207 296h92v-544h-92v389l-176 -256h-62l-176 256v-389h-92z" />
<glyph unicode="&#x25fc;" horiz-adv-x="1013" d="M0 0v1014h1014v-1014h-1014z" />
<glyph unicode="&#xfb03;" horiz-adv-x="1892" d="M0 879v131h217v211q0 203 120.5 323.5t319.5 120.5q94 0 174.5 -31t163.5 -96q121 127 326 127q98 0 182 -33.5t172 -105.5l-71 -121q-72 63 -139 91t-144 28q-130 0 -207.5 -81.5t-77.5 -221.5v-211h688v-1010h-155v879h-533v-879h-155v879h-508v-879h-156v879h-217z M373 1010h508v211q0 110 39 202q-127 101 -263 101q-130 0 -207 -81.5t-77 -221.5v-211z" />
<glyph unicode="&#xfb04;" horiz-adv-x="2033" d="M0 879v131h217v211q0 203 120.5 323.5t319.5 120.5q95 0 176.5 -31t165.5 -98q123 129 328 129q118 0 227 -53v26h156v-1380q0 -61 39 -98t104 -37q57 0 121 33l33 -131q-88 -52 -178 -52q-124 0 -199.5 76t-75.5 201v629h-510v-879h-157v879h-514v-879h-156v879h-217z M373 1010h514v211q0 114 37 198q-128 105 -267 105q-130 0 -207 -81.5t-77 -221.5v-211zM1044 1010h510v440q-107 74 -227 74q-129 0 -206 -81.5t-77 -221.5v-211z" />
</font>
</defs>
</svg>
