<?xml version="1.0" standalone="no"?>
<!DOCTYPE svg PUBLIC "-//W3C//DTD SVG 1.1//EN" "http://www.w3.org/Graphics/SVG/1.1/DTD/svg11.dtd" >
<svg xmlns="http://www.w3.org/2000/svg" xmlns:xlink="http://www.w3.org/1999/xlink" version="1.1">
<metadata>
Created by FontForge 20201107 at Wed Jun 12 15:51:29 2024
 By 
Copyright (c) 2014 by Rene' Bieder. All rights reserved.
</metadata>
<defs>
<font id="GalanoGrotesque-SemiBold" horiz-adv-x="1249" >
  <font-face 
    font-family="Galano Grotesque SemiBold"
    font-weight="600"
    font-stretch="normal"
    units-per-em="2048"
    panose-1="0 0 7 0 0 0 0 0 0 0"
    ascent="1638"
    descent="-410"
    x-height="1022"
    cap-height="1372"
    bbox="-369 -434 2482 1935"
    underline-thickness="102"
    underline-position="-204"
    unicode-range="U+0020-FB02"
  />
<missing-glyph horiz-adv-x="1574" 
d="M788 1401q192 0 355 -91.5t260.5 -257.5t97.5 -370q0 -202 -97.5 -366.5t-260.5 -255.5t-355 -91q-193 0 -356.5 91t-260.5 255.5t-97 366.5q0 153 57 288t154 229t228 148t275 54zM788 1288q-120 0 -228.5 -45.5t-188.5 -124.5t-127 -192t-47 -242q0 -170 80 -309
t215 -216t296 -77q119 0 227.5 45.5t188.5 124.5t127 191.5t47 240.5t-47 241.5t-127 192.5t-188.5 124.5t-227.5 45.5zM1061 817q0 -86 -59.5 -142.5t-159.5 -68.5v-63h-137v176h86q55 0 89.5 27.5t34.5 70.5q0 51 -34.5 83t-89.5 32q-59 0 -98 -35t-48 -94l-143 26
q6 97 87.5 166.5t201.5 69.5q121 0 195.5 -68.5t74.5 -179.5zM770 457q39 0 64.5 -25.5t25.5 -60.5q0 -39 -25.5 -64.5t-64.5 -25.5q-38 0 -63 26t-25 64q0 35 25.5 60.5t62.5 25.5z" />
    <glyph glyph-name="fi" unicode="fi" horiz-adv-x="1320" 
d="M1163 1022v-1022h-270v801h-426v-801h-270v801h-156v221h156v92q0 179 111.5 283t297.5 104q98 0 182 -37l-59 -219q-63 17 -104 17q-72 0 -115 -38.5t-43 -109.5v-92h696zM1028 1169q-72 0 -118 45t-46 113q0 66 47 114t117 48q69 0 116.5 -48t47.5 -114q0 -68 -47 -113
t-117 -45z" />
    <glyph glyph-name="fl" unicode="fl" horiz-adv-x="1312" 
d="M618 1262q-68 0 -109.5 -39t-41.5 -109v-92h309v-221h-309v-801h-270v801h-156v221h156v92q0 178 110.5 282.5t292.5 104.5q100 0 182 -39l-61 -219q-59 19 -103 19zM1169 1475v-1475h-270v1475h270z" />
    <glyph glyph-name=".notdef" horiz-adv-x="1574" 
d="M788 1401q192 0 355 -91.5t260.5 -257.5t97.5 -370q0 -202 -97.5 -366.5t-260.5 -255.5t-355 -91q-193 0 -356.5 91t-260.5 255.5t-97 366.5q0 153 57 288t154 229t228 148t275 54zM788 1288q-120 0 -228.5 -45.5t-188.5 -124.5t-127 -192t-47 -242q0 -170 80 -309
t215 -216t296 -77q119 0 227.5 45.5t188.5 124.5t127 191.5t47 240.5t-47 241.5t-127 192.5t-188.5 124.5t-227.5 45.5zM1061 817q0 -86 -59.5 -142.5t-159.5 -68.5v-63h-137v176h86q55 0 89.5 27.5t34.5 70.5q0 51 -34.5 83t-89.5 32q-59 0 -98 -35t-48 -94l-143 26
q6 97 87.5 166.5t201.5 69.5q121 0 195.5 -68.5t74.5 -179.5zM770 457q39 0 64.5 -25.5t25.5 -60.5q0 -39 -25.5 -64.5t-64.5 -25.5q-38 0 -63 26t-25 64q0 35 25.5 60.5t62.5 25.5z" />
    <glyph glyph-name=".null" horiz-adv-x="0" 
 />
    <glyph glyph-name="nonmarkingreturn" horiz-adv-x="682" 
 />
    <glyph glyph-name="space" unicode=" " horiz-adv-x="497" 
 />
    <glyph glyph-name="exclam" unicode="!" horiz-adv-x="589" 
d="M444 1372v-63l-10 -860h-276l-11 860v63h297zM295 305q69 0 115.5 -47t46.5 -111q0 -66 -46 -110.5t-116 -44.5t-116 44.5t-46 110.5q0 64 46.5 111t115.5 47z" />
    <glyph glyph-name="quotedbl" unicode="&#x22;" horiz-adv-x="868" 
d="M102 762v610h275v-610h-275zM492 762v610h274v-610h-274z" />
    <glyph glyph-name="numbersign" unicode="#" horiz-adv-x="1419" 
d="M1108 799l-64 -260h218l-64 -226h-209l-78 -313h-237l78 313h-263l-77 -313h-238l78 313h-217l61 226h211l64 260h-215l59 225h211l86 348h238l-86 -348h262l86 348h237l-86 -348h217l-63 -225h-209zM870 799h-262l-63 -260h262z" />
    <glyph glyph-name="dollar" unicode="$" horiz-adv-x="1232" 
d="M1130 422q0 -164 -108 -271t-285 -131v-225h-229v234q-172 33 -289 139.5t-127 271.5l273 54q11 -171 153 -226v322l-53 10q-66 12 -123.5 36.5t-109.5 65.5t-82.5 107t-30.5 149q0 160 105.5 265.5t283.5 128.5v225h229v-231q166 -33 269.5 -141t113.5 -269l-270 -47
q1 80 -32.5 134t-90.5 81v-299l66 -14q162 -34 249.5 -128t87.5 -241zM397 975q0 -100 121 -127v272q-56 -19 -88.5 -58t-32.5 -87zM727 547v-291q67 17 105 58.5t38 97.5q0 52 -32 84.5t-111 50.5z" />
    <glyph glyph-name="percent" unicode="%" horiz-adv-x="1705" 
d="M426 1403q143 0 242.5 -92t99.5 -240q0 -147 -100 -239.5t-242 -92.5q-143 0 -243.5 92.5t-100.5 239.5q0 148 100 240t244 92zM254 0l1006 1372h178l-1006 -1372h-178zM426 1219q-57 0 -99 -40t-42 -106q0 -69 42 -109t99 -40q56 0 97.5 40.5t41.5 108.5q0 66 -41.5 106
t-97.5 40zM1282 633q143 0 242.5 -92t99.5 -240q0 -147 -100 -239.5t-242 -92.5q-143 0 -243.5 92.5t-100.5 239.5q0 148 100 240t244 92zM1282 449q-57 0 -99 -40t-42 -106q0 -69 42 -109t99 -40q56 0 97.5 40.5t41.5 108.5q0 66 -41.5 106t-97.5 40z" />
    <glyph glyph-name="ampersand" unicode="&#x26;" horiz-adv-x="1433" 
d="M1233 -59l-184 161q-161 -133 -400 -133q-246 0 -396.5 119t-150.5 315q0 111 62 199.5t172 147.5q-98 121 -98 274q0 167 124 273t312 106q189 0 301.5 -106.5t136.5 -284.5l-254 -45q-7 111 -54.5 160t-129.5 49q-77 0 -126.5 -41t-49.5 -117q0 -64 37.5 -120.5
t140.5 -145.5l325 -285q19 68 19 143v105h240v-105q0 -178 -64 -315l197 -172zM649 197q118 0 215 69l-368 326q-61 -34 -95 -83.5t-34 -105.5q0 -94 77 -150t205 -56z" />
    <glyph glyph-name="quotesingle" unicode="'" horiz-adv-x="479" 
d="M102 762v610h275v-610h-275z" />
    <glyph glyph-name="parenleft" unicode="(" horiz-adv-x="749" 
d="M477 1544l191 -168q-164 -173 -229.5 -332t-65.5 -358q0 -197 65.5 -356t229.5 -332l-191 -166q-395 358 -395 854q0 497 395 858z" />
    <glyph glyph-name="parenright" unicode=")" horiz-adv-x="749" 
d="M82 1376l190 168q396 -362 396 -858q0 -495 -396 -854l-190 166q164 173 229.5 332t65.5 356q0 199 -65.5 358t-229.5 332z" />
    <glyph glyph-name="asterisk" unicode="*" horiz-adv-x="915" 
d="M623 1096l221 -129l-82 -144l-211 123v-231h-186v231l-211 -123l-82 144l221 129l-221 127l82 145l211 -123v230h186v-230l211 123l82 -145z" />
    <glyph glyph-name="plus" unicode="+" horiz-adv-x="1187" 
d="M1065 506h-352v-361h-238v361h-352v237h352v361h238v-361h352v-237z" />
    <glyph glyph-name="comma" unicode="," horiz-adv-x="516" 
d="M223 -270h-203l123 549h312v-7z" />
    <glyph glyph-name="hyphen" unicode="-" horiz-adv-x="917" 
d="M795 406h-672v233h672v-233z" />
    <glyph glyph-name="period" unicode="." horiz-adv-x="487" 
d="M244 305q69 0 115.5 -47t46.5 -111q0 -66 -46 -110.5t-116 -44.5t-116 44.5t-46 110.5q0 64 46.5 111t115.5 47z" />
    <glyph glyph-name="slash" unicode="/" horiz-adv-x="856" 
d="M836 1518l-590 -1665h-226l590 1665h226z" />
    <glyph glyph-name="zero" unicode="0" horiz-adv-x="1363" 
d="M682 1403q174 0 308.5 -90t208 -253t73.5 -374q0 -321 -163 -519t-427 -198t-427 198t-163 519q0 211 73.5 374t208 253t308.5 90zM682 225q140 0 223.5 127.5t83.5 333.5t-83.5 333.5t-223.5 127.5t-223.5 -127.5t-83.5 -333.5t83.5 -333.5t223.5 -127.5z" />
    <glyph glyph-name="one" unicode="1" horiz-adv-x="757" 
d="M604 1372v-1372h-270v1047l-338 -175v248l436 252h172z" />
    <glyph glyph-name="two" unicode="2" horiz-adv-x="1071" 
d="M999 252v-252h-933v180l462 459q6 6 31.5 31t35 35t31.5 34.5t31.5 39t25 40t22.5 46.5t12.5 48.5t5.5 55.5q0 86 -57 140t-146 54q-208 0 -225 -252l-254 54q9 201 141 319.5t342 118.5q207 0 337 -119t130 -309q0 -93 -35 -176.5t-95 -158t-169 -181.5l-211 -207h518z
" />
    <glyph glyph-name="three" unicode="3" horiz-adv-x="1169" 
d="M903 690q82 -35 128 -109t46 -173q0 -198 -134 -318.5t-351 -120.5q-214 0 -352.5 119t-155.5 315l260 52q15 -117 77.5 -180.5t170.5 -63.5q101 0 166 54t65 141q0 78 -53.5 121.5t-153.5 43.5h-198v242h182q96 0 148.5 43t52.5 119q0 83 -57 133.5t-152 50.5
q-100 0 -163.5 -62t-72.5 -186l-254 52q17 197 150 318.5t340 121.5q209 0 337 -118.5t128 -309.5q0 -99 -40.5 -172.5t-113.5 -112.5z" />
    <glyph glyph-name="four" unicode="4" horiz-adv-x="1261" 
d="M1208 276h-170v-276h-270v276h-727v256l629 840h368v-870h170v-226zM768 502v600l-422 -600h422z" />
    <glyph glyph-name="five" unicode="5" horiz-adv-x="1169" 
d="M410 887h208q212 0 340.5 -120.5t128.5 -322.5q0 -209 -138.5 -342t-366.5 -133q-104 0 -195.5 31t-162 89t-111.5 149.5t-41 205.5l268 54q0 -139 69.5 -209t178.5 -70q104 0 168.5 60.5t64.5 160.5q0 89 -61.5 144t-161.5 55h-459l23 733h862v-252h-604z" />
    <glyph glyph-name="six" unicode="6" horiz-adv-x="1251" 
d="M680 889q220 0 349.5 -126t129.5 -327q0 -203 -141 -335t-363 -132q-257 0 -410 184.5t-153 512.5q0 192 43 335t141 244q155 158 383 158q176 0 300.5 -85t166.5 -241l-266 -51q-24 72 -76 102.5t-135 30.5q-113 0 -192 -86q-105 -113 -105 -321q58 64 146 100.5
t182 36.5zM649 217q93 0 162.5 63t69.5 160t-69.5 159.5t-162.5 62.5q-91 0 -157 -63t-66 -163q0 -96 66 -157.5t157 -61.5z" />
    <glyph glyph-name="seven" unicode="7" horiz-adv-x="1030" 
d="M989 1372v-198l-471 -1174h-305l475 1120h-657v252h958z" />
    <glyph glyph-name="eight" unicode="8" horiz-adv-x="1159" 
d="M842 694q121 -44 188.5 -130.5t67.5 -192.5q0 -179 -142.5 -290.5t-373.5 -111.5q-233 0 -377 111.5t-144 290.5q0 107 68 193t190 130q-104 46 -159.5 132t-55.5 200q0 169 131.5 273t346.5 104q213 0 344 -104t131 -273q0 -113 -55.5 -200t-159.5 -132zM578 1180
q-82 0 -139.5 -47t-57.5 -132q0 -83 57 -128.5t140 -45.5q84 0 144 47t60 132q0 82 -60 128t-144 46zM578 201q89 0 153 49.5t64 138.5q0 87 -63.5 135.5t-153.5 48.5q-89 0 -149 -48.5t-60 -139.5q0 -88 59.5 -136t149.5 -48z" />
    <glyph glyph-name="nine" unicode="9" horiz-adv-x="1251" 
d="M596 1403q257 0 410 -184t153 -512q0 -391 -184 -580q-155 -158 -383 -158q-176 0 -300.5 85t-166.5 241l266 51q24 -72 76 -102.5t135 -30.5q114 0 193 86q104 112 104 322q-58 -64 -146 -101t-182 -37q-220 0 -349.5 126t-129.5 327q0 203 141 335t363 132zM602 711
q91 0 157 62.5t66 162.5q0 96 -66 157.5t-157 61.5q-93 0 -162 -63t-69 -160t69 -159t162 -62z" />
    <glyph glyph-name="colon" unicode=":" horiz-adv-x="487" 
d="M244 993q69 0 115.5 -46.5t46.5 -110.5q0 -66 -46 -111t-116 -45t-116 45t-46 111q0 64 46.5 110.5t115.5 46.5zM244 305q69 0 115.5 -47t46.5 -111q0 -66 -46 -110.5t-116 -44.5t-116 44.5t-46 110.5q0 64 46.5 111t115.5 47z" />
    <glyph glyph-name="semicolon" unicode=";" horiz-adv-x="552" 
d="M309 993q69 0 115.5 -46.5t46.5 -110.5q0 -66 -46 -111t-116 -45t-116 45t-46 111q0 64 46.5 110.5t115.5 46.5zM223 -270h-203l123 549h312v-7z" />
    <glyph glyph-name="less" unicode="&#x3c;" horiz-adv-x="919" 
d="M844 240l-776 288v287l776 293v-287l-463 -147l463 -154v-280z" />
    <glyph glyph-name="equal" unicode="=" horiz-adv-x="1187" 
d="M1065 743h-942v236h942v-236zM1065 338h-942v235h942v-235z" />
    <glyph glyph-name="greater" unicode="&#x3e;" horiz-adv-x="919" 
d="M545 674l-463 147v287l776 -293v-287l-776 -288v280z" />
    <glyph glyph-name="question" unicode="?" horiz-adv-x="1093" 
d="M567 1403q213 0 344 -123t131 -322q0 -155 -104 -258t-279 -125v-114h-247v319h155q95 0 154 49t59 129q0 91 -59 148t-154 57q-101 0 -166 -63.5t-84 -171.5l-256 51q8 113 72.5 209t179 155.5t254.5 59.5zM532 305q69 0 115.5 -47t46.5 -111q0 -66 -46 -110.5
t-116 -44.5t-115.5 44.5t-45.5 110.5q0 64 46 111t115 47z" />
    <glyph glyph-name="at" unicode="@" horiz-adv-x="1931" 
d="M1360 969v-580q0 -49 34.5 -78.5t82.5 -29.5q61 0 103.5 55t59.5 129t17 156q0 182 -92 326t-246.5 221t-341.5 77q-198 0 -359 -89t-252.5 -246t-91.5 -351q0 -145 54 -272.5t145.5 -217t218 -141t266.5 -51.5q130 0 261 42.5t239 123.5l88 -139q-109 -88 -266 -138.5
t-317 -50.5q-176 0 -334 63t-274 173t-184.5 267.5t-68.5 338.5q0 180 67.5 337.5t183.5 269t278.5 175.5t345.5 64q232 0 426.5 -98.5t310 -276t115.5 -395.5q0 -72 -12 -140.5t-40.5 -136t-71 -118t-109 -82t-148.5 -31.5q-176 0 -238 123q-105 -121 -286 -121
t-299.5 117.5t-118.5 308.5q0 194 120 312t296 118q157 0 262 -100v86h176zM948 305q96 0 166 68.5t70 181.5q0 112 -70 179t-166 67q-95 0 -164 -66.5t-69 -179.5q0 -115 69 -182.5t164 -67.5z" />
    <glyph glyph-name="A" unicode="A" horiz-adv-x="1447" 
d="M1448 0h-301l-119 293h-606l-121 -293h-301l594 1372h260zM924 545l-199 489l-201 -489h400z" />
    <glyph glyph-name="B" unicode="B" horiz-adv-x="1349" 
d="M1024 709v-9q94 -12 167 -97t73 -222q0 -175 -111 -278t-332 -103h-678v1372h676q185 0 295.5 -104.5t110.5 -276.5q0 -119 -64 -194.5t-137 -87.5zM422 1135v-336h348q83 0 133.5 48t50.5 128q0 70 -48.5 115t-117.5 45h-366zM422 238h369q92 0 140 45.5t48 124.5
q0 77 -49.5 123.5t-128.5 46.5h-379v-340z" />
    <glyph glyph-name="C" unicode="C" horiz-adv-x="1560" 
d="M803 229q150 0 259 86t146 258l271 -55q-50 -258 -236 -403.5t-440 -145.5q-149 0 -282.5 56t-229.5 151t-152.5 228t-56.5 282q0 197 95.5 362t261.5 260t364 95q251 0 437.5 -142.5t238.5 -386.5l-271 -75q-37 171 -146 256.5t-259 85.5q-186 0 -313.5 -130.5
t-127.5 -324.5t128 -325.5t313 -131.5z" />
    <glyph glyph-name="D" unicode="D" horiz-adv-x="1484" 
d="M143 1372h506q339 0 546.5 -189t207.5 -497t-207.5 -497t-546.5 -189h-506v1372zM422 252h227q215 0 344 117.5t129 316.5t-129 316.5t-344 117.5h-227v-868z" />
    <glyph glyph-name="E" unicode="E" horiz-adv-x="1298" 
d="M1186 252v-252h-1043v1372h1039v-252h-760v-309h700v-248h-700v-311h764z" />
    <glyph glyph-name="F" unicode="F" horiz-adv-x="1218" 
d="M422 1120v-336h665v-252h-665v-532h-279v1372h1024v-252h-745z" />
    <glyph glyph-name="G" unicode="G" horiz-adv-x="1589" 
d="M750 801h751q6 -71 6 -119q0 -151 -52 -283t-143.5 -226.5t-221 -149t-279.5 -54.5q-151 0 -286.5 56t-232.5 151t-153.5 228t-56.5 282q0 197 95.5 362t261.5 260t364 95q228 0 408 -106.5t251 -307.5l-250 -88q-124 240 -409 240q-185 0 -311.5 -131t-126.5 -324
q0 -195 131 -326t323 -131q156 0 266.5 85.5t145.5 232.5h-481v254z" />
    <glyph glyph-name="H" unicode="H" horiz-adv-x="1499" 
d="M1356 1372v-1372h-279v563h-655v-563h-279v1372h279v-557h655v557h279z" />
    <glyph glyph-name="I" unicode="I" horiz-adv-x="565" 
d="M422 0h-279v1372h279v-1372z" />
    <glyph glyph-name="J" unicode="J" horiz-adv-x="1220" 
d="M1090 1372v-887q0 -226 -148 -371t-385 -145q-216 0 -354.5 123t-171.5 326l264 53q14 -112 81.5 -182t180.5 -70t183.5 75.5t70.5 190.5v887h279z" />
    <glyph glyph-name="K" unicode="K" horiz-adv-x="1388" 
d="M1389 0h-375l-522 549h-70v-549h-279v1372h279v-571h47l532 571h345l-631 -688z" />
    <glyph glyph-name="L" unicode="L" horiz-adv-x="1212" 
d="M1130 252v-252h-987v1372h279v-1120h708z" />
    <glyph glyph-name="M" unicode="M" horiz-adv-x="1814" 
d="M1671 1372v-1372h-270v788l-430 -788h-125l-432 788v-788h-271v1372h244l520 -948l523 948h241z" />
    <glyph glyph-name="N" unicode="N" horiz-adv-x="1558" 
d="M1415 1372v-1372h-233l-760 881v-881h-279v1372h234l760 -905v905h278z" />
    <glyph glyph-name="O" unicode="O" horiz-adv-x="1609" 
d="M805 1403q200 0 366 -96t261.5 -261t95.5 -362t-95.5 -361t-261.5 -259t-366 -95t-366 95t-261.5 259t-95.5 361t95.5 362t261.5 261t366 96zM805 231q187 0 314.5 129t127.5 324q0 196 -127.5 326.5t-314.5 130.5t-315 -131t-128 -326t128 -324t315 -129z" />
    <glyph glyph-name="P" unicode="P" horiz-adv-x="1361" 
d="M143 1372h639q234 0 371 -126.5t137 -334.5q0 -211 -136.5 -336.5t-371.5 -125.5h-360v-449h-279v1372zM422 700h360q111 0 171.5 57t60.5 154q0 94 -61 151.5t-171 57.5h-360v-420z" />
    <glyph glyph-name="Q" unicode="Q" horiz-adv-x="1609" 
d="M1528 684q0 -159 -64 -299t-178 -238l242 -286l-215 -197l-289 338q-100 -33 -219 -33q-200 0 -366 95t-261.5 259t-95.5 361t95.5 362t261.5 261t366 96t366 -96t261.5 -261t95.5 -362zM362 684q0 -195 128 -324t315 -129t314.5 129t127.5 324q0 196 -127.5 326.5
t-314.5 130.5t-315 -131t-128 -326z" />
    <glyph glyph-name="R" unicode="R" horiz-adv-x="1380" 
d="M1360 0h-340l-453 504h-145v-504h-279v1372h658q221 0 356 -119.5t135 -314.5q0 -171 -106 -286.5t-287 -141.5zM422 756h379q97 0 156 50t59 132t-59 132t-156 50h-379v-364z" />
    <glyph glyph-name="S" unicode="S" horiz-adv-x="1312" 
d="M647 1403q210 0 356.5 -106.5t186.5 -288.5l-279 -58q-15 96 -90.5 154.5t-179.5 58.5q-101 0 -162 -49t-61 -121q0 -56 30.5 -90.5t106.5 -48.5l295 -59q171 -36 265.5 -136.5t94.5 -257.5q0 -198 -149 -315t-395 -117q-109 0 -206 25.5t-175 75t-129 128.5t-64 179
l293 59q53 -223 307 -223q116 0 180 49t64 125q0 61 -35.5 96.5t-124.5 53.5l-291 55q-360 77 -360 393q0 187 141.5 302.5t380.5 115.5z" />
    <glyph glyph-name="T" unicode="T" horiz-adv-x="1273" 
d="M1233 1120h-457v-1120h-278v1120h-457v252h1192v-252z" />
    <glyph glyph-name="U" unicode="U" horiz-adv-x="1456" 
d="M1325 1372v-758q0 -289 -162.5 -467t-427.5 -178q-271 0 -437.5 178t-166.5 467v758h279v-758q0 -172 88.5 -275t236.5 -103q140 0 226 103.5t86 274.5v758h278z" />
    <glyph glyph-name="V" unicode="V" horiz-adv-x="1492" 
d="M1473 1372l-592 -1372h-269l-592 1372h308l417 -999l420 999h308z" />
    <glyph glyph-name="W" unicode="W" horiz-adv-x="1970" 
d="M1950 1372l-400 -1372h-299l-266 926l-268 -926h-297l-400 1372h291l262 -946l277 946h268l277 -946l262 946h293z" />
    <glyph glyph-name="X" unicode="X" horiz-adv-x="1355" 
d="M889 688l446 -688h-340l-317 502l-318 -502h-340l445 688l-445 684h338l320 -498l319 498h338z" />
    <glyph glyph-name="Y" unicode="Y" horiz-adv-x="1415" 
d="M842 438v-438h-279v434l-543 938h308l374 -647l373 647h320z" />
    <glyph glyph-name="Z" unicode="Z" horiz-adv-x="1280" 
d="M1194 238v-238h-1098v178l729 957h-708v237h1063v-211l-688 -923h702z" />
    <glyph glyph-name="bracketleft" unicode="[" horiz-adv-x="829" 
d="M403 1286v-1223h345v-231h-605v1686h605v-232h-345z" />
    <glyph glyph-name="backslash" unicode="\" horiz-adv-x="856" 
d="M836 -147h-226l-590 1665h226z" />
    <glyph glyph-name="bracketright" unicode="]" horiz-adv-x="829" 
d="M686 1518v-1686h-604v231h344v1223h-344v232h604z" />
    <glyph glyph-name="asciicircum" unicode="^" horiz-adv-x="909" 
d="M276 883h-235l317 489h193l317 -489h-235l-178 272z" />
    <glyph glyph-name="underscore" unicode="_" horiz-adv-x="1105" 
d="M1065 -338h-1024v223h1024v-223z" />
    <glyph glyph-name="grave" unicode="`" horiz-adv-x="1228" 
d="M612 1456l136 -295h-230l-223 295h317z" />
    <glyph glyph-name="a" unicode="a" horiz-adv-x="1314" 
d="M1171 1022v-1022h-270v80q-136 -111 -338 -111q-97 0 -188 40t-160.5 109.5t-111.5 172t-42 219.5t42 220t111.5 173t160.5 110t188 40q203 0 338 -113v82h270zM610 205q115 0 203 85t88 220t-88 221t-203 86q-125 0 -205.5 -84t-80.5 -223t80.5 -222t205.5 -83z" />
    <glyph glyph-name="b" unicode="b" horiz-adv-x="1314" 
d="M752 1053q97 0 188 -40t160 -110t111 -173t42 -220t-42 -219.5t-111 -172t-160 -109.5t-188 -40q-202 0 -338 111v-80h-271v1475h271v-535q135 113 338 113zM705 205q125 0 205.5 83t80.5 222t-80.5 223t-205.5 84q-115 0 -203 -86t-88 -221t88 -220t203 -85z" />
    <glyph glyph-name="c" unicode="c" horiz-adv-x="1181" 
d="M608 217q196 0 262 199l250 -64q-42 -173 -184.5 -278t-327.5 -105q-149 0 -273.5 67t-199 192t-74.5 282t74.5 282.5t199 193t273.5 67.5q179 0 320 -103t192 -274l-260 -74q-27 103 -93 153t-159 50q-127 0 -205.5 -82t-78.5 -213q0 -132 78 -212.5t206 -80.5z" />
    <glyph glyph-name="d" unicode="d" horiz-adv-x="1314" 
d="M1171 1475v-1475h-270v80q-136 -111 -338 -111q-97 0 -188 40t-160.5 109.5t-111.5 172t-42 219.5t42 220t111.5 173t160.5 110t188 40q203 0 338 -113v535h270zM610 205q115 0 203 85t88 220t-88 221t-203 86q-125 0 -205.5 -84t-80.5 -223t80.5 -222t205.5 -83z" />
    <glyph glyph-name="e" unicode="e" horiz-adv-x="1169" 
d="M1108 530v-92h-778q20 -109 90.5 -173t165.5 -64q37 0 64.5 4t63.5 16.5t68 41t58 73.5l241 -51q-66 -156 -195 -236t-300 -80q-108 0 -204 39.5t-167 109.5t-112.5 172t-41.5 220q0 157 71 282t191.5 193t266.5 68q136 0 252 -65t188.5 -185.5t77.5 -272.5zM590 817
q-83 0 -156 -49t-96 -139h493q-25 94 -90 141t-151 47z" />
    <glyph glyph-name="f" unicode="f" horiz-adv-x="755" 
d="M467 1022h309v-221h-309v-801h-270v801h-156v221h156v92q0 178 110.5 282.5t292.5 104.5q100 0 182 -39l-61 -219q-59 19 -103 19q-68 0 -109.5 -39t-41.5 -109v-92z" />
    <glyph glyph-name="g" unicode="g" horiz-adv-x="1284" 
d="M1139 1022l2 -924q0 -231 -148 -359t-399 -128q-176 0 -303.5 59t-194.5 166l219 166q43 -53 79.5 -83.5t85.5 -47t114 -16.5q130 0 207.5 76t77.5 208v17q-118 -95 -322 -95q-127 0 -241 65t-184.5 180.5t-70.5 252.5q0 136 70.5 250.5t184.5 179t241 64.5
q200 0 322 -95v64h260zM604 293q111 0 193 75t82 191t-82 191t-193 75q-123 0 -202.5 -73.5t-79.5 -192.5t79.5 -192.5t202.5 -73.5z" />
    <glyph glyph-name="h" unicode="h" horiz-adv-x="1263" 
d="M735 1053q184 0 297 -119.5t113 -310.5v-623h-271v565q0 108 -56.5 174t-149.5 66q-121 0 -187.5 -85.5t-66.5 -266.5v-453h-271v1475h271v-545q123 123 321 123z" />
    <glyph glyph-name="i" unicode="i" horiz-adv-x="585" 
d="M293 1489q69 0 116.5 -48t47.5 -114q0 -68 -47 -113t-117 -45q-72 0 -118 45t-46 113q0 66 47 114t117 48zM428 0h-270v1022h270v-1022z" />
    <glyph glyph-name="j" unicode="j" horiz-adv-x="608" 
d="M315 1489q69 0 116.5 -48t47.5 -114q0 -68 -47 -113t-117 -45q-71 0 -117 45t-46 113q0 66 46.5 114t116.5 48zM-53 -330l49 236q61 -21 92 -21q43 0 69.5 22.5t26.5 57.5v1057h271v-1094q0 -134 -82 -215.5t-217 -81.5q-102 0 -209 39z" />
    <glyph glyph-name="k" unicode="k" horiz-adv-x="1222" 
d="M1223 0h-361l-401 399h-47v-399h-271v1475h271v-809h49l366 356h340l-493 -490z" />
    <glyph glyph-name="l" unicode="l" horiz-adv-x="557" 
d="M414 0h-271v1475h271v-1475z" />
    <glyph glyph-name="m" unicode="m" horiz-adv-x="1943" 
d="M1427 1053q107 0 197.5 -50.5t145.5 -146.5t55 -217v-639h-269v584q0 101 -56.5 161t-143.5 60q-111 0 -174.5 -78.5t-63.5 -234.5v-492h-270v584q0 101 -57 161t-144 60q-110 0 -171.5 -78t-61.5 -235v-492h-271v1022h271v-84q115 115 305 115q104 0 192.5 -43.5
t143.5 -124.5q136 168 372 168z" />
    <glyph glyph-name="n" unicode="n" horiz-adv-x="1261" 
d="M735 1053q184 0 297 -119.5t113 -310.5v-623h-271v565q0 108 -56.5 174t-149.5 66q-121 0 -187.5 -85.5t-66.5 -266.5v-453h-271v1022h271v-92q123 123 321 123z" />
    <glyph glyph-name="o" unicode="o" horiz-adv-x="1230" 
d="M618 1047q112 0 212.5 -39t175.5 -108t119 -170.5t44 -219.5t-44 -219.5t-119 -170.5t-175.5 -108t-212.5 -39q-114 0 -215.5 39t-177 108t-120 170.5t-44.5 219.5t44.5 219.5t120 170.5t177 108t215.5 39zM618 205q72 0 137 35.5t108.5 107t43.5 162.5t-43.5 162.5
t-108.5 107t-137 35.5q-117 0 -205.5 -84.5t-88.5 -220.5t88.5 -220.5t205.5 -84.5z" />
    <glyph glyph-name="p" unicode="p" horiz-adv-x="1314" 
d="M752 1053q97 0 188 -40t160 -110t111 -173t42 -220t-42 -219.5t-111 -172t-160 -109.5t-188 -40q-202 0 -338 111v-428h-271v1370h271v-82q135 113 338 113zM705 205q125 0 205.5 83t80.5 222t-80.5 223t-205.5 84q-115 0 -203 -86t-88 -221t88 -220t203 -85z" />
    <glyph glyph-name="q" unicode="q" horiz-adv-x="1314" 
d="M1171 1022v-1370h-270v428q-136 -111 -338 -111q-97 0 -188 40t-160.5 109.5t-111.5 172t-42 219.5t42 220t111.5 173t160.5 110t188 40q203 0 338 -113v82h270zM610 205q115 0 203 85t88 220t-88 221t-203 86q-125 0 -205.5 -84t-80.5 -223t80.5 -222t205.5 -83z" />
    <glyph glyph-name="r" unicode="r" horiz-adv-x="878" 
d="M780 1036q47 0 72 -8l-14 -260h-60q-364 0 -364 -438v-330h-271v1022h271v-186q138 200 366 200z" />
    <glyph glyph-name="s" unicode="s" horiz-adv-x="1030" 
d="M57 270l273 56q10 -73 67 -106.5t144 -33.5q73 0 116 29.5t43 73.5q0 69 -112 92l-209 43q-138 29 -213.5 105t-75.5 186q0 150 113.5 244t304.5 94q179 0 298 -83.5t146 -219.5l-258 -52q-8 63 -59.5 102.5t-134.5 39.5q-75 0 -107.5 -29.5t-32.5 -71.5q0 -30 19 -52
t74 -34l243 -53q131 -28 200 -105.5t69 -183.5q0 -165 -122 -253.5t-327 -88.5q-87 0 -163.5 17.5t-140 52.5t-104.5 94.5t-51 136.5z" />
    <glyph glyph-name="t" unicode="t" horiz-adv-x="888" 
d="M809 270l78 -225q-141 -76 -266 -76q-188 0 -295 102t-107 306v424h-219v221h219v309h270v-309h334v-221h-334v-404q0 -89 40 -132.5t110 -43.5q80 0 170 49z" />
    <glyph glyph-name="u" unicode="u" horiz-adv-x="1261" 
d="M1118 1022v-1022h-270v92q-123 -123 -322 -123q-184 0 -296.5 119.5t-112.5 310.5v623h270v-565q0 -108 57 -174t150 -66q121 0 187.5 85.5t66.5 266.5v453h270z" />
    <glyph glyph-name="v" unicode="v" horiz-adv-x="1179" 
d="M1159 1024l-426 -1024h-287l-426 1024h291l279 -694l278 694h291z" />
    <glyph glyph-name="w" unicode="w" horiz-adv-x="1611" 
d="M1591 1022l-340 -1024h-243l-201 602l-203 -602h-244l-340 1024h269l203 -629l208 629h211l209 -631l203 631h268z" />
    <glyph glyph-name="x" unicode="x" horiz-adv-x="1210" 
d="M805 498l344 -498h-322l-223 324l-221 -324h-322l345 498l-345 526h322l221 -344l223 344h322z" />
    <glyph glyph-name="y" unicode="y" horiz-adv-x="1196" 
d="M1176 1024l-594 -1372h-301l163 381l-424 991h302l270 -653l282 653h302z" />
    <glyph glyph-name="z" unicode="z" horiz-adv-x="1071" 
d="M989 221v-221h-907v176l549 625h-535v221h869v-180l-549 -621h573z" />
    <glyph glyph-name="braceleft" unicode="{" horiz-adv-x="868" 
d="M510 1225v-330q0 -79 -36 -137t-101 -84q65 -26 101 -84t36 -137v-330q0 -29 16.5 -46.5t44.5 -17.5h215v-227h-249q-129 0 -208 72t-79 190v326q0 55 -35.5 82t-110.5 51l-63 20v201l63 21q75 24 110.5 51t35.5 82v325q0 119 79 192t208 73h249v-228h-215
q-28 0 -44.5 -18t-16.5 -47z" />
    <glyph glyph-name="bar" unicode="|" horiz-adv-x="546" 
d="M403 -147h-260v1665h260v-1665z" />
    <glyph glyph-name="braceright" unicode="}" horiz-adv-x="868" 
d="M827 774v-201l-63 -20q-75 -24 -110.5 -51t-35.5 -82v-326q0 -118 -78.5 -190t-207.5 -72h-250v227h215q28 0 44.5 17.5t16.5 46.5v330q0 79 36.5 137t101.5 84q-65 26 -101.5 84t-36.5 137v330q0 29 -16.5 47t-44.5 18h-215v228h250q129 0 207.5 -73t78.5 -192v-325
q0 -55 35.5 -82t110.5 -51z" />
    <glyph glyph-name="asciitilde" unicode="~" horiz-adv-x="1024" 
d="M307 469h-205q0 72 17.5 128.5t44.5 90t62.5 55t68 29.5t65.5 8q51 0 94 -13t67 -29t53.5 -29t56.5 -13q34 0 53.5 24t17.5 62h224q0 -74 -19 -132t-48 -91.5t-67.5 -55.5t-72.5 -30t-68 -8q-52 0 -95 13t-66 29t-50.5 29t-52.5 13q-40 0 -61 -23t-19 -57z" />
    <glyph glyph-name="exclamdown" unicode="&#xa1;" horiz-adv-x="589" 
d="M295 735q-69 0 -115.5 47t-46.5 111q0 66 46 111t116 45t116 -45t46 -111q0 -64 -46.5 -111t-115.5 -47zM147 -268l11 860h276l10 -860v-64h-297v64z" />
    <glyph glyph-name="cent" unicode="&#xa2;" horiz-adv-x="1181" 
d="M696 793v-564q123 36 174 187l250 -64q-36 -149 -148 -248.5t-265 -126.5v-243h-228v250q-183 41 -300.5 183t-117.5 343t117.5 344t300.5 184v252h228v-246q148 -27 259.5 -124.5t153.5 -243.5l-260 -74q-38 151 -164 191zM324 510q0 -97 44 -168t121 -102v542
q-77 -32 -121 -104t-44 -168z" />
    <glyph glyph-name="sterling" unicode="&#xa3;" horiz-adv-x="1304" 
d="M535 252h696v-252h-1149v170l174 49v268h-174v252h174v179q0 217 134 351t355 134q216 0 344.5 -132t143.5 -353l-260 -52q-27 271 -228 271q-95 0 -152.5 -60t-57.5 -159v-179h348v-252h-348v-235z" />
    <glyph glyph-name="yen" unicode="&#xa5;" horiz-adv-x="1415" 
d="M950 692h258v-205h-366v-102h366v-205h-366v-180h-279v180h-354v205h354v102h-354v205h248l-416 680h307l354 -602l353 602h319z" />
    <glyph glyph-name="section" unicode="&#xa7;" horiz-adv-x="1099" 
d="M1038 500q0 -97 -47 -168t-123 -111q56 -76 56 -180q0 -158 -112.5 -245t-285.5 -87q-200 0 -314 101t-114 270l234 43q14 -207 182 -207q64 0 106 36.5t42 94.5q0 79 -109 129l-262 111q-132 53 -191 128.5t-59 194.5q0 96 47.5 165t122.5 112q-55 75 -55 180
q0 162 110.5 249t286.5 87q189 0 300.5 -100t117.5 -261l-238 -43q-4 97 -49.5 145t-118.5 48q-64 0 -105.5 -36t-41.5 -95q0 -81 108 -127l262 -111q131 -53 190.5 -129t59.5 -194zM670 367l22 -11q53 29 77 57.5t24 69.5q0 43 -26 76t-89 64l-268 120l-27 13
q-96 -49 -96 -129q0 -44 25 -76.5t89 -63.5z" />
    <glyph glyph-name="dieresis" unicode="&#xa8;" horiz-adv-x="1228" 
d="M393 1470q69 0 116.5 -47.5t47.5 -111.5q0 -69 -46.5 -114.5t-117.5 -45.5q-70 0 -116 45.5t-46 114.5q0 64 46.5 111.5t115.5 47.5zM836 1470q69 0 116 -47.5t47 -111.5q0 -69 -46.5 -114.5t-116.5 -45.5t-116 45.5t-46 114.5q0 64 46.5 111.5t115.5 47.5z" />
    <glyph glyph-name="copyright" unicode="&#xa9;" horiz-adv-x="1548" 
d="M768 1403q145 0 276.5 -54t228.5 -148.5t154.5 -229.5t57.5 -289q0 -203 -97.5 -367.5t-261.5 -255t-358 -90.5q-195 0 -359.5 90.5t-262 255t-97.5 367.5q0 154 57.5 289t154.5 229.5t229 148.5t278 54zM768 1288q-120 0 -229 -45.5t-189 -124.5t-127 -192.5t-47 -241.5
t47 -240t127 -190t189 -123t229 -45t228 45t188 123t127 190t47 240t-47 241.5t-127 192.5t-188.5 124.5t-227.5 45.5zM776 1069q156 0 256.5 -81t118.5 -204l-178 -36q-17 70 -70.5 109.5t-126.5 39.5q-90 0 -146.5 -60t-56.5 -153t56.5 -153t146.5 -60q76 0 131 43t64 119
l180 -29q-12 -135 -114 -220t-261 -85q-104 0 -193 47.5t-143.5 136.5t-54.5 201t54.5 201t143.5 136.5t193 47.5z" />
    <glyph glyph-name="ordfeminine" unicode="&#xaa;" horiz-adv-x="796" 
d="M414 1378q143 0 228 -67.5t85 -200.5v-414h-197v39q-67 -57 -192 -57q-114 0 -183 60.5t-69 158.5q0 92 76.5 148.5t202.5 56.5h165v20q0 43 -27 72t-75 29q-51 0 -78.5 -21.5t-42.5 -71.5l-178 41q26 100 102 153.5t183 53.5zM381 823q66 0 107.5 33.5t41.5 87.5v29
h-145q-43 0 -71.5 -20.5t-28.5 -53.5q0 -36 26 -56t70 -20z" />
    <glyph glyph-name="guillemotleft" unicode="&#xab;" horiz-adv-x="966" 
d="M51 537l230 364h266l-230 -364l230 -365h-266zM420 537l229 364h266l-229 -364l229 -365h-266z" />
    <glyph glyph-name="registered" unicode="&#xae;" horiz-adv-x="1024" 
d="M512 1403q171 0 290.5 -117t119.5 -295q0 -176 -119.5 -292.5t-290.5 -116.5t-290.5 116.5t-119.5 292.5q0 178 119.5 295t290.5 117zM512 662q136 0 232 94.5t96 234.5q0 143 -95.5 238.5t-232.5 95.5q-135 0 -230.5 -95.5t-95.5 -238.5q0 -140 95.5 -234.5t230.5 -94.5
zM690 1067q0 -44 -25.5 -76.5t-70.5 -46.5l117 -129h-99l-106 121h-62v-121h-82v377h175q69 0 111 -34t42 -91zM444 1010h93q32 0 51.5 15t19.5 40t-19.5 39t-51.5 14h-93v-108z" />
    <glyph glyph-name="macron" unicode="&#xaf;" horiz-adv-x="1228" 
d="M940 1171h-651v222h651v-222z" />
    <glyph glyph-name="degree" unicode="&#xb0;" horiz-adv-x="854" 
d="M428 1403q130 0 220.5 -84t90.5 -219q0 -133 -90.5 -217t-220.5 -84q-131 0 -222 84t-91 217q0 135 91 219t222 84zM428 967q51 0 89 37t38 98q0 60 -38.5 96.5t-88.5 36.5q-52 0 -90.5 -36.5t-38.5 -96.5q0 -62 38.5 -98.5t90.5 -36.5z" />
    <glyph glyph-name="plusminus" unicode="&#xb1;" horiz-adv-x="1187" 
d="M1065 915v-235h-352v-299h-238v299h-352v235h352v340h238v-340h352zM123 236h942v-236h-942v236z" />
    <glyph glyph-name="acute" unicode="&#xb4;" horiz-adv-x="1228" 
d="M690 1161h-229l135 295h317z" />
    <glyph glyph-name="paragraph" unicode="&#xb6;" horiz-adv-x="1220" 
d="M776 0h-205v612h-102q-186 0 -307 105.5t-121 281.5q0 181 107.5 277t291.5 96h336v-1372zM1077 0h-205v1372h205v-1372z" />
    <glyph glyph-name="periodcentered" unicode="&#xb7;" horiz-adv-x="487" 
d="M244 686q69 0 115.5 -47t46.5 -111q0 -66 -46 -110.5t-116 -44.5t-116 44.5t-46 110.5q0 64 46.5 111t115.5 47z" />
    <glyph glyph-name="cedilla" unicode="&#xb8;" horiz-adv-x="1228" 
d="M604 0h199l-109 -328h-286z" />
    <glyph glyph-name="ordmasculine" unicode="&#xba;" horiz-adv-x="870" 
d="M432 1378q155 0 262 -98t107 -252t-107 -252t-262 -98q-150 0 -256 98.5t-106 251.5t106 251.5t256 98.5zM432 858q71 0 120.5 49t49.5 121t-49.5 121t-120.5 49q-65 0 -113.5 -49.5t-48.5 -120.5t48.5 -120.5t113.5 -49.5z" />
    <glyph glyph-name="guillemotright" unicode="&#xbb;" horiz-adv-x="966" 
d="M51 172l230 365l-230 364h266l230 -364l-230 -365h-266zM420 172l229 365l-229 364h266l229 -364l-229 -365h-266z" />
    <glyph glyph-name="onequarter" unicode="&#xbc;" horiz-adv-x="1513" 
d="M190 1112l-147 -96v209l215 147h129v-778h-197v518zM1346 1372l-1006 -1372h-178l1005 1372h179zM1454 143h-102v-143h-183v143h-397v176l350 459h230v-475h102v-160zM1169 303v275l-208 -275h208z" />
    <glyph glyph-name="onehalf" unicode="&#xbd;" horiz-adv-x="1656" 
d="M190 1112l-147 -96v209l215 147h129v-778h-197v518zM1305 1372l-1006 -1372h-178l1005 1372h179zM1171 172h283v-172h-590v131l293 248q63 53 88 86t25 74t-29 67.5t-76 26.5q-57 0 -88.5 -38t-34.5 -108l-168 39q0 124 79 198.5t212 74.5q132 0 212.5 -69t80.5 -189
q0 -79 -45 -143.5t-137 -139.5z" />
    <glyph glyph-name="threequarters" unicode="&#xbe;" horiz-adv-x="1681" 
d="M649 836q0 -108 -84 -180t-215 -72q-128 0 -212.5 69.5t-88.5 186.5l164 41q5 -65 40.5 -99t98.5 -34q51 0 82 25.5t31 66.5t-30.5 63.5t-80.5 22.5h-82v139h68q51 0 85 22.5t34 59.5q0 40 -30.5 64t-80.5 24q-57 0 -88.5 -33t-32.5 -94l-172 41q10 112 89 178t202 66
q128 0 208.5 -68t80.5 -172q0 -102 -96 -152q110 -55 110 -165zM1493 1372l-1006 -1372h-178l1006 1372h178zM1622 143h-102v-143h-183v143h-397v176l350 459h230v-475h102v-160zM1337 303v275l-209 -275h209z" />
    <glyph glyph-name="questiondown" unicode="&#xbf;" horiz-adv-x="1093" 
d="M561 735q-69 0 -115.5 47t-46.5 111q0 66 46 111t116 45t116 -45t46 -111q0 -64 -46.5 -111t-115.5 -47zM776 113l256 -52q-6 -84 -45.5 -161t-104.5 -135t-157.5 -92.5t-198.5 -34.5q-213 0 -344 123t-131 321q0 155 104 258t279 125v115h248v-320h-156q-95 0 -154 -49
t-59 -129q0 -91 59 -148t154 -57q100 0 165.5 64t84.5 172z" />
    <glyph glyph-name="Agrave" unicode="&#xc0;" horiz-adv-x="1447" 
d="M606 1511l-223 295h317l136 -295h-230zM1448 0h-301l-119 293h-606l-121 -293h-301l594 1372h260zM924 545l-199 489l-201 -489h400z" />
    <glyph glyph-name="Aacute" unicode="&#xc1;" horiz-adv-x="1447" 
d="M848 1511h-230l136 295h317zM1448 0h-301l-119 293h-606l-121 -293h-301l594 1372h260zM924 545l-199 489l-201 -489h400z" />
    <glyph glyph-name="Acircumflex" unicode="&#xc2;" horiz-adv-x="1447" 
d="M633 1493h-266l231 305h256l236 -305h-271l-92 127zM1448 0h-301l-119 293h-606l-121 -293h-301l594 1372h260zM924 545l-199 489l-201 -489h400z" />
    <glyph glyph-name="Atilde" unicode="&#xc3;" horiz-adv-x="1447" 
d="M623 1622q-27 0 -42.5 -21.5t-15.5 -52.5h-178q0 77 20.5 132.5t54.5 83.5t69.5 40.5t74.5 12.5q45 0 83 -12.5t59 -27.5t49.5 -27.5t58.5 -12.5q27 0 42 23t15 57h179q0 -63 -14 -112t-35.5 -79t-51.5 -49t-59 -26t-60 -7q-47 0 -85 12t-58 27t-48.5 27t-57.5 12z
M1448 0h-301l-119 293h-606l-121 -293h-301l594 1372h260zM924 545l-199 489l-201 -489h400z" />
    <glyph glyph-name="Adieresis" unicode="&#xc4;" horiz-adv-x="1447" 
d="M504 1501q-70 0 -116 45.5t-46 114.5q0 65 46.5 112.5t115.5 47.5t116.5 -48t47.5 -112q0 -69 -46.5 -114.5t-117.5 -45.5zM946 1501q-70 0 -116 45.5t-46 114.5q0 65 46.5 112.5t115.5 47.5t116.5 -48t47.5 -112q0 -69 -46.5 -114.5t-117.5 -45.5zM1448 0h-301l-119 293
h-606l-121 -293h-301l594 1372h260zM924 545l-199 489l-201 -489h400z" />
    <glyph glyph-name="Aring" unicode="&#xc5;" horiz-adv-x="1447" 
d="M725 1464q-102 0 -173 68.5t-71 167.5q0 98 70.5 166.5t173.5 68.5t173.5 -68.5t70.5 -166.5q0 -99 -71 -167.5t-173 -68.5zM725 1782q-36 0 -61 -24t-25 -58t25 -58t61 -24t61 24t25 58t-25 58t-61 24zM1448 0h-301l-119 293h-606l-121 -293h-301l594 1372h260zM924 545
l-199 489l-201 -489h400z" />
    <glyph glyph-name="AE" unicode="&#xc6;" horiz-adv-x="2131" 
d="M2040 252v-252h-1043v252h-514l-161 -252h-322l922 1372h1114v-252h-760v-309h700v-248h-700v-311h764zM997 504v553l-354 -553h354z" />
    <glyph glyph-name="Ccedilla" unicode="&#xc7;" horiz-adv-x="1560" 
d="M803 229q150 0 259 86t146 258l271 -55q-46 -239 -209.5 -381.5t-392.5 -163.5l-101 -301h-287l185 308q-257 45 -424.5 241.5t-167.5 464.5q0 197 95.5 362t261.5 260t364 95q251 0 437.5 -142.5t238.5 -386.5l-271 -75q-37 171 -146 256.5t-259 85.5
q-186 0 -313.5 -130.5t-127.5 -324.5t128 -325.5t313 -131.5z" />
    <glyph glyph-name="Egrave" unicode="&#xc8;" horiz-adv-x="1298" 
d="M578 1511l-224 295h318l135 -295h-229zM1186 252v-252h-1043v1372h1039v-252h-760v-309h700v-248h-700v-311h764z" />
    <glyph glyph-name="Eacute" unicode="&#xc9;" horiz-adv-x="1298" 
d="M819 1511h-229l135 295h317zM1186 252v-252h-1043v1372h1039v-252h-760v-309h700v-248h-700v-311h764z" />
    <glyph glyph-name="Ecircumflex" unicode="&#xca;" horiz-adv-x="1298" 
d="M604 1493h-266l231 305h256l236 -305h-270l-93 127zM1186 252v-252h-1043v1372h1039v-252h-760v-309h700v-248h-700v-311h764z" />
    <glyph glyph-name="Edieresis" unicode="&#xcb;" horiz-adv-x="1298" 
d="M475 1501q-70 0 -116 45.5t-46 114.5q0 65 46.5 112.5t115.5 47.5t116.5 -48t47.5 -112q0 -69 -46.5 -114.5t-117.5 -45.5zM918 1501q-70 0 -116 45.5t-46 114.5q0 65 46.5 112.5t115.5 47.5t116 -48t47 -112q0 -69 -46.5 -114.5t-116.5 -45.5zM1186 252v-252h-1043v1372
h1039v-252h-760v-309h700v-248h-700v-311h764z" />
    <glyph glyph-name="Igrave" unicode="&#xcc;" horiz-adv-x="565" 
d="M258 1806l135 -295h-229l-223 295h317zM422 0h-279v1372h279v-1372z" />
    <glyph glyph-name="Iacute" unicode="&#xcd;" horiz-adv-x="565" 
d="M406 1511h-230l135 295h318zM422 0h-279v1372h279v-1372z" />
    <glyph glyph-name="Icircumflex" unicode="&#xce;" horiz-adv-x="565" 
d="M190 1493h-266l232 305h256l235 -305h-270l-92 127zM143 1372h279v-1372h-279v1372z" />
    <glyph glyph-name="Idieresis" unicode="&#xcf;" horiz-adv-x="565" 
d="M61 1821q69 0 116.5 -48t47.5 -112q0 -69 -46.5 -114.5t-117.5 -45.5q-70 0 -115.5 45.5t-45.5 114.5q0 65 46 112.5t115 47.5zM504 1821q69 0 116.5 -48t47.5 -112q0 -69 -46.5 -114.5t-117.5 -45.5q-70 0 -116 45.5t-46 114.5q0 65 46.5 112.5t115.5 47.5zM422 0h-279
v1372h279v-1372z" />
    <glyph glyph-name="Eth" unicode="&#xd0;" horiz-adv-x="1505" 
d="M184 1372h506q339 0 546.5 -189t207.5 -497t-207.5 -497t-546.5 -189h-506v563h-123v252h123v557zM463 252h227q215 0 344 117.5t129 316.5t-129 316.5t-344 117.5h-227v-305h270v-252h-270v-311z" />
    <glyph glyph-name="Ntilde" unicode="&#xd1;" horiz-adv-x="1558" 
d="M688 1622q-27 0 -42 -21.5t-15 -52.5h-178q0 77 20.5 132.5t54.5 83.5t69.5 40.5t74.5 12.5q45 0 83 -12.5t59 -27.5t49.5 -27.5t58.5 -12.5q27 0 42 23t15 57h178q0 -63 -14 -112t-35.5 -79t-51 -49t-58.5 -26t-60 -7q-47 0 -85 12t-58.5 27t-49 27t-57.5 12zM1415 1372
v-1372h-233l-760 881v-881h-279v1372h234l760 -905v905h278z" />
    <glyph glyph-name="Ograve" unicode="&#xd2;" horiz-adv-x="1609" 
d="M686 1511l-223 295h317l135 -295h-229zM805 1403q200 0 366 -96t261.5 -261t95.5 -362t-95.5 -361t-261.5 -259t-366 -95t-366 95t-261.5 259t-95.5 361t95.5 362t261.5 261t366 96zM805 231q187 0 314.5 129t127.5 324q0 196 -127.5 326.5t-314.5 130.5t-315 -131
t-128 -326t128 -324t315 -129z" />
    <glyph glyph-name="Oacute" unicode="&#xd3;" horiz-adv-x="1609" 
d="M928 1511h-230l136 295h317zM805 1403q200 0 366 -96t261.5 -261t95.5 -362t-95.5 -361t-261.5 -259t-366 -95t-366 95t-261.5 259t-95.5 361t95.5 362t261.5 261t366 96zM805 231q187 0 314.5 129t127.5 324q0 196 -127.5 326.5t-314.5 130.5t-315 -131t-128 -326
t128 -324t315 -129z" />
    <glyph glyph-name="Ocircumflex" unicode="&#xd4;" horiz-adv-x="1609" 
d="M713 1493h-267l232 305h256l235 -305h-270l-92 127zM805 1403q200 0 366 -96t261.5 -261t95.5 -362t-95.5 -361t-261.5 -259t-366 -95t-366 95t-261.5 259t-95.5 361t95.5 362t261.5 261t366 96zM805 231q187 0 314.5 129t127.5 324q0 196 -127.5 326.5t-314.5 130.5
t-315 -131t-128 -326t128 -324t315 -129z" />
    <glyph glyph-name="Otilde" unicode="&#xd5;" horiz-adv-x="1609" 
d="M702 1622q-27 0 -42 -21.5t-15 -52.5h-178q0 77 20.5 132.5t54.5 83.5t69.5 40.5t74.5 12.5q45 0 83 -12.5t59 -27.5t49.5 -27.5t58.5 -12.5q27 0 42 23t15 57h178q0 -63 -14 -112t-35.5 -79t-51 -49t-58.5 -26t-60 -7q-47 0 -85 12t-58.5 27t-49 27t-57.5 12zM805 1403
q200 0 366 -96t261.5 -261t95.5 -362t-95.5 -361t-261.5 -259t-366 -95t-366 95t-261.5 259t-95.5 361t95.5 362t261.5 261t366 96zM805 231q187 0 314.5 129t127.5 324q0 196 -127.5 326.5t-314.5 130.5t-315 -131t-128 -326t128 -324t315 -129z" />
    <glyph glyph-name="Odieresis" unicode="&#xd6;" horiz-adv-x="1609" 
d="M584 1501q-70 0 -116 45.5t-46 114.5q0 65 46.5 112.5t115.5 47.5t116.5 -48t47.5 -112q0 -69 -46.5 -114.5t-117.5 -45.5zM1026 1501q-70 0 -116 45.5t-46 114.5q0 65 46.5 112.5t115.5 47.5t116.5 -48t47.5 -112q0 -69 -46.5 -114.5t-117.5 -45.5zM805 1403
q200 0 366 -96t261.5 -261t95.5 -362t-95.5 -361t-261.5 -259t-366 -95t-366 95t-261.5 259t-95.5 361t95.5 362t261.5 261t366 96zM805 231q187 0 314.5 129t127.5 324q0 196 -127.5 326.5t-314.5 130.5t-315 -131t-128 -326t128 -324t315 -129z" />
    <glyph glyph-name="multiply" unicode="&#xd7;" horiz-adv-x="1081" 
d="M713 625l274 -275l-170 -172l-276 277l-277 -277l-170 172l275 275l-275 274l170 172l277 -276l276 276l170 -172z" />
    <glyph glyph-name="Oslash" unicode="&#xd8;" horiz-adv-x="1609" 
d="M1516 1217l-117 -117q129 -187 129 -416q0 -197 -95.5 -361t-261.5 -259t-366 -95q-232 0 -412 125l-139 -139l-160 160l133 133q-145 191 -145 436q0 197 95.5 362t261.5 261t366 96q242 0 436 -141l115 114zM362 684q0 -129 62 -240l625 625q-112 72 -244 72
q-187 0 -315 -131t-128 -326zM805 231q187 0 314.5 129t127.5 324q0 115 -49 215l-612 -612q101 -56 219 -56z" />
    <glyph glyph-name="Ugrave" unicode="&#xd9;" horiz-adv-x="1456" 
d="M608 1511l-223 295h317l136 -295h-230zM1325 1372v-758q0 -289 -162.5 -467t-427.5 -178q-271 0 -437.5 178t-166.5 467v758h279v-758q0 -172 88.5 -275t236.5 -103q140 0 226 103.5t86 274.5v758h278z" />
    <glyph glyph-name="Uacute" unicode="&#xda;" horiz-adv-x="1456" 
d="M850 1511h-229l135 295h317zM1325 1372v-758q0 -289 -162.5 -467t-427.5 -178q-271 0 -437.5 178t-166.5 467v758h279v-758q0 -172 88.5 -275t236.5 -103q140 0 226 103.5t86 274.5v758h278z" />
    <glyph glyph-name="Ucircumflex" unicode="&#xdb;" horiz-adv-x="1456" 
d="M635 1493h-266l231 305h256l236 -305h-271l-92 127zM1325 1372v-758q0 -289 -162.5 -467t-427.5 -178q-271 0 -437.5 178t-166.5 467v758h279v-758q0 -172 88.5 -275t236.5 -103q140 0 226 103.5t86 274.5v758h278z" />
    <glyph glyph-name="Udieresis" unicode="&#xdc;" horiz-adv-x="1456" 
d="M506 1501q-70 0 -116 45.5t-46 114.5q0 65 46.5 112.5t115.5 47.5t116.5 -48t47.5 -112q0 -69 -46.5 -114.5t-117.5 -45.5zM948 1501q-70 0 -116 45.5t-46 114.5q0 65 46.5 112.5t115.5 47.5t116.5 -48t47.5 -112q0 -69 -46.5 -114.5t-117.5 -45.5zM1325 1372v-758
q0 -289 -162.5 -467t-427.5 -178q-271 0 -437.5 178t-166.5 467v758h279v-758q0 -172 88.5 -275t236.5 -103q140 0 226 103.5t86 274.5v758h278z" />
    <glyph glyph-name="Yacute" unicode="&#xdd;" horiz-adv-x="1415" 
d="M829 1511h-229l135 295h318zM842 438v-438h-279v434l-543 938h308l374 -647l373 647h320z" />
    <glyph glyph-name="Thorn" unicode="&#xde;" horiz-adv-x="1331" 
d="M422 1149h336q221 0 356 -127t135 -336q0 -207 -135 -335t-356 -128h-336v-223h-279v1372h279v-223zM422 475h321q104 0 167 58.5t63 152.5q0 95 -63 153t-167 58h-321v-422z" />
    <glyph glyph-name="germandbls" unicode="&#xdf;" horiz-adv-x="1349" 
d="M1030 791q119 -39 183.5 -133.5t64.5 -237.5q0 -188 -125 -310t-326 -122q-134 0 -280 26l31 224q146 -25 227 -25q107 0 176.5 62t69.5 145q0 112 -87 172.5t-247 60.5h-80v221h39q114 0 181 51t67 132q0 98 -64 157.5t-168 59.5q-125 0 -201.5 -78.5t-76.5 -214.5v-981
h-271v961q0 245 151 396.5t398 151.5q216 0 352 -121.5t136 -302.5q0 -103 -39 -179.5t-111 -114.5z" />
    <glyph glyph-name="agrave" unicode="&#xe0;" horiz-adv-x="1314" 
d="M518 1161l-223 295h317l136 -295h-230zM1171 1022v-1022h-270v80q-136 -111 -338 -111q-97 0 -188 40t-160.5 109.5t-111.5 172t-42 219.5t42 220t111.5 173t160.5 110t188 40q203 0 338 -113v82h270zM610 205q115 0 203 85t88 220t-88 221t-203 86q-125 0 -205.5 -84
t-80.5 -223t80.5 -222t205.5 -83z" />
    <glyph glyph-name="aacute" unicode="&#xe1;" horiz-adv-x="1314" 
d="M760 1161h-230l136 295h317zM1171 1022v-1022h-270v80q-136 -111 -338 -111q-97 0 -188 40t-160.5 109.5t-111.5 172t-42 219.5t42 220t111.5 173t160.5 110t188 40q203 0 338 -113v82h270zM610 205q115 0 203 85t88 220t-88 221t-203 86q-125 0 -205.5 -84t-80.5 -223
t80.5 -222t205.5 -83z" />
    <glyph glyph-name="acircumflex" unicode="&#xe2;" horiz-adv-x="1314" 
d="M545 1143h-266l231 305h256l235 -305h-270l-92 127zM1171 1022v-1022h-270v80q-136 -111 -338 -111q-97 0 -188 40t-160.5 109.5t-111.5 172t-42 219.5t42 220t111.5 173t160.5 110t188 40q203 0 338 -113v82h270zM610 205q115 0 203 85t88 220t-88 221t-203 86
q-125 0 -205.5 -84t-80.5 -223t80.5 -222t205.5 -83z" />
    <glyph glyph-name="atilde" unicode="&#xe3;" horiz-adv-x="1314" 
d="M535 1272q-27 0 -42.5 -21.5t-15.5 -52.5h-178q0 77 20.5 132t54.5 83t69.5 40.5t74.5 12.5q45 0 83 -12.5t59 -27.5t49.5 -27.5t58.5 -12.5q27 0 42 23t15 57h179q0 -78 -20 -134t-54.5 -84.5t-70 -41t-75.5 -12.5q-47 0 -85 12t-58 27t-48.5 27t-57.5 12zM1171 1022
v-1022h-270v80q-136 -111 -338 -111q-97 0 -188 40t-160.5 109.5t-111.5 172t-42 219.5t42 220t111.5 173t160.5 110t188 40q203 0 338 -113v82h270zM610 205q115 0 203 85t88 220t-88 221t-203 86q-125 0 -205.5 -84t-80.5 -223t80.5 -222t205.5 -83z" />
    <glyph glyph-name="adieresis" unicode="&#xe4;" horiz-adv-x="1314" 
d="M416 1151q-70 0 -116 45.5t-46 114.5q0 64 46.5 111.5t115.5 47.5t116.5 -47.5t47.5 -111.5q0 -69 -46.5 -114.5t-117.5 -45.5zM858 1151q-70 0 -116 45.5t-46 114.5q0 64 46.5 111.5t115.5 47.5t116.5 -47.5t47.5 -111.5q0 -69 -46.5 -114.5t-117.5 -45.5zM1171 1022
v-1022h-270v80q-136 -111 -338 -111q-97 0 -188 40t-160.5 109.5t-111.5 172t-42 219.5t42 220t111.5 173t160.5 110t188 40q203 0 338 -113v82h270zM610 205q115 0 203 85t88 220t-88 221t-203 86q-125 0 -205.5 -84t-80.5 -223t80.5 -222t205.5 -83z" />
    <glyph glyph-name="aring" unicode="&#xe5;" horiz-adv-x="1314" 
d="M637 1114q-102 0 -173 68.5t-71 167.5q0 98 70.5 166.5t173.5 68.5t173.5 -68.5t70.5 -166.5q0 -99 -71 -167.5t-173 -68.5zM637 1432q-36 0 -61 -24t-25 -58t25 -58t61 -24t61 24t25 58t-25 58t-61 24zM1171 1022v-1022h-270v80q-136 -111 -338 -111q-97 0 -188 40
t-160.5 109.5t-111.5 172t-42 219.5t42 220t111.5 173t160.5 110t188 40q203 0 338 -113v82h270zM610 205q115 0 203 85t88 220t-88 221t-203 86q-125 0 -205.5 -84t-80.5 -223t80.5 -222t205.5 -83z" />
    <glyph glyph-name="ae" unicode="&#xe6;" horiz-adv-x="1845" 
d="M1784 418h-774q27 -104 95 -160.5t171 -56.5q164 0 237 133l242 -51q-43 -140 -176 -227t-309 -87q-243 0 -398 168q-71 -74 -179.5 -121t-239.5 -47q-188 0 -290 93.5t-102 234.5q0 145 109 228t305 83h287v39q0 81 -54.5 130.5t-142.5 49.5q-79 0 -132.5 -41
t-63.5 -114l-248 51q19 145 140.5 237.5t307.5 92.5q225 0 349 -127q150 127 344 127q106 0 201 -39.5t166 -109.5t113 -172.5t42 -221.5v-92zM1008 608h503q-22 109 -87 163t-152 54q-93 0 -169 -57t-95 -160zM762 418h-287q-76 0 -116 -30t-40 -81q0 -55 46 -89t120 -34
q106 0 191.5 63.5t85.5 145.5v25z" />
    <glyph glyph-name="ccedilla" unicode="&#xe7;" horiz-adv-x="1181" 
d="M608 217q196 0 262 199l250 -64q-36 -150 -148 -249t-267 -126l-101 -305h-287l185 308q-192 35 -316.5 179t-124.5 351q0 157 74.5 282.5t199 193t273.5 67.5q179 0 320 -103t192 -274l-260 -74q-27 103 -93 153t-159 50q-127 0 -205.5 -82t-78.5 -213q0 -132 78 -212.5
t206 -80.5z" />
    <glyph glyph-name="egrave" unicode="&#xe8;" horiz-adv-x="1169" 
d="M475 1161l-223 295h317l136 -295h-230zM1108 530v-92h-778q20 -109 90.5 -173t165.5 -64q37 0 64.5 4t63.5 16.5t68 41t58 73.5l241 -51q-66 -156 -195 -236t-300 -80q-108 0 -204 39.5t-167 109.5t-112.5 172t-41.5 220q0 157 71 282t191.5 193t266.5 68q136 0 252 -65
t188.5 -185.5t77.5 -272.5zM590 817q-83 0 -156 -49t-96 -139h493q-25 94 -90 141t-151 47z" />
    <glyph glyph-name="eacute" unicode="&#xe9;" horiz-adv-x="1169" 
d="M717 1161h-230l136 295h317zM1108 530v-92h-778q20 -109 90.5 -173t165.5 -64q37 0 64.5 4t63.5 16.5t68 41t58 73.5l241 -51q-66 -156 -195 -236t-300 -80q-108 0 -204 39.5t-167 109.5t-112.5 172t-41.5 220q0 157 71 282t191.5 193t266.5 68q136 0 252 -65
t188.5 -185.5t77.5 -272.5zM590 817q-83 0 -156 -49t-96 -139h493q-25 94 -90 141t-151 47z" />
    <glyph glyph-name="ecircumflex" unicode="&#xea;" horiz-adv-x="1169" 
d="M502 1143h-266l231 305h256l235 -305h-270l-92 127zM1108 530v-92h-778q20 -109 90.5 -173t165.5 -64q37 0 64.5 4t63.5 16.5t68 41t58 73.5l241 -51q-66 -156 -195 -236t-300 -80q-108 0 -204 39.5t-167 109.5t-112.5 172t-41.5 220q0 157 71 282t191.5 193t266.5 68
q136 0 252 -65t188.5 -185.5t77.5 -272.5zM590 817q-83 0 -156 -49t-96 -139h493q-25 94 -90 141t-151 47z" />
    <glyph glyph-name="edieresis" unicode="&#xeb;" horiz-adv-x="1169" 
d="M373 1151q-70 0 -116 45.5t-46 114.5q0 64 46.5 111.5t115.5 47.5t116.5 -47.5t47.5 -111.5q0 -69 -46.5 -114.5t-117.5 -45.5zM815 1151q-70 0 -116 45.5t-46 114.5q0 64 46.5 111.5t115.5 47.5t116.5 -47.5t47.5 -111.5q0 -69 -46.5 -114.5t-117.5 -45.5zM1108 530v-92
h-778q20 -109 90.5 -173t165.5 -64q37 0 64.5 4t63.5 16.5t68 41t58 73.5l241 -51q-66 -156 -195 -236t-300 -80q-108 0 -204 39.5t-167 109.5t-112.5 172t-41.5 220q0 157 71 282t191.5 193t266.5 68q136 0 252 -65t188.5 -185.5t77.5 -272.5zM590 817q-83 0 -156 -49
t-96 -139h493q-25 94 -90 141t-151 47z" />
    <glyph glyph-name="igrave" unicode="&#xec;" horiz-adv-x="606" 
d="M279 1456l135 -295h-230l-223 295h318zM438 0h-270v1022h270v-1022z" />
    <glyph glyph-name="iacute" unicode="&#xed;" horiz-adv-x="606" 
d="M426 1161h-229l135 295h317zM438 0h-270v1022h270v-1022z" />
    <glyph glyph-name="icircumflex" unicode="&#xee;" horiz-adv-x="606" 
d="M211 1143h-266l231 305h256l236 -305h-271l-92 127zM168 1022h270v-1022h-270v1022z" />
    <glyph glyph-name="idieresis" unicode="&#xef;" horiz-adv-x="606" 
d="M82 1470q69 0 116.5 -47.5t47.5 -111.5q0 -69 -46.5 -114.5t-117.5 -45.5q-70 0 -116 45.5t-46 114.5q0 64 46.5 111.5t115.5 47.5zM524 1470q69 0 116.5 -47.5t47.5 -111.5q0 -69 -46.5 -114.5t-117.5 -45.5q-70 0 -116 45.5t-46 114.5q0 64 46.5 111.5t115.5 47.5z
M438 0h-270v1022h270v-1022z" />
    <glyph glyph-name="eth" unicode="&#xf0;" horiz-adv-x="1236" 
d="M956 1309l-127 -52q150 -156 248.5 -348t98.5 -393q0 -133 -48 -240t-127.5 -172.5t-176 -100t-199.5 -34.5q-113 0 -216 39.5t-180 109t-122.5 172t-45.5 220.5q0 240 144 391.5t368 151.5q69 0 138 -27q-53 74 -123 137l-281 -112l-76 186l162 66q-108 60 -260 116v56
h424q39 -20 102 -66l222 88zM623 205q131 0 207.5 94.5t76.5 216.5q0 128 -84 213.5t-202 85.5q-131 0 -214 -85t-83 -220q0 -132 88.5 -218.5t210.5 -86.5z" />
    <glyph glyph-name="ntilde" unicode="&#xf1;" horiz-adv-x="1261" 
d="M539 1272q-27 0 -42.5 -21.5t-15.5 -52.5h-178q0 77 20.5 132t54.5 83t69.5 40.5t74.5 12.5q45 0 83 -12.5t59 -27.5t49.5 -27.5t58.5 -12.5q27 0 42 23t15 57h179q0 -78 -20 -134t-54.5 -84.5t-70 -41t-75.5 -12.5q-47 0 -85 12t-58 27t-48.5 27t-57.5 12zM735 1053
q184 0 297 -119.5t113 -310.5v-623h-271v565q0 108 -56.5 174t-149.5 66q-121 0 -187.5 -85.5t-66.5 -266.5v-453h-271v1022h271v-92q123 123 321 123z" />
    <glyph glyph-name="ograve" unicode="&#xf2;" horiz-adv-x="1230" 
d="M500 1161l-224 295h318l135 -295h-229zM618 1047q112 0 212.5 -39t175.5 -108t119 -170.5t44 -219.5t-44 -219.5t-119 -170.5t-175.5 -108t-212.5 -39q-114 0 -215.5 39t-177 108t-120 170.5t-44.5 219.5t44.5 219.5t120 170.5t177 108t215.5 39zM618 205q72 0 137 35.5
t108.5 107t43.5 162.5t-43.5 162.5t-108.5 107t-137 35.5q-117 0 -205.5 -84.5t-88.5 -220.5t88.5 -220.5t205.5 -84.5z" />
    <glyph glyph-name="oacute" unicode="&#xf3;" horiz-adv-x="1230" 
d="M741 1161h-229l135 295h318zM618 1047q112 0 212.5 -39t175.5 -108t119 -170.5t44 -219.5t-44 -219.5t-119 -170.5t-175.5 -108t-212.5 -39q-114 0 -215.5 39t-177 108t-120 170.5t-44.5 219.5t44.5 219.5t120 170.5t177 108t215.5 39zM618 205q72 0 137 35.5t108.5 107
t43.5 162.5t-43.5 162.5t-108.5 107t-137 35.5q-117 0 -205.5 -84.5t-88.5 -220.5t88.5 -220.5t205.5 -84.5z" />
    <glyph glyph-name="ocircumflex" unicode="&#xf4;" horiz-adv-x="1230" 
d="M526 1143h-266l232 305h256l235 -305h-270l-92 127zM618 1047q112 0 212.5 -39t175.5 -108t119 -170.5t44 -219.5t-44 -219.5t-119 -170.5t-175.5 -108t-212.5 -39q-114 0 -215.5 39t-177 108t-120 170.5t-44.5 219.5t44.5 219.5t120 170.5t177 108t215.5 39zM618 205
q72 0 137 35.5t108.5 107t43.5 162.5t-43.5 162.5t-108.5 107t-137 35.5q-117 0 -205.5 -84.5t-88.5 -220.5t88.5 -220.5t205.5 -84.5z" />
    <glyph glyph-name="otilde" unicode="&#xf5;" horiz-adv-x="1230" 
d="M516 1272q-27 0 -42 -21.5t-15 -52.5h-178q0 77 20.5 132t54.5 83t69.5 40.5t74.5 12.5q45 0 83 -12.5t59 -27.5t49.5 -27.5t58.5 -12.5q27 0 42 23t15 57h178q0 -78 -20 -134t-54 -84.5t-69.5 -41t-75.5 -12.5q-47 0 -85 12t-58.5 27t-49 27t-57.5 12zM618 1047
q112 0 212.5 -39t175.5 -108t119 -170.5t44 -219.5t-44 -219.5t-119 -170.5t-175.5 -108t-212.5 -39q-114 0 -215.5 39t-177 108t-120 170.5t-44.5 219.5t44.5 219.5t120 170.5t177 108t215.5 39zM618 205q72 0 137 35.5t108.5 107t43.5 162.5t-43.5 162.5t-108.5 107
t-137 35.5q-117 0 -205.5 -84.5t-88.5 -220.5t88.5 -220.5t205.5 -84.5z" />
    <glyph glyph-name="odieresis" unicode="&#xf6;" horiz-adv-x="1230" 
d="M397 1151q-70 0 -115.5 45.5t-45.5 114.5q0 65 46 112t115 47t116.5 -47.5t47.5 -111.5q0 -69 -46.5 -114.5t-117.5 -45.5zM840 1151q-70 0 -116 45.5t-46 114.5q0 64 46.5 111.5t115.5 47.5t116.5 -47.5t47.5 -111.5q0 -69 -46.5 -114.5t-117.5 -45.5zM618 1047
q112 0 212.5 -39t175.5 -108t119 -170.5t44 -219.5t-44 -219.5t-119 -170.5t-175.5 -108t-212.5 -39q-114 0 -215.5 39t-177 108t-120 170.5t-44.5 219.5t44.5 219.5t120 170.5t177 108t215.5 39zM618 205q72 0 137 35.5t108.5 107t43.5 162.5t-43.5 162.5t-108.5 107
t-137 35.5q-117 0 -205.5 -84.5t-88.5 -220.5t88.5 -220.5t205.5 -84.5z" />
    <glyph glyph-name="divide" unicode="&#xf7;" horiz-adv-x="1187" 
d="M584 1141q69 0 115 -47t46 -111q0 -67 -45.5 -111.5t-115.5 -44.5t-116 45t-46 111q0 64 46.5 111t115.5 47zM1065 506h-942v237h942v-237zM584 424q69 0 115 -47t46 -111q0 -66 -45.5 -110.5t-115.5 -44.5t-116 44.5t-46 110.5q0 64 46.5 111t115.5 47z" />
    <glyph glyph-name="oslash" unicode="&#xf8;" horiz-adv-x="1230" 
d="M1163 928l-96 -97q102 -139 102 -321q0 -118 -44 -219.5t-119 -170.5t-175.5 -108t-212.5 -39q-177 0 -319 90l-98 -98l-131 131l94 94q-103 141 -103 320q0 118 44.5 219.5t120 170.5t177 108t215.5 39q172 0 312 -91l102 103zM324 510q0 -70 26 -133l404 403
q-65 35 -136 35q-117 0 -205.5 -84.5t-88.5 -220.5zM618 205q72 0 137 35.5t108.5 107t43.5 162.5q0 70 -26 133l-404 -401q64 -37 141 -37z" />
    <glyph glyph-name="ugrave" unicode="&#xf9;" horiz-adv-x="1261" 
d="M506 1161l-223 295h317l135 -295h-229zM1118 1022v-1022h-270v92q-123 -123 -322 -123q-184 0 -296.5 119.5t-112.5 310.5v623h270v-565q0 -108 57 -174t150 -66q121 0 187.5 85.5t66.5 266.5v453h270z" />
    <glyph glyph-name="uacute" unicode="&#xfa;" horiz-adv-x="1261" 
d="M748 1161h-230l135 295h318zM1118 1022v-1022h-270v92q-123 -123 -322 -123q-184 0 -296.5 119.5t-112.5 310.5v623h270v-565q0 -108 57 -174t150 -66q121 0 187.5 85.5t66.5 266.5v453h270z" />
    <glyph glyph-name="ucircumflex" unicode="&#xfb;" horiz-adv-x="1261" 
d="M532 1143h-266l232 305h256l235 -305h-270l-92 127zM1118 1022v-1022h-270v92q-123 -123 -322 -123q-184 0 -296.5 119.5t-112.5 310.5v623h270v-565q0 -108 57 -174t150 -66q121 0 187.5 85.5t66.5 266.5v453h270z" />
    <glyph glyph-name="udieresis" unicode="&#xfc;" horiz-adv-x="1261" 
d="M403 1151q-70 0 -115.5 45.5t-45.5 114.5q0 65 46 112t115 47t116.5 -47.5t47.5 -111.5q0 -69 -46.5 -114.5t-117.5 -45.5zM846 1151q-70 0 -116 45.5t-46 114.5q0 64 46.5 111.5t115.5 47.5t116.5 -47.5t47.5 -111.5q0 -69 -46.5 -114.5t-117.5 -45.5zM1118 1022v-1022
h-270v92q-123 -123 -322 -123q-184 0 -296.5 119.5t-112.5 310.5v623h270v-565q0 -108 57 -174t150 -66q121 0 187.5 85.5t66.5 266.5v453h270z" />
    <glyph glyph-name="yacute" unicode="&#xfd;" horiz-adv-x="1196" 
d="M698 1165h-229l135 295h318zM1176 1024l-594 -1372h-301l163 381l-424 991h302l270 -653l282 653h302z" />
    <glyph glyph-name="thorn" unicode="&#xfe;" horiz-adv-x="1314" 
d="M752 1053q97 0 188 -40t160 -110t111 -173t42 -220t-42 -219.5t-111 -172t-160 -109.5t-188 -40q-202 0 -338 111v-428h-271v1823h271v-535q135 113 338 113zM705 205q125 0 205.5 83t80.5 222t-80.5 223t-205.5 84q-115 0 -203 -86t-88 -221t88 -220t203 -85z" />
    <glyph glyph-name="ydieresis" unicode="&#xff;" horiz-adv-x="1196" 
d="M354 1155q-70 0 -115.5 45.5t-45.5 114.5q0 65 46 112.5t115 47.5t116.5 -48t47.5 -112q0 -69 -46.5 -114.5t-117.5 -45.5zM797 1155q-70 0 -116 45.5t-46 114.5q0 65 46.5 112.5t115.5 47.5t116.5 -48t47.5 -112q0 -69 -46.5 -114.5t-117.5 -45.5zM1176 1024l-594 -1372
h-301l163 381l-424 991h302l270 -653l282 653h302z" />
    <glyph glyph-name="Amacron" unicode="&#x100;" horiz-adv-x="1447" 
d="M1051 1522h-652v221h652v-221zM1448 0h-301l-119 293h-606l-121 -293h-301l594 1372h260zM924 545l-199 489l-201 -489h400z" />
    <glyph glyph-name="amacron" unicode="&#x101;" horiz-adv-x="1314" 
d="M963 1171h-652v222h652v-222zM1171 1022v-1022h-270v80q-136 -111 -338 -111q-97 0 -188 40t-160.5 109.5t-111.5 172t-42 219.5t42 220t111.5 173t160.5 110t188 40q203 0 338 -113v82h270zM610 205q115 0 203 85t88 220t-88 221t-203 86q-125 0 -205.5 -84t-80.5 -223
t80.5 -222t205.5 -83z" />
    <glyph glyph-name="Abreve" unicode="&#x102;" horiz-adv-x="1447" 
d="M725 1473q-158 0 -250 83t-92 224h223q0 -54 34 -87.5t85 -33.5t85 33.5t34 87.5h223q0 -141 -92 -224t-250 -83zM1448 0h-301l-119 293h-606l-121 -293h-301l594 1372h260zM924 545l-199 489l-201 -489h400z" />
    <glyph glyph-name="abreve" unicode="&#x103;" horiz-adv-x="1314" 
d="M637 1122q-158 0 -250 83.5t-92 224.5h223q0 -54 34 -87.5t85 -33.5t85 33.5t34 87.5h223q0 -141 -92 -224.5t-250 -83.5zM1171 1022v-1022h-270v80q-136 -111 -338 -111q-97 0 -188 40t-160.5 109.5t-111.5 172t-42 219.5t42 220t111.5 173t160.5 110t188 40
q203 0 338 -113v82h270zM610 205q115 0 203 85t88 220t-88 221t-203 86q-125 0 -205.5 -84t-80.5 -223t80.5 -222t205.5 -83z" />
    <glyph glyph-name="Aogonek" unicode="&#x104;" horiz-adv-x="1447" 
d="M1473 -223l12 -166q-87 -41 -176 -41q-82 0 -136.5 47t-54.5 137q0 63 33 121.5t113 124.5h-117l-119 293h-606l-121 -293h-301l594 1372h260l594 -1372q-12 -14 -31.5 -36t-28 -32t-22 -26t-19 -24t-13 -19.5t-10.5 -20t-5 -18t-2 -19.5q0 -51 57 -51q25 0 99 23z
M924 545l-199 489l-201 -489h400z" />
    <glyph glyph-name="aogonek" unicode="&#x105;" horiz-adv-x="1314" 
d="M1196 -223l12 -166q-87 -41 -176 -41q-82 0 -136 47t-54 137q0 63 32.5 121.5t112.5 124.5h-86v80q-136 -111 -338 -111q-97 0 -188 40t-160.5 109.5t-111.5 172t-42 219.5t42 220t111.5 173t160.5 110t188 40q203 0 338 -113v82h270v-1022q-12 -14 -31.5 -36t-28 -32
t-22 -26t-19 -24t-13 -19.5t-10.5 -20t-5 -18t-2 -19.5q0 -51 58 -51q24 0 98 23zM610 205q115 0 203 85t88 220t-88 221t-203 86q-125 0 -205.5 -84t-80.5 -223t80.5 -222t205.5 -83z" />
    <glyph glyph-name="Cacute" unicode="&#x106;" horiz-adv-x="1560" 
d="M924 1511h-230l135 295h318zM803 229q150 0 259 86t146 258l271 -55q-50 -258 -236 -403.5t-440 -145.5q-149 0 -282.5 56t-229.5 151t-152.5 228t-56.5 282q0 197 95.5 362t261.5 260t364 95q251 0 437.5 -142.5t238.5 -386.5l-271 -75q-37 171 -146 256.5t-259 85.5
q-186 0 -313.5 -130.5t-127.5 -324.5t128 -325.5t313 -131.5z" />
    <glyph glyph-name="cacute" unicode="&#x107;" horiz-adv-x="1181" 
d="M731 1161h-229l135 295h317zM608 217q196 0 262 199l250 -64q-42 -173 -184.5 -278t-327.5 -105q-149 0 -273.5 67t-199 192t-74.5 282t74.5 282.5t199 193t273.5 67.5q179 0 320 -103t192 -274l-260 -74q-27 103 -93 153t-159 50q-127 0 -205.5 -82t-78.5 -213
q0 -132 78 -212.5t206 -80.5z" />
    <glyph glyph-name="Cdotaccent" unicode="&#x10a;" horiz-adv-x="1560" 
d="M799 1522q-69 0 -113.5 43.5t-44.5 111.5q0 63 45 108.5t113 45.5t113.5 -45.5t45.5 -108.5q0 -67 -45 -111t-114 -44zM803 229q150 0 259 86t146 258l271 -55q-50 -258 -236 -403.5t-440 -145.5q-149 0 -282.5 56t-229.5 151t-152.5 228t-56.5 282q0 197 95.5 362
t261.5 260t364 95q251 0 437.5 -142.5t238.5 -386.5l-271 -75q-37 171 -146 256.5t-259 85.5q-186 0 -313.5 -130.5t-127.5 -324.5t128 -325.5t313 -131.5z" />
    <glyph glyph-name="cdotaccent" unicode="&#x10b;" horiz-adv-x="1181" 
d="M606 1171q-69 0 -113 44t-44 112q0 63 44.5 108.5t112.5 45.5t114 -45.5t46 -108.5q0 -67 -45.5 -111.5t-114.5 -44.5zM608 217q196 0 262 199l250 -64q-42 -173 -184.5 -278t-327.5 -105q-149 0 -273.5 67t-199 192t-74.5 282t74.5 282.5t199 193t273.5 67.5
q179 0 320 -103t192 -274l-260 -74q-27 103 -93 153t-159 50q-127 0 -205.5 -82t-78.5 -213q0 -132 78 -212.5t206 -80.5z" />
    <glyph glyph-name="Ccaron" unicode="&#x10c;" horiz-adv-x="1560" 
d="M674 1493l-232 305h267l94 -127l92 127h270l-235 -305h-256zM803 229q150 0 259 86t146 258l271 -55q-50 -258 -236 -403.5t-440 -145.5q-149 0 -282.5 56t-229.5 151t-152.5 228t-56.5 282q0 197 95.5 362t261.5 260t364 95q251 0 437.5 -142.5t238.5 -386.5l-271 -75
q-37 171 -146 256.5t-259 85.5q-186 0 -313.5 -130.5t-127.5 -324.5t128 -325.5t313 -131.5z" />
    <glyph glyph-name="ccaron" unicode="&#x10d;" horiz-adv-x="1181" 
d="M481 1143l-231 305h266l94 -127l92 127h271l-236 -305h-256zM608 217q196 0 262 199l250 -64q-42 -173 -184.5 -278t-327.5 -105q-149 0 -273.5 67t-199 192t-74.5 282t74.5 282.5t199 193t273.5 67.5q179 0 320 -103t192 -274l-260 -74q-27 103 -93 153t-159 50
q-127 0 -205.5 -82t-78.5 -213q0 -132 78 -212.5t206 -80.5z" />
    <glyph glyph-name="Dcaron" unicode="&#x10e;" horiz-adv-x="1484" 
d="M596 1493l-231 305h266l94 -127l92 127h270l-235 -305h-256zM143 1372h506q339 0 546.5 -189t207.5 -497t-207.5 -497t-546.5 -189h-506v1372zM422 252h227q215 0 344 117.5t129 316.5t-129 316.5t-344 117.5h-227v-868z" />
    <glyph glyph-name="dcaron" unicode="&#x10f;" horiz-adv-x="1314" 
d="M901 1475h270v-1475h-270v80q-136 -111 -338 -111q-97 0 -188 40t-160.5 109.5t-111.5 172t-42 219.5t42 220t111.5 173t160.5 110t188 40q203 0 338 -113v535zM1561 1475l-60 -408h-213v408h273zM610 205q115 0 203 85t88 220t-88 221t-203 86q-125 0 -205.5 -84
t-80.5 -223t80.5 -222t205.5 -83z" />
    <glyph glyph-name="Dcroat" unicode="&#x110;" horiz-adv-x="1505" 
d="M184 1372h506q339 0 546.5 -189t207.5 -497t-207.5 -497t-546.5 -189h-506v563h-123v252h123v557zM463 252h227q215 0 344 117.5t129 316.5t-129 316.5t-344 117.5h-227v-305h270v-252h-270v-311z" />
    <glyph glyph-name="dcroat" unicode="&#x111;" horiz-adv-x="1363" 
d="M1294 1130h-123v-1130h-270v80q-136 -111 -338 -111q-97 0 -188 40t-160.5 109.5t-111.5 172t-42 219.5t42 220t111.5 173t160.5 110t188 40q203 0 338 -113v190h-299v218h299v127h270v-127h123v-218zM610 205q115 0 203 85t88 220t-88 221t-203 86q-125 0 -205.5 -84
t-80.5 -223t80.5 -222t205.5 -83z" />
    <glyph glyph-name="Emacron" unicode="&#x112;" horiz-adv-x="1298" 
d="M1022 1522h-651v221h651v-221zM1186 252v-252h-1043v1372h1039v-252h-760v-309h700v-248h-700v-311h764z" />
    <glyph glyph-name="emacron" unicode="&#x113;" horiz-adv-x="1169" 
d="M920 1171h-652v222h652v-222zM1108 530v-92h-778q20 -109 90.5 -173t165.5 -64q37 0 64.5 4t63.5 16.5t68 41t58 73.5l241 -51q-66 -156 -195 -236t-300 -80q-108 0 -204 39.5t-167 109.5t-112.5 172t-41.5 220q0 157 71 282t191.5 193t266.5 68q136 0 252 -65
t188.5 -185.5t77.5 -272.5zM590 817q-83 0 -156 -49t-96 -139h493q-25 94 -90 141t-151 47z" />
    <glyph glyph-name="Edotaccent" unicode="&#x116;" horiz-adv-x="1298" 
d="M694 1522q-69 0 -113 43.5t-44 111.5q0 63 44.5 108.5t112.5 45.5t114 -45.5t46 -108.5q0 -67 -45.5 -111t-114.5 -44zM1186 252v-252h-1043v1372h1039v-252h-760v-309h700v-248h-700v-311h764z" />
    <glyph glyph-name="edotaccent" unicode="&#x117;" horiz-adv-x="1169" 
d="M592 1171q-69 0 -113.5 44t-44.5 112q0 63 45 108.5t113 45.5t114 -45.5t46 -108.5q0 -67 -45.5 -111.5t-114.5 -44.5zM1108 530v-92h-778q20 -109 90.5 -173t165.5 -64q37 0 64.5 4t63.5 16.5t68 41t58 73.5l241 -51q-66 -156 -195 -236t-300 -80q-108 0 -204 39.5
t-167 109.5t-112.5 172t-41.5 220q0 157 71 282t191.5 193t266.5 68q136 0 252 -65t188.5 -185.5t77.5 -272.5zM590 817q-83 0 -156 -49t-96 -139h493q-25 94 -90 141t-151 47z" />
    <glyph glyph-name="Eogonek" unicode="&#x118;" horiz-adv-x="1298" 
d="M1186 0h-43q-12 -14 -31.5 -36t-28 -32t-22 -26t-19 -24t-13 -19.5t-10.5 -20t-5 -18t-2 -19.5q0 -51 57 -51q24 0 98 23l13 -166q-87 -41 -176 -41q-82 0 -136.5 47t-54.5 137q0 63 32.5 121.5t112.5 124.5h-815v1372h1039v-252h-760v-309h700v-248h-700v-311h764v-252z
" />
    <glyph glyph-name="eogonek" unicode="&#x119;" horiz-adv-x="1169" 
d="M1108 438h-776q18 -109 88 -173t164 -64q38 0 68 4t66.5 17t68 41.5t53.5 72.5l241 -51q-38 -72 -147 -181q-90 -87 -135 -155t-45 -133q0 -28 19 -45t50 -17q25 0 99 23l12 -146q-87 -65 -182 -65q-94 0 -150.5 49t-56.5 131q0 114 73 223h-32q-108 0 -204 39.5
t-167 109.5t-112.5 172t-41.5 220t41.5 220t112.5 172.5t167 110.5t204 40q105 0 200.5 -40t166.5 -110.5t113 -172.5t42 -220v-72zM336 629h491q-19 97 -83 142.5t-154 45.5q-85 0 -158 -49t-96 -139z" />
    <glyph glyph-name="Ecaron" unicode="&#x11a;" horiz-adv-x="1298" 
d="M569 1493l-231 305h266l94 -127l93 127h270l-236 -305h-256zM1186 252v-252h-1043v1372h1039v-252h-760v-309h700v-248h-700v-311h764z" />
    <glyph glyph-name="ecaron" unicode="&#x11b;" horiz-adv-x="1169" 
d="M467 1143l-231 305h266l94 -127l92 127h270l-235 -305h-256zM1108 530v-92h-778q20 -109 90.5 -173t165.5 -64q37 0 64.5 4t63.5 16.5t68 41t58 73.5l241 -51q-66 -156 -195 -236t-300 -80q-108 0 -204 39.5t-167 109.5t-112.5 172t-41.5 220q0 157 71 282t191.5 193
t266.5 68q136 0 252 -65t188.5 -185.5t77.5 -272.5zM590 817q-83 0 -156 -49t-96 -139h493q-25 94 -90 141t-151 47z" />
    <glyph glyph-name="Gbreve" unicode="&#x11e;" horiz-adv-x="1589" 
d="M817 1473q-158 0 -250 83t-92 224h223q0 -54 34 -87.5t85 -33.5t85 33.5t34 87.5h223q0 -141 -92 -224t-250 -83zM750 801h751q6 -71 6 -119q0 -151 -52 -283t-143.5 -226.5t-221 -149t-279.5 -54.5q-151 0 -286.5 56t-232.5 151t-153.5 228t-56.5 282q0 197 95.5 362
t261.5 260t364 95q228 0 408 -106.5t251 -307.5l-250 -88q-124 240 -409 240q-185 0 -311.5 -131t-126.5 -324q0 -195 131 -326t323 -131q156 0 266.5 85.5t145.5 232.5h-481v254z" />
    <glyph glyph-name="gbreve" unicode="&#x11f;" horiz-adv-x="1284" 
d="M621 1122q-158 0 -250 83.5t-92 224.5h223q0 -54 34 -87.5t85 -33.5t84.5 33.5t33.5 87.5h224q0 -141 -92 -224.5t-250 -83.5zM1139 1022l2 -924q0 -231 -148 -359t-399 -128q-176 0 -303.5 59t-194.5 166l219 166q43 -53 79.5 -83.5t85.5 -47t114 -16.5q130 0 207.5 76
t77.5 208v17q-118 -95 -322 -95q-127 0 -241 65t-184.5 180.5t-70.5 252.5q0 136 70.5 250.5t184.5 179t241 64.5q200 0 322 -95v64h260zM604 293q111 0 193 75t82 191t-82 191t-193 75q-123 0 -202.5 -73.5t-79.5 -192.5t79.5 -192.5t202.5 -73.5z" />
    <glyph glyph-name="Gdotaccent" unicode="&#x120;" horiz-adv-x="1589" 
d="M815 1522q-69 0 -113.5 43.5t-44.5 111.5q0 63 45 108.5t113 45.5t114 -45.5t46 -108.5q0 -67 -45.5 -111t-114.5 -44zM750 801h751q6 -71 6 -119q0 -151 -52 -283t-143.5 -226.5t-221 -149t-279.5 -54.5q-151 0 -286.5 56t-232.5 151t-153.5 228t-56.5 282
q0 197 95.5 362t261.5 260t364 95q228 0 408 -106.5t251 -307.5l-250 -88q-124 240 -409 240q-185 0 -311.5 -131t-126.5 -324q0 -195 131 -326t323 -131q156 0 266.5 85.5t145.5 232.5h-481v254z" />
    <glyph glyph-name="gdotaccent" unicode="&#x121;" horiz-adv-x="1284" 
d="M618 1171q-69 0 -113 44t-44 112q0 63 44.5 108.5t112.5 45.5t114 -45.5t46 -108.5q0 -67 -45.5 -111.5t-114.5 -44.5zM1139 1022l2 -924q0 -231 -148 -359t-399 -128q-176 0 -303.5 59t-194.5 166l219 166q43 -53 79.5 -83.5t85.5 -47t114 -16.5q130 0 207.5 76
t77.5 208v17q-118 -95 -322 -95q-127 0 -241 65t-184.5 180.5t-70.5 252.5q0 136 70.5 250.5t184.5 179t241 64.5q200 0 322 -95v64h260zM604 293q111 0 193 75t82 191t-82 191t-193 75q-123 0 -202.5 -73.5t-79.5 -192.5t79.5 -192.5t202.5 -73.5z" />
    <glyph glyph-name="Gcommaaccent" unicode="&#x122;" horiz-adv-x="1589" 
d="M750 801h751q6 -71 6 -119q0 -151 -52 -283t-143.5 -226.5t-221 -149t-279.5 -54.5q-151 0 -286.5 56t-232.5 151t-153.5 228t-56.5 282q0 197 95.5 362t261.5 260t364 95q228 0 408 -106.5t251 -307.5l-250 -88q-124 240 -409 240q-185 0 -311.5 -131t-126.5 -324
q0 -195 131 -326t323 -131q156 0 266.5 85.5t145.5 232.5h-481v254zM655 -92h293l-198 -307h-203z" />
    <glyph glyph-name="gcommaaccent" unicode="&#x123;" horiz-adv-x="1292" 
d="M784 1155h-292l198 307h203zM1139 1022l2 -924q0 -231 -148 -359t-399 -128q-176 0 -303.5 59t-194.5 166l219 166q43 -53 79.5 -83.5t85.5 -47t114 -16.5q130 0 207.5 76t77.5 208v17q-118 -95 -322 -95q-127 0 -241 65t-184.5 180.5t-70.5 252.5q0 136 70.5 250.5
t184.5 179t241 64.5q200 0 322 -95v64h260zM604 293q111 0 193 75t82 191t-82 191t-193 75q-123 0 -202.5 -73.5t-79.5 -192.5t79.5 -192.5t202.5 -73.5z" />
    <glyph glyph-name="Hbar" unicode="&#x126;" horiz-adv-x="1581" 
d="M1511 911h-127v-911h-278v481h-639v-481h-279v911h-127v232h127v229h279v-229h639v229h278v-229h127v-232zM1106 911h-639v-178h639v178z" />
    <glyph glyph-name="hbar" unicode="&#x127;" horiz-adv-x="1304" 
d="M776 1053q184 0 297 -119.5t113 -310.5v-623h-271v565q0 108 -56.5 174t-149.5 66q-121 0 -187.5 -85.5t-66.5 -266.5v-453h-271v1151h-123v197h123v127h271v-127h299v-197h-299v-221q123 123 321 123z" />
    <glyph glyph-name="Imacron" unicode="&#x12a;" horiz-adv-x="565" 
d="M608 1522h-651v221h651v-221zM422 0h-279v1372h279v-1372z" />
    <glyph glyph-name="imacron" unicode="&#x12b;" horiz-adv-x="606" 
d="M629 1171h-652v222h652v-222zM438 0h-270v1022h270v-1022z" />
    <glyph glyph-name="Iogonek" unicode="&#x12e;" horiz-adv-x="565" 
d="M446 -223l13 -166q-87 -41 -176 -41q-82 0 -136.5 47t-54.5 137q0 63 33 121.5t113 124.5h-95v1372h279v-1372q-12 -14 -31.5 -36t-28 -32t-22 -26t-19 -24t-13 -19.5t-10.5 -20t-5 -18t-2 -19.5q0 -51 57 -51q24 0 98 23z" />
    <glyph glyph-name="iogonek" unicode="&#x12f;" horiz-adv-x="606" 
d="M301 1171q-69 0 -113.5 44t-44.5 112q0 63 45 108.5t113 45.5t114 -45.5t46 -108.5q0 -67 -45.5 -111.5t-114.5 -44.5zM463 -223l12 -166q-87 -41 -176 -41q-82 0 -136 47t-54 137q0 63 32.5 121.5t112.5 124.5h-86v1022h270v-1022q-12 -14 -31.5 -36t-28 -32t-22 -26
t-19 -24t-13 -19.5t-10.5 -20t-5 -18t-2 -19.5q0 -51 58 -51q24 0 98 23z" />
    <glyph glyph-name="Idotaccent" unicode="&#x130;" horiz-adv-x="565" 
d="M281 1831q68 0 113.5 -45.5t45.5 -108.5q0 -67 -45 -111t-114 -44t-113.5 43.5t-44.5 111.5q0 63 45 108.5t113 45.5zM422 0h-279v1372h279v-1372z" />
    <glyph glyph-name="dotlessi" unicode="&#x131;" horiz-adv-x="606" 
d="M438 0h-270v1022h270v-1022z" />
    <glyph glyph-name="IJ" unicode="&#x132;" horiz-adv-x="1785" 
d="M143 1372h279v-1372h-279v1372zM1655 1372v-887q0 -226 -148 -371t-385 -145q-216 0 -354.5 123t-171.5 326l264 53q14 -112 81.5 -182t180.5 -70t183.5 75.5t70.5 190.5v887h279z" />
    <glyph glyph-name="ij" unicode="&#x133;" horiz-adv-x="1193" 
d="M293 1489q69 0 116.5 -48t47.5 -114q0 -68 -47 -113t-117 -45q-72 0 -118 45t-46 113q0 66 47 114t117 48zM901 1489q69 0 116.5 -48t47.5 -114q0 -68 -47 -113t-117 -45q-72 0 -118 45t-46 113q0 66 47 114t117 48zM428 0h-270v1022h270v-1022zM532 -330l50 236
q61 -21 92 -21q43 0 69.5 22.5t26.5 57.5v1057h270v-1094q0 -134 -82 -215.5t-217 -81.5q-102 0 -209 39z" />
    <glyph glyph-name="Kcommaaccent" unicode="&#x136;" horiz-adv-x="1388" 
d="M1389 0h-375l-522 549h-70v-549h-279v1372h279v-571h47l532 571h345l-631 -688zM545 -92h293l-199 -307h-203z" />
    <glyph glyph-name="kcommaaccent" unicode="&#x137;" horiz-adv-x="1222" 
d="M1223 0h-361l-401 399h-47v-399h-271v1475h271v-809h49l366 356h340l-493 -490zM479 -92h293l-199 -307h-202z" />
    <glyph glyph-name="Lacute" unicode="&#x139;" horiz-adv-x="1212" 
d="M401 1511h-229l135 295h318zM1130 252v-252h-987v1372h279v-1120h708z" />
    <glyph glyph-name="lacute" unicode="&#x13a;" horiz-adv-x="557" 
d="M401 1614h-229l135 295h318zM414 0h-271v1475h271v-1475z" />
    <glyph glyph-name="Lcommaaccent" unicode="&#x13b;" horiz-adv-x="1212" 
d="M1130 252v-252h-987v1372h279v-1120h708zM463 -92h293l-199 -307h-203z" />
    <glyph glyph-name="lcommaaccent" unicode="&#x13c;" horiz-adv-x="557" 
d="M414 0h-271v1475h271v-1475zM27 -399l108 307h293l-199 -307h-202z" />
    <glyph glyph-name="Lcaron" unicode="&#x13d;" horiz-adv-x="1212" 
d="M1130 252v-252h-987v1372h279v-1120h708zM823 965h-213v407h273z" />
    <glyph glyph-name="lcaron" unicode="&#x13e;" horiz-adv-x="557" 
d="M414 0h-271v1475h271v-1475zM743 1067h-213v408h273z" />
    <glyph glyph-name="Ldot" unicode="&#x13f;" horiz-adv-x="1191" 
d="M1130 252v-252h-987v1372h279v-1120h708zM836 565q-69 0 -113.5 44t-44.5 112q0 63 45 108t113 45t113.5 -45t45.5 -108q0 -68 -45 -112t-114 -44z" />
    <glyph glyph-name="ldot" unicode="&#x140;" horiz-adv-x="821" 
d="M414 0h-271v1475h271v-1475zM651 874q68 0 114 -45t46 -108q0 -67 -45.5 -111.5t-114.5 -44.5t-113 44t-44 112q0 63 44.5 108t112.5 45z" />
    <glyph glyph-name="Lslash" unicode="&#x141;" horiz-adv-x="1232" 
d="M1171 252v-252h-987v438l-123 -57v260l123 57v674h279v-543l254 119v-260l-254 -119v-317h708z" />
    <glyph glyph-name="lslash" unicode="&#x142;" horiz-adv-x="657" 
d="M596 729l-131 -76v-653h-270v498l-134 -76v260l134 76v717h270v-562l131 76v-260z" />
    <glyph glyph-name="Nacute" unicode="&#x143;" horiz-adv-x="1558" 
d="M913 1511h-229l135 295h318zM1415 1372v-1372h-233l-760 881v-881h-279v1372h234l760 -905v905h278z" />
    <glyph glyph-name="nacute" unicode="&#x144;" horiz-adv-x="1261" 
d="M764 1161h-229l135 295h317zM735 1053q184 0 297 -119.5t113 -310.5v-623h-271v565q0 108 -56.5 174t-149.5 66q-121 0 -187.5 -85.5t-66.5 -266.5v-453h-271v1022h271v-92q123 123 321 123z" />
    <glyph glyph-name="Ncommaaccent" unicode="&#x145;" horiz-adv-x="1558" 
d="M1415 1372v-1372h-233l-760 881v-881h-279v1372h234l760 -905v905h278zM678 -92h293l-199 -307h-203z" />
    <glyph glyph-name="ncommaaccent" unicode="&#x146;" horiz-adv-x="1261" 
d="M735 1053q184 0 297 -119.5t113 -310.5v-623h-271v565q0 108 -56.5 174t-149.5 66q-121 0 -187.5 -85.5t-66.5 -266.5v-453h-271v1022h271v-92q123 123 321 123zM506 -92h293l-199 -307h-203z" />
    <glyph glyph-name="Ncaron" unicode="&#x147;" horiz-adv-x="1558" 
d="M664 1493l-232 305h266l95 -127l92 127h270l-235 -305h-256zM1415 1372v-1372h-233l-760 881v-881h-279v1372h234l760 -905v905h278z" />
    <glyph glyph-name="ncaron" unicode="&#x148;" horiz-adv-x="1261" 
d="M514 1143l-231 305h266l94 -127l92 127h271l-236 -305h-256zM735 1053q184 0 297 -119.5t113 -310.5v-623h-271v565q0 108 -56.5 174t-149.5 66q-121 0 -187.5 -85.5t-66.5 -266.5v-453h-271v1022h271v-92q123 123 321 123z" />
    <glyph glyph-name="Eng" unicode="&#x14a;" horiz-adv-x="1517" 
d="M1415 1372v-1425q0 -135 -83 -225.5t-216 -90.5q-118 0 -242 50l48 206q79 -22 127 -22q43 0 69.5 22.5t26.5 59.5v96l-723 838v-881h-279v1372h234l760 -905v905h278z" />
    <glyph glyph-name="eng" unicode="&#x14b;" horiz-adv-x="1263" 
d="M735 1053q184 0 297 -119.5t113 -310.5v-676q0 -135 -83 -225.5t-216 -90.5q-118 0 -242 50l47 206q79 -22 127 -22q43 0 69.5 22.5t26.5 59.5v618q0 108 -56.5 174t-149.5 66q-121 0 -187.5 -85.5t-66.5 -266.5v-453h-271v1022h271v-92q123 123 321 123z" />
    <glyph glyph-name="Omacron" unicode="&#x14c;" horiz-adv-x="1609" 
d="M1130 1522h-651v221h651v-221zM805 1403q200 0 366 -96t261.5 -261t95.5 -362t-95.5 -361t-261.5 -259t-366 -95t-366 95t-261.5 259t-95.5 361t95.5 362t261.5 261t366 96zM805 231q187 0 314.5 129t127.5 324q0 196 -127.5 326.5t-314.5 130.5t-315 -131t-128 -326
t128 -324t315 -129z" />
    <glyph glyph-name="omacron" unicode="&#x14d;" horiz-adv-x="1230" 
d="M944 1171h-651v222h651v-222zM618 1047q112 0 212.5 -39t175.5 -108t119 -170.5t44 -219.5t-44 -219.5t-119 -170.5t-175.5 -108t-212.5 -39q-114 0 -215.5 39t-177 108t-120 170.5t-44.5 219.5t44.5 219.5t120 170.5t177 108t215.5 39zM618 205q72 0 137 35.5t108.5 107
t43.5 162.5t-43.5 162.5t-108.5 107t-137 35.5q-117 0 -205.5 -84.5t-88.5 -220.5t88.5 -220.5t205.5 -84.5z" />
    <glyph glyph-name="Ohungarumlaut" unicode="&#x150;" horiz-adv-x="1609" 
d="M729 1511h-242l136 295h333zM868 1511l136 295h333l-227 -295h-242zM805 1403q200 0 366 -96t261.5 -261t95.5 -362t-95.5 -361t-261.5 -259t-366 -95t-366 95t-261.5 259t-95.5 361t95.5 362t261.5 261t366 96zM805 231q187 0 314.5 129t127.5 324q0 196 -127.5 326.5
t-314.5 130.5t-315 -131t-128 -326t128 -324t315 -129z" />
    <glyph glyph-name="ohungarumlaut" unicode="&#x151;" horiz-adv-x="1230" 
d="M543 1161h-242l135 295h334zM682 1161l135 295h334l-227 -295h-242zM618 1047q112 0 212.5 -39t175.5 -108t119 -170.5t44 -219.5t-44 -219.5t-119 -170.5t-175.5 -108t-212.5 -39q-114 0 -215.5 39t-177 108t-120 170.5t-44.5 219.5t44.5 219.5t120 170.5t177 108
t215.5 39zM618 205q72 0 137 35.5t108.5 107t43.5 162.5t-43.5 162.5t-108.5 107t-137 35.5q-117 0 -205.5 -84.5t-88.5 -220.5t88.5 -220.5t205.5 -84.5z" />
    <glyph glyph-name="OE" unicode="&#x152;" horiz-adv-x="2109" 
d="M1997 252v-252h-1141q-170 0 -315 51.5t-245.5 142t-157 217.5t-56.5 275t56.5 275t157 217.5t245.5 142t315 51.5h1137v-252h-760v-309h700v-248h-700v-311h764zM954 252v868h-98q-226 0 -360 -118.5t-134 -315.5t134 -315.5t360 -118.5h98z" />
    <glyph glyph-name="oe" unicode="&#x153;" horiz-adv-x="2015" 
d="M1954 530v-92h-778q20 -109 90.5 -173t165.5 -64q37 0 64.5 4t63.5 16.5t68 41t58 73.5l241 -51q-66 -156 -195 -236t-300 -80q-119 0 -222.5 47t-175.5 134q-77 -85 -185 -131t-231 -46q-114 0 -215.5 39t-177 108t-120 170.5t-44.5 219.5t44.5 219.5t120 170.5t177 108
t215.5 39q123 0 231 -46t185 -131q73 87 177 135t225 48q136 0 252 -65t188.5 -185.5t77.5 -272.5zM1436 817q-83 0 -156 -49t-96 -139h493q-25 94 -90 141t-151 47zM618 205q72 0 137 35.5t108.5 107t43.5 162.5t-43.5 162.5t-108.5 107t-137 35.5q-117 0 -205.5 -84.5
t-88.5 -220.5t88.5 -220.5t205.5 -84.5z" />
    <glyph glyph-name="Racute" unicode="&#x154;" horiz-adv-x="1380" 
d="M809 1511h-229l135 295h317zM1360 0h-340l-453 504h-145v-504h-279v1372h658q221 0 356 -119.5t135 -314.5q0 -171 -106 -286.5t-287 -141.5zM422 756h379q97 0 156 50t59 132t-59 132t-156 50h-379v-364z" />
    <glyph glyph-name="racute" unicode="&#x155;" horiz-adv-x="878" 
d="M588 1161h-230l136 295h317zM780 1036q47 0 72 -8l-14 -260h-60q-364 0 -364 -438v-330h-271v1022h271v-186q138 200 366 200z" />
    <glyph glyph-name="Rcommaaccent" unicode="&#x156;" horiz-adv-x="1380" 
d="M1360 0h-340l-453 504h-145v-504h-279v1372h658q221 0 356 -119.5t135 -314.5q0 -171 -106 -286.5t-287 -141.5zM422 756h379q97 0 156 50t59 132t-59 132t-156 50h-379v-364zM575 -92h293l-198 -307h-203z" />
    <glyph glyph-name="rcommaaccent" unicode="&#x157;" horiz-adv-x="878" 
d="M780 1036q47 0 72 -8l-14 -260h-60q-364 0 -364 -438v-330h-271v1022h271v-186q138 200 366 200zM135 -92h293l-199 -307h-202z" />
    <glyph glyph-name="Rcaron" unicode="&#x158;" horiz-adv-x="1380" 
d="M559 1493l-231 305h266l94 -127l92 127h271l-236 -305h-256zM1360 0h-340l-453 504h-145v-504h-279v1372h658q221 0 356 -119.5t135 -314.5q0 -171 -106 -286.5t-287 -141.5zM422 756h379q97 0 156 50t59 132t-59 132t-156 50h-379v-364z" />
    <glyph glyph-name="rcaron" unicode="&#x159;" horiz-adv-x="878" 
d="M338 1143l-232 305h267l94 -127l92 127h270l-235 -305h-256zM780 1036q47 0 72 -8l-14 -260h-60q-364 0 -364 -438v-330h-271v1022h271v-186q138 200 366 200z" />
    <glyph glyph-name="Sacute" unicode="&#x15a;" horiz-adv-x="1312" 
d="M799 1511h-230l136 295h317zM647 1403q210 0 356.5 -106.5t186.5 -288.5l-279 -58q-15 96 -90.5 154.5t-179.5 58.5q-101 0 -162 -49t-61 -121q0 -56 30.5 -90.5t106.5 -48.5l295 -59q171 -36 265.5 -136.5t94.5 -257.5q0 -198 -149 -315t-395 -117q-109 0 -206 25.5
t-175 75t-129 128.5t-64 179l293 59q53 -223 307 -223q116 0 180 49t64 125q0 61 -35.5 96.5t-124.5 53.5l-291 55q-360 77 -360 393q0 187 141.5 302.5t380.5 115.5z" />
    <glyph glyph-name="sacute" unicode="&#x15b;" horiz-adv-x="1030" 
d="M651 1161h-229l135 295h317zM57 270l273 56q10 -73 67 -106.5t144 -33.5q73 0 116 29.5t43 73.5q0 69 -112 92l-209 43q-138 29 -213.5 105t-75.5 186q0 150 113.5 244t304.5 94q179 0 298 -83.5t146 -219.5l-258 -52q-8 63 -59.5 102.5t-134.5 39.5q-75 0 -107.5 -29.5
t-32.5 -71.5q0 -30 19 -52t74 -34l243 -53q131 -28 200 -105.5t69 -183.5q0 -165 -122 -253.5t-327 -88.5q-87 0 -163.5 17.5t-140 52.5t-104.5 94.5t-51 136.5z" />
    <glyph glyph-name="Scedilla" unicode="&#x15e;" horiz-adv-x="1312" 
d="M1210 401q0 -173 -116.5 -286t-315.5 -140l-100 -303h-287l180 301q-94 10 -174.5 40.5t-145 80t-106.5 122t-53 161.5l293 59q53 -223 307 -223q116 0 180 49t64 125q0 61 -35.5 96.5t-124.5 53.5l-291 55q-360 77 -360 393q0 187 141.5 302.5t380.5 115.5
q210 0 356.5 -106.5t186.5 -288.5l-279 -58q-15 96 -90.5 154.5t-179.5 58.5q-101 0 -162 -49t-61 -121q0 -56 30.5 -90.5t106.5 -48.5l295 -59q171 -36 265.5 -136.5t94.5 -257.5z" />
    <glyph glyph-name="scedilla" unicode="&#x15f;" horiz-adv-x="1030" 
d="M965 311q0 -136 -83.5 -220t-232.5 -111l-102 -308h-287l180 301q-156 14 -260.5 88.5t-122.5 208.5l273 56q10 -73 67 -106.5t144 -33.5q73 0 116 29.5t43 73.5q0 69 -112 92l-209 43q-138 29 -213.5 105t-75.5 186q0 150 113.5 244t304.5 94q179 0 298 -83.5
t146 -219.5l-258 -52q-8 63 -59.5 102.5t-134.5 39.5q-75 0 -107.5 -29.5t-32.5 -71.5q0 -30 19 -52t74 -34l243 -53q131 -28 200 -105.5t69 -183.5z" />
    <glyph glyph-name="Scaron" unicode="&#x160;" horiz-adv-x="1312" 
d="M549 1493l-232 305h267l94 -127l92 127h270l-235 -305h-256zM555 854l295 -59q171 -36 265.5 -136.5t94.5 -257.5q0 -198 -149 -315t-395 -117q-109 0 -206 25.5t-175 75t-129 128.5t-64 179l293 59q53 -223 307 -223q116 0 180 49t64 125q0 61 -35.5 96.5t-124.5 53.5
l-291 55q-360 77 -360 393q0 187 141.5 302.5t380.5 115.5q210 0 356.5 -106.5t186.5 -288.5l-279 -58q-15 96 -90.5 154.5t-179.5 58.5q-101 0 -162 -49t-61 -121q0 -56 30.5 -90.5t106.5 -48.5z" />
    <glyph glyph-name="scaron" unicode="&#x161;" horiz-adv-x="1030" 
d="M401 1143l-231 305h266l94 -127l93 127h270l-236 -305h-256zM453 653l243 -53q131 -28 200 -105.5t69 -183.5q0 -165 -122 -253.5t-327 -88.5q-87 0 -163.5 17.5t-140 52.5t-104.5 94.5t-51 136.5l273 56q10 -73 67 -106.5t144 -33.5q73 0 116 29.5t43 73.5q0 69 -112 92
l-209 43q-138 29 -213.5 105t-75.5 186q0 150 113.5 244t304.5 94q179 0 298 -83.5t146 -219.5l-258 -52q-8 63 -59.5 102.5t-134.5 39.5q-75 0 -107.5 -29.5t-32.5 -71.5q0 -30 19 -52t74 -34z" />
    <glyph glyph-name="tcedilla" unicode="&#x163;" horiz-adv-x="888" 
d="M809 270l78 -225q-129 -70 -236 -76l-98 -297h-287l193 320q-115 38 -177.5 134t-62.5 251v424h-219v221h219v309h270v-309h334v-221h-334v-404q0 -89 40 -132.5t110 -43.5q80 0 170 49z" />
    <glyph glyph-name="Tcaron" unicode="&#x164;" horiz-adv-x="1273" 
d="M510 1493l-231 305h266l94 -127l92 127h270l-235 -305h-256zM1233 1120h-457v-1120h-278v1120h-457v252h1192v-252z" />
    <glyph glyph-name="tcaron" unicode="&#x165;" horiz-adv-x="888" 
d="M809 1106h-213v407h272zM809 270l78 -225q-141 -76 -266 -76q-188 0 -295 102t-107 306v424h-219v221h219v309h270v-309h334v-221h-334v-404q0 -89 40 -132.5t110 -43.5q80 0 170 49z" />
    <glyph glyph-name="Tbar" unicode="&#x166;" horiz-adv-x="1273" 
d="M776 1120v-319h248v-232h-248v-569h-278v569h-248v232h248v319h-457v252h1192v-252h-457z" />
    <glyph glyph-name="tbar" unicode="&#x167;" horiz-adv-x="888" 
d="M795 270l49 -235q-120 -66 -238 -66q-188 0 -294.5 101.5t-106.5 306.5v112h-174v218h174v94h-203v221h203v309h270v-309h334v-221h-334v-94h248v-218h-248v-92q0 -89 40 -132.5t110 -43.5q80 0 170 49z" />
    <glyph glyph-name="Umacron" unicode="&#x16a;" horiz-adv-x="1456" 
d="M1053 1522h-652v221h652v-221zM1325 1372v-758q0 -289 -162.5 -467t-427.5 -178q-271 0 -437.5 178t-166.5 467v758h279v-758q0 -172 88.5 -275t236.5 -103q140 0 226 103.5t86 274.5v758h278z" />
    <glyph glyph-name="umacron" unicode="&#x16b;" horiz-adv-x="1261" 
d="M950 1171h-651v222h651v-222zM1118 1022v-1022h-270v92q-123 -123 -322 -123q-184 0 -296.5 119.5t-112.5 310.5v623h270v-565q0 -108 57 -174t150 -66q121 0 187.5 85.5t66.5 266.5v453h270z" />
    <glyph glyph-name="Uring" unicode="&#x16e;" horiz-adv-x="1456" 
d="M727 1464q-102 0 -173 68.5t-71 167.5q0 98 70.5 166.5t173.5 68.5t173.5 -68.5t70.5 -166.5q0 -99 -71 -167.5t-173 -68.5zM727 1782q-36 0 -61 -24t-25 -58t25 -58t61 -24t61 24t25 58t-25 58t-61 24zM1325 1372v-758q0 -289 -162.5 -467t-427.5 -178
q-271 0 -437.5 178t-166.5 467v758h279v-758q0 -172 88.5 -275t236.5 -103q140 0 226 103.5t86 274.5v758h278z" />
    <glyph glyph-name="uring" unicode="&#x16f;" horiz-adv-x="1261" 
d="M625 1114q-102 0 -173 68.5t-71 167.5q0 98 70.5 166.5t173.5 68.5q102 0 172.5 -68t70.5 -167t-70.5 -167.5t-172.5 -68.5zM625 1432q-36 0 -61 -24t-25 -58t25 -58t61 -24t61 24t25 58t-25 58t-61 24zM1118 1022v-1022h-270v92q-123 -123 -322 -123
q-184 0 -296.5 119.5t-112.5 310.5v623h270v-565q0 -108 57 -174t150 -66q121 0 187.5 85.5t66.5 266.5v453h270z" />
    <glyph glyph-name="Uhungarumlaut" unicode="&#x170;" horiz-adv-x="1456" 
d="M651 1511h-241l135 295h334zM791 1511l135 295h334l-228 -295h-241zM1325 1372v-758q0 -289 -162.5 -467t-427.5 -178q-271 0 -437.5 178t-166.5 467v758h279v-758q0 -172 88.5 -275t236.5 -103q140 0 226 103.5t86 274.5v758h278z" />
    <glyph glyph-name="uhungarumlaut" unicode="&#x171;" horiz-adv-x="1261" 
d="M549 1161h-242l135 295h334zM688 1161l135 295h334l-227 -295h-242zM848 1022h270v-1022h-270v92q-123 -123 -322 -123q-184 0 -296.5 119.5t-112.5 310.5v623h270v-565q0 -108 57 -174t150 -66q121 0 187.5 85.5t66.5 266.5v453z" />
    <glyph glyph-name="Uogonek" unicode="&#x172;" horiz-adv-x="1456" 
d="M1118 102q-113 -109 -141 -146q-49 -63 -49 -128q0 -28 18 -44.5t47 -16.5q33 0 119 30l51 -168q-125 -63 -241 -63q-94 0 -154.5 49.5t-60.5 130.5q0 126 98 227q-46 -4 -70 -4q-271 0 -437.5 173.5t-166.5 453.5v776h279v-776q0 -163 88.5 -261.5t236.5 -98.5
q140 0 226 99t86 261v776h278v-776q0 -294 -207 -494z" />
    <glyph glyph-name="uogonek" unicode="&#x173;" horiz-adv-x="1261" 
d="M1145 -223l12 -166q-87 -41 -176 -41q-82 0 -136 47t-54 137q0 63 32.5 121.5t112.5 124.5h-88v92q-123 -123 -322 -123q-184 0 -296.5 119.5t-112.5 310.5v623h270v-565q0 -108 57 -174t150 -66q121 0 187.5 85.5t66.5 266.5v453h270v-1022h2q-12 -14 -31.5 -36t-28 -32
t-22 -26t-19 -24t-13 -19.5t-10.5 -20t-5 -18t-2 -19.5q0 -51 58 -51q24 0 98 23z" />
    <glyph glyph-name="Wcircumflex" unicode="&#x174;" horiz-adv-x="1970" 
d="M893 1493h-266l231 305h256l236 -305h-271l-92 127zM1950 1372l-400 -1372h-299l-266 926l-268 -926h-297l-400 1372h291l262 -946l277 946h268l277 -946l262 946h293z" />
    <glyph glyph-name="wcircumflex" unicode="&#x175;" horiz-adv-x="1611" 
d="M715 1143h-266l231 305h256l235 -305h-270l-92 127zM1591 1022l-340 -1024h-243l-201 602l-203 -602h-244l-340 1024h269l203 -629l208 629h211l209 -631l203 631h268z" />
    <glyph glyph-name="Ycircumflex" unicode="&#x176;" horiz-adv-x="1415" 
d="M614 1493h-266l232 305h256l235 -305h-270l-92 127zM842 438v-438h-279v434l-543 938h308l374 -647l373 647h320z" />
    <glyph glyph-name="ycircumflex" unicode="&#x177;" horiz-adv-x="1196" 
d="M483 1147h-266l232 305h256l235 -305h-270l-92 127zM1176 1024l-594 -1372h-301l163 381l-424 991h302l270 -653l282 653h302z" />
    <glyph glyph-name="Ydieresis" unicode="&#x178;" horiz-adv-x="1415" 
d="M485 1501q-70 0 -115.5 45.5t-45.5 114.5q0 65 46 112.5t115 47.5t116.5 -48t47.5 -112q0 -69 -46.5 -114.5t-117.5 -45.5zM928 1501q-70 0 -116 45.5t-46 114.5q0 65 46.5 112.5t115.5 47.5t116.5 -48t47.5 -112q0 -69 -46.5 -114.5t-117.5 -45.5zM842 438v-438h-279
v434l-543 938h308l374 -647l373 647h320z" />
    <glyph glyph-name="Zacute" unicode="&#x179;" horiz-adv-x="1280" 
d="M774 1511h-229l135 295h317zM1194 238v-238h-1098v178l729 957h-708v237h1063v-211l-688 -923h702z" />
    <glyph glyph-name="zacute" unicode="&#x17a;" horiz-adv-x="1071" 
d="M670 1161h-230l135 295h318zM989 221v-221h-907v176l549 625h-535v221h869v-180l-549 -621h573z" />
    <glyph glyph-name="Zdotaccent" unicode="&#x17b;" horiz-adv-x="1280" 
d="M649 1522q-69 0 -113 43.5t-44 111.5q0 63 44.5 108.5t112.5 45.5t114 -45.5t46 -108.5q0 -67 -45.5 -111t-114.5 -44zM1194 238v-238h-1098v178l729 957h-708v237h1063v-211l-688 -923h702z" />
    <glyph glyph-name="zdotaccent" unicode="&#x17c;" horiz-adv-x="1071" 
d="M545 1171q-69 0 -113.5 44t-44.5 112q0 63 45 108.5t113 45.5t114 -45.5t46 -108.5q0 -67 -45.5 -111.5t-114.5 -44.5zM989 221v-221h-907v176l549 625h-535v221h869v-180l-549 -621h573z" />
    <glyph glyph-name="Zcaron" unicode="&#x17d;" horiz-adv-x="1280" 
d="M524 1493l-231 305h266l94 -127l92 127h271l-236 -305h-256zM1194 238v-238h-1098v178l729 957h-708v237h1063v-211l-688 -923h702z" />
    <glyph glyph-name="zcaron" unicode="&#x17e;" horiz-adv-x="1071" 
d="M420 1143l-232 305h267l94 -127l92 127h270l-235 -305h-256zM989 221v-221h-907v176l549 625h-535v221h869v-180l-549 -621h573z" />
    <glyph glyph-name="florin" unicode="&#x192;" horiz-adv-x="1200" 
d="M911 1161q-71 0 -120 -43t-64 -125l-37 -207h316v-221h-357l-100 -551q-29 -162 -137.5 -257t-266.5 -95q-66 0 -110.5 14.5t-95.5 42.5l86 218q72 -21 122 -21q52 0 90 28t46 70l98 551h-213v221h254l37 207q34 188 158.5 298t308.5 110q135 0 243 -70l-90 -221
q-34 24 -81 37.5t-87 13.5z" />
    <glyph glyph-name="AEacute" unicode="&#x1fc;" horiz-adv-x="2131" 
d="M1487 1511h-230l136 295h317zM2040 252v-252h-1043v252h-514l-161 -252h-322l922 1372h1114v-252h-760v-309h700v-248h-700v-311h764zM997 504v553l-354 -553h354z" />
    <glyph glyph-name="aeacute" unicode="&#x1fd;" horiz-adv-x="1845" 
d="M1030 1161h-229l135 295h317zM1784 418h-774q27 -104 95 -160.5t171 -56.5q164 0 237 133l242 -51q-43 -140 -176 -227t-309 -87q-243 0 -398 168q-71 -74 -179.5 -121t-239.5 -47q-188 0 -290 93.5t-102 234.5q0 145 109 228t305 83h287v39q0 81 -54.5 130.5
t-142.5 49.5q-79 0 -132.5 -41t-63.5 -114l-248 51q19 145 140.5 237.5t307.5 92.5q225 0 349 -127q150 127 344 127q106 0 201 -39.5t166 -109.5t113 -172.5t42 -221.5v-92zM1008 608h503q-22 109 -87 163t-152 54q-93 0 -169 -57t-95 -160zM762 418h-287q-76 0 -116 -30
t-40 -81q0 -55 46 -89t120 -34q106 0 191.5 63.5t85.5 145.5v25z" />
    <glyph glyph-name="Scommaaccent" unicode="&#x218;" horiz-adv-x="1312" 
d="M647 1403q210 0 356.5 -106.5t186.5 -288.5l-279 -58q-15 96 -90.5 154.5t-179.5 58.5q-101 0 -162 -49t-61 -121q0 -56 30.5 -90.5t106.5 -48.5l295 -59q171 -36 265.5 -136.5t94.5 -257.5q0 -198 -149 -315t-395 -117q-109 0 -206 25.5t-175 75t-129 128.5t-64 179
l293 59q53 -223 307 -223q116 0 180 49t64 125q0 61 -35.5 96.5t-124.5 53.5l-291 55q-360 77 -360 393q0 187 141.5 302.5t380.5 115.5zM418 -399l108 307h293l-198 -307h-203z" />
    <glyph glyph-name="scommaaccent" unicode="&#x219;" horiz-adv-x="1030" 
d="M57 270l273 56q10 -73 67 -106.5t144 -33.5q73 0 116 29.5t43 73.5q0 69 -112 92l-209 43q-138 29 -213.5 105t-75.5 186q0 150 113.5 244t304.5 94q179 0 298 -83.5t146 -219.5l-258 -52q-8 63 -59.5 102.5t-134.5 39.5q-75 0 -107.5 -29.5t-32.5 -71.5q0 -30 19 -52
t74 -34l243 -53q131 -28 200 -105.5t69 -183.5q0 -165 -122 -253.5t-327 -88.5q-87 0 -163.5 17.5t-140 52.5t-104.5 94.5t-51 136.5zM287 -399l108 307h293l-199 -307h-202z" />
    <glyph glyph-name="uni021A" unicode="&#x21a;" horiz-adv-x="1273" 
d="M1233 1372v-252h-457v-1120h-278v1120h-457v252h1192zM502 -92h293l-199 -307h-203z" />
    <glyph glyph-name="uni021B" unicode="&#x21b;" horiz-adv-x="888" 
d="M621 -31q-188 0 -295 102t-107 306v424h-219v221h219v309h270v-309h334v-221h-334v-404q0 -89 40 -132.5t110 -43.5q80 0 170 49l78 -225q-141 -76 -266 -76zM401 -92h293l-198 -307h-203z" />
    <glyph glyph-name="circumflex" unicode="&#x2c6;" horiz-adv-x="1228" 
d="M709 1143l-93 127l-94 -127h-266l231 305h256l236 -305h-270z" />
    <glyph glyph-name="caron" unicode="&#x2c7;" horiz-adv-x="1228" 
d="M979 1448l-236 -305h-256l-231 305h266l94 -127l93 127h270z" />
    <glyph glyph-name="breve" unicode="&#x2d8;" horiz-adv-x="1228" 
d="M614 1120q-158 0 -250 83t-92 224h224q0 -54 33.5 -87t84.5 -33t85 33t34 87h223q0 -141 -92 -224t-250 -83z" />
    <glyph glyph-name="dotaccent" unicode="&#x2d9;" horiz-adv-x="1228" 
d="M614 1481q68 0 114 -45.5t46 -108.5q0 -67 -45.5 -111.5t-114.5 -44.5t-113 44t-44 112q0 63 44.5 108.5t112.5 45.5z" />
    <glyph glyph-name="ring" unicode="&#x2da;" horiz-adv-x="1228" 
d="M858 1350q0 -99 -71 -167.5t-173 -68.5t-172.5 68.5t-70.5 167.5t70.5 167t172.5 68q103 0 173.5 -68.5t70.5 -166.5zM700 1350q0 34 -25 58t-61 24t-61 -24t-25 -58t25 -58t61 -24t61 24t25 58z" />
    <glyph glyph-name="ogonek" unicode="&#x2db;" horiz-adv-x="1228" 
d="M496 0h184q-12 -14 -31.5 -36t-28 -32t-22 -26t-19 -24t-13 -19.5t-10.5 -20t-5 -18t-2 -19.5q0 -51 57 -51q25 0 99 23l12 -166q-87 -41 -176 -41q-82 0 -136.5 47t-54.5 137q0 63 33 121.5t113 124.5z" />
    <glyph glyph-name="tilde" unicode="&#x2dc;" horiz-adv-x="1228" 
d="M457 1198h-178q0 77 20.5 132t54.5 83t69.5 40.5t74.5 12.5q45 0 83 -12.5t59 -27.5t49.5 -27.5t58.5 -12.5q27 0 42 23t15 57h178q0 -78 -20 -134t-54 -84.5t-69.5 -41t-75.5 -12.5q-47 0 -85 12t-58.5 27t-49 27t-57.5 12q-27 0 -42 -21.5t-15 -52.5z" />
    <glyph glyph-name="hungarumlaut" unicode="&#x2dd;" horiz-adv-x="1228" 
d="M457 1161h-242l135 295h334zM838 1161h-242l135 295h334z" />
    <glyph glyph-name="uni0326" unicode="&#x326;" horiz-adv-x="0" 
d="M412 -399l108 307h293l-199 -307h-202z" />
    <glyph glyph-name="Wgrave" unicode="&#x1e80;" horiz-adv-x="1970" 
d="M866 1511l-223 295h318l135 -295h-230zM1950 1372l-400 -1372h-299l-266 926l-268 -926h-297l-400 1372h291l262 -946l277 946h268l277 -946l262 946h293z" />
    <glyph glyph-name="wgrave" unicode="&#x1e81;" horiz-adv-x="1611" 
d="M688 1161l-223 295h317l136 -295h-230zM1591 1022l-340 -1024h-243l-201 602l-203 -602h-244l-340 1024h269l203 -629l208 629h211l209 -631l203 631h268z" />
    <glyph glyph-name="Wacute" unicode="&#x1e82;" horiz-adv-x="1970" 
d="M1108 1511h-229l135 295h317zM1950 1372l-400 -1372h-299l-266 926l-268 -926h-297l-400 1372h291l262 -946l277 946h268l277 -946l262 946h293z" />
    <glyph glyph-name="wacute" unicode="&#x1e83;" horiz-adv-x="1611" 
d="M930 1161h-230l136 295h317zM1591 1022l-340 -1024h-243l-201 602l-203 -602h-244l-340 1024h269l203 -629l208 629h211l209 -631l203 631h268z" />
    <glyph glyph-name="Wdieresis" unicode="&#x1e84;" horiz-adv-x="1970" 
d="M764 1501q-70 0 -116 45.5t-46 114.5q0 65 46.5 112.5t115.5 47.5t116.5 -48t47.5 -112q0 -69 -46.5 -114.5t-117.5 -45.5zM1206 1501q-70 0 -116 45.5t-46 114.5q0 65 46.5 112.5t115.5 47.5t116.5 -48t47.5 -112q0 -69 -46.5 -114.5t-117.5 -45.5zM1950 1372
l-400 -1372h-299l-266 926l-268 -926h-297l-400 1372h291l262 -946l277 946h268l277 -946l262 946h293z" />
    <glyph glyph-name="wdieresis" unicode="&#x1e85;" horiz-adv-x="1611" 
d="M586 1151q-70 0 -116 45.5t-46 114.5q0 64 46.5 111.5t115.5 47.5t116.5 -47.5t47.5 -111.5q0 -69 -46.5 -114.5t-117.5 -45.5zM1028 1151q-70 0 -116 45.5t-46 114.5q0 64 46.5 111.5t115.5 47.5t116.5 -47.5t47.5 -111.5q0 -69 -46.5 -114.5t-117.5 -45.5zM1591 1022
l-340 -1024h-243l-201 602l-203 -602h-244l-340 1024h269l203 -629l208 629h211l209 -631l203 631h268z" />
    <glyph glyph-name="Ygrave" unicode="&#x1ef2;" horiz-adv-x="1415" 
d="M588 1511l-223 295h317l135 -295h-229zM842 438v-438h-279v434l-543 938h308l374 -647l373 647h320z" />
    <glyph glyph-name="ygrave" unicode="&#x1ef3;" horiz-adv-x="1196" 
d="M457 1165l-224 295h318l135 -295h-229zM1176 1024l-594 -1372h-301l163 381l-424 991h302l270 -653l282 653h302z" />
    <glyph glyph-name="endash" unicode="&#x2013;" horiz-adv-x="1269" 
d="M1147 420h-1024v205h1024v-205z" />
    <glyph glyph-name="emdash" unicode="&#x2014;" horiz-adv-x="2129" 
d="M2007 420h-1884v205h1884v-205z" />
    <glyph glyph-name="quoteleft" unicode="&#x2018;" horiz-adv-x="577" 
d="M303 1372h203l-123 -549h-311v6z" />
    <glyph glyph-name="quoteright" unicode="&#x2019;" horiz-adv-x="577" 
d="M274 823h-202l123 549h311v-6z" />
    <glyph glyph-name="quotesinglbase" unicode="&#x201a;" horiz-adv-x="577" 
d="M274 -270h-202l123 549h311v-7z" />
    <glyph glyph-name="quotedblleft" unicode="&#x201c;" horiz-adv-x="966" 
d="M303 1372h203l-123 -549h-311v6zM692 1372h203l-123 -549h-311v6z" />
    <glyph glyph-name="quotedblright" unicode="&#x201d;" horiz-adv-x="966" 
d="M274 823h-202l123 549h311v-6zM664 823h-203l123 549h311v-6z" />
    <glyph glyph-name="quotedblbase" unicode="&#x201e;" horiz-adv-x="966" 
d="M274 -270h-202l123 549h311v-7zM664 -270h-203l123 549h311v-7z" />
    <glyph glyph-name="dagger" unicode="&#x2020;" horiz-adv-x="829" 
d="M737 1331v-172h-229v-506h-186v506h-230v172h230v185h186v-185h229z" />
    <glyph glyph-name="daggerdbl" unicode="&#x2021;" horiz-adv-x="829" 
d="M508 1159v-149h229v-172h-229v-185h-186v185h-230v172h230v149h-230v172h230v185h186v-185h229v-172h-229z" />
    <glyph glyph-name="bullet" unicode="&#x2022;" horiz-adv-x="864" 
d="M432 868q149 0 249.5 -101t100.5 -239q0 -144 -99.5 -241t-250.5 -97t-250.5 97t-99.5 241q0 138 100.5 239t249.5 101z" />
    <glyph glyph-name="ellipsis" unicode="&#x2026;" horiz-adv-x="1593" 
d="M244 305q69 0 115.5 -47t46.5 -111q0 -66 -46 -110.5t-116 -44.5t-116 44.5t-46 110.5q0 64 46.5 111t115.5 47zM797 305q69 0 115 -47t46 -111q0 -66 -45.5 -110.5t-115.5 -44.5t-116 44.5t-46 110.5q0 64 46.5 111t115.5 47zM1350 305q69 0 115 -47t46 -111
q0 -66 -45.5 -110.5t-115.5 -44.5t-116 44.5t-46 110.5q0 64 46.5 111t115.5 47z" />
    <glyph glyph-name="perthousand" unicode="&#x2030;" horiz-adv-x="2525" 
d="M426 1403q143 0 242.5 -92t99.5 -240q0 -147 -100 -239.5t-242 -92.5q-143 0 -243.5 92.5t-100.5 239.5q0 148 100 240t244 92zM256 0l1006 1372h178l-1006 -1372h-178zM426 1219q-57 0 -99 -40t-42 -106q0 -69 42 -109t99 -40q56 0 97.5 40.5t41.5 108.5q0 66 -41.5 106
t-97.5 40zM1282 633q143 0 242.5 -92t99.5 -240q0 -147 -100 -239.5t-242 -92.5q-143 0 -243.5 92.5t-100.5 239.5q0 148 100 240t244 92zM2101 633q143 0 242.5 -92t99.5 -240q0 -147 -100 -239.5t-242 -92.5q-143 0 -243.5 92.5t-100.5 239.5q0 148 100 240t244 92z
M1282 449q-57 0 -99 -40t-42 -106q0 -69 42 -109t99 -40q56 0 97.5 40.5t41.5 108.5q0 66 -41.5 106t-97.5 40zM2101 449q-57 0 -99 -40t-42 -106q0 -69 42 -109t99 -40q56 0 98 40.5t42 108.5q0 66 -42 106t-98 40z" />
    <glyph glyph-name="guilsinglleft" unicode="&#x2039;" horiz-adv-x="598" 
d="M51 537l230 364h266l-230 -364l230 -365h-266z" />
    <glyph glyph-name="guilsinglright" unicode="&#x203a;" horiz-adv-x="598" 
d="M51 172l230 365l-230 364h266l230 -364l-230 -365h-266z" />
    <glyph glyph-name="fraction" unicode="&#x2044;" horiz-adv-x="487" 
d="M-369 0l1006 1372h178l-1005 -1372h-179z" />
    <glyph glyph-name="Euro" unicode="&#x20ac;" horiz-adv-x="1595" 
d="M938 229q103 0 180.5 68.5t120.5 212.5l274 -59q-56 -222 -208.5 -352t-366.5 -130q-212 0 -363.5 127.5t-207.5 347.5h-224v197h195v45v45h-195v195h224q56 221 207 349t364 128q214 0 366.5 -129.5t208.5 -351.5l-284 -56q-29 140 -108 209.5t-183 69.5
q-95 0 -167.5 -58t-111.5 -161h431l-48 -195h-419l-2 -45q0 -31 2 -45h399l-47 -197h-313q39 -101 110.5 -158t165.5 -57z" />
    <glyph glyph-name="uni2116" unicode="&#x2116;" horiz-adv-x="2455" 
d="M1944 692q-150 0 -256.5 98.5t-106.5 251.5t106.5 252t256.5 99q155 0 261.5 -98.5t106.5 -252.5t-106.5 -252t-261.5 -98zM1137 1372h278v-1372h-233l-760 881v-881h-279v1372h234l760 -905v905zM1944 1196q-60 0 -104 -44.5t-44 -109.5t44 -109t104 -44q65 0 110 44
t45 109q0 66 -45 110t-110 44zM1602 588h690v-219h-690v219z" />
    <glyph glyph-name="uni2117" unicode="&#x2117;" horiz-adv-x="1548" 
d="M768 1403q145 0 276.5 -54t228.5 -148.5t154.5 -229.5t57.5 -289q0 -203 -97.5 -367.5t-261.5 -255t-358 -90.5q-195 0 -359.5 90.5t-262 255t-97.5 367.5q0 154 57.5 289t154.5 229.5t229 148.5t278 54zM768 86q120 0 228 45t188 123t127 190t47 240t-47 241.5
t-127 192.5t-188.5 124.5t-227.5 45.5q-120 0 -229 -45.5t-189 -124.5t-127 -192.5t-47 -241.5t47 -240t127 -190t189 -123t229 -45zM496 1057h348q136 0 215.5 -72.5t79.5 -191.5q0 -124 -79.5 -198.5t-215.5 -74.5h-187v-211h-161v748zM657 670h174q68 0 109 34t41 89
q0 52 -41 84t-109 32h-174v-239z" />
    <glyph glyph-name="trademark" unicode="&#x2122;" horiz-adv-x="1366" 
d="M575 1241h-176v-426h-155v426h-172v131h503v-131zM1274 815h-146v285l-124 -283h-91l-125 283v-285h-145v557h170l145 -311l148 311h168v-557z" />
    <glyph glyph-name="oneeighth" unicode="&#x215b;" horiz-adv-x="1656" 
d="M190 1112l-147 -96v209l215 147h129v-778h-197v518zM1346 1372l-1006 -1372h-178l1005 1372h179zM1427 403q142 -52 142 -194q0 -100 -86.5 -164.5t-227.5 -64.5q-139 0 -226 65t-87 164q0 142 139 194q-108 54 -108 168q0 91 81.5 154t202.5 63q120 0 201.5 -63
t81.5 -154q0 -115 -113 -168zM1255 645q-47 0 -77.5 -25.5t-30.5 -68.5q0 -37 31.5 -63.5t76.5 -26.5q44 0 76.5 25.5t32.5 64.5q0 43 -31 68.5t-78 25.5zM1255 133q48 0 80.5 27.5t32.5 70.5t-32 71t-81 28q-51 0 -82.5 -27.5t-31.5 -71.5t32 -71t82 -27z" />
    <glyph glyph-name="threeeighths" unicode="&#x215c;" horiz-adv-x="1783" 
d="M649 836q0 -108 -84 -180t-215 -72q-128 0 -212.5 69.5t-88.5 186.5l164 41q5 -65 40.5 -99t98.5 -34q51 0 82 25.5t31 66.5t-30.5 63.5t-80.5 22.5h-82v139h68q51 0 85 22.5t34 59.5q0 40 -30.5 64t-80.5 24q-57 0 -88.5 -33t-32.5 -94l-172 41q10 112 89 178t202 66
q128 0 208.5 -68t80.5 -172q0 -102 -96 -152q110 -55 110 -165zM1473 1372l-1006 -1372h-178l1005 1372h179zM1554 403q142 -52 142 -194q0 -100 -86.5 -164.5t-227.5 -64.5q-139 0 -226 65t-87 164q0 142 139 194q-108 54 -108 168q0 91 81.5 154t202.5 63q120 0 201.5 -63
t81.5 -154q0 -115 -113 -168zM1382 645q-47 0 -77.5 -25.5t-30.5 -68.5q0 -37 31.5 -63.5t76.5 -26.5q44 0 76.5 25.5t32.5 64.5q0 43 -31 68.5t-78 25.5zM1382 133q48 0 80.5 27.5t32.5 70.5t-32 71t-81 28q-51 0 -82.5 -27.5t-31.5 -71.5t32 -71t82 -27z" />
    <glyph glyph-name="fiveeighths" unicode="&#x215d;" horiz-adv-x="1720" 
d="M659 850q0 -121 -83.5 -196.5t-217.5 -75.5q-127 0 -212 67t-97 164l187 35q11 -46 43 -73.5t79 -27.5t80 26t33 73q0 49 -36 72.5t-91 23.5h-264l22 434h516v-172h-348l-6 -98h139q109 0 182.5 -69t73.5 -183zM1440 1372l-1006 -1372h-178l1006 1372h178zM1491 403
q141 -52 141 -194q0 -100 -86 -164.5t-227 -64.5q-139 0 -226 65t-87 164q0 142 139 194q-109 55 -109 168q0 91 82 154t203 63q120 0 201.5 -63t81.5 -154q0 -115 -113 -168zM1319 645q-47 0 -78 -25.5t-31 -68.5q0 -37 32 -63.5t77 -26.5q44 0 76 25.5t32 64.5
q0 43 -30.5 68.5t-77.5 25.5zM1319 133q48 0 80.5 27.5t32.5 70.5t-32 71t-81 28q-51 0 -83 -27.5t-32 -71.5t32.5 -71t82.5 -27z" />
    <glyph glyph-name="seveneighths" unicode="&#x215e;" horiz-adv-x="1550" 
d="M389 1200h-375v172h582v-151l-274 -627h-211zM1280 1372l-1006 -1372h-178l1006 1372h178zM1321 403q141 -52 141 -194q0 -100 -86 -164.5t-227 -64.5q-139 0 -226 65t-87 164q0 142 139 194q-109 55 -109 168q0 91 82 154t203 63q120 0 201.5 -63t81.5 -154
q0 -115 -113 -168zM1149 645q-47 0 -78 -25.5t-31 -68.5q0 -37 32 -63.5t77 -26.5q44 0 76 25.5t32 64.5q0 43 -30.5 68.5t-77.5 25.5zM1149 133q48 0 80.5 27.5t32.5 70.5t-32 71t-81 28q-51 0 -83 -27.5t-32 -71.5t32.5 -71t82.5 -27z" />
    <glyph glyph-name="arrowleft" unicode="&#x2190;" horiz-adv-x="1488" 
d="M1407 524h-852l344 -344l-197 -198l-682 682l685 684l196 -199l-346 -346h852v-279z" />
    <glyph glyph-name="arrowup" unicode="&#x2191;" horiz-adv-x="1529" 
d="M1249 508l-344 344v-852h-278v852l-346 -346l-199 196l684 684l682 -681z" />
    <glyph glyph-name="arrowright" unicode="&#x2192;" horiz-adv-x="1488" 
d="M1468 664l-682 -682l-196 198l344 344h-852v279h852l-346 346l196 199z" />
    <glyph glyph-name="arrowdown" unicode="&#x2193;" horiz-adv-x="1529" 
d="M1448 668l-682 -682l-684 684l199 196l346 -346v852h278v-852l344 344z" />
    <glyph glyph-name="uni2196" unicode="&#x2196;" horiz-adv-x="1529" 
d="M1251 -16l-911 913v-532h-279v1007h1006l-2 -278h-528l911 -912z" />
    <glyph glyph-name="uni2197" unicode="&#x2197;" horiz-adv-x="1529" 
d="M1468 1372v-1007h-278v532l-911 -913l-197 198l911 912h-528l-2 278h1005z" />
    <glyph glyph-name="uni2198" unicode="&#x2198;" horiz-adv-x="1529" 
d="M1468 1008v-1008h-1005l2 279h528l-911 911l197 199l911 -914v533h278z" />
    <glyph glyph-name="uni2199" unicode="&#x2199;" horiz-adv-x="1529" 
d="M1065 279l2 -279h-1006v1008h279v-533l911 914l197 -199l-911 -911h528z" />
    <glyph glyph-name="minus" unicode="&#x2212;" horiz-adv-x="1187" 
d="M1065 506h-942v237h942v-237z" />
    <glyph glyph-name="approxequal" unicode="&#x2248;" horiz-adv-x="1187" 
d="M1065 934v-223q-77 -39 -209 -39q-90 0 -169.5 22.5t-157.5 45t-164 22.5q-169 0 -242 -60v222q78 61 242 61q105 0 249.5 -45t245.5 -45q136 0 205 39zM1065 633v-221q-80 -41 -209 -41q-90 0 -169.5 23t-157.5 46t-164 23q-68 0 -135.5 -14.5t-106.5 -45.5v222
q78 61 242 61q105 0 249.5 -45t245.5 -45q135 0 205 37z" />
    <glyph glyph-name="notequal" unicode="&#x2260;" horiz-adv-x="1187" 
d="M760 743l-94 -170h399v-235h-526l-78 -141h-240l78 141h-176v235h303l94 170h-397v236h524l82 149h240l-82 -149h178v-236h-305z" />
    <glyph glyph-name="lessequal" unicode="&#x2264;" horiz-adv-x="878" 
d="M803 432l-735 248v262l735 250v-277l-449 -104l449 -111v-268zM803 406v-236h-735v236h735z" />
    <glyph glyph-name="greaterequal" unicode="&#x2265;" horiz-adv-x="878" 
d="M530 811l-448 104v277l735 -250v-262l-735 -248v268zM817 170h-735v236h735v-236z" />
    <glyph glyph-name="K.ss03" horiz-adv-x="1452" 
d="M1452 0h-344l-403 573l-283 -331v-242h-279v1372h279v-766l647 766h317l-497 -584z" />
    <glyph glyph-name="Kcommaaccent.ss03" horiz-adv-x="1452" 
d="M1452 0h-344l-403 573l-283 -331v-242h-279v1372h279v-766l647 766h317l-497 -584zM621 -92h292l-198 -307h-203z" />
    <glyph glyph-name="Q.ss04" horiz-adv-x="1609" 
d="M1212 -348l-251 334q-83 -17 -156 -17q-200 0 -366 95t-261.5 259t-95.5 361t95.5 362t261.5 261t366 96t366 -96t261.5 -261t95.5 -362q0 -175 -76.5 -325t-210.5 -248l356 -459h-385zM362 684q0 -195 128 -324t315 -129t314.5 129t127.5 324q0 196 -127.5 326.5
t-314.5 130.5t-315 -131t-128 -326z" />
    <glyph glyph-name="I.ss05" horiz-adv-x="933" 
d="M606 1120v-868h287v-252h-852v252h287v868h-287v252h852v-252h-287z" />
    <glyph glyph-name="IJ.ss05" horiz-adv-x="2154" 
d="M893 1372v-252h-287v-868h287v-252h-852v252h287v868h-287v252h852zM2023 1372v-887q0 -226 -147.5 -371t-384.5 -145q-216 0 -354.5 123t-171.5 326l264 53q14 -112 81.5 -182t180.5 -70t183.5 75.5t70.5 190.5v635h-422v252h700z" />
    <glyph glyph-name="Iacute.ss05" horiz-adv-x="933" 
d="M590 1511h-230l136 295h317zM606 1120v-868h287v-252h-852v252h287v868h-287v252h852v-252h-287z" />
    <glyph glyph-name="Icircumflex.ss05" horiz-adv-x="933" 
d="M375 1493h-266l231 305h256l235 -305h-270l-92 127zM606 1120v-868h287v-252h-852v252h287v868h-287v252h852v-252h-287z" />
    <glyph glyph-name="Idieresis.ss05" horiz-adv-x="933" 
d="M246 1501q-70 0 -116 45.5t-46 114.5q0 65 46.5 112.5t115.5 47.5t116.5 -48t47.5 -112q0 -69 -46.5 -114.5t-117.5 -45.5zM688 1501q-70 0 -116 45.5t-46 114.5q0 65 46.5 112.5t115.5 47.5t116.5 -48t47.5 -112q0 -69 -46.5 -114.5t-117.5 -45.5zM606 1120v-868h287
v-252h-852v252h287v868h-287v252h852v-252h-287z" />
    <glyph glyph-name="Idotaccent.ss05" horiz-adv-x="933" 
d="M465 1522q-69 0 -113.5 43.5t-44.5 111.5q0 63 45 108.5t113 45.5t114 -45.5t46 -108.5q0 -67 -45.5 -111t-114.5 -44zM606 1120v-868h287v-252h-852v252h287v868h-287v252h852v-252h-287z" />
    <glyph glyph-name="Igrave.ss05" horiz-adv-x="933" 
d="M348 1511l-223 295h317l136 -295h-230zM606 1120v-868h287v-252h-852v252h287v868h-287v252h852v-252h-287z" />
    <glyph glyph-name="Imacron.ss05" horiz-adv-x="933" 
d="M793 1522h-652v221h652v-221zM606 1120v-868h287v-252h-852v252h287v868h-287v252h852v-252h-287z" />
    <glyph glyph-name="Iogonek.ss05" horiz-adv-x="933" 
d="M606 1120v-868h287v-252h-287q-12 -14 -31.5 -36t-28 -32t-22 -26t-19 -24t-13 -19.5t-10.5 -20t-5 -18t-2 -19.5q0 -51 57 -51q25 0 99 23l12 -166q-87 -41 -176 -41q-82 0 -136.5 47t-54.5 137q0 63 33 121.5t113 124.5h-381v252h287v868h-287v252h852v-252h-287z" />
    <glyph glyph-name="J.ss05" horiz-adv-x="1220" 
d="M1090 1372v-887q0 -226 -148 -371t-385 -145q-216 0 -354.5 123t-171.5 326l264 53q14 -112 81.5 -182t180.5 -70t183.5 75.5t70.5 190.5v635h-422v252h701z" />
    <glyph glyph-name="i.loclTRK" horiz-adv-x="606" 
d="M301 1481q68 0 114 -45.5t46 -108.5q0 -67 -45.5 -111.5t-114.5 -44.5t-113.5 44t-44.5 112q0 63 45 108.5t113 45.5zM438 0h-270v1022h270v-1022z" />
    <glyph glyph-name="germandbls.case" horiz-adv-x="2584" 
d="M647 1403q210 0 356.5 -106.5t186.5 -288.5l-279 -58q-15 96 -90.5 154.5t-179.5 58.5q-101 0 -162 -49t-61 -121q0 -56 30.5 -90.5t106.5 -48.5l295 -59q171 -36 265.5 -136.5t94.5 -257.5q0 -198 -149 -315t-395 -117q-109 0 -206 25.5t-175 75t-129 128.5t-64 179
l293 59q53 -223 307 -223q116 0 180 49t64 125q0 61 -35.5 96.5t-124.5 53.5l-291 55q-360 77 -360 393q0 187 141.5 302.5t380.5 115.5zM1919 1403q210 0 356.5 -106.5t186.5 -288.5l-279 -58q-15 96 -90.5 154.5t-179.5 58.5q-101 0 -162 -49t-61 -121q0 -56 30.5 -90.5
t106.5 -48.5l295 -59q171 -36 265.5 -136.5t94.5 -257.5q0 -198 -149.5 -315t-395.5 -117q-109 0 -206 25.5t-175 75t-128.5 128.5t-63.5 179l293 59q53 -223 307 -223q116 0 180 49t64 125q0 61 -35.5 96.5t-124.5 53.5l-291 55q-360 77 -360 393q0 187 141.5 302.5
t380.5 115.5z" />
    <glyph glyph-name="a.ss01" horiz-adv-x="1118" 
d="M571 1053q206 0 327.5 -101t121.5 -284v-668h-258v84q-118 -115 -311 -115q-175 0 -282.5 92t-107.5 242t107.5 239t298.5 89h295v16q0 77 -48 124.5t-126 47.5q-184 0 -213 -149l-258 51q29 149 154 240.5t300 91.5zM494 184q109 0 188.5 66.5t79.5 163.5v12h-299
q-65 0 -104.5 -32.5t-39.5 -84.5q0 -57 48.5 -91t126.5 -34z" />
    <glyph glyph-name="aacute.ss01" horiz-adv-x="1118" 
d="M692 1161h-229l135 295h317zM571 1053q206 0 327.5 -101t121.5 -284v-668h-258v84q-118 -115 -311 -115q-175 0 -282.5 92t-107.5 242t107.5 239t298.5 89h295v16q0 77 -48 124.5t-126 47.5q-184 0 -213 -149l-258 51q29 149 154 240.5t300 91.5zM494 184
q109 0 188.5 66.5t79.5 163.5v12h-299q-65 0 -104.5 -32.5t-39.5 -84.5q0 -57 48.5 -91t126.5 -34z" />
    <glyph glyph-name="abreve.ss01" horiz-adv-x="1118" 
d="M569 1122q-158 0 -250 83.5t-92 224.5h224q0 -54 33.5 -87.5t84.5 -33.5t85 33.5t34 87.5h223q0 -141 -92 -224.5t-250 -83.5zM571 1053q206 0 327.5 -101t121.5 -284v-668h-258v84q-118 -115 -311 -115q-175 0 -282.5 92t-107.5 242t107.5 239t298.5 89h295v16
q0 77 -48 124.5t-126 47.5q-184 0 -213 -149l-258 51q29 149 154 240.5t300 91.5zM494 184q109 0 188.5 66.5t79.5 163.5v12h-299q-65 0 -104.5 -32.5t-39.5 -84.5q0 -57 48.5 -91t126.5 -34z" />
    <glyph glyph-name="acircumflex.ss01" horiz-adv-x="1118" 
d="M477 1143h-266l231 305h256l236 -305h-270l-93 127zM571 1053q206 0 327.5 -101t121.5 -284v-668h-258v84q-118 -115 -311 -115q-175 0 -282.5 92t-107.5 242t107.5 239t298.5 89h295v16q0 77 -48 124.5t-126 47.5q-184 0 -213 -149l-258 51q29 149 154 240.5t300 91.5z
M494 184q109 0 188.5 66.5t79.5 163.5v12h-299q-65 0 -104.5 -32.5t-39.5 -84.5q0 -57 48.5 -91t126.5 -34z" />
    <glyph glyph-name="adieresis.ss01" horiz-adv-x="1118" 
d="M348 1151q-70 0 -116 45.5t-46 114.5q0 64 46.5 111.5t115.5 47.5t116.5 -47.5t47.5 -111.5q0 -69 -46.5 -114.5t-117.5 -45.5zM791 1151q-70 0 -116 45.5t-46 114.5q0 64 46.5 111.5t115.5 47.5t116 -47.5t47 -111.5q0 -69 -46.5 -114.5t-116.5 -45.5zM571 1053
q206 0 327.5 -101t121.5 -284v-668h-258v84q-118 -115 -311 -115q-175 0 -282.5 92t-107.5 242t107.5 239t298.5 89h295v16q0 77 -48 124.5t-126 47.5q-184 0 -213 -149l-258 51q29 149 154 240.5t300 91.5zM494 184q109 0 188.5 66.5t79.5 163.5v12h-299
q-65 0 -104.5 -32.5t-39.5 -84.5q0 -57 48.5 -91t126.5 -34z" />
    <glyph glyph-name="agrave.ss01" horiz-adv-x="1118" 
d="M451 1161l-224 295h318l135 -295h-229zM571 1053q206 0 327.5 -101t121.5 -284v-668h-258v84q-118 -115 -311 -115q-175 0 -282.5 92t-107.5 242t107.5 239t298.5 89h295v16q0 77 -48 124.5t-126 47.5q-184 0 -213 -149l-258 51q29 149 154 240.5t300 91.5zM494 184
q109 0 188.5 66.5t79.5 163.5v12h-299q-65 0 -104.5 -32.5t-39.5 -84.5q0 -57 48.5 -91t126.5 -34z" />
    <glyph glyph-name="amacron.ss01" horiz-adv-x="1118" 
d="M895 1171h-651v222h651v-222zM571 1053q206 0 327.5 -101t121.5 -284v-668h-258v84q-118 -115 -311 -115q-175 0 -282.5 92t-107.5 242t107.5 239t298.5 89h295v16q0 77 -48 124.5t-126 47.5q-184 0 -213 -149l-258 51q29 149 154 240.5t300 91.5zM494 184
q109 0 188.5 66.5t79.5 163.5v12h-299q-65 0 -104.5 -32.5t-39.5 -84.5q0 -57 48.5 -91t126.5 -34z" />
    <glyph glyph-name="aogonek.ss01" horiz-adv-x="1118" 
d="M1044 -223l13 -166q-87 -41 -176 -41q-82 0 -136.5 47t-54.5 137q0 63 33 121.5t113 124.5h-74v84q-118 -115 -311 -115q-175 0 -282.5 92t-107.5 242t107.5 239t298.5 89h295v16q0 77 -48 124.5t-126 47.5q-184 0 -213 -149l-258 51q29 149 154 240.5t300 91.5
q206 0 327.5 -101t121.5 -284v-668q-12 -14 -31.5 -36t-28 -32t-22 -26t-19 -24t-13 -19.5t-10.5 -20t-5 -18t-2 -19.5q0 -51 57 -51q24 0 98 23zM494 184q109 0 188.5 66.5t79.5 163.5v12h-299q-65 0 -104.5 -32.5t-39.5 -84.5q0 -57 48.5 -91t126.5 -34z" />
    <glyph glyph-name="aring.ss01" horiz-adv-x="1118" 
d="M569 1114q-102 0 -172.5 68.5t-70.5 167.5t70.5 167t172.5 68q103 0 173.5 -68.5t70.5 -166.5q0 -99 -71 -167.5t-173 -68.5zM569 1432q-36 0 -61 -24t-25 -58t25 -58t61 -24t61 24t25 58t-25 58t-61 24zM571 1053q206 0 327.5 -101t121.5 -284v-668h-258v84
q-118 -115 -311 -115q-175 0 -282.5 92t-107.5 242t107.5 239t298.5 89h295v16q0 77 -48 124.5t-126 47.5q-184 0 -213 -149l-258 51q29 149 154 240.5t300 91.5zM494 184q109 0 188.5 66.5t79.5 163.5v12h-299q-65 0 -104.5 -32.5t-39.5 -84.5q0 -57 48.5 -91t126.5 -34z
" />
    <glyph glyph-name="atilde.ss01" horiz-adv-x="1118" 
d="M467 1272q-27 0 -42 -21.5t-15 -52.5h-179q0 77 20.5 132t55 83t70 40.5t74.5 12.5q45 0 83 -12.5t58.5 -27.5t49 -27.5t58.5 -12.5q27 0 42.5 23t15.5 57h178q0 -78 -20 -134t-54 -84.5t-69.5 -41t-75.5 -12.5q-47 0 -85 12t-58.5 27t-49 27t-57.5 12zM571 1053
q206 0 327.5 -101t121.5 -284v-668h-258v84q-118 -115 -311 -115q-175 0 -282.5 92t-107.5 242t107.5 239t298.5 89h295v16q0 77 -48 124.5t-126 47.5q-184 0 -213 -149l-258 51q29 149 154 240.5t300 91.5zM494 184q109 0 188.5 66.5t79.5 163.5v12h-299
q-65 0 -104.5 -32.5t-39.5 -84.5q0 -57 48.5 -91t126.5 -34z" />
    <glyph glyph-name="l.ss02" horiz-adv-x="673" 
d="M393 1475v-1151q0 -45 32.5 -73t84.5 -28q49 0 127 29l47 -227q-39 -19 -61.5 -28t-67 -18.5t-92.5 -9.5q-154 0 -247 93t-93 245v1168h270z" />
    <glyph glyph-name="lacute.ss02" horiz-adv-x="673" 
d="M375 1614h-230l136 295h317zM393 1475v-1151q0 -45 32.5 -73t84.5 -28q49 0 127 29l47 -227q-39 -19 -61.5 -28t-67 -18.5t-92.5 -9.5q-154 0 -247 93t-93 245v1168h270z" />
    <glyph glyph-name="lcaron.ss02" horiz-adv-x="673" 
d="M393 1475v-1151q0 -45 32.5 -73t84.5 -28q49 0 127 29l47 -227q-39 -19 -61.5 -28t-67 -18.5t-92.5 -9.5q-154 0 -247 93t-93 245v1168h270zM696 1067h-213v408h273z" />
    <glyph glyph-name="lcommaaccent.ss02" horiz-adv-x="673" 
d="M393 1475v-1151q0 -45 32.5 -73t84.5 -28q49 0 127 29l47 -227q-39 -19 -61.5 -28t-67 -18.5t-92.5 -9.5q-154 0 -247 93t-93 245v1168h270zM156 -399l108 307h293l-199 -307h-202z" />
    <glyph glyph-name="ldot.ss02" horiz-adv-x="841" 
d="M414 1475v-1151q0 -45 32 -73t84 -28q49 0 127 29l48 -227q-39 -18 -62 -27.5t-67.5 -19t-92.5 -9.5q-154 0 -247 93t-93 245v1168h271zM672 874q68 0 113.5 -45t45.5 -108q0 -68 -45 -112t-114 -44t-113.5 44t-44.5 112q0 63 45 108t113 45z" />
    <glyph glyph-name="lslash.ss02" horiz-adv-x="735" 
d="M698 252l47 -227q-39 -19 -61.5 -28t-67 -18.5t-92.5 -9.5q-154 0 -247 93t-93 245v185l-123 -70v260l123 70v723h271v-568l141 82v-260l-141 -82v-323q0 -45 32 -73t84 -28q49 0 127 29z" />
    <glyph glyph-name="k.ss03" horiz-adv-x="1263" 
d="M1264 0h-340l-340 387l-170 -188v-199h-271v1475h271v-916l430 463h315l-397 -440z" />
    <glyph glyph-name="kcommaaccent.ss03" horiz-adv-x="1263" 
d="M1264 0h-340l-340 387l-170 -188v-199h-271v1475h271v-916l430 463h315l-397 -440zM530 -92h293l-198 -307h-203z" />
    <glyph glyph-name="f_j" horiz-adv-x="1386" 
d="M1233 1022v-1094q0 -134 -82 -215.5t-217 -81.5q-102 0 -209 39l49 236q61 -21 92 -21q43 0 70 22.5t27 57.5v836h-496v-801h-270v801h-156v221h156v92q0 179 111.5 283t297.5 104q98 0 182 -37l-59 -219q-63 17 -104 17q-72 0 -115 -38.5t-43 -109.5v-92h766zM1094 1169
q-72 0 -118 45t-46 113q0 66 47 114t117 48q69 0 116 -48t47 -114q0 -68 -46.5 -113t-116.5 -45z" />
    <glyph glyph-name="f_t" horiz-adv-x="1624" 
d="M1544 270l78 -225q-141 -76 -266 -76q-188 0 -295 102t-107 306v424h-487v-801h-270v801h-156v221h156v92q0 179 111.5 283t297.5 104q98 0 182 -37l-59 -219q-63 17 -104 17q-72 0 -115 -38.5t-43 -109.5v-92h487v309h271v-309h334v-221h-334v-404q0 -89 39.5 -132.5
t109.5 -43.5q80 0 170 49z" />
    <glyph glyph-name="fl.ss02" horiz-adv-x="1431" 
d="M618 1262q-68 0 -109.5 -39t-41.5 -109v-92h309v-221h-309v-801h-270v801h-156v221h156v92q0 178 110.5 282.5t292.5 104.5q100 0 182 -39l-61 -219q-59 19 -103 19zM1395 252l47 -227q-39 -19 -61.5 -28t-67 -18.5t-92.5 -9.5q-154 0 -247 93t-93 245v1168h270v-1151
q0 -45 32.5 -73t84.5 -28q49 0 127 29z" />
    <glyph glyph-name="zero.tf" 
d="M625 1403q250 0 404.5 -198.5t154.5 -518.5q0 -321 -154.5 -519t-404.5 -198t-404.5 198t-154.5 519q0 320 154.5 518.5t404.5 198.5zM625 225q126 0 201 127.5t75 333.5t-75 332.5t-201 126.5t-201.5 -126.5t-75.5 -332.5t75.5 -333.5t201.5 -127.5z" />
    <glyph glyph-name="one.tf" 
d="M1122 252v-252h-970v252h378v790l-378 -184v252l477 262h172v-1120h321z" />
    <glyph glyph-name="two.tf" 
d="M1104 252v-252h-934v180l463 459q5 5 31.5 31t35 35t31 34t31.5 39.5t25 40t22.5 46.5t12 48.5t5.5 55.5q0 86 -56.5 140t-145.5 54q-209 0 -226 -252l-254 54q9 201 141 319.5t343 118.5q207 0 337 -119t130 -309q0 -93 -35 -176.5t-95 -158t-169 -181.5l-211 -207h518z
" />
    <glyph glyph-name="three.tf" 
d="M958 690q82 -36 128.5 -109.5t46.5 -172.5q0 -197 -134.5 -318t-351.5 -121q-214 0 -352.5 119t-155.5 315l260 52q15 -117 77.5 -180.5t170.5 -63.5q101 0 166.5 54t65.5 141q0 78 -53.5 121.5t-153.5 43.5h-199v242h182q96 0 148.5 43t52.5 119q0 83 -57 133.5
t-152 50.5q-100 0 -163 -62t-72 -186l-254 52q17 197 149.5 318.5t339.5 121.5q209 0 337 -118.5t128 -309.5q0 -99 -40.5 -172.5t-113.5 -112.5z" />
    <glyph glyph-name="four.tf" 
d="M1174 276h-150v-276h-270v276h-666v256l567 840h369v-870h150v-226zM754 502v596l-389 -596h389z" />
    <glyph glyph-name="five.tf" 
d="M455 887h209q212 0 340.5 -120.5t128.5 -322.5q0 -209 -139 -342t-367 -133q-104 0 -195.5 31t-162 89t-111.5 149.5t-41 205.5l268 54q0 -139 69.5 -209t178.5 -70q104 0 168.5 60.5t64.5 160.5q0 89 -61.5 144t-161.5 55h-459l23 733h862v-252h-604z" />
    <glyph glyph-name="six.tf" 
d="M700 889q220 0 350 -126t130 -327q0 -203 -141 -335t-363 -132q-257 0 -410 184.5t-153 512.5q0 192 43 335t141 244q155 158 383 158q176 0 300.5 -85t166.5 -241l-266 -51q-24 72 -76 102.5t-135 30.5q-114 0 -193 -86q-104 -112 -104 -321q58 64 145.5 100.5
t181.5 36.5zM670 217q93 0 162 63t69 160t-69 159.5t-162 62.5q-91 0 -157.5 -63t-66.5 -163q0 -95 66.5 -157t157.5 -62z" />
    <glyph glyph-name="seven.tf" 
d="M1145 1372v-198l-553 -1174h-311l542 1120h-739v252h1061z" />
    <glyph glyph-name="eight.tf" 
d="M897 694q121 -44 188.5 -130.5t67.5 -192.5q0 -179 -142.5 -290.5t-373.5 -111.5q-233 0 -376.5 111.5t-143.5 290.5q0 107 68 193t190 130q-104 46 -159.5 132t-55.5 200q0 169 131 273t346 104q213 0 344 -104t131 -273q0 -113 -55.5 -200t-159.5 -132zM633 1180
q-82 0 -139.5 -47t-57.5 -132q0 -83 57 -128.5t140 -45.5q84 0 144.5 47t60.5 132q0 82 -60.5 128t-144.5 46zM633 201q89 0 153 49.5t64 138.5q0 87 -63.5 135.5t-153.5 48.5q-89 0 -149 -48.5t-60 -139.5q0 -88 59.5 -136t149.5 -48z" />
    <glyph glyph-name="nine.tf" 
d="M573 1401q257 0 410.5 -184t153.5 -512q0 -390 -185 -580q-155 -158 -383 -158q-176 0 -300.5 85t-166.5 241l267 51q24 -72 76 -102.5t135 -30.5q113 0 192 86q105 113 105 321q-58 -64 -146 -100.5t-182 -36.5q-220 0 -349.5 126t-129.5 327q0 204 140.5 335.5
t362.5 131.5zM580 709q91 0 157 62.5t66 162.5q0 96 -66 157.5t-157 61.5q-93 0 -162.5 -63t-69.5 -160q0 -96 69.5 -158.5t162.5 -62.5z" />
    <glyph glyph-name="zero.zero.tf" 
d="M625 1403q250 0 404.5 -198.5t154.5 -518.5q0 -321 -154.5 -519t-404.5 -198t-404.5 198t-154.5 519q0 320 154.5 518.5t404.5 198.5zM625 1145q-126 0 -201.5 -126.5t-75.5 -332.5q0 -87 17 -174l423 557q-67 76 -163 76zM625 225q126 0 201 127.5t75 333.5
q0 90 -16 172l-424 -557q67 -76 164 -76z" />
    <glyph glyph-name="zero.zero" horiz-adv-x="1331" 
d="M682 1403q174 0 308.5 -90t208 -253t73.5 -374q0 -321 -163 -519t-427 -198t-427 198t-163 519q0 211 73.5 374t208 253t308.5 90zM682 1147q-140 0 -223.5 -127.5t-83.5 -333.5q0 -88 16 -166l440 578q-64 49 -149 49zM682 225q140 0 223.5 127.5t83.5 333.5
q0 135 -37 236l-463 -611q80 -86 193 -86z" />
    <glyph glyph-name="zero.dnom" horiz-adv-x="833" 
d="M416 791q157 0 250.5 -110.5t93.5 -295.5t-93.5 -295t-250.5 -110q-153 0 -246.5 110.5t-93.5 294.5t93.5 295t246.5 111zM416 154q63 0 98 59.5t35 171.5q0 108 -35 167.5t-98 59.5q-59 0 -94 -60t-35 -167q0 -111 34.5 -171t94.5 -60z" />
    <glyph glyph-name="one.dnom" horiz-adv-x="514" 
d="M387 0h-197v518l-147 -96v209l215 147h129v-778z" />
    <glyph glyph-name="two.dnom" horiz-adv-x="718" 
d="M358 172h283v-172h-590v131l293 248q63 53 88 86t25 74t-29 67.5t-76 26.5q-57 0 -88.5 -38t-34.5 -108l-168 39q0 124 79 198.5t212 74.5q132 0 212.5 -69t80.5 -189q0 -79 -45 -143.5t-137 -139.5z" />
    <glyph glyph-name="three.dnom" horiz-adv-x="710" 
d="M539 397q110 -55 110 -166q0 -108 -84 -179.5t-215 -71.5q-128 0 -212.5 69.5t-88.5 186.5l164 40q5 -65 40.5 -99t98.5 -34q51 0 82 26t31 67t-30.5 63.5t-80.5 22.5h-82v139h68q51 0 85 22.5t34 59.5q0 40 -30.5 64t-80.5 24q-57 0 -88.5 -33t-32.5 -94l-172 41
q10 112 89 177.5t202 65.5q128 0 208.5 -67.5t80.5 -171.5q0 -102 -96 -152z" />
    <glyph glyph-name="four.dnom" horiz-adv-x="782" 
d="M723 143h-102v-143h-183v143h-397v176l350 459h230v-475h102v-160zM438 303v275l-209 -275h209z" />
    <glyph glyph-name="five.dnom" horiz-adv-x="710" 
d="M264 504h139q109 0 182.5 -69t73.5 -183q0 -121 -83.5 -196.5t-217.5 -75.5q-127 0 -212 67t-97 164l187 35q11 -46 43 -73.5t79 -27.5t80 26t33 73q0 49 -36 72.5t-91 23.5h-264l22 434h516v-172h-348z" />
    <glyph glyph-name="six.dnom" horiz-adv-x="714" 
d="M406 508q118 0 193 -73t75 -189q0 -118 -83.5 -192t-211.5 -74q-158 0 -248 100t-90 282q0 225 113 338q88 88 225 88q116 0 193.5 -58t95.5 -165l-191 -28q-13 92 -104 92q-54 0 -88 -43q-35 -43 -45 -121q72 43 166 43zM371 135q51 0 86 34t35 83q0 50 -35 84.5
t-86 34.5q-52 0 -86.5 -34.5t-34.5 -84.5q0 -51 35 -84t86 -33z" />
    <glyph glyph-name="seven.dnom" horiz-adv-x="616" 
d="M596 778v-151l-274 -627h-211l278 606h-375v172h582z" />
    <glyph glyph-name="eight.dnom" horiz-adv-x="761" 
d="M553 403q141 -52 141 -194q0 -100 -86 -164.5t-227 -64.5q-139 0 -226 65t-87 164q0 142 139 194q-109 55 -109 168q0 91 82 154t203 63q120 0 201.5 -63t81.5 -154q0 -115 -113 -168zM381 645q-47 0 -78 -25.5t-31 -68.5q0 -37 32 -63.5t77 -26.5q44 0 76 25.5t32 64.5
q0 43 -30.5 68.5t-77.5 25.5zM381 133q48 0 80.5 27.5t32.5 70.5t-32 71t-81 28q-51 0 -83 -27.5t-32 -71.5t32.5 -71t82.5 -27z" />
    <glyph glyph-name="nine.dnom" horiz-adv-x="714" 
d="M336 788q158 0 248 -100t90 -282q0 -225 -113 -338q-88 -88 -225 -88q-116 0 -193.5 58t-95.5 165l191 28q13 -92 104 -92q54 0 88 43q35 43 45 121q-72 -43 -166 -43q-118 0 -193 73t-75 189q0 118 83.5 192t211.5 74zM344 397q52 0 86.5 34.5t34.5 84.5q0 51 -35 84
t-86 33t-86 -34t-35 -83q0 -50 35 -84.5t86 -34.5z" />
    <glyph glyph-name="zero.numr" horiz-adv-x="833" 
d="M416 1393q157 0 250.5 -110.5t93.5 -295.5t-93.5 -295t-250.5 -110q-153 0 -246.5 110.5t-93.5 294.5t93.5 295t246.5 111zM416 756q63 0 98 59.5t35 171.5q0 108 -35 167.5t-98 59.5q-59 0 -94 -60t-35 -167q0 -111 34.5 -171t94.5 -60z" />
    <glyph glyph-name="one.numr" horiz-adv-x="514" 
d="M387 594h-197v518l-147 -96v209l215 147h129v-778z" />
    <glyph glyph-name="two.numr" horiz-adv-x="718" 
d="M358 766h283v-172h-590v131l293 248q63 53 88 86t25 74t-29 67.5t-76 26.5q-57 0 -88.5 -38t-34.5 -108l-168 39q0 124 79 198.5t212 74.5q132 0 212.5 -69t80.5 -189q0 -79 -45 -143.5t-137 -139.5z" />
    <glyph glyph-name="three.numr" horiz-adv-x="710" 
d="M539 1001q110 -55 110 -165q0 -108 -84 -180t-215 -72q-128 0 -212.5 69.5t-88.5 186.5l164 41q5 -65 40.5 -99t98.5 -34q51 0 82 25.5t31 66.5t-30.5 63.5t-80.5 22.5h-82v139h68q51 0 85 22.5t34 59.5q0 40 -30.5 64t-80.5 24q-57 0 -88.5 -33t-32.5 -94l-172 41
q10 112 89 178t202 66q128 0 208.5 -68t80.5 -172q0 -102 -96 -152z" />
    <glyph glyph-name="four.numr" horiz-adv-x="782" 
d="M723 737h-102v-143h-183v143h-397v176l350 459h230v-475h102v-160zM438 897v274l-209 -274h209z" />
    <glyph glyph-name="five.numr" horiz-adv-x="710" 
d="M264 1102h139q109 0 182.5 -69t73.5 -183q0 -121 -83.5 -196.5t-217.5 -75.5q-127 0 -212 67t-97 164l187 35q11 -46 43 -73.5t79 -27.5t80 26t33 73q0 49 -36 72.5t-91 23.5h-264l22 434h516v-172h-348z" />
    <glyph glyph-name="six.numr" horiz-adv-x="714" 
d="M406 1112q118 0 193 -73t75 -189q0 -118 -83.5 -192t-211.5 -74q-158 0 -248 100.5t-90 282.5q0 225 113 338q88 88 225 88q116 0 193.5 -58.5t95.5 -165.5l-191 -28q-13 92 -104 92q-54 0 -88 -43q-35 -43 -45 -121q72 43 166 43zM371 739q51 0 86 34t35 83
q0 50 -35 84.5t-86 34.5q-52 0 -86.5 -34.5t-34.5 -84.5q0 -51 35 -84t86 -33z" />
    <glyph glyph-name="seven.numr" horiz-adv-x="616" 
d="M596 1372v-151l-274 -627h-211l278 606h-375v172h582z" />
    <glyph glyph-name="eight.numr" horiz-adv-x="761" 
d="M553 1008q141 -52 141 -195q0 -100 -86 -164.5t-227 -64.5q-139 0 -226 65t-87 164q0 143 139 195q-109 54 -109 168q0 91 82 154t203 63q120 0 201.5 -63t81.5 -154q0 -115 -113 -168zM381 1249q-47 0 -78 -25.5t-31 -68.5q0 -37 32 -63.5t77 -26.5q44 0 76 25.5
t32 64.5q0 43 -30.5 68.5t-77.5 25.5zM381 737q48 0 80.5 27.5t32.5 71.5q0 43 -32 70.5t-81 27.5q-51 0 -83 -27t-32 -71t32.5 -71.5t82.5 -27.5z" />
    <glyph glyph-name="nine.numr" horiz-adv-x="714" 
d="M336 1393q158 0 248 -100.5t90 -282.5q0 -225 -113 -338q-88 -88 -225 -88q-116 0 -193.5 58t-95.5 165l191 29q13 -93 104 -93q54 0 88 43q35 43 45 121q-72 -43 -166 -43q-118 0 -193 73t-75 189q0 118 83.5 192.5t211.5 74.5zM344 1001q52 0 86.5 34.5t34.5 84.5
q0 51 -35 84t-86 33t-86 -34t-35 -83q0 -50 35 -84.5t86 -34.5z" />
    <glyph glyph-name="backslash.case" horiz-adv-x="856" 
d="M805 0h-266l-488 1372h266z" />
    <glyph glyph-name="periodcentered.case" horiz-adv-x="487" 
d="M244 819q69 0 115.5 -46.5t46.5 -110.5q0 -66 -46 -111t-116 -45t-116 45t-46 111q0 64 46.5 110.5t115.5 46.5z" />
    <glyph glyph-name="bullet.case" horiz-adv-x="864" 
d="M432 1012q149 0 249.5 -101t100.5 -239q0 -144 -99.5 -241t-250.5 -97t-250.5 97t-99.5 241q0 138 100.5 239t249.5 101z" />
    <glyph glyph-name="colon.case" horiz-adv-x="487" 
d="M244 1137q69 0 115.5 -47t46.5 -111q0 -66 -46 -111t-116 -45t-116 45t-46 111q0 64 46.5 111t115.5 47zM244 489q69 0 115.5 -46.5t46.5 -110.5q0 -66 -46 -111t-116 -45t-116 45t-46 111q0 64 46.5 110.5t115.5 46.5z" />
    <glyph glyph-name="exclamdown.case" horiz-adv-x="589" 
d="M295 1067q-69 0 -115.5 47t-46.5 111q0 66 46 110.5t116 44.5t116 -44.5t46 -110.5q0 -64 -46.5 -111t-115.5 -47zM147 63l11 861h276l10 -861v-63h-297v63z" />
    <glyph glyph-name="questiondown.case" horiz-adv-x="1093" 
d="M561 1073q-69 0 -115.5 47t-46.5 111q0 66 46 110.5t116 44.5t116 -44.5t46 -110.5q0 -64 -46.5 -111t-115.5 -47zM776 451l256 -52q-8 -113 -72.5 -209t-179 -155.5t-254.5 -59.5q-213 0 -344 123t-131 322q0 155 104 258t279 125v115h248v-320h-156q-95 0 -154 -49
t-59 -129q0 -91 59 -148t154 -57q100 0 165.5 64t84.5 172z" />
    <glyph glyph-name="semicolon.case" horiz-adv-x="552" 
d="M309 1137q69 0 115.5 -47t46.5 -111q0 -66 -46 -111t-116 -45t-116 45t-46 111q0 64 46.5 111t115.5 47zM223 -270h-203l123 549h312v-7z" />
    <glyph glyph-name="slash.case" horiz-adv-x="978" 
d="M352 0h-239l512 1372h239z" />
    <glyph glyph-name="braceleft.case" horiz-adv-x="868" 
d="M510 1079v-172q0 -78 -36 -136.5t-99 -84.5q64 -28 99.5 -86t35.5 -137v-170q0 -31 16.5 -48.5t44.5 -17.5h215v-227h-249q-129 0 -208 72t-79 192v166q0 55 -36 83t-110 52l-63 21v200l63 21q75 24 110.5 51t35.5 82v168q0 119 79 191.5t208 72.5h249v-227h-215
q-28 0 -44.5 -18.5t-16.5 -47.5z" />
    <glyph glyph-name="braceright.case" horiz-adv-x="868" 
d="M827 786v-200l-63 -21q-74 -24 -110 -52t-36 -83v-166q0 -120 -78.5 -192t-207.5 -72h-250v227h215q28 0 44.5 17.5t16.5 48.5v170q0 79 36 137t100 86q-63 26 -99.5 84.5t-36.5 136.5v172q0 29 -16.5 47.5t-44.5 18.5h-215v227h250q129 0 207.5 -72.5t78.5 -191.5v-168
q0 -55 35.5 -82t110.5 -51z" />
    <glyph glyph-name="bracketleft.case" horiz-adv-x="829" 
d="M403 1141v-910h345v-231h-605v1372h605v-231h-345z" />
    <glyph glyph-name="bracketright.case" horiz-adv-x="829" 
d="M686 1372v-1372h-604v231h344v910h-344v231h604z" />
    <glyph glyph-name="parenleft.case" horiz-adv-x="688" 
d="M436 1405l170 -164q-120 -140 -176.5 -270.5t-56.5 -286.5q0 -155 56.5 -285t176.5 -270l-170 -164q-354 304 -354 719q0 417 354 721z" />
    <glyph glyph-name="parenright.case" horiz-adv-x="688" 
d="M82 1241l170 164q354 -304 354 -721q0 -415 -354 -719l-170 164q120 140 176.5 270t56.5 285q0 156 -56.5 286.5t-176.5 270.5z" />
    <glyph glyph-name="emdash.case" horiz-adv-x="2129" 
d="M2007 573h-1884v205h1884v-205z" />
    <glyph glyph-name="endash.case" horiz-adv-x="1269" 
d="M1147 573h-1024v205h1024v-205z" />
    <glyph glyph-name="hyphen.case" horiz-adv-x="917" 
d="M795 559h-672v234h672v-234z" />
    <glyph glyph-name="guillemotleft.case" horiz-adv-x="966" 
d="M51 659l230 365h266l-230 -365l230 -364h-266zM420 659l229 365h266l-229 -365l229 -364h-266z" />
    <glyph glyph-name="guillemotright.case" horiz-adv-x="966" 
d="M51 295l230 364l-230 365h266l230 -365l-230 -364h-266zM420 295l229 364l-229 365h266l229 -365l-229 -364h-266z" />
    <glyph glyph-name="guilsinglleft.case" horiz-adv-x="598" 
d="M51 659l230 365h266l-230 -365l230 -364h-266z" />
    <glyph glyph-name="guilsinglright.case" horiz-adv-x="598" 
d="M51 295l230 364l-230 365h266l230 -365l-230 -364h-266z" />
    <glyph glyph-name="cent.tf" 
d="M696 793v-564q123 36 174 187l250 -64q-36 -149 -148 -248.5t-265 -126.5v-243h-228v250q-183 41 -300.5 183t-117.5 343t117.5 344t300.5 184v252h228v-246q148 -27 259.5 -124.5t153.5 -243.5l-260 -74q-38 151 -164 191zM324 510q0 -97 44 -168t121 -102v542
q-77 -32 -121 -104t-44 -168z" />
    <glyph glyph-name="dollar.tf" 
d="M1151 422q0 -164 -108 -271t-285 -131v-225h-230v234q-172 33 -288.5 139.5t-126.5 271.5l272 54q11 -170 154 -226v322l-54 10q-66 12 -123.5 36.5t-109.5 65.5t-82.5 107t-30.5 149q0 160 105.5 265.5t283.5 128.5v225h230v-231q166 -33 269.5 -141t113.5 -269
l-271 -47q1 80 -32.5 134t-89.5 81v-299l65 -14q162 -34 250 -128t88 -241zM418 975q0 -100 121 -127v272q-56 -19 -88.5 -58t-32.5 -87zM748 547v-291q67 17 105 58.5t38 97.5q0 52 -32 84.5t-111 50.5z" />
    <glyph glyph-name="Euro.tf" 
d="M668 229q164 0 250 260l280 -51q-52 -214 -192.5 -341.5t-337.5 -127.5q-204 0 -344 122.5t-189 352.5h-102v197h80v45v45h-80v195h102q49 231 188.5 354t344.5 123q197 0 337.5 -129.5t192.5 -351.5l-278 -48q-33 135 -100 203t-152 68q-181 0 -244 -219h379l-47 -195
h-361v-45v-45h346l-45 -197h-272q63 -215 244 -215z" />
    <glyph glyph-name="florin.tf" 
d="M981 1161q-71 0 -120 -43t-64 -125l-37 -207h315v-221h-356l-101 -551q-29 -162 -137 -257t-266 -95q-46 0 -86.5 9t-64 19.5t-56.5 28.5l86 218q72 -21 123 -21q52 0 89.5 28t45.5 70l99 551h-213v221h254l36 207q34 188 158.5 298t308.5 110q136 0 244 -70l-90 -221
q-34 24 -81 37.5t-87 13.5z" />
    <glyph glyph-name="sterling.tf" 
d="M512 252h662v-252h-1108v170l167 49v268h-167v252h167v199q0 208 130.5 336.5t343.5 128.5q209 0 331.5 -123t137.5 -342l-250 -41q-23 131 -75 185.5t-144 54.5q-88 0 -141.5 -55t-53.5 -144v-199h322v-252h-322v-235z" />
    <glyph glyph-name="yen.tf" 
d="M852 692h223v-205h-317v-102h317v-205h-317v-180h-279v180h-305v205h305v102h-305v205h211l-367 680h308l292 -602l291 602h320z" />
    <glyph glyph-name="approxequal.tf" 
d="M1096 934v-223q-77 -39 -209 -39q-90 0 -169.5 22.5t-158 45t-164.5 22.5q-168 0 -241 -60v222q78 61 241 61q105 0 250 -45t246 -45q136 0 205 39zM1096 633v-221q-80 -41 -209 -41q-90 0 -169.5 23t-158 46t-164.5 23q-165 0 -241 -60v222q78 61 241 61q105 0 250 -45
t246 -45q135 0 205 37z" />
    <glyph glyph-name="divide.tf" 
d="M614 1120q69 0 115.5 -46.5t46.5 -110.5q0 -66 -46 -111t-116 -45t-115.5 44.5t-45.5 111.5q0 64 46 110.5t115 46.5zM1096 506h-942v237h942v-237zM614 403q69 0 115.5 -46.5t46.5 -110.5q0 -66 -46 -111t-116 -45t-115.5 44.5t-45.5 111.5q0 64 46 110.5t115 46.5z" />
    <glyph glyph-name="equal.tf" 
d="M1096 743h-942v236h942v-236zM1096 338h-942v235h942v-235z" />
    <glyph glyph-name="greater.tf" 
d="M727 674l-463 147v287l776 -293v-287l-776 -288v280z" />
    <glyph glyph-name="greaterequal.tf" 
d="M715 811l-449 104v277l735 -250v-262l-735 -248v268zM1001 170h-735v236h735v-236z" />
    <glyph glyph-name="less.tf" 
d="M985 240l-776 288v287l776 293v-287l-463 -147l463 -154v-280z" />
    <glyph glyph-name="lessequal.tf" 
d="M987 432l-735 248v262l735 250v-277l-448 -104l448 -111v-268zM987 406v-236h-735v236h735z" />
    <glyph glyph-name="minus.tf" 
d="M1096 506h-942v237h942v-237z" />
    <glyph glyph-name="multiply.tf" 
d="M795 625l274 -275l-170 -172l-276 277l-277 -277l-170 172l275 275l-275 274l170 172l277 -276l276 276l170 -172z" />
    <glyph glyph-name="notequal.tf" 
d="M791 743l-95 -170h400v-235h-527l-77 -141h-240l78 141h-176v235h303l94 170h-397v236h524l82 149h239l-81 -149h178v-236h-305z" />
    <glyph glyph-name="plus.tf" 
d="M1096 506h-353v-361h-237v361h-352v237h352v361h237v-361h353v-237z" />
    <glyph glyph-name="plusminus.tf" 
d="M1096 915v-235h-353v-299h-237v299h-352v235h352v340h237v-340h353zM154 236h942v-236h-942v236z" />
    <glyph glyph-name="bar.case" horiz-adv-x="546" 
d="M403 -84h-260v1540h260v-1540z" />
    <glyph glyph-name="at.case" horiz-adv-x="1931" 
d="M1360 1051v-580q0 -49 34.5 -79t82.5 -30q61 0 103.5 55t59.5 129t17 156q0 182 -92 326t-246.5 221.5t-341.5 77.5q-198 0 -359 -89t-252.5 -246t-91.5 -351q0 -145 54 -272.5t145.5 -217t218 -141t266.5 -51.5q130 0 261 42.5t239 123.5l88 -139q-109 -88 -266 -138.5
t-317 -50.5q-176 0 -334 63t-274 173t-184.5 267.5t-68.5 338.5q0 180 67.5 337.5t183.5 269t278.5 175.5t345.5 64q232 0 426.5 -98.5t310 -276t115.5 -395.5q0 -72 -12 -140.5t-40.5 -136t-71 -118t-109 -82t-148.5 -31.5q-176 0 -238 123q-105 -121 -286 -121
t-299.5 117.5t-118.5 308.5q0 194 120 312t296 118q157 0 262 -100v86h176zM948 387q96 0 166 68.5t70 181.5q0 112 -70 179t-166 67q-95 0 -164 -66.5t-69 -179.5q0 -115 69 -182.5t164 -67.5z" />
    <glyph glyph-name="caron.alt" horiz-adv-x="1228" 
d="M731 924h-213v407h273z" />
    </font>
</defs>
</svg>
