<?xml version="1.0" standalone="no"?>
<!DOCTYPE svg PUBLIC "-//W3C//DTD SVG 1.1//EN" "http://www.w3.org/Graphics/SVG/1.1/DTD/svg11.dtd" >
<svg xmlns="http://www.w3.org/2000/svg" xmlns:xlink="http://www.w3.org/1999/xlink" version="1.1">
<metadata>
Created by FontForge 20201107 at Wed Jun 12 15:51:29 2024
 By 
Copyright (c) 2014 by Rene' Bieder. All rights reserved.
</metadata>
<defs>
<font id="GalanoGrotesque-SemiBoldItalic" horiz-adv-x="1249" >
  <font-face 
    font-family="Galano Grotesque SmBold Italic"
    font-weight="600"
    font-style="italic"
    font-stretch="normal"
    units-per-em="2048"
    panose-1="0 0 7 0 0 0 0 0 0 0"
    ascent="1638"
    descent="-410"
    x-height="1022"
    cap-height="1372"
    bbox="-526 -430 2548 1935"
    underline-thickness="102"
    underline-position="-204"
    slope="-13"
    unicode-range="U+0020-FB02"
  />
<missing-glyph horiz-adv-x="1574" 
d="M788 1401q192 0 355 -91.5t260.5 -257.5t97.5 -370q0 -202 -97.5 -366.5t-260.5 -255.5t-355 -91q-193 0 -356.5 91t-260.5 255.5t-97 366.5q0 153 57 288t154 229t228 148t275 54zM788 1288q-120 0 -228.5 -45.5t-188.5 -124.5t-127 -192t-47 -242q0 -170 80 -309
t215 -216t296 -77q119 0 227.5 45.5t188.5 124.5t127 191.5t47 240.5t-47 241.5t-127 192.5t-188.5 124.5t-227.5 45.5zM1061 817q0 -86 -59.5 -142.5t-159.5 -68.5v-63h-137v176h86q55 0 89.5 27.5t34.5 70.5q0 51 -34.5 83t-89.5 32q-59 0 -98 -35t-48 -94l-143 26
q6 97 87.5 166.5t201.5 69.5q121 0 195.5 -68.5t74.5 -179.5zM770 457q39 0 64.5 -25.5t25.5 -60.5q0 -39 -25.5 -64.5t-64.5 -25.5q-38 0 -63 26t-25 64q0 35 25.5 60.5t62.5 25.5z" />
    <glyph glyph-name="fi" unicode="fi" horiz-adv-x="1320" 
d="M1284 1022l-235 -1022h-271l185 801h-428l-187 -801h-270l186 801h-155l51 221h155l21 92q41 178 177.5 282.5t322.5 104.5q97 0 172 -37l-109 -219q-59 17 -100 17q-72 0 -124 -38.5t-69 -109.5l-20 -92h698zM1221 1489q69 0 116 -48t47 -114q0 -68 -46.5 -113
t-116.5 -45q-72 0 -118 45t-46 113q0 66 47 114t117 48z" />
    <glyph glyph-name="fl" unicode="fl" horiz-adv-x="1312" 
d="M535 801l-185 -801h-270l184 801h-155l51 221h155l21 92q44 187 167 287t304 100q109 0 172 -37l-49 -215q-74 13 -139 13q-67 0 -117.5 -39t-67.5 -109l-20 -92h309l-51 -221h-309zM1393 1475l-342 -1475h-271l342 1475h271z" />
    <glyph glyph-name=".notdef" horiz-adv-x="1574" 
d="M788 1401q192 0 355 -91.5t260.5 -257.5t97.5 -370q0 -202 -97.5 -366.5t-260.5 -255.5t-355 -91q-193 0 -356.5 91t-260.5 255.5t-97 366.5q0 153 57 288t154 229t228 148t275 54zM788 1288q-120 0 -228.5 -45.5t-188.5 -124.5t-127 -192t-47 -242q0 -170 80 -309
t215 -216t296 -77q119 0 227.5 45.5t188.5 124.5t127 191.5t47 240.5t-47 241.5t-127 192.5t-188.5 124.5t-227.5 45.5zM1061 817q0 -86 -59.5 -142.5t-159.5 -68.5v-63h-137v176h86q55 0 89.5 27.5t34.5 70.5q0 51 -34.5 83t-89.5 32q-59 0 -98 -35t-48 -94l-143 26
q6 97 87.5 166.5t201.5 69.5q121 0 195.5 -68.5t74.5 -179.5zM770 457q39 0 64.5 -25.5t25.5 -60.5q0 -39 -25.5 -64.5t-64.5 -25.5q-38 0 -63 26t-25 64q0 35 25.5 60.5t62.5 25.5z" />
    <glyph glyph-name=".null" horiz-adv-x="0" 
 />
    <glyph glyph-name="nonmarkingreturn" horiz-adv-x="682" 
 />
    <glyph glyph-name="space" unicode=" " horiz-adv-x="497" 
 />
    <glyph glyph-name="exclam" unicode="!" horiz-adv-x="598" 
d="M637 1372l-14 -63l-209 -860h-277l189 860l14 63h297zM215 305q69 0 115.5 -47t46.5 -111q0 -66 -46 -110.5t-116 -44.5t-116 44.5t-46 110.5q0 64 46.5 111t115.5 47z" />
    <glyph glyph-name="quotedbl" unicode="&#x22;" horiz-adv-x="870" 
d="M162 762l139 610h274l-139 -610h-274zM551 762l139 610h275l-140 -610h-274z" />
    <glyph glyph-name="numbersign" unicode="#" horiz-adv-x="1419" 
d="M1169 799l-125 -260h207l-114 -226h-199l-150 -313h-251l149 313h-248l-149 -313h-252l149 313h-213l113 226h207l125 260h-211l110 225h207l166 348h252l-166 -348h248l166 348h252l-166 -348h207l-115 -225h-199zM915 799h-247l-123 -260h248z" />
    <glyph glyph-name="dollar" unicode="$" horiz-adv-x="1202" 
d="M778 791l6 -3q74 -27 126 -55t95 -67t64 -92t21 -121q0 -176 -133 -289t-347 -127l-55 -242h-225l61 258q-140 31 -230 119t-104 234l275 53q17 -125 125 -168l73 311q-45 15 -80 30t-76 42t-67.5 59t-44.5 80.5t-18 106.5q0 163 124.5 275t319.5 136l57 246h226
l-60 -252q138 -27 218.5 -116t99.5 -230l-262 -55q-6 122 -117 168zM516 950q0 -60 74 -92l57 238q-59 -19 -95 -58t-36 -88zM719 541l-64 -269q87 10 131.5 51.5t44.5 104.5q0 42 -24.5 65.5t-87.5 47.5z" />
    <glyph glyph-name="percent" unicode="%" horiz-adv-x="1826" 
d="M588 1403q136 0 225.5 -84t89.5 -221q0 -157 -111 -258t-262 -101q-135 0 -225 85t-90 223q0 156 110.5 256t262.5 100zM199 0l1321 1372h178l-1321 -1372h-178zM571 1219q-59 0 -106 -44t-47 -114q0 -63 37.5 -100t91.5 -37q60 0 106.5 44t46.5 115q0 63 -37.5 99.5
t-91.5 36.5zM1376 633q136 0 226 -84t90 -221q0 -156 -110.5 -257.5t-262.5 -101.5q-135 0 -225 84.5t-90 222.5q0 155 110.5 256t261.5 101zM1360 449q-59 0 -106.5 -44t-47.5 -114q0 -63 37.5 -100t91.5 -37q60 0 107 44t47 115q0 63 -37.5 99.5t-91.5 36.5z" />
    <glyph glyph-name="ampersand" unicode="&#x26;" horiz-adv-x="1437" 
d="M1311 715l-27 -105q-43 -180 -131 -317l154 -170l-203 -182l-141 155q-181 -129 -420 -129q-207 0 -340 98t-133 265q0 135 87.5 244.5t237.5 177.5q-49 91 -49 200q0 195 136.5 323t371.5 128q177 0 272 -76.5t107 -216.5l-264 -45q-16 113 -150 113q-93 0 -150 -54
t-57 -141q0 -56 28 -107.5t97 -123.5l256 -283q32 57 51 141l27 105h240zM571 195q128 0 240 69l-295 328q-80 -39 -127 -97.5t-47 -125.5q0 -78 63 -126t166 -48z" />
    <glyph glyph-name="quotesingle" unicode="'" horiz-adv-x="481" 
d="M162 762l139 610h274l-139 -610h-274z" />
    <glyph glyph-name="parenleft" unicode="(" horiz-adv-x="800" 
d="M717 1544l184 -188q-129 -95 -215 -175.5t-141 -161t-83.5 -157.5t-45.5 -176q-32 -192 8 -353t176 -335l-217 -166q-175 187 -235.5 398.5t-22.5 455.5q40 255 180 466t412 392z" />
    <glyph glyph-name="parenright" unicode=")" horiz-adv-x="800" 
d="M164 -168l-184 188q129 95 215 175.5t141 161t83.5 157.5t45.5 176q32 192 -8 353t-176 335l217 166q175 -187 235.5 -398.5t22.5 -455.5q-40 -255 -180 -466t-412 -392z" />
    <glyph glyph-name="asterisk" unicode="*" horiz-adv-x="960" 
d="M770 1038l164 -196l-125 -107l-158 187l-78 -215l-176 63l80 217l-239 -43l-29 162l252 45l-164 197l127 108l156 -186l77 213l177 -64l-78 -215l239 43l27 -164z" />
    <glyph glyph-name="plus" unicode="+" horiz-adv-x="1189" 
d="M1065 506h-352l-84 -361h-238l84 361h-352l55 237h350l84 361h238l-84 -361h354z" />
    <glyph glyph-name="comma" unicode="," horiz-adv-x="516" 
d="M84 -270h-215l250 549h323l-2 -7z" />
    <glyph glyph-name="hyphen" unicode="-" horiz-adv-x="919" 
d="M770 406h-672l56 233h671z" />
    <glyph glyph-name="period" unicode="." horiz-adv-x="495" 
d="M164 305q69 0 115.5 -47t46.5 -111q0 -66 -46 -110.5t-116 -44.5t-116 44.5t-46 110.5q0 64 46.5 111t115.5 47z" />
    <glyph glyph-name="slash" unicode="/" horiz-adv-x="856" 
d="M1042 1475l-962 -1618h-266l962 1618h266z" />
    <glyph glyph-name="zero" unicode="0" horiz-adv-x="1363" 
d="M811 1403q175 0 302.5 -89.5t182 -254.5t17.5 -373q-58 -327 -238 -522t-440 -195q-131 0 -237.5 52t-174 146t-94 226.5t3.5 292.5q38 214 130 375t233.5 251.5t314.5 90.5zM641 225q140 0 246 127.5t143 333.5t-24 333.5t-201 127.5t-246 -127.5t-143 -333.5t24 -333.5
t201 -127.5z" />
    <glyph glyph-name="one" unicode="1" horiz-adv-x="759" 
d="M803 1372l-316 -1372h-270l236 1024l-375 -197l67 293l486 252h172z" />
    <glyph glyph-name="two" unicode="2" horiz-adv-x="1071" 
d="M481 252h494l-62 -252h-946l56 180l559 459q6 5 42 34t49.5 41.5t44.5 41.5t45.5 50t33.5 51.5t26.5 61.5t7.5 64q0 80 -49.5 130t-138.5 50q-93 0 -154.5 -62.5t-82.5 -189.5l-261 54q29 201 172 319.5t347 118.5q196 0 313 -108t117 -291q0 -143 -83 -266t-276 -279z
" />
    <glyph glyph-name="three" unicode="3" horiz-adv-x="1169" 
d="M1184 1034q0 -125 -67.5 -221t-182.5 -143q127 -95 127 -262q0 -85 -36.5 -163.5t-102 -140t-166.5 -98.5t-221 -37q-222 0 -357 118t-131 316l248 56q5 -116 66 -183t176 -67t184.5 63t69.5 150q0 74 -54 119t-141 45h-182l63 221h168q127 0 208 54.5t81 144.5
q0 74 -54.5 119.5t-144.5 45.5q-95 0 -164.5 -54.5t-91.5 -176.5l-250 47q37 192 179 304t344 112q196 0 314 -102t118 -267z" />
    <glyph glyph-name="four" unicode="4" horiz-adv-x="1263" 
d="M1018 502h186l-51 -226h-186l-64 -276h-270l63 276h-710l57 256l809 840h367zM750 502l141 610l-561 -610h420z" />
    <glyph glyph-name="five" unicode="5" horiz-adv-x="1169" 
d="M508 1120l-64 -239h162q211 0 336 -101t125 -293q0 -106 -39 -200.5t-109 -165t-174.5 -111.5t-228.5 -41q-231 0 -372.5 134t-131.5 350l258 49q0 -136 68 -216.5t192 -80.5q118 0 189.5 71t71.5 173q0 94 -65.5 144t-174.5 50h-430l190 729h910l-60 -252h-653z" />
    <glyph glyph-name="six" unicode="6" horiz-adv-x="1255" 
d="M731 889q191 0 310.5 -116.5t119.5 -301.5q0 -140 -71.5 -255t-196.5 -181t-277 -66q-155 0 -272.5 72.5t-179.5 199.5t-62 291q0 194 58 359t156.5 276t230 173.5t278.5 62.5q115 0 210.5 -36.5t161.5 -111t83 -178.5l-258 -51q-13 65 -69.5 99t-139.5 34
q-153 0 -272.5 -112.5t-153.5 -282.5q63 60 153.5 92.5t190.5 32.5zM629 217q99 0 174.5 68.5t75.5 169.5q0 92 -61.5 149.5t-147.5 57.5q-98 0 -174 -68.5t-76 -171.5q0 -91 61.5 -148t147.5 -57z" />
    <glyph glyph-name="seven" unicode="7" horiz-adv-x="1073" 
d="M1225 1372l-45 -198l-770 -1174h-342l755 1120h-655l57 252h1000z" />
    <glyph glyph-name="eight" unicode="8" horiz-adv-x="1191" 
d="M895 674q94 -47 144.5 -124t50.5 -171q0 -178 -151.5 -294t-391.5 -116q-231 0 -370.5 106t-139.5 277q0 127 93 227t253 136q-168 94 -168 295q0 175 141 284t365 109q212 0 338.5 -100t126.5 -265q0 -131 -76 -227t-215 -137zM707 1180q-90 0 -154 -49t-64 -138
q0 -80 56.5 -123t142.5 -43q92 0 157.5 48.5t65.5 136.5q0 79 -59.5 123.5t-144.5 44.5zM553 201q99 0 167 51.5t68 144.5q0 84 -62.5 130t-154.5 46q-97 0 -163 -51t-66 -145q0 -84 60.5 -130t150.5 -46z" />
    <glyph glyph-name="nine" unicode="9" horiz-adv-x="1273" 
d="M715 1403q155 0 272.5 -72.5t179.5 -199.5t62 -291q0 -194 -58 -359t-156.5 -276t-230 -173.5t-278.5 -62.5q-115 0 -210.5 36.5t-161.5 111t-83 178.5l258 51q13 -65 69.5 -99t139.5 -34q153 0 272.5 112.5t153.5 282.5q-63 -60 -153.5 -92.5t-190.5 -32.5
q-191 0 -310.5 116.5t-119.5 301.5q0 140 71.5 255t196.5 181t277 66zM662 711q98 0 173.5 68t75.5 171q0 91 -61.5 148t-147.5 57q-99 0 -174 -68t-75 -169q0 -92 61.5 -149.5t147.5 -57.5z" />
    <glyph glyph-name="colon" unicode=":" horiz-adv-x="495" 
d="M324 993q69 0 115 -46.5t46 -110.5q0 -67 -45.5 -111.5t-115.5 -44.5t-116 45t-46 111q0 64 46.5 110.5t115.5 46.5zM164 305q69 0 115.5 -47t46.5 -111q0 -66 -46 -110.5t-116 -44.5t-116 44.5t-46 110.5q0 64 46.5 111t115.5 47z" />
    <glyph glyph-name="semicolon" unicode=";" horiz-adv-x="571" 
d="M373 993q69 0 115.5 -46.5t46.5 -110.5q0 -66 -46 -111t-116 -45t-116 45t-46 111q0 64 46.5 110.5t115.5 46.5zM84 -270h-215l250 549h323l-2 -7z" />
    <glyph glyph-name="less" unicode="&#x3c;" horiz-adv-x="923" 
d="M412 659l430 -147l-66 -272l-708 292l65 287l844 289l-66 -295z" />
    <glyph glyph-name="equal" unicode="=" horiz-adv-x="1189" 
d="M1120 743h-942l55 236h943zM1026 338h-942l55 235h942z" />
    <glyph glyph-name="greater" unicode="&#x3e;" horiz-adv-x="923" 
d="M588 688l-430 148l65 272l709 -293l-66 -287l-843 -288l65 295z" />
    <glyph glyph-name="question" unicode="?" horiz-adv-x="1095" 
d="M1151 1016q0 -123 -67 -222t-177 -155t-245 -68l-27 -110h-248l74 319h155q41 0 87.5 14t88.5 39t69.5 67t27.5 91q0 80 -57.5 126t-147.5 46q-106 0 -181 -65.5t-102 -169.5l-251 51q30 178 181.5 301t366.5 123q198 0 325.5 -107t127.5 -280zM455 305q69 0 115 -47
t46 -111q0 -66 -45.5 -110.5t-115.5 -44.5t-116 44.5t-46 110.5q0 64 46.5 111t115.5 47z" />
    <glyph glyph-name="at" unicode="@" horiz-adv-x="1943" 
d="M1485 973l-133 -580q-11 -49 19 -78.5t79 -29.5q56 0 105 43t79.5 109t48 140t17.5 140q0 156 -75 276.5t-207.5 186t-299.5 65.5q-166 0 -319 -61t-266 -165.5t-180.5 -251t-67.5 -308.5q0 -253 161 -415.5t414 -162.5q130 0 269 42.5t260 123.5l63 -139
q-125 -88 -290.5 -138.5t-325.5 -50.5q-209 0 -374.5 90.5t-259 254t-93.5 370.5q0 201 85 382t226.5 309t331.5 203t395 75q156 0 291 -49t231.5 -135.5t151.5 -209.5t55 -266q0 -62 -12.5 -129.5t-37 -137t-65 -131.5t-92 -110.5t-123 -77t-153.5 -28.5q-85 0 -140.5 32
t-76.5 89q-125 -119 -316 -119q-157 0 -253.5 96.5t-96.5 255.5q0 111 42 207t112 160t160 100.5t186 36.5q91 0 160 -37.5t108 -105.5l31 129h176zM918 309q108 0 195 81.5t87 209.5q0 94 -56 149.5t-140 55.5q-108 0 -194.5 -80t-86.5 -209q0 -95 56 -151t139 -56z" />
    <glyph glyph-name="A" unicode="A" horiz-adv-x="1468" 
d="M1350 0h-285l-51 293h-606l-189 -293h-317l911 1372h260zM969 545l-86 489l-314 -489h400z" />
    <glyph glyph-name="B" unicode="B" horiz-adv-x="1329" 
d="M1069 709l-2 -9q74 -10 126 -75t52 -170q0 -195 -151 -325t-412 -130h-657l262 1135l55 237h655q159 0 254 -83.5t95 -221.5q0 -64 -19.5 -121t-49.5 -97t-67.5 -71t-73 -47.5t-67.5 -21.5zM487 799h349q98 0 163.5 59.5t65.5 147.5q0 58 -37 93.5t-96 35.5h-367z
M358 238h369q110 0 172 58t62 148q0 62 -39.5 98t-106.5 36h-379z" />
    <glyph glyph-name="C" unicode="C" horiz-adv-x="1568" 
d="M942 1403q256 0 423.5 -133.5t186.5 -354.5l-286 -55q-20 132 -101.5 208.5t-226.5 76.5q-139 0 -262.5 -69t-199 -191t-75.5 -267q0 -171 102.5 -281t274.5 -110q150 0 263.5 77.5t160.5 199.5l256 -80q-73 -209 -250 -332t-438 -123q-294 0 -472.5 175.5t-178.5 455.5
q0 161 63.5 308.5t171.5 256t262 173.5t326 65z" />
    <glyph glyph-name="D" unicode="D" horiz-adv-x="1501" 
d="M344 1372h506q287 0 451.5 -155t164.5 -416q0 -168 -71 -317.5t-192.5 -255t-289.5 -167t-356 -61.5h-530zM362 252h162q125 0 243 39t209.5 108.5t146.5 173t55 224.5q0 157 -93.5 240t-267.5 83h-254z" />
    <glyph glyph-name="E" unicode="E" horiz-adv-x="1300" 
d="M563 1120l-71 -309h700l-57 -248h-701l-72 -311h764l-57 -252h-1042l315 1372h1038l-57 -252h-760z" />
    <glyph glyph-name="F" unicode="F" horiz-adv-x="1218" 
d="M563 1120l-78 -336h666l-57 -252h-666l-123 -532h-278l315 1372h1024l-57 -252h-746z" />
    <glyph glyph-name="G" unicode="G" horiz-adv-x="1597" 
d="M834 801h731q-3 -71 -13 -119q-61 -334 -273.5 -523.5t-526.5 -189.5q-287 0 -460 170.5t-173 452.5q0 164 67 313.5t180 259t271 174t332 64.5q139 0 260.5 -45t211.5 -141t115 -228l-278 -59q-69 211 -328 211q-147 0 -272.5 -68.5t-200 -189.5t-74.5 -265
q0 -172 104.5 -280.5t274.5 -108.5q153 0 274 88t171 230h-453z" />
    <glyph glyph-name="H" unicode="H" horiz-adv-x="1501" 
d="M1554 1372l-315 -1372h-278l129 563h-656l-129 -563h-278l315 1372h279l-129 -557h655l129 557h278z" />
    <glyph glyph-name="I" unicode="I" horiz-adv-x="567" 
d="M305 0h-278l315 1372h279z" />
    <glyph glyph-name="J" unicode="J" horiz-adv-x="1216" 
d="M1284 1372l-209 -887q-57 -247 -208.5 -381.5t-372.5 -134.5q-216 0 -348 122t-138 327l264 53q0 -112 58 -182t168 -70q113 0 190.5 73.5t108.5 192.5l209 887h278z" />
    <glyph glyph-name="K" unicode="K" horiz-adv-x="1370" 
d="M743 674l508 -674h-340l-407 549h-92l-127 -549h-279l318 1372h278l-133 -571h39l666 571h372z" />
    <glyph glyph-name="L" unicode="L" horiz-adv-x="1193" 
d="M1071 252l-57 -252h-987l315 1372h279l-259 -1120h709z" />
    <glyph glyph-name="M" unicode="M" horiz-adv-x="1816" 
d="M1870 1372l-316 -1372h-270l172 743l-561 -743h-207l-219 745l-172 -745h-270l315 1372h221l289 -1010l754 1010h264z" />
    <glyph glyph-name="N" unicode="N" horiz-adv-x="1560" 
d="M1610 1372l-316 -1372h-233l-541 909l-211 -909h-278l315 1372h234l536 -928l215 928h279z" />
    <glyph glyph-name="O" unicode="O" horiz-adv-x="1613" 
d="M928 1407q209 0 366 -99t228.5 -264.5t44.5 -359.5q-44 -325 -266.5 -521t-534.5 -196q-207 -1 -363.5 94.5t-229.5 260.5t-46 364q28 197 145.5 363t291.5 262t364 96zM770 229q200 0 344 127.5t172 327.5q27 194 -80 326.5t-282 132.5q-199 0 -344.5 -130.5
t-173.5 -328.5q-18 -129 27.5 -234.5t135.5 -163t201 -57.5z" />
    <glyph glyph-name="P" unicode="P" horiz-adv-x="1372" 
d="M342 1372h592q210 0 337.5 -112.5t127.5 -298.5q0 -230 -168 -371t-440 -141h-383l-103 -449h-278zM467 700h340q137 0 222 70t85 180q0 81 -51 125.5t-150 44.5h-350z" />
    <glyph glyph-name="Q" unicode="Q" horiz-adv-x="1613" 
d="M1567 684q-47 -341 -285 -537l252 -297l-215 -196l-301 350q-115 -37 -252 -37q-207 -1 -363.5 94.5t-229.5 260.5t-46 364q28 197 145.5 363t291.5 262t364 96q209 0 366 -99t228.5 -264.5t44.5 -359.5zM1286 684q27 194 -80 326.5t-282 132.5q-199 0 -344.5 -130.5
t-173.5 -328.5q-18 -129 27.5 -234.5t135.5 -163t201 -57.5q200 0 344 127.5t172 327.5z" />
    <glyph glyph-name="R" unicode="R" horiz-adv-x="1402" 
d="M1403 995q0 -174 -116 -302t-312 -171l289 -522h-314l-260 504h-268l-117 -504h-278l315 1372h616q203 0 324 -100t121 -277zM479 756h338q136 0 219.5 61t83.5 156q0 71 -48.5 109t-129.5 38h-379z" />
    <glyph glyph-name="S" unicode="S" horiz-adv-x="1288" 
d="M797 1403q219 0 352.5 -104.5t150.5 -290.5l-280 -58q-1 96 -71 156.5t-179 60.5q-107 0 -177.5 -56.5t-70.5 -135.5q0 -43 28.5 -71.5t96.5 -51.5l199 -59q152 -45 233.5 -130.5t81.5 -224.5q0 -212 -156.5 -340.5t-412.5 -128.5q-83 0 -160 15t-146.5 47t-122 79
t-85.5 115.5t-39 151.5l295 59q12 -115 85.5 -171t196.5 -56q129 0 200 55t71 142q0 50 -32 79t-114 54l-194 55q-50 15 -88.5 30.5t-83.5 44t-74.5 63.5t-49.5 88t-20 118q0 204 158.5 334.5t407.5 130.5z" />
    <glyph glyph-name="T" unicode="T" horiz-adv-x="1273" 
d="M1374 1120h-456l-259 -1120h-278l258 1120h-457l58 252h1192z" />
    <glyph glyph-name="U" unicode="U" horiz-adv-x="1456" 
d="M1524 1372l-174 -758q-69 -301 -250 -473t-467 -172q-120 0 -222.5 46.5t-169.5 131.5t-92.5 204t7.5 263l174 758h278l-174 -758q-40 -172 25 -275t213 -103q140 0 249.5 103.5t149.5 274.5l174 758h279z" />
    <glyph glyph-name="V" unicode="V" horiz-adv-x="1482" 
d="M1651 1372l-899 -1372h-269l-264 1372h287l176 -999l641 999h328z" />
    <glyph glyph-name="W" unicode="W" horiz-adv-x="1980" 
d="M2148 1372l-716 -1372h-302l-51 926l-483 -926h-295l-82 1372h279l43 -946l495 946h273l57 -946l481 946h301z" />
    <glyph glyph-name="X" unicode="X" horiz-adv-x="1357" 
d="M899 686l320 -686h-320l-209 469l-426 -469h-360l631 688l-316 684h318l211 -463l428 463h358l-633 -684z" />
    <glyph glyph-name="Y" unicode="Y" horiz-adv-x="1415" 
d="M823 438l-100 -438h-279l101 434l-326 938h289l225 -647l522 647h338z" />
    <glyph glyph-name="Z" unicode="Z" horiz-adv-x="1282" 
d="M1331 1161l-903 -923h702l-53 -238h-1097l40 178l949 957h-707l53 237h1063z" />
    <glyph glyph-name="bracketleft" unicode="[" horiz-adv-x="829" 
d="M582 1286l-283 -1223h344l-53 -231h-604l389 1686h604l-53 -232h-344z" />
    <glyph glyph-name="backslash" unicode="\" horiz-adv-x="856" 
d="M643 -147h-225l-205 1665h225z" />
    <glyph glyph-name="bracketright" unicode="]" horiz-adv-x="831" 
d="M920 1518l-390 -1686h-604l54 231h344l282 1223h-344l53 232h605z" />
    <glyph glyph-name="asciicircum" unicode="^" horiz-adv-x="909" 
d="M375 883h-248l430 489h193l204 -489h-223l-115 272z" />
    <glyph glyph-name="underscore" unicode="_" horiz-adv-x="1107" 
d="M870 -338h-1024l52 223h1024z" />
    <glyph glyph-name="grave" unicode="`" horiz-adv-x="1228" 
d="M627 1456l204 -295h-245l-293 295h334z" />
    <glyph glyph-name="a" unicode="a" horiz-adv-x="1318" 
d="M1292 1022l-237 -1022h-271l17 70q-132 -101 -324 -101q-97 0 -181.5 40t-143 110t-84.5 173t-7 220q38 241 203.5 391t384.5 150q245 0 342 -162l31 131h270zM561 205q115 0 216.5 86t123.5 221t-52.5 220t-189.5 85q-128 0 -220 -84t-115 -221q-23 -139 44.5 -223
t192.5 -84z" />
    <glyph glyph-name="b" unicode="b" horiz-adv-x="1304" 
d="M842 1053q97 0 181.5 -40t143 -110t84 -173t6.5 -220q-38 -241 -203 -391t-384 -150q-247 0 -344 166l-31 -135h-270l342 1475h270l-121 -525q134 103 326 103zM659 205q129 0 221 84t115 221q23 139 -44.5 223t-192.5 84q-115 0 -216.5 -86t-123.5 -221t52 -220t189 -85
z" />
    <glyph glyph-name="c" unicode="c" horiz-adv-x="1163" 
d="M549 217q190 0 274 178l258 -43q-71 -175 -220.5 -279t-332.5 -104q-159 0 -277 67.5t-173.5 191.5t-30.5 282q38 237 221 390t412 153q180 0 305 -103t148 -274l-279 -51q-6 88 -63.5 134t-149.5 46q-127 0 -218.5 -82t-113.5 -213q-20 -132 46 -212.5t194 -80.5z" />
    <glyph glyph-name="d" unicode="d" horiz-adv-x="1304" 
d="M1382 1475l-340 -1475h-270l16 70q-138 -101 -325 -101q-97 0 -181.5 40t-143 110t-84.5 173t-7 220q38 241 203.5 391t384.5 150q246 0 342 -164l135 586h270zM547 205q115 0 216.5 86t123.5 221t-52.5 220t-189.5 85q-129 0 -221 -84t-115 -221q-23 -139 45 -223
t193 -84z" />
    <glyph glyph-name="e" unicode="e" horiz-adv-x="1177" 
d="M666 1053q111 0 202 -43t151.5 -122.5t84 -193.5t-1.5 -256h-795q3 -237 242 -237q166 0 260 145l242 -61q-74 -155 -213 -235.5t-306 -80.5q-217 0 -345 127.5t-128 339.5q0 130 51.5 246.5t136 197t194.5 127t225 46.5zM346 629h526q-13 99 -72.5 148.5t-154.5 49.5
q-102 0 -180 -54t-119 -144z" />
    <glyph glyph-name="f" unicode="f" horiz-adv-x="757" 
d="M791 1262q-67 0 -117.5 -39t-67.5 -109l-20 -92h309l-51 -221h-309l-185 -801h-270l184 801h-155l51 221h155l21 92q44 187 167 287t304 100q109 0 172 -37l-49 -215q-74 13 -139 13z" />
    <glyph glyph-name="g" unicode="g" horiz-adv-x="1304" 
d="M1276 1022l-215 -924q-34 -152 -130 -264t-228 -167.5t-285 -55.5q-358 0 -477 305l252 94q69 -155 241 -155q80 0 157.5 33t137.5 99t80 152l4 17q-138 -101 -332 -101q-97 0 -180.5 37t-141 103.5t-83 165.5t-6.5 214q38 203 208 340.5t373 137.5q242 0 338 -148
l27 117h260zM330 565q-23 -128 43 -205t190 -77q118 0 217 69.5t121 192.5q11 63 -5 116.5t-50 89t-82 55t-102 19.5q-129 0 -218.5 -71.5t-113.5 -188.5z" />
    <glyph glyph-name="h" unicode="h" horiz-adv-x="1267" 
d="M809 1053q140 0 230 -69t118.5 -178.5t-0.5 -240.5l-131 -565h-270l133 578q25 109 -23.5 174t-150.5 65q-231 0 -314 -364l-104 -453h-270l340 1475h270l-125 -545q114 123 297 123z" />
    <glyph glyph-name="i" unicode="i" horiz-adv-x="593" 
d="M485 1489q69 0 116.5 -48t47.5 -114q0 -68 -47 -113t-117 -45q-71 0 -117 45t-46 113q0 66 46.5 114t116.5 48zM313 0h-270l236 1022h270z" />
    <glyph glyph-name="j" unicode="j" horiz-adv-x="610" 
d="M502 1489q69 0 116.5 -48t47.5 -114q0 -68 -47 -113t-117 -45q-72 0 -118 45t-46 113q0 66 47 114t117 48zM573 1022l-254 -1114q-31 -134 -132 -215.5t-236 -81.5q-103 0 -199 39l103 235q55 -20 88 -20q43 0 74.5 22.5t39.5 57.5l246 1077h270z" />
    <glyph glyph-name="k" unicode="k" horiz-adv-x="1243" 
d="M700 532l424 -532h-327l-310 399h-100l-92 -399h-270l340 1475h270l-186 -809h40l449 356h367z" />
    <glyph glyph-name="l" unicode="l" horiz-adv-x="559" 
d="M295 0h-270l342 1475h270z" />
    <glyph glyph-name="m" unicode="m" horiz-adv-x="1943" 
d="M1542 1053q184 0 277 -115t51 -299l-148 -639h-268l135 584q23 99 -18 160t-131 61q-108 0 -188 -74.5t-119 -222.5l-117 -508h-271l136 584q23 99 -18.5 160t-131.5 61q-106 0 -184 -71.5t-117 -215.5l-119 -518h-270l235 1022h271l-23 -94q119 125 310 125
q121 0 206 -49.5t119 -137.5q143 187 383 187z" />
    <glyph glyph-name="n" unicode="n" horiz-adv-x="1265" 
d="M809 1053q140 0 230 -69t118.5 -178.5t-0.5 -240.5l-131 -565h-270l133 578q25 109 -23.5 174t-150.5 65q-233 0 -316 -364l-104 -453h-270l235 1022h270l-22 -96q118 127 301 127z" />
    <glyph glyph-name="o" unicode="o" horiz-adv-x="1230" 
d="M682 1047q112 0 209.5 -39t165.5 -108t99.5 -171t12.5 -219q-38 -238 -212.5 -387.5t-401.5 -149.5q-114 0 -213 39t-168 108t-100.5 170.5t-12.5 219.5q25 158 115 281t222 189.5t284 66.5zM569 205q72 0 143 35.5t125.5 107t69.5 162.5q22 136 -52 220.5t-187 84.5
q-117 0 -219.5 -84.5t-124.5 -220.5t53 -220.5t192 -84.5z" />
    <glyph glyph-name="p" unicode="p" horiz-adv-x="1318" 
d="M842 1053q97 0 181.5 -40t143 -110t84 -173t6.5 -220q-38 -241 -203 -391t-384 -150q-248 0 -344 164l-111 -481h-270l317 1370h270l-16 -70q138 101 326 101zM659 205q129 0 221 84t115 221q23 139 -44.5 223t-192.5 84q-115 0 -216.5 -86t-123.5 -221t52 -220t189 -85z
" />
    <glyph glyph-name="q" unicode="q" horiz-adv-x="1318" 
d="M1292 1022l-315 -1370h-270l96 420q-134 -103 -326 -103q-97 0 -181.5 40t-143 110t-84.5 173t-7 220q38 241 203.5 391t384.5 150q249 0 342 -164l31 133h270zM561 205q115 0 216.5 86t123.5 221t-52.5 220t-189.5 85q-128 0 -220 -84t-115 -221q-23 -139 44.5 -223
t192.5 -84z" />
    <glyph glyph-name="r" unicode="r" horiz-adv-x="878" 
d="M901 1036q47 0 70 -8l-74 -260h-59q-353 0 -461 -418l-80 -350h-270l235 1022h270l-34 -152q184 166 403 166z" />
    <glyph glyph-name="s" unicode="s" horiz-adv-x="1032" 
d="M4 250l268 76q11 -72 76.5 -109t143.5 -37q74 0 119.5 32t45.5 75q0 58 -82 82l-200 63q-111 33 -173.5 105.5t-62.5 179.5q0 149 114 242.5t306 93.5q178 0 300 -80.5t149 -202.5l-232 -70q-11 63 -69 102.5t-148 39.5q-81 0 -116 -30.5t-35 -72.5q0 -30 23.5 -54.5
t90.5 -45.5l125 -39q138 -44 205.5 -115.5t67.5 -183.5q0 -103 -60.5 -179t-161 -114.5t-225.5 -38.5q-110 0 -205.5 29t-168 94t-95.5 158z" />
    <glyph glyph-name="t" unicode="t" horiz-adv-x="858" 
d="M524 801l-92 -404q-21 -92 -0.5 -134t84.5 -42q86 0 186 49l15 -235q-132 -66 -266 -66q-117 0 -191.5 42.5t-105 133t3.5 232.5l98 424h-188l51 221h186l72 309h270l-72 -309h336l-51 -221h-336z" />
    <glyph glyph-name="u" unicode="u" horiz-adv-x="1265" 
d="M1241 1022l-235 -1022h-271l23 96q-118 -127 -301 -127q-140 0 -230 69t-118.5 178.5t0.5 240.5l131 565h270l-133 -578q-25 -109 23.5 -174t150.5 -65q232 0 315 364l105 453h270z" />
    <glyph glyph-name="v" unicode="v" horiz-adv-x="1191" 
d="M1280 1022l-668 -1022h-284l-189 1022h277l121 -688l438 688h305z" />
    <glyph glyph-name="w" unicode="w" horiz-adv-x="1642" 
d="M1731 1022l-582 -1024h-250l-65 602l-347 -602h-241l-107 1024h258l62 -629l360 629h211l68 -631l354 631h279z" />
    <glyph glyph-name="x" unicode="x" horiz-adv-x="1243" 
d="M788 496l271 -496h-307l-152 307l-297 -307h-358l499 498l-245 524h305l137 -320l297 320h362z" />
    <glyph glyph-name="y" unicode="y" horiz-adv-x="1187" 
d="M1276 1022l-891 -1370h-305l248 377l-189 993h281l119 -672l442 672h295z" />
    <glyph glyph-name="z" unicode="z" horiz-adv-x="1073" 
d="M1042 842l-663 -621h545l-52 -221h-907l41 176l658 625h-500l51 221h868z" />
    <glyph glyph-name="braceleft" unicode="{" horiz-adv-x="870" 
d="M1020 1518l-53 -228h-215q-28 0 -49 -18t-27 -47l-76 -330q-20 -78 -69.5 -135.5t-118.5 -85.5q57 -26 80 -84t6 -137l-76 -330q-7 -29 6 -46.5t41 -17.5h215l-53 -227h-250q-129 0 -191 71.5t-36 190.5l75 326q12 55 -16.5 82t-97.5 51l-60 20l47 201l68 21
q53 16 83.5 29t57 39.5t35.5 64.5l76 325q28 119 123.5 192t224.5 73h250z" />
    <glyph glyph-name="bar" unicode="|" horiz-adv-x="548" 
d="M252 -147h-260l385 1665h260z" />
    <glyph glyph-name="braceright" unicode="}" horiz-adv-x="909" 
d="M891 776l-47 -201l-68 -20q-53 -16 -83.5 -29t-57 -39.5t-35.5 -64.5l-76 -326q-28 -119 -123.5 -191.5t-224.5 -72.5h-250l54 227h215q28 0 48.5 18.5t26.5 47.5l76 330q20 78 70 135.5t119 85.5q-57 26 -80 84t-6 137l75 330q7 29 -6 46t-41 17h-215l53 228h250
q129 0 191.5 -72t36.5 -191l-76 -325q-12 -55 16.5 -82t97.5 -51z" />
    <glyph glyph-name="asciitilde" unicode="~" horiz-adv-x="1024" 
d="M299 469h-205q17 72 47.5 128.5t65 90t75 55t75 29.5t67.5 8q51 0 91.5 -13t60.5 -29t46.5 -29t53.5 -13q34 0 59 24t33 62h223q-17 -74 -49.5 -132t-69 -91.5t-80 -55.5t-79.5 -30t-70 -8q-52 0 -92 13t-59.5 29t-44.5 29t-50 13q-39 0 -65.5 -23t-32.5 -57z" />
    <glyph glyph-name="exclamdown" unicode="&#xa1;" horiz-adv-x="598" 
d="M387 735q-69 0 -115.5 47t-46.5 111q0 66 46 111t116 45t116 -45t46 -111q0 -64 -46.5 -111t-115.5 -47zM-35 -332l15 64l208 860h277l-189 -860l-14 -64h-297z" />
    <glyph glyph-name="cent" unicode="&#xa2;" horiz-adv-x="1181" 
d="M758 786l-133 -563q142 25 213 172l258 -43q-67 -166 -205.5 -268t-308.5 -113l-56 -237h-227l61 262q-163 52 -246 189t-53 325q33 212 186 358.5t355 178.5l57 243h228l-60 -254q130 -34 216 -129t104 -231l-279 -51q-9 121 -110 161zM324 510q-13 -90 13 -157t87 -103
l127 538q-90 -29 -150 -102.5t-77 -175.5z" />
    <glyph glyph-name="sterling" unicode="&#xa3;" horiz-adv-x="1304" 
d="M1327 918l-252 -29q17 121 -28 195.5t-136 74.5q-108 0 -182.5 -68.5t-99.5 -172.5l-41 -179h348l-57 -252h-349l-55 -235h696l-57 -252h-1149l39 170l186 49l62 268h-174l57 252h174l41 179q52 221 206.5 353t371.5 132q212 0 323 -134t76 -351z" />
    <glyph glyph-name="yen" unicode="&#xa5;" horiz-adv-x="1415" 
d="M991 692h260l-47 -205h-368l-23 -102h367l-47 -205h-367l-41 -180h-279l41 180h-354l47 205h355l24 102h-354l47 205h246l-258 680h284l215 -602l492 602h342z" />
    <glyph glyph-name="section" unicode="&#xa7;" horiz-adv-x="1101" 
d="M1114 1055l-260 -41q9 78 -24 124t-105 46t-117 -42t-45 -102q0 -34 18.5 -58t61.5 -46l234 -109q95 -42 139.5 -107t44.5 -165q0 -122 -62.5 -205.5t-181.5 -142.5q19 -52 19 -109q0 -171 -122 -280t-323 -109q-178 0 -285.5 87.5t-103.5 242.5l256 57q-5 -79 33 -125.5
t112 -46.5q73 0 114.5 43t41.5 101q0 64 -78 106l-233 109q-83 37 -134 117t-51 175q0 214 248 314q-22 51 -22 119q0 175 131.5 285t331.5 110q185 0 276.5 -96t85.5 -252zM477 739l-10 4q-61 -19 -101 -55.5t-40 -87.5q0 -60 86 -108l235 -119l15 -8q68 34 102.5 70
t34.5 87q0 72 -80 111z" />
    <glyph glyph-name="dieresis" unicode="&#xa8;" horiz-adv-x="1228" 
d="M510 1470q69 0 116.5 -47.5t47.5 -111.5q0 -69 -46.5 -114.5t-117.5 -45.5q-70 0 -116 45.5t-46 114.5q0 64 46.5 111.5t115.5 47.5zM952 1470q69 0 116.5 -47.5t47.5 -111.5q0 -69 -46.5 -114.5t-117.5 -45.5q-70 0 -115.5 45.5t-45.5 114.5q0 65 46 112t115 47z" />
    <glyph glyph-name="copyright" unicode="&#xa9;" horiz-adv-x="1548" 
d="M829 1403q145 0 276.5 -54t228.5 -148.5t154.5 -229.5t57.5 -289q0 -203 -97.5 -367.5t-261.5 -255t-358 -90.5q-195 0 -359 90.5t-261.5 255t-97.5 367.5q0 205 97.5 371.5t261.5 258t359 91.5zM829 1288q-120 0 -228.5 -45.5t-188.5 -124.5t-127 -192t-47 -242
q0 -170 80 -308t215 -214t296 -76q120 0 228 45t188 123t127 190t47 240t-47 241.5t-127 192.5t-188.5 124.5t-227.5 45.5zM838 1069q156 0 256 -81t118 -204l-178 -36q-17 70 -70 109.5t-126 39.5q-90 0 -146.5 -60t-56.5 -153t56.5 -153t146.5 -60q76 0 130.5 43t63.5 119
l180 -29q-12 -136 -113.5 -220.5t-260.5 -84.5q-104 0 -193 47.5t-144 136.5t-55 201t55 201t144 136.5t193 47.5z" />
    <glyph glyph-name="ordfeminine" unicode="&#xaa;" horiz-adv-x="800" 
d="M625 1378q132 0 203.5 -67t39.5 -201l-94 -414h-196l6 25q-72 -43 -176 -43q-109 0 -172.5 48.5t-63.5 133.5q0 104 94.5 173t237.5 69h168l4 20q9 46 -12.5 73.5t-73.5 27.5q-85 0 -137 -93l-168 41q104 207 340 207zM457 823q64 0 117 42t65 98l2 10h-145
q-51 0 -86 -24.5t-35 -63.5q0 -29 22.5 -45.5t59.5 -16.5z" />
    <glyph glyph-name="guillemotleft" unicode="&#xab;" horiz-adv-x="966" 
d="M57 537l314 364h266l-332 -377l146 -352h-248zM426 537l313 364h267l-332 -377l145 -352h-248z" />
    <glyph glyph-name="registered" unicode="&#xae;" horiz-adv-x="942" 
d="M588 1403q171 0 290 -117t119 -295q0 -176 -119 -292.5t-290 -116.5t-290.5 116.5t-119.5 292.5q0 178 119.5 295t290.5 117zM588 662q136 0 231.5 94.5t95.5 234.5q0 143 -95 238.5t-232 95.5q-135 0 -230.5 -95.5t-95.5 -238.5q0 -140 95.5 -234.5t230.5 -94.5z
M766 1067q0 -44 -25.5 -76.5t-70.5 -46.5l116 -129h-98l-106 121h-62v-121h-82v377h174q69 0 111.5 -34t42.5 -91zM520 1010h92q32 0 52 15t20 40t-19.5 39t-52.5 14h-92v-108z" />
    <glyph glyph-name="macron" unicode="&#xaf;" horiz-adv-x="1228" 
d="M1026 1171h-651l49 222h651z" />
    <glyph glyph-name="degree" unicode="&#xb0;" horiz-adv-x="854" 
d="M578 1403q121 0 203.5 -77t82.5 -202q0 -143 -100.5 -234t-239.5 -91q-123 0 -205.5 76.5t-82.5 199.5q0 145 101 236.5t241 91.5zM539 967q55 0 97 40t42 107q0 55 -34 88t-81 33q-56 0 -98.5 -39.5t-42.5 -105.5q0 -56 34.5 -89.5t82.5 -33.5z" />
    <glyph glyph-name="plusminus" unicode="&#xb1;" horiz-adv-x="1191" 
d="M1161 915l-55 -235h-352l-70 -299h-238l70 299h-352l55 235h352l78 340h238l-78 -340h352zM61 236h943l-56 -236h-942z" />
    <glyph glyph-name="acute" unicode="&#xb4;" horiz-adv-x="1228" 
d="M827 1161h-245l204 295h334z" />
    <glyph glyph-name="paragraph" unicode="&#xb6;" horiz-adv-x="1228" 
d="M666 0h-205l141 612h-102q-157 0 -253.5 84.5t-96.5 225.5q0 208 138.5 329t358.5 121h336zM967 0h-205l317 1372h205z" />
    <glyph glyph-name="periodcentered" unicode="&#xb7;" horiz-adv-x="495" 
d="M252 686q69 0 115.5 -47t46.5 -111q0 -66 -46 -110.5t-116 -44.5t-116 44.5t-46 110.5q0 64 46.5 111t115.5 47z" />
    <glyph glyph-name="cedilla" unicode="&#xb8;" horiz-adv-x="1228" 
d="M457 0h198l-182 -328h-307z" />
    <glyph glyph-name="ordmasculine" unicode="&#xba;" horiz-adv-x="880" 
d="M582 1378q147 0 245.5 -91.5t98.5 -235.5q0 -162 -116 -267.5t-278 -105.5q-142 0 -240.5 92t-98.5 236q0 107 54.5 193.5t143 132.5t191.5 46zM545 858q74 0 128 52t54 128q0 68 -45.5 114t-112.5 46q-69 0 -122.5 -52.5t-53.5 -127.5q0 -67 45 -113.5t107 -46.5z" />
    <glyph glyph-name="guillemotright" unicode="&#xbb;" horiz-adv-x="966" 
d="M553 537l-313 -365h-267l332 377l-145 352h248zM922 537l-314 -365h-266l332 377l-146 352h248z" />
    <glyph glyph-name="onequarter" unicode="&#xbc;" horiz-adv-x="1554" 
d="M1544 1372l-1321 -1372h-178l1321 1372h178zM342 1126l-190 -88l45 201l270 133h129l-178 -778h-197zM1378 303h113l-35 -160h-113l-32 -143h-185l33 143h-426l39 176l485 459h230zM1196 303l66 277l-299 -277h233z" />
    <glyph glyph-name="onehalf" unicode="&#xbd;" horiz-adv-x="1667" 
d="M1544 1372l-1321 -1372h-178l1321 1372h178zM342 1126l-190 -88l45 201l270 133h129l-178 -778h-197zM1253 172h269l-35 -172h-590l33 131l327 242q53 41 79.5 64t48.5 54.5t22 61.5q0 38 -24.5 61t-65.5 23q-55 0 -90 -39t-43 -106l-174 28q7 126 98.5 202.5t222.5 76.5
q121 0 187.5 -66.5t66.5 -171.5q0 -37 -10.5 -70.5t-26 -60t-47.5 -58.5t-61 -56t-80 -64z" />
    <glyph glyph-name="threequarters" unicode="&#xbe;" horiz-adv-x="1763" 
d="M745 842q-5 -119 -97 -193t-236 -74q-129 0 -208.5 72t-78.5 189l168 38q3 -64 40.5 -102.5t96.5 -38.5q60 0 97.5 29.5t37.5 75.5q0 88 -104 88h-92l37 141h100q53 0 88.5 26t36.5 68q2 42 -25 67t-80 25q-54 0 -93.5 -40.5t-51.5 -106.5l-162 37q18 116 106.5 190
t217.5 74q123 0 197 -63.5t71 -161.5q-3 -138 -139 -193q76 -48 73 -147zM1733 1372l-1321 -1372h-179l1321 1372h179zM1587 303h113l-35 -160h-113l-32 -143h-185l33 143h-426l39 176l485 459h230zM1405 303l65 277l-299 -277h234z" />
    <glyph glyph-name="questiondown" unicode="&#xbf;" horiz-adv-x="1095" 
d="M639 735q-69 0 -115.5 47t-46.5 111q0 66 46 111t116 45t116 -45t46 -111q0 -64 -46.5 -111t-115.5 -47zM692 113l252 -52q-30 -178 -182 -300.5t-367 -122.5q-198 0 -325 107t-127 280q0 123 67 221.5t177 154.5t245 68l27 111h248l-74 -320h-156q-57 0 -117.5 -22.5
t-107.5 -73t-47 -115.5q0 -80 57.5 -126t147.5 -46q106 0 180.5 66t101.5 170z" />
    <glyph glyph-name="Agrave" unicode="&#xc0;" horiz-adv-x="1468" 
d="M864 1511l-293 295h334l205 -295h-246zM1350 0h-285l-51 293h-606l-189 -293h-317l911 1372h260zM969 545l-86 489l-314 -489h400z" />
    <glyph glyph-name="Aacute" unicode="&#xc1;" horiz-adv-x="1468" 
d="M1106 1511h-246l205 295h334zM1073 1372l277 -1372h-285l-51 293h-606l-189 -293h-317l911 1372h260zM969 545l-86 489l-314 -489h400z" />
    <glyph glyph-name="Acircumflex" unicode="&#xc2;" horiz-adv-x="1468" 
d="M946 1493h-282l305 305h256l161 -305h-253l-64 127zM1073 1372l277 -1372h-285l-51 293h-606l-189 -293h-317l911 1372h260zM969 545l-86 489l-314 -489h400z" />
    <glyph glyph-name="Atilde" unicode="&#xc3;" horiz-adv-x="1468" 
d="M899 1622q-27 0 -47.5 -21.5t-26.5 -52.5h-178q17 77 50.5 132.5t74 83.5t79 40.5t77.5 12.5q45 0 80 -12.5t52.5 -27.5t43 -27.5t55.5 -12.5q27 0 47.5 23t28.5 57h178q-18 -78 -51.5 -134.5t-74 -85t-79 -41t-78.5 -12.5q-47 0 -82 12t-52 27t-42.5 27t-54.5 12z
M1073 1372l277 -1372h-285l-51 293h-606l-189 -293h-317l911 1372h260zM969 545l-86 489l-314 -489h400z" />
    <glyph glyph-name="Adieresis" unicode="&#xc4;" horiz-adv-x="1468" 
d="M788 1501q-70 0 -115.5 45.5t-45.5 114.5q0 65 46 112.5t115 47.5t116.5 -48t47.5 -112q0 -69 -46.5 -114.5t-117.5 -45.5zM1231 1501q-70 0 -116 45.5t-46 114.5q0 65 46.5 112.5t115.5 47.5t116.5 -48t47.5 -112q0 -69 -46.5 -114.5t-117.5 -45.5zM1073 1372l277 -1372
h-285l-51 293h-606l-189 -293h-317l911 1372h260zM969 545l-86 489l-314 -489h400z" />
    <glyph glyph-name="Aring" unicode="&#xc5;" horiz-adv-x="1468" 
d="M995 1464q-97 0 -161 63t-64 156q0 104 77 178t185 74q97 0 161 -63t64 -156q0 -104 -77 -178t-185 -74zM1020 1782q-37 0 -61.5 -26t-24.5 -62q0 -32 20 -54t54 -22q38 0 65 27t27 63q0 31 -22.5 52.5t-57.5 21.5zM1350 0h-285l-51 293h-606l-189 -293h-317l911 1372
h260zM969 545l-86 489l-314 -489h400z" />
    <glyph glyph-name="AE" unicode="&#xc6;" horiz-adv-x="2357" 
d="M1620 1120l-72 -309h701l-58 -248h-700l-72 -311h764l-57 -252h-1043l58 252h-609l-260 -252h-370l1462 1372h1073l-57 -252h-760zM1317 1012l-524 -508h407z" />
    <glyph glyph-name="Ccedilla" unicode="&#xc7;" horiz-adv-x="1568" 
d="M778 227q150 0 263.5 77.5t160.5 199.5l256 -80q-72 -202 -239 -324t-414 -131l-166 -297h-307l276 314q-225 44 -357 210t-132 404q0 161 63.5 308.5t171.5 256t262 173.5t326 65q256 0 423.5 -133.5t186.5 -354.5l-286 -55q-20 132 -101.5 208.5t-226.5 76.5
q-139 0 -262.5 -69t-199 -191t-75.5 -267q0 -171 102.5 -281t274.5 -110z" />
    <glyph glyph-name="Egrave" unicode="&#xc8;" horiz-adv-x="1300" 
d="M815 1511l-293 295h334l205 -295h-246zM563 1120l-71 -309h700l-57 -248h-701l-72 -311h764l-57 -252h-1042l315 1372h1038l-57 -252h-760z" />
    <glyph glyph-name="Eacute" unicode="&#xc9;" horiz-adv-x="1300" 
d="M1057 1511h-246l205 295h334zM563 1120l-71 -309h700l-57 -248h-701l-72 -311h764l-57 -252h-1042l315 1372h1038l-57 -252h-760z" />
    <glyph glyph-name="Ecircumflex" unicode="&#xca;" horiz-adv-x="1300" 
d="M897 1493h-283l306 305h256l161 -305h-254l-63 127zM563 1120l-71 -309h700l-57 -248h-701l-72 -311h764l-57 -252h-1042l315 1372h1038l-57 -252h-760z" />
    <glyph glyph-name="Edieresis" unicode="&#xcb;" horiz-adv-x="1300" 
d="M739 1501q-70 0 -115.5 45.5t-45.5 114.5q0 65 46 112.5t115 47.5t116.5 -48t47.5 -112q0 -69 -46.5 -114.5t-117.5 -45.5zM1182 1501q-70 0 -116 45.5t-46 114.5q0 65 46.5 112.5t115.5 47.5t116.5 -48t47.5 -112q0 -69 -46.5 -114.5t-117.5 -45.5zM563 1120l-71 -309
h700l-57 -248h-701l-72 -311h764l-57 -252h-1042l315 1372h1038l-57 -252h-760z" />
    <glyph glyph-name="Igrave" unicode="&#xcc;" horiz-adv-x="567" 
d="M442 1806l205 -295h-246l-292 295h333zM305 0h-278l315 1372h279z" />
    <glyph glyph-name="Iacute" unicode="&#xcd;" horiz-adv-x="567" 
d="M643 1511h-246l205 295h334zM305 0h-278l315 1372h279z" />
    <glyph glyph-name="Icircumflex" unicode="&#xce;" horiz-adv-x="567" 
d="M924 1493h-254l-64 127l-123 -127h-282l305 305h256zM342 1372h279l-316 -1372h-278z" />
    <glyph glyph-name="Idieresis" unicode="&#xcf;" horiz-adv-x="567" 
d="M326 1821q69 0 116 -48t47 -112q0 -69 -46.5 -114.5t-116.5 -45.5t-116 45.5t-46 114.5q0 65 46.5 112.5t115.5 47.5zM768 1821q69 0 116.5 -48t47.5 -112q0 -69 -46.5 -114.5t-117.5 -45.5q-70 0 -116 45.5t-46 114.5q0 65 46.5 112.5t115.5 47.5zM305 0h-278l315 1372
h279z" />
    <glyph glyph-name="Eth" unicode="&#xd0;" horiz-adv-x="1591" 
d="M434 1372h506q287 0 451.5 -155t164.5 -416q0 -168 -71 -317.5t-192.5 -255t-289.5 -167t-356 -61.5h-530l131 563h-191l58 252h190zM453 252h161q125 0 243 39t209.5 108.5t146.5 173t55 224.5q0 157 -93.5 240t-267.5 83h-254l-69 -305h243l-57 -252h-246z" />
    <glyph glyph-name="Ntilde" unicode="&#xd1;" horiz-adv-x="1560" 
d="M944 1622q-27 0 -47.5 -21.5t-26.5 -52.5h-178q17 77 50.5 132.5t74 83.5t79 40.5t77.5 12.5q45 0 80 -12.5t52.5 -27.5t43 -27.5t55.5 -12.5q27 0 47.5 23t28.5 57h178q-15 -63 -40 -112t-53.5 -79t-62.5 -49t-64.5 -26t-61.5 -7q-47 0 -82 12t-52.5 27t-43 27t-54.5 12
zM1610 1372l-316 -1372h-233l-541 909l-211 -909h-278l315 1372h234l536 -928l215 928h279z" />
    <glyph glyph-name="Ograve" unicode="&#xd2;" horiz-adv-x="1613" 
d="M946 1806l205 -295h-246l-293 295h334zM928 1407q209 0 366 -99t228.5 -264.5t44.5 -359.5q-44 -325 -266.5 -521t-534.5 -196q-207 -1 -363.5 94.5t-229.5 260.5t-46 364q28 197 145.5 363t291.5 262t364 96zM770 229q200 0 344 127.5t172 327.5q27 194 -80 326.5
t-282 132.5q-199 0 -344.5 -130.5t-173.5 -328.5q-18 -129 27.5 -234.5t135.5 -163t201 -57.5z" />
    <glyph glyph-name="Oacute" unicode="&#xd3;" horiz-adv-x="1613" 
d="M1147 1511h-246l205 295h334zM928 1407q209 0 366 -99t228.5 -264.5t44.5 -359.5q-44 -325 -266.5 -521t-534.5 -196q-207 -1 -363.5 94.5t-229.5 260.5t-46 364q28 197 145.5 363t291.5 262t364 96zM770 229q200 0 344 127.5t172 327.5q27 194 -80 326.5t-282 132.5
q-199 0 -344.5 -130.5t-173.5 -328.5q-18 -129 27.5 -234.5t135.5 -163t201 -57.5z" />
    <glyph glyph-name="Ocircumflex" unicode="&#xd4;" horiz-adv-x="1613" 
d="M987 1493h-282l305 305h256l161 -305h-253l-64 127zM928 1407q209 0 366 -99t228.5 -264.5t44.5 -359.5q-44 -325 -266.5 -521t-534.5 -196q-207 -1 -363.5 94.5t-229.5 260.5t-46 364q28 197 145.5 363t291.5 262t364 96zM1286 684q27 194 -80 326.5t-282 132.5
q-199 0 -344.5 -130.5t-173.5 -328.5q-18 -129 27.5 -234.5t135.5 -163t201 -57.5q200 0 344 127.5t172 327.5z" />
    <glyph glyph-name="Otilde" unicode="&#xd5;" horiz-adv-x="1613" 
d="M866 1548h-178q17 77 50.5 132.5t74 83.5t79 40.5t77.5 12.5q45 0 80 -12.5t52.5 -27.5t43 -27.5t55.5 -12.5q27 0 47.5 23t28.5 57h178q-18 -78 -51.5 -134.5t-74 -85t-79 -41t-78.5 -12.5q-47 0 -82 12t-52 27t-42.5 27t-54.5 12q-27 0 -47.5 -21.5t-26.5 -52.5z
M928 1407q209 0 366 -99t228.5 -264.5t44.5 -359.5q-44 -325 -266.5 -521t-534.5 -196q-207 -1 -363.5 94.5t-229.5 260.5t-46 364q28 197 145.5 363t291.5 262t364 96zM770 229q200 0 344 127.5t172 327.5q27 194 -80 326.5t-282 132.5q-199 0 -344.5 -130.5t-173.5 -328.5
q-18 -129 27.5 -234.5t135.5 -163t201 -57.5z" />
    <glyph glyph-name="Odieresis" unicode="&#xd6;" horiz-adv-x="1613" 
d="M829 1821q69 0 116.5 -48t47.5 -112q0 -69 -46.5 -114.5t-117.5 -45.5q-70 0 -115.5 45.5t-45.5 114.5q0 65 46 112.5t115 47.5zM1272 1821q69 0 116.5 -48t47.5 -112q0 -69 -46.5 -114.5t-117.5 -45.5q-70 0 -116 45.5t-46 114.5q0 65 46.5 112.5t115.5 47.5zM928 1407
q209 0 366 -99t228.5 -264.5t44.5 -359.5q-44 -325 -266.5 -521t-534.5 -196q-207 -1 -363.5 94.5t-229.5 260.5t-46 364q28 197 145.5 363t291.5 262t364 96zM770 229q200 0 344 127.5t172 327.5q27 194 -80 326.5t-282 132.5q-199 0 -344.5 -130.5t-173.5 -328.5
q-18 -129 27.5 -234.5t135.5 -163t201 -57.5z" />
    <glyph glyph-name="multiply" unicode="&#xd7;" horiz-adv-x="1150" 
d="M762 616l217 -274l-184 -152l-220 277l-354 -285l-131 174l350 281l-213 270l187 152l215 -273l356 287l131 -174z" />
    <glyph glyph-name="Oslash" unicode="&#xd8;" horiz-adv-x="1613" 
d="M1671 1217l-168 -136q94 -182 64 -397q-44 -325 -266.5 -521t-534.5 -196q-266 0 -444 154l-205 -166l-144 180l209 170q-82 169 -55 381q28 197 145.5 363t291.5 262t364 96q255 0 432 -147l168 137zM406 684q-15 -103 10 -188l719 581q-91 66 -211 66
q-199 0 -344.5 -130.5t-173.5 -328.5zM1286 684q15 110 -14 207l-725 -588q96 -74 223 -74q200 0 344 127.5t172 327.5z" />
    <glyph glyph-name="Ugrave" unicode="&#xd9;" horiz-adv-x="1456" 
d="M838 1511l-293 295h334l204 -295h-245zM1524 1372l-174 -758q-69 -301 -250 -473t-467 -172q-120 0 -222.5 46.5t-169.5 131.5t-92.5 204t7.5 263l174 758h278l-174 -758q-40 -172 25 -275t213 -103q140 0 249.5 103.5t149.5 274.5l174 758h279z" />
    <glyph glyph-name="Uacute" unicode="&#xda;" horiz-adv-x="1456" 
d="M1079 1511h-245l204 295h334zM1524 1372l-174 -758q-69 -301 -250 -473t-467 -172q-120 0 -222.5 46.5t-169.5 131.5t-92.5 204t7.5 263l174 758h278l-174 -758q-40 -172 25 -275t213 -103q140 0 249.5 103.5t149.5 274.5l174 758h279z" />
    <glyph glyph-name="Ucircumflex" unicode="&#xdb;" horiz-adv-x="1456" 
d="M920 1493h-283l305 305h256l162 -305h-254l-64 127zM1524 1372l-174 -758q-69 -301 -250 -473t-467 -172q-120 0 -222.5 46.5t-169.5 131.5t-92.5 204t7.5 263l174 758h278l-174 -758q-40 -172 25 -275t213 -103q140 0 249.5 103.5t149.5 274.5l174 758h279z" />
    <glyph glyph-name="Udieresis" unicode="&#xdc;" horiz-adv-x="1456" 
d="M762 1501q-70 0 -116 45.5t-46 114.5q0 65 46.5 112.5t115.5 47.5t116.5 -48t47.5 -112q0 -69 -46.5 -114.5t-117.5 -45.5zM1204 1501q-70 0 -116 45.5t-46 114.5q0 65 46.5 112.5t115.5 47.5t116.5 -48t47.5 -112q0 -69 -46.5 -114.5t-117.5 -45.5zM1524 1372l-174 -758
q-69 -301 -250 -473t-467 -172q-120 0 -222.5 46.5t-169.5 131.5t-92.5 204t7.5 263l174 758h278l-174 -758q-40 -172 25 -275t213 -103q140 0 249.5 103.5t149.5 274.5l174 758h279z" />
    <glyph glyph-name="Yacute" unicode="&#xdd;" horiz-adv-x="1415" 
d="M1008 1511h-246l205 295h333zM823 438l-100 -438h-279l101 434l-326 938h289l225 -647l522 647h338z" />
    <glyph glyph-name="Thorn" unicode="&#xde;" horiz-adv-x="1339" 
d="M569 1149h275q207 0 334 -104.5t127 -276.5q0 -155 -74 -280.5t-200 -195t-277 -69.5h-398l-51 -223h-278l315 1372h279zM414 475h321q122 0 203.5 73.5t81.5 180.5q0 79 -48.5 123.5t-137.5 44.5h-324z" />
    <glyph glyph-name="germandbls" unicode="&#xdf;" horiz-adv-x="1355" 
d="M1071 770q203 -82 203 -307q0 -93 -34 -176.5t-99.5 -151t-172.5 -107.5t-241 -40q-122 0 -262 26l65 224q143 -25 203 -25q130 0 216.5 71t86.5 171q0 89 -72 143.5t-188 54.5h-96l51 221h39q114 0 197.5 61.5t83.5 156.5q0 83 -54 132.5t-147 49.5q-122 0 -207 -77
t-117 -216l-225 -981h-270l221 981q26 116 76.5 209.5t127 166t186.5 112.5t245 40q195 0 310.5 -105t115.5 -263q0 -118 -65.5 -218t-176.5 -153z" />
    <glyph glyph-name="agrave" unicode="&#xe0;" horiz-adv-x="1318" 
d="M678 1161l-293 295h334l205 -295h-246zM1292 1022l-237 -1022h-271l17 70q-132 -101 -324 -101q-97 0 -181.5 40t-143 110t-84.5 173t-7 220q38 241 203.5 391t384.5 150q245 0 342 -162l31 131h270zM561 205q115 0 216.5 86t123.5 221t-52.5 220t-189.5 85
q-128 0 -220 -84t-115 -221q-23 -139 44.5 -223t192.5 -84z" />
    <glyph glyph-name="aacute" unicode="&#xe1;" horiz-adv-x="1318" 
d="M920 1161h-246l205 295h333zM1292 1022l-237 -1022h-271l17 70q-132 -101 -324 -101q-97 0 -181.5 40t-143 110t-84.5 173t-7 220q38 241 203.5 391t384.5 150q245 0 342 -162l31 131h270zM561 205q115 0 216.5 86t123.5 221t-52.5 220t-189.5 85q-128 0 -220 -84
t-115 -221q-23 -139 44.5 -223t192.5 -84z" />
    <glyph glyph-name="acircumflex" unicode="&#xe2;" horiz-adv-x="1318" 
d="M760 1143h-283l305 305h256l162 -305h-254l-63 127zM1292 1022l-237 -1022h-271l17 70q-132 -101 -324 -101q-97 0 -181.5 40t-143 110t-84.5 173t-7 220q38 241 203.5 391t384.5 150q245 0 342 -162l31 131h270zM561 205q115 0 216.5 86t123.5 221t-52.5 220t-189.5 85
q-128 0 -220 -84t-115 -221q-23 -139 44.5 -223t192.5 -84z" />
    <glyph glyph-name="atilde" unicode="&#xe3;" horiz-adv-x="1318" 
d="M713 1272q-27 0 -47.5 -21.5t-26.5 -52.5h-178q17 77 50 132t73.5 83t79 40.5t77.5 12.5q45 0 80 -12.5t53 -27.5t43.5 -27.5t55.5 -12.5q27 0 47.5 23t28.5 57h178q-18 -78 -51.5 -134t-74 -84.5t-79 -41t-78.5 -12.5q-47 0 -82 12t-52 27t-42.5 27t-54.5 12zM1292 1022
l-237 -1022h-271l17 70q-132 -101 -324 -101q-97 0 -181.5 40t-143 110t-84.5 173t-7 220q38 241 203.5 391t384.5 150q245 0 342 -162l31 131h270zM561 205q115 0 216.5 86t123.5 221t-52.5 220t-189.5 85q-128 0 -220 -84t-115 -221q-23 -139 44.5 -223t192.5 -84z" />
    <glyph glyph-name="adieresis" unicode="&#xe4;" horiz-adv-x="1318" 
d="M602 1151q-70 0 -116 45.5t-46 114.5q0 64 46.5 111.5t115.5 47.5t116.5 -47.5t47.5 -111.5q0 -69 -46.5 -114.5t-117.5 -45.5zM1044 1151q-70 0 -115.5 45.5t-45.5 114.5q0 65 46 112t115 47t116.5 -47.5t47.5 -111.5q0 -69 -46.5 -114.5t-117.5 -45.5zM1292 1022
l-237 -1022h-271l17 70q-132 -101 -324 -101q-97 0 -181.5 40t-143 110t-84.5 173t-7 220q38 241 203.5 391t384.5 150q245 0 342 -162l31 131h270zM561 205q115 0 216.5 86t123.5 221t-52.5 220t-189.5 85q-128 0 -220 -84t-115 -221q-23 -139 44.5 -223t192.5 -84z" />
    <glyph glyph-name="aring" unicode="&#xe5;" horiz-adv-x="1318" 
d="M809 1114q-97 0 -161 63t-64 156q0 104 77 178t185 74q97 0 161 -63t64 -156q0 -104 -77 -178t-185 -74zM834 1432q-37 0 -61.5 -26.5t-24.5 -62.5q0 -32 19.5 -53.5t53.5 -21.5q38 0 65 27t27 63q0 31 -22 52.5t-57 21.5zM1292 1022l-237 -1022h-271l17 70
q-132 -101 -324 -101q-97 0 -181.5 40t-143 110t-84.5 173t-7 220q38 241 203.5 391t384.5 150q245 0 342 -162l31 131h270zM561 205q115 0 216.5 86t123.5 221t-52.5 220t-189.5 85q-128 0 -220 -84t-115 -221q-23 -139 44.5 -223t192.5 -84z" />
    <glyph glyph-name="ae" unicode="&#xe6;" horiz-adv-x="1839" 
d="M1337 1053q216 0 344 -152t91 -391l-15 -92h-774q9 -104 68.5 -160.5t162.5 -56.5q164 0 259 133l233 -51q-65 -141 -208 -227.5t-318 -86.5q-228 0 -344 168q-85 -73 -207 -120.5t-254 -47.5q-172 0 -268.5 80.5t-96.5 214.5q0 151 117.5 247.5t314.5 96.5h322l6 39
q13 81 -33.5 130.5t-134.5 49.5q-79 0 -138.5 -41t-82.5 -114l-240 51q42 145 179 237.5t323 92.5q222 0 328 -127q169 127 366 127zM1010 608h503q-4 109 -60.5 163t-143.5 54q-93 0 -178 -57t-121 -160zM735 418h-301q-84 0 -130 -34.5t-46 -88.5q0 -52 41.5 -81.5
t108.5 -29.5q69 0 140.5 28.5t122.5 77.5t60 103z" />
    <glyph glyph-name="ccedilla" unicode="&#xe7;" horiz-adv-x="1163" 
d="M549 217q190 0 274 178l258 -43q-64 -156 -191 -256.5t-286 -122.5l-168 -301h-307l272 310q-189 37 -288 180.5t-66 347.5q38 237 221 390t412 153q180 0 305 -103t148 -274l-279 -51q-6 88 -63.5 134t-149.5 46q-127 0 -218.5 -82t-113.5 -213q-20 -132 46 -212.5
t194 -80.5z" />
    <glyph glyph-name="egrave" unicode="&#xe8;" horiz-adv-x="1177" 
d="M600 1161l-293 295h334l205 -295h-246zM666 1053q111 0 202 -43t151.5 -122.5t84 -193.5t-1.5 -256h-795q3 -237 242 -237q166 0 260 145l242 -61q-74 -155 -213 -235.5t-306 -80.5q-217 0 -345 127.5t-128 339.5q0 130 51.5 246.5t136 197t194.5 127t225 46.5zM346 629
h526q-13 99 -72.5 148.5t-154.5 49.5q-102 0 -180 -54t-119 -144z" />
    <glyph glyph-name="eacute" unicode="&#xe9;" horiz-adv-x="1177" 
d="M842 1161h-246l205 295h334zM666 1053q111 0 202 -43t151.5 -122.5t84 -193.5t-1.5 -256h-795q3 -237 242 -237q166 0 260 145l242 -61q-74 -155 -213 -235.5t-306 -80.5q-217 0 -345 127.5t-128 339.5q0 130 51.5 246.5t136 197t194.5 127t225 46.5zM346 629h526
q-13 99 -72.5 148.5t-154.5 49.5q-102 0 -180 -54t-119 -144z" />
    <glyph glyph-name="ecircumflex" unicode="&#xea;" horiz-adv-x="1177" 
d="M682 1143h-283l306 305h256l161 -305h-254l-63 127zM666 1053q111 0 202 -43t151.5 -122.5t84 -193.5t-1.5 -256h-795q3 -237 242 -237q166 0 260 145l242 -61q-74 -155 -213 -235.5t-306 -80.5q-217 0 -345 127.5t-128 339.5q0 130 51.5 246.5t136 197t194.5 127
t225 46.5zM346 629h526q-13 99 -72.5 148.5t-154.5 49.5q-102 0 -180 -54t-119 -144z" />
    <glyph glyph-name="edieresis" unicode="&#xeb;" horiz-adv-x="1177" 
d="M524 1151q-70 0 -116 45.5t-46 114.5q0 64 46.5 111.5t115.5 47.5t116.5 -47.5t47.5 -111.5q0 -69 -46.5 -114.5t-117.5 -45.5zM967 1151q-70 0 -116 45.5t-46 114.5q0 64 46.5 111.5t115.5 47.5t116 -47.5t47 -111.5q0 -69 -46.5 -114.5t-116.5 -45.5zM666 1053
q111 0 202 -43t151.5 -122.5t84 -193.5t-1.5 -256h-795q3 -237 242 -237q166 0 260 145l242 -61q-74 -155 -213 -235.5t-306 -80.5q-217 0 -345 127.5t-128 339.5q0 130 51.5 246.5t136 197t194.5 127t225 46.5zM346 629h526q-13 99 -72.5 148.5t-154.5 49.5
q-102 0 -180 -54t-119 -144z" />
    <glyph glyph-name="igrave" unicode="&#xec;" horiz-adv-x="606" 
d="M383 1456l205 -295h-246l-293 295h334zM319 0h-270l238 1022h270z" />
    <glyph glyph-name="iacute" unicode="&#xed;" horiz-adv-x="606" 
d="M584 1161h-246l205 295h334zM319 0h-270l238 1022h270z" />
    <glyph glyph-name="icircumflex" unicode="&#xee;" horiz-adv-x="606" 
d="M864 1143h-254l-63 127l-123 -127h-283l305 305h256zM287 1022h270l-238 -1022h-270z" />
    <glyph glyph-name="idieresis" unicode="&#xef;" horiz-adv-x="606" 
d="M266 1470q69 0 116.5 -47.5t47.5 -111.5q0 -69 -46.5 -114.5t-117.5 -45.5q-70 0 -116 45.5t-46 114.5q0 64 46.5 111.5t115.5 47.5zM709 1470q69 0 116 -47.5t47 -111.5q0 -69 -46.5 -114.5t-116.5 -45.5t-116 45.5t-46 114.5q0 64 46.5 111.5t115.5 47.5zM319 0h-270
l238 1022h270z" />
    <glyph glyph-name="eth" unicode="&#xf0;" horiz-adv-x="1247" 
d="M1087 1309l-137 -52q107 -136 174.5 -302.5t67.5 -344.5q0 -125 -36 -232t-97.5 -181t-142 -126.5t-170 -77t-181.5 -24.5q-138 0 -251.5 54t-184 164.5t-70.5 258.5q0 125 50 238.5t131.5 193.5t189.5 127.5t221 47.5q76 0 146 -25q-43 74 -99 135l-299 -112l-47 186
l172 66q-101 61 -241 116l8 56h424q42 -23 90 -68l237 90zM584 215q98 0 176.5 53t118 131t39.5 162q0 110 -70 182t-184 72q-136 0 -237 -100t-101 -244q0 -120 73 -188t185 -68z" />
    <glyph glyph-name="ntilde" unicode="&#xf1;" horiz-adv-x="1265" 
d="M715 1272q-27 0 -47.5 -21.5t-26.5 -52.5h-178q17 77 50 132t73.5 83t79 40.5t77.5 12.5q45 0 80 -12.5t53 -27.5t43.5 -27.5t55.5 -12.5q27 0 47.5 23t28.5 57h178q-18 -78 -51.5 -134t-74 -84.5t-79 -41t-78.5 -12.5q-47 0 -82 12t-52 27t-42.5 27t-54.5 12zM809 1053
q140 0 230 -69t118.5 -178.5t-0.5 -240.5l-131 -565h-270l133 578q25 109 -23.5 174t-150.5 65q-233 0 -316 -364l-104 -453h-270l235 1022h270l-22 -96q118 127 301 127z" />
    <glyph glyph-name="ograve" unicode="&#xf2;" horiz-adv-x="1230" 
d="M641 1161l-293 295h334l205 -295h-246zM682 1047q112 0 209.5 -39t165.5 -108t99.5 -171t12.5 -219q-38 -238 -212.5 -387.5t-401.5 -149.5q-114 0 -213 39t-168 108t-100.5 170.5t-12.5 219.5q25 158 115 281t222 189.5t284 66.5zM569 205q72 0 143 35.5t125.5 107
t69.5 162.5q22 136 -52 220.5t-187 84.5q-117 0 -219.5 -84.5t-124.5 -220.5t53 -220.5t192 -84.5z" />
    <glyph glyph-name="oacute" unicode="&#xf3;" horiz-adv-x="1230" 
d="M883 1161h-246l205 295h334zM682 1047q112 0 209.5 -39t165.5 -108t99.5 -171t12.5 -219q-38 -238 -212.5 -387.5t-401.5 -149.5q-114 0 -213 39t-168 108t-100.5 170.5t-12.5 219.5q25 158 115 281t222 189.5t284 66.5zM569 205q72 0 143 35.5t125.5 107t69.5 162.5
q22 136 -52 220.5t-187 84.5q-117 0 -219.5 -84.5t-124.5 -220.5t53 -220.5t192 -84.5z" />
    <glyph glyph-name="ocircumflex" unicode="&#xf4;" horiz-adv-x="1230" 
d="M723 1143h-283l305 305h256l162 -305h-254l-63 127zM682 1047q112 0 209.5 -39t165.5 -108t99.5 -171t12.5 -219q-38 -238 -212.5 -387.5t-401.5 -149.5q-114 0 -213 39t-168 108t-100.5 170.5t-12.5 219.5q25 158 115 281t222 189.5t284 66.5zM569 205q72 0 143 35.5
t125.5 107t69.5 162.5q22 136 -52 220.5t-187 84.5q-117 0 -219.5 -84.5t-124.5 -220.5t53 -220.5t192 -84.5z" />
    <glyph glyph-name="otilde" unicode="&#xf5;" horiz-adv-x="1230" 
d="M676 1272q-27 0 -47.5 -21.5t-26.5 -52.5h-178q17 77 50.5 132t74 83t79 40.5t77.5 12.5q45 0 80 -12.5t52.5 -27.5t43 -27.5t55.5 -12.5q27 0 47.5 23t28.5 57h178q-18 -78 -51.5 -134t-74 -84.5t-79 -41t-78.5 -12.5q-47 0 -82 12t-52 27t-42.5 27t-54.5 12zM682 1047
q112 0 209.5 -39t165.5 -108t99.5 -171t12.5 -219q-38 -238 -212.5 -387.5t-401.5 -149.5q-114 0 -213 39t-168 108t-100.5 170.5t-12.5 219.5q25 158 115 281t222 189.5t284 66.5zM569 205q72 0 143 35.5t125.5 107t69.5 162.5q22 136 -52 220.5t-187 84.5
q-117 0 -219.5 -84.5t-124.5 -220.5t53 -220.5t192 -84.5z" />
    <glyph glyph-name="odieresis" unicode="&#xf6;" horiz-adv-x="1230" 
d="M565 1151q-70 0 -116 45.5t-46 114.5q0 64 46.5 111.5t115.5 47.5t116.5 -47.5t47.5 -111.5q0 -69 -46.5 -114.5t-117.5 -45.5zM1008 1151q-70 0 -116 45.5t-46 114.5q0 64 46.5 111.5t115.5 47.5t116 -47.5t47 -111.5q0 -69 -46.5 -114.5t-116.5 -45.5zM682 1047
q112 0 209.5 -39t165.5 -108t99.5 -171t12.5 -219q-38 -238 -212.5 -387.5t-401.5 -149.5q-114 0 -213 39t-168 108t-100.5 170.5t-12.5 219.5q25 158 115 281t222 189.5t284 66.5zM569 205q72 0 143 35.5t125.5 107t69.5 162.5q22 136 -52 220.5t-187 84.5
q-117 0 -219.5 -84.5t-124.5 -220.5t53 -220.5t192 -84.5z" />
    <glyph glyph-name="divide" unicode="&#xf7;" horiz-adv-x="1189" 
d="M678 1141q69 0 115.5 -47t46.5 -111q0 -66 -46 -111t-116 -45t-116 45t-46 111q0 64 46.5 111t115.5 47zM1065 506h-942l55 237h942zM512 424q69 0 115.5 -47t46.5 -111q0 -66 -46 -110.5t-116 -44.5t-116 44.5t-46 110.5q0 64 46.5 111t115.5 47z" />
    <glyph glyph-name="oslash" unicode="&#xf8;" horiz-adv-x="1230" 
d="M1270 928l-137 -113q75 -134 49 -305q-38 -238 -212.5 -387.5t-402.5 -149.5q-198 0 -338 109l-143 -117l-100 131l137 111q-75 134 -49 303q25 158 114.5 281t221.5 189.5t284 66.5q192 0 330 -107l145 119zM336 510q-12 -68 4 -125l477 389q-59 41 -137 41
q-117 0 -219.5 -84.5t-124.5 -220.5zM920 510q11 63 -7 129l-479 -391q64 -43 148 -43q72 0 143 35.5t125.5 107t69.5 162.5z" />
    <glyph glyph-name="ugrave" unicode="&#xf9;" horiz-adv-x="1265" 
d="M627 1161l-293 295h334l204 -295h-245zM1241 1022l-235 -1022h-271l23 96q-118 -127 -301 -127q-140 0 -230 69t-118.5 178.5t0.5 240.5l131 565h270l-133 -578q-25 -109 23.5 -174t150.5 -65q232 0 315 364l105 453h270z" />
    <glyph glyph-name="uacute" unicode="&#xfa;" horiz-adv-x="1265" 
d="M868 1161h-245l204 295h334zM1241 1022l-235 -1022h-271l23 96q-118 -127 -301 -127q-140 0 -230 69t-118.5 178.5t0.5 240.5l131 565h270l-133 -578q-25 -109 23.5 -174t150.5 -65q232 0 315 364l105 453h270z" />
    <glyph glyph-name="ucircumflex" unicode="&#xfb;" horiz-adv-x="1265" 
d="M709 1143h-283l305 305h256l162 -305h-254l-64 127zM1241 1022l-235 -1022h-271l23 96q-118 -127 -301 -127q-140 0 -230 69t-118.5 178.5t0.5 240.5l131 565h270l-133 -578q-25 -109 23.5 -174t150.5 -65q232 0 315 364l105 453h270z" />
    <glyph glyph-name="udieresis" unicode="&#xfc;" horiz-adv-x="1265" 
d="M551 1151q-70 0 -116 45.5t-46 114.5q0 64 46.5 111.5t115.5 47.5t116.5 -47.5t47.5 -111.5q0 -69 -46.5 -114.5t-117.5 -45.5zM993 1151q-70 0 -116 45.5t-46 114.5q0 64 46.5 111.5t115.5 47.5t116.5 -47.5t47.5 -111.5q0 -69 -46.5 -114.5t-117.5 -45.5zM1241 1022
l-235 -1022h-271l23 96q-118 -127 -301 -127q-140 0 -230 69t-118.5 178.5t0.5 240.5l131 565h270l-133 -578q-25 -109 23.5 -174t150.5 -65q232 0 315 364l105 453h270z" />
    <glyph glyph-name="yacute" unicode="&#xfd;" horiz-adv-x="1187" 
d="M864 1163h-246l205 295h334zM1276 1022l-891 -1370h-305l248 377l-189 993h281l119 -672l442 672h295z" />
    <glyph glyph-name="thorn" unicode="&#xfe;" horiz-adv-x="1320" 
d="M844 1053q97 0 181.5 -40t143 -110t84.5 -173t7 -220q-38 -241 -203.5 -391t-384.5 -150q-250 0 -344 166l-113 -483h-270l422 1823h270l-121 -525q134 103 328 103zM662 205q128 0 220 84t115 221q23 139 -44.5 223t-192.5 84q-115 0 -216.5 -86t-123.5 -221t52.5 -220
t189.5 -85z" />
    <glyph glyph-name="ydieresis" unicode="&#xff;" horiz-adv-x="1187" 
d="M547 1153q-70 0 -116 45.5t-46 114.5q0 65 46.5 112.5t115.5 47.5t116.5 -48t47.5 -112q0 -69 -46.5 -114.5t-117.5 -45.5zM989 1153q-70 0 -116 45.5t-46 114.5q0 65 46.5 112.5t115.5 47.5t116.5 -48t47.5 -112q0 -69 -46.5 -114.5t-117.5 -45.5zM1276 1022l-891 -1370
h-305l248 377l-189 993h281l119 -672l442 672h295z" />
    <glyph glyph-name="Amacron" unicode="&#x100;" horiz-adv-x="1468" 
d="M1305 1522h-652l49 221h652zM1073 1372l277 -1372h-285l-51 293h-606l-189 -293h-317l911 1372h260zM969 545l-86 489l-314 -489h400z" />
    <glyph glyph-name="amacron" unicode="&#x101;" horiz-adv-x="1318" 
d="M1118 1171h-651l49 222h651zM1292 1022l-237 -1022h-271l17 70q-132 -101 -324 -101q-97 0 -181.5 40t-143 110t-84.5 173t-7 220q38 241 203.5 391t384.5 150q245 0 342 -162l31 131h270zM561 205q115 0 216.5 86t123.5 221t-52.5 220t-189.5 85q-128 0 -220 -84
t-115 -221q-23 -139 44.5 -223t192.5 -84z" />
    <glyph glyph-name="Abreve" unicode="&#x102;" horiz-adv-x="1468" 
d="M967 1470q-158 0 -231.5 83.5t-39.5 224.5h209q-13 -54 13 -87.5t77 -33.5t93 33.5t55 87.5h237q-34 -142 -144.5 -225t-268.5 -83zM1073 1372l277 -1372h-285l-51 293h-606l-189 -293h-317l911 1372h260zM969 545l-86 489l-314 -489h400z" />
    <glyph glyph-name="abreve" unicode="&#x103;" horiz-adv-x="1318" 
d="M780 1120q-158 0 -231 83t-39 224h209q-13 -54 13 -87t77 -33t92.5 33t54.5 87h238q-34 -141 -145 -224t-269 -83zM1292 1022l-237 -1022h-271l17 70q-132 -101 -324 -101q-97 0 -181.5 40t-143 110t-84.5 173t-7 220q38 241 203.5 391t384.5 150q245 0 342 -162l31 131
h270zM561 205q115 0 216.5 86t123.5 221t-52.5 220t-189.5 85q-128 0 -220 -84t-115 -221q-23 -139 44.5 -223t192.5 -84z" />
    <glyph glyph-name="Aogonek" unicode="&#x104;" horiz-adv-x="1468" 
d="M1171 -205q0 -41 50 -41q25 0 102 23l-43 -168q-65 -39 -150 -39q-77 0 -124.5 43t-47.5 113q0 63 42 127.5t165 146.5h-100l-51 293h-606l-189 -293h-317l911 1372h260l277 -1372q-20 -18 -45.5 -41t-39 -35t-30.5 -28t-25 -24.5t-17 -20t-13 -19.5t-6.5 -17.5
t-2.5 -19.5zM969 545l-86 489l-314 -489h400z" />
    <glyph glyph-name="aogonek" unicode="&#x105;" horiz-adv-x="1318" 
d="M1292 1022l-237 -1022q-18 -16 -41 -37t-35.5 -32t-28.5 -26t-24 -23t-18 -19t-14.5 -18.5t-9 -16t-6 -16.5t-1.5 -17q0 -20 10.5 -30.5t38.5 -10.5q25 0 102 23l-43 -168q-65 -39 -149 -39q-77 0 -124.5 43t-47.5 113q0 63 41.5 127.5t164.5 146.5h-86l17 70
q-132 -101 -324 -101q-97 0 -181.5 40t-143 110t-84.5 173t-7 220q38 241 203.5 391t384.5 150q245 0 342 -162l31 131h270zM561 205q115 0 216.5 86t123.5 221t-52.5 220t-189.5 85q-128 0 -220 -84t-115 -221q-23 -139 44.5 -223t192.5 -84z" />
    <glyph glyph-name="Cacute" unicode="&#x106;" horiz-adv-x="1568" 
d="M1118 1511h-246l205 295h334zM942 1403q256 0 423.5 -133.5t186.5 -354.5l-286 -55q-20 132 -101.5 208.5t-226.5 76.5q-139 0 -262.5 -69t-199 -191t-75.5 -267q0 -171 102.5 -281t274.5 -110q150 0 263.5 77.5t160.5 199.5l256 -80q-73 -209 -250 -332t-438 -123
q-294 0 -472.5 175.5t-178.5 455.5q0 161 63.5 308.5t171.5 256t262 173.5t326 65z" />
    <glyph glyph-name="cacute" unicode="&#x107;" horiz-adv-x="1163" 
d="M838 1161h-246l205 295h333zM549 217q190 0 274 178l258 -43q-71 -175 -220.5 -279t-332.5 -104q-159 0 -277 67.5t-173.5 191.5t-30.5 282q38 237 221 390t412 153q180 0 305 -103t148 -274l-279 -51q-6 88 -63.5 134t-149.5 46q-127 0 -218.5 -82t-113.5 -213
q-20 -132 46 -212.5t194 -80.5z" />
    <glyph glyph-name="Cdotaccent" unicode="&#x10a;" horiz-adv-x="1568" 
d="M1024 1831q68 0 114 -45.5t46 -108.5q0 -67 -45.5 -111t-114.5 -44t-113.5 43.5t-44.5 111.5q0 63 45 108.5t113 45.5zM942 1403q256 0 423.5 -133.5t186.5 -354.5l-286 -55q-20 132 -101.5 208.5t-226.5 76.5q-139 0 -262.5 -69t-199 -191t-75.5 -267q0 -171 102.5 -281
t274.5 -110q150 0 263.5 77.5t160.5 199.5l256 -80q-73 -209 -250 -332t-438 -123q-294 0 -472.5 175.5t-178.5 455.5q0 161 63.5 308.5t171.5 256t262 173.5t326 65z" />
    <glyph glyph-name="cdotaccent" unicode="&#x10b;" horiz-adv-x="1163" 
d="M743 1171q-69 0 -113 44t-44 112q0 63 44.5 108.5t112.5 45.5t114 -45.5t46 -108.5q0 -67 -45.5 -111.5t-114.5 -44.5zM549 217q190 0 274 178l258 -43q-71 -175 -220.5 -279t-332.5 -104q-159 0 -277 67.5t-173.5 191.5t-30.5 282q38 237 221 390t412 153
q180 0 305 -103t148 -274l-279 -51q-6 88 -63.5 134t-149.5 46q-127 0 -218.5 -82t-113.5 -213q-20 -132 46 -212.5t194 -80.5z" />
    <glyph glyph-name="Ccaron" unicode="&#x10c;" horiz-adv-x="1568" 
d="M858 1493l-162 305h254l64 -127l123 127h282l-305 -305h-256zM778 227q150 0 263.5 77.5t160.5 199.5l256 -80q-73 -209 -250 -332t-438 -123q-294 0 -472.5 175.5t-178.5 455.5q0 161 63.5 308.5t171.5 256t262 173.5t326 65q256 0 423.5 -133.5t186.5 -354.5l-286 -55
q-20 132 -101.5 208.5t-226.5 76.5q-139 0 -262.5 -69t-199 -191t-75.5 -267q0 -171 102.5 -281t274.5 -110z" />
    <glyph glyph-name="ccaron" unicode="&#x10d;" horiz-adv-x="1163" 
d="M578 1143l-162 305h254l63 -127l123 127h283l-305 -305h-256zM641 805q-127 0 -218.5 -82t-113.5 -213q-20 -132 46 -212.5t194 -80.5q190 0 274 178l258 -43q-71 -175 -220.5 -279t-332.5 -104q-159 0 -277 67.5t-173.5 191.5t-30.5 282q38 237 221 390t412 153
q180 0 305 -103t148 -274l-279 -51q-6 88 -63.5 134t-149.5 46z" />
    <glyph glyph-name="Dcaron" unicode="&#x10e;" horiz-adv-x="1501" 
d="M825 1493l-161 305h254l63 -127l123 127h282l-305 -305h-256zM344 1372h506q287 0 451.5 -155t164.5 -416q0 -168 -71 -317.5t-192.5 -255t-289.5 -167t-356 -61.5h-530zM362 252h162q125 0 243 39t209.5 108.5t146.5 173t55 224.5q0 157 -93.5 240t-267.5 83h-254z" />
    <glyph glyph-name="dcaron" unicode="&#x10f;" horiz-adv-x="1314" 
d="M1112 1475h270l-340 -1475h-270l16 70q-138 -101 -325 -101q-97 0 -181.5 40t-143 110t-84.5 173t-7 220q38 241 203.5 391t384.5 150q246 0 342 -164zM1751 1475l-154 -408h-213l95 408h272zM547 205q115 0 216.5 86t123.5 221t-52.5 220t-189.5 85q-129 0 -221 -84
t-115 -221q-23 -139 45 -223t193 -84z" />
    <glyph glyph-name="Dcroat" unicode="&#x110;" horiz-adv-x="1591" 
d="M434 1372h506q287 0 451.5 -155t164.5 -416q0 -168 -71 -317.5t-192.5 -255t-289.5 -167t-356 -61.5h-530l131 563h-191l58 252h190zM453 252h161q125 0 243 39t209.5 108.5t146.5 173t55 224.5q0 157 -93.5 240t-267.5 83h-254l-69 -305h243l-57 -252h-246z" />
    <glyph glyph-name="dcroat" unicode="&#x111;" horiz-adv-x="1409" 
d="M1466 1130h-149l-260 -1130h-271l17 70q-138 -101 -326 -101q-97 0 -181.5 40t-143 110t-84.5 173t-7 220q38 241 203.5 391t384.5 150q246 0 342 -164l56 241h-273l51 218h273l28 127h271l-29 -127h150zM561 205q115 0 216.5 86t123.5 221t-52.5 220t-189.5 85
q-128 0 -220 -84t-115 -221q-23 -139 44.5 -223t192.5 -84z" />
    <glyph glyph-name="Emacron" unicode="&#x112;" horiz-adv-x="1300" 
d="M1255 1522h-651l49 221h652zM563 1120l-71 -309h700l-57 -248h-701l-72 -311h764l-57 -252h-1042l315 1372h1038l-57 -252h-760z" />
    <glyph glyph-name="emacron" unicode="&#x113;" horiz-adv-x="1177" 
d="M1040 1171h-651l49 222h652zM666 1053q111 0 202 -43t151.5 -122.5t84 -193.5t-1.5 -256h-795q3 -237 242 -237q166 0 260 145l242 -61q-74 -155 -213 -235.5t-306 -80.5q-217 0 -345 127.5t-128 339.5q0 130 51.5 246.5t136 197t194.5 127t225 46.5zM346 629h526
q-13 99 -72.5 148.5t-154.5 49.5q-102 0 -180 -54t-119 -144z" />
    <glyph glyph-name="Edotaccent" unicode="&#x116;" horiz-adv-x="1300" 
d="M963 1522q-69 0 -113.5 43.5t-44.5 111.5q0 63 45 108.5t113 45.5t113.5 -45.5t45.5 -108.5q0 -67 -45 -111t-114 -44zM563 1120l-71 -309h700l-57 -248h-701l-72 -311h764l-57 -252h-1042l315 1372h1038l-57 -252h-760z" />
    <glyph glyph-name="edotaccent" unicode="&#x117;" horiz-adv-x="1177" 
d="M748 1171q-69 0 -113.5 44t-44.5 112q0 63 45 108.5t113 45.5t113.5 -45.5t45.5 -108.5q0 -68 -45 -112t-114 -44zM666 1053q111 0 202 -43t151.5 -122.5t84 -193.5t-1.5 -256h-795q3 -237 242 -237q166 0 260 145l242 -61q-74 -155 -213 -235.5t-306 -80.5
q-217 0 -345 127.5t-128 339.5q0 130 51.5 246.5t136 197t194.5 127t225 46.5zM346 629h526q-13 99 -72.5 148.5t-154.5 49.5q-102 0 -180 -54t-119 -144z" />
    <glyph glyph-name="Eogonek" unicode="&#x118;" horiz-adv-x="1300" 
d="M563 1120l-71 -309h700l-57 -248h-701l-72 -311h764l-57 -252h-84q-18 -16 -41 -37t-35.5 -32t-28.5 -26t-24 -23t-18 -19t-14.5 -18.5t-9 -16t-6 -16.5t-1.5 -17q0 -20 10.5 -30.5t38.5 -10.5q25 0 102 23l-43 -168q-65 -39 -149 -39q-77 0 -124.5 43t-47.5 113
q0 63 42 127.5t165 146.5h-774l315 1372h1038l-57 -252h-760z" />
    <glyph glyph-name="eogonek" unicode="&#x119;" horiz-adv-x="1173" 
d="M666 1053q114 0 208.5 -45.5t154 -127t81 -194.5t-11.5 -248h-791q3 -237 242 -237q166 0 260 145l242 -61q-49 -102 -133 -179q-117 -106 -175 -166t-74 -88.5t-16 -56.5q0 -20 10.5 -30.5t38.5 -10.5q26 0 103 23l-43 -168q-65 -39 -150 -39q-77 0 -124.5 43t-47.5 113
q0 58 34 116.5t134 130.5q-50 -4 -76 -4q-217 0 -345 127.5t-128 339.5q0 130 51.5 246.5t136 197t194.5 127t225 46.5zM645 827q-102 0 -180 -54t-119 -144h526q-13 99 -72.5 148.5t-154.5 49.5z" />
    <glyph glyph-name="Ecaron" unicode="&#x11a;" horiz-adv-x="1300" 
d="M797 1493l-162 305h254l63 -127l123 127h283l-305 -305h-256zM563 1120l-71 -309h700l-57 -248h-701l-72 -311h764l-57 -252h-1042l315 1372h1038l-57 -252h-760z" />
    <glyph glyph-name="ecaron" unicode="&#x11b;" horiz-adv-x="1177" 
d="M582 1143l-162 305h254l63 -127l123 127h283l-305 -305h-256zM666 1053q111 0 202 -43t151.5 -122.5t84 -193.5t-1.5 -256h-795q3 -237 242 -237q166 0 260 145l242 -61q-74 -155 -213 -235.5t-306 -80.5q-217 0 -345 127.5t-128 339.5q0 130 51.5 246.5t136 197
t194.5 127t225 46.5zM346 629h526q-13 99 -72.5 148.5t-154.5 49.5q-102 0 -180 -54t-119 -144z" />
    <glyph glyph-name="Gbreve" unicode="&#x11e;" horiz-adv-x="1597" 
d="M995 1470q-158 0 -231 83.5t-39 224.5h209q-13 -54 13 -87.5t77 -33.5t92.5 33.5t54.5 87.5h238q-34 -142 -145 -225t-269 -83zM834 801h731q-3 -71 -13 -119q-61 -334 -273.5 -523.5t-526.5 -189.5q-287 0 -460 170.5t-173 452.5q0 164 67 313.5t180 259t271 174
t332 64.5q139 0 260.5 -45t211.5 -141t115 -228l-278 -59q-69 211 -328 211q-147 0 -272.5 -68.5t-200 -189.5t-74.5 -265q0 -172 104.5 -280.5t274.5 -108.5q153 0 274 88t171 230h-453z" />
    <glyph glyph-name="gbreve" unicode="&#x11f;" horiz-adv-x="1304" 
d="M774 1120q-158 0 -231 83t-39 224h209q-13 -54 13 -87t77 -33t92.5 33t54.5 87h238q-34 -141 -145 -224t-269 -83zM1276 1022l-215 -924q-34 -152 -130 -264t-228 -167.5t-285 -55.5q-358 0 -477 305l252 94q69 -155 241 -155q80 0 157.5 33t137.5 99t80 152l4 17
q-138 -101 -332 -101q-97 0 -180.5 37t-141 103.5t-83 165.5t-6.5 214q38 203 208 340.5t373 137.5q242 0 338 -148l27 117h260zM330 565q-23 -128 43 -205t190 -77q118 0 217 69.5t121 192.5q11 63 -5 116.5t-50 89t-82 55t-102 19.5q-129 0 -218.5 -71.5t-113.5 -188.5z
" />
    <glyph glyph-name="Gdotaccent" unicode="&#x120;" horiz-adv-x="1597" 
d="M1040 1831q68 0 114 -45.5t46 -108.5q0 -67 -45.5 -111t-114.5 -44t-113 43.5t-44 111.5q0 63 44.5 108.5t112.5 45.5zM834 801h731q-3 -71 -13 -119q-61 -334 -273.5 -523.5t-526.5 -189.5q-287 0 -460 170.5t-173 452.5q0 164 67 313.5t180 259t271 174t332 64.5
q139 0 260.5 -45t211.5 -141t115 -228l-278 -59q-69 211 -328 211q-147 0 -272.5 -68.5t-200 -189.5t-74.5 -265q0 -172 104.5 -280.5t274.5 -108.5q153 0 274 88t171 230h-453z" />
    <glyph glyph-name="gdotaccent" unicode="&#x121;" horiz-adv-x="1304" 
d="M819 1171q-69 0 -113 44t-44 112q0 63 44.5 108.5t112.5 45.5t114 -45.5t46 -108.5q0 -67 -45.5 -111.5t-114.5 -44.5zM1276 1022l-215 -924q-34 -152 -130 -264t-228 -167.5t-285 -55.5q-358 0 -477 305l252 94q69 -155 241 -155q80 0 157.5 33t137.5 99t80 152l4 17
q-138 -101 -332 -101q-97 0 -180.5 37t-141 103.5t-83 165.5t-6.5 214q38 203 208 340.5t373 137.5q242 0 338 -148l27 117h260zM330 565q-23 -128 43 -205t190 -77q118 0 217 69.5t121 192.5q11 63 -5 116.5t-50 89t-82 55t-102 19.5q-129 0 -218.5 -71.5t-113.5 -188.5z
" />
    <glyph glyph-name="Gcommaaccent" unicode="&#x122;" horiz-adv-x="1597" 
d="M834 801h731q-3 -71 -13 -119q-61 -334 -273.5 -523.5t-526.5 -189.5q-287 0 -460 170.5t-173 452.5q0 164 67 313.5t180 259t271 174t332 64.5q139 0 260.5 -45t211.5 -141t115 -228l-278 -59q-69 211 -328 211q-147 0 -272.5 -68.5t-200 -189.5t-74.5 -265
q0 -172 104.5 -280.5t274.5 -108.5q153 0 274 88t171 230h-453zM391 -399l178 307h293l-268 -307h-203z" />
    <glyph glyph-name="gcommaaccent" unicode="&#x123;" horiz-adv-x="1304" 
d="M920 1155h-293l268 307h203zM1276 1022l-215 -924q-34 -152 -130 -264t-228 -167.5t-285 -55.5q-358 0 -477 305l252 94q69 -155 241 -155q80 0 157.5 33t137.5 99t80 152l4 17q-138 -101 -332 -101q-97 0 -180.5 37t-141 103.5t-83 165.5t-6.5 214q38 203 208 340.5
t373 137.5q242 0 338 -148l27 117h260zM330 565q-23 -128 43 -205t190 -77q118 0 217 69.5t121 192.5q11 63 -5 116.5t-50 89t-82 55t-102 19.5q-129 0 -218.5 -71.5t-113.5 -188.5z" />
    <glyph glyph-name="Hbar" unicode="&#x126;" horiz-adv-x="1619" 
d="M1628 911h-127l-209 -911h-278l110 481h-639l-110 -481h-279l209 911h-127l53 232h127l54 229h278l-53 -229h639l53 229h279l-54 -229h127zM1223 911h-639l-41 -178h639z" />
    <glyph glyph-name="hbar" unicode="&#x127;" horiz-adv-x="1355" 
d="M899 1053q140 0 230 -69t118.5 -178.5t-0.5 -240.5l-131 -565h-270l133 578q25 109 -23.5 174t-150.5 65q-230 0 -313 -364l-105 -453h-270l266 1151h-150l46 197h149l29 127h270l-29 -127h273l-45 -197h-273l-51 -221q114 123 297 123z" />
    <glyph glyph-name="Imacron" unicode="&#x12a;" horiz-adv-x="567" 
d="M842 1522h-652l50 221h651zM305 0h-278l315 1372h279z" />
    <glyph glyph-name="imacron" unicode="&#x12b;" horiz-adv-x="606" 
d="M782 1171h-651l49 222h651zM319 0h-270l238 1022h270z" />
    <glyph glyph-name="Iogonek" unicode="&#x12e;" horiz-adv-x="567" 
d="M621 1372l-316 -1372q-18 -16 -41 -37t-35.5 -32t-28.5 -26t-24 -23t-18 -19t-14.5 -18.5t-9 -16t-6 -16.5t-1.5 -17q0 -20 10.5 -30.5t38.5 -10.5q26 0 103 23l-43 -168q-65 -39 -150 -39q-77 0 -124.5 43t-47.5 113q0 63 42 127.5t165 146.5h-94l315 1372h279z" />
    <glyph glyph-name="iogonek" unicode="&#x12f;" horiz-adv-x="606" 
d="M489 1481q68 0 114 -45.5t46 -108.5q0 -67 -45.5 -111.5t-114.5 -44.5t-113 44t-44 112q0 63 44.5 108.5t112.5 45.5zM287 1022h270l-238 -1022q-18 -16 -41 -37t-35.5 -32t-28.5 -26t-24 -23t-18 -19t-14.5 -18.5t-9 -16t-6 -16.5t-1.5 -17q0 -20 10.5 -30.5t38.5 -10.5
q26 0 103 23l-43 -168q-65 -39 -150 -39q-77 0 -124.5 43t-47.5 113q0 63 42 127.5t165 146.5h-86z" />
    <glyph glyph-name="Idotaccent" unicode="&#x130;" horiz-adv-x="567" 
d="M549 1831q68 0 114 -45.5t46 -108.5q0 -67 -45.5 -111t-114.5 -44t-113.5 43.5t-44.5 111.5q0 63 45 108.5t113 45.5zM305 0h-278l315 1372h279z" />
    <glyph glyph-name="dotlessi" unicode="&#x131;" horiz-adv-x="606" 
d="M319 0h-270l238 1022h270z" />
    <glyph glyph-name="IJ" unicode="&#x132;" horiz-adv-x="1783" 
d="M305 0h-278l315 1372h279zM1851 1372l-209 -887q-57 -247 -208.5 -381.5t-372.5 -134.5q-216 0 -348 122t-138 327l265 53q0 -112 57.5 -182t167.5 -70q113 0 190.5 73.5t108.5 192.5l209 887h278z" />
    <glyph glyph-name="ij" unicode="&#x133;" horiz-adv-x="1204" 
d="M485 1489q69 0 116.5 -48t47.5 -114q0 -68 -47 -113t-117 -45q-71 0 -117 45t-46 113q0 66 46.5 114t116.5 48zM1096 1489q69 0 116.5 -48t47.5 -114q0 -68 -47 -113t-117 -45q-72 0 -118 45t-46 113q0 66 47 114t117 48zM313 0h-270l236 1022h270zM1167 1022l-254 -1114
q-31 -134 -132 -215.5t-236 -81.5q-103 0 -199 39l103 235q55 -20 88 -20q43 0 74.5 22.5t39.5 57.5l246 1077h270z" />
    <glyph glyph-name="Kcommaaccent" unicode="&#x136;" horiz-adv-x="1370" 
d="M743 674l508 -674h-340l-407 549h-92l-127 -549h-279l318 1372h278l-133 -571h39l666 571h372zM426 -92h293l-268 -307h-203z" />
    <glyph glyph-name="kcommaaccent" unicode="&#x137;" horiz-adv-x="1243" 
d="M700 532l424 -532h-327l-310 399h-100l-92 -399h-270l340 1475h270l-186 -809h40l449 356h367zM346 -92h293l-268 -307h-203z" />
    <glyph glyph-name="Lacute" unicode="&#x139;" horiz-adv-x="1193" 
d="M639 1511h-246l205 295h334zM1071 252l-57 -252h-987l315 1372h279l-259 -1120h709z" />
    <glyph glyph-name="lacute" unicode="&#x13a;" horiz-adv-x="559" 
d="M664 1614h-246l205 295h333zM295 0h-270l342 1475h270z" />
    <glyph glyph-name="Lcommaaccent" unicode="&#x13b;" horiz-adv-x="1193" 
d="M1071 252l-57 -252h-987l315 1372h279l-259 -1120h709zM324 -92h292l-268 -307h-203z" />
    <glyph glyph-name="lcommaaccent" unicode="&#x13c;" horiz-adv-x="559" 
d="M295 0h-270l342 1475h270zM-184 -399l178 307h293l-269 -307h-202z" />
    <glyph glyph-name="Lcaron" unicode="&#x13d;" horiz-adv-x="1193" 
d="M362 252h709l-57 -252h-987l315 1372h279zM928 965h-213l94 407h272z" />
    <glyph glyph-name="lcaron" unicode="&#x13e;" horiz-adv-x="559" 
d="M295 0h-270l342 1475h270zM872 1067h-213l95 408h272z" />
    <glyph glyph-name="Ldot" unicode="&#x13f;" horiz-adv-x="1191" 
d="M1071 252l-57 -252h-987l315 1372h279l-259 -1120h709zM811 565q-69 0 -113.5 44t-44.5 112q0 63 45 108t113 45t114 -45t46 -108q0 -67 -45.5 -111.5t-114.5 -44.5z" />
    <glyph glyph-name="ldot" unicode="&#x140;" horiz-adv-x="821" 
d="M295 0h-270l342 1475h270zM770 874q68 0 114 -45t46 -108q0 -67 -45.5 -111.5t-114.5 -44.5t-113.5 44t-44.5 112q0 63 45 108t113 45z" />
    <glyph glyph-name="Lslash" unicode="&#x141;" horiz-adv-x="1284" 
d="M1161 252l-57 -252h-987l104 451l-166 -70l60 260l166 70l151 661h279l-123 -530l254 106l-60 -260l-254 -106l-75 -330h708z" />
    <glyph glyph-name="lslash" unicode="&#x142;" horiz-adv-x="704" 
d="M670 729l-142 -72l-151 -657h-271l117 502l-157 -80l59 260l158 80l166 713h270l-129 -557l141 71z" />
    <glyph glyph-name="Nacute" unicode="&#x143;" horiz-adv-x="1560" 
d="M1151 1511h-246l205 295h334zM1610 1372l-316 -1372h-233l-541 909l-211 -909h-278l315 1372h234l536 -928l215 928h279z" />
    <glyph glyph-name="nacute" unicode="&#x144;" horiz-adv-x="1265" 
d="M922 1161h-246l205 295h333zM809 1053q140 0 230 -69t118.5 -178.5t-0.5 -240.5l-131 -565h-270l133 578q25 109 -23.5 174t-150.5 65q-233 0 -316 -364l-104 -453h-270l235 1022h270l-22 -96q118 127 301 127z" />
    <glyph glyph-name="Ncommaaccent" unicode="&#x145;" horiz-adv-x="1560" 
d="M1610 1372l-316 -1372h-233l-541 909l-211 -909h-278l315 1372h234l536 -928l215 928h279zM539 -92h292l-268 -307h-203z" />
    <glyph glyph-name="ncommaaccent" unicode="&#x146;" horiz-adv-x="1265" 
d="M809 1053q140 0 230 -69t118.5 -178.5t-0.5 -240.5l-131 -565h-270l133 578q25 109 -23.5 174t-150.5 65q-233 0 -316 -364l-104 -453h-270l235 1022h270l-22 -96q118 127 301 127zM367 -92h292l-268 -307h-203z" />
    <glyph glyph-name="Ncaron" unicode="&#x147;" horiz-adv-x="1560" 
d="M891 1493l-162 305h254l64 -127l122 127h283l-305 -305h-256zM1610 1372l-316 -1372h-233l-541 909l-211 -909h-278l315 1372h234l536 -928l215 928h279z" />
    <glyph glyph-name="ncaron" unicode="&#x148;" horiz-adv-x="1265" 
d="M662 1143l-162 305h254l63 -127l123 127h283l-305 -305h-256zM809 1053q140 0 230 -69t118.5 -178.5t-0.5 -240.5l-131 -565h-270l133 578q25 109 -23.5 174t-150.5 65q-233 0 -316 -364l-104 -453h-270l235 1022h270l-22 -96q118 127 301 127z" />
    <glyph glyph-name="Eng" unicode="&#x14a;" horiz-adv-x="1554" 
d="M1606 1372l-326 -1425q-30 -133 -135 -224.5t-238 -91.5q-118 0 -229 50l80 206q75 -22 121 -22q43 0 75 22.5t41 59.5l27 112l-506 850l-211 -909h-278l315 1372h233l537 -928l215 928h279z" />
    <glyph glyph-name="eng" unicode="&#x14b;" horiz-adv-x="1265" 
d="M809 1053q140 0 230 -69t118.5 -178.5t-0.5 -240.5l-131 -565l-14 -53q-36 -135 -139 -225.5t-234 -90.5q-118 0 -229 50l94 206q75 -22 121 -22q42 0 74.5 23.5t41.5 58.5l15 53l133 578q25 109 -23.5 174t-150.5 65q-233 0 -316 -364l-104 -453h-270l235 1022h270
l-22 -96q118 127 301 127z" />
    <glyph glyph-name="Omacron" unicode="&#x14c;" horiz-adv-x="1613" 
d="M1346 1522h-652l49 221h652zM928 1407q209 0 366 -99t228.5 -264.5t44.5 -359.5q-44 -325 -266.5 -521t-534.5 -196q-207 -1 -363.5 94.5t-229.5 260.5t-46 364q28 197 145.5 363t291.5 262t364 96zM770 229q200 0 344 127.5t172 327.5q27 194 -80 326.5t-282 132.5
q-199 0 -344.5 -130.5t-173.5 -328.5q-18 -129 27.5 -234.5t135.5 -163t201 -57.5z" />
    <glyph glyph-name="omacron" unicode="&#x14d;" horiz-adv-x="1230" 
d="M1081 1171h-651l49 222h651zM682 1047q112 0 209.5 -39t165.5 -108t99.5 -171t12.5 -219q-38 -238 -212.5 -387.5t-401.5 -149.5q-114 0 -213 39t-168 108t-100.5 170.5t-12.5 219.5q25 158 115 281t222 189.5t284 66.5zM569 205q72 0 143 35.5t125.5 107t69.5 162.5
q22 136 -52 220.5t-187 84.5q-117 0 -219.5 -84.5t-124.5 -220.5t53 -220.5t192 -84.5z" />
    <glyph glyph-name="Ohungarumlaut" unicode="&#x150;" horiz-adv-x="1613" 
d="M940 1511h-242l205 295h334zM1321 1511h-242l205 295h334zM928 1407q209 0 366 -99t228.5 -264.5t44.5 -359.5q-44 -325 -266.5 -521t-534.5 -196q-207 -1 -363.5 94.5t-229.5 260.5t-46 364q28 197 145.5 363t291.5 262t364 96zM770 229q200 0 344 127.5t172 327.5
q27 194 -80 326.5t-282 132.5q-199 0 -344.5 -130.5t-173.5 -328.5q-18 -129 27.5 -234.5t135.5 -163t201 -57.5z" />
    <glyph glyph-name="ohungarumlaut" unicode="&#x151;" horiz-adv-x="1230" 
d="M676 1161h-242l205 295h334zM815 1161l205 295h334l-297 -295h-242zM682 1047q112 0 209.5 -39t165.5 -108t99.5 -171t12.5 -219q-38 -238 -212.5 -387.5t-401.5 -149.5q-114 0 -213 39t-168 108t-100.5 170.5t-12.5 219.5q25 158 115 281t222 189.5t284 66.5zM569 205
q72 0 143 35.5t125.5 107t69.5 162.5q22 136 -52 220.5t-187 84.5q-117 0 -219.5 -84.5t-124.5 -220.5t53 -220.5t192 -84.5z" />
    <glyph glyph-name="OE" unicode="&#x152;" horiz-adv-x="2125" 
d="M1389 1120l-72 -309h700l-57 -248h-700l-72 -311h764l-58 -252h-1181q-202 0 -348 80t-210.5 226.5t-31.5 336.5q23 161 111 298.5t218 231t296 146.5t344 53h1114l-58 -252h-759zM909 252l201 868h-55q-168 0 -309 -59t-232 -168t-111 -250q-33 -179 48.5 -285
t259.5 -106h198z" />
    <glyph glyph-name="oe" unicode="&#x153;" horiz-adv-x="2027" 
d="M1516 1053q111 0 202 -43t151.5 -122.5t84 -193.5t-1.5 -256h-795q3 -237 242 -237q166 0 260 145l242 -61q-74 -155 -213 -235.5t-306 -80.5q-263 0 -393 185q-85 -87 -197.5 -134t-236.5 -47q-114 0 -213 39t-168 108t-100.5 170.5t-12.5 219.5q25 158 115 281
t222 189.5t284 66.5q125 0 230.5 -47.5t172.5 -133.5q85 88 198.5 137.5t232.5 49.5zM1196 629h526q-13 99 -72.5 148.5t-154.5 49.5q-102 0 -180 -54t-119 -144zM569 205q72 0 143 35.5t125.5 107t69.5 162.5q22 136 -52 220.5t-187 84.5q-117 0 -219.5 -84.5
t-124.5 -220.5t53 -220.5t192 -84.5z" />
    <glyph glyph-name="Racute" unicode="&#x154;" horiz-adv-x="1402" 
d="M1006 1511h-246l205 295h333zM1403 995q0 -174 -116 -302t-312 -171l289 -522h-314l-260 504h-268l-117 -504h-278l315 1372h616q203 0 324 -100t121 -277zM479 756h338q136 0 219.5 61t83.5 156q0 71 -48.5 109t-129.5 38h-379z" />
    <glyph glyph-name="racute" unicode="&#x155;" horiz-adv-x="878" 
d="M745 1161h-245l205 295h333zM532 1022l-34 -152q184 166 403 166q47 0 70 -8l-74 -260h-59q-353 0 -461 -418l-80 -350h-270l235 1022h270z" />
    <glyph glyph-name="Rcommaaccent" unicode="&#x156;" horiz-adv-x="1402" 
d="M1403 995q0 -174 -116 -302t-312 -171l289 -522h-314l-260 504h-268l-117 -504h-278l315 1372h616q203 0 324 -100t121 -277zM479 756h338q136 0 219.5 61t83.5 156q0 71 -48.5 109t-129.5 38h-379zM436 -92h293l-268 -307h-203z" />
    <glyph glyph-name="rcommaaccent" unicode="&#x157;" horiz-adv-x="878" 
d="M901 1036q47 0 70 -8l-74 -260h-59q-353 0 -461 -418l-80 -350h-270l235 1022h270l-34 -152q184 166 403 166zM-4 -92h293l-269 -307h-202z" />
    <glyph glyph-name="Rcaron" unicode="&#x158;" horiz-adv-x="1402" 
d="M745 1493l-161 305h254l63 -127l123 127h283l-306 -305h-256zM1403 995q0 -174 -116 -302t-312 -171l289 -522h-314l-260 504h-268l-117 -504h-278l315 1372h616q203 0 324 -100t121 -277zM479 756h338q136 0 219.5 61t83.5 156q0 71 -48.5 109t-129.5 38h-379z" />
    <glyph glyph-name="rcaron" unicode="&#x159;" horiz-adv-x="878" 
d="M485 1143l-161 305h254l63 -127l123 127h283l-306 -305h-256zM532 1022l-34 -152q184 166 403 166q47 0 70 -8l-74 -260h-59q-353 0 -461 -418l-80 -350h-270l235 1022h270z" />
    <glyph glyph-name="Sacute" unicode="&#x15a;" horiz-adv-x="1288" 
d="M965 1511h-246l205 295h333zM797 1403q219 0 352.5 -104.5t150.5 -290.5l-280 -58q-1 96 -71 156.5t-179 60.5q-107 0 -177.5 -56.5t-70.5 -135.5q0 -43 28.5 -71.5t96.5 -51.5l199 -59q152 -45 233.5 -130.5t81.5 -224.5q0 -212 -156.5 -340.5t-412.5 -128.5
q-83 0 -160 15t-146.5 47t-122 79t-85.5 115.5t-39 151.5l295 59q12 -115 85.5 -171t196.5 -56q129 0 200 55t71 142q0 50 -32 79t-114 54l-194 55q-50 15 -88.5 30.5t-83.5 44t-74.5 63.5t-49.5 88t-20 118q0 204 158.5 334.5t407.5 130.5z" />
    <glyph glyph-name="sacute" unicode="&#x15b;" horiz-adv-x="1032" 
d="M776 1161h-246l205 295h334zM4 250l268 76q11 -72 76.5 -109t143.5 -37q74 0 119.5 32t45.5 75q0 58 -82 82l-200 63q-111 33 -173.5 105.5t-62.5 179.5q0 149 114 242.5t306 93.5q178 0 300 -80.5t149 -202.5l-232 -70q-11 63 -69 102.5t-148 39.5q-81 0 -116 -30.5
t-35 -72.5q0 -30 23.5 -54.5t90.5 -45.5l125 -39q138 -44 205.5 -115.5t67.5 -183.5q0 -103 -60.5 -179t-161 -114.5t-225.5 -38.5q-110 0 -205.5 29t-168 94t-95.5 158z" />
    <glyph glyph-name="Scedilla" unicode="&#x15e;" horiz-adv-x="1288" 
d="M647 852l199 -59q152 -45 233.5 -130.5t81.5 -224.5q0 -194 -133.5 -320t-357.5 -145l-168 -301h-307l272 305q-86 14 -159 44.5t-132 78.5t-95 119t-42 158l295 59q12 -115 85.5 -171t196.5 -56q129 0 200 55t71 142q0 50 -32 79t-114 54l-194 55q-50 15 -88.5 30.5
t-83.5 44t-74.5 63.5t-49.5 88t-20 118q0 204 158.5 334.5t407.5 130.5q219 0 352.5 -104.5t150.5 -290.5l-280 -58q-1 96 -71 156.5t-179 60.5q-107 0 -177.5 -56.5t-70.5 -135.5q0 -43 28.5 -71.5t96.5 -51.5z" />
    <glyph glyph-name="scedilla" unicode="&#x15f;" horiz-adv-x="1032" 
d="M522 639l125 -39q138 -44 205.5 -115.5t67.5 -183.5q0 -140 -107 -227t-276 -103l-166 -299h-308l275 310q-128 25 -218 92t-116 176l268 76q11 -72 76.5 -109t143.5 -37q74 0 119.5 32t45.5 75q0 58 -82 82l-200 63q-111 33 -173.5 105.5t-62.5 179.5q0 149 114 242.5
t306 93.5q178 0 300 -80.5t149 -202.5l-232 -70q-11 63 -69 102.5t-148 39.5q-81 0 -116 -30.5t-35 -72.5q0 -30 23.5 -54.5t90.5 -45.5z" />
    <glyph glyph-name="Scaron" unicode="&#x160;" horiz-adv-x="1288" 
d="M705 1493l-162 305h254l63 -127l123 127h283l-305 -305h-256zM647 852l199 -59q152 -45 233.5 -130.5t81.5 -224.5q0 -212 -156.5 -340.5t-412.5 -128.5q-83 0 -160 15t-146.5 47t-122 79t-85.5 115.5t-39 151.5l295 59q12 -115 85.5 -171t196.5 -56q129 0 200 55t71 142
q0 50 -32 79t-114 54l-194 55q-50 15 -88.5 30.5t-83.5 44t-74.5 63.5t-49.5 88t-20 118q0 204 158.5 334.5t407.5 130.5q219 0 352.5 -104.5t150.5 -290.5l-280 -58q-1 96 -71 156.5t-179 60.5q-107 0 -177.5 -56.5t-70.5 -135.5q0 -43 28.5 -71.5t96.5 -51.5z" />
    <glyph glyph-name="scaron" unicode="&#x161;" horiz-adv-x="1032" 
d="M516 1143l-162 305h254l64 -127l123 127h282l-305 -305h-256zM559 842q-81 0 -116 -30.5t-35 -72.5q0 -30 23.5 -54.5t90.5 -45.5l125 -39q138 -44 205.5 -115.5t67.5 -183.5q0 -103 -60.5 -179t-161 -114.5t-225.5 -38.5q-110 0 -205.5 29t-168 94t-95.5 158l268 76
q11 -72 76.5 -109t143.5 -37q74 0 119.5 32t45.5 75q0 58 -82 82l-200 63q-111 33 -173.5 105.5t-62.5 179.5q0 149 114 242.5t306 93.5q178 0 300 -80.5t149 -202.5l-232 -70q-11 63 -69 102.5t-148 39.5z" />
    <glyph glyph-name="tcedilla" unicode="&#x163;" horiz-adv-x="858" 
d="M524 801l-92 -404q-21 -92 -0.5 -134t84.5 -42q86 0 186 49l15 -235q-127 -63 -252 -66l-166 -297h-307l291 328q-193 83 -125 377l98 424h-188l51 221h186l72 309h270l-72 -309h336l-51 -221h-336z" />
    <glyph glyph-name="Tcaron" unicode="&#x164;" horiz-adv-x="1273" 
d="M737 1493l-162 305h254l64 -127l123 127h282l-305 -305h-256zM1374 1120h-456l-259 -1120h-278l258 1120h-457l58 252h1192z" />
    <glyph glyph-name="tcaron" unicode="&#x165;" horiz-adv-x="858" 
d="M903 1106h-213l94 407h273zM575 1022h336l-51 -221h-336l-92 -404q-21 -92 -0.5 -134t84.5 -42q86 0 186 49l15 -235q-132 -66 -266 -66q-117 0 -191.5 42.5t-105 133t3.5 232.5l98 424h-188l51 221h186l72 309h270z" />
    <glyph glyph-name="Tbar" unicode="&#x166;" horiz-adv-x="1273" 
d="M918 1120l-74 -319h256l-53 -232h-256l-132 -569h-278l131 569h-240l54 232h239l74 319h-457l58 252h1192l-58 -252h-456z" />
    <glyph glyph-name="tbar" unicode="&#x167;" horiz-adv-x="897" 
d="M563 801l-20 -94h245l-49 -218h-247l-21 -92q-21 -92 -0.5 -134t84.5 -42q86 0 186 49l15 -235q-132 -66 -267 -66q-117 0 -191.5 42.5t-104.5 133t4 232.5l26 112h-176l49 218h176l23 94h-227l51 221h225l72 309h270l-72 -309h349l-52 -221h-348z" />
    <glyph glyph-name="Umacron" unicode="&#x16a;" horiz-adv-x="1456" 
d="M1278 1522h-651l49 221h651zM1524 1372l-174 -758q-69 -301 -250 -473t-467 -172q-120 0 -222.5 46.5t-169.5 131.5t-92.5 204t7.5 263l174 758h278l-174 -758q-40 -172 25 -275t213 -103q140 0 249.5 103.5t149.5 274.5l174 758h279z" />
    <glyph glyph-name="umacron" unicode="&#x16b;" horiz-adv-x="1265" 
d="M1067 1171h-651l49 222h651zM1241 1022l-235 -1022h-271l23 96q-118 -127 -301 -127q-140 0 -230 69t-118.5 178.5t0.5 240.5l131 565h270l-133 -578q-25 -109 23.5 -174t150.5 -65q232 0 315 364l105 453h270z" />
    <glyph glyph-name="Uring" unicode="&#x16e;" horiz-adv-x="1456" 
d="M969 1464q-98 0 -162 63t-64 156q0 104 77.5 178t185.5 74q97 0 161 -63t64 -156q0 -104 -77 -178t-185 -74zM993 1782q-37 0 -61.5 -26t-24.5 -62q0 -32 20 -54t54 -22q38 0 65 27t27 63q0 31 -22.5 52.5t-57.5 21.5zM1524 1372l-174 -758q-69 -301 -250 -473t-467 -172
q-120 0 -222.5 46.5t-169.5 131.5t-92.5 204t7.5 263l174 758h278l-174 -758q-40 -172 25 -275t213 -103q140 0 249.5 103.5t149.5 274.5l174 758h279z" />
    <glyph glyph-name="uring" unicode="&#x16f;" horiz-adv-x="1265" 
d="M758 1114q-98 0 -162 63t-64 156q0 104 77.5 178t185.5 74q97 0 161 -63t64 -156q0 -104 -77 -178t-185 -74zM782 1432q-37 0 -61.5 -26.5t-24.5 -62.5q0 -32 20 -53.5t54 -21.5q38 0 65 27t27 63q0 31 -22.5 52.5t-57.5 21.5zM1241 1022l-235 -1022h-271l23 96
q-118 -127 -301 -127q-140 0 -230 69t-118.5 178.5t0.5 240.5l131 565h270l-133 -578q-25 -109 23.5 -174t150.5 -65q232 0 315 364l105 453h270z" />
    <glyph glyph-name="Uhungarumlaut" unicode="&#x170;" horiz-adv-x="1456" 
d="M872 1511h-241l205 295h333zM1012 1511l205 295h333l-297 -295h-241zM1245 1372h279l-174 -758q-69 -301 -250 -473t-467 -172q-120 0 -222.5 46.5t-169.5 131.5t-92.5 204t7.5 263l174 758h278l-174 -758q-40 -172 25 -275t213 -103q140 0 249.5 103.5t149.5 274.5z" />
    <glyph glyph-name="uhungarumlaut" unicode="&#x171;" horiz-adv-x="1265" 
d="M662 1161h-242l205 295h333zM801 1161l205 295h333l-297 -295h-241zM971 1022h270l-235 -1022h-271l23 96q-118 -127 -301 -127q-140 0 -230 69t-118.5 178.5t0.5 240.5l131 565h270l-133 -578q-25 -109 23.5 -174t150.5 -65q232 0 315 364z" />
    <glyph glyph-name="Uogonek" unicode="&#x172;" horiz-adv-x="1456" 
d="M1524 1372l-174 -758q-74 -320 -265 -485q-46 -47 -117 -119q-115 -117 -143 -151t-28 -64q0 -20 10.5 -30.5t38.5 -10.5q25 0 102 23l-43 -168q-65 -39 -149 -39q-77 0 -124.5 43t-47.5 113q0 58 35.5 117.5t138.5 133.5q-52 -8 -125 -8q-120 0 -222.5 46.5
t-169.5 131.5t-92.5 204t7.5 263l174 758h278l-174 -758q-40 -172 25 -275t213 -103q140 0 249.5 103.5t149.5 274.5l174 758h279z" />
    <glyph glyph-name="uogonek" unicode="&#x173;" horiz-adv-x="1265" 
d="M1241 1022l-235 -1022q-20 -18 -45.5 -41t-39 -35t-30.5 -28t-25 -24.5t-17 -20t-13 -19.5t-6.5 -17.5t-2.5 -19.5q0 -41 50 -41q25 0 102 23l-43 -168q-65 -39 -150 -39q-77 0 -124.5 43t-47.5 113q0 63 42 127.5t165 146.5h-86l23 96q-118 -127 -301 -127
q-140 0 -230 69t-118.5 178.5t0.5 240.5l131 565h270l-133 -578q-25 -109 23.5 -174t150.5 -65q232 0 315 364l105 453h270z" />
    <glyph glyph-name="Wcircumflex" unicode="&#x174;" horiz-adv-x="1980" 
d="M1186 1493h-283l305 305h256l162 -305h-254l-63 127zM2148 1372l-716 -1372h-302l-51 926l-483 -926h-295l-82 1372h279l43 -946l495 946h273l57 -946l481 946h301z" />
    <glyph glyph-name="wcircumflex" unicode="&#x175;" horiz-adv-x="1642" 
d="M938 1143h-283l306 305h256l161 -305h-254l-63 127zM1731 1022l-582 -1024h-250l-65 602l-347 -602h-241l-107 1024h258l62 -629l360 629h211l68 -631l354 631h279z" />
    <glyph glyph-name="Ycircumflex" unicode="&#x176;" horiz-adv-x="1415" 
d="M848 1493h-283l305 305h256l162 -305h-254l-63 127zM823 438l-100 -438h-279l101 434l-326 938h289l225 -647l522 647h338z" />
    <glyph glyph-name="ycircumflex" unicode="&#x177;" horiz-adv-x="1187" 
d="M705 1145h-283l305 305h256l162 -305h-254l-64 127zM1276 1022l-891 -1370h-305l248 377l-189 993h281l119 -672l442 672h295z" />
    <glyph glyph-name="Ydieresis" unicode="&#x178;" horiz-adv-x="1415" 
d="M690 1501q-70 0 -116 45.5t-46 114.5q0 65 46.5 112.5t115.5 47.5t116.5 -48t47.5 -112q0 -69 -46.5 -114.5t-117.5 -45.5zM1133 1501q-70 0 -116 45.5t-46 114.5q0 65 46.5 112.5t115.5 47.5t116 -48t47 -112q0 -69 -46.5 -114.5t-116.5 -45.5zM823 438l-100 -438h-279
l101 434l-326 938h289l225 -647l522 647h338z" />
    <glyph glyph-name="Zacute" unicode="&#x179;" horiz-adv-x="1282" 
d="M1012 1511h-246l205 295h334zM1331 1161l-903 -923h702l-53 -238h-1097l40 178l949 957h-707l53 237h1063z" />
    <glyph glyph-name="zacute" unicode="&#x17a;" horiz-adv-x="1073" 
d="M827 1161h-245l204 295h334zM1083 1022l-41 -180l-663 -621h545l-52 -221h-907l41 176l658 625h-500l51 221h868z" />
    <glyph glyph-name="Zdotaccent" unicode="&#x17b;" horiz-adv-x="1282" 
d="M918 1522q-69 0 -113.5 43.5t-44.5 111.5q0 63 45 108.5t113 45.5t113.5 -45.5t45.5 -108.5q0 -67 -45 -111t-114 -44zM1331 1161l-903 -923h702l-53 -238h-1097l40 178l949 957h-707l53 237h1063z" />
    <glyph glyph-name="zdotaccent" unicode="&#x17c;" horiz-adv-x="1073" 
d="M733 1171q-69 0 -113.5 44t-44.5 112q0 63 45 108.5t113 45.5t114 -45.5t46 -108.5q0 -67 -45.5 -111.5t-114.5 -44.5zM1042 842l-663 -621h545l-52 -221h-907l41 176l658 625h-500l51 221h868z" />
    <glyph glyph-name="Zcaron" unicode="&#x17d;" horiz-adv-x="1282" 
d="M752 1493l-162 305h254l63 -127l123 127h283l-305 -305h-256zM1331 1161l-903 -923h702l-53 -238h-1097l40 178l949 957h-707l53 237h1063z" />
    <glyph glyph-name="zcaron" unicode="&#x17e;" horiz-adv-x="1073" 
d="M567 1143l-161 305h253l64 -127l123 127h282l-305 -305h-256zM1083 1022l-41 -180l-663 -621h545l-52 -221h-907l41 176l658 625h-500l51 221h868z" />
    <glyph glyph-name="florin" unicode="&#x192;" horiz-adv-x="1200" 
d="M1059 1161q-145 0 -215 -168l-86 -207h307l-49 -221h-350l-228 -551q-142 -352 -469 -352q-123 0 -217 57l137 218q65 -21 115 -21q53 0 97.5 28t62.5 70l229 551h-215l49 221h256l105 250q75 182 204 273.5t293 91.5q80 0 155 -20t116 -50l-142 -221q-28 24 -71.5 37.5
t-83.5 13.5z" />
    <glyph glyph-name="AEacute" unicode="&#x1fc;" horiz-adv-x="2357" 
d="M1921 1511h-246l205 295h334zM1620 1120l-72 -309h701l-58 -248h-700l-72 -311h764l-57 -252h-1043l58 252h-609l-260 -252h-370l1462 1372h1073l-57 -252h-760zM1317 1012l-524 -508h407z" />
    <glyph glyph-name="aeacute" unicode="&#x1fd;" horiz-adv-x="1839" 
d="M1249 1161h-245l204 295h334zM1337 1053q216 0 344 -152t91 -391l-15 -92h-774q9 -104 68.5 -160.5t162.5 -56.5q164 0 259 133l233 -51q-65 -141 -208 -227.5t-318 -86.5q-228 0 -344 168q-85 -73 -207 -120.5t-254 -47.5q-172 0 -268.5 80.5t-96.5 214.5
q0 151 117.5 247.5t314.5 96.5h322l6 39q13 81 -33.5 130.5t-134.5 49.5q-79 0 -138.5 -41t-82.5 -114l-240 51q42 145 179 237.5t323 92.5q222 0 328 -127q169 127 366 127zM1010 608h503q-4 109 -60.5 163t-143.5 54q-93 0 -178 -57t-121 -160zM735 418h-301
q-84 0 -130 -34.5t-46 -88.5q0 -52 41.5 -81.5t108.5 -29.5q69 0 140.5 28.5t122.5 77.5t60 103z" />
    <glyph glyph-name="Scommaaccent" unicode="&#x218;" horiz-adv-x="1288" 
d="M797 1403q219 0 352.5 -104.5t150.5 -290.5l-280 -58q-1 96 -71 156.5t-179 60.5q-107 0 -177.5 -56.5t-70.5 -135.5q0 -43 28.5 -71.5t96.5 -51.5l199 -59q152 -45 233.5 -130.5t81.5 -224.5q0 -212 -156.5 -340.5t-412.5 -128.5q-83 0 -160 15t-146.5 47t-122 79
t-85.5 115.5t-39 151.5l295 59q12 -115 85.5 -171t196.5 -56q129 0 200 55t71 142q0 50 -32 79t-114 54l-194 55q-50 15 -88.5 30.5t-83.5 44t-74.5 63.5t-49.5 88t-20 118q0 204 158.5 334.5t407.5 130.5zM223 -399l178 307h293l-268 -307h-203z" />
    <glyph glyph-name="scommaaccent" unicode="&#x219;" horiz-adv-x="1032" 
d="M4 250l268 76q11 -72 76.5 -109t143.5 -37q74 0 119.5 32t45.5 75q0 58 -82 82l-200 63q-111 33 -173.5 105.5t-62.5 179.5q0 149 114 242.5t306 93.5q178 0 300 -80.5t149 -202.5l-232 -70q-11 63 -69 102.5t-148 39.5q-81 0 -116 -30.5t-35 -72.5q0 -30 23.5 -54.5
t90.5 -45.5l125 -39q138 -44 205.5 -115.5t67.5 -183.5q0 -103 -60.5 -179t-161 -114.5t-225.5 -38.5q-110 0 -205.5 29t-168 94t-95.5 158zM92 -399l178 307h293l-268 -307h-203z" />
    <glyph glyph-name="uni021A" unicode="&#x21a;" horiz-adv-x="1273" 
d="M1374 1120h-456l-259 -1120h-278l258 1120h-457l58 252h1192zM362 -92h293l-268 -307h-203z" />
    <glyph glyph-name="uni021B" unicode="&#x21b;" horiz-adv-x="858" 
d="M524 801l-92 -404q-21 -92 -0.5 -134t84.5 -42q86 0 186 49l15 -235q-132 -66 -266 -66q-117 0 -191.5 42.5t-105 133t3.5 232.5l98 424h-188l51 221h186l72 309h270l-72 -309h336l-51 -221h-336zM199 -92h293l-269 -307h-203z" />
    <glyph glyph-name="circumflex" unicode="&#x2c6;" horiz-adv-x="1228" 
d="M854 1143l-63 127l-123 -127h-283l305 305h256l162 -305h-254z" />
    <glyph glyph-name="caron" unicode="&#x2c7;" horiz-adv-x="1228" 
d="M1128 1448l-305 -305h-256l-161 305h253l64 -127l123 127h282z" />
    <glyph glyph-name="breve" unicode="&#x2d8;" horiz-adv-x="1228" 
d="M688 1120q-158 0 -231 83t-39 224h209q-13 -54 13 -87t77 -33t92.5 33t54.5 87h238q-34 -141 -145 -224t-269 -83z" />
    <glyph glyph-name="dotaccent" unicode="&#x2d9;" horiz-adv-x="1228" 
d="M733 1481q68 0 114 -45.5t46 -108.5q0 -67 -45.5 -111.5t-114.5 -44.5t-113.5 44t-44.5 112q0 63 45 108.5t113 45.5z" />
    <glyph glyph-name="ring" unicode="&#x2da;" horiz-adv-x="1228" 
d="M979 1366q0 -104 -77 -178t-185 -74q-97 0 -161 63t-64 156q0 104 77 178t185 74q97 0 161 -63t64 -156zM821 1358q0 31 -22.5 52.5t-57.5 21.5q-37 0 -61.5 -26.5t-24.5 -62.5q0 -32 20 -53.5t54 -21.5q38 0 65 27t27 63z" />
    <glyph glyph-name="ogonek" unicode="&#x2db;" horiz-adv-x="1228" 
d="M545 0h184q-18 -16 -41 -37t-35.5 -32t-28.5 -26t-24 -23t-18 -19t-14.5 -18.5t-9 -16t-6 -16.5t-1.5 -17q0 -20 10.5 -30.5t38.5 -10.5q25 0 102 23l-43 -168q-65 -39 -149 -39q-77 0 -124.5 43t-47.5 113q0 63 42 127.5t165 146.5z" />
    <glyph glyph-name="tilde" unicode="&#x2dc;" horiz-adv-x="1228" 
d="M547 1198h-178q17 77 50 132t73.5 83t79 40.5t77.5 12.5q45 0 80 -12.5t53 -27.5t43.5 -27.5t55.5 -12.5q27 0 47 23t28 57h179q-18 -78 -51.5 -134t-74 -84.5t-79 -41t-78.5 -12.5q-47 0 -82 12t-52 27t-42.5 27t-54.5 12q-27 0 -47.5 -21.5t-26.5 -52.5z" />
    <glyph glyph-name="hungarumlaut" unicode="&#x2dd;" horiz-adv-x="1228" 
d="M621 1161h-242l205 295h334zM1001 1161h-241l205 295h333z" />
    <glyph glyph-name="uni0326" unicode="&#x326;" horiz-adv-x="0" 
d="M131 -399l178 307h293l-268 -307h-203z" />
    <glyph glyph-name="Wgrave" unicode="&#x1e80;" horiz-adv-x="1980" 
d="M1104 1511l-293 295h334l205 -295h-246zM2148 1372l-716 -1372h-302l-51 926l-483 -926h-295l-82 1372h279l43 -946l495 946h273l57 -946l481 946h301z" />
    <glyph glyph-name="wgrave" unicode="&#x1e81;" horiz-adv-x="1642" 
d="M856 1161l-293 295h334l205 -295h-246zM1731 1022l-582 -1024h-250l-65 602l-347 -602h-241l-107 1024h258l62 -629l360 629h211l68 -631l354 631h279z" />
    <glyph glyph-name="Wacute" unicode="&#x1e82;" horiz-adv-x="1980" 
d="M1346 1511h-246l205 295h333zM2148 1372l-716 -1372h-302l-51 926l-483 -926h-295l-82 1372h279l43 -946l495 946h273l57 -946l481 946h301z" />
    <glyph glyph-name="wacute" unicode="&#x1e83;" horiz-adv-x="1642" 
d="M1098 1161h-246l205 295h334zM1731 1022l-582 -1024h-250l-65 602l-347 -602h-241l-107 1024h258l62 -629l360 629h211l68 -631l354 631h279z" />
    <glyph glyph-name="Wdieresis" unicode="&#x1e84;" horiz-adv-x="1980" 
d="M1028 1501q-70 0 -116 45.5t-46 114.5q0 65 46.5 112.5t115.5 47.5t116.5 -48t47.5 -112q0 -69 -46.5 -114.5t-117.5 -45.5zM1470 1501q-70 0 -115.5 45.5t-45.5 114.5q0 65 46 112.5t115 47.5t116.5 -48t47.5 -112q0 -69 -46.5 -114.5t-117.5 -45.5zM2148 1372
l-716 -1372h-302l-51 926l-483 -926h-295l-82 1372h279l43 -946l495 946h273l57 -946l481 946h301z" />
    <glyph glyph-name="wdieresis" unicode="&#x1e85;" horiz-adv-x="1642" 
d="M780 1151q-70 0 -116 45.5t-46 114.5q0 64 46.5 111.5t115.5 47.5t116.5 -47.5t47.5 -111.5q0 -69 -46.5 -114.5t-117.5 -45.5zM1223 1151q-70 0 -116 45.5t-46 114.5q0 64 46.5 111.5t115.5 47.5t116 -47.5t47 -111.5q0 -69 -46.5 -114.5t-116.5 -45.5zM1731 1022
l-582 -1024h-250l-65 602l-347 -602h-241l-107 1024h258l62 -629l360 629h211l68 -631l354 631h279z" />
    <glyph glyph-name="Ygrave" unicode="&#x1ef2;" horiz-adv-x="1415" 
d="M766 1511l-293 295h334l205 -295h-246zM823 438l-100 -438h-279l101 434l-326 938h289l225 -647l522 647h338z" />
    <glyph glyph-name="ygrave" unicode="&#x1ef3;" horiz-adv-x="1187" 
d="M623 1163l-293 295h334l204 -295h-245zM1276 1022l-891 -1370h-305l248 377l-189 993h281l119 -672l442 672h295z" />
    <glyph glyph-name="endash" unicode="&#x2013;" horiz-adv-x="1271" 
d="M1126 420h-1024l48 205h1024z" />
    <glyph glyph-name="emdash" unicode="&#x2014;" horiz-adv-x="2131" 
d="M1987 420h-1885l48 205h1884z" />
    <glyph glyph-name="quoteleft" unicode="&#x2018;" horiz-adv-x="577" 
d="M496 1372h215l-250 -549h-324l2 6z" />
    <glyph glyph-name="quoteright" unicode="&#x2019;" horiz-adv-x="577" 
d="M352 823h-215l250 549h324l-2 -6z" />
    <glyph glyph-name="quotesinglbase" unicode="&#x201a;" horiz-adv-x="577" 
d="M100 -270h-215l250 549h324l-2 -7z" />
    <glyph glyph-name="quotedblleft" unicode="&#x201c;" horiz-adv-x="966" 
d="M496 1372h215l-250 -549h-324l2 6zM885 1372h215l-250 -549h-324l2 6z" />
    <glyph glyph-name="quotedblright" unicode="&#x201d;" horiz-adv-x="966" 
d="M352 823h-215l250 549h324l-2 -6zM741 823h-215l250 549h324l-2 -6z" />
    <glyph glyph-name="quotedblbase" unicode="&#x201e;" horiz-adv-x="966" 
d="M100 -270h-215l250 549h324l-2 -7zM489 -270h-215l250 549h324l-2 -7z" />
    <glyph glyph-name="dagger" unicode="&#x2020;" horiz-adv-x="831" 
d="M887 1159h-230l-116 -506h-187l117 506h-229l41 172h229l43 185h186l-43 -185h230z" />
    <glyph glyph-name="daggerdbl" unicode="&#x2021;" horiz-adv-x="831" 
d="M657 1159l-32 -149h229l-41 -172h-229l-43 -185h-187l43 185h-229l41 172h229l33 149h-229l41 172h229l43 185h186l-43 -185h230l-41 -172h-230z" />
    <glyph glyph-name="bullet" unicode="&#x2022;" horiz-adv-x="882" 
d="M444 868q149 0 250 -101t101 -239q0 -143 -100 -240.5t-251 -97.5t-250.5 97t-99.5 241q0 138 100.5 239t249.5 101z" />
    <glyph glyph-name="ellipsis" unicode="&#x2026;" horiz-adv-x="1601" 
d="M164 305q69 0 115.5 -47t46.5 -111q0 -66 -46 -110.5t-116 -44.5t-116 44.5t-46 110.5q0 64 46.5 111t115.5 47zM717 305q69 0 115.5 -47t46.5 -111q0 -66 -46 -110.5t-116 -44.5t-116 44.5t-46 110.5q0 64 46.5 111t115.5 47zM1270 305q69 0 115.5 -47t46.5 -111
q0 -66 -46 -110.5t-116 -44.5t-116 44.5t-46 110.5q0 64 46.5 111t115.5 47z" />
    <glyph glyph-name="perthousand" unicode="&#x2030;" horiz-adv-x="2584" 
d="M588 1403q136 0 225.5 -84t89.5 -221q0 -157 -111 -258t-262 -101q-135 0 -225 85t-90 223q0 156 110.5 256t262.5 100zM199 0l1321 1372h178l-1321 -1372h-178zM571 1219q-59 0 -106 -44t-47 -114q0 -63 37.5 -100t91.5 -37q60 0 106.5 44t46.5 115q0 63 -37.5 99.5
t-91.5 36.5zM1376 633q136 0 226 -84t90 -221q0 -156 -110.5 -257.5t-262.5 -101.5q-135 0 -225 84.5t-90 222.5q0 155 110.5 256t261.5 101zM2134 633q136 0 225.5 -84t89.5 -221q0 -156 -110 -257.5t-262 -101.5q-135 0 -225.5 84.5t-90.5 222.5q0 155 111 256t262 101z
M1360 449q-59 0 -106.5 -44t-47.5 -114q0 -63 37.5 -100t91.5 -37q60 0 107 44t47 115q0 63 -37.5 99.5t-91.5 36.5zM2118 449q-59 0 -106.5 -44t-47.5 -114q0 -63 37.5 -100t91.5 -37q60 0 107 44t47 115q0 63 -37.5 99.5t-91.5 36.5z" />
    <glyph glyph-name="guilsinglleft" unicode="&#x2039;" horiz-adv-x="598" 
d="M57 537l314 364h266l-332 -377l146 -352h-248z" />
    <glyph glyph-name="guilsinglright" unicode="&#x203a;" horiz-adv-x="598" 
d="M553 537l-313 -365h-267l332 377l-145 352h248z" />
    <glyph glyph-name="fraction" unicode="&#x2044;" horiz-adv-x="487" 
d="M-526 0l1321 1372h178l-1321 -1372h-178z" />
    <glyph glyph-name="Euro" unicode="&#x20ac;" horiz-adv-x="1617" 
d="M911 229q217 0 344 281l267 -59q-92 -222 -265 -352t-387 -130q-205 0 -335 128t-158 347h-236l43 197h191q2 33 10 90h-188l43 195h198q87 219 262.5 348t395.5 129q215 0 347 -129.5t152 -351.5l-292 -56q-7 140 -75.5 209.5t-172.5 69.5q-99 0 -183 -58t-139 -161h400
l-80 -195h-385q-10 -71 -11 -90h363l-80 -197h-268q25 -102 86.5 -158.5t152.5 -56.5z" />
    <glyph glyph-name="uni2116" unicode="&#x2116;" horiz-adv-x="2459" 
d="M2097 1393q143 0 242.5 -86t99.5 -230q0 -105 -56.5 -194t-150.5 -140t-202 -51q-140 0 -235 85t-95 229q0 164 117 275.5t280 111.5zM1610 1372l-316 -1372h-233l-541 909l-211 -909h-278l315 1372h234l536 -928l215 928h279zM2052 889q67 0 119.5 51t52.5 119
q0 61 -43 99t-102 38q-66 0 -114 -49.5t-48 -118.5q0 -62 38.5 -100.5t96.5 -38.5zM1614 588h690l-55 -219h-690z" />
    <glyph glyph-name="uni2117" unicode="&#x2117;" horiz-adv-x="1548" 
d="M813 1403q145 0 276.5 -54t228.5 -148.5t154.5 -229.5t57.5 -289q0 -203 -97.5 -367.5t-261.5 -255t-358 -90.5q-195 0 -359.5 90.5t-262 255t-97.5 367.5q0 154 57.5 289t154.5 229.5t229 148.5t278 54zM813 86q120 0 228 45t188 123t127 190t47 240t-47 241.5
t-127 192.5t-188.5 124.5t-227.5 45.5q-120 0 -229 -45.5t-189 -124.5t-127 -192.5t-47 -241.5t47 -240t127 -190t189 -123t229 -45zM541 1057h348q136 0 215.5 -72.5t79.5 -191.5q0 -124 -79.5 -198.5t-215.5 -74.5h-187v-211h-161v748zM702 670h175q67 0 108 33.5t41 89.5
q0 53 -41 84.5t-108 31.5h-175v-239z" />
    <glyph glyph-name="trademark" unicode="&#x2122;" horiz-adv-x="1368" 
d="M745 1241h-176l-98 -426h-156l99 426h-172l28 131h504zM1346 815h-146l74 326l-199 -324h-90l-51 324l-74 -326h-145l127 557h170l55 -352l219 352h187z" />
    <glyph glyph-name="oneeighth" unicode="&#x215b;" horiz-adv-x="1630" 
d="M1524 1372l-1321 -1372h-178l1321 1372h178zM342 1126l-190 -88l45 201l270 133h129l-178 -778h-197zM1403 369q49 -28 75.5 -71.5t26.5 -94.5q0 -105 -89 -173.5t-226 -68.5q-133 0 -214 62.5t-81 162.5q0 70 50.5 127.5t137.5 81.5q-86 61 -86 166q0 102 81.5 164.5
t211.5 62.5q123 0 197 -56.5t74 -151.5q0 -72 -41.5 -127.5t-116.5 -83.5zM1282 649q-45 0 -74.5 -24t-29.5 -72q0 -41 26 -62.5t68 -21.5q46 0 77 24.5t31 69.5q0 42 -28 64t-70 22zM1194 111q49 0 83 26t34 76q0 44 -30.5 67t-76.5 23q-48 0 -80 -25.5t-32 -76.5
q0 -43 28.5 -66.5t73.5 -23.5z" />
    <glyph glyph-name="threeeighths" unicode="&#x215c;" horiz-adv-x="1818" 
d="M745 842q-5 -119 -97 -193t-236 -74q-129 0 -208.5 72t-78.5 189l168 38q3 -64 40.5 -102.5t96.5 -38.5q60 0 97.5 29.5t37.5 75.5q0 88 -104 88h-92l37 141h100q53 0 88.5 26t36.5 68q2 42 -25 67t-80 25q-54 0 -93.5 -40.5t-51.5 -106.5l-162 37q18 116 106.5 190
t217.5 74q123 0 197 -63.5t71 -161.5q-3 -138 -139 -193q76 -48 73 -147zM1712 1372l-1321 -1372h-178l1321 1372h178zM1591 369q49 -28 76 -71.5t27 -94.5q0 -105 -89 -173.5t-227 -68.5q-133 0 -214 62.5t-81 162.5q0 70 51 127.5t138 81.5q-86 61 -86 166
q0 102 81.5 164.5t211.5 62.5q123 0 196.5 -56.5t73.5 -151.5q0 -72 -41.5 -127.5t-116.5 -83.5zM1470 649q-45 0 -74.5 -24t-29.5 -72q0 -41 26 -62.5t68 -21.5q46 0 77.5 24.5t31.5 69.5q0 42 -28 64t-71 22zM1382 111q49 0 83 26t34 76q0 44 -30 67t-76 23
q-48 0 -80.5 -25.5t-32.5 -76.5q0 -43 28.5 -66.5t73.5 -23.5z" />
    <glyph glyph-name="fiveeighths" unicode="&#x215d;" horiz-adv-x="1818" 
d="M752 870q0 -132 -91.5 -212t-242.5 -80q-129 0 -211 67t-88 164l188 35q8 -46 40.5 -73.5t82.5 -27.5q60 0 96.5 31.5t36.5 83.5q0 36 -26 58t-68 22h-287l111 434h543l-35 -172h-375l-27 -102h107q107 0 176.5 -61.5t69.5 -166.5zM1741 1372l-1321 -1372h-178l1321 1372
h178zM1589 369q49 -28 76 -71.5t27 -94.5q0 -105 -89 -173.5t-227 -68.5q-133 0 -214 62.5t-81 162.5q0 70 51 127.5t138 81.5q-86 61 -86 166q0 102 81.5 164.5t211.5 62.5q123 0 196.5 -56.5t73.5 -151.5q0 -72 -41.5 -127.5t-116.5 -83.5zM1468 649q-45 0 -74.5 -24
t-29.5 -72q0 -41 26 -62.5t68 -21.5q46 0 77.5 24.5t31.5 69.5q0 42 -28 64t-71 22zM1380 111q49 0 83 26t34 76q0 44 -30 67t-76 23q-48 0 -80.5 -25.5t-32.5 -76.5q0 -43 28.5 -66.5t73.5 -23.5z" />
    <glyph glyph-name="seveneighths" unicode="&#x215e;" horiz-adv-x="1605" 
d="M1499 1372l-1321 -1372h-178l1321 1372h178zM121 594l416 606h-363l39 172h582l-35 -151l-418 -627h-221zM1378 369q49 -28 76 -71.5t27 -94.5q0 -105 -89 -173.5t-227 -68.5q-133 0 -214 62.5t-81 162.5q0 70 51 127.5t138 81.5q-86 61 -86 166q0 102 81.5 164.5
t211.5 62.5q123 0 196.5 -56.5t73.5 -151.5q0 -72 -41.5 -127.5t-116.5 -83.5zM1257 649q-45 0 -74.5 -24t-29.5 -72q0 -41 26 -62.5t68 -21.5q46 0 77.5 24.5t31.5 69.5q0 42 -28 64t-71 22zM1169 111q49 0 83 26t34 76q0 44 -30 67t-76 23q-48 0 -80.5 -25.5t-32.5 -76.5
q0 -43 28.5 -66.5t73.5 -23.5z" />
    <glyph glyph-name="arrowleft" unicode="&#x2190;" horiz-adv-x="1488" 
d="M1407 524h-852l344 -344l-197 -198l-682 682l685 684l196 -199l-346 -346h852v-279z" />
    <glyph glyph-name="arrowup" unicode="&#x2191;" horiz-adv-x="1529" 
d="M1249 508l-344 344v-852h-278v852l-346 -346l-199 196l684 684l682 -681z" />
    <glyph glyph-name="arrowright" unicode="&#x2192;" horiz-adv-x="1488" 
d="M1468 664l-682 -682l-196 198l344 344h-852v279h852l-346 346l196 199z" />
    <glyph glyph-name="arrowdown" unicode="&#x2193;" horiz-adv-x="1529" 
d="M1448 668l-682 -682l-684 684l199 196l346 -346v852h278v-852l344 344z" />
    <glyph glyph-name="uni2196" unicode="&#x2196;" horiz-adv-x="1529" 
d="M1251 -16l-911 913v-532h-279v1007h1006l-2 -278h-528l911 -912z" />
    <glyph glyph-name="uni2197" unicode="&#x2197;" horiz-adv-x="1529" 
d="M1468 1372v-1007h-278v532l-911 -913l-197 198l911 912h-528l-2 278h1005z" />
    <glyph glyph-name="uni2198" unicode="&#x2198;" horiz-adv-x="1529" 
d="M1468 1008v-1008h-1005l2 279h528l-911 911l197 199l911 -914v533h278z" />
    <glyph glyph-name="uni2199" unicode="&#x2199;" horiz-adv-x="1529" 
d="M1065 279l2 -279h-1006v1008h279v-533l911 914l197 -199l-911 -911h528z" />
    <glyph glyph-name="minus" unicode="&#x2212;" horiz-adv-x="1189" 
d="M1065 506h-942l55 237h942z" />
    <glyph glyph-name="approxequal" unicode="&#x2248;" horiz-adv-x="1187" 
d="M1163 934l-51 -223q-85 -39 -219 -39q-72 0 -135 14t-102.5 31t-101 31t-130.5 14q-169 0 -256 -60l51 222q94 61 256 61q87 0 163.5 -22.5t152 -45t159.5 -22.5q134 0 213 39zM1094 633l-52 -221q-90 -41 -219 -41q-72 0 -135 14.5t-102.5 31.5t-101 31.5t-130.5 14.5
q-165 0 -256 -60l52 222q94 61 256 61q87 0 163.5 -22.5t152 -45t159.5 -22.5q135 0 213 37z" />
    <glyph glyph-name="notequal" unicode="&#x2260;" horiz-adv-x="1189" 
d="M801 743l-131 -170h411l-55 -235h-539l-110 -141h-240l111 141h-164l55 235h291l131 170h-383l55 236h510l117 149h240l-117 -149h193l-56 -236h-319z" />
    <glyph glyph-name="lessequal" unicode="&#x2264;" horiz-adv-x="882" 
d="M410 788l424 -104l-56 -256l-678 250l62 262l792 248l-69 -289zM41 406h735l-53 -236h-735z" />
    <glyph glyph-name="greaterequal" unicode="&#x2265;" horiz-adv-x="884" 
d="M606 827l-424 105l62 260l678 -250l-60 -262l-792 -248l61 285zM743 170h-735l55 236h736z" />
    <glyph glyph-name="K.ss03" horiz-adv-x="1411" 
d="M926 791l358 -791h-317l-256 586l-361 -342l-55 -244h-279l316 1372h278l-157 -688l747 688h338z" />
    <glyph glyph-name="Kcommaaccent.ss03" horiz-adv-x="1411" 
d="M926 791l358 -791h-317l-256 586l-361 -342l-55 -244h-279l316 1372h278l-157 -688l747 688h338zM453 -92h292l-268 -307h-203z" />
    <glyph glyph-name="Q.ss04" horiz-adv-x="1609" 
d="M1212 -348l-254 336q-107 -21 -192 -21q-207 -1 -363.5 94.5t-229.5 260.5t-46 364q28 197 145.5 363t291.5 262t364 96q209 0 366 -99t228.5 -264.5t44.5 -359.5q-24 -183 -109.5 -329t-218.5 -240l358 -463h-385zM406 684q-18 -129 27.5 -234.5t135.5 -163t201 -57.5
q200 0 344 127.5t172 327.5q27 194 -80 326.5t-282 132.5q-199 0 -344.5 -130.5t-173.5 -328.5z" />
    <glyph glyph-name="I.ss05" horiz-adv-x="933" 
d="M748 1120l-201 -868h287l-58 -252h-852l58 252h286l201 868h-287l58 252h852l-58 -252h-286z" />
    <glyph glyph-name="IJ.ss05" horiz-adv-x="2150" 
d="M547 252h287l-58 -252h-852l58 252h286l201 868h-287l58 252h852l-58 -252h-286zM2218 1372l-209 -887q-57 -249 -212 -382.5t-390 -133.5q-201 0 -330 122.5t-135 326.5l264 53q0 -112 58 -182t168 -70q113 0 190.5 73.5t108.5 192.5l149 635h-498l58 252h778z" />
    <glyph glyph-name="Iacute.ss05" horiz-adv-x="933" 
d="M827 1511h-245l204 295h334zM1092 1372l-58 -252h-286l-201 -868h287l-58 -252h-852l58 252h286l201 868h-287l58 252h852z" />
    <glyph glyph-name="Icircumflex.ss05" horiz-adv-x="933" 
d="M668 1493h-283l305 305h256l162 -305h-254l-63 127zM1092 1372l-58 -252h-286l-201 -868h287l-58 -252h-852l58 252h286l201 868h-287l58 252h852z" />
    <glyph glyph-name="Idieresis.ss05" horiz-adv-x="933" 
d="M510 1501q-70 0 -116 45.5t-46 114.5q0 65 46.5 112.5t115.5 47.5t116.5 -48t47.5 -112q0 -69 -46.5 -114.5t-117.5 -45.5zM952 1501q-70 0 -115.5 45.5t-45.5 114.5q0 65 46 112.5t115 47.5t116.5 -48t47.5 -112q0 -69 -46.5 -114.5t-117.5 -45.5zM1092 1372l-58 -252
h-286l-201 -868h287l-58 -252h-852l58 252h286l201 868h-287l58 252h852z" />
    <glyph glyph-name="Idotaccent.ss05" horiz-adv-x="933" 
d="M733 1522q-69 0 -113.5 43.5t-44.5 111.5q0 63 45 108.5t113 45.5t114 -45.5t46 -108.5q0 -67 -45.5 -111t-114.5 -44zM748 1120l-201 -868h287l-58 -252h-852l58 252h286l201 868h-287l58 252h852l-58 -252h-286z" />
    <glyph glyph-name="Igrave.ss05" horiz-adv-x="933" 
d="M586 1511l-293 295h334l204 -295h-245zM748 1120l-201 -868h287l-58 -252h-852l58 252h286l201 868h-287l58 252h852l-58 -252h-286z" />
    <glyph glyph-name="Imacron.ss05" horiz-adv-x="933" 
d="M1026 1522h-651l49 221h651zM748 1120l-201 -868h287l-58 -252h-852l58 252h286l201 868h-287l58 252h852l-58 -252h-286z" />
    <glyph glyph-name="Iogonek.ss05" horiz-adv-x="933" 
d="M748 1120l-201 -868h287l-58 -252h-287q-18 -16 -41 -37t-35.5 -32t-28.5 -26t-24 -23t-18 -19t-14.5 -18.5t-9 -16t-6 -16.5t-1.5 -17q0 -20 10.5 -30.5t38.5 -10.5q26 0 103 23l-43 -168q-65 -39 -150 -39q-77 0 -124.5 43t-47.5 113q0 63 42 127.5t165 146.5h-381
l58 252h286l201 868h-287l58 252h852l-58 -252h-286z" />
    <glyph glyph-name="J.ss05" horiz-adv-x="1216" 
d="M1284 1372l-209 -887q-57 -249 -212 -382.5t-390 -133.5q-201 0 -330 122.5t-135 326.5l264 53q0 -112 58 -182t168 -70q113 0 190.5 73.5t108.5 192.5l149 635h-497l57 252h778z" />
    <glyph glyph-name="i.loclTRK" horiz-adv-x="606" 
d="M489 1481q68 0 114 -45.5t46 -108.5q0 -67 -45.5 -111.5t-114.5 -44.5t-113 44t-44 112q0 63 44.5 108.5t112.5 45.5zM319 0h-270l238 1022h270z" />
    <glyph glyph-name="germandbls.case" horiz-adv-x="2535" 
d="M797 1403q219 0 352.5 -104.5t150.5 -290.5l-280 -58q-1 96 -71 156.5t-179 60.5q-107 0 -177.5 -56.5t-70.5 -135.5q0 -43 28.5 -71.5t96.5 -51.5l199 -59q152 -45 233.5 -130.5t81.5 -224.5q0 -212 -156.5 -340.5t-412.5 -128.5q-83 0 -160 15t-146.5 47t-122 79
t-85.5 115.5t-39 151.5l295 59q12 -115 85.5 -171t196.5 -56q129 0 200 55t71 142q0 50 -32 79t-114 54l-194 55q-50 15 -88.5 30.5t-83.5 44t-74.5 63.5t-49.5 88t-20 118q0 204 158.5 334.5t407.5 130.5zM2044 1403q219 0 353 -104.5t151 -290.5l-281 -58q-1 96 -71 156.5
t-179 60.5q-107 0 -177.5 -56.5t-70.5 -135.5q0 -43 28.5 -71.5t96.5 -51.5l199 -59q152 -45 233.5 -130.5t81.5 -224.5q0 -212 -156.5 -340.5t-412.5 -128.5q-83 0 -160 15t-146.5 47t-122 79t-85.5 115.5t-39 151.5l295 59q12 -115 86 -171t197 -56q129 0 199.5 55
t70.5 142q0 50 -32 79t-113 54l-195 55q-50 15 -88.5 30.5t-83.5 44t-74 63.5t-49 88t-20 118q0 204 158 334.5t407 130.5z" />
    <glyph glyph-name="a.ss01" horiz-adv-x="1142" 
d="M676 1053q222 0 328.5 -115t58.5 -326l-141 -612h-258l18 82q-147 -113 -340 -113q-156 0 -244 73.5t-88 205.5q0 162 135.5 268.5t374.5 106.5h287l6 24q19 79 -23 128.5t-139 49.5q-85 0 -153 -40t-103 -115l-241 63q61 144 205.5 232t316.5 88zM754 393l6 25h-301
q-82 0 -132.5 -35t-50.5 -92q0 -50 42.5 -78.5t113.5 -28.5q110 0 206.5 63t115.5 146z" />
    <glyph glyph-name="aacute.ss01" horiz-adv-x="1142" 
d="M901 1161h-246l205 295h334zM676 1053q222 0 328.5 -115t58.5 -326l-141 -612h-258l18 82q-147 -113 -340 -113q-156 0 -244 73.5t-88 205.5q0 162 135.5 268.5t374.5 106.5h287l6 24q19 79 -23 128.5t-139 49.5q-85 0 -153 -40t-103 -115l-241 63q61 144 205.5 232
t316.5 88zM754 393l6 25h-301q-82 0 -132.5 -35t-50.5 -92q0 -50 42.5 -78.5t113.5 -28.5q110 0 206.5 63t115.5 146z" />
    <glyph glyph-name="abreve.ss01" horiz-adv-x="1142" 
d="M762 1120q-158 0 -231 83t-39 224h208q-13 -54 13.5 -87t77.5 -33t92.5 33t54.5 87h238q-34 -141 -145 -224t-269 -83zM676 1053q222 0 328.5 -115t58.5 -326l-141 -612h-258l18 82q-147 -113 -340 -113q-156 0 -244 73.5t-88 205.5q0 162 135.5 268.5t374.5 106.5h287
l6 24q19 79 -23 128.5t-139 49.5q-85 0 -153 -40t-103 -115l-241 63q61 144 205.5 232t316.5 88zM754 393l6 25h-301q-82 0 -132.5 -35t-50.5 -92q0 -50 42.5 -78.5t113.5 -28.5q110 0 206.5 63t115.5 146z" />
    <glyph glyph-name="acircumflex.ss01" horiz-adv-x="1142" 
d="M741 1143h-282l305 305h256l162 -305h-254l-64 127zM676 1053q222 0 328.5 -115t58.5 -326l-141 -612h-258l18 82q-147 -113 -340 -113q-156 0 -244 73.5t-88 205.5q0 162 135.5 268.5t374.5 106.5h287l6 24q19 79 -23 128.5t-139 49.5q-85 0 -153 -40t-103 -115l-241 63
q61 144 205.5 232t316.5 88zM754 393l6 25h-301q-82 0 -132.5 -35t-50.5 -92q0 -50 42.5 -78.5t113.5 -28.5q110 0 206.5 63t115.5 146z" />
    <glyph glyph-name="adieresis.ss01" horiz-adv-x="1142" 
d="M584 1151q-70 0 -116 45.5t-46 114.5q0 64 46.5 111.5t115.5 47.5t116.5 -47.5t47.5 -111.5q0 -69 -46.5 -114.5t-117.5 -45.5zM1026 1470q69 0 116.5 -47.5t47.5 -111.5q0 -69 -46.5 -114.5t-117.5 -45.5q-70 0 -116 45.5t-46 114.5q0 64 46.5 111.5t115.5 47.5z
M676 1053q222 0 328.5 -115t58.5 -326l-141 -612h-258l18 82q-147 -113 -340 -113q-156 0 -244 73.5t-88 205.5q0 162 135.5 268.5t374.5 106.5h287l6 24q19 79 -23 128.5t-139 49.5q-85 0 -153 -40t-103 -115l-241 63q61 144 205.5 232t316.5 88zM754 393l6 25h-301
q-82 0 -132.5 -35t-50.5 -92q0 -50 42.5 -78.5t113.5 -28.5q110 0 206.5 63t115.5 146z" />
    <glyph glyph-name="agrave.ss01" horiz-adv-x="1142" 
d="M659 1161l-292 295h333l205 -295h-246zM676 1053q222 0 328.5 -115t58.5 -326l-141 -612h-258l18 82q-147 -113 -340 -113q-156 0 -244 73.5t-88 205.5q0 162 135.5 268.5t374.5 106.5h287l6 24q19 79 -23 128.5t-139 49.5q-85 0 -153 -40t-103 -115l-241 63
q61 144 205.5 232t316.5 88zM754 393l6 25h-301q-82 0 -132.5 -35t-50.5 -92q0 -50 42.5 -78.5t113.5 -28.5q110 0 206.5 63t115.5 146z" />
    <glyph glyph-name="amacron.ss01" horiz-adv-x="1142" 
d="M1149 1393l-49 -222h-651l49 222h651zM676 1053q222 0 328.5 -115t58.5 -326l-141 -612h-258l18 82q-147 -113 -340 -113q-156 0 -244 73.5t-88 205.5q0 162 135.5 268.5t374.5 106.5h287l6 24q19 79 -23 128.5t-139 49.5q-85 0 -153 -40t-103 -115l-241 63
q61 144 205.5 232t316.5 88zM754 393l6 25h-301q-82 0 -132.5 -35t-50.5 -92q0 -50 42.5 -78.5t113.5 -28.5q110 0 206.5 63t115.5 146z" />
    <glyph glyph-name="aogonek.ss01" horiz-adv-x="1142" 
d="M676 1053q222 0 328.5 -115t58.5 -326l-141 -612q-20 -18 -45.5 -41t-39 -35t-30.5 -28t-25 -24.5t-17 -20t-13 -19.5t-6.5 -17.5t-2.5 -19.5q0 -41 50 -41q25 0 102 23l-43 -168q-65 -39 -150 -39q-77 0 -124.5 43t-47.5 113q0 63 42 127.5t165 146.5h-73l18 82
q-147 -113 -340 -113q-156 0 -244 73.5t-88 205.5q0 162 135.5 268.5t374.5 106.5h287l6 24q19 79 -23 128.5t-139 49.5q-85 0 -153 -40t-103 -115l-241 63q61 144 205.5 232t316.5 88zM754 393l6 25h-301q-82 0 -132.5 -35t-50.5 -92q0 -50 42.5 -78.5t113.5 -28.5
q110 0 206.5 63t115.5 146z" />
    <glyph glyph-name="aring.ss01" horiz-adv-x="1142" 
d="M791 1114q-98 0 -162 63t-64 156q0 104 77 178t185 74q98 0 162 -63t64 -156q0 -104 -77 -178t-185 -74zM815 1432q-37 0 -61.5 -26.5t-24.5 -62.5q0 -32 20 -53.5t54 -21.5q38 0 65 27t27 63q0 31 -22.5 52.5t-57.5 21.5zM676 1053q222 0 328.5 -115t58.5 -326
l-141 -612h-258l18 82q-147 -113 -340 -113q-156 0 -244 73.5t-88 205.5q0 162 135.5 268.5t374.5 106.5h287l6 24q19 79 -23 128.5t-139 49.5q-85 0 -153 -40t-103 -115l-241 63q61 144 205.5 232t316.5 88zM754 393l6 25h-301q-82 0 -132.5 -35t-50.5 -92
q0 -50 42.5 -78.5t113.5 -28.5q110 0 206.5 63t115.5 146z" />
    <glyph glyph-name="atilde.ss01" horiz-adv-x="1142" 
d="M1030 1466h178q-18 -78 -51 -134t-73.5 -84.5t-79 -41t-78.5 -12.5q-47 0 -82 12t-52.5 27t-43 27t-54.5 12q-27 0 -47 -21.5t-26 -52.5h-179q17 77 50.5 132t74 83t79 40.5t77.5 12.5q45 0 80 -12.5t52.5 -27.5t43 -27.5t55.5 -12.5q27 0 47.5 23t28.5 57zM676 1053
q222 0 328.5 -115t58.5 -326l-141 -612h-258l18 82q-147 -113 -340 -113q-156 0 -244 73.5t-88 205.5q0 162 135.5 268.5t374.5 106.5h287l6 24q19 79 -23 128.5t-139 49.5q-85 0 -153 -40t-103 -115l-241 63q61 144 205.5 232t316.5 88zM754 393l6 25h-301
q-82 0 -132.5 -35t-50.5 -92q0 -50 42.5 -78.5t113.5 -28.5q110 0 206.5 63t115.5 146z" />
    <glyph glyph-name="l.ss02" horiz-adv-x="673" 
d="M616 1475l-266 -1151q-27 -101 72 -101q50 0 135 29l35 -236q-63 -27 -110.5 -37t-119.5 -10t-131.5 25t-99.5 73t-53.5 118t6.5 161l262 1129h270z" />
    <glyph glyph-name="lacute.ss02" horiz-adv-x="673" 
d="M637 1614h-246l205 295h334zM616 1475l-266 -1151q-27 -101 72 -101q50 0 135 29l35 -236q-63 -27 -110.5 -37t-119.5 -10t-131.5 25t-99.5 73t-53.5 118t6.5 161l262 1129h270z" />
    <glyph glyph-name="lcaron.ss02" horiz-adv-x="673" 
d="M616 1475l-266 -1151q-27 -101 72 -101q50 0 135 29l35 -236q-63 -27 -110.5 -37t-119.5 -10t-131.5 25t-99.5 73t-53.5 118t6.5 161l262 1129h270zM825 1067h-213l95 408h272z" />
    <glyph glyph-name="lcommaaccent.ss02" horiz-adv-x="673" 
d="M616 1475l-266 -1151q-27 -101 72 -101q50 0 135 29l35 -236q-63 -27 -110.5 -37t-119.5 -10t-131.5 25t-99.5 73t-53.5 118t6.5 161l262 1129h270zM-53 -399l178 307h293l-268 -307h-203z" />
    <glyph glyph-name="ldot.ss02" horiz-adv-x="841" 
d="M637 1475l-266 -1151q-27 -101 71 -101q51 0 136 29l34 -236q-63 -27 -110 -37t-119 -10q-151 0 -234.5 101.5t-44.5 275.5l263 1129h270zM791 874q68 0 113.5 -45t45.5 -108q0 -68 -45 -112t-114 -44t-113.5 44t-44.5 112q0 63 45 108t113 45z" />
    <glyph glyph-name="lslash.ss02" horiz-adv-x="759" 
d="M508 223q50 0 135 29l35 -236q-63 -27 -110 -37t-119 -10q-151 0 -234.5 101.5t-44.5 275.5l35 146l-139 -70l59 260l139 72l168 721h270l-131 -568l160 82l-61 -260l-158 -80l-76 -325q-27 -101 72 -101z" />
    <glyph glyph-name="k.ss03" horiz-adv-x="1265" 
d="M831 629l316 -629h-311l-215 442l-279 -245l-45 -197h-270l340 1475h270l-203 -879l494 426h350z" />
    <glyph glyph-name="kcommaaccent.ss03" horiz-adv-x="1265" 
d="M831 629l316 -629h-311l-215 442l-279 -245l-45 -197h-270l340 1475h270l-203 -879l494 426h350zM412 -92h293l-269 -307h-203z" />
    <glyph glyph-name="f_j" horiz-adv-x="1386" 
d="M1352 1022l-254 -1114q-31 -133 -132.5 -215t-236.5 -82q-103 0 -199 39l103 235q55 -20 88 -20q43 0 75.5 22.5t39.5 57.5l194 856h-495l-187 -801h-270l186 801h-155l51 221h155l21 92q41 178 177.5 282.5t322.5 104.5q97 0 172 -37l-109 -219q-59 17 -100 17
q-72 0 -124 -38.5t-69 -109.5l-20 -92h766zM1280 1489q69 0 116.5 -48t47.5 -114q0 -68 -47 -113t-117 -45q-72 0 -118 45t-46 113q0 66 47 114t117 48z" />
    <glyph glyph-name="f_t" horiz-adv-x="1624" 
d="M1260 801l-93 -404q-21 -92 -0.5 -134t84.5 -42q87 0 187 49l14 -235q-132 -66 -266 -66q-117 0 -191.5 42.5t-105 133t3.5 232.5l98 424h-456l-187 -801h-270l186 801h-155l51 221h155l21 92q41 178 177.5 282.5t322.5 104.5q97 0 172 -37l-109 -219q-59 17 -100 17
q-72 0 -124 -38.5t-69 -109.5l-20 -92h454l72 309h270l-71 -309h336l-52 -221h-335z" />
    <glyph glyph-name="fl.ss02" horiz-adv-x="1431" 
d="M535 801l-185 -801h-270l184 801h-155l51 221h155l21 92q44 187 167 287t304 100q109 0 172 -37l-49 -215q-74 13 -139 13q-67 0 -117.5 -39t-67.5 -109l-20 -92h309l-51 -221h-309zM1180 223q50 0 135 29l35 -236q-63 -27 -110.5 -37t-119.5 -10t-131.5 25t-99.5 73
t-53.5 118t6.5 161l262 1129h270l-266 -1151q-27 -101 72 -101z" />
    <glyph glyph-name="zero.tf" 
d="M780 1403q169 0 285 -90t161.5 -253t10.5 -374q-51 -321 -240 -519t-444 -198q-169 0 -285.5 89.5t-162.5 252.5t-11 375q51 320 241 518.5t445 198.5zM584 225q133 0 236 128.5t134 332.5q33 208 -20.5 334.5t-183.5 126.5q-134 0 -238 -128.5t-135 -332.5
q-33 -207 22 -334t185 -127z" />
    <glyph glyph-name="one.tf" 
d="M1069 252l-57 -252h-971l57 252h379l178 772l-374 -197l67 293l486 252h172l-258 -1120h321z" />
    <glyph glyph-name="two.tf" 
d="M573 252h494l-61 -252h-947l56 180l559 459l37.5 30t42 34.5t40.5 36t41 41t34 43.5t29.5 49t18 52t7.5 58q0 80 -50 130t-139 50q-93 0 -154.5 -62.5t-82.5 -189.5l-260 54q29 201 171.5 319.5t346.5 118.5q196 0 313 -108t117 -291q0 -143 -83 -266t-276 -279z" />
    <glyph glyph-name="three.tf" 
d="M1214 1034q0 -125 -67 -221t-182 -143q127 -95 127 -262q0 -85 -36.5 -163.5t-102.5 -140t-167 -98.5t-221 -37q-222 0 -356.5 118t-130.5 316l248 56q5 -116 65.5 -183t175.5 -67t184.5 63t69.5 150q0 75 -53.5 119.5t-140.5 44.5h-183l64 221h168q127 0 208 54.5
t81 144.5q0 74 -54.5 119.5t-144.5 45.5q-95 0 -164.5 -54.5t-91.5 -176.5l-250 47q37 192 178.5 304t343.5 112q196 0 314 -102t118 -267z" />
    <glyph glyph-name="four.tf" 
d="M1010 502h149l-51 -226h-150l-63 -276h-270l63 276h-665l59 256l760 840h368zM739 502l135 592l-522 -592h387z" />
    <glyph glyph-name="five.tf" 
d="M532 1120l-63 -239h162q211 0 336 -101t125 -293q0 -106 -39 -200.5t-109 -165t-174.5 -111.5t-228.5 -41q-231 0 -372.5 134t-131.5 350l258 49q0 -136 68 -216.5t192 -80.5q118 0 189 71t71 173q0 94 -65.5 144t-174.5 50h-430l191 729h909l-59 -252h-654z" />
    <glyph glyph-name="six.tf" 
d="M717 889q191 0 310.5 -116.5t119.5 -301.5q0 -140 -71.5 -255t-196.5 -181t-277 -66q-155 0 -272.5 72.5t-179.5 199.5t-62 291q0 194 58 359t156.5 276t230 173.5t278.5 62.5q115 0 210.5 -36.5t161.5 -111t83 -178.5l-258 -51q-13 65 -69.5 99t-139.5 34
q-153 0 -272.5 -112.5t-153.5 -282.5q63 60 153.5 92.5t190.5 32.5zM614 217q99 0 174.5 68.5t75.5 169.5q0 92 -61.5 149.5t-147.5 57.5q-98 0 -173.5 -68.5t-75.5 -171.5q0 -91 61 -148t147 -57z" />
    <glyph glyph-name="seven.tf" 
d="M1368 1372l-45 -198l-823 -1174h-330l799 1120h-719l57 252h1061z" />
    <glyph glyph-name="eight.tf" 
d="M930 674q93 -47 143.5 -124t50.5 -171q0 -178 -151 -294t-391 -116q-231 0 -370.5 106t-139.5 277q0 127 93 227t253 136q-168 94 -168 295q0 175 141 284t365 109q212 0 338.5 -100t126.5 -265q0 -131 -76 -227t-215 -137zM741 1180q-90 0 -153.5 -49t-63.5 -138
q0 -80 56.5 -123t142.5 -43q92 0 157.5 48.5t65.5 136.5q0 79 -60 123.5t-145 44.5zM588 201q99 0 167 51.5t68 144.5q0 84 -62.5 130t-154.5 46q-97 0 -163 -51t-66 -145q0 -84 60.5 -130t150.5 -46z" />
    <glyph glyph-name="nine.tf" 
d="M719 1401q155 0 272.5 -72.5t179.5 -199.5t62 -291q0 -194 -58 -359t-156.5 -276t-230 -173.5t-278.5 -62.5q-115 0 -210.5 36.5t-161.5 111t-83 178.5l258 51q13 -65 69.5 -99t139.5 -34q153 0 272.5 112.5t153.5 282.5q-63 -60 -153.5 -92.5t-190.5 -32.5
q-191 0 -310.5 116.5t-119.5 301.5q0 140 71.5 255t196.5 181t277 66zM666 709q98 0 173.5 68t75.5 171q0 91 -61 148t-147 57q-99 0 -174.5 -68.5t-75.5 -169.5q0 -92 61.5 -149t147.5 -57z" />
    <glyph glyph-name="zero.zero.tf" 
d="M780 1403q169 0 285 -90t161.5 -253t10.5 -374q-51 -321 -240 -519t-444 -198q-169 0 -285.5 89.5t-162.5 252.5t-11 375q51 320 241 518.5t445 198.5zM750 1147q-134 0 -238 -128.5t-135 -332.5q-8 -74 -10 -98l557 454q-57 105 -174 105zM584 225q133 0 236 128.5
t134 332.5q10 90 11 102l-557 -456q58 -107 176 -107z" />
    <glyph glyph-name="zero.zero" horiz-adv-x="1363" 
d="M811 1403q175 0 302.5 -89.5t182 -254.5t17.5 -373q-58 -327 -238 -522t-440 -195q-131 0 -237.5 52t-174 146t-94 226.5t3.5 292.5q38 214 130 375t233.5 251.5t314.5 90.5zM805 1147q-140 0 -246 -127.5t-143 -333.5q-15 -74 -15 -137l594 487q-62 111 -190 111z
M641 225q140 0 246 127.5t143 333.5q9 53 12 98l-577 -473q64 -86 176 -86z" />
    <glyph glyph-name="zero.dnom" horiz-adv-x="833" 
d="M449 791q154 0 230.5 -110t47.5 -296q-29 -184 -139.5 -294.5t-265.5 -110.5t-231.5 110t-47.5 295t140 295.5t266 110.5zM344 154q60 0 105 59t63 172q17 107 -7.5 167t-86.5 60q-63 0 -107 -60t-61 -167q-18 -112 7.5 -171.5t86.5 -59.5z" />
    <glyph glyph-name="one.dnom" horiz-adv-x="526" 
d="M281 0h-197l121 532l-191 -88l45 201l271 133h129z" />
    <glyph glyph-name="two.dnom" horiz-adv-x="731" 
d="M317 172h269l-35 -172h-590l33 131l328 242q78 60 113.5 98.5t35.5 81.5q0 38 -24.5 61t-65.5 23q-55 0 -90 -39t-43 -106l-174 28q7 126 98.5 202.5t222.5 76.5q121 0 187.5 -66.5t66.5 -171.5q0 -37 -10.5 -70.5t-26 -60t-47.5 -58.5t-61 -56t-80 -64z" />
    <glyph glyph-name="three.dnom" horiz-adv-x="735" 
d="M403 803q123 0 197.5 -63.5t71.5 -161.5q-3 -138 -140 -193q77 -48 74 -147q-5 -119 -97 -193t-237 -74q-129 0 -208 71.5t-78 188.5l168 39q3 -64 40.5 -102.5t96.5 -38.5q60 0 97.5 29t37.5 75q0 89 -104 89h-93l37 141h101q53 0 88.5 26t36.5 68q2 42 -25 67t-80 25
q-54 0 -93.5 -40.5t-51.5 -106.5l-162 37q18 116 106 190t217 74z" />
    <glyph glyph-name="four.dnom" horiz-adv-x="823" 
d="M684 143h-113l-32 -143h-185l33 143h-426l39 176l485 459h230l-109 -475h113zM424 303l65 277l-299 -277h234z" />
    <glyph glyph-name="five.dnom" horiz-adv-x="727" 
d="M289 602l-27 -102h107q107 0 176 -61.5t69 -166.5q0 -132 -91 -212t-242 -80q-129 0 -211 67t-88 164l188 35q8 -46 40.5 -73.5t82.5 -27.5q60 0 96.5 31.5t36.5 83.5q0 36 -26 58t-68 22h-287l111 434h542l-34 -172h-375z" />
    <glyph glyph-name="six.dnom" horiz-adv-x="741" 
d="M387 508q114 0 182 -66.5t68 -173.5q0 -126 -92.5 -207t-231.5 -81q-142 0 -222.5 90t-80.5 254q0 200 113 332t287 132q115 0 197 -58t91 -165l-192 -28q-5 92 -107 92q-67 0 -114.5 -47t-67.5 -119q73 45 170 45zM324 135q54 0 92.5 36.5t38.5 88.5q0 46 -32 78.5
t-81 32.5q-54 0 -92.5 -37.5t-38.5 -89.5q0 -47 32.5 -78t80.5 -31z" />
    <glyph glyph-name="seven.dnom" horiz-adv-x="616" 
d="M657 778l-34 -151l-418 -627h-221l415 606h-362l39 172h581z" />
    <glyph glyph-name="eight.dnom" horiz-adv-x="735" 
d="M508 369q49 -28 75.5 -71.5t26.5 -94.5q0 -105 -89 -173.5t-226 -68.5q-133 0 -214 62.5t-81 162.5q0 70 50.5 127.5t137.5 81.5q-86 61 -86 166q0 102 81.5 164.5t211.5 62.5q123 0 197 -56.5t74 -151.5q0 -72 -41.5 -127.5t-116.5 -83.5zM387 649q-45 0 -74.5 -24
t-29.5 -72q0 -41 26 -62.5t68 -21.5q46 0 77 24.5t31 69.5q0 42 -28 64t-70 22zM299 111q49 0 83 26t34 76q0 44 -30.5 67t-76.5 23q-48 0 -80 -25.5t-32 -76.5q0 -43 28.5 -66.5t73.5 -23.5z" />
    <glyph glyph-name="nine.dnom" horiz-adv-x="743" 
d="M371 788q142 0 222.5 -90t80.5 -254q0 -200 -113 -332t-287 -132q-115 0 -197 58t-91 165l192 28q5 -92 107 -92q67 0 114.5 47t67.5 119q-73 -45 -170 -45q-114 0 -182 66.5t-68 173.5q0 126 92.5 207t231.5 81zM342 397q54 0 92.5 37.5t38.5 89.5q0 47 -32.5 78
t-80.5 31q-54 0 -92.5 -36.5t-38.5 -88.5q0 -46 32 -78.5t81 -32.5z" />
    <glyph glyph-name="zero.numr" horiz-adv-x="833" 
d="M588 1393q154 0 230.5 -110t47.5 -296q-29 -185 -139.5 -295t-265.5 -110t-231.5 110t-47.5 295t140 295.5t266 110.5zM483 756q60 0 105 59t63 172q17 107 -7.5 167t-86.5 60q-63 0 -107 -60t-61 -167q-18 -112 7.5 -171.5t86.5 -59.5z" />
    <glyph glyph-name="one.numr" horiz-adv-x="526" 
d="M418 594h-197l121 532l-190 -88l45 201l270 133h129z" />
    <glyph glyph-name="two.numr" horiz-adv-x="731" 
d="M455 766h268l-35 -172h-590l33 131l328 242q78 60 113.5 98.5t35.5 81.5q0 38 -24.5 61t-65.5 23q-55 0 -90 -39.5t-43 -106.5l-174 29q7 126 98.5 202.5t222.5 76.5q121 0 187.5 -66.5t66.5 -171.5q0 -37 -10.5 -70.5t-26 -60t-47.5 -58.5t-61 -56t-80 -64z" />
    <glyph glyph-name="three.numr" horiz-adv-x="735" 
d="M543 1407q123 0 197 -63.5t71 -161.5q-3 -138 -139 -193q76 -48 73 -147q-5 -119 -97 -193t-236 -74q-129 0 -208.5 72t-78.5 189l168 38q3 -64 40.5 -102.5t96.5 -38.5q60 0 97.5 29.5t37.5 75.5q0 88 -104 88h-92l37 141h100q53 0 88.5 26t36.5 68q2 42 -25 67t-80 25
q-54 0 -93.5 -40.5t-51.5 -106.5l-162 37q18 116 106.5 190t217.5 74z" />
    <glyph glyph-name="four.numr" horiz-adv-x="823" 
d="M821 737h-112l-33 -143h-184l32 143h-426l39 176l486 459h229l-109 -475h113zM561 897l66 277l-299 -277h233z" />
    <glyph glyph-name="five.numr" horiz-adv-x="727" 
d="M426 1200l-27 -102h107q107 0 176.5 -61.5t69.5 -166.5q0 -132 -91.5 -212t-242.5 -80q-129 0 -211 67t-88 164l188 35q8 -46 40.5 -73.5t82.5 -27.5q60 0 96.5 31.5t36.5 83.5q0 36 -26 58t-68 22h-287l111 434h543l-35 -172h-375z" />
    <glyph glyph-name="six.numr" horiz-adv-x="741" 
d="M526 1112q114 0 182 -66.5t68 -173.5q0 -126 -92 -207t-231 -81q-142 0 -222.5 90t-80.5 254q0 200 112.5 332.5t286.5 132.5q114 0 197 -58.5t92 -165.5l-193 -28q-5 92 -106 92q-67 0 -115 -47t-68 -119q73 45 170 45zM463 739q54 0 92.5 36.5t38.5 88.5q0 46 -32 78.5
t-81 32.5q-54 0 -92.5 -37.5t-38.5 -89.5q0 -47 32.5 -78t80.5 -31z" />
    <glyph glyph-name="seven.numr" horiz-adv-x="616" 
d="M795 1372l-35 -151l-418 -627h-221l416 606h-363l39 172h582z" />
    <glyph glyph-name="eight.numr" horiz-adv-x="735" 
d="M639 973q49 -28 75.5 -71.5t26.5 -94.5q0 -105 -89 -173.5t-226 -68.5q-133 0 -214 63t-81 163q0 70 50.5 127t137.5 81q-86 61 -86 166q0 102 81.5 165t211.5 63q123 0 197 -57t74 -152q0 -72 -41.5 -127.5t-116.5 -83.5zM518 1253q-45 0 -74.5 -24t-29.5 -72
q0 -41 26 -62.5t68 -21.5q46 0 77 24.5t31 69.5q0 42 -28 64t-70 22zM430 715q49 0 83 26t34 76q0 44 -30.5 67t-76.5 23q-48 0 -80 -25.5t-32 -76.5q0 -43 28.5 -66.5t73.5 -23.5z" />
    <glyph glyph-name="nine.numr" horiz-adv-x="743" 
d="M510 1393q142 0 222.5 -90t80.5 -254q0 -200 -112.5 -332.5t-286.5 -132.5q-115 0 -197.5 58t-91.5 165l192 29q3 -50 33 -71.5t74 -21.5q67 0 114.5 47t67.5 119q-73 -45 -170 -45q-114 0 -182 66.5t-68 173.5q0 126 92.5 207.5t231.5 81.5zM481 1001q54 0 92.5 37.5
t38.5 89.5q0 47 -32 78t-80 31q-54 0 -92.5 -36.5t-38.5 -88.5q0 -47 31.5 -79t80.5 -32z" />
    <glyph glyph-name="backslash.case" horiz-adv-x="858" 
d="M688 0h-266l-172 1372h266z" />
    <glyph glyph-name="periodcentered.case" horiz-adv-x="495" 
d="M283 819q69 0 115 -46.5t46 -110.5q0 -67 -45.5 -111.5t-115.5 -44.5t-116 45t-46 111q0 64 46.5 110.5t115.5 46.5z" />
    <glyph glyph-name="bullet.case" horiz-adv-x="880" 
d="M477 1012q149 0 249.5 -101t100.5 -239q0 -144 -99.5 -241t-250.5 -97t-250.5 97t-99.5 241q0 138 100.5 239t249.5 101z" />
    <glyph glyph-name="colon.case" horiz-adv-x="497" 
d="M358 1137q69 0 115.5 -47t46.5 -111q0 -66 -46 -111t-116 -45t-115.5 44.5t-45.5 111.5q0 64 46 111t115 47zM207 489q69 0 115.5 -46.5t46.5 -110.5q0 -66 -46 -111t-116 -45t-116 45t-46 111q0 64 46.5 110.5t115.5 46.5z" />
    <glyph glyph-name="exclamdown.case" horiz-adv-x="598" 
d="M465 1067q-69 0 -115.5 47t-46.5 111q0 66 46 110.5t116 44.5t116 -44.5t46 -110.5q0 -64 -46.5 -111t-115.5 -47zM43 0l14 63l209 861h277l-189 -861l-14 -63h-297z" />
    <glyph glyph-name="questiondown.case" horiz-adv-x="1095" 
d="M719 1073q-69 0 -115.5 47t-46.5 111q0 66 46 110.5t116 44.5t116 -44.5t46 -110.5q0 -64 -46.5 -111t-115.5 -47zM772 451l252 -52q-30 -178 -182 -301t-367 -123q-198 0 -325 107t-127 280q0 123 67 222t177 155t245 68l27 111h247l-73 -320h-156q-57 0 -117.5 -22.5
t-107.5 -73t-47 -115.5q0 -80 57 -126t147 -46q106 0 181 66t102 170z" />
    <glyph glyph-name="semicolon.case" horiz-adv-x="571" 
d="M391 1137q69 0 115.5 -47t46.5 -111q0 -66 -46 -111t-116 -45t-116 45t-46 111q0 64 46.5 111t115.5 47zM84 -270h-215l250 549h323l-2 -7z" />
    <glyph glyph-name="slash.case" horiz-adv-x="978" 
d="M195 0h-240l827 1372h240z" />
    <glyph glyph-name="braceleft.case" horiz-adv-x="870" 
d="M643 1079l-41 -172q-19 -79 -67.5 -137t-118.5 -84q58 -28 80.5 -86t3.5 -137l-39 -170q-7 -30 6 -48t41 -18h215l-53 -227h-250q-129 0 -191 72t-34 192l36 166q12 55 -16 83.5t-96 51.5l-60 21l47 200l68 21q53 16 83.5 29t57 39.5t35.5 64.5l39 168
q28 119 123.5 191.5t224.5 72.5h250l-53 -227h-215q-28 0 -49 -18.5t-27 -47.5z" />
    <glyph glyph-name="braceright.case" horiz-adv-x="952" 
d="M893 786l-47 -200l-68 -21q-53 -16 -83.5 -29t-57 -39.5t-35.5 -64.5l-39 -168q-28 -119 -123.5 -191.5t-224.5 -72.5h-250l53 227h215q28 0 49 18.5t27 47.5l41 172q19 78 68 136.5t119 84.5q-58 28 -80.5 86t-3.5 137l39 170q7 30 -6.5 48t-41.5 18h-215l54 227h249
q129 0 191.5 -72t34.5 -192l-37 -166q-12 -55 16.5 -83t96.5 -52z" />
    <glyph glyph-name="bracketleft.case" horiz-adv-x="831" 
d="M549 1141l-209 -910h344l-53 -231h-604l315 1372h604l-53 -231h-344z" />
    <glyph glyph-name="bracketright.case" horiz-adv-x="831" 
d="M885 1372l-316 -1372h-604l53 231h344l209 910h-344l54 231h604z" />
    <glyph glyph-name="parenleft.case" horiz-adv-x="729" 
d="M592 1405l184 -184q-165 -119 -250 -246.5t-112 -290.5q-24 -158 16 -288t152 -267l-220 -164q-306 306 -239 719q67 419 469 721z" />
    <glyph glyph-name="parenright.case" horiz-adv-x="731" 
d="M227 1241l219 164q307 -307 240 -719q-67 -419 -469 -721l-184 185q166 119 250.5 246t111.5 290q24 158 -16 288t-152 267z" />
    <glyph glyph-name="emdash.case" horiz-adv-x="2129" 
d="M2021 573h-1884l47 205h1884z" />
    <glyph glyph-name="endash.case" horiz-adv-x="1269" 
d="M1161 573h-1024l47 205h1024z" />
    <glyph glyph-name="hyphen.case" horiz-adv-x="919" 
d="M805 559h-672l55 234h672z" />
    <glyph glyph-name="guillemotleft.case" horiz-adv-x="966" 
d="M115 659l313 365h266l-332 -377l146 -352h-248zM483 659l314 365h266l-332 -377l146 -352h-248z" />
    <glyph glyph-name="guillemotright.case" horiz-adv-x="966" 
d="M553 659l-313 -364h-267l332 377l-145 352h248zM922 659l-314 -364h-266l332 377l-146 352h248z" />
    <glyph glyph-name="guilsinglleft.case" horiz-adv-x="598" 
d="M86 659l313 365h267l-332 -377l145 -352h-248z" />
    <glyph glyph-name="guilsinglright.case" horiz-adv-x="598" 
d="M582 659l-314 -364h-266l332 377l-146 352h248z" />
    <glyph glyph-name="cent.tf" 
d="M776 786l-133 -563q142 25 213 172l258 -43q-67 -166 -205.5 -268t-308.5 -113l-55 -237h-228l62 262q-163 52 -246 189t-53 325q33 212 186 358.5t355 178.5l57 243h227l-59 -254q129 -34 215 -129t104 -231l-278 -51q-9 120 -111 161zM342 510q-13 -90 13 -157t87 -103
l127 538q-90 -29 -150 -102.5t-77 -175.5z" />
    <glyph glyph-name="dollar.tf" 
d="M778 791l6 -3q74 -27 126 -55t95 -67t64 -92t21 -121q0 -176 -133 -289t-347 -127l-55 -242h-225l61 258q-140 31 -230 119t-104 234l275 53q17 -125 125 -168l73 311q-45 15 -80 30t-76 42t-67.5 59t-44.5 80.5t-18 106.5q0 163 124.5 275t319.5 136l57 246h226
l-60 -252q138 -27 218.5 -116t99.5 -230l-262 -55q-6 122 -117 168zM516 950q0 -60 74 -92l57 238q-59 -19 -95 -58t-36 -88zM719 541l-64 -269q87 10 131.5 51.5t44.5 104.5q0 42 -24.5 65.5t-87.5 47.5z" />
    <glyph glyph-name="Euro.tf" 
d="M649 229q162 0 291 260l272 -51q-86 -214 -247 -341.5t-357 -127.5q-197 0 -316 123.5t-138 351.5h-134l43 197h91q2 33 10 90h-78l43 195h82q79 227 244 352t381 125q198 0 317.5 -129.5t134.5 -351.5l-284 -48q-12 135 -68 203t-141 68q-94 0 -170 -56t-123 -163h405
l-78 -195h-383q-8 -57 -10 -90h365l-76 -197h-283q18 -107 72 -161t135 -54z" />
    <glyph glyph-name="florin.tf" 
d="M1128 1161q-145 0 -215 -168l-86 -207h308l-50 -221h-350l-227 -551q-142 -352 -469 -352q-123 0 -217 57l137 218q65 -21 115 -21q53 0 97 28t62 70l230 551h-215l49 221h256l104 250q75 182 204.5 273.5t293.5 91.5q80 0 154.5 -20t115.5 -50l-141 -221
q-28 24 -72 37.5t-84 13.5z" />
    <glyph glyph-name="sterling.tf" 
d="M1290 918l-252 -29q17 121 -28 195.5t-136 74.5q-108 0 -182.5 -68.5t-99.5 -172.5l-41 -179h348l-57 -252h-348l-56 -235h697l-58 -252h-1149l39 170l187 49l61 268h-174l57 252h174l41 179q52 221 206.5 353t371.5 132q212 0 323 -134t76 -351z" />
    <glyph glyph-name="yen.tf" 
d="M897 692h223l-49 -205h-317l-23 -102h318l-48 -205h-317l-41 -180h-278l41 180h-306l47 205h306l24 102h-307l49 205h209l-209 680h293l154 -602l430 602h334z" />
    <glyph glyph-name="approxequal.tf" 
d="M1190 934l-51 -223q-85 -39 -219 -39q-72 0 -135 14t-102.5 31t-101 31t-130.5 14q-169 0 -256 -60l51 222q94 61 256 61q87 0 163.5 -22.5t152 -45t159.5 -22.5q134 0 213 39zM1120 633l-51 -221q-90 -41 -219 -41q-72 0 -135 14.5t-102.5 31.5t-101 31.5t-130.5 14.5
q-165 0 -256 -60l51 222q94 61 256 61q87 0 163.5 -22.5t152 -45t159.5 -22.5q135 0 213 37z" />
    <glyph glyph-name="divide.tf" 
d="M715 1141q69 0 115.5 -47t46.5 -111q0 -66 -46 -111t-116 -45t-116 45t-46 111q0 64 46.5 111t115.5 47zM1102 506h-942l55 237h942zM549 424q69 0 115.5 -47t46.5 -111q0 -66 -46 -110.5t-116 -44.5t-116 44.5t-46 110.5q0 64 46.5 111t115.5 47z" />
    <glyph glyph-name="equal.tf" 
d="M1145 743h-942l55 236h942zM1051 338h-942l55 235h942z" />
    <glyph glyph-name="greater.tf" 
d="M762 688l-430 148l65 272l709 -293l-66 -287l-843 -288l65 295z" />
    <glyph glyph-name="greaterequal.tf" 
d="M791 827l-424 105l61 260l678 -250l-59 -262l-793 -248l61 285zM928 170h-735l55 236h735z" />
    <glyph glyph-name="less.tf" 
d="M549 659l430 -147l-66 -272l-708 292l65 287l844 289l-65 -295z" />
    <glyph glyph-name="lessequal.tf" 
d="M573 788l424 -104l-55 -256l-678 250l62 262l792 248l-69 -289zM205 406h735l-53 -236h-735z" />
    <glyph glyph-name="minus.tf" 
d="M1096 506h-942l55 237h942z" />
    <glyph glyph-name="multiply.tf" 
d="M803 616l217 -274l-184 -152l-220 277l-354 -285l-131 174l350 281l-213 270l187 152l215 -273l356 287l131 -174z" />
    <glyph glyph-name="notequal.tf" 
d="M825 743l-131 -170h412l-55 -235h-539l-111 -141h-239l110 141h-163l55 235h291l131 170h-383l55 236h510l117 149h239l-116 -149h192l-55 -236h-320z" />
    <glyph glyph-name="plus.tf" 
d="M1096 506h-353l-84 -361h-237l84 361h-352l55 237h350l84 361h238l-84 -361h354z" />
    <glyph glyph-name="plusminus.tf" 
d="M1192 915l-55 -235h-353l-69 -299h-238l70 299h-352l55 235h352l78 340h238l-78 -340h352zM92 236h942l-55 -236h-942z" />
    <glyph glyph-name="bar.case" horiz-adv-x="548" 
d="M266 -84h-260l356 1540h261z" />
    <glyph glyph-name="at.case" horiz-adv-x="1931" 
d="M1485 1055l-133 -580q-11 -49 19 -78.5t79 -29.5q56 0 105 43t79.5 109t48 140t17.5 140q0 156 -75 276.5t-207.5 186t-299.5 65.5q-166 0 -319 -61t-266 -165.5t-180.5 -251t-67.5 -308.5q0 -253 161 -415.5t414 -162.5q130 0 269 42.5t260 123.5l63 -139
q-125 -88 -290.5 -138.5t-325.5 -50.5q-209 0 -374.5 90.5t-259 254t-93.5 370.5q0 201 85 382t226.5 309t331.5 203t395 75q156 0 291 -49t231.5 -135.5t151.5 -209.5t55 -266q0 -62 -12.5 -129.5t-37 -137t-65 -131.5t-92 -110.5t-123 -77t-153.5 -28.5q-85 0 -140.5 32
t-76.5 89q-125 -119 -316 -119q-157 0 -253.5 96.5t-96.5 255.5q0 111 42 207t112 160t160 100.5t186 36.5q91 0 160 -37.5t108 -105.5l31 129h176zM918 391q108 0 195 81.5t87 209.5q0 94 -56 149.5t-140 55.5q-108 0 -194.5 -80t-86.5 -209q0 -95 56 -151t139 -56z" />
    <glyph glyph-name="caron.alt" horiz-adv-x="1228" 
d="M766 924h-213l94 407h273z" />
    </font>
</defs>
</svg>
